  0
SECTION
  2
HEADER
  9
$ACADVER
  1
AC1024
  9
$DWGCODEPAGE
  3
ANSI_1252
  9
$EXTMAX
 10
297.0
 20
210.0
 30
0.0
  9
$EXTMIN
 10
0.0
 20
0.0
 30
0.0
  9
$LIMMIN
 10
0.0
 20
0.0
  9
$LIMMAX
 10
297.0
 20
210.0
  9
$VIEWCTR
 10
148.5
 20
105.0
  9
$VIEWSIZE
 40
210.0
  9
$CLAYER
  8
0
  9
$LTSCALE
 40
16.335
  9
$CELTYPE
  6
BYLAYER
  9
$DIMSCALE
 40
1.0
  9
$DIMASZ
 40
3.0
  9
$DIMEXO
 40
0.5
  9
$DIMDLI
 40
11.286
  9
$DIMEXE
 40
1.5
  9
$DIMCEN
 40
2.673
  9
$DIMLFAC
 40
1.0
  9
$DIMBLK
  1
_FILLED
  9
$DIMALT
 70
0
  9
$DIMALTF
 40
0.0393700787
  9
$DIMTXT
 40
3.0
  9
$DIMTOL
 70
1
  9
$DIMLIM
 70
0
  9
$DIMTFAC
 40
1.0
  9
$DIMTP
 40
0.01
  9
$DIMTM
 40
0.01
  9
$DIMGAP
 40
0.625
  9
$DIMDSEP
 70
44
  9
$AUNITS
 70
0
  9
$PDMODE
 70
3
  9
$PDSIZE
 40
3.0
  9
$HANDSEED
  5
686
  9
$TILEMODE
 70
1
  9
$MEASUREMENT
 70
1
  9
$INSUNITS
 70
4
  0
ENDSEC
  0
SECTION
  2
CLASSES
  0
CLASS
  1
ACDBDICTIONARYWDFLT
  2
AcDbDictionaryWithDefault
  3
AutoCAD 2000
 90
0
 91
1
280
0
281
0
  0
CLASS
  1
ACDBPLACEHOLDER
  2
AcDbPlaceHolder
  3
AutoCAD 2000
 90
0
 91
1
280
0
281
0
  0
CLASS
  1
LAYOUT
  2
AcDbLayout
  3
AutoCAD 2000
 90
0
 91
0
280
0
281
0
  0
ENDSEC
  0
SECTION
  2
TABLES
  0
TABLE
  2
VPORT
  5
8
100
AcDbSymbolTable
 70
2
  0
VPORT
  5
1F4
100
AcDbSymbolTableRecord
100
AcDbViewportTableRecord
  2
*ACTIVE
 70
0
 10
0.0
 20
0.0
 11
1.0
 21
1.0
 12
148.5
 22
105.0
 13
0.0
 23
0.0
 14
1.0
 24
1.0
 15
0.0
 25
0.0
 16
0.0
 26
0.0
 36
1.0
 17
0.0
 27
0.0
 37
0.0
 40
210.0
 41
1.4142857143
 42
50.0
 43
0.0
 44
0.0
 50
0.0
 51
0.0
 71
0
 72
100
 73
1
 74
1
 75
0
 76
0
 77
0
 78
0
  0
ENDTAB
  0
TABLE
  2
LTYPE
  5
5
100
AcDbSymbolTable
 70
6
  0
LTYPE
  5
14
100
AcDbSymbolTableRecord
100
AcDbLinetypeTableRecord
  2
BYBLOCK
 70
0
  3

 72
65
 73
0
 40
0.0
  0
LTYPE
  5
15
100
AcDbSymbolTableRecord
100
AcDbLinetypeTableRecord
  2
BYLAYER
 70
0
  3

 72
65
 73
0
 40
0.0
  0
LTYPE
  5
16
100
AcDbSymbolTableRecord
100
AcDbLinetypeTableRecord
  2
CONTINUOUS
 70
64
  3
Solid line
 72
65
 73
0
 40
0.0
  0
LTYPE
  5
1F5
100
AcDbSymbolTableRecord
100
AcDbLinetypeTableRecord
  2
CENTER
 70
64
  3
____ _ ____ _ ____ _ ____ _ ____ _ ____ _ ____
 72
65
 73
4
 40
0.6
 49
0.375
 74
0
 49
-0.075
 74
0
 49
0.075
 74
0
 49
-0.075
 74
0
  0
LTYPE
  5
1F6
100
AcDbSymbolTableRecord
100
AcDbLinetypeTableRecord
  2
HIDDEN
 70
64
  3
- - - - - - - - - - - - - - - - - - - -
 72
65
 73
2
 40
0.2
 49
0.1
 74
0
 49
-0.1
 74
0
  0
LTYPE
  5
1F7
100
AcDbSymbolTableRecord
100
AcDbLinetypeTableRecord
  2
PHANTOM
 70
64
  3
_____ _ _ _____ _ _ _____ _ _ _____
 72
65
 73
6
 40
0.8
 49
0.45
 74
0
 49
-0.05
 74
0
 49
0.1
 74
0
 49
-0.05
 74
0
 49
0.1
 74
0
 49
-0.05
 74
0
  0
LTYPE
  5
1F8
100
AcDbSymbolTableRecord
100
AcDbLinetypeTableRecord
  2
DOT
 70
64
  3
. . . . . . . . . . . . . . . . . . . .
 72
65
 73
2
 40
0.2
 49
0.1
 74
0
 49
-0.1
 74
0
  0
LTYPE
  5
1F9
100
AcDbSymbolTableRecord
100
AcDbLinetypeTableRecord
  2
DASHED
 70
64
  3
- - - - - - - - - - - - - - - - - - - -
 72
65
 73
2
 40
0.2
 49
0.1
 74
0
 49
-0.1
 74
0
  0
ENDTAB
  0
TABLE
  2
LAYER
  5
2
100
AcDbSymbolTable
 70
36
  0
LAYER
  5
10
100
AcDbSymbolTableRecord
100
AcDbLayerTableRecord
  2
0
 70
0
 62
7
  6
CONTINUOUS
370
-3
390
F
  0
LAYER
  5
1FA
100
AcDbSymbolTableRecord
100
AcDbLayerTableRecord
  2
DEFAULT_1
 70
0
 62
7
  6
CENTER
370
-3
390
F
  0
LAYER
  5
1FB
100
AcDbSymbolTableRecord
100
AcDbLayerTableRecord
  2
DEFAULT_2
 70
0
 62
7
  6
HIDDEN
370
-3
390
F
  0
LAYER
  5
1FC
100
AcDbSymbolTableRecord
100
AcDbLayerTableRecord
  2
DEFAULT_3
 70
0
 62
7
  6
PHANTOM
370
-3
390
F
  0
LAYER
  5
1FD
100
AcDbSymbolTableRecord
100
AcDbLayerTableRecord
  2
ASSI
 70
0
 62
7
  6
CONTINUOUS
370
-3
390
F
  0
LAYER
  5
1FE
100
AcDbSymbolTableRecord
100
AcDbLayerTableRecord
  2
COORDINATE
 70
0
 62
7
  6
CONTINUOUS
370
-3
390
F
  0
LAYER
  5
1FF
100
AcDbSymbolTableRecord
100
AcDbLayerTableRecord
  2
COORD_ORIGINE
 70
0
 62
7
  6
CONTINUOUS
370
-3
390
F
  0
LAYER
  5
200
100
AcDbSymbolTableRecord
100
AcDbLayerTableRecord
  2
CORPO
 70
0
 62
7
  6
CONTINUOUS
370
-3
390
F
  0
LAYER
  5
201
100
AcDbSymbolTableRecord
100
AcDbLayerTableRecord
  2
COSMETICHE
 70
0
 62
7
  6
CONTINUOUS
370
-3
390
F
  0
LAYER
  5
202
100
AcDbSymbolTableRecord
100
AcDbLayerTableRecord
  2
CURVE
 70
0
 62
7
  6
CONTINUOUS
370
-3
390
F
  0
LAYER
  5
203
100
AcDbSymbolTableRecord
100
AcDbLayerTableRecord
  2
DRAFT
 70
0
 62
7
  6
CONTINUOUS
370
-3
390
F
  0
LAYER
  5
204
100
AcDbSymbolTableRecord
100
AcDbLayerTableRecord
  2
IGES
 70
0
 62
7
  6
CONTINUOUS
370
-3
390
F
  0
LAYER
  5
205
100
AcDbSymbolTableRecord
100
AcDbLayerTableRecord
  2
INTF_1
 70
0
 62
7
  6
CONTINUOUS
370
-3
390
F
  0
LAYER
  5
206
100
AcDbSymbolTableRecord
100
AcDbLayerTableRecord
  2
INTF_11
 70
0
 62
7
  6
CONTINUOUS
370
-3
390
F
  0
LAYER
  5
207
100
AcDbSymbolTableRecord
100
AcDbLayerTableRecord
  2
INTF_2
 70
0
 62
7
  6
CONTINUOUS
370
-3
390
F
  0
LAYER
  5
208
100
AcDbSymbolTableRecord
100
AcDbLayerTableRecord
  2
NOTE
 70
0
 62
7
  6
CONTINUOUS
370
-3
390
F
  0
LAYER
  5
209
100
AcDbSymbolTableRecord
100
AcDbLayerTableRecord
  2
PIANI
 70
0
 62
7
  6
CONTINUOUS
370
-3
390
F
  0
LAYER
  5
20A
100
AcDbSymbolTableRecord
100
AcDbLayerTableRecord
  2
PIANI_ORIGINE
 70
0
 62
7
  6
CONTINUOUS
370
-3
390
F
  0
LAYER
  5
20B
100
AcDbSymbolTableRecord
100
AcDbLayerTableRecord
  2
PIANI_RIFERIMENTO
 70
0
 62
7
  6
CONTINUOUS
370
-3
390
F
  0
LAYER
  5
20C
100
AcDbSymbolTableRecord
100
AcDbLayerTableRecord
  2
PIANI_SFORMI
 70
0
 62
7
  6
CONTINUOUS
370
-3
390
F
  0
LAYER
  5
20D
100
AcDbSymbolTableRecord
100
AcDbLayerTableRecord
  2
PUNTI
 70
0
 62
7
  6
CONTINUOUS
370
-3
390
F
  0
LAYER
  5
20E
100
AcDbSymbolTableRecord
100
AcDbLayerTableRecord
  2
RACCORDO
 70
0
 62
7
  6
CONTINUOUS
370
-3
390
F
  0
LAYER
  5
20F
100
AcDbSymbolTableRecord
100
AcDbLayerTableRecord
  2
SMUSSO
 70
0
 62
7
  6
CONTINUOUS
370
-3
390
F
  0
LAYER
  5
210
100
AcDbSymbolTableRecord
100
AcDbLayerTableRecord
  2
SNAPLINE
 70
0
 62
7
  6
CONTINUOUS
370
-3
390
F
  0
LAYER
  5
211
100
AcDbSymbolTableRecord
100
AcDbLayerTableRecord
  2
SUPERFICI
 70
0
 62
7
  6
CONTINUOUS
370
-3
390
F
  0
LAYER
  5
212
100
AcDbSymbolTableRecord
100
AcDbLayerTableRecord
  2
TRASH
 70
0
 62
7
  6
CONTINUOUS
370
-3
390
F
  0
LAYER
  5
213
100
AcDbSymbolTableRecord
100
AcDbLayerTableRecord
  2
XSEC_DATUMS
 70
0
 62
7
  6
CONTINUOUS
370
-3
390
F
  0
ENDTAB
  0
TABLE
  2
STYLE
  5
3
100
AcDbSymbolTable
 70
1
  0
STYLE
  5
11
100
AcDbSymbolTableRecord
100
AcDbTextStyleTableRecord
  2
STANDARD
 70
0
 40
0.0
 41
0.8
 50
0.0
 71
0
 42
0.2
  3
txt
  4

  0
STYLE
  5
214
100
AcDbSymbolTableRecord
100
AcDbTextStyleTableRecord
  2
TEXTSTYLE_1
 70
0
 40
0.0
 41
0.8
 50
0.0
 71
0
 42
0.2
  3
gdt
  4

  0
ENDTAB
  0
TABLE
  2
VIEW
  5
6
100
AcDbSymbolTable
 70
0
  0
ENDTAB
  0
TABLE
  2
UCS
  5
7
100
AcDbSymbolTable
 70
0
  0
ENDTAB
  0
TABLE
  2
APPID
  5
9
100
AcDbSymbolTable
 70
1
  0
APPID
  5
215
100
AcDbSymbolTableRecord
100
AcDbRegAppTableRecord
  2
ACAD
 70
0
  0
ENDTAB
  0
TABLE
  2
BLOCK_RECORD
  5
1
100
AcDbSymbolTable
 70
0
  0
BLOCK_RECORD
  5
216
100
AcDbSymbolTableRecord
100
AcDbBlockTableRecord
  2
*Model_Space
  0
BLOCK_RECORD
  5
217
100
AcDbSymbolTableRecord
100
AcDbBlockTableRecord
  2
*Paper_Space
  0
BLOCK_RECORD
  5
218
100
AcDbSymbolTableRecord
100
AcDbBlockTableRecord
  2
_FILLED
  0
BLOCK_RECORD
  5
219
100
AcDbSymbolTableRecord
100
AcDbBlockTableRecord
  2
*D0
  0
BLOCK_RECORD
  5
21A
100
AcDbSymbolTableRecord
100
AcDbBlockTableRecord
  2
*D1
  0
BLOCK_RECORD
  5
21B
100
AcDbSymbolTableRecord
100
AcDbBlockTableRecord
  2
*D2
  0
BLOCK_RECORD
  5
21C
100
AcDbSymbolTableRecord
100
AcDbBlockTableRecord
  2
*D3
  0
ENDTAB
  0
TABLE
  2
DIMSTYLE
  5
A
100
AcDbSymbolTable
 70
1
100
AcDbDimStyleTable
 71
0
  0
DIMSTYLE
105
21D
100
AcDbSymbolTableRecord
100
AcDbDimStyleTableRecord
  2
STANDARD
 70
0
  3

  4

 40
1.0
 41
3.0
 42
0.5
 43
0.38
 44
1.5
 45
0.0
 46
0.0
 47
0.01
 48
0.01
140
3.0
141
0.09
142
0.0
143
25.4
144
1.0
145
0.0
146
1.0
147
0.625
 71
1
 72
0
 73
0
 74
0
 75
0
 76
0
 77
1
 78
8
 79
2
170
0
171
1
172
0
173
0
174
0
175
0
176
0
177
0
178
0
270
2
179
2
271
2
272
2
273
2
274
2
275
0
280
0
281
0
282
0
283
1
284
8
285
0
286
0
287
3
288
0
340
11
278
44
341
218
342
218
343
218
344
218
  0
DIMSTYLE
105
21E
100
AcDbSymbolTableRecord
100
AcDbDimStyleTableRecord
  2
DIMSTYLE_1
 70
0
  3

  4

 40
1.0
 41
3.0
 42
0.5
 43
0.38
 44
1.5
 45
0.0
 46
0.0
 47
0.0
 48
0.0
140
3.0
141
0.09
142
0.0
143
25.4
144
1.0
145
0.0
146
1.0
147
0.75
 71
0
 72
0
 73
0
 74
0
 75
0
 76
0
 77
1
 78
8
 79
2
170
0
171
1
172
0
173
0
174
0
175
0
176
0
177
0
178
0
270
2
179
2
271
1
272
1
273
2
274
2
275
0
280
0
281
0
282
0
283
1
284
8
285
0
286
0
287
3
288
0
340
11
278
44
341
218
342
218
343
218
344
218
  0
DIMSTYLE
105
21F
100
AcDbSymbolTableRecord
100
AcDbDimStyleTableRecord
  2
DIMSTYLE_2
 70
0
  3

  4

 40
1.0
 41
3.0
 42
0.5
 43
0.38
 44
1.5
 45
0.0
 46
0.0
 47
0.0
 48
0.0
140
3.0
141
0.09
142
0.0
143
25.4
144
1.0
145
0.0
146
1.0
147
0.75
 71
0
 72
0
 73
0
 74
0
 75
0
 76
0
 77
1
 78
8
 79
2
170
0
171
1
172
0
173
0
174
0
175
0
176
0
177
0
178
0
270
2
179
2
271
2
272
2
273
2
274
2
275
0
280
0
281
0
282
0
283
1
284
8
285
0
286
0
287
3
288
0
340
11
278
44
341
218
342
218
343
218
344
218
  0
ENDTAB
  0
ENDSEC
  0
SECTION
  2
BLOCKS
  0
BLOCK
  5
20
100
AcDbEntity
  8
0
100
AcDbBlockBegin
  2
*Model_Space
 70
0
 10
0.0
 20
0.0
 30
0.0
  3
*Model_Space
  1

  0
ENDBLK
  5
21
100
AcDbEntity
  8
0
100
AcDbBlockEnd
  0
BLOCK
  5
1C
100
AcDbEntity
  8
0
100
AcDbBlockBegin
  2
*Paper_Space
 70
0
 10
0.0
 20
0.0
 30
0.0
  3
*Paper_Space
  1

  0
ENDBLK
  5
1D
100
AcDbEntity
  8
0
100
AcDbBlockEnd
  0
BLOCK
  5
220
100
AcDbEntity
  8
0
100
AcDbBlockBegin
  2
_FILLED
 70
64
 10
0.0
 20
0.0
  3
_FILLED
  1

  0
SOLID
  5
221
100
AcDbEntity
  8
0
  6
BYBLOCK
 62
0
100
AcDbTrace
 10
0.0
 20
0.0
 11
-1.0
 21
0.3166666667
 12
-1.0
 22
-0.3166666667
 13
-1.0
 23
-0.3166666667
  0
ENDBLK
  5
222
100
AcDbEntity
  8
0
  6
BYBLOCK
 62
0
100
AcDbBlockEnd
  0
BLOCK
  5
223
100
AcDbEntity
  8
0
100
AcDbBlockBegin
 62
7
  6
CONTINUOUS
  2
*D0
 70
65
 10
0.0
 20
0.0
  3
*D0
  1

  0
LINE
  5
224
100
AcDbEntity
  8
0
100
AcDbLine
 62
7
  6
CONTINUOUS
 10
17.5170397999
 20
15.1501233097
 11
17.5170397999
 21
44.0
  0
LINE
  5
225
100
AcDbEntity
  8
0
100
AcDbLine
 62
7
  6
CONTINUOUS
 10
-19.9916863937
 20
0.4999983887
 11
-19.9916863937
 21
44.0
  0
LINE
  5
226
100
AcDbEntity
  8
0
100
AcDbLine
 62
7
  6
CONTINUOUS
 10
17.5170397999
 20
42.5
 11
-1.2373232969
 21
42.5
  0
LINE
  5
227
100
AcDbEntity
  8
0
100
AcDbLine
 62
7
  6
CONTINUOUS
 10
-19.9916863937
 20
42.5
 11
-1.2373232969
 21
42.5
  0
INSERT
  5
228
100
AcDbEntity
  8
0
100
AcDbBlockReference
 62
7
  6
CONTINUOUS
  2
_FILLED
 10
17.5170397999
 20
42.5
 41
3.0
 42
3.0
 43
3.0
 50
0.0
  0
INSERT
  5
229
100
AcDbEntity
  8
0
100
AcDbBlockReference
 62
7
  6
CONTINUOUS
  2
_FILLED
 10
-19.9916863937
 20
42.5
 41
3.0
 42
3.0
 43
3.0
 50
180.0
  0
ENDBLK
  5
22A
100
AcDbEntity
  8
0
  6
BYBLOCK
 62
0
100
AcDbBlockEnd
  0
BLOCK
  5
22B
100
AcDbEntity
  8
0
100
AcDbBlockBegin
 62
7
  6
CONTINUOUS
  2
*D1
 70
65
 10
0.0
 20
0.0
  3
*D1
  1

  0
LINE
  5
22C
100
AcDbEntity
  8
0
100
AcDbLine
 62
7
  6
CONTINUOUS
 10
-9.4829602001
 20
21.35
 11
-9.4829602001
 21
34.0
  0
LINE
  5
22D
100
AcDbEntity
  8
0
100
AcDbLine
 62
7
  6
CONTINUOUS
 10
17.5170397999
 20
14.7609866986
 11
17.5170397999
 21
34.0
  0
LINE
  5
22E
100
AcDbEntity
  8
0
100
AcDbLine
 62
7
  6
CONTINUOUS
 10
-9.4829602001
 20
32.5
 11
4.0170397999
 21
32.5
  0
LINE
  5
22F
100
AcDbEntity
  8
0
100
AcDbLine
 62
7
  6
CONTINUOUS
 10
17.5170397999
 20
32.5
 11
4.0170397999
 21
32.5
  0
INSERT
  5
230
100
AcDbEntity
  8
0
100
AcDbBlockReference
 62
7
  6
CONTINUOUS
  2
_FILLED
 10
-9.4829602001
 20
32.5
 41
3.0
 42
3.0
 43
3.0
 50
180.0
  0
INSERT
  5
231
100
AcDbEntity
  8
0
100
AcDbBlockReference
 62
7
  6
CONTINUOUS
  2
_FILLED
 10
17.5170397999
 20
32.5
 41
3.0
 42
3.0
 43
3.0
  0
ENDBLK
  5
232
100
AcDbEntity
  8
0
  6
BYBLOCK
 62
0
100
AcDbBlockEnd
  0
BLOCK
  5
233
100
AcDbEntity
  8
0
100
AcDbBlockBegin
 62
7
  6
CONTINUOUS
  2
*D2
 70
65
 10
0.0
 20
0.0
  3
*D2
  1

  0
LINE
  5
234
100
AcDbEntity
  8
0
100
AcDbLine
 62
7
  6
CONTINUOUS
 10
33.5367792833
 20
22.3997711479
 11
33.5367792833
 21
34.0
  0
LINE
  5
235
100
AcDbEntity
  8
0
100
AcDbLine
 62
7
  6
CONTINUOUS
 10
55.8367792833
 20
22.3997711479
 11
55.8367792833
 21
34.0
  0
LINE
  5
236
100
AcDbEntity
  8
0
100
AcDbLine
 62
7
  6
CONTINUOUS
 10
33.5367792833
 20
32.5
 11
44.6867792833
 21
32.5
  0
LINE
  5
237
100
AcDbEntity
  8
0
100
AcDbLine
 62
7
  6
CONTINUOUS
 10
55.8367792833
 20
32.5
 11
44.6867792833
 21
32.5
  0
INSERT
  5
238
100
AcDbEntity
  8
0
100
AcDbBlockReference
 62
7
  6
CONTINUOUS
  2
_FILLED
 10
33.5367792833
 20
32.5
 41
3.0
 42
3.0
 43
3.0
 50
180.0
  0
INSERT
  5
239
100
AcDbEntity
  8
0
100
AcDbBlockReference
 62
7
  6
CONTINUOUS
  2
_FILLED
 10
55.8367792833
 20
32.5
 41
3.0
 42
3.0
 43
3.0
  0
ENDBLK
  5
23A
100
AcDbEntity
  8
0
  6
BYBLOCK
 62
0
100
AcDbBlockEnd
  0
BLOCK
  5
23B
100
AcDbEntity
  8
0
100
AcDbBlockBegin
 62
7
  6
CONTINUOUS
  2
*D3
 70
65
 10
0.0
 20
0.0
  3
*D3
  1

  0
LINE
  5
23C
100
AcDbEntity
  8
0
100
AcDbLine
 62
7
  6
CONTINUOUS
 10
55.5736849354
 20
24.4869014213
 11
67.1867792833
 21
24.4869014213
  0
LINE
  5
23D
100
AcDbEntity
  8
0
100
AcDbLine
 62
7
  6
CONTINUOUS
 10
55.5736849354
 20
-24.4869014213
 11
67.1867792833
 21
-24.4869014213
  0
LINE
  5
23E
100
AcDbEntity
  8
0
100
AcDbLine
 62
7
  6
CONTINUOUS
 10
65.6867792833
 20
24.4869014213
 11
65.6867792833
 21
0.0
  0
LINE
  5
23F
100
AcDbEntity
  8
0
100
AcDbLine
 62
7
  6
CONTINUOUS
 10
65.6867792833
 20
-24.4869014213
 11
65.6867792833
 21
0.0
  0
INSERT
  5
240
100
AcDbEntity
  8
0
100
AcDbBlockReference
 62
7
  6
CONTINUOUS
  2
_FILLED
 10
65.6867792833
 20
24.4869014213
 41
3.0
 42
3.0
 43
3.0
 50
90.0
  0
INSERT
  5
241
100
AcDbEntity
  8
0
100
AcDbBlockReference
 62
7
  6
CONTINUOUS
  2
_FILLED
 10
65.6867792833
 20
-24.4869014213
 41
3.0
 42
3.0
 43
3.0
 50
270.0
  0
ENDBLK
  5
242
100
AcDbEntity
  8
0
  6
BYBLOCK
 62
0
100
AcDbBlockEnd
  0
ENDSEC
  0
SECTION
  2
ENTITIES
  0
DIMENSION
  5
243
100
AcDbEntity
  8
0
100
AcDbDimension
 62
7
  6
CONTINUOUS
  2
*D0
 10
-19.9916863937
 20
42.5
 11
-5.4158947255
 21
42.5
 70
160
 71
2
 72
2
 41
0.9
 42
37.5087261936
  3
DIMSTYLE_1
100
AcDbAlignedDimension
 13
17.5170397999
 23
14.6501233097
 14
-19.9916863937
 24
-0.0000016113
 50
180.0
100
AcDbRotatedDimension
  0
DIMENSION
  5
244
100
AcDbEntity
  8
0
100
AcDbDimension
 62
7
  6
CONTINUOUS
  2
*D1
 10
17.5170397999
 20
32.5
 11
1.6598969427
 21
32.5
 70
160
 71
2
 72
2
 41
0.9
 42
27.0
  3
DIMSTYLE_2
100
AcDbAlignedDimension
 13
-9.4829602001
 23
20.85
 14
17.5170397999
 24
14.2609866986
100
AcDbRotatedDimension
  0
DIMENSION
  5
245
100
AcDbEntity
  8
0
100
AcDbDimension
 62
7
  6
CONTINUOUS
  2
*D2
 10
55.8367792833
 20
32.5
 11
40.4010649976
 21
32.5
 70
160
 71
2
 72
2
 41
0.9
 42
22.3
  3
DIMSTYLE_2
100
AcDbAlignedDimension
 13
33.5367792833
 23
21.8997711479
 14
55.8367792833
 24
21.8997711479
100
AcDbRotatedDimension
  0
DIMENSION
  5
246
100
AcDbEntity
  8
0
100
AcDbDimension
 62
7
  6
CONTINUOUS
  2
*D3
 10
65.6867792833
 20
-24.4869014213
 11
65.6867792833
 21
-2.3571428571
 70
160
 71
2
 72
2
 41
0.9
 42
48.9738028426
  3
DIMSTYLE_1
100
AcDbAlignedDimension
 13
55.0736849354
 23
24.4869014213
 14
55.0736849354
 24
-24.4869014213
 50
270.0
100
AcDbRotatedDimension
  0
LWPOLYLINE
  5
247
100
AcDbEntity
  8
0
100
AcDbPolyline
 62
7
  6
CONTINUOUS
 90
5
 70
0
 43
0.3500000006
 10
-4.5587518444
 20
44.9642842255
 10
-4.2016089592
 20
45.1785732422
 10
-4.2016089592
 20
45.8214266968
 10
-4.5587518444
 20
46.2500001984
 10
-5.4158948822
 20
46.2500001984
  0
LWPOLYLINE
  5
248
100
AcDbEntity
  8
RACCORDO
100
AcDbPolyline
 62
7
  6
CONTINUOUS
 90
3
 70
0
 10
-12.4816093252
 20
23.123528707
 10
-12.4826206957
 20
23.1229033082
 10
-12.4829602001
 20
23.1226497308
  0
LINE
  5
249
100
AcDbEntity
  8
RACCORDO
100
AcDbLine
 62
7
  6
CONTINUOUS
 10
-12.4746662022
 20
23.1276610792
 11
-12.4816093252
 21
23.123528707
  0
LINE
  5
24A
100
AcDbEntity
  8
RACCORDO
100
AcDbLine
 62
7
  6
CONTINUOUS
 10
-12.4237857504
 20
23.1573625195
 11
-12.4746662022
 21
23.1276610792
  0
LINE
  5
24B
100
AcDbEntity
  8
RACCORDO
100
AcDbLine
 62
250
  6
CONTINUOUS
 10
-10.9829602001
 20
23.4104851482
 11
-10.2315057673
 21
23.8443375673
  0
LINE
  5
24C
100
AcDbEntity
  8
RACCORDO
100
AcDbLine
 62
7
  6
CONTINUOUS
 10
-10.9829602001
 20
23.1226497308
 11
-9.9829602001
 21
23.7
  0
LINE
  5
24D
100
AcDbEntity
  8
RACCORDO
100
AcDbLine
 62
7
  6
CONTINUOUS
 10
-12.2344146329
 20
23.2669872981
 11
-12.4237857504
 21
23.1573625195
  0
LINE
  5
24E
100
AcDbEntity
  8
RACCORDO
100
AcDbLine
 62
250
  6
CONTINUOUS
 10
-10.2315057673
 20
-23.8443375673
 11
-10.9829602001
 21
-23.4104851482
  0
LINE
  5
24F
100
AcDbEntity
  8
RACCORDO
100
AcDbLine
 62
7
  6
CONTINUOUS
 10
-10.1079602001
 20
-23.6278312164
 11
-10.9829602001
 21
-23.1226497308
  0
LINE
  5
250
100
AcDbEntity
  8
RACCORDO
100
AcDbLine
 62
7
  6
CONTINUOUS
 10
-12.2344146329
 20
-23.2669872981
 11
-12.3808042894
 21
-23.182312533
  0
LINE
  5
251
100
AcDbEntity
  8
RACCORDO
100
AcDbLine
 62
7
  6
CONTINUOUS
 10
-12.3808042894
 20
-23.182312533
 11
-12.4670301363
 21
-23.1321470947
  0
LINE
  5
252
100
AcDbEntity
  8
RACCORDO
100
AcDbLine
 62
7
  6
CONTINUOUS
 10
-12.4670301363
 20
-23.1321470947
 11
-12.4776378207
 21
-23.1259025536
  0
LWPOLYLINE
  5
253
100
AcDbEntity
  8
RACCORDO
100
AcDbPolyline
 62
7
  6
CONTINUOUS
 90
5
 70
0
 10
-12.4776378207
 20
-23.1259025536
 10
-12.4799539452
 20
-23.1245164325
 10
-12.4816168294
 20
-23.1234933505
 10
-12.4826228629
 20
-23.1228641607
 10
-12.4829602001
 20
-23.1226497308
  0
LINE
  5
254
100
AcDbEntity
  8
RACCORDO
100
AcDbLine
 62
250
  6
CONTINUOUS
 10
-13.3500767696
 20
23.6423869945
 11
-13.3539976228
 21
23.6353454907
  0
LINE
  5
255
100
AcDbEntity
  8
RACCORDO
100
AcDbLine
 62
250
  6
CONTINUOUS
 10
-13.3384556908
 20
23.6629839239
 11
-13.3500767696
 21
23.6423869945
  0
LINE
  5
256
100
AcDbEntity
  8
RACCORDO
100
AcDbLine
 62
250
  6
CONTINUOUS
 10
-13.2966016473
 20
23.7362866999
 11
-13.3384556908
 21
23.6629839239
  0
LINE
  5
257
100
AcDbEntity
  8
RACCORDO
100
AcDbLine
 62
250
  6
CONTINUOUS
 10
-13.2344146329
 20
23.8443375673
 11
-13.2966016473
 21
23.7362866999
  0
LINE
  5
258
100
AcDbEntity
  8
RACCORDO
100
AcDbLine
 62
7
  6
CONTINUOUS
 10
-10.2315057673
 20
-24.495628166
 11
-10.9829602001
 21
-24.5
  0
LINE
  5
259
100
AcDbEntity
  8
RACCORDO
100
AcDbLine
 62
250
  6
CONTINUOUS
 10
-10.2315057673
 20
-24.2456323968
 11
-10.9829602001
 21
-24.2500042308
  0
LINE
  5
25A
100
AcDbEntity
  8
ASSI
100
AcDbLine
 62
7
  6
CONTINUOUS
 10
-9.9880515685
 20
-23.7942117909
 11
-3.4800513344
 21
-23.7563493531
  0
LINE
  5
25B
100
AcDbEntity
  8
RACCORDO
100
AcDbLine
 62
250
  6
CONTINUOUS
 10
-9.9829602001
 20
-24.2456323968
 11
-10.2315057673
 21
-24.2456323968
  0
LINE
  5
25C
100
AcDbEntity
  8
RACCORDO
100
AcDbLine
 62
250
  6
CONTINUOUS
 10
-13.4829602001
 20
-24.2369056521
 11
-13.2344146329
 21
-24.2369056521
  0
LINE
  5
25D
100
AcDbEntity
  8
RACCORDO
100
AcDbLine
 62
250
  6
CONTINUOUS
 10
-13.4829602001
 20
-23.8443375673
 11
-13.2344146329
 21
-23.8443375673
  0
LINE
  5
25E
100
AcDbEntity
  8
RACCORDO
100
AcDbLine
 62
250
  6
CONTINUOUS
 10
-9.9829602001
 20
-23.8443375673
 11
-10.2315057673
 21
-23.8443375673
  0
LINE
  5
25F
100
AcDbEntity
  8
RACCORDO
100
AcDbLine
 62
7
  6
CONTINUOUS
 10
-10.9829602001
 20
-24.5
 11
-13.2344146329
 21
-24.4869014213
  0
LINE
  5
260
100
AcDbEntity
  8
RACCORDO
100
AcDbLine
 62
250
  6
CONTINUOUS
 10
-10.9829602001
 20
-24.2500042308
 11
-13.2344146329
 21
-24.2369056521
  0
LINE
  5
261
100
AcDbEntity
  8
RACCORDO
100
AcDbLine
 62
250
  6
CONTINUOUS
 10
-13.2344146329
 20
-23.8443375673
 11
-13.2966136384
 21
-23.7362657898
  0
LINE
  5
262
100
AcDbEntity
  8
RACCORDO
100
AcDbLine
 62
250
  6
CONTINUOUS
 10
-13.2966136384
 20
-23.7362657898
 11
-13.3384597066
 21
-23.6629768418
  0
LINE
  5
263
100
AcDbEntity
  8
RACCORDO
100
AcDbLine
 62
250
  6
CONTINUOUS
 10
-13.3384597066
 20
-23.6629768418
 11
-13.3500783581
 21
-23.6423841576
  0
LWPOLYLINE
  5
264
100
AcDbEntity
  8
RACCORDO
100
AcDbPolyline
 62
250
  6
CONTINUOUS
 90
7
 70
0
 10
-13.3500783581
 20
-23.6423841576
 10
-13.3539984155
 20
-23.6353440559
 10
-13.3554651031
 20
-23.6326756587
 10
-13.3565972554
 20
-23.6305852658
 10
-13.3573917808
 20
-23.6290785857
 10
-13.3578465097
 20
-23.6281597328
 10
-13.3579602001
 20
-23.6278312164
  0
LWPOLYLINE
  5
265
100
AcDbEntity
  8
RACCORDO
100
AcDbPolyline
 62
250
  6
CONTINUOUS
 90
6
 70
0
 10
-13.3539976228
 20
23.6353454907
 10
-13.3554645976
 20
23.6326765842
 10
-13.3565969737
 20
23.6305857918
 10
-13.3573916592
 20
23.6290788219
 10
-13.357846482
 20
23.6281597935
 10
-13.3579602001
 20
23.6278312164
  0
LINE
  5
266
100
AcDbEntity
  8
0
100
AcDbLine
 62
7
  6
CONTINUOUS
 10
-10.9829602001
 20
-22.4
 11
-9.9829602001
 21
-22.3912731322
  0
LINE
  5
267
100
AcDbEntity
  8
RACCORDO
100
AcDbLine
 62
7
  6
CONTINUOUS
 10
-0.5742336646
 20
-22.3091644197
 11
-9.9829602001
 21
-22.3912731322
  0
LINE
  5
268
100
AcDbEntity
  8
0
100
AcDbLine
 62
250
  6
CONTINUOUS
 10
-10.9829602001
 20
-21.9000571132
 11
-9.9829602001
 21
-21.8913302454
  0
LINE
  5
269
100
AcDbEntity
  8
RACCORDO
100
AcDbLine
 62
7
  6
CONTINUOUS
 10
-0.0742339969
 20
-21.4383257263
 11
-9.9829602001
 21
-21.3876583452
  0
LINE
  5
26A
100
AcDbEntity
  8
0
100
AcDbLine
 62
7
  6
CONTINUOUS
 10
-12.320112515
 20
-22.3299228166
 11
-12.2344146329
 21
-22.3342126379
  0
LINE
  5
26B
100
AcDbEntity
  8
0
100
AcDbLine
 62
7
  6
CONTINUOUS
 10
-18.639739089
 20
-21.998725222
 11
-12.320112515
 21
-22.3299228166
  0
LINE
  5
26C
100
AcDbEntity
  8
0
100
AcDbLine
 62
250
  6
CONTINUOUS
 10
-18.6222973141
 20
-21.4994104546
 11
-10.9829602001
 21
-21.8997711479
  0
LINE
  5
26D
100
AcDbEntity
  8
DRAFT
100
AcDbLine
 62
7
  6
CONTINUOUS
 10
-9.7831734399
 20
-20.9104703804
 11
-9.9829602001
 21
-20.9
  0
LINE
  5
26E
100
AcDbEntity
  8
0
100
AcDbLine
 62
7
  6
CONTINUOUS
 10
-10.9829602001
 20
-22.3999998839
 11
-12.2344146329
 21
-22.3342126379
  0
LWPOLYLINE
  5
26F
100
AcDbEntity
  8
0
100
AcDbPolyline
 62
250
  6
CONTINUOUS
 90
43
 70
0
 10
-19.5691153698
 20
-20.5419058565
 10
-19.5669862693
 20
-20.5774691374
 10
-19.563655564
 20
-20.6127038113
 10
-19.5591232541
 20
-20.6476098784
 10
-19.5533839158
 20
-20.6821768062
 10
-19.5464429728
 20
-20.7164151271
 10
-19.5383166959
 20
-20.750356438
 10
-19.5289970038
 20
-20.7840553312
 10
-19.5184919778
 20
-20.8174572143
 10
-19.5068421325
 20
-20.850429907
 10
-19.4940442017
 20
-20.8829678057
 10
-19.4801014516
 20
-20.915076514
 10
-19.4650641956
 20
-20.9466406622
 10
-19.4489281088
 20
-20.9776591683
 10
-19.431697516
 20
-21.0081331142
 10
-19.413435705
 20
-21.0379503771
 10
-19.3941389634
 20
-21.067108377
 10
-19.3738110037
 20
-21.0956096937
 10
-19.3525262504
 20
-21.1233499433
 10
-19.3302812066
 20
-21.1503263322
 10
-19.3070793692
 20
-21.1765416539
 10
-19.2830056541
 20
-21.2018999052
 10
-19.258056743
 20
-21.2263980351
 10
-19.2322359541
 20
-21.2500390946
 10
-19.2056381578
 20
-21.2727362334
 10
-19.1782611056
 20
-21.2944856183
 10
-19.1501070461
 20
-21.3152910824
 10
-19.1212775944
 20
-21.3350772745
 10
-19.0917670836
 20
-21.3538419707
 10
-19.0615811807
 20
-21.3715873949
 10
-19.0308385019
 20
-21.3882448673
 10
-18.9995885562
 20
-21.4037949299
 10
-18.9677818346
 20
-21.4182570408
 10
-18.9353884257
 20
-21.4316208943
 10
-18.9023599145
 20
-21.4439118491
 10
-18.8687447161
 20
-21.4551045467
 10
-18.8346581644
 20
-21.4651126058
 10
-18.8000710667
 20
-21.4739331713
 10
-18.7650126158
 20
-21.4815690983
 10
-18.7296857239
 20
-21.4879425717
 10
-18.6941580283
 20
-21.493027653
 10
-18.6583618917
 20
-21.4968502806
 10
-18.6222973141
 20
-21.4994104546
  0
LINE
  5
270
100
AcDbEntity
  8
0
100
AcDbLine
 62
7
  6
CONTINUOUS
 10
-20.4428738781
 20
-6.3312490942
 11
-20.4427483095
 21
-6.3411571178
  0
LINE
  5
271
100
AcDbEntity
  8
0
100
AcDbLine
 62
7
  6
CONTINUOUS
 10
-20.4562434454
 20
5.168756225
 11
-20.4564100658
 21
5.1526138395
  0
LWPOLYLINE
  5
272
100
AcDbEntity
  8
0
100
AcDbPolyline
 62
250
  6
CONTINUOUS
 90
22
 70
0
 10
-19.5691153698
 20
20.5419058565
 10
-19.6465351263
 20
18.553789975
 10
-19.7158099925
 20
16.5882633417
 10
-19.7769399685
 20
14.6453259564
 10
-19.8296142667
 20
12.7325775899
 10
-19.8741436746
 20
10.8424184716
 10
-19.9114605548
 20
8.9520492889
 10
-19.9418754344
 20
7.0535317928
 10
-19.9650777863
 20
5.1548042324
 10
-19.9810683919
 20
3.2568820426
 10
-19.989959918
 20
1.3675022896
 10
-19.9916396978
 20
-0.5210720928
 10
-19.9857705122
 20
-2.4310368679
 10
-19.9724904303
 20
-4.3698741053
 10
-19.951661383
 20
-6.3301017353
 10
-19.9225319444
 20
-8.311469313
 10
-19.8849564122
 20
-10.3176417613
 10
-19.8390804886
 20
-12.3449541572
 10
-19.7845898545
 20
-14.3821612861
 10
-19.7213797368
 20
-16.4255147432
 10
-19.6495549086
 20
-18.4787629333
 10
-19.5691153698
 20
-20.5419058565
  0
LINE
  5
273
100
AcDbEntity
  8
0
100
AcDbLine
 62
250
  6
CONTINUOUS
 10
-20.0594135073
 20
-20.5624286744
 11
-20.0599661726
 21
-20.5624683248
  0
LINE
  5
274
100
AcDbEntity
  8
0
100
AcDbLine
 62
250
  6
CONTINUOUS
 10
-20.0549953648
 20
-20.5622131687
 11
-20.0594135073
 21
-20.5624286744
  0
LINE
  5
275
100
AcDbEntity
  8
0
100
AcDbLine
 62
250
  6
CONTINUOUS
 10
-19.7521875388
 20
-20.5494685329
 11
-20.0549953648
 21
-20.5622131687
  0
LWPOLYLINE
  5
276
100
AcDbEntity
  8
0
100
AcDbPolyline
 62
250
  6
CONTINUOUS
 90
6
 70
0
 10
-19.5691153698
 20
-20.5419058565
 10
-19.5926092405
 20
-20.5428735511
 10
-19.6160317343
 20
-20.543839102
 10
-19.639330963
 20
-20.5448003702
 10
-19.6624553116
 20
-20.5457552262
 10
-19.7521875388
 20
-20.5494685329
  0
LWPOLYLINE
  5
277
100
AcDbEntity
  8
CORPO
100
AcDbPolyline
 62
250
  6
CONTINUOUS
 90
50
 70
0
 10
14.5344922063
 20
-18.9120480454
 10
14.5632422507
 20
-18.9114006195
 10
14.5919540669
 20
-18.9101687557
 10
14.6206038989
 20
-18.9083534735
 10
14.6491680415
 20
-18.9059562748
 10
14.6776228608
 20
-18.902979143
 10
14.7059448132
 20
-18.8994245414
 10
14.7341104649
 20
-18.8952954111
 10
14.7620965116
 20
-18.8905951685
 10
14.7898797975
 20
-18.8853277028
 10
14.8174373347
 20
-18.8794973721
 10
14.844746322
 20
-18.8731090005
 10
14.8717841638
 20
-18.8661678738
 10
14.8985284889
 20
-18.8586797351
 10
14.924957169
 20
-18.85065078
 10
14.9510483368
 20
-18.8420876519
 10
14.9767804046
 20
-18.8329974358
 10
15.0021320814
 20
-18.823387653
 10
15.0270823912
 20
-18.8132662547
 10
15.05161069
 20
-18.8026416153
 10
15.0756966831
 20
-18.7915225258
 10
15.0993204416
 20
-18.7799181861
 10
15.1224624192
 20
-18.7678381977
 10
15.145103468
 20
-18.7552925555
 10
15.1672248548
 20
-18.74229164
 10
15.1888082763
 20
-18.728846208
 10
15.2098358744
 20
-18.7149673845
 10
15.2302902506
 20
-18.7006666527
 10
15.2501544809
 20
-18.6859558452
 10
15.2694121298
 20
-18.6708471337
 10
15.2880472632
 20
-18.6553530192
 10
15.3060444624
 20
-18.6394863217
 10
15.3233888366
 20
-18.6232601692
 10
15.3400660348
 20
-18.6066879874
 10
15.3560622584
 20
-18.5897834881
 10
15.3713642719
 20
-18.5725606581
 10
15.3859594145
 20
-18.5550337478
 10
15.3998356101
 20
-18.5372172588
 10
15.4129813775
 20
-18.5191259327
 10
15.4253858397
 20
-18.5007747383
 10
15.4370387335
 20
-18.4821788594
 10
15.447930417
 20
-18.4633536822
 10
15.4580518785
 20
-18.4443147829
 10
15.4673947434
 20
-18.4250779142
 10
15.4759512814
 20
-18.4056589928
 10
15.4837144129
 20
-18.3860740861
 10
15.4906777146
 20
-18.3663393985
 10
15.4968354249
 20
-18.3464712587
 10
15.5021824491
 20
-18.3264861056
 10
15.506714363
 20
-18.306400475
  0
LWPOLYLINE
  5
278
100
AcDbEntity
  8
ASSI
100
AcDbPolyline
 62
250
  6
CONTINUOUS
 90
55
 70
0
 10
14.5344922063
 20
-18.9120480454
 10
14.5632422507
 20
-18.9114006195
 10
14.5919540669
 20
-18.9101687557
 10
14.6206038989
 20
-18.9083534735
 10
14.6491680415
 20
-18.9059562748
 10
14.6776228608
 20
-18.902979143
 10
14.7059448132
 20
-18.8994245414
 10
14.7341104649
 20
-18.8952954111
 10
14.7620965116
 20
-18.8905951685
 10
14.7898797975
 20
-18.8853277028
 10
14.8174373347
 20
-18.8794973721
 10
14.844746322
 20
-18.8731090005
 10
14.8717841638
 20
-18.8661678738
 10
14.8985284889
 20
-18.8586797351
 10
14.924957169
 20
-18.85065078
 10
14.9510483368
 20
-18.8420876519
 10
14.9767804046
 20
-18.8329974358
 10
15.0021320814
 20
-18.823387653
 10
15.0270823912
 20
-18.8132662547
 10
15.05161069
 20
-18.8026416153
 10
15.0756966831
 20
-18.7915225258
 10
15.0993204416
 20
-18.7799181861
 10
15.1224624192
 20
-18.7678381977
 10
15.145103468
 20
-18.7552925555
 10
15.1672248548
 20
-18.74229164
 10
15.1888082763
 20
-18.728846208
 10
15.2098358744
 20
-18.7149673845
 10
15.2302902506
 20
-18.7006666527
 10
15.2501544809
 20
-18.6859558452
 10
15.2694121298
 20
-18.6708471337
 10
15.2880472632
 20
-18.6553530192
 10
15.3060444624
 20
-18.6394863217
 10
15.3233888366
 20
-18.6232601692
 10
15.3400660348
 20
-18.6066879874
 10
15.3560622584
 20
-18.5897834881
 10
15.3713642719
 20
-18.5725606581
 10
15.3859594145
 20
-18.5550337478
 10
15.3998356101
 20
-18.5372172588
 10
15.4129813775
 20
-18.5191259327
 10
15.4253858397
 20
-18.5007747383
 10
15.4370387335
 20
-18.4821788594
 10
15.447930417
 20
-18.4633536822
 10
15.4580518785
 20
-18.4443147829
 10
15.4673947434
 20
-18.4250779142
 10
15.4759512814
 20
-18.4056589928
 10
15.4837144129
 20
-18.3860740861
 10
15.4906777146
 20
-18.3663393985
 10
15.4968354249
 20
-18.3464712587
 10
15.5021824491
 20
-18.3264861056
 10
15.506714363
 20
-18.306400475
 10
15.5104274168
 20
-18.2862309859
 10
15.5133185383
 20
-18.2659943265
 10
15.5153853355
 20
-18.2457072406
 10
15.5166260982
 20
-18.225386514
 10
15.5170397999
 20
-18.20504896
  0
LWPOLYLINE
  5
279
100
AcDbEntity
  8
CORPO
100
AcDbPolyline
 62
250
  6
CONTINUOUS
 90
58
 70
0
 10
14.5344922063
 20
-19.0734550172
 10
14.5617298354
 20
-19.0728562435
 10
14.5889342774
 20
-19.0717328931
 10
14.6160853301
 20
-19.0700858001
 10
14.6431628311
 20
-19.0679161876
 10
14.6701466725
 20
-19.065225667
 10
14.6970168158
 20
-19.0620162361
 10
14.7237533073
 20
-19.0582902783
 10
14.7503362921
 20
-19.0540505605
 10
14.7767460297
 20
-19.0493002311
 10
14.802962908
 20
-19.0440428179
 10
14.8289674582
 20
-19.0382822248
 10
14.8547403692
 20
-19.0320227299
 10
14.880262502
 20
-19.0252689814
 10
14.9055149035
 20
-19.0180259948
 10
14.9304788214
 20
-19.0102991486
 10
14.9551357171
 20
-19.0020941809
 10
14.9794672804
 20
-18.9934171847
 10
15.0034554425
 20
-18.9842746037
 10
15.0270823897
 20
-18.9746732271
 10
15.0503305764
 20
-18.9646201851
 10
15.0731827385
 20
-18.9541229429
 10
15.0956219058
 20
-18.943189296
 10
15.1176314148
 20
-18.9318273638
 10
15.1391949212
 20
-18.9200455836
 10
15.1602964117
 20
-18.9078527047
 10
15.1809202164
 20
-18.8952577816
 10
15.2010510199
 20
-18.8822701673
 10
15.2206738728
 20
-18.8688995065
 10
15.2397742032
 20
-18.8551557284
 10
15.2583378271
 20
-18.8410490391
 10
15.276350959
 20
-18.8265899143
 10
15.2938002222
 20
-18.8117890916
 10
15.3106726589
 20
-18.7966575619
 10
15.3269557395
 20
-18.7812065622
 10
15.342637372
 20
-18.7654475664
 10
15.3577059112
 20
-18.7493922772
 10
15.3721501672
 20
-18.7330526174
 10
15.3859594135
 20
-18.7164407209
 10
15.3991233953
 20
-18.6995689237
 10
15.411632337
 20
-18.682449755
 10
15.4234769494
 20
-18.6650959275
 10
15.4346484365
 20
-18.6475203284
 10
15.4451385024
 20
-18.6297360093
 10
15.4549393572
 20
-18.6117561769
 10
15.4640437225
 20
-18.5935941832
 10
15.4724448376
 20
-18.5752635154
 10
15.4801364636
 20
-18.556777786
 10
15.4871128887
 20
-18.5381507225
 10
15.4933689323
 20
-18.5193961575
 10
15.4988999484
 20
-18.5005280183
 10
15.5037018298
 20
-18.4815603164
 10
15.5077710106
 20
-18.4625071373
 10
15.5111044689
 20
-18.4433826301
 10
15.5136997293
 20
-18.4242009967
 10
15.5155548646
 20
-18.4049764815
 10
15.5166684971
 20
-18.3857233607
 10
15.5170397999
 20
-18.3664559318
  0
LWPOLYLINE
  5
27A
100
AcDbEntity
  8
ASSI
100
AcDbPolyline
 62
250
  6
CONTINUOUS
 90
58
 70
0
 10
14.5344922063
 20
-19.0734550172
 10
14.5617298354
 20
-19.0728562435
 10
14.5889342774
 20
-19.0717328931
 10
14.6160853301
 20
-19.0700858001
 10
14.6431628311
 20
-19.0679161876
 10
14.6701466725
 20
-19.065225667
 10
14.6970168158
 20
-19.0620162361
 10
14.7237533073
 20
-19.0582902783
 10
14.7503362921
 20
-19.0540505605
 10
14.7767460297
 20
-19.0493002311
 10
14.802962908
 20
-19.0440428179
 10
14.8289674582
 20
-19.0382822248
 10
14.8547403692
 20
-19.0320227299
 10
14.880262502
 20
-19.0252689814
 10
14.9055149035
 20
-19.0180259948
 10
14.9304788214
 20
-19.0102991486
 10
14.9551357171
 20
-19.0020941809
 10
14.9794672804
 20
-18.9934171847
 10
15.0034554425
 20
-18.9842746037
 10
15.0270823897
 20
-18.9746732271
 10
15.0503305764
 20
-18.9646201851
 10
15.0731827385
 20
-18.9541229429
 10
15.0956219058
 20
-18.943189296
 10
15.1176314148
 20
-18.9318273638
 10
15.1391949212
 20
-18.9200455836
 10
15.1602964117
 20
-18.9078527047
 10
15.1809202164
 20
-18.8952577816
 10
15.2010510199
 20
-18.8822701673
 10
15.2206738728
 20
-18.8688995065
 10
15.2397742032
 20
-18.8551557284
 10
15.2583378271
 20
-18.8410490391
 10
15.276350959
 20
-18.8265899143
 10
15.2938002222
 20
-18.8117890916
 10
15.3106726589
 20
-18.7966575619
 10
15.3269557395
 20
-18.7812065622
 10
15.342637372
 20
-18.7654475664
 10
15.3577059112
 20
-18.7493922772
 10
15.3721501672
 20
-18.7330526174
 10
15.3859594135
 20
-18.7164407209
 10
15.3991233953
 20
-18.6995689237
 10
15.411632337
 20
-18.682449755
 10
15.4234769494
 20
-18.6650959275
 10
15.4346484365
 20
-18.6475203284
 10
15.4451385024
 20
-18.6297360093
 10
15.4549393572
 20
-18.6117561769
 10
15.4640437225
 20
-18.5935941832
 10
15.4724448376
 20
-18.5752635154
 10
15.4801364636
 20
-18.556777786
 10
15.4871128887
 20
-18.5381507225
 10
15.4933689323
 20
-18.5193961575
 10
15.4988999484
 20
-18.5005280183
 10
15.5037018298
 20
-18.4815603164
 10
15.5077710106
 20
-18.4625071373
 10
15.5111044689
 20
-18.4433826301
 10
15.5136997293
 20
-18.4242009967
 10
15.5155548646
 20
-18.4049764815
 10
15.5166684971
 20
-18.3857233607
 10
15.5170397999
 20
-18.3664559318
  0
LINE
  5
27B
100
AcDbEntity
  8
CORPO
100
AcDbLine
 62
7
  6
CONTINUOUS
 10
14.5344922063
 20
-19.366303627
 11
0.5170397999
 21
-19.6109791689
  0
LINE
  5
27C
100
AcDbEntity
  8
ASSI
100
AcDbLine
 62
7
  6
CONTINUOUS
 10
14.5344922063
 20
-19.366303627
 11
0.5170397999
 21
-19.6109791689
  0
LINE
  5
27D
100
AcDbEntity
  8
CORPO
100
AcDbLine
 62
250
  6
CONTINUOUS
 10
14.5344922063
 20
-19.0734550172
 11
0.5170397999
 21
-19.3181305591
  0
LINE
  5
27E
100
AcDbEntity
  8
ASSI
100
AcDbLine
 62
250
  6
CONTINUOUS
 10
14.5344922063
 20
-19.0734550172
 11
0.5170397999
 21
-19.3181305591
  0
LINE
  5
27F
100
AcDbEntity
  8
0
100
AcDbLine
 62
7
  6
CONTINUOUS
 10
-9.9829602001
 20
-19.25
 11
-9.4829602001
 21
-19.2412724675
  0
LINE
  5
280
100
AcDbEntity
  8
CORPO
100
AcDbLine
 62
250
  6
CONTINUOUS
 10
-9.4829602001
 20
-19.0856972195
 11
14.5344922063
 21
-18.9120480454
  0
LINE
  5
281
100
AcDbEntity
  8
ASSI
100
AcDbLine
 62
250
  6
CONTINUOUS
 10
-9.4829602001
 20
-19.0856972195
 11
14.5344922063
 21
-18.9120480454
  0
LINE
  5
282
100
AcDbEntity
  8
CORPO
100
AcDbLine
 62
7
  6
CONTINUOUS
 10
-9.4829602001
 20
-20.85
 11
0.5170397999
 21
-20.85
  0
LINE
  5
283
100
AcDbEntity
  8
ASSI
100
AcDbLine
 62
7
  6
CONTINUOUS
 10
-9.4829602001
 20
-20.85
 11
0.5170397999
 21
-20.85
  0
LINE
  5
284
100
AcDbEntity
  8
RACCORDO
100
AcDbLine
 62
7
  6
CONTINUOUS
 10
0.4170397999
 20
-20.9994862928
 11
-9.7831734399
 21
-20.9104703804
  0
LINE
  5
285
100
AcDbEntity
  8
0
100
AcDbLine
 62
250
  6
CONTINUOUS
 10
-18.6222973141
 20
21.4994104546
 11
-18.627087774
 21
21.5938521255
  0
LINE
  5
286
100
AcDbEntity
  8
0
100
AcDbLine
 62
250
  6
CONTINUOUS
 10
-18.627087774
 20
21.5938521255
 11
-18.6313902733
 21
21.6848843952
  0
LINE
  5
287
100
AcDbEntity
  8
0
100
AcDbLine
 62
250
  6
CONTINUOUS
 10
-18.6313902733
 20
21.6848843952
 11
-18.6350494887
 21
21.7692209335
  0
LINE
  5
288
100
AcDbEntity
  8
0
100
AcDbLine
 62
250
  6
CONTINUOUS
 10
-18.6350494887
 20
21.7692209335
 11
-18.6379333197
 21
21.8438171292
  0
LINE
  5
289
100
AcDbEntity
  8
0
100
AcDbLine
 62
250
  6
CONTINUOUS
 10
-18.6379333197
 20
21.8438171292
 11
-18.6395235542
 21
21.8917361298
  0
LINE
  5
28A
100
AcDbEntity
  8
0
100
AcDbLine
 62
250
  6
CONTINUOUS
 10
-18.6395235542
 20
21.8917361298
 11
-18.640292102
 21
21.9193039365
  0
LWPOLYLINE
  5
28B
100
AcDbEntity
  8
0
100
AcDbPolyline
 62
250
  6
CONTINUOUS
 90
12
 70
0
 10
-18.640292102
 20
21.9193039365
 10
-18.6408189414
 20
21.9430735405
 10
-18.6409901446
 20
21.9534654279
 10
-18.6410993069
 20
21.9628299301
 10
-18.6411461815
 20
21.9711458583
 10
-18.6411306623
 20
21.9783943959
 10
-18.6410527844
 20
21.9845591418
 10
-18.640912724
 20
21.989626147
 10
-18.640710798
 20
21.9935839464
 10
-18.6404474634
 20
21.9964235848
 10
-18.6401233159
 20
21.9981386369
 10
-18.639739089
 20
21.998725222
  0
LWPOLYLINE
  5
28C
100
AcDbEntity
  8
0
100
AcDbPolyline
 62
250
  6
CONTINUOUS
 90
10
 70
0
 10
-18.6409901445
 20
-21.9534654446
 10
-18.6410993068
 20
-21.9628299437
 10
-18.6411461813
 20
-21.971145869
 10
-18.641130662
 20
-21.9783944039
 10
-18.6410527841
 20
-21.9845591475
 10
-18.6409127237
 20
-21.9896261507
 10
-18.6407107978
 20
-21.9935839485
 10
-18.6404474632
 20
-21.9964235857
 10
-18.6401233158
 20
-21.9981386371
 10
-18.639739089
 20
-21.998725222
  0
LINE
  5
28D
100
AcDbEntity
  8
0
100
AcDbLine
 62
250
  6
CONTINUOUS
 10
-18.6405860851
 20
-21.931677805
 11
-18.6409901445
 21
-21.9534654446
  0
LINE
  5
28E
100
AcDbEntity
  8
0
100
AcDbLine
 62
250
  6
CONTINUOUS
 10
-18.6399376582
 20
-21.9059800332
 11
-18.6405860851
 21
-21.931677805
  0
LINE
  5
28F
100
AcDbEntity
  8
0
100
AcDbLine
 62
250
  6
CONTINUOUS
 10
-18.6385202511
 20
-21.860619528
 11
-18.6399376582
 21
-21.9059800332
  0
LINE
  5
290
100
AcDbEntity
  8
0
100
AcDbLine
 62
250
  6
CONTINUOUS
 10
-18.6365955408
 20
-21.8079143822
 11
-18.6385202511
 21
-21.860619528
  0
LINE
  5
291
100
AcDbEntity
  8
0
100
AcDbLine
 62
250
  6
CONTINUOUS
 10
-18.6333091542
 20
-21.728086971
 11
-18.6365955408
 21
-21.8079143822
  0
LINE
  5
292
100
AcDbEntity
  8
0
100
AcDbLine
 62
250
  6
CONTINUOUS
 10
-18.6282155605
 20
-21.6170612672
 11
-18.6333091542
 21
-21.728086971
  0
LINE
  5
293
100
AcDbEntity
  8
0
100
AcDbLine
 62
250
  6
CONTINUOUS
 10
-18.6222973141
 20
-21.4994104546
 11
-18.6282155605
 21
-21.6170612672
  0
LINE
  5
294
100
AcDbEntity
  8
CORPO
100
AcDbLine
 62
250
  6
CONTINUOUS
 10
-9.4829602001
 20
-17.6716990487
 11
14.5344922063
 21
-17.4980498746
  0
LINE
  5
295
100
AcDbEntity
  8
ASSI
100
AcDbLine
 62
250
  6
CONTINUOUS
 10
-9.4829602001
 20
-17.6716990487
 11
14.5344922063
 21
-17.4980498746
  0
LINE
  5
296
100
AcDbEntity
  8
0
100
AcDbLine
 62
7
  6
CONTINUOUS
 10
-9.9829602001
 20
-17.8945924132
 11
-9.4829602001
 21
-17.892253878
  0
LINE
  5
297
100
AcDbEntity
  8
CORPO
100
AcDbLine
 62
250
  6
CONTINUOUS
 10
14.5344922063
 20
-17.4980498746
 11
15.5170397999
 21
-17.4980498746
  0
LINE
  5
298
100
AcDbEntity
  8
ASSI
100
AcDbLine
 62
250
  6
CONTINUOUS
 10
14.5344922063
 20
-17.4980498746
 11
15.5170397999
 21
-17.4980498746
  0
LWPOLYLINE
  5
299
100
AcDbEntity
  8
RACCORDO
100
AcDbPolyline
 62
250
  6
CONTINUOUS
 90
6
 70
0
 10
-13.2344146329
 20
-24.4869014213
 10
-13.2344887547
 20
-24.4865583827
 10
-13.234558687
 20
-24.4855310928
 10
-13.2346242381
 20
-24.4838223673
 10
-13.2346852284
 20
-24.4814368893
 10
-13.2347414907
 20
-24.4783811971
  0
LINE
  5
29A
100
AcDbEntity
  8
CURVE
100
AcDbLine
 62
250
  6
CONTINUOUS
 10
-3.9829602001
 20
16.0
 11
-6.882077899
 21
14.991935
  0
LINE
  5
29B
100
AcDbEntity
  8
CURVE
100
AcDbLine
 62
250
  6
CONTINUOUS
 10
-4.5974119894
 20
15.164584
 11
-3.9829602001
 21
15.373574
  0
LINE
  5
29C
100
AcDbEntity
  8
CURVE
100
AcDbLine
 62
250
  6
CONTINUOUS
 10
-6.3279227386
 20
14.606449
 11
-5.0791981991
 21
15.007869
  0
LINE
  5
29D
100
AcDbEntity
  8
CORPO
100
AcDbLine
 62
7
  6
CONTINUOUS
 10
15.7908930771
 20
-15.0760409428
 11
17.2431865227
 21
-14.9489817302
  0
LINE
  5
29E
100
AcDbEntity
  8
ASSI
100
AcDbLine
 62
7
  6
CONTINUOUS
 10
15.7908930771
 20
-15.0760409428
 11
17.2431865227
 21
-14.9489817302
  0
LINE
  5
29F
100
AcDbEntity
  8
CURVE
100
AcDbLine
 62
250
  6
CONTINUOUS
 10
10.5170397999
 20
-15.4571428329
 11
8.6170397999
 21
-15.4571428329
  0
LINE
  5
2A0
100
AcDbEntity
  8
CURVE
100
AcDbLine
 62
250
  6
CONTINUOUS
 10
10.2456112163
 20
-14.9142856658
 11
9.5670397999
 21
-14.9142856658
  0
LINE
  5
2A1
100
AcDbEntity
  8
CURVE
100
AcDbLine
 62
250
  6
CONTINUOUS
 10
-4.8862012001
 20
-14.778839
 11
-6.8830982001
 21
-14.137714
  0
LINE
  5
2A2
100
AcDbEntity
  8
CURVE
100
AcDbLine
 62
250
  6
CONTINUOUS
 10
-6.8830982001
 20
-13.557685
 11
-3.9829672001
 21
-14.488824
  0
LINE
  5
2A3
100
AcDbEntity
  8
RACCORDO
100
AcDbLine
 62
250
  6
CONTINUOUS
 10
-13.2347414907
 20
-24.4783811971
 11
-13.234839228
 21
-24.4702944842
  0
LINE
  5
2A4
100
AcDbEntity
  8
RACCORDO
100
AcDbLine
 62
250
  6
CONTINUOUS
 10
-13.234839228
 20
-24.4702944842
 11
-13.2349469617
 21
-24.4534055187
  0
LINE
  5
2A5
100
AcDbEntity
  8
RACCORDO
100
AcDbLine
 62
250
  6
CONTINUOUS
 10
-13.2344146329
 20
24.2369056521
 11
-13.2349163791
 21
24.3503990946
  0
LINE
  5
2A6
100
AcDbEntity
  8
RACCORDO
100
AcDbLine
 62
7
  6
CONTINUOUS
 10
-13.4829602001
 20
-24.2369056521
 11
-13.4829602001
 21
-23.8443375673
  0
LINE
  5
2A7
100
AcDbEntity
  8
RACCORDO
100
AcDbLine
 62
7
  6
CONTINUOUS
 10
-13.4829602001
 20
23.8443375673
 11
-13.4829602001
 21
24.2369056521
  0
LINE
  5
2A8
100
AcDbEntity
  8
RACCORDO
100
AcDbLine
 62
250
  6
CONTINUOUS
 10
-13.2344146329
 20
-24.2369056521
 11
-13.2344146329
 21
-23.8443375673
  0
LINE
  5
2A9
100
AcDbEntity
  8
RACCORDO
100
AcDbLine
 62
250
  6
CONTINUOUS
 10
-13.2344146329
 20
23.8443375673
 11
-13.2344146329
 21
24.2369056521
  0
LINE
  5
2AA
100
AcDbEntity
  8
RACCORDO
100
AcDbLine
 62
250
  6
CONTINUOUS
 10
-13.2349469617
 20
-24.4534055187
 11
-13.2350142252
 21
-24.4041825384
  0
LINE
  5
2AB
100
AcDbEntity
  8
RACCORDO
100
AcDbLine
 62
250
  6
CONTINUOUS
 10
-13.2349163791
 20
24.3503990946
 11
-13.2350057768
 21
24.4311858371
  0
LINE
  5
2AC
100
AcDbEntity
  8
RACCORDO
100
AcDbLine
 62
250
  6
CONTINUOUS
 10
-13.2350142252
 20
-24.4041825384
 11
-13.2347414907
 21
-24.3016079562
  0
LINE
  5
2AD
100
AcDbEntity
  8
RACCORDO
100
AcDbLine
 62
250
  6
CONTINUOUS
 10
-13.2350057768
 20
24.4311858371
 11
-13.2349163791
 21
24.4596508246
  0
LINE
  5
2AE
100
AcDbEntity
  8
RACCORDO
100
AcDbLine
 62
250
  6
CONTINUOUS
 10
-13.2347414907
 20
-24.3016079562
 11
-13.2344146329
 21
-24.2369056521
  0
LWPOLYLINE
  5
2AF
100
AcDbEntity
  8
RACCORDO
100
AcDbPolyline
 62
250
  6
CONTINUOUS
 90
8
 70
0
 10
-13.2349163791
 20
24.4596508246
 10
-13.2347928709
 20
24.4746636657
 10
-13.2347414907
 20
24.4783811971
 10
-13.2346852284
 20
24.4814368893
 10
-13.2346242381
 20
24.4838223673
 10
-13.234558687
 20
24.4855310928
 10
-13.2344887547
 20
24.4865583827
 10
-13.2344146329
 20
24.4869014213
  0
LWPOLYLINE
  5
2B0
100
AcDbEntity
  8
0
100
AcDbPolyline
 62
7
  6
CONTINUOUS
 90
3
 70
0
 43
0.3500000006
 10
-0.2016090131
 20
43.5357149506
 10
-0.273037576
 20
43.3214304657
 10
-0.4158947371
 20
43.035714798
  0
LINE
  5
2B1
100
AcDbEntity
  8
CURVE
100
AcDbLine
 62
250
  6
CONTINUOUS
 10
-2.4829602001
 20
14.414285779
 11
-2.2115316449
 21
14.6404762983
  0
LINE
  5
2B2
100
AcDbEntity
  8
CURVE
100
AcDbLine
 62
250
  6
CONTINUOUS
 10
-6.882077899
 20
11.216139
 11
-4.5846638735
 21
12.328754
  0
LINE
  5
2B3
100
AcDbEntity
  8
CURVE
100
AcDbLine
 62
250
  6
CONTINUOUS
 10
-3.9829602001
 20
12.027546
 11
-6.409324937
 21
10.87477
  0
LINE
  5
2B4
100
AcDbEntity
  8
CURVE
100
AcDbLine
 62
250
  6
CONTINUOUS
 10
9.7027540775
 20
-13.964285779
 11
10.2456112163
 21
-13.964285779
  0
LINE
  5
2B5
100
AcDbEntity
  8
CURVE
100
AcDbLine
 62
250
  6
CONTINUOUS
 10
-3.9829602001
 20
-13.171014
 11
-6.8830982001
 21
-13.171006
  0
LINE
  5
2B6
100
AcDbEntity
  8
0
100
AcDbLine
 62
250
  6
CONTINUOUS
 10
1.9440603532
 20
-13.1700793878
 11
2.7143516614
 21
-13.1700793878
  0
LINE
  5
2B7
100
AcDbEntity
  8
0
100
AcDbLine
 62
250
  6
CONTINUOUS
 10
6.2466594404
 20
-13.1700793878
 11
7.0169507486
 21
-13.1700793878
  0
LINE
  5
2B8
100
AcDbEntity
  8
CURVE
100
AcDbLine
 62
250
  6
CONTINUOUS
 10
-6.8830982001
 20
-12.590985
 11
-3.9829672001
 21
-12.590992
  0
LWPOLYLINE
  5
2B9
100
AcDbEntity
  8
0
100
AcDbPolyline
 62
7
  6
CONTINUOUS
 90
8
 70
0
 10
-10.9841594314
 20
-22.3725688677
 10
-10.9840832575
 20
-22.3797973168
 10
-10.9839781846
 20
-22.3859398797
 10
-10.9838433001
 20
-22.3909836005
 10
-10.9836751621
 20
-22.3949205984
 10
-10.9834720737
 20
-22.3977410497
 10
-10.9832340493
 20
-22.399435965
 10
-10.9829602001
 20
-22.4
  0
LINE
  5
2BA
100
AcDbEntity
  8
0
100
AcDbLine
 62
7
  6
CONTINUOUS
 10
-10.9829602001
 20
-21.9000571132
 11
-10.9824614953
 21
-21.9473933418
  0
LINE
  5
2BB
100
AcDbEntity
  8
RACCORDO
100
AcDbLine
 62
250
  6
CONTINUOUS
 10
-10.2313616834
 20
-24.2717692492
 11
-10.2315057673
 21
-24.2456323968
  0
LINE
  5
2BC
100
AcDbEntity
  8
0
100
AcDbLine
 62
7
  6
CONTINUOUS
 10
-10.9823290072
 20
22.0405945495
 11
-10.9840908647
 21
22.3073075147
  0
LINE
  5
2BD
100
AcDbEntity
  8
0
100
AcDbLine
 62
7
  6
CONTINUOUS
 10
-10.9842300891
 20
-22.3549103913
 11
-10.9841594314
 21
-22.3725688677
  0
LINE
  5
2BE
100
AcDbEntity
  8
0
100
AcDbLine
 62
7
  6
CONTINUOUS
 10
-10.9824614953
 20
-21.9473933418
 11
-10.9822631655
 21
-21.9943952787
  0
LINE
  5
2BF
100
AcDbEntity
  8
0
100
AcDbLine
 62
7
  6
CONTINUOUS
 10
-10.9840908647
 20
22.3073075147
 11
-10.9842288369
 21
22.3444975924
  0
LINE
  5
2C0
100
AcDbEntity
  8
0
100
AcDbLine
 62
7
  6
CONTINUOUS
 10
-10.9822643438
 20
21.9943926845
 11
-10.9823290072
 21
22.0405945495
  0
LINE
  5
2C1
100
AcDbEntity
  8
RACCORDO
100
AcDbLine
 62
7
  6
CONTINUOUS
 10
-12.4829602001
 20
23.1226497308
 11
-12.4829602001
 21
22.3213883311
  0
LINE
  5
2C2
100
AcDbEntity
  8
RACCORDO
100
AcDbLine
 62
7
  6
CONTINUOUS
 10
-12.4829602001
 20
-22.3213883311
 11
-12.4829602001
 21
-23.1226497308
  0
LINE
  5
2C3
100
AcDbEntity
  8
0
100
AcDbLine
 62
250
  6
CONTINUOUS
 10
-12.2344146329
 20
23.2669872981
 11
-12.2344146329
 21
22.3342126379
  0
LINE
  5
2C4
100
AcDbEntity
  8
0
100
AcDbLine
 62
250
  6
CONTINUOUS
 10
-12.2344146329
 20
-22.3342126379
 11
-12.2344146329
 21
-23.2669872981
  0
LINE
  5
2C5
100
AcDbEntity
  8
0
100
AcDbLine
 62
7
  6
CONTINUOUS
 10
-10.9829602001
 20
21.8997711479
 11
-10.9829602001
 21
18.0
  0
LINE
  5
2C6
100
AcDbEntity
  8
0
100
AcDbLine
 62
7
  6
CONTINUOUS
 10
-10.9829602001
 20
-23.4104851482
 11
-10.9829602001
 21
-22.4
  0
LINE
  5
2C7
100
AcDbEntity
  8
0
100
AcDbLine
 62
7
  6
CONTINUOUS
 10
-10.9829602001
 20
-21.8997711479
 11
-10.9829602001
 21
-18.0
  0
LINE
  5
2C8
100
AcDbEntity
  8
RACCORDO
100
AcDbLine
 62
7
  6
CONTINUOUS
 10
-10.9829602001
 20
-23.4104851482
 11
-10.9829602001
 21
-24.5
  0
LINE
  5
2C9
100
AcDbEntity
  8
0
100
AcDbLine
 62
7
  6
CONTINUOUS
 10
-10.9829602001
 20
22.4
 11
-10.9829602001
 21
23.4104851482
  0
LINE
  5
2CA
100
AcDbEntity
  8
RACCORDO
100
AcDbLine
 62
7
  6
CONTINUOUS
 10
-10.9829602001
 20
23.4104851482
 11
-10.9829602001
 21
24.5
  0
LWPOLYLINE
  5
2CB
100
AcDbEntity
  8
0
100
AcDbPolyline
 62
7
  6
CONTINUOUS
 90
10
 70
0
 10
-10.9842288369
 20
22.3444975924
 10
-10.9842072427
 20
22.3642673896
 10
-10.9841598702
 20
22.372562972
 10
-10.984083356
 20
22.3797900013
 10
-10.9839783079
 20
22.3859365672
 10
-10.9838442949
 20
22.390983699
 10
-10.9836753473
 20
22.3949172063
 10
-10.9834700583
 20
22.3977314995
 10
-10.9832313627
 20
22.3994257001
 10
-10.9829602001
 20
22.4
  0
LINE
  5
2CC
100
AcDbEntity
  8
0
100
AcDbLine
 62
7
  6
CONTINUOUS
 10
-10.9822631655
 20
-21.9943952787
 11
-10.9824065272
 21
-22.0632660164
  0
LINE
  5
2CD
100
AcDbEntity
  8
0
100
AcDbLine
 62
7
  6
CONTINUOUS
 10
-10.9841567142
 20
-22.3206504755
 11
-10.9842300891
 21
-22.3549103913
  0
LINE
  5
2CE
100
AcDbEntity
  8
RACCORDO
100
AcDbLine
 62
250
  6
CONTINUOUS
 10
-10.2315057673
 20
24.2456323968
 11
-10.2313619938
 21
24.2717096311
  0
LINE
  5
2CF
100
AcDbEntity
  8
0
100
AcDbLine
 62
7
  6
CONTINUOUS
 10
-10.9824575061
 20
21.9473146459
 11
-10.9822643438
 21
21.9943926845
  0
LINE
  5
2D0
100
AcDbEntity
  8
0
100
AcDbLine
 62
7
  6
CONTINUOUS
 10
-10.9836638032
 20
-22.2450030625
 11
-10.9841567142
 21
-22.3206504755
  0
LWPOLYLINE
  5
2D1
100
AcDbEntity
  8
0
100
AcDbPolyline
 62
7
  6
CONTINUOUS
 90
3
 70
0
 10
-10.9824065272
 20
-22.0632660164
 10
-10.9832320391
 20
-22.1899595484
 10
-10.9836638032
 20
-22.2450030625
  0
LINE
  5
2D2
100
AcDbEntity
  8
0
100
AcDbLine
 62
7
  6
CONTINUOUS
 10
-10.9829602001
 20
21.8997711479
 11
-10.9824575061
 21
21.9473146459
  0
LINE
  5
2D3
100
AcDbEntity
  8
CURVE
100
AcDbLine
 62
250
  6
CONTINUOUS
 10
-1.6686745344
 20
14.414285779
 11
-1.3972459225
 21
14.685714221
  0
LINE
  5
2D4
100
AcDbEntity
  8
CURVE
100
AcDbLine
 62
250
  6
CONTINUOUS
 10
-2.2115316449
 20
13.3285713315
 11
-2.4829602001
 21
13.0571428895
  0
LINE
  5
2D5
100
AcDbEntity
  8
CURVE
100
AcDbLine
 62
250
  6
CONTINUOUS
 10
-3.9829602001
 20
9.975074
 11
-6.882077899
 21
8.9669
  0
LINE
  5
2D6
100
AcDbEntity
  8
CURVE
100
AcDbLine
 62
250
  6
CONTINUOUS
 10
-3.9829672001
 20
-12.010985
 11
-6.8830982001
 21
-12.010985
  0
LINE
  5
2D7
100
AcDbEntity
  8
CURVE
100
AcDbLine
 62
250
  6
CONTINUOUS
 10
-5.8954092001
 20
-11.430963
 11
-3.9829672001
 21
-11.430963
  0
LINE
  5
2D8
100
AcDbEntity
  8
CURVE
100
AcDbLine
 62
250
  6
CONTINUOUS
 10
-4.9944292001
 20
-10.59258
 11
-6.8830982001
 21
-10.051012
  0
LINE
  5
2D9
100
AcDbEntity
  8
CURVE
100
AcDbLine
 62
250
  6
CONTINUOUS
 10
-5.8954092001
 20
-9.754205
 11
-3.9829752001
 21
-10.30258
  0
LWPOLYLINE
  5
2DA
100
AcDbEntity
  8
RACCORDO
100
AcDbPolyline
 62
250
  6
CONTINUOUS
 90
6
 70
0
 10
-10.2311788492
 20
24.487104147
 10
-10.2312351195
 20
24.4901612081
 10
-10.2312961201
 20
24.4925477509
 10
-10.2313616834
 20
24.494257234
 10
-10.2314316297
 20
24.495284977
 10
-10.2315057673
 20
24.495628166
  0
LINE
  5
2DB
100
AcDbEntity
  8
RACCORDO
100
AcDbLine
 62
250
  6
CONTINUOUS
 10
-10.2310811033
 20
24.4790138424
 11
-10.2311788492
 21
24.487104147
  0
LINE
  5
2DC
100
AcDbEntity
  8
RACCORDO
100
AcDbLine
 62
250
  6
CONTINUOUS
 10
-10.2309733759
 20
24.4621175595
 11
-10.2310811033
 21
24.4790138424
  0
LINE
  5
2DD
100
AcDbEntity
  8
RACCORDO
100
AcDbLine
 62
250
  6
CONTINUOUS
 10
-10.2309061574
 20
-24.4129396114
 11
-10.2313616834
 21
-24.2717692492
  0
LINE
  5
2DE
100
AcDbEntity
  8
RACCORDO
100
AcDbLine
 62
250
  6
CONTINUOUS
 10
-10.2315057673
 20
24.2456323968
 11
-10.2315057673
 21
23.8443375673
  0
LINE
  5
2DF
100
AcDbEntity
  8
RACCORDO
100
AcDbLine
 62
250
  6
CONTINUOUS
 10
-10.2315057673
 20
-23.8443375673
 11
-10.2315057673
 21
-24.2456323968
  0
LINE
  5
2E0
100
AcDbEntity
  8
RACCORDO
100
AcDbLine
 62
7
  6
CONTINUOUS
 10
-9.9829602001
 20
24.2456323968
 11
-9.9829602001
 21
23.7
  0
LINE
  5
2E1
100
AcDbEntity
  8
0
100
AcDbLine
 62
7
  6
CONTINUOUS
 10
-9.9829602001
 20
-22.3912731322
 11
-9.9829602001
 21
-17.8945924132
  0
LINE
  5
2E2
100
AcDbEntity
  8
RACCORDO
100
AcDbLine
 62
7
  6
CONTINUOUS
 10
-9.9829602001
 20
-23.8443375673
 11
-9.9829602001
 21
-24.2456323968
  0
LINE
  5
2E3
100
AcDbEntity
  8
0
100
AcDbLine
 62
7
  6
CONTINUOUS
 10
-9.9829602001
 20
17.8945924132
 11
-9.9829602001
 21
22.3912731322
  0
LINE
  5
2E4
100
AcDbEntity
  8
CORPO
100
AcDbLine
 62
7
  6
CONTINUOUS
 10
-9.4829602001
 20
-20.85
 11
-9.4829602001
 21
-16.5
  0
LINE
  5
2E5
100
AcDbEntity
  8
ASSI
100
AcDbLine
 62
7
  6
CONTINUOUS
 10
-9.4829602001
 20
-20.85
 11
-9.4829602001
 21
-16.5
  0
LINE
  5
2E6
100
AcDbEntity
  8
0
100
AcDbLine
 62
7
  6
CONTINUOUS
 10
-9.4829602001
 20
-16.5
 11
-9.4829602001
 21
16.5
  0
LINE
  5
2E7
100
AcDbEntity
  8
CORPO
100
AcDbLine
 62
7
  6
CONTINUOUS
 10
-9.4829602001
 20
16.5
 11
-9.4829602001
 21
20.85
  0
LINE
  5
2E8
100
AcDbEntity
  8
ASSI
100
AcDbLine
 62
7
  6
CONTINUOUS
 10
-9.4829602001
 20
16.5
 11
-9.4829602001
 21
20.85
  0
LINE
  5
2E9
100
AcDbEntity
  8
RACCORDO
100
AcDbLine
 62
250
  6
CONTINUOUS
 10
-10.2309061949
 20
24.4128749736
 11
-10.2309733759
 21
24.4621175595
  0
LINE
  5
2EA
100
AcDbEntity
  8
RACCORDO
100
AcDbLine
 62
250
  6
CONTINUOUS
 10
-10.2309735596
 20
-24.4621606774
 11
-10.2309061574
 21
-24.4129396114
  0
LINE
  5
2EB
100
AcDbEntity
  8
RACCORDO
100
AcDbLine
 62
250
  6
CONTINUOUS
 10
-10.2313619938
 20
24.2717096311
 11
-10.2309061949
 21
24.4128749736
  0
LINE
  5
2EC
100
AcDbEntity
  8
RACCORDO
100
AcDbLine
 62
250
  6
CONTINUOUS
 10
-10.2310813818
 20
-24.4790436576
 11
-10.2309735596
 21
-24.4621606774
  0
LINE
  5
2ED
100
AcDbEntity
  8
CURVE
100
AcDbLine
 62
7
  6
CONTINUOUS
 10
-5.6803029718
 20
7.7932813663
 11
-5.2599070107
 21
8.2136773274
  0
LINE
  5
2EE
100
AcDbEntity
  8
CURVE
100
AcDbLine
 62
7
  6
CONTINUOUS
 10
-5.0791981991
 20
8.394386139
 11
-4.5974119894
 21
8.8761723487
  0
LINE
  5
2EF
100
AcDbEntity
  8
CURVE
100
AcDbLine
 62
7
  6
CONTINUOUS
 10
-4.1983875577
 20
9.2751967803
 11
-3.9829602001
 21
9.490624138
  0
LINE
  5
2F0
100
AcDbEntity
  8
CURVE
100
AcDbLine
 62
250
  6
CONTINUOUS
 10
-4.5974119894
 20
9.139549
 11
-3.9829602001
 21
9.348431
  0
LINE
  5
2F1
100
AcDbEntity
  8
CURVE
100
AcDbLine
 62
250
  6
CONTINUOUS
 10
-6.3280866886
 20
8.581471
 11
-5.0791981991
 21
8.982943
  0
LINE
  5
2F2
100
AcDbEntity
  8
CURVE
100
AcDbLine
 62
250
  6
CONTINUOUS
 10
-3.9829672001
 20
-9.754197
 11
-5.8954092001
 21
-9.754205
  0
LINE
  5
2F3
100
AcDbEntity
  8
CURVE
100
AcDbLine
 62
250
  6
CONTINUOUS
 10
8.8884683551
 20
-9.35
 11
9.1598969104
 21
-9.35
  0
LINE
  5
2F4
100
AcDbEntity
  8
0
100
AcDbLine
 62
250
  6
CONTINUOUS
 10
4.0981220553
 20
-9.3450793878
 11
4.8628890466
 21
-9.3450793878
  0
LINE
  5
2F5
100
AcDbEntity
  8
CURVE
100
AcDbLine
 62
250
  6
CONTINUOUS
 10
-6.8830982001
 20
-9.174176
 11
-3.9829672001
 21
-9.174176
  0
LINE
  5
2F6
100
AcDbEntity
  8
0
100
AcDbLine
 62
250
  6
CONTINUOUS
 10
1.9440603532
 20
-8.8350793878
 11
2.7143516614
 21
-8.8350793878
  0
LINE
  5
2F7
100
AcDbEntity
  8
0
100
AcDbLine
 62
250
  6
CONTINUOUS
 10
6.2466589907
 20
-8.8350793878
 11
7.0169507486
 21
-8.8350793878
  0
LINE
  5
2F8
100
AcDbEntity
  8
CURVE
100
AcDbLine
 62
250
  6
CONTINUOUS
 10
8.6170397999
 20
-8.807142663
 11
9.4313254656
 21
-8.807142663
  0
LINE
  5
2F9
100
AcDbEntity
  8
CURVE
100
AcDbLine
 62
250
  6
CONTINUOUS
 10
8.6170397999
 20
-12.8785713315
 11
10.5170397999
 21
-13.4214286685
  0
LINE
  5
2FA
100
AcDbEntity
  8
CURVE
100
AcDbLine
 62
250
  6
CONTINUOUS
 10
-3.9829672001
 20
-8.787497
 11
-6.8831052001
 21
-7.856372
  0
LINE
  5
2FB
100
AcDbEntity
  8
CURVE
100
AcDbLine
 62
250
  6
CONTINUOUS
 10
-4.5533032001
 20
-8.024362
 11
-3.9829752001
 21
-8.207475
  0
LINE
  5
2FC
100
AcDbEntity
  8
CURVE
100
AcDbLine
 62
250
  6
CONTINUOUS
 10
-5.9798642001
 20
-7.56635
 11
-5.1043252001
 21
-7.84744
  0
LINE
  5
2FD
100
AcDbEntity
  8
CURVE
100
AcDbLine
 62
250
  6
CONTINUOUS
 10
9.5670397999
 20
-14.9142856658
 11
9.0241826894
 21
-14.6428571105
  0
LINE
  5
2FE
100
AcDbEntity
  8
CURVE
100
AcDbLine
 62
250
  6
CONTINUOUS
 10
-6.8831052001
 20
-7.856372
 11
-6.8831052001
 21
-7.276321
  0
LINE
  5
2FF
100
AcDbEntity
  8
CURVE
100
AcDbLine
 62
250
  6
CONTINUOUS
 10
-6.8831052001
 20
-5.958503
 11
-6.8831052001
 21
-4.600289
  0
LINE
  5
300
100
AcDbEntity
  8
CURVE
100
AcDbLine
 62
250
  6
CONTINUOUS
 10
-6.8830982001
 20
-16.0
 11
-6.8830982001
 21
-15.419971
  0
LINE
  5
301
100
AcDbEntity
  8
CURVE
100
AcDbLine
 62
250
  6
CONTINUOUS
 10
-6.8830982001
 20
-14.137714
 11
-6.8830982001
 21
-13.557685
  0
LINE
  5
302
100
AcDbEntity
  8
CURVE
100
AcDbLine
 62
250
  6
CONTINUOUS
 10
-6.8830982001
 20
-13.171006
 11
-6.8830982001
 21
-12.590985
  0
LINE
  5
303
100
AcDbEntity
  8
CURVE
100
AcDbLine
 62
250
  6
CONTINUOUS
 10
-6.8830982001
 20
-12.010985
 11
-6.8830982001
 21
-11.134148
  0
LINE
  5
304
100
AcDbEntity
  8
CURVE
100
AcDbLine
 62
250
  6
CONTINUOUS
 10
-6.8830982001
 20
-10.051012
 11
-6.8830982001
 21
-9.174176
  0
LINE
  5
305
100
AcDbEntity
  8
CURVE
100
AcDbLine
 62
250
  6
CONTINUOUS
 10
-6.882077899
 20
14.991935
 11
-6.882077899
 21
14.252884
  0
LINE
  5
306
100
AcDbEntity
  8
CURVE
100
AcDbLine
 62
250
  6
CONTINUOUS
 10
-6.882077899
 20
8.9669
 11
-6.882077899
 21
8.227849
  0
LINE
  5
307
100
AcDbEntity
  8
CURVE
100
AcDbLine
 62
250
  6
CONTINUOUS
 10
-6.882077899
 20
3.58822
 11
-6.882077899
 21
2.70079
  0
LINE
  5
308
100
AcDbEntity
  8
CURVE
100
AcDbLine
 62
250
  6
CONTINUOUS
 10
-6.882077899
 20
5.171133
 11
-6.882077899
 21
5.793739
  0
LINE
  5
309
100
AcDbEntity
  8
CURVE
100
AcDbLine
 62
250
  6
CONTINUOUS
 10
-6.882077899
 20
10.292325
 11
-6.882077899
 21
11.216139
  0
LINE
  5
30A
100
AcDbEntity
  8
CURVE
100
AcDbLine
 62
250
  6
CONTINUOUS
 10
-6.882077899
 20
12.328754
 11
-6.882077899
 21
12.911198
  0
LINE
  5
30B
100
AcDbEntity
  8
CURVE
100
AcDbLine
 62
250
  6
CONTINUOUS
 10
-6.4002916893
 20
3.323396
 11
-6.4002916893
 21
3.686612
  0
LINE
  5
30C
100
AcDbEntity
  8
CURVE
100
AcDbLine
 62
250
  6
CONTINUOUS
 10
-6.3465832001
 20
-4.680795
 11
-6.3465832001
 21
-5.386478
  0
LINE
  5
30D
100
AcDbEntity
  8
CURVE
100
AcDbLine
 62
250
  6
CONTINUOUS
 10
-6.87849846
 20
3.6948258614
 11
-6.8820777583
 21
3.5882200575
  0
LWPOLYLINE
  5
30E
100
AcDbEntity
  8
CURVE
100
AcDbPolyline
 62
250
  6
CONTINUOUS
 90
54
 70
0
 10
-6.396733501
 20
3.7174608972
 10
-6.3918731215
 20
3.763813985
 10
-6.390152021
 20
3.7792495632
 10
-6.3882853838
 20
3.794662096
 10
-6.3862161801
 20
3.8100423913
 10
-6.3838873801
 20
3.8253812571
 10
-6.381241954
 20
3.8406695016
 10
-6.378222872
 20
3.8558979327
 10
-6.3758897297
 20
3.8663734222
 10
-6.3733317561
 20
3.8768018468
 10
-6.3705295389
 20
3.8871690543
 10
-6.3674636656
 20
3.8974608925
 10
-6.3641147236
 20
3.907663209
 10
-6.3604633006
 20
3.9177618517
 10
-6.3564899841
 20
3.9277426683
 10
-6.3521753615
 20
3.9375915065
 10
-6.3480736503
 20
3.9461556907
 10
-6.3436918916
 20
3.9545891942
 10
-6.3390306197
 20
3.9628750024
 10
-6.3340903689
 20
3.9709961011
 10
-6.3288716735
 20
3.9789354759
 10
-6.3233750676
 20
3.9866761124
 10
-6.3176010855
 20
3.9942009963
 10
-6.3115502615
 20
4.001493113
 10
-6.3052231298
 20
4.0085354483
 10
-6.2985702707
 20
4.0153674044
 10
-6.2916564476
 20
4.0219361053
 10
-6.2845008278
 20
4.0282493076
 10
-6.2771225787
 20
4.0343147679
 10
-6.2695408676
 20
4.0401402428
 10
-6.2617748617
 20
4.0457334888
 10
-6.2538437282
 20
4.0511022627
 10
-6.2457666346
 20
4.0562543208
 10
-6.237562748
 20
4.0611974199
 10
-6.2268599132
 20
4.0672512393
 10
-6.2159874993
 20
4.0729664611
 10
-6.2049536441
 20
4.0783367237
 10
-6.1937664857
 20
4.0833556651
 10
-6.1824341617
 20
4.0880169238
 10
-6.1709648102
 20
4.0923141379
 10
-6.159366569
 20
4.0962409458
 10
-6.146833936
 20
4.1000267408
 10
-6.1341771633
 20
4.103400823
 10
-6.121410133
 20
4.1063821336
 10
-6.1085467274
 20
4.1089896139
 10
-6.0956008287
 20
4.1112422052
 10
-6.0825863192
 20
4.1131588488
 10
-6.0695170811
 20
4.1147584859
 10
-6.0564069966
 20
4.1160600579
 10
-6.0432699479
 20
4.1170825061
 10
-6.0301198174
 20
4.1178447717
 10
-6.0169704871
 20
4.118365796
 10
-6.0038358395
 20
4.1186645203
 10
-5.9907297566
 20
4.1187598859
  0
LWPOLYLINE
  5
30F
100
AcDbEntity
  8
CURVE
100
AcDbPolyline
 62
250
  6
CONTINUOUS
 90
3
 70
0
 10
-6.4002916169
 20
3.6866121309
 10
-6.3984427527
 20
3.7020250568
 10
-6.396733501
 20
3.7174608972
  0
LINE
  5
310
100
AcDbEntity
  8
CURVE
100
AcDbLine
 62
250
  6
CONTINUOUS
 10
9.7027540775
 20
-7.992856884
 11
10.2456112163
 21
-7.992856884
  0
LINE
  5
311
100
AcDbEntity
  8
CURVE
100
AcDbLine
 62
250
  6
CONTINUOUS
 10
9.1598969104
 20
-7.45
 11
9.9741826328
 21
-7.45
  0
LINE
  5
312
100
AcDbEntity
  8
CURVE
100
AcDbLine
 62
250
  6
CONTINUOUS
 10
9.9741826328
 20
-6.5
 11
9.1598969104
 21
-6.5
  0
LINE
  5
313
100
AcDbEntity
  8
CORPO
100
AcDbLine
 62
7
  6
CONTINUOUS
 10
15.7908930771
 20
-8.9239590572
 11
17.2431865227
 21
-9.0510182698
  0
LINE
  5
314
100
AcDbEntity
  8
ASSI
100
AcDbLine
 62
7
  6
CONTINUOUS
 10
15.7908930771
 20
-8.9239590572
 11
17.2431865227
 21
-9.0510182698
  0
LINE
  5
315
100
AcDbEntity
  8
CURVE
100
AcDbLine
 62
250
  6
CONTINUOUS
 10
-5.5895863916
 20
3.763813985
 11
-5.5847260122
 21
3.7174608972
  0
LWPOLYLINE
  5
316
100
AcDbEntity
  8
CURVE
100
AcDbPolyline
 62
250
  6
CONTINUOUS
 90
53
 70
0
 10
-5.0993817548
 20
3.5882200575
 10
-5.1029610532
 20
3.6948258614
 10
-5.1049876709
 20
3.7481210085
 10
-5.1076297159
 20
3.8013969153
 10
-5.1104032881
 20
3.8439758624
 10
-5.1138903889
 20
3.8865062021
 10
-5.1181915828
 20
3.9289583793
 10
-5.123407434
 20
3.9713028391
 10
-5.1296385066
 20
4.0135100265
 10
-5.135681963
 20
4.0485966381
 10
-5.14253124
 20
4.0835398425
 10
-5.1502154532
 20
4.1183123618
 10
-5.1587637183
 20
4.1528869186
 10
-5.1682051508
 20
4.1872362349
 10
-5.1785688662
 20
4.2213330331
 10
-5.1882098824
 20
4.2503226951
 10
-5.1985969699
 20
4.2790577062
 10
-5.2097776568
 20
4.3074888493
 10
-5.2217994708
 20
4.3355669076
 10
-5.23470994
 20
4.363242664
 10
-5.2485565921
 20
4.3904669015
 10
-5.2633869552
 20
4.4171904032
 10
-5.2772157414
 20
4.4401425663
 10
-5.2918336777
 20
4.4626213833
 10
-5.3072388681
 20
4.484575368
 10
-5.3234294166
 20
4.5059530338
 10
-5.3404034271
 20
4.5267028944
 10
-5.3581590038
 20
4.5467734634
 10
-5.3766942505
 20
4.5661132544
 10
-5.3960072713
 20
4.584670781
 10
-5.4160680751
 20
4.6023841097
 10
-5.4368552096
 20
4.6192547416
 10
-5.4583206736
 20
4.6352720693
 10
-5.4804164657
 20
4.6504254852
 10
-5.5030945847
 20
4.6647043821
 10
-5.5263070293
 20
4.6780981526
 10
-5.5500057981
 20
4.6905961892
 10
-5.5741428899
 20
4.7021878845
 10
-5.5986737594
 20
4.7128694219
 10
-5.6235595539
 20
4.7226606687
 10
-5.6487648339
 20
4.7315883841
 10
-5.6742541599
 20
4.7396793272
 10
-5.6999920922
 20
4.7469602571
 10
-5.7259431914
 20
4.753457933
 10
-5.7520720177
 20
4.7591991139
 10
-5.7783431318
 20
4.7642105591
 10
-5.8084558857
 20
4.7690729355
 10
-5.8386841271
 20
4.7730645828
 10
-5.8690042019
 20
4.776230213
 10
-5.8993924563
 20
4.7786145378
 10
-5.9298252361
 20
4.7802622694
 10
-5.9602788875
 20
4.7812181196
 10
-5.9907297566
 20
4.7815268003
  0
LINE
  5
317
100
AcDbEntity
  8
CURVE
100
AcDbLine
 62
250
  6
CONTINUOUS
 10
-5.6408542001
 20
-5.386471
 11
-5.6408542001
 21
-4.680795
  0
LINE
  5
318
100
AcDbEntity
  8
CURVE
100
AcDbLine
 62
250
  6
CONTINUOUS
 10
-5.5811682592
 20
3.323396
 11
-5.5811682592
 21
3.686612
  0
LINE
  5
319
100
AcDbEntity
  8
CURVE
100
AcDbLine
 62
250
  6
CONTINUOUS
 10
-5.1043252001
 20
-7.84744
 11
-5.1043252001
 21
-7.285246
  0
LINE
  5
31A
100
AcDbEntity
  8
CURVE
100
AcDbLine
 62
250
  6
CONTINUOUS
 10
-5.1043252001
 20
-4.872178
 11
-5.1043322001
 21
-5.378409
  0
LINE
  5
31B
100
AcDbEntity
  8
CURVE
100
AcDbLine
 62
250
  6
CONTINUOUS
 10
-5.0993820495
 20
3.58822
 11
-5.0993820495
 21
3.323396
  0
LINE
  5
31C
100
AcDbEntity
  8
CURVE
100
AcDbLine
 62
250
  6
CONTINUOUS
 10
-5.0791981991
 20
15.007869
 11
-5.0791981991
 21
14.176491
  0
LINE
  5
31D
100
AcDbEntity
  8
CURVE
100
AcDbLine
 62
250
  6
CONTINUOUS
 10
-5.0791981991
 20
8.982943
 11
-5.0791981991
 21
8.151456
  0
LINE
  5
31E
100
AcDbEntity
  8
CURVE
100
AcDbLine
 62
250
  6
CONTINUOUS
 10
-4.5974119894
 20
7.990812
 11
-4.5974119894
 21
9.139549
  0
LINE
  5
31F
100
AcDbEntity
  8
CURVE
100
AcDbLine
 62
250
  6
CONTINUOUS
 10
-4.5974119894
 20
14.015846
 11
-4.5974119894
 21
15.164584
  0
LINE
  5
320
100
AcDbEntity
  8
CURVE
100
AcDbLine
 62
250
  6
CONTINUOUS
 10
-4.5533032001
 20
-7.108317
 11
-4.5533032001
 21
-8.024362
  0
LINE
  5
321
100
AcDbEntity
  8
CURVE
100
AcDbLine
 62
250
  6
CONTINUOUS
 10
-4.4647464098
 20
5.793739
 11
-4.4647464098
 21
6.866738
  0
LINE
  5
322
100
AcDbEntity
  8
CURVE
100
AcDbLine
 62
250
  6
CONTINUOUS
 10
-3.9829672001
 20
-14.488824
 11
-3.9829602001
 21
-15.068868
  0
LINE
  5
323
100
AcDbEntity
  8
CURVE
100
AcDbLine
 62
250
  6
CONTINUOUS
 10
-3.9829672001
 20
-12.590992
 11
-3.9829602001
 21
-13.171014
  0
LINE
  5
324
100
AcDbEntity
  8
CURVE
100
AcDbLine
 62
250
  6
CONTINUOUS
 10
-3.9829752001
 20
-10.30258
 11
-3.9829672001
 21
-10.882587
  0
LINE
  5
325
100
AcDbEntity
  8
CURVE
100
AcDbLine
 62
250
  6
CONTINUOUS
 10
-3.9829752001
 20
-8.207475
 11
-3.9829672001
 21
-8.787497
  0
LINE
  5
326
100
AcDbEntity
  8
CURVE
100
AcDbLine
 62
250
  6
CONTINUOUS
 10
-3.9829822001
 20
-3.637619
 11
-3.9829752001
 21
-4.290924
  0
LINE
  5
327
100
AcDbEntity
  8
CURVE
100
AcDbLine
 62
250
  6
CONTINUOUS
 10
-3.9829752001
 20
-5.378474
 11
-3.9829752001
 21
-5.958503
  0
LINE
  5
328
100
AcDbEntity
  8
CURVE
100
AcDbLine
 62
250
  6
CONTINUOUS
 10
-3.9829672001
 20
-9.174176
 11
-3.9829672001
 21
-9.754197
  0
LINE
  5
329
100
AcDbEntity
  8
CURVE
100
AcDbLine
 62
250
  6
CONTINUOUS
 10
-3.9829672001
 20
-11.430963
 11
-3.9829672001
 21
-12.010985
  0
LINE
  5
32A
100
AcDbEntity
  8
CURVE
100
AcDbLine
 62
250
  6
CONTINUOUS
 10
-3.9829602001
 20
12.911198
 11
-3.9829602001
 21
12.027546
  0
LINE
  5
32B
100
AcDbEntity
  8
CURVE
100
AcDbLine
 62
250
  6
CONTINUOUS
 10
-3.9829602001
 20
10.87477
 11
-3.9829602001
 21
10.292325
  0
LINE
  5
32C
100
AcDbEntity
  8
CURVE
100
AcDbLine
 62
250
  6
CONTINUOUS
 10
-3.9829602001
 20
6.866738
 11
-3.9829602001
 21
5.171133
  0
LINE
  5
32D
100
AcDbEntity
  8
CURVE
100
AcDbLine
 62
250
  6
CONTINUOUS
 10
-3.9829602001
 20
2.70079
 11
-3.9829602001
 21
3.323396
  0
LINE
  5
32E
100
AcDbEntity
  8
CURVE
100
AcDbLine
 62
250
  6
CONTINUOUS
 10
-3.9829602001
 20
7.179514
 11
-3.9829602001
 21
7.773964
  0
LINE
  5
32F
100
AcDbEntity
  8
CURVE
100
AcDbLine
 62
250
  6
CONTINUOUS
 10
-3.9829602001
 20
9.348431
 11
-3.9829602001
 21
9.975074
  0
LINE
  5
330
100
AcDbEntity
  8
CURVE
100
AcDbLine
 62
250
  6
CONTINUOUS
 10
-3.9829602001
 20
13.20444
 11
-3.9829602001
 21
13.798889
  0
LINE
  5
331
100
AcDbEntity
  8
CURVE
100
AcDbLine
 62
250
  6
CONTINUOUS
 10
-3.9829602001
 20
15.373574
 11
-3.9829602001
 21
16.0
  0
LINE
  5
332
100
AcDbEntity
  8
CURVE
100
AcDbLine
 62
250
  6
CONTINUOUS
 10
-3.9829672001
 20
-6.345182
 11
-3.9829752001
 21
-6.925211
  0
LWPOLYLINE
  5
333
100
AcDbEntity
  8
RACCORDO
100
AcDbPolyline
 62
250
  6
CONTINUOUS
 90
7
 70
0
 10
-10.2315057673
 20
-24.495628166
 10
-10.2314318172
 20
-24.4952867588
 10
-10.2313619938
 20
-24.4942634962
 10
-10.2312964957
 20
-24.492559892
 10
-10.2312354981
 20
-24.4901787618
 10
-10.2311791911
 20
-24.4871256484
 10
-10.2310813818
 20
-24.4790436576
  0
LINE
  5
334
100
AcDbEntity
  8
0
100
AcDbLine
 62
250
  6
CONTINUOUS
 10
4.1875557999
 20
-4.774826
 11
0.8253347999
 21
-5.068876
  0
LINE
  5
335
100
AcDbEntity
  8
0
100
AcDbLine
 62
250
  6
CONTINUOUS
 10
5.9980277999
 20
-6.092362
 11
7.0170397999
 21
-6.092362
  0
LINE
  5
336
100
AcDbEntity
  8
CURVE
100
AcDbLine
 62
250
  6
CONTINUOUS
 10
-3.9829752001
 20
-5.958503
 11
-6.8831052001
 21
-5.958503
  0
LINE
  5
337
100
AcDbEntity
  8
CURVE
100
AcDbLine
 62
250
  6
CONTINUOUS
 10
-6.3465832001
 20
-5.386478
 11
-5.6408542001
 21
-5.386471
  0
LINE
  5
338
100
AcDbEntity
  8
0
100
AcDbLine
 62
250
  6
CONTINUOUS
 10
0.4307167999
 20
-4.781784
 11
0.8253347999
 21
-4.781784
  0
LINE
  5
339
100
AcDbEntity
  8
0
100
AcDbLine
 62
250
  6
CONTINUOUS
 10
4.1875557999
 20
-4.718117
 11
4.3840037999
 21
-4.718117
  0
LINE
  5
33A
100
AcDbEntity
  8
0
100
AcDbLine
 62
250
  6
CONTINUOUS
 10
0.8253347999
 20
-4.68241
 11
0.4307167999
 21
-4.68241
  0
LINE
  5
33B
100
AcDbEntity
  8
0
100
AcDbLine
 62
250
  6
CONTINUOUS
 10
4.3840037999
 20
-4.600497
 11
4.1875557999
 21
-4.600497
  0
LINE
  5
33C
100
AcDbEntity
  8
0
100
AcDbLine
 62
250
  6
CONTINUOUS
 10
1.6531247999
 20
-4.21193
 11
1.8687607999
 21
-4.21193
  0
LINE
  5
33D
100
AcDbEntity
  8
0
100
AcDbLine
 62
250
  6
CONTINUOUS
 10
0.3377427999
 20
-4.156927
 11
0.5552367999
 21
-4.156927
  0
LINE
  5
33E
100
AcDbEntity
  8
CURVE
100
AcDbLine
 62
250
  6
CONTINUOUS
 10
-5.1043322001
 20
-5.378409
 11
-3.9829752001
 21
-5.378474
  0
LINE
  5
33F
100
AcDbEntity
  8
CURVE
100
AcDbLine
 62
250
  6
CONTINUOUS
 10
8.6170397999
 20
-15.4571428329
 11
9.1598969104
 21
-16.0
  0
LINE
  5
340
100
AcDbEntity
  8
CURVE
100
AcDbLine
 62
250
  6
CONTINUOUS
 10
9.0241826894
 20
-14.6428571105
 11
8.6170397999
 21
-14.2357143342
  0
LWPOLYLINE
  5
341
100
AcDbEntity
  8
CURVE
100
AcDbPolyline
 62
250
  6
CONTINUOUS
 90
3
 70
0
 10
-5.5847260122
 20
3.7174608972
 10
-5.5830167604
 20
3.7020250568
 10
-5.5811678963
 20
3.6866121309
  0
LINE
  5
342
100
AcDbEntity
  8
ASSI
100
AcDbLine
 62
250
  6
CONTINUOUS
 10
-3.4084403734
 20
-23.7507734247
 11
-3.4084403734
 21
-22.3338981669
  0
LINE
  5
343
100
AcDbEntity
  8
ASSI
100
AcDbLine
 62
250
  6
CONTINUOUS
 10
-3.4084403734
 20
22.3338981669
 11
-3.4084403734
 21
23.7507734247
  0
LWPOLYLINE
  5
344
100
AcDbEntity
  8
0
100
AcDbPolyline
 62
7
  6
CONTINUOUS
 90
4
 70
0
 43
0.3500000006
 10
-3.273037571
 20
45.6071422119
 10
-3.273037571
 20
46.2500001984
 10
-1.7730375381
 20
46.2500001984
 10
-2.6301804342
 20
43.2499992828
  0
LINE
  5
345
100
AcDbEntity
  8
ASSI
100
AcDbLine
 62
7
  6
CONTINUOUS
 10
-2.9829602001
 20
-23.2563578147
 11
-2.9829602001
 21
-22.3301850577
  0
LINE
  5
346
100
AcDbEntity
  8
ASSI
100
AcDbLine
 62
7
  6
CONTINUOUS
 10
-2.9829602001
 20
22.3301850577
 11
-2.9829602001
 21
23.2563578147
  0
LINE
  5
347
100
AcDbEntity
  8
CURVE
100
AcDbLine
 62
250
  6
CONTINUOUS
 10
-2.4829602001
 20
13.0571428895
 11
-2.4829602001
 21
12.65
  0
LINE
  5
348
100
AcDbEntity
  8
CURVE
100
AcDbLine
 62
250
  6
CONTINUOUS
 10
-2.4829602001
 20
13.871428442
 11
-2.4829602001
 21
14.414285779
  0
LINE
  5
349
100
AcDbEntity
  8
0
100
AcDbLine
 62
250
  6
CONTINUOUS
 10
8.0353299062
 20
12.321428597
 11
8.4638360804
 21
12.75
  0
LINE
  5
34A
100
AcDbEntity
  8
0
100
AcDbLine
 62
250
  6
CONTINUOUS
 10
8.9994687423
 20
12.5357142985
 11
9.2137218071
 21
12.75
  0
LINE
  5
34B
100
AcDbEntity
  8
0
100
AcDbLine
 62
250
  6
CONTINUOUS
 10
0.5557947999
 20
-3.583924
 11
0.3383007999
 21
-3.583924
  0
LINE
  5
34C
100
AcDbEntity
  8
0
100
AcDbLine
 62
250
  6
CONTINUOUS
 10
1.8687607999
 20
-3.38859
 11
1.6531247999
 21
-3.38859
  0
LINE
  5
34D
100
AcDbEntity
  8
0
100
AcDbLine
 62
250
  6
CONTINUOUS
 10
1.1882447999
 20
-2.932113
 11
1.5607087999
 21
-2.932113
  0
LINE
  5
34E
100
AcDbEntity
  8
0
100
AcDbLine
 62
250
  6
CONTINUOUS
 10
1.5607087999
 20
-2.582053
 11
1.1882447999
 21
-2.582053
  0
LINE
  5
34F
100
AcDbEntity
  8
0
100
AcDbLine
 62
250
  6
CONTINUOUS
 10
7.0170397999
 20
-1.907638
 11
5.9980277999
 21
-1.907638
  0
LINE
  5
350
100
AcDbEntity
  8
0
100
AcDbLine
 62
250
  6
CONTINUOUS
 10
0.8528867999
 20
-2.850161
 11
3.7494117999
 21
-3.119407
  0
LINE
  5
351
100
AcDbEntity
  8
CURVE
100
AcDbLine
 62
250
  6
CONTINUOUS
 10
8.6170397999
 20
-4.871428442
 11
10.5170397999
 21
-5.414285326
  0
LINE
  5
352
100
AcDbEntity
  8
CURVE
100
AcDbLine
 62
250
  6
CONTINUOUS
 10
8.8884683551
 20
-7.314285326
 11
9.1598969104
 21
-7.45
  0
LINE
  5
353
100
AcDbEntity
  8
CURVE
100
AcDbLine
 62
250
  6
CONTINUOUS
 10
9.0241826894
 20
-10.3
 11
8.6170397999
 21
-10.028571558
  0
LINE
  5
354
100
AcDbEntity
  8
CURVE
100
AcDbLine
 62
250
  6
CONTINUOUS
 10
9.1598969104
 20
-9.35
 11
10.5170397999
 21
-10.3
  0
LINE
  5
355
100
AcDbEntity
  8
CURVE
100
AcDbLine
 62
250
  6
CONTINUOUS
 10
10.2456112163
 20
-13.964285779
 11
10.5170397999
 21
-14.2357143342
  0
LWPOLYLINE
  5
356
100
AcDbEntity
  8
0
100
AcDbPolyline
 62
250
  6
CONTINUOUS
 90
52
 70
0
 10
0.3899234678
 20
-4.1569273296
 10
0.3912985092
 20
-4.1918898592
 10
0.3929249318
 20
-4.226270992
 10
0.394846813
 20
-4.2600706654
 10
0.3971082297
 20
-4.2932888173
 10
0.3997532591
 20
-4.3259253852
 10
0.4028211892
 20
-4.3579795734
 10
0.4063321522
 20
-4.3894476538
 10
0.4103014913
 20
-4.4203251645
 10
0.4147445495
 20
-4.4506076441
 10
0.4196766699
 20
-4.4802906309
 10
0.425108377
 20
-4.5093688509
 10
0.4310309195
 20
-4.5378337803
 10
0.4374307278
 20
-4.5656760831
 10
0.4442942319
 20
-4.592886423
 10
0.451607862
 20
-4.6194554638
 10
0.4593557236
 20
-4.6453774662
 10
0.4675126236
 20
-4.6706610781
 10
0.476051044
 20
-4.6953185442
 10
0.4849434672
 20
-4.7193621093
 10
0.4941623752
 20
-4.742804018
 10
0.5036818605
 20
-4.7656550663
 10
0.5134824556
 20
-4.7879202538
 10
0.5235463037
 20
-4.8096031316
 10
0.5338555474
 20
-4.8307072504
 10
0.5443923298
 20
-4.8512361611
 10
0.5551431977
 20
-4.8711871964
 10
0.5661123133
 20
-4.8905328157
 10
0.5773082429
 20
-4.9092392601
 10
0.5887395527
 20
-4.9272727708
 10
0.6004148091
 20
-4.9445995888
 10
0.6103399498
 20
-4.9584764632
 10
0.6204647971
 20
-4.9718318939
 10
0.6308137015
 20
-4.9846586398
 10
0.6414110136
 20
-4.9969494597
 10
0.6522810839
 20
-5.0086971123
 10
0.6634482631
 20
-5.0198943565
 10
0.6732737241
 20
-5.0290432729
 10
0.6833426585
 20
-5.0377470141
 10
0.6936623653
 20
-5.0459701067
 10
0.7042401437
 20
-5.0536770771
 10
0.7150832929
 20
-5.0608324521
 10
0.726199112
 20
-5.067400758
 10
0.7375949001
 20
-5.0733465217
 10
0.7478006721
 20
-5.0780098267
 10
0.7582256168
 20
-5.0821415419
 10
0.7688689671
 20
-5.0857138707
 10
0.7797299559
 20
-5.0886990168
 10
0.7908078163
 20
-5.0910691835
 10
0.8021017812
 20
-5.0927965745
 10
0.8136110836
 20
-5.0938533931
 10
0.8253349564
 20
-5.094211843
  0
LINE
  5
357
100
AcDbEntity
  8
CURVE
100
AcDbLine
 62
250
  6
CONTINUOUS
 10
-1.6686745344
 20
14.142857337
 11
-1.6686745344
 21
14.414285779
  0
LINE
  5
358
100
AcDbEntity
  8
CURVE
100
AcDbLine
 62
250
  6
CONTINUOUS
 10
-0.9901030613
 20
16.178571558
 11
-0.9901030613
 21
15.228571558
  0
LINE
  5
359
100
AcDbEntity
  8
CURVE
100
AcDbLine
 62
250
  6
CONTINUOUS
 10
-0.9901030613
 20
11.835714221
 11
-0.9901030613
 21
10.8857143342
  0
LINE
  5
35A
100
AcDbEntity
  8
CURVE
100
AcDbLine
 62
250
  6
CONTINUOUS
 10
-0.5829602001
 20
14.55
 11
-0.5829602001
 21
13.871428442
  0
LINE
  5
35B
100
AcDbEntity
  8
CURVE
100
AcDbLine
 62
250
  6
CONTINUOUS
 10
-0.5829602001
 20
13.3285713315
 11
-0.5829602001
 21
12.3785713315
  0
LINE
  5
35C
100
AcDbEntity
  8
RACCORDO
100
AcDbLine
 62
250
  6
CONTINUOUS
 10
-0.0742339969
 20
21.4383257263
 11
-0.0742339969
 21
20.9951990113
  0
LINE
  5
35D
100
AcDbEntity
  8
RACCORDO
100
AcDbLine
 62
250
  6
CONTINUOUS
 10
-0.0742339969
 20
-20.9951990113
 11
-0.0742339969
 21
-21.4383257263
  0
LINE
  5
35E
100
AcDbEntity
  8
0
100
AcDbLine
 62
250
  6
CONTINUOUS
 10
9.5351014489
 20
11.4642857239
 11
9.3208483841
 21
11.25
  0
LINE
  5
35F
100
AcDbEntity
  8
CURVE
100
AcDbLine
 62
250
  6
CONTINUOUS
 10
10.2456112163
 20
-6.635714674
 11
9.9741826328
 21
-6.5
  0
LINE
  5
360
100
AcDbEntity
  8
0
100
AcDbLine
 62
250
  6
CONTINUOUS
 10
-0.0829602001
 20
-1.43899
 11
4.9273177999
 21
-6.375622
  0
LINE
  5
361
100
AcDbEntity
  8
RACCORDO
100
AcDbLine
 62
7
  6
CONTINUOUS
 10
0.4170397999
 20
-20.85
 11
0.4170397999
 21
-21.3092024966
  0
LINE
  5
362
100
AcDbEntity
  8
RACCORDO
100
AcDbLine
 62
7
  6
CONTINUOUS
 10
0.4170397999
 20
20.85
 11
0.4170397999
 21
21.3092024966
  0
LINE
  5
363
100
AcDbEntity
  8
0
100
AcDbLine
 62
250
  6
CONTINUOUS
 10
0.4307167999
 20
-4.68241
 11
0.4307167999
 21
-4.781784
  0
LINE
  5
364
100
AcDbEntity
  8
CORPO
100
AcDbLine
 62
7
  6
CONTINUOUS
 10
0.5170397999
 20
-20.85
 11
0.5170397999
 21
-19.3181305591
  0
LINE
  5
365
100
AcDbEntity
  8
ASSI
100
AcDbLine
 62
7
  6
CONTINUOUS
 10
0.5170397999
 20
-20.85
 11
0.5170397999
 21
-19.3181305591
  0
LINE
  5
366
100
AcDbEntity
  8
CORPO
100
AcDbLine
 62
7
  6
CONTINUOUS
 10
0.5170397999
 20
19.3181305591
 11
0.5170397999
 21
20.85
  0
LINE
  5
367
100
AcDbEntity
  8
ASSI
100
AcDbLine
 62
7
  6
CONTINUOUS
 10
0.5170397999
 20
19.3181305591
 11
0.5170397999
 21
20.85
  0
LINE
  5
368
100
AcDbEntity
  8
0
100
AcDbLine
 62
250
  6
CONTINUOUS
 10
0.8253347999
 20
-2.872066
 11
0.8253347999
 21
-5.309973
  0
LINE
  5
369
100
AcDbEntity
  8
0
100
AcDbLine
 62
250
  6
CONTINUOUS
 10
1.1882447999
 20
-2.582053
 11
1.1882447999
 21
-2.932113
  0
LINE
  5
36A
100
AcDbEntity
  8
0
100
AcDbLine
 62
250
  6
CONTINUOUS
 10
1.5607087999
 20
-2.932113
 11
1.5607087999
 21
-2.582053
  0
LINE
  5
36B
100
AcDbEntity
  8
0
100
AcDbLine
 62
250
  6
CONTINUOUS
 10
1.6531247999
 20
-3.38859
 11
1.6531247999
 21
-4.21193
  0
LINE
  5
36C
100
AcDbEntity
  8
0
100
AcDbLine
 62
250
  6
CONTINUOUS
 10
1.8687607999
 20
-4.21193
 11
1.8687607999
 21
-3.38859
  0
LINE
  5
36D
100
AcDbEntity
  8
0
100
AcDbLine
 62
250
  6
CONTINUOUS
 10
0.3383007999
 20
-3.583924
 11
0.3377427999
 21
-4.156927
  0
LINE
  5
36E
100
AcDbEntity
  8
0
100
AcDbLine
 62
250
  6
CONTINUOUS
 10
0.5552367999
 20
-4.156927
 11
0.5557947999
 21
-3.583924
  0
LWPOLYLINE
  5
36F
100
AcDbEntity
  8
RACCORDO
100
AcDbPolyline
 62
250
  6
CONTINUOUS
 90
5
 70
0
 10
-10.1104558026
 20
-23.6326765842
 10
-10.1093234265
 20
-23.6305857918
 10
-10.108528741
 20
-23.6290788219
 10
-10.1080739182
 20
-23.6281597935
 10
-10.1079602001
 20
-23.6278312164
  0
LINE
  5
370
100
AcDbEntity
  8
CURVE
100
AcDbLine
 62
250
  6
CONTINUOUS
 10
-5.1740795332
 20
-4.2550232093
 11
-3.9829822001
 21
-3.637619
  0
LINE
  5
371
100
AcDbEntity
  8
CURVE
100
AcDbLine
 62
250
  6
CONTINUOUS
 10
-3.9829752001
 20
-4.290924
 11
-5.1043252001
 21
-4.872178
  0
LINE
  5
372
100
AcDbEntity
  8
CURVE
100
AcDbLine
 62
250
  6
CONTINUOUS
 10
8.6170397999
 20
-7.042856884
 11
8.8884683551
 21
-7.314285326
  0
LINE
  5
373
100
AcDbEntity
  8
CURVE
100
AcDbLine
 62
250
  6
CONTINUOUS
 10
10.2456112163
 20
-7.992856884
 11
10.5170397999
 21
-8.264285326
  0
LWPOLYLINE
  5
374
100
AcDbEntity
  8
0
100
AcDbPolyline
 62
7
  6
CONTINUOUS
 90
4
 70
0
 43
0.3500000006
 10
4.0170398827
 20
35.607143692
 10
4.0170398827
 20
36.2500016785
 10
5.5170397739
 20
36.2500016785
 10
4.6598970194
 20
33.2500007629
  0
LINE
  5
375
100
AcDbEntity
  8
0
100
AcDbLine
 62
250
  6
CONTINUOUS
 10
4.0981220553
 20
-10.8336158436
 11
4.0981220553
 21
-9.3450793878
  0
LINE
  5
376
100
AcDbEntity
  8
0
100
AcDbLine
 62
250
  6
CONTINUOUS
 10
4.1875557999
 20
-3.428959
 11
4.1875557999
 21
-4.774826
  0
LINE
  5
377
100
AcDbEntity
  8
0
100
AcDbLine
 62
250
  6
CONTINUOUS
 10
4.3840037999
 20
-4.718117
 11
4.3840037999
 21
-4.600497
  0
LINE
  5
378
100
AcDbEntity
  8
0
100
AcDbLine
 62
250
  6
CONTINUOUS
 10
8.8923422546
 20
12.321428597
 11
8.9994687423
 21
12.5357142985
  0
LINE
  5
379
100
AcDbEntity
  8
0
100
AcDbLine
 62
250
  6
CONTINUOUS
 10
9.6422279366
 20
11.6785714477
 11
9.5351014489
 21
11.4642857239
  0
LINE
  5
37A
100
AcDbEntity
  8
RACCORDO
100
AcDbLine
 62
250
  6
CONTINUOUS
 10
-10.1137203529
 20
-23.6385852371
 11
-10.1104558026
 21
-23.6326765842
  0
LINE
  5
37B
100
AcDbEntity
  8
RACCORDO
100
AcDbLine
 62
250
  6
CONTINUOUS
 10
-10.1210432104
 20
-23.6516334796
 11
-10.1137203529
 21
-23.6385852371
  0
LINE
  5
37C
100
AcDbEntity
  8
RACCORDO
100
AcDbLine
 62
250
  6
CONTINUOUS
 10
-10.143680466
 20
-23.6914794042
 11
-10.1210432104
 21
-23.6516334796
  0
LINE
  5
37D
100
AcDbEntity
  8
RACCORDO
100
AcDbLine
 62
250
  6
CONTINUOUS
 10
-10.2184843311
 20
-23.821769291
 11
-10.143680466
 21
-23.6914794042
  0
LINE
  5
37E
100
AcDbEntity
  8
RACCORDO
100
AcDbLine
 62
250
  6
CONTINUOUS
 10
-10.2315057673
 20
-23.8443375673
 11
-10.2184843311
 21
-23.821769291
  0
LWPOLYLINE
  5
37F
100
AcDbEntity
  8
0
100
AcDbPolyline
 62
250
  6
CONTINUOUS
 90
34
 70
0
 10
0.6721522098
 20
-2.896457109
 10
0.6593866007
 20
-2.9094920174
 10
0.6470419242
 20
-2.9228328501
 10
0.6351053704
 20
-2.936470391
 10
0.6235641292
 20
-2.9503954242
 10
0.6124053904
 20
-2.9645987337
 10
0.6016163439
 20
-2.9790711034
 10
0.5911854639
 20
-2.9938022197
 10
0.5811063619
 20
-3.0087773781
 10
0.5713739337
 20
-3.0239807763
 10
0.5619830751
 20
-3.0393966122
 10
0.5529286818
 20
-3.0550090835
 10
0.5442056496
 20
-3.070802388
 10
0.5341676821
 20
-3.0899715396
 10
0.5245874706
 20
-3.1093554438
 10
0.5154529614
 20
-3.1289312087
 10
0.5067521006
 20
-3.1486759422
 10
0.4984728343
 20
-3.1685667524
 10
0.4906028371
 20
-3.1885831383
 10
0.4831286976
 20
-3.2087141634
 10
0.4760367329
 20
-3.2289512821
 10
0.4693132601
 20
-3.2492859489
 10
0.4629445962
 20
-3.2697096184
 10
0.4554630256
 20
-3.2953529033
 10
0.4484946663
 20
-3.3211145514
 10
0.44201972
 20
-3.3469872113
 10
0.4360183887
 20
-3.3729635319
 10
0.4304658227
 20
-3.399036864
 10
0.4253169676
 20
-3.4252033663
 10
0.4205217172
 20
-3.4514598995
 10
0.4160299655
 20
-3.4778033242
 10
0.4104245769
 20
-3.5130554222
 10
0.4051395382
 20
-3.5484357294
 10
0.4000447237
 20
-3.5839235619
  0
LINE
  5
380
100
AcDbEntity
  8
CURVE
100
AcDbLine
 62
250
  6
CONTINUOUS
 10
-6.882077899
 20
2.70079
 11
-3.9829602001
 21
2.70079
  0
LINE
  5
381
100
AcDbEntity
  8
CURVE
100
AcDbLine
 62
250
  6
CONTINUOUS
 10
-3.9829602001
 20
3.323396
 11
-5.0993820495
 21
3.323396
  0
LINE
  5
382
100
AcDbEntity
  8
CURVE
100
AcDbLine
 62
250
  6
CONTINUOUS
 10
-5.5811682592
 20
3.323396
 11
-6.4002916893
 21
3.323396
  0
LWPOLYLINE
  5
383
100
AcDbEntity
  8
CURVE
100
AcDbPolyline
 62
250
  6
CONTINUOUS
 90
53
 70
0
 10
-5.9907297566
 20
4.1187598859
 10
-5.9776236737
 20
4.1186645203
 10
-5.964489026
 20
4.118365796
 10
-5.9513396958
 20
4.1178447717
 10
-5.9381895652
 20
4.1170825061
 10
-5.9250525166
 20
4.1160600579
 10
-5.9119424321
 20
4.1147584859
 10
-5.898873194
 20
4.1131588488
 10
-5.8858586844
 20
4.1112422052
 10
-5.8729127858
 20
4.1089896139
 10
-5.8600493802
 20
4.1063821336
 10
-5.8472823499
 20
4.103400823
 10
-5.8346255772
 20
4.1000267408
 10
-5.8220929442
 20
4.0962409458
 10
-5.810494703
 20
4.0923141379
 10
-5.7990253514
 20
4.0880169238
 10
-5.7876930275
 20
4.0833556651
 10
-5.776505869
 20
4.0783367237
 10
-5.7654720139
 20
4.0729664611
 10
-5.7545996
 20
4.0672512393
 10
-5.7438967652
 20
4.0611974199
 10
-5.7356928786
 20
4.0562543208
 10
-5.7276157849
 20
4.0511022627
 10
-5.7196846515
 20
4.0457334888
 10
-5.7119186456
 20
4.0401402428
 10
-5.7043369344
 20
4.0343147679
 10
-5.6969586853
 20
4.0282493076
 10
-5.6898030656
 20
4.0219361053
 10
-5.6828892425
 20
4.0153674044
 10
-5.6762363833
 20
4.0085354483
 10
-5.6699092517
 20
4.001493113
 10
-5.6638584277
 20
3.9942009963
 10
-5.6580844456
 20
3.9866761124
 10
-5.6525878397
 20
3.9789354759
 10
-5.6473691442
 20
3.9709961011
 10
-5.6424288934
 20
3.9628750024
 10
-5.6377676216
 20
3.9545891942
 10
-5.6333858629
 20
3.9461556907
 10
-5.6292841516
 20
3.9375915065
 10
-5.6249695291
 20
3.9277426683
 10
-5.6209962125
 20
3.9177618517
 10
-5.6173447895
 20
3.907663209
 10
-5.6139958476
 20
3.8974608925
 10
-5.6109299742
 20
3.8871690543
 10
-5.608127757
 20
3.8768018468
 10
-5.6055697835
 20
3.8663734222
 10
-5.6032366412
 20
3.8558979327
 10
-5.6002175592
 20
3.8406695016
 10
-5.5975721331
 20
3.8253812571
 10
-5.595243333
 20
3.8100423913
 10
-5.5931741293
 20
3.794662096
 10
-5.5913074921
 20
3.7792495632
 10
-5.5895863916
 20
3.763813985
  0
LINE
  5
384
100
AcDbEntity
  8
CURVE
100
AcDbLine
 62
250
  6
CONTINUOUS
 10
10.5170397999
 20
-6.907143116
 11
10.2456112163
 21
-6.635714674
  0
LINE
  5
385
100
AcDbEntity
  8
0
100
AcDbLine
 62
250
  6
CONTINUOUS
 10
4.8628890466
 20
-9.3450793878
 11
4.8628890466
 21
-10.8336153878
  0
LINE
  5
386
100
AcDbEntity
  8
0
100
AcDbLine
 62
250
  6
CONTINUOUS
 10
5.5357106683
 20
11.0
 11
5.5357106683
 21
13.0
  0
LINE
  5
387
100
AcDbEntity
  8
0
100
AcDbLine
 62
250
  6
CONTINUOUS
 10
5.9980277999
 20
-1.907638
 11
5.9980277999
 21
-6.092362
  0
LINE
  5
388
100
AcDbEntity
  8
0
100
AcDbLine
 62
7
  6
CONTINUOUS
 10
-10.9829602001
 20
-18.0
 11
-9.4829602001
 21
-16.5
  0
LINE
  5
389
100
AcDbEntity
  8
0
100
AcDbLine
 62
250
  6
CONTINUOUS
 10
4.9180007999
 20
-1.768444
 11
-0.0592852001
 21
-6.50013
  0
LINE
  5
38A
100
AcDbEntity
  8
CURVE
100
AcDbLine
 62
250
  6
CONTINUOUS
 10
-6.8831052001
 20
-7.276321
 11
-3.9829672001
 21
-6.345182
  0
LINE
  5
38B
100
AcDbEntity
  8
CURVE
100
AcDbLine
 62
250
  6
CONTINUOUS
 10
-5.1043252001
 20
-7.285246
 11
-5.9798642001
 21
-7.56635
  0
LINE
  5
38C
100
AcDbEntity
  8
CURVE
100
AcDbLine
 62
250
  6
CONTINUOUS
 10
-3.9829752001
 20
-6.925211
 11
-4.5533032001
 21
-7.108317
  0
LWPOLYLINE
  5
38D
100
AcDbEntity
  8
CURVE
100
AcDbPolyline
 62
250
  6
CONTINUOUS
 90
52
 70
0
 10
-5.9907297566
 20
4.7815268003
 10
-6.0211806256
 20
4.7812181196
 10
-6.0516342771
 20
4.7802622694
 10
-6.0820670569
 20
4.7786145378
 10
-6.1124553112
 20
4.776230213
 10
-6.142775386
 20
4.7730645828
 10
-6.1730036274
 20
4.7690729355
 10
-6.2031163814
 20
4.7642105591
 10
-6.2293874954
 20
4.7591991139
 10
-6.2555163218
 20
4.753457933
 10
-6.2814674209
 20
4.7469602571
 10
-6.3072053533
 20
4.7396793272
 10
-6.3326946792
 20
4.7315883841
 10
-6.3578999593
 20
4.7226606687
 10
-6.3827857538
 20
4.7128694219
 10
-6.4073166232
 20
4.7021878845
 10
-6.431453715
 20
4.6905961892
 10
-6.4551524839
 20
4.6780981526
 10
-6.4783649284
 20
4.6647043821
 10
-6.5010430475
 20
4.6504254852
 10
-6.5231388396
 20
4.6352720693
 10
-6.5446043036
 20
4.6192547416
 10
-6.5653914381
 20
4.6023841097
 10
-6.5854522418
 20
4.584670781
 10
-6.6047652626
 20
4.5661132544
 10
-6.6233005094
 20
4.5467734634
 10
-6.641056086
 20
4.5267028944
 10
-6.6580300966
 20
4.5059530338
 10
-6.6742206451
 20
4.484575368
 10
-6.6896258355
 20
4.4626213833
 10
-6.7042437718
 20
4.4401425663
 10
-6.718072558
 20
4.4171904032
 10
-6.732902921
 20
4.3904669015
 10
-6.7467495732
 20
4.363242664
 10
-6.7596600423
 20
4.3355669076
 10
-6.7716818564
 20
4.3074888493
 10
-6.7828625433
 20
4.2790577062
 10
-6.7932496308
 20
4.2503226951
 10
-6.8028906469
 20
4.2213330331
 10
-6.8132543624
 20
4.1872362349
 10
-6.8226957949
 20
4.1528869186
 10
-6.8312440599
 20
4.1183123618
 10
-6.8389282732
 20
4.0835398425
 10
-6.8457775502
 20
4.0485966381
 10
-6.8518210066
 20
4.0135100265
 10
-6.8580520792
 20
3.9713028391
 10
-6.8632679303
 20
3.9289583793
 10
-6.8675691242
 20
3.8865062021
 10
-6.8710562251
 20
3.8439758624
 10
-6.8738297972
 20
3.8013969153
 10
-6.8764718423
 20
3.7481210085
 10
-6.87849846
 20
3.6948258614
  0
LINE
  5
38E
100
AcDbEntity
  8
CURVE
100
AcDbLine
 62
250
  6
CONTINUOUS
 10
-3.9829602001
 20
5.171133
 11
-6.882077899
 21
5.171133
  0
LINE
  5
38F
100
AcDbEntity
  8
CURVE
100
AcDbLine
 62
250
  6
CONTINUOUS
 10
-6.882077899
 20
5.793739
 11
-4.4647464098
 21
5.793739
  0
LINE
  5
390
100
AcDbEntity
  8
CURVE
100
AcDbLine
 62
250
  6
CONTINUOUS
 10
-5.0791981991
 20
8.151456
 11
-6.3280866886
 21
8.581471
  0
LINE
  5
391
100
AcDbEntity
  8
CURVE
100
AcDbLine
 62
250
  6
CONTINUOUS
 10
-3.9829602001
 20
7.773964
 11
-4.5974119894
 21
7.990812
  0
LINE
  5
392
100
AcDbEntity
  8
CURVE
100
AcDbLine
 62
250
  6
CONTINUOUS
 10
-6.882077899
 20
8.227849
 11
-3.9829602001
 21
7.179514
  0
LINE
  5
393
100
AcDbEntity
  8
0
100
AcDbLine
 62
7
  6
CONTINUOUS
 10
-9.4829602001
 20
16.5
 11
-10.9829602001
 21
18.0
  0
LINE
  5
394
100
AcDbEntity
  8
CURVE
100
AcDbLine
 62
250
  6
CONTINUOUS
 10
-1.9401030896
 20
9.8
 11
-2.4829602001
 21
10.3428571671
  0
LINE
  5
395
100
AcDbEntity
  8
CURVE
100
AcDbLine
 62
250
  6
CONTINUOUS
 10
-1.8043887554
 20
14.6404762983
 11
-1.6686745344
 21
14.414285779
  0
LINE
  5
396
100
AcDbEntity
  8
0
100
AcDbLine
 62
250
  6
CONTINUOUS
 10
7.0170397999
 20
-6.092362
 11
7.0170397999
 21
-1.907638
  0
LINE
  5
397
100
AcDbEntity
  8
0
100
AcDbLine
 62
250
  6
CONTINUOUS
 10
8.4638360804
 20
12.75
 11
8.4638360804
 21
11.25
  0
LINE
  5
398
100
AcDbEntity
  8
CURVE
100
AcDbLine
 62
250
  6
CONTINUOUS
 10
8.6170397999
 20
-6.907143116
 11
8.6170397999
 21
-7.042856884
  0
LINE
  5
399
100
AcDbEntity
  8
CURVE
100
AcDbLine
 62
250
  6
CONTINUOUS
 10
8.6170397999
 20
-7.992856884
 11
8.6170397999
 21
-8.807142663
  0
LINE
  5
39A
100
AcDbEntity
  8
CURVE
100
AcDbLine
 62
250
  6
CONTINUOUS
 10
8.6170397999
 20
-10.028571558
 11
8.6170397999
 21
-9.621428442
  0
LINE
  5
39B
100
AcDbEntity
  8
CURVE
100
AcDbLine
 62
250
  6
CONTINUOUS
 10
10.5170397999
 20
-5.414285326
 11
8.6170397999
 21
-5.957143116
  0
LINE
  5
39C
100
AcDbEntity
  8
CORPO
100
AcDbLine
 62
7
  6
CONTINUOUS
 10
15.7908930771
 20
8.9239590572
 11
17.2431865227
 21
9.0510182698
  0
LINE
  5
39D
100
AcDbEntity
  8
ASSI
100
AcDbLine
 62
7
  6
CONTINUOUS
 10
15.7908930771
 20
8.9239590572
 11
17.2431865227
 21
9.0510182698
  0
LINE
  5
39E
100
AcDbEntity
  8
CURVE
100
AcDbLine
 62
250
  6
CONTINUOUS
 10
-4.4647464098
 20
6.866738
 11
-3.9829602001
 21
6.866738
  0
LINE
  5
39F
100
AcDbEntity
  8
CURVE
100
AcDbLine
 62
250
  6
CONTINUOUS
 10
9.7932302626
 20
-4.0119051933
 11
9.9289445402
 21
-4.328571558
  0
LINE
  5
3A0
100
AcDbEntity
  8
CURVE
100
AcDbLine
 62
250
  6
CONTINUOUS
 10
9.9289445402
 20
-3.2880948067
 11
10.0646588462
 21
-3.65
  0
LINE
  5
3A1
100
AcDbEntity
  8
0
100
AcDbLine
 62
250
  6
CONTINUOUS
 10
8.8923422546
 20
11.6785714477
 11
8.8923422546
 21
12.321428597
  0
LINE
  5
3A2
100
AcDbEntity
  8
CURVE
100
AcDbLine
 62
250
  6
CONTINUOUS
 10
9.4313254656
 20
-14.8238094807
 11
9.4313254656
 21
-14.2357143342
  0
LINE
  5
3A3
100
AcDbEntity
  8
CURVE
100
AcDbLine
 62
250
  6
CONTINUOUS
 10
9.4313254656
 20
-8.807142663
 11
9.4313254656
 21
-8.264285326
  0
LINE
  5
3A4
100
AcDbEntity
  8
0
100
AcDbLine
 62
250
  6
CONTINUOUS
 10
9.6422279366
 20
12.321428597
 11
9.6422279366
 21
11.6785714477
  0
LINE
  5
3A5
100
AcDbEntity
  8
CURVE
100
AcDbLine
 62
250
  6
CONTINUOUS
 10
9.9741826328
 20
-12.5166665912
 11
9.9741826328
 21
-13.2404762983
  0
LINE
  5
3A6
100
AcDbEntity
  8
0
100
AcDbLine
 62
250
  6
CONTINUOUS
 10
10.0707340661
 20
11.25
 11
10.0707340661
 21
12.321428597
  0
LINE
  5
3A7
100
AcDbEntity
  8
CURVE
100
AcDbLine
 62
250
  6
CONTINUOUS
 10
10.5170397999
 20
-8.264285326
 11
10.5170397999
 21
-8.807142663
  0
LINE
  5
3A8
100
AcDbEntity
  8
CURVE
100
AcDbLine
 62
250
  6
CONTINUOUS
 10
10.5170397999
 20
-14.2357143342
 11
10.5170397999
 21
-14.6428571105
  0
LINE
  5
3A9
100
AcDbEntity
  8
CURVE
100
AcDbLine
 62
250
  6
CONTINUOUS
 10
10.5170397999
 20
-10.3
 11
10.5170397999
 21
-9.35
  0
LINE
  5
3AA
100
AcDbEntity
  8
CURVE
100
AcDbLine
 62
250
  6
CONTINUOUS
 10
10.5170397999
 20
-7.042856884
 11
10.5170397999
 21
-6.907143116
  0
LINE
  5
3AB
100
AcDbEntity
  8
0
100
AcDbLine
 62
250
  6
CONTINUOUS
 10
10.5349490845
 20
12.321428597
 11
10.5349490845
 21
11.25
  0
LINE
  5
3AC
100
AcDbEntity
  8
CURVE
100
AcDbLine
 62
250
  6
CONTINUOUS
 10
10.0646588462
 20
-3.65
 11
9.7932302626
 21
-4.0119051933
  0
LINE
  5
3AD
100
AcDbEntity
  8
CURVE
100
AcDbLine
 62
250
  6
CONTINUOUS
 10
9.1598969104
 20
-6.5
 11
8.8884683551
 21
-6.635714674
  0
LINE
  5
3AE
100
AcDbEntity
  8
CURVE
100
AcDbLine
 62
250
  6
CONTINUOUS
 10
-6.8830982001
 20
-11.134148
 11
-4.9944292001
 21
-10.59258
  0
LINE
  5
3AF
100
AcDbEntity
  8
CURVE
100
AcDbLine
 62
250
  6
CONTINUOUS
 10
-3.9829672001
 20
-10.882587
 11
-5.8954092001
 21
-11.430963
  0
LINE
  5
3B0
100
AcDbEntity
  8
CURVE
100
AcDbLine
 62
250
  6
CONTINUOUS
 10
-3.9829602001
 20
10.292325
 11
-6.882077899
 21
10.292325
  0
LINE
  5
3B1
100
AcDbEntity
  8
CURVE
100
AcDbLine
 62
250
  6
CONTINUOUS
 10
-2.4829602001
 20
10.3428571671
 11
-0.5829602001
 21
10.3428571671
  0
LINE
  5
3B2
100
AcDbEntity
  8
CURVE
100
AcDbLine
 62
250
  6
CONTINUOUS
 10
-6.409324937
 20
10.87477
 11
-3.9829602001
 21
10.87477
  0
LINE
  5
3B3
100
AcDbEntity
  8
CURVE
100
AcDbLine
 62
250
  6
CONTINUOUS
 10
-0.9901030613
 20
10.8857143342
 11
-2.4829602001
 21
11.2928571105
  0
LINE
  5
3B4
100
AcDbEntity
  8
CURVE
100
AcDbLine
 62
250
  6
CONTINUOUS
 10
-2.4829602001
 20
12.65
 11
-2.0758173106
 21
12.3785713315
  0
LINE
  5
3B5
100
AcDbEntity
  8
CURVE
100
AcDbLine
 62
250
  6
CONTINUOUS
 10
-0.5829602001
 20
12.3785713315
 11
-1.9401030896
 21
13.3285713315
  0
LINE
  5
3B6
100
AcDbEntity
  8
CURVE
100
AcDbLine
 62
250
  6
CONTINUOUS
 10
-0.7186744919
 20
14.685714221
 11
-0.5829602001
 21
14.55
  0
LINE
  5
3B7
100
AcDbEntity
  8
0
100
AcDbLine
 62
250
  6
CONTINUOUS
 10
11.0348729916
 20
12.2142857015
 11
11.0348729916
 21
11.25
  0
LINE
  5
3B8
100
AcDbEntity
  8
0
100
AcDbLine
 62
250
  6
CONTINUOUS
 10
11.4633792999
 20
11.25
 11
11.4633792999
 21
12.321428597
  0
LINE
  5
3B9
100
AcDbEntity
  8
0
100
AcDbLine
 62
250
  6
CONTINUOUS
 10
11.9275943183
 20
12.321428597
 11
11.9275943183
 21
11.25
  0
LINE
  5
3BA
100
AcDbEntity
  8
0
100
AcDbLine
 62
250
  6
CONTINUOUS
 10
12.4275180467
 20
12.2142857015
 11
12.4275180467
 21
11.25
  0
LINE
  5
3BB
100
AcDbEntity
  8
CURVE
100
AcDbLine
 62
250
  6
CONTINUOUS
 10
8.8884683551
 20
-6.635714674
 11
8.6170397999
 21
-6.907143116
  0
LINE
  5
3BC
100
AcDbEntity
  8
CURVE
100
AcDbLine
 62
250
  6
CONTINUOUS
 10
10.2456112163
 20
-7.314285326
 11
10.5170397999
 21
-7.042856884
  0
LINE
  5
3BD
100
AcDbEntity
  8
CURVE
100
AcDbLine
 62
250
  6
CONTINUOUS
 10
9.4313254656
 20
-8.264285326
 11
9.7027540775
 21
-7.992856884
  0
LINE
  5
3BE
100
AcDbEntity
  8
CURVE
100
AcDbLine
 62
250
  6
CONTINUOUS
 10
8.6170397999
 20
-9.621428442
 11
8.8884683551
 21
-9.35
  0
LINE
  5
3BF
100
AcDbEntity
  8
CURVE
100
AcDbLine
 62
250
  6
CONTINUOUS
 10
9.9741826328
 20
-7.45
 11
10.2456112163
 21
-7.314285326
  0
LINE
  5
3C0
100
AcDbEntity
  8
CURVE
100
AcDbLine
 62
250
  6
CONTINUOUS
 10
-6.8830982001
 20
-15.419971
 11
-4.8862012001
 21
-14.778839
  0
LINE
  5
3C1
100
AcDbEntity
  8
0
100
AcDbLine
 62
250
  6
CONTINUOUS
 10
14.5344922063
 20
11.0
 11
5.5357106683
 21
11.0
  0
LINE
  5
3C2
100
AcDbEntity
  8
0
100
AcDbLine
 62
250
  6
CONTINUOUS
 10
9.3208483841
 20
11.25
 11
9.2137218071
 21
11.25
  0
LINE
  5
3C3
100
AcDbEntity
  8
CURVE
100
AcDbLine
 62
250
  6
CONTINUOUS
 10
-1.5329602001
 20
11.5190476298
 11
-0.5829602001
 21
11.5190476298
  0
LINE
  5
3C4
100
AcDbEntity
  8
0
100
AcDbLine
 62
250
  6
CONTINUOUS
 10
10.0707340661
 20
12.321428597
 11
10.9277465039
 21
12.321428597
  0
LINE
  5
3C5
100
AcDbEntity
  8
0
100
AcDbLine
 62
250
  6
CONTINUOUS
 10
11.4633792999
 20
12.321428597
 11
12.320391559
 21
12.321428597
  0
LINE
  5
3C6
100
AcDbEntity
  8
CURVE
100
AcDbLine
 62
250
  6
CONTINUOUS
 10
-4.5846638735
 20
12.328754
 11
-6.882077899
 21
12.328754
  0
LINE
  5
3C7
100
AcDbEntity
  8
0
100
AcDbLine
 62
250
  6
CONTINUOUS
 10
9.2137218071
 20
12.75
 11
9.3208483841
 21
12.75
  0
LINE
  5
3C8
100
AcDbEntity
  8
CURVE
100
AcDbLine
 62
250
  6
CONTINUOUS
 10
-6.882077899
 20
12.911198
 11
-3.9829602001
 21
12.911198
  0
LINE
  5
3C9
100
AcDbEntity
  8
0
100
AcDbLine
 62
250
  6
CONTINUOUS
 10
5.5357106683
 20
13.0
 11
14.5344922063
 21
13.0
  0
LINE
  5
3CA
100
AcDbEntity
  8
CURVE
100
AcDbLine
 62
250
  6
CONTINUOUS
 10
-5.0791981991
 20
14.176491
 11
-6.3279227386
 21
14.606449
  0
LINE
  5
3CB
100
AcDbEntity
  8
CURVE
100
AcDbLine
 62
250
  6
CONTINUOUS
 10
-3.9829602001
 20
13.798889
 11
-4.5974119894
 21
14.015846
  0
LINE
  5
3CC
100
AcDbEntity
  8
CURVE
100
AcDbLine
 62
250
  6
CONTINUOUS
 10
-6.882077899
 20
14.252884
 11
-3.9829602001
 21
13.20444
  0
LWPOLYLINE
  5
3CD
100
AcDbEntity
  8
RACCORDO
100
AcDbPolyline
 62
7
  6
CONTINUOUS
 90
4
 70
0
 10
-9.9829602001
 20
23.7
 10
-9.9832997045
 20
23.7002535774
 10
-9.984311075
 20
23.7008789762
 10
-9.991254198
 20
23.7050113484
  0
LWPOLYLINE
  5
3CE
100
AcDbEntity
  8
CORPO
100
AcDbPolyline
 62
250
  6
CONTINUOUS
 90
8
 70
0
 10
14.5355931091
 20
19.3456285007
 10
14.5354820332
 20
19.3510966574
 10
14.5353553584
 20
19.3557319775
 10
14.5352131917
 20
19.3595305401
 10
14.5350556535
 20
19.3624891323
 10
14.534882877
 20
19.3646052518
 10
14.5346950083
 20
19.3658771086
 10
14.5344922063
 20
19.366303627
  0
LWPOLYLINE
  5
3CF
100
AcDbEntity
  8
ASSI
100
AcDbPolyline
 62
250
  6
CONTINUOUS
 90
8
 70
0
 10
14.5355931091
 20
19.3456285007
 10
14.5354820332
 20
19.3510966574
 10
14.5353553584
 20
19.3557319775
 10
14.5352131917
 20
19.3595305401
 10
14.5350556535
 20
19.3624891323
 10
14.534882877
 20
19.3646052518
 10
14.5346950083
 20
19.3658771086
 10
14.5344922063
 20
19.366303627
  0
LINE
  5
3D0
100
AcDbEntity
  8
CORPO
100
AcDbLine
 62
250
  6
CONTINUOUS
 10
14.5357681014
 20
19.332212878
 11
14.5355931091
 21
19.3456285007
  0
LINE
  5
3D1
100
AcDbEntity
  8
ASSI
100
AcDbLine
 62
250
  6
CONTINUOUS
 10
14.5357681014
 20
19.332212878
 11
14.5355931091
 21
19.3456285007
  0
LINE
  5
3D2
100
AcDbEntity
  8
CORPO
100
AcDbLine
 62
250
  6
CONTINUOUS
 10
14.5356884921
 20
-19.2174233542
 11
14.5344922063
 21
-19.0734550172
  0
LINE
  5
3D3
100
AcDbEntity
  8
ASSI
100
AcDbLine
 62
250
  6
CONTINUOUS
 10
14.5356884921
 20
-19.2174233542
 11
14.5344922063
 21
-19.0734550172
  0
LINE
  5
3D4
100
AcDbEntity
  8
CORPO
100
AcDbLine
 62
250
  6
CONTINUOUS
 10
14.5358797435
 20
19.3155304891
 11
14.5357681014
 21
19.332212878
  0
LINE
  5
3D5
100
AcDbEntity
  8
ASSI
100
AcDbLine
 62
250
  6
CONTINUOUS
 10
14.5358797435
 20
19.3155304891
 11
14.5357681014
 21
19.332212878
  0
LINE
  5
3D6
100
AcDbEntity
  8
CORPO
100
AcDbLine
 62
250
  6
CONTINUOUS
 10
14.5359276576
 20
-19.2845081345
 11
14.5356884921
 21
-19.2174233542
  0
LINE
  5
3D7
100
AcDbEntity
  8
ASSI
100
AcDbLine
 62
250
  6
CONTINUOUS
 10
14.5359276576
 20
-19.2845081345
 11
14.5356884921
 21
-19.2174233542
  0
LINE
  5
3D8
100
AcDbEntity
  8
CORPO
100
AcDbLine
 62
250
  6
CONTINUOUS
 10
14.5358577976
 20
18.4213958285
 11
14.5344922063
 21
18.9120480454
  0
LINE
  5
3D9
100
AcDbEntity
  8
ASSI
100
AcDbLine
 62
250
  6
CONTINUOUS
 10
14.5358577976
 20
18.4213958285
 11
14.5344922063
 21
18.9120480454
  0
LINE
  5
3DA
100
AcDbEntity
  8
CORPO
100
AcDbLine
 62
250
  6
CONTINUOUS
 10
14.5344922063
 20
-19.0734550172
 11
14.5344922063
 21
-18.9120480454
  0
LINE
  5
3DB
100
AcDbEntity
  8
ASSI
100
AcDbLine
 62
250
  6
CONTINUOUS
 10
14.5344922063
 20
-19.0734550172
 11
14.5344922063
 21
-18.9120480454
  0
LINE
  5
3DC
100
AcDbEntity
  8
CORPO
100
AcDbLine
 62
250
  6
CONTINUOUS
 10
14.5344922063
 20
18.9120480454
 11
14.5344922063
 21
19.0734550172
  0
LINE
  5
3DD
100
AcDbEntity
  8
ASSI
100
AcDbLine
 62
250
  6
CONTINUOUS
 10
14.5344922063
 20
18.9120480454
 11
14.5344922063
 21
19.0734550172
  0
LINE
  5
3DE
100
AcDbEntity
  8
CORPO
100
AcDbLine
 62
250
  6
CONTINUOUS
 10
14.5359276576
 20
19.2845081345
 11
14.5358797435
 21
19.3155304891
  0
LINE
  5
3DF
100
AcDbEntity
  8
ASSI
100
AcDbLine
 62
250
  6
CONTINUOUS
 10
14.5359276576
 20
19.2845081345
 11
14.5358797435
 21
19.3155304891
  0
LINE
  5
3E0
100
AcDbEntity
  8
CORPO
100
AcDbLine
 62
250
  6
CONTINUOUS
 10
14.535911691
 20
-18.3431474702
 11
14.5344922063
 21
-17.4980498746
  0
LINE
  5
3E1
100
AcDbEntity
  8
ASSI
100
AcDbLine
 62
250
  6
CONTINUOUS
 10
14.535911691
 20
-18.3431474702
 11
14.5344922063
 21
-17.4980498746
  0
LINE
  5
3E2
100
AcDbEntity
  8
CORPO
100
AcDbLine
 62
250
  6
CONTINUOUS
 10
14.5350556805
 20
17.6723339857
 11
14.5358577976
 21
18.4213958285
  0
LINE
  5
3E3
100
AcDbEntity
  8
ASSI
100
AcDbLine
 62
250
  6
CONTINUOUS
 10
14.5350556805
 20
17.6723339857
 11
14.5358577976
 21
18.4213958285
  0
LINE
  5
3E4
100
AcDbEntity
  8
CORPO
100
AcDbLine
 62
250
  6
CONTINUOUS
 10
14.5358797435
 20
-19.3155304891
 11
14.5359276576
 21
-19.2845081345
  0
LINE
  5
3E5
100
AcDbEntity
  8
ASSI
100
AcDbLine
 62
250
  6
CONTINUOUS
 10
14.5358797435
 20
-19.3155304891
 11
14.5359276576
 21
-19.2845081345
  0
LWPOLYLINE
  5
3E6
100
AcDbEntity
  8
CORPO
100
AcDbPolyline
 62
250
  6
CONTINUOUS
 90
3
 70
0
 10
14.5344922063
 20
-17.4980498746
 10
14.534645592
 20
17.5416731345
 10
14.5350556805
 20
17.6723339857
  0
LWPOLYLINE
  5
3E7
100
AcDbEntity
  8
ASSI
100
AcDbPolyline
 62
250
  6
CONTINUOUS
 90
3
 70
0
 10
14.5344922063
 20
-17.4980498746
 10
14.534645592
 20
17.5416731345
 10
14.5350556805
 20
17.6723339857
  0
LINE
  5
3E8
100
AcDbEntity
  8
CORPO
100
AcDbLine
 62
250
  6
CONTINUOUS
 10
14.5344922063
 20
-18.9120480454
 11
14.535911691
 21
-18.3431474702
  0
LINE
  5
3E9
100
AcDbEntity
  8
ASSI
100
AcDbLine
 62
250
  6
CONTINUOUS
 10
14.5344922063
 20
-18.9120480454
 11
14.535911691
 21
-18.3431474702
  0
LINE
  5
3EA
100
AcDbEntity
  8
CORPO
100
AcDbLine
 62
250
  6
CONTINUOUS
 10
14.5356884921
 20
19.2174233542
 11
14.5359276576
 21
19.2845081345
  0
LINE
  5
3EB
100
AcDbEntity
  8
ASSI
100
AcDbLine
 62
250
  6
CONTINUOUS
 10
14.5356884921
 20
19.2174233542
 11
14.5359276576
 21
19.2845081345
  0
LINE
  5
3EC
100
AcDbEntity
  8
CORPO
100
AcDbLine
 62
250
  6
CONTINUOUS
 10
14.5357681014
 20
-19.332212878
 11
14.5358797435
 21
-19.3155304891
  0
LINE
  5
3ED
100
AcDbEntity
  8
ASSI
100
AcDbLine
 62
250
  6
CONTINUOUS
 10
14.5357681014
 20
-19.332212878
 11
14.5358797435
 21
-19.3155304891
  0
LINE
  5
3EE
100
AcDbEntity
  8
CORPO
100
AcDbLine
 62
250
  6
CONTINUOUS
 10
14.5344922063
 20
19.0734550172
 11
14.5356884921
 21
19.2174233542
  0
LINE
  5
3EF
100
AcDbEntity
  8
ASSI
100
AcDbLine
 62
250
  6
CONTINUOUS
 10
14.5344922063
 20
19.0734550172
 11
14.5356884921
 21
19.2174233542
  0
LINE
  5
3F0
100
AcDbEntity
  8
RACCORDO
100
AcDbLine
 62
7
  6
CONTINUOUS
 10
-12.4829602001
 20
-23.1226497308
 11
-13.3579602001
 21
-23.6278312164
  0
LINE
  5
3F1
100
AcDbEntity
  8
RACCORDO
100
AcDbLine
 62
250
  6
CONTINUOUS
 10
-12.2344146329
 20
-23.2669872981
 11
-13.2344146329
 21
-23.8443375673
  0
LINE
  5
3F2
100
AcDbEntity
  8
CURVE
100
AcDbLine
 62
250
  6
CONTINUOUS
 10
-3.9829602001
 20
-15.068868
 11
-6.8830982001
 21
-16.0
  0
LINE
  5
3F3
100
AcDbEntity
  8
CURVE
100
AcDbLine
 62
250
  6
CONTINUOUS
 10
10.5170397999
 20
-12.335714221
 11
8.6170397999
 21
-12.8785713315
  0
LINE
  5
3F4
100
AcDbEntity
  8
CURVE
100
AcDbLine
 62
250
  6
CONTINUOUS
 10
-1.9401030896
 20
13.3285713315
 11
-2.2115316449
 21
13.3285713315
  0
LINE
  5
3F5
100
AcDbEntity
  8
CURVE
100
AcDbLine
 62
250
  6
CONTINUOUS
 10
-2.2115316449
 20
14.6404762983
 11
-1.8043887554
 21
14.6404762983
  0
LINE
  5
3F6
100
AcDbEntity
  8
CURVE
100
AcDbLine
 62
250
  6
CONTINUOUS
 10
-1.3972459225
 20
14.685714221
 11
-0.7186744919
 21
14.685714221
  0
LINE
  5
3F7
100
AcDbEntity
  8
CURVE
100
AcDbLine
 62
250
  6
CONTINUOUS
 10
-0.9901030613
 20
15.228571558
 11
-2.4829602001
 21
15.635714221
  0
LINE
  5
3F8
100
AcDbEntity
  8
RACCORDO
100
AcDbLine
 62
7
  6
CONTINUOUS
 10
-13.3579602001
 20
23.6278312164
 11
-12.4829602001
 21
23.1226497308
  0
LINE
  5
3F9
100
AcDbEntity
  8
RACCORDO
100
AcDbLine
 62
250
  6
CONTINUOUS
 10
-13.2344146329
 20
23.8443375673
 11
-12.2344146329
 21
23.2669872981
  0
LINE
  5
3FA
100
AcDbEntity
  8
0
100
AcDbLine
 62
250
  6
CONTINUOUS
 10
9.2137218071
 20
11.25
 11
8.9994687423
 21
11.4642857239
  0
LINE
  5
3FB
100
AcDbEntity
  8
0
100
AcDbLine
 62
250
  6
CONTINUOUS
 10
8.9994687423
 20
11.4642857239
 11
8.8923422546
 21
11.6785714477
  0
LINE
  5
3FC
100
AcDbEntity
  8
0
100
AcDbLine
 62
250
  6
CONTINUOUS
 10
9.5351014489
 20
12.5357142985
 11
9.6422279366
 21
12.321428597
  0
LINE
  5
3FD
100
AcDbEntity
  8
CORPO
100
AcDbLine
 62
7
  6
CONTINUOUS
 10
15.5170397999
 20
-18.3664559318
 11
15.5170397999
 21
18.3664559318
  0
LINE
  5
3FE
100
AcDbEntity
  8
ASSI
100
AcDbLine
 62
7
  6
CONTINUOUS
 10
15.5170397999
 20
-18.3664559318
 11
15.5170397999
 21
18.3664559318
  0
LINE
  5
3FF
100
AcDbEntity
  8
CORPO
100
AcDbLine
 62
250
  6
CONTINUOUS
 10
15.7908930854
 20
15.076040942
 11
15.790893085
 21
8.9239590579
  0
LINE
  5
400
100
AcDbEntity
  8
ASSI
100
AcDbLine
 62
250
  6
CONTINUOUS
 10
15.7908930854
 20
15.076040942
 11
15.790893085
 21
8.9239590579
  0
LINE
  5
401
100
AcDbEntity
  8
CORPO
100
AcDbLine
 62
250
  6
CONTINUOUS
 10
15.7908930854
 20
-8.923959058
 11
15.790893085
 21
-15.0760409421
  0
LINE
  5
402
100
AcDbEntity
  8
ASSI
100
AcDbLine
 62
250
  6
CONTINUOUS
 10
15.7908930854
 20
-8.923959058
 11
15.790893085
 21
-15.0760409421
  0
LINE
  5
403
100
AcDbEntity
  8
CORPO
100
AcDbLine
 62
250
  6
CONTINUOUS
 10
17.2431865243
 20
14.94898173
 11
17.2431865247
 21
9.05101827
  0
LINE
  5
404
100
AcDbEntity
  8
ASSI
100
AcDbLine
 62
250
  6
CONTINUOUS
 10
17.2431865243
 20
14.94898173
 11
17.2431865247
 21
9.05101827
  0
LINE
  5
405
100
AcDbEntity
  8
CORPO
100
AcDbLine
 62
250
  6
CONTINUOUS
 10
17.2431865243
 20
-9.05101827
 11
17.2431865247
 21
-14.94898173
  0
LINE
  5
406
100
AcDbEntity
  8
ASSI
100
AcDbLine
 62
250
  6
CONTINUOUS
 10
17.2431865243
 20
-9.05101827
 11
17.2431865247
 21
-14.94898173
  0
LINE
  5
407
100
AcDbEntity
  8
CURVE
100
AcDbLine
 62
250
  6
CONTINUOUS
 10
9.4313254656
 20
-14.2357143342
 11
9.7027540775
 21
-13.964285779
  0
LINE
  5
408
100
AcDbEntity
  8
CURVE
100
AcDbLine
 62
250
  6
CONTINUOUS
 10
-1.5329602001
 20
15.8619047403
 11
-0.5829602001
 21
15.8619047403
  0
LINE
  5
409
100
AcDbEntity
  8
CORPO
100
AcDbLine
 62
7
  6
CONTINUOUS
 10
15.7908930771
 20
15.0760409428
 11
17.2431865227
 21
14.9489817302
  0
LINE
  5
40A
100
AcDbEntity
  8
ASSI
100
AcDbLine
 62
7
  6
CONTINUOUS
 10
15.7908930771
 20
15.0760409428
 11
17.2431865227
 21
14.9489817302
  0
LINE
  5
40B
100
AcDbEntity
  8
RACCORDO
100
AcDbLine
 62
7
  6
CONTINUOUS
 10
-10.0208132538
 20
23.7223048703
 11
-10.2315057673
 21
23.8443375673
  0
LINE
  5
40C
100
AcDbEntity
  8
RACCORDO
100
AcDbLine
 62
7
  6
CONTINUOUS
 10
-9.991254198
 20
23.7050113484
 11
-10.0208132538
 21
23.7223048703
  0
LINE
  5
40D
100
AcDbEntity
  8
0
100
AcDbLine
 62
250
  6
CONTINUOUS
 10
9.3208483841
 20
12.75
 11
9.5351014489
 21
12.5357142985
  0
LINE
  5
40E
100
AcDbEntity
  8
0
100
AcDbLine
 62
250
  6
CONTINUOUS
 10
10.9277465039
 20
12.321428597
 11
11.0348729916
 21
12.2142857015
  0
LINE
  5
40F
100
AcDbEntity
  8
CORPO
100
AcDbLine
 62
7
  6
CONTINUOUS
 10
17.5170397999
 20
14.6501228093
 11
17.5170397999
 21
9.349877195
  0
LINE
  5
410
100
AcDbEntity
  8
ASSI
100
AcDbLine
 62
7
  6
CONTINUOUS
 10
17.5170397999
 20
14.6501228093
 11
17.5170397999
 21
9.349877195
  0
LINE
  5
411
100
AcDbEntity
  8
CORPO
100
AcDbLine
 62
7
  6
CONTINUOUS
 10
17.5170397999
 20
-9.3498771907
 11
17.5170397999
 21
-14.650122805
  0
LINE
  5
412
100
AcDbEntity
  8
ASSI
100
AcDbLine
 62
7
  6
CONTINUOUS
 10
17.5170397999
 20
-9.3498771907
 11
17.5170397999
 21
-14.650122805
  0
LWPOLYLINE
  5
413
100
AcDbEntity
  8
CORPO
100
AcDbPolyline
 62
250
  6
CONTINUOUS
 90
6
 70
0
 10
15.506714363
 20
-18.306400475
 10
15.5104274168
 20
-18.2862309859
 10
15.5133185383
 20
-18.2659943265
 10
15.5153853355
 20
-18.2457072406
 10
15.5166260982
 20
-18.225386514
 10
15.5170397999
 20
-18.20504896
  0
LINE
  5
414
100
AcDbEntity
  8
CURVE
100
AcDbLine
 62
250
  6
CONTINUOUS
 10
10.5170397999
 20
-14.6428571105
 11
10.2456112163
 21
-14.9142856658
  0
LINE
  5
415
100
AcDbEntity
  8
CORPO
100
AcDbLine
 62
250
  6
CONTINUOUS
 10
14.5344922063
 20
17.4980498746
 11
15.5170397999
 21
17.4980498746
  0
LINE
  5
416
100
AcDbEntity
  8
ASSI
100
AcDbLine
 62
250
  6
CONTINUOUS
 10
14.5344922063
 20
17.4980498746
 11
15.5170397999
 21
17.4980498746
  0
LINE
  5
417
100
AcDbEntity
  8
0
100
AcDbLine
 62
7
  6
CONTINUOUS
 10
-9.9829602001
 20
17.8945924132
 11
-9.4829602001
 21
17.892253878
  0
LINE
  5
418
100
AcDbEntity
  8
CORPO
100
AcDbLine
 62
250
  6
CONTINUOUS
 10
14.5344922063
 20
17.4980498746
 11
-9.4829602001
 21
17.6716990487
  0
LINE
  5
419
100
AcDbEntity
  8
ASSI
100
AcDbLine
 62
250
  6
CONTINUOUS
 10
14.5344922063
 20
17.4980498746
 11
-9.4829602001
 21
17.6716990487
  0
LINE
  5
41A
100
AcDbEntity
  8
CORPO
100
AcDbLine
 62
250
  6
CONTINUOUS
 10
14.5344922063
 20
18.9120480454
 11
-9.4829602001
 21
19.0856972195
  0
LINE
  5
41B
100
AcDbEntity
  8
ASSI
100
AcDbLine
 62
250
  6
CONTINUOUS
 10
14.5344922063
 20
18.9120480454
 11
-9.4829602001
 21
19.0856972195
  0
LINE
  5
41C
100
AcDbEntity
  8
0
100
AcDbLine
 62
7
  6
CONTINUOUS
 10
-9.9829602001
 20
19.25
 11
-9.4829602001
 21
19.2412724675
  0
LINE
  5
41D
100
AcDbEntity
  8
CORPO
100
AcDbLine
 62
250
  6
CONTINUOUS
 10
0.5170397999
 20
19.3181305591
 11
14.5344922063
 21
19.0734550172
  0
LINE
  5
41E
100
AcDbEntity
  8
ASSI
100
AcDbLine
 62
250
  6
CONTINUOUS
 10
0.5170397999
 20
19.3181305591
 11
14.5344922063
 21
19.0734550172
  0
LWPOLYLINE
  5
41F
100
AcDbEntity
  8
CORPO
100
AcDbPolyline
 62
250
  6
CONTINUOUS
 90
58
 70
0
 10
14.5344922063
 20
19.0734550172
 10
14.5617474797
 20
19.0728556853
 10
14.5889695416
 20
19.0717310952
 10
14.6161381502
 20
19.0700820815
 10
14.6432330965
 20
19.067909869
 10
14.6702342402
 20
19.0652160707
 10
14.6971215249
 20
19.0620026852
 10
14.7238749817
 20
19.0582720951
 10
14.7504746915
 20
19.0540270741
 10
14.7769008226
 20
19.0492707855
 10
14.8031337068
 20
19.0440067699
 10
14.8291538561
 20
19.0382389384
 10
14.854941926
 20
19.031971579
 10
14.8804787431
 20
19.025209351
 10
14.9057453161
 20
19.0179572832
 10
14.9307228537
 20
19.0102207689
 10
14.9553927817
 20
19.0020055614
 10
14.9797367572
 20
18.9933177689
 10
15.0037366784
 20
18.9841638517
 10
15.0273746992
 20
18.9745506163
 10
15.0506332429
 20
18.964485211
 10
15.0734950147
 20
18.9539751204
 10
15.0959430149
 20
18.9430281596
 10
15.1179605517
 20
18.9316524685
 10
15.139531253
 20
18.9198565059
 10
15.1606390792
 20
18.9076490432
 10
15.1812683349
 20
18.8950391577
 10
15.2014036805
 20
18.8820362257
 10
15.2210301436
 20
18.8686499162
 10
15.2401331303
 20
18.854890183
 10
15.258698436
 20
18.8407672576
 10
15.2767122558
 20
18.8262916415
 10
15.2941611948
 20
18.8114740986
 10
15.3110322781
 20
18.7963256473
 10
15.3273129606
 20
18.7808575516
 10
15.3429911363
 20
18.7650813135
 10
15.3580551466
 20
18.7490086645
 10
15.3724937903
 20
18.732651556
 10
15.386296331
 20
18.7160221509
 10
15.399452505
 20
18.6991328155
 10
15.4119525299
 20
18.6819961081
 10
15.4237871108
 20
18.6646247717
 10
15.4349474471
 20
18.6470317248
 10
15.44542524
 20
18.6292300502
 10
15.4552126993
 20
18.6112329842
 10
15.4643025483
 20
18.5930539079
 10
15.4726880307
 20
18.5747063326
 10
15.4803629084
 20
18.5562039076
 10
15.4873214683
 20
18.5375604085
 10
15.4935585347
 20
18.5187897111
 10
15.4990694767
 20
18.4999057611
 10
15.5038502033
 20
18.4809225816
 10
15.5079022621
 20
18.4618277858
 10
15.5112154924
 20
18.4426618776
 10
15.5137782752
 20
18.4235191068
 10
15.5155958961
 20
18.4044409471
 10
15.5166802813
 20
18.385415203
 10
15.5170397999
 20
18.3664559318
  0
LWPOLYLINE
  5
420
100
AcDbEntity
  8
ASSI
100
AcDbPolyline
 62
250
  6
CONTINUOUS
 90
58
 70
0
 10
14.5344922063
 20
19.0734550172
 10
14.5617474797
 20
19.0728556853
 10
14.5889695416
 20
19.0717310952
 10
14.6161381502
 20
19.0700820815
 10
14.6432330965
 20
19.067909869
 10
14.6702342402
 20
19.0652160707
 10
14.6971215249
 20
19.0620026852
 10
14.7238749817
 20
19.0582720951
 10
14.7504746915
 20
19.0540270741
 10
14.7769008226
 20
19.0492707855
 10
14.8031337068
 20
19.0440067699
 10
14.8291538561
 20
19.0382389384
 10
14.854941926
 20
19.031971579
 10
14.8804787431
 20
19.025209351
 10
14.9057453161
 20
19.0179572832
 10
14.9307228537
 20
19.0102207689
 10
14.9553927817
 20
19.0020055614
 10
14.9797367572
 20
18.9933177689
 10
15.0037366784
 20
18.9841638517
 10
15.0273746992
 20
18.9745506163
 10
15.0506332429
 20
18.964485211
 10
15.0734950147
 20
18.9539751204
 10
15.0959430149
 20
18.9430281596
 10
15.1179605517
 20
18.9316524685
 10
15.139531253
 20
18.9198565059
 10
15.1606390792
 20
18.9076490432
 10
15.1812683349
 20
18.8950391577
 10
15.2014036805
 20
18.8820362257
 10
15.2210301436
 20
18.8686499162
 10
15.2401331303
 20
18.854890183
 10
15.258698436
 20
18.8407672576
 10
15.2767122558
 20
18.8262916415
 10
15.2941611948
 20
18.8114740986
 10
15.3110322781
 20
18.7963256473
 10
15.3273129606
 20
18.7808575516
 10
15.3429911363
 20
18.7650813135
 10
15.3580551466
 20
18.7490086645
 10
15.3724937903
 20
18.732651556
 10
15.386296331
 20
18.7160221509
 10
15.399452505
 20
18.6991328155
 10
15.4119525299
 20
18.6819961081
 10
15.4237871108
 20
18.6646247717
 10
15.4349474471
 20
18.6470317248
 10
15.44542524
 20
18.6292300502
 10
15.4552126993
 20
18.6112329842
 10
15.4643025483
 20
18.5930539079
 10
15.4726880307
 20
18.5747063326
 10
15.4803629084
 20
18.5562039076
 10
15.4873214683
 20
18.5375604085
 10
15.4935585347
 20
18.5187897111
 10
15.4990694767
 20
18.4999057611
 10
15.5038502033
 20
18.4809225816
 10
15.5079022621
 20
18.4618277858
 10
15.5112154924
 20
18.4426618776
 10
15.5137782752
 20
18.4235191068
 10
15.5155958961
 20
18.4044409471
 10
15.5166802813
 20
18.385415203
 10
15.5170397999
 20
18.3664559318
  0
LWPOLYLINE
  5
421
100
AcDbEntity
  8
CORPO
100
AcDbPolyline
 62
250
  6
CONTINUOUS
 90
50
 70
0
 10
14.5344922063
 20
18.9120480454
 10
14.5632422505
 20
18.9114006195
 10
14.5919540667
 20
18.9101687558
 10
14.6206038985
 20
18.9083534736
 10
14.6491680411
 20
18.9059562748
 10
14.6776228603
 20
18.902979143
 10
14.7059448125
 20
18.8994245415
 10
14.7341104641
 20
18.8952954112
 10
14.7620965107
 20
18.8905951687
 10
14.7898797966
 20
18.885327703
 10
14.8174373337
 20
18.8794973723
 10
14.8447463209
 20
18.8731090008
 10
14.8717841626
 20
18.8661678741
 10
14.8985284876
 20
18.8586797355
 10
14.9249571676
 20
18.8506507805
 10
14.9510483354
 20
18.8420876524
 10
14.9767804031
 20
18.8329974363
 10
15.0021320799
 20
18.8233876536
 10
15.0270823897
 20
18.8132662553
 10
15.0516106885
 20
18.8026416161
 10
15.0756966816
 20
18.7915225266
 10
15.09932044
 20
18.7799181869
 10
15.1224624176
 20
18.7678381986
 10
15.1451034664
 20
18.7552925565
 10
15.1672248532
 20
18.742291641
 10
15.1888082748
 20
18.7288462091
 10
15.2098358728
 20
18.7149673855
 10
15.230290249
 20
18.7006666538
 10
15.2501544795
 20
18.6859558463
 10
15.2694121283
 20
18.6708471349
 10
15.2880472618
 20
18.6553530205
 10
15.3060444611
 20
18.6394863229
 10
15.3233888353
 20
18.6232601705
 10
15.3400660336
 20
18.6066879887
 10
15.3560622572
 20
18.5897834894
 10
15.3713642708
 20
18.5725606594
 10
15.3859594135
 20
18.5550337491
 10
15.3998356091
 20
18.5372172601
 10
15.4129813766
 20
18.519125934
 10
15.4253858389
 20
18.5007747395
 10
15.4370387327
 20
18.4821788606
 10
15.4479304163
 20
18.4633536834
 10
15.4580518779
 20
18.444314784
 10
15.4673947429
 20
18.4250779153
 10
15.475951281
 20
18.4056589939
 10
15.4837144126
 20
18.386074087
 10
15.4906777143
 20
18.3663393994
 10
15.4968354247
 20
18.3464712595
 10
15.502182449
 20
18.3264861063
 10
15.5067143628
 20
18.3064004756
  0
LWPOLYLINE
  5
422
100
AcDbEntity
  8
ASSI
100
AcDbPolyline
 62
250
  6
CONTINUOUS
 90
55
 70
0
 10
14.5344922063
 20
18.9120480454
 10
14.5632422505
 20
18.9114006195
 10
14.5919540667
 20
18.9101687558
 10
14.6206038985
 20
18.9083534736
 10
14.6491680411
 20
18.9059562748
 10
14.6776228603
 20
18.902979143
 10
14.7059448125
 20
18.8994245415
 10
14.7341104641
 20
18.8952954112
 10
14.7620965107
 20
18.8905951687
 10
14.7898797966
 20
18.885327703
 10
14.8174373337
 20
18.8794973723
 10
14.8447463209
 20
18.8731090008
 10
14.8717841626
 20
18.8661678741
 10
14.8985284876
 20
18.8586797355
 10
14.9249571676
 20
18.8506507805
 10
14.9510483354
 20
18.8420876524
 10
14.9767804031
 20
18.8329974363
 10
15.0021320799
 20
18.8233876536
 10
15.0270823897
 20
18.8132662553
 10
15.0516106885
 20
18.8026416161
 10
15.0756966816
 20
18.7915225266
 10
15.09932044
 20
18.7799181869
 10
15.1224624176
 20
18.7678381986
 10
15.1451034664
 20
18.7552925565
 10
15.1672248532
 20
18.742291641
 10
15.1888082748
 20
18.7288462091
 10
15.2098358728
 20
18.7149673855
 10
15.230290249
 20
18.7006666538
 10
15.2501544795
 20
18.6859558463
 10
15.2694121283
 20
18.6708471349
 10
15.2880472618
 20
18.6553530205
 10
15.3060444611
 20
18.6394863229
 10
15.3233888353
 20
18.6232601705
 10
15.3400660336
 20
18.6066879887
 10
15.3560622572
 20
18.5897834894
 10
15.3713642708
 20
18.5725606594
 10
15.3859594135
 20
18.5550337491
 10
15.3998356091
 20
18.5372172601
 10
15.4129813766
 20
18.519125934
 10
15.4253858389
 20
18.5007747395
 10
15.4370387327
 20
18.4821788606
 10
15.4479304163
 20
18.4633536834
 10
15.4580518779
 20
18.444314784
 10
15.4673947429
 20
18.4250779153
 10
15.475951281
 20
18.4056589939
 10
15.4837144126
 20
18.386074087
 10
15.4906777143
 20
18.3663393994
 10
15.4968354247
 20
18.3464712595
 10
15.502182449
 20
18.3264861063
 10
15.5067143628
 20
18.3064004756
 10
15.5104274167
 20
18.2862309864
 10
15.5133185383
 20
18.2659943268
 10
15.5153853355
 20
18.2457072409
 10
15.5166260982
 20
18.2253865141
 10
15.5170397999
 20
18.20504896
  0
LINE
  5
423
100
AcDbEntity
  8
0
100
AcDbLine
 62
250
  6
CONTINUOUS
 10
12.320391559
 20
12.321428597
 11
12.4275180467
 21
12.2142857015
  0
LWPOLYLINE
  5
424
100
AcDbEntity
  8
0
100
AcDbPolyline
 62
7
  6
CONTINUOUS
 90
10
 70
0
 43
0.3500000006
 10
-0.273037576
 20
43.7499994354
 10
-0.2016090131
 20
43.6071416016
 10
-0.2016090131
 20
43.5357149506
 10
-0.3444661388
 20
43.3928571167
 10
-0.4158947371
 20
43.3928571167
 10
-0.4873233
 20
43.4642837677
 10
-0.4873233
 20
43.5357149506
 10
-0.4158947371
 20
43.6785727844
 10
-0.3444661388
 20
43.7499994354
 10
-0.273037576
 20
43.7499994354
  0
LWPOLYLINE
  5
425
100
AcDbEntity
  8
CORPO
100
AcDbPolyline
 62
250
  6
CONTINUOUS
 90
6
 70
0
 10
15.5067143628
 20
18.3064004756
 10
15.5104274167
 20
18.2862309864
 10
15.5133185383
 20
18.2659943268
 10
15.5153853355
 20
18.2457072409
 10
15.5166260982
 20
18.2253865141
 10
15.5170397999
 20
18.20504896
  0
LWPOLYLINE
  5
426
100
AcDbEntity
  8
CORPO
100
AcDbPolyline
 62
250
  6
CONTINUOUS
 90
9
 70
0
 10
14.5344922063
 20
-19.366303627
 10
14.5346950083
 20
-19.3658771086
 10
14.534882877
 20
-19.3646052518
 10
14.5350556535
 20
-19.3624891323
 10
14.5352131917
 20
-19.3595305401
 10
14.5353553584
 20
-19.3557319775
 10
14.5354820332
 20
-19.3510966574
 10
14.5355931091
 20
-19.3456285007
 10
14.5357681014
 20
-19.332212878
  0
LWPOLYLINE
  5
427
100
AcDbEntity
  8
ASSI
100
AcDbPolyline
 62
250
  6
CONTINUOUS
 90
9
 70
0
 10
14.5344922063
 20
-19.366303627
 10
14.5346950083
 20
-19.3658771086
 10
14.534882877
 20
-19.3646052518
 10
14.5350556535
 20
-19.3624891323
 10
14.5352131917
 20
-19.3595305401
 10
14.5353553584
 20
-19.3557319775
 10
14.5354820332
 20
-19.3510966574
 10
14.5355931091
 20
-19.3456285007
 10
14.5357681014
 20
-19.332212878
  0
LINE
  5
428
100
AcDbEntity
  8
DRAFT
100
AcDbLine
 62
7
  6
CONTINUOUS
 10
-9.7831734399
 20
20.9104703804
 11
-9.9829602001
 21
20.9
  0
LINE
  5
429
100
AcDbEntity
  8
RACCORDO
100
AcDbLine
 62
7
  6
CONTINUOUS
 10
0.4170397999
 20
20.9994862928
 11
-9.7831734399
 21
20.9104703804
  0
LINE
  5
42A
100
AcDbEntity
  8
RACCORDO
100
AcDbLine
 62
7
  6
CONTINUOUS
 10
-0.0742339969
 20
21.4383257263
 11
-9.9829602001
 21
21.3876583452
  0
LINE
  5
42B
100
AcDbEntity
  8
CORPO
100
AcDbLine
 62
7
  6
CONTINUOUS
 10
-9.4829602001
 20
20.85
 11
0.5170397999
 21
20.85
  0
LINE
  5
42C
100
AcDbEntity
  8
ASSI
100
AcDbLine
 62
7
  6
CONTINUOUS
 10
-9.4829602001
 20
20.85
 11
0.5170397999
 21
20.85
  0
LINE
  5
42D
100
AcDbEntity
  8
CORPO
100
AcDbLine
 62
7
  6
CONTINUOUS
 10
0.5170397999
 20
19.6109791689
 11
14.5344922063
 21
19.366303627
  0
LINE
  5
42E
100
AcDbEntity
  8
ASSI
100
AcDbLine
 62
7
  6
CONTINUOUS
 10
0.5170397999
 20
19.6109791689
 11
14.5344922063
 21
19.366303627
  0
LINE
  5
42F
100
AcDbEntity
  8
0
100
AcDbLine
 62
250
  6
CONTINUOUS
 10
-19.5691153698
 20
20.5419058565
 11
-19.9693221723
 21
20.558531085
  0
LINE
  5
430
100
AcDbEntity
  8
0
100
AcDbLine
 62
250
  6
CONTINUOUS
 10
-19.9693221723
 20
20.558531085
 11
-20.0549953669
 21
20.5622131686
  0
LWPOLYLINE
  5
431
100
AcDbEntity
  8
0
100
AcDbPolyline
 62
250
  6
CONTINUOUS
 90
3
 70
0
 10
-20.0549953669
 20
20.5622131686
 10
-20.0594135076
 20
20.5624286744
 10
-20.0599661726
 20
20.5624683248
  0
LWPOLYLINE
  5
432
100
AcDbEntity
  8
0
100
AcDbPolyline
 62
250
  6
CONTINUOUS
 90
43
 70
0
 10
-18.6222973141
 20
21.4994104546
 10
-18.6578378364
 20
21.4968820272
 10
-18.6930360804
 20
21.4931555823
 10
-18.727892046
 20
21.48823112
 10
-18.76239514
 20
21.4821033184
 10
-18.7965559556
 20
21.4747774993
 10
-18.830406273
 20
21.4662696283
 10
-18.8640006012
 20
21.4565710075
 10
-18.8972844312
 20
21.4456903348
 10
-18.9301260163
 20
21.4336696693
 10
-18.9625197103
 20
21.4205058061
 10
-18.9944711594
 20
21.4062019502
 10
-19.0258655557
 20
21.3908097746
 10
-19.0567017623
 20
21.3743249669
 10
-19.0869809161
 20
21.3567518397
 10
-19.1165916194
 20
21.3381550042
 10
-19.1455312435
 20
21.3185307801
 10
-19.1738024171
 20
21.2978828478
 10
-19.2013016287
 20
21.2762868595
 10
-19.2280260393
 20
21.2537393549
 10
-19.2539784878
 20
21.2302437943
 10
-19.2790639793
 20
21.2058862114
 10
-19.3032794216
 20
21.1806633289
 10
-19.3266279068
 20
21.1545784241
 10
-19.3490237166
 20
21.1277273619
 10
-19.3704629907
 20
21.1001079454
 10
-19.3909495893
 20
21.0717223715
 10
-19.4104093745
 20
21.0426730967
 10
-19.4288400612
 20
21.0129544832
 10
-19.4462439345
 20
20.9825721687
 10
-19.4625537117
 20
20.9516455224
 10
-19.4777504913
 20
20.9202242857
 10
-19.4918531748
 20
20.8882587173
 10
-19.5048511835
 20
20.8557189623
 10
-19.5167693391
 20
20.8225563179
 10
-19.5275828199
 20
20.7888194871
 10
-19.5372065818
 20
20.7546247235
 10
-19.5456374472
 20
20.7199428604
 10
-19.5528785936
 20
20.6848030645
 10
-19.5588545102
 20
20.6494090908
 10
-19.5635400266
 20
20.6138288573
 10
-19.5669603131
 20
20.5779944459
 10
-19.5691153698
 20
20.5419058565
  0
LINE
  5
433
100
AcDbEntity
  8
0
100
AcDbLine
 62
250
  6
CONTINUOUS
 10
-10.9829602001
 20
21.8997711479
 11
-18.6222973141
 21
21.4994104546
  0
LINE
  5
434
100
AcDbEntity
  8
0
100
AcDbLine
 62
7
  6
CONTINUOUS
 10
-10.9829602001
 20
22.3999998839
 11
-12.2441363189
 21
22.3337072056
  0
LINE
  5
435
100
AcDbEntity
  8
0
100
AcDbLine
 62
7
  6
CONTINUOUS
 10
-12.2441363189
 20
22.3337072056
 11
-18.639739089
 21
21.998725222
  0
LINE
  5
436
100
AcDbEntity
  8
0
100
AcDbLine
 62
250
  6
CONTINUOUS
 10
-9.9829602001
 20
21.8913302454
 11
-10.9829602001
 21
21.9000571132
  0
LINE
  5
437
100
AcDbEntity
  8
RACCORDO
100
AcDbLine
 62
7
  6
CONTINUOUS
 10
-0.5742336646
 20
22.3091644197
 11
-9.9829602001
 21
22.3912731322
  0
LINE
  5
438
100
AcDbEntity
  8
0
100
AcDbLine
 62
7
  6
CONTINUOUS
 10
-9.9829602001
 20
22.3912731322
 11
-10.9829602001
 21
22.4
  0
LINE
  5
439
100
AcDbEntity
  8
RACCORDO
100
AcDbLine
 62
250
  6
CONTINUOUS
 10
-10.9829602001
 20
24.2500042308
 11
-13.2344146329
 21
24.2369056521
  0
LINE
  5
43A
100
AcDbEntity
  8
RACCORDO
100
AcDbLine
 62
7
  6
CONTINUOUS
 10
-10.9829602001
 20
24.5
 11
-13.2344146329
 21
24.4869014213
  0
LINE
  5
43B
100
AcDbEntity
  8
RACCORDO
100
AcDbLine
 62
250
  6
CONTINUOUS
 10
-13.4829602001
 20
23.8443375673
 11
-13.2344146329
 21
23.8443375673
  0
LINE
  5
43C
100
AcDbEntity
  8
RACCORDO
100
AcDbLine
 62
250
  6
CONTINUOUS
 10
-13.4829602001
 20
24.2369056521
 11
-13.2344146329
 21
24.2369056521
  0
LINE
  5
43D
100
AcDbEntity
  8
RACCORDO
100
AcDbLine
 62
250
  6
CONTINUOUS
 10
-9.9829602001
 20
24.2456323968
 11
-10.2315057673
 21
24.2456323968
  0
LINE
  5
43E
100
AcDbEntity
  8
ASSI
100
AcDbLine
 62
7
  6
CONTINUOUS
 10
-9.9829602001
 20
23.7941821702
 11
-3.4800513344
 21
23.7563493531
  0
LINE
  5
43F
100
AcDbEntity
  8
RACCORDO
100
AcDbLine
 62
250
  6
CONTINUOUS
 10
-10.2315057673
 20
24.2456323968
 11
-10.9829602001
 21
24.2500042308
  0
LINE
  5
440
100
AcDbEntity
  8
RACCORDO
100
AcDbLine
 62
7
  6
CONTINUOUS
 10
-10.2315057673
 20
24.495628166
 11
-10.9829602001
 21
24.5
  0
LWPOLYLINE
  5
441
100
AcDbEntity
  8
0
100
AcDbPolyline
 62
7
  6
CONTINUOUS
 90
7
 70
0
 43
0.3500000006
 10
3.1598968449
 20
33.2500007629
 10
1.6598969536
 20
33.2500007629
 10
3.1598968449
 20
35.3928592072
 10
3.1598968449
 20
35.8214281769
 10
2.7313256092
 20
36.2500016785
 10
2.0884683309
 20
36.2500016785
 10
1.6598969536
 20
35.607143692
  0
LWPOLYLINE
  5
442
100
AcDbEntity
  8
0
100
AcDbPolyline
 62
7
  6
CONTINUOUS
 90
6
 70
0
 43
0.3500000006
 10
-5.4158948822
 20
43.2499992828
 10
-4.3444662266
 20
43.2499992828
 10
-4.1301803255
 20
43.4642837677
 10
-4.1301803255
 20
44.5357152557
 10
-4.5587518444
 20
44.9642842255
 10
-4.9873230801
 20
44.9642842255
  0
LWPOLYLINE
  5
443
100
AcDbEntity
  8
0
100
AcDbPolyline
 62
7
  6
CONTINUOUS
 90
8
 70
0
 43
0.3500000006
 10
0.7983910089
 20
43.2499992828
 10
1.655533905
 20
43.2499992828
 10
2.0841052823
 20
43.6785727844
 10
2.0841052823
 20
44.5357152557
 10
1.655533905
 20
44.9642842255
 10
0.7983910089
 20
44.9642842255
 10
0.7983910089
 20
46.2500001984
 10
2.0841052823
 20
46.2500001984
  0
LWPOLYLINE
  5
444
100
AcDbEntity
  8
0
100
AcDbPolyline
 62
7
  6
CONTINUOUS
 90
5
 70
0
 43
0.3500000006
 10
47.6867815247
 20
34.9642857056
 10
48.0439238434
 20
35.1785701904
 10
48.0439238434
 20
35.8214281769
 10
47.6867815247
 20
36.2500016785
 10
46.8296345215
 20
36.2500016785
  0
LWPOLYLINE
  5
445
100
AcDbEntity
  8
RACCORDO
100
AcDbPolyline
 62
250
  6
CONTINUOUS
 90
31
 70
0
 10
55.0736849354
 20
-24.4869014213
 10
55.0867684214
 20
-24.4865583827
 10
55.099816048
 20
-24.4855310928
 10
55.1127920541
 20
-24.4838223673
 10
55.125660875
 20
-24.4814368893
 10
55.1383872395
 20
-24.4783811971
 10
55.1509362672
 20
-24.4746636657
 10
55.1632735635
 20
-24.4702944842
 10
55.1753653141
 20
-24.4652856277
 10
55.1871783779
 20
-24.4596508246
 10
55.1986803775
 20
-24.4534055187
 10
55.209839788
 20
-24.4465668272
 10
55.2206260236
 20
-24.4391534939
 10
55.2310095212
 20
-24.4311858371
 10
55.2409618217
 20
-24.4226856948
 10
55.2504556476
 20
-24.4136763643
 10
55.2594649782
 20
-24.4041825384
 10
55.2679651205
 20
-24.3942302379
 10
55.2759327772
 20
-24.3838467403
 10
55.2833461106
 20
-24.3730605047
 10
55.290184802
 20
-24.3619010942
 10
55.2964301079
 20
-24.3503990946
 10
55.3020649111
 20
-24.3385860308
 10
55.3070737676
 20
-24.3264942801
 10
55.311442949
 20
-24.3141569839
 10
55.3151604804
 20
-24.3016079562
 10
55.3182161726
 20
-24.2888815916
 10
55.3206016506
 20
-24.2760127708
 10
55.3223103762
 20
-24.2630367647
 10
55.323337666
 20
-24.2499891381
 10
55.3236807046
 20
-24.2369056521
  0
LWPOLYLINE
  5
446
100
AcDbEntity
  8
RACCORDO
100
AcDbPolyline
 62
250
  6
CONTINUOUS
 90
31
 70
0
 10
36.1736849354
 20
-24.4869014213
 10
36.1867712895
 20
-24.4865582323
 10
36.1998217879
 20
-24.4855304893
 10
36.2128006453
 20
-24.4838210061
 10
36.2256722849
 20
-24.4814344634
 10
36.2384013989
 20
-24.4783774023
 10
36.2509530463
 20
-24.4746582128
 10
36.2632928024
 20
-24.4702870977
 10
36.2753868396
 20
-24.4652760422
 10
36.2872019853
 20
-24.4596387939
 10
36.2987058411
 20
-24.4533908148
 10
36.309866867
 20
-24.446549239
 10
36.3206544574
 20
-24.4391328321
 10
36.3310390466
 20
-24.4311619239
 10
36.34099215
 20
-24.4226583824
 10
36.3504864432
 20
-24.4136455633
 10
36.359495865
 20
-24.4041482289
 10
36.367995762
 20
-24.3941923917
 10
36.3759629042
 20
-24.3838052658
 10
36.3833755342
 20
-24.3730151866
 10
36.3902132161
 20
-24.3618518682
 10
36.3964570177
 20
-24.3503462678
 10
36.4020897663
 20
-24.3385301896
 10
36.4070961962
 20
-24.3264358334
 10
36.4114627473
 20
-24.3140960295
 10
36.415178187
 20
-24.3015418449
 10
36.4182313004
 20
-24.2888103798
 10
36.4206124306
 20
-24.275944661
 10
36.4223160348
 20
-24.2629828864
 10
36.4233392974
 20
-24.249957992
 10
36.4236807046
 20
-24.2369056521
  0
LWPOLYLINE
  5
447
100
AcDbEntity
  8
RACCORDO
100
AcDbPolyline
 62
7
  6
CONTINUOUS
 90
34
 70
0
 10
55.0867835141
 20
-24.5
 10
55.0986787994
 20
-24.4997168498
 10
55.1105471389
 20
-24.4988680342
 10
55.1223616495
 20
-24.4974554741
 10
55.1340955708
 20
-24.4954823677
 10
55.1457223221
 20
-24.4929531817
 10
55.1572155623
 20
-24.4898736417
 10
55.1685492571
 20
-24.4862507213
 10
55.1796977326
 20
-24.4820926258
 10
55.1906357296
 20
-24.4774087722
 10
55.2013384709
 20
-24.4722097688
 10
55.2117817116
 20
-24.4665073916
 10
55.2219417892
 20
-24.4603145581
 10
55.2317956885
 20
-24.4536452955
 10
55.2413210872
 20
-24.4465147107
 10
55.2504964024
 20
-24.4389389589
 10
55.2593008494
 20
-24.4309352005
 10
55.2677144838
 20
-24.4225215661
 10
55.2757182422
 20
-24.4137171191
 10
55.283293994
 20
-24.4045418038
 10
55.2904245788
 20
-24.3950164051
 10
55.2970938415
 20
-24.3851625059
 10
55.303286675
 20
-24.3750024283
 10
55.3089890522
 20
-24.3645591876
 10
55.3141880555
 20
-24.3538564463
 10
55.3188719091
 20
-24.3429184493
 10
55.3230300047
 20
-24.3317699738
 10
55.326652925
 20
-24.320436279
 10
55.3297324651
 20
-24.3089430388
 10
55.3322616511
 20
-24.2973162875
 10
55.3342347575
 20
-24.2855823661
 10
55.3356473176
 20
-24.2737678556
 10
55.3364961331
 20
-24.261899516
 10
55.3367792833
 20
-24.2500042308
  0
LWPOLYLINE
  5
448
100
AcDbEntity
  8
RACCORDO
100
AcDbPolyline
 62
7
  6
CONTINUOUS
 90
34
 70
0
 10
36.1867835141
 20
-24.5
 10
36.1986787994
 20
-24.4997168498
 10
36.2105471389
 20
-24.4988680342
 10
36.2223616495
 20
-24.4974554741
 10
36.2340955708
 20
-24.4954823677
 10
36.2457223221
 20
-24.4929531817
 10
36.2572155623
 20
-24.4898736417
 10
36.2685492571
 20
-24.4862507213
 10
36.2796977326
 20
-24.4820926258
 10
36.2906357296
 20
-24.4774087722
 10
36.3013384709
 20
-24.4722097688
 10
36.3117817116
 20
-24.4665073916
 10
36.3219417892
 20
-24.4603145581
 10
36.3317956885
 20
-24.4536452955
 10
36.3413210872
 20
-24.4465147107
 10
36.3504964024
 20
-24.4389389589
 10
36.3593008494
 20
-24.4309352005
 10
36.3677144838
 20
-24.4225215661
 10
36.3757182422
 20
-24.4137171191
 10
36.383293994
 20
-24.4045418038
 10
36.3904245788
 20
-24.3950164051
 10
36.3970938415
 20
-24.3851625059
 10
36.403286675
 20
-24.3750024283
 10
36.4089890522
 20
-24.3645591876
 10
36.4141880555
 20
-24.3538564463
 10
36.4188719091
 20
-24.3429184493
 10
36.4230300047
 20
-24.3317699738
 10
36.426652925
 20
-24.320436279
 10
36.4297324651
 20
-24.3089430388
 10
36.4322616511
 20
-24.2973162875
 10
36.4342347575
 20
-24.2855823661
 10
36.4356473176
 20
-24.2737678556
 10
36.4364961331
 20
-24.261899516
 10
36.4367792833
 20
-24.2500042308
  0
LINE
  5
449
100
AcDbEntity
  8
RACCORDO
100
AcDbLine
 62
7
  6
CONTINUOUS
 10
55.0867835141
 20
-24.5
 11
53.1867750525
 21
-24.5
  0
LINE
  5
44A
100
AcDbEntity
  8
RACCORDO
100
AcDbLine
 62
7
  6
CONTINUOUS
 10
36.1867835141
 20
-24.5
 11
34.2867750525
 21
-24.5
  0
LINE
  5
44B
100
AcDbEntity
  8
RACCORDO
100
AcDbLine
 62
250
  6
CONTINUOUS
 10
34.2998736313
 20
-24.4869014213
 11
36.1736849354
 21
-24.4869014213
  0
LINE
  5
44C
100
AcDbEntity
  8
RACCORDO
100
AcDbLine
 62
250
  6
CONTINUOUS
 10
53.1998736313
 20
-24.4869014213
 11
55.0736849354
 21
-24.4869014213
  0
LINE
  5
44D
100
AcDbEntity
  8
RACCORDO
100
AcDbLine
 62
250
  6
CONTINUOUS
 10
34.049877862
 20
-24.2369056521
 11
36.4236807046
 21
-24.2369056521
  0
LINE
  5
44E
100
AcDbEntity
  8
RACCORDO
100
AcDbLine
 62
250
  6
CONTINUOUS
 10
52.949877862
 20
-24.2369056521
 11
55.3236807046
 21
-24.2369056521
  0
LINE
  5
44F
100
AcDbEntity
  8
RACCORDO
100
AcDbLine
 62
250
  6
CONTINUOUS
 10
34.049877862
 20
-23.8443375673
 11
36.4236807046
 21
-23.8443375673
  0
LINE
  5
450
100
AcDbEntity
  8
RACCORDO
100
AcDbLine
 62
250
  6
CONTINUOUS
 10
52.949877862
 20
-23.8443375673
 11
55.3236807046
 21
-23.8443375673
  0
LINE
  5
451
100
AcDbEntity
  8
DRAFT
100
AcDbLine
 62
7
  6
CONTINUOUS
 10
49.0867792833
 20
-23.8
 11
40.2867792833
 21
-23.8
  0
LINE
  5
452
100
AcDbEntity
  8
RACCORDO
100
AcDbLine
 62
250
  6
CONTINUOUS
 10
40.3905719697
 20
-23.7953389668
 11
48.982986597
 21
-23.7953389668
  0
LWPOLYLINE
  5
453
100
AcDbEntity
  8
0
100
AcDbPolyline
 62
250
  6
CONTINUOUS
 90
16
 70
0
 10
33.6866511793
 20
20.5419058565
 10
33.6876151786
 20
20.5428735512
 10
33.6896845293
 20
20.5438391023
 10
33.6928546472
 20
20.5448003706
 10
33.6971185097
 20
20.5457552266
 10
33.7024666708
 20
20.5467015551
 10
33.7088872829
 20
20.5476372597
 10
33.7163661224
 20
20.5485602674
 10
33.7248866212
 20
20.5494685336
 10
33.7344299039
 20
20.550360046
 10
33.7449748292
 20
20.5512328298
 10
33.7564980369
 20
20.5520849515
 10
33.7689739994
 20
20.5529145233
 10
33.7823750786
 20
20.5537197075
 10
33.7966715871
 20
20.5544987203
 10
33.8118318535
 20
20.555249836
  0
LINE
  5
454
100
AcDbEntity
  8
RACCORDO
100
AcDbLine
 62
250
  6
CONTINUOUS
 10
36.1867835141
 20
24.5
 11
36.1736849354
 21
24.4869014213
  0
LINE
  5
455
100
AcDbEntity
  8
RACCORDO
100
AcDbLine
 62
250
  6
CONTINUOUS
 10
36.4367792833
 20
24.2500042308
 11
36.4236807046
 21
24.2369056521
  0
LWPOLYLINE
  5
456
100
AcDbEntity
  8
RACCORDO
100
AcDbPolyline
 62
7
  6
CONTINUOUS
 90
23
 70
0
 10
40.3905719697
 20
-23.7953389668
 10
40.4013610931
 20
-23.7947915649
 10
40.4124485552
 20
-23.793363895
 10
40.4238343561
 20
-23.7911364879
 10
40.4355431364
 20
-23.7881978965
 10
40.4475502554
 20
-23.7846238716
 10
40.4597817913
 20
-23.7804595132
 10
40.4722305316
 20
-23.7757643703
 10
40.4849036887
 20
-23.7706018097
 10
40.4977489789
 20
-23.7649953104
 10
40.510762111
 20
-23.758990232
 10
40.5239473761
 20
-23.7526365647
 10
40.537265363
 20
-23.7459460582
 10
40.5507138501
 20
-23.7389542831
 10
40.5642950589
 20
-23.7317013921
 10
40.5779762437
 20
-23.724193673
 10
40.5917563555
 20
-23.7164601879
 10
40.6056364432
 20
-23.708533951
 10
40.6195869077
 20
-23.7004191901
 10
40.6336075083
 20
-23.6921405291
 10
40.6476984858
 20
-23.6837259593
 10
40.6618309632
 20
-23.6751796798
 10
40.6902210995
 20
-23.6577812011
  0
LINE
  5
457
100
AcDbEntity
  8
RACCORDO
100
AcDbLine
 62
250
  6
CONTINUOUS
 10
55.0736849354
 20
-23.6278312164
 11
53.1998736313
 21
-23.6278312164
  0
LINE
  5
458
100
AcDbEntity
  8
RACCORDO
100
AcDbLine
 62
250
  6
CONTINUOUS
 10
36.1736849354
 20
-23.6278312164
 11
34.2998736313
 21
-23.6278312164
  0
LINE
  5
459
100
AcDbEntity
  8
RACCORDO
100
AcDbLine
 62
250
  6
CONTINUOUS
 10
40.78969666
 20
-23.5953423515
 11
48.5838619067
 21
-23.5953423515
  0
LINE
  5
45A
100
AcDbEntity
  8
RACCORDO
100
AcDbLine
 62
7
  6
CONTINUOUS
 10
55.0795027652
 20
-23.1226497308
 11
53.1940558015
 21
-23.1226497308
  0
LINE
  5
45B
100
AcDbEntity
  8
RACCORDO
100
AcDbLine
 62
7
  6
CONTINUOUS
 10
36.1795027652
 20
-23.1226497308
 11
34.2940558015
 21
-23.1226497308
  0
LINE
  5
45C
100
AcDbEntity
  8
DRAFT
100
AcDbLine
 62
7
  6
CONTINUOUS
 10
36.4367792833
 20
-22.4
 11
40.2867792833
 21
-22.4
  0
LINE
  5
45D
100
AcDbEntity
  8
DRAFT
100
AcDbLine
 62
7
  6
CONTINUOUS
 10
49.0867792833
 20
-22.4
 11
52.9367792833
 21
-22.4
  0
LINE
  5
45E
100
AcDbEntity
  8
RACCORDO
100
AcDbLine
 62
7
  6
CONTINUOUS
 10
40.78969666
 20
-22.3475922207
 11
48.5838619067
 21
-22.3475922207
  0
LINE
  5
45F
100
AcDbEntity
  8
RACCORDO
100
AcDbLine
 62
7
  6
CONTINUOUS
 10
55.0795027652
 20
-22.3213883311
 11
53.1940558015
 21
-22.3213883311
  0
LINE
  5
460
100
AcDbEntity
  8
RACCORDO
100
AcDbLine
 62
7
  6
CONTINUOUS
 10
36.1795027652
 20
-22.3213883311
 11
34.2940558015
 21
-22.3213883311
  0
LINE
  5
461
100
AcDbEntity
  8
0
100
AcDbLine
 62
250
  6
CONTINUOUS
 10
55.2035103104
 20
-21.998725222
 11
34.1700482562
 21
-21.998725222
  0
LWPOLYLINE
  5
462
100
AcDbEntity
  8
RACCORDO
100
AcDbPolyline
 62
7
  6
CONTINUOUS
 90
22
 70
0
 10
48.982986597
 20
-23.7953389668
 10
48.9721974736
 20
-23.7947915649
 10
48.9611100114
 20
-23.793363895
 10
48.9497242105
 20
-23.7911364879
 10
48.9380154303
 20
-23.7881978965
 10
48.9260083113
 20
-23.7846238716
 10
48.9137767754
 20
-23.7804595132
 10
48.9013280351
 20
-23.7757643703
 10
48.8886548779
 20
-23.7706018097
 10
48.8758095878
 20
-23.7649953104
 10
48.8627964556
 20
-23.758990232
 10
48.8496111906
 20
-23.7526365647
 10
48.8362932036
 20
-23.7459460582
 10
48.8228447166
 20
-23.7389542831
 10
48.8092635078
 20
-23.7317013921
 10
48.795582323
 20
-23.724193673
 10
48.7818022112
 20
-23.7164601879
 10
48.7679221235
 20
-23.708533951
 10
48.7539716589
 20
-23.7004191901
 10
48.7399510583
 20
-23.6921405291
 10
48.7258600809
 20
-23.6837259593
 10
48.7117276034
 20
-23.6751796798
  0
LINE
  5
463
100
AcDbEntity
  8
RACCORDO
100
AcDbLine
 62
250
  6
CONTINUOUS
 10
36.1867835141
 20
-24.5
 11
36.1736849354
 21
-24.4869014213
  0
LINE
  5
464
100
AcDbEntity
  8
RACCORDO
100
AcDbLine
 62
250
  6
CONTINUOUS
 10
36.4367792833
 20
-24.2500042308
 11
36.4236807046
 21
-24.2369056521
  0
LWPOLYLINE
  5
465
100
AcDbEntity
  8
0
100
AcDbPolyline
 62
250
  6
CONTINUOUS
 90
17
 70
0
 10
33.6866511793
 20
-20.5419058565
 10
33.6876151789
 20
-20.5428735514
 10
33.6896845303
 20
-20.5438391026
 10
33.6928546493
 20
-20.544800371
 10
33.697118513
 20
-20.5457552271
 10
33.7024666757
 20
-20.5467015558
 10
33.7088872895
 20
-20.5476372604
 10
33.7163661308
 20
-20.5485602682
 10
33.7248866316
 20
-20.5494685344
 10
33.7344299163
 20
-20.5503600469
 10
33.7449748436
 20
-20.5512328307
 10
33.7564980532
 20
-20.5520849524
 10
33.7689740175
 20
-20.5529145242
 10
33.7823750984
 20
-20.5537197083
 10
33.7966716083
 20
-20.5544987211
 10
33.811831876
 20
-20.5552498368
 10
33.8446075069
 20
-20.5566617864
  0
LINE
  5
466
100
AcDbEntity
  8
0
100
AcDbLine
 62
250
  6
CONTINUOUS
 10
55.5617267282
 20
-20.5552498353
 11
55.5289511005
 21
-20.5566617851
  0
LINE
  5
467
100
AcDbEntity
  8
0
100
AcDbLine
 62
250
  6
CONTINUOUS
 10
55.5289511005
 20
-20.5566617851
 11
55.49314689
 21
-20.5579430514
  0
LINE
  5
468
100
AcDbEntity
  8
0
100
AcDbLine
 62
250
  6
CONTINUOUS
 10
55.49314689
 20
-20.5579430514
 11
55.4546311908
 21
-20.5590822868
  0
LINE
  5
469
100
AcDbEntity
  8
0
100
AcDbLine
 62
250
  6
CONTINUOUS
 10
55.4546311908
 20
-20.5590822868
 11
55.4137451109
 21
-20.5600694019
  0
LINE
  5
46A
100
AcDbEntity
  8
0
100
AcDbLine
 62
250
  6
CONTINUOUS
 10
55.4137451109
 20
-20.5600694019
 11
55.3708507517
 21
-20.5608956544
  0
LINE
  5
46B
100
AcDbEntity
  8
0
100
AcDbLine
 62
250
  6
CONTINUOUS
 10
55.3708507517
 20
-20.5608956544
 11
55.3035787302
 21
-20.5618178144
  0
LINE
  5
46C
100
AcDbEntity
  8
0
100
AcDbLine
 62
250
  6
CONTINUOUS
 10
55.3035787302
 20
-20.5618178144
 11
55.2339854855
 21
-20.5623435595
  0
LINE
  5
46D
100
AcDbEntity
  8
0
100
AcDbLine
 62
250
  6
CONTINUOUS
 10
55.2339854855
 20
-20.5623435595
 11
34.1865750269
 21
-20.5624683248
  0
LINE
  5
46E
100
AcDbEntity
  8
0
100
AcDbLine
 62
250
  6
CONTINUOUS
 10
34.1162023071
 20
-20.5622131686
 11
34.1865750269
 21
-20.5624683248
  0
LINE
  5
46F
100
AcDbEntity
  8
0
100
AcDbLine
 62
250
  6
CONTINUOUS
 10
34.0472305938
 20
-20.5615537269
 11
34.1162023071
 21
-20.5622131686
  0
LINE
  5
470
100
AcDbEntity
  8
0
100
AcDbLine
 62
250
  6
CONTINUOUS
 10
34.0027078488
 20
-20.5608956547
 11
34.0472305938
 21
-20.5615537269
  0
LINE
  5
471
100
AcDbEntity
  8
0
100
AcDbLine
 62
250
  6
CONTINUOUS
 10
33.9598134943
 20
-20.5600694024
 11
34.0027078488
 21
-20.5608956547
  0
LINE
  5
472
100
AcDbEntity
  8
0
100
AcDbLine
 62
250
  6
CONTINUOUS
 10
33.9189274172
 20
-20.5590822876
 11
33.9598134943
 21
-20.5600694024
  0
LINE
  5
473
100
AcDbEntity
  8
0
100
AcDbLine
 62
250
  6
CONTINUOUS
 10
33.8804117187
 20
-20.5579430524
 11
33.9189274172
 21
-20.5590822876
  0
LINE
  5
474
100
AcDbEntity
  8
0
100
AcDbLine
 62
250
  6
CONTINUOUS
 10
33.8446075069
 20
-20.5566617864
 11
33.8804117187
 21
-20.5579430524
  0
LWPOLYLINE
  5
475
100
AcDbEntity
  8
0
100
AcDbPolyline
 62
7
  6
CONTINUOUS
 90
10
 70
0
 10
55.3138198026
 20
-22.3299228166
 10
55.3170281695
 20
-22.3303866
 10
55.3198789894
 20
-22.3308514423
 10
55.3223675721
 20
-22.3313173436
 10
55.3244895757
 20
-22.3317814279
 10
55.3262416635
 20
-22.3322465711
 10
55.3276211423
 20
-22.3327214009
 10
55.32862527
 20
-22.3332087933
 10
55.3292516312
 20
-22.3337058723
 10
55.3294985344
 20
-22.3342126379
  0
LWPOLYLINE
  5
476
100
AcDbEntity
  8
RACCORDO
100
AcDbPolyline
 62
7
  6
CONTINUOUS
 90
3
 70
0
 10
48.7117276034
 20
-23.6751796798
 10
48.6833374671
 20
-23.6577812011
 10
48.6691100475
 20
-23.6489589663
  0
LWPOLYLINE
  5
477
100
AcDbEntity
  8
RACCORDO
100
AcDbPolyline
 62
7
  6
CONTINUOUS
 90
3
 70
0
 10
48.6691100475
 20
23.6489589663
 10
48.6548698738
 20
23.6400757416
 10
48.5838619067
 20
23.5953423515
  0
LINE
  5
478
100
AcDbEntity
  8
RACCORDO
100
AcDbLine
 62
7
  6
CONTINUOUS
 10
48.6691100475
 20
-23.6489589663
 11
48.6263880787
 21
-23.6222016262
  0
LINE
  5
479
100
AcDbEntity
  8
RACCORDO
100
AcDbLine
 62
7
  6
CONTINUOUS
 10
48.6263880787
 20
-23.6222016262
 11
48.5838619067
 21
-23.5953423515
  0
LINE
  5
47A
100
AcDbEntity
  8
RACCORDO
100
AcDbLine
 62
7
  6
CONTINUOUS
 10
49.0838534451
 20
23.7970741618
 11
49.0867792833
 21
23.8
  0
LINE
  5
47B
100
AcDbEntity
  8
RACCORDO
100
AcDbLine
 62
7
  6
CONTINUOUS
 10
49.0838534451
 20
-23.7970741618
 11
49.0867792833
 21
-23.8
  0
LWPOLYLINE
  5
47C
100
AcDbEntity
  8
RACCORDO
100
AcDbPolyline
 62
250
  6
CONTINUOUS
 90
31
 70
0
 10
34.049877862
 20
-24.2369056521
 10
34.0502209006
 20
-24.2499891381
 10
34.0512481905
 20
-24.2630367647
 10
34.0529569161
 20
-24.2760127708
 10
34.055342394
 20
-24.2888815916
 10
34.0583980862
 20
-24.3016079562
 10
34.0621156176
 20
-24.3141569839
 10
34.0664847991
 20
-24.3264942801
 10
34.0714936556
 20
-24.3385860308
 10
34.0771284588
 20
-24.3503990946
 10
34.0833737647
 20
-24.3619010942
 10
34.0902124561
 20
-24.3730605047
 10
34.0976257895
 20
-24.3838467403
 10
34.1055934462
 20
-24.3942302379
 10
34.1140935885
 20
-24.4041825384
 10
34.1231029191
 20
-24.4136763643
 10
34.132596745
 20
-24.4226856948
 10
34.1425490454
 20
-24.4311858371
 10
34.1529325431
 20
-24.4391534939
 10
34.1637187787
 20
-24.4465668272
 10
34.1748781892
 20
-24.4534055187
 10
34.1863801887
 20
-24.4596508246
 10
34.1981932525
 20
-24.4652856277
 10
34.2102850032
 20
-24.4702944842
 10
34.2226222995
 20
-24.4746636657
 10
34.2351713271
 20
-24.4783811971
 10
34.2478976917
 20
-24.4814368893
 10
34.2607665125
 20
-24.4838223673
 10
34.2737425187
 20
-24.4855310928
 10
34.2867901453
 20
-24.4865583827
 10
34.2998736313
 20
-24.4869014213
  0
LWPOLYLINE
  5
47D
100
AcDbEntity
  8
0
100
AcDbPolyline
 62
250
  6
CONTINUOUS
 90
34
 70
0
 10
33.6701244087
 20
-21.4994104546
 10
33.6707117088
 20
-21.5231550085
 10
33.6724288516
 20
-21.5468458362
 10
33.6752719517
 20
-21.5704293328
 10
33.6792345761
 20
-21.5938521362
 10
33.6843077587
 20
-21.6170612479
 10
33.6904800205
 20
-21.640004153
 10
33.6977373956
 20
-21.6626289386
 10
33.7060634629
 20
-21.6848844122
 10
33.7154393831
 20
-21.7067202163
 10
33.7258439416
 20
-21.7280869434
 10
33.737253596
 20
-21.7489362472
 10
33.74964253
 20
-21.7692209522
 10
33.7629827112
 20
-21.7888951604
 10
33.7772439551
 20
-21.8079143552
 10
33.7923939929
 20
-21.826235502
 10
33.8083985447
 20
-21.8438171458
 10
33.8252213974
 20
-21.8606195047
 10
33.8428244861
 20
-21.8766045602
 10
33.8611679804
 20
-21.8917361431
 10
33.8802103748
 20
-21.9059800153
 10
33.8999085823
 20
-21.9193039473
 10
33.9202180319
 20
-21.9316777911
 10
33.9410927698
 20
-21.9430735486
 10
33.9624855628
 20
-21.9534654346
 10
33.9843480058
 20
-21.9628299356
 10
34.0066306307
 20
-21.9711458626
 10
34.0292830191
 20
-21.9783943991
 10
34.0522539155
 20
-21.9845591441
 10
34.075491344
 20
-21.9896261485
 10
34.0989427254
 20
-21.9935839473
 10
34.1225549966
 20
-21.9964235852
 10
34.1462747303
 20
-21.998138637
 10
34.1700482562
 20
-21.998725222
  0
LWPOLYLINE
  5
47E
100
AcDbEntity
  8
RACCORDO
100
AcDbPolyline
 62
7
  6
CONTINUOUS
 90
34
 70
0
 10
34.0367792833
 20
-24.2500042308
 10
34.0370624336
 20
-24.261899516
 10
34.0379112491
 20
-24.2737678556
 10
34.0393238092
 20
-24.2855823661
 10
34.0412969156
 20
-24.2973162875
 10
34.0438261016
 20
-24.3089430388
 10
34.0469056416
 20
-24.320436279
 10
34.050528562
 20
-24.3317699738
 10
34.0546866576
 20
-24.3429184493
 10
34.0593705112
 20
-24.3538564463
 10
34.0645695145
 20
-24.3645591876
 10
34.0702718917
 20
-24.3750024283
 10
34.0764647252
 20
-24.3851625059
 10
34.0831339879
 20
-24.3950164051
 10
34.0902645726
 20
-24.4045418038
 10
34.0978403245
 20
-24.4137171191
 10
34.1058440828
 20
-24.4225215661
 10
34.1142577172
 20
-24.4309352005
 10
34.1230621643
 20
-24.4389389589
 10
34.1322374795
 20
-24.4465147107
 10
34.1417628782
 20
-24.4536452955
 10
34.1516167774
 20
-24.4603145581
 10
34.1617768551
 20
-24.4665073916
 10
34.1722200957
 20
-24.4722097688
 10
34.182922837
 20
-24.4774087722
 10
34.193860834
 20
-24.4820926258
 10
34.2050093096
 20
-24.4862507213
 10
34.2163430043
 20
-24.4898736417
 10
34.2278362445
 20
-24.4929531817
 10
34.2394629958
 20
-24.4954823677
 10
34.2511969172
 20
-24.4974554741
 10
34.2630114278
 20
-24.4988680342
 10
34.2748797673
 20
-24.4997168498
 10
34.2867750525
 20
-24.5
  0
LWPOLYLINE
  5
47F
100
AcDbEntity
  8
0
100
AcDbPolyline
 62
7
  6
CONTINUOUS
 90
34
 70
0
 10
33.5367792833
 20
-21.8997711479
 10
33.5373389465
 20
-21.9235738959
 10
33.5390278395
 20
-21.9473146459
 10
33.5418416401
 20
-21.9709399929
 10
33.5457729812
 20
-21.9943926845
 10
33.5508126674
 20
-22.0176242097
 10
33.5569513959
 20
-22.0405945495
 10
33.5641754207
 20
-22.0632496405
 10
33.572470141
 20
-22.0855402333
 10
33.581825261
 20
-22.1074332014
 10
33.5922335798
 20
-22.128898333
 10
33.6036662104
 20
-22.1498636324
 10
33.6160726663
 20
-22.1702369801
 10
33.6294020409
 20
-22.1899464302
 10
33.6436381543
 20
-22.2089787098
 10
33.6587789961
 20
-22.2273313954
 10
33.6748160372
 20
-22.2449847817
 10
33.6916949615
 20
-22.2618701467
 10
33.7093426068
 20
-22.2779143355
 10
33.7276908209
 20
-22.2930631517
 10
33.7467196025
 20
-22.3073075147
 10
33.7664250538
 20
-22.3206445608
 10
33.7867944325
 20
-22.3330583548
 10
33.8077551705
 20
-22.3444975924
 10
33.8292115609
 20
-22.3549105731
 10
33.851088097
 20
-22.3642673896
 10
33.8733574182
 20
-22.372562972
 10
33.8959925351
 20
-22.3797900013
 10
33.9189587173
 20
-22.3859365672
 10
33.9421878465
 20
-22.390983699
 10
33.9656023685
 20
-22.3949172063
 10
33.9891404569
 20
-22.3977314995
 10
34.0127569769
 20
-22.3994257001
 10
34.0363986836
 20
-22.4
  0
LINE
  5
480
100
AcDbEntity
  8
0
100
AcDbLine
 62
250
  6
CONTINUOUS
 10
33.6807697886
 20
21.2500967127
 11
33.679336093
 21
21.3153429585
  0
LINE
  5
481
100
AcDbEntity
  8
0
100
AcDbLine
 62
7
  6
CONTINUOUS
 10
33.5367792833
 20
-18.0
 11
33.5105966859
 21
-16.5
  0
LINE
  5
482
100
AcDbEntity
  8
0
100
AcDbLine
 62
250
  6
CONTINUOUS
 10
33.6824813873
 20
21.1503884482
 11
33.6807697886
 21
21.2500967127
  0
LINE
  5
483
100
AcDbEntity
  8
0
100
AcDbLine
 62
250
  6
CONTINUOUS
 10
33.6842518733
 20
21.0081981887
 11
33.6824813873
 21
21.1503884482
  0
LINE
  5
484
100
AcDbEntity
  8
RACCORDO
100
AcDbLine
 62
250
  6
CONTINUOUS
 10
34.049877862
 20
-23.8443375673
 11
34.0440600322
 21
-23.2669872981
  0
LINE
  5
485
100
AcDbEntity
  8
RACCORDO
100
AcDbLine
 62
250
  6
CONTINUOUS
 10
34.2998736313
 20
-23.6278312164
 11
34.2947830302
 21
-23.1226497308
  0
LINE
  5
486
100
AcDbEntity
  8
0
100
AcDbLine
 62
250
  6
CONTINUOUS
 10
33.6857671676
 20
20.8175226064
 11
33.6842518733
 21
21.0081981887
  0
LINE
  5
487
100
AcDbEntity
  8
0
100
AcDbLine
 62
250
  6
CONTINUOUS
 10
33.6866139813
 20
20.5774879263
 11
33.6857671676
 21
20.8175226064
  0
LINE
  5
488
100
AcDbEntity
  8
0
100
AcDbLine
 62
250
  6
CONTINUOUS
 10
33.6880552445
 20
18.4787904082
 11
33.6866139813
 21
20.5774879263
  0
LINE
  5
489
100
AcDbEntity
  8
0
100
AcDbLine
 62
250
  6
CONTINUOUS
 10
34.1892327931
 20
16.4420465858
 11
34.1864796455
 21
20.6686349128
  0
LINE
  5
48A
100
AcDbEntity
  8
0
100
AcDbLine
 62
250
  6
CONTINUOUS
 10
33.6913634297
 20
12.3449698617
 11
33.6880552445
 21
18.4787904082
  0
LINE
  5
48B
100
AcDbEntity
  8
0
100
AcDbLine
 62
250
  6
CONTINUOUS
 10
34.1912872773
 20
12.3573145742
 11
34.1892327931
 21
16.4420465858
  0
LINE
  5
48C
100
AcDbEntity
  8
0
100
AcDbLine
 62
250
  6
CONTINUOUS
 10
33.6933285713
 20
6.329960797
 11
33.6913634297
 21
12.3449698617
  0
LINE
  5
48D
100
AcDbEntity
  8
0
100
AcDbLine
 62
250
  6
CONTINUOUS
 10
34.1932524189
 20
6.3362827755
 11
34.1912872773
 21
12.3573145742
  0
LINE
  5
48E
100
AcDbEntity
  8
0
100
AcDbLine
 62
7
  6
CONTINUOUS
 10
33.5105966859
 20
-16.5
 11
33.5105966859
 21
16.5
  0
LINE
  5
48F
100
AcDbEntity
  8
0
100
AcDbLine
 62
7
  6
CONTINUOUS
 10
33.5367792833
 20
21.8997711479
 11
33.5367792833
 21
18.0
  0
LINE
  5
490
100
AcDbEntity
  8
0
100
AcDbLine
 62
7
  6
CONTINUOUS
 10
33.5367792833
 20
-21.8997711479
 11
33.5367792833
 21
-18.0
  0
LINE
  5
491
100
AcDbEntity
  8
0
100
AcDbLine
 62
250
  6
CONTINUOUS
 10
33.6939239467
 20
2.4307447998
 11
33.6933285713
 21
6.329960797
  0
LINE
  5
492
100
AcDbEntity
  8
0
100
AcDbLine
 62
7
  6
CONTINUOUS
 10
34.0367792833
 20
23.4104851482
 11
34.0367792833
 21
22.4
  0
LINE
  5
493
100
AcDbEntity
  8
RACCORDO
100
AcDbLine
 62
7
  6
CONTINUOUS
 10
34.0367792833
 20
-24.2500042308
 11
34.0367792833
 21
-23.4104851482
  0
LINE
  5
494
100
AcDbEntity
  8
0
100
AcDbLine
 62
7
  6
CONTINUOUS
 10
34.0367792833
 20
-22.4
 11
34.0367792833
 21
-23.4104851482
  0
LINE
  5
495
100
AcDbEntity
  8
RACCORDO
100
AcDbLine
 62
7
  6
CONTINUOUS
 10
34.0367792833
 20
23.4104851482
 11
34.0367792833
 21
24.2500042308
  0
LINE
  5
496
100
AcDbEntity
  8
0
100
AcDbLine
 62
250
  6
CONTINUOUS
 10
34.0440600322
 20
-23.2669872981
 11
34.0440600322
 21
-22.3342126379
  0
LINE
  5
497
100
AcDbEntity
  8
0
100
AcDbLine
 62
250
  6
CONTINUOUS
 10
34.0440600322
 20
22.3342126379
 11
34.0440600322
 21
23.2669872981
  0
LINE
  5
498
100
AcDbEntity
  8
RACCORDO
100
AcDbLine
 62
250
  6
CONTINUOUS
 10
34.049877862
 20
24.2369056521
 11
34.049877862
 21
23.8443375673
  0
LINE
  5
499
100
AcDbEntity
  8
RACCORDO
100
AcDbLine
 62
250
  6
CONTINUOUS
 10
34.049877862
 20
-23.8443375673
 11
34.049877862
 21
-24.2369056521
  0
LINE
  5
49A
100
AcDbEntity
  8
0
100
AcDbLine
 62
250
  6
CONTINUOUS
 10
34.1938477943
 20
2.4331779777
 11
34.1932524189
 21
6.3362827755
  0
LINE
  5
49B
100
AcDbEntity
  8
0
100
AcDbLine
 62
250
  6
CONTINUOUS
 10
33.6938418077
 20
-3.2572190724
 11
33.6939239467
 21
2.4307447998
  0
LINE
  5
49C
100
AcDbEntity
  8
0
100
AcDbLine
 62
250
  6
CONTINUOUS
 10
34.1937656553
 20
-3.260479552
 11
34.1938477943
 21
2.4331779777
  0
LWPOLYLINE
  5
49D
100
AcDbEntity
  8
0
100
AcDbPolyline
 62
250
  6
CONTINUOUS
 90
3
 70
0
 10
33.692626742
 20
-8.9523519948
 10
33.6931576505
 20
-7.0538542821
 10
33.6938418077
 20
-3.2572190724
  0
LWPOLYLINE
  5
49E
100
AcDbEntity
  8
0
100
AcDbPolyline
 62
250
  6
CONTINUOUS
 90
3
 70
0
 10
34.1925505896
 20
-8.9613133081
 10
34.1930814981
 20
-7.0609060931
 10
34.1937656553
 20
-3.260479552
  0
LWPOLYLINE
  5
49F
100
AcDbEntity
  8
0
100
AcDbPolyline
 62
250
  6
CONTINUOUS
 90
3
 70
0
 10
33.6902786711
 20
-14.6455213623
 10
33.6911980965
 20
-12.7328179917
 10
33.692626742
 20
-8.9523519948
  0
LWPOLYLINE
  5
4A0
100
AcDbEntity
  8
0
100
AcDbPolyline
 62
250
  6
CONTINUOUS
 90
3
 70
0
 10
34.1902025187
 20
-14.6601815439
 10
34.1911219441
 20
-12.7455466083
 10
34.1925505896
 20
-8.9613133081
  0
LINE
  5
4A1
100
AcDbEntity
  8
0
100
AcDbLine
 62
250
  6
CONTINUOUS
 10
33.6880025011
 20
-18.5538648999
 11
33.6902786711
 21
-14.6455213623
  0
LINE
  5
4A2
100
AcDbEntity
  8
0
100
AcDbLine
 62
250
  6
CONTINUOUS
 10
34.1879263487
 20
-18.5725003699
 11
34.1902025187
 21
-14.6601815439
  0
LINE
  5
4A3
100
AcDbEntity
  8
0
100
AcDbLine
 62
250
  6
CONTINUOUS
 10
34.1864776776
 20
-20.6702752874
 11
34.1879263487
 21
-18.5725003699
  0
LINE
  5
4A4
100
AcDbEntity
  8
0
100
AcDbLine
 62
250
  6
CONTINUOUS
 10
33.6859264549
 20
-20.7887780729
 11
33.6880025011
 21
-18.5538648999
  0
LINE
  5
4A5
100
AcDbEntity
  8
0
100
AcDbLine
 62
250
  6
CONTINUOUS
 10
33.6845072725
 20
-20.9824858852
 11
33.6859264549
 21
-20.7887780729
  0
LINE
  5
4A6
100
AcDbEntity
  8
RACCORDO
100
AcDbLine
 62
250
  6
CONTINUOUS
 10
34.0440600322
 20
23.2669872981
 11
34.049877862
 21
23.8443375673
  0
LINE
  5
4A7
100
AcDbEntity
  8
RACCORDO
100
AcDbLine
 62
250
  6
CONTINUOUS
 10
34.2947830302
 20
23.1226497308
 11
34.2998736313
 21
23.6278312164
  0
LINE
  5
4A8
100
AcDbEntity
  8
0
100
AcDbLine
 62
250
  6
CONTINUOUS
 10
33.6828104326
 20
-21.1276584835
 11
33.6845072725
 21
-20.9824858852
  0
LINE
  5
4A9
100
AcDbEntity
  8
0
100
AcDbLine
 62
7
  6
CONTINUOUS
 10
33.5105966859
 20
16.5
 11
33.5367792833
 21
18.0
  0
LINE
  5
4AA
100
AcDbEntity
  8
0
100
AcDbLine
 62
250
  6
CONTINUOUS
 10
33.6811515006
 20
-21.2301870705
 11
33.6828104326
 21
-21.1276584835
  0
LWPOLYLINE
  5
4AB
100
AcDbEntity
  8
0
100
AcDbPolyline
 62
7
  6
CONTINUOUS
 90
34
 70
0
 10
33.5367792833
 20
21.9000571132
 10
33.5373456692
 20
21.9237410878
 10
33.5390343674
 20
21.9473933418
 10
33.5418445735
 20
21.9709604604
 10
33.5457738956
 20
21.9943952787
 10
33.5508160531
 20
22.0176379945
 10
33.55695795
 20
22.040616926
 10
33.5641812884
 20
22.0632660164
 10
33.572473392
 20
22.0855483437
 10
33.5818266609
 20
22.1074362728
 10
33.5922355463
 20
22.128901937
 10
33.6036701209
 20
22.1498704408
 10
33.6160791596
 20
22.1702470916
 10
33.6294114599
 20
22.1899595484
 10
33.6436508276
 20
22.2089948433
 10
33.6587945122
 20
22.2273493156
 10
33.6748334995
 20
22.2450030625
 10
33.691713439
 20
22.2618877998
 10
33.7093609734
 20
22.2779302489
 10
33.727707216
 20
22.2930760043
 10
33.7467324435
 20
22.3073166777
 10
33.7664342577
 20
22.3206504755
 10
33.786799303
 20
22.3330611532
 10
33.8077555956
 20
22.3444978559
 10
33.8292111625
 20
22.3549103913
 10
33.8510942713
 20
22.3642698343
 10
33.8733743467
 20
22.3725688677
 10
33.8960174809
 20
22.3797973168
 10
33.9189724368
 20
22.3859398797
 10
33.942186926
 20
22.3909836005
 10
33.9656259832
 20
22.3949205984
 10
33.9892428469
 20
22.3977410497
 10
34.01297848
 20
22.399435965
 10
34.0367792862
 20
22.4
  0
LWPOLYLINE
  5
4AC
100
AcDbEntity
  8
0
100
AcDbPolyline
 62
250
  6
CONTINUOUS
 90
3
 70
0
 10
33.6792586029
 20
-21.3184859266
 10
33.6797520687
 20
-21.2978349776
 10
33.6811515006
 20
-21.2301870705
  0
LWPOLYLINE
  5
4AD
100
AcDbEntity
  8
0
100
AcDbPolyline
 62
250
  6
CONTINUOUS
 90
34
 70
0
 10
33.6701244087
 20
21.4994104546
 10
33.6707117091
 20
21.5231550131
 10
33.6724288525
 20
21.5468458451
 10
33.6752719536
 20
21.5704293456
 10
33.6792345793
 20
21.5938521525
 10
33.6843077634
 20
21.6170612672
 10
33.6904800269
 20
21.6400041748
 10
33.6977374039
 20
21.6626289626
 10
33.7060634731
 20
21.6848844378
 10
33.7154393954
 20
21.7067202431
 10
33.7258439559
 20
21.728086971
 10
33.7372536122
 20
21.7489362752
 10
33.749642548
 20
21.7692209802
 10
33.762982731
 20
21.7888951881
 10
33.7772439764
 20
21.8079143822
 10
33.7923940154
 20
21.826235528
 10
33.8083985684
 20
21.8438171706
 10
33.8252214219
 20
21.860619528
 10
33.8428245111
 20
21.8766045819
 10
33.8611680057
 20
21.891736163
 10
33.8802104
 20
21.9059800332
 10
33.8999086071
 20
21.9193039632
 10
33.920218056
 20
21.931677805
 10
33.9410927929
 20
21.9430735605
 10
33.9624855846
 20
21.9534654446
 10
33.9843480259
 20
21.9628299437
 10
34.0066306491
 20
21.971145869
 10
34.0292830353
 20
21.9783944039
 10
34.0522539294
 20
21.9845591475
 10
34.0754913554
 20
21.9896261507
 10
34.0989427341
 20
21.9935839485
 10
34.1225550025
 20
21.9964235857
 10
34.1462747333
 20
21.9981386371
 10
34.1700482562
 20
21.998725222
  0
LINE
  5
4AE
100
AcDbEntity
  8
RACCORDO
100
AcDbLine
 62
7
  6
CONTINUOUS
 10
36.4367792833
 20
22.4
 11
36.4294985344
 21
22.3344140523
  0
LINE
  5
4AF
100
AcDbEntity
  8
RACCORDO
100
AcDbLine
 62
7
  6
CONTINUOUS
 10
36.4367792833
 20
-22.4
 11
36.4294985344
 21
-22.3344140523
  0
LWPOLYLINE
  5
4B0
100
AcDbEntity
  8
RACCORDO
100
AcDbPolyline
 62
7
  6
CONTINUOUS
 90
34
 70
0
 10
36.4294985344
 20
-23.2669872981
 10
36.4292008081
 20
-23.260745719
 10
36.4284295567
 20
-23.254472608
 10
36.4271791939
 20
-23.2481861919
 10
36.4254451466
 20
-23.2419121598
 10
36.4232237039
 20
-23.2356626215
 10
36.4205116839
 20
-23.2294361375
 10
36.4173071871
 20
-23.2232532001
 10
36.4136092625
 20
-23.2171335699
 10
36.4094170115
 20
-23.2110754134
 10
36.4047315273
 20
-23.2051002367
 10
36.3995548854
 20
-23.199228829
 10
36.3938885146
 20
-23.1934590071
 10
36.3877367308
 20
-23.1878130261
 10
36.3811049484
 20
-23.182312533
 10
36.3739971456
 20
-23.1769551973
 10
36.36642115
 20
-23.171763745
 10
36.358386068
 20
-23.1667604362
 10
36.3498988425
 20
-23.1619430222
 10
36.340971133
 20
-23.1573343288
 10
36.3316161542
 20
-23.1529569199
 10
36.3218444796
 20
-23.148808872
 10
36.3116719684
 20
-23.1449126131
 10
36.3011163813
 20
-23.1412905703
 10
36.2901927805
 20
-23.137941334
 10
36.278921723
 20
-23.1348863009
 10
36.2673257985
 20
-23.1321470947
 10
36.2554251008
 20
-23.1297228132
 10
36.243258273
 20
-23.1276360125
 10
36.2308402181
 20
-23.1259025536
 10
36.218156224
 20
-23.1245164325
 10
36.2052215134
 20
-23.1234933505
 10
36.1920830119
 20
-23.1228641607
 10
36.1787755365
 20
-23.1226497308
  0
LWPOLYLINE
  5
4B1
100
AcDbEntity
  8
RACCORDO
100
AcDbPolyline
 62
7
  6
CONTINUOUS
 90
34
 70
0
 10
34.0440600322
 20
23.2669872981
 10
34.0443594547
 20
23.2606934229
 10
34.0451351595
 20
23.2544088409
 10
34.0463918982
 20
23.2481335519
 10
34.048133261
 20
23.2418552807
 10
34.0503622074
 20
23.2355863026
 10
34.0530815744
 20
23.2293634437
 10
34.0562925515
 20
23.2231861587
 10
34.0599954017
 20
23.2170549928
 10
34.0641910267
 20
23.2110084085
 10
34.0688778047
 20
23.205045942
 10
34.0740531619
 20
23.199168057
 10
34.0797160429
 20
23.1934146064
 10
34.0858617868
 20
23.1877851844
 10
34.0924846959
 20
23.1822801967
 10
34.0995815883
 20
23.1769407141
 10
34.1071444917
 20
23.1717664006
 10
34.115164224
 20
23.1667575922
 10
34.1236350669
 20
23.1619563668
 10
34.1325454013
 20
23.1573625195
 10
34.1418821164
 20
23.1529762552
 10
34.1516362579
 20
23.1488402671
 10
34.1617921512
 20
23.1449546011
 10
34.172332256
 20
23.1413192112
 10
34.1832434285
 20
23.1379766523
 10
34.1945054135
 20
23.1349274029
 10
34.2060958125
 20
23.1321709844
 10
34.2179964348
 20
23.1297485157
 10
34.2301949483
 20
23.1276610792
 10
34.2426510986
 20
23.1259075925
 10
34.2553011557
 20
23.1245259271
 10
34.2681017541
 20
23.123528707
 10
34.2810313263
 20
23.1229033082
 10
34.2940558015
 20
23.1226497308
  0
LWPOLYLINE
  5
4B2
100
AcDbEntity
  8
0
100
AcDbPolyline
 62
250
  6
CONTINUOUS
 90
10
 70
0
 10
33.6755880568
 20
21.4316518721
 10
33.6750118264
 20
21.4439346526
 10
33.6744254457
 20
21.4551180921
 10
33.6738307849
 20
21.4651188362
 10
33.673227292
 20
21.4739353789
 10
33.6726155189
 20
21.4815692262
 10
33.6719989915
 20
21.487941541
 10
33.671378885
 20
21.4930260446
 10
33.670754024
 20
21.4968490158
 10
33.6701244087
 20
21.4994104546
  0
LWPOLYLINE
  5
4B3
100
AcDbEntity
  8
0
100
AcDbPolyline
 62
250
  6
CONTINUOUS
 90
8
 70
0
 10
34.1743492812
 20
21.9322747534
 10
34.1737546169
 20
21.9472877943
 10
34.173151138
 20
21.9605352287
 10
34.1725393869
 20
21.9719652888
 10
34.1719228723
 20
21.9815218517
 10
34.1713027638
 20
21.9891770143
 10
34.1706778917
 20
21.9949175924
 10
34.1700482562
 20
21.998725222
  0
LINE
  5
4B4
100
AcDbEntity
  8
0
100
AcDbLine
 62
250
  6
CONTINUOUS
 10
33.6767085029
 20
21.4038370869
 11
33.6755880568
 21
21.4316518721
  0
LWPOLYLINE
  5
4B5
100
AcDbEntity
  8
RACCORDO
100
AcDbPolyline
 62
250
  6
CONTINUOUS
 90
31
 70
0
 10
34.049877862
 20
23.8443375673
 10
34.0502564177
 20
23.833039595
 10
34.0513155453
 20
23.821769291
 10
34.0530529218
 20
23.8105574212
 10
34.0554646232
 20
23.7994336121
 10
34.0585444934
 20
23.78842936
 10
34.0622835444
 20
23.7775778202
 10
34.0666710888
 20
23.7669096972
 10
34.0716954878
 20
23.7564530239
 10
34.0773431684
 20
23.746236105
 10
34.083598861
 20
23.7362866999
 10
34.0904454356
 20
23.7266321754
 10
34.0978640439
 20
23.7172991519
 10
34.1058343479
 20
23.7083132018
 10
34.1143346427
 20
23.6996987826
 10
34.1233417332
 20
23.6914794042
 10
34.1328310368
 20
23.6836775075
 10
34.142776624
 20
23.6763144193
 10
34.1531513068
 20
23.6694102704
 10
34.1639267392
 20
23.6629839239
 10
34.1750734972
 20
23.6570529269
 10
34.1865611343
 20
23.6516334796
 10
34.198358291
 20
23.6467403776
 10
34.2104327274
 20
23.6423869945
 10
34.2227514071
 20
23.6385852371
 10
34.2352806424
 20
23.6353454907
 10
34.2479862453
 20
23.6326765842
 10
34.2608335661
 20
23.6305857918
 10
34.2737875333
 20
23.6290788219
 10
34.2868127471
 20
23.6281597935
 10
34.2998736313
 20
23.6278312164
  0
LWPOLYLINE
  5
4B6
100
AcDbEntity
  8
RACCORDO
100
AcDbPolyline
 62
250
  6
CONTINUOUS
 90
31
 70
0
 10
36.4236807046
 20
-23.8443375673
 10
36.4233013729
 20
-23.8330274168
 10
36.4222403909
 20
-23.8217481519
 10
36.4205006561
 20
-23.810530574
 10
36.4180869191
 20
-23.7994053159
 10
36.4150057716
 20
-23.7884027584
 10
36.4112656273
 20
-23.7775529472
 10
36.4068766999
 20
-23.7668855107
 10
36.4018509746
 20
-23.7564295797
 10
36.3962021756
 20
-23.7462137069
 10
36.3899457287
 20
-23.7362657898
 10
36.3830987187
 20
-23.7266129942
 10
36.3756798436
 20
-23.7172816797
 10
36.3677093627
 20
-23.7082973282
 10
36.3592090417
 20
-23.6996844742
 10
36.3502020932
 20
-23.6914666374
 10
36.3407131132
 20
-23.6836662592
 10
36.3307680143
 20
-23.6763046407
 10
36.3203939544
 20
-23.6694018849
 10
36.3096192629
 20
-23.6629768418
 10
36.2984733632
 20
-23.6570470569
 10
36.2869866924
 20
-23.6516287232
 10
36.2751906182
 20
-23.646736637
 10
36.2631173533
 20
-23.6423841576
 10
36.2507998672
 20
-23.6385831707
 10
36.2382717963
 20
-23.6353440559
 10
36.2255673522
 20
-23.6326756587
 10
36.2127212281
 20
-23.6305852658
 10
36.1997685041
 20
-23.6290785857
 10
36.1867445513
 20
-23.6281597328
 10
36.1736849354
 20
-23.6278312164
  0
LINE
  5
4B7
100
AcDbEntity
  8
0
100
AcDbLine
 62
250
  6
CONTINUOUS
 10
33.6777906421
 20
21.3716354015
 11
33.6767085029
 21
21.4038370869
  0
LINE
  5
4B8
100
AcDbEntity
  8
0
100
AcDbLine
 62
250
  6
CONTINUOUS
 10
34.1755119115
 20
21.8970873482
 11
34.1743492812
 21
21.9322747534
  0
LINE
  5
4B9
100
AcDbEntity
  8
0
100
AcDbLine
 62
250
  6
CONTINUOUS
 10
34.1766323513
 20
21.8553646324
 11
34.1755119115
 21
21.8970873482
  0
LINE
  5
4BA
100
AcDbEntity
  8
0
100
AcDbLine
 62
250
  6
CONTINUOUS
 10
33.679336093
 20
21.3153429585
 11
33.6777906421
 21
21.3716354015
  0
LINE
  5
4BB
100
AcDbEntity
  8
0
100
AcDbLine
 62
250
  6
CONTINUOUS
 10
34.1782414804
 20
21.7804608175
 11
34.1766323513
 21
21.8553646324
  0
LINE
  5
4BC
100
AcDbEntity
  8
0
100
AcDbLine
 62
250
  6
CONTINUOUS
 10
34.1802293182
 20
21.6587980941
 11
34.1782414804
 21
21.7804608175
  0
LINE
  5
4BD
100
AcDbEntity
  8
0
100
AcDbLine
 62
250
  6
CONTINUOUS
 10
34.182405235
 20
21.4752106775
 11
34.1802293182
 21
21.6587980941
  0
LINE
  5
4BE
100
AcDbEntity
  8
0
100
AcDbLine
 62
250
  6
CONTINUOUS
 10
34.1844765315
 20
21.2162169814
 11
34.182405235
 21
21.4752106775
  0
LINE
  5
4BF
100
AcDbEntity
  8
0
100
AcDbLine
 62
250
  6
CONTINUOUS
 10
34.1860371357
 20
20.8752450532
 11
34.1844765315
 21
21.2162169814
  0
LINE
  5
4C0
100
AcDbEntity
  8
0
100
AcDbLine
 62
250
  6
CONTINUOUS
 10
34.1864796455
 20
20.6686349128
 11
34.1860371357
 21
20.8752450532
  0
LINE
  5
4C1
100
AcDbEntity
  8
RACCORDO
100
AcDbLine
 62
250
  6
CONTINUOUS
 10
34.2940558015
 20
-23.1226497308
 11
34.2940558015
 21
-22.3213883311
  0
LINE
  5
4C2
100
AcDbEntity
  8
RACCORDO
100
AcDbLine
 62
250
  6
CONTINUOUS
 10
34.2940558015
 20
22.3213883311
 11
34.2940558015
 21
23.1226497308
  0
LINE
  5
4C3
100
AcDbEntity
  8
RACCORDO
100
AcDbLine
 62
250
  6
CONTINUOUS
 10
34.2998736313
 20
-23.6278312164
 11
34.2998736313
 21
-24.4869014213
  0
LINE
  5
4C4
100
AcDbEntity
  8
RACCORDO
100
AcDbLine
 62
250
  6
CONTINUOUS
 10
34.2998736313
 20
23.6278312164
 11
34.2998736313
 21
24.4869014213
  0
LINE
  5
4C5
100
AcDbEntity
  8
0
100
AcDbLine
 62
250
  6
CONTINUOUS
 10
34.1852270399
 20
-21.0818814514
 11
34.1864776776
 21
-20.6702752874
  0
LINE
  5
4C6
100
AcDbEntity
  8
0
100
AcDbLine
 62
250
  6
CONTINUOUS
 10
34.1831084688
 20
-21.3996493312
 11
34.1852270399
 21
-21.0818814514
  0
LINE
  5
4C7
100
AcDbEntity
  8
0
100
AcDbLine
 62
250
  6
CONTINUOUS
 10
34.180622365
 20
-21.6301262787
 11
34.1831084688
 21
-21.3996493312
  0
LINE
  5
4C8
100
AcDbEntity
  8
0
100
AcDbLine
 62
250
  6
CONTINUOUS
 10
34.1786773162
 20
-21.7567792056
 11
34.180622365
 21
-21.6301262787
  0
LINE
  5
4C9
100
AcDbEntity
  8
0
100
AcDbLine
 62
250
  6
CONTINUOUS
 10
34.1770937032
 20
-21.835774053
 11
34.1786773162
 21
-21.7567792056
  0
LINE
  5
4CA
100
AcDbEntity
  8
0
100
AcDbLine
 62
250
  6
CONTINUOUS
 10
34.1759879794
 20
-21.8803217637
 11
34.1770937032
 21
-21.835774053
  0
LINE
  5
4CB
100
AcDbEntity
  8
0
100
AcDbLine
 62
250
  6
CONTINUOUS
 10
33.6777081034
 20
-21.3742886998
 11
33.6792586029
 21
-21.3184859266
  0
LWPOLYLINE
  5
4CC
100
AcDbEntity
  8
RACCORDO
100
AcDbPolyline
 62
250
  6
CONTINUOUS
 90
31
 70
0
 10
34.049877862
 20
-23.8443375673
 10
34.0502571938
 20
-23.8330274168
 10
34.0513181757
 20
-23.8217481519
 10
34.0530579106
 20
-23.810530574
 10
34.0554716475
 20
-23.7994053159
 10
34.0585527951
 20
-23.7884027584
 10
34.0622929394
 20
-23.7775529472
 10
34.0666818668
 20
-23.7668855107
 10
34.0717075921
 20
-23.7564295797
 10
34.077356391
 20
-23.7462137069
 10
34.083612838
 20
-23.7362657898
 10
34.0904598479
 20
-23.7266129942
 10
34.097878723
 20
-23.7172816797
 10
34.105849204
 20
-23.7082973282
 10
34.114349525
 20
-23.6996844742
 10
34.1233564735
 20
-23.6914666374
 10
34.1328454534
 20
-23.6836662592
 10
34.1427905523
 20
-23.6763046407
 10
34.1531646122
 20
-23.6694018849
 10
34.1639393038
 20
-23.6629768418
 10
34.1750852035
 20
-23.6570470569
 10
34.1865718743
 20
-23.6516287232
 10
34.1983679484
 20
-23.646736637
 10
34.2104412134
 20
-23.6423841576
 10
34.2227586995
 20
-23.6385831707
 10
34.2352867704
 20
-23.6353440559
 10
34.2479912145
 20
-23.6326756587
 10
34.2608373385
 20
-23.6305852658
 10
34.2737900626
 20
-23.6290785857
 10
34.2868140154
 20
-23.6281597328
 10
34.2998736313
 20
-23.6278312164
  0
LWPOLYLINE
  5
4CD
100
AcDbEntity
  8
RACCORDO
100
AcDbPolyline
 62
250
  6
CONTINUOUS
 90
31
 70
0
 10
36.4236807046
 20
23.8443375673
 10
36.423302149
 20
23.833039595
 10
36.4222430214
 20
23.821769291
 10
36.4205056449
 20
23.8105574212
 10
36.4180939435
 20
23.7994336121
 10
36.4150140732
 20
23.78842936
 10
36.4112750222
 20
23.7775778202
 10
36.4068874778
 20
23.7669096972
 10
36.4018630788
 20
23.7564530239
 10
36.3962153982
 20
23.746236105
 10
36.3899597057
 20
23.7362866999
 10
36.3831131311
 20
23.7266321754
 10
36.3756945228
 20
23.7172991519
 10
36.3677242187
 20
23.7083132018
 10
36.3592239239
 20
23.6996987826
 10
36.3502168335
 20
23.6914794042
 10
36.3407275298
 20
23.6836775075
 10
36.3307819427
 20
23.6763144193
 10
36.3204072598
 20
23.6694102704
 10
36.3096318274
 20
23.6629839239
 10
36.2984850694
 20
23.6570529269
 10
36.2869974324
 20
23.6516334796
 10
36.2752002757
 20
23.6467403776
 10
36.2631258392
 20
23.6423869945
 10
36.2508071596
 20
23.6385852371
 10
36.2382779242
 20
23.6353454907
 10
36.2255723214
 20
23.6326765842
 10
36.2127250006
 20
23.6305857918
 10
36.1997710333
 20
23.6290788219
 10
36.1867458196
 20
23.6281597935
 10
36.1736849354
 20
23.6278312164
  0
LINE
  5
4CE
100
AcDbEntity
  8
0
100
AcDbLine
 62
250
  6
CONTINUOUS
 10
33.6766218565
 20
-21.4061715454
 11
33.6777081034
 21
-21.3742886998
  0
LWPOLYLINE
  5
4CF
100
AcDbEntity
  8
RACCORDO
100
AcDbPolyline
 62
7
  6
CONTINUOUS
 90
34
 70
0
 10
34.0440600322
 20
-23.2669872981
 10
34.0443577586
 20
-23.260745719
 10
34.04512901
 20
-23.254472608
 10
34.0463793728
 20
-23.2481861919
 10
34.04811342
 20
-23.2419121598
 10
34.0503348628
 20
-23.2356626215
 10
34.0530468828
 20
-23.2294361375
 10
34.0562513796
 20
-23.2232532001
 10
34.0599493041
 20
-23.2171335699
 10
34.0641415551
 20
-23.2110754134
 10
34.0688270393
 20
-23.2051002367
 10
34.0740036813
 20
-23.199228829
 10
34.079670052
 20
-23.1934590071
 10
34.0858218359
 20
-23.1878130261
 10
34.0924536183
 20
-23.182312533
 10
34.0995614211
 20
-23.1769551973
 10
34.1071374167
 20
-23.171763745
 10
34.1151724987
 20
-23.1667604362
 10
34.1236597242
 20
-23.1619430222
 10
34.1325874337
 20
-23.1573343288
 10
34.1419424124
 20
-23.1529569199
 10
34.151714087
 20
-23.148808872
 10
34.1618865982
 20
-23.1449126131
 10
34.1724421853
 20
-23.1412905703
 10
34.1833657861
 20
-23.137941334
 10
34.1946368437
 20
-23.1348863009
 10
34.2062327682
 20
-23.1321470947
 10
34.2181334659
 20
-23.1297228132
 10
34.2303002936
 20
-23.1276360125
 10
34.2427183485
 20
-23.1259025536
 10
34.2554023426
 20
-23.1245164325
 10
34.2683370532
 20
-23.1234933505
 10
34.2814755547
 20
-23.1228641607
 10
34.2947830302
 20
-23.1226497308
  0
LWPOLYLINE
  5
4D0
100
AcDbEntity
  8
RACCORDO
100
AcDbPolyline
 62
7
  6
CONTINUOUS
 90
34
 70
0
 10
36.4294985344
 20
23.2669872981
 10
36.4292008081
 20
23.260745719
 10
36.4284295567
 20
23.254472608
 10
36.4271791939
 20
23.2481861919
 10
36.4254451466
 20
23.2419121598
 10
36.4232237039
 20
23.2356626215
 10
36.4205116839
 20
23.2294361375
 10
36.4173071871
 20
23.2232532001
 10
36.4136092625
 20
23.2171335699
 10
36.4094170115
 20
23.2110754134
 10
36.4047315273
 20
23.2051002367
 10
36.3995548854
 20
23.199228829
 10
36.3938885146
 20
23.1934590071
 10
36.3877367308
 20
23.1878130261
 10
36.3811049484
 20
23.182312533
 10
36.3739971456
 20
23.1769551973
 10
36.36642115
 20
23.171763745
 10
36.358386068
 20
23.1667604362
 10
36.3498988425
 20
23.1619430222
 10
36.340971133
 20
23.1573343288
 10
36.3316161542
 20
23.1529569199
 10
36.3218444796
 20
23.148808872
 10
36.3116719684
 20
23.1449126131
 10
36.3011163813
 20
23.1412905703
 10
36.2901927805
 20
23.137941334
 10
36.278921723
 20
23.1348863009
 10
36.2673257985
 20
23.1321470947
 10
36.2554251008
 20
23.1297228132
 10
36.243258273
 20
23.1276360125
 10
36.2308402181
 20
23.1259025536
 10
36.218156224
 20
23.1245164325
 10
36.2052215134
 20
23.1234933505
 10
36.1920830119
 20
23.1228641607
 10
36.1787755365
 20
23.1226497308
  0
LWPOLYLINE
  5
4D1
100
AcDbEntity
  8
0
100
AcDbPolyline
 62
7
  6
CONTINUOUS
 90
3
 70
0
 43
0.3500000006
 10
45.8296342163
 20
33.5357164307
 10
45.7582075653
 20
33.3214274139
 10
45.6153497314
 20
33.0357162781
  0
LINE
  5
4D2
100
AcDbEntity
  8
RACCORDO
100
AcDbLine
 62
250
  6
CONTINUOUS
 10
55.0867835141
 20
24.5
 11
55.0736849354
 21
24.4869014213
  0
LINE
  5
4D3
100
AcDbEntity
  8
RACCORDO
100
AcDbLine
 62
250
  6
CONTINUOUS
 10
55.3367792833
 20
24.2500042308
 11
55.3236807046
 21
24.2369056521
  0
LINE
  5
4D4
100
AcDbEntity
  8
RACCORDO
100
AcDbLine
 62
7
  6
CONTINUOUS
 10
47.4924647688
 20
-9.0
 11
41.8810937978
 21
-9.0
  0
LINE
  5
4D5
100
AcDbEntity
  8
RACCORDO
100
AcDbLine
 62
250
  6
CONTINUOUS
 10
55.0867835141
 20
-24.5
 11
55.0736849354
 21
-24.4869014213
  0
LINE
  5
4D6
100
AcDbEntity
  8
RACCORDO
100
AcDbLine
 62
250
  6
CONTINUOUS
 10
55.3367792833
 20
-24.2500042308
 11
55.3236807046
 21
-24.2369056521
  0
LWPOLYLINE
  5
4D7
100
AcDbEntity
  8
RACCORDO
100
AcDbPolyline
 62
250
  6
CONTINUOUS
 90
31
 70
0
 10
36.4236807046
 20
24.2369056521
 10
36.4233392974
 20
24.249957992
 10
36.4223160348
 20
24.2629828864
 10
36.4206124306
 20
24.275944661
 10
36.4182313004
 20
24.2888103798
 10
36.415178187
 20
24.3015418449
 10
36.4114627473
 20
24.3140960295
 10
36.4070961962
 20
24.3264358334
 10
36.4020897663
 20
24.3385301896
 10
36.3964570177
 20
24.3503462678
 10
36.3902132161
 20
24.3618518682
 10
36.3833755342
 20
24.3730151866
 10
36.3759629042
 20
24.3838052658
 10
36.367995762
 20
24.3941923917
 10
36.359495865
 20
24.4041482289
 10
36.3504864432
 20
24.4136455633
 10
36.34099215
 20
24.4226583824
 10
36.3310390466
 20
24.4311619239
 10
36.3206544574
 20
24.4391328321
 10
36.309866867
 20
24.446549239
 10
36.2987058411
 20
24.4533908148
 10
36.2872019853
 20
24.4596387939
 10
36.2753868396
 20
24.4652760422
 10
36.2632928024
 20
24.4702870977
 10
36.2509530463
 20
24.4746582128
 10
36.2384013989
 20
24.4783774023
 10
36.2256722849
 20
24.4814344634
 10
36.2128006453
 20
24.4838210061
 10
36.1998217879
 20
24.4855304893
 10
36.1867712895
 20
24.4865582323
 10
36.1736849354
 20
24.4869014213
  0
LWPOLYLINE
  5
4D8
100
AcDbEntity
  8
RACCORDO
100
AcDbPolyline
 62
7
  6
CONTINUOUS
 90
34
 70
0
 10
36.4367792833
 20
24.2500042308
 10
36.4364961331
 20
24.261899516
 10
36.4356473176
 20
24.2737678556
 10
36.4342347575
 20
24.2855823661
 10
36.4322616511
 20
24.2973162875
 10
36.4297324651
 20
24.3089430388
 10
36.426652925
 20
24.320436279
 10
36.4230300047
 20
24.3317699738
 10
36.4188719091
 20
24.3429184493
 10
36.4141880555
 20
24.3538564463
 10
36.4089890522
 20
24.3645591876
 10
36.403286675
 20
24.3750024283
 10
36.3970938415
 20
24.3851625059
 10
36.3904245788
 20
24.3950164051
 10
36.383293994
 20
24.4045418038
 10
36.3757182422
 20
24.4137171191
 10
36.3677144838
 20
24.4225215661
 10
36.3593008494
 20
24.4309352005
 10
36.3504964024
 20
24.4389389589
 10
36.3413210872
 20
24.4465147107
 10
36.3317956885
 20
24.4536452955
 10
36.3219417892
 20
24.4603145581
 10
36.3117817116
 20
24.4665073916
 10
36.3013384709
 20
24.4722097688
 10
36.2906357296
 20
24.4774087722
 10
36.2796977326
 20
24.4820926258
 10
36.2685492571
 20
24.4862507213
 10
36.2572155623
 20
24.4898736417
 10
36.2457223221
 20
24.4929531817
 10
36.2340955708
 20
24.4954823677
 10
36.2223616495
 20
24.4974554741
 10
36.2105471389
 20
24.4988680342
 10
36.1986787994
 20
24.4997168498
 10
36.1867835141
 20
24.5
  0
LINE
  5
4D9
100
AcDbEntity
  8
RACCORDO
100
AcDbLine
 62
250
  6
CONTINUOUS
 10
36.1736849354
 20
23.6278312164
 11
36.1787755365
 21
23.1226497308
  0
LINE
  5
4DA
100
AcDbEntity
  8
RACCORDO
100
AcDbLine
 62
250
  6
CONTINUOUS
 10
36.4236807046
 20
23.8443375673
 11
36.4294985344
 21
23.2669872981
  0
LINE
  5
4DB
100
AcDbEntity
  8
RACCORDO
100
AcDbLine
 62
250
  6
CONTINUOUS
 10
36.1736849354
 20
-23.6278312164
 11
36.1736849354
 21
-24.4869014213
  0
LINE
  5
4DC
100
AcDbEntity
  8
RACCORDO
100
AcDbLine
 62
250
  6
CONTINUOUS
 10
36.1736849354
 20
23.6278312164
 11
36.1736849354
 21
24.4869014213
  0
LINE
  5
4DD
100
AcDbEntity
  8
RACCORDO
100
AcDbLine
 62
250
  6
CONTINUOUS
 10
36.1795027652
 20
23.1226497308
 11
36.1795027652
 21
22.3213883311
  0
LINE
  5
4DE
100
AcDbEntity
  8
RACCORDO
100
AcDbLine
 62
250
  6
CONTINUOUS
 10
36.1795027652
 20
-22.3213883311
 11
36.1795027652
 21
-23.1226497308
  0
LINE
  5
4DF
100
AcDbEntity
  8
RACCORDO
100
AcDbLine
 62
250
  6
CONTINUOUS
 10
36.4236807046
 20
-24.2369056521
 11
36.4236807046
 21
-23.8443375673
  0
LINE
  5
4E0
100
AcDbEntity
  8
RACCORDO
100
AcDbLine
 62
250
  6
CONTINUOUS
 10
36.4236807046
 20
23.8443375673
 11
36.4236807046
 21
24.2369056521
  0
LINE
  5
4E1
100
AcDbEntity
  8
RACCORDO
100
AcDbLine
 62
250
  6
CONTINUOUS
 10
36.4294985344
 20
23.2669872981
 11
36.4294985344
 21
22.3344140523
  0
LINE
  5
4E2
100
AcDbEntity
  8
RACCORDO
100
AcDbLine
 62
250
  6
CONTINUOUS
 10
36.4294985344
 20
-22.3344140523
 11
36.4294985344
 21
-23.2669872981
  0
LINE
  5
4E3
100
AcDbEntity
  8
RACCORDO
100
AcDbLine
 62
7
  6
CONTINUOUS
 10
36.4367792833
 20
-22.4
 11
36.4367792833
 21
-24.2500042308
  0
LINE
  5
4E4
100
AcDbEntity
  8
RACCORDO
100
AcDbLine
 62
7
  6
CONTINUOUS
 10
36.4367792833
 20
22.4
 11
36.4367792833
 21
24.2500042308
  0
LINE
  5
4E5
100
AcDbEntity
  8
RACCORDO
100
AcDbLine
 62
250
  6
CONTINUOUS
 10
36.1787755365
 20
-23.1226497308
 11
36.1736849354
 21
-23.6278312164
  0
LINE
  5
4E6
100
AcDbEntity
  8
RACCORDO
100
AcDbLine
 62
250
  6
CONTINUOUS
 10
36.4294985344
 20
-23.2669872981
 11
36.4236807046
 21
-23.8443375673
  0
LINE
  5
4E7
100
AcDbEntity
  8
0
100
AcDbLine
 62
7
  6
CONTINUOUS
 10
34.0440600322
 20
-22.3342126379
 11
34.0367792833
 21
-22.3999998839
  0
LWPOLYLINE
  5
4E8
100
AcDbEntity
  8
0
100
AcDbPolyline
 62
7
  6
CONTINUOUS
 90
42
 70
0
 10
42.366119544
 20
11.154385377
 10
42.3163490413
 20
11.0822494543
 10
42.2688742548
 20
11.00871974
 10
42.2237254515
 20
10.9338304693
 10
42.1808723644
 20
10.8575473831
 10
42.140403075
 20
10.7800266303
 10
42.1023038457
 20
10.7012237399
 10
42.0665884141
 20
10.6211831613
 10
42.0333860745
 20
10.5401944301
 10
42.0027207845
 20
10.4582976846
 10
41.9745685866
 20
10.3754527713
 10
41.9489869017
 20
10.2918287923
 10
41.9259703011
 20
10.2073796457
 10
41.9055242136
 20
10.1221514215
 10
41.8877223464
 20
10.036451514
 10
41.8725807731
 20
9.9503226233
 10
41.8600834202
 20
9.8637220448
 10
41.850255774
 20
9.7768290709
 10
41.8431010575
 20
9.6895996794
 10
41.8386160476
 20
9.6020778916
 10
41.836816561
 20
9.51457507
 10
41.83771065
 20
9.4271327931
 10
41.8412902622
 20
9.3397094885
 10
41.8475470569
 20
9.2524917981
 10
41.856491769
 20
9.1654414807
 10
41.8681136637
 20
9.0785967866
 10
41.8823721952
 20
8.9922591001
 10
41.899268738
 20
8.9064653418
 10
41.9188019176
 20
8.8211786058
 10
41.9409270646
 20
8.7365895408
 10
41.9656598507
 20
8.652668895
 10
41.9929846042
 20
8.5694459371
 10
42.0228096402
 20
8.4871991003
 10
42.0551323788
 20
8.4059577448
 10
42.0899554
 20
8.3256925312
 10
42.1271947588
 20
8.2465938462
 10
42.1668672371
 20
8.1686436884
 10
42.2089560531
 20
8.0918600813
 10
42.2533269159
 20
8.0164874518
 10
42.2999350621
 20
7.9426072843
 10
42.3488252552
 20
7.8701381186
 10
42.3999974952
 20
7.7990799659
  0
LINE
  5
4E9
100
AcDbEntity
  8
0
100
AcDbLine
 62
250
  6
CONTINUOUS
 10
42.1630221214
 20
7.6721333703
 11
42.1736991114
 21
7.6799344482
  0
LINE
  5
4EA
100
AcDbEntity
  8
0
100
AcDbLine
 62
250
  6
CONTINUOUS
 10
42.1736991114
 20
7.6799344482
 11
42.2462224827
 21
7.732187197
  0
LINE
  5
4EB
100
AcDbEntity
  8
0
100
AcDbLine
 62
250
  6
CONTINUOUS
 10
42.2462224827
 20
7.732187197
 11
42.2743680538
 21
7.7523235549
  0
LWPOLYLINE
  5
4EC
100
AcDbEntity
  8
0
100
AcDbPolyline
 62
250
  6
CONTINUOUS
 90
5
 70
0
 10
42.2743680538
 20
7.7523235549
 10
42.2916640669
 20
7.7645672659
 10
42.2997396741
 20
7.7703373075
 10
42.3073390924
 20
7.775699396
 10
42.3144565829
 20
7.7806738245
  0
LINE
  5
4ED
100
AcDbEntity
  8
0
100
AcDbLine
 62
250
  6
CONTINUOUS
 10
42.3144565829
 20
7.7806738245
 11
42.3269710176
 21
7.7895032985
  0
LINE
  5
4EE
100
AcDbEntity
  8
0
100
AcDbLine
 62
250
  6
CONTINUOUS
 10
42.3269710176
 20
7.7895032985
 11
42.3451108435
 21
7.8021193824
  0
LWPOLYLINE
  5
4EF
100
AcDbEntity
  8
0
100
AcDbPolyline
 62
250
  6
CONTINUOUS
 90
4
 70
0
 10
42.3451108435
 20
7.8021193824
 10
42.3484432004
 20
7.804407616
 10
42.351471166
 20
7.8064286932
 10
42.3565793744
 20
7.8098708166
  0
LWPOLYLINE
  5
4F0
100
AcDbEntity
  8
0
100
AcDbPolyline
 62
250
  6
CONTINUOUS
 90
8
 70
0
 10
42.3565793744
 20
7.8098708166
 10
42.3586905622
 20
7.8112470093
 10
42.3605192763
 20
7.8124162921
 10
42.3620425745
 20
7.8134041786
 10
42.3632915296
 20
7.8141557496
 10
42.3642755017
 20
7.8146665033
 10
42.3649557383
 20
7.8149909161
 10
42.3652895676
 20
7.8151606537
  0
LWPOLYLINE
  5
4F1
100
AcDbEntity
  8
0
100
AcDbPolyline
 62
250
  6
CONTINUOUS
 90
40
 70
0
 10
47.2105364451
 20
-7.4183353798
 10
47.1964609958
 20
-7.4187407467
 10
47.1824302521
 20
-7.4199387377
 10
47.1684887774
 20
-7.4219255479
 10
47.1546808518
 20
-7.4246948669
 10
47.141050331
 20
-7.428237899
 10
47.1276405066
 20
-7.4325433911
 10
47.1144939689
 20
-7.4375976692
 10
47.1016524743
 20
-7.4433846798
 10
47.0891568123
 20
-7.4498860409
 10
47.0770466719
 20
-7.4570811021
 10
47.0653605147
 20
-7.464947011
 10
47.0541354565
 20
-7.4734587846
 10
47.0434071447
 20
-7.4825893923
 10
47.0332096585
 20
-7.4923098303
 10
47.0235753977
 20
-7.5025892117
 10
47.0145349695
 20
-7.513394873
 10
47.0061170731
 20
-7.5246925038
 10
46.9983484253
 20
-7.5364462464
 10
46.9912536949
 20
-7.5486187833
 10
46.9848554254
 20
-7.5611714426
 10
46.9791739442
 20
-7.5740643464
 10
46.9742272974
 20
-7.587256543
 10
46.9700311949
 20
-7.6007061349
 10
46.9665989649
 20
-7.6143704019
 10
46.9639415091
 20
-7.6282059381
 10
46.9620672659
 20
-7.6421688068
 10
46.9609821868
 20
-7.6562146777
 10
46.9606897207
 20
-7.6702989511
 10
46.9611908005
 20
-7.6843768824
 10
46.9624838351
 20
-7.6984037419
 10
46.9645647167
 20
-7.7123349728
 10
46.9674268363
 20
-7.7261263335
 10
46.9710611037
 20
-7.7397340222
 10
46.9754559764
 20
-7.7531148198
 10
46.9805974954
 20
-7.7662262264
 10
46.9864693306
 20
-7.7790265977
 10
46.9930528319
 20
-7.7914752779
 10
47.0003270894
 20
-7.8035327285
 10
47.008268999
 20
-7.8151606537
  0
LINE
  5
4F2
100
AcDbEntity
  8
0
100
AcDbLine
 62
250
  6
CONTINUOUS
 10
48.6551473551
 20
-7.6721333701
 11
47.2105364451
 21
-7.6721333703
  0
LINE
  5
4F3
100
AcDbEntity
  8
0
100
AcDbLine
 62
250
  6
CONTINUOUS
 10
42.1630221215
 20
-7.6721333703
 11
40.7184112116
 21
-7.6721333701
  0
LINE
  5
4F4
100
AcDbEntity
  8
0
100
AcDbLine
 62
250
  6
CONTINUOUS
 10
48.4051194186
 20
-7.4183353799
 11
47.2105364451
 21
-7.4183353799
  0
LINE
  5
4F5
100
AcDbEntity
  8
0
100
AcDbLine
 62
250
  6
CONTINUOUS
 10
42.1630221213
 20
-7.4183353799
 11
40.9684391481
 21
-7.4183353799
  0
LINE
  5
4F6
100
AcDbEntity
  8
0
100
AcDbLine
 62
7
  6
CONTINUOUS
 10
40.9867792833
 20
-7.4
 11
42.1992541282
 21
-7.4
  0
LINE
  5
4F7
100
AcDbEntity
  8
0
100
AcDbLine
 62
7
  6
CONTINUOUS
 10
47.1743044385
 20
-7.4
 11
48.3867792833
 21
-7.4
  0
LWPOLYLINE
  5
4F8
100
AcDbEntity
  8
0
100
AcDbPolyline
 62
7
  6
CONTINUOUS
 90
43
 70
0
 10
42.199254128
 20
-7.4
 10
42.2123749275
 20
-7.4003370765
 10
42.2254311861
 20
-7.4013648836
 10
42.2384229037
 20
-7.4030834212
 10
42.2514060213
 20
-7.4055038746
 10
42.2643245979
 20
-7.4086150583
 10
42.2770108112
 20
-7.4123834156
 10
42.2894469376
 20
-7.4168182157
 10
42.3016507006
 20
-7.421910189
 10
42.3135074487
 20
-7.4275979698
 10
42.3249921967
 20
-7.4338704908
 10
42.3361299297
 20
-7.4407388188
 10
42.3468809514
 20
-7.4481747899
 10
42.3572700403
 20
-7.456201159
 10
42.3672724179
 20
-7.4647951705
 10
42.3767740528
 20
-7.4738603943
 10
42.3857579131
 20
-7.4833938263
 10
42.3942410307
 20
-7.4933984697
 10
42.4021604698
 20
-7.5037869054
 10
42.4095058577
 20
-7.5145450664
 10
42.4162875672
 20
-7.5256870188
 10
42.4224737805
 20
-7.5371675438
 10
42.4280718534
 20
-7.5489984227
 10
42.4330744301
 20
-7.5611678733
 10
42.437427626
 20
-7.5735953318
 10
42.4411292457
 20
-7.5863077975
 10
42.4441814844
 20
-7.5992782703
 10
42.4465370429
 20
-7.6123451877
 10
42.4481789367
 20
-7.6255059824
 10
42.4491241502
 20
-7.6387632214
 10
42.4493763375
 20
-7.6519630443
 10
42.4489337523
 20
-7.6650643068
 10
42.4477981408
 20
-7.6781081534
 10
42.4459783967
 20
-7.6910641577
 10
42.4434711956
 20
-7.7039612839
 10
42.4402798618
 20
-7.7167705679
 10
42.4364232616
 20
-7.7293746912
 10
42.4318837321
 20
-7.7417855286
 10
42.4266789362
 20
-7.7539912057
 10
42.4208807291
 20
-7.7658387817
 10
42.4145130624
 20
-7.7772772766
 10
42.4075519846
 20
-7.788357671
 10
42.3999974955
 20
-7.7990799654
  0
LWPOLYLINE
  5
4F9
100
AcDbEntity
  8
0
100
AcDbPolyline
 62
250
  6
CONTINUOUS
 90
10
 70
0
 10
42.3484432149
 20
-7.8044075767
 10
42.3541889006
 20
-7.8082522319
 10
42.3565793955
 20
-7.8098707793
 10
42.3586905847
 20
-7.8112469723
 10
42.3605193006
 20
-7.812416254
 10
42.3620426005
 20
-7.8134041392
 10
42.3632915547
 20
-7.8141557128
 10
42.3642755219
 20
-7.8146664746
 10
42.36495575
 20
-7.8149908996
 10
42.3652895676
 20
-7.8151606536
  0
LINE
  5
4FA
100
AcDbEntity
  8
0
100
AcDbLine
 62
250
  6
CONTINUOUS
 10
42.3451108546
 20
-7.8021193419
 11
42.3484432149
 21
-7.8044075767
  0
LINE
  5
4FB
100
AcDbEntity
  8
0
100
AcDbLine
 62
250
  6
CONTINUOUS
 10
42.3269710024
 20
-7.7895032452
 11
42.3451108546
 21
-7.8021193419
  0
LINE
  5
4FC
100
AcDbEntity
  8
0
100
AcDbLine
 62
250
  6
CONTINUOUS
 10
42.2743680001
 20
-7.7523234907
 11
42.2916640134
 21
-7.7645671964
  0
LWPOLYLINE
  5
4FD
100
AcDbEntity
  8
0
100
AcDbPolyline
 62
250
  6
CONTINUOUS
 90
5
 70
0
 10
42.2916640134
 20
-7.7645671964
 10
42.299739624
 20
-7.7703372383
 10
42.3073390486
 20
-7.7756993285
 10
42.3144565483
 20
-7.7806737608
 10
42.3269710024
 20
-7.7895032452
  0
LINE
  5
4FE
100
AcDbEntity
  8
0
100
AcDbLine
 62
250
  6
CONTINUOUS
 10
42.2159851685
 20
-7.7104462347
 11
42.2743680001
 21
-7.7523234907
  0
LINE
  5
4FF
100
AcDbEntity
  8
0
100
AcDbLine
 62
250
  6
CONTINUOUS
 10
42.1736991043
 20
-7.6799344435
 11
42.2159851685
 21
-7.7104462347
  0
LINE
  5
500
100
AcDbEntity
  8
0
100
AcDbLine
 62
250
  6
CONTINUOUS
 10
42.1630221213
 20
-7.6721333703
 11
42.1736991043
 21
-7.6799344435
  0
LWPOLYLINE
  5
501
100
AcDbEntity
  8
0
100
AcDbPolyline
 62
250
  6
CONTINUOUS
 90
42
 70
0
 10
42.3208339604
 20
-11.1216433381
 10
42.2734346101
 20
-11.0502292906
 10
42.2281886795
 20
-10.977427669
 10
42.1851379142
 20
-10.9033052097
 10
42.144318961
 20
-10.8279268082
 10
42.1057636373
 20
-10.7513473046
 10
42.06950684
 20
-10.6736317821
 10
42.0355825275
 20
-10.5948521032
 10
42.0040214051
 20
-10.5150732352
 10
41.974851844
 20
-10.4343594402
 10
41.9481030831
 20
-10.352788936
 10
41.9238055119
 20
-10.2704483564
 10
41.901981774
 20
-10.1874094387
 10
41.8826512086
 20
-10.1037484558
 10
41.8658357616
 20
-10.0195598478
 10
41.8515507173
 20
-9.93492231
 10
41.8398056616
 20
-9.8499089233
 10
41.8306110982
 20
-9.7646061717
 10
41.8239745498
 20
-9.6790957064
 10
41.8198978831
 20
-9.5934491048
 10
41.8183826319
 20
-9.5077376576
 10
41.8194295016
 20
-9.4220454515
 10
41.823034446
 20
-9.3364414266
 10
41.8291948538
 20
-9.2509740907
 10
41.8379069101
 20
-9.1657236232
 10
41.8491628321
 20
-9.0807623332
 10
41.862959923
 20
-8.9961275584
 10
41.8792976149
 20
-8.9118663937
 10
41.8981603101
 20
-8.8280847113
 10
41.9195213529
 20
-8.7449077862
 10
41.9433421669
 20
-8.662477453
 10
41.9696169995
 20
-8.5807990647
 10
41.9983768778
 20
-8.4997963402
 10
42.0296328907
 20
-8.4194918419
 10
42.0633504416
 20
-8.3400195549
 10
42.0995024931
 20
-8.2614747811
 10
42.138090213
 20
-8.1838924384
 10
42.179070101
 20
-8.1073919777
 10
42.2223316363
 20
-8.0321882088
 10
42.267805101
 20
-7.9583949805
 10
42.3154731877
 20
-7.8860310904
 10
42.3652895677
 20
-7.8151606537
  0
LWPOLYLINE
  5
502
100
AcDbEntity
  8
0
100
AcDbPolyline
 62
250
  6
CONTINUOUS
 90
42
 70
0
 10
42.1146261024
 20
-11.2685497897
 10
42.063067464
 20
-11.1908246885
 10
42.0138926691
 20
-11.1116621047
 10
41.9671081495
 20
-11.0310607558
 10
41.9227074732
 20
-10.9490218977
 10
41.8808052664
 20
-10.8657512528
 10
41.8414057823
 20
-10.7812431278
 10
41.8045047676
 20
-10.6955031937
 10
41.7702040878
 20
-10.6087542239
 10
41.7385087295
 20
-10.5209863848
 10
41.7094137061
 20
-10.4322094927
 10
41.6830059232
 20
-10.342675801
 10
41.6592942712
 20
-10.252380819
 10
41.6382698598
 20
-10.1613290262
 10
41.6199929234
 20
-10.0697861368
 10
41.6044734421
 20
-9.9777541001
 10
41.591701436
 20
-9.8852309622
 10
41.5817072001
 20
-9.7924765877
 10
41.5744990518
 20
-9.6994962433
 10
41.5700686737
 20
-9.6062846639
 10
41.5684214085
 20
-9.5130859222
 10
41.5695625823
 20
-9.4199083919
 10
41.573486869
 20
-9.3267437062
 10
41.5801836335
 20
-9.2338108324
 10
41.5896556375
 20
-9.1411139047
 10
41.6019001193
 20
-9.0486488002
 10
41.6168981588
 20
-8.9566221048
 10
41.6346636796
 20
-8.8650027296
 10
41.6551827581
 20
-8.7738217782
 10
41.678394704
 20
-8.6833791293
 10
41.7042802543
 20
-8.5937473166
 10
41.732858672
 20
-8.5048538266
 10
41.7641270556
 20
-8.4167809714
 10
41.7981072556
 20
-8.3294657654
 10
41.8347774216
 20
-8.2429712138
 10
41.8740691009
 20
-8.1575686175
 10
41.9160228807
 20
-8.073218567
 10
41.960598174
 20
-7.9899604947
 10
42.0076047661
 20
-7.9081839693
 10
42.0569792523
 20
-7.8280188574
 10
42.1087850375
 20
-7.7493353201
 10
42.1630221215
 20
-7.6721333703
  0
LINE
  5
503
100
AcDbEntity
  8
0
100
AcDbLine
 62
7
  6
CONTINUOUS
 10
34.0367792833
 20
22.3999998839
 11
34.0440600322
 21
22.3342126379
  0
LWPOLYLINE
  5
504
100
AcDbEntity
  8
0
100
AcDbPolyline
 62
250
  6
CONTINUOUS
 90
10
 70
0
 10
34.1700482562
 20
-21.998725222
 10
34.1706689661
 20
-21.9949845842
 10
34.1712836393
 20
-21.9893807429
 10
34.1718922759
 20
-21.9819448983
 10
34.1724946826
 20
-21.9727254775
 10
34.1730910528
 20
-21.9617477756
 10
34.1736819657
 20
-21.9489868447
 10
34.1742683665
 20
-21.934433152
 10
34.1748493101
 20
-21.9181223501
 10
34.1759879794
 20
-21.8803217637
  0
LWPOLYLINE
  5
505
100
AcDbEntity
  8
0
100
AcDbPolyline
 62
250
  6
CONTINUOUS
 90
11
 70
0
 10
33.6701244087
 20
-21.4994104546
 10
33.6707450983
 20
-21.4968798441
 10
33.6713597605
 20
-21.4931508833
 10
33.6719683952
 20
-21.4882235721
 10
33.672570815
 20
-21.4820923255
 10
33.6731672074
 20
-21.4747627285
 10
33.6737581346
 20
-21.4662515364
 10
33.674344532
 20
-21.4565505586
 10
33.6749254642
 20
-21.4456679856
 10
33.6754986873
 20
-21.4336451447
 10
33.6766218565
 20
-21.4061715454
  0
LINE
  5
506
100
AcDbEntity
  8
0
100
AcDbLine
 62
7
  6
CONTINUOUS
 10
40.9867792833
 20
5.3
 11
40.9683742726
 21
5.2815915802
  0
LINE
  5
507
100
AcDbEntity
  8
0
100
AcDbLine
 62
7
  6
CONTINUOUS
 10
40.901370652
 20
5.2162855479
 11
40.7184124483
 21
5.0341016853
  0
LINE
  5
508
100
AcDbEntity
  8
0
100
AcDbLine
 62
7
  6
CONTINUOUS
 10
40.9587055521
 20
5.2725762189
 11
40.901370652
 21
5.2162855479
  0
LWPOLYLINE
  5
509
100
AcDbEntity
  8
0
100
AcDbPolyline
 62
7
  6
CONTINUOUS
 90
6
 70
0
 10
40.968315951
 20
5.2815465582
 10
40.9678386961
 20
5.2811581529
 10
40.9669116499
 20
5.2803409975
 10
40.9655348124
 20
5.2790840928
 10
40.9637215967
 20
5.277379504
 10
40.9587055521
 20
5.2725762189
  0
LINE
  5
50A
100
AcDbEntity
  8
0
100
AcDbLine
 62
7
  6
CONTINUOUS
 10
40.9683742726
 20
5.2815915802
 11
40.968315951
 21
5.2815465582
  0
LINE
  5
50B
100
AcDbEntity
  8
0
100
AcDbLine
 62
250
  6
CONTINUOUS
 10
47.1743044385
 20
7.4
 11
47.2105364453
 21
7.4183353799
  0
LINE
  5
50C
100
AcDbEntity
  8
0
100
AcDbLine
 62
250
  6
CONTINUOUS
 10
46.9735610717
 20
7.7990799663
 11
47.0082689989
 21
7.8151606537
  0
LINE
  5
50D
100
AcDbEntity
  8
0
100
AcDbLine
 62
7
  6
CONTINUOUS
 10
40.9867792833
 20
-5.3
 11
48.3867792833
 21
-5.3
  0
LINE
  5
50E
100
AcDbEntity
  8
0
100
AcDbLine
 62
250
  6
CONTINUOUS
 10
40.968315951
 20
-5.2815465582
 11
48.4052426157
 21
-5.2815465582
  0
LINE
  5
50F
100
AcDbEntity
  8
0
100
AcDbLine
 62
250
  6
CONTINUOUS
 10
47.008268999
 20
-7.8151606537
 11
46.9735610718
 21
-7.7990799664
  0
LINE
  5
510
100
AcDbEntity
  8
0
100
AcDbLine
 62
250
  6
CONTINUOUS
 10
47.2105364451
 20
-7.4183353799
 11
47.1743044385
 21
-7.4
  0
LINE
  5
511
100
AcDbEntity
  8
0
100
AcDbLine
 62
7
  6
CONTINUOUS
 10
40.968315951
 20
-5.2815465582
 11
40.9683742726
 21
-5.2815915802
  0
LWPOLYLINE
  5
512
100
AcDbEntity
  8
0
100
AcDbPolyline
 62
7
  6
CONTINUOUS
 90
5
 70
0
 10
40.968315951
 20
-5.2815465582
 10
40.9678386961
 20
-5.2811581529
 10
40.9669116499
 20
-5.2803409975
 10
40.9655348124
 20
-5.2790840928
 10
40.9637215967
 20
-5.277379504
  0
LINE
  5
513
100
AcDbEntity
  8
0
100
AcDbLine
 62
7
  6
CONTINUOUS
 10
40.9637215967
 20
-5.277379504
 11
40.9587055521
 21
-5.2725762189
  0
LINE
  5
514
100
AcDbEntity
  8
0
100
AcDbLine
 62
7
  6
CONTINUOUS
 10
40.9587055521
 20
-5.2725762189
 11
40.947466016
 21
-5.2616576506
  0
LINE
  5
515
100
AcDbEntity
  8
0
100
AcDbLine
 62
7
  6
CONTINUOUS
 10
40.947466016
 20
-5.2616576506
 11
40.8922372536
 21
-5.207242764
  0
LINE
  5
516
100
AcDbEntity
  8
0
100
AcDbLine
 62
7
  6
CONTINUOUS
 10
40.9867792833
 20
-5.3
 11
40.9683742726
 21
-5.2815915802
  0
LINE
  5
517
100
AcDbEntity
  8
0
100
AcDbLine
 62
7
  6
CONTINUOUS
 10
40.8922372536
 20
-5.207242764
 11
40.7184124483
 21
-5.0341016853
  0
LINE
  5
518
100
AcDbEntity
  8
DRAFT
100
AcDbLine
 62
7
  6
CONTINUOUS
 10
40.2867792833
 20
-23.8
 11
40.2867792833
 21
-22.4
  0
LINE
  5
519
100
AcDbEntity
  8
DRAFT
100
AcDbLine
 62
7
  6
CONTINUOUS
 10
40.2867792833
 20
22.4
 11
40.2867792833
 21
23.8
  0
LINE
  5
51A
100
AcDbEntity
  8
RACCORDO
100
AcDbLine
 62
250
  6
CONTINUOUS
 10
40.2897051215
 20
23.7970741618
 11
40.2897051215
 21
22.3736436632
  0
LINE
  5
51B
100
AcDbEntity
  8
RACCORDO
100
AcDbLine
 62
250
  6
CONTINUOUS
 10
40.2897051215
 20
-22.3736436632
 11
40.2897051215
 21
-23.7970741618
  0
LINE
  5
51C
100
AcDbEntity
  8
0
100
AcDbLine
 62
250
  6
CONTINUOUS
 10
40.7184112116
 20
-7.6721333701
 11
40.7184124483
 21
-5.0341016866
  0
LINE
  5
51D
100
AcDbEntity
  8
0
100
AcDbLine
 62
250
  6
CONTINUOUS
 10
40.7184124483
 20
5.0341016864
 11
40.7184112116
 21
7.6721333701
  0
LINE
  5
51E
100
AcDbEntity
  8
RACCORDO
100
AcDbLine
 62
250
  6
CONTINUOUS
 10
40.78969666
 20
23.5953423515
 11
40.78969666
 21
22.3475922207
  0
LINE
  5
51F
100
AcDbEntity
  8
RACCORDO
100
AcDbLine
 62
250
  6
CONTINUOUS
 10
40.78969666
 20
-22.3475922207
 11
40.78969666
 21
-23.5953423515
  0
LINE
  5
520
100
AcDbEntity
  8
0
100
AcDbLine
 62
250
  6
CONTINUOUS
 10
40.9683732659
 20
-7.4184297304
 11
40.9683742726
 21
-5.2815915802
  0
LINE
  5
521
100
AcDbEntity
  8
0
100
AcDbLine
 62
250
  6
CONTINUOUS
 10
40.9683742726
 20
5.2815915802
 11
40.9683732659
 21
7.4184297304
  0
LINE
  5
522
100
AcDbEntity
  8
0
100
AcDbLine
 62
7
  6
CONTINUOUS
 10
40.9867792833
 20
7.4
 11
40.9867792833
 21
5.3
  0
LINE
  5
523
100
AcDbEntity
  8
0
100
AcDbLine
 62
7
  6
CONTINUOUS
 10
40.9867792833
 20
-5.3
 11
40.9867792833
 21
-7.4
  0
LINE
  5
524
100
AcDbEntity
  8
0
100
AcDbLine
 62
250
  6
CONTINUOUS
 10
33.5367792833
 20
-21.8997711479
 11
33.6701244087
 21
-21.4994104546
  0
LINE
  5
525
100
AcDbEntity
  8
0
100
AcDbLine
 62
250
  6
CONTINUOUS
 10
40.7184124483
 20
-5.0341016866
 11
48.6551461184
 21
-5.0341016864
  0
LINE
  5
526
100
AcDbEntity
  8
0
100
AcDbLine
 62
250
  6
CONTINUOUS
 10
33.6701244087
 20
21.4994104546
 11
33.5367792833
 21
21.8997711479
  0
LINE
  5
527
100
AcDbEntity
  8
0
100
AcDbLine
 62
250
  6
CONTINUOUS
 10
42.1630221214
 20
7.6721333703
 11
42.1630221215
 21
7.4183353799
  0
LINE
  5
528
100
AcDbEntity
  8
0
100
AcDbLine
 62
250
  6
CONTINUOUS
 10
42.1630221213
 20
-7.6721333703
 11
42.1630221213
 21
-7.4183353799
  0
LINE
  5
529
100
AcDbEntity
  8
RACCORDO
100
AcDbLine
 62
7
  6
CONTINUOUS
 10
40.2867792833
 20
-22.4
 11
40.2897051215
 21
-22.3736436632
  0
LINE
  5
52A
100
AcDbEntity
  8
0
100
AcDbLine
 62
250
  6
CONTINUOUS
 10
34.0597387641
 20
-22.3299228166
 11
34.1700482562
 21
-21.998725222
  0
LWPOLYLINE
  5
52B
100
AcDbEntity
  8
0
100
AcDbPolyline
 62
250
  6
CONTINUOUS
 90
40
 70
0
 10
47.0082689991
 20
7.8151606536
 10
47.0003270895
 20
7.8035327285
 10
46.993052832
 20
7.7914752778
 10
46.9864693307
 20
7.7790265976
 10
46.9805974956
 20
7.7662262263
 10
46.9754559765
 20
7.7531148197
 10
46.9710611039
 20
7.7397340221
 10
46.9674268365
 20
7.7261263334
 10
46.9645647169
 20
7.7123349727
 10
46.9624838353
 20
7.6984037418
 10
46.9611908006
 20
7.6843768823
 10
46.9606897209
 20
7.670298951
 10
46.9609821869
 20
7.6562146776
 10
46.9620672661
 20
7.6421688067
 10
46.9639415093
 20
7.628205938
 10
46.9665989651
 20
7.6143704018
 10
46.9700311951
 20
7.6007061348
 10
46.9742272976
 20
7.5872565429
 10
46.9791739444
 20
7.5740643464
 10
46.9848554256
 20
7.5611714425
 10
46.9912536951
 20
7.5486187832
 10
46.9983484255
 20
7.5364462464
 10
47.0061170733
 20
7.5246925038
 10
47.0145349697
 20
7.513394873
 10
47.0235753979
 20
7.5025892117
 10
47.0332096587
 20
7.4923098303
 10
47.0434071449
 20
7.4825893923
 10
47.0541354567
 20
7.4734587846
 10
47.0653605149
 20
7.464947011
 10
47.0770466721
 20
7.4570811021
 10
47.0891568125
 20
7.4498860409
 10
47.1016524745
 20
7.4433846798
 10
47.1144939691
 20
7.4375976692
 10
47.1276405068
 20
7.4325433911
 10
47.1410503312
 20
7.428237899
 10
47.154680852
 20
7.4246948669
 10
47.1684887776
 20
7.4219255479
 10
47.1824302523
 20
7.4199387377
 10
47.196460996
 20
7.4187407467
 10
47.2105364453
 20
7.4183353799
  0
LWPOLYLINE
  5
52C
100
AcDbEntity
  8
0
100
AcDbPolyline
 62
7
  6
CONTINUOUS
 90
104
 70
0
 10
46.9735610712
 20
7.7990799655
 10
47.0247333117
 20
7.8701381188
 10
47.0736235051
 20
7.9426072852
 10
47.1202316516
 20
8.0164874532
 10
47.1646025146
 20
8.0918600831
 10
47.2066913307
 20
8.1686436905
 10
47.2463638091
 20
8.2465938487
 10
47.283603168
 20
8.3256925341
 10
47.3184261893
 20
8.4059577482
 10
47.3507489279
 20
8.4871991041
 10
47.3805739639
 20
8.5694459412
 10
47.4078987173
 20
8.6526688992
 10
47.4326315033
 20
8.736589545
 10
47.4547566501
 20
8.8211786098
 10
47.4742898295
 20
8.9064653454
 10
47.4911863721
 20
8.9922591033
 10
47.5054449034
 20
9.0785967894
 10
47.5170667979
 20
9.1654414829
 10
47.5260115099
 20
9.2524917996
 10
47.5322683045
 20
9.3397094891
 10
47.5358479167
 20
9.4271327927
 10
47.5367420057
 20
9.5145750686
 10
47.5349425191
 20
9.6020778892
 10
47.5304575094
 20
9.6895996762
 10
47.5233027931
 20
9.7768290668
 10
47.5134751471
 20
9.8637220397
 10
47.5009777945
 20
9.9503226174
 10
47.4858362216
 20
10.0364515073
 10
47.4680343547
 20
10.1221514143
 10
47.4475882675
 20
10.2073796381
 10
47.4245716673
 20
10.2918287843
 10
47.3989899827
 20
10.3754527633
 10
47.370837785
 20
10.4582976765
 10
47.3401724953
 20
10.5401944222
 10
47.3069701558
 20
10.6211831538
 10
47.2712547242
 20
10.7012237328
 10
47.2331554948
 20
10.780026624
 10
47.1926862052
 20
10.8575473776
 10
47.1498331177
 20
10.933830465
 10
47.1046843139
 20
11.0087197369
 10
47.0572095267
 20
11.0822494524
 10
47.0074390231
 20
11.1543853763
 10
46.9555516857
 20
11.2248686218
 10
46.9015678189
 20
11.2936596241
 10
46.8454671181
 20
11.3607979766
 10
46.787367552
 20
11.4261435338
 10
46.7272353644
 20
11.4897221179
 10
46.6651043114
 20
11.5515079361
 10
46.6011936298
 20
11.6112834232
 10
46.5355272868
 20
11.6690162262
 10
46.4680813151
 20
11.7247387298
 10
46.3990030497
 20
11.7783304778
 10
46.3282590307
 20
11.8298074819
 10
46.2558827179
 20
11.879153761
 10
46.1821218258
 20
11.9262008717
 10
46.1070002062
 20
11.9709247761
 10
46.0304940072
 20
12.0133495417
 10
45.9527793881
 20
12.0533788851
 10
45.8738273896
 20
12.0910191319
 10
45.7936669709
 20
12.1262639829
 10
45.7125611693
 20
12.1589982168
 10
45.6305296958
 20
12.1892056046
 10
45.5475528393
 20
12.2169023981
 10
45.4638345045
 20
12.2420220972
 10
45.3793549209
 20
12.2645630075
 10
45.294133859
 20
12.2845268414
 10
45.2084345343
 20
12.3018522084
 10
45.1222684712
 20
12.3165288016
 10
45.0356241454
 20
12.3285669403
 10
44.9487302004
 20
12.3379361721
 10
44.8615796442
 20
12.3446303319
 10
44.7741794686
 20
12.3486555911
 10
44.6867792935
 20
12.35
 10
44.59937912
 20
12.348655592
 10
44.5119789468
 20
12.3446303337
 10
44.4248283894
 20
12.3379361742
 10
44.3379344369
 20
12.3285669419
 10
44.2512901002
 20
12.3165288021
 10
44.165124027
 20
12.3018522074
 10
44.0794246944
 20
12.2845268385
 10
43.9942036253
 20
12.2645630023
 10
43.9097240359
 20
12.2420220898
 10
43.8260056968
 20
12.2169023885
 10
43.7430288375
 20
12.1892055928
 10
43.6609973622
 20
12.1589982033
 10
43.5798915601
 20
12.126263968
 10
43.4997311421
 20
12.0910191159
 10
43.4207791449
 20
12.0533788684
 10
43.343064528
 20
12.013349525
 10
43.2665583319
 20
11.9709247597
 10
43.1914367151
 20
11.9262008559
 10
43.1176758255
 20
11.8791537456
 10
43.0452995151
 20
11.8298074671
 10
42.9745554986
 20
11.778330464
 10
42.9054772358
 20
11.7247387172
 10
42.8380312668
 20
11.6690162151
 10
42.7723649263
 20
11.6112834136
 10
42.7084542467
 20
11.5515079278
 10
42.6463231955
 20
11.4897221109
 10
42.5861910096
 20
11.4261435283
 10
42.5280914451
 20
11.3607979727
 10
42.471990746
 20
11.2936596218
 10
42.4180068805
 20
11.2248686212
 10
42.366119544
 20
11.154385377
  0
LWPOLYLINE
  5
52D
100
AcDbEntity
  8
0
100
AcDbPolyline
 62
7
  6
CONTINUOUS
 90
3
 70
0
 10
48.4115806831
 20
7.4256155765
 10
48.4174209905
 20
7.431764012
 10
48.4210818866
 20
7.4355912844
  0
LINE
  5
52E
100
AcDbEntity
  8
0
100
AcDbLine
 62
7
  6
CONTINUOUS
 10
48.4210818866
 20
7.4355912844
 11
48.4353149657
 21
7.4502980124
  0
LINE
  5
52F
100
AcDbEntity
  8
0
100
AcDbLine
 62
7
  6
CONTINUOUS
 10
48.4353149657
 20
7.4502980124
 11
48.4711436998
 21
7.4868739059
  0
LINE
  5
530
100
AcDbEntity
  8
0
100
AcDbLine
 62
7
  6
CONTINUOUS
 10
48.4711436998
 20
7.4868739059
 11
48.5635954329
 21
7.580304367
  0
LINE
  5
531
100
AcDbEntity
  8
0
100
AcDbLine
 62
7
  6
CONTINUOUS
 10
48.5635954329
 20
7.580304367
 11
48.6391220744
 21
7.6561933817
  0
LINE
  5
532
100
AcDbEntity
  8
0
100
AcDbLine
 62
7
  6
CONTINUOUS
 10
48.3867792833
 20
7.4
 11
48.4051194186
 21
7.4183353799
  0
LINE
  5
533
100
AcDbEntity
  8
0
100
AcDbLine
 62
7
  6
CONTINUOUS
 10
48.6391220744
 20
7.6561933817
 11
48.6551473551
 21
7.6721333703
  0
LINE
  5
534
100
AcDbEntity
  8
0
100
AcDbLine
 62
7
  6
CONTINUOUS
 10
48.3867792833
 20
-7.4
 11
48.4051194186
 21
-7.4183353799
  0
LINE
  5
535
100
AcDbEntity
  8
0
100
AcDbLine
 62
7
  6
CONTINUOUS
 10
48.6234034445
 20
-7.640429402
 11
48.6551473551
 21
-7.6721333703
  0
LINE
  5
536
100
AcDbEntity
  8
0
100
AcDbLine
 62
7
  6
CONTINUOUS
 10
48.4548642791
 20
-7.4703054673
 11
48.6234034445
 21
-7.640429402
  0
LINE
  5
537
100
AcDbEntity
  8
0
100
AcDbLine
 62
7
  6
CONTINUOUS
 10
48.4300288742
 20
-7.4448463583
 11
48.4548642791
 21
-7.4703054673
  0
LINE
  5
538
100
AcDbEntity
  8
0
100
AcDbLine
 62
7
  6
CONTINUOUS
 10
48.4210818866
 20
-7.4355912844
 11
48.4300288742
 21
-7.4448463583
  0
LWPOLYLINE
  5
539
100
AcDbEntity
  8
0
100
AcDbPolyline
 62
7
  6
CONTINUOUS
 90
43
 70
0
 10
46.9735610718
 20
-7.7990799664
 10
46.9660240418
 20
-7.7883838936
 10
46.9590774287
 20
-7.7773311147
 10
46.9527212323
 20
-7.7659216292
 10
46.9469316093
 20
-7.7541047888
 10
46.9417324032
 20
-7.7419312411
 10
46.937195144
 20
-7.7295529297
 10
46.9333373788
 20
-7.7169815112
 10
46.9301415606
 20
-7.7042053285
 10
46.927626579
 20
-7.6913413548
 10
46.9257958309
 20
-7.6784186574
 10
46.9246459194
 20
-7.6654081688
 10
46.9241855422
 20
-7.6523396597
 10
46.9244162405
 20
-7.6391723946
 10
46.9253364732
 20
-7.6259471087
 10
46.9269503142
 20
-7.6128157794
 10
46.9292744733
 20
-7.5997756711
 10
46.9322922407
 20
-7.5868295196
 10
46.9359575617
 20
-7.5741375088
 10
46.9402661749
 20
-7.5617352736
 10
46.9452223416
 20
-7.5495871798
 10
46.9507927912
 20
-7.537746508
 10
46.956974032
 20
-7.5262111715
 10
46.9637695558
 20
-7.5149832578
 10
46.971156567
 20
-7.5041223095
 10
46.9791617042
 20
-7.4936034064
 10
46.9877583289
 20
-7.4834514693
 10
46.9968437301
 20
-7.4738008023
 10
47.0064249428
 20
-7.4646673589
 10
47.0164949321
 20
-7.4560351863
 10
47.0269298812
 20
-7.4479907296
 10
47.0376969839
 20
-7.4405596258
 10
47.0488290466
 20
-7.4337162386
 10
47.0603006721
 20
-7.4274701024
 10
47.0721397768
 20
-7.421805353
 10
47.0843184444
 20
-7.4167378551
 10
47.0967275286
 20
-7.4123247368
 10
47.1093861306
 20
-7.4085740136
 10
47.1222751491
 20
-7.4054776703
 10
47.1352281341
 20
-7.403068789
 10
47.1481896024
 20
-7.4013583971
 10
47.1612150371
 20
-7.4003354674
 10
47.1743044384
 20
-7.4
  0
LWPOLYLINE
  5
53A
100
AcDbEntity
  8
0
100
AcDbPolyline
 62
250
  6
CONTINUOUS
 90
107
 70
0
 10
47.008268999
 20
-7.8151606537
 10
47.0577810058
 20
-7.8855839695
 10
47.105103724
 20
-7.9573759034
 10
47.1502013643
 20
-8.0304675639
 10
47.1930118483
 20
-8.1047361854
 10
47.2335381101
 20
-8.1801610406
 10
47.2718294487
 20
-8.2568337624
 10
47.3078836833
 20
-8.3347764293
 10
47.3416192802
 20
-8.4138370504
 10
47.3729617185
 20
-8.4938490341
 10
47.4018747584
 20
-8.5747115464
 10
47.4283472551
 20
-8.6563786874
 10
47.4523530972
 20
-8.7387620486
 10
47.4738699616
 20
-8.8217725058
 10
47.4928878742
 20
-8.9053490129
 10
47.5093983934
 20
-8.9894456721
 10
47.5233867428
 20
-9.0739874559
 10
47.5348426887
 20
-9.1588985232
 10
47.543759475
 20
-9.2441327742
 10
47.550126777
 20
-9.3296229074
 10
47.5539374359
 20
-9.4152841438
 10
47.5551863817
 20
-9.501044396
 10
47.5538689715
 20
-9.5868319723
 10
47.5499852663
 20
-9.6725651611
 10
47.5435378224
 20
-9.7581567201
 10
47.5345295502
 20
-9.843532941
 10
47.5229685282
 20
-9.9286141365
 10
47.5088679745
 20
-10.0133042953
 10
47.4922402555
 20
-10.0975254293
 10
47.4731013572
 20
-10.1812043368
 10
47.4514733729
 20
-10.2642528553
 10
47.4273781469
 20
-10.3465906251
 10
47.4008380781
 20
-10.428150898
 10
47.3718776279
 20
-10.5088664481
 10
47.3405238529
 20
-10.5886628056
 10
47.3068055881
 20
-10.6674716596
 10
47.2707496192
 20
-10.745235031
 10
47.2323864959
 20
-10.8218848761
 10
47.1917516141
 20
-10.8973510754
 10
47.1488790846
 20
-10.9715726118
 10
47.103805083
 20
-11.044484127
 10
47.056570415
 20
-11.1160184845
 10
47.0072175794
 20
-11.1861129425
 10
46.9557888671
 20
-11.2547052864
 10
46.9023303392
 20
-11.3217326269
 10
46.846892764
 20
-11.3871330849
 10
46.7895247862
 20
-11.4508481569
 10
46.7302775451
 20
-11.5128198887
 10
46.6692087369
 20
-11.5729901694
 10
46.6063740647
 20
-11.6313041881
 10
46.5418282065
 20
-11.6877106643
 10
46.4756305099
 20
-11.7421601608
 10
46.4078414135
 20
-11.7946033503
 10
46.3385200721
 20
-11.8449938077
 10
46.2677264903
 20
-11.8932899637
 10
46.1955234329
 20
-11.9394491278
 10
46.1219751989
 20
-11.9834289578
 10
46.0471465768
 20
-12.0251922634
 10
45.9711036129
 20
-12.0647023235
 10
45.8939144701
 20
-12.1019222499
 10
45.8156495215
 20
-12.1368193869
 10
45.7363788795
 20
-12.1693629909
 10
45.6561726374
 20
-12.1995230108
 10
45.5751034015
 20
-12.2272732583
 10
45.4932442595
 20
-12.2525894975
 10
45.4106674346
 20
-12.2754482483
 10
45.3274459773
 20
-12.2958301222
 10
45.2436542881
 20
-12.3137177411
 10
45.1593667673
 20
-12.3290940589
 10
45.0746577488
 20
-12.341945991
 10
44.9896026491
 20
-12.3522629819
 10
44.904277458
 20
-12.3600346465
 10
44.8187581655
 20
-12.3652542092
 10
44.7331210275
 20
-12.367918034
 10
44.6474423584
 20
-12.3680227022
 10
44.5617984997
 20
-12.3655679777
 10
44.4762660476
 20
-12.3605571855
 10
44.3909210054
 20
-12.3529938671
 10
44.305838604
 20
-12.3428842243
 10
44.2210945349
 20
-12.3302383758
 10
44.1367645677
 20
-12.31506677
 10
44.0529233105
 20
-12.2973820158
 10
43.9696447634
 20
-12.2772008169
 10
43.8870038467
 20
-12.2545405356
 10
43.8050752888
 20
-12.22942059
 10
43.7239317262
 20
-12.2018644777
 10
43.6436458871
 20
-12.1718963693
 10
43.5642909319
 20
-12.1395423464
 10
43.4859380135
 20
-12.1048328135
 10
43.4086561937
 20
-12.0677981938
 10
43.33251344
 20
-12.0284695887
 10
43.2575777408
 20
-11.9868832959
 10
43.1839156297
 20
-11.9430760925
 10
43.111590848
 20
-11.8970839596
 10
43.0406664684
 20
-11.8489476331
 10
42.9712071144
 20
-11.7987105871
 10
42.9032764654
 20
-11.7464166383
 10
42.8369337708
 20
-11.6921119413
 10
42.7722395784
 20
-11.6358459867
 10
42.7092567164
 20
-11.5776713701
 10
42.6480413389
 20
-11.517641031
 10
42.5886472124
 20
-11.4558086777
 10
42.5311305576
 20
-11.3922312461
 10
42.4755430334
 20
-11.3269671981
 10
42.4219325399
 20
-11.2600746718
 10
42.3703472531
 20
-11.1916123425
 10
42.3208339604
 20
-11.1216433381
  0
LWPOLYLINE
  5
53B
100
AcDbEntity
  8
0
100
AcDbPolyline
 62
250
  6
CONTINUOUS
 90
107
 70
0
 10
47.2105364451
 20
-7.6721333703
 10
47.2644230768
 20
-7.7488564868
 10
47.3158572055
 20
-7.8269161939
 10
47.3648388312
 20
-7.9063124799
 10
47.4113756616
 20
-7.9870618326
 10
47.455459989
 20
-8.0691477398
 10
47.4970686899
 20
-8.1525206895
 10
47.5362441936
 20
-8.2372749907
 10
47.5729440708
 20
-8.323316308
 10
47.6070179096
 20
-8.4103121662
 10
47.6384399424
 20
-8.4982374023
 10
47.6672359368
 20
-8.5871171572
 10
47.6933327839
 20
-8.6766944175
 10
47.7167197345
 20
-8.7669546823
 10
47.7374075378
 20
-8.8579124337
 10
47.7553553327
 20
-8.9493541362
 10
47.7705595692
 20
-9.0412802534
 10
47.7830237973
 20
-9.133690306
 10
47.7927178061
 20
-9.2263693476
 10
47.7996372232
 20
-9.3193272413
 10
47.803786421
 20
-9.4125541121
 10
47.8051483054
 20
-9.5058054108
 10
47.8037150078
 20
-9.599086849
 10
47.7994943968
 20
-9.692392708
 10
47.7924929838
 20
-9.7854612992
 10
47.7827010121
 20
-9.8782953977
 10
47.7701282384
 20
-9.9708922271
 10
47.754810445
 20
-10.0629817774
 10
47.7367384877
 20
-10.1545601028
 10
47.7159215107
 20
-10.2456311541
 10
47.6924227284
 20
-10.3359367725
 10
47.6662362938
 20
-10.4254678611
 10
47.6373680538
 20
-10.5142335281
 10
47.6058987636
 20
-10.6020029285
 10
47.5718235523
 20
-10.6887710889
 10
47.5351472907
 20
-10.7745429994
 10
47.4959653466
 20
-10.8591027651
 10
47.4542712086
 20
-10.9424495968
 10
47.4100713881
 20
-11.0245843054
 10
47.3634807865
 20
-11.1052934015
 10
47.3144923046
 20
-11.1845751691
 10
47.2631130416
 20
-11.2624313505
 10
47.2094791961
 20
-11.3386536476
 10
47.1535836693
 20
-11.4132388442
 10
47.09543356
 20
-11.4861901868
 10
47.035186363
 20
-11.557309075
 10
46.9728355884
 20
-11.6265907502
 10
46.9083877262
 20
-11.6940400039
 10
46.8420197405
 20
-11.7594725645
 10
46.7737274737
 20
-11.8228815573
 10
46.7035150834
 20
-11.8842738916
 10
46.6315720073
 20
-11.9434859739
 10
46.5578949531
 20
-12.0005111498
 10
46.4824872129
 20
-12.0553561085
 10
46.4055481006
 20
-12.1078772739
 10
46.3270732374
 20
-12.1580690324
 10
46.2470670021
 20
-12.2059370313
 10
46.1657418445
 20
-12.2513545872
 10
46.083093354
 20
-12.2943156903
 10
45.9991259413
 20
-12.3348263817
 10
45.9140652887
 20
-12.3727780547
 10
45.8279085927
 20
-12.4081636957
 10
45.7406586567
 20
-12.4409903458
 10
45.6525495738
 20
-12.4711704807
 10
45.5635796174
 20
-12.4986968663
 10
45.4737505141
 20
-12.5235767593
 10
45.3833015361
 20
-12.54574437
 10
45.292231116
 20
-12.5651925577
 10
45.2005408213
 20
-12.5819284801
 10
45.1084746267
 20
-12.5959077939
 10
45.0160312482
 20
-12.6071232533
 10
44.9232119698
 20
-12.6155821147
 10
44.8302646185
 20
-12.6212617862
 10
44.7371888497
 20
-12.6241548623
 10
44.643985008
 20
-12.6242687523
 10
44.5509019533
 20
-12.6216030845
 10
44.4579402889
 20
-12.6161505138
 10
44.3650994116
 20
-12.607918382
 10
44.2726263707
 20
-12.5969283462
 10
44.1805220617
 20
-12.5831731375
 10
44.0887855893
 20
-12.5666600145
 10
43.9976613161
 20
-12.5474324235
 10
43.9071502987
 20
-12.5254829718
 10
43.8172514806
 20
-12.5008190352
 10
43.7282060553
 20
-12.4735062117
 10
43.640016171
 20
-12.4435372395
 10
43.5526796794
 20
-12.4109193579
 10
43.4664313292
 20
-12.3757399151
 10
43.3812749491
 20
-12.3379924731
 10
43.2972067105
 20
-12.2976834425
 10
43.2144498762
 20
-12.2549194446
 10
43.1330082703
 20
-12.2096944412
 10
43.0528780687
 20
-12.1620144392
 10
42.9742710626
 20
-12.1120041278
 10
42.89718994
 20
-12.0596565324
 10
42.8216320129
 20
-12.0049785939
 10
42.7478010087
 20
-11.9481158753
 10
42.675700461
 20
-11.8890611414
 10
42.6053268362
 20
-11.8278215925
 10
42.5368732607
 20
-11.7645644463
 10
42.4703457554
 20
-11.6992843218
 10
42.4057382993
 20
-11.6319865653
 10
42.3432259556
 20
-11.5628544881
 10
42.2828154757
 20
-11.4918841815
 10
42.2245001082
 20
-11.4190795211
 10
42.1684346628
 20
-11.3446354974
 10
42.1146261024
 20
-11.2685497897
  0
LINE
  5
53C
100
AcDbEntity
  8
0
100
AcDbLine
 62
250
  6
CONTINUOUS
 10
34.1700482562
 20
21.998725222
 11
34.0597387641
 21
22.3299228166
  0
LINE
  5
53D
100
AcDbEntity
  8
RACCORDO
100
AcDbLine
 62
7
  6
CONTINUOUS
 10
40.2867792833
 20
22.4
 11
40.2897051215
 21
22.3736436632
  0
LWPOLYLINE
  5
53E
100
AcDbEntity
  8
0
100
AcDbPolyline
 62
7
  6
CONTINUOUS
 90
10
 70
0
 10
55.3294985344
 20
22.3342126379
 10
55.329252829
 20
22.3337072056
 10
55.3286291935
 20
22.3332111207
 10
55.3276285407
 20
22.3327243834
 10
55.3262525275
 20
22.3322498617
 10
55.3245031152
 20
22.3317846875
 10
55.3223821542
 20
22.3313202563
 10
55.3198921616
 20
22.3308537
 10
55.3170367309
 20
22.3303878868
 10
55.3138198026
 20
22.3299228166
  0
LWPOLYLINE
  5
53F
100
AcDbEntity
  8
0
100
AcDbPolyline
 62
7
  6
CONTINUOUS
 90
10
 70
0
 10
34.0440600322
 20
-22.3342126379
 10
34.0443069355
 20
-22.3337058723
 10
34.0449332966
 20
-22.3332087933
 10
34.0459374244
 20
-22.3327214009
 10
34.0473169032
 20
-22.3322465711
 10
34.049068991
 20
-22.3317814279
 10
34.0511909946
 20
-22.3313173436
 10
34.0536795773
 20
-22.3308514423
 10
34.0565303972
 20
-22.3303866
 10
34.0597387641
 20
-22.3299228166
  0
LWPOLYLINE
  5
540
100
AcDbEntity
  8
0
100
AcDbPolyline
 62
7
  6
CONTINUOUS
 90
6
 70
0
 10
48.4051853004
 20
7.4184297298
 10
48.4055613379
 20
7.4189777103
 10
48.4063915992
 20
7.4199609504
 10
48.4076760844
 20
7.4213898357
 10
48.4094012718
 20
7.423271255
 10
48.4115806831
 20
7.4256155765
  0
LINE
  5
541
100
AcDbEntity
  8
0
100
AcDbLine
 62
7
  6
CONTINUOUS
 10
48.4051853004
 20
7.4184297298
 11
48.4051194186
 21
7.4183353799
  0
LWPOLYLINE
  5
542
100
AcDbEntity
  8
0
100
AcDbPolyline
 62
7
  6
CONTINUOUS
 90
2
 70
0
 43
0.3500000006
 10
64.9367777252
 20
-1.3571429443
 10
63.4367772675
 20
-1.3571429443
  0
LINE
  5
543
100
AcDbEntity
  8
0
100
AcDbLine
 62
7
  6
CONTINUOUS
 10
48.4051194186
 20
-7.4183353799
 11
48.4051853004
 21
-7.4184297298
  0
LWPOLYLINE
  5
544
100
AcDbEntity
  8
0
100
AcDbPolyline
 62
7
  6
CONTINUOUS
 90
8
 70
0
 10
48.4051853004
 20
-7.4184297298
 10
48.4055613379
 20
-7.4189777103
 10
48.4063915992
 20
-7.4199609504
 10
48.4076760844
 20
-7.4213898357
 10
48.4094012718
 20
-7.423271255
 10
48.4115806831
 20
-7.4256155765
 10
48.4142548835
 20
-7.428442319
 10
48.4210818866
 20
-7.4355912844
  0
LINE
  5
545
100
AcDbEntity
  8
RACCORDO
100
AcDbLine
 62
7
  6
CONTINUOUS
 10
49.0867792833
 20
22.4
 11
49.0838534451
 21
22.3736436632
  0
LWPOLYLINE
  5
546
100
AcDbEntity
  8
0
100
AcDbPolyline
 62
7
  6
CONTINUOUS
 90
6
 70
0
 10
40.9683732662
 20
-7.4184297298
 10
40.9679972288
 20
-7.4189777103
 10
40.9671669675
 20
-7.4199609504
 10
40.9658824823
 20
-7.4213898357
 10
40.9641572949
 20
-7.423271255
 10
40.9619778836
 20
-7.4256155765
  0
LINE
  5
547
100
AcDbEntity
  8
0
100
AcDbLine
 62
7
  6
CONTINUOUS
 10
40.9683732662
 20
-7.4184297298
 11
40.9684391481
 21
-7.4183353799
  0
LINE
  5
548
100
AcDbEntity
  8
0
100
AcDbLine
 62
7
  6
CONTINUOUS
 10
40.9684391481
 20
7.4183353799
 11
40.9683732662
 21
7.4184297298
  0
LWPOLYLINE
  5
549
100
AcDbEntity
  8
0
100
AcDbPolyline
 62
7
  6
CONTINUOUS
 90
8
 70
0
 10
40.9683732662
 20
7.4184297298
 10
40.9679972288
 20
7.4189777103
 10
40.9671669675
 20
7.4199609504
 10
40.9658824822
 20
7.4213898357
 10
40.9641572949
 20
7.423271255
 10
40.9619778836
 20
7.4256155765
 10
40.9593036832
 20
7.428442319
 10
40.95247668
 20
7.4355912844
  0
LINE
  5
54A
100
AcDbEntity
  8
RACCORDO
100
AcDbLine
 62
7
  6
CONTINUOUS
 10
49.0867792833
 20
-22.4
 11
49.0838534451
 21
-22.3736436632
  0
LINE
  5
54B
100
AcDbEntity
  8
0
100
AcDbLine
 62
250
  6
CONTINUOUS
 10
47.2105364453
 20
7.6721333703
 11
47.2105364453
 21
7.4183353799
  0
LINE
  5
54C
100
AcDbEntity
  8
0
100
AcDbLine
 62
250
  6
CONTINUOUS
 10
47.2105364451
 20
-7.6721333703
 11
47.2105364451
 21
-7.4183353799
  0
LINE
  5
54D
100
AcDbEntity
  8
0
100
AcDbLine
 62
7
  6
CONTINUOUS
 10
48.3867792833
 20
7.4
 11
48.3867792833
 21
5.3
  0
LINE
  5
54E
100
AcDbEntity
  8
0
100
AcDbLine
 62
7
  6
CONTINUOUS
 10
48.3867792833
 20
-5.3
 11
48.3867792833
 21
-7.4
  0
LINE
  5
54F
100
AcDbEntity
  8
0
100
AcDbLine
 62
250
  6
CONTINUOUS
 10
48.4051853007
 20
7.4184297302
 11
48.405184294
 21
5.2815915802
  0
LINE
  5
550
100
AcDbEntity
  8
0
100
AcDbLine
 62
250
  6
CONTINUOUS
 10
48.405184294
 20
-5.2815915802
 11
48.4051853007
 21
-7.4184297303
  0
LINE
  5
551
100
AcDbEntity
  8
RACCORDO
100
AcDbLine
 62
250
  6
CONTINUOUS
 10
48.5838619067
 20
-23.5953423515
 11
48.5838619067
 21
-22.3475922207
  0
LINE
  5
552
100
AcDbEntity
  8
RACCORDO
100
AcDbLine
 62
250
  6
CONTINUOUS
 10
48.5838619067
 20
22.3475922207
 11
48.5838619067
 21
23.5953423515
  0
LINE
  5
553
100
AcDbEntity
  8
0
100
AcDbLine
 62
250
  6
CONTINUOUS
 10
48.6551473551
 20
7.6721333701
 11
48.6551461184
 21
5.0341016866
  0
LINE
  5
554
100
AcDbEntity
  8
0
100
AcDbLine
 62
250
  6
CONTINUOUS
 10
48.6551461184
 20
-5.0341016864
 11
48.6551473551
 21
-7.6721333701
  0
LINE
  5
555
100
AcDbEntity
  8
0
100
AcDbLine
 62
250
  6
CONTINUOUS
 10
55.3138198026
 20
22.3299228166
 11
55.2035103104
 21
21.998725222
  0
LINE
  5
556
100
AcDbEntity
  8
0
100
AcDbLine
 62
250
  6
CONTINUOUS
 10
55.8367792833
 20
21.8997711479
 11
55.703434158
 21
21.4994104546
  0
LWPOLYLINE
  5
557
100
AcDbEntity
  8
0
100
AcDbPolyline
 62
250
  6
CONTINUOUS
 90
40
 70
0
 10
42.3652895676
 20
-7.8151606536
 10
42.3732314772
 20
-7.8035327285
 10
42.3805057347
 20
-7.7914752778
 10
42.387089236
 20
-7.7790265976
 10
42.3929610711
 20
-7.7662262263
 10
42.3981025902
 20
-7.7531148197
 10
42.4024974628
 20
-7.7397340221
 10
42.4061317302
 20
-7.7261263334
 10
42.4089938498
 20
-7.7123349727
 10
42.4110747314
 20
-7.6984037418
 10
42.4123677661
 20
-7.6843768823
 10
42.4128688458
 20
-7.670298951
 10
42.4125763797
 20
-7.6562146776
 10
42.4114913006
 20
-7.6421688067
 10
42.4096170573
 20
-7.628205938
 10
42.4069596016
 20
-7.6143704018
 10
42.4035273716
 20
-7.6007061348
 10
42.3993312691
 20
-7.5872565429
 10
42.3943846222
 20
-7.5740643464
 10
42.388703141
 20
-7.5611714425
 10
42.3823048715
 20
-7.5486187832
 10
42.3752101412
 20
-7.5364462464
 10
42.3674414934
 20
-7.5246925038
 10
42.359023597
 20
-7.513394873
 10
42.3499831688
 20
-7.5025892117
 10
42.3403489079
 20
-7.4923098303
 10
42.3301514217
 20
-7.4825893923
 10
42.3194231099
 20
-7.4734587846
 10
42.3081980517
 20
-7.464947011
 10
42.2965118946
 20
-7.4570811021
 10
42.2844017542
 20
-7.4498860409
 10
42.2719060922
 20
-7.4433846798
 10
42.2590645976
 20
-7.4375976692
 10
42.2459180598
 20
-7.4325433911
 10
42.2325082355
 20
-7.428237899
 10
42.2188777147
 20
-7.4246948669
 10
42.2050697891
 20
-7.4219255479
 10
42.1911283144
 20
-7.4199387377
 10
42.1770975706
 20
-7.4187407467
 10
42.1630221213
 20
-7.4183353799
  0
LWPOLYLINE
  5
558
100
AcDbEntity
  8
0
100
AcDbPolyline
 62
7
  6
CONTINUOUS
 90
104
 70
0
 10
42.3999974955
 20
-7.7990799654
 10
42.348825255
 20
-7.8701381188
 10
42.2999350615
 20
-7.9426072852
 10
42.2533269151
 20
-8.0164874532
 10
42.208956052
 20
-8.0918600831
 10
42.166867236
 20
-8.1686436906
 10
42.1271947575
 20
-8.2465938487
 10
42.0899553986
 20
-8.3256925342
 10
42.0551323774
 20
-8.4059577482
 10
42.0228096387
 20
-8.4871991041
 10
41.9929846027
 20
-8.5694459412
 10
41.9656598494
 20
-8.6526688992
 10
41.9409270634
 20
-8.736589545
 10
41.9188019166
 20
-8.8211786098
 10
41.8992687372
 20
-8.9064653455
 10
41.8823721946
 20
-8.9922591033
 10
41.8681136633
 20
-9.0785967894
 10
41.8564917688
 20
-9.1654414829
 10
41.8475470567
 20
-9.2524917996
 10
41.8412902621
 20
-9.3397094891
 10
41.83771065
 20
-9.4271327927
 10
41.836816561
 20
-9.5145750686
 10
41.8386160475
 20
-9.6020778893
 10
41.8431010573
 20
-9.6895996762
 10
41.8502557735
 20
-9.7768290668
 10
41.8600834196
 20
-9.8637220398
 10
41.8725807722
 20
-9.9503226174
 10
41.8877223451
 20
-10.0364515074
 10
41.905524212
 20
-10.1221514143
 10
41.9259702991
 20
-10.2073796381
 10
41.9489868994
 20
-10.2918287844
 10
41.974568584
 20
-10.3754527633
 10
42.0027207817
 20
-10.4582976766
 10
42.0333860714
 20
-10.5401944222
 10
42.0665884109
 20
-10.6211831538
 10
42.1023038425
 20
-10.7012237329
 10
42.1404030718
 20
-10.7800266241
 10
42.1808723615
 20
-10.8575473777
 10
42.223725449
 20
-10.9338304651
 10
42.2688742529
 20
-11.0087197369
 10
42.31634904
 20
-11.0822494524
 10
42.3661195436
 20
-11.1543853764
 10
42.4180068811
 20
-11.2248686219
 10
42.4719907479
 20
-11.2936596242
 10
42.5280914486
 20
-11.3607979767
 10
42.5861910147
 20
-11.4261435339
 10
42.6463232023
 20
-11.4897221179
 10
42.7084542553
 20
-11.5515079361
 10
42.772364937
 20
-11.6112834233
 10
42.83803128
 20
-11.6690162263
 10
42.9054772517
 20
-11.7247387299
 10
42.9745555171
 20
-11.7783304779
 10
43.0452995361
 20
-11.829807482
 10
43.1176758489
 20
-11.8791537611
 10
43.191436741
 20
-11.9262008718
 10
43.2665583606
 20
-11.9709247761
 10
43.3430645596
 20
-12.0133495418
 10
43.4207791786
 20
-12.0533788851
 10
43.4997311771
 20
-12.0910191319
 10
43.5798915957
 20
-12.1262639829
 10
43.6609973972
 20
-12.1589982168
 10
43.7430288705
 20
-12.1892056044
 10
43.8260057267
 20
-12.2169023979
 10
43.9097240612
 20
-12.242022097
 10
43.9942036445
 20
-12.2645630072
 10
44.0794247062
 20
-12.2845268411
 10
44.1651240304
 20
-12.301852208
 10
44.2512900931
 20
-12.3165288012
 10
44.3379344183
 20
-12.32856694
 10
44.4248283629
 20
-12.3379361718
 10
44.5119789192
 20
-12.3446303317
 10
44.5993790948
 20
-12.3486555909
 10
44.6867792701
 20
-12.35
 10
44.7741794435
 20
-12.3486555921
 10
44.8615796165
 20
-12.3446303339
 10
44.948730174
 20
-12.3379361745
 10
45.0356241268
 20
-12.3285669423
 10
45.1222684641
 20
-12.3165288024
 10
45.2084345378
 20
-12.3018522077
 10
45.2941338707
 20
-12.2845268388
 10
45.3793549402
 20
-12.2645630026
 10
45.4638345299
 20
-12.2420220901
 10
45.5475528692
 20
-12.2169023887
 10
45.6305297288
 20
-12.1892055929
 10
45.7125612043
 20
-12.1589982034
 10
45.7936670065
 20
-12.126263968
 10
45.8738274246
 20
-12.0910191158
 10
45.9527794219
 20
-12.0533788683
 10
46.0304940388
 20
-12.0133495249
 10
46.1070002349
 20
-11.9709247596
 10
46.1821218517
 20
-11.9262008558
 10
46.2558827413
 20
-11.8791537455
 10
46.3282590517
 20
-11.8298074671
 10
46.3990030682
 20
-11.7783304639
 10
46.4680813309
 20
-11.7247387171
 10
46.5355272999
 20
-11.6690162151
 10
46.6011936404
 20
-11.6112834136
 10
46.66510432
 20
-11.5515079278
 10
46.7272353712
 20
-11.4897221109
 10
46.7873675571
 20
-11.4261435282
 10
46.8454671216
 20
-11.3607979727
 10
46.9015678208
 20
-11.2936596218
 10
46.9555516862
 20
-11.2248686211
 10
47.0074390227
 20
-11.1543853769
  0
LWPOLYLINE
  5
559
100
AcDbEntity
  8
0
100
AcDbPolyline
 62
7
  6
CONTINUOUS
 90
3
 70
0
 10
40.9619778836
 20
-7.4256155765
 10
40.9561375762
 20
-7.431764012
 10
40.9524766801
 20
-7.4355912844
  0
LINE
  5
55A
100
AcDbEntity
  8
0
100
AcDbLine
 62
7
  6
CONTINUOUS
 10
40.9524766801
 20
-7.4355912844
 11
40.9382436009
 21
-7.4502980124
  0
LINE
  5
55B
100
AcDbEntity
  8
0
100
AcDbLine
 62
7
  6
CONTINUOUS
 10
40.9382436009
 20
-7.4502980124
 11
40.9258258985
 21
-7.4630128994
  0
LINE
  5
55C
100
AcDbEntity
  8
0
100
AcDbLine
 62
7
  6
CONTINUOUS
 10
40.9258258985
 20
-7.4630128994
 11
40.8834171083
 21
-7.5061613376
  0
LINE
  5
55D
100
AcDbEntity
  8
0
100
AcDbLine
 62
7
  6
CONTINUOUS
 10
40.8834171083
 20
-7.5061613376
 11
40.7344364923
 21
-7.6561933817
  0
LINE
  5
55E
100
AcDbEntity
  8
0
100
AcDbLine
 62
7
  6
CONTINUOUS
 10
40.9867792833
 20
-7.4
 11
40.9684391481
 21
-7.4183353799
  0
LINE
  5
55F
100
AcDbEntity
  8
0
100
AcDbLine
 62
7
  6
CONTINUOUS
 10
40.7344364923
 20
-7.6561933817
 11
40.7184112116
 21
-7.6721333703
  0
LINE
  5
560
100
AcDbEntity
  8
0
100
AcDbLine
 62
7
  6
CONTINUOUS
 10
40.9867792833
 20
7.4
 11
40.9684391481
 21
7.4183353799
  0
LINE
  5
561
100
AcDbEntity
  8
0
100
AcDbLine
 62
7
  6
CONTINUOUS
 10
40.7501551221
 20
7.640429402
 11
40.7184112116
 21
7.6721333703
  0
LINE
  5
562
100
AcDbEntity
  8
0
100
AcDbLine
 62
7
  6
CONTINUOUS
 10
40.9186942875
 20
7.4703054673
 11
40.7501551221
 21
7.640429402
  0
LINE
  5
563
100
AcDbEntity
  8
0
100
AcDbLine
 62
7
  6
CONTINUOUS
 10
40.9435296924
 20
7.4448463583
 11
40.9186942875
 21
7.4703054673
  0
LINE
  5
564
100
AcDbEntity
  8
0
100
AcDbLine
 62
7
  6
CONTINUOUS
 10
40.95247668
 20
7.4355912844
 11
40.9435296924
 21
7.4448463583
  0
LWPOLYLINE
  5
565
100
AcDbEntity
  8
0
100
AcDbPolyline
 62
7
  6
CONTINUOUS
 90
43
 70
0
 10
42.3999974952
 20
7.7990799659
 10
42.407534525
 20
7.7883838933
 10
42.414481138
 20
7.7773311146
 10
42.4208373343
 20
7.7659216292
 10
42.4266269572
 20
7.7541047888
 10
42.4318261634
 20
7.7419312411
 10
42.4363634226
 20
7.7295529296
 10
42.4402211878
 20
7.7169815111
 10
42.443417006
 20
7.7042053283
 10
42.4459319877
 20
7.6913413546
 10
42.4477627357
 20
7.6784186572
 10
42.4489126472
 20
7.6654081686
 10
42.4493730244
 20
7.6523396596
 10
42.449142326
 20
7.6391723944
 10
42.4482220934
 20
7.6259471086
 10
42.4466082524
 20
7.6128157793
 10
42.4442840933
 20
7.5997756711
 10
42.4412663258
 20
7.5868295195
 10
42.4376010048
 20
7.5741375088
 10
42.4332923917
 20
7.5617352735
 10
42.428336225
 20
7.5495871797
 10
42.4227657753
 20
7.5377465079
 10
42.4165845345
 20
7.5262111714
 10
42.4097890107
 20
7.5149832578
 10
42.4024019995
 20
7.5041223094
 10
42.3943968623
 20
7.4936034063
 10
42.3858002376
 20
7.4834514693
 10
42.3767148365
 20
7.4738008023
 10
42.3671336237
 20
7.4646673588
 10
42.3570636345
 20
7.4560351863
 10
42.3466286854
 20
7.4479907296
 10
42.3358615827
 20
7.4405596258
 10
42.32472952
 20
7.4337162386
 10
42.3132578945
 20
7.4274701024
 10
42.3014187898
 20
7.421805353
 10
42.2892401222
 20
7.4167378551
 10
42.276831038
 20
7.4123247368
 10
42.2641724361
 20
7.4085740135
 10
42.2512834176
 20
7.4054776703
 10
42.2383304325
 20
7.403068789
 10
42.2253689643
 20
7.4013583971
 10
42.2123435294
 20
7.4003354674
 10
42.1992541281
 20
7.4
  0
LWPOLYLINE
  5
566
100
AcDbEntity
  8
0
100
AcDbPolyline
 62
250
  6
CONTINUOUS
 90
107
 70
0
 10
42.3652895677
 20
7.8151606537
 10
42.3157775178
 20
7.8855840327
 10
42.2684547675
 20
7.9573760213
 10
42.2233571051
 20
8.030467727
 10
42.1805466077
 20
8.1047363843
 10
42.1400203405
 20
8.1801612645
 10
42.1017290044
 20
8.2568339985
 10
42.0656747856
 20
8.3347766494
 10
42.0319392089
 20
8.4138372402
 10
42.0005967778
 20
8.4938492219
 10
41.9716837305
 20
8.5747117744
 10
41.9452112196
 20
8.6563789862
 10
41.9212053574
 20
8.7387624557
 10
41.8996884676
 20
8.821773071
 10
41.880670531
 20
8.9053497751
 10
41.864159998
 20
8.9894466414
 10
41.8501716451
 20
9.0739886464
 10
41.8387157078
 20
9.1588999444
 10
41.8297989468
 20
9.2441343929
 10
41.8234316837
 20
9.3296246892
 10
41.8196210744
 20
9.4152860541
 10
41.8183721857
 20
9.501046358
 10
41.8196896539
 20
9.5868339068
 10
41.8235734107
 20
9.6725669913
 10
41.8300208903
 20
9.7581583357
 10
41.8390291693
 20
9.8435342078
 10
41.8505901611
 20
9.9286149478
 10
41.8646906454
 20
10.0133045881
 10
41.881318242
 20
10.0975251048
 10
41.9004569652
 20
10.1812033378
 10
41.9220847587
 20
10.2642512818
 10
41.9461797993
 20
10.3465886168
 10
41.9727196865
 20
10.4281485527
 10
42.0016799788
 20
10.5088638935
 10
42.0330336492
 20
10.5886602109
 10
42.0667518577
 20
10.6674691443
 10
42.1028077808
 20
10.7452326102
 10
42.141170857
 20
10.8218825388
 10
42.1818057031
 20
10.8973488358
 10
42.2246781966
 20
10.9715704612
 10
42.2697521519
 20
11.0444820432
 10
42.3169867709
 20
11.1160164598
 10
42.3663395681
 20
11.1861109895
 10
42.4177682587
 20
11.2547034233
 10
42.471226778
 20
11.3217308642
 10
42.526664358
 20
11.3871314314
 10
42.5840323591
 20
11.4508466249
 10
42.6432796386
 20
11.5128184848
 10
42.7043484868
 20
11.5729888852
 10
42.7671831958
 20
11.6313030118
 10
42.831729091
 20
11.6877095882
 10
42.8979268208
 20
11.7421591747
 10
42.9657159413
 20
11.7946024414
 10
43.0350373013
 20
11.8449929673
 10
43.1058309051
 20
11.89328919
 10
43.1780339894
 20
11.9394484201
 10
43.2515822535
 20
11.983428314
 10
43.3264109138
 20
12.0251916837
 10
43.4024539271
 20
12.0647018094
 10
43.4796431275
 20
12.1019218003
 10
43.5579081377
 20
12.1368189984
 10
43.6371788448
 20
12.1693626597
 10
43.7173851557
 20
12.199522733
 10
43.7984544603
 20
12.2272730288
 10
43.8803136689
 20
12.2525893105
 10
43.9628905599
 20
12.2754480991
 10
44.0461120842
 20
12.2958300064
 10
44.129903841
 20
12.3137176545
 10
44.2141914297
 20
12.3290939972
 10
44.298900518
 20
12.3419459501
 10
44.3839556903
 20
12.3522629578
 10
44.469280956
 20
12.3600346349
 10
44.554800324
 20
12.3652542056
 10
44.6404375377
 20
12.367918034
 10
44.7261162821
 20
12.3680227012
 10
44.8117602146
 20
12.3655679713
 10
44.897292738
 20
12.3605571694
 10
44.9826378505
 20
12.3529938371
 10
45.0677203224
 20
12.3428841761
 10
45.1524644622
 20
12.330238305
 10
45.2367944996
 20
12.3150666722
 10
45.320635828
 20
12.2973818862
 10
45.4039144491
 20
12.2772006501
 10
45.4865554407
 20
12.2545403263
 10
45.5684840702
 20
12.2294203341
 10
45.6496277013
 20
12.2018641709
 10
45.7299136054
 20
12.1718960078
 10
45.8092686173
 20
12.1395419286
 10
45.8876215811
 20
12.1048323397
 10
45.9649034383
 20
12.0677976636
 10
46.0410462266
 20
12.0284689996
 10
46.1159819556
 20
11.9868826467
 10
46.1896440936
 20
11.9430753811
 10
46.261968909
 20
11.8970831774
 10
46.3328933329
 20
11.8489467679
 10
46.4023527366
 20
11.7987096287
 10
46.470283436
 20
11.7464155787
 10
46.5366261852
 20
11.6921107689
 10
46.6013204318
 20
11.6358446928
 10
46.6643033319
 20
11.57766996
 10
46.7255187275
 20
11.5176395156
 10
46.7849128578
 20
11.4558070649
 10
46.8424295019
 20
11.3922295455
 10
46.8980169967
 20
11.3269654271
 10
46.9516274486
 20
11.2600728424
 10
47.0032126969
 20
11.1916104482
 10
47.0527259628
 20
11.1216413591
  0
LWPOLYLINE
  5
567
100
AcDbEntity
  8
0
100
AcDbPolyline
 62
250
  6
CONTINUOUS
 90
107
 70
0
 10
42.1630221215
 20
7.6721333703
 10
42.1091354447
 20
7.7488565568
 10
42.0577012808
 20
7.8269163231
 10
42.0087196297
 20
7.9063126573
 10
41.9621827845
 20
7.9870620486
 10
41.918098452
 20
8.0691479835
 10
41.8764897533
 20
8.1525209463
 10
41.8373142639
 20
8.2372752289
 10
41.8006144082
 20
8.3233165131
 10
41.7665405806
 20
8.4103123706
 10
41.7351185404
 20
8.4982376507
 10
41.7063225283
 20
8.5871174821
 10
41.6802256609
 20
8.6766948603
 10
41.6568386854
 20
8.7669552979
 10
41.6361508545
 20
8.8579132635
 10
41.6182030433
 20
8.9493551906
 10
41.6029988056
 20
9.0412815485
 10
41.5905345877
 20
9.1336918523
 10
41.580840603
 20
9.2263711082
 10
41.5739212294
 20
9.3193291789
 10
41.569772089
 20
9.4125561897
 10
41.568410262
 20
9.5058075451
 10
41.5698436219
 20
9.5990889525
 10
41.5740642952
 20
9.6923946974
 10
41.5810657416
 20
9.7854630565
 10
41.5908577148
 20
9.8782967759
 10
41.6034304612
 20
9.9708931083
 10
41.6187481796
 20
10.0629820959
 10
41.6368199932
 20
10.1545597527
 10
41.6576367789
 20
10.2456300698
 10
41.6811353654
 20
10.335935061
 10
41.7073216
 20
10.4254656776
 10
41.7361896354
 20
10.5142309796
 10
41.7676587595
 20
10.6020001497
 10
41.8017338668
 20
10.6887682633
 10
41.8384100627
 20
10.7745402618
 10
41.8775919518
 20
10.859100132
 10
41.9192860402
 20
10.9424470536
 10
41.9634858218
 20
11.0245818686
 10
42.0100763827
 20
11.1052910623
 10
42.059064813
 20
11.1845729033
 10
42.1104440226
 20
11.2624291492
 10
42.1640778278
 20
11.3386515233
 10
42.2199733315
 20
11.4132368175
 10
42.2781234308
 20
11.4861882699
 10
42.3383706332
 20
11.5573072764
 10
42.4007214341
 20
11.6265890827
 10
42.4651693381
 20
11.694038476
 10
42.5315373661
 20
11.7594711675
 10
42.599829673
 20
11.8228802777
 10
42.6700421039
 20
11.8842727207
 10
42.7419852157
 20
11.9434849013
 10
42.8156622955
 20
12.0005101619
 10
42.8910700561
 20
12.0553551948
 10
42.9680091926
 20
12.1078764323
 10
43.0464840849
 20
12.1580682628
 10
43.1264903531
 20
12.2059363314
 10
43.2078155523
 20
12.2513539567
 10
43.2904640966
 20
12.2943151306
 10
43.374431572
 20
12.3348258925
 10
43.4594922914
 20
12.3727776321
 10
43.5456490583
 20
12.4081633352
 10
43.6328990691
 20
12.4409900434
 10
43.7210082266
 20
12.4711702309
 10
43.8099782553
 20
12.498696663
 10
43.8998074307
 20
12.523576597
 10
43.9902564814
 20
12.5457442441
 10
44.0813269747
 20
12.5651924636
 10
44.1730173433
 20
12.5819284131
 10
44.265083614
 20
12.5959077494
 10
44.3575270717
 20
12.607123227
 10
44.4503464313
 20
12.615582102
 10
44.5432938643
 20
12.6212617822
 10
44.6363697148
 20
12.6241548622
 10
44.7295736385
 20
12.6242687511
 10
44.8226567738
 20
12.6216030775
 10
44.9156185161
 20
12.6161504964
 10
45.0084594699
 20
12.6079183495
 10
45.1009325872
 20
12.5969282937
 10
45.1930369726
 20
12.5831730606
 10
45.2847735215
 20
12.5666599083
 10
45.3758978722
 20
12.5474322826
 10
45.46640897
 20
12.5254827901
 10
45.5563078696
 20
12.5008188073
 10
45.6453533728
 20
12.4735059333
 10
45.7335433314
 20
12.4435369057
 10
45.8208798937
 20
12.4109189643
 10
45.9071283057
 20
12.3757394606
 10
45.9922847352
 20
12.3379919581
 10
46.0763530145
 20
12.297682866
 10
46.1591098862
 20
12.2549188038
 10
46.2405515249
 20
12.2096937355
 10
46.320681756
 20
12.1620136661
 10
46.3992887981
 20
12.112003277
 10
46.4763699686
 20
12.0596555908
 10
46.5519279501
 20
12.0049775512
 10
46.625759009
 20
11.9481147227
 10
46.6978596152
 20
11.8890598652
 10
46.7682332988
 20
11.8278201839
 10
46.8366869167
 20
11.7645629124
 10
46.9032144419
 20
11.6992826739
 10
46.9678219015
 20
11.6319848107
 10
47.030334234
 20
11.5628526383
 10
47.0907446832
 20
11.4918822563
 10
47.1490600054
 20
11.4190775321
 10
47.2051254077
 20
11.3446334369
 10
47.2589339377
 20
11.2685476363
  0
LINE
  5
568
100
AcDbEntity
  8
0
100
AcDbLine
 62
250
  6
CONTINUOUS
 10
55.2035103104
 20
-21.998725222
 11
55.3138198026
 21
-22.3299228166
  0
LINE
  5
569
100
AcDbEntity
  8
0
100
AcDbLine
 62
250
  6
CONTINUOUS
 10
55.703434158
 20
-21.4994104546
 11
55.8367792833
 21
-21.8997711479
  0
LINE
  5
56A
100
AcDbEntity
  8
RACCORDO
100
AcDbLine
 62
250
  6
CONTINUOUS
 10
49.0838534451
 20
-23.7970741618
 11
49.0838534451
 21
-22.3736436632
  0
LINE
  5
56B
100
AcDbEntity
  8
RACCORDO
100
AcDbLine
 62
250
  6
CONTINUOUS
 10
49.0838534451
 20
22.3736436632
 11
49.0838534451
 21
23.7970741618
  0
LINE
  5
56C
100
AcDbEntity
  8
DRAFT
100
AcDbLine
 62
7
  6
CONTINUOUS
 10
49.0867792833
 20
23.8
 11
49.0867792833
 21
22.4
  0
LINE
  5
56D
100
AcDbEntity
  8
DRAFT
100
AcDbLine
 62
7
  6
CONTINUOUS
 10
49.0867792833
 20
-22.4
 11
49.0867792833
 21
-23.8
  0
LWPOLYLINE
  5
56E
100
AcDbEntity
  8
0
100
AcDbPolyline
 62
250
  6
CONTINUOUS
 90
12
 70
0
 10
55.703434158
 20
21.4994104546
 10
55.7028137959
 20
21.4968820272
 10
55.7021994082
 20
21.4931555823
 10
55.7015909951
 20
21.48823112
 10
55.7009887414
 20
21.4821033184
 10
55.7003924621
 20
21.4747774993
 10
55.6998016026
 20
21.4662696283
 10
55.6992152114
 20
21.4565710075
 10
55.69863424
 20
21.4456903348
 10
55.698060988
 20
21.4336696693
 10
55.697495554
 20
21.4205058061
 10
55.6963898481
 20
21.3908097746
  0
LINE
  5
56F
100
AcDbEntity
  8
0
100
AcDbLine
 62
250
  6
CONTINUOUS
 10
42.1992541282
 20
-7.4
 11
42.1630221213
 21
-7.4183353799
  0
LINE
  5
570
100
AcDbEntity
  8
0
100
AcDbLine
 62
250
  6
CONTINUOUS
 10
48.6551461184
 20
5.0341016866
 11
40.7184124483
 21
5.0341016864
  0
LINE
  5
571
100
AcDbEntity
  8
0
100
AcDbLine
 62
250
  6
CONTINUOUS
 10
48.4052426157
 20
5.2815465582
 11
40.968315951
 21
5.2815465582
  0
LINE
  5
572
100
AcDbEntity
  8
0
100
AcDbLine
 62
7
  6
CONTINUOUS
 10
40.9867792833
 20
5.3
 11
48.3867792833
 21
5.3
  0
LINE
  5
573
100
AcDbEntity
  8
0
100
AcDbLine
 62
250
  6
CONTINUOUS
 10
42.1630221214
 20
7.4183353799
 11
42.1992541282
 21
7.4
  0
LWPOLYLINE
  5
574
100
AcDbEntity
  8
RACCORDO
100
AcDbPolyline
 62
250
  6
CONTINUOUS
 90
31
 70
0
 10
52.949877862
 20
-24.2369056521
 10
52.950221051
 20
-24.2499920062
 10
52.951248794
 20
-24.2630425045
 10
52.9529582772
 20
-24.2760213619
 10
52.9553448199
 20
-24.2888930016
 10
52.9584018811
 20
-24.3016221155
 10
52.9621210706
 20
-24.314173763
 10
52.9664921856
 20
-24.3265135191
 10
52.9715032411
 20
-24.3386075563
 10
52.9771404894
 20
-24.3504227019
 10
52.9833884686
 20
-24.3619265577
 10
52.9902300444
 20
-24.3730875837
 10
52.9976464512
 20
-24.383875174
 10
53.0056173594
 20
-24.3942597633
 10
53.0141209009
 20
-24.4042128667
 10
53.02313372
 20
-24.4137071599
 10
53.0326310545
 20
-24.4227165817
 10
53.0425868916
 20
-24.4312164786
 10
53.0529740175
 20
-24.4391836209
 10
53.0637640967
 20
-24.4465962509
 10
53.0749274151
 20
-24.4534339327
 10
53.0864330155
 20
-24.4596777344
 10
53.0982490938
 20
-24.465310483
 10
53.1103434499
 20
-24.4703169129
 10
53.1226832538
 20
-24.474683464
 10
53.1352374384
 20
-24.4783989037
 10
53.1479689036
 20
-24.4814520171
 10
53.1608346223
 20
-24.4838331472
 10
53.1737963969
 20
-24.4855367515
 10
53.1868212913
 20
-24.4865600141
 10
53.1998736313
 20
-24.4869014213
  0
LWPOLYLINE
  5
575
100
AcDbEntity
  8
RACCORDO
100
AcDbPolyline
 62
7
  6
CONTINUOUS
 90
34
 70
0
 10
52.9367792833
 20
-24.2500042308
 10
52.9370624336
 20
-24.261899516
 10
52.9379112491
 20
-24.2737678556
 10
52.9393238092
 20
-24.2855823661
 10
52.9412969156
 20
-24.2973162875
 10
52.9438261016
 20
-24.3089430388
 10
52.9469056416
 20
-24.320436279
 10
52.950528562
 20
-24.3317699738
 10
52.9546866576
 20
-24.3429184493
 10
52.9593705112
 20
-24.3538564463
 10
52.9645695145
 20
-24.3645591876
 10
52.9702718917
 20
-24.3750024283
 10
52.9764647252
 20
-24.3851625059
 10
52.9831339879
 20
-24.3950164051
 10
52.9902645726
 20
-24.4045418038
 10
52.9978403245
 20
-24.4137171191
 10
53.0058440828
 20
-24.4225215661
 10
53.0142577172
 20
-24.4309352005
 10
53.0230621643
 20
-24.4389389589
 10
53.0322374795
 20
-24.4465147107
 10
53.0417628782
 20
-24.4536452955
 10
53.0516167774
 20
-24.4603145581
 10
53.0617768551
 20
-24.4665073916
 10
53.0722200957
 20
-24.4722097688
 10
53.082922837
 20
-24.4774087722
 10
53.093860834
 20
-24.4820926258
 10
53.1050093096
 20
-24.4862507213
 10
53.1163430043
 20
-24.4898736417
 10
53.1278362445
 20
-24.4929531817
 10
53.1394629958
 20
-24.4954823677
 10
53.1511969172
 20
-24.4974554741
 10
53.1630114278
 20
-24.4988680342
 10
53.1748797673
 20
-24.4997168498
 10
53.1867750525
 20
-24.5
  0
LWPOLYLINE
  5
576
100
AcDbEntity
  8
0
100
AcDbPolyline
 62
250
  6
CONTINUOUS
 90
10
 70
0
 10
55.2035103104
 20
21.998725222
 10
55.2028899281
 20
21.9949870646
 10
55.2022755295
 20
21.9893871578
 10
55.2016671145
 20
21.9819562201
 10
55.2010648738
 20
21.972742164
 10
55.2004686167
 20
21.9617698384
 10
55.1998777715
 20
21.9490139825
 10
55.1992913769
 20
21.9344642348
 10
55.1987103941
 20
21.9181561844
 10
55.1975717011
 20
21.8803626429
  0
LINE
  5
577
100
AcDbEntity
  8
0
100
AcDbLine
 62
7
  6
CONTINUOUS
 10
48.3867792833
 20
-5.3
 11
48.405184294
 21
-5.2815915802
  0
LINE
  5
578
100
AcDbEntity
  8
0
100
AcDbLine
 62
7
  6
CONTINUOUS
 10
48.4422008789
 20
-5.2458652777
 11
48.6551461184
 21
-5.0341016853
  0
LINE
  5
579
100
AcDbEntity
  8
0
100
AcDbLine
 62
7
  6
CONTINUOUS
 10
48.4180925138
 20
-5.2694465042
 11
48.4422008789
 21
-5.2458652777
  0
LWPOLYLINE
  5
57A
100
AcDbEntity
  8
0
100
AcDbPolyline
 62
7
  6
CONTINUOUS
 90
7
 70
0
 10
48.4052426157
 20
-5.2815465582
 10
48.4057198706
 20
-5.2811581529
 10
48.4066469168
 20
-5.2803409975
 10
48.4080237543
 20
-5.2790840928
 10
48.40983697
 20
-5.277379504
 10
48.4120999769
 20
-5.2752164847
 10
48.4180925138
 20
-5.2694465042
  0
LINE
  5
57B
100
AcDbEntity
  8
0
100
AcDbLine
 62
7
  6
CONTINUOUS
 10
48.405184294
 20
-5.2815915802
 11
48.4052426157
 21
-5.2815465582
  0
LINE
  5
57C
100
AcDbEntity
  8
0
100
AcDbLine
 62
250
  6
CONTINUOUS
 10
47.2105364451
 20
-7.6721333703
 11
47.1998594551
 21
-7.6799344482
  0
LINE
  5
57D
100
AcDbEntity
  8
0
100
AcDbLine
 62
250
  6
CONTINUOUS
 10
47.1998594551
 20
-7.6799344482
 11
47.1273360839
 21
-7.732187197
  0
LINE
  5
57E
100
AcDbEntity
  8
0
100
AcDbLine
 62
250
  6
CONTINUOUS
 10
47.1273360839
 20
-7.732187197
 11
47.0991905128
 21
-7.7523235549
  0
LWPOLYLINE
  5
57F
100
AcDbEntity
  8
0
100
AcDbPolyline
 62
250
  6
CONTINUOUS
 90
5
 70
0
 10
47.0991905128
 20
-7.7523235549
 10
47.0818944997
 20
-7.7645672659
 10
47.0738188925
 20
-7.7703373075
 10
47.0662194742
 20
-7.775699396
 10
47.0591019837
 20
-7.7806738245
  0
LINE
  5
580
100
AcDbEntity
  8
0
100
AcDbLine
 62
250
  6
CONTINUOUS
 10
47.0591019837
 20
-7.7806738245
 11
47.046587549
 21
-7.7895032985
  0
LINE
  5
581
100
AcDbEntity
  8
0
100
AcDbLine
 62
250
  6
CONTINUOUS
 10
47.046587549
 20
-7.7895032985
 11
47.028447723
 21
-7.8021193824
  0
LWPOLYLINE
  5
582
100
AcDbEntity
  8
0
100
AcDbPolyline
 62
250
  6
CONTINUOUS
 90
3
 70
0
 10
47.028447723
 20
-7.8021193824
 10
47.0251153662
 20
-7.804407616
 10
47.0193696854
 20
-7.8082522696
  0
LWPOLYLINE
  5
583
100
AcDbEntity
  8
0
100
AcDbPolyline
 62
250
  6
CONTINUOUS
 90
9
 70
0
 10
47.0193696854
 20
-7.8082522696
 10
47.0169791922
 20
-7.8098708167
 10
47.0148680044
 20
-7.8112470093
 10
47.0130392903
 20
-7.8124162921
 10
47.0115159921
 20
-7.8134041786
 10
47.010267037
 20
-7.8141557496
 10
47.0092830648
 20
-7.8146665033
 10
47.0086028283
 20
-7.8149909161
 10
47.008268999
 20
-7.8151606537
  0
LINE
  5
584
100
AcDbEntity
  8
0
100
AcDbLine
 62
250
  6
CONTINUOUS
 10
42.3999974949
 20
-7.7990799663
 11
42.3652895677
 21
-7.8151606537
  0
LWPOLYLINE
  5
585
100
AcDbEntity
  8
0
100
AcDbPolyline
 62
250
  6
CONTINUOUS
 90
40
 70
0
 10
42.1630221215
 20
7.4183353798
 10
42.1770975708
 20
7.4187407467
 10
42.1911283145
 20
7.4199387377
 10
42.2050697892
 20
7.4219255479
 10
42.2188777148
 20
7.4246948669
 10
42.2325082356
 20
7.4282378989
 10
42.2459180599
 20
7.4325433911
 10
42.2590645977
 20
7.4375976692
 10
42.2719060923
 20
7.4433846798
 10
42.2844017543
 20
7.4498860409
 10
42.2965118947
 20
7.457081102
 10
42.3081980519
 20
7.464947011
 10
42.3194231101
 20
7.4734587846
 10
42.3301514219
 20
7.4825893923
 10
42.3403489081
 20
7.4923098303
 10
42.3499831689
 20
7.5025892117
 10
42.3590235971
 20
7.513394873
 10
42.3674414935
 20
7.5246925038
 10
42.3752101413
 20
7.5364462464
 10
42.3823048717
 20
7.5486187833
 10
42.3887031412
 20
7.5611714426
 10
42.3943846224
 20
7.5740643464
 10
42.3993312692
 20
7.587256543
 10
42.4035273717
 20
7.6007061349
 10
42.4069596017
 20
7.6143704019
 10
42.4096170574
 20
7.6282059381
 10
42.4114913007
 20
7.6421688067
 10
42.4125763798
 20
7.6562146777
 10
42.4128688459
 20
7.6702989511
 10
42.4123677661
 20
7.6843768824
 10
42.4110747314
 20
7.6984037419
 10
42.4089938498
 20
7.7123349728
 10
42.4061317302
 20
7.7261263335
 10
42.4024974628
 20
7.7397340221
 10
42.3981025902
 20
7.7531148198
 10
42.3929610711
 20
7.7662262264
 10
42.387089236
 20
7.7790265977
 10
42.3805057347
 20
7.7914752779
 10
42.3732314772
 20
7.8035327285
 10
42.3652895676
 20
7.8151606537
  0
LINE
  5
586
100
AcDbEntity
  8
0
100
AcDbLine
 62
7
  6
CONTINUOUS
 10
40.9867792833
 20
7.4
 11
42.1992541282
 21
7.4
  0
LINE
  5
587
100
AcDbEntity
  8
0
100
AcDbLine
 62
7
  6
CONTINUOUS
 10
47.1743044385
 20
7.4
 11
48.3867792833
 21
7.4
  0
LINE
  5
588
100
AcDbEntity
  8
0
100
AcDbLine
 62
250
  6
CONTINUOUS
 10
40.9684391481
 20
7.4183353799
 11
42.1630221214
 21
7.4183353799
  0
LINE
  5
589
100
AcDbEntity
  8
0
100
AcDbLine
 62
250
  6
CONTINUOUS
 10
47.2105364453
 20
7.4183353799
 11
48.4051194186
 21
7.4183353799
  0
LWPOLYLINE
  5
58A
100
AcDbEntity
  8
0
100
AcDbPolyline
 62
7
  6
CONTINUOUS
 90
43
 70
0
 10
47.1743044386
 20
7.4
 10
47.1611836392
 20
7.4003370765
 10
47.1481273806
 20
7.4013648836
 10
47.1351356629
 20
7.4030834212
 10
47.1221525454
 20
7.4055038746
 10
47.1092339687
 20
7.4086150583
 10
47.0965477554
 20
7.4123834156
 10
47.0841116291
 20
7.4168182157
 10
47.071907866
 20
7.421910189
 10
47.060051118
 20
7.4275979698
 10
47.04856637
 20
7.4338704908
 10
47.037428637
 20
7.4407388188
 10
47.0266776152
 20
7.4481747899
 10
47.0162885263
 20
7.456201159
 10
47.0062861487
 20
7.4647951705
 10
46.9967845138
 20
7.4738603943
 10
46.9878006535
 20
7.4833938263
 10
46.9793175359
 20
7.4933984697
 10
46.9713980968
 20
7.5037869054
 10
46.9640527089
 20
7.5145450664
 10
46.9572709995
 20
7.5256870188
 10
46.9510847862
 20
7.5371675438
 10
46.9454867133
 20
7.5489984227
 10
46.9404841365
 20
7.5611678733
 10
46.9361309407
 20
7.5735953318
 10
46.932429321
 20
7.5863077975
 10
46.9293770822
 20
7.5992782703
 10
46.9270215237
 20
7.6123451877
 10
46.92537963
 20
7.6255059824
 10
46.9244344165
 20
7.6387632214
 10
46.9241822291
 20
7.6519630443
 10
46.9246248144
 20
7.6650643068
 10
46.9257604258
 20
7.6781081534
 10
46.92758017
 20
7.6910641577
 10
46.9300873711
 20
7.7039612839
 10
46.9332787049
 20
7.7167705679
 10
46.9371353051
 20
7.7293746913
 10
46.9416748346
 20
7.7417855286
 10
46.9468796305
 20
7.7539912057
 10
46.9526778376
 20
7.7658387818
 10
46.9590455042
 20
7.7772772766
 10
46.9660065821
 20
7.788357671
 10
46.9735610712
 20
7.7990799655
  0
LINE
  5
58B
100
AcDbEntity
  8
0
100
AcDbLine
 62
250
  6
CONTINUOUS
 10
42.3652895677
 20
7.8151606537
 11
42.3999974948
 21
7.7990799664
  0
LINE
  5
58C
100
AcDbEntity
  8
0
100
AcDbLine
 62
250
  6
CONTINUOUS
 10
47.0284477121
 20
7.8021193419
 11
47.0251153517
 21
7.8044075767
  0
LINE
  5
58D
100
AcDbEntity
  8
0
100
AcDbLine
 62
250
  6
CONTINUOUS
 10
47.0465875642
 20
7.7895032452
 11
47.0284477121
 21
7.8021193419
  0
LINE
  5
58E
100
AcDbEntity
  8
0
100
AcDbLine
 62
250
  6
CONTINUOUS
 10
47.0991905665
 20
7.7523234907
 11
47.0818945533
 21
7.7645671964
  0
LWPOLYLINE
  5
58F
100
AcDbEntity
  8
0
100
AcDbPolyline
 62
250
  6
CONTINUOUS
 90
5
 70
0
 10
47.0818945533
 20
7.7645671964
 10
47.0738189427
 20
7.7703372383
 10
47.066219518
 20
7.7756993285
 10
47.0591020184
 20
7.7806737608
 10
47.0465875642
 20
7.7895032452
  0
LINE
  5
590
100
AcDbEntity
  8
0
100
AcDbLine
 62
250
  6
CONTINUOUS
 10
47.1575733981
 20
7.7104462347
 11
47.0991905665
 21
7.7523234907
  0
LINE
  5
591
100
AcDbEntity
  8
0
100
AcDbLine
 62
250
  6
CONTINUOUS
 10
47.1998594624
 20
7.6799344435
 11
47.1575733981
 21
7.7104462347
  0
LINE
  5
592
100
AcDbEntity
  8
0
100
AcDbLine
 62
250
  6
CONTINUOUS
 10
47.2105364453
 20
7.6721333703
 11
47.1998594624
 21
7.6799344435
  0
LINE
  5
593
100
AcDbEntity
  8
0
100
AcDbLine
 62
7
  6
CONTINUOUS
 10
48.4052426157
 20
5.2815465582
 11
48.405184294
 21
5.2815915802
  0
LWPOLYLINE
  5
594
100
AcDbEntity
  8
0
100
AcDbPolyline
 62
7
  6
CONTINUOUS
 90
5
 70
0
 10
48.4052426157
 20
5.2815465582
 10
48.4057198706
 20
5.2811581529
 10
48.4066469168
 20
5.2803409975
 10
48.4080237543
 20
5.2790840928
 10
48.40983697
 20
5.277379504
  0
LINE
  5
595
100
AcDbEntity
  8
0
100
AcDbLine
 62
7
  6
CONTINUOUS
 10
48.40983697
 20
5.277379504
 11
48.4148530145
 21
5.2725762189
  0
LINE
  5
596
100
AcDbEntity
  8
0
100
AcDbLine
 62
7
  6
CONTINUOUS
 10
48.4148530145
 20
5.2725762189
 11
48.4260925507
 21
5.2616576506
  0
LINE
  5
597
100
AcDbEntity
  8
0
100
AcDbLine
 62
7
  6
CONTINUOUS
 10
48.4260925507
 20
5.2616576506
 11
48.5248759936
 21
5.1640241611
  0
LINE
  5
598
100
AcDbEntity
  8
0
100
AcDbLine
 62
7
  6
CONTINUOUS
 10
48.3867792833
 20
5.3
 11
48.405184294
 21
5.2815915802
  0
LWPOLYLINE
  5
599
100
AcDbEntity
  8
0
100
AcDbPolyline
 62
7
  6
CONTINUOUS
 90
3
 70
0
 10
48.5248759936
 20
5.1640241611
 10
48.6236642429
 20
5.0654965831
 10
48.6551461184
 20
5.0341016853
  0
LWPOLYLINE
  5
59A
100
AcDbEntity
  8
RACCORDO
100
AcDbPolyline
 62
7
  6
CONTINUOUS
 90
34
 70
0
 10
52.9440600322
 20
23.2669872981
 10
52.9443577586
 20
23.260745719
 10
52.94512901
 20
23.254472608
 10
52.9463793728
 20
23.2481861919
 10
52.94811342
 20
23.2419121598
 10
52.9503348628
 20
23.2356626215
 10
52.9530468828
 20
23.2294361375
 10
52.9562513796
 20
23.2232532001
 10
52.9599493041
 20
23.2171335699
 10
52.9641415551
 20
23.2110754134
 10
52.9688270393
 20
23.2051002367
 10
52.9740036813
 20
23.199228829
 10
52.979670052
 20
23.1934590071
 10
52.9858218359
 20
23.1878130261
 10
52.9924536183
 20
23.182312533
 10
52.9995614211
 20
23.1769551973
 10
53.0071374167
 20
23.171763745
 10
53.0151724987
 20
23.1667604362
 10
53.0236597242
 20
23.1619430222
 10
53.0325874337
 20
23.1573343288
 10
53.0419424124
 20
23.1529569199
 10
53.051714087
 20
23.148808872
 10
53.0618865982
 20
23.1449126131
 10
53.0724421853
 20
23.1412905703
 10
53.0833657861
 20
23.137941334
 10
53.0946368437
 20
23.1348863009
 10
53.1062327682
 20
23.1321470947
 10
53.1181334659
 20
23.1297228132
 10
53.1303002936
 20
23.1276360125
 10
53.1427183485
 20
23.1259025536
 10
53.1554023426
 20
23.1245164325
 10
53.1683370532
 20
23.1234933505
 10
53.1814755547
 20
23.1228641607
 10
53.1947830302
 20
23.1226497308
  0
LWPOLYLINE
  5
59B
100
AcDbEntity
  8
RACCORDO
100
AcDbPolyline
 62
7
  6
CONTINUOUS
 90
34
 70
0
 10
55.3294985344
 20
-23.2669872981
 10
55.3292008081
 20
-23.260745719
 10
55.3284295567
 20
-23.254472608
 10
55.3271791939
 20
-23.2481861919
 10
55.3254451466
 20
-23.2419121598
 10
55.3232237039
 20
-23.2356626215
 10
55.3205116839
 20
-23.2294361375
 10
55.3173071871
 20
-23.2232532001
 10
55.3136092625
 20
-23.2171335699
 10
55.3094170115
 20
-23.2110754134
 10
55.3047315273
 20
-23.2051002367
 10
55.2995548854
 20
-23.199228829
 10
55.2938885146
 20
-23.1934590071
 10
55.2877367308
 20
-23.1878130261
 10
55.2811049484
 20
-23.182312533
 10
55.2739971456
 20
-23.1769551973
 10
55.26642115
 20
-23.171763745
 10
55.258386068
 20
-23.1667604362
 10
55.2498988425
 20
-23.1619430222
 10
55.240971133
 20
-23.1573343288
 10
55.2316161542
 20
-23.1529569199
 10
55.2218444796
 20
-23.148808872
 10
55.2116719684
 20
-23.1449126131
 10
55.2011163813
 20
-23.1412905703
 10
55.1901927805
 20
-23.137941334
 10
55.178921723
 20
-23.1348863009
 10
55.1673257985
 20
-23.1321470947
 10
55.1554251008
 20
-23.1297228132
 10
55.143258273
 20
-23.1276360125
 10
55.1308402181
 20
-23.1259025536
 10
55.118156224
 20
-23.1245164325
 10
55.1052215134
 20
-23.1234933505
 10
55.0920830119
 20
-23.1228641607
 10
55.0787755365
 20
-23.1226497308
  0
LWPOLYLINE
  5
59C
100
AcDbEntity
  8
0
100
AcDbPolyline
 62
250
  6
CONTINUOUS
 90
9
 70
0
 10
55.1986218002
 20
-21.9154946308
 10
55.1992085671
 20
-21.9322553248
 10
55.1998035536
 20
-21.9472784488
 10
55.2004072596
 20
-21.9605318197
 10
55.2010191852
 20
-21.9719653802
 10
55.2016358056
 20
-21.9815233977
 10
55.2022559458
 20
-21.9891785693
 10
55.2028807807
 20
-21.9949184138
 10
55.2035103104
 20
-21.998725222
  0
LWPOLYLINE
  5
59D
100
AcDbEntity
  8
RACCORDO
100
AcDbPolyline
 62
250
  6
CONTINUOUS
 90
31
 70
0
 10
52.949877862
 20
23.8443375673
 10
52.9502564177
 20
23.833039595
 10
52.9513155453
 20
23.821769291
 10
52.9530529218
 20
23.8105574212
 10
52.9554646232
 20
23.7994336121
 10
52.9585444934
 20
23.78842936
 10
52.9622835444
 20
23.7775778202
 10
52.9666710888
 20
23.7669096972
 10
52.9716954878
 20
23.7564530239
 10
52.9773431684
 20
23.746236105
 10
52.983598861
 20
23.7362866999
 10
52.9904454356
 20
23.7266321754
 10
52.9978640439
 20
23.7172991519
 10
53.0058343479
 20
23.7083132018
 10
53.0143346427
 20
23.6996987826
 10
53.0233417332
 20
23.6914794042
 10
53.0328310368
 20
23.6836775075
 10
53.042776624
 20
23.6763144193
 10
53.0531513068
 20
23.6694102704
 10
53.0639267392
 20
23.6629839239
 10
53.0750734972
 20
23.6570529269
 10
53.0865611343
 20
23.6516334796
 10
53.098358291
 20
23.6467403776
 10
53.1104327274
 20
23.6423869945
 10
53.1227514071
 20
23.6385852371
 10
53.1352806424
 20
23.6353454907
 10
53.1479862453
 20
23.6326765842
 10
53.1608335661
 20
23.6305857918
 10
53.1737875333
 20
23.6290788219
 10
53.1868127471
 20
23.6281597935
 10
53.1998736313
 20
23.6278312164
  0
LINE
  5
59E
100
AcDbEntity
  8
RACCORDO
100
AcDbLine
 62
250
  6
CONTINUOUS
 10
52.949877862
 20
-23.8443375673
 11
52.9440600322
 21
-23.2669872981
  0
LINE
  5
59F
100
AcDbEntity
  8
RACCORDO
100
AcDbLine
 62
250
  6
CONTINUOUS
 10
53.1998736313
 20
-23.6278312164
 11
53.1947830302
 21
-23.1226497308
  0
LINE
  5
5A0
100
AcDbEntity
  8
RACCORDO
100
AcDbLine
 62
7
  6
CONTINUOUS
 10
52.9367792833
 20
-22.4
 11
52.9367792833
 21
-24.2500042308
  0
LINE
  5
5A1
100
AcDbEntity
  8
RACCORDO
100
AcDbLine
 62
7
  6
CONTINUOUS
 10
52.9367792833
 20
22.4
 11
52.9367792833
 21
24.2500042308
  0
LINE
  5
5A2
100
AcDbEntity
  8
RACCORDO
100
AcDbLine
 62
250
  6
CONTINUOUS
 10
52.9440600322
 20
-23.2669872981
 11
52.9440600322
 21
-22.3344140523
  0
LINE
  5
5A3
100
AcDbEntity
  8
RACCORDO
100
AcDbLine
 62
250
  6
CONTINUOUS
 10
52.9440600322
 20
22.3344140523
 11
52.9440600322
 21
23.2669872981
  0
LINE
  5
5A4
100
AcDbEntity
  8
RACCORDO
100
AcDbLine
 62
250
  6
CONTINUOUS
 10
52.949877862
 20
24.2369056521
 11
52.949877862
 21
23.8443375673
  0
LINE
  5
5A5
100
AcDbEntity
  8
RACCORDO
100
AcDbLine
 62
250
  6
CONTINUOUS
 10
52.949877862
 20
-23.8443375673
 11
52.949877862
 21
-24.2369056521
  0
LINE
  5
5A6
100
AcDbEntity
  8
RACCORDO
100
AcDbLine
 62
250
  6
CONTINUOUS
 10
53.1940558015
 20
-23.1226497308
 11
53.1940558015
 21
-22.3213883311
  0
LINE
  5
5A7
100
AcDbEntity
  8
RACCORDO
100
AcDbLine
 62
250
  6
CONTINUOUS
 10
53.1940558015
 20
22.3213883311
 11
53.1940558015
 21
23.1226497308
  0
LINE
  5
5A8
100
AcDbEntity
  8
RACCORDO
100
AcDbLine
 62
250
  6
CONTINUOUS
 10
53.1998736313
 20
-23.6278312164
 11
53.1998736313
 21
-24.4869014213
  0
LINE
  5
5A9
100
AcDbEntity
  8
RACCORDO
100
AcDbLine
 62
250
  6
CONTINUOUS
 10
53.1998736313
 20
23.6278312164
 11
53.1998736313
 21
24.4869014213
  0
LINE
  5
5AA
100
AcDbEntity
  8
RACCORDO
100
AcDbLine
 62
250
  6
CONTINUOUS
 10
52.9440600322
 20
23.2669872981
 11
52.949877862
 21
23.8443375673
  0
LINE
  5
5AB
100
AcDbEntity
  8
RACCORDO
100
AcDbLine
 62
250
  6
CONTINUOUS
 10
53.1947830302
 20
23.1226497308
 11
53.1998736313
 21
23.6278312164
  0
LWPOLYLINE
  5
5AC
100
AcDbEntity
  8
RACCORDO
100
AcDbPolyline
 62
250
  6
CONTINUOUS
 90
31
 70
0
 10
52.949877862
 20
-23.8443375673
 10
52.9502571938
 20
-23.8330274168
 10
52.9513181757
 20
-23.8217481519
 10
52.9530579106
 20
-23.810530574
 10
52.9554716475
 20
-23.7994053159
 10
52.9585527951
 20
-23.7884027584
 10
52.9622929394
 20
-23.7775529472
 10
52.9666818668
 20
-23.7668855107
 10
52.9717075921
 20
-23.7564295797
 10
52.977356391
 20
-23.7462137069
 10
52.983612838
 20
-23.7362657898
 10
52.9904598479
 20
-23.7266129942
 10
52.997878723
 20
-23.7172816797
 10
53.005849204
 20
-23.7082973282
 10
53.014349525
 20
-23.6996844742
 10
53.0233564735
 20
-23.6914666374
 10
53.0328454534
 20
-23.6836662592
 10
53.0427905523
 20
-23.6763046407
 10
53.0531646122
 20
-23.6694018849
 10
53.0639393038
 20
-23.6629768418
 10
53.0750852035
 20
-23.6570470569
 10
53.0865718743
 20
-23.6516287232
 10
53.0983679484
 20
-23.646736637
 10
53.1104412134
 20
-23.6423841576
 10
53.1227586995
 20
-23.6385831707
 10
53.1352867704
 20
-23.6353440559
 10
53.1479912145
 20
-23.6326756587
 10
53.1608373385
 20
-23.6305852658
 10
53.1737900626
 20
-23.6290785857
 10
53.1868140154
 20
-23.6281597328
 10
53.1998736313
 20
-23.6278312164
  0
LWPOLYLINE
  5
5AD
100
AcDbEntity
  8
RACCORDO
100
AcDbPolyline
 62
7
  6
CONTINUOUS
 90
34
 70
0
 10
52.9440600322
 20
-23.2669872981
 10
52.9443577586
 20
-23.260745719
 10
52.94512901
 20
-23.254472608
 10
52.9463793728
 20
-23.2481861919
 10
52.94811342
 20
-23.2419121598
 10
52.9503348628
 20
-23.2356626215
 10
52.9530468828
 20
-23.2294361375
 10
52.9562513796
 20
-23.2232532001
 10
52.9599493041
 20
-23.2171335699
 10
52.9641415551
 20
-23.2110754134
 10
52.9688270393
 20
-23.2051002367
 10
52.9740036813
 20
-23.199228829
 10
52.979670052
 20
-23.1934590071
 10
52.9858218359
 20
-23.1878130261
 10
52.9924536183
 20
-23.182312533
 10
52.9995614211
 20
-23.1769551973
 10
53.0071374167
 20
-23.171763745
 10
53.0151724987
 20
-23.1667604362
 10
53.0236597242
 20
-23.1619430222
 10
53.0325874337
 20
-23.1573343288
 10
53.0419424124
 20
-23.1529569199
 10
53.051714087
 20
-23.148808872
 10
53.0618865982
 20
-23.1449126131
 10
53.0724421853
 20
-23.1412905703
 10
53.0833657861
 20
-23.137941334
 10
53.0946368437
 20
-23.1348863009
 10
53.1062327682
 20
-23.1321470947
 10
53.1181334659
 20
-23.1297228132
 10
53.1303002936
 20
-23.1276360125
 10
53.1427183485
 20
-23.1259025536
 10
53.1554023426
 20
-23.1245164325
 10
53.1683370532
 20
-23.1234933505
 10
53.1814755547
 20
-23.1228641607
 10
53.1947830302
 20
-23.1226497308
  0
LWPOLYLINE
  5
5AE
100
AcDbEntity
  8
RACCORDO
100
AcDbPolyline
 62
7
  6
CONTINUOUS
 90
34
 70
0
 10
55.3294985344
 20
23.2669872981
 10
55.329199112
 20
23.2606934229
 10
55.3284234072
 20
23.2544088409
 10
55.3271666685
 20
23.2481335519
 10
55.3254253057
 20
23.2418552807
 10
55.3231963593
 20
23.2355863026
 10
55.3204769923
 20
23.2293634437
 10
55.3172660151
 20
23.2231861587
 10
55.3135631649
 20
23.2170549928
 10
55.30936754
 20
23.2110084085
 10
55.3046807619
 20
23.205045942
 10
55.2995054048
 20
23.199168057
 10
55.2938425238
 20
23.1934146064
 10
55.2876967798
 20
23.1877851844
 10
55.2810738707
 20
23.1822801967
 10
55.2739769784
 20
23.1769407141
 10
55.2664140749
 20
23.1717664006
 10
55.2583943427
 20
23.1667575922
 10
55.2499234998
 20
23.1619563668
 10
55.2410131653
 20
23.1573625195
 10
55.2316764503
 20
23.1529762552
 10
55.2219223087
 20
23.1488402671
 10
55.2117664155
 20
23.1449546011
 10
55.2012263107
 20
23.1413192112
 10
55.1903151381
 20
23.1379766523
 10
55.1790531531
 20
23.1349274029
 10
55.1674627542
 20
23.1321709844
 10
55.1555621319
 20
23.1297485157
 10
55.1433636184
 20
23.1276610792
 10
55.1309074681
 20
23.1259075925
 10
55.118257411
 20
23.1245259271
 10
55.1054568125
 20
23.123528707
 10
55.0925272404
 20
23.1229033082
 10
55.0795027652
 20
23.1226497308
  0
LINE
  5
5AF
100
AcDbEntity
  8
0
100
AcDbLine
 62
7
  6
CONTINUOUS
 10
55.3294985344
 20
22.3342126379
 11
55.3367792833
 21
22.3999998839
  0
LWPOLYLINE
  5
5B0
100
AcDbEntity
  8
0
100
AcDbPolyline
 62
7
  6
CONTINUOUS
 90
42
 70
0
 10
47.0074390227
 20
-11.1543853769
 10
47.0572095254
 20
-11.0822494543
 10
47.1046843119
 20
-11.00871974
 10
47.1498331152
 20
-10.9338304693
 10
47.1926862023
 20
-10.857547383
 10
47.2331554917
 20
-10.7800266303
 10
47.271254721
 20
-10.7012237398
 10
47.3069701526
 20
-10.6211831613
 10
47.3401724922
 20
-10.54019443
 10
47.3708377821
 20
-10.4582976845
 10
47.3989899801
 20
-10.3754527713
 10
47.424571665
 20
-10.2918287922
 10
47.4475882656
 20
-10.2073796457
 10
47.4680343531
 20
-10.1221514215
 10
47.4858362203
 20
-10.036451514
 10
47.5009777935
 20
-9.9503226232
 10
47.5134751464
 20
-9.8637220447
 10
47.5233027927
 20
-9.7768290708
 10
47.5304575092
 20
-9.6895996793
 10
47.534942519
 20
-9.6020778915
 10
47.5367420057
 20
-9.51457507
 10
47.5358479167
 20
-9.427132793
 10
47.5322683045
 20
-9.3397094884
 10
47.5260115098
 20
-9.252491798
 10
47.5170667976
 20
-9.1654414806
 10
47.505444903
 20
-9.0785967866
 10
47.4911863715
 20
-8.9922591
 10
47.4742898287
 20
-8.9064653417
 10
47.4547566491
 20
-8.8211786058
 10
47.4326315021
 20
-8.7365895407
 10
47.407898716
 20
-8.6526688949
 10
47.3805739625
 20
-8.5694459371
 10
47.3507489265
 20
-8.4871991002
 10
47.3184261878
 20
-8.4059577447
 10
47.2836031667
 20
-8.3256925311
 10
47.2463638079
 20
-8.2465938461
 10
47.2066913295
 20
-8.1686436883
 10
47.1646025135
 20
-8.0918600812
 10
47.1202316507
 20
-8.0164874517
 10
47.0736235046
 20
-7.9426072844
 10
47.0247333116
 20
-7.8701381188
 10
46.9735610718
 20
-7.7990799664
  0
LINE
  5
5B1
100
AcDbEntity
  8
RACCORDO
100
AcDbLine
 62
250
  6
CONTINUOUS
 10
34.0367792833
 20
-24.2500042308
 11
34.049877862
 21
-24.2369056521
  0
LINE
  5
5B2
100
AcDbEntity
  8
0
100
AcDbLine
 62
250
  6
CONTINUOUS
 10
40.7184112116
 20
7.6721333701
 11
42.1630221215
 21
7.6721333703
  0
LINE
  5
5B3
100
AcDbEntity
  8
0
100
AcDbLine
 62
250
  6
CONTINUOUS
 10
47.2105364452
 20
7.6721333703
 11
48.6551473551
 21
7.6721333701
  0
LINE
  5
5B4
100
AcDbEntity
  8
RACCORDO
100
AcDbLine
 62
7
  6
CONTINUOUS
 10
47.4924647689
 20
9.0
 11
41.8810937979
 21
9.0
  0
LWPOLYLINE
  5
5B5
100
AcDbEntity
  8
0
100
AcDbPolyline
 62
250
  6
CONTINUOUS
 90
10
 70
0
 10
47.0251153517
 20
7.8044075767
 10
47.0193696661
 20
7.8082522319
 10
47.0169791711
 20
7.8098707793
 10
47.0148679819
 20
7.8112469723
 10
47.0130392661
 20
7.812416254
 10
47.0115159662
 20
7.8134041392
 10
47.010267012
 20
7.8141557128
 10
47.0092830448
 20
7.8146664746
 10
47.0086028166
 20
7.8149908996
 10
47.0082689991
 20
7.8151606536
  0
LINE
  5
5B6
100
AcDbEntity
  8
RACCORDO
100
AcDbLine
 62
250
  6
CONTINUOUS
 10
34.0367792833
 20
24.2500042308
 11
34.049877862
 21
24.2369056521
  0
LWPOLYLINE
  5
5B7
100
AcDbEntity
  8
0
100
AcDbPolyline
 62
250
  6
CONTINUOUS
 90
42
 70
0
 10
47.0527259628
 20
11.1216413591
 10
47.1001252872
 20
11.0502272191
 10
47.1453711805
 20
10.9774255169
 10
47.1884219112
 20
10.903302966
 10
47.229240819
 20
10.8279244855
 10
47.2677960418
 20
10.7513450101
 10
47.3040526742
 20
10.6736296694
 10
47.3379767883
 20
10.5948502892
 10
47.3695377008
 20
10.5150718102
 10
47.398707035
 20
10.4343585338
 10
47.425455575
 20
10.3527886423
 10
47.4497529801
 20
10.2704486242
 10
47.4715766104
 20
10.1874101769
 10
47.4909071102
 20
10.1037496067
 10
47.507722535
 20
10.0195613139
 10
47.522007595
 20
9.9349239677
 10
47.5337526903
 20
9.8499106702
 10
47.5429473048
 20
9.7646079373
 10
47.5495839097
 20
9.679097418
 10
47.5536606318
 20
9.5934506909
 10
47.5551759308
 20
9.5077390848
 10
47.5541290986
 20
9.422046686
 10
47.5505241783
 20
9.336442436
 10
47.5443637819
 20
9.2509748831
 10
47.5356517255
 20
9.1657242105
 10
47.5243957924
 20
9.0807627247
 10
47.5105986855
 20
8.9961277929
 10
47.4942609787
 20
8.9118665224
 10
47.4753982713
 20
8.8280847724
 10
47.4540372199
 20
8.7449078087
 10
47.4302164056
 20
8.6624774722
 10
47.4039415818
 20
8.5807991081
 10
47.375181713
 20
8.499796405
 10
47.3439257066
 20
8.4194919172
 10
47.3102081618
 20
8.3400196381
 10
47.2740561138
 20
8.2614748652
 10
47.2354683922
 20
8.1838925132
 10
47.1944884984
 20
8.1073920367
 10
47.151226956
 20
8.0321882519
 10
47.105753484
 20
7.9583950093
 10
47.0580853888
 20
7.8860311049
 10
47.0082689989
 20
7.8151606537
  0
LWPOLYLINE
  5
5B8
100
AcDbEntity
  8
0
100
AcDbPolyline
 62
250
  6
CONTINUOUS
 90
42
 70
0
 10
47.2589339377
 20
11.2685476363
 10
47.3104925478
 20
11.1908224344
 10
47.3596673035
 20
11.1116597638
 10
47.4064517808
 20
11.0310583132
 10
47.4508524036
 20
10.9490193674
 10
47.4927545097
 20
10.865748757
 10
47.5321538193
 20
10.7812408326
 10
47.5690546121
 20
10.6955012213
 10
47.6033550651
 20
10.6087526738
 10
47.6350501873
 20
10.5209854021
 10
47.6641449697
 20
10.432209177
 10
47.6905525622
 20
10.3426760924
 10
47.7142640976
 20
10.2523816209
 10
47.735288443
 20
10.1613302788
 10
47.7535653497
 20
10.0697877315
 10
47.7690848431
 20
9.9777559015
 10
47.7818568978
 20
9.8852328617
 10
47.7918511888
 20
9.7924785082
 10
47.7990593942
 20
9.6994981045
 10
47.8034898358
 20
9.6062863886
 10
47.805137154
 20
9.5130874746
 10
47.8039960176
 20
9.4199097349
 10
47.8000717579
 20
9.3267448039
 10
47.7933750082
 20
9.2338116942
 10
47.7839030028
 20
9.1411145442
 10
47.7716585074
 20
9.0486492265
 10
47.7566604533
 20
8.9566223598
 10
47.7388949181
 20
8.8650028696
 10
47.7183758242
 20
8.773821845
 10
47.6951638693
 20
8.6833791538
 10
47.6692783213
 20
8.5937473368
 10
47.6406999124
 20
8.5048538734
 10
47.6094315373
 20
8.4167810419
 10
47.5754513445
 20
8.3294658472
 10
47.5387811856
 20
8.242971304
 10
47.4994895096
 20
8.1575687089
 10
47.4575357273
 20
8.0732186485
 10
47.412960428
 20
7.989960559
 10
47.3659538284
 20
7.9081840161
 10
47.3165793343
 20
7.8280188889
 10
47.2647735398
 20
7.749335336
 10
47.2105364452
 20
7.6721333703
  0
LINE
  5
5B9
100
AcDbEntity
  8
0
100
AcDbLine
 62
7
  6
CONTINUOUS
 10
55.3367792833
 20
-22.3999998839
 11
55.3294985344
 21
-22.3342126379
  0
LWPOLYLINE
  5
5BA
100
AcDbEntity
  8
0
100
AcDbPolyline
 62
250
  6
CONTINUOUS
 90
10
 70
0
 10
55.6979691323
 20
-21.4316208943
 10
55.6985456471
 20
-21.4439118491
 10
55.6991324026
 20
-21.4551045467
 10
55.6997273856
 20
-21.4651126058
 10
55.7003311056
 20
-21.4739331713
 10
55.7009430531
 20
-21.4815690983
 10
55.7015596863
 20
-21.4879425717
 10
55.7021798246
 20
-21.493027653
 10
55.7028046485
 20
-21.4968502806
 10
55.703434158
 20
-21.4994104546
  0
LINE
  5
5BB
100
AcDbEntity
  8
0
100
AcDbLine
 62
250
  6
CONTINUOUS
 10
55.6968485149
 20
-21.4037949299
 11
55.6979691323
 21
-21.4316208943
  0
LWPOLYLINE
  5
5BC
100
AcDbEntity
  8
RACCORDO
100
AcDbPolyline
 62
250
  6
CONTINUOUS
 90
31
 70
0
 10
55.3236807046
 20
-23.8443375673
 10
55.3233013729
 20
-23.8330274168
 10
55.3222403909
 20
-23.8217481519
 10
55.3205006561
 20
-23.810530574
 10
55.3180869191
 20
-23.7994053159
 10
55.3150057716
 20
-23.7884027584
 10
55.3112656273
 20
-23.7775529472
 10
55.3068766999
 20
-23.7668855107
 10
55.3018509746
 20
-23.7564295797
 10
55.2962021756
 20
-23.7462137069
 10
55.2899457287
 20
-23.7362657898
 10
55.2830987187
 20
-23.7266129942
 10
55.2756798436
 20
-23.7172816797
 10
55.2677093627
 20
-23.7082973282
 10
55.2592090417
 20
-23.6996844742
 10
55.2502020932
 20
-23.6914666374
 10
55.2407131132
 20
-23.6836662592
 10
55.2307680143
 20
-23.6763046407
 10
55.2203939544
 20
-23.6694018849
 10
55.2096192629
 20
-23.6629768418
 10
55.1984733632
 20
-23.6570470569
 10
55.1869866924
 20
-23.6516287232
 10
55.1751906182
 20
-23.646736637
 10
55.1631173533
 20
-23.6423841576
 10
55.1507998672
 20
-23.6385831707
 10
55.1382717963
 20
-23.6353440559
 10
55.1255673522
 20
-23.6326756587
 10
55.1127212281
 20
-23.6305852658
 10
55.0997685041
 20
-23.6290785857
 10
55.0867445513
 20
-23.6281597328
 10
55.0736849354
 20
-23.6278312164
  0
LINE
  5
5BD
100
AcDbEntity
  8
0
100
AcDbLine
 62
250
  6
CONTINUOUS
 10
55.6957664296
 20
-21.3715873949
 11
55.6968485149
 21
-21.4037949299
  0
LINE
  5
5BE
100
AcDbEntity
  8
0
100
AcDbLine
 62
250
  6
CONTINUOUS
 10
55.1974798499
 20
-21.876969828
 11
55.1986218002
 21
-21.9154946308
  0
LWPOLYLINE
  5
5BF
100
AcDbEntity
  8
RACCORDO
100
AcDbPolyline
 62
250
  6
CONTINUOUS
 90
31
 70
0
 10
55.3236807046
 20
24.2369056521
 10
55.323337666
 20
24.2499891381
 10
55.3223103762
 20
24.2630367647
 10
55.3206016506
 20
24.2760127708
 10
55.3182161726
 20
24.2888815916
 10
55.3151604804
 20
24.3016079562
 10
55.311442949
 20
24.3141569839
 10
55.3070737676
 20
24.3264942801
 10
55.3020649111
 20
24.3385860308
 10
55.2964301079
 20
24.3503990946
 10
55.290184802
 20
24.3619010942
 10
55.2833461106
 20
24.3730605047
 10
55.2759327772
 20
24.3838467403
 10
55.2679651205
 20
24.3942302379
 10
55.2594649782
 20
24.4041825384
 10
55.2504556476
 20
24.4136763643
 10
55.2409618217
 20
24.4226856948
 10
55.2310095212
 20
24.4311858371
 10
55.2206260236
 20
24.4391534939
 10
55.209839788
 20
24.4465668272
 10
55.1986803775
 20
24.4534055187
 10
55.1871783779
 20
24.4596508246
 10
55.1753653141
 20
24.4652856277
 10
55.1632735635
 20
24.4702944842
 10
55.1509362672
 20
24.4746636657
 10
55.1383872395
 20
24.4783811971
 10
55.125660875
 20
24.4814368893
 10
55.1127920541
 20
24.4838223673
 10
55.099816048
 20
24.4855310928
 10
55.0867684214
 20
24.4865583827
 10
55.0736849354
 20
24.4869014213
  0
LINE
  5
5C0
100
AcDbEntity
  8
0
100
AcDbLine
 62
250
  6
CONTINUOUS
 10
55.6942212049
 20
-21.3152910824
 11
55.6957664296
 21
-21.3715873949
  0
LWPOLYLINE
  5
5C1
100
AcDbEntity
  8
0
100
AcDbPolyline
 62
250
  6
CONTINUOUS
 90
34
 70
0
 10
55.703434158
 20
21.4994104546
 10
55.702846858
 20
21.5231550054
 10
55.7011297156
 20
21.5468458303
 10
55.6982866161
 20
21.5704293244
 10
55.6943239926
 20
21.5938521255
 10
55.689250811
 20
21.6170612353
 10
55.6830785504
 20
21.6400041386
 10
55.6758211766
 20
21.6626289229
 10
55.6674951106
 20
21.6848843952
 10
55.6581191917
 20
21.7067201985
 10
55.6477146345
 20
21.7280869251
 10
55.6363049814
 20
21.7489362286
 10
55.6239160487
 20
21.7692209335
 10
55.6105758686
 20
21.7888951419
 10
55.5963146257
 20
21.8079143371
 10
55.5811645889
 20
21.8262354846
 10
55.5651600378
 20
21.8438171292
 10
55.5483371856
 20
21.8606194891
 10
55.5307340973
 20
21.8766045457
 10
55.5123906032
 20
21.8917361298
 10
55.4933482088
 20
21.9059800032
 10
55.4736500011
 20
21.9193039365
 10
55.453340551
 20
21.9316777817
 10
55.4324658125
 20
21.9430735405
 10
55.4110730186
 20
21.9534654279
 10
55.3892105746
 20
21.9628299301
 10
55.3669279484
 20
21.9711458583
 10
55.3442755587
 20
21.9783943959
 10
55.3213046607
 20
21.9845591418
 10
55.2980672305
 20
21.989626147
 10
55.2746158473
 20
21.9935839464
 10
55.2510035741
 20
21.9964235848
 10
55.2272838384
 20
21.9981386369
 10
55.2035103104
 20
21.998725222
  0
LWPOLYLINE
  5
5C2
100
AcDbEntity
  8
RACCORDO
100
AcDbPolyline
 62
7
  6
CONTINUOUS
 90
34
 70
0
 10
55.3367792833
 20
24.2500042308
 10
55.3364961331
 20
24.261899516
 10
55.3356473176
 20
24.2737678556
 10
55.3342347575
 20
24.2855823661
 10
55.3322616511
 20
24.2973162875
 10
55.3297324651
 20
24.3089430388
 10
55.326652925
 20
24.320436279
 10
55.3230300047
 20
24.3317699738
 10
55.3188719091
 20
24.3429184493
 10
55.3141880555
 20
24.3538564463
 10
55.3089890522
 20
24.3645591876
 10
55.303286675
 20
24.3750024283
 10
55.2970938415
 20
24.3851625059
 10
55.2904245788
 20
24.3950164051
 10
55.283293994
 20
24.4045418038
 10
55.2757182422
 20
24.4137171191
 10
55.2677144838
 20
24.4225215661
 10
55.2593008494
 20
24.4309352005
 10
55.2504964024
 20
24.4389389589
 10
55.2413210872
 20
24.4465147107
 10
55.2317956885
 20
24.4536452955
 10
55.2219417892
 20
24.4603145581
 10
55.2117817116
 20
24.4665073916
 10
55.2013384709
 20
24.4722097688
 10
55.1906357296
 20
24.4774087722
 10
55.1796977326
 20
24.4820926258
 10
55.1685492571
 20
24.4862507213
 10
55.1572155623
 20
24.4898736417
 10
55.1457223221
 20
24.4929531817
 10
55.1340955708
 20
24.4954823677
 10
55.1223616495
 20
24.4974554741
 10
55.1105471389
 20
24.4988680342
 10
55.0986787994
 20
24.4997168498
 10
55.0867835141
 20
24.5
  0
LINE
  5
5C3
100
AcDbEntity
  8
0
100
AcDbLine
 62
250
  6
CONTINUOUS
 10
55.1958425843
 20
-21.8069840657
 11
55.1974798499
 21
-21.876969828
  0
LINE
  5
5C4
100
AcDbEntity
  8
0
100
AcDbLine
 62
250
  6
CONTINUOUS
 10
55.6927876394
 20
-21.2500390946
 11
55.6942212049
 21
-21.3152910824
  0
LINE
  5
5C5
100
AcDbEntity
  8
0
100
AcDbLine
 62
7
  6
CONTINUOUS
 10
55.8629618807
 20
16.5
 11
55.8367792833
 21
18.0
  0
LINE
  5
5C6
100
AcDbEntity
  8
0
100
AcDbLine
 62
250
  6
CONTINUOUS
 10
55.1938059262
 20
-21.691353534
 11
55.1958425843
 21
-21.8069840657
  0
LINE
  5
5C7
100
AcDbEntity
  8
0
100
AcDbLine
 62
250
  6
CONTINUOUS
 10
55.6910762532
 20
-21.1503263322
 11
55.6927876394
 21
-21.2500390946
  0
LINE
  5
5C8
100
AcDbEntity
  8
0
100
AcDbLine
 62
250
  6
CONTINUOUS
 10
55.1915573951
 20
-21.5144084921
 11
55.1938059262
 21
-21.691353534
  0
LINE
  5
5C9
100
AcDbEntity
  8
0
100
AcDbLine
 62
250
  6
CONTINUOUS
 10
55.6893060249
 20
-21.0081331142
 11
55.6910762532
 21
-21.1503263322
  0
LINE
  5
5CA
100
AcDbEntity
  8
RACCORDO
100
AcDbLine
 62
250
  6
CONTINUOUS
 10
55.0736849354
 20
23.6278312164
 11
55.0787755365
 21
23.1226497308
  0
LINE
  5
5CB
100
AcDbEntity
  8
RACCORDO
100
AcDbLine
 62
250
  6
CONTINUOUS
 10
55.3236807046
 20
23.8443375673
 11
55.3294985344
 21
23.2669872981
  0
LINE
  5
5CC
100
AcDbEntity
  8
0
100
AcDbLine
 62
250
  6
CONTINUOUS
 10
55.1893821772
 20
-21.2617924761
 11
55.1915573951
 21
-21.5144084921
  0
LINE
  5
5CD
100
AcDbEntity
  8
0
100
AcDbLine
 62
250
  6
CONTINUOUS
 10
55.687791022
 20
-20.8174572143
 11
55.6893060249
 21
-21.0081331142
  0
LINE
  5
5CE
100
AcDbEntity
  8
0
100
AcDbLine
 62
250
  6
CONTINUOUS
 10
55.1876838056
 20
-20.9257143496
 11
55.1893821772
 21
-21.2617924761
  0
LINE
  5
5CF
100
AcDbEntity
  8
0
100
AcDbLine
 62
250
  6
CONTINUOUS
 10
55.6869445509
 20
-20.5774691374
 11
55.687791022
 21
-20.8174572143
  0
LINE
  5
5D0
100
AcDbEntity
  8
0
100
AcDbLine
 62
250
  6
CONTINUOUS
 10
55.1869835398
 20
-20.5624683248
 11
55.1876838056
 21
-20.9257143496
  0
LINE
  5
5D1
100
AcDbEntity
  8
0
100
AcDbLine
 62
250
  6
CONTINUOUS
 10
55.1843257554
 20
-16.4420071724
 11
55.1869835398
 21
-20.5624683248
  0
LWPOLYLINE
  5
5D2
100
AcDbEntity
  8
0
100
AcDbPolyline
 62
250
  6
CONTINUOUS
 90
3
 70
0
 10
55.6842496029
 20
-16.4255147432
 10
55.68550331
 20
-18.4787629333
 10
55.6869445509
 20
-20.5774691374
  0
LWPOLYLINE
  5
5D3
100
AcDbEntity
  8
0
100
AcDbPolyline
 62
250
  6
CONTINUOUS
 90
3
 70
0
 10
55.1814705139
 20
-10.327981576
 10
55.1822712811
 20
-12.3572988503
 10
55.1843257554
 20
-16.4420071724
  0
LWPOLYLINE
  5
5D4
100
AcDbEntity
  8
0
100
AcDbPolyline
 62
250
  6
CONTINUOUS
 90
3
 70
0
 10
55.6813943615
 20
-10.3176417613
 10
55.6821951287
 20
-12.3449541572
 10
55.6842496029
 20
-16.4255147432
  0
LINE
  5
5D5
100
AcDbEntity
  8
0
100
AcDbLine
 62
250
  6
CONTINUOUS
 10
55.1803061743
 20
-6.3364238529
 11
55.1814705139
 21
-10.327981576
  0
LINE
  5
5D6
100
AcDbEntity
  8
0
100
AcDbLine
 62
250
  6
CONTINUOUS
 10
55.6802300219
 20
-6.3301017353
 11
55.6813943615
 21
-10.3176417613
  0
LINE
  5
5D7
100
AcDbEntity
  8
RACCORDO
100
AcDbLine
 62
250
  6
CONTINUOUS
 10
55.0736849354
 20
-23.6278312164
 11
55.0736849354
 21
-24.4869014213
  0
LINE
  5
5D8
100
AcDbEntity
  8
RACCORDO
100
AcDbLine
 62
250
  6
CONTINUOUS
 10
55.0736849354
 20
23.6278312164
 11
55.0736849354
 21
24.4869014213
  0
LINE
  5
5D9
100
AcDbEntity
  8
RACCORDO
100
AcDbLine
 62
250
  6
CONTINUOUS
 10
55.0795027652
 20
23.1226497308
 11
55.0795027652
 21
22.3213883311
  0
LINE
  5
5DA
100
AcDbEntity
  8
RACCORDO
100
AcDbLine
 62
250
  6
CONTINUOUS
 10
55.0795027652
 20
-22.3213883311
 11
55.0795027652
 21
-23.1226497308
  0
LINE
  5
5DB
100
AcDbEntity
  8
0
100
AcDbLine
 62
250
  6
CONTINUOUS
 10
55.1797107972
 20
-2.4334703382
 11
55.1803061743
 21
-6.3364238529
  0
LINE
  5
5DC
100
AcDbEntity
  8
RACCORDO
100
AcDbLine
 62
250
  6
CONTINUOUS
 10
55.3236807046
 20
-24.2369056521
 11
55.3236807046
 21
-23.8443375673
  0
LINE
  5
5DD
100
AcDbEntity
  8
RACCORDO
100
AcDbLine
 62
250
  6
CONTINUOUS
 10
55.3236807046
 20
23.8443375673
 11
55.3236807046
 21
24.2369056521
  0
LINE
  5
5DE
100
AcDbEntity
  8
0
100
AcDbLine
 62
250
  6
CONTINUOUS
 10
55.3294985344
 20
23.2669872981
 11
55.3294985344
 21
22.3342126379
  0
LINE
  5
5DF
100
AcDbEntity
  8
0
100
AcDbLine
 62
250
  6
CONTINUOUS
 10
55.3294985344
 20
-22.3342126379
 11
55.3294985344
 21
-23.2669872981
  0
LINE
  5
5E0
100
AcDbEntity
  8
RACCORDO
100
AcDbLine
 62
7
  6
CONTINUOUS
 10
55.3367792833
 20
24.2500042308
 11
55.3367792833
 21
23.4104851482
  0
LINE
  5
5E1
100
AcDbEntity
  8
0
100
AcDbLine
 62
7
  6
CONTINUOUS
 10
55.3367792833
 20
-23.4104851482
 11
55.3367792833
 21
-22.4
  0
LINE
  5
5E2
100
AcDbEntity
  8
RACCORDO
100
AcDbLine
 62
7
  6
CONTINUOUS
 10
55.3367792833
 20
-23.4104851482
 11
55.3367792833
 21
-24.2500042308
  0
LINE
  5
5E3
100
AcDbEntity
  8
0
100
AcDbLine
 62
7
  6
CONTINUOUS
 10
55.3367792833
 20
22.4
 11
55.3367792833
 21
23.4104851482
  0
LINE
  5
5E4
100
AcDbEntity
  8
0
100
AcDbLine
 62
250
  6
CONTINUOUS
 10
55.6796346448
 20
-2.4310368679
 11
55.6802300219
 21
-6.3301017353
  0
LINE
  5
5E5
100
AcDbEntity
  8
0
100
AcDbLine
 62
7
  6
CONTINUOUS
 10
55.8367792833
 20
21.8997711479
 11
55.8367792833
 21
18.0
  0
LINE
  5
5E6
100
AcDbEntity
  8
0
100
AcDbLine
 62
7
  6
CONTINUOUS
 10
55.8367792833
 20
-21.8997711479
 11
55.8367792833
 21
-18.0
  0
LINE
  5
5E7
100
AcDbEntity
  8
0
100
AcDbLine
 62
7
  6
CONTINUOUS
 10
55.8629618807
 20
-16.5
 11
55.8629618807
 21
16.5
  0
LWPOLYLINE
  5
5E8
100
AcDbEntity
  8
0
100
AcDbPolyline
 62
250
  6
CONTINUOUS
 90
3
 70
0
 10
55.179792873
 20
3.2601421848
 10
55.1796376709
 20
1.3688628976
 10
55.1797107972
 20
-2.4334703382
  0
LWPOLYLINE
  5
5E9
100
AcDbEntity
  8
0
100
AcDbPolyline
 62
250
  6
CONTINUOUS
 90
3
 70
0
 10
55.6797167206
 20
3.2568820426
 10
55.6795615184
 20
1.3675022896
 10
55.6796346448
 20
-2.4310368679
  0
LINE
  5
5EA
100
AcDbEntity
  8
0
100
AcDbLine
 62
250
  6
CONTINUOUS
 10
55.1810078824
 20
8.9610102992
 11
55.179792873
 21
3.2601421848
  0
LINE
  5
5EB
100
AcDbEntity
  8
0
100
AcDbLine
 62
250
  6
CONTINUOUS
 10
55.6809317299
 20
8.9520492889
 11
55.6797167206
 21
3.2568820426
  0
LINE
  5
5EC
100
AcDbEntity
  8
0
100
AcDbLine
 62
250
  6
CONTINUOUS
 10
55.1824365146
 20
12.7453059628
 11
55.1810078824
 21
8.9610102992
  0
LINE
  5
5ED
100
AcDbEntity
  8
0
100
AcDbLine
 62
250
  6
CONTINUOUS
 10
55.6823603622
 20
12.7325775899
 11
55.6809317299
 21
8.9520492889
  0
LINE
  5
5EE
100
AcDbEntity
  8
0
100
AcDbLine
 62
250
  6
CONTINUOUS
 10
55.1856321729
 20
18.5724253805
 11
55.1824365146
 21
12.7453059628
  0
LINE
  5
5EF
100
AcDbEntity
  8
0
100
AcDbLine
 62
250
  6
CONTINUOUS
 10
55.6855560205
 20
18.553789975
 11
55.6823603622
 21
12.7325775899
  0
LINE
  5
5F0
100
AcDbEntity
  8
0
100
AcDbLine
 62
250
  6
CONTINUOUS
 10
55.1878972438
 20
20.9834290967
 11
55.1856321729
 21
18.5724253805
  0
LINE
  5
5F1
100
AcDbEntity
  8
0
100
AcDbLine
 62
250
  6
CONTINUOUS
 10
55.6876323407
 20
20.7888194871
 11
55.6855560205
 21
18.553789975
  0
LINE
  5
5F2
100
AcDbEntity
  8
0
100
AcDbLine
 62
250
  6
CONTINUOUS
 10
55.1897537638
 20
21.3136191851
 11
55.1878972438
 21
20.9834290967
  0
LINE
  5
5F3
100
AcDbEntity
  8
0
100
AcDbLine
 62
250
  6
CONTINUOUS
 10
55.6890521162
 20
20.9825721687
 11
55.6876323407
 21
20.7888194871
  0
LINE
  5
5F4
100
AcDbEntity
  8
RACCORDO
100
AcDbLine
 62
250
  6
CONTINUOUS
 10
55.0787755365
 20
-23.1226497308
 11
55.0736849354
 21
-23.6278312164
  0
LINE
  5
5F5
100
AcDbEntity
  8
RACCORDO
100
AcDbLine
 62
250
  6
CONTINUOUS
 10
55.3294985344
 20
-23.2669872981
 11
55.3236807046
 21
-23.8443375673
  0
LINE
  5
5F6
100
AcDbEntity
  8
0
100
AcDbLine
 62
250
  6
CONTINUOUS
 10
55.1924842746
 20
21.5949923358
 11
55.1897537638
 21
21.3136191851
  0
LINE
  5
5F7
100
AcDbEntity
  8
0
100
AcDbLine
 62
250
  6
CONTINUOUS
 10
55.6907491015
 20
21.1277273619
 11
55.6890521162
 21
20.9825721687
  0
LINE
  5
5F8
100
AcDbEntity
  8
0
100
AcDbLine
 62
250
  6
CONTINUOUS
 10
55.1948823706
 20
21.7568420464
 11
55.1924842746
 21
21.5949923358
  0
LINE
  5
5F9
100
AcDbEntity
  8
0
100
AcDbLine
 62
7
  6
CONTINUOUS
 10
55.8367792833
 20
-18.0
 11
55.8629618807
 21
-16.5
  0
LINE
  5
5FA
100
AcDbEntity
  8
0
100
AcDbLine
 62
250
  6
CONTINUOUS
 10
55.6924081221
 20
21.2302437943
 11
55.6907491015
 21
21.1277273619
  0
LINE
  5
5FB
100
AcDbEntity
  8
0
100
AcDbLine
 62
250
  6
CONTINUOUS
 10
55.1964660027
 20
21.835824202
 11
55.1948823706
 21
21.7568420464
  0
LINE
  5
5FC
100
AcDbEntity
  8
0
100
AcDbLine
 62
250
  6
CONTINUOUS
 10
55.6938076006
 20
21.2978828478
 11
55.6924081221
 21
21.2302437943
  0
LWPOLYLINE
  5
5FD
100
AcDbEntity
  8
0
100
AcDbPolyline
 62
250
  6
CONTINUOUS
 90
34
 70
0
 10
55.703434158
 20
-21.4994104546
 10
55.7028468576
 20
-21.5231550131
 10
55.7011297142
 20
-21.5468458451
 10
55.6982866131
 20
-21.5704293456
 10
55.6943239874
 20
-21.5938521525
 10
55.6892508033
 20
-21.6170612672
 10
55.6830785398
 20
-21.6400041748
 10
55.6758211628
 20
-21.6626289626
 10
55.6674950935
 20
-21.6848844378
 10
55.6581191713
 20
-21.7067202431
 10
55.6477146108
 20
-21.728086971
 10
55.6363049544
 20
-21.7489362752
 10
55.6239160186
 20
-21.7692209802
 10
55.6105758357
 20
-21.7888951881
 10
55.5963145903
 20
-21.8079143822
 10
55.5811645512
 20
-21.826235528
 10
55.5651599983
 20
-21.8438171706
 10
55.5483371448
 20
-21.860619528
 10
55.5307340556
 20
-21.8766045819
 10
55.512390561
 20
-21.891736163
 10
55.4933481667
 20
-21.9059800332
 10
55.4736499596
 20
-21.9193039632
 10
55.4533405106
 20
-21.931677805
 10
55.4324657738
 20
-21.9430735605
 10
55.4110729821
 20
-21.9534654446
 10
55.3892105407
 20
-21.9628299437
 10
55.3669279176
 20
-21.971145869
 10
55.3442755313
 20
-21.9783944039
 10
55.3213046372
 20
-21.9845591475
 10
55.2980672113
 20
-21.9896261507
 10
55.2746158325
 20
-21.9935839485
 10
55.2510035642
 20
-21.9964235857
 10
55.2272838333
 20
-21.9981386371
 10
55.2035103104
 20
-21.998725222
  0
LINE
  5
5FE
100
AcDbEntity
  8
0
100
AcDbLine
 62
250
  6
CONTINUOUS
 10
55.1975717011
 20
21.8803626429
 11
55.1964660027
 21
21.835824202
  0
LINE
  5
5FF
100
AcDbEntity
  8
0
100
AcDbLine
 62
250
  6
CONTINUOUS
 10
55.6953230756
 20
21.3567518397
 11
55.6938076006
 21
21.2978828478
  0
LINE
  5
600
100
AcDbEntity
  8
0
100
AcDbLine
 62
250
  6
CONTINUOUS
 10
55.6963898481
 20
21.3908097746
 11
55.6953230756
 21
21.3567518397
  0
LWPOLYLINE
  5
601
100
AcDbEntity
  8
RACCORDO
100
AcDbPolyline
 62
250
  6
CONTINUOUS
 90
31
 70
0
 10
55.3236807046
 20
23.8443375673
 10
55.323302149
 20
23.833039595
 10
55.3222430214
 20
23.821769291
 10
55.3205056449
 20
23.8105574212
 10
55.3180939435
 20
23.7994336121
 10
55.3150140732
 20
23.78842936
 10
55.3112750222
 20
23.7775778202
 10
55.3068874778
 20
23.7669096972
 10
55.3018630788
 20
23.7564530239
 10
55.2962153982
 20
23.746236105
 10
55.2899597057
 20
23.7362866999
 10
55.2831131311
 20
23.7266321754
 10
55.2756945228
 20
23.7172991519
 10
55.2677242187
 20
23.7083132018
 10
55.2592239239
 20
23.6996987826
 10
55.2502168335
 20
23.6914794042
 10
55.2407275298
 20
23.6836775075
 10
55.2307819427
 20
23.6763144193
 10
55.2204072598
 20
23.6694102704
 10
55.2096318274
 20
23.6629839239
 10
55.1984850694
 20
23.6570529269
 10
55.1869974324
 20
23.6516334796
 10
55.1752002757
 20
23.6467403776
 10
55.1631258392
 20
23.6423869945
 10
55.1508071596
 20
23.6385852371
 10
55.1382779242
 20
23.6353454907
 10
55.1255723214
 20
23.6326765842
 10
55.1127250006
 20
23.6305857918
 10
55.0997710333
 20
23.6290788219
 10
55.0867458196
 20
23.6281597935
 10
55.0736849354
 20
23.6278312164
  0
LINE
  5
602
100
AcDbEntity
  8
RACCORDO
100
AcDbLine
 62
7
  6
CONTINUOUS
 10
52.9367792833
 20
-22.4
 11
52.9440600322
 21
-22.3344140523
  0
LINE
  5
603
100
AcDbEntity
  8
RACCORDO
100
AcDbLine
 62
250
  6
CONTINUOUS
 10
34.2867750525
 20
-24.5
 11
34.2998736313
 21
-24.4869014213
  0
LINE
  5
604
100
AcDbEntity
  8
RACCORDO
100
AcDbLine
 62
250
  6
CONTINUOUS
 10
34.2867750525
 20
24.5
 11
34.2998736313
 21
24.4869014213
  0
LINE
  5
605
100
AcDbEntity
  8
RACCORDO
100
AcDbLine
 62
7
  6
CONTINUOUS
 10
52.9367792833
 20
22.4
 11
52.9440600322
 21
22.3344140523
  0
LWPOLYLINE
  5
606
100
AcDbEntity
  8
0
100
AcDbPolyline
 62
7
  6
CONTINUOUS
 90
34
 70
0
 10
55.8367792833
 20
21.8997711479
 10
55.8362196202
 20
21.9235738959
 10
55.8345307272
 20
21.9473146459
 10
55.8317169266
 20
21.9709399929
 10
55.8277855855
 20
21.9943926845
 10
55.8227458992
 20
22.0176242097
 10
55.8166071708
 20
22.0405945495
 10
55.809383146
 20
22.0632496405
 10
55.8010884256
 20
22.0855402333
 10
55.7917333057
 20
22.1074332014
 10
55.7813249869
 20
22.128898333
 10
55.7698923563
 20
22.1498636324
 10
55.7574859004
 20
22.1702369801
 10
55.7441565258
 20
22.1899464302
 10
55.7299204124
 20
22.2089787098
 10
55.7147795706
 20
22.2273313954
 10
55.6987425295
 20
22.2449847817
 10
55.6818636052
 20
22.2618701467
 10
55.6642159599
 20
22.2779143355
 10
55.6458677458
 20
22.2930631517
 10
55.6268389642
 20
22.3073075147
 10
55.6071335129
 20
22.3206445608
 10
55.5867641342
 20
22.3330583548
 10
55.5658033962
 20
22.3444975924
 10
55.5443470057
 20
22.3549105731
 10
55.5224704697
 20
22.3642673896
 10
55.5002011484
 20
22.372562972
 10
55.4775660315
 20
22.3797900013
 10
55.4545998493
 20
22.3859365672
 10
55.4313707202
 20
22.390983699
 10
55.4079561982
 20
22.3949172063
 10
55.3844181098
 20
22.3977314995
 10
55.3608015898
 20
22.3994257001
 10
55.3371598831
 20
22.4
  0
LWPOLYLINE
  5
607
100
AcDbEntity
  8
0
100
AcDbPolyline
 62
7
  6
CONTINUOUS
 90
34
 70
0
 10
55.8367792833
 20
-21.9000571132
 10
55.8362128974
 20
-21.9237410878
 10
55.8345241992
 20
-21.9473933418
 10
55.8317139931
 20
-21.9709604604
 10
55.8277846711
 20
-21.9943952787
 10
55.8227425136
 20
-22.0176379945
 10
55.8166006166
 20
-22.040616926
 10
55.8093772783
 20
-22.0632660164
 10
55.8010851747
 20
-22.0855483437
 10
55.7917319058
 20
-22.1074362728
 10
55.7813230204
 20
-22.128901937
 10
55.7698884457
 20
-22.1498704408
 10
55.757479407
 20
-22.1702470916
 10
55.7441471067
 20
-22.1899595484
 10
55.7299077391
 20
-22.2089948433
 10
55.7147640545
 20
-22.2273493156
 10
55.6987250672
 20
-22.2450030625
 10
55.6818451277
 20
-22.2618877998
 10
55.6641975933
 20
-22.2779302489
 10
55.6458513506
 20
-22.2930760043
 10
55.6268261231
 20
-22.3073166777
 10
55.607124309
 20
-22.3206504755
 10
55.5867592636
 20
-22.3330611532
 10
55.565802971
 20
-22.3444978559
 10
55.5443474042
 20
-22.3549103913
 10
55.5224642954
 20
-22.3642698343
 10
55.5001842199
 20
-22.3725688677
 10
55.4775410857
 20
-22.3797973168
 10
55.4545861299
 20
-22.3859398797
 10
55.4313716407
 20
-22.3909836005
 10
55.4079325834
 20
-22.3949205984
 10
55.3843157197
 20
-22.3977410497
 10
55.3605800867
 20
-22.399435965
 10
55.3367792804
 20
-22.4
  0
LINE
  5
608
100
AcDbEntity
  8
RACCORDO
100
AcDbLine
 62
7
  6
CONTINUOUS
 10
40.2897051215
 20
-23.7970741618
 11
40.2867792833
 21
-23.8
  0
LINE
  5
609
100
AcDbEntity
  8
RACCORDO
100
AcDbLine
 62
7
  6
CONTINUOUS
 10
40.2897051215
 20
23.7970741618
 11
40.2867792833
 21
23.8
  0
LWPOLYLINE
  5
60A
100
AcDbEntity
  8
0
100
AcDbPolyline
 62
7
  6
CONTINUOUS
 90
10
 70
0
 43
0.3500000006
 10
64.9367777252
 20
0.4285709152
 10
64.0796352539
 20
1.2857133865
 10
63.2224927826
 20
1.5000001373
 10
62.3653503113
 20
1.5000001373
 10
61.9367813416
 20
1.0714289017
 10
61.9367813416
 20
0.4285709152
 10
62.3653503113
 20
-0.0000003204
 10
63.2224927826
 20
-0.0000003204
 10
63.6510662842
 20
0.4285709152
 10
63.6510662842
 20
1.3571423035
  0
LWPOLYLINE
  5
60B
100
AcDbEntity
  8
0
100
AcDbPolyline
 62
7
  6
CONTINUOUS
 90
10
 70
0
 43
0.3500000006
 10
45.7582075653
 20
33.7500009155
 10
45.8296342163
 20
33.6071430817
 10
45.8296342163
 20
33.5357164307
 10
45.6867809143
 20
33.3928585968
 10
45.6153497314
 20
33.3928585968
 10
45.5439230804
 20
33.4642852478
 10
45.5439230804
 20
33.5357164307
 10
45.6153497314
 20
33.6785697327
 10
45.6867809143
 20
33.7500009155
 10
45.7582075653
 20
33.7500009155
  0
LINE
  5
60C
100
AcDbEntity
  8
RACCORDO
100
AcDbLine
 62
7
  6
CONTINUOUS
 10
40.7186886929
 20
-23.6400757416
 11
40.78969666
 21
-23.5953423515
  0
LINE
  5
60D
100
AcDbEntity
  8
RACCORDO
100
AcDbLine
 62
7
  6
CONTINUOUS
 10
40.6902210995
 20
-23.6577812011
 11
40.7186886929
 21
-23.6400757416
  0
LINE
  5
60E
100
AcDbEntity
  8
RACCORDO
100
AcDbLine
 62
7
  6
CONTINUOUS
 10
40.6618309632
 20
23.6751796798
 11
40.6902210995
 21
23.6577812011
  0
LINE
  5
60F
100
AcDbEntity
  8
RACCORDO
100
AcDbLine
 62
7
  6
CONTINUOUS
 10
40.6902210995
 20
23.6577812011
 11
40.732940468
 21
23.6311538461
  0
LINE
  5
610
100
AcDbEntity
  8
RACCORDO
100
AcDbLine
 62
7
  6
CONTINUOUS
 10
40.732940468
 20
23.6311538461
 11
40.78969666
 21
23.5953423515
  0
LWPOLYLINE
  5
611
100
AcDbEntity
  8
0
100
AcDbPolyline
 62
7
  6
CONTINUOUS
 90
3
 70
0
 43
0.3500000006
 10
64.2939242706
 20
-0.8571427917
 10
64.2939242706
 20
-2.3571432495
 10
61.9367813416
 20
-1.7142852631
  0
LWPOLYLINE
  5
612
100
AcDbEntity
  8
0
100
AcDbPolyline
 62
250
  6
CONTINUOUS
 90
16
 70
0
 10
55.6869073874
 20
-20.5419058565
 10
55.6859433883
 20
-20.5428735511
 10
55.683874038
 20
-20.543839102
 10
55.6807039207
 20
-20.5448003702
 10
55.6764400592
 20
-20.5457552262
 10
55.6710918991
 20
-20.5467015546
 10
55.6646712881
 20
-20.5476372591
 10
55.6571924499
 20
-20.5485602668
 10
55.6486719524
 20
-20.5494685329
 10
55.639128671
 20
-20.5503600453
 10
55.628583747
 20
-20.5512328291
 10
55.6170605406
 20
-20.5520849508
 10
55.6045845793
 20
-20.5529145226
 10
55.5911835012
 20
-20.5537197068
 10
55.5768869938
 20
-20.5544987196
 10
55.5617267282
 20
-20.5552498353
  0
LINE
  5
613
100
AcDbEntity
  8
0
100
AcDbLine
 62
250
  6
CONTINUOUS
 10
33.8118318535
 20
20.555249836
 11
33.8446074825
 21
20.5566617857
  0
LINE
  5
614
100
AcDbEntity
  8
0
100
AcDbLine
 62
250
  6
CONTINUOUS
 10
33.8446074825
 20
20.5566617857
 11
33.8804116936
 21
20.5579430519
  0
LINE
  5
615
100
AcDbEntity
  8
0
100
AcDbLine
 62
250
  6
CONTINUOUS
 10
33.8804116936
 20
20.5579430519
 11
33.9189273926
 21
20.5590822872
  0
LINE
  5
616
100
AcDbEntity
  8
0
100
AcDbLine
 62
250
  6
CONTINUOUS
 10
33.9189273926
 20
20.5590822872
 11
33.9598134713
 21
20.5600694022
  0
LINE
  5
617
100
AcDbEntity
  8
0
100
AcDbLine
 62
250
  6
CONTINUOUS
 10
33.9598134713
 20
20.5600694022
 11
34.0027078287
 21
20.5608956546
  0
LINE
  5
618
100
AcDbEntity
  8
0
100
AcDbLine
 62
250
  6
CONTINUOUS
 10
34.0027078287
 20
20.5608956546
 11
34.0699798459
 21
20.5618178145
  0
LINE
  5
619
100
AcDbEntity
  8
0
100
AcDbLine
 62
250
  6
CONTINUOUS
 10
34.0699798459
 20
20.5618178145
 11
34.1395730852
 21
20.5623435595
  0
LINE
  5
61A
100
AcDbEntity
  8
0
100
AcDbLine
 62
250
  6
CONTINUOUS
 10
55.1869835398
 20
20.5624683248
 11
34.1395730852
 21
20.5623435595
  0
LINE
  5
61B
100
AcDbEntity
  8
0
100
AcDbLine
 62
250
  6
CONTINUOUS
 10
55.2035103104
 20
21.998725222
 11
34.1700482562
 21
21.998725222
  0
LINE
  5
61C
100
AcDbEntity
  8
0
100
AcDbLine
 62
250
  6
CONTINUOUS
 10
55.2573562596
 20
20.5622131686
 11
55.1869835398
 21
20.5624683248
  0
LINE
  5
61D
100
AcDbEntity
  8
0
100
AcDbLine
 62
250
  6
CONTINUOUS
 10
55.3263279729
 20
20.5615537269
 11
55.2573562596
 21
20.5622131686
  0
LINE
  5
61E
100
AcDbEntity
  8
0
100
AcDbLine
 62
250
  6
CONTINUOUS
 10
55.3708507179
 20
20.5608956547
 11
55.3263279729
 21
20.5615537269
  0
LINE
  5
61F
100
AcDbEntity
  8
0
100
AcDbLine
 62
250
  6
CONTINUOUS
 10
55.4137450724
 20
20.5600694024
 11
55.3708507179
 21
20.5608956547
  0
LINE
  5
620
100
AcDbEntity
  8
0
100
AcDbLine
 62
250
  6
CONTINUOUS
 10
55.4546311494
 20
20.5590822876
 11
55.4137450724
 21
20.5600694024
  0
LINE
  5
621
100
AcDbEntity
  8
0
100
AcDbLine
 62
250
  6
CONTINUOUS
 10
55.493146848
 20
20.5579430524
 11
55.4546311494
 21
20.5590822876
  0
LINE
  5
622
100
AcDbEntity
  8
0
100
AcDbLine
 62
250
  6
CONTINUOUS
 10
55.5289510598
 20
20.5566617864
 11
55.493146848
 21
20.5579430524
  0
LWPOLYLINE
  5
623
100
AcDbEntity
  8
0
100
AcDbPolyline
 62
7
  6
CONTINUOUS
 90
10
 70
0
 10
34.0597387641
 20
22.3299228166
 10
34.0565218357
 20
22.3303878868
 10
34.0536664051
 20
22.3308537
 10
34.0511764125
 20
22.3313202563
 10
34.0490554515
 20
22.3317846875
 10
34.0473060392
 20
22.3322498617
 10
34.045930026
 20
22.3327243834
 10
34.0449293732
 20
22.3332111207
 10
34.0443057377
 20
22.3337072056
 10
34.0440600322
 20
22.3342126379
  0
LWPOLYLINE
  5
624
100
AcDbEntity
  8
0
100
AcDbPolyline
 62
250
  6
CONTINUOUS
 90
17
 70
0
 10
55.6869073874
 20
20.5419058565
 10
55.6859433878
 20
20.5428735514
 10
55.6838740364
 20
20.5438391026
 10
55.6807039174
 20
20.544800371
 10
55.6764400537
 20
20.5457552271
 10
55.671091891
 20
20.5467015558
 10
55.6646712771
 20
20.5476372604
 10
55.6571924358
 20
20.5485602682
 10
55.648671935
 20
20.5494685344
 10
55.6391286503
 20
20.5503600469
 10
55.628583723
 20
20.5512328307
 10
55.6170605135
 20
20.5520849524
 10
55.6045845492
 20
20.5529145242
 10
55.5911834683
 20
20.5537197083
 10
55.5768869583
 20
20.5544987211
 10
55.5617266906
 20
20.5552498368
 10
55.5289510598
 20
20.5566617864
  0
LINE
  5
625
100
AcDbEntity
  8
RACCORDO
100
AcDbLine
 62
250
  6
CONTINUOUS
 10
52.9367792833
 20
-24.2500042308
 11
52.949877862
 21
-24.2369056521
  0
LINE
  5
626
100
AcDbEntity
  8
RACCORDO
100
AcDbLine
 62
250
  6
CONTINUOUS
 10
53.1867750525
 20
-24.5
 11
53.1998736313
 21
-24.4869014213
  0
LWPOLYLINE
  5
627
100
AcDbEntity
  8
RACCORDO
100
AcDbPolyline
 62
7
  6
CONTINUOUS
 90
24
 70
0
 10
48.982986597
 20
23.7953389668
 10
48.9721974736
 20
23.7947915649
 10
48.9611100114
 20
23.793363895
 10
48.9497242105
 20
23.7911364879
 10
48.9380154303
 20
23.7881978965
 10
48.9260083113
 20
23.7846238716
 10
48.9137767754
 20
23.7804595132
 10
48.9013280351
 20
23.7757643703
 10
48.8886548779
 20
23.7706018097
 10
48.8758095878
 20
23.7649953104
 10
48.8627964556
 20
23.758990232
 10
48.8496111906
 20
23.7526365647
 10
48.8362932036
 20
23.7459460582
 10
48.8228447166
 20
23.7389542831
 10
48.8092635078
 20
23.7317013921
 10
48.795582323
 20
23.724193673
 10
48.7818022112
 20
23.7164601879
 10
48.7679221235
 20
23.708533951
 10
48.7539716589
 20
23.7004191901
 10
48.7399510583
 20
23.6921405291
 10
48.7258600809
 20
23.6837259593
 10
48.7117276034
 20
23.6751796798
 10
48.6975532853
 20
23.6665232606
 10
48.6691100475
 20
23.6489589663
  0
LINE
  5
628
100
AcDbEntity
  8
RACCORDO
100
AcDbLine
 62
7
  6
CONTINUOUS
 10
55.0795027652
 20
22.3213883311
 11
53.1940558015
 21
22.3213883311
  0
LINE
  5
629
100
AcDbEntity
  8
RACCORDO
100
AcDbLine
 62
7
  6
CONTINUOUS
 10
36.1795027652
 20
22.3213883311
 11
34.2940558015
 21
22.3213883311
  0
LINE
  5
62A
100
AcDbEntity
  8
RACCORDO
100
AcDbLine
 62
7
  6
CONTINUOUS
 10
40.78969666
 20
22.3475922207
 11
48.5838619067
 21
22.3475922207
  0
LINE
  5
62B
100
AcDbEntity
  8
DRAFT
100
AcDbLine
 62
7
  6
CONTINUOUS
 10
36.4367792833
 20
22.4
 11
40.2867792833
 21
22.4
  0
LINE
  5
62C
100
AcDbEntity
  8
DRAFT
100
AcDbLine
 62
7
  6
CONTINUOUS
 10
49.0867792833
 20
22.4
 11
52.9367792833
 21
22.4
  0
LINE
  5
62D
100
AcDbEntity
  8
RACCORDO
100
AcDbLine
 62
7
  6
CONTINUOUS
 10
55.0787755365
 20
23.1226497308
 11
53.1947830302
 21
23.1226497308
  0
LINE
  5
62E
100
AcDbEntity
  8
RACCORDO
100
AcDbLine
 62
7
  6
CONTINUOUS
 10
36.1787755365
 20
23.1226497308
 11
34.2947830302
 21
23.1226497308
  0
LINE
  5
62F
100
AcDbEntity
  8
RACCORDO
100
AcDbLine
 62
250
  6
CONTINUOUS
 10
48.5838619067
 20
23.5953423515
 11
40.78969666
 21
23.5953423515
  0
LINE
  5
630
100
AcDbEntity
  8
RACCORDO
100
AcDbLine
 62
250
  6
CONTINUOUS
 10
34.2998736313
 20
23.6278312164
 11
36.1736849354
 21
23.6278312164
  0
LINE
  5
631
100
AcDbEntity
  8
RACCORDO
100
AcDbLine
 62
250
  6
CONTINUOUS
 10
53.1998736313
 20
23.6278312164
 11
55.0736849354
 21
23.6278312164
  0
LINE
  5
632
100
AcDbEntity
  8
RACCORDO
100
AcDbLine
 62
250
  6
CONTINUOUS
 10
48.982986597
 20
23.7953389668
 11
40.3905719697
 21
23.7953389668
  0
LINE
  5
633
100
AcDbEntity
  8
DRAFT
100
AcDbLine
 62
7
  6
CONTINUOUS
 10
40.2867792833
 20
23.8
 11
49.0867792833
 21
23.8
  0
LINE
  5
634
100
AcDbEntity
  8
RACCORDO
100
AcDbLine
 62
250
  6
CONTINUOUS
 10
34.049877862
 20
23.8443375673
 11
36.4236807046
 21
23.8443375673
  0
LINE
  5
635
100
AcDbEntity
  8
RACCORDO
100
AcDbLine
 62
250
  6
CONTINUOUS
 10
52.949877862
 20
23.8443375673
 11
55.3236807046
 21
23.8443375673
  0
LWPOLYLINE
  5
636
100
AcDbEntity
  8
RACCORDO
100
AcDbPolyline
 62
7
  6
CONTINUOUS
 90
22
 70
0
 10
40.3905719697
 20
23.7953389668
 10
40.4013610931
 20
23.7947915649
 10
40.4124485552
 20
23.793363895
 10
40.4238343561
 20
23.7911364879
 10
40.4355431364
 20
23.7881978965
 10
40.4475502554
 20
23.7846238716
 10
40.4597817913
 20
23.7804595132
 10
40.4722305316
 20
23.7757643703
 10
40.4849036887
 20
23.7706018097
 10
40.4977489789
 20
23.7649953104
 10
40.510762111
 20
23.758990232
 10
40.5239473761
 20
23.7526365647
 10
40.537265363
 20
23.7459460582
 10
40.5507138501
 20
23.7389542831
 10
40.5642950589
 20
23.7317013921
 10
40.5779762437
 20
23.724193673
 10
40.5917563555
 20
23.7164601879
 10
40.6056364432
 20
23.708533951
 10
40.6195869077
 20
23.7004191901
 10
40.6336075083
 20
23.6921405291
 10
40.6476984858
 20
23.6837259593
 10
40.6618309632
 20
23.6751796798
  0
LINE
  5
637
100
AcDbEntity
  8
RACCORDO
100
AcDbLine
 62
250
  6
CONTINUOUS
 10
52.9367792833
 20
24.2500042308
 11
52.949877862
 21
24.2369056521
  0
LINE
  5
638
100
AcDbEntity
  8
RACCORDO
100
AcDbLine
 62
250
  6
CONTINUOUS
 10
53.1867750525
 20
24.5
 11
53.1998736313
 21
24.4869014213
  0
LWPOLYLINE
  5
639
100
AcDbEntity
  8
RACCORDO
100
AcDbPolyline
 62
250
  6
CONTINUOUS
 90
31
 70
0
 10
53.1998736313
 20
24.4869014213
 10
53.1868212913
 20
24.4865600141
 10
53.1737963969
 20
24.4855367515
 10
53.1608346223
 20
24.4838331472
 10
53.1479689036
 20
24.4814520171
 10
53.1352374384
 20
24.4783989037
 10
53.1226832538
 20
24.474683464
 10
53.1103434499
 20
24.4703169129
 10
53.0982490938
 20
24.465310483
 10
53.0864330155
 20
24.4596777344
 10
53.0749274151
 20
24.4534339327
 10
53.0637640967
 20
24.4465962509
 10
53.0529740175
 20
24.4391836209
 10
53.0425868916
 20
24.4312164786
 10
53.0326310545
 20
24.4227165817
 10
53.02313372
 20
24.4137071599
 10
53.0141209009
 20
24.4042128667
 10
53.0056173594
 20
24.3942597633
 10
52.9976464512
 20
24.383875174
 10
52.9902300444
 20
24.3730875837
 10
52.9833884686
 20
24.3619265577
 10
52.9771404894
 20
24.3504227019
 10
52.9715032411
 20
24.3386075563
 10
52.9664921856
 20
24.3265135191
 10
52.9621210706
 20
24.314173763
 10
52.9584018811
 20
24.3016221155
 10
52.9553448199
 20
24.2888930016
 10
52.9529582772
 20
24.2760213619
 10
52.951248794
 20
24.2630425045
 10
52.950221051
 20
24.2499920062
 10
52.949877862
 20
24.2369056521
  0
LWPOLYLINE
  5
63A
100
AcDbEntity
  8
RACCORDO
100
AcDbPolyline
 62
250
  6
CONTINUOUS
 90
31
 70
0
 10
34.2998736313
 20
24.4869014213
 10
34.2867872771
 20
24.4865582323
 10
34.2737367788
 20
24.4855304893
 10
34.2607579214
 20
24.4838210061
 10
34.2478862817
 20
24.4814344634
 10
34.2351571678
 20
24.4783774023
 10
34.2226055204
 20
24.4746582128
 10
34.2102657642
 20
24.4702870977
 10
34.198171727
 20
24.4652760422
 10
34.1863565814
 20
24.4596387939
 10
34.1748527256
 20
24.4533908148
 10
34.1636916996
 20
24.446549239
 10
34.1529041093
 20
24.4391328321
 10
34.14251952
 20
24.4311619239
 10
34.1325664166
 20
24.4226583824
 10
34.1230721235
 20
24.4136455633
 10
34.1140627016
 20
24.4041482289
 10
34.1055628047
 20
24.3941923917
 10
34.0975956625
 20
24.3838052658
 10
34.0901830324
 20
24.3730151866
 10
34.0833453506
 20
24.3618518682
 10
34.077101549
 20
24.3503462678
 10
34.0714688004
 20
24.3385301896
 10
34.0664623705
 20
24.3264358334
 10
34.0620958194
 20
24.3140960295
 10
34.0583803796
 20
24.3015418449
 10
34.0553272662
 20
24.2888103798
 10
34.0529461361
 20
24.275944661
 10
34.0512425319
 20
24.2629828864
 10
34.0502192693
 20
24.249957992
 10
34.049877862
 20
24.2369056521
  0
LWPOLYLINE
  5
63B
100
AcDbEntity
  8
RACCORDO
100
AcDbPolyline
 62
7
  6
CONTINUOUS
 90
34
 70
0
 10
53.1867750525
 20
24.5
 10
53.1748797673
 20
24.4997168498
 10
53.1630114278
 20
24.4988680342
 10
53.1511969172
 20
24.4974554741
 10
53.1394629958
 20
24.4954823677
 10
53.1278362445
 20
24.4929531817
 10
53.1163430043
 20
24.4898736417
 10
53.1050093096
 20
24.4862507213
 10
53.093860834
 20
24.4820926258
 10
53.082922837
 20
24.4774087722
 10
53.0722200957
 20
24.4722097688
 10
53.0617768551
 20
24.4665073916
 10
53.0516167774
 20
24.4603145581
 10
53.0417628782
 20
24.4536452955
 10
53.0322374795
 20
24.4465147107
 10
53.0230621643
 20
24.4389389589
 10
53.0142577172
 20
24.4309352005
 10
53.0058440828
 20
24.4225215661
 10
52.9978403245
 20
24.4137171191
 10
52.9902645726
 20
24.4045418038
 10
52.9831339879
 20
24.3950164051
 10
52.9764647252
 20
24.3851625059
 10
52.9702718917
 20
24.3750024283
 10
52.9645695145
 20
24.3645591876
 10
52.9593705112
 20
24.3538564463
 10
52.9546866576
 20
24.3429184493
 10
52.950528562
 20
24.3317699738
 10
52.9469056416
 20
24.320436279
 10
52.9438261016
 20
24.3089430388
 10
52.9412969156
 20
24.2973162875
 10
52.9393238092
 20
24.2855823661
 10
52.9379112491
 20
24.2737678556
 10
52.9370624336
 20
24.261899516
 10
52.9367792833
 20
24.2500042308
  0
LWPOLYLINE
  5
63C
100
AcDbEntity
  8
RACCORDO
100
AcDbPolyline
 62
7
  6
CONTINUOUS
 90
34
 70
0
 10
34.2867750525
 20
24.5
 10
34.2748797673
 20
24.4997168498
 10
34.2630114278
 20
24.4988680342
 10
34.2511969172
 20
24.4974554741
 10
34.2394629958
 20
24.4954823677
 10
34.2278362445
 20
24.4929531817
 10
34.2163430043
 20
24.4898736417
 10
34.2050093096
 20
24.4862507213
 10
34.193860834
 20
24.4820926258
 10
34.182922837
 20
24.4774087722
 10
34.1722200957
 20
24.4722097688
 10
34.1617768551
 20
24.4665073916
 10
34.1516167774
 20
24.4603145581
 10
34.1417628782
 20
24.4536452955
 10
34.1322374795
 20
24.4465147107
 10
34.1230621643
 20
24.4389389589
 10
34.1142577172
 20
24.4309352005
 10
34.1058440828
 20
24.4225215661
 10
34.0978403245
 20
24.4137171191
 10
34.0902645726
 20
24.4045418038
 10
34.0831339879
 20
24.3950164051
 10
34.0764647252
 20
24.3851625059
 10
34.0702718917
 20
24.3750024283
 10
34.0645695145
 20
24.3645591876
 10
34.0593705112
 20
24.3538564463
 10
34.0546866576
 20
24.3429184493
 10
34.050528562
 20
24.3317699738
 10
34.0469056416
 20
24.320436279
 10
34.0438261016
 20
24.3089430388
 10
34.0412969156
 20
24.2973162875
 10
34.0393238092
 20
24.2855823661
 10
34.0379112491
 20
24.2737678556
 10
34.0370624336
 20
24.261899516
 10
34.0367792833
 20
24.2500042308
  0
LINE
  5
63D
100
AcDbEntity
  8
RACCORDO
100
AcDbLine
 62
250
  6
CONTINUOUS
 10
34.049877862
 20
24.2369056521
 11
36.4236807046
 21
24.2369056521
  0
LINE
  5
63E
100
AcDbEntity
  8
RACCORDO
100
AcDbLine
 62
250
  6
CONTINUOUS
 10
52.949877862
 20
24.2369056521
 11
55.3236807046
 21
24.2369056521
  0
LINE
  5
63F
100
AcDbEntity
  8
RACCORDO
100
AcDbLine
 62
250
  6
CONTINUOUS
 10
55.0736849354
 20
24.4869014213
 11
53.1998736313
 21
24.4869014213
  0
LINE
  5
640
100
AcDbEntity
  8
RACCORDO
100
AcDbLine
 62
250
  6
CONTINUOUS
 10
36.1736849354
 20
24.4869014213
 11
34.2998736313
 21
24.4869014213
  0
LINE
  5
641
100
AcDbEntity
  8
RACCORDO
100
AcDbLine
 62
7
  6
CONTINUOUS
 10
34.2867750525
 20
24.5
 11
36.1867835141
 21
24.5
  0
LINE
  5
642
100
AcDbEntity
  8
RACCORDO
100
AcDbLine
 62
7
  6
CONTINUOUS
 10
53.1867750525
 20
24.5
 11
55.0867835141
 21
24.5
  0
LWPOLYLINE
  5
643
100
AcDbEntity
  8
0
100
AcDbPolyline
 62
7
  6
CONTINUOUS
 90
7
 70
0
 43
0.3500000006
 10
44.2582071075
 20
33.2500007629
 10
42.7582066498
 20
33.2500007629
 10
44.2582071075
 20
35.3928592072
 10
44.2582071075
 20
35.8214281769
 10
43.8296381378
 20
36.2500016785
 10
43.1867801514
 20
36.2500016785
 10
42.7582066498
 20
35.607143692
  0
LWPOLYLINE
  5
644
100
AcDbEntity
  8
0
100
AcDbPolyline
 62
7
  6
CONTINUOUS
 90
7
 70
0
 43
0.3500000006
 10
41.9010641785
 20
33.2500007629
 10
40.4010637207
 20
33.2500007629
 10
41.9010641785
 20
35.3928592072
 10
41.9010641785
 20
35.8214281769
 10
41.4724952087
 20
36.2500016785
 10
40.8296372223
 20
36.2500016785
 10
40.4010637207
 20
35.607143692
  0
LWPOLYLINE
  5
645
100
AcDbEntity
  8
0
100
AcDbPolyline
 62
7
  6
CONTINUOUS
 90
6
 70
0
 43
0.3500000006
 10
46.8296345215
 20
33.2500007629
 10
47.9010660095
 20
33.2500007629
 10
48.1153504944
 20
33.4642852478
 10
48.1153504944
 20
34.535712204
 10
47.6867815247
 20
34.9642857056
 10
47.2582080231
 20
34.9642857056
  0
ARC
  5
646
100
AcDbEntity
  8
0
100
AcDbCircle
 62
7
  6
CONTINUOUS
 10
-18.5612351546
 20
-20.5007809198
 40
1.5
100
AcDbArc
 50
182.3569499908
 51
267.0
  0
ARC
  5
647
100
AcDbEntity
  8
ASSI
100
AcDbCircle
 62
7
  6
CONTINUOUS
 10
-3.4829602001
 20
-23.2563578147
 40
0.5
100
AcDbArc
 50
270.3333333333
 51
360.0
  0
ARC
  5
648
100
AcDbEntity
  8
RACCORDO
100
AcDbCircle
 62
7
  6
CONTINUOUS
 10
-10.2329602001
 20
-24.2456323968
 40
0.25
100
AcDbArc
 50
270.3333333333
 51
360.0
  0
ARC
  5
649
100
AcDbEntity
  8
RACCORDO
100
AcDbCircle
 62
7
  6
CONTINUOUS
 10
-10.2329602001
 20
-23.8443375673
 40
0.25
100
AcDbArc
 50
0.0
 51
60.0
  0
ARC
  5
64A
100
AcDbEntity
  8
RACCORDO
100
AcDbCircle
 62
7
  6
CONTINUOUS
 10
-13.2329602001
 20
-24.2369056521
 40
0.25
100
AcDbArc
 50
180.0
 51
269.6666666667
  0
ARC
  5
64B
100
AcDbEntity
  8
RACCORDO
100
AcDbCircle
 62
7
  6
CONTINUOUS
 10
-13.2329602001
 20
-23.8443375673
 40
0.25
100
AcDbArc
 50
120.0
 51
180.0
  0
ARC
  5
64C
100
AcDbEntity
  8
RACCORDO
100
AcDbCircle
 62
7
  6
CONTINUOUS
 10
-0.5829602001
 20
-21.3092024966
 40
1.0
100
AcDbArc
 50
270.5
 51
360.0
  0
ARC
  5
64D
100
AcDbEntity
  8
CORPO
100
AcDbCircle
 62
7
  6
CONTINUOUS
 10
14.5170397999
 20
-18.3664559318
 40
1.0
100
AcDbArc
 50
271.0
 51
360.0
  0
ARC
  5
64E
100
AcDbEntity
  8
ASSI
100
AcDbCircle
 62
7
  6
CONTINUOUS
 10
14.5170397999
 20
-18.3664559318
 40
1.0
100
AcDbArc
 50
271.0
 51
360.0
  0
ARC
  5
64F
100
AcDbEntity
  8
CORPO
100
AcDbCircle
 62
7
  6
CONTINUOUS
 10
15.8170397999
 20
-15.3748993522
 40
0.3
100
AcDbArc
 50
95.0
 51
172.7722917185
  0
ARC
  5
650
100
AcDbEntity
  8
ASSI
100
AcDbCircle
 62
7
  6
CONTINUOUS
 10
15.8170397999
 20
-15.3748993522
 40
0.3
100
AcDbArc
 50
95.0
 51
180.0
  0
ARC
  5
651
100
AcDbEntity
  8
CORPO
100
AcDbCircle
 62
7
  6
CONTINUOUS
 10
15.8170397999
 20
-8.6251006478
 40
0.3
100
AcDbArc
 50
180.0
 51
265.0
  0
ARC
  5
652
100
AcDbEntity
  8
ASSI
100
AcDbCircle
 62
7
  6
CONTINUOUS
 10
15.8170397999
 20
-8.6251006478
 40
0.3
100
AcDbArc
 50
180.0
 51
265.0
  0
ARC
  5
653
100
AcDbEntity
  8
CORPO
100
AcDbCircle
 62
7
  6
CONTINUOUS
 10
17.2170397999
 20
-14.6501233207
 40
0.3
100
AcDbArc
 50
275.0
 51
360.0
  0
ARC
  5
654
100
AcDbEntity
  8
ASSI
100
AcDbCircle
 62
7
  6
CONTINUOUS
 10
17.2170397999
 20
-14.6501233207
 40
0.3
100
AcDbArc
 50
275.0
 51
360.0
  0
ARC
  5
655
100
AcDbEntity
  8
CORPO
100
AcDbCircle
 62
7
  6
CONTINUOUS
 10
17.2170397999
 20
-9.3498766793
 40
0.3
100
AcDbArc
 50
0.0
 51
85.0
  0
ARC
  5
656
100
AcDbEntity
  8
ASSI
100
AcDbCircle
 62
7
  6
CONTINUOUS
 10
17.2170397999
 20
-9.3498766793
 40
0.3
100
AcDbArc
 50
0.0
 51
85.0
  0
ARC
  5
657
100
AcDbEntity
  8
0
100
AcDbCircle
 62
7
  6
CONTINUOUS
 10
-18.5612351546
 20
20.5007809198
 40
1.5
100
AcDbArc
 50
93.0
 51
177.6430500092
  0
ARC
  5
658
100
AcDbEntity
  8
ASSI
100
AcDbCircle
 62
7
  6
CONTINUOUS
 10
-3.4829602001
 20
23.2563578147
 40
0.5
100
AcDbArc
 50
0.0
 51
89.6666666667
  0
ARC
  5
659
100
AcDbEntity
  8
RACCORDO
100
AcDbCircle
 62
7
  6
CONTINUOUS
 10
-13.2329602001
 20
24.2369056521
 40
0.25
100
AcDbArc
 50
90.3333333333
 51
180.0
  0
ARC
  5
65A
100
AcDbEntity
  8
RACCORDO
100
AcDbCircle
 62
7
  6
CONTINUOUS
 10
-10.2329602001
 20
24.2456323968
 40
0.25
100
AcDbArc
 50
0.0
 51
89.6666666667
  0
ARC
  5
65B
100
AcDbEntity
  8
RACCORDO
100
AcDbCircle
 62
7
  6
CONTINUOUS
 10
-13.2329602001
 20
23.8443375673
 40
0.25
100
AcDbArc
 50
180.0
 51
240.0
  0
ARC
  5
65C
100
AcDbEntity
  8
CORPO
100
AcDbCircle
 62
7
  6
CONTINUOUS
 10
15.8170397999
 20
8.6251006478
 40
0.3
100
AcDbArc
 50
95.0
 51
172.7722917185
  0
ARC
  5
65D
100
AcDbEntity
  8
ASSI
100
AcDbCircle
 62
7
  6
CONTINUOUS
 10
15.8170397999
 20
8.6251006478
 40
0.3
100
AcDbArc
 50
95.0
 51
180.0
  0
ARC
  5
65E
100
AcDbEntity
  8
CORPO
100
AcDbCircle
 62
7
  6
CONTINUOUS
 10
15.8170397999
 20
15.3748993522
 40
0.3
100
AcDbArc
 50
180.0
 51
265.0
  0
ARC
  5
65F
100
AcDbEntity
  8
ASSI
100
AcDbCircle
 62
7
  6
CONTINUOUS
 10
15.8170397999
 20
15.3748993522
 40
0.3
100
AcDbArc
 50
180.0
 51
265.0
  0
ARC
  5
660
100
AcDbEntity
  8
CORPO
100
AcDbCircle
 62
7
  6
CONTINUOUS
 10
17.2170397999
 20
9.3498766793
 40
0.3
100
AcDbArc
 50
275.0
 51
360.0
  0
ARC
  5
661
100
AcDbEntity
  8
ASSI
100
AcDbCircle
 62
7
  6
CONTINUOUS
 10
17.2170397999
 20
9.3498766793
 40
0.3
100
AcDbArc
 50
275.0
 51
360.0
  0
ARC
  5
662
100
AcDbEntity
  8
CORPO
100
AcDbCircle
 62
7
  6
CONTINUOUS
 10
17.2170397999
 20
14.6501233207
 40
0.3
100
AcDbArc
 50
0.0
 51
85.0
  0
ARC
  5
663
100
AcDbEntity
  8
ASSI
100
AcDbCircle
 62
7
  6
CONTINUOUS
 10
17.2170397999
 20
14.6501233207
 40
0.3
100
AcDbArc
 50
0.0
 51
85.0
  0
ARC
  5
664
100
AcDbEntity
  8
RACCORDO
100
AcDbCircle
 62
7
  6
CONTINUOUS
 10
-0.5829602001
 20
21.3092024966
 40
1.0
100
AcDbArc
 50
0.0
 51
89.5
  0
ARC
  5
665
100
AcDbEntity
  8
CORPO
100
AcDbCircle
 62
7
  6
CONTINUOUS
 10
14.5170397999
 20
18.3664559318
 40
1.0
100
AcDbArc
 50
0.0
 51
89.0
  0
ARC
  5
666
100
AcDbEntity
  8
ASSI
100
AcDbCircle
 62
7
  6
CONTINUOUS
 10
14.5170397999
 20
18.3664559318
 40
1.0
100
AcDbArc
 50
0.0
 51
89.0
  0
ARC
  5
667
100
AcDbEntity
  8
0
100
AcDbCircle
 62
7
  6
CONTINUOUS
 10
479.5170397999
 20
-0.0
 40
500.0
100
AcDbArc
 50
177.6430500092
 51
182.3569499908
  0
ELLIPSE
  5
668
100
AcDbEntity
  8
RACCORDO
100
AcDbEllipse
 62
7
  6
CONTINUOUS
 10
-0.0829602001
 20
-21.9383572696
 30
0.0
 11
0.3546425507
 21
0.3568377408
 31
0.0
 40
0.9877342685
 41
-0.2457216308
 42
0.7710302454
  0
ELLIPSE
  5
669
100
AcDbEntity
  8
RACCORDO
100
AcDbEllipse
 62
7
  6
CONTINUOUS
 10
-0.0829602001
 20
21.9383572696
 30
0.0
 11
-0.3546425507
 21
0.3568377408
 31
0.0
 40
0.9877342685
 41
-3.912622899
 42
-2.8958710228
  0
ELLIPSE
  5
66A
100
AcDbEntity
  8
CURVE
100
AcDbEllipse
 62
250
  6
CONTINUOUS
 10
-5.9937172001
 20
-4.600289
 30
0.0
 11
0.0
 21
0.8893898871
 31
0.0
 40
1.0
 41
-1.1721130604
 42
1.5707963268
  0
ELLIPSE
  5
66B
100
AcDbEntity
  8
CURVE
100
AcDbEllipse
 62
250
  6
CONTINUOUS
 10
-5.9937172001
 20
-4.680795
 30
0.0
 11
0.352865
 21
-0.0
 31
0.0
 40
1.0
 41
0.0
 42
3.1415926536
  0
ELLIPSE
  5
66C
100
AcDbEntity
  8
0
100
AcDbEllipse
 62
250
  6
CONTINUOUS
 10
4.0664117999
 20
-3.1353
 30
0.0
 11
0.0
 21
0.14051
 31
0.0
 40
1.0
 41
0.0
 42
6.2831853072
  0
ELLIPSE
  5
66D
100
AcDbEntity
  8
0
100
AcDbEllipse
 62
250
  6
CONTINUOUS
 10
4.0664117999
 20
-3.1353
 30
0.0
 11
0.0
 21
0.317592
 31
0.0
 40
1.0
 41
0.0
 42
6.2831853072
  0
ELLIPSE
  5
66E
100
AcDbEntity
  8
0
100
AcDbEllipse
 62
250
  6
CONTINUOUS
 10
0.7208577999
 20
-2.710087
 30
0.0
 11
0.192582
 21
-0.0
 31
0.0
 40
1.0
 41
0.0
 42
6.2831853072
  0
ELLIPSE
  5
66F
100
AcDbEntity
  8
0
100
AcDbEllipse
 62
250
  6
CONTINUOUS
 10
4.4805055509
 20
-9.0900793878
 30
0.0
 11
0.0
 21
1.7850001745
 31
0.0
 40
0.9996954135
 41
1.427448772
 42
2.9256321763
  0
ELLIPSE
  5
670
100
AcDbEntity
  8
0
100
AcDbEllipse
 62
250
  6
CONTINUOUS
 10
4.4805055509
 20
-9.0900793878
 30
0.0
 11
0.0
 21
1.7849997292
 31
0.0
 40
0.9996954135
 41
-2.9256321216
 42
-1.427448736
  0
ELLIPSE
  5
671
100
AcDbEntity
  8
0
100
AcDbEllipse
 62
250
  6
CONTINUOUS
 10
4.4805055509
 20
-13.4250793878
 30
0.0
 11
0.0
 21
2.5500000352
 31
0.0
 40
0.9996954135
 41
1.470628907
 42
4.8125564002
  0
ELLIPSE
  5
672
100
AcDbEntity
  8
0
100
AcDbEllipse
 62
250
  6
CONTINUOUS
 10
4.4805055509
 20
-13.4250793878
 30
0.0
 11
-0.0
 21
1.7850001745
 31
0.0
 40
0.9996954135
 41
1.427448772
 42
4.8557365352
  0
ELLIPSE
  5
673
100
AcDbEntity
  8
0
100
AcDbEllipse
 62
250
  6
CONTINUOUS
 10
4.4805055509
 20
-9.0900793878
 30
0.0
 11
0.0
 21
2.5500000352
 31
0.0
 40
0.9996954135
 41
1.470628907
 42
4.8125564002
  0
ELLIPSE
  5
674
100
AcDbEntity
  8
RACCORDO
100
AcDbEllipse
 62
7
  6
CONTINUOUS
 10
40.78969666
 20
-22.3737961104
 30
0.0
 11
0.5
 21
0.0
 31
0.0
 40
0.0524077793
 41
1.5707963268
 42
3.1357748894
  0
ELLIPSE
  5
675
100
AcDbEntity
  8
RACCORDO
100
AcDbEllipse
 62
7
  6
CONTINUOUS
 10
40.78969666
 20
-23.7970910851
 30
0.0
 11
0.5
 21
-0.0
 31
0.0
 40
0.0058178298
 41
2.495179495
 42
3.1357748894
  0
ELLIPSE
  5
676
100
AcDbEntity
  8
RACCORDO
100
AcDbEllipse
 62
7
  6
CONTINUOUS
 10
48.5838619067
 20
-23.7970910851
 30
0.0
 11
0.5
 21
0.0
 31
0.0
 40
0.0058178298
 41
0.0058177642
 42
0.6464131586
  0
ELLIPSE
  5
677
100
AcDbEntity
  8
RACCORDO
100
AcDbEllipse
 62
7
  6
CONTINUOUS
 10
48.5838619067
 20
-22.3737961104
 30
0.0
 11
0.5
 21
-0.0
 31
0.0
 40
0.0524077793
 41
0.0058177642
 42
1.5707963268
  0
ELLIPSE
  5
678
100
AcDbEntity
  8
RACCORDO
100
AcDbEllipse
 62
7
  6
CONTINUOUS
 10
40.78969666
 20
23.7970910851
 30
0.0
 11
0.5
 21
0.0
 31
0.0
 40
0.0058178298
 41
-3.1357748894
 42
-2.495179495
  0
ELLIPSE
  5
679
100
AcDbEntity
  8
RACCORDO
100
AcDbEllipse
 62
7
  6
CONTINUOUS
 10
40.78969666
 20
22.3737961104
 30
0.0
 11
0.5
 21
0.0
 31
0.0
 40
0.0524077793
 41
-3.1357748894
 42
-1.5707963268
  0
ELLIPSE
  5
67A
100
AcDbEntity
  8
RACCORDO
100
AcDbEllipse
 62
7
  6
CONTINUOUS
 10
48.5838619067
 20
22.3737961104
 30
0.0
 11
0.5
 21
0.0
 31
0.0
 40
0.0524077793
 41
-1.5707963268
 42
-0.0058177642
  0
ELLIPSE
  5
67B
100
AcDbEntity
  8
RACCORDO
100
AcDbEllipse
 62
7
  6
CONTINUOUS
 10
48.5838619067
 20
23.7970910851
 30
0.0
 11
0.5
 21
0.0
 31
0.0
 40
0.0058178298
 41
-0.6464131586
 42
-0.0058177642
  0
ELLIPSE
  5
67C
100
AcDbEntity
  8
0
100
AcDbEllipse
 62
7
  6
CONTINUOUS
 10
34.2940558015
 20
22.3344902759
 30
0.0
 11
0.25
 21
-0.0
 31
0.0
 40
0.0524077793
 41
-2.7855057835
 42
-1.5707963268
  0
ELLIPSE
  5
67D
100
AcDbEntity
  8
RACCORDO
100
AcDbEllipse
 62
7
  6
CONTINUOUS
 10
36.1795027652
 20
22.3344902759
 30
0.0
 11
0.25
 21
0.0
 31
0.0
 40
0.0524077793
 41
-1.5707963268
 42
-0.0058177642
  0
ELLIPSE
  5
67E
100
AcDbEntity
  8
RACCORDO
100
AcDbEllipse
 62
7
  6
CONTINUOUS
 10
53.1940558015
 20
22.3344902759
 30
0.0
 11
0.25
 21
0.0
 31
0.0
 40
0.0524077793
 41
-3.1357748894
 42
-1.5707963268
  0
ELLIPSE
  5
67F
100
AcDbEntity
  8
0
100
AcDbEllipse
 62
7
  6
CONTINUOUS
 10
55.0795027652
 20
22.3344902759
 30
0.0
 11
0.25
 21
-0.0
 31
0.0
 40
0.0524077793
 41
-1.5707963268
 42
-0.35608687
  0
ELLIPSE
  5
680
100
AcDbEntity
  8
0
100
AcDbEllipse
 62
7
  6
CONTINUOUS
 10
34.2940558015
 20
-22.3344902759
 30
0.0
 11
0.25
 21
0.0
 31
0.0
 40
0.0524077793
 41
1.5707963268
 42
2.7855057835
  0
ELLIPSE
  5
681
100
AcDbEntity
  8
RACCORDO
100
AcDbEllipse
 62
7
  6
CONTINUOUS
 10
36.1795027652
 20
-22.3344902759
 30
0.0
 11
0.25
 21
0.0
 31
0.0
 40
0.0524077793
 41
0.0058177642
 42
1.5707963268
  0
ELLIPSE
  5
682
100
AcDbEntity
  8
RACCORDO
100
AcDbEllipse
 62
7
  6
CONTINUOUS
 10
53.1940558015
 20
-22.3344902759
 30
0.0
 11
0.25
 21
0.0
 31
0.0
 40
0.0524077793
 41
1.5707963268
 42
3.1357748894
  0
ELLIPSE
  5
683
100
AcDbEntity
  8
0
100
AcDbEllipse
 62
7
  6
CONTINUOUS
 10
55.0795027652
 20
-22.3344902759
 30
0.0
 11
0.25
 21
0.0
 31
0.0
 40
0.0524077793
 41
0.35608687
 42
1.5707963268
  0
ENDSEC
  0
SECTION
  2
OBJECTS
  0
DICTIONARY
  5
C
100
AcDbDictionary
280
0
281
1
  3
ACAD_GROUP
350
D
  3
ACAD_MLINESTYLE
350
17
  3
ACAD_LAYOUT
350
1A
  3
ACAD_PLOTSETTINGS
350
19
  3
ACAD_PLOTSTYLENAME
350
E
  0
DICTIONARY
  5
D
102
{ACAD_REACTORS
330
C
102
}
100
AcDbDictionary
280
0
281
1
  0
ACDBDICTIONARYWDFLT
  5
E
102
{ACAD_REACTORS
330
C
102
}
100
AcDbDictionary
281
1
  3
Normal
350
F
100
AcDbDictionaryWithDefault
340
F
  0
DICTIONARY
  5
17
102
{ACAD_REACTORS
330
C
102
}
100
AcDbDictionary
280
0
281
1
  3
Standard
350
18
  0
DICTIONARY
  5
19
102
{ACAD_REACTORS
330
C
102
}
100
AcDbDictionary
281
1
  0
DICTIONARY
  5
1A
102
{ACAD_REACTORS
330
C
102
}
100
AcDbDictionary
281
1
  3
Model
350
684
  3
Layout1
350
685
  0
ACDBPLACEHOLDER
  5
F
102
{ACAD_REACTORS
330
E
102
}
  0
MLINESTYLE
  5
18
102
{ACAD_REACTORS
330
17
102
}
100
AcDbMlineStyle
  2
STANDARD
 70
0
  3

 62
256
 51
90.0
 52
90.0
 71
2
 49
0.5
 62
256
  6
BYLAYER
 49
-0.5
 62
256
  6
BYLAYER
  0
LAYOUT
  5
684
102
{ACAD_REACTORS
330
1A
102
}
100
AcDbPlotSettings
  1

  2
none_device
  4
ISO_A4_(297.00_x_210.00_MM)
  6

 40
0.0
 41
0.0
 42
0.0
 43
0.0
 44
297.0
 45
210.0
 46
0.0
 47
0.0
 48
0.0
 49
0.0
140
0.0
141
0.0
142
1.0
143
1.0
 70
1024
 72
1
 73
0
 74
0
  7

 75
0
147
1.0
148
0.0
149
0.0
100
AcDbLayout
  1
Model
 70
0
 71
0
 10
0.0
 20
0.0
 11
297.0
 21
210.0
 12
0.0
 22
0.0
 32
0.0
 14
0.0
 24
0.0
 34
0.0
 15
0.0
 25
0.0
 35
0.0
146
0.0
 13
0.0
 23
0.0
 33
0.0
 16
1.0
 26
0.0
 36
0.0
 17
0.0
 27
1.0
 37
0.0
 76
0
330
216
345
0
346
0
  0
LAYOUT
  5
685
102
{ACAD_REACTORS
330
1A
102
}
100
AcDbPlotSettings
  1

  2
none_device
  4
ISO_A4_(297.00_x_210.00_MM)
  6

 40
0.0
 41
0.0
 42
0.0
 43
0.0
 44
297.0
 45
210.0
 46
0.0
 47
0.0
 48
0.0
 49
0.0
140
0.0
141
0.0
142
1.0
143
1.0
 70
0
 72
1
 73
0
 74
0
  7

 75
0
147
1.0
148
0.0
149
0.0
100
AcDbLayout
  1
Layout1
 70
0
 71
1
 10
0.0
 20
0.0
 11
297.0
 21
210.0
 12
0.0
 22
0.0
 32
0.0
 14
0.0
 24
0.0
 34
0.0
 15
0.0
 25
0.0
 35
0.0
146
0.0
 13
0.0
 23
0.0
 33
0.0
 16
1.0
 26
0.0
 36
0.0
 17
0.0
 27
1.0
 37
0.0
 76
0
330
217
345
0
346
0
  0
ENDSEC
  0
EOF
