  0
SECTION
  2
HEADER
  9
$ACADVER
  1
AC1024
  9
$DWGCODEPAGE
  3
ANSI_1252
  9
$EXTMAX
 10
297.0
 20
210.0
 30
0.0
  9
$EXTMIN
 10
0.0
 20
0.0
 30
0.0
  9
$LIMMIN
 10
0.0
 20
0.0
  9
$LIMMAX
 10
297.0
 20
210.0
  9
$VIEWCTR
 10
148.5
 20
105.0
  9
$VIEWSIZE
 40
210.0
  9
$CLAYER
  8
0
  9
$LTSCALE
 40
16.335
  9
$CELTYPE
  6
BYLAYER
  9
$DIMSCALE
 40
1.0
  9
$DIMASZ
 40
3.0
  9
$DIMEXO
 40
0.5
  9
$DIMDLI
 40
11.286
  9
$DIMEXE
 40
1.5
  9
$DIMCEN
 40
2.673
  9
$DIMLFAC
 40
1.0
  9
$DIMBLK
  1
_FILLED
  9
$DIMALT
 70
0
  9
$DIMALTF
 40
0.0393700787
  9
$DIMTXT
 40
3.0
  9
$DIMTOL
 70
1
  9
$DIMLIM
 70
0
  9
$DIMTFAC
 40
1.0
  9
$DIMTP
 40
0.01
  9
$DIMTM
 40
0.01
  9
$DIMGAP
 40
0.625
  9
$DIMDSEP
 70
44
  9
$AUNITS
 70
0
  9
$PDMODE
 70
3
  9
$PDSIZE
 40
3.0
  9
$HANDSEED
  5
783
  9
$TILEMODE
 70
1
  9
$MEASUREMENT
 70
1
  9
$INSUNITS
 70
4
  0
ENDSEC
  0
SECTION
  2
CLASSES
  0
CLASS
  1
ACDBDICTIONARYWDFLT
  2
AcDbDictionaryWithDefault
  3
AutoCAD 2000
 90
0
 91
1
280
0
281
0
  0
CLASS
  1
ACDBPLACEHOLDER
  2
AcDbPlaceHolder
  3
AutoCAD 2000
 90
0
 91
1
280
0
281
0
  0
CLASS
  1
LAYOUT
  2
AcDbLayout
  3
AutoCAD 2000
 90
0
 91
0
280
0
281
0
  0
ENDSEC
  0
SECTION
  2
TABLES
  0
TABLE
  2
VPORT
  5
8
100
AcDbSymbolTable
 70
2
  0
VPORT
  5
1F4
100
AcDbSymbolTableRecord
100
AcDbViewportTableRecord
  2
*ACTIVE
 70
0
 10
0.0
 20
0.0
 11
1.0
 21
1.0
 12
148.5
 22
105.0
 13
0.0
 23
0.0
 14
1.0
 24
1.0
 15
0.0
 25
0.0
 16
0.0
 26
0.0
 36
1.0
 17
0.0
 27
0.0
 37
0.0
 40
210.0
 41
1.4142857143
 42
50.0
 43
0.0
 44
0.0
 50
0.0
 51
0.0
 71
0
 72
100
 73
1
 74
1
 75
0
 76
0
 77
0
 78
0
  0
ENDTAB
  0
TABLE
  2
LTYPE
  5
5
100
AcDbSymbolTable
 70
6
  0
LTYPE
  5
14
100
AcDbSymbolTableRecord
100
AcDbLinetypeTableRecord
  2
BYBLOCK
 70
0
  3

 72
65
 73
0
 40
0.0
  0
LTYPE
  5
15
100
AcDbSymbolTableRecord
100
AcDbLinetypeTableRecord
  2
BYLAYER
 70
0
  3

 72
65
 73
0
 40
0.0
  0
LTYPE
  5
16
100
AcDbSymbolTableRecord
100
AcDbLinetypeTableRecord
  2
CONTINUOUS
 70
64
  3
Solid line
 72
65
 73
0
 40
0.0
  0
LTYPE
  5
1F5
100
AcDbSymbolTableRecord
100
AcDbLinetypeTableRecord
  2
CENTER
 70
64
  3
____ _ ____ _ ____ _ ____ _ ____ _ ____ _ ____
 72
65
 73
4
 40
0.6
 49
0.375
 74
0
 49
-0.075
 74
0
 49
0.075
 74
0
 49
-0.075
 74
0
  0
LTYPE
  5
1F6
100
AcDbSymbolTableRecord
100
AcDbLinetypeTableRecord
  2
HIDDEN
 70
64
  3
- - - - - - - - - - - - - - - - - - - -
 72
65
 73
2
 40
0.2
 49
0.1
 74
0
 49
-0.1
 74
0
  0
LTYPE
  5
1F7
100
AcDbSymbolTableRecord
100
AcDbLinetypeTableRecord
  2
PHANTOM
 70
64
  3
_____ _ _ _____ _ _ _____ _ _ _____
 72
65
 73
6
 40
0.8
 49
0.45
 74
0
 49
-0.05
 74
0
 49
0.1
 74
0
 49
-0.05
 74
0
 49
0.1
 74
0
 49
-0.05
 74
0
  0
LTYPE
  5
1F8
100
AcDbSymbolTableRecord
100
AcDbLinetypeTableRecord
  2
DOT
 70
64
  3
. . . . . . . . . . . . . . . . . . . .
 72
65
 73
2
 40
0.2
 49
0.1
 74
0
 49
-0.1
 74
0
  0
LTYPE
  5
1F9
100
AcDbSymbolTableRecord
100
AcDbLinetypeTableRecord
  2
DASHED
 70
64
  3
- - - - - - - - - - - - - - - - - - - -
 72
65
 73
2
 40
0.2
 49
0.1
 74
0
 49
-0.1
 74
0
  0
ENDTAB
  0
TABLE
  2
LAYER
  5
2
100
AcDbSymbolTable
 70
36
  0
LAYER
  5
10
100
AcDbSymbolTableRecord
100
AcDbLayerTableRecord
  2
0
 70
0
 62
7
  6
CONTINUOUS
370
-3
390
F
  0
LAYER
  5
1FA
100
AcDbSymbolTableRecord
100
AcDbLayerTableRecord
  2
DEFAULT_1
 70
0
 62
7
  6
CENTER
370
-3
390
F
  0
LAYER
  5
1FB
100
AcDbSymbolTableRecord
100
AcDbLayerTableRecord
  2
DEFAULT_2
 70
0
 62
7
  6
HIDDEN
370
-3
390
F
  0
LAYER
  5
1FC
100
AcDbSymbolTableRecord
100
AcDbLayerTableRecord
  2
DEFAULT_3
 70
0
 62
7
  6
PHANTOM
370
-3
390
F
  0
LAYER
  5
1FD
100
AcDbSymbolTableRecord
100
AcDbLayerTableRecord
  2
ASSI
 70
0
 62
7
  6
CONTINUOUS
370
-3
390
F
  0
LAYER
  5
1FE
100
AcDbSymbolTableRecord
100
AcDbLayerTableRecord
  2
COORDINATE
 70
0
 62
7
  6
CONTINUOUS
370
-3
390
F
  0
LAYER
  5
1FF
100
AcDbSymbolTableRecord
100
AcDbLayerTableRecord
  2
COORD_ORIGINE
 70
0
 62
7
  6
CONTINUOUS
370
-3
390
F
  0
LAYER
  5
200
100
AcDbSymbolTableRecord
100
AcDbLayerTableRecord
  2
COSMETICHE
 70
0
 62
7
  6
CONTINUOUS
370
-3
390
F
  0
LAYER
  5
201
100
AcDbSymbolTableRecord
100
AcDbLayerTableRecord
  2
COSMETICI
 70
0
 62
7
  6
CONTINUOUS
370
-3
390
F
  0
LAYER
  5
202
100
AcDbSymbolTableRecord
100
AcDbLayerTableRecord
  2
CURVE
 70
0
 62
7
  6
CONTINUOUS
370
-3
390
F
  0
LAYER
  5
203
100
AcDbSymbolTableRecord
100
AcDbLayerTableRecord
  2
C_CONTATTI
 70
0
 62
7
  6
CONTINUOUS
370
-3
390
F
  0
LAYER
  5
204
100
AcDbSymbolTableRecord
100
AcDbLayerTableRecord
  2
C_COPERCHIO
 70
0
 62
7
  6
CONTINUOUS
370
-3
390
F
  0
LAYER
  5
205
100
AcDbSymbolTableRecord
100
AcDbLayerTableRecord
  2
C_CORPO
 70
0
 62
7
  6
CONTINUOUS
370
-3
390
F
  0
LAYER
  5
206
100
AcDbSymbolTableRecord
100
AcDbLayerTableRecord
  2
C_OTTURATORE
 70
0
 62
7
  6
CONTINUOUS
370
-3
390
F
  0
LAYER
  5
207
100
AcDbSymbolTableRecord
100
AcDbLayerTableRecord
  2
DRAFT
 70
0
 62
7
  6
CONTINUOUS
370
-3
390
F
  0
LAYER
  5
208
100
AcDbSymbolTableRecord
100
AcDbLayerTableRecord
  2
INTF_1
 70
0
 62
7
  6
CONTINUOUS
370
-3
390
F
  0
LAYER
  5
209
100
AcDbSymbolTableRecord
100
AcDbLayerTableRecord
  2
INTF_11
 70
0
 62
7
  6
CONTINUOUS
370
-3
390
F
  0
LAYER
  5
20A
100
AcDbSymbolTableRecord
100
AcDbLayerTableRecord
  2
INTF_12
 70
0
 62
7
  6
CONTINUOUS
370
-3
390
F
  0
LAYER
  5
20B
100
AcDbSymbolTableRecord
100
AcDbLayerTableRecord
  2
INTF_YELLOW
 70
0
 62
7
  6
CONTINUOUS
370
-3
390
F
  0
LAYER
  5
20C
100
AcDbSymbolTableRecord
100
AcDbLayerTableRecord
  2
NOTE
 70
0
 62
7
  6
CONTINUOUS
370
-3
390
F
  0
LAYER
  5
20D
100
AcDbSymbolTableRecord
100
AcDbLayerTableRecord
  2
PIANI
 70
0
 62
7
  6
CONTINUOUS
370
-3
390
F
  0
LAYER
  5
20E
100
AcDbSymbolTableRecord
100
AcDbLayerTableRecord
  2
PIANI_ORIGINE
 70
0
 62
7
  6
CONTINUOUS
370
-3
390
F
  0
LAYER
  5
20F
100
AcDbSymbolTableRecord
100
AcDbLayerTableRecord
  2
PIANI_SFORMO
 70
0
 62
7
  6
CONTINUOUS
370
-3
390
F
  0
LAYER
  5
210
100
AcDbSymbolTableRecord
100
AcDbLayerTableRecord
  2
PUNTI
 70
0
 62
7
  6
CONTINUOUS
370
-3
390
F
  0
LAYER
  5
211
100
AcDbSymbolTableRecord
100
AcDbLayerTableRecord
  2
RACCORDO
 70
0
 62
7
  6
CONTINUOUS
370
-3
390
F
  0
LAYER
  5
212
100
AcDbSymbolTableRecord
100
AcDbLayerTableRecord
  2
SCRITTE
 70
0
 62
7
  6
CONTINUOUS
370
-3
390
F
  0
LAYER
  5
213
100
AcDbSymbolTableRecord
100
AcDbLayerTableRecord
  2
SIMBOLI
 70
0
 62
7
  6
CONTINUOUS
370
-3
390
F
  0
LAYER
  5
214
100
AcDbSymbolTableRecord
100
AcDbLayerTableRecord
  2
SMUSSO
 70
0
 62
7
  6
CONTINUOUS
370
-3
390
F
  0
LAYER
  5
215
100
AcDbSymbolTableRecord
100
AcDbLayerTableRecord
  2
SUPERFICI
 70
0
 62
7
  6
CONTINUOUS
370
-3
390
F
  0
LAYER
  5
216
100
AcDbSymbolTableRecord
100
AcDbLayerTableRecord
  2
TRASH
 70
0
 62
7
  6
CONTINUOUS
370
-3
390
F
  0
LAYER
  5
217
100
AcDbSymbolTableRecord
100
AcDbLayerTableRecord
  2
XSEC_DATUMS
 70
0
 62
7
  6
CONTINUOUS
370
-3
390
F
  0
ENDTAB
  0
TABLE
  2
STYLE
  5
3
100
AcDbSymbolTable
 70
1
  0
STYLE
  5
11
100
AcDbSymbolTableRecord
100
AcDbTextStyleTableRecord
  2
STANDARD
 70
0
 40
0.0
 41
0.8
 50
0.0
 71
0
 42
0.2
  3
txt
  4

  0
STYLE
  5
218
100
AcDbSymbolTableRecord
100
AcDbTextStyleTableRecord
  2
TEXTSTYLE_1
 70
0
 40
0.0
 41
0.8
 50
0.0
 71
0
 42
0.2
  3
gdt
  4

  0
ENDTAB
  0
TABLE
  2
VIEW
  5
6
100
AcDbSymbolTable
 70
0
  0
ENDTAB
  0
TABLE
  2
UCS
  5
7
100
AcDbSymbolTable
 70
0
  0
ENDTAB
  0
TABLE
  2
APPID
  5
9
100
AcDbSymbolTable
 70
1
  0
APPID
  5
219
100
AcDbSymbolTableRecord
100
AcDbRegAppTableRecord
  2
ACAD
 70
0
  0
ENDTAB
  0
TABLE
  2
BLOCK_RECORD
  5
1
100
AcDbSymbolTable
 70
0
  0
BLOCK_RECORD
  5
21A
100
AcDbSymbolTableRecord
100
AcDbBlockTableRecord
  2
*Model_Space
  0
BLOCK_RECORD
  5
21B
100
AcDbSymbolTableRecord
100
AcDbBlockTableRecord
  2
*Paper_Space
  0
BLOCK_RECORD
  5
21C
100
AcDbSymbolTableRecord
100
AcDbBlockTableRecord
  2
_FILLED
  0
BLOCK_RECORD
  5
21D
100
AcDbSymbolTableRecord
100
AcDbBlockTableRecord
  2
*D0
  0
BLOCK_RECORD
  5
21E
100
AcDbSymbolTableRecord
100
AcDbBlockTableRecord
  2
*D1
  0
BLOCK_RECORD
  5
21F
100
AcDbSymbolTableRecord
100
AcDbBlockTableRecord
  2
*D2
  0
BLOCK_RECORD
  5
220
100
AcDbSymbolTableRecord
100
AcDbBlockTableRecord
  2
*D3
  0
ENDTAB
  0
TABLE
  2
DIMSTYLE
  5
A
100
AcDbSymbolTable
 70
1
100
AcDbDimStyleTable
 71
0
  0
DIMSTYLE
105
221
100
AcDbSymbolTableRecord
100
AcDbDimStyleTableRecord
  2
STANDARD
 70
0
  3

  4

 40
1.0
 41
3.0
 42
0.5
 43
0.38
 44
1.5
 45
0.0
 46
0.0
 47
0.01
 48
0.01
140
3.0
141
0.09
142
0.0
143
25.4
144
1.0
145
0.0
146
1.0
147
0.625
 71
1
 72
0
 73
0
 74
0
 75
0
 76
0
 77
1
 78
8
 79
2
170
0
171
1
172
0
173
0
174
0
175
0
176
0
177
0
178
0
270
2
179
2
271
2
272
2
273
2
274
2
275
0
280
0
281
0
282
0
283
1
284
8
285
0
286
0
287
3
288
0
340
11
278
44
341
21C
342
21C
343
21C
344
21C
  0
DIMSTYLE
105
222
100
AcDbSymbolTableRecord
100
AcDbDimStyleTableRecord
  2
DIMSTYLE_1
 70
0
  3

  4

 40
1.0
 41
3.0
 42
0.5
 43
0.38
 44
1.5
 45
0.0
 46
0.0
 47
0.0
 48
0.0
140
3.0
141
0.09
142
0.0
143
25.4
144
1.0
145
0.0
146
1.0
147
0.75
 71
0
 72
0
 73
0
 74
0
 75
0
 76
0
 77
1
 78
8
 79
2
170
0
171
1
172
0
173
0
174
0
175
0
176
0
177
0
178
0
270
2
179
2
271
2
272
2
273
2
274
2
275
0
280
0
281
0
282
0
283
1
284
8
285
0
286
0
287
3
288
0
340
11
278
44
341
21C
342
21C
343
21C
344
21C
  0
ENDTAB
  0
ENDSEC
  0
SECTION
  2
BLOCKS
  0
BLOCK
  5
20
100
AcDbEntity
  8
0
100
AcDbBlockBegin
  2
*Model_Space
 70
0
 10
0.0
 20
0.0
 30
0.0
  3
*Model_Space
  1

  0
ENDBLK
  5
21
100
AcDbEntity
  8
0
100
AcDbBlockEnd
  0
BLOCK
  5
1C
100
AcDbEntity
  8
0
100
AcDbBlockBegin
  2
*Paper_Space
 70
0
 10
0.0
 20
0.0
 30
0.0
  3
*Paper_Space
  1

  0
ENDBLK
  5
1D
100
AcDbEntity
  8
0
100
AcDbBlockEnd
  0
BLOCK
  5
223
100
AcDbEntity
  8
0
100
AcDbBlockBegin
  2
_FILLED
 70
64
 10
0.0
 20
0.0
  3
_FILLED
  1

  0
SOLID
  5
224
100
AcDbEntity
  8
0
  6
BYBLOCK
 62
0
100
AcDbTrace
 10
0.0
 20
0.0
 11
-1.0
 21
0.3166666667
 12
-1.0
 22
-0.3166666667
 13
-1.0
 23
-0.3166666667
  0
ENDBLK
  5
225
100
AcDbEntity
  8
0
  6
BYBLOCK
 62
0
100
AcDbBlockEnd
  0
BLOCK
  5
226
100
AcDbEntity
  8
0
100
AcDbBlockBegin
 62
7
  6
CONTINUOUS
  2
*D0
 70
65
 10
0.0
 20
0.0
  3
*D0
  1

  0
MTEXT
  5
227
100
AcDbEntity
  8
0
100
AcDbMText
 62
7
  6
CONTINUOUS
  7
STANDARD
 71
2
 72
1
 10
5.249153977
 20
36.7064946566
 30
0.0
 11
1.0
 21
0.0
 31
0.0
 73
2
 44
0.9
  1
{\ftxt;\W0.0001;\H0.0001;\~}{\ftxt;\W2.9285714286;\H3.0; }{\ftxt;\W0.0001;\H0.0001;\~}
 40
3.0
 41
13.1785714286
  0
LINE
  5
228
100
AcDbEntity
  8
0
100
AcDbLine
 62
7
  6
CONTINUOUS
 10
18.449153977
 20
11.7501233207
 11
18.449153977
 21
34.4564946566
  0
LINE
  5
229
100
AcDbEntity
  8
0
100
AcDbLine
 62
7
  6
CONTINUOUS
 10
-7.950846023
 20
24.7368706193
 11
-7.950846023
 21
34.4564946566
  0
LINE
  5
22A
100
AcDbEntity
  8
0
100
AcDbLine
 62
7
  6
CONTINUOUS
 10
18.449153977
 20
32.9564946566
 11
5.249153977
 21
32.9564946566
  0
LINE
  5
22B
100
AcDbEntity
  8
0
100
AcDbLine
 62
7
  6
CONTINUOUS
 10
-7.950846023
 20
32.9564946566
 11
5.249153977
 21
32.9564946566
  0
INSERT
  5
22C
100
AcDbEntity
  8
0
100
AcDbBlockReference
 62
7
  6
CONTINUOUS
  2
_FILLED
 10
18.449153977
 20
32.9564946566
 41
3.0
 42
3.0
 43
3.0
  0
INSERT
  5
22D
100
AcDbEntity
  8
0
100
AcDbBlockReference
 62
7
  6
CONTINUOUS
  2
_FILLED
 10
-7.950846023
 20
32.9564946566
 41
3.0
 42
3.0
 43
3.0
 50
180.0
  0
ENDBLK
  5
22E
100
AcDbEntity
  8
0
  6
BYBLOCK
 62
0
100
AcDbBlockEnd
  0
BLOCK
  5
22F
100
AcDbEntity
  8
0
100
AcDbBlockBegin
 62
7
  6
CONTINUOUS
  2
*D1
 70
65
 10
0.0
 20
0.0
  3
*D1
  1

  0
MTEXT
  5
230
100
AcDbEntity
  8
0
100
AcDbMText
 62
7
  6
CONTINUOUS
  7
STANDARD
 71
2
 72
1
 10
-0.000846023
 20
46.9813850664
 30
0.0
 11
1.0
 21
0.0
 31
0.0
 73
2
 44
0.9
  1
{\ftxt;\W0.0001;\H0.0001;\~}{\ftxt;\W2.8571428571;\H3.0; }{\ftxt;\W0.0001;\H0.0001;\~}
 40
3.0
 41
12.8571428571
  0
LINE
  5
231
100
AcDbEntity
  8
0
100
AcDbLine
 62
7
  6
CONTINUOUS
 10
18.449153977
 20
11.7501233207
 11
18.449153977
 21
44.7313850664
  0
LINE
  5
232
100
AcDbEntity
  8
0
100
AcDbLine
 62
7
  6
CONTINUOUS
 10
-18.450846023
 20
0.5
 11
-18.450846023
 21
44.7313850664
  0
LINE
  5
233
100
AcDbEntity
  8
0
100
AcDbLine
 62
7
  6
CONTINUOUS
 10
18.449153977
 20
43.2313850664
 11
-0.000846023
 21
43.2313850664
  0
LINE
  5
234
100
AcDbEntity
  8
0
100
AcDbLine
 62
7
  6
CONTINUOUS
 10
-18.450846023
 20
43.2313850664
 11
-0.000846023
 21
43.2313850664
  0
INSERT
  5
235
100
AcDbEntity
  8
0
100
AcDbBlockReference
 62
7
  6
CONTINUOUS
  2
_FILLED
 10
18.449153977
 20
43.2313850664
 41
3.0
 42
3.0
 43
3.0
  0
INSERT
  5
236
100
AcDbEntity
  8
0
100
AcDbBlockReference
 62
7
  6
CONTINUOUS
  2
_FILLED
 10
-18.450846023
 20
43.2313850664
 41
3.0
 42
3.0
 43
3.0
 50
180.0
  0
ENDBLK
  5
237
100
AcDbEntity
  8
0
  6
BYBLOCK
 62
0
100
AcDbBlockEnd
  0
BLOCK
  5
238
100
AcDbEntity
  8
0
100
AcDbBlockBegin
 62
7
  6
CONTINUOUS
  2
*D2
 70
65
 10
0.0
 20
0.0
  3
*D2
  1

  0
MTEXT
  5
239
100
AcDbEntity
  8
0
100
AcDbMText
 62
7
  6
CONTINUOUS
  7
STANDARD
 71
2
 72
1
 10
50.0
 20
36.3248597788
 30
0.0
 11
1.0
 21
0.0
 31
0.0
 73
2
 44
0.9
  1
{\ftxt;\W0.0001;\H0.0001;\~}{\ftxt;\W2.8571428571;\H3.0; }{\ftxt;\W0.0001;\H0.0001;\~}
 40
3.0
 41
12.8571428571
  0
LINE
  5
23A
100
AcDbEntity
  8
0
100
AcDbLine
 62
7
  6
CONTINUOUS
 10
38.85
 20
22.3823164546
 11
38.85
 21
34.0748597788
  0
LINE
  5
23B
100
AcDbEntity
  8
0
100
AcDbLine
 62
7
  6
CONTINUOUS
 10
61.15
 20
22.3823164546
 11
61.15
 21
34.0748597788
  0
LINE
  5
23C
100
AcDbEntity
  8
0
100
AcDbLine
 62
7
  6
CONTINUOUS
 10
38.85
 20
32.5748597788
 11
50.0
 21
32.5748597788
  0
LINE
  5
23D
100
AcDbEntity
  8
0
100
AcDbLine
 62
7
  6
CONTINUOUS
 10
61.15
 20
32.5748597788
 11
50.0
 21
32.5748597788
  0
INSERT
  5
23E
100
AcDbEntity
  8
0
100
AcDbBlockReference
 62
7
  6
CONTINUOUS
  2
_FILLED
 10
38.85
 20
32.5748597788
 41
3.0
 42
3.0
 43
3.0
 50
180.0
  0
INSERT
  5
23F
100
AcDbEntity
  8
0
100
AcDbBlockReference
 62
7
  6
CONTINUOUS
  2
_FILLED
 10
61.15
 20
32.5748597788
 41
3.0
 42
3.0
 43
3.0
  0
ENDBLK
  5
240
100
AcDbEntity
  8
0
  6
BYBLOCK
 62
0
100
AcDbBlockEnd
  0
BLOCK
  5
241
100
AcDbEntity
  8
0
100
AcDbBlockBegin
 62
7
  6
CONTINUOUS
  2
*D3
 70
65
 10
0.0
 20
0.0
  3
*D3
  1

  0
MTEXT
  5
242
100
AcDbEntity
  8
0
100
AcDbMText
 62
7
  6
CONTINUOUS
  7
STANDARD
 71
2
 72
1
 10
71.4696285142
 20
-0.0
 30
0.0
 11
0.0
 21
1.0
 31
0.0
 73
2
 44
0.9
  1
{\ftxt;\W0.0001;\H0.0001;\~}{\ftxt;\W1.5714285714;\H3.0; }{\ftxt;\W0.0001;\H0.0001;\~}
 40
3.0
 41
7.0714285714
  0
LINE
  5
243
100
AcDbEntity
  8
0
100
AcDbLine
 62
7
  6
CONTINUOUS
 10
60.9000380762
 20
24.5
 11
76.7196285142
 21
24.5
  0
LINE
  5
244
100
AcDbEntity
  8
0
100
AcDbLine
 62
7
  6
CONTINUOUS
 10
60.9000380762
 20
-24.5
 11
76.7196285142
 21
-24.5
  0
LINE
  5
245
100
AcDbEntity
  8
0
100
AcDbLine
 62
7
  6
CONTINUOUS
 10
75.2196285142
 20
24.5
 11
75.2196285142
 21
0.0
  0
LINE
  5
246
100
AcDbEntity
  8
0
100
AcDbLine
 62
7
  6
CONTINUOUS
 10
75.2196285142
 20
-24.5
 11
75.2196285142
 21
0.0
  0
INSERT
  5
247
100
AcDbEntity
  8
0
100
AcDbBlockReference
 62
7
  6
CONTINUOUS
  2
_FILLED
 10
75.2196285142
 20
24.5
 41
3.0
 42
3.0
 43
3.0
 50
90.0
  0
INSERT
  5
248
100
AcDbEntity
  8
0
100
AcDbBlockReference
 62
7
  6
CONTINUOUS
  2
_FILLED
 10
75.2196285142
 20
-24.5
 41
3.0
 42
3.0
 43
3.0
 50
270.0
  0
ENDBLK
  5
249
100
AcDbEntity
  8
0
  6
BYBLOCK
 62
0
100
AcDbBlockEnd
  0
ENDSEC
  0
SECTION
  2
ENTITIES
  0
DIMENSION
  5
24A
100
AcDbEntity
  8
0
100
AcDbDimension
 62
7
  6
CONTINUOUS
  2
*D0
 10
-7.950846023
 20
32.9564946566
 11
4.8205826962
 21
32.9564946566
 70
160
 71
2
 72
2
 41
0.9
 42
26.4
  1
{\ftxt;\W0.0001;\H0.0001;\~}{\ftxt;\W2.9285714286;\H3.0; }{\ftxt;\W0.0001;\H0.0001;\~}
  3
DIMSTYLE_1
100
AcDbAlignedDimension
 13
18.449153977
 23
11.2501233207
 14
-7.950846023
 24
24.2368706193
 50
180.0
100
AcDbRotatedDimension
  0
DIMENSION
  5
24B
100
AcDbEntity
  8
0
100
AcDbDimension
 62
7
  6
CONTINUOUS
  2
*D1
 10
-18.450846023
 20
43.2313850664
 11
-0.429417419
 21
43.2313850664
 70
160
 71
2
 72
2
 41
0.9
 42
36.9
  1
{\ftxt;\W0.0001;\H0.0001;\~}{\ftxt;\W2.8571428571;\H3.0; }{\ftxt;\W0.0001;\H0.0001;\~}
  3
DIMSTYLE_1
100
AcDbAlignedDimension
 13
18.449153977
 23
11.2501233207
 14
-18.450846023
 24
0.0
 50
180.0
100
AcDbRotatedDimension
  0
DIMENSION
  5
24C
100
AcDbEntity
  8
0
100
AcDbDimension
 62
7
  6
CONTINUOUS
  2
*D2
 10
61.15
 20
32.5748597788
 11
49.5714281616
 21
32.5748597788
 70
160
 71
2
 72
2
 41
0.9
 42
22.3
  1
{\ftxt;\W0.0001;\H0.0001;\~}{\ftxt;\W2.8571428571;\H3.0; }{\ftxt;\W0.0001;\H0.0001;\~}
  3
DIMSTYLE_1
100
AcDbAlignedDimension
 13
38.85
 23
21.8823164546
 14
61.15
 24
21.8823164546
100
AcDbRotatedDimension
  0
DIMENSION
  5
24D
100
AcDbEntity
  8
0
100
AcDbDimension
 62
7
  6
CONTINUOUS
  2
*D3
 10
75.2196285142
 20
-24.5
 11
75.2196285142
 21
-0.4285721297
 70
160
 71
2
 72
2
 41
0.9
 42
49.0
  1
{\ftxt;\W0.0001;\H0.0001;\~}{\ftxt;\W1.5714285714;\H3.0; }{\ftxt;\W0.0001;\H0.0001;\~}
  3
DIMSTYLE_1
100
AcDbAlignedDimension
 13
60.4000380762
 23
24.5
 14
60.4000380762
 24
-24.5
 50
270.0
100
AcDbRotatedDimension
  0
LWPOLYLINE
  5
24E
100
AcDbEntity
  8
0
100
AcDbPolyline
 62
7
  6
CONTINUOUS
 90
5
 70
0
 43
0.3500000006
 10
52.9999980469
 20
35.0391475067
 10
53.3571448975
 20
35.2534319916
 10
53.3571448975
 20
35.896289978
 10
52.9999980469
 20
36.3248589478
 10
52.1428555756
 20
36.3248589478
  0
LWPOLYLINE
  5
24F
100
AcDbEntity
  8
C_COPERCHIO
100
AcDbPolyline
 62
250
  6
CONTINUOUS
 90
13
 70
0
 10
54.1911506121
 20
-23.7911201511
 10
54.2172468113
 20
-23.7894021021
 10
54.2428966777
 20
-23.7842932354
 10
54.2676615053
 20
-23.7758809285
 10
54.2911177251
 20
-23.7643090597
 10
54.3128641491
 20
-23.749775548
 10
54.3325288319
 20
-23.7325289678
 10
54.3497754345
 20
-23.7128642969
 10
54.364308975
 20
-23.6911178718
 10
54.375880874
 20
-23.6676616367
 10
54.3842932082
 20
-23.6428967792
 10
54.3894020946
 20
-23.6172468685
 10
54.3911201511
 20
-23.5911506121
  0
LWPOLYLINE
  5
250
100
AcDbEntity
  8
C_COPERCHIO
100
AcDbPolyline
 62
7
  6
CONTINUOUS
 90
13
 70
0
 10
54.200030461
 20
-23.8
 10
54.2261325878
 20
-23.7982897358
 10
54.2517877661
 20
-23.7931875595
 10
54.2765572875
 20
-23.7847805782
 10
54.3000177444
 20
-23.7732123371
 10
54.3217675502
 20
-23.75868055
 10
54.3414339722
 20
-23.7414339722
 10
54.35868055
 20
-23.7217675502
 10
54.3732123371
 20
-23.7000177444
 10
54.3847805782
 20
-23.6765572875
 10
54.3931875595
 20
-23.6517877661
 10
54.3982897358
 20
-23.6261325878
 10
54.4
 20
-23.600030461
  0
LINE
  5
251
100
AcDbEntity
  8
C_COPERCHIO
100
AcDbLine
 62
7
  6
CONTINUOUS
 10
41.5000380762
 20
-24.5
 11
39.5999619238
 21
-24.5
  0
LINE
  5
252
100
AcDbEntity
  8
C_COPERCHIO
100
AcDbLine
 62
7
  6
CONTINUOUS
 10
58.4999619238
 20
-24.5
 11
60.4000380762
 21
-24.5
  0
LINE
  5
253
100
AcDbEntity
  8
C_COPERCHIO
100
AcDbLine
 62
250
  6
CONTINUOUS
 10
60.3606880219
 20
-24.4606499457
 11
58.5393119781
 21
-24.4606499457
  0
LINE
  5
254
100
AcDbEntity
  8
C_COPERCHIO
100
AcDbLine
 62
250
  6
CONTINUOUS
 10
39.6393119781
 20
-24.4606499457
 11
41.4606880219
 21
-24.4606499457
  0
LINE
  5
255
100
AcDbEntity
  8
C_COPERCHIO
100
AcDbLine
 62
250
  6
CONTINUOUS
 10
39.3893500543
 20
-24.2106880219
 11
41.7106499457
 21
-24.2106880219
  0
LINE
  5
256
100
AcDbEntity
  8
C_COPERCHIO
100
AcDbLine
 62
250
  6
CONTINUOUS
 10
58.2893500543
 20
-24.2106880219
 11
60.6106499457
 21
-24.2106880219
  0
LWPOLYLINE
  5
257
100
AcDbEntity
  8
C_COPERCHIO
100
AcDbPolyline
 62
7
  6
CONTINUOUS
 90
3
 70
0
 10
39.4761365411
 20
23.6811920369
 10
39.4341578125
 20
23.6390385494
 10
39.4228056272
 20
23.6278312164
  0
LINE
  5
258
100
AcDbEntity
  8
C_COPERCHIO
100
AcDbLine
 62
250
  6
CONTINUOUS
 10
38.8674549721
 20
21.8997714267
 11
38.85
 21
21.8823164546
  0
LINE
  5
259
100
AcDbEntity
  8
C_COPERCHIO
100
AcDbLine
 62
250
  6
CONTINUOUS
 10
41.5000380762
 20
24.5
 11
41.4606880219
 21
24.4606499457
  0
LINE
  5
25A
100
AcDbEntity
  8
C_COPERCHIO
100
AcDbLine
 62
250
  6
CONTINUOUS
 10
41.75
 20
24.2500380762
 11
41.7106499457
 21
24.2106880219
  0
LINE
  5
25B
100
AcDbEntity
  8
C_COPERCHIO
100
AcDbLine
 62
7
  6
CONTINUOUS
 10
39.5496202695
 20
23.754586152
 11
39.4927888219
 21
23.6977777564
  0
LINE
  5
25C
100
AcDbEntity
  8
C_COPERCHIO
100
AcDbLine
 62
7
  6
CONTINUOUS
 10
39.4927888219
 20
23.6977777564
 11
39.4761365411
 21
23.6811920369
  0
LWPOLYLINE
  5
25D
100
AcDbEntity
  8
C_COPERCHIO
100
AcDbPolyline
 62
7
  6
CONTINUOUS
 90
3
 70
0
 10
39.6393119781
 20
23.8443375673
 10
39.6154763249
 20
23.8207626766
 10
39.5496202695
 20
23.754586152
  0
LWPOLYLINE
  5
25E
100
AcDbEntity
  8
C_COPERCHIO
100
AcDbPolyline
 62
7
  6
CONTINUOUS
 90
9
 70
0
 10
39.0140409637
 20
22.2535403519
 10
39.0192353744
 20
22.2586595885
 10
39.0578016722
 20
22.2924539227
 10
39.1004161531
 20
22.3226232988
 10
39.1465188794
 20
22.3484690737
 10
39.1952072419
 20
22.369345737
 10
39.245782902
 20
22.3849398969
 10
39.2978462375
 20
22.3951153
 10
39.3508188516
 20
22.3997180594
  0
LWPOLYLINE
  5
25F
100
AcDbEntity
  8
C_COPERCHIO
100
AcDbPolyline
 62
250
  6
CONTINUOUS
 90
13
 70
0
 10
39.0173269611
 20
20.5419058565
 10
39.0226367814
 20
20.544560489
 10
39.0362226672
 20
20.5471706927
 10
39.0578572943
 20
20.5496927929
 10
39.0871786639
 20
20.5520845887
 10
39.1236961597
 20
20.5543060597
 10
39.1667987571
 20
20.5563200354
 10
39.215765247
 20
20.5580928172
 10
39.2697763036
 20
20.5595947422
 10
39.3279281933
 20
20.5608006799
 10
39.3892478966
 20
20.561690452
 10
39.4527093889
 20
20.5622491707
 10
39.5172508085
 20
20.562467487
  0
LWPOLYLINE
  5
260
100
AcDbEntity
  8
C_COPERCHIO
100
AcDbPolyline
 62
250
  6
CONTINUOUS
 90
8
 70
0
 10
45.8645903704
 20
-23.7881744904
 10
45.8495478232
 20
-23.7885767472
 10
45.83704713
 20
-23.7889951139
 10
45.8268666554
 20
-23.7894292141
 10
45.8189611672
 20
-23.7898606115
 10
45.8133155878
 20
-23.7902831608
 10
45.8099449947
 20
-23.7907030073
 10
45.8088493879
 20
-23.7911201511
  0
LWPOLYLINE
  5
261
100
AcDbEntity
  8
C_COPERCHIO
100
AcDbPolyline
 62
250
  6
CONTINUOUS
 90
6
 70
0
 10
45.6557759941
 20
-23.5890249452
 10
45.6387286556
 20
-23.589459171
 10
45.6257448435
 20
-23.5898906976
 10
45.6166438375
 20
-23.5903133682
 10
45.6111116885
 20
-23.5907333397
 10
45.6088798489
 20
-23.5911506121
  0
LINE
  5
262
100
AcDbEntity
  8
C_COPERCHIO
100
AcDbLine
 62
250
  6
CONTINUOUS
 10
45.9010164473
 20
-23.7874344847
 11
45.8645903704
 21
-23.7881744904
  0
LINE
  5
263
100
AcDbEntity
  8
C_COPERCHIO
100
AcDbLine
 62
250
  6
CONTINUOUS
 10
45.7017184403
 20
-23.5882041964
 11
45.6557759941
 21
-23.5890249452
  0
LINE
  5
264
100
AcDbEntity
  8
C_COPERCHIO
100
AcDbLine
 62
250
  6
CONTINUOUS
 10
45.9445235581
 20
-23.7868329673
 11
45.9010164473
 21
-23.7874344847
  0
LINE
  5
265
100
AcDbEntity
  8
C_COPERCHIO
100
AcDbLine
 62
250
  6
CONTINUOUS
 10
45.7974638047
 20
-23.5871470388
 11
45.7017184403
 21
-23.5882041964
  0
LWPOLYLINE
  5
266
100
AcDbEntity
  8
C_COPERCHIO
100
AcDbPolyline
 62
250
  6
CONTINUOUS
 90
6
 70
0
 10
60.6062408515
 20
-22.3114484138
 10
60.6090631511
 20
-22.3114255901
 10
60.6119014364
 20
-22.3113865937
 10
60.6147556122
 20
-22.3113311514
 10
60.6176255802
 20
-22.3112589886
 10
60.6205112385
 20
-22.31116983
  0
LINE
  5
267
100
AcDbEntity
  8
C_COPERCHIO
100
AcDbLine
 62
250
  6
CONTINUOUS
 10
60.6034346299
 20
-22.5111812444
 11
60.6238174026
 21
-22.5110403372
  0
LINE
  5
268
100
AcDbEntity
  8
C_COPERCHIO
100
AcDbLine
 62
250
  6
CONTINUOUS
 10
46.0163907265
 20
-23.7862327071
 11
45.9445235581
 21
-23.7868329673
  0
LINE
  5
269
100
AcDbEntity
  8
C_COPERCHIO
100
AcDbLine
 62
250
  6
CONTINUOUS
 10
45.9547427926
 20
-23.5862629896
 11
45.7974638047
 21
-23.5871470388
  0
LINE
  5
26A
100
AcDbEntity
  8
C_COPERCHIO
100
AcDbLine
 62
250
  6
CONTINUOUS
 10
46.0865403007
 20
-23.7859830815
 11
46.0163907265
 21
-23.7862327071
  0
LINE
  5
26B
100
AcDbEntity
  8
C_COPERCHIO
100
AcDbLine
 62
250
  6
CONTINUOUS
 10
46.1088036965
 20
-23.5860054824
 11
45.9547427926
 21
-23.5862629896
  0
LINE
  5
26C
100
AcDbEntity
  8
C_COPERCHIO
100
AcDbLine
 62
250
  6
CONTINUOUS
 10
60.3606880219
 20
-23.8443375673
 11
58.5393119781
 21
-23.8443375673
  0
LINE
  5
26D
100
AcDbEntity
  8
C_COPERCHIO
100
AcDbLine
 62
250
  6
CONTINUOUS
 10
39.6393119781
 20
-23.8443375673
 11
41.4606880219
 21
-23.8443375673
  0
LINE
  5
26E
100
AcDbEntity
  8
C_COPERCHIO
100
AcDbLine
 62
7
  6
CONTINUOUS
 10
45.799969539
 20
-23.8
 11
54.200030461
 21
-23.8
  0
LINE
  5
26F
100
AcDbEntity
  8
C_COPERCHIO
100
AcDbLine
 62
250
  6
CONTINUOUS
 10
60.5771943728
 20
-23.6278312164
 11
58.3228056272
 21
-23.6278312164
  0
LINE
  5
270
100
AcDbEntity
  8
C_COPERCHIO
100
AcDbLine
 62
250
  6
CONTINUOUS
 10
39.4228056272
 20
-23.6278312164
 11
41.6771943728
 21
-23.6278312164
  0
LINE
  5
271
100
AcDbEntity
  8
C_COPERCHIO
100
AcDbLine
 62
7
  6
CONTINUOUS
 10
41.7238174026
 20
-23.1226497308
 11
39.3761825974
 21
-23.1226497308
  0
LINE
  5
272
100
AcDbEntity
  8
C_COPERCHIO
100
AcDbLine
 62
7
  6
CONTINUOUS
 10
58.2761825974
 20
-23.1226497308
 11
60.6238174026
 21
-23.1226497308
  0
LINE
  5
273
100
AcDbEntity
  8
C_COPERCHIO
100
AcDbLine
 62
250
  6
CONTINUOUS
 10
39.3965653701
 20
-22.5111812444
 11
41.7238174026
 21
-22.5111812444
  0
LINE
  5
274
100
AcDbEntity
  8
C_COPERCHIO
100
AcDbLine
 62
250
  6
CONTINUOUS
 10
58.2761825974
 20
-22.5111812444
 11
60.6034346299
 21
-22.5111812444
  0
LINE
  5
275
100
AcDbEntity
  8
C_COPERCHIO
100
AcDbLine
 62
7
  6
CONTINUOUS
 10
58.25
 20
-22.4
 11
54.4
 21
-22.4
  0
LINE
  5
276
100
AcDbEntity
  8
C_COPERCHIO
100
AcDbLine
 62
7
  6
CONTINUOUS
 10
45.6
 20
-22.4
 11
41.75
 21
-22.4
  0
LINE
  5
277
100
AcDbEntity
  8
C_COPERCHIO
100
AcDbLine
 62
7
  6
CONTINUOUS
 10
46.1088036965
 20
-22.3475922207
 11
53.8911963035
 21
-22.3475922207
  0
LINE
  5
278
100
AcDbEntity
  8
C_COPERCHIO
100
AcDbLine
 62
250
  6
CONTINUOUS
 10
58.2794909049
 20
-22.3114553375
 11
60.6062408515
 21
-22.3114484138
  0
LINE
  5
279
100
AcDbEntity
  8
C_COPERCHIO
100
AcDbLine
 62
250
  6
CONTINUOUS
 10
54.0523685131
 20
-23.5862875232
 11
46.1088036965
 21
-23.5860054824
  0
LINE
  5
27A
100
AcDbEntity
  8
C_COPERCHIO
100
AcDbLine
 62
250
  6
CONTINUOUS
 10
53.9629277506
 20
-23.7861269584
 11
46.0865403007
 21
-23.7859830815
  0
LINE
  5
27B
100
AcDbEntity
  8
C_COPERCHIO
100
AcDbLine
 62
250
  6
CONTINUOUS
 10
39.3761825974
 20
-22.5110521251
 11
39.3965653701
 21
-22.5111812444
  0
LINE
  5
27C
100
AcDbEntity
  8
C_COPERCHIO
100
AcDbLine
 62
250
  6
CONTINUOUS
 10
54.2108306685
 20
-23.5872175097
 11
54.0523685131
 21
-23.5862875232
  0
LINE
  5
27D
100
AcDbEntity
  8
C_COPERCHIO
100
AcDbLine
 62
250
  6
CONTINUOUS
 10
54.0371624967
 20
-23.7866366957
 11
53.9629277506
 21
-23.7861269584
  0
LINE
  5
27E
100
AcDbEntity
  8
C_COPERCHIO
100
AcDbLine
 62
250
  6
CONTINUOUS
 10
54.2763575274
 20
-23.5879024526
 11
54.2108306685
 21
-23.5872175097
  0
LINE
  5
27F
100
AcDbEntity
  8
C_COPERCHIO
100
AcDbLine
 62
250
  6
CONTINUOUS
 10
54.0829207336
 20
-23.7871863459
 11
54.0371624967
 21
-23.7866366957
  0
LWPOLYLINE
  5
280
100
AcDbEntity
  8
C_COPERCHIO
100
AcDbPolyline
 62
250
  6
CONTINUOUS
 90
7
 70
0
 10
39.3794887478
 20
-22.3111698709
 10
39.3823750643
 20
-22.3112590294
 10
39.3852454281
 20
-22.3113311835
 10
39.3880997376
 20
-22.3113866129
 10
39.3909378941
 20
-22.3114255966
 10
39.3937598023
 20
-22.3114484126
 10
41.7205090951
 20
-22.3114553375
  0
LWPOLYLINE
  5
281
100
AcDbEntity
  8
C_COPERCHIO
100
AcDbPolyline
 62
7
  6
CONTINUOUS
 90
13
 70
0
 10
45.799969539
 20
-23.8
 10
45.7738674122
 20
-23.7982897358
 10
45.7482122339
 20
-23.7931875595
 10
45.7234427125
 20
-23.7847805782
 10
45.6999822556
 20
-23.7732123371
 10
45.6782324498
 20
-23.75868055
 10
45.6585660278
 20
-23.7414339722
 10
45.64131945
 20
-23.7217675502
 10
45.6267876629
 20
-23.7000177444
 10
45.6152194218
 20
-23.6765572875
 10
45.6068124405
 20
-23.6517877661
 10
45.6017102642
 20
-23.6261325878
 10
45.6
 20
-23.600030461
  0
LWPOLYLINE
  5
282
100
AcDbEntity
  8
C_COPERCHIO
100
AcDbPolyline
 62
250
  6
CONTINUOUS
 90
13
 70
0
 10
45.8088493879
 20
-23.7911201511
 10
45.7827531565
 20
-23.7894020978
 10
45.7571032659
 20
-23.7842932202
 10
45.732338423
 20
-23.7758808987
 10
45.7088821969
 20
-23.7643090146
 10
45.6871357749
 20
-23.7497754896
 10
45.6674711002
 20
-23.7325288998
 10
45.6502245104
 20
-23.7128642251
 10
45.6356909854
 20
-23.6911178031
 10
45.6241191013
 20
-23.667661577
 10
45.6157067798
 20
-23.6428967341
 10
45.6105979022
 20
-23.6172468435
 10
45.6088798489
 20
-23.5911506121
  0
LWPOLYLINE
  5
283
100
AcDbEntity
  8
C_COPERCHIO
100
AcDbPolyline
 62
7
  6
CONTINUOUS
 90
9
 70
0
 10
39.3508179632
 20
-22.3997180294
 10
39.2978457485
 20
-22.395115231
 10
39.2457827105
 20
-22.3849398487
 10
39.1952072419
 20
-22.369345737
 10
39.1465189385
 20
-22.3484691028
 10
39.1004161809
 20
-22.3226233164
 10
39.0578016722
 20
-22.2924539227
 10
39.0192353744
 20
-22.2586595885
 10
39.0140409637
 20
-22.2535403519
  0
LWPOLYLINE
  5
284
100
AcDbEntity
  8
C_COPERCHIO
100
AcDbPolyline
 62
250
  6
CONTINUOUS
 90
8
 70
0
 10
54.3911201511
 20
-23.5911506121
 10
54.3891367131
 20
-23.5907613069
 10
54.3841978808
 20
-23.5903639762
 10
54.3759491993
 20
-23.5899586202
 10
54.3639607914
 20
-23.5895383717
 10
54.3479566336
 20
-23.5891100979
 10
54.3280441354
 20
-23.5886943994
 10
54.2763575274
 20
-23.5879024526
  0
LWPOLYLINE
  5
285
100
AcDbEntity
  8
C_COPERCHIO
100
AcDbPolyline
 62
250
  6
CONTINUOUS
 90
13
 70
0
 10
39.0173269609
 20
-20.5419058565
 10
39.0226350472
 20
-20.544560572
 10
39.0362195424
 20
-20.5471708661
 10
39.0578531371
 20
-20.5496930608
 10
39.0871738362
 20
-20.552084952
 10
39.1236910163
 20
-20.5543065163
 10
39.166793635
 20
-20.5563205803
 10
39.2157604561
 20
-20.5580934426
 10
39.2697721173
 20
-20.5595954378
 10
39.3279248411
 20
-20.5608014333
 10
39.3892455577
 20
-20.5616912492
 10
39.452708187
 20
-20.5622499962
 10
39.5172508085
 20
-20.5624683246
  0
LINE
  5
286
100
AcDbEntity
  8
C_COPERCHIO
100
AcDbLine
 62
7
  6
CONTINUOUS
 10
39.4228056272
 20
-23.6278312164
 11
39.4341577974
 21
-23.6390385408
  0
LINE
  5
287
100
AcDbEntity
  8
C_COPERCHIO
100
AcDbLine
 62
7
  6
CONTINUOUS
 10
39.6154767007
 20
-23.8207630626
 11
39.6393119781
 21
-23.8443375673
  0
LINE
  5
288
100
AcDbEntity
  8
C_COPERCHIO
100
AcDbLine
 62
250
  6
CONTINUOUS
 10
38.85
 20
-21.8823164546
 11
38.8674549721
 21
-21.8997714267
  0
LINE
  5
289
100
AcDbEntity
  8
C_COPERCHIO
100
AcDbLine
 62
250
  6
CONTINUOUS
 10
41.4606880219
 20
-24.4606499457
 11
41.5000380762
 21
-24.5
  0
LINE
  5
28A
100
AcDbEntity
  8
C_COPERCHIO
100
AcDbLine
 62
250
  6
CONTINUOUS
 10
41.7106499457
 20
-24.2106880219
 11
41.75
 21
-24.2500380762
  0
LWPOLYLINE
  5
28B
100
AcDbEntity
  8
C_COPERCHIO
100
AcDbPolyline
 62
7
  6
CONTINUOUS
 90
3
 70
0
 10
39.4341577974
 20
-23.6390385408
 10
39.4607953164
 20
-23.6658209056
 10
39.4927889483
 20
-23.6977778826
  0
LINE
  5
28C
100
AcDbEntity
  8
C_COPERCHIO
100
AcDbLine
 62
7
  6
CONTINUOUS
 10
39.4927889483
 20
-23.6977778826
 11
39.6154767007
 21
-23.8207630626
  0
LWPOLYLINE
  5
28D
100
AcDbEntity
  8
C_COPERCHIO
100
AcDbPolyline
 62
7
  6
CONTINUOUS
 90
9
 70
0
 10
39.0140409637
 20
-22.2535403519
 10
38.9847428891
 20
-22.2215861192
 10
38.9543285691
 20
-22.1814433519
 10
38.9282099753
 20
-22.1386440128
 10
38.9066109141
 20
-22.0936997659
 10
38.8896085798
 20
-22.0468869821
 10
38.877340236
 20
-21.9986052537
 10
38.869937352
 20
-21.9494036906
 10
38.8674549721
 20
-21.8997714267
  0
LINE
  5
28E
100
AcDbEntity
  8
C_COPERCHIO
100
AcDbLine
 62
250
  6
CONTINUOUS
 10
39.5007240378
 20
-21.998725222
 11
60.4992759622
 21
-21.998725222
  0
LINE
  5
28F
100
AcDbEntity
  8
C_COPERCHIO
100
AcDbLine
 62
250
  6
CONTINUOUS
 10
39.5172508085
 20
-20.5624683248
 11
60.4827491915
 21
-20.5624683248
  0
LWPOLYLINE
  5
290
100
AcDbEntity
  8
C_COPERCHIO
100
AcDbPolyline
 62
250
  6
CONTINUOUS
 90
10
 70
0
 10
54.1911506121
 20
-23.7911201511
 10
54.1902980084
 20
-23.7907306863
 10
54.187261304
 20
-23.7903332086
 10
54.1820404989
 20
-23.789927718
 10
54.1746849206
 20
-23.7895073402
 10
54.1651452415
 20
-23.7890789496
 10
54.1532734798
 20
-23.7886631692
 10
54.1388577419
 20
-23.7882608681
 10
54.1221099213
 20
-23.7878711773
 10
54.0829207336
 20
-23.7871863459
  0
LINE
  5
291
100
AcDbEntity
  8
C_COPERCHIO
100
AcDbLine
 62
7
  6
CONTINUOUS
 10
41.75
 20
22.4
 11
41.7205090951
 21
22.3114553375
  0
LINE
  5
292
100
AcDbEntity
  8
C_COPERCHIO
100
AcDbLine
 62
250
  6
CONTINUOUS
 10
54.1911506121
 20
23.7911201511
 11
54.200030461
 21
23.8
  0
LINE
  5
293
100
AcDbEntity
  8
C_COPERCHIO
100
AcDbLine
 62
250
  6
CONTINUOUS
 10
54.3911201511
 20
23.5911506121
 11
54.4
 21
23.600030461
  0
LINE
  5
294
100
AcDbEntity
  8
C_COPERCHIO
100
AcDbLine
 62
250
  6
CONTINUOUS
 10
54.200030461
 20
-23.8
 11
54.1911506121
 21
-23.7911201511
  0
LINE
  5
295
100
AcDbEntity
  8
C_COPERCHIO
100
AcDbLine
 62
250
  6
CONTINUOUS
 10
54.4
 20
-23.600030461
 11
54.3911201511
 21
-23.5911506121
  0
LINE
  5
296
100
AcDbEntity
  8
C_COPERCHIO
100
AcDbLine
 62
7
  6
CONTINUOUS
 10
41.7205090951
 20
-22.3114553375
 11
41.75
 21
-22.4
  0
LWPOLYLINE
  5
297
100
AcDbEntity
  8
C_COPERCHIO
100
AcDbPolyline
 62
250
  6
CONTINUOUS
 90
13
 70
0
 10
39.3893500543
 20
-24.2106880219
 10
39.3914976209
 20
-24.2433083112
 10
39.3978837179
 20
-24.2753706744
 10
39.4083991198
 20
-24.3063267281
 10
39.4228639749
 20
-24.3356470107
 10
39.4410308812
 20
-24.3628300382
 10
39.4625891184
 20
-24.3874108816
 10
39.4871699618
 20
-24.4089691188
 10
39.5143529893
 20
-24.4271360251
 10
39.5436732719
 20
-24.4416008802
 10
39.5746293256
 20
-24.4521162821
 10
39.6066916888
 20
-24.4585023791
 10
39.6393119781
 20
-24.4606499457
  0
LWPOLYLINE
  5
298
100
AcDbEntity
  8
C_COPERCHIO
100
AcDbPolyline
 62
7
  6
CONTINUOUS
 90
13
 70
0
 10
39.35
 20
-24.2500380762
 10
39.3521378302
 20
-24.2826657348
 10
39.3585155507
 20
-24.3147347076
 10
39.3690242772
 20
-24.3456966094
 10
39.3834845786
 20
-24.3750221805
 10
39.4016493125
 20
-24.4022094378
 10
39.4232075347
 20
-24.4267924653
 10
39.4477905622
 20
-24.4483506875
 10
39.4749778195
 20
-24.4665154214
 10
39.5043033906
 20
-24.4809757228
 10
39.5352652924
 20
-24.4914844493
 10
39.5673342652
 20
-24.4978621698
 10
39.5999619238
 20
-24.5
  0
LWPOLYLINE
  5
299
100
AcDbEntity
  8
C_COPERCHIO
100
AcDbPolyline
 62
250
  6
CONTINUOUS
 90
16
 70
0
 10
39.0008001903
 20
-21.4994104546
 10
39.0035831894
 20
-21.5515713587
 10
39.0118063764
 20
-21.603161689
 10
39.0253798336
 20
-21.6536168844
 10
39.04415509
 20
-21.7023847882
 10
39.0679267514
 20
-21.748931708
 10
39.0964347514
 20
-21.7927482538
 10
39.1293671922
 20
-21.8333548997
 10
39.1663637291
 20
-21.8703072071
 10
39.2070195132
 20
-21.9032007135
 10
39.2508896777
 20
-21.9316754042
 10
39.2974941425
 20
-21.9554195958
 10
39.3463228246
 20
-21.9741733536
 10
39.3968413356
 20
-21.9877313993
 10
39.4484968428
 20
-21.9959453318
 10
39.5007240378
 20
-21.9987252221
  0
LWPOLYLINE
  5
29A
100
AcDbEntity
  8
C_COPERCHIO
100
AcDbPolyline
 62
7
  6
CONTINUOUS
 90
9
 70
0
 10
38.8674549721
 20
21.8997714267
 10
38.869937352
 20
21.9494036906
 10
38.877340236
 20
21.9986052537
 10
38.8896085798
 20
22.0468869821
 10
38.9066109141
 20
22.0936997659
 10
38.9282099753
 20
22.1386440128
 10
38.9543285691
 20
22.1814433519
 10
38.9847428891
 20
22.2215861192
 10
39.0140409637
 20
22.2535403519
  0
LWPOLYLINE
  5
29B
100
AcDbEntity
  8
C_COPERCHIO
100
AcDbPolyline
 62
250
  6
CONTINUOUS
 90
16
 70
0
 10
39.0008001903
 20
21.4994104546
 10
39.0035833469
 20
21.5515728436
 10
39.0118069543
 20
21.6031643943
 10
39.0253810174
 20
21.6536205156
 10
39.0441569887
 20
21.7023890417
 10
39.0679293937
 20
21.7489362751
 10
39.0964380795
 20
21.7927528269
 10
39.1293710618
 20
21.8333591916
 10
39.1663679391
 20
21.8703109939
 10
39.2070238366
 20
21.9032038525
 10
39.2508938373
 20
21.931677805
 10
39.2974978506
 20
21.9554212471
 10
39.3463258661
 20
21.9741743429
 10
39.3968435355
 20
21.9877318681
 10
39.4484980194
 20
21.9959454562
 10
39.5007240378
 20
21.998725222
  0
LWPOLYLINE
  5
29C
100
AcDbEntity
  8
C_COPERCHIO
100
AcDbPolyline
 62
7
  6
CONTINUOUS
 90
13
 70
0
 10
39.35
 20
24.2500380762
 10
39.3521378302
 20
24.2826657348
 10
39.3585155507
 20
24.3147347076
 10
39.3690242772
 20
24.3456966094
 10
39.3834845786
 20
24.3750221805
 10
39.4016493125
 20
24.4022094378
 10
39.4232075347
 20
24.4267924653
 10
39.4477905622
 20
24.4483506875
 10
39.4749778195
 20
24.4665154214
 10
39.5043033906
 20
24.4809757228
 10
39.5352652924
 20
24.4914844493
 10
39.5673342652
 20
24.4978621698
 10
39.5999619238
 20
24.5
  0
LWPOLYLINE
  5
29D
100
AcDbEntity
  8
C_COPERCHIO
100
AcDbPolyline
 62
250
  6
CONTINUOUS
 90
13
 70
0
 10
39.3893500543
 20
24.2106880219
 10
39.3914976209
 20
24.2433083112
 10
39.3978837179
 20
24.2753706744
 10
39.4083991198
 20
24.3063267281
 10
39.4228639749
 20
24.3356470107
 10
39.4410308812
 20
24.3628300382
 10
39.4625891184
 20
24.3874108816
 10
39.4871699618
 20
24.4089691188
 10
39.5143529893
 20
24.4271360251
 10
39.5436732719
 20
24.4416008802
 10
39.5746293256
 20
24.4521162821
 10
39.6066916888
 20
24.4585023791
 10
39.6393119781
 20
24.4606499457
  0
LWPOLYLINE
  5
29E
100
AcDbEntity
  8
C_COPERCHIO
100
AcDbPolyline
 62
250
  6
CONTINUOUS
 90
8
 70
0
 10
39.0089268549
 20
21.3561652257
 10
39.0078552313
 20
21.3904928199
 10
39.0067434553
 20
21.4203437101
 10
39.0055924842
 20
21.4457887816
 10
39.0044208217
 20
21.4664552684
 10
39.0032346359
 20
21.4822189152
 10
39.0020277587
 20
21.4932039773
 10
39.0008001903
 20
21.4994104546
  0
LINE
  5
29F
100
AcDbEntity
  8
C_COPERCHIO
100
AcDbLine
 62
7
  6
CONTINUOUS
 10
39.3893500543
 20
-23.5581814706
 11
39.3761825974
 21
-23.1226497308
  0
LWPOLYLINE
  5
2A0
100
AcDbEntity
  8
C_COPERCHIO
100
AcDbPolyline
 62
250
  6
CONTINUOUS
 90
7
 70
0
 10
39.5077847555
 20
21.8350872726
 10
39.5066753521
 20
21.879954954
 10
39.5055267769
 20
21.9179980308
 10
39.5043556916
 20
21.9490336576
 10
39.5031676504
 20
21.9729078738
 10
39.5019570991
 20
21.9894995689
 10
39.5007240378
 20
21.998725222
  0
LINE
  5
2A1
100
AcDbEntity
  8
C_COPERCHIO
100
AcDbLine
 62
250
  6
CONTINUOUS
 10
39.0109368846
 20
21.2748780041
 11
39.0089268549
 21
21.3561652257
  0
LINE
  5
2A2
100
AcDbEntity
  8
C_COPERCHIO
100
AcDbLine
 62
250
  6
CONTINUOUS
 10
39.5098852706
 20
21.7257776701
 11
39.5077847555
 21
21.8350872726
  0
LINE
  5
2A3
100
AcDbEntity
  8
C_COPERCHIO
100
AcDbLine
 62
250
  6
CONTINUOUS
 10
39.0127255715
 20
21.1782101156
 11
39.0109368846
 21
21.2748780041
  0
LINE
  5
2A4
100
AcDbEntity
  8
C_COPERCHIO
100
AcDbLine
 62
250
  6
CONTINUOUS
 10
39.5117815885
 20
21.5922912055
 11
39.5098852706
 21
21.7257776701
  0
LINE
  5
2A5
100
AcDbEntity
  8
C_COPERCHIO
100
AcDbLine
 62
250
  6
CONTINUOUS
 10
39.0142562896
 20
21.068410392
 11
39.0127255715
 21
21.1782101156
  0
LINE
  5
2A6
100
AcDbEntity
  8
C_COPERCHIO
100
AcDbLine
 62
7
  6
CONTINUOUS
 10
39.3771374756
 20
22.3734066285
 11
39.3766173304
 21
22.4143754661
  0
LINE
  5
2A7
100
AcDbEntity
  8
C_COPERCHIO
100
AcDbLine
 62
250
  6
CONTINUOUS
 10
39.5134457661
 20
21.4372799003
 11
39.5117815885
 21
21.5922912055
  0
LINE
  5
2A8
100
AcDbEntity
  8
C_COPERCHIO
100
AcDbLine
 62
250
  6
CONTINUOUS
 10
39.0155066173
 20
20.9471041155
 11
39.0142562896
 21
21.068410392
  0
LINE
  5
2A9
100
AcDbEntity
  8
C_COPERCHIO
100
AcDbLine
 62
250
  6
CONTINUOUS
 10
39.5148397906
 20
21.2636922529
 11
39.5134457661
 21
21.4372799003
  0
LINE
  5
2AA
100
AcDbEntity
  8
C_COPERCHIO
100
AcDbLine
 62
250
  6
CONTINUOUS
 10
39.0164456099
 20
20.8168988863
 11
39.0155066173
 21
20.9471041155
  0
LINE
  5
2AB
100
AcDbEntity
  8
C_COPERCHIO
100
AcDbLine
 62
7
  6
CONTINUOUS
 10
39.3766173304
 20
22.4143754661
 11
39.3762953931
 21
22.460549209
  0
LINE
  5
2AC
100
AcDbEntity
  8
C_COPERCHIO
100
AcDbLine
 62
250
  6
CONTINUOUS
 10
39.5159344398
 20
21.0750393386
 11
39.5148397906
 21
21.2636922529
  0
LINE
  5
2AD
100
AcDbEntity
  8
C_COPERCHIO
100
AcDbLine
 62
250
  6
CONTINUOUS
 10
39.0170545016
 20
20.6814764729
 11
39.0164456099
 21
20.8168988863
  0
LINE
  5
2AE
100
AcDbEntity
  8
C_COPERCHIO
100
AcDbLine
 62
250
  6
CONTINUOUS
 10
39.5167134992
 20
20.8750630645
 11
39.5159344398
 21
21.0750393386
  0
LINE
  5
2AF
100
AcDbEntity
  8
C_COPERCHIO
100
AcDbLine
 62
250
  6
CONTINUOUS
 10
39.5171550348
 20
20.6676682778
 11
39.5167134992
 21
20.8750630645
  0
LINE
  5
2B0
100
AcDbEntity
  8
C_COPERCHIO
100
AcDbLine
 62
250
  6
CONTINUOUS
 10
39.0173269609
 20
20.5419058565
 11
39.0170545016
 21
20.6814764729
  0
LINE
  5
2B1
100
AcDbEntity
  8
C_COPERCHIO
100
AcDbLine
 62
7
  6
CONTINUOUS
 10
38.85
 20
21.8823164546
 11
38.85
 21
-21.8823164546
  0
LINE
  5
2B2
100
AcDbEntity
  8
C_CORPO
100
AcDbLine
 62
7
  6
CONTINUOUS
 10
38.85
 20
-17.6716990487
 11
38.85
 21
17.6716990487
  0
LINE
  5
2B3
100
AcDbEntity
  8
ASSI
100
AcDbLine
 62
7
  6
CONTINUOUS
 10
38.85
 20
-17.6716990487
 11
38.85
 21
17.6716990487
  0
LINE
  5
2B4
100
AcDbEntity
  8
C_COPERCHIO
100
AcDbLine
 62
7
  6
CONTINUOUS
 10
39.35
 20
24.2500380762
 11
39.35
 21
22.399708057
  0
LINE
  5
2B5
100
AcDbEntity
  8
C_COPERCHIO
100
AcDbLine
 62
7
  6
CONTINUOUS
 10
39.35
 20
-22.399708057
 11
39.35
 21
-24.2500380762
  0
LINE
  5
2B6
100
AcDbEntity
  8
C_COPERCHIO
100
AcDbLine
 62
7
  6
CONTINUOUS
 10
39.3762953931
 20
22.460549209
 11
39.3761825974
 21
23.1226497308
  0
LINE
  5
2B7
100
AcDbEntity
  8
C_COPERCHIO
100
AcDbLine
 62
250
  6
CONTINUOUS
 10
39.3893500543
 20
-24.2106880219
 11
39.3893500543
 21
-23.5581814706
  0
LINE
  5
2B8
100
AcDbEntity
  8
C_COPERCHIO
100
AcDbLine
 62
250
  6
CONTINUOUS
 10
39.3893500543
 20
23.5581814706
 11
39.3893500543
 21
24.2106880219
  0
LINE
  5
2B9
100
AcDbEntity
  8
C_COPERCHIO
100
AcDbLine
 62
250
  6
CONTINUOUS
 10
39.3965653701
 20
22.5111812444
 11
39.3965653701
 21
22.3114553375
  0
LINE
  5
2BA
100
AcDbEntity
  8
C_COPERCHIO
100
AcDbLine
 62
250
  6
CONTINUOUS
 10
39.3965653701
 20
-22.5111812444
 11
39.3965653701
 21
-22.3114553375
  0
LINE
  5
2BB
100
AcDbEntity
  8
C_COPERCHIO
100
AcDbLine
 62
250
  6
CONTINUOUS
 10
39.6393119781
 20
-23.8443375673
 11
39.6393119781
 21
-24.4606499457
  0
LINE
  5
2BC
100
AcDbEntity
  8
C_COPERCHIO
100
AcDbLine
 62
250
  6
CONTINUOUS
 10
39.6393119781
 20
23.8443375673
 11
39.6393119781
 21
24.4606499457
  0
LWPOLYLINE
  5
2BD
100
AcDbEntity
  8
C_COPERCHIO
100
AcDbPolyline
 62
250
  6
CONTINUOUS
 90
9
 70
0
 10
39.0202408922
 20
-15.9781882348
 10
39.0224263404
 20
-11.413894671
 10
39.0238833055
 20
-6.8490251651
 10
39.0246117872
 20
-2.2831952431
 10
39.0246117858
 20
2.283210621
 10
39.0238833023
 20
6.8490390052
 10
39.0224263372
 20
11.4139054356
 10
39.0202408901
 20
15.978194386
 10
39.0173269609
 20
20.5419058565
  0
LWPOLYLINE
  5
2BE
100
AcDbEntity
  8
C_COPERCHIO
100
AcDbPolyline
 62
250
  6
CONTINUOUS
 90
9
 70
0
 10
39.5201647401
 20
-15.9948130126
 10
39.5223501888
 20
-11.4258211525
 10
39.5238071546
 20
-6.8558745549
 10
39.5245356376
 20
-2.2853551556
 10
39.5245356377
 20
2.2853551528
 10
39.5238071548
 20
6.8558745524
 10
39.522350189
 20
11.4258211505
 10
39.5201647402
 20
15.9948130115
 10
39.5171550348
 20
20.6676682778
  0
LINE
  5
2BF
100
AcDbEntity
  8
C_COPERCHIO
100
AcDbLine
 62
250
  6
CONTINUOUS
 10
39.5169759119
 20
-20.772047554
 11
39.5201647401
 21
-15.9948130126
  0
LINE
  5
2C0
100
AcDbEntity
  8
C_COPERCHIO
100
AcDbLine
 62
250
  6
CONTINUOUS
 10
39.0170542607
 20
-20.6815481442
 11
39.0202408922
 21
-15.9781882348
  0
LINE
  5
2C1
100
AcDbEntity
  8
C_COPERCHIO
100
AcDbLine
 62
7
  6
CONTINUOUS
 10
39.3761825974
 20
-23.1226497308
 11
39.3762953933
 21
-22.460549205
  0
LINE
  5
2C2
100
AcDbEntity
  8
C_COPERCHIO
100
AcDbLine
 62
250
  6
CONTINUOUS
 10
39.51636565
 20
-20.9762370433
 11
39.5169759119
 21
-20.772047554
  0
LINE
  5
2C3
100
AcDbEntity
  8
C_COPERCHIO
100
AcDbLine
 62
250
  6
CONTINUOUS
 10
39.0164449484
 20
-20.8170211022
 11
39.0170542607
 21
-20.6815481442
  0
LINE
  5
2C4
100
AcDbEntity
  8
C_COPERCHIO
100
AcDbLine
 62
250
  6
CONTINUOUS
 10
39.515426281
 20
-21.1710181833
 11
39.51636565
 21
-20.9762370433
  0
LINE
  5
2C5
100
AcDbEntity
  8
C_COPERCHIO
100
AcDbLine
 62
250
  6
CONTINUOUS
 10
39.5141761889
 20
-21.3526070905
 11
39.515426281
 21
-21.1710181833
  0
LINE
  5
2C6
100
AcDbEntity
  8
C_COPERCHIO
100
AcDbLine
 62
250
  6
CONTINUOUS
 10
39.0155053143
 20
-20.9472607239
 11
39.0164449484
 21
-20.8170211022
  0
LINE
  5
2C7
100
AcDbEntity
  8
C_COPERCHIO
100
AcDbLine
 62
7
  6
CONTINUOUS
 10
39.3762953933
 20
-22.460549205
 11
39.3766173306
 21
-22.4143754548
  0
LINE
  5
2C8
100
AcDbEntity
  8
C_COPERCHIO
100
AcDbLine
 62
250
  6
CONTINUOUS
 10
39.512646939
 20
-21.5173135259
 11
39.5141761889
 21
-21.3526070905
  0
LINE
  5
2C9
100
AcDbEntity
  8
C_COPERCHIO
100
AcDbLine
 62
250
  6
CONTINUOUS
 10
39.014253829
 20
-21.0686124849
 11
39.0155053143
 21
-20.9472607239
  0
LINE
  5
2CA
100
AcDbEntity
  8
C_COPERCHIO
100
AcDbLine
 62
250
  6
CONTINUOUS
 10
39.5108609528
 20
-21.6619026138
 11
39.512646939
 21
-21.5173135259
  0
LWPOLYLINE
  5
2CB
100
AcDbEntity
  8
C_COPERCHIO
100
AcDbPolyline
 62
7
  6
CONTINUOUS
 90
8
 70
0
 10
39.3766173306
 20
-22.4143754548
 10
39.3771374756
 20
-22.3734066071
 10
39.3774604046
 20
-22.3562867409
 10
39.3778237742
 20
-22.3413378975
 10
39.3782100642
 20
-22.3292797636
 10
39.3786134345
 20
-22.3203522347
 10
39.3790397252
 20
-22.3143154152
 10
39.3794889362
 20
-22.3111693052
  0
LINE
  5
2CC
100
AcDbEntity
  8
C_COPERCHIO
100
AcDbLine
 62
250
  6
CONTINUOUS
 10
39.0127222178
 20
-21.1784198171
 11
39.014253829
 21
-21.0686124849
  0
LINE
  5
2CD
100
AcDbEntity
  8
C_COPERCHIO
100
AcDbLine
 62
250
  6
CONTINUOUS
 10
39.0109331814
 20
-21.2750511368
 11
39.0127222178
 21
-21.1784198171
  0
LINE
  5
2CE
100
AcDbEntity
  8
C_COPERCHIO
100
AcDbLine
 62
7
  6
CONTINUOUS
 10
39.3761825974
 20
23.1226497308
 11
39.3893500543
 21
23.5581814706
  0
LWPOLYLINE
  5
2CF
100
AcDbEntity
  8
C_COPERCHIO
100
AcDbPolyline
 62
7
  6
CONTINUOUS
 90
4
 70
0
 10
44.7658730116
 20
10.3179504583
 10
44.7766556797
 20
10.3295473699
 10
44.7900144853
 20
10.3431706847
 10
44.8212794055
 20
10.3755644468
  0
LWPOLYLINE
  5
2D0
100
AcDbEntity
  8
C_COPERCHIO
100
AcDbPolyline
 62
7
  6
CONTINUOUS
 90
3
 70
0
 10
44.8212794055
 20
10.3755644468
 10
44.83918552
 20
10.3936836692
 10
44.8777010952
 20
10.4330104307
  0
LINE
  5
2D1
100
AcDbEntity
  8
C_COPERCHIO
100
AcDbLine
 62
7
  6
CONTINUOUS
 10
44.8777010952
 20
10.4330104307
 11
44.9408689895
 21
10.4968637251
  0
LWPOLYLINE
  5
2D2
100
AcDbEntity
  8
C_COPERCHIO
100
AcDbPolyline
 62
7
  6
CONTINUOUS
 90
3
 70
0
 10
45.0065163299
 20
10.5629976752
 10
45.0282657244
 20
10.5848408153
 10
45.05
 20
10.6063638183
  0
LWPOLYLINE
  5
2D3
100
AcDbEntity
  8
C_COPERCHIO
100
AcDbPolyline
 62
7
  6
CONTINUOUS
 90
3
 70
0
 10
44.9408689895
 20
10.4968637251
 10
44.9628179625
 20
10.5188669737
 10
45.0065163299
 20
10.5629976752
  0
LWPOLYLINE
  5
2D4
100
AcDbEntity
  8
C_COPERCHIO
100
AcDbPolyline
 62
7
  6
CONTINUOUS
 90
3
 70
0
 10
58.3468210271
 20
23.6517269794
 10
58.3341577974
 20
23.6390385408
 10
58.3228056272
 20
23.6278312164
  0
LINE
  5
2D5
100
AcDbEntity
  8
C_COPERCHIO
100
AcDbLine
 62
250
  6
CONTINUOUS
 10
60.4000380762
 20
24.5
 11
60.3606880219
 21
24.4606499457
  0
LINE
  5
2D6
100
AcDbEntity
  8
C_COPERCHIO
100
AcDbLine
 62
250
  6
CONTINUOUS
 10
60.65
 20
24.2500380762
 11
60.6106499457
 21
24.2106880219
  0
LINE
  5
2D7
100
AcDbEntity
  8
C_COPERCHIO
100
AcDbLine
 62
7
  6
CONTINUOUS
 10
58.4496209044
 20
23.7545867768
 11
58.3927889483
 21
23.6977778826
  0
LWPOLYLINE
  5
2D8
100
AcDbEntity
  8
C_COPERCHIO
100
AcDbPolyline
 62
7
  6
CONTINUOUS
 90
3
 70
0
 10
58.3927889483
 20
23.6977778826
 10
58.3761366026
 20
23.6811920965
 10
58.3468210271
 20
23.6517269794
  0
LWPOLYLINE
  5
2D9
100
AcDbEntity
  8
C_COPERCHIO
100
AcDbPolyline
 62
7
  6
CONTINUOUS
 90
3
 70
0
 10
58.5393119781
 20
23.8443375673
 10
58.5154767007
 20
23.8207630626
 10
58.4496209044
 20
23.7545867768
  0
LWPOLYLINE
  5
2DA
100
AcDbEntity
  8
C_COPERCHIO
100
AcDbPolyline
 62
7
  6
CONTINUOUS
 90
3
 70
0
 10
44.75
 20
10.3000656078
 10
44.7527148664
 20
10.3026948169
 10
44.7658730116
 20
10.3179504583
  0
LINE
  5
2DB
100
AcDbEntity
  8
C_COPERCHIO
100
AcDbLine
 62
7
  6
CONTINUOUS
 10
58.3228056272
 20
-23.6278312164
 11
58.3341578125
 21
-23.6390385494
  0
LINE
  5
2DC
100
AcDbEntity
  8
C_COPERCHIO
100
AcDbLine
 62
7
  6
CONTINUOUS
 10
58.5154763249
 20
-23.8207626766
 11
58.5393119781
 21
-23.8443375673
  0
LINE
  5
2DD
100
AcDbEntity
  8
C_COPERCHIO
100
AcDbLine
 62
250
  6
CONTINUOUS
 10
60.3606880219
 20
-24.4606499457
 11
60.4000380762
 21
-24.5
  0
LINE
  5
2DE
100
AcDbEntity
  8
C_COPERCHIO
100
AcDbLine
 62
250
  6
CONTINUOUS
 10
60.6106499457
 20
-24.2106880219
 11
60.65
 21
-24.2500380762
  0
LWPOLYLINE
  5
2DF
100
AcDbEntity
  8
C_COPERCHIO
100
AcDbPolyline
 62
7
  6
CONTINUOUS
 90
3
 70
0
 10
58.3341578125
 20
-23.6390385494
 10
58.3607952988
 20
-23.665820888
 10
58.3927888219
 20
-23.6977777564
  0
LINE
  5
2E0
100
AcDbEntity
  8
C_COPERCHIO
100
AcDbLine
 62
7
  6
CONTINUOUS
 10
58.3927888219
 20
-23.6977777564
 11
58.5154763249
 21
-23.8207626766
  0
LINE
  5
2E1
100
AcDbEntity
  8
C_COPERCHIO
100
AcDbLine
 62
250
  6
CONTINUOUS
 10
41.4606880219
 20
24.4606499457
 11
41.4606880219
 21
23.8443375673
  0
LINE
  5
2E2
100
AcDbEntity
  8
C_COPERCHIO
100
AcDbLine
 62
250
  6
CONTINUOUS
 10
41.4606880219
 20
-23.8443375673
 11
41.4606880219
 21
-24.4606499457
  0
LINE
  5
2E3
100
AcDbEntity
  8
C_COPERCHIO
100
AcDbLine
 62
250
  6
CONTINUOUS
 10
41.7106499457
 20
24.2106880219
 11
41.7106499457
 21
23.5581814706
  0
LINE
  5
2E4
100
AcDbEntity
  8
C_COPERCHIO
100
AcDbLine
 62
250
  6
CONTINUOUS
 10
41.7106499457
 20
-23.5581814706
 11
41.7106499457
 21
-24.2106880219
  0
LINE
  5
2E5
100
AcDbEntity
  8
C_COPERCHIO
100
AcDbLine
 62
7
  6
CONTINUOUS
 10
41.7238174026
 20
-23.1226497308
 11
41.7238174026
 21
-22.5111812444
  0
LINE
  5
2E6
100
AcDbEntity
  8
C_COPERCHIO
100
AcDbLine
 62
7
  6
CONTINUOUS
 10
41.7238174026
 20
22.5111812444
 11
41.7238174026
 21
23.1226497308
  0
LINE
  5
2E7
100
AcDbEntity
  8
C_COPERCHIO
100
AcDbLine
 62
7
  6
CONTINUOUS
 10
41.75
 20
24.2500380762
 11
41.75
 21
22.4
  0
LINE
  5
2E8
100
AcDbEntity
  8
C_COPERCHIO
100
AcDbLine
 62
7
  6
CONTINUOUS
 10
41.75
 20
-22.4
 11
41.75
 21
-24.2500380762
  0
LINE
  5
2E9
100
AcDbEntity
  8
C_COPERCHIO
100
AcDbLine
 62
250
  6
CONTINUOUS
 10
42.25
 20
1.3007804683
 11
42.25
 21
10.6063638183
  0
LWPOLYLINE
  5
2EA
100
AcDbEntity
  8
0
100
AcDbPolyline
 62
7
  6
CONTINUOUS
 90
3
 70
0
 43
0.3500000006
 10
51.1428552704
 20
33.6105737
 10
51.0714286194
 20
33.3962892151
 10
50.9285707855
 20
33.1105735474
  0
LINE
  5
2EB
100
AcDbEntity
  8
C_COPERCHIO
100
AcDbLine
 62
250
  6
CONTINUOUS
 10
53.0
 20
-8.9553732239
 11
47.0
 21
-8.9553732239
  0
LINE
  5
2EC
100
AcDbEntity
  8
C_COPERCHIO
100
AcDbLine
 62
7
  6
CONTINUOUS
 10
52.7
 20
-8.65
 11
47.3
 21
-8.65
  0
LWPOLYLINE
  5
2ED
100
AcDbEntity
  8
C_COPERCHIO
100
AcDbPolyline
 62
250
  6
CONTINUOUS
 90
13
 70
0
 10
41.7106499457
 20
24.2106880219
 10
41.7085023791
 20
24.2433083112
 10
41.7021162821
 20
24.2753706744
 10
41.6916008802
 20
24.3063267281
 10
41.6771360251
 20
24.3356470107
 10
41.6589691188
 20
24.3628300382
 10
41.6374108816
 20
24.3874108816
 10
41.6128300382
 20
24.4089691188
 10
41.5856470107
 20
24.4271360251
 10
41.5563267281
 20
24.4416008802
 10
41.5253706744
 20
24.4521162821
 10
41.4933083112
 20
24.4585023791
 10
41.4606880219
 20
24.4606499457
  0
LWPOLYLINE
  5
2EE
100
AcDbEntity
  8
C_COPERCHIO
100
AcDbPolyline
 62
7
  6
CONTINUOUS
 90
13
 70
0
 10
41.75
 20
24.2500380762
 10
41.7478621698
 20
24.2826657348
 10
41.7414844493
 20
24.3147347076
 10
41.7309757228
 20
24.3456966094
 10
41.7165154214
 20
24.3750221805
 10
41.6983506875
 20
24.4022094378
 10
41.6767924653
 20
24.4267924653
 10
41.6522094378
 20
24.4483506875
 10
41.6250221805
 20
24.4665154214
 10
41.5956966094
 20
24.4809757228
 10
41.5647347076
 20
24.4914844493
 10
41.5326657348
 20
24.4978621698
 10
41.5000380762
 20
24.5
  0
LINE
  5
2EF
100
AcDbEntity
  8
C_COPERCHIO
100
AcDbLine
 62
7
  6
CONTINUOUS
 10
41.7238174026
 20
23.1226497308
 11
41.7106499457
 21
23.5581814706
  0
LINE
  5
2F0
100
AcDbEntity
  8
C_COPERCHIO
100
AcDbLine
 62
7
  6
CONTINUOUS
 10
42.55
 20
1.6
 11
42.55
 21
10.3000656172
  0
LINE
  5
2F1
100
AcDbEntity
  8
C_CONTATTI
100
AcDbLine
 62
7
  6
CONTINUOUS
 10
42.9892396941
 20
2.45
 11
42.9892396941
 21
1.6
  0
LINE
  5
2F2
100
AcDbEntity
  8
C_CONTATTI
100
AcDbLine
 62
7
  6
CONTINUOUS
 10
42.9892396941
 20
9.45
 11
42.9892396941
 21
10.3
  0
LINE
  5
2F3
100
AcDbEntity
  8
C_CONTATTI
100
AcDbLine
 62
7
  6
CONTINUOUS
 10
43.6934332387
 20
2.45
 11
43.6934332387
 21
1.6
  0
LINE
  5
2F4
100
AcDbEntity
  8
C_CONTATTI
100
AcDbLine
 62
7
  6
CONTINUOUS
 10
43.6934332387
 20
9.45
 11
43.6934332387
 21
10.3
  0
LINE
  5
2F5
100
AcDbEntity
  8
C_CONTATTI
100
AcDbLine
 62
250
  6
CONTINUOUS
 10
43.9955821827
 20
9.45
 11
43.9955821827
 21
2.45
  0
LINE
  5
2F6
100
AcDbEntity
  8
C_COPERCHIO
100
AcDbLine
 62
7
  6
CONTINUOUS
 10
41.7106499457
 20
-23.5581814706
 11
41.7238174026
 21
-23.1226497308
  0
LWPOLYLINE
  5
2F7
100
AcDbEntity
  8
C_COPERCHIO
100
AcDbPolyline
 62
7
  6
CONTINUOUS
 90
13
 70
0
 10
41.75
 20
-24.2500380762
 10
41.7478621698
 20
-24.2826657348
 10
41.7414844493
 20
-24.3147347076
 10
41.7309757228
 20
-24.3456966094
 10
41.7165154214
 20
-24.3750221805
 10
41.6983506875
 20
-24.4022094378
 10
41.6767924653
 20
-24.4267924653
 10
41.6522094378
 20
-24.4483506875
 10
41.6250221805
 20
-24.4665154214
 10
41.5956966094
 20
-24.4809757228
 10
41.5647347076
 20
-24.4914844493
 10
41.5326657348
 20
-24.4978621698
 10
41.5000380762
 20
-24.5
  0
LWPOLYLINE
  5
2F8
100
AcDbEntity
  8
C_COPERCHIO
100
AcDbPolyline
 62
250
  6
CONTINUOUS
 90
13
 70
0
 10
41.7106499457
 20
-24.2106880219
 10
41.7085023791
 20
-24.2433083112
 10
41.7021162821
 20
-24.2753706744
 10
41.6916008802
 20
-24.3063267281
 10
41.6771360251
 20
-24.3356470107
 10
41.6589691188
 20
-24.3628300382
 10
41.6374108816
 20
-24.3874108816
 10
41.6128300382
 20
-24.4089691188
 10
41.5856470107
 20
-24.4271360251
 10
41.5563267281
 20
-24.4416008802
 10
41.5253706744
 20
-24.4521162821
 10
41.4933083112
 20
-24.4585023791
 10
41.4606880219
 20
-24.4606499457
  0
LWPOLYLINE
  5
2F9
100
AcDbEntity
  8
C_COPERCHIO
100
AcDbPolyline
 62
250
  6
CONTINUOUS
 90
9
 70
0
 10
39.5007240378
 20
-21.998725222
 10
39.501957001
 20
-21.9895002672
 10
39.5031674846
 20
-21.9729096634
 10
39.5043554884
 20
-21.9490364874
 10
39.5055265861
 20
-21.9180009735
 10
39.5066752041
 20
-21.8799569261
 10
39.5077846218
 20
-21.8350886419
 10
39.5088544124
 20
-21.7836114352
 10
39.5108609528
 20
-21.6619026138
  0
LWPOLYLINE
  5
2FA
100
AcDbEntity
  8
C_COPERCHIO
100
AcDbPolyline
 62
250
  6
CONTINUOUS
 90
9
 70
0
 10
39.0008001903
 20
-21.4994104546
 10
39.0020270901
 20
-21.4932099433
 10
39.0032333845
 20
-21.4822335635
 10
39.0044190735
 20
-21.4664813152
 10
39.0055903538
 20
-21.4458281413
 10
39.0067410287
 20
-21.4203990989
 10
39.0078525079
 20
-21.39056936
 10
39.0089237422
 20
-21.3562726133
 10
39.0109331814
 20
-21.2750511368
  0
LWPOLYLINE
  5
2FB
100
AcDbEntity
  8
C_COPERCHIO
100
AcDbPolyline
 62
7
  6
CONTINUOUS
 90
3
 70
0
 10
42.2716940241
 20
1.322250001
 10
42.3370644955
 20
1.3878702635
 10
42.4015535733
 20
1.4523002757
  0
LWPOLYLINE
  5
2FC
100
AcDbEntity
  8
C_COPERCHIO
100
AcDbPolyline
 62
7
  6
CONTINUOUS
 90
3
 70
0
 10
42.4221667425
 20
1.4727455484
 10
42.4606936632
 20
1.5113244018
 10
42.4786074148
 20
1.5290008647
  0
LWPOLYLINE
  5
2FD
100
AcDbEntity
  8
C_COPERCHIO
100
AcDbPolyline
 62
7
  6
CONTINUOUS
 90
7
 70
0
 10
42.4786074148
 20
1.5290008647
 10
42.5098864204
 20
1.5603590788
 10
42.5232516744
 20
1.5733919043
 10
42.5340469022
 20
1.5843242721
 10
42.5419346277
 20
1.5927326452
 10
42.5472523269
 20
1.5981094195
 10
42.55
 20
1.6
  0
LINE
  5
2FE
100
AcDbEntity
  8
C_COPERCHIO
100
AcDbLine
 62
7
  6
CONTINUOUS
 10
42.4015535733
 20
1.4523002757
 11
42.4221667425
 21
1.4727455484
  0
LINE
  5
2FF
100
AcDbEntity
  8
C_COPERCHIO
100
AcDbLine
 62
7
  6
CONTINUOUS
 10
42.25
 20
1.3007804683
 11
42.2716940241
 21
1.322250001
  0
LWPOLYLINE
  5
300
100
AcDbEntity
  8
C_COPERCHIO
100
AcDbPolyline
 62
250
  6
CONTINUOUS
 90
5
 70
0
 10
47.2598095814
 20
-5.9517860351
 10
47.2771650668
 20
-5.9513669695
 10
47.2897783342
 20
-5.9509245167
 10
47.2974336169
 20
-5.9504662477
 10
47.3
 20
-5.9500000032
  0
LINE
  5
301
100
AcDbEntity
  8
C_COPERCHIO
100
AcDbLine
 62
250
  6
CONTINUOUS
 10
47.2121354596
 20
-5.9525258489
 11
47.2598095814
 21
-5.9517860351
  0
LINE
  5
302
100
AcDbEntity
  8
C_COPERCHIO
100
AcDbLine
 62
250
  6
CONTINUOUS
 10
47.1500039756
 20
-5.9530935415
 11
47.2121354596
 21
-5.9525258489
  0
LWPOLYLINE
  5
303
100
AcDbEntity
  8
C_COPERCHIO
100
AcDbPolyline
 62
250
  6
CONTINUOUS
 90
3
 70
0
 10
47.0
 20
-5.9535721433
 10
47.0391595143
 20
-5.953541581
 10
47.1500039756
 20
-5.9530935415
  0
LINE
  5
304
100
AcDbEntity
  8
C_COPERCHIO
100
AcDbLine
 62
250
  6
CONTINUOUS
 10
53.0
 20
-5.9535721433
 11
52.9223542866
 21
-5.9534504255
  0
LINE
  5
305
100
AcDbEntity
  8
C_COPERCHIO
100
AcDbLine
 62
250
  6
CONTINUOUS
 10
52.9223542866
 20
-5.9534504255
 11
52.8500000002
 21
-5.9530935673
  0
LINE
  5
306
100
AcDbEntity
  8
C_COPERCHIO
100
AcDbLine
 62
250
  6
CONTINUOUS
 10
52.8500000002
 20
-5.9530935673
 11
52.7878679659
 21
-5.9525258879
  0
LWPOLYLINE
  5
307
100
AcDbEntity
  8
C_COPERCHIO
100
AcDbPolyline
 62
250
  6
CONTINUOUS
 90
6
 70
0
 10
52.7878679659
 20
-5.9525258879
 10
52.740192379
 20
-5.9517860739
 10
52.7228361404
 20
-5.9513670025
 10
52.7102222522
 20
-5.9509245407
 10
52.7025665416
 20
-5.9504662595
 10
52.7
 20
-5.95
  0
LWPOLYLINE
  5
308
100
AcDbEntity
  8
C_COPERCHIO
100
AcDbPolyline
 62
7
  6
CONTINUOUS
 90
7
 70
0
 10
39.3794889362
 20
22.3111693053
 10
39.3790397252
 20
22.3143154326
 10
39.3786134345
 20
22.3203522639
 10
39.3782100643
 20
22.3292797991
 10
39.3778237743
 20
22.341337932
 10
39.3774604046
 20
22.3562867688
 10
39.3771374756
 20
22.3734066285
  0
LINE
  5
309
100
AcDbEntity
  8
C_CONTATTI
100
AcDbLine
 62
7
  6
CONTINUOUS
 10
44.3812337883
 20
9.45
 11
44.3812337883
 21
10.3
  0
LINE
  5
30A
100
AcDbEntity
  8
C_CONTATTI
100
AcDbLine
 62
7
  6
CONTINUOUS
 10
44.405632689
 20
2.45
 11
44.405632689
 21
9.45
  0
LINE
  5
30B
100
AcDbEntity
  8
C_CORPO
100
AcDbLine
 62
7
  6
CONTINUOUS
 10
44.5500259197
 20
1.6
 11
44.5500259197
 21
2.2500259197
  0
LINE
  5
30C
100
AcDbEntity
  8
ASSI
100
AcDbLine
 62
7
  6
CONTINUOUS
 10
44.5500259197
 20
1.6
 11
44.5500259197
 21
2.2500259197
  0
LINE
  5
30D
100
AcDbEntity
  8
C_CONTATTI
100
AcDbLine
 62
7
  6
CONTINUOUS
 10
44.594367311
 20
9.45
 11
44.594367311
 21
2.45
  0
LINE
  5
30E
100
AcDbEntity
  8
C_CONTATTI
100
AcDbLine
 62
7
  6
CONTINUOUS
 10
44.6187662117
 20
10.3
 11
44.6187662117
 21
9.45
  0
LINE
  5
30F
100
AcDbEntity
  8
C_CONTATTI
100
AcDbLine
 62
7
  6
CONTINUOUS
 10
44.6187662117
 20
2.45
 11
44.6187662117
 21
1.6
  0
LINE
  5
310
100
AcDbEntity
  8
C_COPERCHIO
100
AcDbLine
 62
7
  6
CONTINUOUS
 10
44.75
 20
10.3000655715
 11
44.75
 21
1.6
  0
LINE
  5
311
100
AcDbEntity
  8
C_COPERCHIO
100
AcDbLine
 62
250
  6
CONTINUOUS
 10
45.05
 20
10.6063638183
 11
45.05
 21
1.3007804683
  0
LINE
  5
312
100
AcDbEntity
  8
C_COPERCHIO
100
AcDbLine
 62
7
  6
CONTINUOUS
 10
45.6
 20
23.600030461
 11
45.6
 21
22.4
  0
LINE
  5
313
100
AcDbEntity
  8
C_COPERCHIO
100
AcDbLine
 62
7
  6
CONTINUOUS
 10
45.6
 20
-23.600030461
 11
45.6
 21
-22.4
  0
LINE
  5
314
100
AcDbEntity
  8
C_COPERCHIO
100
AcDbLine
 62
250
  6
CONTINUOUS
 10
45.6088798489
 20
-22.3733387894
 11
45.6088798489
 21
-23.5911506121
  0
LINE
  5
315
100
AcDbEntity
  8
C_COPERCHIO
100
AcDbLine
 62
250
  6
CONTINUOUS
 10
45.6088798489
 20
22.3733387894
 11
45.6088798489
 21
23.5911506121
  0
LINE
  5
316
100
AcDbEntity
  8
C_CORPO
100
AcDbLine
 62
7
  6
CONTINUOUS
 10
44.5500259197
 20
2.2500259197
 11
44.6187662117
 21
2.3187662117
  0
LINE
  5
317
100
AcDbEntity
  8
ASSI
100
AcDbLine
 62
7
  6
CONTINUOUS
 10
44.5500259197
 20
2.2500259197
 11
44.6187662117
 21
2.3187662117
  0
LINE
  5
318
100
AcDbEntity
  8
C_COPERCHIO
100
AcDbLine
 62
7
  6
CONTINUOUS
 10
53.0
 20
-8.9553732239
 11
52.9780202364
 21
-8.9336080362
  0
LWPOLYLINE
  5
319
100
AcDbEntity
  8
C_COPERCHIO
100
AcDbPolyline
 62
7
  6
CONTINUOUS
 90
3
 70
0
 10
52.7884495778
 20
-8.7422207518
 10
52.7705901795
 20
-8.7242122823
 10
52.7394119418
 20
-8.6920945127
  0
LWPOLYLINE
  5
31A
100
AcDbEntity
  8
C_COPERCHIO
100
AcDbPolyline
 62
7
  6
CONTINUOUS
 90
6
 70
0
 10
52.7394119418
 20
-8.6920945127
 10
52.7260931024
 20
-8.6786369934
 10
52.7153872252
 20
-8.6671031793
 10
52.707645188
 20
-8.6580192126
 10
52.7025161129
 20
-8.6521087339
 10
52.7
 20
-8.65
  0
LINE
  5
31B
100
AcDbEntity
  8
C_COPERCHIO
100
AcDbLine
 62
7
  6
CONTINUOUS
 10
52.9780202364
 20
-8.9336080362
 11
52.8268955275
 21
-8.7813741446
  0
LINE
  5
31C
100
AcDbEntity
  8
C_COPERCHIO
100
AcDbLine
 62
7
  6
CONTINUOUS
 10
52.8268955275
 20
-8.7813741446
 11
52.7884495778
 21
-8.7422207518
  0
LINE
  5
31D
100
AcDbEntity
  8
C_COPERCHIO
100
AcDbLine
 62
250
  6
CONTINUOUS
 10
46.1088036965
 20
-22.3475922207
 11
46.1088036965
 21
-23.7859750215
  0
LINE
  5
31E
100
AcDbEntity
  8
C_COPERCHIO
100
AcDbLine
 62
250
  6
CONTINUOUS
 10
46.1088036965
 20
22.3475922207
 11
46.1088036965
 21
23.7859750215
  0
LINE
  5
31F
100
AcDbEntity
  8
C_COPERCHIO
100
AcDbLine
 62
250
  6
CONTINUOUS
 10
47.0
 20
-8.9553732239
 11
47.0
 21
-5.9535721433
  0
LINE
  5
320
100
AcDbEntity
  8
C_COPERCHIO
100
AcDbLine
 62
7
  6
CONTINUOUS
 10
47.3
 20
-8.65
 11
47.3
 21
-5.95
  0
LINE
  5
321
100
AcDbEntity
  8
C_CONTATTI
100
AcDbLine
 62
7
  6
CONTINUOUS
 10
47.4
 20
-5.2249344892
 11
47.4
 21
-8.65
  0
LWPOLYLINE
  5
322
100
AcDbEntity
  8
C_COPERCHIO
100
AcDbPolyline
 62
250
  6
CONTINUOUS
 90
46
 70
0
 10
47.0
 20
-5.9535721433
 10
47.0077584524
 20
-5.7409668234
 10
47.0298989783
 20
-5.5315729913
 10
47.0664215777
 20
-5.3253907293
 10
47.1177113612
 20
-5.1213978468
 10
47.1833832182
 20
-4.9206166786
 10
47.2622818174
 20
-4.7261141262
 10
47.3545611153
 20
-4.5380921313
 10
47.4600671553
 20
-4.356348946
 10
47.5771827365
 20
-4.1833459871
 10
47.7060372768
 20
-4.0192091182
 10
47.8465013583
 20
-3.8638126631
 10
47.9965695267
 20
-3.7192407539
 10
48.1563495589
 20
-3.585626991
 10
48.325733678
 20
-3.4628379309
 10
48.5023930995
 20
-3.3525571492
 10
48.686455208
 20
-3.2549260559
 10
48.877792619
 20
-3.1698033554
 10
49.0736943939
 20
-3.0984485631
 10
49.2742469692
 20
-3.0410531458
 10
49.4793639085
 20
-2.9974257053
 10
49.6860749637
 20
-2.9682514517
 10
49.894451671
 20
-2.9537588183
 10
50.1044224944
 20
-2.9537193946
 10
50.3128025774
 20
-2.9681331132
 10
50.5195193075
 20
-2.9972278149
 10
50.7246452973
 20
-3.0407756361
 10
50.9252135283
 20
-3.0980929433
 10
51.1211380389
 20
-3.1693703445
 10
51.3125047907
 20
-3.2544171629
 10
51.4966046499
 20
-3.3519778302
 10
51.6733108273
 20
-3.4621927174
 10
51.8427501121
 20
-3.5849213391
 10
52.0025937378
 20
-3.7184868401
 10
52.152736041
 20
-3.8630242938
 10
52.2932826851
 20
-4.0183984697
 10
52.422221894
 20
-4.1825270658
 10
52.5394246934
 20
-4.3555368677
 10
52.6450200577
 20
-4.5373009022
 10
52.7373831338
 20
-4.7253562527
 10
52.8163587424
 20
-4.9198931253
 10
52.8821020628
 20
-5.1207211198
 10
52.9334537803
 20
-5.3248064591
 10
52.9700274565
 20
-5.5311378492
 10
52.9922095297
 20
-5.7407264383
 10
53.0
 20
-5.9535721433
  0
LINE
  5
323
100
AcDbEntity
  8
C_COPERCHIO
100
AcDbLine
 62
250
  6
CONTINUOUS
 10
38.8674549721
 20
-21.8997714267
 11
39.0008001903
 21
-21.4994104546
  0
LINE
  5
324
100
AcDbEntity
  8
C_COPERCHIO
100
AcDbLine
 62
7
  6
CONTINUOUS
 10
39.35
 20
-22.399708057
 11
39.3794889362
 21
-22.3111693052
  0
LINE
  5
325
100
AcDbEntity
  8
C_COPERCHIO
100
AcDbLine
 62
250
  6
CONTINUOUS
 10
39.3965653701
 20
-22.3114553375
 11
39.5007240378
 21
-21.998725222
  0
LINE
  5
326
100
AcDbEntity
  8
C_COPERCHIO
100
AcDbLine
 62
7
  6
CONTINUOUS
 10
54.4
 20
22.4
 11
54.3911201511
 21
22.3733387894
  0
LWPOLYLINE
  5
327
100
AcDbEntity
  8
C_COPERCHIO
100
AcDbPolyline
 62
7
  6
CONTINUOUS
 90
6
 70
0
 10
44.7901135796
 20
1.5603590788
 10
44.7767483256
 20
1.5733919043
 10
44.7659530978
 20
1.5843242721
 10
44.7580653723
 20
1.5927326452
 10
44.7527476731
 20
1.5981094195
 10
44.75
 20
1.6
  0
LWPOLYLINE
  5
328
100
AcDbEntity
  8
C_COPERCHIO
100
AcDbPolyline
 62
7
  6
CONTINUOUS
 90
3
 70
0
 10
44.8393063368
 20
1.5113244018
 10
44.8213925852
 20
1.5290008647
 10
44.7901135796
 20
1.5603590788
  0
LINE
  5
329
100
AcDbEntity
  8
C_COPERCHIO
100
AcDbLine
 62
7
  6
CONTINUOUS
 10
45.05
 20
1.3007804683
 11
45.0283059759
 21
1.322250001
  0
LINE
  5
32A
100
AcDbEntity
  8
C_COPERCHIO
100
AcDbLine
 62
7
  6
CONTINUOUS
 10
44.9195023391
 20
1.4312352018
 11
44.8393063368
 21
1.5113244018
  0
LINE
  5
32B
100
AcDbEntity
  8
C_COPERCHIO
100
AcDbLine
 62
7
  6
CONTINUOUS
 10
45.0283059759
 20
1.322250001
 11
44.9195023391
 21
1.4312352018
  0
LINE
  5
32C
100
AcDbEntity
  8
C_COPERCHIO
100
AcDbLine
 62
250
  6
CONTINUOUS
 10
39.0008001903
 20
21.4994104546
 11
38.8674549721
 21
21.8997714267
  0
LINE
  5
32D
100
AcDbEntity
  8
C_COPERCHIO
100
AcDbLine
 62
7
  6
CONTINUOUS
 10
39.3794889362
 20
22.3111693053
 11
39.35
 21
22.399708057
  0
LINE
  5
32E
100
AcDbEntity
  8
C_COPERCHIO
100
AcDbLine
 62
250
  6
CONTINUOUS
 10
39.5007240378
 20
21.998725222
 11
39.3965653701
 21
22.3114553375
  0
LINE
  5
32F
100
AcDbEntity
  8
C_COPERCHIO
100
AcDbLine
 62
7
  6
CONTINUOUS
 10
54.4
 20
-22.4
 11
54.3911201511
 21
-22.3733387894
  0
LINE
  5
330
100
AcDbEntity
  8
C_CONTATTI
100
AcDbLine
 62
7
  6
CONTINUOUS
 10
47.8949747468
 20
-4.2615789022
 11
47.8949747468
 21
-8.65
  0
LINE
  5
331
100
AcDbEntity
  8
C_CONTATTI
100
AcDbLine
 62
250
  6
CONTINUOUS
 10
49.4955821827
 20
-3.2985856275
 11
49.4955821827
 21
-8.65
  0
LWPOLYLINE
  5
332
100
AcDbEntity
  8
C_COPERCHIO
100
AcDbPolyline
 62
7
  6
CONTINUOUS
 90
4
 70
0
 10
57.4658730116
 20
9.4677769594
 10
57.4766556797
 20
9.4793268751
 10
57.4900144853
 20
9.4929072684
 10
57.5212794055
 20
9.5252260801
  0
LWPOLYLINE
  5
333
100
AcDbEntity
  8
C_COPERCHIO
100
AcDbPolyline
 62
7
  6
CONTINUOUS
 90
4
 70
0
 10
57.6193675632
 20
9.6246262423
 10
57.6408689895
 20
9.6463845735
 10
57.6628179625
 20
9.6683756994
 10
57.7065163299
 20
9.7124912142
  0
LWPOLYLINE
  5
334
100
AcDbEntity
  8
C_COPERCHIO
100
AcDbPolyline
 62
7
  6
CONTINUOUS
 90
3
 70
0
 10
57.5212794055
 20
9.5252260801
 10
57.53918552
 20
9.5433134216
 10
57.5777010952
 20
9.582586643
  0
LINE
  5
335
100
AcDbEntity
  8
C_COPERCHIO
100
AcDbLine
 62
7
  6
CONTINUOUS
 10
57.5777010952
 20
9.582586643
 11
57.6193675632
 21
9.6246262423
  0
LWPOLYLINE
  5
336
100
AcDbEntity
  8
C_COPERCHIO
100
AcDbPolyline
 62
7
  6
CONTINUOUS
 90
3
 70
0
 10
57.7065163299
 20
9.7124912142
 10
57.7282657244
 20
9.7343310775
 10
57.75
 20
9.7558535121
  0
LWPOLYLINE
  5
337
100
AcDbEntity
  8
C_COPERCHIO
100
AcDbPolyline
 62
7
  6
CONTINUOUS
 90
3
 70
0
 10
57.45
 20
9.4500553678
 10
57.4527148664
 20
9.4526269878
 10
57.4658730116
 20
9.4677769594
  0
LWPOLYLINE
  5
338
100
AcDbEntity
  8
0
100
AcDbPolyline
 62
7
  6
CONTINUOUS
 90
2
 70
0
 43
0.3500000006
 10
74.4696275482
 20
-1.3571429443
 10
72.9696270905
 20
-1.3571429443
  0
LINE
  5
339
100
AcDbEntity
  8
C_CONTATTI
100
AcDbLine
 62
7
  6
CONTINUOUS
 10
49.905632689
 20
-8.65
 11
49.905632689
 21
-3.2516501279
  0
LINE
  5
33A
100
AcDbEntity
  8
C_CONTATTI
100
AcDbLine
 62
7
  6
CONTINUOUS
 10
50.094367311
 20
-3.2516656968
 11
50.094367311
 21
-8.65
  0
LINE
  5
33B
100
AcDbEntity
  8
C_CONTATTI
100
AcDbLine
 62
250
  6
CONTINUOUS
 10
50.5044178173
 20
-8.65
 11
50.5044178173
 21
-3.2985961587
  0
LINE
  5
33C
100
AcDbEntity
  8
C_COPERCHIO
100
AcDbLine
 62
250
  6
CONTINUOUS
 10
45.05
 20
1.3007804683
 11
42.25
 21
1.3007804683
  0
LINE
  5
33D
100
AcDbEntity
  8
C_COPERCHIO
100
AcDbLine
 62
7
  6
CONTINUOUS
 10
44.75
 20
1.6
 11
42.55
 21
1.6
  0
LWPOLYLINE
  5
33E
100
AcDbEntity
  8
C_COPERCHIO
100
AcDbPolyline
 62
7
  6
CONTINUOUS
 90
4
 70
0
 10
42.5472851336
 20
10.3026948169
 10
42.5341269884
 20
10.3179504583
 10
42.5233443203
 20
10.3295473699
 10
42.5099855147
 20
10.3431706847
  0
LINE
  5
33F
100
AcDbEntity
  8
C_CONTATTI
100
AcDbLine
 62
7
  6
CONTINUOUS
 10
52.1050252532
 20
-8.65
 11
52.1050252532
 21
-4.261588192
  0
LINE
  5
340
100
AcDbEntity
  8
C_CONTATTI
100
AcDbLine
 62
7
  6
CONTINUOUS
 10
52.6
 20
-8.65
 11
52.6
 21
-5.2249616292
  0
LINE
  5
341
100
AcDbEntity
  8
C_COPERCHIO
100
AcDbLine
 62
7
  6
CONTINUOUS
 10
52.7
 20
-5.95
 11
52.7
 21
-8.65
  0
LINE
  5
342
100
AcDbEntity
  8
C_COPERCHIO
100
AcDbLine
 62
250
  6
CONTINUOUS
 10
53.0
 20
-5.9535721433
 11
53.0
 21
-8.9553732239
  0
LINE
  5
343
100
AcDbEntity
  8
C_COPERCHIO
100
AcDbLine
 62
7
  6
CONTINUOUS
 10
45.6
 20
-22.4
 11
45.6088798489
 21
-22.3733387894
  0
LINE
  5
344
100
AcDbEntity
  8
C_COPERCHIO
100
AcDbLine
 62
250
  6
CONTINUOUS
 10
60.6034346299
 20
22.3114553375
 11
60.4992759622
 21
21.998725222
  0
LINE
  5
345
100
AcDbEntity
  8
C_COPERCHIO
100
AcDbLine
 62
7
  6
CONTINUOUS
 10
60.65
 20
22.399708057
 11
60.6205110638
 21
22.3111693052
  0
LWPOLYLINE
  5
346
100
AcDbEntity
  8
C_COPERCHIO
100
AcDbPolyline
 62
7
  6
CONTINUOUS
 90
3
 70
0
 10
54.9716704541
 20
2.1727355417
 10
55.0369956676
 20
2.2382892238
 10
55.1014740086
 20
2.302660485
  0
LWPOLYLINE
  5
347
100
AcDbEntity
  8
C_COPERCHIO
100
AcDbPolyline
 62
7
  6
CONTINUOUS
 90
3
 70
0
 10
55.1220893435
 20
2.3230854887
 10
55.1606228991
 20
2.361616226
 10
55.1785411198
 20
2.3792649464
  0
LWPOLYLINE
  5
348
100
AcDbEntity
  8
C_COPERCHIO
100
AcDbPolyline
 62
7
  6
CONTINUOUS
 90
7
 70
0
 10
55.1785411198
 20
2.3792649464
 10
55.2098283569
 20
2.4105599277
 10
55.2231973732
 20
2.4235574591
 10
55.2339999513
 20
2.4344403384
 10
55.2418997391
 20
2.4427935865
 10
55.2472330887
 20
2.4481270486
 10
55.25
 20
2.45
  0
LINE
  5
349
100
AcDbEntity
  8
C_COPERCHIO
100
AcDbLine
 62
7
  6
CONTINUOUS
 10
55.1014740086
 20
2.302660485
 11
55.1220893435
 21
2.3230854887
  0
LINE
  5
34A
100
AcDbEntity
  8
C_COPERCHIO
100
AcDbLine
 62
7
  6
CONTINUOUS
 10
54.95
 20
2.1512907745
 11
54.9716704541
 21
2.1727355417
  0
LINE
  5
34B
100
AcDbEntity
  8
C_CORPO
100
AcDbLine
 62
7
  6
CONTINUOUS
 10
44.3812337883
 20
2.2459788123
 11
44.5500259197
 21
2.2500259197
  0
LINE
  5
34C
100
AcDbEntity
  8
ASSI
100
AcDbLine
 62
7
  6
CONTINUOUS
 10
44.3812337883
 20
2.2459788123
 11
44.5500259197
 21
2.2500259197
  0
LINE
  5
34D
100
AcDbEntity
  8
C_COPERCHIO
100
AcDbLine
 62
250
  6
CONTINUOUS
 10
57.75
 20
2.1512907745
 11
54.95
 21
2.1512907745
  0
LINE
  5
34E
100
AcDbEntity
  8
C_COPERCHIO
100
AcDbLine
 62
7
  6
CONTINUOUS
 10
57.45
 20
2.45
 11
55.25
 21
2.45
  0
LINE
  5
34F
100
AcDbEntity
  8
C_CONTATTI
100
AcDbLine
 62
7
  6
CONTINUOUS
 10
42.55
 20
2.45
 11
44.75
 21
2.45
  0
LINE
  5
350
100
AcDbEntity
  8
C_COPERCHIO
100
AcDbLine
 62
7
  6
CONTINUOUS
 10
42.55
 20
10.3000656078
 11
42.5472851336
 21
10.3026948169
  0
LINE
  5
351
100
AcDbEntity
  8
C_COPERCHIO
100
AcDbLine
 62
7
  6
CONTINUOUS
 10
42.2717342756
 20
10.5848408153
 11
42.25
 21
10.6063638183
  0
LINE
  5
352
100
AcDbEntity
  8
C_COPERCHIO
100
AcDbLine
 62
7
  6
CONTINUOUS
 10
42.3591310105
 20
10.4968637251
 11
42.2717342756
 21
10.5848408153
  0
LINE
  5
353
100
AcDbEntity
  8
C_COPERCHIO
100
AcDbLine
 62
7
  6
CONTINUOUS
 10
42.4787205945
 20
10.3755644468
 11
42.3591310105
 21
10.4968637251
  0
LINE
  5
354
100
AcDbEntity
  8
C_COPERCHIO
100
AcDbLine
 62
7
  6
CONTINUOUS
 10
42.5099855147
 20
10.3431706847
 11
42.4787205945
 21
10.3755644468
  0
LINE
  5
355
100
AcDbEntity
  8
C_COPERCHIO
100
AcDbLine
 62
7
  6
CONTINUOUS
 10
45.6
 20
22.4
 11
45.6088798489
 21
22.3733387894
  0
LINE
  5
356
100
AcDbEntity
  8
C_COPERCHIO
100
AcDbLine
 62
250
  6
CONTINUOUS
 10
60.4992759622
 20
-21.998725222
 11
60.6034346299
 21
-22.3114553375
  0
LINE
  5
357
100
AcDbEntity
  8
C_COPERCHIO
100
AcDbLine
 62
7
  6
CONTINUOUS
 10
60.6205110638
 20
-22.3111693053
 11
60.65
 21
-22.399708057
  0
LINE
  5
358
100
AcDbEntity
  8
C_COPERCHIO
100
AcDbLine
 62
250
  6
CONTINUOUS
 10
53.8911963035
 20
-22.3475922207
 11
53.8911963035
 21
-23.7859750215
  0
LINE
  5
359
100
AcDbEntity
  8
C_COPERCHIO
100
AcDbLine
 62
250
  6
CONTINUOUS
 10
53.8911963035
 20
22.3475922207
 11
53.8911963035
 21
23.7859750215
  0
LINE
  5
35A
100
AcDbEntity
  8
C_COPERCHIO
100
AcDbLine
 62
250
  6
CONTINUOUS
 10
54.3911201511
 20
-22.3733387894
 11
54.3911201511
 21
-23.5911506121
  0
LINE
  5
35B
100
AcDbEntity
  8
C_COPERCHIO
100
AcDbLine
 62
250
  6
CONTINUOUS
 10
54.3911201511
 20
22.3733387894
 11
54.3911201511
 21
23.5911506121
  0
LINE
  5
35C
100
AcDbEntity
  8
C_COPERCHIO
100
AcDbLine
 62
7
  6
CONTINUOUS
 10
54.4
 20
23.600030461
 11
54.4
 21
22.4
  0
LINE
  5
35D
100
AcDbEntity
  8
C_COPERCHIO
100
AcDbLine
 62
7
  6
CONTINUOUS
 10
54.4
 20
-23.600030461
 11
54.4
 21
-22.4
  0
LINE
  5
35E
100
AcDbEntity
  8
C_COPERCHIO
100
AcDbLine
 62
250
  6
CONTINUOUS
 10
54.95
 20
2.1512907745
 11
54.95
 21
9.7558535121
  0
LINE
  5
35F
100
AcDbEntity
  8
C_COPERCHIO
100
AcDbLine
 62
7
  6
CONTINUOUS
 10
55.25
 20
2.45
 11
55.25
 21
9.4500553485
  0
LINE
  5
360
100
AcDbEntity
  8
C_COPERCHIO
100
AcDbLine
 62
250
  6
CONTINUOUS
 10
61.1325450279
 20
21.8997714267
 11
60.9991998097
 21
21.4994104546
  0
LWPOLYLINE
  5
361
100
AcDbEntity
  8
C_COPERCHIO
100
AcDbPolyline
 62
7
  6
CONTINUOUS
 90
7
 70
0
 10
47.2294098205
 20
-8.7242122823
 10
47.2605880582
 20
-8.6920945127
 10
47.2739068976
 20
-8.6786369934
 10
47.2846127748
 20
-8.6671031793
 10
47.292354812
 20
-8.6580192126
 10
47.2974838871
 20
-8.6521087339
 10
47.3
 20
-8.65
  0
LWPOLYLINE
  5
362
100
AcDbEntity
  8
C_COPERCHIO
100
AcDbPolyline
 62
7
  6
CONTINUOUS
 90
3
 70
0
 10
47.1731044725
 20
-8.7813741446
 10
47.2115504222
 20
-8.7422207518
 10
47.2294098205
 20
-8.7242122823
  0
LINE
  5
363
100
AcDbEntity
  8
C_COPERCHIO
100
AcDbLine
 62
7
  6
CONTINUOUS
 10
47.1099151592
 20
-8.8451432673
 11
47.1731044725
 21
-8.7813741446
  0
LINE
  5
364
100
AcDbEntity
  8
C_COPERCHIO
100
AcDbLine
 62
7
  6
CONTINUOUS
 10
47.0878989488
 20
-8.8671917461
 11
47.1099151592
 21
-8.8451432673
  0
LWPOLYLINE
  5
365
100
AcDbEntity
  8
C_COPERCHIO
100
AcDbPolyline
 62
7
  6
CONTINUOUS
 90
3
 70
0
 10
47.0
 20
-8.9553732239
 10
47.0219797636
 20
-8.9336080362
 10
47.0878989488
 20
-8.8671917461
  0
LINE
  5
366
100
AcDbEntity
  8
C_COPERCHIO
100
AcDbLine
 62
250
  6
CONTINUOUS
 10
60.9991998097
 20
-21.4994104546
 11
61.1325450279
 21
-21.8997714267
  0
LWPOLYLINE
  5
367
100
AcDbEntity
  8
C_COPERCHIO
100
AcDbPolyline
 62
250
  6
CONTINUOUS
 90
13
 70
0
 10
58.2893500543
 20
-24.2106880219
 10
58.2914976209
 20
-24.2433083112
 10
58.2978837179
 20
-24.2753706744
 10
58.3083991198
 20
-24.3063267281
 10
58.3228639749
 20
-24.3356470107
 10
58.3410308812
 20
-24.3628300382
 10
58.3625891184
 20
-24.3874108816
 10
58.3871699618
 20
-24.4089691188
 10
58.4143529893
 20
-24.4271360251
 10
58.4436732719
 20
-24.4416008802
 10
58.4746293256
 20
-24.4521162821
 10
58.5066916888
 20
-24.4585023791
 10
58.5393119781
 20
-24.4606499457
  0
LWPOLYLINE
  5
368
100
AcDbEntity
  8
C_COPERCHIO
100
AcDbPolyline
 62
7
  6
CONTINUOUS
 90
13
 70
0
 10
58.25
 20
-24.2500380762
 10
58.2521378302
 20
-24.2826657348
 10
58.2585155507
 20
-24.3147347076
 10
58.2690242772
 20
-24.3456966094
 10
58.2834845786
 20
-24.3750221805
 10
58.3016493125
 20
-24.4022094378
 10
58.3232075347
 20
-24.4267924653
 10
58.3477905622
 20
-24.4483506875
 10
58.3749778195
 20
-24.4665154214
 10
58.4043033906
 20
-24.4809757228
 10
58.4352652924
 20
-24.4914844493
 10
58.4673342652
 20
-24.4978621698
 10
58.4999619238
 20
-24.5
  0
LINE
  5
369
100
AcDbEntity
  8
C_CONTATTI
100
AcDbLine
 62
7
  6
CONTINUOUS
 10
55.405632689
 20
2.45
 11
55.405632689
 21
9.45
  0
LINE
  5
36A
100
AcDbEntity
  8
C_CONTATTI
100
AcDbLine
 62
7
  6
CONTINUOUS
 10
55.594367311
 20
9.45
 11
55.594367311
 21
2.45
  0
LINE
  5
36B
100
AcDbEntity
  8
C_CONTATTI
100
AcDbLine
 62
250
  6
CONTINUOUS
 10
56.0044178173
 20
2.45
 11
56.0044178173
 21
9.45
  0
LWPOLYLINE
  5
36C
100
AcDbEntity
  8
C_COPERCHIO
100
AcDbPolyline
 62
7
  6
CONTINUOUS
 90
13
 70
0
 10
58.25
 20
24.2500380762
 10
58.2521378302
 20
24.2826657348
 10
58.2585155507
 20
24.3147347076
 10
58.2690242772
 20
24.3456966094
 10
58.2834845786
 20
24.3750221805
 10
58.3016493125
 20
24.4022094378
 10
58.3232075347
 20
24.4267924653
 10
58.3477905622
 20
24.4483506875
 10
58.3749778195
 20
24.4665154214
 10
58.4043033906
 20
24.4809757228
 10
58.4352652924
 20
24.4914844493
 10
58.4673342652
 20
24.4978621698
 10
58.4999619238
 20
24.5
  0
LWPOLYLINE
  5
36D
100
AcDbEntity
  8
C_COPERCHIO
100
AcDbPolyline
 62
250
  6
CONTINUOUS
 90
13
 70
0
 10
58.2893500543
 20
24.2106880219
 10
58.2914976209
 20
24.2433083112
 10
58.2978837179
 20
24.2753706744
 10
58.3083991198
 20
24.3063267281
 10
58.3228639749
 20
24.3356470107
 10
58.3410308812
 20
24.3628300382
 10
58.3625891184
 20
24.3874108816
 10
58.3871699618
 20
24.4089691188
 10
58.4143529893
 20
24.4271360251
 10
58.4436732719
 20
24.4416008802
 10
58.4746293256
 20
24.4521162821
 10
58.5066916888
 20
24.4585023791
 10
58.5393119781
 20
24.4606499457
  0
LWPOLYLINE
  5
36E
100
AcDbEntity
  8
C_COPERCHIO
100
AcDbPolyline
 62
250
  6
CONTINUOUS
 90
9
 70
0
 10
60.9991998097
 20
21.4994104546
 10
60.9979722413
 20
21.4932039773
 10
60.9967653641
 20
21.4822189152
 10
60.9955791783
 20
21.4664552685
 10
60.9944075158
 20
21.4457887816
 10
60.9932565447
 20
21.4203437101
 10
60.9921447687
 20
21.39049282
 10
60.9910731451
 20
21.3561652257
 10
60.9890631154
 20
21.2748780041
  0
LWPOLYLINE
  5
36F
100
AcDbEntity
  8
C_COPERCHIO
100
AcDbPolyline
 62
7
  6
CONTINUOUS
 90
6
 70
0
 10
57.4902758741
 20
2.4104527262
 10
57.4768974494
 20
2.4234555474
 10
57.4660789648
 20
2.4343624776
 10
57.4581593697
 20
2.4427503071
 10
57.4527997147
 20
2.4481139941
 10
57.45
 20
2.45
  0
LWPOLYLINE
  5
370
100
AcDbEntity
  8
C_COPERCHIO
100
AcDbPolyline
 62
7
  6
CONTINUOUS
 90
3
 70
0
 10
57.5394115717
 20
2.3615795682
 10
57.5215329353
 20
2.3791888255
 10
57.4902758741
 20
2.4104527262
  0
LINE
  5
371
100
AcDbEntity
  8
C_COPERCHIO
100
AcDbLine
 62
7
  6
CONTINUOUS
 10
57.75
 20
2.1512907745
 11
57.7282431901
 21
2.1728223475
  0
LINE
  5
372
100
AcDbEntity
  8
C_COPERCHIO
100
AcDbLine
 62
7
  6
CONTINUOUS
 10
57.6847239265
 20
2.2165544217
 11
57.6194309216
 21
2.2817651866
  0
LINE
  5
373
100
AcDbEntity
  8
C_COPERCHIO
100
AcDbLine
 62
7
  6
CONTINUOUS
 10
57.6194309216
 20
2.2817651866
 11
57.5394115717
 21
2.3615795682
  0
LINE
  5
374
100
AcDbEntity
  8
C_COPERCHIO
100
AcDbLine
 62
7
  6
CONTINUOUS
 10
57.7282431901
 20
2.1728223475
 11
57.6847239265
 21
2.2165544217
  0
LINE
  5
375
100
AcDbEntity
  8
C_COPERCHIO
100
AcDbLine
 62
7
  6
CONTINUOUS
 10
58.2761825974
 20
-23.1226497308
 11
58.2893500543
 21
-23.5581814706
  0
LINE
  5
376
100
AcDbEntity
  8
C_COPERCHIO
100
AcDbLine
 62
7
  6
CONTINUOUS
 10
57.45
 20
9.4500553485
 11
57.45
 21
2.45
  0
LINE
  5
377
100
AcDbEntity
  8
C_COPERCHIO
100
AcDbLine
 62
250
  6
CONTINUOUS
 10
57.75
 20
9.7558535121
 11
57.75
 21
2.1512907745
  0
LINE
  5
378
100
AcDbEntity
  8
C_COPERCHIO
100
AcDbLine
 62
7
  6
CONTINUOUS
 10
58.25
 20
-24.2500380762
 11
58.25
 21
-22.4
  0
LINE
  5
379
100
AcDbEntity
  8
C_COPERCHIO
100
AcDbLine
 62
7
  6
CONTINUOUS
 10
58.25
 20
22.4
 11
58.25
 21
24.2500380762
  0
LINE
  5
37A
100
AcDbEntity
  8
C_COPERCHIO
100
AcDbLine
 62
7
  6
CONTINUOUS
 10
58.2761825974
 20
23.1226497308
 11
58.2761825974
 21
22.5111812444
  0
LINE
  5
37B
100
AcDbEntity
  8
C_COPERCHIO
100
AcDbLine
 62
7
  6
CONTINUOUS
 10
58.2761825974
 20
-22.5111812444
 11
58.2761825974
 21
-23.1226497308
  0
LINE
  5
37C
100
AcDbEntity
  8
C_COPERCHIO
100
AcDbLine
 62
250
  6
CONTINUOUS
 10
58.2893500543
 20
-24.2106880219
 11
58.2893500543
 21
-23.5581814706
  0
LINE
  5
37D
100
AcDbEntity
  8
C_COPERCHIO
100
AcDbLine
 62
250
  6
CONTINUOUS
 10
58.2893500543
 20
23.5581814706
 11
58.2893500543
 21
24.2106880219
  0
LINE
  5
37E
100
AcDbEntity
  8
C_COPERCHIO
100
AcDbLine
 62
250
  6
CONTINUOUS
 10
58.5393119781
 20
-24.4606499457
 11
58.5393119781
 21
-23.8443375673
  0
LINE
  5
37F
100
AcDbEntity
  8
C_COPERCHIO
100
AcDbLine
 62
250
  6
CONTINUOUS
 10
58.5393119781
 20
23.8443375673
 11
58.5393119781
 21
24.4606499457
  0
LINE
  5
380
100
AcDbEntity
  8
C_COPERCHIO
100
AcDbLine
 62
7
  6
CONTINUOUS
 10
58.2893500543
 20
23.5581814706
 11
58.2761825974
 21
23.1226497308
  0
LWPOLYLINE
  5
381
100
AcDbEntity
  8
C_COPERCHIO
100
AcDbPolyline
 62
250
  6
CONTINUOUS
 90
9
 70
0
 10
60.4992759622
 20
21.998725222
 10
60.4980429009
 20
21.9894995689
 10
60.4968323496
 20
21.9729078738
 10
60.4956443084
 20
21.9490336576
 10
60.4944732231
 20
21.9179980308
 10
60.4933246479
 20
21.879954954
 10
60.4922152445
 20
21.8350872726
 10
60.491145401
 20
21.7836086962
 10
60.4891387271
 20
21.6618945954
  0
LINE
  5
382
100
AcDbEntity
  8
C_CONTATTI
100
AcDbLine
 62
7
  6
CONTINUOUS
 10
44.75
 20
9.45
 11
44.5943675043
 21
9.45
  0
LINE
  5
383
100
AcDbEntity
  8
C_CONTATTI
100
AcDbLine
 62
7
  6
CONTINUOUS
 10
42.55
 20
9.45
 11
44.4056326874
 21
9.45
  0
LINE
  5
384
100
AcDbEntity
  8
C_CONTATTI
100
AcDbLine
 62
250
  6
CONTINUOUS
 10
44.405632689
 20
9.45
 11
44.594367311
 21
9.45
  0
LINE
  5
385
100
AcDbEntity
  8
C_COPERCHIO
100
AcDbLine
 62
7
  6
CONTINUOUS
 10
55.25
 20
9.45
 11
57.45
 21
9.45
  0
LWPOLYLINE
  5
386
100
AcDbEntity
  8
C_COPERCHIO
100
AcDbPolyline
 62
7
  6
CONTINUOUS
 90
7
 70
0
 10
60.6205110638
 20
-22.3111693053
 10
60.6209602748
 20
-22.3143154326
 10
60.6213865655
 20
-22.3203522639
 10
60.6217899357
 20
-22.3292797991
 10
60.6221762257
 20
-22.341337932
 10
60.6225395954
 20
-22.3562867688
 10
60.6228625244
 20
-22.3734066285
  0
LWPOLYLINE
  5
387
100
AcDbEntity
  8
C_COPERCHIO
100
AcDbPolyline
 62
250
  6
CONTINUOUS
 90
8
 70
0
 10
60.9910762578
 20
-21.3562726132
 10
60.9921474921
 20
-21.3905693599
 10
60.9932589713
 20
-21.4203990988
 10
60.9944096462
 20
-21.4458281413
 10
60.9955809265
 20
-21.4664813153
 10
60.9967666155
 20
-21.4822335635
 10
60.9979729099
 20
-21.4932099433
 10
60.9991998097
 20
-21.4994104546
  0
LWPOLYLINE
  5
388
100
AcDbEntity
  8
C_COPERCHIO
100
AcDbPolyline
 62
250
  6
CONTINUOUS
 90
7
 70
0
 10
60.4922153782
 20
-21.8350886419
 10
60.4933247959
 20
-21.8799569261
 10
60.4944734139
 20
-21.9180009735
 10
60.4956445116
 20
-21.9490364874
 10
60.4968325154
 20
-21.9729096634
 10
60.4980429989
 20
-21.9895002672
 10
60.4992759622
 20
-21.998725222
  0
LINE
  5
389
100
AcDbEntity
  8
C_COPERCHIO
100
AcDbLine
 62
250
  6
CONTINUOUS
 10
60.9890668186
 20
-21.2750511368
 11
60.9910762578
 21
-21.3562726132
  0
LINE
  5
38A
100
AcDbEntity
  8
C_COPERCHIO
100
AcDbLine
 62
250
  6
CONTINUOUS
 10
60.4901149973
 20
-21.7257831649
 11
60.4922153782
 21
-21.8350886419
  0
LINE
  5
38B
100
AcDbEntity
  8
C_COPERCHIO
100
AcDbLine
 62
250
  6
CONTINUOUS
 10
60.9872777822
 20
-21.1784198171
 11
60.9890668186
 21
-21.2750511368
  0
LINE
  5
38C
100
AcDbEntity
  8
C_COPERCHIO
100
AcDbLine
 62
250
  6
CONTINUOUS
 10
60.488218734
 20
-21.592300602
 11
60.4901149973
 21
-21.7257831649
  0
LINE
  5
38D
100
AcDbEntity
  8
C_COPERCHIO
100
AcDbLine
 62
250
  6
CONTINUOUS
 10
60.985746171
 20
-21.0686124849
 11
60.9872777822
 21
-21.1784198171
  0
LINE
  5
38E
100
AcDbEntity
  8
C_COPERCHIO
100
AcDbLine
 62
7
  6
CONTINUOUS
 10
60.6228625244
 20
-22.3734066285
 11
60.6233826696
 21
-22.4143754662
  0
LINE
  5
38F
100
AcDbEntity
  8
C_COPERCHIO
100
AcDbLine
 62
250
  6
CONTINUOUS
 10
60.4865544781
 20
-21.4372896679
 11
60.488218734
 21
-21.592300602
  0
LINE
  5
390
100
AcDbEntity
  8
C_COPERCHIO
100
AcDbLine
 62
250
  6
CONTINUOUS
 10
60.9844946857
 20
-20.9472607239
 11
60.985746171
 21
-21.0686124849
  0
LINE
  5
391
100
AcDbEntity
  8
C_COPERCHIO
100
AcDbLine
 62
250
  6
CONTINUOUS
 10
60.4851602342
 20
-21.2636965304
 11
60.4865544781
 21
-21.4372896679
  0
LINE
  5
392
100
AcDbEntity
  8
C_COPERCHIO
100
AcDbLine
 62
250
  6
CONTINUOUS
 10
60.9835550516
 20
-20.8170211022
 11
60.9844946857
 21
-20.9472607239
  0
LINE
  5
393
100
AcDbEntity
  8
C_COPERCHIO
100
AcDbLine
 62
7
  6
CONTINUOUS
 10
60.6233826696
 20
-22.4143754662
 11
60.6237046069
 21
-22.460549209
  0
LINE
  5
394
100
AcDbEntity
  8
C_COPERCHIO
100
AcDbLine
 62
250
  6
CONTINUOUS
 10
60.4840655036
 20
-21.075043638
 11
60.4851602342
 21
-21.2636965304
  0
LINE
  5
395
100
AcDbEntity
  8
C_COPERCHIO
100
AcDbLine
 62
250
  6
CONTINUOUS
 10
60.9829457393
 20
-20.6815481442
 11
60.9835550516
 21
-20.8170211022
  0
LINE
  5
396
100
AcDbEntity
  8
C_COPERCHIO
100
AcDbLine
 62
250
  6
CONTINUOUS
 10
60.4832865162
 20
-20.8750733115
 11
60.4840655036
 21
-21.075043638
  0
LINE
  5
397
100
AcDbEntity
  8
C_COPERCHIO
100
AcDbLine
 62
250
  6
CONTINUOUS
 10
60.4828449799
 20
-20.6676738286
 11
60.4832865162
 21
-20.8750733115
  0
LINE
  5
398
100
AcDbEntity
  8
C_COPERCHIO
100
AcDbLine
 62
250
  6
CONTINUOUS
 10
60.9826730391
 20
-20.5419058565
 11
60.9829457393
 21
-20.6815481442
  0
LINE
  5
399
100
AcDbEntity
  8
C_COPERCHIO
100
AcDbLine
 62
250
  6
CONTINUOUS
 10
60.3606880219
 20
-23.8443375673
 11
60.3606880219
 21
-24.4606499457
  0
LINE
  5
39A
100
AcDbEntity
  8
C_COPERCHIO
100
AcDbLine
 62
250
  6
CONTINUOUS
 10
60.3606880219
 20
23.8443375673
 11
60.3606880219
 21
24.4606499457
  0
LINE
  5
39B
100
AcDbEntity
  8
C_COPERCHIO
100
AcDbLine
 62
250
  6
CONTINUOUS
 10
60.6034346299
 20
22.5111812444
 11
60.6034346299
 21
22.3114553375
  0
LINE
  5
39C
100
AcDbEntity
  8
C_COPERCHIO
100
AcDbLine
 62
250
  6
CONTINUOUS
 10
60.6034346299
 20
-22.5111812444
 11
60.6034346299
 21
-22.3114553375
  0
LINE
  5
39D
100
AcDbEntity
  8
C_COPERCHIO
100
AcDbLine
 62
250
  6
CONTINUOUS
 10
60.6106499457
 20
24.2106880219
 11
60.6106499457
 21
23.5581814706
  0
LINE
  5
39E
100
AcDbEntity
  8
C_COPERCHIO
100
AcDbLine
 62
250
  6
CONTINUOUS
 10
60.6106499457
 20
-23.5581814706
 11
60.6106499457
 21
-24.2106880219
  0
LINE
  5
39F
100
AcDbEntity
  8
C_COPERCHIO
100
AcDbLine
 62
7
  6
CONTINUOUS
 10
60.6237046069
 20
-22.460549209
 11
60.6238174026
 21
-23.1226497308
  0
LINE
  5
3A0
100
AcDbEntity
  8
C_COPERCHIO
100
AcDbLine
 62
7
  6
CONTINUOUS
 10
60.65
 20
-24.2500380762
 11
60.65
 21
-22.399708057
  0
LINE
  5
3A1
100
AcDbEntity
  8
C_COPERCHIO
100
AcDbLine
 62
7
  6
CONTINUOUS
 10
60.65
 20
22.399708057
 11
60.65
 21
24.2500380762
  0
LWPOLYLINE
  5
3A2
100
AcDbEntity
  8
C_COPERCHIO
100
AcDbPolyline
 62
250
  6
CONTINUOUS
 90
9
 70
0
 10
60.4798352598
 20
15.9948130115
 10
60.477649811
 20
11.4258211505
 10
60.4761928452
 20
6.8558745524
 10
60.4754643623
 20
2.2853551528
 10
60.4754643624
 20
-2.2853551556
 10
60.4761928454
 20
-6.8558745549
 10
60.4776498112
 20
-11.4258211525
 10
60.4798352599
 20
-15.9948130126
 10
60.4828449799
 20
-20.6676738286
  0
LINE
  5
3A3
100
AcDbEntity
  8
C_COPERCHIO
100
AcDbLine
 62
250
  6
CONTINUOUS
 10
60.4830240683
 20
20.7720385916
 11
60.4798352598
 21
15.9948130115
  0
LINE
  5
3A4
100
AcDbEntity
  8
C_COPERCHIO
100
AcDbLine
 62
250
  6
CONTINUOUS
 10
60.9829454984
 20
20.6814764729
 11
60.9826730391
 21
20.5419058565
  0
LINE
  5
3A5
100
AcDbEntity
  8
C_COPERCHIO
100
AcDbLine
 62
7
  6
CONTINUOUS
 10
60.6238174026
 20
23.1226497308
 11
60.6237046067
 21
22.4605492052
  0
LINE
  5
3A6
100
AcDbEntity
  8
C_COPERCHIO
100
AcDbLine
 62
250
  6
CONTINUOUS
 10
60.4836343658
 20
20.9762288422
 11
60.4830240683
 21
20.7720385916
  0
LINE
  5
3A7
100
AcDbEntity
  8
C_COPERCHIO
100
AcDbLine
 62
250
  6
CONTINUOUS
 10
60.9835543901
 20
20.8168988863
 11
60.9829454984
 21
20.6814764729
  0
LINE
  5
3A8
100
AcDbEntity
  8
C_COPERCHIO
100
AcDbLine
 62
250
  6
CONTINUOUS
 10
60.4845737751
 20
21.1710158219
 11
60.4836343658
 21
20.9762288422
  0
LINE
  5
3A9
100
AcDbEntity
  8
C_COPERCHIO
100
AcDbLine
 62
250
  6
CONTINUOUS
 10
60.4858236642
 20
21.3525994561
 11
60.4845737751
 21
21.1710158219
  0
LINE
  5
3AA
100
AcDbEntity
  8
C_COPERCHIO
100
AcDbLine
 62
250
  6
CONTINUOUS
 10
60.9844933827
 20
20.9471041155
 11
60.9835543901
 21
20.8168988863
  0
LINE
  5
3AB
100
AcDbEntity
  8
C_COPERCHIO
100
AcDbLine
 62
7
  6
CONTINUOUS
 10
60.6237046067
 20
22.4605492052
 11
60.6233826694
 21
22.4143754549
  0
LINE
  5
3AC
100
AcDbEntity
  8
C_COPERCHIO
100
AcDbLine
 62
250
  6
CONTINUOUS
 10
60.4873527653
 20
21.5173034952
 11
60.4858236642
 21
21.3525994561
  0
LINE
  5
3AD
100
AcDbEntity
  8
C_COPERCHIO
100
AcDbLine
 62
250
  6
CONTINUOUS
 10
60.9857437104
 20
21.068410392
 11
60.9844933827
 21
20.9471041155
  0
LINE
  5
3AE
100
AcDbEntity
  8
C_COPERCHIO
100
AcDbLine
 62
250
  6
CONTINUOUS
 10
60.4891387271
 20
21.6618945954
 11
60.4873527653
 21
21.5173034952
  0
LWPOLYLINE
  5
3AF
100
AcDbEntity
  8
C_COPERCHIO
100
AcDbPolyline
 62
7
  6
CONTINUOUS
 90
8
 70
0
 10
60.6233826694
 20
22.4143754549
 10
60.6228625244
 20
22.3734066071
 10
60.6225395954
 20
22.3562867409
 10
60.6221762258
 20
22.3413378975
 10
60.6217899358
 20
22.3292797635
 10
60.6213865655
 20
22.3203522346
 10
60.6209602748
 20
22.3143154152
 10
60.6205110638
 20
22.3111693052
  0
LINE
  5
3B0
100
AcDbEntity
  8
C_COPERCHIO
100
AcDbLine
 62
250
  6
CONTINUOUS
 10
60.9872744285
 20
21.1782101156
 11
60.9857437104
 21
21.068410392
  0
LINE
  5
3B1
100
AcDbEntity
  8
C_COPERCHIO
100
AcDbLine
 62
250
  6
CONTINUOUS
 10
60.9890631154
 20
21.2748780041
 11
60.9872744285
 21
21.1782101156
  0
LWPOLYLINE
  5
3B2
100
AcDbEntity
  8
C_COPERCHIO
100
AcDbPolyline
 62
7
  6
CONTINUOUS
 90
3
 70
0
 10
41.6392046836
 20
-23.6658209056
 10
41.6658422026
 20
-23.6390385408
 10
41.6771943728
 20
-23.6278312164
  0
LINE
  5
3B3
100
AcDbEntity
  8
C_COPERCHIO
100
AcDbLine
 62
250
  6
CONTINUOUS
 10
39.35
 20
-24.2500380762
 11
39.3893500543
 21
-24.2106880219
  0
LINE
  5
3B4
100
AcDbEntity
  8
C_COPERCHIO
100
AcDbLine
 62
250
  6
CONTINUOUS
 10
39.5999619238
 20
-24.5
 11
39.6393119781
 21
-24.4606499457
  0
LINE
  5
3B5
100
AcDbEntity
  8
C_COPERCHIO
100
AcDbLine
 62
7
  6
CONTINUOUS
 10
41.5704689008
 20
-23.7345809999
 11
41.6392046836
 21
-23.6658209056
  0
LINE
  5
3B6
100
AcDbEntity
  8
C_COPERCHIO
100
AcDbLine
 62
7
  6
CONTINUOUS
 10
41.5503790956
 20
-23.7545867768
 11
41.5704689008
 21
-23.7345809999
  0
LWPOLYLINE
  5
3B7
100
AcDbEntity
  8
C_COPERCHIO
100
AcDbPolyline
 62
7
  6
CONTINUOUS
 90
3
 70
0
 10
41.4606880219
 20
-23.8443375673
 10
41.4845232993
 20
-23.8207630626
 10
41.5503790956
 20
-23.7545867768
  0
LINE
  5
3B8
100
AcDbEntity
  8
C_COPERCHIO
100
AcDbLine
 62
250
  6
CONTINUOUS
 10
54.95
 20
9.7558535121
 11
57.75
 21
9.7558535121
  0
LINE
  5
3B9
100
AcDbEntity
  8
C_CONTATTI
100
AcDbLine
 62
7
  6
CONTINUOUS
 10
42.9892396941
 20
9.85
 11
42.55
 21
9.85
  0
LINE
  5
3BA
100
AcDbEntity
  8
C_CONTATTI
100
AcDbLine
 62
7
  6
CONTINUOUS
 10
44.3812337883
 20
9.85
 11
44.6187662117
 21
9.85
  0
LINE
  5
3BB
100
AcDbEntity
  8
C_COPERCHIO
100
AcDbLine
 62
7
  6
CONTINUOUS
 10
42.55
 20
10.3
 11
44.75
 21
10.3
  0
LINE
  5
3BC
100
AcDbEntity
  8
C_COPERCHIO
100
AcDbLine
 62
250
  6
CONTINUOUS
 10
42.25
 20
10.6063638183
 11
45.05
 21
10.6063638183
  0
LINE
  5
3BD
100
AcDbEntity
  8
C_COPERCHIO
100
AcDbLine
 62
7
  6
CONTINUOUS
 10
55.25
 20
9.4500553678
 11
55.2472851336
 21
9.4526269878
  0
LINE
  5
3BE
100
AcDbEntity
  8
C_COPERCHIO
100
AcDbLine
 62
7
  6
CONTINUOUS
 10
41.6771943728
 20
23.6278312164
 11
41.6658421875
 21
23.6390385494
  0
LINE
  5
3BF
100
AcDbEntity
  8
C_COPERCHIO
100
AcDbLine
 62
7
  6
CONTINUOUS
 10
41.4845236751
 20
23.8207626766
 11
41.4606880219
 21
23.8443375673
  0
LINE
  5
3C0
100
AcDbEntity
  8
C_COPERCHIO
100
AcDbLine
 62
7
  6
CONTINUOUS
 10
54.9717342756
 20
9.7343310775
 11
54.95
 21
9.7558535121
  0
LINE
  5
3C1
100
AcDbEntity
  8
C_COPERCHIO
100
AcDbLine
 62
250
  6
CONTINUOUS
 10
39.3893500543
 20
24.2106880219
 11
39.35
 21
24.2500380762
  0
LINE
  5
3C2
100
AcDbEntity
  8
C_COPERCHIO
100
AcDbLine
 62
250
  6
CONTINUOUS
 10
39.6393119781
 20
24.4606499457
 11
39.5999619238
 21
24.5
  0
LINE
  5
3C3
100
AcDbEntity
  8
C_COPERCHIO
100
AcDbLine
 62
7
  6
CONTINUOUS
 10
41.6238634589
 20
23.6811920369
 11
41.5503797305
 21
23.754586152
  0
LINE
  5
3C4
100
AcDbEntity
  8
C_COPERCHIO
100
AcDbLine
 62
7
  6
CONTINUOUS
 10
41.6658421875
 20
23.6390385494
 11
41.6238634589
 21
23.6811920369
  0
LINE
  5
3C5
100
AcDbEntity
  8
C_COPERCHIO
100
AcDbLine
 62
7
  6
CONTINUOUS
 10
41.5503797305
 20
23.754586152
 11
41.4845236751
 21
23.8207626766
  0
LINE
  5
3C6
100
AcDbEntity
  8
C_COPERCHIO
100
AcDbLine
 62
7
  6
CONTINUOUS
 10
55.0591310105
 20
9.6463845735
 11
54.9717342756
 21
9.7343310775
  0
LINE
  5
3C7
100
AcDbEntity
  8
C_COPERCHIO
100
AcDbLine
 62
7
  6
CONTINUOUS
 10
55.16081448
 20
9.5433134216
 11
55.0591310105
 21
9.6463845735
  0
LWPOLYLINE
  5
3C8
100
AcDbEntity
  8
C_COPERCHIO
100
AcDbPolyline
 62
7
  6
CONTINUOUS
 90
3
 70
0
 10
55.2099855147
 20
9.4929072684
 10
55.1787205945
 20
9.5252260801
 10
55.16081448
 20
9.5433134216
  0
LWPOLYLINE
  5
3C9
100
AcDbEntity
  8
C_COPERCHIO
100
AcDbPolyline
 62
7
  6
CONTINUOUS
 90
4
 70
0
 10
55.2472851336
 20
9.4526269878
 10
55.2341269884
 20
9.4677769594
 10
55.2233443203
 20
9.4793268751
 10
55.2099855147
 20
9.4929072684
  0
LWPOLYLINE
  5
3CA
100
AcDbEntity
  8
C_COPERCHIO
100
AcDbPolyline
 62
250
  6
CONTINUOUS
 90
13
 70
0
 10
60.6106499457
 20
24.2106880219
 10
60.6085023791
 20
24.2433083112
 10
60.6021162821
 20
24.2753706744
 10
60.5916008802
 20
24.3063267281
 10
60.5771360251
 20
24.3356470107
 10
60.5589691188
 20
24.3628300382
 10
60.5374108816
 20
24.3874108816
 10
60.5128300382
 20
24.4089691188
 10
60.4856470107
 20
24.4271360251
 10
60.4563267281
 20
24.4416008802
 10
60.4253706744
 20
24.4521162821
 10
60.3933083112
 20
24.4585023791
 10
60.3606880219
 20
24.4606499457
  0
LWPOLYLINE
  5
3CB
100
AcDbEntity
  8
C_COPERCHIO
100
AcDbPolyline
 62
7
  6
CONTINUOUS
 90
13
 70
0
 10
60.65
 20
24.2500380762
 10
60.6478621698
 20
24.2826657348
 10
60.6414844493
 20
24.3147347076
 10
60.6309757228
 20
24.3456966094
 10
60.6165154214
 20
24.3750221805
 10
60.5983506875
 20
24.4022094378
 10
60.5767924653
 20
24.4267924653
 10
60.5522094378
 20
24.4483506875
 10
60.5250221805
 20
24.4665154214
 10
60.4956966094
 20
24.4809757228
 10
60.4647347076
 20
24.4914844493
 10
60.4326657348
 20
24.4978621698
 10
60.4000380762
 20
24.5
  0
LWPOLYLINE
  5
3CC
100
AcDbEntity
  8
C_COPERCHIO
100
AcDbPolyline
 62
250
  6
CONTINUOUS
 90
16
 70
0
 10
60.9991998097
 20
21.4994104546
 10
60.9964167604
 20
21.5515718313
 10
60.9881934392
 20
21.6031625516
 10
60.9746197879
 20
21.6536180446
 10
60.9558443011
 20
21.7023861514
 10
60.9320723983
 20
21.7489331767
 10
60.9035641748
 20
21.7927497284
 10
60.8706315565
 20
21.8333562866
 10
60.8336349064
 20
21.8703084336
 10
60.7929790829
 20
21.903201732
 10
60.7491089697
 20
21.9316761841
 10
60.7025046503
 20
21.9554201328
 10
60.6536761841
 20
21.9741736756
 10
60.6031579467
 20
21.987731552
 10
60.551502773
 20
21.9959453723
 10
60.4992759622
 20
21.9987252221
  0
LINE
  5
3CD
100
AcDbEntity
  8
C_COPERCHIO
100
AcDbLine
 62
7
  6
CONTINUOUS
 10
60.6106499457
 20
23.5581814706
 11
60.6238174026
 21
23.1226497308
  0
LINE
  5
3CE
100
AcDbEntity
  8
C_CORPO
100
AcDbLine
 62
7
  6
CONTINUOUS
 10
61.15
 20
17.6716990487
 11
61.15
 21
-17.6716990487
  0
LINE
  5
3CF
100
AcDbEntity
  8
ASSI
100
AcDbLine
 62
7
  6
CONTINUOUS
 10
61.15
 20
17.6716990487
 11
61.15
 21
-17.6716990487
  0
LINE
  5
3D0
100
AcDbEntity
  8
C_COPERCHIO
100
AcDbLine
 62
7
  6
CONTINUOUS
 10
61.15
 20
21.8823164546
 11
61.15
 21
-21.8823164546
  0
LWPOLYLINE
  5
3D1
100
AcDbEntity
  8
C_COPERCHIO
100
AcDbPolyline
 62
250
  6
CONTINUOUS
 90
10
 70
0
 10
60.9826730391
 20
20.5419058565
 10
60.9797591099
 20
15.978194386
 10
60.9775736628
 20
11.4139054356
 10
60.9761166977
 20
6.8490390052
 10
60.9753882142
 20
2.283210621
 10
60.9753882128
 20
-2.2831952431
 10
60.9761166945
 20
-6.8490251651
 10
60.9775736596
 20
-11.413894671
 10
60.9797591078
 20
-15.9781882348
 10
60.9826730391
 20
-20.5419058565
  0
LINE
  5
3D2
100
AcDbEntity
  8
C_COPERCHIO
100
AcDbLine
 62
7
  6
CONTINUOUS
 10
60.6238174026
 20
-23.1226497308
 11
60.6106499457
 21
-23.5581814706
  0
LWPOLYLINE
  5
3D3
100
AcDbEntity
  8
C_COPERCHIO
100
AcDbPolyline
 62
7
  6
CONTINUOUS
 90
9
 70
0
 10
61.1325450279
 20
-21.8997714267
 10
61.130062648
 20
-21.9494036906
 10
61.122659764
 20
-21.9986052537
 10
61.1103914202
 20
-22.0468869821
 10
61.0933890859
 20
-22.0936997659
 10
61.0717900247
 20
-22.1386440128
 10
61.0456714309
 20
-22.1814433519
 10
61.0152571109
 20
-22.2215861192
 10
60.9859590363
 20
-22.2535403519
  0
LWPOLYLINE
  5
3D4
100
AcDbEntity
  8
C_COPERCHIO
100
AcDbPolyline
 62
250
  6
CONTINUOUS
 90
16
 70
0
 10
60.9991998097
 20
-21.4994104546
 10
60.9964166531
 20
-21.5515728435
 10
60.9881930457
 20
-21.6031643942
 10
60.9746189827
 20
-21.6536205154
 10
60.9558430114
 20
-21.7023890415
 10
60.9320706064
 20
-21.7489362749
 10
60.9035619206
 20
-21.7927528267
 10
60.8706289384
 20
-21.8333591913
 10
60.8336320612
 20
-21.8703109937
 10
60.7929761637
 20
-21.9032038523
 10
60.749106163
 20
-21.9316778049
 10
60.7025021497
 20
-21.955421247
 10
60.6536741341
 20
-21.9741743428
 10
60.6031564647
 20
-21.9877318681
 10
60.5515019807
 20
-21.9959454562
 10
60.4992759622
 20
-21.998725222
  0
LWPOLYLINE
  5
3D5
100
AcDbEntity
  8
C_COPERCHIO
100
AcDbPolyline
 62
7
  6
CONTINUOUS
 90
13
 70
0
 10
60.65
 20
-24.2500380762
 10
60.6478621698
 20
-24.2826657348
 10
60.6414844493
 20
-24.3147347076
 10
60.6309757228
 20
-24.3456966094
 10
60.6165154214
 20
-24.3750221805
 10
60.5983506875
 20
-24.4022094378
 10
60.5767924653
 20
-24.4267924653
 10
60.5522094378
 20
-24.4483506875
 10
60.5250221805
 20
-24.4665154214
 10
60.4956966094
 20
-24.4809757228
 10
60.4647347076
 20
-24.4914844493
 10
60.4326657348
 20
-24.4978621698
 10
60.4000380762
 20
-24.5
  0
LWPOLYLINE
  5
3D6
100
AcDbEntity
  8
C_COPERCHIO
100
AcDbPolyline
 62
250
  6
CONTINUOUS
 90
13
 70
0
 10
60.6106499457
 20
-24.2106880219
 10
60.6085023791
 20
-24.2433083112
 10
60.6021162821
 20
-24.2753706744
 10
60.5916008802
 20
-24.3063267281
 10
60.5771360251
 20
-24.3356470107
 10
60.5589691188
 20
-24.3628300382
 10
60.5374108816
 20
-24.3874108816
 10
60.5128300382
 20
-24.4089691188
 10
60.4856470107
 20
-24.4271360251
 10
60.4563267281
 20
-24.4416008802
 10
60.4253706744
 20
-24.4521162821
 10
60.3933083112
 20
-24.4585023791
 10
60.3606880219
 20
-24.4606499457
  0
LINE
  5
3D7
100
AcDbEntity
  8
C_CONTATTI
100
AcDbLine
 62
250
  6
CONTINUOUS
 10
42.9892396941
 20
10.2175693459
 11
42.55
 21
10.0998754246
  0
LINE
  5
3D8
100
AcDbEntity
  8
C_COPERCHIO
100
AcDbLine
 62
250
  6
CONTINUOUS
 10
45.6088798489
 20
-23.5911506121
 11
45.6
 21
-23.600030461
  0
LINE
  5
3D9
100
AcDbEntity
  8
C_COPERCHIO
100
AcDbLine
 62
250
  6
CONTINUOUS
 10
45.8088493879
 20
-23.7911201511
 11
45.799969539
 21
-23.8
  0
LINE
  5
3DA
100
AcDbEntity
  8
C_COPERCHIO
100
AcDbLine
 62
250
  6
CONTINUOUS
 10
45.6
 20
23.600030461
 11
45.6088798489
 21
23.5911506121
  0
LINE
  5
3DB
100
AcDbEntity
  8
C_COPERCHIO
100
AcDbLine
 62
250
  6
CONTINUOUS
 10
45.799969539
 20
23.8
 11
45.8088493879
 21
23.7911201511
  0
LINE
  5
3DC
100
AcDbEntity
  8
C_COPERCHIO
100
AcDbLine
 62
7
  6
CONTINUOUS
 10
58.25
 20
-22.4
 11
58.2794909049
 21
-22.3114553375
  0
LWPOLYLINE
  5
3DD
100
AcDbEntity
  8
0
100
AcDbPolyline
 62
7
  6
CONTINUOUS
 90
10
 70
0
 43
0.3500000006
 10
51.0714286194
 20
33.8248581848
 10
51.1428552704
 20
33.6820048828
 10
51.1428552704
 20
33.6105737
 10
51.0000019684
 20
33.4677158661
 10
50.9285707855
 20
33.4677158661
 10
50.8571441345
 20
33.539147049
 10
50.8571441345
 20
33.6105737
 10
50.9285707855
 20
33.7534315338
 10
51.0000019684
 20
33.8248581848
 10
51.0714286194
 20
33.8248581848
  0
LINE
  5
3DE
100
AcDbEntity
  8
C_COPERCHIO
100
AcDbLine
 62
7
  6
CONTINUOUS
 10
58.2794909049
 20
22.3114553375
 11
58.25
 21
22.4
  0
LWPOLYLINE
  5
3DF
100
AcDbEntity
  8
0
100
AcDbPolyline
 62
7
  6
CONTINUOUS
 90
10
 70
0
 43
0.3500000006
 10
74.4696275482
 20
0.4285709152
 10
73.6124850769
 20
1.2857133865
 10
72.7553426056
 20
1.5000001373
 10
71.8982001343
 20
1.5000001373
 10
71.4696266327
 20
1.0714289017
 10
71.4696266327
 20
0.4285709152
 10
71.8982001343
 20
-0.0000003204
 10
72.7553426056
 20
-0.0000003204
 10
73.1839161072
 20
0.4285709152
 10
73.1839161072
 20
1.3571423035
  0
LINE
  5
3E0
100
AcDbEntity
  8
C_COPERCHIO
100
AcDbLine
 62
250
  6
CONTINUOUS
 10
39.5172508085
 20
20.5624683248
 11
60.4827491915
 21
20.5624683248
  0
LWPOLYLINE
  5
3E1
100
AcDbEntity
  8
C_COPERCHIO
100
AcDbPolyline
 62
250
  6
CONTINUOUS
 90
10
 70
0
 10
45.8088493879
 20
23.7911201511
 10
45.8097019916
 20
23.7907306863
 10
45.812738696
 20
23.7903332086
 10
45.8179595011
 20
23.789927718
 10
45.8253150794
 20
23.7895073402
 10
45.8348547585
 20
23.7890789496
 10
45.8467265202
 20
23.7886631692
 10
45.8611422581
 20
23.7882608681
 10
45.8778900787
 20
23.7878711773
 10
45.9170792664
 20
23.7871863459
  0
LWPOLYLINE
  5
3E2
100
AcDbEntity
  8
C_COPERCHIO
100
AcDbPolyline
 62
250
  6
CONTINUOUS
 90
6
 70
0
 10
39.3937591485
 20
22.3114484138
 10
39.3909368489
 20
22.3114255901
 10
39.3880985636
 20
22.3113865937
 10
39.3852443878
 20
22.3113311514
 10
39.3823744198
 20
22.3112589886
 10
39.3794887615
 20
22.31116983
  0
LINE
  5
3E3
100
AcDbEntity
  8
C_COPERCHIO
100
AcDbLine
 62
250
  6
CONTINUOUS
 10
39.3965653701
 20
22.5111812444
 11
39.3761825974
 21
22.5110403372
  0
LINE
  5
3E4
100
AcDbEntity
  8
C_COPERCHIO
100
AcDbLine
 62
250
  6
CONTINUOUS
 10
39.5007240378
 20
21.998725222
 11
60.4992759622
 21
21.998725222
  0
LINE
  5
3E5
100
AcDbEntity
  8
C_COPERCHIO
100
AcDbLine
 62
250
  6
CONTINUOUS
 10
41.7205090951
 20
22.3114553375
 11
39.3937591485
 21
22.3114484138
  0
LINE
  5
3E6
100
AcDbEntity
  8
C_COPERCHIO
100
AcDbLine
 62
7
  6
CONTINUOUS
 10
53.8911963035
 20
22.3475922207
 11
46.1088036965
 21
22.3475922207
  0
LINE
  5
3E7
100
AcDbEntity
  8
C_COPERCHIO
100
AcDbLine
 62
7
  6
CONTINUOUS
 10
58.25
 20
22.4
 11
54.4
 21
22.4
  0
LINE
  5
3E8
100
AcDbEntity
  8
C_COPERCHIO
100
AcDbLine
 62
7
  6
CONTINUOUS
 10
45.6
 20
22.4
 11
41.75
 21
22.4
  0
LINE
  5
3E9
100
AcDbEntity
  8
C_COPERCHIO
100
AcDbLine
 62
250
  6
CONTINUOUS
 10
60.6034346299
 20
22.5111812444
 11
58.2761825974
 21
22.5111812444
  0
LINE
  5
3EA
100
AcDbEntity
  8
C_COPERCHIO
100
AcDbLine
 62
250
  6
CONTINUOUS
 10
41.7238174026
 20
22.5111812444
 11
39.3965653701
 21
22.5111812444
  0
LINE
  5
3EB
100
AcDbEntity
  8
C_COPERCHIO
100
AcDbLine
 62
250
  6
CONTINUOUS
 10
60.6238174026
 20
22.5110521251
 11
60.6034346299
 21
22.5111812444
  0
LWPOLYLINE
  5
3EC
100
AcDbEntity
  8
C_COPERCHIO
100
AcDbPolyline
 62
250
  6
CONTINUOUS
 90
7
 70
0
 10
60.6205112522
 20
22.3111698709
 10
60.6176249357
 20
22.3112590294
 10
60.6147545719
 20
22.3113311835
 10
60.6119002624
 20
22.3113866129
 10
60.6090621059
 20
22.3114255966
 10
60.6062401977
 20
22.3114484126
 10
58.2794909049
 20
22.3114553375
  0
LWPOLYLINE
  5
3ED
100
AcDbEntity
  8
C_COPERCHIO
100
AcDbPolyline
 62
250
  6
CONTINUOUS
 90
8
 70
0
 10
45.6088798489
 20
23.5911506121
 10
45.6108632869
 20
23.5907613069
 10
45.6158021192
 20
23.5903639762
 10
45.6240508007
 20
23.5899586202
 10
45.6360392086
 20
23.5895383717
 10
45.6520433664
 20
23.5891100979
 10
45.6719558646
 20
23.5886943994
 10
45.7236424726
 20
23.5879024526
  0
LWPOLYLINE
  5
3EE
100
AcDbEntity
  8
0
100
AcDbPolyline
 62
7
  6
CONTINUOUS
 90
3
 70
0
 43
0.3500000006
 10
73.8267695618
 20
-0.8571427917
 10
73.8267695618
 20
-2.3571432495
 10
71.4696266327
 20
-1.7142852631
  0
LWPOLYLINE
  5
3EF
100
AcDbEntity
  8
C_COPERCHIO
100
AcDbPolyline
 62
7
  6
CONTINUOUS
 90
4
 70
0
 10
60.4894156824
 20
-23.7156099067
 10
60.5072111781
 20
-23.6977777564
 10
60.5238634589
 20
-23.6811920369
 10
60.5658421875
 20
-23.6390385494
  0
LINE
  5
3F0
100
AcDbEntity
  8
C_COPERCHIO
100
AcDbLine
 62
250
  6
CONTINUOUS
 10
58.25
 20
-24.2500380762
 11
58.2893500543
 21
-24.2106880219
  0
LINE
  5
3F1
100
AcDbEntity
  8
C_COPERCHIO
100
AcDbLine
 62
250
  6
CONTINUOUS
 10
58.4999619238
 20
-24.5
 11
58.5393119781
 21
-24.4606499457
  0
LINE
  5
3F2
100
AcDbEntity
  8
C_COPERCHIO
100
AcDbLine
 62
250
  6
CONTINUOUS
 10
61.1325450279
 20
-21.8997714267
 11
61.15
 21
-21.8823164546
  0
LWPOLYLINE
  5
3F3
100
AcDbEntity
  8
C_COPERCHIO
100
AcDbPolyline
 62
7
  6
CONTINUOUS
 90
9
 70
0
 10
60.9859590363
 20
-22.2535403519
 10
60.9807646256
 20
-22.2586595885
 10
60.9421983278
 20
-22.2924539227
 10
60.8995838469
 20
-22.3226232988
 10
60.8534811206
 20
-22.3484690737
 10
60.8047927581
 20
-22.369345737
 10
60.754217098
 20
-22.3849398969
 10
60.7021537625
 20
-22.3951153
 10
60.6491811484
 20
-22.3997180594
  0
LWPOLYLINE
  5
3F4
100
AcDbEntity
  8
C_COPERCHIO
100
AcDbPolyline
 62
250
  6
CONTINUOUS
 90
13
 70
0
 10
60.982673039
 20
-20.5419058565
 10
60.9773637171
 20
-20.5445605183
 10
60.9637782311
 20
-20.5471707531
 10
60.9421439007
 20
-20.5496928849
 10
60.9128227239
 20
-20.5520847118
 10
60.8763053188
 20
-20.5543062126
 10
60.8332027153
 20
-20.5563202158
 10
60.7842361302
 20
-20.5580930219
 10
60.7302248998
 20
-20.5595949673
 10
60.6720727703
 20
-20.5608009209
 10
60.6107527757
 20
-20.561690704
 10
60.5472909566
 20
-20.5622494281
 10
60.4827491915
 20
-20.5624677445
  0
LWPOLYLINE
  5
3F5
100
AcDbEntity
  8
C_COPERCHIO
100
AcDbPolyline
 62
250
  6
CONTINUOUS
 90
13
 70
0
 10
45.8088493879
 20
23.7911201511
 10
45.7827531887
 20
23.7894021021
 10
45.7571033223
 20
23.7842932354
 10
45.7323384947
 20
23.7758809285
 10
45.7088822749
 20
23.7643090597
 10
45.6871358509
 20
23.749775548
 10
45.6674711681
 20
23.7325289678
 10
45.6502245655
 20
23.7128642969
 10
45.635691025
 20
23.6911178718
 10
45.624119126
 20
23.6676616367
 10
45.6157067918
 20
23.6428967792
 10
45.6105979054
 20
23.6172468685
 10
45.6088798489
 20
23.5911506121
  0
LWPOLYLINE
  5
3F6
100
AcDbEntity
  8
C_COPERCHIO
100
AcDbPolyline
 62
7
  6
CONTINUOUS
 90
13
 70
0
 10
45.799969539
 20
23.8
 10
45.7738674122
 20
23.7982897358
 10
45.7482122339
 20
23.7931875595
 10
45.7234427125
 20
23.7847805782
 10
45.6999822556
 20
23.7732123371
 10
45.6782324498
 20
23.75868055
 10
45.6585660278
 20
23.7414339722
 10
45.64131945
 20
23.7217675502
 10
45.6267876629
 20
23.7000177444
 10
45.6152194218
 20
23.6765572875
 10
45.6068124405
 20
23.6517877661
 10
45.6017102642
 20
23.6261325878
 10
45.6
 20
23.600030461
  0
LWPOLYLINE
  5
3F7
100
AcDbEntity
  8
C_COPERCHIO
100
AcDbPolyline
 62
250
  6
CONTINUOUS
 90
8
 70
0
 10
54.1354096296
 20
23.7881744904
 10
54.1504521768
 20
23.7885767472
 10
54.16295287
 20
23.7889951139
 10
54.1731333446
 20
23.7894292141
 10
54.1810388328
 20
23.7898606115
 10
54.1866844122
 20
23.7902831608
 10
54.1900550053
 20
23.7907030073
 10
54.1911506121
 20
23.7911201511
  0
LWPOLYLINE
  5
3F8
100
AcDbEntity
  8
C_COPERCHIO
100
AcDbPolyline
 62
250
  6
CONTINUOUS
 90
6
 70
0
 10
54.3442240059
 20
23.5890249452
 10
54.3612713444
 20
23.589459171
 10
54.3742551565
 20
23.5898906976
 10
54.3833561625
 20
23.5903133682
 10
54.3888883115
 20
23.5907333397
 10
54.3911201511
 20
23.5911506121
  0
LINE
  5
3F9
100
AcDbEntity
  8
C_COPERCHIO
100
AcDbLine
 62
250
  6
CONTINUOUS
 10
54.0989835527
 20
23.7874344847
 11
54.1354096296
 21
23.7881744904
  0
LINE
  5
3FA
100
AcDbEntity
  8
C_COPERCHIO
100
AcDbLine
 62
250
  6
CONTINUOUS
 10
54.2982815597
 20
23.5882041964
 11
54.3442240059
 21
23.5890249452
  0
LINE
  5
3FB
100
AcDbEntity
  8
C_COPERCHIO
100
AcDbLine
 62
250
  6
CONTINUOUS
 10
54.0554764419
 20
23.7868329673
 11
54.0989835527
 21
23.7874344847
  0
LINE
  5
3FC
100
AcDbEntity
  8
C_COPERCHIO
100
AcDbLine
 62
250
  6
CONTINUOUS
 10
54.2025361953
 20
23.5871470388
 11
54.2982815597
 21
23.5882041964
  0
LINE
  5
3FD
100
AcDbEntity
  8
C_COPERCHIO
100
AcDbLine
 62
250
  6
CONTINUOUS
 10
53.9836092735
 20
23.7862327071
 11
54.0554764419
 21
23.7868329673
  0
LINE
  5
3FE
100
AcDbEntity
  8
C_COPERCHIO
100
AcDbLine
 62
250
  6
CONTINUOUS
 10
54.0452572074
 20
23.5862629896
 11
54.2025361953
 21
23.5871470388
  0
LINE
  5
3FF
100
AcDbEntity
  8
C_COPERCHIO
100
AcDbLine
 62
250
  6
CONTINUOUS
 10
53.9134596993
 20
23.7859830815
 11
53.9836092735
 21
23.7862327071
  0
LINE
  5
400
100
AcDbEntity
  8
C_COPERCHIO
100
AcDbLine
 62
250
  6
CONTINUOUS
 10
53.8911963035
 20
23.5860054824
 11
54.0452572074
 21
23.5862629896
  0
LINE
  5
401
100
AcDbEntity
  8
C_COPERCHIO
100
AcDbLine
 62
7
  6
CONTINUOUS
 10
41.7238174026
 20
23.1226497308
 11
39.3761825974
 21
23.1226497308
  0
LINE
  5
402
100
AcDbEntity
  8
C_COPERCHIO
100
AcDbLine
 62
7
  6
CONTINUOUS
 10
58.2761825974
 20
23.1226497308
 11
60.6238174026
 21
23.1226497308
  0
LINE
  5
403
100
AcDbEntity
  8
C_COPERCHIO
100
AcDbLine
 62
250
  6
CONTINUOUS
 10
60.5771943728
 20
23.6278312164
 11
58.3228056272
 21
23.6278312164
  0
LINE
  5
404
100
AcDbEntity
  8
C_COPERCHIO
100
AcDbLine
 62
250
  6
CONTINUOUS
 10
39.4228056272
 20
23.6278312164
 11
41.6771943728
 21
23.6278312164
  0
LINE
  5
405
100
AcDbEntity
  8
C_COPERCHIO
100
AcDbLine
 62
7
  6
CONTINUOUS
 10
45.799969539
 20
23.8
 11
54.200030461
 21
23.8
  0
LINE
  5
406
100
AcDbEntity
  8
C_COPERCHIO
100
AcDbLine
 62
250
  6
CONTINUOUS
 10
60.3606880219
 20
23.8443375673
 11
58.5393119781
 21
23.8443375673
  0
LINE
  5
407
100
AcDbEntity
  8
C_COPERCHIO
100
AcDbLine
 62
250
  6
CONTINUOUS
 10
39.6393119781
 20
23.8443375673
 11
41.4606880219
 21
23.8443375673
  0
LINE
  5
408
100
AcDbEntity
  8
C_COPERCHIO
100
AcDbLine
 62
250
  6
CONTINUOUS
 10
39.3893500543
 20
24.2106880219
 11
41.7106499457
 21
24.2106880219
  0
LINE
  5
409
100
AcDbEntity
  8
C_COPERCHIO
100
AcDbLine
 62
250
  6
CONTINUOUS
 10
58.2893500543
 20
24.2106880219
 11
60.6106499457
 21
24.2106880219
  0
LINE
  5
40A
100
AcDbEntity
  8
C_COPERCHIO
100
AcDbLine
 62
250
  6
CONTINUOUS
 10
60.3606880219
 20
24.4606499457
 11
58.5393119781
 21
24.4606499457
  0
LINE
  5
40B
100
AcDbEntity
  8
C_COPERCHIO
100
AcDbLine
 62
250
  6
CONTINUOUS
 10
39.6393119781
 20
24.4606499457
 11
41.4606880219
 21
24.4606499457
  0
LINE
  5
40C
100
AcDbEntity
  8
C_COPERCHIO
100
AcDbLine
 62
7
  6
CONTINUOUS
 10
41.5000380762
 20
24.5
 11
39.5999619238
 21
24.5
  0
LINE
  5
40D
100
AcDbEntity
  8
C_COPERCHIO
100
AcDbLine
 62
7
  6
CONTINUOUS
 10
58.4999619238
 20
24.5
 11
60.4000380762
 21
24.5
  0
LINE
  5
40E
100
AcDbEntity
  8
C_COPERCHIO
100
AcDbLine
 62
250
  6
CONTINUOUS
 10
45.9476314869
 20
23.5862875232
 11
53.8911963035
 21
23.5860054824
  0
LINE
  5
40F
100
AcDbEntity
  8
C_COPERCHIO
100
AcDbLine
 62
250
  6
CONTINUOUS
 10
46.0370722494
 20
23.7861269584
 11
53.9134596993
 21
23.7859830815
  0
LINE
  5
410
100
AcDbEntity
  8
C_COPERCHIO
100
AcDbLine
 62
250
  6
CONTINUOUS
 10
45.7891693315
 20
23.5872175097
 11
45.9476314869
 21
23.5862875232
  0
LINE
  5
411
100
AcDbEntity
  8
C_COPERCHIO
100
AcDbLine
 62
250
  6
CONTINUOUS
 10
45.9628375033
 20
23.7866366957
 11
46.0370722494
 21
23.7861269584
  0
LINE
  5
412
100
AcDbEntity
  8
C_COPERCHIO
100
AcDbLine
 62
250
  6
CONTINUOUS
 10
45.7236424726
 20
23.5879024526
 11
45.7891693315
 21
23.5872175097
  0
LINE
  5
413
100
AcDbEntity
  8
C_COPERCHIO
100
AcDbLine
 62
250
  6
CONTINUOUS
 10
45.9170792664
 20
23.7871863459
 11
45.9628375033
 21
23.7866366957
  0
LWPOLYLINE
  5
414
100
AcDbEntity
  8
C_COPERCHIO
100
AcDbPolyline
 62
7
  6
CONTINUOUS
 90
13
 70
0
 10
54.200030461
 20
23.8
 10
54.2261325878
 20
23.7982897358
 10
54.2517877661
 20
23.7931875595
 10
54.2765572875
 20
23.7847805782
 10
54.3000177444
 20
23.7732123371
 10
54.3217675502
 20
23.75868055
 10
54.3414339722
 20
23.7414339722
 10
54.35868055
 20
23.7217675502
 10
54.3732123371
 20
23.7000177444
 10
54.3847805782
 20
23.6765572875
 10
54.3931875595
 20
23.6517877661
 10
54.3982897358
 20
23.6261325878
 10
54.4
 20
23.600030461
  0
LWPOLYLINE
  5
415
100
AcDbEntity
  8
C_COPERCHIO
100
AcDbPolyline
 62
250
  6
CONTINUOUS
 90
13
 70
0
 10
54.1911506121
 20
23.7911201511
 10
54.2172468435
 20
23.7894020978
 10
54.2428967341
 20
23.7842932202
 10
54.267661577
 20
23.7758808987
 10
54.2911178031
 20
23.7643090146
 10
54.3128642251
 20
23.7497754896
 10
54.3325288998
 20
23.7325288998
 10
54.3497754896
 20
23.7128642251
 10
54.3643090146
 20
23.6911178031
 10
54.3758808987
 20
23.667661577
 10
54.3842932202
 20
23.6428967341
 10
54.3894020978
 20
23.6172468435
 10
54.3911201511
 20
23.5911506121
  0
LWPOLYLINE
  5
416
100
AcDbEntity
  8
C_COPERCHIO
100
AcDbPolyline
 62
7
  6
CONTINUOUS
 90
9
 70
0
 10
60.6491820368
 20
22.3997180294
 10
60.7021542515
 20
22.395115231
 10
60.7542172895
 20
22.3849398487
 10
60.8047927581
 20
22.369345737
 10
60.8534810615
 20
22.3484691028
 10
60.8995838191
 20
22.3226233164
 10
60.9421983278
 20
22.2924539227
 10
60.9807646256
 20
22.2586595885
 10
60.9859590363
 20
22.2535403519
  0
LWPOLYLINE
  5
417
100
AcDbEntity
  8
C_COPERCHIO
100
AcDbPolyline
 62
250
  6
CONTINUOUS
 90
13
 70
0
 10
60.9826730391
 20
20.5419058565
 10
60.9773649525
 20
20.544560572
 10
60.9637804571
 20
20.5471708661
 10
60.9421468622
 20
20.5496930607
 10
60.912826163
 20
20.552084952
 10
60.876308983
 20
20.5543065163
 10
60.8332063642
 20
20.5563205802
 10
60.7842395433
 20
20.5580934425
 10
60.7302278822
 20
20.5595954377
 10
60.6720751584
 20
20.5608014332
 10
60.610754442
 20
20.5616912491
 10
60.5472918128
 20
20.562249996
 10
60.4827491915
 20
20.5624683245
  0
LINE
  5
418
100
AcDbEntity
  8
C_COPERCHIO
100
AcDbLine
 62
250
  6
CONTINUOUS
 10
58.2893500543
 20
24.2106880219
 11
58.25
 21
24.2500380762
  0
LINE
  5
419
100
AcDbEntity
  8
C_COPERCHIO
100
AcDbLine
 62
250
  6
CONTINUOUS
 10
58.5393119781
 20
24.4606499457
 11
58.4999619238
 21
24.5
  0
LINE
  5
41A
100
AcDbEntity
  8
C_COPERCHIO
100
AcDbLine
 62
250
  6
CONTINUOUS
 10
61.15
 20
21.8823164546
 11
61.1325450279
 21
21.8997714267
  0
LINE
  5
41B
100
AcDbEntity
  8
C_COPERCHIO
100
AcDbLine
 62
7
  6
CONTINUOUS
 10
60.5658422026
 20
23.6390385408
 11
60.5238633974
 21
23.6811920965
  0
LINE
  5
41C
100
AcDbEntity
  8
C_COPERCHIO
100
AcDbLine
 62
7
  6
CONTINUOUS
 10
60.4503790956
 20
23.7545867768
 11
60.3845232993
 21
23.8207630626
  0
LWPOLYLINE
  5
41D
100
AcDbEntity
  8
C_COPERCHIO
100
AcDbPolyline
 62
7
  6
CONTINUOUS
 90
9
 70
0
 10
60.9859590363
 20
22.2535403519
 10
61.0152571109
 20
22.2215861192
 10
61.0456714309
 20
22.1814433519
 10
61.0717900247
 20
22.1386440128
 10
61.0933890859
 20
22.0936997659
 10
61.1103914202
 20
22.0468869821
 10
61.122659764
 20
21.9986052537
 10
61.130062648
 20
21.9494036906
 10
61.1325450279
 20
21.8997714267
  0
LINE
  5
41E
100
AcDbEntity
  8
C_COPERCHIO
100
AcDbLine
 62
7
  6
CONTINUOUS
 10
60.4503797305
 20
-23.754586152
 11
60.4894156824
 21
-23.7156099067
  0
LWPOLYLINE
  5
41F
100
AcDbEntity
  8
C_COPERCHIO
100
AcDbPolyline
 62
7
  6
CONTINUOUS
 90
3
 70
0
 10
60.3606880219
 20
-23.8443375673
 10
60.3845236751
 20
-23.8207626766
 10
60.4503797305
 20
-23.754586152
  0
LINE
  5
420
100
AcDbEntity
  8
C_COPERCHIO
100
AcDbLine
 62
7
  6
CONTINUOUS
 10
60.5658421875
 20
-23.6390385494
 11
60.5771943728
 21
-23.6278312164
  0
LWPOLYLINE
  5
421
100
AcDbEntity
  8
0
100
AcDbPolyline
 62
7
  6
CONTINUOUS
 90
7
 70
0
 43
0.3500000006
 10
49.5714281616
 20
33.3248580322
 10
48.0714277039
 20
33.3248580322
 10
49.5714281616
 20
35.4677164764
 10
49.5714281616
 20
35.896289978
 10
49.1428591919
 20
36.3248589478
 10
48.5000012054
 20
36.3248589478
 10
48.0714277039
 20
35.6820009613
  0
LWPOLYLINE
  5
422
100
AcDbEntity
  8
0
100
AcDbPolyline
 62
7
  6
CONTINUOUS
 90
7
 70
0
 43
0.3500000006
 10
47.2142852325
 20
33.3248580322
 10
45.7142847748
 20
33.3248580322
 10
47.2142852325
 20
35.4677164764
 10
47.2142852325
 20
35.896289978
 10
46.7857162628
 20
36.3248589478
 10
46.1428582764
 20
36.3248589478
 10
45.7142847748
 20
35.6820009613
  0
LWPOLYLINE
  5
423
100
AcDbEntity
  8
0
100
AcDbPolyline
 62
7
  6
CONTINUOUS
 90
6
 70
0
 43
0.3500000006
 10
52.1428555756
 20
33.3248580322
 10
53.2142870636
 20
33.3248580322
 10
53.4285715485
 20
33.539147049
 10
53.4285715485
 20
34.6105740051
 10
52.9999980469
 20
35.0391475067
 10
52.5714290771
 20
35.0391475067
  0
LINE
  5
424
100
AcDbEntity
  8
C_COPERCHIO
100
AcDbLine
 62
7
  6
CONTINUOUS
 10
60.5771943728
 20
23.6278312164
 11
60.5658422026
 21
23.6390385408
  0
LINE
  5
425
100
AcDbEntity
  8
C_COPERCHIO
100
AcDbLine
 62
7
  6
CONTINUOUS
 10
60.3845232993
 20
23.8207630626
 11
60.3606880219
 21
23.8443375673
  0
LWPOLYLINE
  5
426
100
AcDbEntity
  8
C_COPERCHIO
100
AcDbPolyline
 62
7
  6
CONTINUOUS
 90
4
 70
0
 10
60.5238633974
 20
23.6811920965
 10
60.5072110517
 20
23.6977778826
 10
60.4894154588
 20
23.7156101304
 10
60.4503790956
 20
23.7545867768
  0
LWPOLYLINE
  5
427
100
AcDbEntity
  8
0
100
AcDbPolyline
 62
7
  6
CONTINUOUS
 90
10
 70
0
 43
0.3500000006
 10
-1.0722746265
 20
46.9813835449
 10
-1.7151316924
 20
46.3385300903
 10
-2.1437032113
 20
45.4813830872
 10
-2.1437032113
 20
44.409956131
 10
-1.7151316924
 20
43.9813871613
 10
-1.0722746265
 20
43.9813871613
 10
-0.6437031784
 20
44.409956131
 10
-0.6437031784
 20
45.2670986023
 10
-1.0722746265
 20
45.6956721039
 10
-2.0008460855
 20
45.6956721039
  0
LWPOLYLINE
  5
428
100
AcDbEntity
  8
0
100
AcDbPolyline
 62
7
  6
CONTINUOUS
 90
5
 70
0
 43
0.3500000006
 10
-3.4294173431
 20
45.6956721039
 10
-3.0722744579
 20
45.9099565887
 10
-3.0722744579
 20
46.5528145752
 10
-3.4294173431
 20
46.9813835449
 10
-4.2865603809
 20
46.9813835449
  0
LWPOLYLINE
  5
429
100
AcDbEntity
  8
0
100
AcDbPolyline
 62
7
  6
CONTINUOUS
 90
10
 70
0
 43
0.3500000006
 10
2.3562968874
 20
43.9813871613
 10
3.213439642
 20
44.8385296326
 10
3.427725543
 20
45.6956721039
 10
3.427725543
 20
46.5528145752
 10
2.9991540241
 20
46.9813835449
 10
2.3562968874
 20
46.9813835449
 10
1.9277253685
 20
46.5528145752
 10
1.9277253685
 20
45.6956721039
 10
2.3562968874
 20
45.2670986023
 10
3.2848682756
 20
45.2670986023
  0
LINE
  5
42A
100
AcDbEntity
  8
C_COPERCHIO
100
AcDbLine
 62
7
  6
CONTINUOUS
 10
-8.950846023
 20
23.1226497308
 11
-8.075846023
 21
23.6278312164
  0
LINE
  5
42B
100
AcDbEntity
  8
C_COPERCHIO
100
AcDbLine
 62
7
  6
CONTINUOUS
 10
-10.5669995168
 20
22.3292797635
 11
-10.5901085858
 21
22.3203522346
  0
LWPOLYLINE
  5
42C
100
AcDbEntity
  8
C_COPERCHIO
100
AcDbPolyline
 62
7
  6
CONTINUOUS
 90
4
 70
0
 10
-10.5901085903
 20
-22.3203522639
 10
-10.5669995221
 20
-22.3292797991
 10
-10.5448689829
 20
-22.341337932
 10
-10.5240515506
 20
-22.3562867688
  0
LINE
  5
42D
100
AcDbEntity
  8
C_COPERCHIO
100
AcDbLine
 62
7
  6
CONTINUOUS
 10
-8.075846023
 20
-23.6278312164
 11
-8.950846023
 21
-23.1226497308
  0
LINE
  5
42E
100
AcDbEntity
  8
C_COPERCHIO
100
AcDbLine
 62
7
  6
CONTINUOUS
 10
-10.489492993
 20
22.3928055196
 11
-10.5055509576
 21
22.3734066071
  0
LWPOLYLINE
  5
42F
100
AcDbEntity
  8
0
100
AcDbPolyline
 62
7
  6
CONTINUOUS
 90
10
 70
0
 43
0.3500000006
 10
4.2848682976
 20
36.7064959717
 10
3.6420111609
 20
36.0636379852
 10
3.213439642
 20
35.2064955139
 10
3.213439642
 20
34.1350640259
 10
3.6420111609
 20
33.7064950562
 10
4.2848682976
 20
33.7064950562
 10
4.7134398165
 20
34.1350640259
 10
4.7134398165
 20
34.9922110291
 10
4.2848682976
 20
35.4207799988
 10
3.3562969093
 20
35.4207799988
  0
LWPOLYLINE
  5
430
100
AcDbEntity
  8
C_COPERCHIO
100
AcDbPolyline
 62
7
  6
CONTINUOUS
 90
4
 70
0
 10
-10.5055509576
 20
22.3734066071
 10
-10.5240515469
 20
22.3562867409
 10
-10.5448689778
 20
22.3413378975
 10
-10.5669995168
 20
22.3292797635
  0
LINE
  5
431
100
AcDbEntity
  8
C_COPERCHIO
100
AcDbLine
 62
7
  6
CONTINUOUS
 10
-8.950846023
 20
-24.5
 11
-8.1964829214
 21
-24.4868325431
  0
LINE
  5
432
100
AcDbEntity
  8
C_COPERCHIO
100
AcDbLine
 62
250
  6
CONTINUOUS
 10
-8.950846023
 20
-24.2500380762
 11
-8.1964829214
 21
-24.2368706193
  0
LINE
  5
433
100
AcDbEntity
  8
C_COPERCHIO
100
AcDbLine
 62
7
  6
CONTINUOUS
 10
-1.4421198198
 20
-23.6689346966
 11
-7.9519242889
 21
-23.7825637563
  0
LINE
  5
434
100
AcDbEntity
  8
C_COPERCHIO
100
AcDbLine
 62
250
  6
CONTINUOUS
 10
-1.4421198198
 20
-23.4689651576
 11
-8.1482628873
 21
-23.5860213202
  0
LINE
  5
435
100
AcDbEntity
  8
C_COPERCHIO
100
AcDbLine
 62
250
  6
CONTINUOUS
 10
-8.1964829214
 20
-24.2368706193
 11
-7.950846023
 21
-24.2368706193
  0
LINE
  5
436
100
AcDbEntity
  8
C_COPERCHIO
100
AcDbLine
 62
250
  6
CONTINUOUS
 10
-11.2052091246
 20
-24.2106880219
 11
-11.450846023
 21
-24.2106880219
  0
LINE
  5
437
100
AcDbEntity
  8
C_COPERCHIO
100
AcDbLine
 62
7
  6
CONTINUOUS
 10
-11.2052091246
 20
-24.4606499457
 11
-8.950846023
 21
-24.5
  0
LINE
  5
438
100
AcDbEntity
  8
C_COPERCHIO
100
AcDbLine
 62
250
  6
CONTINUOUS
 10
-11.2052091246
 20
-24.2106880219
 11
-8.950846023
 21
-24.2500380762
  0
LINE
  5
439
100
AcDbEntity
  8
C_COPERCHIO
100
AcDbLine
 62
7
  6
CONTINUOUS
 10
-16.6076249119
 20
-21.998725222
 11
-10.6403788318
 21
-22.3114553375
  0
LINE
  5
43A
100
AcDbEntity
  8
C_COPERCHIO
100
AcDbLine
 62
7
  6
CONTINUOUS
 10
-10.6402660471
 20
-22.3111693053
 11
-8.950846023
 21
-22.399708057
  0
LINE
  5
43B
100
AcDbEntity
  8
C_COPERCHIO
100
AcDbLine
 62
7
  6
CONTINUOUS
 10
-10.6402660471
 20
-22.3111693053
 11
-10.6145307653
 21
-22.3143154326
  0
LINE
  5
43C
100
AcDbEntity
  8
C_COPERCHIO
100
AcDbLine
 62
7
  6
CONTINUOUS
 10
-10.6145307653
 20
-22.3143154326
 11
-10.5901085903
 21
-22.3203522639
  0
LINE
  5
43D
100
AcDbEntity
  8
C_COPERCHIO
100
AcDbLine
 62
7
  6
CONTINUOUS
 10
-10.5240515506
 20
-22.3562867688
 11
-10.5055509588
 21
-22.3734066285
  0
LWPOLYLINE
  5
43E
100
AcDbEntity
  8
C_COPERCHIO
100
AcDbPolyline
 62
7
  6
CONTINUOUS
 90
4
 70
0
 10
-10.5055509588
 20
-22.3734066285
 10
-10.4894929893
 20
-22.3928055359
 10
-10.4757518605
 20
-22.4143754662
 10
-10.4649539606
 20
-22.4370726634
  0
LINE
  5
43F
100
AcDbEntity
  8
C_COPERCHIO
100
AcDbLine
 62
7
  6
CONTINUOUS
 10
1.0666063834
 20
-22.2251447178
 11
-8.950846023
 21
-22.4
  0
LINE
  5
440
100
AcDbEntity
  8
C_COPERCHIO
100
AcDbLine
 62
250
  6
CONTINUOUS
 10
-8.950840704
 20
-21.8997714267
 11
-7.950846023
 21
-21.8823164546
  0
LINE
  5
441
100
AcDbEntity
  8
C_COPERCHIO
100
AcDbLine
 62
7
  6
CONTINUOUS
 10
1.5578801802
 20
-21.3240205999
 11
-7.950846023
 21
-21.3927698754
  0
LINE
  5
442
100
AcDbEntity
  8
C_CORPO
100
AcDbLine
 62
7
  6
CONTINUOUS
 10
-7.950846023
 20
-20.85
 11
2.049153977
 21
-20.85
  0
LINE
  5
443
100
AcDbEntity
  8
ASSI
100
AcDbLine
 62
7
  6
CONTINUOUS
 10
-7.950846023
 20
-20.85
 11
2.049153977
 21
-20.85
  0
LINE
  5
444
100
AcDbEntity
  8
C_COPERCHIO
100
AcDbLine
 62
7
  6
CONTINUOUS
 10
2.049153977
 20
-20.9872686779
 11
-7.950846023
 21
-20.9
  0
LINE
  5
445
100
AcDbEntity
  8
C_COPERCHIO
100
AcDbLine
 62
250
  6
CONTINUOUS
 10
-16.590183137
 20
-21.4994104546
 11
-8.950840704
 21
-21.8997714267
  0
LWPOLYLINE
  5
446
100
AcDbEntity
  8
C_COPERCHIO
100
AcDbPolyline
 62
250
  6
CONTINUOUS
 90
22
 70
0
 10
-17.5370011927
 20
-20.5419058565
 10
-17.5315852465
 20
-20.6122925002
 10
-17.5213782079
 20
-20.6815481442
 10
-17.5063800771
 20
-20.7496727886
 10
-17.4864707325
 20
-20.8170211022
 10
-17.4617702957
 20
-20.8832384163
 10
-17.4326391308
 20
-20.9472607239
 10
-17.3990057213
 20
-21.0090341076
 10
-17.3609415837
 20
-21.0686124849
 10
-17.3190216323
 20
-21.1250936018
 10
-17.273195635
 20
-21.1784198171
 10
-17.2235138238
 20
-21.228648772
 10
-17.1707018085
 20
-21.2750511368
 10
-17.1147065635
 20
-21.3175751701
 10
-17.0555811144
 20
-21.3562726132
 10
-16.9942101467
 20
-21.3905693599
 10
-16.930533544
 20
-21.4203990988
 10
-16.8646114228
 20
-21.4458281413
 10
-16.797508818
 20
-21.4664813153
 10
-16.7295807413
 20
-21.4822335635
 10
-16.6604721809
 20
-21.4932099433
 10
-16.590183137
 20
-21.4994104546
  0
LINE
  5
447
100
AcDbEntity
  8
C_COPERCHIO
100
AcDbLine
 62
7
  6
CONTINUOUS
 10
-18.4039677474
 20
-6.8466106961
 11
-18.4037295254
 21
-6.8639840971
  0
LWPOLYLINE
  5
448
100
AcDbEntity
  8
C_COPERCHIO
100
AcDbPolyline
 62
250
  6
CONTINUOUS
 90
10
 70
0
 10
-17.5370011927
 20
20.5419058565
 10
-17.7039400838
 20
15.978194386
 10
-17.829144267
 20
11.4139054356
 10
-17.9126137424
 20
6.8490390052
 10
-17.95434853
 20
2.283210621
 10
-17.9543486098
 20
-2.2831952431
 10
-17.9126139219
 20
-6.8490251651
 10
-17.8291444465
 20
-11.413894671
 10
-17.7039402034
 20
-15.9781882348
 10
-17.5370011927
 20
-20.5419058565
  0
LINE
  5
449
100
AcDbEntity
  8
C_COPERCHIO
100
AcDbLine
 62
250
  6
CONTINUOUS
 10
-18.0236603343
 20
-20.5622494281
 11
-18.0278379624
 21
-20.5624677445
  0
LINE
  5
44A
100
AcDbEntity
  8
C_COPERCHIO
100
AcDbLine
 62
250
  6
CONTINUOUS
 10
-17.7830828561
 20
-20.5520847118
 11
-18.0236603343
 21
-20.5622494281
  0
LWPOLYLINE
  5
44B
100
AcDbEntity
  8
C_COPERCHIO
100
AcDbPolyline
 62
250
  6
CONTINUOUS
 90
3
 70
0
 10
-17.5370011927
 20
-20.5419058565
 10
-17.6014049735
 20
-20.5445605183
 10
-17.7830828561
 20
-20.5520847118
  0
LINE
  5
44C
100
AcDbEntity
  8
C_CORPO
100
AcDbLine
 62
250
  6
CONTINUOUS
 10
2.3368032545
 20
-19.3131096223
 11
2.049153977
 21
-19.3181305591
  0
LINE
  5
44D
100
AcDbEntity
  8
ASSI
100
AcDbLine
 62
250
  6
CONTINUOUS
 10
2.3368032545
 20
-19.3131096223
 11
2.049153977
 21
-19.3181305591
  0
LINE
  5
44E
100
AcDbEntity
  8
C_CORPO
100
AcDbLine
 62
250
  6
CONTINUOUS
 10
-7.950846023
 20
-19.0856972195
 11
2.449153977
 21
-19.0105039234
  0
LINE
  5
44F
100
AcDbEntity
  8
ASSI
100
AcDbLine
 62
250
  6
CONTINUOUS
 10
-7.950846023
 20
-19.0856972195
 11
2.449153977
 21
-19.0105039234
  0
LINE
  5
450
100
AcDbEntity
  8
C_COPERCHIO
100
AcDbLine
 62
250
  6
CONTINUOUS
 10
-16.590183137
 20
21.4994104546
 11
-16.5954284427
 21
21.6031625516
  0
LINE
  5
451
100
AcDbEntity
  8
C_COPERCHIO
100
AcDbLine
 62
250
  6
CONTINUOUS
 10
-16.5954284427
 20
21.6031625516
 11
-16.6000638788
 21
21.7023861514
  0
LINE
  5
452
100
AcDbEntity
  8
C_COPERCHIO
100
AcDbLine
 62
250
  6
CONTINUOUS
 10
-16.6000638788
 20
21.7023861514
 11
-16.6038870823
 21
21.7927497284
  0
LWPOLYLINE
  5
453
100
AcDbEntity
  8
C_COPERCHIO
100
AcDbPolyline
 62
250
  6
CONTINUOUS
 90
9
 70
0
 10
-16.6038870823
 20
21.7927497284
 10
-16.6067311419
 20
21.8703084336
 10
-16.6077453558
 20
21.903201732
 10
-16.6084718816
 20
21.9316761841
 10
-16.6089027659
 20
21.9554201328
 10
-16.6090332912
 20
21.9741736756
 10
-16.6088620279
 20
21.987731552
 10
-16.6083908488
 20
21.9959453723
 10
-16.6076249092
 20
21.9987252221
  0
LWPOLYLINE
  5
454
100
AcDbEntity
  8
C_COPERCHIO
100
AcDbPolyline
 62
250
  6
CONTINUOUS
 90
7
 70
0
 10
-16.6077454025
 20
-21.9032038523
 10
-16.6084719049
 20
-21.9316778049
 10
-16.6089027693
 20
-21.955421247
 10
-16.6090332812
 20
-21.9741743428
 10
-16.6088620125
 20
-21.9877318681
 10
-16.6083908373
 20
-21.9959454562
 10
-16.6076249119
 20
-21.998725222
  0
LINE
  5
455
100
AcDbEntity
  8
C_COPERCHIO
100
AcDbLine
 62
250
  6
CONTINUOUS
 10
-16.6054404341
 20
-21.8333591913
 11
-16.6077454025
 21
-21.9032038523
  0
LINE
  5
456
100
AcDbEntity
  8
C_COPERCHIO
100
AcDbLine
 62
250
  6
CONTINUOUS
 10
-16.6020884856
 20
-21.7489362749
 11
-16.6054404341
 21
-21.8333591913
  0
LINE
  5
457
100
AcDbEntity
  8
C_COPERCHIO
100
AcDbLine
 62
250
  6
CONTINUOUS
 10
-16.5978358836
 20
-21.6536205154
 11
-16.6020884856
 21
-21.7489362749
  0
LWPOLYLINE
  5
458
100
AcDbEntity
  8
C_COPERCHIO
100
AcDbPolyline
 62
250
  6
CONTINUOUS
 90
3
 70
0
 10
-16.590183137
 20
-21.4994104546
 10
-16.5928682717
 20
-21.5515728435
 10
-16.5978358836
 20
-21.6536205154
  0
LWPOLYLINE
  5
459
100
AcDbEntity
  8
C_COPERCHIO
100
AcDbPolyline
 62
7
  6
CONTINUOUS
 90
4
 70
0
 10
-10.4573080971
 20
22.4605492052
 10
-10.4649539731
 20
22.4370726564
 10
-10.4757518701
 20
22.4143754549
 10
-10.489492993
 20
22.3928055196
  0
LINE
  5
45A
100
AcDbEntity
  8
C_CORPO
100
AcDbLine
 62
250
  6
CONTINUOUS
 10
-7.950846023
 20
-17.6716990487
 11
2.449153977
 21
-17.5965057526
  0
LINE
  5
45B
100
AcDbEntity
  8
ASSI
100
AcDbLine
 62
250
  6
CONTINUOUS
 10
-7.950846023
 20
-17.6716990487
 11
2.449153977
 21
-17.5965057526
  0
LINE
  5
45C
100
AcDbEntity
  8
C_COPERCHIO
100
AcDbLine
 62
7
  6
CONTINUOUS
 10
-10.4649539606
 20
-22.4370726634
 11
-10.4573080858
 21
-22.460549209
  0
LINE
  5
45D
100
AcDbEntity
  8
C_COPERCHIO
100
AcDbLine
 62
7
  6
CONTINUOUS
 10
-10.452605447
 20
22.4851530201
 11
-10.4573080971
 21
22.4605492052
  0
LWPOLYLINE
  5
45E
100
AcDbEntity
  8
C_COPERCHIO
100
AcDbPolyline
 62
7
  6
CONTINUOUS
 90
9
 70
0
 10
-8.950994958
 20
22.3997180294
 10
-8.9518870413
 20
22.395115231
 10
-8.9526650558
 20
22.3849398487
 10
-8.95331622
 20
22.369345737
 10
-8.9538101396
 20
22.3484691028
 10
-8.9541501964
 20
22.3226233164
 10
-8.954372491
 20
22.2924539227
 10
-8.9544624254
 20
22.2586595885
 10
-8.9542409233
 20
22.1814433519
  0
LWPOLYLINE
  5
45F
100
AcDbEntity
  8
0
100
AcDbPolyline
 62
7
  6
CONTINUOUS
 90
3
 70
0
 43
0.3500000006
 10
0.9277254174
 20
44.2670982971
 10
0.8562968545
 20
44.0528138123
 10
0.7134396579
 20
43.7670981445
  0
LINE
  5
460
100
AcDbEntity
  8
SCRITTE
100
AcDbLine
 62
7
  6
CONTINUOUS
 10
-5.350625181
 20
15.0649579651
 11
-5.30987634
 21
15.1057068061
  0
LINE
  5
461
100
AcDbEntity
  8
SCRITTE
100
AcDbLine
 62
7
  6
CONTINUOUS
 10
-5.350625181
 20
14.8549472511
 11
-4.9879411224
 21
15.2176313097
  0
LINE
  5
462
100
AcDbEntity
  8
SCRITTE
100
AcDbLine
 62
7
  6
CONTINUOUS
 10
-5.350625181
 20
14.644936537
 11
-4.6660059048
 21
15.3295558133
  0
LINE
  5
463
100
AcDbEntity
  8
SCRITTE
100
AcDbLine
 62
7
  6
CONTINUOUS
 10
-5.350625181
 20
14.434925823
 11
-4.3440706872
 21
15.4414803168
  0
LINE
  5
464
100
AcDbEntity
  8
SCRITTE
100
AcDbLine
 62
7
  6
CONTINUOUS
 10
-5.2569302166
 20
14.3186100734
 11
-4.0221354696
 21
15.5534048204
  0
LINE
  5
465
100
AcDbEntity
  8
SCRITTE
100
AcDbLine
 62
7
  6
CONTINUOUS
 10
-5.102690613
 20
14.262838963
 11
-4.694538384
 21
14.670991192
  0
LINE
  5
466
100
AcDbEntity
  8
SCRITTE
100
AcDbLine
 62
7
  6
CONTINUOUS
 10
-4.5946270023
 20
14.7709025737
 11
-3.700200252
 21
15.665329324
  0
LINE
  5
467
100
AcDbEntity
  8
SCRITTE
100
AcDbLine
 62
7
  6
CONTINUOUS
 10
-4.9484510094
 20
14.2070678526
 11
-4.5383112496
 21
14.6172076123
  0
LINE
  5
468
100
AcDbEntity
  8
SCRITTE
100
AcDbLine
 62
7
  6
CONTINUOUS
 10
-4.2851436953
 20
14.8703751666
 11
-3.3782650344
 21
15.7772538276
  0
LINE
  5
469
100
AcDbEntity
  8
SCRITTE
100
AcDbLine
 62
250
  6
CONTINUOUS
 10
0.4158206248
 20
16.44375
 11
0.099153977
 21
16.325
  0
LINE
  5
46A
100
AcDbEntity
  8
SCRITTE
100
AcDbLine
 62
250
  6
CONTINUOUS
 10
-2.451066865
 20
16.099605
 11
-5.350625181
 21
15.09154
  0
LINE
  5
46B
100
AcDbEntity
  8
SCRITTE
100
AcDbLine
 62
250
  6
CONTINUOUS
 10
-3.0656122525
 20
15.264189
 11
-2.451066865
 21
15.473179
  0
LINE
  5
46C
100
AcDbEntity
  8
SCRITTE
100
AcDbLine
 62
250
  6
CONTINUOUS
 10
-4.7963866071
 20
14.706054
 11
-3.5474718518
 21
15.107474
  0
LINE
  5
46D
100
AcDbEntity
  8
C_CORPO
100
AcDbLine
 62
7
  6
CONTINUOUS
 10
2.9404277738
 20
-16.241424784
 11
15.4666063834
 21
-16.022779523
  0
LINE
  5
46E
100
AcDbEntity
  8
ASSI
100
AcDbLine
 62
7
  6
CONTINUOUS
 10
2.9404277738
 20
-16.241424784
 11
15.4666063834
 21
-16.022779523
  0
LINE
  5
46F
100
AcDbEntity
  8
C_CORPO
100
AcDbLine
 62
250
  6
CONTINUOUS
 10
2.9404278045
 20
-15.2415770883
 11
15.4666063834
 21
-15.0229318279
  0
LINE
  5
470
100
AcDbEntity
  8
ASSI
100
AcDbLine
 62
250
  6
CONTINUOUS
 10
2.9404278045
 20
-15.2415770883
 11
15.4666063834
 21
-15.0229318279
  0
LINE
  5
471
100
AcDbEntity
  8
C_CORPO
100
AcDbLine
 62
250
  6
CONTINUOUS
 10
16.449153977
 20
-15.0229318279
 11
15.4666063834
 21
-15.0229318279
  0
LINE
  5
472
100
AcDbEntity
  8
ASSI
100
AcDbLine
 62
250
  6
CONTINUOUS
 10
16.449153977
 20
-15.0229318279
 11
15.4666063834
 21
-15.0229318279
  0
LINE
  5
473
100
AcDbEntity
  8
SCRITTE
100
AcDbLine
 62
250
  6
CONTINUOUS
 10
-5.3506831721
 20
-14.068905
 11
-3.3540903092
 21
-14.71003
  0
LINE
  5
474
100
AcDbEntity
  8
SCRITTE
100
AcDbLine
 62
250
  6
CONTINUOUS
 10
-2.4509938761
 20
-14.420015
 11
-5.3506831721
 21
-13.488876
  0
LWPOLYLINE
  5
475
100
AcDbEntity
  8
C_COPERCHIO
100
AcDbPolyline
 62
7
  6
CONTINUOUS
 90
3
 70
0
 10
-10.4573080858
 20
-22.460549209
 10
-10.4526054399
 20
-22.4851530216
 10
-10.450846023
 20
-22.5108841013
  0
LINE
  5
476
100
AcDbEntity
  8
C_COPERCHIO
100
AcDbLine
 62
250
  6
CONTINUOUS
 10
-11.205741028
 20
24.2433083112
 11
-11.2065460018
 21
24.3063267281
  0
LWPOLYLINE
  5
477
100
AcDbEntity
  8
C_COPERCHIO
100
AcDbPolyline
 62
250
  6
CONTINUOUS
 90
9
 70
0
 10
-11.2065460018
 20
24.3063267281
 10
-11.2069626812
 20
24.3628300382
 10
-11.207015441
 20
24.3874108816
 10
-11.2069626812
 20
24.4089691188
 10
-11.2068053042
 20
24.4271360251
 10
-11.2065460018
 20
24.4416008802
 10
-11.2061892089
 20
24.4521162821
 10
-11.205741028
 20
24.4585023791
 10
-11.2052091246
 20
24.4606499457
  0
LWPOLYLINE
  5
478
100
AcDbEntity
  8
C_COPERCHIO
100
AcDbPolyline
 62
250
  6
CONTINUOUS
 90
7
 70
0
 10
-11.207015441
 20
-24.3874108816
 10
-11.2069626812
 20
-24.4089691188
 10
-11.2068053042
 20
-24.4271360251
 10
-11.2065460018
 20
-24.4416008802
 10
-11.2061892089
 20
-24.4521162821
 10
-11.205741028
 20
-24.4585023791
 10
-11.2052091246
 20
-24.4606499457
  0
LINE
  5
479
100
AcDbEntity
  8
C_COPERCHIO
100
AcDbLine
 62
7
  6
CONTINUOUS
 10
-11.450846023
 20
24.2106880219
 11
-11.450846023
 21
23.8443375673
  0
LINE
  5
47A
100
AcDbEntity
  8
C_COPERCHIO
100
AcDbLine
 62
7
  6
CONTINUOUS
 10
-11.450846023
 20
-23.8443375673
 11
-11.450846023
 21
-24.2106880219
  0
LINE
  5
47B
100
AcDbEntity
  8
C_COPERCHIO
100
AcDbLine
 62
250
  6
CONTINUOUS
 10
-11.2052091246
 20
24.2106880219
 11
-11.2052091246
 21
23.5581814706
  0
LINE
  5
47C
100
AcDbEntity
  8
C_COPERCHIO
100
AcDbLine
 62
250
  6
CONTINUOUS
 10
-11.2052091246
 20
-23.5581814706
 11
-11.2052091246
 21
-24.2106880219
  0
LINE
  5
47D
100
AcDbEntity
  8
C_COPERCHIO
100
AcDbLine
 62
250
  6
CONTINUOUS
 10
-11.2068053042
 20
-24.3356470107
 11
-11.207015441
 21
-24.3874108816
  0
LINE
  5
47E
100
AcDbEntity
  8
C_COPERCHIO
100
AcDbLine
 62
7
  6
CONTINUOUS
 10
-10.450846023
 20
22.5108841013
 11
-10.452605447
 21
22.4851530201
  0
LINE
  5
47F
100
AcDbEntity
  8
SCRITTE
100
AcDbLine
 62
7
  6
CONTINUOUS
 10
-4.7942114057
 20
14.1512967422
 11
-4.3820841153
 21
14.5634240327
  0
LINE
  5
480
100
AcDbEntity
  8
SCRITTE
100
AcDbLine
 62
7
  6
CONTINUOUS
 10
-3.9756603884
 20
14.9698477596
 11
-3.0563298168
 21
15.8891783312
  0
LINE
  5
481
100
AcDbEntity
  8
SCRITTE
100
AcDbLine
 62
7
  6
CONTINUOUS
 10
-4.6399718021
 20
14.0955256318
 11
-4.2258569809
 21
14.509640453
  0
LINE
  5
482
100
AcDbEntity
  8
SCRITTE
100
AcDbLine
 62
7
  6
CONTINUOUS
 10
-3.6661770814
 20
15.0693203525
 11
-2.7343945992
 21
16.0011028348
  0
LINE
  5
483
100
AcDbEntity
  8
SCRITTE
100
AcDbLine
 62
7
  6
CONTINUOUS
 10
-4.4857321985
 20
14.0397545214
 11
-4.0696298466
 21
14.4558568733
  0
LINE
  5
484
100
AcDbEntity
  8
SCRITTE
100
AcDbLine
 62
7
  6
CONTINUOUS
 10
-3.5474718518
 20
14.9780148681
 11
-2.451066865
 21
16.0744198549
  0
LINE
  5
485
100
AcDbEntity
  8
SCRITTE
100
AcDbLine
 62
7
  6
CONTINUOUS
 10
-5.350625181
 20
12.9648508249
 11
-5.3046730059
 21
13.010803
  0
LINE
  5
486
100
AcDbEntity
  8
SCRITTE
100
AcDbLine
 62
7
  6
CONTINUOUS
 10
-4.3314925949
 20
13.983983411
 11
-3.9134027122
 21
14.4020732937
  0
LINE
  5
487
100
AcDbEntity
  8
SCRITTE
100
AcDbLine
 62
7
  6
CONTINUOUS
 10
-3.5474718518
 20
14.7680041541
 11
-3.0656122525
 21
15.2498637534
  0
LINE
  5
488
100
AcDbEntity
  8
SCRITTE
100
AcDbLine
 62
7
  6
CONTINUOUS
 10
-3.0439049482
 20
15.2715710577
 11
-2.451066865
 21
15.8644091409
  0
LINE
  5
489
100
AcDbEntity
  8
SCRITTE
100
AcDbLine
 62
7
  6
CONTINUOUS
 10
-5.350625181
 20
12.7548401109
 11
-5.0946622919
 21
13.010803
  0
LINE
  5
48A
100
AcDbEntity
  8
SCRITTE
100
AcDbLine
 62
7
  6
CONTINUOUS
 10
-4.1772529913
 20
13.9282123006
 11
-3.7571755779
 21
14.348289714
  0
LINE
  5
48B
100
AcDbEntity
  8
SCRITTE
100
AcDbLine
 62
7
  6
CONTINUOUS
 10
-3.5474718518
 20
14.5579934401
 11
-3.0656122525
 21
15.0398530394
  0
LINE
  5
48C
100
AcDbEntity
  8
SCRITTE
100
AcDbLine
 62
7
  6
CONTINUOUS
 10
-2.7256719285
 20
15.3797933634
 11
-2.451066865
 21
15.6543984269
  0
LINE
  5
48D
100
AcDbEntity
  8
SCRITTE
100
AcDbLine
 62
7
  6
CONTINUOUS
 10
-5.350625181
 20
12.5448293969
 11
-4.8846515779
 21
13.010803
  0
LINE
  5
48E
100
AcDbEntity
  8
SCRITTE
100
AcDbLine
 62
7
  6
CONTINUOUS
 10
-4.0230133877
 20
13.8724411902
 11
-3.6009484435
 21
14.2945061344
  0
LINE
  5
48F
100
AcDbEntity
  8
SCRITTE
100
AcDbLine
 62
7
  6
CONTINUOUS
 10
-3.5474718518
 20
14.3479827261
 11
-3.0656122525
 21
14.8298423254
  0
LINE
  5
490
100
AcDbEntity
  8
SCRITTE
100
AcDbLine
 62
7
  6
CONTINUOUS
 10
-5.2570848639
 20
12.428359
 11
-4.6746408639
 21
13.010803
  0
LINE
  5
491
100
AcDbEntity
  8
SCRITTE
100
AcDbLine
 62
7
  6
CONTINUOUS
 10
-3.8687737841
 20
13.8166700798
 11
-3.0656122525
 21
14.6198316114
  0
LINE
  5
492
100
AcDbEntity
  8
SCRITTE
100
AcDbLine
 62
7
  6
CONTINUOUS
 10
-5.0470741499
 20
12.428359
 11
-4.4646301499
 21
13.010803
  0
LINE
  5
493
100
AcDbEntity
  8
SCRITTE
100
AcDbLine
 62
7
  6
CONTINUOUS
 10
-3.7145341805
 20
13.7608989694
 11
-3.0656122525
 21
14.4098208973
  0
LINE
  5
494
100
AcDbEntity
  8
SCRITTE
100
AcDbLine
 62
7
  6
CONTINUOUS
 10
-4.8370634359
 20
12.428359
 11
-4.2546194359
 21
13.010803
  0
LINE
  5
495
100
AcDbEntity
  8
SCRITTE
100
AcDbLine
 62
7
  6
CONTINUOUS
 10
-3.5602945769
 20
13.705127859
 11
-3.0656122525
 21
14.1998101833
  0
LINE
  5
496
100
AcDbEntity
  8
SCRITTE
100
AcDbLine
 62
7
  6
CONTINUOUS
 10
-4.6270527219
 20
12.428359
 11
-4.0446087219
 21
13.010803
  0
LINE
  5
497
100
AcDbEntity
  8
SCRITTE
100
AcDbLine
 62
7
  6
CONTINUOUS
 10
-3.4060549733
 20
13.6493567486
 11
-2.9727459303
 21
14.0826657915
  0
LINE
  5
498
100
AcDbEntity
  8
SCRITTE
100
AcDbLine
 62
7
  6
CONTINUOUS
 10
-4.4170420078
 20
12.428359
 11
-3.8345980078
 21
13.010803
  0
LINE
  5
499
100
AcDbEntity
  8
SCRITTE
100
AcDbLine
 62
7
  6
CONTINUOUS
 10
-3.2518153697
 20
13.5935856382
 11
-2.8175315647
 21
14.0278694432
  0
LINE
  5
49A
100
AcDbEntity
  8
SCRITTE
100
AcDbLine
 62
7
  6
CONTINUOUS
 10
-5.350625181
 20
11.2847651128
 11
-5.290563365
 21
11.3448269288
  0
LINE
  5
49B
100
AcDbEntity
  8
SCRITTE
100
AcDbLine
 62
7
  6
CONTINUOUS
 10
-4.2070312938
 20
12.428359
 11
-3.6245872938
 21
13.010803
  0
LINE
  5
49C
100
AcDbEntity
  8
SCRITTE
100
AcDbLine
 62
7
  6
CONTINUOUS
 10
-3.0975757661
 20
13.5378145278
 11
-2.662317199
 21
13.9730730948
  0
LINE
  5
49D
100
AcDbEntity
  8
SCRITTE
100
AcDbLine
 62
7
  6
CONTINUOUS
 10
-5.350625181
 20
11.0747543988
 11
-4.8833949346
 21
11.5419846452
  0
LINE
  5
49E
100
AcDbEntity
  8
SCRITTE
100
AcDbLine
 62
7
  6
CONTINUOUS
 10
-3.9970205798
 20
12.428359
 11
-3.4145765798
 21
13.010803
  0
LINE
  5
49F
100
AcDbEntity
  8
SCRITTE
100
AcDbLine
 62
7
  6
CONTINUOUS
 10
-2.9433361625
 20
13.4820434174
 11
-2.5071028334
 21
13.9182767465
  0
LINE
  5
4A0
100
AcDbEntity
  8
SCRITTE
100
AcDbLine
 62
7
  6
CONTINUOUS
 10
-5.350625181
 20
10.8647436848
 11
-4.4762265042
 21
11.7391423616
  0
LINE
  5
4A1
100
AcDbEntity
  8
SCRITTE
100
AcDbLine
 62
7
  6
CONTINUOUS
 10
-3.7870098658
 20
12.428359
 11
-3.2045658658
 21
13.010803
  0
LINE
  5
4A2
100
AcDbEntity
  8
SCRITTE
100
AcDbLine
 62
7
  6
CONTINUOUS
 10
-2.7890965588
 20
13.426272307
 11
-2.451066865
 21
13.7643020008
  0
LINE
  5
4A3
100
AcDbEntity
  8
SCRITTE
100
AcDbLine
 62
7
  6
CONTINUOUS
 10
-5.350625181
 20
10.6547329708
 11
-4.0690580738
 21
11.936300078
  0
LINE
  5
4A4
100
AcDbEntity
  8
SCRITTE
100
AcDbLine
 62
7
  6
CONTINUOUS
 10
-3.5769991518
 20
12.428359
 11
-2.9945551518
 21
13.010803
  0
LINE
  5
4A5
100
AcDbEntity
  8
SCRITTE
100
AcDbLine
 62
7
  6
CONTINUOUS
 10
-2.6348569552
 20
13.3705011965
 11
-2.451066865
 21
13.5542912868
  0
LINE
  5
4A6
100
AcDbEntity
  8
SCRITTE
100
AcDbLine
 62
250
  6
CONTINUOUS
 10
0.099153977
 20
16.325
 11
-0.0591793186
 21
16.20625
  0
LINE
  5
4A7
100
AcDbEntity
  8
SCRITTE
100
AcDbLine
 62
250
  6
CONTINUOUS
 10
0.7324873009
 20
15.375
 11
0.8908206389
 21
15.49375
  0
LINE
  5
4A8
100
AcDbEntity
  8
SCRITTE
100
AcDbLine
 62
250
  6
CONTINUOUS
 10
-5.350625181
 20
11.315744
 11
-3.0528621947
 21
12.428359
  0
LINE
  5
4A9
100
AcDbEntity
  8
SCRITTE
100
AcDbLine
 62
250
  6
CONTINUOUS
 10
-2.451066865
 20
12.127151
 11
-4.8778012053
 21
10.974375
  0
LINE
  5
4AA
100
AcDbEntity
  8
C_CORPO
100
AcDbLine
 62
7
  6
CONTINUOUS
 10
16.7230072542
 20
-11.6760409428
 11
18.1753006998
 21
-11.5489817302
  0
LINE
  5
4AB
100
AcDbEntity
  8
ASSI
100
AcDbLine
 62
7
  6
CONTINUOUS
 10
16.7230072542
 20
-11.6760409428
 11
18.1753006998
 21
-11.5489817302
  0
LINE
  5
4AC
100
AcDbEntity
  8
SCRITTE
100
AcDbLine
 62
250
  6
CONTINUOUS
 10
-5.3506831721
 20
-13.102197
 11
-2.4509868772
 21
-13.102204
  0
LINE
  5
4AD
100
AcDbEntity
  8
SCRITTE
100
AcDbLine
 62
250
  6
CONTINUOUS
 10
-2.4509938761
 20
-12.522183
 11
-5.3506831721
 21
-12.522175
  0
LINE
  5
4AE
100
AcDbEntity
  8
C_COPERCHIO
100
AcDbLine
 62
250
  6
CONTINUOUS
 10
-11.2052091246
 20
24.2106880219
 11
-11.205741028
 21
24.2433083112
  0
LWPOLYLINE
  5
4AF
100
AcDbEntity
  8
C_COPERCHIO
100
AcDbPolyline
 62
7
  6
CONTINUOUS
 90
7
 70
0
 10
-8.954372491
 20
-22.2924539227
 10
-8.9541501966
 20
-22.3226232988
 10
-8.95381014
 20
-22.3484690737
 10
-8.95331622
 20
-22.369345737
 10
-8.9526650551
 20
-22.3849398969
 10
-8.9518870405
 20
-22.3951153
 10
-8.950994958
 20
-22.3997180594
  0
LINE
  5
4B0
100
AcDbEntity
  8
C_COPERCHIO
100
AcDbLine
 62
7
  6
CONTINUOUS
 10
-8.9542409233
 20
22.1814433519
 11
-8.9535367418
 21
22.0936997659
  0
LINE
  5
4B1
100
AcDbEntity
  8
C_COPERCHIO
100
AcDbLine
 62
7
  6
CONTINUOUS
 10
-10.450846023
 20
23.1226497308
 11
-10.450846023
 21
22.5108841013
  0
LINE
  5
4B2
100
AcDbEntity
  8
C_COPERCHIO
100
AcDbLine
 62
7
  6
CONTINUOUS
 10
-10.450846023
 20
-22.5110403372
 11
-10.450846023
 21
-23.1226497308
  0
LINE
  5
4B3
100
AcDbEntity
  8
C_COPERCHIO
100
AcDbLine
 62
7
  6
CONTINUOUS
 10
-8.950846023
 20
-22.399708057
 11
-8.950846023
 21
-24.5
  0
LINE
  5
4B4
100
AcDbEntity
  8
C_COPERCHIO
100
AcDbLine
 62
7
  6
CONTINUOUS
 10
-8.950846023
 20
22.399708057
 11
-8.950846023
 21
24.5
  0
LINE
  5
4B5
100
AcDbEntity
  8
C_COPERCHIO
100
AcDbLine
 62
7
  6
CONTINUOUS
 10
-8.9544061452
 20
-22.2215861192
 11
-8.954372491
 21
-22.2924539227
  0
LWPOLYLINE
  5
4B6
100
AcDbEntity
  8
C_COPERCHIO
100
AcDbPolyline
 62
7
  6
CONTINUOUS
 90
3
 70
0
 10
-8.9535367418
 20
-22.0936997659
 10
-8.9539552231
 20
-22.1386440128
 10
-8.9544061452
 20
-22.2215861192
  0
LWPOLYLINE
  5
4B7
100
AcDbEntity
  8
C_COPERCHIO
100
AcDbPolyline
 62
250
  6
CONTINUOUS
 90
4
 70
0
 10
-11.2052091246
 20
-24.2106880219
 10
-11.205741028
 20
-24.2433083112
 10
-11.2061892089
 20
-24.2753706744
 10
-11.2068053042
 20
-24.3356470107
  0
LINE
  5
4B8
100
AcDbEntity
  8
C_COPERCHIO
100
AcDbLine
 62
250
  6
CONTINUOUS
 10
-1.2659252992
 20
23.5891142718
 11
-1.279996705
 21
23.5552983396
  0
LINE
  5
4B9
100
AcDbEntity
  8
C_COPERCHIO
100
AcDbLine
 62
250
  6
CONTINUOUS
 10
-1.279996705
 20
23.5552983396
 11
-1.2975217747
 21
23.5139708184
  0
LWPOLYLINE
  5
4BA
100
AcDbEntity
  8
C_COPERCHIO
100
AcDbPolyline
 62
250
  6
CONTINUOUS
 90
3
 70
0
 10
-1.2975217747
 20
23.5139708184
 10
-1.3173172513
 20
23.467922924
 10
-1.3276522514
 20
23.4440939096
  0
LINE
  5
4BB
100
AcDbEntity
  8
SCRITTE
100
AcDbLine
 62
250
  6
CONTINUOUS
 10
-0.0591793186
 20
16.20625
 11
-0.2175127274
 21
15.96875
  0
LINE
  5
4BC
100
AcDbEntity
  8
SCRITTE
100
AcDbLine
 62
7
  6
CONTINUOUS
 10
-5.350625181
 20
10.4447222568
 11
-4.8209724378
 21
10.974375
  0
LINE
  5
4BD
100
AcDbEntity
  8
SCRITTE
100
AcDbLine
 62
7
  6
CONTINUOUS
 10
-4.7695493753
 20
11.0257980625
 11
-3.6618896433
 21
12.1334577944
  0
LINE
  5
4BE
100
AcDbEntity
  8
SCRITTE
100
AcDbLine
 62
7
  6
CONTINUOUS
 10
-3.3669884378
 20
12.428359
 11
-2.7845444378
 21
13.010803
  0
LINE
  5
4BF
100
AcDbEntity
  8
SCRITTE
100
AcDbLine
 62
7
  6
CONTINUOUS
 10
-2.4806173516
 20
13.3147300861
 11
-2.451066865
 21
13.3442805728
  0
LINE
  5
4C0
100
AcDbEntity
  8
SCRITTE
100
AcDbLine
 62
7
  6
CONTINUOUS
 10
-5.1934067238
 20
10.39193
 11
-4.6109617238
 21
10.974375
  0
LINE
  5
4C1
100
AcDbEntity
  8
SCRITTE
100
AcDbLine
 62
7
  6
CONTINUOUS
 10
-4.3695047307
 20
11.2158319931
 11
-3.2547212129
 21
12.3306155108
  0
LINE
  5
4C2
100
AcDbEntity
  8
SCRITTE
100
AcDbLine
 62
7
  6
CONTINUOUS
 10
-3.1569777238
 20
12.428359
 11
-2.5745337238
 21
13.010803
  0
LINE
  5
4C3
100
AcDbEntity
  8
SCRITTE
100
AcDbLine
 62
7
  6
CONTINUOUS
 10
-4.9833960098
 20
10.39193
 11
-4.4009510098
 21
10.974375
  0
LINE
  5
4C4
100
AcDbEntity
  8
SCRITTE
100
AcDbLine
 62
7
  6
CONTINUOUS
 10
-3.969460086
 20
11.4058659237
 11
-2.451066865
 21
12.9242591447
  0
LINE
  5
4C5
100
AcDbEntity
  8
SCRITTE
100
AcDbLine
 62
7
  6
CONTINUOUS
 10
-4.7733852957
 20
10.39193
 11
-4.1909402957
 21
10.974375
  0
LINE
  5
4C6
100
AcDbEntity
  8
SCRITTE
100
AcDbLine
 62
7
  6
CONTINUOUS
 10
-3.5694154414
 20
11.5958998544
 11
-2.451066865
 21
12.7142484307
  0
LINE
  5
4C7
100
AcDbEntity
  8
SCRITTE
100
AcDbLine
 62
7
  6
CONTINUOUS
 10
-4.5633745817
 20
10.39193
 11
-3.9809295817
 21
10.974375
  0
LINE
  5
4C8
100
AcDbEntity
  8
SCRITTE
100
AcDbLine
 62
7
  6
CONTINUOUS
 10
-3.1693707967
 20
11.785933785
 11
-2.451066865
 21
12.5042377167
  0
LINE
  5
4C9
100
AcDbEntity
  8
SCRITTE
100
AcDbLine
 62
7
  6
CONTINUOUS
 10
-4.3533638677
 20
10.39193
 11
-3.7709188677
 21
10.974375
  0
LINE
  5
4CA
100
AcDbEntity
  8
SCRITTE
100
AcDbLine
 62
7
  6
CONTINUOUS
 10
-2.7693261521
 20
11.9759677156
 11
-2.451066865
 21
12.2942270027
  0
LINE
  5
4CB
100
AcDbEntity
  8
SCRITTE
100
AcDbLine
 62
7
  6
CONTINUOUS
 10
-4.1433531537
 20
10.39193
 11
-3.5609081537
 21
10.974375
  0
LINE
  5
4CC
100
AcDbEntity
  8
SCRITTE
100
AcDbLine
 62
7
  6
CONTINUOUS
 10
-5.350625181
 20
8.9746472587
 11
-5.2098040504
 21
9.1154683892
  0
LINE
  5
4CD
100
AcDbEntity
  8
SCRITTE
100
AcDbLine
 62
7
  6
CONTINUOUS
 10
-3.9333424397
 20
10.39193
 11
-3.3508974397
 21
10.974375
  0
LINE
  5
4CE
100
AcDbEntity
  8
SCRITTE
100
AcDbLine
 62
7
  6
CONTINUOUS
 10
-5.350625181
 20
8.7646365447
 11
-4.8878502798
 21
9.2274114459
  0
LINE
  5
4CF
100
AcDbEntity
  8
SCRITTE
100
AcDbLine
 62
7
  6
CONTINUOUS
 10
-3.7233317257
 20
10.39193
 11
-3.1408867257
 21
10.974375
  0
LINE
  5
4D0
100
AcDbEntity
  8
SCRITTE
100
AcDbLine
 62
7
  6
CONTINUOUS
 10
-5.350625181
 20
8.5546258307
 11
-4.5658965092
 21
9.3393545025
  0
LINE
  5
4D1
100
AcDbEntity
  8
SCRITTE
100
AcDbLine
 62
7
  6
CONTINUOUS
 10
-3.5133210117
 20
10.39193
 11
-2.9308760117
 21
10.974375
  0
LINE
  5
4D2
100
AcDbEntity
  8
SCRITTE
100
AcDbLine
 62
7
  6
CONTINUOUS
 10
-5.350625181
 20
8.3446151167
 11
-4.2439427385
 21
9.4512975591
  0
LINE
  5
4D3
100
AcDbEntity
  8
SCRITTE
100
AcDbLine
 62
7
  6
CONTINUOUS
 10
-3.3033102977
 20
10.39193
 11
-2.7208652977
 21
10.974375
  0
LINE
  5
4D4
100
AcDbEntity
  8
SCRITTE
100
AcDbLine
 62
7
  6
CONTINUOUS
 10
-5.208985423
 20
8.2762441606
 11
-3.9219889679
 21
9.5632406158
  0
LINE
  5
4D5
100
AcDbEntity
  8
SCRITTE
100
AcDbLine
 62
7
  6
CONTINUOUS
 10
-3.0932995836
 20
10.39193
 11
-2.5108545836
 21
10.974375
  0
LINE
  5
4D6
100
AcDbEntity
  8
SCRITTE
100
AcDbLine
 62
7
  6
CONTINUOUS
 10
-5.0547415609
 20
8.2204773087
 11
-4.6459793758
 21
8.6292394939
  0
LINE
  5
4D7
100
AcDbEntity
  8
SCRITTE
100
AcDbLine
 62
7
  6
CONTINUOUS
 10
-4.498271723
 20
8.7769471466
 11
-3.6000351972
 21
9.6751836724
  0
LINE
  5
4D8
100
AcDbEntity
  8
SCRITTE
100
AcDbLine
 62
7
  6
CONTINUOUS
 10
-2.8832888696
 20
10.39193
 11
-2.451066865
 21
10.8241520046
  0
LINE
  5
4D9
100
AcDbEntity
  8
SCRITTE
100
AcDbLine
 62
7
  6
CONTINUOUS
 10
-4.9004976988
 20
8.1647104568
 11
-4.4897522925
 21
8.5754558631
  0
LINE
  5
4DA
100
AcDbEntity
  8
SCRITTE
100
AcDbLine
 62
7
  6
CONTINUOUS
 10
-4.1887886731
 20
8.8764194825
 11
-3.2780814266
 21
9.787126729
  0
LINE
  5
4DB
100
AcDbEntity
  8
SCRITTE
100
AcDbLine
 62
7
  6
CONTINUOUS
 10
-2.6732781556
 20
10.39193
 11
-2.451066865
 21
10.6141412906
  0
LINE
  5
4DC
100
AcDbEntity
  8
SCRITTE
100
AcDbLine
 62
250
  6
CONTINUOUS
 10
-0.6925127274
 20
12.40625
 11
-0.5341793186
 21
12.525
  0
LINE
  5
4DD
100
AcDbEntity
  8
SCRITTE
100
AcDbLine
 62
250
  6
CONTINUOUS
 10
-2.451066865
 20
10.074679
 11
-5.350625181
 21
9.066505
  0
LWPOLYLINE
  5
4DE
100
AcDbEntity
  8
0
100
AcDbPolyline
 62
250
  6
CONTINUOUS
 90
17
 70
0
 10
11.0491529772
 20
-10.245932
 10
11.1478736697
 20
-10.236250877
 10
11.2428341217
 20
-10.2075762589
 10
11.3304173191
 20
-10.1610003531
 10
11.4085439432
 20
-10.0970447114
 10
11.4715054692
 20
-10.0203824191
 10
11.5183797201
 20
-9.9329489943
 10
11.54738127
 20
-9.8380747488
 10
11.5574085556
 20
-9.737599
 10
11.547728907
 20
-9.6388632695
 10
11.5190586562
 20
-9.5438883524
 10
11.4724898441
 20
-9.4562918136
 10
11.4085439432
 20
-9.3781532886
 10
11.331893327
 20
-9.3151821718
 10
11.2444732187
 20
-9.2683007807
 10
11.149613423
 20
-9.239294813
 10
11.0491529327
 20
-9.229266
  0
LINE
  5
4DF
100
AcDbEntity
  8
SCRITTE
100
AcDbLine
 62
250
  6
CONTINUOUS
 10
-5.3506831721
 20
-11.942175
 11
-2.4509938761
 21
-11.942175
  0
LINE
  5
4E0
100
AcDbEntity
  8
SCRITTE
100
AcDbLine
 62
250
  6
CONTINUOUS
 10
-2.4509938761
 20
-11.362154
 11
-4.363144602
 21
-11.362154
  0
LINE
  5
4E1
100
AcDbEntity
  8
SCRITTE
100
AcDbLine
 62
250
  6
CONTINUOUS
 10
-5.3506831721
 20
-9.982203
 11
-3.4623018256
 21
-10.523771
  0
LINE
  5
4E2
100
AcDbEntity
  8
SCRITTE
100
AcDbLine
 62
250
  6
CONTINUOUS
 10
-2.4510018749
 20
-10.233771
 11
-4.363144602
 21
-9.685395
  0
LINE
  5
4E3
100
AcDbEntity
  8
C_COPERCHIO
100
AcDbLine
 62
250
  6
CONTINUOUS
 10
-1.3072089442
 20
-23.4913542519
 11
-1.3276505871
 21
-23.4440939707
  0
LINE
  5
4E4
100
AcDbEntity
  8
C_COPERCHIO
100
AcDbLine
 62
250
  6
CONTINUOUS
 10
-1.2883839005
 20
-23.5354222037
 11
-1.3072089442
 21
-23.4913542519
  0
LINE
  5
4E5
100
AcDbEntity
  8
C_COPERCHIO
100
AcDbLine
 62
7
  6
CONTINUOUS
 10
-8.9524156038
 20
21.9986052537
 11
-8.950840704
 21
21.8997714267
  0
LINE
  5
4E6
100
AcDbEntity
  8
C_COPERCHIO
100
AcDbLine
 62
250
  6
CONTINUOUS
 10
-8.1964829214
 20
-24.2368706193
 11
-8.1955028371
 21
-24.3015532718
  0
LINE
  5
4E7
100
AcDbEntity
  8
C_COPERCHIO
100
AcDbLine
 62
7
  6
CONTINUOUS
 10
-8.9535367418
 20
22.0936997659
 11
-8.9524156038
 21
21.9986052537
  0
LINE
  5
4E8
100
AcDbEntity
  8
C_COPERCHIO
100
AcDbLine
 62
250
  6
CONTINUOUS
 10
-8.1955028371
 20
-24.3015532718
 11
-8.1948867418
 21
-24.3618296081
  0
LWPOLYLINE
  5
4E9
100
AcDbEntity
  8
C_COPERCHIO
100
AcDbPolyline
 62
250
  6
CONTINUOUS
 90
7
 70
0
 10
-8.1946766472
 20
24.4142459709
 10
-8.1947331811
 20
24.4358584739
 10
-8.1948958065
 20
24.4540177327
 10
-8.1951596401
 20
24.4683271787
 10
-8.1955173103
 20
24.4785988997
 10
-8.1959614273
 20
24.4847744987
 10
-8.1964829214
 20
24.4868325431
  0
LWPOLYLINE
  5
4EA
100
AcDbEntity
  8
C_COPERCHIO
100
AcDbPolyline
 62
250
  6
CONTINUOUS
 90
8
 70
0
 10
-8.1948867418
 20
-24.3618296081
 10
-8.194676605
 20
-24.413593479
 10
-8.1947293648
 20
-24.4351517162
 10
-8.1948867418
 20
-24.4533186225
 10
-8.1951460442
 20
-24.4677834776
 10
-8.1955028371
 20
-24.4782988795
 10
-8.195951018
 20
-24.4846849765
 10
-8.1964829214
 20
-24.4868325431
  0
LINE
  5
4EB
100
AcDbEntity
  8
C_COPERCHIO
100
AcDbLine
 62
250
  6
CONTINUOUS
 10
-8.1964829214
 20
-24.2368706193
 11
-8.1964829214
 21
-23.5581814706
  0
LINE
  5
4EC
100
AcDbEntity
  8
C_COPERCHIO
100
AcDbLine
 62
250
  6
CONTINUOUS
 10
-8.1964829214
 20
23.5581814706
 11
-8.1964829214
 21
24.2368706193
  0
LINE
  5
4ED
100
AcDbEntity
  8
C_CORPO
100
AcDbLine
 62
7
  6
CONTINUOUS
 10
-7.950846023
 20
17.6716990487
 11
-7.950846023
 21
-17.6716990487
  0
LINE
  5
4EE
100
AcDbEntity
  8
ASSI
100
AcDbLine
 62
7
  6
CONTINUOUS
 10
-7.950846023
 20
17.6716990487
 11
-7.950846023
 21
-17.6716990487
  0
LINE
  5
4EF
100
AcDbEntity
  8
C_COPERCHIO
100
AcDbLine
 62
7
  6
CONTINUOUS
 10
-7.950846023
 20
-24.2368706193
 11
-7.950846023
 21
-23.8443375673
  0
LINE
  5
4F0
100
AcDbEntity
  8
C_COPERCHIO
100
AcDbLine
 62
7
  6
CONTINUOUS
 10
-7.950846023
 20
22.3825449351
 11
-7.950846023
 21
-22.3825449351
  0
LINE
  5
4F1
100
AcDbEntity
  8
C_COPERCHIO
100
AcDbLine
 62
7
  6
CONTINUOUS
 10
-7.950846023
 20
23.8443375673
 11
-7.950846023
 21
24.2368706193
  0
LINE
  5
4F2
100
AcDbEntity
  8
C_COPERCHIO
100
AcDbLine
 62
250
  6
CONTINUOUS
 10
-8.1948830295
 20
24.3623348706
 11
-8.1946766472
 21
24.4142459709
  0
LINE
  5
4F3
100
AcDbEntity
  8
C_COPERCHIO
100
AcDbLine
 62
250
  6
CONTINUOUS
 10
-8.1954994734
 20
24.301816816
 11
-8.1948830295
 21
24.3623348706
  0
LINE
  5
4F4
100
AcDbEntity
  8
C_COPERCHIO
100
AcDbLine
 62
7
  6
CONTINUOUS
 10
-8.9524156038
 20
-21.9986052537
 11
-8.9535367418
 21
-22.0936997659
  0
LINE
  5
4F5
100
AcDbEntity
  8
C_COPERCHIO
100
AcDbLine
 62
250
  6
CONTINUOUS
 10
-8.1964829214
 20
24.2368706193
 11
-8.1954994734
 21
24.301816816
  0
LINE
  5
4F6
100
AcDbEntity
  8
C_COPERCHIO
100
AcDbLine
 62
7
  6
CONTINUOUS
 10
-8.950840704
 20
-21.8997714267
 11
-8.9524156038
 21
-21.9986052537
  0
LINE
  5
4F7
100
AcDbEntity
  8
SCRITTE
100
AcDbLine
 62
250
  6
CONTINUOUS
 10
0.8908206389
 20
15.49375
 11
1.049153977
 21
15.73125
  0
LINE
  5
4F8
100
AcDbEntity
  8
SCRITTE
100
AcDbLine
 62
250
  6
CONTINUOUS
 10
-0.850846023
 20
12.16875
 11
-0.6925127274
 21
12.40625
  0
LINE
  5
4F9
100
AcDbEntity
  8
SCRITTE
100
AcDbLine
 62
7
  6
CONTINUOUS
 10
-4.7462538367
 20
8.1089436049
 11
-4.3335252093
 21
8.5216722324
  0
LINE
  5
4FA
100
AcDbEntity
  8
SCRITTE
100
AcDbLine
 62
7
  6
CONTINUOUS
 10
-3.8793056232
 20
8.9758918184
 11
-2.956127656
 21
9.8990697856
  0
LINE
  5
4FB
100
AcDbEntity
  8
SCRITTE
100
AcDbLine
 62
7
  6
CONTINUOUS
 10
-2.4632674416
 20
10.39193
 11
-2.451066865
 21
10.4041305766
  0
LINE
  5
4FC
100
AcDbEntity
  8
SCRITTE
100
AcDbLine
 62
7
  6
CONTINUOUS
 10
-4.5920099746
 20
8.053176753
 11
-4.177298126
 21
8.4678886016
  0
LINE
  5
4FD
100
AcDbEntity
  8
SCRITTE
100
AcDbLine
 62
7
  6
CONTINUOUS
 10
-3.5698225733
 20
9.0753641543
 11
-2.6341738853
 21
10.0110128423
  0
LINE
  5
4FE
100
AcDbEntity
  8
SCRITTE
100
AcDbLine
 62
7
  6
CONTINUOUS
 10
-4.4377661125
 20
7.9974099011
 11
-4.0210710427
 21
8.4141049708
  0
LINE
  5
4FF
100
AcDbEntity
  8
SCRITTE
100
AcDbLine
 62
7
  6
CONTINUOUS
 10
-3.5474718518
 20
8.8877041618
 11
-2.451066865
 21
9.9841091486
  0
LINE
  5
500
100
AcDbEntity
  8
SCRITTE
100
AcDbLine
 62
7
  6
CONTINUOUS
 10
-4.2835222504
 20
7.9416430492
 11
-3.8648439595
 21
8.3603213401
  0
LINE
  5
501
100
AcDbEntity
  8
SCRITTE
100
AcDbLine
 62
7
  6
CONTINUOUS
 10
-3.5474718518
 20
8.6776934478
 11
-3.0656122525
 21
9.159553047
  0
LINE
  5
502
100
AcDbEntity
  8
SCRITTE
100
AcDbLine
 62
7
  6
CONTINUOUS
 10
-2.9450236069
 20
9.2801416927
 11
-2.451066865
 21
9.7740984345
  0
LINE
  5
503
100
AcDbEntity
  8
SCRITTE
100
AcDbLine
 62
7
  6
CONTINUOUS
 10
-4.1292783883
 20
7.8858761973
 11
-3.7086168762
 21
8.3065377093
  0
LINE
  5
504
100
AcDbEntity
  8
SCRITTE
100
AcDbLine
 62
7
  6
CONTINUOUS
 10
-3.5474718518
 20
8.4676827338
 11
-3.0656122525
 21
8.949542333
  0
LINE
  5
505
100
AcDbEntity
  8
SCRITTE
100
AcDbLine
 62
7
  6
CONTINUOUS
 10
-2.6268753105
 20
9.388279275
 11
-2.451066865
 21
9.5640877205
  0
LINE
  5
506
100
AcDbEntity
  8
SCRITTE
100
AcDbLine
 62
7
  6
CONTINUOUS
 10
-3.9750345261
 20
7.8301093454
 11
-3.5523897929
 21
8.2527540786
  0
LINE
  5
507
100
AcDbEntity
  8
SCRITTE
100
AcDbLine
 62
7
  6
CONTINUOUS
 10
-3.5474718518
 20
8.2576720197
 11
-3.0656122525
 21
8.739531619
  0
LINE
  5
508
100
AcDbEntity
  8
SCRITTE
100
AcDbLine
 62
7
  6
CONTINUOUS
 10
-3.820790664
 20
7.7743424935
 11
-3.0656122525
 21
8.529520905
  0
LINE
  5
509
100
AcDbEntity
  8
SCRITTE
100
AcDbLine
 62
7
  6
CONTINUOUS
 10
-3.6665468019
 20
7.7185756416
 11
-3.0656122525
 21
8.319510191
  0
LINE
  5
50A
100
AcDbEntity
  8
SCRITTE
100
AcDbLine
 62
7
  6
CONTINUOUS
 10
-5.350625181
 20
5.8244865485
 11
-5.2817677295
 21
5.893344
  0
LINE
  5
50B
100
AcDbEntity
  8
SCRITTE
100
AcDbLine
 62
7
  6
CONTINUOUS
 10
-3.5123029398
 20
7.6628087897
 11
-3.0656122525
 21
8.109499477
  0
LINE
  5
50C
100
AcDbEntity
  8
SCRITTE
100
AcDbLine
 62
7
  6
CONTINUOUS
 10
-5.350625181
 20
5.6144758345
 11
-5.0717570155
 21
5.893344
  0
LINE
  5
50D
100
AcDbEntity
  8
SCRITTE
100
AcDbLine
 62
7
  6
CONTINUOUS
 10
-3.3580590777
 20
7.6070419378
 11
-2.9244828315
 21
8.040618184
  0
LINE
  5
50E
100
AcDbEntity
  8
SCRITTE
100
AcDbLine
 62
7
  6
CONTINUOUS
 10
-5.350625181
 20
5.4044651205
 11
-4.8617463015
 21
5.893344
  0
LINE
  5
50F
100
AcDbEntity
  8
SCRITTE
100
AcDbLine
 62
7
  6
CONTINUOUS
 10
-3.2038152156
 20
7.5512750859
 11
-2.7692481164
 21
7.985842185
  0
LINE
  5
510
100
AcDbEntity
  8
SCRITTE
100
AcDbLine
 62
7
  6
CONTINUOUS
 10
-5.2743415875
 20
5.270738
 11
-4.6517355875
 21
5.893344
  0
LINE
  5
511
100
AcDbEntity
  8
SCRITTE
100
AcDbLine
 62
7
  6
CONTINUOUS
 10
-3.0495713535
 20
7.495508234
 11
-2.6140134014
 21
7.9310661861
  0
LINE
  5
512
100
AcDbEntity
  8
SCRITTE
100
AcDbLine
 62
7
  6
CONTINUOUS
 10
-5.0643308735
 20
5.270738
 11
-4.4417248735
 21
5.893344
  0
LINE
  5
513
100
AcDbEntity
  8
SCRITTE
100
AcDbLine
 62
7
  6
CONTINUOUS
 10
-2.8953274914
 20
7.4397413821
 11
-2.4587786863
 21
7.8762901872
  0
LINE
  5
514
100
AcDbEntity
  8
SCRITTE
100
AcDbLine
 62
7
  6
CONTINUOUS
 10
-4.8543201594
 20
5.270738
 11
-4.2317141594
 21
5.893344
  0
LINE
  5
515
100
AcDbEntity
  8
SCRITTE
100
AcDbLine
 62
7
  6
CONTINUOUS
 10
-2.7410836293
 20
7.3839745302
 11
-2.451066865
 21
7.6739912944
  0
LINE
  5
516
100
AcDbEntity
  8
SCRITTE
100
AcDbLine
 62
250
  6
CONTINUOUS
 10
-3.0656122525
 20
9.239154
 11
-2.451066865
 21
9.448036
  0
LINE
  5
517
100
AcDbEntity
  8
SCRITTE
100
AcDbLine
 62
250
  6
CONTINUOUS
 10
-4.7965505821
 20
8.681076
 11
-3.5474718518
 21
9.082548
  0
LWPOLYLINE
  5
518
100
AcDbEntity
  8
0
100
AcDbPolyline
 62
250
  6
CONTINUOUS
 90
17
 70
0
 10
11.0491529772
 20
-9.229266
 10
10.9504322846
 20
-9.238947123
 10
10.8554718326
 20
-9.2676217411
 10
10.7678886352
 20
-9.3141976469
 10
10.6897620111
 20
-9.3781532886
 10
10.6268004851
 20
-9.4548155809
 10
10.5799262342
 20
-9.5422490057
 10
10.5509246843
 20
-9.6371232512
 10
10.5408973987
 20
-9.737599
 10
10.5505770473
 20
-9.8363347305
 10
10.5792472981
 20
-9.9313096476
 10
10.6258161102
 20
-10.0189061864
 10
10.6897620111
 20
-10.0970447114
 10
10.7664126273
 20
-10.1600158282
 10
10.8538327356
 20
-10.2068972193
 10
10.9486925313
 20
-10.235903187
 10
11.0491530216
 20
-10.245932
  0
LINE
  5
519
100
AcDbEntity
  8
0
100
AcDbLine
 62
250
  6
CONTINUOUS
 10
14.0986894472
 20
-9.737598426
 11
13.0821772593
 21
-9.737598426
  0
LINE
  5
51A
100
AcDbEntity
  8
0
100
AcDbLine
 62
250
  6
CONTINUOUS
 10
9.0161296019
 20
-9.737598426
 11
7.9996185083
 21
-9.737598426
  0
LINE
  5
51B
100
AcDbEntity
  8
SCRITTE
100
AcDbLine
 62
250
  6
CONTINUOUS
 10
-4.363144602
 20
-9.685395
 11
-2.4509938761
 21
-9.685388
  0
LINE
  5
51C
100
AcDbEntity
  8
SCRITTE
100
AcDbLine
 62
250
  6
CONTINUOUS
 10
-2.4509938761
 20
-9.105366
 11
-5.3506831721
 21
-9.105366
  0
LINE
  5
51D
100
AcDbEntity
  8
SCRITTE
100
AcDbLine
 62
250
  6
CONTINUOUS
 10
-2.4509938761
 20
-8.718687
 11
-5.3506901711
 21
-7.787563
  0
LINE
  5
51E
100
AcDbEntity
  8
SCRITTE
100
AcDbLine
 62
250
  6
CONTINUOUS
 10
-4.4475867391
 20
-7.497541
 11
-3.5721810879
 21
-7.778631
  0
LINE
  5
51F
100
AcDbEntity
  8
SCRITTE
100
AcDbLine
 62
250
  6
CONTINUOUS
 10
-3.0212430112
 20
-7.955552
 11
-2.4510018749
 21
-8.138666
  0
LWPOLYLINE
  5
520
100
AcDbEntity
  8
C_CORPO
100
AcDbPolyline
 62
250
  6
CONTINUOUS
 90
10
 70
0
 10
2.9404277738
 20
-16.241424784
 10
2.9402137986
 20
-16.2411222027
 10
2.9400058937
 20
-16.2402051644
 10
2.9398037515
 20
-16.2386713791
 10
2.9396066077
 20
-16.2365183676
 10
2.93941462
 20
-16.2337448883
 10
2.9392288957
 20
-16.2303523864
 10
2.9390492512
 20
-16.2263414348
 10
2.938875353
 20
-16.2217129769
 10
2.9387081461
 20
-16.216472172
  0
LWPOLYLINE
  5
521
100
AcDbEntity
  8
ASSI
100
AcDbPolyline
 62
250
  6
CONTINUOUS
 90
10
 70
0
 10
2.9404277738
 20
-16.241424784
 10
2.9402137986
 20
-16.2411222027
 10
2.9400058937
 20
-16.2402051644
 10
2.9398037515
 20
-16.2386713791
 10
2.9396066077
 20
-16.2365183676
 10
2.93941462
 20
-16.2337448883
 10
2.9392288957
 20
-16.2303523864
 10
2.9390492512
 20
-16.2263414348
 10
2.938875353
 20
-16.2217129769
 10
2.9387081461
 20
-16.216472172
  0
LINE
  5
522
100
AcDbEntity
  8
SCRITTE
100
AcDbLine
 62
250
  6
CONTINUOUS
 10
-5.3506901711
 20
-7.787563
 11
-5.3506901711
 21
-7.207512
  0
LINE
  5
523
100
AcDbEntity
  8
SCRITTE
100
AcDbLine
 62
250
  6
CONTINUOUS
 10
-5.3506901711
 20
-5.889694
 11
-5.3506901711
 21
-4.531479
  0
LINE
  5
524
100
AcDbEntity
  8
SCRITTE
100
AcDbLine
 62
250
  6
CONTINUOUS
 10
-5.3506831721
 20
-9.105366
 11
-5.3506831721
 21
-9.982203
  0
LINE
  5
525
100
AcDbEntity
  8
SCRITTE
100
AcDbLine
 62
250
  6
CONTINUOUS
 10
-5.3506831721
 20
-11.065339
 11
-5.3506831721
 21
-11.942175
  0
LINE
  5
526
100
AcDbEntity
  8
SCRITTE
100
AcDbLine
 62
250
  6
CONTINUOUS
 10
-5.3506831721
 20
-12.522175
 11
-5.3506831721
 21
-13.102197
  0
LINE
  5
527
100
AcDbEntity
  8
SCRITTE
100
AcDbLine
 62
250
  6
CONTINUOUS
 10
-5.3506831721
 20
-13.488876
 11
-5.3506831721
 21
-14.068905
  0
LINE
  5
528
100
AcDbEntity
  8
SCRITTE
100
AcDbLine
 62
250
  6
CONTINUOUS
 10
-5.3506831721
 20
-15.351162
 11
-5.3506831721
 21
-15.931191
  0
LINE
  5
529
100
AcDbEntity
  8
SCRITTE
100
AcDbLine
 62
250
  6
CONTINUOUS
 10
-5.350625181
 20
15.09154
 11
-5.350625181
 21
14.352489
  0
LINE
  5
52A
100
AcDbEntity
  8
SCRITTE
100
AcDbLine
 62
250
  6
CONTINUOUS
 10
-5.350625181
 20
9.066505
 11
-5.350625181
 21
8.327454
  0
LINE
  5
52B
100
AcDbEntity
  8
SCRITTE
100
AcDbLine
 62
250
  6
CONTINUOUS
 10
-5.350625181
 20
3.687825
 11
-5.350625181
 21
2.800395
  0
LINE
  5
52C
100
AcDbEntity
  8
SCRITTE
100
AcDbLine
 62
250
  6
CONTINUOUS
 10
-5.350625181
 20
5.270738
 11
-5.350625181
 21
5.893344
  0
LINE
  5
52D
100
AcDbEntity
  8
SCRITTE
100
AcDbLine
 62
250
  6
CONTINUOUS
 10
-5.350625181
 20
10.39193
 11
-5.350625181
 21
11.315744
  0
LINE
  5
52E
100
AcDbEntity
  8
SCRITTE
100
AcDbLine
 62
250
  6
CONTINUOUS
 10
-5.350625181
 20
12.428359
 11
-5.350625181
 21
13.010803
  0
LINE
  5
52F
100
AcDbEntity
  8
SCRITTE
100
AcDbLine
 62
250
  6
CONTINUOUS
 10
-4.8687665816
 20
3.423001
 11
-4.8687665816
 21
3.786217
  0
LINE
  5
530
100
AcDbEntity
  8
SCRITTE
100
AcDbLine
 62
250
  6
CONTINUOUS
 10
-4.8142508858
 20
-4.611983
 11
-4.8142508858
 21
-5.317669
  0
LWPOLYLINE
  5
531
100
AcDbEntity
  8
SCRITTE
100
AcDbPolyline
 62
250
  6
CONTINUOUS
 90
54
 70
0
 10
-4.865638791
 20
3.8131408049
 10
-4.8599835906
 20
3.8671076451
 10
-4.858467952
 20
3.8805853544
 10
-4.8568338493
 20
3.8940441351
 10
-4.8550424183
 20
3.907477323
 10
-4.8530547946
 20
3.9208782539
 10
-4.8508321139
 20
3.9342402636
 10
-4.8483355118
 20
3.9475566879
 10
-4.845526124
 20
3.9608208627
 10
-4.8423650861
 20
3.9740261237
 10
-4.838813534
 20
3.9871658069
 10
-4.8358452579
 20
3.9970529016
 10
-4.8326202212
 20
4.0068767287
 10
-4.8291272804
 20
4.0166153452
 10
-4.8253552925
 20
4.026246808
 10
-4.8212931141
 20
4.0357491742
 10
-4.8169296022
 20
4.0451005008
 10
-4.8122536134
 20
4.0542788447
 10
-4.8072540046
 20
4.0632622631
 10
-4.8019196325
 20
4.0720288129
 10
-4.7962393539
 20
4.080556551
 10
-4.7902020256
 20
4.0888235346
 10
-4.7842228881
 20
4.0963082757
 10
-4.7779390366
 20
4.1035477867
 10
-4.7713682561
 20
4.1105444513
 10
-4.7645283313
 20
4.1173006532
 10
-4.7574370474
 20
4.1238187761
 10
-4.750112189
 20
4.1301012037
 10
-4.7425715412
 20
4.1361503196
 10
-4.7348328889
 20
4.1419685077
 10
-4.7269140168
 20
4.1475581516
 10
-4.7188327101
 20
4.1529216349
 10
-4.7106067534
 20
4.1580613415
 10
-4.7022539318
 20
4.1629796549
 10
-4.6913580976
 20
4.1689780071
 10
-4.6802931452
 20
4.1746157773
 10
-4.6690700833
 20
4.1798940396
 10
-4.6576999206
 20
4.1848138683
 10
-4.646193666
 20
4.1893763378
 10
-4.634562328
 20
4.1935825222
 10
-4.6228169155
 20
4.1974334958
 10
-4.6109684371
 20
4.2009303329
 10
-4.5990279017
 20
4.2040741077
 10
-4.5870063178
 20
4.2068658945
 10
-4.5749146944
 20
4.2093067676
 10
-4.5621855911
 20
4.2114925993
 10
-4.5494010601
 20
4.2133212959
 10
-4.5365704402
 20
4.2148195531
 10
-4.5237030704
 20
4.2160140668
 10
-4.5108082895
 20
4.2169315329
 10
-4.4978954363
 20
4.217598647
 10
-4.4849738496
 20
4.2180421052
 10
-4.4720528684
 20
4.2182886031
 10
-4.4591418315
 20
4.2183648367
  0
LWPOLYLINE
  5
532
100
AcDbEntity
  8
SCRITTE
100
AcDbPolyline
 62
250
  6
CONTINUOUS
 90
3
 70
0
 10
-4.8687660796
 20
3.7862170818
 10
-4.8671450743
 20
3.7996684151
 10
-4.865638791
 20
3.8131408049
  0
LWPOLYLINE
  5
533
100
AcDbEntity
  8
C_COPERCHIO
100
AcDbPolyline
 62
250
  6
CONTINUOUS
 90
6
 70
0
 10
-1.2513481194
 20
23.6274588868
 10
-1.2516462846
 20
23.6257373336
 10
-1.253292073
 20
23.6209354669
 10
-1.2562575977
 20
23.6131347141
 10
-1.2604925997
 20
23.6024673539
 10
-1.2659252992
 20
23.5891142718
  0
LWPOLYLINE
  5
534
100
AcDbEntity
  8
0
100
AcDbPolyline
 62
7
  6
CONTINUOUS
 90
3
 70
0
 43
0.3500000006
 10
6.2848683414
 20
33.9922107239
 10
6.2134394245
 20
33.7779217072
 10
6.0705827236
 20
33.4922105713
  0
LWPOLYLINE
  5
535
100
AcDbEntity
  8
0
100
AcDbPolyline
 62
250
  6
CONTINUOUS
 90
36
 70
0
 10
3.7052327441
 20
12.603542891
 10
3.6920909041
 20
12.5901079138
 10
3.6793505067
 20
12.5762969087
 10
3.6670058545
 20
12.562124287
 10
3.6550512504
 20
12.5476044602
 10
3.6434809972
 20
12.5327518397
 10
3.6322893976
 20
12.517580837
 10
3.6214707546
 20
12.5021058634
 10
3.6110193709
 20
12.4863413305
 10
3.6009295492
 20
12.4703016496
 10
3.5911955925
 20
12.4540012322
 10
3.5818118035
 20
12.4374544897
 10
3.572772485
 20
12.4206758336
 10
3.5640719398
 20
12.4036796753
 10
3.5557044707
 20
12.3864804262
 10
3.5476643806
 20
12.3690924979
 10
3.5399459723
 20
12.3515303016
 10
3.5325435485
 20
12.3338082489
 10
3.525451412
 20
12.3159407511
 10
3.5186638657
 20
12.2979422198
 10
3.5121752123
 20
12.2798270664
 10
3.5059797548
 20
12.2616097022
 10
3.5000717958
 20
12.2433045388
 10
3.4944456381
 20
12.2249259875
 10
3.4890955847
 20
12.2064884599
 10
3.4840159382
 20
12.1880063672
 10
3.4792010016
 20
12.1694941211
 10
3.4746450775
 20
12.1509661329
 10
3.4703424689
 20
12.132436814
 10
3.4644980851
 20
12.1054102254
 10
3.4591194123
 20
12.0784004564
 10
3.454144654
 20
12.0513964603
 10
3.4495120136
 20
12.0243871904
 10
3.4451596947
 20
11.9973615999
 10
3.4410259007
 20
11.9703086422
 10
3.4331667012
 20
11.9160764381
  0
LINE
  5
536
100
AcDbEntity
  8
SCRITTE
100
AcDbLine
 62
7
  6
CONTINUOUS
 10
-4.6443094454
 20
5.270738
 11
-4.0217034454
 21
5.893344
  0
LINE
  5
537
100
AcDbEntity
  8
SCRITTE
100
AcDbLine
 62
7
  6
CONTINUOUS
 10
-2.5868397671
 20
7.3282076783
 11
-2.451066865
 21
7.4639805804
  0
LINE
  5
538
100
AcDbEntity
  8
SCRITTE
100
AcDbLine
 62
7
  6
CONTINUOUS
 10
-5.1830961188
 20
4.5219406126
 11
-4.9338340119
 21
4.7712027195
  0
LINE
  5
539
100
AcDbEntity
  8
SCRITTE
100
AcDbLine
 62
7
  6
CONTINUOUS
 10
-4.4342987314
 20
5.270738
 11
-3.8116927314
 21
5.893344
  0
LINE
  5
53A
100
AcDbEntity
  8
SCRITTE
100
AcDbLine
 62
7
  6
CONTINUOUS
 10
-2.9329254644
 20
6.772111267
 11
-2.7386937314
 21
6.966343
  0
LINE
  5
53B
100
AcDbEntity
  8
SCRITTE
100
AcDbLine
 62
7
  6
CONTINUOUS
 10
-5.3059118919
 20
4.1891141255
 11
-4.6242554454
 21
4.870770572
  0
LINE
  5
53C
100
AcDbEntity
  8
SCRITTE
100
AcDbLine
 62
7
  6
CONTINUOUS
 10
-4.2242880174
 20
5.270738
 11
-3.6016820174
 21
5.893344
  0
LINE
  5
53D
100
AcDbEntity
  8
SCRITTE
100
AcDbLine
 62
7
  6
CONTINUOUS
 10
-2.9329254644
 20
6.562100553
 11
-2.5286830174
 21
6.966343
  0
LINE
  5
53E
100
AcDbEntity
  8
SCRITTE
100
AcDbLine
 62
7
  6
CONTINUOUS
 10
-5.3389238598
 20
3.9460914436
 11
-4.4055128537
 21
4.8795024497
  0
LINE
  5
53F
100
AcDbEntity
  8
SCRITTE
100
AcDbLine
 62
7
  6
CONTINUOUS
 10
-4.0142773034
 20
5.270738
 11
-3.3916713034
 21
5.893344
  0
LINE
  5
540
100
AcDbEntity
  8
SCRITTE
100
AcDbLine
 62
7
  6
CONTINUOUS
 10
-2.9329254644
 20
6.3520898389
 11
-2.451066865
 21
6.8339484384
  0
LINE
  5
541
100
AcDbEntity
  8
SCRITTE
100
AcDbLine
 62
7
  6
CONTINUOUS
 10
-5.3493409247
 20
3.7256636647
 11
-4.2170468665
 21
4.8579577229
  0
LINE
  5
542
100
AcDbEntity
  8
SCRITTE
100
AcDbLine
 62
7
  6
CONTINUOUS
 10
-3.8042665894
 20
5.270738
 11
-3.1816605894
 21
5.893344
  0
LINE
  5
543
100
AcDbEntity
  8
SCRITTE
100
AcDbLine
 62
7
  6
CONTINUOUS
 10
-2.9329254644
 20
6.1420791249
 11
-2.451066865
 21
6.6239377244
  0
LINE
  5
544
100
AcDbEntity
  8
SCRITTE
100
AcDbLine
 62
7
  6
CONTINUOUS
 10
-5.350625181
 20
3.5143686944
 11
-4.813127828
 21
4.0518660473
  0
LINE
  5
545
100
AcDbEntity
  8
SCRITTE
100
AcDbLine
 62
7
  6
CONTINUOUS
 10
-4.7017599809
 20
4.1632338945
 11
-4.0573058855
 21
4.8076879899
  0
LINE
  5
546
100
AcDbEntity
  8
SCRITTE
100
AcDbLine
 62
7
  6
CONTINUOUS
 10
-3.5942558754
 20
5.270738
 11
-2.9716498754
 21
5.893344
  0
LINE
  5
547
100
AcDbEntity
  8
SCRITTE
100
AcDbLine
 62
7
  6
CONTINUOUS
 10
-2.9329254644
 20
5.9320684109
 11
-2.451066865
 21
6.4139270103
  0
LINE
  5
548
100
AcDbEntity
  8
SCRITTE
100
AcDbLine
 62
7
  6
CONTINUOUS
 10
-5.350625181
 20
3.3043579804
 11
-4.8687665816
 21
3.7862165798
  0
LINE
  5
549
100
AcDbEntity
  8
SCRITTE
100
AcDbLine
 62
7
  6
CONTINUOUS
 10
-4.4370549989
 20
4.2179281624
 11
-3.9232676848
 21
4.7317154766
  0
LINE
  5
54A
100
AcDbEntity
  8
SCRITTE
100
AcDbLine
 62
7
  6
CONTINUOUS
 10
-3.3842451614
 20
5.270738
 11
-2.451066865
 21
6.2039162963
  0
LINE
  5
54B
100
AcDbEntity
  8
SCRITTE
100
AcDbLine
 62
7
  6
CONTINUOUS
 10
-5.350625181
 20
3.0943472664
 11
-4.8687665816
 21
3.5762058658
  0
LINE
  5
54C
100
AcDbEntity
  8
SCRITTE
100
AcDbLine
 62
7
  6
CONTINUOUS
 10
-4.2605566107
 20
4.1844158366
 11
-3.8142790202
 21
4.6306934271
  0
LINE
  5
54D
100
AcDbEntity
  8
SCRITTE
100
AcDbLine
 62
7
  6
CONTINUOUS
 10
-3.1742344473
 20
5.270738
 11
-2.451066865
 21
5.9939055823
  0
LINE
  5
54E
100
AcDbEntity
  8
SCRITTE
100
AcDbLine
 62
7
  6
CONTINUOUS
 10
-5.350625181
 20
2.8843365524
 11
-4.8119607333
 21
3.423001
  0
LINE
  5
54F
100
AcDbEntity
  8
SCRITTE
100
AcDbLine
 62
7
  6
CONTINUOUS
 10
-4.1364671816
 20
4.0984945517
 11
-3.727454049
 21
4.5075076844
  0
LINE
  5
550
100
AcDbEntity
  8
SCRITTE
100
AcDbLine
 62
7
  6
CONTINUOUS
 10
-2.9642237333
 20
5.270738
 11
-2.451066865
 21
5.7838948683
  0
LINE
  5
551
100
AcDbEntity
  8
SCRITTE
100
AcDbLine
 62
7
  6
CONTINUOUS
 10
-5.2245560193
 20
2.800395
 11
-4.6019500193
 21
3.423001
  0
LINE
  5
552
100
AcDbEntity
  8
SCRITTE
100
AcDbLine
 62
7
  6
CONTINUOUS
 10
-4.0713912772
 20
3.9535597421
 11
-3.6615350389
 21
4.3634159804
  0
LINE
  5
553
100
AcDbEntity
  8
SCRITTE
100
AcDbLine
 62
7
  6
CONTINUOUS
 10
-2.7542130193
 20
5.270738
 11
-2.451066865
 21
5.5738841543
  0
LINE
  5
554
100
AcDbEntity
  8
SCRITTE
100
AcDbLine
 62
7
  6
CONTINUOUS
 10
-5.0145453053
 20
2.800395
 11
-4.3919393053
 21
3.423001
  0
LINE
  5
555
100
AcDbEntity
  8
SCRITTE
100
AcDbLine
 62
7
  6
CONTINUOUS
 10
-4.0495175716
 20
3.7654227337
 11
-3.6147161227
 21
4.2002241826
  0
LINE
  5
556
100
AcDbEntity
  8
SCRITTE
100
AcDbLine
 62
7
  6
CONTINUOUS
 10
-2.5442023053
 20
5.270738
 11
-2.451066865
 21
5.3638734403
  0
LINE
  5
557
100
AcDbEntity
  8
SCRITTE
100
AcDbLine
 62
7
  6
CONTINUOUS
 10
-4.8045345913
 20
2.800395
 11
-4.1819285913
 21
3.423001
  0
LINE
  5
558
100
AcDbEntity
  8
SCRITTE
100
AcDbLine
 62
7
  6
CONTINUOUS
 10
-4.0495174517
 20
3.5554121395
 11
-3.5855910559
 21
4.0193385354
  0
LINE
  5
559
100
AcDbEntity
  8
SCRITTE
100
AcDbLine
 62
7
  6
CONTINUOUS
 10
-4.5945238773
 20
2.800395
 11
-3.5724936548
 21
3.8224252224
  0
LINE
  5
55A
100
AcDbEntity
  8
SCRITTE
100
AcDbLine
 62
7
  6
CONTINUOUS
 10
-4.3845131633
 20
2.800395
 11
-3.567657979
 21
3.6172501842
  0
LINE
  5
55B
100
AcDbEntity
  8
0
100
AcDbLine
 62
250
  6
CONTINUOUS
 10
10.7495499394
 20
13.047866
 11
11.5462721947
 21
13.523604
  0
LINE
  5
55C
100
AcDbEntity
  8
0
100
AcDbLine
 62
250
  6
CONTINUOUS
 10
12.049153977
 20
11.889946
 11
10.7495499394
 21
11.319613
  0
LINE
  5
55D
100
AcDbEntity
  8
0
100
AcDbLine
 62
250
  6
CONTINUOUS
 10
12.8290092474
 20
-12.2144995977
 11
14.0986894472
 21
-12.7875984252
  0
LINE
  5
55E
100
AcDbEntity
  8
0
100
AcDbLine
 62
250
  6
CONTINUOUS
 10
10.4219646106
 20
-11.1280252765
 11
11.6476686917
 21
-11.6812747013
  0
LWPOLYLINE
  5
55F
100
AcDbEntity
  8
SCRITTE
100
AcDbPolyline
 62
250
  6
CONTINUOUS
 90
14
 70
0
 10
-3.641924464
 20
-4.186214
 10
-3.7316064897
 20
-4.0233465462
 10
-3.8531856383
 20
-3.8826869189
 10
-4.0040074381
 20
-3.7687809996
 10
-4.1725530646
 20
-3.6903282092
 10
-4.3568062107
 20
-3.6482670764
 10
-4.5426947748
 20
-3.6458099671
 10
-4.727994977
 20
-3.6829862757
 10
-4.8985547481
 20
-3.7569567084
 10
-5.0523336858
 20
-3.866836359
 10
-5.177587118
 20
-4.0042333077
 10
-5.2715413811
 20
-4.1646734232
 10
-5.3307492202
 20
-4.3441784874
 10
-5.3506920579
 20
-4.5314800898
  0
LWPOLYLINE
  5
560
100
AcDbEntity
  8
C_COPERCHIO
100
AcDbPolyline
 62
250
  6
CONTINUOUS
 90
8
 70
0
 10
-1.2513372047
 20
-23.6274840058
 10
-1.2516325226
 20
-23.6257629727
 10
-1.2532762357
 20
-23.6209609898
 10
-1.2562404679
 20
-23.6131594949
 10
-1.2604749484
 20
-23.6024907955
 10
-1.2659078637
 20
-23.5891358243
 10
-1.2724470754
 20
-23.5733210706
 10
-1.2883839005
 20
-23.5354222037
  0
LINE
  5
561
100
AcDbEntity
  8
SCRITTE
100
AcDbLine
 62
250
  6
CONTINUOUS
 10
-4.0583000725
 20
3.8671076451
 11
-4.052644872
 21
3.8131408049
  0
LWPOLYLINE
  5
562
100
AcDbEntity
  8
SCRITTE
100
AcDbPolyline
 62
250
  6
CONTINUOUS
 90
17
 70
0
 10
-4.1086263722
 20
-4.611985
 10
-4.1153456078
 20
-4.5434464957
 10
-4.1352473809
 20
-4.4775186016
 10
-4.1675736393
 20
-4.416712491
 10
-4.2119623969
 20
-4.3624717657
 10
-4.2651702738
 20
-4.3187596652
 10
-4.3258539133
 20
-4.2862164267
 10
-4.3917018945
 20
-4.266081612
 10
-4.4614376292
 20
-4.25912
 10
-4.5299656948
 20
-4.2658402591
 10
-4.5958835476
 20
-4.2857450638
 10
-4.6566803973
 20
-4.3180762464
 10
-4.7109128614
 20
-4.3624717657
 10
-4.7546183043
 20
-4.4156877476
 10
-4.7871565863
 20
-4.476380631
 10
-4.8072883344
 20
-4.5422386426
 10
-4.8142488861
 20
-4.6119850308
  0
LWPOLYLINE
  5
563
100
AcDbEntity
  8
SCRITTE
100
AcDbPolyline
 62
250
  6
CONTINUOUS
 90
52
 70
0
 10
-3.5723840567
 20
3.8247951747
 10
-3.5743291303
 20
3.8704355641
 10
-3.576786692
 20
3.916040991
 10
-3.5799533127
 20
3.9615953774
 10
-3.5840255637
 20
4.0070826456
 10
-3.5879747063
 20
4.0427378718
 10
-3.592633356
 20
4.07831902
 10
-3.5980315219
 20
4.1138033018
 10
-3.6041992132
 20
4.1491679289
 10
-3.6111664391
 20
4.184390113
 10
-3.6189632089
 20
4.2194470655
 10
-3.6276195317
 20
4.2543159982
 10
-3.6371654169
 20
4.2889741227
 10
-3.6455749447
 20
4.3168745994
 10
-3.6546272739
 20
4.3445805633
 10
-3.6643617694
 20
4.372050791
 10
-3.6748177966
 20
4.3992440591
 10
-3.6860347206
 20
4.4261191442
 10
-3.6980519064
 20
4.4526348231
 10
-3.7109087194
 20
4.4787498724
 10
-3.7246445245
 20
4.5044230686
 10
-3.739298687
 20
4.5296131885
 10
-3.7525695728
 20
4.5507171687
 10
-3.7665318572
 20
4.5713981501
 10
-3.7811779527
 20
4.5916157899
 10
-3.7965002719
 20
4.6113297452
 10
-3.8124912272
 20
4.6304996733
 10
-3.8291432311
 20
4.6490852313
 10
-3.846448696
 20
4.6670460764
 10
-3.8644000346
 20
4.6843418658
 10
-3.8829896591
 20
4.7009322567
 10
-3.9022099823
 20
4.7167769063
 10
-3.9234466721
 20
4.7328595464
 10
-3.9453449726
 20
4.7480485009
 10
-3.9678538849
 20
4.7623490748
 10
-3.9909224101
 20
4.7757665734
 10
-4.0144995493
 20
4.7883063019
 10
-4.0385343037
 20
4.7999735653
 10
-4.0629756743
 20
4.8107736689
 10
-4.0877726622
 20
4.8207119179
 10
-4.1128742685
 20
4.8297936175
 10
-4.1382294944
 20
4.8380240728
 10
-4.1676239745
 20
4.8464466873
 10
-4.1972563156
 20
4.8538092632
 10
-4.2270967637
 20
4.8601690527
 10
-4.2571155643
 20
4.865583308
 10
-4.2872829635
 20
4.8701092815
 10
-4.3214995534
 20
4.8742201023
 10
-4.3558307489
 20
4.8773242353
 10
-4.3902395362
 20
4.8794752049
 10
-4.4246889017
 20
4.8807265353
 10
-4.4591418315
 20
4.8811317512
  0
LINE
  5
564
100
AcDbEntity
  8
SCRITTE
100
AcDbLine
 62
250
  6
CONTINUOUS
 10
-3.5676580525
 20
3.6878250083
 11
-3.5723840567
 21
3.8247951747
  0
LINE
  5
565
100
AcDbEntity
  8
SCRITTE
100
AcDbLine
 62
250
  6
CONTINUOUS
 10
-4.1086283719
 20
-5.317662
 11
-4.1086283719
 21
-4.611983
  0
LINE
  5
566
100
AcDbEntity
  8
SCRITTE
100
AcDbLine
 62
250
  6
CONTINUOUS
 10
-4.0495173762
 20
3.423001
 11
-4.0495173762
 21
3.786217
  0
LINE
  5
567
100
AcDbEntity
  8
SCRITTE
100
AcDbLine
 62
250
  6
CONTINUOUS
 10
-3.5721810879
 20
-7.778631
 11
-3.5721810879
 21
-7.216437
  0
LINE
  5
568
100
AcDbEntity
  8
SCRITTE
100
AcDbLine
 62
250
  6
CONTINUOUS
 10
-3.5721810879
 20
-4.803368
 11
-3.5721880868
 21
-5.3096
  0
LINE
  5
569
100
AcDbEntity
  8
SCRITTE
100
AcDbLine
 62
250
  6
CONTINUOUS
 10
-3.5676577769
 20
3.687825
 11
-3.5676577769
 21
3.423001
  0
LINE
  5
56A
100
AcDbEntity
  8
SCRITTE
100
AcDbLine
 62
250
  6
CONTINUOUS
 10
-3.5474718518
 20
15.107474
 11
-3.5474718518
 21
14.276096
  0
LINE
  5
56B
100
AcDbEntity
  8
SCRITTE
100
AcDbLine
 62
250
  6
CONTINUOUS
 10
-3.5474718518
 20
9.082548
 11
-3.5474718518
 21
8.251061
  0
LINE
  5
56C
100
AcDbEntity
  8
SCRITTE
100
AcDbLine
 62
250
  6
CONTINUOUS
 10
-3.0656122525
 20
8.090417
 11
-3.0656122525
 21
9.239154
  0
LINE
  5
56D
100
AcDbEntity
  8
SCRITTE
100
AcDbLine
 62
250
  6
CONTINUOUS
 10
-3.0656122525
 20
14.115451
 11
-3.0656122525
 21
15.264189
  0
LINE
  5
56E
100
AcDbEntity
  8
SCRITTE
100
AcDbLine
 62
250
  6
CONTINUOUS
 10
-3.0212430112
 20
-7.039508
 11
-3.0212430112
 21
-7.955552
  0
LINE
  5
56F
100
AcDbEntity
  8
SCRITTE
100
AcDbLine
 62
250
  6
CONTINUOUS
 10
-2.9329254644
 20
5.893344
 11
-2.9329254644
 21
6.966343
  0
LINE
  5
570
100
AcDbEntity
  8
SCRITTE
100
AcDbLine
 62
250
  6
CONTINUOUS
 10
-2.4509868772
 20
-15.000059
 11
-2.4509938761
 21
-14.420015
  0
LINE
  5
571
100
AcDbEntity
  8
SCRITTE
100
AcDbLine
 62
250
  6
CONTINUOUS
 10
-2.4509868772
 20
-13.102204
 11
-2.4509938761
 21
-12.522183
  0
LINE
  5
572
100
AcDbEntity
  8
SCRITTE
100
AcDbLine
 62
250
  6
CONTINUOUS
 10
-2.4509938761
 20
-10.813778
 11
-2.4510018749
 21
-10.233771
  0
LINE
  5
573
100
AcDbEntity
  8
SCRITTE
100
AcDbLine
 62
250
  6
CONTINUOUS
 10
-2.4510018749
 20
-8.138666
 11
-2.4509938761
 21
-8.718687
  0
LINE
  5
574
100
AcDbEntity
  8
SCRITTE
100
AcDbLine
 62
250
  6
CONTINUOUS
 10
-2.451066865
 20
13.010803
 11
-2.451066865
 21
12.127151
  0
LINE
  5
575
100
AcDbEntity
  8
SCRITTE
100
AcDbLine
 62
250
  6
CONTINUOUS
 10
-2.451066865
 20
10.974375
 11
-2.451066865
 21
10.39193
  0
LINE
  5
576
100
AcDbEntity
  8
SCRITTE
100
AcDbLine
 62
250
  6
CONTINUOUS
 10
-2.451066865
 20
6.966343
 11
-2.451066865
 21
5.270738
  0
LINE
  5
577
100
AcDbEntity
  8
SCRITTE
100
AcDbLine
 62
250
  6
CONTINUOUS
 10
-2.451066865
 20
2.800395
 11
-2.451066865
 21
3.423001
  0
LINE
  5
578
100
AcDbEntity
  8
SCRITTE
100
AcDbLine
 62
250
  6
CONTINUOUS
 10
-2.451066865
 20
7.279119
 11
-2.451066865
 21
7.873569
  0
LINE
  5
579
100
AcDbEntity
  8
SCRITTE
100
AcDbLine
 62
250
  6
CONTINUOUS
 10
-2.451066865
 20
9.448036
 11
-2.451066865
 21
10.074679
  0
LINE
  5
57A
100
AcDbEntity
  8
SCRITTE
100
AcDbLine
 62
250
  6
CONTINUOUS
 10
-2.451066865
 20
13.304045
 11
-2.451066865
 21
13.898494
  0
LINE
  5
57B
100
AcDbEntity
  8
SCRITTE
100
AcDbLine
 62
250
  6
CONTINUOUS
 10
-2.451066865
 20
15.473179
 11
-2.451066865
 21
16.099605
  0
LINE
  5
57C
100
AcDbEntity
  8
SCRITTE
100
AcDbLine
 62
250
  6
CONTINUOUS
 10
-2.4510088739
 20
-3.568809
 11
-2.4510018749
 21
-4.222114
  0
LINE
  5
57D
100
AcDbEntity
  8
SCRITTE
100
AcDbLine
 62
250
  6
CONTINUOUS
 10
-2.4510018749
 20
-5.309665
 11
-2.4510018749
 21
-5.889694
  0
LINE
  5
57E
100
AcDbEntity
  8
SCRITTE
100
AcDbLine
 62
250
  6
CONTINUOUS
 10
-2.4509938761
 20
-11.942175
 11
-2.4509938761
 21
-11.362154
  0
LINE
  5
57F
100
AcDbEntity
  8
SCRITTE
100
AcDbLine
 62
250
  6
CONTINUOUS
 10
-2.4509938761
 20
-9.685388
 11
-2.4509938761
 21
-9.105366
  0
LINE
  5
580
100
AcDbEntity
  8
SCRITTE
100
AcDbLine
 62
250
  6
CONTINUOUS
 10
-2.4509938761
 20
-6.276373
 11
-2.4510018749
 21
-6.856402
  0
LINE
  5
581
100
AcDbEntity
  8
SCRITTE
100
AcDbLine
 62
7
  6
CONTINUOUS
 10
-4.1745024493
 20
2.800395
 11
-3.5518964493
 21
3.423001
  0
LINE
  5
582
100
AcDbEntity
  8
SCRITTE
100
AcDbLine
 62
7
  6
CONTINUOUS
 10
-3.9644917352
 20
2.800395
 11
-3.3418857352
 21
3.423001
  0
LINE
  5
583
100
AcDbEntity
  8
SCRITTE
100
AcDbLine
 62
7
  6
CONTINUOUS
 10
-3.7544810212
 20
2.800395
 11
-3.1318750212
 21
3.423001
  0
LINE
  5
584
100
AcDbEntity
  8
SCRITTE
100
AcDbLine
 62
7
  6
CONTINUOUS
 10
-3.5444703072
 20
2.800395
 11
-2.9218643072
 21
3.423001
  0
LINE
  5
585
100
AcDbEntity
  8
SCRITTE
100
AcDbLine
 62
7
  6
CONTINUOUS
 10
-3.3344595932
 20
2.800395
 11
-2.7118535932
 21
3.423001
  0
LINE
  5
586
100
AcDbEntity
  8
SCRITTE
100
AcDbLine
 62
7
  6
CONTINUOUS
 10
-3.1244488792
 20
2.800395
 11
-2.5018428792
 21
3.423001
  0
LINE
  5
587
100
AcDbEntity
  8
SCRITTE
100
AcDbLine
 62
7
  6
CONTINUOUS
 10
-2.9144381652
 20
2.800395
 11
-2.451066865
 21
3.2637663002
  0
LINE
  5
588
100
AcDbEntity
  8
SCRITTE
100
AcDbLine
 62
7
  6
CONTINUOUS
 10
-2.7044274512
 20
2.800395
 11
-2.451066865
 21
3.0537555861
  0
LINE
  5
589
100
AcDbEntity
  8
SCRITTE
100
AcDbLine
 62
7
  6
CONTINUOUS
 10
-2.4944167372
 20
2.800395
 11
-2.451066865
 21
2.8437448721
  0
LINE
  5
58A
100
AcDbEntity
  8
0
100
AcDbLine
 62
7
  6
CONTINUOUS
 10
9.0302971775
 20
13.382351286
 11
9.2403078915
 21
13.592362
  0
LINE
  5
58B
100
AcDbEntity
  8
0
100
AcDbLine
 62
7
  6
CONTINUOUS
 10
9.0302971775
 20
13.172340572
 11
9.4503186055
 21
13.592362
  0
LINE
  5
58C
100
AcDbEntity
  8
0
100
AcDbLine
 62
250
  6
CONTINUOUS
 10
2.9739067356
 20
8.99987
 11
7.9504346708
 21
13.731556
  0
LINE
  5
58D
100
AcDbEntity
  8
SCRITTE
100
AcDbLine
 62
250
  6
CONTINUOUS
 10
-2.4510018749
 20
-5.889694
 11
-5.3506901711
 21
-5.889694
  0
LINE
  5
58E
100
AcDbEntity
  8
SCRITTE
100
AcDbLine
 62
250
  6
CONTINUOUS
 10
-4.8142508858
 20
-5.317669
 11
-4.1086283719
 21
-5.317662
  0
LINE
  5
58F
100
AcDbEntity
  8
SCRITTE
100
AcDbLine
 62
250
  6
CONTINUOUS
 10
-3.5721880868
 20
-5.3096
 11
-2.4510018749
 21
-5.309665
  0
LINE
  5
590
100
AcDbEntity
  8
C_CORPO
100
AcDbLine
 62
7
  6
CONTINUOUS
 10
16.7230072542
 20
-5.5239590572
 11
18.1753006998
 21
-5.6510182698
  0
LINE
  5
591
100
AcDbEntity
  8
ASSI
100
AcDbLine
 62
7
  6
CONTINUOUS
 10
16.7230072542
 20
-5.5239590572
 11
18.1753006998
 21
-5.6510182698
  0
LINE
  5
592
100
AcDbEntity
  8
0
100
AcDbLine
 62
250
  6
CONTINUOUS
 10
14.0986894472
 20
-11.7709324885
 11
13.5379556299
 21
-11.5005449871
  0
LINE
  5
593
100
AcDbEntity
  8
0
100
AcDbLine
 62
250
  6
CONTINUOUS
 10
12.6024365878
 20
-11.0494354331
 11
12.1244633221
 21
-10.8189546988
  0
LWPOLYLINE
  5
594
100
AcDbEntity
  8
SCRITTE
100
AcDbPolyline
 62
250
  6
CONTINUOUS
 90
3
 70
0
 10
-4.052644872
 20
3.8131408049
 10
-4.0511385887
 20
3.7996684151
 10
-4.0495175835
 20
3.7862170818
  0
LINE
  5
595
100
AcDbEntity
  8
C_COPERCHIO
100
AcDbLine
 62
250
  6
CONTINUOUS
 10
-1.4413357523
 20
-23.5207112794
 11
-1.4421198198
 21
-23.4689651576
  0
LINE
  5
596
100
AcDbEntity
  8
C_COPERCHIO
100
AcDbLine
 62
250
  6
CONTINUOUS
 10
-1.4408428757
 20
-23.5689323482
 11
-1.4413357523
 21
-23.5207112794
  0
LINE
  5
597
100
AcDbEntity
  8
C_COPERCHIO
100
AcDbLine
 62
250
  6
CONTINUOUS
 10
-1.3276505871
 20
-22.2669366287
 11
-1.3276505871
 21
-23.4440939707
  0
LINE
  5
598
100
AcDbEntity
  8
C_COPERCHIO
100
AcDbLine
 62
250
  6
CONTINUOUS
 10
-1.3276505871
 20
22.2669366287
 11
-1.3276505871
 21
23.4440939707
  0
LINE
  5
599
100
AcDbEntity
  8
C_COPERCHIO
100
AcDbLine
 62
7
  6
CONTINUOUS
 10
-0.950846023
 20
-22.2603594806
 11
-0.950846023
 21
-23.1682544279
  0
LINE
  5
59A
100
AcDbEntity
  8
C_COPERCHIO
100
AcDbLine
 62
7
  6
CONTINUOUS
 10
-0.950846023
 20
22.2603594806
 11
-0.950846023
 21
23.1683696384
  0
LINE
  5
59B
100
AcDbEntity
  8
SCRITTE
100
AcDbLine
 62
250
  6
CONTINUOUS
 10
-0.850846023
 20
11.93125
 11
-0.850846023
 21
12.16875
  0
LINE
  5
59C
100
AcDbEntity
  8
SCRITTE
100
AcDbLine
 62
250
  6
CONTINUOUS
 10
-0.850846023
 20
15.6125
 11
-0.850846023
 21
16.325
  0
LINE
  5
59D
100
AcDbEntity
  8
C_COPERCHIO
100
AcDbLine
 62
250
  6
CONTINUOUS
 10
-1.4406747471
 20
23.610340458
 11
-1.4408428848
 21
23.5689289354
  0
LINE
  5
59E
100
AcDbEntity
  8
C_COPERCHIO
100
AcDbLine
 62
250
  6
CONTINUOUS
 10
-1.4408428848
 20
23.5689289354
 11
-1.4413357739
 21
23.5207088198
  0
LINE
  5
59F
100
AcDbEntity
  8
C_COPERCHIO
100
AcDbLine
 62
250
  6
CONTINUOUS
 10
-1.4413357739
 20
23.5207088198
 11
-1.4421198198
 21
23.4689651576
  0
LINE
  5
5A0
100
AcDbEntity
  8
C_COPERCHIO
100
AcDbLine
 62
250
  6
CONTINUOUS
 10
-10.6403788318
 20
-22.3114553375
 11
-10.6402560353
 21
-22.31116983
  0
LINE
  5
5A1
100
AcDbEntity
  8
0
100
AcDbLine
 62
7
  6
CONTINUOUS
 10
9.0302971775
 20
12.962329858
 11
9.6603293195
 21
13.592362
  0
LINE
  5
5A2
100
AcDbEntity
  8
0
100
AcDbLine
 62
7
  6
CONTINUOUS
 10
9.0302971775
 20
12.752319144
 11
9.8703400335
 21
13.592362
  0
LINE
  5
5A3
100
AcDbEntity
  8
0
100
AcDbLine
 62
7
  6
CONTINUOUS
 10
9.0302971775
 20
12.5423084299
 11
10.049153977
 21
13.5611652295
  0
LINE
  5
5A4
100
AcDbEntity
  8
0
100
AcDbLine
 62
7
  6
CONTINUOUS
 10
9.0302971775
 20
12.3322977159
 11
10.049153977
 21
13.3511545155
  0
LINE
  5
5A5
100
AcDbEntity
  8
0
100
AcDbLine
 62
7
  6
CONTINUOUS
 10
9.0302971775
 20
12.1222870019
 11
10.049153977
 21
13.1411438014
  0
LINE
  5
5A6
100
AcDbEntity
  8
0
100
AcDbLine
 62
7
  6
CONTINUOUS
 10
9.0302971775
 20
11.9122762879
 11
10.049153977
 21
12.9311330874
  0
LINE
  5
5A7
100
AcDbEntity
  8
0
100
AcDbLine
 62
7
  6
CONTINUOUS
 10
9.0302971775
 20
11.7022655739
 11
10.049153977
 21
12.7211223734
  0
LINE
  5
5A8
100
AcDbEntity
  8
0
100
AcDbLine
 62
7
  6
CONTINUOUS
 10
9.0302971775
 20
11.4922548599
 11
10.049153977
 21
12.5111116594
  0
LINE
  5
5A9
100
AcDbEntity
  8
0
100
AcDbLine
 62
7
  6
CONTINUOUS
 10
9.0302971775
 20
11.2822441459
 11
10.049153977
 21
12.3011009454
  0
LINE
  5
5AA
100
AcDbEntity
  8
0
100
AcDbLine
 62
7
  6
CONTINUOUS
 10
9.0302971775
 20
11.0722334319
 11
10.049153977
 21
12.0910902314
  0
LINE
  5
5AB
100
AcDbEntity
  8
0
100
AcDbLine
 62
7
  6
CONTINUOUS
 10
9.0302971775
 20
10.8622227178
 11
10.049153977
 21
11.8810795174
  0
LINE
  5
5AC
100
AcDbEntity
  8
0
100
AcDbLine
 62
7
  6
CONTINUOUS
 10
9.0302971775
 20
10.6522120038
 11
10.049153977
 21
11.6710688034
  0
LINE
  5
5AD
100
AcDbEntity
  8
0
100
AcDbLine
 62
7
  6
CONTINUOUS
 10
9.0302971775
 20
10.4422012898
 11
10.049153977
 21
11.4610580894
  0
LINE
  5
5AE
100
AcDbEntity
  8
0
100
AcDbLine
 62
7
  6
CONTINUOUS
 10
9.0302971775
 20
10.2321905758
 11
10.049153977
 21
11.2510473753
  0
LWPOLYLINE
  5
5AF
100
AcDbEntity
  8
0
100
AcDbPolyline
 62
250
  6
CONTINUOUS
 90
8
 70
0
 10
7.9316077186
 20
4.571874
 10
8.291366887
 20
4.692081936
 10
8.6176021678
 20
4.8856126972
 10
8.8955780967
 20
5.1437248452
 10
9.1157332443
 20
5.4602238793
 10
9.2610482315
 20
5.8106424312
 10
9.3290405591
 20
6.1838604314
 10
9.3155884537
 20
6.5704099717
  0
LINE
  5
5B0
100
AcDbEntity
  8
C_COPERCHIO
100
AcDbLine
 62
250
  6
CONTINUOUS
 10
-10.640255254
 20
22.3111698709
 11
-10.6403788318
 21
22.3114553375
  0
LINE
  5
5B1
100
AcDbEntity
  8
SCRITTE
100
AcDbLine
 62
250
  6
CONTINUOUS
 10
-0.2175127274
 20
15.96875
 11
-0.2175127274
 21
15.73125
  0
LINE
  5
5B2
100
AcDbEntity
  8
SCRITTE
100
AcDbLine
 62
250
  6
CONTINUOUS
 10
0.574153977
 20
14.54375
 11
0.574153977
 21
13.475
  0
LINE
  5
5B3
100
AcDbEntity
  8
SCRITTE
100
AcDbLine
 62
250
  6
CONTINUOUS
 10
0.574153977
 20
10.74375
 11
0.574153977
 21
9.675
  0
LINE
  5
5B4
100
AcDbEntity
  8
SCRITTE
100
AcDbLine
 62
250
  6
CONTINUOUS
 10
1.049153977
 20
11.575
 11
1.049153977
 21
12.525
  0
LINE
  5
5B5
100
AcDbEntity
  8
SCRITTE
100
AcDbLine
 62
250
  6
CONTINUOUS
 10
1.049153977
 20
15.73125
 11
1.049153977
 21
15.96875
  0
LINE
  5
5B6
100
AcDbEntity
  8
C_COPERCHIO
100
AcDbLine
 62
250
  6
CONTINUOUS
 10
1.5578801802
 20
21.3240205999
 11
1.5578801802
 21
20.9829813964
  0
LINE
  5
5B7
100
AcDbEntity
  8
C_COPERCHIO
100
AcDbLine
 62
250
  6
CONTINUOUS
 10
1.5578801802
 20
-20.9829813964
 11
1.5578801802
 21
-21.3240205999
  0
LINE
  5
5B8
100
AcDbEntity
  8
C_COPERCHIO
100
AcDbLine
 62
250
  6
CONTINUOUS
 10
1.7517719376
 20
20.9846734642
 11
1.7517719376
 21
20.85
  0
LINE
  5
5B9
100
AcDbEntity
  8
C_COPERCHIO
100
AcDbLine
 62
250
  6
CONTINUOUS
 10
1.7517719376
 20
-20.85
 11
1.7517719376
 21
-20.9846734642
  0
LINE
  5
5BA
100
AcDbEntity
  8
C_COPERCHIO
100
AcDbLine
 62
7
  6
CONTINUOUS
 10
-0.950846023
 20
-23.1690100818
 11
-0.9517385099
 21
-23.1988720333
  0
LWPOLYLINE
  5
5BB
100
AcDbEntity
  8
C_COPERCHIO
100
AcDbPolyline
 62
250
  6
CONTINUOUS
 90
4
 70
0
 10
-0.950846023
 20
-23.1690104681
 10
-0.9531310362
 20
-23.1949198369
 10
-0.9599048514
 20
-23.220076075
 10
-0.9710076646
 20
-23.2444791825
  0
LINE
  5
5BC
100
AcDbEntity
  8
0
100
AcDbLine
 62
7
  6
CONTINUOUS
 10
9.0302971775
 20
10.0221798618
 11
10.049153977
 21
11.0410366613
  0
LINE
  5
5BD
100
AcDbEntity
  8
0
100
AcDbLine
 62
7
  6
CONTINUOUS
 10
9.0302971775
 20
9.8121691478
 11
10.049153977
 21
10.8310259473
  0
LINE
  5
5BE
100
AcDbEntity
  8
0
100
AcDbLine
 62
7
  6
CONTINUOUS
 10
9.0302971775
 20
9.6021584338
 11
10.049153977
 21
10.6210152333
  0
LINE
  5
5BF
100
AcDbEntity
  8
0
100
AcDbLine
 62
7
  6
CONTINUOUS
 10
9.0457874577
 20
9.407638
 11
10.049153977
 21
10.4110045193
  0
LINE
  5
5C0
100
AcDbEntity
  8
0
100
AcDbLine
 62
7
  6
CONTINUOUS
 10
9.2557981717
 20
9.407638
 11
10.049153977
 21
10.2009938053
  0
LINE
  5
5C1
100
AcDbEntity
  8
0
100
AcDbLine
 62
7
  6
CONTINUOUS
 10
9.4658088857
 20
9.407638
 11
10.049153977
 21
9.9909830913
  0
LINE
  5
5C2
100
AcDbEntity
  8
0
100
AcDbLine
 62
7
  6
CONTINUOUS
 10
9.6758195997
 20
9.407638
 11
10.049153977
 21
9.7809723773
  0
LINE
  5
5C3
100
AcDbEntity
  8
0
100
AcDbLine
 62
7
  6
CONTINUOUS
 10
9.8858303138
 20
9.407638
 11
10.049153977
 21
9.5709616632
  0
LINE
  5
5C4
100
AcDbEntity
  8
0
100
AcDbLine
 62
250
  6
CONTINUOUS
 10
12.049153977
 20
8.455181
 11
10.7495499394
 21
7.423056
  0
LWPOLYLINE
  5
5C5
100
AcDbEntity
  8
0
100
AcDbPolyline
 62
250
  6
CONTINUOUS
 90
60
 70
0
 10
3.4230469869
 20
11.3430726704
 10
3.4240518171
 20
11.316853434
 10
3.4251998203
 20
11.2907450224
 10
3.4265174743
 20
11.2647385253
 10
3.4280312568
 20
11.2388250323
 10
3.4297676458
 20
11.2129956331
 10
3.4317531191
 20
11.1872414173
 10
3.4340141546
 20
11.1615534746
 10
3.4365772301
 20
11.1359228946
 10
3.4394688235
 20
11.1103407669
 10
3.4427154127
 20
11.0847981813
 10
3.4463434754
 20
11.0592862274
 10
3.4503794897
 20
11.0337959948
 10
3.4548499332
 20
11.0083185733
 10
3.4597812839
 20
10.9828450523
 10
3.4652000196
 20
10.9573665217
 10
3.4711326182
 20
10.931874071
 10
3.4776055575
 20
10.9063587899
 10
3.4846453155
 20
10.8808117681
 10
3.4922783698
 20
10.8552240951
 10
3.5005311985
 20
10.8295868608
 10
3.5094302794
 20
10.8038911546
 10
3.5190020902
 20
10.7781280663
 10
3.529273109
 20
10.7522886856
 10
3.5402698135
 20
10.726364102
 10
3.5520186815
 20
10.7003454052
 10
3.564546191
 20
10.6742236849
 10
3.5705601988
 20
10.6622085161
 10
3.5767446081
 20
10.6501932741
 10
3.5831004107
 20
10.6382014383
 10
3.5896285987
 20
10.6262564881
 10
3.5963301638
 20
10.614381903
 10
3.603206098
 20
10.6026011623
 10
3.6102573931
 20
10.5909377455
 10
3.617485041
 20
10.5794151319
 10
3.6248900336
 20
10.5680568011
 10
3.6324733628
 20
10.5568862324
 10
3.6402360205
 20
10.5459269053
 10
3.6481789984
 20
10.535202299
 10
3.6563032887
 20
10.5247358932
 10
3.664609883
 20
10.5145511672
 10
3.6730997733
 20
10.5046716004
 10
3.6817739515
 20
10.4951206721
 10
3.6906334095
 20
10.485921862
 10
3.6996791391
 20
10.4770986493
 10
3.7089121322
 20
10.4686745134
 10
3.7183333807
 20
10.4606729339
 10
3.7279438765
 20
10.4531173901
 10
3.7377446115
 20
10.4460313613
 10
3.7477365775
 20
10.4394383272
 10
3.7579207665
 20
10.433361767
 10
3.7682981703
 20
10.4278251601
 10
3.7788697808
 20
10.4228519861
 10
3.7896365899
 20
10.4184657242
 10
3.8005995894
 20
10.414689854
 10
3.8117597714
 20
10.4115478549
 10
3.8231181275
 20
10.4090632062
 10
3.8346756497
 20
10.4072593873
 10
3.84643333
 20
10.4061598778
 10
3.8583921601
 20
10.405788157
  0
LINE
  5
5C6
100
AcDbEntity
  8
C_CORPO
100
AcDbLine
 62
250
  6
CONTINUOUS
 10
2.9387081461
 20
-16.216472172
 11
2.9383931451
 21
-16.2041664821
  0
LINE
  5
5C7
100
AcDbEntity
  8
ASSI
100
AcDbLine
 62
250
  6
CONTINUOUS
 10
2.9387081461
 20
-16.216472172
 11
2.9383931451
 21
-16.2041664821
  0
LINE
  5
5C8
100
AcDbEntity
  8
C_CORPO
100
AcDbLine
 62
250
  6
CONTINUOUS
 10
2.9383931451
 20
-16.2041664821
 11
2.9381053683
 21
-16.1894678086
  0
LINE
  5
5C9
100
AcDbEntity
  8
ASSI
100
AcDbLine
 62
250
  6
CONTINUOUS
 10
2.9383931451
 20
-16.2041664821
 11
2.9381053683
 21
-16.1894678086
  0
LINE
  5
5CA
100
AcDbEntity
  8
C_CORPO
100
AcDbLine
 62
250
  6
CONTINUOUS
 10
2.9381053683
 20
-16.1894678086
 11
2.9377256719
 21
-16.1630310561
  0
LINE
  5
5CB
100
AcDbEntity
  8
ASSI
100
AcDbLine
 62
250
  6
CONTINUOUS
 10
2.9381053683
 20
-16.1894678086
 11
2.9377256719
 21
-16.1630310561
  0
LINE
  5
5CC
100
AcDbEntity
  8
C_CORPO
100
AcDbLine
 62
250
  6
CONTINUOUS
 10
2.9377256719
 20
-16.1630310561
 11
2.9373192346
 21
-16.1198059142
  0
LINE
  5
5CD
100
AcDbEntity
  8
ASSI
100
AcDbLine
 62
250
  6
CONTINUOUS
 10
2.9377256719
 20
-16.1630310561
 11
2.9373192346
 21
-16.1198059142
  0
LINE
  5
5CE
100
AcDbEntity
  8
C_CORPO
100
AcDbLine
 62
250
  6
CONTINUOUS
 10
2.9404277738
 20
15.2415770888
 11
2.9388753116
 21
15.4393267409
  0
LINE
  5
5CF
100
AcDbEntity
  8
ASSI
100
AcDbLine
 62
250
  6
CONTINUOUS
 10
2.9404277738
 20
15.2415770888
 11
2.9388753116
 21
15.4393267409
  0
LINE
  5
5D0
100
AcDbEntity
  8
C_CORPO
100
AcDbLine
 62
250
  6
CONTINUOUS
 10
2.9388753116
 20
15.4393267409
 11
2.9377256481
 21
15.6298740374
  0
LINE
  5
5D1
100
AcDbEntity
  8
ASSI
100
AcDbLine
 62
250
  6
CONTINUOUS
 10
2.9388753116
 20
15.4393267409
 11
2.9377256481
 21
15.6298740374
  0
LINE
  5
5D2
100
AcDbEntity
  8
C_CORPO
100
AcDbLine
 62
250
  6
CONTINUOUS
 10
2.9373192346
 20
-16.1198059142
 11
2.9369310429
 21
-16.0387030847
  0
LINE
  5
5D3
100
AcDbEntity
  8
ASSI
100
AcDbLine
 62
250
  6
CONTINUOUS
 10
2.9373192346
 20
-16.1198059142
 11
2.9369310429
 21
-16.0387030847
  0
LINE
  5
5D4
100
AcDbEntity
  8
C_CORPO
100
AcDbLine
 62
250
  6
CONTINUOUS
 10
2.9377256481
 20
15.6298740374
 11
2.9370913808
 21
15.7840280156
  0
LINE
  5
5D5
100
AcDbEntity
  8
ASSI
100
AcDbLine
 62
250
  6
CONTINUOUS
 10
2.9377256481
 20
15.6298740374
 11
2.9370913808
 21
15.7840280156
  0
LINE
  5
5D6
100
AcDbEntity
  8
C_CORPO
100
AcDbLine
 62
250
  6
CONTINUOUS
 10
2.9370913808
 20
15.7840280156
 11
2.9368237716
 21
15.9217201307
  0
LINE
  5
5D7
100
AcDbEntity
  8
ASSI
100
AcDbLine
 62
250
  6
CONTINUOUS
 10
2.9370913808
 20
15.7840280156
 11
2.9368237716
 21
15.9217201307
  0
LINE
  5
5D8
100
AcDbEntity
  8
C_COPERCHIO
100
AcDbLine
 62
7
  6
CONTINUOUS
 10
2.049153977
 20
21.2252970227
 11
2.049153977
 21
20.85
  0
LINE
  5
5D9
100
AcDbEntity
  8
C_COPERCHIO
100
AcDbLine
 62
7
  6
CONTINUOUS
 10
2.049153977
 20
-20.85
 11
2.049153977
 21
-21.2252970227
  0
LINE
  5
5DA
100
AcDbEntity
  8
C_CORPO
100
AcDbLine
 62
7
  6
CONTINUOUS
 10
2.049153977
 20
-20.85
 11
2.049153977
 21
-19.3181305591
  0
LINE
  5
5DB
100
AcDbEntity
  8
ASSI
100
AcDbLine
 62
7
  6
CONTINUOUS
 10
2.049153977
 20
-20.85
 11
2.049153977
 21
-19.3181305591
  0
LINE
  5
5DC
100
AcDbEntity
  8
C_CORPO
100
AcDbLine
 62
7
  6
CONTINUOUS
 10
2.049153977
 20
19.3181305591
 11
2.049153977
 21
20.85
  0
LINE
  5
5DD
100
AcDbEntity
  8
ASSI
100
AcDbLine
 62
7
  6
CONTINUOUS
 10
2.049153977
 20
19.3181305591
 11
2.049153977
 21
20.85
  0
LINE
  5
5DE
100
AcDbEntity
  8
C_CORPO
100
AcDbLine
 62
7
  6
CONTINUOUS
 10
2.449153977
 20
-19.1967670433
 11
2.449153977
 21
-16.3517637946
  0
LINE
  5
5DF
100
AcDbEntity
  8
ASSI
100
AcDbLine
 62
7
  6
CONTINUOUS
 10
2.449153977
 20
-19.1967670433
 11
2.449153977
 21
-16.3517637946
  0
LINE
  5
5E0
100
AcDbEntity
  8
C_CORPO
100
AcDbLine
 62
7
  6
CONTINUOUS
 10
2.449153977
 20
16.3517637946
 11
2.449153977
 21
19.1967670433
  0
LINE
  5
5E1
100
AcDbEntity
  8
ASSI
100
AcDbLine
 62
7
  6
CONTINUOUS
 10
2.449153977
 20
16.3517637946
 11
2.449153977
 21
19.1967670433
  0
LINE
  5
5E2
100
AcDbEntity
  8
0
100
AcDbLine
 62
250
  6
CONTINUOUS
 10
3.4638341059
 20
10.718216
 11
3.4638341059
 21
10.81759
  0
LINE
  5
5E3
100
AcDbEntity
  8
0
100
AcDbLine
 62
250
  6
CONTINUOUS
 10
3.8583920037
 20
10.190027
 11
3.8583920037
 21
12.627934
  0
LINE
  5
5E4
100
AcDbEntity
  8
C_CORPO
100
AcDbLine
 62
250
  6
CONTINUOUS
 10
2.9369310429
 20
-16.0387030847
 11
2.9368237716
 21
-15.9217201307
  0
LINE
  5
5E5
100
AcDbEntity
  8
ASSI
100
AcDbLine
 62
250
  6
CONTINUOUS
 10
2.9369310429
 20
-16.0387030847
 11
2.9368237716
 21
-15.9217201307
  0
LINE
  5
5E6
100
AcDbEntity
  8
0
100
AcDbLine
 62
250
  6
CONTINUOUS
 10
3.3708742663
 20
11.343073
 11
3.3714321813
 21
11.916076
  0
LINE
  5
5E7
100
AcDbEntity
  8
0
100
AcDbLine
 62
250
  6
CONTINUOUS
 10
3.5888930559
 20
11.916076
 11
3.5883351409
 21
11.343073
  0
LINE
  5
5E8
100
AcDbEntity
  8
C_CORPO
100
AcDbLine
 62
250
  6
CONTINUOUS
 10
2.9368237716
 20
15.9217201307
 11
2.9369310429
 21
16.0387030847
  0
LINE
  5
5E9
100
AcDbEntity
  8
ASSI
100
AcDbLine
 62
250
  6
CONTINUOUS
 10
2.9368237716
 20
15.9217201307
 11
2.9369310429
 21
16.0387030847
  0
LINE
  5
5EA
100
AcDbEntity
  8
C_CORPO
100
AcDbLine
 62
250
  6
CONTINUOUS
 10
2.9368237716
 20
-15.9217201307
 11
2.9370913808
 21
-15.7840280156
  0
LINE
  5
5EB
100
AcDbEntity
  8
ASSI
100
AcDbLine
 62
250
  6
CONTINUOUS
 10
2.9368237716
 20
-15.9217201307
 11
2.9370913808
 21
-15.7840280156
  0
LINE
  5
5EC
100
AcDbEntity
  8
C_CORPO
100
AcDbLine
 62
250
  6
CONTINUOUS
 10
2.9370913808
 20
-15.7840280156
 11
2.9377256481
 21
-15.6298740374
  0
LINE
  5
5ED
100
AcDbEntity
  8
ASSI
100
AcDbLine
 62
250
  6
CONTINUOUS
 10
2.9370913808
 20
-15.7840280156
 11
2.9377256481
 21
-15.6298740374
  0
LINE
  5
5EE
100
AcDbEntity
  8
C_CORPO
100
AcDbLine
 62
250
  6
CONTINUOUS
 10
2.9369310429
 20
16.0387030847
 11
2.9373192346
 21
16.1198059142
  0
LINE
  5
5EF
100
AcDbEntity
  8
ASSI
100
AcDbLine
 62
250
  6
CONTINUOUS
 10
2.9369310429
 20
16.0387030847
 11
2.9373192346
 21
16.1198059142
  0
LINE
  5
5F0
100
AcDbEntity
  8
C_CORPO
100
AcDbLine
 62
250
  6
CONTINUOUS
 10
2.9377256481
 20
-15.6298740374
 11
2.9388753116
 21
-15.4393267409
  0
LINE
  5
5F1
100
AcDbEntity
  8
ASSI
100
AcDbLine
 62
250
  6
CONTINUOUS
 10
2.9377256481
 20
-15.6298740374
 11
2.9388753116
 21
-15.4393267409
  0
LINE
  5
5F2
100
AcDbEntity
  8
C_CORPO
100
AcDbLine
 62
250
  6
CONTINUOUS
 10
2.9388753116
 20
-15.4393267409
 11
2.9404277738
 21
-15.2415770888
  0
LINE
  5
5F3
100
AcDbEntity
  8
ASSI
100
AcDbLine
 62
250
  6
CONTINUOUS
 10
2.9388753116
 20
-15.4393267409
 11
2.9404277738
 21
-15.2415770888
  0
LINE
  5
5F4
100
AcDbEntity
  8
C_CORPO
100
AcDbLine
 62
250
  6
CONTINUOUS
 10
2.9373192346
 20
16.1198059142
 11
2.9377256719
 21
16.1630310561
  0
LINE
  5
5F5
100
AcDbEntity
  8
ASSI
100
AcDbLine
 62
250
  6
CONTINUOUS
 10
2.9373192346
 20
16.1198059142
 11
2.9377256719
 21
16.1630310561
  0
LINE
  5
5F6
100
AcDbEntity
  8
C_CORPO
100
AcDbLine
 62
250
  6
CONTINUOUS
 10
2.9377256719
 20
16.1630310561
 11
2.9381053683
 21
16.1894678086
  0
LINE
  5
5F7
100
AcDbEntity
  8
ASSI
100
AcDbLine
 62
250
  6
CONTINUOUS
 10
2.9377256719
 20
16.1630310561
 11
2.9381053683
 21
16.1894678086
  0
LWPOLYLINE
  5
5F8
100
AcDbEntity
  8
C_CORPO
100
AcDbPolyline
 62
7
  6
CONTINUOUS
 90
38
 70
0
 10
2.449153977
 20
-16.3517624721
 10
2.449700231
 20
-16.3221624659
 10
2.4510756044
 20
-16.2927681201
 10
2.4532800971
 20
-16.2635794347
 10
2.456353446
 20
-16.2345855809
 10
2.4602559142
 20
-16.2057973875
 10
2.4648682915
 20
-16.1772473408
 10
2.4701856699
 20
-16.1489407883
 10
2.4762129575
 20
-16.1208723825
 10
2.4828456672
 20
-16.0930585669
 10
2.4900795693
 20
-16.0655031714
 10
2.4979188936
 20
-16.0382023662
 10
2.506271843
 20
-16.0111611058
 10
2.5151348406
 20
-15.9843821214
 10
2.5245114632
 20
-15.9578626819
 10
2.5343206445
 20
-15.9315995474
 10
2.5445593325
 20
-15.9055947232
 10
2.555230579
 20
-15.8798462041
 10
2.5662624739
 20
-15.8543447345
 10
2.5776524588
 20
-15.8290916811
 10
2.5894030919
 20
-15.8040856772
 10
2.6014501379
 20
-15.7793133666
 10
2.6137914387
 20
-15.7547756986
 10
2.6264291523
 20
-15.7304717241
 10
2.6393055175
 20
-15.7063852389
 10
2.6524187337
 20
-15.6825168206
 10
2.6657706016
 20
-15.6588658918
 10
2.6793087617
 20
-15.6354145157
 10
2.6930317447
 20
-15.6121629265
 10
2.70694102
 20
-15.5891108901
 10
2.720988636
 20
-15.5662397677
 10
2.7351733837
 20
-15.5435495835
 10
2.7494964722
 20
-15.5210403133
 10
2.7639135769
 20
-15.4986932456
 10
2.7784237609
 20
-15.4765080699
 10
2.7930279612
 20
-15.4544850967
 10
2.8076846642
 20
-15.4326065455
 10
2.8223931823
 20
-15.4108719557
  0
LWPOLYLINE
  5
5F9
100
AcDbEntity
  8
ASSI
100
AcDbPolyline
 62
7
  6
CONTINUOUS
 90
38
 70
0
 10
2.449153977
 20
-16.3517624721
 10
2.449700231
 20
-16.3221624659
 10
2.4510756044
 20
-16.2927681201
 10
2.4532800971
 20
-16.2635794347
 10
2.456353446
 20
-16.2345855809
 10
2.4602559142
 20
-16.2057973875
 10
2.4648682915
 20
-16.1772473408
 10
2.4701856699
 20
-16.1489407883
 10
2.4762129575
 20
-16.1208723825
 10
2.4828456672
 20
-16.0930585669
 10
2.4900795693
 20
-16.0655031714
 10
2.4979188936
 20
-16.0382023662
 10
2.506271843
 20
-16.0111611058
 10
2.5151348406
 20
-15.9843821214
 10
2.5245114632
 20
-15.9578626819
 10
2.5343206445
 20
-15.9315995474
 10
2.5445593325
 20
-15.9055947232
 10
2.555230579
 20
-15.8798462041
 10
2.5662624739
 20
-15.8543447345
 10
2.5776524588
 20
-15.8290916811
 10
2.5894030919
 20
-15.8040856772
 10
2.6014501379
 20
-15.7793133666
 10
2.6137914387
 20
-15.7547756986
 10
2.6264291523
 20
-15.7304717241
 10
2.6393055175
 20
-15.7063852389
 10
2.6524187337
 20
-15.6825168206
 10
2.6657706016
 20
-15.6588658918
 10
2.6793087617
 20
-15.6354145157
 10
2.6930317447
 20
-15.6121629265
 10
2.70694102
 20
-15.5891108901
 10
2.720988636
 20
-15.5662397677
 10
2.7351733837
 20
-15.5435495835
 10
2.7494964722
 20
-15.5210403133
 10
2.7639135769
 20
-15.4986932456
 10
2.7784237609
 20
-15.4765080699
 10
2.7930279612
 20
-15.4544850967
 10
2.8076846642
 20
-15.4326065455
 10
2.8223931823
 20
-15.4108719557
  0
LINE
  5
5FA
100
AcDbEntity
  8
C_CORPO
100
AcDbLine
 62
250
  6
CONTINUOUS
 10
2.9381053683
 20
16.1894678086
 11
2.9383931451
 21
16.2041664821
  0
LINE
  5
5FB
100
AcDbEntity
  8
ASSI
100
AcDbLine
 62
250
  6
CONTINUOUS
 10
2.9381053683
 20
16.1894678086
 11
2.9383931451
 21
16.2041664821
  0
LWPOLYLINE
  5
5FC
100
AcDbEntity
  8
C_CORPO
100
AcDbPolyline
 62
250
  6
CONTINUOUS
 90
11
 70
0
 10
2.9383931451
 20
16.2041664821
 10
2.9387081461
 20
16.216472172
 10
2.938875353
 20
16.2217129769
 10
2.9390492512
 20
16.2263414348
 10
2.9392288957
 20
16.2303523864
 10
2.93941462
 20
16.2337448883
 10
2.9396066077
 20
16.2365183676
 10
2.9398037515
 20
16.2386713791
 10
2.9400058937
 20
16.2402051644
 10
2.9402137986
 20
16.2411222027
 10
2.9404277738
 20
16.241424784
  0
LWPOLYLINE
  5
5FD
100
AcDbEntity
  8
ASSI
100
AcDbPolyline
 62
250
  6
CONTINUOUS
 90
11
 70
0
 10
2.9383931451
 20
16.2041664821
 10
2.9387081461
 20
16.216472172
 10
2.938875353
 20
16.2217129769
 10
2.9390492512
 20
16.2263414348
 10
2.9392288957
 20
16.2303523864
 10
2.93941462
 20
16.2337448883
 10
2.9396066077
 20
16.2365183676
 10
2.9398037515
 20
16.2386713791
 10
2.9400058937
 20
16.2402051644
 10
2.9402137986
 20
16.2411222027
 10
2.9404277738
 20
16.241424784
  0
LWPOLYLINE
  5
5FE
100
AcDbEntity
  8
C_CORPO
100
AcDbPolyline
 62
250
  6
CONTINUOUS
 90
73
 70
0
 10
16.7230072542
 20
6.8720621275
 10
16.7205151182
 20
6.8705881703
 10
16.7179387514
 20
6.8688499685
 10
16.7152785698
 20
6.8668464835
 10
16.7125353998
 20
6.8645935465
 10
16.7097093923
 20
6.862073208
 10
16.7068000306
 20
6.8592338026
 10
16.7038046673
 20
6.8560697272
 10
16.7007272839
 20
6.8525845398
 10
16.69757736
 20
6.8487406213
 10
16.6943545423
 20
6.8445317624
 10
16.6910608089
 20
6.8399627233
 10
16.6877091132
 20
6.8350129201
 10
16.6843022543
 20
6.8296806037
 10
16.6808392625
 20
6.8239669405
 10
16.6773273991
 20
6.8178562895
 10
16.6737750306
 20
6.8113613835
 10
16.6701758348
 20
6.8044696873
 10
16.6665152337
 20
6.7971278103
 10
16.6627979784
 20
6.7893465571
 10
16.6590221199
 20
6.7811154192
 10
16.655163629
 20
6.7723488039
 10
16.6512239474
 20
6.7630493076
 10
16.6472057647
 20
6.7532147135
 10
16.6430878059
 20
6.7427520684
 10
16.6388723843
 20
6.7316618476
 10
16.634563088
 20
6.7199445407
 10
16.6301416416
 20
6.7075073704
 10
16.6256004032
 20
6.6943123538
 10
16.6209554551
 20
6.6803995015
 10
16.6162246588
 20
6.6657936655
 10
16.6114159256
 20
6.6504978797
 10
16.6065307703
 20
6.634513312
 10
16.601577504
 20
6.6178626196
 10
16.5965767791
 20
6.6005967671
 10
16.5915187573
 20
6.5826705057
 10
16.58636792
 20
6.5639620454
 10
16.5811367033
 20
6.5444878339
 10
16.5758292671
 20
6.5242382443
 10
16.5704024114
 20
6.5030519159
 10
16.5648575842
 20
6.480878594
 10
16.5592196688
 20
6.4577773489
 10
16.5534854774
 20
6.4337498442
 10
16.5476497568
 20
6.408691957
 10
16.5417533323
 20
6.3827185247
 10
16.5358613867
 20
6.3561563877
 10
16.5299776626
 20
6.3289458008
 10
16.5241329238
 20
6.3011555567
 10
16.5184227831
 20
6.273298483
 10
16.5128642035
 20
6.245419124
 10
16.5074610393
 20
6.2174758148
 10
16.5022753016
 20
6.1898440245
 10
16.4973249871
 20
6.1626129759
 10
16.4925991098
 20
6.1356903682
 10
16.4881084288
 20
6.1091739152
 10
16.4838574079
 20
6.0830817051
 10
16.4798460751
 20
6.0573905483
 10
16.4760769924
 20
6.0321337553
 10
16.4725498092
 20
6.0073006173
 10
16.4692681745
 20
5.9828962365
 10
16.4662388118
 20
5.9589763647
 10
16.4634621774
 20
5.9355519283
 10
16.4609364507
 20
5.9126060937
 10
16.4586625656
 20
5.890152525
 10
16.4566395985
 20
5.868202047
 10
16.4548643222
 20
5.8467386007
 10
16.4533336368
 20
5.8257360446
 10
16.4520453157
 20
5.8051914522
 10
16.4509972092
 20
5.7851039227
 10
16.4501866184
 20
5.7654513164
 10
16.4496109944
 20
5.7462255936
 10
16.4492677339
 20
5.7274323208
 10
16.449153977
 20
5.709070283
  0
LWPOLYLINE
  5
5FF
100
AcDbEntity
  8
ASSI
100
AcDbPolyline
 62
250
  6
CONTINUOUS
 90
73
 70
0
 10
16.7230072542
 20
6.8720621275
 10
16.7205151182
 20
6.8705881703
 10
16.7179387514
 20
6.8688499685
 10
16.7152785698
 20
6.8668464835
 10
16.7125353998
 20
6.8645935465
 10
16.7097093923
 20
6.862073208
 10
16.7068000306
 20
6.8592338026
 10
16.7038046673
 20
6.8560697272
 10
16.7007272839
 20
6.8525845398
 10
16.69757736
 20
6.8487406213
 10
16.6943545423
 20
6.8445317624
 10
16.6910608089
 20
6.8399627233
 10
16.6877091132
 20
6.8350129201
 10
16.6843022543
 20
6.8296806037
 10
16.6808392625
 20
6.8239669405
 10
16.6773273991
 20
6.8178562895
 10
16.6737750306
 20
6.8113613835
 10
16.6701758348
 20
6.8044696873
 10
16.6665152337
 20
6.7971278103
 10
16.6627979784
 20
6.7893465571
 10
16.6590221199
 20
6.7811154192
 10
16.655163629
 20
6.7723488039
 10
16.6512239474
 20
6.7630493076
 10
16.6472057647
 20
6.7532147135
 10
16.6430878059
 20
6.7427520684
 10
16.6388723843
 20
6.7316618476
 10
16.634563088
 20
6.7199445407
 10
16.6301416416
 20
6.7075073704
 10
16.6256004032
 20
6.6943123538
 10
16.6209554551
 20
6.6803995015
 10
16.6162246588
 20
6.6657936655
 10
16.6114159256
 20
6.6504978797
 10
16.6065307703
 20
6.634513312
 10
16.601577504
 20
6.6178626196
 10
16.5965767791
 20
6.6005967671
 10
16.5915187573
 20
6.5826705057
 10
16.58636792
 20
6.5639620454
 10
16.5811367033
 20
6.5444878339
 10
16.5758292671
 20
6.5242382443
 10
16.5704024114
 20
6.5030519159
 10
16.5648575842
 20
6.480878594
 10
16.5592196688
 20
6.4577773489
 10
16.5534854774
 20
6.4337498442
 10
16.5476497568
 20
6.408691957
 10
16.5417533323
 20
6.3827185247
 10
16.5358613867
 20
6.3561563877
 10
16.5299776626
 20
6.3289458008
 10
16.5241329238
 20
6.3011555567
 10
16.5184227831
 20
6.273298483
 10
16.5128642035
 20
6.245419124
 10
16.5074610393
 20
6.2174758148
 10
16.5022753016
 20
6.1898440245
 10
16.4973249871
 20
6.1626129759
 10
16.4925991098
 20
6.1356903682
 10
16.4881084288
 20
6.1091739152
 10
16.4838574079
 20
6.0830817051
 10
16.4798460751
 20
6.0573905483
 10
16.4760769924
 20
6.0321337553
 10
16.4725498092
 20
6.0073006173
 10
16.4692681745
 20
5.9828962365
 10
16.4662388118
 20
5.9589763647
 10
16.4634621774
 20
5.9355519283
 10
16.4609364507
 20
5.9126060937
 10
16.4586625656
 20
5.890152525
 10
16.4566395985
 20
5.868202047
 10
16.4548643222
 20
5.8467386007
 10
16.4533336368
 20
5.8257360446
 10
16.4520453157
 20
5.8051914522
 10
16.4509972092
 20
5.7851039227
 10
16.4501866184
 20
5.7654513164
 10
16.4496109944
 20
5.7462255936
 10
16.4492677339
 20
5.7274323208
 10
16.449153977
 20
5.709070283
  0
LINE
  5
600
100
AcDbEntity
  8
SCRITTE
100
AcDbLine
 62
250
  6
CONTINUOUS
 10
-3.6419224643
 20
-4.186212
 11
-2.4510088739
 21
-3.568809
  0
LINE
  5
601
100
AcDbEntity
  8
SCRITTE
100
AcDbLine
 62
250
  6
CONTINUOUS
 10
-2.4510018749
 20
-4.222114
 11
-3.5721810879
 21
-4.803368
  0
LINE
  5
602
100
AcDbEntity
  8
0
100
AcDbLine
 62
250
  6
CONTINUOUS
 10
12.049153977
 20
3.740224
 11
10.7495499394
 21
3.16989
  0
LINE
  5
603
100
AcDbEntity
  8
0
100
AcDbLine
 62
250
  6
CONTINUOUS
 10
10.7495499394
 20
1.18
 11
12.049153977
 21
1.18
  0
LINE
  5
604
100
AcDbEntity
  8
0
100
AcDbLine
 62
250
  6
CONTINUOUS
 10
5.0123344058
 20
2.23541
 11
5.7827430509
 21
2.23541
  0
LINE
  5
605
100
AcDbEntity
  8
0
100
AcDbLine
 62
250
  6
CONTINUOUS
 10
9.3155888994
 20
2.23541
 11
10.0859975446
 21
2.23541
  0
LINE
  5
606
100
AcDbEntity
  8
0
100
AcDbLine
 62
250
  6
CONTINUOUS
 10
4.2212467307
 20
12.567887
 11
4.2212467307
 21
12.917947
  0
LINE
  5
607
100
AcDbEntity
  8
0
100
AcDbLine
 62
250
  6
CONTINUOUS
 10
4.5936540026
 20
12.917947
 11
4.5936540026
 21
12.567887
  0
LINE
  5
608
100
AcDbEntity
  8
0
100
AcDbLine
 62
250
  6
CONTINUOUS
 10
4.6860559272
 20
11.28807
 11
4.6860559272
 21
12.11141
  0
LINE
  5
609
100
AcDbEntity
  8
0
100
AcDbLine
 62
250
  6
CONTINUOUS
 10
4.9016590848
 20
12.11141
 11
4.9016590848
 21
11.28807
  0
LWPOLYLINE
  5
60A
100
AcDbEntity
  8
0
100
AcDbPolyline
 62
250
  6
CONTINUOUS
 90
17
 70
0
 10
5.0123344058
 20
6.57041
 10
5.011125753
 20
6.0727386725
 10
5.1091567691
 20
5.5757875954
 10
5.3034648163
 20
5.1080202808
 10
5.5863829555
 20
4.6878937282
 10
5.9467479017
 20
4.3319851441
 10
6.3624562697
 20
4.0584671162
 10
6.8319020427
 20
3.8683963337
 10
7.3296493654
 20
3.7748789619
 10
7.8360582978
 20
3.7816049764
 10
8.3311471332
 20
3.8883089847
 10
8.787609014
 20
4.0864434861
 10
9.2036804793
 20
4.3752430225
 10
9.5544686891
 20
4.7405969899
 10
9.8261323648
 20
5.168089379
 10
10.0079522958
 20
5.6408523445
 10
10.0927029231
 20
6.1394872127
  0
LWPOLYLINE
  5
60B
100
AcDbEntity
  8
0
100
AcDbPolyline
 62
250
  6
CONTINUOUS
 90
17
 70
0
 10
5.0123344058
 20
2.23541
 10
5.011125753
 20
1.7377386725
 10
5.1091567691
 20
1.2407875954
 10
5.3034648163
 20
0.7730202808
 10
5.5863829555
 20
0.3528937282
 10
5.9467479017
 20
-0.0030148559
 10
6.3624562697
 20
-0.2765328838
 10
6.8319020427
 20
-0.4666036663
 10
7.3296493654
 20
-0.5601210381
 10
7.8360582978
 20
-0.5533950236
 10
8.3311471332
 20
-0.4466910153
 10
8.787609014
 20
-0.2485565139
 10
9.2036804793
 20
0.0402430225
 10
9.5544686891
 20
0.4055969899
 10
9.8261323648
 20
0.833089379
 10
10.0079522958
 20
1.3058523445
 10
10.0927029231
 20
1.8044872127
  0
LWPOLYLINE
  5
60C
100
AcDbEntity
  8
0
100
AcDbPolyline
 62
250
  6
CONTINUOUS
 90
8
 70
0
 10
5.7827430509
 20
6.57041
 10
5.7687565173
 20
6.1913052257
 10
5.8351878944
 20
5.8178060422
 10
5.9790365959
 20
5.4667827394
 10
6.197866635
 20
5.1493656747
 10
6.4747610718
 20
4.8900931857
 10
6.8001844564
 20
4.695199708
 10
7.1667241713
 20
4.5718735574
  0
LWPOLYLINE
  5
60D
100
AcDbEntity
  8
0
100
AcDbPolyline
 62
250
  6
CONTINUOUS
 90
7
 70
0
 10
5.7827430509
 20
2.23541
 10
5.7736158386
 20
2.1612049392
 10
5.7676035445
 20
2.0866827027
 10
5.7647167164
 20
2.0119740278
 10
5.7651220618
 20
1.9309812536
 10
5.7687565173
 20
1.8563052257
 10
5.7759764459
 20
1.7777611826
  0
LWPOLYLINE
  5
60E
100
AcDbEntity
  8
C_COPERCHIO
100
AcDbPolyline
 62
250
  6
CONTINUOUS
 90
8
 70
0
 10
-1.4421198198
 20
-23.6689346966
 10
-1.4416942963
 20
-23.6672166433
 10
-1.441335751
 20
-23.6621077656
 10
-1.4410503164
 20
-23.653695444
 10
-1.4408428746
 20
-23.6421235598
 10
-1.4407169733
 20
-23.6275900347
 10
-1.4406747658
 20
-23.6103434449
 10
-1.4408428757
 20
-23.5689323482
  0
LINE
  5
60F
100
AcDbEntity
  8
0
100
AcDbLine
 62
250
  6
CONTINUOUS
 10
12.049153977
 20
1.802869
 11
10.7495499394
 21
1.18
  0
LINE
  5
610
100
AcDbEntity
  8
C_CORPO
100
AcDbLine
 62
7
  6
CONTINUOUS
 10
16.7230072542
 20
5.3652347102
 11
18.1753006998
 21
5.4922939228
  0
LINE
  5
611
100
AcDbEntity
  8
ASSI
100
AcDbLine
 62
7
  6
CONTINUOUS
 10
16.7230072542
 20
5.3652347102
 11
18.1753006998
 21
5.4922939228
  0
LINE
  5
612
100
AcDbEntity
  8
C_CORPO
100
AcDbLine
 62
7
  6
CONTINUOUS
 10
16.7230072542
 20
5.5239590572
 11
18.1753006998
 21
5.6510182698
  0
LINE
  5
613
100
AcDbEntity
  8
ASSI
100
AcDbLine
 62
7
  6
CONTINUOUS
 10
16.7230072542
 20
5.5239590572
 11
18.1753006998
 21
5.6510182698
  0
LINE
  5
614
100
AcDbEntity
  8
0
100
AcDbLine
 62
250
  6
CONTINUOUS
 10
12.049153977
 20
2.425736
 11
10.7495499394
 21
2.425736
  0
LINE
  5
615
100
AcDbEntity
  8
SCRITTE
100
AcDbLine
 62
250
  6
CONTINUOUS
 10
-5.350625181
 20
2.800395
 11
-2.451066865
 21
2.800395
  0
LINE
  5
616
100
AcDbEntity
  8
SCRITTE
100
AcDbLine
 62
250
  6
CONTINUOUS
 10
-2.451066865
 20
3.423001
 11
-3.5676577769
 21
3.423001
  0
LINE
  5
617
100
AcDbEntity
  8
SCRITTE
100
AcDbLine
 62
250
  6
CONTINUOUS
 10
-4.0495173762
 20
3.423001
 11
-4.8687665816
 21
3.423001
  0
LINE
  5
618
100
AcDbEntity
  8
0
100
AcDbLine
 62
250
  6
CONTINUOUS
 10
10.7495499394
 20
3.910407
 11
12.049153977
 21
3.910407
  0
LWPOLYLINE
  5
619
100
AcDbEntity
  8
SCRITTE
100
AcDbPolyline
 62
250
  6
CONTINUOUS
 90
53
 70
0
 10
-4.4591418315
 20
4.2183648367
 10
-4.4462307946
 20
4.2182886031
 10
-4.4333098134
 20
4.2180421052
 10
-4.4203882268
 20
4.217598647
 10
-4.4074753736
 20
4.2169315329
 10
-4.3945805926
 20
4.2160140668
 10
-4.3817132228
 20
4.2148195531
 10
-4.368882603
 20
4.2133212959
 10
-4.356098072
 20
4.2114925993
 10
-4.3433689687
 20
4.2093067676
 10
-4.3312773452
 20
4.2068658945
 10
-4.3192557614
 20
4.2040741077
 10
-4.3073152259
 20
4.2009303329
 10
-4.2954667476
 20
4.1974334958
 10
-4.283721335
 20
4.1935825222
 10
-4.2720899971
 20
4.1893763378
 10
-4.2605837424
 20
4.1848138683
 10
-4.2492135797
 20
4.1798940396
 10
-4.2379905178
 20
4.1746157773
 10
-4.2269255654
 20
4.1689780071
 10
-4.2160297312
 20
4.1629796549
 10
-4.2076769096
 20
4.1580613415
 10
-4.199450953
 20
4.1529216349
 10
-4.1913696462
 20
4.1475581516
 10
-4.1834507742
 20
4.1419685077
 10
-4.1757121218
 20
4.1361503196
 10
-4.168171474
 20
4.1301012037
 10
-4.1608466157
 20
4.1238187761
 10
-4.1537553317
 20
4.1173006532
 10
-4.146915407
 20
4.1105444513
 10
-4.1403446264
 20
4.1035477867
 10
-4.1340607749
 20
4.0963082757
 10
-4.1280816374
 20
4.0888235346
 10
-4.1220443091
 20
4.080556551
 10
-4.1163640306
 20
4.0720288129
 10
-4.1110296585
 20
4.0632622631
 10
-4.1060300496
 20
4.0542788447
 10
-4.1013540608
 20
4.0451005008
 10
-4.0969905489
 20
4.0357491742
 10
-4.0929283706
 20
4.026246808
 10
-4.0891563826
 20
4.0166153452
 10
-4.0856634419
 20
4.0068767287
 10
-4.0824384051
 20
3.9970529016
 10
-4.079470129
 20
3.9871658069
 10
-4.0759185769
 20
3.9740261237
 10
-4.0727575391
 20
3.9608208627
 10
-4.0699481513
 20
3.9475566879
 10
-4.0674515492
 20
3.9342402636
 10
-4.0652288684
 20
3.9208782539
 10
-4.0632412447
 20
3.907477323
 10
-4.0614498137
 20
3.8940441351
 10
-4.0598157111
 20
3.8805853544
 10
-4.0583000725
 20
3.8671076451
  0
LWPOLYLINE
  5
61A
100
AcDbEntity
  8
C_COPERCHIO
100
AcDbPolyline
 62
250
  6
CONTINUOUS
 90
7
 70
0
 10
-1.4421198198
 20
23.6689346966
 10
-1.441694273
 20
23.6672164968
 10
-1.4413357139
 20
23.6621072286
 10
-1.441050274
 20
23.6536943491
 10
-1.4408428344
 20
23.6421218061
 10
-1.4407169417
 20
23.6275876071
 10
-1.4406747471
 20
23.610340458
  0
LWPOLYLINE
  5
61B
100
AcDbEntity
  8
0
100
AcDbPolyline
 62
250
  6
CONTINUOUS
 90
65
 70
0
 10
7.9996185083
 20
-9.737598426
 10
8.0016326135
 20
-9.8477915993
 10
8.0076615102
 20
-9.9580472603
 10
8.0176850698
 20
-10.0681935052
 10
8.0316831638
 20
-10.1780584299
 10
8.0496356635
 20
-10.2874701307
 10
8.0715224406
 20
-10.3962567037
 10
8.0973233664
 20
-10.504246245
 10
8.1270183124
 20
-10.6112668506
 10
8.16058715
 20
-10.7171466168
 10
8.1980097507
 20
-10.8217136397
 10
8.2392659861
 20
-10.9247960154
 10
8.2827009006
 20
-11.0227502869
 10
8.329600338
 20
-11.1190556386
 10
8.3798746474
 20
-11.2136070501
 10
8.4334341777
 20
-11.3062995012
 10
8.4901892782
 20
-11.3970279715
 10
8.550050298
 20
-11.4856874407
 10
8.6129275862
 20
-11.5721728886
 10
8.6787314918
 20
-11.6563792949
 10
8.7473723641
 20
-11.7382016391
 10
8.818760552
 20
-11.8175349012
 10
8.8928064048
 20
-11.8942740607
 10
8.9773052322
 20
-11.9756532735
 10
9.0648022217
 20
-12.0536730912
 10
9.1551820843
 20
-12.1282465258
 10
9.248329531
 20
-12.1992865893
 10
9.3441292727
 20
-12.2667062939
 10
9.4265068522
 20
-12.3204409434
 10
9.5105843135
 20
-12.3715056697
 10
9.5962738448
 20
-12.41984292
 10
9.6834876346
 20
-12.4653951417
 10
9.7721378711
 20
-12.5081047821
 10
9.8621367426
 20
-12.5479142885
 10
9.9549484127
 20
-12.5853690253
 10
10.0489497068
 20
-12.6197328073
 10
10.1440263656
 20
-12.6509733782
 10
10.2400641298
 20
-12.6790584816
 10
10.33694874
 20
-12.7039558611
 10
10.4345659369
 20
-12.7256332603
 10
10.5349784122
 20
-12.7444339588
 10
10.6359406551
 20
-12.7598394047
 10
10.7373565314
 20
-12.7718516176
 10
10.8410881798
 20
-12.7806070705
 10
10.9450633034
 20
-12.7858518671
 10
11.0491539778
 20
-12.7875984252
 10
11.1314585395
 20
-12.7865088818
 10
11.2136980171
 20
-12.7832334682
 10
11.2958150626
 20
-12.7777657525
 10
11.376472754
 20
-12.7702365532
 10
11.4569080833
 20
-12.7605725652
 10
11.5370728849
 20
-12.7487694507
 10
11.6310259029
 20
-12.7321324651
 10
11.7244346339
 20
-12.7125458892
 10
11.8171964268
 20
-12.6900304869
 10
11.9092086308
 20
-12.6646070217
 10
12.000368595
 20
-12.6362962576
 10
12.1110665162
 20
-12.5975927521
 10
12.2201738403
 20
-12.5546298908
 10
12.3275415965
 20
-12.5074760088
 10
12.4330208139
 20
-12.4561994414
 10
12.5354269709
 20
-12.4014538865
 10
12.6356708522
 20
-12.3428473585
 10
12.7335868227
 20
-12.280491911
 10
12.8290092474
 20
-12.2144995977
  0
LINE
  5
61C
100
AcDbEntity
  8
0
100
AcDbLine
 62
250
  6
CONTINUOUS
 10
7.1667242318
 20
6.06041
 11
7.1667242318
 21
4.571874
  0
LINE
  5
61D
100
AcDbEntity
  8
0
100
AcDbLine
 62
250
  6
CONTINUOUS
 10
7.2201009211
 20
10.725174
 11
7.2201009211
 21
12.071041
  0
LINE
  5
61E
100
AcDbEntity
  8
0
100
AcDbLine
 62
250
  6
CONTINUOUS
 10
7.4165190011
 20
10.899503
 11
7.4165190011
 21
10.781883
  0
LINE
  5
61F
100
AcDbEntity
  8
0
100
AcDbLine
 62
250
  6
CONTINUOUS
 10
7.9316077186
 20
6.06041
 11
7.9316077186
 21
4.571874
  0
LINE
  5
620
100
AcDbEntity
  8
SCRITTE
100
AcDbLine
 62
250
  6
CONTINUOUS
 10
-5.3506901711
 20
-7.207512
 11
-2.4509938761
 21
-6.276373
  0
LINE
  5
621
100
AcDbEntity
  8
SCRITTE
100
AcDbLine
 62
250
  6
CONTINUOUS
 10
-3.5721810879
 20
-7.216437
 11
-4.4475867391
 21
-7.497541
  0
LINE
  5
622
100
AcDbEntity
  8
SCRITTE
100
AcDbLine
 62
250
  6
CONTINUOUS
 10
-2.4510018749
 20
-6.856402
 11
-3.0212430112
 21
-7.039508
  0
LWPOLYLINE
  5
623
100
AcDbEntity
  8
C_CORPO
100
AcDbPolyline
 62
7
  6
CONTINUOUS
 90
52
 70
0
 10
17.2761980241
 20
7.249310389
 10
17.2623628867
 20
7.2469905858
 10
17.2485588152
 20
7.2444753869
 10
17.2347858097
 20
7.2417647794
 10
17.2210428022
 20
7.2388620389
 10
17.2073308607
 20
7.2357639333
 10
17.193653189
 20
7.2324607272
 10
17.1800070562
 20
7.2289523391
 10
17.1663951933
 20
7.2252390503
 10
17.1528289959
 20
7.2213117216
 10
17.13930607
 20
7.2171697165
 10
17.1258288097
 20
7.212814062
 10
17.1124157935
 20
7.2082381817
 10
17.099065232
 20
7.2034415699
 10
17.0857789146
 20
7.1984253465
 10
17.0725807879
 20
7.193185457
 10
17.0594696558
 20
7.1877210534
 10
17.0464467143
 20
7.1820338528
 10
17.0335394981
 20
7.1761237394
 10
17.0207473737
 20
7.1699901459
 10
17.0080709747
 20
7.1636347825
 10
16.9955397359
 20
7.1570610391
 10
16.9831535642
 20
7.150268402
 10
16.9709125527
 20
7.143258811
 10
16.9588464165
 20
7.1360394159
 10
16.9469555655
 20
7.1286101121
 10
16.9352395897
 20
7.1209727066
 10
16.9237269741
 20
7.1131372774
 10
16.9124185685
 20
7.1051042281
 10
16.9013135231
 20
7.0968751156
 10
16.8904377737
 20
7.0884617872
 10
16.8797925527
 20
7.0798653806
 10
16.8693766277
 20
7.0710869518
 10
16.8592122383
 20
7.0621382453
 10
16.8493009155
 20
7.0530214834
 10
16.8396411283
 20
7.0437368515
 10
16.8302505233
 20
7.0342930588
 10
16.8211308684
 20
7.0246938856
 10
16.8122803958
 20
7.0149381811
 10
16.8037114483
 20
7.0050273172
 10
16.795426146
 20
6.9949676174
 10
16.7874223689
 20
6.9847556774
 10
16.7797060995
 20
6.9743784588
 10
16.7722801757
 20
6.963846208
 10
16.7651417598
 20
6.9531520806
 10
16.7582883208
 20
6.9422578601
 10
16.7517241962
 20
6.9311777598
 10
16.7454450486
 20
6.9199018903
 10
16.7394353349
 20
6.9083568418
 10
16.7336898741
 20
6.8965204408
 10
16.7282138472
 20
6.8844211182
 10
16.7230072542
 20
6.8720621275
  0
LWPOLYLINE
  5
624
100
AcDbEntity
  8
ASSI
100
AcDbPolyline
 62
7
  6
CONTINUOUS
 90
52
 70
0
 10
17.2761980241
 20
7.249310389
 10
17.2623628867
 20
7.2469905858
 10
17.2485588152
 20
7.2444753869
 10
17.2347858097
 20
7.2417647794
 10
17.2210428022
 20
7.2388620389
 10
17.2073308607
 20
7.2357639333
 10
17.193653189
 20
7.2324607272
 10
17.1800070562
 20
7.2289523391
 10
17.1663951933
 20
7.2252390503
 10
17.1528289959
 20
7.2213117216
 10
17.13930607
 20
7.2171697165
 10
17.1258288097
 20
7.212814062
 10
17.1124157935
 20
7.2082381817
 10
17.099065232
 20
7.2034415699
 10
17.0857789146
 20
7.1984253465
 10
17.0725807879
 20
7.193185457
 10
17.0594696558
 20
7.1877210534
 10
17.0464467143
 20
7.1820338528
 10
17.0335394981
 20
7.1761237394
 10
17.0207473737
 20
7.1699901459
 10
17.0080709747
 20
7.1636347825
 10
16.9955397359
 20
7.1570610391
 10
16.9831535642
 20
7.150268402
 10
16.9709125527
 20
7.143258811
 10
16.9588464165
 20
7.1360394159
 10
16.9469555655
 20
7.1286101121
 10
16.9352395897
 20
7.1209727066
 10
16.9237269741
 20
7.1131372774
 10
16.9124185685
 20
7.1051042281
 10
16.9013135231
 20
7.0968751156
 10
16.8904377737
 20
7.0884617872
 10
16.8797925527
 20
7.0798653806
 10
16.8693766277
 20
7.0710869518
 10
16.8592122383
 20
7.0621382453
 10
16.8493009155
 20
7.0530214834
 10
16.8396411283
 20
7.0437368515
 10
16.8302505233
 20
7.0342930588
 10
16.8211308684
 20
7.0246938856
 10
16.8122803958
 20
7.0149381811
 10
16.8037114483
 20
7.0050273172
 10
16.795426146
 20
6.9949676174
 10
16.7874223689
 20
6.9847556774
 10
16.7797060995
 20
6.9743784588
 10
16.7722801757
 20
6.963846208
 10
16.7651417598
 20
6.9531520806
 10
16.7582883208
 20
6.9422578601
 10
16.7517241962
 20
6.9311777598
 10
16.7454450486
 20
6.9199018903
 10
16.7394353349
 20
6.9083568418
 10
16.7336898741
 20
6.8965204408
 10
16.7282138472
 20
6.8844211182
 10
16.7230072542
 20
6.8720621275
  0
LWPOLYLINE
  5
625
100
AcDbEntity
  8
C_CORPO
100
AcDbPolyline
 62
7
  6
CONTINUOUS
 90
7
 70
0
 10
17.2761976202
 20
7.2493106413
 10
17.4288475099
 20
7.2740611198
 10
17.5789835823
 20
7.2987391896
 10
17.7266058374
 20
7.3233448507
 10
17.8717142752
 20
7.3478781029
 10
18.0143088957
 20
7.3723389465
 10
18.1543896989
 20
7.3967273812
  0
LWPOLYLINE
  5
626
100
AcDbEntity
  8
ASSI
100
AcDbPolyline
 62
7
  6
CONTINUOUS
 90
7
 70
0
 10
17.2761976202
 20
7.2493106413
 10
17.4288475099
 20
7.2740611198
 10
17.5789835823
 20
7.2987391896
 10
17.7266058374
 20
7.3233448507
 10
17.8717142752
 20
7.3478781029
 10
18.0143088957
 20
7.3723389465
 10
18.1543896989
 20
7.3967273812
  0
LWPOLYLINE
  5
627
100
AcDbEntity
  8
SCRITTE
100
AcDbPolyline
 62
250
  6
CONTINUOUS
 90
53
 70
0
 10
-4.4591418315
 20
4.8811317512
 10
-4.4935947614
 20
4.8807265353
 10
-4.5280441268
 20
4.8794752049
 10
-4.5624529142
 20
4.8773242353
 10
-4.5967841097
 20
4.8742201023
 10
-4.6310006996
 20
4.8701092815
 10
-4.6611680987
 20
4.865583308
 10
-4.6911868994
 20
4.8601690527
 10
-4.7210273474
 20
4.8538092632
 10
-4.7506596885
 20
4.8464466873
 10
-4.7800541686
 20
4.8380240728
 10
-4.8054093945
 20
4.8297936175
 10
-4.8305110008
 20
4.8207119179
 10
-4.8553079887
 20
4.8107736689
 10
-4.8797493593
 20
4.7999735653
 10
-4.9037841137
 20
4.7883063019
 10
-4.9273612529
 20
4.7757665734
 10
-4.9504297782
 20
4.7623490748
 10
-4.9729386905
 20
4.7480485009
 10
-4.994836991
 20
4.7328595464
 10
-5.0160736808
 20
4.7167769063
 10
-5.0352940039
 20
4.7009322567
 10
-5.0538836285
 20
4.6843418658
 10
-5.071834967
 20
4.6670460764
 10
-5.089140432
 20
4.6490852313
 10
-5.1057924358
 20
4.6304996733
 10
-5.1217833911
 20
4.6113297452
 10
-5.1371057103
 20
4.5916157899
 10
-5.1517518058
 20
4.5713981501
 10
-5.1657140902
 20
4.5507171687
 10
-5.178984976
 20
4.5296131885
 10
-5.1936391385
 20
4.5044230686
 10
-5.2073749437
 20
4.4787498724
 10
-5.2202317566
 20
4.4526348231
 10
-5.2322489425
 20
4.4261191442
 10
-5.2434658664
 20
4.3992440591
 10
-5.2539218936
 20
4.372050791
 10
-5.2636563892
 20
4.3445805633
 10
-5.2727087183
 20
4.3168745994
 10
-5.2811182462
 20
4.2889741227
 10
-5.2906641313
 20
4.2543159982
 10
-5.2993204541
 20
4.2194470655
 10
-5.3071172239
 20
4.184390113
 10
-5.3140844499
 20
4.1491679289
 10
-5.3202521412
 20
4.1138033018
 10
-5.325650307
 20
4.07831902
 10
-5.3303089567
 20
4.0427378718
 10
-5.3342580993
 20
4.0070826456
 10
-5.3383303503
 20
3.9615953774
 10
-5.3414969711
 20
3.916040991
 10
-5.3439545327
 20
3.8704355641
 10
-5.3458996063
 20
3.8247951747
 10
-5.3506256106
 20
3.6878250083
  0
LINE
  5
628
100
AcDbEntity
  8
0
100
AcDbLine
 62
250
  6
CONTINUOUS
 10
10.7495499394
 20
5.226755
 11
12.049153977
 21
5.226755
  0
LINE
  5
629
100
AcDbEntity
  8
SCRITTE
100
AcDbLine
 62
250
  6
CONTINUOUS
 10
-2.451066865
 20
5.270738
 11
-5.350625181
 21
5.270738
  0
LINE
  5
62A
100
AcDbEntity
  8
C_CORPO
100
AcDbLine
 62
250
  6
CONTINUOUS
 10
16.449153977
 20
5.709070283
 11
15.4666063834
 21
5.709070283
  0
LINE
  5
62B
100
AcDbEntity
  8
ASSI
100
AcDbLine
 62
250
  6
CONTINUOUS
 10
16.449153977
 20
5.709070283
 11
15.4666063834
 21
5.709070283
  0
LINE
  5
62C
100
AcDbEntity
  8
SCRITTE
100
AcDbLine
 62
250
  6
CONTINUOUS
 10
-5.350625181
 20
5.893344
 11
-2.9329254644
 21
5.893344
  0
LINE
  5
62D
100
AcDbEntity
  8
0
100
AcDbLine
 62
250
  6
CONTINUOUS
 10
7.1667242318
 20
6.06041
 11
7.9316077186
 21
6.06041
  0
LINE
  5
62E
100
AcDbEntity
  8
0
100
AcDbLine
 62
250
  6
CONTINUOUS
 10
5.0123344058
 20
6.57041
 11
5.7827430509
 21
6.57041
  0
LINE
  5
62F
100
AcDbEntity
  8
0
100
AcDbLine
 62
250
  6
CONTINUOUS
 10
9.3155888994
 20
6.57041
 11
10.0859975446
 21
6.57041
  0
LINE
  5
630
100
AcDbEntity
  8
SCRITTE
100
AcDbLine
 62
250
  6
CONTINUOUS
 10
-3.5474718518
 20
8.251061
 11
-4.7965505821
 21
8.681076
  0
LINE
  5
631
100
AcDbEntity
  8
SCRITTE
100
AcDbLine
 62
250
  6
CONTINUOUS
 10
-2.451066865
 20
7.873569
 11
-3.0656122525
 21
8.090417
  0
LINE
  5
632
100
AcDbEntity
  8
SCRITTE
100
AcDbLine
 62
250
  6
CONTINUOUS
 10
-5.350625181
 20
8.327454
 11
-2.451066865
 21
7.279119
  0
LINE
  5
633
100
AcDbEntity
  8
0
100
AcDbLine
 62
250
  6
CONTINUOUS
 10
10.7495499394
 20
2.425736
 11
12.049153977
 21
1.802869
  0
LINE
  5
634
100
AcDbEntity
  8
SCRITTE
100
AcDbLine
 62
250
  6
CONTINUOUS
 10
-0.6925127274
 20
11.69375
 11
-0.850846023
 21
11.93125
  0
LINE
  5
635
100
AcDbEntity
  8
SCRITTE
100
AcDbLine
 62
250
  6
CONTINUOUS
 10
-0.0591793186
 20
12.40625
 11
0.2574873292
 21
11.93125
  0
LWPOLYLINE
  5
636
100
AcDbEntity
  8
0
100
AcDbPolyline
 62
250
  6
CONTINUOUS
 90
17
 70
0
 10
5.7759764438
 20
1.7777612012
 10
5.849101926
 20
1.4371538339
 10
5.9900044074
 20
1.1117903147
 10
6.1924277414
 20
0.8207004877
 10
6.4483847788
 20
0.5753700736
 10
6.7422144392
 20
0.38828675
 10
7.0727815628
 20
0.2601732809
 10
7.4221456961
 20
0.1999363114
 10
7.7765217512
 20
0.2099526509
 10
8.1219268815
 20
0.2898270782
 10
8.4393380038
 20
0.4332907568
 10
8.7275288554
 20
0.6397894399
 10
8.969224276
 20
0.8991858607
 10
9.1548875321
 20
1.2012448461
 10
9.2756244028
 20
1.5280177193
 10
9.3309684421
 20
1.8782420502
 10
9.3155888993
 20
2.2354100011
  0
LWPOLYLINE
  5
637
100
AcDbEntity
  8
0
100
AcDbPolyline
 62
250
  6
CONTINUOUS
 90
42
 70
0
 10
9.524386243
 20
-9.737598426
 10
9.5249339491
 20
-9.7785054573
 10
9.5265758722
 20
-9.8194268554
 10
9.5293102192
 20
-9.8603271267
 10
9.5331351972
 20
-9.9011707774
 10
9.5380490133
 20
-9.941922314
 10
9.5440498746
 20
-9.9825462426
 10
9.5511359881
 20
-10.0230070697
 10
9.5593055608
 20
-10.0632693014
 10
9.5685567998
 20
-10.1032974442
 10
9.5788879121
 20
-10.1430560043
 10
9.5902971049
 20
-10.1825094881
 10
9.6035941661
 20
-10.2240512331
 10
9.61808843
 20
-10.265178285
 10
9.6337624037
 20
-10.3058603175
 10
9.6505985941
 20
-10.3460670041
 10
9.6685795082
 20
-10.3857680183
 10
9.687687653
 20
-10.4249330338
 10
9.7079055354
 20
-10.4635317241
 10
9.7292156624
 20
-10.5015337627
 10
9.7516005411
 20
-10.5389088234
 10
9.7750426784
 20
-10.5756265795
 10
9.7992331309
 20
-10.6112423699
 10
9.8244180135
 20
-10.6461616422
 10
9.8505760419
 20
-10.6803596035
 10
9.8776859319
 20
-10.7138114607
 10
9.9057263991
 20
-10.7464924207
 10
9.9346761594
 20
-10.7783776907
 10
9.9645139283
 20
-10.8094424776
 10
9.9952184218
 20
-10.8396619883
 10
10.0267683555
 20
-10.8690114299
 10
10.0591424451
 20
-10.8974660093
 10
10.0924623351
 20
-10.9251183198
 10
10.126557701
 20
-10.9518205735
 10
10.1613941937
 20
-10.9775503331
 10
10.1969374643
 20
-11.0022851614
 10
10.233153164
 20
-11.0260026211
 10
10.2700069439
 20
-11.048680275
 10
10.3074644549
 20
-11.0702956857
 10
10.3454913484
 20
-11.090826416
 10
10.3840532753
 20
-11.1102500287
 10
10.4231158867
 20
-11.1285440864
  0
LWPOLYLINE
  5
638
100
AcDbEntity
  8
0
100
AcDbPolyline
 62
7
  6
CONTINUOUS
 90
2
 70
0
 43
0.3500000006
 10
8.2848683853
 20
33.7064950562
 10
8.2848683853
 20
35.2064955139
  0
LINE
  5
639
100
AcDbEntity
  8
0
100
AcDbLine
 62
250
  6
CONTINUOUS
 10
9.0302971775
 20
9.407638
 11
9.0302971775
 21
13.592362
  0
LINE
  5
63A
100
AcDbEntity
  8
0
100
AcDbLine
 62
250
  6
CONTINUOUS
 10
10.049153977
 20
13.592362
 11
10.049153977
 21
9.407638
  0
LWPOLYLINE
  5
63B
100
AcDbEntity
  8
0
100
AcDbPolyline
 62
250
  6
CONTINUOUS
 90
7
 70
0
 10
10.0927029358
 20
6.1394873963
 10
10.0966225482
 20
6.2105865243
 10
10.0985557307
 20
6.2817673904
 10
10.0985009757
 20
6.3529744901
 10
10.0964583259
 20
6.4241522981
 10
10.0924293742
 20
6.4952453121
 10
10.0859975438
 20
6.5704100079
  0
LWPOLYLINE
  5
63C
100
AcDbEntity
  8
0
100
AcDbPolyline
 62
250
  6
CONTINUOUS
 90
7
 70
0
 10
10.0927029358
 20
1.8044873963
 10
10.0966225482
 20
1.8755865243
 10
10.0985557307
 20
1.9467673904
 10
10.0985009757
 20
2.0179744901
 10
10.0964583259
 20
2.0891522981
 10
10.0924293742
 20
2.1602453121
 10
10.0859975438
 20
2.2354100079
  0
LWPOLYLINE
  5
63D
100
AcDbEntity
  8
C_CORPO
100
AcDbPolyline
 62
7
  6
CONTINUOUS
 90
10
 70
0
 10
18.1753006998
 20
7.3987607656
 10
18.1730006982
 20
7.398698266
 10
18.1706952744
 20
7.3985951739
 10
18.1683845581
 20
7.3984514892
 10
18.1660696752
 20
7.3982675659
 10
18.163749765
 20
7.3980430501
 10
18.1614219766
 20
7.3977768799
 10
18.1590854478
 20
7.3974687014
 10
18.1567413091
 20
7.3971188685
 10
18.1543896989
 20
7.3967273812
  0
LWPOLYLINE
  5
63E
100
AcDbEntity
  8
ASSI
100
AcDbPolyline
 62
7
  6
CONTINUOUS
 90
10
 70
0
 10
18.1753006998
 20
7.3987607656
 10
18.1730006982
 20
7.398698266
 10
18.1706952744
 20
7.3985951739
 10
18.1683845581
 20
7.3984514892
 10
18.1660696752
 20
7.3982675659
 10
18.163749765
 20
7.3980430501
 10
18.1614219766
 20
7.3977768799
 10
18.1590854478
 20
7.3974687014
 10
18.1567413091
 20
7.3971188685
 10
18.1543896989
 20
7.3967273812
  0
LWPOLYLINE
  5
63F
100
AcDbEntity
  8
C_CORPO
100
AcDbPolyline
 62
7
  6
CONTINUOUS
 90
49
 70
0
 10
18.1753006998
 20
7.3987607656
 10
18.1846753417
 20
7.3989677124
 10
18.194008407
 20
7.3992363068
 10
18.2032907809
 20
7.399566549
 10
18.2125133779
 20
7.399958939
 10
18.2216673088
 20
7.4004129768
 10
18.2307438858
 20
7.400927162
 10
18.2397344039
 20
7.4015016403
 10
18.2486302012
 20
7.4021362661
 10
18.257422821
 20
7.4028291022
 10
18.2661039134
 20
7.4035802917
 10
18.2746652155
 20
7.4043896914
 10
18.2830986079
 20
7.4052549347
 10
18.2913961665
 20
7.4061761604
 10
18.2995500976
 20
7.4071532297
 10
18.3075527212
 20
7.40818336
 10
18.3153966085
 20
7.4092666837
 10
18.3230744979
 20
7.4104030684
 10
18.3305792388
 20
7.4115893336
 10
18.3379039583
 20
7.4128256039
 10
18.3450419862
 20
7.4141117546
 10
18.3519867841
 20
7.4154442316
 10
18.3587320914
 20
7.41682315
 10
18.3652718777
 20
7.4182483947
 10
18.3716002823
 20
7.4197160653
 10
18.3777117033
 20
7.4212262669
 10
18.3836007908
 20
7.4227788945
 10
18.3892624091
 20
7.4243697326
 10
18.3946916521
 20
7.425998875
 10
18.3998838822
 20
7.4276662279
 10
18.4048347218
 20
7.4293672941
 10
18.4095399889
 20
7.4311021559
 10
18.4139957794
 20
7.4328707309
 10
18.4181984896
 20
7.4346682745
 10
18.42214468
 20
7.4364948578
 10
18.425831193
 20
7.4383504097
 10
18.429255198
 20
7.440229972
 10
18.4324140073
 20
7.4421336043
 10
18.4353052156
 20
7.4440612471
 10
18.4379267556
 20
7.4460077633
 10
18.4402766937
 20
7.4479732017
 10
18.4423533742
 20
7.4499575136
 10
18.4441554718
 20
7.4519554157
 10
18.4456818014
 20
7.4539669464
 10
18.4469314502
 20
7.4559920673
 10
18.4479038072
 20
7.4580253807
 10
18.4485984381
 20
7.4600650872
 10
18.4490151368
 20
7.4621129861
 10
18.449153977
 20
7.4641690774
  0
LWPOLYLINE
  5
640
100
AcDbEntity
  8
ASSI
100
AcDbPolyline
 62
7
  6
CONTINUOUS
 90
49
 70
0
 10
18.1753006998
 20
7.3987607656
 10
18.1846753417
 20
7.3989677124
 10
18.194008407
 20
7.3992363068
 10
18.2032907809
 20
7.399566549
 10
18.2125133779
 20
7.399958939
 10
18.2216673088
 20
7.4004129768
 10
18.2307438858
 20
7.400927162
 10
18.2397344039
 20
7.4015016403
 10
18.2486302012
 20
7.4021362661
 10
18.257422821
 20
7.4028291022
 10
18.2661039134
 20
7.4035802917
 10
18.2746652155
 20
7.4043896914
 10
18.2830986079
 20
7.4052549347
 10
18.2913961665
 20
7.4061761604
 10
18.2995500976
 20
7.4071532297
 10
18.3075527212
 20
7.40818336
 10
18.3153966085
 20
7.4092666837
 10
18.3230744979
 20
7.4104030684
 10
18.3305792388
 20
7.4115893336
 10
18.3379039583
 20
7.4128256039
 10
18.3450419862
 20
7.4141117546
 10
18.3519867841
 20
7.4154442316
 10
18.3587320914
 20
7.41682315
 10
18.3652718777
 20
7.4182483947
 10
18.3716002823
 20
7.4197160653
 10
18.3777117033
 20
7.4212262669
 10
18.3836007908
 20
7.4227788945
 10
18.3892624091
 20
7.4243697326
 10
18.3946916521
 20
7.425998875
 10
18.3998838822
 20
7.4276662279
 10
18.4048347218
 20
7.4293672941
 10
18.4095399889
 20
7.4311021559
 10
18.4139957794
 20
7.4328707309
 10
18.4181984896
 20
7.4346682745
 10
18.42214468
 20
7.4364948578
 10
18.425831193
 20
7.4383504097
 10
18.429255198
 20
7.440229972
 10
18.4324140073
 20
7.4421336043
 10
18.4353052156
 20
7.4440612471
 10
18.4379267556
 20
7.4460077633
 10
18.4402766937
 20
7.4479732017
 10
18.4423533742
 20
7.4499575136
 10
18.4441554718
 20
7.4519554157
 10
18.4456818014
 20
7.4539669464
 10
18.4469314502
 20
7.4559920673
 10
18.4479038072
 20
7.4580253807
 10
18.4485984381
 20
7.4600650872
 10
18.4490151368
 20
7.4621129861
 10
18.449153977
 20
7.4641690774
  0
LINE
  5
641
100
AcDbEntity
  8
SCRITTE
100
AcDbLine
 62
250
  6
CONTINUOUS
 10
-2.9329254644
 20
6.966343
 11
-2.451066865
 21
6.966343
  0
LINE
  5
642
100
AcDbEntity
  8
0
100
AcDbLine
 62
250
  6
CONTINUOUS
 10
10.7495499394
 20
7.034728
 11
12.049153977
 21
7.034728
  0
LINE
  5
643
100
AcDbEntity
  8
0
100
AcDbLine
 62
250
  6
CONTINUOUS
 10
10.7495499394
 20
7.423056
 11
12.049153977
 21
7.423056
  0
LINE
  5
644
100
AcDbEntity
  8
SCRITTE
100
AcDbLine
 62
250
  6
CONTINUOUS
 10
1.049153977
 20
8.25
 11
-0.850846023
 21
8.25
  0
LINE
  5
645
100
AcDbEntity
  8
0
100
AcDbLine
 62
250
  6
CONTINUOUS
 10
10.7495499394
 20
8.455181
 11
12.049153977
 21
8.455181
  0
LINE
  5
646
100
AcDbEntity
  8
0
100
AcDbLine
 62
250
  6
CONTINUOUS
 10
10.7495499394
 20
3.16989
 11
12.049153977
 21
2.599557
  0
LINE
  5
647
100
AcDbEntity
  8
SCRITTE
100
AcDbLine
 62
250
  6
CONTINUOUS
 10
0.574153977
 20
9.675
 11
-0.850846023
 21
10.50625
  0
LINE
  5
648
100
AcDbEntity
  8
SCRITTE
100
AcDbLine
 62
250
  6
CONTINUOUS
 10
-0.5341793186
 20
11.575
 11
-0.6925127274
 21
11.69375
  0
LINE
  5
649
100
AcDbEntity
  8
SCRITTE
100
AcDbLine
 62
250
  6
CONTINUOUS
 10
-0.2175127274
 20
15.73125
 11
-0.0591793186
 21
15.49375
  0
LINE
  5
64A
100
AcDbEntity
  8
SCRITTE
100
AcDbLine
 62
250
  6
CONTINUOUS
 10
1.049153977
 20
15.96875
 11
0.8908206389
 21
16.20625
  0
LINE
  5
64B
100
AcDbEntity
  8
0
100
AcDbLine
 62
250
  6
CONTINUOUS
 10
10.7495499394
 20
6.173742
 11
10.7495499394
 21
5.226755
  0
LINE
  5
64C
100
AcDbEntity
  8
0
100
AcDbLine
 62
250
  6
CONTINUOUS
 10
10.7495499394
 20
4.340243
 11
10.7495499394
 21
3.910407
  0
LINE
  5
64D
100
AcDbEntity
  8
0
100
AcDbLine
 62
250
  6
CONTINUOUS
 10
10.7495499394
 20
9.624855
 11
10.7495499394
 21
10.680447
  0
LINE
  5
64E
100
AcDbEntity
  8
0
100
AcDbLine
 62
250
  6
CONTINUOUS
 10
11.3993519582
 20
5.226755
 11
11.3993519582
 21
6.107346
  0
LINE
  5
64F
100
AcDbEntity
  8
0
100
AcDbLine
 62
250
  6
CONTINUOUS
 10
11.5774566934
 20
10.956284
 11
11.5774566934
 21
11.682941
  0
LINE
  5
650
100
AcDbEntity
  8
0
100
AcDbLine
 62
250
  6
CONTINUOUS
 10
11.584895427
 20
2.803298
 11
11.584895427
 21
3.536483
  0
LINE
  5
651
100
AcDbEntity
  8
0
100
AcDbLine
 62
250
  6
CONTINUOUS
 10
12.049153977
 20
3.910407
 11
12.049153977
 21
4.340243
  0
LINE
  5
652
100
AcDbEntity
  8
0
100
AcDbLine
 62
250
  6
CONTINUOUS
 10
12.049153977
 20
5.226755
 11
12.049153977
 21
6.186432
  0
LINE
  5
653
100
AcDbEntity
  8
0
100
AcDbLine
 62
250
  6
CONTINUOUS
 10
12.049153977
 20
12.138918
 11
12.049153977
 21
12.885852
  0
LWPOLYLINE
  5
654
100
AcDbEntity
  8
C_COPERCHIO
100
AcDbPolyline
 62
250
  6
CONTINUOUS
 90
5
 70
0
 10
-0.9710076646
 20
-23.2444791825
 10
-0.9862522262
 20
-23.2683019054
 10
-1.0053782746
 20
-23.2913714976
 10
-1.028013262
 20
-23.3131697211
 10
-1.0537711117
 20
-23.3336025571
  0
LINE
  5
655
100
AcDbEntity
  8
C_CORPO
100
AcDbLine
 62
7
  6
CONTINUOUS
 10
2.8223931823
 20
-15.4108719557
 11
2.8519282764
 21
-15.367819644
  0
LINE
  5
656
100
AcDbEntity
  8
ASSI
100
AcDbLine
 62
7
  6
CONTINUOUS
 10
2.8223931823
 20
-15.4108719557
 11
2.8519282764
 21
-15.367819644
  0
LINE
  5
657
100
AcDbEntity
  8
C_CORPO
100
AcDbLine
 62
7
  6
CONTINUOUS
 10
2.8519282764
 20
-15.367819644
 11
2.8815144729
 21
-15.3252777838
  0
LINE
  5
658
100
AcDbEntity
  8
ASSI
100
AcDbLine
 62
7
  6
CONTINUOUS
 10
2.8519282764
 20
-15.367819644
 11
2.8815144729
 21
-15.3252777838
  0
LWPOLYLINE
  5
659
100
AcDbEntity
  8
C_CORPO
100
AcDbPolyline
 62
7
  6
CONTINUOUS
 90
3
 70
0
 10
2.8815144729
 20
-15.3252777838
 10
2.9257397272
 20
-15.2623322867
 10
2.9404278045
 20
-15.2415770883
  0
LWPOLYLINE
  5
65A
100
AcDbEntity
  8
ASSI
100
AcDbPolyline
 62
7
  6
CONTINUOUS
 90
3
 70
0
 10
2.8815144729
 20
-15.3252777838
 10
2.9257397272
 20
-15.2623322867
 10
2.9404278045
 20
-15.2415770883
  0
LINE
  5
65B
100
AcDbEntity
  8
SCRITTE
100
AcDbLine
 62
250
  6
CONTINUOUS
 10
-3.4623018256
 20
-10.523771
 11
-5.3506831721
 21
-11.065339
  0
LINE
  5
65C
100
AcDbEntity
  8
SCRITTE
100
AcDbLine
 62
250
  6
CONTINUOUS
 10
-4.363144602
 20
-11.362154
 11
-2.4509938761
 21
-10.813778
  0
LINE
  5
65D
100
AcDbEntity
  8
0
100
AcDbLine
 62
250
  6
CONTINUOUS
 10
3.8583920037
 20
10.431124
 11
7.2201009211
 21
10.725174
  0
LINE
  5
65E
100
AcDbEntity
  8
0
100
AcDbLine
 62
250
  6
CONTINUOUS
 10
10.7495499394
 20
9.348712
 11
12.049153977
 21
9.348712
  0
LINE
  5
65F
100
AcDbEntity
  8
0
100
AcDbLine
 62
250
  6
CONTINUOUS
 10
10.049153977
 20
9.407638
 11
9.0302971775
 21
9.407638
  0
LINE
  5
660
100
AcDbEntity
  8
0
100
AcDbLine
 62
250
  6
CONTINUOUS
 10
12.049153977
 20
10.152652
 11
10.7495499394
 21
10.152652
  0
LINE
  5
661
100
AcDbEntity
  8
SCRITTE
100
AcDbLine
 62
250
  6
CONTINUOUS
 10
-2.451066865
 20
10.39193
 11
-5.350625181
 21
10.39193
  0
LINE
  5
662
100
AcDbEntity
  8
SCRITTE
100
AcDbLine
 62
250
  6
CONTINUOUS
 10
-0.850846023
 20
10.50625
 11
1.049153977
 21
10.50625
  0
LINE
  5
663
100
AcDbEntity
  8
0
100
AcDbLine
 62
250
  6
CONTINUOUS
 10
3.8583920037
 20
10.718216
 11
3.4638341059
 21
10.718216
  0
LINE
  5
664
100
AcDbEntity
  8
0
100
AcDbLine
 62
250
  6
CONTINUOUS
 10
7.4165190011
 20
10.781883
 11
7.2201009211
 21
10.781883
  0
LWPOLYLINE
  5
665
100
AcDbEntity
  8
C_CORPO
100
AcDbPolyline
 62
7
  6
CONTINUOUS
 90
49
 70
0
 10
18.1753006998
 20
9.8012392344
 10
18.1846753417
 20
9.8010322876
 10
18.194008407
 20
9.8007636932
 10
18.2032907809
 20
9.800433451
 10
18.2125133779
 20
9.800041061
 10
18.2216673088
 20
9.7995870232
 10
18.2307438858
 20
9.799072838
 10
18.2397344039
 20
9.7984983597
 10
18.2486302012
 20
9.7978637339
 10
18.257422821
 20
9.7971708978
 10
18.2661039134
 20
9.7964197083
 10
18.2746652155
 20
9.7956103086
 10
18.2830986079
 20
9.7947450653
 10
18.2913961665
 20
9.7938238396
 10
18.2995500976
 20
9.7928467703
 10
18.3075527212
 20
9.79181664
 10
18.3153966085
 20
9.7907333163
 10
18.3230744979
 20
9.7895969316
 10
18.3305792388
 20
9.7884106664
 10
18.3379039583
 20
9.7871743961
 10
18.3450419862
 20
9.7858882454
 10
18.3519867841
 20
9.7845557684
 10
18.3587320914
 20
9.78317685
 10
18.3652718777
 20
9.7817516053
 10
18.3716002823
 20
9.7802839347
 10
18.3777117033
 20
9.7787737331
 10
18.3836007908
 20
9.7772211055
 10
18.3892624091
 20
9.7756302674
 10
18.3946916521
 20
9.774001125
 10
18.3998838822
 20
9.7723337721
 10
18.4048347218
 20
9.7706327059
 10
18.4095399889
 20
9.7688978441
 10
18.4139957794
 20
9.7671292691
 10
18.4181984896
 20
9.7653317255
 10
18.42214468
 20
9.7635051422
 10
18.425831193
 20
9.7616495903
 10
18.429255198
 20
9.759770028
 10
18.4324140073
 20
9.7578663957
 10
18.4353052156
 20
9.7559387529
 10
18.4379267556
 20
9.7539922367
 10
18.4402766937
 20
9.7520267983
 10
18.4423533742
 20
9.7500424864
 10
18.4441554718
 20
9.7480445843
 10
18.4456818014
 20
9.7460330536
 10
18.4469314502
 20
9.7440079327
 10
18.4479038072
 20
9.7419746193
 10
18.4485984381
 20
9.7399349128
 10
18.4490151368
 20
9.7378870139
 10
18.449153977
 20
9.7358309226
  0
LWPOLYLINE
  5
666
100
AcDbEntity
  8
ASSI
100
AcDbPolyline
 62
7
  6
CONTINUOUS
 90
49
 70
0
 10
18.1753006998
 20
9.8012392344
 10
18.1846753417
 20
9.8010322876
 10
18.194008407
 20
9.8007636932
 10
18.2032907809
 20
9.800433451
 10
18.2125133779
 20
9.800041061
 10
18.2216673088
 20
9.7995870232
 10
18.2307438858
 20
9.799072838
 10
18.2397344039
 20
9.7984983597
 10
18.2486302012
 20
9.7978637339
 10
18.257422821
 20
9.7971708978
 10
18.2661039134
 20
9.7964197083
 10
18.2746652155
 20
9.7956103086
 10
18.2830986079
 20
9.7947450653
 10
18.2913961665
 20
9.7938238396
 10
18.2995500976
 20
9.7928467703
 10
18.3075527212
 20
9.79181664
 10
18.3153966085
 20
9.7907333163
 10
18.3230744979
 20
9.7895969316
 10
18.3305792388
 20
9.7884106664
 10
18.3379039583
 20
9.7871743961
 10
18.3450419862
 20
9.7858882454
 10
18.3519867841
 20
9.7845557684
 10
18.3587320914
 20
9.78317685
 10
18.3652718777
 20
9.7817516053
 10
18.3716002823
 20
9.7802839347
 10
18.3777117033
 20
9.7787737331
 10
18.3836007908
 20
9.7772211055
 10
18.3892624091
 20
9.7756302674
 10
18.3946916521
 20
9.774001125
 10
18.3998838822
 20
9.7723337721
 10
18.4048347218
 20
9.7706327059
 10
18.4095399889
 20
9.7688978441
 10
18.4139957794
 20
9.7671292691
 10
18.4181984896
 20
9.7653317255
 10
18.42214468
 20
9.7635051422
 10
18.425831193
 20
9.7616495903
 10
18.429255198
 20
9.759770028
 10
18.4324140073
 20
9.7578663957
 10
18.4353052156
 20
9.7559387529
 10
18.4379267556
 20
9.7539922367
 10
18.4402766937
 20
9.7520267983
 10
18.4423533742
 20
9.7500424864
 10
18.4441554718
 20
9.7480445843
 10
18.4456818014
 20
9.7460330536
 10
18.4469314502
 20
9.7440079327
 10
18.4479038072
 20
9.7419746193
 10
18.4485984381
 20
9.7399349128
 10
18.4490151368
 20
9.7378870139
 10
18.449153977
 20
9.7358309226
  0
LWPOLYLINE
  5
667
100
AcDbEntity
  8
C_CORPO
100
AcDbPolyline
 62
7
  6
CONTINUOUS
 90
10
 70
0
 10
18.1753006998
 20
9.8012392344
 10
18.1730006982
 20
9.801301734
 10
18.1706952744
 20
9.8014048261
 10
18.1683845581
 20
9.8015485108
 10
18.1660696752
 20
9.8017324341
 10
18.163749765
 20
9.8019569499
 10
18.1614219766
 20
9.8022231201
 10
18.1590854478
 20
9.8025312986
 10
18.1567413091
 20
9.8028811315
 10
18.1543896989
 20
9.8032726188
  0
LWPOLYLINE
  5
668
100
AcDbEntity
  8
ASSI
100
AcDbPolyline
 62
7
  6
CONTINUOUS
 90
10
 70
0
 10
18.1753006998
 20
9.8012392344
 10
18.1730006982
 20
9.801301734
 10
18.1706952744
 20
9.8014048261
 10
18.1683845581
 20
9.8015485108
 10
18.1660696752
 20
9.8017324341
 10
18.163749765
 20
9.8019569499
 10
18.1614219766
 20
9.8022231201
 10
18.1590854478
 20
9.8025312986
 10
18.1567413091
 20
9.8028811315
 10
18.1543896989
 20
9.8032726188
  0
LINE
  5
669
100
AcDbEntity
  8
SCRITTE
100
AcDbLine
 62
250
  6
CONTINUOUS
 10
0.2574873292
 20
11.93125
 11
0.574153977
 21
11.69375
  0
LINE
  5
66A
100
AcDbEntity
  8
SCRITTE
100
AcDbLine
 62
250
  6
CONTINUOUS
 10
-0.2175127274
 20
12.525
 11
-0.0591793186
 21
12.40625
  0
LINE
  5
66B
100
AcDbEntity
  8
C_CORPO
100
AcDbLine
 62
7
  6
CONTINUOUS
 10
2.9404278045
 20
15.2415770883
 11
2.8962893593
 21
15.3041849571
  0
LINE
  5
66C
100
AcDbEntity
  8
ASSI
100
AcDbLine
 62
7
  6
CONTINUOUS
 10
2.9404278045
 20
15.2415770883
 11
2.8962893593
 21
15.3041849571
  0
LINE
  5
66D
100
AcDbEntity
  8
C_CORPO
100
AcDbLine
 62
7
  6
CONTINUOUS
 10
2.8962893593
 20
15.3041849571
 11
2.8667148481
 21
15.3464847028
  0
LINE
  5
66E
100
AcDbEntity
  8
ASSI
100
AcDbLine
 62
7
  6
CONTINUOUS
 10
2.8962893593
 20
15.3041849571
 11
2.8667148481
 21
15.3464847028
  0
LWPOLYLINE
  5
66F
100
AcDbEntity
  8
C_CORPO
100
AcDbPolyline
 62
7
  6
CONTINUOUS
 90
40
 70
0
 10
2.8667148481
 20
15.3464847028
 10
2.8371542028
 20
15.3892817887
 10
2.8223931819
 20
15.4108719562
 10
2.8076846639
 20
15.4326065459
 10
2.7930279608
 20
15.4544850971
 10
2.7784237606
 20
15.4765080704
 10
2.7639135766
 20
15.4986932461
 10
2.7494964719
 20
15.5210403138
 10
2.7351733834
 20
15.543549584
 10
2.7209886357
 20
15.5662397682
 10
2.7069410197
 20
15.5891108906
 10
2.6930317444
 20
15.612162927
 10
2.6793087614
 20
15.6354145162
 10
2.6657706013
 20
15.6588658922
 10
2.6524187335
 20
15.6825168211
 10
2.6393055173
 20
15.7063852393
 10
2.6264291521
 20
15.7304717245
 10
2.6137914385
 20
15.7547756991
 10
2.6014501377
 20
15.779313367
 10
2.5894030917
 20
15.8040856776
 10
2.5776524586
 20
15.8290916816
 10
2.5662624737
 20
15.854344735
 10
2.5552305788
 20
15.8798462046
 10
2.5445593323
 20
15.9055947237
 10
2.5343206443
 20
15.9315995478
 10
2.5245114631
 20
15.9578626823
 10
2.5151348404
 20
15.9843821219
 10
2.5062718429
 20
16.0111611062
 10
2.4979188935
 20
16.0382023667
 10
2.4900795692
 20
16.0655031719
 10
2.4828456671
 20
16.0930585673
 10
2.4762129574
 20
16.1208723828
 10
2.4701856699
 20
16.1489407887
 10
2.4648682914
 20
16.1772473411
 10
2.4602559141
 20
16.2057973878
 10
2.4563534459
 20
16.2345855812
 10
2.4532800971
 20
16.2635794349
 10
2.4510756044
 20
16.2927681203
 10
2.449700231
 20
16.322162466
 10
2.449153977
 20
16.3517624721
  0
LWPOLYLINE
  5
670
100
AcDbEntity
  8
ASSI
100
AcDbPolyline
 62
7
  6
CONTINUOUS
 90
40
 70
0
 10
2.8667148481
 20
15.3464847028
 10
2.8371542028
 20
15.3892817887
 10
2.8223931819
 20
15.4108719562
 10
2.8076846639
 20
15.4326065459
 10
2.7930279608
 20
15.4544850971
 10
2.7784237606
 20
15.4765080704
 10
2.7639135766
 20
15.4986932461
 10
2.7494964719
 20
15.5210403138
 10
2.7351733834
 20
15.543549584
 10
2.7209886357
 20
15.5662397682
 10
2.7069410197
 20
15.5891108906
 10
2.6930317444
 20
15.612162927
 10
2.6793087614
 20
15.6354145162
 10
2.6657706013
 20
15.6588658922
 10
2.6524187335
 20
15.6825168211
 10
2.6393055173
 20
15.7063852393
 10
2.6264291521
 20
15.7304717245
 10
2.6137914385
 20
15.7547756991
 10
2.6014501377
 20
15.779313367
 10
2.5894030917
 20
15.8040856776
 10
2.5776524586
 20
15.8290916816
 10
2.5662624737
 20
15.854344735
 10
2.5552305788
 20
15.8798462046
 10
2.5445593323
 20
15.9055947237
 10
2.5343206443
 20
15.9315995478
 10
2.5245114631
 20
15.9578626823
 10
2.5151348404
 20
15.9843821219
 10
2.5062718429
 20
16.0111611062
 10
2.4979188935
 20
16.0382023667
 10
2.4900795692
 20
16.0655031719
 10
2.4828456671
 20
16.0930585673
 10
2.4762129574
 20
16.1208723828
 10
2.4701856699
 20
16.1489407887
 10
2.4648682914
 20
16.1772473411
 10
2.4602559141
 20
16.2057973878
 10
2.4563534459
 20
16.2345855812
 10
2.4532800971
 20
16.2635794349
 10
2.4510756044
 20
16.2927681203
 10
2.449700231
 20
16.322162466
 10
2.449153977
 20
16.3517624721
  0
LINE
  5
671
100
AcDbEntity
  8
0
100
AcDbLine
 62
250
  6
CONTINUOUS
 10
14.0986894472
 20
-12.7875984252
 11
14.0986894472
 21
-11.7709324885
  0
LWPOLYLINE
  5
672
100
AcDbEntity
  8
0
100
AcDbPolyline
 62
250
  6
CONTINUOUS
 90
32
 70
0
 10
13.0821772593
 20
-9.737598426
 10
13.0816738948
 20
-9.7827465125
 10
13.0801650872
 20
-9.8279186531
 10
13.0776527654
 20
-9.8730887934
 10
13.0741388584
 20
-9.9182308789
 10
13.0696252952
 20
-9.9633188552
 10
13.0641140045
 20
-10.0083266679
 10
13.0576069154
 20
-10.0532282625
 10
13.0501059568
 20
-10.0979975846
 10
13.0416130576
 20
-10.1426085798
 10
13.0321301467
 20
-10.1870351936
 10
13.0216591531
 20
-10.2312513717
 10
13.0102020057
 20
-10.2752310596
 10
12.9977606335
 20
-10.3189482028
 10
12.9843369652
 20
-10.362376747
 10
12.96993293
 20
-10.4054906377
 10
12.9545504566
 20
-10.4482638204
 10
12.9376986631
 20
-10.4919109588
 10
12.9198288091
 20
-10.5351468957
 10
12.9009575496
 20
-10.5779490535
 10
12.8811015394
 20
-10.6202948545
 10
12.8602774335
 20
-10.6621617211
 10
12.8385018868
 20
-10.7035270755
 10
12.8157915542
 20
-10.7443683401
 10
12.7921630907
 20
-10.7846629372
 10
12.7676331511
 20
-10.8243882891
 10
12.7422183904
 20
-10.8635218181
 10
12.7159354635
 20
-10.9020409466
 10
12.6888010253
 20
-10.9399230969
 10
12.6608317307
 20
-10.9771456912
 10
12.6320442347
 20
-11.013686152
 10
12.6024551921
 20
-11.0495219014
  0
LWPOLYLINE
  5
673
100
AcDbEntity
  8
0
100
AcDbPolyline
 62
250
  6
CONTINUOUS
 90
33
 70
0
 10
9.9257239718
 20
-8.706426788
 10
9.9024314278
 20
-8.7323575518
 10
9.8797397448
 20
-8.7588102071
 10
9.8576594369
 20
-8.7857711558
 10
9.8362010178
 20
-8.8132267993
 10
9.8153750016
 20
-8.8411635396
 10
9.7951919021
 20
-8.8695677782
 10
9.7756622333
 20
-8.8984259168
 10
9.7567965092
 20
-8.9277243572
 10
9.7386052435
 20
-8.957449501
 10
9.7210989504
 20
-8.98758775
 10
9.7042881436
 20
-9.0181255058
 10
9.6881833371
 20
-9.0490491701
 10
9.6727950449
 20
-9.0803451447
 10
9.6581337808
 20
-9.1119998312
 10
9.6442100589
 20
-9.1439996313
 10
9.6306721404
 20
-9.1772466691
 10
9.6179284841
 20
-9.2108205871
 10
9.6059824739
 20
-9.2446977726
 10
9.594837494
 20
-9.2788546132
 10
9.5844969283
 20
-9.3132674962
 10
9.5749641609
 20
-9.3479128091
 10
9.5662425759
 20
-9.3827669393
 10
9.5583355572
 20
-9.4178062742
 10
9.5512464889
 20
-9.4530072012
 10
9.5449787551
 20
-9.4883461078
 10
9.5395357398
 20
-9.5237993814
 10
9.5349208271
 20
-9.5593434094
 10
9.5311374009
 20
-9.5949545793
 10
9.5281888454
 20
-9.6306092785
 10
9.5260785446
 20
-9.6662838944
 10
9.5248098824
 20
-9.7019548144
 10
9.524386243
 20
-9.737598426
  0
LINE
  5
674
100
AcDbEntity
  8
SCRITTE
100
AcDbLine
 62
250
  6
CONTINUOUS
 10
-3.3540903092
 20
-14.71003
 11
-5.3506831721
 21
-15.351162
  0
LWPOLYLINE
  5
675
100
AcDbEntity
  8
0
100
AcDbPolyline
 62
250
  6
CONTINUOUS
 90
17
 70
0
 10
7.0989753719
 20
12.047108
 10
7.1606532527
 20
12.0531564903
 10
7.2199818422
 20
12.0710715761
 10
7.2747013329
 20
12.1001708773
 10
7.3235126255
 20
12.1401285431
 10
7.3628491961
 20
12.1880249629
 10
7.3921348948
 20
12.2426508799
 10
7.4102542383
 20
12.30192561
 10
7.4165190011
 20
12.3647
 10
7.410471432
 20
12.4263872761
 10
7.3925590748
 20
12.485724903
 10
7.3634642055
 20
12.5404527289
 10
7.3235126255
 20
12.5892714569
 10
7.2756235006
 20
12.6286140196
 10
7.2210059034
 20
12.6579041793
 10
7.1617402011
 20
12.6760262829
 10
7.0989753442
 20
12.682292
  0
LWPOLYLINE
  5
676
100
AcDbEntity
  8
0
100
AcDbPolyline
 62
250
  6
CONTINUOUS
 90
17
 70
0
 10
7.0989753719
 20
12.22419
 10
7.1262630839
 20
12.2268659911
 10
7.1525114155
 20
12.2347920368
 10
7.1767205757
 20
12.2476662365
 10
7.1983158134
 20
12.2653444262
 10
7.2157192164
 20
12.2865349031
 10
7.2286758825
 20
12.3107026642
 10
7.2366922965
 20
12.3369271671
 10
7.2394639716
 20
12.3647
 10
7.236788388
 20
12.3919918687
 10
7.2288635495
 20
12.4182441986
 10
7.2159913107
 20
12.4424570466
 10
7.1983158134
 20
12.4640555738
 10
7.1771285639
 20
12.4814616278
 10
7.1529644837
 20
12.4944202676
 10
7.1267439749
 20
12.5024379027
 10
7.0989753597
 20
12.50521
  0
LWPOLYLINE
  5
677
100
AcDbEntity
  8
0
100
AcDbPolyline
 62
250
  6
CONTINUOUS
 90
17
 70
0
 10
7.0989753719
 20
12.50521
 10
7.0716876599
 20
12.5025340089
 10
7.0454393284
 20
12.4946079632
 10
7.0212301681
 20
12.4817337635
 10
6.9996349304
 20
12.4640555738
 10
6.9822315275
 20
12.4428650969
 10
6.9692748614
 20
12.4186973358
 10
6.9612584473
 20
12.3924728329
 10
6.9584867723
 20
12.3647
 10
6.9611623558
 20
12.3374081313
 10
6.9690871944
 20
12.3111558014
 10
6.9819594332
 20
12.2869429534
 10
6.9996349304
 20
12.2653444262
 10
7.0208221799
 20
12.2479383722
 10
7.0449862602
 20
12.2349797324
 10
7.071206769
 20
12.2269620973
 10
7.0989753842
 20
12.22419
  0
LWPOLYLINE
  5
678
100
AcDbEntity
  8
0
100
AcDbPolyline
 62
250
  6
CONTINUOUS
 90
17
 70
0
 10
7.0989753719
 20
12.682292
 10
7.0372974911
 20
12.6762435097
 10
6.9779689016
 20
12.6583284239
 10
6.923249411
 20
12.6292291227
 10
6.8744381184
 20
12.5892714569
 10
6.8351015478
 20
12.5413750371
 10
6.8058158491
 20
12.4867491201
 10
6.7876965055
 20
12.42747439
 10
6.7814317427
 20
12.3647
 10
6.7874793118
 20
12.3030127239
 10
6.8053916691
 20
12.243675097
 10
6.8344865383
 20
12.1889472711
 10
6.8744381184
 20
12.1401285431
 10
6.9223272433
 20
12.1007859804
 10
6.9769448405
 20
12.0714958207
 10
7.0362105427
 20
12.0533737171
 10
7.0989753997
 20
12.047108
  0
LWPOLYLINE
  5
679
100
AcDbEntity
  8
0
100
AcDbPolyline
 62
250
  6
CONTINUOUS
 90
17
 70
0
 10
3.753930916
 20
12.597331
 10
3.7913312587
 20
12.6009986943
 10
3.827307034
 20
12.6118620758
 10
3.8604879357
 20
12.6295073616
 10
3.8900862139
 20
12.6537369619
 10
3.9139391933
 20
12.6827804778
 10
3.9316975072
 20
12.7159046382
 10
3.9426847469
 20
12.7518477541
 10
3.9464835848
 20
12.789913
 10
3.9428164492
 20
12.8273190398
 10
3.9319547222
 20
12.8633002952
 10
3.9143121238
 20
12.8964862513
 10
3.8900862139
 20
12.9260890381
 10
3.8610471214
 20
12.9499456511
 10
3.827928006
 20
12.96770667
 10
3.7919903644
 20
12.9786955834
 10
3.7539308992
 20
12.982495
  0
LWPOLYLINE
  5
67A
100
AcDbEntity
  8
0
100
AcDbPolyline
 62
250
  6
CONTINUOUS
 90
17
 70
0
 10
3.753930916
 20
12.982495
 10
3.7165305733
 20
12.9788273057
 10
3.680554798
 20
12.9679639242
 10
3.6473738963
 20
12.9503186384
 10
3.6177756182
 20
12.9260890381
 10
3.5939226387
 20
12.8970455222
 10
3.5761643248
 20
12.8639213618
 10
3.5651770852
 20
12.8279782459
 10
3.5613782472
 20
12.789913
 10
3.5650453829
 20
12.7525069602
 10
3.5759071098
 20
12.7165257048
 10
3.5935497082
 20
12.6833397487
 10
3.6177756182
 20
12.6537369619
 10
3.6468147106
 20
12.6298803489
 10
3.679933826
 20
12.61211933
 10
3.7158714676
 20
12.6011304166
 10
3.7539309328
 20
12.597331
  0
LINE
  5
67B
100
AcDbEntity
  8
C_CORPO
100
AcDbLine
 62
250
  6
CONTINUOUS
 10
16.449153977
 20
11.490929717
 11
16.4487826742
 21
11.4909244992
  0
LINE
  5
67C
100
AcDbEntity
  8
ASSI
100
AcDbLine
 62
250
  6
CONTINUOUS
 10
16.449153977
 20
11.490929717
 11
16.4487826742
 21
11.4909244992
  0
LINE
  5
67D
100
AcDbEntity
  8
C_CORPO
100
AcDbLine
 62
250
  6
CONTINUOUS
 10
16.4487826742
 20
11.4909244992
 11
16.4192270632
 21
11.4908847933
  0
LINE
  5
67E
100
AcDbEntity
  8
ASSI
100
AcDbLine
 62
250
  6
CONTINUOUS
 10
16.4487826742
 20
11.4909244992
 11
16.4192270632
 21
11.4908847933
  0
LWPOLYLINE
  5
67F
100
AcDbEntity
  8
C_CORPO
100
AcDbPolyline
 62
250
  6
CONTINUOUS
 90
4
 70
0
 10
16.4192270632
 20
11.4908847933
 10
16.4045590108
 20
11.4908752151
 10
16.396157895
 20
11.4908704453
 10
16.3870535289
 20
11.4908656822
  0
LWPOLYLINE
  5
680
100
AcDbEntity
  8
ASSI
100
AcDbPolyline
 62
250
  6
CONTINUOUS
 90
4
 70
0
 10
16.4192270632
 20
11.4908847933
 10
16.4045590108
 20
11.4908752151
 10
16.396157895
 20
11.4908704453
 10
16.3870535289
 20
11.4908656822
  0
LINE
  5
681
100
AcDbEntity
  8
C_CORPO
100
AcDbLine
 62
250
  6
CONTINUOUS
 10
16.3870535289
 20
11.4908656822
 11
15.4666063834
 21
11.490651889
  0
LINE
  5
682
100
AcDbEntity
  8
ASSI
100
AcDbLine
 62
250
  6
CONTINUOUS
 10
16.3870535289
 20
11.4908656822
 11
15.4666063834
 21
11.490651889
  0
LINE
  5
683
100
AcDbEntity
  8
0
100
AcDbLine
 62
250
  6
CONTINUOUS
 10
3.4638341059
 20
10.81759
 11
3.8583920037
 21
10.81759
  0
LINE
  5
684
100
AcDbEntity
  8
0
100
AcDbLine
 62
250
  6
CONTINUOUS
 10
7.2201009211
 20
10.899503
 11
7.4165190011
 21
10.899503
  0
LINE
  5
685
100
AcDbEntity
  8
SCRITTE
100
AcDbLine
 62
250
  6
CONTINUOUS
 10
-4.8778012053
 20
10.974375
 11
-2.451066865
 21
10.974375
  0
LINE
  5
686
100
AcDbEntity
  8
0
100
AcDbLine
 62
250
  6
CONTINUOUS
 10
4.9016590848
 20
11.28807
 11
4.6860559272
 21
11.28807
  0
LINE
  5
687
100
AcDbEntity
  8
0
100
AcDbLine
 62
250
  6
CONTINUOUS
 10
3.5883351409
 20
11.343073
 11
3.3708742663
 21
11.343073
  0
LINE
  5
688
100
AcDbEntity
  8
0
100
AcDbLine
 62
250
  6
CONTINUOUS
 10
3.3714321813
 20
11.916076
 11
3.5888930559
 21
11.916076
  0
LINE
  5
689
100
AcDbEntity
  8
0
100
AcDbLine
 62
250
  6
CONTINUOUS
 10
4.6860559272
 20
12.11141
 11
4.9016590848
 21
12.11141
  0
LINE
  5
68A
100
AcDbEntity
  8
0
100
AcDbLine
 62
250
  6
CONTINUOUS
 10
10.7495499394
 20
12.138918
 11
12.049153977
 21
12.138918
  0
LINE
  5
68B
100
AcDbEntity
  8
SCRITTE
100
AcDbLine
 62
250
  6
CONTINUOUS
 10
-3.0528621947
 20
12.428359
 11
-5.350625181
 21
12.428359
  0
LINE
  5
68C
100
AcDbEntity
  8
SCRITTE
100
AcDbLine
 62
250
  6
CONTINUOUS
 10
-0.5341793186
 20
12.525
 11
-0.2175127274
 21
12.525
  0
LINE
  5
68D
100
AcDbEntity
  8
0
100
AcDbLine
 62
250
  6
CONTINUOUS
 10
4.5936540026
 20
12.567887
 11
4.2212467307
 21
12.567887
  0
LINE
  5
68E
100
AcDbEntity
  8
0
100
AcDbLine
 62
250
  6
CONTINUOUS
 10
4.2212467307
 20
12.917947
 11
4.5936540026
 21
12.917947
  0
LINE
  5
68F
100
AcDbEntity
  8
0
100
AcDbLine
 62
250
  6
CONTINUOUS
 10
6.7820236526
 20
12.380593
 11
3.8859398074
 21
12.649839
  0
LWPOLYLINE
  5
690
100
AcDbEntity
  8
C_CORPO
100
AcDbPolyline
 62
7
  6
CONTINUOUS
 90
7
 70
0
 10
18.1543896989
 20
9.8032726188
 10
18.0143637652
 20
9.8276518439
 10
17.8718020789
 20
9.8521071597
 10
17.7267046402
 20
9.876638566
 10
17.5790714489
 20
9.9012460628
 10
17.4289025052
 20
9.9259296502
 10
17.276197809
 20
9.9506893282
  0
LWPOLYLINE
  5
691
100
AcDbEntity
  8
ASSI
100
AcDbPolyline
 62
7
  6
CONTINUOUS
 90
7
 70
0
 10
18.1543896989
 20
9.8032726188
 10
18.0143637652
 20
9.8276518439
 10
17.8718020789
 20
9.8521071597
 10
17.7267046402
 20
9.876638566
 10
17.5790714489
 20
9.9012460628
 10
17.4289025052
 20
9.9259296502
 10
17.276197809
 20
9.9506893282
  0
LINE
  5
692
100
AcDbEntity
  8
SCRITTE
100
AcDbLine
 62
250
  6
CONTINUOUS
 10
0.574153977
 20
11.69375
 11
1.049153977
 21
11.575
  0
LINE
  5
693
100
AcDbEntity
  8
SCRITTE
100
AcDbLine
 62
250
  6
CONTINUOUS
 10
-3.5474718518
 20
14.276096
 11
-4.7963866071
 21
14.706054
  0
LINE
  5
694
100
AcDbEntity
  8
SCRITTE
100
AcDbLine
 62
250
  6
CONTINUOUS
 10
-2.451066865
 20
13.898494
 11
-3.0656122525
 21
14.115451
  0
LINE
  5
695
100
AcDbEntity
  8
SCRITTE
100
AcDbLine
 62
250
  6
CONTINUOUS
 10
-5.350625181
 20
14.352489
 11
-2.451066865
 21
13.304045
  0
LINE
  5
696
100
AcDbEntity
  8
SCRITTE
100
AcDbLine
 62
250
  6
CONTINUOUS
 10
0.574153977
 20
13.475
 11
-0.850846023
 21
14.30625
  0
LINE
  5
697
100
AcDbEntity
  8
SCRITTE
100
AcDbLine
 62
250
  6
CONTINUOUS
 10
0.8908206389
 20
16.20625
 11
0.7324873009
 21
16.325
  0
LINE
  5
698
100
AcDbEntity
  8
0
100
AcDbLine
 62
250
  6
CONTINUOUS
 10
7.9597502518
 20
9.124378
 11
2.9502353414
 21
14.06101
  0
LWPOLYLINE
  5
699
100
AcDbEntity
  8
C_CORPO
100
AcDbPolyline
 62
250
  6
CONTINUOUS
 90
13
 70
0
 10
15.471324988
 20
15.9685312366
 10
15.4710180298
 20
15.9771221344
 10
15.4706944743
 20
15.9849887015
 10
15.4703545679
 20
15.992124948
 10
15.4699985694
 20
15.998525452
 10
15.4696267487
 20
16.0041853716
 10
15.4692393871
 20
16.0091004253
 10
15.4688367703
 20
16.0132669612
 10
15.4684192116
 20
16.016681706
 10
15.4679870547
 20
16.0193419297
 10
15.4675406394
 20
16.0212457191
 10
15.4670802983
 20
16.0223918276
 10
15.4666063834
 20
16.022779523
  0
LWPOLYLINE
  5
69A
100
AcDbEntity
  8
ASSI
100
AcDbPolyline
 62
250
  6
CONTINUOUS
 90
13
 70
0
 10
15.471324988
 20
15.9685312366
 10
15.4710180298
 20
15.9771221344
 10
15.4706944743
 20
15.9849887015
 10
15.4703545679
 20
15.992124948
 10
15.4699985694
 20
15.998525452
 10
15.4696267487
 20
16.0041853716
 10
15.4692393871
 20
16.0091004253
 10
15.4688367703
 20
16.0132669612
 10
15.4684192116
 20
16.016681706
 10
15.4679870547
 20
16.0193419297
 10
15.4675406394
 20
16.0212457191
 10
15.4670802983
 20
16.0223918276
 10
15.4666063834
 20
16.022779523
  0
LINE
  5
69B
100
AcDbEntity
  8
C_CORPO
100
AcDbLine
 62
250
  6
CONTINUOUS
 10
15.4718881928
 20
15.9492031037
 11
15.471324988
 21
15.9685312366
  0
LINE
  5
69C
100
AcDbEntity
  8
ASSI
100
AcDbLine
 62
250
  6
CONTINUOUS
 10
15.4718881928
 20
15.9492031037
 11
15.471324988
 21
15.9685312366
  0
LINE
  5
69D
100
AcDbEntity
  8
C_CORPO
100
AcDbLine
 62
250
  6
CONTINUOUS
 10
15.4723823799
 20
15.9270629587
 11
15.4718881928
 21
15.9492031037
  0
LINE
  5
69E
100
AcDbEntity
  8
ASSI
100
AcDbLine
 62
250
  6
CONTINUOUS
 10
15.4723823799
 20
15.9270629587
 11
15.4718881928
 21
15.9492031037
  0
LINE
  5
69F
100
AcDbEntity
  8
C_CORPO
100
AcDbLine
 62
250
  6
CONTINUOUS
 10
15.4728060492
 20
15.9021780127
 11
15.4723823799
 21
15.9270629587
  0
LINE
  5
6A0
100
AcDbEntity
  8
ASSI
100
AcDbLine
 62
250
  6
CONTINUOUS
 10
15.4728060492
 20
15.9021780127
 11
15.4723823799
 21
15.9270629587
  0
LINE
  5
6A1
100
AcDbEntity
  8
C_CORPO
100
AcDbLine
 62
250
  6
CONTINUOUS
 10
15.4666063834
 20
-15.0229318279
 11
15.4688367703
 21
-15.1602231653
  0
LINE
  5
6A2
100
AcDbEntity
  8
ASSI
100
AcDbLine
 62
250
  6
CONTINUOUS
 10
15.4666063834
 20
-15.0229318279
 11
15.4688367703
 21
-15.1602231653
  0
LINE
  5
6A3
100
AcDbEntity
  8
C_CORPO
100
AcDbLine
 62
250
  6
CONTINUOUS
 10
15.4688367703
 20
-15.1602231653
 11
15.4706944743
 21
-15.2949292156
  0
LINE
  5
6A4
100
AcDbEntity
  8
ASSI
100
AcDbLine
 62
250
  6
CONTINUOUS
 10
15.4688367703
 20
-15.1602231653
 11
15.4706944743
 21
-15.2949292156
  0
LWPOLYLINE
  5
6A5
100
AcDbEntity
  8
C_CORPO
100
AcDbPolyline
 62
250
  6
CONTINUOUS
 90
118
 70
0
 10
15.4666063834
 20
11.490651889
 10
15.4671026662
 20
11.4480243963
 10
15.4686526272
 20
11.4051214937
 10
15.4712562665
 20
11.3619431813
 10
15.4749022096
 20
11.3184657104
 10
15.479601831
 20
11.2747128298
 10
15.4853892537
 20
11.2307557849
 10
15.492264949
 20
11.1865958431
 10
15.5002284457
 20
11.142231737
 10
15.5093124535
 20
11.0977309109
 10
15.5195263105
 20
11.0530666918
 10
15.5308606785
 20
11.0082657527
 10
15.5433202529
 20
10.9634755566
 10
15.5569189676
 20
10.9186800328
 10
15.5716428885
 20
10.8738952521
 10
15.587454909
 20
10.8293168895
 10
15.6043519909
 20
10.7849719005
 10
15.6223371724
 20
10.7408333296
 10
15.6413824607
 20
10.6970159856
 10
15.6615098999
 20
10.6534866955
 10
15.682697446
 20
10.6102786323
 10
15.7048509744
 20
10.5676061235
 10
15.7280711315
 20
10.525347821
 10
15.7522572708
 20
10.4836250729
 10
15.7770133282
 20
10.4430162518
 10
15.8023960535
 20
10.4035331674
 10
15.8283486969
 20
10.3651640099
 10
15.8543049453
 20
10.328451723
 10
15.8802111122
 20
10.2935338288
 10
15.906120884
 20
10.2602728052
 10
15.9316290065
 20
10.2287990296
 10
15.9566193341
 20
10.1992491742
 10
15.9812080124
 20
10.1714865667
 10
16.0053382246
 20
10.1452315682
 10
16.0289543261
 20
10.1205058797
 10
16.0521119616
 20
10.0972878002
 10
16.0749212472
 20
10.0752325879
 10
16.0973929737
 20
10.0542979743
 10
16.1195163504
 20
10.0345262279
 10
16.1413691218
 20
10.015699413
 10
16.1630282817
 20
9.9977465149
 10
16.1844168361
 20
9.9807385482
 10
16.2053815476
 20
9.9646706216
 10
16.2258868381
 20
9.9495737606
 10
16.2459682855
 20
9.9354169396
 10
16.2655793858
 20
9.9221021907
 10
16.2846862685
 20
9.9096456989
 10
16.3033228041
 20
9.8980312793
 10
16.3215440999
 20
9.8871124091
 10
16.3393415229
 20
9.8768834505
 10
16.356723706
 20
9.8673500414
 10
16.3737716556
 20
9.8583825731
 10
16.390480034
 20
9.8499732608
 10
16.4068541789
 20
9.8421298894
 10
16.4229911084
 20
9.8347462048
 10
16.4389188079
 20
9.8278035909
 10
16.454609292
 20
9.8213206639
 10
16.4700756237
 20
9.8152470181
 10
16.485340425
 20
9.8095748697
 10
16.5003810737
 20
9.8043120026
 10
16.5151427667
 20
9.7994313622
 10
16.529628957
 20
9.7949356293
 10
16.5438361915
 20
9.7908221231
 10
16.5576993072
 20
9.7870557475
 10
16.5712073902
 20
9.7836416823
 10
16.5843713544
 20
9.7805747475
 10
16.5971587786
 20
9.777804307
 10
16.6095535223
 20
9.7753327256
 10
16.621571726
 20
9.7731576385
 10
16.63322939
 20
9.7712213141
 10
16.6445124609
 20
9.7695221765
 10
16.6554349921
 20
9.7680618016
 10
16.6660551443
 20
9.7667871861
 10
16.676357675
 20
9.7656943421
 10
16.6863578267
 20
9.7647872574
 10
16.6961594878
 20
9.7640248925
 10
16.7057550001
 20
9.7634011157
 10
16.7151520218
 20
9.7629220586
 10
16.7244774156
 20
9.7625650759
 10
16.733728871
 20
9.7623234379
 10
16.7429086985
 20
9.7622038743
 10
16.7521506929
 20
9.7622039288
 10
16.7614549215
 20
9.7623166674
 10
16.770821317
 20
9.762549024
 10
16.7803834717
 20
9.7629193441
 10
16.7901475226
 20
9.7634208364
 10
16.8001073327
 20
9.7640602922
 10
16.8103780837
 20
9.7648764305
 10
16.8209783836
 20
9.7658648791
 10
16.8318896245
 20
9.7670300103
 10
16.8431711641
 20
9.7684236605
 10
16.8548376523
 20
9.7700440103
 10
16.8668744391
 20
9.7718928792
 10
16.8792969333
 20
9.7740275616
 10
16.892119793
 20
9.7764496759
 10
16.9053283599
 20
9.7791576038
 10
16.9188940675
 20
9.782203785
 10
16.9328259006
 20
9.7855921775
 10
16.9471148743
 20
9.7893188234
 10
16.9617054672
 20
9.7934242878
 10
16.976599572
 20
9.7979128046
 10
16.9917952961
 20
9.8027801398
 10
17.0072314398
 20
9.8080541574
 10
17.0228836691
 20
9.8137275598
 10
17.0387763181
 20
9.8198076444
 10
17.0549211895
 20
9.8263441675
 10
17.0712927357
 20
9.8333211374
 10
17.0879165043
 20
9.8407545456
 10
17.1048809409
 20
9.8487421236
 10
17.1221857732
 20
9.8572737824
 10
17.1398312734
 20
9.8663596109
 10
17.1579067047
 20
9.8761276068
 10
17.1764184349
 20
9.8865696121
 10
17.1953600961
 20
9.8976937847
 10
17.2148018482
 20
9.9096525955
 10
17.2347670776
 20
9.9224968682
 10
17.2552323979
 20
9.9361757791
 10
17.276197809
 20
9.9506893282
  0
LWPOLYLINE
  5
6A6
100
AcDbEntity
  8
ASSI
100
AcDbPolyline
 62
250
  6
CONTINUOUS
 90
118
 70
0
 10
15.4666063834
 20
11.490651889
 10
15.4671026662
 20
11.4480243963
 10
15.4686526272
 20
11.4051214937
 10
15.4712562665
 20
11.3619431813
 10
15.4749022096
 20
11.3184657104
 10
15.479601831
 20
11.2747128298
 10
15.4853892537
 20
11.2307557849
 10
15.492264949
 20
11.1865958431
 10
15.5002284457
 20
11.142231737
 10
15.5093124535
 20
11.0977309109
 10
15.5195263105
 20
11.0530666918
 10
15.5308606785
 20
11.0082657527
 10
15.5433202529
 20
10.9634755566
 10
15.5569189676
 20
10.9186800328
 10
15.5716428885
 20
10.8738952521
 10
15.587454909
 20
10.8293168895
 10
15.6043519909
 20
10.7849719005
 10
15.6223371724
 20
10.7408333296
 10
15.6413824607
 20
10.6970159856
 10
15.6615098999
 20
10.6534866955
 10
15.682697446
 20
10.6102786323
 10
15.7048509744
 20
10.5676061235
 10
15.7280711315
 20
10.525347821
 10
15.7522572708
 20
10.4836250729
 10
15.7770133282
 20
10.4430162518
 10
15.8023960535
 20
10.4035331674
 10
15.8283486969
 20
10.3651640099
 10
15.8543049453
 20
10.328451723
 10
15.8802111122
 20
10.2935338288
 10
15.906120884
 20
10.2602728052
 10
15.9316290065
 20
10.2287990296
 10
15.9566193341
 20
10.1992491742
 10
15.9812080124
 20
10.1714865667
 10
16.0053382246
 20
10.1452315682
 10
16.0289543261
 20
10.1205058797
 10
16.0521119616
 20
10.0972878002
 10
16.0749212472
 20
10.0752325879
 10
16.0973929737
 20
10.0542979743
 10
16.1195163504
 20
10.0345262279
 10
16.1413691218
 20
10.015699413
 10
16.1630282817
 20
9.9977465149
 10
16.1844168361
 20
9.9807385482
 10
16.2053815476
 20
9.9646706216
 10
16.2258868381
 20
9.9495737606
 10
16.2459682855
 20
9.9354169396
 10
16.2655793858
 20
9.9221021907
 10
16.2846862685
 20
9.9096456989
 10
16.3033228041
 20
9.8980312793
 10
16.3215440999
 20
9.8871124091
 10
16.3393415229
 20
9.8768834505
 10
16.356723706
 20
9.8673500414
 10
16.3737716556
 20
9.8583825731
 10
16.390480034
 20
9.8499732608
 10
16.4068541789
 20
9.8421298894
 10
16.4229911084
 20
9.8347462048
 10
16.4389188079
 20
9.8278035909
 10
16.454609292
 20
9.8213206639
 10
16.4700756237
 20
9.8152470181
 10
16.485340425
 20
9.8095748697
 10
16.5003810737
 20
9.8043120026
 10
16.5151427667
 20
9.7994313622
 10
16.529628957
 20
9.7949356293
 10
16.5438361915
 20
9.7908221231
 10
16.5576993072
 20
9.7870557475
 10
16.5712073902
 20
9.7836416823
 10
16.5843713544
 20
9.7805747475
 10
16.5971587786
 20
9.777804307
 10
16.6095535223
 20
9.7753327256
 10
16.621571726
 20
9.7731576385
 10
16.63322939
 20
9.7712213141
 10
16.6445124609
 20
9.7695221765
 10
16.6554349921
 20
9.7680618016
 10
16.6660551443
 20
9.7667871861
 10
16.676357675
 20
9.7656943421
 10
16.6863578267
 20
9.7647872574
 10
16.6961594878
 20
9.7640248925
 10
16.7057550001
 20
9.7634011157
 10
16.7151520218
 20
9.7629220586
 10
16.7244774156
 20
9.7625650759
 10
16.733728871
 20
9.7623234379
 10
16.7429086985
 20
9.7622038743
 10
16.7521506929
 20
9.7622039288
 10
16.7614549215
 20
9.7623166674
 10
16.770821317
 20
9.762549024
 10
16.7803834717
 20
9.7629193441
 10
16.7901475226
 20
9.7634208364
 10
16.8001073327
 20
9.7640602922
 10
16.8103780837
 20
9.7648764305
 10
16.8209783836
 20
9.7658648791
 10
16.8318896245
 20
9.7670300103
 10
16.8431711641
 20
9.7684236605
 10
16.8548376523
 20
9.7700440103
 10
16.8668744391
 20
9.7718928792
 10
16.8792969333
 20
9.7740275616
 10
16.892119793
 20
9.7764496759
 10
16.9053283599
 20
9.7791576038
 10
16.9188940675
 20
9.782203785
 10
16.9328259006
 20
9.7855921775
 10
16.9471148743
 20
9.7893188234
 10
16.9617054672
 20
9.7934242878
 10
16.976599572
 20
9.7979128046
 10
16.9917952961
 20
9.8027801398
 10
17.0072314398
 20
9.8080541574
 10
17.0228836691
 20
9.8137275598
 10
17.0387763181
 20
9.8198076444
 10
17.0549211895
 20
9.8263441675
 10
17.0712927357
 20
9.8333211374
 10
17.0879165043
 20
9.8407545456
 10
17.1048809409
 20
9.8487421236
 10
17.1221857732
 20
9.8572737824
 10
17.1398312734
 20
9.8663596109
 10
17.1579067047
 20
9.8761276068
 10
17.1764184349
 20
9.8865696121
 10
17.1953600961
 20
9.8976937847
 10
17.2148018482
 20
9.9096525955
 10
17.2347670776
 20
9.9224968682
 10
17.2552323979
 20
9.9361757791
 10
17.276197809
 20
9.9506893282
  0
LINE
  5
6A7
100
AcDbEntity
  8
C_CORPO
100
AcDbLine
 62
250
  6
CONTINUOUS
 10
15.4706944743
 20
-15.2949292156
 11
15.4721440123
 21
-15.4244813658
  0
LINE
  5
6A8
100
AcDbEntity
  8
ASSI
100
AcDbLine
 62
250
  6
CONTINUOUS
 10
15.4706944743
 20
-15.2949292156
 11
15.4721440123
 21
-15.4244813658
  0
LINE
  5
6A9
100
AcDbEntity
  8
C_CORPO
100
AcDbLine
 62
250
  6
CONTINUOUS
 10
15.4733065781
 20
15.8598715766
 11
15.4728060492
 21
15.9021780127
  0
LINE
  5
6AA
100
AcDbEntity
  8
ASSI
100
AcDbLine
 62
250
  6
CONTINUOUS
 10
15.4733065781
 20
15.8598715766
 11
15.4728060492
 21
15.9021780127
  0
LINE
  5
6AB
100
AcDbEntity
  8
C_CORPO
100
AcDbLine
 62
250
  6
CONTINUOUS
 10
15.4721440123
 20
-15.4244813658
 11
15.4731579144
 21
-15.5464244913
  0
LINE
  5
6AC
100
AcDbEntity
  8
ASSI
100
AcDbLine
 62
250
  6
CONTINUOUS
 10
15.4721440123
 20
-15.4244813658
 11
15.4731579144
 21
-15.5464244913
  0
LWPOLYLINE
  5
6AD
100
AcDbEntity
  8
C_CORPO
100
AcDbPolyline
 62
250
  6
CONTINUOUS
 90
73
 70
0
 10
16.449153977
 20
11.490929717
 10
16.4492677675
 20
11.4725649532
 10
16.4496111304
 20
11.4537687833
 10
16.4501869283
 20
11.4345399912
 10
16.4509977666
 20
11.4148841561
 10
16.4520461968
 20
11.3947932237
 10
16.4533349221
 20
11.3742450123
 10
16.4548660963
 20
11.3532386082
 10
16.4566419482
 20
11.3317710943
 10
16.4586655804
 20
11.3098163202
 10
16.4609402356
 20
11.2873580958
 10
16.4634668295
 20
11.2644073721
 10
16.4662443849
 20
11.2409781917
 10
16.4692746863
 20
11.2170539184
 10
16.4725572907
 20
11.1926452827
 10
16.4760855013
 20
11.1678078271
 10
16.4798556648
 20
11.1425466723
 10
16.4838681311
 20
11.1168510896
 10
16.4881203842
 20
11.0907541209
 10
16.4926124559
 20
11.0642322487
 10
16.4973398374
 20
11.037303884
 10
16.5022916496
 20
11.0100674528
 10
16.5074789312
 20
10.9824302942
 10
16.512883614
 20
10.9544819952
 10
16.5184433255
 20
10.9265998397
 10
16.5241540315
 20
10.8987428361
 10
16.5299988489
 20
10.8709548799
 10
16.5358821666
 20
10.8437486397
 10
16.541773062
 20
10.817193533
 10
16.5476678875
 20
10.7912292037
 10
16.5535018893
 20
10.7661804684
 10
16.5592343496
 20
10.7421617499
 10
16.5648704395
 20
10.7190693321
 10
16.5704135353
 20
10.6969040763
 10
16.5758388189
 20
10.675724829
 10
16.5811448114
 20
10.6554815504
 10
16.5863747648
 20
10.6360127322
 10
16.5915246173
 20
10.6173084369
 10
16.596581862
 20
10.5993854188
 10
16.6015818069
 20
10.5821226673
 10
16.6065342564
 20
10.5654750829
 10
16.6114185957
 20
10.5494934779
 10
16.6162263986
 20
10.5342008336
 10
16.6209560651
 20
10.5195985722
 10
16.6255997661
 20
10.5056894674
 10
16.6301397759
 20
10.4924979234
 10
16.6345600275
 20
10.4800638781
 10
16.6388681528
 20
10.4683494188
 10
16.6430825302
 20
10.4572615385
 10
16.6471996132
 20
10.4468006141
 10
16.6512170543
 20
10.4369672357
 10
16.6551561185
 20
10.4276685639
 10
16.6590141154
 20
10.4189023911
 10
16.6627896086
 20
10.4106713074
 10
16.6665066265
 20
10.4028898124
 10
16.6701671172
 20
10.3955474019
 10
16.6737663332
 20
10.38865488
 10
16.6773188586
 20
10.3821589415
 10
16.680831035
 20
10.3760470258
 10
16.6842944786
 20
10.3703318962
 10
16.6877018783
 20
10.3649980792
 10
16.6910542121
 20
10.3600467513
 10
16.694348673
 20
10.355476157
 10
16.697572233
 20
10.3512658528
 10
16.7007229115
 20
10.3474206258
 10
16.7038010635
 20
10.3439342406
 10
16.7067971392
 20
10.3407691367
 10
16.7097071348
 20
10.3379289047
 10
16.7125337189
 20
10.3354079069
 10
16.7152774036
 20
10.3331544346
 10
16.7179380365
 20
10.3311505232
 10
16.7205147922
 20
10.3294120169
 10
16.7230072542
 20
10.3279378762
  0
LWPOLYLINE
  5
6AE
100
AcDbEntity
  8
ASSI
100
AcDbPolyline
 62
250
  6
CONTINUOUS
 90
73
 70
0
 10
16.449153977
 20
11.490929717
 10
16.4492677675
 20
11.4725649532
 10
16.4496111304
 20
11.4537687833
 10
16.4501869283
 20
11.4345399912
 10
16.4509977666
 20
11.4148841561
 10
16.4520461968
 20
11.3947932237
 10
16.4533349221
 20
11.3742450123
 10
16.4548660963
 20
11.3532386082
 10
16.4566419482
 20
11.3317710943
 10
16.4586655804
 20
11.3098163202
 10
16.4609402356
 20
11.2873580958
 10
16.4634668295
 20
11.2644073721
 10
16.4662443849
 20
11.2409781917
 10
16.4692746863
 20
11.2170539184
 10
16.4725572907
 20
11.1926452827
 10
16.4760855013
 20
11.1678078271
 10
16.4798556648
 20
11.1425466723
 10
16.4838681311
 20
11.1168510896
 10
16.4881203842
 20
11.0907541209
 10
16.4926124559
 20
11.0642322487
 10
16.4973398374
 20
11.037303884
 10
16.5022916496
 20
11.0100674528
 10
16.5074789312
 20
10.9824302942
 10
16.512883614
 20
10.9544819952
 10
16.5184433255
 20
10.9265998397
 10
16.5241540315
 20
10.8987428361
 10
16.5299988489
 20
10.8709548799
 10
16.5358821666
 20
10.8437486397
 10
16.541773062
 20
10.817193533
 10
16.5476678875
 20
10.7912292037
 10
16.5535018893
 20
10.7661804684
 10
16.5592343496
 20
10.7421617499
 10
16.5648704395
 20
10.7190693321
 10
16.5704135353
 20
10.6969040763
 10
16.5758388189
 20
10.675724829
 10
16.5811448114
 20
10.6554815504
 10
16.5863747648
 20
10.6360127322
 10
16.5915246173
 20
10.6173084369
 10
16.596581862
 20
10.5993854188
 10
16.6015818069
 20
10.5821226673
 10
16.6065342564
 20
10.5654750829
 10
16.6114185957
 20
10.5494934779
 10
16.6162263986
 20
10.5342008336
 10
16.6209560651
 20
10.5195985722
 10
16.6255997661
 20
10.5056894674
 10
16.6301397759
 20
10.4924979234
 10
16.6345600275
 20
10.4800638781
 10
16.6388681528
 20
10.4683494188
 10
16.6430825302
 20
10.4572615385
 10
16.6471996132
 20
10.4468006141
 10
16.6512170543
 20
10.4369672357
 10
16.6551561185
 20
10.4276685639
 10
16.6590141154
 20
10.4189023911
 10
16.6627896086
 20
10.4106713074
 10
16.6665066265
 20
10.4028898124
 10
16.6701671172
 20
10.3955474019
 10
16.6737663332
 20
10.38865488
 10
16.6773188586
 20
10.3821589415
 10
16.680831035
 20
10.3760470258
 10
16.6842944786
 20
10.3703318962
 10
16.6877018783
 20
10.3649980792
 10
16.6910542121
 20
10.3600467513
 10
16.694348673
 20
10.355476157
 10
16.697572233
 20
10.3512658528
 10
16.7007229115
 20
10.3474206258
 10
16.7038010635
 20
10.3439342406
 10
16.7067971392
 20
10.3407691367
 10
16.7097071348
 20
10.3379289047
 10
16.7125337189
 20
10.3354079069
 10
16.7152774036
 20
10.3331544346
 10
16.7179380365
 20
10.3311505232
 10
16.7205147922
 20
10.3294120169
 10
16.7230072542
 20
10.3279378762
  0
LINE
  5
6AF
100
AcDbEntity
  8
C_CORPO
100
AcDbLine
 62
250
  6
CONTINUOUS
 10
15.4737169699
 20
15.7946285077
 11
15.4733065781
 21
15.8598715766
  0
LINE
  5
6B0
100
AcDbEntity
  8
ASSI
100
AcDbLine
 62
250
  6
CONTINUOUS
 10
15.4737169699
 20
15.7946285077
 11
15.4733065781
 21
15.8598715766
  0
LINE
  5
6B1
100
AcDbEntity
  8
C_CORPO
100
AcDbLine
 62
250
  6
CONTINUOUS
 10
15.4731579144
 20
-15.5464244913
 11
15.4737169699
 21
-15.6584480698
  0
LINE
  5
6B2
100
AcDbEntity
  8
ASSI
100
AcDbLine
 62
250
  6
CONTINUOUS
 10
15.4731579144
 20
-15.5464244913
 11
15.4737169699
 21
-15.6584480698
  0
LINE
  5
6B3
100
AcDbEntity
  8
C_CORPO
100
AcDbLine
 62
250
  6
CONTINUOUS
 10
15.4666063834
 20
15.0229318279
 11
15.4666063834
 21
11.490651889
  0
LINE
  5
6B4
100
AcDbEntity
  8
ASSI
100
AcDbLine
 62
250
  6
CONTINUOUS
 10
15.4666063834
 20
15.0229318279
 11
15.4666063834
 21
11.490651889
  0
LINE
  5
6B5
100
AcDbEntity
  8
C_CORPO
100
AcDbLine
 62
250
  6
CONTINUOUS
 10
15.4666063834
 20
5.709070283
 11
15.4666063834
 21
-15.0229318279
  0
LINE
  5
6B6
100
AcDbEntity
  8
ASSI
100
AcDbLine
 62
250
  6
CONTINUOUS
 10
15.4666063834
 20
5.709070283
 11
15.4666063834
 21
-15.0229318279
  0
LINE
  5
6B7
100
AcDbEntity
  8
C_CORPO
100
AcDbLine
 62
250
  6
CONTINUOUS
 10
15.4737169699
 20
-15.6584480698
 11
15.4738293102
 21
-15.7394910562
  0
LINE
  5
6B8
100
AcDbEntity
  8
ASSI
100
AcDbLine
 62
250
  6
CONTINUOUS
 10
15.4737169699
 20
-15.6584480698
 11
15.4738293102
 21
-15.7394910562
  0
LINE
  5
6B9
100
AcDbEntity
  8
C_CORPO
100
AcDbLine
 62
7
  6
CONTINUOUS
 10
16.449153977
 20
15.0229318279
 11
16.449153977
 21
11.4909297082
  0
LINE
  5
6BA
100
AcDbEntity
  8
ASSI
100
AcDbLine
 62
7
  6
CONTINUOUS
 10
16.449153977
 20
15.0229318279
 11
16.449153977
 21
11.4909297082
  0
LINE
  5
6BB
100
AcDbEntity
  8
C_CORPO
100
AcDbLine
 62
7
  6
CONTINUOUS
 10
16.449153977
 20
5.7090702919
 11
16.449153977
 21
-15.0229318279
  0
LINE
  5
6BC
100
AcDbEntity
  8
ASSI
100
AcDbLine
 62
7
  6
CONTINUOUS
 10
16.449153977
 20
5.7090702919
 11
16.449153977
 21
-15.0229318279
  0
LINE
  5
6BD
100
AcDbEntity
  8
C_CORPO
100
AcDbLine
 62
250
  6
CONTINUOUS
 10
15.473810585
 20
15.7000103642
 11
15.4737169699
 21
15.7946285077
  0
LINE
  5
6BE
100
AcDbEntity
  8
ASSI
100
AcDbLine
 62
250
  6
CONTINUOUS
 10
15.473810585
 20
15.7000103642
 11
15.4737169699
 21
15.7946285077
  0
LINE
  5
6BF
100
AcDbEntity
  8
C_CORPO
100
AcDbLine
 62
250
  6
CONTINUOUS
 10
15.4738293102
 20
-15.7394910562
 11
15.4736422353
 21
-15.8118392187
  0
LINE
  5
6C0
100
AcDbEntity
  8
ASSI
100
AcDbLine
 62
250
  6
CONTINUOUS
 10
15.4738293102
 20
-15.7394910562
 11
15.4736422353
 21
-15.8118392187
  0
LINE
  5
6C1
100
AcDbEntity
  8
C_CORPO
100
AcDbLine
 62
250
  6
CONTINUOUS
 10
15.473306667
 20
15.5697083681
 11
15.473810585
 21
15.7000103642
  0
LINE
  5
6C2
100
AcDbEntity
  8
ASSI
100
AcDbLine
 62
250
  6
CONTINUOUS
 10
15.473306667
 20
15.5697083681
 11
15.473810585
 21
15.7000103642
  0
LINE
  5
6C3
100
AcDbEntity
  8
C_CORPO
100
AcDbLine
 62
250
  6
CONTINUOUS
 10
15.4736422353
 20
-15.8118392187
 11
15.473306667
 21
-15.8598619699
  0
LINE
  5
6C4
100
AcDbEntity
  8
ASSI
100
AcDbLine
 62
250
  6
CONTINUOUS
 10
15.4736422353
 20
-15.8118392187
 11
15.473306667
 21
-15.8598619699
  0
LINE
  5
6C5
100
AcDbEntity
  8
C_CORPO
100
AcDbLine
 62
250
  6
CONTINUOUS
 10
15.47161529
 20
15.3734548563
 11
15.473306667
 21
15.5697083681
  0
LINE
  5
6C6
100
AcDbEntity
  8
ASSI
100
AcDbLine
 62
250
  6
CONTINUOUS
 10
15.47161529
 20
15.3734548563
 11
15.473306667
 21
15.5697083681
  0
LINE
  5
6C7
100
AcDbEntity
  8
C_CORPO
100
AcDbLine
 62
250
  6
CONTINUOUS
 10
15.473306667
 20
-15.8598619699
 11
15.4728061715
 21
-15.9021697406
  0
LINE
  5
6C8
100
AcDbEntity
  8
ASSI
100
AcDbLine
 62
250
  6
CONTINUOUS
 10
15.473306667
 20
-15.8598619699
 11
15.4728061715
 21
-15.9021697406
  0
LINE
  5
6C9
100
AcDbEntity
  8
C_CORPO
100
AcDbLine
 62
250
  6
CONTINUOUS
 10
15.4684194726
 20
15.13290332
 11
15.47161529
 21
15.3734548563
  0
LINE
  5
6CA
100
AcDbEntity
  8
ASSI
100
AcDbLine
 62
250
  6
CONTINUOUS
 10
15.4684194726
 20
15.13290332
 11
15.47161529
 21
15.3734548563
  0
LINE
  5
6CB
100
AcDbEntity
  8
C_CORPO
100
AcDbLine
 62
250
  6
CONTINUOUS
 10
15.4666063834
 20
15.0229318279
 11
15.4684194726
 21
15.13290332
  0
LINE
  5
6CC
100
AcDbEntity
  8
ASSI
100
AcDbLine
 62
250
  6
CONTINUOUS
 10
15.4666063834
 20
15.0229318279
 11
15.4684194726
 21
15.13290332
  0
LINE
  5
6CD
100
AcDbEntity
  8
C_CORPO
100
AcDbLine
 62
250
  6
CONTINUOUS
 10
15.4728061715
 20
-15.9021697406
 11
15.4723825237
 21
-15.9270555949
  0
LINE
  5
6CE
100
AcDbEntity
  8
ASSI
100
AcDbLine
 62
250
  6
CONTINUOUS
 10
15.4728061715
 20
-15.9021697406
 11
15.4723825237
 21
-15.9270555949
  0
LINE
  5
6CF
100
AcDbEntity
  8
C_CORPO
100
AcDbLine
 62
250
  6
CONTINUOUS
 10
15.4723825237
 20
-15.9270555949
 11
15.4718883572
 21
-15.9491966592
  0
LINE
  5
6D0
100
AcDbEntity
  8
ASSI
100
AcDbLine
 62
250
  6
CONTINUOUS
 10
15.4723825237
 20
-15.9270555949
 11
15.4718883572
 21
-15.9491966592
  0
LWPOLYLINE
  5
6D1
100
AcDbEntity
  8
C_CORPO
100
AcDbPolyline
 62
250
  6
CONTINUOUS
 90
14
 70
0
 10
15.4718883572
 20
-15.9491966592
 10
15.4713251722
 20
-15.9685257151
 10
15.4710182241
 20
-15.9771170636
 10
15.4706946786
 20
-15.9849840815
 10
15.4703547813
 20
-15.9921207968
 10
15.4699987903
 20
-15.9985217919
 10
15.4696269758
 20
-16.0041822076
 10
15.4692396201
 20
-16.0090977471
 10
15.4688370171
 20
-16.013264679
 10
15.4684194726
 20
-16.01667984
 10
15.4679873035
 20
-16.0193406373
 10
15.4675408379
 20
-16.0212450513
 10
15.4670804147
 20
-16.0223916366
 10
15.4666063834
 20
-16.022779523
  0
LWPOLYLINE
  5
6D2
100
AcDbEntity
  8
ASSI
100
AcDbPolyline
 62
250
  6
CONTINUOUS
 90
14
 70
0
 10
15.4718883572
 20
-15.9491966592
 10
15.4713251722
 20
-15.9685257151
 10
15.4710182241
 20
-15.9771170636
 10
15.4706946786
 20
-15.9849840815
 10
15.4703547813
 20
-15.9921207968
 10
15.4699987903
 20
-15.9985217919
 10
15.4696269758
 20
-16.0041822076
 10
15.4692396201
 20
-16.0090977471
 10
15.4688370171
 20
-16.013264679
 10
15.4684194726
 20
-16.01667984
 10
15.4679873035
 20
-16.0193406373
 10
15.4675408379
 20
-16.0212450513
 10
15.4670804147
 20
-16.0223916366
 10
15.4666063834
 20
-16.022779523
  0
LINE
  5
6D3
100
AcDbEntity
  8
C_CORPO
100
AcDbLine
 62
7
  6
CONTINUOUS
 10
2.049153977
 20
-19.6109791689
 11
2.449153977
 21
-19.1967670433
  0
LINE
  5
6D4
100
AcDbEntity
  8
ASSI
100
AcDbLine
 62
7
  6
CONTINUOUS
 10
2.049153977
 20
-19.6109791689
 11
2.449153977
 21
-19.1967670433
  0
LINE
  5
6D5
100
AcDbEntity
  8
C_COPERCHIO
100
AcDbLine
 62
7
  6
CONTINUOUS
 10
-10.450846023
 20
-23.1226497308
 11
-11.325846023
 21
-23.6278312164
  0
LINE
  5
6D6
100
AcDbEntity
  8
SCRITTE
100
AcDbLine
 62
250
  6
CONTINUOUS
 10
-5.3506831721
 20
-15.931191
 11
-2.4509868772
 21
-15.000059
  0
LWPOLYLINE
  5
6D7
100
AcDbEntity
  8
0
100
AcDbPolyline
 62
250
  6
CONTINUOUS
 90
58
 70
0
 10
11.6476686917
 20
-11.6812747013
 10
11.5901218556
 20
-11.6980476352
 10
11.5320713007
 20
-11.7131147334
 10
11.4735843505
 20
-11.7264615242
 10
11.4147283287
 20
-11.7380735357
 10
11.3555705591
 20
-11.747936296
 10
11.3051650418
 20
-11.7549269938
 10
11.2546155783
 20
-11.7606505621
 10
11.2039471369
 20
-11.7651107222
 10
11.1524152113
 20
-11.7683493439
 10
11.1008097207
 20
-11.7702899127
 10
11.0491539778
 20
-11.7709324885
 10
10.9804598229
 20
-11.7697774442
 10
10.9118081729
 20
-11.7663296881
 10
10.8432891312
 20
-11.760589761
 10
10.7749928012
 20
-11.7525582038
 10
10.7070092865
 20
-11.7422355573
 10
10.6394286906
 20
-11.7296223622
 10
10.5743199267
 20
-11.7151962423
 10
10.5097345073
 20
-11.698625975
 10
10.4457315784
 20
-11.6799235389
 10
10.3823702859
 20
-11.6591009122
 10
10.3197097758
 20
-11.6361700736
 10
10.2578091942
 20
-11.6111430013
 10
10.1928551763
 20
-11.5822354305
 10
10.1289068126
 20
-11.5510231677
 10
10.0660426651
 20
-11.5175606434
 10
10.0043412958
 20
-11.4819022879
 10
9.9438812665
 20
-11.4441025317
 10
9.8847411393
 20
-11.4042158052
 10
9.826999476
 20
-11.3622965389
 10
9.7707348386
 20
-11.3183991632
 10
9.716025789
 20
-11.2725781085
 10
9.6629508892
 20
-11.2248878054
 10
9.6115887011
 20
-11.1753826841
 10
9.5620131153
 20
-11.1241190147
 10
9.514279337
 20
-11.0711604246
 10
9.4684379001
 20
-11.0165723811
 10
9.4245393382
 20
-10.9604203511
 10
9.3826341854
 20
-10.9027698017
 10
9.3427729754
 20
-10.8436862
 10
9.3050062421
 20
-10.783235013
 10
9.2693845193
 20
-10.7214817078
 10
9.2359583409
 20
-10.6584917514
 10
9.2047782406
 20
-10.594330611
 10
9.1758947523
 20
-10.5290637535
 10
9.1506358485
 20
-10.4661332938
 10
9.1275059554
 20
-10.4023544671
 10
9.1065179228
 20
-10.3378167845
 10
9.0876846008
 20
-10.2726097569
 10
9.0710188394
 20
-10.2068228951
 10
9.0565334884
 20
-10.1405457102
 10
9.044241398
 20
-10.073867713
 10
9.034155418
 20
-10.0068784145
 10
9.0262883984
 20
-9.9396673257
 10
9.0206531892
 20
-9.8723239573
 10
9.0172626404
 20
-9.8049378204
 10
9.0161296019
 20
-9.737598426
  0
LINE
  5
6D8
100
AcDbEntity
  8
SCRITTE
100
AcDbLine
 62
250
  6
CONTINUOUS
 10
-5.350625181
 20
13.010803
 11
-2.451066865
 21
13.010803
  0
LINE
  5
6D9
100
AcDbEntity
  8
0
100
AcDbLine
 62
250
  6
CONTINUOUS
 10
12.049153977
 20
13.523604
 11
11.5462721947
 21
13.523604
  0
LINE
  5
6DA
100
AcDbEntity
  8
0
100
AcDbLine
 62
250
  6
CONTINUOUS
 10
9.0302971775
 20
13.592362
 11
10.049153977
 21
13.592362
  0
LINE
  5
6DB
100
AcDbEntity
  8
SCRITTE
100
AcDbLine
 62
250
  6
CONTINUOUS
 10
-0.850846023
 20
14.30625
 11
1.049153977
 21
14.30625
  0
LINE
  5
6DC
100
AcDbEntity
  8
C_CORPO
100
AcDbLine
 62
250
  6
CONTINUOUS
 10
16.449153977
 20
15.0229318279
 11
15.4666063834
 21
15.0229318279
  0
LINE
  5
6DD
100
AcDbEntity
  8
ASSI
100
AcDbLine
 62
250
  6
CONTINUOUS
 10
16.449153977
 20
15.0229318279
 11
15.4666063834
 21
15.0229318279
  0
LINE
  5
6DE
100
AcDbEntity
  8
C_CORPO
100
AcDbLine
 62
7
  6
CONTINUOUS
 10
16.7230072542
 20
11.6760409428
 11
18.1753006998
 21
11.5489817302
  0
LINE
  5
6DF
100
AcDbEntity
  8
ASSI
100
AcDbLine
 62
7
  6
CONTINUOUS
 10
16.7230072542
 20
11.6760409428
 11
18.1753006998
 21
11.5489817302
  0
LINE
  5
6E0
100
AcDbEntity
  8
C_CORPO
100
AcDbLine
 62
7
  6
CONTINUOUS
 10
16.7230072542
 20
11.8347652898
 11
18.1753006998
 21
11.7077060772
  0
LINE
  5
6E1
100
AcDbEntity
  8
ASSI
100
AcDbLine
 62
7
  6
CONTINUOUS
 10
16.7230072542
 20
11.8347652898
 11
18.1753006998
 21
11.7077060772
  0
LINE
  5
6E2
100
AcDbEntity
  8
SCRITTE
100
AcDbLine
 62
250
  6
CONTINUOUS
 10
0.7324873009
 20
16.325
 11
0.4158206248
 21
16.44375
  0
LINE
  5
6E3
100
AcDbEntity
  8
0
100
AcDbLine
 62
250
  6
CONTINUOUS
 10
10.7495499394
 20
11.319613
 11
12.049153977
 21
10.749279
  0
LINE
  5
6E4
100
AcDbEntity
  8
C_COPERCHIO
100
AcDbLine
 62
7
  6
CONTINUOUS
 10
-10.450846023
 20
23.1226497308
 11
-11.325846023
 21
23.6278312164
  0
LWPOLYLINE
  5
6E5
100
AcDbEntity
  8
C_CORPO
100
AcDbPolyline
 62
250
  6
CONTINUOUS
 90
118
 70
0
 10
17.2761976202
 20
7.2493106413
 10
17.2552240959
 20
7.263829671
 10
17.2347513162
 20
7.2775133084
 10
17.214779281
 20
7.2903615535
 10
17.1953313937
 20
7.3023235094
 10
17.1763842508
 20
7.3134500729
 10
17.1578676425
 20
7.3238939351
 10
17.1397879133
 20
7.3336632836
 10
17.1221387186
 20
7.3427499307
 10
17.1048308141
 20
7.3512820043
 10
17.087863926
 20
7.3592695983
 10
17.0712383282
 20
7.3667026187
 10
17.0548655977
 20
7.373678912
 10
17.0387202138
 20
7.3802144624
 10
17.0228276972
 20
7.3862932857
 10
17.0071761869
 20
7.3919652765
 10
16.9917414217
 20
7.3972377214
 10
16.9765476629
 20
7.4021033338
 10
16.9616558334
 20
7.4065901474
 10
16.9470678566
 20
7.4106939476
 10
16.9327818091
 20
7.4144189489
 10
16.9188528443
 20
7.4178058298
 10
16.9052898852
 20
7.4208506678
 10
16.8920840087
 20
7.4235573853
 10
16.8792635989
 20
7.4259784271
 10
16.8668432265
 20
7.4281121938
 10
16.8548083208
 20
7.4299602848
 10
16.8431435532
 20
7.4315799437
 10
16.8318635678
 20
7.432972984
 10
16.8209537205
 20
7.4341375921
 10
16.8103547509
 20
7.4351255707
 10
16.8000853065
 20
7.4359412861
 10
16.7901267398
 20
7.4365803721
 10
16.7803638487
 20
7.4370815331
 10
16.7708027621
 20
7.4374515603
 10
16.7614373511
 20
7.4376836625
 10
16.7521340269
 20
7.4377961706
 10
16.7428928548
 20
7.4377960175
 10
16.7337137696
 20
7.4376762703
 10
16.7244629866
 20
7.4374344614
 10
16.7151381917
 20
7.4370773191
 10
16.7057416991
 20
7.4365981152
 10
16.6961466666
 20
7.4359741968
 10
16.6863454305
 20
7.4352116934
 10
16.6763456545
 20
7.4343044756
 10
16.6660434875
 20
7.4332115028
 10
16.6554236479
 20
7.4319367525
 10
16.6445014174
 20
7.4304762472
 10
16.6332187897
 20
7.4287770147
 10
16.621561733
 20
7.4268406251
 10
16.6095442791
 20
7.4246655082
 10
16.5971505175
 20
7.4221939806
 10
16.584364399
 20
7.4194236982
 10
16.5712019729
 20
7.4163570051
 10
16.5576954759
 20
7.4129432506
 10
16.5438340507
 20
7.4091772899
 10
16.5296285546
 20
7.4050642678
 10
16.5151437969
 20
7.4005689675
 10
16.5003832077
 20
7.3956887287
 10
16.4853433569
 20
7.3904262117
 10
16.4700787633
 20
7.3847541807
 10
16.4546119798
 20
7.378680411
 10
16.4389204535
 20
7.3721971273
 10
16.422991045
 20
7.3652537669
 10
16.4068517268
 20
7.3578689506
 10
16.3904745265
 20
7.3500240577
 10
16.3737623868
 20
7.3416126624
 10
16.3567099532
 20
7.3326425513
 10
16.3393225802
 20
7.3231059379
 10
16.3215192737
 20
7.3128730377
 10
16.3032912934
 20
7.3019494194
 10
16.2846473797
 20
7.2903295143
 10
16.26553276
 20
7.2778668306
 10
16.2459134575
 20
7.2645450652
 10
16.225823449
 20
7.2503805213
 10
16.2053098927
 20
7.2352756162
 10
16.1843373555
 20
7.2191993782
 10
16.1629412704
 20
7.202182779
 10
16.1412750955
 20
7.1842211515
 10
16.1194164439
 20
7.1653861536
 10
16.0972877024
 20
7.1456061272
 10
16.0748094894
 20
7.1246614308
 10
16.051991883
 20
7.1025937929
 10
16.0288248052
 20
7.0793614848
 10
16.00519864
 20
7.0546196796
 10
15.9810575747
 20
7.0283464432
 10
15.956457422
 20
7.0005637098
 10
15.9314560041
 20
6.9709924539
 10
15.9059367077
 20
6.9394950709
 10
15.8800161461
 20
6.9062091655
 10
15.854101981
 20
6.8712685265
 10
15.8281412108
 20
6.8345360565
 10
15.8021868371
 20
6.7961488528
 10
15.7768055274
 20
6.7566519966
 10
15.7520549454
 20
6.716035254
 10
15.7278774274
 20
6.6743088589
 10
15.7046666487
 20
6.6320485935
 10
15.6825227868
 20
6.5893755043
 10
15.6613456641
 20
6.5461685448
 10
15.6412284233
 20
6.5026403575
 10
15.6221927209
 20
6.4588234238
 10
15.6042169004
 20
6.4146852623
 10
15.5873291346
 20
6.3703410718
 10
15.5715264197
 20
6.3257638228
 10
15.5568117594
 20
6.2809805448
 10
15.543222338
 20
6.2361875244
 10
15.5307722193
 20
6.191401331
 10
15.5194473394
 20
6.1466053952
 10
15.5092426902
 20
6.1019462951
 10
15.5001675037
 20
6.0574504496
 10
15.4922125478
 20
6.0130914398
 10
15.4853451187
 20
5.9689365868
 10
15.4795656785
 20
5.924984595
 10
15.474873765
 20
5.8812367601
 10
15.4712352878
 20
5.8377642905
 10
15.4686388834
 20
5.7945909226
 10
15.4670959153
 20
5.7516929201
 10
15.4666063834
 20
5.709070283
  0
LWPOLYLINE
  5
6E6
100
AcDbEntity
  8
ASSI
100
AcDbPolyline
 62
250
  6
CONTINUOUS
 90
118
 70
0
 10
17.2761976202
 20
7.2493106413
 10
17.2552240959
 20
7.263829671
 10
17.2347513162
 20
7.2775133084
 10
17.214779281
 20
7.2903615535
 10
17.1953313937
 20
7.3023235094
 10
17.1763842508
 20
7.3134500729
 10
17.1578676425
 20
7.3238939351
 10
17.1397879133
 20
7.3336632836
 10
17.1221387186
 20
7.3427499307
 10
17.1048308141
 20
7.3512820043
 10
17.087863926
 20
7.3592695983
 10
17.0712383282
 20
7.3667026187
 10
17.0548655977
 20
7.373678912
 10
17.0387202138
 20
7.3802144624
 10
17.0228276972
 20
7.3862932857
 10
17.0071761869
 20
7.3919652765
 10
16.9917414217
 20
7.3972377214
 10
16.9765476629
 20
7.4021033338
 10
16.9616558334
 20
7.4065901474
 10
16.9470678566
 20
7.4106939476
 10
16.9327818091
 20
7.4144189489
 10
16.9188528443
 20
7.4178058298
 10
16.9052898852
 20
7.4208506678
 10
16.8920840087
 20
7.4235573853
 10
16.8792635989
 20
7.4259784271
 10
16.8668432265
 20
7.4281121938
 10
16.8548083208
 20
7.4299602848
 10
16.8431435532
 20
7.4315799437
 10
16.8318635678
 20
7.432972984
 10
16.8209537205
 20
7.4341375921
 10
16.8103547509
 20
7.4351255707
 10
16.8000853065
 20
7.4359412861
 10
16.7901267398
 20
7.4365803721
 10
16.7803638487
 20
7.4370815331
 10
16.7708027621
 20
7.4374515603
 10
16.7614373511
 20
7.4376836625
 10
16.7521340269
 20
7.4377961706
 10
16.7428928548
 20
7.4377960175
 10
16.7337137696
 20
7.4376762703
 10
16.7244629866
 20
7.4374344614
 10
16.7151381917
 20
7.4370773191
 10
16.7057416991
 20
7.4365981152
 10
16.6961466666
 20
7.4359741968
 10
16.6863454305
 20
7.4352116934
 10
16.6763456545
 20
7.4343044756
 10
16.6660434875
 20
7.4332115028
 10
16.6554236479
 20
7.4319367525
 10
16.6445014174
 20
7.4304762472
 10
16.6332187897
 20
7.4287770147
 10
16.621561733
 20
7.4268406251
 10
16.6095442791
 20
7.4246655082
 10
16.5971505175
 20
7.4221939806
 10
16.584364399
 20
7.4194236982
 10
16.5712019729
 20
7.4163570051
 10
16.5576954759
 20
7.4129432506
 10
16.5438340507
 20
7.4091772899
 10
16.5296285546
 20
7.4050642678
 10
16.5151437969
 20
7.4005689675
 10
16.5003832077
 20
7.3956887287
 10
16.4853433569
 20
7.3904262117
 10
16.4700787633
 20
7.3847541807
 10
16.4546119798
 20
7.378680411
 10
16.4389204535
 20
7.3721971273
 10
16.422991045
 20
7.3652537669
 10
16.4068517268
 20
7.3578689506
 10
16.3904745265
 20
7.3500240577
 10
16.3737623868
 20
7.3416126624
 10
16.3567099532
 20
7.3326425513
 10
16.3393225802
 20
7.3231059379
 10
16.3215192737
 20
7.3128730377
 10
16.3032912934
 20
7.3019494194
 10
16.2846473797
 20
7.2903295143
 10
16.26553276
 20
7.2778668306
 10
16.2459134575
 20
7.2645450652
 10
16.225823449
 20
7.2503805213
 10
16.2053098927
 20
7.2352756162
 10
16.1843373555
 20
7.2191993782
 10
16.1629412704
 20
7.202182779
 10
16.1412750955
 20
7.1842211515
 10
16.1194164439
 20
7.1653861536
 10
16.0972877024
 20
7.1456061272
 10
16.0748094894
 20
7.1246614308
 10
16.051991883
 20
7.1025937929
 10
16.0288248052
 20
7.0793614848
 10
16.00519864
 20
7.0546196796
 10
15.9810575747
 20
7.0283464432
 10
15.956457422
 20
7.0005637098
 10
15.9314560041
 20
6.9709924539
 10
15.9059367077
 20
6.9394950709
 10
15.8800161461
 20
6.9062091655
 10
15.854101981
 20
6.8712685265
 10
15.8281412108
 20
6.8345360565
 10
15.8021868371
 20
6.7961488528
 10
15.7768055274
 20
6.7566519966
 10
15.7520549454
 20
6.716035254
 10
15.7278774274
 20
6.6743088589
 10
15.7046666487
 20
6.6320485935
 10
15.6825227868
 20
6.5893755043
 10
15.6613456641
 20
6.5461685448
 10
15.6412284233
 20
6.5026403575
 10
15.6221927209
 20
6.4588234238
 10
15.6042169004
 20
6.4146852623
 10
15.5873291346
 20
6.3703410718
 10
15.5715264197
 20
6.3257638228
 10
15.5568117594
 20
6.2809805448
 10
15.543222338
 20
6.2361875244
 10
15.5307722193
 20
6.191401331
 10
15.5194473394
 20
6.1466053952
 10
15.5092426902
 20
6.1019462951
 10
15.5001675037
 20
6.0574504496
 10
15.4922125478
 20
6.0130914398
 10
15.4853451187
 20
5.9689365868
 10
15.4795656785
 20
5.924984595
 10
15.474873765
 20
5.8812367601
 10
15.4712352878
 20
5.8377642905
 10
15.4686388834
 20
5.7945909226
 10
15.4670959153
 20
5.7516929201
 10
15.4666063834
 20
5.709070283
  0
LINE
  5
6E7
100
AcDbEntity
  8
C_CORPO
100
AcDbLine
 62
7
  6
CONTINUOUS
 10
2.449153977
 20
19.1967670433
 11
2.049153977
 21
19.6109791689
  0
LINE
  5
6E8
100
AcDbEntity
  8
ASSI
100
AcDbLine
 62
7
  6
CONTINUOUS
 10
2.449153977
 20
19.1967670433
 11
2.049153977
 21
19.6109791689
  0
LINE
  5
6E9
100
AcDbEntity
  8
C_CORPO
100
AcDbLine
 62
7
  6
CONTINUOUS
 10
18.4481382771
 20
8.5167210018
 11
18.4490547342
 21
8.1859688222
  0
LINE
  5
6EA
100
AcDbEntity
  8
ASSI
100
AcDbLine
 62
7
  6
CONTINUOUS
 10
18.4481382771
 20
8.5167210018
 11
18.4490547342
 21
8.1859688222
  0
LINE
  5
6EB
100
AcDbEntity
  8
C_CORPO
100
AcDbLine
 62
250
  6
CONTINUOUS
 10
16.7230072635
 20
11.834765289
 11
16.7230072542
 21
10.3279378762
  0
LINE
  5
6EC
100
AcDbEntity
  8
ASSI
100
AcDbLine
 62
250
  6
CONTINUOUS
 10
16.7230072635
 20
11.834765289
 11
16.7230072542
 21
10.3279378762
  0
LINE
  5
6ED
100
AcDbEntity
  8
C_CORPO
100
AcDbLine
 62
250
  6
CONTINUOUS
 10
16.7230072542
 20
6.8720621275
 11
16.7230072542
 21
5.3652347102
  0
LINE
  5
6EE
100
AcDbEntity
  8
ASSI
100
AcDbLine
 62
250
  6
CONTINUOUS
 10
16.7230072542
 20
6.8720621275
 11
16.7230072542
 21
5.3652347102
  0
LINE
  5
6EF
100
AcDbEntity
  8
C_CORPO
100
AcDbLine
 62
250
  6
CONTINUOUS
 10
16.7230072626
 20
-5.523959058
 11
16.7230072621
 21
-11.6760409421
  0
LINE
  5
6F0
100
AcDbEntity
  8
ASSI
100
AcDbLine
 62
250
  6
CONTINUOUS
 10
16.7230072626
 20
-5.523959058
 11
16.7230072621
 21
-11.6760409421
  0
LINE
  5
6F1
100
AcDbEntity
  8
C_CORPO
100
AcDbLine
 62
250
  6
CONTINUOUS
 10
18.1543896989
 20
9.8032726188
 11
18.1543896989
 21
7.3967273812
  0
LINE
  5
6F2
100
AcDbEntity
  8
ASSI
100
AcDbLine
 62
250
  6
CONTINUOUS
 10
18.1543896989
 20
9.8032726188
 11
18.1543896989
 21
7.3967273812
  0
LINE
  5
6F3
100
AcDbEntity
  8
C_CORPO
100
AcDbLine
 62
250
  6
CONTINUOUS
 10
18.1753007006
 20
11.7077060772
 11
18.1753006998
 21
9.8012392344
  0
LINE
  5
6F4
100
AcDbEntity
  8
ASSI
100
AcDbLine
 62
250
  6
CONTINUOUS
 10
18.1753007006
 20
11.7077060772
 11
18.1753006998
 21
9.8012392344
  0
LINE
  5
6F5
100
AcDbEntity
  8
C_CORPO
100
AcDbLine
 62
250
  6
CONTINUOUS
 10
18.1753006998
 20
7.3987607656
 11
18.1753007003
 21
5.4922939228
  0
LINE
  5
6F6
100
AcDbEntity
  8
ASSI
100
AcDbLine
 62
250
  6
CONTINUOUS
 10
18.1753006998
 20
7.3987607656
 11
18.1753007003
 21
5.4922939228
  0
LINE
  5
6F7
100
AcDbEntity
  8
C_CORPO
100
AcDbLine
 62
250
  6
CONTINUOUS
 10
18.1753007014
 20
-5.65101827
 11
18.1753007018
 21
-11.54898173
  0
LINE
  5
6F8
100
AcDbEntity
  8
ASSI
100
AcDbLine
 62
250
  6
CONTINUOUS
 10
18.1753007014
 20
-5.65101827
 11
18.1753007018
 21
-11.54898173
  0
LINE
  5
6F9
100
AcDbEntity
  8
C_CORPO
100
AcDbLine
 62
7
  6
CONTINUOUS
 10
18.449153977
 20
11.4088475781
 11
18.449153977
 21
11.2524687324
  0
LINE
  5
6FA
100
AcDbEntity
  8
ASSI
100
AcDbLine
 62
7
  6
CONTINUOUS
 10
18.449153977
 20
9.0068047444
 11
18.449153977
 21
8.1932155336
  0
LINE
  5
6FB
100
AcDbEntity
  8
C_CORPO
100
AcDbLine
 62
7
  6
CONTINUOUS
 10
18.449153977
 20
5.9401772346
 11
18.449153977
 21
5.7911525722
  0
LINE
  5
6FC
100
AcDbEntity
  8
ASSI
100
AcDbLine
 62
7
  6
CONTINUOUS
 10
18.4490547342
 20
8.1859688222
 11
18.449153977
 21
5.7911525722
  0
LINE
  5
6FD
100
AcDbEntity
  8
C_CORPO
100
AcDbLine
 62
7
  6
CONTINUOUS
 10
18.449153977
 20
-5.9498771907
 11
18.449153977
 21
-11.2501228049
  0
LINE
  5
6FE
100
AcDbEntity
  8
ASSI
100
AcDbLine
 62
7
  6
CONTINUOUS
 10
18.449153977
 20
-5.9498771907
 11
18.449153977
 21
-11.2501228049
  0
LINE
  5
6FF
100
AcDbEntity
  8
C_CORPO
100
AcDbLine
 62
7
  6
CONTINUOUS
 10
18.4481382898
 20
8.6832888195
 11
18.4481382771
 21
8.5167210018
  0
LINE
  5
700
100
AcDbEntity
  8
ASSI
100
AcDbLine
 62
7
  6
CONTINUOUS
 10
18.4481382898
 20
8.6832888195
 11
18.4481382771
 21
8.5167210018
  0
LINE
  5
701
100
AcDbEntity
  8
C_CORPO
100
AcDbLine
 62
7
  6
CONTINUOUS
 10
18.449153977
 20
11.2501046077
 11
18.449153977
 21
5.9500105033
  0
LINE
  5
702
100
AcDbEntity
  8
ASSI
100
AcDbLine
 62
7
  6
CONTINUOUS
 10
18.449153977
 20
11.4088475781
 11
18.4490547397
 21
9.0140341309
  0
LINE
  5
703
100
AcDbEntity
  8
C_CORPO
100
AcDbLine
 62
7
  6
CONTINUOUS
 10
18.4490547397
 20
9.0140341309
 11
18.4481382898
 21
8.6832888195
  0
LINE
  5
704
100
AcDbEntity
  8
ASSI
100
AcDbLine
 62
7
  6
CONTINUOUS
 10
18.4490547397
 20
9.0140341309
 11
18.4481382898
 21
8.6832888195
  0
LWPOLYLINE
  5
705
100
AcDbEntity
  8
0
100
AcDbPolyline
 62
250
  6
CONTINUOUS
 90
30
 70
0
 10
13.5379556299
 20
-11.5005449871
 10
13.5753962375
 20
-11.446536964
 10
13.6116878707
 20
-11.3916873558
 10
13.6468118033
 20
-11.3360260015
 10
13.6807493092
 20
-11.27958274
 10
13.7134816623
 20
-11.2223874104
 10
13.7449901365
 20
-11.1644698515
 10
13.7752560058
 20
-11.1058599023
 10
13.8042605439
 20
-11.0465874019
 10
13.8319850249
 20
-10.986682189
 10
13.8584107226
 20
-10.9261741028
 10
13.8835189108
 20
-10.8650929822
 10
13.9072908636
 20
-10.8034686661
 10
13.9297078548
 20
-10.7413309934
 10
13.9507511583
 20
-10.6787098032
 10
13.9697744701
 20
-10.6177378685
 10
13.9874949772
 20
-10.5563740218
 10
14.0039113237
 20
-10.4946503915
 10
14.019022154
 20
-10.432599106
 10
14.0328261122
 20
-10.3702522937
 10
14.0453218423
 20
-10.3076420827
 10
14.0565079888
 20
-10.2448006016
 10
14.0663831956
 20
-10.1817599786
 10
14.0749461071
 20
-10.1185523421
 10
14.0821953674
 20
-10.0552098204
 10
14.0881296206
 20
-9.9917645418
 10
14.092747511
 20
-9.9282486348
 10
14.0960476828
 20
-9.8646942276
 10
14.0980287802
 20
-9.8011334485
 10
14.0986894472
 20
-9.737598426
  0
LWPOLYLINE
  5
706
100
AcDbEntity
  8
0
100
AcDbPolyline
 62
250
  6
CONTINUOUS
 90
79
 70
0
 10
12.1244633221
 20
-10.8189546988
 10
12.169598196
 20
-10.7718094402
 10
12.2127712325
 20
-10.7226457708
 10
12.2538945118
 20
-10.6715913319
 10
12.2928801142
 20
-10.6187737648
 10
12.3296401198
 20
-10.5643207106
 10
12.3640866088
 20
-10.5083598106
 10
12.3961316614
 20
-10.4510187061
 10
12.4256873578
 20
-10.3924250383
 10
12.4526657782
 20
-10.3327064484
 10
12.4752261336
 20
-10.276659289
 10
12.4955012692
 20
-10.2198338115
 10
12.5134792805
 20
-10.1623023421
 10
12.5291482629
 20
-10.104137207
 10
12.5424963118
 20
-10.0454107324
 10
12.5520097975
 20
-9.9950954378
 10
12.5598241086
 20
-9.9444881829
 10
12.5659264352
 20
-9.893650506
 10
12.5703687266
 20
-9.8417438362
 10
12.5730316347
 20
-9.7897104312
 10
12.5739217125
 20
-9.737598426
 10
12.5726865742
 20
-9.6757575304
 10
12.5689688608
 20
-9.6139883948
 10
12.5627709302
 20
-9.5524056397
 10
12.5540951402
 20
-9.4911238857
 10
12.5429438489
 20
-9.4302577532
 10
12.5297618144
 20
-9.3716988458
 10
12.5142687135
 20
-9.3137163802
 10
12.4964820346
 20
-9.2563875562
 10
12.4764192662
 20
-9.1997895733
 10
12.4540978967
 20
-9.1439996313
 10
12.4273889288
 20
-9.0845490005
 10
12.3981180068
 20
-9.026245282
 10
12.366354663
 20
-8.9691959498
 10
12.33216843
 20
-8.9135084777
 10
12.29562884
 20
-8.8592903398
 10
12.2568054255
 20
-8.80664901
 10
12.2157677189
 20
-8.7556919622
 10
12.1725852526
 20
-8.7065266705
 10
12.1273275591
 20
-8.6592606086
 10
12.0800704345
 20
-8.6139949075
 10
12.0309147313
 20
-8.5708053258
 10
11.9799675656
 20
-8.5297612789
 10
11.9273360535
 20
-8.4909321823
 10
11.8731273113
 20
-8.4543874514
 10
11.8174484551
 20
-8.4201965017
 10
11.7604066011
 20
-8.3884287487
 10
11.7021088655
 20
-8.3591536079
 10
11.6426623645
 20
-8.3324404947
 10
11.5868747503
 20
-8.3101153276
 10
11.5302797517
 20
-8.2900490158
 10
11.4729571079
 20
-8.272259339
 10
11.414986558
 20
-8.2567640768
 10
11.3564478411
 20
-8.2435810088
 10
11.2956115837
 20
-8.2324299139
 10
11.2343603194
 20
-8.223754789
 10
11.1727977974
 20
-8.2175569533
 10
11.1110277671
 20
-8.213837726
 10
11.0491539778
 20
-8.2125984263
 10
10.9872801807
 20
-8.2138398455
 10
10.9255101348
 20
-8.2175606624
 10
10.8639476012
 20
-8.223759028
 10
10.8026963408
 20
-8.2324330931
 10
10.7418601144
 20
-8.2435810088
 10
10.6833214574
 20
-8.2567589659
 10
10.6253509706
 20
-8.2722491477
 10
10.5680283601
 20
-8.2900362995
 10
10.5114333316
 20
-8.3101051667
 10
10.455645591
 20
-8.3324404947
 10
10.3961988237
 20
-8.3591747393
 10
10.3379007352
 20
-8.3884777531
 10
10.2808585073
 20
-8.4202749673
 10
10.2251793219
 20
-8.4544918131
 10
10.1709703609
 20
-8.4910537218
 10
10.118338806
 20
-8.5298861244
 10
10.067391839
 20
-8.5709144523
 10
10.0182366419
 20
-8.6140641366
 10
9.9709803965
 20
-8.6592606086
 10
9.9257239718
 20
-8.706426788
  0
LINE
  5
707
100
AcDbEntity
  8
C_CORPO
100
AcDbLine
 62
250
  6
CONTINUOUS
 10
15.4666063834
 20
15.0229318279
 11
2.9404278045
 21
15.2415770883
  0
LINE
  5
708
100
AcDbEntity
  8
ASSI
100
AcDbLine
 62
250
  6
CONTINUOUS
 10
15.4666063834
 20
15.0229318279
 11
2.9404278045
 21
15.2415770883
  0
LINE
  5
709
100
AcDbEntity
  8
C_CORPO
100
AcDbLine
 62
7
  6
CONTINUOUS
 10
15.4666063834
 20
16.022779523
 11
2.9404277738
 21
16.241424784
  0
LINE
  5
70A
100
AcDbEntity
  8
ASSI
100
AcDbLine
 62
7
  6
CONTINUOUS
 10
15.4666063834
 20
16.022779523
 11
2.9404277738
 21
16.241424784
  0
LINE
  5
70B
100
AcDbEntity
  8
SCRITTE
100
AcDbLine
 62
250
  6
CONTINUOUS
 10
-0.0591793186
 20
15.49375
 11
-0.850846023
 21
15.6125
  0
LINE
  5
70C
100
AcDbEntity
  8
0
100
AcDbLine
 62
250
  6
CONTINUOUS
 10
11.5462721947
 20
13.523604
 11
10.7495499394
 21
13.999343
  0
LWPOLYLINE
  5
70D
100
AcDbEntity
  8
C_COPERCHIO
100
AcDbPolyline
 62
250
  6
CONTINUOUS
 90
9
 70
0
 10
-1.0537711117
 20
-23.3336025571
 10
-1.0823003126
 20
-23.3527640243
 10
-1.1132083086
 20
-23.3704179409
 10
-1.1460512168
 20
-23.3864898959
 10
-1.1804666303
 20
-23.4010543002
 10
-1.2161984554
 20
-23.4140982047
 10
-1.2529148903
 20
-23.4256172931
 10
-1.2901901568
 20
-23.4356158818
 10
-1.3276505871
 20
-23.4440939707
  0
LINE
  5
70E
100
AcDbEntity
  8
C_CORPO
100
AcDbLine
 62
250
  6
CONTINUOUS
 10
2.449153977
 20
17.5965057526
 11
-7.950846023
 21
17.6716990487
  0
LINE
  5
70F
100
AcDbEntity
  8
ASSI
100
AcDbLine
 62
250
  6
CONTINUOUS
 10
2.449153977
 20
17.5965057526
 11
-7.950846023
 21
17.6716990487
  0
LINE
  5
710
100
AcDbEntity
  8
C_CORPO
100
AcDbLine
 62
250
  6
CONTINUOUS
 10
2.449153977
 20
19.0105039234
 11
-7.950846023
 21
19.0856972195
  0
LINE
  5
711
100
AcDbEntity
  8
ASSI
100
AcDbLine
 62
250
  6
CONTINUOUS
 10
2.449153977
 20
19.0105039234
 11
-7.950846023
 21
19.0856972195
  0
LWPOLYLINE
  5
712
100
AcDbEntity
  8
C_CORPO
100
AcDbPolyline
 62
7
  6
CONTINUOUS
 90
52
 70
0
 10
16.7230072542
 20
10.3279378762
 10
16.7282138478
 20
10.3155788821
 10
16.7336898756
 20
10.3034795562
 10
16.7394353376
 20
10.2916431521
 10
16.745445053
 20
10.2800981007
 10
16.7517242026
 20
10.2688222286
 10
16.7582883293
 20
10.2577421257
 10
16.7651417706
 20
10.2468479026
 10
16.772280189
 20
10.2361537727
 10
16.7797061153
 20
10.2256215194
 10
16.7874223872
 20
10.2152442986
 10
16.795426167
 20
10.2050323564
 10
16.8037114721
 20
10.1949726546
 10
16.8122804227
 20
10.1850617886
 10
16.8211308985
 20
10.1753060822
 10
16.8302505566
 20
10.1657069071
 10
16.839641165
 20
10.1562631125
 10
16.8493009557
 20
10.1469784788
 10
16.8592122822
 20
10.1378617152
 10
16.8693766754
 20
10.128913007
 10
16.8797926043
 20
10.1201345766
 10
16.8904378293
 20
10.1115381687
 10
16.9013135827
 20
10.1031248393
 10
16.9124186323
 20
10.0948957261
 10
16.9237270421
 20
10.086862676
 10
16.9352396617
 20
10.0790272455
 10
16.9469556417
 20
10.0713898387
 10
16.958846497
 20
10.0639605339
 10
16.9709126379
 20
10.0567411388
 10
16.9831536542
 20
10.0497315483
 10
16.9955398306
 20
10.0429389114
 10
17.0080710737
 20
10.0363651671
 10
17.020747477
 20
10.0300098026
 10
17.0335396057
 20
10.0238762088
 10
17.0464468267
 20
10.0179660963
 10
17.0594697732
 20
10.0122788972
 10
17.0725809102
 20
10.0068144947
 10
17.0857790414
 20
10.0015746049
 10
17.099065363
 20
9.9965583806
 10
17.1124159289
 20
9.9917617689
 10
17.1258289498
 20
9.987185891
 10
17.1393062149
 20
9.9828302398
 10
17.1528291455
 20
9.978688237
 10
17.1663953473
 20
9.9747609076
 10
17.1800072146
 20
9.971047617
 10
17.1936533516
 20
9.9675392289
 10
17.2073310276
 20
9.9642360265
 10
17.2210429732
 20
9.9611379264
 10
17.234785985
 20
9.9582351899
 10
17.2485589949
 20
9.955524584
 10
17.2623630709
 20
9.9530093852
 10
17.2761982129
 20
9.9506895805
  0
LWPOLYLINE
  5
713
100
AcDbEntity
  8
ASSI
100
AcDbPolyline
 62
7
  6
CONTINUOUS
 90
52
 70
0
 10
16.7230072542
 20
10.3279378762
 10
16.7282138478
 20
10.3155788821
 10
16.7336898756
 20
10.3034795562
 10
16.7394353376
 20
10.2916431521
 10
16.745445053
 20
10.2800981007
 10
16.7517242026
 20
10.2688222286
 10
16.7582883293
 20
10.2577421257
 10
16.7651417706
 20
10.2468479026
 10
16.772280189
 20
10.2361537727
 10
16.7797061153
 20
10.2256215194
 10
16.7874223872
 20
10.2152442986
 10
16.795426167
 20
10.2050323564
 10
16.8037114721
 20
10.1949726546
 10
16.8122804227
 20
10.1850617886
 10
16.8211308985
 20
10.1753060822
 10
16.8302505566
 20
10.1657069071
 10
16.839641165
 20
10.1562631125
 10
16.8493009557
 20
10.1469784788
 10
16.8592122822
 20
10.1378617152
 10
16.8693766754
 20
10.128913007
 10
16.8797926043
 20
10.1201345766
 10
16.8904378293
 20
10.1115381687
 10
16.9013135827
 20
10.1031248393
 10
16.9124186323
 20
10.0948957261
 10
16.9237270421
 20
10.086862676
 10
16.9352396617
 20
10.0790272455
 10
16.9469556417
 20
10.0713898387
 10
16.958846497
 20
10.0639605339
 10
16.9709126379
 20
10.0567411388
 10
16.9831536542
 20
10.0497315483
 10
16.9955398306
 20
10.0429389114
 10
17.0080710737
 20
10.0363651671
 10
17.020747477
 20
10.0300098026
 10
17.0335396057
 20
10.0238762088
 10
17.0464468267
 20
10.0179660963
 10
17.0594697732
 20
10.0122788972
 10
17.0725809102
 20
10.0068144947
 10
17.0857790414
 20
10.0015746049
 10
17.099065363
 20
9.9965583806
 10
17.1124159289
 20
9.9917617689
 10
17.1258289498
 20
9.987185891
 10
17.1393062149
 20
9.9828302398
 10
17.1528291455
 20
9.978688237
 10
17.1663953473
 20
9.9747609076
 10
17.1800072146
 20
9.971047617
 10
17.1936533516
 20
9.9675392289
 10
17.2073310276
 20
9.9642360265
 10
17.2210429732
 20
9.9611379264
 10
17.234785985
 20
9.9582351899
 10
17.2485589949
 20
9.955524584
 10
17.2623630709
 20
9.9530093852
 10
17.2761982129
 20
9.9506895805
  0
LWPOLYLINE
  5
714
100
AcDbEntity
  8
C_COPERCHIO
100
AcDbPolyline
 62
250
  6
CONTINUOUS
 90
7
 70
0
 10
-1.3276505871
 20
-23.4440939707
 10
-1.3462276649
 20
-23.4514139498
 10
-1.3650051939
 20
-23.4574640164
 10
-1.3839831738
 20
-23.4622441705
 10
-1.4031616048
 20
-23.4657544121
 10
-1.4225404868
 20
-23.4679947411
 10
-1.4421198198
 20
-23.4689651576
  0
LINE
  5
715
100
AcDbEntity
  8
C_COPERCHIO
100
AcDbLine
 62
7
  6
CONTINUOUS
 10
2.049153977
 20
20.9872686779
 11
-7.950846023
 21
20.9
  0
LINE
  5
716
100
AcDbEntity
  8
C_CORPO
100
AcDbLine
 62
7
  6
CONTINUOUS
 10
-7.950846023
 20
20.85
 11
2.049153977
 21
20.85
  0
LINE
  5
717
100
AcDbEntity
  8
ASSI
100
AcDbLine
 62
7
  6
CONTINUOUS
 10
-7.950846023
 20
20.85
 11
2.049153977
 21
20.85
  0
LINE
  5
718
100
AcDbEntity
  8
C_COPERCHIO
100
AcDbLine
 62
7
  6
CONTINUOUS
 10
1.5578801802
 20
21.3240205999
 11
-7.950846023
 21
21.3927698754
  0
LINE
  5
719
100
AcDbEntity
  8
C_CORPO
100
AcDbLine
 62
250
  6
CONTINUOUS
 10
2.049153977
 20
19.3181305591
 11
2.3368032545
 21
19.3131096223
  0
LINE
  5
71A
100
AcDbEntity
  8
ASSI
100
AcDbLine
 62
250
  6
CONTINUOUS
 10
2.049153977
 20
19.3181305591
 11
2.3368032545
 21
19.3131096223
  0
LINE
  5
71B
100
AcDbEntity
  8
C_COPERCHIO
100
AcDbLine
 62
250
  6
CONTINUOUS
 10
-17.5370011927
 20
20.5419058565
 11
-17.9623733314
 21
20.5595954377
  0
LWPOLYLINE
  5
71C
100
AcDbEntity
  8
C_COPERCHIO
100
AcDbPolyline
 62
250
  6
CONTINUOUS
 90
3
 70
0
 10
-17.9623733314
 20
20.5595954377
 10
-18.0236741812
 20
20.562249996
 10
-18.0278519886
 20
20.5624683245
  0
LWPOLYLINE
  5
71D
100
AcDbEntity
  8
0
100
AcDbPolyline
 62
7
  6
CONTINUOUS
 90
10
 70
0
 43
0.3500000006
 10
0.8562968545
 20
44.4813873138
 10
0.9277254174
 20
44.33852948
 10
0.9277254174
 20
44.2670982971
 10
0.7848682916
 20
44.1242404633
 10
0.7134396579
 20
44.1242404633
 10
0.642011095
 20
44.1956716461
 10
0.642011095
 20
44.2670982971
 10
0.7134396579
 20
44.409956131
 10
0.7848682916
 20
44.4813873138
 10
0.8562968545
 20
44.4813873138
  0
LWPOLYLINE
  5
71E
100
AcDbEntity
  8
0
100
AcDbPolyline
 62
7
  6
CONTINUOUS
 90
10
 70
0
 43
0.3500000006
 10
6.2134394245
 20
34.2064952087
 10
6.2848683414
 20
34.0636373749
 10
6.2848683414
 20
33.9922107239
 10
6.1420110741
 20
33.84935289
 10
6.0705827236
 20
33.84935289
 10
5.9991538067
 20
33.920779541
 10
5.9991538067
 20
33.9922107239
 10
6.0705827236
 20
34.1350640259
 10
6.1420110741
 20
34.2064952087
 10
6.2134394245
 20
34.2064952087
  0
LWPOLYLINE
  5
71F
100
AcDbEntity
  8
C_COPERCHIO
100
AcDbPolyline
 62
250
  6
CONTINUOUS
 90
22
 70
0
 10
-16.590183137
 20
21.4994104546
 10
-16.6605104877
 20
21.4932039773
 10
-16.7296524335
 20
21.4822189152
 10
-16.7976089742
 20
21.4664552685
 10
-16.8647334711
 20
21.4457887816
 10
-16.9306725629
 20
21.4203437101
 10
-16.9943661665
 20
21.39049282
 10
-17.0557594427
 20
21.3561652257
 10
-17.1149072306
 20
21.3174318129
 10
-17.1709139645
 20
21.2748780041
 10
-17.2237213934
 20
21.2284542578
 10
-17.2733877682
 20
21.1782101156
 10
-17.3191922754
 20
21.1248796254
 10
-17.3610825527
 20
21.068410392
 10
-17.3991109625
 20
21.0088548106
 10
-17.432713778
 20
20.9471041155
 10
-17.4618239994
 20
20.8830990577
 10
-17.4865086266
 20
20.8168988863
 10
-17.5064049323
 20
20.7495725823
 10
-17.5213920073
 20
20.6814764729
 10
-17.5315907607
 20
20.6122542309
 10
-17.5370011927
 20
20.5419058565
  0
LINE
  5
720
100
AcDbEntity
  8
C_COPERCHIO
100
AcDbLine
 62
250
  6
CONTINUOUS
 10
-8.950840704
 20
21.8997714267
 11
-16.590183137
 21
21.4994104546
  0
LINE
  5
721
100
AcDbEntity
  8
C_COPERCHIO
100
AcDbLine
 62
7
  6
CONTINUOUS
 10
-8.950846023
 20
22.399708057
 11
-10.640266048
 21
22.3111693052
  0
LINE
  5
722
100
AcDbEntity
  8
C_COPERCHIO
100
AcDbLine
 62
7
  6
CONTINUOUS
 10
-10.6403788318
 20
22.3114553375
 11
-16.6076249119
 21
21.998725222
  0
LINE
  5
723
100
AcDbEntity
  8
C_COPERCHIO
100
AcDbLine
 62
250
  6
CONTINUOUS
 10
-7.950846023
 20
21.8823164546
 11
-8.950840704
 21
21.8997714267
  0
LINE
  5
724
100
AcDbEntity
  8
C_COPERCHIO
100
AcDbLine
 62
7
  6
CONTINUOUS
 10
1.0666063834
 20
22.2251447178
 11
-8.950846023
 21
22.4
  0
LINE
  5
725
100
AcDbEntity
  8
C_COPERCHIO
100
AcDbLine
 62
250
  6
CONTINUOUS
 10
-8.1482628873
 20
23.5860213202
 11
-1.4421198198
 21
23.4689651576
  0
LWPOLYLINE
  5
726
100
AcDbEntity
  8
C_COPERCHIO
100
AcDbPolyline
 62
250
  6
CONTINUOUS
 90
7
 70
0
 10
-1.4421198198
 20
23.4689651576
 10
-1.4225404868
 20
23.467994741
 10
-1.4031616048
 20
23.4657544119
 10
-1.3839831738
 20
23.4622441703
 10
-1.3650051939
 20
23.4574640163
 10
-1.346227665
 20
23.4514139497
 10
-1.3276505871
 20
23.4440939707
  0
LWPOLYLINE
  5
727
100
AcDbEntity
  8
C_COPERCHIO
100
AcDbPolyline
 62
250
  6
CONTINUOUS
 90
16
 70
0
 10
-1.3276505871
 20
23.4440939707
 10
-1.290044587
 20
23.4355871505
 10
-1.2526522452
 20
23.4255546368
 10
-1.2158496063
 20
23.4139964297
 10
-1.1800609572
 20
23.4008984596
 10
-1.1456201799
 20
23.3862747961
 10
-1.1127879342
 20
23.3701676473
 10
-1.0819401906
 20
23.352528062
 10
-1.0534923028
 20
23.3334049915
 10
-1.0277887146
 20
23.3129874977
 10
-1.0051591684
 20
23.2911425485
 10
-0.986037237
 20
23.268003176
 10
-0.9708383499
 20
23.2441575383
 10
-0.9598091097
 20
23.219801688
 10
-0.9530996221
 20
23.1947395726
 10
-0.9508460286
 20
23.1689711919
  0
LWPOLYLINE
  5
728
100
AcDbEntity
  8
C_COPERCHIO
100
AcDbPolyline
 62
7
  6
CONTINUOUS
 90
3
 70
0
 10
-10.5901085858
 20
22.3203522346
 10
-10.6145307629
 20
22.3143154152
 10
-10.640266048
 20
22.3111693052
  0
LINE
  5
729
100
AcDbEntity
  8
C_COPERCHIO
100
AcDbLine
 62
250
  6
CONTINUOUS
 10
-8.950846023
 20
24.2500380762
 11
-11.2052091246
 21
24.2106880219
  0
LINE
  5
72A
100
AcDbEntity
  8
C_COPERCHIO
100
AcDbLine
 62
7
  6
CONTINUOUS
 10
-8.950846023
 20
24.5
 11
-11.2052091246
 21
24.4606499457
  0
LINE
  5
72B
100
AcDbEntity
  8
C_COPERCHIO
100
AcDbLine
 62
250
  6
CONTINUOUS
 10
-11.2052091246
 20
24.2106880219
 11
-11.450846023
 21
24.2106880219
  0
LINE
  5
72C
100
AcDbEntity
  8
C_COPERCHIO
100
AcDbLine
 62
250
  6
CONTINUOUS
 10
-8.1964829214
 20
24.2368706193
 11
-7.950846023
 21
24.2368706193
  0
LINE
  5
72D
100
AcDbEntity
  8
C_COPERCHIO
100
AcDbLine
 62
7
  6
CONTINUOUS
 10
-7.9519242889
 20
23.7825637563
 11
-1.4421198198
 21
23.6689346966
  0
LINE
  5
72E
100
AcDbEntity
  8
C_COPERCHIO
100
AcDbLine
 62
250
  6
CONTINUOUS
 10
-8.1964829214
 20
24.2368706193
 11
-8.950846023
 21
24.2500380762
  0
LINE
  5
72F
100
AcDbEntity
  8
C_COPERCHIO
100
AcDbLine
 62
7
  6
CONTINUOUS
 10
-8.1964829214
 20
24.4868325431
 11
-8.950846023
 21
24.5
  0
LWPOLYLINE
  5
730
100
AcDbEntity
  8
0
100
AcDbPolyline
 62
7
  6
CONTINUOUS
 90
7
 70
0
 43
0.3500000006
 10
2.3562968874
 20
33.7064950562
 10
0.8562968545
 20
33.7064950562
 10
2.3562968874
 20
35.8493535004
 10
2.3562968874
 20
36.2779224701
 10
1.9277253685
 20
36.7064959717
 10
1.2848682318
 20
36.7064959717
 10
0.8562968545
 20
36.0636379852
  0
LWPOLYLINE
  5
731
100
AcDbEntity
  8
0
100
AcDbPolyline
 62
7
  6
CONTINUOUS
 90
3
 70
0
 43
0.3500000006
 10
8.7848685379
 20
34.3493530426
 10
7.2848680801
 20
34.3493530426
 10
7.9277255001
 20
36.7064959717
  0
LWPOLYLINE
  5
732
100
AcDbEntity
  8
0
100
AcDbPolyline
 62
7
  6
CONTINUOUS
 90
6
 70
0
 43
0.3500000006
 10
-4.2865603809
 20
43.9813871613
 10
-3.2151317253
 20
43.9813871613
 10
-3.0008461075
 20
44.1956716461
 10
-3.0008461075
 20
45.2670986023
 10
-3.4294173431
 20
45.6956721039
 10
-3.857988862
 20
45.6956721039
  0
ARC
  5
733
100
AcDbEntity
  8
C_COPERCHIO
100
AcDbCircle
 62
7
  6
CONTINUOUS
 10
50.0
 20
-5.95
 40
2.7
100
AcDbArc
 50
0.0
 51
180.0
  0
ARC
  5
734
100
AcDbEntity
  8
C_CONTATTI
100
AcDbCircle
 62
7
  6
CONTINUOUS
 10
53.6338701587
 20
5.95
 40
1.8
100
AcDbArc
 50
349.8685857136
 51
10.1315571997
  0
ARC
  5
735
100
AcDbEntity
  8
C_CONTATTI
100
AcDbCircle
 62
7
  6
CONTINUOUS
 10
57.3661298413
 20
5.95
 40
1.8
100
AcDbArc
 50
169.8685857324
 51
190.1315571839
  0
ARC
  5
736
100
AcDbEntity
  8
C_CONTATTI
100
AcDbCircle
 62
7
  6
CONTINUOUS
 10
51.8661298413
 20
-5.95
 40
1.8
100
AcDbArc
 50
169.8685857136
 51
190.1315571997
  0
ARC
  5
737
100
AcDbEntity
  8
C_CONTATTI
100
AcDbCircle
 62
7
  6
CONTINUOUS
 10
48.1338701587
 20
-5.95
 40
1.8
100
AcDbArc
 50
349.8685857324
 51
10.1315571839
  0
ARC
  5
738
100
AcDbEntity
  8
C_CONTATTI
100
AcDbCircle
 62
7
  6
CONTINUOUS
 10
42.6338701587
 20
5.95
 40
1.8
100
AcDbArc
 50
349.8685857136
 51
10.1315571997
  0
ARC
  5
739
100
AcDbEntity
  8
C_CONTATTI
100
AcDbCircle
 62
7
  6
CONTINUOUS
 10
46.3661298413
 20
5.95
 40
1.8
100
AcDbArc
 50
169.8685857324
 51
190.1315571839
  0
ARC
  5
73A
100
AcDbEntity
  8
C_COPERCHIO
100
AcDbCircle
 62
7
  6
CONTINUOUS
 10
-16.5291209775
 20
-20.5007809199
 40
1.5
100
AcDbArc
 50
182.3569499908
 51
267.0000000001
  0
ARC
  5
73B
100
AcDbEntity
  8
C_COPERCHIO
100
AcDbCircle
 62
7
  6
CONTINUOUS
 10
-1.450846023
 20
-23.169010849
 40
0.5
100
AcDbArc
 50
271.0
 51
356.5761229223
  0
ARC
  5
73C
100
AcDbEntity
  8
C_COPERCHIO
100
AcDbCircle
 62
7
  6
CONTINUOUS
 10
-11.200846023
 20
-24.2106880219
 40
0.25
100
AcDbArc
 50
180.0
 51
269.0
  0
ARC
  5
73D
100
AcDbEntity
  8
C_COPERCHIO
100
AcDbCircle
 62
7
  6
CONTINUOUS
 10
-8.200846023
 20
-24.2368706193
 40
0.25
100
AcDbArc
 50
271.0
 51
360.0
  0
ARC
  5
73E
100
AcDbEntity
  8
C_COPERCHIO
100
AcDbCircle
 62
7
  6
CONTINUOUS
 10
-8.200846023
 20
-23.8443375673
 40
0.25
100
AcDbArc
 50
0.0
 51
60.0
  0
ARC
  5
73F
100
AcDbEntity
  8
C_COPERCHIO
100
AcDbCircle
 62
7
  6
CONTINUOUS
 10
-11.200846023
 20
-23.8443375673
 40
0.25
100
AcDbArc
 50
120.0
 51
180.0
  0
ARC
  5
740
100
AcDbEntity
  8
C_COPERCHIO
100
AcDbCircle
 62
7
  6
CONTINUOUS
 10
1.049153977
 20
-21.2252970227
 40
1.0
100
AcDbArc
 50
271.0
 51
360.0
  0
ARC
  5
741
100
AcDbEntity
  8
C_CORPO
100
AcDbCircle
 62
7
  6
CONTINUOUS
 10
15.449153977
 20
-15.0229318279
 40
1.0
100
AcDbArc
 50
271.0
 51
360.0
  0
ARC
  5
742
100
AcDbEntity
  8
ASSI
100
AcDbCircle
 62
7
  6
CONTINUOUS
 10
15.449153977
 20
-15.0229318279
 40
1.0
100
AcDbArc
 50
271.0
 51
360.0
  0
ARC
  5
743
100
AcDbEntity
  8
C_CORPO
100
AcDbCircle
 62
7
  6
CONTINUOUS
 10
2.949153977
 20
-16.7413485672
 40
0.4999999786
100
AcDbArc
 50
91.0000001287
 51
180.0000073739
  0
ARC
  5
744
100
AcDbEntity
  8
ASSI
100
AcDbCircle
 62
7
  6
CONTINUOUS
 10
2.949153977
 20
-16.7413485672
 40
0.4999999786
100
AcDbArc
 50
91.0000001287
 51
180.0000073739
  0
ARC
  5
745
100
AcDbEntity
  8
C_CORPO
100
AcDbCircle
 62
7
  6
CONTINUOUS
 10
16.749153977
 20
-11.9748993522
 40
0.3
100
AcDbArc
 50
95.0
 51
172.7722917214
  0
ARC
  5
746
100
AcDbEntity
  8
ASSI
100
AcDbCircle
 62
7
  6
CONTINUOUS
 10
16.749153977
 20
-11.9748993522
 40
0.3
100
AcDbArc
 50
95.0
 51
180.0
  0
ARC
  5
747
100
AcDbEntity
  8
C_CORPO
100
AcDbCircle
 62
7
  6
CONTINUOUS
 10
16.749153977
 20
-5.2251006478
 40
0.3
100
AcDbArc
 50
180.0
 51
265.0
  0
ARC
  5
748
100
AcDbEntity
  8
ASSI
100
AcDbCircle
 62
7
  6
CONTINUOUS
 10
16.749153977
 20
-5.2251006478
 40
0.3
100
AcDbArc
 50
180.0
 51
265.0
  0
ARC
  5
749
100
AcDbEntity
  8
C_CORPO
100
AcDbCircle
 62
7
  6
CONTINUOUS
 10
18.149153977
 20
-11.2501233207
 40
0.3
100
AcDbArc
 50
275.0
 51
360.0
  0
ARC
  5
74A
100
AcDbEntity
  8
ASSI
100
AcDbCircle
 62
7
  6
CONTINUOUS
 10
18.149153977
 20
-11.2501233207
 40
0.3
100
AcDbArc
 50
275.0
 51
360.0
  0
ARC
  5
74B
100
AcDbEntity
  8
C_CORPO
100
AcDbCircle
 62
7
  6
CONTINUOUS
 10
18.149153977
 20
-5.9498766793
 40
0.3
100
AcDbArc
 50
0.0
 51
85.0
  0
ARC
  5
74C
100
AcDbEntity
  8
ASSI
100
AcDbCircle
 62
7
  6
CONTINUOUS
 10
18.149153977
 20
-5.9498766793
 40
0.3
100
AcDbArc
 50
0.0
 51
85.0
  0
ARC
  5
74D
100
AcDbEntity
  8
C_COPERCHIO
100
AcDbCircle
 62
7
  6
CONTINUOUS
 10
-16.5291209775
 20
20.5007809199
 40
1.5
100
AcDbArc
 50
92.9999999999
 51
177.6430500092
  0
ARC
  5
74E
100
AcDbEntity
  8
C_COPERCHIO
100
AcDbCircle
 62
7
  6
CONTINUOUS
 10
-1.450846023
 20
23.169010849
 40
0.5
100
AcDbArc
 50
359.9914954712
 51
89.0
  0
ARC
  5
74F
100
AcDbEntity
  8
C_COPERCHIO
100
AcDbCircle
 62
7
  6
CONTINUOUS
 10
-8.200846023
 20
24.2368706193
 40
0.25
100
AcDbArc
 50
0.0
 51
89.0
  0
ARC
  5
750
100
AcDbEntity
  8
C_COPERCHIO
100
AcDbCircle
 62
7
  6
CONTINUOUS
 10
-11.200846023
 20
24.2106880219
 40
0.25
100
AcDbArc
 50
91.0
 51
180.0
  0
ARC
  5
751
100
AcDbEntity
  8
C_COPERCHIO
100
AcDbCircle
 62
7
  6
CONTINUOUS
 10
-8.200846023
 20
23.8443375673
 40
0.25
100
AcDbArc
 50
300.0
 51
360.0
  0
ARC
  5
752
100
AcDbEntity
  8
C_COPERCHIO
100
AcDbCircle
 62
7
  6
CONTINUOUS
 10
-11.200846023
 20
23.8443375673
 40
0.25
100
AcDbArc
 50
180.0
 51
240.0
  0
ARC
  5
753
100
AcDbEntity
  8
C_CORPO
100
AcDbCircle
 62
7
  6
CONTINUOUS
 10
16.749153977
 20
5.0663763007
 40
0.3
100
AcDbArc
 50
95.0
 51
172.7722906716
  0
ARC
  5
754
100
AcDbEntity
  8
C_CORPO
100
AcDbCircle
 62
7
  6
CONTINUOUS
 10
16.749153977
 20
5.2251006478
 40
0.3
100
AcDbArc
 50
95.0
 51
172.7722907769
  0
ARC
  5
755
100
AcDbEntity
  8
ASSI
100
AcDbCircle
 62
7
  6
CONTINUOUS
 10
16.749153977
 20
5.0663763007
 40
0.3
100
AcDbArc
 50
95.0
 51
180.0
  0
ARC
  5
756
100
AcDbEntity
  8
ASSI
100
AcDbCircle
 62
7
  6
CONTINUOUS
 10
16.749153977
 20
5.2251006478
 40
0.3
100
AcDbArc
 50
95.0
 51
180.0
  0
ARC
  5
757
100
AcDbEntity
  8
C_CORPO
100
AcDbCircle
 62
7
  6
CONTINUOUS
 10
16.749153977
 20
11.9748993522
 40
0.3
100
AcDbArc
 50
180.0
 51
265.0
  0
ARC
  5
758
100
AcDbEntity
  8
C_CORPO
100
AcDbCircle
 62
7
  6
CONTINUOUS
 10
16.749153977
 20
12.1336236993
 40
0.3
100
AcDbArc
 50
180.0
 51
265.0
  0
ARC
  5
759
100
AcDbEntity
  8
ASSI
100
AcDbCircle
 62
7
  6
CONTINUOUS
 10
16.749153977
 20
11.9748993522
 40
0.3
100
AcDbArc
 50
180.0
 51
265.0
  0
ARC
  5
75A
100
AcDbEntity
  8
ASSI
100
AcDbCircle
 62
7
  6
CONTINUOUS
 10
16.749153977
 20
12.1336236993
 40
0.3
100
AcDbArc
 50
180.0
 51
265.0
  0
ARC
  5
75B
100
AcDbEntity
  8
C_CORPO
100
AcDbCircle
 62
7
  6
CONTINUOUS
 10
18.149153977
 20
5.7911523322
 40
0.3
100
AcDbArc
 50
275.0
 51
360.0
  0
ARC
  5
75C
100
AcDbEntity
  8
C_CORPO
100
AcDbCircle
 62
7
  6
CONTINUOUS
 10
18.149153977
 20
5.9498766793
 40
0.3
100
AcDbArc
 50
275.0
 51
360.0
  0
ARC
  5
75D
100
AcDbEntity
  8
ASSI
100
AcDbCircle
 62
7
  6
CONTINUOUS
 10
18.149153977
 20
5.7911523322
 40
0.3
100
AcDbArc
 50
275.0
 51
360.0
  0
ARC
  5
75E
100
AcDbEntity
  8
ASSI
100
AcDbCircle
 62
7
  6
CONTINUOUS
 10
18.149153977
 20
5.9498766793
 40
0.3
100
AcDbArc
 50
275.0
 51
360.0
  0
ARC
  5
75F
100
AcDbEntity
  8
C_CORPO
100
AcDbCircle
 62
7
  6
CONTINUOUS
 10
18.149153977
 20
11.2501233207
 40
0.3
100
AcDbArc
 50
0.0
 51
85.0
  0
ARC
  5
760
100
AcDbEntity
  8
C_CORPO
100
AcDbCircle
 62
7
  6
CONTINUOUS
 10
18.149153977
 20
11.4088476678
 40
0.3
100
AcDbArc
 50
0.0
 51
85.0
  0
ARC
  5
761
100
AcDbEntity
  8
ASSI
100
AcDbCircle
 62
7
  6
CONTINUOUS
 10
18.149153977
 20
11.2501233207
 40
0.3
100
AcDbArc
 50
0.0
 51
85.0
  0
ARC
  5
762
100
AcDbEntity
  8
ASSI
100
AcDbCircle
 62
7
  6
CONTINUOUS
 10
18.149153977
 20
11.4088476678
 40
0.3
100
AcDbArc
 50
0.0
 51
85.0
  0
ARC
  5
763
100
AcDbEntity
  8
C_COPERCHIO
100
AcDbCircle
 62
7
  6
CONTINUOUS
 10
1.049153977
 20
21.2252970227
 40
1.0
100
AcDbArc
 50
0.0
 51
89.0
  0
ARC
  5
764
100
AcDbEntity
  8
C_CORPO
100
AcDbCircle
 62
7
  6
CONTINUOUS
 10
15.449153977
 20
15.0229318279
 40
1.0
100
AcDbArc
 50
0.0
 51
89.0
  0
ARC
  5
765
100
AcDbEntity
  8
ASSI
100
AcDbCircle
 62
7
  6
CONTINUOUS
 10
15.449153977
 20
15.0229318279
 40
1.0
100
AcDbArc
 50
0.0
 51
89.0
  0
ARC
  5
766
100
AcDbEntity
  8
C_CORPO
100
AcDbCircle
 62
7
  6
CONTINUOUS
 10
2.949153977
 20
16.7413485672
 40
0.4999999786
100
AcDbArc
 50
179.9999926261
 51
268.9999998713
  0
ARC
  5
767
100
AcDbEntity
  8
ASSI
100
AcDbCircle
 62
7
  6
CONTINUOUS
 10
2.949153977
 20
16.7413485672
 40
0.4999999786
100
AcDbArc
 50
179.9999926261
 51
268.9999998713
  0
ARC
  5
768
100
AcDbEntity
  8
C_COPERCHIO
100
AcDbCircle
 62
7
  6
CONTINUOUS
 10
481.549153977
 20
-0.0
 40
500.0
100
AcDbArc
 50
177.6430500092
 51
182.3569499908
  0
ELLIPSE
  5
769
100
AcDbEntity
  8
C_COPERCHIO
100
AcDbEllipse
 62
7
  6
CONTINUOUS
 10
60.649923836
 20
21.882468771
 30
0.0
 11
0.3536610946
 21
-0.3536610946
 31
0.0
 40
0.9996954599
 41
0.7852458701
 42
1.5707963338
  0
ELLIPSE
  5
76A
100
AcDbEntity
  8
C_COPERCHIO
100
AcDbEllipse
 62
7
  6
CONTINUOUS
 10
39.350076164
 20
-21.882468771
 30
0.0
 11
0.3536610946
 21
-0.3536610946
 31
0.0
 40
0.9996954599
 41
-1.6236024021
 42
-1.5707963198
  0
ELLIPSE
  5
76B
100
AcDbEntity
  8
C_COPERCHIO
100
AcDbEllipse
 62
7
  6
CONTINUOUS
 10
39.350076164
 20
-21.882468771
 30
0.0
 11
-0.3536610946
 21
0.3536610946
 31
0.0
 40
0.9996954599
 41
0.7852458701
 42
1.5179902515
  0
ELLIPSE
  5
76C
100
AcDbEntity
  8
C_COPERCHIO
100
AcDbEllipse
 62
7
  6
CONTINUOUS
 10
60.649923836
 20
-21.882468771
 30
0.0
 11
0.3536610946
 21
0.3536610946
 31
0.0
 40
0.9996954599
 41
-1.5707963338
 42
-0.7852458701
  0
ELLIPSE
  5
76D
100
AcDbEntity
  8
C_COPERCHIO
100
AcDbEllipse
 62
7
  6
CONTINUOUS
 10
39.350076164
 20
21.882468771
 30
0.0
 11
0.3536610946
 21
0.3536610946
 31
0.0
 40
0.9996954599
 41
1.5707963198
 42
2.3563467834
  0
ELLIPSE
  5
76E
100
AcDbEntity
  8
C_COPERCHIO
100
AcDbEllipse
 62
7
  6
CONTINUOUS
 10
58.2796736104
 20
22.5111812444
 30
0.0
 11
0.0
 21
0.2
 31
0.0
 40
0.0174550649
 41
-4.7123889804
 42
-3.1939525311
  0
ELLIPSE
  5
76F
100
AcDbEntity
  8
C_COPERCHIO
100
AcDbEllipse
 62
7
  6
CONTINUOUS
 10
41.7203263896
 20
22.5111812444
 30
0.0
 11
-0.0
 21
0.2
 31
0.0
 40
0.0174550649
 41
-3.089232776
 42
-1.5707963268
  0
ELLIPSE
  5
770
100
AcDbEntity
  8
C_COPERCHIO
100
AcDbEllipse
 62
7
  6
CONTINUOUS
 10
46.1088036965
 20
-22.3737961104
 30
0.0
 11
0.5
 21
0.0
 31
0.0
 40
0.0524077793
 41
1.5707963268
 42
3.1241393611
  0
ELLIPSE
  5
771
100
AcDbEntity
  8
C_COPERCHIO
100
AcDbEllipse
 62
7
  6
CONTINUOUS
 10
53.8911963035
 20
-22.3737961104
 30
0.0
 11
0.5
 21
0.0
 31
0.0
 40
0.0524077793
 41
0.0174532925
 42
1.5707963268
  0
ELLIPSE
  5
772
100
AcDbEntity
  8
C_COPERCHIO
100
AcDbEllipse
 62
7
  6
CONTINUOUS
 10
46.1088036965
 20
22.3737961104
 30
0.0
 11
0.5
 21
0.0
 31
0.0
 40
0.0524077793
 41
-3.1241393611
 42
-1.5707963268
  0
ELLIPSE
  5
773
100
AcDbEntity
  8
C_COPERCHIO
100
AcDbEllipse
 62
7
  6
CONTINUOUS
 10
58.2796736104
 20
-22.5111812444
 30
0.0
 11
0.0
 21
0.2
 31
0.0
 40
0.0174550649
 41
0.0523598776
 42
1.5707963268
  0
ELLIPSE
  5
774
100
AcDbEntity
  8
C_COPERCHIO
100
AcDbEllipse
 62
7
  6
CONTINUOUS
 10
53.8911963035
 20
22.3737961104
 30
0.0
 11
0.5
 21
0.0
 31
0.0
 40
0.0524077793
 41
-1.5707963268
 42
-0.0174532925
  0
ELLIPSE
  5
775
100
AcDbEntity
  8
C_COPERCHIO
100
AcDbEllipse
 62
7
  6
CONTINUOUS
 10
41.7203263896
 20
-22.5111812444
 30
0.0
 11
0.0
 21
0.2
 31
0.0
 40
0.0174550649
 41
-1.5707963268
 42
-0.0523598776
  0
ELLIPSE
  5
776
100
AcDbEntity
  8
C_COPERCHIO
100
AcDbEllipse
 62
7
  6
CONTINUOUS
 10
58.5393119781
 20
23.5556624327
 30
0.0
 11
0.25
 21
0.0
 31
0.0
 40
0.5773502692
 41
2.617993878
 42
3.1241393611
  0
ELLIPSE
  5
777
100
AcDbEntity
  8
C_COPERCHIO
100
AcDbEllipse
 62
7
  6
CONTINUOUS
 10
60.3606880219
 20
23.5556624327
 30
0.0
 11
0.25
 21
-0.0
 31
0.0
 40
0.5773502692
 41
0.0174532925
 42
0.5235987756
  0
ELLIPSE
  5
778
100
AcDbEntity
  8
C_COPERCHIO
100
AcDbEllipse
 62
7
  6
CONTINUOUS
 10
60.3606880219
 20
-23.5556624327
 30
0.0
 11
0.25
 21
-0.0
 31
0.0
 40
0.5773502692
 41
-0.5235987756
 42
-0.0174532925
  0
ELLIPSE
  5
779
100
AcDbEntity
  8
C_COPERCHIO
100
AcDbEllipse
 62
7
  6
CONTINUOUS
 10
58.5393119781
 20
-23.5556624327
 30
0.0
 11
0.25
 21
0.0
 31
0.0
 40
0.5773502692
 41
-3.1241393611
 42
-2.617993878
  0
ELLIPSE
  5
77A
100
AcDbEntity
  8
C_COPERCHIO
100
AcDbEllipse
 62
7
  6
CONTINUOUS
 10
39.6393119781
 20
-23.5556624327
 30
0.0
 11
0.25
 21
0.0
 31
0.0
 40
0.5773502692
 41
-3.1241393611
 42
-2.617993878
  0
ELLIPSE
  5
77B
100
AcDbEntity
  8
C_COPERCHIO
100
AcDbEllipse
 62
7
  6
CONTINUOUS
 10
41.4606880219
 20
-23.5556624327
 30
0.0
 11
0.25
 21
0.0
 31
0.0
 40
0.5773502692
 41
-0.5235987756
 42
-0.0174532925
  0
ELLIPSE
  5
77C
100
AcDbEntity
  8
C_COPERCHIO
100
AcDbEllipse
 62
7
  6
CONTINUOUS
 10
39.6393119781
 20
23.5556624327
 30
0.0
 11
0.25
 21
-0.0
 31
0.0
 40
0.5773502692
 41
2.617993878
 42
3.1241393611
  0
ELLIPSE
  5
77D
100
AcDbEntity
  8
C_COPERCHIO
100
AcDbEllipse
 62
7
  6
CONTINUOUS
 10
41.4606880219
 20
23.5556624327
 30
0.0
 11
0.25
 21
-0.0
 31
0.0
 40
0.5773502692
 41
0.0174532925
 42
0.5235987756
  0
ELLIPSE
  5
77E
100
AcDbEntity
  8
C_COPERCHIO
100
AcDbEllipse
 62
7
  6
CONTINUOUS
 10
1.549153977
 20
21.8241598555
 30
0.0
 11
-0.3557284173
 21
0.3601461237
 31
0.0
 40
0.9756176095
 41
-3.9157085085
 42
-2.8658961699
  0
ELLIPSE
  5
77F
100
AcDbEntity
  8
C_COPERCHIO
100
AcDbEllipse
 62
7
  6
CONTINUOUS
 10
1.549153977
 20
-21.8241598555
 30
0.0
 11
0.3557284173
 21
0.3601461237
 31
0.0
 40
0.9756176095
 41
-0.2756964837
 42
0.7741158549
  0
ELLIPSE
  5
780
100
AcDbEntity
  8
0
100
AcDbEllipse
 62
250
  6
CONTINUOUS
 10
11.3993519582
 20
4.340243
 30
0.0
 11
0.0
 21
0.65
 31
0.0
 40
0.9996954135
 41
-1.5707963268
 42
1.5707963268
  0
ENDSEC
  0
SECTION
  2
OBJECTS
  0
DICTIONARY
  5
C
100
AcDbDictionary
280
0
281
1
  3
ACAD_GROUP
350
D
  3
ACAD_MLINESTYLE
350
17
  3
ACAD_LAYOUT
350
1A
  3
ACAD_PLOTSETTINGS
350
19
  3
ACAD_PLOTSTYLENAME
350
E
  0
DICTIONARY
  5
D
102
{ACAD_REACTORS
330
C
102
}
100
AcDbDictionary
280
0
281
1
  0
ACDBDICTIONARYWDFLT
  5
E
102
{ACAD_REACTORS
330
C
102
}
100
AcDbDictionary
281
1
  3
Normal
350
F
100
AcDbDictionaryWithDefault
340
F
  0
DICTIONARY
  5
17
102
{ACAD_REACTORS
330
C
102
}
100
AcDbDictionary
280
0
281
1
  3
Standard
350
18
  0
DICTIONARY
  5
19
102
{ACAD_REACTORS
330
C
102
}
100
AcDbDictionary
281
1
  0
DICTIONARY
  5
1A
102
{ACAD_REACTORS
330
C
102
}
100
AcDbDictionary
281
1
  3
Model
350
781
  3
Layout1
350
782
  0
ACDBPLACEHOLDER
  5
F
102
{ACAD_REACTORS
330
E
102
}
  0
MLINESTYLE
  5
18
102
{ACAD_REACTORS
330
17
102
}
100
AcDbMlineStyle
  2
STANDARD
 70
0
  3

 62
256
 51
90.0
 52
90.0
 71
2
 49
0.5
 62
256
  6
BYLAYER
 49
-0.5
 62
256
  6
BYLAYER
  0
LAYOUT
  5
781
102
{ACAD_REACTORS
330
1A
102
}
100
AcDbPlotSettings
  1

  2
none_device
  4
ISO_A4_(297.00_x_210.00_MM)
  6

 40
0.0
 41
0.0
 42
0.0
 43
0.0
 44
297.0
 45
210.0
 46
0.0
 47
0.0
 48
0.0
 49
0.0
140
0.0
141
0.0
142
1.0
143
1.0
 70
1024
 72
1
 73
0
 74
0
  7

 75
0
147
1.0
148
0.0
149
0.0
100
AcDbLayout
  1
Model
 70
0
 71
0
 10
0.0
 20
0.0
 11
297.0
 21
210.0
 12
0.0
 22
0.0
 32
0.0
 14
0.0
 24
0.0
 34
0.0
 15
0.0
 25
0.0
 35
0.0
146
0.0
 13
0.0
 23
0.0
 33
0.0
 16
1.0
 26
0.0
 36
0.0
 17
0.0
 27
1.0
 37
0.0
 76
0
330
21A
345
0
346
0
  0
LAYOUT
  5
782
102
{ACAD_REACTORS
330
1A
102
}
100
AcDbPlotSettings
  1

  2
none_device
  4
ISO_A4_(297.00_x_210.00_MM)
  6

 40
0.0
 41
0.0
 42
0.0
 43
0.0
 44
297.0
 45
210.0
 46
0.0
 47
0.0
 48
0.0
 49
0.0
140
0.0
141
0.0
142
1.0
143
1.0
 70
0
 72
1
 73
0
 74
0
  7

 75
0
147
1.0
148
0.0
149
0.0
100
AcDbLayout
  1
Layout1
 70
0
 71
1
 10
0.0
 20
0.0
 11
297.0
 21
210.0
 12
0.0
 22
0.0
 32
0.0
 14
0.0
 24
0.0
 34
0.0
 15
0.0
 25
0.0
 35
0.0
146
0.0
 13
0.0
 23
0.0
 33
0.0
 16
1.0
 26
0.0
 36
0.0
 17
0.0
 27
1.0
 37
0.0
 76
0
330
21B
345
0
346
0
  0
ENDSEC
  0
EOF
