  0
SECTION
  2
HEADER
  9
$ACADVER
  1
AC1021
  9
$DWGCODEPAGE
  3
ANSI_1252
  9
$EXTMAX
 10
558.8
 20
431.8
 30
0.0
  9
$EXTMIN
 10
0.0
 20
0.0
 30
0.0
  9
$LIMMIN
 10
0.0
 20
0.0
  9
$LIMMAX
 10
558.8
 20
431.8
  9
$VIEWCTR
 10
279.4
 20
215.9
  9
$VIEWSIZE
 40
431.8
  9
$CLAYER
  8
0
  9
$LTSCALE
 40
30.734
  9
$CELTYPE
  6
BYLAYER
  9
$DIMSCALE
 40
1.0
  9
$DIMASZ
 40
3.0
  9
$DIMEXO
 40
0.5
  9
$DIMDLI
 40
21.2344
  9
$DIMEXE
 40
1.5
  9
$DIMCEN
 40
5.0292
  9
$DIMLFAC
 40
1.0
  9
$DIMBLK
  1
_FILLED
  9
$DIMALT
 70
0
  9
$DIMALTF
 40
0.0393700787
  9
$DIMTXT
 40
3.0
  9
$DIMTOL
 70
1
  9
$DIMLIM
 70
0
  9
$DIMTFAC
 40
1.0
  9
$DIMTP
 40
0.01
  9
$DIMTM
 40
0.01
  9
$DIMGAP
 40
0.625
  9
$DIMDSEP
 70
44
  9
$AUNITS
 70
0
  9
$PDMODE
 70
3
  9
$PDSIZE
 40
3.0
  9
$HANDSEED
  5
705
  9
$TILEMODE
 70
1
  9
$MEASUREMENT
 70
1
  9
$INSUNITS
 70
4
  0
ENDSEC
  0
SECTION
  2
CLASSES
  0
CLASS
  1
ACDBDICTIONARYWDFLT
  2
AcDbDictionaryWithDefault
  3
AutoCAD 2000
 90
0
 91
1
280
0
281
0
  0
CLASS
  1
ACDBPLACEHOLDER
  2
AcDbPlaceHolder
  3
AutoCAD 2000
 90
0
 91
1
280
0
281
0
  0
CLASS
  1
LAYOUT
  2
AcDbLayout
  3
AutoCAD 2000
 90
0
 91
0
280
0
281
0
  0
ENDSEC
  0
SECTION
  2
TABLES
  0
TABLE
  2
VPORT
  5
8
100
AcDbSymbolTable
 70
2
  0
VPORT
  5
1F4
100
AcDbSymbolTableRecord
100
AcDbViewportTableRecord
  2
*ACTIVE
 70
0
 10
0.0
 20
0.0
 11
1.0
 21
1.0
 12
279.4
 22
215.9
 13
0.0
 23
0.0
 14
1.0
 24
1.0
 15
0.0
 25
0.0
 16
0.0
 26
0.0
 36
1.0
 17
0.0
 27
0.0
 37
0.0
 40
431.8
 41
1.2941176471
 42
50.0
 43
0.0
 44
0.0
 50
0.0
 51
0.0
 71
0
 72
100
 73
1
 74
1
 75
0
 76
0
 77
0
 78
0
  0
ENDTAB
  0
TABLE
  2
LTYPE
  5
5
100
AcDbSymbolTable
 70
6
  0
LTYPE
  5
14
100
AcDbSymbolTableRecord
100
AcDbLinetypeTableRecord
  2
BYBLOCK
 70
0
  3

 72
65
 73
0
 40
0.0
  0
LTYPE
  5
15
100
AcDbSymbolTableRecord
100
AcDbLinetypeTableRecord
  2
BYLAYER
 70
0
  3

 72
65
 73
0
 40
0.0
  0
LTYPE
  5
16
100
AcDbSymbolTableRecord
100
AcDbLinetypeTableRecord
  2
CONTINUOUS
 70
64
  3
Solid line
 72
65
 73
0
 40
0.0
  0
LTYPE
  5
1F5
100
AcDbSymbolTableRecord
100
AcDbLinetypeTableRecord
  2
CENTER
 70
64
  3
____ _ ____ _ ____ _ ____ _ ____ _ ____ _ ____
 72
65
 73
4
 40
0.6
 49
0.375
 74
0
 49
-0.075
 74
0
 49
0.075
 74
0
 49
-0.075
 74
0
  0
LTYPE
  5
1F6
100
AcDbSymbolTableRecord
100
AcDbLinetypeTableRecord
  2
HIDDEN
 70
64
  3
- - - - - - - - - - - - - - - - - - - -
 72
65
 73
2
 40
0.2
 49
0.1
 74
0
 49
-0.1
 74
0
  0
LTYPE
  5
1F7
100
AcDbSymbolTableRecord
100
AcDbLinetypeTableRecord
  2
PHANTOM
 70
64
  3
_____ _ _ _____ _ _ _____ _ _ _____
 72
65
 73
6
 40
0.8
 49
0.45
 74
0
 49
-0.05
 74
0
 49
0.1
 74
0
 49
-0.05
 74
0
 49
0.1
 74
0
 49
-0.05
 74
0
  0
LTYPE
  5
1F8
100
AcDbSymbolTableRecord
100
AcDbLinetypeTableRecord
  2
DOT
 70
64
  3
. . . . . . . . . . . . . . . . . . . .
 72
65
 73
2
 40
0.2
 49
0.1
 74
0
 49
-0.1
 74
0
  0
LTYPE
  5
1F9
100
AcDbSymbolTableRecord
100
AcDbLinetypeTableRecord
  2
DASHED
 70
64
  3
- - - - - - - - - - - - - - - - - - - -
 72
65
 73
2
 40
0.2
 49
0.1
 74
0
 49
-0.1
 74
0
  0
ENDTAB
  0
TABLE
  2
LAYER
  5
2
100
AcDbSymbolTable
 70
36
  0
LAYER
  5
10
100
AcDbSymbolTableRecord
100
AcDbLayerTableRecord
  2
0
 70
0
 62
7
  6
CONTINUOUS
370
-3
390
F
  0
LAYER
  5
1FA
100
AcDbSymbolTableRecord
100
AcDbLayerTableRecord
  2
DEFAULT_1
 70
0
 62
7
  6
CENTER
370
-3
390
F
  0
LAYER
  5
1FB
100
AcDbSymbolTableRecord
100
AcDbLayerTableRecord
  2
DEFAULT_2
 70
0
 62
7
  6
HIDDEN
370
-3
390
F
  0
LAYER
  5
1FC
100
AcDbSymbolTableRecord
100
AcDbLayerTableRecord
  2
DEFAULT_3
 70
0
 62
7
  6
PHANTOM
370
-3
390
F
  0
LAYER
  5
1FD
100
AcDbSymbolTableRecord
100
AcDbLayerTableRecord
  2
ASSI
 70
0
 62
7
  6
CONTINUOUS
370
-3
390
F
  0
LAYER
  5
1FE
100
AcDbSymbolTableRecord
100
AcDbLayerTableRecord
  2
COORDINATE
 70
0
 62
7
  6
CONTINUOUS
370
-3
390
F
  0
LAYER
  5
1FF
100
AcDbSymbolTableRecord
100
AcDbLayerTableRecord
  2
COORD_ORIGINE
 70
0
 62
7
  6
CONTINUOUS
370
-3
390
F
  0
LAYER
  5
200
100
AcDbSymbolTableRecord
100
AcDbLayerTableRecord
  2
COSMETICHE
 70
0
 62
7
  6
CONTINUOUS
370
-3
390
F
  0
LAYER
  5
201
100
AcDbSymbolTableRecord
100
AcDbLayerTableRecord
  2
CURVE
 70
0
 62
7
  6
CONTINUOUS
370
-3
390
F
  0
LAYER
  5
202
100
AcDbSymbolTableRecord
100
AcDbLayerTableRecord
  2
C_CONTATTI
 70
0
 62
7
  6
CONTINUOUS
370
-3
390
F
  0
LAYER
  5
203
100
AcDbSymbolTableRecord
100
AcDbLayerTableRecord
  2
C_COPERCHIO
 70
0
 62
7
  6
CONTINUOUS
370
-3
390
F
  0
LAYER
  5
204
100
AcDbSymbolTableRecord
100
AcDbLayerTableRecord
  2
C_CORPO
 70
0
 62
7
  6
CONTINUOUS
370
-3
390
F
  0
LAYER
  5
205
100
AcDbSymbolTableRecord
100
AcDbLayerTableRecord
  2
C_OTTURATORE
 70
0
 62
7
  6
CONTINUOUS
370
-3
390
F
  0
LAYER
  5
206
100
AcDbSymbolTableRecord
100
AcDbLayerTableRecord
  2
DRAFT
 70
0
 62
7
  6
CONTINUOUS
370
-3
390
F
  0
LAYER
  5
207
100
AcDbSymbolTableRecord
100
AcDbLayerTableRecord
  2
INTF_1
 70
0
 62
7
  6
CONTINUOUS
370
-3
390
F
  0
LAYER
  5
208
100
AcDbSymbolTableRecord
100
AcDbLayerTableRecord
  2
INTF_11
 70
0
 62
7
  6
CONTINUOUS
370
-3
390
F
  0
LAYER
  5
209
100
AcDbSymbolTableRecord
100
AcDbLayerTableRecord
  2
INTF_YELLOW
 70
0
 62
7
  6
CONTINUOUS
370
-3
390
F
  0
LAYER
  5
20A
100
AcDbSymbolTableRecord
100
AcDbLayerTableRecord
  2
NOTE
 70
0
 62
7
  6
CONTINUOUS
370
-3
390
F
  0
LAYER
  5
20B
100
AcDbSymbolTableRecord
100
AcDbLayerTableRecord
  2
PIANI
 70
0
 62
7
  6
CONTINUOUS
370
-3
390
F
  0
LAYER
  5
20C
100
AcDbSymbolTableRecord
100
AcDbLayerTableRecord
  2
PIANI_ORIGINE
 70
0
 62
7
  6
CONTINUOUS
370
-3
390
F
  0
LAYER
  5
20D
100
AcDbSymbolTableRecord
100
AcDbLayerTableRecord
  2
PIANI_SFORMO
 70
0
 62
7
  6
CONTINUOUS
370
-3
390
F
  0
LAYER
  5
20E
100
AcDbSymbolTableRecord
100
AcDbLayerTableRecord
  2
PUNTI
 70
0
 62
7
  6
CONTINUOUS
370
-3
390
F
  0
LAYER
  5
20F
100
AcDbSymbolTableRecord
100
AcDbLayerTableRecord
  2
RACCORDO
 70
0
 62
7
  6
CONTINUOUS
370
-3
390
F
  0
LAYER
  5
210
100
AcDbSymbolTableRecord
100
AcDbLayerTableRecord
  2
SCRITTE
 70
0
 62
7
  6
CONTINUOUS
370
-3
390
F
  0
LAYER
  5
211
100
AcDbSymbolTableRecord
100
AcDbLayerTableRecord
  2
SMUSSO
 70
0
 62
7
  6
CONTINUOUS
370
-3
390
F
  0
LAYER
  5
212
100
AcDbSymbolTableRecord
100
AcDbLayerTableRecord
  2
SNAPLINE
 70
0
 62
7
  6
CONTINUOUS
370
-3
390
F
  0
LAYER
  5
213
100
AcDbSymbolTableRecord
100
AcDbLayerTableRecord
  2
SUPERFICI
 70
0
 62
7
  6
CONTINUOUS
370
-3
390
F
  0
LAYER
  5
214
100
AcDbSymbolTableRecord
100
AcDbLayerTableRecord
  2
TRASH
 70
0
 62
7
  6
CONTINUOUS
370
-3
390
F
  0
LAYER
  5
215
100
AcDbSymbolTableRecord
100
AcDbLayerTableRecord
  2
XSEC_DATUMS
 70
0
 62
7
  6
CONTINUOUS
370
-3
390
F
  0
ENDTAB
  0
TABLE
  2
STYLE
  5
3
100
AcDbSymbolTable
 70
1
  0
STYLE
  5
11
100
AcDbSymbolTableRecord
100
AcDbTextStyleTableRecord
  2
STANDARD
 70
0
 40
0.0
 41
0.8
 50
0.0
 71
0
 42
0.2
  3
txt
  4

  0
STYLE
  5
216
100
AcDbSymbolTableRecord
100
AcDbTextStyleTableRecord
  2
TEXTSTYLE_1
 70
0
 40
0.0
 41
0.8
 50
0.0
 71
0
 42
0.2
  3
gdt
  4

  0
ENDTAB
  0
TABLE
  2
VIEW
  5
6
100
AcDbSymbolTable
 70
0
  0
ENDTAB
  0
TABLE
  2
UCS
  5
7
100
AcDbSymbolTable
 70
0
  0
ENDTAB
  0
TABLE
  2
APPID
  5
9
100
AcDbSymbolTable
 70
1
  0
APPID
  5
217
100
AcDbSymbolTableRecord
100
AcDbRegAppTableRecord
  2
ACAD
 70
0
  0
ENDTAB
  0
TABLE
  2
BLOCK_RECORD
  5
1
100
AcDbSymbolTable
 70
0
  0
BLOCK_RECORD
  5
218
100
AcDbSymbolTableRecord
100
AcDbBlockTableRecord
  2
*Model_Space
  0
BLOCK_RECORD
  5
219
100
AcDbSymbolTableRecord
100
AcDbBlockTableRecord
  2
*Paper_Space
  0
BLOCK_RECORD
  5
21A
100
AcDbSymbolTableRecord
100
AcDbBlockTableRecord
  2
_FILLED
  0
BLOCK_RECORD
  5
21B
100
AcDbSymbolTableRecord
100
AcDbBlockTableRecord
  2
*D0
  0
BLOCK_RECORD
  5
21C
100
AcDbSymbolTableRecord
100
AcDbBlockTableRecord
  2
*D1
  0
BLOCK_RECORD
  5
21D
100
AcDbSymbolTableRecord
100
AcDbBlockTableRecord
  2
*D2
  0
BLOCK_RECORD
  5
21E
100
AcDbSymbolTableRecord
100
AcDbBlockTableRecord
  2
*D3
  0
ENDTAB
  0
TABLE
  2
DIMSTYLE
  5
A
100
AcDbSymbolTable
 70
1
100
AcDbDimStyleTable
 71
0
  0
DIMSTYLE
105
21F
100
AcDbSymbolTableRecord
100
AcDbDimStyleTableRecord
  2
STANDARD
 70
0
  3

  4

 40
1.0
 41
3.0
 42
0.5
 43
0.38
 44
1.5
 45
0.0
 46
0.0
 47
0.01
 48
0.01
140
3.0
141
0.09
142
0.0
143
25.4
144
1.0
145
0.0
146
1.0
147
0.625
 71
1.0
 72
0.0
 73
0
 74
0
 75
0
 76
0
 77
1
 78
8
 79
2
170
0
171
1
172
0
173
0
174
0
175
0
176
0
177
0
178
0
270
2
179
2
271
2
272
2
273
2
274
2
275
0
280
0
281
0
282
0
283
1
284
8
285
0
286
0
287
3
288
0
340
11
278
44
341
21A
342
21A
343
21A
344
21A
  0
DIMSTYLE
105
220
100
AcDbSymbolTableRecord
100
AcDbDimStyleTableRecord
  2
DIMSTYLE_1
 70
0
  3

  4

 40
1.0
 41
3.0
 42
0.5
 43
0.38
 44
1.5
 45
0.0
 46
0.0
 47
0.0
 48
0.0
140
3.0
141
0.09
142
0.0
143
25.4
144
1.0
145
0.0
146
1.0
147
0.75
 71
0.0
 72
0.0
 73
0
 74
0
 75
0
 76
0
 77
1
 78
8
 79
2
170
0
171
1
172
0
173
0
174
0
175
0
176
0
177
0
178
0
270
2
179
2
271
2
272
2
273
2
274
2
275
0
280
0
281
0
282
0
283
1
284
8
285
0
286
0
287
3
288
0
340
11
278
44
341
21A
342
21A
343
21A
344
21A
  0
ENDTAB
  0
ENDSEC
  0
SECTION
  2
BLOCKS
  0
BLOCK
  5
20
100
AcDbEntity
  8
0
100
AcDbBlockBegin
  2
*Model_Space
 70
0
 10
0.0
 20
0.0
 30
0.0
  3
*Model_Space
  1

  0
ENDBLK
  5
21
100
AcDbEntity
  8
0
100
AcDbBlockEnd
  0
BLOCK
  5
1C
100
AcDbEntity
  8
0
100
AcDbBlockBegin
  2
*Paper_Space
 70
0
 10
0.0
 20
0.0
 30
0.0
  3
*Paper_Space
  1

  0
ENDBLK
  5
1D
100
AcDbEntity
  8
0
100
AcDbBlockEnd
  0
BLOCK
  5
221
100
AcDbEntity
  8
0
100
AcDbBlockBegin
  2
_FILLED
 70
64
 10
0.0
 20
0.0
  3
_FILLED
  1

  0
SOLID
  5
222
100
AcDbEntity
  8
0
  6
BYBLOCK
 62
0
100
AcDbTrace
 10
0.0
 20
0.0
 11
-1.0
 21
0.3166666667
 12
-1.0
 22
-0.3166666667
 13
-1.0
 23
-0.3166666667
  0
ENDBLK
  5
223
100
AcDbEntity
  8
0
  6
BYBLOCK
 62
0
100
AcDbBlockEnd
  0
BLOCK
  5
224
100
AcDbEntity
  8
0
100
AcDbBlockBegin
 62
7
  6
CONTINUOUS
  2
*D0
 70
65
 10
0.0
 20
0.0
  3
*D0
  1

  0
LINE
  5
225
100
AcDbEntity
  8
0
100
AcDbLine
 62
7
  6
CONTINUOUS
 10
-19.610864536
 20
14.1763202382
 11
-19.610864536
 21
36.3815959691
  0
LINE
  5
226
100
AcDbEntity
  8
0
100
AcDbLine
 62
7
  6
CONTINUOUS
 10
-46.010864536
 20
27.1630675367
 11
-46.010864536
 21
36.3815959691
  0
LINE
  5
227
100
AcDbEntity
  8
0
100
AcDbLine
 62
7
  6
CONTINUOUS
 10
-19.610864536
 20
34.8815959691
 11
-32.810864536
 21
34.8815959691
  0
LINE
  5
228
100
AcDbEntity
  8
0
100
AcDbLine
 62
7
  6
CONTINUOUS
 10
-46.010864536
 20
34.8815959691
 11
-32.810864536
 21
34.8815959691
  0
INSERT
  5
229
100
AcDbEntity
  8
0
100
AcDbBlockReference
 62
7
  6
CONTINUOUS
  2
_FILLED
 10
-19.610864536
 20
34.8815959691
 41
3.0
 42
3.0
 43
3.0
  0
INSERT
  5
22A
100
AcDbEntity
  8
0
100
AcDbBlockReference
 62
7
  6
CONTINUOUS
  2
_FILLED
 10
-46.010864536
 20
34.8815959691
 41
3.0
 42
3.0
 43
3.0
 50
180.0
  0
ENDBLK
  5
22B
100
AcDbEntity
  8
0
  6
BYBLOCK
 62
0
100
AcDbBlockEnd
  0
BLOCK
  5
22C
100
AcDbEntity
  8
0
100
AcDbBlockBegin
 62
7
  6
CONTINUOUS
  2
*D1
 70
65
 10
0.0
 20
0.0
  3
*D1
  1

  0
LINE
  5
22D
100
AcDbEntity
  8
0
100
AcDbLine
 62
7
  6
CONTINUOUS
 10
-56.510864536
 20
2.9261969175
 11
-56.510864536
 21
46.5332319705
  0
LINE
  5
22E
100
AcDbEntity
  8
0
100
AcDbLine
 62
7
  6
CONTINUOUS
 10
-19.610864536
 20
14.1763202382
 11
-19.610864536
 21
46.5332319705
  0
LINE
  5
22F
100
AcDbEntity
  8
0
100
AcDbLine
 62
7
  6
CONTINUOUS
 10
-56.510864536
 20
45.0332319705
 11
-38.060864536
 21
45.0332319705
  0
LINE
  5
230
100
AcDbEntity
  8
0
100
AcDbLine
 62
7
  6
CONTINUOUS
 10
-19.610864536
 20
45.0332319705
 11
-38.060864536
 21
45.0332319705
  0
INSERT
  5
231
100
AcDbEntity
  8
0
100
AcDbBlockReference
 62
7
  6
CONTINUOUS
  2
_FILLED
 10
-56.510864536
 20
45.0332319705
 41
3.0
 42
3.0
 43
3.0
 50
180.0
  0
INSERT
  5
232
100
AcDbEntity
  8
0
100
AcDbBlockReference
 62
7
  6
CONTINUOUS
  2
_FILLED
 10
-19.610864536
 20
45.0332319705
 41
3.0
 42
3.0
 43
3.0
  0
ENDBLK
  5
233
100
AcDbEntity
  8
0
  6
BYBLOCK
 62
0
100
AcDbBlockEnd
  0
BLOCK
  5
234
100
AcDbEntity
  8
0
100
AcDbBlockBegin
 62
7
  6
CONTINUOUS
  2
*D2
 70
65
 10
0.0
 20
0.0
  3
*D2
  1

  0
LINE
  5
235
100
AcDbEntity
  8
0
100
AcDbLine
 62
7
  6
CONTINUOUS
 10
-10.927138513
 20
24.8085133721
 11
-10.927138513
 21
36.4714980095
  0
LINE
  5
236
100
AcDbEntity
  8
0
100
AcDbLine
 62
7
  6
CONTINUOUS
 10
11.372861487
 20
24.8085133721
 11
11.372861487
 21
36.4714980095
  0
LINE
  5
237
100
AcDbEntity
  8
0
100
AcDbLine
 62
7
  6
CONTINUOUS
 10
-10.927138513
 20
34.9714980095
 11
0.222861487
 21
34.9714980095
  0
LINE
  5
238
100
AcDbEntity
  8
0
100
AcDbLine
 62
7
  6
CONTINUOUS
 10
11.372861487
 20
34.9714980095
 11
0.222861487
 21
34.9714980095
  0
INSERT
  5
239
100
AcDbEntity
  8
0
100
AcDbBlockReference
 62
7
  6
CONTINUOUS
  2
_FILLED
 10
-10.927138513
 20
34.9714980095
 41
3.0
 42
3.0
 43
3.0
 50
180.0
  0
INSERT
  5
23A
100
AcDbEntity
  8
0
100
AcDbBlockReference
 62
7
  6
CONTINUOUS
  2
_FILLED
 10
11.372861487
 20
34.9714980095
 41
3.0
 42
3.0
 43
3.0
  0
ENDBLK
  5
23B
100
AcDbEntity
  8
0
  6
BYBLOCK
 62
0
100
AcDbBlockEnd
  0
BLOCK
  5
23C
100
AcDbEntity
  8
0
100
AcDbBlockBegin
 62
7
  6
CONTINUOUS
  2
*D3
 70
65
 10
0.0
 20
0.0
  3
*D3
  1

  0
LINE
  5
23D
100
AcDbEntity
  8
0
100
AcDbLine
 62
7
  6
CONTINUOUS
 10
11.1228995632
 20
26.9261969175
 11
20.8956003749
 21
26.9261969175
  0
LINE
  5
23E
100
AcDbEntity
  8
0
100
AcDbLine
 62
7
  6
CONTINUOUS
 10
11.1228995632
 20
-22.0738030825
 11
20.8956003749
 21
-22.0738030825
  0
LINE
  5
23F
100
AcDbEntity
  8
0
100
AcDbLine
 62
7
  6
CONTINUOUS
 10
19.3956003749
 20
26.9261969175
 11
19.3956003749
 21
2.4261969175
  0
LINE
  5
240
100
AcDbEntity
  8
0
100
AcDbLine
 62
7
  6
CONTINUOUS
 10
19.3956003749
 20
-22.0738030825
 11
19.3956003749
 21
2.4261969175
  0
INSERT
  5
241
100
AcDbEntity
  8
0
100
AcDbBlockReference
 62
7
  6
CONTINUOUS
  2
_FILLED
 10
19.3956003749
 20
26.9261969175
 41
3.0
 42
3.0
 43
3.0
 50
90.0
  0
INSERT
  5
242
100
AcDbEntity
  8
0
100
AcDbBlockReference
 62
7
  6
CONTINUOUS
  2
_FILLED
 10
19.3956003749
 20
-22.0738030825
 41
3.0
 42
3.0
 43
3.0
 50
270.0
  0
ENDBLK
  5
243
100
AcDbEntity
  8
0
  6
BYBLOCK
 62
0
100
AcDbBlockEnd
  0
ENDSEC
  0
SECTION
  2
ENTITIES
  0
DIMENSION
  5
244
100
AcDbEntity
  8
0
100
AcDbDimension
 62
7
  6
CONTINUOUS
  2
*D0
 10
-46.010864536
 20
34.8815959691
 11
-37.2037216788
 21
34.8815959691
 70
160
 71
2
 72
2
 41
0.9
 42
26.4
  3
DIMSTYLE_1
100
AcDbAlignedDimension
 13
-19.610864536
 23
13.6763202382
 14
-46.010864536
 24
26.6630675367
 50
180.0
100
AcDbRotatedDimension
  0
DIMENSION
  5
245
100
AcDbEntity
  8
0
100
AcDbDimension
 62
7
  6
CONTINUOUS
  2
*D1
 10
-19.610864536
 20
45.0332319705
 11
-42.3465788217
 21
45.0332319705
 70
160
 71
2
 72
2
 41
0.9
 42
36.9
  3
DIMSTYLE_1
100
AcDbAlignedDimension
 13
-56.510864536
 23
2.4261969175
 14
-19.610864536
 24
13.6763202382
100
AcDbRotatedDimension
  0
DIMENSION
  5
246
100
AcDbEntity
  8
0
100
AcDbDimension
 62
7
  6
CONTINUOUS
  2
*D2
 10
11.372861487
 20
34.9714980095
 11
-4.0628527987
 21
34.9714980095
 70
160
 71
2
 72
2
 41
0.9
 42
22.3
  3
DIMSTYLE_1
100
AcDbAlignedDimension
 13
-10.927138513
 23
24.3085133721
 14
11.372861487
 24
24.3085133721
100
AcDbRotatedDimension
  0
DIMENSION
  5
247
100
AcDbEntity
  8
0
100
AcDbDimension
 62
7
  6
CONTINUOUS
  2
*D3
 10
19.3956003749
 20
-22.0738030825
 11
19.3956003749
 21
0.0690540603
 70
160
 71
2
 72
2
 41
0.9
 42
49.0
  3
DIMSTYLE_1
100
AcDbAlignedDimension
 13
10.6228995632
 23
26.9261969175
 14
10.6228995632
 24
-22.0738030825
 50
270.0
100
AcDbRotatedDimension
  0
LWPOLYLINE
  5
248
100
AcDbEntity
  8
0
100
AcDbPolyline
 62
7
  6
CONTINUOUS
 90
5
 70
0
 43
0.3500000087
 10
3.2228613712
 20
37.4357824036
 10
3.5800043488
 20
37.6500689362
 10
3.5800043488
 20
38.2929285339
 10
3.2228613712
 20
38.7214973358
 10
2.3657187048
 20
38.7214973358
  0
LWPOLYLINE
  5
249
100
AcDbEntity
  8
C_COPERCHIO
100
AcDbPolyline
 62
7
  6
CONTINUOUS
 90
3
 70
0
 10
-10.3010019719
 20
26.1073889543
 10
-10.3429807005
 20
26.0652354669
 10
-10.3543328858
 20
26.0540281338
  0
LINE
  5
24A
100
AcDbEntity
  8
C_COPERCHIO
100
AcDbLine
 62
250
  6
CONTINUOUS
 10
-10.9096835409
 20
24.3259683441
 11
-10.927138513
 21
24.3085133721
  0
LINE
  5
24B
100
AcDbEntity
  8
C_COPERCHIO
100
AcDbLine
 62
250
  6
CONTINUOUS
 10
-8.2771004368
 20
26.9261969175
 11
-8.3164504911
 21
26.8868468631
  0
LINE
  5
24C
100
AcDbEntity
  8
C_COPERCHIO
100
AcDbLine
 62
7
  6
CONTINUOUS
 10
-10.2275182435
 20
26.1807830695
 11
-10.2843496911
 21
26.1239746738
  0
LINE
  5
24D
100
AcDbEntity
  8
C_COPERCHIO
100
AcDbLine
 62
7
  6
CONTINUOUS
 10
-10.2843496911
 20
26.1239746738
 11
-10.3010019719
 21
26.1073889543
  0
LWPOLYLINE
  5
24E
100
AcDbEntity
  8
C_COPERCHIO
100
AcDbPolyline
 62
7
  6
CONTINUOUS
 90
3
 70
0
 10
-10.1378265349
 20
26.2705344848
 10
-10.1616621881
 20
26.2469595941
 10
-10.2275182435
 20
26.1807830695
  0
LWPOLYLINE
  5
24F
100
AcDbEntity
  8
C_COPERCHIO
100
AcDbPolyline
 62
7
  6
CONTINUOUS
 90
9
 70
0
 10
-10.7630975493
 20
24.6797372693
 10
-10.7579031386
 20
24.684856506
 10
-10.7193368408
 20
24.7186508402
 10
-10.6767223599
 20
24.7488202163
 10
-10.6306196335
 20
24.7746659911
 10
-10.5819312711
 20
24.7955426545
 10
-10.5313556109
 20
24.8111368143
 10
-10.4792922755
 20
24.8213122174
 10
-10.4263196614
 20
24.8259149768
  0
LWPOLYLINE
  5
250
100
AcDbEntity
  8
C_COPERCHIO
100
AcDbPolyline
 62
250
  6
CONTINUOUS
 90
13
 70
0
 10
-10.7598115518
 20
22.968102774
 10
-10.7545017316
 20
22.9707574064
 10
-10.7409158458
 20
22.9733676102
 10
-10.7192812187
 20
22.9758897104
 10
-10.6899598491
 20
22.9782815062
 10
-10.6534423533
 20
22.9805029772
 10
-10.6103397559
 20
22.9825169529
 10
-10.561373266
 20
22.9842897347
 10
-10.5073622094
 20
22.9857916597
 10
-10.4492103197
 20
22.9869975973
 10
-10.3878906164
 20
22.9878873695
 10
-10.3244291241
 20
22.9884460881
 10
-10.2598877045
 20
22.9886644045
  0
LWPOLYLINE
  5
251
100
AcDbEntity
  8
C_COPERCHIO
100
AcDbPolyline
 62
250
  6
CONTINUOUS
 90
13
 70
0
 10
4.4140120991
 20
-21.3649232336
 10
4.4401082983
 20
-21.3632051847
 10
4.4657581648
 20
-21.3580963179
 10
4.4905229923
 20
-21.349684011
 10
4.5139792121
 20
-21.3381121423
 10
4.5357256361
 20
-21.3235786305
 10
4.5553903189
 20
-21.3063320503
 10
4.5726369215
 20
-21.2866673794
 10
4.587170462
 20
-21.2649209544
 10
4.598742361
 20
-21.2414647192
 10
4.6071546952
 20
-21.2166998618
 10
4.6122635816
 20
-21.191049951
 10
4.6139816381
 20
-21.1649536946
  0
LWPOLYLINE
  5
252
100
AcDbEntity
  8
C_COPERCHIO
100
AcDbPolyline
 62
7
  6
CONTINUOUS
 90
13
 70
0
 10
4.422891948
 20
-21.3738030825
 10
4.4489940749
 20
-21.3720928184
 10
4.4746492531
 20
-21.366990642
 10
4.4994187745
 20
-21.3585836608
 10
4.5228792314
 20
-21.3470154197
 10
4.5446290373
 20
-21.3324836325
 10
4.5642954593
 20
-21.3152370548
 10
4.581542037
 20
-21.2955706328
 10
4.5960738242
 20
-21.2738208269
 10
4.6076420653
 20
-21.25036037
 10
4.6160490465
 20
-21.2255908486
 10
4.6211512228
 20
-21.1999356704
 10
4.622861487
 20
-21.1738335435
  0
LWPOLYLINE
  5
253
100
AcDbEntity
  8
C_COPERCHIO
100
AcDbPolyline
 62
250
  6
CONTINUOUS
 90
8
 70
0
 10
-3.9125481426
 20
-21.3619775729
 10
-3.9275906898
 20
-21.3623798298
 10
-3.940091383
 20
-21.3627981964
 10
-3.9502718575
 20
-21.3632322966
 10
-3.9581773458
 20
-21.3636636941
 10
-3.9638229252
 20
-21.3640862433
 10
-3.9671935182
 20
-21.3645060899
 10
-3.968289125
 20
-21.3649232336
  0
LWPOLYLINE
  5
254
100
AcDbEntity
  8
C_COPERCHIO
100
AcDbPolyline
 62
250
  6
CONTINUOUS
 90
6
 70
0
 10
-4.1213625189
 20
-21.1628280277
 10
-4.1384098573
 20
-21.1632622535
 10
-4.1513936695
 20
-21.1636937801
 10
-4.1604946755
 20
-21.1641164507
 10
-4.1660268245
 20
-21.1645364222
 10
-4.1682586641
 20
-21.1649536946
  0
LINE
  5
255
100
AcDbEntity
  8
C_COPERCHIO
100
AcDbLine
 62
250
  6
CONTINUOUS
 10
-3.8761220657
 20
-21.3612375672
 11
-3.9125481426
 21
-21.3619775729
  0
LINE
  5
256
100
AcDbEntity
  8
C_COPERCHIO
100
AcDbLine
 62
250
  6
CONTINUOUS
 10
-4.0754200727
 20
-21.1620072789
 11
-4.1213625189
 21
-21.1628280277
  0
LINE
  5
257
100
AcDbEntity
  8
C_COPERCHIO
100
AcDbLine
 62
250
  6
CONTINUOUS
 10
-3.8326149549
 20
-21.3606360499
 11
-3.8761220657
 21
-21.3612375672
  0
LINE
  5
258
100
AcDbEntity
  8
C_COPERCHIO
100
AcDbLine
 62
250
  6
CONTINUOUS
 10
-3.9796747083
 20
-21.1609501214
 11
-4.0754200727
 21
-21.1620072789
  0
LINE
  5
259
100
AcDbEntity
  8
C_COPERCHIO
100
AcDbLine
 62
250
  6
CONTINUOUS
 10
-3.7607477865
 20
-21.3600357896
 11
-3.8326149549
 21
-21.3606360499
  0
LINE
  5
25A
100
AcDbEntity
  8
C_COPERCHIO
100
AcDbLine
 62
250
  6
CONTINUOUS
 10
-3.8223957204
 20
-21.1600660721
 11
-3.9796747083
 21
-21.1609501214
  0
LINE
  5
25B
100
AcDbEntity
  8
C_COPERCHIO
100
AcDbLine
 62
250
  6
CONTINUOUS
 10
-3.6905982122
 20
-21.3597861641
 11
-3.7607477865
 21
-21.3600357896
  0
LINE
  5
25C
100
AcDbEntity
  8
C_COPERCHIO
100
AcDbLine
 62
250
  6
CONTINUOUS
 10
-3.6683348165
 20
-21.159808565
 11
-3.8223957204
 21
-21.1600660721
  0
LINE
  5
25D
100
AcDbEntity
  8
C_COPERCHIO
100
AcDbLine
 62
7
  6
CONTINUOUS
 10
8.7228234108
 20
-22.0738030825
 11
10.6228995632
 21
-22.0738030825
  0
LINE
  5
25E
100
AcDbEntity
  8
C_COPERCHIO
100
AcDbLine
 62
7
  6
CONTINUOUS
 10
-8.2771004368
 20
-22.0738030825
 11
-10.1771765892
 21
-22.0738030825
  0
LINE
  5
25F
100
AcDbEntity
  8
C_COPERCHIO
100
AcDbLine
 62
250
  6
CONTINUOUS
 10
-10.1378265349
 20
-22.0344530282
 11
-8.3164504911
 21
-22.0344530282
  0
LINE
  5
260
100
AcDbEntity
  8
C_COPERCHIO
100
AcDbLine
 62
250
  6
CONTINUOUS
 10
10.5835495089
 20
-22.0344530282
 11
8.7621734651
 21
-22.0344530282
  0
LINE
  5
261
100
AcDbEntity
  8
C_COPERCHIO
100
AcDbLine
 62
250
  6
CONTINUOUS
 10
-8.0664885673
 20
-21.7844911044
 11
-10.3877884587
 21
-21.7844911044
  0
LINE
  5
262
100
AcDbEntity
  8
C_COPERCHIO
100
AcDbLine
 62
250
  6
CONTINUOUS
 10
8.5122115413
 20
-21.7844911044
 11
10.8335114327
 21
-21.7844911044
  0
LINE
  5
263
100
AcDbEntity
  8
C_COPERCHIO
100
AcDbLine
 62
250
  6
CONTINUOUS
 10
-10.1378265349
 20
-21.4181406498
 11
-8.3164504911
 21
-21.4181406498
  0
LINE
  5
264
100
AcDbEntity
  8
C_COPERCHIO
100
AcDbLine
 62
250
  6
CONTINUOUS
 10
10.5835495089
 20
-21.4181406498
 11
8.7621734651
 21
-21.4181406498
  0
LINE
  5
265
100
AcDbEntity
  8
C_COPERCHIO
100
AcDbLine
 62
7
  6
CONTINUOUS
 10
-3.9771689739
 20
-21.3738030825
 11
4.422891948
 21
-21.3738030825
  0
LINE
  5
266
100
AcDbEntity
  8
C_COPERCHIO
100
AcDbLine
 62
250
  6
CONTINUOUS
 10
-10.3543328858
 20
-21.2016342989
 11
-8.0999441401
 21
-21.2016342989
  0
LINE
  5
267
100
AcDbEntity
  8
C_COPERCHIO
100
AcDbLine
 62
250
  6
CONTINUOUS
 10
10.8000558599
 20
-21.2016342989
 11
8.5456671142
 21
-21.2016342989
  0
LINE
  5
268
100
AcDbEntity
  8
C_COPERCHIO
100
AcDbLine
 62
7
  6
CONTINUOUS
 10
8.4990440844
 20
-20.6964528134
 11
10.8466788896
 21
-20.6964528134
  0
LINE
  5
269
100
AcDbEntity
  8
C_COPERCHIO
100
AcDbLine
 62
7
  6
CONTINUOUS
 10
-8.0533211104
 20
-20.6964528134
 11
-10.4009559156
 21
-20.6964528134
  0
LINE
  5
26A
100
AcDbEntity
  8
C_COPERCHIO
100
AcDbLine
 62
250
  6
CONTINUOUS
 10
4.2752300001
 20
-21.1600906057
 11
-3.6683348165
 21
-21.159808565
  0
LINE
  5
26B
100
AcDbEntity
  8
C_COPERCHIO
100
AcDbLine
 62
250
  6
CONTINUOUS
 10
4.1857892376
 20
-21.3599300409
 11
-3.6905982122
 21
-21.3597861641
  0
LINE
  5
26C
100
AcDbEntity
  8
C_COPERCHIO
100
AcDbLine
 62
250
  6
CONTINUOUS
 10
4.4336921555
 20
-21.1610205923
 11
4.2752300001
 21
-21.1600906057
  0
LINE
  5
26D
100
AcDbEntity
  8
C_COPERCHIO
100
AcDbLine
 62
250
  6
CONTINUOUS
 10
4.2600239837
 20
-21.3604397783
 11
4.1857892376
 21
-21.3599300409
  0
LINE
  5
26E
100
AcDbEntity
  8
C_COPERCHIO
100
AcDbLine
 62
250
  6
CONTINUOUS
 10
4.4992190144
 20
-21.1617055351
 11
4.4336921555
 21
-21.1610205923
  0
LINE
  5
26F
100
AcDbEntity
  8
C_COPERCHIO
100
AcDbLine
 62
250
  6
CONTINUOUS
 10
4.3057822207
 20
-21.3609894284
 11
4.2600239837
 21
-21.3604397783
  0
LWPOLYLINE
  5
270
100
AcDbEntity
  8
C_COPERCHIO
100
AcDbPolyline
 62
7
  6
CONTINUOUS
 90
13
 70
0
 10
-3.9771689739
 20
-21.3738030825
 10
-4.0032711008
 20
-21.3720928184
 10
-4.0289262791
 20
-21.366990642
 10
-4.0536958005
 20
-21.3585836608
 10
-4.0771562573
 20
-21.3470154197
 10
-4.0989060632
 20
-21.3324836325
 10
-4.1185724852
 20
-21.3152370548
 10
-4.135819063
 20
-21.2955706328
 10
-4.1503508501
 20
-21.2738208269
 10
-4.1619190912
 20
-21.25036037
 10
-4.1703260724
 20
-21.2255908486
 10
-4.1754282488
 20
-21.1999356704
 10
-4.177138513
 20
-21.1738335435
  0
LWPOLYLINE
  5
271
100
AcDbEntity
  8
C_COPERCHIO
100
AcDbPolyline
 62
250
  6
CONTINUOUS
 90
13
 70
0
 10
-3.968289125
 20
-21.3649232336
 10
-3.9943853565
 20
-21.3632051804
 10
-4.0200352471
 20
-21.3580963028
 10
-4.04480009
 20
-21.3496839812
 10
-4.068256316
 20
-21.3381120972
 10
-4.090002738
 20
-21.3235785721
 10
-4.1096674128
 20
-21.3063319824
 10
-4.1269140025
 20
-21.2866673076
 10
-4.1414475276
 20
-21.2649208856
 10
-4.1530194116
 20
-21.2414646596
 10
-4.1614317332
 20
-21.2166998167
 10
-4.1665406108
 20
-21.1910499261
 10
-4.1682586641
 20
-21.1649536946
  0
LWPOLYLINE
  5
272
100
AcDbEntity
  8
C_COPERCHIO
100
AcDbPolyline
 62
7
  6
CONTINUOUS
 90
9
 70
0
 10
-10.4263205498
 20
-19.9735211119
 10
-10.4792927645
 20
-19.9689183136
 10
-10.5313558025
 20
-19.9587429313
 10
-10.5819312711
 20
-19.9431488196
 10
-10.6306195745
 20
-19.9222721853
 10
-10.6767223321
 20
-19.896426399
 10
-10.7193368408
 20
-19.8662570052
 10
-10.7579031386
 20
-19.8324626711
 10
-10.7630975493
 20
-19.8273434344
  0
LWPOLYLINE
  5
273
100
AcDbEntity
  8
C_COPERCHIO
100
AcDbPolyline
 62
250
  6
CONTINUOUS
 90
13
 70
0
 10
-10.7598115521
 20
-18.1157089391
 10
-10.7545034658
 20
-18.1183636546
 10
-10.7409189706
 20
-18.1209739487
 10
-10.7192853759
 20
-18.1234961433
 10
-10.6899646768
 20
-18.1258880346
 10
-10.6534474967
 20
-18.1281095989
 10
-10.610344878
 20
-18.1301236629
 10
-10.5613780569
 20
-18.1318965251
 10
-10.5073663957
 20
-18.1333985203
 10
-10.4492136719
 20
-18.1346045158
 10
-10.3878929553
 20
-18.1354943317
 10
-10.324430326
 20
-18.1360530787
 10
-10.2598877045
 20
-18.1362714072
  0
LINE
  5
274
100
AcDbEntity
  8
C_COPERCHIO
100
AcDbLine
 62
7
  6
CONTINUOUS
 10
-10.3543328858
 20
-21.2016342989
 11
-10.3429807156
 21
-21.2128416234
  0
LINE
  5
275
100
AcDbEntity
  8
C_COPERCHIO
100
AcDbLine
 62
7
  6
CONTINUOUS
 10
-10.1616618123
 20
-21.3945661452
 11
-10.1378265349
 21
-21.4181406498
  0
LINE
  5
276
100
AcDbEntity
  8
C_COPERCHIO
100
AcDbLine
 62
250
  6
CONTINUOUS
 10
-10.927138513
 20
-19.4561195372
 11
-10.9096835409
 21
-19.4735745092
  0
LINE
  5
277
100
AcDbEntity
  8
C_COPERCHIO
100
AcDbLine
 62
250
  6
CONTINUOUS
 10
-8.3164504911
 20
-22.0344530282
 11
-8.2771004368
 21
-22.0738030825
  0
LWPOLYLINE
  5
278
100
AcDbEntity
  8
C_COPERCHIO
100
AcDbPolyline
 62
7
  6
CONTINUOUS
 90
3
 70
0
 10
-10.3429807156
 20
-21.2128416234
 10
-10.3163431966
 20
-21.2396239882
 10
-10.2843495647
 20
-21.2715809651
  0
LINE
  5
279
100
AcDbEntity
  8
C_COPERCHIO
100
AcDbLine
 62
7
  6
CONTINUOUS
 10
-10.2843495647
 20
-21.2715809651
 11
-10.1616618123
 21
-21.3945661452
  0
LWPOLYLINE
  5
27A
100
AcDbEntity
  8
C_COPERCHIO
100
AcDbPolyline
 62
7
  6
CONTINUOUS
 90
9
 70
0
 10
-10.7630975493
 20
-19.8273434344
 10
-10.7923956239
 20
-19.7953892018
 10
-10.8228099439
 20
-19.7552464344
 10
-10.8489285376
 20
-19.7124470953
 10
-10.8705275989
 20
-19.6675028485
 10
-10.8875299332
 20
-19.6206900647
 10
-10.899798277
 20
-19.5724083362
 10
-10.9072011609
 20
-19.5232067731
 10
-10.9096835409
 20
-19.4735745092
  0
LINE
  5
27B
100
AcDbEntity
  8
C_COPERCHIO
100
AcDbLine
 62
250
  6
CONTINUOUS
 10
-8.027138513
 20
26.6762349937
 11
-8.0664885673
 21
26.6368849394
  0
LWPOLYLINE
  5
27C
100
AcDbEntity
  8
C_COPERCHIO
100
AcDbPolyline
 62
250
  6
CONTINUOUS
 90
6
 70
0
 10
10.8291023385
 20
-19.8852514964
 10
10.8319246381
 20
-19.8852286726
 10
10.8347629234
 20
-19.8851896763
 10
10.8376170993
 20
-19.8851342339
 10
10.8404870672
 20
-19.8850620711
 10
10.8433727256
 20
-19.8849729125
  0
LINE
  5
27D
100
AcDbEntity
  8
C_COPERCHIO
100
AcDbLine
 62
250
  6
CONTINUOUS
 10
10.826296117
 20
-20.084984327
 11
10.8466788896
 21
-20.0848434197
  0
LINE
  5
27E
100
AcDbEntity
  8
C_COPERCHIO
100
AcDbLine
 62
250
  6
CONTINUOUS
 10
-10.3805731429
 20
-20.084984327
 11
-8.0533211104
 21
-20.084984327
  0
LINE
  5
27F
100
AcDbEntity
  8
C_COPERCHIO
100
AcDbLine
 62
250
  6
CONTINUOUS
 10
8.4990440844
 20
-20.084984327
 11
10.826296117
 21
-20.084984327
  0
LINE
  5
280
100
AcDbEntity
  8
C_COPERCHIO
100
AcDbLine
 62
7
  6
CONTINUOUS
 10
8.472861487
 20
-19.9738030825
 11
4.622861487
 21
-19.9738030825
  0
LINE
  5
281
100
AcDbEntity
  8
C_COPERCHIO
100
AcDbLine
 62
7
  6
CONTINUOUS
 10
-4.177138513
 20
-19.9738030825
 11
-8.027138513
 21
-19.9738030825
  0
LINE
  5
282
100
AcDbEntity
  8
C_COPERCHIO
100
AcDbLine
 62
7
  6
CONTINUOUS
 10
-3.6683348165
 20
-19.9213953033
 11
4.1140577905
 21
-19.9213953033
  0
LINE
  5
283
100
AcDbEntity
  8
C_COPERCHIO
100
AcDbLine
 62
250
  6
CONTINUOUS
 10
8.5023523919
 20
-19.88525842
 11
10.8291023385
 21
-19.8852514964
  0
LINE
  5
284
100
AcDbEntity
  8
C_COPERCHIO
100
AcDbLine
 62
250
  6
CONTINUOUS
 10
-10.2764144751
 20
-19.5725283045
 11
10.7221374492
 21
-19.5725283045
  0
LINE
  5
285
100
AcDbEntity
  8
C_COPERCHIO
100
AcDbLine
 62
250
  6
CONTINUOUS
 10
-10.4009559156
 20
-20.0848552076
 11
-10.3805731429
 21
-20.084984327
  0
LWPOLYLINE
  5
286
100
AcDbEntity
  8
C_COPERCHIO
100
AcDbPolyline
 62
250
  6
CONTINUOUS
 90
7
 70
0
 10
-10.3976497652
 20
-19.8849729535
 10
-10.3947634487
 20
-19.885062112
 10
-10.3918930848
 20
-19.885134266
 10
-10.3890387754
 20
-19.8851896954
 10
-10.3862006189
 20
-19.8852286792
 10
-10.3833787107
 20
-19.8852514951
 10
-8.0566294178
 20
-19.88525842
  0
LWPOLYLINE
  5
287
100
AcDbEntity
  8
C_COPERCHIO
100
AcDbPolyline
 62
250
  6
CONTINUOUS
 90
8
 70
0
 10
4.6139816381
 20
-21.1649536946
 10
4.6119982001
 20
-21.1645643894
 10
4.6070593679
 20
-21.1641670588
 10
4.5988106863
 20
-21.1637617027
 10
4.5868222784
 20
-21.1633414543
 10
4.5708181206
 20
-21.1629131804
 10
4.5509056224
 20
-21.1624974819
 10
4.4992190144
 20
-21.1617055351
  0
LINE
  5
288
100
AcDbEntity
  8
C_COPERCHIO
100
AcDbLine
 62
250
  6
CONTINUOUS
 10
-8.0664885673
 20
-21.7844911044
 11
-8.027138513
 21
-21.8238411588
  0
LINE
  5
289
100
AcDbEntity
  8
C_COPERCHIO
100
AcDbLine
 62
250
  6
CONTINUOUS
 10
-10.2598877045
 20
-18.1362714074
 11
10.7056106786
 21
-18.1362714074
  0
LWPOLYLINE
  5
28A
100
AcDbEntity
  8
C_COPERCHIO
100
AcDbPolyline
 62
250
  6
CONTINUOUS
 90
10
 70
0
 10
4.4140120991
 20
-21.3649232336
 10
4.4131594954
 20
-21.3645337688
 10
4.410122791
 20
-21.3641362911
 10
4.404901986
 20
-21.3637308006
 10
4.3975464076
 20
-21.3633104228
 10
4.3880067285
 20
-21.3628820321
 10
4.3761349668
 20
-21.3624662518
 10
4.3617192289
 20
-21.3620639507
 10
4.3449714083
 20
-21.3616742598
 10
4.3057822207
 20
-21.3609894284
  0
LINE
  5
28B
100
AcDbEntity
  8
C_COPERCHIO
100
AcDbLine
 62
7
  6
CONTINUOUS
 10
-8.027138513
 20
24.8261969175
 11
-8.0566294178
 21
24.7376522549
  0
LINE
  5
28C
100
AcDbEntity
  8
C_COPERCHIO
100
AcDbLine
 62
7
  6
CONTINUOUS
 10
-8.0566294178
 20
-19.88525842
 11
-8.027138513
 21
-19.9738030825
  0
LINE
  5
28D
100
AcDbEntity
  8
C_COPERCHIO
100
AcDbLine
 62
250
  6
CONTINUOUS
 10
4.4140120991
 20
26.2173170685
 11
4.422891948
 21
26.2261969175
  0
LINE
  5
28E
100
AcDbEntity
  8
C_COPERCHIO
100
AcDbLine
 62
250
  6
CONTINUOUS
 10
4.6139816381
 20
26.0173475295
 11
4.622861487
 21
26.0262273784
  0
LINE
  5
28F
100
AcDbEntity
  8
C_COPERCHIO
100
AcDbLine
 62
250
  6
CONTINUOUS
 10
4.422891948
 20
-21.3738030825
 11
4.4140120991
 21
-21.3649232336
  0
LINE
  5
290
100
AcDbEntity
  8
C_COPERCHIO
100
AcDbLine
 62
250
  6
CONTINUOUS
 10
4.622861487
 20
-21.1738335435
 11
4.6139816381
 21
-21.1649536946
  0
LWPOLYLINE
  5
291
100
AcDbEntity
  8
C_COPERCHIO
100
AcDbPolyline
 62
250
  6
CONTINUOUS
 90
13
 70
0
 10
-10.3877884587
 20
-21.7844911044
 10
-10.3856408921
 20
-21.8171113938
 10
-10.3792547951
 20
-21.849173757
 10
-10.3687393931
 20
-21.8801298107
 10
-10.3542745381
 20
-21.9094500932
 10
-10.3361076318
 20
-21.9366331207
 10
-10.3145493946
 20
-21.9612139641
 10
-10.2899685511
 20
-21.9827722013
 10
-10.2627855236
 20
-22.0009391077
 10
-10.2334652411
 20
-22.0154039627
 10
-10.2025091874
 20
-22.0259193647
 10
-10.1704468242
 20
-22.0323054617
 10
-10.1378265349
 20
-22.0344530282
  0
LWPOLYLINE
  5
292
100
AcDbEntity
  8
C_COPERCHIO
100
AcDbPolyline
 62
7
  6
CONTINUOUS
 90
13
 70
0
 10
-10.427138513
 20
-21.8238411588
 10
-10.4250006827
 20
-21.8564688173
 10
-10.4186229623
 20
-21.8885377902
 10
-10.4081142358
 20
-21.9194996919
 10
-10.3936539344
 20
-21.948825263
 10
-10.3754892004
 20
-21.9760125203
 10
-10.3539309783
 20
-22.0005955478
 10
-10.3293479508
 20
-22.02215377
 10
-10.3021606934
 20
-22.040318504
 10
-10.2728351223
 20
-22.0547788053
 10
-10.2418732206
 20
-22.0652875319
 10
-10.2098042477
 20
-22.0716652523
 10
-10.1771765892
 20
-22.0738030825
  0
LWPOLYLINE
  5
293
100
AcDbEntity
  8
C_COPERCHIO
100
AcDbPolyline
 62
250
  6
CONTINUOUS
 90
16
 70
0
 10
-10.7763383227
 20
-19.0732135372
 10
-10.7735553235
 20
-19.1253744412
 10
-10.7653321365
 20
-19.1769647715
 10
-10.7517586794
 20
-19.227419967
 10
-10.7329834229
 20
-19.2761878708
 10
-10.7092117615
 20
-19.3227347905
 10
-10.6807037616
 20
-19.3665513363
 10
-10.6477713208
 20
-19.4071579822
 10
-10.6107747839
 20
-19.4441102896
 10
-10.5701189998
 20
-19.4770037961
 10
-10.5262488352
 20
-19.5054784867
 10
-10.4796443705
 20
-19.5292226783
 10
-10.4308156884
 20
-19.5479764362
 10
-10.3802971773
 20
-19.5615344819
 10
-10.3286416701
 20
-19.5697484143
 10
-10.2764144752
 20
-19.5725283047
  0
LINE
  5
294
100
AcDbEntity
  8
C_COPERCHIO
100
AcDbLine
 62
7
  6
CONTINUOUS
 10
-10.3877884587
 20
-21.1319845531
 11
-10.4009559156
 21
-20.6964528134
  0
LINE
  5
295
100
AcDbEntity
  8
C_COPERCHIO
100
AcDbLine
 62
250
  6
CONTINUOUS
 10
-10.7644129415
 20
23.604407033
 11
-10.7662016284
 21
23.7010749216
  0
LINE
  5
296
100
AcDbEntity
  8
C_COPERCHIO
100
AcDbLine
 62
250
  6
CONTINUOUS
 10
-10.7628822234
 20
23.4946073094
 11
-10.7644129415
 21
23.604407033
  0
LINE
  5
297
100
AcDbEntity
  8
C_COPERCHIO
100
AcDbLine
 62
250
  6
CONTINUOUS
 10
-10.7616318957
 20
23.373301033
 11
-10.7628822234
 21
23.4946073094
  0
LINE
  5
298
100
AcDbEntity
  8
C_COPERCHIO
100
AcDbLine
 62
250
  6
CONTINUOUS
 10
-10.7606929031
 20
23.2430958037
 11
-10.7616318957
 21
23.373301033
  0
LINE
  5
299
100
AcDbEntity
  8
C_COPERCHIO
100
AcDbLine
 62
250
  6
CONTINUOUS
 10
-10.7600840114
 20
23.1076733903
 11
-10.7606929031
 21
23.2430958037
  0
LINE
  5
29A
100
AcDbEntity
  8
C_COPERCHIO
100
AcDbLine
 62
250
  6
CONTINUOUS
 10
-10.7598115521
 20
22.968102774
 11
-10.7600840114
 21
23.1076733903
  0
LINE
  5
29B
100
AcDbEntity
  8
C_COPERCHIO
100
AcDbLine
 62
7
  6
CONTINUOUS
 10
-10.927138513
 20
24.3085133721
 11
-10.927138513
 21
-19.4561195372
  0
LINE
  5
29C
100
AcDbEntity
  8
C_CORPO
100
AcDbLine
 62
7
  6
CONTINUOUS
 10
-10.927138513
 20
-15.2455021313
 11
-10.927138513
 21
20.0978959662
  0
LINE
  5
29D
100
AcDbEntity
  8
ASSI
100
AcDbLine
 62
7
  6
CONTINUOUS
 10
-10.927138513
 20
-15.2455021313
 11
-10.927138513
 21
20.0978959662
  0
LINE
  5
29E
100
AcDbEntity
  8
C_COPERCHIO
100
AcDbLine
 62
7
  6
CONTINUOUS
 10
-10.427138513
 20
26.6762349937
 11
-10.427138513
 21
24.8259049745
  0
LINE
  5
29F
100
AcDbEntity
  8
C_COPERCHIO
100
AcDbLine
 62
7
  6
CONTINUOUS
 10
-10.427138513
 20
-19.9735111396
 11
-10.427138513
 21
-21.8238411588
  0
LINE
  5
2A0
100
AcDbEntity
  8
C_COPERCHIO
100
AcDbLine
 62
7
  6
CONTINUOUS
 10
-10.4008431199
 20
24.8867461265
 11
-10.4009559156
 21
25.5488466483
  0
LINE
  5
2A1
100
AcDbEntity
  8
C_COPERCHIO
100
AcDbLine
 62
250
  6
CONTINUOUS
 10
-10.3877884587
 20
-21.7844911044
 11
-10.3877884587
 21
-21.1319845531
  0
LINE
  5
2A2
100
AcDbEntity
  8
C_COPERCHIO
100
AcDbLine
 62
250
  6
CONTINUOUS
 10
-10.3877884587
 20
25.984378388
 11
-10.3877884587
 21
26.6368849394
  0
LINE
  5
2A3
100
AcDbEntity
  8
C_COPERCHIO
100
AcDbLine
 62
250
  6
CONTINUOUS
 10
-10.3805731429
 20
24.9373781619
 11
-10.3805731429
 21
24.7376522549
  0
LINE
  5
2A4
100
AcDbEntity
  8
C_COPERCHIO
100
AcDbLine
 62
250
  6
CONTINUOUS
 10
-10.3805731429
 20
-20.084984327
 11
-10.3805731429
 21
-19.88525842
  0
LWPOLYLINE
  5
2A5
100
AcDbEntity
  8
C_COPERCHIO
100
AcDbPolyline
 62
250
  6
CONTINUOUS
 90
9
 70
0
 10
-10.7568976208
 20
-13.5519913173
 10
-10.7547121726
 20
-8.9876977535
 10
-10.7532552075
 20
-4.4228282476
 10
-10.7525267258
 20
0.1430016744
 10
-10.7525267272
 20
4.7094075385
 10
-10.7532552106
 20
9.2752359227
 10
-10.7547121757
 20
13.840102353
 10
-10.7568976229
 20
18.4043913034
 10
-10.7598115521
 20
22.968102774
  0
LINE
  5
2A6
100
AcDbEntity
  8
C_COPERCHIO
100
AcDbLine
 62
250
  6
CONTINUOUS
 10
-10.7600842523
 20
-18.2553512267
 11
-10.7568976208
 21
-13.5519913173
  0
LINE
  5
2A7
100
AcDbEntity
  8
C_COPERCHIO
100
AcDbLine
 62
7
  6
CONTINUOUS
 10
-10.4009559156
 20
-20.6964528134
 11
-10.4008431197
 21
-20.0343522876
  0
LINE
  5
2A8
100
AcDbEntity
  8
C_COPERCHIO
100
AcDbLine
 62
250
  6
CONTINUOUS
 10
-10.7606935645
 20
-18.3908241848
 11
-10.7600842523
 21
-18.2553512267
  0
LINE
  5
2A9
100
AcDbEntity
  8
C_COPERCHIO
100
AcDbLine
 62
250
  6
CONTINUOUS
 10
-10.7616331986
 20
-18.5210638064
 11
-10.7606935645
 21
-18.3908241848
  0
LINE
  5
2AA
100
AcDbEntity
  8
C_COPERCHIO
100
AcDbLine
 62
250
  6
CONTINUOUS
 10
-10.762884684
 20
-18.6424155674
 11
-10.7616331986
 21
-18.5210638064
  0
LINE
  5
2AB
100
AcDbEntity
  8
C_COPERCHIO
100
AcDbLine
 62
250
  6
CONTINUOUS
 10
-10.7644162952
 20
-18.7522228996
 11
-10.762884684
 21
-18.6424155674
  0
LINE
  5
2AC
100
AcDbEntity
  8
C_COPERCHIO
100
AcDbLine
 62
250
  6
CONTINUOUS
 10
-10.7662053316
 20
-18.8488542193
 11
-10.7644162952
 21
-18.7522228996
  0
LINE
  5
2AD
100
AcDbEntity
  8
C_COPERCHIO
100
AcDbLine
 62
7
  6
CONTINUOUS
 10
-10.4009559156
 20
25.5488466483
 11
-10.3877884587
 21
25.984378388
  0
LWPOLYLINE
  5
2AE
100
AcDbEntity
  8
C_COPERCHIO
100
AcDbPolyline
 62
7
  6
CONTINUOUS
 90
9
 70
0
 10
-10.9096835409
 20
24.3259683441
 10
-10.9072011609
 20
24.375600608
 10
-10.899798277
 20
24.4248021712
 10
-10.8875299332
 20
24.4730838996
 10
-10.8705275989
 20
24.5198966834
 10
-10.8489285376
 20
24.5648409302
 10
-10.8228099439
 20
24.6076402693
 10
-10.7923956239
 20
24.6477830367
 10
-10.7630975493
 20
24.6797372693
  0
LWPOLYLINE
  5
2AF
100
AcDbEntity
  8
C_COPERCHIO
100
AcDbPolyline
 62
250
  6
CONTINUOUS
 90
16
 70
0
 10
-10.7763383227
 20
23.9256073721
 10
-10.773555166
 20
23.977769761
 10
-10.7653315587
 20
24.0293613117
 10
-10.7517574956
 20
24.079817433
 10
-10.7329815243
 20
24.1285859591
 10
-10.7092091193
 20
24.1751331925
 10
-10.6807004335
 20
24.2189497444
 10
-10.6477674511
 20
24.259556109
 10
-10.6107705739
 20
24.2965079114
 10
-10.5701146763
 20
24.32940077
 10
-10.5262446757
 20
24.3578747225
 10
-10.4796406624
 20
24.3816181646
 10
-10.4308126468
 20
24.4003712604
 10
-10.3802949775
 20
24.4139287856
 10
-10.3286404936
 20
24.4221423737
 10
-10.2764144751
 20
24.4249221394
  0
LWPOLYLINE
  5
2B0
100
AcDbEntity
  8
C_COPERCHIO
100
AcDbPolyline
 62
7
  6
CONTINUOUS
 90
13
 70
0
 10
-10.427138513
 20
26.6762349937
 10
-10.4250006827
 20
26.7088626522
 10
-10.4186229623
 20
26.7409316251
 10
-10.4081142358
 20
26.7718935268
 10
-10.3936539344
 20
26.8012190979
 10
-10.3754892004
 20
26.8284063553
 10
-10.3539309783
 20
26.8529893827
 10
-10.3293479508
 20
26.8745476049
 10
-10.3021606934
 20
26.8927123389
 10
-10.2728351223
 20
26.9071726402
 10
-10.2418732206
 20
26.9176813668
 10
-10.2098042477
 20
26.9240590872
 10
-10.1771765892
 20
26.9261969175
  0
LWPOLYLINE
  5
2B1
100
AcDbEntity
  8
C_COPERCHIO
100
AcDbPolyline
 62
250
  6
CONTINUOUS
 90
13
 70
0
 10
-10.3877884587
 20
26.6368849394
 10
-10.3856408921
 20
26.6695052287
 10
-10.3792547951
 20
26.7015675919
 10
-10.3687393931
 20
26.7325236456
 10
-10.3542745381
 20
26.7618439281
 10
-10.3361076318
 20
26.7890269556
 10
-10.3145493946
 20
26.8136077991
 10
-10.2899685511
 20
26.8351660362
 10
-10.2627855236
 20
26.8533329426
 10
-10.2334652411
 20
26.8677977976
 10
-10.2025091874
 20
26.8783131996
 10
-10.1704468242
 20
26.8846992966
 10
-10.1378265349
 20
26.8868468631
  0
LWPOLYLINE
  5
2B2
100
AcDbEntity
  8
C_COPERCHIO
100
AcDbPolyline
 62
7
  6
CONTINUOUS
 90
4
 70
0
 10
-5.0112655014
 20
12.7441473757
 10
-5.0004828332
 20
12.7557442874
 10
-4.9871240277
 20
12.7693676021
 10
-4.9558591075
 20
12.8017613642
  0
LWPOLYLINE
  5
2B3
100
AcDbEntity
  8
C_COPERCHIO
100
AcDbPolyline
 62
7
  6
CONTINUOUS
 90
3
 70
0
 10
-4.9558591075
 20
12.8017613642
 10
-4.9379529929
 20
12.8198805866
 10
-4.8994374177
 20
12.8592073481
  0
LINE
  5
2B4
100
AcDbEntity
  8
C_COPERCHIO
100
AcDbLine
 62
7
  6
CONTINUOUS
 10
-4.8994374177
 20
12.8592073481
 11
-4.8362695235
 21
12.9230606426
  0
LWPOLYLINE
  5
2B5
100
AcDbEntity
  8
C_COPERCHIO
100
AcDbPolyline
 62
7
  6
CONTINUOUS
 90
3
 70
0
 10
-4.770622183
 20
12.9891945926
 10
-4.7488727886
 20
13.0110377328
 10
-4.727138513
 20
13.0325607357
  0
LWPOLYLINE
  5
2B6
100
AcDbEntity
  8
C_COPERCHIO
100
AcDbPolyline
 62
7
  6
CONTINUOUS
 90
3
 70
0
 10
-4.8362695235
 20
12.9230606426
 10
-4.8143205505
 20
12.9450638912
 10
-4.770622183
 20
12.9891945926
  0
LWPOLYLINE
  5
2B7
100
AcDbEntity
  8
C_COPERCHIO
100
AcDbPolyline
 62
7
  6
CONTINUOUS
 90
3
 70
0
 10
8.5696825142
 20
26.0779238969
 10
8.5570192844
 20
26.0652354583
 10
8.5456671142
 20
26.0540281338
  0
LINE
  5
2B8
100
AcDbEntity
  8
C_COPERCHIO
100
AcDbLine
 62
7
  6
CONTINUOUS
 10
8.6724823914
 20
26.1807836943
 11
8.6156504353
 21
26.1239748
  0
LWPOLYLINE
  5
2B9
100
AcDbEntity
  8
C_COPERCHIO
100
AcDbPolyline
 62
7
  6
CONTINUOUS
 90
3
 70
0
 10
8.6156504353
 20
26.1239748
 10
8.5989980896
 20
26.107389014
 10
8.5696825142
 20
26.0779238969
  0
LWPOLYLINE
  5
2BA
100
AcDbEntity
  8
C_COPERCHIO
100
AcDbPolyline
 62
7
  6
CONTINUOUS
 90
3
 70
0
 10
8.7621734651
 20
26.2705344848
 10
8.7383381877
 20
26.2469599801
 10
8.6724823914
 20
26.1807836943
  0
LWPOLYLINE
  5
2BB
100
AcDbEntity
  8
C_COPERCHIO
100
AcDbPolyline
 62
7
  6
CONTINUOUS
 90
3
 70
0
 10
-5.027138513
 20
12.7262625252
 10
-5.0244236465
 20
12.7288917343
 10
-5.0112655014
 20
12.7441473757
  0
LINE
  5
2BC
100
AcDbEntity
  8
C_COPERCHIO
100
AcDbLine
 62
7
  6
CONTINUOUS
 10
8.5456671142
 20
-21.2016342989
 11
8.5570192995
 21
-21.212841632
  0
LINE
  5
2BD
100
AcDbEntity
  8
C_COPERCHIO
100
AcDbLine
 62
7
  6
CONTINUOUS
 10
8.7383378119
 20
-21.3945657592
 11
8.7621734651
 21
-21.4181406498
  0
LWPOLYLINE
  5
2BE
100
AcDbEntity
  8
C_COPERCHIO
100
AcDbPolyline
 62
7
  6
CONTINUOUS
 90
3
 70
0
 10
8.5570192995
 20
-21.212841632
 10
8.5836567859
 20
-21.2396239706
 10
8.6156503089
 20
-21.2715808389
  0
LINE
  5
2BF
100
AcDbEntity
  8
C_COPERCHIO
100
AcDbLine
 62
7
  6
CONTINUOUS
 10
8.6156503089
 20
-21.2715808389
 11
8.7383378119
 21
-21.3945657592
  0
LWPOLYLINE
  5
2C0
100
AcDbEntity
  8
C_COPERCHIO
100
AcDbPolyline
 62
250
  6
CONTINUOUS
 90
8
 70
0
 10
-10.7682116581
 20
23.7823621431
 10
-10.7692832817
 20
23.8166897374
 10
-10.7703950577
 20
23.8465406275
 10
-10.7715460288
 20
23.8719856991
 10
-10.7727176913
 20
23.8926521859
 10
-10.7739038771
 20
23.9084158326
 10
-10.7751107542
 20
23.9194008947
 10
-10.7763383227
 20
23.9256073721
  0
LWPOLYLINE
  5
2C1
100
AcDbEntity
  8
C_COPERCHIO
100
AcDbPolyline
 62
250
  6
CONTINUOUS
 90
7
 70
0
 10
-10.2693537575
 20
24.2612841901
 10
-10.2704631609
 20
24.3061518714
 10
-10.2716117361
 20
24.3441949483
 10
-10.2727828213
 20
24.3752305751
 10
-10.2739708626
 20
24.3991047913
 10
-10.2751814139
 20
24.4156964863
 10
-10.2764144751
 20
24.4249221394
  0
LINE
  5
2C2
100
AcDbEntity
  8
C_COPERCHIO
100
AcDbLine
 62
250
  6
CONTINUOUS
 10
-10.7662016284
 20
23.7010749216
 11
-10.7682116581
 21
23.7823621431
  0
LINE
  5
2C3
100
AcDbEntity
  8
C_COPERCHIO
100
AcDbLine
 62
250
  6
CONTINUOUS
 10
-10.2672532423
 20
24.1519745875
 11
-10.2693537575
 21
24.2612841901
  0
LINE
  5
2C4
100
AcDbEntity
  8
C_COPERCHIO
100
AcDbLine
 62
250
  6
CONTINUOUS
 10
-10.2653569245
 20
24.0184881229
 11
-10.2672532423
 21
24.1519745875
  0
LINE
  5
2C5
100
AcDbEntity
  8
C_COPERCHIO
100
AcDbLine
 62
7
  6
CONTINUOUS
 10
-10.4000010374
 20
24.7996035459
 11
-10.4005211826
 21
24.8405723836
  0
LINE
  5
2C6
100
AcDbEntity
  8
C_COPERCHIO
100
AcDbLine
 62
250
  6
CONTINUOUS
 10
-10.2636927469
 20
23.8634768178
 11
-10.2653569245
 21
24.0184881229
  0
LINE
  5
2C7
100
AcDbEntity
  8
C_COPERCHIO
100
AcDbLine
 62
250
  6
CONTINUOUS
 10
-10.2622987223
 20
23.6898891704
 11
-10.2636927469
 21
23.8634768178
  0
LINE
  5
2C8
100
AcDbEntity
  8
C_COPERCHIO
100
AcDbLine
 62
7
  6
CONTINUOUS
 10
-10.4005211826
 20
24.8405723836
 11
-10.4008431199
 21
24.8867461265
  0
LINE
  5
2C9
100
AcDbEntity
  8
C_COPERCHIO
100
AcDbLine
 62
250
  6
CONTINUOUS
 10
-10.2612040731
 20
23.5012362561
 11
-10.2622987223
 21
23.6898891704
  0
LINE
  5
2CA
100
AcDbEntity
  8
C_COPERCHIO
100
AcDbLine
 62
250
  6
CONTINUOUS
 10
-10.2604250138
 20
23.3012599819
 11
-10.2612040731
 21
23.5012362561
  0
LINE
  5
2CB
100
AcDbEntity
  8
C_COPERCHIO
100
AcDbLine
 62
250
  6
CONTINUOUS
 10
-10.2599834782
 20
23.0938651953
 11
-10.2604250138
 21
23.3012599819
  0
LINE
  5
2CC
100
AcDbEntity
  8
C_COPERCHIO
100
AcDbLine
 62
250
  6
CONTINUOUS
 10
-10.1378265349
 20
-21.4181406498
 11
-10.1378265349
 21
-22.0344530282
  0
LINE
  5
2CD
100
AcDbEntity
  8
C_COPERCHIO
100
AcDbLine
 62
250
  6
CONTINUOUS
 10
-10.1378265349
 20
26.2705344848
 11
-10.1378265349
 21
26.8868468631
  0
LWPOLYLINE
  5
2CE
100
AcDbEntity
  8
C_COPERCHIO
100
AcDbPolyline
 62
250
  6
CONTINUOUS
 90
9
 70
0
 10
-10.2569737729
 20
-13.5686160952
 10
-10.2547883242
 20
-8.999624235
 10
-10.2533313584
 20
-4.4296776375
 10
-10.2526028754
 20
0.1408417618
 10
-10.2526028753
 20
4.7115520702
 10
-10.2533313582
 20
9.2820714698
 10
-10.254788324
 20
13.8520180679
 10
-10.2569737728
 20
18.4210099289
 10
-10.2599834782
 20
23.0938651953
  0
LINE
  5
2CF
100
AcDbEntity
  8
C_COPERCHIO
100
AcDbLine
 62
250
  6
CONTINUOUS
 10
-10.2601626011
 20
-18.3458506365
 11
-10.2569737729
 21
-13.5686160952
  0
LINE
  5
2D0
100
AcDbEntity
  8
C_COPERCHIO
100
AcDbLine
 62
250
  6
CONTINUOUS
 10
-10.2607728629
 20
-18.5500401258
 11
-10.2601626011
 21
-18.3458506365
  0
LINE
  5
2D1
100
AcDbEntity
  8
C_COPERCHIO
100
AcDbLine
 62
250
  6
CONTINUOUS
 10
-10.261712232
 20
-18.7448212658
 11
-10.2607728629
 21
-18.5500401258
  0
LINE
  5
2D2
100
AcDbEntity
  8
C_COPERCHIO
100
AcDbLine
 62
250
  6
CONTINUOUS
 10
-10.2629623241
 20
-18.9264101731
 11
-10.261712232
 21
-18.7448212658
  0
LINE
  5
2D3
100
AcDbEntity
  8
C_COPERCHIO
100
AcDbLine
 62
7
  6
CONTINUOUS
 10
-10.4008431197
 20
-20.0343522876
 11
-10.4005211824
 21
-19.9881785373
  0
LINE
  5
2D4
100
AcDbEntity
  8
C_COPERCHIO
100
AcDbLine
 62
250
  6
CONTINUOUS
 10
-10.264491574
 20
-19.0911166084
 11
-10.2629623241
 21
-18.9264101731
  0
LINE
  5
2D5
100
AcDbEntity
  8
C_COPERCHIO
100
AcDbLine
 62
250
  6
CONTINUOUS
 10
-10.2662775601
 20
-19.2357056963
 11
-10.264491574
 21
-19.0911166084
  0
LWPOLYLINE
  5
2D6
100
AcDbEntity
  8
C_COPERCHIO
100
AcDbPolyline
 62
7
  6
CONTINUOUS
 90
8
 70
0
 10
-10.4005211824
 20
-19.9881785373
 10
-10.4000010374
 20
-19.9472096896
 10
-10.3996781084
 20
-19.9300898234
 10
-10.3993147388
 20
-19.91514098
 10
-10.3989284488
 20
-19.9030828461
 10
-10.3985250785
 20
-19.8941553172
 10
-10.3980987878
 20
-19.8881184978
 10
-10.3976495767
 20
-19.8849723878
  0
LWPOLYLINE
  5
2D7
100
AcDbEntity
  8
0
100
AcDbPolyline
 62
7
  6
CONTINUOUS
 90
3
 70
0
 43
0.3500000087
 10
1.3657186608
 20
36.0072126251
 10
1.2942900387
 20
35.7929260925
 10
1.1514329276
 20
35.5072121368
  0
LINE
  5
2D8
100
AcDbEntity
  8
C_COPERCHIO
100
AcDbLine
 62
250
  6
CONTINUOUS
 10
10.6228995632
 20
26.9261969175
 11
10.5835495089
 21
26.8868468631
  0
LINE
  5
2D9
100
AcDbEntity
  8
C_COPERCHIO
100
AcDbLine
 62
250
  6
CONTINUOUS
 10
10.872861487
 20
26.6762349937
 11
10.8335114327
 21
26.6368849394
  0
LINE
  5
2DA
100
AcDbEntity
  8
C_COPERCHIO
100
AcDbLine
 62
250
  6
CONTINUOUS
 10
3.222861487
 20
-6.5291763065
 11
-2.777138513
 21
-6.5291763065
  0
LINE
  5
2DB
100
AcDbEntity
  8
C_COPERCHIO
100
AcDbLine
 62
250
  6
CONTINUOUS
 10
10.5835495089
 20
-22.0344530282
 11
10.6228995632
 21
-22.0738030825
  0
LINE
  5
2DC
100
AcDbEntity
  8
C_COPERCHIO
100
AcDbLine
 62
250
  6
CONTINUOUS
 10
10.8335114327
 20
-21.7844911044
 11
10.872861487
 21
-21.8238411588
  0
LINE
  5
2DD
100
AcDbEntity
  8
C_COPERCHIO
100
AcDbLine
 62
7
  6
CONTINUOUS
 10
-8.0533211104
 20
25.5488466483
 11
-8.0664885673
 21
25.984378388
  0
LINE
  5
2DE
100
AcDbEntity
  8
C_COPERCHIO
100
AcDbLine
 62
250
  6
CONTINUOUS
 10
-8.3164504911
 20
26.8868468631
 11
-8.3164504911
 21
26.2705344848
  0
LINE
  5
2DF
100
AcDbEntity
  8
C_COPERCHIO
100
AcDbLine
 62
250
  6
CONTINUOUS
 10
-8.3164504911
 20
-21.4181406498
 11
-8.3164504911
 21
-22.0344530282
  0
LINE
  5
2E0
100
AcDbEntity
  8
C_COPERCHIO
100
AcDbLine
 62
250
  6
CONTINUOUS
 10
-8.0664885673
 20
26.6368849394
 11
-8.0664885673
 21
25.984378388
  0
LINE
  5
2E1
100
AcDbEntity
  8
C_COPERCHIO
100
AcDbLine
 62
250
  6
CONTINUOUS
 10
-8.0664885673
 20
-21.1319845531
 11
-8.0664885673
 21
-21.7844911044
  0
LINE
  5
2E2
100
AcDbEntity
  8
C_COPERCHIO
100
AcDbLine
 62
7
  6
CONTINUOUS
 10
-8.0533211104
 20
-20.6964528134
 11
-8.0533211104
 21
-20.084984327
  0
LINE
  5
2E3
100
AcDbEntity
  8
C_COPERCHIO
100
AcDbLine
 62
7
  6
CONTINUOUS
 10
-8.0533211104
 20
24.9373781619
 11
-8.0533211104
 21
25.5488466483
  0
LINE
  5
2E4
100
AcDbEntity
  8
C_COPERCHIO
100
AcDbLine
 62
7
  6
CONTINUOUS
 10
-8.027138513
 20
26.6762349937
 11
-8.027138513
 21
24.8261969175
  0
LINE
  5
2E5
100
AcDbEntity
  8
C_COPERCHIO
100
AcDbLine
 62
7
  6
CONTINUOUS
 10
-8.027138513
 20
-19.9738030825
 11
-8.027138513
 21
-21.8238411588
  0
LINE
  5
2E6
100
AcDbEntity
  8
C_COPERCHIO
100
AcDbLine
 62
250
  6
CONTINUOUS
 10
-7.527138513
 20
3.7269773857
 11
-7.527138513
 21
13.0325607357
  0
LINE
  5
2E7
100
AcDbEntity
  8
C_COPERCHIO
100
AcDbLine
 62
7
  6
CONTINUOUS
 10
-7.227138513
 20
4.0261969175
 11
-7.227138513
 21
12.7262625346
  0
LINE
  5
2E8
100
AcDbEntity
  8
C_CONTATTI
100
AcDbLine
 62
7
  6
CONTINUOUS
 10
-6.7876579929
 20
11.8761969175
 11
-6.7876579929
 21
12.7261969175
  0
LINE
  5
2E9
100
AcDbEntity
  8
C_COPERCHIO
100
AcDbLine
 62
7
  6
CONTINUOUS
 10
-8.0664885673
 20
-21.1319845531
 11
-8.0533211104
 21
-20.6964528134
  0
LWPOLYLINE
  5
2EA
100
AcDbEntity
  8
C_COPERCHIO
100
AcDbPolyline
 62
250
  6
CONTINUOUS
 90
9
 70
0
 10
-10.2764144751
 20
-19.5725283045
 10
-10.2751815119
 20
-19.5633033497
 10
-10.2739710284
 20
-19.546712746
 10
-10.2727830246
 20
-19.5228395699
 10
-10.2716119269
 20
-19.4918040561
 10
-10.2704633089
 20
-19.4537600086
 10
-10.2693538911
 20
-19.4088917245
 10
-10.2682841005
 20
-19.3574145177
 10
-10.2662775601
 20
-19.2357056963
  0
LINE
  5
2EB
100
AcDbEntity
  8
C_COPERCHIO
100
AcDbLine
 62
7
  6
CONTINUOUS
 10
2.922861487
 20
-6.2238030825
 11
-2.477138513
 21
-6.2238030825
  0
LWPOLYLINE
  5
2EC
100
AcDbEntity
  8
C_COPERCHIO
100
AcDbPolyline
 62
7
  6
CONTINUOUS
 90
7
 70
0
 10
-10.3976495768
 20
24.7373662227
 10
-10.3980987878
 20
24.7405123501
 10
-10.3985250784
 20
24.7465491813
 10
-10.3989284487
 20
24.7554767166
 10
-10.3993147387
 20
24.7675348494
 10
-10.3996781083
 20
24.7824836863
 10
-10.4000010374
 20
24.7996035459
  0
LWPOLYLINE
  5
2ED
100
AcDbEntity
  8
C_COPERCHIO
100
AcDbPolyline
 62
250
  6
CONTINUOUS
 90
13
 70
0
 10
-8.0664885673
 20
26.6368849394
 10
-8.0686361338
 20
26.6695052287
 10
-8.0750222309
 20
26.7015675919
 10
-8.0855376328
 20
26.7325236456
 10
-8.1000024879
 20
26.7618439281
 10
-8.1181693942
 20
26.7890269556
 10
-8.1397276314
 20
26.8136077991
 10
-8.1643084748
 20
26.8351660362
 10
-8.1914915023
 20
26.8533329426
 10
-8.2208117849
 20
26.8677977976
 10
-8.2517678385
 20
26.8783131996
 10
-8.2838302018
 20
26.8846992966
 10
-8.3164504911
 20
26.8868468631
  0
LWPOLYLINE
  5
2EE
100
AcDbEntity
  8
C_COPERCHIO
100
AcDbPolyline
 62
7
  6
CONTINUOUS
 90
13
 70
0
 10
-8.027138513
 20
26.6762349937
 10
-8.0292763432
 20
26.7088626522
 10
-8.0356540637
 20
26.7409316251
 10
-8.0461627902
 20
26.7718935268
 10
-8.0606230915
 20
26.8012190979
 10
-8.0787878255
 20
26.8284063553
 10
-8.1003460477
 20
26.8529893827
 10
-8.1249290752
 20
26.8745476049
 10
-8.1521163325
 20
26.8927123389
 10
-8.1814419036
 20
26.9071726402
 10
-8.2124038054
 20
26.9176813668
 10
-8.2444727782
 20
26.9240590872
 10
-8.2771004368
 20
26.9261969175
  0
LINE
  5
2EF
100
AcDbEntity
  8
C_CONTATTI
100
AcDbLine
 62
7
  6
CONTINUOUS
 10
-6.0823235556
 20
11.8761969175
 11
-6.0823235556
 21
12.7261969175
  0
LINE
  5
2F0
100
AcDbEntity
  8
C_CONTATTI
100
AcDbLine
 62
250
  6
CONTINUOUS
 10
-5.7807365388
 20
11.8761969175
 11
-5.7807365388
 21
4.8761969175
  0
LINE
  5
2F1
100
AcDbEntity
  8
C_CONTATTI
100
AcDbLine
 62
7
  6
CONTINUOUS
 10
-5.3939610788
 20
11.8761969175
 11
-5.3939610788
 21
12.7261969175
  0
LINE
  5
2F2
100
AcDbEntity
  8
C_CONTATTI
100
AcDbLine
 62
7
  6
CONTINUOUS
 10
-5.3706860324
 20
4.8761969175
 11
-5.3706860324
 21
11.8761969175
  0
LINE
  5
2F3
100
AcDbEntity
  8
C_CONTATTI
100
AcDbLine
 62
7
  6
CONTINUOUS
 10
-5.1835909935
 20
11.8761969175
 11
-5.1835909935
 21
4.8761969175
  0
LINE
  5
2F4
100
AcDbEntity
  8
C_CONTATTI
100
AcDbLine
 62
7
  6
CONTINUOUS
 10
-5.1603159471
 20
12.7261969175
 11
-5.1603159471
 21
11.8761969175
  0
LINE
  5
2F5
100
AcDbEntity
  8
C_COPERCHIO
100
AcDbLine
 62
7
  6
CONTINUOUS
 10
-5.027138513
 20
12.7262624889
 11
-5.027138513
 21
4.0261969175
  0
LWPOLYLINE
  5
2F6
100
AcDbEntity
  8
C_COPERCHIO
100
AcDbPolyline
 62
7
  6
CONTINUOUS
 90
13
 70
0
 10
-8.027138513
 20
-21.8238411588
 10
-8.0292763432
 20
-21.8564688173
 10
-8.0356540637
 20
-21.8885377902
 10
-8.0461627902
 20
-21.9194996919
 10
-8.0606230915
 20
-21.948825263
 10
-8.0787878255
 20
-21.9760125203
 10
-8.1003460477
 20
-22.0005955478
 10
-8.1249290752
 20
-22.02215377
 10
-8.1521163325
 20
-22.040318504
 10
-8.1814419036
 20
-22.0547788053
 10
-8.2124038054
 20
-22.0652875319
 10
-8.2444727782
 20
-22.0716652523
 10
-8.2771004368
 20
-22.0738030825
  0
LWPOLYLINE
  5
2F7
100
AcDbEntity
  8
C_COPERCHIO
100
AcDbPolyline
 62
250
  6
CONTINUOUS
 90
13
 70
0
 10
-8.0664885673
 20
-21.7844911044
 10
-8.0686361338
 20
-21.8171113938
 10
-8.0750222309
 20
-21.849173757
 10
-8.0855376328
 20
-21.8801298107
 10
-8.1000024879
 20
-21.9094500932
 10
-8.1181693942
 20
-21.9366331207
 10
-8.1397276314
 20
-21.9612139641
 10
-8.1643084748
 20
-21.9827722013
 10
-8.1914915023
 20
-22.0009391077
 10
-8.2208117849
 20
-22.0154039627
 10
-8.2517678385
 20
-22.0259193647
 10
-8.2838302018
 20
-22.0323054617
 10
-8.3164504911
 20
-22.0344530282
  0
LWPOLYLINE
  5
2F8
100
AcDbEntity
  8
C_COPERCHIO
100
AcDbPolyline
 62
250
  6
CONTINUOUS
 90
9
 70
0
 10
-10.7763383227
 20
-19.0732135372
 10
-10.7751114229
 20
-19.0670130258
 10
-10.7739051285
 20
-19.056036646
 10
-10.7727194395
 20
-19.0402843978
 10
-10.7715481592
 20
-19.0196312238
 10
-10.7703974843
 20
-18.9942021814
 10
-10.769286005
 20
-18.9643724426
 10
-10.7682147708
 20
-18.9300756958
 10
-10.7662053316
 20
-18.8488542193
  0
LWPOLYLINE
  5
2F9
100
AcDbEntity
  8
C_COPERCHIO
100
AcDbPolyline
 62
7
  6
CONTINUOUS
 90
3
 70
0
 10
-7.5054444888
 20
3.7484469184
 10
-7.4400740175
 20
3.814067181
 10
-7.3755849397
 20
3.8784971931
  0
LWPOLYLINE
  5
2FA
100
AcDbEntity
  8
C_COPERCHIO
100
AcDbPolyline
 62
7
  6
CONTINUOUS
 90
3
 70
0
 10
-7.3549717705
 20
3.8989424658
 10
-7.3164448497
 20
3.9375213192
 10
-7.2985310982
 20
3.9551977821
  0
LWPOLYLINE
  5
2FB
100
AcDbEntity
  8
C_COPERCHIO
100
AcDbPolyline
 62
7
  6
CONTINUOUS
 90
7
 70
0
 10
-7.2985310982
 20
3.9551977821
 10
-7.2672520926
 20
3.9865559963
 10
-7.2538868386
 20
3.9995888217
 10
-7.2430916107
 20
4.0105211895
 10
-7.2352038853
 20
4.0189295626
 10
-7.229886186
 20
4.0243063369
 10
-7.227138513
 20
4.0261969175
  0
LINE
  5
2FC
100
AcDbEntity
  8
C_COPERCHIO
100
AcDbLine
 62
7
  6
CONTINUOUS
 10
-7.3755849397
 20
3.8784971931
 11
-7.3549717705
 21
3.8989424658
  0
LINE
  5
2FD
100
AcDbEntity
  8
C_COPERCHIO
100
AcDbLine
 62
7
  6
CONTINUOUS
 10
-7.527138513
 20
3.7269773857
 11
-7.5054444888
 21
3.7484469184
  0
LWPOLYLINE
  5
2FE
100
AcDbEntity
  8
C_COPERCHIO
100
AcDbPolyline
 62
250
  6
CONTINUOUS
 90
5
 70
0
 10
-2.5173289316
 20
-3.5255891177
 10
-2.4999734462
 20
-3.525170052
 10
-2.4873601788
 20
-3.5247275993
 10
-2.4797048961
 20
-3.5242693302
 10
-2.477138513
 20
-3.5238030857
  0
LINE
  5
2FF
100
AcDbEntity
  8
C_COPERCHIO
100
AcDbLine
 62
250
  6
CONTINUOUS
 10
-2.5650030534
 20
-3.5263289315
 11
-2.5173289316
 21
-3.5255891177
  0
LINE
  5
300
100
AcDbEntity
  8
C_COPERCHIO
100
AcDbLine
 62
250
  6
CONTINUOUS
 10
-2.6271345373
 20
-3.5268966241
 11
-2.5650030534
 21
-3.5263289315
  0
LWPOLYLINE
  5
301
100
AcDbEntity
  8
C_COPERCHIO
100
AcDbPolyline
 62
250
  6
CONTINUOUS
 90
3
 70
0
 10
-2.777138513
 20
-3.5273752258
 10
-2.7379789987
 20
-3.5273446636
 10
-2.6271345373
 20
-3.5268966241
  0
LINE
  5
302
100
AcDbEntity
  8
C_COPERCHIO
100
AcDbLine
 62
250
  6
CONTINUOUS
 10
3.222861487
 20
-3.5273752258
 11
3.1452157736
 21
-3.527253508
  0
LINE
  5
303
100
AcDbEntity
  8
C_COPERCHIO
100
AcDbLine
 62
250
  6
CONTINUOUS
 10
3.1452157736
 20
-3.527253508
 11
3.0728614873
 21
-3.5268966498
  0
LINE
  5
304
100
AcDbEntity
  8
C_COPERCHIO
100
AcDbLine
 62
250
  6
CONTINUOUS
 10
3.0728614873
 20
-3.5268966498
 11
3.0107294529
 21
-3.5263289704
  0
LWPOLYLINE
  5
305
100
AcDbEntity
  8
C_COPERCHIO
100
AcDbPolyline
 62
250
  6
CONTINUOUS
 90
6
 70
0
 10
3.0107294529
 20
-3.5263289704
 10
2.9630538661
 20
-3.5255891564
 10
2.9456976274
 20
-3.525170085
 10
2.9330837392
 20
-3.5247276233
 10
2.9254280286
 20
-3.524269342
 10
2.922861487
 20
-3.5238030825
  0
LINE
  5
306
100
AcDbEntity
  8
C_COPERCHIO
100
AcDbLine
 62
250
  6
CONTINUOUS
 10
-4.727138513
 20
13.0325607357
 11
-4.727138513
 21
3.7269773857
  0
LINE
  5
307
100
AcDbEntity
  8
C_COPERCHIO
100
AcDbLine
 62
7
  6
CONTINUOUS
 10
-4.177138513
 20
26.0262273784
 11
-4.177138513
 21
24.8261969175
  0
LINE
  5
308
100
AcDbEntity
  8
C_COPERCHIO
100
AcDbLine
 62
7
  6
CONTINUOUS
 10
-4.177138513
 20
-21.1738335435
 11
-4.177138513
 21
-19.9738030825
  0
LINE
  5
309
100
AcDbEntity
  8
C_COPERCHIO
100
AcDbLine
 62
250
  6
CONTINUOUS
 10
-4.1682586641
 20
-19.947141872
 11
-4.1682586641
 21
-21.1649536946
  0
LINE
  5
30A
100
AcDbEntity
  8
C_COPERCHIO
100
AcDbLine
 62
250
  6
CONTINUOUS
 10
-4.1682586641
 20
24.7995357069
 11
-4.1682586641
 21
26.0173475295
  0
LINE
  5
30B
100
AcDbEntity
  8
C_COPERCHIO
100
AcDbLine
 62
250
  6
CONTINUOUS
 10
-3.6683348165
 20
-19.9213953033
 11
-3.6683348165
 21
-21.359778104
  0
LINE
  5
30C
100
AcDbEntity
  8
C_COPERCHIO
100
AcDbLine
 62
250
  6
CONTINUOUS
 10
-3.6683348165
 20
24.7737891382
 11
-3.6683348165
 21
26.2121719389
  0
LINE
  5
30D
100
AcDbEntity
  8
C_COPERCHIO
100
AcDbLine
 62
250
  6
CONTINUOUS
 10
-10.9096835409
 20
-19.4735745092
 11
-10.7763383227
 21
-19.0732135372
  0
LINE
  5
30E
100
AcDbEntity
  8
C_COPERCHIO
100
AcDbLine
 62
7
  6
CONTINUOUS
 10
3.222861487
 20
-6.5291763065
 11
3.2008817235
 21
-6.5074111188
  0
LWPOLYLINE
  5
30F
100
AcDbEntity
  8
C_COPERCHIO
100
AcDbPolyline
 62
7
  6
CONTINUOUS
 90
3
 70
0
 10
3.0113110648
 20
-6.3160238343
 10
2.9934516665
 20
-6.2980153648
 10
2.9622734288
 20
-6.2658975952
  0
LWPOLYLINE
  5
310
100
AcDbEntity
  8
C_COPERCHIO
100
AcDbPolyline
 62
7
  6
CONTINUOUS
 90
6
 70
0
 10
2.9622734288
 20
-6.2658975952
 10
2.9489545894
 20
-6.2524400759
 10
2.9382487122
 20
-6.2409062619
 10
2.930506675
 20
-6.2318222951
 10
2.9253775999
 20
-6.2259118165
 10
2.922861487
 20
-6.2238030825
  0
LINE
  5
311
100
AcDbEntity
  8
C_COPERCHIO
100
AcDbLine
 62
7
  6
CONTINUOUS
 10
3.2008817235
 20
-6.5074111188
 11
3.0497570146
 21
-6.3551772272
  0
LINE
  5
312
100
AcDbEntity
  8
C_COPERCHIO
100
AcDbLine
 62
7
  6
CONTINUOUS
 10
3.0497570146
 20
-6.3551772272
 11
3.0113110648
 21
-6.3160238343
  0
LINE
  5
313
100
AcDbEntity
  8
C_COPERCHIO
100
AcDbLine
 62
250
  6
CONTINUOUS
 10
-10.7763383227
 20
23.9256073721
 11
-10.9096835409
 21
24.3259683441
  0
LINE
  5
314
100
AcDbEntity
  8
C_COPERCHIO
100
AcDbLine
 62
250
  6
CONTINUOUS
 10
-2.777138513
 20
-6.5291763065
 11
-2.777138513
 21
-3.5273752258
  0
LINE
  5
315
100
AcDbEntity
  8
C_COPERCHIO
100
AcDbLine
 62
7
  6
CONTINUOUS
 10
-2.477138513
 20
-6.2238030825
 11
-2.477138513
 21
-3.5238030825
  0
LINE
  5
316
100
AcDbEntity
  8
C_CONTATTI
100
AcDbLine
 62
7
  6
CONTINUOUS
 10
-2.377138513
 20
-2.7987375718
 11
-2.377138513
 21
-6.2238030825
  0
LINE
  5
317
100
AcDbEntity
  8
C_CONTATTI
100
AcDbLine
 62
7
  6
CONTINUOUS
 10
-1.8821637661
 20
-1.8353819848
 11
-1.8821637661
 21
-6.2238030825
  0
LWPOLYLINE
  5
318
100
AcDbEntity
  8
C_COPERCHIO
100
AcDbPolyline
 62
250
  6
CONTINUOUS
 90
46
 70
0
 10
-2.777138513
 20
-3.5273752258
 10
-2.7693800606
 20
-3.314769906
 10
-2.7472395347
 20
-3.1053760739
 10
-2.7107169352
 20
-2.8991938118
 10
-2.6594271518
 20
-2.6952009293
 10
-2.5937552948
 20
-2.4944197612
 10
-2.5148566956
 20
-2.2999172088
 10
-2.4225773977
 20
-2.1118952138
 10
-2.3170713577
 20
-1.9301520285
 10
-2.1999557765
 20
-1.7571490697
 10
-2.0711012362
 20
-1.5930122007
 10
-1.9306371547
 20
-1.4376157456
 10
-1.7805689862
 20
-1.2930438365
 10
-1.6207889541
 20
-1.1594300735
 10
-1.451404835
 20
-1.0366410135
 10
-1.2747454135
 20
-0.9263602318
 10
-1.0906833049
 20
-0.8287291385
 10
-0.899345894
 20
-0.743606438
 10
-0.7034441191
 20
-0.6722516456
 10
-0.5028915438
 20
-0.6148562283
 10
-0.2977746045
 20
-0.5712287879
 10
-0.0910635493
 20
-0.5420545342
 10
0.1173131581
 20
-0.5275619009
 10
0.3272839814
 20
-0.5275224771
 10
0.5356640644
 20
-0.5419361958
 10
0.7423807945
 20
-0.5710308974
 10
0.9475067843
 20
-0.6145787187
 10
1.1480750153
 20
-0.6718960259
 10
1.3439995259
 20
-0.743173427
 10
1.5353662777
 20
-0.8282202455
 10
1.7194661369
 20
-0.9257809127
 10
1.8961723143
 20
-1.0359958
 10
2.0656115991
 20
-1.1587244217
 10
2.2254552248
 20
-1.2922899227
 10
2.375597528
 20
-1.4368273763
 10
2.5161441721
 20
-1.5922015523
 10
2.645083381
 20
-1.7563301483
 10
2.7622861805
 20
-1.9293399503
 10
2.8678815447
 20
-2.1111039848
 10
2.9602446208
 20
-2.2991593353
 10
3.0392202294
 20
-2.4936962079
 10
3.1049635498
 20
-2.6945242024
 10
3.1563152673
 20
-2.8986095417
 10
3.1928889435
 20
-3.1049409317
 10
3.2150710167
 20
-3.3145295208
 10
3.222861487
 20
-3.5273752258
  0
LINE
  5
319
100
AcDbEntity
  8
C_COPERCHIO
100
AcDbLine
 62
7
  6
CONTINUOUS
 10
-10.427138513
 20
-19.9735111396
 11
-10.3976495767
 21
-19.8849723878
  0
LINE
  5
31A
100
AcDbEntity
  8
C_COPERCHIO
100
AcDbLine
 62
250
  6
CONTINUOUS
 10
-10.3805731429
 20
-19.88525842
 11
-10.2764144751
 21
-19.5725283045
  0
LINE
  5
31B
100
AcDbEntity
  8
C_COPERCHIO
100
AcDbLine
 62
7
  6
CONTINUOUS
 10
4.622861487
 20
24.8261969175
 11
4.6139816381
 21
24.7995357069
  0
LWPOLYLINE
  5
31C
100
AcDbEntity
  8
C_COPERCHIO
100
AcDbPolyline
 62
7
  6
CONTINUOUS
 90
3
 70
0
 10
7.672861487
 20
11.8762522853
 10
7.6755763535
 20
11.8788239053
 10
7.6887344986
 20
11.8939738769
  0
LWPOLYLINE
  5
31D
100
AcDbEntity
  8
C_COPERCHIO
100
AcDbPolyline
 62
7
  6
CONTINUOUS
 90
6
 70
0
 10
-4.9870249333
 20
3.9865559963
 10
-5.0003901874
 20
3.9995888217
 10
-5.0111854152
 20
4.0105211895
 10
-5.0190731407
 20
4.0189295626
 10
-5.0243908399
 20
4.0243063369
 10
-5.027138513
 20
4.0261969175
  0
LWPOLYLINE
  5
31E
100
AcDbEntity
  8
C_COPERCHIO
100
AcDbPolyline
 62
7
  6
CONTINUOUS
 90
3
 70
0
 10
-4.9378321762
 20
3.9375213192
 10
-4.9557459277
 20
3.9551977821
 10
-4.9870249333
 20
3.9865559963
  0
LINE
  5
31F
100
AcDbEntity
  8
C_COPERCHIO
100
AcDbLine
 62
7
  6
CONTINUOUS
 10
-4.727138513
 20
3.7269773857
 11
-4.7488325371
 21
3.7484469184
  0
LINE
  5
320
100
AcDbEntity
  8
C_COPERCHIO
100
AcDbLine
 62
7
  6
CONTINUOUS
 10
-4.8576361739
 20
3.8574321193
 11
-4.9378321762
 21
3.9375213192
  0
LINE
  5
321
100
AcDbEntity
  8
C_COPERCHIO
100
AcDbLine
 62
7
  6
CONTINUOUS
 10
-4.7488325371
 20
3.7484469184
 11
-4.8576361739
 21
3.8574321193
  0
LINE
  5
322
100
AcDbEntity
  8
C_COPERCHIO
100
AcDbLine
 62
7
  6
CONTINUOUS
 10
-10.3976495768
 20
24.7373662227
 11
-10.427138513
 21
24.8259049745
  0
LINE
  5
323
100
AcDbEntity
  8
C_COPERCHIO
100
AcDbLine
 62
250
  6
CONTINUOUS
 10
-10.2764144751
 20
24.4249221394
 11
-10.3805731429
 21
24.7376522549
  0
LINE
  5
324
100
AcDbEntity
  8
C_COPERCHIO
100
AcDbLine
 62
7
  6
CONTINUOUS
 10
4.622861487
 20
-19.9738030825
 11
4.6139816381
 21
-19.947141872
  0
LINE
  5
325
100
AcDbEntity
  8
C_CONTATTI
100
AcDbLine
 62
250
  6
CONTINUOUS
 10
-0.2807365388
 20
-0.8722146571
 11
-0.2807365388
 21
-6.2238030825
  0
LINE
  5
326
100
AcDbEntity
  8
C_CONTATTI
100
AcDbLine
 62
7
  6
CONTINUOUS
 10
0.1293139676
 20
-6.2238030825
 11
0.1293139676
 21
-0.8254531382
  0
LINE
  5
327
100
AcDbEntity
  8
C_CONTATTI
100
AcDbLine
 62
7
  6
CONTINUOUS
 10
0.3164090065
 20
-0.8254366383
 11
0.3164090065
 21
-6.2238030825
  0
LWPOLYLINE
  5
328
100
AcDbEntity
  8
C_COPERCHIO
100
AcDbPolyline
 62
7
  6
CONTINUOUS
 90
4
 70
0
 10
7.6887344986
 20
11.8939738769
 10
7.6995171668
 20
11.9055237926
 10
7.7128759723
 20
11.9191041859
 10
7.7441408925
 20
11.9514229976
  0
LWPOLYLINE
  5
329
100
AcDbEntity
  8
C_COPERCHIO
100
AcDbPolyline
 62
7
  6
CONTINUOUS
 90
4
 70
0
 10
7.8422290503
 20
12.0508231598
 10
7.8637304765
 20
12.0725814909
 10
7.8856794495
 20
12.0945726168
 10
7.929377817
 20
12.1386881317
  0
LWPOLYLINE
  5
32A
100
AcDbEntity
  8
C_COPERCHIO
100
AcDbPolyline
 62
7
  6
CONTINUOUS
 90
3
 70
0
 10
7.7441408925
 20
11.9514229976
 10
7.7620470071
 20
11.969510339
 10
7.8005625823
 20
12.0087835605
  0
LINE
  5
32B
100
AcDbEntity
  8
C_COPERCHIO
100
AcDbLine
 62
7
  6
CONTINUOUS
 10
7.8005625823
 20
12.0087835605
 11
7.8422290503
 21
12.0508231598
  0
LWPOLYLINE
  5
32C
100
AcDbEntity
  8
C_COPERCHIO
100
AcDbPolyline
 62
7
  6
CONTINUOUS
 90
3
 70
0
 10
7.929377817
 20
12.1386881317
 10
7.9511272114
 20
12.1605279949
 10
7.972861487
 20
12.1820504296
  0
LWPOLYLINE
  5
32D
100
AcDbEntity
  8
0
100
AcDbPolyline
 62
7
  6
CONTINUOUS
 90
2
 70
0
 43
0.3500000087
 10
18.6456014282
 20
1.0690539322
 10
17.1455999634
 20
1.0690539322
  0
LINE
  5
32E
100
AcDbEntity
  8
C_CONTATTI
100
AcDbLine
 62
250
  6
CONTINUOUS
 10
0.7264595128
 20
-6.2238030825
 11
0.7264595128
 21
-0.8722253478
  0
LWPOLYLINE
  5
32F
100
AcDbEntity
  8
C_COPERCHIO
100
AcDbPolyline
 62
7
  6
CONTINUOUS
 90
3
 70
0
 10
5.1945319411
 20
4.5989324591
 10
5.2598571546
 20
4.6644861412
 10
5.3243354956
 20
4.7288574024
  0
LWPOLYLINE
  5
330
100
AcDbEntity
  8
C_COPERCHIO
100
AcDbPolyline
 62
7
  6
CONTINUOUS
 90
3
 70
0
 10
5.3449508305
 20
4.7492824062
 10
5.3834843862
 20
4.7878131435
 10
5.4014026068
 20
4.8054618638
  0
LWPOLYLINE
  5
331
100
AcDbEntity
  8
C_COPERCHIO
100
AcDbPolyline
 62
7
  6
CONTINUOUS
 90
7
 70
0
 10
5.4014026068
 20
4.8054618638
 10
5.4326898439
 20
4.8367568452
 10
5.4460588602
 20
4.8497543766
 10
5.4568614384
 20
4.8606372559
 10
5.4647612262
 20
4.8689905039
 10
5.4700945757
 20
4.8743239661
 10
5.472861487
 20
4.8761969175
  0
LINE
  5
332
100
AcDbEntity
  8
C_COPERCHIO
100
AcDbLine
 62
7
  6
CONTINUOUS
 10
5.3243354956
 20
4.7288574024
 11
5.3449508305
 21
4.7492824062
  0
LINE
  5
333
100
AcDbEntity
  8
C_COPERCHIO
100
AcDbLine
 62
7
  6
CONTINUOUS
 10
5.172861487
 20
4.5774876919
 11
5.1945319411
 21
4.5989324591
  0
LINE
  5
334
100
AcDbEntity
  8
C_COPERCHIO
100
AcDbLine
 62
250
  6
CONTINUOUS
 10
-4.727138513
 20
3.7269773857
 11
-7.527138513
 21
3.7269773857
  0
LINE
  5
335
100
AcDbEntity
  8
C_COPERCHIO
100
AcDbLine
 62
7
  6
CONTINUOUS
 10
-5.027138513
 20
4.0261969175
 11
-7.227138513
 21
4.0261969175
  0
LINE
  5
336
100
AcDbEntity
  8
C_COPERCHIO
100
AcDbLine
 62
7
  6
CONTINUOUS
 10
-7.4180075025
 20
12.9230606426
 11
-7.5054042374
 21
13.0110377328
  0
LINE
  5
337
100
AcDbEntity
  8
C_COPERCHIO
100
AcDbLine
 62
7
  6
CONTINUOUS
 10
-7.2984179184
 20
12.8017613642
 11
-7.4180075025
 21
12.9230606426
  0
LINE
  5
338
100
AcDbEntity
  8
C_COPERCHIO
100
AcDbLine
 62
7
  6
CONTINUOUS
 10
-7.2671529983
 20
12.7693676021
 11
-7.2984179184
 21
12.8017613642
  0
LWPOLYLINE
  5
339
100
AcDbEntity
  8
C_COPERCHIO
100
AcDbPolyline
 62
7
  6
CONTINUOUS
 90
4
 70
0
 10
-7.2298533794
 20
12.7288917343
 10
-7.2430115245
 20
12.7441473757
 10
-7.2537941927
 20
12.7557442874
 10
-7.2671529983
 20
12.7693676021
  0
LINE
  5
33A
100
AcDbEntity
  8
C_CONTATTI
100
AcDbLine
 62
7
  6
CONTINUOUS
 10
2.3278867402
 20
-6.2238030825
 11
2.3278867402
 21
-1.8353912746
  0
LINE
  5
33B
100
AcDbEntity
  8
C_CONTATTI
100
AcDbLine
 62
7
  6
CONTINUOUS
 10
2.822861487
 20
-6.2238030825
 11
2.822861487
 21
-2.7987647118
  0
LINE
  5
33C
100
AcDbEntity
  8
C_COPERCHIO
100
AcDbLine
 62
7
  6
CONTINUOUS
 10
2.922861487
 20
-3.5238030825
 11
2.922861487
 21
-6.2238030825
  0
LINE
  5
33D
100
AcDbEntity
  8
C_COPERCHIO
100
AcDbLine
 62
250
  6
CONTINUOUS
 10
3.222861487
 20
-3.5273752258
 11
3.222861487
 21
-6.5291763065
  0
LINE
  5
33E
100
AcDbEntity
  8
C_COPERCHIO
100
AcDbLine
 62
7
  6
CONTINUOUS
 10
-4.177138513
 20
-19.9738030825
 11
-4.1682586641
 21
-19.947141872
  0
LINE
  5
33F
100
AcDbEntity
  8
C_COPERCHIO
100
AcDbLine
 62
250
  6
CONTINUOUS
 10
10.826296117
 20
24.7376522549
 11
10.7221374492
 21
24.4249221394
  0
LINE
  5
340
100
AcDbEntity
  8
C_COPERCHIO
100
AcDbLine
 62
7
  6
CONTINUOUS
 10
10.872861487
 20
24.8259049745
 11
10.8433725508
 21
24.7373662227
  0
LINE
  5
341
100
AcDbEntity
  8
C_COPERCHIO
100
AcDbLine
 62
250
  6
CONTINUOUS
 10
11.3554065149
 20
24.3259683441
 11
11.2220612968
 21
23.9256073721
  0
LINE
  5
342
100
AcDbEntity
  8
C_COPERCHIO
100
AcDbLine
 62
250
  6
CONTINUOUS
 10
7.972861487
 20
4.5774876919
 11
5.172861487
 21
4.5774876919
  0
LINE
  5
343
100
AcDbEntity
  8
C_COPERCHIO
100
AcDbLine
 62
7
  6
CONTINUOUS
 10
7.672861487
 20
4.8761969175
 11
5.472861487
 21
4.8761969175
  0
LINE
  5
344
100
AcDbEntity
  8
C_CONTATTI
100
AcDbLine
 62
7
  6
CONTINUOUS
 10
-5.027138513
 20
4.8761969175
 11
-7.227138513
 21
4.8761969175
  0
LINE
  5
345
100
AcDbEntity
  8
C_COPERCHIO
100
AcDbLine
 62
7
  6
CONTINUOUS
 10
-7.227138513
 20
12.7262625252
 11
-7.2298533794
 21
12.7288917343
  0
LINE
  5
346
100
AcDbEntity
  8
C_COPERCHIO
100
AcDbLine
 62
7
  6
CONTINUOUS
 10
-7.5054042374
 20
13.0110377328
 11
-7.527138513
 21
13.0325607357
  0
LINE
  5
347
100
AcDbEntity
  8
C_COPERCHIO
100
AcDbLine
 62
7
  6
CONTINUOUS
 10
-4.177138513
 20
24.8261969175
 11
-4.1682586641
 21
24.7995357069
  0
LINE
  5
348
100
AcDbEntity
  8
C_COPERCHIO
100
AcDbLine
 62
250
  6
CONTINUOUS
 10
10.7221374492
 20
-19.5725283045
 11
10.826296117
 21
-19.88525842
  0
LINE
  5
349
100
AcDbEntity
  8
C_COPERCHIO
100
AcDbLine
 62
7
  6
CONTINUOUS
 10
10.8433725508
 20
-19.8849723878
 11
10.872861487
 21
-19.9735111396
  0
LINE
  5
34A
100
AcDbEntity
  8
C_COPERCHIO
100
AcDbLine
 62
250
  6
CONTINUOUS
 10
11.2220612968
 20
-19.0732135372
 11
11.3554065149
 21
-19.4735745092
  0
LINE
  5
34B
100
AcDbEntity
  8
C_COPERCHIO
100
AcDbLine
 62
250
  6
CONTINUOUS
 10
4.1140577905
 20
-19.9213953033
 11
4.1140577905
 21
-21.359778104
  0
LINE
  5
34C
100
AcDbEntity
  8
C_COPERCHIO
100
AcDbLine
 62
250
  6
CONTINUOUS
 10
4.1140577905
 20
24.7737891382
 11
4.1140577905
 21
26.2121719389
  0
LINE
  5
34D
100
AcDbEntity
  8
C_COPERCHIO
100
AcDbLine
 62
250
  6
CONTINUOUS
 10
4.6139816381
 20
-19.947141872
 11
4.6139816381
 21
-21.1649536946
  0
LINE
  5
34E
100
AcDbEntity
  8
C_COPERCHIO
100
AcDbLine
 62
250
  6
CONTINUOUS
 10
4.6139816381
 20
24.7995357069
 11
4.6139816381
 21
26.0173475295
  0
LINE
  5
34F
100
AcDbEntity
  8
C_COPERCHIO
100
AcDbLine
 62
7
  6
CONTINUOUS
 10
4.622861487
 20
26.0262273784
 11
4.622861487
 21
24.8261969175
  0
LINE
  5
350
100
AcDbEntity
  8
C_COPERCHIO
100
AcDbLine
 62
7
  6
CONTINUOUS
 10
4.622861487
 20
-21.1738335435
 11
4.622861487
 21
-19.9738030825
  0
LINE
  5
351
100
AcDbEntity
  8
C_COPERCHIO
100
AcDbLine
 62
250
  6
CONTINUOUS
 10
5.172861487
 20
4.5774876919
 11
5.172861487
 21
12.1820504296
  0
LINE
  5
352
100
AcDbEntity
  8
C_COPERCHIO
100
AcDbLine
 62
7
  6
CONTINUOUS
 10
5.472861487
 20
4.8761969175
 11
5.472861487
 21
11.876252266
  0
LINE
  5
353
100
AcDbEntity
  8
C_CONTATTI
100
AcDbLine
 62
7
  6
CONTINUOUS
 10
5.6293139676
 20
4.8761969175
 11
5.6293139676
 21
11.8761969175
  0
LINE
  5
354
100
AcDbEntity
  8
C_CONTATTI
100
AcDbLine
 62
7
  6
CONTINUOUS
 10
5.8164090065
 20
11.8761969175
 11
5.8164090065
 21
4.8761969175
  0
LWPOLYLINE
  5
355
100
AcDbEntity
  8
C_COPERCHIO
100
AcDbPolyline
 62
7
  6
CONTINUOUS
 90
7
 70
0
 10
-2.5477286925
 20
-6.2980153648
 10
-2.5165504548
 20
-6.2658975952
 10
-2.5032316154
 20
-6.2524400759
 10
-2.4925257382
 20
-6.2409062619
 10
-2.4847837009
 20
-6.2318222951
 10
-2.4796546259
 20
-6.2259118165
 10
-2.477138513
 20
-6.2238030825
  0
LWPOLYLINE
  5
356
100
AcDbEntity
  8
C_COPERCHIO
100
AcDbPolyline
 62
7
  6
CONTINUOUS
 90
3
 70
0
 10
-2.6040340405
 20
-6.3551772272
 10
-2.5655880908
 20
-6.3160238343
 10
-2.5477286925
 20
-6.2980153648
  0
LINE
  5
357
100
AcDbEntity
  8
C_COPERCHIO
100
AcDbLine
 62
7
  6
CONTINUOUS
 10
-2.6672233537
 20
-6.4189463499
 11
-2.6040340405
 21
-6.3551772272
  0
LINE
  5
358
100
AcDbEntity
  8
C_COPERCHIO
100
AcDbLine
 62
7
  6
CONTINUOUS
 10
-2.6892395641
 20
-6.4409948287
 11
-2.6672233537
 21
-6.4189463499
  0
LWPOLYLINE
  5
359
100
AcDbEntity
  8
C_COPERCHIO
100
AcDbPolyline
 62
7
  6
CONTINUOUS
 90
3
 70
0
 10
-2.777138513
 20
-6.5291763065
 10
-2.7551587494
 20
-6.5074111188
 10
-2.6892395641
 20
-6.4409948287
  0
LWPOLYLINE
  5
35A
100
AcDbEntity
  8
C_COPERCHIO
100
AcDbPolyline
 62
250
  6
CONTINUOUS
 90
13
 70
0
 10
8.5122115413
 20
-21.7844911044
 10
8.5143591079
 20
-21.8171113938
 10
8.5207452049
 20
-21.849173757
 10
8.5312606069
 20
-21.8801298107
 10
8.5457254619
 20
-21.9094500932
 10
8.5638923682
 20
-21.9366331207
 10
8.5854506054
 20
-21.9612139641
 10
8.6100314489
 20
-21.9827722013
 10
8.6372144764
 20
-22.0009391077
 10
8.6665347589
 20
-22.0154039627
 10
8.6974908126
 20
-22.0259193647
 10
8.7295531758
 20
-22.0323054617
 10
8.7621734651
 20
-22.0344530282
  0
LWPOLYLINE
  5
35B
100
AcDbEntity
  8
C_COPERCHIO
100
AcDbPolyline
 62
7
  6
CONTINUOUS
 90
13
 70
0
 10
8.472861487
 20
-21.8238411588
 10
8.4749993173
 20
-21.8564688173
 10
8.4813770377
 20
-21.8885377902
 10
8.4918857642
 20
-21.9194996919
 10
8.5063460656
 20
-21.948825263
 10
8.5245107996
 20
-21.9760125203
 10
8.5460690217
 20
-22.0005955478
 10
8.5706520492
 20
-22.02215377
 10
8.5978393066
 20
-22.040318504
 10
8.6271648777
 20
-22.0547788053
 10
8.6581267794
 20
-22.0652875319
 10
8.6901957523
 20
-22.0716652523
 10
8.7228234108
 20
-22.0738030825
  0
LINE
  5
35C
100
AcDbEntity
  8
C_CONTATTI
100
AcDbLine
 62
250
  6
CONTINUOUS
 10
6.2264595128
 20
4.8761969175
 11
6.2264595128
 21
11.8761969175
  0
LWPOLYLINE
  5
35D
100
AcDbEntity
  8
C_COPERCHIO
100
AcDbPolyline
 62
7
  6
CONTINUOUS
 90
13
 70
0
 10
8.472861487
 20
26.6762349937
 10
8.4749993173
 20
26.7088626522
 10
8.4813770377
 20
26.7409316251
 10
8.4918857642
 20
26.7718935268
 10
8.5063460656
 20
26.8012190979
 10
8.5245107996
 20
26.8284063553
 10
8.5460690217
 20
26.8529893827
 10
8.5706520492
 20
26.8745476049
 10
8.5978393066
 20
26.8927123389
 10
8.6271648777
 20
26.9071726402
 10
8.6581267794
 20
26.9176813668
 10
8.6901957523
 20
26.9240590872
 10
8.7228234108
 20
26.9261969175
  0
LWPOLYLINE
  5
35E
100
AcDbEntity
  8
C_COPERCHIO
100
AcDbPolyline
 62
250
  6
CONTINUOUS
 90
13
 70
0
 10
8.5122115413
 20
26.6368849394
 10
8.5143591079
 20
26.6695052287
 10
8.5207452049
 20
26.7015675919
 10
8.5312606069
 20
26.7325236456
 10
8.5457254619
 20
26.7618439281
 10
8.5638923682
 20
26.7890269556
 10
8.5854506054
 20
26.8136077991
 10
8.6100314489
 20
26.8351660362
 10
8.6372144764
 20
26.8533329426
 10
8.6665347589
 20
26.8677977976
 10
8.6974908126
 20
26.8783131996
 10
8.7295531758
 20
26.8846992966
 10
8.7621734651
 20
26.8868468631
  0
LWPOLYLINE
  5
35F
100
AcDbEntity
  8
C_COPERCHIO
100
AcDbPolyline
 62
250
  6
CONTINUOUS
 90
9
 70
0
 10
11.2220612968
 20
23.9256073721
 10
11.2208337283
 20
23.9194008947
 10
11.2196268511
 20
23.9084158327
 10
11.2184406653
 20
23.8926521859
 10
11.2172690029
 20
23.8719856991
 10
11.2161180317
 20
23.8465406276
 10
11.2150062557
 20
23.8166897374
 10
11.2139346321
 20
23.7823621432
 10
11.2119246025
 20
23.7010749216
  0
LWPOLYLINE
  5
360
100
AcDbEntity
  8
C_COPERCHIO
100
AcDbPolyline
 62
7
  6
CONTINUOUS
 90
6
 70
0
 10
7.7131373611
 20
4.8366496437
 10
7.6997589364
 20
4.8496524648
 10
7.6889404518
 20
4.8605593951
 10
7.6810208567
 20
4.8689472246
 10
7.6756612017
 20
4.8743109115
 10
7.672861487
 20
4.8761969175
  0
LWPOLYLINE
  5
361
100
AcDbEntity
  8
C_COPERCHIO
100
AcDbPolyline
 62
7
  6
CONTINUOUS
 90
3
 70
0
 10
7.7622730587
 20
4.7877764857
 10
7.7443944223
 20
4.8053857429
 10
7.7131373611
 20
4.8366496437
  0
LINE
  5
362
100
AcDbEntity
  8
C_COPERCHIO
100
AcDbLine
 62
7
  6
CONTINUOUS
 10
7.972861487
 20
4.5774876919
 11
7.9511046771
 21
4.599019265
  0
LINE
  5
363
100
AcDbEntity
  8
C_COPERCHIO
100
AcDbLine
 62
7
  6
CONTINUOUS
 10
7.9075854135
 20
4.6427513392
 11
7.8422924086
 21
4.707962104
  0
LINE
  5
364
100
AcDbEntity
  8
C_COPERCHIO
100
AcDbLine
 62
7
  6
CONTINUOUS
 10
7.8422924086
 20
4.707962104
 11
7.7622730587
 21
4.7877764857
  0
LINE
  5
365
100
AcDbEntity
  8
C_COPERCHIO
100
AcDbLine
 62
7
  6
CONTINUOUS
 10
7.9511046771
 20
4.599019265
 11
7.9075854135
 21
4.6427513392
  0
LWPOLYLINE
  5
366
100
AcDbEntity
  8
C_COPERCHIO
100
AcDbPolyline
 62
7
  6
CONTINUOUS
 90
7
 70
0
 10
10.8433725508
 20
-19.8849723878
 10
10.8438217618
 20
-19.8881185152
 10
10.8442480525
 20
-19.8941553464
 10
10.8446514228
 20
-19.9030828817
 10
10.8450377128
 20
-19.9151410145
 10
10.8454010824
 20
-19.9300898514
 10
10.8457240114
 20
-19.947209711
  0
LINE
  5
367
100
AcDbEntity
  8
C_COPERCHIO
100
AcDbLine
 62
7
  6
CONTINUOUS
 10
8.4990440844
 20
-20.6964528134
 11
8.5122115413
 21
-21.1319845531
  0
LINE
  5
368
100
AcDbEntity
  8
C_COPERCHIO
100
AcDbLine
 62
7
  6
CONTINUOUS
 10
7.672861487
 20
11.876252266
 11
7.672861487
 21
4.8761969175
  0
LINE
  5
369
100
AcDbEntity
  8
C_COPERCHIO
100
AcDbLine
 62
250
  6
CONTINUOUS
 10
7.972861487
 20
12.1820504296
 11
7.972861487
 21
4.5774876919
  0
LINE
  5
36A
100
AcDbEntity
  8
C_COPERCHIO
100
AcDbLine
 62
7
  6
CONTINUOUS
 10
8.472861487
 20
-21.8238411588
 11
8.472861487
 21
-19.9738030825
  0
LINE
  5
36B
100
AcDbEntity
  8
C_COPERCHIO
100
AcDbLine
 62
7
  6
CONTINUOUS
 10
8.472861487
 20
24.8261969175
 11
8.472861487
 21
26.6762349937
  0
LINE
  5
36C
100
AcDbEntity
  8
C_COPERCHIO
100
AcDbLine
 62
7
  6
CONTINUOUS
 10
8.4990440844
 20
25.5488466483
 11
8.4990440844
 21
24.9373781619
  0
LINE
  5
36D
100
AcDbEntity
  8
C_COPERCHIO
100
AcDbLine
 62
7
  6
CONTINUOUS
 10
8.4990440844
 20
-20.084984327
 11
8.4990440844
 21
-20.6964528134
  0
LINE
  5
36E
100
AcDbEntity
  8
C_COPERCHIO
100
AcDbLine
 62
250
  6
CONTINUOUS
 10
8.5122115413
 20
-21.7844911044
 11
8.5122115413
 21
-21.1319845531
  0
LINE
  5
36F
100
AcDbEntity
  8
C_COPERCHIO
100
AcDbLine
 62
250
  6
CONTINUOUS
 10
8.5122115413
 20
25.984378388
 11
8.5122115413
 21
26.6368849394
  0
LINE
  5
370
100
AcDbEntity
  8
C_COPERCHIO
100
AcDbLine
 62
250
  6
CONTINUOUS
 10
8.7621734651
 20
-22.0344530282
 11
8.7621734651
 21
-21.4181406498
  0
LINE
  5
371
100
AcDbEntity
  8
C_COPERCHIO
100
AcDbLine
 62
250
  6
CONTINUOUS
 10
8.7621734651
 20
26.2705344848
 11
8.7621734651
 21
26.8868468631
  0
LINE
  5
372
100
AcDbEntity
  8
C_COPERCHIO
100
AcDbLine
 62
7
  6
CONTINUOUS
 10
8.5122115413
 20
25.984378388
 11
8.4990440844
 21
25.5488466483
  0
LWPOLYLINE
  5
373
100
AcDbEntity
  8
C_COPERCHIO
100
AcDbPolyline
 62
250
  6
CONTINUOUS
 90
9
 70
0
 10
10.7221374492
 20
24.4249221394
 10
10.7209043879
 20
24.4156964863
 10
10.7196938367
 20
24.3991047913
 10
10.7185057954
 20
24.3752305751
 10
10.7173347102
 20
24.3441949483
 10
10.7161861349
 20
24.3061518714
 10
10.7150767315
 20
24.2612841901
 10
10.714006888
 20
24.2098056136
 10
10.7120002141
 20
24.0880915129
  0
LWPOLYLINE
  5
374
100
AcDbEntity
  8
C_COPERCHIO
100
AcDbPolyline
 62
250
  6
CONTINUOUS
 90
8
 70
0
 10
11.2139377449
 20
-18.9300756958
 10
11.2150089791
 20
-18.9643724425
 10
11.2161204583
 20
-18.9942021814
 10
11.2172711332
 20
-19.0196312238
 10
11.2184424135
 20
-19.0402843978
 10
11.2196281025
 20
-19.056036646
 10
11.2208343969
 20
-19.0670130258
 10
11.2220612968
 20
-19.0732135372
  0
LWPOLYLINE
  5
375
100
AcDbEntity
  8
C_COPERCHIO
100
AcDbPolyline
 62
250
  6
CONTINUOUS
 90
7
 70
0
 10
10.7150768652
 20
-19.4088917245
 10
10.7161862829
 20
-19.4537600086
 10
10.7173349009
 20
-19.4918040561
 10
10.7185059986
 20
-19.5228395699
 10
10.7196940024
 20
-19.546712746
 10
10.720904486
 20
-19.5633033497
 10
10.7221374492
 20
-19.5725283045
  0
LINE
  5
376
100
AcDbEntity
  8
C_COPERCHIO
100
AcDbLine
 62
250
  6
CONTINUOUS
 10
11.2119283057
 20
-18.8488542193
 11
11.2139377449
 21
-18.9300756958
  0
LINE
  5
377
100
AcDbEntity
  8
C_COPERCHIO
100
AcDbLine
 62
250
  6
CONTINUOUS
 10
10.7129764843
 20
-19.2995862474
 11
10.7150768652
 21
-19.4088917245
  0
LINE
  5
378
100
AcDbEntity
  8
C_COPERCHIO
100
AcDbLine
 62
250
  6
CONTINUOUS
 10
11.2101392693
 20
-18.7522228996
 11
11.2119283057
 21
-18.8488542193
  0
LINE
  5
379
100
AcDbEntity
  8
C_COPERCHIO
100
AcDbLine
 62
250
  6
CONTINUOUS
 10
10.711080221
 20
-19.1661036845
 11
10.7129764843
 21
-19.2995862474
  0
LINE
  5
37A
100
AcDbEntity
  8
C_COPERCHIO
100
AcDbLine
 62
250
  6
CONTINUOUS
 10
11.208607658
 20
-18.6424155674
 11
11.2101392693
 21
-18.7522228996
  0
LINE
  5
37B
100
AcDbEntity
  8
C_COPERCHIO
100
AcDbLine
 62
7
  6
CONTINUOUS
 10
10.8457240114
 20
-19.947209711
 11
10.8462441566
 21
-19.9881785487
  0
LINE
  5
37C
100
AcDbEntity
  8
C_COPERCHIO
100
AcDbLine
 62
250
  6
CONTINUOUS
 10
10.7094159651
 20
-19.0110927505
 11
10.711080221
 21
-19.1661036845
  0
LINE
  5
37D
100
AcDbEntity
  8
C_COPERCHIO
100
AcDbLine
 62
250
  6
CONTINUOUS
 10
11.2073561727
 20
-18.5210638065
 11
11.208607658
 21
-18.6424155674
  0
LINE
  5
37E
100
AcDbEntity
  8
C_COPERCHIO
100
AcDbLine
 62
250
  6
CONTINUOUS
 10
10.7080217212
 20
-18.8374996129
 11
10.7094159651
 21
-19.0110927505
  0
LINE
  5
37F
100
AcDbEntity
  8
C_COPERCHIO
100
AcDbLine
 62
250
  6
CONTINUOUS
 10
11.2064165386
 20
-18.3908241848
 11
11.2073561727
 21
-18.5210638065
  0
LINE
  5
380
100
AcDbEntity
  8
C_COPERCHIO
100
AcDbLine
 62
7
  6
CONTINUOUS
 10
10.8462441566
 20
-19.9881785487
 11
10.8465660939
 21
-20.0343522916
  0
LINE
  5
381
100
AcDbEntity
  8
C_COPERCHIO
100
AcDbLine
 62
250
  6
CONTINUOUS
 10
10.7069269906
 20
-18.6488467205
 11
10.7080217212
 21
-18.8374996129
  0
LINE
  5
382
100
AcDbEntity
  8
C_COPERCHIO
100
AcDbLine
 62
250
  6
CONTINUOUS
 10
11.2058072263
 20
-18.2553512267
 11
11.2064165386
 21
-18.3908241848
  0
LINE
  5
383
100
AcDbEntity
  8
C_COPERCHIO
100
AcDbLine
 62
250
  6
CONTINUOUS
 10
10.7061480032
 20
-18.448876394
 11
10.7069269906
 21
-18.6488467205
  0
LINE
  5
384
100
AcDbEntity
  8
C_COPERCHIO
100
AcDbLine
 62
250
  6
CONTINUOUS
 10
10.705706467
 20
-18.2414769111
 11
10.7061480032
 21
-18.448876394
  0
LINE
  5
385
100
AcDbEntity
  8
C_COPERCHIO
100
AcDbLine
 62
250
  6
CONTINUOUS
 10
11.2055345261
 20
-18.1157089391
 11
11.2058072263
 21
-18.2553512267
  0
LINE
  5
386
100
AcDbEntity
  8
C_COPERCHIO
100
AcDbLine
 62
250
  6
CONTINUOUS
 10
10.5835495089
 20
-21.4181406498
 11
10.5835495089
 21
-22.0344530282
  0
LINE
  5
387
100
AcDbEntity
  8
C_COPERCHIO
100
AcDbLine
 62
250
  6
CONTINUOUS
 10
10.5835495089
 20
26.2705344848
 11
10.5835495089
 21
26.8868468631
  0
LINE
  5
388
100
AcDbEntity
  8
C_COPERCHIO
100
AcDbLine
 62
250
  6
CONTINUOUS
 10
10.826296117
 20
24.9373781619
 11
10.826296117
 21
24.7376522549
  0
LINE
  5
389
100
AcDbEntity
  8
C_COPERCHIO
100
AcDbLine
 62
250
  6
CONTINUOUS
 10
10.826296117
 20
-20.084984327
 11
10.826296117
 21
-19.88525842
  0
LINE
  5
38A
100
AcDbEntity
  8
C_COPERCHIO
100
AcDbLine
 62
250
  6
CONTINUOUS
 10
10.8335114327
 20
26.6368849394
 11
10.8335114327
 21
25.984378388
  0
LINE
  5
38B
100
AcDbEntity
  8
C_COPERCHIO
100
AcDbLine
 62
250
  6
CONTINUOUS
 10
10.8335114327
 20
-21.1319845531
 11
10.8335114327
 21
-21.7844911044
  0
LINE
  5
38C
100
AcDbEntity
  8
C_COPERCHIO
100
AcDbLine
 62
7
  6
CONTINUOUS
 10
10.8465660939
 20
-20.0343522916
 11
10.8466788896
 21
-20.6964528134
  0
LINE
  5
38D
100
AcDbEntity
  8
C_COPERCHIO
100
AcDbLine
 62
7
  6
CONTINUOUS
 10
10.872861487
 20
-21.8238411588
 11
10.872861487
 21
-19.9735111396
  0
LINE
  5
38E
100
AcDbEntity
  8
C_COPERCHIO
100
AcDbLine
 62
7
  6
CONTINUOUS
 10
10.872861487
 20
24.8259049745
 11
10.872861487
 21
26.6762349937
  0
LWPOLYLINE
  5
38F
100
AcDbEntity
  8
C_COPERCHIO
100
AcDbPolyline
 62
250
  6
CONTINUOUS
 90
9
 70
0
 10
10.7026967468
 20
18.4210099289
 10
10.7005112981
 20
13.8520180679
 10
10.6990543322
 20
9.2820714698
 10
10.6983258494
 20
4.7115520702
 10
10.6983258495
 20
0.1408417618
 10
10.6990543324
 20
-4.4296776375
 10
10.7005112982
 20
-8.999624235
 10
10.702696747
 20
-13.5686160952
 10
10.705706467
 20
-18.2414769111
  0
LWPOLYLINE
  5
390
100
AcDbEntity
  8
C_COPERCHIO
100
AcDbPolyline
 62
250
  6
CONTINUOUS
 90
9
 70
0
 10
11.2026205969
 20
18.4043913034
 10
11.2004351498
 20
13.840102353
 10
11.1989781847
 20
9.2752359227
 10
11.1982497013
 20
4.7094075385
 10
11.1982496999
 20
0.1430016744
 10
11.1989781816
 20
-4.4228282476
 10
11.2004351467
 20
-8.9876977535
 10
11.2026205949
 20
-13.5519913173
 10
11.2055345261
 20
-18.1157089391
  0
LINE
  5
391
100
AcDbEntity
  8
C_COPERCHIO
100
AcDbLine
 62
250
  6
CONTINUOUS
 10
10.7058855553
 20
23.198235509
 11
10.7026967468
 21
18.4210099289
  0
LINE
  5
392
100
AcDbEntity
  8
C_COPERCHIO
100
AcDbLine
 62
250
  6
CONTINUOUS
 10
11.2058069855
 20
23.1076733903
 11
11.2026205969
 21
18.4043913034
  0
LINE
  5
393
100
AcDbEntity
  8
C_COPERCHIO
100
AcDbLine
 62
7
  6
CONTINUOUS
 10
10.8466788896
 20
25.5488466483
 11
10.8465660937
 21
24.8867461226
  0
LINE
  5
394
100
AcDbEntity
  8
C_COPERCHIO
100
AcDbLine
 62
250
  6
CONTINUOUS
 10
10.7064958528
 20
23.4024257597
 11
10.7058855553
 21
23.198235509
  0
LINE
  5
395
100
AcDbEntity
  8
C_COPERCHIO
100
AcDbLine
 62
250
  6
CONTINUOUS
 10
11.2064158771
 20
23.2430958037
 11
11.2058069855
 21
23.1076733903
  0
LINE
  5
396
100
AcDbEntity
  8
C_COPERCHIO
100
AcDbLine
 62
250
  6
CONTINUOUS
 10
10.7074352621
 20
23.5972127394
 11
10.7064958528
 21
23.4024257597
  0
LINE
  5
397
100
AcDbEntity
  8
C_COPERCHIO
100
AcDbLine
 62
250
  6
CONTINUOUS
 10
10.7086851512
 20
23.7787963735
 11
10.7074352621
 21
23.5972127394
  0
LINE
  5
398
100
AcDbEntity
  8
C_COPERCHIO
100
AcDbLine
 62
250
  6
CONTINUOUS
 10
11.2073548697
 20
23.373301033
 11
11.2064158771
 21
23.2430958037
  0
LINE
  5
399
100
AcDbEntity
  8
C_COPERCHIO
100
AcDbLine
 62
7
  6
CONTINUOUS
 10
10.8465660937
 20
24.8867461226
 11
10.8462441565
 21
24.8405723724
  0
LINE
  5
39A
100
AcDbEntity
  8
C_COPERCHIO
100
AcDbLine
 62
250
  6
CONTINUOUS
 10
10.7102142523
 20
23.9435004126
 11
10.7086851512
 21
23.7787963735
  0
LINE
  5
39B
100
AcDbEntity
  8
C_COPERCHIO
100
AcDbLine
 62
250
  6
CONTINUOUS
 10
11.2086051974
 20
23.4946073094
 11
11.2073548697
 21
23.373301033
  0
LINE
  5
39C
100
AcDbEntity
  8
C_COPERCHIO
100
AcDbLine
 62
250
  6
CONTINUOUS
 10
10.7120002141
 20
24.0880915129
 11
10.7102142523
 21
23.9435004126
  0
LWPOLYLINE
  5
39D
100
AcDbEntity
  8
C_COPERCHIO
100
AcDbPolyline
 62
7
  6
CONTINUOUS
 90
8
 70
0
 10
10.8462441565
 20
24.8405723724
 10
10.8457240115
 20
24.7996035246
 10
10.8454010825
 20
24.7824836583
 10
10.8450377129
 20
24.7675348149
 10
10.8446514229
 20
24.755476681
 10
10.8442480526
 20
24.7465491521
 10
10.8438217619
 20
24.7405123326
 10
10.8433725508
 20
24.7373662227
  0
LINE
  5
39E
100
AcDbEntity
  8
C_COPERCHIO
100
AcDbLine
 62
250
  6
CONTINUOUS
 10
11.2101359156
 20
23.604407033
 11
11.2086051974
 21
23.4946073094
  0
LINE
  5
39F
100
AcDbEntity
  8
C_COPERCHIO
100
AcDbLine
 62
250
  6
CONTINUOUS
 10
11.2119246025
 20
23.7010749216
 11
11.2101359156
 21
23.604407033
  0
LWPOLYLINE
  5
3A0
100
AcDbEntity
  8
C_COPERCHIO
100
AcDbPolyline
 62
7
  6
CONTINUOUS
 90
3
 70
0
 10
-8.1379338294
 20
-21.2396239882
 10
-8.1112963104
 20
-21.2128416234
 10
-8.0999441401
 20
-21.2016342989
  0
LINE
  5
3A1
100
AcDbEntity
  8
C_COPERCHIO
100
AcDbLine
 62
250
  6
CONTINUOUS
 10
-10.427138513
 20
-21.8238411588
 11
-10.3877884587
 21
-21.7844911044
  0
LINE
  5
3A2
100
AcDbEntity
  8
C_COPERCHIO
100
AcDbLine
 62
250
  6
CONTINUOUS
 10
-10.1771765892
 20
-22.0738030825
 11
-10.1378265349
 21
-22.0344530282
  0
LINE
  5
3A3
100
AcDbEntity
  8
C_COPERCHIO
100
AcDbLine
 62
7
  6
CONTINUOUS
 10
-8.2066696122
 20
-21.3083840824
 11
-8.1379338294
 21
-21.2396239882
  0
LINE
  5
3A4
100
AcDbEntity
  8
C_COPERCHIO
100
AcDbLine
 62
7
  6
CONTINUOUS
 10
-8.2267594173
 20
-21.3283898594
 11
-8.2066696122
 21
-21.3083840824
  0
LWPOLYLINE
  5
3A5
100
AcDbEntity
  8
C_COPERCHIO
100
AcDbPolyline
 62
7
  6
CONTINUOUS
 90
3
 70
0
 10
-8.3164504911
 20
-21.4181406498
 10
-8.2926152137
 20
-21.3945661452
 10
-8.2267594173
 20
-21.3283898594
  0
LINE
  5
3A6
100
AcDbEntity
  8
C_CONTATTI
100
AcDbLine
 62
250
  6
CONTINUOUS
 10
-5.3706860324
 20
11.8761969175
 11
-5.1835909935
 21
11.8761969175
  0
LINE
  5
3A7
100
AcDbEntity
  8
C_CONTATTI
100
AcDbLine
 62
7
  6
CONTINUOUS
 10
-5.027138513
 20
11.8761969175
 11
-5.1835567592
 21
11.8761969175
  0
LINE
  5
3A8
100
AcDbEntity
  8
C_COPERCHIO
100
AcDbLine
 62
7
  6
CONTINUOUS
 10
5.472861487
 20
11.8761969175
 11
7.672861487
 21
11.8761969175
  0
LINE
  5
3A9
100
AcDbEntity
  8
C_CONTATTI
100
AcDbLine
 62
7
  6
CONTINUOUS
 10
-5.3706868284
 20
11.8761969175
 11
-7.227138513
 21
11.8761969175
  0
LINE
  5
3AA
100
AcDbEntity
  8
C_COPERCHIO
100
AcDbLine
 62
250
  6
CONTINUOUS
 10
5.172861487
 20
12.1820504296
 11
7.972861487
 21
12.1820504296
  0
LINE
  5
3AB
100
AcDbEntity
  8
C_CONTATTI
100
AcDbLine
 62
7
  6
CONTINUOUS
 10
-7.227138513
 20
12.2761969175
 11
-6.7876579929
 21
12.2761969175
  0
LINE
  5
3AC
100
AcDbEntity
  8
C_CONTATTI
100
AcDbLine
 62
7
  6
CONTINUOUS
 10
-5.3939610788
 20
12.2761969175
 11
-5.1603159471
 21
12.2761969175
  0
LINE
  5
3AD
100
AcDbEntity
  8
C_COPERCHIO
100
AcDbLine
 62
7
  6
CONTINUOUS
 10
-7.227138513
 20
12.7261969175
 11
-5.027138513
 21
12.7261969175
  0
LINE
  5
3AE
100
AcDbEntity
  8
C_COPERCHIO
100
AcDbLine
 62
250
  6
CONTINUOUS
 10
-7.527138513
 20
13.0325607357
 11
-4.727138513
 21
13.0325607357
  0
LINE
  5
3AF
100
AcDbEntity
  8
C_COPERCHIO
100
AcDbLine
 62
7
  6
CONTINUOUS
 10
5.472861487
 20
11.8762522853
 11
5.4701466206
 21
11.8788239053
  0
LINE
  5
3B0
100
AcDbEntity
  8
C_COPERCHIO
100
AcDbLine
 62
7
  6
CONTINUOUS
 10
-8.0999441401
 20
26.0540281338
 11
-8.1112963255
 21
26.0652354669
  0
LINE
  5
3B1
100
AcDbEntity
  8
C_COPERCHIO
100
AcDbLine
 62
7
  6
CONTINUOUS
 10
-8.2926148378
 20
26.2469595941
 11
-8.3164504911
 21
26.2705344848
  0
LINE
  5
3B2
100
AcDbEntity
  8
C_COPERCHIO
100
AcDbLine
 62
7
  6
CONTINUOUS
 10
5.1945957626
 20
12.1605279949
 11
5.172861487
 21
12.1820504296
  0
LINE
  5
3B3
100
AcDbEntity
  8
C_COPERCHIO
100
AcDbLine
 62
250
  6
CONTINUOUS
 10
-10.3877884587
 20
26.6368849394
 11
-10.427138513
 21
26.6762349937
  0
LINE
  5
3B4
100
AcDbEntity
  8
C_COPERCHIO
100
AcDbLine
 62
250
  6
CONTINUOUS
 10
-10.1378265349
 20
26.8868468631
 11
-10.1771765892
 21
26.9261969175
  0
LINE
  5
3B5
100
AcDbEntity
  8
C_COPERCHIO
100
AcDbLine
 62
7
  6
CONTINUOUS
 10
-8.153275054
 20
26.1073889543
 11
-8.2267587825
 21
26.1807830695
  0
LINE
  5
3B6
100
AcDbEntity
  8
C_COPERCHIO
100
AcDbLine
 62
7
  6
CONTINUOUS
 10
-8.1112963255
 20
26.0652354669
 11
-8.153275054
 21
26.1073889543
  0
LINE
  5
3B7
100
AcDbEntity
  8
C_COPERCHIO
100
AcDbLine
 62
7
  6
CONTINUOUS
 10
-8.2267587825
 20
26.1807830695
 11
-8.2926148378
 21
26.2469595941
  0
LINE
  5
3B8
100
AcDbEntity
  8
C_COPERCHIO
100
AcDbLine
 62
7
  6
CONTINUOUS
 10
5.2819924975
 20
12.0725814909
 11
5.1945957626
 21
12.1605279949
  0
LINE
  5
3B9
100
AcDbEntity
  8
C_COPERCHIO
100
AcDbLine
 62
7
  6
CONTINUOUS
 10
5.383675967
 20
11.969510339
 11
5.2819924975
 21
12.0725814909
  0
LWPOLYLINE
  5
3BA
100
AcDbEntity
  8
C_COPERCHIO
100
AcDbPolyline
 62
7
  6
CONTINUOUS
 90
3
 70
0
 10
5.4328470017
 20
11.9191041859
 10
5.4015820816
 20
11.9514229976
 10
5.383675967
 20
11.969510339
  0
LWPOLYLINE
  5
3BB
100
AcDbEntity
  8
C_COPERCHIO
100
AcDbPolyline
 62
7
  6
CONTINUOUS
 90
4
 70
0
 10
5.4701466206
 20
11.8788239053
 10
5.4569884755
 20
11.8939738769
 10
5.4462058073
 20
11.9055237926
 10
5.4328470017
 20
11.9191041859
  0
LWPOLYLINE
  5
3BC
100
AcDbEntity
  8
C_COPERCHIO
100
AcDbPolyline
 62
250
  6
CONTINUOUS
 90
13
 70
0
 10
10.8335114327
 20
26.6368849394
 10
10.8313638662
 20
26.6695052287
 10
10.8249777691
 20
26.7015675919
 10
10.8144623672
 20
26.7325236456
 10
10.7999975121
 20
26.7618439281
 10
10.7818306058
 20
26.7890269556
 10
10.7602723686
 20
26.8136077991
 10
10.7356915252
 20
26.8351660362
 10
10.7085084977
 20
26.8533329426
 10
10.6791882151
 20
26.8677977976
 10
10.6482321615
 20
26.8783131996
 10
10.6161697982
 20
26.8846992966
 10
10.5835495089
 20
26.8868468631
  0
LWPOLYLINE
  5
3BD
100
AcDbEntity
  8
C_COPERCHIO
100
AcDbPolyline
 62
7
  6
CONTINUOUS
 90
13
 70
0
 10
10.872861487
 20
26.6762349937
 10
10.8707236568
 20
26.7088626522
 10
10.8643459363
 20
26.7409316251
 10
10.8538372098
 20
26.7718935268
 10
10.8393769085
 20
26.8012190979
 10
10.8212121745
 20
26.8284063553
 10
10.7996539523
 20
26.8529893827
 10
10.7750709248
 20
26.8745476049
 10
10.7478836675
 20
26.8927123389
 10
10.7185580964
 20
26.9071726402
 10
10.6875961946
 20
26.9176813668
 10
10.6555272218
 20
26.9240590872
 10
10.6228995632
 20
26.9261969175
  0
LWPOLYLINE
  5
3BE
100
AcDbEntity
  8
C_COPERCHIO
100
AcDbPolyline
 62
250
  6
CONTINUOUS
 90
16
 70
0
 10
11.2220612968
 20
23.9256073721
 10
11.2192782474
 20
23.9777687487
 10
11.2110549262
 20
24.029359469
 10
11.197481275
 20
24.0798149621
 10
11.1787057881
 20
24.1285830689
 10
11.1549338853
 20
24.1751300942
 10
11.1264256618
 20
24.2189466459
 10
11.0934930435
 20
24.2595532041
 10
11.0564963935
 20
24.296505351
 10
11.01584057
 20
24.3293986495
 10
10.9719704568
 20
24.3578731016
 10
10.9253661374
 20
24.3816170503
 10
10.8765376711
 20
24.400370593
 10
10.8260194337
 20
24.4139284694
 10
10.77436426
 20
24.4221422897
 10
10.7221374492
 20
24.4249221396
  0
LINE
  5
3BF
100
AcDbEntity
  8
C_COPERCHIO
100
AcDbLine
 62
7
  6
CONTINUOUS
 10
10.8335114327
 20
25.984378388
 11
10.8466788896
 21
25.5488466483
  0
LINE
  5
3C0
100
AcDbEntity
  8
C_CORPO
100
AcDbLine
 62
7
  6
CONTINUOUS
 10
11.372861487
 20
20.0978959662
 11
11.372861487
 21
-15.2455021313
  0
LINE
  5
3C1
100
AcDbEntity
  8
ASSI
100
AcDbLine
 62
7
  6
CONTINUOUS
 10
11.372861487
 20
20.0978959662
 11
11.372861487
 21
-15.2455021313
  0
LINE
  5
3C2
100
AcDbEntity
  8
C_COPERCHIO
100
AcDbLine
 62
7
  6
CONTINUOUS
 10
11.372861487
 20
24.3085133721
 11
11.372861487
 21
-19.4561195372
  0
LINE
  5
3C3
100
AcDbEntity
  8
C_COPERCHIO
100
AcDbLine
 62
7
  6
CONTINUOUS
 10
10.8466788896
 20
-20.6964528134
 11
10.8335114327
 21
-21.1319845531
  0
LWPOLYLINE
  5
3C4
100
AcDbEntity
  8
C_COPERCHIO
100
AcDbPolyline
 62
7
  6
CONTINUOUS
 90
9
 70
0
 10
11.3554065149
 20
-19.4735745092
 10
11.352924135
 20
-19.5232067731
 10
11.3455212511
 20
-19.5724083362
 10
11.3332529072
 20
-19.6206900647
 10
11.3162505729
 20
-19.6675028485
 10
11.2946515117
 20
-19.7124470953
 10
11.2685329179
 20
-19.7552464344
 10
11.2381185979
 20
-19.7953892018
 10
11.2088205233
 20
-19.8273434344
  0
LWPOLYLINE
  5
3C5
100
AcDbEntity
  8
C_COPERCHIO
100
AcDbPolyline
 62
250
  6
CONTINUOUS
 90
16
 70
0
 10
11.2220612968
 20
-19.0732135372
 10
11.2192781401
 20
-19.1253759261
 10
11.2110545328
 20
-19.1769674767
 10
11.1974804697
 20
-19.227423598
 10
11.1787044984
 20
-19.276192124
 10
11.1549320934
 20
-19.3227393574
 10
11.1264234077
 20
-19.3665559093
 10
11.0934904254
 20
-19.4071622739
 10
11.0564935482
 20
-19.4441140762
 10
11.0158376507
 20
-19.4770069349
 10
10.97196765
 20
-19.5054808874
 10
10.9253636367
 20
-19.5292243296
 10
10.8765356211
 20
-19.5479774254
 10
10.8260179517
 20
-19.5615349506
 10
10.7743634677
 20
-19.5697485388
 10
10.7221374492
 20
-19.5725283045
  0
LWPOLYLINE
  5
3C6
100
AcDbEntity
  8
C_COPERCHIO
100
AcDbPolyline
 62
7
  6
CONTINUOUS
 90
13
 70
0
 10
10.872861487
 20
-21.8238411588
 10
10.8707236568
 20
-21.8564688173
 10
10.8643459363
 20
-21.8885377902
 10
10.8538372098
 20
-21.9194996919
 10
10.8393769085
 20
-21.948825263
 10
10.8212121745
 20
-21.9760125203
 10
10.7996539523
 20
-22.0005955478
 10
10.7750709248
 20
-22.02215377
 10
10.7478836675
 20
-22.040318504
 10
10.7185580964
 20
-22.0547788053
 10
10.6875961946
 20
-22.0652875319
 10
10.6555272218
 20
-22.0716652523
 10
10.6228995632
 20
-22.0738030825
  0
LWPOLYLINE
  5
3C7
100
AcDbEntity
  8
C_COPERCHIO
100
AcDbPolyline
 62
250
  6
CONTINUOUS
 90
13
 70
0
 10
10.8335114327
 20
-21.7844911044
 10
10.8313638662
 20
-21.8171113938
 10
10.8249777691
 20
-21.849173757
 10
10.8144623672
 20
-21.8801298107
 10
10.7999975121
 20
-21.9094500932
 10
10.7818306058
 20
-21.9366331207
 10
10.7602723686
 20
-21.9612139641
 10
10.7356915252
 20
-21.9827722013
 10
10.7085084977
 20
-22.0009391077
 10
10.6791882151
 20
-22.0154039627
 10
10.6482321615
 20
-22.0259193647
 10
10.6161697982
 20
-22.0323054617
 10
10.5835495089
 20
-22.0344530282
  0
LINE
  5
3C8
100
AcDbEntity
  8
C_CONTATTI
100
AcDbLine
 62
250
  6
CONTINUOUS
 10
-6.7876579929
 20
12.6438307925
 11
-7.227138513
 21
12.526072342
  0
LINE
  5
3C9
100
AcDbEntity
  8
C_COPERCHIO
100
AcDbLine
 62
250
  6
CONTINUOUS
 10
-4.1682586641
 20
-21.1649536946
 11
-4.177138513
 21
-21.1738335435
  0
LINE
  5
3CA
100
AcDbEntity
  8
C_COPERCHIO
100
AcDbLine
 62
250
  6
CONTINUOUS
 10
-3.968289125
 20
-21.3649232336
 11
-3.9771689739
 21
-21.3738030825
  0
LWPOLYLINE
  5
3CB
100
AcDbEntity
  8
0
100
AcDbPolyline
 62
7
  6
CONTINUOUS
 90
10
 70
0
 43
0.3500000087
 10
18.6456014282
 20
2.8547693527
 10
17.7884574295
 20
3.7119112198
 10
16.9313144966
 20
3.9261977524
 10
16.0741715637
 20
3.9261977524
 10
15.6456006302
 20
3.4976246872
 10
15.6456006302
 20
2.8547693527
 10
16.0741715637
 20
2.4261962875
 10
16.9313144966
 20
2.4261962875
 10
17.359886496
 20
2.8547693527
 10
17.359886496
 20
3.7833407745
  0
LINE
  5
3CC
100
AcDbEntity
  8
C_COPERCHIO
100
AcDbLine
 62
250
  6
CONTINUOUS
 10
-4.177138513
 20
26.0262273784
 11
-4.1682586641
 21
26.0173475295
  0
LINE
  5
3CD
100
AcDbEntity
  8
C_COPERCHIO
100
AcDbLine
 62
250
  6
CONTINUOUS
 10
-3.9771689739
 20
26.2261969175
 11
-3.968289125
 21
26.2173170685
  0
LINE
  5
3CE
100
AcDbEntity
  8
C_COPERCHIO
100
AcDbLine
 62
7
  6
CONTINUOUS
 10
8.472861487
 20
-19.9738030825
 11
8.5023523919
 21
-19.88525842
  0
LWPOLYLINE
  5
3CF
100
AcDbEntity
  8
0
100
AcDbPolyline
 62
7
  6
CONTINUOUS
 90
10
 70
0
 43
0.3500000087
 10
1.2942900387
 20
36.2214991577
 10
1.3657186608
 20
36.0786400482
 10
1.3657186608
 20
36.0072126251
 10
1.2228615498
 20
35.8643535156
 10
1.1514329276
 20
35.8643535156
 10
1.0800043721
 20
35.935785202
 10
1.0800043721
 20
36.0072126251
 10
1.1514329276
 20
36.1500674713
 10
1.2228615498
 20
36.2214991577
 10
1.2942900387
 20
36.2214991577
  0
LINE
  5
3D0
100
AcDbEntity
  8
C_COPERCHIO
100
AcDbLine
 62
7
  6
CONTINUOUS
 10
8.5023523919
 20
24.7376522549
 11
8.472861487
 21
24.8261969175
  0
LWPOLYLINE
  5
3D1
100
AcDbEntity
  8
0
100
AcDbPolyline
 62
7
  6
CONTINUOUS
 90
3
 70
0
 43
0.3500000087
 10
18.0027439621
 20
1.5690544205
 10
18.0027439621
 20
0.0690550873
 10
15.6456006302
 20
0.7119104218
  0
LWPOLYLINE
  5
3D2
100
AcDbEntity
  8
C_COPERCHIO
100
AcDbPolyline
 62
250
  6
CONTINUOUS
 90
10
 70
0
 10
-3.968289125
 20
26.2173170685
 10
-3.9674365213
 20
26.2169276037
 10
-3.964399817
 20
26.216530126
 10
-3.9591790119
 20
26.2161246355
 10
-3.9518234335
 20
26.2157042577
 10
-3.9422837545
 20
26.215275867
 10
-3.9304119928
 20
26.2148600867
 10
-3.9159962548
 20
26.2144577856
 10
-3.8992484342
 20
26.2140680947
 10
-3.8600592466
 20
26.2133832633
  0
LINE
  5
3D3
100
AcDbEntity
  8
C_COPERCHIO
100
AcDbLine
 62
250
  6
CONTINUOUS
 10
-10.2598877045
 20
22.9886652423
 11
10.7056106786
 21
22.9886652423
  0
LINE
  5
3D4
100
AcDbEntity
  8
C_COPERCHIO
100
AcDbLine
 62
250
  6
CONTINUOUS
 10
8.472861487
 20
-21.8238411588
 11
8.5122115413
 21
-21.7844911044
  0
LINE
  5
3D5
100
AcDbEntity
  8
C_COPERCHIO
100
AcDbLine
 62
250
  6
CONTINUOUS
 10
8.7228234108
 20
-22.0738030825
 11
8.7621734651
 21
-22.0344530282
  0
LINE
  5
3D6
100
AcDbEntity
  8
C_COPERCHIO
100
AcDbLine
 62
250
  6
CONTINUOUS
 10
11.3554065149
 20
-19.4735745092
 11
11.372861487
 21
-19.4561195372
  0
LWPOLYLINE
  5
3D7
100
AcDbEntity
  8
C_COPERCHIO
100
AcDbPolyline
 62
7
  6
CONTINUOUS
 90
9
 70
0
 10
11.2088205233
 20
-19.8273434344
 10
11.2036261126
 20
-19.8324626711
 10
11.1650598149
 20
-19.8662570052
 10
11.122445334
 20
-19.8964263814
 10
11.0763426076
 20
-19.9222721562
 10
11.0276542452
 20
-19.9431488196
 10
10.977078585
 20
-19.9587429794
 10
10.9250152496
 20
-19.9689183825
 10
10.8720426355
 20
-19.9735211419
  0
LWPOLYLINE
  5
3D8
100
AcDbEntity
  8
C_COPERCHIO
100
AcDbPolyline
 62
250
  6
CONTINUOUS
 90
13
 70
0
 10
11.205534526
 20
-18.1157089391
 10
11.2002252042
 20
-18.1183636009
 10
11.1866397181
 20
-18.1209738357
 10
11.1650053878
 20
-18.1234959674
 10
11.1356842109
 20
-18.1258877944
 10
11.0991668059
 20
-18.1281092951
 10
11.0560642023
 20
-18.1301232983
 10
11.0070976172
 20
-18.1318961044
 10
10.9530863868
 20
-18.1333980499
 10
10.8949342573
 20
-18.1346040034
 10
10.8336142628
 20
-18.1354937865
 10
10.7701524436
 20
-18.1360525107
 10
10.7056106786
 20
-18.1362708271
  0
LWPOLYLINE
  5
3D9
100
AcDbEntity
  8
C_COPERCHIO
100
AcDbPolyline
 62
250
  6
CONTINUOUS
 90
6
 70
0
 10
4.5670854929
 20
26.0152218626
 10
4.5841328314
 20
26.0156560884
 10
4.5971166436
 20
26.016087615
 10
4.6062176495
 20
26.0165102857
 10
4.6117497985
 20
26.0169302571
 10
4.6139816381
 20
26.0173475295
  0
LINE
  5
3DA
100
AcDbEntity
  8
C_COPERCHIO
100
AcDbLine
 62
250
  6
CONTINUOUS
 10
4.5211430467
 20
26.0144011138
 11
4.5670854929
 21
26.0152218626
  0
LINE
  5
3DB
100
AcDbEntity
  8
C_COPERCHIO
100
AcDbLine
 62
250
  6
CONTINUOUS
 10
4.4253976823
 20
26.0133439563
 11
4.5211430467
 21
26.0144011138
  0
LWPOLYLINE
  5
3DC
100
AcDbEntity
  8
C_COPERCHIO
100
AcDbPolyline
 62
250
  6
CONTINUOUS
 90
6
 70
0
 10
-10.3833793645
 20
24.7376453313
 10
-10.386201664
 20
24.7376225075
 10
-10.3890399494
 20
24.7375835112
 10
-10.3918941252
 20
24.7375280688
 10
-10.3947640931
 20
24.737455906
 10
-10.3976497515
 20
24.7373667474
  0
LINE
  5
3DD
100
AcDbEntity
  8
C_COPERCHIO
100
AcDbLine
 62
250
  6
CONTINUOUS
 10
-10.3805731429
 20
24.9373781619
 11
-10.4009559156
 21
24.9372372546
  0
LINE
  5
3DE
100
AcDbEntity
  8
C_COPERCHIO
100
AcDbLine
 62
250
  6
CONTINUOUS
 10
4.3088976153
 20
26.0126178202
 11
4.4253976823
 21
26.0133439563
  0
LINE
  5
3DF
100
AcDbEntity
  8
C_COPERCHIO
100
AcDbLine
 62
250
  6
CONTINUOUS
 10
-10.2764144751
 20
24.4249221394
 11
10.7221374492
 21
24.4249221394
  0
LINE
  5
3E0
100
AcDbEntity
  8
C_COPERCHIO
100
AcDbLine
 62
250
  6
CONTINUOUS
 10
-8.0566294178
 20
24.7376522549
 11
-10.3833793645
 21
24.7376453313
  0
LINE
  5
3E1
100
AcDbEntity
  8
C_COPERCHIO
100
AcDbLine
 62
7
  6
CONTINUOUS
 10
4.1140577905
 20
24.7737891382
 11
-3.6683348165
 21
24.7737891382
  0
LINE
  5
3E2
100
AcDbEntity
  8
C_COPERCHIO
100
AcDbLine
 62
7
  6
CONTINUOUS
 10
8.472861487
 20
24.8261969175
 11
4.622861487
 21
24.8261969175
  0
LINE
  5
3E3
100
AcDbEntity
  8
C_COPERCHIO
100
AcDbLine
 62
7
  6
CONTINUOUS
 10
-4.177138513
 20
24.8261969175
 11
-8.027138513
 21
24.8261969175
  0
LINE
  5
3E4
100
AcDbEntity
  8
C_COPERCHIO
100
AcDbLine
 62
250
  6
CONTINUOUS
 10
10.826296117
 20
24.9373781619
 11
8.4990440844
 21
24.9373781619
  0
LINE
  5
3E5
100
AcDbEntity
  8
C_COPERCHIO
100
AcDbLine
 62
250
  6
CONTINUOUS
 10
-8.0533211104
 20
24.9373781619
 11
-10.3805731429
 21
24.9373781619
  0
LINE
  5
3E6
100
AcDbEntity
  8
C_COPERCHIO
100
AcDbLine
 62
7
  6
CONTINUOUS
 10
8.4990440844
 20
25.5488466483
 11
10.8466788896
 21
25.5488466483
  0
LINE
  5
3E7
100
AcDbEntity
  8
C_COPERCHIO
100
AcDbLine
 62
7
  6
CONTINUOUS
 10
-8.0533211104
 20
25.5488466483
 11
-10.4009559156
 21
25.5488466483
  0
LINE
  5
3E8
100
AcDbEntity
  8
C_COPERCHIO
100
AcDbLine
 62
250
  6
CONTINUOUS
 10
10.8466788896
 20
24.9372490425
 11
10.826296117
 21
24.9373781619
  0
LINE
  5
3E9
100
AcDbEntity
  8
C_COPERCHIO
100
AcDbLine
 62
250
  6
CONTINUOUS
 10
-3.9879691815
 20
26.0134144272
 11
-3.829507026
 21
26.0124844406
  0
LINE
  5
3EA
100
AcDbEntity
  8
C_COPERCHIO
100
AcDbLine
 62
250
  6
CONTINUOUS
 10
-4.0534960404
 20
26.01409937
 11
-3.9879691815
 21
26.0134144272
  0
LWPOLYLINE
  5
3EB
100
AcDbEntity
  8
C_COPERCHIO
100
AcDbPolyline
 62
250
  6
CONTINUOUS
 90
7
 70
0
 10
10.8433727392
 20
24.7373667884
 10
10.8404864227
 20
24.7374559469
 10
10.8376160589
 20
24.7375281009
 10
10.8347617494
 20
24.7375835303
 10
10.831923593
 20
24.7376225141
 10
10.8291016847
 20
24.73764533
 10
8.5023523919
 20
24.7376522549
  0
LWPOLYLINE
  5
3EC
100
AcDbEntity
  8
C_COPERCHIO
100
AcDbPolyline
 62
7
  6
CONTINUOUS
 90
9
 70
0
 10
10.8720435238
 20
24.8259149468
 10
10.9250157385
 20
24.8213121485
 10
10.9770787765
 20
24.8111367662
 10
11.0276542452
 20
24.7955426545
 10
11.0763425485
 20
24.7746660202
 10
11.1224453061
 20
24.7488202339
 10
11.1650598149
 20
24.7186508402
 10
11.2036261126
 20
24.684856506
 10
11.2088205233
 20
24.6797372693
  0
LWPOLYLINE
  5
3ED
100
AcDbEntity
  8
C_COPERCHIO
100
AcDbPolyline
 62
250
  6
CONTINUOUS
 90
8
 70
0
 10
-4.1682586641
 20
26.0173475295
 10
-4.166275226
 20
26.0169582243
 10
-4.1613363938
 20
26.0165608937
 10
-4.1530877122
 20
26.0161555376
 10
-4.1410993044
 20
26.0157352892
 10
-4.1250951466
 20
26.0153070153
 10
-4.1051826484
 20
26.0148913168
 10
-4.0534960404
 20
26.01409937
  0
LWPOLYLINE
  5
3EE
100
AcDbEntity
  8
C_COPERCHIO
100
AcDbPolyline
 62
250
  6
CONTINUOUS
 90
13
 70
0
 10
11.2055345261
 20
22.968102774
 10
11.2002264396
 20
22.9707574895
 10
11.1866419441
 20
22.9733677836
 10
11.1650083493
 20
22.9758899782
 10
11.1356876501
 20
22.9782818694
 10
11.09917047
 20
22.9805034337
 10
11.0560678513
 20
22.9825174977
 10
11.0071010303
 20
22.9842903599
 10
10.9530893692
 20
22.9857923551
 10
10.8949366455
 20
22.9869983506
 10
10.833615929
 20
22.9878881665
 10
10.7701532999
 20
22.9884469135
 10
10.7056106786
 20
22.988665242
  0
LINE
  5
3EF
100
AcDbEntity
  8
C_COPERCHIO
100
AcDbLine
 62
250
  6
CONTINUOUS
 10
8.5122115413
 20
26.6368849394
 11
8.472861487
 21
26.6762349937
  0
LINE
  5
3F0
100
AcDbEntity
  8
C_COPERCHIO
100
AcDbLine
 62
250
  6
CONTINUOUS
 10
8.7621734651
 20
26.8868468631
 11
8.7228234108
 21
26.9261969175
  0
LINE
  5
3F1
100
AcDbEntity
  8
C_COPERCHIO
100
AcDbLine
 62
250
  6
CONTINUOUS
 10
11.372861487
 20
24.3085133721
 11
11.3554065149
 21
24.3259683441
  0
LWPOLYLINE
  5
3F2
100
AcDbEntity
  8
C_COPERCHIO
100
AcDbPolyline
 62
7
  6
CONTINUOUS
 90
9
 70
0
 10
11.2088205233
 20
24.6797372693
 10
11.2381185979
 20
24.6477830367
 10
11.2685329179
 20
24.6076402693
 10
11.2946515117
 20
24.5648409302
 10
11.3162505729
 20
24.5198966834
 10
11.3332529072
 20
24.4730838996
 10
11.3455212511
 20
24.4248021712
 10
11.352924135
 20
24.375600608
 10
11.3554065149
 20
24.3259683441
  0
LWPOLYLINE
  5
3F3
100
AcDbEntity
  8
C_COPERCHIO
100
AcDbPolyline
 62
7
  6
CONTINUOUS
 90
3
 70
0
 10
10.6933308009
 20
-21.3083836771
 10
10.746724946
 20
-21.2549951194
 10
10.7887036745
 20
-21.212841632
  0
LINE
  5
3F4
100
AcDbEntity
  8
C_COPERCHIO
100
AcDbLine
 62
7
  6
CONTINUOUS
 10
10.6732412175
 20
-21.3283892346
 11
10.6933308009
 21
-21.3083836771
  0
LWPOLYLINE
  5
3F5
100
AcDbEntity
  8
C_COPERCHIO
100
AcDbPolyline
 62
7
  6
CONTINUOUS
 90
3
 70
0
 10
10.5835495089
 20
-21.4181406498
 10
10.6073851622
 20
-21.3945657592
 10
10.6732412175
 20
-21.3283892346
  0
LINE
  5
3F6
100
AcDbEntity
  8
C_COPERCHIO
100
AcDbLine
 62
7
  6
CONTINUOUS
 10
10.7887036745
 20
-21.212841632
 11
10.8000558599
 21
-21.2016342989
  0
LWPOLYLINE
  5
3F7
100
AcDbEntity
  8
C_COPERCHIO
100
AcDbPolyline
 62
250
  6
CONTINUOUS
 90
13
 70
0
 10
-3.968289125
 20
26.2173170685
 10
-3.9943853243
 20
26.2155990196
 10
-4.0200351907
 20
26.2104901528
 10
-4.0448000183
 20
26.2020778459
 10
-4.0682562381
 20
26.1905059772
 10
-4.090002662
 20
26.1759724654
 10
-4.1096673449
 20
26.1587258853
 10
-4.1269139475
 20
26.1390612143
 10
-4.141447488
 20
26.1173147893
 10
-4.153019387
 20
26.0938585541
 10
-4.1614317211
 20
26.0690936967
 10
-4.1665406075
 20
26.0434437859
 10
-4.1682586641
 20
26.0173475295
  0
LWPOLYLINE
  5
3F8
100
AcDbEntity
  8
C_COPERCHIO
100
AcDbPolyline
 62
7
  6
CONTINUOUS
 90
13
 70
0
 10
-3.9771689739
 20
26.2261969175
 10
-4.0032711008
 20
26.2244866533
 10
-4.0289262791
 20
26.2193844769
 10
-4.0536958005
 20
26.2109774957
 10
-4.0771562573
 20
26.1994092546
 10
-4.0989060632
 20
26.1848774674
 10
-4.1185724852
 20
26.1676308897
 10
-4.135819063
 20
26.1479644677
 10
-4.1503508501
 20
26.1262146618
 10
-4.1619190912
 20
26.102754205
 10
-4.1703260724
 20
26.0779846835
 10
-4.1754282488
 20
26.0523295053
 10
-4.177138513
 20
26.0262273784
  0
LWPOLYLINE
  5
3F9
100
AcDbEntity
  8
C_COPERCHIO
100
AcDbPolyline
 62
250
  6
CONTINUOUS
 90
8
 70
0
 10
4.3582711166
 20
26.2143714078
 10
4.3733136638
 20
26.2147736647
 10
4.385814357
 20
26.2151920313
 10
4.3959948316
 20
26.2156261315
 10
4.4039003198
 20
26.216057529
 10
4.4095458992
 20
26.2164800782
 10
4.4129164923
 20
26.2168999248
 10
4.4140120991
 20
26.2173170685
  0
LINE
  5
3FA
100
AcDbEntity
  8
C_COPERCHIO
100
AcDbLine
 62
250
  6
CONTINUOUS
 10
4.3218450397
 20
26.2136314021
 11
4.3582711166
 21
26.2143714078
  0
LINE
  5
3FB
100
AcDbEntity
  8
C_COPERCHIO
100
AcDbLine
 62
250
  6
CONTINUOUS
 10
4.278337929
 20
26.2130298848
 11
4.3218450397
 21
26.2136314021
  0
LINE
  5
3FC
100
AcDbEntity
  8
C_COPERCHIO
100
AcDbLine
 62
250
  6
CONTINUOUS
 10
4.2064707605
 20
26.2124296245
 11
4.278337929
 21
26.2130298848
  0
LINE
  5
3FD
100
AcDbEntity
  8
C_COPERCHIO
100
AcDbLine
 62
250
  6
CONTINUOUS
 10
4.1363211863
 20
26.212179999
 11
4.2064707605
 21
26.2124296245
  0
LINE
  5
3FE
100
AcDbEntity
  8
C_COPERCHIO
100
AcDbLine
 62
250
  6
CONTINUOUS
 10
4.1140577905
 20
26.0122023999
 11
4.3088976153
 21
26.0126178202
  0
LINE
  5
3FF
100
AcDbEntity
  8
C_COPERCHIO
100
AcDbLine
 62
250
  6
CONTINUOUS
 10
-10.3543328858
 20
26.0540281338
 11
-8.0999441401
 21
26.0540281338
  0
LINE
  5
400
100
AcDbEntity
  8
C_COPERCHIO
100
AcDbLine
 62
250
  6
CONTINUOUS
 10
10.8000558599
 20
26.0540281338
 11
8.5456671142
 21
26.0540281338
  0
LINE
  5
401
100
AcDbEntity
  8
C_COPERCHIO
100
AcDbLine
 62
7
  6
CONTINUOUS
 10
-3.9771689739
 20
26.2261969175
 11
4.422891948
 21
26.2261969175
  0
LINE
  5
402
100
AcDbEntity
  8
C_COPERCHIO
100
AcDbLine
 62
250
  6
CONTINUOUS
 10
-10.1378265349
 20
26.2705344848
 11
-8.3164504911
 21
26.2705344848
  0
LINE
  5
403
100
AcDbEntity
  8
C_COPERCHIO
100
AcDbLine
 62
250
  6
CONTINUOUS
 10
10.5835495089
 20
26.2705344848
 11
8.7621734651
 21
26.2705344848
  0
LINE
  5
404
100
AcDbEntity
  8
C_COPERCHIO
100
AcDbLine
 62
250
  6
CONTINUOUS
 10
-8.0664885673
 20
26.6368849394
 11
-10.3877884587
 21
26.6368849394
  0
LINE
  5
405
100
AcDbEntity
  8
C_COPERCHIO
100
AcDbLine
 62
250
  6
CONTINUOUS
 10
8.5122115413
 20
26.6368849394
 11
10.8335114327
 21
26.6368849394
  0
LINE
  5
406
100
AcDbEntity
  8
C_COPERCHIO
100
AcDbLine
 62
250
  6
CONTINUOUS
 10
-10.1378265349
 20
26.8868468631
 11
-8.3164504911
 21
26.8868468631
  0
LINE
  5
407
100
AcDbEntity
  8
C_COPERCHIO
100
AcDbLine
 62
250
  6
CONTINUOUS
 10
10.5835495089
 20
26.8868468631
 11
8.7621734651
 21
26.8868468631
  0
LINE
  5
408
100
AcDbEntity
  8
C_COPERCHIO
100
AcDbLine
 62
7
  6
CONTINUOUS
 10
8.7228234108
 20
26.9261969175
 11
10.6228995632
 21
26.9261969175
  0
LINE
  5
409
100
AcDbEntity
  8
C_COPERCHIO
100
AcDbLine
 62
7
  6
CONTINUOUS
 10
-8.2771004368
 20
26.9261969175
 11
-10.1771765892
 21
26.9261969175
  0
LWPOLYLINE
  5
40A
100
AcDbEntity
  8
0
100
AcDbPolyline
 62
7
  6
CONTINUOUS
 90
7
 70
0
 43
0.3500000087
 10
-0.205709944
 20
35.7214986694
 10
-1.70570996
 20
35.7214986694
 10
-0.205709944
 20
37.8643554688
 10
-0.205709944
 20
38.2929285339
 10
-0.6342813605
 20
38.7214973358
 10
-1.2771384935
 20
38.7214973358
 10
-1.70570996
 20
38.0786420013
  0
LWPOLYLINE
  5
40B
100
AcDbEntity
  8
0
100
AcDbPolyline
 62
7
  6
CONTINUOUS
 90
6
 70
0
 43
0.3500000087
 10
2.3657187048
 20
35.7214986694
 10
3.4371471045
 20
35.7214986694
 10
3.6514328377
 20
35.935785202
 10
3.6514328377
 20
37.0072136017
 10
3.2228613712
 20
37.4357824036
 10
2.7942901712
 20
37.4357824036
  0
LWPOLYLINE
  5
40C
100
AcDbEntity
  8
0
100
AcDbPolyline
 62
7
  6
CONTINUOUS
 90
7
 70
0
 43
0.3500000087
 10
-2.5628528929
 20
35.7214986694
 10
-4.062852759
 20
35.7214986694
 10
-2.5628528929
 20
37.8643554688
 10
-2.5628528929
 20
38.2929285339
 10
-2.9914243593
 20
38.7214973358
 10
-3.6342812925
 20
38.7214973358
 10
-4.062852759
 20
38.0786420013
  0
LINE
  5
40D
100
AcDbEntity
  8
C_COPERCHIO
100
AcDbLine
 62
250
  6
CONTINUOUS
 10
-3.829507026
 20
26.0124844406
 11
4.1140577905
 21
26.0122023999
  0
LINE
  5
40E
100
AcDbEntity
  8
C_COPERCHIO
100
AcDbLine
 62
250
  6
CONTINUOUS
 10
-3.7400662636
 20
26.2123238758
 11
4.1363211863
 21
26.212179999
  0
LINE
  5
40F
100
AcDbEntity
  8
C_COPERCHIO
100
AcDbLine
 62
250
  6
CONTINUOUS
 10
-3.8143010097
 20
26.2128336132
 11
-3.7400662636
 21
26.2123238758
  0
LINE
  5
410
100
AcDbEntity
  8
C_COPERCHIO
100
AcDbLine
 62
250
  6
CONTINUOUS
 10
-3.8600592466
 20
26.2133832633
 11
-3.8143010097
 21
26.2128336132
  0
LWPOLYLINE
  5
411
100
AcDbEntity
  8
C_COPERCHIO
100
AcDbPolyline
 62
7
  6
CONTINUOUS
 90
13
 70
0
 10
4.422891948
 20
26.2261969175
 10
4.4489940749
 20
26.2244866533
 10
4.4746492531
 20
26.2193844769
 10
4.4994187745
 20
26.2109774957
 10
4.5228792314
 20
26.1994092546
 10
4.5446290373
 20
26.1848774674
 10
4.5642954593
 20
26.1676308897
 10
4.581542037
 20
26.1479644677
 10
4.5960738242
 20
26.1262146618
 10
4.6076420653
 20
26.102754205
 10
4.6160490465
 20
26.0779846835
 10
4.6211512228
 20
26.0523295053
 10
4.622861487
 20
26.0262273784
  0
LWPOLYLINE
  5
412
100
AcDbEntity
  8
C_COPERCHIO
100
AcDbPolyline
 62
250
  6
CONTINUOUS
 90
13
 70
0
 10
4.4140120991
 20
26.2173170685
 10
4.4401083305
 20
26.2155990153
 10
4.4657582211
 20
26.2104901377
 10
4.4905230641
 20
26.2020778161
 10
4.5139792901
 20
26.1905059321
 10
4.5357257121
 20
26.175972407
 10
4.5553903868
 20
26.1587258173
 10
4.5726369766
 20
26.1390611425
 10
4.5871705017
 20
26.1173147205
 10
4.5987423857
 20
26.0938584945
 10
4.6071547073
 20
26.0690936516
 10
4.6122635849
 20
26.043443761
 10
4.6139816381
 20
26.0173475295
  0
LINE
  5
413
100
AcDbEntity
  8
C_COPERCHIO
100
AcDbLine
 62
7
  6
CONTINUOUS
 10
10.8000558599
 20
26.0540281338
 11
10.7887036896
 21
26.0652354583
  0
LINE
  5
414
100
AcDbEntity
  8
C_COPERCHIO
100
AcDbLine
 62
7
  6
CONTINUOUS
 10
10.6073847863
 20
26.2469599801
 11
10.5835495089
 21
26.2705344848
  0
LINE
  5
415
100
AcDbEntity
  8
C_COPERCHIO
100
AcDbLine
 62
7
  6
CONTINUOUS
 10
10.7467248844
 20
26.107389014
 11
10.6732405827
 21
26.1807836943
  0
LINE
  5
416
100
AcDbEntity
  8
C_COPERCHIO
100
AcDbLine
 62
7
  6
CONTINUOUS
 10
10.7887036896
 20
26.0652354583
 11
10.7467248844
 21
26.107389014
  0
LINE
  5
417
100
AcDbEntity
  8
C_COPERCHIO
100
AcDbLine
 62
7
  6
CONTINUOUS
 10
10.6732405827
 20
26.1807836943
 11
10.6073847863
 21
26.2469599801
  0
LWPOLYLINE
  5
418
100
AcDbEntity
  8
0
100
AcDbPolyline
 62
7
  6
CONTINUOUS
 90
10
 70
0
 43
0.3500000087
 10
-39.1322943542
 20
48.7832312408
 10
-39.7751496887
 20
48.1403759064
 10
-40.2037227539
 20
47.2832340393
 10
-40.2037227539
 20
46.2118013763
 10
-39.7751496887
 20
45.7832325745
 10
-39.1322943542
 20
45.7832325745
 10
-38.7037212891
 20
46.2118013763
 10
-38.7037212891
 20
47.0689475067
 10
-39.1322943542
 20
47.4975163086
 10
-40.0608636444
 20
47.4975163086
  0
LWPOLYLINE
  5
419
100
AcDbEntity
  8
0
100
AcDbPolyline
 62
7
  6
CONTINUOUS
 90
5
 70
0
 43
0.3500000087
 10
-41.4894376862
 20
47.4975163086
 10
-41.1322920441
 20
47.7118028412
 10
-41.1322920441
 20
48.354662439
 10
-41.4894376862
 20
48.7832312408
 10
-42.3465795532
 20
48.7832312408
  0
LWPOLYLINE
  5
41A
100
AcDbEntity
  8
0
100
AcDbPolyline
 62
7
  6
CONTINUOUS
 90
10
 70
0
 43
0.3500000087
 10
-35.7037226227
 20
45.7832325745
 10
-34.846578624
 20
46.6403744415
 10
-34.6322920914
 20
47.4975163086
 10
-34.6322920914
 20
48.354662439
 10
-35.0608651566
 20
48.7832312408
 10
-35.7037226227
 20
48.7832312408
 10
-36.1322914246
 20
48.354662439
 10
-36.1322914246
 20
47.4975163086
 10
-35.7037226227
 20
47.0689475067
 10
-34.7751512009
 20
47.0689475067
  0
LINE
  5
41B
100
AcDbEntity
  8
C_COPERCHIO
100
AcDbLine
 62
7
  6
CONTINUOUS
 10
-46.135864536
 20
26.0540281338
 11
-47.010864536
 21
25.5488466483
  0
LINE
  5
41C
100
AcDbEntity
  8
C_COPERCHIO
100
AcDbLine
 62
7
  6
CONTINUOUS
 10
-48.6270180297
 20
24.755476681
 11
-48.6501270988
 21
24.7465491521
  0
LINE
  5
41D
100
AcDbEntity
  8
C_COPERCHIO
100
AcDbLine
 62
7
  6
CONTINUOUS
 10
-47.010864536
 20
-22.0738030825
 11
-46.2565014344
 21
-22.0606356256
  0
LINE
  5
41E
100
AcDbEntity
  8
C_COPERCHIO
100
AcDbLine
 62
7
  6
CONTINUOUS
 10
-49.2652276376
 20
-22.0344530282
 11
-47.010864536
 21
-22.0738030825
  0
LINE
  5
41F
100
AcDbEntity
  8
C_COPERCHIO
100
AcDbLine
 62
250
  6
CONTINUOUS
 10
-49.2652276376
 20
-21.7844911044
 11
-47.010864536
 21
-21.8238411588
  0
LWPOLYLINE
  5
420
100
AcDbEntity
  8
C_COPERCHIO
100
AcDbPolyline
 62
7
  6
CONTINUOUS
 90
4
 70
0
 10
-48.6501271032
 20
-19.8941553464
 10
-48.6270180351
 20
-19.9030828817
 10
-48.6048874959
 20
-19.9151410145
 10
-48.5840700635
 20
-19.9300898514
  0
LINE
  5
421
100
AcDbEntity
  8
C_COPERCHIO
100
AcDbLine
 62
7
  6
CONTINUOUS
 10
-46.135864536
 20
-21.2016342989
 11
-47.010864536
 21
-20.6964528134
  0
LINE
  5
422
100
AcDbEntity
  8
C_COPERCHIO
100
AcDbLine
 62
7
  6
CONTINUOUS
 10
-48.549511506
 20
24.8190024371
 11
-48.5655694706
 21
24.7996035246
  0
LWPOLYLINE
  5
423
100
AcDbEntity
  8
0
100
AcDbPolyline
 62
7
  6
CONTINUOUS
 90
10
 70
0
 43
0.3500000087
 10
-33.7751502243
 20
38.6315970093
 10
-34.4180076904
 20
37.9887374115
 10
-34.846578624
 20
37.1315955444
 10
-34.846578624
 20
36.0601671448
 10
-34.4180076904
 20
35.6315940796
 10
-33.7751502243
 20
35.6315940796
 10
-33.3465792908
 20
36.0601671448
 10
-33.3465792908
 20
36.9173090118
 10
-33.7751502243
 20
37.345882077
 10
-34.7037216461
 20
37.345882077
  0
LWPOLYLINE
  5
424
100
AcDbEntity
  8
C_COPERCHIO
100
AcDbPolyline
 62
7
  6
CONTINUOUS
 90
4
 70
0
 10
-48.5655694706
 20
24.7996035246
 10
-48.5840700599
 20
24.7824836583
 10
-48.6048874908
 20
24.7675348149
 10
-48.6270180297
 20
24.755476681
  0
LINE
  5
425
100
AcDbEntity
  8
C_COPERCHIO
100
AcDbLine
 62
250
  6
CONTINUOUS
 10
-47.010864536
 20
-21.8238411588
 11
-46.2565014344
 21
-21.8106737018
  0
LINE
  5
426
100
AcDbEntity
  8
C_COPERCHIO
100
AcDbLine
 62
7
  6
CONTINUOUS
 10
-39.5021383328
 20
-21.2427377791
 11
-46.0119428019
 21
-21.3563668388
  0
LINE
  5
427
100
AcDbEntity
  8
C_COPERCHIO
100
AcDbLine
 62
250
  6
CONTINUOUS
 10
-39.5021383328
 20
-21.0427682401
 11
-46.2082814003
 21
-21.1598244028
  0
LINE
  5
428
100
AcDbEntity
  8
C_COPERCHIO
100
AcDbLine
 62
7
  6
CONTINUOUS
 10
-36.9934121295
 20
-19.7989478004
 11
-47.010864536
 21
-19.9738030825
  0
LINE
  5
429
100
AcDbEntity
  8
C_COPERCHIO
100
AcDbLine
 62
250
  6
CONTINUOUS
 10
-46.2565014344
 20
-21.8106737018
 11
-46.010864536
 21
-21.8106737018
  0
LINE
  5
42A
100
AcDbEntity
  8
C_COPERCHIO
100
AcDbLine
 62
250
  6
CONTINUOUS
 10
-49.2652276376
 20
-21.7844911044
 11
-49.510864536
 21
-21.7844911044
  0
LINE
  5
42B
100
AcDbEntity
  8
C_COPERCHIO
100
AcDbLine
 62
7
  6
CONTINUOUS
 10
-54.6676434249
 20
-19.5725283045
 11
-48.7003973447
 21
-19.88525842
  0
LINE
  5
42C
100
AcDbEntity
  8
C_COPERCHIO
100
AcDbLine
 62
7
  6
CONTINUOUS
 10
-48.7002845601
 20
-19.8849723878
 11
-47.010864536
 21
-19.9735111396
  0
LINE
  5
42D
100
AcDbEntity
  8
C_COPERCHIO
100
AcDbLine
 62
250
  6
CONTINUOUS
 10
-54.65020165
 20
-19.0732135372
 11
-47.010859217
 21
-19.4735745092
  0
LINE
  5
42E
100
AcDbEntity
  8
C_COPERCHIO
100
AcDbLine
 62
7
  6
CONTINUOUS
 10
-48.7002845601
 20
-19.8849723878
 11
-48.6745492782
 21
-19.8881185152
  0
LINE
  5
42F
100
AcDbEntity
  8
C_COPERCHIO
100
AcDbLine
 62
7
  6
CONTINUOUS
 10
-48.6745492782
 20
-19.8881185152
 11
-48.6501271032
 21
-19.8941553464
  0
LINE
  5
430
100
AcDbEntity
  8
C_COPERCHIO
100
AcDbLine
 62
7
  6
CONTINUOUS
 10
-48.5840700635
 20
-19.9300898514
 11
-48.5655694718
 21
-19.947209711
  0
LWPOLYLINE
  5
431
100
AcDbEntity
  8
C_COPERCHIO
100
AcDbPolyline
 62
7
  6
CONTINUOUS
 90
4
 70
0
 10
-48.5655694718
 20
-19.947209711
 10
-48.5495115023
 20
-19.9666086184
 10
-48.5357703735
 20
-19.9881785487
 10
-48.5249724735
 20
-20.010875746
  0
LINE
  5
432
100
AcDbEntity
  8
C_COPERCHIO
100
AcDbLine
 62
250
  6
CONTINUOUS
 10
-47.010859217
 20
-19.4735745092
 11
-46.010864536
 21
-19.4561195372
  0
LINE
  5
433
100
AcDbEntity
  8
C_COPERCHIO
100
AcDbLine
 62
7
  6
CONTINUOUS
 10
-36.5021383328
 20
-18.8978236824
 11
-46.010864536
 21
-18.9665729579
  0
LINE
  5
434
100
AcDbEntity
  8
C_CORPO
100
AcDbLine
 62
7
  6
CONTINUOUS
 10
-46.010864536
 20
-18.4238030825
 11
-36.010864536
 21
-18.4238030825
  0
LINE
  5
435
100
AcDbEntity
  8
ASSI
100
AcDbLine
 62
7
  6
CONTINUOUS
 10
-46.010864536
 20
-18.4238030825
 11
-36.010864536
 21
-18.4238030825
  0
LINE
  5
436
100
AcDbEntity
  8
C_COPERCHIO
100
AcDbLine
 62
7
  6
CONTINUOUS
 10
-36.010864536
 20
-18.5610717605
 11
-46.010864536
 21
-18.4738030825
  0
LWPOLYLINE
  5
437
100
AcDbEntity
  8
C_COPERCHIO
100
AcDbPolyline
 62
250
  6
CONTINUOUS
 90
22
 70
0
 10
-55.5970197057
 20
-18.1157089391
 10
-55.5916037594
 20
-18.1860955827
 10
-55.5813967209
 20
-18.2553512267
 10
-55.5663985901
 20
-18.3234758711
 10
-55.5464892455
 20
-18.3908241848
 10
-55.5217888087
 20
-18.4570414988
 10
-55.4926576438
 20
-18.5210638065
 10
-55.4590242343
 20
-18.5828371901
 10
-55.4209600967
 20
-18.6424155674
 10
-55.3790401452
 20
-18.6988966844
 10
-55.333214148
 20
-18.7522228996
 10
-55.2835323368
 20
-18.8024518546
 10
-55.2307203214
 20
-18.8488542193
 10
-55.1747250765
 20
-18.8913782526
 10
-55.1155996274
 20
-18.9300756958
 10
-55.0542286597
 20
-18.9643724425
 10
-54.990552057
 20
-18.9942021814
 10
-54.9246299358
 20
-19.0196312238
 10
-54.857527331
 20
-19.0402843978
 10
-54.7895992543
 20
-19.056036646
 10
-54.7204906939
 20
-19.0670130258
 10
-54.65020165
 20
-19.0732135372
  0
LINE
  5
438
100
AcDbEntity
  8
C_COPERCHIO
100
AcDbLine
 62
7
  6
CONTINUOUS
 10
-56.4639862604
 20
-4.4204137787
 11
-56.4637480383
 21
-4.4377871796
  0
LWPOLYLINE
  5
439
100
AcDbEntity
  8
C_COPERCHIO
100
AcDbPolyline
 62
250
  6
CONTINUOUS
 90
10
 70
0
 10
-55.5970197057
 20
22.968102774
 10
-55.7639585967
 20
18.4043913034
 10
-55.88916278
 20
13.840102353
 10
-55.9726322554
 20
9.2752359227
 10
-56.014367043
 20
4.7094075385
 10
-56.0143671228
 20
0.1430016744
 10
-55.9726324349
 20
-4.4228282476
 10
-55.8891629594
 20
-8.9876977535
 10
-55.7639587164
 20
-13.5519913173
 10
-55.5970197057
 20
-18.1157089391
  0
LINE
  5
43A
100
AcDbEntity
  8
C_COPERCHIO
100
AcDbLine
 62
250
  6
CONTINUOUS
 10
-56.0836788472
 20
-18.1360525107
 11
-56.0878564754
 21
-18.1362708271
  0
LINE
  5
43B
100
AcDbEntity
  8
C_COPERCHIO
100
AcDbLine
 62
250
  6
CONTINUOUS
 10
-55.8431013691
 20
-18.1258877944
 11
-56.0836788472
 21
-18.1360525107
  0
LWPOLYLINE
  5
43C
100
AcDbEntity
  8
C_COPERCHIO
100
AcDbPolyline
 62
250
  6
CONTINUOUS
 90
3
 70
0
 10
-55.5970197057
 20
-18.1157089391
 10
-55.6614234864
 20
-18.1183636009
 10
-55.8431013691
 20
-18.1258877944
  0
LINE
  5
43D
100
AcDbEntity
  8
C_CORPO
100
AcDbLine
 62
250
  6
CONTINUOUS
 10
-35.7232152585
 20
-16.8869127048
 11
-36.010864536
 21
-16.8919336417
  0
LINE
  5
43E
100
AcDbEntity
  8
ASSI
100
AcDbLine
 62
250
  6
CONTINUOUS
 10
-35.7232152585
 20
-16.8869127048
 11
-36.010864536
 21
-16.8919336417
  0
LINE
  5
43F
100
AcDbEntity
  8
C_CORPO
100
AcDbLine
 62
250
  6
CONTINUOUS
 10
-46.010864536
 20
-16.6595003021
 11
-35.610864536
 21
-16.584307006
  0
LINE
  5
440
100
AcDbEntity
  8
ASSI
100
AcDbLine
 62
250
  6
CONTINUOUS
 10
-46.010864536
 20
-16.6595003021
 11
-35.610864536
 21
-16.584307006
  0
LWPOLYLINE
  5
441
100
AcDbEntity
  8
C_COPERCHIO
100
AcDbPolyline
 62
7
  6
CONTINUOUS
 90
4
 70
0
 10
-48.51732661
 20
24.8867461226
 10
-48.5249724861
 20
24.8632695739
 10
-48.535770383
 20
24.8405723724
 10
-48.549511506
 20
24.8190024371
  0
LINE
  5
442
100
AcDbEntity
  8
C_CORPO
100
AcDbLine
 62
7
  6
CONTINUOUS
 10
-35.1195907392
 20
-13.8152278665
 11
-22.5934121295
 21
-13.5965826056
  0
LINE
  5
443
100
AcDbEntity
  8
ASSI
100
AcDbLine
 62
7
  6
CONTINUOUS
 10
-35.1195907392
 20
-13.8152278665
 11
-22.5934121295
 21
-13.5965826056
  0
LINE
  5
444
100
AcDbEntity
  8
C_CORPO
100
AcDbLine
 62
250
  6
CONTINUOUS
 10
-46.010864536
 20
-15.2455021313
 11
-35.610864536
 21
-15.1703088352
  0
LINE
  5
445
100
AcDbEntity
  8
ASSI
100
AcDbLine
 62
250
  6
CONTINUOUS
 10
-46.010864536
 20
-15.2455021313
 11
-35.610864536
 21
-15.1703088352
  0
LINE
  5
446
100
AcDbEntity
  8
C_COPERCHIO
100
AcDbLine
 62
7
  6
CONTINUOUS
 10
-48.5249724735
 20
-20.010875746
 11
-48.5173265987
 21
-20.0343522916
  0
LINE
  5
447
100
AcDbEntity
  8
C_COPERCHIO
100
AcDbLine
 62
250
  6
CONTINUOUS
 10
-54.65020165
 20
23.9256073721
 11
-54.6554469557
 21
24.029359469
  0
LINE
  5
448
100
AcDbEntity
  8
C_COPERCHIO
100
AcDbLine
 62
250
  6
CONTINUOUS
 10
-54.6554469557
 20
24.029359469
 11
-54.6600823918
 21
24.1285830689
  0
LINE
  5
449
100
AcDbEntity
  8
C_COPERCHIO
100
AcDbLine
 62
250
  6
CONTINUOUS
 10
-54.6600823918
 20
24.1285830689
 11
-54.6639055953
 21
24.2189466459
  0
LWPOLYLINE
  5
44A
100
AcDbEntity
  8
C_COPERCHIO
100
AcDbPolyline
 62
250
  6
CONTINUOUS
 90
9
 70
0
 10
-54.6639055953
 20
24.2189466459
 10
-54.6667496549
 20
24.296505351
 10
-54.6677638688
 20
24.3293986495
 10
-54.6684903946
 20
24.3578731016
 10
-54.6689212789
 20
24.3816170503
 10
-54.6690518042
 20
24.400370593
 10
-54.6688805409
 20
24.4139284694
 10
-54.6684093618
 20
24.4221422897
 10
-54.6676434222
 20
24.4249221396
  0
LWPOLYLINE
  5
44B
100
AcDbEntity
  8
C_COPERCHIO
100
AcDbPolyline
 62
250
  6
CONTINUOUS
 90
7
 70
0
 10
-54.6677639155
 20
-19.4770069349
 10
-54.6684904179
 20
-19.5054808874
 10
-54.6689212823
 20
-19.5292243296
 10
-54.6690517942
 20
-19.5479774254
 10
-54.6688805255
 20
-19.5615349506
 10
-54.6684093503
 20
-19.5697485388
 10
-54.6676434249
 20
-19.5725283045
  0
LINE
  5
44C
100
AcDbEntity
  8
C_COPERCHIO
100
AcDbLine
 62
250
  6
CONTINUOUS
 10
-54.665458947
 20
-19.4071622739
 11
-54.6677639155
 21
-19.4770069349
  0
LINE
  5
44D
100
AcDbEntity
  8
C_COPERCHIO
100
AcDbLine
 62
250
  6
CONTINUOUS
 10
-54.6621069986
 20
-19.3227393574
 11
-54.665458947
 21
-19.4071622739
  0
LINE
  5
44E
100
AcDbEntity
  8
C_COPERCHIO
100
AcDbLine
 62
250
  6
CONTINUOUS
 10
-54.6578543965
 20
-19.227423598
 11
-54.6621069986
 21
-19.3227393574
  0
LWPOLYLINE
  5
44F
100
AcDbEntity
  8
C_COPERCHIO
100
AcDbPolyline
 62
250
  6
CONTINUOUS
 90
3
 70
0
 10
-54.65020165
 20
-19.0732135372
 10
-54.6528867847
 20
-19.1253759261
 10
-54.6578543965
 20
-19.227423598
  0
LINE
  5
450
100
AcDbEntity
  8
C_COPERCHIO
100
AcDbLine
 62
7
  6
CONTINUOUS
 10
-48.51262396
 20
24.9113499376
 11
-48.51732661
 21
24.8867461226
  0
LINE
  5
451
100
AcDbEntity
  8
SCRITTE
100
AcDbLine
 62
250
  6
CONTINUOUS
 10
-37.6441978882
 20
18.8699469175
 11
-37.960864536
 21
18.7511969175
  0
LINE
  5
452
100
AcDbEntity
  8
SCRITTE
100
AcDbLine
 62
250
  6
CONTINUOUS
 10
-40.511085378
 20
18.5258019175
 11
-43.4106436939
 21
17.5177369175
  0
LINE
  5
453
100
AcDbEntity
  8
SCRITTE
100
AcDbLine
 62
250
  6
CONTINUOUS
 10
-41.1256307655
 20
17.6903859175
 11
-40.511085378
 21
17.8993759175
  0
LINE
  5
454
100
AcDbEntity
  8
SCRITTE
100
AcDbLine
 62
250
  6
CONTINUOUS
 10
-42.85640512
 20
17.1322509175
 11
-41.6074903648
 21
17.5336709175
  0
LINE
  5
455
100
AcDbEntity
  8
C_CORPO
100
AcDbLine
 62
250
  6
CONTINUOUS
 10
-35.1195907085
 20
-12.8153801708
 11
-22.5934121295
 21
-12.5967349104
  0
LINE
  5
456
100
AcDbEntity
  8
ASSI
100
AcDbLine
 62
250
  6
CONTINUOUS
 10
-35.1195907085
 20
-12.8153801708
 11
-22.5934121295
 21
-12.5967349104
  0
LINE
  5
457
100
AcDbEntity
  8
C_CORPO
100
AcDbLine
 62
250
  6
CONTINUOUS
 10
-21.610864536
 20
-12.5967349104
 11
-22.5934121295
 21
-12.5967349104
  0
LINE
  5
458
100
AcDbEntity
  8
ASSI
100
AcDbLine
 62
250
  6
CONTINUOUS
 10
-21.610864536
 20
-12.5967349104
 11
-22.5934121295
 21
-12.5967349104
  0
LINE
  5
459
100
AcDbEntity
  8
SCRITTE
100
AcDbLine
 62
250
  6
CONTINUOUS
 10
-43.4107016851
 20
-11.6427080825
 11
-41.4141088222
 21
-12.2838330825
  0
LINE
  5
45A
100
AcDbEntity
  8
SCRITTE
100
AcDbLine
 62
250
  6
CONTINUOUS
 10
-40.5110123891
 20
-11.9938180825
 11
-43.4107016851
 21
-11.0626790825
  0
LWPOLYLINE
  5
45B
100
AcDbEntity
  8
C_COPERCHIO
100
AcDbPolyline
 62
7
  6
CONTINUOUS
 90
3
 70
0
 10
-48.5173265987
 20
-20.0343522916
 10
-48.5126239529
 20
-20.0589561042
 10
-48.510864536
 20
-20.0846871838
  0
LWPOLYLINE
  5
45C
100
AcDbEntity
  8
C_COPERCHIO
100
AcDbPolyline
 62
7
  6
CONTINUOUS
 90
8
 70
0
 10
-47.011013471
 20
24.8259149468
 10
-47.0119055543
 20
24.8213121485
 10
-47.0126835687
 20
24.8111367662
 10
-47.0133347329
 20
24.7955426545
 10
-47.0138286526
 20
24.7746660202
 10
-47.0141687093
 20
24.7488202339
 10
-47.014391004
 20
24.7186508402
 10
-47.0144246582
 20
24.6477830367
  0
LWPOLYLINE
  5
45D
100
AcDbEntity
  8
0
100
AcDbPolyline
 62
7
  6
CONTINUOUS
 90
3
 70
0
 43
0.3500000087
 10
-37.1322924011
 20
46.0689465302
 10
-37.2037198242
 20
45.8546599976
 10
-37.3465789337
 20
45.5689460419
  0
LINE
  5
45E
100
AcDbEntity
  8
SCRITTE
100
AcDbLine
 62
250
  6
CONTINUOUS
 10
-37.960864536
 20
18.7511969175
 11
-38.1191978316
 21
18.6324469175
  0
LINE
  5
45F
100
AcDbEntity
  8
SCRITTE
100
AcDbLine
 62
250
  6
CONTINUOUS
 10
-43.4106436939
 20
13.7419409175
 11
-41.1128807077
 21
14.8545559175
  0
LINE
  5
460
100
AcDbEntity
  8
SCRITTE
100
AcDbLine
 62
250
  6
CONTINUOUS
 10
-40.511085378
 20
14.5533479175
 11
-42.9378197183
 21
13.4005719175
  0
LINE
  5
461
100
AcDbEntity
  8
C_CORPO
100
AcDbLine
 62
7
  6
CONTINUOUS
 10
-21.3370112588
 20
-9.2498440253
 11
-19.8847178131
 21
-9.1227848127
  0
LINE
  5
462
100
AcDbEntity
  8
ASSI
100
AcDbLine
 62
7
  6
CONTINUOUS
 10
-21.3370112588
 20
-9.2498440253
 11
-19.8847178131
 21
-9.1227848127
  0
LWPOLYLINE
  5
463
100
AcDbEntity
  8
0
100
AcDbPolyline
 62
250
  6
CONTINUOUS
 90
52
 70
0
 10
-31.0131491086
 20
-10.8238030825
 10
-30.9667805536
 20
-10.8224445514
 10
-30.9204698885
 20
-10.8184258968
 10
-30.8743752281
 20
-10.8118325265
 10
-30.8286546876
 20
-10.8027498488
 10
-30.7834663819
 20
-10.7912632714
 10
-30.738968426
 20
-10.7774582026
 10
-30.6952483712
 20
-10.7614094575
 10
-30.652403118
 20
-10.7432595036
 10
-30.6104571076
 20
-10.7231452042
 10
-30.5694347815
 20
-10.7012034227
 10
-30.5293605807
 20
-10.6775710225
 10
-30.4902589467
 20
-10.652384867
 10
-30.4446027372
 20
-10.6202599426
 10
-30.4003569841
 20
-10.5862483734
 10
-30.3574938434
 20
-10.5505075466
 10
-30.3159854711
 20
-10.5131948493
 10
-30.2758040232
 20
-10.4744676687
 10
-30.2273757108
 20
-10.4242681699
 10
-30.1808867324
 20
-10.3722850379
 10
-30.136244999
 20
-10.3187004104
 10
-30.0933584214
 20
-10.2636964248
 10
-30.0464266371
 20
-10.1993669796
 10
-30.0015745415
 20
-10.1335556465
 10
-29.9587136536
 20
-10.066393524
 10
-29.9177554922
 20
-9.9980117106
 10
-29.8786115762
 20
-9.9285413051
 10
-29.8411934245
 20
-9.8581134058
 10
-29.8054125562
 20
-9.7868591115
 10
-29.7656024275
 20
-9.7027783124
 10
-29.7278195043
 20
-9.617818285
 10
-29.6919800091
 20
-9.5320474748
 10
-29.6580001644
 20
-9.445534327
 10
-29.6257961928
 20
-9.3583472871
 10
-29.5952843168
 20
-9.2705548005
 10
-29.5607892935
 20
-9.1644689384
 10
-29.5285334244
 20
-9.0576797134
 10
-29.4984388388
 20
-8.9502573941
 10
-29.4704276658
 20
-8.8422722488
 10
-29.4444220347
 20
-8.733794546
 10
-29.4146231792
 20
-8.5975855473
 10
-29.3877406378
 20
-8.4607769074
 10
-29.3636781457
 20
-8.3234289415
 10
-29.342339438
 20
-8.1856019645
 10
-29.3236493765
 20
-8.0474384961
 10
-29.3075525324
 20
-7.9089189518
 10
-29.2940177112
 20
-7.7701054565
 10
-29.2830137181
 20
-7.631060135
 10
-29.2745093585
 20
-7.491845112
 10
-29.2684734379
 20
-7.3525225124
 10
-29.2648747616
 20
-7.213154461
 10
-29.263682135
 20
-7.0738030825
  0
LINE
  5
464
100
AcDbEntity
  8
SCRITTE
100
AcDbLine
 62
250
  6
CONTINUOUS
 10
-43.4107016851
 20
-10.6760000825
 11
-40.5110053902
 21
-10.6760070825
  0
LINE
  5
465
100
AcDbEntity
  8
SCRITTE
100
AcDbLine
 62
250
  6
CONTINUOUS
 10
-40.5110123891
 20
-10.0959860825
 11
-43.4107016851
 21
-10.0959780825
  0
LINE
  5
466
100
AcDbEntity
  8
C_COPERCHIO
100
AcDbLine
 62
250
  6
CONTINUOUS
 10
-49.2652276376
 20
26.6368849394
 11
-49.2662077218
 21
26.7015675919
  0
LINE
  5
467
100
AcDbEntity
  8
C_COPERCHIO
100
AcDbLine
 62
250
  6
CONTINUOUS
 10
-49.2662077218
 20
26.7015675919
 11
-49.2668238172
 21
26.7618439281
  0
LWPOLYLINE
  5
468
100
AcDbEntity
  8
C_COPERCHIO
100
AcDbPolyline
 62
250
  6
CONTINUOUS
 90
7
 70
0
 10
-49.267033954
 20
-21.9612139641
 10
-49.2669811942
 20
-21.9827722013
 10
-49.2668238172
 20
-22.0009391077
 10
-49.2665645147
 20
-22.0154039627
 10
-49.2662077218
 20
-22.0259193647
 10
-49.2657595409
 20
-22.0323054617
 10
-49.2652276376
 20
-22.0344530282
  0
LWPOLYLINE
  5
469
100
AcDbEntity
  8
C_COPERCHIO
100
AcDbPolyline
 62
250
  6
CONTINUOUS
 90
8
 70
0
 10
-49.2668238172
 20
26.7618439281
 10
-49.267033954
 20
26.8136077991
 10
-49.2669811942
 20
26.8351660362
 10
-49.2668238172
 20
26.8533329426
 10
-49.2665645147
 20
26.8677977976
 10
-49.2662077218
 20
26.8783131996
 10
-49.2657595409
 20
26.8846992966
 10
-49.2652276376
 20
26.8868468631
  0
LINE
  5
46A
100
AcDbEntity
  8
C_COPERCHIO
100
AcDbLine
 62
7
  6
CONTINUOUS
 10
-49.510864536
 20
26.6368849394
 11
-49.510864536
 21
26.2705344848
  0
LINE
  5
46B
100
AcDbEntity
  8
C_COPERCHIO
100
AcDbLine
 62
7
  6
CONTINUOUS
 10
-49.510864536
 20
-21.4181406498
 11
-49.510864536
 21
-21.7844911044
  0
LINE
  5
46C
100
AcDbEntity
  8
C_COPERCHIO
100
AcDbLine
 62
250
  6
CONTINUOUS
 10
-49.2652276376
 20
26.6368849394
 11
-49.2652276376
 21
25.984378388
  0
LINE
  5
46D
100
AcDbEntity
  8
C_COPERCHIO
100
AcDbLine
 62
250
  6
CONTINUOUS
 10
-49.2652276376
 20
-21.1319845531
 11
-49.2652276376
 21
-21.7844911044
  0
LINE
  5
46E
100
AcDbEntity
  8
C_COPERCHIO
100
AcDbLine
 62
7
  6
CONTINUOUS
 10
-48.510864536
 20
25.5488466483
 11
-48.510864536
 21
24.9370810187
  0
LINE
  5
46F
100
AcDbEntity
  8
C_COPERCHIO
100
AcDbLine
 62
7
  6
CONTINUOUS
 10
-48.510864536
 20
-20.0848434197
 11
-48.510864536
 21
-20.6964528134
  0
LINE
  5
470
100
AcDbEntity
  8
C_COPERCHIO
100
AcDbLine
 62
250
  6
CONTINUOUS
 10
-49.2668238172
 20
-21.9094500932
 11
-49.267033954
 21
-21.9612139641
  0
LINE
  5
471
100
AcDbEntity
  8
C_COPERCHIO
100
AcDbLine
 62
250
  6
CONTINUOUS
 10
-49.2662077218
 20
-21.849173757
 11
-49.2668238172
 21
-21.9094500932
  0
LINE
  5
472
100
AcDbEntity
  8
C_COPERCHIO
100
AcDbLine
 62
250
  6
CONTINUOUS
 10
-49.2652276376
 20
-21.7844911044
 11
-49.2662077218
 21
-21.849173757
  0
LINE
  5
473
100
AcDbEntity
  8
C_COPERCHIO
100
AcDbLine
 62
7
  6
CONTINUOUS
 10
-48.510864536
 20
24.9370810187
 11
-48.51262396
 21
24.9113499376
  0
LINE
  5
474
100
AcDbEntity
  8
C_COPERCHIO
100
AcDbLine
 62
250
  6
CONTINUOUS
 10
-39.3259438122
 20
26.0153111892
 11
-39.340015218
 21
25.9814952571
  0
LINE
  5
475
100
AcDbEntity
  8
C_COPERCHIO
100
AcDbLine
 62
250
  6
CONTINUOUS
 10
-39.340015218
 20
25.9814952571
 11
-39.3575402877
 21
25.9401677358
  0
LWPOLYLINE
  5
476
100
AcDbEntity
  8
C_COPERCHIO
100
AcDbPolyline
 62
250
  6
CONTINUOUS
 90
3
 70
0
 10
-39.3575402877
 20
25.9401677358
 10
-39.3773357643
 20
25.8941198415
 10
-39.3876707643
 20
25.8702908271
  0
LINE
  5
477
100
AcDbEntity
  8
SCRITTE
100
AcDbLine
 62
250
  6
CONTINUOUS
 10
-37.3275312121
 20
17.8011969175
 11
-37.169197874
 21
17.9199469175
  0
LINE
  5
478
100
AcDbEntity
  8
SCRITTE
100
AcDbLine
 62
250
  6
CONTINUOUS
 10
-38.7525312404
 20
14.8324469175
 11
-38.5941978316
 21
14.9511969175
  0
LINE
  5
479
100
AcDbEntity
  8
SCRITTE
100
AcDbLine
 62
250
  6
CONTINUOUS
 10
-40.511085378
 20
12.5008759175
 11
-43.4106436939
 21
11.4927019175
  0
LINE
  5
47A
100
AcDbEntity
  8
0
100
AcDbLine
 62
250
  6
CONTINUOUS
 10
-32.0993071788
 20
-6.7699210825
 11
-29.9663580442
 21
-6.1874350825
  0
LINE
  5
47B
100
AcDbEntity
  8
0
100
AcDbLine
 62
250
  6
CONTINUOUS
 10
-31.6946124808
 20
-9.5230580825
 11
-30.3316857364
 21
-9.5230580825
  0
LINE
  5
47C
100
AcDbEntity
  8
SCRITTE
100
AcDbLine
 62
250
  6
CONTINUOUS
 10
-43.4107016851
 20
-9.5159780825
 11
-40.5110123891
 21
-9.5159780825
  0
LINE
  5
47D
100
AcDbEntity
  8
0
100
AcDbLine
 62
250
  6
CONTINUOUS
 10
-30.1474338741
 20
-8.9830080825
 11
-31.8788643431
 21
-8.9830080825
  0
LINE
  5
47E
100
AcDbEntity
  8
SCRITTE
100
AcDbLine
 62
250
  6
CONTINUOUS
 10
-40.5110123891
 20
-8.9359570825
 11
-42.4231631149
 21
-8.9359570825
  0
LINE
  5
47F
100
AcDbEntity
  8
0
100
AcDbLine
 62
250
  6
CONTINUOUS
 10
-31.684775478
 20
-7.9981620825
 11
-31.0712863954
 21
-7.9981620825
  0
LINE
  5
480
100
AcDbEntity
  8
SCRITTE
100
AcDbLine
 62
250
  6
CONTINUOUS
 10
-43.4107016851
 20
-7.5560060825
 11
-41.5223203386
 21
-8.0975740825
  0
LINE
  5
481
100
AcDbEntity
  8
SCRITTE
100
AcDbLine
 62
250
  6
CONTINUOUS
 10
-40.5110203879
 20
-7.8075740825
 11
-42.4231631149
 21
-7.2591980825
  0
LINE
  5
482
100
AcDbEntity
  8
C_COPERCHIO
100
AcDbLine
 62
250
  6
CONTINUOUS
 10
-39.3672274572
 20
-21.0651573345
 11
-39.3876691
 21
-21.0178970532
  0
LINE
  5
483
100
AcDbEntity
  8
C_COPERCHIO
100
AcDbLine
 62
250
  6
CONTINUOUS
 10
-39.3484024134
 20
-21.1092252863
 11
-39.3672274572
 21
-21.0651573345
  0
LINE
  5
484
100
AcDbEntity
  8
C_COPERCHIO
100
AcDbLine
 62
7
  6
CONTINUOUS
 10
-47.0124341168
 20
24.4248021712
 11
-47.010859217
 21
24.3259683441
  0
LINE
  5
485
100
AcDbEntity
  8
C_COPERCHIO
100
AcDbLine
 62
250
  6
CONTINUOUS
 10
-46.2565014344
 20
-21.8106737018
 11
-46.2555213501
 21
-21.8753563544
  0
LINE
  5
486
100
AcDbEntity
  8
C_COPERCHIO
100
AcDbLine
 62
7
  6
CONTINUOUS
 10
-47.0139737361
 20
24.5648409302
 11
-47.0124341168
 21
24.4248021712
  0
LINE
  5
487
100
AcDbEntity
  8
C_COPERCHIO
100
AcDbLine
 62
250
  6
CONTINUOUS
 10
-46.2555213501
 20
-21.8753563544
 11
-46.2549052548
 21
-21.9356326906
  0
LWPOLYLINE
  5
488
100
AcDbEntity
  8
C_COPERCHIO
100
AcDbPolyline
 62
7
  6
CONTINUOUS
 90
7
 70
0
 10
-47.014391004
 20
-19.8662570052
 10
-47.0141687095
 20
-19.8964263814
 10
-47.0138286529
 20
-19.9222721562
 10
-47.0133347329
 20
-19.9431488196
 10
-47.0126835681
 20
-19.9587429794
 10
-47.0119055534
 20
-19.9689183825
 10
-47.011013471
 20
-19.9735211419
  0
LINE
  5
489
100
AcDbEntity
  8
C_COPERCHIO
100
AcDbLine
 62
7
  6
CONTINUOUS
 10
-47.0144246582
 20
24.6477830367
 11
-47.0139737361
 21
24.5648409302
  0
LWPOLYLINE
  5
48A
100
AcDbEntity
  8
C_COPERCHIO
100
AcDbPolyline
 62
250
  6
CONTINUOUS
 90
7
 70
0
 10
-46.2546951602
 20
26.8404428883
 10
-46.2547516941
 20
26.8620553914
 10
-46.2549143195
 20
26.8802146502
 10
-46.2551781531
 20
26.8945240962
 10
-46.2555358232
 20
26.9047958172
 10
-46.2559799402
 20
26.9109714161
 10
-46.2565014344
 20
26.9130294605
  0
LWPOLYLINE
  5
48B
100
AcDbEntity
  8
C_COPERCHIO
100
AcDbPolyline
 62
250
  6
CONTINUOUS
 90
8
 70
0
 10
-46.2549052548
 20
-21.9356326906
 10
-46.254695118
 20
-21.9873965615
 10
-46.2547478778
 20
-22.0089547987
 10
-46.2549052548
 20
-22.0271217051
 10
-46.2551645572
 20
-22.0415865601
 10
-46.2555213501
 20
-22.052101962
 10
-46.255969531
 20
-22.0584880591
 10
-46.2565014344
 20
-22.0606356256
  0
LINE
  5
48C
100
AcDbEntity
  8
C_COPERCHIO
100
AcDbLine
 62
7
  6
CONTINUOUS
 10
-47.010864536
 20
-19.9735111396
 11
-47.010864536
 21
-22.0738030825
  0
LINE
  5
48D
100
AcDbEntity
  8
C_COPERCHIO
100
AcDbLine
 62
7
  6
CONTINUOUS
 10
-47.010864536
 20
24.8259049745
 11
-47.010864536
 21
26.9261969175
  0
LINE
  5
48E
100
AcDbEntity
  8
C_COPERCHIO
100
AcDbLine
 62
250
  6
CONTINUOUS
 10
-46.2565014344
 20
-21.8106737018
 11
-46.2565014344
 21
-21.1319845531
  0
LINE
  5
48F
100
AcDbEntity
  8
C_COPERCHIO
100
AcDbLine
 62
250
  6
CONTINUOUS
 10
-46.2565014344
 20
25.984378388
 11
-46.2565014344
 21
26.6630675367
  0
LINE
  5
490
100
AcDbEntity
  8
C_CORPO
100
AcDbLine
 62
7
  6
CONTINUOUS
 10
-46.010864536
 20
20.0978959662
 11
-46.010864536
 21
-15.2455021313
  0
LINE
  5
491
100
AcDbEntity
  8
ASSI
100
AcDbLine
 62
7
  6
CONTINUOUS
 10
-46.010864536
 20
20.0978959662
 11
-46.010864536
 21
-15.2455021313
  0
LINE
  5
492
100
AcDbEntity
  8
C_COPERCHIO
100
AcDbLine
 62
7
  6
CONTINUOUS
 10
-46.010864536
 20
-21.8106737018
 11
-46.010864536
 21
-21.4181406498
  0
LINE
  5
493
100
AcDbEntity
  8
C_COPERCHIO
100
AcDbLine
 62
7
  6
CONTINUOUS
 10
-46.010864536
 20
24.8087418525
 11
-46.010864536
 21
-19.9563480176
  0
LINE
  5
494
100
AcDbEntity
  8
C_COPERCHIO
100
AcDbLine
 62
7
  6
CONTINUOUS
 10
-46.010864536
 20
26.2705344848
 11
-46.010864536
 21
26.6630675367
  0
LINE
  5
495
100
AcDbEntity
  8
C_COPERCHIO
100
AcDbLine
 62
7
  6
CONTINUOUS
 10
-47.0144246582
 20
-19.7953892018
 11
-47.014391004
 21
-19.8662570052
  0
LINE
  5
496
100
AcDbEntity
  8
C_COPERCHIO
100
AcDbLine
 62
250
  6
CONTINUOUS
 10
-46.2549015425
 20
26.7885317881
 11
-46.2546951602
 21
26.8404428883
  0
LINE
  5
497
100
AcDbEntity
  8
C_COPERCHIO
100
AcDbLine
 62
7
  6
CONTINUOUS
 10
-47.0139737361
 20
-19.7124470953
 11
-47.0144246582
 21
-19.7953892018
  0
LINE
  5
498
100
AcDbEntity
  8
C_COPERCHIO
100
AcDbLine
 62
250
  6
CONTINUOUS
 10
-46.2555179864
 20
26.7280137334
 11
-46.2549015425
 21
26.7885317881
  0
LINE
  5
499
100
AcDbEntity
  8
C_COPERCHIO
100
AcDbLine
 62
7
  6
CONTINUOUS
 10
-47.0124341168
 20
-19.5724083362
 11
-47.0139737361
 21
-19.7124470953
  0
LINE
  5
49A
100
AcDbEntity
  8
C_COPERCHIO
100
AcDbLine
 62
250
  6
CONTINUOUS
 10
-46.2565014344
 20
26.6630675367
 11
-46.2555179864
 21
26.7280137334
  0
LINE
  5
49B
100
AcDbEntity
  8
C_COPERCHIO
100
AcDbLine
 62
7
  6
CONTINUOUS
 10
-47.010859217
 20
-19.4735745092
 11
-47.0124341168
 21
-19.5724083362
  0
LINE
  5
49C
100
AcDbEntity
  8
SCRITTE
100
AcDbLine
 62
250
  6
CONTINUOUS
 10
-38.1191978316
 20
18.6324469175
 11
-38.2775312404
 21
18.3949469175
  0
LINE
  5
49D
100
AcDbEntity
  8
SCRITTE
100
AcDbLine
 62
250
  6
CONTINUOUS
 10
-41.1256307655
 20
11.6653509175
 11
-40.511085378
 21
11.8742329175
  0
LINE
  5
49E
100
AcDbEntity
  8
SCRITTE
100
AcDbLine
 62
250
  6
CONTINUOUS
 10
-42.856569095
 20
11.1072729175
 11
-41.6074903648
 21
11.5087449175
  0
LINE
  5
49F
100
AcDbEntity
  8
SCRITTE
100
AcDbLine
 62
250
  6
CONTINUOUS
 10
-42.4231631149
 20
-7.2591980825
 11
-40.5110123891
 21
-7.2591910825
  0
LINE
  5
4A0
100
AcDbEntity
  8
SCRITTE
100
AcDbLine
 62
250
  6
CONTINUOUS
 10
-40.5110123891
 20
-6.6791690825
 11
-43.4107016851
 21
-6.6791690825
  0
LINE
  5
4A1
100
AcDbEntity
  8
0
100
AcDbLine
 62
250
  6
CONTINUOUS
 10
-30.0357479025
 20
-5.6790300825
 11
-31.9905503147
 21
-5.6790300825
  0
LINE
  5
4A2
100
AcDbEntity
  8
SCRITTE
100
AcDbLine
 62
250
  6
CONTINUOUS
 10
-40.5110123891
 20
-6.2924900825
 11
-43.410708684
 21
-5.3613660825
  0
LINE
  5
4A3
100
AcDbEntity
  8
SCRITTE
100
AcDbLine
 62
250
  6
CONTINUOUS
 10
-42.507605252
 20
-5.0713440825
 11
-41.6321996009
 21
-5.3524340825
  0
LINE
  5
4A4
100
AcDbEntity
  8
SCRITTE
100
AcDbLine
 62
250
  6
CONTINUOUS
 10
-41.0812615242
 20
-5.5293550825
 11
-40.5110203879
 21
-5.7124690825
  0
LINE
  5
4A5
100
AcDbEntity
  8
SCRITTE
100
AcDbLine
 62
250
  6
CONTINUOUS
 10
-37.169197874
 20
17.9199469175
 11
-37.010864536
 21
18.1574469175
  0
LINE
  5
4A6
100
AcDbEntity
  8
SCRITTE
100
AcDbLine
 62
250
  6
CONTINUOUS
 10
-38.910864536
 20
14.5949469175
 11
-38.7525312404
 21
14.8324469175
  0
LWPOLYLINE
  5
4A7
100
AcDbEntity
  8
0
100
AcDbPolyline
 62
250
  6
CONTINUOUS
 90
36
 70
0
 10
-34.3547857689
 20
15.0297398084
 10
-34.3679276088
 20
15.0163048313
 10
-34.3806680063
 20
15.0024938262
 10
-34.3930126585
 20
14.9883212045
 10
-34.4049672626
 20
14.9738013777
 10
-34.4165375158
 20
14.9589487572
 10
-34.4277291153
 20
14.9437777544
 10
-34.4385477584
 20
14.9283027809
 10
-34.4489991421
 20
14.9125382479
 10
-34.4590889638
 20
14.896498567
 10
-34.4688229205
 20
14.8801981496
 10
-34.4782067095
 20
14.8636514072
 10
-34.487246028
 20
14.8468727511
 10
-34.4959465732
 20
14.8298765928
 10
-34.5043140422
 20
14.8126773437
 10
-34.5123541323
 20
14.7952894153
 10
-34.5200725407
 20
14.777727219
 10
-34.5274749645
 20
14.7600051663
 10
-34.534567101
 20
14.7421376686
 10
-34.5413546473
 20
14.7241391373
 10
-34.5478433006
 20
14.7060239838
 10
-34.5540387582
 20
14.6878066197
 10
-34.5599467172
 20
14.6695014562
 10
-34.5655728748
 20
14.651122905
 10
-34.5709229283
 20
14.6326853773
 10
-34.5760025747
 20
14.6142032847
 10
-34.5808175114
 20
14.5956910386
 10
-34.5853734354
 20
14.5771630503
 10
-34.5896760441
 20
14.5586337315
 10
-34.5955204279
 20
14.5316071428
 10
-34.6008991007
 20
14.5045973739
 10
-34.605873859
 20
14.4775933778
 10
-34.6105064994
 20
14.4505841079
 10
-34.6148588183
 20
14.4235585174
 10
-34.6189926123
 20
14.3965055597
 10
-34.6268518118
 20
14.3422733555
  0
LINE
  5
4A8
100
AcDbEntity
  8
SCRITTE
100
AcDbLine
 62
7
  6
CONTINUOUS
 10
-43.4106436939
 20
5.7305548978
 11
-42.9287850945
 21
6.2124134973
  0
LINE
  5
4A9
100
AcDbEntity
  8
SCRITTE
100
AcDbLine
 62
7
  6
CONTINUOUS
 10
-42.4970735119
 20
6.6441250799
 11
-41.9832861977
 21
7.157912394
  0
LINE
  5
4AA
100
AcDbEntity
  8
SCRITTE
100
AcDbLine
 62
7
  6
CONTINUOUS
 10
-41.4442636743
 20
7.6969349175
 11
-40.511085378
 21
8.6301132138
  0
LINE
  5
4AB
100
AcDbEntity
  8
0
100
AcDbLine
 62
250
  6
CONTINUOUS
 10
-26.010864536
 20
14.3161429175
 11
-27.3104685735
 21
13.7458099175
  0
LWPOLYLINE
  5
4AC
100
AcDbEntity
  8
0
100
AcDbPolyline
 62
250
  6
CONTINUOUS
 90
52
 70
0
 10
-31.0131491086
 20
-3.3238030825
 10
-31.0595176636
 20
-3.3251616137
 10
-31.1058283288
 20
-3.3291802683
 10
-31.1519229892
 20
-3.3357736386
 10
-31.1976435297
 20
-3.3448563163
 10
-31.2428318354
 20
-3.3563428937
 10
-31.2873297912
 20
-3.3701479625
 10
-31.3310498461
 20
-3.3861967075
 10
-31.3738950993
 20
-3.4043466615
 10
-31.4158411096
 20
-3.4244609609
 10
-31.4568634358
 20
-3.4464027424
 10
-31.4969376365
 20
-3.4700351426
 10
-31.5360392705
 20
-3.4952212981
 10
-31.58169548
 20
-3.5273462225
 10
-31.6259412332
 20
-3.5613577917
 10
-31.6688043739
 20
-3.5970986185
 10
-31.7103127462
 20
-3.6344113158
 10
-31.7504941941
 20
-3.6731384964
 10
-31.7989225065
 20
-3.7233379952
 10
-31.8454114848
 20
-3.7753211272
 10
-31.8900532182
 20
-3.8289057547
 10
-31.9329397959
 20
-3.8839097403
 10
-31.9798715801
 20
-3.9482391855
 10
-32.0247236757
 20
-4.0140505186
 10
-32.0675845637
 20
-4.0812126411
 10
-32.1085427251
 20
-4.1495944545
 10
-32.1476866411
 20
-4.21906486
 10
-32.1851047927
 20
-4.2894927593
 10
-32.2208856611
 20
-4.3607470536
 10
-32.2606957897
 20
-4.4448278527
 10
-32.298478713
 20
-4.52978788
 10
-32.3343182082
 20
-4.6155586903
 10
-32.3682980529
 20
-4.7020718381
 10
-32.4005020245
 20
-4.789258878
 10
-32.4310139005
 20
-4.8770513646
 10
-32.4655089238
 20
-4.9831372267
 10
-32.4977647929
 20
-5.0899264516
 10
-32.5278593785
 20
-5.197348771
 10
-32.5558705514
 20
-5.3053339163
 10
-32.5818761825
 20
-5.4138116191
 10
-32.6116750381
 20
-5.5500206178
 10
-32.6385575795
 20
-5.6868292576
 10
-32.6626200715
 20
-5.8241772236
 10
-32.6839587792
 20
-5.9620042006
 10
-32.7026488407
 20
-6.100167669
 10
-32.7187456848
 20
-6.2386872133
 10
-32.7322805061
 20
-6.3775007086
 10
-32.7432844992
 20
-6.5165460301
 10
-32.7517888587
 20
-6.6557610531
 10
-32.7578247793
 20
-6.7950836527
 10
-32.7614234556
 20
-6.9344517041
 10
-32.7626160823
 20
-7.0738030825
  0
LINE
  5
4AD
100
AcDbEntity
  8
SCRITTE
100
AcDbLine
 62
250
  6
CONTINUOUS
 10
-40.5110203879
 20
-3.4634970825
 11
-43.410708684
 21
-3.4634970825
  0
LINE
  5
4AE
100
AcDbEntity
  8
0
100
AcDbLine
 62
250
  6
CONTINUOUS
 10
-29.9328502533
 20
-7.5178120825
 11
-32.0993071788
 21
-6.7699210825
  0
LWPOLYLINE
  5
4AF
100
AcDbEntity
  8
C_CORPO
100
AcDbPolyline
 62
250
  6
CONTINUOUS
 90
10
 70
0
 10
-35.1195907392
 20
-13.8152278665
 10
-35.1198047144
 20
-13.8149252852
 10
-35.1200126193
 20
-13.8140082469
 10
-35.1202147615
 20
-13.8124744617
 10
-35.1204119052
 20
-13.8103214502
 10
-35.120603893
 20
-13.8075479709
 10
-35.1207896172
 20
-13.804155469
 10
-35.1209692618
 20
-13.8001445174
 10
-35.12114316
 20
-13.7955160594
 10
-35.1213103669
 20
-13.7902752545
  0
LWPOLYLINE
  5
4B0
100
AcDbEntity
  8
ASSI
100
AcDbPolyline
 62
250
  6
CONTINUOUS
 90
10
 70
0
 10
-35.1195907392
 20
-13.8152278665
 10
-35.1198047144
 20
-13.8149252852
 10
-35.1200126193
 20
-13.8140082469
 10
-35.1202147615
 20
-13.8124744617
 10
-35.1204119052
 20
-13.8103214502
 10
-35.120603893
 20
-13.8075479709
 10
-35.1207896172
 20
-13.804155469
 10
-35.1209692618
 20
-13.8001445174
 10
-35.12114316
 20
-13.7955160594
 10
-35.1213103669
 20
-13.7902752545
  0
LWPOLYLINE
  5
4B1
100
AcDbEntity
  8
SCRITTE
100
AcDbPolyline
 62
250
  6
CONTINUOUS
 90
17
 70
0
 10
-42.1686448852
 20
-2.1857880825
 10
-42.1753641208
 20
-2.1172495782
 10
-42.1952658939
 20
-2.0513216842
 10
-42.2275921523
 20
-1.9905155735
 10
-42.2719809099
 20
-1.9362748482
 10
-42.3251887868
 20
-1.8925627478
 10
-42.3858724263
 20
-1.8600195093
 10
-42.4517204074
 20
-1.8398846945
 10
-42.5214561421
 20
-1.8329230825
 10
-42.5899842077
 20
-1.8396433417
 10
-42.6559020606
 20
-1.8595481464
 10
-42.7166989102
 20
-1.8918793289
 10
-42.7709313744
 20
-1.9362748482
 10
-42.8146368173
 20
-1.9894908302
 10
-42.8471750993
 20
-2.0501837135
 10
-42.8673068474
 20
-2.1160417251
 10
-42.8742673991
 20
-2.1857881134
  0
LINE
  5
4B2
100
AcDbEntity
  8
SCRITTE
100
AcDbLine
 62
250
  6
CONTINUOUS
 10
-43.410708684
 20
-5.3613660825
 11
-43.410708684
 21
-4.7813150825
  0
LINE
  5
4B3
100
AcDbEntity
  8
SCRITTE
100
AcDbLine
 62
250
  6
CONTINUOUS
 10
-43.410708684
 20
-3.4634970825
 11
-43.410708684
 21
-2.1052820825
  0
LINE
  5
4B4
100
AcDbEntity
  8
SCRITTE
100
AcDbLine
 62
250
  6
CONTINUOUS
 10
-43.4107016851
 20
-6.6791690825
 11
-43.4107016851
 21
-7.5560060825
  0
LINE
  5
4B5
100
AcDbEntity
  8
SCRITTE
100
AcDbLine
 62
250
  6
CONTINUOUS
 10
-43.4107016851
 20
-8.6391420825
 11
-43.4107016851
 21
-9.5159780825
  0
LINE
  5
4B6
100
AcDbEntity
  8
SCRITTE
100
AcDbLine
 62
250
  6
CONTINUOUS
 10
-43.4107016851
 20
-10.0959780825
 11
-43.4107016851
 21
-10.6760000825
  0
LINE
  5
4B7
100
AcDbEntity
  8
SCRITTE
100
AcDbLine
 62
250
  6
CONTINUOUS
 10
-43.4107016851
 20
-11.0626790825
 11
-43.4107016851
 21
-11.6427080825
  0
LINE
  5
4B8
100
AcDbEntity
  8
SCRITTE
100
AcDbLine
 62
250
  6
CONTINUOUS
 10
-43.4107016851
 20
-12.9249650825
 11
-43.4107016851
 21
-13.5049940825
  0
LINE
  5
4B9
100
AcDbEntity
  8
SCRITTE
100
AcDbLine
 62
250
  6
CONTINUOUS
 10
-43.4106436939
 20
17.5177369175
 11
-43.4106436939
 21
16.7786859175
  0
LINE
  5
4BA
100
AcDbEntity
  8
SCRITTE
100
AcDbLine
 62
250
  6
CONTINUOUS
 10
-43.4106436939
 20
11.4927019175
 11
-43.4106436939
 21
10.7536509175
  0
LINE
  5
4BB
100
AcDbEntity
  8
SCRITTE
100
AcDbLine
 62
250
  6
CONTINUOUS
 10
-43.4106436939
 20
6.1140219175
 11
-43.4106436939
 21
5.2265919175
  0
LINE
  5
4BC
100
AcDbEntity
  8
SCRITTE
100
AcDbLine
 62
250
  6
CONTINUOUS
 10
-43.4106436939
 20
7.6969349175
 11
-43.4106436939
 21
8.3195409175
  0
LINE
  5
4BD
100
AcDbEntity
  8
SCRITTE
100
AcDbLine
 62
250
  6
CONTINUOUS
 10
-43.4106436939
 20
12.8181269175
 11
-43.4106436939
 21
13.7419409175
  0
LINE
  5
4BE
100
AcDbEntity
  8
SCRITTE
100
AcDbLine
 62
250
  6
CONTINUOUS
 10
-43.4106436939
 20
14.8545559175
 11
-43.4106436939
 21
15.4369999175
  0
LINE
  5
4BF
100
AcDbEntity
  8
SCRITTE
100
AcDbLine
 62
250
  6
CONTINUOUS
 10
-42.9287850945
 20
5.8491979175
 11
-42.9287850945
 21
6.2124139175
  0
LINE
  5
4C0
100
AcDbEntity
  8
SCRITTE
100
AcDbLine
 62
250
  6
CONTINUOUS
 10
-42.8742693988
 20
-2.1857860825
 11
-42.8742693988
 21
-2.8914720825
  0
LINE
  5
4C1
100
AcDbEntity
  8
SCRITTE
100
AcDbLine
 62
250
  6
CONTINUOUS
 10
-42.1686468849
 20
-2.8914650825
 11
-42.1686468849
 21
-2.1857860825
  0
LINE
  5
4C2
100
AcDbEntity
  8
SCRITTE
100
AcDbLine
 62
250
  6
CONTINUOUS
 10
-42.1095358892
 20
5.8491979175
 11
-42.1095358892
 21
6.2124139175
  0
LWPOLYLINE
  5
4C3
100
AcDbEntity
  8
SCRITTE
100
AcDbPolyline
 62
250
  6
CONTINUOUS
 90
54
 70
0
 10
-42.925657304
 20
6.2393377224
 10
-42.9200021035
 20
6.2933045625
 10
-42.9184864649
 20
6.3067822719
 10
-42.9168523623
 20
6.3202410526
 10
-42.9150609313
 20
6.3336742405
 10
-42.9130733076
 20
6.3470751713
 10
-42.9108506268
 20
6.360437181
 10
-42.9083540247
 20
6.3737536054
 10
-42.9055446369
 20
6.3870177801
 10
-42.9023835991
 20
6.4002230412
 10
-42.898832047
 20
6.4133627243
 10
-42.8958637709
 20
6.4232498191
 10
-42.8926387341
 20
6.4330736462
 10
-42.8891457934
 20
6.4428122626
 10
-42.8853738054
 20
6.4524437254
 10
-42.8813116271
 20
6.4619460916
 10
-42.8769481152
 20
6.4712974182
 10
-42.8722721264
 20
6.4804757622
 10
-42.8672725175
 20
6.4894591806
 10
-42.8619381454
 20
6.4982257303
 10
-42.8562578668
 20
6.5067534685
 10
-42.8502205386
 20
6.5150204521
 10
-42.8442414011
 20
6.5225051932
 10
-42.8379575496
 20
6.5297447042
 10
-42.831386769
 20
6.5367413688
 10
-42.8245468443
 20
6.5434975707
 10
-42.8174555603
 20
6.5500156935
 10
-42.810130702
 20
6.5562981211
 10
-42.8025900542
 20
6.5623472371
 10
-42.7948514018
 20
6.5681654252
 10
-42.7869325298
 20
6.573755069
 10
-42.778851223
 20
6.5791185524
 10
-42.7706252664
 20
6.5842582589
 10
-42.7622724448
 20
6.5891765724
 10
-42.7513766106
 20
6.5951749246
 10
-42.7403116582
 20
6.6008126947
 10
-42.7290885963
 20
6.606090957
 10
-42.7177184336
 20
6.6110107858
 10
-42.7062121789
 20
6.6155732552
 10
-42.694580841
 20
6.6197794396
 10
-42.6828354284
 20
6.6236304132
 10
-42.6709869501
 20
6.6271272503
 10
-42.6590464146
 20
6.6302710251
 10
-42.6470248308
 20
6.6330628119
 10
-42.6349332073
 20
6.635503685
 10
-42.622204104
 20
6.6376895168
 10
-42.609419573
 20
6.6395182133
 10
-42.5965889532
 20
6.6410164706
 10
-42.5837215834
 20
6.6422109843
 10
-42.5708268024
 20
6.6431284503
 10
-42.5579139492
 20
6.6437955645
 10
-42.5449923626
 20
6.6442390226
 10
-42.5320713814
 20
6.6444855206
 10
-42.5191603445
 20
6.6445617542
  0
LWPOLYLINE
  5
4C4
100
AcDbEntity
  8
SCRITTE
100
AcDbPolyline
 62
250
  6
CONTINUOUS
 90
3
 70
0
 10
-42.9287845925
 20
6.2124139992
 10
-42.9271635873
 20
6.2258653326
 10
-42.925657304
 20
6.2393377224
  0
LWPOLYLINE
  5
4C5
100
AcDbEntity
  8
C_COPERCHIO
100
AcDbPolyline
 62
250
  6
CONTINUOUS
 90
6
 70
0
 10
-39.3113666324
 20
26.0536558043
 10
-39.3116647976
 20
26.0519342511
 10
-39.313310586
 20
26.0471323843
 10
-39.3162761107
 20
26.0393316316
 10
-39.3205111127
 20
26.0286642714
 10
-39.3259438122
 20
26.0153111892
  0
LWPOLYLINE
  5
4C6
100
AcDbEntity
  8
0
100
AcDbPolyline
 62
7
  6
CONTINUOUS
 90
3
 70
0
 43
0.3500000087
 10
-31.7751504028
 20
35.9173122986
 10
-31.8465778259
 20
35.703025766
 10
-31.9894369354
 20
35.4173118103
  0
LINE
  5
4C7
100
AcDbEntity
  8
INTF_1
100
AcDbLine
 62
7
  6
CONTINUOUS
 10
-35.0861117774
 20
11.4260669175
 11
-30.1095838422
 21
16.1577529175
  0
LINE
  5
4C8
100
AcDbEntity
  8
0
100
AcDbLine
 62
250
  6
CONTINUOUS
 10
-35.0861117774
 20
11.4260669175
 11
-30.1095838422
 21
16.1577529175
  0
LINE
  5
4C9
100
AcDbEntity
  8
0
100
AcDbLine
 62
250
  6
CONTINUOUS
 10
-27.3104685735
 20
15.4740629175
 11
-26.5137463183
 21
15.9498009175
  0
LINE
  5
4CA
100
AcDbEntity
  8
SCRITTE
100
AcDbLine
 62
250
  6
CONTINUOUS
 10
-42.8742693988
 20
-2.8914720825
 11
-42.1686468849
 21
-2.8914650825
  0
LINE
  5
4CB
100
AcDbEntity
  8
SCRITTE
100
AcDbLine
 62
250
  6
CONTINUOUS
 10
-41.6322065998
 20
-2.8834030825
 11
-40.5110203879
 21
-2.8834680825
  0
LINE
  5
4CC
100
AcDbEntity
  8
C_CORPO
100
AcDbLine
 62
7
  6
CONTINUOUS
 10
-21.3370112588
 20
-3.0977621398
 11
-19.8847178131
 21
-3.2248213524
  0
LINE
  5
4CD
100
AcDbEntity
  8
ASSI
100
AcDbLine
 62
7
  6
CONTINUOUS
 10
-21.3370112588
 20
-3.0977621398
 11
-19.8847178131
 21
-3.2248213524
  0
LWPOLYLINE
  5
4CE
100
AcDbEntity
  8
SCRITTE
100
AcDbPolyline
 62
250
  6
CONTINUOUS
 90
14
 70
0
 10
-41.701942977
 20
-1.7600170825
 10
-41.7916250027
 20
-1.5971496287
 10
-41.9132041512
 20
-1.4564900015
 10
-42.0640259511
 20
-1.3425840822
 10
-42.2325715775
 20
-1.2641312918
 10
-42.4168247236
 20
-1.222070159
 10
-42.6027132878
 20
-1.2196130496
 10
-42.78801349
 20
-1.2567893582
 10
-42.958573261
 20
-1.330759791
 10
-43.1123521988
 20
-1.4406394415
 10
-43.237605631
 20
-1.5780363903
 10
-43.331559894
 20
-1.7384765058
 10
-43.3907677332
 20
-1.91798157
 10
-43.4107105709
 20
-2.1052831724
  0
LWPOLYLINE
  5
4CF
100
AcDbEntity
  8
C_COPERCHIO
100
AcDbPolyline
 62
250
  6
CONTINUOUS
 90
8
 70
0
 10
-39.3113557176
 20
-21.2012870884
 10
-39.3116510356
 20
-21.1995660552
 10
-39.3132947487
 20
-21.1947640723
 10
-39.3162589809
 20
-21.1869625774
 10
-39.3204934614
 20
-21.1762938781
 10
-39.3259263767
 20
-21.1629389068
 10
-39.3324655883
 20
-21.1471241532
 10
-39.3484024134
 20
-21.1092252863
  0
LINE
  5
4D0
100
AcDbEntity
  8
SCRITTE
100
AcDbLine
 62
250
  6
CONTINUOUS
 10
-42.1183185854
 20
6.2933045625
 11
-42.1126633849
 21
6.2393377224
  0
LWPOLYLINE
  5
4D1
100
AcDbEntity
  8
SCRITTE
100
AcDbPolyline
 62
250
  6
CONTINUOUS
 90
52
 70
0
 10
-41.6324025697
 20
6.2509920921
 10
-41.6343476433
 20
6.2966324816
 10
-41.6368052049
 20
6.3422379084
 10
-41.6399718257
 20
6.3877922948
 10
-41.6440440767
 20
6.4332795631
 10
-41.6479932193
 20
6.4689347892
 10
-41.652651869
 20
6.5045159374
 10
-41.6580500348
 20
6.5400002193
 10
-41.6642177261
 20
6.5753648464
 10
-41.6711849521
 20
6.6105870304
 10
-41.6789817219
 20
6.645643983
 10
-41.6876380447
 20
6.6805129157
 10
-41.6971839298
 20
6.7151710401
 10
-41.7055934577
 20
6.7430715168
 10
-41.7146457868
 20
6.7707774807
 10
-41.7243802824
 20
6.7982477084
 10
-41.7348363096
 20
6.8254409765
 10
-41.7460532335
 20
6.8523160617
 10
-41.7580704194
 20
6.8788317406
 10
-41.7709272323
 20
6.9049467898
 10
-41.7846630375
 20
6.9306199861
 10
-41.7993172
 20
6.9558101059
 10
-41.8125880857
 20
6.9769140861
 10
-41.8265503702
 20
6.9975950675
 10
-41.8411964657
 20
7.0178127073
 10
-41.8565187849
 20
7.0375266627
 10
-41.8725097402
 20
7.0566965907
 10
-41.889161744
 20
7.0752821488
 10
-41.906467209
 20
7.0932429939
 10
-41.9244185475
 20
7.1105387833
 10
-41.9430081721
 20
7.1271291742
 10
-41.9622284952
 20
7.1429738237
 10
-41.983465185
 20
7.1590564639
 10
-42.0053634855
 20
7.1742454183
 10
-42.0278723978
 20
7.1885459923
 10
-42.0509409231
 20
7.2019634909
 10
-42.0745180623
 20
7.2145032193
 10
-42.0985528167
 20
7.2261704828
 10
-42.1229941873
 20
7.2369705864
 10
-42.1477911752
 20
7.2469088354
 10
-42.1728927815
 20
7.2559905349
 10
-42.1982480074
 20
7.2642209902
 10
-42.2276424875
 20
7.2726436048
 10
-42.2572748286
 20
7.2800061807
 10
-42.2871152766
 20
7.2863659701
 10
-42.3171340773
 20
7.2917802255
 10
-42.3473014764
 20
7.296306199
 10
-42.3815180663
 20
7.3004170198
 10
-42.4158492618
 20
7.3035211528
 10
-42.4502580492
 20
7.3056721223
 10
-42.4847074146
 20
7.3069234528
 10
-42.5191603445
 20
7.3073286687
  0
LINE
  5
4D2
100
AcDbEntity
  8
SCRITTE
100
AcDbLine
 62
250
  6
CONTINUOUS
 10
-41.6276765654
 20
6.1140219258
 11
-41.6324025697
 21
6.2509920921
  0
LINE
  5
4D3
100
AcDbEntity
  8
C_COPERCHIO
100
AcDbLine
 62
250
  6
CONTINUOUS
 10
-39.50171281
 20
-21.0688644715
 11
-39.5021383328
 21
-21.0427682401
  0
LINE
  5
4D4
100
AcDbEntity
  8
SCRITTE
100
AcDbLine
 62
250
  6
CONTINUOUS
 10
-41.6321996009
 20
-5.3524340825
 11
-41.6321996009
 21
-4.7902400825
  0
LINE
  5
4D5
100
AcDbEntity
  8
SCRITTE
100
AcDbLine
 62
250
  6
CONTINUOUS
 10
-41.6321996009
 20
-2.3771710825
 11
-41.6322065998
 21
-2.8834030825
  0
LINE
  5
4D6
100
AcDbEntity
  8
SCRITTE
100
AcDbLine
 62
250
  6
CONTINUOUS
 10
-41.6276762899
 20
6.1140219175
 11
-41.6276762899
 21
5.8491979175
  0
LINE
  5
4D7
100
AcDbEntity
  8
SCRITTE
100
AcDbLine
 62
250
  6
CONTINUOUS
 10
-41.6074903648
 20
17.5336709175
 11
-41.6074903648
 21
16.7022929175
  0
LINE
  5
4D8
100
AcDbEntity
  8
SCRITTE
100
AcDbLine
 62
250
  6
CONTINUOUS
 10
-41.6074903648
 20
11.5087449175
 11
-41.6074903648
 21
10.6772579175
  0
LINE
  5
4D9
100
AcDbEntity
  8
SCRITTE
100
AcDbLine
 62
250
  6
CONTINUOUS
 10
-41.1256307655
 20
10.5166139175
 11
-41.1256307655
 21
11.6653509175
  0
LINE
  5
4DA
100
AcDbEntity
  8
SCRITTE
100
AcDbLine
 62
250
  6
CONTINUOUS
 10
-41.1256307655
 20
16.5416479175
 11
-41.1256307655
 21
17.6903859175
  0
LINE
  5
4DB
100
AcDbEntity
  8
SCRITTE
100
AcDbLine
 62
250
  6
CONTINUOUS
 10
-41.0812615242
 20
-4.6133110825
 11
-41.0812615242
 21
-5.5293550825
  0
LINE
  5
4DC
100
AcDbEntity
  8
SCRITTE
100
AcDbLine
 62
250
  6
CONTINUOUS
 10
-40.9929439774
 20
8.3195409175
 11
-40.9929439774
 21
9.3925399175
  0
LINE
  5
4DD
100
AcDbEntity
  8
SCRITTE
100
AcDbLine
 62
250
  6
CONTINUOUS
 10
-40.5110053902
 20
-12.5738620825
 11
-40.5110123891
 21
-11.9938180825
  0
LINE
  5
4DE
100
AcDbEntity
  8
SCRITTE
100
AcDbLine
 62
250
  6
CONTINUOUS
 10
-40.5110053902
 20
-10.6760070825
 11
-40.5110123891
 21
-10.0959860825
  0
LINE
  5
4DF
100
AcDbEntity
  8
SCRITTE
100
AcDbLine
 62
250
  6
CONTINUOUS
 10
-40.5110123891
 20
-8.3875810825
 11
-40.5110203879
 21
-7.8075740825
  0
LINE
  5
4E0
100
AcDbEntity
  8
SCRITTE
100
AcDbLine
 62
250
  6
CONTINUOUS
 10
-40.5110203879
 20
-5.7124690825
 11
-40.5110123891
 21
-6.2924900825
  0
LINE
  5
4E1
100
AcDbEntity
  8
SCRITTE
100
AcDbLine
 62
250
  6
CONTINUOUS
 10
-40.511085378
 20
15.4369999175
 11
-40.511085378
 21
14.5533479175
  0
LINE
  5
4E2
100
AcDbEntity
  8
SCRITTE
100
AcDbLine
 62
250
  6
CONTINUOUS
 10
-40.511085378
 20
13.4005719175
 11
-40.511085378
 21
12.8181269175
  0
LINE
  5
4E3
100
AcDbEntity
  8
SCRITTE
100
AcDbLine
 62
250
  6
CONTINUOUS
 10
-40.511085378
 20
9.3925399175
 11
-40.511085378
 21
7.6969349175
  0
LINE
  5
4E4
100
AcDbEntity
  8
SCRITTE
100
AcDbLine
 62
250
  6
CONTINUOUS
 10
-40.511085378
 20
5.2265919175
 11
-40.511085378
 21
5.8491979175
  0
LINE
  5
4E5
100
AcDbEntity
  8
SCRITTE
100
AcDbLine
 62
250
  6
CONTINUOUS
 10
-40.511085378
 20
9.7053159175
 11
-40.511085378
 21
10.2997659175
  0
LINE
  5
4E6
100
AcDbEntity
  8
SCRITTE
100
AcDbLine
 62
250
  6
CONTINUOUS
 10
-40.511085378
 20
11.8742329175
 11
-40.511085378
 21
12.5008759175
  0
LINE
  5
4E7
100
AcDbEntity
  8
SCRITTE
100
AcDbLine
 62
250
  6
CONTINUOUS
 10
-40.511085378
 20
15.7302419175
 11
-40.511085378
 21
16.3246909175
  0
LINE
  5
4E8
100
AcDbEntity
  8
SCRITTE
100
AcDbLine
 62
250
  6
CONTINUOUS
 10
-40.511085378
 20
17.8993759175
 11
-40.511085378
 21
18.5258019175
  0
LINE
  5
4E9
100
AcDbEntity
  8
SCRITTE
100
AcDbLine
 62
250
  6
CONTINUOUS
 10
-40.5110273868
 20
-1.1426120825
 11
-40.5110203879
 21
-1.7959170825
  0
LINE
  5
4EA
100
AcDbEntity
  8
SCRITTE
100
AcDbLine
 62
250
  6
CONTINUOUS
 10
-40.5110203879
 20
-2.8834680825
 11
-40.5110203879
 21
-3.4634970825
  0
LINE
  5
4EB
100
AcDbEntity
  8
SCRITTE
100
AcDbLine
 62
250
  6
CONTINUOUS
 10
-40.5110123891
 20
-9.5159780825
 11
-40.5110123891
 21
-8.9359570825
  0
LINE
  5
4EC
100
AcDbEntity
  8
SCRITTE
100
AcDbLine
 62
250
  6
CONTINUOUS
 10
-40.5110123891
 20
-7.2591910825
 11
-40.5110123891
 21
-6.6791690825
  0
LINE
  5
4ED
100
AcDbEntity
  8
SCRITTE
100
AcDbLine
 62
250
  6
CONTINUOUS
 10
-40.5110123891
 20
-3.8501760825
 11
-40.5110203879
 21
-4.4302050825
  0
LINE
  5
4EE
100
AcDbEntity
  8
0
100
AcDbLine
 62
7
  6
CONTINUOUS
 10
-29.0297213355
 20
15.6234276481
 11
-28.6345900662
 21
16.0185589175
  0
LINE
  5
4EF
100
AcDbEntity
  8
0
100
AcDbLine
 62
7
  6
CONTINUOUS
 10
-29.0297213355
 20
15.2282963788
 11
-28.2394587969
 21
16.0185589175
  0
LINE
  5
4F0
100
AcDbEntity
  8
0
100
AcDbLine
 62
7
  6
CONTINUOUS
 10
-29.0297213355
 20
14.8331651095
 11
-28.010864536
 21
15.852021909
  0
LINE
  5
4F1
100
AcDbEntity
  8
0
100
AcDbLine
 62
7
  6
CONTINUOUS
 10
-29.0297213355
 20
14.4380338401
 11
-28.010864536
 21
15.4568906397
  0
LINE
  5
4F2
100
AcDbEntity
  8
0
100
AcDbLine
 62
7
  6
CONTINUOUS
 10
-29.0297213355
 20
14.0429025708
 11
-28.010864536
 21
15.0617593704
  0
LWPOLYLINE
  5
4F3
100
AcDbEntity
  8
INTF_11
100
AcDbPolyline
 62
7
  6
CONTINUOUS
 90
8
 70
0
 10
-30.1284107944
 20
6.9980709175
 10
-29.7686516259
 20
7.1182788534
 10
-29.4424163452
 20
7.3118096146
 10
-29.1644404163
 20
7.5699217627
 10
-28.9442852687
 20
7.8864207967
 10
-28.7989702814
 20
8.2368393486
 10
-28.7309779539
 20
8.6100573488
 10
-28.7444300593
 20
8.9966068892
  0
LWPOLYLINE
  5
4F4
100
AcDbEntity
  8
0
100
AcDbPolyline
 62
250
  6
CONTINUOUS
 90
8
 70
0
 10
-30.1284107944
 20
6.9980709175
 10
-29.7686516259
 20
7.1182788534
 10
-29.4424163452
 20
7.3118096146
 10
-29.1644404163
 20
7.5699217627
 10
-28.9442852687
 20
7.8864207967
 10
-28.7989702814
 20
8.2368393486
 10
-28.7309779539
 20
8.6100573488
 10
-28.7444300593
 20
8.9966068892
  0
LINE
  5
4F5
100
AcDbEntity
  8
0
100
AcDbLine
 62
250
  6
CONTINUOUS
 10
-30.917841147
 20
-5.0119030825
 11
-31.6322164916
 21
-4.4913860825
  0
LWPOLYLINE
  5
4F6
100
AcDbEntity
  8
SCRITTE
100
AcDbPolyline
 62
250
  6
CONTINUOUS
 90
3
 70
0
 10
-42.1126633849
 20
6.2393377224
 10
-42.1111571017
 20
6.2258653326
 10
-42.1095360964
 20
6.2124139992
  0
LINE
  5
4F7
100
AcDbEntity
  8
C_COPERCHIO
100
AcDbLine
 62
250
  6
CONTINUOUS
 10
-39.5010688308
 20
-21.1192792048
 11
-39.50171281
 21
-21.0688644715
  0
LINE
  5
4F8
100
AcDbEntity
  8
C_COPERCHIO
100
AcDbLine
 62
250
  6
CONTINUOUS
 10
-39.3876691
 20
-19.8407397113
 11
-39.3876691
 21
-21.0178970532
  0
LINE
  5
4F9
100
AcDbEntity
  8
C_COPERCHIO
100
AcDbLine
 62
250
  6
CONTINUOUS
 10
-39.3876691
 20
24.6931335462
 11
-39.3876691
 21
25.8702908881
  0
LINE
  5
4FA
100
AcDbEntity
  8
C_COPERCHIO
100
AcDbLine
 62
7
  6
CONTINUOUS
 10
-39.010864536
 20
-19.8341625631
 11
-39.010864536
 21
-20.7420575104
  0
LINE
  5
4FB
100
AcDbEntity
  8
C_COPERCHIO
100
AcDbLine
 62
7
  6
CONTINUOUS
 10
-39.010864536
 20
24.686556398
 11
-39.010864536
 21
25.5945665559
  0
LINE
  5
4FC
100
AcDbEntity
  8
SCRITTE
100
AcDbLine
 62
250
  6
CONTINUOUS
 10
-38.910864536
 20
14.3574469175
 11
-38.910864536
 21
14.5949469175
  0
LINE
  5
4FD
100
AcDbEntity
  8
SCRITTE
100
AcDbLine
 62
250
  6
CONTINUOUS
 10
-38.910864536
 20
18.0386969175
 11
-38.910864536
 21
18.7511969175
  0
LINE
  5
4FE
100
AcDbEntity
  8
SCRITTE
100
AcDbLine
 62
250
  6
CONTINUOUS
 10
-38.2775312404
 20
18.3949469175
 11
-38.2775312404
 21
18.1574469175
  0
LINE
  5
4FF
100
AcDbEntity
  8
C_COPERCHIO
100
AcDbLine
 62
250
  6
CONTINUOUS
 10
-39.50069326
 20
26.0365373754
 11
-39.5008613978
 21
25.9951258528
  0
LWPOLYLINE
  5
500
100
AcDbEntity
  8
C_COPERCHIO
100
AcDbPolyline
 62
250
  6
CONTINUOUS
 90
4
 70
0
 10
-39.5008613978
 20
25.9951258528
 10
-39.5013542869
 20
25.9469057373
 10
-39.501712826
 20
25.921256903
 10
-39.5021383328
 20
25.895162075
  0
LINE
  5
501
100
AcDbEntity
  8
C_COPERCHIO
100
AcDbLine
 62
7
  6
CONTINUOUS
 10
-39.010864536
 20
-20.7428131644
 11
-39.0117570228
 21
-20.7726751158
  0
LINE
  5
502
100
AcDbEntity
  8
C_COPERCHIO
100
AcDbLine
 62
250
  6
CONTINUOUS
 10
-48.7003973447
 20
-19.88525842
 11
-48.7002745483
 21
-19.8849729125
  0
LINE
  5
503
100
AcDbEntity
  8
0
100
AcDbLine
 62
7
  6
CONTINUOUS
 10
-29.0297213355
 20
13.6477713015
 11
-28.010864536
 21
14.666628101
  0
LINE
  5
504
100
AcDbEntity
  8
0
100
AcDbLine
 62
7
  6
CONTINUOUS
 10
-29.0297213355
 20
13.2526400322
 11
-28.010864536
 21
14.2714968317
  0
LINE
  5
505
100
AcDbEntity
  8
0
100
AcDbLine
 62
7
  6
CONTINUOUS
 10
-29.0297213355
 20
12.8575087628
 11
-28.010864536
 21
13.8763655624
  0
LINE
  5
506
100
AcDbEntity
  8
0
100
AcDbLine
 62
7
  6
CONTINUOUS
 10
-29.0297213355
 20
12.4623774935
 11
-28.010864536
 21
13.481234293
  0
LINE
  5
507
100
AcDbEntity
  8
0
100
AcDbLine
 62
7
  6
CONTINUOUS
 10
-29.0297213355
 20
12.0672462242
 11
-28.010864536
 21
13.0861030237
  0
LINE
  5
508
100
AcDbEntity
  8
0
100
AcDbLine
 62
7
  6
CONTINUOUS
 10
-28.8680013729
 20
11.8338349175
 11
-28.010864536
 21
12.6909717544
  0
LINE
  5
509
100
AcDbEntity
  8
0
100
AcDbLine
 62
7
  6
CONTINUOUS
 10
-28.4728701036
 20
11.8338349175
 11
-28.010864536
 21
12.2958404851
  0
LINE
  5
50A
100
AcDbEntity
  8
C_COPERCHIO
100
AcDbLine
 62
250
  6
CONTINUOUS
 10
-48.7002737669
 20
24.7373667884
 11
-48.7003973447
 21
24.7376522549
  0
LINE
  5
50B
100
AcDbEntity
  8
SCRITTE
100
AcDbLine
 62
250
  6
CONTINUOUS
 10
-37.485864536
 20
16.9699469175
 11
-37.485864536
 21
15.9011969175
  0
LINE
  5
50C
100
AcDbEntity
  8
SCRITTE
100
AcDbLine
 62
250
  6
CONTINUOUS
 10
-37.485864536
 20
13.1699469175
 11
-37.485864536
 21
12.1011969175
  0
LINE
  5
50D
100
AcDbEntity
  8
SCRITTE
100
AcDbLine
 62
250
  6
CONTINUOUS
 10
-37.010864536
 20
14.0011969175
 11
-37.010864536
 21
14.9511969175
  0
LINE
  5
50E
100
AcDbEntity
  8
SCRITTE
100
AcDbLine
 62
250
  6
CONTINUOUS
 10
-37.010864536
 20
18.1574469175
 11
-37.010864536
 21
18.3949469175
  0
LINE
  5
50F
100
AcDbEntity
  8
C_COPERCHIO
100
AcDbLine
 62
250
  6
CONTINUOUS
 10
-36.5021383328
 20
23.7502175173
 11
-36.5021383328
 21
23.4091783139
  0
LINE
  5
510
100
AcDbEntity
  8
C_COPERCHIO
100
AcDbLine
 62
250
  6
CONTINUOUS
 10
-36.5021383328
 20
-18.556784479
 11
-36.5021383328
 21
-18.8978236824
  0
LINE
  5
511
100
AcDbEntity
  8
C_COPERCHIO
100
AcDbLine
 62
250
  6
CONTINUOUS
 10
-36.3082465753
 20
23.4108703816
 11
-36.3082465753
 21
23.2761969175
  0
LINE
  5
512
100
AcDbEntity
  8
C_COPERCHIO
100
AcDbLine
 62
250
  6
CONTINUOUS
 10
-36.3082465753
 20
-18.4238030825
 11
-36.3082465753
 21
-18.5584765467
  0
LINE
  5
513
100
AcDbEntity
  8
C_COPERCHIO
100
AcDbLine
 62
7
  6
CONTINUOUS
 10
-36.010864536
 20
23.6514939401
 11
-36.010864536
 21
23.2761969175
  0
LINE
  5
514
100
AcDbEntity
  8
C_COPERCHIO
100
AcDbLine
 62
7
  6
CONTINUOUS
 10
-36.010864536
 20
-18.4238030825
 11
-36.010864536
 21
-18.7991001052
  0
LINE
  5
515
100
AcDbEntity
  8
C_CORPO
100
AcDbLine
 62
7
  6
CONTINUOUS
 10
-36.010864536
 20
-18.4238030825
 11
-36.010864536
 21
-16.8919336417
  0
LINE
  5
516
100
AcDbEntity
  8
ASSI
100
AcDbLine
 62
7
  6
CONTINUOUS
 10
-36.010864536
 20
-18.4238030825
 11
-36.010864536
 21
-16.8919336417
  0
LINE
  5
517
100
AcDbEntity
  8
C_CORPO
100
AcDbLine
 62
7
  6
CONTINUOUS
 10
-36.010864536
 20
21.7443274766
 11
-36.010864536
 21
23.2761969175
  0
LINE
  5
518
100
AcDbEntity
  8
ASSI
100
AcDbLine
 62
7
  6
CONTINUOUS
 10
-36.010864536
 20
21.7443274766
 11
-36.010864536
 21
23.2761969175
  0
LWPOLYLINE
  5
519
100
AcDbEntity
  8
C_COPERCHIO
100
AcDbPolyline
 62
250
  6
CONTINUOUS
 90
4
 70
0
 10
-39.010864536
 20
-20.7428135507
 10
-39.0131495492
 20
-20.7687229194
 10
-39.0199233644
 20
-20.7938791575
 10
-39.0310261775
 20
-20.818282265
  0
LWPOLYLINE
  5
51A
100
AcDbEntity
  8
INTF_1
100
AcDbPolyline
 62
7
  6
CONTINUOUS
 90
36
 70
0
 10
-34.6268518118
 20
14.3422733555
 10
-34.6189926123
 20
14.3965055597
 10
-34.6148588183
 20
14.4235585174
 10
-34.6105064994
 20
14.4505841079
 10
-34.605873859
 20
14.4775933778
 10
-34.6008991007
 20
14.5045973739
 10
-34.5955204279
 20
14.5316071428
 10
-34.5896760441
 20
14.5586337315
 10
-34.5853734354
 20
14.5771630503
 10
-34.5808175114
 20
14.5956910386
 10
-34.5760025747
 20
14.6142032847
 10
-34.5709229283
 20
14.6326853773
 10
-34.5655728748
 20
14.651122905
 10
-34.5599467172
 20
14.6695014562
 10
-34.5540387582
 20
14.6878066197
 10
-34.5478433006
 20
14.7060239838
 10
-34.5413546473
 20
14.7241391373
 10
-34.534567101
 20
14.7421376686
 10
-34.5274749645
 20
14.7600051663
 10
-34.5200725407
 20
14.777727219
 10
-34.5123541323
 20
14.7952894153
 10
-34.5043140422
 20
14.8126773437
 10
-34.4959465732
 20
14.8298765928
 10
-34.487246028
 20
14.8468727511
 10
-34.4782067095
 20
14.8636514072
 10
-34.4688229205
 20
14.8801981496
 10
-34.4590889638
 20
14.896498567
 10
-34.4489991421
 20
14.9125382479
 10
-34.4385477584
 20
14.9283027809
 10
-34.4277291153
 20
14.9437777544
 10
-34.4165375158
 20
14.9589487572
 10
-34.4049672626
 20
14.9738013777
 10
-34.3930126585
 20
14.9883212045
 10
-34.3806680063
 20
15.0024938262
 10
-34.3679276088
 20
15.0163048313
 10
-34.3547857689
 20
15.0297398084
  0
LINE
  5
51B
100
AcDbEntity
  8
0
100
AcDbLine
 62
7
  6
CONTINUOUS
 10
-28.0777388343
 20
11.8338349175
 11
-28.010864536
 21
11.9007092157
  0
LINE
  5
51C
100
AcDbEntity
  8
0
100
AcDbLine
 62
250
  6
CONTINUOUS
 10
-26.010864536
 20
10.8813779175
 11
-27.3104685735
 21
9.8492529175
  0
LINE
  5
51D
100
AcDbEntity
  8
SCRITTE
100
AcDbLine
 62
250
  6
CONTINUOUS
 10
-41.7019409773
 20
-1.7600150825
 11
-40.5110273868
 21
-1.1426120825
  0
LINE
  5
51E
100
AcDbEntity
  8
0
100
AcDbLine
 62
250
  6
CONTINUOUS
 10
-26.010864536
 20
6.1664209175
 11
-27.3104685735
 21
5.5960869175
  0
LINE
  5
51F
100
AcDbEntity
  8
0
100
AcDbLine
 62
250
  6
CONTINUOUS
 10
-27.3104685735
 20
3.6061969175
 11
-26.010864536
 21
3.6061969175
  0
LINE
  5
520
100
AcDbEntity
  8
INTF_11
100
AcDbLine
 62
7
  6
CONTINUOUS
 10
-33.0476841072
 20
4.6616069175
 11
-32.2772754621
 21
4.6616069175
  0
LINE
  5
521
100
AcDbEntity
  8
0
100
AcDbLine
 62
250
  6
CONTINUOUS
 10
-33.0476841072
 20
4.6616069175
 11
-32.2772754621
 21
4.6616069175
  0
LINE
  5
522
100
AcDbEntity
  8
INTF_11
100
AcDbLine
 62
7
  6
CONTINUOUS
 10
-28.7444296135
 20
4.6616069175
 11
-27.9740209684
 21
4.6616069175
  0
LINE
  5
523
100
AcDbEntity
  8
0
100
AcDbLine
 62
250
  6
CONTINUOUS
 10
-28.7444296135
 20
4.6616069175
 11
-27.9740209684
 21
4.6616069175
  0
LWPOLYLINE
  5
524
100
AcDbEntity
  8
0
100
AcDbPolyline
 62
250
  6
CONTINUOUS
 90
60
 70
0
 10
-34.6369715261
 20
13.7692695879
 10
-34.6359666958
 20
13.7430503515
 10
-34.6348186927
 20
13.7169419399
 10
-34.6335010387
 20
13.6909354428
 10
-34.6319872562
 20
13.6650219498
 10
-34.6302508672
 20
13.6391925506
 10
-34.6282653939
 20
13.6134383347
 10
-34.6260043584
 20
13.587750392
 10
-34.6234412828
 20
13.562119812
 10
-34.6205496894
 20
13.5365376844
 10
-34.6173031003
 20
13.5109950988
 10
-34.6136750375
 20
13.4854831449
 10
-34.6096390233
 20
13.4599929123
 10
-34.6051685798
 20
13.4345154907
 10
-34.6002372291
 20
13.4090419698
 10
-34.5948184934
 20
13.3835634391
 10
-34.5888858948
 20
13.3580709885
 10
-34.5824129554
 20
13.3325557074
 10
-34.5753731975
 20
13.3070086855
 10
-34.5677401431
 20
13.2814210126
 10
-34.5594873144
 20
13.2557837782
 10
-34.5505882336
 20
13.2300880721
 10
-34.5410164227
 20
13.2043249838
 10
-34.530745404
 20
13.178485603
 10
-34.5197486995
 20
13.1525610194
 10
-34.5079998315
 20
13.1265423226
 10
-34.4954723219
 20
13.1004206024
 10
-34.4894583142
 20
13.0884054336
 10
-34.4832739049
 20
13.0763901915
 10
-34.4769181022
 20
13.0643983557
 10
-34.4703899143
 20
13.0524534056
 10
-34.4636883491
 20
13.0405788204
 10
-34.456812415
 20
13.0287980797
 10
-34.4497611199
 20
13.0171346629
 10
-34.442533472
 20
13.0056120494
 10
-34.4351284794
 20
12.9942537186
 10
-34.4275451502
 20
12.9830831499
 10
-34.4197824925
 20
12.9721238227
 10
-34.4118395145
 20
12.9613992165
 10
-34.4037152243
 20
12.9509328107
 10
-34.39540863
 20
12.9407480846
 10
-34.3869187397
 20
12.9308685178
 10
-34.3782445615
 20
12.9213175896
 10
-34.3693851035
 20
12.9121187794
 10
-34.3603393739
 20
12.9032955667
 10
-34.3511063808
 20
12.8948714309
 10
-34.3416851323
 20
12.8868698513
 10
-34.3320746365
 20
12.8793143075
 10
-34.3222739015
 20
12.8722282788
 10
-34.3122819354
 20
12.8656352446
 10
-34.3020977465
 20
12.8595586844
 10
-34.2917203427
 20
12.8540220776
 10
-34.2811487322
 20
12.8490489035
 10
-34.2703819231
 20
12.8446626417
 10
-34.2594189235
 20
12.8408867715
 10
-34.2482587416
 20
12.8377447723
 10
-34.2369003855
 20
12.8352601236
 10
-34.2253428632
 20
12.8334563048
 10
-34.213585183
 20
12.8323567952
 10
-34.2016263528
 20
12.8319850744
  0
LINE
  5
525
100
AcDbEntity
  8
C_CORPO
100
AcDbLine
 62
250
  6
CONTINUOUS
 10
-35.1213103669
 20
-13.7902752545
 11
-35.1216253679
 21
-13.7779695646
  0
LINE
  5
526
100
AcDbEntity
  8
ASSI
100
AcDbLine
 62
250
  6
CONTINUOUS
 10
-35.1213103669
 20
-13.7902752545
 11
-35.1216253679
 21
-13.7779695646
  0
LINE
  5
527
100
AcDbEntity
  8
C_CORPO
100
AcDbLine
 62
250
  6
CONTINUOUS
 10
-35.1216253679
 20
-13.7779695646
 11
-35.1219131447
 21
-13.7632708912
  0
LINE
  5
528
100
AcDbEntity
  8
ASSI
100
AcDbLine
 62
250
  6
CONTINUOUS
 10
-35.1216253679
 20
-13.7779695646
 11
-35.1219131447
 21
-13.7632708912
  0
LINE
  5
529
100
AcDbEntity
  8
C_CORPO
100
AcDbLine
 62
250
  6
CONTINUOUS
 10
-35.1219131447
 20
-13.7632708912
 11
-35.1222928411
 21
-13.7368341387
  0
LINE
  5
52A
100
AcDbEntity
  8
ASSI
100
AcDbLine
 62
250
  6
CONTINUOUS
 10
-35.1219131447
 20
-13.7632708912
 11
-35.1222928411
 21
-13.7368341387
  0
LINE
  5
52B
100
AcDbEntity
  8
C_CORPO
100
AcDbLine
 62
250
  6
CONTINUOUS
 10
-35.1222928411
 20
-13.7368341387
 11
-35.1226992784
 21
-13.6936089968
  0
LINE
  5
52C
100
AcDbEntity
  8
ASSI
100
AcDbLine
 62
250
  6
CONTINUOUS
 10
-35.1222928411
 20
-13.7368341387
 11
-35.1226992784
 21
-13.6936089968
  0
LINE
  5
52D
100
AcDbEntity
  8
C_CORPO
100
AcDbLine
 62
250
  6
CONTINUOUS
 10
-35.1195907392
 20
17.6677740063
 11
-35.1211432014
 21
17.8655236584
  0
LINE
  5
52E
100
AcDbEntity
  8
ASSI
100
AcDbLine
 62
250
  6
CONTINUOUS
 10
-35.1195907392
 20
17.6677740063
 11
-35.1211432014
 21
17.8655236584
  0
LINE
  5
52F
100
AcDbEntity
  8
C_CORPO
100
AcDbLine
 62
250
  6
CONTINUOUS
 10
-35.1211432014
 20
17.8655236584
 11
-35.1222928648
 21
18.0560709548
  0
LINE
  5
530
100
AcDbEntity
  8
ASSI
100
AcDbLine
 62
250
  6
CONTINUOUS
 10
-35.1211432014
 20
17.8655236584
 11
-35.1222928648
 21
18.0560709548
  0
LINE
  5
531
100
AcDbEntity
  8
C_CORPO
100
AcDbLine
 62
250
  6
CONTINUOUS
 10
-35.1226992784
 20
-13.6936089968
 11
-35.12308747
 21
-13.6125061672
  0
LINE
  5
532
100
AcDbEntity
  8
ASSI
100
AcDbLine
 62
250
  6
CONTINUOUS
 10
-35.1226992784
 20
-13.6936089968
 11
-35.12308747
 21
-13.6125061672
  0
LINE
  5
533
100
AcDbEntity
  8
C_CORPO
100
AcDbLine
 62
250
  6
CONTINUOUS
 10
-35.1222928648
 20
18.0560709548
 11
-35.1229271322
 21
18.210224933
  0
LINE
  5
534
100
AcDbEntity
  8
ASSI
100
AcDbLine
 62
250
  6
CONTINUOUS
 10
-35.1222928648
 20
18.0560709548
 11
-35.1229271322
 21
18.210224933
  0
LINE
  5
535
100
AcDbEntity
  8
C_CORPO
100
AcDbLine
 62
250
  6
CONTINUOUS
 10
-35.1229271322
 20
18.210224933
 11
-35.1231947413
 21
18.3479170481
  0
LINE
  5
536
100
AcDbEntity
  8
ASSI
100
AcDbLine
 62
250
  6
CONTINUOUS
 10
-35.1229271322
 20
18.210224933
 11
-35.1231947413
 21
18.3479170481
  0
LINE
  5
537
100
AcDbEntity
  8
C_CORPO
100
AcDbLine
 62
7
  6
CONTINUOUS
 10
-35.610864536
 20
-16.7705701259
 11
-35.610864536
 21
-13.9255668772
  0
LINE
  5
538
100
AcDbEntity
  8
ASSI
100
AcDbLine
 62
7
  6
CONTINUOUS
 10
-35.610864536
 20
-16.7705701259
 11
-35.610864536
 21
-13.9255668772
  0
LINE
  5
539
100
AcDbEntity
  8
C_CORPO
100
AcDbLine
 62
7
  6
CONTINUOUS
 10
-35.610864536
 20
18.7779607121
 11
-35.610864536
 21
21.6229639608
  0
LINE
  5
53A
100
AcDbEntity
  8
ASSI
100
AcDbLine
 62
7
  6
CONTINUOUS
 10
-35.610864536
 20
18.7779607121
 11
-35.610864536
 21
21.6229639608
  0
LINE
  5
53B
100
AcDbEntity
  8
INTF_1
100
AcDbLine
 62
7
  6
CONTINUOUS
 10
-34.5961844071
 20
13.1444129175
 11
-34.5961844071
 21
13.2437869175
  0
LINE
  5
53C
100
AcDbEntity
  8
0
100
AcDbLine
 62
250
  6
CONTINUOUS
 10
-34.5961844071
 20
13.1444129175
 11
-34.5961844071
 21
13.2437869175
  0
LINE
  5
53D
100
AcDbEntity
  8
INTF_1
100
AcDbLine
 62
7
  6
CONTINUOUS
 10
-34.2016265093
 20
12.6162239175
 11
-34.2016265093
 21
15.0541309175
  0
LINE
  5
53E
100
AcDbEntity
  8
0
100
AcDbLine
 62
250
  6
CONTINUOUS
 10
-34.2016265093
 20
12.6162239175
 11
-34.2016265093
 21
15.0541309175
  0
LINE
  5
53F
100
AcDbEntity
  8
INTF_1
100
AcDbLine
 62
7
  6
CONTINUOUS
 10
-33.8387717823
 20
14.9940839175
 11
-33.8387717823
 21
15.3441439175
  0
LINE
  5
540
100
AcDbEntity
  8
0
100
AcDbLine
 62
250
  6
CONTINUOUS
 10
-33.8387717823
 20
14.9940839175
 11
-33.8387717823
 21
15.3441439175
  0
LINE
  5
541
100
AcDbEntity
  8
C_CORPO
100
AcDbLine
 62
250
  6
CONTINUOUS
 10
-35.12308747
 20
-13.6125061672
 11
-35.1231947413
 21
-13.4955232132
  0
LINE
  5
542
100
AcDbEntity
  8
ASSI
100
AcDbLine
 62
250
  6
CONTINUOUS
 10
-35.12308747
 20
-13.6125061672
 11
-35.1231947413
 21
-13.4955232132
  0
LINE
  5
543
100
AcDbEntity
  8
INTF_1
100
AcDbLine
 62
7
  6
CONTINUOUS
 10
-34.6891442467
 20
13.7692699175
 11
-34.6885863317
 21
14.3422729175
  0
LINE
  5
544
100
AcDbEntity
  8
0
100
AcDbLine
 62
250
  6
CONTINUOUS
 10
-34.6891442467
 20
13.7692699175
 11
-34.6885863317
 21
14.3422729175
  0
LINE
  5
545
100
AcDbEntity
  8
INTF_1
100
AcDbLine
 62
7
  6
CONTINUOUS
 10
-34.4711254571
 20
14.3422729175
 11
-34.4716833721
 21
13.7692699175
  0
LINE
  5
546
100
AcDbEntity
  8
0
100
AcDbLine
 62
250
  6
CONTINUOUS
 10
-34.4711254571
 20
14.3422729175
 11
-34.4716833721
 21
13.7692699175
  0
LINE
  5
547
100
AcDbEntity
  8
C_CORPO
100
AcDbLine
 62
250
  6
CONTINUOUS
 10
-35.1231947413
 20
18.3479170481
 11
-35.12308747
 21
18.4649000021
  0
LINE
  5
548
100
AcDbEntity
  8
ASSI
100
AcDbLine
 62
250
  6
CONTINUOUS
 10
-35.1231947413
 20
18.3479170481
 11
-35.12308747
 21
18.4649000021
  0
LINE
  5
549
100
AcDbEntity
  8
C_CORPO
100
AcDbLine
 62
250
  6
CONTINUOUS
 10
-35.1231947413
 20
-13.4955232132
 11
-35.1229271322
 21
-13.3578310981
  0
LINE
  5
54A
100
AcDbEntity
  8
ASSI
100
AcDbLine
 62
250
  6
CONTINUOUS
 10
-35.1231947413
 20
-13.4955232132
 11
-35.1229271322
 21
-13.3578310981
  0
LINE
  5
54B
100
AcDbEntity
  8
C_CORPO
100
AcDbLine
 62
250
  6
CONTINUOUS
 10
-35.1229271322
 20
-13.3578310981
 11
-35.1222928648
 21
-13.2036771199
  0
LINE
  5
54C
100
AcDbEntity
  8
ASSI
100
AcDbLine
 62
250
  6
CONTINUOUS
 10
-35.1229271322
 20
-13.3578310981
 11
-35.1222928648
 21
-13.2036771199
  0
LINE
  5
54D
100
AcDbEntity
  8
C_CORPO
100
AcDbLine
 62
250
  6
CONTINUOUS
 10
-35.12308747
 20
18.4649000021
 11
-35.1226992784
 21
18.5460028317
  0
LINE
  5
54E
100
AcDbEntity
  8
ASSI
100
AcDbLine
 62
250
  6
CONTINUOUS
 10
-35.12308747
 20
18.4649000021
 11
-35.1226992784
 21
18.5460028317
  0
LINE
  5
54F
100
AcDbEntity
  8
C_CORPO
100
AcDbLine
 62
250
  6
CONTINUOUS
 10
-35.1222928648
 20
-13.2036771199
 11
-35.1211432014
 21
-13.0131298235
  0
LINE
  5
550
100
AcDbEntity
  8
ASSI
100
AcDbLine
 62
250
  6
CONTINUOUS
 10
-35.1222928648
 20
-13.2036771199
 11
-35.1211432014
 21
-13.0131298235
  0
LINE
  5
551
100
AcDbEntity
  8
C_CORPO
100
AcDbLine
 62
250
  6
CONTINUOUS
 10
-35.1211432014
 20
-13.0131298235
 11
-35.1195907392
 21
-12.8153801714
  0
LINE
  5
552
100
AcDbEntity
  8
ASSI
100
AcDbLine
 62
250
  6
CONTINUOUS
 10
-35.1211432014
 20
-13.0131298235
 11
-35.1195907392
 21
-12.8153801714
  0
LINE
  5
553
100
AcDbEntity
  8
C_CORPO
100
AcDbLine
 62
250
  6
CONTINUOUS
 10
-35.1226992784
 20
18.5460028317
 11
-35.1222928411
 21
18.5892279736
  0
LINE
  5
554
100
AcDbEntity
  8
ASSI
100
AcDbLine
 62
250
  6
CONTINUOUS
 10
-35.1226992784
 20
18.5460028317
 11
-35.1222928411
 21
18.5892279736
  0
LINE
  5
555
100
AcDbEntity
  8
C_CORPO
100
AcDbLine
 62
250
  6
CONTINUOUS
 10
-35.1222928411
 20
18.5892279736
 11
-35.1219131447
 21
18.6156647261
  0
LINE
  5
556
100
AcDbEntity
  8
ASSI
100
AcDbLine
 62
250
  6
CONTINUOUS
 10
-35.1222928411
 20
18.5892279736
 11
-35.1219131447
 21
18.6156647261
  0
LWPOLYLINE
  5
557
100
AcDbEntity
  8
C_CORPO
100
AcDbPolyline
 62
7
  6
CONTINUOUS
 90
38
 70
0
 10
-35.610864536
 20
-13.9255655547
 10
-35.610318282
 20
-13.8959655485
 10
-35.6089429086
 20
-13.8665712027
 10
-35.6067384159
 20
-13.8373825173
 10
-35.603665067
 20
-13.8083886635
 10
-35.5997625988
 20
-13.7796004701
 10
-35.5951502215
 20
-13.7510504233
 10
-35.589832843
 20
-13.7227438708
 10
-35.5838055555
 20
-13.694675465
 10
-35.5771728458
 20
-13.6668616495
 10
-35.5699389437
 20
-13.639306254
 10
-35.5620996193
 20
-13.6120054488
 10
-35.5537466699
 20
-13.5849641883
 10
-35.5448836724
 20
-13.558185204
 10
-35.5355070497
 20
-13.5316657644
 10
-35.5256978685
 20
-13.5054026299
 10
-35.5154591805
 20
-13.4793978058
 10
-35.5047879339
 20
-13.4536492867
 10
-35.493756039
 20
-13.428147817
 10
-35.4823660542
 20
-13.4028947637
 10
-35.470615421
 20
-13.3778887597
 10
-35.458568375
 20
-13.3531164491
 10
-35.4462270743
 20
-13.3285787812
 10
-35.4335893607
 20
-13.3042748066
 10
-35.4207129955
 20
-13.2801883214
 10
-35.4075997792
 20
-13.2563199032
 10
-35.3942479114
 20
-13.2326689743
 10
-35.3807097513
 20
-13.2092175983
 10
-35.3669867683
 20
-13.1859660091
 10
-35.353077493
 20
-13.1629139727
 10
-35.339029877
 20
-13.1400428503
 10
-35.3248451293
 20
-13.1173526661
 10
-35.3105220408
 20
-13.0948433959
 10
-35.2961049361
 20
-13.0724963281
 10
-35.2815947521
 20
-13.0503111524
 10
-35.2669905518
 20
-13.0282881792
 10
-35.2523338488
 20
-13.0064096281
 10
-35.2376253307
 20
-12.9846750383
  0
LWPOLYLINE
  5
558
100
AcDbEntity
  8
ASSI
100
AcDbPolyline
 62
7
  6
CONTINUOUS
 90
38
 70
0
 10
-35.610864536
 20
-13.9255655547
 10
-35.610318282
 20
-13.8959655485
 10
-35.6089429086
 20
-13.8665712027
 10
-35.6067384159
 20
-13.8373825173
 10
-35.603665067
 20
-13.8083886635
 10
-35.5997625988
 20
-13.7796004701
 10
-35.5951502215
 20
-13.7510504233
 10
-35.589832843
 20
-13.7227438708
 10
-35.5838055555
 20
-13.694675465
 10
-35.5771728458
 20
-13.6668616495
 10
-35.5699389437
 20
-13.639306254
 10
-35.5620996193
 20
-13.6120054488
 10
-35.5537466699
 20
-13.5849641883
 10
-35.5448836724
 20
-13.558185204
 10
-35.5355070497
 20
-13.5316657644
 10
-35.5256978685
 20
-13.5054026299
 10
-35.5154591805
 20
-13.4793978058
 10
-35.5047879339
 20
-13.4536492867
 10
-35.493756039
 20
-13.428147817
 10
-35.4823660542
 20
-13.4028947637
 10
-35.470615421
 20
-13.3778887597
 10
-35.458568375
 20
-13.3531164491
 10
-35.4462270743
 20
-13.3285787812
 10
-35.4335893607
 20
-13.3042748066
 10
-35.4207129955
 20
-13.2801883214
 10
-35.4075997792
 20
-13.2563199032
 10
-35.3942479114
 20
-13.2326689743
 10
-35.3807097513
 20
-13.2092175983
 10
-35.3669867683
 20
-13.1859660091
 10
-35.353077493
 20
-13.1629139727
 10
-35.339029877
 20
-13.1400428503
 10
-35.3248451293
 20
-13.1173526661
 10
-35.3105220408
 20
-13.0948433959
 10
-35.2961049361
 20
-13.0724963281
 10
-35.2815947521
 20
-13.0503111524
 10
-35.2669905518
 20
-13.0282881792
 10
-35.2523338488
 20
-13.0064096281
 10
-35.2376253307
 20
-12.9846750383
  0
LINE
  5
559
100
AcDbEntity
  8
C_CORPO
100
AcDbLine
 62
250
  6
CONTINUOUS
 10
-35.1219131447
 20
18.6156647261
 11
-35.1216253679
 21
18.6303633996
  0
LINE
  5
55A
100
AcDbEntity
  8
ASSI
100
AcDbLine
 62
250
  6
CONTINUOUS
 10
-35.1219131447
 20
18.6156647261
 11
-35.1216253679
 21
18.6303633996
  0
LWPOLYLINE
  5
55B
100
AcDbEntity
  8
C_CORPO
100
AcDbPolyline
 62
250
  6
CONTINUOUS
 90
11
 70
0
 10
-35.1216253679
 20
18.6303633996
 10
-35.1213103669
 20
18.6426690894
 10
-35.12114316
 20
18.6479098943
 10
-35.1209692618
 20
18.6525383523
 10
-35.1207896172
 20
18.6565493039
 10
-35.120603893
 20
18.6599418058
 10
-35.1204119052
 20
18.6627152851
 10
-35.1202147615
 20
18.6648682966
 10
-35.1200126193
 20
18.6664020818
 10
-35.1198047144
 20
18.6673191201
 10
-35.1195907392
 20
18.6676217014
  0
LWPOLYLINE
  5
55C
100
AcDbEntity
  8
ASSI
100
AcDbPolyline
 62
250
  6
CONTINUOUS
 90
11
 70
0
 10
-35.1216253679
 20
18.6303633996
 10
-35.1213103669
 20
18.6426690894
 10
-35.12114316
 20
18.6479098943
 10
-35.1209692618
 20
18.6525383523
 10
-35.1207896172
 20
18.6565493039
 10
-35.120603893
 20
18.6599418058
 10
-35.1204119052
 20
18.6627152851
 10
-35.1202147615
 20
18.6648682966
 10
-35.1200126193
 20
18.6664020818
 10
-35.1198047144
 20
18.6673191201
 10
-35.1195907392
 20
18.6676217014
  0
LWPOLYLINE
  5
55D
100
AcDbEntity
  8
C_COPERCHIO
100
AcDbPolyline
 62
250
  6
CONTINUOUS
 90
9
 70
0
 10
-39.5021383328
 20
-21.2427377791
 10
-39.5017128093
 20
-21.2410197259
 10
-39.501354264
 20
-21.2359108482
 10
-39.5010688294
 20
-21.2274985265
 10
-39.5008613875
 20
-21.2159266424
 10
-39.5007354863
 20
-21.2013931173
 10
-39.5006932788
 20
-21.1841465275
 10
-39.5007354868
 20
-21.1644818527
 10
-39.5010688308
 20
-21.1192792048
  0
LWPOLYLINE
  5
55E
100
AcDbEntity
  8
C_CORPO
100
AcDbPolyline
 62
250
  6
CONTINUOUS
 90
73
 70
0
 10
-21.3370112588
 20
9.298259045
 10
-21.3395033948
 20
9.2967850878
 10
-21.3420797616
 20
9.2950468859
 10
-21.3447399431
 20
9.293043401
 10
-21.3474831131
 20
9.290790464
 10
-21.3503091206
 20
9.2882701255
 10
-21.3532184824
 20
9.2854307201
 10
-21.3562138456
 20
9.2822666446
 10
-21.3592912291
 20
9.2787814573
 10
-21.3624411529
 20
9.2749375388
 10
-21.3656639707
 20
9.2707286799
 10
-21.3689577041
 20
9.2661596408
 10
-21.3723093998
 20
9.2612098375
 10
-21.3757162587
 20
9.2558775212
 10
-21.3791792505
 20
9.250163858
 10
-21.3826911139
 20
9.2440532069
 10
-21.3862434823
 20
9.237558301
 10
-21.3898426781
 20
9.2306666048
 10
-21.3935032793
 20
9.2233247277
 10
-21.3972205346
 20
9.2155434746
 10
-21.4009963931
 20
9.2073123366
 10
-21.404854884
 20
9.1985457214
 10
-21.4087945655
 20
9.189246225
 10
-21.4128127483
 20
9.1794116309
 10
-21.416930707
 20
9.1689489859
 10
-21.4211461286
 20
9.157858765
 10
-21.425455425
 20
9.1461414582
 10
-21.4298768714
 20
9.1337042879
 10
-21.4344181098
 20
9.1205092712
 10
-21.4390630579
 20
9.1065964189
 10
-21.4437938542
 20
9.0919905829
 10
-21.4486025874
 20
9.0766947972
 10
-21.4534877427
 20
9.0607102295
 10
-21.458441009
 20
9.044059537
 10
-21.4634417339
 20
9.0267936846
 10
-21.4684997557
 20
9.0088674232
 10
-21.473650593
 20
8.9901589629
 10
-21.4788818097
 20
8.9706847513
 10
-21.4841892459
 20
8.9504351618
 10
-21.4896161015
 20
8.9292488333
 10
-21.4951609287
 20
8.9070755115
 10
-21.5007988441
 20
8.8839742663
 10
-21.5065330356
 20
8.8599467617
 10
-21.5123687561
 20
8.8348888745
 10
-21.5182651807
 20
8.8089154422
 10
-21.5241571263
 20
8.7823533052
 10
-21.5300408503
 20
8.7551427182
 10
-21.5358855892
 20
8.7273524741
 10
-21.5415957299
 20
8.6994954005
 10
-21.5471543094
 20
8.6716160415
 10
-21.5525574737
 20
8.6436727323
 10
-21.5577432114
 20
8.616040942
 10
-21.5626935259
 20
8.5888098934
 10
-21.5674194032
 20
8.5618872857
 10
-21.5719100842
 20
8.5353708327
 10
-21.5761611051
 20
8.5092786226
 10
-21.5801724379
 20
8.4835874658
 10
-21.5839415206
 20
8.4583306727
 10
-21.5874687037
 20
8.4334975348
 10
-21.5907503384
 20
8.4090931539
 10
-21.5937797012
 20
8.3851732822
 10
-21.5965563356
 20
8.3617488457
 10
-21.5990820623
 20
8.3388030112
 10
-21.6013559474
 20
8.3163494425
 10
-21.6033789145
 20
8.2943989645
 10
-21.6051541907
 20
8.2729355181
 10
-21.6066848762
 20
8.251932962
 10
-21.6079731973
 20
8.2313883696
 10
-21.6090213038
 20
8.2113008402
 10
-21.6098318946
 20
8.1916482339
 10
-21.6104075186
 20
8.172422511
 10
-21.6107507791
 20
8.1536292383
 10
-21.610864536
 20
8.1352672004
  0
LWPOLYLINE
  5
55F
100
AcDbEntity
  8
ASSI
100
AcDbPolyline
 62
250
  6
CONTINUOUS
 90
73
 70
0
 10
-21.3370112588
 20
9.298259045
 10
-21.3395033948
 20
9.2967850878
 10
-21.3420797616
 20
9.2950468859
 10
-21.3447399431
 20
9.293043401
 10
-21.3474831131
 20
9.290790464
 10
-21.3503091206
 20
9.2882701255
 10
-21.3532184824
 20
9.2854307201
 10
-21.3562138456
 20
9.2822666446
 10
-21.3592912291
 20
9.2787814573
 10
-21.3624411529
 20
9.2749375388
 10
-21.3656639707
 20
9.2707286799
 10
-21.3689577041
 20
9.2661596408
 10
-21.3723093998
 20
9.2612098375
 10
-21.3757162587
 20
9.2558775212
 10
-21.3791792505
 20
9.250163858
 10
-21.3826911139
 20
9.2440532069
 10
-21.3862434823
 20
9.237558301
 10
-21.3898426781
 20
9.2306666048
 10
-21.3935032793
 20
9.2233247277
 10
-21.3972205346
 20
9.2155434746
 10
-21.4009963931
 20
9.2073123366
 10
-21.404854884
 20
9.1985457214
 10
-21.4087945655
 20
9.189246225
 10
-21.4128127483
 20
9.1794116309
 10
-21.416930707
 20
9.1689489859
 10
-21.4211461286
 20
9.157858765
 10
-21.425455425
 20
9.1461414582
 10
-21.4298768714
 20
9.1337042879
 10
-21.4344181098
 20
9.1205092712
 10
-21.4390630579
 20
9.1065964189
 10
-21.4437938542
 20
9.0919905829
 10
-21.4486025874
 20
9.0766947972
 10
-21.4534877427
 20
9.0607102295
 10
-21.458441009
 20
9.044059537
 10
-21.4634417339
 20
9.0267936846
 10
-21.4684997557
 20
9.0088674232
 10
-21.473650593
 20
8.9901589629
 10
-21.4788818097
 20
8.9706847513
 10
-21.4841892459
 20
8.9504351618
 10
-21.4896161015
 20
8.9292488333
 10
-21.4951609287
 20
8.9070755115
 10
-21.5007988441
 20
8.8839742663
 10
-21.5065330356
 20
8.8599467617
 10
-21.5123687561
 20
8.8348888745
 10
-21.5182651807
 20
8.8089154422
 10
-21.5241571263
 20
8.7823533052
 10
-21.5300408503
 20
8.7551427182
 10
-21.5358855892
 20
8.7273524741
 10
-21.5415957299
 20
8.6994954005
 10
-21.5471543094
 20
8.6716160415
 10
-21.5525574737
 20
8.6436727323
 10
-21.5577432114
 20
8.616040942
 10
-21.5626935259
 20
8.5888098934
 10
-21.5674194032
 20
8.5618872857
 10
-21.5719100842
 20
8.5353708327
 10
-21.5761611051
 20
8.5092786226
 10
-21.5801724379
 20
8.4835874658
 10
-21.5839415206
 20
8.4583306727
 10
-21.5874687037
 20
8.4334975348
 10
-21.5907503384
 20
8.4090931539
 10
-21.5937797012
 20
8.3851732822
 10
-21.5965563356
 20
8.3617488457
 10
-21.5990820623
 20
8.3388030112
 10
-21.6013559474
 20
8.3163494425
 10
-21.6033789145
 20
8.2943989645
 10
-21.6051541907
 20
8.2729355181
 10
-21.6066848762
 20
8.251932962
 10
-21.6079731973
 20
8.2313883696
 10
-21.6090213038
 20
8.2113008402
 10
-21.6098318946
 20
8.1916482339
 10
-21.6104075186
 20
8.172422511
 10
-21.6107507791
 20
8.1536292383
 10
-21.610864536
 20
8.1352672004
  0
LINE
  5
560
100
AcDbEntity
  8
SCRITTE
100
AcDbLine
 62
250
  6
CONTINUOUS
 10
-40.5110203879
 20
-1.7959170825
 11
-41.6321996009
 21
-2.3771710825
  0
LINE
  5
561
100
AcDbEntity
  8
0
100
AcDbLine
 62
250
  6
CONTINUOUS
 10
-26.010864536
 20
4.2290659175
 11
-27.3104685735
 21
3.6061969175
  0
LWPOLYLINE
  5
562
100
AcDbEntity
  8
C_CORPO
100
AcDbPolyline
 62
7
  6
CONTINUOUS
 90
52
 70
0
 10
-20.7838204889
 20
9.6755073065
 10
-20.7976556263
 20
9.6731875032
 10
-20.8114596978
 20
9.6706723044
 10
-20.8252327033
 20
9.6679616969
 10
-20.8389757108
 20
9.6650589563
 10
-20.8526876523
 20
9.6619608508
 10
-20.866365324
 20
9.6586576447
 10
-20.8800114567
 20
9.6551492565
 10
-20.8936233197
 20
9.6514359678
 10
-20.907189517
 20
9.647508639
 10
-20.920712443
 20
9.643366634
 10
-20.9341897033
 20
9.6390109794
 10
-20.9476027195
 20
9.6344350992
 10
-20.9609532809
 20
9.6296384874
 10
-20.9742395983
 20
9.6246222639
 10
-20.9874377251
 20
9.6193823745
 10
-21.0005488572
 20
9.6139179709
 10
-21.0135717987
 20
9.6082307702
 10
-21.0264790149
 20
9.6023206568
 10
-21.0392711393
 20
9.5961870634
 10
-21.0519475383
 20
9.5898317
 10
-21.0644787771
 20
9.5832579565
 10
-21.0768649488
 20
9.5764653194
 10
-21.0891059603
 20
9.5694557285
 10
-21.1011720965
 20
9.5622363333
 10
-21.1130629475
 20
9.5548070295
 10
-21.1247789233
 20
9.547169624
 10
-21.1362915388
 20
9.5393341948
 10
-21.1475999445
 20
9.5313011456
 10
-21.1587049899
 20
9.5230720331
 10
-21.1695807392
 20
9.5146587047
 10
-21.1802259603
 20
9.506062298
 10
-21.1906418853
 20
9.4972838692
 10
-21.2008062747
 20
9.4883351627
 10
-21.2107175975
 20
9.4792184008
 10
-21.2203773847
 20
9.469933769
 10
-21.2297679897
 20
9.4604899763
 10
-21.2388876445
 20
9.4508908031
 10
-21.2477381172
 20
9.4411350986
 10
-21.2563070646
 20
9.4312242346
 10
-21.2645923669
 20
9.4211645349
 10
-21.2725961441
 20
9.4109525949
 10
-21.2803124135
 20
9.4005753762
 10
-21.2877383372
 20
9.3900431254
 10
-21.2948767532
 20
9.3793489981
 10
-21.3017301922
 20
9.3684547775
 10
-21.3082943168
 20
9.3573746773
 10
-21.3145734644
 20
9.3460988078
 10
-21.320583178
 20
9.3345537593
 10
-21.3263286389
 20
9.3227173582
 10
-21.3318046658
 20
9.3106180356
 10
-21.3370112588
 20
9.298259045
  0
LWPOLYLINE
  5
563
100
AcDbEntity
  8
ASSI
100
AcDbPolyline
 62
7
  6
CONTINUOUS
 90
52
 70
0
 10
-20.7838204889
 20
9.6755073065
 10
-20.7976556263
 20
9.6731875032
 10
-20.8114596978
 20
9.6706723044
 10
-20.8252327033
 20
9.6679616969
 10
-20.8389757108
 20
9.6650589563
 10
-20.8526876523
 20
9.6619608508
 10
-20.866365324
 20
9.6586576447
 10
-20.8800114567
 20
9.6551492565
 10
-20.8936233197
 20
9.6514359678
 10
-20.907189517
 20
9.647508639
 10
-20.920712443
 20
9.643366634
 10
-20.9341897033
 20
9.6390109794
 10
-20.9476027195
 20
9.6344350992
 10
-20.9609532809
 20
9.6296384874
 10
-20.9742395983
 20
9.6246222639
 10
-20.9874377251
 20
9.6193823745
 10
-21.0005488572
 20
9.6139179709
 10
-21.0135717987
 20
9.6082307702
 10
-21.0264790149
 20
9.6023206568
 10
-21.0392711393
 20
9.5961870634
 10
-21.0519475383
 20
9.5898317
 10
-21.0644787771
 20
9.5832579565
 10
-21.0768649488
 20
9.5764653194
 10
-21.0891059603
 20
9.5694557285
 10
-21.1011720965
 20
9.5622363333
 10
-21.1130629475
 20
9.5548070295
 10
-21.1247789233
 20
9.547169624
 10
-21.1362915388
 20
9.5393341948
 10
-21.1475999445
 20
9.5313011456
 10
-21.1587049899
 20
9.5230720331
 10
-21.1695807392
 20
9.5146587047
 10
-21.1802259603
 20
9.506062298
 10
-21.1906418853
 20
9.4972838692
 10
-21.2008062747
 20
9.4883351627
 10
-21.2107175975
 20
9.4792184008
 10
-21.2203773847
 20
9.469933769
 10
-21.2297679897
 20
9.4604899763
 10
-21.2388876445
 20
9.4508908031
 10
-21.2477381172
 20
9.4411350986
 10
-21.2563070646
 20
9.4312242346
 10
-21.2645923669
 20
9.4211645349
 10
-21.2725961441
 20
9.4109525949
 10
-21.2803124135
 20
9.4005753762
 10
-21.2877383372
 20
9.3900431254
 10
-21.2948767532
 20
9.3793489981
 10
-21.3017301922
 20
9.3684547775
 10
-21.3082943168
 20
9.3573746773
 10
-21.3145734644
 20
9.3460988078
 10
-21.320583178
 20
9.3345537593
 10
-21.3263286389
 20
9.3227173582
 10
-21.3318046658
 20
9.3106180356
 10
-21.3370112588
 20
9.298259045
  0
LINE
  5
564
100
AcDbEntity
  8
C_CORPO
100
AcDbLine
 62
7
  6
CONTINUOUS
 10
-21.3370112588
 20
7.7914316276
 11
-19.8847178131
 21
7.9184908402
  0
LINE
  5
565
100
AcDbEntity
  8
ASSI
100
AcDbLine
 62
7
  6
CONTINUOUS
 10
-21.3370112588
 20
7.7914316276
 11
-19.8847178131
 21
7.9184908402
  0
LINE
  5
566
100
AcDbEntity
  8
C_CORPO
100
AcDbLine
 62
7
  6
CONTINUOUS
 10
-21.3370112588
 20
7.9501559747
 11
-19.8847178131
 21
8.0772151873
  0
LINE
  5
567
100
AcDbEntity
  8
ASSI
100
AcDbLine
 62
7
  6
CONTINUOUS
 10
-21.3370112588
 20
7.9501559747
 11
-19.8847178131
 21
8.0772151873
  0
LINE
  5
568
100
AcDbEntity
  8
0
100
AcDbLine
 62
250
  6
CONTINUOUS
 10
-26.010864536
 20
4.8519329175
 11
-27.3104685735
 21
4.8519329175
  0
LINE
  5
569
100
AcDbEntity
  8
SCRITTE
100
AcDbLine
 62
250
  6
CONTINUOUS
 10
-43.4106436939
 20
5.2265919175
 11
-40.511085378
 21
5.2265919175
  0
LINE
  5
56A
100
AcDbEntity
  8
SCRITTE
100
AcDbLine
 62
250
  6
CONTINUOUS
 10
-40.511085378
 20
5.8491979175
 11
-41.6276762899
 21
5.8491979175
  0
LINE
  5
56B
100
AcDbEntity
  8
SCRITTE
100
AcDbLine
 62
250
  6
CONTINUOUS
 10
-42.1095358892
 20
5.8491979175
 11
-42.9287850945
 21
5.8491979175
  0
LINE
  5
56C
100
AcDbEntity
  8
0
100
AcDbLine
 62
250
  6
CONTINUOUS
 10
-27.3104685735
 20
6.3366039175
 11
-26.010864536
 21
6.3366039175
  0
LWPOLYLINE
  5
56D
100
AcDbEntity
  8
SCRITTE
100
AcDbPolyline
 62
250
  6
CONTINUOUS
 90
53
 70
0
 10
-42.5191603445
 20
6.6445617542
 10
-42.5062493076
 20
6.6444855206
 10
-42.4933283264
 20
6.6442390226
 10
-42.4804067397
 20
6.6437955645
 10
-42.4674938865
 20
6.6431284503
 10
-42.4545991056
 20
6.6422109843
 10
-42.4417317358
 20
6.6410164706
 10
-42.4289011159
 20
6.6395182133
 10
-42.4161165849
 20
6.6376895168
 10
-42.4033874816
 20
6.635503685
 10
-42.3912958582
 20
6.6330628119
 10
-42.3792742743
 20
6.6302710251
 10
-42.3673337389
 20
6.6271272503
 10
-42.3554852605
 20
6.6236304132
 10
-42.343739848
 20
6.6197794396
 10
-42.33210851
 20
6.6155732552
 10
-42.3206022554
 20
6.6110107858
 10
-42.3092320927
 20
6.606090957
 10
-42.2980090308
 20
6.6008126947
 10
-42.2869440784
 20
6.5951749246
 10
-42.2760482441
 20
6.5891765724
 10
-42.2676954226
 20
6.5842582589
 10
-42.2594694659
 20
6.5791185524
 10
-42.2513881592
 20
6.573755069
 10
-42.2434692871
 20
6.5681654252
 10
-42.2357306348
 20
6.5623472371
 10
-42.228189987
 20
6.5562981211
 10
-42.2208651286
 20
6.5500156935
 10
-42.2137738447
 20
6.5434975707
 10
-42.2069339199
 20
6.5367413688
 10
-42.2003631394
 20
6.5297447042
 10
-42.1940792879
 20
6.5225051932
 10
-42.1881001504
 20
6.5150204521
 10
-42.1820628221
 20
6.5067534685
 10
-42.1763825435
 20
6.4982257303
 10
-42.1710481714
 20
6.4894591806
 10
-42.1660485626
 20
6.4804757622
 10
-42.1613725738
 20
6.4712974182
 10
-42.1570090619
 20
6.4619460916
 10
-42.1529468835
 20
6.4524437254
 10
-42.1491748956
 20
6.4428122626
 10
-42.1456819548
 20
6.4330736462
 10
-42.142456918
 20
6.4232498191
 10
-42.139488642
 20
6.4133627243
 10
-42.1359370899
 20
6.4002230412
 10
-42.132776052
 20
6.3870177801
 10
-42.1299666642
 20
6.3737536054
 10
-42.1274700621
 20
6.360437181
 10
-42.1252473814
 20
6.3470751713
 10
-42.1232597577
 20
6.3336742405
 10
-42.1214683267
 20
6.3202410526
 10
-42.119834224
 20
6.3067822719
 10
-42.1183185854
 20
6.2933045625
  0
LWPOLYLINE
  5
56E
100
AcDbEntity
  8
C_COPERCHIO
100
AcDbPolyline
 62
250
  6
CONTINUOUS
 90
7
 70
0
 10
-39.5021383328
 20
26.095131614
 10
-39.501712786
 20
26.0934134143
 10
-39.5013542268
 20
26.0883041461
 10
-39.501068787
 20
26.0798912665
 10
-39.5008613474
 20
26.0683187236
 10
-39.5007354547
 20
26.0537845246
 10
-39.50069326
 20
26.0365373754
  0
LINE
  5
56F
100
AcDbEntity
  8
0
100
AcDbLine
 62
250
  6
CONTINUOUS
 10
-31.8788643431
 20
-8.9830080825
 11
-32.0034833743
 21
-8.3911000825
  0
LWPOLYLINE
  5
570
100
AcDbEntity
  8
INTF_1
100
AcDbPolyline
 62
7
  6
CONTINUOUS
 90
17
 70
0
 10
-34.4986402658
 20
15.2161099175
 10
-34.4949731301
 20
15.1787038776
 10
-34.4838541882
 20
15.1421015556
 10
-34.4657209941
 20
15.1084194297
 10
-34.4417667946
 20
15.0794593659
 10
-34.4120841326
 20
15.0553332462
 10
-34.3782190963
 20
15.0375509964
 10
-34.3421683692
 20
15.0269390741
 10
-34.304071227
 20
15.0235384768
 10
-34.266053646
 20
15.0277362962
 10
-34.2302330309
 20
15.0391009955
 10
-34.1967477684
 20
15.0575886693
 10
-34.1675767986
 20
15.0823312192
 10
-34.1442342541
 20
15.1117866669
 10
-34.1268103148
 20
15.1458412166
 10
-34.1164602358
 20
15.1826684041
 10
-34.1135886429
 20
15.2206584606
  0
LWPOLYLINE
  5
571
100
AcDbEntity
  8
0
100
AcDbPolyline
 62
250
  6
CONTINUOUS
 90
52
 70
0
 10
-32.7626160823
 20
-7.0738030825
 10
-32.7614234556
 20
-7.213154461
 10
-32.7578247793
 20
-7.3525225124
 10
-32.7517888587
 20
-7.491845112
 10
-32.7432844992
 20
-7.631060135
 10
-32.7322805061
 20
-7.7701054565
 10
-32.7187456848
 20
-7.9089189518
 10
-32.7026488407
 20
-8.0474384961
 10
-32.6839587792
 20
-8.1856019645
 10
-32.6626200715
 20
-8.3234289415
 10
-32.6385575795
 20
-8.4607769074
 10
-32.6116750381
 20
-8.5975855473
 10
-32.5818761825
 20
-8.733794546
 10
-32.5558705514
 20
-8.8422722488
 10
-32.5278593785
 20
-8.9502573941
 10
-32.4977647929
 20
-9.0576797134
 10
-32.4655089238
 20
-9.1644689384
 10
-32.4310139005
 20
-9.2705548005
 10
-32.4005020245
 20
-9.3583472871
 10
-32.3682980529
 20
-9.445534327
 10
-32.3343182082
 20
-9.5320474748
 10
-32.298478713
 20
-9.617818285
 10
-32.2606957897
 20
-9.7027783124
 10
-32.2208856611
 20
-9.7868591115
 10
-32.1851047927
 20
-9.8581134058
 10
-32.1476866411
 20
-9.9285413051
 10
-32.1085427251
 20
-9.9980117106
 10
-32.0675845637
 20
-10.066393524
 10
-32.0247236757
 20
-10.1335556465
 10
-31.9798715801
 20
-10.1993669796
 10
-31.9329397959
 20
-10.2636964248
 10
-31.8900532182
 20
-10.3187004104
 10
-31.8454114848
 20
-10.3722850379
 10
-31.7989225065
 20
-10.4242681699
 10
-31.7504941941
 20
-10.4744676687
 10
-31.7103127462
 20
-10.5131948493
 10
-31.6688043739
 20
-10.5505075466
 10
-31.6259412332
 20
-10.5862483734
 10
-31.58169548
 20
-10.6202599426
 10
-31.5360392705
 20
-10.652384867
 10
-31.4969376365
 20
-10.6775710225
 10
-31.4568634358
 20
-10.7012034227
 10
-31.4158411096
 20
-10.7231452042
 10
-31.3738950993
 20
-10.7432595036
 10
-31.3310498461
 20
-10.7614094575
 10
-31.2873297912
 20
-10.7774582026
 10
-31.2428318354
 20
-10.7912632714
 10
-31.1976435297
 20
-10.8027498488
 10
-31.1519229892
 20
-10.8118325265
 10
-31.1058283288
 20
-10.8184258968
 10
-31.0595176636
 20
-10.8224445514
 10
-31.0131491086
 20
-10.8238030825
  0
LINE
  5
572
100
AcDbEntity
  8
INTF_1
100
AcDbLine
 62
7
  6
CONTINUOUS
 10
-33.4663645103
 20
15.3441439175
 11
-33.4663645103
 21
14.9940839175
  0
LINE
  5
573
100
AcDbEntity
  8
0
100
AcDbLine
 62
250
  6
CONTINUOUS
 10
-33.4663645103
 20
15.3441439175
 11
-33.4663645103
 21
14.9940839175
  0
LINE
  5
574
100
AcDbEntity
  8
INTF_1
100
AcDbLine
 62
7
  6
CONTINUOUS
 10
-33.3739625857
 20
13.7142669175
 11
-33.3739625857
 21
14.5376069175
  0
LINE
  5
575
100
AcDbEntity
  8
0
100
AcDbLine
 62
250
  6
CONTINUOUS
 10
-33.3739625857
 20
13.7142669175
 11
-33.3739625857
 21
14.5376069175
  0
LINE
  5
576
100
AcDbEntity
  8
INTF_1
100
AcDbLine
 62
7
  6
CONTINUOUS
 10
-33.1583594281
 20
14.5376069175
 11
-33.1583594281
 21
13.7142669175
  0
LINE
  5
577
100
AcDbEntity
  8
0
100
AcDbLine
 62
250
  6
CONTINUOUS
 10
-33.1583594281
 20
14.5376069175
 11
-33.1583594281
 21
13.7142669175
  0
LWPOLYLINE
  5
578
100
AcDbEntity
  8
INTF_11
100
AcDbPolyline
 62
7
  6
CONTINUOUS
 90
17
 70
0
 10
-33.0476841072
 20
8.9966069175
 10
-33.04889276
 20
8.4989355899
 10
-32.9508617439
 20
8.0019845128
 10
-32.7565536967
 20
7.5342171983
 10
-32.4736355574
 20
7.1140906456
 10
-32.1132706113
 20
6.7581820616
 10
-31.6975622433
 20
6.4846640337
 10
-31.2281164703
 20
6.2945932512
 10
-30.7303691476
 20
6.2010758793
 10
-30.2239602152
 20
6.2078018939
 10
-29.7288713798
 20
6.3145059022
 10
-29.272409499
 20
6.5126404036
 10
-28.8563380337
 20
6.80143994
 10
-28.5055498239
 20
7.1667939073
 10
-28.2338861482
 20
7.5942862965
 10
-28.0520662171
 20
8.067049262
 10
-27.9673155899
 20
8.5656841302
  0
LWPOLYLINE
  5
579
100
AcDbEntity
  8
0
100
AcDbPolyline
 62
250
  6
CONTINUOUS
 90
17
 70
0
 10
-33.0476841072
 20
8.9966069175
 10
-33.04889276
 20
8.4989355899
 10
-32.9508617439
 20
8.0019845128
 10
-32.7565536967
 20
7.5342171983
 10
-32.4736355574
 20
7.1140906456
 10
-32.1132706113
 20
6.7581820616
 10
-31.6975622433
 20
6.4846640337
 10
-31.2281164703
 20
6.2945932512
 10
-30.7303691476
 20
6.2010758793
 10
-30.2239602152
 20
6.2078018939
 10
-29.7288713798
 20
6.3145059022
 10
-29.272409499
 20
6.5126404036
 10
-28.8563380337
 20
6.80143994
 10
-28.5055498239
 20
7.1667939073
 10
-28.2338861482
 20
7.5942862965
 10
-28.0520662171
 20
8.067049262
 10
-27.9673155899
 20
8.5656841302
  0
LWPOLYLINE
  5
57A
100
AcDbEntity
  8
INTF_11
100
AcDbPolyline
 62
7
  6
CONTINUOUS
 90
17
 70
0
 10
-33.0476841072
 20
4.6616069175
 10
-33.04889276
 20
4.1639355899
 10
-32.9508617439
 20
3.6669845128
 10
-32.7565536967
 20
3.1992171983
 10
-32.4736355574
 20
2.7790906456
 10
-32.1132706113
 20
2.4231820616
 10
-31.6975622433
 20
2.1496640337
 10
-31.2281164703
 20
1.9595932512
 10
-30.7303691476
 20
1.8660758793
 10
-30.2239602152
 20
1.8728018939
 10
-29.7288713798
 20
1.9795059022
 10
-29.272409499
 20
2.1776404036
 10
-28.8563380337
 20
2.46643994
 10
-28.5055498239
 20
2.8317939073
 10
-28.2338861482
 20
3.2592862965
 10
-28.0520662171
 20
3.732049262
 10
-27.9673155899
 20
4.2306841302
  0
LWPOLYLINE
  5
57B
100
AcDbEntity
  8
0
100
AcDbPolyline
 62
250
  6
CONTINUOUS
 90
17
 70
0
 10
-33.0476841072
 20
4.6616069175
 10
-33.04889276
 20
4.1639355899
 10
-32.9508617439
 20
3.6669845128
 10
-32.7565536967
 20
3.1992171983
 10
-32.4736355574
 20
2.7790906456
 10
-32.1132706113
 20
2.4231820616
 10
-31.6975622433
 20
2.1496640337
 10
-31.2281164703
 20
1.9595932512
 10
-30.7303691476
 20
1.8660758793
 10
-30.2239602152
 20
1.8728018939
 10
-29.7288713798
 20
1.9795059022
 10
-29.272409499
 20
2.1776404036
 10
-28.8563380337
 20
2.46643994
 10
-28.5055498239
 20
2.8317939073
 10
-28.2338861482
 20
3.2592862965
 10
-28.0520662171
 20
3.732049262
 10
-27.9673155899
 20
4.2306841302
  0
LWPOLYLINE
  5
57C
100
AcDbEntity
  8
INTF_11
100
AcDbPolyline
 62
7
  6
CONTINUOUS
 90
8
 70
0
 10
-32.2772754621
 20
8.9966069175
 10
-32.2912619957
 20
8.6175021432
 10
-32.2248306186
 20
8.2440029596
 10
-32.0809819171
 20
7.8929796568
 10
-31.862151878
 20
7.5755625921
 10
-31.5852574412
 20
7.3162901032
 10
-31.2598340566
 20
7.1213966254
 10
-30.8932943417
 20
6.9980704749
  0
LWPOLYLINE
  5
57D
100
AcDbEntity
  8
0
100
AcDbPolyline
 62
250
  6
CONTINUOUS
 90
8
 70
0
 10
-32.2772754621
 20
8.9966069175
 10
-32.2912619957
 20
8.6175021432
 10
-32.2248306186
 20
8.2440029596
 10
-32.0809819171
 20
7.8929796568
 10
-31.862151878
 20
7.5755625921
 10
-31.5852574412
 20
7.3162901032
 10
-31.2598340566
 20
7.1213966254
 10
-30.8932943417
 20
6.9980704749
  0
LWPOLYLINE
  5
57E
100
AcDbEntity
  8
INTF_11
100
AcDbPolyline
 62
7
  6
CONTINUOUS
 90
17
 70
0
 10
-32.2772754621
 20
4.6616069175
 10
-32.2931564278
 20
4.3135982076
 10
-32.2396126113
 20
3.9630940506
 10
-32.1178559836
 20
3.6300898694
 10
-31.9326907752
 20
3.3277252267
 10
-31.696088118
 20
3.0720604649
 10
-31.4089620852
 20
2.8640833004
 10
-31.0863987595
 20
2.716970494
 10
-30.741125732
 20
2.6365267715
 10
-30.3867666653
 20
2.6259262532
 10
-30.0433131855
 20
2.6839444502
 10
-29.7120921654
 20
2.8103572191
 10
-29.4123883531
 20
2.9997542512
 10
-29.156027357
 20
3.2446623844
 10
-28.9561746232
 20
3.5299851132
 10
-28.8136022479
 20
3.8546201428
 10
-28.7376630063
 20
4.2039581198
  0
LWPOLYLINE
  5
57F
100
AcDbEntity
  8
0
100
AcDbPolyline
 62
250
  6
CONTINUOUS
 90
7
 70
0
 10
-32.2772754621
 20
4.6616069175
 10
-32.2864026744
 20
4.5874018567
 10
-32.2924149684
 20
4.5128796202
 10
-32.2953017966
 20
4.4381709452
 10
-32.2948964512
 20
4.3571781711
 10
-32.2912619957
 20
4.2825021432
 10
-32.2840420671
 20
4.2039581
  0
LINE
  5
580
100
AcDbEntity
  8
SCRITTE
100
AcDbLine
 62
250
  6
CONTINUOUS
 10
-43.410708684
 20
-4.7813150825
 11
-40.5110123891
 21
-3.8501760825
  0
LINE
  5
581
100
AcDbEntity
  8
SCRITTE
100
AcDbLine
 62
250
  6
CONTINUOUS
 10
-41.6321996009
 20
-4.7902400825
 11
-42.507605252
 21
-5.0713440825
  0
LINE
  5
582
100
AcDbEntity
  8
SCRITTE
100
AcDbLine
 62
250
  6
CONTINUOUS
 10
-40.5110203879
 20
-4.4302050825
 11
-41.0812615242
 21
-4.6133110825
  0
LWPOLYLINE
  5
583
100
AcDbEntity
  8
C_CORPO
100
AcDbPolyline
 62
7
  6
CONTINUOUS
 90
7
 70
0
 10
-20.7838208928
 20
9.6755075588
 10
-20.6311710031
 20
9.7002580373
 10
-20.4810349307
 20
9.7249361071
 10
-20.3334126755
 20
9.7495417681
 10
-20.1883042377
 20
9.7740750204
 10
-20.0457096172
 20
9.7985358639
 10
-19.905628814
 20
9.8229242987
  0
LWPOLYLINE
  5
584
100
AcDbEntity
  8
ASSI
100
AcDbPolyline
 62
7
  6
CONTINUOUS
 90
7
 70
0
 10
-20.7838208928
 20
9.6755075588
 10
-20.6311710031
 20
9.7002580373
 10
-20.4810349307
 20
9.7249361071
 10
-20.3334126755
 20
9.7495417681
 10
-20.1883042377
 20
9.7740750204
 10
-20.0457096172
 20
9.7985358639
 10
-19.905628814
 20
9.8229242987
  0
LWPOLYLINE
  5
585
100
AcDbEntity
  8
SCRITTE
100
AcDbPolyline
 62
250
  6
CONTINUOUS
 90
53
 70
0
 10
-42.5191603445
 20
7.3073286687
 10
-42.5536132743
 20
7.3069234528
 10
-42.5880626398
 20
7.3056721223
 10
-42.6224714271
 20
7.3035211528
 10
-42.6568026226
 20
7.3004170198
 10
-42.6910192125
 20
7.296306199
 10
-42.7211866117
 20
7.2917802255
 10
-42.7512054123
 20
7.2863659701
 10
-42.7810458604
 20
7.2800061807
 10
-42.8106782015
 20
7.2726436048
 10
-42.8400726816
 20
7.2642209902
 10
-42.8654279075
 20
7.2559905349
 10
-42.8905295138
 20
7.2469088354
 10
-42.9153265017
 20
7.2369705864
 10
-42.9397678723
 20
7.2261704828
 10
-42.9638026267
 20
7.2145032193
 10
-42.9873797659
 20
7.2019634909
 10
-43.0104482911
 20
7.1885459923
 10
-43.0329572034
 20
7.1742454183
 10
-43.0548555039
 20
7.1590564639
 10
-43.0760921937
 20
7.1429738237
 10
-43.0953125169
 20
7.1271291742
 10
-43.1139021414
 20
7.1105387833
 10
-43.13185348
 20
7.0932429939
 10
-43.1491589449
 20
7.0752821488
 10
-43.1658109488
 20
7.0566965907
 10
-43.1818019041
 20
7.0375266627
 10
-43.1971242233
 20
7.0178127073
 10
-43.2117703188
 20
6.9975950675
 10
-43.2257326032
 20
6.9769140861
 10
-43.239003489
 20
6.9558101059
 10
-43.2536576515
 20
6.9306199861
 10
-43.2673934566
 20
6.9049467898
 10
-43.2802502696
 20
6.8788317406
 10
-43.2922674554
 20
6.8523160617
 10
-43.3034843794
 20
6.8254409765
 10
-43.3139404066
 20
6.7982477084
 10
-43.3236749021
 20
6.7707774807
 10
-43.3327272313
 20
6.7430715168
 10
-43.3411367591
 20
6.7151710401
 10
-43.3506826442
 20
6.6805129157
 10
-43.3593389671
 20
6.645643983
 10
-43.3671357369
 20
6.6105870304
 10
-43.3741029628
 20
6.5753648464
 10
-43.3802706541
 20
6.5400002193
 10
-43.38566882
 20
6.5045159374
 10
-43.3903274697
 20
6.4689347892
 10
-43.3942766123
 20
6.4332795631
 10
-43.3983488633
 20
6.3877922948
 10
-43.401515484
 20
6.3422379084
 10
-43.4039730457
 20
6.2966324816
 10
-43.4059181193
 20
6.2509920921
 10
-43.4106441235
 20
6.1140219258
  0
LINE
  5
586
100
AcDbEntity
  8
0
100
AcDbLine
 62
250
  6
CONTINUOUS
 10
-27.3104685735
 20
7.6529519175
 11
-26.010864536
 21
7.6529519175
  0
LINE
  5
587
100
AcDbEntity
  8
SCRITTE
100
AcDbLine
 62
250
  6
CONTINUOUS
 10
-40.511085378
 20
7.6969349175
 11
-43.4106436939
 21
7.6969349175
  0
LINE
  5
588
100
AcDbEntity
  8
C_CORPO
100
AcDbLine
 62
250
  6
CONTINUOUS
 10
-21.610864536
 20
8.1352672004
 11
-22.5934121295
 21
8.1352672004
  0
LINE
  5
589
100
AcDbEntity
  8
ASSI
100
AcDbLine
 62
250
  6
CONTINUOUS
 10
-21.610864536
 20
8.1352672004
 11
-22.5934121295
 21
8.1352672004
  0
LINE
  5
58A
100
AcDbEntity
  8
SCRITTE
100
AcDbLine
 62
250
  6
CONTINUOUS
 10
-43.4106436939
 20
8.3195409175
 11
-40.9929439774
 21
8.3195409175
  0
LINE
  5
58B
100
AcDbEntity
  8
INTF_11
100
AcDbLine
 62
7
  6
CONTINUOUS
 10
-30.8932942812
 20
8.4866069175
 11
-30.1284107944
 21
8.4866069175
  0
LINE
  5
58C
100
AcDbEntity
  8
0
100
AcDbLine
 62
250
  6
CONTINUOUS
 10
-30.8932942812
 20
8.4866069175
 11
-30.1284107944
 21
8.4866069175
  0
LINE
  5
58D
100
AcDbEntity
  8
SCRITTE
100
AcDbLine
 62
250
  6
CONTINUOUS
 10
-43.4106436939
 20
10.7536509175
 11
-40.511085378
 21
9.7053159175
  0
LINE
  5
58E
100
AcDbEntity
  8
SCRITTE
100
AcDbLine
 62
250
  6
CONTINUOUS
 10
-38.7525312404
 20
14.1199469175
 11
-38.910864536
 21
14.3574469175
  0
LWPOLYLINE
  5
58F
100
AcDbEntity
  8
0
100
AcDbPolyline
 62
250
  6
CONTINUOUS
 90
17
 70
0
 10
-32.2840420692
 20
4.2039581187
 10
-32.210916587
 20
3.8633507514
 10
-32.0700141056
 20
3.5379872322
 10
-31.8675907716
 20
3.2468974051
 10
-31.6116337341
 20
3.001566991
 10
-31.3178040738
 20
2.8144836674
 10
-30.9872369502
 20
2.6863701983
 10
-30.6378728169
 20
2.6261332288
 10
-30.2834967618
 20
2.6361495684
 10
-29.9380916315
 20
2.7160239957
 10
-29.6206805092
 20
2.8594876743
 10
-29.3324896576
 20
3.0659863573
 10
-29.090794237
 20
3.3253827782
 10
-28.9051309808
 20
3.6274417635
 10
-28.7843941102
 20
3.9542146367
 10
-28.7290500709
 20
4.3044389676
 10
-28.7444296137
 20
4.6616069185
  0
LWPOLYLINE
  5
590
100
AcDbEntity
  8
INTF_1
100
AcDbPolyline
 62
7
  6
CONTINUOUS
 90
16
 70
0
 10
-34.1135886432
 20
15.2206584734
 10
-34.1185866688
 20
15.259933623
 10
-34.1317940869
 20
15.2979655432
 10
-34.1522139667
 20
15.3318834841
 10
-34.1796434866
 20
15.3613505538
 10
-34.2120121939
 20
15.3841425
 10
-34.2489985846
 20
15.4000329405
 10
-34.2878108282
 20
15.4078224227
 10
-34.3280634198
 20
15.4074335772
 10
-34.3667179874
 20
15.3988957552
 10
-34.4033905924
 20
15.3822937588
 10
-34.4358105896
 20
15.3584287312
 10
-34.4621684069
 20
15.3288892823
 10
-34.4822022439
 20
15.2939688143
 10
-34.4943998935
 20
15.2563032165
 10
-34.4986402658
 20
15.216109917
  0
LWPOLYLINE
  5
591
100
AcDbEntity
  8
INTF_1
100
AcDbPolyline
 62
7
  6
CONTINUOUS
 90
17
 70
0
 10
-31.2785867702
 20
14.7908969175
 10
-31.2725392011
 20
14.7292096414
 10
-31.2542026639
 20
14.6688477973
 10
-31.2242987406
 20
14.6133017249
 10
-31.1847952453
 20
14.5655429281
 10
-31.135844793
 20
14.5257559149
 10
-31.0799970782
 20
14.4964307427
 10
-31.0205448837
 20
14.4789303449
 10
-30.9577178927
 20
14.4733223312
 10
-30.8950221082
 20
14.4802450646
 10
-30.8359493974
 20
14.4989868868
 10
-30.7807279774
 20
14.5294753919
 10
-30.7326213702
 20
14.5702789763
 10
-30.6941265712
 20
14.6188547235
 10
-30.6653922983
 20
14.6750149698
 10
-30.6483237131
 20
14.7357476454
 10
-30.6435880942
 20
14.7983980387
  0
LWPOLYLINE
  5
592
100
AcDbEntity
  8
INTF_1
100
AcDbPolyline
 62
7
  6
CONTINUOUS
 90
17
 70
0
 10
-31.1015317407
 20
14.7908969175
 10
-31.0988561571
 20
14.7636050488
 10
-31.0907436516
 20
14.7368995817
 10
-31.0775134687
 20
14.7123247226
 10
-31.0600362145
 20
14.6911951333
 10
-31.0383794093
 20
14.6735924442
 10
-31.0136710968
 20
14.660618314
 10
-30.9873680795
 20
14.6528757359
 10
-30.9595719747
 20
14.6503946217
 10
-30.9318339187
 20
14.6534573981
 10
-30.9056987938
 20
14.6617492109
 10
-30.8812675685
 20
14.6752380263
 10
-30.8599840998
 20
14.6932904698
 10
-30.842953116
 20
14.7147814968
 10
-30.8302404133
 20
14.7396280805
 10
-30.8226888789
 20
14.766497612
 10
-30.8205937323
 20
14.7942155859
  0
LINE
  5
593
100
AcDbEntity
  8
INTF_11
100
AcDbLine
 62
7
  6
CONTINUOUS
 10
-30.8932942812
 20
8.4866069175
 11
-30.8932942812
 21
6.9980709175
  0
LINE
  5
594
100
AcDbEntity
  8
0
100
AcDbLine
 62
250
  6
CONTINUOUS
 10
-30.8932942812
 20
8.4866069175
 11
-30.8932942812
 21
6.9980709175
  0
LINE
  5
595
100
AcDbEntity
  8
INTF_1
100
AcDbLine
 62
7
  6
CONTINUOUS
 10
-30.8399175919
 20
13.1513709175
 11
-30.8399175919
 21
14.4972379175
  0
LINE
  5
596
100
AcDbEntity
  8
0
100
AcDbLine
 62
250
  6
CONTINUOUS
 10
-30.8399175919
 20
13.1513709175
 11
-30.8399175919
 21
14.4972379175
  0
LINE
  5
597
100
AcDbEntity
  8
0
100
AcDbLine
 62
250
  6
CONTINUOUS
 10
-30.8270128205
 20
-8.2425100825
 11
-30.8270128205
 21
-8.9830080825
  0
LINE
  5
598
100
AcDbEntity
  8
INTF_1
100
AcDbLine
 62
7
  6
CONTINUOUS
 10
-30.6434995118
 20
13.3256999175
 11
-30.6434995118
 21
13.2080799175
  0
LINE
  5
599
100
AcDbEntity
  8
0
100
AcDbLine
 62
250
  6
CONTINUOUS
 10
-30.6434995118
 20
13.3256999175
 11
-30.6434995118
 21
13.2080799175
  0
LINE
  5
59A
100
AcDbEntity
  8
0
100
AcDbLine
 62
250
  6
CONTINUOUS
 10
-30.3636250052
 20
-7.3691030825
 11
-30.3636250052
 21
-6.2959250825
  0
LINE
  5
59B
100
AcDbEntity
  8
INTF_11
100
AcDbLine
 62
7
  6
CONTINUOUS
 10
-30.1284107944
 20
8.4866069175
 11
-30.1284107944
 21
6.9980709175
  0
LINE
  5
59C
100
AcDbEntity
  8
0
100
AcDbLine
 62
250
  6
CONTINUOUS
 10
-30.1284107944
 20
8.4866069175
 11
-30.1284107944
 21
6.9980709175
  0
LWPOLYLINE
  5
59D
100
AcDbEntity
  8
0
100
AcDbPolyline
 62
7
  6
CONTINUOUS
 90
2
 70
0
 43
0.3500000087
 10
-29.7751505814
 20
35.6315940796
 10
-29.7751505814
 20
37.1315955444
  0
LWPOLYLINE
  5
59E
100
AcDbEntity
  8
C_CORPO
100
AcDbPolyline
 62
7
  6
CONTINUOUS
 90
10
 70
0
 10
-19.8847178131
 20
9.8249576831
 10
-19.8870178147
 20
9.8248951835
 10
-19.8893232386
 20
9.8247920913
 10
-19.8916339548
 20
9.8246484066
 10
-19.8939488378
 20
9.8244644833
 10
-19.8962687479
 20
9.8242399675
 10
-19.8985965364
 20
9.8239737973
 10
-19.9009330652
 20
9.8236656188
 10
-19.9032772039
 20
9.823315786
 10
-19.905628814
 20
9.8229242987
  0
LWPOLYLINE
  5
59F
100
AcDbEntity
  8
ASSI
100
AcDbPolyline
 62
7
  6
CONTINUOUS
 90
10
 70
0
 10
-19.8847178131
 20
9.8249576831
 10
-19.8870178147
 20
9.8248951835
 10
-19.8893232386
 20
9.8247920913
 10
-19.8916339548
 20
9.8246484066
 10
-19.8939488378
 20
9.8244644833
 10
-19.8962687479
 20
9.8242399675
 10
-19.8985965364
 20
9.8239737973
 10
-19.9009330652
 20
9.8236656188
 10
-19.9032772039
 20
9.823315786
 10
-19.905628814
 20
9.8229242987
  0
LWPOLYLINE
  5
5A0
100
AcDbEntity
  8
C_CORPO
100
AcDbPolyline
 62
7
  6
CONTINUOUS
 90
49
 70
0
 10
-19.8847178131
 20
9.8249576831
 10
-19.8753431713
 20
9.8251646298
 10
-19.8660101059
 20
9.8254332243
 10
-19.856727732
 20
9.8257634665
 10
-19.8475051351
 20
9.8261558565
 10
-19.8383512041
 20
9.8266098942
 10
-19.8292746271
 20
9.8271240795
 10
-19.820284109
 20
9.8276985578
 10
-19.8113883118
 20
9.8283331836
 10
-19.8025956919
 20
9.8290260197
 10
-19.7939145996
 20
9.8297772091
 10
-19.7853532974
 20
9.8305866088
 10
-19.7769199051
 20
9.8314518522
 10
-19.7686223465
 20
9.8323730779
 10
-19.7604684154
 20
9.8333501472
 10
-19.7524657918
 20
9.8343802774
 10
-19.7446219044
 20
9.8354636012
 10
-19.736944015
 20
9.8365999859
 10
-19.7294392742
 20
9.837786251
 10
-19.7221145547
 20
9.8390225213
 10
-19.7149765268
 20
9.8403086721
 10
-19.7080317288
 20
9.841641149
 10
-19.7012864216
 20
9.8430200675
 10
-19.6947466353
 20
9.8444453121
 10
-19.6884182307
 20
9.8459129827
 10
-19.6823068096
 20
9.8474231844
 10
-19.6764177221
 20
9.848975812
 10
-19.6707561038
 20
9.85056665
 10
-19.6653268608
 20
9.8521957925
 10
-19.6601346308
 20
9.8538631454
 10
-19.6551837911
 20
9.8555642115
 10
-19.6504785241
 20
9.8572990733
 10
-19.6460227336
 20
9.8590676483
 10
-19.6418200234
 20
9.8608651919
 10
-19.637873833
 20
9.8626917752
 10
-19.63418732
 20
9.8645473271
 10
-19.630763315
 20
9.8664268894
 10
-19.6276045057
 20
9.8683305218
 10
-19.6247132974
 20
9.8702581645
 10
-19.6220917573
 20
9.8722046807
 10
-19.6197418193
 20
9.8741701191
 10
-19.6176651387
 20
9.876154431
 10
-19.6158630412
 20
9.8781523332
 10
-19.6143367116
 20
9.8801638638
 10
-19.6130870628
 20
9.8821889848
 10
-19.6121147058
 20
9.8842222982
 10
-19.6114200749
 20
9.8862620046
 10
-19.6110033762
 20
9.8883099035
 10
-19.610864536
 20
9.8903659948
  0
LWPOLYLINE
  5
5A1
100
AcDbEntity
  8
ASSI
100
AcDbPolyline
 62
7
  6
CONTINUOUS
 90
49
 70
0
 10
-19.8847178131
 20
9.8249576831
 10
-19.8753431713
 20
9.8251646298
 10
-19.8660101059
 20
9.8254332243
 10
-19.856727732
 20
9.8257634665
 10
-19.8475051351
 20
9.8261558565
 10
-19.8383512041
 20
9.8266098942
 10
-19.8292746271
 20
9.8271240795
 10
-19.820284109
 20
9.8276985578
 10
-19.8113883118
 20
9.8283331836
 10
-19.8025956919
 20
9.8290260197
 10
-19.7939145996
 20
9.8297772091
 10
-19.7853532974
 20
9.8305866088
 10
-19.7769199051
 20
9.8314518522
 10
-19.7686223465
 20
9.8323730779
 10
-19.7604684154
 20
9.8333501472
 10
-19.7524657918
 20
9.8343802774
 10
-19.7446219044
 20
9.8354636012
 10
-19.736944015
 20
9.8365999859
 10
-19.7294392742
 20
9.837786251
 10
-19.7221145547
 20
9.8390225213
 10
-19.7149765268
 20
9.8403086721
 10
-19.7080317288
 20
9.841641149
 10
-19.7012864216
 20
9.8430200675
 10
-19.6947466353
 20
9.8444453121
 10
-19.6884182307
 20
9.8459129827
 10
-19.6823068096
 20
9.8474231844
 10
-19.6764177221
 20
9.848975812
 10
-19.6707561038
 20
9.85056665
 10
-19.6653268608
 20
9.8521957925
 10
-19.6601346308
 20
9.8538631454
 10
-19.6551837911
 20
9.8555642115
 10
-19.6504785241
 20
9.8572990733
 10
-19.6460227336
 20
9.8590676483
 10
-19.6418200234
 20
9.8608651919
 10
-19.637873833
 20
9.8626917752
 10
-19.63418732
 20
9.8645473271
 10
-19.630763315
 20
9.8664268894
 10
-19.6276045057
 20
9.8683305218
 10
-19.6247132974
 20
9.8702581645
 10
-19.6220917573
 20
9.8722046807
 10
-19.6197418193
 20
9.8741701191
 10
-19.6176651387
 20
9.876154431
 10
-19.6158630412
 20
9.8781523332
 10
-19.6143367116
 20
9.8801638638
 10
-19.6130870628
 20
9.8821889848
 10
-19.6121147058
 20
9.8842222982
 10
-19.6114200749
 20
9.8862620046
 10
-19.6110033762
 20
9.8883099035
 10
-19.610864536
 20
9.8903659948
  0
LINE
  5
5A2
100
AcDbEntity
  8
INTF_11
100
AcDbLine
 62
7
  6
CONTINUOUS
 10
-33.0476841072
 20
8.9966069175
 11
-32.2772754621
 21
8.9966069175
  0
LINE
  5
5A3
100
AcDbEntity
  8
0
100
AcDbLine
 62
250
  6
CONTINUOUS
 10
-33.0476841072
 20
8.9966069175
 11
-32.2772754621
 21
8.9966069175
  0
LINE
  5
5A4
100
AcDbEntity
  8
INTF_11
100
AcDbLine
 62
7
  6
CONTINUOUS
 10
-28.7444296135
 20
8.9966069175
 11
-27.9740209684
 21
8.9966069175
  0
LINE
  5
5A5
100
AcDbEntity
  8
0
100
AcDbLine
 62
250
  6
CONTINUOUS
 10
-28.7444296135
 20
8.9966069175
 11
-27.9740209684
 21
8.9966069175
  0
LINE
  5
5A6
100
AcDbEntity
  8
SCRITTE
100
AcDbLine
 62
250
  6
CONTINUOUS
 10
-40.9929439774
 20
9.3925399175
 11
-40.511085378
 21
9.3925399175
  0
LINE
  5
5A7
100
AcDbEntity
  8
0
100
AcDbLine
 62
250
  6
CONTINUOUS
 10
-27.3104685735
 20
9.4609249175
 11
-26.010864536
 21
9.4609249175
  0
LINE
  5
5A8
100
AcDbEntity
  8
0
100
AcDbLine
 62
250
  6
CONTINUOUS
 10
-27.3104685735
 20
9.8492529175
 11
-26.010864536
 21
9.8492529175
  0
LINE
  5
5A9
100
AcDbEntity
  8
SCRITTE
100
AcDbLine
 62
250
  6
CONTINUOUS
 10
-37.010864536
 20
10.6761969175
 11
-38.910864536
 21
10.6761969175
  0
LINE
  5
5AA
100
AcDbEntity
  8
SCRITTE
100
AcDbLine
 62
250
  6
CONTINUOUS
 10
-41.6074903648
 20
10.6772579175
 11
-42.856569095
 21
11.1072729175
  0
LINE
  5
5AB
100
AcDbEntity
  8
SCRITTE
100
AcDbLine
 62
250
  6
CONTINUOUS
 10
-40.511085378
 20
10.2997659175
 11
-41.1256307655
 21
10.5166139175
  0
LINE
  5
5AC
100
AcDbEntity
  8
0
100
AcDbLine
 62
250
  6
CONTINUOUS
 10
-27.3104685735
 20
5.5960869175
 11
-26.010864536
 21
5.0257539175
  0
LINE
  5
5AD
100
AcDbEntity
  8
0
100
AcDbLine
 62
250
  6
CONTINUOUS
 10
-27.3104685735
 20
4.8519329175
 11
-26.010864536
 21
4.2290659175
  0
LINE
  5
5AE
100
AcDbEntity
  8
SCRITTE
100
AcDbLine
 62
250
  6
CONTINUOUS
 10
-38.1191978316
 20
14.8324469175
 11
-37.8025311838
 21
14.3574469175
  0
LWPOLYLINE
  5
5AF
100
AcDbEntity
  8
0
100
AcDbPolyline
 62
250
  6
CONTINUOUS
 90
52
 70
0
 10
-29.263682135
 20
-7.0738030825
 10
-29.2648747616
 20
-6.9344517041
 10
-29.2684734379
 20
-6.7950836527
 10
-29.2745093585
 20
-6.6557610531
 10
-29.2830137181
 20
-6.5165460301
 10
-29.2940177112
 20
-6.3775007086
 10
-29.3075525324
 20
-6.2386872133
 10
-29.3236493765
 20
-6.100167669
 10
-29.342339438
 20
-5.9620042006
 10
-29.3636781457
 20
-5.8241772236
 10
-29.3877406378
 20
-5.6868292576
 10
-29.4146231792
 20
-5.5500206178
 10
-29.4444220347
 20
-5.4138116191
 10
-29.4704276658
 20
-5.3053339163
 10
-29.4984388388
 20
-5.197348771
 10
-29.5285334244
 20
-5.0899264516
 10
-29.5607892935
 20
-4.9831372267
 10
-29.5952843168
 20
-4.8770513646
 10
-29.6257961928
 20
-4.789258878
 10
-29.6580001644
 20
-4.7020718381
 10
-29.6919800091
 20
-4.6155586903
 10
-29.7278195043
 20
-4.52978788
 10
-29.7656024275
 20
-4.4448278527
 10
-29.8054125562
 20
-4.3607470536
 10
-29.8411934245
 20
-4.2894927593
 10
-29.8786115762
 20
-4.21906486
 10
-29.9177554922
 20
-4.1495944545
 10
-29.9587136536
 20
-4.0812126411
 10
-30.0015745415
 20
-4.0140505186
 10
-30.0464266371
 20
-3.9482391855
 10
-30.0933584214
 20
-3.8839097403
 10
-30.136244999
 20
-3.8289057547
 10
-30.1808867324
 20
-3.7753211272
 10
-30.2273757108
 20
-3.7233379952
 10
-30.2758040232
 20
-3.6731384964
 10
-30.3159854711
 20
-3.6344113158
 10
-30.3574938434
 20
-3.5970986185
 10
-30.4003569841
 20
-3.5613577917
 10
-30.4446027372
 20
-3.5273462225
 10
-30.4902589467
 20
-3.4952212981
 10
-30.5293605807
 20
-3.4700351426
 10
-30.5694347815
 20
-3.4464027424
 10
-30.6104571076
 20
-3.4244609609
 10
-30.652403118
 20
-3.4043466615
 10
-30.6952483712
 20
-3.3861967075
 10
-30.738968426
 20
-3.3701479625
 10
-30.7834663819
 20
-3.3563428937
 10
-30.8286546876
 20
-3.3448563163
 10
-30.8743752281
 20
-3.3357736386
 10
-30.9204698885
 20
-3.3291802683
 10
-30.9667805536
 20
-3.3251616137
 10
-31.0131491086
 20
-3.3238030825
  0
LINE
  5
5B0
100
AcDbEntity
  8
INTF_1
100
AcDbLine
 62
7
  6
CONTINUOUS
 10
-29.0297213355
 20
11.8338349175
 11
-29.0297213355
 21
16.0185589175
  0
LINE
  5
5B1
100
AcDbEntity
  8
0
100
AcDbLine
 62
250
  6
CONTINUOUS
 10
-29.0297213355
 20
11.8338349175
 11
-29.0297213355
 21
16.0185589175
  0
LINE
  5
5B2
100
AcDbEntity
  8
INTF_1
100
AcDbLine
 62
7
  6
CONTINUOUS
 10
-28.010864536
 20
16.0185589175
 11
-28.010864536
 21
11.8338349175
  0
LINE
  5
5B3
100
AcDbEntity
  8
0
100
AcDbLine
 62
250
  6
CONTINUOUS
 10
-28.010864536
 20
16.0185589175
 11
-28.010864536
 21
11.8338349175
  0
LWPOLYLINE
  5
5B4
100
AcDbEntity
  8
0
100
AcDbPolyline
 62
250
  6
CONTINUOUS
 90
7
 70
0
 10
-27.9673155772
 20
8.5656843138
 10
-27.9633959648
 20
8.6367834417
 10
-27.9614627823
 20
8.7079643079
 10
-27.9615175373
 20
8.7791714075
 10
-27.9635601871
 20
8.8503492155
 10
-27.9675891388
 20
8.9214422296
 10
-27.9740209692
 20
8.9966069253
  0
LWPOLYLINE
  5
5B5
100
AcDbEntity
  8
INTF_11
100
AcDbPolyline
 62
7
  6
CONTINUOUS
 90
7
 70
0
 10
-27.9673155772
 20
8.5656843138
 10
-27.9633959648
 20
8.6367834417
 10
-27.9614627823
 20
8.7079643079
 10
-27.9615175373
 20
8.7791714075
 10
-27.9635601871
 20
8.8503492155
 10
-27.9675891388
 20
8.9214422296
 10
-27.9740209692
 20
8.9966069253
  0
LWPOLYLINE
  5
5B6
100
AcDbEntity
  8
0
100
AcDbPolyline
 62
250
  6
CONTINUOUS
 90
7
 70
0
 10
-27.9673155772
 20
4.2306843138
 10
-27.9633959648
 20
4.3017834417
 10
-27.9614627823
 20
4.3729643079
 10
-27.9615175373
 20
4.4441714075
 10
-27.9635601871
 20
4.5153492155
 10
-27.9675891388
 20
4.5864422296
 10
-27.9740209692
 20
4.6616069253
  0
LWPOLYLINE
  5
5B7
100
AcDbEntity
  8
INTF_11
100
AcDbPolyline
 62
7
  6
CONTINUOUS
 90
7
 70
0
 10
-27.9673155772
 20
4.2306843138
 10
-27.9633959648
 20
4.3017834417
 10
-27.9614627823
 20
4.3729643079
 10
-27.9615175373
 20
4.4441714075
 10
-27.9635601871
 20
4.5153492155
 10
-27.9675891388
 20
4.5864422296
 10
-27.9740209692
 20
4.6616069253
  0
LWPOLYLINE
  5
5B8
100
AcDbEntity
  8
INTF_11
100
AcDbPolyline
 62
7
  6
CONTINUOUS
 90
7
 70
0
 10
-28.7376630064
 20
4.2039581187
 10
-28.7307336364
 20
4.2784006578
 10
-28.7269271999
 20
4.3530681143
 10
-28.7262503746
 20
4.427829496
 10
-28.7290500709
 20
4.5087748673
 10
-28.7348907125
 20
4.5833107576
 10
-28.7444296162
 20
4.661606936
  0
LWPOLYLINE
  5
5B9
100
AcDbEntity
  8
0
100
AcDbPolyline
 62
250
  6
CONTINUOUS
 90
65
 70
0
 10
-31.6322167131
 20
-4.4913864308
 10
-31.6174340945
 20
-4.4626034236
 10
-31.6022275734
 20
-4.4339935246
 10
-31.5865724095
 20
-4.4055943793
 10
-31.5704438623
 20
-4.3774436329
 10
-31.5538171913
 20
-4.349578931
 10
-31.5366676562
 20
-4.322037919
 10
-31.5189705165
 20
-4.2948582422
 10
-31.5007010319
 20
-4.2680775462
 10
-31.4818344618
 20
-4.2417334763
 10
-31.4623460659
 20
-4.215863678
 10
-31.4422111037
 20
-4.1905057967
 10
-31.4214048349
 20
-4.1656974778
 10
-31.405333465
 20
-4.1474697992
 10
-31.3888451576
 20
-4.1296190211
 10
-31.3719149265
 20
-4.1121913811
 10
-31.3545177856
 20
-4.0952331167
 10
-31.3366287487
 20
-4.0787904658
 10
-31.3182228295
 20
-4.0629096658
 10
-31.2992750419
 20
-4.0476369545
 10
-31.2797603997
 20
-4.0330185696
 10
-31.2637842944
 20
-4.0218677455
 10
-31.2474464303
 20
-4.0112087832
 10
-31.2307612164
 20
-4.0010882734
 10
-31.2137430613
 20
-3.991552807
 10
-31.1964063741
 20
-3.9826489747
 10
-31.1787655636
 20
-3.9744233675
 10
-31.1608350385
 20
-3.9669225762
 10
-31.1426292078
 20
-3.9601931915
 10
-31.1241624804
 20
-3.9542818043
 10
-31.105449265
 20
-3.9492350055
 10
-31.08643068
 20
-3.9450794996
 10
-31.067227239
 20
-3.9418617595
 10
-31.0478880946
 20
-3.9396007969
 10
-31.0284623993
 20
-3.9383156232
 10
-31.0089993056
 20
-3.9380252501
 10
-30.9895476365
 20
-3.9387416938
 10
-30.9701552704
 20
-3.9404489714
 10
-30.9508697565
 20
-3.9431240984
 10
-30.9317386435
 20
-3.9467440901
 10
-30.9128094804
 20
-3.9512859619
 10
-30.8941966107
 20
-3.9566997815
 10
-30.8758435958
 20
-3.9629591995
 10
-30.8577627412
 20
-3.9700179429
 10
-30.8399663522
 20
-3.9778297385
 10
-30.8224667345
 20
-3.9863483134
 10
-30.8052761935
 20
-3.9955273945
 10
-30.7884070346
 20
-4.0053207087
 10
-30.7718715635
 20
-4.0156819829
 10
-30.7556820855
 20
-4.0265649441
 10
-30.7398509061
 20
-4.0379233192
 10
-30.7205135122
 20
-4.0527774977
 10
-30.7017355425
 20
-4.0682630558
 10
-30.6834934952
 20
-4.0843363744
 10
-30.665763869
 20
-4.1009538345
 10
-30.648523162
 20
-4.1180718172
 10
-30.6317478727
 20
-4.1356467035
 10
-30.6154144995
 20
-4.1536348743
 10
-30.5994995408
 20
-4.1719927106
 10
-30.5788733823
 20
-4.1970054939
 10
-30.5589227022
 20
-4.2225540165
 10
-30.5396194498
 20
-4.2485931729
 10
-30.5209355746
 20
-4.2750778571
 10
-30.5028430256
 20
-4.3019629635
 10
-30.4853137523
 20
-4.3292033863
  0
LINE
  5
5BA
100
AcDbEntity
  8
0
100
AcDbLine
 62
250
  6
CONTINUOUS
 10
-31.9905503147
 20
-5.6790300825
 11
-30.917841147
 21
-5.0119030825
  0
LINE
  5
5BB
100
AcDbEntity
  8
SCRITTE
100
AcDbLine
 62
250
  6
CONTINUOUS
 10
-41.5223203386
 20
-8.0975740825
 11
-43.4107016851
 21
-8.6391420825
  0
LINE
  5
5BC
100
AcDbEntity
  8
SCRITTE
100
AcDbLine
 62
250
  6
CONTINUOUS
 10
-42.4231631149
 20
-8.9359570825
 11
-40.5110123891
 21
-8.3875810825
  0
LINE
  5
5BD
100
AcDbEntity
  8
INTF_1
100
AcDbLine
 62
7
  6
CONTINUOUS
 10
-34.2016265093
 20
12.8573209175
 11
-30.8399175919
 21
13.1513709175
  0
LINE
  5
5BE
100
AcDbEntity
  8
0
100
AcDbLine
 62
250
  6
CONTINUOUS
 10
-34.2016265093
 20
12.8573209175
 11
-30.8399175919
 21
13.1513709175
  0
LINE
  5
5BF
100
AcDbEntity
  8
0
100
AcDbLine
 62
250
  6
CONTINUOUS
 10
-27.3104685735
 20
10.8813779175
 11
-26.010864536
 21
10.8813779175
  0
LINE
  5
5C0
100
AcDbEntity
  8
0
100
AcDbLine
 62
250
  6
CONTINUOUS
 10
-27.3104685735
 20
11.7749089175
 11
-26.010864536
 21
11.7749089175
  0
LINE
  5
5C1
100
AcDbEntity
  8
INTF_1
100
AcDbLine
 62
7
  6
CONTINUOUS
 10
-28.010864536
 20
11.8338349175
 11
-29.0297213355
 21
11.8338349175
  0
LINE
  5
5C2
100
AcDbEntity
  8
0
100
AcDbLine
 62
250
  6
CONTINUOUS
 10
-28.010864536
 20
11.8338349175
 11
-29.0297213355
 21
11.8338349175
  0
LINE
  5
5C3
100
AcDbEntity
  8
0
100
AcDbLine
 62
250
  6
CONTINUOUS
 10
-26.010864536
 20
12.5788489175
 11
-27.3104685735
 21
12.5788489175
  0
LINE
  5
5C4
100
AcDbEntity
  8
SCRITTE
100
AcDbLine
 62
250
  6
CONTINUOUS
 10
-40.511085378
 20
12.8181269175
 11
-43.4106436939
 21
12.8181269175
  0
LWPOLYLINE
  5
5C5
100
AcDbEntity
  8
C_CORPO
100
AcDbPolyline
 62
7
  6
CONTINUOUS
 90
49
 70
0
 10
-19.8847178131
 20
12.2274361518
 10
-19.8753431713
 20
12.2272292051
 10
-19.8660101059
 20
12.2269606106
 10
-19.856727732
 20
12.2266303684
 10
-19.8475051351
 20
12.2262379784
 10
-19.8383512041
 20
12.2257839407
 10
-19.8292746271
 20
12.2252697554
 10
-19.820284109
 20
12.2246952771
 10
-19.8113883118
 20
12.2240606513
 10
-19.8025956919
 20
12.2233678152
 10
-19.7939145996
 20
12.2226166258
 10
-19.7853532974
 20
12.2218072261
 10
-19.7769199051
 20
12.2209419827
 10
-19.7686223465
 20
12.220020757
 10
-19.7604684154
 20
12.2190436877
 10
-19.7524657918
 20
12.2180135575
 10
-19.7446219044
 20
12.2169302337
 10
-19.736944015
 20
12.215793849
 10
-19.7294392742
 20
12.2146075839
 10
-19.7221145547
 20
12.2133713136
 10
-19.7149765268
 20
12.2120851628
 10
-19.7080317288
 20
12.2107526859
 10
-19.7012864216
 20
12.2093737674
 10
-19.6947466353
 20
12.2079485228
 10
-19.6884182307
 20
12.2064808522
 10
-19.6823068096
 20
12.2049706505
 10
-19.6764177221
 20
12.2034180229
 10
-19.6707561038
 20
12.2018271849
 10
-19.6653268608
 20
12.2001980424
 10
-19.6601346308
 20
12.1985306895
 10
-19.6551837911
 20
12.1968296234
 10
-19.6504785241
 20
12.1950947616
 10
-19.6460227336
 20
12.1933261866
 10
-19.6418200234
 20
12.191528643
 10
-19.637873833
 20
12.1897020597
 10
-19.63418732
 20
12.1878465078
 10
-19.630763315
 20
12.1859669455
 10
-19.6276045057
 20
12.1840633131
 10
-19.6247132974
 20
12.1821356704
 10
-19.6220917573
 20
12.1801891542
 10
-19.6197418193
 20
12.1782237158
 10
-19.6176651387
 20
12.1762394039
 10
-19.6158630412
 20
12.1742415017
 10
-19.6143367116
 20
12.1722299711
 10
-19.6130870628
 20
12.1702048501
 10
-19.6121147058
 20
12.1681715368
 10
-19.6114200749
 20
12.1661318303
 10
-19.6110033762
 20
12.1640839314
 10
-19.610864536
 20
12.1620278401
  0
LWPOLYLINE
  5
5C6
100
AcDbEntity
  8
ASSI
100
AcDbPolyline
 62
7
  6
CONTINUOUS
 90
49
 70
0
 10
-19.8847178131
 20
12.2274361518
 10
-19.8753431713
 20
12.2272292051
 10
-19.8660101059
 20
12.2269606106
 10
-19.856727732
 20
12.2266303684
 10
-19.8475051351
 20
12.2262379784
 10
-19.8383512041
 20
12.2257839407
 10
-19.8292746271
 20
12.2252697554
 10
-19.820284109
 20
12.2246952771
 10
-19.8113883118
 20
12.2240606513
 10
-19.8025956919
 20
12.2233678152
 10
-19.7939145996
 20
12.2226166258
 10
-19.7853532974
 20
12.2218072261
 10
-19.7769199051
 20
12.2209419827
 10
-19.7686223465
 20
12.220020757
 10
-19.7604684154
 20
12.2190436877
 10
-19.7524657918
 20
12.2180135575
 10
-19.7446219044
 20
12.2169302337
 10
-19.736944015
 20
12.215793849
 10
-19.7294392742
 20
12.2146075839
 10
-19.7221145547
 20
12.2133713136
 10
-19.7149765268
 20
12.2120851628
 10
-19.7080317288
 20
12.2107526859
 10
-19.7012864216
 20
12.2093737674
 10
-19.6947466353
 20
12.2079485228
 10
-19.6884182307
 20
12.2064808522
 10
-19.6823068096
 20
12.2049706505
 10
-19.6764177221
 20
12.2034180229
 10
-19.6707561038
 20
12.2018271849
 10
-19.6653268608
 20
12.2001980424
 10
-19.6601346308
 20
12.1985306895
 10
-19.6551837911
 20
12.1968296234
 10
-19.6504785241
 20
12.1950947616
 10
-19.6460227336
 20
12.1933261866
 10
-19.6418200234
 20
12.191528643
 10
-19.637873833
 20
12.1897020597
 10
-19.63418732
 20
12.1878465078
 10
-19.630763315
 20
12.1859669455
 10
-19.6276045057
 20
12.1840633131
 10
-19.6247132974
 20
12.1821356704
 10
-19.6220917573
 20
12.1801891542
 10
-19.6197418193
 20
12.1782237158
 10
-19.6176651387
 20
12.1762394039
 10
-19.6158630412
 20
12.1742415017
 10
-19.6143367116
 20
12.1722299711
 10
-19.6130870628
 20
12.1702048501
 10
-19.6121147058
 20
12.1681715368
 10
-19.6114200749
 20
12.1661318303
 10
-19.6110033762
 20
12.1640839314
 10
-19.610864536
 20
12.1620278401
  0
LWPOLYLINE
  5
5C7
100
AcDbEntity
  8
C_CORPO
100
AcDbPolyline
 62
7
  6
CONTINUOUS
 90
10
 70
0
 10
-19.8847178131
 20
12.2274361518
 10
-19.8870178147
 20
12.2274986514
 10
-19.8893232386
 20
12.2276017436
 10
-19.8916339548
 20
12.2277454283
 10
-19.8939488378
 20
12.2279293516
 10
-19.8962687479
 20
12.2281538674
 10
-19.8985965364
 20
12.2284200376
 10
-19.9009330652
 20
12.2287282161
 10
-19.9032772039
 20
12.2290780489
 10
-19.905628814
 20
12.2294695362
  0
LWPOLYLINE
  5
5C8
100
AcDbEntity
  8
ASSI
100
AcDbPolyline
 62
7
  6
CONTINUOUS
 90
10
 70
0
 10
-19.8847178131
 20
12.2274361518
 10
-19.8870178147
 20
12.2274986514
 10
-19.8893232386
 20
12.2276017436
 10
-19.8916339548
 20
12.2277454283
 10
-19.8939488378
 20
12.2279293516
 10
-19.8962687479
 20
12.2281538674
 10
-19.8985965364
 20
12.2284200376
 10
-19.9009330652
 20
12.2287282161
 10
-19.9032772039
 20
12.2290780489
 10
-19.905628814
 20
12.2294695362
  0
LINE
  5
5C9
100
AcDbEntity
  8
SCRITTE
100
AcDbLine
 62
250
  6
CONTINUOUS
 10
-37.485864536
 20
12.1011969175
 11
-38.910864536
 21
12.9324469175
  0
LINE
  5
5CA
100
AcDbEntity
  8
SCRITTE
100
AcDbLine
 62
250
  6
CONTINUOUS
 10
-38.5941978316
 20
14.0011969175
 11
-38.7525312404
 21
14.1199469175
  0
LINE
  5
5CB
100
AcDbEntity
  8
SCRITTE
100
AcDbLine
 62
250
  6
CONTINUOUS
 10
-37.8025311838
 20
14.3574469175
 11
-37.485864536
 21
14.1199469175
  0
LINE
  5
5CC
100
AcDbEntity
  8
SCRITTE
100
AcDbLine
 62
250
  6
CONTINUOUS
 10
-38.2775312404
 20
14.9511969175
 11
-38.1191978316
 21
14.8324469175
  0
LINE
  5
5CD
100
AcDbEntity
  8
SCRITTE
100
AcDbLine
 62
250
  6
CONTINUOUS
 10
-38.2775312404
 20
18.1574469175
 11
-38.1191978316
 21
17.9199469175
  0
LINE
  5
5CE
100
AcDbEntity
  8
SCRITTE
100
AcDbLine
 62
250
  6
CONTINUOUS
 10
-37.010864536
 20
18.3949469175
 11
-37.169197874
 21
18.6324469175
  0
LWPOLYLINE
  5
5CF
100
AcDbEntity
  8
INTF_1
100
AcDbPolyline
 62
7
  6
CONTINUOUS
 90
16
 70
0
 10
-30.8205937325
 20
14.7942155952
 10
-30.8242403484
 20
14.8228711874
 10
-30.8338766296
 20
14.8506197055
 10
-30.8487752043
 20
14.8753666179
 10
-30.8687880915
 20
14.8968661244
 10
-30.8924046656
 20
14.9134953855
 10
-30.9193903535
 20
14.9250892302
 10
-30.9477082043
 20
14.9307725243
 10
-30.9770769493
 20
14.9304888182
 10
-31.005279758
 20
14.9242595269
 10
-31.0320365043
 20
14.9121465231
 10
-31.0556905
 20
14.8947343297
 10
-31.0749214609
 20
14.8731820145
 10
-31.0895383744
 20
14.847703647
 10
-31.0984379173
 20
14.8202224019
 10
-31.1015317407
 20
14.7908969171
  0
LWPOLYLINE
  5
5D0
100
AcDbEntity
  8
INTF_1
100
AcDbPolyline
 62
7
  6
CONTINUOUS
 90
16
 70
0
 10
-30.6435880947
 20
14.7983980597
 10
-30.6518304691
 20
14.8631677334
 10
-30.6736111669
 20
14.9258871652
 10
-30.7072861234
 20
14.9818221263
 10
-30.7525208602
 20
15.0304170396
 10
-30.8059009398
 20
15.0680038327
 10
-30.8668961616
 20
15.0942091726
 10
-30.9309024449
 20
15.107055011
 10
-30.9972840437
 20
15.1064137558
 10
-31.0610302995
 20
15.0923338107
 10
-31.1215080491
 20
15.0649550255
 10
-31.1749727122
 20
15.0255985859
 10
-31.2184400763
 20
14.9768843101
 10
-31.2514783995
 20
14.9192960553
 10
-31.2715938618
 20
14.8571807354
 10
-31.2785867702
 20
14.7908969167
  0
LINE
  5
5D1
100
AcDbEntity
  8
0
100
AcDbLine
 62
250
  6
CONTINUOUS
 10
-27.3104685735
 20
8.5999389175
 11
-27.3104685735
 21
7.6529519175
  0
LINE
  5
5D2
100
AcDbEntity
  8
0
100
AcDbLine
 62
250
  6
CONTINUOUS
 10
-27.3104685735
 20
6.7664399175
 11
-27.3104685735
 21
6.3366039175
  0
LINE
  5
5D3
100
AcDbEntity
  8
0
100
AcDbLine
 62
250
  6
CONTINUOUS
 10
-27.3104685735
 20
12.0510519175
 11
-27.3104685735
 21
13.1066439175
  0
LINE
  5
5D4
100
AcDbEntity
  8
0
100
AcDbLine
 62
250
  6
CONTINUOUS
 10
-26.6606665548
 20
7.6529519175
 11
-26.6606665548
 21
8.5335429175
  0
LINE
  5
5D5
100
AcDbEntity
  8
0
100
AcDbLine
 62
250
  6
CONTINUOUS
 10
-26.4825618196
 20
13.3824809175
 11
-26.4825618196
 21
14.1091379175
  0
LINE
  5
5D6
100
AcDbEntity
  8
0
100
AcDbLine
 62
250
  6
CONTINUOUS
 10
-26.475123086
 20
5.2294949175
 11
-26.475123086
 21
5.9626799175
  0
LINE
  5
5D7
100
AcDbEntity
  8
0
100
AcDbLine
 62
250
  6
CONTINUOUS
 10
-26.010864536
 20
6.3366039175
 11
-26.010864536
 21
6.7664399175
  0
LINE
  5
5D8
100
AcDbEntity
  8
0
100
AcDbLine
 62
250
  6
CONTINUOUS
 10
-26.010864536
 20
7.6529519175
 11
-26.010864536
 21
8.6126289175
  0
LINE
  5
5D9
100
AcDbEntity
  8
0
100
AcDbLine
 62
250
  6
CONTINUOUS
 10
-26.010864536
 20
14.5651149175
 11
-26.010864536
 21
15.3120489175
  0
LWPOLYLINE
  5
5DA
100
AcDbEntity
  8
C_COPERCHIO
100
AcDbPolyline
 62
250
  6
CONTINUOUS
 90
5
 70
0
 10
-39.0310261775
 20
-20.818282265
 10
-39.0462707392
 20
-20.8421049879
 10
-39.0653967875
 20
-20.8651745802
 10
-39.088031775
 20
-20.8869728036
 10
-39.1137896247
 20
-20.9074056396
  0
LINE
  5
5DB
100
AcDbEntity
  8
C_CORPO
100
AcDbLine
 62
7
  6
CONTINUOUS
 10
-35.2376253307
 20
-12.9846750383
 11
-35.2080902366
 21
-12.9416227265
  0
LINE
  5
5DC
100
AcDbEntity
  8
ASSI
100
AcDbLine
 62
7
  6
CONTINUOUS
 10
-35.2376253307
 20
-12.9846750383
 11
-35.2080902366
 21
-12.9416227265
  0
LINE
  5
5DD
100
AcDbEntity
  8
C_CORPO
100
AcDbLine
 62
7
  6
CONTINUOUS
 10
-35.2080902366
 20
-12.9416227265
 11
-35.1785040401
 21
-12.8990808663
  0
LINE
  5
5DE
100
AcDbEntity
  8
ASSI
100
AcDbLine
 62
7
  6
CONTINUOUS
 10
-35.2080902366
 20
-12.9416227265
 11
-35.1785040401
 21
-12.8990808663
  0
LWPOLYLINE
  5
5DF
100
AcDbEntity
  8
C_CORPO
100
AcDbPolyline
 62
7
  6
CONTINUOUS
 90
3
 70
0
 10
-35.1785040401
 20
-12.8990808663
 10
-35.1342787858
 20
-12.8361353693
 10
-35.1195907085
 20
-12.8153801708
  0
LWPOLYLINE
  5
5E0
100
AcDbEntity
  8
ASSI
100
AcDbPolyline
 62
7
  6
CONTINUOUS
 90
3
 70
0
 10
-35.1785040401
 20
-12.8990808663
 10
-35.1342787858
 20
-12.8361353693
 10
-35.1195907085
 20
-12.8153801708
  0
LWPOLYLINE
  5
5E1
100
AcDbEntity
  8
0
100
AcDbPolyline
 62
250
  6
CONTINUOUS
 90
17
 70
0
 10
-30.961043141
 20
14.4733049175
 10
-30.8993652602
 20
14.4793534078
 10
-30.8400366707
 20
14.4972684935
 10
-30.7853171801
 20
14.5263677948
 10
-30.7365058875
 20
14.5663254606
 10
-30.6971693169
 20
14.6142218803
 10
-30.6678836182
 20
14.6688477973
 10
-30.6497642746
 20
14.7281225274
 10
-30.6434995118
 20
14.7908969175
 10
-30.6495470809
 20
14.8525841935
 10
-30.6674594382
 20
14.9119218204
 10
-30.6965543074
 20
14.9666496464
 10
-30.7365058875
 20
15.0154683743
 10
-30.7843950124
 20
15.054810937
 10
-30.8390126096
 20
15.0841010967
 10
-30.8982783118
 20
15.1022232003
 10
-30.9610431688
 20
15.1084889175
  0
LWPOLYLINE
  5
5E2
100
AcDbEntity
  8
0
100
AcDbPolyline
 62
250
  6
CONTINUOUS
 90
17
 70
0
 10
-30.961043141
 20
14.6503869175
 10
-30.933755429
 20
14.6530629086
 10
-30.9075070975
 20
14.6609889543
 10
-30.8832979372
 20
14.6738631539
 10
-30.8617026995
 20
14.6915413436
 10
-30.8442992966
 20
14.7127318205
 10
-30.8313426305
 20
14.7368995817
 10
-30.8233262164
 20
14.7631240846
 10
-30.8205545414
 20
14.7908969175
 10
-30.8232301249
 20
14.8181887861
 10
-30.8311549635
 20
14.844441116
 10
-30.8440272023
 20
14.868653964
 10
-30.8617026995
 20
14.8902524913
 10
-30.882889949
 20
14.9076585452
 10
-30.9070540293
 20
14.9206171851
 10
-30.9332745381
 20
14.9286348202
 10
-30.9610431533
 20
14.9314069175
  0
LWPOLYLINE
  5
5E3
100
AcDbEntity
  8
0
100
AcDbPolyline
 62
250
  6
CONTINUOUS
 90
17
 70
0
 10
-30.961043141
 20
14.9314069175
 10
-30.988330853
 20
14.9287309263
 10
-31.0145791846
 20
14.9208048806
 10
-31.0387883448
 20
14.907930681
 10
-31.0603835825
 20
14.8902524913
 10
-31.0777869855
 20
14.8690620144
 10
-31.0907436516
 20
14.8448942532
 10
-31.0987600656
 20
14.8186697503
 10
-31.1015317407
 20
14.7908969175
 10
-31.0988561571
 20
14.7636050488
 10
-31.0909313186
 20
14.7373527189
 10
-31.0780590798
 20
14.7131398709
 10
-31.0603835825
 20
14.6915413436
 10
-31.039196333
 20
14.6741352897
 10
-31.0150322528
 20
14.6611766498
 10
-30.988811744
 20
14.6531590147
 10
-30.9610431288
 20
14.6503869175
  0
LWPOLYLINE
  5
5E4
100
AcDbEntity
  8
0
100
AcDbPolyline
 62
250
  6
CONTINUOUS
 90
17
 70
0
 10
-30.961043141
 20
15.1084889175
 10
-31.0227210218
 20
15.1024404272
 10
-31.0820496113
 20
15.0845253414
 10
-31.136769102
 20
15.0554260401
 10
-31.1855803946
 20
15.0154683743
 10
-31.2249169652
 20
14.9675719546
 10
-31.2542026639
 20
14.9129460376
 10
-31.2723220074
 20
14.8536713075
 10
-31.2785867702
 20
14.7908969175
 10
-31.2725392011
 20
14.7292096414
 10
-31.2546268439
 20
14.6698720145
 10
-31.2255319746
 20
14.6151441885
 10
-31.1855803946
 20
14.5663254606
 10
-31.1376912697
 20
14.5269828979
 10
-31.0830736725
 20
14.4976927382
 10
-31.0238079702
 20
14.4795706346
 10
-30.9610431133
 20
14.4733049175
  0
LWPOLYLINE
  5
5E5
100
AcDbEntity
  8
0
100
AcDbPolyline
 62
250
  6
CONTINUOUS
 90
17
 70
0
 10
-34.306087597
 20
15.0235279175
 10
-34.2686872543
 20
15.0271956117
 10
-34.232711479
 20
15.0380589932
 10
-34.1995305772
 20
15.0557042791
 10
-34.1699322991
 20
15.0799338793
 10
-34.1460793196
 20
15.1089773952
 10
-34.1283210058
 20
15.1421015556
 10
-34.1173337661
 20
15.1780446715
 10
-34.1135349281
 20
15.2161099175
 10
-34.1172020638
 20
15.2535159573
 10
-34.1280637907
 20
15.2894972127
 10
-34.1457063891
 20
15.3226831688
 10
-34.1699322991
 20
15.3522859556
 10
-34.1989713915
 20
15.3761425685
 10
-34.232090507
 20
15.3939035875
 10
-34.2680281486
 20
15.4048925008
 10
-34.3060876138
 20
15.4086919175
  0
LINE
  5
5E6
100
AcDbEntity
  8
C_CORPO
100
AcDbLine
 62
250
  6
CONTINUOUS
 10
-21.610864536
 20
13.9171266345
 11
-21.6112358388
 21
13.9171214167
  0
LINE
  5
5E7
100
AcDbEntity
  8
ASSI
100
AcDbLine
 62
250
  6
CONTINUOUS
 10
-21.610864536
 20
13.9171266345
 11
-21.6112358388
 21
13.9171214167
  0
LINE
  5
5E8
100
AcDbEntity
  8
C_CORPO
100
AcDbLine
 62
250
  6
CONTINUOUS
 10
-21.6112358388
 20
13.9171214167
 11
-21.6407914498
 21
13.9170817107
  0
LINE
  5
5E9
100
AcDbEntity
  8
ASSI
100
AcDbLine
 62
250
  6
CONTINUOUS
 10
-21.6112358388
 20
13.9171214167
 11
-21.6407914498
 21
13.9170817107
  0
LWPOLYLINE
  5
5EA
100
AcDbEntity
  8
C_CORPO
100
AcDbPolyline
 62
250
  6
CONTINUOUS
 90
4
 70
0
 10
-21.6407914498
 20
13.9170817107
 10
-21.6554595022
 20
13.9170721325
 10
-21.663860618
 20
13.9170673627
 10
-21.6729649841
 20
13.9170625997
  0
LWPOLYLINE
  5
5EB
100
AcDbEntity
  8
ASSI
100
AcDbPolyline
 62
250
  6
CONTINUOUS
 90
4
 70
0
 10
-21.6407914498
 20
13.9170817107
 10
-21.6554595022
 20
13.9170721325
 10
-21.663860618
 20
13.9170673627
 10
-21.6729649841
 20
13.9170625997
  0
LINE
  5
5EC
100
AcDbEntity
  8
C_CORPO
100
AcDbLine
 62
250
  6
CONTINUOUS
 10
-21.6729649841
 20
13.9170625997
 11
-22.5934121295
 21
13.9168488065
  0
LINE
  5
5ED
100
AcDbEntity
  8
ASSI
100
AcDbLine
 62
250
  6
CONTINUOUS
 10
-21.6729649841
 20
13.9170625997
 11
-22.5934121295
 21
13.9168488065
  0
LINE
  5
5EE
100
AcDbEntity
  8
SCRITTE
100
AcDbLine
 62
250
  6
CONTINUOUS
 10
-38.910864536
 20
12.9324469175
 11
-37.010864536
 21
12.9324469175
  0
LINE
  5
5EF
100
AcDbEntity
  8
INTF_1
100
AcDbLine
 62
7
  6
CONTINUOUS
 10
-34.2016265093
 20
13.1444129175
 11
-34.5961844071
 21
13.1444129175
  0
LINE
  5
5F0
100
AcDbEntity
  8
0
100
AcDbLine
 62
250
  6
CONTINUOUS
 10
-34.2016265093
 20
13.1444129175
 11
-34.5961844071
 21
13.1444129175
  0
LINE
  5
5F1
100
AcDbEntity
  8
INTF_1
100
AcDbLine
 62
7
  6
CONTINUOUS
 10
-30.6434995118
 20
13.2080799175
 11
-30.8399175919
 21
13.2080799175
  0
LINE
  5
5F2
100
AcDbEntity
  8
0
100
AcDbLine
 62
250
  6
CONTINUOUS
 10
-30.6434995118
 20
13.2080799175
 11
-30.8399175919
 21
13.2080799175
  0
LINE
  5
5F3
100
AcDbEntity
  8
INTF_1
100
AcDbLine
 62
7
  6
CONTINUOUS
 10
-34.5961844071
 20
13.2437869175
 11
-34.2016265093
 21
13.2437869175
  0
LINE
  5
5F4
100
AcDbEntity
  8
0
100
AcDbLine
 62
250
  6
CONTINUOUS
 10
-34.5961844071
 20
13.2437869175
 11
-34.2016265093
 21
13.2437869175
  0
LINE
  5
5F5
100
AcDbEntity
  8
INTF_1
100
AcDbLine
 62
7
  6
CONTINUOUS
 10
-30.8399175919
 20
13.3256999175
 11
-30.6434995118
 21
13.3256999175
  0
LINE
  5
5F6
100
AcDbEntity
  8
0
100
AcDbLine
 62
250
  6
CONTINUOUS
 10
-30.8399175919
 20
13.3256999175
 11
-30.6434995118
 21
13.3256999175
  0
LINE
  5
5F7
100
AcDbEntity
  8
SCRITTE
100
AcDbLine
 62
250
  6
CONTINUOUS
 10
-42.9378197183
 20
13.4005719175
 11
-40.511085378
 21
13.4005719175
  0
LINE
  5
5F8
100
AcDbEntity
  8
INTF_1
100
AcDbLine
 62
7
  6
CONTINUOUS
 10
-33.1583594281
 20
13.7142669175
 11
-33.3739625857
 21
13.7142669175
  0
LINE
  5
5F9
100
AcDbEntity
  8
0
100
AcDbLine
 62
250
  6
CONTINUOUS
 10
-33.1583594281
 20
13.7142669175
 11
-33.3739625857
 21
13.7142669175
  0
LINE
  5
5FA
100
AcDbEntity
  8
INTF_1
100
AcDbLine
 62
7
  6
CONTINUOUS
 10
-34.4716833721
 20
13.7692699175
 11
-34.6891442467
 21
13.7692699175
  0
LINE
  5
5FB
100
AcDbEntity
  8
0
100
AcDbLine
 62
250
  6
CONTINUOUS
 10
-34.4716833721
 20
13.7692699175
 11
-34.6891442467
 21
13.7692699175
  0
LINE
  5
5FC
100
AcDbEntity
  8
INTF_1
100
AcDbLine
 62
7
  6
CONTINUOUS
 10
-34.6885863317
 20
14.3422729175
 11
-34.4711254571
 21
14.3422729175
  0
LINE
  5
5FD
100
AcDbEntity
  8
0
100
AcDbLine
 62
250
  6
CONTINUOUS
 10
-34.6885863317
 20
14.3422729175
 11
-34.4711254571
 21
14.3422729175
  0
LINE
  5
5FE
100
AcDbEntity
  8
INTF_1
100
AcDbLine
 62
7
  6
CONTINUOUS
 10
-33.3739625857
 20
14.5376069175
 11
-33.1583594281
 21
14.5376069175
  0
LINE
  5
5FF
100
AcDbEntity
  8
0
100
AcDbLine
 62
250
  6
CONTINUOUS
 10
-33.3739625857
 20
14.5376069175
 11
-33.1583594281
 21
14.5376069175
  0
LINE
  5
600
100
AcDbEntity
  8
0
100
AcDbLine
 62
250
  6
CONTINUOUS
 10
-27.3104685735
 20
14.5651149175
 11
-26.010864536
 21
14.5651149175
  0
LINE
  5
601
100
AcDbEntity
  8
SCRITTE
100
AcDbLine
 62
250
  6
CONTINUOUS
 10
-41.1128807077
 20
14.8545559175
 11
-43.4106436939
 21
14.8545559175
  0
LINE
  5
602
100
AcDbEntity
  8
SCRITTE
100
AcDbLine
 62
250
  6
CONTINUOUS
 10
-38.5941978316
 20
14.9511969175
 11
-38.2775312404
 21
14.9511969175
  0
LWPOLYLINE
  5
603
100
AcDbEntity
  8
INTF_1
100
AcDbPolyline
 62
7
  6
CONTINUOUS
 90
60
 70
0
 10
-34.2016263528
 20
12.8319850744
 10
-34.213585183
 20
12.8323567952
 10
-34.2253428632
 20
12.8334563048
 10
-34.2369003855
 20
12.8352601236
 10
-34.2482587416
 20
12.8377447723
 10
-34.2594189235
 20
12.8408867715
 10
-34.2703819231
 20
12.8446626417
 10
-34.2811487322
 20
12.8490489035
 10
-34.2917203427
 20
12.8540220776
 10
-34.3020977465
 20
12.8595586844
 10
-34.3122819354
 20
12.8656352446
 10
-34.3222739015
 20
12.8722282788
 10
-34.3320746365
 20
12.8793143075
 10
-34.3416851323
 20
12.8868698513
 10
-34.3511063808
 20
12.8948714309
 10
-34.3603393739
 20
12.9032955667
 10
-34.3693851035
 20
12.9121187794
 10
-34.3782445615
 20
12.9213175896
 10
-34.3869187397
 20
12.9308685178
 10
-34.39540863
 20
12.9407480846
 10
-34.4037152243
 20
12.9509328107
 10
-34.4118395145
 20
12.9613992165
 10
-34.4197824925
 20
12.9721238227
 10
-34.4275451502
 20
12.9830831499
 10
-34.4351284794
 20
12.9942537186
 10
-34.442533472
 20
13.0056120494
 10
-34.4497611199
 20
13.0171346629
 10
-34.456812415
 20
13.0287980797
 10
-34.4636883491
 20
13.0405788204
 10
-34.4703899143
 20
13.0524534056
 10
-34.4769181022
 20
13.0643983557
 10
-34.4832739049
 20
13.0763901915
 10
-34.4894583142
 20
13.0884054336
 10
-34.4954723219
 20
13.1004206024
 10
-34.5079998315
 20
13.1265423226
 10
-34.5197486995
 20
13.1525610194
 10
-34.530745404
 20
13.178485603
 10
-34.5410164227
 20
13.2043249838
 10
-34.5505882336
 20
13.2300880721
 10
-34.5594873144
 20
13.2557837782
 10
-34.5677401431
 20
13.2814210126
 10
-34.5753731975
 20
13.3070086855
 10
-34.5824129554
 20
13.3325557074
 10
-34.5888858948
 20
13.3580709885
 10
-34.5948184934
 20
13.3835634391
 10
-34.6002372291
 20
13.4090419698
 10
-34.6051685798
 20
13.4345154907
 10
-34.6096390233
 20
13.4599929123
 10
-34.6136750375
 20
13.4854831449
 10
-34.6173031003
 20
13.5109950988
 10
-34.6205496894
 20
13.5365376844
 10
-34.6234412828
 20
13.562119812
 10
-34.6260043584
 20
13.587750392
 10
-34.6282653939
 20
13.6134383347
 10
-34.6302508672
 20
13.6391925506
 10
-34.6319872562
 20
13.6650219498
 10
-34.6335010387
 20
13.6909354428
 10
-34.6348186927
 20
13.7169419399
 10
-34.6359666958
 20
13.7430503515
 10
-34.6369715261
 20
13.7692695879
  0
LINE
  5
604
100
AcDbEntity
  8
SCRITTE
100
AcDbLine
 62
250
  6
CONTINUOUS
 10
-37.485864536
 20
14.1199469175
 11
-37.010864536
 21
14.0011969175
  0
LINE
  5
605
100
AcDbEntity
  8
SCRITTE
100
AcDbLine
 62
250
  6
CONTINUOUS
 10
-41.6074903648
 20
16.7022929175
 11
-42.85640512
 21
17.1322509175
  0
LINE
  5
606
100
AcDbEntity
  8
SCRITTE
100
AcDbLine
 62
250
  6
CONTINUOUS
 10
-40.511085378
 20
16.3246909175
 11
-41.1256307655
 21
16.5416479175
  0
LINE
  5
607
100
AcDbEntity
  8
SCRITTE
100
AcDbLine
 62
250
  6
CONTINUOUS
 10
-43.4106436939
 20
16.7786859175
 11
-40.511085378
 21
15.7302419175
  0
LINE
  5
608
100
AcDbEntity
  8
SCRITTE
100
AcDbLine
 62
250
  6
CONTINUOUS
 10
-37.485864536
 20
15.9011969175
 11
-38.910864536
 21
16.7324469175
  0
LINE
  5
609
100
AcDbEntity
  8
INTF_1
100
AcDbLine
 62
7
  6
CONTINUOUS
 10
-30.1002682612
 20
11.5505749175
 11
-35.1097831716
 21
16.4872069175
  0
LINE
  5
60A
100
AcDbEntity
  8
0
100
AcDbLine
 62
250
  6
CONTINUOUS
 10
-30.1002682612
 20
11.5505749175
 11
-35.1097831716
 21
16.4872069175
  0
LINE
  5
60B
100
AcDbEntity
  8
C_CORPO
100
AcDbLine
 62
7
  6
CONTINUOUS
 10
-35.1195907085
 20
17.6677740057
 11
-35.1637291537
 21
17.7303818746
  0
LINE
  5
60C
100
AcDbEntity
  8
ASSI
100
AcDbLine
 62
7
  6
CONTINUOUS
 10
-35.1195907085
 20
17.6677740057
 11
-35.1637291537
 21
17.7303818746
  0
LINE
  5
60D
100
AcDbEntity
  8
C_CORPO
100
AcDbLine
 62
7
  6
CONTINUOUS
 10
-35.1637291537
 20
17.7303818746
 11
-35.1933036649
 21
17.7726816202
  0
LINE
  5
60E
100
AcDbEntity
  8
ASSI
100
AcDbLine
 62
7
  6
CONTINUOUS
 10
-35.1637291537
 20
17.7303818746
 11
-35.1933036649
 21
17.7726816202
  0
LWPOLYLINE
  5
60F
100
AcDbEntity
  8
C_CORPO
100
AcDbPolyline
 62
7
  6
CONTINUOUS
 90
40
 70
0
 10
-35.1933036649
 20
17.7726816202
 10
-35.2228643102
 20
17.8154787061
 10
-35.237625331
 20
17.8370688737
 10
-35.2523338491
 20
17.8588034634
 10
-35.2669905521
 20
17.8806820145
 10
-35.2815947524
 20
17.9027049878
 10
-35.2961049364
 20
17.9248901635
 10
-35.3105220411
 20
17.9472372313
 10
-35.3248451295
 20
17.9697465015
 10
-35.3390298773
 20
17.9924366856
 10
-35.3530774933
 20
18.015307808
 10
-35.3669867685
 20
18.0383598444
 10
-35.3807097516
 20
18.0616114336
 10
-35.3942479116
 20
18.0850628097
 10
-35.4075997795
 20
18.1087137385
 10
-35.4207129957
 20
18.1325821568
 10
-35.4335893609
 20
18.156668642
 10
-35.4462270745
 20
18.1809726166
 10
-35.4585683753
 20
18.2055102845
 10
-35.4706154212
 20
18.2302825951
 10
-35.4823660544
 20
18.255288599
 10
-35.4937560393
 20
18.2805416524
 10
-35.5047879341
 20
18.3060431221
 10
-35.5154591807
 20
18.3317916411
 10
-35.5256978686
 20
18.3577964653
 10
-35.5355070499
 20
18.3840595998
 10
-35.5448836725
 20
18.4105790394
 10
-35.5537466701
 20
18.4373580237
 10
-35.5620996195
 20
18.4643992841
 10
-35.5699389438
 20
18.4917000893
 10
-35.5771728459
 20
18.5192554848
 10
-35.5838055556
 20
18.5470693003
 10
-35.5898328431
 20
18.5751377061
 10
-35.5951502216
 20
18.6034442586
 10
-35.5997625988
 20
18.6319943053
 10
-35.603665067
 20
18.6607824986
 10
-35.6067384159
 20
18.6897763524
 10
-35.6089429086
 20
18.7189650377
 10
-35.610318282
 20
18.7483593835
 10
-35.610864536
 20
18.7779593896
  0
LWPOLYLINE
  5
610
100
AcDbEntity
  8
ASSI
100
AcDbPolyline
 62
7
  6
CONTINUOUS
 90
40
 70
0
 10
-35.1933036649
 20
17.7726816202
 10
-35.2228643102
 20
17.8154787061
 10
-35.237625331
 20
17.8370688737
 10
-35.2523338491
 20
17.8588034634
 10
-35.2669905521
 20
17.8806820145
 10
-35.2815947524
 20
17.9027049878
 10
-35.2961049364
 20
17.9248901635
 10
-35.3105220411
 20
17.9472372313
 10
-35.3248451295
 20
17.9697465015
 10
-35.3390298773
 20
17.9924366856
 10
-35.3530774933
 20
18.015307808
 10
-35.3669867685
 20
18.0383598444
 10
-35.3807097516
 20
18.0616114336
 10
-35.3942479116
 20
18.0850628097
 10
-35.4075997795
 20
18.1087137385
 10
-35.4207129957
 20
18.1325821568
 10
-35.4335893609
 20
18.156668642
 10
-35.4462270745
 20
18.1809726166
 10
-35.4585683753
 20
18.2055102845
 10
-35.4706154212
 20
18.2302825951
 10
-35.4823660544
 20
18.255288599
 10
-35.4937560393
 20
18.2805416524
 10
-35.5047879341
 20
18.3060431221
 10
-35.5154591807
 20
18.3317916411
 10
-35.5256978686
 20
18.3577964653
 10
-35.5355070499
 20
18.3840595998
 10
-35.5448836725
 20
18.4105790394
 10
-35.5537466701
 20
18.4373580237
 10
-35.5620996195
 20
18.4643992841
 10
-35.5699389438
 20
18.4917000893
 10
-35.5771728459
 20
18.5192554848
 10
-35.5838055556
 20
18.5470693003
 10
-35.5898328431
 20
18.5751377061
 10
-35.5951502216
 20
18.6034442586
 10
-35.5997625988
 20
18.6319943053
 10
-35.603665067
 20
18.6607824986
 10
-35.6067384159
 20
18.6897763524
 10
-35.6089429086
 20
18.7189650377
 10
-35.610318282
 20
18.7483593835
 10
-35.610864536
 20
18.7779593896
  0
LINE
  5
611
100
AcDbEntity
  8
0
100
AcDbLine
 62
250
  6
CONTINUOUS
 10
-29.9703908155
 20
-7.9985860825
 11
-30.8270128205
 21
-8.3758020825
  0
LINE
  5
612
100
AcDbEntity
  8
SCRITTE
100
AcDbLine
 62
250
  6
CONTINUOUS
 10
-41.4141088222
 20
-12.2838330825
 11
-43.4107016851
 21
-12.9249650825
  0
LINE
  5
613
100
AcDbEntity
  8
SCRITTE
100
AcDbLine
 62
250
  6
CONTINUOUS
 10
-43.4107016851
 20
-13.5049940825
 11
-40.5110053902
 21
-12.5738620825
  0
LWPOLYLINE
  5
614
100
AcDbEntity
  8
0
100
AcDbPolyline
 62
250
  6
CONTINUOUS
 90
17
 70
0
 10
-34.306087597
 20
15.4086919175
 10
-34.3434879397
 20
15.4050242232
 10
-34.3794637149
 20
15.3941608417
 10
-34.4126446167
 20
15.3765155558
 10
-34.4422428948
 20
15.3522859556
 10
-34.4660958743
 20
15.3232424397
 10
-34.4838541882
 20
15.2901182793
 10
-34.4948414278
 20
15.2541751634
 10
-34.4986402658
 20
15.2161099175
 10
-34.4949731301
 20
15.1787038776
 10
-34.4841114032
 20
15.1427226222
 10
-34.4664688048
 20
15.1095366661
 10
-34.4422428948
 20
15.0799338793
 10
-34.4132038024
 20
15.0560772664
 10
-34.380084687
 20
15.0383162474
 10
-34.3441470454
 20
15.0273273341
 10
-34.3060875801
 20
15.0235279175
  0
LINE
  5
615
100
AcDbEntity
  8
INTF_1
100
AcDbLine
 62
7
  6
CONTINUOUS
 10
-33.4663645103
 20
14.9940839175
 11
-33.8387717823
 21
14.9940839175
  0
LINE
  5
616
100
AcDbEntity
  8
0
100
AcDbLine
 62
250
  6
CONTINUOUS
 10
-33.4663645103
 20
14.9940839175
 11
-33.8387717823
 21
14.9940839175
  0
LINE
  5
617
100
AcDbEntity
  8
INTF_1
100
AcDbLine
 62
7
  6
CONTINUOUS
 10
-33.8387717823
 20
15.3441439175
 11
-33.4663645103
 21
15.3441439175
  0
LINE
  5
618
100
AcDbEntity
  8
0
100
AcDbLine
 62
250
  6
CONTINUOUS
 10
-33.8387717823
 20
15.3441439175
 11
-33.4663645103
 21
15.3441439175
  0
LINE
  5
619
100
AcDbEntity
  8
SCRITTE
100
AcDbLine
 62
250
  6
CONTINUOUS
 10
-43.4106436939
 20
15.4369999175
 11
-40.511085378
 21
15.4369999175
  0
LINE
  5
61A
100
AcDbEntity
  8
0
100
AcDbLine
 62
250
  6
CONTINUOUS
 10
-26.010864536
 20
15.9498009175
 11
-26.5137463183
 21
15.9498009175
  0
LINE
  5
61B
100
AcDbEntity
  8
INTF_1
100
AcDbLine
 62
7
  6
CONTINUOUS
 10
-29.0297213355
 20
16.0185589175
 11
-28.010864536
 21
16.0185589175
  0
LINE
  5
61C
100
AcDbEntity
  8
0
100
AcDbLine
 62
250
  6
CONTINUOUS
 10
-29.0297213355
 20
16.0185589175
 11
-28.010864536
 21
16.0185589175
  0
LINE
  5
61D
100
AcDbEntity
  8
SCRITTE
100
AcDbLine
 62
250
  6
CONTINUOUS
 10
-38.910864536
 20
16.7324469175
 11
-37.010864536
 21
16.7324469175
  0
LINE
  5
61E
100
AcDbEntity
  8
C_CORPO
100
AcDbLine
 62
7
  6
CONTINUOUS
 10
-21.3370112588
 20
14.1022378602
 11
-19.8847178131
 21
13.9751786476
  0
LINE
  5
61F
100
AcDbEntity
  8
ASSI
100
AcDbLine
 62
7
  6
CONTINUOUS
 10
-21.3370112588
 20
14.1022378602
 11
-19.8847178131
 21
13.9751786476
  0
LINE
  5
620
100
AcDbEntity
  8
C_CORPO
100
AcDbLine
 62
7
  6
CONTINUOUS
 10
-21.3370112588
 20
14.2609622073
 11
-19.8847178131
 21
14.1339029947
  0
LINE
  5
621
100
AcDbEntity
  8
ASSI
100
AcDbLine
 62
7
  6
CONTINUOUS
 10
-21.3370112588
 20
14.2609622073
 11
-19.8847178131
 21
14.1339029947
  0
LINE
  5
622
100
AcDbEntity
  8
INTF_1
100
AcDbLine
 62
7
  6
CONTINUOUS
 10
-31.2779948604
 20
14.8067899175
 11
-34.1740787056
 21
15.0760359175
  0
LINE
  5
623
100
AcDbEntity
  8
0
100
AcDbLine
 62
250
  6
CONTINUOUS
 10
-31.2779948604
 20
14.8067899175
 11
-34.1740787056
 21
15.0760359175
  0
LWPOLYLINE
  5
624
100
AcDbEntity
  8
C_CORPO
100
AcDbPolyline
 62
7
  6
CONTINUOUS
 90
7
 70
0
 10
-19.905628814
 20
12.2294695362
 10
-20.0456547478
 20
12.2538487614
 10
-20.188216434
 20
12.2783040771
 10
-20.3333138728
 20
12.3028354834
 10
-20.480947064
 20
12.3274429803
 10
-20.6311160078
 20
12.3521265677
 10
-20.783820704
 20
12.3768862456
  0
LWPOLYLINE
  5
625
100
AcDbEntity
  8
ASSI
100
AcDbPolyline
 62
7
  6
CONTINUOUS
 90
7
 70
0
 10
-19.905628814
 20
12.2294695362
 10
-20.0456547478
 20
12.2538487614
 10
-20.188216434
 20
12.2783040771
 10
-20.3333138728
 20
12.3028354834
 10
-20.480947064
 20
12.3274429803
 10
-20.6311160078
 20
12.3521265677
 10
-20.783820704
 20
12.3768862456
  0
LINE
  5
626
100
AcDbEntity
  8
SCRITTE
100
AcDbLine
 62
250
  6
CONTINUOUS
 10
-37.169197874
 20
18.6324469175
 11
-37.3275312121
 21
18.7511969175
  0
LWPOLYLINE
  5
627
100
AcDbEntity
  8
C_CORPO
100
AcDbPolyline
 62
250
  6
CONTINUOUS
 90
13
 70
0
 10
-22.5886935249
 20
18.3947281541
 10
-22.5890004832
 20
18.4033190518
 10
-22.5893240387
 20
18.411185619
 10
-22.5896639451
 20
18.4183218655
 10
-22.5900199435
 20
18.4247223695
 10
-22.5903917643
 20
18.4303822891
 10
-22.5907791258
 20
18.4352973428
 10
-22.5911817427
 20
18.4394638787
 10
-22.5915993013
 20
18.4428786235
 10
-22.5920314582
 20
18.4455388471
 10
-22.5924778736
 20
18.4474426365
 10
-22.5929382146
 20
18.4485887451
 10
-22.5934121295
 20
18.4489764405
  0
LWPOLYLINE
  5
628
100
AcDbEntity
  8
ASSI
100
AcDbPolyline
 62
250
  6
CONTINUOUS
 90
13
 70
0
 10
-22.5886935249
 20
18.3947281541
 10
-22.5890004832
 20
18.4033190518
 10
-22.5893240387
 20
18.411185619
 10
-22.5896639451
 20
18.4183218655
 10
-22.5900199435
 20
18.4247223695
 10
-22.5903917643
 20
18.4303822891
 10
-22.5907791258
 20
18.4352973428
 10
-22.5911817427
 20
18.4394638787
 10
-22.5915993013
 20
18.4428786235
 10
-22.5920314582
 20
18.4455388471
 10
-22.5924778736
 20
18.4474426365
 10
-22.5929382146
 20
18.4485887451
 10
-22.5934121295
 20
18.4489764405
  0
LINE
  5
629
100
AcDbEntity
  8
C_CORPO
100
AcDbLine
 62
250
  6
CONTINUOUS
 10
-22.5881303201
 20
18.3754000212
 11
-22.5886935249
 21
18.3947281541
  0
LINE
  5
62A
100
AcDbEntity
  8
ASSI
100
AcDbLine
 62
250
  6
CONTINUOUS
 10
-22.5881303201
 20
18.3754000212
 11
-22.5886935249
 21
18.3947281541
  0
LINE
  5
62B
100
AcDbEntity
  8
C_CORPO
100
AcDbLine
 62
250
  6
CONTINUOUS
 10
-22.587636133
 20
18.3532598761
 11
-22.5881303201
 21
18.3754000212
  0
LINE
  5
62C
100
AcDbEntity
  8
ASSI
100
AcDbLine
 62
250
  6
CONTINUOUS
 10
-22.587636133
 20
18.3532598761
 11
-22.5881303201
 21
18.3754000212
  0
LINE
  5
62D
100
AcDbEntity
  8
C_CORPO
100
AcDbLine
 62
250
  6
CONTINUOUS
 10
-22.5872124638
 20
18.3283749301
 11
-22.587636133
 21
18.3532598761
  0
LINE
  5
62E
100
AcDbEntity
  8
ASSI
100
AcDbLine
 62
250
  6
CONTINUOUS
 10
-22.5872124638
 20
18.3283749301
 11
-22.587636133
 21
18.3532598761
  0
LINE
  5
62F
100
AcDbEntity
  8
C_CORPO
100
AcDbLine
 62
250
  6
CONTINUOUS
 10
-22.5934121295
 20
-12.5967349104
 11
-22.5911817427
 21
-12.7340262478
  0
LINE
  5
630
100
AcDbEntity
  8
ASSI
100
AcDbLine
 62
250
  6
CONTINUOUS
 10
-22.5934121295
 20
-12.5967349104
 11
-22.5911817427
 21
-12.7340262478
  0
LINE
  5
631
100
AcDbEntity
  8
C_CORPO
100
AcDbLine
 62
250
  6
CONTINUOUS
 10
-22.5911817427
 20
-12.7340262478
 11
-22.5893240387
 21
-12.8687322981
  0
LINE
  5
632
100
AcDbEntity
  8
ASSI
100
AcDbLine
 62
250
  6
CONTINUOUS
 10
-22.5911817427
 20
-12.7340262478
 11
-22.5893240387
 21
-12.8687322981
  0
LWPOLYLINE
  5
633
100
AcDbEntity
  8
C_CORPO
100
AcDbPolyline
 62
250
  6
CONTINUOUS
 90
118
 70
0
 10
-22.5934121295
 20
13.9168488065
 10
-22.5929158468
 20
13.8742213137
 10
-22.5913658858
 20
13.8313184112
 10
-22.5887622465
 20
13.7881400987
 10
-22.5851163034
 20
13.7446626279
 10
-22.580416682
 20
13.7009097473
 10
-22.5746292593
 20
13.6569527024
 10
-22.567753564
 20
13.6127927605
 10
-22.5597900673
 20
13.5684286545
 10
-22.5507060595
 20
13.5239278284
 10
-22.5404922025
 20
13.4792636093
 10
-22.5291578345
 20
13.4344626702
 10
-22.5166982601
 20
13.389672474
 10
-22.5030995454
 20
13.3448769503
 10
-22.4883756244
 20
13.3000921696
 10
-22.472563604
 20
13.255513807
 10
-22.455666522
 20
13.211168818
 10
-22.4376813406
 20
13.1670302471
 10
-22.4186360523
 20
13.1232129031
 10
-22.3985086131
 20
13.079683613
 10
-22.377321067
 20
13.0364755498
 10
-22.3551675386
 20
12.993803041
 10
-22.3319473815
 20
12.9515447385
 10
-22.3077612422
 20
12.9098219904
 10
-22.2830051848
 20
12.8692131693
 10
-22.2576224595
 20
12.8297300848
 10
-22.2316698161
 20
12.7913609274
 10
-22.2057135677
 20
12.7546486405
 10
-22.1798074008
 20
12.7197307463
 10
-22.153897629
 20
12.6864697227
 10
-22.1283895065
 20
12.6549959471
 10
-22.1033991789
 20
12.6254460916
 10
-22.0788105006
 20
12.5976834842
 10
-22.0546802884
 20
12.5714284857
 10
-22.0310641868
 20
12.5467027972
 10
-22.0079065514
 20
12.5234847176
 10
-21.9850972658
 20
12.5014295054
 10
-21.9626255393
 20
12.4804948917
 10
-21.9405021625
 20
12.4607231454
 10
-21.9186493912
 20
12.4418963305
 10
-21.8969902313
 20
12.4239434323
 10
-21.8756016768
 20
12.4069354657
 10
-21.8546369654
 20
12.3908675391
 10
-21.8341316749
 20
12.375770678
 10
-21.8140502275
 20
12.361613857
 10
-21.7944391272
 20
12.3482991081
 10
-21.7753322445
 20
12.3358426164
 10
-21.7566957089
 20
12.3242281967
 10
-21.7384744131
 20
12.3133093266
 10
-21.7206769901
 20
12.303080368
 10
-21.7032948069
 20
12.2935469588
 10
-21.6862468574
 20
12.2845794905
 10
-21.6695384789
 20
12.2761701783
 10
-21.6531643341
 20
12.2683268068
 10
-21.6370274046
 20
12.2609431223
 10
-21.6210997051
 20
12.2540005084
 10
-21.605409221
 20
12.2475175814
 10
-21.5899428893
 20
12.2414439355
 10
-21.574678088
 20
12.2357717872
 10
-21.5596374392
 20
12.23050892
 10
-21.5448757463
 20
12.2256282797
 10
-21.530389556
 20
12.2211325467
 10
-21.5161823215
 20
12.2170190406
 10
-21.5023192058
 20
12.2132526649
 10
-21.4888111228
 20
12.2098385997
 10
-21.4756471586
 20
12.206771665
 10
-21.4628597344
 20
12.2040012244
 10
-21.4504649907
 20
12.2015296431
 10
-21.438446787
 20
12.1993545559
 10
-21.426789123
 20
12.1974182315
 10
-21.4155060521
 20
12.1957190939
 10
-21.4045835209
 20
12.1942587191
 10
-21.3939633686
 20
12.1929841036
 10
-21.3836608379
 20
12.1918912596
 10
-21.3736606862
 20
12.1909841749
 10
-21.3638590252
 20
12.1902218099
 10
-21.3542635129
 20
12.1895980331
 10
-21.3448664912
 20
12.189118976
 10
-21.3355410974
 20
12.1887619933
 10
-21.326289642
 20
12.1885203554
 10
-21.3171098145
 20
12.1884007918
 10
-21.3078678201
 20
12.1884008462
 10
-21.2985635914
 20
12.1885135848
 10
-21.2891971959
 20
12.1887459415
 10
-21.2796350412
 20
12.1891162616
 10
-21.2698709904
 20
12.1896177539
 10
-21.2599111803
 20
12.1902572096
 10
-21.2496404293
 20
12.191073348
 10
-21.2390401294
 20
12.1920617965
 10
-21.2281288885
 20
12.1932269277
 10
-21.2168473489
 20
12.1946205779
 10
-21.2051808607
 20
12.1962409278
 10
-21.1931440738
 20
12.1980897966
 10
-21.1807215797
 20
12.2002244791
 10
-21.16789872
 20
12.2026465934
 10
-21.154690153
 20
12.2053545213
 10
-21.1411244455
 20
12.2084007024
 10
-21.1271926124
 20
12.211789095
 10
-21.1129036387
 20
12.2155157409
 10
-21.0983130458
 20
12.2196212053
 10
-21.083418941
 20
12.224109722
 10
-21.0682232169
 20
12.2289770573
 10
-21.0527870732
 20
12.2342510748
 10
-21.0371348439
 20
12.2399244772
 10
-21.0212421949
 20
12.2460045619
 10
-21.0050973235
 20
12.252541085
 10
-20.9887257773
 20
12.2595180548
 10
-20.9721020087
 20
12.2669514631
 10
-20.955137572
 20
12.2749390411
 10
-20.9378327398
 20
12.2834706999
 10
-20.9201872396
 20
12.2925565284
 10
-20.9021118082
 20
12.3023245242
 10
-20.8836000781
 20
12.3127665295
 10
-20.8646584168
 20
12.3238907022
 10
-20.8452166648
 20
12.335849513
 10
-20.8252514353
 20
12.3486937857
 10
-20.8047861151
 20
12.3623726965
 10
-20.783820704
 20
12.3768862456
  0
LWPOLYLINE
  5
634
100
AcDbEntity
  8
ASSI
100
AcDbPolyline
 62
250
  6
CONTINUOUS
 90
118
 70
0
 10
-22.5934121295
 20
13.9168488065
 10
-22.5929158468
 20
13.8742213137
 10
-22.5913658858
 20
13.8313184112
 10
-22.5887622465
 20
13.7881400987
 10
-22.5851163034
 20
13.7446626279
 10
-22.580416682
 20
13.7009097473
 10
-22.5746292593
 20
13.6569527024
 10
-22.567753564
 20
13.6127927605
 10
-22.5597900673
 20
13.5684286545
 10
-22.5507060595
 20
13.5239278284
 10
-22.5404922025
 20
13.4792636093
 10
-22.5291578345
 20
13.4344626702
 10
-22.5166982601
 20
13.389672474
 10
-22.5030995454
 20
13.3448769503
 10
-22.4883756244
 20
13.3000921696
 10
-22.472563604
 20
13.255513807
 10
-22.455666522
 20
13.211168818
 10
-22.4376813406
 20
13.1670302471
 10
-22.4186360523
 20
13.1232129031
 10
-22.3985086131
 20
13.079683613
 10
-22.377321067
 20
13.0364755498
 10
-22.3551675386
 20
12.993803041
 10
-22.3319473815
 20
12.9515447385
 10
-22.3077612422
 20
12.9098219904
 10
-22.2830051848
 20
12.8692131693
 10
-22.2576224595
 20
12.8297300848
 10
-22.2316698161
 20
12.7913609274
 10
-22.2057135677
 20
12.7546486405
 10
-22.1798074008
 20
12.7197307463
 10
-22.153897629
 20
12.6864697227
 10
-22.1283895065
 20
12.6549959471
 10
-22.1033991789
 20
12.6254460916
 10
-22.0788105006
 20
12.5976834842
 10
-22.0546802884
 20
12.5714284857
 10
-22.0310641868
 20
12.5467027972
 10
-22.0079065514
 20
12.5234847176
 10
-21.9850972658
 20
12.5014295054
 10
-21.9626255393
 20
12.4804948917
 10
-21.9405021625
 20
12.4607231454
 10
-21.9186493912
 20
12.4418963305
 10
-21.8969902313
 20
12.4239434323
 10
-21.8756016768
 20
12.4069354657
 10
-21.8546369654
 20
12.3908675391
 10
-21.8341316749
 20
12.375770678
 10
-21.8140502275
 20
12.361613857
 10
-21.7944391272
 20
12.3482991081
 10
-21.7753322445
 20
12.3358426164
 10
-21.7566957089
 20
12.3242281967
 10
-21.7384744131
 20
12.3133093266
 10
-21.7206769901
 20
12.303080368
 10
-21.7032948069
 20
12.2935469588
 10
-21.6862468574
 20
12.2845794905
 10
-21.6695384789
 20
12.2761701783
 10
-21.6531643341
 20
12.2683268068
 10
-21.6370274046
 20
12.2609431223
 10
-21.6210997051
 20
12.2540005084
 10
-21.605409221
 20
12.2475175814
 10
-21.5899428893
 20
12.2414439355
 10
-21.574678088
 20
12.2357717872
 10
-21.5596374392
 20
12.23050892
 10
-21.5448757463
 20
12.2256282797
 10
-21.530389556
 20
12.2211325467
 10
-21.5161823215
 20
12.2170190406
 10
-21.5023192058
 20
12.2132526649
 10
-21.4888111228
 20
12.2098385997
 10
-21.4756471586
 20
12.206771665
 10
-21.4628597344
 20
12.2040012244
 10
-21.4504649907
 20
12.2015296431
 10
-21.438446787
 20
12.1993545559
 10
-21.426789123
 20
12.1974182315
 10
-21.4155060521
 20
12.1957190939
 10
-21.4045835209
 20
12.1942587191
 10
-21.3939633686
 20
12.1929841036
 10
-21.3836608379
 20
12.1918912596
 10
-21.3736606862
 20
12.1909841749
 10
-21.3638590252
 20
12.1902218099
 10
-21.3542635129
 20
12.1895980331
 10
-21.3448664912
 20
12.189118976
 10
-21.3355410974
 20
12.1887619933
 10
-21.326289642
 20
12.1885203554
 10
-21.3171098145
 20
12.1884007918
 10
-21.3078678201
 20
12.1884008462
 10
-21.2985635914
 20
12.1885135848
 10
-21.2891971959
 20
12.1887459415
 10
-21.2796350412
 20
12.1891162616
 10
-21.2698709904
 20
12.1896177539
 10
-21.2599111803
 20
12.1902572096
 10
-21.2496404293
 20
12.191073348
 10
-21.2390401294
 20
12.1920617965
 10
-21.2281288885
 20
12.1932269277
 10
-21.2168473489
 20
12.1946205779
 10
-21.2051808607
 20
12.1962409278
 10
-21.1931440738
 20
12.1980897966
 10
-21.1807215797
 20
12.2002244791
 10
-21.16789872
 20
12.2026465934
 10
-21.154690153
 20
12.2053545213
 10
-21.1411244455
 20
12.2084007024
 10
-21.1271926124
 20
12.211789095
 10
-21.1129036387
 20
12.2155157409
 10
-21.0983130458
 20
12.2196212053
 10
-21.083418941
 20
12.224109722
 10
-21.0682232169
 20
12.2289770573
 10
-21.0527870732
 20
12.2342510748
 10
-21.0371348439
 20
12.2399244772
 10
-21.0212421949
 20
12.2460045619
 10
-21.0050973235
 20
12.252541085
 10
-20.9887257773
 20
12.2595180548
 10
-20.9721020087
 20
12.2669514631
 10
-20.955137572
 20
12.2749390411
 10
-20.9378327398
 20
12.2834706999
 10
-20.9201872396
 20
12.2925565284
 10
-20.9021118082
 20
12.3023245242
 10
-20.8836000781
 20
12.3127665295
 10
-20.8646584168
 20
12.3238907022
 10
-20.8452166648
 20
12.335849513
 10
-20.8252514353
 20
12.3486937857
 10
-20.8047861151
 20
12.3623726965
 10
-20.783820704
 20
12.3768862456
  0
LINE
  5
635
100
AcDbEntity
  8
C_CORPO
100
AcDbLine
 62
250
  6
CONTINUOUS
 10
-22.5893240387
 20
-12.8687322981
 11
-22.5878745007
 21
-12.9982844484
  0
LINE
  5
636
100
AcDbEntity
  8
ASSI
100
AcDbLine
 62
250
  6
CONTINUOUS
 10
-22.5893240387
 20
-12.8687322981
 11
-22.5878745007
 21
-12.9982844484
  0
LINE
  5
637
100
AcDbEntity
  8
C_CORPO
100
AcDbLine
 62
250
  6
CONTINUOUS
 10
-22.5867119349
 20
18.2860684941
 11
-22.5872124638
 21
18.3283749301
  0
LINE
  5
638
100
AcDbEntity
  8
ASSI
100
AcDbLine
 62
250
  6
CONTINUOUS
 10
-22.5867119349
 20
18.2860684941
 11
-22.5872124638
 21
18.3283749301
  0
LINE
  5
639
100
AcDbEntity
  8
C_CORPO
100
AcDbLine
 62
250
  6
CONTINUOUS
 10
-22.5878745007
 20
-12.9982844484
 11
-22.5868605986
 21
-13.1202275739
  0
LINE
  5
63A
100
AcDbEntity
  8
ASSI
100
AcDbLine
 62
250
  6
CONTINUOUS
 10
-22.5878745007
 20
-12.9982844484
 11
-22.5868605986
 21
-13.1202275739
  0
LWPOLYLINE
  5
63B
100
AcDbEntity
  8
C_CORPO
100
AcDbPolyline
 62
250
  6
CONTINUOUS
 90
73
 70
0
 10
-21.610864536
 20
13.9171266345
 10
-21.6107507455
 20
13.8987618706
 10
-21.6104073826
 20
13.8799657008
 10
-21.6098315846
 20
13.8607369087
 10
-21.6090207464
 20
13.8410810735
 10
-21.6079723162
 20
13.8209901412
 10
-21.6066835909
 20
13.8004419297
 10
-21.6051524167
 20
13.7794355256
 10
-21.6033765648
 20
13.7579680118
 10
-21.6013529325
 20
13.7360132376
 10
-21.5990782774
 20
13.7135550132
 10
-21.5965516835
 20
13.6906042896
 10
-21.5937741281
 20
13.6671751091
 10
-21.5907438267
 20
13.6432508359
 10
-21.5874612222
 20
13.6188422001
 10
-21.5839330117
 20
13.5940047446
 10
-21.5801628481
 20
13.5687435898
 10
-21.5761503819
 20
13.543048007
 10
-21.5718981288
 20
13.5169510384
 10
-21.5674060571
 20
13.4904291662
 10
-21.5626786756
 20
13.4635008015
 10
-21.5577268634
 20
13.4362643703
 10
-21.5525395818
 20
13.4086272117
 10
-21.547134899
 20
13.3806789126
 10
-21.5415751874
 20
13.3527967571
 10
-21.5358644815
 20
13.3249397536
 10
-21.5300196641
 20
13.2971517974
 10
-21.5241363464
 20
13.2699455572
 10
-21.5182454509
 20
13.2433904505
 10
-21.5123506255
 20
13.2174261211
 10
-21.5065166237
 20
13.1923773858
 10
-21.5007841634
 20
13.1683586674
 10
-21.4951480734
 20
13.1452662495
 10
-21.4896049776
 20
13.1231009937
 10
-21.4841796941
 20
13.1019217464
 10
-21.4788737016
 20
13.0816784678
 10
-21.4736437482
 20
13.0622096497
 10
-21.4684938956
 20
13.0435053544
 10
-21.463436651
 20
13.0255823363
 10
-21.4584367061
 20
13.0083195848
 10
-21.4534842566
 20
12.9916720004
 10
-21.4485999173
 20
12.9756903954
 10
-21.4437921144
 20
12.9603977511
 10
-21.4390624478
 20
12.9457954896
 10
-21.4344187469
 20
12.9318863849
 10
-21.4298787371
 20
12.9186948409
 10
-21.4254584855
 20
12.9062607955
 10
-21.4211503602
 20
12.8945463363
 10
-21.4169359828
 20
12.8834584559
 10
-21.4128188998
 20
12.8729975316
 10
-21.4088014587
 20
12.8631641531
 10
-21.4048623945
 20
12.8538654813
 10
-21.4010043975
 20
12.8450993085
 10
-21.3972289043
 20
12.8368682249
 10
-21.3935118865
 20
12.8290867299
 10
-21.3898513958
 20
12.8217443194
 10
-21.3862521798
 20
12.8148517975
 10
-21.3826996544
 20
12.8083558589
 10
-21.379187478
 20
12.8022439433
 10
-21.3757240344
 20
12.7965288137
 10
-21.3723166347
 20
12.7911949967
 10
-21.3689643009
 20
12.7862436688
 10
-21.3656698399
 20
12.7816730744
 10
-21.3624462799
 20
12.7774627703
 10
-21.3592956015
 20
12.7736175433
 10
-21.3562174494
 20
12.770131158
 10
-21.3532213737
 20
12.7669660541
 10
-21.3503113781
 20
12.7641258221
 10
-21.3474847941
 20
12.7616048243
 10
-21.3447411093
 20
12.7593513521
 10
-21.3420804765
 20
12.7573474407
 10
-21.3395037208
 20
12.7556089343
 10
-21.3370112588
 20
12.7541347936
  0
LWPOLYLINE
  5
63C
100
AcDbEntity
  8
ASSI
100
AcDbPolyline
 62
250
  6
CONTINUOUS
 90
73
 70
0
 10
-21.610864536
 20
13.9171266345
 10
-21.6107507455
 20
13.8987618706
 10
-21.6104073826
 20
13.8799657008
 10
-21.6098315846
 20
13.8607369087
 10
-21.6090207464
 20
13.8410810735
 10
-21.6079723162
 20
13.8209901412
 10
-21.6066835909
 20
13.8004419297
 10
-21.6051524167
 20
13.7794355256
 10
-21.6033765648
 20
13.7579680118
 10
-21.6013529325
 20
13.7360132376
 10
-21.5990782774
 20
13.7135550132
 10
-21.5965516835
 20
13.6906042896
 10
-21.5937741281
 20
13.6671751091
 10
-21.5907438267
 20
13.6432508359
 10
-21.5874612222
 20
13.6188422001
 10
-21.5839330117
 20
13.5940047446
 10
-21.5801628481
 20
13.5687435898
 10
-21.5761503819
 20
13.543048007
 10
-21.5718981288
 20
13.5169510384
 10
-21.5674060571
 20
13.4904291662
 10
-21.5626786756
 20
13.4635008015
 10
-21.5577268634
 20
13.4362643703
 10
-21.5525395818
 20
13.4086272117
 10
-21.547134899
 20
13.3806789126
 10
-21.5415751874
 20
13.3527967571
 10
-21.5358644815
 20
13.3249397536
 10
-21.5300196641
 20
13.2971517974
 10
-21.5241363464
 20
13.2699455572
 10
-21.5182454509
 20
13.2433904505
 10
-21.5123506255
 20
13.2174261211
 10
-21.5065166237
 20
13.1923773858
 10
-21.5007841634
 20
13.1683586674
 10
-21.4951480734
 20
13.1452662495
 10
-21.4896049776
 20
13.1231009937
 10
-21.4841796941
 20
13.1019217464
 10
-21.4788737016
 20
13.0816784678
 10
-21.4736437482
 20
13.0622096497
 10
-21.4684938956
 20
13.0435053544
 10
-21.463436651
 20
13.0255823363
 10
-21.4584367061
 20
13.0083195848
 10
-21.4534842566
 20
12.9916720004
 10
-21.4485999173
 20
12.9756903954
 10
-21.4437921144
 20
12.9603977511
 10
-21.4390624478
 20
12.9457954896
 10
-21.4344187469
 20
12.9318863849
 10
-21.4298787371
 20
12.9186948409
 10
-21.4254584855
 20
12.9062607955
 10
-21.4211503602
 20
12.8945463363
 10
-21.4169359828
 20
12.8834584559
 10
-21.4128188998
 20
12.8729975316
 10
-21.4088014587
 20
12.8631641531
 10
-21.4048623945
 20
12.8538654813
 10
-21.4010043975
 20
12.8450993085
 10
-21.3972289043
 20
12.8368682249
 10
-21.3935118865
 20
12.8290867299
 10
-21.3898513958
 20
12.8217443194
 10
-21.3862521798
 20
12.8148517975
 10
-21.3826996544
 20
12.8083558589
 10
-21.379187478
 20
12.8022439433
 10
-21.3757240344
 20
12.7965288137
 10
-21.3723166347
 20
12.7911949967
 10
-21.3689643009
 20
12.7862436688
 10
-21.3656698399
 20
12.7816730744
 10
-21.3624462799
 20
12.7774627703
 10
-21.3592956015
 20
12.7736175433
 10
-21.3562174494
 20
12.770131158
 10
-21.3532213737
 20
12.7669660541
 10
-21.3503113781
 20
12.7641258221
 10
-21.3474847941
 20
12.7616048243
 10
-21.3447411093
 20
12.7593513521
 10
-21.3420804765
 20
12.7573474407
 10
-21.3395037208
 20
12.7556089343
 10
-21.3370112588
 20
12.7541347936
  0
LINE
  5
63D
100
AcDbEntity
  8
C_CORPO
100
AcDbLine
 62
250
  6
CONTINUOUS
 10
-22.5863015431
 20
18.2208254252
 11
-22.5867119349
 21
18.2860684941
  0
LINE
  5
63E
100
AcDbEntity
  8
ASSI
100
AcDbLine
 62
250
  6
CONTINUOUS
 10
-22.5863015431
 20
18.2208254252
 11
-22.5867119349
 21
18.2860684941
  0
LINE
  5
63F
100
AcDbEntity
  8
C_CORPO
100
AcDbLine
 62
250
  6
CONTINUOUS
 10
-22.5868605986
 20
-13.1202275739
 11
-22.5863015431
 21
-13.2322511523
  0
LINE
  5
640
100
AcDbEntity
  8
ASSI
100
AcDbLine
 62
250
  6
CONTINUOUS
 10
-22.5868605986
 20
-13.1202275739
 11
-22.5863015431
 21
-13.2322511523
  0
LINE
  5
641
100
AcDbEntity
  8
C_CORPO
100
AcDbLine
 62
250
  6
CONTINUOUS
 10
-22.5934121295
 20
17.4491287453
 11
-22.5934121295
 21
13.9168488065
  0
LINE
  5
642
100
AcDbEntity
  8
ASSI
100
AcDbLine
 62
250
  6
CONTINUOUS
 10
-22.5934121295
 20
17.4491287453
 11
-22.5934121295
 21
13.9168488065
  0
LINE
  5
643
100
AcDbEntity
  8
C_CORPO
100
AcDbLine
 62
250
  6
CONTINUOUS
 10
-22.5934121295
 20
8.1352672004
 11
-22.5934121295
 21
-12.5967349104
  0
LINE
  5
644
100
AcDbEntity
  8
ASSI
100
AcDbLine
 62
250
  6
CONTINUOUS
 10
-22.5934121295
 20
8.1352672004
 11
-22.5934121295
 21
-12.5967349104
  0
LINE
  5
645
100
AcDbEntity
  8
C_CORPO
100
AcDbLine
 62
250
  6
CONTINUOUS
 10
-22.5863015431
 20
-13.2322511523
 11
-22.5861892028
 21
-13.3132941387
  0
LINE
  5
646
100
AcDbEntity
  8
ASSI
100
AcDbLine
 62
250
  6
CONTINUOUS
 10
-22.5863015431
 20
-13.2322511523
 11
-22.5861892028
 21
-13.3132941387
  0
LINE
  5
647
100
AcDbEntity
  8
C_CORPO
100
AcDbLine
 62
7
  6
CONTINUOUS
 10
-21.610864536
 20
17.4491287453
 11
-21.610864536
 21
13.9171266256
  0
LINE
  5
648
100
AcDbEntity
  8
ASSI
100
AcDbLine
 62
7
  6
CONTINUOUS
 10
-21.610864536
 20
17.4491287453
 11
-21.610864536
 21
13.9171266256
  0
LINE
  5
649
100
AcDbEntity
  8
C_CORPO
100
AcDbLine
 62
7
  6
CONTINUOUS
 10
-21.610864536
 20
8.1352672093
 11
-21.610864536
 21
-12.5967349104
  0
LINE
  5
64A
100
AcDbEntity
  8
ASSI
100
AcDbLine
 62
7
  6
CONTINUOUS
 10
-21.610864536
 20
8.1352672093
 11
-21.610864536
 21
-12.5967349104
  0
LINE
  5
64B
100
AcDbEntity
  8
C_CORPO
100
AcDbLine
 62
250
  6
CONTINUOUS
 10
-22.5862079279
 20
18.1262072817
 11
-22.5863015431
 21
18.2208254252
  0
LINE
  5
64C
100
AcDbEntity
  8
ASSI
100
AcDbLine
 62
250
  6
CONTINUOUS
 10
-22.5862079279
 20
18.1262072817
 11
-22.5863015431
 21
18.2208254252
  0
LINE
  5
64D
100
AcDbEntity
  8
C_CORPO
100
AcDbLine
 62
250
  6
CONTINUOUS
 10
-22.5861892028
 20
-13.3132941387
 11
-22.5863762777
 21
-13.3856423012
  0
LINE
  5
64E
100
AcDbEntity
  8
ASSI
100
AcDbLine
 62
250
  6
CONTINUOUS
 10
-22.5861892028
 20
-13.3132941387
 11
-22.5863762777
 21
-13.3856423012
  0
LINE
  5
64F
100
AcDbEntity
  8
C_CORPO
100
AcDbLine
 62
250
  6
CONTINUOUS
 10
-22.586711846
 20
17.9959052856
 11
-22.5862079279
 21
18.1262072817
  0
LINE
  5
650
100
AcDbEntity
  8
ASSI
100
AcDbLine
 62
250
  6
CONTINUOUS
 10
-22.586711846
 20
17.9959052856
 11
-22.5862079279
 21
18.1262072817
  0
LINE
  5
651
100
AcDbEntity
  8
C_CORPO
100
AcDbLine
 62
250
  6
CONTINUOUS
 10
-22.5863762777
 20
-13.3856423012
 11
-22.586711846
 21
-13.4336650525
  0
LINE
  5
652
100
AcDbEntity
  8
ASSI
100
AcDbLine
 62
250
  6
CONTINUOUS
 10
-22.5863762777
 20
-13.3856423012
 11
-22.586711846
 21
-13.4336650525
  0
LINE
  5
653
100
AcDbEntity
  8
C_CORPO
100
AcDbLine
 62
250
  6
CONTINUOUS
 10
-22.588403223
 20
17.7996517737
 11
-22.586711846
 21
17.9959052856
  0
LINE
  5
654
100
AcDbEntity
  8
ASSI
100
AcDbLine
 62
250
  6
CONTINUOUS
 10
-22.588403223
 20
17.7996517737
 11
-22.586711846
 21
17.9959052856
  0
LINE
  5
655
100
AcDbEntity
  8
C_CORPO
100
AcDbLine
 62
250
  6
CONTINUOUS
 10
-22.586711846
 20
-13.4336650525
 11
-22.5872123414
 21
-13.4759728232
  0
LINE
  5
656
100
AcDbEntity
  8
ASSI
100
AcDbLine
 62
250
  6
CONTINUOUS
 10
-22.586711846
 20
-13.4336650525
 11
-22.5872123414
 21
-13.4759728232
  0
LINE
  5
657
100
AcDbEntity
  8
C_CORPO
100
AcDbLine
 62
250
  6
CONTINUOUS
 10
-22.5915990404
 20
17.5591002374
 11
-22.588403223
 21
17.7996517737
  0
LINE
  5
658
100
AcDbEntity
  8
ASSI
100
AcDbLine
 62
250
  6
CONTINUOUS
 10
-22.5915990404
 20
17.5591002374
 11
-22.588403223
 21
17.7996517737
  0
LINE
  5
659
100
AcDbEntity
  8
C_CORPO
100
AcDbLine
 62
250
  6
CONTINUOUS
 10
-22.5934121295
 20
17.4491287453
 11
-22.5915990404
 21
17.5591002374
  0
LINE
  5
65A
100
AcDbEntity
  8
ASSI
100
AcDbLine
 62
250
  6
CONTINUOUS
 10
-22.5934121295
 20
17.4491287453
 11
-22.5915990404
 21
17.5591002374
  0
LINE
  5
65B
100
AcDbEntity
  8
C_CORPO
100
AcDbLine
 62
250
  6
CONTINUOUS
 10
-22.5872123414
 20
-13.4759728232
 11
-22.5876359893
 21
-13.5008586774
  0
LINE
  5
65C
100
AcDbEntity
  8
ASSI
100
AcDbLine
 62
250
  6
CONTINUOUS
 10
-22.5872123414
 20
-13.4759728232
 11
-22.5876359893
 21
-13.5008586774
  0
LINE
  5
65D
100
AcDbEntity
  8
C_CORPO
100
AcDbLine
 62
250
  6
CONTINUOUS
 10
-22.5876359893
 20
-13.5008586774
 11
-22.5881301558
 21
-13.5229997417
  0
LINE
  5
65E
100
AcDbEntity
  8
ASSI
100
AcDbLine
 62
250
  6
CONTINUOUS
 10
-22.5876359893
 20
-13.5008586774
 11
-22.5881301558
 21
-13.5229997417
  0
LWPOLYLINE
  5
65F
100
AcDbEntity
  8
C_CORPO
100
AcDbPolyline
 62
250
  6
CONTINUOUS
 90
14
 70
0
 10
-22.5881301558
 20
-13.5229997417
 10
-22.5886933408
 20
-13.5423287977
 10
-22.5890002889
 20
-13.5509201461
 10
-22.5893238344
 20
-13.5587871641
 10
-22.5896637317
 20
-13.5659238794
 10
-22.5900197227
 20
-13.5723248744
 10
-22.5903915371
 20
-13.5779852902
 10
-22.5907788929
 20
-13.5829008297
 10
-22.5911814958
 20
-13.5870677616
 10
-22.5915990404
 20
-13.5904829226
 10
-22.5920312095
 20
-13.5931437199
 10
-22.5924776751
 20
-13.5950481339
 10
-22.5929380983
 20
-13.5961947191
 10
-22.5934121295
 20
-13.5965826056
  0
LWPOLYLINE
  5
660
100
AcDbEntity
  8
ASSI
100
AcDbPolyline
 62
250
  6
CONTINUOUS
 90
14
 70
0
 10
-22.5881301558
 20
-13.5229997417
 10
-22.5886933408
 20
-13.5423287977
 10
-22.5890002889
 20
-13.5509201461
 10
-22.5893238344
 20
-13.5587871641
 10
-22.5896637317
 20
-13.5659238794
 10
-22.5900197227
 20
-13.5723248744
 10
-22.5903915371
 20
-13.5779852902
 10
-22.5907788929
 20
-13.5829008297
 10
-22.5911814958
 20
-13.5870677616
 10
-22.5915990404
 20
-13.5904829226
 10
-22.5920312095
 20
-13.5931437199
 10
-22.5924776751
 20
-13.5950481339
 10
-22.5929380983
 20
-13.5961947191
 10
-22.5934121295
 20
-13.5965826056
  0
LINE
  5
661
100
AcDbEntity
  8
C_CORPO
100
AcDbLine
 62
7
  6
CONTINUOUS
 10
-36.010864536
 20
-17.1847822514
 11
-35.610864536
 21
-16.7705701259
  0
LINE
  5
662
100
AcDbEntity
  8
ASSI
100
AcDbLine
 62
7
  6
CONTINUOUS
 10
-36.010864536
 20
-17.1847822514
 11
-35.610864536
 21
-16.7705701259
  0
LINE
  5
663
100
AcDbEntity
  8
C_COPERCHIO
100
AcDbLine
 62
7
  6
CONTINUOUS
 10
-48.510864536
 20
-20.6964528134
 11
-49.385864536
 21
-21.2016342989
  0
LINE
  5
664
100
AcDbEntity
  8
C_CORPO
100
AcDbLine
 62
250
  6
CONTINUOUS
 10
-21.610864536
 20
17.4491287453
 11
-22.5934121295
 21
17.4491287453
  0
LINE
  5
665
100
AcDbEntity
  8
ASSI
100
AcDbLine
 62
250
  6
CONTINUOUS
 10
-21.610864536
 20
17.4491287453
 11
-22.5934121295
 21
17.4491287453
  0
LINE
  5
666
100
AcDbEntity
  8
C_CORPO
100
AcDbLine
 62
250
  6
CONTINUOUS
 10
-22.5934121295
 20
17.4491287453
 11
-35.1195907085
 21
17.6677740057
  0
LINE
  5
667
100
AcDbEntity
  8
ASSI
100
AcDbLine
 62
250
  6
CONTINUOUS
 10
-22.5934121295
 20
17.4491287453
 11
-35.1195907085
 21
17.6677740057
  0
LINE
  5
668
100
AcDbEntity
  8
C_CORPO
100
AcDbLine
 62
7
  6
CONTINUOUS
 10
-22.5934121295
 20
18.4489764405
 11
-35.1195907392
 21
18.6676217014
  0
LINE
  5
669
100
AcDbEntity
  8
ASSI
100
AcDbLine
 62
7
  6
CONTINUOUS
 10
-22.5934121295
 20
18.4489764405
 11
-35.1195907392
 21
18.6676217014
  0
LINE
  5
66A
100
AcDbEntity
  8
SCRITTE
100
AcDbLine
 62
250
  6
CONTINUOUS
 10
-38.1191978316
 20
17.9199469175
 11
-38.910864536
 21
18.0386969175
  0
LINE
  5
66B
100
AcDbEntity
  8
SCRITTE
100
AcDbLine
 62
250
  6
CONTINUOUS
 10
-37.3275312121
 20
18.7511969175
 11
-37.6441978882
 21
18.8699469175
  0
LINE
  5
66C
100
AcDbEntity
  8
0
100
AcDbLine
 62
250
  6
CONTINUOUS
 10
-27.3104685735
 20
13.7458099175
 11
-26.010864536
 21
13.1754759175
  0
LINE
  5
66D
100
AcDbEntity
  8
C_COPERCHIO
100
AcDbLine
 62
7
  6
CONTINUOUS
 10
-48.510864536
 20
25.5488466483
 11
-49.385864536
 21
26.0540281338
  0
LWPOLYLINE
  5
66E
100
AcDbEntity
  8
C_CORPO
100
AcDbPolyline
 62
250
  6
CONTINUOUS
 90
118
 70
0
 10
-20.7838208928
 20
9.6755075588
 10
-20.804794417
 20
9.6900265885
 10
-20.8252671968
 20
9.7037102259
 10
-20.845239232
 20
9.716558471
 10
-20.8646871193
 20
9.7285204268
 10
-20.8836342621
 20
9.7396469903
 10
-20.9021508705
 20
9.7500908525
 10
-20.9202305997
 20
9.759860201
 10
-20.9378797944
 20
9.7689468482
 10
-20.9551876989
 20
9.7774789218
 10
-20.9721545869
 20
9.7854665157
 10
-20.9887801848
 20
9.7928995361
 10
-21.0051529153
 20
9.7998758295
 10
-21.0212982992
 20
9.8064113798
 10
-21.0371908158
 20
9.8124902032
 10
-21.0528423261
 20
9.8181621939
 10
-21.0682770912
 20
9.8234346389
 10
-21.0834708501
 20
9.8283002513
 10
-21.0983626795
 20
9.8327870649
 10
-21.1129506564
 20
9.836890865
 10
-21.1272367039
 20
9.8406158664
 10
-21.1411656687
 20
9.8440027472
 10
-21.1547286278
 20
9.8470475853
 10
-21.1679345042
 20
9.8497543027
 10
-21.1807549141
 20
9.8521753446
 10
-21.1931752864
 20
9.8543091113
 10
-21.2052101922
 20
9.8561572023
 10
-21.2168749597
 20
9.8577768612
 10
-21.2281549452
 20
9.8591699014
 10
-21.2390647925
 20
9.8603345095
 10
-21.249663762
 20
9.8613224882
 10
-21.2599332065
 20
9.8621382036
 10
-21.2698917732
 20
9.8627772895
 10
-21.2796546642
 20
9.8632784505
 10
-21.2892157509
 20
9.8636484777
 10
-21.2985811619
 20
9.8638805799
 10
-21.3078844861
 20
9.863993088
 10
-21.3171256582
 20
9.8639929349
 10
-21.3263047434
 20
9.8638731877
 10
-21.3355555264
 20
9.8636313788
 10
-21.3448803212
 20
9.8632742366
 10
-21.3542768139
 20
9.8627950326
 10
-21.3638718464
 20
9.8621711143
 10
-21.3736730825
 20
9.8614086108
 10
-21.3836728585
 20
9.860501393
 10
-21.3939750255
 20
9.8594084203
 10
-21.404594865
 20
9.8581336699
 10
-21.4155170956
 20
9.8566731647
 10
-21.4267997232
 20
9.8549739321
 10
-21.43845678
 20
9.8530375425
 10
-21.4504742339
 20
9.8508624256
 10
-21.4628679955
 20
9.8483908981
 10
-21.4756541139
 20
9.8456206156
 10
-21.4888165401
 20
9.8425539226
 10
-21.502323037
 20
9.8391401681
 10
-21.5161844623
 20
9.8353742074
 10
-21.5303899584
 20
9.8312611853
 10
-21.5448747161
 20
9.8267658849
 10
-21.5596353053
 20
9.8218856462
 10
-21.5746751561
 20
9.8166231292
 10
-21.5899397496
 20
9.8109510981
 10
-21.6054065332
 20
9.8048773285
 10
-21.6210980595
 20
9.7983940448
 10
-21.637027468
 20
9.7914506843
 10
-21.6531667861
 20
9.7840658681
 10
-21.6695439864
 20
9.7762209751
 10
-21.6862561262
 20
9.7678095799
 10
-21.7033085598
 20
9.7588394688
 10
-21.7206959328
 20
9.7493028554
 10
-21.7384992393
 20
9.7390699551
 10
-21.7567272196
 20
9.7281463369
 10
-21.7753711333
 20
9.7165264318
 10
-21.794485753
 20
9.704063748
 10
-21.8141050555
 20
9.6907419827
 10
-21.834195064
 20
9.6765774387
 10
-21.8547086202
 20
9.6614725336
 10
-21.8756811575
 20
9.6453962956
 10
-21.8970772425
 20
9.6283796965
 10
-21.9187434175
 20
9.6104180689
 10
-21.9406020691
 20
9.591583071
 10
-21.9627308106
 20
9.5718030447
 10
-21.9852090236
 20
9.5508583483
 10
-22.0080266299
 20
9.5287907103
 10
-22.0311937077
 20
9.5055584022
 10
-22.054819873
 20
9.480816597
 10
-22.0789609382
 20
9.4545433607
 10
-22.1035610909
 20
9.4267606272
 10
-22.1285625089
 20
9.3971893713
 10
-22.1540818053
 20
9.3656919883
 10
-22.1800023669
 20
9.332406083
 10
-22.2059165319
 20
9.297465444
 10
-22.2318773022
 20
9.2607329739
 10
-22.2578316759
 20
9.2223457703
 10
-22.2832129856
 20
9.182848914
 10
-22.3079635675
 20
9.1422321715
 10
-22.3321410856
 20
9.1005057764
 10
-22.3553518643
 20
9.058245511
 10
-22.3774957262
 20
9.0155724218
 10
-22.3986728489
 20
8.9723654623
 10
-22.4187900897
 20
8.928837275
 10
-22.437825792
 20
8.8850203413
 10
-22.4558016126
 20
8.8408821798
 10
-22.4726893784
 20
8.7965379892
 10
-22.4884920933
 20
8.7519607403
 10
-22.5032067535
 20
8.7071774623
 10
-22.516796175
 20
8.6623844418
 10
-22.5292462937
 20
8.6175982485
 10
-22.5405711735
 20
8.5728023127
 10
-22.5507758227
 20
8.5281432126
 10
-22.5598510093
 20
8.4836473671
 10
-22.5678059651
 20
8.4392883572
 10
-22.5746733943
 20
8.3951335043
 10
-22.5804528345
 20
8.3511815125
 10
-22.585144748
 20
8.3074336775
 10
-22.5887832252
 20
8.263961208
 10
-22.5913796296
 20
8.22078784
 10
-22.5929225977
 20
8.1778898375
 10
-22.5934121295
 20
8.1352672004
  0
LWPOLYLINE
  5
66F
100
AcDbEntity
  8
ASSI
100
AcDbPolyline
 62
250
  6
CONTINUOUS
 90
118
 70
0
 10
-20.7838208928
 20
9.6755075588
 10
-20.804794417
 20
9.6900265885
 10
-20.8252671968
 20
9.7037102259
 10
-20.845239232
 20
9.716558471
 10
-20.8646871193
 20
9.7285204268
 10
-20.8836342621
 20
9.7396469903
 10
-20.9021508705
 20
9.7500908525
 10
-20.9202305997
 20
9.759860201
 10
-20.9378797944
 20
9.7689468482
 10
-20.9551876989
 20
9.7774789218
 10
-20.9721545869
 20
9.7854665157
 10
-20.9887801848
 20
9.7928995361
 10
-21.0051529153
 20
9.7998758295
 10
-21.0212982992
 20
9.8064113798
 10
-21.0371908158
 20
9.8124902032
 10
-21.0528423261
 20
9.8181621939
 10
-21.0682770912
 20
9.8234346389
 10
-21.0834708501
 20
9.8283002513
 10
-21.0983626795
 20
9.8327870649
 10
-21.1129506564
 20
9.836890865
 10
-21.1272367039
 20
9.8406158664
 10
-21.1411656687
 20
9.8440027472
 10
-21.1547286278
 20
9.8470475853
 10
-21.1679345042
 20
9.8497543027
 10
-21.1807549141
 20
9.8521753446
 10
-21.1931752864
 20
9.8543091113
 10
-21.2052101922
 20
9.8561572023
 10
-21.2168749597
 20
9.8577768612
 10
-21.2281549452
 20
9.8591699014
 10
-21.2390647925
 20
9.8603345095
 10
-21.249663762
 20
9.8613224882
 10
-21.2599332065
 20
9.8621382036
 10
-21.2698917732
 20
9.8627772895
 10
-21.2796546642
 20
9.8632784505
 10
-21.2892157509
 20
9.8636484777
 10
-21.2985811619
 20
9.8638805799
 10
-21.3078844861
 20
9.863993088
 10
-21.3171256582
 20
9.8639929349
 10
-21.3263047434
 20
9.8638731877
 10
-21.3355555264
 20
9.8636313788
 10
-21.3448803212
 20
9.8632742366
 10
-21.3542768139
 20
9.8627950326
 10
-21.3638718464
 20
9.8621711143
 10
-21.3736730825
 20
9.8614086108
 10
-21.3836728585
 20
9.860501393
 10
-21.3939750255
 20
9.8594084203
 10
-21.404594865
 20
9.8581336699
 10
-21.4155170956
 20
9.8566731647
 10
-21.4267997232
 20
9.8549739321
 10
-21.43845678
 20
9.8530375425
 10
-21.4504742339
 20
9.8508624256
 10
-21.4628679955
 20
9.8483908981
 10
-21.4756541139
 20
9.8456206156
 10
-21.4888165401
 20
9.8425539226
 10
-21.502323037
 20
9.8391401681
 10
-21.5161844623
 20
9.8353742074
 10
-21.5303899584
 20
9.8312611853
 10
-21.5448747161
 20
9.8267658849
 10
-21.5596353053
 20
9.8218856462
 10
-21.5746751561
 20
9.8166231292
 10
-21.5899397496
 20
9.8109510981
 10
-21.6054065332
 20
9.8048773285
 10
-21.6210980595
 20
9.7983940448
 10
-21.637027468
 20
9.7914506843
 10
-21.6531667861
 20
9.7840658681
 10
-21.6695439864
 20
9.7762209751
 10
-21.6862561262
 20
9.7678095799
 10
-21.7033085598
 20
9.7588394688
 10
-21.7206959328
 20
9.7493028554
 10
-21.7384992393
 20
9.7390699551
 10
-21.7567272196
 20
9.7281463369
 10
-21.7753711333
 20
9.7165264318
 10
-21.794485753
 20
9.704063748
 10
-21.8141050555
 20
9.6907419827
 10
-21.834195064
 20
9.6765774387
 10
-21.8547086202
 20
9.6614725336
 10
-21.8756811575
 20
9.6453962956
 10
-21.8970772425
 20
9.6283796965
 10
-21.9187434175
 20
9.6104180689
 10
-21.9406020691
 20
9.591583071
 10
-21.9627308106
 20
9.5718030447
 10
-21.9852090236
 20
9.5508583483
 10
-22.0080266299
 20
9.5287907103
 10
-22.0311937077
 20
9.5055584022
 10
-22.054819873
 20
9.480816597
 10
-22.0789609382
 20
9.4545433607
 10
-22.1035610909
 20
9.4267606272
 10
-22.1285625089
 20
9.3971893713
 10
-22.1540818053
 20
9.3656919883
 10
-22.1800023669
 20
9.332406083
 10
-22.2059165319
 20
9.297465444
 10
-22.2318773022
 20
9.2607329739
 10
-22.2578316759
 20
9.2223457703
 10
-22.2832129856
 20
9.182848914
 10
-22.3079635675
 20
9.1422321715
 10
-22.3321410856
 20
9.1005057764
 10
-22.3553518643
 20
9.058245511
 10
-22.3774957262
 20
9.0155724218
 10
-22.3986728489
 20
8.9723654623
 10
-22.4187900897
 20
8.928837275
 10
-22.437825792
 20
8.8850203413
 10
-22.4558016126
 20
8.8408821798
 10
-22.4726893784
 20
8.7965379892
 10
-22.4884920933
 20
8.7519607403
 10
-22.5032067535
 20
8.7071774623
 10
-22.516796175
 20
8.6623844418
 10
-22.5292462937
 20
8.6175982485
 10
-22.5405711735
 20
8.5728023127
 10
-22.5507758227
 20
8.5281432126
 10
-22.5598510093
 20
8.4836473671
 10
-22.5678059651
 20
8.4392883572
 10
-22.5746733943
 20
8.3951335043
 10
-22.5804528345
 20
8.3511815125
 10
-22.585144748
 20
8.3074336775
 10
-22.5887832252
 20
8.263961208
 10
-22.5913796296
 20
8.22078784
 10
-22.5929225977
 20
8.1778898375
 10
-22.5934121295
 20
8.1352672004
  0
LINE
  5
670
100
AcDbEntity
  8
C_CORPO
100
AcDbLine
 62
7
  6
CONTINUOUS
 10
-35.610864536
 20
21.6229639608
 11
-36.010864536
 21
22.0371760863
  0
LINE
  5
671
100
AcDbEntity
  8
ASSI
100
AcDbLine
 62
7
  6
CONTINUOUS
 10
-35.610864536
 20
21.6229639608
 11
-36.010864536
 21
22.0371760863
  0
LINE
  5
672
100
AcDbEntity
  8
C_CORPO
100
AcDbLine
 62
7
  6
CONTINUOUS
 10
-19.6118802359
 20
10.9429179193
 11
-19.6109637787
 21
10.6121657396
  0
LINE
  5
673
100
AcDbEntity
  8
ASSI
100
AcDbLine
 62
7
  6
CONTINUOUS
 10
-19.6118802359
 20
10.9429179193
 11
-19.6109637787
 21
10.6121657396
  0
LINE
  5
674
100
AcDbEntity
  8
C_CORPO
100
AcDbLine
 62
250
  6
CONTINUOUS
 10
-21.3370112495
 20
14.2609622065
 11
-21.3370112588
 21
12.7541347936
  0
LINE
  5
675
100
AcDbEntity
  8
ASSI
100
AcDbLine
 62
250
  6
CONTINUOUS
 10
-21.3370112495
 20
14.2609622065
 11
-21.3370112588
 21
12.7541347936
  0
LINE
  5
676
100
AcDbEntity
  8
C_CORPO
100
AcDbLine
 62
250
  6
CONTINUOUS
 10
-21.3370112588
 20
9.298259045
 11
-21.3370112588
 21
7.7914316276
  0
LINE
  5
677
100
AcDbEntity
  8
ASSI
100
AcDbLine
 62
250
  6
CONTINUOUS
 10
-21.3370112588
 20
9.298259045
 11
-21.3370112588
 21
7.7914316276
  0
LINE
  5
678
100
AcDbEntity
  8
C_CORPO
100
AcDbLine
 62
250
  6
CONTINUOUS
 10
-21.3370112504
 20
-3.0977621405
 11
-21.3370112509
 21
-9.2498440246
  0
LINE
  5
679
100
AcDbEntity
  8
ASSI
100
AcDbLine
 62
250
  6
CONTINUOUS
 10
-21.3370112504
 20
-3.0977621405
 11
-21.3370112509
 21
-9.2498440246
  0
LINE
  5
67A
100
AcDbEntity
  8
C_CORPO
100
AcDbLine
 62
250
  6
CONTINUOUS
 10
-19.905628814
 20
12.2294695362
 11
-19.905628814
 21
9.8229242987
  0
LINE
  5
67B
100
AcDbEntity
  8
ASSI
100
AcDbLine
 62
250
  6
CONTINUOUS
 10
-19.905628814
 20
12.2294695362
 11
-19.905628814
 21
9.8229242987
  0
LINE
  5
67C
100
AcDbEntity
  8
C_CORPO
100
AcDbLine
 62
250
  6
CONTINUOUS
 10
-19.8847178124
 20
14.1339029946
 11
-19.8847178131
 21
12.2274361518
  0
LINE
  5
67D
100
AcDbEntity
  8
ASSI
100
AcDbLine
 62
250
  6
CONTINUOUS
 10
-19.8847178124
 20
14.1339029946
 11
-19.8847178131
 21
12.2274361518
  0
LINE
  5
67E
100
AcDbEntity
  8
C_CORPO
100
AcDbLine
 62
250
  6
CONTINUOUS
 10
-19.8847178131
 20
9.8249576831
 11
-19.8847178127
 21
7.9184908403
  0
LINE
  5
67F
100
AcDbEntity
  8
ASSI
100
AcDbLine
 62
250
  6
CONTINUOUS
 10
-19.8847178131
 20
9.8249576831
 11
-19.8847178127
 21
7.9184908403
  0
LINE
  5
680
100
AcDbEntity
  8
C_CORPO
100
AcDbLine
 62
250
  6
CONTINUOUS
 10
-19.8847178116
 20
-3.2248213525
 11
-19.8847178111
 21
-9.1227848125
  0
LINE
  5
681
100
AcDbEntity
  8
ASSI
100
AcDbLine
 62
250
  6
CONTINUOUS
 10
-19.8847178116
 20
-3.2248213525
 11
-19.8847178111
 21
-9.1227848125
  0
LINE
  5
682
100
AcDbEntity
  8
ASSI
100
AcDbLine
 62
7
  6
CONTINUOUS
 10
-19.610864536
 20
11.4330016618
 11
-19.610864536
 21
10.6194124511
  0
LINE
  5
683
100
AcDbEntity
  8
C_CORPO
100
AcDbLine
 62
7
  6
CONTINUOUS
 10
-19.610864536
 20
8.366374152
 11
-19.610864536
 21
8.2173494897
  0
LINE
  5
684
100
AcDbEntity
  8
ASSI
100
AcDbLine
 62
7
  6
CONTINUOUS
 10
-19.6109637787
 20
10.6121657396
 11
-19.610864536
 21
8.2173494897
  0
LINE
  5
685
100
AcDbEntity
  8
C_CORPO
100
AcDbLine
 62
7
  6
CONTINUOUS
 10
-19.610864536
 20
-3.5236802733
 11
-19.610864536
 21
-8.8239258875
  0
LINE
  5
686
100
AcDbEntity
  8
ASSI
100
AcDbLine
 62
7
  6
CONTINUOUS
 10
-19.610864536
 20
-3.5236802733
 11
-19.610864536
 21
-8.8239258875
  0
LINE
  5
687
100
AcDbEntity
  8
C_CORPO
100
AcDbLine
 62
7
  6
CONTINUOUS
 10
-19.6118802232
 20
11.1094857369
 11
-19.6118802359
 21
10.9429179193
  0
LINE
  5
688
100
AcDbEntity
  8
ASSI
100
AcDbLine
 62
7
  6
CONTINUOUS
 10
-19.6118802232
 20
11.1094857369
 11
-19.6118802359
 21
10.9429179193
  0
LINE
  5
689
100
AcDbEntity
  8
C_CORPO
100
AcDbLine
 62
7
  6
CONTINUOUS
 10
-19.610864536
 20
13.8350107817
 11
-19.610864536
 21
8.3762074208
  0
LINE
  5
68A
100
AcDbEntity
  8
ASSI
100
AcDbLine
 62
7
  6
CONTINUOUS
 10
-19.610864536
 20
13.8350107817
 11
-19.6109637733
 21
11.4402310484
  0
LINE
  5
68B
100
AcDbEntity
  8
C_CORPO
100
AcDbLine
 62
7
  6
CONTINUOUS
 10
-19.6109637733
 20
11.4402310484
 11
-19.6118802232
 21
11.1094857369
  0
LINE
  5
68C
100
AcDbEntity
  8
ASSI
100
AcDbLine
 62
7
  6
CONTINUOUS
 10
-19.6109637733
 20
11.4402310484
 11
-19.6118802232
 21
11.1094857369
  0
LINE
  5
68D
100
AcDbEntity
  8
C_CORPO
100
AcDbLine
 62
250
  6
CONTINUOUS
 10
-35.610864536
 20
20.0227026701
 11
-46.010864536
 21
20.0978959662
  0
LINE
  5
68E
100
AcDbEntity
  8
ASSI
100
AcDbLine
 62
250
  6
CONTINUOUS
 10
-35.610864536
 20
20.0227026701
 11
-46.010864536
 21
20.0978959662
  0
LINE
  5
68F
100
AcDbEntity
  8
0
100
AcDbLine
 62
250
  6
CONTINUOUS
 10
-26.5137463183
 20
15.9498009175
 11
-27.3104685735
 21
16.4255399175
  0
LWPOLYLINE
  5
690
100
AcDbEntity
  8
C_COPERCHIO
100
AcDbPolyline
 62
250
  6
CONTINUOUS
 90
9
 70
0
 10
-39.1137896247
 20
-20.9074056396
 10
-39.1423188256
 20
-20.9265671069
 10
-39.1732268215
 20
-20.9442210235
 10
-39.2060697297
 20
-20.9602929784
 10
-39.2404851433
 20
-20.9748573827
 10
-39.2762169683
 20
-20.9879012873
 10
-39.3129334033
 20
-20.9994203757
 10
-39.3502086698
 20
-21.0094189643
 10
-39.3876691
 20
-21.0178970532
  0
LINE
  5
691
100
AcDbEntity
  8
C_CORPO
100
AcDbLine
 62
250
  6
CONTINUOUS
 10
-35.610864536
 20
21.4367008409
 11
-46.010864536
 21
21.511894137
  0
LINE
  5
692
100
AcDbEntity
  8
ASSI
100
AcDbLine
 62
250
  6
CONTINUOUS
 10
-35.610864536
 20
21.4367008409
 11
-46.010864536
 21
21.511894137
  0
LINE
  5
693
100
AcDbEntity
  8
C_CORPO
100
AcDbLine
 62
250
  6
CONTINUOUS
 10
-36.010864536
 20
21.7443274766
 11
-35.7232152585
 21
21.7393065397
  0
LINE
  5
694
100
AcDbEntity
  8
ASSI
100
AcDbLine
 62
250
  6
CONTINUOUS
 10
-36.010864536
 20
21.7443274766
 11
-35.7232152585
 21
21.7393065397
  0
LINE
  5
695
100
AcDbEntity
  8
C_COPERCHIO
100
AcDbLine
 62
250
  6
CONTINUOUS
 10
-55.5970197057
 20
22.968102774
 11
-56.0223918444
 21
22.9857923551
  0
LWPOLYLINE
  5
696
100
AcDbEntity
  8
C_COPERCHIO
100
AcDbPolyline
 62
250
  6
CONTINUOUS
 90
3
 70
0
 10
-56.0223918444
 20
22.9857923551
 10
-56.0836926942
 20
22.9884469135
 10
-56.0878705015
 20
22.988665242
  0
LWPOLYLINE
  5
697
100
AcDbEntity
  8
0
100
AcDbPolyline
 62
7
  6
CONTINUOUS
 90
10
 70
0
 43
0.3500000087
 10
-37.2037198242
 20
46.2832330627
 10
-37.1322924011
 20
46.1403739532
 10
-37.1322924011
 20
46.0689465302
 10
-37.2751515106
 20
45.9260874207
 10
-37.3465789337
 20
45.9260874207
 10
-37.4180063568
 20
45.9975191071
 10
-37.4180063568
 20
46.0689465302
 10
-37.3465789337
 20
46.2118013763
 10
-37.2751515106
 20
46.2832330627
 10
-37.2037198242
 20
46.2832330627
  0
LWPOLYLINE
  5
698
100
AcDbEntity
  8
0
100
AcDbPolyline
 62
7
  6
CONTINUOUS
 90
10
 70
0
 43
0.3500000087
 10
-31.8465778259
 20
36.1315945679
 10
-31.7751504028
 20
35.9887397217
 10
-31.7751504028
 20
35.9173122986
 10
-31.9180073807
 20
35.7744531891
 10
-31.9894369354
 20
35.7744531891
 10
-32.0608643585
 20
35.8458806122
 10
-32.0608643585
 20
35.9173122986
 10
-31.9894369354
 20
36.0601671448
 10
-31.9180073807
 20
36.1315945679
 10
-31.8465778259
 20
36.1315945679
  0
LWPOLYLINE
  5
699
100
AcDbEntity
  8
C_CORPO
100
AcDbPolyline
 62
7
  6
CONTINUOUS
 90
52
 70
0
 10
-21.3370112588
 20
12.7541347936
 10
-21.3318046652
 20
12.7417757995
 10
-21.3263286374
 20
12.7296764737
 10
-21.3205831753
 20
12.7178400695
 10
-21.31457346
 20
12.7062950182
 10
-21.3082943104
 20
12.695019146
 10
-21.3017301837
 20
12.6839390432
 10
-21.2948767424
 20
12.67304482
 10
-21.287738324
 20
12.6623506901
 10
-21.2803123977
 20
12.6518184369
 10
-21.2725961258
 20
12.641441216
 10
-21.2645923459
 20
12.6312292738
 10
-21.2563070408
 20
12.621169572
 10
-21.2477380903
 20
12.611258706
 10
-21.2388876145
 20
12.6015029996
 10
-21.2297679564
 20
12.5919038245
 10
-21.220377348
 20
12.5824600299
 10
-21.2107175572
 20
12.5731753963
 10
-21.2008062308
 20
12.5640586326
 10
-21.1906418376
 20
12.5551099245
 10
-21.1802259087
 20
12.5463314941
 10
-21.1695806836
 20
12.5377350861
 10
-21.1587049303
 20
12.5293217567
 10
-21.1475998807
 20
12.5210926435
 10
-21.1362914709
 20
12.5130595934
 10
-21.1247788512
 20
12.505224163
 10
-21.1130628713
 20
12.4975867561
 10
-21.101172016
 20
12.4901574514
 10
-21.0891058751
 20
12.4829380563
 10
-21.0768648588
 20
12.4759284658
 10
-21.0644786823
 20
12.4691358288
 10
-21.0519474393
 20
12.4625620846
 10
-21.039271036
 20
12.4562067201
 10
-21.0264789073
 20
12.4500731262
 10
-21.0135716863
 20
12.4441630137
 10
-21.0005487398
 20
12.4384758147
 10
-20.9874376028
 20
12.4330114122
 10
-20.9742394716
 20
12.4277715224
 10
-20.9609531499
 20
12.422755298
 10
-20.9476025841
 20
12.4179586863
 10
-20.9341895632
 20
12.4133828085
 10
-20.9207122981
 20
12.4090271572
 10
-20.9071893675
 20
12.4048851544
 10
-20.8936231657
 20
12.400957825
 10
-20.8800112983
 20
12.3972445345
 10
-20.8663651613
 20
12.3937361463
 10
-20.8526874854
 20
12.3904329439
 10
-20.8389755397
 20
12.3873348439
 10
-20.825232528
 20
12.3844321074
 10
-20.8114595181
 20
12.3817215014
 10
-20.7976554421
 20
12.3792063026
 10
-20.7838203
 20
12.376886498
  0
LWPOLYLINE
  5
69A
100
AcDbEntity
  8
ASSI
100
AcDbPolyline
 62
7
  6
CONTINUOUS
 90
52
 70
0
 10
-21.3370112588
 20
12.7541347936
 10
-21.3318046652
 20
12.7417757995
 10
-21.3263286374
 20
12.7296764737
 10
-21.3205831753
 20
12.7178400695
 10
-21.31457346
 20
12.7062950182
 10
-21.3082943104
 20
12.695019146
 10
-21.3017301837
 20
12.6839390432
 10
-21.2948767424
 20
12.67304482
 10
-21.287738324
 20
12.6623506901
 10
-21.2803123977
 20
12.6518184369
 10
-21.2725961258
 20
12.641441216
 10
-21.2645923459
 20
12.6312292738
 10
-21.2563070408
 20
12.621169572
 10
-21.2477380903
 20
12.611258706
 10
-21.2388876145
 20
12.6015029996
 10
-21.2297679564
 20
12.5919038245
 10
-21.220377348
 20
12.5824600299
 10
-21.2107175572
 20
12.5731753963
 10
-21.2008062308
 20
12.5640586326
 10
-21.1906418376
 20
12.5551099245
 10
-21.1802259087
 20
12.5463314941
 10
-21.1695806836
 20
12.5377350861
 10
-21.1587049303
 20
12.5293217567
 10
-21.1475998807
 20
12.5210926435
 10
-21.1362914709
 20
12.5130595934
 10
-21.1247788512
 20
12.505224163
 10
-21.1130628713
 20
12.4975867561
 10
-21.101172016
 20
12.4901574514
 10
-21.0891058751
 20
12.4829380563
 10
-21.0768648588
 20
12.4759284658
 10
-21.0644786823
 20
12.4691358288
 10
-21.0519474393
 20
12.4625620846
 10
-21.039271036
 20
12.4562067201
 10
-21.0264789073
 20
12.4500731262
 10
-21.0135716863
 20
12.4441630137
 10
-21.0005487398
 20
12.4384758147
 10
-20.9874376028
 20
12.4330114122
 10
-20.9742394716
 20
12.4277715224
 10
-20.9609531499
 20
12.422755298
 10
-20.9476025841
 20
12.4179586863
 10
-20.9341895632
 20
12.4133828085
 10
-20.9207122981
 20
12.4090271572
 10
-20.9071893675
 20
12.4048851544
 10
-20.8936231657
 20
12.400957825
 10
-20.8800112983
 20
12.3972445345
 10
-20.8663651613
 20
12.3937361463
 10
-20.8526874854
 20
12.3904329439
 10
-20.8389755397
 20
12.3873348439
 10
-20.825232528
 20
12.3844321074
 10
-20.8114595181
 20
12.3817215014
 10
-20.7976554421
 20
12.3792063026
 10
-20.7838203
 20
12.376886498
  0
LWPOLYLINE
  5
69B
100
AcDbEntity
  8
C_COPERCHIO
100
AcDbPolyline
 62
250
  6
CONTINUOUS
 90
7
 70
0
 10
-39.3876691
 20
-21.0178970532
 10
-39.4062461779
 20
-21.0252170324
 10
-39.4250237068
 20
-21.031267099
 10
-39.4440016868
 20
-21.0360472531
 10
-39.4631801177
 20
-21.0395574946
 10
-39.4825589997
 20
-21.0417978236
 10
-39.5021383328
 20
-21.0427682401
  0
LINE
  5
69C
100
AcDbEntity
  8
C_COPERCHIO
100
AcDbLine
 62
250
  6
CONTINUOUS
 10
-47.010859217
 20
24.3259683441
 11
-54.65020165
 21
23.9256073721
  0
LINE
  5
69D
100
AcDbEntity
  8
C_COPERCHIO
100
AcDbLine
 62
7
  6
CONTINUOUS
 10
-36.010864536
 20
23.4134655954
 11
-46.010864536
 21
23.3261969175
  0
LINE
  5
69E
100
AcDbEntity
  8
C_CORPO
100
AcDbLine
 62
7
  6
CONTINUOUS
 10
-46.010864536
 20
23.2761969175
 11
-36.010864536
 21
23.2761969175
  0
LINE
  5
69F
100
AcDbEntity
  8
ASSI
100
AcDbLine
 62
7
  6
CONTINUOUS
 10
-46.010864536
 20
23.2761969175
 11
-36.010864536
 21
23.2761969175
  0
LINE
  5
6A0
100
AcDbEntity
  8
C_COPERCHIO
100
AcDbLine
 62
7
  6
CONTINUOUS
 10
-36.5021383328
 20
23.7502175173
 11
-46.010864536
 21
23.8189667928
  0
LINE
  5
6A1
100
AcDbEntity
  8
C_COPERCHIO
100
AcDbLine
 62
250
  6
CONTINUOUS
 10
-46.010864536
 20
24.3085133721
 11
-47.010859217
 21
24.3259683441
  0
LINE
  5
6A2
100
AcDbEntity
  8
C_COPERCHIO
100
AcDbLine
 62
7
  6
CONTINUOUS
 10
-36.9934121295
 20
24.6513416353
 11
-47.010864536
 21
24.8261969175
  0
LWPOLYLINE
  5
6A3
100
AcDbEntity
  8
C_COPERCHIO
100
AcDbPolyline
 62
250
  6
CONTINUOUS
 90
16
 70
0
 10
-39.3876691
 20
25.8702908881
 10
-39.3500631
 20
25.861784068
 10
-39.3126707581
 20
25.8517515543
 10
-39.2758681193
 20
25.8401933471
 10
-39.2400794702
 20
25.8270953771
 10
-39.2056386929
 20
25.8124717136
 10
-39.1728064472
 20
25.7963645648
 10
-39.1419587036
 20
25.7787249795
 10
-39.1135108158
 20
25.759601909
 10
-39.0878072276
 20
25.7391844151
 10
-39.0651776814
 20
25.7173394659
 10
-39.04605575
 20
25.6942000934
 10
-39.0308568628
 20
25.6703544557
 10
-39.0198276227
 20
25.6459986055
 10
-39.0131181351
 20
25.6209364901
 10
-39.0108645416
 20
25.5951681094
  0
LWPOLYLINE
  5
6A4
100
AcDbEntity
  8
C_COPERCHIO
100
AcDbPolyline
 62
7
  6
CONTINUOUS
 90
3
 70
0
 10
-48.6501270988
 20
24.7465491521
 10
-48.6745492759
 20
24.7405123326
 10
-48.700284561
 20
24.7373662227
  0
LWPOLYLINE
  5
6A5
100
AcDbEntity
  8
C_COPERCHIO
100
AcDbPolyline
 62
250
  6
CONTINUOUS
 90
22
 70
0
 10
-54.65020165
 20
23.9256073721
 10
-54.7205290007
 20
23.9194008947
 10
-54.7896709464
 20
23.9084158327
 10
-54.8576274872
 20
23.8926521859
 10
-54.924751984
 20
23.8719856991
 10
-54.9906910759
 20
23.8465406276
 10
-55.0543846795
 20
23.8166897374
 10
-55.1157779557
 20
23.7823621432
 10
-55.1749257436
 20
23.7436287303
 10
-55.2309324774
 20
23.7010749216
 10
-55.2837399063
 20
23.6546511752
 10
-55.3334062812
 20
23.604407033
 10
-55.3792107884
 20
23.5510765429
 10
-55.4211010657
 20
23.4946073094
 10
-55.4591294755
 20
23.435051728
 10
-55.492732291
 20
23.373301033
 10
-55.5218425124
 20
23.3092959752
 10
-55.5465271396
 20
23.2430958037
 10
-55.5664234452
 20
23.1757694997
 10
-55.5814105202
 20
23.1076733903
 10
-55.5916092737
 20
23.0384511484
 10
-55.5970197057
 20
22.968102774
  0
LINE
  5
6A6
100
AcDbEntity
  8
C_COPERCHIO
100
AcDbLine
 62
7
  6
CONTINUOUS
 10
-47.010864536
 20
24.8259049745
 11
-48.700284561
 21
24.7373662227
  0
LINE
  5
6A7
100
AcDbEntity
  8
C_COPERCHIO
100
AcDbLine
 62
7
  6
CONTINUOUS
 10
-48.7003973447
 20
24.7376522549
 11
-54.6676434249
 21
24.4249221394
  0
LINE
  5
6A8
100
AcDbEntity
  8
C_COPERCHIO
100
AcDbLine
 62
250
  6
CONTINUOUS
 10
-47.010864536
 20
26.6762349937
 11
-49.2652276376
 21
26.6368849394
  0
LINE
  5
6A9
100
AcDbEntity
  8
C_COPERCHIO
100
AcDbLine
 62
7
  6
CONTINUOUS
 10
-47.010864536
 20
26.9261969175
 11
-49.2652276376
 21
26.8868468631
  0
LINE
  5
6AA
100
AcDbEntity
  8
C_COPERCHIO
100
AcDbLine
 62
250
  6
CONTINUOUS
 10
-49.2652276376
 20
26.6368849394
 11
-49.510864536
 21
26.6368849394
  0
LINE
  5
6AB
100
AcDbEntity
  8
C_COPERCHIO
100
AcDbLine
 62
250
  6
CONTINUOUS
 10
-46.2565014344
 20
26.6630675367
 11
-46.010864536
 21
26.6630675367
  0
LINE
  5
6AC
100
AcDbEntity
  8
C_COPERCHIO
100
AcDbLine
 62
250
  6
CONTINUOUS
 10
-46.2082814003
 20
26.0122182377
 11
-39.5021383328
 21
25.895162075
  0
LINE
  5
6AD
100
AcDbEntity
  8
C_COPERCHIO
100
AcDbLine
 62
7
  6
CONTINUOUS
 10
-46.0119428019
 20
26.2087606737
 11
-39.5021383328
 21
26.095131614
  0
LINE
  5
6AE
100
AcDbEntity
  8
C_COPERCHIO
100
AcDbLine
 62
250
  6
CONTINUOUS
 10
-46.2565014344
 20
26.6630675367
 11
-47.010864536
 21
26.6762349937
  0
LINE
  5
6AF
100
AcDbEntity
  8
C_COPERCHIO
100
AcDbLine
 62
7
  6
CONTINUOUS
 10
-46.2565014344
 20
26.9130294605
 11
-47.010864536
 21
26.9261969175
  0
LWPOLYLINE
  5
6B0
100
AcDbEntity
  8
C_COPERCHIO
100
AcDbPolyline
 62
250
  6
CONTINUOUS
 90
7
 70
0
 10
-39.5021383328
 20
25.895162075
 10
-39.4825589997
 20
25.8941916584
 10
-39.4631801178
 20
25.8919513294
 10
-39.4440016868
 20
25.8884410878
 10
-39.4250237069
 20
25.8836609337
 10
-39.4062461779
 20
25.8776108672
 10
-39.3876691
 20
25.8702908881
  0
LWPOLYLINE
  5
6B1
100
AcDbEntity
  8
0
100
AcDbPolyline
 62
7
  6
CONTINUOUS
 90
7
 70
0
 43
0.3500000087
 10
-35.7037226227
 20
35.6315940796
 10
-37.2037198242
 20
35.6315940796
 10
-35.7037226227
 20
37.7744551422
 10
-35.7037226227
 20
38.2030239441
 10
-36.1322914246
 20
38.6315970093
 10
-36.7751510223
 20
38.6315970093
 10
-37.2037198242
 20
37.9887374115
  0
LWPOLYLINE
  5
6B2
100
AcDbEntity
  8
0
100
AcDbPolyline
 62
7
  6
CONTINUOUS
 90
3
 70
0
 43
0.3500000087
 10
-29.2751500931
 20
36.2744536774
 10
-30.7751494263
 20
36.2744536774
 10
-30.1322940918
 20
38.6315970093
  0
LWPOLYLINE
  5
6B3
100
AcDbEntity
  8
0
100
AcDbPolyline
 62
7
  6
CONTINUOUS
 90
6
 70
0
 43
0.3500000087
 10
-42.3465795532
 20
45.7832325745
 10
-41.2751511536
 20
45.7832325745
 10
-41.060864621
 20
45.9975191071
 10
-41.060864621
 20
47.0689475067
 10
-41.4894376862
 20
47.4975163086
 10
-41.918006488
 20
47.4975163086
  0
ARC
  5
6B4
100
AcDbEntity
  8
C_COPERCHIO
100
AcDbCircle
 62
7
  6
CONTINUOUS
 10
0.222861487
 20
-3.5238030825
 40
2.7
100
AcDbArc
 50
0.0
 51
180.0
  0
ARC
  5
6B5
100
AcDbEntity
  8
C_CONTATTI
100
AcDbCircle
 62
7
  6
CONTINUOUS
 10
3.8661408711
 20
8.3761969175
 40
1.8
100
AcDbArc
 50
348.4197916511
 51
11.5809951195
  0
ARC
  5
6B6
100
AcDbEntity
  8
C_CONTATTI
100
AcDbCircle
 62
7
  6
CONTINUOUS
 10
7.5795821029
 20
8.3761969175
 40
1.8
100
AcDbArc
 50
168.4197917147
 51
191.5809950494
  0
ARC
  5
6B7
100
AcDbEntity
  8
C_CONTATTI
100
AcDbCircle
 62
7
  6
CONTINUOUS
 10
2.0795821029
 20
-3.5238030825
 40
1.8
100
AcDbArc
 50
168.4197916511
 51
191.5809951195
  0
ARC
  5
6B8
100
AcDbEntity
  8
C_CONTATTI
100
AcDbCircle
 62
7
  6
CONTINUOUS
 10
-1.6338591289
 20
-3.5238030825
 40
1.8
100
AcDbArc
 50
348.4197917147
 51
11.5809950494
  0
ARC
  5
6B9
100
AcDbEntity
  8
C_CONTATTI
100
AcDbCircle
 62
7
  6
CONTINUOUS
 10
-7.1338591289
 20
8.3761969175
 40
1.8
100
AcDbArc
 50
348.4197916511
 51
11.5809951195
  0
ARC
  5
6BA
100
AcDbEntity
  8
C_CONTATTI
100
AcDbCircle
 62
7
  6
CONTINUOUS
 10
-3.4204178971
 20
8.3761969175
 40
1.8
100
AcDbArc
 50
168.4197917147
 51
191.5809950494
  0
ARC
  5
6BB
100
AcDbEntity
  8
C_COPERCHIO
100
AcDbCircle
 62
7
  6
CONTINUOUS
 10
-54.5891394905
 20
-18.0745840024
 40
1.5
100
AcDbArc
 50
182.3569499908
 51
267.0000000001
  0
ARC
  5
6BC
100
AcDbEntity
  8
C_COPERCHIO
100
AcDbCircle
 62
7
  6
CONTINUOUS
 10
-39.510864536
 20
-20.7428139316
 40
0.5
100
AcDbArc
 50
271.0
 51
356.5761229223
  0
ARC
  5
6BD
100
AcDbEntity
  8
C_COPERCHIO
100
AcDbCircle
 62
7
  6
CONTINUOUS
 10
-46.260864536
 20
-21.8106737018
 40
0.25
100
AcDbArc
 50
271.0
 51
360.0
  0
ARC
  5
6BE
100
AcDbEntity
  8
C_COPERCHIO
100
AcDbCircle
 62
7
  6
CONTINUOUS
 10
-49.260864536
 20
-21.7844911044
 40
0.25
100
AcDbArc
 50
180.0
 51
269.0
  0
ARC
  5
6BF
100
AcDbEntity
  8
C_COPERCHIO
100
AcDbCircle
 62
7
  6
CONTINUOUS
 10
-46.260864536
 20
-21.4181406498
 40
0.25
100
AcDbArc
 50
0.0
 51
60.0
  0
ARC
  5
6C0
100
AcDbEntity
  8
C_COPERCHIO
100
AcDbCircle
 62
7
  6
CONTINUOUS
 10
-49.260864536
 20
-21.4181406498
 40
0.25
100
AcDbArc
 50
120.0
 51
180.0
  0
ARC
  5
6C1
100
AcDbEntity
  8
C_COPERCHIO
100
AcDbCircle
 62
7
  6
CONTINUOUS
 10
-37.010864536
 20
-18.7991001052
 40
1.0
100
AcDbArc
 50
271.0
 51
360.0
  0
ARC
  5
6C2
100
AcDbEntity
  8
C_CORPO
100
AcDbCircle
 62
7
  6
CONTINUOUS
 10
-22.610864536
 20
-12.5967349104
 40
1.0
100
AcDbArc
 50
271.0
 51
360.0
  0
ARC
  5
6C3
100
AcDbEntity
  8
ASSI
100
AcDbCircle
 62
7
  6
CONTINUOUS
 10
-22.610864536
 20
-12.5967349104
 40
1.0
100
AcDbArc
 50
271.0
 51
360.0
  0
ARC
  5
6C4
100
AcDbEntity
  8
C_CORPO
100
AcDbCircle
 62
7
  6
CONTINUOUS
 10
-35.110864536
 20
-14.3151516498
 40
0.4999999786
100
AcDbArc
 50
91.0000001287
 51
180.0000073739
  0
ARC
  5
6C5
100
AcDbEntity
  8
ASSI
100
AcDbCircle
 62
7
  6
CONTINUOUS
 10
-35.110864536
 20
-14.3151516498
 40
0.4999999786
100
AcDbArc
 50
91.0000001287
 51
180.0000073739
  0
ARC
  5
6C6
100
AcDbEntity
  8
C_CORPO
100
AcDbCircle
 62
7
  6
CONTINUOUS
 10
-21.310864536
 20
-9.5487024348
 40
0.3
100
AcDbArc
 50
95.0
 51
172.7722917214
  0
ARC
  5
6C7
100
AcDbEntity
  8
ASSI
100
AcDbCircle
 62
7
  6
CONTINUOUS
 10
-21.310864536
 20
-9.5487024348
 40
0.3
100
AcDbArc
 50
95.0
 51
180.0
  0
ARC
  5
6C8
100
AcDbEntity
  8
C_CORPO
100
AcDbCircle
 62
7
  6
CONTINUOUS
 10
-21.310864536
 20
-2.7989037303
 40
0.3
100
AcDbArc
 50
180.0
 51
265.0
  0
ARC
  5
6C9
100
AcDbEntity
  8
ASSI
100
AcDbCircle
 62
7
  6
CONTINUOUS
 10
-21.310864536
 20
-2.7989037303
 40
0.3
100
AcDbArc
 50
180.0
 51
265.0
  0
ARC
  5
6CA
100
AcDbEntity
  8
C_CORPO
100
AcDbCircle
 62
7
  6
CONTINUOUS
 10
-19.910864536
 20
-8.8239264033
 40
0.3
100
AcDbArc
 50
275.0
 51
360.0
  0
ARC
  5
6CB
100
AcDbEntity
  8
ASSI
100
AcDbCircle
 62
7
  6
CONTINUOUS
 10
-19.910864536
 20
-8.8239264033
 40
0.3
100
AcDbArc
 50
275.0
 51
360.0
  0
ARC
  5
6CC
100
AcDbEntity
  8
C_CORPO
100
AcDbCircle
 62
7
  6
CONTINUOUS
 10
-19.910864536
 20
-3.5236797618
 40
0.3
100
AcDbArc
 50
0.0
 51
85.0
  0
ARC
  5
6CD
100
AcDbEntity
  8
ASSI
100
AcDbCircle
 62
7
  6
CONTINUOUS
 10
-19.910864536
 20
-3.5236797618
 40
0.3
100
AcDbArc
 50
0.0
 51
85.0
  0
ARC
  5
6CE
100
AcDbEntity
  8
C_COPERCHIO
100
AcDbCircle
 62
7
  6
CONTINUOUS
 10
-54.5891394905
 20
22.9269778373
 40
1.5
100
AcDbArc
 50
92.9999999999
 51
177.6430500092
  0
ARC
  5
6CF
100
AcDbEntity
  8
C_COPERCHIO
100
AcDbCircle
 62
7
  6
CONTINUOUS
 10
-39.510864536
 20
25.5952077665
 40
0.5
100
AcDbArc
 50
359.9914954712
 51
89.0
  0
ARC
  5
6D0
100
AcDbEntity
  8
C_COPERCHIO
100
AcDbCircle
 62
7
  6
CONTINUOUS
 10
-49.260864536
 20
26.6368849394
 40
0.25
100
AcDbArc
 50
91.0
 51
180.0
  0
ARC
  5
6D1
100
AcDbEntity
  8
C_COPERCHIO
100
AcDbCircle
 62
7
  6
CONTINUOUS
 10
-46.260864536
 20
26.6630675367
 40
0.25
100
AcDbArc
 50
0.0
 51
89.0
  0
ARC
  5
6D2
100
AcDbEntity
  8
C_COPERCHIO
100
AcDbCircle
 62
7
  6
CONTINUOUS
 10
-46.260864536
 20
26.2705344848
 40
0.25
100
AcDbArc
 50
300.0
 51
360.0
  0
ARC
  5
6D3
100
AcDbEntity
  8
C_COPERCHIO
100
AcDbCircle
 62
7
  6
CONTINUOUS
 10
-49.260864536
 20
26.2705344848
 40
0.25
100
AcDbArc
 50
180.0
 51
240.0
  0
ARC
  5
6D4
100
AcDbEntity
  8
C_CORPO
100
AcDbCircle
 62
7
  6
CONTINUOUS
 10
-21.310864536
 20
7.4925732182
 40
0.3
100
AcDbArc
 50
95.0
 51
172.7722906716
  0
ARC
  5
6D5
100
AcDbEntity
  8
C_CORPO
100
AcDbCircle
 62
7
  6
CONTINUOUS
 10
-21.310864536
 20
7.6512975652
 40
0.3
100
AcDbArc
 50
95.0
 51
172.7722907769
  0
ARC
  5
6D6
100
AcDbEntity
  8
ASSI
100
AcDbCircle
 62
7
  6
CONTINUOUS
 10
-21.310864536
 20
7.4925732182
 40
0.3
100
AcDbArc
 50
95.0
 51
180.0
  0
ARC
  5
6D7
100
AcDbEntity
  8
ASSI
100
AcDbCircle
 62
7
  6
CONTINUOUS
 10
-21.310864536
 20
7.6512975652
 40
0.3
100
AcDbArc
 50
95.0
 51
180.0
  0
ARC
  5
6D8
100
AcDbEntity
  8
C_CORPO
100
AcDbCircle
 62
7
  6
CONTINUOUS
 10
-21.310864536
 20
14.4010962697
 40
0.3
100
AcDbArc
 50
180.0
 51
265.0
  0
ARC
  5
6D9
100
AcDbEntity
  8
C_CORPO
100
AcDbCircle
 62
7
  6
CONTINUOUS
 10
-21.310864536
 20
14.5598206167
 40
0.3
100
AcDbArc
 50
180.0
 51
265.0
  0
ARC
  5
6DA
100
AcDbEntity
  8
ASSI
100
AcDbCircle
 62
7
  6
CONTINUOUS
 10
-21.310864536
 20
14.4010962697
 40
0.3
100
AcDbArc
 50
180.0
 51
265.0
  0
ARC
  5
6DB
100
AcDbEntity
  8
ASSI
100
AcDbCircle
 62
7
  6
CONTINUOUS
 10
-21.310864536
 20
14.5598206167
 40
0.3
100
AcDbArc
 50
180.0
 51
265.0
  0
ARC
  5
6DC
100
AcDbEntity
  8
C_CORPO
100
AcDbCircle
 62
7
  6
CONTINUOUS
 10
-19.910864536
 20
8.2173492496
 40
0.3
100
AcDbArc
 50
275.0
 51
360.0
  0
ARC
  5
6DD
100
AcDbEntity
  8
C_CORPO
100
AcDbCircle
 62
7
  6
CONTINUOUS
 10
-19.910864536
 20
8.3760735967
 40
0.3
100
AcDbArc
 50
275.0
 51
360.0
  0
ARC
  5
6DE
100
AcDbEntity
  8
ASSI
100
AcDbCircle
 62
7
  6
CONTINUOUS
 10
-19.910864536
 20
8.2173492496
 40
0.3
100
AcDbArc
 50
275.0
 51
360.0
  0
ARC
  5
6DF
100
AcDbEntity
  8
ASSI
100
AcDbCircle
 62
7
  6
CONTINUOUS
 10
-19.910864536
 20
8.3760735967
 40
0.3
100
AcDbArc
 50
275.0
 51
360.0
  0
ARC
  5
6E0
100
AcDbEntity
  8
C_CORPO
100
AcDbCircle
 62
7
  6
CONTINUOUS
 10
-19.910864536
 20
13.6763202382
 40
0.3
100
AcDbArc
 50
0.0
 51
85.0
  0
ARC
  5
6E1
100
AcDbEntity
  8
C_CORPO
100
AcDbCircle
 62
7
  6
CONTINUOUS
 10
-19.910864536
 20
13.8350445853
 40
0.3
100
AcDbArc
 50
0.0
 51
85.0
  0
ARC
  5
6E2
100
AcDbEntity
  8
ASSI
100
AcDbCircle
 62
7
  6
CONTINUOUS
 10
-19.910864536
 20
13.6763202382
 40
0.3
100
AcDbArc
 50
0.0
 51
85.0
  0
ARC
  5
6E3
100
AcDbEntity
  8
ASSI
100
AcDbCircle
 62
7
  6
CONTINUOUS
 10
-19.910864536
 20
13.8350445853
 40
0.3
100
AcDbArc
 50
0.0
 51
85.0
  0
ARC
  5
6E4
100
AcDbEntity
  8
C_COPERCHIO
100
AcDbCircle
 62
7
  6
CONTINUOUS
 10
-37.010864536
 20
23.6514939401
 40
1.0
100
AcDbArc
 50
0.0
 51
89.0
  0
ARC
  5
6E5
100
AcDbEntity
  8
C_CORPO
100
AcDbCircle
 62
7
  6
CONTINUOUS
 10
-22.610864536
 20
17.4491287453
 40
1.0
100
AcDbArc
 50
0.0
 51
89.0
  0
ARC
  5
6E6
100
AcDbEntity
  8
ASSI
100
AcDbCircle
 62
7
  6
CONTINUOUS
 10
-22.610864536
 20
17.4491287453
 40
1.0
100
AcDbArc
 50
0.0
 51
89.0
  0
ARC
  5
6E7
100
AcDbEntity
  8
C_CORPO
100
AcDbCircle
 62
7
  6
CONTINUOUS
 10
-35.110864536
 20
19.1675454847
 40
0.4999999786
100
AcDbArc
 50
179.9999926261
 51
268.9999998713
  0
ARC
  5
6E8
100
AcDbEntity
  8
ASSI
100
AcDbCircle
 62
7
  6
CONTINUOUS
 10
-35.110864536
 20
19.1675454847
 40
0.4999999786
100
AcDbArc
 50
179.9999926261
 51
268.9999998713
  0
ARC
  5
6E9
100
AcDbEntity
  8
C_COPERCHIO
100
AcDbCircle
 62
7
  6
CONTINUOUS
 10
443.489135464
 20
2.4261969175
 40
500.0
100
AcDbArc
 50
177.6430500092
 51
182.3569499908
  0
ELLIPSE
  5
6EA
100
AcDbEntity
  8
C_COPERCHIO
100
AcDbEllipse
 62
7
  6
CONTINUOUS
 10
10.872785323
 20
24.3086656885
 30
0.0
 11
0.3536610946
 21
-0.3536610946
 31
0.0
 40
0.9996954599
 41
0.7852458701
 42
1.5707963338
  0
ELLIPSE
  5
6EB
100
AcDbEntity
  8
C_COPERCHIO
100
AcDbEllipse
 62
7
  6
CONTINUOUS
 10
-10.4270623489
 20
-19.4562718536
 30
0.0
 11
0.3536610946
 21
-0.3536610946
 31
0.0
 40
0.9996954599
 41
-2.3563467834
 42
-1.5707963198
  0
ELLIPSE
  5
6EC
100
AcDbEntity
  8
C_COPERCHIO
100
AcDbEllipse
 62
7
  6
CONTINUOUS
 10
10.872785323
 20
-19.4562718536
 30
0.0
 11
0.3536610946
 21
0.3536610946
 31
0.0
 40
0.9996954599
 41
-1.5707963338
 42
-0.7852458701
  0
ELLIPSE
  5
6ED
100
AcDbEntity
  8
C_COPERCHIO
100
AcDbEllipse
 62
7
  6
CONTINUOUS
 10
-10.4270623489
 20
24.3086656885
 30
0.0
 11
0.3536610946
 21
0.3536610946
 31
0.0
 40
0.9996954599
 41
1.5707963198
 42
2.3563467834
  0
ELLIPSE
  5
6EE
100
AcDbEntity
  8
C_COPERCHIO
100
AcDbEllipse
 62
7
  6
CONTINUOUS
 10
8.5025350974
 20
24.9373781619
 30
0.0
 11
0.0
 21
0.2
 31
0.0
 40
0.0174550649
 41
-4.7123889804
 42
-3.1939525311
  0
ELLIPSE
  5
6EF
100
AcDbEntity
  8
C_COPERCHIO
100
AcDbEllipse
 62
7
  6
CONTINUOUS
 10
-8.0568121233
 20
24.9373781619
 30
0.0
 11
0.0
 21
0.2
 31
0.0
 40
0.0174550649
 41
-3.089232776
 42
-1.5707963268
  0
ELLIPSE
  5
6F0
100
AcDbEntity
  8
C_COPERCHIO
100
AcDbEllipse
 62
7
  6
CONTINUOUS
 10
-3.6683348165
 20
-19.9475991929
 30
0.0
 11
0.5
 21
-0.0
 31
0.0
 40
0.0524077793
 41
1.5707963268
 42
3.1241393611
  0
ELLIPSE
  5
6F1
100
AcDbEntity
  8
C_COPERCHIO
100
AcDbEllipse
 62
7
  6
CONTINUOUS
 10
4.1140577905
 20
-19.9475991929
 30
0.0
 11
0.5
 21
-0.0
 31
0.0
 40
0.0524077793
 41
0.0174532925
 42
1.5707963268
  0
ELLIPSE
  5
6F2
100
AcDbEntity
  8
C_COPERCHIO
100
AcDbEllipse
 62
7
  6
CONTINUOUS
 10
-3.6683348165
 20
24.7999930278
 30
0.0
 11
0.5
 21
-0.0
 31
0.0
 40
0.0524077793
 41
-3.1241393611
 42
-1.5707963268
  0
ELLIPSE
  5
6F3
100
AcDbEntity
  8
C_COPERCHIO
100
AcDbEllipse
 62
7
  6
CONTINUOUS
 10
8.5025350974
 20
-20.084984327
 30
0.0
 11
0.0
 21
0.2
 31
0.0
 40
0.0174550649
 41
0.0523598776
 42
1.5707963268
  0
ELLIPSE
  5
6F4
100
AcDbEntity
  8
C_COPERCHIO
100
AcDbEllipse
 62
7
  6
CONTINUOUS
 10
4.1140577905
 20
24.7999930278
 30
0.0
 11
0.5
 21
0.0
 31
0.0
 40
0.0524077793
 41
-1.5707963268
 42
-0.0174532925
  0
ELLIPSE
  5
6F5
100
AcDbEntity
  8
C_COPERCHIO
100
AcDbEllipse
 62
7
  6
CONTINUOUS
 10
-8.0568121233
 20
-20.084984327
 30
0.0
 11
0.0
 21
0.2
 31
0.0
 40
0.0174550649
 41
-1.5707963268
 42
-0.0523598776
  0
ELLIPSE
  5
6F6
100
AcDbEntity
  8
C_COPERCHIO
100
AcDbEllipse
 62
7
  6
CONTINUOUS
 10
8.7621734651
 20
25.9818593502
 30
0.0
 11
0.25
 21
-0.0
 31
0.0
 40
0.5773502692
 41
2.617993878
 42
3.1241393611
  0
ELLIPSE
  5
6F7
100
AcDbEntity
  8
C_COPERCHIO
100
AcDbEllipse
 62
7
  6
CONTINUOUS
 10
10.5835495089
 20
25.9818593502
 30
0.0
 11
0.25
 21
0.0
 31
0.0
 40
0.5773502692
 41
0.0174532925
 42
0.5235987756
  0
ELLIPSE
  5
6F8
100
AcDbEntity
  8
C_COPERCHIO
100
AcDbEllipse
 62
7
  6
CONTINUOUS
 10
10.5835495089
 20
-21.1294655152
 30
0.0
 11
0.25
 21
0.0
 31
0.0
 40
0.5773502692
 41
-0.5235987756
 42
-0.0174532925
  0
ELLIPSE
  5
6F9
100
AcDbEntity
  8
C_COPERCHIO
100
AcDbEllipse
 62
7
  6
CONTINUOUS
 10
8.7621734651
 20
-21.1294655152
 30
0.0
 11
0.25
 21
-0.0
 31
0.0
 40
0.5773502692
 41
-3.1241393611
 42
-2.617993878
  0
ELLIPSE
  5
6FA
100
AcDbEntity
  8
C_COPERCHIO
100
AcDbEllipse
 62
7
  6
CONTINUOUS
 10
-10.1378265349
 20
-21.1294655152
 30
0.0
 11
0.25
 21
-0.0
 31
0.0
 40
0.5773502692
 41
-3.1241393611
 42
-2.617993878
  0
ELLIPSE
  5
6FB
100
AcDbEntity
  8
C_COPERCHIO
100
AcDbEllipse
 62
7
  6
CONTINUOUS
 10
-8.3164504911
 20
-21.1294655152
 30
0.0
 11
0.25
 21
-0.0
 31
0.0
 40
0.5773502692
 41
-0.5235987756
 42
-0.0174532925
  0
ELLIPSE
  5
6FC
100
AcDbEntity
  8
C_COPERCHIO
100
AcDbEllipse
 62
7
  6
CONTINUOUS
 10
-10.1378265349
 20
25.9818593502
 30
0.0
 11
0.25
 21
-0.0
 31
0.0
 40
0.5773502692
 41
2.617993878
 42
3.1241393611
  0
ELLIPSE
  5
6FD
100
AcDbEntity
  8
C_COPERCHIO
100
AcDbEllipse
 62
7
  6
CONTINUOUS
 10
-8.3164504911
 20
25.9818593502
 30
0.0
 11
0.25
 21
0.0
 31
0.0
 40
0.5773502692
 41
0.0174532925
 42
0.5235987756
  0
ELLIPSE
  5
6FE
100
AcDbEntity
  8
C_COPERCHIO
100
AcDbEllipse
 62
7
  6
CONTINUOUS
 10
-36.510864536
 20
24.2503567729
 30
0.0
 11
-0.3557284173
 21
0.3601461237
 31
0.0
 40
0.9756176095
 41
-3.9157085085
 42
-2.8658961699
  0
ELLIPSE
  5
6FF
100
AcDbEntity
  8
C_COPERCHIO
100
AcDbEllipse
 62
7
  6
CONTINUOUS
 10
-36.510864536
 20
-19.397962938
 30
0.0
 11
0.3557284173
 21
0.3601461237
 31
0.0
 40
0.9756176095
 41
-0.2756964837
 42
0.7741158549
  0
ELLIPSE
  5
700
100
AcDbEntity
  8
0
100
AcDbEllipse
 62
250
  6
CONTINUOUS
 10
-31.0712863954
 20
-8.2425100825
 30
0.0
 11
0.0
 21
0.244348
 31
0.0
 40
0.9996954135
 41
-1.5707963268
 42
0.0
  0
ELLIPSE
  5
701
100
AcDbEntity
  8
0
100
AcDbEllipse
 62
250
  6
CONTINUOUS
 10
-31.684775478
 20
-8.3239590825
 30
0.0
 11
0.0
 21
0.325797
 31
0.0
 40
0.9996954135
 41
-0.0
 42
1.7783651125
  0
ELLIPSE
  5
702
100
AcDbEntity
  8
0
100
AcDbEllipse
 62
250
  6
CONTINUOUS
 10
-26.6606665548
 20
6.7664399175
 30
0.0
 11
-0.0
 21
0.65
 31
0.0
 40
0.9996954135
 41
-1.5707963268
 42
1.5707963268
  0
ENDSEC
  0
SECTION
  2
OBJECTS
  0
DICTIONARY
  5
C
100
AcDbDictionary
280
0
281
1
  3
ACAD_GROUP
350
D
  3
ACAD_MLINESTYLE
350
17
  3
ACAD_LAYOUT
350
1A
  3
ACAD_PLOTSETTINGS
350
19
  3
ACAD_PLOTSTYLENAME
350
E
  0
DICTIONARY
  5
D
102
{ACAD_REACTORS
330
C
102
}
100
AcDbDictionary
280
0
281
1
  0
ACDBDICTIONARYWDFLT
  5
E
102
{ACAD_REACTORS
330
C
102
}
100
AcDbDictionary
281
1
  3
Normal
350
F
100
AcDbDictionaryWithDefault
340
F
  0
DICTIONARY
  5
17
102
{ACAD_REACTORS
330
C
102
}
100
AcDbDictionary
280
0
281
1
  3
Standard
350
18
  0
DICTIONARY
  5
19
102
{ACAD_REACTORS
330
C
102
}
100
AcDbDictionary
281
1
  0
DICTIONARY
  5
1A
102
{ACAD_REACTORS
330
C
102
}
100
AcDbDictionary
281
1
  3
Model
350
703
  3
Layout1
350
704
  0
ACDBPLACEHOLDER
  5
F
102
{ACAD_REACTORS
330
E
102
}
  0
MLINESTYLE
  5
18
102
{ACAD_REACTORS
330
17
102
}
100
AcDbMlineStyle
  2
STANDARD
 70
0
  3

 62
256
 51
90.0
 52
90.0
 71
2
 49
0.5
 62
256
  6
BYLAYER
 49
-0.5
 62
256
  6
BYLAYER
  0
LAYOUT
  5
703
102
{ACAD_REACTORS
330
1A
102
}
100
AcDbPlotSettings
  1

  2
none_device
  4
ANSI_C_(22.00_x_17.00_Inches)
  6

 40
0.0
 41
0.0
 42
0.0
 43
0.0
 44
558.8
 45
431.8
 46
0.0
 47
0.0
 48
0.0
 49
0.0
140
0.0
141
0.0
142
1.0
143
1.0
 70
1024
 72
1
 73
0
 74
0
  7

 75
0
147
1.0
148
0.0
149
0.0
100
AcDbLayout
  1
Model
 70
0
 71
0
 10
0.0
 20
0.0
 11
558.8
 21
431.8
 12
0.0
 22
0.0
 32
0.0
 14
0.0
 24
0.0
 34
0.0
 15
0.0
 25
0.0
 35
0.0
146
0.0
 13
0.0
 23
0.0
 33
0.0
 16
1.0
 26
0.0
 36
0.0
 17
0.0
 27
1.0
 37
0.0
 76
0
330
218
345
0
346
0
  0
LAYOUT
  5
704
102
{ACAD_REACTORS
330
1A
102
}
100
AcDbPlotSettings
  1

  2
none_device
  4
ANSI_C_(22.00_x_17.00_Inches)
  6

 40
0.0
 41
0.0
 42
0.0
 43
0.0
 44
558.8
 45
431.8
 46
0.0
 47
0.0
 48
0.0
 49
0.0
140
0.0
141
0.0
142
1.0
143
1.0
 70
0
 72
1
 73
0
 74
0
  7

 75
0
147
1.0
148
0.0
149
0.0
100
AcDbLayout
  1
Layout1
 70
0
 71
1
 10
0.0
 20
0.0
 11
558.8
 21
431.8
 12
0.0
 22
0.0
 32
0.0
 14
0.0
 24
0.0
 34
0.0
 15
0.0
 25
0.0
 35
0.0
146
0.0
 13
0.0
 23
0.0
 33
0.0
 16
1.0
 26
0.0
 36
0.0
 17
0.0
 27
1.0
 37
0.0
 76
0
330
219
345
0
346
0
  0
ENDSEC
  0
EOF
