  0
SECTION
  2
HEADER
  9
$ACADVER
  1
AC1015
  9
$DWGCODEPAGE
  3
ANSI_1252
  9
$EXTMAX
 10
297.0
 20
210.0
 30
0.0
  9
$EXTMIN
 10
0.0
 20
0.0
 30
0.0
  9
$LIMMIN
 10
0.0
 20
0.0
  9
$LIMMAX
 10
297.0
 20
210.0
  9
$VIEWCTR
 10
148.5
 20
105.0
  9
$VIEWSIZE
 40
210.0
  9
$CLAYER
  8
0
  9
$LTSCALE
 40
16.335
  9
$CELTYPE
  6
BYLAYER
  9
$DIMSCALE
 40
1.0
  9
$DIMASZ
 40
3.0
  9
$DIMEXO
 40
1.85625
  9
$DIMDLI
 40
11.286
  9
$DIMEXE
 40
5.346
  9
$DIMCEN
 40
2.673
  9
$DIMLFAC
 40
1.0
  9
$DIMBLK
  1
_FILLED
  9
$DIMTXT
 40
3.0
  9
$DIMTOL
 70
1
  9
$DIMLIM
 70
0
  9
$DIMTFAC
 40
1.0
  9
$DIMTP
 40
0.01
  9
$DIMTM
 40
0.01
  9
$PDMODE
 70
3
  9
$PDSIZE
 40
3.0
  9
$HANDSEED
  5
878
  9
$TILEMODE
 70
1
  9
$MEASUREMENT
 70
1
  9
$INSUNITS
 70
4
  0
ENDSEC
  0
SECTION
  2
CLASSES
  0
CLASS
  1
ACDBDICTIONARYWDFLT
  2
AcDbDictionaryWithDefault
  3
AutoCAD 2000
 90
0
280
0
281
0
  0
CLASS
  1
ACDBPLACEHOLDER
  2
AcDbPlaceHolder
  3
AutoCAD 2000
 90
0
280
0
281
0
  0
CLASS
  1
LAYOUT
  2
AcDbLayout
  3
AutoCAD 2000
 90
0
280
0
281
0
  0
ENDSEC
  0
SECTION
  2
TABLES
  0
TABLE
  2
VPORT
  5
8
100
AcDbSymbolTable
 70
2
  0
VPORT
  5
1F4
100
AcDbSymbolTableRecord
100
AcDbViewportTableRecord
  2
*ACTIVE
 70
0
 10
0.0
 20
0.0
 11
1.0
 21
1.0
 12
148.5
 22
105.0
 13
0.0
 23
0.0
 14
1.0
 24
1.0
 15
0.0
 25
0.0
 16
0.0
 26
0.0
 36
1.0
 17
0.0
 27
0.0
 37
0.0
 40
210.0
 41
1.4142857143
 42
50.0
 43
0.0
 44
0.0
 50
0.0
 51
0.0
 71
0
 72
100
 73
1
 74
1
 75
0
 76
0
 77
0
 78
0
  0
ENDTAB
  0
TABLE
  2
LTYPE
  5
5
100
AcDbSymbolTable
 70
6
  0
LTYPE
  5
14
100
AcDbSymbolTableRecord
100
AcDbLinetypeTableRecord
  2
BYBLOCK
 70
0
  3

 72
65
 73
0
 40
0.0
  0
LTYPE
  5
15
100
AcDbSymbolTableRecord
100
AcDbLinetypeTableRecord
  2
BYLAYER
 70
0
  3

 72
65
 73
0
 40
0.0
  0
LTYPE
  5
16
100
AcDbSymbolTableRecord
100
AcDbLinetypeTableRecord
  2
CONTINUOUS
 70
64
  3
Solid line
 72
65
 73
0
 40
0.0
  0
LTYPE
  5
1F5
100
AcDbSymbolTableRecord
100
AcDbLinetypeTableRecord
  2
CENTER
 70
64
  3
____ _ ____ _ ____ _ ____ _ ____ _ ____ _ ____
 72
65
 73
4
 40
0.6
 49
0.375
 74
0
 49
-0.075
 74
0
 49
0.075
 74
0
 49
-0.075
 74
0
  0
LTYPE
  5
1F6
100
AcDbSymbolTableRecord
100
AcDbLinetypeTableRecord
  2
HIDDEN
 70
64
  3
- - - - - - - - - - - - - - - - - - - -
 72
65
 73
2
 40
0.2
 49
0.1
 74
0
 49
-0.1
 74
0
  0
LTYPE
  5
1F7
100
AcDbSymbolTableRecord
100
AcDbLinetypeTableRecord
  2
PHANTOM
 70
64
  3
_____ _ _ _____ _ _ _____ _ _ _____
 72
65
 73
6
 40
0.8
 49
0.45
 74
0
 49
-0.05
 74
0
 49
0.1
 74
0
 49
-0.05
 74
0
 49
0.1
 74
0
 49
-0.05
 74
0
  0
LTYPE
  5
1F8
100
AcDbSymbolTableRecord
100
AcDbLinetypeTableRecord
  2
DOT
 70
64
  3
. . . . . . . . . . . . . . . . . . . .
 72
65
 73
2
 40
0.2
 49
0.1
 74
0
 49
-0.1
 74
0
  0
LTYPE
  5
1F9
100
AcDbSymbolTableRecord
100
AcDbLinetypeTableRecord
  2
DASHED
 70
64
  3
- - - - - - - - - - - - - - - - - - - -
 72
65
 73
2
 40
0.2
 49
0.1
 74
0
 49
-0.1
 74
0
  0
ENDTAB
  0
TABLE
  2
LAYER
  5
2
100
AcDbSymbolTable
 70
36
  0
LAYER
  5
10
100
AcDbSymbolTableRecord
100
AcDbLayerTableRecord
  2
0
 70
0
 62
7
  6
CONTINUOUS
370
-3
390
F
  0
LAYER
  5
1FA
100
AcDbSymbolTableRecord
100
AcDbLayerTableRecord
  2
DEFAULT_1
 70
0
 62
7
  6
CENTER
370
-3
390
F
  0
LAYER
  5
1FB
100
AcDbSymbolTableRecord
100
AcDbLayerTableRecord
  2
DEFAULT_2
 70
0
 62
7
  6
HIDDEN
370
-3
390
F
  0
LAYER
  5
1FC
100
AcDbSymbolTableRecord
100
AcDbLayerTableRecord
  2
DEFAULT_3
 70
0
 62
7
  6
PHANTOM
370
-3
390
F
  0
LAYER
  5
1FD
100
AcDbSymbolTableRecord
100
AcDbLayerTableRecord
  2
ASSI
 70
0
 62
7
  6
CONTINUOUS
370
-3
390
F
  0
LAYER
  5
1FE
100
AcDbSymbolTableRecord
100
AcDbLayerTableRecord
  2
COLOR1
 70
0
 62
7
  6
CONTINUOUS
370
-3
390
F
  0
LAYER
  5
1FF
100
AcDbSymbolTableRecord
100
AcDbLayerTableRecord
  2
COLORE_EIKON
 70
0
 62
7
  6
CONTINUOUS
370
-3
390
F
  0
LAYER
  5
200
100
AcDbSymbolTableRecord
100
AcDbLayerTableRecord
  2
COORDINATE
 70
0
 62
7
  6
CONTINUOUS
370
-3
390
F
  0
LAYER
  5
201
100
AcDbSymbolTableRecord
100
AcDbLayerTableRecord
  2
COORD_ORIGINE
 70
0
 62
7
  6
CONTINUOUS
370
-3
390
F
  0
LAYER
  5
202
100
AcDbSymbolTableRecord
100
AcDbLayerTableRecord
  2
COPY_PUBLISH
 70
0
 62
7
  6
CONTINUOUS
370
-3
390
F
  0
LAYER
  5
203
100
AcDbSymbolTableRecord
100
AcDbLayerTableRecord
  2
COSMETICHE
 70
0
 62
7
  6
CONTINUOUS
370
-3
390
F
  0
LAYER
  5
204
100
AcDbSymbolTableRecord
100
AcDbLayerTableRecord
  2
COSMETICI
 70
0
 62
7
  6
CONTINUOUS
370
-3
390
F
  0
LAYER
  5
205
100
AcDbSymbolTableRecord
100
AcDbLayerTableRecord
  2
CURVE
 70
0
 62
7
  6
CONTINUOUS
370
-3
390
F
  0
LAYER
  5
206
100
AcDbSymbolTableRecord
100
AcDbLayerTableRecord
  2
DRAFT
 70
0
 62
7
  6
CONTINUOUS
370
-3
390
F
  0
LAYER
  5
207
100
AcDbSymbolTableRecord
100
AcDbLayerTableRecord
  2
IMPORT
 70
0
 62
7
  6
CONTINUOUS
370
-3
390
F
  0
LAYER
  5
208
100
AcDbSymbolTableRecord
100
AcDbLayerTableRecord
  2
IMPORT_IGES
 70
0
 62
7
  6
CONTINUOUS
370
-3
390
F
  0
LAYER
  5
209
100
AcDbSymbolTableRecord
100
AcDbLayerTableRecord
  2
INTF_1
 70
0
 62
7
  6
CONTINUOUS
370
-3
390
F
  0
LAYER
  5
20A
100
AcDbSymbolTableRecord
100
AcDbLayerTableRecord
  2
INTF_2
 70
0
 62
7
  6
CONTINUOUS
370
-3
390
F
  0
LAYER
  5
20B
100
AcDbSymbolTableRecord
100
AcDbLayerTableRecord
  2
NOTE
 70
0
 62
7
  6
CONTINUOUS
370
-3
390
F
  0
LAYER
  5
20C
100
AcDbSymbolTableRecord
100
AcDbLayerTableRecord
  2
PIANI
 70
0
 62
7
  6
CONTINUOUS
370
-3
390
F
  0
LAYER
  5
20D
100
AcDbSymbolTableRecord
100
AcDbLayerTableRecord
  2
PIANI_DI_RIFERIMENTO
 70
0
 62
7
  6
CONTINUOUS
370
-3
390
F
  0
LAYER
  5
20E
100
AcDbSymbolTableRecord
100
AcDbLayerTableRecord
  2
PIANI_ORIGINE
 70
0
 62
7
  6
CONTINUOUS
370
-3
390
F
  0
LAYER
  5
20F
100
AcDbSymbolTableRecord
100
AcDbLayerTableRecord
  2
PIANI_RIFERIMENTO
 70
0
 62
7
  6
CONTINUOUS
370
-3
390
F
  0
LAYER
  5
210
100
AcDbSymbolTableRecord
100
AcDbLayerTableRecord
  2
PUNTI
 70
0
 62
7
  6
CONTINUOUS
370
-3
390
F
  0
LAYER
  5
211
100
AcDbSymbolTableRecord
100
AcDbLayerTableRecord
  2
RACCORDO
 70
0
 62
7
  6
CONTINUOUS
370
-3
390
F
  0
LAYER
  5
212
100
AcDbSymbolTableRecord
100
AcDbLayerTableRecord
  2
RGB__255__255__255__
 70
0
 62
7
  6
CONTINUOUS
370
-3
390
F
  0
LAYER
  5
213
100
AcDbSymbolTableRecord
100
AcDbLayerTableRecord
  2
RGB____0____0____0__
 70
0
 62
7
  6
CONTINUOUS
370
-3
390
F
  0
LAYER
  5
214
100
AcDbSymbolTableRecord
100
AcDbLayerTableRecord
  2
SCRITTE
 70
0
 62
7
  6
CONTINUOUS
370
-3
390
F
  0
LAYER
  5
215
100
AcDbSymbolTableRecord
100
AcDbLayerTableRecord
  2
SIMBOLI
 70
0
 62
7
  6
CONTINUOUS
370
-3
390
F
  0
LAYER
  5
216
100
AcDbSymbolTableRecord
100
AcDbLayerTableRecord
  2
SMUSSO
 70
0
 62
7
  6
CONTINUOUS
370
-3
390
F
  0
LAYER
  5
217
100
AcDbSymbolTableRecord
100
AcDbLayerTableRecord
  2
SNAPLINE
 70
0
 62
7
  6
CONTINUOUS
370
-3
390
F
  0
LAYER
  5
218
100
AcDbSymbolTableRecord
100
AcDbLayerTableRecord
  2
SUPERFICI
 70
0
 62
7
  6
CONTINUOUS
370
-3
390
F
  0
LAYER
  5
219
100
AcDbSymbolTableRecord
100
AcDbLayerTableRecord
  2
TRASH
 70
0
 62
7
  6
CONTINUOUS
370
-3
390
F
  0
LAYER
  5
21A
100
AcDbSymbolTableRecord
100
AcDbLayerTableRecord
  2
XSEC_DATUMS
 70
0
 62
7
  6
CONTINUOUS
370
-3
390
F
  0
ENDTAB
  0
TABLE
  2
STYLE
  5
3
100
AcDbSymbolTable
 70
1
  0
STYLE
  5
11
100
AcDbSymbolTableRecord
100
AcDbTextStyleTableRecord
  2
STANDARD
 70
0
 40
0.0
 41
0.8
 50
0.0
 71
0
 42
0.2
  3
txt
  4

  0
STYLE
  5
21B
100
AcDbSymbolTableRecord
100
AcDbTextStyleTableRecord
  2
TEXTSTYLE_1
 70
0
 40
0.0
 41
0.8
 50
0.0
 71
0
 42
0.2
  3
gdt
  4

  0
ENDTAB
  0
TABLE
  2
VIEW
  5
6
100
AcDbSymbolTable
 70
0
  0
ENDTAB
  0
TABLE
  2
UCS
  5
7
100
AcDbSymbolTable
 70
0
  0
ENDTAB
  0
TABLE
  2
APPID
  5
9
100
AcDbSymbolTable
 70
1
  0
APPID
  5
21C
100
AcDbSymbolTableRecord
100
AcDbRegAppTableRecord
  2
ACAD
 70
0
  0
ENDTAB
  0
TABLE
  2
BLOCK_RECORD
  5
1
100
AcDbSymbolTable
 70
0
  0
BLOCK_RECORD
  5
21D
100
AcDbSymbolTableRecord
100
AcDbBlockTableRecord
  2
*Model_Space
  0
BLOCK_RECORD
  5
21E
100
AcDbSymbolTableRecord
100
AcDbBlockTableRecord
  2
*Paper_Space
  0
BLOCK_RECORD
  5
21F
100
AcDbSymbolTableRecord
100
AcDbBlockTableRecord
  2
_FILLED
  0
BLOCK_RECORD
  5
220
100
AcDbSymbolTableRecord
100
AcDbBlockTableRecord
  2
*D0
  0
BLOCK_RECORD
  5
221
100
AcDbSymbolTableRecord
100
AcDbBlockTableRecord
  2
*D1
  0
BLOCK_RECORD
  5
222
100
AcDbSymbolTableRecord
100
AcDbBlockTableRecord
  2
*D2
  0
BLOCK_RECORD
  5
223
100
AcDbSymbolTableRecord
100
AcDbBlockTableRecord
  2
*D3
  0
ENDTAB
  0
TABLE
  2
DIMSTYLE
  5
A
100
AcDbSymbolTable
 70
1
100
AcDbDimStyleTable
 71
0
  0
DIMSTYLE
105
224
100
AcDbSymbolTableRecord
100
AcDbDimStyleTableRecord
  2
STANDARD
 70
0
  3

  4

 40
1.0
 41
3.0
 42
0.0625
 43
0.38
 44
0.18
 45
0.0
 46
0.0
 47
0.01
 48
0.01
140
3.0
141
0.09
142
0.0
143
25.4
144
1.0
145
0.0
146
1.0
147
0.09
 71
1.0
 72
0.0
 73
0
 74
0
 75
0
 76
0
 77
1
 78
8
170
0
171
2
172
0
173
0
174
0
175
0
176
0
177
0
178
0
270
2
271
2
272
2
273
2
274
2
275
0
280
0
281
0
282
0
283
1
284
8
285
0
286
0
287
3
288
0
340
11
341
21F
342
21F
343
21F
344
21F
  0
DIMSTYLE
105
225
100
AcDbSymbolTableRecord
100
AcDbDimStyleTableRecord
  2
DIMSTYLE_1
 70
0
  3

  4

 40
1.0
 41
3.0
 42
0.0625
 43
0.38
 44
0.18
 45
0.0
 46
0.0
 47
0.0
 48
0.0
140
3.0
141
0.09
142
0.0
143
25.4
144
1.0
145
0.0
146
1.0
147
0.09
 71
0.0
 72
0.0
 73
0
 74
0
 75
0
 76
0
 77
1
 78
8
170
0
171
2
172
0
173
0
174
0
175
0
176
0
177
0
178
0
270
2
271
2
272
2
273
2
274
2
275
0
280
0
281
0
282
0
283
1
284
8
285
0
286
0
287
3
288
0
340
11
341
21F
342
21F
343
21F
344
21F
  0
ENDTAB
  0
ENDSEC
  0
SECTION
  2
BLOCKS
  0
BLOCK
  5
20
100
AcDbEntity
  8
0
100
AcDbBlockBegin
  2
*Model_Space
 70
0
 10
0.0
 20
0.0
 30
0.0
  3
*Model_Space
  1

  0
ENDBLK
  5
21
100
AcDbEntity
  8
0
100
AcDbBlockEnd
  0
BLOCK
  5
1C
100
AcDbEntity
  8
0
100
AcDbBlockBegin
  2
*Paper_Space
 70
0
 10
0.0
 20
0.0
 30
0.0
  3
*Paper_Space
  1

  0
ENDBLK
  5
1D
100
AcDbEntity
  8
0
100
AcDbBlockEnd
  0
BLOCK
  5
226
100
AcDbEntity
  8
0
100
AcDbBlockBegin
  2
_FILLED
 70
64
 10
0.0
 20
0.0
  3
_FILLED
  1

  0
SOLID
  5
227
100
AcDbEntity
  8
0
  6
BYBLOCK
 62
0
100
AcDbTrace
 10
0.0
 20
0.0
 11
-1.0
 21
0.3166666667
 12
-1.0
 22
-0.3166666667
 13
-1.0
 23
-0.3166666667
  0
ENDBLK
  5
228
100
AcDbEntity
  8
0
  6
BYBLOCK
 62
0
100
AcDbBlockEnd
  0
BLOCK
  5
229
100
AcDbEntity
  8
0
100
AcDbBlockBegin
 62
7
  6
CONTINUOUS
  2
*D0
 70
65
 10
0.0
 20
0.0
  3
*D0
  1

  0
LINE
  5
22A
100
AcDbEntity
  8
0
100
AcDbLine
 62
7
  6
CONTINUOUS
 10
106.7567854097
 20
140.2795621485
 11
106.7567854097
 21
151.9383842079
  0
LINE
  5
22B
100
AcDbEntity
  8
0
100
AcDbLine
 62
7
  6
CONTINUOUS
 10
151.4567854097
 20
136.1600832566
 11
151.4567854097
 21
151.9383842079
  0
LINE
  5
22C
100
AcDbEntity
  8
0
100
AcDbLine
 62
7
  6
CONTINUOUS
 10
106.7567854097
 20
150.4383842079
 11
129.1067854097
 21
150.4383842079
  0
LINE
  5
22D
100
AcDbEntity
  8
0
100
AcDbLine
 62
7
  6
CONTINUOUS
 10
151.4567854097
 20
150.4383842079
 11
129.1067854097
 21
150.4383842079
  0
INSERT
  5
22E
100
AcDbEntity
  8
0
100
AcDbBlockReference
 62
7
  6
CONTINUOUS
  2
_FILLED
 10
106.7567854097
 20
150.4383842079
 41
3.0
 42
3.0
 43
3.0
 50
180.0
  0
INSERT
  5
22F
100
AcDbEntity
  8
0
100
AcDbBlockReference
 62
7
  6
CONTINUOUS
  2
_FILLED
 10
151.4567854097
 20
150.4383842079
 41
3.0
 42
3.0
 43
3.0
 50
360.0
  0
ENDBLK
  5
230
100
AcDbEntity
  8
0
  6
BYBLOCK
 62
0
100
AcDbBlockEnd
  0
BLOCK
  5
231
100
AcDbEntity
  8
0
100
AcDbBlockBegin
 62
7
  6
CONTINUOUS
  2
*D1
 70
65
 10
0.0
 20
0.0
  3
*D1
  1

  0
LINE
  5
232
100
AcDbEntity
  8
0
100
AcDbLine
 62
7
  6
CONTINUOUS
 10
151.2567888367
 20
142.4383842079
 11
160.9567854097
 21
142.4383842079
  0
LINE
  5
233
100
AcDbEntity
  8
0
100
AcDbLine
 62
7
  6
CONTINUOUS
 10
151.2567888367
 20
93.4383842079
 11
160.9567854097
 21
93.4383842079
  0
LINE
  5
234
100
AcDbEntity
  8
0
100
AcDbLine
 62
7
  6
CONTINUOUS
 10
159.4567854097
 20
142.4383842079
 11
159.4567854097
 21
117.9383842079
  0
LINE
  5
235
100
AcDbEntity
  8
0
100
AcDbLine
 62
7
  6
CONTINUOUS
 10
159.4567854097
 20
93.4383842079
 11
159.4567854097
 21
117.9383842079
  0
INSERT
  5
236
100
AcDbEntity
  8
0
100
AcDbBlockReference
 62
7
  6
CONTINUOUS
  2
_FILLED
 10
159.4567854097
 20
142.4383842079
 41
3.0
 42
3.0
 43
3.0
 50
90.0
  0
INSERT
  5
237
100
AcDbEntity
  8
0
100
AcDbBlockReference
 62
7
  6
CONTINUOUS
  2
_FILLED
 10
159.4567854097
 20
93.4383842079
 41
3.0
 42
3.0
 43
3.0
 50
270.0
  0
ENDBLK
  5
238
100
AcDbEntity
  8
0
  6
BYBLOCK
 62
0
100
AcDbBlockEnd
  0
BLOCK
  5
239
100
AcDbEntity
  8
0
100
AcDbBlockBegin
 62
7
  6
CONTINUOUS
  2
*D2
 70
65
 10
0.0
 20
0.0
  3
*D2
  1

  0
LINE
  5
23A
100
AcDbEntity
  8
0
100
AcDbLine
 62
7
  6
CONTINUOUS
 10
83.7673288929
 20
130.0885075287
 11
83.7673288929
 21
151.9383842079
  0
LINE
  5
23B
100
AcDbEntity
  8
0
100
AcDbLine
 62
7
  6
CONTINUOUS
 10
58.2673288929
 20
142.2827217752
 11
58.2673288929
 21
151.9383842079
  0
LINE
  5
23C
100
AcDbEntity
  8
0
100
AcDbLine
 62
7
  6
CONTINUOUS
 10
83.7673288929
 20
150.4383842079
 11
71.0173288929
 21
150.4383842079
  0
LINE
  5
23D
100
AcDbEntity
  8
0
100
AcDbLine
 62
7
  6
CONTINUOUS
 10
58.2673288929
 20
150.4383842079
 11
71.0173288929
 21
150.4383842079
  0
INSERT
  5
23E
100
AcDbEntity
  8
0
100
AcDbBlockReference
 62
7
  6
CONTINUOUS
  2
_FILLED
 10
83.7673288929
 20
150.4383842079
 41
3.0
 42
3.0
 43
3.0
  0
INSERT
  5
23F
100
AcDbEntity
  8
0
100
AcDbBlockReference
 62
7
  6
CONTINUOUS
  2
_FILLED
 10
58.2673288929
 20
150.4383842079
 41
3.0
 42
3.0
 43
3.0
 50
180.0
  0
ENDBLK
  5
240
100
AcDbEntity
  8
0
  6
BYBLOCK
 62
0
100
AcDbBlockEnd
  0
BLOCK
  5
241
100
AcDbEntity
  8
0
100
AcDbBlockBegin
 62
7
  6
CONTINUOUS
  2
*D3
 70
65
 10
0.0
 20
0.0
  3
*D3
  1

  0
LINE
  5
242
100
AcDbEntity
  8
0
100
AcDbLine
 62
7
  6
CONTINUOUS
 10
83.7673288929
 20
130.0885075287
 11
83.7673288929
 21
161.9383842079
  0
LINE
  5
243
100
AcDbEntity
  8
0
100
AcDbLine
 62
7
  6
CONTINUOUS
 10
47.7673288929
 20
118.4383842079
 11
47.7673288929
 21
161.9383842079
  0
LINE
  5
244
100
AcDbEntity
  8
0
100
AcDbLine
 62
7
  6
CONTINUOUS
 10
83.7673288929
 20
160.4383842079
 11
65.7673288929
 21
160.4383842079
  0
LINE
  5
245
100
AcDbEntity
  8
0
100
AcDbLine
 62
7
  6
CONTINUOUS
 10
47.7673288929
 20
160.4383842079
 11
65.7673288929
 21
160.4383842079
  0
INSERT
  5
246
100
AcDbEntity
  8
0
100
AcDbBlockReference
 62
7
  6
CONTINUOUS
  2
_FILLED
 10
83.7673288929
 20
160.4383842079
 41
3.0
 42
3.0
 43
3.0
  0
INSERT
  5
247
100
AcDbEntity
  8
0
100
AcDbBlockReference
 62
7
  6
CONTINUOUS
  2
_FILLED
 10
47.7673288929
 20
160.4383842079
 41
3.0
 42
3.0
 43
3.0
 50
180.0
  0
ENDBLK
  5
248
100
AcDbEntity
  8
0
  6
BYBLOCK
 62
0
100
AcDbBlockEnd
  0
ENDSEC
  0
SECTION
  2
ENTITIES
  0
DIMENSION
  5
249
100
AcDbEntity
  8
0
100
AcDbDimension
 62
7
  6
CONTINUOUS
  2
*D0
 10
151.4567854097
 20
150.4383842079
 11
124.7139282669
 21
151.1883842079
 70
160
 71
2
 42
44.7
  3
DIMSTYLE_1
100
AcDbAlignedDimension
 13
106.7567854097
 23
140.2795621485
 14
151.4567854097
 24
136.1600832566
 50
360.0
100
AcDbRotatedDimension
  0
DIMENSION
  5
24A
100
AcDbEntity
  8
0
100
AcDbDimension
 62
7
  6
CONTINUOUS
  2
*D1
 10
159.4567854097
 20
93.4383842079
 11
158.7067854097
 21
115.5812413508
 70
160
 71
2
 42
49.0
  3
DIMSTYLE_1
100
AcDbAlignedDimension
 13
151.2567888367
 23
142.4383842079
 14
151.2567888367
 24
93.4383842079
 50
270.0
100
AcDbRotatedDimension
  0
DIMENSION
  5
24B
100
AcDbEntity
  8
0
100
AcDbDimension
 62
7
  6
CONTINUOUS
  2
*D2
 10
58.2673288929
 20
150.4383842079
 11
66.8387574644
 21
151.1883842079
 70
160
 71
2
 42
25.5
  3
DIMSTYLE_1
100
AcDbAlignedDimension
 13
83.7673288929
 23
130.0885075287
 14
58.2673288929
 24
142.2827217752
 50
180.0
100
AcDbRotatedDimension
  0
DIMENSION
  5
24C
100
AcDbEntity
  8
0
100
AcDbDimension
 62
7
  6
CONTINUOUS
  2
*D3
 10
47.7673288929
 20
160.4383842079
 11
63.5173288929
 21
161.1883842079
 70
160
 71
2
 42
36.0
  3
DIMSTYLE_1
100
AcDbAlignedDimension
 13
83.7673288929
 23
130.0885075287
 14
47.7673288929
 24
118.4383842079
 50
180.0
100
AcDbRotatedDimension
  0
LINE
  5
24D
100
AcDbEntity
  8
RACCORDO
100
AcDbLine
 62
253
  6
CONTINUOUS
 10
109.3567888367
 20
142.4383842079
 11
109.3450009026
 21
142.4265962739
  0
LINE
  5
24E
100
AcDbEntity
  8
RACCORDO
100
AcDbLine
 62
253
  6
CONTINUOUS
 10
109.6067854097
 20
142.1883876349
 11
109.5949974757
 21
142.1765997008
  0
LINE
  5
24F
100
AcDbEntity
  8
RACCORDO
100
AcDbLine
 62
253
  6
CONTINUOUS
 10
109.3450009026
 20
93.450172142
 11
109.3567888367
 21
93.4383842079
  0
LINE
  5
250
100
AcDbEntity
  8
RACCORDO
100
AcDbLine
 62
253
  6
CONTINUOUS
 10
109.5949974757
 20
93.700168715
 11
109.6067854097
 21
93.688380781
  0
LWPOLYLINE
  5
251
100
AcDbEntity
  8
RACCORDO
100
AcDbPolyline
 62
7
  6
CONTINUOUS
 90
9
 70
0
 10
107.2153053146
 20
142.2530904058
 10
107.2258172328
 20
142.2840555986
 10
107.2402808842
 20
142.3133839429
 10
107.2584488003
 20
142.3405736404
 10
107.2800101338
 20
142.3651594838
 10
107.3045959773
 20
142.3867208174
 10
107.3317856747
 20
142.4048887335
 10
107.3611140191
 20
142.4193523848
 10
107.3920792118
 20
142.4298643031
  0
LWPOLYLINE
  5
252
100
AcDbEntity
  8
RACCORDO
100
AcDbPolyline
 62
253
  6
CONTINUOUS
 90
15
 70
0
 10
106.9241483987
 20
138.4300815918
 10
106.9277291134
 20
138.4322022521
 10
106.9366277286
 20
138.4343001854
 10
106.9507489031
 20
138.4363529143
 10
106.9699413403
 20
138.4383384454
 10
106.9939994091
 20
138.4402355055
 10
107.0226653475
 20
138.442023769
 10
107.0556320237
 20
138.4436840762
 10
107.0925462275
 20
138.4451986383
 10
107.1330124538
 20
138.4465512281
 10
107.1765971407
 20
138.4477273536
 10
107.2228333148
 20
138.4487144137
 10
107.2712255938
 20
138.4495018331
 10
107.321255495
 20
138.4500811751
 10
107.3723869895
 20
138.4504462326
  0
LINE
  5
253
100
AcDbEntity
  8
RACCORDO
100
AcDbLine
 62
253
  6
CONTINUOUS
 10
106.7742023122
 20
139.7882699365
 11
106.7567854097
 21
139.7795621485
  0
LWPOLYLINE
  5
254
100
AcDbEntity
  8
DRAFT
100
AcDbPolyline
 62
7
  6
CONTINUOUS
 90
4
 70
0
 10
107.0506873019
 20
140.2355674855
 10
107.0644752306
 20
140.2422024589
 10
107.110282755
 20
140.2606994363
 10
107.1578731927
 20
140.2746273583
  0
LINE
  5
255
100
AcDbEntity
  8
RACCORDO
100
AcDbLine
 62
253
  6
CONTINUOUS
 10
106.7567854097
 20
96.0972062673
 11
106.7742023122
 21
96.0884984793
  0
LWPOLYLINE
  5
256
100
AcDbEntity
  8
DRAFT
100
AcDbPolyline
 62
7
  6
CONTINUOUS
 90
13
 70
0
 10
107.0506873642
 20
95.6412008992
 10
107.0207593597
 20
95.657468108
 10
106.9796689593
 20
95.6844535853
 10
106.9418546923
 20
95.7149597411
 10
106.9077403158
 20
95.7483832237
 10
106.8773173621
 20
95.7844505719
 10
106.850536172
 20
95.8230491608
 10
106.8275539348
 20
95.8638676161
 10
106.8085640128
 20
95.9064643466
 10
106.7936348219
 20
95.9506003547
 10
106.7828740364
 20
95.9959414241
 10
106.7763820029
 20
96.0420411587
 10
106.7742023122
 20
96.0884984793
  0
LWPOLYLINE
  5
257
100
AcDbEntity
  8
RACCORDO
100
AcDbPolyline
 62
253
  6
CONTINUOUS
 90
16
 70
0
 10
106.9241483986
 20
97.446686824
 10
106.9277279054
 20
97.4445661096
 10
106.9366254984
 20
97.4424681176
 10
106.9507458441
 20
97.440415327
 10
106.9699376501
 20
97.4384297325
 10
106.9939952854
 20
97.4365326086
 10
107.0226609844
 20
97.4347442822
 10
107.0556276081
 20
97.4330839143
 10
107.0925419353
 20
97.4315692949
 10
107.1330084472
 20
97.4302166524
 10
107.1765935649
 20
97.4290404798
 10
107.2228302953
 20
97.4280533791
 10
107.2712232344
 20
97.4272659265
 10
107.3212538757
 20
97.4266865591
 10
107.3723861654
 20
97.4263214846
 10
107.4240722462
 20
97.4261746146
  0
LWPOLYLINE
  5
258
100
AcDbEntity
  8
RACCORDO
100
AcDbPolyline
 62
7
  6
CONTINUOUS
 90
9
 70
0
 10
107.2153053146
 20
93.62367801
 10
107.2258172328
 20
93.5927128173
 10
107.2402808842
 20
93.5633844729
 10
107.2584488003
 20
93.5361947755
 10
107.2800101338
 20
93.511608932
 10
107.3045959773
 20
93.4900475985
 10
107.3317856747
 20
93.4718796824
 10
107.3611140191
 20
93.457416031
 10
107.3920792118
 20
93.4469041128
  0
LWPOLYLINE
  5
259
100
AcDbEntity
  8
RACCORDO
100
AcDbPolyline
 62
7
  6
CONTINUOUS
 90
3
 70
0
 10
150.8214916077
 20
93.4469041128
 10
150.7894193712
 20
93.4405237833
 10
150.7567888367
 20
93.4383842079
  0
LWPOLYLINE
  5
25A
100
AcDbEntity
  8
RACCORDO
100
AcDbPolyline
 62
7
  6
CONTINUOUS
 90
3
 70
0
 10
107.3920792118
 20
93.4469041128
 10
107.4241514483
 20
93.4405237833
 10
107.4567819828
 20
93.4383842079
  0
LINE
  5
25B
100
AcDbEntity
  8
RACCORDO
100
AcDbLine
 62
7
  6
CONTINUOUS
 10
107.2089249851
 20
142.2210181694
 11
107.2153053146
 21
142.2530904058
  0
LWPOLYLINE
  5
25C
100
AcDbEntity
  8
RACCORDO
100
AcDbPolyline
 62
7
  6
CONTINUOUS
 90
3
 70
0
 10
131.9214916077
 20
93.4469041128
 10
131.8894193712
 20
93.4405237833
 10
131.8567888367
 20
93.4383842079
  0
LINE
  5
25D
100
AcDbEntity
  8
DRAFT
100
AcDbLine
 62
7
  6
CONTINUOUS
 10
151.0556976268
 20
95.6021410576
 11
151.0067766079
 21
95.5929735232
  0
LINE
  5
25E
100
AcDbEntity
  8
RACCORDO
100
AcDbLine
 62
7
  6
CONTINUOUS
 10
150.7567888367
 20
93.4383842079
 11
148.8567819828
 21
93.4383842079
  0
LINE
  5
25F
100
AcDbEntity
  8
RACCORDO
100
AcDbLine
 62
7
  6
CONTINUOUS
 10
131.8567888367
 20
93.4383842079
 11
129.9567819828
 21
93.4383842079
  0
LINE
  5
260
100
AcDbEntity
  8
RACCORDO
100
AcDbLine
 62
7
  6
CONTINUOUS
 10
128.2567888367
 20
93.4383842079
 11
126.3567819828
 21
93.4383842079
  0
LINE
  5
261
100
AcDbEntity
  8
RACCORDO
100
AcDbLine
 62
7
  6
CONTINUOUS
 10
109.3567888367
 20
93.4383842079
 11
107.4567819828
 21
93.4383842079
  0
LINE
  5
262
100
AcDbEntity
  8
RACCORDO
100
AcDbLine
 62
7
  6
CONTINUOUS
 10
107.4685699168
 20
93.450172142
 11
109.3450009026
 21
93.450172142
  0
LINE
  5
263
100
AcDbEntity
  8
RACCORDO
100
AcDbLine
 62
7
  6
CONTINUOUS
 10
126.3685699168
 20
93.450172142
 11
128.2450009026
 21
93.450172142
  0
LINE
  5
264
100
AcDbEntity
  8
RACCORDO
100
AcDbLine
 62
7
  6
CONTINUOUS
 10
129.9685699168
 20
93.450172142
 11
131.8450009026
 21
93.450172142
  0
LINE
  5
265
100
AcDbEntity
  8
RACCORDO
100
AcDbLine
 62
7
  6
CONTINUOUS
 10
148.8685699168
 20
93.450172142
 11
150.7450009026
 21
93.450172142
  0
LINE
  5
266
100
AcDbEntity
  8
RACCORDO
100
AcDbLine
 62
253
  6
CONTINUOUS
 10
107.2185733438
 20
93.700168715
 11
109.5949974757
 21
93.700168715
  0
LINE
  5
267
100
AcDbEntity
  8
RACCORDO
100
AcDbLine
 62
253
  6
CONTINUOUS
 10
126.1185733438
 20
93.700168715
 11
128.4949974757
 21
93.700168715
  0
LINE
  5
268
100
AcDbEntity
  8
RACCORDO
100
AcDbLine
 62
253
  6
CONTINUOUS
 10
129.7185733438
 20
93.700168715
 11
132.0949974757
 21
93.700168715
  0
LINE
  5
269
100
AcDbEntity
  8
RACCORDO
100
AcDbLine
 62
253
  6
CONTINUOUS
 10
148.6185733438
 20
93.700168715
 11
150.9949974757
 21
93.700168715
  0
LWPOLYLINE
  5
26A
100
AcDbEntity
  8
RACCORDO
100
AcDbPolyline
 62
7
  6
CONTINUOUS
 90
13
 70
0
 10
122.1529927234
 20
94.1430452411
 10
122.1364001279
 20
94.1442424553
 10
122.1182865778
 20
94.1475593227
 10
122.0986520731
 20
94.1529305888
 10
122.0774630417
 20
94.1602556846
 10
122.0547530556
 20
94.1694379661
 10
122.030622831
 20
94.1804194172
 10
122.0050858004
 20
94.1930725853
 10
121.9781285313
 20
94.2072819727
 10
121.9498114418
 20
94.2230508143
 10
121.9200659853
 20
94.240272611
 10
121.8889607084
 20
94.2587776742
 10
121.8567616689
 20
94.278496328
  0
LWPOLYLINE
  5
26B
100
AcDbEntity
  8
DRAFT
100
AcDbPolyline
 62
7
  6
CONTINUOUS
 90
5
 70
0
 10
107.2067854097
 20
95.5929747266
 10
107.1578651543
 20
95.6021429821
 10
107.1102755257
 20
95.6160714889
 10
107.0644688365
 20
95.6345689136
 10
107.0506873642
 20
95.6412008992
  0
LWPOLYLINE
  5
26C
100
AcDbEntity
  8
RACCORDO
100
AcDbPolyline
 62
7
  6
CONTINUOUS
 90
3
 70
0
 10
126.2920792118
 20
93.4469041128
 10
126.3241514483
 20
93.4405237833
 10
126.3567819828
 20
93.4383842079
  0
LINE
  5
26D
100
AcDbEntity
  8
RACCORDO
100
AcDbLine
 62
7
  6
CONTINUOUS
 10
107.2089249851
 20
93.6557502465
 11
107.2153053146
 21
93.62367801
  0
LINE
  5
26E
100
AcDbEntity
  8
RACCORDO
100
AcDbLine
 62
7
  6
CONTINUOUS
 10
107.2067854097
 20
93.688380781
 11
107.2089249851
 21
93.6557502465
  0
LWPOLYLINE
  5
26F
100
AcDbEntity
  8
RACCORDO
100
AcDbPolyline
 62
253
  6
CONTINUOUS
 90
16
 70
0
 10
106.9076215558
 20
96.4890817085
 10
106.91040458
 20
96.4369205688
 10
106.9186278339
 20
96.3853300443
 10
106.9322013876
 20
96.3348747007
 10
106.9509767587
 20
96.2861066962
 10
106.97474854
 20
96.2395597243
 10
107.003256651
 20
96.1957431759
 10
107.0361891798
 20
96.1551365738
 10
107.0731857727
 20
96.1181843464
 10
107.1138415762
 20
96.0852909435
 10
107.1577117151
 20
96.0568163715
 10
107.2043161075
 20
96.0330723006
 10
107.2531446823
 20
96.0143186496
 10
107.3036630574
 20
96.000760688
 10
107.3553183991
 20
95.9925468112
 10
107.4075454033
 20
95.9897669409
  0
LWPOLYLINE
  5
270
100
AcDbEntity
  8
RACCORDO
100
AcDbPolyline
 62
7
  6
CONTINUOUS
 90
16
 70
0
 10
107.2185733438
 20
93.700168715
 10
107.2199573841
 20
93.6739058691
 10
107.22409147
 20
93.6479396479
 10
107.2309279734
 20
93.6225569765
 10
107.240382837
 20
93.5980527735
 10
107.2523532923
 20
93.5746809862
 10
107.2667342186
 20
93.5526593764
 10
107.2834174856
 20
93.5321950311
 10
107.3021976139
 20
93.5135760002
 10
107.3227687346
 20
93.4970956288
 10
107.344862637
 20
93.4829284749
 10
107.3682403031
 20
93.4711905599
 10
107.3925838769
 20
93.4620019332
 10
107.4175973333
 20
93.4554251794
 10
107.4430179239
 20
93.4514820974
 10
107.4685699168
 20
93.450172142
  0
LINE
  5
271
100
AcDbEntity
  8
RACCORDO
100
AcDbLine
 62
253
  6
CONTINUOUS
 10
106.9203467615
 20
139.0131343078
 11
106.9186807272
 21
139.116693408
  0
LINE
  5
272
100
AcDbEntity
  8
RACCORDO
100
AcDbLine
 62
253
  6
CONTINUOUS
 10
106.9217417359
 20
138.8971025665
 11
106.9203467615
 21
139.0131343078
  0
LINE
  5
273
100
AcDbEntity
  8
RACCORDO
100
AcDbLine
 62
253
  6
CONTINUOUS
 10
107.2185733438
 20
94.0940466406
 11
107.2146394632
 21
94.5278150888
  0
LINE
  5
274
100
AcDbEntity
  8
RACCORDO
100
AcDbLine
 62
7
  6
CONTINUOUS
 10
107.2146394632
 20
94.8157344771
 11
107.2133373082
 21
94.9593162981
  0
LINE
  5
275
100
AcDbEntity
  8
RACCORDO
100
AcDbLine
 62
253
  6
CONTINUOUS
 10
107.4685699168
 20
94.3105529916
 11
107.4639883857
 21
94.8157344771
  0
LINE
  5
276
100
AcDbEntity
  8
RACCORDO
100
AcDbLine
 62
253
  6
CONTINUOUS
 10
106.9228363835
 20
138.7713404607
 11
106.9217417359
 21
138.8971025665
  0
LINE
  5
277
100
AcDbEntity
  8
RACCORDO
100
AcDbLine
 62
253
  6
CONTINUOUS
 10
106.9238760224
 20
138.5696964701
 11
106.9228363835
 21
138.7713404607
  0
LINE
  5
278
100
AcDbEntity
  8
ASSI
100
AcDbLine
 62
7
  6
CONTINUOUS
 10
106.7567854097
 20
135.6600832566
 11
106.7567854097
 21
100.2166851592
  0
LINE
  5
279
100
AcDbEntity
  8
0
100
AcDbLine
 62
7
  6
CONTINUOUS
 10
106.7567854097
 20
135.6600832566
 11
106.7567854097
 21
100.2166851592
  0
LINE
  5
27A
100
AcDbEntity
  8
RACCORDO
100
AcDbLine
 62
7
  6
CONTINUOUS
 10
106.7567854097
 20
139.7795621485
 11
106.7567854097
 21
96.0972062673
  0
LINE
  5
27B
100
AcDbEntity
  8
RACCORDO
100
AcDbLine
 62
7
  6
CONTINUOUS
 10
107.2067854097
 20
142.1883876349
 11
107.2067854097
 21
140.2838594183
  0
LINE
  5
27C
100
AcDbEntity
  8
RACCORDO
100
AcDbLine
 62
7
  6
CONTINUOUS
 10
107.2067854097
 20
95.5929747266
 11
107.2067854097
 21
93.688380781
  0
LINE
  5
27D
100
AcDbEntity
  8
RACCORDO
100
AcDbLine
 62
7
  6
CONTINUOUS
 10
107.2133373082
 20
94.9593162981
 11
107.2133373082
 21
95.6608013834
  0
LINE
  5
27E
100
AcDbEntity
  8
RACCORDO
100
AcDbLine
 62
7
  6
CONTINUOUS
 10
107.2133373082
 20
140.2159670324
 11
107.2133373082
 21
141.205371506
  0
LINE
  5
27F
100
AcDbEntity
  8
RACCORDO
100
AcDbLine
 62
7
  6
CONTINUOUS
 10
107.2146394632
 20
94.5278150888
 11
107.2146394632
 21
94.8157344771
  0
LINE
  5
280
100
AcDbEntity
  8
RACCORDO
100
AcDbLine
 62
7
  6
CONTINUOUS
 10
107.2185733438
 20
93.700168715
 11
107.2185733438
 21
94.0940466406
  0
LINE
  5
281
100
AcDbEntity
  8
RACCORDO
100
AcDbLine
 62
7
  6
CONTINUOUS
 10
107.2185733438
 20
141.7827217752
 11
107.2185733438
 21
142.1765997008
  0
LWPOLYLINE
  5
282
100
AcDbEntity
  8
RACCORDO
100
AcDbPolyline
 62
253
  6
CONTINUOUS
 90
9
 70
0
 10
106.9270480971
 20
101.9992561854
 10
106.9292228707
 20
106.5523967959
 10
106.9306727195
 20
111.1061086556
 10
106.9313976432
 20
115.6607730406
 10
106.931397642
 20
120.2160086748
 10
106.9306727168
 20
124.7706717299
 10
106.929222868
 20
129.3243809297
 10
106.9270480953
 20
133.8775175503
 10
106.9238760224
 20
138.5696964701
  0
LINE
  5
283
100
AcDbEntity
  8
RACCORDO
100
AcDbLine
 62
253
  6
CONTINUOUS
 10
106.9238756641
 20
97.3069733338
 11
106.9270480971
 21
101.9992561854
  0
LINE
  5
284
100
AcDbEntity
  8
RACCORDO
100
AcDbLine
 62
253
  6
CONTINUOUS
 10
106.922835281
 20
97.1052657542
 11
106.9238756641
 21
97.3069733338
  0
LINE
  5
285
100
AcDbEntity
  8
RACCORDO
100
AcDbLine
 62
253
  6
CONTINUOUS
 10
107.2133373082
 20
141.205371506
 11
107.2185733438
 21
141.7827217752
  0
LINE
  5
286
100
AcDbEntity
  8
RACCORDO
100
AcDbLine
 62
253
  6
CONTINUOUS
 10
107.4639883857
 20
141.0610339387
 11
107.4685699168
 21
141.5662154243
  0
LINE
  5
287
100
AcDbEntity
  8
RACCORDO
100
AcDbLine
 62
253
  6
CONTINUOUS
 10
106.9217398115
 20
96.9794781655
 11
106.922835281
 21
97.1052657542
  0
LINE
  5
288
100
AcDbEntity
  8
RACCORDO
100
AcDbLine
 62
253
  6
CONTINUOUS
 10
106.9203438293
 20
96.863423646
 11
106.9217398115
 21
96.9794781655
  0
LINE
  5
289
100
AcDbEntity
  8
RACCORDO
100
AcDbLine
 62
253
  6
CONTINUOUS
 10
106.9186771921
 20
96.7598849424
 11
106.9203438293
 21
96.863423646
  0
LWPOLYLINE
  5
28A
100
AcDbEntity
  8
DRAFT
100
AcDbPolyline
 62
7
  6
CONTINUOUS
 90
13
 70
0
 10
106.7742023122
 20
139.7882699365
 10
106.776382056
 20
139.8347278409
 10
106.7828742505
 20
139.880828143
 10
106.7936353022
 20
139.9261697486
 10
106.8085648587
 20
139.9703062464
 10
106.8275552399
 20
140.012903407
 10
106.8505380237
 20
140.0537222219
 10
106.8773198389
 20
140.0923210876
 10
106.9077434858
 20
140.1283886171
 10
106.9418586149
 20
140.1618121728
 10
106.9796736818
 20
140.1923182796
 10
107.0207649119
 20
140.2193035773
 10
107.0506873019
 20
140.2355674855
  0
LWPOLYLINE
  5
28B
100
AcDbEntity
  8
RACCORDO
100
AcDbPolyline
 62
7
  6
CONTINUOUS
 90
16
 70
0
 10
107.2185733438
 20
142.1765997008
 10
107.2199573838
 20
142.2028625443
 10
107.2240914693
 20
142.2288287645
 10
107.2309279724
 20
142.2542114363
 10
107.2403828368
 20
142.2787156419
 10
107.2523532941
 20
142.3020874329
 10
107.2667342223
 20
142.3241090446
 10
107.2834174899
 20
142.3445733895
 10
107.3021976177
 20
142.3631924189
 10
107.322768737
 20
142.3796727888
 10
107.3448626364
 20
142.3938399406
 10
107.3682402985
 20
142.4055778539
 10
107.3925838698
 20
142.4147664804
 10
107.4175973266
 20
142.4213432351
 10
107.4430179195
 20
142.425286318
 10
107.4685699168
 20
142.4265962739
  0
LWPOLYLINE
  5
28C
100
AcDbEntity
  8
RACCORDO
100
AcDbPolyline
 62
253
  6
CONTINUOUS
 90
16
 70
0
 10
106.9076215558
 20
139.3876867074
 10
106.9104047125
 20
139.4398490964
 10
106.9186283198
 20
139.4914406471
 10
106.9322023829
 20
139.5418967684
 10
106.9509783543
 20
139.5906652945
 10
106.9747507593
 20
139.6372125279
 10
107.0032594451
 20
139.6810290798
 10
107.0361924274
 20
139.7216354444
 10
107.0731893047
 20
139.7585872467
 10
107.1138452023
 20
139.7914801054
 10
107.157715203
 20
139.8199540578
 10
107.2043192162
 20
139.8436974999
 10
107.2531472318
 20
139.8624505957
 10
107.3036649011
 20
139.8760081209
 10
107.355319385
 20
139.884221709
 10
107.4075454034
 20
139.8870014748
  0
LINE
  5
28D
100
AcDbEntity
  8
RACCORDO
100
AcDbLine
 62
7
  6
CONTINUOUS
 10
107.2067854097
 20
142.1883876349
 11
107.2089249851
 21
142.2210181694
  0
LWPOLYLINE
  5
28E
100
AcDbEntity
  8
RACCORDO
100
AcDbPolyline
 62
7
  6
CONTINUOUS
 90
14
 70
0
 10
121.7538680331
 20
141.5337265594
 10
121.8567864022
 20
141.5982873416
 10
121.8889876245
 20
141.6180069951
 10
121.920092349
 20
141.6365113381
 10
121.9498362909
 20
141.6537317159
 10
121.9781510028
 20
141.6694985674
 10
122.005104932
 20
141.6837055763
 10
122.030639136
 20
141.6963567562
 10
122.0547680237
 20
141.7073370001
 10
122.0774771863
 20
141.7165181838
 10
122.0986644545
 20
141.7238416783
 10
122.1182957719
 20
141.7292111099
 10
122.1364051948
 20
141.7325265523
 10
122.1529927234
 20
141.7337231748
  0
LWPOLYLINE
  5
28F
100
AcDbEntity
  8
RACCORDO
100
AcDbPolyline
 62
7
  6
CONTINUOUS
 90
3
 70
0
 10
128.3214916077
 20
93.4469041128
 10
128.2894193712
 20
93.4405237833
 10
128.2567888367
 20
93.4383842079
  0
LWPOLYLINE
  5
290
100
AcDbEntity
  8
RACCORDO
100
AcDbPolyline
 62
7
  6
CONTINUOUS
 90
7
 70
0
 10
150.9602803351
 20
95.6630086719
 10
150.9721190555
 20
95.6630399307
 10
150.9820231384
 20
95.6631572072
 10
150.9898484117
 20
95.6630254916
 10
150.9955170289
 20
95.6625331142
 10
150.9989895036
 20
95.6617917448
 10
151.0002335113
 20
95.6608013834
  0
LINE
  5
291
100
AcDbEntity
  8
RACCORDO
100
AcDbLine
 62
253
  6
CONTINUOUS
 10
107.2185733438
 20
94.0940466406
 11
109.5949974757
 21
94.0940466406
  0
LINE
  5
292
100
AcDbEntity
  8
RACCORDO
100
AcDbLine
 62
253
  6
CONTINUOUS
 10
126.1185733438
 20
94.0940466406
 11
128.4949974757
 21
94.0940466406
  0
LINE
  5
293
100
AcDbEntity
  8
RACCORDO
100
AcDbLine
 62
253
  6
CONTINUOUS
 10
129.7185733438
 20
94.0940466406
 11
132.0949974757
 21
94.0940466406
  0
LINE
  5
294
100
AcDbEntity
  8
RACCORDO
100
AcDbLine
 62
253
  6
CONTINUOUS
 10
148.6185733438
 20
94.0940466406
 11
150.9949974757
 21
94.0940466406
  0
LINE
  5
295
100
AcDbEntity
  8
RACCORDO
100
AcDbLine
 62
7
  6
CONTINUOUS
 10
113.5605780961
 20
94.1430452411
 11
122.1529927234
 21
94.1430452411
  0
LINE
  5
296
100
AcDbEntity
  8
RACCORDO
100
AcDbLine
 62
7
  6
CONTINUOUS
 10
136.0605780961
 20
94.1430452411
 11
144.6529927234
 21
94.1430452411
  0
LINE
  5
297
100
AcDbEntity
  8
RACCORDO
100
AcDbLine
 62
253
  6
CONTINUOUS
 10
107.4685699168
 20
94.3105529916
 11
109.3450009026
 21
94.3105529916
  0
LINE
  5
298
100
AcDbEntity
  8
RACCORDO
100
AcDbLine
 62
253
  6
CONTINUOUS
 10
126.3685699168
 20
94.3105529916
 11
128.2450009026
 21
94.3105529916
  0
LINE
  5
299
100
AcDbEntity
  8
RACCORDO
100
AcDbLine
 62
253
  6
CONTINUOUS
 10
129.9685699168
 20
94.3105529916
 11
131.8450009026
 21
94.3105529916
  0
LINE
  5
29A
100
AcDbEntity
  8
RACCORDO
100
AcDbLine
 62
253
  6
CONTINUOUS
 10
148.8685699168
 20
94.3105529916
 11
150.7450009026
 21
94.3105529916
  0
LINE
  5
29B
100
AcDbEntity
  8
RACCORDO
100
AcDbLine
 62
253
  6
CONTINUOUS
 10
113.9597027864
 20
94.3430418565
 11
121.7538680331
 21
94.3430418565
  0
LINE
  5
29C
100
AcDbEntity
  8
RACCORDO
100
AcDbLine
 62
253
  6
CONTINUOUS
 10
136.4597027864
 20
94.3430418565
 11
144.2538680331
 21
94.3430418565
  0
LINE
  5
29D
100
AcDbEntity
  8
RACCORDO
100
AcDbLine
 62
7
  6
CONTINUOUS
 10
107.2146394632
 20
94.8157344771
 11
109.5989313563
 21
94.8157344771
  0
LINE
  5
29E
100
AcDbEntity
  8
RACCORDO
100
AcDbLine
 62
7
  6
CONTINUOUS
 10
126.1146394632
 20
94.8157344771
 11
128.4989313563
 21
94.8157344771
  0
LINE
  5
29F
100
AcDbEntity
  8
RACCORDO
100
AcDbLine
 62
7
  6
CONTINUOUS
 10
129.7146394632
 20
94.8157344771
 11
132.0989313563
 21
94.8157344771
  0
LINE
  5
2A0
100
AcDbEntity
  8
RACCORDO
100
AcDbLine
 62
7
  6
CONTINUOUS
 10
148.6146394632
 20
94.8157344771
 11
150.9989313563
 21
94.8157344771
  0
LINE
  5
2A1
100
AcDbEntity
  8
ASSI
100
AcDbLine
 62
7
  6
CONTINUOUS
 10
128.5067854097
 20
95.5383842079
 11
129.7067854097
 21
95.5383842079
  0
LINE
  5
2A2
100
AcDbEntity
  8
0
100
AcDbLine
 62
7
  6
CONTINUOUS
 10
128.5067854097
 20
95.5383842079
 11
129.7067854097
 21
95.5383842079
  0
LINE
  5
2A3
100
AcDbEntity
  8
DRAFT
100
AcDbLine
 62
7
  6
CONTINUOUS
 10
148.6067854097
 20
95.5883842079
 11
144.7567854097
 21
95.5883842079
  0
LINE
  5
2A4
100
AcDbEntity
  8
DRAFT
100
AcDbLine
 62
7
  6
CONTINUOUS
 10
135.9567854097
 20
95.5883842079
 11
132.1067854097
 21
95.5883842079
  0
LINE
  5
2A5
100
AcDbEntity
  8
DRAFT
100
AcDbLine
 62
7
  6
CONTINUOUS
 10
129.7067854097
 20
95.5883842079
 11
128.5067854097
 21
95.5883842079
  0
LINE
  5
2A6
100
AcDbEntity
  8
DRAFT
100
AcDbLine
 62
7
  6
CONTINUOUS
 10
126.1067854097
 20
95.5883842079
 11
122.2567854097
 21
95.5883842079
  0
LINE
  5
2A7
100
AcDbEntity
  8
DRAFT
100
AcDbLine
 62
7
  6
CONTINUOUS
 10
113.4567854097
 20
95.5883842079
 11
109.6067854097
 21
95.5883842079
  0
LINE
  5
2A8
100
AcDbEntity
  8
RACCORDO
100
AcDbLine
 62
7
  6
CONTINUOUS
 10
144.2538680331
 20
95.6407919872
 11
136.4597027864
 21
95.6407919872
  0
LINE
  5
2A9
100
AcDbEntity
  8
RACCORDO
100
AcDbLine
 62
7
  6
CONTINUOUS
 10
121.7538680331
 20
95.6407919872
 11
113.9597027864
 21
95.6407919872
  0
LINE
  5
2AA
100
AcDbEntity
  8
RACCORDO
100
AcDbLine
 62
7
  6
CONTINUOUS
 10
150.7502369383
 20
95.6669958769
 11
148.8633338812
 21
95.6669958769
  0
LINE
  5
2AB
100
AcDbEntity
  8
RACCORDO
100
AcDbLine
 62
7
  6
CONTINUOUS
 10
131.8502369383
 20
95.6669958769
 11
129.9633338812
 21
95.6669958769
  0
LINE
  5
2AC
100
AcDbEntity
  8
RACCORDO
100
AcDbLine
 62
7
  6
CONTINUOUS
 10
128.2502369383
 20
95.6669958769
 11
126.3633338812
 21
95.6669958769
  0
LINE
  5
2AD
100
AcDbEntity
  8
RACCORDO
100
AcDbLine
 62
7
  6
CONTINUOUS
 10
109.3502369383
 20
95.6669958769
 11
107.4633338812
 21
95.6669958769
  0
LINE
  5
2AE
100
AcDbEntity
  8
RACCORDO
100
AcDbLine
 62
253
  6
CONTINUOUS
 10
107.4075454034
 20
95.9897669411
 11
150.8060254161
 21
95.9897669411
  0
LWPOLYLINE
  5
2AF
100
AcDbEntity
  8
RACCORDO
100
AcDbPolyline
 62
7
  6
CONTINUOUS
 90
3
 70
0
 10
150.9146040944
 20
95.6637660106
 10
150.9313811845
 20
95.6634275467
 10
150.9602803351
 20
95.6630086719
  0
LWPOLYLINE
  5
2B0
100
AcDbEntity
  8
RACCORDO
100
AcDbPolyline
 62
7
  6
CONTINUOUS
 90
13
 70
0
 10
144.6529927234
 20
94.1430452411
 10
144.6364001279
 20
94.1442424553
 10
144.6182865778
 20
94.1475593227
 10
144.5986520731
 20
94.1529305888
 10
144.5774630417
 20
94.1602556846
 10
144.5547530556
 20
94.1694379661
 10
144.530622831
 20
94.1804194172
 10
144.5050858004
 20
94.1930725853
 10
144.4781285313
 20
94.2072819727
 10
144.4498114418
 20
94.2230508143
 10
144.4200659853
 20
94.240272611
 10
144.3889607084
 20
94.2587776742
 10
144.3567616689
 20
94.278496328
  0
LWPOLYLINE
  5
2B1
100
AcDbEntity
  8
RACCORDO
100
AcDbPolyline
 62
7
  6
CONTINUOUS
 90
3
 70
0
 10
129.8920792118
 20
93.4469041128
 10
129.9241514483
 20
93.4405237833
 10
129.9567819828
 20
93.4383842079
  0
LINE
  5
2B2
100
AcDbEntity
  8
RACCORDO
100
AcDbLine
 62
7
  6
CONTINUOUS
 10
121.8567616689
 20
94.278496328
 11
121.7538680331
 21
94.3430418565
  0
LWPOLYLINE
  5
2B3
100
AcDbEntity
  8
RACCORDO
100
AcDbPolyline
 62
7
  6
CONTINUOUS
 90
16
 70
0
 10
107.2133373082
 20
141.205371506
 10
107.21460438
 20
141.1917143457
 10
107.2181945719
 20
141.1778866799
 10
107.2241535314
 20
141.1640918207
 10
107.2324978066
 20
141.1506264991
 10
107.2432253077
 20
141.1376264446
 10
107.2563270087
 20
141.1250695735
 10
107.2717497591
 20
141.1131978595
 10
107.2894124959
 20
141.1022414863
 10
107.3092412762
 20
141.0921785738
 10
107.3310867187
 20
141.0832554419
 10
107.3547769647
 20
141.0757048065
 10
107.380173993
 20
141.0695057054
 10
107.407057
 20
141.064812454
 10
107.4351072727
 20
141.0619251221
 10
107.4639883857
 20
141.0610339387
  0
LWPOLYLINE
  5
2B4
100
AcDbEntity
  8
RACCORDO
100
AcDbPolyline
 62
253
  6
CONTINUOUS
 90
16
 70
0
 10
109.5949974757
 20
94.0940466406
 10
109.5935577773
 20
94.1166920871
 10
109.5893926978
 20
94.1390838397
 10
109.5825498299
 20
94.1609766395
 10
109.5731081952
 20
94.182126835
 10
109.561171891
 20
94.2023078775
 10
109.5468640075
 20
94.2213106787
 10
109.5303279805
 20
94.2389360408
 10
109.5117510415
 20
94.2549768636
 10
109.4913614297
 20
94.2692386371
 10
109.4693894027
 20
94.2815687376
 10
109.4460773556
 20
94.2918389504
 10
109.4217067461
 20
94.2999359934
 10
109.3965561789
 20
94.3057822914
 10
109.3708944462
 20
94.3093298295
 10
109.3450009026
 20
94.3105529892
  0
LWPOLYLINE
  5
2B5
100
AcDbEntity
  8
RACCORDO
100
AcDbPolyline
 62
253
  6
CONTINUOUS
 90
16
 70
0
 10
107.2185733438
 20
141.7827217752
 10
107.2200130415
 20
141.7600763347
 10
107.2241781189
 20
141.7376845871
 10
107.231020984
 20
141.7157917913
 10
107.2404626156
 20
141.6946415978
 10
107.2523989165
 20
141.6744605561
 10
107.2667067958
 20
141.6554577565
 10
107.2832428152
 20
141.6378323978
 10
107.3018197448
 20
141.6217915781
 10
107.3222093498
 20
141.6075298039
 10
107.3441813764
 20
141.5951996985
 10
107.3674934279
 20
141.5849294795
 10
107.391864044
 20
141.5768324307
 10
107.4170146191
 20
141.5709861279
 10
107.4426763617
 20
141.5674385861
 10
107.4685699168
 20
141.5662154243
  0
LWPOLYLINE
  5
2B6
100
AcDbEntity
  8
RACCORDO
100
AcDbPolyline
 62
253
  6
CONTINUOUS
 90
8
 70
0
 10
106.915749378
 20
139.2444011994
 10
106.9146778461
 20
139.2787326774
 10
106.9135662303
 20
139.3085870659
 10
106.9124154138
 20
139.3340362836
 10
106.9112437071
 20
139.3547080816
 10
106.9100572136
 20
139.3704783767
 10
106.9088498298
 20
139.3814712519
 10
106.9076215558
 20
139.3876867074
  0
LWPOLYLINE
  5
2B7
100
AcDbEntity
  8
RACCORDO
100
AcDbPolyline
 62
253
  6
CONTINUOUS
 90
6
 70
0
 10
107.4134972
 20
139.7682147304
 10
107.4123486155
 20
139.8062612005
 10
107.4111774829
 20
139.8373007155
 10
107.4099893378
 20
139.8611791
 10
107.4087786446
 20
139.8777740557
 10
107.4075454034
 20
139.8870014748
  0
LINE
  5
2B8
100
AcDbEntity
  8
RACCORDO
100
AcDbLine
 62
253
  6
CONTINUOUS
 10
107.4156765606
 20
139.6718543375
 11
107.4134972
 21
139.7682147304
  0
LWPOLYLINE
  5
2B9
100
AcDbEntity
  8
RACCORDO
100
AcDbPolyline
 62
253
  6
CONTINUOUS
 90
3
 70
0
 10
106.9186807272
 20
139.116693408
 10
106.9177591793
 20
139.1631107367
 10
106.915749378
 20
139.2444011994
  0
LINE
  5
2BA
100
AcDbEntity
  8
RACCORDO
100
AcDbLine
 62
253
  6
CONTINUOUS
 10
107.4176833884
 20
139.5501178018
 11
107.4156765606
 21
139.6718543375
  0
LINE
  5
2BB
100
AcDbEntity
  8
RACCORDO
100
AcDbLine
 62
253
  6
CONTINUOUS
 10
107.4194691748
 20
139.4055262901
 11
107.4176833884
 21
139.5501178018
  0
LINE
  5
2BC
100
AcDbEntity
  8
RACCORDO
100
AcDbLine
 62
7
  6
CONTINUOUS
 10
107.2067922632
 20
141.3481976423
 11
107.2067989977
 21
141.3474550662
  0
LINE
  5
2BD
100
AcDbEntity
  8
RACCORDO
100
AcDbLine
 62
7
  6
CONTINUOUS
 10
109.6067785563
 20
94.5285707736
 11
109.6067718218
 21
94.5293133497
  0
LINE
  5
2BE
100
AcDbEntity
  8
RACCORDO
100
AcDbLine
 62
253
  6
CONTINUOUS
 10
107.4209982093
 20
139.2408106039
 11
107.4194691748
 21
139.4055262901
  0
LINE
  5
2BF
100
AcDbEntity
  8
RACCORDO
100
AcDbLine
 62
253
  6
CONTINUOUS
 10
107.4222481623
 20
139.059197315
 11
107.4209982093
 21
139.2408106039
  0
LINE
  5
2C0
100
AcDbEntity
  8
RACCORDO
100
AcDbLine
 62
253
  6
CONTINUOUS
 10
107.4235352135
 20
138.7632256318
 11
107.4222481623
 21
139.059197315
  0
LINE
  5
2C1
100
AcDbEntity
  8
RACCORDO
100
AcDbLine
 62
253
  6
CONTINUOUS
 10
107.4240722462
 20
138.4505938014
 11
107.4235352135
 21
138.7632256318
  0
LINE
  5
2C2
100
AcDbEntity
  8
RACCORDO
100
AcDbLine
 62
253
  6
CONTINUOUS
 10
107.4633338812
 20
94.8157344771
 11
107.4633338812
 21
95.6669958769
  0
LINE
  5
2C3
100
AcDbEntity
  8
RACCORDO
100
AcDbLine
 62
253
  6
CONTINUOUS
 10
107.4633338812
 20
140.209772539
 11
107.4633338812
 21
141.0610339387
  0
LINE
  5
2C4
100
AcDbEntity
  8
RACCORDO
100
AcDbLine
 62
253
  6
CONTINUOUS
 10
107.4685699168
 20
93.450172142
 11
107.4685699168
 21
94.3105529916
  0
LINE
  5
2C5
100
AcDbEntity
  8
RACCORDO
100
AcDbLine
 62
253
  6
CONTINUOUS
 10
107.4685699168
 20
141.5662154243
 11
107.4685699168
 21
142.4265962739
  0
LINE
  5
2C6
100
AcDbEntity
  8
RACCORDO
100
AcDbLine
 62
253
  6
CONTINUOUS
 10
109.3450009026
 20
142.4265962739
 11
109.3450009026
 21
141.5662154243
  0
LINE
  5
2C7
100
AcDbEntity
  8
RACCORDO
100
AcDbLine
 62
253
  6
CONTINUOUS
 10
109.3450009026
 20
94.3105529916
 11
109.3450009026
 21
93.450172142
  0
LINE
  5
2C8
100
AcDbEntity
  8
RACCORDO
100
AcDbLine
 62
253
  6
CONTINUOUS
 10
109.3502369383
 20
141.0610339387
 11
109.3502369383
 21
140.209772539
  0
LINE
  5
2C9
100
AcDbEntity
  8
RACCORDO
100
AcDbLine
 62
253
  6
CONTINUOUS
 10
109.3502369383
 20
95.6669958769
 11
109.3502369383
 21
94.8157344771
  0
LWPOLYLINE
  5
2CA
100
AcDbEntity
  8
RACCORDO
100
AcDbPolyline
 62
253
  6
CONTINUOUS
 90
9
 70
0
 10
107.4269719449
 20
101.9826743617
 10
107.429146719
 20
106.540500876
 10
107.4305965684
 20
111.0992751404
 10
107.4313214932
 20
115.658618014
 10
107.4313214933
 20
120.2181503993
 10
107.4305965686
 20
124.7774932733
 10
107.4291467192
 20
129.3362675381
 10
107.426971945
 20
133.8940940531
 10
107.4240722462
 20
138.4505938014
  0
LINE
  5
2CB
100
AcDbEntity
  8
RACCORDO
100
AcDbLine
 62
253
  6
CONTINUOUS
 10
107.4237975263
 20
97.2165672437
 11
107.4269719449
 21
101.9826743617
  0
LINE
  5
2CC
100
AcDbEntity
  8
RACCORDO
100
AcDbLine
 62
253
  6
CONTINUOUS
 10
107.4227563544
 20
96.9135494798
 11
107.4237975263
 21
97.2165672437
  0
LINE
  5
2CD
100
AcDbEntity
  8
RACCORDO
100
AcDbLine
 62
253
  6
CONTINUOUS
 10
107.4216616658
 20
96.7248750723
 11
107.4227563544
 21
96.9135494798
  0
LINE
  5
2CE
100
AcDbEntity
  8
RACCORDO
100
AcDbLine
 62
253
  6
CONTINUOUS
 10
107.4202673826
 20
96.5512552584
 11
107.4216616658
 21
96.7248750723
  0
LINE
  5
2CF
100
AcDbEntity
  8
RACCORDO
100
AcDbLine
 62
7
  6
CONTINUOUS
 10
107.2067854097
 20
94.5278150888
 11
107.2068055216
 21
94.5300524228
  0
LINE
  5
2D0
100
AcDbEntity
  8
RACCORDO
100
AcDbLine
 62
7
  6
CONTINUOUS
 10
107.2067989977
 20
94.5293133497
 11
107.2067923744
 21
94.5285830301
  0
LINE
  5
2D1
100
AcDbEntity
  8
RACCORDO
100
AcDbLine
 62
7
  6
CONTINUOUS
 10
109.6067718218
 20
141.3474550662
 11
109.6067784451
 21
141.3481853858
  0
LINE
  5
2D2
100
AcDbEntity
  8
RACCORDO
100
AcDbLine
 62
7
  6
CONTINUOUS
 10
109.6067854097
 20
141.3489533271
 11
109.6067652979
 21
141.3467159931
  0
LINE
  5
2D3
100
AcDbEntity
  8
RACCORDO
100
AcDbLine
 62
253
  6
CONTINUOUS
 10
107.4186033282
 20
96.3962455111
 11
107.4202673826
 21
96.5512552584
  0
LINE
  5
2D4
100
AcDbEntity
  8
RACCORDO
100
AcDbLine
 62
253
  6
CONTINUOUS
 10
107.4167070705
 20
96.2627507069
 11
107.4186033282
 21
96.3962455111
  0
LWPOLYLINE
  5
2D5
100
AcDbEntity
  8
RACCORDO
100
AcDbPolyline
 62
253
  6
CONTINUOUS
 90
16
 70
0
 10
109.5949974757
 20
141.7827217752
 10
109.593557778
 20
141.7600763343
 10
109.5893927004
 20
141.7376845864
 10
109.5825498351
 20
141.7157917902
 10
109.5731082033
 20
141.6946415966
 10
109.5611719021
 20
141.6744605549
 10
109.5468640226
 20
141.6554577551
 10
109.5303280026
 20
141.6378323962
 10
109.5117510724
 20
141.6217915763
 10
109.4913614669
 20
141.6075298022
 10
109.4693894403
 20
141.5951996971
 10
109.4460773891
 20
141.5849294785
 10
109.4217067734
 20
141.5768324301
 10
109.3965561989
 20
141.5709861276
 10
109.370894457
 20
141.567438586
 10
109.3450009026
 20
141.5662154243
  0
LWPOLYLINE
  5
2D6
100
AcDbEntity
  8
RACCORDO
100
AcDbPolyline
 62
253
  6
CONTINUOUS
 90
16
 70
0
 10
107.2185733438
 20
94.0940466406
 10
107.2200130415
 20
94.1166920815
 10
107.2241781191
 20
94.1390838294
 10
107.2310209843
 20
94.1609766256
 10
107.2404626161
 20
94.1821268192
 10
107.2523989173
 20
94.2023078609
 10
107.2667067969
 20
94.2213106606
 10
107.2832428168
 20
94.2389360195
 10
107.3018197469
 20
94.2549768394
 10
107.3222093524
 20
94.2692386136
 10
107.344181379
 20
94.2815687187
 10
107.3674934302
 20
94.2918389373
 10
107.3918640459
 20
94.2999359857
 10
107.4170146205
 20
94.3057822882
 10
107.4426763625
 20
94.3093298298
 10
107.4685699168
 20
94.3105529916
  0
LWPOLYLINE
  5
2D7
100
AcDbEntity
  8
RACCORDO
100
AcDbPolyline
 62
7
  6
CONTINUOUS
 90
16
 70
0
 10
109.6002335113
 20
141.205371506
 10
109.5989615669
 20
141.1913276466
 10
109.5953577495
 20
141.1775458361
 10
109.5893826759
 20
141.1640260744
 10
109.5810282841
 20
141.1506279805
 10
109.5703013538
 20
141.1374919355
 10
109.5572081666
 20
141.1250390829
 10
109.5418048835
 20
141.1132609087
 10
109.524174185
 20
141.102165927
 10
109.5043784366
 20
141.0922008226
 10
109.482545607
 20
141.0833662335
 10
109.458863672
 20
141.0756615217
 10
109.4335213374
 20
141.0695314592
 10
109.4067622574
 20
141.0651243032
 10
109.3788897534
 20
141.0622917963
 10
109.3502369383
 20
141.0610339387
  0
LWPOLYLINE
  5
2D8
100
AcDbEntity
  8
RACCORDO
100
AcDbPolyline
 62
7
  6
CONTINUOUS
 90
3
 70
0
 10
109.4214916077
 20
93.4469041128
 10
109.3894193712
 20
93.4405237833
 10
109.3567888367
 20
93.4383842079
  0
LINE
  5
2D9
100
AcDbEntity
  8
RACCORDO
100
AcDbLine
 62
253
  6
CONTINUOUS
 10
107.4240722462
 20
97.4261746144
 11
150.8411840892
 21
97.4263219458
  0
LWPOLYLINE
  5
2DA
100
AcDbEntity
  8
RACCORDO
100
AcDbPolyline
 62
7
  6
CONTINUOUS
 90
3
 70
0
 10
148.7920792118
 20
93.4469041128
 10
148.8241514483
 20
93.4405237833
 10
148.8567819828
 20
93.4383842079
  0
LINE
  5
2DB
100
AcDbEntity
  8
RACCORDO
100
AcDbLine
 62
7
  6
CONTINUOUS
 10
109.6067854097
 20
142.1883876349
 11
109.6046458344
 21
142.2210181694
  0
LWPOLYLINE
  5
2DC
100
AcDbEntity
  8
RACCORDO
100
AcDbPolyline
 62
7
  6
CONTINUOUS
 90
16
 70
0
 10
109.5949974757
 20
142.1765997008
 10
109.5936134356
 20
142.2028625455
 10
109.5894793499
 20
142.2288287661
 10
109.5826428467
 20
142.2542114377
 10
109.5731879826
 20
142.2787156421
 10
109.5612175262
 20
142.3020874314
 10
109.5468365989
 20
142.3241090423
 10
109.5301533315
 20
142.3445733873
 10
109.5113732035
 20
142.3631924174
 10
109.4908020836
 20
142.379672788
 10
109.4687081828
 20
142.3938399407
 10
109.4453305189
 20
142.4055778548
 10
109.4209869465
 20
142.4147664815
 10
109.3959734899
 20
142.4213432357
 10
109.370552898
 20
142.4252863182
 10
109.3450009026
 20
142.4265962739
  0
LINE
  5
2DD
100
AcDbEntity
  8
RACCORDO
100
AcDbLine
 62
253
  6
CONTINUOUS
 10
109.3450009026
 20
141.5662154243
 11
109.3495824338
 21
141.0610339387
  0
LINE
  5
2DE
100
AcDbEntity
  8
RACCORDO
100
AcDbLine
 62
253
  6
CONTINUOUS
 10
109.5949974757
 20
141.7827217752
 11
109.6002335113
 21
141.205371506
  0
LINE
  5
2DF
100
AcDbEntity
  8
RACCORDO
100
AcDbLine
 62
7
  6
CONTINUOUS
 10
109.5949974757
 20
142.1765997008
 11
109.5949974757
 21
141.7827217752
  0
LINE
  5
2E0
100
AcDbEntity
  8
RACCORDO
100
AcDbLine
 62
7
  6
CONTINUOUS
 10
109.5949974757
 20
94.0940466406
 11
109.5949974757
 21
93.700168715
  0
LINE
  5
2E1
100
AcDbEntity
  8
RACCORDO
100
AcDbLine
 62
7
  6
CONTINUOUS
 10
109.5989313563
 20
94.5278150888
 11
109.5989313563
 21
94.8157344771
  0
LINE
  5
2E2
100
AcDbEntity
  8
RACCORDO
100
AcDbLine
 62
7
  6
CONTINUOUS
 10
109.6002335113
 20
141.205371506
 11
109.6002335113
 21
140.2228058825
  0
LINE
  5
2E3
100
AcDbEntity
  8
RACCORDO
100
AcDbLine
 62
7
  6
CONTINUOUS
 10
109.6002335113
 20
95.6539625333
 11
109.6002335113
 21
94.9593162981
  0
LINE
  5
2E4
100
AcDbEntity
  8
RACCORDO
100
AcDbLine
 62
7
  6
CONTINUOUS
 10
109.6067854097
 20
93.688380781
 11
109.6067854097
 21
95.5883842079
  0
LINE
  5
2E5
100
AcDbEntity
  8
RACCORDO
100
AcDbLine
 62
7
  6
CONTINUOUS
 10
109.6067854097
 20
140.2883842079
 11
109.6067854097
 21
142.1883876349
  0
LINE
  5
2E6
100
AcDbEntity
  8
RACCORDO
100
AcDbLine
 62
253
  6
CONTINUOUS
 10
109.3495824338
 20
94.8157344771
 11
109.3450009026
 21
94.3105529916
  0
LINE
  5
2E7
100
AcDbEntity
  8
RACCORDO
100
AcDbLine
 62
7
  6
CONTINUOUS
 10
109.5989313563
 20
94.8157344771
 11
109.6002335113
 21
94.9593162981
  0
LINE
  5
2E8
100
AcDbEntity
  8
RACCORDO
100
AcDbLine
 62
253
  6
CONTINUOUS
 10
109.5989313563
 20
94.5278150888
 11
109.5949974757
 21
94.0940466406
  0
LWPOLYLINE
  5
2E9
100
AcDbEntity
  8
RACCORDO
100
AcDbPolyline
 62
7
  6
CONTINUOUS
 90
16
 70
0
 10
109.5949974757
 20
93.700168715
 10
109.5936134357
 20
93.6739058715
 10
109.5894793502
 20
93.6479396513
 10
109.5826428471
 20
93.6225569796
 10
109.5731879826
 20
93.5980527739
 10
109.5612175254
 20
93.574680983
 10
109.5468365972
 20
93.5526593713
 10
109.5301533296
 20
93.5321950264
 10
109.5113732018
 20
93.5135759969
 10
109.4908020825
 20
93.4970956271
 10
109.4687081831
 20
93.4829284753
 10
109.445330521
 20
93.471190562
 10
109.4209869497
 20
93.4620019354
 10
109.3959734929
 20
93.4554251808
 10
109.3705529
 20
93.4514820979
 10
109.3450009026
 20
93.450172142
  0
LINE
  5
2EA
100
AcDbEntity
  8
RACCORDO
100
AcDbLine
 62
7
  6
CONTINUOUS
 10
109.6067854097
 20
93.688380781
 11
109.6046458344
 21
93.6557502465
  0
LWPOLYLINE
  5
2EB
100
AcDbEntity
  8
RACCORDO
100
AcDbPolyline
 62
253
  6
CONTINUOUS
 90
8
 70
0
 10
107.4075454034
 20
95.9897669411
 10
107.4087785318
 20
95.9989935632
 10
107.4099891475
 20
96.0155872623
 10
107.4111772505
 20
96.0394644256
 10
107.4123483972
 20
96.0705037241
 10
107.4134970311
 20
96.1085511613
 10
107.4146064828
 20
96.1534242758
 10
107.4167070705
 20
96.2627507069
  0
LWPOLYLINE
  5
2EC
100
AcDbEntity
  8
RACCORDO
100
AcDbPolyline
 62
253
  6
CONTINUOUS
 90
10
 70
0
 10
106.9076215558
 20
96.4890817085
 10
106.9088488796
 20
96.4952871553
 10
106.9100554941
 20
96.5062683631
 10
106.9112413993
 20
96.5220253319
 10
106.9124127582
 20
96.5426829096
 10
106.9135634079
 20
96.5681162483
 10
106.9146748595
 20
96.5979508045
 10
106.9157461207
 20
96.6322547299
 10
106.9167781839
 20
96.6709598728
 10
106.9186771921
 20
96.7598849424
  0
LINE
  5
2ED
100
AcDbEntity
  8
RACCORDO
100
AcDbLine
 62
253
  6
CONTINUOUS
 10
128.2567888367
 20
142.4383842079
 11
128.2450009026
 21
142.4265962739
  0
LINE
  5
2EE
100
AcDbEntity
  8
RACCORDO
100
AcDbLine
 62
253
  6
CONTINUOUS
 10
128.5067854097
 20
142.1883876349
 11
128.4949974757
 21
142.1765997008
  0
LINE
  5
2EF
100
AcDbEntity
  8
RACCORDO
100
AcDbLine
 62
253
  6
CONTINUOUS
 10
128.2450009026
 20
93.450172142
 11
128.2567888367
 21
93.4383842079
  0
LINE
  5
2F0
100
AcDbEntity
  8
RACCORDO
100
AcDbLine
 62
253
  6
CONTINUOUS
 10
128.4949974757
 20
93.700168715
 11
128.5067854097
 21
93.688380781
  0
LINE
  5
2F1
100
AcDbEntity
  8
RACCORDO
100
AcDbLine
 62
7
  6
CONTINUOUS
 10
113.4597112479
 20
141.7354583697
 11
113.4597112479
 21
140.2620278711
  0
LINE
  5
2F2
100
AcDbEntity
  8
RACCORDO
100
AcDbLine
 62
7
  6
CONTINUOUS
 10
113.4597112479
 20
95.6147405448
 11
113.4597112479
 21
94.1413100461
  0
LINE
  5
2F3
100
AcDbEntity
  8
RACCORDO
100
AcDbLine
 62
253
  6
CONTINUOUS
 10
131.8567888367
 20
142.4383842079
 11
131.8450009026
 21
142.4265962739
  0
LINE
  5
2F4
100
AcDbEntity
  8
RACCORDO
100
AcDbLine
 62
253
  6
CONTINUOUS
 10
131.8450009026
 20
93.450172142
 11
131.8567888367
 21
93.4383842079
  0
LINE
  5
2F5
100
AcDbEntity
  8
RACCORDO
100
AcDbLine
 62
253
  6
CONTINUOUS
 10
113.9597027864
 20
141.5337265594
 11
113.9597027864
 21
140.2359764286
  0
LINE
  5
2F6
100
AcDbEntity
  8
RACCORDO
100
AcDbLine
 62
253
  6
CONTINUOUS
 10
113.9597027864
 20
95.6407919872
 11
113.9597027864
 21
94.3430418565
  0
LINE
  5
2F7
100
AcDbEntity
  8
RACCORDO
100
AcDbLine
 62
7
  6
CONTINUOUS
 10
109.6046458344
 20
93.6557502465
 11
109.5982655049
 21
93.62367801
  0
LINE
  5
2F8
100
AcDbEntity
  8
RACCORDO
100
AcDbLine
 62
253
  6
CONTINUOUS
 10
106.7742023122
 20
96.0884984793
 11
106.9076215558
 21
96.4890817085
  0
LINE
  5
2F9
100
AcDbEntity
  8
RACCORDO
100
AcDbLine
 62
253
  6
CONTINUOUS
 10
107.2989667251
 20
95.6637660106
 11
107.4075454034
 21
95.9897669411
  0
LINE
  5
2FA
100
AcDbEntity
  8
RACCORDO
100
AcDbLine
 62
253
  6
CONTINUOUS
 10
132.1067854097
 20
142.1883876349
 11
132.0949974757
 21
142.1765997008
  0
LINE
  5
2FB
100
AcDbEntity
  8
RACCORDO
100
AcDbLine
 62
253
  6
CONTINUOUS
 10
132.0949974757
 20
93.700168715
 11
132.1067854097
 21
93.688380781
  0
LINE
  5
2FC
100
AcDbEntity
  8
RACCORDO
100
AcDbLine
 62
253
  6
CONTINUOUS
 10
106.9076215558
 20
139.3876867074
 11
106.7742023122
 21
139.7882699365
  0
LINE
  5
2FD
100
AcDbEntity
  8
RACCORDO
100
AcDbLine
 62
253
  6
CONTINUOUS
 10
107.2989667251
 20
140.2130024053
 11
107.4075454034
 21
139.8870014748
  0
LINE
  5
2FE
100
AcDbEntity
  8
RACCORDO
100
AcDbLine
 62
7
  6
CONTINUOUS
 10
109.6046458344
 20
142.2210181694
 11
109.5982655049
 21
142.2530904058
  0
LWPOLYLINE
  5
2FF
100
AcDbEntity
  8
RACCORDO
100
AcDbPolyline
 62
7
  6
CONTINUOUS
 90
14
 70
0
 10
144.2538680331
 20
141.5337265594
 10
144.3567864022
 20
141.5982873416
 10
144.3889876245
 20
141.6180069951
 10
144.420092349
 20
141.6365113381
 10
144.4498362909
 20
141.6537317159
 10
144.4781510028
 20
141.6694985674
 10
144.505104932
 20
141.6837055763
 10
144.530639136
 20
141.6963567562
 10
144.5547680237
 20
141.7073370001
 10
144.5774771863
 20
141.7165181838
 10
144.5986644545
 20
141.7238416783
 10
144.6182957719
 20
141.7292111099
 10
144.6364051948
 20
141.7325265523
 10
144.6529927234
 20
141.7337231748
  0
LINE
  5
300
100
AcDbEntity
  8
RACCORDO
100
AcDbLine
 62
7
  6
CONTINUOUS
 10
144.3567616689
 20
94.278496328
 11
144.2538680331
 21
94.3430418565
  0
LINE
  5
301
100
AcDbEntity
  8
RACCORDO
100
AcDbLine
 62
7
  6
CONTINUOUS
 10
120.1067854097
 20
115.591395534
 11
120.1067854097
 21
110.2853728819
  0
LWPOLYLINE
  5
302
100
AcDbEntity
  8
0
100
AcDbPolyline
 62
7
  6
CONTINUOUS
 90
3
 70
0
 43
0.3500000006
 10
130.1425032349
 20
151.4741010132
 10
130.071072052
 20
151.2598165283
 10
129.9282096863
 20
150.9740917969
  0
LWPOLYLINE
  5
303
100
AcDbEntity
  8
RACCORDO
100
AcDbPolyline
 62
7
  6
CONTINUOUS
 90
9
 70
0
 10
109.5982655049
 20
93.62367801
 10
109.5877535867
 20
93.5927128173
 10
109.5732899353
 20
93.5633844729
 10
109.5551220192
 20
93.5361947755
 10
109.5335606857
 20
93.511608932
 10
109.5089748422
 20
93.4900475985
 10
109.4817851448
 20
93.4718796824
 10
109.4524568004
 20
93.457416031
 10
109.4214916077
 20
93.4469041128
  0
LWPOLYLINE
  5
304
100
AcDbEntity
  8
RACCORDO
100
AcDbPolyline
 62
7
  6
CONTINUOUS
 90
9
 70
0
 10
126.1153053146
 20
142.2530904058
 10
126.1258172328
 20
142.2840555986
 10
126.1402808842
 20
142.3133839429
 10
126.1584488003
 20
142.3405736404
 10
126.1800101338
 20
142.3651594838
 10
126.2045959773
 20
142.3867208174
 10
126.2317856747
 20
142.4048887335
 10
126.2611140191
 20
142.4193523848
 10
126.2920792118
 20
142.4298643031
  0
LINE
  5
305
100
AcDbEntity
  8
0
100
AcDbLine
 62
253
  6
CONTINUOUS
 10
136.8212555717
 20
108.2940918999
 11
134.0923152478
 21
108.2940918999
  0
LINE
  5
306
100
AcDbEntity
  8
0
100
AcDbLine
 62
7
  6
CONTINUOUS
 10
136.5712650909
 20
108.5489045268
 11
134.3423057286
 21
108.5489045268
  0
LINE
  5
307
100
AcDbEntity
  8
0
100
AcDbLine
 62
7
  6
CONTINUOUS
 10
134.3567854097
 20
108.5633842079
 11
136.5567854097
 21
108.5633842079
  0
LINE
  5
308
100
AcDbEntity
  8
0
100
AcDbLine
 62
253
  6
CONTINUOUS
 10
124.1213885026
 20
109.1193716088
 11
121.3921823169
 21
109.1193716088
  0
LINE
  5
309
100
AcDbEntity
  8
0
100
AcDbLine
 62
7
  6
CONTINUOUS
 10
123.8713980218
 20
109.3737715959
 11
121.6421727977
 21
109.3737715959
  0
LINE
  5
30A
100
AcDbEntity
  8
0
100
AcDbLine
 62
7
  6
CONTINUOUS
 10
121.6567854097
 20
109.3883842079
 11
123.8567854097
 21
109.3883842079
  0
LWPOLYLINE
  5
30B
100
AcDbEntity
  8
0
100
AcDbPolyline
 62
7
  6
CONTINUOUS
 90
6
 70
0
 10
123.8713980218
 20
109.3737715959
 10
123.8737232857
 20
109.3717828509
 10
123.878181833
 20
109.3666847259
 10
123.8847736638
 20
109.3589935029
 10
123.8937846789
 20
109.349304515
 10
123.9049289775
 20
109.338047234
  0
LINE
  5
30C
100
AcDbEntity
  8
0
100
AcDbLine
 62
7
  6
CONTINUOUS
 10
124.1031418777
 20
109.1374439197
 11
124.1213885026
 21
109.1193716088
  0
LINE
  5
30D
100
AcDbEntity
  8
0
100
AcDbLine
 62
7
  6
CONTINUOUS
 10
123.8714359559
 20
109.3737336618
 11
123.8567854097
 21
109.3883842079
  0
LINE
  5
30E
100
AcDbEntity
  8
0
100
AcDbLine
 62
7
  6
CONTINUOUS
 10
123.9777331398
 20
109.2637710197
 11
124.0301748554
 21
109.2108514099
  0
LINE
  5
30F
100
AcDbEntity
  8
0
100
AcDbLine
 62
7
  6
CONTINUOUS
 10
124.0301748554
 20
109.2108514099
 11
124.1031418777
 21
109.1374439197
  0
LINE
  5
310
100
AcDbEntity
  8
0
100
AcDbLine
 62
7
  6
CONTINUOUS
 10
123.9457870107
 20
109.2962977098
 11
123.9777331398
 21
109.2637710197
  0
LWPOLYLINE
  5
311
100
AcDbEntity
  8
0
100
AcDbPolyline
 62
7
  6
CONTINUOUS
 90
3
 70
0
 10
123.9049289775
 20
109.338047234
 10
123.9309301434
 20
109.3112769201
 10
123.9457870107
 20
109.2962977098
  0
LWPOLYLINE
  5
312
100
AcDbEntity
  8
RACCORDO
100
AcDbPolyline
 62
7
  6
CONTINUOUS
 90
9
 70
0
 10
109.5982655049
 20
142.2530904058
 10
109.5877535867
 20
142.2840555986
 10
109.5732899353
 20
142.3133839429
 10
109.5551220192
 20
142.3405736404
 10
109.5335606857
 20
142.3651594838
 10
109.5089748422
 20
142.3867208174
 10
109.4817851448
 20
142.4048887335
 10
109.4524568004
 20
142.4193523848
 10
109.4214916077
 20
142.4298643031
  0
LWPOLYLINE
  5
313
100
AcDbEntity
  8
RACCORDO
100
AcDbPolyline
 62
7
  6
CONTINUOUS
 90
9
 70
0
 10
126.1153053146
 20
93.62367801
 10
126.1258172328
 20
93.5927128173
 10
126.1402808842
 20
93.5633844729
 10
126.1584488003
 20
93.5361947755
 10
126.1800101338
 20
93.511608932
 10
126.2045959773
 20
93.4900475985
 10
126.2317856747
 20
93.4718796824
 10
126.2611140191
 20
93.457416031
 10
126.2920792118
 20
93.4469041128
  0
LWPOLYLINE
  5
314
100
AcDbEntity
  8
0
100
AcDbPolyline
 62
253
  6
CONTINUOUS
 90
19
 70
0
 10
121.6419682587
 20
110.5712820761
 10
121.6400701107
 20
110.6019885786
 10
121.6344138051
 20
110.6322299322
 10
121.6250850247
 20
110.6615480342
 10
121.612225084
 20
110.6894987673
 10
121.5960287882
 20
110.7156587278
 10
121.5767414824
 20
110.7396316387
 10
121.5546553351
 20
110.7610543531
 10
121.530104912
 20
110.7796023549
 10
121.5034621084
 20
110.7949946749
 10
121.4751305154
 20
110.8069981468
 10
121.4455393063
 20
110.8154309393
 10
121.4151367352
 20
110.8201653107
 10
121.3843833473
 20
110.8211295436
 10
121.3537450015
 20
110.8183090316
 10
121.3236858139
 20
110.8117465004
 10
121.2946611276
 20
110.8015413604
 10
121.2671106153
 20
110.7878482014
 10
121.2414516184
 20
110.7708744501
  0
LINE
  5
315
100
AcDbEntity
  8
0
100
AcDbLine
 62
253
  6
CONTINUOUS
 10
121.3921823169
 20
109.1193716088
 11
121.391977776
 21
110.5677743173
  0
LINE
  5
316
100
AcDbEntity
  8
0
100
AcDbLine
 62
253
  6
CONTINUOUS
 10
121.6421348636
 20
109.3737336618
 11
121.6419682322
 21
110.5712816822
  0
LINE
  5
317
100
AcDbEntity
  8
0
100
AcDbLine
 62
253
  6
CONTINUOUS
 10
121.3915644041
 20
115.3041477479
 11
121.3915161266
 21
116.7530608294
  0
LINE
  5
318
100
AcDbEntity
  8
0
100
AcDbLine
 62
253
  6
CONTINUOUS
 10
121.6415548344
 20
115.3063155852
 11
121.6415123251
 21
116.5036572926
  0
LINE
  5
319
100
AcDbEntity
  8
0
100
AcDbLine
 62
7
  6
CONTINUOUS
 10
121.6567854097
 20
116.4883842079
 11
121.6567854097
 21
115.27556404
  0
LINE
  5
31A
100
AcDbEntity
  8
0
100
AcDbLine
 62
7
  6
CONTINUOUS
 10
121.6567854097
 20
110.6012043759
 11
121.6567854097
 21
109.3883842079
  0
LINE
  5
31B
100
AcDbEntity
  8
RACCORDO
100
AcDbLine
 62
253
  6
CONTINUOUS
 10
121.7538680331
 20
94.3430418565
 11
121.7538680331
 21
95.6407919872
  0
LINE
  5
31C
100
AcDbEntity
  8
RACCORDO
100
AcDbLine
 62
253
  6
CONTINUOUS
 10
121.7538680331
 20
140.2359764286
 11
121.7538680331
 21
141.5337265594
  0
LINE
  5
31D
100
AcDbEntity
  8
RACCORDO
100
AcDbLine
 62
7
  6
CONTINUOUS
 10
122.2538595716
 20
94.1413100461
 11
122.2538595716
 21
95.6147405448
  0
LINE
  5
31E
100
AcDbEntity
  8
RACCORDO
100
AcDbLine
 62
7
  6
CONTINUOUS
 10
122.2538595716
 20
140.2620278711
 11
122.2538595716
 21
141.7354583697
  0
LWPOLYLINE
  5
31F
100
AcDbEntity
  8
0
100
AcDbPolyline
 62
7
  6
CONTINUOUS
 90
22
 70
0
 10
121.6567854097
 20
115.27556404
 10
121.6551999452
 20
115.2483826106
 10
121.65095748
 20
115.2221293111
 10
121.6440580142
 20
115.1968041415
 10
121.6343396828
 20
115.1721418396
 10
121.6219643508
 20
115.1484076675
 10
121.6074176125
 20
115.1263974119
 10
121.5906678027
 20
115.1062054739
 10
121.5717465865
 20
115.0877374522
 10
121.5512345536
 20
115.0715059299
 10
121.529082978
 20
115.0575523995
 10
121.5053405856
 20
115.0458353683
 10
121.4807341441
 20
115.0367429416
 10
121.4552087954
 20
115.0303508469
 10
121.4288193975
 20
115.0265833566
 10
121.4024572922
 20
115.0256013929
 10
121.3761374976
 20
115.0274964726
 10
121.3498449956
 20
115.0321770788
 10
121.3244260727
 20
115.039529583
 10
121.3001628245
 20
115.049516109
 10
121.2767731555
 20
115.0621745331
 10
121.2542570656
 20
115.0775048551
  0
LINE
  5
320
100
AcDbEntity
  8
RACCORDO
100
AcDbLine
 62
7
  6
CONTINUOUS
 10
126.1089249851
 20
142.2210181694
 11
126.1153053146
 21
142.2530904058
  0
LWPOLYLINE
  5
321
100
AcDbEntity
  8
RACCORDO
100
AcDbPolyline
 62
7
  6
CONTINUOUS
 90
9
 70
0
 10
129.7153053146
 20
142.2530904058
 10
129.7258172328
 20
142.2840555986
 10
129.7402808842
 20
142.3133839429
 10
129.7584488003
 20
142.3405736404
 10
129.7800101338
 20
142.3651594838
 10
129.8045959773
 20
142.3867208174
 10
129.8317856747
 20
142.4048887335
 10
129.8611140191
 20
142.4193523848
 10
129.8920792118
 20
142.4298643031
  0
LWPOLYLINE
  5
322
100
AcDbEntity
  8
0
100
AcDbPolyline
 62
253
  6
CONTINUOUS
 90
13
 70
0
 10
121.3919777822
 20
110.5675966825
 10
121.4242315289
 20
110.5666918563
 10
121.4561694519
 20
110.5669538939
 10
121.4871445647
 20
110.5678858713
 10
121.5163476772
 20
110.5679601959
 10
121.5433394168
 20
110.5676066083
 10
121.5679815418
 20
110.5686867046
 10
121.5897981193
 20
110.5692015488
 10
121.6079981067
 20
110.5686599687
 10
121.6223166215
 20
110.5698785962
 10
121.632819469
 20
110.5724180111
 10
121.6394460141
 20
110.5733974318
 10
121.6419682587
 20
110.5712820761
  0
LWPOLYLINE
  5
323
100
AcDbEntity
  8
0
100
AcDbPolyline
 62
253
  6
CONTINUOUS
 90
13
 70
0
 10
121.2414516184
 20
110.7708744501
 10
121.2448197214
 20
110.7702164564
 10
121.2481735079
 20
110.7643266407
 10
121.2526213038
 20
110.7543252228
 10
121.2604746407
 20
110.7420469003
 10
121.2721417811
 20
110.7277322172
 10
121.2851656013
 20
110.7098612342
 10
121.2994369651
 20
110.6893544813
 10
121.3162814754
 20
110.6678315118
 10
121.3341111056
 20
110.6442774646
 10
121.3523067581
 20
110.6187905255
 10
121.371596197
 20
110.5929545049
 10
121.3919777822
 20
110.5675966825
  0
LWPOLYLINE
  5
324
100
AcDbEntity
  8
0
100
AcDbPolyline
 62
253
  6
CONTINUOUS
 90
19
 70
0
 10
121.2410940395
 20
115.1066813151
 10
121.2667544204
 20
115.0897166772
 10
121.2943049733
 20
115.0760323047
 10
121.3233284611
 20
115.065835439
 10
121.3533853403
 20
115.0592805054
 10
121.3840204174
 20
115.0564667743
 10
121.414769743
 20
115.0574368576
 10
121.4451676371
 20
115.0621760641
 10
121.4747537415
 20
115.0706126214
 10
121.5030799922
 20
115.0826187628
 10
121.5297174051
 20
115.0980126625
 10
121.5542625724
 20
115.1165611889
 10
121.5763437722
 20
115.1379834358
 10
121.5956265977
 20
115.1619549759
 10
121.6118190223
 20
115.1881127746
 10
121.6246758211
 20
115.2160606875
 10
121.6340022856
 20
115.2453754602
 10
121.6396571722
 20
115.2756131379
 10
121.6415548408
 20
115.3063157889
  0
LINE
  5
325
100
AcDbEntity
  8
0
100
AcDbLine
 62
253
  6
CONTINUOUS
 10
121.6567854097
 20
115.27556404
 11
121.6415548344
 21
115.3063155852
  0
LINE
  5
326
100
AcDbEntity
  8
0
100
AcDbLine
 62
253
  6
CONTINUOUS
 10
121.2542570655
 20
115.0775048551
 11
121.2410942806
 21
115.106681112
  0
LWPOLYLINE
  5
327
100
AcDbEntity
  8
RACCORDO
100
AcDbPolyline
 62
7
  6
CONTINUOUS
 90
9
 70
0
 10
129.7153053146
 20
93.62367801
 10
129.7258172328
 20
93.5927128173
 10
129.7402808842
 20
93.5633844729
 10
129.7584488003
 20
93.5361947755
 10
129.7800101338
 20
93.511608932
 10
129.8045959773
 20
93.4900475985
 10
129.8317856747
 20
93.4718796824
 10
129.8611140191
 20
93.457416031
 10
129.8920792118
 20
93.4469041128
  0
LINE
  5
328
100
AcDbEntity
  8
RACCORDO
100
AcDbLine
 62
7
  6
CONTINUOUS
 10
126.1089249851
 20
93.6557502465
 11
126.1153053146
 21
93.62367801
  0
LINE
  5
329
100
AcDbEntity
  8
RACCORDO
100
AcDbLine
 62
7
  6
CONTINUOUS
 10
126.1067854097
 20
93.688380781
 11
126.1089249851
 21
93.6557502465
  0
LWPOLYLINE
  5
32A
100
AcDbEntity
  8
RACCORDO
100
AcDbPolyline
 62
7
  6
CONTINUOUS
 90
16
 70
0
 10
126.1185733438
 20
93.700168715
 10
126.1199573841
 20
93.6739058691
 10
126.12409147
 20
93.6479396479
 10
126.1309279734
 20
93.6225569765
 10
126.140382837
 20
93.5980527735
 10
126.1523532923
 20
93.5746809862
 10
126.1667342186
 20
93.5526593764
 10
126.1834174856
 20
93.5321950311
 10
126.2021976139
 20
93.5135760002
 10
126.2227687346
 20
93.4970956288
 10
126.244862637
 20
93.4829284749
 10
126.2682403031
 20
93.4711905599
 10
126.2925838769
 20
93.4620019332
 10
126.3175973333
 20
93.4554251794
 10
126.3430179239
 20
93.4514820974
 10
126.3685699168
 20
93.450172142
  0
LINE
  5
32B
100
AcDbEntity
  8
0
100
AcDbLine
 62
7
  6
CONTINUOUS
 10
123.8567854097
 20
109.3883842079
 11
123.8567854097
 21
116.4883842079
  0
LINE
  5
32C
100
AcDbEntity
  8
0
100
AcDbLine
 62
253
  6
CONTINUOUS
 10
123.8720584944
 20
116.5036572926
 11
123.8717611397
 21
111.9289268912
  0
LINE
  5
32D
100
AcDbEntity
  8
0
100
AcDbLine
 62
253
  6
CONTINUOUS
 10
123.8717611397
 20
111.9289268912
 11
123.8714359559
 21
109.3737336618
  0
LINE
  5
32E
100
AcDbEntity
  8
0
100
AcDbLine
 62
253
  6
CONTINUOUS
 10
124.1220546929
 20
116.7530608294
 11
124.1217452198
 21
111.862966458
  0
LINE
  5
32F
100
AcDbEntity
  8
0
100
AcDbLine
 62
253
  6
CONTINUOUS
 10
124.1217452198
 20
111.862966458
 11
124.1213885026
 21
109.1193716088
  0
LWPOLYLINE
  5
330
100
AcDbEntity
  8
RACCORDO
100
AcDbPolyline
 62
7
  6
CONTINUOUS
 90
16
 70
0
 10
126.1185733438
 20
142.1765997008
 10
126.1199573838
 20
142.2028625443
 10
126.1240914693
 20
142.2288287645
 10
126.1309279724
 20
142.2542114363
 10
126.1403828368
 20
142.2787156419
 10
126.1523532941
 20
142.3020874329
 10
126.1667342223
 20
142.3241090446
 10
126.1834174899
 20
142.3445733895
 10
126.2021976177
 20
142.3631924189
 10
126.222768737
 20
142.3796727888
 10
126.2448626364
 20
142.3938399406
 10
126.2682402985
 20
142.4055778539
 10
126.2925838698
 20
142.4147664804
 10
126.3175973266
 20
142.4213432351
 10
126.3430179195
 20
142.425286318
 10
126.3685699168
 20
142.4265962739
  0
LINE
  5
331
100
AcDbEntity
  8
RACCORDO
100
AcDbLine
 62
7
  6
CONTINUOUS
 10
126.1067854097
 20
142.1883876349
 11
126.1089249851
 21
142.2210181694
  0
LINE
  5
332
100
AcDbEntity
  8
RACCORDO
100
AcDbLine
 62
7
  6
CONTINUOUS
 10
129.7089249851
 20
142.2210181694
 11
129.7153053146
 21
142.2530904058
  0
LINE
  5
333
100
AcDbEntity
  8
0
100
AcDbLine
 62
253
  6
CONTINUOUS
 10
121.2414512231
 20
110.7708740795
 11
121.2542570655
 21
110.7992635607
  0
LWPOLYLINE
  5
334
100
AcDbEntity
  8
0
100
AcDbPolyline
 62
253
  6
CONTINUOUS
 90
13
 70
0
 10
121.3915643671
 20
115.3049990962
 10
121.3714014602
 20
115.2799237251
 10
121.352305025
 20
115.2544600896
 10
121.3342727927
 20
115.2294131717
 10
121.316592818
 20
115.2063218076
 10
121.2998663463
 20
115.1852772447
 10
121.2856391589
 20
115.1652879038
 10
121.272623223
 20
115.1479285
 10
121.260927184
 20
115.1340741951
 10
121.2529475178
 20
115.1222275948
 10
121.2482876265
 20
115.1126345627
 10
121.2446951771
 20
115.1070934273
 10
121.2410940395
 20
115.1066813151
  0
LWPOLYLINE
  5
335
100
AcDbEntity
  8
0
100
AcDbPolyline
 62
7
  6
CONTINUOUS
 90
3
 70
0
 10
131.9125914551
 20
127.6485897371
 10
131.9305636499
 20
127.6667814994
 10
131.9488888661
 20
127.6851429834
  0
LWPOLYLINE
  5
336
100
AcDbEntity
  8
0
100
AcDbPolyline
 62
7
  6
CONTINUOUS
 90
3
 70
0
 10
131.83044557
 20
127.5653192513
 10
131.8454363933
 20
127.5804676976
 10
131.8776976222
 20
127.6133764071
  0
LINE
  5
337
100
AcDbEntity
  8
0
100
AcDbLine
 62
7
  6
CONTINUOUS
 10
131.8776976222
 20
127.6133764071
 11
131.9125914551
 21
127.6485897371
  0
LWPOLYLINE
  5
338
100
AcDbEntity
  8
0
100
AcDbPolyline
 62
7
  6
CONTINUOUS
 90
3
 70
0
 10
131.9488888661
 20
127.6851429834
 10
132.0032589469
 20
127.7399430629
 10
132.0212258462
 20
127.7577343194
  0
LINE
  5
339
100
AcDbEntity
  8
0
100
AcDbLine
 62
7
  6
CONTINUOUS
 10
131.7712353654
 20
127.5028341636
 11
131.7567854097
 21
127.4883842079
  0
LWPOLYLINE
  5
33A
100
AcDbEntity
  8
0
100
AcDbPolyline
 62
7
  6
CONTINUOUS
 90
7
 70
0
 10
131.7712353654
 20
127.5028341636
 10
131.7734291704
 20
127.5047906295
 10
131.7777818081
 20
127.5098208593
 10
131.7842932786
 20
127.5174418866
 10
131.7932412129
 20
127.5270951657
 10
131.8043479798
 20
127.5383712206
 10
131.83044557
 20
127.5653192513
  0
LWPOLYLINE
  5
33B
100
AcDbEntity
  8
0
100
AcDbPolyline
 62
253
  6
CONTINUOUS
 90
21
 70
0
 10
117.8351895426
 20
115.3147895064
 10
117.9918557871
 20
115.4239157087
 10
118.154490674
 20
115.5224085553
 10
118.3231685272
 20
115.610137683
 10
118.4978150228
 20
115.6872333904
 10
118.6762841536
 20
115.7527498744
 10
118.858622956
 20
115.8065441618
 10
119.0447843935
 20
115.8487591875
 10
119.2324813486
 20
115.8788780148
 10
119.4217217928
 20
115.8967542205
 10
119.6124977547
 20
115.9025342132
 10
119.8024982025
 20
115.8961403087
 10
119.991703108
 20
115.877436637
 10
120.1801324994
 20
115.8465590758
 10
120.3655354303
 20
115.8038375678
 10
120.5478405128
 20
115.7492079856
 10
120.7271191348
 20
115.6827344875
 10
120.9013345132
 20
115.6049394503
 10
121.0698077204
 20
115.5159970184
 10
121.2332176841
 20
115.415733105
 10
121.3915644041
 20
115.3041477479
  0
LWPOLYLINE
  5
33C
100
AcDbEntity
  8
0
100
AcDbPolyline
 62
7
  6
CONTINUOUS
 90
6
 70
0
 10
121.6415066073
 20
116.5036630103
 10
121.6390072869
 20
116.5054624266
 10
121.6344058295
 20
116.5101200871
 10
121.6277022351
 20
116.5172598741
 10
121.6186203986
 20
116.526461498
 10
121.6074364251
 20
116.5373770889
  0
LINE
  5
33D
100
AcDbEntity
  8
0
100
AcDbLine
 62
7
  6
CONTINUOUS
 10
121.4095321168
 20
116.7352303285
 11
121.3915161266
 21
116.7530608294
  0
LINE
  5
33E
100
AcDbEntity
  8
0
100
AcDbLine
 62
7
  6
CONTINUOUS
 10
121.6415123251
 20
116.5036572926
 11
121.6567854097
 21
116.4883842079
  0
LINE
  5
33F
100
AcDbEntity
  8
0
100
AcDbLine
 62
7
  6
CONTINUOUS
 10
121.5664456965
 20
116.5782483474
 11
121.4998375054
 21
116.6447762296
  0
LWPOLYLINE
  5
340
100
AcDbEntity
  8
0
100
AcDbPolyline
 62
7
  6
CONTINUOUS
 90
3
 70
0
 10
121.6074364251
 20
116.5373770889
 10
121.581349074
 20
116.5635363366
 10
121.5664456965
 20
116.5782483474
  0
LINE
  5
341
100
AcDbEntity
  8
0
100
AcDbLine
 62
7
  6
CONTINUOUS
 10
121.4998375054
 20
116.6447762296
 11
121.4095321168
 21
116.7352303285
  0
LINE
  5
342
100
AcDbEntity
  8
RACCORDO
100
AcDbLine
 62
7
  6
CONTINUOUS
 10
129.7089249851
 20
93.6557502465
 11
129.7153053146
 21
93.62367801
  0
LWPOLYLINE
  5
343
100
AcDbEntity
  8
RACCORDO
100
AcDbPolyline
 62
253
  6
CONTINUOUS
 90
16
 70
0
 10
128.4949974757
 20
94.0940466406
 10
128.4935577773
 20
94.1166920871
 10
128.4893926978
 20
94.1390838397
 10
128.4825498299
 20
94.1609766395
 10
128.4731081952
 20
94.182126835
 10
128.461171891
 20
94.2023078775
 10
128.4468640075
 20
94.2213106787
 10
128.4303279805
 20
94.2389360408
 10
128.4117510415
 20
94.2549768636
 10
128.3913614297
 20
94.2692386371
 10
128.3693894027
 20
94.2815687376
 10
128.3460773556
 20
94.2918389504
 10
128.3217067461
 20
94.2999359934
 10
128.2965561789
 20
94.3057822914
 10
128.2708944462
 20
94.3093298295
 10
128.2450009026
 20
94.3105529892
  0
LINE
  5
344
100
AcDbEntity
  8
RACCORDO
100
AcDbLine
 62
253
  6
CONTINUOUS
 10
126.1185733438
 20
94.0940466406
 11
126.1146394632
 21
94.5278150888
  0
LINE
  5
345
100
AcDbEntity
  8
RACCORDO
100
AcDbLine
 62
7
  6
CONTINUOUS
 10
126.1146394632
 20
94.8157344771
 11
126.1133373082
 21
94.9593162981
  0
LINE
  5
346
100
AcDbEntity
  8
RACCORDO
100
AcDbLine
 62
253
  6
CONTINUOUS
 10
126.3685699168
 20
94.3105529916
 11
126.3639883857
 21
94.8157344771
  0
LINE
  5
347
100
AcDbEntity
  8
RACCORDO
100
AcDbLine
 62
7
  6
CONTINUOUS
 10
126.1067922632
 20
141.3481976423
 11
126.1067989977
 21
141.3474550662
  0
LWPOLYLINE
  5
348
100
AcDbEntity
  8
0
100
AcDbPolyline
 62
7
  6
CONTINUOUS
 90
2
 70
0
 43
0.3500000006
 10
125.7139239807
 20
151.1883762817
 10
125.7139239807
 20
152.6883858032
  0
LINE
  5
349
100
AcDbEntity
  8
RACCORDO
100
AcDbLine
 62
7
  6
CONTINUOUS
 10
126.1067854097
 20
142.1883876349
 11
126.1067854097
 21
140.2883842079
  0
LINE
  5
34A
100
AcDbEntity
  8
RACCORDO
100
AcDbLine
 62
7
  6
CONTINUOUS
 10
126.1067854097
 20
95.5883842079
 11
126.1067854097
 21
93.688380781
  0
LINE
  5
34B
100
AcDbEntity
  8
RACCORDO
100
AcDbLine
 62
7
  6
CONTINUOUS
 10
126.1133373082
 20
94.9593162981
 11
126.1133373082
 21
95.6539625333
  0
LINE
  5
34C
100
AcDbEntity
  8
RACCORDO
100
AcDbLine
 62
7
  6
CONTINUOUS
 10
126.1133373082
 20
140.2228058825
 11
126.1133373082
 21
141.205371506
  0
LINE
  5
34D
100
AcDbEntity
  8
RACCORDO
100
AcDbLine
 62
7
  6
CONTINUOUS
 10
126.1146394632
 20
94.5278150888
 11
126.1146394632
 21
94.8157344771
  0
LINE
  5
34E
100
AcDbEntity
  8
RACCORDO
100
AcDbLine
 62
7
  6
CONTINUOUS
 10
126.1185733438
 20
93.700168715
 11
126.1185733438
 21
94.0940466406
  0
LINE
  5
34F
100
AcDbEntity
  8
RACCORDO
100
AcDbLine
 62
7
  6
CONTINUOUS
 10
126.1185733438
 20
141.7827217752
 11
126.1185733438
 21
142.1765997008
  0
LINE
  5
350
100
AcDbEntity
  8
RACCORDO
100
AcDbLine
 62
253
  6
CONTINUOUS
 10
126.3633338812
 20
94.8157344771
 11
126.3633338812
 21
95.6669958769
  0
LINE
  5
351
100
AcDbEntity
  8
RACCORDO
100
AcDbLine
 62
253
  6
CONTINUOUS
 10
126.3633338812
 20
140.209772539
 11
126.3633338812
 21
141.0610339387
  0
LINE
  5
352
100
AcDbEntity
  8
RACCORDO
100
AcDbLine
 62
253
  6
CONTINUOUS
 10
126.3685699168
 20
93.450172142
 11
126.3685699168
 21
94.3105529916
  0
LINE
  5
353
100
AcDbEntity
  8
RACCORDO
100
AcDbLine
 62
253
  6
CONTINUOUS
 10
126.3685699168
 20
141.5662154243
 11
126.3685699168
 21
142.4265962739
  0
LINE
  5
354
100
AcDbEntity
  8
0
100
AcDbLine
 62
7
  6
CONTINUOUS
 10
126.4567854097
 20
127.4883842079
 11
126.4567854097
 21
124.8383842079
  0
LINE
  5
355
100
AcDbEntity
  8
0
100
AcDbLine
 62
7
  6
CONTINUOUS
 10
126.8270418294
 20
124.4383842079
 11
126.8270418294
 21
127.4883842079
  0
LINE
  5
356
100
AcDbEntity
  8
0
100
AcDbLine
 62
253
  6
CONTINUOUS
 10
126.1919195854
 20
124.8418359338
 11
126.1923449733
 21
127.7577343194
  0
LINE
  5
357
100
AcDbEntity
  8
0
100
AcDbLine
 62
253
  6
CONTINUOUS
 10
126.4419100854
 20
124.8385343784
 11
126.4422931544
 21
127.5028764633
  0
LINE
  5
358
100
AcDbEntity
  8
RACCORDO
100
AcDbLine
 62
253
  6
CONTINUOUS
 10
126.1133373082
 20
141.205371506
 11
126.1185733438
 21
141.7827217752
  0
LINE
  5
359
100
AcDbEntity
  8
RACCORDO
100
AcDbLine
 62
253
  6
CONTINUOUS
 10
126.3639883857
 20
141.0610339387
 11
126.3685699168
 21
141.5662154243
  0
LINE
  5
35A
100
AcDbEntity
  8
RACCORDO
100
AcDbLine
 62
7
  6
CONTINUOUS
 10
126.1067854097
 20
94.5278150888
 11
126.1068055216
 21
94.5300524228
  0
LINE
  5
35B
100
AcDbEntity
  8
RACCORDO
100
AcDbLine
 62
7
  6
CONTINUOUS
 10
126.1067989977
 20
94.5293133497
 11
126.1067923744
 21
94.5285830301
  0
LWPOLYLINE
  5
35C
100
AcDbEntity
  8
RACCORDO
100
AcDbPolyline
 62
253
  6
CONTINUOUS
 90
16
 70
0
 10
128.4949974757
 20
141.7827217752
 10
128.493557778
 20
141.7600763343
 10
128.4893927004
 20
141.7376845864
 10
128.4825498351
 20
141.7157917902
 10
128.4731082033
 20
141.6946415966
 10
128.4611719021
 20
141.6744605549
 10
128.4468640226
 20
141.6554577551
 10
128.4303280026
 20
141.6378323962
 10
128.4117510724
 20
141.6217915763
 10
128.3913614669
 20
141.6075298022
 10
128.3693894403
 20
141.5951996971
 10
128.3460773891
 20
141.5849294785
 10
128.3217067734
 20
141.5768324301
 10
128.2965561989
 20
141.5709861276
 10
128.270894457
 20
141.567438586
 10
128.2450009026
 20
141.5662154243
  0
LWPOLYLINE
  5
35D
100
AcDbEntity
  8
RACCORDO
100
AcDbPolyline
 62
7
  6
CONTINUOUS
 90
16
 70
0
 10
128.5002335113
 20
141.205371506
 10
128.4989615669
 20
141.1913276466
 10
128.4953577495
 20
141.1775458361
 10
128.4893826759
 20
141.1640260744
 10
128.4810282841
 20
141.1506279805
 10
128.4703013538
 20
141.1374919355
 10
128.4572081666
 20
141.1250390829
 10
128.4418048835
 20
141.1132609087
 10
128.424174185
 20
141.102165927
 10
128.4043784366
 20
141.0922008226
 10
128.382545607
 20
141.0833662335
 10
128.358863672
 20
141.0756615217
 10
128.3335213374
 20
141.0695314592
 10
128.3067622574
 20
141.0651243032
 10
128.2788897534
 20
141.0622917963
 10
128.2502369383
 20
141.0610339387
  0
LINE
  5
35E
100
AcDbEntity
  8
0
100
AcDbLine
 62
7
  6
CONTINUOUS
 10
127.8160686775
 20
122.5253130292
 11
128.0166441625
 21
122.9383842079
  0
LINE
  5
35F
100
AcDbEntity
  8
0
100
AcDbLine
 62
7
  6
CONTINUOUS
 10
128.6285821324
 20
122.9383842079
 11
128.3227154612
 21
122.3084731975
  0
LINE
  5
360
100
AcDbEntity
  8
0
100
AcDbLine
 62
253
  6
CONTINUOUS
 10
121.6419682322
 20
110.5712816822
 11
121.6567854097
 21
110.6012043759
  0
LINE
  5
361
100
AcDbEntity
  8
0
100
AcDbLine
 62
7
  6
CONTINUOUS
 10
129.8308940715
 20
122.9383842079
 11
130.8915542433
 21
124.4383842079
  0
LWPOLYLINE
  5
362
100
AcDbEntity
  8
0
100
AcDbPolyline
 62
253
  6
CONTINUOUS
 90
13
 70
0
 10
121.6415548408
 20
115.3063157889
 10
121.639050043
 20
115.3035206717
 10
121.6324297866
 20
115.3038571027
 10
121.6219031449
 20
115.3058154094
 10
121.6075596185
 20
115.306491676
 10
121.5893666248
 20
115.3054053855
 10
121.5675680517
 20
115.3053899456
 10
121.5429266735
 20
115.3060213623
 10
121.515933545
 20
115.3053156314
 10
121.4867310996
 20
115.3051034621
 10
121.4557583887
 20
115.3058087312
 10
121.4238207548
 20
115.3059366938
 10
121.3915643671
 20
115.3049990962
  0
LINE
  5
363
100
AcDbEntity
  8
0
100
AcDbLine
 62
7
  6
CONTINUOUS
 10
123.8720642121
 20
116.5036630103
 11
123.8567854097
 21
116.4883842079
  0
LINE
  5
364
100
AcDbEntity
  8
RACCORDO
100
AcDbLine
 62
253
  6
CONTINUOUS
 10
150.7567888367
 20
142.4383842079
 11
150.7450009026
 21
142.4265962739
  0
LWPOLYLINE
  5
365
100
AcDbEntity
  8
0
100
AcDbPolyline
 62
7
  6
CONTINUOUS
 90
3
 70
0
 10
123.9962036551
 20
116.6272385515
 10
124.0496820456
 20
116.6806697554
 10
124.1039976639
 20
116.7351890724
  0
LINE
  5
366
100
AcDbEntity
  8
0
100
AcDbLine
 62
7
  6
CONTINUOUS
 10
123.9791148962
 20
116.6102852564
 11
123.9962036551
 21
116.6272385515
  0
LINE
  5
367
100
AcDbEntity
  8
0
100
AcDbLine
 62
7
  6
CONTINUOUS
 10
124.1039976639
 20
116.7351890724
 11
124.1220546929
 21
116.7530608294
  0
LWPOLYLINE
  5
368
100
AcDbEntity
  8
0
100
AcDbPolyline
 62
7
  6
CONTINUOUS
 90
3
 70
0
 10
123.9322571326
 20
116.5635727765
 10
123.947141635
 20
116.5782659199
 10
123.9791148962
 20
116.6102852564
  0
LWPOLYLINE
  5
369
100
AcDbEntity
  8
RACCORDO
100
AcDbPolyline
 62
7
  6
CONTINUOUS
 90
9
 70
0
 10
151.0002335113
 20
140.2159670324
 10
150.9989895036
 20
140.214976671
 10
150.9955170289
 20
140.2142353016
 10
150.9898484117
 20
140.2137429242
 10
150.9820231384
 20
140.2136112087
 10
150.9721190555
 20
140.2137284852
 10
150.9602803351
 20
140.213759744
 10
150.9466583069
 20
140.2135933154
 10
150.9146040944
 20
140.2130024053
  0
LWPOLYLINE
  5
36A
100
AcDbEntity
  8
0
100
AcDbPolyline
 62
7
  6
CONTINUOUS
 90
21
 70
0
 10
117.9846966702
 20
115.1158386203
 10
118.1277621598
 20
115.2154428767
 10
118.2769230983
 20
115.3056601262
 10
118.4315654249
 20
115.386119256
 10
118.5910505078
 20
115.4564882671
 10
118.7547203423
 20
115.5164773733
 10
118.9219001384
 20
115.5658397305
 10
119.0919006249
 20
115.6043722735
 10
119.2640204747
 20
115.6319166119
 10
119.4375399838
 20
115.6483591426
 10
119.6117540416
 20
115.653634579
 10
119.7859747737
 20
115.6477197609
 10
119.959470819
 20
115.6306355644
 10
120.1315394847
 20
115.6024471802
 10
120.3015374613
 20
115.5632478794
 10
120.4687080281
 20
115.5131983565
 10
120.632407709
 20
115.4524771943
 10
120.7921597474
 20
115.3812176641
 10
120.947341942
 20
115.2996202017
 10
121.097206877
 20
115.2079981684
 10
121.2410942806
 20
115.106681112
  0
LWPOLYLINE
  5
36B
100
AcDbEntity
  8
0
100
AcDbPolyline
 62
253
  6
CONTINUOUS
 90
13
 70
0
 10
136.8220064551
 20
115.3049990963
 10
136.7897500653
 20
115.3059365689
 10
136.7578124306
 20
115.3058085017
 10
136.7268397199
 20
115.3051031506
 10
136.6976372743
 20
115.3053152574
 10
136.6706441455
 20
115.3060209492
 10
136.6460027678
 20
115.3053895248
 10
136.6242041984
 20
115.3054049829
 10
136.606011206
 20
115.3064913086
 10
136.5916676746
 20
115.3058150978
 10
136.5811410282
 20
115.3038568733
 10
136.574520773
 20
115.3035205488
 10
136.5720159787
 20
115.3063157889
  0
LWPOLYLINE
  5
36C
100
AcDbEntity
  8
0
100
AcDbPolyline
 62
253
  6
CONTINUOUS
 90
13
 70
0
 10
136.9724767781
 20
115.1066813138
 10
136.9688751198
 20
115.1070930256
 10
136.9652822233
 20
115.1126338555
 10
136.9606219711
 20
115.1222267041
 10
136.9526420368
 20
115.1340732042
 10
136.9409458165
 20
115.1479274369
 10
136.9279297838
 20
115.1652868066
 10
136.9137026119
 20
115.1852761993
 10
136.8969762916
 20
115.2063208919
 10
136.8792965847
 20
115.2294124298
 10
136.8612647251
 20
115.2544595505
 10
136.842168775
 20
115.2799234334
 10
136.8220064551
 20
115.3049990963
  0
LWPOLYLINE
  5
36D
100
AcDbEntity
  8
0
100
AcDbPolyline
 62
7
  6
CONTINUOUS
 90
6
 70
0
 10
136.5712650909
 20
108.5489045268
 10
136.5735760241
 20
108.5468998085
 10
136.5780227885
 20
108.5417646155
 10
136.5846053843
 20
108.5340272063
 10
136.5936105099
 20
108.5242977123
 10
136.6047514668
 20
108.5130122983
  0
LINE
  5
36E
100
AcDbEntity
  8
RACCORDO
100
AcDbLine
 62
253
  6
CONTINUOUS
 10
150.7450009026
 20
93.450172142
 11
150.7567888367
 21
93.4383842079
  0
LWPOLYLINE
  5
36F
100
AcDbEntity
  8
RACCORDO
100
AcDbPolyline
 62
7
  6
CONTINUOUS
 90
16
 70
0
 10
126.1133373082
 20
141.205371506
 10
126.11460438
 20
141.1917143457
 10
126.1181945719
 20
141.1778866799
 10
126.1241535314
 20
141.1640918207
 10
126.1324978066
 20
141.1506264991
 10
126.1432253077
 20
141.1376264446
 10
126.1563270087
 20
141.1250695735
 10
126.1717497591
 20
141.1131978595
 10
126.1894124959
 20
141.1022414863
 10
126.2092412762
 20
141.0921785738
 10
126.2310867187
 20
141.0832554419
 10
126.2547769647
 20
141.0757048065
 10
126.280173993
 20
141.0695057054
 10
126.307057
 20
141.064812454
 10
126.3351072727
 20
141.0619251221
 10
126.3639883857
 20
141.0610339387
  0
LINE
  5
370
100
AcDbEntity
  8
RACCORDO
100
AcDbLine
 62
7
  6
CONTINUOUS
 10
129.7067854097
 20
93.688380781
 11
129.7089249851
 21
93.6557502465
  0
LWPOLYLINE
  5
371
100
AcDbEntity
  8
RACCORDO
100
AcDbPolyline
 62
253
  6
CONTINUOUS
 90
16
 70
0
 10
126.1185733438
 20
141.7827217752
 10
126.1200130415
 20
141.7600763347
 10
126.1241781189
 20
141.7376845871
 10
126.131020984
 20
141.7157917913
 10
126.1404626156
 20
141.6946415978
 10
126.1523989165
 20
141.6744605561
 10
126.1667067958
 20
141.6554577565
 10
126.1832428152
 20
141.6378323978
 10
126.2018197448
 20
141.6217915781
 10
126.2222093498
 20
141.6075298039
 10
126.2441813764
 20
141.5951996985
 10
126.2674934279
 20
141.5849294795
 10
126.291864044
 20
141.5768324307
 10
126.3170146191
 20
141.5709861279
 10
126.3426763617
 20
141.5674385861
 10
126.3685699168
 20
141.5662154243
  0
LWPOLYLINE
  5
372
100
AcDbEntity
  8
RACCORDO
100
AcDbPolyline
 62
7
  6
CONTINUOUS
 90
16
 70
0
 10
129.7185733438
 20
93.700168715
 10
129.7199573841
 20
93.6739058691
 10
129.72409147
 20
93.6479396479
 10
129.7309279734
 20
93.6225569765
 10
129.740382837
 20
93.5980527735
 10
129.7523532923
 20
93.5746809862
 10
129.7667342186
 20
93.5526593764
 10
129.7834174856
 20
93.5321950311
 10
129.8021976139
 20
93.5135760002
 10
129.8227687346
 20
93.4970956288
 10
129.844862637
 20
93.4829284749
 10
129.8682403031
 20
93.4711905599
 10
129.8925838769
 20
93.4620019332
 10
129.9175973333
 20
93.4554251794
 10
129.9430179239
 20
93.4514820974
 10
129.9685699168
 20
93.450172142
  0
LINE
  5
373
100
AcDbEntity
  8
RACCORDO
100
AcDbLine
 62
7
  6
CONTINUOUS
 10
128.5067785563
 20
94.5285707736
 11
128.5067718218
 21
94.5293133497
  0
LINE
  5
374
100
AcDbEntity
  8
RACCORDO
100
AcDbLine
 62
253
  6
CONTINUOUS
 10
128.2450009026
 20
141.5662154243
 11
128.2495824338
 21
141.0610339387
  0
LINE
  5
375
100
AcDbEntity
  8
RACCORDO
100
AcDbLine
 62
253
  6
CONTINUOUS
 10
128.4949974757
 20
141.7827217752
 11
128.5002335113
 21
141.205371506
  0
LINE
  5
376
100
AcDbEntity
  8
0
100
AcDbLine
 62
7
  6
CONTINUOUS
 10
127.3220165762
 20
124.4383842079
 11
127.3220165762
 21
127.4883842079
  0
LWPOLYLINE
  5
377
100
AcDbEntity
  8
0
100
AcDbPolyline
 62
7
  6
CONTINUOUS
 90
2
 70
0
 43
0.3500000006
 10
128.0710714417
 20
151.1883762817
 10
128.0710714417
 20
152.6883858032
  0
LINE
  5
378
100
AcDbEntity
  8
RACCORDO
100
AcDbLine
 62
253
  6
CONTINUOUS
 10
128.2450009026
 20
142.4265962739
 11
128.2450009026
 21
141.5662154243
  0
LINE
  5
379
100
AcDbEntity
  8
RACCORDO
100
AcDbLine
 62
253
  6
CONTINUOUS
 10
128.2450009026
 20
94.3105529916
 11
128.2450009026
 21
93.450172142
  0
LINE
  5
37A
100
AcDbEntity
  8
RACCORDO
100
AcDbLine
 62
253
  6
CONTINUOUS
 10
128.2502369383
 20
141.0610339387
 11
128.2502369383
 21
140.209772539
  0
LINE
  5
37B
100
AcDbEntity
  8
RACCORDO
100
AcDbLine
 62
253
  6
CONTINUOUS
 10
128.2502369383
 20
95.6669958769
 11
128.2502369383
 21
94.8157344771
  0
LINE
  5
37C
100
AcDbEntity
  8
RACCORDO
100
AcDbLine
 62
7
  6
CONTINUOUS
 10
128.4949974757
 20
142.1765997008
 11
128.4949974757
 21
141.7827217752
  0
LINE
  5
37D
100
AcDbEntity
  8
RACCORDO
100
AcDbLine
 62
7
  6
CONTINUOUS
 10
128.4949974757
 20
94.0940466406
 11
128.4949974757
 21
93.700168715
  0
LINE
  5
37E
100
AcDbEntity
  8
RACCORDO
100
AcDbLine
 62
7
  6
CONTINUOUS
 10
128.4989313563
 20
94.5278150888
 11
128.4989313563
 21
94.8157344771
  0
LINE
  5
37F
100
AcDbEntity
  8
RACCORDO
100
AcDbLine
 62
7
  6
CONTINUOUS
 10
128.5002335113
 20
141.205371506
 11
128.5002335113
 21
140.2228058825
  0
LINE
  5
380
100
AcDbEntity
  8
RACCORDO
100
AcDbLine
 62
7
  6
CONTINUOUS
 10
128.5002335113
 20
95.6539625333
 11
128.5002335113
 21
94.9593162981
  0
LINE
  5
381
100
AcDbEntity
  8
RACCORDO
100
AcDbLine
 62
7
  6
CONTINUOUS
 10
128.5067854097
 20
93.688380781
 11
128.5067854097
 21
95.5883842079
  0
LINE
  5
382
100
AcDbEntity
  8
RACCORDO
100
AcDbLine
 62
7
  6
CONTINUOUS
 10
128.5067854097
 20
140.2883842079
 11
128.5067854097
 21
142.1883876349
  0
LINE
  5
383
100
AcDbEntity
  8
0
100
AcDbLine
 62
253
  6
CONTINUOUS
 10
128.7121374814
 20
122.9383842079
 11
128.7121374814
 21
127.4883842079
  0
LINE
  5
384
100
AcDbEntity
  8
0
100
AcDbLine
 62
7
  6
CONTINUOUS
 10
129.0042367803
 20
127.4883842079
 11
129.0042367803
 21
122.9383842079
  0
LINE
  5
385
100
AcDbEntity
  8
0
100
AcDbLine
 62
7
  6
CONTINUOUS
 10
129.2093340392
 20
127.4883842079
 11
129.2093340392
 21
122.9383842079
  0
LINE
  5
386
100
AcDbEntity
  8
RACCORDO
100
AcDbLine
 62
7
  6
CONTINUOUS
 10
128.5067718218
 20
141.3474550662
 11
128.5067784451
 21
141.3481853858
  0
LINE
  5
387
100
AcDbEntity
  8
RACCORDO
100
AcDbLine
 62
7
  6
CONTINUOUS
 10
128.5067854097
 20
141.3489533271
 11
128.5067652979
 21
141.3467159931
  0
LINE
  5
388
100
AcDbEntity
  8
RACCORDO
100
AcDbLine
 62
253
  6
CONTINUOUS
 10
128.2495824338
 20
94.8157344771
 11
128.2450009026
 21
94.3105529916
  0
LINE
  5
389
100
AcDbEntity
  8
RACCORDO
100
AcDbLine
 62
7
  6
CONTINUOUS
 10
128.4989313563
 20
94.8157344771
 11
128.5002335113
 21
94.9593162981
  0
LINE
  5
38A
100
AcDbEntity
  8
RACCORDO
100
AcDbLine
 62
253
  6
CONTINUOUS
 10
128.4989313563
 20
94.5278150888
 11
128.4949974757
 21
94.0940466406
  0
LWPOLYLINE
  5
38B
100
AcDbEntity
  8
RACCORDO
100
AcDbPolyline
 62
7
  6
CONTINUOUS
 90
16
 70
0
 10
129.7185733438
 20
142.1765997008
 10
129.7199573838
 20
142.2028625443
 10
129.7240914693
 20
142.2288287645
 10
129.7309279724
 20
142.2542114363
 10
129.7403828368
 20
142.2787156419
 10
129.7523532941
 20
142.3020874329
 10
129.7667342223
 20
142.3241090446
 10
129.7834174899
 20
142.3445733895
 10
129.8021976177
 20
142.3631924189
 10
129.822768737
 20
142.3796727888
 10
129.8448626364
 20
142.3938399406
 10
129.8682402985
 20
142.4055778539
 10
129.8925838698
 20
142.4147664804
 10
129.9175973266
 20
142.4213432351
 10
129.9430179195
 20
142.425286318
 10
129.9685699168
 20
142.4265962739
  0
LWPOLYLINE
  5
38C
100
AcDbEntity
  8
RACCORDO
100
AcDbPolyline
 62
253
  6
CONTINUOUS
 90
16
 70
0
 10
126.1185733438
 20
94.0940466406
 10
126.1200130415
 20
94.1166920815
 10
126.1241781191
 20
94.1390838294
 10
126.1310209843
 20
94.1609766256
 10
126.1404626161
 20
94.1821268192
 10
126.1523989173
 20
94.2023078609
 10
126.1667067969
 20
94.2213106606
 10
126.1832428168
 20
94.2389360195
 10
126.2018197469
 20
94.2549768394
 10
126.2222093524
 20
94.2692386136
 10
126.244181379
 20
94.2815687187
 10
126.2674934302
 20
94.2918389373
 10
126.2918640459
 20
94.2999359857
 10
126.3170146205
 20
94.3057822882
 10
126.3426763625
 20
94.3093298298
 10
126.3685699168
 20
94.3105529916
  0
LINE
  5
38D
100
AcDbEntity
  8
RACCORDO
100
AcDbLine
 62
7
  6
CONTINUOUS
 10
129.7067854097
 20
142.1883876349
 11
129.7089249851
 21
142.2210181694
  0
LINE
  5
38E
100
AcDbEntity
  8
0
100
AcDbLine
 62
7
  6
CONTINUOUS
 10
131.3865289901
 20
124.4383842079
 11
130.3258688183
 21
122.9383842079
  0
LINE
  5
38F
100
AcDbEntity
  8
RACCORDO
100
AcDbLine
 62
253
  6
CONTINUOUS
 10
151.0067854097
 20
142.1883876349
 11
150.9949974757
 21
142.1765997008
  0
LWPOLYLINE
  5
390
100
AcDbEntity
  8
0
100
AcDbPolyline
 62
7
  6
CONTINUOUS
 90
7
 70
0
 10
123.8720642121
 20
116.5036630103
 10
123.8745794228
 20
116.5054690898
 10
123.87919358
 20
116.5101413796
 10
123.885906684
 20
116.5172976898
 10
123.894996035
 20
116.5265106642
 10
123.9061843326
 20
116.537428599
 10
123.9322571326
 20
116.5635727765
  0
LINE
  5
391
100
AcDbEntity
  8
0
100
AcDbLine
 62
7
  6
CONTINUOUS
 10
123.8567854097
 20
116.4883842079
 11
121.6567854097
 21
116.4883842079
  0
LINE
  5
392
100
AcDbEntity
  8
0
100
AcDbLine
 62
7
  6
CONTINUOUS
 10
121.6415066073
 20
116.5036630103
 11
123.8720642121
 21
116.5036630103
  0
LWPOLYLINE
  5
393
100
AcDbEntity
  8
0
100
AcDbPolyline
 62
7
  6
CONTINUOUS
 90
2
 70
0
 43
0.3500000006
 10
158.7067827759
 20
116.5812416382
 10
157.2067913818
 20
116.5812416382
  0
LINE
  5
394
100
AcDbEntity
  8
0
100
AcDbLine
 62
253
  6
CONTINUOUS
 10
121.3915161266
 20
116.7530608294
 11
124.1220546929
 21
116.7530608294
  0
LINE
  5
395
100
AcDbEntity
  8
0
100
AcDbLine
 62
7
  6
CONTINUOUS
 10
136.5567854097
 20
117.3133842079
 11
134.3567854097
 21
117.3133842079
  0
LINE
  5
396
100
AcDbEntity
  8
0
100
AcDbLine
 62
7
  6
CONTINUOUS
 10
134.3414954821
 20
117.3286741356
 11
136.5720753374
 21
117.3286741356
  0
LINE
  5
397
100
AcDbEntity
  8
0
100
AcDbLine
 62
253
  6
CONTINUOUS
 10
134.0915050013
 20
117.5784846666
 11
136.8220658182
 21
117.5784846666
  0
LWPOLYLINE
  5
398
100
AcDbEntity
  8
0
100
AcDbPolyline
 62
253
  6
CONTINUOUS
 90
19
 70
0
 10
136.9721192029
 20
110.7708744488
 10
136.9464602052
 20
110.7878482008
 10
136.9189096923
 20
110.8015413603
 10
136.8898850056
 20
110.8117465004
 10
136.8598258178
 20
110.8183090317
 10
136.8291874721
 20
110.8211295436
 10
136.7984340842
 20
110.8201653108
 10
136.7680315132
 20
110.8154309394
 10
136.7384403041
 20
110.8069981469
 10
136.7101087111
 20
110.794994675
 10
136.6834659075
 20
110.779602355
 10
136.6589154844
 20
110.7610543532
 10
136.636829337
 20
110.7396316388
 10
136.6175420312
 20
110.7156587279
 10
136.6013457355
 20
110.6894987674
 10
136.5884857948
 20
110.6615480342
 10
136.5791570144
 20
110.6322299323
 10
136.5735007087
 20
110.6019885786
 10
136.5716025608
 20
110.5712820761
  0
LINE
  5
399
100
AcDbEntity
  8
0
100
AcDbLine
 62
7
  6
CONTINUOUS
 10
136.8029898236
 20
108.3121839615
 11
136.8212555717
 21
108.2940918999
  0
LINE
  5
39A
100
AcDbEntity
  8
RACCORDO
100
AcDbLine
 62
253
  6
CONTINUOUS
 10
150.9949974757
 20
93.700168715
 11
151.0067854097
 21
93.688380781
  0
LINE
  5
39B
100
AcDbEntity
  8
0
100
AcDbLine
 62
7
  6
CONTINUOUS
 10
136.5713066266
 20
108.5488629911
 11
136.5567854097
 21
108.5633842079
  0
LINE
  5
39C
100
AcDbEntity
  8
0
100
AcDbLine
 62
7
  6
CONTINUOUS
 10
136.7299813213
 20
108.3856598198
 11
136.8029898236
 21
108.3121839615
  0
LINE
  5
39D
100
AcDbEntity
  8
0
100
AcDbLine
 62
7
  6
CONTINUOUS
 10
136.6455984265
 20
108.4711906726
 11
136.7299813213
 21
108.3856598198
  0
LWPOLYLINE
  5
39E
100
AcDbEntity
  8
0
100
AcDbPolyline
 62
7
  6
CONTINUOUS
 90
3
 70
0
 10
136.6047514668
 20
108.5130122983
 10
136.6307454251
 20
108.4861917615
 10
136.6455984265
 20
108.4711906726
  0
LINE
  5
39F
100
AcDbEntity
  8
RACCORDO
100
AcDbLine
 62
7
  6
CONTINUOUS
 10
128.5067854097
 20
142.1883876349
 11
128.5046458344
 21
142.2210181694
  0
LWPOLYLINE
  5
3A0
100
AcDbEntity
  8
RACCORDO
100
AcDbPolyline
 62
253
  6
CONTINUOUS
 90
16
 70
0
 10
132.0949974757
 20
94.0940466406
 10
132.0935577773
 20
94.1166920871
 10
132.0893926978
 20
94.1390838397
 10
132.0825498299
 20
94.1609766395
 10
132.0731081952
 20
94.182126835
 10
132.061171891
 20
94.2023078775
 10
132.0468640075
 20
94.2213106787
 10
132.0303279805
 20
94.2389360408
 10
132.0117510415
 20
94.2549768636
 10
131.9913614297
 20
94.2692386371
 10
131.9693894027
 20
94.2815687376
 10
131.9460773556
 20
94.2918389504
 10
131.9217067461
 20
94.2999359934
 10
131.8965561789
 20
94.3057822914
 10
131.8708944462
 20
94.3093298295
 10
131.8450009026
 20
94.3105529892
  0
LWPOLYLINE
  5
3A1
100
AcDbEntity
  8
RACCORDO
100
AcDbPolyline
 62
253
  6
CONTINUOUS
 90
16
 70
0
 10
129.7185733438
 20
141.7827217752
 10
129.7200130415
 20
141.7600763347
 10
129.7241781189
 20
141.7376845871
 10
129.731020984
 20
141.7157917913
 10
129.7404626156
 20
141.6946415978
 10
129.7523989165
 20
141.6744605561
 10
129.7667067958
 20
141.6554577565
 10
129.7832428152
 20
141.6378323978
 10
129.8018197448
 20
141.6217915781
 10
129.8222093498
 20
141.6075298039
 10
129.8441813764
 20
141.5951996985
 10
129.8674934279
 20
141.5849294795
 10
129.891864044
 20
141.5768324307
 10
129.9170146191
 20
141.5709861279
 10
129.9426763617
 20
141.5674385861
 10
129.9685699168
 20
141.5662154243
  0
LWPOLYLINE
  5
3A2
100
AcDbEntity
  8
RACCORDO
100
AcDbPolyline
 62
7
  6
CONTINUOUS
 90
16
 70
0
 10
128.4949974757
 20
142.1765997008
 10
128.4936134356
 20
142.2028625455
 10
128.4894793499
 20
142.2288287661
 10
128.4826428467
 20
142.2542114377
 10
128.4731879826
 20
142.2787156421
 10
128.4612175262
 20
142.3020874314
 10
128.4468365989
 20
142.3241090423
 10
128.4301533315
 20
142.3445733873
 10
128.4113732035
 20
142.3631924174
 10
128.3908020836
 20
142.379672788
 10
128.3687081828
 20
142.3938399407
 10
128.3453305189
 20
142.4055778548
 10
128.3209869465
 20
142.4147664815
 10
128.2959734899
 20
142.4213432357
 10
128.270552898
 20
142.4252863182
 10
128.2450009026
 20
142.4265962739
  0
LINE
  5
3A3
100
AcDbEntity
  8
RACCORDO
100
AcDbLine
 62
253
  6
CONTINUOUS
 10
129.7185733438
 20
94.0940466406
 11
129.7146394632
 21
94.5278150888
  0
LINE
  5
3A4
100
AcDbEntity
  8
RACCORDO
100
AcDbLine
 62
7
  6
CONTINUOUS
 10
129.7146394632
 20
94.8157344771
 11
129.7133373082
 21
94.9593162981
  0
LINE
  5
3A5
100
AcDbEntity
  8
RACCORDO
100
AcDbLine
 62
253
  6
CONTINUOUS
 10
129.9685699168
 20
94.3105529916
 11
129.9639883857
 21
94.8157344771
  0
LINE
  5
3A6
100
AcDbEntity
  8
RACCORDO
100
AcDbLine
 62
7
  6
CONTINUOUS
 10
129.7067922632
 20
141.3481976423
 11
129.7067989977
 21
141.3474550662
  0
LINE
  5
3A7
100
AcDbEntity
  8
0
100
AcDbLine
 62
253
  6
CONTINUOUS
 10
129.5014333381
 20
122.9383842079
 11
129.5014333381
 21
127.4883842079
  0
LINE
  5
3A8
100
AcDbEntity
  8
RACCORDO
100
AcDbLine
 62
7
  6
CONTINUOUS
 10
129.7067854097
 20
142.1883876349
 11
129.7067854097
 21
140.2883842079
  0
LINE
  5
3A9
100
AcDbEntity
  8
RACCORDO
100
AcDbLine
 62
7
  6
CONTINUOUS
 10
129.7067854097
 20
95.5883842079
 11
129.7067854097
 21
93.688380781
  0
LINE
  5
3AA
100
AcDbEntity
  8
RACCORDO
100
AcDbLine
 62
7
  6
CONTINUOUS
 10
129.7133373082
 20
94.9593162981
 11
129.7133373082
 21
95.6539625333
  0
LINE
  5
3AB
100
AcDbEntity
  8
RACCORDO
100
AcDbLine
 62
7
  6
CONTINUOUS
 10
129.7133373082
 20
140.2228058825
 11
129.7133373082
 21
141.205371506
  0
LINE
  5
3AC
100
AcDbEntity
  8
RACCORDO
100
AcDbLine
 62
7
  6
CONTINUOUS
 10
129.7146394632
 20
94.5278150888
 11
129.7146394632
 21
94.8157344771
  0
LINE
  5
3AD
100
AcDbEntity
  8
RACCORDO
100
AcDbLine
 62
7
  6
CONTINUOUS
 10
129.7185733438
 20
93.700168715
 11
129.7185733438
 21
94.0940466406
  0
LINE
  5
3AE
100
AcDbEntity
  8
RACCORDO
100
AcDbLine
 62
7
  6
CONTINUOUS
 10
129.7185733438
 20
141.7827217752
 11
129.7185733438
 21
142.1765997008
  0
LINE
  5
3AF
100
AcDbEntity
  8
RACCORDO
100
AcDbLine
 62
253
  6
CONTINUOUS
 10
129.9633338812
 20
94.8157344771
 11
129.9633338812
 21
95.6669958769
  0
LINE
  5
3B0
100
AcDbEntity
  8
RACCORDO
100
AcDbLine
 62
253
  6
CONTINUOUS
 10
129.9633338812
 20
140.209772539
 11
129.9633338812
 21
141.0610339387
  0
LINE
  5
3B1
100
AcDbEntity
  8
RACCORDO
100
AcDbLine
 62
253
  6
CONTINUOUS
 10
129.9685699168
 20
93.450172142
 11
129.9685699168
 21
94.3105529916
  0
LINE
  5
3B2
100
AcDbEntity
  8
RACCORDO
100
AcDbLine
 62
253
  6
CONTINUOUS
 10
129.9685699168
 20
141.5662154243
 11
129.9685699168
 21
142.4265962739
  0
LINE
  5
3B3
100
AcDbEntity
  8
0
100
AcDbLine
 62
7
  6
CONTINUOUS
 10
130.8915542433
 20
124.4383842079
 11
130.8915542433
 21
127.4883842079
  0
LWPOLYLINE
  5
3B4
100
AcDbEntity
  8
0
100
AcDbPolyline
 62
7
  6
CONTINUOUS
 90
4
 70
0
 43
0.3500000006
 10
131.14250354
 20
153.5455237427
 10
131.14250354
 20
154.1883771973
 10
132.6425039978
 20
154.1883771973
 10
131.7853569946
 20
151.1883762817
  0
LINE
  5
3B5
100
AcDbEntity
  8
0
100
AcDbLine
 62
7
  6
CONTINUOUS
 10
131.3865289901
 20
124.4383842079
 11
131.3865289901
 21
127.4883842079
  0
LINE
  5
3B6
100
AcDbEntity
  8
RACCORDO
100
AcDbLine
 62
253
  6
CONTINUOUS
 10
129.7133373082
 20
141.205371506
 11
129.7185733438
 21
141.7827217752
  0
LINE
  5
3B7
100
AcDbEntity
  8
RACCORDO
100
AcDbLine
 62
253
  6
CONTINUOUS
 10
129.9639883857
 20
141.0610339387
 11
129.9685699168
 21
141.5662154243
  0
LINE
  5
3B8
100
AcDbEntity
  8
RACCORDO
100
AcDbLine
 62
7
  6
CONTINUOUS
 10
129.7067854097
 20
94.5278150888
 11
129.7068055216
 21
94.5300524228
  0
LINE
  5
3B9
100
AcDbEntity
  8
RACCORDO
100
AcDbLine
 62
7
  6
CONTINUOUS
 10
129.7067989977
 20
94.5293133497
 11
129.7067923744
 21
94.5285830301
  0
LWPOLYLINE
  5
3BA
100
AcDbEntity
  8
0
100
AcDbPolyline
 62
253
  6
CONTINUOUS
 90
52
 70
0
 10
131.77166073
 20
124.8385356665
 10
131.7666456097
 20
124.6746209209
 10
131.7515435506
 20
124.5112156396
 10
131.7263916543
 20
124.3489414496
 10
131.691249441
 20
124.1883540405
 10
131.6462388522
 20
124.0301341138
 10
131.5915829857
 20
123.8750739502
 10
131.527541873
 20
123.7238383609
 10
131.4543470281
 20
123.5769118171
 10
131.3722554996
 20
123.434788041
 10
131.2815742992
 20
123.297993399
 10
131.1826569844
 20
123.1670564928
 10
131.0758639253
 20
123.0424520125
 10
130.9615903347
 20
122.9246444755
 10
130.8402768853
 20
122.814091305
 10
130.71239215
 20
122.7112194314
 10
130.5784246064
 20
122.6164200469
 10
130.4388805845
 20
122.5300497587
 10
130.2942913896
 20
122.4524359047
 10
130.1452086986
 20
122.383872737
 10
129.9921958688
 20
122.3246175154
 10
129.8358267134
 20
122.2748916035
 10
129.6766911298
 20
122.2348827841
 10
129.515395397
 20
122.2047436815
 10
129.3525531451
 20
122.1845886279
 10
129.1887843219
 20
122.1744936186
 10
129.0247073527
 20
122.1744960561
 10
128.8609388442
 20
122.1845959301
 10
128.6980972212
 20
122.2047558166
 10
128.5368024276
 20
122.2348996993
 10
128.3776680858
 20
122.2749132263
 10
128.2213005196
 20
122.3246437353
 10
128.0682895666
 20
122.3839034363
 10
127.9192088839
 20
122.4524710205
 10
127.7746216254
 20
122.5300893571
 10
127.6350796979
 20
122.6164641068
 10
127.5011148604
 20
122.7112676019
 10
127.3732336644
 20
122.8141429241
 10
127.2519242239
 20
122.9246990121
 10
127.1376546862
 20
123.0425092632
 10
127.0308661317
 20
123.1671157532
 10
126.9319532956
 20
123.2980544373
 10
126.841275231
 20
123.4348527605
 10
126.7591849761
 20
123.5769840693
 10
126.6859910966
 20
123.7239205934
 10
126.6219522972
 20
123.8751656462
 10
126.5672989194
 20
124.0302379928
 10
126.522292371
 20
124.1884694373
 10
126.4871581812
 20
124.3490538465
 10
126.4620161801
 20
124.5113053782
 10
126.4469220284
 20
124.6746727019
 10
126.4419100893
 20
124.8385343784
  0
LWPOLYLINE
  5
3BB
100
AcDbEntity
  8
RACCORDO
100
AcDbPolyline
 62
7
  6
CONTINUOUS
 90
16
 70
0
 10
128.4949974757
 20
93.700168715
 10
128.4936134357
 20
93.6739058715
 10
128.4894793502
 20
93.6479396513
 10
128.4826428471
 20
93.6225569796
 10
128.4731879826
 20
93.5980527739
 10
128.4612175254
 20
93.574680983
 10
128.4468365972
 20
93.5526593713
 10
128.4301533296
 20
93.5321950264
 10
128.4113732018
 20
93.5135759969
 10
128.3908020825
 20
93.4970956271
 10
128.3687081831
 20
93.4829284753
 10
128.345330521
 20
93.471190562
 10
128.3209869497
 20
93.4620019354
 10
128.2959734929
 20
93.4554251808
 10
128.2705529
 20
93.4514820979
 10
128.2450009026
 20
93.450172142
  0
LWPOLYLINE
  5
3BC
100
AcDbEntity
  8
RACCORDO
100
AcDbPolyline
 62
253
  6
CONTINUOUS
 90
16
 70
0
 10
132.0949974757
 20
141.7827217752
 10
132.093557778
 20
141.7600763343
 10
132.0893927004
 20
141.7376845864
 10
132.0825498351
 20
141.7157917902
 10
132.0731082033
 20
141.6946415966
 10
132.0611719021
 20
141.6744605549
 10
132.0468640226
 20
141.6554577551
 10
132.0303280026
 20
141.6378323962
 10
132.0117510724
 20
141.6217915763
 10
131.9913614669
 20
141.6075298022
 10
131.9693894403
 20
141.5951996971
 10
131.9460773891
 20
141.5849294785
 10
131.9217067734
 20
141.5768324301
 10
131.8965561989
 20
141.5709861276
 10
131.870894457
 20
141.567438586
 10
131.8450009026
 20
141.5662154243
  0
LWPOLYLINE
  5
3BD
100
AcDbEntity
  8
RACCORDO
100
AcDbPolyline
 62
253
  6
CONTINUOUS
 90
16
 70
0
 10
129.7185733438
 20
94.0940466406
 10
129.7200130415
 20
94.1166920815
 10
129.7241781191
 20
94.1390838294
 10
129.7310209843
 20
94.1609766256
 10
129.7404626161
 20
94.1821268192
 10
129.7523989173
 20
94.2023078609
 10
129.7667067969
 20
94.2213106606
 10
129.7832428168
 20
94.2389360195
 10
129.8018197469
 20
94.2549768394
 10
129.8222093524
 20
94.2692386136
 10
129.844181379
 20
94.2815687187
 10
129.8674934302
 20
94.2918389373
 10
129.8918640459
 20
94.2999359857
 10
129.9170146205
 20
94.3057822882
 10
129.9426763625
 20
94.3093298298
 10
129.9685699168
 20
94.3105529916
  0
LINE
  5
3BE
100
AcDbEntity
  8
RACCORDO
100
AcDbLine
 62
7
  6
CONTINUOUS
 10
128.5067854097
 20
93.688380781
 11
128.5046458344
 21
93.6557502465
  0
LWPOLYLINE
  5
3BF
100
AcDbEntity
  8
RACCORDO
100
AcDbPolyline
 62
7
  6
CONTINUOUS
 90
16
 70
0
 10
132.1002335113
 20
141.205371506
 10
132.0989615669
 20
141.1913276466
 10
132.0953577495
 20
141.1775458361
 10
132.0893826759
 20
141.1640260744
 10
132.0810282841
 20
141.1506279805
 10
132.0703013538
 20
141.1374919355
 10
132.0572081666
 20
141.1250390829
 10
132.0418048835
 20
141.1132609087
 10
132.024174185
 20
141.102165927
 10
132.0043784366
 20
141.0922008226
 10
131.982545607
 20
141.0833662335
 10
131.958863672
 20
141.0756615217
 10
131.9335213374
 20
141.0695314592
 10
131.9067622574
 20
141.0651243032
 10
131.8788897534
 20
141.0622917963
 10
131.8502369383
 20
141.0610339387
  0
LWPOLYLINE
  5
3C0
100
AcDbEntity
  8
0
100
AcDbPolyline
 62
7
  6
CONTINUOUS
 90
3
 70
0
 10
121.5828732926
 20
109.3115222696
 10
121.5678920082
 20
109.2964153215
 10
121.5356567567
 20
109.2635874803
  0
LINE
  5
3C1
100
AcDbEntity
  8
0
100
AcDbLine
 62
7
  6
CONTINUOUS
 10
121.5356567567
 20
109.2635874803
 11
121.4828354613
 21
109.2102833965
  0
LWPOLYLINE
  5
3C2
100
AcDbEntity
  8
0
100
AcDbPolyline
 62
7
  6
CONTINUOUS
 90
3
 70
0
 10
121.4645221001
 20
109.1919457624
 10
121.4101572353
 20
109.1371703778
 10
121.3921823169
 20
109.1193716088
  0
LINE
  5
3C3
100
AcDbEntity
  8
0
100
AcDbLine
 62
7
  6
CONTINUOUS
 10
121.4828354613
 20
109.2102833965
 11
121.4645221001
 21
109.1919457624
  0
LINE
  5
3C4
100
AcDbEntity
  8
0
100
AcDbLine
 62
7
  6
CONTINUOUS
 10
121.6421727977
 20
109.3737715959
 11
121.6567854097
 21
109.3883842079
  0
LINE
  5
3C5
100
AcDbEntity
  8
RACCORDO
100
AcDbLine
 62
253
  6
CONTINUOUS
 10
107.2067854097
 20
93.688380781
 11
107.2185733438
 21
93.700168715
  0
LINE
  5
3C6
100
AcDbEntity
  8
RACCORDO
100
AcDbLine
 62
253
  6
CONTINUOUS
 10
107.4567819828
 20
93.4383842079
 11
107.4685699168
 21
93.450172142
  0
LWPOLYLINE
  5
3C7
100
AcDbEntity
  8
0
100
AcDbPolyline
 62
7
  6
CONTINUOUS
 90
7
 70
0
 10
121.6421727977
 20
109.3737715959
 10
121.6399501345
 20
109.371828978
 10
121.6355739505
 20
109.3668316756
 10
121.6290442455
 20
109.3592533034
 10
121.6200833699
 20
109.3496403089
 10
121.6089689735
 20
109.3383969356
 10
121.5828732926
 20
109.3115222696
  0
LWPOLYLINE
  5
3C8
100
AcDbEntity
  8
0
100
AcDbPolyline
 62
7
  6
CONTINUOUS
 90
50
 70
0
 10
121.2414512231
 20
110.7708740795
 10
121.0988775346
 20
110.6703861237
 10
120.9501759422
 20
110.5792773486
 10
120.7959633058
 20
110.4979179326
 10
120.6368897559
 20
110.4266421635
 10
120.4736031027
 20
110.3657317174
 10
120.3067433411
 20
110.3154217879
 10
120.1369868798
 20
110.2759178146
 10
119.9650435378
 20
110.247386537
 10
119.7916186768
 20
110.2299456175
 10
119.6174255168
 20
110.2236678934
 10
119.4431830678
 20
110.2285804832
 10
119.2696101511
 20
110.244664123
 10
119.0974232976
 20
110.2718531949
 10
118.9273311715
 20
110.3100366811
 10
118.7600325445
 20
110.3590591069
 10
118.5962164542
 20
110.4187201794
 10
118.4365597947
 20
110.4887751149
 10
118.2817220124
 20
110.5689364268
 10
118.1323419781
 20
110.6588749548
 10
117.9890367105
 20
110.7582209304
 10
117.8523993157
 20
110.8665651804
 10
117.7229939461
 20
110.9834618794
 10
117.6013553964
 20
111.1084295727
 10
117.4879879211
 20
111.2409521761
 10
117.383359773
 20
111.3804835623
 10
117.2879034054
 20
111.5264483752
 10
117.2020149049
 20
111.6782426763
 10
117.126049004
 20
111.8352401772
 10
117.0603194445
 20
111.9967931529
 10
117.0050988105
 20
112.1622327807
 10
116.9606148943
 20
112.3308761296
 10
116.9270510675
 20
112.502027253
 10
116.9045461827
 20
112.6749776828
 10
116.8931925771
 20
112.8490133726
 10
116.8930364611
 20
113.0234162433
 10
116.9040779431
 20
113.1974650034
 10
116.926270562
 20
113.3704412704
 10
116.9595218193
 20
113.5416315797
 10
117.0036934459
 20
113.7103287635
 10
117.0586020495
 20
113.8758367864
 10
117.1240200701
 20
114.0374734458
 10
117.1996765443
 20
114.1945722054
 10
117.2852582642
 20
114.3464853513
 10
117.3804112614
 20
114.4925870234
 10
117.4847423086
 20
114.6322756089
 10
117.5978201206
 20
114.764975511
 10
117.7191776446
 20
114.8901403928
 10
117.8483143686
 20
115.0072556343
 10
117.9846966702
 20
115.1158386203
  0
LWPOLYLINE
  5
3C9
100
AcDbEntity
  8
0
100
AcDbPolyline
 62
253
  6
CONTINUOUS
 90
50
 70
0
 10
121.391977776
 20
110.5677743173
 10
121.2351166955
 20
110.4573008814
 10
121.0729486684
 20
110.3578288973
 10
120.9054736946
 20
110.2693582699
 10
120.7319706283
 20
110.1916297306
 10
120.5531606154
 20
110.124902386
 10
120.3712070934
 20
110.0699537134
 10
120.1860618421
 20
110.0269143136
 10
119.9977730818
 20
109.9956534776
 10
119.8086489104
 20
109.9765567308
 10
119.6186774353
 20
109.9697735384
 10
119.4278705491
 20
109.9751544051
 10
119.2385720281
 20
109.992636435
 10
119.0508012298
 20
110.0223684604
 10
118.8645387966
 20
110.0642017035
 10
118.682070432
 20
110.1176268716
 10
118.5034412597
 20
110.1827871852
 10
118.328606156
 20
110.2595395514
 10
118.1597154529
 20
110.3469452159
 10
117.996841857
 20
110.4451362959
 10
117.8399126618
 20
110.5539808485
 10
117.6908600804
 20
110.672144022
 10
117.5497810518
 20
110.7997416979
 10
117.4165786371
 20
110.9366581802
 10
117.2928942324
 20
111.0812112244
 10
117.1788454894
 20
111.2334959438
 10
117.0743147564
 20
111.3934173862
 10
116.9805904752
 20
111.5590081662
 10
116.897806612
 20
111.7303387419
 10
116.8258292005
 20
111.9073387636
 10
116.7655447836
 20
112.0878295792
 10
116.7170983901
 20
112.2718543606
 10
116.6803449912
 20
112.4593699769
 10
116.6557360431
 20
112.6480682621
 10
116.6434220695
 20
112.8379634669
 10
116.6432525466
 20
113.0290413148
 10
116.6552273604
 20
113.2189507913
 10
116.6794967863
 20
113.4076768818
 10
116.7159105488
 20
113.5952345215
 10
116.7640177067
 20
113.7793175729
 10
116.8239626012
 20
113.9598823767
 10
116.8956008912
 20
114.13697248
 10
116.9780486117
 20
114.308412519
 10
117.0714388883
 20
114.4741321618
 10
117.1756385955
 20
114.6342016183
 10
117.2893643921
 20
114.7866563142
 10
117.4127333011
 20
114.9314018626
 10
117.5456282996
 20
115.0685325379
 10
117.6864149772
 20
115.1963667454
 10
117.8351895426
 20
115.3147895064
  0
LINE
  5
3CA
100
AcDbEntity
  8
0
100
AcDbLine
 62
7
  6
CONTINUOUS
 10
121.2542570657
 20
110.7992635608
 11
121.2764487269
 21
110.8143983423
  0
LINE
  5
3CB
100
AcDbEntity
  8
RACCORDO
100
AcDbLine
 62
253
  6
CONTINUOUS
 10
107.2185733438
 20
142.1765997008
 11
107.2067854097
 21
142.1883876349
  0
LINE
  5
3CC
100
AcDbEntity
  8
RACCORDO
100
AcDbLine
 62
253
  6
CONTINUOUS
 10
107.4685699168
 20
142.4265962739
 11
107.4567819828
 21
142.4383842079
  0
LINE
  5
3CD
100
AcDbEntity
  8
0
100
AcDbLine
 62
7
  6
CONTINUOUS
 10
127.8877020012
 20
122.9383842079
 11
126.8270418294
 21
124.4383842079
  0
LINE
  5
3CE
100
AcDbEntity
  8
0
100
AcDbLine
 62
7
  6
CONTINUOUS
 10
127.3220165762
 20
124.4383842079
 11
128.382676748
 21
122.9383842079
  0
LWPOLYLINE
  5
3CF
100
AcDbEntity
  8
RACCORDO
100
AcDbPolyline
 62
7
  6
CONTINUOUS
 90
16
 70
0
 10
129.7133373082
 20
141.205371506
 10
129.71460438
 20
141.1917143457
 10
129.7181945719
 20
141.1778866799
 10
129.7241535314
 20
141.1640918207
 10
129.7324978066
 20
141.1506264991
 10
129.7432253077
 20
141.1376264446
 10
129.7563270087
 20
141.1250695735
 10
129.7717497591
 20
141.1131978595
 10
129.7894124959
 20
141.1022414863
 10
129.8092412762
 20
141.0921785738
 10
129.8310867187
 20
141.0832554419
 10
129.8547769647
 20
141.0757048065
 10
129.880173993
 20
141.0695057054
 10
129.907057
 20
141.064812454
 10
129.9351072727
 20
141.0619251221
 10
129.9639883857
 20
141.0610339387
  0
LINE
  5
3D0
100
AcDbEntity
  8
RACCORDO
100
AcDbLine
 62
7
  6
CONTINUOUS
 10
132.1067854097
 20
142.1883876349
 11
132.1046458344
 21
142.2210181694
  0
LWPOLYLINE
  5
3D1
100
AcDbEntity
  8
RACCORDO
100
AcDbPolyline
 62
7
  6
CONTINUOUS
 90
16
 70
0
 10
132.0949974757
 20
142.1765997008
 10
132.0936134356
 20
142.2028625455
 10
132.0894793499
 20
142.2288287661
 10
132.0826428467
 20
142.2542114377
 10
132.0731879826
 20
142.2787156421
 10
132.0612175262
 20
142.3020874314
 10
132.0468365989
 20
142.3241090423
 10
132.0301533315
 20
142.3445733873
 10
132.0113732035
 20
142.3631924174
 10
131.9908020836
 20
142.379672788
 10
131.9687081828
 20
142.3938399407
 10
131.9453305189
 20
142.4055778548
 10
131.9209869465
 20
142.4147664815
 10
131.8959734899
 20
142.4213432357
 10
131.870552898
 20
142.4252863182
 10
131.8450009026
 20
142.4265962739
  0
LINE
  5
3D2
100
AcDbEntity
  8
RACCORDO
100
AcDbLine
 62
7
  6
CONTINUOUS
 10
132.1067785563
 20
94.5285707736
 11
132.1067718218
 21
94.5293133497
  0
LINE
  5
3D3
100
AcDbEntity
  8
RACCORDO
100
AcDbLine
 62
253
  6
CONTINUOUS
 10
131.8450009026
 20
141.5662154243
 11
131.8495824338
 21
141.0610339387
  0
LINE
  5
3D4
100
AcDbEntity
  8
RACCORDO
100
AcDbLine
 62
253
  6
CONTINUOUS
 10
132.0949974757
 20
141.7827217752
 11
132.1002335113
 21
141.205371506
  0
LINE
  5
3D5
100
AcDbEntity
  8
0
100
AcDbLine
 62
253
  6
CONTINUOUS
 10
131.7712776651
 20
127.5028764633
 11
131.7716607339
 21
124.8385356665
  0
LINE
  5
3D6
100
AcDbEntity
  8
0
100
AcDbLine
 62
253
  6
CONTINUOUS
 10
132.0212258462
 20
127.7577343194
 11
132.0216512341
 21
124.8418359338
  0
LINE
  5
3D7
100
AcDbEntity
  8
0
100
AcDbLine
 62
7
  6
CONTINUOUS
 10
131.7567854097
 20
124.8383842079
 11
131.7567854097
 21
127.4883842079
  0
LINE
  5
3D8
100
AcDbEntity
  8
RACCORDO
100
AcDbLine
 62
253
  6
CONTINUOUS
 10
131.8450009026
 20
142.4265962739
 11
131.8450009026
 21
141.5662154243
  0
LINE
  5
3D9
100
AcDbEntity
  8
RACCORDO
100
AcDbLine
 62
253
  6
CONTINUOUS
 10
131.8450009026
 20
94.3105529916
 11
131.8450009026
 21
93.450172142
  0
LINE
  5
3DA
100
AcDbEntity
  8
RACCORDO
100
AcDbLine
 62
253
  6
CONTINUOUS
 10
131.8502369383
 20
141.0610339387
 11
131.8502369383
 21
140.209772539
  0
LINE
  5
3DB
100
AcDbEntity
  8
RACCORDO
100
AcDbLine
 62
253
  6
CONTINUOUS
 10
131.8502369383
 20
95.6669958769
 11
131.8502369383
 21
94.8157344771
  0
LINE
  5
3DC
100
AcDbEntity
  8
RACCORDO
100
AcDbLine
 62
7
  6
CONTINUOUS
 10
132.0949974757
 20
142.1765997008
 11
132.0949974757
 21
141.7827217752
  0
LINE
  5
3DD
100
AcDbEntity
  8
RACCORDO
100
AcDbLine
 62
7
  6
CONTINUOUS
 10
132.0949974757
 20
94.0940466406
 11
132.0949974757
 21
93.700168715
  0
LINE
  5
3DE
100
AcDbEntity
  8
RACCORDO
100
AcDbLine
 62
7
  6
CONTINUOUS
 10
132.0989313563
 20
94.5278150888
 11
132.0989313563
 21
94.8157344771
  0
LINE
  5
3DF
100
AcDbEntity
  8
RACCORDO
100
AcDbLine
 62
7
  6
CONTINUOUS
 10
132.1002335113
 20
141.205371506
 11
132.1002335113
 21
140.2228058825
  0
LINE
  5
3E0
100
AcDbEntity
  8
RACCORDO
100
AcDbLine
 62
7
  6
CONTINUOUS
 10
132.1002335113
 20
95.6539625333
 11
132.1002335113
 21
94.9593162981
  0
LINE
  5
3E1
100
AcDbEntity
  8
RACCORDO
100
AcDbLine
 62
7
  6
CONTINUOUS
 10
132.1067854097
 20
93.688380781
 11
132.1067854097
 21
95.5883842079
  0
LINE
  5
3E2
100
AcDbEntity
  8
RACCORDO
100
AcDbLine
 62
7
  6
CONTINUOUS
 10
132.1067854097
 20
140.2883842079
 11
132.1067854097
 21
142.1883876349
  0
LINE
  5
3E3
100
AcDbEntity
  8
RACCORDO
100
AcDbLine
 62
7
  6
CONTINUOUS
 10
132.1067718218
 20
141.3474550662
 11
132.1067784451
 21
141.3481853858
  0
LINE
  5
3E4
100
AcDbEntity
  8
RACCORDO
100
AcDbLine
 62
7
  6
CONTINUOUS
 10
132.1067854097
 20
141.3489533271
 11
132.1067652979
 21
141.3467159931
  0
LINE
  5
3E5
100
AcDbEntity
  8
RACCORDO
100
AcDbLine
 62
253
  6
CONTINUOUS
 10
131.8495824338
 20
94.8157344771
 11
131.8450009026
 21
94.3105529916
  0
LINE
  5
3E6
100
AcDbEntity
  8
RACCORDO
100
AcDbLine
 62
7
  6
CONTINUOUS
 10
132.0989313563
 20
94.8157344771
 11
132.1002335113
 21
94.9593162981
  0
LINE
  5
3E7
100
AcDbEntity
  8
RACCORDO
100
AcDbLine
 62
253
  6
CONTINUOUS
 10
132.0989313563
 20
94.5278150888
 11
132.0949974757
 21
94.0940466406
  0
LWPOLYLINE
  5
3E8
100
AcDbEntity
  8
0
100
AcDbPolyline
 62
253
  6
CONTINUOUS
 90
52
 70
0
 10
132.0216512341
 20
124.8418359338
 10
132.0161060291
 20
124.6619427413
 10
131.9996727357
 20
124.4837945965
 10
131.9723513541
 20
124.3073915467
 10
131.9339381446
 20
124.1319553973
 10
131.8846368469
 20
123.9582644265
 10
131.8250586794
 20
123.788653418
 10
131.7551059462
 20
123.6233175154
 10
131.6748763433
 20
123.4620617103
 10
131.5852741771
 20
123.306635602
 10
131.4861962683
 20
123.1570889809
 10
131.3777457962
 20
123.0133721999
 10
131.2611366053
 20
122.8770857271
 10
131.1362688281
 20
122.7483027397
 10
131.0032423321
 20
122.6269501963
 10
130.8635705644
 20
122.5144092512
 10
130.7171798322
 20
122.4107835991
 10
130.5641438283
 20
122.3159696606
 10
130.4061970783
 20
122.2310376832
 10
130.243287222
 20
122.1561007633
 10
130.0754666196
 20
122.0910458905
 10
129.9046268775
 20
122.0366041502
 10
129.7307308917
 20
121.9928945401
 10
129.5538157663
 20
121.959798115
 10
129.3758844202
 20
121.9376890393
 10
129.196928012
 20
121.9266918312
 10
129.0169553831
 20
121.9266819902
 10
128.8379959772
 20
121.9376601445
 10
128.6600581831
 20
121.9597509722
 10
128.4831336121
 20
121.9928297776
 10
128.3092265412
 20
122.0365231195
 10
128.1383741481
 20
122.0909501717
 10
127.9705392552
 20
122.1559917079
 10
127.8076146065
 20
122.2309166807
 10
127.6496526982
 20
122.3158382574
 10
127.4966010342
 20
122.4106431847
 10
127.3501948701
 20
122.5142607818
 10
127.210508194
 20
122.6267943959
 10
127.0774670178
 20
122.7481405645
 10
126.9525846329
 20
122.8769183967
 10
126.8359611517
 20
123.0132002516
 10
126.7274964617
 20
123.1569136342
 10
126.6284035171
 20
123.3064603872
 10
126.5387842833
 20
123.461891917
 10
126.4585367948
 20
123.6231566737
 10
126.3885681088
 20
123.7885020896
 10
126.328977073
 20
123.9581189093
 10
126.2796648396
 20
124.1318162531
 10
126.2412419227
 20
124.3072691586
 10
126.2139118271
 20
124.4837026216
 10
126.197471048
 20
124.6618915625
 10
126.1919195854
 20
124.8418359338
  0
LWPOLYLINE
  5
3E9
100
AcDbEntity
  8
RACCORDO
100
AcDbPolyline
 62
7
  6
CONTINUOUS
 90
16
 70
0
 10
132.0949974757
 20
93.700168715
 10
132.0936134357
 20
93.6739058715
 10
132.0894793502
 20
93.6479396513
 10
132.0826428471
 20
93.6225569796
 10
132.0731879826
 20
93.5980527739
 10
132.0612175254
 20
93.574680983
 10
132.0468365972
 20
93.5526593713
 10
132.0301533296
 20
93.5321950264
 10
132.0113732018
 20
93.5135759969
 10
131.9908020825
 20
93.4970956271
 10
131.9687081831
 20
93.4829284753
 10
131.945330521
 20
93.471190562
 10
131.9209869497
 20
93.4620019354
 10
131.8959734929
 20
93.4554251808
 10
131.8705529
 20
93.4514820979
 10
131.8450009026
 20
93.450172142
  0
LINE
  5
3EA
100
AcDbEntity
  8
RACCORDO
100
AcDbLine
 62
7
  6
CONTINUOUS
 10
132.1067854097
 20
93.688380781
 11
132.1046458344
 21
93.6557502465
  0
LINE
  5
3EB
100
AcDbEntity
  8
RACCORDO
100
AcDbLine
 62
7
  6
CONTINUOUS
 10
128.5046458344
 20
93.6557502465
 11
128.4982655049
 21
93.62367801
  0
LWPOLYLINE
  5
3EC
100
AcDbEntity
  8
RACCORDO
100
AcDbPolyline
 62
7
  6
CONTINUOUS
 90
9
 70
0
 10
107.2133373082
 20
95.6608013834
 10
107.2145813159
 20
95.6617917448
 10
107.2180537906
 20
95.6625331142
 10
107.2237224078
 20
95.6630254916
 10
107.2315476811
 20
95.6631572072
 10
107.241451764
 20
95.6630399307
 10
107.2532904844
 20
95.6630086719
 10
107.2669125126
 20
95.6631751005
 10
107.2989667251
 20
95.6637660106
  0
LWPOLYLINE
  5
3ED
100
AcDbEntity
  8
0
100
AcDbPolyline
 62
7
  6
CONTINUOUS
 90
21
 70
0
 10
121.2764487269
 20
110.8143983423
 10
121.2994953758
 20
110.8269361948
 10
121.3233970122
 20
110.8368771182
 10
121.3483498802
 20
110.8442793301
 10
121.3741577357
 20
110.8490846129
 10
121.4002318473
 20
110.8511183142
 10
121.4267087415
 20
110.8503268442
 10
121.4534518916
 20
110.8467637928
 10
121.4794629864
 20
110.8404152775
 10
121.5047584269
 20
110.8310994639
 10
121.5293218121
 20
110.8189981863
 10
121.5521056271
 20
110.804643065
 10
121.5729437966
 20
110.7879637261
 10
121.592002396
 20
110.7690305435
 10
121.6087321364
 20
110.7485862586
 10
121.6230358678
 20
110.7266735821
 10
121.6350107402
 20
110.7032498033
 10
121.6443989145
 20
110.6789295323
 10
121.6511144444
 20
110.6539176391
 10
121.6552432761
 20
110.6280092536
 10
121.6567854097
 20
110.6012043759
  0
LWPOLYLINE
  5
3EE
100
AcDbEntity
  8
0
100
AcDbPolyline
 62
7
  6
CONTINUOUS
 90
6
 70
0
 10
134.3414954821
 20
117.3286741356
 10
134.3390105432
 20
117.3304888702
 10
134.3344208801
 20
117.3351822476
 10
134.3277264927
 20
117.3423669386
 10
134.3186504591
 20
117.3516085183
 10
134.3074697012
 20
117.362552351
  0
LINE
  5
3EF
100
AcDbEntity
  8
0
100
AcDbLine
 62
7
  6
CONTINUOUS
 10
134.1095399366
 20
117.5606340477
 11
134.0915050013
 21
117.5784846666
  0
LINE
  5
3F0
100
AcDbEntity
  8
0
100
AcDbLine
 62
7
  6
CONTINUOUS
 10
134.3414975981
 20
117.3286720196
 11
134.3567854097
 21
117.3133842079
  0
LINE
  5
3F1
100
AcDbEntity
  8
0
100
AcDbLine
 62
7
  6
CONTINUOUS
 10
134.2664898147
 20
117.403496373
 11
134.1998891154
 21
117.4700947317
  0
LWPOLYLINE
  5
3F2
100
AcDbEntity
  8
0
100
AcDbPolyline
 62
7
  6
CONTINUOUS
 90
3
 70
0
 10
134.3074697012
 20
117.362552351
 10
134.281389379
 20
117.3887621777
 10
134.2664898147
 20
117.403496373
  0
LINE
  5
3F3
100
AcDbEntity
  8
0
100
AcDbLine
 62
7
  6
CONTINUOUS
 10
134.1998891154
 20
117.4700947317
 11
134.1095399366
 21
117.5606340477
  0
LINE
  5
3F4
100
AcDbEntity
  8
0
100
AcDbLine
 62
253
  6
CONTINUOUS
 10
136.5716025861
 20
110.5712816834
 11
136.5567854097
 21
110.6012043759
  0
LINE
  5
3F5
100
AcDbEntity
  8
0
100
AcDbLine
 62
7
  6
CONTINUOUS
 10
129.8908553583
 20
122.3084731975
 11
129.584988687
 21
122.9383842079
  0
LINE
  5
3F6
100
AcDbEntity
  8
0
100
AcDbLine
 62
7
  6
CONTINUOUS
 10
130.196926657
 20
122.9383842079
 11
130.397502142
 21
122.5253130292
  0
LINE
  5
3F7
100
AcDbEntity
  8
0
100
AcDbLine
 62
253
  6
CONTINUOUS
 10
136.9721196294
 20
110.7708740089
 11
136.959313754
 21
110.7992635607
  0
LINE
  5
3F8
100
AcDbEntity
  8
RACCORDO
100
AcDbLine
 62
7
  6
CONTINUOUS
 10
128.5046458344
 20
142.2210181694
 11
128.4982655049
 21
142.2530904058
  0
LINE
  5
3F9
100
AcDbEntity
  8
0
100
AcDbLine
 62
253
  6
CONTINUOUS
 10
134.0923152478
 20
108.2940918999
 11
134.091699655
 21
113.1895614933
  0
LINE
  5
3FA
100
AcDbEntity
  8
0
100
AcDbLine
 62
253
  6
CONTINUOUS
 10
134.091699655
 20
113.1895614933
 11
134.0915050013
 21
117.5784846666
  0
LINE
  5
3FB
100
AcDbEntity
  8
0
100
AcDbLine
 62
253
  6
CONTINUOUS
 10
134.3422641929
 20
108.5488629911
 11
134.341690459
 21
113.1898051043
  0
LINE
  5
3FC
100
AcDbEntity
  8
0
100
AcDbLine
 62
253
  6
CONTINUOUS
 10
134.341690459
 20
113.1898051043
 11
134.3414975981
 21
117.3286720196
  0
LINE
  5
3FD
100
AcDbEntity
  8
0
100
AcDbLine
 62
7
  6
CONTINUOUS
 10
134.3567854097
 20
117.3133842079
 11
134.3567854097
 21
108.5633842079
  0
LINE
  5
3FE
100
AcDbEntity
  8
RACCORDO
100
AcDbLine
 62
7
  6
CONTINUOUS
 10
135.9597112479
 20
141.7354583697
 11
135.9597112479
 21
140.2620278711
  0
LINE
  5
3FF
100
AcDbEntity
  8
RACCORDO
100
AcDbLine
 62
7
  6
CONTINUOUS
 10
135.9597112479
 20
95.6147405448
 11
135.9597112479
 21
94.1413100461
  0
LINE
  5
400
100
AcDbEntity
  8
0
100
AcDbLine
 62
7
  6
CONTINUOUS
 10
136.5720753374
 20
117.3286741356
 11
136.5567854097
 21
117.3133842079
  0
LINE
  5
401
100
AcDbEntity
  8
0
100
AcDbLine
 62
7
  6
CONTINUOUS
 10
136.6961845801
 20
117.452573701
 11
136.8040156951
 21
117.5606187824
  0
LINE
  5
402
100
AcDbEntity
  8
0
100
AcDbLine
 62
7
  6
CONTINUOUS
 10
136.6790821353
 20
117.4355889059
 11
136.6961845801
 21
117.452573701
  0
LINE
  5
403
100
AcDbEntity
  8
0
100
AcDbLine
 62
7
  6
CONTINUOUS
 10
136.8040156951
 20
117.5606187824
 11
136.8220658182
 21
117.5784846666
  0
LWPOLYLINE
  5
404
100
AcDbEntity
  8
0
100
AcDbPolyline
 62
7
  6
CONTINUOUS
 90
3
 70
0
 10
136.6321945255
 20
117.3887756811
 10
136.6470871079
 20
117.4035028821
 10
136.6790821353
 20
117.4355889059
  0
LWPOLYLINE
  5
405
100
AcDbEntity
  8
0
100
AcDbPolyline
 62
7
  6
CONTINUOUS
 90
7
 70
0
 10
136.5720753374
 20
117.3286741356
 10
136.5745661438
 20
117.330491345
 10
136.5791604981
 20
117.3351901541
 10
136.5858584002
 20
117.342380975
 10
136.5949372159
 20
117.3516267588
 10
136.6061195794
 20
117.3625714516
 10
136.6321945255
 20
117.3887756811
  0
LWPOLYLINE
  5
406
100
AcDbEntity
  8
0
100
AcDbPolyline
 62
7
  6
CONTINUOUS
 90
50
 70
0
 10
136.9724765648
 20
115.1066811697
 10
137.1150775569
 20
115.2071528748
 10
137.2638069677
 20
115.2982434949
 10
137.4180476929
 20
115.3795826553
 10
137.577149536
 20
115.4508360389
 10
137.7404642048
 20
115.5117216757
 10
137.9073507276
 20
115.5620039512
 10
138.0771323128
 20
115.6014774738
 10
138.2490987493
 20
115.6299756469
 10
138.4225435825
 20
115.6473808569
 10
138.5967530847
 20
115.6536205905
 10
138.77100804
 20
115.6486681696
 10
138.9445890129
 20
115.6325433478
 10
139.1167790366
 20
115.6053122932
 10
139.286869482
 20
115.5670866042
 10
139.4541617673
 20
115.5180223427
 10
139.6179666183
 20
115.4583204044
 10
139.7776073584
 20
115.3882261111
 10
139.932425469
 20
115.3080272329
 10
140.0817820399
 20
115.218053389
 10
140.2250603101
 20
115.1186747193
 10
140.3616684687
 20
115.0103001556
 10
140.4910424204
 20
114.8933757063
 10
140.6126475001
 20
114.7683830211
 10
140.7259806353
 20
114.6358375236
 10
140.8305735897
 20
114.4962852429
 10
140.9259938171
 20
114.350301645
 10
141.0118459716
 20
114.1984899735
 10
141.0877752118
 20
114.0414762536
 10
141.1534675126
 20
113.879908354
 10
141.2086505784
 20
113.7144548159
 10
141.2530964072
 20
113.5457983056
 10
141.2866212925
 20
113.3746350095
 10
141.3090864965
 20
113.2016737829
 10
141.3203994933
 20
113.0276285249
 10
141.3205138553
 20
112.8532176042
 10
141.3094297883
 20
112.6791632756
 10
141.2871937346
 20
112.5061839013
 10
141.2538981968
 20
112.3349931504
 10
141.209682179
 20
112.1662993238
 10
141.1547293077
 20
112.0007984684
 10
141.0892673494
 20
111.8391727577
 10
141.0135683378
 20
111.6820895224
 10
140.9279459261
 20
111.5301963864
 10
140.8327543629
 20
111.3841188749
 10
140.7283879161
 20
111.2444587097
 10
140.6152783691
 20
111.111791212
 10
140.4938929618
 20
110.9866621377
 10
140.3647327751
 20
110.8695855272
 10
140.2283317822
 20
110.7610435619
  0
LWPOLYLINE
  5
407
100
AcDbEntity
  8
0
100
AcDbPolyline
 62
253
  6
CONTINUOUS
 90
50
 70
0
 10
136.8220064467
 20
115.3048206329
 10
136.978896384
 20
115.4152734983
 10
137.1410930139
 20
115.51472293
 10
137.3085963362
 20
115.6031688918
 10
137.4821280776
 20
115.6808705769
 10
137.6609665114
 20
115.7475687363
 10
137.8429464581
 20
115.8024856761
 10
138.0281161725
 20
115.8454904257
 10
138.2164273996
 20
115.876713925
 10
138.4055701952
 20
115.8957713504
 10
138.5955562097
 20
115.9025129542
 10
138.7863737926
 20
115.8970884763
 10
138.9756780482
 20
115.8795623304
 10
139.1634492094
 20
115.8497856764
 10
139.3497070432
 20
115.8079073689
 10
139.5321659553
 20
115.7544383692
 10
139.7107804557
 20
115.6892357496
 10
139.8855960343
 20
115.612442476
 10
140.0544635659
 20
115.5249983536
 10
140.2173101898
 20
115.4267717351
 10
140.3742087668
 20
115.3178943322
 10
140.5232287537
 20
115.1997009904
 10
140.6642733219
 20
115.0720762614
 10
140.7974393001
 20
114.9351356842
 10
140.9210866313
 20
114.7905605815
 10
141.0350979431
 20
114.6382560475
 10
141.1395906079
 20
114.4783171005
 10
141.2332766862
 20
114.3127099376
 10
141.3160224725
 20
114.1413640167
 10
141.3879616724
 20
113.9643500019
 10
141.4482074624
 20
113.7838458764
 10
141.4966148891
 20
113.5998081805
 10
141.5333289059
 20
113.4122804862
 10
141.5578975502
 20
113.2235712878
 10
141.5701701363
 20
113.0336660294
 10
141.5702973498
 20
112.8425793466
 10
141.5582792843
 20
112.6526634731
 10
141.5339653594
 20
112.4639332768
 10
141.4975061553
 20
112.2763739159
 10
141.4493535065
 20
112.0922930016
 10
141.3893628105
 20
111.9117342709
 10
141.3176786698
 20
111.734653946
 10
141.2351867255
 20
111.5632283063
 10
141.1417538056
 20
111.3975279088
 10
141.0375130822
 20
111.2374820885
 10
140.9237497134
 20
111.0850552362
 10
140.8003468986
 20
110.940341939
 10
140.6674214383
 20
110.8032474493
 10
140.5266088918
 20
110.6754521135
 10
140.3778134485
 20
110.5570709244
  0
LINE
  5
408
100
AcDbEntity
  8
0
100
AcDbLine
 62
7
  6
CONTINUOUS
 10
136.9593137539
 20
115.0775048551
 11
136.9371362446
 21
115.0623710164
  0
LWPOLYLINE
  5
409
100
AcDbEntity
  8
0
100
AcDbPolyline
 62
7
  6
CONTINUOUS
 90
21
 70
0
 10
136.9371362446
 20
115.0623710164
 10
136.9140906449
 20
115.0498335353
 10
136.8901769548
 20
115.0398924117
 10
136.8651804204
 20
115.032490727
 10
136.8393157955
 20
115.0276853999
 10
136.8132273423
 20
115.025647186
 10
136.7868219405
 20
115.0264269958
 10
136.7601927103
 20
115.0299739187
 10
136.7342632747
 20
115.0363059789
 10
136.7089880532
 20
115.0455976982
 10
136.6844126264
 20
115.0576745546
 10
136.6615973578
 20
115.0720310067
 10
136.6406963271
 20
115.0887649993
 10
136.6215554546
 20
115.1077785876
 10
136.6047728659
 20
115.128272395
 10
136.5904743114
 20
115.1501709648
 10
136.5785340407
 20
115.1735497538
 10
136.5691729277
 20
115.1978357563
 10
136.5624645972
 20
115.2228379706
 10
136.5583354246
 20
115.2487473985
 10
136.5567854097
 20
115.27556404
  0
LWPOLYLINE
  5
40A
100
AcDbEntity
  8
0
100
AcDbPolyline
 62
253
  6
CONTINUOUS
 90
6
 70
0
 10
131.8240825079
 20
124.8404756331
 10
131.8058671551
 20
124.8401014685
 10
131.7913030952
 20
124.8396982446
 10
131.7806367803
 20
124.8392727846
 10
131.7740487052
 20
124.838832288
 10
131.771650353
 20
124.8383842091
  0
LINE
  5
40B
100
AcDbEntity
  8
0
100
AcDbLine
 62
253
  6
CONTINUOUS
 10
131.8701775648
 20
124.8411120563
 11
131.8240825079
 21
124.8404756331
  0
LINE
  5
40C
100
AcDbEntity
  8
0
100
AcDbLine
 62
253
  6
CONTINUOUS
 10
131.7567854097
 20
124.8383842079
 11
131.7716607339
 21
124.8385356665
  0
LINE
  5
40D
100
AcDbEntity
  8
0
100
AcDbLine
 62
253
  6
CONTINUOUS
 10
131.9264813938
 20
124.8415646185
 11
131.8701775648
 21
124.8411120563
  0
LINE
  5
40E
100
AcDbEntity
  8
0
100
AcDbLine
 62
253
  6
CONTINUOUS
 10
132.0216512341
 20
124.8418359103
 11
131.9264813938
 21
124.8415646185
  0
LINE
  5
40F
100
AcDbEntity
  8
0
100
AcDbLine
 62
7
  6
CONTINUOUS
 10
130.3258688183
 20
122.9383842079
 11
129.8308940715
 21
122.9383842079
  0
LINE
  5
410
100
AcDbEntity
  8
0
100
AcDbLine
 62
7
  6
CONTINUOUS
 10
127.8877020012
 20
122.9383842079
 11
128.382676748
 21
122.9383842079
  0
LINE
  5
411
100
AcDbEntity
  8
0
100
AcDbLine
 62
7
  6
CONTINUOUS
 10
128.382676748
 20
122.9383842079
 11
129.0041948665
 21
122.9383842079
  0
LINE
  5
412
100
AcDbEntity
  8
0
100
AcDbLine
 62
7
  6
CONTINUOUS
 10
129.209375953
 20
122.9383842079
 11
129.8308940715
 21
122.9383842079
  0
LINE
  5
413
100
AcDbEntity
  8
0
100
AcDbLine
 62
7
  6
CONTINUOUS
 10
131.3865289901
 20
124.4383842079
 11
130.8915542433
 21
124.4383842079
  0
LINE
  5
414
100
AcDbEntity
  8
0
100
AcDbLine
 62
7
  6
CONTINUOUS
 10
126.8270418294
 20
124.4383842079
 11
127.3220165762
 21
124.4383842079
  0
LINE
  5
415
100
AcDbEntity
  8
0
100
AcDbLine
 62
253
  6
CONTINUOUS
 10
126.1919195854
 20
124.8418359338
 11
126.2870863654
 21
124.8415645951
  0
LINE
  5
416
100
AcDbEntity
  8
0
100
AcDbLine
 62
253
  6
CONTINUOUS
 10
126.2870863654
 20
124.8415645951
 11
126.3433878273
 21
124.8411120192
  0
LINE
  5
417
100
AcDbEntity
  8
0
100
AcDbLine
 62
253
  6
CONTINUOUS
 10
126.4567854097
 20
124.8383842079
 11
126.4419100854
 21
124.8385343784
  0
LWPOLYLINE
  5
418
100
AcDbEntity
  8
0
100
AcDbPolyline
 62
253
  6
CONTINUOUS
 90
7
 70
0
 10
126.3433878273
 20
124.8411120192
 10
126.3894806951
 20
124.8404755954
 10
126.4076951243
 20
124.8401014348
 10
126.4222584206
 20
124.8396982171
 10
126.4329241587
 20
124.8392727651
 10
126.439511864
 20
124.8388322778
 10
126.4419100661
 20
124.8383842087
  0
LWPOLYLINE
  5
419
100
AcDbEntity
  8
0
100
AcDbPolyline
 62
7
  6
CONTINUOUS
 90
6
 70
0
 10
126.4423354541
 20
127.5028341636
 10
126.4400275601
 20
127.504842277
 10
126.4355832949
 20
127.5099853471
 10
126.4290026584
 20
127.517732567
 10
126.4199987829
 20
127.527470659
 10
126.4088585362
 20
127.5387620397
  0
LINE
  5
41A
100
AcDbEntity
  8
0
100
AcDbLine
 62
7
  6
CONTINUOUS
 10
126.2106147797
 20
127.7396380721
 11
126.1923449733
 21
127.7577343194
  0
LINE
  5
41B
100
AcDbEntity
  8
0
100
AcDbLine
 62
7
  6
CONTINUOUS
 10
126.4567854097
 20
127.4883842079
 11
126.4423354541
 21
127.5028341636
  0
LINE
  5
41C
100
AcDbEntity
  8
0
100
AcDbLine
 62
7
  6
CONTINUOUS
 10
126.3360749621
 20
127.613171441
 11
126.2106147797
 21
127.7396380721
  0
LINE
  5
41D
100
AcDbEntity
  8
0
100
AcDbLine
 62
7
  6
CONTINUOUS
 10
126.3680139281
 20
127.5805989528
 11
126.3360749621
 21
127.613171441
  0
LWPOLYLINE
  5
41E
100
AcDbEntity
  8
0
100
AcDbPolyline
 62
7
  6
CONTINUOUS
 90
3
 70
0
 10
126.4088585362
 20
127.5387620397
 10
126.3828661088
 20
127.5655932262
 10
126.3680139281
 20
127.5805989528
  0
LWPOLYLINE
  5
41F
100
AcDbEntity
  8
0
100
AcDbPolyline
 62
253
  6
CONTINUOUS
 90
19
 70
0
 10
136.5720159787
 20
115.3063157889
 10
136.5739136473
 20
115.2756131378
 10
136.5795685338
 20
115.2453754601
 10
136.5888949983
 20
115.2160606874
 10
136.6017517971
 20
115.1881127744
 10
136.6179442216
 20
115.1619549757
 10
136.6372270472
 20
115.1379834356
 10
136.659308247
 20
115.1165611887
 10
136.6838534143
 20
115.0980126622
 10
136.7104908272
 20
115.0826187626
 10
136.7388170779
 20
115.0706126212
 10
136.7684031823
 20
115.0621760639
 10
136.7988010764
 20
115.0574368574
 10
136.8295504021
 20
115.0564667741
 10
136.8601854793
 20
115.0592805053
 10
136.8902423583
 20
115.0658354389
 10
136.9192658457
 20
115.0760323044
 10
136.9468163979
 20
115.0897166765
 10
136.9724767781
 20
115.1066813138
  0
LINE
  5
420
100
AcDbEntity
  8
RACCORDO
100
AcDbLine
 62
253
  6
CONTINUOUS
 10
136.4597027864
 20
141.5337265594
 11
136.4597027864
 21
140.2359764286
  0
LINE
  5
421
100
AcDbEntity
  8
RACCORDO
100
AcDbLine
 62
253
  6
CONTINUOUS
 10
136.4597027864
 20
95.6407919872
 11
136.4597027864
 21
94.3430418565
  0
LINE
  5
422
100
AcDbEntity
  8
0
100
AcDbLine
 62
7
  6
CONTINUOUS
 10
136.5567854097
 20
108.5633842079
 11
136.5567854097
 21
110.6012043759
  0
LINE
  5
423
100
AcDbEntity
  8
0
100
AcDbLine
 62
7
  6
CONTINUOUS
 10
136.5567854097
 20
115.27556404
 11
136.5567854097
 21
117.3133842079
  0
LINE
  5
424
100
AcDbEntity
  8
0
100
AcDbLine
 62
253
  6
CONTINUOUS
 10
136.5720732214
 20
117.3286720196
 11
136.5720159197
 21
115.3063154531
  0
LINE
  5
425
100
AcDbEntity
  8
0
100
AcDbLine
 62
253
  6
CONTINUOUS
 10
136.8220658182
 20
117.5784846666
 11
136.8220064467
 21
115.3048206329
  0
LINE
  5
426
100
AcDbEntity
  8
RACCORDO
100
AcDbLine
 62
7
  6
CONTINUOUS
 10
138.1067854097
 20
115.591395534
 11
138.1067854097
 21
110.2853728819
  0
LINE
  5
427
100
AcDbEntity
  8
0
100
AcDbLine
 62
253
  6
CONTINUOUS
 10
136.5716025861
 20
110.5712816834
 11
136.5713066266
 21
108.5488629911
  0
LINE
  5
428
100
AcDbEntity
  8
0
100
AcDbLine
 62
253
  6
CONTINUOUS
 10
136.821593244
 20
110.5684459437
 11
136.8212555717
 21
108.2940918999
  0
LWPOLYLINE
  5
429
100
AcDbEntity
  8
0
100
AcDbPolyline
 62
7
  6
CONTINUOUS
 90
22
 70
0
 10
136.5567854097
 20
110.6012043759
 10
136.5583800968
 20
110.6283997295
 10
136.562623106
 20
110.6546546683
 10
136.5695144375
 20
110.6799691923
 10
136.5792122303
 20
110.7046002051
 10
136.5915583454
 20
110.7282908031
 10
136.6060783656
 20
110.7502702758
 10
136.6228046367
 20
110.7704547112
 10
136.641704813
 20
110.7889280213
 10
136.6622074403
 20
110.8051712309
 10
136.6843712058
 20
110.8191443681
 10
136.7081374223
 20
110.8308874048
 10
136.732758574
 20
110.8400012829
 10
136.7582738136
 20
110.8464063294
 10
136.7846439884
 20
110.8501822172
 10
136.8110041254
 20
110.8511689062
 10
136.8373588799
 20
110.8492735023
 10
136.8637035967
 20
110.8445888995
 10
136.8891593363
 20
110.8372337398
 10
136.9134331192
 20
110.8272475704
 10
136.9368179251
 20
110.8145908441
 10
136.9593137538
 20
110.7992635608
  0
LINE
  5
42A
100
AcDbEntity
  8
RACCORDO
100
AcDbLine
 62
7
  6
CONTINUOUS
 10
132.1046458344
 20
93.6557502465
 11
132.0982655049
 21
93.62367801
  0
LWPOLYLINE
  5
42B
100
AcDbEntity
  8
RACCORDO
100
AcDbPolyline
 62
7
  6
CONTINUOUS
 90
9
 70
0
 10
128.4982655049
 20
93.62367801
 10
128.4877535867
 20
93.5927128173
 10
128.4732899353
 20
93.5633844729
 10
128.4551220192
 20
93.5361947755
 10
128.4335606857
 20
93.511608932
 10
128.4089748422
 20
93.4900475985
 10
128.3817851448
 20
93.4718796824
 10
128.3524568004
 20
93.457416031
 10
128.3214916077
 20
93.4469041128
  0
LINE
  5
42C
100
AcDbEntity
  8
0
100
AcDbLine
 62
253
  6
CONTINUOUS
 10
136.959313754
 20
115.0775048551
 11
136.9724765648
 21
115.1066811697
  0
LINE
  5
42D
100
AcDbEntity
  8
0
100
AcDbLine
 62
253
  6
CONTINUOUS
 10
136.5567854097
 20
115.27556404
 11
136.5720159197
 21
115.3063154531
  0
LWPOLYLINE
  5
42E
100
AcDbEntity
  8
RACCORDO
100
AcDbPolyline
 62
7
  6
CONTINUOUS
 90
9
 70
0
 10
128.4982655049
 20
142.2530904058
 10
128.4877535867
 20
142.2840555986
 10
128.4732899353
 20
142.3133839429
 10
128.4551220192
 20
142.3405736404
 10
128.4335606857
 20
142.3651594838
 10
128.4089748422
 20
142.3867208174
 10
128.3817851448
 20
142.4048887335
 10
128.3524568004
 20
142.4193523848
 10
128.3214916077
 20
142.4298643031
  0
LINE
  5
42F
100
AcDbEntity
  8
RACCORDO
100
AcDbLine
 62
7
  6
CONTINUOUS
 10
132.1046458344
 20
142.2210181694
 11
132.0982655049
 21
142.2530904058
  0
LWPOLYLINE
  5
430
100
AcDbEntity
  8
RACCORDO
100
AcDbPolyline
 62
7
  6
CONTINUOUS
 90
9
 70
0
 10
132.0982655049
 20
93.62367801
 10
132.0877535867
 20
93.5927128173
 10
132.0732899353
 20
93.5633844729
 10
132.0551220192
 20
93.5361947755
 10
132.0335606857
 20
93.511608932
 10
132.0089748422
 20
93.4900475985
 10
131.9817851448
 20
93.4718796824
 10
131.9524568004
 20
93.457416031
 10
131.9214916077
 20
93.4469041128
  0
LWPOLYLINE
  5
431
100
AcDbEntity
  8
RACCORDO
100
AcDbPolyline
 62
7
  6
CONTINUOUS
 90
9
 70
0
 10
148.6153053146
 20
142.2530904058
 10
148.6258172328
 20
142.2840555986
 10
148.6402808842
 20
142.3133839429
 10
148.6584488003
 20
142.3405736404
 10
148.6800101338
 20
142.3651594838
 10
148.7045959773
 20
142.3867208174
 10
148.7317856747
 20
142.4048887335
 10
148.7611140191
 20
142.4193523848
 10
148.7920792118
 20
142.4298643031
  0
LWPOLYLINE
  5
432
100
AcDbEntity
  8
0
100
AcDbPolyline
 62
253
  6
CONTINUOUS
 90
13
 70
0
 10
136.8215930346
 20
110.5675966825
 10
136.8419752213
 20
110.5929542034
 10
136.8612651579
 20
110.6187899685
 10
136.8794611932
 20
110.6442766985
 10
136.8972910987
 20
110.6678305667
 10
136.9141357644
 20
110.689353403
 10
136.928407144
 20
110.7098601036
 10
136.9414308644
 20
110.7277311233
 10
136.9530978186
 20
110.7420458819
 10
136.960950881
 20
110.7543243068
 10
136.9653983074
 20
110.7643259121
 10
136.9687516352
 20
110.7702160423
 10
136.9721192029
 20
110.7708744488
  0
LWPOLYLINE
  5
433
100
AcDbEntity
  8
0
100
AcDbPolyline
 62
7
  6
CONTINUOUS
 90
3
 70
0
 10
134.2830798969
 20
108.4864607212
 10
134.2680907411
 20
108.4713195386
 10
134.2358340553
 20
108.4384249813
  0
LINE
  5
434
100
AcDbEntity
  8
0
100
AcDbLine
 62
7
  6
CONTINUOUS
 10
134.2358340553
 20
108.4384249813
 11
134.1829758534
 21
108.3850375583
  0
LWPOLYLINE
  5
435
100
AcDbEntity
  8
0
100
AcDbPolyline
 62
7
  6
CONTINUOUS
 90
3
 70
0
 10
134.1646527116
 20
108.3666802441
 10
134.1102835476
 20
108.3118844741
 10
134.0923152478
 20
108.2940918999
  0
LINE
  5
436
100
AcDbEntity
  8
0
100
AcDbLine
 62
7
  6
CONTINUOUS
 10
134.1829758534
 20
108.3850375583
 11
134.1646527116
 21
108.3666802441
  0
LINE
  5
437
100
AcDbEntity
  8
0
100
AcDbLine
 62
7
  6
CONTINUOUS
 10
134.3423057286
 20
108.5489045268
 11
134.3567854097
 21
108.5633842079
  0
LWPOLYLINE
  5
438
100
AcDbEntity
  8
0
100
AcDbPolyline
 62
7
  6
CONTINUOUS
 90
7
 70
0
 10
134.3423057286
 20
108.5489045268
 10
134.3401068787
 20
108.5469504868
 10
134.3357501237
 20
108.5419260249
 10
134.3292354636
 20
108.5343124681
 10
134.3202852634
 20
108.5246662425
 10
134.3091771581
 20
108.5133959089
 10
134.2830798969
 20
108.4864607212
  0
LWPOLYLINE
  5
439
100
AcDbEntity
  8
0
100
AcDbPolyline
 62
253
  6
CONTINUOUS
 90
13
 70
0
 10
136.5716025608
 20
110.5712820761
 10
136.5741248094
 20
110.5733972946
 10
136.5807513559
 20
110.572417756
 10
136.5912541979
 20
110.569878251
 10
136.605572707
 20
110.5686595623
 10
136.6237726958
 20
110.5692011031
 10
136.6455892776
 20
110.5686862382
 10
136.6702314031
 20
110.5676061504
 10
136.6972231423
 20
110.5679597813
 10
136.7264262548
 20
110.5678855261
 10
136.7574013679
 20
110.5669536395
 10
136.7893392901
 20
110.5666917178
 10
136.8215930346
 20
110.5675966825
  0
LINE
  5
43A
100
AcDbEntity
  8
0
100
AcDbLine
 62
7
  6
CONTINUOUS
 10
131.7567854097
 20
127.4883842079
 11
126.4567854097
 21
127.4883842079
  0
LINE
  5
43B
100
AcDbEntity
  8
0
100
AcDbLine
 62
7
  6
CONTINUOUS
 10
126.4423354541
 20
127.5028341636
 11
131.7712353654
 21
127.5028341636
  0
LINE
  5
43C
100
AcDbEntity
  8
0
100
AcDbLine
 62
253
  6
CONTINUOUS
 10
126.1923449733
 20
127.7577343194
 11
132.0212258462
 21
127.7577343194
  0
LWPOLYLINE
  5
43D
100
AcDbEntity
  8
RACCORDO
100
AcDbPolyline
 62
7
  6
CONTINUOUS
 90
9
 70
0
 10
132.0982655049
 20
142.2530904058
 10
132.0877535867
 20
142.2840555986
 10
132.0732899353
 20
142.3133839429
 10
132.0551220192
 20
142.3405736404
 10
132.0335606857
 20
142.3651594838
 10
132.0089748422
 20
142.3867208174
 10
131.9817851448
 20
142.4048887335
 10
131.9524568004
 20
142.4193523848
 10
131.9214916077
 20
142.4298643031
  0
LWPOLYLINE
  5
43E
100
AcDbEntity
  8
RACCORDO
100
AcDbPolyline
 62
7
  6
CONTINUOUS
 90
9
 70
0
 10
148.6153053146
 20
93.62367801
 10
148.6258172328
 20
93.5927128173
 10
148.6402808842
 20
93.5633844729
 10
148.6584488003
 20
93.5361947755
 10
148.6800101338
 20
93.511608932
 10
148.7045959773
 20
93.4900475985
 10
148.7317856747
 20
93.4718796824
 10
148.7611140191
 20
93.457416031
 10
148.7920792118
 20
93.4469041128
  0
LWPOLYLINE
  5
43F
100
AcDbEntity
  8
0
100
AcDbPolyline
 62
253
  6
CONTINUOUS
 90
21
 70
0
 10
140.3778134485
 20
110.5570709244
 10
140.221130919
 20
110.4479887041
 10
140.0584842941
 20
110.3495405161
 10
139.8897996323
 20
110.2618564991
 10
139.7151508752
 20
110.1848063402
 10
139.5366828381
 20
110.1193344184
 10
139.3543486606
 20
110.0655833328
 10
139.1681952031
 20
110.0234103561
 10
138.9805078615
 20
109.9933318858
 10
138.791278587
 20
109.9754940029
 10
138.6005154283
 20
109.969750571
 10
138.410527928
 20
109.9761796801
 10
138.2213356492
 20
109.9949171343
 10
138.0329190287
 20
110.0258271588
 10
137.8475289198
 20
110.0685804944
 10
137.6652361061
 20
110.1232418293
 10
137.485969804
 20
110.1897465833
 10
137.3117685165
 20
110.2675716097
 10
137.1433117445
 20
110.3565425812
 10
136.979919987
 20
110.456833993
 10
136.821593244
 20
110.5684459437
  0
LWPOLYLINE
  5
440
100
AcDbEntity
  8
0
100
AcDbPolyline
 62
7
  6
CONTINUOUS
 90
21
 70
0
 10
140.2283317822
 20
110.7610435619
 10
140.085252355
 20
110.6614820623
 10
139.9360820645
 20
110.5713083617
 10
139.7814350317
 20
110.4908931155
 10
139.6219496683
 20
110.4205678046
 10
139.4582831482
 20
110.3606213682
 10
139.2911100083
 20
110.3113003382
 10
139.1211192115
 20
110.2728075487
 10
138.949010999
 20
110.2453009896
 10
138.7755046467
 20
110.2288942136
 10
138.6013049941
 20
110.223652577
 10
138.4270990265
 20
110.2295993414
 10
138.2536174807
 20
110.2467138696
 10
138.081563125
 20
110.2749312556
 10
137.9115794829
 20
110.3141584834
 10
137.744422537
 20
110.3642352606
 10
137.580736218
 20
110.424983175
 10
137.420999224
 20
110.4962684201
 10
137.2658342019
 20
110.5778901604
 10
137.1159876534
 20
110.6695352122
 10
136.9721196294
 20
110.7708740089
  0
LWPOLYLINE
  5
441
100
AcDbEntity
  8
RACCORDO
100
AcDbPolyline
 62
7
  6
CONTINUOUS
 90
14
 70
0
 10
113.9597027864
 20
94.3430418565
 10
113.8567844173
 20
94.2784810743
 10
113.824583195
 20
94.2587614207
 10
113.7934784705
 20
94.2402570778
 10
113.7637345286
 20
94.2230367
 10
113.7354198167
 20
94.2072698485
 10
113.7084658875
 20
94.1930628395
 10
113.6829316835
 20
94.1804116596
 10
113.6588027958
 20
94.1694314157
 10
113.6360936332
 20
94.160250232
 10
113.614906365
 20
94.1529267375
 10
113.5952750476
 20
94.1475573059
 10
113.5771656247
 20
94.1442418636
 10
113.5605780961
 20
94.1430452411
  0
LINE
  5
442
100
AcDbEntity
  8
RACCORDO
100
AcDbLine
 62
7
  6
CONTINUOUS
 10
113.8568091506
 20
141.5982720879
 11
113.9597027864
 21
141.5337265594
  0
LINE
  5
443
100
AcDbEntity
  8
RACCORDO
100
AcDbLine
 62
253
  6
CONTINUOUS
 10
144.2538680331
 20
94.3430418565
 11
144.2538680331
 21
95.6407919872
  0
LINE
  5
444
100
AcDbEntity
  8
RACCORDO
100
AcDbLine
 62
253
  6
CONTINUOUS
 10
144.2538680331
 20
140.2359764286
 11
144.2538680331
 21
141.5337265594
  0
LINE
  5
445
100
AcDbEntity
  8
RACCORDO
100
AcDbLine
 62
7
  6
CONTINUOUS
 10
144.7538595716
 20
94.1413100461
 11
144.7538595716
 21
95.6147405448
  0
LINE
  5
446
100
AcDbEntity
  8
RACCORDO
100
AcDbLine
 62
7
  6
CONTINUOUS
 10
144.7538595716
 20
140.2620278711
 11
144.7538595716
 21
141.7354583697
  0
LINE
  5
447
100
AcDbEntity
  8
RACCORDO
100
AcDbLine
 62
7
  6
CONTINUOUS
 10
148.6089249851
 20
142.2210181694
 11
148.6153053146
 21
142.2530904058
  0
LINE
  5
448
100
AcDbEntity
  8
RACCORDO
100
AcDbLine
 62
253
  6
CONTINUOUS
 10
150.8060254161
 20
139.8870014748
 11
150.9146040944
 21
140.2130024053
  0
LINE
  5
449
100
AcDbEntity
  8
RACCORDO
100
AcDbLine
 62
253
  6
CONTINUOUS
 10
151.4393685073
 20
139.7882699365
 11
151.3059492637
 21
139.3876867074
  0
LINE
  5
44A
100
AcDbEntity
  8
RACCORDO
100
AcDbLine
 62
253
  6
CONTINUOUS
 10
126.1067854097
 20
93.688380781
 11
126.1185733438
 21
93.700168715
  0
LINE
  5
44B
100
AcDbEntity
  8
RACCORDO
100
AcDbLine
 62
253
  6
CONTINUOUS
 10
126.3567819828
 20
93.4383842079
 11
126.3685699168
 21
93.450172142
  0
LINE
  5
44C
100
AcDbEntity
  8
RACCORDO
100
AcDbLine
 62
253
  6
CONTINUOUS
 10
126.1185733438
 20
142.1765997008
 11
126.1067854097
 21
142.1883876349
  0
LINE
  5
44D
100
AcDbEntity
  8
RACCORDO
100
AcDbLine
 62
253
  6
CONTINUOUS
 10
126.3685699168
 20
142.4265962739
 11
126.3567819828
 21
142.4383842079
  0
LINE
  5
44E
100
AcDbEntity
  8
RACCORDO
100
AcDbLine
 62
253
  6
CONTINUOUS
 10
150.9146040944
 20
95.6637660106
 11
150.8060254161
 21
95.9897669411
  0
LINE
  5
44F
100
AcDbEntity
  8
RACCORDO
100
AcDbLine
 62
253
  6
CONTINUOUS
 10
151.3059492637
 20
96.4890817085
 11
151.4393685073
 21
96.0884984793
  0
LINE
  5
450
100
AcDbEntity
  8
RACCORDO
100
AcDbLine
 62
7
  6
CONTINUOUS
 10
148.6089249851
 20
93.6557502465
 11
148.6153053146
 21
93.62367801
  0
LINE
  5
451
100
AcDbEntity
  8
RACCORDO
100
AcDbLine
 62
7
  6
CONTINUOUS
 10
148.6067854097
 20
93.688380781
 11
148.6089249851
 21
93.6557502465
  0
LINE
  5
452
100
AcDbEntity
  8
RACCORDO
100
AcDbLine
 62
7
  6
CONTINUOUS
 10
148.6067854097
 20
142.1883876349
 11
148.6089249851
 21
142.2210181694
  0
LWPOLYLINE
  5
453
100
AcDbEntity
  8
RACCORDO
100
AcDbPolyline
 62
253
  6
CONTINUOUS
 90
10
 70
0
 10
151.3059492637
 20
139.3876867074
 10
151.3047209897
 20
139.381471252
 10
151.3035136059
 20
139.3704783767
 10
151.3023271124
 20
139.3547080816
 10
151.3011554057
 20
139.3340362837
 10
151.3000045892
 20
139.3085870659
 10
151.2988929734
 20
139.2787326774
 10
151.2978214415
 20
139.2444011994
 10
151.2967891102
 20
139.2056645507
 10
151.2948900923
 20
139.116693408
  0
LINE
  5
454
100
AcDbEntity
  8
RACCORDO
100
AcDbLine
 62
253
  6
CONTINUOUS
 10
129.7067854097
 20
93.688380781
 11
129.7185733438
 21
93.700168715
  0
LINE
  5
455
100
AcDbEntity
  8
RACCORDO
100
AcDbLine
 62
253
  6
CONTINUOUS
 10
129.9567819828
 20
93.4383842079
 11
129.9685699168
 21
93.450172142
  0
LINE
  5
456
100
AcDbEntity
  8
RACCORDO
100
AcDbLine
 62
253
  6
CONTINUOUS
 10
129.7185733438
 20
142.1765997008
 11
129.7067854097
 21
142.1883876349
  0
LINE
  5
457
100
AcDbEntity
  8
RACCORDO
100
AcDbLine
 62
253
  6
CONTINUOUS
 10
129.9685699168
 20
142.4265962739
 11
129.9567819828
 21
142.4383842079
  0
LWPOLYLINE
  5
458
100
AcDbEntity
  8
0
100
AcDbPolyline
 62
7
  6
CONTINUOUS
 90
10
 70
0
 43
0.3500000006
 10
130.071072052
 20
151.688385498
 10
130.1425032349
 20
151.5455231323
 10
130.1425032349
 20
151.4741010132
 10
129.9996408691
 20
151.3312386475
 10
129.9282096863
 20
151.3312386475
 10
129.8567875671
 20
151.402678894
 10
129.8567875671
 20
151.4741010132
 10
129.9282096863
 20
151.6169633789
 10
129.9996408691
 20
151.688385498
 10
130.071072052
 20
151.688385498
  0
LWPOLYLINE
  5
459
100
AcDbEntity
  8
RACCORDO
100
AcDbPolyline
 62
7
  6
CONTINUOUS
 90
16
 70
0
 10
148.6185733438
 20
93.700168715
 10
148.6199573841
 20
93.6739058691
 10
148.62409147
 20
93.6479396479
 10
148.6309279734
 20
93.6225569765
 10
148.640382837
 20
93.5980527735
 10
148.6523532923
 20
93.5746809862
 10
148.6667342186
 20
93.5526593764
 10
148.6834174856
 20
93.5321950311
 10
148.7021976139
 20
93.5135760002
 10
148.7227687346
 20
93.4970956288
 10
148.744862637
 20
93.4829284749
 10
148.7682403031
 20
93.4711905599
 10
148.7925838769
 20
93.4620019332
 10
148.8175973333
 20
93.4554251794
 10
148.8430179239
 20
93.4514820974
 10
148.8685699168
 20
93.450172142
  0
LINE
  5
45A
100
AcDbEntity
  8
RACCORDO
100
AcDbLine
 62
253
  6
CONTINUOUS
 10
148.6185733438
 20
94.0940466406
 11
148.6146394632
 21
94.5278150888
  0
LINE
  5
45B
100
AcDbEntity
  8
RACCORDO
100
AcDbLine
 62
7
  6
CONTINUOUS
 10
148.6146394632
 20
94.8157344771
 11
148.6133373082
 21
94.9593162981
  0
LINE
  5
45C
100
AcDbEntity
  8
RACCORDO
100
AcDbLine
 62
253
  6
CONTINUOUS
 10
148.8685699168
 20
94.3105529916
 11
148.8639883857
 21
94.8157344771
  0
LINE
  5
45D
100
AcDbEntity
  8
RACCORDO
100
AcDbLine
 62
7
  6
CONTINUOUS
 10
148.6067922632
 20
141.3481976423
 11
148.6067989977
 21
141.3474550662
  0
LINE
  5
45E
100
AcDbEntity
  8
RACCORDO
100
AcDbLine
 62
7
  6
CONTINUOUS
 10
148.6067854097
 20
142.1883876349
 11
148.6067854097
 21
140.2883842079
  0
LINE
  5
45F
100
AcDbEntity
  8
RACCORDO
100
AcDbLine
 62
7
  6
CONTINUOUS
 10
148.6067854097
 20
95.5883842079
 11
148.6067854097
 21
93.688380781
  0
LINE
  5
460
100
AcDbEntity
  8
RACCORDO
100
AcDbLine
 62
7
  6
CONTINUOUS
 10
148.6133373082
 20
94.9593162981
 11
148.6133373082
 21
95.6539625333
  0
LINE
  5
461
100
AcDbEntity
  8
RACCORDO
100
AcDbLine
 62
7
  6
CONTINUOUS
 10
148.6133373082
 20
140.2228058825
 11
148.6133373082
 21
141.205371506
  0
LINE
  5
462
100
AcDbEntity
  8
RACCORDO
100
AcDbLine
 62
7
  6
CONTINUOUS
 10
148.6146394632
 20
94.5278150888
 11
148.6146394632
 21
94.8157344771
  0
LINE
  5
463
100
AcDbEntity
  8
RACCORDO
100
AcDbLine
 62
7
  6
CONTINUOUS
 10
148.6185733438
 20
93.700168715
 11
148.6185733438
 21
94.0940466406
  0
LINE
  5
464
100
AcDbEntity
  8
RACCORDO
100
AcDbLine
 62
7
  6
CONTINUOUS
 10
148.6185733438
 20
141.7827217752
 11
148.6185733438
 21
142.1765997008
  0
LINE
  5
465
100
AcDbEntity
  8
RACCORDO
100
AcDbLine
 62
253
  6
CONTINUOUS
 10
148.8633338812
 20
94.8157344771
 11
148.8633338812
 21
95.6669958769
  0
LINE
  5
466
100
AcDbEntity
  8
RACCORDO
100
AcDbLine
 62
253
  6
CONTINUOUS
 10
148.8633338812
 20
140.209772539
 11
148.8633338812
 21
141.0610339387
  0
LINE
  5
467
100
AcDbEntity
  8
RACCORDO
100
AcDbLine
 62
253
  6
CONTINUOUS
 10
148.8685699168
 20
93.450172142
 11
148.8685699168
 21
94.3105529916
  0
LINE
  5
468
100
AcDbEntity
  8
RACCORDO
100
AcDbLine
 62
253
  6
CONTINUOUS
 10
148.8685699168
 20
141.5662154243
 11
148.8685699168
 21
142.4265962739
  0
LINE
  5
469
100
AcDbEntity
  8
RACCORDO
100
AcDbLine
 62
253
  6
CONTINUOUS
 10
148.6133373082
 20
141.205371506
 11
148.6185733438
 21
141.7827217752
  0
LINE
  5
46A
100
AcDbEntity
  8
RACCORDO
100
AcDbLine
 62
253
  6
CONTINUOUS
 10
148.8639883857
 20
141.0610339387
 11
148.8685699168
 21
141.5662154243
  0
LINE
  5
46B
100
AcDbEntity
  8
RACCORDO
100
AcDbLine
 62
7
  6
CONTINUOUS
 10
148.6067854097
 20
94.5278150888
 11
148.6068055216
 21
94.5300524228
  0
LINE
  5
46C
100
AcDbEntity
  8
RACCORDO
100
AcDbLine
 62
7
  6
CONTINUOUS
 10
148.6067989977
 20
94.5293133497
 11
148.6067923744
 21
94.5285830301
  0
LWPOLYLINE
  5
46D
100
AcDbEntity
  8
RACCORDO
100
AcDbPolyline
 62
7
  6
CONTINUOUS
 90
16
 70
0
 10
148.6185733438
 20
142.1765997008
 10
148.6199573838
 20
142.2028625443
 10
148.6240914693
 20
142.2288287645
 10
148.6309279724
 20
142.2542114363
 10
148.6403828368
 20
142.2787156419
 10
148.6523532941
 20
142.3020874329
 10
148.6667342223
 20
142.3241090446
 10
148.6834174899
 20
142.3445733895
 10
148.7021976177
 20
142.3631924189
 10
148.722768737
 20
142.3796727888
 10
148.7448626364
 20
142.3938399406
 10
148.7682402985
 20
142.4055778539
 10
148.7925838698
 20
142.4147664804
 10
148.8175973266
 20
142.4213432351
 10
148.8430179195
 20
142.425286318
 10
148.8685699168
 20
142.4265962739
  0
LWPOLYLINE
  5
46E
100
AcDbEntity
  8
RACCORDO
100
AcDbPolyline
 62
7
  6
CONTINUOUS
 90
16
 70
0
 10
151.0002335113
 20
141.205371506
 10
150.9989615669
 20
141.1913276466
 10
150.9953577495
 20
141.1775458361
 10
150.9893826759
 20
141.1640260744
 10
150.9810282841
 20
141.1506279805
 10
150.9703013538
 20
141.1374919355
 10
150.9572081666
 20
141.1250390829
 10
150.9418048835
 20
141.1132609087
 10
150.924174185
 20
141.102165927
 10
150.9043784366
 20
141.0922008226
 10
150.882545607
 20
141.0833662335
 10
150.858863672
 20
141.0756615217
 10
150.8335213374
 20
141.0695314592
 10
150.8067622574
 20
141.0651243032
 10
150.7788897534
 20
141.0622917963
 10
150.7502369383
 20
141.0610339387
  0
LWPOLYLINE
  5
46F
100
AcDbEntity
  8
RACCORDO
100
AcDbPolyline
 62
253
  6
CONTINUOUS
 90
8
 70
0
 10
150.8060254161
 20
139.8870014748
 10
150.8047921749
 20
139.8777740557
 10
150.8035814817
 20
139.8611791
 10
150.8023933366
 20
139.8373007155
 10
150.801222204
 20
139.8062612005
 10
150.8000736195
 20
139.7682147304
 10
150.7989641893
 20
139.7233421803
 10
150.7968634828
 20
139.6140110666
  0
LWPOLYLINE
  5
470
100
AcDbEntity
  8
RACCORDO
100
AcDbPolyline
 62
7
  6
CONTINUOUS
 90
3
 70
0
 10
148.7920792118
 20
142.4298643031
 10
148.8241514483
 20
142.4362446326
 10
148.8567819828
 20
142.4383842079
  0
LWPOLYLINE
  5
471
100
AcDbEntity
  8
RACCORDO
100
AcDbPolyline
 62
7
  6
CONTINUOUS
 90
3
 70
0
 10
109.4214916077
 20
142.4298643031
 10
109.3894193712
 20
142.4362446326
 10
109.3567888367
 20
142.4383842079
  0
LWPOLYLINE
  5
472
100
AcDbEntity
  8
RACCORDO
100
AcDbPolyline
 62
7
  6
CONTINUOUS
 90
16
 70
0
 10
148.6133373082
 20
141.205371506
 10
148.61460438
 20
141.1917143457
 10
148.6181945719
 20
141.1778866799
 10
148.6241535314
 20
141.1640918207
 10
148.6324978066
 20
141.1506264991
 10
148.6432253077
 20
141.1376264446
 10
148.6563270087
 20
141.1250695735
 10
148.6717497591
 20
141.1131978595
 10
148.6894124959
 20
141.1022414863
 10
148.7092412762
 20
141.0921785738
 10
148.7310867187
 20
141.0832554419
 10
148.7547769647
 20
141.0757048065
 10
148.780173993
 20
141.0695057054
 10
148.807057
 20
141.064812454
 10
148.8351072727
 20
141.0619251221
 10
148.8639883857
 20
141.0610339387
  0
LWPOLYLINE
  5
473
100
AcDbEntity
  8
RACCORDO
100
AcDbPolyline
 62
253
  6
CONTINUOUS
 90
16
 70
0
 10
150.9949974757
 20
94.0940466406
 10
150.9935577773
 20
94.1166920871
 10
150.9893926978
 20
94.1390838397
 10
150.9825498299
 20
94.1609766395
 10
150.9731081952
 20
94.182126835
 10
150.961171891
 20
94.2023078775
 10
150.9468640075
 20
94.2213106787
 10
150.9303279805
 20
94.2389360408
 10
150.9117510415
 20
94.2549768636
 10
150.8913614297
 20
94.2692386371
 10
150.8693894027
 20
94.2815687376
 10
150.8460773556
 20
94.2918389504
 10
150.8217067461
 20
94.2999359934
 10
150.7965561789
 20
94.3057822914
 10
150.7708944462
 20
94.3093298295
 10
150.7450009026
 20
94.3105529892
  0
LWPOLYLINE
  5
474
100
AcDbEntity
  8
RACCORDO
100
AcDbPolyline
 62
253
  6
CONTINUOUS
 90
16
 70
0
 10
148.6185733438
 20
141.7827217752
 10
148.6200130415
 20
141.7600763347
 10
148.6241781189
 20
141.7376845871
 10
148.631020984
 20
141.7157917913
 10
148.6404626156
 20
141.6946415978
 10
148.6523989165
 20
141.6744605561
 10
148.6667067958
 20
141.6554577565
 10
148.6832428152
 20
141.6378323978
 10
148.7018197448
 20
141.6217915781
 10
148.7222093498
 20
141.6075298039
 10
148.7441813764
 20
141.5951996985
 10
148.7674934279
 20
141.5849294795
 10
148.791864044
 20
141.5768324307
 10
148.8170146191
 20
141.5709861279
 10
148.8426763617
 20
141.5674385861
 10
148.8685699168
 20
141.5662154243
  0
LWPOLYLINE
  5
475
100
AcDbEntity
  8
RACCORDO
100
AcDbPolyline
 62
253
  6
CONTINUOUS
 90
8
 70
0
 10
151.2978246988
 20
96.63225473
 10
151.29889596
 20
96.5979508046
 10
151.3000074116
 20
96.5681162483
 10
151.3011580613
 20
96.5426829096
 10
151.3023294202
 20
96.5220253319
 10
151.3035153254
 20
96.5062683631
 10
151.3047219399
 20
96.4952871553
 10
151.3059492637
 20
96.4890817085
  0
LWPOLYLINE
  5
476
100
AcDbEntity
  8
RACCORDO
100
AcDbPolyline
 62
253
  6
CONTINUOUS
 90
6
 70
0
 10
150.8000737884
 20
96.1085511613
 10
150.8012224223
 20
96.0705037241
 10
150.802393569
 20
96.0394644256
 10
150.8035816719
 20
96.0155872623
 10
150.8047922876
 20
95.9989935632
 10
150.8060254161
 20
95.9897669411
  0
LINE
  5
477
100
AcDbEntity
  8
RACCORDO
100
AcDbLine
 62
253
  6
CONTINUOUS
 10
151.295815282
 20
96.7134872357
 11
151.2978246988
 21
96.63225473
  0
LINE
  5
478
100
AcDbEntity
  8
RACCORDO
100
AcDbLine
 62
253
  6
CONTINUOUS
 10
150.7978944518
 20
96.2049105304
 11
150.8000737884
 21
96.1085511613
  0
LINE
  5
479
100
AcDbEntity
  8
RACCORDO
100
AcDbLine
 62
253
  6
CONTINUOUS
 10
151.2940266823
 20
96.810104869
 11
151.295815282
 21
96.7134872357
  0
LINE
  5
47A
100
AcDbEntity
  8
RACCORDO
100
AcDbLine
 62
253
  6
CONTINUOUS
 10
150.7958877446
 20
96.3266411361
 11
150.7978944518
 21
96.2049105304
  0
LINE
  5
47B
100
AcDbEntity
  8
RACCORDO
100
AcDbLine
 62
253
  6
CONTINUOUS
 10
151.2924953727
 20
96.9199014805
 11
151.2940266823
 21
96.810104869
  0
LINE
  5
47C
100
AcDbEntity
  8
RACCORDO
100
AcDbLine
 62
253
  6
CONTINUOUS
 10
150.7941019363
 20
96.4712303088
 11
150.7958877446
 21
96.3266411361
  0
LINE
  5
47D
100
AcDbEntity
  8
RACCORDO
100
AcDbLine
 62
253
  6
CONTINUOUS
 10
151.2912439747
 20
97.0412497098
 11
151.2924953727
 21
96.9199014805
  0
LINE
  5
47E
100
AcDbEntity
  8
RACCORDO
100
AcDbLine
 62
7
  6
CONTINUOUS
 10
151.0067785563
 20
94.5285707736
 11
151.0067718218
 21
94.5293133497
  0
LINE
  5
47F
100
AcDbEntity
  8
RACCORDO
100
AcDbLine
 62
253
  6
CONTINUOUS
 10
150.7450009026
 20
141.5662154243
 11
150.7495824338
 21
141.0610339387
  0
LINE
  5
480
100
AcDbEntity
  8
RACCORDO
100
AcDbLine
 62
253
  6
CONTINUOUS
 10
150.9949974757
 20
141.7827217752
 11
151.0002335113
 21
141.205371506
  0
LINE
  5
481
100
AcDbEntity
  8
RACCORDO
100
AcDbLine
 62
253
  6
CONTINUOUS
 10
150.7925727674
 20
96.6359485125
 11
150.7941019363
 21
96.4712303088
  0
LINE
  5
482
100
AcDbEntity
  8
RACCORDO
100
AcDbLine
 62
253
  6
CONTINUOUS
 10
150.7913226306
 20
96.8175675302
 11
150.7925727674
 21
96.6359485125
  0
LINE
  5
483
100
AcDbEntity
  8
RACCORDO
100
AcDbLine
 62
253
  6
CONTINUOUS
 10
151.2899569414
 20
97.2388295082
 11
151.2912439747
 21
97.0412497098
  0
LINE
  5
484
100
AcDbEntity
  8
RACCORDO
100
AcDbLine
 62
253
  6
CONTINUOUS
 10
150.7900356403
 20
97.1135308162
 11
150.7913226306
 21
96.8175675302
  0
LINE
  5
485
100
AcDbEntity
  8
RACCORDO
100
AcDbLine
 62
253
  6
CONTINUOUS
 10
151.2894224209
 20
97.446686824
 11
151.2899569414
 21
97.2388295082
  0
LINE
  5
486
100
AcDbEntity
  8
RACCORDO
100
AcDbLine
 62
253
  6
CONTINUOUS
 10
150.7894985733
 20
97.4261746144
 11
150.7900356403
 21
97.1135308162
  0
LINE
  5
487
100
AcDbEntity
  8
RACCORDO
100
AcDbLine
 62
253
  6
CONTINUOUS
 10
150.7450009026
 20
142.4265962739
 11
150.7450009026
 21
141.5662154243
  0
LINE
  5
488
100
AcDbEntity
  8
RACCORDO
100
AcDbLine
 62
253
  6
CONTINUOUS
 10
150.7450009026
 20
94.3105529916
 11
150.7450009026
 21
93.450172142
  0
LINE
  5
489
100
AcDbEntity
  8
RACCORDO
100
AcDbLine
 62
253
  6
CONTINUOUS
 10
150.7502369383
 20
141.0610339387
 11
150.7502369383
 21
140.209772539
  0
LINE
  5
48A
100
AcDbEntity
  8
RACCORDO
100
AcDbLine
 62
253
  6
CONTINUOUS
 10
150.7502369383
 20
95.6669958769
 11
150.7502369383
 21
94.8157344771
  0
LINE
  5
48B
100
AcDbEntity
  8
RACCORDO
100
AcDbLine
 62
7
  6
CONTINUOUS
 10
150.9949974757
 20
142.1765997008
 11
150.9949974757
 21
141.7827217752
  0
LINE
  5
48C
100
AcDbEntity
  8
RACCORDO
100
AcDbLine
 62
7
  6
CONTINUOUS
 10
150.9949974757
 20
94.0940466406
 11
150.9949974757
 21
93.700168715
  0
LINE
  5
48D
100
AcDbEntity
  8
RACCORDO
100
AcDbLine
 62
7
  6
CONTINUOUS
 10
150.9989313563
 20
94.5278150888
 11
150.9989313563
 21
94.8157344771
  0
LINE
  5
48E
100
AcDbEntity
  8
RACCORDO
100
AcDbLine
 62
7
  6
CONTINUOUS
 10
151.0002335113
 20
141.205371506
 11
151.0002335113
 21
140.2159670324
  0
LINE
  5
48F
100
AcDbEntity
  8
RACCORDO
100
AcDbLine
 62
7
  6
CONTINUOUS
 10
151.0002335113
 20
95.6608013834
 11
151.0002335113
 21
94.9593162981
  0
LINE
  5
490
100
AcDbEntity
  8
RACCORDO
100
AcDbLine
 62
7
  6
CONTINUOUS
 10
151.0067854097
 20
93.688380781
 11
151.0067854097
 21
95.5929089975
  0
LINE
  5
491
100
AcDbEntity
  8
RACCORDO
100
AcDbLine
 62
7
  6
CONTINUOUS
 10
151.0067854097
 20
140.2837936893
 11
151.0067854097
 21
142.1883876349
  0
LINE
  5
492
100
AcDbEntity
  8
RACCORDO
100
AcDbLine
 62
7
  6
CONTINUOUS
 10
151.4567854097
 20
139.7795621485
 11
151.4567854097
 21
96.0972062673
  0
LINE
  5
493
100
AcDbEntity
  8
ASSI
100
AcDbLine
 62
7
  6
CONTINUOUS
 10
151.4567854097
 20
100.2166851592
 11
151.4567854097
 21
135.6600832566
  0
LINE
  5
494
100
AcDbEntity
  8
0
100
AcDbLine
 62
7
  6
CONTINUOUS
 10
151.4567854097
 20
100.2166851592
 11
151.4567854097
 21
135.6600832566
  0
LWPOLYLINE
  5
495
100
AcDbEntity
  8
RACCORDO
100
AcDbPolyline
 62
253
  6
CONTINUOUS
 90
9
 70
0
 10
150.7865988745
 20
133.8940940531
 10
150.7844241003
 20
129.3362675381
 10
150.7829742509
 20
124.7774932733
 10
150.7822493262
 20
120.2181503993
 10
150.7822493263
 20
115.658618014
 10
150.782974251
 20
111.0992751404
 10
150.7844241005
 20
106.540500876
 10
150.7865988746
 20
101.9826743617
 10
150.7894985733
 20
97.4261746144
  0
LWPOLYLINE
  5
496
100
AcDbEntity
  8
RACCORDO
100
AcDbPolyline
 62
253
  6
CONTINUOUS
 90
9
 70
0
 10
151.2865227242
 20
133.8775175503
 10
151.2843479515
 20
129.3243809297
 10
151.2828981027
 20
124.7706717299
 10
151.2821731775
 20
120.2160086748
 10
151.2821731763
 20
115.6607730406
 10
151.2828981
 20
111.1061086556
 10
151.2843479488
 20
106.5523967959
 10
151.2865227224
 20
101.9992561854
 10
151.2894224209
 20
97.446686824
  0
LINE
  5
497
100
AcDbEntity
  8
RACCORDO
100
AcDbLine
 62
253
  6
CONTINUOUS
 10
150.7897732597
 20
138.6601908039
 11
150.7865988745
 21
133.8940940531
  0
LINE
  5
498
100
AcDbEntity
  8
RACCORDO
100
AcDbLine
 62
253
  6
CONTINUOUS
 10
151.2896947971
 20
138.5696964701
 11
151.2865227242
 21
133.8775175503
  0
LINE
  5
499
100
AcDbEntity
  8
RACCORDO
100
AcDbLine
 62
253
  6
CONTINUOUS
 10
150.7908144925
 20
138.9632132773
 11
150.7897732597
 21
138.6601908039
  0
LINE
  5
49A
100
AcDbEntity
  8
RACCORDO
100
AcDbLine
 62
253
  6
CONTINUOUS
 10
150.7919091069
 20
139.1518876803
 11
150.7908144925
 21
138.9632132773
  0
LINE
  5
49B
100
AcDbEntity
  8
RACCORDO
100
AcDbLine
 62
253
  6
CONTINUOUS
 10
151.2907344359
 20
138.7713404607
 11
151.2896947971
 21
138.5696964701
  0
LINE
  5
49C
100
AcDbEntity
  8
RACCORDO
100
AcDbLine
 62
253
  6
CONTINUOUS
 10
150.7933031919
 20
139.3255015733
 11
150.7919091069
 21
139.1518876803
  0
LINE
  5
49D
100
AcDbEntity
  8
RACCORDO
100
AcDbLine
 62
7
  6
CONTINUOUS
 10
151.0067718218
 20
141.3474550662
 11
151.0067784451
 21
141.3481853858
  0
LINE
  5
49E
100
AcDbEntity
  8
RACCORDO
100
AcDbLine
 62
7
  6
CONTINUOUS
 10
151.0067854097
 20
141.3489533271
 11
151.0067652979
 21
141.3467159931
  0
LINE
  5
49F
100
AcDbEntity
  8
RACCORDO
100
AcDbLine
 62
253
  6
CONTINUOUS
 10
150.7495824338
 20
94.8157344771
 11
150.7450009026
 21
94.3105529916
  0
LINE
  5
4A0
100
AcDbEntity
  8
RACCORDO
100
AcDbLine
 62
7
  6
CONTINUOUS
 10
150.9989313563
 20
94.8157344771
 11
151.0002335113
 21
94.9593162981
  0
LINE
  5
4A1
100
AcDbEntity
  8
RACCORDO
100
AcDbLine
 62
253
  6
CONTINUOUS
 10
150.9989313563
 20
94.5278150888
 11
150.9949974757
 21
94.0940466406
  0
LINE
  5
4A2
100
AcDbEntity
  8
RACCORDO
100
AcDbLine
 62
253
  6
CONTINUOUS
 10
151.2918290836
 20
138.8971025665
 11
151.2907344359
 21
138.7713404607
  0
LINE
  5
4A3
100
AcDbEntity
  8
RACCORDO
100
AcDbLine
 62
253
  6
CONTINUOUS
 10
150.7949671757
 20
139.4805118466
 11
150.7933031919
 21
139.3255015733
  0
LINE
  5
4A4
100
AcDbEntity
  8
RACCORDO
100
AcDbLine
 62
253
  6
CONTINUOUS
 10
151.293224058
 20
139.0131343078
 11
151.2918290836
 21
138.8971025665
  0
LINE
  5
4A5
100
AcDbEntity
  8
RACCORDO
100
AcDbLine
 62
253
  6
CONTINUOUS
 10
150.7968634828
 20
139.6140110666
 11
150.7949671757
 21
139.4805118466
  0
LINE
  5
4A6
100
AcDbEntity
  8
RACCORDO
100
AcDbLine
 62
253
  6
CONTINUOUS
 10
151.2948900923
 20
139.116693408
 11
151.293224058
 21
139.0131343078
  0
LWPOLYLINE
  5
4A7
100
AcDbEntity
  8
RACCORDO
100
AcDbPolyline
 62
253
  6
CONTINUOUS
 90
16
 70
0
 10
150.9949974757
 20
141.7827217752
 10
150.993557778
 20
141.7600763343
 10
150.9893927004
 20
141.7376845864
 10
150.9825498351
 20
141.7157917902
 10
150.9731082033
 20
141.6946415966
 10
150.9611719021
 20
141.6744605549
 10
150.9468640226
 20
141.6554577551
 10
150.9303280026
 20
141.6378323962
 10
150.9117510724
 20
141.6217915763
 10
150.8913614669
 20
141.6075298022
 10
150.8693894403
 20
141.5951996971
 10
150.8460773891
 20
141.5849294785
 10
150.8217067734
 20
141.5768324301
 10
150.7965561989
 20
141.5709861276
 10
150.770894457
 20
141.567438586
 10
150.7450009026
 20
141.5662154243
  0
LWPOLYLINE
  5
4A8
100
AcDbEntity
  8
RACCORDO
100
AcDbPolyline
 62
253
  6
CONTINUOUS
 90
16
 70
0
 10
148.6185733438
 20
94.0940466406
 10
148.6200130415
 20
94.1166920815
 10
148.6241781191
 20
94.1390838294
 10
148.6310209843
 20
94.1609766256
 10
148.6404626161
 20
94.1821268192
 10
148.6523989173
 20
94.2023078609
 10
148.6667067969
 20
94.2213106606
 10
148.6832428168
 20
94.2389360195
 10
148.7018197469
 20
94.2549768394
 10
148.7222093524
 20
94.2692386136
 10
148.744181379
 20
94.2815687187
 10
148.7674934302
 20
94.2918389373
 10
148.7918640459
 20
94.2999359857
 10
148.8170146205
 20
94.3057822882
 10
148.8426763625
 20
94.3093298298
 10
148.8685699168
 20
94.3105529916
  0
LWPOLYLINE
  5
4A9
100
AcDbEntity
  8
RACCORDO
100
AcDbPolyline
 62
7
  6
CONTINUOUS
 90
7
 70
0
 10
107.2532904844
 20
140.213759744
 10
107.241451764
 20
140.2137284852
 10
107.2315476811
 20
140.2136112087
 10
107.2237224078
 20
140.2137429242
 10
107.2180537906
 20
140.2142353016
 10
107.2145813159
 20
140.214976671
 10
107.2133373082
 20
140.2159670324
  0
LINE
  5
4AA
100
AcDbEntity
  8
RACCORDO
100
AcDbLine
 62
253
  6
CONTINUOUS
 10
107.3723869895
 20
138.4504462326
 11
150.7894985733
 21
138.4505938014
  0
LINE
  5
4AB
100
AcDbEntity
  8
RACCORDO
100
AcDbLine
 62
253
  6
CONTINUOUS
 10
107.4075454034
 20
139.8870014748
 11
150.8060254161
 21
139.8870014748
  0
LINE
  5
4AC
100
AcDbEntity
  8
RACCORDO
100
AcDbLine
 62
7
  6
CONTINUOUS
 10
150.7502369383
 20
140.209772539
 11
148.8633338812
 21
140.209772539
  0
LINE
  5
4AD
100
AcDbEntity
  8
RACCORDO
100
AcDbLine
 62
7
  6
CONTINUOUS
 10
131.8502369383
 20
140.209772539
 11
129.9633338812
 21
140.209772539
  0
LINE
  5
4AE
100
AcDbEntity
  8
RACCORDO
100
AcDbLine
 62
7
  6
CONTINUOUS
 10
128.2502369383
 20
140.209772539
 11
126.3633338812
 21
140.209772539
  0
LINE
  5
4AF
100
AcDbEntity
  8
RACCORDO
100
AcDbLine
 62
7
  6
CONTINUOUS
 10
109.3502369383
 20
140.209772539
 11
107.4633338812
 21
140.209772539
  0
LINE
  5
4B0
100
AcDbEntity
  8
RACCORDO
100
AcDbLine
 62
7
  6
CONTINUOUS
 10
144.2538680331
 20
140.2359764286
 11
136.4597027864
 21
140.2359764286
  0
LINE
  5
4B1
100
AcDbEntity
  8
RACCORDO
100
AcDbLine
 62
7
  6
CONTINUOUS
 10
121.7538680331
 20
140.2359764286
 11
113.9597027864
 21
140.2359764286
  0
LINE
  5
4B2
100
AcDbEntity
  8
DRAFT
100
AcDbLine
 62
7
  6
CONTINUOUS
 10
148.6067854097
 20
140.2883842079
 11
144.7567854097
 21
140.2883842079
  0
LINE
  5
4B3
100
AcDbEntity
  8
DRAFT
100
AcDbLine
 62
7
  6
CONTINUOUS
 10
135.9567854097
 20
140.2883842079
 11
132.1067854097
 21
140.2883842079
  0
LINE
  5
4B4
100
AcDbEntity
  8
DRAFT
100
AcDbLine
 62
7
  6
CONTINUOUS
 10
129.7067854097
 20
140.2883842079
 11
128.5067854097
 21
140.2883842079
  0
LINE
  5
4B5
100
AcDbEntity
  8
DRAFT
100
AcDbLine
 62
7
  6
CONTINUOUS
 10
126.1067854097
 20
140.2883842079
 11
122.2567854097
 21
140.2883842079
  0
LINE
  5
4B6
100
AcDbEntity
  8
DRAFT
100
AcDbLine
 62
7
  6
CONTINUOUS
 10
113.4567854097
 20
140.2883842079
 11
109.6067854097
 21
140.2883842079
  0
LINE
  5
4B7
100
AcDbEntity
  8
ASSI
100
AcDbLine
 62
7
  6
CONTINUOUS
 10
129.7067854097
 20
140.3383842079
 11
128.5067854097
 21
140.3383842079
  0
LINE
  5
4B8
100
AcDbEntity
  8
0
100
AcDbLine
 62
7
  6
CONTINUOUS
 10
129.7067854097
 20
140.3383842079
 11
128.5067854097
 21
140.3383842079
  0
LWPOLYLINE
  5
4B9
100
AcDbEntity
  8
RACCORDO
100
AcDbPolyline
 62
7
  6
CONTINUOUS
 90
3
 70
0
 10
107.2989667251
 20
140.2130024053
 10
107.282189635
 20
140.2133408691
 10
107.2532904844
 20
140.213759744
  0
LWPOLYLINE
  5
4BA
100
AcDbEntity
  8
0
100
AcDbPolyline
 62
7
  6
CONTINUOUS
 90
10
 70
0
 43
0.3500000006
 10
158.7067827759
 20
118.3669577637
 10
157.8496448364
 20
119.2240957031
 10
156.992506897
 20
119.438380188
 10
156.1353508301
 20
119.438380188
 10
155.7067818604
 20
119.0098112183
 10
155.7067818604
 20
118.3669577637
 10
156.1353508301
 20
117.9383797302
 10
156.992506897
 20
117.9383797302
 10
157.4210758667
 20
118.3669577637
 10
157.4210758667
 20
119.295526886
  0
LINE
  5
4BB
100
AcDbEntity
  8
RACCORDO
100
AcDbLine
 62
7
  6
CONTINUOUS
 10
151.0067854097
 20
142.1883876349
 11
151.0046458344
 21
142.2210181694
  0
LWPOLYLINE
  5
4BC
100
AcDbEntity
  8
RACCORDO
100
AcDbPolyline
 62
253
  6
CONTINUOUS
 90
16
 70
0
 10
151.3059492637
 20
139.3876867074
 10
151.3031661934
 20
139.4398482807
 10
151.2949428165
 20
139.4914391629
 10
151.2813690848
 20
139.5418947791
 10
151.2625935028
 20
139.5906629692
 10
151.2388215007
 20
139.637210037
 10
151.2103131854
 20
139.6810265902
 10
151.1773804946
 20
139.7216331115
 10
151.1403837986
 20
139.7585851915
 10
151.0997279595
 20
139.7914784039
 10
151.0558578679
 20
139.8199527576
 10
151.0092536085
 20
139.8436966062
 10
150.9604252312
 20
139.8624500606
 10
150.9099071062
 20
139.8760078674
 10
150.8582520694
 20
139.8842216417
 10
150.8060254161
 20
139.8870014749
  0
LWPOLYLINE
  5
4BD
100
AcDbEntity
  8
RACCORDO
100
AcDbPolyline
 62
7
  6
CONTINUOUS
 90
16
 70
0
 10
150.9949974757
 20
142.1765997008
 10
150.9936134356
 20
142.2028625455
 10
150.9894793499
 20
142.2288287661
 10
150.9826428467
 20
142.2542114377
 10
150.9731879826
 20
142.2787156421
 10
150.9612175262
 20
142.3020874314
 10
150.9468365989
 20
142.3241090423
 10
150.9301533315
 20
142.3445733873
 10
150.9113732035
 20
142.3631924174
 10
150.8908020836
 20
142.379672788
 10
150.8687081828
 20
142.3938399407
 10
150.8453305189
 20
142.4055778548
 10
150.8209869465
 20
142.4147664815
 10
150.7959734899
 20
142.4213432357
 10
150.770552898
 20
142.4252863182
 10
150.7450009026
 20
142.4265962739
  0
LWPOLYLINE
  5
4BE
100
AcDbEntity
  8
DRAFT
100
AcDbPolyline
 62
7
  6
CONTINUOUS
 90
13
 70
0
 10
151.4393685073
 20
96.0884984793
 10
151.4371887635
 20
96.0420405749
 10
151.430696569
 20
95.9959402729
 10
151.4199355173
 20
95.9505986672
 10
151.4050059608
 20
95.9064621695
 10
151.3860155796
 20
95.8638650088
 10
151.3630327958
 20
95.823046194
 10
151.3362509806
 20
95.7844473283
 10
151.3058273337
 20
95.7483797988
 10
151.2717122046
 20
95.7149562431
 10
151.2338971377
 20
95.6844501362
 10
151.1928059075
 20
95.6574648386
 10
151.1628835176
 20
95.6412009304
  0
LWPOLYLINE
  5
4BF
100
AcDbEntity
  8
RACCORDO
100
AcDbPolyline
 62
7
  6
CONTINUOUS
 90
16
 70
0
 10
150.9949974757
 20
93.700168715
 10
150.9936134357
 20
93.6739058715
 10
150.9894793502
 20
93.6479396513
 10
150.9826428471
 20
93.6225569796
 10
150.9731879826
 20
93.5980527739
 10
150.9612175254
 20
93.574680983
 10
150.9468365972
 20
93.5526593713
 10
150.9301533296
 20
93.5321950264
 10
150.9113732018
 20
93.5135759969
 10
150.8908020825
 20
93.4970956271
 10
150.8687081831
 20
93.4829284753
 10
150.845330521
 20
93.471190562
 10
150.8209869497
 20
93.4620019354
 10
150.7959734929
 20
93.4554251808
 10
150.7705529
 20
93.4514820979
 10
150.7450009026
 20
93.450172142
  0
LWPOLYLINE
  5
4C0
100
AcDbEntity
  8
RACCORDO
100
AcDbPolyline
 62
253
  6
CONTINUOUS
 90
16
 70
0
 10
151.3059492637
 20
96.4890817085
 10
151.303166107
 20
96.4369193195
 10
151.2949424997
 20
96.3853277688
 10
151.2813684366
 20
96.3348716476
 10
151.2625924653
 20
96.2861031215
 10
151.2388200603
 20
96.2395558881
 10
151.2103113745
 20
96.1957393362
 10
151.1773783922
 20
96.1551329716
 10
151.140381515
 20
96.1181811693
 10
151.0997256174
 20
96.0852883106
 10
151.0558556168
 20
96.0568143581
 10
151.0092516035
 20
96.033070916
 10
150.9604235879
 20
96.0143178202
 10
150.9099059185
 20
96.000760295
 10
150.8582514346
 20
95.9925467068
 10
150.8060254161
 20
95.9897669411
  0
LINE
  5
4C1
100
AcDbEntity
  8
RACCORDO
100
AcDbLine
 62
7
  6
CONTINUOUS
 10
151.0067854097
 20
93.688380781
 11
151.0046458344
 21
93.6557502465
  0
LWPOLYLINE
  5
4C2
100
AcDbEntity
  8
RACCORDO
100
AcDbPolyline
 62
7
  6
CONTINUOUS
 90
14
 70
0
 10
136.4597027864
 20
94.3430418565
 10
136.3567844173
 20
94.2784810743
 10
136.324583195
 20
94.2587614207
 10
136.2934784705
 20
94.2402570778
 10
136.2637345286
 20
94.2230367
 10
136.2354198167
 20
94.2072698485
 10
136.2084658875
 20
94.1930628395
 10
136.1829316835
 20
94.1804116596
 10
136.1588027958
 20
94.1694314157
 10
136.1360936332
 20
94.160250232
 10
136.114906365
 20
94.1529267375
 10
136.0952750476
 20
94.1475573059
 10
136.0771656247
 20
94.1442418636
 10
136.0605780961
 20
94.1430452411
  0
LWPOLYLINE
  5
4C3
100
AcDbEntity
  8
RACCORDO
100
AcDbPolyline
 62
7
  6
CONTINUOUS
 90
3
 70
0
 10
129.8920792118
 20
142.4298643031
 10
129.9241514483
 20
142.4362446326
 10
129.9567819828
 20
142.4383842079
  0
LWPOLYLINE
  5
4C4
100
AcDbEntity
  8
RACCORDO
100
AcDbPolyline
 62
7
  6
CONTINUOUS
 90
3
 70
0
 10
126.2920792118
 20
142.4298643031
 10
126.3241514483
 20
142.4362446326
 10
126.3567819828
 20
142.4383842079
  0
LINE
  5
4C5
100
AcDbEntity
  8
RACCORDO
100
AcDbLine
 62
7
  6
CONTINUOUS
 10
150.7495824338
 20
141.0610339387
 11
148.8639883857
 21
141.0610339387
  0
LINE
  5
4C6
100
AcDbEntity
  8
RACCORDO
100
AcDbLine
 62
7
  6
CONTINUOUS
 10
131.8495824338
 20
141.0610339387
 11
129.9639883857
 21
141.0610339387
  0
LINE
  5
4C7
100
AcDbEntity
  8
RACCORDO
100
AcDbLine
 62
7
  6
CONTINUOUS
 10
128.2495824338
 20
141.0610339387
 11
126.3639883857
 21
141.0610339387
  0
LINE
  5
4C8
100
AcDbEntity
  8
RACCORDO
100
AcDbLine
 62
7
  6
CONTINUOUS
 10
109.3495824338
 20
141.0610339387
 11
107.4639883857
 21
141.0610339387
  0
LINE
  5
4C9
100
AcDbEntity
  8
RACCORDO
100
AcDbLine
 62
253
  6
CONTINUOUS
 10
144.2538680331
 20
141.5337265594
 11
136.4597027864
 21
141.5337265594
  0
LINE
  5
4CA
100
AcDbEntity
  8
RACCORDO
100
AcDbLine
 62
253
  6
CONTINUOUS
 10
121.7538680331
 20
141.5337265594
 11
113.9597027864
 21
141.5337265594
  0
LINE
  5
4CB
100
AcDbEntity
  8
RACCORDO
100
AcDbLine
 62
253
  6
CONTINUOUS
 10
107.4685699168
 20
141.5662154243
 11
109.3450009026
 21
141.5662154243
  0
LINE
  5
4CC
100
AcDbEntity
  8
RACCORDO
100
AcDbLine
 62
253
  6
CONTINUOUS
 10
126.3685699168
 20
141.5662154243
 11
128.2450009026
 21
141.5662154243
  0
LINE
  5
4CD
100
AcDbEntity
  8
RACCORDO
100
AcDbLine
 62
253
  6
CONTINUOUS
 10
129.9685699168
 20
141.5662154243
 11
131.8450009026
 21
141.5662154243
  0
LINE
  5
4CE
100
AcDbEntity
  8
RACCORDO
100
AcDbLine
 62
253
  6
CONTINUOUS
 10
148.8685699168
 20
141.5662154243
 11
150.7450009026
 21
141.5662154243
  0
LINE
  5
4CF
100
AcDbEntity
  8
RACCORDO
100
AcDbLine
 62
7
  6
CONTINUOUS
 10
144.6529927234
 20
141.7337231748
 11
136.0605780961
 21
141.7337231748
  0
LINE
  5
4D0
100
AcDbEntity
  8
RACCORDO
100
AcDbLine
 62
7
  6
CONTINUOUS
 10
122.1529927234
 20
141.7337231748
 11
113.5605780961
 21
141.7337231748
  0
LINE
  5
4D1
100
AcDbEntity
  8
RACCORDO
100
AcDbLine
 62
253
  6
CONTINUOUS
 10
107.2185733438
 20
141.7827217752
 11
109.5949974757
 21
141.7827217752
  0
LINE
  5
4D2
100
AcDbEntity
  8
RACCORDO
100
AcDbLine
 62
253
  6
CONTINUOUS
 10
126.1185733438
 20
141.7827217752
 11
128.4949974757
 21
141.7827217752
  0
LINE
  5
4D3
100
AcDbEntity
  8
RACCORDO
100
AcDbLine
 62
253
  6
CONTINUOUS
 10
129.7185733438
 20
141.7827217752
 11
132.0949974757
 21
141.7827217752
  0
LINE
  5
4D4
100
AcDbEntity
  8
RACCORDO
100
AcDbLine
 62
253
  6
CONTINUOUS
 10
148.6185733438
 20
141.7827217752
 11
150.9949974757
 21
141.7827217752
  0
LINE
  5
4D5
100
AcDbEntity
  8
RACCORDO
100
AcDbLine
 62
253
  6
CONTINUOUS
 10
107.2185733438
 20
142.1765997008
 11
109.5949974757
 21
142.1765997008
  0
LINE
  5
4D6
100
AcDbEntity
  8
RACCORDO
100
AcDbLine
 62
253
  6
CONTINUOUS
 10
126.1185733438
 20
142.1765997008
 11
128.4949974757
 21
142.1765997008
  0
LINE
  5
4D7
100
AcDbEntity
  8
RACCORDO
100
AcDbLine
 62
253
  6
CONTINUOUS
 10
129.7185733438
 20
142.1765997008
 11
132.0949974757
 21
142.1765997008
  0
LINE
  5
4D8
100
AcDbEntity
  8
RACCORDO
100
AcDbLine
 62
253
  6
CONTINUOUS
 10
148.6185733438
 20
142.1765997008
 11
150.9949974757
 21
142.1765997008
  0
LINE
  5
4D9
100
AcDbEntity
  8
RACCORDO
100
AcDbLine
 62
7
  6
CONTINUOUS
 10
107.4685699168
 20
142.4265962739
 11
109.3450009026
 21
142.4265962739
  0
LINE
  5
4DA
100
AcDbEntity
  8
RACCORDO
100
AcDbLine
 62
7
  6
CONTINUOUS
 10
126.3685699168
 20
142.4265962739
 11
128.2450009026
 21
142.4265962739
  0
LINE
  5
4DB
100
AcDbEntity
  8
RACCORDO
100
AcDbLine
 62
7
  6
CONTINUOUS
 10
129.9685699168
 20
142.4265962739
 11
131.8450009026
 21
142.4265962739
  0
LINE
  5
4DC
100
AcDbEntity
  8
RACCORDO
100
AcDbLine
 62
7
  6
CONTINUOUS
 10
148.8685699168
 20
142.4265962739
 11
150.7450009026
 21
142.4265962739
  0
LINE
  5
4DD
100
AcDbEntity
  8
RACCORDO
100
AcDbLine
 62
7
  6
CONTINUOUS
 10
150.7567888367
 20
142.4383842079
 11
148.8567819828
 21
142.4383842079
  0
LINE
  5
4DE
100
AcDbEntity
  8
RACCORDO
100
AcDbLine
 62
7
  6
CONTINUOUS
 10
131.8567888367
 20
142.4383842079
 11
129.9567819828
 21
142.4383842079
  0
LINE
  5
4DF
100
AcDbEntity
  8
RACCORDO
100
AcDbLine
 62
7
  6
CONTINUOUS
 10
128.2567888367
 20
142.4383842079
 11
126.3567819828
 21
142.4383842079
  0
LINE
  5
4E0
100
AcDbEntity
  8
RACCORDO
100
AcDbLine
 62
7
  6
CONTINUOUS
 10
109.3567888367
 20
142.4383842079
 11
107.4567819828
 21
142.4383842079
  0
LWPOLYLINE
  5
4E1
100
AcDbEntity
  8
RACCORDO
100
AcDbPolyline
 62
7
  6
CONTINUOUS
 90
13
 70
0
 10
113.5605780961
 20
141.7337231748
 10
113.5771706915
 20
141.7325259605
 10
113.5952842417
 20
141.7292090932
 10
113.6149187464
 20
141.7238378271
 10
113.6361077778
 20
141.7165127312
 10
113.6588177639
 20
141.7073304498
 10
113.6829479885
 20
141.6963489987
 10
113.708485019
 20
141.6836958306
 10
113.7354422881
 20
141.6694864432
 10
113.7637593777
 20
141.6537176016
 10
113.7935048342
 20
141.6364958049
 10
113.8246101111
 20
141.6179907417
 10
113.8568091506
 20
141.5982720879
  0
LWPOLYLINE
  5
4E2
100
AcDbEntity
  8
RACCORDO
100
AcDbPolyline
 62
7
  6
CONTINUOUS
 90
13
 70
0
 10
136.0605780961
 20
141.7337231748
 10
136.0771706915
 20
141.7325259605
 10
136.0952842417
 20
141.7292090932
 10
136.1149187464
 20
141.7238378271
 10
136.1361077778
 20
141.7165127312
 10
136.1588177639
 20
141.7073304498
 10
136.1829479885
 20
141.6963489987
 10
136.208485019
 20
141.6836958306
 10
136.2354422881
 20
141.6694864432
 10
136.2637593777
 20
141.6537176016
 10
136.2935048342
 20
141.6364958049
 10
136.3246101111
 20
141.6179907417
 10
136.3568091506
 20
141.5982720879
  0
LWPOLYLINE
  5
4E3
100
AcDbEntity
  8
RACCORDO
100
AcDbPolyline
 62
7
  6
CONTINUOUS
 90
3
 70
0
 10
128.3214916077
 20
142.4298643031
 10
128.2894193712
 20
142.4362446326
 10
128.2567888367
 20
142.4383842079
  0
LWPOLYLINE
  5
4E4
100
AcDbEntity
  8
RACCORDO
100
AcDbPolyline
 62
7
  6
CONTINUOUS
 90
3
 70
0
 10
131.9214916077
 20
142.4298643031
 10
131.8894193712
 20
142.4362446326
 10
131.8567888367
 20
142.4383842079
  0
LINE
  5
4E5
100
AcDbEntity
  8
RACCORDO
100
AcDbLine
 62
7
  6
CONTINUOUS
 10
136.3568091506
 20
141.5982720879
 11
136.4597027864
 21
141.5337265594
  0
LINE
  5
4E6
100
AcDbEntity
  8
RACCORDO
100
AcDbLine
 62
7
  6
CONTINUOUS
 10
151.0046458344
 20
93.6557502465
 11
150.9982655049
 21
93.62367801
  0
LINE
  5
4E7
100
AcDbEntity
  8
DRAFT
100
AcDbLine
 62
7
  6
CONTINUOUS
 10
107.1578731927
 20
140.2746273583
 11
107.2067942116
 21
140.2837948926
  0
LWPOLYLINE
  5
4E8
100
AcDbEntity
  8
DRAFT
100
AcDbPolyline
 62
7
  6
CONTINUOUS
 90
5
 70
0
 10
151.0067854097
 20
140.2837936893
 10
151.0557056652
 20
140.2746254337
 10
151.1032952938
 20
140.2606969269
 10
151.149101983
 20
140.2421995022
 10
151.1628834553
 20
140.2355675166
  0
LINE
  5
4E9
100
AcDbEntity
  8
RACCORDO
100
AcDbLine
 62
7
  6
CONTINUOUS
 10
151.0046458344
 20
142.2210181694
 11
150.9982655049
 21
142.2530904058
  0
LWPOLYLINE
  5
4EA
100
AcDbEntity
  8
0
100
AcDbPolyline
 62
7
  6
CONTINUOUS
 90
3
 70
0
 43
0.3500000006
 10
158.0639293213
 20
117.0812417908
 10
158.0639293213
 20
115.581241333
 10
155.7067818604
 20
116.2240947876
  0
LWPOLYLINE
  5
4EB
100
AcDbEntity
  8
RACCORDO
100
AcDbPolyline
 62
7
  6
CONTINUOUS
 90
9
 70
0
 10
150.9982655049
 20
93.62367801
 10
150.9877535867
 20
93.5927128173
 10
150.9732899353
 20
93.5633844729
 10
150.9551220192
 20
93.5361947755
 10
150.9335606857
 20
93.511608932
 10
150.9089748422
 20
93.4900475985
 10
150.8817851448
 20
93.4718796824
 10
150.8524568004
 20
93.457416031
 10
150.8214916077
 20
93.4469041128
  0
LWPOLYLINE
  5
4EC
100
AcDbEntity
  8
RACCORDO
100
AcDbPolyline
 62
253
  6
CONTINUOUS
 90
15
 70
0
 10
151.2894224208
 20
97.446686824
 10
151.2858420861
 20
97.4445661429
 10
151.2769437925
 20
97.4424681874
 10
151.2628228788
 20
97.4404154358
 10
151.2436306402
 20
97.4384298817
 10
151.2195727078
 20
97.436532799
 10
151.1909068447
 20
97.4347445136
 10
151.157940185
 20
97.4330841855
 10
151.1210259423
 20
97.4315696042
 10
151.0805596262
 20
97.4302169971
 10
151.0369748037
 20
97.4290408566
 10
150.9907384547
 20
97.4280537841
 10
150.9423459679
 20
97.4272663552
 10
150.8923158339
 20
97.4266870067
 10
150.8411840892
 20
97.4263219458
  0
LWPOLYLINE
  5
4ED
100
AcDbEntity
  8
RACCORDO
100
AcDbPolyline
 62
7
  6
CONTINUOUS
 90
3
 70
0
 10
107.3920792118
 20
142.4298643031
 10
107.4241514483
 20
142.4362446326
 10
107.4567819828
 20
142.4383842079
  0
LWPOLYLINE
  5
4EE
100
AcDbEntity
  8
RACCORDO
100
AcDbPolyline
 62
7
  6
CONTINUOUS
 90
3
 70
0
 10
150.8214916077
 20
142.4298643031
 10
150.7894193712
 20
142.4362446326
 10
150.7567888367
 20
142.4383842079
  0
LWPOLYLINE
  5
4EF
100
AcDbEntity
  8
RACCORDO
100
AcDbPolyline
 62
253
  6
CONTINUOUS
 90
16
 70
0
 10
151.2894224209
 20
138.4300815918
 10
151.2858429139
 20
138.4322023062
 10
151.2769453207
 20
138.4343002982
 10
151.2628249749
 20
138.4363530888
 10
151.2436331689
 20
138.4383386833
 10
151.2195755335
 20
138.4402358072
 10
151.1909098345
 20
138.4420241335
 10
151.1579432108
 20
138.4436845014
 10
151.1210288836
 20
138.4451991208
 10
151.0805623717
 20
138.4465517632
 10
151.0369772541
 20
138.4477279358
 10
150.9907405238
 20
138.4487150365
 10
150.9423475848
 20
138.4495024891
 10
150.8923169436
 20
138.4500818565
 10
150.841184654
 20
138.4504469311
 10
150.7894985733
 20
138.4505938012
  0
LWPOLYLINE
  5
4F0
100
AcDbEntity
  8
RACCORDO
100
AcDbPolyline
 62
7
  6
CONTINUOUS
 90
9
 70
0
 10
150.9982655049
 20
142.2530904058
 10
150.9877535867
 20
142.2840555986
 10
150.9732899353
 20
142.3133839429
 10
150.9551220192
 20
142.3405736404
 10
150.9335606857
 20
142.3651594838
 10
150.9089748422
 20
142.3867208174
 10
150.8817851448
 20
142.4048887335
 10
150.8524568004
 20
142.4193523848
 10
150.8214916077
 20
142.4298643031
  0
LINE
  5
4F1
100
AcDbEntity
  8
RACCORDO
100
AcDbLine
 62
253
  6
CONTINUOUS
 10
148.6067854097
 20
93.688380781
 11
148.6185733438
 21
93.700168715
  0
LINE
  5
4F2
100
AcDbEntity
  8
RACCORDO
100
AcDbLine
 62
253
  6
CONTINUOUS
 10
148.8567819828
 20
93.4383842079
 11
148.8685699168
 21
93.450172142
  0
LINE
  5
4F3
100
AcDbEntity
  8
RACCORDO
100
AcDbLine
 62
253
  6
CONTINUOUS
 10
151.4393685073
 20
96.0884984793
 11
151.4567854097
 21
96.0972062673
  0
LWPOLYLINE
  5
4F4
100
AcDbEntity
  8
DRAFT
100
AcDbPolyline
 62
7
  6
CONTINUOUS
 90
4
 70
0
 10
151.1628835176
 20
95.6412009304
 10
151.1490955889
 20
95.634565957
 10
151.1032880645
 20
95.6160689796
 10
151.0556976268
 20
95.6021410576
  0
LWPOLYLINE
  5
4F5
100
AcDbEntity
  8
0
100
AcDbPolyline
 62
7
  6
CONTINUOUS
 90
3
 70
0
 43
0.3500000006
 10
128.5710715942
 20
151.8312478638
 10
127.0710711365
 20
151.8312478638
 10
127.7139245911
 20
154.1883771973
  0
LWPOLYLINE
  5
4F6
100
AcDbEntity
  8
0
100
AcDbPolyline
 62
7
  6
CONTINUOUS
 90
3
 70
0
 43
0.3500000006
 10
126.2139241333
 20
151.8312478638
 10
124.7139327393
 20
151.8312478638
 10
125.3567861938
 20
154.1883771973
  0
LINE
  5
4F7
100
AcDbEntity
  8
RACCORDO
100
AcDbLine
 62
253
  6
CONTINUOUS
 10
151.4567854097
 20
139.7795621485
 11
151.4393685073
 21
139.7882699365
  0
LWPOLYLINE
  5
4F8
100
AcDbEntity
  8
DRAFT
100
AcDbPolyline
 62
7
  6
CONTINUOUS
 90
13
 70
0
 10
151.1628834553
 20
140.2355675166
 10
151.1928114598
 20
140.2193003079
 10
151.2339018602
 20
140.1923148305
 10
151.2717161272
 20
140.1618086748
 10
151.3058305037
 20
140.1283851922
 10
151.3362534574
 20
140.092317844
 10
151.3630346475
 20
140.053719255
 10
151.3860168847
 20
140.0129007998
 10
151.4050068067
 20
139.9703040693
 10
151.4199359976
 20
139.9261680612
 10
151.4306967831
 20
139.8808269918
 10
151.4371888166
 20
139.8347272572
 10
151.4393685073
 20
139.7882699365
  0
LINE
  5
4F9
100
AcDbEntity
  8
RACCORDO
100
AcDbLine
 62
253
  6
CONTINUOUS
 10
148.6185733438
 20
142.1765997008
 11
148.6067854097
 21
142.1883876349
  0
LINE
  5
4FA
100
AcDbEntity
  8
RACCORDO
100
AcDbLine
 62
253
  6
CONTINUOUS
 10
148.8685699168
 20
142.4265962739
 11
148.8567819828
 21
142.4383842079
  0
LWPOLYLINE
  5
4FB
100
AcDbEntity
  8
0
100
AcDbPolyline
 62
7
  6
CONTINUOUS
 90
10
 70
0
 43
0.3500000006
 10
66.7316164856
 20
164.188380249
 10
66.0887584991
 20
163.5455267944
 10
65.6601849976
 20
162.688388855
 10
65.6601849976
 20
161.6169483032
 10
66.0887584991
 20
161.1883793335
 10
66.7316164856
 20
161.1883793335
 10
67.1601854553
 20
161.6169483032
 10
67.1601854553
 20
162.4741043701
 10
66.7316164856
 20
162.9026733398
 10
65.8030428314
 20
162.9026733398
  0
LWPOLYLINE
  5
4FC
100
AcDbEntity
  8
0
100
AcDbPolyline
 62
7
  6
CONTINUOUS
 90
5
 70
0
 43
0.3500000006
 10
64.3744735565
 20
162.9026733398
 10
64.7316158752
 20
163.1169578247
 10
64.7316158752
 20
163.7598112793
 10
64.3744735565
 20
164.188380249
 10
63.5173310852
 20
164.188380249
  0
LWPOLYLINE
  5
4FD
100
AcDbEntity
  8
RACCORDO
100
AcDbPolyline
 62
7
  6
CONTINUOUS
 90
7
 70
0
 10
56.016019902
 20
141.205371506
 10
55.9921086805
 20
141.1913276466
 10
55.9681782279
 20
141.1775458361
 10
55.9444638383
 20
141.1640260744
 10
55.9212281403
 20
141.1506279805
 10
55.8987048945
 20
141.1374919355
 10
55.8566997475
 20
141.1132609087
  0
LINE
  5
4FE
100
AcDbEntity
  8
RACCORDO
100
AcDbLine
 62
7
  6
CONTINUOUS
 10
55.8566997475
 20
141.1132609087
 11
55.8377576419
 21
141.102165927
  0
LWPOLYLINE
  5
4FF
100
AcDbEntity
  8
RACCORDO
100
AcDbPolyline
 62
7
  6
CONTINUOUS
 90
7
 70
0
 10
55.8377576419
 20
141.102165927
 10
55.8052100202
 20
141.0833662335
 10
55.7921617712
 20
141.0756615217
 10
55.7816093374
 20
141.0695314592
 10
55.773802943
 20
141.0651243032
 10
55.7689762884
 20
141.0622917963
 10
55.7673288929
 20
141.0610339387
  0
LINE
  5
500
100
AcDbEntity
  8
RACCORDO
100
AcDbLine
 62
253
  6
CONTINUOUS
 10
57.2673288929
 20
141.3489533271
 11
58.0186378839
 21
141.7827217752
  0
LINE
  5
501
100
AcDbEntity
  8
RACCORDO
100
AcDbLine
 62
7
  6
CONTINUOUS
 10
57.2673288929
 20
141.0610339387
 11
58.1423288929
 21
141.5662154243
  0
LINE
  5
502
100
AcDbEntity
  8
RACCORDO
100
AcDbLine
 62
7
  6
CONTINUOUS
 10
57.2673288929
 20
93.4383842079
 11
58.0186378839
 21
93.4423180886
  0
LINE
  5
503
100
AcDbEntity
  8
RACCORDO
100
AcDbLine
 62
253
  6
CONTINUOUS
 10
57.2673288929
 20
93.688380781
 11
58.0186378839
 21
93.6923146616
  0
LINE
  5
504
100
AcDbEntity
  8
RACCORDO
100
AcDbLine
 62
253
  6
CONTINUOUS
 10
58.0186378839
 20
93.6923146616
 11
58.2673288929
 21
93.6923146616
  0
LINE
  5
505
100
AcDbEntity
  8
RACCORDO
100
AcDbLine
 62
253
  6
CONTINUOUS
 10
55.016019902
 20
93.700168715
 11
54.7673288929
 21
93.700168715
  0
LINE
  5
506
100
AcDbEntity
  8
RACCORDO
100
AcDbLine
 62
7
  6
CONTINUOUS
 10
55.016019902
 20
93.450172142
 11
57.2673288929
 21
93.4383842079
  0
LINE
  5
507
100
AcDbEntity
  8
RACCORDO
100
AcDbLine
 62
253
  6
CONTINUOUS
 10
55.016019902
 20
93.700168715
 11
57.2673288929
 21
93.688380781
  0
LINE
  5
508
100
AcDbEntity
  8
RACCORDO
100
AcDbLine
 62
253
  6
CONTINUOUS
 10
58.0186378839
 20
94.0940466406
 11
57.2673288929
 21
94.5278150888
  0
LINE
  5
509
100
AcDbEntity
  8
RACCORDO
100
AcDbLine
 62
7
  6
CONTINUOUS
 10
58.1423288929
 20
94.3105529916
 11
57.2673288929
 21
94.8157344771
  0
LINE
  5
50A
100
AcDbEntity
  8
ASSI
100
AcDbLine
 62
7
  6
CONTINUOUS
 10
65.2673288929
 20
95.5732943378
 11
68.2673288929
 21
95.6256595326
  0
LINE
  5
50B
100
AcDbEntity
  8
0
100
AcDbLine
 62
7
  6
CONTINUOUS
 10
65.2673288929
 20
95.5732943378
 11
68.2673288929
 21
95.6256595326
  0
LINE
  5
50C
100
AcDbEntity
  8
RACCORDO
100
AcDbLine
 62
7
  6
CONTINUOUS
 10
57.2673287408
 20
95.5883842066
 11
67.2760554284
 21
95.6757290412
  0
LINE
  5
50D
100
AcDbEntity
  8
0
100
AcDbLine
 62
7
  6
CONTINUOUS
 10
57.2673288929
 20
95.5883842079
 11
58.2673288929
 21
95.5971110757
  0
LINE
  5
50E
100
AcDbEntity
  8
RACCORDO
100
AcDbLine
 62
7
  6
CONTINUOUS
 10
58.2619178617
 20
94.1441705573
 11
65.2673267271
 21
94.1849268338
  0
LINE
  5
50F
100
AcDbEntity
  8
RACCORDO
100
AcDbLine
 62
253
  6
CONTINUOUS
 10
55.016019902
 20
94.0940466406
 11
54.7673288929
 21
94.0940466406
  0
LINE
  5
510
100
AcDbEntity
  8
RACCORDO
100
AcDbLine
 62
253
  6
CONTINUOUS
 10
58.0186378839
 20
94.0940466406
 11
58.2673288929
 21
94.0940466453
  0
LWPOLYLINE
  5
511
100
AcDbEntity
  8
RACCORDO
100
AcDbPolyline
 62
7
  6
CONTINUOUS
 90
5
 70
0
 10
55.9236530826
 20
95.6631572072
 10
55.9460102993
 20
95.6630254916
 10
55.9689793621
 20
95.6625331142
 10
55.9923857328
 20
95.6617917448
 10
56.016019902
 20
95.6608013834
  0
LWPOLYLINE
  5
512
100
AcDbEntity
  8
RACCORDO
100
AcDbPolyline
 62
7
  6
CONTINUOUS
 90
5
 70
0
 10
55.8289584123
 20
95.6637660106
 10
55.845030425
 20
95.6634275467
 10
55.862672351
 20
95.6631751005
 10
55.8817495013
 20
95.6630086719
 10
55.9236530826
 20
95.6631572072
  0
LINE
  5
513
100
AcDbEntity
  8
RACCORDO
100
AcDbLine
 62
7
  6
CONTINUOUS
 10
55.8289584123
 20
95.6637660106
 11
49.6084900975
 21
95.9897669411
  0
LINE
  5
514
100
AcDbEntity
  8
RACCORDO
100
AcDbLine
 62
253
  6
CONTINUOUS
 10
49.6259318724
 20
96.4890817085
 11
57.2695152219
 21
96.0884984793
  0
LWPOLYLINE
  5
515
100
AcDbEntity
  8
RACCORDO
100
AcDbPolyline
 62
253
  6
CONTINUOUS
 90
4
 70
0
 10
54.8980569894
 20
141.5768324301
 10
54.8948133144
 20
141.5709861276
 10
54.8928995061
 20
141.567438586
 10
54.8923288929
 20
141.5662154243
  0
LINE
  5
516
100
AcDbEntity
  8
RACCORDO
100
AcDbLine
 62
253
  6
CONTINUOUS
 10
54.9084116678
 20
141.5951996971
 11
54.8980569894
 21
141.5768324301
  0
LINE
  5
517
100
AcDbEntity
  8
RACCORDO
100
AcDbLine
 62
253
  6
CONTINUOUS
 10
54.9536923692
 20
141.6744605549
 11
54.9084116678
 21
141.5951996971
  0
LINE
  5
518
100
AcDbEntity
  8
RACCORDO
100
AcDbLine
 62
253
  6
CONTINUOUS
 10
55.016019902
 20
141.7827217752
 11
54.9536923692
 21
141.6744605549
  0
LINE
  5
519
100
AcDbEntity
  8
ASSI
100
AcDbLine
 62
7
  6
CONTINUOUS
 10
68.2673288929
 20
97.8129348572
 11
58.2673288929
 21
97.6383842079
  0
LINE
  5
51A
100
AcDbEntity
  8
0
100
AcDbLine
 62
7
  6
CONTINUOUS
 10
68.2673288929
 20
97.8129348572
 11
58.2673288929
 21
97.6383842079
  0
LINE
  5
51B
100
AcDbEntity
  8
RACCORDO
100
AcDbLine
 62
253
  6
CONTINUOUS
 10
57.2695152219
 20
96.0884984793
 11
58.2673288929
 21
96.0972062673
  0
LINE
  5
51C
100
AcDbEntity
  8
RACCORDO
100
AcDbLine
 62
7
  6
CONTINUOUS
 10
58.2673288929
 20
96.9383842079
 11
68.2673288929
 21
96.85111553
  0
LINE
  5
51D
100
AcDbEntity
  8
RACCORDO
100
AcDbLine
 62
7
  6
CONTINUOUS
 10
67.7760550962
 20
96.3724087747
 11
58.2673288929
 21
96.5383842079
  0
LINE
  5
51E
100
AcDbEntity
  8
RACCORDO
100
AcDbLine
 62
253
  6
CONTINUOUS
 10
55.016019902
 20
94.0940466406
 11
54.9427960039
 21
94.2213106787
  0
LINE
  5
51F
100
AcDbEntity
  8
RACCORDO
100
AcDbLine
 62
253
  6
CONTINUOUS
 10
54.9427960039
 20
94.2213106787
 11
54.9084116574
 21
94.2815687376
  0
LWPOLYLINE
  5
520
100
AcDbEntity
  8
RACCORDO
100
AcDbPolyline
 62
253
  6
CONTINUOUS
 90
5
 70
0
 10
54.9084116574
 20
94.2815687376
 10
54.8980569852
 20
94.2999359934
 10
54.8948133115
 20
94.3057822914
 10
54.8928995033
 20
94.3093298295
 10
54.8923288889
 20
94.3105529892
  0
LWPOLYLINE
  5
521
100
AcDbEntity
  8
RACCORDO
100
AcDbPolyline
 62
253
  6
CONTINUOUS
 90
22
 70
0
 10
48.6791096845
 20
97.446686824
 10
48.6845270776
 20
97.3762591057
 10
48.6947346299
 20
97.3069733338
 10
48.7097323415
 20
97.2388295082
 10
48.7296401622
 20
97.171476658
 10
48.7543381422
 20
97.1052657542
 10
48.7834664322
 20
97.0412497098
 10
48.8170975468
 20
96.9794781655
 10
48.8551589714
 20
96.9199014805
 10
48.8970733132
 20
96.8634236459
 10
48.9428876437
 20
96.810104869
 10
48.9925548914
 20
96.7598849424
 10
49.0453564489
 20
96.7134872357
 10
49.1013489992
 20
96.6709598729
 10
49.1604758593
 20
96.63225473
 10
49.2218483728
 20
96.5979508046
 10
49.2855233944
 20
96.5681162483
 10
49.3514440692
 20
96.5426829096
 10
49.4185511766
 20
96.5220253319
 10
49.4864916427
 20
96.5062683631
 10
49.5556185414
 20
96.4952871553
 10
49.6259318724
 20
96.4890817085
  0
LINE
  5
522
100
AcDbEntity
  8
0
100
AcDbLine
 62
7
  6
CONTINUOUS
 10
47.814366746
 20
111.0801307516
 11
47.8139400219
 21
111.1113089661
  0
LINE
  5
523
100
AcDbEntity
  8
0
100
AcDbLine
 62
7
  6
CONTINUOUS
 10
47.8131614434
 20
111.1685651705
 11
47.813006804
 21
111.179995004
  0
LINE
  5
524
100
AcDbEntity
  8
0
100
AcDbLine
 62
7
  6
CONTINUOUS
 10
47.8006772798
 20
112.1636742833
 11
47.8004871723
 21
112.1801570618
  0
LINE
  5
525
100
AcDbEntity
  8
RACCORDO
100
AcDbLine
 62
253
  6
CONTINUOUS
 10
48.1909429527
 20
97.4263219458
 11
48.1882681968
 21
97.4261750839
  0
LINE
  5
526
100
AcDbEntity
  8
RACCORDO
100
AcDbLine
 62
253
  6
CONTINUOUS
 10
48.4788097094
 20
97.4384298817
 11
48.1909429527
 21
97.4263219458
  0
LINE
  5
527
100
AcDbEntity
  8
RACCORDO
100
AcDbLine
 62
253
  6
CONTINUOUS
 10
48.6791096845
 20
97.446686824
 11
48.4788097094
 21
97.4384298817
  0
LINE
  5
528
100
AcDbEntity
  8
ASSI
100
AcDbLine
 62
7
  6
CONTINUOUS
 10
68.2673288929
 20
98.3256595326
 11
71.7847812994
 21
98.3870568927
  0
LINE
  5
529
100
AcDbEntity
  8
0
100
AcDbLine
 62
7
  6
CONTINUOUS
 10
68.2673288929
 20
98.3256595326
 11
71.7847812994
 21
98.3870568927
  0
LINE
  5
52A
100
AcDbEntity
  8
ASSI
100
AcDbLine
 62
253
  6
CONTINUOUS
 10
68.2673288929
 20
98.6185081423
 11
71.7847812994
 21
98.6799055025
  0
LINE
  5
52B
100
AcDbEntity
  8
0
100
AcDbLine
 62
253
  6
CONTINUOUS
 10
68.2673288929
 20
98.6185081423
 11
71.7847812994
 21
98.6799055025
  0
LINE
  5
52C
100
AcDbEntity
  8
ASSI
100
AcDbLine
 62
253
  6
CONTINUOUS
 10
58.2673288929
 20
98.8026869884
 11
71.7847812994
 21
98.9004169054
  0
LINE
  5
52D
100
AcDbEntity
  8
0
100
AcDbLine
 62
253
  6
CONTINUOUS
 10
58.2673288929
 20
98.8026869884
 11
71.7847812994
 21
98.9004169054
  0
LWPOLYLINE
  5
52E
100
AcDbEntity
  8
RACCORDO
100
AcDbPolyline
 62
253
  6
CONTINUOUS
 90
10
 70
0
 10
48.6791096845
 20
138.4300815918
 10
48.5129861718
 20
133.8775175503
 10
48.3883935243
 20
129.3243809297
 10
48.3053317421
 20
124.7706717299
 10
48.263800808
 20
120.2160086748
 10
48.2638007392
 20
115.6607730406
 10
48.3053315873
 20
111.1061086556
 10
48.3883933695
 20
106.5523967959
 10
48.5129860685
 20
101.9992561854
 10
48.6791096845
 20
97.446686824
  0
LINE
  5
52F
100
AcDbEntity
  8
SCRITTE
100
AcDbLine
 62
253
  6
CONTINUOUS
 10
63.2668872425
 20
134.9479892079
 11
60.3677705433
 21
133.9399242079
  0
LINE
  5
530
100
AcDbEntity
  8
SCRITTE
100
AcDbLine
 62
253
  6
CONTINUOUS
 10
62.6524354533
 20
134.1125732079
 11
63.2668872425
 21
134.3215632079
  0
LINE
  5
531
100
AcDbEntity
  8
SCRITTE
100
AcDbLine
 62
253
  6
CONTINUOUS
 10
60.921924704
 20
133.5544382079
 11
62.1706492435
 21
133.9558582079
  0
LINE
  5
532
100
AcDbEntity
  8
ASSI
100
AcDbLine
 62
253
  6
CONTINUOUS
 10
58.2673288929
 20
100.2166851592
 11
71.7847812994
 21
100.3144214164
  0
LINE
  5
533
100
AcDbEntity
  8
0
100
AcDbLine
 62
253
  6
CONTINUOUS
 10
58.2673288929
 20
100.2166851592
 11
71.7847812994
 21
100.3144214164
  0
LINE
  5
534
100
AcDbEntity
  8
ASSI
100
AcDbLine
 62
253
  6
CONTINUOUS
 10
72.7673288929
 20
100.3144180247
 11
71.7847812994
 21
100.3144180247
  0
LINE
  5
535
100
AcDbEntity
  8
0
100
AcDbLine
 62
253
  6
CONTINUOUS
 10
72.7673288929
 20
100.3144180247
 11
71.7847812994
 21
100.3144180247
  0
LINE
  5
536
100
AcDbEntity
  8
SCRITTE
100
AcDbLine
 62
253
  6
CONTINUOUS
 10
64.7675573328
 20
100.9431462079
 11
66.2671004531
 21
100.9431462079
  0
LINE
  5
537
100
AcDbEntity
  8
SCRITTE
100
AcDbLine
 62
253
  6
CONTINUOUS
 10
69.3656383092
 20
101.4812413751
 11
71.26534893
 21
101.4812413751
  0
LINE
  5
538
100
AcDbEntity
  8
SCRITTE
100
AcDbLine
 62
253
  6
CONTINUOUS
 10
62.3707323759
 20
102.1465022079
 11
60.3754193065
 21
102.7161132079
  0
LINE
  5
539
100
AcDbEntity
  8
RACCORDO
100
AcDbLine
 62
253
  6
CONTINUOUS
 10
49.6259318724
 20
139.3876867074
 11
49.6206865485
 21
139.4914391629
  0
LINE
  5
53A
100
AcDbEntity
  8
RACCORDO
100
AcDbLine
 62
253
  6
CONTINUOUS
 10
49.6206865485
 20
139.4914391629
 11
49.616051104
 21
139.5906629692
  0
LINE
  5
53B
100
AcDbEntity
  8
RACCORDO
100
AcDbLine
 62
253
  6
CONTINUOUS
 10
49.616051104
 20
139.5906629692
 11
49.6122279011
 21
139.6810265902
  0
LWPOLYLINE
  5
53C
100
AcDbEntity
  8
RACCORDO
100
AcDbPolyline
 62
253
  6
CONTINUOUS
 90
9
 70
0
 10
49.6122279011
 20
139.6810265902
 10
49.6093838488
 20
139.7585851915
 10
49.6083696396
 20
139.7914784039
 10
49.6076431187
 20
139.8199527576
 10
49.6072122387
 20
139.8436966062
 10
49.6070817167
 20
139.8624500606
 10
49.607252982
 20
139.8760078674
 10
49.6077241614
 20
139.8842216417
 10
49.6084900997
 20
139.8870014749
  0
LWPOLYLINE
  5
53D
100
AcDbEntity
  8
RACCORDO
100
AcDbPolyline
 62
253
  6
CONTINUOUS
 90
7
 70
0
 10
49.6083696068
 20
96.0852883106
 10
49.6076431045
 20
96.0568143581
 10
49.60721224
 20
96.033070916
 10
49.6070817281
 20
96.0143178202
 10
49.6072529968
 20
96.000760295
 10
49.6077241721
 20
95.9925467068
 10
49.6084900975
 20
95.9897669411
  0
LINE
  5
53E
100
AcDbEntity
  8
RACCORDO
100
AcDbLine
 62
253
  6
CONTINUOUS
 10
49.6106745753
 20
96.1551329716
 11
49.6083696068
 21
96.0852883106
  0
LINE
  5
53F
100
AcDbEntity
  8
RACCORDO
100
AcDbLine
 62
253
  6
CONTINUOUS
 10
49.6140265238
 20
96.2395558881
 11
49.6106745753
 21
96.1551329716
  0
LINE
  5
540
100
AcDbEntity
  8
RACCORDO
100
AcDbLine
 62
253
  6
CONTINUOUS
 10
49.6182791259
 20
96.3348716476
 11
49.6140265238
 21
96.2395558881
  0
LWPOLYLINE
  5
541
100
AcDbEntity
  8
RACCORDO
100
AcDbPolyline
 62
253
  6
CONTINUOUS
 90
3
 70
0
 10
49.6259318724
 20
96.4890817085
 10
49.6232467377
 20
96.4369193195
 10
49.6182791259
 20
96.3348716476
  0
LINE
  5
542
100
AcDbEntity
  8
SCRITTE
100
AcDbLine
 62
7
  6
CONTINUOUS
 10
60.3677705433
 20
133.7356739929
 11
60.6809006442
 21
134.0488040937
  0
LINE
  5
543
100
AcDbEntity
  8
SCRITTE
100
AcDbLine
 62
7
  6
CONTINUOUS
 10
60.3677705433
 20
133.3156525649
 11
61.3248233548
 21
134.2727053763
  0
LINE
  5
544
100
AcDbEntity
  8
SCRITTE
100
AcDbLine
 62
7
  6
CONTINUOUS
 10
60.5919424949
 20
133.1198030883
 11
60.999773049
 21
133.5276336425
  0
LINE
  5
545
100
AcDbEntity
  8
SCRITTE
100
AcDbLine
 62
7
  6
CONTINUOUS
 10
61.076158101
 20
133.6040186944
 11
61.9687460654
 21
134.4966066589
  0
LINE
  5
546
100
AcDbEntity
  8
SCRITTE
100
AcDbLine
 62
7
  6
CONTINUOUS
 10
60.9004092237
 20
133.0082483892
 11
61.312215129
 21
133.4200542944
  0
LINE
  5
547
100
AcDbEntity
  8
SCRITTE
100
AcDbLine
 62
7
  6
CONTINUOUS
 10
61.6951693771
 20
133.8030085426
 11
62.612668776
 21
134.7205079414
  0
LINE
  5
548
100
AcDbEntity
  8
SCRITTE
100
AcDbLine
 62
253
  6
CONTINUOUS
 10
64.3663998334
 20
134.6812415449
 11
64.6377870488
 21
134.8621936886
  0
LINE
  5
549
100
AcDbEntity
  8
SCRITTE
100
AcDbLine
 62
253
  6
CONTINUOUS
 10
60.3754193065
 20
101.5937752079
 11
62.3707323759
 21
102.1465022079
  0
LINE
  5
54A
100
AcDbEntity
  8
ASSI
100
AcDbLine
 62
7
  6
CONTINUOUS
 10
81.2760550962
 20
103.9559915893
 11
73.2586026897
 21
103.816046437
  0
LINE
  5
54B
100
AcDbEntity
  8
0
100
AcDbLine
 62
7
  6
CONTINUOUS
 10
81.2760550962
 20
103.9559915893
 11
73.2586026897
 21
103.816046437
  0
LINE
  5
54C
100
AcDbEntity
  8
SCRITTE
100
AcDbLine
 62
253
  6
CONTINUOUS
 10
70.3154936196
 20
102.0240985422
 11
70.9939616863
 21
102.0240985422
  0
LINE
  5
54D
100
AcDbEntity
  8
SCRITTE
100
AcDbLine
 62
253
  6
CONTINUOUS
 10
66.2671004531
 20
102.3805342079
 11
64.7675573328
 21
102.3805342079
  0
LINE
  5
54E
100
AcDbEntity
  8
SCRITTE
100
AcDbLine
 62
253
  6
CONTINUOUS
 10
70.9939616863
 20
102.9740984289
 11
70.4511872273
 21
102.9740984289
  0
LINE
  5
54F
100
AcDbEntity
  8
SCRITTE
100
AcDbLine
 62
253
  6
CONTINUOUS
 10
60.3752453595
 20
103.5455882079
 11
63.2741901111
 21
103.5455882079
  0
LINE
  5
550
100
AcDbEntity
  8
SCRITTE
100
AcDbLine
 62
253
  6
CONTINUOUS
 10
60.3754193065
 20
103.3209712079
 11
63.2741901111
 21
102.3889062079
  0
LINE
  5
551
100
AcDbEntity
  8
SCRITTE
100
AcDbLine
 62
253
  6
CONTINUOUS
 10
64.7675573328
 20
102.3805342079
 11
66.2671004531
 21
101.6618412079
  0
LINE
  5
552
100
AcDbEntity
  8
SCRITTE
100
AcDbLine
 62
7
  6
CONTINUOUS
 10
61.2088759526
 20
132.8966936901
 11
61.624657209
 21
133.3124749464
  0
LINE
  5
553
100
AcDbEntity
  8
SCRITTE
100
AcDbLine
 62
7
  6
CONTINUOUS
 10
62.1706492435
 20
133.858466981
 11
63.2565914865
 21
134.944409224
  0
LINE
  5
554
100
AcDbEntity
  8
SCRITTE
100
AcDbLine
 62
7
  6
CONTINUOUS
 10
60.3677705433
 20
131.6355668528
 11
60.5913908985
 21
131.8591872079
  0
LINE
  5
555
100
AcDbEntity
  8
SCRITTE
100
AcDbLine
 62
7
  6
CONTINUOUS
 10
61.5173426815
 20
132.785138991
 11
61.9370992889
 21
133.2048955984
  0
LINE
  5
556
100
AcDbEntity
  8
SCRITTE
100
AcDbLine
 62
7
  6
CONTINUOUS
 10
62.1706492435
 20
133.4384455529
 11
62.6524354533
 21
133.9202317627
  0
LINE
  5
557
100
AcDbEntity
  8
SCRITTE
100
AcDbLine
 62
7
  6
CONTINUOUS
 10
62.9439167921
 20
134.2117131015
 11
63.2668872425
 21
134.5346835519
  0
LINE
  5
558
100
AcDbEntity
  8
SCRITTE
100
AcDbLine
 62
7
  6
CONTINUOUS
 10
60.4289683265
 20
131.2767432079
 11
61.0114123265
 21
131.8591872079
  0
LINE
  5
559
100
AcDbEntity
  8
SCRITTE
100
AcDbLine
 62
7
  6
CONTINUOUS
 10
61.8258094104
 20
132.6735842918
 11
62.6524354533
 21
133.5002103346
  0
LINE
  5
55A
100
AcDbEntity
  8
SCRITTE
100
AcDbLine
 62
7
  6
CONTINUOUS
 10
60.8489897546
 20
131.2767432079
 11
61.4314337546
 21
131.8591872079
  0
LINE
  5
55B
100
AcDbEntity
  8
SCRITTE
100
AcDbLine
 62
7
  6
CONTINUOUS
 10
62.1342761393
 20
132.5620295927
 11
62.6524354533
 21
133.0801889066
  0
LINE
  5
55C
100
AcDbEntity
  8
SCRITTE
100
AcDbLine
 62
7
  6
CONTINUOUS
 10
61.2690111826
 20
131.2767432079
 11
61.8514551826
 21
131.8591872079
  0
LINE
  5
55D
100
AcDbEntity
  8
SCRITTE
100
AcDbLine
 62
7
  6
CONTINUOUS
 10
62.4427428682
 20
132.4504748936
 11
62.8768607685
 21
132.8845927938
  0
LINE
  5
55E
100
AcDbEntity
  8
SCRITTE
100
AcDbLine
 62
7
  6
CONTINUOUS
 10
60.3677705433
 20
129.9554811407
 11
60.7723529951
 21
130.3600635924
  0
LINE
  5
55F
100
AcDbEntity
  8
SCRITTE
100
AcDbLine
 62
7
  6
CONTINUOUS
 10
61.6890326106
 20
131.2767432079
 11
62.2714766106
 21
131.8591872079
  0
LINE
  5
560
100
AcDbEntity
  8
SCRITTE
100
AcDbLine
 62
7
  6
CONTINUOUS
 10
62.7512095971
 20
132.3389201944
 11
63.1872771621
 21
132.7749877594
  0
LINE
  5
561
100
AcDbEntity
  8
SCRITTE
100
AcDbLine
 62
253
  6
CONTINUOUS
 10
65.1805614795
 20
134.6812415449
 11
65.4519487515
 21
134.9526699869
  0
LINE
  5
562
100
AcDbEntity
  8
SCRITTE
100
AcDbLine
 62
7
  6
CONTINUOUS
 10
60.3677705433
 20
129.5354597126
 11
61.5868063271
 21
130.7544954964
  0
LINE
  5
563
100
AcDbEntity
  8
SCRITTE
100
AcDbLine
 62
7
  6
CONTINUOUS
 10
62.1090540386
 20
131.2767432079
 11
62.6914980386
 21
131.8591872079
  0
LINE
  5
564
100
AcDbEntity
  8
SCRITTE
100
AcDbLine
 62
7
  6
CONTINUOUS
 10
63.059676326
 20
132.2273654953
 11
63.2668872425
 21
132.4345764118
  0
LINE
  5
565
100
AcDbEntity
  8
SCRITTE
100
AcDbLine
 62
253
  6
CONTINUOUS
 10
60.3677705433
 20
130.1641282079
 11
62.6651835692
 21
131.2767432079
  0
LINE
  5
566
100
AcDbEntity
  8
SCRITTE
100
AcDbLine
 62
253
  6
CONTINUOUS
 10
63.2668872425
 20
130.9755352079
 11
60.8405225056
 21
129.8227592079
  0
LINE
  5
567
100
AcDbEntity
  8
ASSI
100
AcDbLine
 62
253
  6
CONTINUOUS
 10
81.2760550962
 20
104.9558435124
 11
73.2586026897
 21
104.8158982764
  0
LINE
  5
568
100
AcDbEntity
  8
0
100
AcDbLine
 62
253
  6
CONTINUOUS
 10
81.2760550962
 20
104.9558435124
 11
73.2586026897
 21
104.8158982764
  0
LINE
  5
569
100
AcDbEntity
  8
SCRITTE
100
AcDbLine
 62
253
  6
CONTINUOUS
 10
64.7675573328
 20
104.0936152079
 11
66.2671004531
 21
104.0936152079
  0
LINE
  5
56A
100
AcDbEntity
  8
SCRITTE
100
AcDbLine
 62
253
  6
CONTINUOUS
 10
63.2741901111
 20
104.1508602079
 11
60.3752453595
 21
104.1508602079
  0
LINE
  5
56B
100
AcDbEntity
  8
ASSI
100
AcDbLine
 62
253
  6
CONTINUOUS
 10
72.7673288929
 20
104.8158941321
 11
73.2586026897
 21
104.8158941321
  0
LINE
  5
56C
100
AcDbEntity
  8
0
100
AcDbLine
 62
253
  6
CONTINUOUS
 10
72.7673288929
 20
104.8158941321
 11
73.2586026897
 21
104.8158941321
  0
LINE
  5
56D
100
AcDbEntity
  8
ASSI
100
AcDbLine
 62
253
  6
CONTINUOUS
 10
81.7673288929
 20
104.9558392845
 11
81.2760550962
 21
104.9558392845
  0
LINE
  5
56E
100
AcDbEntity
  8
0
100
AcDbLine
 62
253
  6
CONTINUOUS
 10
81.7673288929
 20
104.9558392845
 11
81.2760550962
 21
104.9558392845
  0
LINE
  5
56F
100
AcDbEntity
  8
SCRITTE
100
AcDbLine
 62
253
  6
CONTINUOUS
 10
64.7675573328
 20
105.6124792079
 11
66.2671004531
 21
105.6124792079
  0
LINE
  5
570
100
AcDbEntity
  8
SCRITTE
100
AcDbLine
 62
253
  6
CONTINUOUS
 10
61.3813478209
 20
105.1863622079
 11
63.2741901111
 21
105.0557442079
  0
LINE
  5
571
100
AcDbEntity
  8
SCRITTE
100
AcDbLine
 62
253
  6
CONTINUOUS
 10
63.2741901111
 20
104.4766962079
 11
60.3754193065
 21
104.7385182079
  0
LINE
  5
572
100
AcDbEntity
  8
SCRITTE
100
AcDbLine
 62
253
  6
CONTINUOUS
 10
71.26534893
 20
103.5169555394
 11
69.3656383092
 21
104.0598128764
  0
LINE
  5
573
100
AcDbEntity
  8
SCRITTE
100
AcDbLine
 62
253
  6
CONTINUOUS
 10
61.9848259536
 20
105.9421682079
 11
60.3754193065
 21
106.5474392079
  0
LINE
  5
574
100
AcDbEntity
  8
SCRITTE
100
AcDbLine
 62
253
  6
CONTINUOUS
 10
61.3892384168
 20
106.7009752079
 11
63.2741901111
 21
105.9813072079
  0
LINE
  5
575
100
AcDbEntity
  8
SCRITTE
100
AcDbLine
 62
253
  6
CONTINUOUS
 10
64.7675573328
 20
103.2391732079
 11
66.2671004531
 21
102.5810962079
  0
LINE
  5
576
100
AcDbEntity
  8
SCRITTE
100
AcDbLine
 62
253
  6
CONTINUOUS
 10
69.7727191888
 20
102.2955270974
 11
70.3154936196
 21
102.0240985422
  0
LWPOLYLINE
  5
577
100
AcDbEntity
  8
RACCORDO
100
AcDbPolyline
 62
253
  6
CONTINUOUS
 90
4
 70
0
 10
55.0156839775
 20
93.4620019354
 10
55.0157805128
 20
93.4554251808
 10
55.0158929698
 20
93.4514820979
 10
55.016019902
 20
93.450172142
  0
LINE
  5
578
100
AcDbEntity
  8
RACCORDO
100
AcDbLine
 62
253
  6
CONTINUOUS
 10
55.0155436796
 20
93.4829284753
 11
55.0156839775
 21
93.4620019354
  0
LINE
  5
579
100
AcDbEntity
  8
RACCORDO
100
AcDbLine
 62
253
  6
CONTINUOUS
 10
55.016019902
 20
142.1765997008
 11
55.0155397168
 21
142.3020874314
  0
LINE
  5
57A
100
AcDbEntity
  8
RACCORDO
100
AcDbLine
 62
7
  6
CONTINUOUS
 10
54.7673288929
 20
142.1765997008
 11
54.7673288929
 21
141.7827217752
  0
LINE
  5
57B
100
AcDbEntity
  8
RACCORDO
100
AcDbLine
 62
7
  6
CONTINUOUS
 10
54.7673288929
 20
94.0940466406
 11
54.7673288929
 21
93.700168715
  0
LINE
  5
57C
100
AcDbEntity
  8
RACCORDO
100
AcDbLine
 62
253
  6
CONTINUOUS
 10
55.016019902
 20
142.1765997008
 11
55.016019902
 21
141.7827217752
  0
LINE
  5
57D
100
AcDbEntity
  8
RACCORDO
100
AcDbLine
 62
253
  6
CONTINUOUS
 10
55.016019902
 20
94.0940466406
 11
55.016019902
 21
93.700168715
  0
LINE
  5
57E
100
AcDbEntity
  8
RACCORDO
100
AcDbLine
 62
7
  6
CONTINUOUS
 10
55.7673288929
 20
141.0610339387
 11
55.7673288929
 21
140.209772539
  0
LINE
  5
57F
100
AcDbEntity
  8
RACCORDO
100
AcDbLine
 62
7
  6
CONTINUOUS
 10
55.7673288929
 20
94.5278150888
 11
55.7673288929
 21
95.6669958769
  0
LINE
  5
580
100
AcDbEntity
  8
RACCORDO
100
AcDbLine
 62
253
  6
CONTINUOUS
 10
55.0154997099
 20
93.5526593713
 11
55.0155436796
 21
93.4829284753
  0
LINE
  5
581
100
AcDbEntity
  8
RACCORDO
100
AcDbLine
 62
253
  6
CONTINUOUS
 10
55.0155397168
 20
142.3020874314
 11
55.0155021748
 21
142.379672788
  0
LINE
  5
582
100
AcDbEntity
  8
RACCORDO
100
AcDbLine
 62
253
  6
CONTINUOUS
 10
55.016019902
 20
93.700168715
 11
55.0154997099
 21
93.5526593713
  0
LWPOLYLINE
  5
583
100
AcDbEntity
  8
RACCORDO
100
AcDbPolyline
 62
253
  6
CONTINUOUS
 90
6
 70
0
 10
55.0155021748
 20
142.379672788
 10
55.0156046257
 20
142.4055778548
 10
55.0156839776
 20
142.4147664815
 10
55.0157805128
 20
142.4213432357
 10
55.0158929698
 20
142.4252863182
 10
55.016019902
 20
142.4265962739
  0
LWPOLYLINE
  5
584
100
AcDbEntity
  8
DRAFT
100
AcDbPolyline
 62
7
  6
CONTINUOUS
 90
7
 70
0
 10
57.2673288929
 20
140.2837936893
 10
57.2661732539
 20
140.2746254337
 10
57.2652645027
 20
140.2606969269
 10
57.2646122043
 20
140.2421995022
 10
57.2642826674
 20
140.2193003079
 10
57.26422839
 20
140.1923148305
 10
57.2644208351
 20
140.1283851922
  0
LINE
  5
585
100
AcDbEntity
  8
SCRITTE
100
AcDbLine
 62
253
  6
CONTINUOUS
 10
65.1805614795
 20
134.2740984289
 11
65.0448679284
 21
134.0931462853
  0
LINE
  5
586
100
AcDbEntity
  8
SCRITTE
100
AcDbLine
 62
7
  6
CONTINUOUS
 10
60.4926464667
 20
129.2403142079
 11
61.0750914667
 21
129.8227592079
  0
LINE
  5
587
100
AcDbEntity
  8
SCRITTE
100
AcDbLine
 62
7
  6
CONTINUOUS
 10
61.2874091959
 20
130.0350769372
 11
62.4012596591
 21
131.1489274004
  0
LINE
  5
588
100
AcDbEntity
  8
SCRITTE
100
AcDbLine
 62
7
  6
CONTINUOUS
 10
62.5290754667
 20
131.2767432079
 11
63.1115194667
 21
131.8591872079
  0
LINE
  5
589
100
AcDbEntity
  8
SCRITTE
100
AcDbLine
 62
7
  6
CONTINUOUS
 10
60.9126678947
 20
129.2403142079
 11
61.4951128947
 21
129.8227592079
  0
LINE
  5
58A
100
AcDbEntity
  8
SCRITTE
100
AcDbLine
 62
7
  6
CONTINUOUS
 10
62.0876087833
 20
130.4152550965
 11
63.2668872425
 21
131.5945335558
  0
LINE
  5
58B
100
AcDbEntity
  8
SCRITTE
100
AcDbLine
 62
253
  6
CONTINUOUS
 10
66.2661104542
 20
134.2740984289
 11
65.9947232105
 21
134.0026699869
  0
LINE
  5
58C
100
AcDbEntity
  8
SCRITTE
100
AcDbLine
 62
7
  6
CONTINUOUS
 10
61.3326893227
 20
129.2403142079
 11
61.9151343227
 21
129.8227592079
  0
LINE
  5
58D
100
AcDbEntity
  8
SCRITTE
100
AcDbLine
 62
7
  6
CONTINUOUS
 10
62.8878083706
 20
130.7954332558
 11
63.2668872425
 21
131.1745121277
  0
LINE
  5
58E
100
AcDbEntity
  8
SCRITTE
100
AcDbLine
 62
7
  6
CONTINUOUS
 10
60.3677705433
 20
127.8553740005
 11
60.4590168469
 21
127.9466203041
  0
LINE
  5
58F
100
AcDbEntity
  8
SCRITTE
100
AcDbLine
 62
7
  6
CONTINUOUS
 10
61.7527107507
 20
129.2403142079
 11
62.3351557507
 21
129.8227592079
  0
LINE
  5
590
100
AcDbEntity
  8
SCRITTE
100
AcDbLine
 62
253
  6
CONTINUOUS
 10
64.6377870488
 20
131.9669555394
 11
64.3663998334
 21
131.6955270974
  0
LINE
  5
591
100
AcDbEntity
  8
SCRITTE
100
AcDbLine
 62
7
  6
CONTINUOUS
 10
60.3677705433
 20
127.4353525725
 11
61.1029766753
 21
128.1705587045
  0
LINE
  5
592
100
AcDbEntity
  8
SCRITTE
100
AcDbLine
 62
7
  6
CONTINUOUS
 10
62.1727321788
 20
129.2403142079
 11
62.7551771788
 21
129.8227592079
  0
LINE
  5
593
100
AcDbEntity
  8
SCRITTE
100
AcDbLine
 62
7
  6
CONTINUOUS
 10
60.4856513291
 20
127.1332119302
 11
61.7469365037
 21
128.3944971048
  0
LINE
  5
594
100
AcDbEntity
  8
SCRITTE
100
AcDbLine
 62
7
  6
CONTINUOUS
 10
62.5927536068
 20
129.2403142079
 11
63.1751986068
 21
129.8227592079
  0
LINE
  5
595
100
AcDbEntity
  8
SCRITTE
100
AcDbLine
 62
7
  6
CONTINUOUS
 10
60.7941265756
 20
127.0216657487
 11
61.2045511597
 21
127.4320903328
  0
LINE
  5
596
100
AcDbEntity
  8
SCRITTE
100
AcDbLine
 62
7
  6
CONTINUOUS
 10
61.4820257533
 20
127.7095649264
 11
62.390896332
 21
128.6184355051
  0
LINE
  5
597
100
AcDbEntity
  8
SCRITTE
100
AcDbLine
 62
7
  6
CONTINUOUS
 10
63.0127750348
 20
129.2403142079
 11
63.2668872425
 21
129.4944264156
  0
LINE
  5
598
100
AcDbEntity
  8
SCRITTE
100
AcDbLine
 62
253
  6
CONTINUOUS
 10
63.2668872425
 20
128.9230632079
 11
60.3677705433
 21
127.9148892079
  0
LINE
  5
599
100
AcDbEntity
  8
SCRITTE
100
AcDbLine
 62
253
  6
CONTINUOUS
 10
62.6524354533
 20
128.0875382079
 11
63.2668872425
 21
128.2964202079
  0
LINE
  5
59A
100
AcDbEntity
  8
SCRITTE
100
AcDbLine
 62
253
  6
CONTINUOUS
 10
60.921760754
 20
127.5294602079
 11
62.1706492435
 21
127.9309322079
  0
LINE
  5
59B
100
AcDbEntity
  8
SCRITTE
100
AcDbLine
 62
253
  6
CONTINUOUS
 10
60.3754193065
 20
107.1462962079
 11
63.2741901111
 21
107.4174462079
  0
LINE
  5
59C
100
AcDbEntity
  8
ASSI
100
AcDbLine
 62
7
  6
CONTINUOUS
 10
82.0411821701
 20
107.5623432652
 11
83.4934756158
 21
107.6894024778
  0
LINE
  5
59D
100
AcDbEntity
  8
0
100
AcDbLine
 62
7
  6
CONTINUOUS
 10
82.0411821701
 20
107.5623432652
 11
83.4934756158
 21
107.6894024778
  0
LINE
  5
59E
100
AcDbEntity
  8
SCRITTE
100
AcDbLine
 62
253
  6
CONTINUOUS
 10
63.2741901111
 20
106.8253302079
 11
61.3892384168
 21
106.7009752079
  0
LINE
  5
59F
100
AcDbEntity
  8
SCRITTE
100
AcDbLine
 62
253
  6
CONTINUOUS
 10
69.9084127399
 20
107.5883842079
 11
69.6370255245
 21
107.5883842079
  0
LINE
  5
5A0
100
AcDbEntity
  8
SCRITTE
100
AcDbLine
 62
253
  6
CONTINUOUS
 10
64.7675573328
 20
107.6986012079
 11
66.2671004531
 21
107.6986012079
  0
LINE
  5
5A1
100
AcDbEntity
  8
SCRITTE
100
AcDbLine
 62
253
  6
CONTINUOUS
 10
61.1719276269
 20
108.7033982079
 11
62.247697862
 21
108.4020232079
  0
LINE
  5
5A2
100
AcDbEntity
  8
SCRITTE
100
AcDbLine
 62
253
  6
CONTINUOUS
 10
62.6954924283
 20
108.2782122079
 11
63.2741901111
 21
108.1111952079
  0
LINE
  5
5A3
100
AcDbEntity
  8
SCRITTE
100
AcDbLine
 62
253
  6
CONTINUOUS
 10
63.2741901111
 20
107.5124902079
 11
60.3754193065
 21
108.4220062079
  0
LINE
  5
5A4
100
AcDbEntity
  8
DRAFT
100
AcDbLine
 62
7
  6
CONTINUOUS
 10
57.2668419214
 20
139.9261680612
 11
57.2695152219
 21
139.7882699365
  0
LWPOLYLINE
  5
5A5
100
AcDbEntity
  8
DRAFT
100
AcDbPolyline
 62
7
  6
CONTINUOUS
 90
5
 70
0
 10
57.2642838808
 20
95.6574648386
 10
57.2646133896
 20
95.634565957
 10
57.2652653721
 20
95.6160689796
 10
57.2661735918
 20
95.6021410576
 10
57.2673284835
 20
95.5929735232
  0
LINE
  5
5A6
100
AcDbEntity
  8
DRAFT
100
AcDbLine
 62
7
  6
CONTINUOUS
 10
57.265051702
 20
140.053719255
 11
57.2668419214
 21
139.9261680612
  0
LINE
  5
5A7
100
AcDbEntity
  8
DRAFT
100
AcDbLine
 62
7
  6
CONTINUOUS
 10
57.2644208351
 20
140.1283851922
 11
57.265051702
 21
140.053719255
  0
LINE
  5
5A8
100
AcDbEntity
  8
RACCORDO
100
AcDbLine
 62
253
  6
CONTINUOUS
 10
58.0186378839
 20
93.6923146616
 11
58.0189795724
 21
93.6147029248
  0
LINE
  5
5A9
100
AcDbEntity
  8
RACCORDO
100
AcDbLine
 62
7
  6
CONTINUOUS
 10
57.2673288929
 20
93.688380781
 11
57.2678079946
 21
93.5633844729
  0
LINE
  5
5AA
100
AcDbEntity
  8
RACCORDO
100
AcDbLine
 62
7
  6
CONTINUOUS
 10
57.2673288929
 20
142.1883876349
 11
57.2668497913
 21
142.3133839429
  0
LINE
  5
5AB
100
AcDbEntity
  8
RACCORDO
100
AcDbLine
 62
253
  6
CONTINUOUS
 10
56.016019902
 20
141.205371506
 11
56.016019902
 21
140.2159670324
  0
LINE
  5
5AC
100
AcDbEntity
  8
RACCORDO
100
AcDbLine
 62
253
  6
CONTINUOUS
 10
56.016019902
 20
95.6608013834
 11
56.016019902
 21
94.9593162981
  0
LINE
  5
5AD
100
AcDbEntity
  8
RACCORDO
100
AcDbLine
 62
7
  6
CONTINUOUS
 10
57.2673288929
 20
93.688380781
 11
57.2673288929
 21
95.5929089975
  0
LINE
  5
5AE
100
AcDbEntity
  8
RACCORDO
100
AcDbLine
 62
7
  6
CONTINUOUS
 10
57.2673288929
 20
140.2837936893
 11
57.2673288929
 21
142.1883876349
  0
LINE
  5
5AF
100
AcDbEntity
  8
DRAFT
100
AcDbLine
 62
7
  6
CONTINUOUS
 10
57.264288527
 20
95.7149562431
 11
57.2642838808
 21
95.6574648386
  0
LWPOLYLINE
  5
5B0
100
AcDbEntity
  8
RACCORDO
100
AcDbPolyline
 62
7
  6
CONTINUOUS
 90
6
 70
0
 10
57.2668497913
 20
142.3133839429
 10
57.2668497913
 20
142.4048887335
 10
57.2669276234
 20
142.4193523848
 10
57.2670347174
 20
142.4298643031
 10
57.2671692412
 20
142.4362446326
 10
57.2673288929
 20
142.4383842079
  0
LWPOLYLINE
  5
5B1
100
AcDbEntity
  8
RACCORDO
100
AcDbPolyline
 62
7
  6
CONTINUOUS
 90
6
 70
0
 10
57.2678079946
 20
93.5633844729
 10
57.2678079946
 20
93.4718796824
 10
57.2677301625
 20
93.457416031
 10
57.2676230684
 20
93.4469041128
 10
57.2674885447
 20
93.4405237833
 10
57.2673288929
 20
93.4383842079
  0
LINE
  5
5B2
100
AcDbEntity
  8
RACCORDO
100
AcDbLine
 62
253
  6
CONTINUOUS
 10
58.0186378839
 20
142.1844537542
 11
58.0189795724
 21
142.2620654897
  0
LINE
  5
5B3
100
AcDbEntity
  8
DRAFT
100
AcDbLine
 62
7
  6
CONTINUOUS
 10
57.264683093
 20
95.7844473283
 11
57.264288527
 21
95.7149562431
  0
LINE
  5
5B4
100
AcDbEntity
  8
DRAFT
100
AcDbLine
 62
7
  6
CONTINUOUS
 10
57.2655376971
 20
95.8638650088
 11
57.264683093
 21
95.7844473283
  0
LINE
  5
5B5
100
AcDbEntity
  8
DRAFT
100
AcDbLine
 62
7
  6
CONTINUOUS
 10
57.2676283949
 20
95.9959402729
 11
57.2655376971
 21
95.8638650088
  0
LINE
  5
5B6
100
AcDbEntity
  8
DRAFT
100
AcDbLine
 62
7
  6
CONTINUOUS
 10
57.2695152219
 20
96.0884984793
 11
57.2676283949
 21
95.9959402729
  0
LINE
  5
5B7
100
AcDbEntity
  8
SCRITTE
100
AcDbLine
 62
7
  6
CONTINUOUS
 10
61.1026018221
 20
126.9101195672
 11
61.5169931375
 21
127.3245108826
  0
LINE
  5
5B8
100
AcDbEntity
  8
SCRITTE
100
AcDbLine
 62
7
  6
CONTINUOUS
 10
62.1010365152
 20
127.9085542602
 11
63.0348561604
 21
128.8423739055
  0
LINE
  5
5B9
100
AcDbEntity
  8
SCRITTE
100
AcDbLine
 62
7
  6
CONTINUOUS
 10
61.4110770686
 20
126.7985733857
 11
61.8294351153
 21
127.2169314324
  0
LINE
  5
5BA
100
AcDbEntity
  8
SCRITTE
100
AcDbLine
 62
7
  6
CONTINUOUS
 10
62.1706492435
 20
127.5581455606
 11
62.6524354533
 21
128.0399317703
  0
LINE
  5
5BB
100
AcDbEntity
  8
SCRITTE
100
AcDbLine
 62
7
  6
CONTINUOUS
 10
62.7245607978
 20
128.1120571148
 11
63.2668872425
 21
128.6543835596
  0
LINE
  5
5BC
100
AcDbEntity
  8
SCRITTE
100
AcDbLine
 62
7
  6
CONTINUOUS
 10
61.7195523151
 20
126.6870272042
 11
62.1418770931
 21
127.1093519821
  0
LINE
  5
5BD
100
AcDbEntity
  8
SCRITTE
100
AcDbLine
 62
7
  6
CONTINUOUS
 10
62.1706492435
 20
127.1381241326
 11
62.6524354533
 21
127.6199103423
  0
LINE
  5
5BE
100
AcDbEntity
  8
SCRITTE
100
AcDbLine
 62
7
  6
CONTINUOUS
 10
62.0280275617
 20
126.5754810227
 11
62.6524354533
 21
127.1998889143
  0
LINE
  5
5BF
100
AcDbEntity
  8
SCRITTE
100
AcDbLine
 62
7
  6
CONTINUOUS
 10
60.3677705433
 20
124.4952025763
 11
60.6142961749
 21
124.7417282079
  0
LINE
  5
5C0
100
AcDbEntity
  8
SCRITTE
100
AcDbLine
 62
7
  6
CONTINUOUS
 10
62.3365028082
 20
126.4639348411
 11
62.7699106541
 21
126.897342687
  0
LINE
  5
5C1
100
AcDbEntity
  8
SCRITTE
100
AcDbLine
 62
7
  6
CONTINUOUS
 10
60.411711603
 20
124.1191222079
 11
61.034317603
 21
124.7417282079
  0
LINE
  5
5C2
100
AcDbEntity
  8
SCRITTE
100
AcDbLine
 62
7
  6
CONTINUOUS
 10
62.6449780547
 20
126.3523886596
 11
63.0803677494
 21
126.7877783544
  0
LINE
  5
5C3
100
AcDbEntity
  8
SCRITTE
100
AcDbLine
 62
7
  6
CONTINUOUS
 10
60.831733031
 20
124.1191222079
 11
61.454339031
 21
124.7417282079
  0
LINE
  5
5C4
100
AcDbEntity
  8
SCRITTE
100
AcDbLine
 62
7
  6
CONTINUOUS
 10
62.9534533012
 20
126.2408424781
 11
63.2668872425
 21
126.5542764195
  0
LINE
  5
5C5
100
AcDbEntity
  8
SCRITTE
100
AcDbLine
 62
253
  6
CONTINUOUS
 10
70.1797999553
 20
108.1312415449
 11
69.3656383092
 21
108.1312415449
  0
LINE
  5
5C6
100
AcDbEntity
  8
SCRITTE
100
AcDbLine
 62
253
  6
CONTINUOUS
 10
64.7675573328
 20
108.1466722079
 11
66.2671004531
 21
108.1466722079
  0
LINE
  5
5C7
100
AcDbEntity
  8
SCRITTE
100
AcDbLine
 62
253
  6
CONTINUOUS
 10
70.9939616863
 20
108.9455273239
 11
70.4511872273
 21
108.9455273239
  0
LINE
  5
5C8
100
AcDbEntity
  8
SCRITTE
100
AcDbLine
 62
253
  6
CONTINUOUS
 10
64.7675573328
 20
109.3375862079
 11
66.2671004531
 21
109.3375862079
  0
LINE
  5
5C9
100
AcDbEntity
  8
SCRITTE
100
AcDbLine
 62
253
  6
CONTINUOUS
 10
70.7225744426
 20
109.4883842079
 11
69.9084127399
 21
109.4883842079
  0
LINE
  5
5CA
100
AcDbEntity
  8
SCRITTE
100
AcDbLine
 62
253
  6
CONTINUOUS
 10
60.4092868137
 20
110.0749561575
 11
63.2741896368
 21
110.0749561575
  0
LINE
  5
5CB
100
AcDbEntity
  8
SCRITTE
100
AcDbLine
 62
253
  6
CONTINUOUS
 10
69.9084127399
 20
100.9383842079
 11
69.3656383092
 21
101.4812413751
  0
LINE
  5
5CC
100
AcDbEntity
  8
SCRITTE
100
AcDbLine
 62
253
  6
CONTINUOUS
 10
69.3656383092
 20
102.7026698737
 11
69.7727191888
 21
102.2955270974
  0
LWPOLYLINE
  5
5CD
100
AcDbEntity
  8
RACCORDO
100
AcDbPolyline
 62
253
  6
CONTINUOUS
 90
4
 70
0
 10
58.0189738083
 20
142.4226205339
 10
58.0188772731
 20
142.4291972885
 10
58.0187648161
 20
142.4331403714
 10
58.0186378839
 20
142.4344503273
  0
LINE
  5
5CE
100
AcDbEntity
  8
RACCORDO
100
AcDbLine
 62
253
  6
CONTINUOUS
 10
58.0191141063
 20
142.401693994
 11
58.0189738083
 21
142.4226205339
  0
LINE
  5
5CF
100
AcDbEntity
  8
RACCORDO
100
AcDbLine
 62
253
  6
CONTINUOUS
 10
58.0186378839
 20
93.6923146616
 11
58.0186378839
 21
94.0940466406
  0
LINE
  5
5D0
100
AcDbEntity
  8
RACCORDO
100
AcDbLine
 62
253
  6
CONTINUOUS
 10
58.0186378839
 20
141.7827217752
 11
58.0186378839
 21
142.1844537542
  0
LINE
  5
5D1
100
AcDbEntity
  8
RACCORDO
100
AcDbLine
 62
253
  6
CONTINUOUS
 10
58.0189795724
 20
93.6147029248
 11
58.0191770303
 21
93.505721945
  0
LINE
  5
5D2
100
AcDbEntity
  8
RACCORDO
100
AcDbLine
 62
7
  6
CONTINUOUS
 10
58.2673288929
 20
140.2796573401
 11
58.2673288929
 21
95.5971110757
  0
LINE
  5
5D3
100
AcDbEntity
  8
RACCORDO
100
AcDbLine
 62
7
  6
CONTINUOUS
 10
58.2673288929
 20
93.6923146616
 11
58.2673288929
 21
94.0940466406
  0
LINE
  5
5D4
100
AcDbEntity
  8
ASSI
100
AcDbLine
 62
7
  6
CONTINUOUS
 10
58.2673288929
 20
100.2166851592
 11
58.2673288929
 21
135.6600832566
  0
LINE
  5
5D5
100
AcDbEntity
  8
0
100
AcDbLine
 62
7
  6
CONTINUOUS
 10
58.2673288929
 20
100.2166851592
 11
58.2673288929
 21
135.6600832566
  0
LINE
  5
5D6
100
AcDbEntity
  8
RACCORDO
100
AcDbLine
 62
7
  6
CONTINUOUS
 10
58.2673288929
 20
141.7827217752
 11
58.2673288929
 21
142.1844537542
  0
LINE
  5
5D7
100
AcDbEntity
  8
RACCORDO
100
AcDbLine
 62
253
  6
CONTINUOUS
 10
58.019158076
 20
142.331963098
 11
58.0191141063
 21
142.401693994
  0
LINE
  5
5D8
100
AcDbEntity
  8
RACCORDO
100
AcDbLine
 62
253
  6
CONTINUOUS
 10
58.0189795724
 20
142.2620654897
 11
58.019158076
 21
142.331963098
  0
LWPOLYLINE
  5
5D9
100
AcDbEntity
  8
RACCORDO
100
AcDbPolyline
 62
253
  6
CONTINUOUS
 90
6
 70
0
 10
58.0191770303
 20
93.505721945
 10
58.0190531601
 20
93.4633365076
 10
58.0189738083
 20
93.454147881
 10
58.0188772731
 20
93.4475711267
 10
58.0187648161
 20
93.4436280443
 10
58.0186378839
 20
93.4423180886
  0
LINE
  5
5DA
100
AcDbEntity
  8
SCRITTE
100
AcDbLine
 62
7
  6
CONTINUOUS
 10
60.615743388
 20
123.4831111369
 11
60.6730456629
 21
123.5404134118
  0
LINE
  5
5DB
100
AcDbEntity
  8
SCRITTE
100
AcDbLine
 62
7
  6
CONTINUOUS
 10
61.251754459
 20
124.1191222079
 11
61.874360459
 21
124.7417282079
  0
LINE
  5
5DC
100
AcDbEntity
  8
SCRITTE
100
AcDbLine
 62
7
  6
CONTINUOUS
 10
62.7851020325
 20
125.6524697814
 11
62.947359459
 21
125.8147272079
  0
LINE
  5
5DD
100
AcDbEntity
  8
SCRITTE
100
AcDbLine
 62
7
  6
CONTINUOUS
 10
63.2619285477
 20
126.1292962966
 11
63.2668872425
 21
126.1342549914
  0
LINE
  5
5DE
100
AcDbEntity
  8
SCRITTE
100
AcDbLine
 62
7
  6
CONTINUOUS
 10
60.3824797349
 20
122.8298260558
 11
61.2813205428
 21
123.7286668637
  0
LINE
  5
5DF
100
AcDbEntity
  8
SCRITTE
100
AcDbLine
 62
7
  6
CONTINUOUS
 10
61.671775887
 20
124.1191222079
 11
62.294381887
 21
124.7417282079
  0
LINE
  5
5E0
100
AcDbEntity
  8
SCRITTE
100
AcDbLine
 62
7
  6
CONTINUOUS
 10
62.7851020325
 20
125.2324483534
 11
63.2668872425
 21
125.7142335634
  0
LINE
  5
5E1
100
AcDbEntity
  8
SCRITTE
100
AcDbLine
 62
7
  6
CONTINUOUS
 10
60.3677705433
 20
122.3950954362
 11
61.6382516806
 21
123.6655765735
  0
LINE
  5
5E2
100
AcDbEntity
  8
SCRITTE
100
AcDbLine
 62
7
  6
CONTINUOUS
 10
62.0917973151
 20
124.1191222079
 11
62.7144033151
 21
124.7417282079
  0
LINE
  5
5E3
100
AcDbEntity
  8
SCRITTE
100
AcDbLine
 62
7
  6
CONTINUOUS
 10
62.7851020325
 20
124.8124269254
 11
63.2668872425
 21
125.2942121354
  0
LINE
  5
5E4
100
AcDbEntity
  8
SCRITTE
100
AcDbLine
 62
7
  6
CONTINUOUS
 10
60.3677705433
 20
121.9750740082
 11
60.8495557534
 21
122.4568592182
  0
LINE
  5
5E5
100
AcDbEntity
  8
SCRITTE
100
AcDbLine
 62
7
  6
CONTINUOUS
 10
61.4349543536
 20
123.0422578184
 11
61.8900077495
 21
123.4973112143
  0
LINE
  5
5E6
100
AcDbEntity
  8
SCRITTE
100
AcDbLine
 62
7
  6
CONTINUOUS
 10
62.5118187431
 20
124.1191222079
 11
63.2668872425
 21
124.8741907074
  0
LINE
  5
5E7
100
AcDbEntity
  8
SCRITTE
100
AcDbLine
 62
7
  6
CONTINUOUS
 10
60.4614971711
 20
121.6487792079
 11
61.0841031711
 21
122.2713852079
  0
LINE
  5
5E8
100
AcDbEntity
  8
SCRITTE
100
AcDbLine
 62
7
  6
CONTINUOUS
 10
61.6402434157
 20
122.8275254526
 11
62.0460207342
 21
123.233302771
  0
LINE
  5
5E9
100
AcDbEntity
  8
SCRITTE
100
AcDbLine
 62
7
  6
CONTINUOUS
 10
62.9318401711
 20
124.1191222079
 11
63.2668872425
 21
124.4541692793
  0
LINE
  5
5EA
100
AcDbEntity
  8
SCRITTE
100
AcDbLine
 62
7
  6
CONTINUOUS
 10
60.8815185991
 20
121.6487792079
 11
61.5041245991
 21
122.2713852079
  0
LINE
  5
5EB
100
AcDbEntity
  8
SCRITTE
100
AcDbLine
 62
7
  6
CONTINUOUS
 10
61.6686800892
 20
122.435940698
 11
62.1304750031
 21
122.8977356119
  0
LINE
  5
5EC
100
AcDbEntity
  8
SCRITTE
100
AcDbLine
 62
253
  6
CONTINUOUS
 10
63.2741901111
 20
109.2592882079
 11
62.6954924283
 21
109.1024912079
  0
LINE
  5
5ED
100
AcDbEntity
  8
SCRITTE
100
AcDbLine
 62
253
  6
CONTINUOUS
 10
62.247697862
 20
108.9815282079
 11
61.1719276269
 21
108.7033982079
  0
LWPOLYLINE
  5
5EE
100
AcDbEntity
  8
SCRITTE
100
AcDbPolyline
 62
253
  6
CONTINUOUS
 90
53
 70
0
 10
61.2145550339
 20
111.4738034758
 10
61.2300076594
 20
111.4738818464
 10
61.2454643725
 20
111.4736276731
 10
61.2609145272
 20
111.4730223036
 10
61.2763474774
 20
111.4720470854
 10
61.2917525771
 20
111.4706833662
 10
61.3071191803
 20
111.4689124936
 10
61.3202526407
 20
111.467055907
 10
61.3333371552
 20
111.4648733456
 10
61.346359893
 20
111.4623517585
 10
61.3593080229
 20
111.4594780944
 10
61.3721687141
 20
111.4562393023
 10
61.3849291354
 20
111.4526223312
 10
61.3975764559
 20
111.4486141298
 10
61.4100873465
 20
111.4442063798
 10
61.4224512923
 20
111.4393900657
 10
61.4346470964
 20
111.4341603142
 10
61.446653562
 20
111.4285122519
 10
61.458449492
 20
111.4224410056
 10
61.4700136898
 20
111.4159417019
 10
61.4813249582
 20
111.4090094674
 10
61.4923581819
 20
111.4016457976
 10
61.5031011417
 20
111.3938583234
 10
61.5135374624
 20
111.3856606656
 10
61.5236507688
 20
111.3770664449
 10
61.5334246859
 20
111.3680892818
 10
61.5428428384
 20
111.3587427969
 10
61.5518888512
 20
111.349040611
 10
61.5605503678
 20
111.3389963169
 10
61.5688242572
 20
111.3286314478
 10
61.5767115101
 20
111.3179676002
 10
61.5842131172
 20
111.3070263704
 10
61.5913300694
 20
111.2958293549
 10
61.5980633575
 20
111.2843981499
 10
61.6044139722
 20
111.2727543519
 10
61.6103862856
 20
111.2609146434
 10
61.6159868369
 20
111.2488988835
 10
61.621225791
 20
111.2367221401
 10
61.6261133131
 20
111.224399481
 10
61.6306595683
 20
111.211945974
 10
61.6348747217
 20
111.1993766869
 10
61.6387689384
 20
111.1867066875
 10
61.6429207333
 20
111.171813341
 10
61.6466651322
 20
111.156815738
 10
61.6500178789
 20
111.1417262338
 10
61.6529947172
 20
111.1265571834
 10
61.6556113909
 20
111.1113209421
 10
61.6578836437
 20
111.0960298651
 10
61.6601768711
 20
111.0776228277
 10
61.662017063
 20
111.0591669076
 10
61.6634245432
 20
111.0406744023
 10
61.6644196354
 20
111.0221576093
 10
61.6650226632
 20
111.0036288261
  0
LINE
  5
5EF
100
AcDbEntity
  8
SCRITTE
100
AcDbLine
 62
253
  6
CONTINUOUS
 10
64.7675573328
 20
110.3685832079
 11
66.2671004531
 21
110.3685832079
  0
LINE
  5
5F0
100
AcDbEntity
  8
SCRITTE
100
AcDbLine
 62
253
  6
CONTINUOUS
 10
69.9084127399
 20
110.4383842079
 11
70.7225744426
 21
110.4383842079
  0
LINE
  5
5F1
100
AcDbEntity
  8
SCRITTE
100
AcDbLine
 62
253
  6
CONTINUOUS
 10
61.6650226632
 20
110.6577222301
 11
60.8692537604
 21
110.6577222301
  0
LINE
  5
5F2
100
AcDbEntity
  8
SCRITTE
100
AcDbLine
 62
253
  6
CONTINUOUS
 10
63.2741896368
 20
110.6777921187
 11
62.1397711564
 21
110.6777921187
  0
LINE
  5
5F3
100
AcDbEntity
  8
SCRITTE
100
AcDbLine
 62
253
  6
CONTINUOUS
 10
66.2671004531
 20
111.2962052079
 11
64.7675573328
 21
111.2962052079
  0
LINE
  5
5F4
100
AcDbEntity
  8
SCRITTE
100
AcDbLine
 62
253
  6
CONTINUOUS
 10
61.921069481
 20
111.6310792119
 11
61.9039402771
 21
111.6310792119
  0
LINE
  5
5F5
100
AcDbEntity
  8
SCRITTE
100
AcDbLine
 62
253
  6
CONTINUOUS
 10
69.3656383092
 20
106.9098126499
 11
69.7727191888
 21
106.6383842079
  0
LINE
  5
5F6
100
AcDbEntity
  8
SCRITTE
100
AcDbLine
 62
253
  6
CONTINUOUS
 10
71.26534893
 20
106.6383842079
 11
69.9084127399
 21
107.5883842079
  0
LINE
  5
5F7
100
AcDbEntity
  8
SCRITTE
100
AcDbLine
 62
253
  6
CONTINUOUS
 10
71.26534893
 20
102.7026698737
 11
70.9939616863
 21
102.9740984289
  0
LWPOLYLINE
  5
5F8
100
AcDbEntity
  8
SCRITTE
100
AcDbPolyline
 62
253
  6
CONTINUOUS
 90
24
 70
0
 10
60.8692537604
 20
110.6577222301
 10
60.8656972717
 20
110.6790742145
 10
60.8623165461
 20
110.7004633278
 10
60.8591277607
 20
110.7218872899
 10
60.8561470928
 20
110.7433438209
 10
60.8533907196
 20
110.7648306409
 10
60.8508748183
 20
110.7863454699
 10
60.848615566
 20
110.8078860281
 10
60.84662914
 20
110.8294500354
 10
60.8449317174
 20
110.851035212
 10
60.8435394756
 20
110.8726392778
 10
60.8424685916
 20
110.8942599531
 10
60.84178085
 20
110.9140891741
 10
60.841375497
 20
110.9339263506
 10
60.841251355
 20
110.9537673997
 10
60.841407246
 20
110.9736082384
 10
60.8418419923
 20
110.993444784
 10
60.8425544163
 20
111.0132729535
 10
60.8435414907
 20
111.0330893675
 10
60.8447926551
 20
111.052890844
 10
60.8462954872
 20
111.0726749047
 10
60.848037565
 20
111.0924390715
 10
60.8500064663
 20
111.1121808663
 10
60.8521897692
 20
111.1318978109
  0
LINE
  5
5F9
100
AcDbEntity
  8
SCRITTE
100
AcDbLine
 62
253
  6
CONTINUOUS
 10
60.3677705433
 20
133.9399242079
 11
60.3677705433
 21
133.2008732079
  0
LINE
  5
5FA
100
AcDbEntity
  8
SCRITTE
100
AcDbLine
 62
253
  6
CONTINUOUS
 10
60.3677705433
 20
127.9148892079
 11
60.3677705433
 21
127.1758382079
  0
LINE
  5
5FB
100
AcDbEntity
  8
SCRITTE
100
AcDbLine
 62
253
  6
CONTINUOUS
 10
60.3677705433
 20
122.5362092079
 11
60.3677705433
 21
121.6487792079
  0
LINE
  5
5FC
100
AcDbEntity
  8
SCRITTE
100
AcDbLine
 62
253
  6
CONTINUOUS
 10
60.3677705433
 20
124.1191222079
 11
60.3677705433
 21
124.7417282079
  0
LINE
  5
5FD
100
AcDbEntity
  8
SCRITTE
100
AcDbLine
 62
253
  6
CONTINUOUS
 10
60.3677705433
 20
129.2403142079
 11
60.3677705433
 21
130.1641282079
  0
LINE
  5
5FE
100
AcDbEntity
  8
SCRITTE
100
AcDbLine
 62
253
  6
CONTINUOUS
 10
60.3677705433
 20
131.2767432079
 11
60.3677705433
 21
131.8591872079
  0
LINE
  5
5FF
100
AcDbEntity
  8
SCRITTE
100
AcDbLine
 62
253
  6
CONTINUOUS
 10
60.3752453595
 20
104.1508602079
 11
60.3752453595
 21
103.5455882079
  0
LINE
  5
600
100
AcDbEntity
  8
SCRITTE
100
AcDbLine
 62
253
  6
CONTINUOUS
 10
60.3754193065
 20
100.9362642079
 11
60.3754193065
 21
101.5937752079
  0
LINE
  5
601
100
AcDbEntity
  8
SCRITTE
100
AcDbLine
 62
253
  6
CONTINUOUS
 10
60.3754193065
 20
102.7161132079
 11
60.3754193065
 21
103.3209712079
  0
LINE
  5
602
100
AcDbEntity
  8
SCRITTE
100
AcDbLine
 62
253
  6
CONTINUOUS
 10
60.3754193065
 20
104.7385182079
 11
60.3754193065
 21
105.3432892079
  0
LINE
  5
603
100
AcDbEntity
  8
SCRITTE
100
AcDbLine
 62
253
  6
CONTINUOUS
 10
60.3754193065
 20
106.5474392079
 11
60.3754193065
 21
107.1462962079
  0
LINE
  5
604
100
AcDbEntity
  8
SCRITTE
100
AcDbLine
 62
253
  6
CONTINUOUS
 10
60.3754193065
 20
108.4220062079
 11
60.3754193065
 21
109.0075342079
  0
LINE
  5
605
100
AcDbEntity
  8
SCRITTE
100
AcDbLine
 62
253
  6
CONTINUOUS
 10
60.8495557534
 20
122.2713852079
 11
60.8495557534
 21
122.6346012079
  0
LINE
  5
606
100
AcDbEntity
  8
SCRITTE
100
AcDbLine
 62
253
  6
CONTINUOUS
 10
61.6650226632
 20
111.0036288261
 11
61.6650226632
 21
110.6577222301
  0
LINE
  5
607
100
AcDbEntity
  8
SCRITTE
100
AcDbLine
 62
253
  6
CONTINUOUS
 10
61.6686801831
 20
122.2713852079
 11
61.6686801831
 21
122.6346012079
  0
LWPOLYLINE
  5
608
100
AcDbEntity
  8
SCRITTE
100
AcDbPolyline
 62
253
  6
CONTINUOUS
 90
55
 70
0
 10
60.8495562553
 20
122.6346012897
 10
60.8599258222
 20
122.7195428619
 10
60.8627002385
 20
122.740735821
 10
60.865715365
 20
122.7618967147
 10
60.8679097158
 20
122.775987793
 10
60.8702759791
 20
122.7900503964
 10
60.8728330143
 20
122.8040769443
 10
60.8756179079
 20
122.81811468
 10
60.8786742737
 20
122.8320986382
 10
60.8820622917
 20
122.8460190234
 10
60.8842801507
 20
122.8543145228
 10
60.8866862466
 20
122.8625573104
 10
60.8893283705
 20
122.8707209726
 10
60.8922543134
 20
122.8787790956
 10
60.8955118666
 20
122.8867052654
 10
60.8984969389
 20
122.8931660083
 10
60.9017393629
 20
122.8995037762
 10
60.9052350434
 20
122.9057047254
 10
60.9089924674
 20
122.9117840754
 10
60.9129738968
 20
122.9177196427
 10
60.9171520542
 20
122.9235195902
 10
60.922390886
 20
122.9303099795
 10
60.9278531421
 20
122.936923837
 10
60.9335182993
 20
122.9433681237
 10
60.939365834
 20
122.9496498006
 10
60.9453752229
 20
122.9557758286
 10
60.9530754789
 20
122.9632124828
 10
60.9609823954
 20
122.9704244042
 10
60.9690824949
 20
122.9774184576
 10
60.9773622996
 20
122.9842015079
 10
60.9858128535
 20
122.9907759663
 10
60.994436237
 20
122.9971209872
 10
61.0032390058
 20
123.003211328
 10
61.0122277157
 20
123.0090217461
 10
61.0214078623
 20
123.0145325209
 10
61.0307667243
 20
123.0197377388
 10
61.0402904227
 20
123.0246371625
 10
61.0499650787
 20
123.0292305548
 10
61.0597810754
 20
123.0335200053
 10
61.069722978
 20
123.0375070646
 10
61.0797795074
 20
123.0411958476
 10
61.0899393845
 20
123.0445904691
 10
61.1016443806
 20
123.0481113598
 10
61.1134554539
 20
123.0512702716
 10
61.1253588135
 20
123.0540828492
 10
61.1373406686
 20
123.0565647374
 10
61.1493872283
 20
123.0587315811
 10
61.1614847017
 20
123.0605990251
 10
61.173619298
 20
123.0621827141
 10
61.1878260642
 20
123.0636948563
 10
61.2020584028
 20
123.0648691638
 10
61.2163100456
 20
123.0657336865
 10
61.2305747241
 20
123.0663164743
 10
61.2448461702
 20
123.066645577
 10
61.2591181156
 20
123.0667490446
  0
LWPOLYLINE
  5
609
100
AcDbEntity
  8
SCRITTE
100
AcDbPolyline
 62
253
  6
CONTINUOUS
 90
48
 70
0
 10
60.8521897692
 20
111.1318978109
 10
60.8537866445
 20
111.1441531245
 10
60.8557301307
 20
111.1563745064
 10
60.8580211211
 20
111.1685488465
 10
60.8606605093
 20
111.1806630344
 10
60.8636491884
 20
111.1927039598
 10
60.866988052
 20
111.2046585124
 10
60.8706779935
 20
111.216513582
 10
60.8747199061
 20
111.2282560582
 10
60.8791146834
 20
111.2398728309
 10
60.8838632187
 20
111.2513507896
 10
60.8889664053
 20
111.262676824
 10
60.8939535795
 20
111.2729096686
 10
60.899235775
 20
111.2829938344
 10
60.9048095321
 20
111.2929191896
 10
60.9106713912
 20
111.3026756025
 10
60.9168178926
 20
111.3122529412
 10
60.9232455768
 20
111.3216410741
 10
60.929950984
 20
111.3308298691
 10
60.9369306547
 20
111.3398091947
 10
60.9441811293
 20
111.3485689189
 10
60.9516989479
 20
111.35709891
 10
60.9594806512
 20
111.3653890362
 10
60.9675227793
 20
111.3734291656
 10
60.9758192716
 20
111.3812081684
 10
60.9843630773
 20
111.3887196542
 10
60.9931446411
 20
111.3959561368
 10
61.0021544078
 20
111.40291013
 10
61.0113828221
 20
111.4095741475
 10
61.0208203289
 20
111.415940703
 10
61.0304573727
 20
111.4220023103
 10
61.0402843985
 20
111.4277514831
 10
61.050291851
 20
111.4331807352
 10
61.0604701749
 20
111.4382825802
 10
61.0708098149
 20
111.4430495321
 10
61.0813012159
 20
111.4474741044
 10
61.0919408948
 20
111.4515527962
 10
61.1027096021
 20
111.4552829502
 10
61.1135939823
 20
111.4586663324
 10
61.12458068
 20
111.4617047092
 10
61.1356563397
 20
111.4643998468
 10
61.1468076059
 20
111.4667535114
 10
61.1580211232
 20
111.4687674693
 10
61.169283536
 20
111.4704434866
 10
61.180581489
 20
111.4717833297
 10
61.1919016266
 20
111.4727887648
 10
61.2032305934
 20
111.4734615581
 10
61.2145550339
 20
111.4738034758
  0
LWPOLYLINE
  5
60A
100
AcDbEntity
  8
0
100
AcDbPolyline
 62
7
  6
CONTINUOUS
 90
3
 70
0
 43
0.3500000006
 10
72.0530447388
 20
151.4741010132
 10
71.9816135559
 20
151.2598165283
 10
71.838755722
 20
150.9740917969
  0
LINE
  5
60B
100
AcDbEntity
  8
SCRITTE
100
AcDbLine
 62
7
  6
CONTINUOUS
 10
61.3015400272
 20
121.6487792079
 11
62.1504661574
 21
122.4977053382
  0
LINE
  5
60C
100
AcDbEntity
  8
SCRITTE
100
AcDbLine
 62
7
  6
CONTINUOUS
 10
61.7215614552
 20
121.6487792079
 11
62.3441674552
 21
122.2713852079
  0
LINE
  5
60D
100
AcDbEntity
  8
SCRITTE
100
AcDbLine
 62
7
  6
CONTINUOUS
 10
62.1415828832
 20
121.6487792079
 11
62.7641888832
 21
122.2713852079
  0
LINE
  5
60E
100
AcDbEntity
  8
SCRITTE
100
AcDbLine
 62
7
  6
CONTINUOUS
 10
62.5616043112
 20
121.6487792079
 11
63.1842103112
 21
122.2713852079
  0
LINE
  5
60F
100
AcDbEntity
  8
SCRITTE
100
AcDbLine
 62
7
  6
CONTINUOUS
 10
62.9816257393
 20
121.6487792079
 11
63.2668872425
 21
121.9340407112
  0
LWPOLYLINE
  5
610
100
AcDbEntity
  8
SCRITTE
100
AcDbPolyline
 62
253
  6
CONTINUOUS
 90
39
 70
0
 10
62.4339862207
 20
111.9647864921
 10
62.4062113102
 20
111.9570571897
 10
62.3784930995
 20
111.9491208015
 10
62.3508542287
 20
111.9408920966
 10
62.3233173377
 20
111.9322858443
 10
62.3050294507
 20
111.9262975142
 10
62.286811944
 20
111.9200826803
 10
62.2686798163
 20
111.9136204992
 10
62.2506480665
 20
111.9068901276
 10
62.2327316933
 20
111.8998707224
 10
62.2149456954
 20
111.8925414403
 10
62.1973050717
 20
111.884881438
 10
62.1798248208
 20
111.8768698722
 10
62.1625199417
 20
111.8684858998
 10
62.1471087632
 20
111.8606033924
 10
62.1318743046
 20
111.8523826423
 10
62.1168390647
 20
111.843803983
 10
62.102025542
 20
111.8348477481
 10
62.0874562355
 20
111.8254942712
 10
62.0755190718
 20
111.8173826553
 10
62.0637870951
 20
111.8089737275
 10
62.0522802732
 20
111.8002596965
 10
62.041018574
 20
111.791232771
 10
62.0300219653
 20
111.78188516
 10
62.0193104151
 20
111.7722090721
 10
62.0103712586
 20
111.7636486848
 10
62.0016712016
 20
111.7548422857
 10
61.9932252302
 20
111.745790931
 10
61.9850483303
 20
111.7364956768
 10
61.9771554878
 20
111.7269575793
 10
61.9695616888
 20
111.7171776947
 10
61.9622819193
 20
111.7071570793
 10
61.9553294596
 20
111.6968976487
 10
61.9487158056
 20
111.6864122805
 10
61.9424506677
 20
111.6757147699
 10
61.936543756
 20
111.6648189124
 10
61.9310047808
 20
111.6537385033
 10
61.9258434524
 20
111.642487338
 10
61.921069481
 20
111.6310792119
  0
LINE
  5
611
100
AcDbEntity
  8
SCRITTE
100
AcDbLine
 62
253
  6
CONTINUOUS
 10
62.5548969349
 20
111.9975820717
 11
62.4339862207
 21
111.9647864921
  0
LINE
  5
612
100
AcDbEntity
  8
SCRITTE
100
AcDbLine
 62
253
  6
CONTINUOUS
 10
63.2741896368
 20
112.1868824871
 11
63.2088850675
 21
112.1693518833
  0
LINE
  5
613
100
AcDbEntity
  8
SCRITTE
100
AcDbLine
 62
253
  6
CONTINUOUS
 10
62.685633232
 20
112.0321708693
 11
62.5548969349
 21
111.9975820717
  0
LINE
  5
614
100
AcDbEntity
  8
SCRITTE
100
AcDbLine
 62
253
  6
CONTINUOUS
 10
63.2088850675
 20
112.1693518833
 11
62.685633232
 21
112.0321708693
  0
LINE
  5
615
100
AcDbEntity
  8
SCRITTE
100
AcDbLine
 62
253
  6
CONTINUOUS
 10
64.7675573328
 20
113.5880512079
 11
66.2671004531
 21
113.5880512079
  0
LINE
  5
616
100
AcDbEntity
  8
SCRITTE
100
AcDbLine
 62
253
  6
CONTINUOUS
 10
71.26534893
 20
111.5240988819
 11
69.3656383092
 21
112.0669557659
  0
LINE
  5
617
100
AcDbEntity
  8
SCRITTE
100
AcDbLine
 62
253
  6
CONTINUOUS
 10
64.7675573328
 20
112.6426992079
 11
66.2671004531
 21
111.9846222079
  0
LINE
  5
618
100
AcDbEntity
  8
SCRITTE
100
AcDbLine
 62
253
  6
CONTINUOUS
 10
69.9084127399
 20
109.4883842079
 11
69.6370255245
 21
109.6240988819
  0
LINE
  5
619
100
AcDbEntity
  8
SCRITTE
100
AcDbLine
 62
253
  6
CONTINUOUS
 10
70.7225744426
 20
110.4383842079
 11
70.9939616863
 21
110.3026695339
  0
LWPOLYLINE
  5
61A
100
AcDbEntity
  8
SCRITTE
100
AcDbPolyline
 62
253
  6
CONTINUOUS
 90
74
 70
0
 10
61.9039402771
 20
111.6310792119
 10
61.9030004676
 20
111.6356921197
 10
61.9015367736
 20
111.6401913391
 10
61.8997726189
 20
111.6446007685
 10
61.8938899773
 20
111.6574816656
 10
61.8873163819
 20
111.6699856506
 10
61.8802044817
 20
111.6822218462
 10
61.8726976958
 20
111.6942202979
 10
61.864858969
 20
111.7060073557
 10
61.8567377873
 20
111.7175913732
 10
61.8483520887
 20
111.7289843389
 10
61.8397158205
 20
111.7401925677
 10
61.8308462433
 20
111.7512171911
 10
61.812460234
 20
111.7727255723
 10
61.7932643747
 20
111.7935207651
 10
61.7733087235
 20
111.8135914694
 10
61.7526253862
 20
111.8329331079
 10
61.7312605988
 20
111.8515164039
 10
61.7092391247
 20
111.8693289361
 10
61.6865946582
 20
111.886348905
 10
61.6633761135
 20
111.9025450216
 10
61.6395929693
 20
111.9179124699
 10
61.6152768676
 20
111.9324286878
 10
61.5904594507
 20
111.9460711129
 10
61.5651893145
 20
111.9588115771
 10
61.539485196
 20
111.9706480002
 10
61.5133821836
 20
111.9815715459
 10
61.4869153653
 20
111.9915733782
 10
61.4601159786
 20
112.000647216
 10
61.433018593
 20
112.008790778
 10
61.4056540034
 20
112.0160045542
 10
61.3780530049
 20
112.0222890347
 10
61.3503003497
 20
112.0276383059
 10
61.3223752873
 20
112.0320808613
 10
61.2943102341
 20
112.0356352213
 10
61.2661376066
 20
112.0383199064
 10
61.2378898214
 20
112.040153437
 10
61.2095992948
 20
112.0411543337
 10
61.1812984434
 20
112.0413411168
 10
61.1530196837
 20
112.0407323068
 10
61.1247436342
 20
112.0393355703
 10
61.0965400046
 20
112.0371311047
 10
61.0684265156
 20
112.0340909752
 10
61.040420888
 20
112.0301872473
 10
61.0125450674
 20
112.0253946177
 10
60.9848328543
 20
112.0196974149
 10
60.9573222818
 20
112.0130825451
 10
60.9300513828
 20
112.0055369145
 10
60.9030566066
 20
111.997049104
 10
60.8763776208
 20
111.9876174576
 10
60.8500524763
 20
111.9772421055
 10
60.8241192242
 20
111.9659231781
 10
60.7986172556
 20
111.9536642543
 10
60.7735809482
 20
111.9404776428
 10
60.7490460779
 20
111.926378973
 10
60.7250484211
 20
111.911383874
 10
60.7016066694
 20
111.8954984609
 10
60.678767955
 20
111.8787572537
 10
60.6565615334
 20
111.8611864764
 10
60.6350166599
 20
111.8428123528
 10
60.6141649549
 20
111.8236644557
 10
60.5940270249
 20
111.8037667204
 10
60.5746260687
 20
111.7831461753
 10
60.5559852852
 20
111.761829849
 10
60.5381352442
 20
111.7398487788
 10
60.5211134949
 20
111.7172219863
 10
60.5049652891
 20
111.6939722189
 10
60.4897358783
 20
111.670122224
 10
60.4801111309
 20
111.6538852822
 10
60.4709453905
 20
111.6373862463
 10
60.4622685301
 20
111.6206200805
 10
60.4541250936
 20
111.603586641
 10
60.4466032997
 20
111.5862736075
 10
60.4398063597
 20
111.5686733827
  0
LWPOLYLINE
  5
61B
100
AcDbEntity
  8
SCRITTE
100
AcDbPolyline
 62
253
  6
CONTINUOUS
 90
56
 70
0
 10
62.1504661173
 20
122.5362092163
 10
62.1461679151
 20
122.6429040733
 10
62.1437188632
 20
122.6962171652
 10
62.1409640344
 20
122.7495153345
 10
62.1377865008
 20
122.8028283069
 10
62.1340524996
 20
122.8561051134
 10
62.1319118914
 20
122.8827632718
 10
62.1294730279
 20
122.9093953655
 10
62.1266158149
 20
122.9359627821
 10
62.1232179671
 20
122.9624672137
 10
62.1191648187
 20
122.9888370141
 10
62.1143207061
 20
123.0150707419
 10
62.1085936856
 20
123.0411295343
 10
62.1020594148
 20
123.0669995557
 10
62.0948302033
 20
123.0927219766
 10
62.0870656647
 20
123.1182878928
 10
62.0789013362
 20
123.1437248399
 10
62.070380429
 20
123.1690446421
 10
62.0584869965
 20
123.2025916503
 10
62.0459029986
 20
123.235887504
 10
62.0325327137
 20
123.2688826486
 10
62.0219196562
 20
123.293402797
 10
62.0107215334
 20
123.3176601748
 10
61.9988497504
 20
123.3415891699
 10
61.9862157128
 20
123.3651241705
 10
61.9727444347
 20
123.3882021576
 10
61.9584178989
 20
123.4107662036
 10
61.9432317497
 20
123.4327620021
 10
61.9271816315
 20
123.4541352468
 10
61.9102745101
 20
123.4748275926
 10
61.892528274
 20
123.4948060106
 10
61.8739715506
 20
123.5140329787
 10
61.8546329671
 20
123.5324709748
 10
61.8345109608
 20
123.5501147964
 10
61.8136807412
 20
123.5669177799
 10
61.7921897825
 20
123.5828682749
 10
61.7700855588
 20
123.5979546307
 10
61.7473363568
 20
123.6122151218
 10
61.7240615988
 20
123.6255987363
 10
61.7003054011
 20
123.6381103956
 10
61.67611188
 20
123.6497550213
 10
61.6515276987
 20
123.6605348461
 10
61.6265847481
 20
123.6704521153
 10
61.6013173334
 20
123.6795060946
 10
61.5757597597
 20
123.6876960498
 10
61.5500595621
 20
123.6949980985
 10
61.5241405225
 20
123.7014836972
 10
61.4980374258
 20
123.7071936283
 10
61.4717850573
 20
123.7121686745
 10
61.4454246302
 20
123.7164467052
 10
61.4189675507
 20
123.7200626867
 10
61.3924315731
 20
123.7230481853
 10
61.3658344516
 20
123.7254347676
 10
61.3302996137
 20
123.727736098
 10
61.2947175298
 20
123.7290794943
 10
61.2591181156
 20
123.7295159591
  0
LINE
  5
61C
100
AcDbEntity
  8
SCRITTE
100
AcDbLine
 62
253
  6
CONTINUOUS
 10
62.1397711564
 20
110.6777921187
 11
62.1397711564
 21
111.0023241746
  0
LINE
  5
61D
100
AcDbEntity
  8
SCRITTE
100
AcDbLine
 62
253
  6
CONTINUOUS
 10
62.1504663928
 20
122.5362092079
 11
62.1504663928
 21
122.2713852079
  0
LINE
  5
61E
100
AcDbEntity
  8
SCRITTE
100
AcDbLine
 62
253
  6
CONTINUOUS
 10
62.1706492435
 20
133.9558582079
 11
62.1706492435
 21
133.1244802079
  0
LINE
  5
61F
100
AcDbEntity
  8
SCRITTE
100
AcDbLine
 62
253
  6
CONTINUOUS
 10
62.1706492435
 20
127.9309322079
 11
62.1706492435
 21
127.0994452079
  0
LINE
  5
620
100
AcDbEntity
  8
SCRITTE
100
AcDbLine
 62
253
  6
CONTINUOUS
 10
62.247697862
 20
108.4020232079
 11
62.247697862
 21
108.9815282079
  0
LINE
  5
621
100
AcDbEntity
  8
SCRITTE
100
AcDbLine
 62
253
  6
CONTINUOUS
 10
62.6524354533
 20
126.9388012079
 11
62.6524354533
 21
128.0875382079
  0
LINE
  5
622
100
AcDbEntity
  8
SCRITTE
100
AcDbLine
 62
253
  6
CONTINUOUS
 10
62.6524354533
 20
132.9638352079
 11
62.6524354533
 21
134.1125732079
  0
LINE
  5
623
100
AcDbEntity
  8
SCRITTE
100
AcDbLine
 62
253
  6
CONTINUOUS
 10
62.6954924283
 20
109.1024912079
 11
62.6954924283
 21
108.2782122079
  0
LINE
  5
624
100
AcDbEntity
  8
SCRITTE
100
AcDbLine
 62
253
  6
CONTINUOUS
 10
62.7851020325
 20
124.7417282079
 11
62.7851020325
 21
125.8147272079
  0
LINE
  5
625
100
AcDbEntity
  8
SCRITTE
100
AcDbLine
 62
253
  6
CONTINUOUS
 10
63.2668872425
 20
131.8591872079
 11
63.2668872425
 21
130.9755352079
  0
LINE
  5
626
100
AcDbEntity
  8
SCRITTE
100
AcDbLine
 62
253
  6
CONTINUOUS
 10
63.2668872425
 20
129.8227592079
 11
63.2668872425
 21
129.2403142079
  0
LINE
  5
627
100
AcDbEntity
  8
SCRITTE
100
AcDbLine
 62
253
  6
CONTINUOUS
 10
63.2668872425
 20
125.8147272079
 11
63.2668872425
 21
124.1191222079
  0
LINE
  5
628
100
AcDbEntity
  8
SCRITTE
100
AcDbLine
 62
253
  6
CONTINUOUS
 10
63.2668872425
 20
121.6487792079
 11
63.2668872425
 21
122.2713852079
  0
LINE
  5
629
100
AcDbEntity
  8
SCRITTE
100
AcDbLine
 62
253
  6
CONTINUOUS
 10
63.2668872425
 20
126.1275032079
 11
63.2668872425
 21
126.7219532079
  0
LINE
  5
62A
100
AcDbEntity
  8
SCRITTE
100
AcDbLine
 62
253
  6
CONTINUOUS
 10
63.2668872425
 20
128.2964202079
 11
63.2668872425
 21
128.9230632079
  0
LINE
  5
62B
100
AcDbEntity
  8
SCRITTE
100
AcDbLine
 62
253
  6
CONTINUOUS
 10
63.2668872425
 20
132.1524292079
 11
63.2668872425
 21
132.7468782079
  0
LINE
  5
62C
100
AcDbEntity
  8
SCRITTE
100
AcDbLine
 62
253
  6
CONTINUOUS
 10
63.2668872425
 20
134.3215632079
 11
63.2668872425
 21
134.9479892079
  0
LINE
  5
62D
100
AcDbEntity
  8
SCRITTE
100
AcDbLine
 62
253
  6
CONTINUOUS
 10
63.2741896368
 20
110.0749561575
 11
63.2741896368
 21
110.6777921187
  0
LINE
  5
62E
100
AcDbEntity
  8
SCRITTE
100
AcDbLine
 62
253
  6
CONTINUOUS
 10
63.2741896368
 20
111.6046817636
 11
63.2741896368
 21
112.1868824871
  0
LINE
  5
62F
100
AcDbEntity
  8
SCRITTE
100
AcDbLine
 62
253
  6
CONTINUOUS
 10
63.2741901111
 20
109.8972192079
 11
63.2741901111
 21
109.2592882079
  0
LINE
  5
630
100
AcDbEntity
  8
SCRITTE
100
AcDbLine
 62
253
  6
CONTINUOUS
 10
63.2741901111
 20
108.1111952079
 11
63.2741901111
 21
107.5124902079
  0
LINE
  5
631
100
AcDbEntity
  8
SCRITTE
100
AcDbLine
 62
253
  6
CONTINUOUS
 10
63.2741901111
 20
107.4174462079
 11
63.2741901111
 21
106.8253302079
  0
LINE
  5
632
100
AcDbEntity
  8
SCRITTE
100
AcDbLine
 62
253
  6
CONTINUOUS
 10
63.2741901111
 20
105.9813072079
 11
63.2741901111
 21
105.8964182079
  0
LINE
  5
633
100
AcDbEntity
  8
SCRITTE
100
AcDbLine
 62
253
  6
CONTINUOUS
 10
63.2741901111
 20
105.0557442079
 11
63.2741901111
 21
104.4766962079
  0
LINE
  5
634
100
AcDbEntity
  8
SCRITTE
100
AcDbLine
 62
253
  6
CONTINUOUS
 10
63.2741901111
 20
102.3889062079
 11
63.2741901111
 21
101.8555102079
  0
LINE
  5
635
100
AcDbEntity
  8
SCRITTE
100
AcDbLine
 62
253
  6
CONTINUOUS
 10
63.2741901111
 20
103.5455882079
 11
63.2741901111
 21
104.1508602079
  0
LWPOLYLINE
  5
636
100
AcDbEntity
  8
SCRITTE
100
AcDbPolyline
 62
253
  6
CONTINUOUS
 90
46
 70
0
 10
62.1397711564
 20
111.0023241746
 10
62.1399209699
 20
111.0125999747
 10
62.1403700757
 20
111.0228830688
 10
62.1411179713
 20
111.0331617456
 10
62.1421641542
 20
111.0434242938
 10
62.1435081221
 20
111.053659002
 10
62.1451493726
 20
111.0638541588
 10
62.1470874031
 20
111.0739980529
 10
62.1493217114
 20
111.084078973
 10
62.151851795
 20
111.0940852077
 10
62.1546771515
 20
111.1040050456
 10
62.1577972784
 20
111.1138267755
 10
62.1609273528
 20
111.1227652112
 10
62.1643066621
 20
111.1316040494
 10
62.1679354426
 20
111.1403366181
 10
62.1718139304
 20
111.1489562449
 10
62.1759423618
 20
111.1574562575
 10
62.1803209731
 20
111.1658299837
 10
62.1849339702
 20
111.1740456476
 10
62.1897883462
 20
111.1821240155
 10
62.1948766148
 20
111.1900599265
 10
62.2001912897
 20
111.1978482199
 10
62.2057248845
 20
111.2054837347
 10
62.211469913
 20
111.2129613103
 10
62.2174169169
 20
111.2202733292
 10
62.2235617089
 20
111.227418373
 10
62.2298982791
 20
111.2343924475
 10
62.2364206176
 20
111.2411915583
 10
62.2431227147
 20
111.2478117109
 10
62.2499985605
 20
111.2542489109
 10
62.257042535
 20
111.2605007189
 10
62.2642464552
 20
111.2665672903
 10
62.2716024957
 20
111.2724503719
 10
62.2791028309
 20
111.2781517104
 10
62.286739635
 20
111.2836730524
 10
62.2945050825
 20
111.2890161446
 10
62.3039752349
 20
111.2951904091
 10
62.3136079645
 20
111.3011149842
 10
62.3233921463
 20
111.3067939423
 10
62.3333166554
 20
111.3122313559
 10
62.3433703668
 20
111.3174312977
 10
62.3535421555
 20
111.32239784
 10
62.3638208967
 20
111.3271350556
 10
62.3741954652
 20
111.3316470168
 10
62.3846547362
 20
111.3359377962
 10
62.3951875847
 20
111.3400114664
  0
LWPOLYLINE
  5
637
100
AcDbEntity
  8
SCRITTE
100
AcDbPolyline
 62
253
  6
CONTINUOUS
 90
31
 70
0
 10
60.4398063597
 20
111.5686733827
 10
60.4294636642
 20
111.5390264301
 10
60.4197970414
 20
111.5091481993
 10
60.4108542636
 20
111.4790464231
 10
60.4026645034
 20
111.4487278344
 10
60.3951901638
 20
111.4182239386
 10
60.3883748045
 20
111.3875653095
 10
60.3821657779
 20
111.3567780797
 10
60.3765278934
 20
111.3258821512
 10
60.371429678
 20
111.2948930007
 10
60.3647271586
 20
111.2482651482
 10
60.3590727405
 20
111.2014972966
 10
60.3543772165
 20
111.1546277336
 10
60.3505726787
 20
111.1076740557
 10
60.3475975986
 20
111.0606571911
 10
60.3453904479
 20
111.0135980677
 10
60.34389325
 20
110.9665126407
 10
60.3430627134
 20
110.9194133
 10
60.3428590166
 20
110.8723074651
 10
60.3432423384
 20
110.8252025554
 10
60.3446041973
 20
110.762418998
 10
60.3468846568
 20
110.6996589408
 10
60.3500298387
 20
110.6369310543
 10
60.3539858646
 20
110.5742440087
 10
60.3586988564
 20
110.5116064743
 10
60.3641149357
 20
110.4490271214
 10
60.3714745548
 20
110.3740117816
 10
60.3797203807
 20
110.2990948709
 10
60.388803585
 20
110.2242785336
 10
60.3986753389
 20
110.1495649144
 10
60.4092868137
 20
110.0749561575
  0
LWPOLYLINE
  5
638
100
AcDbEntity
  8
ASSI
100
AcDbPolyline
 62
253
  6
CONTINUOUS
 90
10
 70
0
 10
73.2586026852
 20
133.760721979
 10
73.2583784146
 20
133.7603892554
 10
73.258160816
 20
133.7593807013
 10
73.2579495648
 20
133.7576933293
 10
73.257743765
 20
133.7553239371
 10
73.2575435995
 20
133.7522708016
 10
73.2573503638
 20
133.7485353999
 10
73.2571638435
 20
133.7441181525
 10
73.2569836458
 20
133.7390199913
 10
73.2566453867
 20
133.7268026939
  0
LWPOLYLINE
  5
639
100
AcDbEntity
  8
0
100
AcDbPolyline
 62
253
  6
CONTINUOUS
 90
10
 70
0
 10
73.2586026852
 20
133.760721979
 10
73.2583784146
 20
133.7603892554
 10
73.258160816
 20
133.7593807013
 10
73.2579495648
 20
133.7576933293
 10
73.257743765
 20
133.7553239371
 10
73.2575435995
 20
133.7522708016
 10
73.2573503638
 20
133.7485353999
 10
73.2571638435
 20
133.7441181525
 10
73.2569836458
 20
133.7390199913
 10
73.2566453867
 20
133.7268026939
  0
LINE
  5
63A
100
AcDbEntity
  8
ASSI
100
AcDbLine
 62
7
  6
CONTINUOUS
 10
81.7673288929
 20
114.7768932079
 11
82.0673288929
 21
114.7768932079
  0
LINE
  5
63B
100
AcDbEntity
  8
0
100
AcDbLine
 62
7
  6
CONTINUOUS
 10
81.7673288929
 20
114.7768932079
 11
82.0673288929
 21
114.7768932079
  0
LINE
  5
63C
100
AcDbEntity
  8
SCRITTE
100
AcDbLine
 62
253
  6
CONTINUOUS
 10
66.2671004531
 20
115.1857662079
 11
65.6868522427
 21
115.1857662079
  0
LINE
  5
63D
100
AcDbEntity
  8
ASSI
100
AcDbLine
 62
7
  6
CONTINUOUS
 10
82.0411821701
 20
113.7144251507
 11
83.4934756158
 21
113.5873659381
  0
LINE
  5
63E
100
AcDbEntity
  8
0
100
AcDbLine
 62
7
  6
CONTINUOUS
 10
82.0411821701
 20
113.7144251507
 11
83.4934756158
 21
113.5873659381
  0
LINE
  5
63F
100
AcDbEntity
  8
SCRITTE
100
AcDbLine
 62
253
  6
CONTINUOUS
 10
65.6868522427
 20
115.1857662079
 11
64.7675573328
 21
115.7346952079
  0
LINE
  5
640
100
AcDbEntity
  8
SCRITTE
100
AcDbLine
 62
253
  6
CONTINUOUS
 10
69.6370255245
 20
109.6240988819
 11
69.3656383092
 21
109.8955273239
  0
LINE
  5
641
100
AcDbEntity
  8
SCRITTE
100
AcDbLine
 62
253
  6
CONTINUOUS
 10
71.26534893
 20
108.6740988819
 11
70.9939616863
 21
108.9455273239
  0
LINE
  5
642
100
AcDbEntity
  8
SCRITTE
100
AcDbLine
 62
253
  6
CONTINUOUS
 10
61.6583104089
 20
122.7195428619
 11
61.6686799759
 21
122.6346012897
  0
LINE
  5
643
100
AcDbEntity
  8
SCRITTE
100
AcDbLine
 62
253
  6
CONTINUOUS
 10
64.3663998334
 20
131.6955270974
 11
64.3663998334
 21
131.2883842079
  0
LINE
  5
644
100
AcDbEntity
  8
SCRITTE
100
AcDbLine
 62
253
  6
CONTINUOUS
 10
64.3663998334
 20
134.2740984289
 11
64.3663998334
 21
134.6812415449
  0
LINE
  5
645
100
AcDbEntity
  8
SCRITTE
100
AcDbLine
 62
253
  6
CONTINUOUS
 10
64.7675573328
 20
106.7051552079
 11
64.7675573328
 21
105.6124792079
  0
LINE
  5
646
100
AcDbEntity
  8
SCRITTE
100
AcDbLine
 62
253
  6
CONTINUOUS
 10
64.7675573328
 20
104.5895802079
 11
64.7675573328
 21
104.0936152079
  0
LINE
  5
647
100
AcDbEntity
  8
SCRITTE
100
AcDbLine
 62
253
  6
CONTINUOUS
 10
64.7675573328
 20
110.6872102079
 11
64.7675573328
 21
111.9052002079
  0
LINE
  5
648
100
AcDbEntity
  8
RACCORDO
100
AcDbLine
 62
253
  6
CONTINUOUS
 10
64.8418487197
 20
141.6943169407
 11
64.8418487197
 21
140.2222823748
  0
LINE
  5
649
100
AcDbEntity
  8
RACCORDO
100
AcDbLine
 62
253
  6
CONTINUOUS
 10
64.8418487197
 20
94.1824514752
 11
64.8418487197
 21
95.654486041
  0
LINE
  5
64A
100
AcDbEntity
  8
SCRITTE
100
AcDbLine
 62
253
  6
CONTINUOUS
 10
65.1805614795
 20
134.2740984289
 11
65.1805614795
 21
134.6812415449
  0
LINE
  5
64B
100
AcDbEntity
  8
RACCORDO
100
AcDbLine
 62
7
  6
CONTINUOUS
 10
65.2673288929
 20
141.6918479382
 11
65.2673288929
 21
140.2185754793
  0
LINE
  5
64C
100
AcDbEntity
  8
RACCORDO
100
AcDbLine
 62
7
  6
CONTINUOUS
 10
65.2673288929
 20
94.1849224921
 11
65.2673288929
 21
95.6581899014
  0
LINE
  5
64D
100
AcDbEntity
  8
SCRITTE
100
AcDbLine
 62
253
  6
CONTINUOUS
 10
65.5173288929
 20
105.6124792079
 11
65.5173288929
 21
106.6285452079
  0
LINE
  5
64E
100
AcDbEntity
  8
SCRITTE
100
AcDbLine
 62
253
  6
CONTINUOUS
 10
65.7228342797
 20
112.2234742079
 11
65.7228342797
 21
113.0619242079
  0
LINE
  5
64F
100
AcDbEntity
  8
SCRITTE
100
AcDbLine
 62
253
  6
CONTINUOUS
 10
65.7314166648
 20
102.8161822079
 11
65.7314166648
 21
103.6621642079
  0
LINE
  5
650
100
AcDbEntity
  8
SCRITTE
100
AcDbLine
 62
253
  6
CONTINUOUS
 10
65.8590296028
 20
133.4598126499
 11
65.8590296028
 21
132.5098126499
  0
LINE
  5
651
100
AcDbEntity
  8
SCRITTE
100
AcDbLine
 62
253
  6
CONTINUOUS
 10
65.8590296028
 20
130.4740984289
 11
65.8590296028
 21
129.5240985422
  0
LINE
  5
652
100
AcDbEntity
  8
SCRITTE
100
AcDbLine
 62
253
  6
CONTINUOUS
 10
70.9939616863
 20
110.3026695339
 11
71.26534893
 21
110.0312410919
  0
LINE
  5
653
100
AcDbEntity
  8
SCRITTE
100
AcDbLine
 62
253
  6
CONTINUOUS
 10
66.2661104542
 20
134.6812415449
 11
66.2661104542
 21
134.2740984289
  0
LINE
  5
654
100
AcDbEntity
  8
SCRITTE
100
AcDbLine
 62
253
  6
CONTINUOUS
 10
66.2661104542
 20
131.9669555394
 11
66.2661104542
 21
131.0169555394
  0
LINE
  5
655
100
AcDbEntity
  8
SCRITTE
100
AcDbLine
 62
253
  6
CONTINUOUS
 10
66.2671004531
 20
104.0936152079
 11
66.2671004531
 21
104.5895802079
  0
LINE
  5
656
100
AcDbEntity
  8
SCRITTE
100
AcDbLine
 62
253
  6
CONTINUOUS
 10
66.2671004531
 20
105.6124792079
 11
66.2671004531
 21
106.7197982079
  0
LINE
  5
657
100
AcDbEntity
  8
SCRITTE
100
AcDbLine
 62
253
  6
CONTINUOUS
 10
66.2671004531
 20
113.5880512079
 11
66.2671004531
 21
114.4498992079
  0
LINE
  5
658
100
AcDbEntity
  8
RACCORDO
100
AcDbLine
 62
253
  6
CONTINUOUS
 10
67.7760550962
 20
139.5043596412
 11
67.7760550962
 21
139.0213656044
  0
LINE
  5
659
100
AcDbEntity
  8
RACCORDO
100
AcDbLine
 62
253
  6
CONTINUOUS
 10
67.7760550962
 20
96.8554028115
 11
67.7760550962
 21
96.3724087747
  0
LINE
  5
65A
100
AcDbEntity
  8
ASSI
100
AcDbLine
 62
7
  6
CONTINUOUS
 10
81.7673288929
 20
118.2766322079
 11
82.0673288929
 21
118.2766322079
  0
LINE
  5
65B
100
AcDbEntity
  8
0
100
AcDbLine
 62
7
  6
CONTINUOUS
 10
81.7673288929
 20
118.2766322079
 11
82.0673288929
 21
118.2766322079
  0
LINE
  5
65C
100
AcDbEntity
  8
ASSI
100
AcDbLine
 62
253
  6
CONTINUOUS
 10
81.7673288929
 20
118.3209291314
 11
81.2760550962
 21
118.3209291314
  0
LINE
  5
65D
100
AcDbEntity
  8
0
100
AcDbLine
 62
253
  6
CONTINUOUS
 10
81.7673288929
 20
118.3209291314
 11
81.2760550962
 21
118.3209291314
  0
LINE
  5
65E
100
AcDbEntity
  8
ASSI
100
AcDbLine
 62
253
  6
CONTINUOUS
 10
72.7673288929
 20
118.4608742837
 11
73.2586026897
 21
118.4608742837
  0
LINE
  5
65F
100
AcDbEntity
  8
0
100
AcDbLine
 62
253
  6
CONTINUOUS
 10
72.7673288929
 20
118.4608742837
 11
73.2586026897
 21
118.4608742837
  0
LINE
  5
660
100
AcDbEntity
  8
ASSI
100
AcDbLine
 62
253
  6
CONTINUOUS
 10
81.2760550962
 20
118.3209255161
 11
73.2586026897
 21
118.4608704761
  0
LINE
  5
661
100
AcDbEntity
  8
0
100
AcDbLine
 62
253
  6
CONTINUOUS
 10
81.2760550962
 20
118.3209255161
 11
73.2586026897
 21
118.4608704761
  0
LINE
  5
662
100
AcDbEntity
  8
ASSI
100
AcDbLine
 62
7
  6
CONTINUOUS
 10
81.2760550962
 20
119.3207768266
 11
73.2586026897
 21
119.4607219789
  0
LINE
  5
663
100
AcDbEntity
  8
0
100
AcDbLine
 62
7
  6
CONTINUOUS
 10
81.2760550962
 20
119.3207768266
 11
73.2586026897
 21
119.4607219789
  0
LWPOLYLINE
  5
664
100
AcDbEntity
  8
ASSI
100
AcDbPolyline
 62
253
  6
CONTINUOUS
 90
49
 70
0
 10
81.2760585087
 20
119.5207461156
 10
81.2877317661
 20
119.5202609574
 10
81.2993460275
 20
119.5194091006
 10
81.3108951845
 20
119.5181905454
 10
81.322332262
 20
119.516612577
 10
81.3336927383
 20
119.5146679102
 10
81.3450933965
 20
119.5123346887
 10
81.3565407642
 20
119.5096226666
 10
81.3680143518
 20
119.5065220899
 10
81.3795879373
 20
119.5029818402
 10
81.3912707151
 20
119.4990025804
 10
81.4030349195
 20
119.4945836476
 10
81.4148964724
 20
119.4896719351
 10
81.4268474357
 20
119.4842681323
 10
81.4388726748
 20
119.4783715497
 10
81.450975373
 20
119.4719270118
 10
81.4631272301
 20
119.4649469858
 10
81.4753286697
 20
119.4574190045
 10
81.4876222836
 20
119.4492504913
 10
81.4999919142
 20
119.440446427
 10
81.5124155822
 20
119.4310018308
 10
81.5249210391
 20
119.420809183
 10
81.5375028344
 20
119.4098524126
 10
81.550114861
 20
119.3981475907
 10
81.5627198335
 20
119.38563541
 10
81.5752664951
 20
119.3723395674
 10
81.5877481469
 20
119.3582363662
 10
81.6001881549
 20
119.3431954087
 10
81.6125764392
 20
119.3271762205
 10
81.6248424423
 20
119.3102192761
 10
81.6369143447
 20
119.2923156015
 10
81.6487322968
 20
119.2734862844
 10
81.660273581
 20
119.2537102372
 10
81.6715190676
 20
119.232915223
 10
81.6824410095
 20
119.2110432688
 10
81.6929626841
 20
119.1881523475
 10
81.7029926388
 20
119.1643441419
 10
81.71247476
 20
119.139624809
 10
81.7213713284
 20
119.1139881916
 10
81.7296267489
 20
119.0875175006
 10
81.7372005666
 20
119.0601710604
 10
81.7440372496
 20
119.0319905466
 10
81.7500694528
 20
119.0031841964
 10
81.7552649261
 20
118.9737016824
 10
81.7595793566
 20
118.943593332
 10
81.7629570184
 20
118.9132183646
 10
81.7653785711
 20
118.8826965198
 10
81.7668396485
 20
118.8519080579
 10
81.7673288929
 20
118.820852979
  0
LWPOLYLINE
  5
665
100
AcDbEntity
  8
0
100
AcDbPolyline
 62
253
  6
CONTINUOUS
 90
49
 70
0
 10
81.2760585087
 20
119.5207461156
 10
81.2877317661
 20
119.5202609574
 10
81.2993460275
 20
119.5194091006
 10
81.3108951845
 20
119.5181905454
 10
81.322332262
 20
119.516612577
 10
81.3336927383
 20
119.5146679102
 10
81.3450933965
 20
119.5123346887
 10
81.3565407642
 20
119.5096226666
 10
81.3680143518
 20
119.5065220899
 10
81.3795879373
 20
119.5029818402
 10
81.3912707151
 20
119.4990025804
 10
81.4030349195
 20
119.4945836476
 10
81.4148964724
 20
119.4896719351
 10
81.4268474357
 20
119.4842681323
 10
81.4388726748
 20
119.4783715497
 10
81.450975373
 20
119.4719270118
 10
81.4631272301
 20
119.4649469858
 10
81.4753286697
 20
119.4574190045
 10
81.4876222836
 20
119.4492504913
 10
81.4999919142
 20
119.440446427
 10
81.5124155822
 20
119.4310018308
 10
81.5249210391
 20
119.420809183
 10
81.5375028344
 20
119.4098524126
 10
81.550114861
 20
119.3981475907
 10
81.5627198335
 20
119.38563541
 10
81.5752664951
 20
119.3723395674
 10
81.5877481469
 20
119.3582363662
 10
81.6001881549
 20
119.3431954087
 10
81.6125764392
 20
119.3271762205
 10
81.6248424423
 20
119.3102192761
 10
81.6369143447
 20
119.2923156015
 10
81.6487322968
 20
119.2734862844
 10
81.660273581
 20
119.2537102372
 10
81.6715190676
 20
119.232915223
 10
81.6824410095
 20
119.2110432688
 10
81.6929626841
 20
119.1881523475
 10
81.7029926388
 20
119.1643441419
 10
81.71247476
 20
119.139624809
 10
81.7213713284
 20
119.1139881916
 10
81.7296267489
 20
119.0875175006
 10
81.7372005666
 20
119.0601710604
 10
81.7440372496
 20
119.0319905466
 10
81.7500694528
 20
119.0031841964
 10
81.7552649261
 20
118.9737016824
 10
81.7595793566
 20
118.943593332
 10
81.7629570184
 20
118.9132183646
 10
81.7653785711
 20
118.8826965198
 10
81.7668396485
 20
118.8519080579
 10
81.7673288929
 20
118.820852979
  0
LINE
  5
666
100
AcDbEntity
  8
ASSI
100
AcDbLine
 62
7
  6
CONTINUOUS
 10
82.0411821701
 20
118.3144251507
 11
83.4934756158
 21
118.1873659381
  0
LINE
  5
667
100
AcDbEntity
  8
0
100
AcDbLine
 62
7
  6
CONTINUOUS
 10
82.0411821701
 20
118.3144251507
 11
83.4934756158
 21
118.1873659381
  0
LINE
  5
668
100
AcDbEntity
  8
ASSI
100
AcDbLine
 62
7
  6
CONTINUOUS
 10
68.2673288929
 20
95.6256595326
 11
68.2673288929
 21
96.6756909642
  0
LINE
  5
669
100
AcDbEntity
  8
0
100
AcDbLine
 62
7
  6
CONTINUOUS
 10
68.2673288929
 20
95.6256595326
 11
68.2673288929
 21
96.6756909642
  0
LINE
  5
66A
100
AcDbEntity
  8
RACCORDO
100
AcDbLine
 62
7
  6
CONTINUOUS
 10
68.2673288929
 20
96.6756909642
 11
68.2673288929
 21
97.8129348572
  0
LINE
  5
66B
100
AcDbEntity
  8
ASSI
100
AcDbLine
 62
7
  6
CONTINUOUS
 10
68.2673288929
 20
97.8129348572
 11
68.2673288929
 21
98.6185081423
  0
LINE
  5
66C
100
AcDbEntity
  8
0
100
AcDbLine
 62
7
  6
CONTINUOUS
 10
68.2673288929
 20
97.8129348572
 11
68.2673288929
 21
98.6185081423
  0
LINE
  5
66D
100
AcDbEntity
  8
ASSI
100
AcDbLine
 62
7
  6
CONTINUOUS
 10
68.2673288929
 20
137.2582602735
 11
68.2673288929
 21
138.0638335586
  0
LINE
  5
66E
100
AcDbEntity
  8
0
100
AcDbLine
 62
7
  6
CONTINUOUS
 10
68.2673288929
 20
137.2582602735
 11
68.2673288929
 21
138.0638335586
  0
LINE
  5
66F
100
AcDbEntity
  8
RACCORDO
100
AcDbLine
 62
7
  6
CONTINUOUS
 10
68.2673288929
 20
138.0638335586
 11
68.2673288929
 21
139.2010774516
  0
LINE
  5
670
100
AcDbEntity
  8
ASSI
100
AcDbLine
 62
7
  6
CONTINUOUS
 10
68.2673288929
 20
139.2010774516
 11
68.2673288929
 21
140.2511088833
  0
LINE
  5
671
100
AcDbEntity
  8
0
100
AcDbLine
 62
7
  6
CONTINUOUS
 10
68.2673288929
 20
139.2010774516
 11
68.2673288929
 21
140.2511088833
  0
LINE
  5
672
100
AcDbEntity
  8
SCRITTE
100
AcDbLine
 62
253
  6
CONTINUOUS
 10
69.3656383092
 20
107.3169557659
 11
69.3656383092
 21
106.9098126499
  0
LINE
  5
673
100
AcDbEntity
  8
SCRITTE
100
AcDbLine
 62
253
  6
CONTINUOUS
 10
69.3656383092
 20
108.1312415449
 11
69.3656383092
 21
108.9455273239
  0
LINE
  5
674
100
AcDbEntity
  8
SCRITTE
100
AcDbLine
 62
253
  6
CONTINUOUS
 10
69.3656383092
 20
109.8955273239
 11
69.3656383092
 21
110.0312410919
  0
LINE
  5
675
100
AcDbEntity
  8
SCRITTE
100
AcDbLine
 62
253
  6
CONTINUOUS
 10
64.7675573328
 20
114.6368382079
 11
65.6868522427
 21
115.1857662079
  0
LINE
  5
676
100
AcDbEntity
  8
SCRITTE
100
AcDbLine
 62
253
  6
CONTINUOUS
 10
60.3677705433
 20
121.6487792079
 11
63.2668872425
 21
121.6487792079
  0
LINE
  5
677
100
AcDbEntity
  8
RACCORDO
100
AcDbLine
 62
7
  6
CONTINUOUS
 10
57.2836060771
 20
141.3207403116
 11
57.3430443971
 21
141.2173396058
  0
LINE
  5
678
100
AcDbEntity
  8
RACCORDO
100
AcDbLine
 62
7
  6
CONTINUOUS
 10
57.3430443971
 20
141.2173396058
 11
57.3748177087
 21
141.1616419074
  0
LWPOLYLINE
  5
679
100
AcDbEntity
  8
RACCORDO
100
AcDbPolyline
 62
7
  6
CONTINUOUS
 90
4
 70
0
 10
57.3748177087
 20
141.1616419074
 10
57.387028416
 20
141.1399462836
 10
57.3900819975
 20
141.1343669189
 10
57.391019902
 20
141.1324469761
  0
LINE
  5
67A
100
AcDbEntity
  8
SCRITTE
100
AcDbLine
 62
253
  6
CONTINUOUS
 10
70.6773432401
 20
112.6098126499
 11
70.5416496324
 21
112.9264790146
  0
LINE
  5
67B
100
AcDbEntity
  8
SCRITTE
100
AcDbLine
 62
253
  6
CONTINUOUS
 10
70.813036876
 20
113.2883842079
 11
70.6773432401
 21
113.6502894013
  0
LINE
  5
67C
100
AcDbEntity
  8
ASSI
100
AcDbLine
 62
253
  6
CONTINUOUS
 10
71.7858822021
 20
137.4690363969
 11
71.7860571945
 21
137.4556207742
  0
LINE
  5
67D
100
AcDbEntity
  8
0
100
AcDbLine
 62
253
  6
CONTINUOUS
 10
71.7858822021
 20
137.4690363969
 11
71.7860571945
 21
137.4556207742
  0
LINE
  5
67E
100
AcDbEntity
  8
ASSI
100
AcDbLine
 62
253
  6
CONTINUOUS
 10
71.7847812994
 20
98.6799055025
 11
71.7858822021
 21
98.5515619958
  0
LINE
  5
67F
100
AcDbEntity
  8
0
100
AcDbLine
 62
253
  6
CONTINUOUS
 10
71.7847812994
 20
98.6799055025
 11
71.7858822021
 21
98.5515619958
  0
LINE
  5
680
100
AcDbEntity
  8
ASSI
100
AcDbLine
 62
253
  6
CONTINUOUS
 10
71.7860571945
 20
137.4556207742
 11
71.7861688365
 21
137.4389383853
  0
LINE
  5
681
100
AcDbEntity
  8
0
100
AcDbLine
 62
253
  6
CONTINUOUS
 10
71.7860571945
 20
137.4556207742
 11
71.7861688365
 21
137.4389383853
  0
LINE
  5
682
100
AcDbEntity
  8
ASSI
100
AcDbLine
 62
253
  6
CONTINUOUS
 10
71.784781283
 20
136.9763515106
 11
71.7856321749
 21
136.7607146894
  0
LINE
  5
683
100
AcDbEntity
  8
0
100
AcDbLine
 62
253
  6
CONTINUOUS
 10
71.784781283
 20
136.9763515106
 11
71.7856321749
 21
136.7607146894
  0
LINE
  5
684
100
AcDbEntity
  8
ASSI
100
AcDbLine
 62
253
  6
CONTINUOUS
 10
71.7858822021
 20
98.5515619958
 11
71.7862007748
 21
98.4807585288
  0
LINE
  5
685
100
AcDbEntity
  8
0
100
AcDbLine
 62
253
  6
CONTINUOUS
 10
71.7858822021
 20
98.5515619958
 11
71.7862007748
 21
98.4807585288
  0
LINE
  5
686
100
AcDbEntity
  8
ASSI
100
AcDbLine
 62
253
  6
CONTINUOUS
 10
71.784781286
 20
100.3144214163
 11
71.7856321736
 21
100.0298343076
  0
LINE
  5
687
100
AcDbEntity
  8
0
100
AcDbLine
 62
253
  6
CONTINUOUS
 10
71.784781286
 20
100.3144214163
 11
71.7856321736
 21
100.0298343076
  0
LINE
  5
688
100
AcDbEntity
  8
ASSI
100
AcDbLine
 62
253
  6
CONTINUOUS
 10
71.7856321749
 20
136.7607146894
 11
71.7861105512
 21
136.5206916205
  0
LINE
  5
689
100
AcDbEntity
  8
0
100
AcDbLine
 62
253
  6
CONTINUOUS
 10
71.7856321749
 20
136.7607146894
 11
71.7861105512
 21
136.5206916205
  0
LINE
  5
68A
100
AcDbEntity
  8
ASSI
100
AcDbLine
 62
253
  6
CONTINUOUS
 10
71.7856321736
 20
100.0298343076
 11
71.7861105505
 21
99.7510456447
  0
LINE
  5
68B
100
AcDbEntity
  8
0
100
AcDbLine
 62
253
  6
CONTINUOUS
 10
71.7856321736
 20
100.0298343076
 11
71.7861105505
 21
99.7510456447
  0
LINE
  5
68C
100
AcDbEntity
  8
SCRITTE
100
AcDbLine
 62
253
  6
CONTINUOUS
 10
70.1797999553
 20
108.6740988819
 11
70.1797999553
 21
108.1312415449
  0
LINE
  5
68D
100
AcDbEntity
  8
SCRITTE
100
AcDbLine
 62
253
  6
CONTINUOUS
 10
70.1797999553
 20
102.7026698737
 11
70.1797999553
 21
102.1145747273
  0
LINE
  5
68E
100
AcDbEntity
  8
SCRITTE
100
AcDbLine
 62
253
  6
CONTINUOUS
 10
70.7225744426
 20
103.6979079096
 11
70.7225744426
 21
104.4217176168
  0
LINE
  5
68F
100
AcDbEntity
  8
SCRITTE
100
AcDbLine
 62
253
  6
CONTINUOUS
 10
71.26534893
 20
110.0312410919
 11
71.26534893
 21
109.8955273239
  0
LINE
  5
690
100
AcDbEntity
  8
SCRITTE
100
AcDbLine
 62
253
  6
CONTINUOUS
 10
71.26534893
 20
107.5883842079
 11
71.26534893
 21
106.6383842079
  0
LINE
  5
691
100
AcDbEntity
  8
SCRITTE
100
AcDbLine
 62
253
  6
CONTINUOUS
 10
71.26534893
 20
102.2955270974
 11
71.26534893
 21
102.7026698737
  0
LINE
  5
692
100
AcDbEntity
  8
SCRITTE
100
AcDbLine
 62
253
  6
CONTINUOUS
 10
71.26534893
 20
108.1312415449
 11
71.26534893
 21
108.6740988819
  0
LINE
  5
693
100
AcDbEntity
  8
ASSI
100
AcDbLine
 62
253
  6
CONTINUOUS
 10
71.7847812994
 20
137.1968629134
 11
71.7847812994
 21
136.9763515105
  0
LINE
  5
694
100
AcDbEntity
  8
0
100
AcDbLine
 62
253
  6
CONTINUOUS
 10
71.7847812994
 20
137.1968629134
 11
71.7847812994
 21
136.9763515105
  0
LINE
  5
695
100
AcDbEntity
  8
ASSI
100
AcDbLine
 62
253
  6
CONTINUOUS
 10
71.7847812994
 20
98.9004169054
 11
71.7847812994
 21
98.6799055025
  0
LINE
  5
696
100
AcDbEntity
  8
0
100
AcDbLine
 62
253
  6
CONTINUOUS
 10
71.7847812994
 20
98.9004169054
 11
71.7847812994
 21
98.6799055025
  0
LINE
  5
697
100
AcDbEntity
  8
ASSI
100
AcDbLine
 62
253
  6
CONTINUOUS
 10
71.7861688365
 20
137.4389383853
 11
71.7862167507
 21
137.4079160306
  0
LINE
  5
698
100
AcDbEntity
  8
0
100
AcDbLine
 62
253
  6
CONTINUOUS
 10
71.7861688365
 20
137.4389383853
 11
71.7862167507
 21
137.4079160306
  0
LINE
  5
699
100
AcDbEntity
  8
ASSI
100
AcDbLine
 62
253
  6
CONTINUOUS
 10
71.7861105512
 20
136.5206916205
 11
71.7862067156
 21
136.261163445
  0
LINE
  5
69A
100
AcDbEntity
  8
0
100
AcDbLine
 62
253
  6
CONTINUOUS
 10
71.7861105512
 20
136.5206916205
 11
71.7862067156
 21
136.261163445
  0
LINE
  5
69B
100
AcDbEntity
  8
ASSI
100
AcDbLine
 62
253
  6
CONTINUOUS
 10
71.7861105505
 20
99.7510456447
 11
71.7862067159
 21
99.4837247086
  0
LINE
  5
69C
100
AcDbEntity
  8
0
100
AcDbLine
 62
253
  6
CONTINUOUS
 10
71.7861105505
 20
99.7510456447
 11
71.7862067159
 21
99.4837247086
  0
LINE
  5
69D
100
AcDbEntity
  8
ASSI
100
AcDbLine
 62
253
  6
CONTINUOUS
 10
71.7862067156
 20
136.261163445
 11
71.7859187085
 21
135.9874116914
  0
LINE
  5
69E
100
AcDbEntity
  8
0
100
AcDbLine
 62
253
  6
CONTINUOUS
 10
71.7862067156
 20
136.261163445
 11
71.7859187085
 21
135.9874116914
  0
LINE
  5
69F
100
AcDbEntity
  8
ASSI
100
AcDbLine
 62
253
  6
CONTINUOUS
 10
71.7862007748
 20
98.4807585288
 11
71.7862007748
 21
98.4473790548
  0
LINE
  5
6A0
100
AcDbEntity
  8
0
100
AcDbLine
 62
253
  6
CONTINUOUS
 10
71.7862007748
 20
98.4807585288
 11
71.7862007748
 21
98.4473790548
  0
LINE
  5
6A1
100
AcDbEntity
  8
ASSI
100
AcDbLine
 62
253
  6
CONTINUOUS
 10
71.7862067159
 20
99.4837247086
 11
71.7859187097
 21
99.2333115294
  0
LINE
  5
6A2
100
AcDbEntity
  8
0
100
AcDbLine
 62
253
  6
CONTINUOUS
 10
71.7862067159
 20
99.4837247086
 11
71.7859187097
 21
99.2333115294
  0
LINE
  5
6A3
100
AcDbEntity
  8
ASSI
100
AcDbLine
 62
253
  6
CONTINUOUS
 10
71.7859187085
 20
135.9874116914
 11
71.7852523817
 21
135.7050063756
  0
LINE
  5
6A4
100
AcDbEntity
  8
0
100
AcDbLine
 62
253
  6
CONTINUOUS
 10
71.7859187085
 20
135.9874116914
 11
71.7852523817
 21
135.7050063756
  0
LWPOLYLINE
  5
6A5
100
AcDbEntity
  8
ASSI
100
AcDbPolyline
 62
253
  6
CONTINUOUS
 90
3
 70
0
 10
71.7852523817
 20
135.7050063756
 10
71.7849481864
 20
135.6099365977
 10
71.7847812994
 20
100.3144214164
  0
LWPOLYLINE
  5
6A6
100
AcDbEntity
  8
0
100
AcDbPolyline
 62
253
  6
CONTINUOUS
 90
3
 70
0
 10
71.7852523817
 20
135.7050063756
 10
71.7849481864
 20
135.6099365977
 10
71.7847812994
 20
100.3144214164
  0
LINE
  5
6A7
100
AcDbEntity
  8
ASSI
100
AcDbLine
 62
253
  6
CONTINUOUS
 10
71.7859187097
 20
99.2333115294
 11
71.7852523836
 21
99.0049013574
  0
LINE
  5
6A8
100
AcDbEntity
  8
0
100
AcDbLine
 62
253
  6
CONTINUOUS
 10
71.7859187097
 20
99.2333115294
 11
71.7852523836
 21
99.0049013574
  0
LINE
  5
6A9
100
AcDbEntity
  8
ASSI
100
AcDbLine
 62
253
  6
CONTINUOUS
 10
71.7852523836
 20
99.0049013574
 11
71.784781283
 21
98.9004169053
  0
LINE
  5
6AA
100
AcDbEntity
  8
0
100
AcDbLine
 62
253
  6
CONTINUOUS
 10
71.7852523836
 20
99.0049013574
 11
71.784781283
 21
98.9004169053
  0
LINE
  5
6AB
100
AcDbEntity
  8
ASSI
100
AcDbLine
 62
253
  6
CONTINUOUS
 10
71.7862167507
 20
137.4079160306
 11
71.7859775851
 21
137.3408312504
  0
LINE
  5
6AC
100
AcDbEntity
  8
0
100
AcDbLine
 62
253
  6
CONTINUOUS
 10
71.7862167507
 20
137.4079160306
 11
71.7859775851
 21
137.3408312504
  0
LINE
  5
6AD
100
AcDbEntity
  8
ASSI
100
AcDbLine
 62
253
  6
CONTINUOUS
 10
71.7862007748
 20
98.4473790548
 11
71.7861209629
 21
98.4290837603
  0
LINE
  5
6AE
100
AcDbEntity
  8
0
100
AcDbLine
 62
253
  6
CONTINUOUS
 10
71.7862007748
 20
98.4473790548
 11
71.7861209629
 21
98.4290837603
  0
LWPOLYLINE
  5
6AF
100
AcDbEntity
  8
ASSI
100
AcDbPolyline
 62
253
  6
CONTINUOUS
 90
3
 70
0
 10
71.7859775851
 20
137.3408312504
 10
71.7849841013
 20
137.217123481
 10
71.7847812994
 20
137.1968629134
  0
LWPOLYLINE
  5
6B0
100
AcDbEntity
  8
0
100
AcDbPolyline
 62
253
  6
CONTINUOUS
 90
3
 70
0
 10
71.7859775851
 20
137.3408312504
 10
71.7849841013
 20
137.217123481
 10
71.7847812994
 20
137.1968629134
  0
LWPOLYLINE
  5
6B1
100
AcDbEntity
  8
ASSI
100
AcDbPolyline
 62
253
  6
CONTINUOUS
 90
10
 70
0
 10
71.7861209629
 20
98.4290837603
 10
71.7859775851
 20
98.4140283874
 10
71.7858822021
 20
98.407732019
 10
71.7857711263
 20
98.4022638623
 10
71.7856444514
 20
98.3976285422
 10
71.7855022848
 20
98.3938299796
 10
71.7853447466
 20
98.3908713873
 10
71.78517197
 20
98.3887552679
 10
71.7849841013
 20
98.3874834111
 10
71.7847812994
 20
98.3870568927
  0
LWPOLYLINE
  5
6B2
100
AcDbEntity
  8
0
100
AcDbPolyline
 62
253
  6
CONTINUOUS
 90
10
 70
0
 10
71.7861209629
 20
98.4290837603
 10
71.7859775851
 20
98.4140283874
 10
71.7858822021
 20
98.407732019
 10
71.7857711263
 20
98.4022638623
 10
71.7856444514
 20
98.3976285422
 10
71.7855022848
 20
98.3938299796
 10
71.7853447466
 20
98.3908713873
 10
71.78517197
 20
98.3887552679
 10
71.7849841013
 20
98.3874834111
 10
71.7847812994
 20
98.3870568927
  0
LWPOLYLINE
  5
6B3
100
AcDbEntity
  8
RACCORDO
100
AcDbPolyline
 62
253
  6
CONTINUOUS
 90
4
 70
0
 10
58.1366007964
 20
94.2999359857
 10
58.1398444714
 20
94.3057822882
 10
58.1417582797
 20
94.3093298298
 10
58.1423288929
 20
94.3105529916
  0
LINE
  5
6B4
100
AcDbEntity
  8
RACCORDO
100
AcDbLine
 62
253
  6
CONTINUOUS
 10
58.126246118
 20
94.2815687187
 11
58.1366007964
 21
94.2999359857
  0
LINE
  5
6B5
100
AcDbEntity
  8
RACCORDO
100
AcDbLine
 62
253
  6
CONTINUOUS
 10
58.0809654167
 20
94.202307861
 11
58.126246118
 21
94.2815687187
  0
LINE
  5
6B6
100
AcDbEntity
  8
RACCORDO
100
AcDbLine
 62
253
  6
CONTINUOUS
 10
58.0186378839
 20
94.0940466406
 11
58.0809654167
 21
94.202307861
  0
LINE
  5
6B7
100
AcDbEntity
  8
RACCORDO
100
AcDbLine
 62
7
  6
CONTINUOUS
 10
57.2673288929
 20
94.5263035962
 11
57.3438017007
 21
94.6582920772
  0
LINE
  5
6B8
100
AcDbEntity
  8
RACCORDO
100
AcDbLine
 62
7
  6
CONTINUOUS
 10
57.3438017007
 20
94.6582920772
 11
57.3763448375
 21
94.7139929046
  0
LWPOLYLINE
  5
6B9
100
AcDbEntity
  8
RACCORDO
100
AcDbPolyline
 62
7
  6
CONTINUOUS
 90
4
 70
0
 10
57.3763448375
 20
94.7139929046
 10
57.3891099651
 20
94.7355551488
 10
57.3924365679
 20
94.7410256443
 10
57.3936378839
 20
94.7428099472
  0
LWPOLYLINE
  5
6BA
100
AcDbEntity
  8
ASSI
100
AcDbPolyline
 62
253
  6
CONTINUOUS
 90
10
 70
0
 10
73.2586026852
 20
119.460721979
 10
73.2583784146
 20
119.4603892554
 10
73.258160816
 20
119.4593807013
 10
73.2579495648
 20
119.4576933293
 10
73.257743765
 20
119.4553239371
 10
73.2575435995
 20
119.4522708016
 10
73.2573503638
 20
119.4485353999
 10
73.2571638435
 20
119.4441181525
 10
73.2569836458
 20
119.4390199913
 10
73.2566453867
 20
119.4268026939
  0
LWPOLYLINE
  5
6BB
100
AcDbEntity
  8
0
100
AcDbPolyline
 62
253
  6
CONTINUOUS
 90
10
 70
0
 10
73.2586026852
 20
119.460721979
 10
73.2583784146
 20
119.4603892554
 10
73.258160816
 20
119.4593807013
 10
73.2579495648
 20
119.4576933293
 10
73.257743765
 20
119.4553239371
 10
73.2575435995
 20
119.4522708016
 10
73.2573503638
 20
119.4485353999
 10
73.2571638435
 20
119.4441181525
 10
73.2569836458
 20
119.4390199913
 10
73.2566453867
 20
119.4268026939
  0
LINE
  5
6BC
100
AcDbEntity
  8
SCRITTE
100
AcDbLine
 62
253
  6
CONTINUOUS
 10
66.2671004531
 20
113.3007762079
 11
64.7675573328
 21
112.6426992079
  0
LWPOLYLINE
  5
6BD
100
AcDbEntity
  8
SCRITTE
100
AcDbPolyline
 62
253
  6
CONTINUOUS
 90
10
 70
0
 10
62.3951875847
 20
111.3400114664
 10
62.4131680541
 20
111.346528199
 10
62.431267907
 20
111.3527133091
 10
62.4494351993
 20
111.3587035621
 10
62.5040613629
 20
111.3762589813
 10
62.5588383212
 20
111.3933439937
 10
62.613701045
 20
111.4101532856
 10
62.7235607634
 20
111.4433209887
 10
62.8335473496
 20
111.4760656433
 10
62.9436206526
 20
111.5085185981
  0
LWPOLYLINE
  5
6BE
100
AcDbEntity
  8
SCRITTE
100
AcDbPolyline
 62
253
  6
CONTINUOUS
 90
3
 70
0
 10
62.9436206526
 20
111.5085185981
 10
63.1639421071
 20
111.5728268372
 10
63.2741896368
 20
111.6046817636
  0
LINE
  5
6BF
100
AcDbEntity
  8
ASSI
100
AcDbLine
 62
7
  6
CONTINUOUS
 10
82.0411821701
 20
123.8623432652
 11
83.4934756158
 21
123.9894024778
  0
LINE
  5
6C0
100
AcDbEntity
  8
0
100
AcDbLine
 62
7
  6
CONTINUOUS
 10
82.0411821701
 20
123.8623432652
 11
83.4934756158
 21
123.9894024778
  0
LWPOLYLINE
  5
6C1
100
AcDbEntity
  8
SCRITTE
100
AcDbPolyline
 62
253
  6
CONTINUOUS
 90
56
 70
0
 10
61.2591181156
 20
123.7295159591
 10
61.2235187013
 20
123.7290794943
 10
61.1879366175
 20
123.727736098
 10
61.1524017795
 20
123.7254347676
 10
61.125804658
 20
123.7230481853
 10
61.0992686804
 20
123.7200626867
 10
61.072811601
 20
123.7164467052
 10
61.0464511738
 20
123.7121686745
 10
61.0201988053
 20
123.7071936283
 10
60.9940957087
 20
123.7014836972
 10
60.968176669
 20
123.6949980985
 10
60.9424764715
 20
123.6876960498
 10
60.9169188978
 20
123.6795060946
 10
60.8916514831
 20
123.6704521153
 10
60.8667085325
 20
123.6605348461
 10
60.8421243512
 20
123.6497550213
 10
60.81793083
 20
123.6381103956
 10
60.7941746323
 20
123.6255987363
 10
60.7708998743
 20
123.6122151218
 10
60.7481506723
 20
123.5979546307
 10
60.7260464487
 20
123.5828682749
 10
60.70455549
 20
123.5669177799
 10
60.6837252704
 20
123.5501147964
 10
60.663603264
 20
123.5324709748
 10
60.6442646805
 20
123.5140329787
 10
60.6257079571
 20
123.4948060106
 10
60.6079617211
 20
123.4748275926
 10
60.5910545996
 20
123.4541352468
 10
60.5750044815
 20
123.4327620021
 10
60.5598183323
 20
123.4107662036
 10
60.5454917964
 20
123.3882021576
 10
60.5320205184
 20
123.3651241705
 10
60.5193864807
 20
123.3415891699
 10
60.5075146978
 20
123.3176601748
 10
60.4963165749
 20
123.293402797
 10
60.4857035174
 20
123.2688826486
 10
60.4723332326
 20
123.235887504
 10
60.4597492347
 20
123.2025916503
 10
60.4478558021
 20
123.1690446421
 10
60.4393348949
 20
123.1437248399
 10
60.4311705665
 20
123.1182878928
 10
60.4234060279
 20
123.0927219766
 10
60.4161768163
 20
123.0669995557
 10
60.4096425456
 20
123.0411295343
 10
60.4039155251
 20
123.0150707419
 10
60.3990714124
 20
122.9888370141
 10
60.3950182641
 20
122.9624672137
 10
60.3916204162
 20
122.9359627821
 10
60.3887632033
 20
122.9093953655
 10
60.3863243398
 20
122.8827632718
 10
60.3841837315
 20
122.8561051134
 10
60.3804497303
 20
122.8028283069
 10
60.3772721968
 20
122.7495153345
 10
60.374517368
 20
122.6962171652
 10
60.372068316
 20
122.6429040733
 10
60.3677701138
 20
122.5362092163
  0
LINE
  5
6C2
100
AcDbEntity
  8
SCRITTE
100
AcDbLine
 62
253
  6
CONTINUOUS
 10
63.2668872425
 20
122.2713852079
 11
62.1504663928
 21
122.2713852079
  0
LINE
  5
6C3
100
AcDbEntity
  8
SCRITTE
100
AcDbLine
 62
253
  6
CONTINUOUS
 10
61.6686801831
 20
122.2713852079
 11
60.8495557534
 21
122.2713852079
  0
LINE
  5
6C4
100
AcDbEntity
  8
SCRITTE
100
AcDbLine
 62
253
  6
CONTINUOUS
 10
63.2668872425
 20
124.1191222079
 11
60.3677705433
 21
124.1191222079
  0
LWPOLYLINE
  5
6C5
100
AcDbEntity
  8
SCRITTE
100
AcDbPolyline
 62
253
  6
CONTINUOUS
 90
54
 70
0
 10
61.2591181156
 20
123.0667490446
 10
61.2733900609
 20
123.066645577
 10
61.287661507
 20
123.0663164743
 10
61.3019261856
 20
123.0657336865
 10
61.3161778283
 20
123.0648691638
 10
61.3304101669
 20
123.0636948563
 10
61.3446169332
 20
123.0621827141
 10
61.3567515294
 20
123.0605990251
 10
61.3688490028
 20
123.0587315811
 10
61.3808955625
 20
123.0565647374
 10
61.3928774176
 20
123.0540828492
 10
61.4047807773
 20
123.0512702716
 10
61.4165918506
 20
123.0481113598
 10
61.4282968467
 20
123.0445904691
 10
61.4384567238
 20
123.0411958476
 10
61.4485132532
 20
123.0375070646
 10
61.4584551557
 20
123.0335200053
 10
61.4682711524
 20
123.0292305548
 10
61.4779458084
 20
123.0246371625
 10
61.4874695069
 20
123.0197377388
 10
61.4968283689
 20
123.0145325209
 10
61.5060085155
 20
123.0090217461
 10
61.5149972254
 20
123.003211328
 10
61.5237999942
 20
122.9971209872
 10
61.5324233776
 20
122.9907759663
 10
61.5408739315
 20
122.9842015079
 10
61.5491537363
 20
122.9774184576
 10
61.5572538358
 20
122.9704244042
 10
61.5651607523
 20
122.9632124828
 10
61.5728610082
 20
122.9557758286
 10
61.5788703972
 20
122.9496498006
 10
61.5847179319
 20
122.9433681237
 10
61.590383089
 20
122.936923837
 10
61.5958453452
 20
122.9303099795
 10
61.601084177
 20
122.9235195902
 10
61.6052623343
 20
122.9177196427
 10
61.6092437638
 20
122.9117840754
 10
61.6130011878
 20
122.9057047254
 10
61.6164968683
 20
122.8995037762
 10
61.6197392923
 20
122.8931660083
 10
61.6227243646
 20
122.8867052654
 10
61.6259819177
 20
122.8787790956
 10
61.6289078607
 20
122.8707209726
 10
61.6315499845
 20
122.8625573104
 10
61.6339560804
 20
122.8543145228
 10
61.6361739395
 20
122.8460190234
 10
61.6395619575
 20
122.8320986382
 10
61.6426183232
 20
122.81811468
 10
61.6454032168
 20
122.8040769443
 10
61.6479602521
 20
122.7900503964
 10
61.6503265153
 20
122.775987793
 10
61.6525208661
 20
122.7618967147
 10
61.6555359927
 20
122.740735821
 10
61.6583104089
 20
122.7195428619
  0
LINE
  5
6C6
100
AcDbEntity
  8
RACCORDO
100
AcDbLine
 62
7
  6
CONTINUOUS
 10
57.2673288929
 20
141.3489533271
 11
57.2836060771
 21
141.3207403116
  0
LINE
  5
6C7
100
AcDbEntity
  8
RACCORDO
100
AcDbLine
 62
253
  6
CONTINUOUS
 10
58.0186378839
 20
141.7827217752
 11
58.0918617323
 21
141.6554578239
  0
LINE
  5
6C8
100
AcDbEntity
  8
RACCORDO
100
AcDbLine
 62
253
  6
CONTINUOUS
 10
58.0918617323
 20
141.6554578239
 11
58.1262461645
 21
141.5951996148
  0
LWPOLYLINE
  5
6C9
100
AcDbEntity
  8
RACCORDO
100
AcDbPolyline
 62
253
  6
CONTINUOUS
 90
5
 70
0
 10
58.1262461645
 20
141.5951996148
 10
58.1366008326
 20
141.5768323654
 10
58.1398444922
 20
141.570986092
 10
58.1417582877
 20
141.5674385764
 10
58.142328897
 20
141.5662154266
  0
LWPOLYLINE
  5
6CA
100
AcDbEntity
  8
ASSI
100
AcDbPolyline
 62
253
  6
CONTINUOUS
 90
9
 70
0
 10
73.2569839383
 20
103.8377392801
 10
73.2571641321
 20
103.8326427153
 10
73.2573506378
 20
103.8282270842
 10
73.2575438478
 20
103.8244932532
 10
73.2577439795
 20
103.8214415551
 10
73.2579497367
 20
103.8190733727
 10
73.2581609367
 20
103.8173869234
 10
73.2583784769
 20
103.8163789586
 10
73.2586026856
 20
103.8160464369
  0
LWPOLYLINE
  5
6CB
100
AcDbEntity
  8
0
100
AcDbPolyline
 62
253
  6
CONTINUOUS
 90
9
 70
0
 10
73.2569839383
 20
103.8377392801
 10
73.2571641321
 20
103.8326427153
 10
73.2573506378
 20
103.8282270842
 10
73.2575438478
 20
103.8244932532
 10
73.2577439795
 20
103.8214415551
 10
73.2579497367
 20
103.8190733727
 10
73.2581609367
 20
103.8173869234
 10
73.2583784769
 20
103.8163789586
 10
73.2586026856
 20
103.8160464369
  0
LWPOLYLINE
  5
6CC
100
AcDbEntity
  8
ASSI
100
AcDbPolyline
 62
253
  6
CONTINUOUS
 90
49
 70
0
 10
72.7673288929
 20
119.9606458264
 10
72.7676398066
 20
119.9500459831
 10
72.7685731779
 20
119.9394770172
 10
72.7701293694
 20
119.9289389287
 10
72.7723109343
 20
119.9184063365
 10
72.7751151714
 20
119.9079046217
 10
72.7785267418
 20
119.8975099282
 10
72.7825318031
 20
119.8872345606
 10
72.7871236034
 20
119.8770662143
 10
72.792288976
 20
119.8670441195
 10
72.7980174603
 20
119.8571670666
 10
72.8042951784
 20
119.8474362652
 10
72.8111000472
 20
119.8378945738
 10
72.8184140761
 20
119.8285467794
 10
72.8262231948
 20
119.819388095
 10
72.83450794
 20
119.8104470178
 10
72.8432520103
 20
119.8017244457
 10
72.8524370781
 20
119.7932194809
 10
72.8620387355
 20
119.7849579275
 10
72.8720363755
 20
119.7769430824
 10
72.882412775
 20
119.7691716487
 10
72.8931473027
 20
119.7616595396
 10
72.9042195719
 20
119.7544090467
 10
72.9156116715
 20
119.7474178785
 10
72.9273067356
 20
119.7406950734
 10
72.9392877441
 20
119.7342411243
 10
72.9515344495
 20
119.7280555384
 10
72.9640252724
 20
119.7221458756
 10
72.9767349589
 20
119.7165158796
 10
72.9896515743
 20
119.7111618067
 10
73.0027747066
 20
119.7060799868
 10
73.0160964967
 20
119.701267935
 10
73.0295916183
 20
119.6967281362
 10
73.0432343487
 20
119.6924643738
 10
73.0569938944
 20
119.6884809611
 10
73.0708674877
 20
119.684773585
 10
73.0848727298
 20
119.6813330897
 10
73.0990089471
 20
119.6781561938
 10
73.1132478986
 20
119.6752461787
 10
73.1275671229
 20
119.6726037329
 10
73.1419482136
 20
119.6702304831
 10
73.1563807675
 20
119.6681248027
 10
73.1708544825
 20
119.6662825008
 10
73.1853273312
 20
119.6647044224
 10
73.1998138393
 20
119.6633897225
 10
73.2143901355
 20
119.6623316749
 10
73.2290738457
 20
119.6615280375
 10
73.2438227875
 20
119.6609810524
 10
81.2760585087
 20
119.520746306
  0
LWPOLYLINE
  5
6CD
100
AcDbEntity
  8
0
100
AcDbPolyline
 62
253
  6
CONTINUOUS
 90
49
 70
0
 10
72.7673288929
 20
119.9606458264
 10
72.7676398066
 20
119.9500459831
 10
72.7685731779
 20
119.9394770172
 10
72.7701293694
 20
119.9289389287
 10
72.7723109343
 20
119.9184063365
 10
72.7751151714
 20
119.9079046217
 10
72.7785267418
 20
119.8975099282
 10
72.7825318031
 20
119.8872345606
 10
72.7871236034
 20
119.8770662143
 10
72.792288976
 20
119.8670441195
 10
72.7980174603
 20
119.8571670666
 10
72.8042951784
 20
119.8474362652
 10
72.8111000472
 20
119.8378945738
 10
72.8184140761
 20
119.8285467794
 10
72.8262231948
 20
119.819388095
 10
72.83450794
 20
119.8104470178
 10
72.8432520103
 20
119.8017244457
 10
72.8524370781
 20
119.7932194809
 10
72.8620387355
 20
119.7849579275
 10
72.8720363755
 20
119.7769430824
 10
72.882412775
 20
119.7691716487
 10
72.8931473027
 20
119.7616595396
 10
72.9042195719
 20
119.7544090467
 10
72.9156116715
 20
119.7474178785
 10
72.9273067356
 20
119.7406950734
 10
72.9392877441
 20
119.7342411243
 10
72.9515344495
 20
119.7280555384
 10
72.9640252724
 20
119.7221458756
 10
72.9767349589
 20
119.7165158796
 10
72.9896515743
 20
119.7111618067
 10
73.0027747066
 20
119.7060799868
 10
73.0160964967
 20
119.701267935
 10
73.0295916183
 20
119.6967281362
 10
73.0432343487
 20
119.6924643738
 10
73.0569938944
 20
119.6884809611
 10
73.0708674877
 20
119.684773585
 10
73.0848727298
 20
119.6813330897
 10
73.0990089471
 20
119.6781561938
 10
73.1132478986
 20
119.6752461787
 10
73.1275671229
 20
119.6726037329
 10
73.1419482136
 20
119.6702304831
 10
73.1563807675
 20
119.6681248027
 10
73.1708544825
 20
119.6662825008
 10
73.1853273312
 20
119.6647044224
 10
73.1998138393
 20
119.6633897225
 10
73.2143901355
 20
119.6623316749
 10
73.2290738457
 20
119.6615280375
 10
73.2438227875
 20
119.6609810524
 10
81.2760585087
 20
119.520746306
  0
LINE
  5
6CE
100
AcDbEntity
  8
ASSI
100
AcDbLine
 62
253
  6
CONTINUOUS
 10
73.256645669
 20
103.8499538222
 11
73.2569839383
 21
103.8377392801
  0
LINE
  5
6CF
100
AcDbEntity
  8
0
100
AcDbLine
 62
253
  6
CONTINUOUS
 10
73.256645669
 20
103.8499538222
 11
73.2569839383
 21
103.8377392801
  0
LWPOLYLINE
  5
6D0
100
AcDbEntity
  8
ASSI
100
AcDbPolyline
 62
253
  6
CONTINUOUS
 90
55
 70
0
 10
72.7673288929
 20
136.2693494765
 10
72.7669151913
 20
136.2896870302
 10
72.7656744286
 20
136.3100077566
 10
72.7636076314
 20
136.3302948422
 10
72.76071651
 20
136.3505315014
 10
72.7570034563
 20
136.3707009903
 10
72.7524715425
 20
136.3907866207
 10
72.7471245184
 20
136.4107717736
 10
72.7409668082
 20
136.4306399132
 10
72.7340035067
 20
136.4503746006
 10
72.7262403753
 20
136.4699595073
 10
72.7176838374
 20
136.4893784285
 10
72.7083409727
 20
136.5086152971
 10
72.6982195113
 20
136.5276541963
 10
72.687327828
 20
136.5464793733
 10
72.6756749344
 20
136.5650752522
 10
72.6632704723
 20
136.5834264466
 10
72.6501247051
 20
136.6015177727
 10
72.6362485097
 20
136.6193342616
 10
72.6216533672
 20
136.6368611719
 10
72.6063513538
 20
136.6540840019
 10
72.5903551304
 20
136.6709885012
 10
72.5736779323
 20
136.6875606831
 10
72.5563335583
 20
136.7037868356
 10
72.5383363592
 20
136.7196535332
 10
72.5197012259
 20
136.7351476477
 10
72.5004435771
 20
136.7502563592
 10
72.4805793468
 20
136.7649671668
 10
72.4601249707
 20
136.7792678987
 10
72.4390973727
 20
136.7931467223
 10
72.4175139513
 20
136.8065921544
 10
72.3953925645
 20
136.81959307
 10
72.3727515156
 20
136.8321387123
 10
72.3496095381
 20
136.8442187008
 10
72.3259857796
 20
136.8558230407
 10
72.3018997864
 20
136.8669421303
 10
72.2773714875
 20
136.8775667698
 10
72.2524211776
 20
136.8876881682
 10
72.2270695007
 20
136.8972979511
 10
72.2013374329
 20
136.9063881673
 10
72.1752462649
 20
136.9149512956
 10
72.1488175847
 20
136.9229802507
 10
72.1220732595
 20
136.9304683895
 10
72.0950354175
 20
136.9374095164
 10
72.0677264301
 20
136.943797888
 10
72.0401688927
 20
136.9496282188
 10
72.0123856065
 20
136.9548956847
 10
71.9843995596
 20
136.9595959273
 10
71.9562339077
 20
136.9637250577
 10
71.9279119551
 20
136.9672796593
 10
71.8994571356
 20
136.9702567912
 10
71.8708929927
 20
136.97265399
 10
71.8422431605
 20
136.9744692722
 10
71.813531344
 20
136.9757011359
 10
71.7847812994
 20
136.9763485619
  0
LWPOLYLINE
  5
6D1
100
AcDbEntity
  8
0
100
AcDbPolyline
 62
253
  6
CONTINUOUS
 90
55
 70
0
 10
72.7673288929
 20
136.2693494765
 10
72.7669151913
 20
136.2896870302
 10
72.7656744286
 20
136.3100077566
 10
72.7636076314
 20
136.3302948422
 10
72.76071651
 20
136.3505315014
 10
72.7570034563
 20
136.3707009903
 10
72.7524715425
 20
136.3907866207
 10
72.7471245184
 20
136.4107717736
 10
72.7409668082
 20
136.4306399132
 10
72.7340035067
 20
136.4503746006
 10
72.7262403753
 20
136.4699595073
 10
72.7176838374
 20
136.4893784285
 10
72.7083409727
 20
136.5086152971
 10
72.6982195113
 20
136.5276541963
 10
72.687327828
 20
136.5464793733
 10
72.6756749344
 20
136.5650752522
 10
72.6632704723
 20
136.5834264466
 10
72.6501247051
 20
136.6015177727
 10
72.6362485097
 20
136.6193342616
 10
72.6216533672
 20
136.6368611719
 10
72.6063513538
 20
136.6540840019
 10
72.5903551304
 20
136.6709885012
 10
72.5736779323
 20
136.6875606831
 10
72.5563335583
 20
136.7037868356
 10
72.5383363592
 20
136.7196535332
 10
72.5197012259
 20
136.7351476477
 10
72.5004435771
 20
136.7502563592
 10
72.4805793468
 20
136.7649671668
 10
72.4601249707
 20
136.7792678987
 10
72.4390973727
 20
136.7931467223
 10
72.4175139513
 20
136.8065921544
 10
72.3953925645
 20
136.81959307
 10
72.3727515156
 20
136.8321387123
 10
72.3496095381
 20
136.8442187008
 10
72.3259857796
 20
136.8558230407
 10
72.3018997864
 20
136.8669421303
 10
72.2773714875
 20
136.8775667698
 10
72.2524211776
 20
136.8876881682
 10
72.2270695007
 20
136.8972979511
 10
72.2013374329
 20
136.9063881673
 10
72.1752462649
 20
136.9149512956
 10
72.1488175847
 20
136.9229802507
 10
72.1220732595
 20
136.9304683895
 10
72.0950354175
 20
136.9374095164
 10
72.0677264301
 20
136.943797888
 10
72.0401688927
 20
136.9496282188
 10
72.0123856065
 20
136.9548956847
 10
71.9843995596
 20
136.9595959273
 10
71.9562339077
 20
136.9637250577
 10
71.9279119551
 20
136.9672796593
 10
71.8994571356
 20
136.9702567912
 10
71.8708929927
 20
136.97265399
 10
71.8422431605
 20
136.9744692722
 10
71.813531344
 20
136.9757011359
 10
71.7847812994
 20
136.9763485619
  0
LWPOLYLINE
  5
6D2
100
AcDbEntity
  8
ASSI
100
AcDbPolyline
 62
253
  6
CONTINUOUS
 90
55
 70
0
 10
72.7673288929
 20
136.489863828
 10
72.7669151912
 20
136.5102013843
 10
72.7656744282
 20
136.5305221132
 10
72.7636076305
 20
136.5508092013
 10
72.7607165086
 20
136.5710458614
 10
72.7570034543
 20
136.5912153512
 10
72.7524715388
 20
136.6113009872
 10
72.7471245101
 20
136.6312861541
 10
72.7409667924
 20
136.6511543125
 10
72.7340034822
 20
136.6708890176
 10
72.7262403418
 20
136.690473939
 10
72.7176837939
 20
136.709892874
 10
72.7083409179
 20
136.7291297563
 10
72.6982194438
 20
136.7481686695
 10
72.6873277464
 20
136.7669938604
 10
72.6756748376
 20
136.7855897524
 10
72.6632703595
 20
136.8039409591
 10
72.6501245752
 20
136.8220322968
 10
72.6362483618
 20
136.8398487967
 10
72.6216532003
 20
136.8573757175
 10
72.6063511669
 20
136.8745985573
 10
72.5903549225
 20
136.8915030658
 10
72.5736777026
 20
136.9080752561
 10
72.5563333058
 20
136.9243014164
 10
72.538336083
 20
136.9401681211
 10
72.5197009252
 20
136.9556622421
 10
72.500443251
 20
136.9707709593
 10
72.4805789944
 20
136.985481772
 10
72.460124591
 20
136.9997825082
 10
72.4390969648
 20
137.0136613354
 10
72.4175135142
 20
137.0271067704
 10
72.3953920971
 20
137.0401076883
 10
72.3727510171
 20
137.052653332
 10
72.3496090073
 20
137.0647333212
 10
72.3259852155
 20
137.0763376609
 10
72.3018991881
 20
137.0874567495
 10
72.2773708543
 20
137.0980813868
 10
72.2524205089
 20
137.108202782
 10
72.2270687961
 20
137.1178125606
 10
72.2013366921
 20
137.1269027712
 10
72.175245488
 20
137.1354658925
 10
72.1488167716
 20
137.1434948395
 10
72.1220724103
 20
137.1509829689
 10
72.095034531
 20
137.1579240853
 10
72.0677255063
 20
137.1643124453
 10
72.0401679363
 20
137.1701427621
 10
72.0123846253
 20
137.1754102116
 10
71.9843985586
 20
137.1801104362
 10
71.9562328875
 20
137.1842395479
 10
71.9279108737
 20
137.1877941352
 10
71.8994559933
 20
137.1907712503
 10
71.8708919148
 20
137.1931684208
 10
71.842242315
 20
137.1949836686
 10
71.8135308578
 20
137.1962155033
 10
71.7847812994
 20
137.1968629134
  0
LWPOLYLINE
  5
6D3
100
AcDbEntity
  8
0
100
AcDbPolyline
 62
253
  6
CONTINUOUS
 90
55
 70
0
 10
72.7673288929
 20
136.489863828
 10
72.7669151912
 20
136.5102013843
 10
72.7656744282
 20
136.5305221132
 10
72.7636076305
 20
136.5508092013
 10
72.7607165086
 20
136.5710458614
 10
72.7570034543
 20
136.5912153512
 10
72.7524715388
 20
136.6113009872
 10
72.7471245101
 20
136.6312861541
 10
72.7409667924
 20
136.6511543125
 10
72.7340034822
 20
136.6708890176
 10
72.7262403418
 20
136.690473939
 10
72.7176837939
 20
136.709892874
 10
72.7083409179
 20
136.7291297563
 10
72.6982194438
 20
136.7481686695
 10
72.6873277464
 20
136.7669938604
 10
72.6756748376
 20
136.7855897524
 10
72.6632703595
 20
136.8039409591
 10
72.6501245752
 20
136.8220322968
 10
72.6362483618
 20
136.8398487967
 10
72.6216532003
 20
136.8573757175
 10
72.6063511669
 20
136.8745985573
 10
72.5903549225
 20
136.8915030658
 10
72.5736777026
 20
136.9080752561
 10
72.5563333058
 20
136.9243014164
 10
72.538336083
 20
136.9401681211
 10
72.5197009252
 20
136.9556622421
 10
72.500443251
 20
136.9707709593
 10
72.4805789944
 20
136.985481772
 10
72.460124591
 20
136.9997825082
 10
72.4390969648
 20
137.0136613354
 10
72.4175135142
 20
137.0271067704
 10
72.3953920971
 20
137.0401076883
 10
72.3727510171
 20
137.052653332
 10
72.3496090073
 20
137.0647333212
 10
72.3259852155
 20
137.0763376609
 10
72.3018991881
 20
137.0874567495
 10
72.2773708543
 20
137.0980813868
 10
72.2524205089
 20
137.108202782
 10
72.2270687961
 20
137.1178125606
 10
72.2013366921
 20
137.1269027712
 10
72.175245488
 20
137.1354658925
 10
72.1488167716
 20
137.1434948395
 10
72.1220724103
 20
137.1509829689
 10
72.095034531
 20
137.1579240853
 10
72.0677255063
 20
137.1643124453
 10
72.0401679363
 20
137.1701427621
 10
72.0123846253
 20
137.1754102116
 10
71.9843985586
 20
137.1801104362
 10
71.9562328875
 20
137.1842395479
 10
71.9279108737
 20
137.1877941352
 10
71.8994559933
 20
137.1907712503
 10
71.8708919148
 20
137.1931684208
 10
71.842242315
 20
137.1949836686
 10
71.8135308578
 20
137.1962155033
 10
71.7847812994
 20
137.1968629134
  0
LINE
  5
6D4
100
AcDbEntity
  8
ASSI
100
AcDbLine
 62
253
  6
CONTINUOUS
 10
73.256336323
 20
103.8648332272
 11
73.256645669
 21
103.8499538222
  0
LINE
  5
6D5
100
AcDbEntity
  8
0
100
AcDbLine
 62
253
  6
CONTINUOUS
 10
73.256336323
 20
103.8648332272
 11
73.256645669
 21
103.8499538222
  0
LINE
  5
6D6
100
AcDbEntity
  8
ASSI
100
AcDbLine
 62
253
  6
CONTINUOUS
 10
73.257533188
 20
119.4759612313
 11
73.2573859803
 21
119.4833358969
  0
LINE
  5
6D7
100
AcDbEntity
  8
0
100
AcDbLine
 62
253
  6
CONTINUOUS
 10
73.257533188
 20
119.4759612313
 11
73.2573859803
 21
119.4833358969
  0
LINE
  5
6D8
100
AcDbEntity
  8
ASSI
100
AcDbLine
 62
253
  6
CONTINUOUS
 10
73.2559300161
 20
103.8920154542
 11
73.256336323
 21
103.8648332272
  0
LINE
  5
6D9
100
AcDbEntity
  8
0
100
AcDbLine
 62
253
  6
CONTINUOUS
 10
73.2559300161
 20
103.8920154542
 11
73.256336323
 21
103.8648332272
  0
LINE
  5
6DA
100
AcDbEntity
  8
ASSI
100
AcDbLine
 62
253
  6
CONTINUOUS
 10
73.2573859803
 20
119.4833358969
 11
73.2572745833
 21
119.4920598228
  0
LINE
  5
6DB
100
AcDbEntity
  8
0
100
AcDbLine
 62
253
  6
CONTINUOUS
 10
73.2573859803
 20
119.4833358969
 11
73.2572745833
 21
119.4920598228
  0
LINE
  5
6DC
100
AcDbEntity
  8
ASSI
100
AcDbLine
 62
253
  6
CONTINUOUS
 10
73.255498818
 20
103.9370443228
 11
73.2559300161
 21
103.8920154542
  0
LINE
  5
6DD
100
AcDbEntity
  8
0
100
AcDbLine
 62
253
  6
CONTINUOUS
 10
73.255498818
 20
103.9370443228
 11
73.2559300161
 21
103.8920154542
  0
LINE
  5
6DE
100
AcDbEntity
  8
ASSI
100
AcDbLine
 62
253
  6
CONTINUOUS
 10
73.2572745833
 20
119.4920598228
 11
73.2571998444
 21
119.5020666404
  0
LINE
  5
6DF
100
AcDbEntity
  8
0
100
AcDbLine
 62
253
  6
CONTINUOUS
 10
73.2572745833
 20
119.4920598228
 11
73.2571998444
 21
119.5020666404
  0
LINE
  5
6E0
100
AcDbEntity
  8
ASSI
100
AcDbLine
 62
253
  6
CONTINUOUS
 10
73.2555945658
 20
118.9146771331
 11
73.2586027189
 21
118.4608704756
  0
LINE
  5
6E1
100
AcDbEntity
  8
0
100
AcDbLine
 62
253
  6
CONTINUOUS
 10
73.2555945658
 20
118.9146771331
 11
73.2586027189
 21
118.4608704756
  0
LINE
  5
6E2
100
AcDbEntity
  8
ASSI
100
AcDbLine
 62
253
  6
CONTINUOUS
 10
73.2555945658
 20
133.2146771331
 11
73.2586027189
 21
132.7608704756
  0
LINE
  5
6E3
100
AcDbEntity
  8
0
100
AcDbLine
 62
253
  6
CONTINUOUS
 10
73.2555945658
 20
133.2146771331
 11
73.2586027189
 21
132.7608704756
  0
LINE
  5
6E4
100
AcDbEntity
  8
ASSI
100
AcDbLine
 62
253
  6
CONTINUOUS
 10
73.2550958259
 20
104.0225150438
 11
73.255498818
 21
103.9370443228
  0
LINE
  5
6E5
100
AcDbEntity
  8
0
100
AcDbLine
 62
253
  6
CONTINUOUS
 10
73.2550958259
 20
104.0225150438
 11
73.255498818
 21
103.9370443228
  0
LINE
  5
6E6
100
AcDbEntity
  8
ASSI
100
AcDbLine
 62
253
  6
CONTINUOUS
 10
73.2571998444
 20
119.5020666404
 11
73.2571576366
 21
119.5193132301
  0
LINE
  5
6E7
100
AcDbEntity
  8
0
100
AcDbLine
 62
253
  6
CONTINUOUS
 10
73.2571998444
 20
119.5020666404
 11
73.2571576366
 21
119.5193132301
  0
LINE
  5
6E8
100
AcDbEntity
  8
ASSI
100
AcDbLine
 62
253
  6
CONTINUOUS
 10
73.254990057
 20
119.1679408985
 11
73.2555945658
 21
118.9146771331
  0
LINE
  5
6E9
100
AcDbEntity
  8
0
100
AcDbLine
 62
253
  6
CONTINUOUS
 10
73.254990057
 20
119.1679408985
 11
73.2555945658
 21
118.9146771331
  0
LINE
  5
6EA
100
AcDbEntity
  8
ASSI
100
AcDbLine
 62
253
  6
CONTINUOUS
 10
73.254990057
 20
133.4679408985
 11
73.2555945658
 21
133.2146771331
  0
LINE
  5
6EB
100
AcDbEntity
  8
0
100
AcDbLine
 62
253
  6
CONTINUOUS
 10
73.254990057
 20
133.4679408985
 11
73.2555945658
 21
133.2146771331
  0
LINE
  5
6EC
100
AcDbEntity
  8
ASSI
100
AcDbLine
 62
7
  6
CONTINUOUS
 10
72.7673288929
 20
136.489863828
 11
72.7673288929
 21
99.3869045879
  0
LINE
  5
6ED
100
AcDbEntity
  8
0
100
AcDbLine
 62
7
  6
CONTINUOUS
 10
72.7673288929
 20
136.489863828
 11
72.7673288929
 21
99.3869045879
  0
LINE
  5
6EE
100
AcDbEntity
  8
ASSI
100
AcDbLine
 62
7
  6
CONTINUOUS
 10
73.0673288929
 20
136.4884369962
 11
73.0673288929
 21
129.6919573295
  0
LINE
  5
6EF
100
AcDbEntity
  8
0
100
AcDbLine
 62
7
  6
CONTINUOUS
 10
73.0673288929
 20
136.4884369962
 11
73.0673288929
 21
129.6919573295
  0
LINE
  5
6F0
100
AcDbEntity
  8
ASSI
100
AcDbLine
 62
253
  6
CONTINUOUS
 10
73.2586026897
 20
118.4608704761
 11
73.2586026897
 21
104.8158982764
  0
LINE
  5
6F1
100
AcDbEntity
  8
0
100
AcDbLine
 62
253
  6
CONTINUOUS
 10
73.2586026897
 20
118.4608704761
 11
73.2586026897
 21
104.8158982764
  0
LINE
  5
6F2
100
AcDbEntity
  8
ASSI
100
AcDbLine
 62
253
  6
CONTINUOUS
 10
73.2586026897
 20
132.7608704761
 11
73.2586242533
 21
119.6606911415
  0
LINE
  5
6F3
100
AcDbEntity
  8
0
100
AcDbLine
 62
253
  6
CONTINUOUS
 10
73.2586026897
 20
132.7608704761
 11
73.2586242533
 21
119.6606911415
  0
LINE
  5
6F4
100
AcDbEntity
  8
ASSI
100
AcDbLine
 62
253
  6
CONTINUOUS
 10
73.2550957616
 20
104.2072028578
 11
73.2550958259
 21
104.0225150438
  0
LINE
  5
6F5
100
AcDbEntity
  8
0
100
AcDbLine
 62
253
  6
CONTINUOUS
 10
73.2550957616
 20
104.2072028578
 11
73.2550958259
 21
104.0225150438
  0
LINE
  5
6F6
100
AcDbEntity
  8
ASSI
100
AcDbLine
 62
253
  6
CONTINUOUS
 10
73.2552600557
 20
133.5995681785
 11
73.254990057
 21
133.4679408985
  0
LINE
  5
6F7
100
AcDbEntity
  8
0
100
AcDbLine
 62
253
  6
CONTINUOUS
 10
73.2552600557
 20
133.5995681785
 11
73.254990057
 21
133.4679408985
  0
LINE
  5
6F8
100
AcDbEntity
  8
ASSI
100
AcDbLine
 62
253
  6
CONTINUOUS
 10
73.2552600557
 20
119.2995681785
 11
73.254990057
 21
119.1679408985
  0
LINE
  5
6F9
100
AcDbEntity
  8
0
100
AcDbLine
 62
253
  6
CONTINUOUS
 10
73.2552600557
 20
119.2995681785
 11
73.254990057
 21
119.1679408985
  0
LINE
  5
6FA
100
AcDbEntity
  8
ASSI
100
AcDbLine
 62
253
  6
CONTINUOUS
 10
73.2571576366
 20
119.5193132301
 11
73.2572325895
 21
119.5460131006
  0
LINE
  5
6FB
100
AcDbEntity
  8
0
100
AcDbLine
 62
253
  6
CONTINUOUS
 10
73.2571576366
 20
119.5193132301
 11
73.2572325895
 21
119.5460131006
  0
LINE
  5
6FC
100
AcDbEntity
  8
ASSI
100
AcDbLine
 62
253
  6
CONTINUOUS
 10
73.2568108727
 20
104.5829241429
 11
73.2550957616
 21
104.2072028578
  0
LINE
  5
6FD
100
AcDbEntity
  8
0
100
AcDbLine
 62
253
  6
CONTINUOUS
 10
73.2568108727
 20
104.5829241429
 11
73.2550957616
 21
104.2072028578
  0
LINE
  5
6FE
100
AcDbEntity
  8
ASSI
100
AcDbLine
 62
253
  6
CONTINUOUS
 10
73.2586027215
 20
104.8158982769
 11
73.2568108727
 21
104.5829241429
  0
LINE
  5
6FF
100
AcDbEntity
  8
0
100
AcDbLine
 62
253
  6
CONTINUOUS
 10
73.2586027215
 20
104.8158982769
 11
73.2568108727
 21
104.5829241429
  0
LINE
  5
700
100
AcDbEntity
  8
ASSI
100
AcDbLine
 62
253
  6
CONTINUOUS
 10
73.2556982021
 20
133.6634578038
 11
73.2552600557
 21
133.5995681785
  0
LINE
  5
701
100
AcDbEntity
  8
0
100
AcDbLine
 62
253
  6
CONTINUOUS
 10
73.2556982021
 20
133.6634578038
 11
73.2552600557
 21
133.5995681785
  0
LINE
  5
702
100
AcDbEntity
  8
ASSI
100
AcDbLine
 62
253
  6
CONTINUOUS
 10
73.2556982021
 20
119.3634578038
 11
73.2552600557
 21
119.2995681785
  0
LINE
  5
703
100
AcDbEntity
  8
0
100
AcDbLine
 62
253
  6
CONTINUOUS
 10
73.2556982021
 20
119.3634578038
 11
73.2552600557
 21
119.2995681785
  0
LINE
  5
704
100
AcDbEntity
  8
ASSI
100
AcDbLine
 62
253
  6
CONTINUOUS
 10
73.2572325895
 20
119.5460131006
 11
73.257533188
 21
119.5841805529
  0
LINE
  5
705
100
AcDbEntity
  8
0
100
AcDbLine
 62
253
  6
CONTINUOUS
 10
73.2572325895
 20
119.5460131006
 11
73.257533188
 21
119.5841805529
  0
LINE
  5
706
100
AcDbEntity
  8
ASSI
100
AcDbLine
 62
253
  6
CONTINUOUS
 10
73.2560574249
 20
133.6944388236
 11
73.2556982021
 21
133.6634578038
  0
LINE
  5
707
100
AcDbEntity
  8
0
100
AcDbLine
 62
253
  6
CONTINUOUS
 10
73.2560574249
 20
133.6944388236
 11
73.2556982021
 21
133.6634578038
  0
LINE
  5
708
100
AcDbEntity
  8
ASSI
100
AcDbLine
 62
253
  6
CONTINUOUS
 10
73.2560574249
 20
119.3944388236
 11
73.2556982021
 21
119.3634578038
  0
LINE
  5
709
100
AcDbEntity
  8
0
100
AcDbLine
 62
253
  6
CONTINUOUS
 10
73.2560574249
 20
119.3944388236
 11
73.2556982021
 21
119.3634578038
  0
LINE
  5
70A
100
AcDbEntity
  8
ASSI
100
AcDbLine
 62
253
  6
CONTINUOUS
 10
73.257533188
 20
119.5841805529
 11
73.258177167
 21
119.6345952865
  0
LINE
  5
70B
100
AcDbEntity
  8
0
100
AcDbLine
 62
253
  6
CONTINUOUS
 10
73.257533188
 20
119.5841805529
 11
73.258177167
 21
119.6345952865
  0
LINE
  5
70C
100
AcDbEntity
  8
ASSI
100
AcDbLine
 62
253
  6
CONTINUOUS
 10
73.2563360771
 20
133.7119214619
 11
73.2560574249
 21
133.6944388236
  0
LINE
  5
70D
100
AcDbEntity
  8
0
100
AcDbLine
 62
253
  6
CONTINUOUS
 10
73.2563360771
 20
133.7119214619
 11
73.2560574249
 21
133.6944388236
  0
LINE
  5
70E
100
AcDbEntity
  8
ASSI
100
AcDbLine
 62
253
  6
CONTINUOUS
 10
73.258177167
 20
119.6345952865
 11
73.2586026897
 21
119.6606915179
  0
LINE
  5
70F
100
AcDbEntity
  8
0
100
AcDbLine
 62
253
  6
CONTINUOUS
 10
73.258177167
 20
119.6345952865
 11
73.2586026897
 21
119.6606915179
  0
LINE
  5
710
100
AcDbEntity
  8
ASSI
100
AcDbLine
 62
253
  6
CONTINUOUS
 10
73.2563360771
 20
119.4119214619
 11
73.2560574249
 21
119.3944388236
  0
LINE
  5
711
100
AcDbEntity
  8
0
100
AcDbLine
 62
253
  6
CONTINUOUS
 10
73.2563360771
 20
119.4119214619
 11
73.2560574249
 21
119.3944388236
  0
LWPOLYLINE
  5
712
100
AcDbEntity
  8
ASSI
100
AcDbPolyline
 62
253
  6
CONTINUOUS
 90
55
 70
0
 10
72.7673288929
 20
99.6074189393
 10
72.7669151913
 20
99.5870813852
 10
72.7656744285
 20
99.5667606585
 10
72.7636076313
 20
99.5464735725
 10
72.7607165097
 20
99.526236913
 10
72.7570034559
 20
99.5060674237
 10
72.752471542
 20
99.485981793
 10
72.7471245178
 20
99.4659966399
 10
72.7409668073
 20
99.4461285
 10
72.7340035056
 20
99.4263938123
 10
72.7262403741
 20
99.4068089055
 10
72.7176838359
 20
99.3873899841
 10
72.7083409709
 20
99.3681531154
 10
72.6982195094
 20
99.349114216
 10
72.6873278258
 20
99.3302890388
 10
72.675674932
 20
99.3116931598
 10
72.6632704696
 20
99.2933419654
 10
72.6501247022
 20
99.2752506392
 10
72.6362485065
 20
99.2574341503
 10
72.6216533639
 20
99.2399072399
 10
72.6063513502
 20
99.22268441
 10
72.5903551266
 20
99.2057799107
 10
72.5736779283
 20
99.1892077289
 10
72.5563335541
 20
99.1729815764
 10
72.5383363548
 20
99.1571148789
 10
72.5197012214
 20
99.1416207645
 10
72.5004435725
 20
99.126512053
 10
72.4805793421
 20
99.1118012455
 10
72.4601249659
 20
99.0975005138
 10
72.4390973678
 20
99.0836216903
 10
72.4175139463
 20
99.0701762584
 10
72.3953925594
 20
99.0571753429
 10
72.3727515106
 20
99.0446297008
 10
72.3496095331
 20
99.0325497124
 10
72.3259857746
 20
99.0209453728
 10
72.3018997815
 20
99.0098262833
 10
72.2773714827
 20
98.999201644
 10
72.2524211729
 20
98.9890802458
 10
72.2270694962
 20
98.979470463
 10
72.2013374285
 20
98.970380247
 10
72.1752462607
 20
98.9618171189
 10
72.1488175807
 20
98.9537881639
 10
72.1220732556
 20
98.9463000252
 10
72.0950354139
 20
98.9393588986
 10
72.0677264267
 20
98.932970527
 10
72.0401688896
 20
98.9271401964
 10
72.0123856038
 20
98.9218727306
 10
71.9843995572
 20
98.9171724881
 10
71.9562339056
 20
98.9130433579
 10
71.9279119533
 20
98.9094887563
 10
71.8994571341
 20
98.9065116245
 10
71.8708929916
 20
98.9041144258
 10
71.8422431597
 20
98.9022991436
 10
71.8135313436
 20
98.9010672799
 10
71.7847812994
 20
98.9004198539
  0
LWPOLYLINE
  5
713
100
AcDbEntity
  8
0
100
AcDbPolyline
 62
253
  6
CONTINUOUS
 90
55
 70
0
 10
72.7673288929
 20
99.6074189393
 10
72.7669151913
 20
99.5870813852
 10
72.7656744285
 20
99.5667606585
 10
72.7636076313
 20
99.5464735725
 10
72.7607165097
 20
99.526236913
 10
72.7570034559
 20
99.5060674237
 10
72.752471542
 20
99.485981793
 10
72.7471245178
 20
99.4659966399
 10
72.7409668073
 20
99.4461285
 10
72.7340035056
 20
99.4263938123
 10
72.7262403741
 20
99.4068089055
 10
72.7176838359
 20
99.3873899841
 10
72.7083409709
 20
99.3681531154
 10
72.6982195094
 20
99.349114216
 10
72.6873278258
 20
99.3302890388
 10
72.675674932
 20
99.3116931598
 10
72.6632704696
 20
99.2933419654
 10
72.6501247022
 20
99.2752506392
 10
72.6362485065
 20
99.2574341503
 10
72.6216533639
 20
99.2399072399
 10
72.6063513502
 20
99.22268441
 10
72.5903551266
 20
99.2057799107
 10
72.5736779283
 20
99.1892077289
 10
72.5563335541
 20
99.1729815764
 10
72.5383363548
 20
99.1571148789
 10
72.5197012214
 20
99.1416207645
 10
72.5004435725
 20
99.126512053
 10
72.4805793421
 20
99.1118012455
 10
72.4601249659
 20
99.0975005138
 10
72.4390973678
 20
99.0836216903
 10
72.4175139463
 20
99.0701762584
 10
72.3953925594
 20
99.0571753429
 10
72.3727515106
 20
99.0446297008
 10
72.3496095331
 20
99.0325497124
 10
72.3259857746
 20
99.0209453728
 10
72.3018997815
 20
99.0098262833
 10
72.2773714827
 20
98.999201644
 10
72.2524211729
 20
98.9890802458
 10
72.2270694962
 20
98.979470463
 10
72.2013374285
 20
98.970380247
 10
72.1752462607
 20
98.9618171189
 10
72.1488175807
 20
98.9537881639
 10
72.1220732556
 20
98.9463000252
 10
72.0950354139
 20
98.9393588986
 10
72.0677264267
 20
98.932970527
 10
72.0401688896
 20
98.9271401964
 10
72.0123856038
 20
98.9218727306
 10
71.9843995572
 20
98.9171724881
 10
71.9562339056
 20
98.9130433579
 10
71.9279119533
 20
98.9094887563
 10
71.8994571341
 20
98.9065116245
 10
71.8708929916
 20
98.9041144258
 10
71.8422431597
 20
98.9022991436
 10
71.8135313436
 20
98.9010672799
 10
71.7847812994
 20
98.9004198539
  0
LWPOLYLINE
  5
714
100
AcDbEntity
  8
ASSI
100
AcDbPolyline
 62
253
  6
CONTINUOUS
 90
55
 70
0
 10
72.7673288929
 20
99.3869045879
 10
72.7669151912
 20
99.3665670316
 10
72.7656744282
 20
99.3462463027
 10
72.7636076305
 20
99.3259592146
 10
72.7607165086
 20
99.3057225546
 10
72.7570034544
 20
99.2855530649
 10
72.7524715388
 20
99.2654674288
 10
72.7471245101
 20
99.2454822619
 10
72.7409667925
 20
99.2256141037
 10
72.7340034823
 20
99.2058793985
 10
72.7262403419
 20
99.1862944771
 10
72.717683794
 20
99.166875542
 10
72.7083409179
 20
99.1476386597
 10
72.6982194438
 20
99.1285997464
 10
72.6873277464
 20
99.1097745555
 10
72.6756748376
 20
99.0911786634
 10
72.6632703594
 20
99.0728274567
 10
72.6501245751
 20
99.054736119
 10
72.6362483617
 20
99.036919619
 10
72.6216532001
 20
99.0193926982
 10
72.6063511667
 20
99.0021698584
 10
72.5903549223
 20
98.9852653499
 10
72.5736777023
 20
98.9686931595
 10
72.5563333056
 20
98.9524669993
 10
72.5383360828
 20
98.9366002945
 10
72.519700925
 20
98.9211061736
 10
72.5004432508
 20
98.9059974564
 10
72.4805789942
 20
98.8912866437
 10
72.4601245908
 20
98.8769859076
 10
72.4390969647
 20
98.8631070804
 10
72.4175135141
 20
98.8496616454
 10
72.3953920971
 20
98.8366607276
 10
72.3727510172
 20
98.8241150839
 10
72.3496090075
 20
98.8120350948
 10
72.3259852157
 20
98.8004307551
 10
72.3018991883
 20
98.7893116665
 10
72.2773708545
 20
98.7786870292
 10
72.2524205091
 20
98.7685656339
 10
72.2270687962
 20
98.7589558554
 10
72.2013366922
 20
98.7498656447
 10
72.175245488
 20
98.7413025233
 10
72.1488167716
 20
98.7332735764
 10
72.1220724102
 20
98.725785447
 10
72.0950345308
 20
98.7188443305
 10
72.067725506
 20
98.7124559705
 10
72.0401679359
 20
98.7066256537
 10
72.012384625
 20
98.7013582042
 10
71.9843985583
 20
98.6966579796
 10
71.9562328872
 20
98.6925288679
 10
71.9279108735
 20
98.6889742806
 10
71.8994559931
 20
98.6859971655
 10
71.8708919146
 20
98.6835999951
 10
71.8422423149
 20
98.6817847473
 10
71.8135308578
 20
98.6805529125
 10
71.7847812994
 20
98.6799055025
  0
LWPOLYLINE
  5
715
100
AcDbEntity
  8
0
100
AcDbPolyline
 62
253
  6
CONTINUOUS
 90
55
 70
0
 10
72.7673288929
 20
99.3869045879
 10
72.7669151912
 20
99.3665670316
 10
72.7656744282
 20
99.3462463027
 10
72.7636076305
 20
99.3259592146
 10
72.7607165086
 20
99.3057225546
 10
72.7570034544
 20
99.2855530649
 10
72.7524715388
 20
99.2654674288
 10
72.7471245101
 20
99.2454822619
 10
72.7409667925
 20
99.2256141037
 10
72.7340034823
 20
99.2058793985
 10
72.7262403419
 20
99.1862944771
 10
72.717683794
 20
99.166875542
 10
72.7083409179
 20
99.1476386597
 10
72.6982194438
 20
99.1285997464
 10
72.6873277464
 20
99.1097745555
 10
72.6756748376
 20
99.0911786634
 10
72.6632703594
 20
99.0728274567
 10
72.6501245751
 20
99.054736119
 10
72.6362483617
 20
99.036919619
 10
72.6216532001
 20
99.0193926982
 10
72.6063511667
 20
99.0021698584
 10
72.5903549223
 20
98.9852653499
 10
72.5736777023
 20
98.9686931595
 10
72.5563333056
 20
98.9524669993
 10
72.5383360828
 20
98.9366002945
 10
72.519700925
 20
98.9211061736
 10
72.5004432508
 20
98.9059974564
 10
72.4805789942
 20
98.8912866437
 10
72.4601245908
 20
98.8769859076
 10
72.4390969647
 20
98.8631070804
 10
72.4175135141
 20
98.8496616454
 10
72.3953920971
 20
98.8366607276
 10
72.3727510172
 20
98.8241150839
 10
72.3496090075
 20
98.8120350948
 10
72.3259852157
 20
98.8004307551
 10
72.3018991883
 20
98.7893116665
 10
72.2773708545
 20
98.7786870292
 10
72.2524205091
 20
98.7685656339
 10
72.2270687962
 20
98.7589558554
 10
72.2013366922
 20
98.7498656447
 10
72.175245488
 20
98.7413025233
 10
72.1488167716
 20
98.7332735764
 10
72.1220724102
 20
98.725785447
 10
72.0950345308
 20
98.7188443305
 10
72.067725506
 20
98.7124559705
 10
72.0401679359
 20
98.7066256537
 10
72.012384625
 20
98.7013582042
 10
71.9843985583
 20
98.6966579796
 10
71.9562328872
 20
98.6925288679
 10
71.9279108735
 20
98.6889742806
 10
71.8994559931
 20
98.6859971655
 10
71.8708919146
 20
98.6835999951
 10
71.8422423149
 20
98.6817847473
 10
71.8135308578
 20
98.6805529125
 10
71.7847812994
 20
98.6799055025
  0
LINE
  5
716
100
AcDbEntity
  8
ASSI
100
AcDbLine
 62
253
  6
CONTINUOUS
 10
73.2566453867
 20
133.7268026939
 11
73.2563360771
 21
133.7119214619
  0
LINE
  5
717
100
AcDbEntity
  8
0
100
AcDbLine
 62
253
  6
CONTINUOUS
 10
73.2566453867
 20
133.7268026939
 11
73.2563360771
 21
133.7119214619
  0
LINE
  5
718
100
AcDbEntity
  8
ASSI
100
AcDbLine
 62
253
  6
CONTINUOUS
 10
73.2566453867
 20
119.4268026939
 11
73.2563360771
 21
119.4119214619
  0
LINE
  5
719
100
AcDbEntity
  8
0
100
AcDbLine
 62
253
  6
CONTINUOUS
 10
73.2566453867
 20
119.4268026939
 11
73.2563360771
 21
119.4119214619
  0
LINE
  5
71A
100
AcDbEntity
  8
SCRITTE
100
AcDbLine
 62
253
  6
CONTINUOUS
 10
70.5416496324
 20
112.9264790146
 11
70.813036876
 21
113.2883842079
  0
LINE
  5
71B
100
AcDbEntity
  8
SCRITTE
100
AcDbLine
 62
253
  6
CONTINUOUS
 10
69.3656383092
 20
110.0312410919
 11
69.6370255245
 21
110.3026695339
  0
LINE
  5
71C
100
AcDbEntity
  8
SCRITTE
100
AcDbLine
 62
253
  6
CONTINUOUS
 10
66.2671004531
 20
109.3375862079
 11
64.7675573328
 21
108.1466722079
  0
LINE
  5
71D
100
AcDbEntity
  8
SCRITTE
100
AcDbLine
 62
253
  6
CONTINUOUS
 10
60.3754193065
 20
109.0075342079
 11
63.2741901111
 21
109.8972192079
  0
LINE
  5
71E
100
AcDbEntity
  8
SCRITTE
100
AcDbLine
 62
253
  6
CONTINUOUS
 10
69.3656383092
 20
110.9812410919
 11
71.26534893
 21
111.5240988819
  0
LINE
  5
71F
100
AcDbEntity
  8
SCRITTE
100
AcDbLine
 62
253
  6
CONTINUOUS
 10
60.3677705433
 20
124.7417282079
 11
62.7851020325
 21
124.7417282079
  0
LINE
  5
720
100
AcDbEntity
  8
SCRITTE
100
AcDbLine
 62
253
  6
CONTINUOUS
 10
62.7851020325
 20
125.8147272079
 11
63.2668872425
 21
125.8147272079
  0
LINE
  5
721
100
AcDbEntity
  8
SCRITTE
100
AcDbLine
 62
253
  6
CONTINUOUS
 10
62.1706492435
 20
127.0994452079
 11
60.921760754
 21
127.5294602079
  0
LINE
  5
722
100
AcDbEntity
  8
SCRITTE
100
AcDbLine
 62
253
  6
CONTINUOUS
 10
63.2668872425
 20
126.7219532079
 11
62.6524354533
 21
126.9388012079
  0
LINE
  5
723
100
AcDbEntity
  8
SCRITTE
100
AcDbLine
 62
253
  6
CONTINUOUS
 10
60.3677705433
 20
127.1758382079
 11
63.2668872425
 21
126.1275032079
  0
LINE
  5
724
100
AcDbEntity
  8
SCRITTE
100
AcDbLine
 62
253
  6
CONTINUOUS
 10
64.9091742641
 20
128.4383842079
 11
64.3663998334
 21
128.9812413751
  0
LWPOLYLINE
  5
725
100
AcDbEntity
  8
ASSI
100
AcDbPolyline
 62
253
  6
CONTINUOUS
 90
10
 70
0
 10
73.2586026897
 20
119.4607219789
 10
73.2584538338
 20
119.460914888
 10
73.2583119029
 20
119.4614879359
 10
73.258177167
 20
119.4624400321
 10
73.2580498826
 20
119.463769365
 10
73.2579302919
 20
119.465473405
 10
73.2578186223
 20
119.4675489097
 10
73.2577150865
 20
119.4699919299
 10
73.2576198813
 20
119.4727978167
 10
73.257533188
 20
119.4759612313
  0
LWPOLYLINE
  5
726
100
AcDbEntity
  8
0
100
AcDbPolyline
 62
253
  6
CONTINUOUS
 90
10
 70
0
 10
73.2586026897
 20
119.4607219789
 10
73.2584538338
 20
119.460914888
 10
73.2583119029
 20
119.4614879359
 10
73.258177167
 20
119.4624400321
 10
73.2580498826
 20
119.463769365
 10
73.2579302919
 20
119.465473405
 10
73.2578186223
 20
119.4675489097
 10
73.2577150865
 20
119.4699919299
 10
73.2576198813
 20
119.4727978167
 10
73.257533188
 20
119.4759612313
  0
LINE
  5
727
100
AcDbEntity
  8
SCRITTE
100
AcDbLine
 62
253
  6
CONTINUOUS
 10
71.26534893
 20
109.8955273239
 11
70.9939616863
 21
109.6240988819
  0
LINE
  5
728
100
AcDbEntity
  8
SCRITTE
100
AcDbLine
 62
253
  6
CONTINUOUS
 10
70.4511872273
 20
108.9455273239
 11
70.1797999553
 21
108.6740988819
  0
LINE
  5
729
100
AcDbEntity
  8
SCRITTE
100
AcDbLine
 62
253
  6
CONTINUOUS
 10
69.6370255245
 20
107.5883842079
 11
69.3656383092
 21
107.3169557659
  0
LINE
  5
72A
100
AcDbEntity
  8
SCRITTE
100
AcDbLine
 62
253
  6
CONTINUOUS
 10
69.6370255245
 20
110.3026695339
 11
69.9084127399
 21
110.4383842079
  0
LINE
  5
72B
100
AcDbEntity
  8
SCRITTE
100
AcDbLine
 62
253
  6
CONTINUOUS
 10
70.9939616863
 20
109.6240988819
 11
70.7225744426
 21
109.4883842079
  0
LINE
  5
72C
100
AcDbEntity
  8
SCRITTE
100
AcDbLine
 62
253
  6
CONTINUOUS
 10
63.2741901111
 20
105.8964182079
 11
61.3813478209
 21
105.1863622079
  0
LINE
  5
72D
100
AcDbEntity
  8
SCRITTE
100
AcDbLine
 62
253
  6
CONTINUOUS
 10
60.3754193065
 20
105.3432892079
 11
61.9848259536
 21
105.9421682079
  0
LWPOLYLINE
  5
72E
100
AcDbEntity
  8
ASSI
100
AcDbPolyline
 62
253
  6
CONTINUOUS
 90
15
 70
0
 10
81.8893204373
 20
113.7718678923
 10
81.8922901543
 20
113.7729104886
 10
81.9024762009
 20
113.7761886078
 10
81.9129421599
 20
113.7792675466
 10
81.9236702606
 20
113.782142077
 10
81.9346422871
 20
113.7848073183
 10
81.9458396094
 20
113.7872587448
 10
81.9572432151
 20
113.7894921943
 10
81.9688337413
 20
113.7915038744
 10
81.9805915077
 20
113.7932903694
 10
81.9924965503
 20
113.7948486459
 10
82.0045286549
 20
113.7961760581
 10
82.0166673914
 20
113.797270352
 10
82.0288921488
 20
113.7981296695
 10
82.0411821701
 20
113.7987525517
  0
LWPOLYLINE
  5
72F
100
AcDbEntity
  8
0
100
AcDbPolyline
 62
253
  6
CONTINUOUS
 90
15
 70
0
 10
81.8893204373
 20
113.7718678923
 10
81.8922901543
 20
113.7729104886
 10
81.9024762009
 20
113.7761886078
 10
81.9129421599
 20
113.7792675466
 10
81.9236702606
 20
113.782142077
 10
81.9346422871
 20
113.7848073183
 10
81.9458396094
 20
113.7872587448
 10
81.9572432151
 20
113.7894921943
 10
81.9688337413
 20
113.7915038744
 10
81.9805915077
 20
113.7932903694
 10
81.9924965503
 20
113.7948486459
 10
82.0045286549
 20
113.7961760581
 10
82.0166673914
 20
113.797270352
 10
82.0288921488
 20
113.7981296695
 10
82.0411821701
 20
113.7987525517
  0
LINE
  5
730
100
AcDbEntity
  8
SCRITTE
100
AcDbLine
 62
253
  6
CONTINUOUS
 10
64.3663998334
 20
131.2883842079
 11
64.7734807131
 21
131.0169555394
  0
LINE
  5
731
100
AcDbEntity
  8
SCRITTE
100
AcDbLine
 62
253
  6
CONTINUOUS
 10
65.0448679284
 20
134.8621936886
 11
65.1805614795
 21
134.6812415449
  0
LINE
  5
732
100
AcDbEntity
  8
SCRITTE
100
AcDbLine
 62
253
  6
CONTINUOUS
 10
64.3663998334
 20
128.9812413751
 11
66.2661104542
 21
128.9812413751
  0
LINE
  5
733
100
AcDbEntity
  8
SCRITTE
100
AcDbLine
 62
253
  6
CONTINUOUS
 10
63.2668872425
 20
129.2403142079
 11
60.3677705433
 21
129.2403142079
  0
LINE
  5
734
100
AcDbEntity
  8
ASSI
100
AcDbLine
 62
7
  6
CONTINUOUS
 10
72.7673288929
 20
129.6917892079
 11
73.0673288929
 21
129.6917892079
  0
LINE
  5
735
100
AcDbEntity
  8
0
100
AcDbLine
 62
7
  6
CONTINUOUS
 10
72.7673288929
 20
129.6917892079
 11
73.0673288929
 21
129.6917892079
  0
LINE
  5
736
100
AcDbEntity
  8
SCRITTE
100
AcDbLine
 62
253
  6
CONTINUOUS
 10
60.8405225056
 20
129.8227592079
 11
63.2668872425
 21
129.8227592079
  0
LINE
  5
737
100
AcDbEntity
  8
SCRITTE
100
AcDbLine
 62
253
  6
CONTINUOUS
 10
66.2661104542
 20
130.1574318378
 11
65.3162551438
 21
130.1574318378
  0
LINE
  5
738
100
AcDbEntity
  8
SCRITTE
100
AcDbLine
 62
253
  6
CONTINUOUS
 10
65.8590296028
 20
129.5240985422
 11
64.3663998334
 21
129.9312413184
  0
LINE
  5
739
100
AcDbEntity
  8
SCRITTE
100
AcDbLine
 62
253
  6
CONTINUOUS
 10
66.2661104542
 20
131.0169555394
 11
64.9091742641
 21
131.9669555394
  0
LINE
  5
73A
100
AcDbEntity
  8
SCRITTE
100
AcDbLine
 62
253
  6
CONTINUOUS
 10
65.4519487515
 20
134.0026699869
 11
65.1805614795
 21
134.2740984289
  0
LINE
  5
73B
100
AcDbEntity
  8
SCRITTE
100
AcDbLine
 62
253
  6
CONTINUOUS
 10
65.9947232105
 20
134.9526699869
 11
66.2661104542
 21
134.6812415449
  0
LINE
  5
73C
100
AcDbEntity
  8
SCRITTE
100
AcDbLine
 62
253
  6
CONTINUOUS
 10
70.4511872273
 20
102.9740984289
 11
70.1797999553
 21
102.7026698737
  0
LINE
  5
73D
100
AcDbEntity
  8
SCRITTE
100
AcDbLine
 62
253
  6
CONTINUOUS
 10
66.2671004531
 20
103.8972502079
 11
64.7675573328
 21
103.2391732079
  0
LINE
  5
73E
100
AcDbEntity
  8
SCRITTE
100
AcDbLine
 62
253
  6
CONTINUOUS
 10
69.3656383092
 20
104.0598128764
 11
71.26534893
 21
104.6026699869
  0
LINE
  5
73F
100
AcDbEntity
  8
SCRITTE
100
AcDbLine
 62
253
  6
CONTINUOUS
 10
62.6651835692
 20
131.2767432079
 11
60.3677705433
 21
131.2767432079
  0
LINE
  5
740
100
AcDbEntity
  8
SCRITTE
100
AcDbLine
 62
253
  6
CONTINUOUS
 10
60.3677705433
 20
131.8591872079
 11
63.2668872425
 21
131.8591872079
  0
LINE
  5
741
100
AcDbEntity
  8
SCRITTE
100
AcDbLine
 62
253
  6
CONTINUOUS
 10
64.9091742641
 20
131.9669555394
 11
64.6377870488
 21
131.9669555394
  0
LINE
  5
742
100
AcDbEntity
  8
ASSI
100
AcDbLine
 62
7
  6
CONTINUOUS
 10
82.0411821701
 20
130.0144251507
 11
83.4934756158
 21
129.8873659381
  0
LINE
  5
743
100
AcDbEntity
  8
0
100
AcDbLine
 62
7
  6
CONTINUOUS
 10
82.0411821701
 20
130.0144251507
 11
83.4934756158
 21
129.8873659381
  0
LINE
  5
744
100
AcDbEntity
  8
SCRITTE
100
AcDbLine
 62
253
  6
CONTINUOUS
 10
65.8590296028
 20
132.5098126499
 11
64.3663998334
 21
132.9169557659
  0
LINE
  5
745
100
AcDbEntity
  8
SCRITTE
100
AcDbLine
 62
253
  6
CONTINUOUS
 10
62.1706492435
 20
133.1244802079
 11
60.921924704
 21
133.5544382079
  0
LINE
  5
746
100
AcDbEntity
  8
SCRITTE
100
AcDbLine
 62
253
  6
CONTINUOUS
 10
63.2668872425
 20
132.7468782079
 11
62.6524354533
 21
132.9638352079
  0
LINE
  5
747
100
AcDbEntity
  8
SCRITTE
100
AcDbLine
 62
253
  6
CONTINUOUS
 10
60.3677705433
 20
133.2008732079
 11
63.2668872425
 21
132.1524292079
  0
LINE
  5
748
100
AcDbEntity
  8
SCRITTE
100
AcDbLine
 62
253
  6
CONTINUOUS
 10
64.6377870488
 20
134.0931462853
 11
64.3663998334
 21
134.2740984289
  0
LWPOLYLINE
  5
749
100
AcDbEntity
  8
ASSI
100
AcDbPolyline
 62
253
  6
CONTINUOUS
 90
10
 70
0
 10
81.2760550962
 20
119.3207768266
 10
81.275906241
 20
119.3209697356
 10
81.2757643108
 20
119.3215427832
 10
81.2756295756
 20
119.3224948788
 10
81.2755022918
 20
119.3238242108
 10
81.2753827017
 20
119.3255282497
 10
81.2752710326
 20
119.3276037531
 10
81.2751674973
 20
119.3300467715
 10
81.2750722926
 20
119.3328526565
 10
81.2749855997
 20
119.3360160688
  0
LWPOLYLINE
  5
74A
100
AcDbEntity
  8
0
100
AcDbPolyline
 62
253
  6
CONTINUOUS
 90
10
 70
0
 10
81.2760550962
 20
119.3207768266
 10
81.275906241
 20
119.3209697356
 10
81.2757643108
 20
119.3215427832
 10
81.2756295756
 20
119.3224948788
 10
81.2755022918
 20
119.3238242108
 10
81.2753827017
 20
119.3255282497
 10
81.2752710326
 20
119.3276037531
 10
81.2751674973
 20
119.3300467715
 10
81.2750722926
 20
119.3328526565
 10
81.2749855997
 20
119.3360160688
  0
LWPOLYLINE
  5
74B
100
AcDbEntity
  8
ASSI
100
AcDbPolyline
 62
253
  6
CONTINUOUS
 90
9
 70
0
 10
81.2760550945
 20
119.3207768266
 10
81.2762918146
 20
119.3203931244
 10
81.276522102
 20
119.3192504879
 10
81.2767455714
 20
119.3173498458
 10
81.2769617267
 20
119.3146927319
 10
81.2771703994
 20
119.311281207
 10
81.2773717473
 20
119.3071177896
 10
81.2775654799
 20
119.3022055815
 10
81.2777512875
 20
119.2965483513
  0
LWPOLYLINE
  5
74C
100
AcDbEntity
  8
0
100
AcDbPolyline
 62
253
  6
CONTINUOUS
 90
9
 70
0
 10
81.2760550945
 20
119.3207768266
 10
81.2762918146
 20
119.3203931244
 10
81.276522102
 20
119.3192504879
 10
81.2767455714
 20
119.3173498458
 10
81.2769617267
 20
119.3146927319
 10
81.2771703994
 20
119.311281207
 10
81.2773717473
 20
119.3071177896
 10
81.2775654799
 20
119.3022055815
 10
81.2777512875
 20
119.2965483513
  0
LWPOLYLINE
  5
74D
100
AcDbEntity
  8
ASSI
100
AcDbPolyline
 62
253
  6
CONTINUOUS
 90
8
 70
0
 10
71.7847812994
 20
137.4897115232
 10
71.7849841013
 20
137.4892850048
 10
71.78517197
 20
137.488013148
 10
71.7853447466
 20
137.4858970285
 10
71.7855022848
 20
137.4829384362
 10
71.7856444514
 20
137.4791398736
 10
71.7857711263
 20
137.4745045536
 10
71.7858822021
 20
137.4690363969
  0
LWPOLYLINE
  5
74E
100
AcDbEntity
  8
0
100
AcDbPolyline
 62
253
  6
CONTINUOUS
 90
8
 70
0
 10
71.7847812994
 20
137.4897115232
 10
71.7849841013
 20
137.4892850048
 10
71.78517197
 20
137.488013148
 10
71.7853447466
 20
137.4858970285
 10
71.7855022848
 20
137.4829384362
 10
71.7856444514
 20
137.4791398736
 10
71.7857711263
 20
137.4745045536
 10
71.7858822021
 20
137.4690363969
  0
LWPOLYLINE
  5
74F
100
AcDbEntity
  8
ASSI
100
AcDbPolyline
 62
253
  6
CONTINUOUS
 90
5
 70
0
 10
81.9547052796
 20
114.7768932079
 10
81.9586314954
 20
114.7335340031
 10
81.9645741532
 20
114.6722490264
 10
81.9710712144
 20
114.609756593
 10
81.9851182937
 20
114.4831191565
  0
LWPOLYLINE
  5
750
100
AcDbEntity
  8
0
100
AcDbPolyline
 62
253
  6
CONTINUOUS
 90
5
 70
0
 10
81.9547052796
 20
114.7768932079
 10
81.9586314954
 20
114.7335340031
 10
81.9645741532
 20
114.6722490264
 10
81.9710712144
 20
114.609756593
 10
81.9851182937
 20
114.4831191565
  0
LINE
  5
751
100
AcDbEntity
  8
ASSI
100
AcDbLine
 62
253
  6
CONTINUOUS
 10
81.2777512875
 20
119.2965483513
 11
81.2780993131
 21
119.2830166645
  0
LINE
  5
752
100
AcDbEntity
  8
0
100
AcDbLine
 62
253
  6
CONTINUOUS
 10
81.2777512875
 20
119.2965483513
 11
81.2780993131
 21
119.2830166645
  0
LINE
  5
753
100
AcDbEntity
  8
ASSI
100
AcDbLine
 62
253
  6
CONTINUOUS
 10
81.2777512875
 20
133.5965483513
 11
81.2780993131
 21
133.5830166645
  0
LINE
  5
754
100
AcDbEntity
  8
0
100
AcDbLine
 62
253
  6
CONTINUOUS
 10
81.2777512875
 20
133.5965483513
 11
81.2780993131
 21
133.5830166645
  0
LINE
  5
755
100
AcDbEntity
  8
ASSI
100
AcDbLine
 62
253
  6
CONTINUOUS
 10
81.2749855997
 20
119.3360160688
 11
81.2748383927
 21
119.3433907294
  0
LINE
  5
756
100
AcDbEntity
  8
0
100
AcDbLine
 62
253
  6
CONTINUOUS
 10
81.2749855997
 20
119.3360160688
 11
81.2748383927
 21
119.3433907294
  0
LINE
  5
757
100
AcDbEntity
  8
ASSI
100
AcDbLine
 62
253
  6
CONTINUOUS
 10
81.2780993131
 20
119.2830166645
 11
81.2784145062
 21
119.2665638994
  0
LINE
  5
758
100
AcDbEntity
  8
0
100
AcDbLine
 62
253
  6
CONTINUOUS
 10
81.2780993131
 20
119.2830166645
 11
81.2784145062
 21
119.2665638994
  0
LINE
  5
759
100
AcDbEntity
  8
ASSI
100
AcDbLine
 62
253
  6
CONTINUOUS
 10
81.2780993131
 20
133.5830166645
 11
81.2784145062
 21
133.5665638994
  0
LINE
  5
75A
100
AcDbEntity
  8
0
100
AcDbLine
 62
253
  6
CONTINUOUS
 10
81.2780993131
 20
133.5830166645
 11
81.2784145062
 21
133.5665638994
  0
LINE
  5
75B
100
AcDbEntity
  8
ASSI
100
AcDbLine
 62
253
  6
CONTINUOUS
 10
81.2784145062
 20
119.2665638994
 11
81.2788239928
 21
119.2365194385
  0
LINE
  5
75C
100
AcDbEntity
  8
0
100
AcDbLine
 62
253
  6
CONTINUOUS
 10
81.2784145062
 20
119.2665638994
 11
81.2788239928
 21
119.2365194385
  0
LINE
  5
75D
100
AcDbEntity
  8
ASSI
100
AcDbLine
 62
253
  6
CONTINUOUS
 10
81.2784145062
 20
133.5665638994
 11
81.2788239928
 21
133.5365194385
  0
LINE
  5
75E
100
AcDbEntity
  8
0
100
AcDbLine
 62
253
  6
CONTINUOUS
 10
81.2784145062
 20
133.5665638994
 11
81.2788239928
 21
133.5365194385
  0
LINE
  5
75F
100
AcDbEntity
  8
ASSI
100
AcDbLine
 62
253
  6
CONTINUOUS
 10
81.2748383927
 20
119.3433907294
 11
81.2747269962
 21
119.3521146497
  0
LINE
  5
760
100
AcDbEntity
  8
0
100
AcDbLine
 62
253
  6
CONTINUOUS
 10
81.2748383927
 20
119.3433907294
 11
81.2747269962
 21
119.3521146497
  0
LINE
  5
761
100
AcDbEntity
  8
ASSI
100
AcDbLine
 62
253
  6
CONTINUOUS
 10
81.2760550577
 20
104.9558435117
 11
81.2777512875
 21
104.737199517
  0
LINE
  5
762
100
AcDbEntity
  8
0
100
AcDbLine
 62
253
  6
CONTINUOUS
 10
81.2760550577
 20
104.9558435117
 11
81.2777512875
 21
104.737199517
  0
LINE
  5
763
100
AcDbEntity
  8
ASSI
100
AcDbLine
 62
253
  6
CONTINUOUS
 10
81.2788239928
 20
119.2365194385
 11
81.2792475043
 21
119.1867749903
  0
LINE
  5
764
100
AcDbEntity
  8
0
100
AcDbLine
 62
253
  6
CONTINUOUS
 10
81.2788239928
 20
119.2365194385
 11
81.2792475043
 21
119.1867749903
  0
LINE
  5
765
100
AcDbEntity
  8
ASSI
100
AcDbLine
 62
253
  6
CONTINUOUS
 10
81.2788239928
 20
133.5365194385
 11
81.2792475043
 21
133.4867749903
  0
LINE
  5
766
100
AcDbEntity
  8
0
100
AcDbLine
 62
253
  6
CONTINUOUS
 10
81.2788239928
 20
133.5365194385
 11
81.2792475043
 21
133.4867749903
  0
LINE
  5
767
100
AcDbEntity
  8
ASSI
100
AcDbLine
 62
253
  6
CONTINUOUS
 10
81.2747269962
 20
119.3521146497
 11
81.2746522576
 21
119.3621214612
  0
LINE
  5
768
100
AcDbEntity
  8
0
100
AcDbLine
 62
253
  6
CONTINUOUS
 10
81.2747269962
 20
119.3521146497
 11
81.2746522576
 21
119.3621214612
  0
LINE
  5
769
100
AcDbEntity
  8
ASSI
100
AcDbLine
 62
253
  6
CONTINUOUS
 10
81.2777512875
 20
104.737199517
 11
81.2789432081
 21
104.5291508823
  0
LINE
  5
76A
100
AcDbEntity
  8
0
100
AcDbLine
 62
253
  6
CONTINUOUS
 10
81.2777512875
 20
104.737199517
 11
81.2789432081
 21
104.5291508823
  0
LINE
  5
76B
100
AcDbEntity
  8
ASSI
100
AcDbLine
 62
253
  6
CONTINUOUS
 10
81.2789432081
 20
104.5291508823
 11
81.2795263296
 21
104.3637306743
  0
LINE
  5
76C
100
AcDbEntity
  8
0
100
AcDbLine
 62
253
  6
CONTINUOUS
 10
81.2789432081
 20
104.5291508823
 11
81.2795263296
 21
104.3637306743
  0
LINE
  5
76D
100
AcDbEntity
  8
ASSI
100
AcDbLine
 62
253
  6
CONTINUOUS
 10
81.2792475043
 20
119.1867749903
 11
81.2796104229
 21
119.0926806114
  0
LINE
  5
76E
100
AcDbEntity
  8
0
100
AcDbLine
 62
253
  6
CONTINUOUS
 10
81.2792475043
 20
119.1867749903
 11
81.2796104229
 21
119.0926806114
  0
LINE
  5
76F
100
AcDbEntity
  8
ASSI
100
AcDbLine
 62
253
  6
CONTINUOUS
 10
81.2792475043
 20
133.4867749903
 11
81.2796104229
 21
133.3926806114
  0
LINE
  5
770
100
AcDbEntity
  8
0
100
AcDbLine
 62
253
  6
CONTINUOUS
 10
81.2792475043
 20
133.4867749903
 11
81.2796104229
 21
133.3926806114
  0
LINE
  5
771
100
AcDbEntity
  8
ASSI
100
AcDbLine
 62
253
  6
CONTINUOUS
 10
81.2746522576
 20
119.3621214612
 11
81.2746100499
 21
119.3793680423
  0
LINE
  5
772
100
AcDbEntity
  8
0
100
AcDbLine
 62
253
  6
CONTINUOUS
 10
81.2746522576
 20
119.3621214612
 11
81.2746100499
 21
119.3793680423
  0
LINE
  5
773
100
AcDbEntity
  8
ASSI
100
AcDbLine
 62
253
  6
CONTINUOUS
 10
81.2760550962
 20
118.3209255161
 11
81.2760550962
 21
104.9558435124
  0
LINE
  5
774
100
AcDbEntity
  8
0
100
AcDbLine
 62
253
  6
CONTINUOUS
 10
81.2760550962
 20
118.3209255161
 11
81.2760550962
 21
104.9558435124
  0
LINE
  5
775
100
AcDbEntity
  8
ASSI
100
AcDbLine
 62
253
  6
CONTINUOUS
 10
81.2760550962
 20
132.6209255161
 11
81.2760585087
 21
119.520746306
  0
LINE
  5
776
100
AcDbEntity
  8
0
100
AcDbLine
 62
253
  6
CONTINUOUS
 10
81.2760550962
 20
132.6209255161
 11
81.2760585087
 21
119.520746306
  0
LINE
  5
777
100
AcDbEntity
  8
ASSI
100
AcDbLine
 62
7
  6
CONTINUOUS
 10
81.7673288929
 20
133.120852979
 11
81.7673288929
 21
104.4559154369
  0
LINE
  5
778
100
AcDbEntity
  8
0
100
AcDbLine
 62
7
  6
CONTINUOUS
 10
81.7673288929
 20
133.120852979
 11
81.7673288929
 21
104.4559154369
  0
LINE
  5
779
100
AcDbEntity
  8
ASSI
100
AcDbLine
 62
253
  6
CONTINUOUS
 10
82.0411821701
 20
130.0144251507
 11
82.0411821701
 21
123.8623432652
  0
LINE
  5
77A
100
AcDbEntity
  8
0
100
AcDbLine
 62
253
  6
CONTINUOUS
 10
82.0411821701
 20
130.0144251507
 11
82.0411821701
 21
123.8623432652
  0
LINE
  5
77B
100
AcDbEntity
  8
ASSI
100
AcDbLine
 62
253
  6
CONTINUOUS
 10
82.0411821701
 20
118.3144251507
 11
82.0411821701
 21
118.2766322079
  0
LINE
  5
77C
100
AcDbEntity
  8
0
100
AcDbLine
 62
253
  6
CONTINUOUS
 10
82.0411821701
 20
118.3144251507
 11
82.0411821701
 21
118.2766322079
  0
LINE
  5
77D
100
AcDbEntity
  8
ASSI
100
AcDbLine
 62
253
  6
CONTINUOUS
 10
82.0411821701
 20
113.7987525517
 11
82.0411821701
 21
107.5623432652
  0
LINE
  5
77E
100
AcDbEntity
  8
0
100
AcDbLine
 62
253
  6
CONTINUOUS
 10
82.0411821701
 20
113.7987525517
 11
82.0411821701
 21
107.5623432652
  0
LINE
  5
77F
100
AcDbEntity
  8
ASSI
100
AcDbLine
 62
7
  6
CONTINUOUS
 10
82.0673288929
 20
118.2766322079
 11
82.0673288929
 21
114.7768932079
  0
LINE
  5
780
100
AcDbEntity
  8
0
100
AcDbLine
 62
7
  6
CONTINUOUS
 10
82.0673288929
 20
118.2766322079
 11
82.0673288929
 21
114.7768932079
  0
LINE
  5
781
100
AcDbEntity
  8
ASSI
100
AcDbLine
 62
253
  6
CONTINUOUS
 10
81.2795263296
 20
104.3637306743
 11
81.2796571928
 21
104.2202735315
  0
LINE
  5
782
100
AcDbEntity
  8
0
100
AcDbLine
 62
253
  6
CONTINUOUS
 10
81.2795263296
 20
104.3637306743
 11
81.2796571928
 21
104.2202735315
  0
LINE
  5
783
100
AcDbEntity
  8
ASSI
100
AcDbLine
 62
253
  6
CONTINUOUS
 10
81.2796104229
 20
133.3926806114
 11
81.2796104217
 21
133.2565162949
  0
LINE
  5
784
100
AcDbEntity
  8
0
100
AcDbLine
 62
253
  6
CONTINUOUS
 10
81.2796104229
 20
133.3926806114
 11
81.2796104217
 21
133.2565162949
  0
LINE
  5
785
100
AcDbEntity
  8
ASSI
100
AcDbLine
 62
253
  6
CONTINUOUS
 10
81.2796104229
 20
119.0926806114
 11
81.2796104217
 21
118.9565162949
  0
LINE
  5
786
100
AcDbEntity
  8
0
100
AcDbLine
 62
253
  6
CONTINUOUS
 10
81.2796104229
 20
119.0926806114
 11
81.2796104217
 21
118.9565162949
  0
LINE
  5
787
100
AcDbEntity
  8
ASSI
100
AcDbLine
 62
253
  6
CONTINUOUS
 10
81.2796104217
 20
133.2565162949
 11
81.2791549863
 21
133.0967771485
  0
LINE
  5
788
100
AcDbEntity
  8
0
100
AcDbLine
 62
253
  6
CONTINUOUS
 10
81.2796104217
 20
133.2565162949
 11
81.2791549863
 21
133.0967771485
  0
LINE
  5
789
100
AcDbEntity
  8
ASSI
100
AcDbLine
 62
253
  6
CONTINUOUS
 10
81.2796104217
 20
118.9565162949
 11
81.2791549863
 21
118.7967771485
  0
LINE
  5
78A
100
AcDbEntity
  8
0
100
AcDbLine
 62
253
  6
CONTINUOUS
 10
81.2796104217
 20
118.9565162949
 11
81.2791549863
 21
118.7967771485
  0
LINE
  5
78B
100
AcDbEntity
  8
ASSI
100
AcDbLine
 62
253
  6
CONTINUOUS
 10
81.2796571928
 20
104.2202735315
 11
81.2794052298
 21
104.118848762
  0
LINE
  5
78C
100
AcDbEntity
  8
0
100
AcDbLine
 62
253
  6
CONTINUOUS
 10
81.2796571928
 20
104.2202735315
 11
81.2794052298
 21
104.118848762
  0
LINE
  5
78D
100
AcDbEntity
  8
ASSI
100
AcDbLine
 62
253
  6
CONTINUOUS
 10
81.2746100499
 20
119.3793680423
 11
81.2746850021
 21
119.4060679043
  0
LINE
  5
78E
100
AcDbEntity
  8
0
100
AcDbLine
 62
253
  6
CONTINUOUS
 10
81.2746100499
 20
119.3793680423
 11
81.2746850021
 21
119.4060679043
  0
LINE
  5
78F
100
AcDbEntity
  8
ASSI
100
AcDbLine
 62
253
  6
CONTINUOUS
 10
81.2791549863
 20
133.0967771485
 11
81.2782609998
 21
132.9193855292
  0
LINE
  5
790
100
AcDbEntity
  8
0
100
AcDbLine
 62
253
  6
CONTINUOUS
 10
81.2791549863
 20
133.0967771485
 11
81.2782609998
 21
132.9193855292
  0
LINE
  5
791
100
AcDbEntity
  8
ASSI
100
AcDbLine
 62
253
  6
CONTINUOUS
 10
81.2791549863
 20
118.7967771485
 11
81.2782609998
 21
118.6193855292
  0
LINE
  5
792
100
AcDbEntity
  8
0
100
AcDbLine
 62
253
  6
CONTINUOUS
 10
81.2791549863
 20
118.7967771485
 11
81.2782609998
 21
118.6193855292
  0
LINE
  5
793
100
AcDbEntity
  8
ASSI
100
AcDbLine
 62
253
  6
CONTINUOUS
 10
81.2782609998
 20
132.9193855292
 11
81.2767455668
 21
132.7034947839
  0
LINE
  5
794
100
AcDbEntity
  8
0
100
AcDbLine
 62
253
  6
CONTINUOUS
 10
81.2782609998
 20
132.9193855292
 11
81.2767455668
 21
132.7034947839
  0
LINE
  5
795
100
AcDbEntity
  8
ASSI
100
AcDbLine
 62
253
  6
CONTINUOUS
 10
81.2782609998
 20
118.6193855292
 11
81.2767455668
 21
118.4034947839
  0
LINE
  5
796
100
AcDbEntity
  8
0
100
AcDbLine
 62
253
  6
CONTINUOUS
 10
81.2782609998
 20
118.6193855292
 11
81.2767455668
 21
118.4034947839
  0
LINE
  5
797
100
AcDbEntity
  8
ASSI
100
AcDbLine
 62
253
  6
CONTINUOUS
 10
81.2767455668
 20
132.7034947839
 11
81.2760550633
 21
132.6209255167
  0
LINE
  5
798
100
AcDbEntity
  8
0
100
AcDbLine
 62
253
  6
CONTINUOUS
 10
81.2767455668
 20
132.7034947839
 11
81.2760550633
 21
132.6209255167
  0
LINE
  5
799
100
AcDbEntity
  8
ASSI
100
AcDbLine
 62
253
  6
CONTINUOUS
 10
81.2767455668
 20
118.4034947839
 11
81.2760550633
 21
118.3209255167
  0
LINE
  5
79A
100
AcDbEntity
  8
0
100
AcDbLine
 62
253
  6
CONTINUOUS
 10
81.2767455668
 20
118.4034947839
 11
81.2760550633
 21
118.3209255167
  0
LINE
  5
79B
100
AcDbEntity
  8
ASSI
100
AcDbLine
 62
253
  6
CONTINUOUS
 10
81.2794052298
 20
104.118848762
 11
81.278943205
 21
104.0516647619
  0
LINE
  5
79C
100
AcDbEntity
  8
0
100
AcDbLine
 62
253
  6
CONTINUOUS
 10
81.2794052298
 20
104.118848762
 11
81.278943205
 21
104.0516647619
  0
LINE
  5
79D
100
AcDbEntity
  8
ASSI
100
AcDbLine
 62
253
  6
CONTINUOUS
 10
81.2746850021
 20
119.4060679043
 11
81.274985599
 21
119.4442353563
  0
LINE
  5
79E
100
AcDbEntity
  8
0
100
AcDbLine
 62
253
  6
CONTINUOUS
 10
81.2746850021
 20
119.4060679043
 11
81.274985599
 21
119.4442353563
  0
LINE
  5
79F
100
AcDbEntity
  8
ASSI
100
AcDbLine
 62
253
  6
CONTINUOUS
 10
81.278943205
 20
104.0516647619
 11
81.2785596038
 21
104.019511049
  0
LINE
  5
7A0
100
AcDbEntity
  8
0
100
AcDbLine
 62
253
  6
CONTINUOUS
 10
81.278943205
 20
104.0516647619
 11
81.2785596038
 21
104.019511049
  0
LINE
  5
7A1
100
AcDbEntity
  8
ASSI
100
AcDbLine
 62
253
  6
CONTINUOUS
 10
81.274985599
 20
119.4442353563
 11
81.2756295751
 21
119.4946501123
  0
LINE
  5
7A2
100
AcDbEntity
  8
0
100
AcDbLine
 62
253
  6
CONTINUOUS
 10
81.274985599
 20
119.4442353563
 11
81.2756295751
 21
119.4946501123
  0
LINE
  5
7A3
100
AcDbEntity
  8
ASSI
100
AcDbLine
 62
253
  6
CONTINUOUS
 10
81.2756295751
 20
119.4946501123
 11
81.2760550962
 21
119.5207463656
  0
LINE
  5
7A4
100
AcDbEntity
  8
0
100
AcDbLine
 62
253
  6
CONTINUOUS
 10
81.2756295751
 20
119.4946501123
 11
81.2760550962
 21
119.5207463656
  0
LINE
  5
7A5
100
AcDbEntity
  8
ASSI
100
AcDbLine
 62
253
  6
CONTINUOUS
 10
81.2785596038
 20
104.019511049
 11
81.2782609998
 21
104.001615936
  0
LINE
  5
7A6
100
AcDbEntity
  8
0
100
AcDbLine
 62
253
  6
CONTINUOUS
 10
81.2785596038
 20
104.019511049
 11
81.2782609998
 21
104.001615936
  0
LWPOLYLINE
  5
7A7
100
AcDbEntity
  8
ASSI
100
AcDbPolyline
 62
253
  6
CONTINUOUS
 90
11
 70
0
 10
81.2782609998
 20
104.001615936
 10
81.2779293112
 20
103.9866180126
 10
81.277751284
 20
103.9802200788
 10
81.277565477
 20
103.9745628475
 10
81.2773717447
 20
103.9696506382
 10
81.277170396
 20
103.9654872167
 10
81.2769617221
 20
103.9620756887
 10
81.2767455668
 20
103.9594185771
 10
81.2765220993
 20
103.9575179392
 10
81.2762918153
 20
103.9563753019
 10
81.2760550947
 20
103.9559915893
  0
LWPOLYLINE
  5
7A8
100
AcDbEntity
  8
0
100
AcDbPolyline
 62
253
  6
CONTINUOUS
 90
11
 70
0
 10
81.2782609998
 20
104.001615936
 10
81.2779293112
 20
103.9866180126
 10
81.277751284
 20
103.9802200788
 10
81.277565477
 20
103.9745628475
 10
81.2773717447
 20
103.9696506382
 10
81.277170396
 20
103.9654872167
 10
81.2769617221
 20
103.9620756887
 10
81.2767455668
 20
103.9594185771
 10
81.2765220993
 20
103.9575179392
 10
81.2762918153
 20
103.9563753019
 10
81.2760550947
 20
103.9559915893
  0
LINE
  5
7A9
100
AcDbEntity
  8
SCRITTE
100
AcDbLine
 62
253
  6
CONTINUOUS
 10
70.9939616863
 20
102.0240985422
 11
71.26534893
 21
102.2955270974
  0
LINE
  5
7AA
100
AcDbEntity
  8
RACCORDO
100
AcDbLine
 62
7
  6
CONTINUOUS
 10
54.8923288929
 20
94.3105529916
 11
56.016019902
 21
94.9593162981
  0
LINE
  5
7AB
100
AcDbEntity
  8
RACCORDO
100
AcDbLine
 62
253
  6
CONTINUOUS
 10
55.7673288929
 20
94.5278150888
 11
55.016019902
 21
94.0940466406
  0
LINE
  5
7AC
100
AcDbEntity
  8
SCRITTE
100
AcDbLine
 62
253
  6
CONTINUOUS
 10
66.2671004531
 20
101.6618412079
 11
64.7675573328
 21
100.9431462079
  0
LINE
  5
7AD
100
AcDbEntity
  8
SCRITTE
100
AcDbLine
 62
253
  6
CONTINUOUS
 10
63.2741901111
 20
101.8555102079
 11
60.3754193065
 21
100.9362642079
  0
LINE
  5
7AE
100
AcDbEntity
  8
ASSI
100
AcDbLine
 62
253
  6
CONTINUOUS
 10
81.7673288929
 20
132.6209291314
 11
81.2760550962
 21
132.6209291314
  0
LINE
  5
7AF
100
AcDbEntity
  8
0
100
AcDbLine
 62
253
  6
CONTINUOUS
 10
81.7673288929
 20
132.6209291314
 11
81.2760550962
 21
132.6209291314
  0
LINE
  5
7B0
100
AcDbEntity
  8
ASSI
100
AcDbLine
 62
253
  6
CONTINUOUS
 10
73.0673288929
 20
132.7608742837
 11
73.2586026897
 21
132.7608742837
  0
LINE
  5
7B1
100
AcDbEntity
  8
0
100
AcDbLine
 62
253
  6
CONTINUOUS
 10
73.0673288929
 20
132.7608742837
 11
73.2586026897
 21
132.7608742837
  0
LINE
  5
7B2
100
AcDbEntity
  8
SCRITTE
100
AcDbLine
 62
253
  6
CONTINUOUS
 10
66.2661104542
 20
133.1431462853
 11
65.3162551438
 21
133.1431462853
  0
LINE
  5
7B3
100
AcDbEntity
  8
SCRITTE
100
AcDbLine
 62
253
  6
CONTINUOUS
 10
65.9947232105
 20
134.0026699869
 11
65.4519487515
 21
134.0026699869
  0
LINE
  5
7B4
100
AcDbEntity
  8
SCRITTE
100
AcDbLine
 62
253
  6
CONTINUOUS
 10
65.0448679284
 20
134.0931462853
 11
64.6377870488
 21
134.0931462853
  0
LINE
  5
7B5
100
AcDbEntity
  8
ASSI
100
AcDbLine
 62
7
  6
CONTINUOUS
 10
72.7673288929
 20
134.1917532079
 11
73.0673288929
 21
134.1917532079
  0
LINE
  5
7B6
100
AcDbEntity
  8
0
100
AcDbLine
 62
7
  6
CONTINUOUS
 10
72.7673288929
 20
134.1917532079
 11
73.0673288929
 21
134.1917532079
  0
LINE
  5
7B7
100
AcDbEntity
  8
ASSI
100
AcDbLine
 62
253
  6
CONTINUOUS
 10
81.2760550962
 20
132.6209255161
 11
73.2586026897
 21
132.7608704761
  0
LINE
  5
7B8
100
AcDbEntity
  8
0
100
AcDbLine
 62
253
  6
CONTINUOUS
 10
81.2760550962
 20
132.6209255161
 11
73.2586026897
 21
132.7608704761
  0
LINE
  5
7B9
100
AcDbEntity
  8
ASSI
100
AcDbLine
 62
7
  6
CONTINUOUS
 10
81.2760550962
 20
133.6207768266
 11
73.2586026897
 21
133.7607219789
  0
LINE
  5
7BA
100
AcDbEntity
  8
0
100
AcDbLine
 62
7
  6
CONTINUOUS
 10
81.2760550962
 20
133.6207768266
 11
73.2586026897
 21
133.7607219789
  0
LINE
  5
7BB
100
AcDbEntity
  8
RACCORDO
100
AcDbLine
 62
7
  6
CONTINUOUS
 10
54.8923288929
 20
141.5662154243
 11
55.7673288929
 21
141.0610339387
  0
LINE
  5
7BC
100
AcDbEntity
  8
RACCORDO
100
AcDbLine
 62
253
  6
CONTINUOUS
 10
55.016019902
 20
141.7827217752
 11
56.016019902
 21
141.205371506
  0
LINE
  5
7BD
100
AcDbEntity
  8
ASSI
100
AcDbLine
 62
253
  6
CONTINUOUS
 10
81.9851182937
 20
114.4831191565
 11
81.9995918704
 21
114.3568323025
  0
LINE
  5
7BE
100
AcDbEntity
  8
0
100
AcDbLine
 62
253
  6
CONTINUOUS
 10
81.9851182937
 20
114.4831191565
 11
81.9995918704
 21
114.3568323025
  0
LWPOLYLINE
  5
7BF
100
AcDbEntity
  8
ASSI
100
AcDbPolyline
 62
253
  6
CONTINUOUS
 90
11
 70
0
 10
81.9995918704
 20
114.3568323025
 10
82.0065442286
 20
114.2945653156
 10
82.0131403228
 20
114.2331626298
 10
82.0194029983
 20
114.1726199902
 10
82.0249693952
 20
114.1135646019
 10
82.0297866356
 20
114.0559057559
 10
82.0339075974
 20
113.9997269314
 10
82.0371280543
 20
113.9458735743
 10
82.0393799311
 20
113.8945940184
 10
82.040731303
 20
113.8455660124
 10
82.0411821701
 20
113.7987525517
  0
LWPOLYLINE
  5
7C0
100
AcDbEntity
  8
0
100
AcDbPolyline
 62
253
  6
CONTINUOUS
 90
11
 70
0
 10
81.9995918704
 20
114.3568323025
 10
82.0065442286
 20
114.2945653156
 10
82.0131403228
 20
114.2331626298
 10
82.0194029983
 20
114.1726199902
 10
82.0249693952
 20
114.1135646019
 10
82.0297866356
 20
114.0559057559
 10
82.0339075974
 20
113.9997269314
 10
82.0371280543
 20
113.9458735743
 10
82.0393799311
 20
113.8945940184
 10
82.040731303
 20
113.8455660124
 10
82.0411821701
 20
113.7987525517
  0
LINE
  5
7C1
100
AcDbEntity
  8
ASSI
100
AcDbLine
 62
253
  6
CONTINUOUS
 10
83.4934756158
 20
129.8873659381
 11
83.4934756158
 21
123.9894024778
  0
LINE
  5
7C2
100
AcDbEntity
  8
0
100
AcDbLine
 62
253
  6
CONTINUOUS
 10
83.4934756158
 20
129.8873659381
 11
83.4934756158
 21
123.9894024778
  0
LINE
  5
7C3
100
AcDbEntity
  8
ASSI
100
AcDbLine
 62
253
  6
CONTINUOUS
 10
83.4934756158
 20
118.1873659381
 11
83.4934756158
 21
107.6894024778
  0
LINE
  5
7C4
100
AcDbEntity
  8
0
100
AcDbLine
 62
253
  6
CONTINUOUS
 10
83.4934756158
 20
118.1873659381
 11
83.4934756158
 21
107.6894024778
  0
LINE
  5
7C5
100
AcDbEntity
  8
ASSI
100
AcDbLine
 62
7
  6
CONTINUOUS
 10
83.7673288929
 20
129.5885072112
 11
83.7673288929
 21
124.2882612047
  0
LINE
  5
7C6
100
AcDbEntity
  8
0
100
AcDbLine
 62
7
  6
CONTINUOUS
 10
83.7673288929
 20
129.5885072112
 11
83.7673288929
 21
124.2882612047
  0
LINE
  5
7C7
100
AcDbEntity
  8
ASSI
100
AcDbLine
 62
7
  6
CONTINUOUS
 10
83.7673288929
 20
117.8885072112
 11
83.7673288929
 21
107.9882612047
  0
LINE
  5
7C8
100
AcDbEntity
  8
0
100
AcDbLine
 62
7
  6
CONTINUOUS
 10
83.7673288929
 20
117.8885072112
 11
83.7673288929
 21
107.9882612047
  0
LINE
  5
7C9
100
AcDbEntity
  8
SCRITTE
100
AcDbLine
 62
253
  6
CONTINUOUS
 10
64.6377870488
 20
134.8621936886
 11
65.0448679284
 21
134.8621936886
  0
LINE
  5
7CA
100
AcDbEntity
  8
SCRITTE
100
AcDbLine
 62
253
  6
CONTINUOUS
 10
65.4519487515
 20
134.9526699869
 11
65.9947232105
 21
134.9526699869
  0
LINE
  5
7CB
100
AcDbEntity
  8
ASSI
100
AcDbLine
 62
7
  6
CONTINUOUS
 10
72.7673288929
 20
134.9966965066
 11
73.0673288929
 21
134.9966962079
  0
LINE
  5
7CC
100
AcDbEntity
  8
0
100
AcDbLine
 62
7
  6
CONTINUOUS
 10
72.7673288929
 20
134.9966965066
 11
73.0673288929
 21
134.9966962079
  0
LINE
  5
7CD
100
AcDbEntity
  8
ASSI
100
AcDbLine
 62
7
  6
CONTINUOUS
 10
72.7673288929
 20
135.0192502079
 11
73.0673288929
 21
135.0192502079
  0
LINE
  5
7CE
100
AcDbEntity
  8
0
100
AcDbLine
 62
7
  6
CONTINUOUS
 10
72.7673288929
 20
135.0192502079
 11
73.0673288929
 21
135.0192502079
  0
LINE
  5
7CF
100
AcDbEntity
  8
ASSI
100
AcDbLine
 62
7
  6
CONTINUOUS
 10
72.7673288929
 20
135.2883842079
 11
73.0673288929
 21
135.2883842079
  0
LINE
  5
7D0
100
AcDbEntity
  8
0
100
AcDbLine
 62
7
  6
CONTINUOUS
 10
72.7673288929
 20
135.2883842079
 11
73.0673288929
 21
135.2883842079
  0
LINE
  5
7D1
100
AcDbEntity
  8
ASSI
100
AcDbLine
 62
7
  6
CONTINUOUS
 10
72.7673288929
 20
135.3167362079
 11
73.0673288929
 21
135.3167362079
  0
LINE
  5
7D2
100
AcDbEntity
  8
0
100
AcDbLine
 62
7
  6
CONTINUOUS
 10
72.7673288929
 20
135.3167362079
 11
73.0673288929
 21
135.3167362079
  0
LINE
  5
7D3
100
AcDbEntity
  8
ASSI
100
AcDbLine
 62
253
  6
CONTINUOUS
 10
72.7673288929
 20
135.5623503911
 11
71.7847812994
 21
135.5623503911
  0
LINE
  5
7D4
100
AcDbEntity
  8
0
100
AcDbLine
 62
253
  6
CONTINUOUS
 10
72.7673288929
 20
135.5623503911
 11
71.7847812994
 21
135.5623503911
  0
LINE
  5
7D5
100
AcDbEntity
  8
ASSI
100
AcDbLine
 62
7
  6
CONTINUOUS
 10
72.7673288929
 20
136.3998372079
 11
73.0673288929
 21
136.3998372079
  0
LINE
  5
7D6
100
AcDbEntity
  8
0
100
AcDbLine
 62
7
  6
CONTINUOUS
 10
72.7673288929
 20
136.3998372079
 11
73.0673288929
 21
136.3998372079
  0
LINE
  5
7D7
100
AcDbEntity
  8
ASSI
100
AcDbLine
 62
7
  6
CONTINUOUS
 10
72.7673288929
 20
136.4354512079
 11
73.0673288929
 21
136.4354512079
  0
LINE
  5
7D8
100
AcDbEntity
  8
0
100
AcDbLine
 62
7
  6
CONTINUOUS
 10
72.7673288929
 20
136.4354512079
 11
73.0673288929
 21
136.4354512079
  0
LINE
  5
7D9
100
AcDbEntity
  8
ASSI
100
AcDbLine
 62
253
  6
CONTINUOUS
 10
71.7847812994
 20
135.5623469995
 11
58.2673288929
 21
135.6600832566
  0
LINE
  5
7DA
100
AcDbEntity
  8
0
100
AcDbLine
 62
253
  6
CONTINUOUS
 10
71.7847812994
 20
135.5623469995
 11
58.2673288929
 21
135.6600832566
  0
LINE
  5
7DB
100
AcDbEntity
  8
ASSI
100
AcDbLine
 62
7
  6
CONTINUOUS
 10
72.7673288929
 20
136.4884369962
 11
73.0673288929
 21
136.4884369962
  0
LINE
  5
7DC
100
AcDbEntity
  8
0
100
AcDbLine
 62
7
  6
CONTINUOUS
 10
72.7673288929
 20
136.4884369962
 11
73.0673288929
 21
136.4884369962
  0
LINE
  5
7DD
100
AcDbEntity
  8
ASSI
100
AcDbLine
 62
253
  6
CONTINUOUS
 10
71.7847812994
 20
136.9763515105
 11
58.2673288929
 21
137.0740814274
  0
LINE
  5
7DE
100
AcDbEntity
  8
0
100
AcDbLine
 62
253
  6
CONTINUOUS
 10
71.7847812994
 20
136.9763515105
 11
58.2673288929
 21
137.0740814274
  0
LINE
  5
7DF
100
AcDbEntity
  8
ASSI
100
AcDbLine
 62
253
  6
CONTINUOUS
 10
71.7847812994
 20
137.1968629134
 11
68.2673288929
 21
137.2582602735
  0
LINE
  5
7E0
100
AcDbEntity
  8
0
100
AcDbLine
 62
253
  6
CONTINUOUS
 10
71.7847812994
 20
137.1968629134
 11
68.2673288929
 21
137.2582602735
  0
LINE
  5
7E1
100
AcDbEntity
  8
ASSI
100
AcDbLine
 62
7
  6
CONTINUOUS
 10
71.7847812994
 20
137.4897115232
 11
68.2673288929
 21
137.5511088833
  0
LINE
  5
7E2
100
AcDbEntity
  8
0
100
AcDbLine
 62
7
  6
CONTINUOUS
 10
71.7847812994
 20
137.4897115232
 11
68.2673288929
 21
137.5511088833
  0
LINE
  5
7E3
100
AcDbEntity
  8
ASSI
100
AcDbLine
 62
7
  6
CONTINUOUS
 10
68.2673288929
 20
138.0638335586
 11
58.2673288929
 21
138.2383842079
  0
LINE
  5
7E4
100
AcDbEntity
  8
0
100
AcDbLine
 62
7
  6
CONTINUOUS
 10
68.2673288929
 20
138.0638335586
 11
58.2673288929
 21
138.2383842079
  0
LINE
  5
7E5
100
AcDbEntity
  8
RACCORDO
100
AcDbLine
 62
253
  6
CONTINUOUS
 10
48.6791096845
 20
138.4300815918
 11
48.2537357793
 21
138.4477279358
  0
LWPOLYLINE
  5
7E6
100
AcDbEntity
  8
RACCORDO
100
AcDbPolyline
 62
253
  6
CONTINUOUS
 90
3
 70
0
 10
48.2537357793
 20
138.4477279358
 10
48.1909316753
 20
138.4504469311
 10
48.1882568214
 20
138.4505938012
  0
LINE
  5
7E7
100
AcDbEntity
  8
RACCORDO
100
AcDbLine
 62
253
  6
CONTINUOUS
 10
57.2695152219
 20
139.7882699365
 11
49.6259318724
 21
139.3876867074
  0
LINE
  5
7E8
100
AcDbEntity
  8
RACCORDO
100
AcDbLine
 62
7
  6
CONTINUOUS
 10
67.7760550962
 20
139.5043596412
 11
58.2673288929
 21
139.3383842079
  0
LINE
  5
7E9
100
AcDbEntity
  8
RACCORDO
100
AcDbLine
 62
7
  6
CONTINUOUS
 10
68.2673288929
 20
139.0256528858
 11
58.2673288929
 21
138.9383842079
  0
LWPOLYLINE
  5
7EA
100
AcDbEntity
  8
RACCORDO
100
AcDbPolyline
 62
7
  6
CONTINUOUS
 90
4
 70
0
 10
55.8817495013
 20
140.213759744
 10
55.862672351
 20
140.2135933154
 10
55.845030425
 20
140.2133408691
 10
55.8289584123
 20
140.2130024053
  0
LINE
  5
7EB
100
AcDbEntity
  8
RACCORDO
100
AcDbLine
 62
253
  6
CONTINUOUS
 10
58.2673288929
 20
139.7795621485
 11
57.2695152219
 21
139.7882699365
  0
LINE
  5
7EC
100
AcDbEntity
  8
RACCORDO
100
AcDbLine
 62
7
  6
CONTINUOUS
 10
67.2760554284
 20
140.2010393747
 11
57.2673287408
 21
140.2883842093
  0
LINE
  5
7ED
100
AcDbEntity
  8
0
100
AcDbLine
 62
7
  6
CONTINUOUS
 10
58.2673288929
 20
140.2796573401
 11
57.2673288929
 21
140.2883842079
  0
LINE
  5
7EE
100
AcDbEntity
  8
ASSI
100
AcDbLine
 62
7
  6
CONTINUOUS
 10
65.2673288929
 20
140.3034740781
 11
68.2673288929
 21
140.2511088833
  0
LINE
  5
7EF
100
AcDbEntity
  8
0
100
AcDbLine
 62
7
  6
CONTINUOUS
 10
65.2673288929
 20
140.3034740781
 11
68.2673288929
 21
140.2511088833
  0
LWPOLYLINE
  5
7F0
100
AcDbEntity
  8
ASSI
100
AcDbPolyline
 62
253
  6
CONTINUOUS
 90
9
 70
0
 10
81.2760550945
 20
133.6207768266
 10
81.2762918146
 20
133.6203931244
 10
81.276522102
 20
133.6192504879
 10
81.2767455714
 20
133.6173498458
 10
81.2769617267
 20
133.6146927319
 10
81.2771703994
 20
133.611281207
 10
81.2773717473
 20
133.6071177896
 10
81.2775654799
 20
133.6022055815
 10
81.2777512875
 20
133.5965483513
  0
LWPOLYLINE
  5
7F1
100
AcDbEntity
  8
0
100
AcDbPolyline
 62
253
  6
CONTINUOUS
 90
9
 70
0
 10
81.2760550945
 20
133.6207768266
 10
81.2762918146
 20
133.6203931244
 10
81.276522102
 20
133.6192504879
 10
81.2767455714
 20
133.6173498458
 10
81.2769617267
 20
133.6146927319
 10
81.2771703994
 20
133.611281207
 10
81.2773717473
 20
133.6071177896
 10
81.2775654799
 20
133.6022055815
 10
81.2777512875
 20
133.5965483513
  0
LWPOLYLINE
  5
7F2
100
AcDbEntity
  8
0
100
AcDbPolyline
 62
7
  6
CONTINUOUS
 90
10
 70
0
 43
0.3500000006
 10
71.9816135559
 20
151.688385498
 10
72.0530447388
 20
151.5455231323
 10
72.0530447388
 20
151.4741010132
 10
71.9101869049
 20
151.3312386475
 10
71.838755722
 20
151.3312386475
 10
71.767329071
 20
151.402678894
 10
71.767329071
 20
151.4741010132
 10
71.838755722
 20
151.6169633789
 10
71.9101869049
 20
151.688385498
 10
71.9816135559
 20
151.688385498
  0
LWPOLYLINE
  5
7F3
100
AcDbEntity
  8
RACCORDO
100
AcDbPolyline
 62
253
  6
CONTINUOUS
 90
22
 70
0
 10
49.6259318724
 20
139.3876867074
 10
49.5555641017
 20
139.381471252
 10
49.4863931326
 20
139.3704783767
 10
49.4184189651
 20
139.3547080816
 10
49.3512919318
 20
139.3340362837
 10
49.2853617002
 20
139.3085870659
 10
49.2216772722
 20
139.2787326774
 10
49.1602892508
 20
139.2444011994
 10
49.101147033
 20
139.2056645507
 10
49.0451478124
 20
139.1631107367
 10
48.9923523665
 20
139.116693408
 10
48.9426999177
 20
139.066458914
 10
48.8969053262
 20
139.0131343078
 10
48.8550173826
 20
138.9566634933
 10
48.8169872963
 20
138.8971025665
 10
48.7833835551
 20
138.8353468686
 10
48.7542749752
 20
138.7713404607
 10
48.7295927405
 20
138.7051392816
 10
48.7096988902
 20
138.6378064895
 10
48.6947141039
 20
138.5696964701
 10
48.684517702
 20
138.5004548375
 10
48.6791096845
 20
138.4300815918
  0
LINE
  5
7F4
100
AcDbEntity
  8
RACCORDO
100
AcDbLine
 62
7
  6
CONTINUOUS
 10
56.016019902
 20
140.2159670324
 11
57.2673288929
 21
140.2837936893
  0
LINE
  5
7F5
100
AcDbEntity
  8
RACCORDO
100
AcDbLine
 62
7
  6
CONTINUOUS
 10
49.6084900975
 20
139.8870014748
 11
55.8289584123
 21
140.2130024053
  0
LWPOLYLINE
  5
7F6
100
AcDbEntity
  8
RACCORDO
100
AcDbPolyline
 62
7
  6
CONTINUOUS
 90
6
 70
0
 10
56.016019902
 20
140.2159670324
 10
55.9923857328
 20
140.214976671
 10
55.9689793621
 20
140.2142353016
 10
55.9460102993
 20
140.2137429242
 10
55.9236530826
 20
140.2136112087
 10
55.8817495013
 20
140.213759744
  0
LINE
  5
7F7
100
AcDbEntity
  8
RACCORDO
100
AcDbLine
 62
253
  6
CONTINUOUS
 10
57.2673288929
 20
142.1883876349
 11
55.016019902
 21
142.1765997008
  0
LINE
  5
7F8
100
AcDbEntity
  8
RACCORDO
100
AcDbLine
 62
7
  6
CONTINUOUS
 10
57.2673288929
 20
142.4383842079
 11
55.016019902
 21
142.4265962739
  0
LINE
  5
7F9
100
AcDbEntity
  8
RACCORDO
100
AcDbLine
 62
253
  6
CONTINUOUS
 10
55.016019902
 20
141.7827217752
 11
54.7673288929
 21
141.7827217705
  0
LINE
  5
7FA
100
AcDbEntity
  8
RACCORDO
100
AcDbLine
 62
253
  6
CONTINUOUS
 10
58.0186378839
 20
141.7827217752
 11
58.2673288929
 21
141.7827217752
  0
LINE
  5
7FB
100
AcDbEntity
  8
RACCORDO
100
AcDbLine
 62
253
  6
CONTINUOUS
 10
55.016019902
 20
142.1765997008
 11
54.7673288929
 21
142.1765997008
  0
LINE
  5
7FC
100
AcDbEntity
  8
RACCORDO
100
AcDbLine
 62
253
  6
CONTINUOUS
 10
58.0186378839
 20
142.1844537542
 11
58.2673288929
 21
142.1844537542
  0
LINE
  5
7FD
100
AcDbEntity
  8
RACCORDO
100
AcDbLine
 62
253
  6
CONTINUOUS
 10
58.0186378839
 20
142.1844537542
 11
57.2673288929
 21
142.1883876349
  0
LINE
  5
7FE
100
AcDbEntity
  8
RACCORDO
100
AcDbLine
 62
7
  6
CONTINUOUS
 10
58.0186378839
 20
142.4344503273
 11
57.2673288929
 21
142.4383842079
  0
LINE
  5
7FF
100
AcDbEntity
  8
RACCORDO
100
AcDbLine
 62
7
  6
CONTINUOUS
 10
58.2619178618
 20
141.7325978586
 11
65.2673244491
 21
141.6918415953
  0
LWPOLYLINE
  5
800
100
AcDbEntity
  8
0
100
AcDbPolyline
 62
7
  6
CONTINUOUS
 90
7
 70
0
 43
0.3500000006
 10
68.3387591858
 20
151.1883762817
 10
66.838758728
 20
151.1883762817
 10
68.3387591858
 20
153.3312392578
 10
68.3387591858
 20
153.7598082275
 10
67.9101856842
 20
154.1883771973
 10
67.2673276978
 20
154.1883771973
 10
66.838758728
 20
153.5455237427
  0
LWPOLYLINE
  5
801
100
AcDbEntity
  8
0
100
AcDbPolyline
 62
7
  6
CONTINUOUS
 90
8
 70
0
 43
0.3500000006
 10
69.1959016571
 20
151.1883762817
 10
70.0530441284
 20
151.1883762817
 10
70.4816130981
 20
151.6169633789
 10
70.4816130981
 20
152.4741013184
 10
70.0530441284
 20
152.9026702881
 10
69.1959016571
 20
152.9026702881
 10
69.1959016571
 20
154.1883771973
 10
70.4816130981
 20
154.1883771973
  0
LWPOLYLINE
  5
802
100
AcDbEntity
  8
0
100
AcDbPolyline
 62
7
  6
CONTINUOUS
 90
8
 70
0
 43
0.3500000006
 10
73.0530450439
 20
151.1883762817
 10
73.9101875153
 20
151.1883762817
 10
74.338756485
 20
151.6169633789
 10
74.338756485
 20
152.4741013184
 10
73.9101875153
 20
152.9026702881
 10
73.0530450439
 20
152.9026702881
 10
73.0530450439
 20
154.1883771973
 10
74.338756485
 20
154.1883771973
  0
LWPOLYLINE
  5
803
100
AcDbEntity
  8
0
100
AcDbPolyline
 62
7
  6
CONTINUOUS
 90
6
 70
0
 43
0.3500000006
 10
63.5173310852
 20
161.1883793335
 10
64.5887580414
 20
161.1883793335
 10
64.8030425262
 20
161.4026638184
 10
64.8030425262
 20
162.4741043701
 10
64.3744735565
 20
162.9026733398
 10
63.9459000549
 20
162.9026733398
  0
ARC
  5
804
100
AcDbEntity
  8
0
100
AcDbCircle
 62
7
  6
CONTINUOUS
 10
138.6067854097
 20
112.9383842079
 40
2.7
100
AcDbArc
 50
232.3978649295
 51
127.6021350692
  0
ARC
  5
805
100
AcDbEntity
  8
0
100
AcDbCircle
 62
7
  6
CONTINUOUS
 10
119.6067854097
 20
112.9383842079
 40
2.7
100
AcDbArc
 50
52.3978649308
 51
307.6021350706
  0
ARC
  5
806
100
AcDbEntity
  8
0
100
AcDbCircle
 62
7
  6
CONTINUOUS
 10
129.1067854097
 20
124.8383842079
 40
2.65
100
AcDbArc
 50
180.0
 51
360.0
  0
ARC
  5
807
100
AcDbEntity
  8
RACCORDO
100
AcDbCircle
 62
7
  6
CONTINUOUS
 10
49.6869940319
 20
97.4877112432
 40
1.5
100
AcDbArc
 50
182.3511859
 51
267.0
  0
ARC
  5
808
100
AcDbEntity
  8
RACCORDO
100
AcDbCircle
 62
7
  6
CONTINUOUS
 10
58.0173288929
 20
94.0940466406
 40
0.25
100
AcDbArc
 50
0.0
 51
60.0
  0
ARC
  5
809
100
AcDbEntity
  8
RACCORDO
100
AcDbCircle
 62
7
  6
CONTINUOUS
 10
58.0173288929
 20
93.6923146616
 40
0.25
100
AcDbArc
 50
270.3
 51
360.0
  0
ARC
  5
80A
100
AcDbEntity
  8
RACCORDO
100
AcDbCircle
 62
7
  6
CONTINUOUS
 10
55.0173288929
 20
94.0940466406
 40
0.25
100
AcDbArc
 50
120.0
 51
180.0
  0
ARC
  5
80B
100
AcDbEntity
  8
RACCORDO
100
AcDbCircle
 62
7
  6
CONTINUOUS
 10
55.0173288929
 20
93.700168715
 40
0.25
100
AcDbArc
 50
180.0
 51
269.7
  0
ARC
  5
80C
100
AcDbEntity
  8
RACCORDO
100
AcDbCircle
 62
7
  6
CONTINUOUS
 10
67.2673288929
 20
96.6756909642
 40
1.0
100
AcDbArc
 50
270.5
 51
360.0
  0
ARC
  5
80D
100
AcDbEntity
  8
ASSI
100
AcDbCircle
 62
7
  6
CONTINUOUS
 10
71.7673288929
 20
99.3869045879
 40
1.0
100
AcDbArc
 50
271.0
 51
360.0
  0
ARC
  5
80E
100
AcDbEntity
  8
0
100
AcDbCircle
 62
7
  6
CONTINUOUS
 10
71.7673288929
 20
99.3869045879
 40
1.0
100
AcDbArc
 50
271.0
 51
360.0
  0
ARC
  5
80F
100
AcDbEntity
  8
ASSI
100
AcDbCircle
 62
7
  6
CONTINUOUS
 10
73.2673288929
 20
103.3161225894
 40
0.5
100
AcDbArc
 50
91.0
 51
180.0
  0
ARC
  5
810
100
AcDbEntity
  8
ASSI
100
AcDbCircle
 62
7
  6
CONTINUOUS
 10
81.2673288929
 20
104.4559154369
 40
0.5
100
AcDbArc
 50
271.0
 51
360.0
  0
ARC
  5
811
100
AcDbEntity
  8
0
100
AcDbCircle
 62
7
  6
CONTINUOUS
 10
73.2673288929
 20
103.3161225894
 40
0.5
100
AcDbArc
 50
91.0
 51
180.0
  0
ARC
  5
812
100
AcDbEntity
  8
0
100
AcDbCircle
 62
7
  6
CONTINUOUS
 10
81.2673288929
 20
104.4559154369
 40
0.5
100
AcDbArc
 50
271.0
 51
360.0
  0
ARC
  5
813
100
AcDbEntity
  8
ASSI
100
AcDbCircle
 62
7
  6
CONTINUOUS
 10
83.4673288929
 20
117.8885075287
 40
0.3
100
AcDbArc
 50
0.0
 51
85.0
  0
ARC
  5
814
100
AcDbEntity
  8
ASSI
100
AcDbCircle
 62
7
  6
CONTINUOUS
 10
83.4673288929
 20
113.2885075287
 40
0.3
100
AcDbArc
 50
0.0
 51
85.0
  0
ARC
  5
815
100
AcDbEntity
  8
ASSI
100
AcDbCircle
 62
7
  6
CONTINUOUS
 10
83.4673288929
 20
107.9882608872
 40
0.3
100
AcDbArc
 50
275.0
 51
360.0
  0
ARC
  5
816
100
AcDbEntity
  8
ASSI
100
AcDbCircle
 62
7
  6
CONTINUOUS
 10
82.0673288929
 20
114.0132835601
 40
0.3
100
AcDbArc
 50
180.0
 51
265.0
  0
ARC
  5
817
100
AcDbEntity
  8
ASSI
100
AcDbCircle
 62
7
  6
CONTINUOUS
 10
82.0673288929
 20
107.2634848557
 40
0.3
100
AcDbArc
 50
95.0
 51
180.0
  0
ARC
  5
818
100
AcDbEntity
  8
0
100
AcDbCircle
 62
7
  6
CONTINUOUS
 10
83.4673288929
 20
117.8885075287
 40
0.3
100
AcDbArc
 50
0.0
 51
85.0
  0
ARC
  5
819
100
AcDbEntity
  8
0
100
AcDbCircle
 62
7
  6
CONTINUOUS
 10
83.4673288929
 20
113.2885075287
 40
0.3
100
AcDbArc
 50
0.0
 51
85.0
  0
ARC
  5
81A
100
AcDbEntity
  8
0
100
AcDbCircle
 62
7
  6
CONTINUOUS
 10
83.4673288929
 20
107.9882608872
 40
0.3
100
AcDbArc
 50
275.0
 51
360.0
  0
ARC
  5
81B
100
AcDbEntity
  8
0
100
AcDbCircle
 62
7
  6
CONTINUOUS
 10
82.0673288929
 20
114.0132835601
 40
0.3
100
AcDbArc
 50
180.0
 51
265.0
  0
ARC
  5
81C
100
AcDbEntity
  8
0
100
AcDbCircle
 62
7
  6
CONTINUOUS
 10
82.0673288929
 20
107.2634848557
 40
0.3
100
AcDbArc
 50
95.0
 51
180.0
  0
ARC
  5
81D
100
AcDbEntity
  8
RACCORDO
100
AcDbCircle
 62
7
  6
CONTINUOUS
 10
49.6869940319
 20
138.3890571726
 40
1.5
100
AcDbArc
 50
93.0
 51
177.6488141
  0
ARC
  5
81E
100
AcDbEntity
  8
RACCORDO
100
AcDbCircle
 62
7
  6
CONTINUOUS
 10
55.0173288929
 20
141.7827217752
 40
0.25
100
AcDbArc
 50
180.0
 51
240.0
  0
ARC
  5
81F
100
AcDbEntity
  8
RACCORDO
100
AcDbCircle
 62
7
  6
CONTINUOUS
 10
55.0173288929
 20
142.1765997008
 40
0.25
100
AcDbArc
 50
90.3
 51
180.0
  0
ARC
  5
820
100
AcDbEntity
  8
RACCORDO
100
AcDbCircle
 62
7
  6
CONTINUOUS
 10
58.0173288929
 20
141.7827217752
 40
0.25
100
AcDbArc
 50
300.0
 51
360.0
  0
ARC
  5
821
100
AcDbEntity
  8
RACCORDO
100
AcDbCircle
 62
7
  6
CONTINUOUS
 10
58.0173288929
 20
142.1844537542
 40
0.25
100
AcDbArc
 50
0.0
 51
89.7
  0
ARC
  5
822
100
AcDbEntity
  8
ASSI
100
AcDbCircle
 62
7
  6
CONTINUOUS
 10
81.2673288929
 20
118.8208529319
 40
0.5
100
AcDbArc
 50
0.000005393
 51
89.0000000941
  0
ARC
  5
823
100
AcDbEntity
  8
0
100
AcDbCircle
 62
7
  6
CONTINUOUS
 10
81.2673288929
 20
118.8208529319
 40
0.5
100
AcDbArc
 50
0.000005393
 51
89.0000000941
  0
ARC
  5
824
100
AcDbEntity
  8
ASSI
100
AcDbCircle
 62
7
  6
CONTINUOUS
 10
73.2673288929
 20
119.9606457063
 40
0.49999996
100
AcDbArc
 50
179.9999862312
 51
268.9999997597
  0
ARC
  5
825
100
AcDbEntity
  8
0
100
AcDbCircle
 62
7
  6
CONTINUOUS
 10
73.2673288929
 20
119.9606457063
 40
0.49999996
100
AcDbArc
 50
179.9999862312
 51
268.9999997597
  0
ARC
  5
826
100
AcDbEntity
  8
ASSI
100
AcDbCircle
 62
7
  6
CONTINUOUS
 10
83.4673288929
 20
129.5885075287
 40
0.3
100
AcDbArc
 50
0.0
 51
85.0
  0
ARC
  5
827
100
AcDbEntity
  8
ASSI
100
AcDbCircle
 62
7
  6
CONTINUOUS
 10
83.4673288929
 20
124.2882608872
 40
0.3
100
AcDbArc
 50
275.0
 51
360.0
  0
ARC
  5
828
100
AcDbEntity
  8
ASSI
100
AcDbCircle
 62
7
  6
CONTINUOUS
 10
82.0673288929
 20
118.6132835601
 40
0.3
100
AcDbArc
 50
180.0
 51
265.0
  0
ARC
  5
829
100
AcDbEntity
  8
ASSI
100
AcDbCircle
 62
7
  6
CONTINUOUS
 10
82.0673288929
 20
130.3132835601
 40
0.3
100
AcDbArc
 50
180.0
 51
265.0
  0
ARC
  5
82A
100
AcDbEntity
  8
ASSI
100
AcDbCircle
 62
7
  6
CONTINUOUS
 10
82.0673288929
 20
123.5634848557
 40
0.3
100
AcDbArc
 50
95.0
 51
180.0
  0
ARC
  5
82B
100
AcDbEntity
  8
0
100
AcDbCircle
 62
7
  6
CONTINUOUS
 10
83.4673288929
 20
129.5885075287
 40
0.3
100
AcDbArc
 50
0.0
 51
85.0
  0
ARC
  5
82C
100
AcDbEntity
  8
0
100
AcDbCircle
 62
7
  6
CONTINUOUS
 10
83.4673288929
 20
124.2882608872
 40
0.3
100
AcDbArc
 50
275.0
 51
360.0
  0
ARC
  5
82D
100
AcDbEntity
  8
0
100
AcDbCircle
 62
7
  6
CONTINUOUS
 10
82.0673288929
 20
118.6132835601
 40
0.3
100
AcDbArc
 50
180.0
 51
265.0
  0
ARC
  5
82E
100
AcDbEntity
  8
0
100
AcDbCircle
 62
7
  6
CONTINUOUS
 10
82.0673288929
 20
130.3132835601
 40
0.3
100
AcDbArc
 50
180.0
 51
265.0
  0
ARC
  5
82F
100
AcDbEntity
  8
0
100
AcDbCircle
 62
7
  6
CONTINUOUS
 10
82.0673288929
 20
123.5634848557
 40
0.3
100
AcDbArc
 50
95.0
 51
180.0
  0
ARC
  5
830
100
AcDbEntity
  8
RACCORDO
100
AcDbCircle
 62
7
  6
CONTINUOUS
 10
67.2673288929
 20
139.2010774516
 40
1.0
100
AcDbArc
 50
0.0
 51
89.5
  0
ARC
  5
831
100
AcDbEntity
  8
ASSI
100
AcDbCircle
 62
7
  6
CONTINUOUS
 10
71.7673288929
 20
136.489863828
 40
1.0
100
AcDbArc
 50
0.0
 51
89.0
  0
ARC
  5
832
100
AcDbEntity
  8
0
100
AcDbCircle
 62
7
  6
CONTINUOUS
 10
71.7673288929
 20
136.489863828
 40
1.0
100
AcDbArc
 50
0.0
 51
89.0
  0
ARC
  5
833
100
AcDbEntity
  8
ASSI
100
AcDbCircle
 62
7
  6
CONTINUOUS
 10
81.2673288929
 20
133.120852979
 40
0.5
100
AcDbArc
 50
0.0
 51
89.0
  0
ARC
  5
834
100
AcDbEntity
  8
0
100
AcDbCircle
 62
7
  6
CONTINUOUS
 10
81.2673288929
 20
133.120852979
 40
0.5
100
AcDbArc
 50
0.0
 51
89.0
  0
ARC
  5
835
100
AcDbEntity
  8
ASSI
100
AcDbCircle
 62
7
  6
CONTINUOUS
 10
73.2673288929
 20
134.2606457063
 40
0.49999996
100
AcDbArc
 50
179.9999862312
 51
187.8538271087
  0
ARC
  5
836
100
AcDbEntity
  8
ASSI
100
AcDbCircle
 62
7
  6
CONTINUOUS
 10
73.2673288929
 20
134.2606457063
 40
0.49999996
100
AcDbArc
 50
246.4181760942
 51
268.9999997597
  0
ARC
  5
837
100
AcDbEntity
  8
0
100
AcDbCircle
 62
7
  6
CONTINUOUS
 10
73.2673288929
 20
134.2606457063
 40
0.49999996
100
AcDbArc
 50
179.9999862312
 51
187.8538271087
  0
ARC
  5
838
100
AcDbEntity
  8
0
100
AcDbCircle
 62
7
  6
CONTINUOUS
 10
73.2673288929
 20
134.2606457063
 40
0.49999996
100
AcDbArc
 50
246.4181760942
 51
268.9999997597
  0
ARC
  5
839
100
AcDbEntity
  8
0
100
AcDbCircle
 62
7
  6
CONTINUOUS
 10
547.7673288929
 20
117.9383842079
 40
500.0
100
AcDbArc
 50
180.7757878222
 51
180.7823495067
  0
ARC
  5
83A
100
AcDbEntity
  8
0
100
AcDbCircle
 62
7
  6
CONTINUOUS
 10
547.7673288929
 20
117.9383842079
 40
500.0
100
AcDbArc
 50
180.6617477254
 51
180.7744779399
  0
ARC
  5
83B
100
AcDbEntity
  8
0
100
AcDbCircle
 62
7
  6
CONTINUOUS
 10
547.7673288929
 20
117.9383842079
 40
500.0
100
AcDbArc
 50
178.874713021
 51
179.5431267213
  0
ARC
  5
83C
100
AcDbEntity
  8
0
100
AcDbCircle
 62
7
  6
CONTINUOUS
 10
547.7673288929
 20
117.9383842079
 40
500.0
100
AcDbArc
 50
180.7837219928
 51
181.1052230315
  0
ARC
  5
83D
100
AcDbEntity
  8
RACCORDO
100
AcDbCircle
 62
7
  6
CONTINUOUS
 10
547.7673288929
 20
117.9383842079
 40
500.0
100
AcDbArc
 50
177.6488141
 51
182.3511859
  0
ELLIPSE
  5
83E
100
AcDbEntity
  8
RACCORDO
100
AcDbEllipse
 62
7
  6
CONTINUOUS
 10
107.2568615738
 20
96.0971301149
 30
0.0
 11
0.4473055582
 21
-0.2236357461
 31
0.0
 40
0.9998096356
 41
-2.6780516535
 42
-1.5707153708
  0
ELLIPSE
  5
83F
100
AcDbEntity
  8
RACCORDO
100
AcDbEllipse
 62
7
  6
CONTINUOUS
 10
150.9567092457
 20
139.7796383009
 30
0.0
 11
0.4473055582
 21
-0.2236357461
 31
0.0
 40
0.9998096356
 41
0.4635410001
 42
1.5708772828
  0
ELLIPSE
  5
840
100
AcDbEntity
  8
RACCORDO
100
AcDbEllipse
 62
7
  6
CONTINUOUS
 10
107.2568615738
 20
139.7796383009
 30
0.0
 11
0.4473055582
 21
0.2236357461
 31
0.0
 40
0.9998096356
 41
1.5707153661
 42
2.6780516535
  0
ELLIPSE
  5
841
100
AcDbEntity
  8
RACCORDO
100
AcDbEllipse
 62
7
  6
CONTINUOUS
 10
150.9567092457
 20
96.0971301149
 30
0.0
 11
0.4473055582
 21
0.2236357461
 31
0.0
 40
0.9998096356
 41
-1.5708772875
 42
-0.4635410001
  0
ELLIPSE
  5
842
100
AcDbEntity
  8
RACCORDO
100
AcDbEllipse
 62
7
  6
CONTINUOUS
 10
121.7538680331
 20
95.6145880976
 30
0.0
 11
0.5
 21
0.0
 31
0.0
 40
0.0524077793
 41
0.0058177642
 42
1.5707963268
  0
ELLIPSE
  5
843
100
AcDbEntity
  8
RACCORDO
100
AcDbEllipse
 62
7
  6
CONTINUOUS
 10
136.4597027864
 20
95.6145880976
 30
0.0
 11
0.5
 21
-0.0
 31
0.0
 40
0.0524077793
 41
1.5707963268
 42
3.1357748894
  0
ELLIPSE
  5
844
100
AcDbEntity
  8
RACCORDO
100
AcDbEllipse
 62
7
  6
CONTINUOUS
 10
144.2538680331
 20
95.6145880976
 30
0.0
 11
0.5
 21
-0.0
 31
0.0
 40
0.0524077793
 41
0.0058177642
 42
1.5707963268
  0
ELLIPSE
  5
845
100
AcDbEntity
  8
RACCORDO
100
AcDbEllipse
 62
7
  6
CONTINUOUS
 10
113.9597027864
 20
140.2621803183
 30
0.0
 11
0.5
 21
0.0
 31
0.0
 40
0.0524077793
 41
-3.1357748894
 42
-1.5707963268
  0
ELLIPSE
  5
846
100
AcDbEntity
  8
RACCORDO
100
AcDbEllipse
 62
7
  6
CONTINUOUS
 10
121.7538680331
 20
140.2621803183
 30
0.0
 11
0.5
 21
0.0
 31
0.0
 40
0.0524077793
 41
-1.5707963268
 42
-0.0058177642
  0
ELLIPSE
  5
847
100
AcDbEntity
  8
RACCORDO
100
AcDbEllipse
 62
7
  6
CONTINUOUS
 10
136.4597027864
 20
140.2621803183
 30
0.0
 11
0.5
 21
-0.0
 31
0.0
 40
0.0524077793
 41
-3.1357748894
 42
-1.5707963268
  0
ELLIPSE
  5
848
100
AcDbEntity
  8
RACCORDO
100
AcDbEllipse
 62
7
  6
CONTINUOUS
 10
144.2538680331
 20
140.2621803183
 30
0.0
 11
0.5
 21
-0.0
 31
0.0
 40
0.0524077793
 41
-1.5707963268
 42
-0.0058177642
  0
ELLIPSE
  5
849
100
AcDbEntity
  8
RACCORDO
100
AcDbEllipse
 62
7
  6
CONTINUOUS
 10
144.2538680331
 20
94.1412931228
 30
0.0
 11
0.5
 21
0.0
 31
0.0
 40
0.0058178298
 41
0.0058177642
 42
0.6464131586
  0
ELLIPSE
  5
84A
100
AcDbEntity
  8
RACCORDO
100
AcDbEllipse
 62
7
  6
CONTINUOUS
 10
109.3489279294
 20
94.5270593425
 30
0.0
 11
0.0026179371
 21
0.2886662316
 31
0.0
 40
0.8660165003
 41
-1.5603245307
 42
0.0078538112
  0
ELLIPSE
  5
84B
100
AcDbEntity
  8
RACCORDO
100
AcDbEllipse
 62
7
  6
CONTINUOUS
 10
136.4597027864
 20
94.1412931228
 30
0.0
 11
0.5
 21
0.0
 31
0.0
 40
0.0058178298
 41
2.495179495
 42
3.1357748894
  0
ELLIPSE
  5
84C
100
AcDbEntity
  8
RACCORDO
100
AcDbEllipse
 62
7
  6
CONTINUOUS
 10
144.2538680331
 20
141.735475293
 30
0.0
 11
0.5
 21
0.0
 31
0.0
 40
0.0058178298
 41
-0.6464131586
 42
-0.0058177642
  0
ELLIPSE
  5
84D
100
AcDbEntity
  8
RACCORDO
100
AcDbEllipse
 62
7
  6
CONTINUOUS
 10
109.3502369383
 20
95.653893932
 30
0.0
 11
0.25
 21
0.0
 31
0.0
 40
0.0524077793
 41
0.0052359878
 42
1.5707963268
  0
ELLIPSE
  5
84E
100
AcDbEntity
  8
RACCORDO
100
AcDbEllipse
 62
7
  6
CONTINUOUS
 10
109.3502369383
 20
94.9600720444
 30
0.0
 11
0.25
 21
0.0
 31
0.0
 40
0.5773502692
 41
-1.5707963268
 42
-0.0052359878
  0
ELLIPSE
  5
84F
100
AcDbEntity
  8
RACCORDO
100
AcDbEllipse
 62
7
  6
CONTINUOUS
 10
136.4597027864
 20
141.735475293
 30
0.0
 11
0.5
 21
0.0
 31
0.0
 40
0.0058178298
 41
-3.1357748894
 42
-2.495179495
  0
ELLIPSE
  5
850
100
AcDbEntity
  8
RACCORDO
100
AcDbEllipse
 62
7
  6
CONTINUOUS
 10
107.4646428901
 20
94.5270593425
 30
0.0
 11
-0.0026179371
 21
0.2886662316
 31
0.0
 40
0.8660165003
 41
-0.0078538112
 42
1.5603245307
  0
ELLIPSE
  5
851
100
AcDbEntity
  8
RACCORDO
100
AcDbEllipse
 62
7
  6
CONTINUOUS
 10
107.4633338812
 20
95.653893932
 30
0.0
 11
0.25
 21
0.0
 31
0.0
 40
0.0524077793
 41
1.5707963268
 42
2.2882505725
  0
ELLIPSE
  5
852
100
AcDbEntity
  8
RACCORDO
100
AcDbEllipse
 62
7
  6
CONTINUOUS
 10
107.4633338812
 20
94.9600720444
 30
0.0
 11
0.25
 21
0.0
 31
0.0
 40
0.5773502692
 41
-3.1363566658
 42
-1.5707963268
  0
ELLIPSE
  5
853
100
AcDbEntity
  8
RACCORDO
100
AcDbEllipse
 62
7
  6
CONTINUOUS
 10
150.7502369383
 20
140.2228744838
 30
0.0
 11
0.25
 21
0.0
 31
0.0
 40
0.0524077793
 41
-1.5707963268
 42
-0.8533420811
  0
ELLIPSE
  5
854
100
AcDbEntity
  8
RACCORDO
100
AcDbEllipse
 62
7
  6
CONTINUOUS
 10
148.8633338812
 20
140.2228744838
 30
0.0
 11
0.25
 21
0.0
 31
0.0
 40
0.0524077793
 41
-3.1363566658
 42
-1.5707963268
  0
ELLIPSE
  5
855
100
AcDbEntity
  8
RACCORDO
100
AcDbEllipse
 62
7
  6
CONTINUOUS
 10
121.7538680331
 20
94.1412931228
 30
0.0
 11
0.5
 21
0.0
 31
0.0
 40
0.0058178298
 41
0.0058177642
 42
0.6464131586
  0
ELLIPSE
  5
856
100
AcDbEntity
  8
RACCORDO
100
AcDbEllipse
 62
7
  6
CONTINUOUS
 10
113.9597027864
 20
94.1412931228
 30
0.0
 11
0.5
 21
0.0
 31
0.0
 40
0.0058178298
 41
2.495179495
 42
3.1357748894
  0
ELLIPSE
  5
857
100
AcDbEntity
  8
RACCORDO
100
AcDbEllipse
 62
7
  6
CONTINUOUS
 10
131.8502369383
 20
140.2228744838
 30
0.0
 11
0.25
 21
0.0
 31
0.0
 40
0.0524077793
 41
-1.5707963268
 42
-0.0052359878
  0
ELLIPSE
  5
858
100
AcDbEntity
  8
RACCORDO
100
AcDbEllipse
 62
7
  6
CONTINUOUS
 10
129.9633338812
 20
140.2228744838
 30
0.0
 11
0.25
 21
0.0
 31
0.0
 40
0.0524077793
 41
-3.1363566658
 42
-1.5707963268
  0
ELLIPSE
  5
859
100
AcDbEntity
  8
RACCORDO
100
AcDbEllipse
 62
7
  6
CONTINUOUS
 10
128.2502369383
 20
140.2228744838
 30
0.0
 11
0.25
 21
0.0
 31
0.0
 40
0.0524077793
 41
-1.5707963268
 42
-0.0052359878
  0
ELLIPSE
  5
85A
100
AcDbEntity
  8
RACCORDO
100
AcDbEllipse
 62
7
  6
CONTINUOUS
 10
121.7538680331
 20
141.735475293
 30
0.0
 11
0.5
 21
0.0
 31
0.0
 40
0.0058178298
 41
-0.6464131586
 42
-0.0058177642
  0
ELLIPSE
  5
85B
100
AcDbEntity
  8
RACCORDO
100
AcDbEllipse
 62
7
  6
CONTINUOUS
 10
126.3633338812
 20
140.2228744838
 30
0.0
 11
0.25
 21
0.0
 31
0.0
 40
0.0524077793
 41
-3.1363566658
 42
-1.5707963268
  0
ELLIPSE
  5
85C
100
AcDbEntity
  8
RACCORDO
100
AcDbEllipse
 62
7
  6
CONTINUOUS
 10
113.9597027864
 20
141.735475293
 30
0.0
 11
0.5
 21
-0.0
 31
0.0
 40
0.0058178298
 41
-3.1357748894
 42
-2.495179495
  0
ELLIPSE
  5
85D
100
AcDbEntity
  8
RACCORDO
100
AcDbEllipse
 62
7
  6
CONTINUOUS
 10
109.3502369383
 20
140.2228744838
 30
0.0
 11
0.25
 21
0.0
 31
0.0
 40
0.0524077793
 41
-1.5707963268
 42
-0.0052359878
  0
ELLIPSE
  5
85E
100
AcDbEntity
  8
RACCORDO
100
AcDbEllipse
 62
7
  6
CONTINUOUS
 10
107.4633338812
 20
140.2228744838
 30
0.0
 11
0.25
 21
0.0
 31
0.0
 40
0.0524077793
 41
-2.2882505725
 42
-1.5707963268
  0
ELLIPSE
  5
85F
100
AcDbEntity
  8
RACCORDO
100
AcDbEllipse
 62
7
  6
CONTINUOUS
 10
150.7489279294
 20
94.5270593425
 30
0.0
 11
0.0026179371
 21
0.2886662316
 31
0.0
 40
0.8660165003
 41
-1.5603245307
 42
0.0078538112
  0
ELLIPSE
  5
860
100
AcDbEntity
  8
RACCORDO
100
AcDbEllipse
 62
7
  6
CONTINUOUS
 10
150.7502369383
 20
95.653893932
 30
0.0
 11
0.25
 21
-0.0
 31
0.0
 40
0.0524077793
 41
0.8533420811
 42
1.5707963268
  0
ELLIPSE
  5
861
100
AcDbEntity
  8
RACCORDO
100
AcDbEllipse
 62
7
  6
CONTINUOUS
 10
150.7502369383
 20
94.9600720444
 30
0.0
 11
0.25
 21
0.0
 31
0.0
 40
0.5773502692
 41
-1.5707963268
 42
-0.0052359878
  0
ELLIPSE
  5
862
100
AcDbEntity
  8
RACCORDO
100
AcDbEllipse
 62
7
  6
CONTINUOUS
 10
148.8646428901
 20
94.5270593425
 30
0.0
 11
-0.0026179371
 21
0.2886662316
 31
0.0
 40
0.8660165003
 41
-0.0078538112
 42
1.5603245307
  0
ELLIPSE
  5
863
100
AcDbEntity
  8
RACCORDO
100
AcDbEllipse
 62
7
  6
CONTINUOUS
 10
148.8633338812
 20
95.653893932
 30
0.0
 11
0.25
 21
0.0
 31
0.0
 40
0.0524077793
 41
1.5707963268
 42
3.1363566658
  0
ELLIPSE
  5
864
100
AcDbEntity
  8
RACCORDO
100
AcDbEllipse
 62
7
  6
CONTINUOUS
 10
148.8633338812
 20
94.9600720444
 30
0.0
 11
0.25
 21
0.0
 31
0.0
 40
0.5773502692
 41
-3.1363566658
 42
-1.5707963268
  0
ELLIPSE
  5
865
100
AcDbEntity
  8
RACCORDO
100
AcDbEllipse
 62
7
  6
CONTINUOUS
 10
131.8489279294
 20
94.5270593425
 30
0.0
 11
0.0026179371
 21
0.2886662316
 31
0.0
 40
0.8660165003
 41
-1.5603245307
 42
0.0078538112
  0
ELLIPSE
  5
866
100
AcDbEntity
  8
RACCORDO
100
AcDbEllipse
 62
7
  6
CONTINUOUS
 10
131.8502369383
 20
95.653893932
 30
0.0
 11
0.25
 21
0.0
 31
0.0
 40
0.0524077793
 41
0.0052359878
 42
1.5707963268
  0
ELLIPSE
  5
867
100
AcDbEntity
  8
RACCORDO
100
AcDbEllipse
 62
7
  6
CONTINUOUS
 10
131.8502369383
 20
94.9600720444
 30
0.0
 11
0.25
 21
0.0
 31
0.0
 40
0.5773502692
 41
-1.5707963268
 42
-0.0052359878
  0
ELLIPSE
  5
868
100
AcDbEntity
  8
RACCORDO
100
AcDbEllipse
 62
7
  6
CONTINUOUS
 10
129.9646428901
 20
94.5270593425
 30
0.0
 11
-0.0026179371
 21
0.2886662316
 31
0.0
 40
0.8660165003
 41
-0.0078538112
 42
1.5603245307
  0
ELLIPSE
  5
869
100
AcDbEntity
  8
RACCORDO
100
AcDbEllipse
 62
7
  6
CONTINUOUS
 10
129.9633338812
 20
95.653893932
 30
0.0
 11
0.25
 21
0.0
 31
0.0
 40
0.0524077793
 41
1.5707963268
 42
3.1363566658
  0
ELLIPSE
  5
86A
100
AcDbEntity
  8
RACCORDO
100
AcDbEllipse
 62
7
  6
CONTINUOUS
 10
129.9633338812
 20
94.9600720444
 30
0.0
 11
0.25
 21
0.0
 31
0.0
 40
0.5773502692
 41
-3.1363566658
 42
-1.5707963268
  0
ELLIPSE
  5
86B
100
AcDbEntity
  8
RACCORDO
100
AcDbEllipse
 62
7
  6
CONTINUOUS
 10
128.2489279294
 20
94.5270593425
 30
0.0
 11
0.0026179371
 21
0.2886662316
 31
0.0
 40
0.8660165003
 41
-1.5603245307
 42
0.0078538112
  0
ELLIPSE
  5
86C
100
AcDbEntity
  8
RACCORDO
100
AcDbEllipse
 62
7
  6
CONTINUOUS
 10
128.2502369383
 20
95.653893932
 30
0.0
 11
0.25
 21
0.0
 31
0.0
 40
0.0524077793
 41
0.0052359878
 42
1.5707963268
  0
ELLIPSE
  5
86D
100
AcDbEntity
  8
RACCORDO
100
AcDbEllipse
 62
7
  6
CONTINUOUS
 10
128.2502369383
 20
94.9600720444
 30
0.0
 11
0.25
 21
0.0
 31
0.0
 40
0.5773502692
 41
-1.5707963268
 42
-0.0052359878
  0
ELLIPSE
  5
86E
100
AcDbEntity
  8
RACCORDO
100
AcDbEllipse
 62
7
  6
CONTINUOUS
 10
126.3646428901
 20
94.5270593425
 30
0.0
 11
-0.0026179371
 21
0.2886662316
 31
0.0
 40
0.8660165003
 41
-0.0078538112
 42
1.5603245307
  0
ELLIPSE
  5
86F
100
AcDbEntity
  8
RACCORDO
100
AcDbEllipse
 62
7
  6
CONTINUOUS
 10
126.3633338812
 20
95.653893932
 30
0.0
 11
0.25
 21
0.0
 31
0.0
 40
0.0524077793
 41
1.5707963268
 42
3.1363566658
  0
ELLIPSE
  5
870
100
AcDbEntity
  8
RACCORDO
100
AcDbEllipse
 62
7
  6
CONTINUOUS
 10
126.3633338812
 20
94.9600720444
 30
0.0
 11
0.25
 21
-0.0
 31
0.0
 40
0.5773502692
 41
-3.1363566658
 42
-1.5707963268
  0
ELLIPSE
  5
871
100
AcDbEntity
  8
RACCORDO
100
AcDbEllipse
 62
7
  6
CONTINUOUS
 10
113.9597027864
 20
95.6145880976
 30
0.0
 11
0.5
 21
0.0
 31
0.0
 40
0.0524077793
 41
1.5707963268
 42
3.1357748894
  0
ELLIPSE
  5
872
100
AcDbEntity
  8
RACCORDO
100
AcDbEllipse
 62
7
  6
CONTINUOUS
 10
67.7673288929
 20
95.8724849271
 30
0.0
 11
0.4999993147
 21
0.0008278112
 31
0.0
 40
1.0
 41
0.7091615678
 42
1.5516874112
  0
ELLIPSE
  5
873
100
AcDbEntity
  8
RACCORDO
100
AcDbEllipse
 62
7
  6
CONTINUOUS
 10
67.7673288929
 20
140.0042834888
 30
0.0
 11
0.5
 21
-0.0
 31
0.0
 40
1.0
 41
-1.5533430343
 42
-0.7108171909
  0
ELLIPSE
  5
874
100
AcDbEntity
  8
RACCORDO
100
AcDbEllipse
 62
7
  6
CONTINUOUS
 10
62.7940550483
 20
95.7994269364
 30
0.0
 11
40.9260055454
 21
-2.1447038615
 31
0.0
 40
0.0122004293
 41
-1.7365403783
 42
-1.7056127072
  0
ELLIPSE
  5
875
100
AcDbEntity
  8
SCRITTE
100
AcDbEllipse
 62
253
  6
CONTINUOUS
 10
65.5173288929
 20
104.5895802079
 30
0.0
 11
0.0
 21
0.75
 31
0.0
 40
0.9996954135
 41
-1.5707963268
 42
1.5707963268
  0
ENDSEC
  0
SECTION
  2
OBJECTS
  0
DICTIONARY
  5
C
100
AcDbDictionary
280
0
281
1
  3
ACAD_GROUP
350
D
  3
ACAD_MLINESTYLE
350
17
  3
ACAD_LAYOUT
350
1A
  3
ACAD_PLOTSETTINGS
350
19
  3
ACAD_PLOTSTYLENAME
350
E
  0
DICTIONARY
  5
D
102
{ACAD_REACTORS
330
C
102
}
100
AcDbDictionary
280
0
281
1
  0
ACDBDICTIONARYWDFLT
  5
E
102
{ACAD_REACTORS
330
C
102
}
100
AcDbDictionary
281
1
  3
Normal
350
F
100
AcDbDictionaryWithDefault
340
F
  0
DICTIONARY
  5
17
102
{ACAD_REACTORS
330
C
102
}
100
AcDbDictionary
280
0
281
1
  3
Standard
350
18
  0
DICTIONARY
  5
19
102
{ACAD_REACTORS
330
C
102
}
100
AcDbDictionary
281
1
  0
DICTIONARY
  5
1A
102
{ACAD_REACTORS
330
C
102
}
100
AcDbDictionary
281
1
  3
Model
350
876
  3
Layout1
350
877
  0
ACDBPLACEHOLDER
  5
F
102
{ACAD_REACTORS
330
E
102
}
  0
MLINESTYLE
  5
18
102
{ACAD_REACTORS
330
17
102
}
100
AcDbMlineStyle
  2
STANDARD
 70
0
  3

 62
256
 51
90.0
 52
90.0
 71
2
 49
0.5
 62
256
  6
BYLAYER
 49
-0.5
 62
256
  6
BYLAYER
  0
LAYOUT
  5
876
102
{ACAD_REACTORS
330
1A
102
}
100
AcDbPlotSettings
  1

  2
none_device
  4
ISO_A4_(297.00_x_210.00_MM)
  6

 40
0.0
 41
0.0
 42
0.0
 43
0.0
 44
297.0
 45
210.0
 46
0.0
 47
0.0
 48
0.0
 49
0.0
140
0.0
141
0.0
142
1.0
143
1.0
 70
1024
 72
1
 73
0
 74
0
  7

 75
0
147
1.0
148
0.0
149
0.0
100
AcDbLayout
  1
Model
 70
0
 71
0
 10
0.0
 20
0.0
 11
297.0
 21
210.0
 12
0.0
 22
0.0
 32
0.0
 14
0.0
 24
0.0
 34
0.0
 15
0.0
 25
0.0
 35
0.0
146
0.0
 13
0.0
 23
0.0
 33
0.0
 16
1.0
 26
0.0
 36
0.0
 17
0.0
 27
1.0
 37
0.0
 76
0
330
21D
345
0
346
0
  0
LAYOUT
  5
877
102
{ACAD_REACTORS
330
1A
102
}
100
AcDbPlotSettings
  1

  2
none_device
  4
ISO_A4_(297.00_x_210.00_MM)
  6

 40
0.0
 41
0.0
 42
0.0
 43
0.0
 44
297.0
 45
210.0
 46
0.0
 47
0.0
 48
0.0
 49
0.0
140
0.0
141
0.0
142
1.0
143
1.0
 70
0
 72
1
 73
0
 74
0
  7

 75
0
147
1.0
148
0.0
149
0.0
100
AcDbLayout
  1
Layout1
 70
0
 71
1
 10
0.0
 20
0.0
 11
297.0
 21
210.0
 12
0.0
 22
0.0
 32
0.0
 14
0.0
 24
0.0
 34
0.0
 15
0.0
 25
0.0
 35
0.0
146
0.0
 13
0.0
 23
0.0
 33
0.0
 16
1.0
 26
0.0
 36
0.0
 17
0.0
 27
1.0
 37
0.0
 76
0
330
21E
345
0
346
0
  0
ENDSEC
  0
EOF
