  0
SECTION
  2
HEADER
  9
$ACADVER
  1
AC1024
  9
$DWGCODEPAGE
  3
ANSI_1252
  9
$EXTMAX
 10
297.0
 20
210.0
 30
0.0
  9
$EXTMIN
 10
0.0
 20
0.0
 30
0.0
  9
$LIMMIN
 10
0.0
 20
0.0
  9
$LIMMAX
 10
297.0
 20
210.0
  9
$VIEWCTR
 10
148.5
 20
105.0
  9
$VIEWSIZE
 40
210.0
  9
$CLAYER
  8
0
  9
$LTSCALE
 40
16.335
  9
$CELTYPE
  6
BYLAYER
  9
$DIMSCALE
 40
1.0
  9
$DIMASZ
 40
3.0
  9
$DIMEXO
 40
0.5
  9
$DIMDLI
 40
11.286
  9
$DIMEXE
 40
1.5
  9
$DIMCEN
 40
2.673
  9
$DIMLFAC
 40
1.0
  9
$DIMBLK
  1
_FILLED
  9
$DIMALT
 70
0
  9
$DIMALTF
 40
0.0393700787
  9
$DIMTXT
 40
3.0
  9
$DIMTOL
 70
1
  9
$DIMLIM
 70
0
  9
$DIMTFAC
 40
1.0
  9
$DIMTP
 40
0.01
  9
$DIMTM
 40
0.01
  9
$DIMGAP
 40
0.625
  9
$DIMDSEP
 70
44
  9
$AUNITS
 70
0
  9
$PDMODE
 70
3
  9
$PDSIZE
 40
3.0
  9
$HANDSEED
  5
7A3
  9
$TILEMODE
 70
1
  9
$MEASUREMENT
 70
1
  9
$INSUNITS
 70
4
  0
ENDSEC
  0
SECTION
  2
CLASSES
  0
CLASS
  1
ACDBDICTIONARYWDFLT
  2
AcDbDictionaryWithDefault
  3
AutoCAD 2000
 90
0
 91
1
280
0
281
0
  0
CLASS
  1
ACDBPLACEHOLDER
  2
AcDbPlaceHolder
  3
AutoCAD 2000
 90
0
 91
1
280
0
281
0
  0
CLASS
  1
LAYOUT
  2
AcDbLayout
  3
AutoCAD 2000
 90
0
 91
0
280
0
281
0
  0
ENDSEC
  0
SECTION
  2
TABLES
  0
TABLE
  2
VPORT
  5
8
100
AcDbSymbolTable
 70
2
  0
VPORT
  5
1F4
100
AcDbSymbolTableRecord
100
AcDbViewportTableRecord
  2
*ACTIVE
 70
0
 10
0.0
 20
0.0
 11
1.0
 21
1.0
 12
148.5
 22
105.0
 13
0.0
 23
0.0
 14
1.0
 24
1.0
 15
0.0
 25
0.0
 16
0.0
 26
0.0
 36
1.0
 17
0.0
 27
0.0
 37
0.0
 40
210.0
 41
1.4142857143
 42
50.0
 43
0.0
 44
0.0
 50
0.0
 51
0.0
 71
0
 72
100
 73
1
 74
1
 75
0
 76
0
 77
0
 78
0
  0
ENDTAB
  0
TABLE
  2
LTYPE
  5
5
100
AcDbSymbolTable
 70
6
  0
LTYPE
  5
14
100
AcDbSymbolTableRecord
100
AcDbLinetypeTableRecord
  2
BYBLOCK
 70
0
  3

 72
65
 73
0
 40
0.0
  0
LTYPE
  5
15
100
AcDbSymbolTableRecord
100
AcDbLinetypeTableRecord
  2
BYLAYER
 70
0
  3

 72
65
 73
0
 40
0.0
  0
LTYPE
  5
16
100
AcDbSymbolTableRecord
100
AcDbLinetypeTableRecord
  2
CONTINUOUS
 70
64
  3
Solid line
 72
65
 73
0
 40
0.0
  0
LTYPE
  5
1F5
100
AcDbSymbolTableRecord
100
AcDbLinetypeTableRecord
  2
CENTER
 70
64
  3
____ _ ____ _ ____ _ ____ _ ____ _ ____ _ ____
 72
65
 73
4
 40
0.6
 49
0.375
 74
0
 49
-0.075
 74
0
 49
0.075
 74
0
 49
-0.075
 74
0
  0
LTYPE
  5
1F6
100
AcDbSymbolTableRecord
100
AcDbLinetypeTableRecord
  2
HIDDEN
 70
64
  3
- - - - - - - - - - - - - - - - - - - -
 72
65
 73
2
 40
0.2
 49
0.1
 74
0
 49
-0.1
 74
0
  0
LTYPE
  5
1F7
100
AcDbSymbolTableRecord
100
AcDbLinetypeTableRecord
  2
PHANTOM
 70
64
  3
_____ _ _ _____ _ _ _____ _ _ _____
 72
65
 73
6
 40
0.8
 49
0.45
 74
0
 49
-0.05
 74
0
 49
0.1
 74
0
 49
-0.05
 74
0
 49
0.1
 74
0
 49
-0.05
 74
0
  0
LTYPE
  5
1F8
100
AcDbSymbolTableRecord
100
AcDbLinetypeTableRecord
  2
DOT
 70
64
  3
. . . . . . . . . . . . . . . . . . . .
 72
65
 73
2
 40
0.2
 49
0.1
 74
0
 49
-0.1
 74
0
  0
LTYPE
  5
1F9
100
AcDbSymbolTableRecord
100
AcDbLinetypeTableRecord
  2
DASHED
 70
64
  3
- - - - - - - - - - - - - - - - - - - -
 72
65
 73
2
 40
0.2
 49
0.1
 74
0
 49
-0.1
 74
0
  0
ENDTAB
  0
TABLE
  2
LAYER
  5
2
100
AcDbSymbolTable
 70
36
  0
LAYER
  5
10
100
AcDbSymbolTableRecord
100
AcDbLayerTableRecord
  2
0
 70
0
 62
7
  6
CONTINUOUS
370
-3
390
F
  0
LAYER
  5
1FA
100
AcDbSymbolTableRecord
100
AcDbLayerTableRecord
  2
DEFAULT_1
 70
0
 62
7
  6
CENTER
370
-3
390
F
  0
LAYER
  5
1FB
100
AcDbSymbolTableRecord
100
AcDbLayerTableRecord
  2
DEFAULT_2
 70
0
 62
7
  6
HIDDEN
370
-3
390
F
  0
LAYER
  5
1FC
100
AcDbSymbolTableRecord
100
AcDbLayerTableRecord
  2
DEFAULT_3
 70
0
 62
7
  6
PHANTOM
370
-3
390
F
  0
LAYER
  5
1FD
100
AcDbSymbolTableRecord
100
AcDbLayerTableRecord
  2
ASSI
 70
0
 62
7
  6
CONTINUOUS
370
-3
390
F
  0
LAYER
  5
1FE
100
AcDbSymbolTableRecord
100
AcDbLayerTableRecord
  2
COORDINATE
 70
0
 62
7
  6
CONTINUOUS
370
-3
390
F
  0
LAYER
  5
1FF
100
AcDbSymbolTableRecord
100
AcDbLayerTableRecord
  2
COORD_ORIGINE
 70
0
 62
7
  6
CONTINUOUS
370
-3
390
F
  0
LAYER
  5
200
100
AcDbSymbolTableRecord
100
AcDbLayerTableRecord
  2
COSMETICHE
 70
0
 62
7
  6
CONTINUOUS
370
-3
390
F
  0
LAYER
  5
201
100
AcDbSymbolTableRecord
100
AcDbLayerTableRecord
  2
CURVE
 70
0
 62
7
  6
CONTINUOUS
370
-3
390
F
  0
LAYER
  5
202
100
AcDbSymbolTableRecord
100
AcDbLayerTableRecord
  2
DRAFT
 70
0
 62
7
  6
CONTINUOUS
370
-3
390
F
  0
LAYER
  5
203
100
AcDbSymbolTableRecord
100
AcDbLayerTableRecord
  2
IMPORT_INC
 70
0
 62
7
  6
CONTINUOUS
370
-3
390
F
  0
LAYER
  5
204
100
AcDbSymbolTableRecord
100
AcDbLayerTableRecord
  2
INTF_1
 70
0
 62
7
  6
CONTINUOUS
370
-3
390
F
  0
LAYER
  5
205
100
AcDbSymbolTableRecord
100
AcDbLayerTableRecord
  2
INTF_11
 70
0
 62
7
  6
CONTINUOUS
370
-3
390
F
  0
LAYER
  5
206
100
AcDbSymbolTableRecord
100
AcDbLayerTableRecord
  2
INTF_GREEN
 70
0
 62
7
  6
CONTINUOUS
370
-3
390
F
  0
LAYER
  5
207
100
AcDbSymbolTableRecord
100
AcDbLayerTableRecord
  2
NOTE
 70
0
 62
7
  6
CONTINUOUS
370
-3
390
F
  0
LAYER
  5
208
100
AcDbSymbolTableRecord
100
AcDbLayerTableRecord
  2
PIANI
 70
0
 62
7
  6
CONTINUOUS
370
-3
390
F
  0
LAYER
  5
209
100
AcDbSymbolTableRecord
100
AcDbLayerTableRecord
  2
PIANI_ORIGINE
 70
0
 62
7
  6
CONTINUOUS
370
-3
390
F
  0
LAYER
  5
20A
100
AcDbSymbolTableRecord
100
AcDbLayerTableRecord
  2
PIANI_RIFERIMENTO
 70
0
 62
7
  6
CONTINUOUS
370
-3
390
F
  0
LAYER
  5
20B
100
AcDbSymbolTableRecord
100
AcDbLayerTableRecord
  2
PIANI_SFORMO
 70
0
 62
7
  6
CONTINUOUS
370
-3
390
F
  0
LAYER
  5
20C
100
AcDbSymbolTableRecord
100
AcDbLayerTableRecord
  2
PUNTI
 70
0
 62
7
  6
CONTINUOUS
370
-3
390
F
  0
LAYER
  5
20D
100
AcDbSymbolTableRecord
100
AcDbLayerTableRecord
  2
RACCORDO
 70
0
 62
7
  6
CONTINUOUS
370
-3
390
F
  0
LAYER
  5
20E
100
AcDbSymbolTableRecord
100
AcDbLayerTableRecord
  2
SMUSSO
 70
0
 62
7
  6
CONTINUOUS
370
-3
390
F
  0
LAYER
  5
20F
100
AcDbSymbolTableRecord
100
AcDbLayerTableRecord
  2
SUPERFICI
 70
0
 62
7
  6
CONTINUOUS
370
-3
390
F
  0
LAYER
  5
210
100
AcDbSymbolTableRecord
100
AcDbLayerTableRecord
  2
TRASH
 70
0
 62
7
  6
CONTINUOUS
370
-3
390
F
  0
LAYER
  5
211
100
AcDbSymbolTableRecord
100
AcDbLayerTableRecord
  2
XSEC_DATUMS
 70
0
 62
7
  6
CONTINUOUS
370
-3
390
F
  0
ENDTAB
  0
TABLE
  2
STYLE
  5
3
100
AcDbSymbolTable
 70
1
  0
STYLE
  5
11
100
AcDbSymbolTableRecord
100
AcDbTextStyleTableRecord
  2
STANDARD
 70
0
 40
0.0
 41
0.8
 50
0.0
 71
0
 42
0.2
  3
txt
  4

  0
STYLE
  5
212
100
AcDbSymbolTableRecord
100
AcDbTextStyleTableRecord
  2
TEXTSTYLE_1
 70
0
 40
0.0
 41
0.8
 50
0.0
 71
0
 42
0.2
  3
gdt
  4

  0
ENDTAB
  0
TABLE
  2
VIEW
  5
6
100
AcDbSymbolTable
 70
0
  0
ENDTAB
  0
TABLE
  2
UCS
  5
7
100
AcDbSymbolTable
 70
0
  0
ENDTAB
  0
TABLE
  2
APPID
  5
9
100
AcDbSymbolTable
 70
1
  0
APPID
  5
213
100
AcDbSymbolTableRecord
100
AcDbRegAppTableRecord
  2
ACAD
 70
0
  0
ENDTAB
  0
TABLE
  2
BLOCK_RECORD
  5
1
100
AcDbSymbolTable
 70
0
  0
BLOCK_RECORD
  5
214
100
AcDbSymbolTableRecord
100
AcDbBlockTableRecord
  2
*Model_Space
  0
BLOCK_RECORD
  5
215
100
AcDbSymbolTableRecord
100
AcDbBlockTableRecord
  2
*Paper_Space
  0
BLOCK_RECORD
  5
216
100
AcDbSymbolTableRecord
100
AcDbBlockTableRecord
  2
_FILLED
  0
BLOCK_RECORD
  5
217
100
AcDbSymbolTableRecord
100
AcDbBlockTableRecord
  2
*D0
  0
BLOCK_RECORD
  5
218
100
AcDbSymbolTableRecord
100
AcDbBlockTableRecord
  2
*D1
  0
BLOCK_RECORD
  5
219
100
AcDbSymbolTableRecord
100
AcDbBlockTableRecord
  2
*D2
  0
BLOCK_RECORD
  5
21A
100
AcDbSymbolTableRecord
100
AcDbBlockTableRecord
  2
*D3
  0
ENDTAB
  0
TABLE
  2
DIMSTYLE
  5
A
100
AcDbSymbolTable
 70
1
100
AcDbDimStyleTable
 71
0
  0
DIMSTYLE
105
21B
100
AcDbSymbolTableRecord
100
AcDbDimStyleTableRecord
  2
STANDARD
 70
0
  3

  4

 40
1.0
 41
3.0
 42
0.5
 43
0.38
 44
1.5
 45
0.0
 46
0.0
 47
0.01
 48
0.01
140
3.0
141
0.09
142
0.0
143
25.4
144
1.0
145
0.0
146
1.0
147
0.625
 71
1
 72
0
 73
0
 74
0
 75
0
 76
0
 77
1
 78
8
 79
2
170
0
171
1
172
0
173
0
174
0
175
0
176
0
177
0
178
0
270
2
179
2
271
2
272
2
273
2
274
2
275
0
280
0
281
0
282
0
283
1
284
8
285
0
286
0
287
3
288
0
340
11
278
44
341
216
342
216
343
216
344
216
  0
DIMSTYLE
105
21C
100
AcDbSymbolTableRecord
100
AcDbDimStyleTableRecord
  2
DIMSTYLE_1
 70
0
  3

  4

 40
1.0
 41
3.0
 42
0.5
 43
0.38
 44
1.5
 45
0.0
 46
0.0
 47
0.0
 48
0.0
140
3.0
141
0.09
142
0.0
143
25.4
144
1.0
145
0.0
146
1.0
147
0.75
 71
0
 72
0
 73
0
 74
0
 75
0
 76
0
 77
1
 78
8
 79
2
170
0
171
1
172
0
173
0
174
0
175
0
176
0
177
0
178
0
270
2
179
2
271
2
272
2
273
2
274
2
275
0
280
0
281
0
282
0
283
1
284
8
285
0
286
0
287
3
288
0
340
11
278
44
341
216
342
216
343
216
344
216
  0
ENDTAB
  0
ENDSEC
  0
SECTION
  2
BLOCKS
  0
BLOCK
  5
20
100
AcDbEntity
  8
0
100
AcDbBlockBegin
  2
*Model_Space
 70
0
 10
0.0
 20
0.0
 30
0.0
  3
*Model_Space
  1

  0
ENDBLK
  5
21
100
AcDbEntity
  8
0
100
AcDbBlockEnd
  0
BLOCK
  5
1C
100
AcDbEntity
  8
0
100
AcDbBlockBegin
  2
*Paper_Space
 70
0
 10
0.0
 20
0.0
 30
0.0
  3
*Paper_Space
  1

  0
ENDBLK
  5
1D
100
AcDbEntity
  8
0
100
AcDbBlockEnd
  0
BLOCK
  5
21D
100
AcDbEntity
  8
0
100
AcDbBlockBegin
  2
_FILLED
 70
64
 10
0.0
 20
0.0
  3
_FILLED
  1

  0
SOLID
  5
21E
100
AcDbEntity
  8
0
  6
BYBLOCK
 62
0
100
AcDbTrace
 10
0.0
 20
0.0
 11
-1.0
 21
0.3166666667
 12
-1.0
 22
-0.3166666667
 13
-1.0
 23
-0.3166666667
  0
ENDBLK
  5
21F
100
AcDbEntity
  8
0
  6
BYBLOCK
 62
0
100
AcDbBlockEnd
  0
BLOCK
  5
220
100
AcDbEntity
  8
0
100
AcDbBlockBegin
 62
7
  6
CONTINUOUS
  2
*D0
 70
65
 10
0.0
 20
0.0
  3
*D0
  1

  0
MTEXT
  5
221
100
AcDbEntity
  8
0
100
AcDbMText
 62
7
  6
CONTINUOUS
  7
STANDARD
 71
2
 72
1
 10
5.25
 20
35.5602801062
 30
0.0
 11
1.0
 21
0.0
 31
0.0
 73
2
 44
0.9
  1
{\ftxt;\W0.0001;\H0.0001;\~}{\ftxt;\W1.5714285714;\H3.0; }{\ftxt;\W0.0001;\H0.0001;\~}
 40
3.0
 41
7.0714285714
  0
LINE
  5
222
100
AcDbEntity
  8
0
100
AcDbLine
 62
7
  6
CONTINUOUS
 10
18.25
 20
15.8001217843
 11
18.25
 21
33.3102801062
  0
LINE
  5
223
100
AcDbEntity
  8
0
100
AcDbLine
 62
7
  6
CONTINUOUS
 10
-7.75
 20
24.7456323968
 11
-7.75
 21
33.3102801062
  0
LINE
  5
224
100
AcDbEntity
  8
0
100
AcDbLine
 62
7
  6
CONTINUOUS
 10
18.25
 20
31.8102801062
 11
5.25
 21
31.8102801062
  0
LINE
  5
225
100
AcDbEntity
  8
0
100
AcDbLine
 62
7
  6
CONTINUOUS
 10
-7.75
 20
31.8102801062
 11
5.25
 21
31.8102801062
  0
INSERT
  5
226
100
AcDbEntity
  8
0
100
AcDbBlockReference
 62
7
  6
CONTINUOUS
  2
_FILLED
 10
18.25
 20
31.8102801062
 41
3.0
 42
3.0
 43
3.0
  0
INSERT
  5
227
100
AcDbEntity
  8
0
100
AcDbBlockReference
 62
7
  6
CONTINUOUS
  2
_FILLED
 10
-7.75
 20
31.8102801062
 41
3.0
 42
3.0
 43
3.0
 50
180.0
  0
ENDBLK
  5
228
100
AcDbEntity
  8
0
  6
BYBLOCK
 62
0
100
AcDbBlockEnd
  0
BLOCK
  5
229
100
AcDbEntity
  8
0
100
AcDbBlockBegin
 62
7
  6
CONTINUOUS
  2
*D1
 70
65
 10
0.0
 20
0.0
  3
*D1
  1

  0
MTEXT
  5
22A
100
AcDbEntity
  8
0
100
AcDbMText
 62
7
  6
CONTINUOUS
  7
STANDARD
 71
2
 72
1
 10
-0.0
 20
44.8491398184
 30
0.0
 11
1.0
 21
0.0
 31
0.0
 73
2
 44
0.9
  1
{\ftxt;\W0.0001;\H0.0001;\~}{\ftxt;\W2.7857142857;\H3.0; }{\ftxt;\W0.0001;\H0.0001;\~}
 40
3.0
 41
12.5357142857
  0
LINE
  5
22B
100
AcDbEntity
  8
0
100
AcDbLine
 62
7
  6
CONTINUOUS
 10
18.25
 20
15.8001217843
 11
18.25
 21
42.5991398184
  0
LINE
  5
22C
100
AcDbEntity
  8
0
100
AcDbLine
 62
7
  6
CONTINUOUS
 10
-18.25
 20
0.5
 11
-18.25
 21
42.5991398184
  0
LINE
  5
22D
100
AcDbEntity
  8
0
100
AcDbLine
 62
7
  6
CONTINUOUS
 10
18.25
 20
41.0991398184
 11
-0.0
 21
41.0991398184
  0
LINE
  5
22E
100
AcDbEntity
  8
0
100
AcDbLine
 62
7
  6
CONTINUOUS
 10
-18.25
 20
41.0991398184
 11
-0.0
 21
41.0991398184
  0
INSERT
  5
22F
100
AcDbEntity
  8
0
100
AcDbBlockReference
 62
7
  6
CONTINUOUS
  2
_FILLED
 10
18.25
 20
41.0991398184
 41
3.0
 42
3.0
 43
3.0
  0
INSERT
  5
230
100
AcDbEntity
  8
0
100
AcDbBlockReference
 62
7
  6
CONTINUOUS
  2
_FILLED
 10
-18.25
 20
41.0991398184
 41
3.0
 42
3.0
 43
3.0
 50
180.0
  0
ENDBLK
  5
231
100
AcDbEntity
  8
0
  6
BYBLOCK
 62
0
100
AcDbBlockEnd
  0
BLOCK
  5
232
100
AcDbEntity
  8
0
100
AcDbBlockBegin
 62
7
  6
CONTINUOUS
  2
*D2
 70
65
 10
0.0
 20
0.0
  3
*D2
  1

  0
MTEXT
  5
233
100
AcDbEntity
  8
0
100
AcDbMText
 62
7
  6
CONTINUOUS
  7
STANDARD
 71
2
 72
1
 10
55.0
 20
38.8718043889
 30
0.0
 11
1.0
 21
0.0
 31
0.0
 73
2
 44
0.9
  1
{\ftxt;\W0.0001;\H0.0001;\~}{\ftxt;\W2.8571428571;\H3.0; }{\ftxt;\W0.0001;\H0.0001;\~}
 40
3.0
 41
12.8571428571
  0
LINE
  5
234
100
AcDbEntity
  8
0
100
AcDbLine
 62
7
  6
CONTINUOUS
 10
43.85
 20
22.4411874598
 11
43.85
 21
36.6218043889
  0
LINE
  5
235
100
AcDbEntity
  8
0
100
AcDbLine
 62
7
  6
CONTINUOUS
 10
66.15
 20
22.4411874598
 11
66.15
 21
36.6218043889
  0
LINE
  5
236
100
AcDbEntity
  8
0
100
AcDbLine
 62
7
  6
CONTINUOUS
 10
43.85
 20
35.1218043889
 11
55.0
 21
35.1218043889
  0
LINE
  5
237
100
AcDbEntity
  8
0
100
AcDbLine
 62
7
  6
CONTINUOUS
 10
66.15
 20
35.1218043889
 11
55.0
 21
35.1218043889
  0
INSERT
  5
238
100
AcDbEntity
  8
0
100
AcDbBlockReference
 62
7
  6
CONTINUOUS
  2
_FILLED
 10
43.85
 20
35.1218043889
 41
3.0
 42
3.0
 43
3.0
 50
180.0
  0
INSERT
  5
239
100
AcDbEntity
  8
0
100
AcDbBlockReference
 62
7
  6
CONTINUOUS
  2
_FILLED
 10
66.15
 20
35.1218043889
 41
3.0
 42
3.0
 43
3.0
  0
ENDBLK
  5
23A
100
AcDbEntity
  8
0
  6
BYBLOCK
 62
0
100
AcDbBlockEnd
  0
BLOCK
  5
23B
100
AcDbEntity
  8
0
100
AcDbBlockBegin
 62
7
  6
CONTINUOUS
  2
*D3
 70
65
 10
0.0
 20
0.0
  3
*D3
  1

  0
MTEXT
  5
23C
100
AcDbEntity
  8
0
100
AcDbMText
 62
7
  6
CONTINUOUS
  7
STANDARD
 71
2
 72
1
 10
73.6307239665
 20
0.0
 30
0.0
 11
0.0
 21
1.0
 31
0.0
 73
2
 44
0.9
  1
{\ftxt;\W0.0001;\H0.0001;\~}{\ftxt;\W1.5714285714;\H3.0; }{\ftxt;\W0.0001;\H0.0001;\~}
 40
3.0
 41
7.0714285714
  0
LINE
  5
23D
100
AcDbEntity
  8
0
100
AcDbLine
 62
7
  6
CONTINUOUS
 10
65.9000042308
 20
24.5
 11
78.8807239665
 21
24.5
  0
LINE
  5
23E
100
AcDbEntity
  8
0
100
AcDbLine
 62
7
  6
CONTINUOUS
 10
65.9000042308
 20
-24.5
 11
78.8807239665
 21
-24.5
  0
LINE
  5
23F
100
AcDbEntity
  8
0
100
AcDbLine
 62
7
  6
CONTINUOUS
 10
77.3807239665
 20
24.5
 11
77.3807239665
 21
0.0
  0
LINE
  5
240
100
AcDbEntity
  8
0
100
AcDbLine
 62
7
  6
CONTINUOUS
 10
77.3807239665
 20
-24.5
 11
77.3807239665
 21
0.0
  0
INSERT
  5
241
100
AcDbEntity
  8
0
100
AcDbBlockReference
 62
7
  6
CONTINUOUS
  2
_FILLED
 10
77.3807239665
 20
24.5
 41
3.0
 42
3.0
 43
3.0
 50
90.0
  0
INSERT
  5
242
100
AcDbEntity
  8
0
100
AcDbBlockReference
 62
7
  6
CONTINUOUS
  2
_FILLED
 10
77.3807239665
 20
-24.5
 41
3.0
 42
3.0
 43
3.0
 50
270.0
  0
ENDBLK
  5
243
100
AcDbEntity
  8
0
  6
BYBLOCK
 62
0
100
AcDbBlockEnd
  0
ENDSEC
  0
SECTION
  2
ENTITIES
  0
DIMENSION
  5
244
100
AcDbEntity
  8
0
100
AcDbDimension
 62
7
  6
CONTINUOUS
  2
*D0
 10
-7.75
 20
31.8102801062
 11
4.8214285254
 21
31.8102801062
 70
160
 71
2
 72
2
 41
0.9
 42
26.0
  1
{\ftxt;\W0.0001;\H0.0001;\~}{\ftxt;\W1.5714285714;\H3.0; }{\ftxt;\W0.0001;\H0.0001;\~}
  3
DIMSTYLE_1
100
AcDbAlignedDimension
 13
18.25
 23
15.3001217843
 14
-7.75
 24
24.2456323968
 50
180.0
100
AcDbRotatedDimension
  0
DIMENSION
  5
245
100
AcDbEntity
  8
0
100
AcDbDimension
 62
7
  6
CONTINUOUS
  2
*D1
 10
-18.25
 20
41.0991398184
 11
-0.4285715189
 21
41.0991398184
 70
160
 71
2
 72
2
 41
0.9
 42
36.5
  1
{\ftxt;\W0.0001;\H0.0001;\~}{\ftxt;\W2.7857142857;\H3.0; }{\ftxt;\W0.0001;\H0.0001;\~}
  3
DIMSTYLE_1
100
AcDbAlignedDimension
 13
18.25
 23
15.3001217843
 14
-18.25
 24
0.0
 50
180.0
100
AcDbRotatedDimension
  0
DIMENSION
  5
246
100
AcDbEntity
  8
0
100
AcDbDimension
 62
7
  6
CONTINUOUS
  2
*D2
 10
66.15
 20
35.1218043889
 11
54.5714296875
 21
35.1218043889
 70
160
 71
2
 72
2
 41
0.9
 42
22.3
  1
{\ftxt;\W0.0001;\H0.0001;\~}{\ftxt;\W2.8571428571;\H3.0; }{\ftxt;\W0.0001;\H0.0001;\~}
  3
DIMSTYLE_1
100
AcDbAlignedDimension
 13
43.85
 23
21.9411874598
 14
66.15
 24
21.9411874598
100
AcDbRotatedDimension
  0
DIMENSION
  5
247
100
AcDbEntity
  8
0
100
AcDbDimension
 62
7
  6
CONTINUOUS
  2
*D3
 10
77.3807239665
 20
-24.5
 11
77.3807239665
 21
-0.4285706659
 70
160
 71
2
 72
2
 41
0.9
 42
49.0
  1
{\ftxt;\W0.0001;\H0.0001;\~}{\ftxt;\W1.5714285714;\H3.0; }{\ftxt;\W0.0001;\H0.0001;\~}
  3
DIMSTYLE_1
100
AcDbAlignedDimension
 13
65.4000042308
 23
24.5
 14
65.4000042308
 24
-24.5
 50
270.0
100
AcDbRotatedDimension
  0
LWPOLYLINE
  5
248
100
AcDbEntity
  8
0
100
AcDbPolyline
 62
7
  6
CONTINUOUS
 90
5
 70
0
 43
0.3500000006
 10
57.9999995728
 20
37.5860892792
 10
58.3571418915
 20
37.800373764
 10
58.3571418915
 20
38.4432317505
 10
57.9999995728
 20
38.8718052521
 10
57.1428571014
 20
38.8718052521
  0
LINE
  5
249
100
AcDbEntity
  8
RACCORDO
100
AcDbLine
 62
250
  6
CONTINUOUS
 10
46.5000042308
 20
24.5
 11
46.4869056521
 21
24.4869014213
  0
LINE
  5
24A
100
AcDbEntity
  8
RACCORDO
100
AcDbLine
 62
7
  6
CONTINUOUS
 10
44.1163329471
 20
22.3525028251
 11
44.0988346912
 21
22.3437543634
  0
LINE
  5
24B
100
AcDbEntity
  8
RACCORDO
100
AcDbLine
 62
250
  6
CONTINUOUS
 10
43.8674208399
 20
21.9498972163
 11
43.85
 21
21.9411874598
  0
LWPOLYLINE
  5
24C
100
AcDbEntity
  8
RACCORDO
100
AcDbPolyline
 62
7
  6
CONTINUOUS
 90
11
 70
0
 10
44.1163329483
 20
22.3525028256
 10
44.1304021367
 20
22.359234736
 10
44.1500831736
 20
22.3676758378
 10
44.1701446243
 20
22.375171463
 10
44.1905416196
 20
22.3817045428
 10
44.2112194206
 20
22.3872578746
 10
44.2321397048
 20
22.3918214941
 10
44.2532820601
 20
22.3953886342
 10
44.2746081976
 20
22.3979479162
 10
44.2960611354
 20
22.3994876122
 10
44.3175921576
 20
22.4
  0
LWPOLYLINE
  5
24D
100
AcDbEntity
  8
RACCORDO
100
AcDbPolyline
 62
7
  6
CONTINUOUS
 90
23
 70
0
 10
50.7037926863
 20
-23.7953389668
 10
50.7145818097
 20
-23.7947915649
 10
50.7256692719
 20
-23.793363895
 10
50.7370550728
 20
-23.7911364879
 10
50.7487638531
 20
-23.7881978965
 10
50.760770972
 20
-23.7846238716
 10
50.773002508
 20
-23.7804595132
 10
50.7854512482
 20
-23.7757643703
 10
50.7981244054
 20
-23.7706018097
 10
50.8109696956
 20
-23.7649953104
 10
50.8239828277
 20
-23.758990232
 10
50.8371680928
 20
-23.7526365647
 10
50.8504860797
 20
-23.7459460582
 10
50.8639345667
 20
-23.7389542831
 10
50.8775157756
 20
-23.7317013921
 10
50.8911969604
 20
-23.724193673
 10
50.9049770721
 20
-23.7164601879
 10
50.9188571598
 20
-23.708533951
 10
50.9328076244
 20
-23.7004191901
 10
50.946828225
 20
-23.6921405291
 10
50.9609192024
 20
-23.6837259593
 10
50.9750516799
 20
-23.6751796798
 10
51.0034418162
 20
-23.6577812011
  0
LWPOLYLINE
  5
24E
100
AcDbEntity
  8
RACCORDO
100
AcDbPolyline
 62
250
  6
CONTINUOUS
 90
31
 70
0
 10
65.3869056521
 20
-24.4869014213
 10
65.3999920062
 20
-24.4865582323
 10
65.4130425045
 20
-24.4855304893
 10
65.4260213619
 20
-24.4838210061
 10
65.4388930016
 20
-24.4814344634
 10
65.4516221155
 20
-24.4783774023
 10
65.464173763
 20
-24.4746582128
 10
65.4765135191
 20
-24.4702870977
 10
65.4886075563
 20
-24.4652760422
 10
65.5004227019
 20
-24.4596387939
 10
65.5119265577
 20
-24.4533908148
 10
65.5230875837
 20
-24.446549239
 10
65.533875174
 20
-24.4391328321
 10
65.5442597633
 20
-24.4311619239
 10
65.5542128667
 20
-24.4226583824
 10
65.5637071599
 20
-24.4136455633
 10
65.5727165817
 20
-24.4041482289
 10
65.5812164786
 20
-24.3941923917
 10
65.5891836209
 20
-24.3838052658
 10
65.5965962509
 20
-24.3730151866
 10
65.6034339327
 20
-24.3618518682
 10
65.6096777344
 20
-24.3503462678
 10
65.615310483
 20
-24.3385301896
 10
65.6203169129
 20
-24.3264358334
 10
65.624683464
 20
-24.3140960295
 10
65.6283989037
 20
-24.3015418449
 10
65.6314520171
 20
-24.2888103798
 10
65.6338331472
 20
-24.275944661
 10
65.6355367515
 20
-24.2629828864
 10
65.6365600141
 20
-24.249957992
 10
65.6369014213
 20
-24.2369056521
  0
LWPOLYLINE
  5
24F
100
AcDbEntity
  8
RACCORDO
100
AcDbPolyline
 62
250
  6
CONTINUOUS
 90
31
 70
0
 10
46.4869056521
 20
-24.4869014213
 10
46.499957992
 20
-24.4865600141
 10
46.5129828864
 20
-24.4855367515
 10
46.525944661
 20
-24.4838331472
 10
46.5388103798
 20
-24.4814520171
 10
46.5515418449
 20
-24.4783989037
 10
46.5640960295
 20
-24.474683464
 10
46.5764358334
 20
-24.4703169129
 10
46.5885301896
 20
-24.465310483
 10
46.6003462678
 20
-24.4596777344
 10
46.6118518682
 20
-24.4534339327
 10
46.6230151866
 20
-24.4465962509
 10
46.6338052658
 20
-24.4391836209
 10
46.6441923917
 20
-24.4312164786
 10
46.6541482289
 20
-24.4227165817
 10
46.6636455633
 20
-24.4137071599
 10
46.6726583824
 20
-24.4042128667
 10
46.6811619239
 20
-24.3942597633
 10
46.6891328321
 20
-24.383875174
 10
46.696549239
 20
-24.3730875837
 10
46.7033908148
 20
-24.3619265577
 10
46.7096387939
 20
-24.3504227019
 10
46.7152760422
 20
-24.3386075563
 10
46.7202870977
 20
-24.3265135191
 10
46.7246582128
 20
-24.314173763
 10
46.7283774023
 20
-24.3016221155
 10
46.7314344634
 20
-24.2888930016
 10
46.7338210061
 20
-24.2760213619
 10
46.7355304893
 20
-24.2630425045
 10
46.7365582323
 20
-24.2499920062
 10
46.7369014213
 20
-24.2369056521
  0
LWPOLYLINE
  5
250
100
AcDbEntity
  8
RACCORDO
100
AcDbPolyline
 62
7
  6
CONTINUOUS
 90
34
 70
0
 10
65.4000042308
 20
-24.5
 10
65.411899516
 20
-24.4997168498
 10
65.4237678556
 20
-24.4988680342
 10
65.4355823661
 20
-24.4974554741
 10
65.4473162875
 20
-24.4954823677
 10
65.4589430388
 20
-24.4929531817
 10
65.470436279
 20
-24.4898736417
 10
65.4817699738
 20
-24.4862507213
 10
65.4929184493
 20
-24.4820926258
 10
65.5038564463
 20
-24.4774087722
 10
65.5145591876
 20
-24.4722097688
 10
65.5250024283
 20
-24.4665073916
 10
65.5351625059
 20
-24.4603145581
 10
65.5450164051
 20
-24.4536452955
 10
65.5545418038
 20
-24.4465147107
 10
65.5637171191
 20
-24.4389389589
 10
65.5725215661
 20
-24.4309352005
 10
65.5809352005
 20
-24.4225215661
 10
65.5889389589
 20
-24.4137171191
 10
65.5965147107
 20
-24.4045418038
 10
65.6036452955
 20
-24.3950164051
 10
65.6103145581
 20
-24.3851625059
 10
65.6165073916
 20
-24.3750024283
 10
65.6222097688
 20
-24.3645591876
 10
65.6274087722
 20
-24.3538564463
 10
65.6320926258
 20
-24.3429184493
 10
65.6362507213
 20
-24.3317699738
 10
65.6398736417
 20
-24.320436279
 10
65.6429531817
 20
-24.3089430388
 10
65.6454823677
 20
-24.2973162875
 10
65.6474554741
 20
-24.2855823661
 10
65.6488680342
 20
-24.2737678556
 10
65.6497168498
 20
-24.261899516
 10
65.65
 20
-24.2500042308
  0
LWPOLYLINE
  5
251
100
AcDbEntity
  8
RACCORDO
100
AcDbPolyline
 62
7
  6
CONTINUOUS
 90
34
 70
0
 10
46.5000042308
 20
-24.5
 10
46.511899516
 20
-24.4997168498
 10
46.5237678556
 20
-24.4988680342
 10
46.5355823661
 20
-24.4974554741
 10
46.5473162875
 20
-24.4954823677
 10
46.5589430388
 20
-24.4929531817
 10
46.570436279
 20
-24.4898736417
 10
46.5817699738
 20
-24.4862507213
 10
46.5929184493
 20
-24.4820926258
 10
46.6038564463
 20
-24.4774087722
 10
46.6145591876
 20
-24.4722097688
 10
46.6250024283
 20
-24.4665073916
 10
46.6351625059
 20
-24.4603145581
 10
46.6450164051
 20
-24.4536452955
 10
46.6545418038
 20
-24.4465147107
 10
46.6637171191
 20
-24.4389389589
 10
46.6725215661
 20
-24.4309352005
 10
46.6809352005
 20
-24.4225215661
 10
46.6889389589
 20
-24.4137171191
 10
46.6965147107
 20
-24.4045418038
 10
46.7036452955
 20
-24.3950164051
 10
46.7103145581
 20
-24.3851625059
 10
46.7165073916
 20
-24.3750024283
 10
46.7222097688
 20
-24.3645591876
 10
46.7274087722
 20
-24.3538564463
 10
46.7320926258
 20
-24.3429184493
 10
46.7362507213
 20
-24.3317699738
 10
46.7398736417
 20
-24.320436279
 10
46.7429531817
 20
-24.3089430388
 10
46.7454823677
 20
-24.2973162875
 10
46.7474554741
 20
-24.2855823661
 10
46.7488680342
 20
-24.2737678556
 10
46.7497168498
 20
-24.261899516
 10
46.75
 20
-24.2500042308
  0
LINE
  5
252
100
AcDbEntity
  8
RACCORDO
100
AcDbLine
 62
7
  6
CONTINUOUS
 10
65.4000042308
 20
-24.5
 11
63.4999957692
 21
-24.5
  0
LINE
  5
253
100
AcDbEntity
  8
RACCORDO
100
AcDbLine
 62
7
  6
CONTINUOUS
 10
46.5000042308
 20
-24.5
 11
44.5999957692
 21
-24.5
  0
LINE
  5
254
100
AcDbEntity
  8
RACCORDO
100
AcDbLine
 62
250
  6
CONTINUOUS
 10
44.6130943479
 20
-24.4869014213
 11
46.4869056521
 21
-24.4869014213
  0
LINE
  5
255
100
AcDbEntity
  8
RACCORDO
100
AcDbLine
 62
250
  6
CONTINUOUS
 10
63.5130943479
 20
-24.4869014213
 11
65.3869056521
 21
-24.4869014213
  0
LINE
  5
256
100
AcDbEntity
  8
RACCORDO
100
AcDbLine
 62
250
  6
CONTINUOUS
 10
44.3630985787
 20
-24.2369056521
 11
46.7369014213
 21
-24.2369056521
  0
LINE
  5
257
100
AcDbEntity
  8
RACCORDO
100
AcDbLine
 62
250
  6
CONTINUOUS
 10
63.2630985787
 20
-24.2369056521
 11
65.6369014213
 21
-24.2369056521
  0
LINE
  5
258
100
AcDbEntity
  8
RACCORDO
100
AcDbLine
 62
250
  6
CONTINUOUS
 10
44.3630985787
 20
-23.8443375673
 11
46.7369014213
 21
-23.8443375673
  0
LINE
  5
259
100
AcDbEntity
  8
RACCORDO
100
AcDbLine
 62
250
  6
CONTINUOUS
 10
63.2630985787
 20
-23.8443375673
 11
65.6369014213
 21
-23.8443375673
  0
LINE
  5
25A
100
AcDbEntity
  8
DRAFT
100
AcDbLine
 62
7
  6
CONTINUOUS
 10
59.4
 20
-23.8
 11
50.6
 21
-23.8
  0
LINE
  5
25B
100
AcDbEntity
  8
RACCORDO
100
AcDbLine
 62
250
  6
CONTINUOUS
 10
50.7037926863
 20
-23.7953389668
 11
59.2962073137
 21
-23.7953389668
  0
LINE
  5
25C
100
AcDbEntity
  8
RACCORDO
100
AcDbLine
 62
250
  6
CONTINUOUS
 10
65.3869056521
 20
-23.6278312164
 11
63.5130943479
 21
-23.6278312164
  0
LINE
  5
25D
100
AcDbEntity
  8
RACCORDO
100
AcDbLine
 62
250
  6
CONTINUOUS
 10
46.4869056521
 20
-23.6278312164
 11
44.6130943479
 21
-23.6278312164
  0
LINE
  5
25E
100
AcDbEntity
  8
RACCORDO
100
AcDbLine
 62
250
  6
CONTINUOUS
 10
51.1029173766
 20
-23.5953423515
 11
58.8970826234
 21
-23.5953423515
  0
LINE
  5
25F
100
AcDbEntity
  8
RACCORDO
100
AcDbLine
 62
7
  6
CONTINUOUS
 10
44.6080037468
 20
-23.1226497308
 11
46.4919962532
 21
-23.1226497308
  0
LINE
  5
260
100
AcDbEntity
  8
RACCORDO
100
AcDbLine
 62
7
  6
CONTINUOUS
 10
63.5080037468
 20
-23.1226497308
 11
65.3919962532
 21
-23.1226497308
  0
LWPOLYLINE
  5
261
100
AcDbEntity
  8
RACCORDO
100
AcDbPolyline
 62
7
  6
CONTINUOUS
 90
22
 70
0
 10
59.2962073137
 20
-23.7953389668
 10
59.2854181903
 20
-23.7947915649
 10
59.2743307281
 20
-23.793363895
 10
59.2629449272
 20
-23.7911364879
 10
59.2512361469
 20
-23.7881978965
 10
59.239229028
 20
-23.7846238716
 10
59.226997492
 20
-23.7804595132
 10
59.2145487518
 20
-23.7757643703
 10
59.2018755946
 20
-23.7706018097
 10
59.1890303044
 20
-23.7649953104
 10
59.1760171723
 20
-23.758990232
 10
59.1628319072
 20
-23.7526365647
 10
59.1495139203
 20
-23.7459460582
 10
59.1360654333
 20
-23.7389542831
 10
59.1224842244
 20
-23.7317013921
 10
59.1088030396
 20
-23.724193673
 10
59.0950229279
 20
-23.7164601879
 10
59.0811428402
 20
-23.708533951
 10
59.0671923756
 20
-23.7004191901
 10
59.053171775
 20
-23.6921405291
 10
59.0390807976
 20
-23.6837259593
 10
59.0249483201
 20
-23.6751796798
  0
LWPOLYLINE
  5
262
100
AcDbEntity
  8
RACCORDO
100
AcDbPolyline
 62
7
  6
CONTINUOUS
 90
11
 70
0
 10
44.116332617
 20
-22.35250266
 10
44.1304016557
 20
-22.3592345029
 10
44.1500827354
 20
-22.367675635
 10
44.1701442306
 20
-22.3751712897
 10
44.1905412729
 20
-22.3817043981
 10
44.2112191232
 20
-22.3872577575
 10
44.2321394591
 20
-22.3918214033
 10
44.2532818699
 20
-22.3953885686
 10
44.2746080672
 20
-22.3979478745
 10
44.2960610685
 20
-22.3994875925
 10
44.3175921576
 20
-22.4
  0
LINE
  5
263
100
AcDbEntity
  8
RACCORDO
100
AcDbLine
 62
7
  6
CONTINUOUS
 10
44.0988346912
 20
-22.3437543634
 11
44.1163326159
 21
-22.3525026595
  0
LINE
  5
264
100
AcDbEntity
  8
RACCORDO
100
AcDbLine
 62
250
  6
CONTINUOUS
 10
43.85
 20
-21.9411874598
 11
43.8674207187
 21
-21.9498971557
  0
LINE
  5
265
100
AcDbEntity
  8
RACCORDO
100
AcDbLine
 62
250
  6
CONTINUOUS
 10
46.5000042308
 20
-24.5
 11
46.4869056521
 21
-24.4869014213
  0
LWPOLYLINE
  5
266
100
AcDbEntity
  8
RACCORDO
100
AcDbPolyline
 62
250
  6
CONTINUOUS
 90
16
 70
0
 10
44.0173269609
 20
20.5419058565
 10
44.0182909605
 20
20.5428735536
 10
44.0203603119
 20
20.5438391069
 10
44.0235304309
 20
20.5448003773
 10
44.0277942946
 20
20.5457552353
 10
44.0331424573
 20
20.5467015656
 10
44.0395630711
 20
20.5476372719
 10
44.0470419124
 20
20.5485602812
 10
44.0555624132
 20
20.5494685487
 10
44.0651056979
 20
20.5503600625
 10
44.0756506252
 20
20.5512328474
 10
44.0871738348
 20
20.55208497
 10
44.0996497991
 20
20.5529145426
 10
44.11305088
 20
20.5537197274
 10
44.1273473899
 20
20.5544987407
 10
44.1425076577
 20
20.5552498567
  0
LINE
  5
267
100
AcDbEntity
  8
RACCORDO
100
AcDbLine
 62
250
  6
CONTINUOUS
 10
46.75
 20
24.2500042308
 11
46.7369014213
 21
24.2369056521
  0
LINE
  5
268
100
AcDbEntity
  8
RACCORDO
100
AcDbLine
 62
7
  6
CONTINUOUS
 10
65.682892023
 20
-22.4
 11
65.65
 21
-22.4
  0
LINE
  5
269
100
AcDbEntity
  8
DRAFT
100
AcDbLine
 62
7
  6
CONTINUOUS
 10
63.25
 20
-22.4
 11
59.4
 21
-22.4
  0
LINE
  5
26A
100
AcDbEntity
  8
DRAFT
100
AcDbLine
 62
7
  6
CONTINUOUS
 10
50.6
 20
-22.4
 11
46.75
 21
-22.4
  0
LINE
  5
26B
100
AcDbEntity
  8
RACCORDO
100
AcDbLine
 62
7
  6
CONTINUOUS
 10
44.35
 20
-22.4
 11
44.3171125252
 21
-22.4
  0
LINE
  5
26C
100
AcDbEntity
  8
RACCORDO
100
AcDbLine
 62
7
  6
CONTINUOUS
 10
58.8970826234
 20
-22.3475922207
 11
51.1029173766
 21
-22.3475922207
  0
LINE
  5
26D
100
AcDbEntity
  8
RACCORDO
100
AcDbLine
 62
7
  6
CONTINUOUS
 10
44.6072765181
 20
-22.3213883311
 11
46.4927234819
 21
-22.3213883311
  0
LINE
  5
26E
100
AcDbEntity
  8
RACCORDO
100
AcDbLine
 62
7
  6
CONTINUOUS
 10
63.5072765181
 20
-22.3213883311
 11
65.3927234819
 21
-22.3213883311
  0
LINE
  5
26F
100
AcDbEntity
  8
RACCORDO
100
AcDbLine
 62
250
  6
CONTINUOUS
 10
44.5007240378
 20
-21.998725222
 11
65.4992759622
 21
-21.998725222
  0
LINE
  5
270
100
AcDbEntity
  8
RACCORDO
100
AcDbLine
 62
250
  6
CONTINUOUS
 10
46.75
 20
-24.2500042308
 11
46.7369014213
 21
-24.2369056521
  0
LWPOLYLINE
  5
271
100
AcDbEntity
  8
RACCORDO
100
AcDbPolyline
 62
250
  6
CONTINUOUS
 90
17
 70
0
 10
44.0173269609
 20
-20.5419058565
 10
44.0182909605
 20
-20.5428735514
 10
44.0203603119
 20
-20.5438391026
 10
44.0235304309
 20
-20.544800371
 10
44.0277942946
 20
-20.5457552272
 10
44.0331424573
 20
-20.5467015558
 10
44.0395630712
 20
-20.5476372604
 10
44.0470419125
 20
-20.5485602682
 10
44.0555624133
 20
-20.5494685344
 10
44.065105698
 20
-20.5503600469
 10
44.0756506253
 20
-20.5512328307
 10
44.0871738348
 20
-20.5520849524
 10
44.0996497991
 20
-20.5529145241
 10
44.11305088
 20
-20.5537197083
 10
44.12734739
 20
-20.5544987211
 10
44.1425076577
 20
-20.5552498367
 10
44.1752832885
 20
-20.5566617863
  0
LINE
  5
272
100
AcDbEntity
  8
RACCORDO
100
AcDbLine
 62
250
  6
CONTINUOUS
 10
65.8574923371
 20
-20.5552498366
 11
65.8247167066
 21
-20.5566617861
  0
LINE
  5
273
100
AcDbEntity
  8
RACCORDO
100
AcDbLine
 62
250
  6
CONTINUOUS
 10
65.8247167066
 20
-20.5566617861
 11
65.7889124952
 21
-20.5579430522
  0
LINE
  5
274
100
AcDbEntity
  8
RACCORDO
100
AcDbLine
 62
250
  6
CONTINUOUS
 10
65.7889124952
 20
-20.5579430522
 11
65.7503967972
 21
-20.5590822873
  0
LINE
  5
275
100
AcDbEntity
  8
RACCORDO
100
AcDbLine
 62
250
  6
CONTINUOUS
 10
65.7503967972
 20
-20.5590822873
 11
65.7095107207
 21
-20.5600694022
  0
LINE
  5
276
100
AcDbEntity
  8
RACCORDO
100
AcDbLine
 62
250
  6
CONTINUOUS
 10
65.7095107207
 20
-20.5600694022
 11
65.6666163668
 21
-20.5608956544
  0
LINE
  5
277
100
AcDbEntity
  8
RACCORDO
100
AcDbLine
 62
250
  6
CONTINUOUS
 10
65.6666163668
 20
-20.5608956544
 11
65.5993443568
 21
-20.5618178141
  0
LINE
  5
278
100
AcDbEntity
  8
RACCORDO
100
AcDbLine
 62
250
  6
CONTINUOUS
 10
65.5993443568
 20
-20.5618178141
 11
65.5297511265
 21
-20.5623435591
  0
LINE
  5
279
100
AcDbEntity
  8
RACCORDO
100
AcDbLine
 62
250
  6
CONTINUOUS
 10
44.5172508085
 20
-20.5624683248
 11
65.5297511265
 21
-20.5623435591
  0
LINE
  5
27A
100
AcDbEntity
  8
RACCORDO
100
AcDbLine
 62
250
  6
CONTINUOUS
 10
44.4468780887
 20
-20.5622131687
 11
44.5172508085
 21
-20.5624683248
  0
LINE
  5
27B
100
AcDbEntity
  8
RACCORDO
100
AcDbLine
 62
250
  6
CONTINUOUS
 10
44.3779063754
 20
-20.5615537269
 11
44.4468780887
 21
-20.5622131687
  0
LINE
  5
27C
100
AcDbEntity
  8
RACCORDO
100
AcDbLine
 62
250
  6
CONTINUOUS
 10
44.3333836304
 20
-20.5608956548
 11
44.3779063754
 21
-20.5615537269
  0
LINE
  5
27D
100
AcDbEntity
  8
RACCORDO
100
AcDbLine
 62
250
  6
CONTINUOUS
 10
44.2904892759
 20
-20.5600694024
 11
44.3333836304
 21
-20.5608956548
  0
LINE
  5
27E
100
AcDbEntity
  8
RACCORDO
100
AcDbLine
 62
250
  6
CONTINUOUS
 10
44.2496031989
 20
-20.5590822876
 11
44.2904892759
 21
-20.5600694024
  0
LINE
  5
27F
100
AcDbEntity
  8
RACCORDO
100
AcDbLine
 62
250
  6
CONTINUOUS
 10
44.2110875004
 20
-20.5579430524
 11
44.2496031989
 21
-20.5590822876
  0
LINE
  5
280
100
AcDbEntity
  8
RACCORDO
100
AcDbLine
 62
250
  6
CONTINUOUS
 10
44.1752832885
 20
-20.5566617863
 11
44.2110875004
 21
-20.5579430524
  0
LINE
  5
281
100
AcDbEntity
  8
RACCORDO
100
AcDbLine
 62
7
  6
CONTINUOUS
 10
58.9680905905
 20
23.6400757416
 11
58.8970826234
 21
23.5953423515
  0
LINE
  5
282
100
AcDbEntity
  8
RACCORDO
100
AcDbLine
 62
7
  6
CONTINUOUS
 10
58.9965581838
 20
23.6577812011
 11
58.9680905905
 21
23.6400757416
  0
LINE
  5
283
100
AcDbEntity
  8
RACCORDO
100
AcDbLine
 62
7
  6
CONTINUOUS
 10
59.0249483201
 20
-23.6751796798
 11
58.9965581838
 21
-23.6577812011
  0
LINE
  5
284
100
AcDbEntity
  8
RACCORDO
100
AcDbLine
 62
7
  6
CONTINUOUS
 10
58.9965581838
 20
-23.6577812011
 11
58.9538388153
 21
-23.6311538461
  0
LINE
  5
285
100
AcDbEntity
  8
RACCORDO
100
AcDbLine
 62
7
  6
CONTINUOUS
 10
58.9538388153
 20
-23.6311538461
 11
58.8970826234
 21
-23.5953423515
  0
LINE
  5
286
100
AcDbEntity
  8
RACCORDO
100
AcDbLine
 62
7
  6
CONTINUOUS
 10
59.3970741618
 20
23.7970741618
 11
59.4
 21
23.8
  0
LINE
  5
287
100
AcDbEntity
  8
RACCORDO
100
AcDbLine
 62
7
  6
CONTINUOUS
 10
59.3970741618
 20
-23.7970741618
 11
59.4
 21
-23.8
  0
LWPOLYLINE
  5
288
100
AcDbEntity
  8
RACCORDO
100
AcDbPolyline
 62
250
  6
CONTINUOUS
 90
31
 70
0
 10
44.3630985787
 20
-24.2369056521
 10
44.3634416173
 20
-24.2499891381
 10
44.3644689072
 20
-24.2630367647
 10
44.3661776327
 20
-24.2760127708
 10
44.3685631107
 20
-24.2888815916
 10
44.3716188029
 20
-24.3016079562
 10
44.3753363343
 20
-24.3141569839
 10
44.3797055158
 20
-24.3264942801
 10
44.3847143723
 20
-24.3385860308
 10
44.3903491754
 20
-24.3503990946
 10
44.3965944813
 20
-24.3619010942
 10
44.4034331728
 20
-24.3730605047
 10
44.4108465061
 20
-24.3838467403
 10
44.4188141629
 20
-24.3942302379
 10
44.4273143052
 20
-24.4041825384
 10
44.4363236357
 20
-24.4136763643
 10
44.4458174616
 20
-24.4226856948
 10
44.4557697621
 20
-24.4311858371
 10
44.4661532597
 20
-24.4391534939
 10
44.4769394953
 20
-24.4465668272
 10
44.4880989058
 20
-24.4534055187
 10
44.4996009054
 20
-24.4596508246
 10
44.5114139692
 20
-24.4652856277
 10
44.5235057199
 20
-24.4702944842
 10
44.5358430161
 20
-24.4746636657
 10
44.5483920438
 20
-24.4783811971
 10
44.5611184084
 20
-24.4814368893
 10
44.5739872292
 20
-24.4838223673
 10
44.5869632353
 20
-24.4855310928
 10
44.6000108619
 20
-24.4865583827
 10
44.6130943479
 20
-24.4869014213
  0
LWPOLYLINE
  5
289
100
AcDbEntity
  8
RACCORDO
100
AcDbPolyline
 62
250
  6
CONTINUOUS
 90
34
 70
0
 10
44.0008001903
 20
-21.4994104546
 10
44.0013874907
 20
-21.523155013
 10
44.0031046342
 20
-21.5468458449
 10
44.0059477353
 20
-21.5704293453
 10
44.009910361
 20
-21.593852152
 10
44.0149835452
 20
-21.6170612667
 10
44.0211558087
 20
-21.6400041742
 10
44.0284131857
 20
-21.6626289619
 10
44.036739255
 20
-21.684884437
 10
44.0461151773
 20
-21.7067202423
 10
44.0565197377
 20
-21.7280869701
 10
44.0679293941
 20
-21.7489362743
 10
44.08031833
 20
-21.7692209792
 10
44.0936585129
 20
-21.7888951871
 10
44.1079197583
 20
-21.8079143811
 10
44.1230697974
 20
-21.826235527
 10
44.1390743503
 20
-21.8438171695
 10
44.1558972038
 20
-21.8606195269
 10
44.173500293
 20
-21.8766045808
 10
44.1918437876
 20
-21.8917361619
 10
44.2108861819
 20
-21.9059800322
 10
44.230584389
 20
-21.9193039622
 10
44.2508938379
 20
-21.931677804
 10
44.2717685748
 20
-21.9430735596
 10
44.2931613665
 20
-21.9534654437
 10
44.3150238078
 20
-21.9628299429
 10
44.3373064309
 20
-21.9711458682
 10
44.3599588171
 20
-21.9783944033
 10
44.3829297112
 20
-21.9845591469
 10
44.4061671371
 20
-21.9896261502
 10
44.4296185158
 20
-21.9935839482
 10
44.4532307842
 20
-21.9964235855
 10
44.476950515
 20
-21.998138637
 10
44.5007240378
 20
-21.998725222
  0
LWPOLYLINE
  5
28A
100
AcDbEntity
  8
RACCORDO
100
AcDbPolyline
 62
7
  6
CONTINUOUS
 90
25
 70
0
 10
43.8674194332
 20
-21.949896513
 10
43.8679373899
 20
-21.9713158792
 10
43.8694734244
 20
-21.9926846521
 10
43.872023791
 20
-22.0139544561
 10
43.8755824411
 20
-22.0350769789
 10
43.8801410418
 20
-22.0560046356
 10
43.8856890907
 20
-22.076690656
 10
43.8922138527
 20
-22.0970882896
 10
43.8997003916
 20
-22.1171514287
 10
43.9081317568
 20
-22.1368352214
 10
43.9174887769
 20
-22.1560951882
 10
43.9277501878
 20
-22.1748878112
 10
43.9388929111
 20
-22.1931710662
 10
43.9508917178
 20
-22.2109036264
 10
43.9637194411
 20
-22.2280454064
 10
43.977347326
 20
-22.2445580329
 10
43.991744581
 20
-22.2604041417
 10
44.0068786715
 20
-22.2755478708
 10
44.0227157294
 20
-22.2899552587
 10
44.0392200045
 20
-22.3035936405
 10
44.0563542321
 20
-22.3164320858
 10
44.0740800966
 20
-22.3284417216
 10
44.0923575889
 20
-22.3395952301
 10
44.1111454449
 20
-22.3498672256
 10
44.116332617
 20
-22.35250266
  0
LWPOLYLINE
  5
28B
100
AcDbEntity
  8
RACCORDO
100
AcDbPolyline
 62
7
  6
CONTINUOUS
 90
34
 70
0
 10
44.35
 20
-24.2500042308
 10
44.3502831502
 20
-24.261899516
 10
44.3511319658
 20
-24.2737678556
 10
44.3525445259
 20
-24.2855823661
 10
44.3545176323
 20
-24.2973162875
 10
44.3570468183
 20
-24.3089430388
 10
44.3601263583
 20
-24.320436279
 10
44.3637492787
 20
-24.3317699738
 10
44.3679073742
 20
-24.3429184493
 10
44.3725912278
 20
-24.3538564463
 10
44.3777902312
 20
-24.3645591876
 10
44.3834926084
 20
-24.3750024283
 10
44.3896854419
 20
-24.3851625059
 10
44.3963547045
 20
-24.3950164051
 10
44.4034852893
 20
-24.4045418038
 10
44.4110610411
 20
-24.4137171191
 10
44.4190647995
 20
-24.4225215661
 10
44.4274784339
 20
-24.4309352005
 10
44.4362828809
 20
-24.4389389589
 10
44.4454581962
 20
-24.4465147107
 10
44.4549835949
 20
-24.4536452955
 10
44.4648374941
 20
-24.4603145581
 10
44.4749975717
 20
-24.4665073916
 10
44.4854408124
 20
-24.4722097688
 10
44.4961435537
 20
-24.4774087722
 10
44.5070815507
 20
-24.4820926258
 10
44.5182300262
 20
-24.4862507213
 10
44.529563721
 20
-24.4898736417
 10
44.5410569612
 20
-24.4929531817
 10
44.5526837125
 20
-24.4954823677
 10
44.5644176339
 20
-24.4974554741
 10
44.5762321444
 20
-24.4988680342
 10
44.588100484
 20
-24.4997168498
 10
44.5999957692
 20
-24.5
  0
LINE
  5
28C
100
AcDbEntity
  8
RACCORDO
100
AcDbLine
 62
250
  6
CONTINUOUS
 10
44.0124292021
 20
21.1962442135
 11
44.0109161654
 21
21.275847301
  0
LINE
  5
28D
100
AcDbEntity
  8
RACCORDO
100
AcDbLine
 62
250
  6
CONTINUOUS
 10
44.0141011344
 20
21.0811598649
 11
44.0124292021
 21
21.1962442135
  0
LINE
  5
28E
100
AcDbEntity
  8
RACCORDO
100
AcDbLine
 62
250
  6
CONTINUOUS
 10
44.3630985787
 20
-23.8443375673
 11
44.3572807489
 21
-23.2669872981
  0
LINE
  5
28F
100
AcDbEntity
  8
RACCORDO
100
AcDbLine
 62
250
  6
CONTINUOUS
 10
44.6130943479
 20
-23.6278312164
 11
44.6080037468
 21
-23.1226497308
  0
LINE
  5
290
100
AcDbEntity
  8
RACCORDO
100
AcDbLine
 62
250
  6
CONTINUOUS
 10
44.015778044
 20
20.9144735307
 11
44.0141011344
 21
21.0811598649
  0
LINE
  5
291
100
AcDbEntity
  8
RACCORDO
100
AcDbLine
 62
250
  6
CONTINUOUS
 10
44.0170242967
 20
20.690624181
 11
44.015778044
 21
20.9144735307
  0
LINE
  5
292
100
AcDbEntity
  8
RACCORDO
100
AcDbLine
 62
250
  6
CONTINUOUS
 10
44.0190065292
 20
18.0531376417
 11
44.0170242967
 21
20.690624181
  0
LINE
  5
293
100
AcDbEntity
  8
RACCORDO
100
AcDbLine
 62
250
  6
CONTINUOUS
 10
44.0217157381
 20
13.0743157455
 11
44.0190065292
 21
18.0531376417
  0
LINE
  5
294
100
AcDbEntity
  8
RACCORDO
100
AcDbLine
 62
250
  6
CONTINUOUS
 10
44.0235581602
 20
8.0941938132
 11
44.0217157381
 21
13.0743157455
  0
LINE
  5
295
100
AcDbEntity
  8
RACCORDO
100
AcDbLine
 62
7
  6
CONTINUOUS
 10
43.85
 20
21.9411874598
 11
43.85
 21
-21.9411874598
  0
LINE
  5
296
100
AcDbEntity
  8
ASSI
100
AcDbLine
 62
7
  6
CONTINUOUS
 10
43.85
 20
-17.6716990487
 11
43.85
 21
17.6716990487
  0
LINE
  5
297
100
AcDbEntity
  8
RACCORDO
100
AcDbLine
 62
250
  6
CONTINUOUS
 10
44.0245336126
 20
3.1132679988
 11
44.0235581602
 21
8.0941938132
  0
LINE
  5
298
100
AcDbEntity
  8
RACCORDO
100
AcDbLine
 62
7
  6
CONTINUOUS
 10
44.35
 20
-22.4
 11
44.35
 21
-24.2500042308
  0
LINE
  5
299
100
AcDbEntity
  8
RACCORDO
100
AcDbLine
 62
7
  6
CONTINUOUS
 10
44.35
 20
22.4
 11
44.35
 21
24.2500042308
  0
LINE
  5
29A
100
AcDbEntity
  8
RACCORDO
100
AcDbLine
 62
250
  6
CONTINUOUS
 10
44.3572807489
 20
-23.2669872981
 11
44.3572807489
 21
-22.3344140523
  0
LINE
  5
29B
100
AcDbEntity
  8
RACCORDO
100
AcDbLine
 62
250
  6
CONTINUOUS
 10
44.3572807489
 20
22.3344140523
 11
44.3572807489
 21
23.2669872981
  0
LINE
  5
29C
100
AcDbEntity
  8
RACCORDO
100
AcDbLine
 62
250
  6
CONTINUOUS
 10
44.3630985787
 20
24.2369056521
 11
44.3630985787
 21
23.8443375673
  0
LINE
  5
29D
100
AcDbEntity
  8
RACCORDO
100
AcDbLine
 62
250
  6
CONTINUOUS
 10
44.3630985787
 20
-23.8443375673
 11
44.3630985787
 21
-24.2369056521
  0
LINE
  5
29E
100
AcDbEntity
  8
RACCORDO
100
AcDbLine
 62
250
  6
CONTINUOUS
 10
44.0204694674
 20
-15.5639196606
 11
44.0245336126
 21
3.1132679988
  0
LINE
  5
29F
100
AcDbEntity
  8
RACCORDO
100
AcDbLine
 62
250
  6
CONTINUOUS
 10
44.0167017407
 20
-20.7690816978
 11
44.0204694674
 21
-15.5639196606
  0
LINE
  5
2A0
100
AcDbEntity
  8
RACCORDO
100
AcDbLine
 62
250
  6
CONTINUOUS
 10
44.0152742999
 20
-20.972858202
 11
44.0167017407
 21
-20.7690816978
  0
LINE
  5
2A1
100
AcDbEntity
  8
RACCORDO
100
AcDbLine
 62
250
  6
CONTINUOUS
 10
44.3572807489
 20
23.2669872981
 11
44.3630985787
 21
23.8443375673
  0
LINE
  5
2A2
100
AcDbEntity
  8
RACCORDO
100
AcDbLine
 62
250
  6
CONTINUOUS
 10
44.6080037468
 20
23.1226497308
 11
44.6130943479
 21
23.6278312164
  0
LINE
  5
2A3
100
AcDbEntity
  8
RACCORDO
100
AcDbLine
 62
250
  6
CONTINUOUS
 10
44.0135709526
 20
-21.1215765455
 11
44.0152742999
 21
-20.972858202
  0
LINE
  5
2A4
100
AcDbEntity
  8
RACCORDO
100
AcDbLine
 62
250
  6
CONTINUOUS
 10
44.0119728675
 20
-21.2222772737
 11
44.0135709526
 21
-21.1215765455
  0
LINE
  5
2A5
100
AcDbEntity
  8
RACCORDO
100
AcDbLine
 62
250
  6
CONTINUOUS
 10
44.010876074
 20
-21.2777141893
 11
44.0119728675
 21
-21.2222772737
  0
LWPOLYLINE
  5
2A6
100
AcDbEntity
  8
RACCORDO
100
AcDbPolyline
 62
7
  6
CONTINUOUS
 90
25
 70
0
 10
43.8674208399
 20
21.9498972163
 10
43.8679387686
 20
21.9713165473
 10
43.8694747644
 20
21.9926852973
 10
43.8720250842
 20
22.0139550902
 10
43.8755836787
 20
22.0350776194
 10
43.8801422213
 20
22.0560052934
 10
43.885690219
 20
22.0766913245
 10
43.8922149379
 20
22.0970889558
 10
43.8997014375
 20
22.1171520863
 10
43.9081327658
 20
22.1368358669
 10
43.9174897505
 20
22.1560958185
 10
43.9277511275
 20
22.1748884228
 10
43.9388938178
 20
22.1931716566
 10
43.9508925918
 20
22.2109041931
 10
43.9637202827
 20
22.2280459472
 10
43.977348135
 20
22.2445585462
 10
43.9917453571
 20
22.260404626
 10
44.0068794142
 20
22.2755483249
 10
44.0227164378
 20
22.2899556817
 10
44.0392206779
 20
22.3035940319
 10
44.0563548695
 20
22.3164324452
 10
44.0740806968
 20
22.328442049
 10
44.0923581508
 20
22.3395955256
 10
44.1111459672
 20
22.3498674897
 10
44.1163329483
 20
22.3525028256
  0
LWPOLYLINE
  5
2A7
100
AcDbEntity
  8
RACCORDO
100
AcDbPolyline
 62
250
  6
CONTINUOUS
 90
34
 70
0
 10
44.0008001903
 20
21.4994104546
 10
44.0013874907
 20
21.523155013
 10
44.0031046341
 20
21.5468458448
 10
44.0059477351
 20
21.5704293452
 10
44.0099103608
 20
21.5938521519
 10
44.0149835448
 20
21.6170612665
 10
44.0211558083
 20
21.6400041741
 10
44.0284131852
 20
21.6626289618
 10
44.0367392544
 20
21.684884437
 10
44.0461151766
 20
21.7067202423
 10
44.056519737
 20
21.7280869702
 10
44.0679293934
 20
21.7489362744
 10
44.0803183291
 20
21.7692209794
 10
44.0936585121
 20
21.7888951873
 10
44.1079197574
 20
21.8079143815
 10
44.1230697965
 20
21.8262355274
 10
44.1390743494
 20
21.84381717
 10
44.1558972029
 20
21.8606195275
 10
44.1735002921
 20
21.8766045814
 10
44.1918437867
 20
21.8917361626
 10
44.2108861811
 20
21.9059800329
 10
44.2305843882
 20
21.9193039629
 10
44.2508938372
 20
21.9316778048
 10
44.2717685741
 20
21.9430735603
 10
44.2931613659
 20
21.9534654444
 10
44.3150238073
 20
21.9628299436
 10
44.3373064305
 20
21.9711458689
 10
44.3599588168
 20
21.9783944039
 10
44.3829297109
 20
21.9845591474
 10
44.4061671369
 20
21.9896261507
 10
44.4296185157
 20
21.9935839485
 10
44.4532307841
 20
21.9964235857
 10
44.4769505149
 20
21.9981386371
 10
44.5007240378
 20
21.998725222
  0
LINE
  5
2A8
100
AcDbEntity
  8
RACCORDO
100
AcDbLine
 62
7
  6
CONTINUOUS
 10
46.75
 20
22.4
 11
46.7427192511
 21
22.3344140523
  0
LINE
  5
2A9
100
AcDbEntity
  8
0
100
AcDbLine
 62
7
  6
CONTINUOUS
 10
60.8924186238
 20
-9.9455139572
 11
61.052645206
 21
-9.9065109831
  0
LINE
  5
2AA
100
AcDbEntity
  8
0
100
AcDbLine
 62
7
  6
CONTINUOUS
 10
49.1075813762
 20
-9.9455139572
 11
48.947354794
 21
-9.9065109831
  0
LINE
  5
2AB
100
AcDbEntity
  8
RACCORDO
100
AcDbLine
 62
7
  6
CONTINUOUS
 10
46.75
 20
-22.4
 11
46.7427192511
 21
-22.3344140523
  0
LINE
  5
2AC
100
AcDbEntity
  8
RACCORDO
100
AcDbLine
 62
7
  6
CONTINUOUS
 10
45.3592749517
 20
-3.6225507233
 11
45.366796249
 21
-3.7048016636
  0
LWPOLYLINE
  5
2AD
100
AcDbEntity
  8
RACCORDO
100
AcDbPolyline
 62
250
  6
CONTINUOUS
 90
15
 70
0
 10
44.0033926777
 20
21.4804009664
 10
44.0032094095
 20
21.4824952446
 10
44.0030257815
 20
21.4844767943
 10
44.0028417936
 20
21.4863455771
 10
44.0026574459
 20
21.4881016316
 10
44.0024728018
 20
21.4897443526
 10
44.0022878612
 20
21.4912737004
 10
44.0021026241
 20
21.4926897148
 10
44.0019171544
 20
21.4939919103
 10
44.0017314504
 20
21.4951802532
 10
44.0015455137
 20
21.4962547773
 10
44.0013594125
 20
21.4972150979
 10
44.0011731696
 20
21.4980610869
 10
44.0009867622
 20
21.4987928725
 10
44.0008001903
 20
21.4994104546
  0
LINE
  5
2AE
100
AcDbEntity
  8
RACCORDO
100
AcDbLine
 62
250
  6
CONTINUOUS
 10
44.0037579453
 20
21.4758763477
 11
44.0033926777
 21
21.4804009664
  0
LWPOLYLINE
  5
2AF
100
AcDbEntity
  8
RACCORDO
100
AcDbPolyline
 62
250
  6
CONTINUOUS
 90
11
 70
0
 10
44.5025813291
 20
21.9817614184
 10
44.5023966852
 20
21.9842255985
 10
44.5022117448
 20
21.9865197666
 10
44.5020265079
 20
21.9886436599
 10
44.5018410383
 20
21.9905970346
 10
44.5016553362
 20
21.9923796666
 10
44.5014694015
 20
21.9939913518
 10
44.501283298
 20
21.9954319053
 10
44.5010970468
 20
21.9967011619
 10
44.5009106267
 20
21.9977989761
 10
44.5007240378
 20
21.998725222
  0
LINE
  5
2B0
100
AcDbEntity
  8
RACCORDO
100
AcDbLine
 62
250
  6
CONTINUOUS
 10
44.0041214589
 20
21.4709044946
 11
44.0037579453
 21
21.4758763477
  0
LINE
  5
2B1
100
AcDbEntity
  8
RACCORDO
100
AcDbLine
 62
250
  6
CONTINUOUS
 10
44.502949664
 20
21.9763241728
 11
44.5025813291
 21
21.9817614184
  0
LINE
  5
2B2
100
AcDbEntity
  8
RACCORDO
100
AcDbLine
 62
250
  6
CONTINUOUS
 10
44.0044830306
 20
21.4654878776
 11
44.0041214589
 21
21.4709044946
  0
LINE
  5
2B3
100
AcDbEntity
  8
RACCORDO
100
AcDbLine
 62
250
  6
CONTINUOUS
 10
44.0048424745
 20
21.4596293835
 11
44.0044830306
 21
21.4654878776
  0
LINE
  5
2B4
100
AcDbEntity
  8
RACCORDO
100
AcDbLine
 62
250
  6
CONTINUOUS
 10
44.5033165596
 20
21.9702105247
 11
44.502949664
 21
21.9763241728
  0
LINE
  5
2B5
100
AcDbEntity
  8
RACCORDO
100
AcDbLine
 62
250
  6
CONTINUOUS
 10
44.00537735
 20
21.4500180728
 11
44.0048424745
 21
21.4596293835
  0
LINE
  5
2B6
100
AcDbEntity
  8
RACCORDO
100
AcDbLine
 62
250
  6
CONTINUOUS
 10
44.5036818267
 20
21.9634232807
 11
44.5033165596
 21
21.9702105247
  0
LINE
  5
2B7
100
AcDbEntity
  8
RACCORDO
100
AcDbLine
 62
250
  6
CONTINUOUS
 10
44.005906562
 20
21.4394277573
 11
44.00537735
 21
21.4500180728
  0
LWPOLYLINE
  5
2B8
100
AcDbEntity
  8
RACCORDO
100
AcDbPolyline
 62
7
  6
CONTINUOUS
 90
34
 70
0
 10
44.3572807489
 20
23.2669872981
 10
44.3575784753
 20
23.260745719
 10
44.3583497267
 20
23.254472608
 10
44.3596000894
 20
23.2481861919
 10
44.3613341367
 20
23.2419121598
 10
44.3635555794
 20
23.2356626215
 10
44.3662675994
 20
23.2294361375
 10
44.3694720963
 20
23.2232532001
 10
44.3731700208
 20
23.2171335699
 10
44.3773622718
 20
23.2110754134
 10
44.382047756
 20
23.2051002367
 10
44.3872243979
 20
23.199228829
 10
44.3928907687
 20
23.1934590071
 10
44.3990425526
 20
23.1878130261
 10
44.405674335
 20
23.182312533
 10
44.4127821378
 20
23.1769551973
 10
44.4203581333
 20
23.171763745
 10
44.4283932153
 20
23.1667604362
 10
44.4368804409
 20
23.1619430222
 10
44.4458081504
 20
23.1573343288
 10
44.4551631291
 20
23.1529569199
 10
44.4649348037
 20
23.148808872
 10
44.4751073149
 20
23.1449126131
 10
44.485662902
 20
23.1412905703
 10
44.4965865028
 20
23.137941334
 10
44.5078575603
 20
23.1348863009
 10
44.5194534848
 20
23.1321470947
 10
44.5313541826
 20
23.1297228132
 10
44.5435210103
 20
23.1276360125
 10
44.5559390652
 20
23.1259025536
 10
44.5686230593
 20
23.1245164325
 10
44.5815577699
 20
23.1234933505
 10
44.5946962714
 20
23.1228641607
 10
44.6080037468
 20
23.1226497308
  0
LWPOLYLINE
  5
2B9
100
AcDbEntity
  8
RACCORDO
100
AcDbPolyline
 62
7
  6
CONTINUOUS
 90
34
 70
0
 10
46.7427192511
 20
-23.2669872981
 10
46.7424215247
 20
-23.260745719
 10
46.7416502733
 20
-23.254472608
 10
46.7403999106
 20
-23.2481861919
 10
46.7386658633
 20
-23.2419121598
 10
46.7364444206
 20
-23.2356626215
 10
46.7337324006
 20
-23.2294361375
 10
46.7305279037
 20
-23.2232532001
 10
46.7268299792
 20
-23.2171335699
 10
46.7226377282
 20
-23.2110754134
 10
46.717952244
 20
-23.2051002367
 10
46.7127756021
 20
-23.199228829
 10
46.7071092313
 20
-23.1934590071
 10
46.7009574474
 20
-23.1878130261
 10
46.694325665
 20
-23.182312533
 10
46.6872178622
 20
-23.1769551973
 10
46.6796418667
 20
-23.171763745
 10
46.6716067847
 20
-23.1667604362
 10
46.6631195591
 20
-23.1619430222
 10
46.6541918496
 20
-23.1573343288
 10
46.6448368709
 20
-23.1529569199
 10
46.6350651963
 20
-23.148808872
 10
46.6248926851
 20
-23.1449126131
 10
46.614337098
 20
-23.1412905703
 10
46.6034134972
 20
-23.137941334
 10
46.5921424397
 20
-23.1348863009
 10
46.5805465152
 20
-23.1321470947
 10
46.5686458174
 20
-23.1297228132
 10
46.5564789897
 20
-23.1276360125
 10
46.5440609348
 20
-23.1259025536
 10
46.5313769407
 20
-23.1245164325
 10
46.5184422301
 20
-23.1234933505
 10
46.5053037286
 20
-23.1228641607
 10
46.4919962532
 20
-23.1226497308
  0
LINE
  5
2BA
100
AcDbEntity
  8
RACCORDO
100
AcDbLine
 62
250
  6
CONTINUOUS
 10
44.5040453396
 20
21.9559655548
 11
44.5036818267
 21
21.9634232807
  0
LINE
  5
2BB
100
AcDbEntity
  8
RACCORDO
100
AcDbLine
 62
250
  6
CONTINUOUS
 10
44.0066024385
 20
21.423803163
 11
44.005906562
 21
21.4394277573
  0
LINE
  5
2BC
100
AcDbEntity
  8
RACCORDO
100
AcDbLine
 62
250
  6
CONTINUOUS
 10
44.5045869062
 20
21.9435293766
 11
44.5040453396
 21
21.9559655548
  0
LINE
  5
2BD
100
AcDbEntity
  8
RACCORDO
100
AcDbLine
 62
250
  6
CONTINUOUS
 10
44.0072859804
 20
21.4064868171
 11
44.0066024385
 21
21.423803163
  0
LINE
  5
2BE
100
AcDbEntity
  8
RACCORDO
100
AcDbLine
 62
250
  6
CONTINUOUS
 10
44.5053012285
 20
21.9246355842
 11
44.5045869062
 21
21.9435293766
  0
LWPOLYLINE
  5
2BF
100
AcDbEntity
  8
RACCORDO
100
AcDbPolyline
 62
250
  6
CONTINUOUS
 90
31
 70
0
 10
44.3630985787
 20
23.8443375673
 10
44.3634779104
 20
23.8330274168
 10
44.3645388924
 20
23.8217481519
 10
44.3662786273
 20
23.810530574
 10
44.3686923642
 20
23.7994053159
 10
44.3717735118
 20
23.7884027584
 10
44.375513656
 20
23.7775529472
 10
44.3799025834
 20
23.7668855107
 10
44.3849283087
 20
23.7564295797
 10
44.3905771077
 20
23.7462137069
 10
44.3968335547
 20
23.7362657898
 10
44.4036805646
 20
23.7266129942
 10
44.4110994397
 20
23.7172816797
 10
44.4190699206
 20
23.7082973282
 10
44.4275702417
 20
23.6996844742
 10
44.4365771902
 20
23.6914666374
 10
44.4460661701
 20
23.6836662592
 10
44.456011269
 20
23.6763046407
 10
44.4663853289
 20
23.6694018849
 10
44.4771600204
 20
23.6629768418
 10
44.4883059201
 20
23.6570470569
 10
44.4997925909
 20
23.6516287232
 10
44.5115886651
 20
23.646736637
 10
44.52366193
 20
23.6423841576
 10
44.5359794162
 20
23.6385831707
 10
44.548507487
 20
23.6353440559
 10
44.5612119311
 20
23.6326756587
 10
44.5740580552
 20
23.6305852658
 10
44.5870107793
 20
23.6290785857
 10
44.6000347321
 20
23.6281597328
 10
44.6130943479
 20
23.6278312164
  0
LWPOLYLINE
  5
2C0
100
AcDbEntity
  8
RACCORDO
100
AcDbPolyline
 62
250
  6
CONTINUOUS
 90
31
 70
0
 10
46.7369014213
 20
-23.8443375673
 10
46.7365228657
 20
-23.833039595
 10
46.7354637381
 20
-23.821769291
 10
46.7337263616
 20
-23.8105574212
 10
46.7313146602
 20
-23.7994336121
 10
46.7282347899
 20
-23.78842936
 10
46.7244957389
 20
-23.7775778202
 10
46.7201081945
 20
-23.7669096972
 10
46.7150837955
 20
-23.7564530239
 10
46.7094361149
 20
-23.746236105
 10
46.7031804223
 20
-23.7362866999
 10
46.6963338477
 20
-23.7266321754
 10
46.6889152395
 20
-23.7172991519
 10
46.6809449354
 20
-23.7083132018
 10
46.6724446406
 20
-23.6996987826
 10
46.6634375501
 20
-23.6914794042
 10
46.6539482465
 20
-23.6836775075
 10
46.6440026594
 20
-23.6763144193
 10
46.6336279765
 20
-23.6694102704
 10
46.6228525441
 20
-23.6629839239
 10
46.6117057861
 20
-23.6570529269
 10
46.600218149
 20
-23.6516334796
 10
46.5884209923
 20
-23.6467403776
 10
46.5763465559
 20
-23.6423869945
 10
46.5640278763
 20
-23.6385852371
 10
46.5514986409
 20
-23.6353454907
 10
46.5387930381
 20
-23.6326765842
 10
46.5259457173
 20
-23.6305857918
 10
46.51299175
 20
-23.6290788219
 10
46.4999665362
 20
-23.6281597935
 10
46.4869056521
 20
-23.6278312164
  0
LINE
  5
2C1
100
AcDbEntity
  8
RACCORDO
100
AcDbLine
 62
250
  6
CONTINUOUS
 10
44.0081211969
 20
21.3825099594
 11
44.0072859804
 21
21.4064868171
  0
LINE
  5
2C2
100
AcDbEntity
  8
RACCORDO
100
AcDbLine
 62
250
  6
CONTINUOUS
 10
44.5061798373
 20
21.8973518539
 11
44.5053012285
 21
21.9246355842
  0
LINE
  5
2C3
100
AcDbEntity
  8
RACCORDO
100
AcDbLine
 62
250
  6
CONTINUOUS
 10
44.0090921053
 20
21.3504107646
 11
44.0081211969
 21
21.3825099594
  0
LINE
  5
2C4
100
AcDbEntity
  8
RACCORDO
100
AcDbLine
 62
250
  6
CONTINUOUS
 10
44.5072098551
 20
21.8593386474
 11
44.5061798373
 21
21.8973518539
  0
LINE
  5
2C5
100
AcDbEntity
  8
RACCORDO
100
AcDbLine
 62
250
  6
CONTINUOUS
 10
44.0103269056
 20
21.3021866201
 11
44.0090921053
 21
21.3504107646
  0
LINE
  5
2C6
100
AcDbEntity
  8
RACCORDO
100
AcDbLine
 62
250
  6
CONTINUOUS
 10
44.0109161654
 20
21.275847301
 11
44.0103269056
 21
21.3021866201
  0
LINE
  5
2C7
100
AcDbEntity
  8
RACCORDO
100
AcDbLine
 62
250
  6
CONTINUOUS
 10
44.5085350222
 20
21.7999691249
 11
44.5072098551
 21
21.8593386474
  0
LINE
  5
2C8
100
AcDbEntity
  8
RACCORDO
100
AcDbLine
 62
250
  6
CONTINUOUS
 10
44.5102507734
 20
21.7028877955
 11
44.5085350222
 21
21.7999691249
  0
LINE
  5
2C9
100
AcDbEntity
  8
RACCORDO
100
AcDbLine
 62
250
  6
CONTINUOUS
 10
44.5124823057
 20
21.5323761292
 11
44.5102507734
 21
21.7028877955
  0
LINE
  5
2CA
100
AcDbEntity
  8
RACCORDO
100
AcDbLine
 62
250
  6
CONTINUOUS
 10
44.5150260145
 20
21.2358517728
 11
44.5124823057
 21
21.5323761292
  0
LINE
  5
2CB
100
AcDbEntity
  8
RACCORDO
100
AcDbLine
 62
250
  6
CONTINUOUS
 10
44.5169826375
 20
20.7697637659
 11
44.5150260145
 21
21.2358517728
  0
LINE
  5
2CC
100
AcDbEntity
  8
RACCORDO
100
AcDbLine
 62
250
  6
CONTINUOUS
 10
44.5185307924
 20
18.6940680115
 11
44.5169826375
 21
20.7697637659
  0
LINE
  5
2CD
100
AcDbEntity
  8
RACCORDO
100
AcDbLine
 62
250
  6
CONTINUOUS
 10
44.5189303767
 20
18.0712085254
 11
44.5185307924
 21
18.6940680115
  0
LINE
  5
2CE
100
AcDbEntity
  8
RACCORDO
100
AcDbLine
 62
250
  6
CONTINUOUS
 10
44.5216395856
 20
13.0874031466
 11
44.5189303767
 21
18.0712085254
  0
LINE
  5
2CF
100
AcDbEntity
  8
RACCORDO
100
AcDbLine
 62
250
  6
CONTINUOUS
 10
44.5234820078
 20
8.1022964304
 11
44.5216395856
 21
13.0874031466
  0
LINE
  5
2D0
100
AcDbEntity
  8
RACCORDO
100
AcDbLine
 62
250
  6
CONTINUOUS
 10
44.5244574601
 20
3.116384059
 11
44.5234820078
 21
8.1022964304
  0
LINE
  5
2D1
100
AcDbEntity
  8
RACCORDO
100
AcDbLine
 62
250
  6
CONTINUOUS
 10
44.6072765181
 20
-23.1226497308
 11
44.6072765181
 21
-22.3213883311
  0
LINE
  5
2D2
100
AcDbEntity
  8
RACCORDO
100
AcDbLine
 62
250
  6
CONTINUOUS
 10
44.6072765181
 20
22.3213883311
 11
44.6072765181
 21
23.1226497308
  0
LINE
  5
2D3
100
AcDbEntity
  8
RACCORDO
100
AcDbLine
 62
250
  6
CONTINUOUS
 10
44.6130943479
 20
-23.6278312164
 11
44.6130943479
 21
-24.4869014213
  0
LINE
  5
2D4
100
AcDbEntity
  8
RACCORDO
100
AcDbLine
 62
250
  6
CONTINUOUS
 10
44.6130943479
 20
23.6278312164
 11
44.6130943479
 21
24.4869014213
  0
LINE
  5
2D5
100
AcDbEntity
  8
RACCORDO
100
AcDbLine
 62
250
  6
CONTINUOUS
 10
44.520393315
 20
-15.5794994828
 11
44.5244574601
 21
3.116384059
  0
LINE
  5
2D6
100
AcDbEntity
  8
RACCORDO
100
AcDbLine
 62
250
  6
CONTINUOUS
 10
44.5172196363
 20
-20.6095360692
 11
44.520393315
 21
-15.5794994828
  0
LINE
  5
2D7
100
AcDbEntity
  8
RACCORDO
100
AcDbLine
 62
250
  6
CONTINUOUS
 10
44.5171513309
 20
-20.6721182048
 11
44.5172196363
 21
-20.6095360692
  0
LINE
  5
2D8
100
AcDbEntity
  8
RACCORDO
100
AcDbLine
 62
250
  6
CONTINUOUS
 10
44.5170801098
 20
-20.7188634725
 11
44.5171513309
 21
-20.6721182048
  0
LINE
  5
2D9
100
AcDbEntity
  8
RACCORDO
100
AcDbLine
 62
250
  6
CONTINUOUS
 10
44.5169586241
 20
-20.7808474686
 11
44.5170801098
 21
-20.7188634725
  0
LINE
  5
2DA
100
AcDbEntity
  8
RACCORDO
100
AcDbLine
 62
250
  6
CONTINUOUS
 10
44.5168477367
 20
-20.8270185666
 11
44.5169586241
 21
-20.7808474686
  0
LINE
  5
2DB
100
AcDbEntity
  8
RACCORDO
100
AcDbLine
 62
250
  6
CONTINUOUS
 10
44.5166737312
 20
-20.8880707981
 11
44.5168477367
 21
-20.8270185666
  0
LINE
  5
2DC
100
AcDbEntity
  8
RACCORDO
100
AcDbLine
 62
250
  6
CONTINUOUS
 10
44.5164701131
 20
-20.9484432207
 11
44.5166737312
 21
-20.8880707981
  0
LINE
  5
2DD
100
AcDbEntity
  8
RACCORDO
100
AcDbLine
 62
250
  6
CONTINUOUS
 10
44.5161744929
 20
-21.0227913546
 11
44.5164701131
 21
-20.9484432207
  0
LINE
  5
2DE
100
AcDbEntity
  8
RACCORDO
100
AcDbLine
 62
250
  6
CONTINUOUS
 10
44.5158339753
 20
-21.0957074665
 11
44.5161744929
 21
-21.0227913546
  0
LINE
  5
2DF
100
AcDbEntity
  8
RACCORDO
100
AcDbLine
 62
250
  6
CONTINUOUS
 10
44.5152836348
 20
-21.1950038936
 11
44.5158339753
 21
-21.0957074665
  0
LINE
  5
2E0
100
AcDbEntity
  8
RACCORDO
100
AcDbLine
 62
250
  6
CONTINUOUS
 10
44.5127870331
 20
-21.5040107216
 11
44.5152836348
 21
-21.1950038936
  0
LINE
  5
2E1
100
AcDbEntity
  8
RACCORDO
100
AcDbLine
 62
250
  6
CONTINUOUS
 10
44.5105133458
 20
-21.6857128231
 11
44.5127870331
 21
-21.5040107216
  0
LINE
  5
2E2
100
AcDbEntity
  8
RACCORDO
100
AcDbLine
 62
250
  6
CONTINUOUS
 10
44.5086997766
 20
-21.7916946421
 11
44.5105133458
 21
-21.6857128231
  0
LINE
  5
2E3
100
AcDbEntity
  8
RACCORDO
100
AcDbLine
 62
250
  6
CONTINUOUS
 10
44.507410906
 20
-21.8511177079
 11
44.5086997766
 21
-21.7916946421
  0
LINE
  5
2E4
100
AcDbEntity
  8
RACCORDO
100
AcDbLine
 62
250
  6
CONTINUOUS
 10
44.0095503488
 20
-21.3335422156
 11
44.010876074
 21
-21.2777141893
  0
LINE
  5
2E5
100
AcDbEntity
  8
RACCORDO
100
AcDbLine
 62
250
  6
CONTINUOUS
 10
44.5064087067
 20
-21.8894831717
 11
44.507410906
 21
-21.8511177079
  0
LINE
  5
2E6
100
AcDbEntity
  8
RACCORDO
100
AcDbLine
 62
250
  6
CONTINUOUS
 10
44.0084592314
 20
-21.3718716246
 11
44.0095503488
 21
-21.3335422156
  0
LINE
  5
2E7
100
AcDbEntity
  8
RACCORDO
100
AcDbLine
 62
250
  6
CONTINUOUS
 10
44.5055534459
 20
-21.9172692585
 11
44.5064087067
 21
-21.8894831717
  0
LWPOLYLINE
  5
2E8
100
AcDbEntity
  8
RACCORDO
100
AcDbPolyline
 62
250
  6
CONTINUOUS
 90
31
 70
0
 10
44.3630985787
 20
-23.8443375673
 10
44.3634771343
 20
-23.833039595
 10
44.3645362619
 20
-23.821769291
 10
44.3662736384
 20
-23.8105574212
 10
44.3686853398
 20
-23.7994336121
 10
44.3717652101
 20
-23.78842936
 10
44.3755042611
 20
-23.7775778202
 10
44.3798918055
 20
-23.7669096972
 10
44.3849162045
 20
-23.7564530239
 10
44.3905638851
 20
-23.746236105
 10
44.3968195777
 20
-23.7362866999
 10
44.4036661523
 20
-23.7266321754
 10
44.4110847605
 20
-23.7172991519
 10
44.4190550646
 20
-23.7083132018
 10
44.4275553594
 20
-23.6996987826
 10
44.4365624499
 20
-23.6914794042
 10
44.4460517535
 20
-23.6836775075
 10
44.4559973406
 20
-23.6763144193
 10
44.4663720235
 20
-23.6694102704
 10
44.4771474559
 20
-23.6629839239
 10
44.4882942139
 20
-23.6570529269
 10
44.499781851
 20
-23.6516334796
 10
44.5115790077
 20
-23.6467403776
 10
44.5236534441
 20
-23.6423869945
 10
44.5359721237
 20
-23.6385852371
 10
44.5485013591
 20
-23.6353454907
 10
44.5612069619
 20
-23.6326765842
 10
44.5740542827
 20
-23.6305857918
 10
44.58700825
 20
-23.6290788219
 10
44.6000334638
 20
-23.6281597935
 10
44.6130943479
 20
-23.6278312164
  0
LWPOLYLINE
  5
2E9
100
AcDbEntity
  8
RACCORDO
100
AcDbPolyline
 62
250
  6
CONTINUOUS
 90
31
 70
0
 10
46.7369014213
 20
23.8443375673
 10
46.7365220896
 20
23.8330274168
 10
46.7354611076
 20
23.8217481519
 10
46.7337213727
 20
23.810530574
 10
46.7313076358
 20
23.7994053159
 10
46.7282264882
 20
23.7884027584
 10
46.724486344
 20
23.7775529472
 10
46.7200974166
 20
23.7668855107
 10
46.7150716913
 20
23.7564295797
 10
46.7094228923
 20
23.7462137069
 10
46.7031664453
 20
23.7362657898
 10
46.6963194354
 20
23.7266129942
 10
46.6889005603
 20
23.7172816797
 10
46.6809300794
 20
23.7082973282
 10
46.6724297583
 20
23.6996844742
 10
46.6634228098
 20
23.6914666374
 10
46.6539338299
 20
23.6836662592
 10
46.643988731
 20
23.6763046407
 10
46.6336146711
 20
23.6694018849
 10
46.6228399796
 20
23.6629768418
 10
46.6116940799
 20
23.6570470569
 10
46.6002074091
 20
23.6516287232
 10
46.5884113349
 20
23.646736637
 10
46.57633807
 20
23.6423841576
 10
46.5640205838
 20
23.6385831707
 10
46.551492513
 20
23.6353440559
 10
46.5387880689
 20
23.6326756587
 10
46.5259419448
 20
23.6305852658
 10
46.5129892207
 20
23.6290785857
 10
46.4999652679
 20
23.6281597328
 10
46.4869056521
 20
23.6278312164
  0
LINE
  5
2EA
100
AcDbEntity
  8
RACCORDO
100
AcDbLine
 62
250
  6
CONTINUOUS
 10
44.0074870653
 20
-21.4010050529
 11
44.0084592314
 21
-21.3718716246
  0
LINE
  5
2EB
100
AcDbEntity
  8
RACCORDO
100
AcDbLine
 62
250
  6
CONTINUOUS
 10
44.5048577873
 20
-21.9367030415
 11
44.5055534459
 21
-21.9172692585
  0
LINE
  5
2EC
100
AcDbEntity
  8
RACCORDO
100
AcDbLine
 62
250
  6
CONTINUOUS
 10
44.0066538127
 20
-21.4225708347
 11
44.0074870653
 21
-21.4010050529
  0
LINE
  5
2ED
100
AcDbEntity
  8
RACCORDO
100
AcDbLine
 62
250
  6
CONTINUOUS
 10
44.5043301538
 20
-21.9496251343
 11
44.5048577873
 21
-21.9367030415
  0
LINE
  5
2EE
100
AcDbEntity
  8
RACCORDO
100
AcDbLine
 62
250
  6
CONTINUOUS
 10
44.0059737377
 20
-21.4380047672
 11
44.0066538127
 21
-21.4225708347
  0
LWPOLYLINE
  5
2EF
100
AcDbEntity
  8
RACCORDO
100
AcDbPolyline
 62
7
  6
CONTINUOUS
 90
34
 70
0
 10
44.3572807489
 20
-23.2669872981
 10
44.3575801713
 20
-23.2606934229
 10
44.3583558761
 20
-23.2544088409
 10
44.3596126149
 20
-23.2481335519
 10
44.3613539776
 20
-23.2418552807
 10
44.3635829241
 20
-23.2355863026
 10
44.366302291
 20
-23.2293634437
 10
44.3695132682
 20
-23.2231861587
 10
44.3732161184
 20
-23.2170549928
 10
44.3774117433
 20
-23.2110084085
 10
44.3820985214
 20
-23.205045942
 10
44.3872738786
 20
-23.199168057
 10
44.3929367596
 20
-23.1934146064
 10
44.3990825035
 20
-23.1877851844
 10
44.4057054126
 20
-23.1822801967
 10
44.4128023049
 20
-23.1769407141
 10
44.4203652084
 20
-23.1717664006
 10
44.4283849406
 20
-23.1667575922
 10
44.4368557836
 20
-23.1619563668
 10
44.445766118
 20
-23.1573625195
 10
44.455102833
 20
-23.1529762552
 10
44.4648569746
 20
-23.1488402671
 10
44.4750128679
 20
-23.1449546011
 10
44.4855529726
 20
-23.1413192112
 10
44.4964641452
 20
-23.1379766523
 10
44.5077261302
 20
-23.1349274029
 10
44.5193165292
 20
-23.1321709844
 10
44.5312171514
 20
-23.1297485157
 10
44.543415665
 20
-23.1276610792
 10
44.5558718153
 20
-23.1259075925
 10
44.5685218724
 20
-23.1245259271
 10
44.5813224708
 20
-23.123528707
 10
44.594252043
 20
-23.1229033082
 10
44.6072765181
 20
-23.1226497308
  0
LWPOLYLINE
  5
2F0
100
AcDbEntity
  8
RACCORDO
100
AcDbPolyline
 62
7
  6
CONTINUOUS
 90
34
 70
0
 10
46.7427192511
 20
23.2669872981
 10
46.7424215247
 20
23.260745719
 10
46.7416502733
 20
23.254472608
 10
46.7403999106
 20
23.2481861919
 10
46.7386658633
 20
23.2419121598
 10
46.7364444206
 20
23.2356626215
 10
46.7337324006
 20
23.2294361375
 10
46.7305279037
 20
23.2232532001
 10
46.7268299792
 20
23.2171335699
 10
46.7226377282
 20
23.2110754134
 10
46.717952244
 20
23.2051002367
 10
46.7127756021
 20
23.199228829
 10
46.7071092313
 20
23.1934590071
 10
46.7009574474
 20
23.1878130261
 10
46.694325665
 20
23.182312533
 10
46.6872178622
 20
23.1769551973
 10
46.6796418667
 20
23.171763745
 10
46.6716067847
 20
23.1667604362
 10
46.6631195591
 20
23.1619430222
 10
46.6541918496
 20
23.1573343288
 10
46.6448368709
 20
23.1529569199
 10
46.6350651963
 20
23.148808872
 10
46.6248926851
 20
23.1449126131
 10
46.614337098
 20
23.1412905703
 10
46.6034134972
 20
23.137941334
 10
46.5921424397
 20
23.1348863009
 10
46.5805465152
 20
23.1321470947
 10
46.5686458174
 20
23.1297228132
 10
46.5564789897
 20
23.1276360125
 10
46.5440609348
 20
23.1259025536
 10
46.5313769407
 20
23.1245164325
 10
46.5184422301
 20
23.1234933505
 10
46.5053037286
 20
23.1228641607
 10
46.4919962532
 20
23.1226497308
  0
LINE
  5
2F1
100
AcDbEntity
  8
RACCORDO
100
AcDbLine
 62
250
  6
CONTINUOUS
 10
44.5037980548
 20
-21.9611158465
 11
44.5043301538
 21
-21.9496251343
  0
LINE
  5
2F2
100
AcDbEntity
  8
RACCORDO
100
AcDbLine
 62
250
  6
CONTINUOUS
 10
44.0054565942
 20
-21.44850156
 11
44.0059737377
 21
-21.4380047672
  0
LINE
  5
2F3
100
AcDbEntity
  8
RACCORDO
100
AcDbLine
 62
250
  6
CONTINUOUS
 10
44.5034410938
 20
-21.9679754497
 11
44.5037980548
 21
-21.9611158465
  0
LINE
  5
2F4
100
AcDbEntity
  8
RACCORDO
100
AcDbLine
 62
250
  6
CONTINUOUS
 10
44.0049339472
 20
-21.4580620636
 11
44.0054565942
 21
-21.44850156
  0
LINE
  5
2F5
100
AcDbEntity
  8
RACCORDO
100
AcDbLine
 62
250
  6
CONTINUOUS
 10
44.5030825378
 20
-21.9741907979
 11
44.5034410938
 21
-21.9679754497
  0
LINE
  5
2F6
100
AcDbEntity
  8
RACCORDO
100
AcDbLine
 62
250
  6
CONTINUOUS
 10
44.004582707
 20
-21.4639109861
 11
44.0049339472
 21
-21.4580620636
  0
LINE
  5
2F7
100
AcDbEntity
  8
RACCORDO
100
AcDbLine
 62
250
  6
CONTINUOUS
 10
44.0042294043
 20
-21.4693369394
 11
44.004582707
 21
-21.4639109861
  0
LINE
  5
2F8
100
AcDbEntity
  8
RACCORDO
100
AcDbLine
 62
250
  6
CONTINUOUS
 10
44.0038742139
 20
-21.4743373337
 11
44.0042294043
 21
-21.4693369394
  0
LWPOLYLINE
  5
2F9
100
AcDbEntity
  8
0
100
AcDbPolyline
 62
7
  6
CONTINUOUS
 90
3
 70
0
 43
0.3500000006
 10
56.1428567963
 20
36.1575200043
 10
56.0714301453
 20
35.9432309875
 10
55.9285723114
 20
35.6575198517
  0
LINE
  5
2FA
100
AcDbEntity
  8
RACCORDO
100
AcDbLine
 62
250
  6
CONTINUOUS
 10
65.4000042308
 20
24.5
 11
65.3869056521
 21
24.4869014213
  0
LINE
  5
2FB
100
AcDbEntity
  8
RACCORDO
100
AcDbLine
 62
250
  6
CONTINUOUS
 10
65.65
 20
24.2500042308
 11
65.6369014213
 21
24.2369056521
  0
LINE
  5
2FC
100
AcDbEntity
  8
RACCORDO
100
AcDbLine
 62
7
  6
CONTINUOUS
 10
58.9358365671
 20
-8.9134203464
 11
58.81188066
 21
-8.947944816
  0
LINE
  5
2FD
100
AcDbEntity
  8
RACCORDO
100
AcDbLine
 62
7
  6
CONTINUOUS
 10
59.0471426187
 20
-8.8801433589
 11
59.0326113532
 21
-8.8840369998
  0
LINE
  5
2FE
100
AcDbEntity
  8
RACCORDO
100
AcDbLine
 62
7
  6
CONTINUOUS
 10
58.81188066
 20
-8.947944816
 11
58.6227868762
 21
-8.9992486866
  0
LINE
  5
2FF
100
AcDbEntity
  8
RACCORDO
100
AcDbLine
 62
7
  6
CONTINUOUS
 10
50.9528573813
 20
-8.8801433589
 11
50.9673886466
 21
-8.8840369997
  0
LWPOLYLINE
  5
300
100
AcDbEntity
  8
RACCORDO
100
AcDbPolyline
 62
7
  6
CONTINUOUS
 90
3
 70
0
 10
51.0111413289
 20
-8.8981571439
 10
51.0272054295
 20
-8.9028328167
 10
51.3772131189
 20
-8.9992486853
  0
LWPOLYLINE
  5
301
100
AcDbEntity
  8
RACCORDO
100
AcDbPolyline
 62
7
  6
CONTINUOUS
 90
3
 70
0
 10
50.985285613
 20
-8.8903707019
 10
50.9908572935
 20
-8.8920969719
 10
51.0111413289
 20
-8.8981571439
  0
LWPOLYLINE
  5
302
100
AcDbEntity
  8
RACCORDO
100
AcDbPolyline
 62
7
  6
CONTINUOUS
 90
6
 70
0
 10
50.9675208136
 20
-8.8841379832
 10
50.9684055682
 20
-8.8845887153
 10
50.9701457465
 20
-8.8853186566
 10
50.9727227622
 20
-8.8862950613
 10
50.9761495652
 20
-8.8874658337
 10
50.985285613
 20
-8.8903707019
  0
LINE
  5
303
100
AcDbEntity
  8
RACCORDO
100
AcDbLine
 62
7
  6
CONTINUOUS
 10
50.9675208128
 20
-8.8841379825
 11
50.9673886468
 21
-8.8840369998
  0
LINE
  5
304
100
AcDbEntity
  8
RACCORDO
100
AcDbLine
 62
250
  6
CONTINUOUS
 10
65.4000042308
 20
-24.5
 11
65.3869056521
 21
-24.4869014213
  0
LINE
  5
305
100
AcDbEntity
  8
RACCORDO
100
AcDbLine
 62
250
  6
CONTINUOUS
 10
65.65
 20
-24.2500042308
 11
65.6369014213
 21
-24.2369056521
  0
LINE
  5
306
100
AcDbEntity
  8
RACCORDO
100
AcDbLine
 62
250
  6
CONTINUOUS
 10
49.0004741095
 20
-10.0194455987
 11
45.3139425143
 21
-3.6357415555
  0
LINE
  5
307
100
AcDbEntity
  8
DRAFT
100
AcDbLine
 62
7
  6
CONTINUOUS
 10
49.0043002228
 20
-10.0051433589
 11
45.3293002228
 21
-3.6398566411
  0
LINE
  5
308
100
AcDbEntity
  8
RACCORDO
100
AcDbLine
 62
250
  6
CONTINUOUS
 10
48.8906777335
 20
-10.4354298776
 11
44.9041321539
 21
-3.5280447343
  0
LWPOLYLINE
  5
309
100
AcDbEntity
  8
RACCORDO
100
AcDbPolyline
 62
250
  6
CONTINUOUS
 90
31
 70
0
 10
46.7369014213
 20
24.2369056521
 10
46.7365582323
 20
24.2499920062
 10
46.7355304893
 20
24.2630425045
 10
46.7338210061
 20
24.2760213619
 10
46.7314344634
 20
24.2888930016
 10
46.7283774023
 20
24.3016221155
 10
46.7246582128
 20
24.314173763
 10
46.7202870977
 20
24.3265135191
 10
46.7152760422
 20
24.3386075563
 10
46.7096387939
 20
24.3504227019
 10
46.7033908148
 20
24.3619265577
 10
46.696549239
 20
24.3730875837
 10
46.6891328321
 20
24.383875174
 10
46.6811619239
 20
24.3942597633
 10
46.6726583824
 20
24.4042128667
 10
46.6636455633
 20
24.4137071599
 10
46.6541482289
 20
24.4227165817
 10
46.6441923917
 20
24.4312164786
 10
46.6338052658
 20
24.4391836209
 10
46.6230151866
 20
24.4465962509
 10
46.6118518682
 20
24.4534339327
 10
46.6003462678
 20
24.4596777344
 10
46.5885301896
 20
24.465310483
 10
46.5764358334
 20
24.4703169129
 10
46.5640960295
 20
24.474683464
 10
46.5515418449
 20
24.4783989037
 10
46.5388103798
 20
24.4814520171
 10
46.525944661
 20
24.4838331472
 10
46.5129828864
 20
24.4855367515
 10
46.499957992
 20
24.4865600141
 10
46.4869056521
 20
24.4869014213
  0
LWPOLYLINE
  5
30A
100
AcDbEntity
  8
RACCORDO
100
AcDbPolyline
 62
7
  6
CONTINUOUS
 90
34
 70
0
 10
46.75
 20
24.2500042308
 10
46.7497168498
 20
24.261899516
 10
46.7488680342
 20
24.2737678556
 10
46.7474554741
 20
24.2855823661
 10
46.7454823677
 20
24.2973162875
 10
46.7429531817
 20
24.3089430388
 10
46.7398736417
 20
24.320436279
 10
46.7362507213
 20
24.3317699738
 10
46.7320926258
 20
24.3429184493
 10
46.7274087722
 20
24.3538564463
 10
46.7222097688
 20
24.3645591876
 10
46.7165073916
 20
24.3750024283
 10
46.7103145581
 20
24.3851625059
 10
46.7036452955
 20
24.3950164051
 10
46.6965147107
 20
24.4045418038
 10
46.6889389589
 20
24.4137171191
 10
46.6809352005
 20
24.4225215661
 10
46.6725215661
 20
24.4309352005
 10
46.6637171191
 20
24.4389389589
 10
46.6545418038
 20
24.4465147107
 10
46.6450164051
 20
24.4536452955
 10
46.6351625059
 20
24.4603145581
 10
46.6250024283
 20
24.4665073916
 10
46.6145591876
 20
24.4722097688
 10
46.6038564463
 20
24.4774087722
 10
46.5929184493
 20
24.4820926258
 10
46.5817699738
 20
24.4862507213
 10
46.570436279
 20
24.4898736417
 10
46.5589430388
 20
24.4929531817
 10
46.5473162875
 20
24.4954823677
 10
46.5355823661
 20
24.4974554741
 10
46.5237678556
 20
24.4988680342
 10
46.511899516
 20
24.4997168498
 10
46.5000042308
 20
24.5
  0
LINE
  5
30B
100
AcDbEntity
  8
RACCORDO
100
AcDbLine
 62
250
  6
CONTINUOUS
 10
46.4869056521
 20
23.6278312164
 11
46.4919962532
 21
23.1226497308
  0
LINE
  5
30C
100
AcDbEntity
  8
RACCORDO
100
AcDbLine
 62
250
  6
CONTINUOUS
 10
46.7369014213
 20
23.8443375673
 11
46.7427192511
 21
23.2669872981
  0
LINE
  5
30D
100
AcDbEntity
  8
RACCORDO
100
AcDbLine
 62
250
  6
CONTINUOUS
 10
46.4869056521
 20
-23.6278312164
 11
46.4869056521
 21
-24.4869014213
  0
LINE
  5
30E
100
AcDbEntity
  8
RACCORDO
100
AcDbLine
 62
250
  6
CONTINUOUS
 10
46.4869056521
 20
23.6278312164
 11
46.4869056521
 21
24.4869014213
  0
LINE
  5
30F
100
AcDbEntity
  8
RACCORDO
100
AcDbLine
 62
250
  6
CONTINUOUS
 10
46.4927234819
 20
23.1226497308
 11
46.4927234819
 21
22.3213883311
  0
LINE
  5
310
100
AcDbEntity
  8
RACCORDO
100
AcDbLine
 62
250
  6
CONTINUOUS
 10
46.4927234819
 20
-22.3213883311
 11
46.4927234819
 21
-23.1226497308
  0
LINE
  5
311
100
AcDbEntity
  8
RACCORDO
100
AcDbLine
 62
250
  6
CONTINUOUS
 10
46.7369014213
 20
-24.2369056521
 11
46.7369014213
 21
-23.8443375673
  0
LINE
  5
312
100
AcDbEntity
  8
RACCORDO
100
AcDbLine
 62
250
  6
CONTINUOUS
 10
46.7369014213
 20
23.8443375673
 11
46.7369014213
 21
24.2369056521
  0
LINE
  5
313
100
AcDbEntity
  8
RACCORDO
100
AcDbLine
 62
250
  6
CONTINUOUS
 10
46.7427192511
 20
23.2669872981
 11
46.7427192511
 21
22.3344140523
  0
LINE
  5
314
100
AcDbEntity
  8
RACCORDO
100
AcDbLine
 62
250
  6
CONTINUOUS
 10
46.7427192511
 20
-22.3344140523
 11
46.7427192511
 21
-23.2669872981
  0
LINE
  5
315
100
AcDbEntity
  8
RACCORDO
100
AcDbLine
 62
7
  6
CONTINUOUS
 10
46.75
 20
-22.4
 11
46.75
 21
-24.2500042308
  0
LINE
  5
316
100
AcDbEntity
  8
RACCORDO
100
AcDbLine
 62
7
  6
CONTINUOUS
 10
46.75
 20
22.4
 11
46.75
 21
24.2500042308
  0
LINE
  5
317
100
AcDbEntity
  8
RACCORDO
100
AcDbLine
 62
250
  6
CONTINUOUS
 10
46.4919962532
 20
-23.1226497308
 11
46.4869056521
 21
-23.6278312164
  0
LINE
  5
318
100
AcDbEntity
  8
RACCORDO
100
AcDbLine
 62
250
  6
CONTINUOUS
 10
46.7427192511
 20
-23.2669872981
 11
46.7369014213
 21
-23.8443375673
  0
LINE
  5
319
100
AcDbEntity
  8
RACCORDO
100
AcDbLine
 62
7
  6
CONTINUOUS
 10
44.35
 20
-22.4
 11
44.3572807489
 21
-22.3344140523
  0
LINE
  5
31A
100
AcDbEntity
  8
SMUSSO
100
AcDbLine
 62
7
  6
CONTINUOUS
 10
53.875
 20
11.2111748076
 11
53.9531163181
 21
11.3216479642
  0
LINE
  5
31B
100
AcDbEntity
  8
SMUSSO
100
AcDbLine
 62
7
  6
CONTINUOUS
 10
53.9531163181
 20
10.6216479642
 11
54.448091065
 21
11.3216479642
  0
LWPOLYLINE
  5
31C
100
AcDbEntity
  8
RACCORDO
100
AcDbPolyline
 62
7
  6
CONTINUOUS
 90
3
 70
0
 10
56.1410617157
 20
11.6925005768
 10
56.1476093257
 20
11.6996572071
 10
56.151625101
 20
11.7039846984
  0
LINE
  5
31D
100
AcDbEntity
  8
RACCORDO
100
AcDbLine
 62
7
  6
CONTINUOUS
 10
56.151625101
 20
11.7039846984
 11
56.1663542853
 21
11.7195476774
  0
LINE
  5
31E
100
AcDbEntity
  8
RACCORDO
100
AcDbLine
 62
7
  6
CONTINUOUS
 10
56.1663542853
 20
11.7195476774
 11
56.1844079985
 21
11.7383480557
  0
LINE
  5
31F
100
AcDbEntity
  8
RACCORDO
100
AcDbLine
 62
7
  6
CONTINUOUS
 10
56.1844079985
 20
11.7383480557
 11
56.2695669351
 21
11.8255383818
  0
LINE
  5
320
100
AcDbEntity
  8
RACCORDO
100
AcDbLine
 62
7
  6
CONTINUOUS
 10
56.2695669351
 20
11.8255383818
 11
56.3794471831
 21
11.9365054972
  0
LINE
  5
321
100
AcDbEntity
  8
RACCORDO
100
AcDbLine
 62
7
  6
CONTINUOUS
 10
56.125
 20
11.675
 11
56.1351132911
 21
11.6851132911
  0
LINE
  5
322
100
AcDbEntity
  8
RACCORDO
100
AcDbLine
 62
7
  6
CONTINUOUS
 10
56.3794471831
 20
11.9365054972
 11
56.435101868
 21
11.9922972464
  0
LINE
  5
323
100
AcDbEntity
  8
DRAFT
100
AcDbLine
 62
7
  6
CONTINUOUS
 10
47.2778573813
 20
-2.5148566411
 11
50.9528573813
 21
-8.8801433589
  0
LINE
  5
324
100
AcDbEntity
  8
RACCORDO
100
AcDbLine
 62
250
  6
CONTINUOUS
 10
47.2820006332
 20
-2.4993938145
 11
50.9675208128
 21
-8.8841379825
  0
LINE
  5
325
100
AcDbEntity
  8
RACCORDO
100
AcDbLine
 62
250
  6
CONTINUOUS
 10
47.3918233919
 20
-2.0908506032
 11
51.3772127591
 21
-8.9992495863
  0
LINE
  5
326
100
AcDbEntity
  8
RACCORDO
100
AcDbLine
 62
7
  6
CONTINUOUS
 10
44.35
 20
22.4
 11
44.3572807489
 21
22.3344140523
  0
LWPOLYLINE
  5
327
100
AcDbEntity
  8
RACCORDO
100
AcDbPolyline
 62
250
  6
CONTINUOUS
 90
13
 70
0
 10
44.5007240378
 20
-21.998725222
 10
44.5009066572
 20
-21.9978204706
 10
44.5010891158
 20
-21.9967513716
 10
44.5012714138
 20
-21.9955180425
 10
44.501453571
 20
-21.9941206186
 10
44.5016355674
 20
-21.9925592535
 10
44.5018173438
 20
-21.9908341186
 10
44.5019989004
 20
-21.9889454033
 10
44.5021802368
 20
-21.9868933151
 10
44.5023612931
 20
-21.9846780795
 10
44.502542069
 20
-21.9822999397
 10
44.5027225648
 20
-21.979759157
 10
44.5030825378
 20
-21.9741907979
  0
LINE
  5
328
100
AcDbEntity
  8
RACCORDO
100
AcDbLine
 62
7
  6
CONTINUOUS
 10
47.2778573813
 20
-2.5148566411
 11
47.2820006332
 21
-2.4993938145
  0
LINE
  5
329
100
AcDbEntity
  8
RACCORDO
100
AcDbLine
 62
7
  6
CONTINUOUS
 10
47.3918077586
 20
-2.0908425484
 11
47.2881145368
 21
-2.4770512293
  0
LWPOLYLINE
  5
32A
100
AcDbEntity
  8
RACCORDO
100
AcDbPolyline
 62
7
  6
CONTINUOUS
 90
7
 70
0
 10
47.2881145368
 20
-2.4770512293
 10
47.2853184348
 20
-2.4873046327
 10
47.2842244003
 20
-2.4913990181
 10
47.2833149109
 20
-2.494685553
 10
47.2826067393
 20
-2.4971118304
 10
47.2821566766
 20
-2.4986880994
 10
47.2820006339
 20
-2.4993938132
  0
LWPOLYLINE
  5
32B
100
AcDbEntity
  8
RACCORDO
100
AcDbPolyline
 62
7
  6
CONTINUOUS
 90
5
 70
0
 10
56.1351752836
 20
11.685259425
 10
56.135722354
 20
11.6860893796
 10
56.1368795324
 20
11.6875984727
 10
56.1386468188
 20
11.6897485684
 10
56.1410617157
 20
11.6925005768
  0
LINE
  5
32C
100
AcDbEntity
  8
RACCORDO
100
AcDbLine
 62
7
  6
CONTINUOUS
 10
64.6706997772
 20
-3.6398566411
 11
64.6860574822
 21
-3.6357415565
  0
LINE
  5
32D
100
AcDbEntity
  8
RACCORDO
100
AcDbLine
 62
7
  6
CONTINUOUS
 10
64.7153866263
 20
-3.6286671773
 11
65.095872165
 21
-3.5280488725
  0
LWPOLYLINE
  5
32E
100
AcDbEntity
  8
RACCORDO
100
AcDbPolyline
 62
7
  6
CONTINUOUS
 90
3
 70
0
 10
64.6886324548
 20
-3.6353056041
 10
64.698753483
 20
-3.6328579722
 10
64.7153866263
 20
-3.6286671773
  0
LINE
  5
32F
100
AcDbEntity
  8
RACCORDO
100
AcDbLine
 62
7
  6
CONTINUOUS
 10
45.301246517
 20
-3.6328579722
 11
45.2846133736
 21
-3.6286671773
  0
LINE
  5
330
100
AcDbEntity
  8
RACCORDO
100
AcDbLine
 62
7
  6
CONTINUOUS
 10
45.2846133736
 20
-3.6286671773
 11
45.2367765557
 21
-3.6163037768
  0
LINE
  5
331
100
AcDbEntity
  8
RACCORDO
100
AcDbLine
 62
7
  6
CONTINUOUS
 10
45.2367765557
 20
-3.6163037768
 11
45.0687277092
 21
-3.5719812355
  0
LINE
  5
332
100
AcDbEntity
  8
RACCORDO
100
AcDbLine
 62
7
  6
CONTINUOUS
 10
45.3293002228
 20
-3.6398566411
 11
45.3139425098
 21
-3.6357415543
  0
LINE
  5
333
100
AcDbEntity
  8
RACCORDO
100
AcDbLine
 62
7
  6
CONTINUOUS
 10
45.0687277092
 20
-3.5719812355
 11
44.9041278328
 21
-3.5280488719
  0
LINE
  5
334
100
AcDbEntity
  8
RACCORDO
100
AcDbLine
 62
250
  6
CONTINUOUS
 10
60.999522921
 20
-10.0194115259
 11
59.0326113535
 21
-8.8840369997
  0
LINE
  5
335
100
AcDbEntity
  8
DRAFT
100
AcDbLine
 62
7
  6
CONTINUOUS
 10
60.9956997772
 20
-10.0051433589
 11
59.0471426187
 21
-8.8801433589
  0
LINE
  5
336
100
AcDbEntity
  8
RACCORDO
100
AcDbLine
 62
250
  6
CONTINUOUS
 10
61.109316236
 20
-10.4354418465
 11
58.6227812748
 21
-8.9992599423
  0
LINE
  5
337
100
AcDbEntity
  8
DRAFT
100
AcDbLine
 62
7
  6
CONTINUOUS
 10
50.6
 20
-23.8
 11
50.6
 21
-22.4
  0
LINE
  5
338
100
AcDbEntity
  8
DRAFT
100
AcDbLine
 62
7
  6
CONTINUOUS
 10
50.6
 20
22.4
 11
50.6
 21
23.8
  0
LINE
  5
339
100
AcDbEntity
  8
RACCORDO
100
AcDbLine
 62
250
  6
CONTINUOUS
 10
50.6029258382
 20
23.7970741618
 11
50.6029258382
 21
22.3736436632
  0
LINE
  5
33A
100
AcDbEntity
  8
RACCORDO
100
AcDbLine
 62
250
  6
CONTINUOUS
 10
50.6029258382
 20
-22.3736436632
 11
50.6029258382
 21
-23.7970741618
  0
LINE
  5
33B
100
AcDbEntity
  8
RACCORDO
100
AcDbLine
 62
250
  6
CONTINUOUS
 10
51.1029173766
 20
23.5953423515
 11
51.1029173766
 21
22.3475922207
  0
LINE
  5
33C
100
AcDbEntity
  8
RACCORDO
100
AcDbLine
 62
250
  6
CONTINUOUS
 10
51.1029173766
 20
-22.3475922207
 11
51.1029173766
 21
-23.5953423515
  0
LINE
  5
33D
100
AcDbEntity
  8
RACCORDO
100
AcDbLine
 62
7
  6
CONTINUOUS
 10
49.0004741095
 20
-10.0194455987
 11
49.0004770787
 21
-10.019411527
  0
LWPOLYLINE
  5
33E
100
AcDbEntity
  8
RACCORDO
100
AcDbPolyline
 62
7
  6
CONTINUOUS
 90
3
 70
0
 10
49.0004741095
 20
-10.0194455936
 10
49.0004083231
 20
-10.0200356438
 10
49.0001463038
 20
-10.021239382
  0
LINE
  5
33F
100
AcDbEntity
  8
RACCORDO
100
AcDbLine
 62
7
  6
CONTINUOUS
 10
49.0001463038
 20
-10.021239382
 11
48.9983855643
 21
-10.0284622237
  0
LWPOLYLINE
  5
340
100
AcDbEntity
  8
RACCORDO
100
AcDbPolyline
 62
7
  6
CONTINUOUS
 90
4
 70
0
 10
48.9983855643
 20
-10.0284622237
 10
48.9974996183
 20
-10.0319749196
 10
48.9964776001
 20
-10.035989007
 10
48.9953383843
 20
-10.0404949218
  0
LINE
  5
341
100
AcDbEntity
  8
RACCORDO
100
AcDbLine
 62
250
  6
CONTINUOUS
 10
43.9447339524
 20
-21.6970940403
 11
43.9625285199
 21
-21.6302751482
  0
LWPOLYLINE
  5
342
100
AcDbEntity
  8
RACCORDO
100
AcDbPolyline
 62
250
  6
CONTINUOUS
 90
5
 70
0
 10
43.9625285199
 20
-21.6302751482
 10
43.9717079441
 20
-21.5968658682
 10
43.9811362733
 20
-21.564173902
 10
43.9907831018
 20
-21.5318406482
 10
44.0006484296
 20
-21.4998661067
  0
LWPOLYLINE
  5
343
100
AcDbEntity
  8
RACCORDO
100
AcDbPolyline
 62
250
  6
CONTINUOUS
 90
17
 70
0
 10
44.0008001903
 20
-21.4994104546
 10
44.0009828096
 20
-21.4988071334
 10
44.0011652686
 20
-21.4980944235
 10
44.0013475671
 20
-21.4972723249
 10
44.0015297251
 20
-21.4963407233
 10
44.0017117227
 20
-21.4952997331
 10
44.0018934999
 20
-21.4941496965
 10
44.0020750568
 20
-21.4928905774
 10
44.0022563933
 20
-21.4915224119
 10
44.0024374498
 20
-21.4900456515
 10
44.0026182261
 20
-21.4884602607
 10
44.0027987223
 20
-21.486766275
 10
44.002978879
 20
-21.4849642525
 10
44.003158696
 20
-21.4830541574
 10
44.0033381736
 20
-21.4810360255
 10
44.0035172524
 20
-21.4789105226
 10
44.0038742139
 20
-21.4743373337
  0
LWPOLYLINE
  5
344
100
AcDbEntity
  8
RACCORDO
100
AcDbPolyline
 62
250
  6
CONTINUOUS
 90
16
 70
0
 10
44.3171125252
 20
-22.4
 10
44.3253604103
 20
-22.3737816516
 10
44.3340406589
 20
-22.347724963
 10
44.3431532711
 20
-22.3218299342
 10
44.3523926833
 20
-22.2961873244
 10
44.3620644591
 20
-22.2707063744
 10
44.3730852888
 20
-22.2451148062
 10
44.3860542887
 20
-22.2194127126
 10
44.4003723425
 20
-22.1936000008
 10
44.4151587924
 20
-22.1674041138
 10
44.4305415754
 20
-22.1408251666
 10
44.4463927545
 20
-22.1138630441
 10
44.461447861
 20
-22.0862448439
 10
44.4752854056
 20
-22.0578795984
 10
44.4883268776
 20
-22.0288582751
 10
44.5005722772
 20
-21.9991808741
  0
LWPOLYLINE
  5
345
100
AcDbEntity
  8
RACCORDO
100
AcDbPolyline
 62
250
  6
CONTINUOUS
 90
5
 70
0
 10
43.9019286121
 20
-21.8455642319
 10
43.9103988559
 20
-21.8189258015
 10
43.9189055032
 20
-21.7908683775
 10
43.9274482898
 20
-21.7607952918
 10
43.9447339524
 20
-21.6970940403
  0
LINE
  5
346
100
AcDbEntity
  8
RACCORDO
100
AcDbLine
 62
250
  6
CONTINUOUS
 10
44.0006484296
 20
-21.4998661067
 11
44.0008001903
 21
-21.4994104546
  0
LWPOLYLINE
  5
347
100
AcDbEntity
  8
RACCORDO
100
AcDbPolyline
 62
250
  6
CONTINUOUS
 90
4
 70
0
 10
43.8674207187
 20
-21.9498971557
 10
43.8761357239
 20
-21.9242195846
 10
43.8847970461
 20
-21.8982111234
 10
43.9019286121
 20
-21.8455642319
  0
LINE
  5
348
100
AcDbEntity
  8
RACCORDO
100
AcDbLine
 62
7
  6
CONTINUOUS
 10
56.1351752825
 20
11.6852594214
 11
56.1351132911
 21
11.6851132911
  0
LINE
  5
349
100
AcDbEntity
  8
RACCORDO
100
AcDbLine
 62
7
  6
CONTINUOUS
 10
53.875
 20
4.325
 11
53.8637947236
 21
4.3137947236
  0
LINE
  5
34A
100
AcDbEntity
  8
RACCORDO
100
AcDbLine
 62
7
  6
CONTINUOUS
 10
53.8421580615
 20
4.2930671012
 11
53.563784329
 21
4.0161940454
  0
LINE
  5
34B
100
AcDbEntity
  8
RACCORDO
100
AcDbLine
 62
7
  6
CONTINUOUS
 10
53.8543771763
 20
4.3049785724
 11
53.8421580615
 21
4.2930671012
  0
LINE
  5
34C
100
AcDbEntity
  8
RACCORDO
100
AcDbLine
 62
7
  6
CONTINUOUS
 10
53.8618373953
 20
4.3121379894
 11
53.8543771763
 21
4.3049785724
  0
LWPOLYLINE
  5
34D
100
AcDbEntity
  8
RACCORDO
100
AcDbPolyline
 62
7
  6
CONTINUOUS
 90
3
 70
0
 10
53.8637624897
 20
4.3137729058
 10
53.8630998388
 20
4.3132941652
 10
53.8618373953
 20
4.3121379894
  0
LINE
  5
34E
100
AcDbEntity
  8
RACCORDO
100
AcDbLine
 62
7
  6
CONTINUOUS
 10
53.8637624897
 20
4.3137729058
 11
53.8637947226
 21
4.3137947226
  0
LWPOLYLINE
  5
34F
100
AcDbEntity
  8
RACCORDO
100
AcDbPolyline
 62
7
  6
CONTINUOUS
 90
3
 70
0
 10
64.6861049468
 20
-3.635739361
 10
64.6869384661
 20
-3.6356663728
 10
64.6886324548
 20
-3.6353056041
  0
LINE
  5
350
100
AcDbEntity
  8
RACCORDO
100
AcDbLine
 62
7
  6
CONTINUOUS
 10
64.686104945
 20
-3.6357393609
 11
64.6860574902
 21
-3.6357415543
  0
LINE
  5
351
100
AcDbEntity
  8
RACCORDO
100
AcDbLine
 62
7
  6
CONTINUOUS
 10
45.3138950528
 20
-3.635739361
 11
45.3139425098
 21
-3.6357415543
  0
LWPOLYLINE
  5
352
100
AcDbEntity
  8
RACCORDO
100
AcDbPolyline
 62
7
  6
CONTINUOUS
 90
4
 70
0
 10
45.3138950532
 20
-3.635739361
 10
45.3130615339
 20
-3.6356663728
 10
45.3113675452
 20
-3.6353056041
 10
45.301246517
 20
-3.6328579722
  0
LINE
  5
353
100
AcDbEntity
  8
RACCORDO
100
AcDbLine
 62
250
  6
CONTINUOUS
 10
44.0008001903
 20
21.4994104546
 11
44.0006484296
 21
21.4998661067
  0
LINE
  5
354
100
AcDbEntity
  8
RACCORDO
100
AcDbLine
 62
250
  6
CONTINUOUS
 10
43.8824194394
 20
21.9050695018
 11
43.8674208399
 21
21.9498972163
  0
LWPOLYLINE
  5
355
100
AcDbEntity
  8
RACCORDO
100
AcDbPolyline
 62
250
  6
CONTINUOUS
 90
7
 70
0
 10
44.0006484296
 20
21.4998661067
 10
43.9964774014
 20
21.5125898514
 10
43.992014451
 20
21.5268028535
 10
43.9872595784
 20
21.5425051129
 10
43.982196155
 20
21.5597732587
 10
43.9768408094
 20
21.5785306618
 10
43.9712434277
 20
21.5985474353
  0
LINE
  5
356
100
AcDbEntity
  8
RACCORDO
100
AcDbLine
 62
250
  6
CONTINUOUS
 10
43.9712434277
 20
21.5985474353
 11
43.9593227185
 21
21.6425383855
  0
LWPOLYLINE
  5
357
100
AcDbEntity
  8
RACCORDO
100
AcDbPolyline
 62
250
  6
CONTINUOUS
 90
8
 70
0
 10
43.9593227185
 20
21.6425383855
 10
43.9399243822
 20
21.7151403235
 10
43.9331229239
 20
21.7401456581
 10
43.9261784831
 20
21.7651609042
 10
43.9190910659
 20
21.790193096
 10
43.9119101077
 20
21.8145197364
 10
43.904634977
 20
21.837689652
 10
43.8824194394
 20
21.9050695018
  0
LINE
  5
358
100
AcDbEntity
  8
RACCORDO
100
AcDbLine
 62
7
  6
CONTINUOUS
 10
50.6
 20
-22.4
 11
50.6029258382
 21
-22.3736436632
  0
LINE
  5
359
100
AcDbEntity
  8
RACCORDO
100
AcDbLine
 62
7
  6
CONTINUOUS
 10
48.9953383843
 20
-10.0404949218
 11
48.980366235
 21
-10.098056928
  0
LINE
  5
35A
100
AcDbEntity
  8
RACCORDO
100
AcDbLine
 62
7
  6
CONTINUOUS
 10
48.980366235
 20
-10.098056928
 11
48.9273270783
 21
-10.2982915798
  0
LINE
  5
35B
100
AcDbEntity
  8
RACCORDO
100
AcDbLine
 62
7
  6
CONTINUOUS
 10
49.0043002228
 20
-10.0051433589
 11
49.0004770787
 21
-10.019411527
  0
LINE
  5
35C
100
AcDbEntity
  8
RACCORDO
100
AcDbLine
 62
7
  6
CONTINUOUS
 10
48.9273270783
 20
-10.2982915798
 11
48.8906835668
 21
-10.4354277486
  0
LINE
  5
35D
100
AcDbEntity
  8
RACCORDO
100
AcDbLine
 62
250
  6
CONTINUOUS
 10
44.5005722772
 20
-21.9991808741
 11
44.5007240378
 21
-21.998725222
  0
LINE
  5
35E
100
AcDbEntity
  8
RACCORDO
100
AcDbLine
 62
250
  6
CONTINUOUS
 10
65.5681331844
 20
22.1386690617
 11
65.5497237888
 21
22.1065514118
  0
LINE
  5
35F
100
AcDbEntity
  8
RACCORDO
100
AcDbLine
 62
250
  6
CONTINUOUS
 10
44.9041321539
 20
-3.5280447343
 11
47.3918233919
 21
-2.0908506032
  0
LINE
  5
360
100
AcDbEntity
  8
RACCORDO
100
AcDbLine
 62
250
  6
CONTINUOUS
 10
45.3138950528
 20
-3.635739361
 11
47.2820022437
 21
-2.4993878039
  0
LINE
  5
361
100
AcDbEntity
  8
DRAFT
100
AcDbLine
 62
7
  6
CONTINUOUS
 10
45.3293002228
 20
-3.6398566411
 11
47.2778573813
 21
-2.5148566411
  0
LINE
  5
362
100
AcDbEntity
  8
RACCORDO
100
AcDbLine
 62
250
  6
CONTINUOUS
 10
65.5677995163
 20
-22.1380939735
 11
65.5869783629
 21
-22.1710892345
  0
LWPOLYLINE
  5
363
100
AcDbEntity
  8
RACCORDO
100
AcDbPolyline
 62
250
  6
CONTINUOUS
 90
13
 70
0
 10
65.5869783629
 20
-22.1710892345
 10
65.5963127185
 20
-22.187435357
 10
65.6052511762
 20
-22.203479312
 10
65.6138470747
 20
-22.2192744691
 10
65.6217428886
 20
-22.2345375598
 10
65.6287660281
 20
-22.2491111648
 10
65.6350890829
 20
-22.2631527033
 10
65.6408722967
 20
-22.2768511645
 10
65.646031327
 20
-22.2901188446
 10
65.6506505163
 20
-22.3030434474
 10
65.6551431366
 20
-22.3160770733
 10
65.6595497388
 20
-22.3292768121
 10
65.6682748551
 20
-22.3562841907
  0
LWPOLYLINE
  5
364
100
AcDbEntity
  8
RACCORDO
100
AcDbPolyline
 62
250
  6
CONTINUOUS
 90
9
 70
0
 10
44.5005722772
 20
21.9991808741
 10
44.4961935658
 20
22.0117243523
 10
44.4909078548
 20
22.0251478635
 10
44.4847151442
 20
22.0394514077
 10
44.4775717136
 20
22.0546851881
 10
44.4695212834
 20
22.0707990014
 10
44.4606950144
 20
22.0876422381
 10
44.4510026649
 20
22.1052148163
 10
44.4296923351
 20
22.142397878
  0
LWPOLYLINE
  5
365
100
AcDbEntity
  8
RACCORDO
100
AcDbPolyline
 62
250
  6
CONTINUOUS
 90
3
 70
0
 10
44.3319382231
 20
22.3548930247
 10
44.3244486207
 20
22.3773834536
 10
44.3171125252
 20
22.4
  0
LINE
  5
366
100
AcDbEntity
  8
RACCORDO
100
AcDbLine
 62
250
  6
CONTINUOUS
 10
44.5007240378
 20
21.998725222
 11
44.5005722772
 21
21.9991808741
  0
LINE
  5
367
100
AcDbEntity
  8
RACCORDO
100
AcDbLine
 62
7
  6
CONTINUOUS
 10
50.6
 20
22.4
 11
50.6029258382
 21
22.3736436632
  0
LINE
  5
368
100
AcDbEntity
  8
DRAFT
100
AcDbLine
 62
7
  6
CONTINUOUS
 10
53.875
 20
4.325
 11
53.875
 21
11.675
  0
LINE
  5
369
100
AcDbEntity
  8
SMUSSO
100
AcDbLine
 62
7
  6
CONTINUOUS
 10
53.9531163181
 20
4.3266732173
 11
53.9531163181
 21
10.6216479642
  0
LINE
  5
36A
100
AcDbEntity
  8
0
100
AcDbLine
 62
7
  6
CONTINUOUS
 10
54.2077849671
 20
11.675
 11
54.2077849671
 21
11.3216479642
  0
LINE
  5
36B
100
AcDbEntity
  8
0
100
AcDbLine
 62
7
  6
CONTINUOUS
 10
54.7367659092
 20
11.3216479642
 11
54.7367659092
 21
11.675
  0
LINE
  5
36C
100
AcDbEntity
  8
0
100
AcDbLine
 62
250
  6
CONTINUOUS
 10
55.1552483525
 20
4.325
 11
55.1552483525
 21
11.3216479642
  0
LINE
  5
36D
100
AcDbEntity
  8
RACCORDO
100
AcDbLine
 62
250
  6
CONTINUOUS
 10
53.5637843287
 20
4.0161940454
 11
53.5648981328
 21
11.9922972464
  0
LINE
  5
36E
100
AcDbEntity
  8
RACCORDO
100
AcDbLine
 62
250
  6
CONTINUOUS
 10
53.8637947236
 20
4.3137947236
 11
53.8648247175
 21
11.6852594214
  0
LWPOLYLINE
  5
36F
100
AcDbEntity
  8
RACCORDO
100
AcDbPolyline
 62
250
  6
CONTINUOUS
 90
8
 70
0
 10
65.5497237888
 20
22.1065514118
 10
65.5410258702
 20
22.0908079916
 10
65.5328324041
 20
22.0754487762
 10
65.5250735918
 20
22.0603326496
 10
65.5178304407
 20
22.04513472
 10
65.5111299533
 20
22.0297466903
 10
65.5049451271
 20
22.0142768576
 10
65.4992759622
 20
21.998725222
  0
LWPOLYLINE
  5
370
100
AcDbEntity
  8
0
100
AcDbPolyline
 62
7
  6
CONTINUOUS
 90
2
 70
0
 43
0.3500000006
 10
76.6307221985
 20
-1.3571429443
 10
75.1307217407
 20
-1.3571429443
  0
LINE
  5
371
100
AcDbEntity
  8
0
100
AcDbLine
 62
7
  6
CONTINUOUS
 10
55.4261313363
 20
11.3216479642
 11
55.4261313363
 21
11.675
  0
LINE
  5
372
100
AcDbEntity
  8
0
100
AcDbLine
 62
7
  6
CONTINUOUS
 10
55.4481415713
 20
11.3216479642
 11
55.4481415713
 21
4.325
  0
LINE
  5
373
100
AcDbEntity
  8
0
100
AcDbLine
 62
7
  6
CONTINUOUS
 10
55.5169384143
 20
11.3216479642
 11
55.5169384143
 21
4.325
  0
LINE
  5
374
100
AcDbEntity
  8
0
100
AcDbLine
 62
7
  6
CONTINUOUS
 10
55.5444600727
 20
11.3216479642
 11
55.5444600727
 21
11.675
  0
LINE
  5
375
100
AcDbEntity
  8
0
100
AcDbLine
 62
250
  6
CONTINUOUS
 10
55.7508939712
 20
4.325
 11
55.7508939712
 21
11.3216479642
  0
LINE
  5
376
100
AcDbEntity
  8
DRAFT
100
AcDbLine
 62
7
  6
CONTINUOUS
 10
56.125
 20
11.675
 11
56.125
 21
4.325
  0
LINE
  5
377
100
AcDbEntity
  8
RACCORDO
100
AcDbLine
 62
250
  6
CONTINUOUS
 10
56.1351752825
 20
11.6852594214
 11
56.1362052764
 21
4.3137947236
  0
LINE
  5
378
100
AcDbEntity
  8
RACCORDO
100
AcDbLine
 62
250
  6
CONTINUOUS
 10
56.4351018672
 20
11.9922972464
 11
56.4362156713
 21
4.0161940454
  0
LINE
  5
379
100
AcDbEntity
  8
RACCORDO
100
AcDbLine
 62
7
  6
CONTINUOUS
 10
59.4
 20
22.4
 11
59.3970741618
 21
22.3736436632
  0
LINE
  5
37A
100
AcDbEntity
  8
DRAFT
100
AcDbLine
 62
7
  6
CONTINUOUS
 10
62.7221426187
 20
-2.5148566411
 11
64.6706997772
 21
-3.6398566411
  0
LINE
  5
37B
100
AcDbEntity
  8
RACCORDO
100
AcDbLine
 62
250
  6
CONTINUOUS
 10
62.7179977563
 20
-2.499387804
 11
64.686104945
 21
-3.6357393609
  0
LINE
  5
37C
100
AcDbEntity
  8
RACCORDO
100
AcDbLine
 62
250
  6
CONTINUOUS
 10
62.6081759607
 20
-2.0908515028
 11
65.0958576953
 21
-3.5280454138
  0
LINE
  5
37D
100
AcDbEntity
  8
RACCORDO
100
AcDbLine
 62
250
  6
CONTINUOUS
 10
44.4296923351
 20
22.142397878
 11
44.406721415
 21
22.1818970249
  0
LWPOLYLINE
  5
37E
100
AcDbEntity
  8
RACCORDO
100
AcDbPolyline
 62
250
  6
CONTINUOUS
 90
8
 70
0
 10
44.406721415
 20
22.1818970249
 10
44.3953240764
 20
22.2023650466
 10
44.3842120335
 20
22.2232619953
 10
44.3733750888
 20
22.244587863
 10
44.3634317005
 20
22.2661924851
 10
44.3548347046
 20
22.2880766858
 10
44.347131265
 20
22.3102396408
 10
44.3319382231
 20
22.3548930247
  0
LINE
  5
37F
100
AcDbEntity
  8
RACCORDO
100
AcDbLine
 62
7
  6
CONTINUOUS
 10
59.4
 20
-22.4
 11
59.3970741618
 21
-22.3736436632
  0
LINE
  5
380
100
AcDbEntity
  8
RACCORDO
100
AcDbLine
 62
250
  6
CONTINUOUS
 10
65.6682100958
 20
22.3560992404
 11
65.6594932607
 21
22.329099242
  0
LINE
  5
381
100
AcDbEntity
  8
RACCORDO
100
AcDbLine
 62
250
  6
CONTINUOUS
 10
66.1046501349
 20
21.8662532954
 11
66.0959982236
 21
21.8397834628
  0
LWPOLYLINE
  5
382
100
AcDbEntity
  8
RACCORDO
100
AcDbPolyline
 62
250
  6
CONTINUOUS
 90
13
 70
0
 10
65.6594932607
 20
22.329099242
 10
65.6550897742
 20
22.3159047159
 10
65.6505848073
 20
22.3028428033
 10
65.6459479883
 20
22.2898804618
 10
65.6407827837
 20
22.2766063312
 10
65.6350075208
 20
22.2629484559
 10
65.6287038722
 20
22.2489787916
 10
65.6217203228
 20
22.234501845
 10
65.6138991412
 20
22.2193756811
 10
65.6053980587
 20
22.2037422349
 10
65.5965387539
 20
22.1878318187
 10
65.587260962
 20
22.1715806691
 10
65.5681331844
 20
22.1386690617
  0
LWPOLYLINE
  5
383
100
AcDbEntity
  8
RACCORDO
100
AcDbPolyline
 62
250
  6
CONTINUOUS
 90
3
 70
0
 10
65.682892514
 20
22.4
 10
65.6778248083
 20
22.3849546096
 10
65.6682100958
 20
22.3560992404
  0
LINE
  5
384
100
AcDbEntity
  8
RACCORDO
100
AcDbLine
 62
250
  6
CONTINUOUS
 10
66.1325779097
 20
21.9498978415
 11
66.1046501349
 21
21.8662532954
  0
LINE
  5
385
100
AcDbEntity
  8
RACCORDO
100
AcDbLine
 62
7
  6
CONTINUOUS
 10
53.8648247175
 20
11.6852594214
 11
53.8648867089
 21
11.6851132911
  0
LWPOLYLINE
  5
386
100
AcDbEntity
  8
RACCORDO
100
AcDbPolyline
 62
250
  6
CONTINUOUS
 90
9
 70
0
 10
65.4992759622
 20
-21.998725222
 10
65.5049623752
 20
-22.0143139686
 10
65.5111465695
 20
-22.0297857889
 10
65.5178285452
 20
-22.0451406829
 10
65.5250295722
 20
-22.060257192
 10
65.5327283806
 20
-22.0752567747
 10
65.5408611602
 20
-22.0905038067
 10
65.5494929704
 20
-22.1061373696
 10
65.5677995163
 20
-22.1380939735
  0
LINE
  5
387
100
AcDbEntity
  8
RACCORDO
100
AcDbLine
 62
250
  6
CONTINUOUS
 10
66.1063358052
 20
-21.8713815411
 11
66.1325780505
 21
-21.9498977711
  0
LINE
  5
388
100
AcDbEntity
  8
RACCORDO
100
AcDbLine
 62
250
  6
CONTINUOUS
 10
65.6682748551
 20
-22.3562841907
 11
65.682892023
 21
-22.4
  0
LINE
  5
389
100
AcDbEntity
  8
RACCORDO
100
AcDbLine
 62
7
  6
CONTINUOUS
 10
60.9956997772
 20
-10.0051433589
 11
60.999522921
 21
-10.0194115259
  0
LINE
  5
38A
100
AcDbEntity
  8
RACCORDO
100
AcDbLine
 62
7
  6
CONTINUOUS
 10
61.0507101706
 20
-10.2157018806
 11
61.1093164352
 21
-10.4354277558
  0
LINE
  5
38B
100
AcDbEntity
  8
RACCORDO
100
AcDbLine
 62
7
  6
CONTINUOUS
 10
61.0428902267
 20
-10.1862066433
 11
61.0507101706
 21
-10.2157018806
  0
LINE
  5
38C
100
AcDbEntity
  8
RACCORDO
100
AcDbLine
 62
7
  6
CONTINUOUS
 10
61.0120659086
 20
-10.0691271992
 11
61.0428902267
 21
-10.1862066433
  0
LINE
  5
38D
100
AcDbEntity
  8
RACCORDO
100
AcDbLine
 62
7
  6
CONTINUOUS
 10
61.0035116837
 20
-10.03599188
 11
61.0120659086
 21
-10.0691271992
  0
LINE
  5
38E
100
AcDbEntity
  8
RACCORDO
100
AcDbLine
 62
7
  6
CONTINUOUS
 10
61.0008740676
 20
-10.0254660996
 11
61.0035116837
 21
-10.03599188
  0
LINE
  5
38F
100
AcDbEntity
  8
RACCORDO
100
AcDbLine
 62
7
  6
CONTINUOUS
 10
60.9995258905
 20
-10.0194455961
 11
60.9995229213
 21
-10.019411527
  0
LINE
  5
390
100
AcDbEntity
  8
RACCORDO
100
AcDbLine
 62
250
  6
CONTINUOUS
 10
58.8970826234
 20
-23.5953423515
 11
58.8970826234
 21
-22.3475922207
  0
LINE
  5
391
100
AcDbEntity
  8
RACCORDO
100
AcDbLine
 62
250
  6
CONTINUOUS
 10
58.8970826234
 20
22.3475922207
 11
58.8970826234
 21
23.5953423515
  0
LINE
  5
392
100
AcDbEntity
  8
RACCORDO
100
AcDbLine
 62
250
  6
CONTINUOUS
 10
59.3970741618
 20
-23.7970741618
 11
59.3970741618
 21
-22.3736436632
  0
LINE
  5
393
100
AcDbEntity
  8
RACCORDO
100
AcDbLine
 62
250
  6
CONTINUOUS
 10
59.3970741618
 20
22.3736436632
 11
59.3970741618
 21
23.7970741618
  0
LINE
  5
394
100
AcDbEntity
  8
DRAFT
100
AcDbLine
 62
7
  6
CONTINUOUS
 10
59.4
 20
23.8
 11
59.4
 21
22.4
  0
LINE
  5
395
100
AcDbEntity
  8
DRAFT
100
AcDbLine
 62
7
  6
CONTINUOUS
 10
59.4
 20
-22.4
 11
59.4
 21
-23.8
  0
LINE
  5
396
100
AcDbEntity
  8
RACCORDO
100
AcDbLine
 62
250
  6
CONTINUOUS
 10
66.0620485995
 20
21.7223497319
 11
66.0350399195
 21
21.6215270335
  0
LWPOLYLINE
  5
397
100
AcDbEntity
  8
RACCORDO
100
AcDbPolyline
 62
250
  6
CONTINUOUS
 90
7
 70
0
 10
66.0350399195
 20
21.6215270335
 10
66.0247043465
 20
21.5839734756
 10
66.019680125
 20
21.566169232
 10
66.0146283371
 20
21.5488243063
 10
66.0095130609
 20
21.5318937045
 10
66.0043702185
 20
21.5154224206
 10
65.9991998097
 20
21.4994104546
  0
LWPOLYLINE
  5
398
100
AcDbEntity
  8
RACCORDO
100
AcDbPolyline
 62
250
  6
CONTINUOUS
 90
17
 70
0
 10
65.9991998097
 20
21.4994104546
 10
65.9990132423
 20
21.498792941
 10
65.998826839
 20
21.4980612041
 10
65.9986405997
 20
21.497215244
 10
65.9984545019
 20
21.4962549227
 10
65.9982685682
 20
21.4951803782
 10
65.9980828661
 20
21.4939920245
 10
65.9978973967
 20
21.4926898431
 10
65.9977121589
 20
21.4912738524
 10
65.9975272174
 20
21.4897445218
 10
65.9973425722
 20
21.4881018022
 10
65.9971582232
 20
21.4863457427
 10
65.9969742345
 20
21.4844769601
 10
65.9967906062
 20
21.4824954172
 10
65.9966073382
 20
21.4804011512
 10
65.9964244939
 20
21.4781948897
 10
65.9960600773
 20
21.4734463091
  0
LWPOLYLINE
  5
399
100
AcDbEntity
  8
RACCORDO
100
AcDbPolyline
 62
250
  6
CONTINUOUS
 90
7
 70
0
 10
66.0959982236
 20
21.8397834628
 10
66.09158323
 20
21.8257712893
 10
66.0870390331
 20
21.8108875338
 10
66.0823899968
 20
21.7952632734
 10
66.0775727704
 20
21.7786247399
 10
66.0725403006
 20
21.760720597
 10
66.0620485995
 20
21.7223497319
  0
LINE
  5
39A
100
AcDbEntity
  8
RACCORDO
100
AcDbLine
 62
250
  6
CONTINUOUS
 10
56.4362156713
 20
4.0161940454
 11
53.5637843287
 21
4.0161940454
  0
LINE
  5
39B
100
AcDbEntity
  8
RACCORDO
100
AcDbLine
 62
250
  6
CONTINUOUS
 10
56.1362375103
 20
4.3137729058
 11
53.8637624897
 21
4.3137729058
  0
LINE
  5
39C
100
AcDbEntity
  8
DRAFT
100
AcDbLine
 62
7
  6
CONTINUOUS
 10
56.125
 20
4.325
 11
53.875
 21
4.325
  0
LINE
  5
39D
100
AcDbEntity
  8
0
100
AcDbLine
 62
7
  6
CONTINUOUS
 10
53.875
 20
4.3266732173
 11
53.9531163181
 21
4.3266732173
  0
LINE
  5
39E
100
AcDbEntity
  8
RACCORDO
100
AcDbLine
 62
7
  6
CONTINUOUS
 10
56.1362375103
 20
4.3137729058
 11
56.1362052774
 21
4.3137947226
  0
LWPOLYLINE
  5
39F
100
AcDbEntity
  8
RACCORDO
100
AcDbPolyline
 62
7
  6
CONTINUOUS
 90
4
 70
0
 10
56.1362375103
 20
4.3137729058
 10
56.1369001612
 20
4.3132941652
 10
56.1381626047
 20
4.3121379894
 10
56.1456228237
 20
4.3049785724
  0
LINE
  5
3A0
100
AcDbEntity
  8
RACCORDO
100
AcDbLine
 62
7
  6
CONTINUOUS
 10
56.1456228237
 20
4.3049785724
 11
56.1578419385
 21
4.2930671012
  0
LINE
  5
3A1
100
AcDbEntity
  8
RACCORDO
100
AcDbLine
 62
7
  6
CONTINUOUS
 10
56.1578419385
 20
4.2930671012
 11
56.2143557718
 21
4.2372927337
  0
LINE
  5
3A2
100
AcDbEntity
  8
RACCORDO
100
AcDbLine
 62
7
  6
CONTINUOUS
 10
56.2143557718
 20
4.2372927337
 11
56.3714164633
 21
4.0809518374
  0
LINE
  5
3A3
100
AcDbEntity
  8
RACCORDO
100
AcDbLine
 62
7
  6
CONTINUOUS
 10
56.125
 20
4.325
 11
56.1362052774
 21
4.3137947226
  0
LINE
  5
3A4
100
AcDbEntity
  8
RACCORDO
100
AcDbLine
 62
7
  6
CONTINUOUS
 10
56.3714164633
 20
4.0809518374
 11
56.436215671
 21
4.0161940454
  0
LWPOLYLINE
  5
3A5
100
AcDbEntity
  8
RACCORDO
100
AcDbPolyline
 62
7
  6
CONTINUOUS
 90
6
 70
0
 10
53.8648247164
 20
11.685259425
 10
53.864277646
 20
11.6860893796
 10
53.8631204676
 20
11.6875984727
 10
53.8613531812
 20
11.6897485684
 10
53.8589382843
 20
11.6925005768
 10
53.8523906743
 20
11.6996572071
  0
LWPOLYLINE
  5
3A6
100
AcDbEntity
  8
RACCORDO
100
AcDbPolyline
 62
250
  6
CONTINUOUS
 90
5
 70
0
 10
65.9991998097
 20
-21.4994104546
 10
66.0050168396
 20
-21.5175213906
 10
66.0107970998
 20
-21.5361645244
 10
66.0165405905
 20
-21.5553398559
 10
66.0221965931
 20
-21.5749817897
  0
LINE
  5
3A7
100
AcDbEntity
  8
RACCORDO
100
AcDbLine
 62
250
  6
CONTINUOUS
 10
66.0221965931
 20
-21.5749817897
 11
66.0335504446
 21
-21.6160590371
  0
LWPOLYLINE
  5
3A8
100
AcDbEntity
  8
RACCORDO
100
AcDbPolyline
 62
250
  6
CONTINUOUS
 90
9
 70
0
 10
66.0639749458
 20
-21.7295003181
 10
66.0699838534
 20
-21.7514954283
 10
66.0757159495
 20
-21.7719710867
 10
66.081250155
 20
-21.7913125504
 10
66.0865879241
 20
-21.809444028
 10
66.0916619031
 20
-21.8260296166
 10
66.0965394457
 20
-21.8414052191
 10
66.1014240667
 20
-21.856502752
 10
66.1063358052
 20
-21.8713815411
  0
LINE
  5
3A9
100
AcDbEntity
  8
RACCORDO
100
AcDbLine
 62
250
  6
CONTINUOUS
 10
66.0335504446
 20
-21.6160590371
 11
66.0639749458
 21
-21.7295003181
  0
LWPOLYLINE
  5
3AA
100
AcDbEntity
  8
RACCORDO
100
AcDbPolyline
 62
7
  6
CONTINUOUS
 90
5
 70
0
 10
60.9995258905
 20
-10.0194455936
 10
60.999639657
 20
-10.02002278
 10
60.9998922228
 20
-10.021229053
 10
61.0002939655
 20
-10.0230460877
 10
61.0008740676
 20
-10.0254660996
  0
LWPOLYLINE
  5
3AB
100
AcDbEntity
  8
RACCORDO
100
AcDbPolyline
 62
250
  6
CONTINUOUS
 90
12
 70
0
 10
65.4992759622
 20
21.998725222
 10
65.4990894277
 20
21.9977989875
 10
65.4989030398
 20
21.99670119
 10
65.4987167984
 20
21.9954319557
 10
65.49853067
 20
21.9939914343
 10
65.4983446881
 20
21.9923797887
 10
65.4981589537
 20
21.9905971921
 10
65.4979734855
 20
21.9886438382
 10
65.4977882647
 20
21.9865199546
 10
65.497603336
 20
21.9842257927
 10
65.4974186912
 20
21.9817616154
 10
65.4970503471
 20
21.9763243718
  0
LINE
  5
3AC
100
AcDbEntity
  8
RACCORDO
100
AcDbLine
 62
250
  6
CONTINUOUS
 10
51.3772127591
 20
-8.9992495863
 11
48.8906777335
 21
-10.4354298776
  0
LINE
  5
3AD
100
AcDbEntity
  8
DRAFT
100
AcDbLine
 62
7
  6
CONTINUOUS
 10
50.9528573813
 20
-8.8801433589
 11
49.0043002228
 21
-10.0051433589
  0
LINE
  5
3AE
100
AcDbEntity
  8
RACCORDO
100
AcDbLine
 62
250
  6
CONTINUOUS
 10
50.9673886466
 20
-8.8840369997
 11
49.0004770786
 21
-10.0194115273
  0
LWPOLYLINE
  5
3AF
100
AcDbEntity
  8
RACCORDO
100
AcDbPolyline
 62
7
  6
CONTINUOUS
 90
3
 70
0
 10
53.8336457147
 20
11.7195476774
 10
53.8219234208
 20
11.731764727
 10
53.667277482
 20
11.8894694857
  0
LWPOLYLINE
  5
3B0
100
AcDbEntity
  8
RACCORDO
100
AcDbPolyline
 62
7
  6
CONTINUOUS
 90
3
 70
0
 10
53.8523906743
 20
11.6996572071
 10
53.848374899
 20
11.7039846984
 10
53.8336457147
 20
11.7195476774
  0
LWPOLYLINE
  5
3B1
100
AcDbEntity
  8
RACCORDO
100
AcDbPolyline
 62
7
  6
CONTINUOUS
 90
6
 70
0
 10
62.7146591376
 20
-2.4872870854
 10
62.7157900976
 20
-2.4913816844
 10
62.7166820209
 20
-2.494674348
 10
62.7173200114
 20
-2.4971157352
 10
62.7177530201
 20
-2.4986964795
 10
62.7179977552
 20
-2.4993878014
  0
LINE
  5
3B2
100
AcDbEntity
  8
RACCORDO
100
AcDbLine
 62
7
  6
CONTINUOUS
 10
62.6687098403
 20
-2.3165377011
 11
62.7146591376
 21
-2.4872870854
  0
LINE
  5
3B3
100
AcDbEntity
  8
RACCORDO
100
AcDbLine
 62
7
  6
CONTINUOUS
 10
62.7221426187
 20
-2.5148566411
 11
62.7179977563
 21
-2.499387804
  0
LINE
  5
3B4
100
AcDbEntity
  8
RACCORDO
100
AcDbLine
 62
7
  6
CONTINUOUS
 10
62.608192242
 20
-2.0908425505
 11
62.6687098403
 21
-2.3165377011
  0
LWPOLYLINE
  5
3B5
100
AcDbEntity
  8
RACCORDO
100
AcDbPolyline
 62
250
  6
CONTINUOUS
 90
16
 70
0
 10
65.9964243262
 20
-21.4781928117
 10
65.9966071549
 20
-21.4803990017
 10
65.9967904079
 20
-21.4824932208
 10
65.9969740268
 20
-21.4844747821
 10
65.9971580129
 20
-21.4863436709
 10
65.9973423649
 20
-21.4880999017
 10
65.99752702
 20
-21.4897428315
 10
65.9977119806
 20
-21.4912724191
 10
65.9978972442
 20
-21.4926887055
 10
65.9980827412
 20
-21.4939911705
 10
65.9982684732
 20
-21.4951797967
 10
65.9984544386
 20
-21.4962546014
 10
65.9986405624
 20
-21.4972151164
 10
65.9988268197
 20
-21.4980611856
 10
65.9990132355
 20
-21.498792965
 10
65.9991998097
 20
-21.4994104546
  0
LWPOLYLINE
  5
3B6
100
AcDbEntity
  8
RACCORDO
100
AcDbPolyline
 62
250
  6
CONTINUOUS
 90
11
 70
0
 10
65.4974184897
 20
-21.98175878
 10
65.4976031448
 20
-21.9842232803
 10
65.4977880847
 20
-21.9865178535
 10
65.4979733208
 20
-21.9886421882
 10
65.4981588159
 20
-21.9905959612
 10
65.4983446015
 20
-21.992378948
 10
65.4985306462
 20
-21.9939909412
 10
65.4987168177
 20
-21.9954317073
 10
65.4989030723
 20
-21.9967010837
 10
65.4990894537
 20
-21.9977989586
 10
65.4992759622
 20
-21.998725222
  0
LINE
  5
3B7
100
AcDbEntity
  8
RACCORDO
100
AcDbLine
 62
250
  6
CONTINUOUS
 10
65.4970501395
 20
-21.976321135
 11
65.4974184897
 21
-21.98175878
  0
LINE
  5
3B8
100
AcDbEntity
  8
RACCORDO
100
AcDbLine
 62
250
  6
CONTINUOUS
 10
65.4966832706
 20
-21.9702075504
 11
65.4970501395
 21
-21.976321135
  0
LWPOLYLINE
  5
3B9
100
AcDbEntity
  8
RACCORDO
100
AcDbPolyline
 62
250
  6
CONTINUOUS
 90
31
 70
0
 10
63.2630985787
 20
23.8443375673
 10
63.2634779104
 20
23.8330274168
 10
63.2645388924
 20
23.8217481519
 10
63.2662786273
 20
23.810530574
 10
63.2686923642
 20
23.7994053159
 10
63.2717735118
 20
23.7884027584
 10
63.275513656
 20
23.7775529472
 10
63.2799025834
 20
23.7668855107
 10
63.2849283087
 20
23.7564295797
 10
63.2905771077
 20
23.7462137069
 10
63.2968335547
 20
23.7362657898
 10
63.3036805646
 20
23.7266129942
 10
63.3110994397
 20
23.7172816797
 10
63.3190699206
 20
23.7082973282
 10
63.3275702417
 20
23.6996844742
 10
63.3365771902
 20
23.6914666374
 10
63.3460661701
 20
23.6836662592
 10
63.356011269
 20
23.6763046407
 10
63.3663853289
 20
23.6694018849
 10
63.3771600204
 20
23.6629768418
 10
63.3883059201
 20
23.6570470569
 10
63.3997925909
 20
23.6516287232
 10
63.4115886651
 20
23.646736637
 10
63.42366193
 20
23.6423841576
 10
63.4359794162
 20
23.6385831707
 10
63.448507487
 20
23.6353440559
 10
63.4612119311
 20
23.6326756587
 10
63.4740580552
 20
23.6305852658
 10
63.4870107793
 20
23.6290785857
 10
63.5000347321
 20
23.6281597328
 10
63.5130943479
 20
23.6278312164
  0
LWPOLYLINE
  5
3BA
100
AcDbEntity
  8
RACCORDO
100
AcDbPolyline
 62
250
  6
CONTINUOUS
 90
31
 70
0
 10
63.2630985787
 20
-24.2369056521
 10
63.2634399859
 20
-24.249957992
 10
63.2644632485
 20
-24.2629828864
 10
63.2661668528
 20
-24.275944661
 10
63.2685479829
 20
-24.2888103798
 10
63.2716010963
 20
-24.3015418449
 10
63.275316536
 20
-24.3140960295
 10
63.2796830871
 20
-24.3264358334
 10
63.284689517
 20
-24.3385301896
 10
63.2903222656
 20
-24.3503462678
 10
63.2965660673
 20
-24.3618518682
 10
63.3034037491
 20
-24.3730151866
 10
63.3108163791
 20
-24.3838052658
 10
63.3187835214
 20
-24.3941923917
 10
63.3272834183
 20
-24.4041482289
 10
63.3362928401
 20
-24.4136455633
 10
63.3457871333
 20
-24.4226583824
 10
63.3557402367
 20
-24.4311619239
 10
63.366124826
 20
-24.4391328321
 10
63.3769124163
 20
-24.446549239
 10
63.3880734423
 20
-24.4533908148
 10
63.3995772981
 20
-24.4596387939
 10
63.4113924437
 20
-24.4652760422
 10
63.4234864809
 20
-24.4702870977
 10
63.435826237
 20
-24.4746582128
 10
63.4483778845
 20
-24.4783774023
 10
63.4611069984
 20
-24.4814344634
 10
63.4739786381
 20
-24.4838210061
 10
63.4869574955
 20
-24.4855304893
 10
63.5000079938
 20
-24.4865582323
 10
63.5130943479
 20
-24.4869014213
  0
LWPOLYLINE
  5
3BB
100
AcDbEntity
  8
RACCORDO
100
AcDbPolyline
 62
7
  6
CONTINUOUS
 90
34
 70
0
 10
63.25
 20
-24.2500042308
 10
63.2502831502
 20
-24.261899516
 10
63.2511319658
 20
-24.2737678556
 10
63.2525445259
 20
-24.2855823661
 10
63.2545176323
 20
-24.2973162875
 10
63.2570468183
 20
-24.3089430388
 10
63.2601263583
 20
-24.320436279
 10
63.2637492787
 20
-24.3317699738
 10
63.2679073742
 20
-24.3429184493
 10
63.2725912278
 20
-24.3538564463
 10
63.2777902312
 20
-24.3645591876
 10
63.2834926084
 20
-24.3750024283
 10
63.2896854419
 20
-24.3851625059
 10
63.2963547045
 20
-24.3950164051
 10
63.3034852893
 20
-24.4045418038
 10
63.3110610411
 20
-24.4137171191
 10
63.3190647995
 20
-24.4225215661
 10
63.3274784339
 20
-24.4309352005
 10
63.3362828809
 20
-24.4389389589
 10
63.3454581962
 20
-24.4465147107
 10
63.3549835949
 20
-24.4536452955
 10
63.3648374941
 20
-24.4603145581
 10
63.3749975717
 20
-24.4665073916
 10
63.3854408124
 20
-24.4722097688
 10
63.3961435537
 20
-24.4774087722
 10
63.4070815507
 20
-24.4820926258
 10
63.4182300262
 20
-24.4862507213
 10
63.429563721
 20
-24.4898736417
 10
63.4410569612
 20
-24.4929531817
 10
63.4526837125
 20
-24.4954823677
 10
63.4644176339
 20
-24.4974554741
 10
63.4762321444
 20
-24.4988680342
 10
63.488100484
 20
-24.4997168498
 10
63.4999957692
 20
-24.5
  0
LINE
  5
3BC
100
AcDbEntity
  8
RACCORDO
100
AcDbLine
 62
250
  6
CONTINUOUS
 10
63.2630985787
 20
-23.8443375673
 11
63.2572807489
 21
-23.2669872981
  0
LINE
  5
3BD
100
AcDbEntity
  8
RACCORDO
100
AcDbLine
 62
250
  6
CONTINUOUS
 10
63.5130943479
 20
-23.6278312164
 11
63.5080037468
 21
-23.1226497308
  0
LINE
  5
3BE
100
AcDbEntity
  8
RACCORDO
100
AcDbLine
 62
7
  6
CONTINUOUS
 10
63.25
 20
-22.4
 11
63.25
 21
-24.2500042308
  0
LINE
  5
3BF
100
AcDbEntity
  8
RACCORDO
100
AcDbLine
 62
7
  6
CONTINUOUS
 10
63.25
 20
22.4
 11
63.25
 21
24.2500042308
  0
LINE
  5
3C0
100
AcDbEntity
  8
RACCORDO
100
AcDbLine
 62
250
  6
CONTINUOUS
 10
63.2572807489
 20
-23.2669872981
 11
63.2572807489
 21
-22.3344140523
  0
LINE
  5
3C1
100
AcDbEntity
  8
RACCORDO
100
AcDbLine
 62
250
  6
CONTINUOUS
 10
63.2572807489
 20
22.3344140523
 11
63.2572807489
 21
23.2669872981
  0
LINE
  5
3C2
100
AcDbEntity
  8
RACCORDO
100
AcDbLine
 62
250
  6
CONTINUOUS
 10
63.2630985787
 20
24.2369056521
 11
63.2630985787
 21
23.8443375673
  0
LINE
  5
3C3
100
AcDbEntity
  8
RACCORDO
100
AcDbLine
 62
250
  6
CONTINUOUS
 10
63.2630985787
 20
-23.8443375673
 11
63.2630985787
 21
-24.2369056521
  0
LINE
  5
3C4
100
AcDbEntity
  8
RACCORDO
100
AcDbLine
 62
250
  6
CONTINUOUS
 10
63.5072765181
 20
-23.1226497308
 11
63.5072765181
 21
-22.3213883311
  0
LINE
  5
3C5
100
AcDbEntity
  8
RACCORDO
100
AcDbLine
 62
250
  6
CONTINUOUS
 10
63.5072765181
 20
22.3213883311
 11
63.5072765181
 21
23.1226497308
  0
LINE
  5
3C6
100
AcDbEntity
  8
RACCORDO
100
AcDbLine
 62
250
  6
CONTINUOUS
 10
63.5130943479
 20
-23.6278312164
 11
63.5130943479
 21
-24.4869014213
  0
LINE
  5
3C7
100
AcDbEntity
  8
RACCORDO
100
AcDbLine
 62
250
  6
CONTINUOUS
 10
63.5130943479
 20
23.6278312164
 11
63.5130943479
 21
24.4869014213
  0
LINE
  5
3C8
100
AcDbEntity
  8
RACCORDO
100
AcDbLine
 62
250
  6
CONTINUOUS
 10
63.2572807489
 20
23.2669872981
 11
63.2630985787
 21
23.8443375673
  0
LINE
  5
3C9
100
AcDbEntity
  8
RACCORDO
100
AcDbLine
 62
250
  6
CONTINUOUS
 10
63.5080037468
 20
23.1226497308
 11
63.5130943479
 21
23.6278312164
  0
LWPOLYLINE
  5
3CA
100
AcDbEntity
  8
RACCORDO
100
AcDbPolyline
 62
250
  6
CONTINUOUS
 90
31
 70
0
 10
63.2630985787
 20
-23.8443375673
 10
63.2634771343
 20
-23.833039595
 10
63.2645362619
 20
-23.821769291
 10
63.2662736384
 20
-23.8105574212
 10
63.2686853398
 20
-23.7994336121
 10
63.2717652101
 20
-23.78842936
 10
63.2755042611
 20
-23.7775778202
 10
63.2798918055
 20
-23.7669096972
 10
63.2849162045
 20
-23.7564530239
 10
63.2905638851
 20
-23.746236105
 10
63.2968195777
 20
-23.7362866999
 10
63.3036661523
 20
-23.7266321754
 10
63.3110847605
 20
-23.7172991519
 10
63.3190550646
 20
-23.7083132018
 10
63.3275553594
 20
-23.6996987826
 10
63.3365624499
 20
-23.6914794042
 10
63.3460517535
 20
-23.6836775075
 10
63.3559973406
 20
-23.6763144193
 10
63.3663720235
 20
-23.6694102704
 10
63.3771474559
 20
-23.6629839239
 10
63.3882942139
 20
-23.6570529269
 10
63.399781851
 20
-23.6516334796
 10
63.4115790077
 20
-23.6467403776
 10
63.4236534441
 20
-23.6423869945
 10
63.4359721237
 20
-23.6385852371
 10
63.4485013591
 20
-23.6353454907
 10
63.4612069619
 20
-23.6326765842
 10
63.4740542827
 20
-23.6305857918
 10
63.48700825
 20
-23.6290788219
 10
63.5000334638
 20
-23.6281597935
 10
63.5130943479
 20
-23.6278312164
  0
LINE
  5
3CB
100
AcDbEntity
  8
RACCORDO
100
AcDbLine
 62
250
  6
CONTINUOUS
 10
65.4970503471
 20
21.9763243718
 11
65.4966834531
 21
21.9702107555
  0
LINE
  5
3CC
100
AcDbEntity
  8
RACCORDO
100
AcDbLine
 62
7
  6
CONTINUOUS
 10
65.65
 20
22.4
 11
65.6427192511
 21
22.3344140523
  0
LINE
  5
3CD
100
AcDbEntity
  8
RACCORDO
100
AcDbLine
 62
250
  6
CONTINUOUS
 10
58.6227812748
 20
-8.9992599423
 11
62.6081759607
 21
-2.0908515028
  0
LINE
  5
3CE
100
AcDbEntity
  8
RACCORDO
100
AcDbLine
 62
250
  6
CONTINUOUS
 10
59.0324791872
 20
-8.8841379825
 11
62.7179993669
 21
-2.4993938148
  0
LINE
  5
3CF
100
AcDbEntity
  8
DRAFT
100
AcDbLine
 62
7
  6
CONTINUOUS
 10
59.0471426187
 20
-8.8801433589
 11
62.7221426187
 21
-2.5148566411
  0
LINE
  5
3D0
100
AcDbEntity
  8
RACCORDO
100
AcDbLine
 62
7
  6
CONTINUOUS
 10
53.875
 20
11.675
 11
53.8648867089
 21
11.6851132911
  0
LINE
  5
3D1
100
AcDbEntity
  8
RACCORDO
100
AcDbLine
 62
7
  6
CONTINUOUS
 10
53.667277482
 20
11.8894694857
 11
53.564898132
 21
11.9922972464
  0
LINE
  5
3D2
100
AcDbEntity
  8
RACCORDO
100
AcDbLine
 62
7
  6
CONTINUOUS
 10
65.65
 20
-22.4
 11
65.6427192511
 21
-22.3344140523
  0
LINE
  5
3D3
100
AcDbEntity
  8
RACCORDO
100
AcDbLine
 62
250
  6
CONTINUOUS
 10
65.9960599416
 20
-21.4734444575
 11
65.9964243262
 21
-21.4781928117
  0
LINE
  5
3D4
100
AcDbEntity
  8
RACCORDO
100
AcDbLine
 62
250
  6
CONTINUOUS
 10
65.9956974287
 20
-21.4682505146
 11
65.9960599416
 21
-21.4734444575
  0
LINE
  5
3D5
100
AcDbEntity
  8
RACCORDO
100
AcDbLine
 62
250
  6
CONTINUOUS
 10
65.9953369073
 20
-21.4626126785
 11
65.9956974287
 21
-21.4682505146
  0
LINE
  5
3D6
100
AcDbEntity
  8
RACCORDO
100
AcDbLine
 62
250
  6
CONTINUOUS
 10
65.9949785592
 20
-21.4565336262
 11
65.9953369073
 21
-21.4626126785
  0
LINE
  5
3D7
100
AcDbEntity
  8
RACCORDO
100
AcDbLine
 62
250
  6
CONTINUOUS
 10
65.4963180397
 20
-21.9634206598
 11
65.4966832706
 21
-21.9702075504
  0
LINE
  5
3D8
100
AcDbEntity
  8
RACCORDO
100
AcDbLine
 62
250
  6
CONTINUOUS
 10
65.9944454982
 20
-21.4465944233
 11
65.9949785592
 21
-21.4565336262
  0
LWPOLYLINE
  5
3D9
100
AcDbEntity
  8
RACCORDO
100
AcDbPolyline
 62
7
  6
CONTINUOUS
 90
34
 70
0
 10
63.2572807489
 20
23.2669872981
 10
63.2575784753
 20
23.260745719
 10
63.2583497267
 20
23.254472608
 10
63.2596000894
 20
23.2481861919
 10
63.2613341367
 20
23.2419121598
 10
63.2635555794
 20
23.2356626215
 10
63.2662675994
 20
23.2294361375
 10
63.2694720963
 20
23.2232532001
 10
63.2731700208
 20
23.2171335699
 10
63.2773622718
 20
23.2110754134
 10
63.282047756
 20
23.2051002367
 10
63.2872243979
 20
23.199228829
 10
63.2928907687
 20
23.1934590071
 10
63.2990425526
 20
23.1878130261
 10
63.305674335
 20
23.182312533
 10
63.3127821378
 20
23.1769551973
 10
63.3203581333
 20
23.171763745
 10
63.3283932153
 20
23.1667604362
 10
63.3368804409
 20
23.1619430222
 10
63.3458081504
 20
23.1573343288
 10
63.3551631291
 20
23.1529569199
 10
63.3649348037
 20
23.148808872
 10
63.3751073149
 20
23.1449126131
 10
63.385662902
 20
23.1412905703
 10
63.3965865028
 20
23.137941334
 10
63.4078575603
 20
23.1348863009
 10
63.4194534848
 20
23.1321470947
 10
63.4313541826
 20
23.1297228132
 10
63.4435210103
 20
23.1276360125
 10
63.4559390652
 20
23.1259025536
 10
63.4686230593
 20
23.1245164325
 10
63.4815577699
 20
23.1234933505
 10
63.4946962714
 20
23.1228641607
 10
63.5080037468
 20
23.1226497308
  0
LINE
  5
3DA
100
AcDbEntity
  8
RACCORDO
100
AcDbLine
 62
250
  6
CONTINUOUS
 10
65.4959545621
 20
-21.9559634508
 11
65.4963180397
 21
-21.9634206598
  0
LWPOLYLINE
  5
3DB
100
AcDbEntity
  8
RACCORDO
100
AcDbPolyline
 62
7
  6
CONTINUOUS
 90
34
 70
0
 10
65.6427192511
 20
-23.2669872981
 10
65.6424198287
 20
-23.2606934229
 10
65.6416441239
 20
-23.2544088409
 10
65.6403873851
 20
-23.2481335519
 10
65.6386460224
 20
-23.2418552807
 10
65.6364170759
 20
-23.2355863026
 10
65.633697709
 20
-23.2293634437
 10
65.6304867318
 20
-23.2231861587
 10
65.6267838816
 20
-23.2170549928
 10
65.6225882567
 20
-23.2110084085
 10
65.6179014786
 20
-23.205045942
 10
65.6127261214
 20
-23.199168057
 10
65.6070632404
 20
-23.1934146064
 10
65.6009174965
 20
-23.1877851844
 10
65.5942945874
 20
-23.1822801967
 10
65.5871976951
 20
-23.1769407141
 10
65.5796347916
 20
-23.1717664006
 10
65.5716150594
 20
-23.1667575922
 10
65.5631442164
 20
-23.1619563668
 10
65.554233882
 20
-23.1573625195
 10
65.544897167
 20
-23.1529762552
 10
65.5351430254
 20
-23.1488402671
 10
65.5249871321
 20
-23.1449546011
 10
65.5144470274
 20
-23.1413192112
 10
65.5035358548
 20
-23.1379766523
 10
65.4922738698
 20
-23.1349274029
 10
65.4806834708
 20
-23.1321709844
 10
65.4687828486
 20
-23.1297485157
 10
65.456584335
 20
-23.1276610792
 10
65.4441281847
 20
-23.1259075925
 10
65.4314781276
 20
-23.1245259271
 10
65.4186775292
 20
-23.123528707
 10
65.405747957
 20
-23.1229033082
 10
65.3927234819
 20
-23.1226497308
  0
LINE
  5
3DC
100
AcDbEntity
  8
RACCORDO
100
AcDbLine
 62
250
  6
CONTINUOUS
 10
65.9939182837
 20
-21.4356797021
 11
65.9944454982
 21
-21.4465944233
  0
LINE
  5
3DD
100
AcDbEntity
  8
RACCORDO
100
AcDbLine
 62
250
  6
CONTINUOUS
 10
65.4954130269
 20
-21.943527741
 11
65.4959545621
 21
-21.9559634508
  0
LINE
  5
3DE
100
AcDbEntity
  8
RACCORDO
100
AcDbLine
 62
250
  6
CONTINUOUS
 10
65.9932253899
 20
-21.4196295234
 11
65.9939182837
 21
-21.4356797021
  0
LINE
  5
3DF
100
AcDbEntity
  8
RACCORDO
100
AcDbLine
 62
250
  6
CONTINUOUS
 10
65.494698699
 20
-21.9246335198
 11
65.4954130269
 21
-21.943527741
  0
LINE
  5
3E0
100
AcDbEntity
  8
RACCORDO
100
AcDbLine
 62
250
  6
CONTINUOUS
 10
65.9923771884
 20
-21.39720184
 11
65.9932253899
 21
-21.4196295234
  0
LWPOLYLINE
  5
3E1
100
AcDbEntity
  8
RACCORDO
100
AcDbPolyline
 62
250
  6
CONTINUOUS
 90
31
 70
0
 10
65.6369014213
 20
-23.8443375673
 10
65.6365228657
 20
-23.833039595
 10
65.6354637381
 20
-23.821769291
 10
65.6337263616
 20
-23.8105574212
 10
65.6313146602
 20
-23.7994336121
 10
65.6282347899
 20
-23.78842936
 10
65.6244957389
 20
-23.7775778202
 10
65.6201081945
 20
-23.7669096972
 10
65.6150837955
 20
-23.7564530239
 10
65.6094361149
 20
-23.746236105
 10
65.6031804223
 20
-23.7362866999
 10
65.5963338477
 20
-23.7266321754
 10
65.5889152395
 20
-23.7172991519
 10
65.5809449354
 20
-23.7083132018
 10
65.5724446406
 20
-23.6996987826
 10
65.5634375501
 20
-23.6914794042
 10
65.5539482465
 20
-23.6836775075
 10
65.5440026594
 20
-23.6763144193
 10
65.5336279765
 20
-23.6694102704
 10
65.5228525441
 20
-23.6629839239
 10
65.5117057861
 20
-23.6570529269
 10
65.500218149
 20
-23.6516334796
 10
65.4884209923
 20
-23.6467403776
 10
65.4763465559
 20
-23.6423869945
 10
65.4640278763
 20
-23.6385852371
 10
65.4514986409
 20
-23.6353454907
 10
65.4387930381
 20
-23.6326765842
 10
65.4259457173
 20
-23.6305857918
 10
65.41299175
 20
-23.6290788219
 10
65.3999665362
 20
-23.6281597935
 10
65.3869056521
 20
-23.6278312164
  0
LINE
  5
3E2
100
AcDbEntity
  8
RACCORDO
100
AcDbLine
 62
250
  6
CONTINUOUS
 10
65.9913888267
 20
-21.3669062339
 11
65.9923771884
 21
-21.39720184
  0
LINE
  5
3E3
100
AcDbEntity
  8
RACCORDO
100
AcDbLine
 62
250
  6
CONTINUOUS
 10
65.4938200716
 20
-21.8973487866
 11
65.494698699
 21
-21.9246335198
  0
LINE
  5
3E4
100
AcDbEntity
  8
RACCORDO
100
AcDbLine
 62
250
  6
CONTINUOUS
 10
65.990281459
 20
-21.327055231
 11
65.9913888267
 21
-21.3669062339
  0
LINE
  5
3E5
100
AcDbEntity
  8
RACCORDO
100
AcDbLine
 62
250
  6
CONTINUOUS
 10
65.4927900735
 20
-21.8593357746
 11
65.4938200716
 21
-21.8973487866
  0
LINE
  5
3E6
100
AcDbEntity
  8
RACCORDO
100
AcDbLine
 62
250
  6
CONTINUOUS
 10
65.9889395977
 20
-21.2690366051
 11
65.990281459
 21
-21.327055231
  0
LINE
  5
3E7
100
AcDbEntity
  8
RACCORDO
100
AcDbLine
 62
250
  6
CONTINUOUS
 10
65.4914649587
 20
-21.799968174
 11
65.4927900735
 21
-21.8593357746
  0
LINE
  5
3E8
100
AcDbEntity
  8
RACCORDO
100
AcDbLine
 62
250
  6
CONTINUOUS
 10
65.9873137465
 20
-21.1806990158
 11
65.9889395977
 21
-21.2690366051
  0
LINE
  5
3E9
100
AcDbEntity
  8
RACCORDO
100
AcDbLine
 62
250
  6
CONTINUOUS
 10
65.4897491829
 20
-21.7028849886
 11
65.4914649587
 21
-21.799968174
  0
LINE
  5
3EA
100
AcDbEntity
  8
RACCORDO
100
AcDbLine
 62
250
  6
CONTINUOUS
 10
65.985580848
 20
-21.0547071523
 11
65.9873137465
 21
-21.1806990158
  0
LINE
  5
3EB
100
AcDbEntity
  8
RACCORDO
100
AcDbLine
 62
250
  6
CONTINUOUS
 10
65.4875176754
 20
-21.5323744148
 11
65.4897491829
 21
-21.7028849886
  0
LINE
  5
3EC
100
AcDbEntity
  8
RACCORDO
100
AcDbLine
 62
250
  6
CONTINUOUS
 10
65.3869056521
 20
23.6278312164
 11
65.3919962532
 21
23.1226497308
  0
LINE
  5
3ED
100
AcDbEntity
  8
RACCORDO
100
AcDbLine
 62
250
  6
CONTINUOUS
 10
65.6369014213
 20
23.8443375673
 11
65.6427192511
 21
23.2669872981
  0
LINE
  5
3EE
100
AcDbEntity
  8
RACCORDO
100
AcDbLine
 62
250
  6
CONTINUOUS
 10
65.9839274021
 20
-20.8751206571
 11
65.985580848
 21
-21.0547071523
  0
LINE
  5
3EF
100
AcDbEntity
  8
RACCORDO
100
AcDbLine
 62
250
  6
CONTINUOUS
 10
65.4849739521
 20
-21.2358467452
 11
65.4875176754
 21
-21.5323744148
  0
LINE
  5
3F0
100
AcDbEntity
  8
RACCORDO
100
AcDbLine
 62
250
  6
CONTINUOUS
 10
65.4842980951
 20
-21.1213173575
 11
65.4849739521
 21
-21.2358467452
  0
LINE
  5
3F1
100
AcDbEntity
  8
RACCORDO
100
AcDbLine
 62
250
  6
CONTINUOUS
 10
65.4838673914
 20
-21.0323870617
 11
65.4842980951
 21
-21.1213173575
  0
LINE
  5
3F2
100
AcDbEntity
  8
RACCORDO
100
AcDbLine
 62
250
  6
CONTINUOUS
 10
65.4835598158
 20
-20.9565870371
 11
65.4838673914
 21
-21.0323870617
  0
LINE
  5
3F3
100
AcDbEntity
  8
RACCORDO
100
AcDbLine
 62
250
  6
CONTINUOUS
 10
65.483348017
 20
-20.894997544
 11
65.4835598158
 21
-20.9565870371
  0
LINE
  5
3F4
100
AcDbEntity
  8
RACCORDO
100
AcDbLine
 62
250
  6
CONTINUOUS
 10
65.48316711
 20
-20.8326926685
 11
65.483348017
 21
-20.894997544
  0
LINE
  5
3F5
100
AcDbEntity
  8
RACCORDO
100
AcDbLine
 62
250
  6
CONTINUOUS
 10
65.9828495715
 20
-20.6484253653
 11
65.9839274021
 21
-20.8751206571
  0
LINE
  5
3F6
100
AcDbEntity
  8
RACCORDO
100
AcDbLine
 62
250
  6
CONTINUOUS
 10
65.4830173918
 20
-20.7697777303
 11
65.48316711
 21
-20.8326926685
  0
LINE
  5
3F7
100
AcDbEntity
  8
RACCORDO
100
AcDbLine
 62
250
  6
CONTINUOUS
 10
65.4828991268
 20
-20.7063549107
 11
65.4830173918
 21
-20.7697777303
  0
LINE
  5
3F8
100
AcDbEntity
  8
RACCORDO
100
AcDbLine
 62
250
  6
CONTINUOUS
 10
65.4828125593
 20
-20.642548575
 11
65.4828991268
 21
-20.7063549107
  0
LINE
  5
3F9
100
AcDbEntity
  8
RACCORDO
100
AcDbLine
 62
250
  6
CONTINUOUS
 10
65.4827685486
 20
-20.5945276946
 11
65.4828125593
 21
-20.642548575
  0
LINE
  5
3FA
100
AcDbEntity
  8
RACCORDO
100
AcDbLine
 62
250
  6
CONTINUOUS
 10
65.9826730391
 20
-20.5419058565
 11
65.9828495715
 21
-20.6484253653
  0
LINE
  5
3FB
100
AcDbEntity
  8
RACCORDO
100
AcDbLine
 62
250
  6
CONTINUOUS
 10
65.4758067285
 20
-4.9861643414
 11
65.4827685486
 21
-20.5945276946
  0
LINE
  5
3FC
100
AcDbEntity
  8
RACCORDO
100
AcDbLine
 62
250
  6
CONTINUOUS
 10
65.9757305761
 20
-4.9811785086
 11
65.9826730391
 21
-20.5419058565
  0
LINE
  5
3FD
100
AcDbEntity
  8
RACCORDO
100
AcDbLine
 62
250
  6
CONTINUOUS
 10
65.3869056521
 20
-23.6278312164
 11
65.3869056521
 21
-24.4869014213
  0
LINE
  5
3FE
100
AcDbEntity
  8
RACCORDO
100
AcDbLine
 62
250
  6
CONTINUOUS
 10
65.3869056521
 20
23.6278312164
 11
65.3869056521
 21
24.4869014213
  0
LINE
  5
3FF
100
AcDbEntity
  8
RACCORDO
100
AcDbLine
 62
250
  6
CONTINUOUS
 10
65.3927234819
 20
23.1226497308
 11
65.3927234819
 21
22.3213883311
  0
LINE
  5
400
100
AcDbEntity
  8
RACCORDO
100
AcDbLine
 62
250
  6
CONTINUOUS
 10
65.3927234819
 20
-22.3213883311
 11
65.3927234819
 21
-23.1226497308
  0
LINE
  5
401
100
AcDbEntity
  8
RACCORDO
100
AcDbLine
 62
250
  6
CONTINUOUS
 10
65.6369014213
 20
-24.2369056521
 11
65.6369014213
 21
-23.8443375673
  0
LINE
  5
402
100
AcDbEntity
  8
RACCORDO
100
AcDbLine
 62
250
  6
CONTINUOUS
 10
65.6369014213
 20
23.8443375673
 11
65.6369014213
 21
24.2369056521
  0
LINE
  5
403
100
AcDbEntity
  8
RACCORDO
100
AcDbLine
 62
250
  6
CONTINUOUS
 10
65.6427192511
 20
23.2669872981
 11
65.6427192511
 21
22.3344140523
  0
LINE
  5
404
100
AcDbEntity
  8
RACCORDO
100
AcDbLine
 62
250
  6
CONTINUOUS
 10
65.6427192511
 20
-22.3344140523
 11
65.6427192511
 21
-23.2669872981
  0
LINE
  5
405
100
AcDbEntity
  8
RACCORDO
100
AcDbLine
 62
7
  6
CONTINUOUS
 10
65.65
 20
-22.4
 11
65.65
 21
-24.2500042308
  0
LINE
  5
406
100
AcDbEntity
  8
RACCORDO
100
AcDbLine
 62
7
  6
CONTINUOUS
 10
65.65
 20
22.4
 11
65.65
 21
24.2500042308
  0
LINE
  5
407
100
AcDbEntity
  8
RACCORDO
100
AcDbLine
 62
250
  6
CONTINUOUS
 10
65.4754341539
 20
1.8698380368
 11
65.4758067285
 21
-4.9861643414
  0
LINE
  5
408
100
AcDbEntity
  8
RACCORDO
100
AcDbLine
 62
250
  6
CONTINUOUS
 10
65.9753580015
 20
1.8679682326
 11
65.9757305761
 21
-4.9811785086
  0
LINE
  5
409
100
AcDbEntity
  8
RACCORDO
100
AcDbLine
 62
250
  6
CONTINUOUS
 10
65.4761928455
 20
6.8558743462
 11
65.4754341539
 21
1.8698380368
  0
LINE
  5
40A
100
AcDbEntity
  8
RACCORDO
100
AcDbLine
 62
250
  6
CONTINUOUS
 10
65.9761166931
 20
6.8490188591
 11
65.9753580015
 21
1.8679682326
  0
LINE
  5
40B
100
AcDbEntity
  8
RACCORDO
100
AcDbLine
 62
250
  6
CONTINUOUS
 10
65.4778185389
 20
11.8412290752
 11
65.4761928455
 21
6.8558743462
  0
LINE
  5
40C
100
AcDbEntity
  8
RACCORDO
100
AcDbLine
 62
250
  6
CONTINUOUS
 10
65.9777423865
 20
11.8293876193
 11
65.9761166931
 21
6.8490188591
  0
LINE
  5
40D
100
AcDbEntity
  8
RACCORDO
100
AcDbLine
 62
250
  6
CONTINUOUS
 10
65.4803110731
 20
16.825406671
 11
65.4778185389
 21
11.8412290752
  0
LINE
  5
40E
100
AcDbEntity
  8
RACCORDO
100
AcDbLine
 62
250
  6
CONTINUOUS
 10
65.9802349208
 20
16.8085813906
 11
65.9777423865
 21
11.8293876193
  0
LINE
  5
40F
100
AcDbEntity
  8
RACCORDO
100
AcDbLine
 62
250
  6
CONTINUOUS
 10
65.4840744788
 20
21.0771586046
 11
65.4803110731
 21
16.825406671
  0
LINE
  5
410
100
AcDbEntity
  8
RACCORDO
100
AcDbLine
 62
250
  6
CONTINUOUS
 10
65.9833739418
 20
20.7841891936
 11
65.9802349208
 21
16.8085813906
  0
LINE
  5
411
100
AcDbEntity
  8
RACCORDO
100
AcDbLine
 62
250
  6
CONTINUOUS
 10
65.4865374324
 20
21.4354612243
 11
65.4840744788
 21
21.0771586046
  0
LINE
  5
412
100
AcDbEntity
  8
RACCORDO
100
AcDbLine
 62
250
  6
CONTINUOUS
 10
65.9848071559
 20
20.9814709855
 11
65.9833739418
 21
20.7841891936
  0
LINE
  5
413
100
AcDbEntity
  8
RACCORDO
100
AcDbLine
 62
250
  6
CONTINUOUS
 10
65.3919962532
 20
-23.1226497308
 11
65.3869056521
 21
-23.6278312164
  0
LINE
  5
414
100
AcDbEntity
  8
RACCORDO
100
AcDbLine
 62
250
  6
CONTINUOUS
 10
65.6427192511
 20
-23.2669872981
 11
65.6369014213
 21
-23.8443375673
  0
LINE
  5
415
100
AcDbEntity
  8
RACCORDO
100
AcDbLine
 62
250
  6
CONTINUOUS
 10
65.4888729017
 20
21.6428236629
 11
65.4865374324
 21
21.4354612243
  0
LINE
  5
416
100
AcDbEntity
  8
RACCORDO
100
AcDbLine
 62
250
  6
CONTINUOUS
 10
65.9864612713
 20
21.1239007675
 11
65.9848071559
 21
20.9814709855
  0
LINE
  5
417
100
AcDbEntity
  8
RACCORDO
100
AcDbLine
 62
250
  6
CONTINUOUS
 10
65.4908258826
 20
21.7666879384
 11
65.4888729017
 21
21.6428236629
  0
LINE
  5
418
100
AcDbEntity
  8
RACCORDO
100
AcDbLine
 62
250
  6
CONTINUOUS
 10
65.9881019845
 20
21.2263683964
 11
65.9864612713
 21
21.1239007675
  0
LINE
  5
419
100
AcDbEntity
  8
RACCORDO
100
AcDbLine
 62
250
  6
CONTINUOUS
 10
65.4922863736
 20
21.8382225163
 11
65.4908258826
 21
21.7666879384
  0
LINE
  5
41A
100
AcDbEntity
  8
RACCORDO
100
AcDbLine
 62
250
  6
CONTINUOUS
 10
65.9895239532
 20
21.2957381738
 11
65.9881019845
 21
21.2263683964
  0
LINE
  5
41B
100
AcDbEntity
  8
RACCORDO
100
AcDbLine
 62
250
  6
CONTINUOUS
 10
65.9907497423
 20
21.3447193848
 11
65.9895239532
 21
21.2957381738
  0
LINE
  5
41C
100
AcDbEntity
  8
RACCORDO
100
AcDbLine
 62
250
  6
CONTINUOUS
 10
65.4934737309
 20
21.8853151324
 11
65.4922863736
 21
21.8382225163
  0
LINE
  5
41D
100
AcDbEntity
  8
RACCORDO
100
AcDbLine
 62
250
  6
CONTINUOUS
 10
65.9917145794
 20
21.3774112341
 11
65.9907497423
 21
21.3447193848
  0
LINE
  5
41E
100
AcDbEntity
  8
RACCORDO
100
AcDbLine
 62
250
  6
CONTINUOUS
 10
65.4943453401
 20
21.9142087972
 11
65.4934737309
 21
21.8853151324
  0
LWPOLYLINE
  5
41F
100
AcDbEntity
  8
RACCORDO
100
AcDbPolyline
 62
250
  6
CONTINUOUS
 90
31
 70
0
 10
65.6369014213
 20
23.8443375673
 10
65.6365220896
 20
23.8330274168
 10
65.6354611076
 20
23.8217481519
 10
65.6337213727
 20
23.810530574
 10
65.6313076358
 20
23.7994053159
 10
65.6282264882
 20
23.7884027584
 10
65.624486344
 20
23.7775529472
 10
65.6200974166
 20
23.7668855107
 10
65.6150716913
 20
23.7564295797
 10
65.6094228923
 20
23.7462137069
 10
65.6031664453
 20
23.7362657898
 10
65.5963194354
 20
23.7266129942
 10
65.5889005603
 20
23.7172816797
 10
65.5809300794
 20
23.7082973282
 10
65.5724297583
 20
23.6996844742
 10
65.5634228098
 20
23.6914666374
 10
65.5539338299
 20
23.6836662592
 10
65.543988731
 20
23.6763046407
 10
65.5336146711
 20
23.6694018849
 10
65.5228399796
 20
23.6629768418
 10
65.5116940799
 20
23.6570470569
 10
65.5002074091
 20
23.6516287232
 10
65.4884113349
 20
23.646736637
 10
65.47633807
 20
23.6423841576
 10
65.4640205838
 20
23.6385831707
 10
65.451492513
 20
23.6353440559
 10
65.4387880689
 20
23.6326756587
 10
65.4259419448
 20
23.6305852658
 10
65.4129892207
 20
23.6290785857
 10
65.3999652679
 20
23.6281597328
 10
65.3869056521
 20
23.6278312164
  0
LINE
  5
420
100
AcDbEntity
  8
RACCORDO
100
AcDbLine
 62
250
  6
CONTINUOUS
 10
65.9925452534
 20
21.4018982689
 11
65.9917145794
 21
21.3774112341
  0
LINE
  5
421
100
AcDbEntity
  8
RACCORDO
100
AcDbLine
 62
250
  6
CONTINUOUS
 10
65.4950547879
 20
21.9344121918
 11
65.4943453401
 21
21.9142087972
  0
LINE
  5
422
100
AcDbEntity
  8
RACCORDO
100
AcDbLine
 62
250
  6
CONTINUOUS
 10
65.9932255187
 20
21.4196326927
 11
65.9925452534
 21
21.4018982689
  0
LINE
  5
423
100
AcDbEntity
  8
RACCORDO
100
AcDbLine
 62
250
  6
CONTINUOUS
 10
65.4955931224
 20
21.9478415444
 11
65.4950547879
 21
21.9344121918
  0
LINE
  5
424
100
AcDbEntity
  8
RACCORDO
100
AcDbLine
 62
250
  6
CONTINUOUS
 10
65.9939184172
 20
21.4356826108
 11
65.9932255187
 21
21.4196326927
  0
LWPOLYLINE
  5
425
100
AcDbEntity
  8
RACCORDO
100
AcDbPolyline
 62
7
  6
CONTINUOUS
 90
34
 70
0
 10
63.2572807489
 20
-23.2669872981
 10
63.2575784753
 20
-23.260745719
 10
63.2583497267
 20
-23.254472608
 10
63.2596000894
 20
-23.2481861919
 10
63.2613341367
 20
-23.2419121598
 10
63.2635555794
 20
-23.2356626215
 10
63.2662675994
 20
-23.2294361375
 10
63.2694720963
 20
-23.2232532001
 10
63.2731700208
 20
-23.2171335699
 10
63.2773622718
 20
-23.2110754134
 10
63.282047756
 20
-23.2051002367
 10
63.2872243979
 20
-23.199228829
 10
63.2928907687
 20
-23.1934590071
 10
63.2990425526
 20
-23.1878130261
 10
63.305674335
 20
-23.182312533
 10
63.3127821378
 20
-23.1769551973
 10
63.3203581333
 20
-23.171763745
 10
63.3283932153
 20
-23.1667604362
 10
63.3368804409
 20
-23.1619430222
 10
63.3458081504
 20
-23.1573343288
 10
63.3551631291
 20
-23.1529569199
 10
63.3649348037
 20
-23.148808872
 10
63.3751073149
 20
-23.1449126131
 10
63.385662902
 20
-23.1412905703
 10
63.3965865028
 20
-23.137941334
 10
63.4078575603
 20
-23.1348863009
 10
63.4194534848
 20
-23.1321470947
 10
63.4313541826
 20
-23.1297228132
 10
63.4435210103
 20
-23.1276360125
 10
63.4559390652
 20
-23.1259025536
 10
63.4686230593
 20
-23.1245164325
 10
63.4815577699
 20
-23.1234933505
 10
63.4946962714
 20
-23.1228641607
 10
63.5080037468
 20
-23.1226497308
  0
LINE
  5
426
100
AcDbEntity
  8
RACCORDO
100
AcDbLine
 62
250
  6
CONTINUOUS
 10
65.4961361945
 20
21.9597784352
 11
65.4955931224
 21
21.9478415444
  0
LWPOLYLINE
  5
427
100
AcDbEntity
  8
RACCORDO
100
AcDbPolyline
 62
7
  6
CONTINUOUS
 90
34
 70
0
 10
65.6427192511
 20
23.2669872981
 10
65.6424215247
 20
23.260745719
 10
65.6416502733
 20
23.254472608
 10
65.6403999106
 20
23.2481861919
 10
65.6386658633
 20
23.2419121598
 10
65.6364444206
 20
23.2356626215
 10
65.6337324006
 20
23.2294361375
 10
65.6305279037
 20
23.2232532001
 10
65.6268299792
 20
23.2171335699
 10
65.6226377282
 20
23.2110754134
 10
65.617952244
 20
23.2051002367
 10
65.6127756021
 20
23.199228829
 10
65.6071092313
 20
23.1934590071
 10
65.6009574474
 20
23.1878130261
 10
65.594325665
 20
23.182312533
 10
65.5872178622
 20
23.1769551973
 10
65.5796418667
 20
23.171763745
 10
65.5716067847
 20
23.1667604362
 10
65.5631195591
 20
23.1619430222
 10
65.5541918496
 20
23.1573343288
 10
65.5448368709
 20
23.1529569199
 10
65.5350651963
 20
23.148808872
 10
65.5248926851
 20
23.1449126131
 10
65.514337098
 20
23.1412905703
 10
65.5034134972
 20
23.137941334
 10
65.4921424397
 20
23.1348863009
 10
65.4805465152
 20
23.1321470947
 10
65.4686458174
 20
23.1297228132
 10
65.4564789897
 20
23.1276360125
 10
65.4440609348
 20
23.1259025536
 10
65.4313769407
 20
23.1245164325
 10
65.4184422301
 20
23.1234933505
 10
65.4053037286
 20
23.1228641607
 10
65.3919962532
 20
23.1226497308
  0
LINE
  5
428
100
AcDbEntity
  8
RACCORDO
100
AcDbLine
 62
250
  6
CONTINUOUS
 10
65.9944456206
 20
21.4465968348
 11
65.9939184172
 21
21.4356826108
  0
LWPOLYLINE
  5
429
100
AcDbEntity
  8
RACCORDO
100
AcDbPolyline
 62
250
  6
CONTINUOUS
 90
3
 70
0
 10
65.4966834531
 20
21.9702107555
 10
65.4965006102
 20
21.9669011825
 10
65.4961361945
 20
21.9597784352
  0
LINE
  5
42A
100
AcDbEntity
  8
RACCORDO
100
AcDbLine
 62
250
  6
CONTINUOUS
 10
65.994978667
 20
21.4565355303
 11
65.9944456206
 21
21.4465968348
  0
LINE
  5
42B
100
AcDbEntity
  8
RACCORDO
100
AcDbLine
 62
250
  6
CONTINUOUS
 10
65.9953370115
 20
21.4626143779
 11
65.994978667
 21
21.4565355303
  0
LINE
  5
42C
100
AcDbEntity
  8
RACCORDO
100
AcDbLine
 62
250
  6
CONTINUOUS
 10
65.9956975421
 20
21.4682522167
 11
65.9953370115
 21
21.4626143779
  0
LINE
  5
42D
100
AcDbEntity
  8
RACCORDO
100
AcDbLine
 62
250
  6
CONTINUOUS
 10
65.9960600773
 20
21.4734463091
 11
65.9956975421
 21
21.4682522167
  0
LINE
  5
42E
100
AcDbEntity
  8
RACCORDO
100
AcDbLine
 62
7
  6
CONTINUOUS
 10
64.6407250483
 20
-3.6225507233
 11
64.633203751
 21
-3.7048016636
  0
LINE
  5
42F
100
AcDbEntity
  8
RACCORDO
100
AcDbLine
 62
7
  6
CONTINUOUS
 10
63.25
 20
-22.4
 11
63.2572807489
 21
-22.3344140523
  0
LINE
  5
430
100
AcDbEntity
  8
DRAFT
100
AcDbLine
 62
7
  6
CONTINUOUS
 10
64.6706997772
 20
-3.6398566411
 11
60.9956997772
 21
-10.0051433589
  0
LINE
  5
431
100
AcDbEntity
  8
RACCORDO
100
AcDbLine
 62
250
  6
CONTINUOUS
 10
65.0958576953
 20
-3.5280454138
 11
61.109316236
 21
-10.4354418465
  0
LINE
  5
432
100
AcDbEntity
  8
RACCORDO
100
AcDbLine
 62
250
  6
CONTINUOUS
 10
64.6860574822
 20
-3.6357415565
 11
60.9995258905
 21
-10.0194455961
  0
LINE
  5
433
100
AcDbEntity
  8
RACCORDO
100
AcDbLine
 62
250
  6
CONTINUOUS
 10
44.35
 20
-24.2500042308
 11
44.3630985787
 21
-24.2369056521
  0
LINE
  5
434
100
AcDbEntity
  8
RACCORDO
100
AcDbLine
 62
250
  6
CONTINUOUS
 10
44.5999957692
 20
-24.5
 11
44.6130943479
 21
-24.4869014213
  0
LINE
  5
435
100
AcDbEntity
  8
RACCORDO
100
AcDbLine
 62
7
  6
CONTINUOUS
 10
59.0324791872
 20
-8.8841379825
 11
59.0326113532
 21
-8.8840369998
  0
LWPOLYLINE
  5
436
100
AcDbEntity
  8
RACCORDO
100
AcDbPolyline
 62
7
  6
CONTINUOUS
 90
5
 70
0
 10
59.0324791864
 20
-8.8841379832
 10
59.0315944318
 20
-8.8845887153
 10
59.0298542535
 20
-8.8853186566
 10
59.0272772378
 20
-8.8862950613
 10
59.0238504348
 20
-8.8874658337
  0
LWPOLYLINE
  5
437
100
AcDbEntity
  8
RACCORDO
100
AcDbPolyline
 62
7
  6
CONTINUOUS
 90
3
 70
0
 10
59.0238504348
 20
-8.8874658337
 10
59.014714387
 20
-8.8903707019
 10
59.0091427065
 20
-8.8920969719
  0
LINE
  5
438
100
AcDbEntity
  8
RACCORDO
100
AcDbLine
 62
7
  6
CONTINUOUS
 10
59.0091427065
 20
-8.8920969719
 11
58.9888586711
 21
-8.8981571439
  0
LINE
  5
439
100
AcDbEntity
  8
RACCORDO
100
AcDbLine
 62
7
  6
CONTINUOUS
 10
58.9888586711
 20
-8.8981571439
 11
58.9641233803
 21
-8.9053447327
  0
LINE
  5
43A
100
AcDbEntity
  8
RACCORDO
100
AcDbLine
 62
7
  6
CONTINUOUS
 10
58.9641233803
 20
-8.9053447327
 11
58.9358365671
 21
-8.9134203464
  0
LINE
  5
43B
100
AcDbEntity
  8
SMUSSO
100
AcDbLine
 62
7
  6
CONTINUOUS
 10
53.875
 20
10.6216479642
 11
53.9531163181
 21
10.6216479642
  0
LINE
  5
43C
100
AcDbEntity
  8
RACCORDO
100
AcDbLine
 62
250
  6
CONTINUOUS
 10
44.35
 20
24.2500042308
 11
44.3630985787
 21
24.2369056521
  0
LINE
  5
43D
100
AcDbEntity
  8
RACCORDO
100
AcDbLine
 62
250
  6
CONTINUOUS
 10
44.5999957692
 20
24.5
 11
44.6130943479
 21
24.4869014213
  0
LINE
  5
43E
100
AcDbEntity
  8
RACCORDO
100
AcDbLine
 62
7
  6
CONTINUOUS
 10
63.25
 20
22.4
 11
63.2572807489
 21
22.3344140523
  0
LWPOLYLINE
  5
43F
100
AcDbEntity
  8
RACCORDO
100
AcDbPolyline
 62
250
  6
CONTINUOUS
 90
31
 70
0
 10
65.6369014213
 20
24.2369056521
 10
65.6365583827
 20
24.2499891381
 10
65.6355310928
 20
24.2630367647
 10
65.6338223673
 20
24.2760127708
 10
65.6314368893
 20
24.2888815916
 10
65.6283811971
 20
24.3016079562
 10
65.6246636657
 20
24.3141569839
 10
65.6202944842
 20
24.3264942801
 10
65.6152856277
 20
24.3385860308
 10
65.6096508246
 20
24.3503990946
 10
65.6034055187
 20
24.3619010942
 10
65.5965668272
 20
24.3730605047
 10
65.5891534939
 20
24.3838467403
 10
65.5811858371
 20
24.3942302379
 10
65.5726856948
 20
24.4041825384
 10
65.5636763643
 20
24.4136763643
 10
65.5541825384
 20
24.4226856948
 10
65.5442302379
 20
24.4311858371
 10
65.5338467403
 20
24.4391534939
 10
65.5230605047
 20
24.4465668272
 10
65.5119010942
 20
24.4534055187
 10
65.5003990946
 20
24.4596508246
 10
65.4885860308
 20
24.4652856277
 10
65.4764942801
 20
24.4702944842
 10
65.4641569839
 20
24.4746636657
 10
65.4516079562
 20
24.4783811971
 10
65.4388815916
 20
24.4814368893
 10
65.4260127708
 20
24.4838223673
 10
65.4130367647
 20
24.4855310928
 10
65.3999891381
 20
24.4865583827
 10
65.3869056521
 20
24.4869014213
  0
LWPOLYLINE
  5
440
100
AcDbEntity
  8
RACCORDO
100
AcDbPolyline
 62
250
  6
CONTINUOUS
 90
34
 70
0
 10
65.9991998053
 20
21.4994104546
 10
65.9986125013
 20
21.5231550472
 10
65.9968953524
 20
21.5468459036
 10
65.9940522442
 20
21.5704294182
 10
65.9900896094
 20
21.5938522261
 10
65.9850164149
 20
21.6170613307
 10
65.9788441412
 20
21.6400042235
 10
65.9715867544
 20
21.6626289927
 10
65.9632606757
 20
21.6848844446
 10
65.9538847451
 20
21.7067202264
 10
65.9434801776
 20
21.7280869312
 10
65.9320705152
 20
21.7489362123
 10
65.9196815749
 20
21.7692208967
 10
65.906341389
 20
21.7888950871
 10
65.892080142
 20
21.8079142667
 10
65.8769301028
 20
21.8262354017
 10
65.8609255512
 20
21.8438170379
 10
65.8441027004
 20
21.860619393
 10
65.8264996153
 20
21.8766044483
 10
65.8081561261
 20
21.891736035
 10
65.7891137383
 20
21.9059799148
 10
65.7694155387
 20
21.9193038568
 10
65.7491060983
 20
21.9316777136
 10
65.7282313708
 20
21.9430734866
 10
65.7068385887
 20
21.9534653886
 10
65.6849761574
 20
21.9628299063
 10
65.6626935444
 20
21.9711458504
 10
65.6400411675
 20
21.9783944015
 10
65.6170702819
 20
21.9845591587
 10
65.5938328635
 20
21.9896261727
 10
65.5703814894
 20
21.9935839745
 10
65.5467692223
 20
21.9964236073
 10
65.5230494898
 20
21.9981386474
 10
65.4992759622
 20
21.9987252141
  0
LWPOLYLINE
  5
441
100
AcDbEntity
  8
RACCORDO
100
AcDbPolyline
 62
7
  6
CONTINUOUS
 90
25
 70
0
 10
66.1325778449
 20
21.9498978739
 10
66.1320599034
 20
21.9713171503
 10
66.1305239112
 20
21.9926858616
 10
66.1279736082
 20
22.0139556319
 10
66.1244150437
 20
22.0350781601
 10
66.1198565374
 20
22.0560058482
 10
66.1143085722
 20
22.0766918903
 10
66.1077838801
 20
22.0970895234
 10
66.1002974053
 20
22.1171526528
 10
66.0918661013
 20
22.1368364314
 10
66.0825091403
 20
22.1560963804
 10
66.0722477866
 20
22.174888981
 10
66.0611051196
 20
22.1931722098
 10
66.0491063688
 20
22.21090474
 10
66.0362787014
 20
22.2280464864
 10
66.0226508732
 20
22.2445590757
 10
66.008253676
 20
22.2604051439
 10
65.9931196448
 20
22.2755488292
 10
65.9772826488
 20
22.28995617
 10
65.9607784383
 20
22.3035945018
 10
65.9436442782
 20
22.3164328943
 10
65.9259184856
 20
22.3284424746
 10
65.9076410696
 20
22.3395959252
 10
65.8888532946
 20
22.3498678609
 10
65.8836664589
 20
22.352503122
  0
LWPOLYLINE
  5
442
100
AcDbEntity
  8
RACCORDO
100
AcDbPolyline
 62
7
  6
CONTINUOUS
 90
34
 70
0
 10
65.65
 20
24.2500042308
 10
65.6497168498
 20
24.261899516
 10
65.6488680342
 20
24.2737678556
 10
65.6474554741
 20
24.2855823661
 10
65.6454823677
 20
24.2973162875
 10
65.6429531817
 20
24.3089430388
 10
65.6398736417
 20
24.320436279
 10
65.6362507213
 20
24.3317699738
 10
65.6320926258
 20
24.3429184493
 10
65.6274087722
 20
24.3538564463
 10
65.6222097688
 20
24.3645591876
 10
65.6165073916
 20
24.3750024283
 10
65.6103145581
 20
24.3851625059
 10
65.6036452955
 20
24.3950164051
 10
65.5965147107
 20
24.4045418038
 10
65.5889389589
 20
24.4137171191
 10
65.5809352005
 20
24.4225215661
 10
65.5725215661
 20
24.4309352005
 10
65.5637171191
 20
24.4389389589
 10
65.5545418038
 20
24.4465147107
 10
65.5450164051
 20
24.4536452955
 10
65.5351625059
 20
24.4603145581
 10
65.5250024283
 20
24.4665073916
 10
65.5145591876
 20
24.4722097688
 10
65.5038564463
 20
24.4774087722
 10
65.4929184493
 20
24.4820926258
 10
65.4817699738
 20
24.4862507213
 10
65.470436279
 20
24.4898736417
 10
65.4589430388
 20
24.4929531817
 10
65.4473162875
 20
24.4954823677
 10
65.4355823661
 20
24.4974554741
 10
65.4237678556
 20
24.4988680342
 10
65.411899516
 20
24.4997168498
 10
65.4000042308
 20
24.5
  0
LINE
  5
443
100
AcDbEntity
  8
ASSI
100
AcDbLine
 62
7
  6
CONTINUOUS
 10
66.15
 20
17.6716990487
 11
66.15
 21
-17.6716990487
  0
LINE
  5
444
100
AcDbEntity
  8
RACCORDO
100
AcDbLine
 62
7
  6
CONTINUOUS
 10
66.15
 20
21.9411874598
 11
66.15
 21
-21.9411874598
  0
LWPOLYLINE
  5
445
100
AcDbEntity
  8
RACCORDO
100
AcDbPolyline
 62
7
  6
CONTINUOUS
 90
25
 70
0
 10
66.1325781258
 20
-21.9498977334
 10
66.1320615482
 20
-21.971288545
 10
66.1305291686
 20
-21.9926337114
 10
66.1279840362
 20
-22.0138849691
 10
66.1244314395
 20
-22.0349944083
 10
66.1198790409
 20
-22.0559140613
 10
66.114336938
 20
-22.0765960272
 10
66.1078173347
 20
-22.096993441
 10
66.1003346588
 20
-22.1170600545
 10
66.0919058027
 20
-22.1367498599
 10
66.0825495955
 20
-22.156018198
 10
66.072286975
 20
-22.174821337
 10
66.0611412854
 20
-22.193116122
 10
66.0491375968
 20
-22.2108610385
 10
66.0363029332
 20
-22.2280157976
 10
66.0226666166
 20
-22.2445410101
 10
66.0082594432
 20
-22.2603991825
 10
65.9931139623
 20
-22.2755543224
 10
65.9772648655
 20
-22.2899716452
 10
65.9607480335
 20
-22.3036184716
 10
65.9436008605
 20
-22.3164638665
 10
65.9258626792
 20
-22.3284783903
 10
65.9075737022
 20
-22.339634868
 10
65.888775382
 20
-22.3499080735
 10
65.8836665627
 20
-22.3525030702
  0
LWPOLYLINE
  5
446
100
AcDbEntity
  8
RACCORDO
100
AcDbPolyline
 62
250
  6
CONTINUOUS
 90
34
 70
0
 10
65.9992008169
 20
-21.4994104546
 10
65.9986123418
 20
-21.523153497
 10
65.9968940755
 20
-21.5468428232
 10
65.9940499107
 20
-21.570424835
 10
65.9900862873
 20
-21.5938461737
 10
65.9850121781
 20
-21.6170538515
 10
65.9788390682
 20
-21.639995371
 10
65.9715809283
 20
-21.662618827
 10
65.963254184
 20
-21.6848730341
 10
65.9538776773
 20
-21.7067076525
 10
65.9434726256
 20
-21.7280732822
 10
65.9320625733
 20
-21.748921584
 10
65.9196733359
 20
-21.7692053982
 10
65.9063329463
 20
-21.7888788337
 10
65.8920715888
 20
-21.8078973798
 10
65.8769215276
 20
-21.8262180151
 10
65.8609170409
 20
-21.8437992899
 10
65.8440943397
 20
-21.8606014269
 10
65.8264914807
 20
-21.8765864166
 10
65.808148291
 20
-21.8917180934
 10
65.7891062719
 20
-21.9059622212
 10
65.7694084996
 20
-21.9192865753
 10
65.7490995401
 20
-21.9316610088
 10
65.728225342
 20
-21.9430575232
 10
65.7068331253
 20
-21.9534503328
 10
65.6849712895
 20
-21.9628159224
 10
65.6626892964
 20
-21.9711331
 10
65.6400375505
 20
-21.9783830435
 10
65.6170673009
 20
-21.9845493473
 10
65.5938305177
 20
-21.9896180565
 10
65.5703797655
 20
-21.9935776958
 10
65.5467680988
 20
-21.9964193007
 10
65.5230489425
 20
-21.9981364391
 10
65.4992759622
 20
-21.9987252218
  0
LINE
  5
447
100
AcDbEntity
  8
SMUSSO
100
AcDbLine
 62
7
  6
CONTINUOUS
 10
56.125
 20
11.3216479642
 11
55.7508939712
 21
11.3216479642
  0
LINE
  5
448
100
AcDbEntity
  8
0
100
AcDbLine
 62
7
  6
CONTINUOUS
 10
55.7508939712
 20
11.3216479642
 11
55.5169385323
 21
11.3216479642
  0
LINE
  5
449
100
AcDbEntity
  8
0
100
AcDbLine
 62
7
  6
CONTINUOUS
 10
55.4481414011
 20
11.3216479642
 11
55.1552483525
 21
11.3216479642
  0
LINE
  5
44A
100
AcDbEntity
  8
SMUSSO
100
AcDbLine
 62
7
  6
CONTINUOUS
 10
53.9531163181
 20
11.3216479642
 11
55.1552483525
 21
11.3216479642
  0
LINE
  5
44B
100
AcDbEntity
  8
DRAFT
100
AcDbLine
 62
7
  6
CONTINUOUS
 10
53.875
 20
11.675
 11
56.125
 21
11.675
  0
LINE
  5
44C
100
AcDbEntity
  8
RACCORDO
100
AcDbLine
 62
250
  6
CONTINUOUS
 10
53.8648867089
 20
11.6851132911
 11
56.1351132911
 21
11.6851132911
  0
LINE
  5
44D
100
AcDbEntity
  8
RACCORDO
100
AcDbLine
 62
250
  6
CONTINUOUS
 10
53.5648981328
 20
11.9922972464
 11
56.4351018672
 21
11.9922972464
  0
LINE
  5
44E
100
AcDbEntity
  8
RACCORDO
100
AcDbLine
 62
7
  6
CONTINUOUS
 10
50.6029258382
 20
-23.7970741618
 11
50.6
 21
-23.8
  0
LINE
  5
44F
100
AcDbEntity
  8
RACCORDO
100
AcDbLine
 62
7
  6
CONTINUOUS
 10
50.6029258382
 20
23.7970741618
 11
50.6
 21
23.8
  0
LWPOLYLINE
  5
450
100
AcDbEntity
  8
0
100
AcDbPolyline
 62
7
  6
CONTINUOUS
 90
10
 70
0
 43
0.3500000006
 10
76.6307221985
 20
0.4285709152
 10
75.7735797272
 20
1.2857133865
 10
74.9164372559
 20
1.5000001373
 10
74.0592947845
 20
1.5000001373
 10
73.6307258148
 20
1.0714289017
 10
73.6307258148
 20
0.4285709152
 10
74.0592947845
 20
-0.0000003204
 10
74.9164372559
 20
-0.0000003204
 10
75.3450107574
 20
0.4285709152
 10
75.3450107574
 20
1.3571423035
  0
LINE
  5
451
100
AcDbEntity
  8
RACCORDO
100
AcDbLine
 62
7
  6
CONTINUOUS
 10
51.0319094095
 20
-23.6400757416
 11
51.1029173766
 21
-23.5953423515
  0
LINE
  5
452
100
AcDbEntity
  8
RACCORDO
100
AcDbLine
 62
7
  6
CONTINUOUS
 10
51.0034418162
 20
-23.6577812011
 11
51.0319094095
 21
-23.6400757416
  0
LINE
  5
453
100
AcDbEntity
  8
RACCORDO
100
AcDbLine
 62
7
  6
CONTINUOUS
 10
50.9750516799
 20
23.6751796798
 11
51.0034418162
 21
23.6577812011
  0
LINE
  5
454
100
AcDbEntity
  8
RACCORDO
100
AcDbLine
 62
7
  6
CONTINUOUS
 10
51.0034418162
 20
23.6577812011
 11
51.0461611847
 21
23.6311538461
  0
LINE
  5
455
100
AcDbEntity
  8
RACCORDO
100
AcDbLine
 62
7
  6
CONTINUOUS
 10
51.0461611847
 20
23.6311538461
 11
51.1029173766
 21
23.5953423515
  0
LWPOLYLINE
  5
456
100
AcDbEntity
  8
0
100
AcDbPolyline
 62
7
  6
CONTINUOUS
 90
10
 70
0
 43
0.3500000006
 10
56.0714301453
 20
36.3718044891
 10
56.1428567963
 20
36.2289466553
 10
56.1428567963
 20
36.1575200043
 10
55.9999989624
 20
36.0146621704
 10
55.9285723114
 20
36.0146621704
 10
55.8571411285
 20
36.0860888214
 10
55.8571411285
 20
36.1575200043
 10
55.9285723114
 20
36.3003778381
 10
55.9999989624
 20
36.3718044891
 10
56.0714301453
 20
36.3718044891
  0
LWPOLYLINE
  5
457
100
AcDbEntity
  8
0
100
AcDbPolyline
 62
7
  6
CONTINUOUS
 90
3
 70
0
 43
0.3500000006
 10
75.9878687439
 20
-0.8571427917
 10
75.9878687439
 20
-2.3571432495
 10
73.6307258148
 20
-1.7142852631
  0
LINE
  5
458
100
AcDbEntity
  8
RACCORDO
100
AcDbLine
 62
250
  6
CONTINUOUS
 10
44.1425076577
 20
20.5552498567
 11
44.1752832885
 21
20.5566618066
  0
LINE
  5
459
100
AcDbEntity
  8
RACCORDO
100
AcDbLine
 62
250
  6
CONTINUOUS
 10
44.1752832885
 20
20.5566618066
 11
44.2110875003
 21
20.5579430723
  0
LINE
  5
45A
100
AcDbEntity
  8
RACCORDO
100
AcDbLine
 62
250
  6
CONTINUOUS
 10
44.2110875003
 20
20.5579430723
 11
44.2496031988
 21
20.5590823065
  0
LINE
  5
45B
100
AcDbEntity
  8
RACCORDO
100
AcDbLine
 62
250
  6
CONTINUOUS
 10
44.2496031988
 20
20.5590823065
 11
44.2904892759
 21
20.5600694198
  0
LINE
  5
45C
100
AcDbEntity
  8
RACCORDO
100
AcDbLine
 62
250
  6
CONTINUOUS
 10
44.2904892759
 20
20.5600694198
 11
44.3333836304
 21
20.5608956698
  0
LINE
  5
45D
100
AcDbEntity
  8
RACCORDO
100
AcDbLine
 62
250
  6
CONTINUOUS
 10
44.3333836304
 20
20.5608956698
 11
44.4006556414
 21
20.561817825
  0
LINE
  5
45E
100
AcDbEntity
  8
RACCORDO
100
AcDbLine
 62
250
  6
CONTINUOUS
 10
44.4006556414
 20
20.561817825
 11
44.4702488727
 21
20.5623435641
  0
LINE
  5
45F
100
AcDbEntity
  8
RACCORDO
100
AcDbLine
 62
250
  6
CONTINUOUS
 10
44.4702488727
 20
20.5623435641
 11
65.4827491915
 21
20.5624683248
  0
LINE
  5
460
100
AcDbEntity
  8
RACCORDO
100
AcDbLine
 62
250
  6
CONTINUOUS
 10
65.5531219113
 20
20.5622131686
 11
65.4827491915
 21
20.5624683248
  0
LINE
  5
461
100
AcDbEntity
  8
RACCORDO
100
AcDbLine
 62
250
  6
CONTINUOUS
 10
65.6220936246
 20
20.5615537269
 11
65.5531219113
 21
20.5622131686
  0
LINE
  5
462
100
AcDbEntity
  8
RACCORDO
100
AcDbLine
 62
250
  6
CONTINUOUS
 10
65.6666163696
 20
20.5608956547
 11
65.6220936246
 21
20.5615537269
  0
LINE
  5
463
100
AcDbEntity
  8
RACCORDO
100
AcDbLine
 62
250
  6
CONTINUOUS
 10
65.7095107241
 20
20.5600694024
 11
65.6666163696
 21
20.5608956547
  0
LINE
  5
464
100
AcDbEntity
  8
RACCORDO
100
AcDbLine
 62
250
  6
CONTINUOUS
 10
65.7503968012
 20
20.5590822876
 11
65.7095107241
 21
20.5600694024
  0
LINE
  5
465
100
AcDbEntity
  8
RACCORDO
100
AcDbLine
 62
250
  6
CONTINUOUS
 10
65.7889124997
 20
20.5579430524
 11
65.7503968012
 21
20.5590822876
  0
LINE
  5
466
100
AcDbEntity
  8
RACCORDO
100
AcDbLine
 62
250
  6
CONTINUOUS
 10
65.8247167115
 20
20.5566617864
 11
65.7889124997
 21
20.5579430524
  0
LWPOLYLINE
  5
467
100
AcDbEntity
  8
RACCORDO
100
AcDbPolyline
 62
250
  6
CONTINUOUS
 90
16
 70
0
 10
65.9826730347
 20
-20.5419058565
 10
65.9817090349
 20
-20.5428735514
 10
65.9796396833
 20
-20.5438391025
 10
65.9764695641
 20
-20.544800371
 10
65.9722057002
 20
-20.5457552271
 10
65.9668575374
 20
-20.5467015557
 10
65.9604369234
 20
-20.5476372603
 10
65.952958082
 20
-20.5485602681
 10
65.9444375812
 20
-20.5494685343
 10
65.9348942964
 20
-20.5503600468
 10
65.9243493691
 20
-20.5512328306
 10
65.9128261596
 20
-20.5520849522
 10
65.9003501953
 20
-20.552914524
 10
65.8869491145
 20
-20.5537197082
 10
65.8726526047
 20
-20.5544987209
 10
65.8574923371
 20
-20.5552498366
  0
LINE
  5
468
100
AcDbEntity
  8
RACCORDO
100
AcDbLine
 62
250
  6
CONTINUOUS
 10
63.25
 20
-24.2500042308
 11
63.2630985787
 21
-24.2369056521
  0
LINE
  5
469
100
AcDbEntity
  8
RACCORDO
100
AcDbLine
 62
250
  6
CONTINUOUS
 10
63.4999957692
 20
-24.5
 11
63.5130943479
 21
-24.4869014213
  0
LWPOLYLINE
  5
46A
100
AcDbEntity
  8
RACCORDO
100
AcDbPolyline
 62
7
  6
CONTINUOUS
 90
23
 70
0
 10
59.2962073137
 20
23.7953389668
 10
59.2854181903
 20
23.7947915649
 10
59.2743307281
 20
23.793363895
 10
59.2629449272
 20
23.7911364879
 10
59.2512361469
 20
23.7881978965
 10
59.239229028
 20
23.7846238716
 10
59.226997492
 20
23.7804595132
 10
59.2145487518
 20
23.7757643703
 10
59.2018755946
 20
23.7706018097
 10
59.1890303044
 20
23.7649953104
 10
59.1760171723
 20
23.758990232
 10
59.1628319072
 20
23.7526365647
 10
59.1495139203
 20
23.7459460582
 10
59.1360654333
 20
23.7389542831
 10
59.1224842244
 20
23.7317013921
 10
59.1088030396
 20
23.724193673
 10
59.0950229279
 20
23.7164601879
 10
59.0811428402
 20
23.708533951
 10
59.0671923756
 20
23.7004191901
 10
59.053171775
 20
23.6921405291
 10
59.0390807976
 20
23.6837259593
 10
59.0249483201
 20
23.6751796798
 10
58.9965581838
 20
23.6577812011
  0
LINE
  5
46B
100
AcDbEntity
  8
RACCORDO
100
AcDbLine
 62
250
  6
CONTINUOUS
 10
44.5007240378
 20
21.998725222
 11
65.4992759622
 21
21.998725222
  0
LINE
  5
46C
100
AcDbEntity
  8
RACCORDO
100
AcDbLine
 62
7
  6
CONTINUOUS
 10
44.6072765181
 20
22.3213883311
 11
46.4927234819
 21
22.3213883311
  0
LINE
  5
46D
100
AcDbEntity
  8
RACCORDO
100
AcDbLine
 62
7
  6
CONTINUOUS
 10
63.5072765181
 20
22.3213883311
 11
65.3927234819
 21
22.3213883311
  0
LINE
  5
46E
100
AcDbEntity
  8
RACCORDO
100
AcDbLine
 62
7
  6
CONTINUOUS
 10
58.8970826234
 20
22.3475922207
 11
51.1029173766
 21
22.3475922207
  0
LINE
  5
46F
100
AcDbEntity
  8
RACCORDO
100
AcDbLine
 62
7
  6
CONTINUOUS
 10
65.6824078424
 20
22.4
 11
65.65
 21
22.4
  0
LINE
  5
470
100
AcDbEntity
  8
DRAFT
100
AcDbLine
 62
7
  6
CONTINUOUS
 10
63.25
 20
22.4
 11
59.4
 21
22.4
  0
LINE
  5
471
100
AcDbEntity
  8
DRAFT
100
AcDbLine
 62
7
  6
CONTINUOUS
 10
50.6
 20
22.4
 11
46.75
 21
22.4
  0
LINE
  5
472
100
AcDbEntity
  8
RACCORDO
100
AcDbLine
 62
7
  6
CONTINUOUS
 10
44.35
 20
22.4
 11
44.3175921576
 21
22.4
  0
LINE
  5
473
100
AcDbEntity
  8
RACCORDO
100
AcDbLine
 62
7
  6
CONTINUOUS
 10
44.6072765181
 20
23.1226497308
 11
46.4927234819
 21
23.1226497308
  0
LINE
  5
474
100
AcDbEntity
  8
RACCORDO
100
AcDbLine
 62
7
  6
CONTINUOUS
 10
63.5072765181
 20
23.1226497308
 11
65.3927234819
 21
23.1226497308
  0
LWPOLYLINE
  5
475
100
AcDbEntity
  8
RACCORDO
100
AcDbPolyline
 62
7
  6
CONTINUOUS
 90
22
 70
0
 10
50.7037926863
 20
23.7953389668
 10
50.7145818097
 20
23.7947915649
 10
50.7256692719
 20
23.793363895
 10
50.7370550728
 20
23.7911364879
 10
50.7487638531
 20
23.7881978965
 10
50.760770972
 20
23.7846238716
 10
50.773002508
 20
23.7804595132
 10
50.7854512482
 20
23.7757643703
 10
50.7981244054
 20
23.7706018097
 10
50.8109696956
 20
23.7649953104
 10
50.8239828277
 20
23.758990232
 10
50.8371680928
 20
23.7526365647
 10
50.8504860797
 20
23.7459460582
 10
50.8639345667
 20
23.7389542831
 10
50.8775157756
 20
23.7317013921
 10
50.8911969604
 20
23.724193673
 10
50.9049770721
 20
23.7164601879
 10
50.9188571598
 20
23.708533951
 10
50.9328076244
 20
23.7004191901
 10
50.946828225
 20
23.6921405291
 10
50.9609192024
 20
23.6837259593
 10
50.9750516799
 20
23.6751796798
  0
LINE
  5
476
100
AcDbEntity
  8
RACCORDO
100
AcDbLine
 62
250
  6
CONTINUOUS
 10
63.25
 20
24.2500042308
 11
63.2630985787
 21
24.2369056521
  0
LINE
  5
477
100
AcDbEntity
  8
RACCORDO
100
AcDbLine
 62
250
  6
CONTINUOUS
 10
63.4999957692
 20
24.5
 11
63.5130943479
 21
24.4869014213
  0
LWPOLYLINE
  5
478
100
AcDbEntity
  8
RACCORDO
100
AcDbPolyline
 62
250
  6
CONTINUOUS
 90
17
 70
0
 10
65.9826730391
 20
20.5419058565
 10
65.9817090395
 20
20.5428735514
 10
65.9796396881
 20
20.5438391026
 10
65.9764695691
 20
20.544800371
 10
65.9722057054
 20
20.5457552271
 10
65.9668575427
 20
20.5467015558
 10
65.9604369289
 20
20.5476372604
 10
65.9529580876
 20
20.5485602682
 10
65.9444375868
 20
20.5494685344
 10
65.934894302
 20
20.5503600469
 10
65.9243493748
 20
20.5512328307
 10
65.9128261652
 20
20.5520849524
 10
65.9003502009
 20
20.5529145242
 10
65.88694912
 20
20.5537197083
 10
65.87265261
 20
20.5544987211
 10
65.8574923423
 20
20.5552498368
 10
65.8247167115
 20
20.5566617864
  0
LINE
  5
479
100
AcDbEntity
  8
RACCORDO
100
AcDbLine
 62
250
  6
CONTINUOUS
 10
66.1325780505
 20
-21.9498977711
 11
66.15
 21
-21.9411874598
  0
LINE
  5
47A
100
AcDbEntity
  8
RACCORDO
100
AcDbLine
 62
7
  6
CONTINUOUS
 10
65.8836665638
 20
-22.3525030696
 11
65.9011653088
 21
-22.3437543634
  0
LWPOLYLINE
  5
47B
100
AcDbEntity
  8
RACCORDO
100
AcDbPolyline
 62
7
  6
CONTINUOUS
 90
11
 70
0
 10
65.8836665627
 20
-22.3525030702
 10
65.8695108605
 20
-22.3592745363
 10
65.849823837
 20
-22.367713156
 10
65.8297589462
 20
-22.3752049444
 10
65.8093622186
 20
-22.3817328934
 10
65.7886885466
 20
-22.3872803189
 10
65.7677763556
 20
-22.3918377837
 10
65.7466471556
 20
-22.3953989044
 10
65.7253396075
 20
-22.3979529639
 10
65.7039103021
 20
-22.3994890033
 10
65.6824078424
 20
-22.4
  0
LWPOLYLINE
  5
47C
100
AcDbEntity
  8
RACCORDO
100
AcDbPolyline
 62
250
  6
CONTINUOUS
 90
31
 70
0
 10
63.5130943479
 20
24.4869014213
 10
63.5000079938
 20
24.4865582323
 10
63.4869574955
 20
24.4855304893
 10
63.4739786381
 20
24.4838210061
 10
63.4611069984
 20
24.4814344634
 10
63.4483778845
 20
24.4783774023
 10
63.435826237
 20
24.4746582128
 10
63.4234864809
 20
24.4702870977
 10
63.4113924437
 20
24.4652760422
 10
63.3995772981
 20
24.4596387939
 10
63.3880734423
 20
24.4533908148
 10
63.3769124163
 20
24.446549239
 10
63.366124826
 20
24.4391328321
 10
63.3557402367
 20
24.4311619239
 10
63.3457871333
 20
24.4226583824
 10
63.3362928401
 20
24.4136455633
 10
63.3272834183
 20
24.4041482289
 10
63.3187835214
 20
24.3941923917
 10
63.3108163791
 20
24.3838052658
 10
63.3034037491
 20
24.3730151866
 10
63.2965660673
 20
24.3618518682
 10
63.2903222656
 20
24.3503462678
 10
63.284689517
 20
24.3385301896
 10
63.2796830871
 20
24.3264358334
 10
63.275316536
 20
24.3140960295
 10
63.2716010963
 20
24.3015418449
 10
63.2685479829
 20
24.2888103798
 10
63.2661668528
 20
24.275944661
 10
63.2644632485
 20
24.2629828864
 10
63.2634399859
 20
24.249957992
 10
63.2630985787
 20
24.2369056521
  0
LWPOLYLINE
  5
47D
100
AcDbEntity
  8
RACCORDO
100
AcDbPolyline
 62
250
  6
CONTINUOUS
 90
31
 70
0
 10
44.6130943479
 20
24.4869014213
 10
44.6000108619
 20
24.4865583827
 10
44.5869632353
 20
24.4855310928
 10
44.5739872292
 20
24.4838223673
 10
44.5611184084
 20
24.4814368893
 10
44.5483920438
 20
24.4783811971
 10
44.5358430161
 20
24.4746636657
 10
44.5235057199
 20
24.4702944842
 10
44.5114139692
 20
24.4652856277
 10
44.4996009054
 20
24.4596508246
 10
44.4880989058
 20
24.4534055187
 10
44.4769394953
 20
24.4465668272
 10
44.4661532597
 20
24.4391534939
 10
44.4557697621
 20
24.4311858371
 10
44.4458174616
 20
24.4226856948
 10
44.4363236357
 20
24.4136763643
 10
44.4273143052
 20
24.4041825384
 10
44.4188141629
 20
24.3942302379
 10
44.4108465061
 20
24.3838467403
 10
44.4034331728
 20
24.3730605047
 10
44.3965944813
 20
24.3619010942
 10
44.3903491754
 20
24.3503990946
 10
44.3847143723
 20
24.3385860308
 10
44.3797055158
 20
24.3264942801
 10
44.3753363343
 20
24.3141569839
 10
44.3716188029
 20
24.3016079562
 10
44.3685631107
 20
24.2888815916
 10
44.3661776327
 20
24.2760127708
 10
44.3644689072
 20
24.2630367647
 10
44.3634416173
 20
24.2499891381
 10
44.3630985787
 20
24.2369056521
  0
LWPOLYLINE
  5
47E
100
AcDbEntity
  8
RACCORDO
100
AcDbPolyline
 62
7
  6
CONTINUOUS
 90
34
 70
0
 10
63.4999957692
 20
24.5
 10
63.488100484
 20
24.4997168498
 10
63.4762321444
 20
24.4988680342
 10
63.4644176339
 20
24.4974554741
 10
63.4526837125
 20
24.4954823677
 10
63.4410569612
 20
24.4929531817
 10
63.429563721
 20
24.4898736417
 10
63.4182300262
 20
24.4862507213
 10
63.4070815507
 20
24.4820926258
 10
63.3961435537
 20
24.4774087722
 10
63.3854408124
 20
24.4722097688
 10
63.3749975717
 20
24.4665073916
 10
63.3648374941
 20
24.4603145581
 10
63.3549835949
 20
24.4536452955
 10
63.3454581962
 20
24.4465147107
 10
63.3362828809
 20
24.4389389589
 10
63.3274784339
 20
24.4309352005
 10
63.3190647995
 20
24.4225215661
 10
63.3110610411
 20
24.4137171191
 10
63.3034852893
 20
24.4045418038
 10
63.2963547045
 20
24.3950164051
 10
63.2896854419
 20
24.3851625059
 10
63.2834926084
 20
24.3750024283
 10
63.2777902312
 20
24.3645591876
 10
63.2725912278
 20
24.3538564463
 10
63.2679073742
 20
24.3429184493
 10
63.2637492787
 20
24.3317699738
 10
63.2601263583
 20
24.320436279
 10
63.2570468183
 20
24.3089430388
 10
63.2545176323
 20
24.2973162875
 10
63.2525445259
 20
24.2855823661
 10
63.2511319658
 20
24.2737678556
 10
63.2502831502
 20
24.261899516
 10
63.25
 20
24.2500042308
  0
LWPOLYLINE
  5
47F
100
AcDbEntity
  8
RACCORDO
100
AcDbPolyline
 62
7
  6
CONTINUOUS
 90
34
 70
0
 10
44.5999957692
 20
24.5
 10
44.588100484
 20
24.4997168498
 10
44.5762321444
 20
24.4988680342
 10
44.5644176339
 20
24.4974554741
 10
44.5526837125
 20
24.4954823677
 10
44.5410569612
 20
24.4929531817
 10
44.529563721
 20
24.4898736417
 10
44.5182300262
 20
24.4862507213
 10
44.5070815507
 20
24.4820926258
 10
44.4961435537
 20
24.4774087722
 10
44.4854408124
 20
24.4722097688
 10
44.4749975717
 20
24.4665073916
 10
44.4648374941
 20
24.4603145581
 10
44.4549835949
 20
24.4536452955
 10
44.4454581962
 20
24.4465147107
 10
44.4362828809
 20
24.4389389589
 10
44.4274784339
 20
24.4309352005
 10
44.4190647995
 20
24.4225215661
 10
44.4110610411
 20
24.4137171191
 10
44.4034852893
 20
24.4045418038
 10
44.3963547045
 20
24.3950164051
 10
44.3896854419
 20
24.3851625059
 10
44.3834926084
 20
24.3750024283
 10
44.3777902312
 20
24.3645591876
 10
44.3725912278
 20
24.3538564463
 10
44.3679073742
 20
24.3429184493
 10
44.3637492787
 20
24.3317699738
 10
44.3601263583
 20
24.320436279
 10
44.3570468183
 20
24.3089430388
 10
44.3545176323
 20
24.2973162875
 10
44.3525445259
 20
24.2855823661
 10
44.3511319658
 20
24.2737678556
 10
44.3502831502
 20
24.261899516
 10
44.35
 20
24.2500042308
  0
LINE
  5
480
100
AcDbEntity
  8
RACCORDO
100
AcDbLine
 62
250
  6
CONTINUOUS
 10
58.8970826234
 20
23.5953423515
 11
51.1029173766
 21
23.5953423515
  0
LINE
  5
481
100
AcDbEntity
  8
RACCORDO
100
AcDbLine
 62
250
  6
CONTINUOUS
 10
44.6130943479
 20
23.6278312164
 11
46.4869056521
 21
23.6278312164
  0
LINE
  5
482
100
AcDbEntity
  8
RACCORDO
100
AcDbLine
 62
250
  6
CONTINUOUS
 10
63.5130943479
 20
23.6278312164
 11
65.3869056521
 21
23.6278312164
  0
LINE
  5
483
100
AcDbEntity
  8
RACCORDO
100
AcDbLine
 62
250
  6
CONTINUOUS
 10
59.2962073137
 20
23.7953389668
 11
50.7037926863
 21
23.7953389668
  0
LINE
  5
484
100
AcDbEntity
  8
DRAFT
100
AcDbLine
 62
7
  6
CONTINUOUS
 10
50.6
 20
23.8
 11
59.4
 21
23.8
  0
LINE
  5
485
100
AcDbEntity
  8
RACCORDO
100
AcDbLine
 62
250
  6
CONTINUOUS
 10
44.3630985787
 20
23.8443375673
 11
46.7369014213
 21
23.8443375673
  0
LINE
  5
486
100
AcDbEntity
  8
RACCORDO
100
AcDbLine
 62
250
  6
CONTINUOUS
 10
63.2630985787
 20
23.8443375673
 11
65.6369014213
 21
23.8443375673
  0
LINE
  5
487
100
AcDbEntity
  8
RACCORDO
100
AcDbLine
 62
250
  6
CONTINUOUS
 10
44.3630985787
 20
24.2369056521
 11
46.7369014213
 21
24.2369056521
  0
LINE
  5
488
100
AcDbEntity
  8
RACCORDO
100
AcDbLine
 62
250
  6
CONTINUOUS
 10
63.2630985787
 20
24.2369056521
 11
65.6369014213
 21
24.2369056521
  0
LINE
  5
489
100
AcDbEntity
  8
RACCORDO
100
AcDbLine
 62
250
  6
CONTINUOUS
 10
65.3869056521
 20
24.4869014213
 11
63.5130943479
 21
24.4869014213
  0
LINE
  5
48A
100
AcDbEntity
  8
RACCORDO
100
AcDbLine
 62
250
  6
CONTINUOUS
 10
46.4869056521
 20
24.4869014213
 11
44.6130943479
 21
24.4869014213
  0
LINE
  5
48B
100
AcDbEntity
  8
RACCORDO
100
AcDbLine
 62
7
  6
CONTINUOUS
 10
44.5999957692
 20
24.5
 11
46.5000042308
 21
24.5
  0
LINE
  5
48C
100
AcDbEntity
  8
RACCORDO
100
AcDbLine
 62
7
  6
CONTINUOUS
 10
63.4999957692
 20
24.5
 11
65.4000042308
 21
24.5
  0
LWPOLYLINE
  5
48D
100
AcDbEntity
  8
0
100
AcDbPolyline
 62
7
  6
CONTINUOUS
 90
7
 70
0
 43
0.3500000006
 10
54.5714296875
 20
35.8718043365
 10
53.0714292297
 20
35.8718043365
 10
54.5714296875
 20
38.0146627808
 10
54.5714296875
 20
38.4432317505
 10
54.1428561859
 20
38.8718052521
 10
53.4999981995
 20
38.8718052521
 10
53.0714292297
 20
38.2289472656
  0
LWPOLYLINE
  5
48E
100
AcDbEntity
  8
0
100
AcDbPolyline
 62
7
  6
CONTINUOUS
 90
7
 70
0
 43
0.3500000006
 10
52.2142867584
 20
35.8718043365
 10
50.7142863007
 20
35.8718043365
 10
52.2142867584
 20
38.0146627808
 10
52.2142867584
 20
38.4432317505
 10
51.7857132568
 20
38.8718052521
 10
51.1428552704
 20
38.8718052521
 10
50.7142863007
 20
38.2289472656
  0
LWPOLYLINE
  5
48F
100
AcDbEntity
  8
0
100
AcDbPolyline
 62
7
  6
CONTINUOUS
 90
6
 70
0
 43
0.3500000006
 10
57.1428571014
 20
35.8718043365
 10
58.2142840576
 20
35.8718043365
 10
58.4285730743
 20
36.0860888214
 10
58.4285730743
 20
37.1575203094
 10
57.9999995728
 20
37.5860892792
 10
57.571430603
 20
37.5860892792
  0
LWPOLYLINE
  5
490
100
AcDbEntity
  8
RACCORDO
100
AcDbPolyline
 62
7
  6
CONTINUOUS
 90
11
 70
0
 10
65.8836664589
 20
22.352503122
 10
65.8695971712
 20
22.3592350762
 10
65.8499161851
 20
22.3676761448
 10
65.8298547902
 20
22.375171735
 10
65.8094578571
 20
22.3817047778
 10
65.7887801245
 20
22.3872580713
 10
65.7678599152
 20
22.3918216515
 10
65.7467176429
 20
22.3953887516
 10
65.7253915966
 20
22.3979479935
 10
65.7039387579
 20
22.3994876502
 10
65.6824078424
 20
22.4
  0
LINE
  5
491
100
AcDbEntity
  8
RACCORDO
100
AcDbLine
 62
250
  6
CONTINUOUS
 10
66.15
 20
21.9411874598
 11
66.1325779097
 21
21.9498978415
  0
LINE
  5
492
100
AcDbEntity
  8
RACCORDO
100
AcDbLine
 62
7
  6
CONTINUOUS
 10
65.9011653088
 20
22.3437543634
 11
65.8836664601
 21
22.3525031214
  0
LWPOLYLINE
  5
493
100
AcDbEntity
  8
0
100
AcDbPolyline
 62
7
  6
CONTINUOUS
 90
10
 70
0
 43
0.3500000006
 10
-0.9642857051
 20
44.8491387177
 10
-1.6071428418
 20
44.2062807312
 10
-2.0357142191
 20
43.3491382599
 10
-2.0357142191
 20
42.2777113037
 10
-1.6071428418
 20
41.8491378021
 10
-0.9642857051
 20
41.8491378021
 10
-0.5357142924
 20
42.2777113037
 10
-0.5357142924
 20
43.134853775
 10
-0.9642857051
 20
43.5634272766
 10
-1.8928570933
 20
43.5634272766
  0
LWPOLYLINE
  5
494
100
AcDbEntity
  8
0
100
AcDbPolyline
 62
7
  6
CONTINUOUS
 90
5
 70
0
 43
0.3500000006
 10
-3.3214284925
 20
43.5634272766
 10
-2.9642856073
 20
43.7777117615
 10
-2.9642856073
 20
44.4205697479
 10
-3.3214284925
 20
44.8491387177
 10
-4.1785715303
 20
44.8491387177
  0
LWPOLYLINE
  5
495
100
AcDbEntity
  8
RACCORDO
100
AcDbPolyline
 62
7
  6
CONTINUOUS
 90
5
 70
0
 10
-10.2446776206
 20
23.1259025536
 10
-10.2469937451
 20
23.1245164325
 10
-10.2486566293
 20
23.1234933505
 10
-10.2496626628
 20
23.1228641607
 10
-10.25
 20
23.1226497308
  0
LINE
  5
496
100
AcDbEntity
  8
RACCORDO
100
AcDbLine
 62
7
  6
CONTINUOUS
 10
-10.2340699362
 20
23.1321470947
 11
-10.2446776206
 21
23.1259025536
  0
LINE
  5
497
100
AcDbEntity
  8
RACCORDO
100
AcDbLine
 62
250
  6
CONTINUOUS
 10
-8.75
 20
23.4104851482
 11
-7.9985455672
 21
23.8443375673
  0
LINE
  5
498
100
AcDbEntity
  8
RACCORDO
100
AcDbLine
 62
7
  6
CONTINUOUS
 10
-8.75
 20
23.1226497308
 11
-7.875
 21
23.6278312164
  0
LINE
  5
499
100
AcDbEntity
  8
RACCORDO
100
AcDbLine
 62
7
  6
CONTINUOUS
 10
-10.0122994691
 20
23.260745719
 11
-10.2340699362
 21
23.1321470947
  0
LINE
  5
49A
100
AcDbEntity
  8
RACCORDO
100
AcDbLine
 62
7
  6
CONTINUOUS
 10
-10.0014544328
 20
23.2669872981
 11
-10.0122994691
 21
23.260745719
  0
LINE
  5
49B
100
AcDbEntity
  8
RACCORDO
100
AcDbLine
 62
7
  6
CONTINUOUS
 10
-7.9985455672
 20
-24.495628166
 11
-8.75
 21
-24.5
  0
LINE
  5
49C
100
AcDbEntity
  8
RACCORDO
100
AcDbLine
 62
250
  6
CONTINUOUS
 10
-7.9985455672
 20
-24.2456323968
 11
-8.75
 21
-24.2500042308
  0
LINE
  5
49D
100
AcDbEntity
  8
RACCORDO
100
AcDbLine
 62
250
  6
CONTINUOUS
 10
-7.75
 20
-24.2456323968
 11
-7.9985455672
 21
-24.2456323968
  0
LINE
  5
49E
100
AcDbEntity
  8
RACCORDO
100
AcDbLine
 62
250
  6
CONTINUOUS
 10
-11.25
 20
-24.2369056521
 11
-11.0014544328
 21
-24.2369056521
  0
LINE
  5
49F
100
AcDbEntity
  8
RACCORDO
100
AcDbLine
 62
7
  6
CONTINUOUS
 10
-8.75
 20
-24.5
 11
-11.0014544328
 21
-24.4869014213
  0
LINE
  5
4A0
100
AcDbEntity
  8
RACCORDO
100
AcDbLine
 62
250
  6
CONTINUOUS
 10
-8.75
 20
-24.2500042308
 11
-11.0014544328
 21
-24.2369056521
  0
LINE
  5
4A1
100
AcDbEntity
  8
RACCORDO
100
AcDbLine
 62
250
  6
CONTINUOUS
 10
-7.9985455672
 20
-23.8443375673
 11
-8.75
 21
-23.4104851482
  0
LINE
  5
4A2
100
AcDbEntity
  8
RACCORDO
100
AcDbLine
 62
7
  6
CONTINUOUS
 10
-7.875
 20
-23.6278312164
 11
-8.75
 21
-23.1226497308
  0
LINE
  5
4A3
100
AcDbEntity
  8
RACCORDO
100
AcDbLine
 62
7
  6
CONTINUOUS
 10
-10.0014544328
 20
-23.2669872981
 11
-10.2121469463
 21
-23.1449546011
  0
LINE
  5
4A4
100
AcDbEntity
  8
RACCORDO
100
AcDbLine
 62
7
  6
CONTINUOUS
 10
-10.2121469463
 20
-23.1449546011
 11
-10.2417060021
 21
-23.1276610792
  0
LWPOLYLINE
  5
4A5
100
AcDbEntity
  8
RACCORDO
100
AcDbPolyline
 62
7
  6
CONTINUOUS
 90
4
 70
0
 10
-10.2417060021
 20
-23.1276610792
 10
-10.2486491251
 20
-23.123528707
 10
-10.2496604956
 20
-23.1229033082
 10
-10.25
 20
-23.1226497308
  0
LINE
  5
4A6
100
AcDbEntity
  8
RACCORDO
100
AcDbLine
 62
7
  6
CONTINUOUS
 10
1.2587265355
 20
-22.3126551668
 11
-8.75
 21
-22.4
  0
LINE
  5
4A7
100
AcDbEntity
  8
ASSI
100
AcDbLine
 62
7
  6
CONTINUOUS
 10
-7.7550910917
 20
-23.7942117893
 11
-1.2470911343
 21
-23.7563493531
  0
LINE
  5
4A8
100
AcDbEntity
  8
RACCORDO
100
AcDbLine
 62
250
  6
CONTINUOUS
 10
-11.25
 20
-23.8443375673
 11
-11.0014544328
 21
-23.8443375673
  0
LINE
  5
4A9
100
AcDbEntity
  8
RACCORDO
100
AcDbLine
 62
250
  6
CONTINUOUS
 10
-7.75
 20
-23.8443375673
 11
-7.9985455672
 21
-23.8443375673
  0
LINE
  5
4AA
100
AcDbEntity
  8
RACCORDO
100
AcDbLine
 62
7
  6
CONTINUOUS
 10
-16.4067788889
 20
-21.998725222
 11
-8.75
 21
-22.4
  0
LINE
  5
4AB
100
AcDbEntity
  8
RACCORDO
100
AcDbLine
 62
250
  6
CONTINUOUS
 10
-10.5329133571
 20
-21.856502752
 11
-8.7481028202
 21
-21.9498977711
  0
LWPOLYLINE
  5
4AC
100
AcDbEntity
  8
RACCORDO
100
AcDbPolyline
 62
250
  6
CONTINUOUS
 90
4
 70
0
 10
-16.0560796968
 20
-21.5175213906
 10
-15.7249288094
 20
-21.5361645244
 10
-15.395884452
 20
-21.5553398559
 10
-15.071852277
 20
-21.5749817897
  0
LINE
  5
4AD
100
AcDbEntity
  8
RACCORDO
100
AcDbLine
 62
250
  6
CONTINUOUS
 10
-15.071852277
 20
-21.5749817897
 11
-14.4213905591
 21
-21.6160590371
  0
LWPOLYLINE
  5
4AE
100
AcDbEntity
  8
RACCORDO
100
AcDbPolyline
 62
250
  6
CONTINUOUS
 90
7
 70
0
 10
-12.6783720516
 20
-21.7295003181
 10
-12.3341219708
 20
-21.7514954283
 10
-12.0057304049
 20
-21.7719710867
 10
-11.6886759799
 20
-21.7913125504
 10
-11.3828753929
 20
-21.809444028
 10
-11.0921873308
 20
-21.8260296166
 10
-10.5329133571
 20
-21.856502752
  0
LWPOLYLINE
  5
4AF
100
AcDbEntity
  8
RACCORDO
100
AcDbPolyline
 62
250
  6
CONTINUOUS
 90
3
 70
0
 10
-14.4213905591
 20
-21.6160590371
 10
-13.7356979922
 20
-21.6606044899
 10
-12.6783720516
 20
-21.7295003181
  0
LWPOLYLINE
  5
4B0
100
AcDbEntity
  8
RACCORDO
100
AcDbPolyline
 62
250
  6
CONTINUOUS
 90
5
 70
0
 10
-11.122504903
 20
23.6326756587
 10
-11.1236370553
 20
23.6305852658
 10
-11.1244315807
 20
23.6290785857
 10
-11.1248863096
 20
23.6281597328
 10
-11.125
 20
23.6278312164
  0
LINE
  5
4B1
100
AcDbEntity
  8
RACCORDO
100
AcDbLine
 62
250
  6
CONTINUOUS
 10
-11.1192409978
 20
23.6385831707
 11
-11.122504903
 21
23.6326756587
  0
LINE
  5
4B2
100
AcDbEntity
  8
RACCORDO
100
AcDbLine
 62
250
  6
CONTINUOUS
 10
-11.1119196733
 20
23.6516287232
 11
-11.1192409978
 21
23.6385831707
  0
LINE
  5
4B3
100
AcDbEntity
  8
RACCORDO
100
AcDbLine
 62
250
  6
CONTINUOUS
 10
-11.0892870193
 20
23.6914666374
 11
-11.1119196733
 21
23.6516287232
  0
LINE
  5
4B4
100
AcDbEntity
  8
RACCORDO
100
AcDbLine
 62
250
  6
CONTINUOUS
 10
-11.0144880584
 20
23.8217481519
 11
-11.0892870193
 21
23.6914666374
  0
LINE
  5
4B5
100
AcDbEntity
  8
RACCORDO
100
AcDbLine
 62
250
  6
CONTINUOUS
 10
-11.0014544328
 20
23.8443375673
 11
-11.0144880584
 21
23.8217481519
  0
LWPOLYLINE
  5
4B6
100
AcDbEntity
  8
0
100
AcDbPolyline
 62
7
  6
CONTINUOUS
 90
10
 70
0
 43
0.3500000006
 10
6.3214285583
 20
35.5602797241
 10
5.6785717049
 20
34.9174217377
 10
5.2499999027
 20
34.0602792664
 10
5.2499999027
 20
32.9888523102
 10
5.6785717049
 20
32.5602788086
 10
6.3214285583
 20
32.5602788086
 10
6.749999794
 20
32.9888523102
 10
6.749999794
 20
33.8459947815
 10
6.3214285583
 20
34.2745637512
 10
5.3928571701
 20
34.2745637512
  0
LINE
  5
4B7
100
AcDbEntity
  8
RACCORDO
100
AcDbLine
 62
250
  6
CONTINUOUS
 10
-8.7481028202
 20
-21.9498977711
 11
-7.75
 21
-21.9411874598
  0
LINE
  5
4B8
100
AcDbEntity
  8
ASSI
100
AcDbLine
 62
7
  6
CONTINUOUS
 10
-7.75
 20
-20.85
 11
2.25
 21
-20.85
  0
LINE
  5
4B9
100
AcDbEntity
  8
DRAFT
100
AcDbLine
 62
7
  6
CONTINUOUS
 10
-7.75
 20
-20.85
 11
2.25
 21
-20.85
  0
LINE
  5
4BA
100
AcDbEntity
  8
RACCORDO
100
AcDbLine
 62
7
  6
CONTINUOUS
 10
2.25
 20
-20.9959955457
 11
-7.5502132398
 21
-20.9104703804
  0
LINE
  5
4BB
100
AcDbEntity
  8
RACCORDO
100
AcDbLine
 62
7
  6
CONTINUOUS
 10
1.7587262032
 20
-21.5659754333
 11
-7.75
 21
-21.4
  0
LINE
  5
4BC
100
AcDbEntity
  8
DRAFT
100
AcDbLine
 62
7
  6
CONTINUOUS
 10
-7.5502132398
 20
-20.9104703804
 11
-7.75
 21
-20.9
  0
LINE
  5
4BD
100
AcDbEntity
  8
RACCORDO
100
AcDbLine
 62
250
  6
CONTINUOUS
 10
-11.0014544328
 20
-23.8443375673
 11
-11.0845866756
 21
-23.6996987826
  0
LINE
  5
4BE
100
AcDbEntity
  8
RACCORDO
100
AcDbLine
 62
250
  6
CONTINUOUS
 10
-11.0845866756
 20
-23.6996987826
 11
-11.1088549035
 21
-23.6570529269
  0
LINE
  5
4BF
100
AcDbEntity
  8
RACCORDO
100
AcDbLine
 62
250
  6
CONTINUOUS
 10
-11.1088549035
 20
-23.6570529269
 11
-11.1171165695
 21
-23.6423869945
  0
LWPOLYLINE
  5
4C0
100
AcDbEntity
  8
RACCORDO
100
AcDbPolyline
 62
250
  6
CONTINUOUS
 90
7
 70
0
 10
-11.1171165695
 20
-23.6423869945
 10
-11.1210374227
 20
-23.6353454907
 10
-11.1225043975
 20
-23.6326765842
 10
-11.1236367736
 20
-23.6305857918
 10
-11.1244314591
 20
-23.6290788219
 10
-11.1248862819
 20
-23.6281597935
 10
-11.125
 20
-23.6278312164
  0
LWPOLYLINE
  5
4C1
100
AcDbEntity
  8
RACCORDO
100
AcDbPolyline
 62
250
  6
CONTINUOUS
 90
139
 70
0
 10
-17.3361551697
 20
-20.5419058565
 10
-17.3356579397
 20
-20.552595494
 10
-17.3350463368
 20
-20.5632784542
 10
-17.3343203609
 20
-20.5739547372
 10
-17.3334798996
 20
-20.5846259838
 10
-17.3325250654
 20
-20.5952905531
 10
-17.331456195
 20
-20.6059435227
 10
-17.3302732244
 20
-20.6165847199
 10
-17.3289762176
 20
-20.6272143172
 10
-17.3275657036
 20
-20.6378279106
 10
-17.3260416365
 20
-20.6484253653
 10
-17.3244040621
 20
-20.6590068159
 10
-17.3226536469
 20
-20.6695682629
 10
-17.3207903811
 20
-20.6801095088
 10
-17.3188142745
 20
-20.690630751
 10
-17.316726023
 20
-20.7011285813
 10
-17.3145256315
 20
-20.7116028648
 10
-17.3122130951
 20
-20.7220537364
 10
-17.3097890951
 20
-20.7324781928
 10
-17.3072535805
 20
-20.7428763535
 10
-17.3046066025
 20
-20.753248099
 10
-17.3018489953
 20
-20.7635900672
 10
-17.298980686
 20
-20.7739023788
 10
-17.2960017477
 20
-20.7841849132
 10
-17.2929132343
 20
-20.7944339462
 10
-17.2897150921
 20
-20.8046494859
 10
-17.2864073748
 20
-20.8148315243
 10
-17.2829912977
 20
-20.8249763137
 10
-17.2794668579
 20
-20.8350837294
 10
-17.2758340583
 20
-20.8451538961
 10
-17.2720941222
 20
-20.8551834402
 10
-17.2682470114
 20
-20.8651723599
 10
-17.2642927641
 20
-20.8751206571
 10
-17.2602327179
 20
-20.8850249636
 10
-17.256066827
 20
-20.8948852885
 10
-17.2517951372
 20
-20.9047016227
 10
-17.2474191229
 20
-20.9144705714
 10
-17.2429387294
 20
-20.9241921512
 10
-17.2383540113
 20
-20.9338663454
 10
-17.2336666067
 20
-20.9434897089
 10
-17.228876505
 20
-20.9530621697
 10
-17.2239837168
 20
-20.9625837999
 10
-17.2189899116
 20
-20.9720513704
 10
-17.2138950775
 20
-20.9814648296
 10
-17.2086992264
 20
-20.9908242291
 10
-17.2034040642
 20
-21.0001264949
 10
-17.1980095688
 20
-21.0093716015
 10
-17.1925157623
 20
-21.0185595743
 10
-17.1869244158
 20
-21.0276874156
 10
-17.1812354597
 20
-21.0367551699
 10
-17.1754489638
 20
-21.0457627927
 10
-17.1695669082
 20
-21.0547071523
 10
-17.1635892089
 20
-21.0635882926
 10
-17.15751595
 20
-21.0724061697
 10
-17.1513493642
 20
-21.0811575205
 10
-17.1450894012
 20
-21.0898423261
 10
-17.1387361114
 20
-21.0984606054
 10
-17.1322918779
 20
-21.1070091528
 10
-17.1257567212
 20
-21.1154878643
 10
-17.1191306209
 20
-21.1238968439
 10
-17.1124158989
 20
-21.1322331976
 10
-17.1056126605
 20
-21.1404967523
 10
-17.0987208005
 20
-21.1486876812
 10
-17.0917423257
 20
-21.1568036094
 10
-17.0846771192
 20
-21.1648446343
 10
-17.0775252979
 20
-21.1728106586
 10
-17.0702892202
 20
-21.1806990158
 10
-17.0629687485
 20
-21.1885097895
 10
-17.0555640204
 20
-21.196242896
 10
-17.0480778076
 20
-21.2038954181
 10
-17.0405100723
 20
-21.2114673172
 10
-17.0328608522
 20
-21.2189586319
 10
-17.0251330326
 20
-21.2263665607
 10
-17.0173267241
 20
-21.2336909414
 10
-17.0094418159
 20
-21.2409319362
 10
-17.0014808609
 20
-21.2480872314
 10
-16.9934438652
 20
-21.255156785
 10
-16.9853308226
 20
-21.2621406389
 10
-16.9771442676
 20
-21.2690366051
 10
-16.9688840996
 20
-21.2758447259
 10
-16.9605504191
 20
-21.2825649589
 10
-16.9521460624
 20
-21.2891949894
 10
-16.9436709491
 20
-21.2957348254
 10
-16.9351251594
 20
-21.3021844588
 10
-16.9265117708
 20
-21.30854155
 10
-16.9178307682
 20
-21.3148060525
 10
-16.9090821666
 20
-21.3209780128
 10
-16.9002690878
 20
-21.327055231
 10
-16.8913915385
 20
-21.3330376503
 10
-16.882449512
 20
-21.3389253275
 10
-16.8734461095
 20
-21.3447162323
 10
-16.8643813304
 20
-21.3504103191
 10
-16.8552551753
 20
-21.3560076335
 10
-16.8460707473
 20
-21.3615062829
 10
-16.8368280297
 20
-21.3669062339
 10
-16.8275270393
 20
-21.3722075198
 10
-16.8181709291
 20
-21.3774083484
 10
-16.8087596788
 20
-21.3825086883
 10
-16.7992933087
 20
-21.3875085708
 10
-16.7897750329
 20
-21.392406298
 10
-16.780204826
 20
-21.39720184
 10
-16.7705827133
 20
-21.4018952265
 10
-16.760911985
 20
-21.406484849
 10
-16.7511926274
 20
-21.4109706713
 10
-16.7414246541
 20
-21.4153527296
 10
-16.7316113961
 20
-21.4196295234
 10
-16.7217528388
 20
-21.4238010173
 10
-16.7118489967
 20
-21.4278672468
 10
-16.7019032447
 20
-21.4318268172
 10
-16.6919155407
 20
-21.4356797021
 10
-16.6818859269
 20
-21.439425928
 10
-16.671817905
 20
-21.4430641796
 10
-16.6617114406
 20
-21.4465944233
 10
-16.6515665682
 20
-21.4500166928
 10
-16.6413868919
 20
-21.4533297745
 10
-16.6311723965
 20
-21.4565336262
 10
-16.6209230972
 20
-21.45962829
 10
-16.610642645
 20
-21.4626126785
 10
-16.6003310923
 20
-21.4654867343
 10
-16.5899883866
 20
-21.4682505146
 10
-16.5796180209
 20
-21.4709031041
 10
-16.5692200417
 20
-21.4734444575
 10
-16.5587944024
 20
-21.47587462
 10
-16.5483444569
 20
-21.4781928117
 10
-16.5378702075
 20
-21.4803990017
 10
-16.5273716518
 20
-21.4824932208
 10
-16.5168521358
 20
-21.4844747821
 10
-16.5063115765
 20
-21.4863436709
 10
-16.495750057
 20
-21.4880999017
 10
-16.4851711728
 20
-21.4897428315
 10
-16.4745747902
 20
-21.4912724191
 10
-16.463961043
 20
-21.4926887055
 10
-16.4533339279
 20
-21.4939911705
 10
-16.4426933474
 20
-21.4951797967
 10
-16.432039399
 20
-21.4962546014
 10
-16.4213763725
 20
-21.4972151164
 10
-16.4107056978
 20
-21.4980611856
 10
-16.4000259449
 20
-21.498792965
 10
-16.0560796968
 20
-21.5175213906
  0
LINE
  5
4C2
100
AcDbEntity
  8
RACCORDO
100
AcDbLine
 62
7
  6
CONTINUOUS
 10
-18.1627842903
 20
9.3385278907
 11
-18.1631007493
 21
9.3215717141
  0
LINE
  5
4C3
100
AcDbEntity
  8
RACCORDO
100
AcDbLine
 62
7
  6
CONTINUOUS
 10
-18.106164118
 20
11.9922972464
 11
-18.107199031
 21
11.9490826815
  0
LWPOLYLINE
  5
4C4
100
AcDbEntity
  8
RACCORDO
100
AcDbPolyline
 62
250
  6
CONTINUOUS
 90
67
 70
0
 10
-17.3361551697
 20
20.5419058565
 10
-17.3613741966
 20
19.9197581357
 10
-17.3858175931
 20
19.2975812055
 10
-17.4094853594
 20
18.6753750659
 10
-17.4323775324
 20
18.0531386795
 10
-17.4544940752
 20
17.4308730836
 10
-17.475834876
 20
16.8085813906
 10
-17.4963999287
 20
16.1862636613
 10
-17.5161892395
 20
15.5639198349
 10
-17.5352027157
 20
14.9415528416
 10
-17.5534403528
 20
14.3191627057
 10
-17.5709021554
 20
13.6967494028
 10
-17.5875880434
 20
13.0743157901
 10
-17.6034980137
 20
12.4518618596
 10
-17.6186320695
 20
11.8293876193
 10
-17.6329901408
 20
11.2068959505
 10
-17.6465722241
 20
10.5843868359
 10
-17.659378323
 20
9.9618602928
 10
-17.6714083769
 20
9.3393192542
 10
-17.6826623819
 20
8.7167637361
 10
-17.6931403421
 20
8.0941937225
 10
-17.7028422088
 20
7.4716120989
 10
-17.7117679788
 20
6.8490188591
 10
-17.7199176553
 20
6.2264140093
 10
-17.7272912005
 20
5.603800454
 10
-17.7338886107
 20
4.9811781937
 10
-17.7397098895
 20
4.3585472277
 10
-17.7447550099
 20
3.7359104584
 10
-17.7490239681
 20
3.1132678874
 10
-17.7525167679
 20
2.4906195131
 10
-17.7552333929
 20
1.8679682326
 10
-17.7571738396
 20
1.2453140441
 10
-17.7583381115
 20
0.6226569494
 10
-17.7587262032
 20
-0.0000001487
 10
-17.7583381111
 20
-0.6226572542
 10
-17.7571738387
 20
-1.2453143631
 10
-17.7552333917
 20
-1.8679685611
 10
-17.7525167663
 20
-2.4906198405
 10
-17.7490239661
 20
-3.113268209
 10
-17.7447550075
 20
-3.7359107751
 10
-17.7397098868
 20
-4.358547543
 10
-17.7338886076
 20
-4.9811785086
 10
-17.727291197
 20
-5.6038007685
 10
-17.7199176514
 20
-6.226414322
 10
-17.7117679745
 20
-6.8490191698
 10
-17.7028422042
 20
-7.4716124109
 10
-17.6931403368
 20
-8.0941940464
 10
-17.6826623759
 20
-8.7167640752
 10
-17.6714083705
 20
-9.3393195937
 10
-17.6593783169
 20
-9.9618606007
 10
-17.6465722187
 20
-10.5843870975
 10
-17.6329901355
 20
-11.2068961845
 10
-17.6186320639
 20
-11.8293878568
 10
-17.6034980072
 20
-12.4518621194
 10
-17.5875880356
 20
-13.074316087
 10
-17.5709021433
 20
-13.6967498259
 10
-17.5534403359
 20
-14.3191632699
 10
-17.5352027009
 20
-14.9415533353
 10
-17.5161892126
 20
-15.5639205828
 10
-17.4963998967
 20
-16.1862644516
 10
-17.4758349169
 20
-16.8085801754
 10
-17.4544943744
 20
-17.4308649834
 10
-17.4323781681
 20
-18.0531216464
 10
-17.4094861584
 20
-18.6753537106
 10
-17.3858182988
 20
-19.297562358
 10
-17.3613746359
 20
-19.9197464067
 10
-17.3361551697
 20
-20.5419058565
  0
LINE
  5
4C5
100
AcDbEntity
  8
RACCORDO
100
AcDbLine
 62
250
  6
CONTINUOUS
 10
-17.8264532997
 20
-20.562428674
 11
-17.8270059646
 21
-20.5624683245
  0
LINE
  5
4C6
100
AcDbEntity
  8
RACCORDO
100
AcDbLine
 62
250
  6
CONTINUOUS
 10
-17.8220351591
 20
-20.5622131683
 11
-17.8264532997
 21
-20.562428674
  0
LINE
  5
4C7
100
AcDbEntity
  8
RACCORDO
100
AcDbLine
 62
250
  6
CONTINUOUS
 10
-17.3361551696
 20
-20.5419058565
 11
-17.8220351591
 21
-20.5622131683
  0
LINE
  5
4C8
100
AcDbEntity
  8
ASSI
100
AcDbLine
 62
7
  6
CONTINUOUS
 10
15.2674524064
 20
-19.3837586919
 11
2.25
 21
-19.6109791689
  0
LINE
  5
4C9
100
AcDbEntity
  8
RACCORDO
100
AcDbLine
 62
7
  6
CONTINUOUS
 10
15.2674524064
 20
-19.3837586919
 11
2.25
 21
-19.6109791689
  0
LINE
  5
4CA
100
AcDbEntity
  8
ASSI
100
AcDbLine
 62
250
  6
CONTINUOUS
 10
15.2674524064
 20
-19.0909100822
 11
2.25
 21
-19.3181305591
  0
LINE
  5
4CB
100
AcDbEntity
  8
RACCORDO
100
AcDbLine
 62
250
  6
CONTINUOUS
 10
15.2674524064
 20
-19.0909100822
 11
2.25
 21
-19.3181305591
  0
LINE
  5
4CC
100
AcDbEntity
  8
ASSI
100
AcDbLine
 62
250
  6
CONTINUOUS
 10
-7.75
 20
-19.0856972195
 11
15.2674524064
 21
-18.9192781701
  0
LINE
  5
4CD
100
AcDbEntity
  8
RACCORDO
100
AcDbLine
 62
250
  6
CONTINUOUS
 10
-7.75
 20
-19.0856972195
 11
15.2674524064
 21
-18.9192781701
  0
LWPOLYLINE
  5
4CE
100
AcDbEntity
  8
RACCORDO
100
AcDbPolyline
 62
250
  6
CONTINUOUS
 90
11
 70
0
 10
-16.4080842279
 20
-21.9430575232
 10
-16.4082407596
 20
-21.9534503328
 10
-16.4083333011
 20
-21.9628159224
 10
-16.4083616504
 20
-21.9711331
 10
-16.4083258247
 20
-21.9783830435
 10
-16.4082258976
 20
-21.9845493473
 10
-16.408062101
 20
-21.9896180565
 10
-16.4078349065
 20
-21.9935776958
 10
-16.407544862
 20
-21.9964193007
 10
-16.4071925901
 20
-21.9981364391
 10
-16.4067788889
 20
-21.9987252218
  0
LINE
  5
4CF
100
AcDbEntity
  8
ASSI
100
AcDbLine
 62
250
  6
CONTINUOUS
 10
-7.75
 20
-17.6716990487
 11
15.2674524064
 21
-17.5052799993
  0
LINE
  5
4D0
100
AcDbEntity
  8
RACCORDO
100
AcDbLine
 62
250
  6
CONTINUOUS
 10
-7.75
 20
-17.6716990487
 11
15.2674524064
 21
-17.5052799993
  0
LINE
  5
4D1
100
AcDbEntity
  8
ASSI
100
AcDbLine
 62
250
  6
CONTINUOUS
 10
16.25
 20
-17.5052799993
 11
15.2674524064
 21
-17.5052799975
  0
LINE
  5
4D2
100
AcDbEntity
  8
RACCORDO
100
AcDbLine
 62
250
  6
CONTINUOUS
 10
16.25
 20
-17.5052799993
 11
15.2674524064
 21
-17.5052799975
  0
LINE
  5
4D3
100
AcDbEntity
  8
RACCORDO
100
AcDbLine
 62
250
  6
CONTINUOUS
 10
-16.3893371139
 20
21.4994104546
 11
-16.3963487504
 21
21.6400042235
  0
LINE
  5
4D4
100
AcDbEntity
  8
RACCORDO
100
AcDbLine
 62
250
  6
CONTINUOUS
 10
-16.3963487504
 20
21.6400042235
 11
-16.4012424535
 21
21.7489362123
  0
LINE
  5
4D5
100
AcDbEntity
  8
RACCORDO
100
AcDbLine
 62
250
  6
CONTINUOUS
 10
-16.4012424535
 20
21.7489362123
 11
-16.4043317938
 21
21.8262354017
  0
LINE
  5
4D6
100
AcDbEntity
  8
RACCORDO
100
AcDbLine
 62
250
  6
CONTINUOUS
 10
-16.4043317938
 20
21.8262354017
 11
-16.4060912562
 21
21.8766044483
  0
LINE
  5
4D7
100
AcDbEntity
  8
RACCORDO
100
AcDbLine
 62
250
  6
CONTINUOUS
 10
-16.4060912562
 20
21.8766044483
 11
-16.4069778981
 21
21.9059799148
  0
LWPOLYLINE
  5
4D8
100
AcDbEntity
  8
RACCORDO
100
AcDbPolyline
 62
250
  6
CONTINUOUS
 90
13
 70
0
 10
-16.4069778981
 20
21.9059799148
 10
-16.4076258763
 20
21.9316777136
 10
-16.4078584551
 20
21.9430734866
 10
-16.4080293888
 20
21.9534653886
 10
-16.4081382853
 20
21.9628299063
 10
-16.408184904
 20
21.9711458504
 10
-16.4081691993
 20
21.9783944015
 10
-16.4080912019
 20
21.9845591587
 10
-16.4079510951
 20
21.9896261727
 10
-16.4077492756
 20
21.9935839745
 10
-16.4074862276
 20
21.9964236073
 10
-16.4071625209
 20
21.9981386474
 10
-16.4067788885
 20
21.9987252141
  0
LINE
  5
4D9
100
AcDbEntity
  8
RACCORDO
100
AcDbLine
 62
250
  6
CONTINUOUS
 10
-16.4075807274
 20
-21.9192865753
 11
-16.4080842279
 21
-21.9430575232
  0
LINE
  5
4DA
100
AcDbEntity
  8
RACCORDO
100
AcDbLine
 62
250
  6
CONTINUOUS
 10
-16.40682718
 20
-21.8917180934
 11
-16.4075807274
 21
-21.9192865753
  0
LINE
  5
4DB
100
AcDbEntity
  8
RACCORDO
100
AcDbLine
 62
250
  6
CONTINUOUS
 10
-16.405243396
 20
-21.8437992899
 11
-16.40682718
 21
-21.8917180934
  0
LINE
  5
4DC
100
AcDbEntity
  8
RACCORDO
100
AcDbLine
 62
250
  6
CONTINUOUS
 10
-16.4023380841
 20
-21.7692053982
 11
-16.405243396
 21
-21.8437992899
  0
LINE
  5
4DD
100
AcDbEntity
  8
RACCORDO
100
AcDbLine
 62
250
  6
CONTINUOUS
 10
-16.3986243153
 20
-21.6848730341
 11
-16.4023380841
 21
-21.7692053982
  0
LINE
  5
4DE
100
AcDbEntity
  8
RACCORDO
100
AcDbLine
 62
250
  6
CONTINUOUS
 10
-16.3930536945
 20
-21.570424835
 11
-16.3986243153
 21
-21.6848730341
  0
LINE
  5
4DF
100
AcDbEntity
  8
RACCORDO
100
AcDbLine
 62
250
  6
CONTINUOUS
 10
-16.3893371316
 20
-21.4994104546
 11
-16.3930536945
 21
-21.570424835
  0
LINE
  5
4E0
100
AcDbEntity
  8
0
100
AcDbLine
 62
7
  6
CONTINUOUS
 10
-5.1491176989
 20
14.9287984735
 11
-5.0523249329
 21
15.0255912395
  0
LINE
  5
4E1
100
AcDbEntity
  8
0
100
AcDbLine
 62
7
  6
CONTINUOUS
 10
-5.1491176989
 20
14.7187877595
 11
-4.7303636368
 21
15.1375418216
  0
LINE
  5
4E2
100
AcDbEntity
  8
0
100
AcDbLine
 62
250
  6
CONTINUOUS
 10
-0.4796789185
 20
15.892857337
 11
-0.2082917032
 21
16.028571558
  0
LINE
  5
4E3
100
AcDbEntity
  8
0
100
AcDbLine
 62
250
  6
CONTINUOUS
 10
-2.25
 20
16.0
 11
-5.1491176989
 21
14.991935
  0
LINE
  5
4E4
100
AcDbEntity
  8
0
100
AcDbLine
 62
250
  6
CONTINUOUS
 10
-2.8644517893
 20
15.164584
 11
-2.25
 21
15.373574
  0
LINE
  5
4E5
100
AcDbEntity
  8
0
100
AcDbLine
 62
250
  6
CONTINUOUS
 10
-4.5949625385
 20
14.606449
 11
-3.346237999
 21
15.007869
  0
LINE
  5
4E6
100
AcDbEntity
  8
ASSI
100
AcDbLine
 62
7
  6
CONTINUOUS
 10
16.5238532772
 20
-14.6260409428
 11
17.9761467228
 21
-14.4989817302
  0
LINE
  5
4E7
100
AcDbEntity
  8
DRAFT
100
AcDbLine
 62
7
  6
CONTINUOUS
 10
16.5238532772
 20
-14.6260409428
 11
17.9761467228
 21
-14.4989817302
  0
LINE
  5
4E8
100
AcDbEntity
  8
0
100
AcDbLine
 62
250
  6
CONTINUOUS
 10
4.420516
 20
-14.274826
 11
1.058295
 21
-14.568876
  0
LINE
  5
4E9
100
AcDbEntity
  8
0
100
AcDbLine
 62
250
  6
CONTINUOUS
 10
6.230988
 20
-15.592362
 11
7.25
 21
-15.592362
  0
LINE
  5
4EA
100
AcDbEntity
  8
0
100
AcDbLine
 62
250
  6
CONTINUOUS
 10
0.663677
 20
-14.281784
 11
1.058295
 21
-14.281784
  0
LINE
  5
4EB
100
AcDbEntity
  8
0
100
AcDbLine
 62
250
  6
CONTINUOUS
 10
4.420516
 20
-14.218117
 11
4.616964
 21
-14.218117
  0
LINE
  5
4EC
100
AcDbEntity
  8
0
100
AcDbLine
 62
250
  6
CONTINUOUS
 10
1.058295
 20
-14.18241
 11
0.663677
 21
-14.18241
  0
LINE
  5
4ED
100
AcDbEntity
  8
0
100
AcDbLine
 62
250
  6
CONTINUOUS
 10
4.616964
 20
-14.100497
 11
4.420516
 21
-14.100497
  0
LINE
  5
4EE
100
AcDbEntity
  8
0
100
AcDbLine
 62
250
  6
CONTINUOUS
 10
-5.1492546571
 20
-14.137714
 11
-3.152965885
 21
-14.778839
  0
LINE
  5
4EF
100
AcDbEntity
  8
0
100
AcDbLine
 62
250
  6
CONTINUOUS
 10
-2.2500069979
 20
-14.488824
 11
-5.1492546571
 21
-13.557685
  0
LWPOLYLINE
  5
4F0
100
AcDbEntity
  8
RACCORDO
100
AcDbPolyline
 62
250
  6
CONTINUOUS
 90
6
 70
0
 10
-11.0014544328
 20
-24.4869014213
 10
-11.0015285704
 20
-24.4865582323
 10
-11.0015985167
 20
-24.4855304893
 10
-11.0016640801
 20
-24.4838210061
 10
-11.0017250806
 20
-24.4814344634
 10
-11.0017813509
 20
-24.4783774023
  0
LWPOLYLINE
  5
4F1
100
AcDbEntity
  8
0
100
AcDbPolyline
 62
7
  6
CONTINUOUS
 90
3
 70
0
 43
0.3500000006
 10
1.035714268
 20
42.1348534698
 10
0.9642857051
 20
41.920568985
 10
0.8214285793
 20
41.6348533173
  0
LINE
  5
4F2
100
AcDbEntity
  8
0
100
AcDbLine
 62
7
  6
CONTINUOUS
 10
-5.1491176989
 20
14.5087770455
 11
-4.4084023406
 21
15.2494924037
  0
LINE
  5
4F3
100
AcDbEntity
  8
0
100
AcDbLine
 62
7
  6
CONTINUOUS
 10
-5.1491176989
 20
14.2987663315
 11
-4.0864410445
 21
15.3614429858
  0
LINE
  5
4F4
100
AcDbEntity
  8
0
100
AcDbLine
 62
7
  6
CONTINUOUS
 10
-5.0285806345
 20
14.2092926819
 11
-3.7644797484
 21
15.4733935679
  0
LINE
  5
4F5
100
AcDbEntity
  8
0
100
AcDbLine
 62
7
  6
CONTINUOUS
 10
-4.8743472559
 20
14.1535153464
 11
-4.4658643854
 21
14.5619982169
  0
LINE
  5
4F6
100
AcDbEntity
  8
0
100
AcDbLine
 62
7
  6
CONTINUOUS
 10
-4.3391928532
 20
14.6886697491
 11
-3.4425184523
 21
15.58534415
  0
LINE
  5
4F7
100
AcDbEntity
  8
0
100
AcDbLine
 62
7
  6
CONTINUOUS
 10
-4.7201138773
 20
14.097738011
 11
-4.3096433454
 21
14.5082085429
  0
LINE
  5
4F8
100
AcDbEntity
  8
0
100
AcDbLine
 62
7
  6
CONTINUOUS
 10
-4.0296872151
 20
14.7881646732
 11
-3.1205571562
 21
15.6972947321
  0
LINE
  5
4F9
100
AcDbEntity
  8
0
100
AcDbLine
 62
7
  6
CONTINUOUS
 10
-4.5658804988
 20
14.0419606755
 11
-4.1534223054
 21
14.4544188688
  0
LINE
  5
4FA
100
AcDbEntity
  8
0
100
AcDbLine
 62
7
  6
CONTINUOUS
 10
-3.7201815771
 20
14.8876595972
 11
-2.7985958601
 21
15.8092453142
  0
LINE
  5
4FB
100
AcDbEntity
  8
0
100
AcDbLine
 62
7
  6
CONTINUOUS
 10
-4.4116471202
 20
13.9861833401
 11
-3.9972012655
 21
14.4006291948
  0
LINE
  5
4FC
100
AcDbEntity
  8
0
100
AcDbLine
 62
7
  6
CONTINUOUS
 10
-3.410675939
 20
14.9871545213
 11
-2.476634564
 21
15.9211958963
  0
LINE
  5
4FD
100
AcDbEntity
  8
0
100
AcDbLine
 62
7
  6
CONTINUOUS
 10
-4.2574137416
 20
13.9304060047
 11
-3.8409802255
 21
14.3468395208
  0
LINE
  5
4FE
100
AcDbEntity
  8
0
100
AcDbLine
 62
7
  6
CONTINUOUS
 10
-3.346237999
 20
14.8415817473
 11
-2.25
 21
15.9378197463
  0
LINE
  5
4FF
100
AcDbEntity
  8
0
100
AcDbLine
 62
7
  6
CONTINUOUS
 10
-5.1491176989
 20
12.8286913334
 11
-5.0666110323
 21
12.911198
  0
LINE
  5
500
100
AcDbEntity
  8
0
100
AcDbLine
 62
7
  6
CONTINUOUS
 10
-4.103180363
 20
13.8746286692
 11
-3.6847591855
 21
14.2930498468
  0
LINE
  5
501
100
AcDbEntity
  8
0
100
AcDbLine
 62
7
  6
CONTINUOUS
 10
-3.346237999
 20
14.6315710333
 11
-2.8644517893
 21
15.113357243
  0
LINE
  5
502
100
AcDbEntity
  8
0
100
AcDbLine
 62
7
  6
CONTINUOUS
 10
-2.7868208674
 20
15.1909881649
 11
-2.25
 21
15.7278090323
  0
LINE
  5
503
100
AcDbEntity
  8
0
100
AcDbLine
 62
7
  6
CONTINUOUS
 10
-5.1491176989
 20
12.6186806194
 11
-4.8566003182
 21
12.911198
  0
LINE
  5
504
100
AcDbEntity
  8
0
100
AcDbLine
 62
7
  6
CONTINUOUS
 10
-3.9489469845
 20
13.8188513338
 11
-3.5285381455
 21
14.2392601728
  0
LINE
  5
505
100
AcDbEntity
  8
0
100
AcDbLine
 62
7
  6
CONTINUOUS
 10
-3.346237999
 20
14.4215603193
 11
-2.8644517893
 21
14.903346529
  0
LINE
  5
506
100
AcDbEntity
  8
0
100
AcDbLine
 62
7
  6
CONTINUOUS
 10
-2.4685628652
 20
15.299235453
 11
-2.25
 21
15.5177983182
  0
LINE
  5
507
100
AcDbEntity
  8
0
100
AcDbLine
 62
7
  6
CONTINUOUS
 10
-5.1491176989
 20
12.4086699054
 11
-4.6465896042
 21
12.911198
  0
LINE
  5
508
100
AcDbEntity
  8
0
100
AcDbLine
 62
7
  6
CONTINUOUS
 10
-3.7947136059
 20
13.7630739983
 11
-3.3723171055
 21
14.1854704988
  0
LINE
  5
509
100
AcDbEntity
  8
0
100
AcDbLine
 62
7
  6
CONTINUOUS
 10
-3.346237999
 20
14.2115496053
 11
-2.8644517893
 21
14.693335815
  0
LINE
  5
50A
100
AcDbEntity
  8
0
100
AcDbLine
 62
7
  6
CONTINUOUS
 10
-5.0190228902
 20
12.328754
 11
-4.4365788902
 21
12.911198
  0
LINE
  5
50B
100
AcDbEntity
  8
0
100
AcDbLine
 62
7
  6
CONTINUOUS
 10
-3.6404802273
 20
13.7072966629
 11
-2.8644517893
 21
14.483325101
  0
LINE
  5
50C
100
AcDbEntity
  8
0
100
AcDbLine
 62
7
  6
CONTINUOUS
 10
-4.8090121762
 20
12.328754
 11
-4.2265681762
 21
12.911198
  0
LINE
  5
50D
100
AcDbEntity
  8
0
100
AcDbLine
 62
7
  6
CONTINUOUS
 10
-3.4862468487
 20
13.6515193275
 11
-2.8644517893
 21
14.2733143869
  0
LINE
  5
50E
100
AcDbEntity
  8
0
100
AcDbLine
 62
7
  6
CONTINUOUS
 10
-4.5990014622
 20
12.328754
 11
-4.0165574622
 21
12.911198
  0
LINE
  5
50F
100
AcDbEntity
  8
0
100
AcDbLine
 62
7
  6
CONTINUOUS
 10
-3.3320134702
 20
13.595741992
 11
-2.8644517893
 21
14.0633036729
  0
LINE
  5
510
100
AcDbEntity
  8
0
100
AcDbLine
 62
250
  6
CONTINUOUS
 10
0.8772572432
 20
15.214285779
 11
0.6058699995
 21
15.078571558
  0
LINE
  5
511
100
AcDbEntity
  8
0
100
AcDbLine
 62
250
  6
CONTINUOUS
 10
-5.1491176989
 20
11.216139
 11
-2.8517036734
 21
12.328754
  0
LINE
  5
512
100
AcDbEntity
  8
0
100
AcDbLine
 62
250
  6
CONTINUOUS
 10
1.886085
 20
-13.71193
 11
2.101721
 21
-13.71193
  0
LINE
  5
513
100
AcDbEntity
  8
0
100
AcDbLine
 62
250
  6
CONTINUOUS
 10
0.570703
 20
-13.656927
 11
0.788197
 21
-13.656927
  0
LINE
  5
514
100
AcDbEntity
  8
0
100
AcDbLine
 62
250
  6
CONTINUOUS
 10
8.162794
 20
-13.19459
 11
8.93332
 21
-13.19459
  0
LINE
  5
515
100
AcDbEntity
  8
0
100
AcDbLine
 62
250
  6
CONTINUOUS
 10
12.466704
 20
-13.19459
 11
13.23723
 21
-13.19459
  0
LINE
  5
516
100
AcDbEntity
  8
0
100
AcDbLine
 62
250
  6
CONTINUOUS
 10
-5.1492546571
 20
-13.171006
 11
-2.25
 21
-13.171014
  0
LINE
  5
517
100
AcDbEntity
  8
0
100
AcDbLine
 62
250
  6
CONTINUOUS
 10
0.788755
 20
-13.083924
 11
0.571261
 21
-13.083924
  0
LINE
  5
518
100
AcDbEntity
  8
0
100
AcDbLine
 62
250
  6
CONTINUOUS
 10
2.101721
 20
-12.88859
 11
1.886085
 21
-12.88859
  0
LINE
  5
519
100
AcDbEntity
  8
0
100
AcDbLine
 62
250
  6
CONTINUOUS
 10
-2.2500069979
 20
-12.590992
 11
-5.1492546571
 21
-12.590985
  0
LINE
  5
51A
100
AcDbEntity
  8
0
100
AcDbLine
 62
250
  6
CONTINUOUS
 10
1.421205
 20
-12.432113
 11
1.793669
 21
-12.432113
  0
LINE
  5
51B
100
AcDbEntity
  8
0
100
AcDbLine
 62
250
  6
CONTINUOUS
 10
1.793669
 20
-12.082053
 11
1.421205
 21
-12.082053
  0
LINE
  5
51C
100
AcDbEntity
  8
0
100
AcDbLine
 62
250
  6
CONTINUOUS
 10
-5.1492546571
 20
-12.010985
 11
-2.2500069979
 21
-12.010985
  0
LINE
  5
51D
100
AcDbEntity
  8
0
100
AcDbLine
 62
250
  6
CONTINUOUS
 10
1.085847
 20
-12.350161
 11
3.982372
 21
-12.619407
  0
LINE
  5
51E
100
AcDbEntity
  8
RACCORDO
100
AcDbLine
 62
250
  6
CONTINUOUS
 10
-11.0017813509
 20
-24.4783774023
 11
-11.0018790969
 21
-24.4702870977
  0
LINE
  5
51F
100
AcDbEntity
  8
RACCORDO
100
AcDbLine
 62
250
  6
CONTINUOUS
 10
-11.0018790969
 20
-24.4702870977
 11
-11.0019868242
 21
-24.4533908148
  0
LINE
  5
520
100
AcDbEntity
  8
RACCORDO
100
AcDbLine
 62
250
  6
CONTINUOUS
 10
-11.0014544328
 20
24.2369056521
 11
-11.0020455767
 21
24.3942302379
  0
LINE
  5
521
100
AcDbEntity
  8
RACCORDO
100
AcDbLine
 62
7
  6
CONTINUOUS
 10
-11.25
 20
-24.2369056521
 11
-11.25
 21
-23.8443375673
  0
LINE
  5
522
100
AcDbEntity
  8
RACCORDO
100
AcDbLine
 62
7
  6
CONTINUOUS
 10
-11.25
 20
23.8443375673
 11
-11.25
 21
24.2369056521
  0
LINE
  5
523
100
AcDbEntity
  8
RACCORDO
100
AcDbLine
 62
250
  6
CONTINUOUS
 10
-11.0014544328
 20
-24.2369056521
 11
-11.0014544328
 21
-23.8443375673
  0
LINE
  5
524
100
AcDbEntity
  8
RACCORDO
100
AcDbLine
 62
250
  6
CONTINUOUS
 10
-11.0014544328
 20
23.8443375673
 11
-11.0014544328
 21
24.2369056521
  0
LINE
  5
525
100
AcDbEntity
  8
RACCORDO
100
AcDbLine
 62
7
  6
CONTINUOUS
 10
-10.25
 20
23.1226497308
 11
-10.25
 21
22.3213883311
  0
LINE
  5
526
100
AcDbEntity
  8
RACCORDO
100
AcDbLine
 62
7
  6
CONTINUOUS
 10
-10.25
 20
-22.3213883311
 11
-10.25
 21
-23.1226497308
  0
LINE
  5
527
100
AcDbEntity
  8
RACCORDO
100
AcDbLine
 62
250
  6
CONTINUOUS
 10
-10.0014544328
 20
23.2669872981
 11
-10.0014544328
 21
22.3344140523
  0
LINE
  5
528
100
AcDbEntity
  8
RACCORDO
100
AcDbLine
 62
250
  6
CONTINUOUS
 10
-10.0014544328
 20
-22.3344140523
 11
-10.0014544328
 21
-23.2669872981
  0
LINE
  5
529
100
AcDbEntity
  8
RACCORDO
100
AcDbLine
 62
250
  6
CONTINUOUS
 10
-11.0019868242
 20
-24.4533908148
 11
-11.0020540052
 21
-24.4041482289
  0
LINE
  5
52A
100
AcDbEntity
  8
RACCORDO
100
AcDbLine
 62
250
  6
CONTINUOUS
 10
-11.0020455767
 20
24.3942302379
 11
-11.0020118988
 21
24.4465668272
  0
LINE
  5
52B
100
AcDbEntity
  8
RACCORDO
100
AcDbLine
 62
250
  6
CONTINUOUS
 10
-11.0020540052
 20
-24.4041482289
 11
-11.0015982063
 21
-24.2629828864
  0
LINE
  5
52C
100
AcDbEntity
  8
RACCORDO
100
AcDbLine
 62
250
  6
CONTINUOUS
 10
-11.0015982063
 20
-24.2629828864
 11
-11.0014544328
 21
-24.2369056521
  0
LINE
  5
52D
100
AcDbEntity
  8
RACCORDO
100
AcDbLine
 62
250
  6
CONTINUOUS
 10
-11.0020118988
 20
24.4465668272
 11
-11.001920235
 21
24.4652856277
  0
LWPOLYLINE
  5
52E
100
AcDbEntity
  8
RACCORDO
100
AcDbPolyline
 62
250
  6
CONTINUOUS
 90
8
 70
0
 10
-11.001920235
 20
24.4652856277
 10
-11.0018326708
 20
24.4746636657
 10
-11.0017812906
 20
24.4783811971
 10
-11.0017250283
 20
24.4814368893
 10
-11.001664038
 20
24.4838223673
 10
-11.0015984869
 20
24.4855310928
 10
-11.0015285546
 20
24.4865583827
 10
-11.0014544328
 20
24.4869014213
  0
LINE
  5
52F
100
AcDbEntity
  8
0
100
AcDbLine
 62
7
  6
CONTINUOUS
 10
-4.3889907482
 20
12.328754
 11
-3.8065467482
 21
12.911198
  0
LINE
  5
530
100
AcDbEntity
  8
0
100
AcDbLine
 62
7
  6
CONTINUOUS
 10
-3.1777800916
 20
13.5399646566
 11
-2.7443171356
 21
13.9734276126
  0
LINE
  5
531
100
AcDbEntity
  8
0
100
AcDbLine
 62
7
  6
CONTINUOUS
 10
-4.1789800342
 20
12.328754
 11
-3.5965360342
 21
12.911198
  0
LINE
  5
532
100
AcDbEntity
  8
0
100
AcDbLine
 62
7
  6
CONTINUOUS
 10
-3.023546713
 20
13.4841873212
 11
-2.5891089388
 21
13.9186250954
  0
LINE
  5
533
100
AcDbEntity
  8
0
100
AcDbLine
 62
250
  6
CONTINUOUS
 10
-0.7510661339
 20
15.621428442
 11
-0.4796789185
 21
15.892857337
  0
LINE
  5
534
100
AcDbEntity
  8
0
100
AcDbLine
 62
7
  6
CONTINUOUS
 10
-5.1491176989
 20
11.1486056213
 11
-5.0181654208
 21
11.2795578994
  0
LINE
  5
535
100
AcDbEntity
  8
0
100
AcDbLine
 62
7
  6
CONTINUOUS
 10
-3.9689693202
 20
12.328754
 11
-3.3865253202
 21
12.911198
  0
LINE
  5
536
100
AcDbEntity
  8
0
100
AcDbLine
 62
7
  6
CONTINUOUS
 10
-2.8693133344
 20
13.4284099857
 11
-2.433900742
 21
13.8638225782
  0
LINE
  5
537
100
AcDbEntity
  8
0
100
AcDbLine
 62
7
  6
CONTINUOUS
 10
-5.1491176989
 20
10.9385949073
 11
-4.6109389212
 21
11.4767736849
  0
LINE
  5
538
100
AcDbEntity
  8
0
100
AcDbLine
 62
7
  6
CONTINUOUS
 10
-3.7589586061
 20
12.328754
 11
-3.1765146061
 21
12.911198
  0
LINE
  5
539
100
AcDbEntity
  8
0
100
AcDbLine
 62
7
  6
CONTINUOUS
 10
-2.7150799559
 20
13.3726326503
 11
-2.2786925452
 21
13.809020061
  0
LINE
  5
53A
100
AcDbEntity
  8
0
100
AcDbLine
 62
7
  6
CONTINUOUS
 10
-5.1491176989
 20
10.7285841933
 11
-4.2037124216
 21
11.6739894705
  0
LINE
  5
53B
100
AcDbEntity
  8
0
100
AcDbLine
 62
7
  6
CONTINUOUS
 10
-3.5489478921
 20
12.328754
 11
-2.9665038921
 21
12.911198
  0
LINE
  5
53C
100
AcDbEntity
  8
0
100
AcDbLine
 62
7
  6
CONTINUOUS
 10
-2.5608465773
 20
13.3168553148
 11
-2.25
 21
13.6277018921
  0
LINE
  5
53D
100
AcDbEntity
  8
0
100
AcDbLine
 62
7
  6
CONTINUOUS
 10
-5.1491176989
 20
10.5185734793
 11
-3.796485922
 21
11.8712052561
  0
LINE
  5
53E
100
AcDbEntity
  8
0
100
AcDbLine
 62
7
  6
CONTINUOUS
 10
-3.3389371781
 20
12.328754
 11
-2.7564931781
 21
12.911198
  0
LINE
  5
53F
100
AcDbEntity
  8
0
100
AcDbLine
 62
7
  6
CONTINUOUS
 10
-2.4066131987
 20
13.2610779794
 11
-2.25
 21
13.4176911781
  0
LINE
  5
540
100
AcDbEntity
  8
0
100
AcDbLine
 62
7
  6
CONTINUOUS
 10
-5.1491176989
 20
10.3085627652
 11
-4.5829104641
 21
10.87477
  0
LINE
  5
541
100
AcDbEntity
  8
0
100
AcDbLine
 62
7
  6
CONTINUOUS
 10
-4.4983212717
 20
10.9593591925
 11
-3.3892594224
 21
12.0684210417
  0
LINE
  5
542
100
AcDbEntity
  8
0
100
AcDbLine
 62
7
  6
CONTINUOUS
 10
-3.1289264641
 20
12.328754
 11
-2.5464824641
 21
12.911198
  0
LINE
  5
543
100
AcDbEntity
  8
0
100
AcDbLine
 62
7
  6
CONTINUOUS
 10
-2.2523798201
 20
13.205300644
 11
-2.25
 21
13.2076804641
  0
LINE
  5
544
100
AcDbEntity
  8
0
100
AcDbLine
 62
7
  6
CONTINUOUS
 10
-4.9553447501
 20
10.292325
 11
-4.3728997501
 21
10.87477
  0
LINE
  5
545
100
AcDbEntity
  8
0
100
AcDbLine
 62
7
  6
CONTINUOUS
 10
-4.098221478
 20
11.1494482721
 11
-2.9820329229
 21
12.2656368272
  0
LINE
  5
546
100
AcDbEntity
  8
0
100
AcDbLine
 62
7
  6
CONTINUOUS
 10
-2.9189157501
 20
12.328754
 11
-2.3364717501
 21
12.911198
  0
LINE
  5
547
100
AcDbEntity
  8
0
100
AcDbLine
 62
7
  6
CONTINUOUS
 10
-4.7453340361
 20
10.292325
 11
-4.1628890361
 21
10.87477
  0
LINE
  5
548
100
AcDbEntity
  8
0
100
AcDbLine
 62
7
  6
CONTINUOUS
 10
-3.6981216843
 20
11.3395373518
 11
-2.25
 21
12.7876590361
  0
LINE
  5
549
100
AcDbEntity
  8
0
100
AcDbLine
 62
7
  6
CONTINUOUS
 10
-4.5353233221
 20
10.292325
 11
-3.9528783221
 21
10.87477
  0
LINE
  5
54A
100
AcDbEntity
  8
0
100
AcDbLine
 62
7
  6
CONTINUOUS
 10
-3.2980218907
 20
11.5296264314
 11
-2.25
 21
12.5776483221
  0
LINE
  5
54B
100
AcDbEntity
  8
0
100
AcDbLine
 62
7
  6
CONTINUOUS
 10
-4.3253126081
 20
10.292325
 11
-3.7428676081
 21
10.87477
  0
LINE
  5
54C
100
AcDbEntity
  8
0
100
AcDbLine
 62
7
  6
CONTINUOUS
 10
-2.897922097
 20
11.7197155111
 11
-2.25
 21
12.3676376081
  0
LINE
  5
54D
100
AcDbEntity
  8
0
100
AcDbLine
 62
7
  6
CONTINUOUS
 10
-4.115301894
 20
10.292325
 11
-3.532856894
 21
10.87477
  0
LINE
  5
54E
100
AcDbEntity
  8
0
100
AcDbLine
 62
7
  6
CONTINUOUS
 10
-2.4978223033
 20
11.9098045907
 11
-2.25
 21
12.157626894
  0
LINE
  5
54F
100
AcDbEntity
  8
0
100
AcDbLine
 62
250
  6
CONTINUOUS
 10
1.1486444869
 20
15.485714221
 11
0.8772572432
 21
15.214285779
  0
LINE
  5
550
100
AcDbEntity
  8
0
100
AcDbLine
 62
250
  6
CONTINUOUS
 10
0.3344827842
 20
14.535714221
 11
0.0630955122
 21
14.264285779
  0
LINE
  5
551
100
AcDbEntity
  8
0
100
AcDbLine
 62
7
  6
CONTINUOUS
 10
-3.90529118
 20
10.292325
 11
-3.32284618
 21
10.87477
  0
LINE
  5
552
100
AcDbEntity
  8
0
100
AcDbLine
 62
7
  6
CONTINUOUS
 10
6.7379463946
 20
16.774686601
 11
7.4963720251
 21
17.1746194326
  0
LINE
  5
553
100
AcDbEntity
  8
0
100
AcDbLine
 62
250
  6
CONTINUOUS
 10
-2.25
 20
12.027546
 11
-4.6763647369
 21
10.87477
  0
LINE
  5
554
100
AcDbEntity
  8
0
100
AcDbLine
 62
250
  6
CONTINUOUS
 10
-2.25
 20
9.975074
 11
-5.1491176989
 21
8.9669
  0
LINE
  5
555
100
AcDbEntity
  8
0
100
AcDbLine
 62
250
  6
CONTINUOUS
 10
-2.2500069979
 20
-11.430963
 11
-4.1618664939
 21
-11.430963
  0
LINE
  5
556
100
AcDbEntity
  8
0
100
AcDbLine
 62
250
  6
CONTINUOUS
 10
7.25
 20
-11.407638
 11
6.230988
 21
-11.407638
  0
LINE
  5
557
100
AcDbEntity
  8
0
100
AcDbLine
 62
250
  6
CONTINUOUS
 10
-5.1492546571
 20
-10.051012
 11
-3.2611609202
 21
-10.59258
  0
LINE
  5
558
100
AcDbEntity
  8
0
100
AcDbLine
 62
250
  6
CONTINUOUS
 10
-2.2500149954
 20
-10.30258
 11
-4.1618664939
 21
-9.754205
  0
LWPOLYLINE
  5
559
100
AcDbEntity
  8
RACCORDO
100
AcDbPolyline
 62
7
  6
CONTINUOUS
 90
10
 70
0
 10
-8.7524012392
 20
-22.3592745363
 10
-8.7522388224
 20
-22.367713156
 10
-8.7520496671
 20
-22.3752049444
 10
-8.7518331649
 20
-22.3817328934
 10
-8.7515900594
 20
-22.3872803189
 10
-8.7513214639
 20
-22.3918377837
 10
-8.751027331
 20
-22.3953989044
 10
-8.7507082697
 20
-22.3979529639
 10
-8.7503655228
 20
-22.3994890033
 10
-8.75
 20
-22.4
  0
LINE
  5
55A
100
AcDbEntity
  8
RACCORDO
100
AcDbLine
 62
7
  6
CONTINUOUS
 10
-8.7481145971
 20
21.9498978739
 11
-8.750203403
 21
22.0560058482
  0
LINE
  5
55B
100
AcDbEntity
  8
RACCORDO
100
AcDbLine
 62
7
  6
CONTINUOUS
 10
-8.750203403
 20
22.0560058482
 11
-8.7517248917
 21
22.1560963804
  0
LINE
  5
55C
100
AcDbEntity
  8
RACCORDO
100
AcDbLine
 62
7
  6
CONTINUOUS
 10
-8.7526416876
 20
-22.339634868
 11
-8.7524012392
 21
-22.3592745363
  0
LINE
  5
55D
100
AcDbEntity
  8
RACCORDO
100
AcDbLine
 62
7
  6
CONTINUOUS
 10
-8.7517248917
 20
22.1560963804
 11
-8.7524805774
 21
22.2280464864
  0
LINE
  5
55E
100
AcDbEntity
  8
RACCORDO
100
AcDbLine
 62
7
  6
CONTINUOUS
 10
-8.7527700444
 20
-22.3164638665
 11
-8.7526416876
 21
-22.339634868
  0
LINE
  5
55F
100
AcDbEntity
  8
RACCORDO
100
AcDbLine
 62
7
  6
CONTINUOUS
 10
-8.7524805774
 20
22.2280464864
 11
-8.7527568601
 21
22.2755488292
  0
LINE
  5
560
100
AcDbEntity
  8
RACCORDO
100
AcDbLine
 62
250
  6
CONTINUOUS
 10
-7.9979543906
 20
-24.402986508
 11
-7.9985455672
 21
-24.2456323968
  0
LINE
  5
561
100
AcDbEntity
  8
RACCORDO
100
AcDbLine
 62
250
  6
CONTINUOUS
 10
-7.9979459749
 20
24.4314124395
 11
-7.998043821
 21
24.4683775693
  0
LINE
  5
562
100
AcDbEntity
  8
RACCORDO
100
AcDbLine
 62
7
  6
CONTINUOUS
 10
-8.75
 20
-22.4
 11
-8.75
 21
-24.5
  0
LINE
  5
563
100
AcDbEntity
  8
RACCORDO
100
AcDbLine
 62
7
  6
CONTINUOUS
 10
-8.75
 20
22.4
 11
-8.75
 21
24.5
  0
LINE
  5
564
100
AcDbEntity
  8
RACCORDO
100
AcDbLine
 62
250
  6
CONTINUOUS
 10
-7.9985455672
 20
24.2456323968
 11
-7.9985455672
 21
23.8443375673
  0
LINE
  5
565
100
AcDbEntity
  8
RACCORDO
100
AcDbLine
 62
250
  6
CONTINUOUS
 10
-7.9985455672
 20
-23.8443375673
 11
-7.9985455672
 21
-24.2456323968
  0
LINE
  5
566
100
AcDbEntity
  8
RACCORDO
100
AcDbLine
 62
7
  6
CONTINUOUS
 10
-8.7527568601
 20
22.2755488292
 11
-8.7527777164
 21
22.3164328943
  0
LINE
  5
567
100
AcDbEntity
  8
RACCORDO
100
AcDbLine
 62
7
  6
CONTINUOUS
 10
-8.7527478827
 20
-22.2755543224
 11
-8.7527700444
 21
-22.3164638665
  0
LINE
  5
568
100
AcDbEntity
  8
RACCORDO
100
AcDbLine
 62
250
  6
CONTINUOUS
 10
-7.9979881937
 20
-24.4553229956
 11
-7.9979543906
 21
-24.402986508
  0
LINE
  5
569
100
AcDbEntity
  8
RACCORDO
100
AcDbLine
 62
250
  6
CONTINUOUS
 10
-7.9981673292
 20
24.3228837286
 11
-7.9979459749
 21
24.4314124395
  0
LINE
  5
56A
100
AcDbEntity
  8
RACCORDO
100
AcDbLine
 62
250
  6
CONTINUOUS
 10
-7.9980439717
 20
-24.4684044791
 11
-7.9979881937
 21
-24.4553229956
  0
LINE
  5
56B
100
AcDbEntity
  8
RACCORDO
100
AcDbLine
 62
250
  6
CONTINUOUS
 10
-7.9985455672
 20
24.2456323968
 11
-7.9981673292
 21
24.3228837286
  0
LINE
  5
56C
100
AcDbEntity
  8
RACCORDO
100
AcDbLine
 62
7
  6
CONTINUOUS
 10
-8.7527777164
 20
22.3164328943
 11
-8.7526486155
 21
22.3395959252
  0
LINE
  5
56D
100
AcDbEntity
  8
RACCORDO
100
AcDbLine
 62
7
  6
CONTINUOUS
 10
-8.7524699798
 20
-22.2280157976
 11
-8.7527478827
 21
-22.2755543224
  0
LINE
  5
56E
100
AcDbEntity
  8
RACCORDO
100
AcDbLine
 62
7
  6
CONTINUOUS
 10
-8.7517117745
 20
-22.156018198
 11
-8.7524699798
 21
-22.2280157976
  0
LWPOLYLINE
  5
56F
100
AcDbEntity
  8
RACCORDO
100
AcDbPolyline
 62
7
  6
CONTINUOUS
 90
11
 70
0
 10
-8.7526486155
 20
22.3395959252
 10
-8.7524074541
 20
22.3592350762
 10
-8.7522446587
 20
22.3676761448
 10
-8.7520551046
 20
22.375171735
 10
-8.7518381305
 20
22.3817047778
 10
-8.7515944888
 20
22.3872580713
 10
-8.7513252886
 20
22.3918216515
 10
-8.7510304116
 20
22.3953887516
 10
-8.7507104474
 20
22.3979479935
 10
-8.750366671
 20
22.3994876502
 10
-8.75
 20
22.4
  0
LINE
  5
570
100
AcDbEntity
  8
RACCORDO
100
AcDbLine
 62
7
  6
CONTINUOUS
 10
-8.7501873389
 20
-22.0559140613
 11
-8.7517117745
 21
-22.156018198
  0
LINE
  5
571
100
AcDbEntity
  8
RACCORDO
100
AcDbLine
 62
7
  6
CONTINUOUS
 10
-8.7480985044
 20
-21.9498977334
 11
-8.7501873389
 21
-22.0559140613
  0
LINE
  5
572
100
AcDbEntity
  8
0
100
AcDbLine
 62
7
  6
CONTINUOUS
 10
-5.1491176989
 20
8.8384877672
 11
-4.9522413047
 21
9.0353641613
  0
LINE
  5
573
100
AcDbEntity
  8
0
100
AcDbLine
 62
7
  6
CONTINUOUS
 10
-3.695280466
 20
10.292325
 11
-3.112835466
 21
10.87477
  0
LINE
  5
574
100
AcDbEntity
  8
0
100
AcDbLine
 62
7
  6
CONTINUOUS
 10
-5.1491176989
 20
8.6284770531
 11
-4.6302614497
 21
9.1473333023
  0
LINE
  5
575
100
AcDbEntity
  8
0
100
AcDbLine
 62
7
  6
CONTINUOUS
 10
-3.485269752
 20
10.292325
 11
-2.902824752
 21
10.87477
  0
LINE
  5
576
100
AcDbEntity
  8
0
100
AcDbLine
 62
250
  6
CONTINUOUS
 10
-0.4796789185
 20
13.1785713315
 11
-0.7510661339
 21
12.9071428895
  0
LINE
  5
577
100
AcDbEntity
  8
0
100
AcDbLine
 62
7
  6
CONTINUOUS
 10
-5.1491176989
 20
8.4184663391
 11
-4.3082815947
 21
9.2593024433
  0
LINE
  5
578
100
AcDbEntity
  8
0
100
AcDbLine
 62
7
  6
CONTINUOUS
 10
-3.275259038
 20
10.292325
 11
-2.692814038
 21
10.87477
  0
LINE
  5
579
100
AcDbEntity
  8
0
100
AcDbLine
 62
7
  6
CONTINUOUS
 10
-5.1348746716
 20
8.2226986524
 11
-3.9863017398
 21
9.3712715842
  0
LINE
  5
57A
100
AcDbEntity
  8
0
100
AcDbLine
 62
7
  6
CONTINUOUS
 10
-3.065248324
 20
10.292325
 11
-2.482803324
 21
10.87477
  0
LINE
  5
57B
100
AcDbEntity
  8
0
100
AcDbLine
 62
7
  6
CONTINUOUS
 10
-4.9806370342
 20
8.1669255757
 11
-4.5735282693
 21
8.5740343407
  0
LINE
  5
57C
100
AcDbEntity
  8
0
100
AcDbLine
 62
7
  6
CONTINUOUS
 10
-4.5523360471
 20
8.5952265628
 11
-3.6643218848
 21
9.4832407252
  0
LINE
  5
57D
100
AcDbEntity
  8
0
100
AcDbLine
 62
7
  6
CONTINUOUS
 10
-2.85523761
 20
10.292325
 11
-2.27279261
 21
10.87477
  0
LINE
  5
57E
100
AcDbEntity
  8
0
100
AcDbLine
 62
7
  6
CONTINUOUS
 10
-4.8263993969
 20
8.1111524991
 11
-4.4173072804
 21
8.5202446156
  0
LINE
  5
57F
100
AcDbEntity
  8
0
100
AcDbLine
 62
7
  6
CONTINUOUS
 10
-4.2428306662
 20
8.6947212298
 11
-3.3423420298
 21
9.5952098662
  0
LINE
  5
580
100
AcDbEntity
  8
0
100
AcDbLine
 62
7
  6
CONTINUOUS
 10
-2.645226896
 20
10.292325
 11
-2.25
 21
10.687551896
  0
LINE
  5
581
100
AcDbEntity
  8
0
100
AcDbLine
 62
7
  6
CONTINUOUS
 10
-4.6721617595
 20
8.0553794225
 11
-4.2610862915
 21
8.4664548905
  0
LINE
  5
582
100
AcDbEntity
  8
0
100
AcDbLine
 62
7
  6
CONTINUOUS
 10
-3.9333252853
 20
8.7942158967
 11
-3.0203621748
 21
9.7071790071
  0
LINE
  5
583
100
AcDbEntity
  8
0
100
AcDbLine
 62
7
  6
CONTINUOUS
 10
-2.4352161819
 20
10.292325
 11
-2.25
 21
10.4775411819
  0
LINE
  5
584
100
AcDbEntity
  8
0
100
AcDbLine
 62
7
  6
CONTINUOUS
 10
-4.5179241221
 20
7.9996063458
 11
-4.1048653026
 21
8.4126651653
  0
LINE
  5
585
100
AcDbEntity
  8
0
100
AcDbLine
 62
7
  6
CONTINUOUS
 10
-3.6238199043
 20
8.8937105636
 11
-2.6983823198
 21
9.8191481481
  0
LINE
  5
586
100
AcDbEntity
  8
0
100
AcDbLine
 62
7
  6
CONTINUOUS
 10
-4.3636864847
 20
7.9438332692
 11
-3.9486443137
 21
8.3588754402
  0
LINE
  5
587
100
AcDbEntity
  8
0
100
AcDbLine
 62
7
  6
CONTINUOUS
 10
-3.346237999
 20
8.9612817549
 11
-2.3764024648
 21
9.9311172891
  0
LINE
  5
588
100
AcDbEntity
  8
0
100
AcDbLine
 62
7
  6
CONTINUOUS
 10
-4.2094488473
 20
7.8880601926
 11
-3.7924233248
 21
8.3050857151
  0
LINE
  5
589
100
AcDbEntity
  8
0
100
AcDbLine
 62
7
  6
CONTINUOUS
 10
-3.346237999
 20
8.7512710409
 11
-2.25
 21
9.8475090399
  0
LINE
  5
58A
100
AcDbEntity
  8
0
100
AcDbLine
 62
7
  6
CONTINUOUS
 10
-4.05521121
 20
7.8322871159
 11
-3.6362023359
 21
8.25129599
  0
LINE
  5
58B
100
AcDbEntity
  8
0
100
AcDbLine
 62
7
  6
CONTINUOUS
 10
-3.346237999
 20
8.5412603269
 11
-2.8644517893
 21
9.0230465366
  0
LINE
  5
58C
100
AcDbEntity
  8
0
100
AcDbLine
 62
7
  6
CONTINUOUS
 10
-2.6879466625
 20
9.1995516634
 11
-2.25
 21
9.6374983259
  0
LINE
  5
58D
100
AcDbEntity
  8
0
100
AcDbLine
 62
7
  6
CONTINUOUS
 10
-3.9009735726
 20
7.7765140393
 11
-3.479981347
 21
8.1975062649
  0
LINE
  5
58E
100
AcDbEntity
  8
0
100
AcDbLine
 62
7
  6
CONTINUOUS
 10
-3.346237999
 20
8.3312496129
 11
-2.8644517893
 21
8.8130358226
  0
LINE
  5
58F
100
AcDbEntity
  8
0
100
AcDbLine
 62
7
  6
CONTINUOUS
 10
-2.3697734099
 20
9.307714202
 11
-2.25
 21
9.4274876119
  0
LINE
  5
590
100
AcDbEntity
  8
0
100
AcDbLine
 62
7
  6
CONTINUOUS
 10
-3.7467359352
 20
7.7207409627
 11
-2.8644517893
 21
8.6030251086
  0
LINE
  5
591
100
AcDbEntity
  8
0
100
AcDbLine
 62
7
  6
CONTINUOUS
 10
-3.5924982978
 20
7.6649678861
 11
-2.8644517893
 21
8.3930143946
  0
LINE
  5
592
100
AcDbEntity
  8
0
100
AcDbLine
 62
250
  6
CONTINUOUS
 10
-2.8644517893
 20
9.139549
 11
-2.25
 21
9.348431
  0
LINE
  5
593
100
AcDbEntity
  8
0
100
AcDbLine
 62
250
  6
CONTINUOUS
 10
-4.5951264885
 20
8.581471
 11
-3.346237999
 21
8.982943
  0
LINE
  5
594
100
AcDbEntity
  8
0
100
AcDbLine
 62
250
  6
CONTINUOUS
 10
-4.1618664939
 20
-9.754205
 11
-2.2500069979
 21
-9.754197
  0
LINE
  5
595
100
AcDbEntity
  8
0
100
AcDbLine
 62
250
  6
CONTINUOUS
 10
10.317512
 20
-9.36959
 11
11.082512
 21
-9.36959
  0
LINE
  5
596
100
AcDbEntity
  8
0
100
AcDbLine
 62
250
  6
CONTINUOUS
 10
-2.2500069979
 20
-9.174176
 11
-5.1492546571
 21
-9.174176
  0
LINE
  5
597
100
AcDbEntity
  8
0
100
AcDbLine
 62
250
  6
CONTINUOUS
 10
8.162794
 20
-8.85959
 11
8.93332
 21
-8.85959
  0
LINE
  5
598
100
AcDbEntity
  8
0
100
AcDbLine
 62
250
  6
CONTINUOUS
 10
12.4667035501
 20
-8.85959
 11
13.23723
 21
-8.85959
  0
LINE
  5
599
100
AcDbEntity
  8
0
100
AcDbLine
 62
250
  6
CONTINUOUS
 10
-2.2500069979
 20
-8.787497
 11
-5.149261655
 21
-7.856372
  0
LINE
  5
59A
100
AcDbEntity
  8
0
100
AcDbLine
 62
250
  6
CONTINUOUS
 10
-2.8201692812
 20
-8.024362
 11
-2.2500149954
 21
-8.207475
  0
LINE
  5
59B
100
AcDbEntity
  8
0
100
AcDbLine
 62
250
  6
CONTINUOUS
 10
-4.24629577
 20
-7.56635
 11
-3.3710234474
 21
-7.84744
  0
LWPOLYLINE
  5
59C
100
AcDbEntity
  8
RACCORDO
100
AcDbPolyline
 62
250
  6
CONTINUOUS
 90
6
 70
0
 10
-7.9982187094
 20
24.4871079418
 10
-7.9982749717
 20
24.490163634
 10
-7.998335962
 20
24.492549112
 10
-7.9984015131
 20
24.4942578375
 10
-7.9984714454
 20
24.4952851274
 10
-7.9985455672
 20
24.495628166
  0
LINE
  5
59D
100
AcDbEntity
  8
RACCORDO
100
AcDbLine
 62
250
  6
CONTINUOUS
 10
-7.9981209721
 20
24.4790212289
 11
-7.9982187094
 21
24.4871079418
  0
LINE
  5
59E
100
AcDbEntity
  8
RACCORDO
100
AcDbLine
 62
250
  6
CONTINUOUS
 10
-7.998043821
 20
24.4683775693
 11
-7.9981209721
 21
24.4790212289
  0
LINE
  5
59F
100
AcDbEntity
  8
RACCORDO
100
AcDbLine
 62
7
  6
CONTINUOUS
 10
-7.75
 20
24.2456323968
 11
-7.75
 21
23.8443375673
  0
LINE
  5
5A0
100
AcDbEntity
  8
ASSI
100
AcDbLine
 62
7
  6
CONTINUOUS
 10
-7.75
 20
17.6716990487
 11
-7.75
 21
-17.6716990487
  0
LINE
  5
5A1
100
AcDbEntity
  8
RACCORDO
100
AcDbLine
 62
7
  6
CONTINUOUS
 10
-7.75
 20
22.3912731322
 11
-7.75
 21
-22.3912731322
  0
LINE
  5
5A2
100
AcDbEntity
  8
RACCORDO
100
AcDbLine
 62
7
  6
CONTINUOUS
 10
-7.75
 20
-23.8443375673
 11
-7.75
 21
-24.2456323968
  0
LINE
  5
5A3
100
AcDbEntity
  8
0
100
AcDbLine
 62
7
  6
CONTINUOUS
 10
-3.4382606604
 20
7.6091948094
 11
-2.8644517893
 21
8.1830036806
  0
LINE
  5
5A4
100
AcDbEntity
  8
0
100
AcDbLine
 62
7
  6
CONTINUOUS
 10
-5.1491176989
 20
5.688327057
 11
-5.0437057558
 21
5.793739
  0
LINE
  5
5A5
100
AcDbEntity
  8
0
100
AcDbLine
 62
7
  6
CONTINUOUS
 10
-3.2840230231
 20
7.5534217328
 11
-2.8512809247
 21
7.9861638312
  0
LINE
  5
5A6
100
AcDbEntity
  8
0
100
AcDbLine
 62
7
  6
CONTINUOUS
 10
-5.1491176989
 20
5.478316343
 11
-4.8336950418
 21
5.793739
  0
LINE
  5
5A7
100
AcDbEntity
  8
0
100
AcDbLine
 62
7
  6
CONTINUOUS
 10
-3.1297853857
 20
7.4976486562
 11
-2.696052377
 21
7.9313816649
  0
LINE
  5
5A8
100
AcDbEntity
  8
0
100
AcDbLine
 62
7
  6
CONTINUOUS
 10
-5.1491176989
 20
5.2683056289
 11
-4.6236843278
 21
5.793739
  0
LINE
  5
5A9
100
AcDbEntity
  8
0
100
AcDbLine
 62
7
  6
CONTINUOUS
 10
-2.9755477483
 20
7.4418755795
 11
-2.5408238293
 21
7.8765994986
  0
LINE
  5
5AA
100
AcDbEntity
  8
0
100
AcDbLine
 62
7
  6
CONTINUOUS
 10
-5.0362796138
 20
5.171133
 11
-4.4136736138
 21
5.793739
  0
LINE
  5
5AB
100
AcDbEntity
  8
0
100
AcDbLine
 62
7
  6
CONTINUOUS
 10
-2.8213101109
 20
7.3861025029
 11
-2.3855952816
 21
7.8218173322
  0
LINE
  5
5AC
100
AcDbEntity
  8
0
100
AcDbLine
 62
7
  6
CONTINUOUS
 10
-4.8262688998
 20
5.171133
 11
-4.2036628998
 21
5.793739
  0
LINE
  5
5AD
100
AcDbEntity
  8
0
100
AcDbLine
 62
7
  6
CONTINUOUS
 10
-2.6670724735
 20
7.3303294263
 11
-2.25
 21
7.7474018998
  0
LINE
  5
5AE
100
AcDbEntity
  8
0
100
AcDbLine
 62
7
  6
CONTINUOUS
 10
-4.6162581858
 20
5.171133
 11
-3.9936521858
 21
5.793739
  0
LINE
  5
5AF
100
AcDbEntity
  8
0
100
AcDbLine
 62
7
  6
CONTINUOUS
 10
-2.5128348361
 20
7.2745563496
 11
-2.25
 21
7.5373911858
  0
LINE
  5
5B0
100
AcDbEntity
  8
0
100
AcDbLine
 62
7
  6
CONTINUOUS
 10
-4.4062474718
 20
5.171133
 11
-3.7836414718
 21
5.793739
  0
LINE
  5
5B1
100
AcDbEntity
  8
0
100
AcDbLine
 62
7
  6
CONTINUOUS
 10
-2.7317862097
 20
6.845594262
 11
-2.7106424718
 21
6.866738
  0
LINE
  5
5B2
100
AcDbEntity
  8
0
100
AcDbLine
 62
7
  6
CONTINUOUS
 10
-2.3585971988
 20
7.218783273
 11
-2.25
 21
7.3273804718
  0
LINE
  5
5B3
100
AcDbEntity
  8
0
100
AcDbLine
 62
7
  6
CONTINUOUS
 10
-5.0218625523
 20
4.3455072055
 11
-4.6590484914
 21
4.7083212664
  0
LINE
  5
5B4
100
AcDbEntity
  8
0
100
AcDbLine
 62
7
  6
CONTINUOUS
 10
-4.1962367578
 20
5.171133
 11
-3.5736307578
 21
5.793739
  0
LINE
  5
5B5
100
AcDbEntity
  8
0
100
AcDbLine
 62
7
  6
CONTINUOUS
 10
-2.7317862097
 20
6.635583548
 11
-2.5006317578
 21
6.866738
  0
LINE
  5
5B6
100
AcDbEntity
  8
0
100
AcDbLine
 62
7
  6
CONTINUOUS
 10
-5.1127559836
 20
4.0446030602
 11
-4.3820754254
 21
4.7752836183
  0
LINE
  5
5B7
100
AcDbEntity
  8
0
100
AcDbLine
 62
7
  6
CONTINUOUS
 10
-3.9862260437
 20
5.171133
 11
-3.3636200437
 21
5.793739
  0
LINE
  5
5B8
100
AcDbEntity
  8
0
100
AcDbLine
 62
7
  6
CONTINUOUS
 10
-2.7317862097
 20
6.425572834
 11
-2.2906210437
 21
6.866738
  0
LINE
  5
5B9
100
AcDbEntity
  8
0
100
AcDbLine
 62
7
  6
CONTINUOUS
 10
-5.1404392234
 20
3.8069091063
 11
-4.1691564671
 21
4.7781918626
  0
LINE
  5
5BA
100
AcDbEntity
  8
0
100
AcDbLine
 62
7
  6
CONTINUOUS
 10
-3.7762153297
 20
5.171133
 11
-3.1536093297
 21
5.793739
  0
LINE
  5
5BB
100
AcDbEntity
  8
0
100
AcDbLine
 62
7
  6
CONTINUOUS
 10
-2.7317862097
 20
6.21556212
 11
-2.25
 21
6.6973483297
  0
LINE
  5
5BC
100
AcDbEntity
  8
0
100
AcDbLine
 62
7
  6
CONTINUOUS
 10
-5.1491176989
 20
3.5882199168
 11
-3.9859189316
 21
4.7514186841
  0
LINE
  5
5BD
100
AcDbEntity
  8
0
100
AcDbLine
 62
7
  6
CONTINUOUS
 10
-3.5662046157
 20
5.171133
 11
-2.9435986157
 21
5.793739
  0
LINE
  5
5BE
100
AcDbEntity
  8
0
100
AcDbLine
 62
7
  6
CONTINUOUS
 10
-2.7317862097
 20
6.005551406
 11
-2.25
 21
6.4873376157
  0
LINE
  5
5BF
100
AcDbEntity
  8
0
100
AcDbLine
 62
7
  6
CONTINUOUS
 10
-5.1491176989
 20
3.3782092028
 11
-4.636216619
 21
3.8911102827
  0
LINE
  5
5C0
100
AcDbEntity
  8
0
100
AcDbLine
 62
7
  6
CONTINUOUS
 10
-4.4339987187
 20
4.093328183
 11
-3.8306242189
 21
4.6967026828
  0
LINE
  5
5C1
100
AcDbEntity
  8
0
100
AcDbLine
 62
7
  6
CONTINUOUS
 10
-3.3561939017
 20
5.171133
 11
-2.7335879017
 21
5.793739
  0
LINE
  5
5C2
100
AcDbEntity
  8
0
100
AcDbLine
 62
7
  6
CONTINUOUS
 10
-2.7317862097
 20
5.795540692
 11
-2.25
 21
6.2773269017
  0
LINE
  5
5C3
100
AcDbEntity
  8
0
100
AcDbLine
 62
7
  6
CONTINUOUS
 10
-5.1491176989
 20
3.1681984888
 11
-4.6673314892
 21
3.6499846985
  0
LINE
  5
5C4
100
AcDbEntity
  8
0
100
AcDbLine
 62
7
  6
CONTINUOUS
 10
-4.2008661929
 20
4.1164499947
 11
-3.7012166228
 21
4.6160995649
  0
LINE
  5
5C5
100
AcDbEntity
  8
0
100
AcDbLine
 62
7
  6
CONTINUOUS
 10
-3.1461831877
 20
5.171133
 11
-2.25
 21
6.0673161877
  0
LINE
  5
5C6
100
AcDbEntity
  8
0
100
AcDbLine
 62
250
  6
CONTINUOUS
 10
-2.2500149954
 20
-5.958503
 11
-5.149261655
 21
-5.958503
  0
LINE
  5
5C7
100
AcDbEntity
  8
ASSI
100
AcDbLine
 62
7
  6
CONTINUOUS
 10
16.5238532772
 20
-8.4739590572
 11
17.9761467228
 21
-8.6010182698
  0
LINE
  5
5C8
100
AcDbEntity
  8
DRAFT
100
AcDbLine
 62
7
  6
CONTINUOUS
 10
16.5238532772
 20
-8.4739590572
 11
17.9761467228
 21
-8.6010182698
  0
LINE
  5
5C9
100
AcDbEntity
  8
0
100
AcDbLine
 62
250
  6
CONTINUOUS
 10
0.15
 20
-10.93899
 11
5.160278
 21
-15.875622
  0
LINE
  5
5CA
100
AcDbEntity
  8
0
100
AcDbLine
 62
250
  6
CONTINUOUS
 10
-5.149261655
 20
-7.856372
 11
-5.149261655
 21
-7.276321
  0
LINE
  5
5CB
100
AcDbEntity
  8
0
100
AcDbLine
 62
250
  6
CONTINUOUS
 10
-5.149261655
 20
-5.958503
 11
-5.149261655
 21
-4.600288
  0
LINE
  5
5CC
100
AcDbEntity
  8
0
100
AcDbLine
 62
250
  6
CONTINUOUS
 10
-5.1492546571
 20
-9.174176
 11
-5.1492546571
 21
-10.051012
  0
LINE
  5
5CD
100
AcDbEntity
  8
0
100
AcDbLine
 62
250
  6
CONTINUOUS
 10
-5.1492546571
 20
-11.134148
 11
-5.1492546571
 21
-12.010985
  0
LINE
  5
5CE
100
AcDbEntity
  8
0
100
AcDbLine
 62
250
  6
CONTINUOUS
 10
-5.1492546571
 20
-12.590985
 11
-5.1492546571
 21
-13.171006
  0
LINE
  5
5CF
100
AcDbEntity
  8
0
100
AcDbLine
 62
250
  6
CONTINUOUS
 10
-5.1492546571
 20
-13.557685
 11
-5.1492546571
 21
-14.137714
  0
LINE
  5
5D0
100
AcDbEntity
  8
0
100
AcDbLine
 62
250
  6
CONTINUOUS
 10
-5.1492546571
 20
-15.419971
 11
-5.1492546571
 21
-16.0
  0
LINE
  5
5D1
100
AcDbEntity
  8
0
100
AcDbLine
 62
250
  6
CONTINUOUS
 10
-5.1491176989
 20
14.991935
 11
-5.1491176989
 21
14.252884
  0
LINE
  5
5D2
100
AcDbEntity
  8
0
100
AcDbLine
 62
250
  6
CONTINUOUS
 10
-5.1491176989
 20
8.9669
 11
-5.1491176989
 21
8.227849
  0
LINE
  5
5D3
100
AcDbEntity
  8
0
100
AcDbLine
 62
250
  6
CONTINUOUS
 10
-5.1491176989
 20
3.58822
 11
-5.1491176989
 21
2.70079
  0
LINE
  5
5D4
100
AcDbEntity
  8
0
100
AcDbLine
 62
250
  6
CONTINUOUS
 10
-5.1491176989
 20
5.171133
 11
-5.1491176989
 21
5.793739
  0
LINE
  5
5D5
100
AcDbEntity
  8
0
100
AcDbLine
 62
250
  6
CONTINUOUS
 10
-5.1491176989
 20
10.292325
 11
-5.1491176989
 21
11.216139
  0
LINE
  5
5D6
100
AcDbEntity
  8
0
100
AcDbLine
 62
250
  6
CONTINUOUS
 10
-5.1491176989
 20
12.328754
 11
-5.1491176989
 21
12.911198
  0
LINE
  5
5D7
100
AcDbEntity
  8
0
100
AcDbLine
 62
250
  6
CONTINUOUS
 10
-4.6673314892
 20
3.323396
 11
-4.6673314892
 21
3.686612
  0
LINE
  5
5D8
100
AcDbEntity
  8
0
100
AcDbLine
 62
250
  6
CONTINUOUS
 10
-4.6129030724
 20
-4.680792
 11
-4.6129030724
 21
-5.386478
  0
LINE
  5
5D9
100
AcDbEntity
  8
0
100
AcDbLine
 62
250
  6
CONTINUOUS
 10
-3.9073890279
 20
-5.386471
 11
-3.9073890279
 21
-4.680792
  0
LINE
  5
5DA
100
AcDbEntity
  8
0
100
AcDbLine
 62
250
  6
CONTINUOUS
 10
-3.8482080591
 20
3.323396
 11
-3.8482080591
 21
3.686612
  0
LINE
  5
5DB
100
AcDbEntity
  8
0
100
AcDbLine
 62
250
  6
CONTINUOUS
 10
-5.1455382599
 20
3.6948258614
 11
-5.1491175582
 21
3.5882200575
  0
LWPOLYLINE
  5
5DC
100
AcDbEntity
  8
0
100
AcDbPolyline
 62
250
  6
CONTINUOUS
 90
54
 70
0
 10
-4.6637733008
 20
3.7174608972
 10
-4.6589129214
 20
3.763813985
 10
-4.6571918209
 20
3.7792495632
 10
-4.6553251837
 20
3.794662096
 10
-4.65325598
 20
3.8100423913
 10
-4.65092718
 20
3.8253812571
 10
-4.6482817539
 20
3.8406695016
 10
-4.6452626719
 20
3.8558979327
 10
-4.6429295295
 20
3.8663734222
 10
-4.640371556
 20
3.8768018468
 10
-4.6375693388
 20
3.8871690543
 10
-4.6345034655
 20
3.8974608925
 10
-4.6311545235
 20
3.907663209
 10
-4.6275031005
 20
3.9177618517
 10
-4.623529784
 20
3.9277426683
 10
-4.6192151614
 20
3.9375915065
 10
-4.6151134502
 20
3.9461556907
 10
-4.6107316915
 20
3.9545891942
 10
-4.6060704196
 20
3.9628750024
 10
-4.6011301688
 20
3.9709961011
 10
-4.5959114734
 20
3.9789354759
 10
-4.5904148675
 20
3.9866761124
 10
-4.5846408854
 20
3.9942009963
 10
-4.5785900614
 20
4.001493113
 10
-4.5722629297
 20
4.0085354483
 10
-4.5656100705
 20
4.0153674044
 10
-4.5586962474
 20
4.0219361053
 10
-4.5515406277
 20
4.0282493076
 10
-4.5441623786
 20
4.0343147679
 10
-4.5365806675
 20
4.0401402428
 10
-4.5288146615
 20
4.0457334888
 10
-4.5208835281
 20
4.0511022627
 10
-4.5128064345
 20
4.0562543208
 10
-4.5046025479
 20
4.0611974199
 10
-4.4938997131
 20
4.0672512393
 10
-4.4830272992
 20
4.0729664611
 10
-4.471993444
 20
4.0783367237
 10
-4.4608062856
 20
4.0833556651
 10
-4.4494739616
 20
4.0880169238
 10
-4.4380046101
 20
4.0923141379
 10
-4.4264063688
 20
4.0962409458
 10
-4.4138737359
 20
4.1000267408
 10
-4.4012169632
 20
4.103400823
 10
-4.3884499329
 20
4.1063821336
 10
-4.3755865273
 20
4.1089896139
 10
-4.3626406286
 20
4.1112422052
 10
-4.3496261191
 20
4.1131588488
 10
-4.336556881
 20
4.1147584859
 10
-4.3234467965
 20
4.1160600579
 10
-4.3103097478
 20
4.1170825061
 10
-4.2971596172
 20
4.1178447717
 10
-4.284010287
 20
4.118365796
 10
-4.2708756393
 20
4.1186645203
 10
-4.2577695565
 20
4.1187598859
  0
LWPOLYLINE
  5
5DD
100
AcDbEntity
  8
0
100
AcDbPolyline
 62
250
  6
CONTINUOUS
 90
3
 70
0
 10
-4.6673314168
 20
3.6866121309
 10
-4.6654825526
 20
3.7020250568
 10
-4.6637733008
 20
3.7174608972
  0
LINE
  5
5DE
100
AcDbEntity
  8
0
100
AcDbLine
 62
7
  6
CONTINUOUS
 10
-5.1491176989
 20
2.9581877748
 11
-4.6673314892
 21
3.4399739845
  0
LINE
  5
5DF
100
AcDbEntity
  8
0
100
AcDbLine
 62
7
  6
CONTINUOUS
 10
-4.0341407126
 20
4.0731647611
 11
-3.5958993098
 21
4.5114061639
  0
LINE
  5
5E0
100
AcDbEntity
  8
0
100
AcDbLine
 62
7
  6
CONTINUOUS
 10
-2.9361724737
 20
5.171133
 11
-2.25
 21
5.8573054737
  0
LINE
  5
5E1
100
AcDbEntity
  8
0
100
AcDbLine
 62
7
  6
CONTINUOUS
 10
-5.1491176989
 20
2.7481770608
 11
-4.5738987597
 21
3.323396
  0
LINE
  5
5E2
100
AcDbEntity
  8
0
100
AcDbLine
 62
7
  6
CONTINUOUS
 10
-3.9193687371
 20
3.9779260226
 11
-3.5131227429
 21
4.3841720167
  0
LINE
  5
5E3
100
AcDbEntity
  8
0
100
AcDbLine
 62
7
  6
CONTINUOUS
 10
-2.7261617597
 20
5.171133
 11
-2.25
 21
5.6472947597
  0
LINE
  5
5E4
100
AcDbEntity
  8
0
100
AcDbLine
 62
7
  6
CONTINUOUS
 10
-4.9864940457
 20
2.70079
 11
-4.3638880457
 21
3.323396
  0
LINE
  5
5E5
100
AcDbEntity
  8
0
100
AcDbLine
 62
7
  6
CONTINUOUS
 10
-3.8644275299
 20
3.8228565157
 11
-3.4509043569
 21
4.2363796888
  0
LINE
  5
5E6
100
AcDbEntity
  8
0
100
AcDbLine
 62
7
  6
CONTINUOUS
 10
-2.5161510457
 20
5.171133
 11
-2.25
 21
5.4372840457
  0
LINE
  5
5E7
100
AcDbEntity
  8
0
100
AcDbLine
 62
7
  6
CONTINUOUS
 10
-4.7764833316
 20
2.70079
 11
-4.1538773316
 21
3.323396
  0
LINE
  5
5E8
100
AcDbEntity
  8
0
100
AcDbLine
 62
7
  6
CONTINUOUS
 10
-3.8482077537
 20
3.629065578
 11
-3.4076881353
 21
4.0695851963
  0
LINE
  5
5E9
100
AcDbEntity
  8
0
100
AcDbLine
 62
7
  6
CONTINUOUS
 10
-2.3061403316
 20
5.171133
 11
-2.25
 21
5.2272733316
  0
LINE
  5
5EA
100
AcDbEntity
  8
0
100
AcDbLine
 62
7
  6
CONTINUOUS
 10
-4.5664726176
 20
2.70079
 11
-3.9438666176
 21
3.323396
  0
LINE
  5
5EB
100
AcDbEntity
  8
0
100
AcDbLine
 62
7
  6
CONTINUOUS
 10
-3.8482079635
 20
3.4190546541
 11
-3.381274146
 21
3.8859884716
  0
LINE
  5
5EC
100
AcDbEntity
  8
0
100
AcDbLine
 62
7
  6
CONTINUOUS
 10
-4.3564619036
 20
2.70079
 11
-3.3697547898
 21
3.6874971138
  0
LINE
  5
5ED
100
AcDbEntity
  8
0
100
AcDbLine
 62
7
  6
CONTINUOUS
 10
-4.1464511896
 20
2.70079
 11
-3.3664216742
 21
3.4808195154
  0
LINE
  5
5EE
100
AcDbEntity
  8
0
100
AcDbLine
 62
7
  6
CONTINUOUS
 10
-3.9364404756
 20
2.70079
 11
-3.3138344756
 21
3.323396
  0
LINE
  5
5EF
100
AcDbEntity
  8
0
100
AcDbLine
 62
7
  6
CONTINUOUS
 10
-3.7264297616
 20
2.70079
 11
-3.1038237616
 21
3.323396
  0
LINE
  5
5F0
100
AcDbEntity
  8
0
100
AcDbLine
 62
7
  6
CONTINUOUS
 10
-3.5164190476
 20
2.70079
 11
-2.8938130476
 21
3.323396
  0
LINE
  5
5F1
100
AcDbEntity
  8
0
100
AcDbLine
 62
7
  6
CONTINUOUS
 10
-3.3064083336
 20
2.70079
 11
-2.6838023336
 21
3.323396
  0
LINE
  5
5F2
100
AcDbEntity
  8
0
100
AcDbLine
 62
7
  6
CONTINUOUS
 10
-3.0963976195
 20
2.70079
 11
-2.4737916195
 21
3.323396
  0
LINE
  5
5F3
100
AcDbEntity
  8
0
100
AcDbLine
 62
7
  6
CONTINUOUS
 10
-2.8863869055
 20
2.70079
 11
-2.2637809055
 21
3.323396
  0
LINE
  5
5F4
100
AcDbEntity
  8
0
100
AcDbLine
 62
7
  6
CONTINUOUS
 10
-2.6763761915
 20
2.70079
 11
-2.25
 21
3.1271661915
  0
LINE
  5
5F5
100
AcDbEntity
  8
0
100
AcDbLine
 62
250
  6
CONTINUOUS
 10
13.25
 20
10.389946
 11
11.9503959624
 21
9.819613
  0
LINE
  5
5F6
100
AcDbEntity
  8
0
100
AcDbLine
 62
250
  6
CONTINUOUS
 10
-4.6129030724
 20
-5.386478
 11
-3.9073890279
 21
-5.386471
  0
LINE
  5
5F7
100
AcDbEntity
  8
0
100
AcDbLine
 62
250
  6
CONTINUOUS
 10
-3.3710304452
 20
-5.378409
 11
-2.2500149954
 21
-5.378474
  0
LWPOLYLINE
  5
5F8
100
AcDbEntity
  8
0
100
AcDbPolyline
 62
250
  6
CONTINUOUS
 90
73
 70
0
 10
-3.4407562012
 20
-4.255024
 10
-3.4544486924
 20
-4.2241841821
 10
-3.4693363253
 20
-4.1938422761
 10
-3.4853890059
 20
-4.1640480313
 10
-3.5025766404
 20
-4.1348511972
 10
-3.5208691348
 20
-4.1063015231
 10
-3.5402363952
 20
-4.0784487582
 10
-3.5606483278
 20
-4.051342652
 10
-3.5820748387
 20
-4.0250329538
 10
-3.6044858339
 20
-3.9995694128
 10
-3.6278498733
 20
-3.9749981577
 10
-3.652130132
 20
-3.9513508336
 10
-3.6772884386
 20
-3.9286554648
 10
-3.703286622
 20
-3.9069400756
 10
-3.730086511
 20
-3.8862326905
 10
-3.7576499343
 20
-3.8665613336
 10
-3.7859387206
 20
-3.8479540295
 10
-3.8149146989
 20
-3.8304388024
 10
-3.8445396977
 20
-3.8140436766
 10
-3.8747740386
 20
-3.7987946565
 10
-3.9055720135
 20
-3.7847096666
 10
-3.9368864068
 20
-3.7718046114
 10
-3.9686700031
 20
-3.7600953953
 10
-4.000875587
 20
-3.7495979229
 10
-4.0334559429
 20
-3.7403280986
 10
-4.0663638555
 20
-3.7323018269
 10
-4.0995521092
 20
-3.7255350123
 10
-4.1329734886
 20
-3.7200435593
 10
-4.1665804285
 20
-3.715840458
 10
-4.2003239649
 20
-3.7129270416
 10
-4.234154784
 20
-3.7113017286
 10
-4.2680235723
 20
-3.7109629379
 10
-4.3018810158
 20
-3.711909088
 10
-4.335677801
 20
-3.7141385976
 10
-4.369364614
 20
-3.7176498856
 10
-4.4028921412
 20
-3.7224413705
 10
-4.4362110689
 20
-3.7285114712
 10
-4.4692726255
 20
-3.735855921
 10
-4.502030209
 20
-3.7444597129
 10
-4.5344377595
 20
-3.7543051544
 10
-4.566449217
 20
-3.7653745533
 10
-4.5980185217
 20
-3.7776502172
 10
-4.6290996137
 20
-3.7911144537
 10
-4.659646433
 20
-3.8057495705
 10
-4.6896129198
 20
-3.8215378752
 10
-4.7189530142
 20
-3.8384616756
 10
-4.7476221097
 20
-3.8565007292
 10
-4.7755814126
 20
-3.8756245941
 10
-4.8027935828
 20
-3.8958002783
 10
-4.8292212802
 20
-3.9169947897
 10
-4.8548271644
 20
-3.9391751365
 10
-4.8795738953
 20
-3.9623083266
 10
-4.9034241327
 20
-3.986361368
 10
-4.9263405364
 20
-4.0113012687
 10
-4.9482857662
 20
-4.0370950369
 10
-4.9692246549
 20
-4.0637084042
 10
-4.9891307277
 20
-4.0911019976
 10
-5.007979683
 20
-4.119235168
 10
-5.025747219
 20
-4.1480672661
 10
-5.0424090339
 20
-4.1775576426
 10
-5.0579408261
 20
-4.2076656483
 10
-5.0723182938
 20
-4.238350634
 10
-5.0855171352
 20
-4.2695719505
 10
-5.0975130487
 20
-4.3012889485
 10
-5.1082843783
 20
-4.3334581646
 10
-5.1178200516
 20
-4.3660248793
 10
-5.1261116417
 20
-4.3989315587
 10
-5.133150722
 20
-4.4321206689
 10
-5.1389288658
 20
-4.4655346762
 10
-5.1434376464
 20
-4.4991160468
 10
-5.146668637
 20
-4.5328072468
 10
-5.1486134109
 20
-4.5665507425
 10
-5.1492635415
 20
-4.600289
  0
LINE
  5
5F9
100
AcDbEntity
  8
0
100
AcDbLine
 62
250
  6
CONTINUOUS
 10
-3.8566261915
 20
3.763813985
 11
-3.8517658121
 21
3.7174608972
  0
LWPOLYLINE
  5
5FA
100
AcDbEntity
  8
0
100
AcDbPolyline
 62
250
  6
CONTINUOUS
 90
53
 70
0
 10
-3.3664215547
 20
3.5882200575
 10
-3.3700008531
 20
3.6948258614
 10
-3.3720274708
 20
3.7481210085
 10
-3.3746695158
 20
3.8013969153
 10
-3.377443088
 20
3.8439758624
 10
-3.3809301888
 20
3.8865062021
 10
-3.3852313827
 20
3.9289583793
 10
-3.3904472339
 20
3.9713028391
 10
-3.3966783065
 20
4.0135100265
 10
-3.4027217628
 20
4.0485966381
 10
-3.4095710399
 20
4.0835398425
 10
-3.4172552531
 20
4.1183123618
 10
-3.4258035182
 20
4.1528869186
 10
-3.4352449507
 20
4.1872362349
 10
-3.4456086661
 20
4.2213330331
 10
-3.4552496823
 20
4.2503226951
 10
-3.4656367698
 20
4.2790577062
 10
-3.4768174567
 20
4.3074888493
 10
-3.4888392707
 20
4.3355669076
 10
-3.5017497399
 20
4.363242664
 10
-3.515596392
 20
4.3904669015
 10
-3.5304267551
 20
4.4171904032
 10
-3.5442555413
 20
4.4401425663
 10
-3.5588734776
 20
4.4626213833
 10
-3.574278668
 20
4.484575368
 10
-3.5904692165
 20
4.5059530338
 10
-3.607443227
 20
4.5267028944
 10
-3.6251988037
 20
4.5467734634
 10
-3.6437340504
 20
4.5661132544
 10
-3.6630470712
 20
4.584670781
 10
-3.683107875
 20
4.6023841097
 10
-3.7038950095
 20
4.6192547416
 10
-3.7253604735
 20
4.6352720693
 10
-3.7474562656
 20
4.6504254852
 10
-3.7701343846
 20
4.6647043821
 10
-3.7933468292
 20
4.6780981526
 10
-3.817045598
 20
4.6905961892
 10
-3.8411826898
 20
4.7021878845
 10
-3.8657135593
 20
4.7128694219
 10
-3.8905993538
 20
4.7226606687
 10
-3.9158046338
 20
4.7315883841
 10
-3.9412939598
 20
4.7396793272
 10
-3.9670318921
 20
4.7469602571
 10
-3.9929829913
 20
4.753457933
 10
-4.0191118176
 20
4.7591991139
 10
-4.0453829316
 20
4.7642105591
 10
-4.0754956856
 20
4.7690729355
 10
-4.105723927
 20
4.7730645828
 10
-4.1360440018
 20
4.776230213
 10
-4.1664322561
 20
4.7786145378
 10
-4.196865036
 20
4.7802622694
 10
-4.2273186874
 20
4.7812181196
 10
-4.2577695565
 20
4.7815268003
  0
LINE
  5
5FB
100
AcDbEntity
  8
0
100
AcDbLine
 62
250
  6
CONTINUOUS
 10
-3.3710234474
 20
-7.84744
 11
-3.3710234474
 21
-7.285246
  0
LINE
  5
5FC
100
AcDbEntity
  8
0
100
AcDbLine
 62
250
  6
CONTINUOUS
 10
-3.3710234474
 20
-4.872178
 11
-3.3710304452
 21
-5.378409
  0
LINE
  5
5FD
100
AcDbEntity
  8
0
100
AcDbLine
 62
250
  6
CONTINUOUS
 10
-3.3664218494
 20
3.58822
 11
-3.3664218494
 21
3.323396
  0
LINE
  5
5FE
100
AcDbEntity
  8
0
100
AcDbLine
 62
250
  6
CONTINUOUS
 10
-3.346237999
 20
15.007869
 11
-3.346237999
 21
14.176491
  0
LINE
  5
5FF
100
AcDbEntity
  8
0
100
AcDbLine
 62
250
  6
CONTINUOUS
 10
-3.346237999
 20
8.982943
 11
-3.346237999
 21
8.151456
  0
LINE
  5
600
100
AcDbEntity
  8
0
100
AcDbLine
 62
250
  6
CONTINUOUS
 10
-2.8644517893
 20
7.990812
 11
-2.8644517893
 21
9.139549
  0
LINE
  5
601
100
AcDbEntity
  8
0
100
AcDbLine
 62
250
  6
CONTINUOUS
 10
-2.8644517893
 20
14.015846
 11
-2.8644517893
 21
15.164584
  0
LINE
  5
602
100
AcDbEntity
  8
0
100
AcDbLine
 62
250
  6
CONTINUOUS
 10
-2.8201692812
 20
-7.108317
 11
-2.8201692812
 21
-8.024362
  0
LINE
  5
603
100
AcDbEntity
  8
0
100
AcDbLine
 62
250
  6
CONTINUOUS
 10
-2.7317862097
 20
5.793739
 11
-2.7317862097
 21
6.866738
  0
LINE
  5
604
100
AcDbEntity
  8
0
100
AcDbLine
 62
250
  6
CONTINUOUS
 10
-2.25
 20
-15.068868
 11
-2.2500069979
 21
-14.488824
  0
LINE
  5
605
100
AcDbEntity
  8
0
100
AcDbLine
 62
250
  6
CONTINUOUS
 10
-2.25
 20
-13.171014
 11
-2.2500069979
 21
-12.590992
  0
LINE
  5
606
100
AcDbEntity
  8
0
100
AcDbLine
 62
250
  6
CONTINUOUS
 10
-2.2500069979
 20
-10.882587
 11
-2.2500149954
 21
-10.30258
  0
LINE
  5
607
100
AcDbEntity
  8
0
100
AcDbLine
 62
250
  6
CONTINUOUS
 10
-2.2500149954
 20
-8.207475
 11
-2.2500069979
 21
-8.787497
  0
LINE
  5
608
100
AcDbEntity
  8
0
100
AcDbLine
 62
250
  6
CONTINUOUS
 10
-2.2500219933
 20
-3.637619
 11
-2.2500149954
 21
-4.290924
  0
LINE
  5
609
100
AcDbEntity
  8
0
100
AcDbLine
 62
250
  6
CONTINUOUS
 10
-2.2500149954
 20
-5.378474
 11
-2.2500149954
 21
-5.958503
  0
LINE
  5
60A
100
AcDbEntity
  8
0
100
AcDbLine
 62
250
  6
CONTINUOUS
 10
-2.2500069979
 20
-12.010985
 11
-2.2500069979
 21
-11.430963
  0
LINE
  5
60B
100
AcDbEntity
  8
0
100
AcDbLine
 62
250
  6
CONTINUOUS
 10
-2.2500069979
 20
-9.754197
 11
-2.2500069979
 21
-9.174176
  0
LINE
  5
60C
100
AcDbEntity
  8
0
100
AcDbLine
 62
250
  6
CONTINUOUS
 10
-2.25
 20
12.911198
 11
-2.25
 21
12.027546
  0
LINE
  5
60D
100
AcDbEntity
  8
0
100
AcDbLine
 62
250
  6
CONTINUOUS
 10
-2.25
 20
10.87477
 11
-2.25
 21
10.292325
  0
LINE
  5
60E
100
AcDbEntity
  8
0
100
AcDbLine
 62
250
  6
CONTINUOUS
 10
-2.25
 20
6.866738
 11
-2.25
 21
5.171133
  0
LINE
  5
60F
100
AcDbEntity
  8
0
100
AcDbLine
 62
250
  6
CONTINUOUS
 10
-2.25
 20
2.70079
 11
-2.25
 21
3.323396
  0
LINE
  5
610
100
AcDbEntity
  8
0
100
AcDbLine
 62
250
  6
CONTINUOUS
 10
-2.25
 20
7.179514
 11
-2.25
 21
7.773964
  0
LINE
  5
611
100
AcDbEntity
  8
0
100
AcDbLine
 62
250
  6
CONTINUOUS
 10
-2.25
 20
9.348431
 11
-2.25
 21
9.975074
  0
LINE
  5
612
100
AcDbEntity
  8
0
100
AcDbLine
 62
250
  6
CONTINUOUS
 10
-2.25
 20
13.20444
 11
-2.25
 21
13.798889
  0
LINE
  5
613
100
AcDbEntity
  8
0
100
AcDbLine
 62
250
  6
CONTINUOUS
 10
-2.25
 20
15.373574
 11
-2.25
 21
16.0
  0
LINE
  5
614
100
AcDbEntity
  8
0
100
AcDbLine
 62
250
  6
CONTINUOUS
 10
-2.2500069979
 20
-6.345182
 11
-2.2500149954
 21
-6.925211
  0
LWPOLYLINE
  5
615
100
AcDbEntity
  8
RACCORDO
100
AcDbPolyline
 62
250
  6
CONTINUOUS
 90
8
 70
0
 10
-7.9985455672
 20
-24.495628166
 10
-7.9984716171
 20
-24.4952867588
 10
-7.9984017937
 20
-24.4942634962
 10
-7.9983362955
 20
-24.492559892
 10
-7.998275298
 20
-24.4901787618
 10
-7.998218991
 20
-24.4871256484
 10
-7.9981675687
 20
-24.4834102087
 10
-7.9980439717
 20
-24.4684044791
  0
LWPOLYLINE
  5
616
100
AcDbEntity
  8
RACCORDO
100
AcDbPolyline
 62
250
  6
CONTINUOUS
 90
64
 70
0
 10
7.0217736054
 20
16.6756171588
 10
7.0334176506
 20
16.6961918289
 10
7.0730991267
 20
16.7548002481
 10
7.118592205
 20
16.812170059
 10
7.1700474891
 20
16.868444303
 10
7.2273143754
 20
16.9234799388
 10
7.2899410521
 20
16.9768478424
 10
7.3579689993
 20
17.0285352692
 10
7.431356737
 20
17.0785549637
 10
7.509528014
 20
17.126516036
 10
7.5925158171
 20
17.1724004203
 10
7.6802871595
 20
17.2162261823
 10
7.7721668295
 20
17.2576566294
 10
7.8681836159
 20
17.2966736753
 10
7.9683087299
 20
17.3332954064
 10
8.0717805943
 20
17.3672393889
 10
8.1786429688
 20
17.3984888788
 10
8.2888520936
 20
17.4270606201
 10
8.4015151125
 20
17.4527224111
 10
8.5166636145
 20
17.4754481642
 10
8.6342660105
 20
17.495263967
 10
8.7533346769
 20
17.5120158804
 10
8.8738102226
 20
17.5256748667
 10
8.9957520387
 20
17.5362699636
 10
9.1183506754
 20
17.5437343452
 10
9.241579669
 20
17.5480614343
 10
9.3654654832
 20
17.549257808
 10
9.489278059
 20
17.5472763719
 10
9.6132824391
 20
17.5420678643
 10
9.7372135809
 20
17.5336815469
 10
9.8595462973
 20
17.5222181107
 10
9.9805296573
 20
17.5075154413
 10
10.0999145919
 20
17.489735653
 10
10.2154287074
 20
17.4694657795
 10
10.3268003616
 20
17.4465888492
 10
10.4343011966
 20
17.4212218338
 10
10.536473745
 20
17.3943026815
 10
10.6328794685
 20
17.3658618928
 10
10.7239569053
 20
17.3358689673
 10
10.8095642031
 20
17.3051703518
 10
10.8894962421
 20
17.2738346689
 10
10.9639581419
 20
17.2417932962
 10
11.0334234098
 20
17.2096868127
 10
11.0978079414
 20
17.1775876995
 10
11.1571958411
 20
17.1454234757
 10
11.2123129286
 20
17.1136172773
 10
11.2631301983
 20
17.0822423574
 10
11.3096766559
 20
17.0512254629
 10
11.3527651376
 20
17.0207699716
 10
11.392429915
 20
16.9909164179
 10
11.4286367165
 20
16.9616242672
 10
11.462095564
 20
16.9329752942
 10
11.4928451388
 20
16.9049989581
 10
11.5208467595
 20
16.8776657995
 10
11.5466944036
 20
16.8509692149
 10
11.5704259962
 20
16.8249308466
 10
11.5920036122
 20
16.7995290523
 10
11.6119074539
 20
16.7746923008
 10
11.6301720691
 20
16.7504356308
 10
11.6467629101
 20
16.7267440037
 10
11.6620565356
 20
16.7035007719
 10
11.6761784653
 20
16.6806670531
 10
11.6890031795
 20
16.6582817296
 10
11.7005306782
 20
16.6363448016
  0
LWPOLYLINE
  5
617
100
AcDbEntity
  8
RACCORDO
100
AcDbPolyline
 62
250
  6
CONTINUOUS
 90
10
 70
0
 10
6.9312670449
 20
16.7054953468
 10
6.942450587
 20
16.7226651672
 10
6.9899080428
 20
16.7844529291
 10
7.0437047822
 20
16.8449297766
 10
7.1036962501
 20
16.90393275
 10
7.1697199843
 20
16.9613020074
 10
7.2415990184
 20
17.0168838968
 10
7.3191397215
 20
17.0705287967
 10
7.4021299479
 20
17.1220904831
 10
7.4963720251
 20
17.1746194326
  0
LINE
  5
618
100
AcDbEntity
  8
0
100
AcDbLine
 62
7
  6
CONTINUOUS
 10
-2.4663654775
 20
2.70079
 11
-2.25
 21
2.9171554775
  0
LINE
  5
619
100
AcDbEntity
  8
0
100
AcDbLine
 62
7
  6
CONTINUOUS
 10
-2.2563547635
 20
2.70079
 11
-2.25
 21
2.7071447635
  0
LINE
  5
61A
100
AcDbEntity
  8
0
100
AcDbLine
 62
250
  6
CONTINUOUS
 10
11.9503959624
 20
11.547866
 11
12.7471182177
 21
12.023604
  0
LWPOLYLINE
  5
61B
100
AcDbEntity
  8
0
100
AcDbPolyline
 62
250
  6
CONTINUOUS
 90
3
 70
0
 10
-3.8517658121
 20
3.7174608972
 10
-3.8500565603
 20
3.7020250568
 10
-3.8482076962
 20
3.6866121309
  0
LWPOLYLINE
  5
61C
100
AcDbEntity
  8
0
100
AcDbPolyline
 62
250
  6
CONTINUOUS
 90
56
 70
0
 10
0.6228836679
 20
-13.6569273296
 10
0.6239019821
 20
-13.6813787808
 10
0.6251722131
 20
-13.7053391976
 10
0.6266734837
 20
-13.7287968032
 10
0.6283849163
 20
-13.751739821
 10
0.6302856336
 20
-13.7741564742
 10
0.6323569134
 20
-13.7960432943
 10
0.6345886542
 20
-13.8174300452
 10
0.6369729095
 20
-13.8383547989
 10
0.6395017332
 20
-13.8588556275
 10
0.6421671787
 20
-13.878970603
 10
0.6456796113
 20
-13.9036214237
 10
0.6493812199
 20
-13.9277534372
 10
0.6532601248
 20
-13.9513912444
 10
0.6573044464
 20
-13.9745594461
 10
0.6615066468
 20
-13.9972863087
 10
0.6658765549
 20
-14.0196147608
 10
0.6704283415
 20
-14.0415913966
 10
0.6751761774
 20
-14.0632628104
 10
0.6818452365
 20
-14.0917612178
 10
0.6889765296
 20
-14.1198949622
 10
0.6966585667
 20
-14.1477591636
 10
0.7049730087
 20
-14.175434521
 10
0.7139741208
 20
-14.2029440495
 10
0.7237093197
 20
-14.2302963436
 10
0.7342166973
 20
-14.2574938778
 10
0.7454970481
 20
-14.2845146481
 10
0.7575418421
 20
-14.3113305309
 10
0.7670735377
 20
-14.3312844171
 10
0.7770362301
 20
-14.3510554691
 10
0.7874357149
 20
-14.3705919215
 10
0.7982777878
 20
-14.389842009
 10
0.8095688494
 20
-14.4087502092
 10
0.8213177209
 20
-14.4272459723
 10
0.8335338282
 20
-14.4452549913
 10
0.8462265974
 20
-14.4627029594
 10
0.856736029
 20
-14.4762097351
 10
0.8675954951
 20
-14.489285589
 10
0.8788439338
 20
-14.5019062284
 10
0.8905202832
 20
-14.5140473607
 10
0.9026634816
 20
-14.5256846931
 10
0.9116449779
 20
-14.5336703161
 10
0.9209010478
 20
-14.5413485411
 10
0.9304482102
 20
-14.5486814049
 10
0.940302984
 20
-14.5556309446
 10
0.9504818883
 20
-14.562159197
 10
0.9610014418
 20
-14.5682281991
 10
0.9718781637
 20
-14.5737999878
 10
0.9816991063
 20
-14.5782346984
 10
0.9918042309
 20
-14.5822168909
 10
1.0021916153
 20
-14.5857037917
 10
1.0128593373
 20
-14.5886526272
 10
1.0238054746
 20
-14.5910206237
 10
1.0350281051
 20
-14.5927650076
 10
1.0465253065
 20
-14.5938430052
 10
1.0582951565
 20
-14.594211843
  0
LINE
  5
61D
100
AcDbEntity
  8
ASSI
100
AcDbLine
 62
250
  6
CONTINUOUS
 10
-1.1675565528
 20
23.7495140557
 11
-1.1675565528
 21
22.3338290185
  0
LINE
  5
61E
100
AcDbEntity
  8
ASSI
100
AcDbLine
 62
250
  6
CONTINUOUS
 10
-1.1675565528
 20
-22.3338290185
 11
-1.1675565528
 21
-23.7495140557
  0
LINE
  5
61F
100
AcDbEntity
  8
0
100
AcDbLine
 62
250
  6
CONTINUOUS
 10
-0.7510661339
 20
12.9071428895
 11
-0.7510661339
 21
12.5
  0
LINE
  5
620
100
AcDbEntity
  8
0
100
AcDbLine
 62
250
  6
CONTINUOUS
 10
-0.7510661339
 20
13.721428442
 11
-0.7510661339
 21
14.535714221
  0
LINE
  5
621
100
AcDbEntity
  8
0
100
AcDbLine
 62
250
  6
CONTINUOUS
 10
-0.7510661339
 20
15.485714221
 11
-0.7510661339
 21
15.621428442
  0
LINE
  5
622
100
AcDbEntity
  8
ASSI
100
AcDbLine
 62
7
  6
CONTINUOUS
 10
-0.75
 20
23.2563578147
 11
-0.75
 21
22.3301850577
  0
LINE
  5
623
100
AcDbEntity
  8
ASSI
100
AcDbLine
 62
7
  6
CONTINUOUS
 10
-0.75
 20
-22.3301850577
 11
-0.75
 21
-23.2563578147
  0
LINE
  5
624
100
AcDbEntity
  8
0
100
AcDbLine
 62
250
  6
CONTINUOUS
 10
0.0630955122
 20
14.264285779
 11
0.0630955122
 21
13.721428442
  0
LINE
  5
625
100
AcDbEntity
  8
0
100
AcDbLine
 62
7
  6
CONTINUOUS
 10
9.0
 20
16.8814422699
 11
8.854159937
 21
16.6363448016
  0
LINE
  5
626
100
AcDbEntity
  8
0
100
AcDbLine
 62
250
  6
CONTINUOUS
 10
11.9503959624
 20
-0.32
 11
13.25
 21
-0.32
  0
LINE
  5
627
100
AcDbEntity
  8
0
100
AcDbLine
 62
250
  6
CONTINUOUS
 10
0.663677
 20
-14.18241
 11
0.663677
 21
-14.281784
  0
LINE
  5
628
100
AcDbEntity
  8
0
100
AcDbLine
 62
250
  6
CONTINUOUS
 10
0.7415636355
 20
11.685714221
 11
0.7415636355
 21
10.7357143342
  0
LINE
  5
629
100
AcDbEntity
  8
0
100
AcDbLine
 62
250
  6
CONTINUOUS
 10
1.058295
 20
-12.372066
 11
1.058295
 21
-14.809973
  0
LINE
  5
62A
100
AcDbEntity
  8
0
100
AcDbLine
 62
250
  6
CONTINUOUS
 10
1.1486444869
 20
15.621428442
 11
1.1486444869
 21
15.485714221
  0
LINE
  5
62B
100
AcDbEntity
  8
0
100
AcDbLine
 62
250
  6
CONTINUOUS
 10
1.1486444869
 20
13.1785713315
 11
1.1486444869
 21
12.2285713315
  0
LINE
  5
62C
100
AcDbEntity
  8
0
100
AcDbLine
 62
250
  6
CONTINUOUS
 10
1.1486444869
 20
13.721428442
 11
1.1486444869
 21
14.264285779
  0
LINE
  5
62D
100
AcDbEntity
  8
0
100
AcDbLine
 62
250
  6
CONTINUOUS
 10
1.421205
 20
-12.082053
 11
1.421205
 21
-12.432113
  0
LINE
  5
62E
100
AcDbEntity
  8
RACCORDO
100
AcDbLine
 62
250
  6
CONTINUOUS
 10
1.7587262032
 20
21.5659754333
 11
1.7587262032
 21
20.9917082642
  0
LINE
  5
62F
100
AcDbEntity
  8
RACCORDO
100
AcDbLine
 62
250
  6
CONTINUOUS
 10
1.7587262032
 20
-20.9917082642
 11
1.7587262032
 21
-21.5659754333
  0
LINE
  5
630
100
AcDbEntity
  8
0
100
AcDbLine
 62
250
  6
CONTINUOUS
 10
1.793669
 20
-12.432113
 11
1.793669
 21
-12.082053
  0
LINE
  5
631
100
AcDbEntity
  8
0
100
AcDbLine
 62
250
  6
CONTINUOUS
 10
1.886085
 20
-12.88859
 11
1.886085
 21
-13.71193
  0
LINE
  5
632
100
AcDbEntity
  8
0
100
AcDbLine
 62
250
  6
CONTINUOUS
 10
2.101721
 20
-13.71193
 11
2.101721
 21
-12.88859
  0
LINE
  5
633
100
AcDbEntity
  8
ASSI
100
AcDbLine
 62
7
  6
CONTINUOUS
 10
2.25
 20
-20.85
 11
2.25
 21
-19.3181305591
  0
LINE
  5
634
100
AcDbEntity
  8
RACCORDO
100
AcDbLine
 62
7
  6
CONTINUOUS
 10
2.25
 20
-21.3126932437
 11
2.25
 21
-19.3181305591
  0
LINE
  5
635
100
AcDbEntity
  8
RACCORDO
100
AcDbLine
 62
7
  6
CONTINUOUS
 10
2.25
 20
14.2432004109
 11
2.25
 21
17.5993978025
  0
LINE
  5
636
100
AcDbEntity
  8
ASSI
100
AcDbLine
 62
7
  6
CONTINUOUS
 10
2.25
 20
14.2432004109
 11
2.25
 21
20.85
  0
LINE
  5
637
100
AcDbEntity
  8
0
100
AcDbLine
 62
7
  6
CONTINUOUS
 10
2.25
 20
17.5993978025
 11
2.25
 21
20.85
  0
LINE
  5
638
100
AcDbEntity
  8
RACCORDO
100
AcDbLine
 62
7
  6
CONTINUOUS
 10
2.25
 20
20.85
 11
2.25
 21
21.3126932437
  0
LINE
  5
639
100
AcDbEntity
  8
0
100
AcDbLine
 62
250
  6
CONTINUOUS
 10
0.571261
 20
-13.083924
 11
0.570703
 21
-13.656927
  0
LINE
  5
63A
100
AcDbEntity
  8
0
100
AcDbLine
 62
250
  6
CONTINUOUS
 10
0.788197
 20
-13.656927
 11
0.788755
 21
-13.083924
  0
LINE
  5
63B
100
AcDbEntity
  8
0
100
AcDbLine
 62
250
  6
CONTINUOUS
 10
-3.4407542019
 20
-4.255022
 11
-2.2500219933
 21
-3.637619
  0
LINE
  5
63C
100
AcDbEntity
  8
0
100
AcDbLine
 62
250
  6
CONTINUOUS
 10
13.25
 20
0.925736
 11
11.9503959624
 21
0.925736
  0
LWPOLYLINE
  5
63D
100
AcDbEntity
  8
RACCORDO
100
AcDbPolyline
 62
250
  6
CONTINUOUS
 90
5
 70
0
 10
-7.8774956025
 20
-23.6326765842
 10
-7.8763632264
 20
-23.6305857918
 10
-7.8755685409
 20
-23.6290788219
 10
-7.8751137181
 20
-23.6281597935
 10
-7.875
 20
-23.6278312164
  0
LINE
  5
63E
100
AcDbEntity
  8
0
100
AcDbLine
 62
250
  6
CONTINUOUS
 10
13.25
 20
6.955181
 11
11.9503959624
 21
5.923056
  0
LINE
  5
63F
100
AcDbEntity
  8
0
100
AcDbLine
 62
250
  6
CONTINUOUS
 10
-2.2500149954
 20
-4.290924
 11
-3.3710234474
 21
-4.872178
  0
LINE
  5
640
100
AcDbEntity
  8
0
100
AcDbLine
 62
250
  6
CONTINUOUS
 10
13.25
 20
2.240224
 11
11.9503959624
 21
1.66989
  0
LINE
  5
641
100
AcDbEntity
  8
0
100
AcDbLine
 62
250
  6
CONTINUOUS
 10
11.9503959624
 20
2.410407
 11
13.25
 21
2.410407
  0
LINE
  5
642
100
AcDbEntity
  8
0
100
AcDbLine
 62
250
  6
CONTINUOUS
 10
-5.1491176989
 20
2.70079
 11
-2.25
 21
2.70079
  0
LINE
  5
643
100
AcDbEntity
  8
0
100
AcDbLine
 62
250
  6
CONTINUOUS
 10
-2.25
 20
3.323396
 11
-3.3664218494
 21
3.323396
  0
LINE
  5
644
100
AcDbEntity
  8
0
100
AcDbLine
 62
250
  6
CONTINUOUS
 10
-3.8482080591
 20
3.323396
 11
-4.6673314892
 21
3.323396
  0
LINE
  5
645
100
AcDbEntity
  8
0
100
AcDbLine
 62
250
  6
CONTINUOUS
 10
11.9503959624
 20
3.726755
 11
13.25
 21
3.726755
  0
LWPOLYLINE
  5
646
100
AcDbEntity
  8
0
100
AcDbPolyline
 62
250
  6
CONTINUOUS
 90
53
 70
0
 10
-4.2577695565
 20
4.1187598859
 10
-4.2446634736
 20
4.1186645203
 10
-4.2315288259
 20
4.118365796
 10
-4.2183794957
 20
4.1178447717
 10
-4.2052293651
 20
4.1170825061
 10
-4.1920923165
 20
4.1160600579
 10
-4.178982232
 20
4.1147584859
 10
-4.1659129938
 20
4.1131588488
 10
-4.1528984843
 20
4.1112422052
 10
-4.1399525856
 20
4.1089896139
 10
-4.12708918
 20
4.1063821336
 10
-4.1143221498
 20
4.103400823
 10
-4.101665377
 20
4.1000267408
 10
-4.0891327441
 20
4.0962409458
 10
-4.0775345029
 20
4.0923141379
 10
-4.0660651513
 20
4.0880169238
 10
-4.0547328274
 20
4.0833556651
 10
-4.0435456689
 20
4.0783367237
 10
-4.0325118138
 20
4.0729664611
 10
-4.0216393999
 20
4.0672512393
 10
-4.0109365651
 20
4.0611974199
 10
-4.0027326785
 20
4.0562543208
 10
-3.9946555848
 20
4.0511022627
 10
-3.9867244514
 20
4.0457334888
 10
-3.9789584455
 20
4.0401402428
 10
-3.9713767343
 20
4.0343147679
 10
-3.9639984852
 20
4.0282493076
 10
-3.9568428655
 20
4.0219361053
 10
-3.9499290424
 20
4.0153674044
 10
-3.9432761832
 20
4.0085354483
 10
-3.9369490516
 20
4.001493113
 10
-3.9308982276
 20
3.9942009963
 10
-3.9251242455
 20
3.9866761124
 10
-3.9196276396
 20
3.9789354759
 10
-3.9144089441
 20
3.9709961011
 10
-3.9094686933
 20
3.9628750024
 10
-3.9048074215
 20
3.9545891942
 10
-3.9004256628
 20
3.9461556907
 10
-3.8963239515
 20
3.9375915065
 10
-3.892009329
 20
3.9277426683
 10
-3.8880360124
 20
3.9177618517
 10
-3.8843845894
 20
3.907663209
 10
-3.8810356475
 20
3.8974608925
 10
-3.8779697741
 20
3.8871690543
 10
-3.8751675569
 20
3.8768018468
 10
-3.8726095834
 20
3.8663734222
 10
-3.8702764411
 20
3.8558979327
 10
-3.8672573591
 20
3.8406695016
 10
-3.8646119329
 20
3.8253812571
 10
-3.8622831329
 20
3.8100423913
 10
-3.8602139292
 20
3.794662096
 10
-3.858347292
 20
3.7792495632
 10
-3.8566261915
 20
3.763813985
  0
LINE
  5
647
100
AcDbEntity
  8
0
100
AcDbLine
 62
250
  6
CONTINUOUS
 10
4.420516
 20
-12.928959
 11
4.420516
 21
-14.274826
  0
LINE
  5
648
100
AcDbEntity
  8
0
100
AcDbLine
 62
250
  6
CONTINUOUS
 10
4.616964
 20
-14.218117
 11
4.616964
 21
-14.100497
  0
LINE
  5
649
100
AcDbEntity
  8
0
100
AcDbLine
 62
250
  6
CONTINUOUS
 10
6.230988
 20
-11.407638
 11
6.230988
 21
-15.592362
  0
LWPOLYLINE
  5
64A
100
AcDbEntity
  8
ASSI
100
AcDbPolyline
 62
7
  6
CONTINUOUS
 90
22
 70
0
 10
6.0
 20
17.2456714755
 10
6.0076044017
 20
17.3478556014
 10
6.0303755365
 20
17.4494745529
 10
6.0681874693
 20
17.5499663778
 10
6.1208310824
 20
17.6487753092
 10
6.1880152321
 20
17.7453548876
 10
6.2693683584
 20
17.8391709824
 10
6.3644405404
 20
17.9297047468
 10
6.4727059843
 20
18.0164554865
 10
6.5935659317
 20
18.0989434294
 10
6.7263519702
 20
18.1767123784
 10
6.8703297308
 20
18.2493322349
 10
7.0247029491
 20
18.3164013768
 10
7.1886178688
 20
18.3775488806
 10
7.3611679635
 20
18.4324365718
 10
7.5413989503
 20
18.4807608957
 10
7.7283140675
 20
18.5222545962
 10
7.9208795868
 20
18.5566881936
 10
8.1180305306
 20
18.5838712541
 10
8.3186765618
 20
18.6036534426
 10
8.5217080137
 20
18.6159253543
 10
8.7260020274
 20
18.6206191198
  0
LWPOLYLINE
  5
64B
100
AcDbEntity
  8
0
100
AcDbPolyline
 62
7
  6
CONTINUOUS
 90
22
 70
0
 10
6.0
 20
17.2456714755
 10
6.0076044017
 20
17.3478556014
 10
6.0303755365
 20
17.4494745529
 10
6.0681874693
 20
17.5499663778
 10
6.1208310824
 20
17.6487753092
 10
6.1880152321
 20
17.7453548876
 10
6.2693683584
 20
17.8391709824
 10
6.3644405404
 20
17.9297047468
 10
6.4727059843
 20
18.0164554865
 10
6.5935659317
 20
18.0989434294
 10
6.7263519702
 20
18.1767123784
 10
6.8703297308
 20
18.2493322349
 10
7.0247029491
 20
18.3164013768
 10
7.1886178688
 20
18.3775488806
 10
7.3611679635
 20
18.4324365718
 10
7.5413989503
 20
18.4807608957
 10
7.7283140675
 20
18.5222545962
 10
7.9208795868
 20
18.5566881936
 10
8.1180305306
 20
18.5838712541
 10
8.3186765618
 20
18.6036534426
 10
8.5217080137
 20
18.6159253543
 10
8.7260020274
 20
18.6206191198
  0
LINE
  5
64C
100
AcDbEntity
  8
RACCORDO
100
AcDbLine
 62
250
  6
CONTINUOUS
 10
-7.8807601528
 20
-23.6385852371
 11
-7.8774956025
 21
-23.6326765842
  0
LINE
  5
64D
100
AcDbEntity
  8
RACCORDO
100
AcDbLine
 62
250
  6
CONTINUOUS
 10
-7.8880830102
 20
-23.6516334796
 11
-7.8807601528
 21
-23.6385852371
  0
LINE
  5
64E
100
AcDbEntity
  8
RACCORDO
100
AcDbLine
 62
250
  6
CONTINUOUS
 10
-7.9107202658
 20
-23.6914794042
 11
-7.8880830102
 21
-23.6516334796
  0
LINE
  5
64F
100
AcDbEntity
  8
RACCORDO
100
AcDbLine
 62
250
  6
CONTINUOUS
 10
-7.985524131
 20
-23.821769291
 11
-7.9107202658
 21
-23.6914794042
  0
LINE
  5
650
100
AcDbEntity
  8
RACCORDO
100
AcDbLine
 62
250
  6
CONTINUOUS
 10
-7.9985455672
 20
-23.8443375673
 11
-7.985524131
 21
-23.821769291
  0
LINE
  5
651
100
AcDbEntity
  8
0
100
AcDbLine
 62
250
  6
CONTINUOUS
 10
13.25
 20
0.302869
 11
11.9503959624
 21
-0.32
  0
LINE
  5
652
100
AcDbEntity
  8
0
100
AcDbLine
 62
250
  6
CONTINUOUS
 10
-5.149261655
 20
-7.276321
 11
-2.2500069979
 21
-6.345182
  0
LINE
  5
653
100
AcDbEntity
  8
0
100
AcDbLine
 62
250
  6
CONTINUOUS
 10
-3.3710234474
 20
-7.285246
 11
-4.24629577
 21
-7.56635
  0
LINE
  5
654
100
AcDbEntity
  8
0
100
AcDbLine
 62
250
  6
CONTINUOUS
 10
-2.2500149954
 20
-6.925211
 11
-2.8201692812
 21
-7.108317
  0
LINE
  5
655
100
AcDbEntity
  8
ASSI
100
AcDbLine
 62
7
  6
CONTINUOUS
 10
16.5238532772
 20
7.0739590572
 11
17.9761467228
 21
7.2010182698
  0
LINE
  5
656
100
AcDbEntity
  8
DRAFT
100
AcDbLine
 62
7
  6
CONTINUOUS
 10
16.5238532772
 20
7.0739590572
 11
17.9761467228
 21
7.2010182698
  0
LWPOLYLINE
  5
657
100
AcDbEntity
  8
0
100
AcDbPolyline
 62
250
  6
CONTINUOUS
 90
52
 70
0
 10
-4.2577695565
 20
4.7815268003
 10
-4.2882204255
 20
4.7812181196
 10
-4.318674077
 20
4.7802622694
 10
-4.3491068568
 20
4.7786145378
 10
-4.3794951111
 20
4.776230213
 10
-4.4098151859
 20
4.7730645828
 10
-4.4400434273
 20
4.7690729355
 10
-4.4701561813
 20
4.7642105591
 10
-4.4964272953
 20
4.7591991139
 10
-4.5225561217
 20
4.753457933
 10
-4.5485072208
 20
4.7469602571
 10
-4.5742451532
 20
4.7396793272
 10
-4.5997344791
 20
4.7315883841
 10
-4.6249397592
 20
4.7226606687
 10
-4.6498255537
 20
4.7128694219
 10
-4.6743564231
 20
4.7021878845
 10
-4.6984935149
 20
4.6905961892
 10
-4.7221922837
 20
4.6780981526
 10
-4.7454047283
 20
4.6647043821
 10
-4.7680828473
 20
4.6504254852
 10
-4.7901786395
 20
4.6352720693
 10
-4.8116441035
 20
4.6192547416
 10
-4.832431238
 20
4.6023841097
 10
-4.8524920417
 20
4.584670781
 10
-4.8718050625
 20
4.5661132544
 10
-4.8903403093
 20
4.5467734634
 10
-4.9080958859
 20
4.5267028944
 10
-4.9250698965
 20
4.5059530338
 10
-4.941260445
 20
4.484575368
 10
-4.9566656354
 20
4.4626213833
 10
-4.9712835717
 20
4.4401425663
 10
-4.9851123579
 20
4.4171904032
 10
-4.9999427209
 20
4.3904669015
 10
-5.0137893731
 20
4.363242664
 10
-5.0266998422
 20
4.3355669076
 10
-5.0387216563
 20
4.3074888493
 10
-5.0499023431
 20
4.2790577062
 10
-5.0602894307
 20
4.2503226951
 10
-5.0699304468
 20
4.2213330331
 10
-5.0802941623
 20
4.1872362349
 10
-5.0897355947
 20
4.1528869186
 10
-5.0982838598
 20
4.1183123618
 10
-5.1059680731
 20
4.0835398425
 10
-5.1128173501
 20
4.0485966381
 10
-5.1188608064
 20
4.0135100265
 10
-5.1250918791
 20
3.9713028391
 10
-5.1303077302
 20
3.9289583793
 10
-5.1346089241
 20
3.8865062021
 10
-5.138096025
 20
3.8439758624
 10
-5.1408695971
 20
3.8013969153
 10
-5.1435116421
 20
3.7481210085
 10
-5.1455382599
 20
3.6948258614
  0
LINE
  5
658
100
AcDbEntity
  8
0
100
AcDbLine
 62
250
  6
CONTINUOUS
 10
-2.25
 20
5.171133
 11
-5.1491176989
 21
5.171133
  0
LINE
  5
659
100
AcDbEntity
  8
0
100
AcDbLine
 62
250
  6
CONTINUOUS
 10
11.9503959624
 20
5.534728
 11
13.25
 21
5.534728
  0
LINE
  5
65A
100
AcDbEntity
  8
0
100
AcDbLine
 62
250
  6
CONTINUOUS
 10
-5.1491176989
 20
5.793739
 11
-2.7317862097
 21
5.793739
  0
LINE
  5
65B
100
AcDbEntity
  8
0
100
AcDbLine
 62
250
  6
CONTINUOUS
 10
11.9503959624
 20
5.923056
 11
13.25
 21
5.923056
  0
LINE
  5
65C
100
AcDbEntity
  8
0
100
AcDbLine
 62
250
  6
CONTINUOUS
 10
-5.1491176989
 20
8.227849
 11
-2.25
 21
7.179514
  0
LINE
  5
65D
100
AcDbEntity
  8
0
100
AcDbLine
 62
250
  6
CONTINUOUS
 10
11.9503959624
 20
1.66989
 11
13.25
 21
1.099557
  0
LINE
  5
65E
100
AcDbEntity
  8
0
100
AcDbLine
 62
250
  6
CONTINUOUS
 10
11.9503959624
 20
0.925736
 11
13.25
 21
0.302869
  0
LINE
  5
65F
100
AcDbEntity
  8
RACCORDO
100
AcDbLine
 62
250
  6
CONTINUOUS
 10
-7.9985455672
 20
23.8443375673
 11
-7.9154133244
 21
23.6996987826
  0
LINE
  5
660
100
AcDbEntity
  8
RACCORDO
100
AcDbLine
 62
250
  6
CONTINUOUS
 10
-7.9154133244
 20
23.6996987826
 11
-7.8911450965
 21
23.6570529269
  0
LINE
  5
661
100
AcDbEntity
  8
RACCORDO
100
AcDbLine
 62
250
  6
CONTINUOUS
 10
-7.8911450965
 20
23.6570529269
 11
-7.8828834305
 21
23.6423869945
  0
LWPOLYLINE
  5
662
100
AcDbEntity
  8
RACCORDO
100
AcDbPolyline
 62
250
  6
CONTINUOUS
 90
7
 70
0
 10
-7.8828834305
 20
23.6423869945
 10
-7.8789625773
 20
23.6353454907
 10
-7.8774956025
 20
23.6326765842
 10
-7.8763632264
 20
23.6305857918
 10
-7.8755685409
 20
23.6290788219
 10
-7.8751137181
 20
23.6281597935
 10
-7.875
 20
23.6278312164
  0
LINE
  5
663
100
AcDbEntity
  8
ASSI
100
AcDbLine
 62
7
  6
CONTINUOUS
 10
6.006031229
 20
17.164626777
 11
6.0
 21
17.2456714755
  0
LINE
  5
664
100
AcDbEntity
  8
0
100
AcDbLine
 62
7
  6
CONTINUOUS
 10
6.006031229
 20
17.164626777
 11
6.0
 21
17.2456714755
  0
LINE
  5
665
100
AcDbEntity
  8
0
100
AcDbLine
 62
250
  6
CONTINUOUS
 10
7.25
 20
-15.592362
 11
7.25
 21
-11.407638
  0
LINE
  5
666
100
AcDbEntity
  8
0
100
AcDbLine
 62
250
  6
CONTINUOUS
 10
-2.7317862097
 20
6.866738
 11
-2.25
 21
6.866738
  0
LINE
  5
667
100
AcDbEntity
  8
0
100
AcDbLine
 62
250
  6
CONTINUOUS
 10
11.9503959624
 20
6.955181
 11
13.25
 21
6.955181
  0
LINE
  5
668
100
AcDbEntity
  8
0
100
AcDbLine
 62
250
  6
CONTINUOUS
 10
11.9503959624
 20
7.848712
 11
13.25
 21
7.848712
  0
LINE
  5
669
100
AcDbEntity
  8
0
100
AcDbLine
 62
250
  6
CONTINUOUS
 10
-3.346237999
 20
8.151456
 11
-4.5951264885
 21
8.581471
  0
LINE
  5
66A
100
AcDbEntity
  8
0
100
AcDbLine
 62
250
  6
CONTINUOUS
 10
-2.25
 20
7.773964
 11
-2.8644517893
 21
7.990812
  0
LINE
  5
66B
100
AcDbEntity
  8
0
100
AcDbLine
 62
250
  6
CONTINUOUS
 10
-0.2082917032
 20
9.65
 11
-0.7510661339
 21
10.1928571671
  0
LINE
  5
66C
100
AcDbEntity
  8
ASSI
100
AcDbLine
 62
250
  6
CONTINUOUS
 10
8.7260020274
 20
18.6206191198
 11
8.7221737129
 21
19.4980069565
  0
LINE
  5
66D
100
AcDbEntity
  8
0
100
AcDbLine
 62
250
  6
CONTINUOUS
 10
8.7260020274
 20
18.6206191198
 11
8.7221737129
 21
19.4980069565
  0
LINE
  5
66E
100
AcDbEntity
  8
ASSI
100
AcDbLine
 62
250
  6
CONTINUOUS
 10
8.7260020274
 20
18.1249141281
 11
8.7260020274
 21
18.6206191198
  0
LINE
  5
66F
100
AcDbEntity
  8
0
100
AcDbLine
 62
250
  6
CONTINUOUS
 10
8.7260020274
 20
18.1249141281
 11
8.7260020274
 21
18.6206191198
  0
LINE
  5
670
100
AcDbEntity
  8
0
100
AcDbLine
 62
7
  6
CONTINUOUS
 10
8.854159937
 20
16.6363448016
 11
8.854159937
 21
16.4253214401
  0
LINE
  5
671
100
AcDbEntity
  8
0
100
AcDbLine
 62
7
  6
CONTINUOUS
 10
9.0
 20
16.42419522
 11
9.0
 21
17.3813448016
  0
LINE
  5
672
100
AcDbEntity
  8
ASSI
100
AcDbLine
 62
250
  6
CONTINUOUS
 10
9.7
 20
18.1242567237
 11
9.7
 21
17.8293800405
  0
LINE
  5
673
100
AcDbEntity
  8
DRAFT
100
AcDbLine
 62
250
  6
CONTINUOUS
 10
9.7
 20
18.1242567237
 11
9.7
 21
17.8293800405
  0
LINE
  5
674
100
AcDbEntity
  8
ASSI
100
AcDbLine
 62
7
  6
CONTINUOUS
 10
9.7
 20
17.8293800405
 11
9.7
 21
17.6912440218
  0
LINE
  5
675
100
AcDbEntity
  8
DRAFT
100
AcDbLine
 62
7
  6
CONTINUOUS
 10
9.7
 20
17.8293800405
 11
9.7
 21
17.6912440218
  0
LINE
  5
676
100
AcDbEntity
  8
0
100
AcDbLine
 62
7
  6
CONTINUOUS
 10
9.7
 20
16.4187896131
 11
9.7
 21
17.3813448016
  0
LINE
  5
677
100
AcDbEntity
  8
0
100
AcDbLine
 62
7
  6
CONTINUOUS
 10
9.845840063
 20
16.6363448016
 11
9.845840063
 21
16.4176633931
  0
LINE
  5
678
100
AcDbEntity
  8
0
100
AcDbLine
 62
250
  6
CONTINUOUS
 10
10.317512
 20
-10.8581264558
 11
10.317512
 21
-9.36959
  0
LWPOLYLINE
  5
679
100
AcDbEntity
  8
0
100
AcDbPolyline
 62
250
  6
CONTINUOUS
 90
34
 70
0
 10
0.9051124099
 20
-12.396457109
 10
0.8923532565
 20
-12.4094851909
 10
0.8800139172
 20
-12.4228196107
 10
0.8680816019
 20
-12.4364513522
 10
0.8565435203
 20
-12.450371399
 10
0.8453868822
 20
-12.4645707346
 10
0.8345988975
 20
-12.4790403428
 10
0.8241680956
 20
-12.4937700246
 10
0.8140882847
 20
-12.5087448499
 10
0.8043545927
 20
-12.5239487063
 10
0.7949621474
 20
-12.5393654811
 10
0.7859060767
 20
-12.5549790618
 10
0.7771815084
 20
-12.5707733358
 10
0.7671421175
 20
-12.5899431647
 10
0.7575608621
 20
-12.6093273761
 10
0.74842553
 20
-12.6289033563
 10
0.7397239091
 20
-12.6486484915
 10
0.7314437872
 20
-12.668540168
 10
0.7235727238
 20
-12.6885580784
 10
0.7160973646
 20
-12.7086911401
 10
0.7090041269
 20
-12.7289305769
 10
0.7022794281
 20
-12.7492676125
 10
0.6959096855
 20
-12.7696934707
 10
0.6884270804
 20
-12.7953389762
 10
0.6814579932
 20
-12.8211022904
 10
0.6749825458
 20
-12.8469761496
 10
0.6689808599
 20
-12.87295329
 10
0.6634280151
 20
-12.899027169
 10
0.6582789207
 20
-12.9251941276
 10
0.6534834441
 20
-12.9514512277
 10
0.6489914522
 20
-12.9777955313
 10
0.6433856882
 20
-13.013049528
 10
0.6381002159
 20
-13.0484324861
 10
0.6330049238
 20
-13.0839235619
  0
LINE
  5
67A
100
AcDbEntity
  8
0
100
AcDbLine
 62
250
  6
CONTINUOUS
 10
-3.2611609202
 20
-10.59258
 11
-5.1492546571
 21
-11.134148
  0
LINE
  5
67B
100
AcDbEntity
  8
0
100
AcDbLine
 62
250
  6
CONTINUOUS
 10
-4.1618664939
 20
-11.430963
 11
-2.2500069979
 21
-10.882587
  0
LINE
  5
67C
100
AcDbEntity
  8
0
100
AcDbLine
 62
250
  6
CONTINUOUS
 10
13.25
 20
8.652652
 11
11.9503959624
 21
8.652652
  0
LINE
  5
67D
100
AcDbEntity
  8
0
100
AcDbLine
 62
250
  6
CONTINUOUS
 10
-0.7510661339
 20
10.1928571671
 11
1.1486444869
 21
10.1928571671
  0
LINE
  5
67E
100
AcDbEntity
  8
0
100
AcDbLine
 62
250
  6
CONTINUOUS
 10
-2.25
 20
10.292325
 11
-5.1491176989
 21
10.292325
  0
LINE
  5
67F
100
AcDbEntity
  8
0
100
AcDbLine
 62
250
  6
CONTINUOUS
 10
-0.7510661339
 20
12.5
 11
-0.3439852542
 21
12.2285713315
  0
LINE
  5
680
100
AcDbEntity
  8
0
100
AcDbLine
 62
250
  6
CONTINUOUS
 10
-0.4796789185
 20
15.214285779
 11
-0.7510661339
 21
15.485714221
  0
LWPOLYLINE
  5
681
100
AcDbEntity
  8
ASSI
100
AcDbPolyline
 62
250
  6
CONTINUOUS
 90
12
 70
0
 10
16.1265078689
 20
-12.6631865382
 10
16.2418866217
 20
-12.9069384791
 10
16.2945669791
 20
-13.0237607975
 10
16.3422553509
 20
-13.1362674365
 10
16.3855438266
 20
-13.2445236244
 10
16.423027025
 20
-13.3469336867
 10
16.4542124617
 20
-13.443189614
 10
16.4795926212
 20
-13.5339328323
 10
16.4992395753
 20
-13.6191892712
 10
16.513177348
 20
-13.6991156051
 10
16.5213819153
 20
-13.7739806545
 10
16.5238532772
 20
-13.8440097649
  0
LWPOLYLINE
  5
682
100
AcDbEntity
  8
RACCORDO
100
AcDbPolyline
 62
250
  6
CONTINUOUS
 90
12
 70
0
 10
16.1265078689
 20
-12.6631865382
 10
16.2418866217
 20
-12.9069384791
 10
16.2945669791
 20
-13.0237607975
 10
16.3422553509
 20
-13.1362674365
 10
16.3855438266
 20
-13.2445236244
 10
16.423027025
 20
-13.3469336867
 10
16.4542124617
 20
-13.443189614
 10
16.4795926212
 20
-13.5339328323
 10
16.4992395753
 20
-13.6191892712
 10
16.513177348
 20
-13.6991156051
 10
16.5213819153
 20
-13.7739806545
 10
16.5238532772
 20
-13.8440097649
  0
LINE
  5
683
100
AcDbEntity
  8
0
100
AcDbLine
 62
250
  6
CONTINUOUS
 10
11.082512
 20
-9.36959
 11
11.082512
 21
-10.858126
  0
LINE
  5
684
100
AcDbEntity
  8
0
100
AcDbLine
 62
250
  6
CONTINUOUS
 10
11.9503959624
 20
4.673742
 11
11.9503959624
 21
3.726755
  0
LINE
  5
685
100
AcDbEntity
  8
0
100
AcDbLine
 62
250
  6
CONTINUOUS
 10
11.9503959624
 20
2.840243
 11
11.9503959624
 21
2.410407
  0
LINE
  5
686
100
AcDbEntity
  8
0
100
AcDbLine
 62
250
  6
CONTINUOUS
 10
11.9503959624
 20
8.124855
 11
11.9503959624
 21
9.180447
  0
LINE
  5
687
100
AcDbEntity
  8
0
100
AcDbLine
 62
250
  6
CONTINUOUS
 10
5.150961
 20
-11.268444
 11
0.173675
 21
-16.00013
  0
LINE
  5
688
100
AcDbEntity
  8
0
100
AcDbLine
 62
250
  6
CONTINUOUS
 10
11.9503959624
 20
10.638918
 11
13.25
 21
10.638918
  0
LINE
  5
689
100
AcDbEntity
  8
0
100
AcDbLine
 62
250
  6
CONTINUOUS
 10
-4.6763647369
 20
10.87477
 11
-2.25
 21
10.87477
  0
LINE
  5
68A
100
AcDbEntity
  8
0
100
AcDbLine
 62
250
  6
CONTINUOUS
 10
1.1486444869
 20
11.3690476298
 11
0.1987891765
 21
11.3690476298
  0
LINE
  5
68B
100
AcDbEntity
  8
0
100
AcDbLine
 62
250
  6
CONTINUOUS
 10
13.25
 20
12.023604
 11
12.7471182177
 21
12.023604
  0
LINE
  5
68C
100
AcDbEntity
  8
0
100
AcDbLine
 62
250
  6
CONTINUOUS
 10
-2.8517036734
 20
12.328754
 11
-5.1491176989
 21
12.328754
  0
LINE
  5
68D
100
AcDbEntity
  8
0
100
AcDbLine
 62
250
  6
CONTINUOUS
 10
0.7415636355
 20
10.7357143342
 11
-0.7510661339
 21
11.1428571105
  0
LINE
  5
68E
100
AcDbEntity
  8
0
100
AcDbLine
 62
250
  6
CONTINUOUS
 10
-3.346237999
 20
14.176491
 11
-4.5949625385
 21
14.606449
  0
LINE
  5
68F
100
AcDbEntity
  8
0
100
AcDbLine
 62
250
  6
CONTINUOUS
 10
-2.25
 20
13.798889
 11
-2.8644517893
 21
14.015846
  0
LINE
  5
690
100
AcDbEntity
  8
0
100
AcDbLine
 62
250
  6
CONTINUOUS
 10
-5.1491176989
 20
14.252884
 11
-2.25
 21
13.20444
  0
LINE
  5
691
100
AcDbEntity
  8
0
100
AcDbLine
 62
250
  6
CONTINUOUS
 10
1.1486444869
 20
12.2285713315
 11
-0.2082917032
 21
13.1785713315
  0
LINE
  5
692
100
AcDbEntity
  8
0
100
AcDbLine
 62
250
  6
CONTINUOUS
 10
1.1486444869
 20
14.264285779
 11
0.8772572432
 21
14.535714221
  0
LINE
  5
693
100
AcDbEntity
  8
0
100
AcDbLine
 62
250
  6
CONTINUOUS
 10
0.8772572432
 20
15.892857337
 11
1.1486444869
 21
15.621428442
  0
LWPOLYLINE
  5
694
100
AcDbEntity
  8
ASSI
100
AcDbPolyline
 62
250
  6
CONTINUOUS
 90
13
 70
0
 10
15.9442475917
 20
-12.7697307673
 10
15.9893819485
 20
-12.9042837646
 10
16.0330018475
 20
-13.0372068065
 10
16.0734795827
 20
-13.1655933458
 10
16.1104165674
 20
-13.2890326491
 10
16.1436305728
 20
-13.4079354498
 10
16.1723390453
 20
-13.5206274011
 10
16.1963889582
 20
-13.6264064643
 10
16.215947504
 20
-13.725974678
 10
16.2310083971
 20
-13.8197638114
 10
16.2416349731
 20
-13.9079177874
 10
16.2479291264
 20
-13.9902926831
 10
16.25
 20
-14.0668884984
  0
LWPOLYLINE
  5
695
100
AcDbEntity
  8
RACCORDO
100
AcDbPolyline
 62
250
  6
CONTINUOUS
 90
13
 70
0
 10
15.9442475917
 20
-12.7697307673
 10
15.9893819485
 20
-12.9042837646
 10
16.0330018475
 20
-13.0372068065
 10
16.0734795827
 20
-13.1655933458
 10
16.1104165674
 20
-13.2890326491
 10
16.1436305728
 20
-13.4079354498
 10
16.1723390453
 20
-13.5206274011
 10
16.1963889582
 20
-13.6264064643
 10
16.215947504
 20
-13.725974678
 10
16.2310083971
 20
-13.8197638114
 10
16.2416349731
 20
-13.9079177874
 10
16.2479291264
 20
-13.9902926831
 10
16.25
 20
-14.0668884984
  0
LINE
  5
696
100
AcDbEntity
  8
0
100
AcDbLine
 62
250
  6
CONTINUOUS
 10
12.6001979812
 20
3.726755
 11
12.6001979812
 21
4.607346
  0
LINE
  5
697
100
AcDbEntity
  8
0
100
AcDbLine
 62
250
  6
CONTINUOUS
 10
12.7783027164
 20
9.456284
 11
12.7783027164
 21
10.182941
  0
LINE
  5
698
100
AcDbEntity
  8
0
100
AcDbLine
 62
250
  6
CONTINUOUS
 10
12.78574145
 20
1.303298
 11
12.78574145
 21
2.036483
  0
LINE
  5
699
100
AcDbEntity
  8
0
100
AcDbLine
 62
250
  6
CONTINUOUS
 10
13.25
 20
2.410407
 11
13.25
 21
2.840243
  0
LINE
  5
69A
100
AcDbEntity
  8
0
100
AcDbLine
 62
250
  6
CONTINUOUS
 10
13.25
 20
3.726755
 11
13.25
 21
4.686432
  0
LINE
  5
69B
100
AcDbEntity
  8
0
100
AcDbLine
 62
250
  6
CONTINUOUS
 10
13.25
 20
10.638918
 11
13.25
 21
11.385852
  0
LINE
  5
69C
100
AcDbEntity
  8
0
100
AcDbLine
 62
250
  6
CONTINUOUS
 10
-3.152965885
 20
-14.778839
 11
-5.1492546571
 21
-15.419971
  0
LINE
  5
69D
100
AcDbEntity
  8
0
100
AcDbLine
 62
250
  6
CONTINUOUS
 10
-5.1492546571
 20
-16.0
 11
-2.25
 21
-15.068868
  0
LINE
  5
69E
100
AcDbEntity
  8
ASSI
100
AcDbLine
 62
250
  6
CONTINUOUS
 10
15.2674524064
 20
14.286936906
 11
2.25
 21
14.2432004109
  0
LINE
  5
69F
100
AcDbEntity
  8
RACCORDO
100
AcDbLine
 62
250
  6
CONTINUOUS
 10
15.2674524064
 20
14.286936906
 11
2.25
 21
14.2432004109
  0
LINE
  5
6A0
100
AcDbEntity
  8
0
100
AcDbLine
 62
250
  6
CONTINUOUS
 10
-5.1491176989
 20
12.911198
 11
-2.25
 21
12.911198
  0
LINE
  5
6A1
100
AcDbEntity
  8
0
100
AcDbLine
 62
250
  6
CONTINUOUS
 10
-0.2082917032
 20
13.1785713315
 11
-0.4796789185
 21
13.1785713315
  0
LINE
  5
6A2
100
AcDbEntity
  8
0
100
AcDbLine
 62
250
  6
CONTINUOUS
 10
0.0630955122
 20
13.721428442
 11
-0.7510661339
 21
13.721428442
  0
LINE
  5
6A3
100
AcDbEntity
  8
ASSI
100
AcDbLine
 62
250
  6
CONTINUOUS
 10
16.25
 20
14.286936906
 11
15.2674524064
 21
14.286936906
  0
LINE
  5
6A4
100
AcDbEntity
  8
RACCORDO
100
AcDbLine
 62
250
  6
CONTINUOUS
 10
16.25
 20
14.286936906
 11
15.2674524064
 21
14.286936906
  0
LINE
  5
6A5
100
AcDbEntity
  8
0
100
AcDbLine
 62
250
  6
CONTINUOUS
 10
11.9503959624
 20
9.819613
 11
13.25
 21
9.249279
  0
LINE
  5
6A6
100
AcDbEntity
  8
0
100
AcDbLine
 62
250
  6
CONTINUOUS
 10
-0.2082917032
 20
15.078571558
 11
-0.4796789185
 21
15.214285779
  0
LWPOLYLINE
  5
6A7
100
AcDbEntity
  8
ASSI
100
AcDbPolyline
 62
250
  6
CONTINUOUS
 90
13
 70
0
 10
16.25
 20
-9.0331115016
 10
16.252289645
 20
-9.06070029
 10
16.2591236302
 20
-9.0878679545
 10
16.2703976393
 20
-9.1141997997
 10
16.2859395825
 20
-9.1392938885
 10
16.3055122227
 20
-9.1627671773
 10
16.3288167975
 20
-9.1842613631
 10
16.355497579
 20
-9.2034483522
 10
16.3851473037
 20
-9.2200352686
 10
16.4173133898
 20
-9.2337689248
 10
16.4515048447
 20
-9.244439686
 10
16.4871997598
 20
-9.2518846704
 10
16.5238532772
 20
-9.2559902352
  0
LWPOLYLINE
  5
6A8
100
AcDbEntity
  8
RACCORDO
100
AcDbPolyline
 62
250
  6
CONTINUOUS
 90
13
 70
0
 10
16.25
 20
-9.0331115016
 10
16.252289645
 20
-9.06070029
 10
16.2591236302
 20
-9.0878679545
 10
16.2703976393
 20
-9.1141997997
 10
16.2859395825
 20
-9.1392938885
 10
16.3055122227
 20
-9.1627671773
 10
16.3288167975
 20
-9.1842613631
 10
16.355497579
 20
-9.2034483522
 10
16.3851473037
 20
-9.2200352686
 10
16.4173133898
 20
-9.2337689248
 10
16.4515048447
 20
-9.244439686
 10
16.4871997598
 20
-9.2518846704
 10
16.5238532772
 20
-9.2559902352
  0
LINE
  5
6A9
100
AcDbEntity
  8
ASSI
100
AcDbLine
 62
250
  6
CONTINUOUS
 10
15.2572466429
 20
15.1065183403
 11
15.2558177314
 21
15.1529476539
  0
LINE
  5
6AA
100
AcDbEntity
  8
RACCORDO
100
AcDbLine
 62
250
  6
CONTINUOUS
 10
15.2572466429
 20
15.1065183403
 11
15.2558177314
 21
15.1529476539
  0
LINE
  5
6AB
100
AcDbEntity
  8
ASSI
100
AcDbLine
 62
250
  6
CONTINUOUS
 10
15.2599421777
 20
14.9951679553
 11
15.2572466429
 21
15.1065183403
  0
LINE
  5
6AC
100
AcDbEntity
  8
RACCORDO
100
AcDbLine
 62
250
  6
CONTINUOUS
 10
15.2599421777
 20
14.9951679553
 11
15.2572466429
 21
15.1065183403
  0
LINE
  5
6AD
100
AcDbEntity
  8
ASSI
100
AcDbLine
 62
250
  6
CONTINUOUS
 10
15.2623527777
 20
14.8615919144
 11
15.2599421777
 21
14.9951679553
  0
LINE
  5
6AE
100
AcDbEntity
  8
RACCORDO
100
AcDbLine
 62
250
  6
CONTINUOUS
 10
15.2623527777
 20
14.8615919144
 11
15.2599421777
 21
14.9951679553
  0
LINE
  5
6AF
100
AcDbEntity
  8
ASSI
100
AcDbLine
 62
250
  6
CONTINUOUS
 10
15.2652439641
 20
14.6296916989
 11
15.2623527777
 21
14.8615919144
  0
LINE
  5
6B0
100
AcDbEntity
  8
RACCORDO
100
AcDbLine
 62
250
  6
CONTINUOUS
 10
15.2652439641
 20
14.6296916989
 11
15.2623527777
 21
14.8615919144
  0
LINE
  5
6B1
100
AcDbEntity
  8
ASSI
100
AcDbLine
 62
250
  6
CONTINUOUS
 10
15.2687283015
 20
-19.2497834774
 11
15.2674524064
 21
-19.0909100822
  0
LINE
  5
6B2
100
AcDbEntity
  8
RACCORDO
100
AcDbLine
 62
250
  6
CONTINUOUS
 10
15.2687283015
 20
-19.2497834774
 11
15.2674524064
 21
-19.0909100822
  0
LWPOLYLINE
  5
6B3
100
AcDbEntity
  8
ASSI
100
AcDbPolyline
 62
250
  6
CONTINUOUS
 90
3
 70
0
 10
15.2674524064
 20
14.286936906
 10
15.2670921487
 20
14.3743188449
 10
15.2652439641
 20
14.6296916989
  0
LWPOLYLINE
  5
6B4
100
AcDbEntity
  8
RACCORDO
100
AcDbPolyline
 62
250
  6
CONTINUOUS
 90
3
 70
0
 10
15.2674524064
 20
14.286936906
 10
15.2670921487
 20
14.3743188449
 10
15.2652439641
 20
14.6296916989
  0
LINE
  5
6B5
100
AcDbEntity
  8
ASSI
100
AcDbLine
 62
250
  6
CONTINUOUS
 10
15.2674524064
 20
-17.5052799993
 11
15.2685270125
 21
-17.8954260482
  0
LINE
  5
6B6
100
AcDbEntity
  8
RACCORDO
100
AcDbLine
 62
250
  6
CONTINUOUS
 10
15.2674524064
 20
-17.5052799993
 11
15.2685270125
 21
-17.8954260482
  0
LINE
  5
6B7
100
AcDbEntity
  8
ASSI
100
AcDbLine
 62
250
  6
CONTINUOUS
 10
15.2685270125
 20
-17.8954260482
 11
15.2688898613
 21
-18.2705239746
  0
LINE
  5
6B8
100
AcDbEntity
  8
RACCORDO
100
AcDbLine
 62
250
  6
CONTINUOUS
 10
15.2685270125
 20
-17.8954260482
 11
15.2688898613
 21
-18.2705239746
  0
LINE
  5
6B9
100
AcDbEntity
  8
0
100
AcDbLine
 62
7
  6
CONTINUOUS
 10
14.75
 20
19.3927908573
 11
14.75
 21
18.1208482034
  0
LINE
  5
6BA
100
AcDbEntity
  8
DRAFT
100
AcDbLine
 62
7
  6
CONTINUOUS
 10
14.75
 20
18.1208482034
 11
14.75
 21
16.3797920206
  0
LINE
  5
6BB
100
AcDbEntity
  8
ASSI
100
AcDbLine
 62
7
  6
CONTINUOUS
 10
14.75
 20
19.3927908573
 11
14.75
 21
16.0487170242
  0
LINE
  5
6BC
100
AcDbEntity
  8
0
100
AcDbLine
 62
7
  6
CONTINUOUS
 10
14.75
 20
16.3797920206
 11
14.75
 21
16.0487170242
  0
LINE
  5
6BD
100
AcDbEntity
  8
ASSI
100
AcDbLine
 62
250
  6
CONTINUOUS
 10
15.2558177314
 20
16.046168518
 11
15.2558177314
 21
15.1529476539
  0
LINE
  5
6BE
100
AcDbEntity
  8
RACCORDO
100
AcDbLine
 62
250
  6
CONTINUOUS
 10
15.2558177314
 20
16.046168518
 11
15.2558177314
 21
15.1529476539
  0
LINE
  5
6BF
100
AcDbEntity
  8
ASSI
100
AcDbLine
 62
250
  6
CONTINUOUS
 10
15.2674524064
 20
-18.9192781701
 11
15.2674524064
 21
-19.0909100822
  0
LINE
  5
6C0
100
AcDbEntity
  8
RACCORDO
100
AcDbLine
 62
250
  6
CONTINUOUS
 10
15.2674524064
 20
-18.9192781701
 11
15.2674524064
 21
-19.0909100822
  0
LINE
  5
6C1
100
AcDbEntity
  8
ASSI
100
AcDbLine
 62
250
  6
CONTINUOUS
 10
15.2674524064
 20
-17.5052799993
 11
15.2674524064
 21
14.286936906
  0
LINE
  5
6C2
100
AcDbEntity
  8
RACCORDO
100
AcDbLine
 62
250
  6
CONTINUOUS
 10
15.2674524064
 20
-17.5052799993
 11
15.2674524064
 21
14.286936906
  0
LINE
  5
6C3
100
AcDbEntity
  8
ASSI
100
AcDbLine
 62
7
  6
CONTINUOUS
 10
16.25
 20
18.3839109968
 11
16.25
 21
16.0181977061
  0
LINE
  5
6C4
100
AcDbEntity
  8
RACCORDO
100
AcDbLine
 62
7
  6
CONTINUOUS
 10
16.25
 20
18.3839109968
 11
16.25
 21
16.0181977061
  0
LINE
  5
6C5
100
AcDbEntity
  8
ASSI
100
AcDbLine
 62
7
  6
CONTINUOUS
 10
16.25
 20
15.1801577701
 11
16.25
 21
-9.0331115016
  0
LINE
  5
6C6
100
AcDbEntity
  8
RACCORDO
100
AcDbLine
 62
7
  6
CONTINUOUS
 10
16.25
 20
15.1801577701
 11
16.25
 21
-9.0331115016
  0
LINE
  5
6C7
100
AcDbEntity
  8
ASSI
100
AcDbLine
 62
7
  6
CONTINUOUS
 10
16.25
 20
-14.0668884984
 11
16.25
 21
-18.3839109968
  0
LINE
  5
6C8
100
AcDbEntity
  8
RACCORDO
100
AcDbLine
 62
7
  6
CONTINUOUS
 10
16.25
 20
-14.0668884984
 11
16.25
 21
-18.3839109968
  0
LINE
  5
6C9
100
AcDbEntity
  8
ASSI
100
AcDbLine
 62
250
  6
CONTINUOUS
 10
16.5238532772
 20
-13.8440097649
 11
16.5238534094
 21
-14.6260409312
  0
LINE
  5
6CA
100
AcDbEntity
  8
RACCORDO
100
AcDbLine
 62
250
  6
CONTINUOUS
 10
16.5238532772
 20
-13.8440097649
 11
16.5238534094
 21
-14.6260409312
  0
LINE
  5
6CB
100
AcDbEntity
  8
ASSI
100
AcDbLine
 62
250
  6
CONTINUOUS
 10
16.5238532772
 20
11.7257301888
 11
16.5238532772
 21
7.0739590572
  0
LINE
  5
6CC
100
AcDbEntity
  8
RACCORDO
100
AcDbLine
 62
250
  6
CONTINUOUS
 10
16.5238532772
 20
11.7257301888
 11
16.5238532772
 21
7.0739590572
  0
LINE
  5
6CD
100
AcDbEntity
  8
ASSI
100
AcDbLine
 62
250
  6
CONTINUOUS
 10
16.523853361
 20
-8.4739590646
 11
16.5238532772
 21
-9.2559902351
  0
LINE
  5
6CE
100
AcDbEntity
  8
RACCORDO
100
AcDbLine
 62
250
  6
CONTINUOUS
 10
16.523853361
 20
-8.4739590646
 11
16.5238532772
 21
-9.2559902351
  0
LINE
  5
6CF
100
AcDbEntity
  8
ASSI
100
AcDbLine
 62
250
  6
CONTINUOUS
 10
15.2688898613
 20
-18.2705239746
 11
15.2685271092
 21
-18.6162211529
  0
LINE
  5
6D0
100
AcDbEntity
  8
RACCORDO
100
AcDbLine
 62
250
  6
CONTINUOUS
 10
15.2688898613
 20
-18.2705239746
 11
15.2685271092
 21
-18.6162211529
  0
LINE
  5
6D1
100
AcDbEntity
  8
ASSI
100
AcDbLine
 62
250
  6
CONTINUOUS
 10
15.2685271092
 20
-18.6162211529
 11
15.2674524064
 21
-18.9192781701
  0
LINE
  5
6D2
100
AcDbEntity
  8
RACCORDO
100
AcDbLine
 62
250
  6
CONTINUOUS
 10
15.2685271092
 20
-18.6162211529
 11
15.2674524064
 21
-18.9192781701
  0
LWPOLYLINE
  5
6D3
100
AcDbEntity
  8
ASSI
100
AcDbPolyline
 62
250
  6
CONTINUOUS
 90
23
 70
0
 10
16.25
 20
-9.0331115016
 10
16.2495587136
 20
-9.0680407327
 10
16.2482250239
 20
-9.1041660396
 10
16.2459847372
 20
-9.1414874223
 10
16.2428341541
 20
-9.1798628179
 10
16.2387558399
 20
-9.2194342893
 10
16.2336942071
 20
-9.2606280258
 10
16.2276133844
 20
-9.3034293962
 10
16.2204831904
 20
-9.3478530317
 10
16.212217024
 20
-9.3943690155
 10
16.2027614233
 20
-9.4429643307
 10
16.1920715868
 20
-9.4936519941
 10
16.1800413611
 20
-9.5469411392
 10
16.1666029222
 20
-9.6028218554
 10
16.1517028728
 20
-9.6613040533
 10
16.135233264
 20
-9.7229265973
 10
16.1171158826
 20
-9.7876827101
 10
16.0972996338
 20
-9.8555791691
 10
16.075708004
 20
-9.9271751708
 10
16.052245316
 20
-10.0025007084
 10
16.0268929328
 20
-10.0815257887
 10
15.9997098964
 20
-10.1647196284
 10
15.9705114436
 20
-10.2523449786
  0
LWPOLYLINE
  5
6D4
100
AcDbEntity
  8
RACCORDO
100
AcDbPolyline
 62
250
  6
CONTINUOUS
 90
23
 70
0
 10
16.25
 20
-9.0331115016
 10
16.2495587136
 20
-9.0680407327
 10
16.2482250239
 20
-9.1041660396
 10
16.2459847372
 20
-9.1414874223
 10
16.2428341541
 20
-9.1798628179
 10
16.2387558399
 20
-9.2194342893
 10
16.2336942071
 20
-9.2606280258
 10
16.2276133844
 20
-9.3034293962
 10
16.2204831904
 20
-9.3478530317
 10
16.212217024
 20
-9.3943690155
 10
16.2027614233
 20
-9.4429643307
 10
16.1920715868
 20
-9.4936519941
 10
16.1800413611
 20
-9.5469411392
 10
16.1666029222
 20
-9.6028218554
 10
16.1517028728
 20
-9.6613040533
 10
16.135233264
 20
-9.7229265973
 10
16.1171158826
 20
-9.7876827101
 10
16.0972996338
 20
-9.8555791691
 10
16.075708004
 20
-9.9271751708
 10
16.052245316
 20
-10.0025007084
 10
16.0268929328
 20
-10.0815257887
 10
15.9997098964
 20
-10.1647196284
 10
15.9705114436
 20
-10.2523449786
  0
LINE
  5
6D5
100
AcDbEntity
  8
RACCORDO
100
AcDbLine
 62
7
  6
CONTINUOUS
 10
-10.25
 20
-23.1226497308
 11
-11.125
 21
-23.6278312164
  0
LINE
  5
6D6
100
AcDbEntity
  8
RACCORDO
100
AcDbLine
 62
250
  6
CONTINUOUS
 10
-10.0014544328
 20
-23.2669872981
 11
-11.0014544328
 21
-23.8443375673
  0
LINE
  5
6D7
100
AcDbEntity
  8
ASSI
100
AcDbLine
 62
250
  6
CONTINUOUS
 10
15.2558177314
 20
15.1529476539
 11
2.25
 21
15.1092502494
  0
LINE
  5
6D8
100
AcDbEntity
  8
RACCORDO
100
AcDbLine
 62
250
  6
CONTINUOUS
 10
15.2558177314
 20
15.1529476539
 11
2.25
 21
15.1092502494
  0
LINE
  5
6D9
100
AcDbEntity
  8
0
100
AcDbLine
 62
250
  6
CONTINUOUS
 10
0.8772572432
 20
14.535714221
 11
0.3344827842
 21
14.535714221
  0
LINE
  5
6DA
100
AcDbEntity
  8
0
100
AcDbLine
 62
250
  6
CONTINUOUS
 10
0.6058699995
 20
15.078571558
 11
-0.2082917032
 21
15.078571558
  0
LINE
  5
6DB
100
AcDbEntity
  8
0
100
AcDbLine
 62
250
  6
CONTINUOUS
 10
-0.2082917032
 20
16.028571558
 11
0.6058699995
 21
16.028571558
  0
LINE
  5
6DC
100
AcDbEntity
  8
ASSI
100
AcDbLine
 62
7
  6
CONTINUOUS
 10
15.2558177314
 20
16.046168518
 11
14.75
 21
16.0487170242
  0
LINE
  5
6DD
100
AcDbEntity
  8
RACCORDO
100
AcDbLine
 62
7
  6
CONTINUOUS
 10
15.2558177314
 20
16.046168518
 11
14.75
 21
16.0487170242
  0
LINE
  5
6DE
100
AcDbEntity
  8
ASSI
100
AcDbLine
 62
7
  6
CONTINUOUS
 10
14.75
 20
16.3797920206
 11
8.7211532536
 21
16.426348557
  0
LINE
  5
6DF
100
AcDbEntity
  8
0
100
AcDbLine
 62
7
  6
CONTINUOUS
 10
14.75
 20
16.3797920206
 11
8.7211532536
 21
16.426348557
  0
LINE
  5
6E0
100
AcDbEntity
  8
ASSI
100
AcDbLine
 62
7
  6
CONTINUOUS
 10
16.25
 20
13.25
 11
17.9761467228
 21
13.0989817302
  0
LINE
  5
6E1
100
AcDbEntity
  8
DRAFT
100
AcDbLine
 62
7
  6
CONTINUOUS
 10
16.25
 20
13.25
 11
17.9761467228
 21
13.0989817302
  0
LINE
  5
6E2
100
AcDbEntity
  8
ASSI
100
AcDbLine
 62
250
  6
CONTINUOUS
 10
16.25
 20
13.5038208073
 11
17.0081843513
 21
13.43204161
  0
LINE
  5
6E3
100
AcDbEntity
  8
RACCORDO
100
AcDbLine
 62
250
  6
CONTINUOUS
 10
16.25
 20
13.5038208073
 11
17.0081843513
 21
13.43204161
  0
LWPOLYLINE
  5
6E4
100
AcDbEntity
  8
ASSI
100
AcDbPolyline
 62
250
  6
CONTINUOUS
 90
3
 70
0
 10
17.0081843513
 20
13.43204161
 10
17.6552731951
 20
13.3699676344
 10
17.9761467954
 20
13.3389373107
  0
LWPOLYLINE
  5
6E5
100
AcDbEntity
  8
RACCORDO
100
AcDbPolyline
 62
250
  6
CONTINUOUS
 90
3
 70
0
 10
17.0081843513
 20
13.43204161
 10
17.6552731951
 20
13.3699676344
 10
17.9761467954
 20
13.3389373107
  0
LINE
  5
6E6
100
AcDbEntity
  8
0
100
AcDbLine
 62
250
  6
CONTINUOUS
 10
0.6058699995
 20
16.028571558
 11
0.8772572432
 21
15.892857337
  0
LINE
  5
6E7
100
AcDbEntity
  8
RACCORDO
100
AcDbLine
 62
7
  6
CONTINUOUS
 10
-11.125
 20
23.6278312164
 11
-10.25
 21
23.1226497308
  0
LINE
  5
6E8
100
AcDbEntity
  8
RACCORDO
100
AcDbLine
 62
250
  6
CONTINUOUS
 10
-11.0014544328
 20
23.8443375673
 11
-10.0014544328
 21
23.2669872981
  0
LWPOLYLINE
  5
6E9
100
AcDbEntity
  8
ASSI
100
AcDbPolyline
 62
250
  6
CONTINUOUS
 90
19
 70
0
 10
16.25
 20
14.286936906
 10
16.2462228156
 20
14.3621371472
 10
16.2349197966
 20
14.436769298
 10
16.2161763302
 20
14.5102695597
 10
16.1901340115
 20
14.5820826842
 10
16.1569895737
 20
14.6516661685
 10
16.1169934021
 20
14.7184943536
 10
16.0704476426
 20
14.7820623944
 10
16.017703919
 20
14.8418900748
 10
15.9591606769
 20
14.8975254342
 10
15.8952601735
 20
14.9485481827
 10
15.8264851367
 20
14.9945728755
 10
15.7533551186
 20
15.0352518253
 10
15.6764225703
 20
15.0702777282
 10
15.5962686686
 20
15.0993859856
 10
15.5134989256
 20
15.122356703
 10
15.4287386146
 20
15.1390163511
 10
15.3426280462
 20
15.1492390768
 10
15.2558177314
 20
15.1529476539
  0
LWPOLYLINE
  5
6EA
100
AcDbEntity
  8
RACCORDO
100
AcDbPolyline
 62
250
  6
CONTINUOUS
 90
19
 70
0
 10
16.25
 20
14.286936906
 10
16.2462228156
 20
14.3621371472
 10
16.2349197966
 20
14.436769298
 10
16.2161763302
 20
14.5102695597
 10
16.1901340115
 20
14.5820826842
 10
16.1569895737
 20
14.6516661685
 10
16.1169934021
 20
14.7184943536
 10
16.0704476426
 20
14.7820623944
 10
16.017703919
 20
14.8418900748
 10
15.9591606769
 20
14.8975254342
 10
15.8952601735
 20
14.9485481827
 10
15.8264851367
 20
14.9945728755
 10
15.7533551186
 20
15.0352518253
 10
15.6764225703
 20
15.0702777282
 10
15.5962686686
 20
15.0993859856
 10
15.5134989256
 20
15.122356703
 10
15.4287386146
 20
15.1390163511
 10
15.3426280462
 20
15.1492390768
 10
15.2558177314
 20
15.1529476539
  0
LINE
  5
6EB
100
AcDbEntity
  8
ASSI
100
AcDbLine
 62
250
  6
CONTINUOUS
 10
17.9809397472
 20
13.2464525556
 11
17.9831048482
 21
13.1985023363
  0
LINE
  5
6EC
100
AcDbEntity
  8
RACCORDO
100
AcDbLine
 62
250
  6
CONTINUOUS
 10
17.9809397472
 20
13.2464525556
 11
17.9831048482
 21
13.1985023363
  0
LINE
  5
6ED
100
AcDbEntity
  8
ASSI
100
AcDbLine
 62
250
  6
CONTINUOUS
 10
17.9831048482
 20
13.1985023363
 11
17.984962554
 21
13.1515283691
  0
LINE
  5
6EE
100
AcDbEntity
  8
RACCORDO
100
AcDbLine
 62
250
  6
CONTINUOUS
 10
17.9831048482
 20
13.1985023363
 11
17.984962554
 21
13.1515283691
  0
LWPOLYLINE
  5
6EF
100
AcDbEntity
  8
ASSI
100
AcDbPolyline
 62
7
  6
CONTINUOUS
 90
25
 70
0
 10
16.25
 20
12.0181977061
 10
16.2505489468
 20
12.0008608487
 10
16.2521316374
 20
11.9836949898
 10
16.254748072
 20
11.9667001295
 10
16.2584076831
 20
11.9498331604
 10
16.2631010381
 20
11.9331371899
 10
16.2687998392
 20
11.9167415401
 10
16.2755060249
 20
11.9006397256
 10
16.2832176567
 20
11.8848382318
 10
16.2919006209
 20
11.8694858372
 10
16.3015560751
 20
11.8545799827
 10
16.3121828617
 20
11.8401232273
 10
16.323743394
 20
11.8262720261
 10
16.3362576831
 20
11.8130108513
 10
16.349705718
 20
11.8003552307
 10
16.3639898786
 20
11.7885082022
 10
16.3791241684
 20
11.7774729907
 10
16.3950945839
 20
11.7672463714
 10
16.4117614955
 20
11.7580217073
 10
16.4291619467
 20
11.7498031311
 10
16.4472588938
 20
11.7425865101
 10
16.4658015765
 20
11.7365528089
 10
16.4847064079
 20
11.731762349
 10
16.5040569748
 20
11.728154809
 10
16.5238532772
 20
11.7257301888
  0
LWPOLYLINE
  5
6F0
100
AcDbEntity
  8
RACCORDO
100
AcDbPolyline
 62
7
  6
CONTINUOUS
 90
25
 70
0
 10
16.25
 20
12.0181977061
 10
16.2505489468
 20
12.0008608487
 10
16.2521316374
 20
11.9836949898
 10
16.254748072
 20
11.9667001295
 10
16.2584076831
 20
11.9498331604
 10
16.2631010381
 20
11.9331371899
 10
16.2687998392
 20
11.9167415401
 10
16.2755060249
 20
11.9006397256
 10
16.2832176567
 20
11.8848382318
 10
16.2919006209
 20
11.8694858372
 10
16.3015560751
 20
11.8545799827
 10
16.3121828617
 20
11.8401232273
 10
16.323743394
 20
11.8262720261
 10
16.3362576831
 20
11.8130108513
 10
16.349705718
 20
11.8003552307
 10
16.3639898786
 20
11.7885082022
 10
16.3791241684
 20
11.7774729907
 10
16.3950945839
 20
11.7672463714
 10
16.4117614955
 20
11.7580217073
 10
16.4291619467
 20
11.7498031311
 10
16.4472588938
 20
11.7425865101
 10
16.4658015765
 20
11.7365528089
 10
16.4847064079
 20
11.731762349
 10
16.5040569748
 20
11.728154809
 10
16.5238532772
 20
11.7257301888
  0
LWPOLYLINE
  5
6F1
100
AcDbEntity
  8
ASSI
100
AcDbPolyline
 62
250
  6
CONTINUOUS
 90
3
 70
0
 10
17.984962554
 20
13.1515283691
 10
17.9864115773
 20
13.1072401751
 10
17.9866720781
 20
13.0974008712
  0
LWPOLYLINE
  5
6F2
100
AcDbEntity
  8
RACCORDO
100
AcDbPolyline
 62
250
  6
CONTINUOUS
 90
3
 70
0
 10
17.984962554
 20
13.1515283691
 10
17.9864115773
 20
13.1072401751
 10
17.9866720781
 20
13.0974008712
  0
LINE
  5
6F3
100
AcDbEntity
  8
ASSI
100
AcDbLine
 62
250
  6
CONTINUOUS
 10
17.9761469835
 20
15.5989817074
 11
17.9761467954
 21
13.3389373107
  0
LINE
  5
6F4
100
AcDbEntity
  8
RACCORDO
100
AcDbLine
 62
250
  6
CONTINUOUS
 10
17.9761469835
 20
15.5989817074
 11
17.9761467954
 21
13.3389373107
  0
LINE
  5
6F5
100
AcDbEntity
  8
ASSI
100
AcDbLine
 62
250
  6
CONTINUOUS
 10
17.9761469273
 20
-8.6010182877
 11
17.9761471672
 21
-14.4989816913
  0
LINE
  5
6F6
100
AcDbEntity
  8
RACCORDO
100
AcDbLine
 62
250
  6
CONTINUOUS
 10
17.9761469273
 20
-8.6010182877
 11
17.9761471672
 21
-14.4989816913
  0
LINE
  5
6F7
100
AcDbEntity
  8
ASSI
100
AcDbLine
 62
250
  6
CONTINUOUS
 10
17.9761466568
 20
13.0989817359
 11
17.9761469835
 21
7.2010182926
  0
LINE
  5
6F8
100
AcDbEntity
  8
RACCORDO
100
AcDbLine
 62
250
  6
CONTINUOUS
 10
17.9761466568
 20
13.0989817359
 11
17.9761469835
 21
7.2010182926
  0
LINE
  5
6F9
100
AcDbEntity
  8
ASSI
100
AcDbLine
 62
7
  6
CONTINUOUS
 10
18.25
 20
-8.8999730505
 11
18.25
 21
-14.2000257399
  0
LINE
  5
6FA
100
AcDbEntity
  8
RACCORDO
100
AcDbLine
 62
7
  6
CONTINUOUS
 10
18.25
 20
-8.8999730505
 11
18.25
 21
-14.2000257399
  0
LINE
  5
6FB
100
AcDbEntity
  8
ASSI
100
AcDbLine
 62
7
  6
CONTINUOUS
 10
18.25
 20
7.499925663
 11
18.25
 21
15.300074337
  0
LINE
  5
6FC
100
AcDbEntity
  8
RACCORDO
100
AcDbLine
 62
7
  6
CONTINUOUS
 10
18.25
 20
7.499925663
 11
18.25
 21
15.300074337
  0
LWPOLYLINE
  5
6FD
100
AcDbEntity
  8
ASSI
100
AcDbPolyline
 62
250
  6
CONTINUOUS
 90
24
 70
0
 10
16.5238532772
 20
-9.2559902351
 10
16.5233085972
 20
-9.2878645185
 10
16.5215684022
 20
-9.3207757541
 10
16.5186326923
 20
-9.3547479148
 10
16.5145453495
 20
-9.3897064679
 10
16.5092624917
 20
-9.4257696252
 10
16.5026524727
 20
-9.4632651732
 10
16.4947442246
 20
-9.5022368193
 10
16.4855088152
 20
-9.542716294
 10
16.4747278019
 20
-9.5850433467
 10
16.4624215005
 20
-9.6292764758
 10
16.4485695952
 20
-9.6754606019
 10
16.4328926959
 20
-9.7239448908
 10
16.4153980466
 20
-9.7748016945
 10
16.3960784033
 20
-9.8280879729
 10
16.3746326431
 20
-9.8841584823
 10
16.3510452047
 20
-9.9430944894
 10
16.3253316495
 20
-10.0049640958
 10
16.2972375393
 20
-10.0701281832
 10
16.2666842015
 20
-10.1386951368
 10
16.2337503087
 20
-10.2107152185
 10
16.19841744
 20
-10.2864786562
 10
16.1603948135
 20
-10.3662689335
 10
16.0780065575
 20
-10.5371432127
  0
LWPOLYLINE
  5
6FE
100
AcDbEntity
  8
RACCORDO
100
AcDbPolyline
 62
250
  6
CONTINUOUS
 90
24
 70
0
 10
16.5238532772
 20
-9.2559902351
 10
16.5233085972
 20
-9.2878645185
 10
16.5215684022
 20
-9.3207757541
 10
16.5186326923
 20
-9.3547479148
 10
16.5145453495
 20
-9.3897064679
 10
16.5092624917
 20
-9.4257696252
 10
16.5026524727
 20
-9.4632651732
 10
16.4947442246
 20
-9.5022368193
 10
16.4855088152
 20
-9.542716294
 10
16.4747278019
 20
-9.5850433467
 10
16.4624215005
 20
-9.6292764758
 10
16.4485695952
 20
-9.6754606019
 10
16.4328926959
 20
-9.7239448908
 10
16.4153980466
 20
-9.7748016945
 10
16.3960784033
 20
-9.8280879729
 10
16.3746326431
 20
-9.8841584823
 10
16.3510452047
 20
-9.9430944894
 10
16.3253316495
 20
-10.0049640958
 10
16.2972375393
 20
-10.0701281832
 10
16.2666842015
 20
-10.1386951368
 10
16.2337503087
 20
-10.2107152185
 10
16.19841744
 20
-10.2864786562
 10
16.1603948135
 20
-10.3662689335
 10
16.0780065575
 20
-10.5371432127
  0
LWPOLYLINE
  5
6FF
100
AcDbEntity
  8
ASSI
100
AcDbPolyline
 62
250
  6
CONTINUOUS
 90
19
 70
0
 10
16.25
 20
-18.3839109968
 10
16.2463150447
 20
-18.4445588806
 10
16.2352668608
 20
-18.5048432359
 10
16.2169065431
 20
-18.5643157319
 10
16.1913272608
 20
-18.6225561184
 10
16.1586962211
 20
-18.679098376
 10
16.1192842113
 20
-18.7334427978
 10
16.0734041305
 20
-18.7851625624
 10
16.021381638
 20
-18.8338945345
 10
15.9636073483
 20
-18.8792717503
 10
15.9005124955
 20
-18.9209554517
 10
15.8325669264
 20
-18.9586351812
 10
15.7602801634
 20
-18.9920286477
 10
15.684188887
 20
-19.0208882375
 10
15.6048631723
 20
-19.0449980292
 10
15.5229066256
 20
-19.0641763765
 10
15.4389353273
 20
-19.0782824543
 10
15.3535718416
 20
-19.0872149402
 10
15.2674524064
 20
-19.0909100822
  0
LWPOLYLINE
  5
700
100
AcDbEntity
  8
RACCORDO
100
AcDbPolyline
 62
250
  6
CONTINUOUS
 90
19
 70
0
 10
16.25
 20
-18.3839109968
 10
16.2463150447
 20
-18.4445588806
 10
16.2352668608
 20
-18.5048432359
 10
16.2169065431
 20
-18.5643157319
 10
16.1913272608
 20
-18.6225561184
 10
16.1586962211
 20
-18.679098376
 10
16.1192842113
 20
-18.7334427978
 10
16.0734041305
 20
-18.7851625624
 10
16.021381638
 20
-18.8338945345
 10
15.9636073483
 20
-18.8792717503
 10
15.9005124955
 20
-18.9209554517
 10
15.8325669264
 20
-18.9586351812
 10
15.7602801634
 20
-18.9920286477
 10
15.684188887
 20
-19.0208882375
 10
15.6048631723
 20
-19.0449980292
 10
15.5229066256
 20
-19.0641763765
 10
15.4389353273
 20
-19.0782824543
 10
15.3535718416
 20
-19.0872149402
 10
15.2674524064
 20
-19.0909100822
  0
LINE
  5
701
100
AcDbEntity
  8
ASSI
100
AcDbLine
 62
250
  6
CONTINUOUS
 10
16.25
 20
-18.2122790847
 11
16.2446428465
 21
-18.2853735711
  0
LINE
  5
702
100
AcDbEntity
  8
RACCORDO
100
AcDbLine
 62
250
  6
CONTINUOUS
 10
16.25
 20
-18.2122790847
 11
16.2446428465
 21
-18.2853735711
  0
LWPOLYLINE
  5
703
100
AcDbEntity
  8
ASSI
100
AcDbPolyline
 62
250
  6
CONTINUOUS
 90
13
 70
0
 10
16.25
 20
-14.0668884984
 10
16.252289674
 20
-14.0392995366
 10
16.2591237335
 20
-14.0121317413
 10
16.2703978428
 20
-13.9857998116
 10
16.285939891
 20
-13.9607056867
 10
16.3055126229
 20
-13.9372324051
 10
16.3288172642
 20
-13.9157382592
 10
16.3554980726
 20
-13.8965513364
 10
16.3851477763
 20
-13.8799645016
 10
16.4173138005
 20
-13.8662309259
 10
16.4515051567
 20
-13.8555602344
 10
16.4871999335
 20
-13.8481153026
 10
16.5238532772
 20
-13.8440097648
  0
LWPOLYLINE
  5
704
100
AcDbEntity
  8
RACCORDO
100
AcDbPolyline
 62
250
  6
CONTINUOUS
 90
13
 70
0
 10
16.25
 20
-14.0668884984
 10
16.252289674
 20
-14.0392995366
 10
16.2591237335
 20
-14.0121317413
 10
16.2703978428
 20
-13.9857998116
 10
16.285939891
 20
-13.9607056867
 10
16.3055126229
 20
-13.9372324051
 10
16.3288172642
 20
-13.9157382592
 10
16.3554980726
 20
-13.8965513364
 10
16.3851477763
 20
-13.8799645016
 10
16.4173138005
 20
-13.8662309259
 10
16.4515051567
 20
-13.8555602344
 10
16.4871999335
 20
-13.8481153026
 10
16.5238532772
 20
-13.8440097648
  0
LWPOLYLINE
  5
705
100
AcDbEntity
  8
ASSI
100
AcDbPolyline
 62
250
  6
CONTINUOUS
 90
6
 70
0
 10
15.2674524064
 20
-19.3837586919
 10
15.2680158536
 20
-19.3799441973
 10
15.2684422333
 20
-19.3685517224
 10
15.2687283015
 20
-19.3496679429
 10
15.2688718818
 20
-19.3234365298
 10
15.2687283015
 20
-19.2497834774
  0
LWPOLYLINE
  5
706
100
AcDbEntity
  8
RACCORDO
100
AcDbPolyline
 62
250
  6
CONTINUOUS
 90
6
 70
0
 10
15.2674524064
 20
-19.3837586919
 10
15.2680158536
 20
-19.3799441973
 10
15.2684422333
 20
-19.3685517224
 10
15.2687283015
 20
-19.3496679429
 10
15.2688718818
 20
-19.3234365298
 10
15.2687283015
 20
-19.2497834774
  0
LWPOLYLINE
  5
707
100
AcDbEntity
  8
ASSI
100
AcDbPolyline
 62
250
  6
CONTINUOUS
 90
16
 70
0
 10
15.8386011912
 20
-10.6422840249
 10
15.8039086581
 20
-10.7494937115
 10
15.7687002325
 20
-10.8597850366
 10
15.7338888575
 20
-10.9741106346
 10
15.7033568194
 20
-11.0955129598
 10
15.6765518613
 20
-11.2264312578
 10
15.6545601933
 20
-11.364426283
 10
15.6440644739
 20
-11.5052227521
 10
15.6483439254
 20
-11.6489171537
 10
15.6642353447
 20
-11.7954129993
 10
15.6886991562
 20
-11.9401455406
 10
15.7219685116
 20
-12.0813210147
 10
15.7628919293
 20
-12.2207331844
 10
15.8064914873
 20
-12.3591985905
 10
15.8514601824
 20
-12.4972171437
 10
15.9442475917
 20
-12.7697307673
  0
LWPOLYLINE
  5
708
100
AcDbEntity
  8
RACCORDO
100
AcDbPolyline
 62
250
  6
CONTINUOUS
 90
16
 70
0
 10
15.8386011912
 20
-10.6422840249
 10
15.8039086581
 20
-10.7494937115
 10
15.7687002325
 20
-10.8597850366
 10
15.7338888575
 20
-10.9741106346
 10
15.7033568194
 20
-11.0955129598
 10
15.6765518613
 20
-11.2264312578
 10
15.6545601933
 20
-11.364426283
 10
15.6440644739
 20
-11.5052227521
 10
15.6483439254
 20
-11.6489171537
 10
15.6642353447
 20
-11.7954129993
 10
15.6886991562
 20
-11.9401455406
 10
15.7219685116
 20
-12.0813210147
 10
15.7628919293
 20
-12.2207331844
 10
15.8064914873
 20
-12.3591985905
 10
15.8514601824
 20
-12.4972171437
 10
15.9442475917
 20
-12.7697307673
  0
LINE
  5
709
100
AcDbEntity
  8
ASSI
100
AcDbLine
 62
250
  6
CONTINUOUS
 10
15.9705114436
 20
-10.2523449786
 11
15.8386011912
 21
-10.6422840249
  0
LINE
  5
70A
100
AcDbEntity
  8
RACCORDO
100
AcDbLine
 62
250
  6
CONTINUOUS
 10
15.9705114436
 20
-10.2523449786
 11
15.8386011912
 21
-10.6422840249
  0
LINE
  5
70B
100
AcDbEntity
  8
ASSI
100
AcDbLine
 62
7
  6
CONTINUOUS
 10
8.7260020274
 20
18.6206191198
 11
14.75
 21
18.6469044367
  0
LINE
  5
70C
100
AcDbEntity
  8
0
100
AcDbLine
 62
7
  6
CONTINUOUS
 10
8.7260020274
 20
18.6206191198
 11
14.75
 21
18.6469044367
  0
LINE
  5
70D
100
AcDbEntity
  8
RACCORDO
100
AcDbLine
 62
7
  6
CONTINUOUS
 10
11.7005306782
 20
16.6363448016
 11
9.845840063
 21
16.6363448016
  0
LINE
  5
70E
100
AcDbEntity
  8
RACCORDO
100
AcDbLine
 62
7
  6
CONTINUOUS
 10
8.854159937
 20
16.6363448016
 11
7.1585182661
 21
16.6363448016
  0
LINE
  5
70F
100
AcDbEntity
  8
0
100
AcDbLine
 62
7
  6
CONTINUOUS
 10
9.0
 20
17.3813448016
 11
9.7
 21
17.3813448016
  0
LINE
  5
710
100
AcDbEntity
  8
ASSI
100
AcDbLine
 62
7
  6
CONTINUOUS
 10
8.7260020274
 20
18.1249141281
 11
14.75
 21
18.1208482034
  0
LINE
  5
711
100
AcDbEntity
  8
DRAFT
100
AcDbLine
 62
7
  6
CONTINUOUS
 10
8.7260020274
 20
18.1249141281
 11
14.75
 21
18.1208482034
  0
LINE
  5
712
100
AcDbEntity
  8
ASSI
100
AcDbLine
 62
7
  6
CONTINUOUS
 10
7.0666860282
 20
17.8447002131
 11
9.7
 21
17.8293800405
  0
LINE
  5
713
100
AcDbEntity
  8
DRAFT
100
AcDbLine
 62
7
  6
CONTINUOUS
 10
7.0666860282
 20
17.8447002131
 11
9.7
 21
17.8293800405
  0
LINE
  5
714
100
AcDbEntity
  8
ASSI
100
AcDbLine
 62
250
  6
CONTINUOUS
 10
2.25
 20
17.5993978025
 11
-7.75
 21
17.6716990487
  0
LINE
  5
715
100
AcDbEntity
  8
0
100
AcDbLine
 62
250
  6
CONTINUOUS
 10
2.25
 20
17.5993978025
 11
-7.75
 21
17.6716990487
  0
LWPOLYLINE
  5
716
100
AcDbEntity
  8
ASSI
100
AcDbPolyline
 62
7
  6
CONTINUOUS
 90
19
 70
0
 10
15.2558177314
 20
16.046168518
 10
15.3436912989
 20
16.0422505666
 10
15.4295835616
 20
16.0320539304
 10
15.5134945192
 20
16.0155786094
 10
15.5960238823
 20
15.9926071222
 10
15.6765719404
 20
15.9633569501
 10
15.7533395621
 20
15.9284805373
 10
15.8262439068
 20
15.8878499648
 10
15.8953678151
 20
15.8415931515
 10
15.9591606769
 20
15.7907462983
 10
16.0175014424
 20
15.735205181
 10
16.0705111613
 20
15.6750740237
 10
16.1170023735
 20
15.6117016998
 10
16.1568268912
 20
15.5450172128
 10
16.1901329021
 20
15.4750915591
 10
16.2161775082
 20
15.4034866017
 10
16.2347130769
 20
15.3307229615
 10
16.2459872408
 20
15.2562800177
 10
16.25
 20
15.1801577701
  0
LWPOLYLINE
  5
717
100
AcDbEntity
  8
RACCORDO
100
AcDbPolyline
 62
7
  6
CONTINUOUS
 90
19
 70
0
 10
15.2558177314
 20
16.046168518
 10
15.3436912989
 20
16.0422505666
 10
15.4295835616
 20
16.0320539304
 10
15.5134945192
 20
16.0155786094
 10
15.5960238823
 20
15.9926071222
 10
15.6765719404
 20
15.9633569501
 10
15.7533395621
 20
15.9284805373
 10
15.8262439068
 20
15.8878499648
 10
15.8953678151
 20
15.8415931515
 10
15.9591606769
 20
15.7907462983
 10
16.0175014424
 20
15.735205181
 10
16.0705111613
 20
15.6750740237
 10
16.1170023735
 20
15.6117016998
 10
16.1568268912
 20
15.5450172128
 10
16.1901329021
 20
15.4750915591
 10
16.2161775082
 20
15.4034866017
 10
16.2347130769
 20
15.3307229615
 10
16.2459872408
 20
15.2562800177
 10
16.25
 20
15.1801577701
  0
LINE
  5
718
100
AcDbEntity
  8
ASSI
100
AcDbLine
 62
7
  6
CONTINUOUS
 10
16.5238532772
 20
15.7257301888
 11
15.9777959144
 21
15.7730053258
  0
LINE
  5
719
100
AcDbEntity
  8
RACCORDO
100
AcDbLine
 62
7
  6
CONTINUOUS
 10
16.5238532772
 20
15.7257301888
 11
15.9777959144
 21
15.7730053258
  0
LINE
  5
71A
100
AcDbEntity
  8
ASSI
100
AcDbLine
 62
7
  6
CONTINUOUS
 10
16.5238532772
 20
15.7260409428
 11
17.9761467228
 21
15.5989817302
  0
LINE
  5
71B
100
AcDbEntity
  8
DRAFT
100
AcDbLine
 62
7
  6
CONTINUOUS
 10
16.5238532772
 20
15.7260409428
 11
17.9761467228
 21
15.5989817302
  0
LWPOLYLINE
  5
71C
100
AcDbEntity
  8
ASSI
100
AcDbPolyline
 62
7
  6
CONTINUOUS
 90
18
 70
0
 10
16.5238532772
 20
15.7257301888
 10
16.5040421105
 20
15.7281547386
 10
16.484670891
 20
15.731768265
 10
16.4657396188
 20
15.7365707679
 10
16.4471615935
 20
15.7426231657
 10
16.4290235154
 20
15.7498645401
 10
16.4115854858
 20
15.7581121361
 10
16.3948854209
 20
15.7673721101
 10
16.3788854044
 20
15.7776383057
 10
16.363731789
 20
15.7887094983
 10
16.3494414025
 20
15.8005885317
 10
16.3359974171
 20
15.8132725622
 10
16.3234957022
 20
15.8265518347
 10
16.3119581821
 20
15.8404082146
 10
16.3013629325
 20
15.8548598365
 10
16.2917400493
 20
15.8697513483
 10
16.2830901185
 20
15.8850780481
 10
16.2754125541
 20
15.9008446378
  0
LWPOLYLINE
  5
71D
100
AcDbEntity
  8
RACCORDO
100
AcDbPolyline
 62
7
  6
CONTINUOUS
 90
18
 70
0
 10
16.5238532772
 20
15.7257301888
 10
16.5040421105
 20
15.7281547386
 10
16.484670891
 20
15.731768265
 10
16.4657396188
 20
15.7365707679
 10
16.4471615935
 20
15.7426231657
 10
16.4290235154
 20
15.7498645401
 10
16.4115854858
 20
15.7581121361
 10
16.3948854209
 20
15.7673721101
 10
16.3788854044
 20
15.7776383057
 10
16.363731789
 20
15.7887094983
 10
16.3494414025
 20
15.8005885317
 10
16.3359974171
 20
15.8132725622
 10
16.3234957022
 20
15.8265518347
 10
16.3119581821
 20
15.8404082146
 10
16.3013629325
 20
15.8548598365
 10
16.2917400493
 20
15.8697513483
 10
16.2830901185
 20
15.8850780481
 10
16.2754125541
 20
15.9008446378
  0
LINE
  5
71E
100
AcDbEntity
  8
0
100
AcDbLine
 62
250
  6
CONTINUOUS
 10
12.7471182177
 20
12.023604
 11
11.9503959624
 21
12.499343
  0
LINE
  5
71F
100
AcDbEntity
  8
0
100
AcDbLine
 62
7
  6
CONTINUOUS
 10
9.845840063
 20
16.6363448016
 11
9.7
 21
16.8814422699
  0
LWPOLYLINE
  5
720
100
AcDbEntity
  8
ASSI
100
AcDbPolyline
 62
250
  6
CONTINUOUS
 90
3
 70
0
 10
17.9761469367
 20
13.3389374547
 10
17.9797785164
 20
13.2702581014
 10
17.9809397472
 20
13.2464525556
  0
LWPOLYLINE
  5
721
100
AcDbEntity
  8
RACCORDO
100
AcDbPolyline
 62
250
  6
CONTINUOUS
 90
3
 70
0
 10
17.9761469367
 20
13.3389374547
 10
17.9797785164
 20
13.2702581014
 10
17.9809397472
 20
13.2464525556
  0
LWPOLYLINE
  5
722
100
AcDbEntity
  8
ASSI
100
AcDbPolyline
 62
250
  6
CONTINUOUS
 90
15
 70
0
 10
16.2446428465
 20
-18.2853735711
 10
16.2286287842
 20
-18.3576849007
 10
16.2021293927
 20
-18.4284383078
 10
16.1654285947
 20
-18.4968757187
 10
16.1189196136
 20
-18.5622638739
 10
16.0631007611
 20
-18.6239021846
 10
15.9985700974
 20
-18.6811302391
 10
15.9260190239
 20
-18.7333348784
 10
15.846224875
 20
-18.7799567659
 10
15.7600425898
 20
-18.8204963806
 10
15.6683955517
 20
-18.8545193685
 10
15.5722656953
 20
-18.8816611967
 10
15.4726829852
 20
-18.9016310593
 10
15.3707143813
 20
-18.9142149931
 10
15.2674524064
 20
-18.9192781701
  0
LWPOLYLINE
  5
723
100
AcDbEntity
  8
RACCORDO
100
AcDbPolyline
 62
250
  6
CONTINUOUS
 90
15
 70
0
 10
16.2446428465
 20
-18.2853735711
 10
16.2286287842
 20
-18.3576849007
 10
16.2021293927
 20
-18.4284383078
 10
16.1654285947
 20
-18.4968757187
 10
16.1189196136
 20
-18.5622638739
 10
16.0631007611
 20
-18.6239021846
 10
15.9985700974
 20
-18.6811302391
 10
15.9260190239
 20
-18.7333348784
 10
15.846224875
 20
-18.7799567659
 10
15.7600425898
 20
-18.8204963806
 10
15.6683955517
 20
-18.8545193685
 10
15.5722656953
 20
-18.8816611967
 10
15.4726829852
 20
-18.9016310593
 10
15.3707143813
 20
-18.9142149931
 10
15.2674524064
 20
-18.9192781701
  0
LWPOLYLINE
  5
724
100
AcDbEntity
  8
ASSI
100
AcDbPolyline
 62
250
  6
CONTINUOUS
 90
17
 70
0
 10
15.9886751358
 20
-10.7217129557
 10
15.9436902158
 20
-10.8195471698
 10
15.8980359186
 20
-10.9202491453
 10
15.8528349378
 20
-11.0246462481
 10
15.813453721
 20
-11.1355523583
 10
15.7785567234
 20
-11.254811345
 10
15.7494794898
 20
-11.3803792908
 10
15.7355951025
 20
-11.5090495032
 10
15.7416057062
 20
-11.6405638689
 10
15.7628091562
 20
-11.7743806554
 10
15.7944721003
 20
-11.9067664096
 10
15.8375398865
 20
-12.0356973198
 10
15.8910671667
 20
-12.1625486347
 10
15.9474845447
 20
-12.288820644
 10
16.0056383362
 20
-12.4148012847
 10
16.0666822255
 20
-12.5396369588
 10
16.1265078689
 20
-12.6631865382
  0
LWPOLYLINE
  5
725
100
AcDbEntity
  8
RACCORDO
100
AcDbPolyline
 62
250
  6
CONTINUOUS
 90
17
 70
0
 10
15.9886751358
 20
-10.7217129557
 10
15.9436902158
 20
-10.8195471698
 10
15.8980359186
 20
-10.9202491453
 10
15.8528349378
 20
-11.0246462481
 10
15.813453721
 20
-11.1355523583
 10
15.7785567234
 20
-11.254811345
 10
15.7494794898
 20
-11.3803792908
 10
15.7355951025
 20
-11.5090495032
 10
15.7416057062
 20
-11.6405638689
 10
15.7628091562
 20
-11.7743806554
 10
15.7944721003
 20
-11.9067664096
 10
15.8375398865
 20
-12.0356973198
 10
15.8910671667
 20
-12.1625486347
 10
15.9474845447
 20
-12.288820644
 10
16.0056383362
 20
-12.4148012847
 10
16.0666822255
 20
-12.5396369588
 10
16.1265078689
 20
-12.6631865382
  0
LINE
  5
726
100
AcDbEntity
  8
ASSI
100
AcDbLine
 62
250
  6
CONTINUOUS
 10
16.0780065575
 20
-10.5371432127
 11
15.9886751358
 21
-10.7217129557
  0
LINE
  5
727
100
AcDbEntity
  8
RACCORDO
100
AcDbLine
 62
250
  6
CONTINUOUS
 10
16.0780065575
 20
-10.5371432127
 11
15.9886751358
 21
-10.7217129557
  0
LINE
  5
728
100
AcDbEntity
  8
ASSI
100
AcDbLine
 62
250
  6
CONTINUOUS
 10
2.25
 20
19.0133959733
 11
-7.75
 21
19.0856972195
  0
LINE
  5
729
100
AcDbEntity
  8
0
100
AcDbLine
 62
250
  6
CONTINUOUS
 10
2.25
 20
19.0133959733
 11
-7.75
 21
19.0856972195
  0
LINE
  5
72A
100
AcDbEntity
  8
RACCORDO
100
AcDbLine
 62
7
  6
CONTINUOUS
 10
15.2674524064
 20
19.3837586919
 11
14.75
 21
19.3927908573
  0
LINE
  5
72B
100
AcDbEntity
  8
ASSI
100
AcDbLine
 62
7
  6
CONTINUOUS
 10
2.25
 20
19.6109791689
 11
15.2674524064
 21
19.3837586919
  0
LINE
  5
72C
100
AcDbEntity
  8
0
100
AcDbLine
 62
7
  6
CONTINUOUS
 10
2.25
 20
19.6109791689
 11
14.75
 21
19.3927908573
  0
LINE
  5
72D
100
AcDbEntity
  8
RACCORDO
100
AcDbLine
 62
250
  6
CONTINUOUS
 10
-17.3361551697
 20
20.5419058565
 11
-17.8220351668
 21
20.5622131686
  0
LWPOLYLINE
  5
72E
100
AcDbEntity
  8
RACCORDO
100
AcDbPolyline
 62
250
  6
CONTINUOUS
 90
3
 70
0
 10
-17.8220351668
 20
20.5622131686
 10
-17.8264533075
 20
20.5624286744
 10
-17.8270059724
 20
20.5624683248
  0
LWPOLYLINE
  5
72F
100
AcDbEntity
  8
RACCORDO
100
AcDbPolyline
 62
7
  6
CONTINUOUS
 90
31
 70
0
 10
11.2036279749
 20
17.1746194326
 10
11.1021468003
 20
17.2252922881
 10
10.9960853125
 20
17.2727657937
 10
10.8857659847
 20
17.316973964
 10
10.7715161816
 20
17.3578556986
 10
10.6536520578
 20
17.3953596931
 10
10.5324967067
 20
17.4294369043
 10
10.4084212858
 20
17.4600320666
 10
10.2817426708
 20
17.4871113759
 10
10.1527258252
 20
17.5106529282
 10
10.0217193711
 20
17.5306204536
 10
9.8890783153
 20
17.5469842349
 10
9.7550873529
 20
17.5597279295
 10
9.620103194
 20
17.5688310546
 10
9.4844843824
 20
17.5742807437
 10
9.3485232722
 20
17.5760718454
 10
9.2125788422
 20
17.5742015975
 10
9.0770104979
 20
17.5686750293
 10
8.9421109339
 20
17.5594996033
 10
8.8082365412
 20
17.5466903904
 10
8.675743517
 20
17.5302701982
 10
8.5449186293
 20
17.5102582172
 10
8.4161123248
 20
17.4866862407
 10
8.2896721025
 20
17.4595931654
 10
8.1658688454
 20
17.4290055963
 10
8.0450367929
 20
17.3949668583
 10
7.9275182291
 20
17.3575295362
 10
7.8135769587
 20
17.3167249856
 10
7.7035119419
 20
17.2725951592
 10
7.5976692429
 20
17.2252053116
 10
7.4963720251
 20
17.1746194326
  0
LINE
  5
730
100
AcDbEntity
  8
0
100
AcDbLine
 62
7
  6
CONTINUOUS
 10
12.0193618315
 20
16.7444668402
 11
11.2036279749
 21
17.1746194326
  0
LINE
  5
731
100
AcDbEntity
  8
RACCORDO
100
AcDbLine
 62
250
  6
CONTINUOUS
 10
12.019784816
 20
16.7442437548
 11
12.0193618315
 21
16.7444668402
  0
LWPOLYLINE
  5
732
100
AcDbEntity
  8
RACCORDO
100
AcDbPolyline
 62
250
  6
CONTINUOUS
 90
22
 70
0
 10
11.2036279749
 20
17.1746194326
 10
11.2158250175
 20
17.168142663
 10
11.277401108
 20
17.1340047339
 10
11.3342679555
 20
17.1001473005
 10
11.3866080347
 20
17.0667473614
 10
11.4346703881
 20
17.0339319474
 10
11.4789271408
 20
17.0016450837
 10
11.5195693129
 20
16.96999641
 10
11.5567887737
 20
16.939086861
 10
11.5909941335
 20
16.9088107004
 10
11.622345909
 20
16.8792427835
 10
11.6510038605
 20
16.8504516713
 10
11.6773117061
 20
16.8222949724
 10
11.7013966339
 20
16.7948231769
 10
11.7233852979
 20
16.7680817131
 10
11.7435600976
 20
16.7419006566
 10
11.762016436
 20
16.7163131473
 10
11.7788489976
 20
16.6913491648
 10
11.7942826175
 20
16.6668195712
 10
11.8084246015
 20
16.6426730795
 10
11.8212941253
 20
16.6190013065
 10
11.8329564617
 20
16.5958225104
  0
LWPOLYLINE
  5
733
100
AcDbEntity
  8
RACCORDO
100
AcDbPolyline
 62
7
  6
CONTINUOUS
 90
10
 70
0
 10
11.8329564617
 20
16.5958225104
 10
11.8204432026
 20
16.6040138632
 10
11.8072779887
 20
16.6113184999
 10
11.79346082
 20
16.6177364207
 10
11.7788573743
 20
16.6233149628
 10
11.7636019738
 20
16.6280067889
 10
11.7480975844
 20
16.631669887
 10
11.7324785279
 20
16.6342569198
 10
11.7166104825
 20
16.6358152247
 10
11.7004934482
 20
16.6363448016
  0
LINE
  5
734
100
AcDbEntity
  8
RACCORDO
100
AcDbLine
 62
7
  6
CONTINUOUS
 10
12.1091182755
 20
16.4001856898
 11
11.8329564617
 21
16.5958225104
  0
LWPOLYLINE
  5
735
100
AcDbEntity
  8
0
100
AcDbPolyline
 62
7
  6
CONTINUOUS
 90
10
 70
0
 43
0.3500000006
 10
0.9642857051
 20
42.3491379547
 10
1.035714268
 20
42.2062846527
 10
1.035714268
 20
42.1348534698
 10
0.8928571422
 20
41.991995636
 10
0.8214285793
 20
41.991995636
 10
0.7500000165
 20
42.0634268188
 10
0.7500000165
 20
42.1348534698
 10
0.8214285793
 20
42.2777113037
 10
0.8928571422
 20
42.3491379547
 10
0.9642857051
 20
42.3491379547
  0
LWPOLYLINE
  5
736
100
AcDbEntity
  8
RACCORDO
100
AcDbPolyline
 62
250
  6
CONTINUOUS
 90
138
 70
0
 10
-16.4000255537
 20
21.498792941
 10
-16.4107045948
 20
21.4980612041
 10
-16.4213742374
 20
21.497215244
 10
-16.4320357723
 20
21.4962549227
 10
-16.4426879086
 20
21.4951803782
 10
-16.4533267735
 20
21.4939920245
 10
-16.463952309
 20
21.4926898431
 10
-16.4745645732
 20
21.4912738524
 10
-16.4851598677
 20
21.4897445218
 10
-16.495738183
 20
21.4881018022
 10
-16.5062995287
 20
21.4863457427
 10
-16.5168402352
 20
21.4844769601
 10
-16.5273602906
 20
21.4824954172
 10
-16.5378597068
 20
21.4804011512
 10
-16.5483348498
 20
21.4781948897
 10
-16.5587856945
 20
21.4758765972
 10
-16.5692122661
 20
21.4734463091
 10
-16.5796110058
 20
21.4709048597
 10
-16.5899818898
 20
21.4682522167
 10
-16.600324942
 20
21.4654884123
 10
-16.6106366758
 20
21.4626143779
 10
-16.6209171066
 20
21.4596300692
 10
-16.6311662191
 20
21.4565355303
 10
-16.6413804795
 20
21.4533318247
 10
-16.6515598793
 20
21.4500189131
 10
-16.6617044271
 20
21.4465968348
 10
-16.6718106158
 20
21.4430667709
 10
-16.6818784309
 20
21.4394286837
 10
-16.691907887
 20
21.4356826108
 10
-16.7018955203
 20
21.4318298459
 10
-16.7118413142
 20
21.4278703524
 10
-16.7217452854
 20
21.423804167
 10
-16.7316040192
 20
21.4196326927
 10
-16.7414175023
 20
21.4153558919
 10
-16.7511857481
 20
21.4109738023
 10
-16.7609053829
 20
21.4064879403
 10
-16.7705763909
 20
21.4018982689
 10
-16.780198788
 20
21.3972048252
 10
-16.7897692475
 20
21.3924092371
 10
-16.799287732
 20
21.3875114799
 10
-16.8087542788
 20
21.3825115782
 10
-16.8181656739
 20
21.3774112341
 10
-16.827521893
 20
21.3722104185
 10
-16.8368229604
 20
21.3669091604
 10
-16.8460657342
 20
21.361509249
 10
-16.8552501958
 20
21.3560106528
 10
-16.8643763638
 20
21.3504134033
 10
-16.8734411517
 20
21.3447193848
 10
-16.8824445558
 20
21.3389285547
 10
-16.8913865797
 20
21.3330409556
 10
-16.9002641481
 20
21.3270585993
 10
-16.9090772703
 20
21.3209814292
 10
-16.9178259369
 20
21.3148095019
 10
-16.9265070447
 20
21.308545
 10
-16.9351205837
 20
21.3021878743
 10
-16.9436665638
 20
21.2957381738
 10
-16.9521419116
 20
21.2891982287
 10
-16.9605465631
 20
21.2825680331
 10
-16.9688805823
 20
21.2758475929
 10
-16.9771410882
 20
21.269039255
 10
-16.9853279901
 20
21.262143049
 10
-16.9934413788
 20
21.2551589453
 10
-17.0014786447
 20
21.2480892024
 10
-17.0094397826
 20
21.2409337837
 10
-17.0173247978
 20
21.2336927257
 10
-17.0251310973
 20
21.2263683964
 10
-17.0328587544
 20
21.2189606693
 10
-17.0405076959
 20
21.2114696707
 10
-17.0480751087
 20
21.2038981475
 10
-17.055560933
 20
21.1962460922
 10
-17.0629652286
 20
21.1885135121
 10
-17.0702853623
 20
21.1807031763
 10
-17.0775212292
 20
21.1728151416
 10
-17.0846729341
 20
21.1648493512
 10
-17.0917381581
 20
21.1568084037
 10
-17.098716867
 20
21.1486922928
 10
-17.1056090949
 20
21.1405010248
 10
-17.112412625
 20
21.1322372173
 10
-17.1191274951
 20
21.1239007675
 10
-17.1257536675
 20
21.1154917783
 10
-17.1322888111
 20
21.1070131751
 10
-17.1387329162
 20
21.0984648967
 10
-17.1450859927
 20
21.0898470043
 10
-17.1513457384
 20
21.0811626067
 10
-17.1575121093
 20
21.0724116853
 10
-17.1635851495
 20
21.0635942587
 10
-17.1695626891
 20
21.0547134922
 10
-17.1754446645
 20
21.0457694041
 10
-17.1812311394
 20
21.0367619761
 10
-17.1869201348
 20
21.0276943191
 10
-17.1925115966
 20
21.0185664502
 10
-17.1980055789
 20
21.0093783524
 10
-17.2034002651
 20
21.0001330846
 10
-17.2086956305
 20
20.99083062
 10
-17.2138916998
 20
20.9814709855
 10
-17.2189867308
 20
20.972057321
 10
-17.223980703
 20
20.9625895855
 10
-17.2288736368
 20
20.95306782
 10
-17.2336638511
 20
20.9434952876
 10
-17.2383513226
 20
20.9338719426
 10
-17.2429360744
 20
20.9241978307
 10
-17.2474164949
 20
20.9144763522
 10
-17.2517925307
 20
20.9047075262
 10
-17.256064235
 20
20.8948913337
 10
-17.2602301555
 20
20.8850311172
 10
-17.2642902501
 20
20.8751268825
 10
-17.2682445608
 20
20.8651786238
 10
-17.2720917609
 20
20.8551896672
 10
-17.2758318218
 20
20.8451599855
 10
-17.279464772
 20
20.8350896059
 10
-17.2829893698
 20
20.8249819355
 10
-17.2864056108
 20
20.8148368501
 10
-17.2897134994
 20
20.8046544739
 10
-17.2929118074
 20
20.7944385871
 10
-17.2960004806
 20
20.7841891936
 10
-17.2989795733
 20
20.7739062895
 10
-17.3018480201
 20
20.7635936432
 10
-17.3046057446
 20
20.7532513825
 10
-17.3072528233
 20
20.7428793794
 10
-17.3097884209
 20
20.7324810188
 10
-17.3122124895
 20
20.722056396
 10
-17.3145250769
 20
20.7116054155
 10
-17.3167254914
 20
20.7011311758
 10
-17.3188137331
 20
20.690633547
 10
-17.3207898019
 20
20.6801126589
 10
-17.322653006
 20
20.6695719993
 10
-17.3244033243
 20
20.6590114468
 10
-17.3260407779
 20
20.6484311228
 10
-17.3275647385
 20
20.6378348799
 10
-17.3289751572
 20
20.6272227127
 10
-17.330272083
 20
20.6165946265
 10
-17.3314550342
 20
20.6059544901
 10
-17.332523967
 20
20.5953022042
 10
-17.3334789254
 20
20.5846378681
 10
-17.3343195597
 20
20.5739656486
 10
-17.3350457537
 20
20.5632869346
 10
-17.3356576236
 20
20.5526003373
 10
-17.3361551697
 20
20.5419058565
  0
LINE
  5
737
100
AcDbEntity
  8
RACCORDO
100
AcDbLine
 62
250
  6
CONTINUOUS
 10
-12.7887323627
 20
21.7223497319
 11
-14.0317714839
 21
21.6412763478
  0
LINE
  5
738
100
AcDbEntity
  8
RACCORDO
100
AcDbLine
 62
250
  6
CONTINUOUS
 10
-14.0317714839
 20
21.6412763478
 11
-14.6357510747
 21
21.6023720188
  0
LWPOLYLINE
  5
739
100
AcDbEntity
  8
RACCORDO
100
AcDbPolyline
 62
250
  6
CONTINUOUS
 90
6
 70
0
 10
-14.6357510747
 20
21.6023720188
 10
-15.216020641
 20
21.566169232
 10
-15.5054373733
 20
21.5488243063
 10
-15.7984913489
 20
21.5318937045
 10
-16.0931245958
 20
21.5154224206
 10
-16.4000255537
 20
21.498792941
  0
LWPOLYLINE
  5
73A
100
AcDbEntity
  8
RACCORDO
100
AcDbPolyline
 62
250
  6
CONTINUOUS
 90
7
 70
0
 10
-10.8437596953
 20
21.8397834628
 10
-11.0966945105
 20
21.8257712893
 10
-11.3570313757
 20
21.8108875338
 10
-11.6233744869
 20
21.7952632734
 10
-11.8993532051
 20
21.7786247399
 10
-12.1876632064
 20
21.760720597
 10
-12.7887323627
 20
21.7223497319
  0
LINE
  5
73B
100
AcDbEntity
  8
DRAFT
100
AcDbLine
 62
7
  6
CONTINUOUS
 10
-7.5502132398
 20
20.9104703804
 11
-7.75
 21
20.9
  0
LWPOLYLINE
  5
73C
100
AcDbEntity
  8
RACCORDO
100
AcDbPolyline
 62
250
  6
CONTINUOUS
 90
4
 70
0
 10
-8.7481108857
 20
21.9498978415
 10
-9.84396307
 20
21.892528207
 10
-10.0969328133
 20
21.8794275036
 10
-10.8437596953
 20
21.8397834628
  0
LINE
  5
73D
100
AcDbEntity
  8
RACCORDO
100
AcDbLine
 62
7
  6
CONTINUOUS
 10
1.7587262032
 20
21.5659754333
 11
-7.75
 21
21.4
  0
LINE
  5
73E
100
AcDbEntity
  8
RACCORDO
100
AcDbLine
 62
7
  6
CONTINUOUS
 10
2.25
 20
20.9959955457
 11
-7.5502132398
 21
20.9104703804
  0
LINE
  5
73F
100
AcDbEntity
  8
ASSI
100
AcDbLine
 62
7
  6
CONTINUOUS
 10
-7.75
 20
20.85
 11
2.25
 21
20.85
  0
LINE
  5
740
100
AcDbEntity
  8
DRAFT
100
AcDbLine
 62
7
  6
CONTINUOUS
 10
-7.75
 20
20.85
 11
2.25
 21
20.85
  0
LINE
  5
741
100
AcDbEntity
  8
RACCORDO
100
AcDbLine
 62
250
  6
CONTINUOUS
 10
-7.75
 20
21.9411874598
 11
-8.7481108857
 21
21.9498978415
  0
LINE
  5
742
100
AcDbEntity
  8
RACCORDO
100
AcDbLine
 62
7
  6
CONTINUOUS
 10
1.2587265355
 20
22.3126551668
 11
-8.75
 21
22.4
  0
LWPOLYLINE
  5
743
100
AcDbEntity
  8
RACCORDO
100
AcDbPolyline
 62
250
  6
CONTINUOUS
 90
5
 70
0
 10
12.4156487966
 20
16.4944854199
 10
12.3690349961
 20
16.5297924173
 10
12.2616438746
 20
16.6030020522
 10
12.147158021
 20
16.6734729317
 10
12.019784816
 20
16.7442437548
  0
LWPOLYLINE
  5
744
100
AcDbEntity
  8
RACCORDO
100
AcDbPolyline
 62
7
  6
CONTINUOUS
 90
6
 70
0
 10
12.4162907588
 20
16.4961838003
 10
12.4097826567
 20
16.5012672069
 10
12.2978513511
 20
16.579717567
 10
12.1786195358
 20
16.654955721
 10
12.0526833652
 20
16.7266662204
 10
12.019784816
 20
16.7442437548
  0
LWPOLYLINE
  5
745
100
AcDbEntity
  8
ASSI
100
AcDbPolyline
 62
7
  6
CONTINUOUS
 90
8
 70
0
 10
16.2754125541
 20
15.9008446378
 10
16.2687356942
 20
15.9169098708
 10
16.2630595776
 20
15.9332671307
 10
16.2583841654
 20
15.9499230339
 10
16.2547376795
 20
15.9667561827
 10
16.2521295268
 20
15.9837261115
 10
16.2505503003
 20
16.0008732859
 10
16.25
 20
16.0181977061
  0
LWPOLYLINE
  5
746
100
AcDbEntity
  8
RACCORDO
100
AcDbPolyline
 62
7
  6
CONTINUOUS
 90
8
 70
0
 10
16.2754125541
 20
15.9008446378
 10
16.2687356942
 20
15.9169098708
 10
16.2630595776
 20
15.9332671307
 10
16.2583841654
 20
15.9499230339
 10
16.2547376795
 20
15.9667561827
 10
16.2521295268
 20
15.9837261115
 10
16.2505503003
 20
16.0008732859
 10
16.25
 20
16.0181977061
  0
LWPOLYLINE
  5
747
100
AcDbEntity
  8
ASSI
100
AcDbPolyline
 62
250
  6
CONTINUOUS
 90
13
 70
0
 10
18.25
 20
13.269118431
 10
18.2477103328
 20
13.2777608948
 10
18.240876317
 20
13.2862714331
 10
18.2296022748
 20
13.2945201386
 10
18.2140603028
 20
13.3023811005
 10
18.194487643
 20
13.3097343275
 10
18.1711830614
 20
13.316467579
 10
18.1445022897
 20
13.3224780774
 10
18.1148525932
 20
13.3276740777
 10
18.0826865514
 20
13.3319762682
 10
18.0484951551
 20
13.3353189799
 10
18.0128003126
 20
13.3376511894
 10
17.9761468793
 20
13.3389372978
  0
LWPOLYLINE
  5
748
100
AcDbEntity
  8
RACCORDO
100
AcDbPolyline
 62
250
  6
CONTINUOUS
 90
13
 70
0
 10
18.25
 20
13.269118431
 10
18.2477103328
 20
13.2777608948
 10
18.240876317
 20
13.2862714331
 10
18.2296022748
 20
13.2945201386
 10
18.2140603028
 20
13.3023811005
 10
18.194487643
 20
13.3097343275
 10
18.1711830614
 20
13.316467579
 10
18.1445022897
 20
13.3224780774
 10
18.1148525932
 20
13.3276740777
 10
18.0826865514
 20
13.3319762682
 10
18.0484951551
 20
13.3353189799
 10
18.0128003126
 20
13.3376511894
 10
17.9761468793
 20
13.3389372978
  0
LINE
  5
749
100
AcDbEntity
  8
RACCORDO
100
AcDbLine
 62
7
  6
CONTINUOUS
 10
-8.75
 20
22.4
 11
-16.4067788889
 21
21.998725222
  0
LINE
  5
74A
100
AcDbEntity
  8
RACCORDO
100
AcDbLine
 62
250
  6
CONTINUOUS
 10
-8.75
 20
24.2500042308
 11
-11.0014544328
 21
24.2369056521
  0
LINE
  5
74B
100
AcDbEntity
  8
RACCORDO
100
AcDbLine
 62
7
  6
CONTINUOUS
 10
-8.75
 20
24.5
 11
-11.0014544328
 21
24.4869014213
  0
LINE
  5
74C
100
AcDbEntity
  8
RACCORDO
100
AcDbLine
 62
250
  6
CONTINUOUS
 10
-11.25
 20
23.8443375673
 11
-11.0014544328
 21
23.8443375673
  0
LINE
  5
74D
100
AcDbEntity
  8
RACCORDO
100
AcDbLine
 62
250
  6
CONTINUOUS
 10
-7.75
 20
23.8443375673
 11
-7.9985455672
 21
23.8443375673
  0
LINE
  5
74E
100
AcDbEntity
  8
RACCORDO
100
AcDbLine
 62
250
  6
CONTINUOUS
 10
-11.25
 20
24.2369056521
 11
-11.0014544328
 21
24.2369056521
  0
LINE
  5
74F
100
AcDbEntity
  8
RACCORDO
100
AcDbLine
 62
250
  6
CONTINUOUS
 10
-7.75
 20
24.2456323968
 11
-7.9985455672
 21
24.2456323968
  0
LINE
  5
750
100
AcDbEntity
  8
ASSI
100
AcDbLine
 62
7
  6
CONTINUOUS
 10
-7.7550926577
 20
23.7942117984
 11
-1.2470911343
 21
23.7563493531
  0
LINE
  5
751
100
AcDbEntity
  8
RACCORDO
100
AcDbLine
 62
250
  6
CONTINUOUS
 10
-7.9985455672
 20
24.2456323968
 11
-8.75
 21
24.2500042308
  0
LINE
  5
752
100
AcDbEntity
  8
RACCORDO
100
AcDbLine
 62
7
  6
CONTINUOUS
 10
-7.9985455672
 20
24.495628166
 11
-8.75
 21
24.5
  0
LWPOLYLINE
  5
753
100
AcDbEntity
  8
0
100
AcDbPolyline
 62
7
  6
CONTINUOUS
 90
7
 70
0
 43
0.3500000006
 10
4.3928571482
 20
32.5602788086
 10
2.8928572569
 20
32.5602788086
 10
4.3928571482
 20
34.7031372528
 10
4.3928571482
 20
35.1317107544
 10
3.9642856293
 20
35.5602797241
 10
3.3214284925
 20
35.5602797241
 10
2.8928572569
 20
34.9174217377
  0
LWPOLYLINE
  5
754
100
AcDbEntity
  8
0
100
AcDbPolyline
 62
7
  6
CONTINUOUS
 90
6
 70
0
 43
0.3500000006
 10
-4.1785715303
 20
41.8491378021
 10
-3.1071428747
 20
41.8491378021
 10
-2.8928572569
 20
42.0634268188
 10
-2.8928572569
 20
43.134853775
 10
-3.3214284925
 20
43.5634272766
 10
-3.7500000114
 20
43.5634272766
  0
LWPOLYLINE
  5
755
100
AcDbEntity
  8
0
100
AcDbPolyline
 62
7
  6
CONTINUOUS
 90
8
 70
0
 43
0.3500000006
 10
2.0357142191
 20
41.8491378021
 10
2.8928572569
 20
41.8491378021
 10
3.3214284925
 20
42.2777113037
 10
3.3214284925
 20
43.134853775
 10
2.8928572569
 20
43.5634272766
 10
2.0357142191
 20
43.5634272766
 10
2.0357142191
 20
44.8491387177
 10
3.3214284925
 20
44.8491387177
  0
ARC
  5
756
100
AcDbEntity
  8
RACCORDO
100
AcDbCircle
 62
7
  6
CONTINUOUS
 10
-16.3282749545
 20
-20.5007809198
 40
1.5
100
AcDbArc
 50
182.3569499908
 51
267.0
  0
ARC
  5
757
100
AcDbEntity
  8
RACCORDO
100
AcDbCircle
 62
7
  6
CONTINUOUS
 10
1.25
 20
-21.3126932437
 40
1.0
100
AcDbArc
 50
270.5
 51
360.0
  0
ARC
  5
758
100
AcDbEntity
  8
ASSI
100
AcDbCircle
 62
7
  6
CONTINUOUS
 10
15.25
 20
-18.3839109968
 40
1.0
100
AcDbArc
 50
271.0
 51
360.0
  0
ARC
  5
759
100
AcDbEntity
  8
RACCORDO
100
AcDbCircle
 62
7
  6
CONTINUOUS
 10
15.25
 20
-18.3839109968
 40
1.0
100
AcDbArc
 50
271.0
 51
360.0
  0
ARC
  5
75A
100
AcDbEntity
  8
ASSI
100
AcDbCircle
 62
7
  6
CONTINUOUS
 10
-1.25
 20
-23.2563578147
 40
0.5
100
AcDbArc
 50
270.3333333333
 51
360.0
  0
ARC
  5
75B
100
AcDbEntity
  8
ASSI
100
AcDbCircle
 62
7
  6
CONTINUOUS
 10
17.95
 20
-8.8998766793
 40
0.3
100
AcDbArc
 50
0.0
 51
85.0
  0
ARC
  5
75C
100
AcDbEntity
  8
ASSI
100
AcDbCircle
 62
7
  6
CONTINUOUS
 10
17.95
 20
-14.2001233207
 40
0.3
100
AcDbArc
 50
275.0
 51
360.0
  0
ARC
  5
75D
100
AcDbEntity
  8
ASSI
100
AcDbCircle
 62
7
  6
CONTINUOUS
 10
16.55
 20
-14.9248993522
 40
0.3
100
AcDbArc
 50
95.0
 51
180.0
  0
ARC
  5
75E
100
AcDbEntity
  8
ASSI
100
AcDbCircle
 62
7
  6
CONTINUOUS
 10
16.55
 20
-8.1751006478
 40
0.3
100
AcDbArc
 50
180.0
 51
265.0
  0
ARC
  5
75F
100
AcDbEntity
  8
RACCORDO
100
AcDbCircle
 62
7
  6
CONTINUOUS
 10
17.95
 20
-8.8998766793
 40
0.3
100
AcDbArc
 50
0.0
 51
85.0
  0
ARC
  5
760
100
AcDbEntity
  8
RACCORDO
100
AcDbCircle
 62
7
  6
CONTINUOUS
 10
17.95
 20
-14.2001233207
 40
0.3
100
AcDbArc
 50
275.0
 51
360.0
  0
ARC
  5
761
100
AcDbEntity
  8
RACCORDO
100
AcDbCircle
 62
7
  6
CONTINUOUS
 10
16.55
 20
-14.9248993522
 40
0.3
100
AcDbArc
 50
95.0
 51
180.0
  0
ARC
  5
762
100
AcDbEntity
  8
RACCORDO
100
AcDbCircle
 62
7
  6
CONTINUOUS
 10
16.55
 20
-8.1751006478
 40
0.3
100
AcDbArc
 50
180.0
 51
265.0
  0
ARC
  5
763
100
AcDbEntity
  8
RACCORDO
100
AcDbCircle
 62
7
  6
CONTINUOUS
 10
-11.0
 20
-24.2369056521
 40
0.25
100
AcDbArc
 50
180.0
 51
269.6666666667
  0
ARC
  5
764
100
AcDbEntity
  8
RACCORDO
100
AcDbCircle
 62
7
  6
CONTINUOUS
 10
-8.0
 20
-24.2456323968
 40
0.25
100
AcDbArc
 50
270.3333333333
 51
360.0
  0
ARC
  5
765
100
AcDbEntity
  8
RACCORDO
100
AcDbCircle
 62
7
  6
CONTINUOUS
 10
-8.0
 20
-23.8443375673
 40
0.25
100
AcDbArc
 50
0.0
 51
60.0
  0
ARC
  5
766
100
AcDbEntity
  8
RACCORDO
100
AcDbCircle
 62
7
  6
CONTINUOUS
 10
-11.0
 20
-23.8443375673
 40
0.25
100
AcDbArc
 50
120.0
 51
180.0
  0
ARC
  5
767
100
AcDbEntity
  8
RACCORDO
100
AcDbCircle
 62
7
  6
CONTINUOUS
 10
-16.3282749545
 20
20.5007809198
 40
1.5
100
AcDbArc
 50
93.0
 51
177.6430500092
  0
ARC
  5
768
100
AcDbEntity
  8
RACCORDO
100
AcDbCircle
 62
7
  6
CONTINUOUS
 10
1.25
 20
21.3126932437
 40
1.0
100
AcDbArc
 50
0.0
 51
89.5
  0
ARC
  5
769
100
AcDbEntity
  8
ASSI
100
AcDbCircle
 62
7
  6
CONTINUOUS
 10
15.25
 20
18.3839109968
 40
1.0
100
AcDbArc
 50
0.0
 51
89.0
  0
ARC
  5
76A
100
AcDbEntity
  8
RACCORDO
100
AcDbCircle
 62
7
  6
CONTINUOUS
 10
15.25
 20
18.3839109968
 40
1.0
100
AcDbArc
 50
0.0
 51
89.0
  0
ARC
  5
76B
100
AcDbEntity
  8
ASSI
100
AcDbCircle
 62
7
  6
CONTINUOUS
 10
-1.25
 20
23.2563578147
 40
0.5
100
AcDbArc
 50
0.0
 51
89.6666666667
  0
ARC
  5
76C
100
AcDbEntity
  8
ASSI
100
AcDbCircle
 62
7
  6
CONTINUOUS
 10
17.95
 20
12.8001233207
 40
0.3
100
AcDbArc
 50
0.0
 51
85.0
  0
ARC
  5
76D
100
AcDbEntity
  8
ASSI
100
AcDbCircle
 62
7
  6
CONTINUOUS
 10
17.95
 20
7.4998766793
 40
0.3
100
AcDbArc
 50
275.0
 51
360.0
  0
ARC
  5
76E
100
AcDbEntity
  8
ASSI
100
AcDbCircle
 62
7
  6
CONTINUOUS
 10
17.95
 20
15.3001233207
 40
0.3
100
AcDbArc
 50
0.0
 51
85.0
  0
ARC
  5
76F
100
AcDbEntity
  8
ASSI
100
AcDbCircle
 62
7
  6
CONTINUOUS
 10
16.55
 20
6.7751006478
 40
0.3
100
AcDbArc
 50
95.0
 51
180.0
  0
ARC
  5
770
100
AcDbEntity
  8
RACCORDO
100
AcDbCircle
 62
7
  6
CONTINUOUS
 10
17.95
 20
12.8001233207
 40
0.3
100
AcDbArc
 50
0.0
 51
85.0
  0
ARC
  5
771
100
AcDbEntity
  8
RACCORDO
100
AcDbCircle
 62
7
  6
CONTINUOUS
 10
17.95
 20
7.4998766793
 40
0.3
100
AcDbArc
 50
275.0
 51
360.0
  0
ARC
  5
772
100
AcDbEntity
  8
RACCORDO
100
AcDbCircle
 62
7
  6
CONTINUOUS
 10
17.95
 20
15.3001233207
 40
0.3
100
AcDbArc
 50
0.0
 51
85.0
  0
ARC
  5
773
100
AcDbEntity
  8
RACCORDO
100
AcDbCircle
 62
7
  6
CONTINUOUS
 10
16.55
 20
6.7751006478
 40
0.3
100
AcDbArc
 50
95.0
 51
180.0
  0
ARC
  5
774
100
AcDbEntity
  8
RACCORDO
100
AcDbCircle
 62
7
  6
CONTINUOUS
 10
-8.0
 20
24.2456323968
 40
0.25
100
AcDbArc
 50
0.0
 51
89.6666666667
  0
ARC
  5
775
100
AcDbEntity
  8
RACCORDO
100
AcDbCircle
 62
7
  6
CONTINUOUS
 10
-8.0
 20
23.8443375673
 40
0.25
100
AcDbArc
 50
300.0
 51
360.0
  0
ARC
  5
776
100
AcDbEntity
  8
RACCORDO
100
AcDbCircle
 62
7
  6
CONTINUOUS
 10
-11.0
 20
24.2369056521
 40
0.25
100
AcDbArc
 50
90.3333333333
 51
180.0
  0
ARC
  5
777
100
AcDbEntity
  8
RACCORDO
100
AcDbCircle
 62
7
  6
CONTINUOUS
 10
-11.0
 20
23.8443375673
 40
0.25
100
AcDbArc
 50
180.0
 51
240.0
  0
ARC
  5
778
100
AcDbEntity
  8
RACCORDO
100
AcDbCircle
 62
7
  6
CONTINUOUS
 10
481.75
 20
0.0
 40
500.0
100
AcDbArc
 50
177.6430500092
 51
182.3569499908
  0
ELLIPSE
  5
779
100
AcDbEntity
  8
RACCORDO
100
AcDbEllipse
 62
7
  6
CONTINUOUS
 10
65.6999314524
 20
21.9412559969
 30
0.0
 11
0.4025750024
 21
-0.2012721715
 31
0.0
 40
0.9998096356
 41
0.4635410001
 42
1.5707963327
  0
ELLIPSE
  5
77A
100
AcDbEntity
  8
RACCORDO
100
AcDbEllipse
 62
7
  6
CONTINUOUS
 10
44.3000685476
 20
-21.9412559969
 30
0.0
 11
0.4025750024
 21
-0.2012721715
 31
0.0
 40
0.9998096356
 41
-2.6780516535
 42
-1.5707963219
  0
ELLIPSE
  5
77B
100
AcDbEntity
  8
RACCORDO
100
AcDbEllipse
 62
7
  6
CONTINUOUS
 10
65.6999314524
 20
-21.9412559969
 30
0.0
 11
0.4025750024
 21
0.2012721715
 31
0.0
 40
0.9998096356
 41
-1.5707963327
 42
-0.4635410001
  0
ELLIPSE
  5
77C
100
AcDbEntity
  8
RACCORDO
100
AcDbEllipse
 62
7
  6
CONTINUOUS
 10
44.3000685476
 20
21.9412559969
 30
0.0
 11
0.4025750024
 21
0.2012721715
 31
0.0
 40
0.9998096356
 41
1.5707963219
 42
2.6780516535
  0
ELLIPSE
  5
77D
100
AcDbEntity
  8
RACCORDO
100
AcDbEllipse
 62
7
  6
CONTINUOUS
 10
58.8970826234
 20
22.3737961104
 30
0.0
 11
0.5
 21
-0.0
 31
0.0
 40
0.0524077793
 41
-1.5707963268
 42
-0.0058177642
  0
ELLIPSE
  5
77E
100
AcDbEntity
  8
RACCORDO
100
AcDbEllipse
 62
7
  6
CONTINUOUS
 10
58.8970826234
 20
23.7970910851
 30
0.0
 11
0.5
 21
-0.0
 31
0.0
 40
0.0058178298
 41
-0.6464131586
 42
-0.0058177642
  0
ELLIPSE
  5
77F
100
AcDbEntity
  8
RACCORDO
100
AcDbEllipse
 62
7
  6
CONTINUOUS
 10
51.1029173766
 20
23.7970910851
 30
0.0
 11
0.5
 21
0.0
 31
0.0
 40
0.0058178298
 41
-3.1357748894
 42
-2.495179495
  0
ELLIPSE
  5
780
100
AcDbEntity
  8
RACCORDO
100
AcDbEllipse
 62
7
  6
CONTINUOUS
 10
51.1029173766
 20
22.3737961104
 30
0.0
 11
0.5
 21
0.0
 31
0.0
 40
0.0524077793
 41
-3.1357748894
 42
-1.5707963268
  0
ELLIPSE
  5
781
100
AcDbEntity
  8
RACCORDO
100
AcDbEllipse
 62
7
  6
CONTINUOUS
 10
58.8970826234
 20
-23.7970910851
 30
0.0
 11
0.5
 21
0.0
 31
0.0
 40
0.0058178298
 41
0.0058177642
 42
0.6464131586
  0
ELLIPSE
  5
782
100
AcDbEntity
  8
RACCORDO
100
AcDbEllipse
 62
7
  6
CONTINUOUS
 10
58.8970826234
 20
-22.3737961104
 30
0.0
 11
0.5
 21
-0.0
 31
0.0
 40
0.0524077793
 41
0.0058177642
 42
1.5707963268
  0
ELLIPSE
  5
783
100
AcDbEntity
  8
RACCORDO
100
AcDbEllipse
 62
7
  6
CONTINUOUS
 10
51.1029173766
 20
-22.3737961104
 30
0.0
 11
0.5
 21
-0.0
 31
0.0
 40
0.0524077793
 41
1.5707963268
 42
3.1357748894
  0
ELLIPSE
  5
784
100
AcDbEntity
  8
RACCORDO
100
AcDbEllipse
 62
7
  6
CONTINUOUS
 10
51.1029173766
 20
-23.7970910851
 30
0.0
 11
0.5
 21
-0.0
 31
0.0
 40
0.0058178298
 41
2.495179495
 42
3.1357748894
  0
ELLIPSE
  5
785
100
AcDbEntity
  8
RACCORDO
100
AcDbEllipse
 62
7
  6
CONTINUOUS
 10
65.3927234819
 20
-22.3344902759
 30
0.0
 11
0.25
 21
-0.0
 31
0.0
 40
0.0524077793
 41
0.0058177642
 42
1.5707963268
  0
ELLIPSE
  5
786
100
AcDbEntity
  8
RACCORDO
100
AcDbEllipse
 62
7
  6
CONTINUOUS
 10
63.5072765181
 20
-22.3344902759
 30
0.0
 11
0.25
 21
-0.0
 31
0.0
 40
0.0524077793
 41
1.5707963268
 42
3.1357748894
  0
ELLIPSE
  5
787
100
AcDbEntity
  8
RACCORDO
100
AcDbEllipse
 62
7
  6
CONTINUOUS
 10
46.4927234819
 20
-22.3344902759
 30
0.0
 11
0.25
 21
-0.0
 31
0.0
 40
0.0524077793
 41
0.0058177642
 42
1.5707963268
  0
ELLIPSE
  5
788
100
AcDbEntity
  8
RACCORDO
100
AcDbEllipse
 62
7
  6
CONTINUOUS
 10
44.6072765181
 20
-22.3344902759
 30
0.0
 11
0.25
 21
-0.0
 31
0.0
 40
0.0524077793
 41
1.5707963268
 42
3.1357748894
  0
ELLIPSE
  5
789
100
AcDbEntity
  8
RACCORDO
100
AcDbEllipse
 62
7
  6
CONTINUOUS
 10
65.3927234819
 20
22.3344902759
 30
0.0
 11
0.25
 21
0.0
 31
0.0
 40
0.0524077793
 41
-1.5707963268
 42
-0.0058177642
  0
ELLIPSE
  5
78A
100
AcDbEntity
  8
RACCORDO
100
AcDbEllipse
 62
7
  6
CONTINUOUS
 10
63.5072765181
 20
22.3344902759
 30
0.0
 11
0.25
 21
-0.0
 31
0.0
 40
0.0524077793
 41
-3.1357748894
 42
-1.5707963268
  0
ELLIPSE
  5
78B
100
AcDbEntity
  8
RACCORDO
100
AcDbEllipse
 62
7
  6
CONTINUOUS
 10
46.4927234819
 20
22.3344902759
 30
0.0
 11
0.25
 21
0.0
 31
0.0
 40
0.0524077793
 41
-1.5707963268
 42
-0.0058177642
  0
ELLIPSE
  5
78C
100
AcDbEntity
  8
RACCORDO
100
AcDbEllipse
 62
7
  6
CONTINUOUS
 10
44.6072765181
 20
22.3344902759
 30
0.0
 11
0.25
 21
0.0
 31
0.0
 40
0.0524077793
 41
-3.1357748894
 42
-1.5707963268
  0
ELLIPSE
  5
78D
100
AcDbEntity
  8
RACCORDO
100
AcDbEllipse
 62
7
  6
CONTINUOUS
 10
1.75
 20
22.0658992808
 30
0.0
 11
0.5
 21
0.0
 31
0.0
 40
1.0
 41
-1.5533430343
 42
-0.6605680511
  0
ELLIPSE
  5
78E
100
AcDbEntity
  8
RACCORDO
100
AcDbEllipse
 62
7
  6
CONTINUOUS
 10
1.75
 20
-22.0658992808
 30
0.0
 11
0.5
 21
-0.0
 31
0.0
 40
1.0
 41
0.6605680511
 42
1.5533430343
  0
ELLIPSE
  5
78F
100
AcDbEntity
  8
ASSI
100
AcDbEllipse
 62
7
  6
CONTINUOUS
 10
8.75
 20
16.7498455727
 30
0.0
 11
2.7499844883
 21
-0.0184737782
 31
0.0
 40
0.4999830772
 41
1.5828817345
 42
2.8929905793
  0
ELLIPSE
  5
790
100
AcDbEntity
  8
ASSI
100
AcDbEllipse
 62
7
  6
CONTINUOUS
 10
9.7
 20
16.3120464019
 30
0.0
 11
2.7583796809
 21
-0.0185301752
 31
0.0
 40
0.4999830772
 41
0.1610394621
 42
1.5741550882
  0
ELLIPSE
  5
791
100
AcDbEntity
  8
ASSI
100
AcDbEllipse
 62
7
  6
CONTINUOUS
 10
8.7388968882
 20
18.0790032964
 30
0.0
 11
3.3055359022
 21
-0.0222057643
 31
0.0
 40
0.4999802567
 41
2.0885246239
 42
4.7103798606
  0
ELLIPSE
  5
792
100
AcDbEntity
  8
ASSI
100
AcDbEllipse
 62
7
  6
CONTINUOUS
 10
9.7
 20
16.7450591037
 30
0.0
 11
2.7583796809
 21
-0.0185301752
 31
0.0
 40
0.4999830772
 41
6.0422152274
 42
7.8573403954
  0
ELLIPSE
  5
793
100
AcDbEntity
  8
0
100
AcDbEllipse
 62
250
  6
CONTINUOUS
 10
-4.2601445506
 20
-4.680795
 30
0.0
 11
0.0
 21
0.352865
 31
0.0
 40
0.9996954135
 41
-1.5707963268
 42
1.5707963268
  0
ELLIPSE
  5
794
100
AcDbEntity
  8
0
100
AcDbEllipse
 62
250
  6
CONTINUOUS
 10
12.6001979812
 20
2.840243
 30
0.0
 11
-0.0
 21
0.65
 31
0.0
 40
0.9996954135
 41
-1.5707963268
 42
1.5707963268
  0
ELLIPSE
  5
795
100
AcDbEntity
  8
0
100
AcDbEllipse
 62
250
  6
CONTINUOUS
 10
4.299372
 20
-12.6353
 30
0.0
 11
0.317592
 21
-0.0
 31
0.0
 40
1.0
 41
0.0
 42
6.2831853072
  0
ELLIPSE
  5
796
100
AcDbEntity
  8
0
100
AcDbEllipse
 62
250
  6
CONTINUOUS
 10
0.953818
 20
-12.210087
 30
0.0
 11
-0.0
 21
0.192582
 31
0.0
 40
1.0
 41
0.0
 42
6.2831853072
  0
ELLIPSE
  5
797
100
AcDbEntity
  8
0
100
AcDbEllipse
 62
250
  6
CONTINUOUS
 10
4.299372
 20
-12.6353
 30
0.0
 11
0.0
 21
0.14051
 31
0.0
 40
1.0
 41
0.0
 42
6.2831853072
  0
ELLIPSE
  5
798
100
AcDbEntity
  8
0
100
AcDbEllipse
 62
250
  6
CONTINUOUS
 10
10.700012
 20
-9.11459
 30
0.0
 11
-0.0
 21
1.7850001745
 31
0.0
 40
1.0
 41
1.427448772
 42
2.9256321763
  0
ELLIPSE
  5
799
100
AcDbEntity
  8
0
100
AcDbEllipse
 62
250
  6
CONTINUOUS
 10
10.700012
 20
-9.11459
 30
0.0
 11
1.7849997292
 21
-0.0
 31
0.0
 40
1.0
 41
-1.3548357948
 42
0.1433475908
  0
ELLIPSE
  5
79A
100
AcDbEntity
  8
0
100
AcDbEllipse
 62
250
  6
CONTINUOUS
 10
10.700012
 20
-13.44959
 30
0.0
 11
2.5500000352
 21
-0.0
 31
0.0
 40
1.0
 41
3.0414252338
 42
6.383352727
  0
ELLIPSE
  5
79B
100
AcDbEntity
  8
0
100
AcDbEllipse
 62
250
  6
CONTINUOUS
 10
10.700012
 20
-13.44959
 30
0.0
 11
1.7850001745
 21
0.0
 31
0.0
 40
1.0
 41
2.9982450988
 42
6.426532862
  0
ELLIPSE
  5
79C
100
AcDbEntity
  8
0
100
AcDbEllipse
 62
250
  6
CONTINUOUS
 10
10.700012
 20
-9.11459
 30
0.0
 11
2.5500000352
 21
-0.0
 31
0.0
 40
1.0
 41
3.0414252338
 42
6.383352727
  0
ELLIPSE
  5
79D
100
AcDbEntity
  8
DRAFT
100
AcDbEllipse
 62
7
  6
CONTINUOUS
 10
8.75
 20
16.7498455727
 30
0.0
 11
2.7499844883
 21
-0.0184737782
 31
0.0
 40
0.4999830772
 41
1.5828817345
 42
2.8929905793
  0
ELLIPSE
  5
79E
100
AcDbEntity
  8
DRAFT
100
AcDbEllipse
 62
7
  6
CONTINUOUS
 10
9.7
 20
16.3120464019
 30
0.0
 11
2.7583796809
 21
-0.0185301752
 31
0.0
 40
0.4999830772
 41
0.1610394621
 42
1.5741550882
  0
ELLIPSE
  5
79F
100
AcDbEntity
  8
0
100
AcDbEllipse
 62
7
  6
CONTINUOUS
 10
8.7388968882
 20
18.0790032964
 30
0.0
 11
3.3055359022
 21
-0.0222057643
 31
0.0
 40
0.4999802567
 41
2.0885246239
 42
4.7103798606
  0
ELLIPSE
  5
7A0
100
AcDbEntity
  8
DRAFT
100
AcDbEllipse
 62
7
  6
CONTINUOUS
 10
9.7
 20
16.7450591037
 30
0.0
 11
2.7583796809
 21
-0.0185301752
 31
0.0
 40
0.4999830772
 41
6.0422152274
 42
7.8573403954
  0
ENDSEC
  0
SECTION
  2
OBJECTS
  0
DICTIONARY
  5
C
100
AcDbDictionary
280
0
281
1
  3
ACAD_GROUP
350
D
  3
ACAD_MLINESTYLE
350
17
  3
ACAD_LAYOUT
350
1A
  3
ACAD_PLOTSETTINGS
350
19
  3
ACAD_PLOTSTYLENAME
350
E
  0
DICTIONARY
  5
D
102
{ACAD_REACTORS
330
C
102
}
100
AcDbDictionary
280
0
281
1
  0
ACDBDICTIONARYWDFLT
  5
E
102
{ACAD_REACTORS
330
C
102
}
100
AcDbDictionary
281
1
  3
Normal
350
F
100
AcDbDictionaryWithDefault
340
F
  0
DICTIONARY
  5
17
102
{ACAD_REACTORS
330
C
102
}
100
AcDbDictionary
280
0
281
1
  3
Standard
350
18
  0
DICTIONARY
  5
19
102
{ACAD_REACTORS
330
C
102
}
100
AcDbDictionary
281
1
  0
DICTIONARY
  5
1A
102
{ACAD_REACTORS
330
C
102
}
100
AcDbDictionary
281
1
  3
Model
350
7A1
  3
Layout1
350
7A2
  0
ACDBPLACEHOLDER
  5
F
102
{ACAD_REACTORS
330
E
102
}
  0
MLINESTYLE
  5
18
102
{ACAD_REACTORS
330
17
102
}
100
AcDbMlineStyle
  2
STANDARD
 70
0
  3

 62
256
 51
90.0
 52
90.0
 71
2
 49
0.5
 62
256
  6
BYLAYER
 49
-0.5
 62
256
  6
BYLAYER
  0
LAYOUT
  5
7A1
102
{ACAD_REACTORS
330
1A
102
}
100
AcDbPlotSettings
  1

  2
none_device
  4
ISO_A4_(297.00_x_210.00_MM)
  6

 40
0.0
 41
0.0
 42
0.0
 43
0.0
 44
297.0
 45
210.0
 46
0.0
 47
0.0
 48
0.0
 49
0.0
140
0.0
141
0.0
142
1.0
143
1.0
 70
1024
 72
1
 73
0
 74
0
  7

 75
0
147
1.0
148
0.0
149
0.0
100
AcDbLayout
  1
Model
 70
0
 71
0
 10
0.0
 20
0.0
 11
297.0
 21
210.0
 12
0.0
 22
0.0
 32
0.0
 14
0.0
 24
0.0
 34
0.0
 15
0.0
 25
0.0
 35
0.0
146
0.0
 13
0.0
 23
0.0
 33
0.0
 16
1.0
 26
0.0
 36
0.0
 17
0.0
 27
1.0
 37
0.0
 76
0
330
214
345
0
346
0
  0
LAYOUT
  5
7A2
102
{ACAD_REACTORS
330
1A
102
}
100
AcDbPlotSettings
  1

  2
none_device
  4
ISO_A4_(297.00_x_210.00_MM)
  6

 40
0.0
 41
0.0
 42
0.0
 43
0.0
 44
297.0
 45
210.0
 46
0.0
 47
0.0
 48
0.0
 49
0.0
140
0.0
141
0.0
142
1.0
143
1.0
 70
0
 72
1
 73
0
 74
0
  7

 75
0
147
1.0
148
0.0
149
0.0
100
AcDbLayout
  1
Layout1
 70
0
 71
1
 10
0.0
 20
0.0
 11
297.0
 21
210.0
 12
0.0
 22
0.0
 32
0.0
 14
0.0
 24
0.0
 34
0.0
 15
0.0
 25
0.0
 35
0.0
146
0.0
 13
0.0
 23
0.0
 33
0.0
 16
1.0
 26
0.0
 36
0.0
 17
0.0
 27
1.0
 37
0.0
 76
0
330
215
345
0
346
0
  0
ENDSEC
  0
EOF
