  0
SECTION
  2
HEADER
  9
$ACADVER
  1
AC1021
  9
$DWGCODEPAGE
  3
ANSI_1252
  9
$EXTMAX
 10
558.8
 20
431.8
 30
0.0
  9
$EXTMIN
 10
0.0
 20
0.0
 30
0.0
  9
$LIMMIN
 10
0.0
 20
0.0
  9
$LIMMAX
 10
558.8
 20
431.8
  9
$VIEWCTR
 10
279.4
 20
215.9
  9
$VIEWSIZE
 40
431.8
  9
$CLAYER
  8
0
  9
$LTSCALE
 40
30.734
  9
$CELTYPE
  6
BYLAYER
  9
$DIMSCALE
 40
1.0
  9
$DIMASZ
 40
3.0
  9
$DIMEXO
 40
0.5
  9
$DIMDLI
 40
21.2344
  9
$DIMEXE
 40
1.5
  9
$DIMCEN
 40
5.0292
  9
$DIMLFAC
 40
1.0
  9
$DIMBLK
  1
_FILLED
  9
$DIMALT
 70
0
  9
$DIMALTF
 40
0.0393700787
  9
$DIMTXT
 40
3.0
  9
$DIMTOL
 70
1
  9
$DIMLIM
 70
0
  9
$DIMTFAC
 40
1.0
  9
$DIMTP
 40
0.01
  9
$DIMTM
 40
0.01
  9
$DIMGAP
 40
0.625
  9
$DIMDSEP
 70
44
  9
$AUNITS
 70
0
  9
$PDMODE
 70
3
  9
$PDSIZE
 40
3.0
  9
$HANDSEED
  5
763
  9
$TILEMODE
 70
1
  9
$MEASUREMENT
 70
1
  9
$INSUNITS
 70
4
  0
ENDSEC
  0
SECTION
  2
CLASSES
  0
CLASS
  1
ACDBDICTIONARYWDFLT
  2
AcDbDictionaryWithDefault
  3
AutoCAD 2000
 90
0
 91
1
280
0
281
0
  0
CLASS
  1
ACDBPLACEHOLDER
  2
AcDbPlaceHolder
  3
AutoCAD 2000
 90
0
 91
1
280
0
281
0
  0
CLASS
  1
LAYOUT
  2
AcDbLayout
  3
AutoCAD 2000
 90
0
 91
0
280
0
281
0
  0
ENDSEC
  0
SECTION
  2
TABLES
  0
TABLE
  2
VPORT
  5
8
100
AcDbSymbolTable
 70
2
  0
VPORT
  5
1F4
100
AcDbSymbolTableRecord
100
AcDbViewportTableRecord
  2
*ACTIVE
 70
0
 10
0.0
 20
0.0
 11
1.0
 21
1.0
 12
279.4
 22
215.9
 13
0.0
 23
0.0
 14
1.0
 24
1.0
 15
0.0
 25
0.0
 16
0.0
 26
0.0
 36
1.0
 17
0.0
 27
0.0
 37
0.0
 40
431.8
 41
1.2941176471
 42
50.0
 43
0.0
 44
0.0
 50
0.0
 51
0.0
 71
0
 72
100
 73
1
 74
1
 75
0
 76
0
 77
0
 78
0
  0
ENDTAB
  0
TABLE
  2
LTYPE
  5
5
100
AcDbSymbolTable
 70
6
  0
LTYPE
  5
14
100
AcDbSymbolTableRecord
100
AcDbLinetypeTableRecord
  2
BYBLOCK
 70
0
  3

 72
65
 73
0
 40
0.0
  0
LTYPE
  5
15
100
AcDbSymbolTableRecord
100
AcDbLinetypeTableRecord
  2
BYLAYER
 70
0
  3

 72
65
 73
0
 40
0.0
  0
LTYPE
  5
16
100
AcDbSymbolTableRecord
100
AcDbLinetypeTableRecord
  2
CONTINUOUS
 70
64
  3
Solid line
 72
65
 73
0
 40
0.0
  0
LTYPE
  5
1F5
100
AcDbSymbolTableRecord
100
AcDbLinetypeTableRecord
  2
CENTER
 70
64
  3
____ _ ____ _ ____ _ ____ _ ____ _ ____ _ ____
 72
65
 73
4
 40
0.6
 49
0.375
 74
0
 49
-0.075
 74
0
 49
0.075
 74
0
 49
-0.075
 74
0
  0
LTYPE
  5
1F6
100
AcDbSymbolTableRecord
100
AcDbLinetypeTableRecord
  2
HIDDEN
 70
64
  3
- - - - - - - - - - - - - - - - - - - -
 72
65
 73
2
 40
0.2
 49
0.1
 74
0
 49
-0.1
 74
0
  0
LTYPE
  5
1F7
100
AcDbSymbolTableRecord
100
AcDbLinetypeTableRecord
  2
PHANTOM
 70
64
  3
_____ _ _ _____ _ _ _____ _ _ _____
 72
65
 73
6
 40
0.8
 49
0.45
 74
0
 49
-0.05
 74
0
 49
0.1
 74
0
 49
-0.05
 74
0
 49
0.1
 74
0
 49
-0.05
 74
0
  0
LTYPE
  5
1F8
100
AcDbSymbolTableRecord
100
AcDbLinetypeTableRecord
  2
DOT
 70
64
  3
. . . . . . . . . . . . . . . . . . . .
 72
65
 73
2
 40
0.2
 49
0.1
 74
0
 49
-0.1
 74
0
  0
LTYPE
  5
1F9
100
AcDbSymbolTableRecord
100
AcDbLinetypeTableRecord
  2
DASHED
 70
64
  3
- - - - - - - - - - - - - - - - - - - -
 72
65
 73
2
 40
0.2
 49
0.1
 74
0
 49
-0.1
 74
0
  0
ENDTAB
  0
TABLE
  2
LAYER
  5
2
100
AcDbSymbolTable
 70
36
  0
LAYER
  5
10
100
AcDbSymbolTableRecord
100
AcDbLayerTableRecord
  2
0
 70
0
 62
7
  6
CONTINUOUS
370
-3
390
F
  0
LAYER
  5
1FA
100
AcDbSymbolTableRecord
100
AcDbLayerTableRecord
  2
DEFAULT_1
 70
0
 62
7
  6
CENTER
370
-3
390
F
  0
LAYER
  5
1FB
100
AcDbSymbolTableRecord
100
AcDbLayerTableRecord
  2
DEFAULT_2
 70
0
 62
7
  6
HIDDEN
370
-3
390
F
  0
LAYER
  5
1FC
100
AcDbSymbolTableRecord
100
AcDbLayerTableRecord
  2
DEFAULT_3
 70
0
 62
7
  6
PHANTOM
370
-3
390
F
  0
LAYER
  5
1FD
100
AcDbSymbolTableRecord
100
AcDbLayerTableRecord
  2
ASSI
 70
0
 62
7
  6
CONTINUOUS
370
-3
390
F
  0
LAYER
  5
1FE
100
AcDbSymbolTableRecord
100
AcDbLayerTableRecord
  2
COORDINATE
 70
0
 62
7
  6
CONTINUOUS
370
-3
390
F
  0
LAYER
  5
1FF
100
AcDbSymbolTableRecord
100
AcDbLayerTableRecord
  2
COORD_ORIGINE
 70
0
 62
7
  6
CONTINUOUS
370
-3
390
F
  0
LAYER
  5
200
100
AcDbSymbolTableRecord
100
AcDbLayerTableRecord
  2
CORPO
 70
0
 62
7
  6
CONTINUOUS
370
-3
390
F
  0
LAYER
  5
201
100
AcDbSymbolTableRecord
100
AcDbLayerTableRecord
  2
COSMETICHE
 70
0
 62
7
  6
CONTINUOUS
370
-3
390
F
  0
LAYER
  5
202
100
AcDbSymbolTableRecord
100
AcDbLayerTableRecord
  2
COSMETICI
 70
0
 62
7
  6
CONTINUOUS
370
-3
390
F
  0
LAYER
  5
203
100
AcDbSymbolTableRecord
100
AcDbLayerTableRecord
  2
CURVE
 70
0
 62
7
  6
CONTINUOUS
370
-3
390
F
  0
LAYER
  5
204
100
AcDbSymbolTableRecord
100
AcDbLayerTableRecord
  2
DRAFT
 70
0
 62
7
  6
CONTINUOUS
370
-3
390
F
  0
LAYER
  5
205
100
AcDbSymbolTableRecord
100
AcDbLayerTableRecord
  2
IGES
 70
0
 62
7
  6
CONTINUOUS
370
-3
390
F
  0
LAYER
  5
206
100
AcDbSymbolTableRecord
100
AcDbLayerTableRecord
  2
INTF_1
 70
0
 62
7
  6
CONTINUOUS
370
-3
390
F
  0
LAYER
  5
207
100
AcDbSymbolTableRecord
100
AcDbLayerTableRecord
  2
INTF_11
 70
0
 62
7
  6
CONTINUOUS
370
-3
390
F
  0
LAYER
  5
208
100
AcDbSymbolTableRecord
100
AcDbLayerTableRecord
  2
NOTE
 70
0
 62
7
  6
CONTINUOUS
370
-3
390
F
  0
LAYER
  5
209
100
AcDbSymbolTableRecord
100
AcDbLayerTableRecord
  2
PIANI
 70
0
 62
7
  6
CONTINUOUS
370
-3
390
F
  0
LAYER
  5
20A
100
AcDbSymbolTableRecord
100
AcDbLayerTableRecord
  2
PIANI_ORIGINE
 70
0
 62
7
  6
CONTINUOUS
370
-3
390
F
  0
LAYER
  5
20B
100
AcDbSymbolTableRecord
100
AcDbLayerTableRecord
  2
PIANI_RIFERIMENTO
 70
0
 62
7
  6
CONTINUOUS
370
-3
390
F
  0
LAYER
  5
20C
100
AcDbSymbolTableRecord
100
AcDbLayerTableRecord
  2
PUNTI
 70
0
 62
7
  6
CONTINUOUS
370
-3
390
F
  0
LAYER
  5
20D
100
AcDbSymbolTableRecord
100
AcDbLayerTableRecord
  2
RACCORDO
 70
0
 62
7
  6
CONTINUOUS
370
-3
390
F
  0
LAYER
  5
20E
100
AcDbSymbolTableRecord
100
AcDbLayerTableRecord
  2
RGB____0____0____0__
 70
0
 62
7
  6
CONTINUOUS
370
-3
390
F
  0
LAYER
  5
20F
100
AcDbSymbolTableRecord
100
AcDbLayerTableRecord
  2
SMUSSO
 70
0
 62
7
  6
CONTINUOUS
370
-3
390
F
  0
LAYER
  5
210
100
AcDbSymbolTableRecord
100
AcDbLayerTableRecord
  2
SNAPLINE
 70
0
 62
7
  6
CONTINUOUS
370
-3
390
F
  0
LAYER
  5
211
100
AcDbSymbolTableRecord
100
AcDbLayerTableRecord
  2
SUPERFICI
 70
0
 62
7
  6
CONTINUOUS
370
-3
390
F
  0
LAYER
  5
212
100
AcDbSymbolTableRecord
100
AcDbLayerTableRecord
  2
TRASH
 70
0
 62
7
  6
CONTINUOUS
370
-3
390
F
  0
LAYER
  5
213
100
AcDbSymbolTableRecord
100
AcDbLayerTableRecord
  2
VARIANTE_COLORE
 70
0
 62
7
  6
CONTINUOUS
370
-3
390
F
  0
ENDTAB
  0
TABLE
  2
STYLE
  5
3
100
AcDbSymbolTable
 70
1
  0
STYLE
  5
11
100
AcDbSymbolTableRecord
100
AcDbTextStyleTableRecord
  2
STANDARD
 70
0
 40
0.0
 41
0.8
 50
0.0
 71
0
 42
0.2
  3
txt
  4

  0
STYLE
  5
214
100
AcDbSymbolTableRecord
100
AcDbTextStyleTableRecord
  2
TEXTSTYLE_1
 70
0
 40
0.0
 41
0.8
 50
0.0
 71
0
 42
0.2
  3
gdt
  4

  0
ENDTAB
  0
TABLE
  2
VIEW
  5
6
100
AcDbSymbolTable
 70
0
  0
ENDTAB
  0
TABLE
  2
UCS
  5
7
100
AcDbSymbolTable
 70
0
  0
ENDTAB
  0
TABLE
  2
APPID
  5
9
100
AcDbSymbolTable
 70
1
  0
APPID
  5
215
100
AcDbSymbolTableRecord
100
AcDbRegAppTableRecord
  2
ACAD
 70
0
  0
ENDTAB
  0
TABLE
  2
BLOCK_RECORD
  5
1
100
AcDbSymbolTable
 70
0
  0
BLOCK_RECORD
  5
216
100
AcDbSymbolTableRecord
100
AcDbBlockTableRecord
  2
*Model_Space
  0
BLOCK_RECORD
  5
217
100
AcDbSymbolTableRecord
100
AcDbBlockTableRecord
  2
*Paper_Space
  0
BLOCK_RECORD
  5
218
100
AcDbSymbolTableRecord
100
AcDbBlockTableRecord
  2
_FILLED
  0
BLOCK_RECORD
  5
219
100
AcDbSymbolTableRecord
100
AcDbBlockTableRecord
  2
*D0
  0
BLOCK_RECORD
  5
21A
100
AcDbSymbolTableRecord
100
AcDbBlockTableRecord
  2
*D1
  0
BLOCK_RECORD
  5
21B
100
AcDbSymbolTableRecord
100
AcDbBlockTableRecord
  2
*D2
  0
BLOCK_RECORD
  5
21C
100
AcDbSymbolTableRecord
100
AcDbBlockTableRecord
  2
*D3
  0
ENDTAB
  0
TABLE
  2
DIMSTYLE
  5
A
100
AcDbSymbolTable
 70
1
100
AcDbDimStyleTable
 71
0
  0
DIMSTYLE
105
21D
100
AcDbSymbolTableRecord
100
AcDbDimStyleTableRecord
  2
STANDARD
 70
0
  3

  4

 40
1.0
 41
3.0
 42
0.5
 43
0.38
 44
1.5
 45
0.0
 46
0.0
 47
0.01
 48
0.01
140
3.0
141
0.09
142
0.0
143
25.4
144
1.0
145
0.0
146
1.0
147
0.625
 71
1.0
 72
0.0
 73
0
 74
0
 75
0
 76
0
 77
1
 78
8
 79
2
170
0
171
1
172
0
173
0
174
0
175
0
176
0
177
0
178
0
270
2
179
2
271
2
272
2
273
2
274
2
275
0
280
0
281
0
282
0
283
1
284
8
285
0
286
0
287
3
288
0
340
11
278
44
341
218
342
218
343
218
344
218
  0
DIMSTYLE
105
21E
100
AcDbSymbolTableRecord
100
AcDbDimStyleTableRecord
  2
DIMSTYLE_1
 70
0
  3

  4

 40
1.0
 41
3.0
 42
0.5
 43
0.38
 44
1.5
 45
0.0
 46
0.0
 47
0.0
 48
0.0
140
3.0
141
0.09
142
0.0
143
25.4
144
1.0
145
0.0
146
1.0
147
0.75
 71
0.0
 72
0.0
 73
0
 74
0
 75
0
 76
0
 77
1
 78
8
 79
2
170
0
171
1
172
0
173
0
174
0
175
0
176
0
177
0
178
0
270
2
179
2
271
2
272
2
273
2
274
2
275
0
280
0
281
0
282
0
283
1
284
8
285
0
286
0
287
3
288
0
340
11
278
44
341
218
342
218
343
218
344
218
  0
ENDTAB
  0
ENDSEC
  0
SECTION
  2
BLOCKS
  0
BLOCK
  5
20
100
AcDbEntity
  8
0
100
AcDbBlockBegin
  2
*Model_Space
 70
0
 10
0.0
 20
0.0
 30
0.0
  3
*Model_Space
  1

  0
ENDBLK
  5
21
100
AcDbEntity
  8
0
100
AcDbBlockEnd
  0
BLOCK
  5
1C
100
AcDbEntity
  8
0
100
AcDbBlockBegin
  2
*Paper_Space
 70
0
 10
0.0
 20
0.0
 30
0.0
  3
*Paper_Space
  1

  0
ENDBLK
  5
1D
100
AcDbEntity
  8
0
100
AcDbBlockEnd
  0
BLOCK
  5
21F
100
AcDbEntity
  8
0
100
AcDbBlockBegin
  2
_FILLED
 70
64
 10
0.0
 20
0.0
  3
_FILLED
  1

  0
SOLID
  5
220
100
AcDbEntity
  8
0
  6
BYBLOCK
 62
0
100
AcDbTrace
 10
0.0
 20
0.0
 11
-1.0
 21
0.3166666667
 12
-1.0
 22
-0.3166666667
 13
-1.0
 23
-0.3166666667
  0
ENDBLK
  5
221
100
AcDbEntity
  8
0
  6
BYBLOCK
 62
0
100
AcDbBlockEnd
  0
BLOCK
  5
222
100
AcDbEntity
  8
0
100
AcDbBlockBegin
 62
7
  6
CONTINUOUS
  2
*D0
 70
65
 10
0.0
 20
0.0
  3
*D0
  1

  0
LINE
  5
223
100
AcDbEntity
  8
0
100
AcDbLine
 62
7
  6
CONTINUOUS
 10
-21.4232278343
 20
16.1
 11
-21.4232278343
 21
33.9717393824
  0
LINE
  5
224
100
AcDbEntity
  8
0
100
AcDbLine
 62
7
  6
CONTINUOUS
 10
-49.6232278343
 20
24.7456323968
 11
-49.6232278343
 21
33.9717393824
  0
LINE
  5
225
100
AcDbEntity
  8
0
100
AcDbLine
 62
7
  6
CONTINUOUS
 10
-21.4232278343
 20
32.4717393824
 11
-35.5232278343
 21
32.4717393824
  0
LINE
  5
226
100
AcDbEntity
  8
0
100
AcDbLine
 62
7
  6
CONTINUOUS
 10
-49.6232278343
 20
32.4717393824
 11
-35.5232278343
 21
32.4717393824
  0
INSERT
  5
227
100
AcDbEntity
  8
0
100
AcDbBlockReference
 62
7
  6
CONTINUOUS
  2
_FILLED
 10
-21.4232278343
 20
32.4717393824
 41
3.0
 42
3.0
 43
3.0
  0
INSERT
  5
228
100
AcDbEntity
  8
0
100
AcDbBlockReference
 62
7
  6
CONTINUOUS
  2
_FILLED
 10
-49.6232278343
 20
32.4717393824
 41
3.0
 42
3.0
 43
3.0
 50
180.0
  0
ENDBLK
  5
229
100
AcDbEntity
  8
0
  6
BYBLOCK
 62
0
100
AcDbBlockEnd
  0
BLOCK
  5
22A
100
AcDbEntity
  8
0
100
AcDbBlockBegin
 62
7
  6
CONTINUOUS
  2
*D1
 70
65
 10
0.0
 20
0.0
  3
*D1
  1

  0
LINE
  5
22B
100
AcDbEntity
  8
0
100
AcDbLine
 62
7
  6
CONTINUOUS
 10
-60.1232278343
 20
0.5
 11
-60.1232278343
 21
44.0466666764
  0
LINE
  5
22C
100
AcDbEntity
  8
0
100
AcDbLine
 62
7
  6
CONTINUOUS
 10
-21.4232278343
 20
16.1
 11
-21.4232278343
 21
44.0466666764
  0
LINE
  5
22D
100
AcDbEntity
  8
0
100
AcDbLine
 62
7
  6
CONTINUOUS
 10
-60.1232278343
 20
42.5466666764
 11
-40.7732278343
 21
42.5466666764
  0
LINE
  5
22E
100
AcDbEntity
  8
0
100
AcDbLine
 62
7
  6
CONTINUOUS
 10
-21.4232278343
 20
42.5466666764
 11
-40.7732278343
 21
42.5466666764
  0
INSERT
  5
22F
100
AcDbEntity
  8
0
100
AcDbBlockReference
 62
7
  6
CONTINUOUS
  2
_FILLED
 10
-60.1232278343
 20
42.5466666764
 41
3.0
 42
3.0
 43
3.0
 50
180.0
  0
INSERT
  5
230
100
AcDbEntity
  8
0
100
AcDbBlockReference
 62
7
  6
CONTINUOUS
  2
_FILLED
 10
-21.4232278343
 20
42.5466666764
 41
3.0
 42
3.0
 43
3.0
  0
ENDBLK
  5
231
100
AcDbEntity
  8
0
  6
BYBLOCK
 62
0
100
AcDbBlockEnd
  0
BLOCK
  5
232
100
AcDbEntity
  8
0
100
AcDbBlockBegin
 62
7
  6
CONTINUOUS
  2
*D2
 70
65
 10
0.0
 20
0.0
  3
*D2
  1

  0
LINE
  5
233
100
AcDbEntity
  8
0
100
AcDbLine
 62
7
  6
CONTINUOUS
 10
-12.0706362338
 20
22.3911779406
 11
-12.0706362338
 21
33.9995903247
  0
LINE
  5
234
100
AcDbEntity
  8
0
100
AcDbLine
 62
7
  6
CONTINUOUS
 10
10.2293637662
 20
22.3911779406
 11
10.2293637662
 21
33.9995903247
  0
LINE
  5
235
100
AcDbEntity
  8
0
100
AcDbLine
 62
7
  6
CONTINUOUS
 10
-12.0706362338
 20
32.4995903247
 11
-0.9206362338
 21
32.4995903247
  0
LINE
  5
236
100
AcDbEntity
  8
0
100
AcDbLine
 62
7
  6
CONTINUOUS
 10
10.2293637662
 20
32.4995903247
 11
-0.9206362338
 21
32.4995903247
  0
INSERT
  5
237
100
AcDbEntity
  8
0
100
AcDbBlockReference
 62
7
  6
CONTINUOUS
  2
_FILLED
 10
-12.0706362338
 20
32.4995903247
 41
3.0
 42
3.0
 43
3.0
 50
180.0
  0
INSERT
  5
238
100
AcDbEntity
  8
0
100
AcDbBlockReference
 62
7
  6
CONTINUOUS
  2
_FILLED
 10
10.2293637662
 20
32.4995903247
 41
3.0
 42
3.0
 43
3.0
  0
ENDBLK
  5
239
100
AcDbEntity
  8
0
  6
BYBLOCK
 62
0
100
AcDbBlockEnd
  0
BLOCK
  5
23A
100
AcDbEntity
  8
0
100
AcDbBlockBegin
 62
7
  6
CONTINUOUS
  2
*D3
 70
65
 10
0.0
 20
0.0
  3
*D3
  1

  0
LINE
  5
23B
100
AcDbEntity
  8
0
100
AcDbLine
 62
7
  6
CONTINUOUS
 10
9.979367997
 20
24.5
 11
21.700494323
 21
24.5
  0
LINE
  5
23C
100
AcDbEntity
  8
0
100
AcDbLine
 62
7
  6
CONTINUOUS
 10
9.979367997
 20
-24.5
 11
21.700494323
 21
-24.5
  0
LINE
  5
23D
100
AcDbEntity
  8
0
100
AcDbLine
 62
7
  6
CONTINUOUS
 10
20.200494323
 20
24.5
 11
20.200494323
 21
0.0
  0
LINE
  5
23E
100
AcDbEntity
  8
0
100
AcDbLine
 62
7
  6
CONTINUOUS
 10
20.200494323
 20
-24.5
 11
20.200494323
 21
0.0
  0
INSERT
  5
23F
100
AcDbEntity
  8
0
100
AcDbBlockReference
 62
7
  6
CONTINUOUS
  2
_FILLED
 10
20.200494323
 20
24.5
 41
3.0
 42
3.0
 43
3.0
 50
90.0
  0
INSERT
  5
240
100
AcDbEntity
  8
0
100
AcDbBlockReference
 62
7
  6
CONTINUOUS
  2
_FILLED
 10
20.200494323
 20
-24.5
 41
3.0
 42
3.0
 43
3.0
 50
270.0
  0
ENDBLK
  5
241
100
AcDbEntity
  8
0
  6
BYBLOCK
 62
0
100
AcDbBlockEnd
  0
ENDSEC
  0
SECTION
  2
ENTITIES
  0
DIMENSION
  5
242
100
AcDbEntity
  8
0
100
AcDbDimension
 62
7
  6
CONTINUOUS
  2
*D0
 10
-49.6232278343
 20
32.4717393824
 11
-39.9160849771
 21
32.4717393824
 70
160
 71
2
 72
2
 41
0.9
 42
28.2
  3
DIMSTYLE_1
100
AcDbAlignedDimension
 13
-21.4232278343
 23
15.6
 14
-49.6232278343
 24
24.2456323968
 50
180.0
100
AcDbRotatedDimension
  0
DIMENSION
  5
243
100
AcDbEntity
  8
0
100
AcDbDimension
 62
7
  6
CONTINUOUS
  2
*D1
 10
-21.4232278343
 20
42.5466666764
 11
-45.05894212
 21
42.5466666764
 70
160
 71
2
 72
2
 41
0.9
 42
38.7
  3
DIMSTYLE_1
100
AcDbAlignedDimension
 13
-60.1232278343
 23
0.0
 14
-21.4232278343
 24
15.6
100
AcDbRotatedDimension
  0
DIMENSION
  5
244
100
AcDbEntity
  8
0
100
AcDbDimension
 62
7
  6
CONTINUOUS
  2
*D2
 10
10.2293637662
 20
32.4995903247
 11
-5.2063505195
 21
32.4995903247
 70
160
 71
2
 72
2
 41
0.9
 42
22.3
  3
DIMSTYLE_1
100
AcDbAlignedDimension
 13
-12.0706362338
 23
21.8911779406
 14
10.2293637662
 24
21.8911779406
100
AcDbRotatedDimension
  0
DIMENSION
  5
245
100
AcDbEntity
  8
0
100
AcDbDimension
 62
7
  6
CONTINUOUS
  2
*D3
 10
20.200494323
 20
-24.5
 11
20.200494323
 21
-2.3571428571
 70
160
 71
2
 72
2
 41
0.9
 42
49.0
  3
DIMSTYLE_1
100
AcDbAlignedDimension
 13
9.479367997
 23
24.5
 14
9.479367997
 24
-24.5
 50
270.0
100
AcDbRotatedDimension
  0
LWPOLYLINE
  5
246
100
AcDbEntity
  8
0
100
AcDbPolyline
 62
7
  6
CONTINUOUS
 90
5
 70
0
 43
0.3500000087
 10
2.0793637877
 20
34.9638751465
 10
2.436506632
 20
35.1781616791
 10
2.436506632
 20
35.8210170135
 10
2.0793637877
 20
36.2495900787
 10
1.2222208549
 20
36.2495900787
  0
LINE
  5
247
100
AcDbEntity
  8
RACCORDO
100
AcDbLine
 62
7
  6
CONTINUOUS
 10
-11.7941532436
 20
22.3384745002
 11
-11.7766502215
 21
22.3472253447
  0
LINE
  5
248
100
AcDbEntity
  8
RACCORDO
100
AcDbLine
 62
7
  6
CONTINUOUS
 10
-11.7766502215
 20
-22.3472253447
 11
-11.7941532436
 21
-22.3384745002
  0
LWPOLYLINE
  5
249
100
AcDbEntity
  8
RACCORDO
100
AcDbPolyline
 62
7
  6
CONTINUOUS
 90
27
 70
0
 10
-11.7766502215
 20
-22.3472253447
 10
-11.797157943
 20
-22.3363704364
 10
-11.8156435986
 20
-22.3255031177
 10
-11.833680291
 20
-22.3138304621
 10
-11.8512202259
 20
-22.3013783184
 10
-11.8682532444
 20
-22.2881473322
 10
-11.8847685652
 20
-22.2741337501
 10
-11.9007031597
 20
-22.2593784507
 10
-11.9159733004
 20
-22.2439550961
 10
-11.9305487157
 20
-22.2278971706
 10
-11.9444063685
 20
-22.2112330931
 10
-11.9574874889
 20
-22.1940421359
 10
-11.9697704663
 20
-22.1763688791
 10
-11.9812453063
 20
-22.1582448077
 10
-11.9918827849
 20
-22.1397371612
 10
-12.0016665801
 20
-22.1209036522
 10
-12.0106008768
 20
-22.1017677505
 10
-12.0186908113
 20
-22.0823459054
 10
-12.0259306566
 20
-22.0626782943
 10
-12.0323179264
 20
-22.042800984
 10
-12.0378585992
 20
-22.0227213834
 10
-12.0425504519
 20
-22.0024684433
 10
-12.046389067
 20
-21.9820858133
 10
-12.0493747274
 20
-21.961601383
 10
-12.0515074411
 20
-21.9410481821
 10
-12.0527880564
 20
-21.9204645317
 10
-12.0532193314
 20
-21.8998857286
  0
LINE
  5
24A
100
AcDbEntity
  8
RACCORDO
100
AcDbLine
 62
250
  6
CONTINUOUS
 10
-9.420632003
 20
24.5
 11
-9.4337305817
 21
24.4869014213
  0
LINE
  5
24B
100
AcDbEntity
  8
RACCORDO
100
AcDbLine
 62
250
  6
CONTINUOUS
 10
-9.1706362338
 20
24.2500042308
 11
-9.1837348125
 21
24.2369056521
  0
LINE
  5
24C
100
AcDbEntity
  8
RACCORDO
100
AcDbLine
 62
250
  6
CONTINUOUS
 10
-12.0706362338
 20
21.8911779406
 11
-12.0532193314
 21
21.8998857286
  0
LWPOLYLINE
  5
24D
100
AcDbEntity
  8
RACCORDO
100
AcDbPolyline
 62
7
  6
CONTINUOUS
 90
11
 70
0
 10
-11.7766502215
 20
22.3472253447
 10
-11.7588786179
 20
22.3556775522
 10
-11.7390577486
 20
22.3641212181
 10
-11.7188457485
 20
22.3717193008
 10
-11.6982935862
 20
22.3784469767
 10
-11.6774209642
 20
22.3842921097
 10
-11.6562829147
 20
22.3892336316
 10
-11.6349874968
 20
22.3932464793
 10
-11.6135988115
 20
22.3963249714
 10
-11.5921346234
 20
22.3984729571
 10
-11.5706353729
 20
22.3996911987
  0
LWPOLYLINE
  5
24E
100
AcDbEntity
  8
RACCORDO
100
AcDbPolyline
 62
7
  6
CONTINUOUS
 90
23
 70
0
 10
-5.2168435474
 20
-23.7953389668
 10
-5.206054424
 20
-23.7947915649
 10
-5.1949669619
 20
-23.793363895
 10
-5.183581161
 20
-23.7911364879
 10
-5.1718723807
 20
-23.7881978965
 10
-5.1598652617
 20
-23.7846238716
 10
-5.1476337258
 20
-23.7804595132
 10
-5.1351849855
 20
-23.7757643703
 10
-5.1225118284
 20
-23.7706018097
 10
-5.1096665382
 20
-23.7649953104
 10
-5.0966534061
 20
-23.758990232
 10
-5.083468141
 20
-23.7526365647
 10
-5.0701501541
 20
-23.7459460582
 10
-5.056701667
 20
-23.7389542831
 10
-5.0431204582
 20
-23.7317013921
 10
-5.0294392734
 20
-23.724193673
 10
-5.0156591616
 20
-23.7164601879
 10
-5.0017790739
 20
-23.708533951
 10
-4.9878286094
 20
-23.7004191901
 10
-4.9738080088
 20
-23.6921405291
 10
-4.9597170313
 20
-23.6837259593
 10
-4.9455845539
 20
-23.6751796798
 10
-4.9171944176
 20
-23.6577812011
  0
LWPOLYLINE
  5
24F
100
AcDbEntity
  8
RACCORDO
100
AcDbPolyline
 62
250
  6
CONTINUOUS
 90
31
 70
0
 10
9.4662694183
 20
-24.4869014213
 10
9.4793557724
 20
-24.4865582323
 10
9.4924062708
 20
-24.4855304893
 10
9.5053851282
 20
-24.4838210061
 10
9.5182567678
 20
-24.4814344634
 10
9.5309858818
 20
-24.4783774023
 10
9.5435375292
 20
-24.4746582128
 10
9.5558772853
 20
-24.4702870977
 10
9.5679713225
 20
-24.4652760422
 10
9.5797864682
 20
-24.4596387939
 10
9.591290324
 20
-24.4533908148
 10
9.6024513499
 20
-24.446549239
 10
9.6132389403
 20
-24.4391328321
 10
9.6236235295
 20
-24.4311619239
 10
9.6335766329
 20
-24.4226583824
 10
9.6430709261
 20
-24.4136455633
 10
9.6520803479
 20
-24.4041482289
 10
9.6605802449
 20
-24.3941923917
 10
9.6685473871
 20
-24.3838052658
 10
9.6759600171
 20
-24.3730151866
 10
9.682797699
 20
-24.3618518682
 10
9.6890415006
 20
-24.3503462678
 10
9.6946742492
 20
-24.3385301896
 10
9.6996806791
 20
-24.3264358334
 10
9.7040472302
 20
-24.3140960295
 10
9.7077626699
 20
-24.3015418449
 10
9.7108157833
 20
-24.2888103798
 10
9.7131969135
 20
-24.275944661
 10
9.7149005177
 20
-24.2629828864
 10
9.7159237803
 20
-24.249957992
 10
9.7162651875
 20
-24.2369056521
  0
LWPOLYLINE
  5
250
100
AcDbEntity
  8
RACCORDO
100
AcDbPolyline
 62
250
  6
CONTINUOUS
 90
31
 70
0
 10
-9.4337305817
 20
-24.4869014213
 10
-9.4206782417
 20
-24.4865600141
 10
-9.4076533474
 20
-24.4855367515
 10
-9.3946915728
 20
-24.4838331472
 10
-9.381825854
 20
-24.4814520171
 10
-9.3690943888
 20
-24.4783989037
 10
-9.3565402043
 20
-24.474683464
 10
-9.3442004003
 20
-24.4703169129
 10
-9.3321060442
 20
-24.465310483
 10
-9.320289966
 20
-24.4596777344
 10
-9.3087843655
 20
-24.4534339327
 10
-9.2976210471
 20
-24.4465962509
 10
-9.2868309679
 20
-24.4391836209
 10
-9.2764438421
 20
-24.4312164786
 10
-9.2664880049
 20
-24.4227165817
 10
-9.2569906705
 20
-24.4137071599
 10
-9.2479778513
 20
-24.4042128667
 10
-9.2394743098
 20
-24.3942597633
 10
-9.2315034016
 20
-24.383875174
 10
-9.2240869948
 20
-24.3730875837
 10
-9.217245419
 20
-24.3619265577
 10
-9.2109974398
 20
-24.3504227019
 10
-9.2053601915
 20
-24.3386075563
 10
-9.2003491361
 20
-24.3265135191
 10
-9.195978021
 20
-24.314173763
 10
-9.1922588315
 20
-24.3016221155
 10
-9.1892017703
 20
-24.2888930016
 10
-9.1868152276
 20
-24.2760213619
 10
-9.1851057445
 20
-24.2630425045
 10
-9.1840780015
 20
-24.2499920062
 10
-9.1837348125
 20
-24.2369056521
  0
LWPOLYLINE
  5
251
100
AcDbEntity
  8
RACCORDO
100
AcDbPolyline
 62
7
  6
CONTINUOUS
 90
34
 70
0
 10
9.479367997
 20
-24.5
 10
9.4912632823
 20
-24.4997168498
 10
9.5031316218
 20
-24.4988680342
 10
9.5149461324
 20
-24.4974554741
 10
9.5266800537
 20
-24.4954823677
 10
9.538306805
 20
-24.4929531817
 10
9.5498000452
 20
-24.4898736417
 10
9.56113374
 20
-24.4862507213
 10
9.5722822155
 20
-24.4820926258
 10
9.5832202125
 20
-24.4774087722
 10
9.5939229538
 20
-24.4722097688
 10
9.6043661945
 20
-24.4665073916
 10
9.6145262721
 20
-24.4603145581
 10
9.6243801714
 20
-24.4536452955
 10
9.6339055701
 20
-24.4465147107
 10
9.6430808853
 20
-24.4389389589
 10
9.6518853323
 20
-24.4309352005
 10
9.6602989667
 20
-24.4225215661
 10
9.6683027251
 20
-24.4137171191
 10
9.6758784769
 20
-24.4045418038
 10
9.6830090617
 20
-24.3950164051
 10
9.6896783244
 20
-24.3851625059
 10
9.6958711579
 20
-24.3750024283
 10
9.7015735351
 20
-24.3645591876
 10
9.7067725384
 20
-24.3538564463
 10
9.711456392
 20
-24.3429184493
 10
9.7156144876
 20
-24.3317699738
 10
9.7192374079
 20
-24.320436279
 10
9.7223169479
 20
-24.3089430388
 10
9.724846134
 20
-24.2973162875
 10
9.7268192404
 20
-24.2855823661
 10
9.7282318005
 20
-24.2737678556
 10
9.729080616
 20
-24.261899516
 10
9.7293637662
 20
-24.2500042308
  0
LWPOLYLINE
  5
252
100
AcDbEntity
  8
RACCORDO
100
AcDbPolyline
 62
7
  6
CONTINUOUS
 90
34
 70
0
 10
-9.420632003
 20
-24.5
 10
-9.4087367177
 20
-24.4997168498
 10
-9.3968683782
 20
-24.4988680342
 10
-9.3850538676
 20
-24.4974554741
 10
-9.3733199463
 20
-24.4954823677
 10
-9.361693195
 20
-24.4929531817
 10
-9.3501999548
 20
-24.4898736417
 10
-9.33886626
 20
-24.4862507213
 10
-9.3277177845
 20
-24.4820926258
 10
-9.3167797875
 20
-24.4774087722
 10
-9.3060770462
 20
-24.4722097688
 10
-9.2956338055
 20
-24.4665073916
 10
-9.2854737279
 20
-24.4603145581
 10
-9.2756198286
 20
-24.4536452955
 10
-9.2660944299
 20
-24.4465147107
 10
-9.2569191147
 20
-24.4389389589
 10
-9.2481146677
 20
-24.4309352005
 10
-9.2397010333
 20
-24.4225215661
 10
-9.2316972749
 20
-24.4137171191
 10
-9.2241215231
 20
-24.4045418038
 10
-9.2169909383
 20
-24.3950164051
 10
-9.2103216756
 20
-24.3851625059
 10
-9.2041288421
 20
-24.3750024283
 10
-9.1984264649
 20
-24.3645591876
 10
-9.1932274616
 20
-24.3538564463
 10
-9.188543608
 20
-24.3429184493
 10
-9.1843855124
 20
-24.3317699738
 10
-9.1807625921
 20
-24.320436279
 10
-9.1776830521
 20
-24.3089430388
 10
-9.175153866
 20
-24.2973162875
 10
-9.1731807596
 20
-24.2855823661
 10
-9.1717681995
 20
-24.2737678556
 10
-9.170919384
 20
-24.261899516
 10
-9.1706362338
 20
-24.2500042308
  0
LINE
  5
253
100
AcDbEntity
  8
RACCORDO
100
AcDbLine
 62
7
  6
CONTINUOUS
 10
9.479367997
 20
-24.5
 11
7.5793595354
 21
-24.5
  0
LINE
  5
254
100
AcDbEntity
  8
RACCORDO
100
AcDbLine
 62
7
  6
CONTINUOUS
 10
-9.420632003
 20
-24.5
 11
-11.3206404646
 21
-24.5
  0
LINE
  5
255
100
AcDbEntity
  8
RACCORDO
100
AcDbLine
 62
250
  6
CONTINUOUS
 10
-11.3075418858
 20
-24.4869014213
 11
-9.4337305817
 21
-24.4869014213
  0
LINE
  5
256
100
AcDbEntity
  8
RACCORDO
100
AcDbLine
 62
250
  6
CONTINUOUS
 10
7.5924581142
 20
-24.4869014213
 11
9.4662694183
 21
-24.4869014213
  0
LINE
  5
257
100
AcDbEntity
  8
RACCORDO
100
AcDbLine
 62
250
  6
CONTINUOUS
 10
7.3424623449
 20
-24.2369056521
 11
9.7162651875
 21
-24.2369056521
  0
LINE
  5
258
100
AcDbEntity
  8
RACCORDO
100
AcDbLine
 62
250
  6
CONTINUOUS
 10
-9.1837348125
 20
-24.2369056521
 11
-11.5575376551
 21
-24.2369056521
  0
LINE
  5
259
100
AcDbEntity
  8
RACCORDO
100
AcDbLine
 62
250
  6
CONTINUOUS
 10
7.3424623449
 20
-23.8443375673
 11
9.7162651875
 21
-23.8443375673
  0
LINE
  5
25A
100
AcDbEntity
  8
RACCORDO
100
AcDbLine
 62
250
  6
CONTINUOUS
 10
-9.1837348125
 20
-23.8443375673
 11
-11.5575376551
 21
-23.8443375673
  0
LINE
  5
25B
100
AcDbEntity
  8
DRAFT
100
AcDbLine
 62
7
  6
CONTINUOUS
 10
3.4793637662
 20
-23.8
 11
-5.3206362338
 21
-23.8
  0
LINE
  5
25C
100
AcDbEntity
  8
RACCORDO
100
AcDbLine
 62
250
  6
CONTINUOUS
 10
-5.2168435474
 20
-23.7953389668
 11
3.3755710799
 21
-23.7953389668
  0
LINE
  5
25D
100
AcDbEntity
  8
RACCORDO
100
AcDbLine
 62
250
  6
CONTINUOUS
 10
9.4662694183
 20
-23.6278312164
 11
7.5924581142
 21
-23.6278312164
  0
LINE
  5
25E
100
AcDbEntity
  8
RACCORDO
100
AcDbLine
 62
250
  6
CONTINUOUS
 10
-9.4337305817
 20
-23.6278312164
 11
-11.3075418858
 21
-23.6278312164
  0
LINE
  5
25F
100
AcDbEntity
  8
RACCORDO
100
AcDbLine
 62
250
  6
CONTINUOUS
 10
-4.8177188571
 20
-23.5953423515
 11
2.9764463896
 21
-23.5953423515
  0
LWPOLYLINE
  5
260
100
AcDbEntity
  8
RACCORDO
100
AcDbPolyline
 62
7
  6
CONTINUOUS
 90
22
 70
0
 10
3.3755710799
 20
-23.7953389668
 10
3.3647819565
 20
-23.7947915649
 10
3.3536944943
 20
-23.793363895
 10
3.3423086934
 20
-23.7911364879
 10
3.3305999132
 20
-23.7881978965
 10
3.3185927942
 20
-23.7846238716
 10
3.3063612583
 20
-23.7804595132
 10
3.293912518
 20
-23.7757643703
 10
3.2812393608
 20
-23.7706018097
 10
3.2683940707
 20
-23.7649953104
 10
3.2553809385
 20
-23.758990232
 10
3.2421956735
 20
-23.7526365647
 10
3.2288776865
 20
-23.7459460582
 10
3.2154291995
 20
-23.7389542831
 10
3.2018479907
 20
-23.7317013921
 10
3.1881668059
 20
-23.724193673
 10
3.1743866941
 20
-23.7164601879
 10
3.1605066064
 20
-23.708533951
 10
3.1465561418
 20
-23.7004191901
 10
3.1325355412
 20
-23.6921405291
 10
3.1184445638
 20
-23.6837259593
 10
3.1043120863
 20
-23.6751796798
  0
LINE
  5
261
100
AcDbEntity
  8
RACCORDO
100
AcDbLine
 62
250
  6
CONTINUOUS
 10
-12.0532193314
 20
-21.8998857286
 11
-12.0706362338
 21
-21.8911779406
  0
LINE
  5
262
100
AcDbEntity
  8
RACCORDO
100
AcDbLine
 62
250
  6
CONTINUOUS
 10
-9.420632003
 20
-24.5
 11
-9.4337305817
 21
-24.4869014213
  0
LINE
  5
263
100
AcDbEntity
  8
RACCORDO
100
AcDbLine
 62
250
  6
CONTINUOUS
 10
-9.1706362338
 20
-24.2500042308
 11
-9.1837348125
 21
-24.2369056521
  0
LWPOLYLINE
  5
264
100
AcDbEntity
  8
RACCORDO
100
AcDbPolyline
 62
250
  6
CONTINUOUS
 90
16
 70
0
 10
-11.9033092729
 20
20.5419058565
 10
-11.9023452632
 20
20.5428735511
 10
-11.9002759024
 20
20.5438391019
 10
-11.8971057747
 20
20.5448003699
 10
-11.8928419029
 20
20.5457552257
 10
-11.8874937328
 20
20.5467015539
 10
-11.8810731123
 20
20.5476372581
 10
-11.8735942651
 20
20.5485602654
 10
-11.8650737591
 20
20.5494685312
 10
-11.8555304699
 20
20.5503600432
 10
-11.8449855388
 20
20.5512328266
 10
-11.8334623262
 20
20.5520849478
 10
-11.8209863596
 20
20.5529145192
 10
-11.807585277
 20
20.5537197029
 10
-11.7932887661
 20
20.5544987152
 10
-11.7781284981
 20
20.5552498304
  0
LWPOLYLINE
  5
265
100
AcDbEntity
  8
RACCORDO
100
AcDbPolyline
 62
7
  6
CONTINUOUS
 90
34
 70
0
 10
-11.3133597156
 20
-23.1226497308
 10
-11.3263841908
 20
-23.1229033082
 10
-11.339313763
 20
-23.123528707
 10
-11.3521143614
 20
-23.1245259271
 10
-11.3647644185
 20
-23.1259075925
 10
-11.3772205688
 20
-23.1276610792
 10
-11.3894190823
 20
-23.1297485157
 10
-11.4013197046
 20
-23.1321709844
 10
-11.4129101036
 20
-23.1349274029
 10
-11.4241720886
 20
-23.1379766523
 10
-11.4350832611
 20
-23.1413192112
 10
-11.4456233659
 20
-23.1449546011
 10
-11.4557792592
 20
-23.1488402671
 10
-11.4655334007
 20
-23.1529762552
 10
-11.4748701158
 20
-23.1573625195
 10
-11.4837804502
 20
-23.1619563668
 10
-11.4922512931
 20
-23.1667575922
 10
-11.5002710254
 20
-23.1717664006
 10
-11.5078339288
 20
-23.1769407141
 10
-11.5149308212
 20
-23.1822801967
 10
-11.5215537303
 20
-23.1877851844
 10
-11.5276994742
 20
-23.1934146064
 10
-11.5333623552
 20
-23.199168057
 10
-11.5385377124
 20
-23.205045942
 10
-11.5432244904
 20
-23.2110084085
 10
-11.5474201154
 20
-23.2170549928
 10
-11.5511229656
 20
-23.2231861587
 10
-11.5543339427
 20
-23.2293634437
 10
-11.5570533097
 20
-23.2355863026
 10
-11.5592822561
 20
-23.2418552807
 10
-11.5610236189
 20
-23.2481335519
 10
-11.5622803576
 20
-23.2544088409
 10
-11.5630560624
 20
-23.2606934229
 10
-11.5633554849
 20
-23.2669872981
  0
LINE
  5
266
100
AcDbEntity
  8
RACCORDO
100
AcDbLine
 62
7
  6
CONTINUOUS
 10
-11.3126324869
 20
-23.1226497308
 11
-9.4286399806
 21
-23.1226497308
  0
LINE
  5
267
100
AcDbEntity
  8
RACCORDO
100
AcDbLine
 62
7
  6
CONTINUOUS
 10
7.5873675131
 20
-23.1226497308
 11
9.4713600194
 21
-23.1226497308
  0
LINE
  5
268
100
AcDbEntity
  8
DRAFT
100
AcDbLine
 62
7
  6
CONTINUOUS
 10
7.3293637662
 20
-22.4
 11
3.4793637662
 21
-22.4
  0
LINE
  5
269
100
AcDbEntity
  8
DRAFT
100
AcDbLine
 62
7
  6
CONTINUOUS
 10
-5.3206362338
 20
-22.4
 11
-9.1706362338
 21
-22.4
  0
LINE
  5
26A
100
AcDbEntity
  8
RACCORDO
100
AcDbLine
 62
7
  6
CONTINUOUS
 10
2.9764463896
 20
-22.3475922207
 11
-4.8177188571
 21
-22.3475922207
  0
LINE
  5
26B
100
AcDbEntity
  8
RACCORDO
100
AcDbLine
 62
7
  6
CONTINUOUS
 10
-11.3133597156
 20
-22.3213883311
 11
-9.4279127519
 21
-22.3213883311
  0
LINE
  5
26C
100
AcDbEntity
  8
RACCORDO
100
AcDbLine
 62
7
  6
CONTINUOUS
 10
7.5866402844
 20
-22.3213883311
 11
9.4720872481
 21
-22.3213883311
  0
LINE
  5
26D
100
AcDbEntity
  8
RACCORDO
100
AcDbLine
 62
250
  6
CONTINUOUS
 10
-11.4199121959
 20
-21.998725222
 11
9.5786397284
 21
-21.998725222
  0
LWPOLYLINE
  5
26E
100
AcDbEntity
  8
RACCORDO
100
AcDbPolyline
 62
7
  6
CONTINUOUS
 90
34
 70
0
 10
9.4720872481
 20
-23.1226497308
 10
9.4851117233
 20
-23.1229033082
 10
9.4980412954
 20
-23.123528707
 10
9.5108418939
 20
-23.1245259271
 10
9.523491951
 20
-23.1259075925
 10
9.5359481013
 20
-23.1276610792
 10
9.5481466148
 20
-23.1297485157
 10
9.5600472371
 20
-23.1321709844
 10
9.571637636
 20
-23.1349274029
 10
9.582899621
 20
-23.1379766523
 10
9.5938107936
 20
-23.1413192112
 10
9.6043508984
 20
-23.1449546011
 10
9.6145067916
 20
-23.1488402671
 10
9.6242609332
 20
-23.1529762552
 10
9.6335976482
 20
-23.1573625195
 10
9.6425079827
 20
-23.1619563668
 10
9.6509788256
 20
-23.1667575922
 10
9.6589985578
 20
-23.1717664006
 10
9.6665614613
 20
-23.1769407141
 10
9.6736583536
 20
-23.1822801967
 10
9.6802812627
 20
-23.1877851844
 10
9.6864270067
 20
-23.1934146064
 10
9.6920898877
 20
-23.199168057
 10
9.6972652448
 20
-23.205045942
 10
9.7019520229
 20
-23.2110084085
 10
9.7061476478
 20
-23.2170549928
 10
9.709850498
 20
-23.2231861587
 10
9.7130614752
 20
-23.2293634437
 10
9.7157808422
 20
-23.2355863026
 10
9.7180097886
 20
-23.2418552807
 10
9.7197511514
 20
-23.2481335519
 10
9.7210078901
 20
-23.2544088409
 10
9.7217835949
 20
-23.2606934229
 10
9.7220830173
 20
-23.2669872981
  0
LWPOLYLINE
  5
26F
100
AcDbEntity
  8
RACCORDO
100
AcDbPolyline
 62
7
  6
CONTINUOUS
 90
11
 70
0
 10
-11.5706353729
 20
-22.3996911987
 10
-11.5921346234
 20
-22.3984729571
 10
-11.6135988115
 20
-22.3963249714
 10
-11.6349874968
 20
-22.3932464793
 10
-11.6562829147
 20
-22.3892336316
 10
-11.6774209642
 20
-22.3842921097
 10
-11.6982935862
 20
-22.3784469767
 10
-11.7188457485
 20
-22.3717193008
 10
-11.7390577486
 20
-22.3641212181
 10
-11.7588786179
 20
-22.3556775522
 10
-11.7766502215
 20
-22.3472253447
  0
LWPOLYLINE
  5
270
100
AcDbEntity
  8
RACCORDO
100
AcDbPolyline
 62
250
  6
CONTINUOUS
 90
17
 70
0
 10
-11.9033092729
 20
-20.5419058565
 10
-11.9023452733
 20
-20.5428735514
 10
-11.9002759219
 20
-20.5438391026
 10
-11.8971058029
 20
-20.544800371
 10
-11.8928419391
 20
-20.5457552271
 10
-11.8874937764
 20
-20.5467015558
 10
-11.8810731626
 20
-20.5476372604
 10
-11.8735943213
 20
-20.5485602682
 10
-11.8650738205
 20
-20.5494685344
 10
-11.8555305358
 20
-20.5503600469
 10
-11.8449856085
 20
-20.5512328307
 10
-11.8334623989
 20
-20.5520849524
 10
-11.8209864346
 20
-20.5529145242
 10
-11.8075853537
 20
-20.5537197083
 10
-11.7932888438
 20
-20.5544987211
 10
-11.778128576
 20
-20.5552498368
 10
-11.7453529452
 20
-20.5566617864
  0
LINE
  5
271
100
AcDbEntity
  8
RACCORDO
100
AcDbLine
 62
250
  6
CONTINUOUS
 10
-12.0706362338
 20
18.0856341328
 11
-12.0793637662
 21
18.0769066003
  0
LINE
  5
272
100
AcDbEntity
  8
RACCORDO
100
AcDbLine
 62
250
  6
CONTINUOUS
 10
9.9368560595
 20
-20.5552498331
 11
9.9040804295
 21
-20.5566617822
  0
LINE
  5
273
100
AcDbEntity
  8
RACCORDO
100
AcDbLine
 62
250
  6
CONTINUOUS
 10
9.9040804295
 20
-20.5566617822
 11
9.8682762201
 21
-20.5579430478
  0
LINE
  5
274
100
AcDbEntity
  8
RACCORDO
100
AcDbLine
 62
250
  6
CONTINUOUS
 10
9.8682762201
 20
-20.5579430478
 11
9.8297605254
 21
-20.5590822825
  0
LINE
  5
275
100
AcDbEntity
  8
RACCORDO
100
AcDbLine
 62
250
  6
CONTINUOUS
 10
9.8297605254
 20
-20.5590822825
 11
9.7888744533
 21
-20.5600693969
  0
LINE
  5
276
100
AcDbEntity
  8
RACCORDO
100
AcDbLine
 62
250
  6
CONTINUOUS
 10
9.7888744533
 20
-20.5600693969
 11
9.7459801049
 21
-20.5608956488
  0
LINE
  5
277
100
AcDbEntity
  8
RACCORDO
100
AcDbLine
 62
250
  6
CONTINUOUS
 10
9.7459801049
 20
-20.5608956488
 11
9.6787081045
 21
-20.5618178081
  0
LINE
  5
278
100
AcDbEntity
  8
RACCORDO
100
AcDbLine
 62
250
  6
CONTINUOUS
 10
9.6787081045
 20
-20.5618178081
 11
9.6091148852
 21
-20.5623435528
  0
LINE
  5
279
100
AcDbEntity
  8
RACCORDO
100
AcDbLine
 62
250
  6
CONTINUOUS
 10
-11.4033854253
 20
-20.5624683248
 11
9.6091148852
 21
-20.5623435528
  0
LINE
  5
27A
100
AcDbEntity
  8
RACCORDO
100
AcDbLine
 62
250
  6
CONTINUOUS
 10
-11.4737581451
 20
-20.5622131686
 11
-11.4033854253
 21
-20.5624683248
  0
LINE
  5
27B
100
AcDbEntity
  8
RACCORDO
100
AcDbLine
 62
250
  6
CONTINUOUS
 10
-11.5427298584
 20
-20.5615537269
 11
-11.4737581451
 21
-20.5622131686
  0
LINE
  5
27C
100
AcDbEntity
  8
RACCORDO
100
AcDbLine
 62
250
  6
CONTINUOUS
 10
-11.5872526033
 20
-20.5608956547
 11
-11.5427298584
 21
-20.5615537269
  0
LINE
  5
27D
100
AcDbEntity
  8
RACCORDO
100
AcDbLine
 62
250
  6
CONTINUOUS
 10
-11.6301469578
 20
-20.5600694024
 11
-11.5872526033
 21
-20.5608956547
  0
LINE
  5
27E
100
AcDbEntity
  8
RACCORDO
100
AcDbLine
 62
250
  6
CONTINUOUS
 10
-11.6710330349
 20
-20.5590822876
 11
-11.6301469578
 21
-20.5600694024
  0
LINE
  5
27F
100
AcDbEntity
  8
RACCORDO
100
AcDbLine
 62
250
  6
CONTINUOUS
 10
-11.7095487334
 20
-20.5579430524
 11
-11.6710330349
 21
-20.5590822876
  0
LINE
  5
280
100
AcDbEntity
  8
RACCORDO
100
AcDbLine
 62
250
  6
CONTINUOUS
 10
-11.7453529452
 20
-20.5566617864
 11
-11.7095487334
 21
-20.5579430524
  0
LWPOLYLINE
  5
281
100
AcDbEntity
  8
RACCORDO
100
AcDbPolyline
 62
7
  6
CONTINUOUS
 90
13
 70
0
 10
9.6882791062
 20
-22.3279108386
 10
9.6935134481
 20
-22.3283651355
 10
9.6983334532
 20
-22.3288083558
 10
9.7027297469
 20
-22.3292404994
 10
9.7066940037
 20
-22.3296534689
 10
9.7102181086
 20
-22.3300553617
 10
9.7132944873
 20
-22.3304704706
 10
9.7159172703
 20
-22.3309023111
 10
9.7180814911
 20
-22.3313473676
 10
9.7197827436
 20
-22.3318193863
 10
9.7210179603
 20
-22.3323229492
 10
9.7217851336
 20
-22.3328534742
 10
9.7220830173
 20
-22.3334109614
  0
LINE
  5
282
100
AcDbEntity
  8
RACCORDO
100
AcDbLine
 62
250
  6
CONTINUOUS
 10
-12.0793637662
 20
-18.0769066003
 11
-12.0706362338
 21
-18.0856341328
  0
LINE
  5
283
100
AcDbEntity
  8
RACCORDO
100
AcDbLine
 62
7
  6
CONTINUOUS
 10
3.0474543567
 20
23.6400757416
 11
2.9764463896
 21
23.5953423515
  0
LINE
  5
284
100
AcDbEntity
  8
RACCORDO
100
AcDbLine
 62
7
  6
CONTINUOUS
 10
3.07592195
 20
23.6577812011
 11
3.0474543567
 21
23.6400757416
  0
LINE
  5
285
100
AcDbEntity
  8
RACCORDO
100
AcDbLine
 62
7
  6
CONTINUOUS
 10
3.1043120863
 20
-23.6751796798
 11
3.07592195
 21
-23.6577812011
  0
LINE
  5
286
100
AcDbEntity
  8
RACCORDO
100
AcDbLine
 62
7
  6
CONTINUOUS
 10
3.07592195
 20
-23.6577812011
 11
3.0332025815
 21
-23.6311538461
  0
LINE
  5
287
100
AcDbEntity
  8
RACCORDO
100
AcDbLine
 62
7
  6
CONTINUOUS
 10
3.0332025815
 20
-23.6311538461
 11
2.9764463896
 21
-23.5953423515
  0
LINE
  5
288
100
AcDbEntity
  8
RACCORDO
100
AcDbLine
 62
7
  6
CONTINUOUS
 10
3.476437928
 20
23.7970741618
 11
3.4793637662
 21
23.8
  0
LINE
  5
289
100
AcDbEntity
  8
RACCORDO
100
AcDbLine
 62
7
  6
CONTINUOUS
 10
3.476437928
 20
-23.7970741618
 11
3.4793637662
 21
-23.8
  0
LWPOLYLINE
  5
28A
100
AcDbEntity
  8
RACCORDO
100
AcDbPolyline
 62
7
  6
CONTINUOUS
 90
27
 70
0
 10
-12.0532193314
 20
21.8998857286
 10
-12.0527880564
 20
21.9204645317
 10
-12.0515074411
 20
21.9410481821
 10
-12.0493747274
 20
21.961601383
 10
-12.046389067
 20
21.9820858133
 10
-12.0425504519
 20
22.0024684433
 10
-12.0378585992
 20
22.0227213834
 10
-12.0323179264
 20
22.042800984
 10
-12.0259306566
 20
22.0626782943
 10
-12.0186908113
 20
22.0823459054
 10
-12.0106008768
 20
22.1017677505
 10
-12.0016665801
 20
22.1209036522
 10
-11.9918827849
 20
22.1397371612
 10
-11.9812453063
 20
22.1582448077
 10
-11.9697704663
 20
22.1763688791
 10
-11.9574874889
 20
22.1940421359
 10
-11.9444063685
 20
22.2112330931
 10
-11.9305487157
 20
22.2278971706
 10
-11.9159733004
 20
22.2439550961
 10
-11.9007031597
 20
22.2593784507
 10
-11.8847685652
 20
22.2741337501
 10
-11.8682532444
 20
22.2881473322
 10
-11.8512202259
 20
22.3013783184
 10
-11.833680291
 20
22.3138304621
 10
-11.8156435986
 20
22.3255031177
 10
-11.797157943
 20
22.3363704364
 10
-11.7766502215
 20
22.3472253447
  0
LWPOLYLINE
  5
28B
100
AcDbEntity
  8
RACCORDO
100
AcDbPolyline
 62
250
  6
CONTINUOUS
 90
10
 70
0
 10
-11.9144552664
 20
21.4335012957
 10
-11.9150315399
 20
21.445599845
 10
-11.9156155999
 20
21.4565453524
 10
-11.9162052679
 20
21.4662970707
 10
-11.9168005823
 20
21.4748505238
 10
-11.9174015046
 20
21.482210188
 10
-11.9180057413
 20
21.4883487449
 10
-11.9186125277
 20
21.4932570887
 10
-11.9192226284
 20
21.4969443252
 10
-11.9198360435
 20
21.4994104546
  0
LINE
  5
28C
100
AcDbEntity
  8
RACCORDO
100
AcDbLine
 62
250
  6
CONTINUOUS
 10
-11.9133261497
 20
21.4058366961
 11
-11.9144552664
 21
21.4335012957
  0
LWPOLYLINE
  5
28D
100
AcDbEntity
  8
RACCORDO
100
AcDbPolyline
 62
250
  6
CONTINUOUS
 90
31
 70
0
 10
-11.5575376551
 20
23.8443375673
 10
-11.5571583233
 20
23.8330274168
 10
-11.5560973414
 20
23.8217481519
 10
-11.5543576065
 20
23.810530574
 10
-11.5519438696
 20
23.7994053159
 10
-11.548862722
 20
23.7884027584
 10
-11.5451225777
 20
23.7775529472
 10
-11.5407336503
 20
23.7668855107
 10
-11.535707925
 20
23.7564295797
 10
-11.5300591261
 20
23.7462137069
 10
-11.5238026791
 20
23.7362657898
 10
-11.5169556692
 20
23.7266129942
 10
-11.5095367941
 20
23.7172816797
 10
-11.5015663131
 20
23.7082973282
 10
-11.4930659921
 20
23.6996844742
 10
-11.4840590436
 20
23.6914666374
 10
-11.4745700637
 20
23.6836662592
 10
-11.4646249648
 20
23.6763046407
 10
-11.4542509049
 20
23.6694018849
 10
-11.4434762133
 20
23.6629768418
 10
-11.4323303136
 20
23.6570470569
 10
-11.4208436428
 20
23.6516287232
 10
-11.4090475687
 20
23.646736637
 10
-11.3969743037
 20
23.6423841576
 10
-11.3846568176
 20
23.6385831707
 10
-11.3721287467
 20
23.6353440559
 10
-11.3594243026
 20
23.6326756587
 10
-11.3465781786
 20
23.6305852658
 10
-11.3336254545
 20
23.6290785857
 10
-11.3206015017
 20
23.6281597328
 10
-11.3075418858
 20
23.6278312164
  0
LINE
  5
28E
100
AcDbEntity
  8
RACCORDO
100
AcDbLine
 62
250
  6
CONTINUOUS
 10
-11.9122344304
 20
21.3737157822
 11
-11.9133261497
 21
21.4058366961
  0
LINE
  5
28F
100
AcDbEntity
  8
RACCORDO
100
AcDbLine
 62
250
  6
CONTINUOUS
 10
-11.4139626145
 20
21.8799592151
 11
-11.4151072491
 21
21.9180061969
  0
LWPOLYLINE
  5
290
100
AcDbEntity
  8
RACCORDO
100
AcDbPolyline
 62
250
  6
CONTINUOUS
 90
31
 70
0
 10
-11.5575376551
 20
-24.2369056521
 10
-11.5571946165
 20
-24.2499891381
 10
-11.5561673266
 20
-24.2630367647
 10
-11.554458601
 20
-24.2760127708
 10
-11.5520731231
 20
-24.2888815916
 10
-11.5490174309
 20
-24.3016079562
 10
-11.5452998995
 20
-24.3141569839
 10
-11.540930718
 20
-24.3264942801
 10
-11.5359218615
 20
-24.3385860308
 10
-11.5302870583
 20
-24.3503990946
 10
-11.5240417524
 20
-24.3619010942
 10
-11.517203061
 20
-24.3730605047
 10
-11.5097897277
 20
-24.3838467403
 10
-11.5018220709
 20
-24.3942302379
 10
-11.4933219286
 20
-24.4041825384
 10
-11.4843125981
 20
-24.4136763643
 10
-11.4748187721
 20
-24.4226856948
 10
-11.4648664717
 20
-24.4311858371
 10
-11.454482974
 20
-24.4391534939
 10
-11.4436967384
 20
-24.4465668272
 10
-11.4325373279
 20
-24.4534055187
 10
-11.4210353284
 20
-24.4596508246
 10
-11.4092222646
 20
-24.4652856277
 10
-11.3971305139
 20
-24.4702944842
 10
-11.3847932176
 20
-24.4746636657
 10
-11.37224419
 20
-24.4783811971
 10
-11.3595178254
 20
-24.4814368893
 10
-11.3466490046
 20
-24.4838223673
 10
-11.3336729984
 20
-24.4855310928
 10
-11.3206253718
 20
-24.4865583827
 10
-11.3075418858
 20
-24.4869014213
  0
LINE
  5
291
100
AcDbEntity
  8
RACCORDO
100
AcDbLine
 62
250
  6
CONTINUOUS
 10
-11.9106767822
 20
21.3174729949
 11
-11.9122344304
 21
21.3737157822
  0
LWPOLYLINE
  5
292
100
AcDbEntity
  8
RACCORDO
100
AcDbPolyline
 62
250
  6
CONTINUOUS
 90
34
 70
0
 10
-11.9198360435
 20
-21.4994104546
 10
-11.9192487435
 20
-21.5231550042
 10
-11.9175316013
 20
-21.5468458278
 10
-11.9146885022
 20
-21.5704293207
 10
-11.9107258791
 20
-21.5938521206
 10
-11.905652698
 20
-21.6170612291
 10
-11.8994804381
 20
-21.6400041313
 10
-11.892223065
 20
-21.6626289146
 10
-11.8838969998
 20
-21.6848843861
 10
-11.8745210817
 20
-21.7067201886
 10
-11.8641165255
 20
-21.7280869146
 10
-11.8527068732
 20
-21.7489362176
 10
-11.8403179414
 20
-21.7692209223
 10
-11.8269777622
 20
-21.7888951306
 10
-11.8127165201
 20
-21.8079143259
 10
-11.797566484
 20
-21.8262354735
 10
-11.7815619335
 20
-21.8438171185
 10
-11.7647390818
 20
-21.8606194789
 10
-11.7471359939
 20
-21.8766045361
 10
-11.7287925
 20
-21.8917361209
 10
-11.7097501056
 20
-21.9059799952
 10
-11.6900518978
 20
-21.9193039293
 10
-11.6697424475
 20
-21.9316777754
 10
-11.6488677085
 20
-21.9430735351
 10
-11.6274749141
 20
-21.9534654233
 10
-11.6056124693
 20
-21.9628299264
 10
-11.5833298422
 20
-21.9711458554
 10
-11.5606774514
 20
-21.9783943937
 10
-11.5377065524
 20
-21.9845591403
 10
-11.514469121
 20
-21.989626146
 10
-11.4910177365
 20
-21.9935839459
 10
-11.4674054622
 20
-21.9964235845
 10
-11.4436857252
 20
-21.9981386368
 10
-11.4199121959
 20
-21.998725222
  0
LWPOLYLINE
  5
293
100
AcDbEntity
  8
RACCORDO
100
AcDbPolyline
 62
7
  6
CONTINUOUS
 90
34
 70
0
 10
-11.5706362338
 20
-24.2500042308
 10
-11.5703530835
 20
-24.261899516
 10
-11.569504268
 20
-24.2737678556
 10
-11.5680917079
 20
-24.2855823661
 10
-11.5661186015
 20
-24.2973162875
 10
-11.5635894155
 20
-24.3089430388
 10
-11.5605098755
 20
-24.320436279
 10
-11.5568869551
 20
-24.3317699738
 10
-11.5527288595
 20
-24.3429184493
 10
-11.5480450059
 20
-24.3538564463
 10
-11.5428460026
 20
-24.3645591876
 10
-11.5371436254
 20
-24.3750024283
 10
-11.5309507919
 20
-24.3851625059
 10
-11.5242815292
 20
-24.3950164051
 10
-11.5171509445
 20
-24.4045418038
 10
-11.5095751926
 20
-24.4137171191
 10
-11.5015714343
 20
-24.4225215661
 10
-11.4931577999
 20
-24.4309352005
 10
-11.4843533528
 20
-24.4389389589
 10
-11.4751780376
 20
-24.4465147107
 10
-11.4656526389
 20
-24.4536452955
 10
-11.4557987397
 20
-24.4603145581
 10
-11.445638662
 20
-24.4665073916
 10
-11.4351954214
 20
-24.4722097688
 10
-11.4244926801
 20
-24.4774087722
 10
-11.4135546831
 20
-24.4820926258
 10
-11.4024062075
 20
-24.4862507213
 10
-11.3910725128
 20
-24.4898736417
 10
-11.3795792726
 20
-24.4929531817
 10
-11.3679525213
 20
-24.4954823677
 10
-11.3562185999
 20
-24.4974554741
 10
-11.3444040893
 20
-24.4988680342
 10
-11.3325357498
 20
-24.4997168498
 10
-11.3206404646
 20
-24.5
  0
LINE
  5
294
100
AcDbEntity
  8
RACCORDO
100
AcDbLine
 62
250
  6
CONTINUOUS
 10
-11.4123103776
 20
21.8101653799
 11
-11.4139626145
 21
21.8799592151
  0
LINE
  5
295
100
AcDbEntity
  8
RACCORDO
100
AcDbLine
 62
250
  6
CONTINUOUS
 10
-11.9092312069
 20
21.2521430543
 11
-11.9106767822
 21
21.3174729949
  0
LINE
  5
296
100
AcDbEntity
  8
RACCORDO
100
AcDbLine
 62
250
  6
CONTINUOUS
 10
-11.4102573633
 20
21.6946050137
 11
-11.4123103776
 21
21.8101653799
  0
LINE
  5
297
100
AcDbEntity
  8
RACCORDO
100
AcDbLine
 62
250
  6
CONTINUOUS
 10
-11.907505415
 20
21.1521509622
 11
-11.9092312069
 21
21.2521430543
  0
LINE
  5
298
100
AcDbEntity
  8
RACCORDO
100
AcDbLine
 62
250
  6
CONTINUOUS
 10
-11.4079901081
 20
21.5172907894
 11
-11.4102573633
 21
21.6946050137
  0
LINE
  5
299
100
AcDbEntity
  8
RACCORDO
100
AcDbLine
 62
250
  6
CONTINUOUS
 10
-11.9057205697
 20
21.0093628957
 11
-11.907505415
 21
21.1521509622
  0
LINE
  5
29A
100
AcDbEntity
  8
RACCORDO
100
AcDbLine
 62
250
  6
CONTINUOUS
 10
-11.5575376551
 20
-23.8443375673
 11
-11.5633554849
 21
-23.2669872981
  0
LINE
  5
29B
100
AcDbEntity
  8
RACCORDO
100
AcDbLine
 62
250
  6
CONTINUOUS
 10
-11.3075418858
 20
-23.6278312164
 11
-11.3126324869
 21
-23.1226497308
  0
LINE
  5
29C
100
AcDbEntity
  8
RACCORDO
100
AcDbLine
 62
250
  6
CONTINUOUS
 10
-11.9041943513
 20
20.8177064318
 11
-11.9057205697
 21
21.0093628957
  0
LINE
  5
29D
100
AcDbEntity
  8
RACCORDO
100
AcDbLine
 62
250
  6
CONTINUOUS
 10
-11.4052099929
 20
21.1710100256
 11
-11.4079901081
 21
21.5172907894
  0
LINE
  5
29E
100
AcDbEntity
  8
RACCORDO
100
AcDbLine
 62
250
  6
CONTINUOUS
 10
-11.9033454138
 20
20.5770641762
 11
-11.9041943513
 21
20.8177064318
  0
LINE
  5
29F
100
AcDbEntity
  8
RACCORDO
100
AcDbLine
 62
250
  6
CONTINUOUS
 10
-11.4034791581
 20
20.6676610265
 11
-11.4052099929
 21
21.1710100256
  0
LINE
  5
2A0
100
AcDbEntity
  8
RACCORDO
100
AcDbLine
 62
250
  6
CONTINUOUS
 10
-11.9007671905
 20
16.6307393342
 11
-11.9033454138
 21
20.5770641762
  0
LINE
  5
2A1
100
AcDbEntity
  8
RACCORDO
100
AcDbLine
 62
250
  6
CONTINUOUS
 10
-11.4008433425
 20
16.6474258675
 11
-11.4034791581
 21
20.6676610265
  0
LINE
  5
2A2
100
AcDbEntity
  8
RACCORDO
100
AcDbLine
 62
250
  6
CONTINUOUS
 10
-11.8979572765
 20
10.7622390509
 11
-11.9007671905
 21
16.6307393342
  0
LINE
  5
2A3
100
AcDbEntity
  8
RACCORDO
100
AcDbLine
 62
250
  6
CONTINUOUS
 10
-11.3980334286
 20
10.7730211388
 11
-11.4008433425
 21
16.6474258675
  0
LINE
  5
2A4
100
AcDbEntity
  8
RACCORDO
100
AcDbLine
 62
250
  6
CONTINUOUS
 10
-11.8967529325
 20
6.8490293382
 11
-11.8979572765
 21
10.7622390509
  0
LINE
  5
2A5
100
AcDbEntity
  8
RACCORDO
100
AcDbLine
 62
250
  6
CONTINUOUS
 10
-11.3968290847
 20
6.8558745555
 11
-11.3980334286
 21
10.7730211388
  0
LINE
  5
2A6
100
AcDbEntity
  8
RACCORDO
100
AcDbLine
 62
7
  6
CONTINUOUS
 10
-12.0793637662
 20
-18.0769066003
 11
-12.0793637662
 21
18.0769066003
  0
LINE
  5
2A7
100
AcDbEntity
  8
RACCORDO
100
AcDbLine
 62
7
  6
CONTINUOUS
 10
-12.0706362338
 20
21.8911779406
 11
-12.0706362338
 21
18.0856341328
  0
LINE
  5
2A8
100
AcDbEntity
  8
RACCORDO
100
AcDbLine
 62
7
  6
CONTINUOUS
 10
-12.0706362338
 20
-18.0856341328
 11
-12.0706362338
 21
-21.8911779406
  0
LINE
  5
2A9
100
AcDbEntity
  8
RACCORDO
100
AcDbLine
 62
7
  6
CONTINUOUS
 10
-11.5706362338
 20
-22.399689968
 11
-11.5706362338
 21
-24.2500042308
  0
LINE
  5
2AA
100
AcDbEntity
  8
RACCORDO
100
AcDbLine
 62
7
  6
CONTINUOUS
 10
-11.5706362338
 20
22.399689968
 11
-11.5706362338
 21
24.2500042308
  0
LINE
  5
2AB
100
AcDbEntity
  8
RACCORDO
100
AcDbLine
 62
250
  6
CONTINUOUS
 10
-11.5633554849
 20
23.2669872981
 11
-11.5633554849
 21
22.3334109614
  0
LINE
  5
2AC
100
AcDbEntity
  8
RACCORDO
100
AcDbLine
 62
250
  6
CONTINUOUS
 10
-11.5633554849
 20
-22.3334109614
 11
-11.5633554849
 21
-23.2669872981
  0
LINE
  5
2AD
100
AcDbEntity
  8
RACCORDO
100
AcDbLine
 62
250
  6
CONTINUOUS
 10
-11.5575376551
 20
24.2369056521
 11
-11.5575376551
 21
23.8443375673
  0
LINE
  5
2AE
100
AcDbEntity
  8
RACCORDO
100
AcDbLine
 62
250
  6
CONTINUOUS
 10
-11.5575376551
 20
-23.8443375673
 11
-11.5575376551
 21
-24.2369056521
  0
LINE
  5
2AF
100
AcDbEntity
  8
RACCORDO
100
AcDbLine
 62
250
  6
CONTINUOUS
 10
-11.3133597156
 20
23.1226497308
 11
-11.3133597156
 21
22.3213883311
  0
LINE
  5
2B0
100
AcDbEntity
  8
RACCORDO
100
AcDbLine
 62
250
  6
CONTINUOUS
 10
-11.3133597156
 20
-22.3213883311
 11
-11.3133597156
 21
-23.1226497308
  0
LINE
  5
2B1
100
AcDbEntity
  8
RACCORDO
100
AcDbLine
 62
250
  6
CONTINUOUS
 10
-11.3075418858
 20
-23.6278312164
 11
-11.3075418858
 21
-24.4869014213
  0
LINE
  5
2B2
100
AcDbEntity
  8
RACCORDO
100
AcDbLine
 62
250
  6
CONTINUOUS
 10
-11.3075418858
 20
23.6278312164
 11
-11.3075418858
 21
24.4869014213
  0
LINE
  5
2B3
100
AcDbEntity
  8
RACCORDO
100
AcDbLine
 62
250
  6
CONTINUOUS
 10
-11.8963514659
 20
-4.8922213487
 11
-11.8967529325
 21
6.8490293382
  0
LINE
  5
2B4
100
AcDbEntity
  8
RACCORDO
100
AcDbLine
 62
250
  6
CONTINUOUS
 10
-11.3964276183
 20
-4.8971284075
 11
-11.3968290847
 21
6.8558745555
  0
LINE
  5
2B5
100
AcDbEntity
  8
RACCORDO
100
AcDbLine
 62
250
  6
CONTINUOUS
 10
-11.8979572763
 20
-10.7622385921
 11
-11.8963514659
 21
-4.8922213487
  0
LINE
  5
2B6
100
AcDbEntity
  8
RACCORDO
100
AcDbLine
 62
250
  6
CONTINUOUS
 10
-11.3980334286
 20
-10.773021139
 11
-11.3964276183
 21
-4.8971284075
  0
LINE
  5
2B7
100
AcDbEntity
  8
RACCORDO
100
AcDbLine
 62
250
  6
CONTINUOUS
 10
-11.899696796
 20
-14.6748175628
 11
-11.8979572763
 21
-10.7622385921
  0
LINE
  5
2B8
100
AcDbEntity
  8
RACCORDO
100
AcDbLine
 62
250
  6
CONTINUOUS
 10
-11.3997729481
 20
-14.689506377
 11
-11.3980334286
 21
-10.773021139
  0
LINE
  5
2B9
100
AcDbEntity
  8
RACCORDO
100
AcDbLine
 62
250
  6
CONTINUOUS
 10
-11.9019713493
 20
-18.5864350886
 11
-11.899696796
 21
-14.6748175628
  0
LINE
  5
2BA
100
AcDbEntity
  8
RACCORDO
100
AcDbLine
 62
250
  6
CONTINUOUS
 10
-11.4020475016
 20
-18.6050898662
 11
-11.3997729481
 21
-14.689506377
  0
LINE
  5
2BB
100
AcDbEntity
  8
RACCORDO
100
AcDbLine
 62
250
  6
CONTINUOUS
 10
-11.4047003736
 20
-21.0750322664
 11
-11.4020475016
 21
-18.6050898662
  0
LINE
  5
2BC
100
AcDbEntity
  8
RACCORDO
100
AcDbLine
 62
250
  6
CONTINUOUS
 10
-11.9040099782
 20
-20.784142487
 11
-11.9019713493
 21
-18.5864350886
  0
LINE
  5
2BD
100
AcDbEntity
  8
RACCORDO
100
AcDbLine
 62
250
  6
CONTINUOUS
 10
-11.9054175713
 20
-20.978758035
 11
-11.9040099782
 21
-20.784142487
  0
LINE
  5
2BE
100
AcDbEntity
  8
RACCORDO
100
AcDbLine
 62
250
  6
CONTINUOUS
 10
-11.4071902227
 20
-21.4372446922
 11
-11.4047003736
 21
-21.0750322664
  0
LINE
  5
2BF
100
AcDbEntity
  8
RACCORDO
100
AcDbLine
 62
250
  6
CONTINUOUS
 10
-11.5633554849
 20
23.2669872981
 11
-11.5575376551
 21
23.8443375673
  0
LINE
  5
2C0
100
AcDbEntity
  8
RACCORDO
100
AcDbLine
 62
250
  6
CONTINUOUS
 10
-11.3126324869
 20
23.1226497308
 11
-11.3075418858
 21
23.6278312164
  0
LINE
  5
2C1
100
AcDbEntity
  8
RACCORDO
100
AcDbLine
 62
250
  6
CONTINUOUS
 10
-11.9071140771
 20
-21.1250906265
 11
-11.9054175713
 21
-20.978758035
  0
LINE
  5
2C2
100
AcDbEntity
  8
RACCORDO
100
AcDbLine
 62
250
  6
CONTINUOUS
 10
-11.4097755399
 20
-21.6619288248
 11
-11.4071902227
 21
-21.4372446922
  0
LINE
  5
2C3
100
AcDbEntity
  8
RACCORDO
100
AcDbLine
 62
250
  6
CONTINUOUS
 10
-11.9087769541
 20
-21.2284634282
 11
-11.9071140771
 21
-21.1250906265
  0
LINE
  5
2C4
100
AcDbEntity
  8
RACCORDO
100
AcDbLine
 62
250
  6
CONTINUOUS
 10
-11.411779381
 20
-21.7836209227
 11
-11.4097755399
 21
-21.6619288248
  0
LINE
  5
2C5
100
AcDbEntity
  8
RACCORDO
100
AcDbLine
 62
250
  6
CONTINUOUS
 10
-11.9101815009
 20
-21.2966656572
 11
-11.9087769541
 21
-21.2284634282
  0
LINE
  5
2C6
100
AcDbEntity
  8
RACCORDO
100
AcDbLine
 62
250
  6
CONTINUOUS
 10
-11.4134020143
 20
-21.8583646881
 11
-11.411779381
 21
-21.7836209227
  0
LWPOLYLINE
  5
2C7
100
AcDbEntity
  8
RACCORDO
100
AcDbPolyline
 62
250
  6
CONTINUOUS
 90
34
 70
0
 10
-11.9198360435
 20
21.4994104546
 10
-11.9192487431
 20
21.5231550131
 10
-11.9175315997
 20
21.5468458451
 10
-11.9146884986
 20
21.5704293456
 10
-11.9107258729
 20
21.5938521525
 10
-11.9056526888
 20
21.6170612672
 10
-11.8994804253
 20
21.6400041748
 10
-11.8922230483
 20
21.6626289626
 10
-11.883896979
 20
21.6848844378
 10
-11.8745210568
 20
21.7067202431
 10
-11.8641164963
 20
21.728086971
 10
-11.8527068399
 20
21.7489362752
 10
-11.8403179041
 20
21.7692209802
 10
-11.8269777212
 20
21.7888951881
 10
-11.8127164758
 20
21.8079143822
 10
-11.7975664367
 20
21.826235528
 10
-11.7815618838
 20
21.8438171706
 10
-11.7647390303
 20
21.860619528
 10
-11.7471359411
 20
21.8766045819
 10
-11.7287924465
 20
21.891736163
 10
-11.7097500522
 20
21.9059800332
 10
-11.6900518451
 20
21.9193039632
 10
-11.6697423962
 20
21.931677805
 10
-11.6488676593
 20
21.9430735605
 10
-11.6274748676
 20
21.9534654446
 10
-11.6056124262
 20
21.9628299437
 10
-11.5833298031
 20
21.971145869
 10
-11.5606774168
 20
21.9783944039
 10
-11.5377065227
 20
21.9845591475
 10
-11.5144690968
 20
21.9896261507
 10
-11.4910177181
 20
21.9935839485
 10
-11.4674054497
 20
21.9964235857
 10
-11.4436857188
 20
21.9981386371
 10
-11.4199121959
 20
21.998725222
  0
LINE
  5
2C8
100
AcDbEntity
  8
RACCORDO
100
AcDbLine
 62
250
  6
CONTINUOUS
 10
-11.9117036428
 20
-21.3560129244
 11
-11.9101815009
 21
-21.2966656572
  0
LINE
  5
2C9
100
AcDbEntity
  8
RACCORDO
100
AcDbLine
 62
250
  6
CONTINUOUS
 10
-11.9127756131
 20
-21.3903360643
 11
-11.9117036428
 21
-21.3560129244
  0
LWPOLYLINE
  5
2CA
100
AcDbEntity
  8
RACCORDO
100
AcDbPolyline
 62
250
  6
CONTINUOUS
 90
31
 70
0
 10
-11.5575376551
 20
-23.8443375673
 10
-11.5571590994
 20
-23.833039595
 10
-11.5560999718
 20
-23.821769291
 10
-11.5543625953
 20
-23.8105574212
 10
-11.5519508939
 20
-23.7994336121
 10
-11.5488710237
 20
-23.78842936
 10
-11.5451319727
 20
-23.7775778202
 10
-11.5407444283
 20
-23.7669096972
 10
-11.5357200293
 20
-23.7564530239
 10
-11.5300723487
 20
-23.746236105
 10
-11.5238166561
 20
-23.7362866999
 10
-11.5169700815
 20
-23.7266321754
 10
-11.5095514732
 20
-23.7172991519
 10
-11.5015811692
 20
-23.7083132018
 10
-11.4930808744
 20
-23.6996987826
 10
-11.4840737839
 20
-23.6914794042
 10
-11.4745844803
 20
-23.6836775075
 10
-11.4646388931
 20
-23.6763144193
 10
-11.4542642103
 20
-23.6694102704
 10
-11.4434887779
 20
-23.6629839239
 10
-11.4323420199
 20
-23.6570529269
 10
-11.4208543828
 20
-23.6516334796
 10
-11.4090572261
 20
-23.6467403776
 10
-11.3969827897
 20
-23.6423869945
 10
-11.38466411
 20
-23.6385852371
 10
-11.3721348747
 20
-23.6353454907
 10
-11.3594292718
 20
-23.6326765842
 10
-11.346581951
 20
-23.6305857918
 10
-11.3336279838
 20
-23.6290788219
 10
-11.32060277
 20
-23.6281597935
 10
-11.3075418858
 20
-23.6278312164
  0
LINE
  5
2CB
100
AcDbEntity
  8
RACCORDO
100
AcDbLine
 62
7
  6
CONTINUOUS
 10
-9.1706362338
 20
22.4
 11
-9.1779169827
 21
22.3344140523
  0
LINE
  5
2CC
100
AcDbEntity
  8
RACCORDO
100
AcDbLine
 62
7
  6
CONTINUOUS
 10
-9.1706362338
 20
-22.4
 11
-9.1779169827
 21
-22.3344140523
  0
LINE
  5
2CD
100
AcDbEntity
  8
RACCORDO
100
AcDbLine
 62
7
  6
CONTINUOUS
 10
-11.5706362338
 20
22.3997080771
 11
-11.5633554849
 21
22.3334109614
  0
LWPOLYLINE
  5
2CE
100
AcDbEntity
  8
RACCORDO
100
AcDbPolyline
 62
7
  6
CONTINUOUS
 90
34
 70
0
 10
-11.5633554849
 20
23.2669872981
 10
-11.5630577585
 20
23.260745719
 10
-11.5622865071
 20
23.254472608
 10
-11.5610361443
 20
23.2481861919
 10
-11.5593020971
 20
23.2419121598
 10
-11.5570806543
 20
23.2356626215
 10
-11.5543686343
 20
23.2294361375
 10
-11.5511641375
 20
23.2232532001
 10
-11.547466213
 20
23.2171335699
 10
-11.543273962
 20
23.2110754134
 10
-11.5385884778
 20
23.2051002367
 10
-11.5334118358
 20
23.199228829
 10
-11.5277454651
 20
23.1934590071
 10
-11.5215936812
 20
23.1878130261
 10
-11.5149618988
 20
23.182312533
 10
-11.507854096
 20
23.1769551973
 10
-11.5002781004
 20
23.171763745
 10
-11.4922430184
 20
23.1667604362
 10
-11.4837557929
 20
23.1619430222
 10
-11.4748280834
 20
23.1573343288
 10
-11.4654731047
 20
23.1529569199
 10
-11.4557014301
 20
23.148808872
 10
-11.4455289189
 20
23.1449126131
 10
-11.4349733318
 20
23.1412905703
 10
-11.424049731
 20
23.137941334
 10
-11.4127786734
 20
23.1348863009
 10
-11.4011827489
 20
23.1321470947
 10
-11.3892820512
 20
23.1297228132
 10
-11.3771152235
 20
23.1276360125
 10
-11.3646971686
 20
23.1259025536
 10
-11.3520131745
 20
23.1245164325
 10
-11.3390784639
 20
23.1234933505
 10
-11.3259399624
 20
23.1228641607
 10
-11.3126324869
 20
23.1226497308
  0
LWPOLYLINE
  5
2CF
100
AcDbEntity
  8
RACCORDO
100
AcDbPolyline
 62
7
  6
CONTINUOUS
 90
34
 70
0
 10
-9.1779169827
 20
-23.2669872981
 10
-9.178214709
 20
-23.260745719
 10
-9.1789859604
 20
-23.254472608
 10
-9.1802363232
 20
-23.2481861919
 10
-9.1819703705
 20
-23.2419121598
 10
-9.1841918132
 20
-23.2356626215
 10
-9.1869038332
 20
-23.2294361375
 10
-9.19010833
 20
-23.2232532001
 10
-9.1938062546
 20
-23.2171335699
 10
-9.1979985056
 20
-23.2110754134
 10
-9.2026839898
 20
-23.2051002367
 10
-9.2078606317
 20
-23.199228829
 10
-9.2135270025
 20
-23.1934590071
 10
-9.2196787863
 20
-23.1878130261
 10
-9.2263105687
 20
-23.182312533
 10
-9.2334183715
 20
-23.1769551973
 10
-9.2409943671
 20
-23.171763745
 10
-9.2490294491
 20
-23.1667604362
 10
-9.2575166746
 20
-23.1619430222
 10
-9.2664443841
 20
-23.1573343288
 10
-9.2757993629
 20
-23.1529569199
 10
-9.2855710375
 20
-23.148808872
 10
-9.2957435487
 20
-23.1449126131
 10
-9.3062991358
 20
-23.1412905703
 10
-9.3172227366
 20
-23.137941334
 10
-9.3284937941
 20
-23.1348863009
 10
-9.3400897186
 20
-23.1321470947
 10
-9.3519904163
 20
-23.1297228132
 10
-9.3641572441
 20
-23.1276360125
 10
-9.376575299
 20
-23.1259025536
 10
-9.3892592931
 20
-23.1245164325
 10
-9.4021940037
 20
-23.1234933505
 10
-9.4153325052
 20
-23.1228641607
 10
-9.4286399806
 20
-23.1226497308
  0
LWPOLYLINE
  5
2D0
100
AcDbEntity
  8
RACCORDO
100
AcDbPolyline
 62
250
  6
CONTINUOUS
 90
9
 70
0
 10
-11.4151072491
 20
21.9180061969
 10
-11.4156912702
 20
21.9344112275
 10
-11.416280893
 20
21.9490423459
 10
-11.4168761176
 20
21.9618812699
 10
-11.4174769438
 20
21.9729125504
 10
-11.4180811836
 20
21.9821229758
 10
-11.4186881075
 20
21.9895011008
 10
-11.419298445
 20
21.9950375138
 10
-11.4199121959
 20
21.998725222
  0
LWPOLYLINE
  5
2D1
100
AcDbEntity
  8
RACCORDO
100
AcDbPolyline
 62
250
  6
CONTINUOUS
 90
31
 70
0
 10
-9.1837348125
 20
-23.8443375673
 10
-9.1841133681
 20
-23.833039595
 10
-9.1851724957
 20
-23.821769291
 10
-9.1869098722
 20
-23.8105574212
 10
-9.1893215736
 20
-23.7994336121
 10
-9.1924014439
 20
-23.78842936
 10
-9.1961404949
 20
-23.7775778202
 10
-9.2005280393
 20
-23.7669096972
 10
-9.2055524383
 20
-23.7564530239
 10
-9.2112001189
 20
-23.746236105
 10
-9.2174558114
 20
-23.7362866999
 10
-9.224302386
 20
-23.7266321754
 10
-9.2317209943
 20
-23.7172991519
 10
-9.2396912984
 20
-23.7083132018
 10
-9.2481915932
 20
-23.6996987826
 10
-9.2571986836
 20
-23.6914794042
 10
-9.2666879873
 20
-23.6836775075
 10
-9.2766335744
 20
-23.6763144193
 10
-9.2870082573
 20
-23.6694102704
 10
-9.2977836897
 20
-23.6629839239
 10
-9.3089304477
 20
-23.6570529269
 10
-9.3204180847
 20
-23.6516334796
 10
-9.3322152414
 20
-23.6467403776
 10
-9.3442896779
 20
-23.6423869945
 10
-9.3566083575
 20
-23.6385852371
 10
-9.3691375929
 20
-23.6353454907
 10
-9.3818431957
 20
-23.6326765842
 10
-9.3946905165
 20
-23.6305857918
 10
-9.4076444838
 20
-23.6290788219
 10
-9.4206696975
 20
-23.6281597935
 10
-9.4337305817
 20
-23.6278312164
  0
LINE
  5
2D2
100
AcDbEntity
  8
RACCORDO
100
AcDbLine
 62
250
  6
CONTINUOUS
 10
-9.4337305817
 20
23.6278312164
 11
-9.4286399806
 21
23.1226497308
  0
LINE
  5
2D3
100
AcDbEntity
  8
RACCORDO
100
AcDbLine
 62
250
  6
CONTINUOUS
 10
-9.1837348125
 20
23.8443375673
 11
-9.1779169827
 21
23.2669872981
  0
LINE
  5
2D4
100
AcDbEntity
  8
RACCORDO
100
AcDbLine
 62
250
  6
CONTINUOUS
 10
-9.4337305817
 20
-23.6278312164
 11
-9.4337305817
 21
-24.4869014213
  0
LINE
  5
2D5
100
AcDbEntity
  8
RACCORDO
100
AcDbLine
 62
250
  6
CONTINUOUS
 10
-9.4337305817
 20
23.6278312164
 11
-9.4337305817
 21
24.4869014213
  0
LINE
  5
2D6
100
AcDbEntity
  8
RACCORDO
100
AcDbLine
 62
250
  6
CONTINUOUS
 10
-9.4279127519
 20
23.1226497308
 11
-9.4279127519
 21
22.3213883311
  0
LINE
  5
2D7
100
AcDbEntity
  8
RACCORDO
100
AcDbLine
 62
250
  6
CONTINUOUS
 10
-9.4279127519
 20
-22.3213883311
 11
-9.4279127519
 21
-23.1226497308
  0
LINE
  5
2D8
100
AcDbEntity
  8
RACCORDO
100
AcDbLine
 62
250
  6
CONTINUOUS
 10
-9.1837348125
 20
-24.2369056521
 11
-9.1837348125
 21
-23.8443375673
  0
LINE
  5
2D9
100
AcDbEntity
  8
RACCORDO
100
AcDbLine
 62
250
  6
CONTINUOUS
 10
-9.1837348125
 20
23.8443375673
 11
-9.1837348125
 21
24.2369056521
  0
LINE
  5
2DA
100
AcDbEntity
  8
RACCORDO
100
AcDbLine
 62
250
  6
CONTINUOUS
 10
-9.1779169827
 20
23.2669872981
 11
-9.1779169827
 21
22.3344140523
  0
LINE
  5
2DB
100
AcDbEntity
  8
RACCORDO
100
AcDbLine
 62
250
  6
CONTINUOUS
 10
-9.1779169827
 20
-22.3344140523
 11
-9.1779169827
 21
-23.2669872981
  0
LINE
  5
2DC
100
AcDbEntity
  8
RACCORDO
100
AcDbLine
 62
7
  6
CONTINUOUS
 10
-9.1706362338
 20
-22.4
 11
-9.1706362338
 21
-24.2500042308
  0
LINE
  5
2DD
100
AcDbEntity
  8
RACCORDO
100
AcDbLine
 62
7
  6
CONTINUOUS
 10
-9.1706362338
 20
22.4
 11
-9.1706362338
 21
24.2500042308
  0
LINE
  5
2DE
100
AcDbEntity
  8
RACCORDO
100
AcDbLine
 62
250
  6
CONTINUOUS
 10
-9.4286399806
 20
-23.1226497308
 11
-9.4337305817
 21
-23.6278312164
  0
LINE
  5
2DF
100
AcDbEntity
  8
RACCORDO
100
AcDbLine
 62
250
  6
CONTINUOUS
 10
-9.1779169827
 20
-23.2669872981
 11
-9.1837348125
 21
-23.8443375673
  0
LWPOLYLINE
  5
2E0
100
AcDbEntity
  8
RACCORDO
100
AcDbPolyline
 62
250
  6
CONTINUOUS
 90
31
 70
0
 10
-9.1837348125
 20
23.8443375673
 10
-9.1841141442
 20
23.8330274168
 10
-9.1851751262
 20
23.8217481519
 10
-9.186914861
 20
23.810530574
 10
-9.189328598
 20
23.7994053159
 10
-9.1924097455
 20
23.7884027584
 10
-9.1961498898
 20
23.7775529472
 10
-9.2005388172
 20
23.7668855107
 10
-9.2055645425
 20
23.7564295797
 10
-9.2112133415
 20
23.7462137069
 10
-9.2174697884
 20
23.7362657898
 10
-9.2243167984
 20
23.7266129942
 10
-9.2317356735
 20
23.7172816797
 10
-9.2397061544
 20
23.7082973282
 10
-9.2482064754
 20
23.6996844742
 10
-9.2572134239
 20
23.6914666374
 10
-9.2667024039
 20
23.6836662592
 10
-9.2766475028
 20
23.6763046407
 10
-9.2870215627
 20
23.6694018849
 10
-9.2977962542
 20
23.6629768418
 10
-9.3089421539
 20
23.6570470569
 10
-9.3204288247
 20
23.6516287232
 10
-9.3322248989
 20
23.646736637
 10
-9.3442981638
 20
23.6423841576
 10
-9.3566156499
 20
23.6385831707
 10
-9.3691437208
 20
23.6353440559
 10
-9.3818481649
 20
23.6326756587
 10
-9.394694289
 20
23.6305852658
 10
-9.407647013
 20
23.6290785857
 10
-9.4206709658
 20
23.6281597328
 10
-9.4337305817
 20
23.6278312164
  0
LWPOLYLINE
  5
2E1
100
AcDbEntity
  8
RACCORDO
100
AcDbPolyline
 62
7
  6
CONTINUOUS
 90
34
 70
0
 10
-9.1779169827
 20
23.2669872981
 10
-9.178214709
 20
23.260745719
 10
-9.1789859604
 20
23.254472608
 10
-9.1802363232
 20
23.2481861919
 10
-9.1819703705
 20
23.2419121598
 10
-9.1841918132
 20
23.2356626215
 10
-9.1869038332
 20
23.2294361375
 10
-9.19010833
 20
23.2232532001
 10
-9.1938062546
 20
23.2171335699
 10
-9.1979985056
 20
23.2110754134
 10
-9.2026839898
 20
23.2051002367
 10
-9.2078606317
 20
23.199228829
 10
-9.2135270025
 20
23.1934590071
 10
-9.2196787863
 20
23.1878130261
 10
-9.2263105687
 20
23.182312533
 10
-9.2334183715
 20
23.1769551973
 10
-9.2409943671
 20
23.171763745
 10
-9.2490294491
 20
23.1667604362
 10
-9.2575166746
 20
23.1619430222
 10
-9.2664443841
 20
23.1573343288
 10
-9.2757993629
 20
23.1529569199
 10
-9.2855710375
 20
23.148808872
 10
-9.2957435487
 20
23.1449126131
 10
-9.3062991358
 20
23.1412905703
 10
-9.3172227366
 20
23.137941334
 10
-9.3284937941
 20
23.1348863009
 10
-9.3400897186
 20
23.1321470947
 10
-9.3519904163
 20
23.1297228132
 10
-9.3641572441
 20
23.1276360125
 10
-9.376575299
 20
23.1259025536
 10
-9.3892592931
 20
23.1245164325
 10
-9.4021940037
 20
23.1234933505
 10
-9.4153325052
 20
23.1228641607
 10
-9.4286399806
 20
23.1226497308
  0
LINE
  5
2E2
100
AcDbEntity
  8
RACCORDO
100
AcDbLine
 62
7
  6
CONTINUOUS
 10
-11.5633554849
 20
-22.3334109614
 11
-11.5706362338
 21
-22.3997080771
  0
LWPOLYLINE
  5
2E3
100
AcDbEntity
  8
0
100
AcDbPolyline
 62
7
  6
CONTINUOUS
 90
3
 70
0
 43
0.3500000087
 10
0.2222209108
 20
33.535305368
 10
0.1507923386
 20
33.3210188354
 10
0.0079351948
 20
33.0353048798
  0
LINE
  5
2E4
100
AcDbEntity
  8
RACCORDO
100
AcDbLine
 62
250
  6
CONTINUOUS
 10
9.479367997
 20
24.5
 11
9.4662694183
 21
24.4869014213
  0
LINE
  5
2E5
100
AcDbEntity
  8
RACCORDO
100
AcDbLine
 62
250
  6
CONTINUOUS
 10
9.7293637662
 20
24.2500042308
 11
9.7162651875
 21
24.2369056521
  0
LINE
  5
2E6
100
AcDbEntity
  8
RACCORDO
100
AcDbLine
 62
250
  6
CONTINUOUS
 10
9.479367997
 20
-24.5
 11
9.4662694183
 21
-24.4869014213
  0
LINE
  5
2E7
100
AcDbEntity
  8
RACCORDO
100
AcDbLine
 62
250
  6
CONTINUOUS
 10
9.7293637662
 20
-24.2500042308
 11
9.7162651875
 21
-24.2369056521
  0
LWPOLYLINE
  5
2E8
100
AcDbEntity
  8
RACCORDO
100
AcDbPolyline
 62
250
  6
CONTINUOUS
 90
31
 70
0
 10
-9.1837348125
 20
24.2369056521
 10
-9.1840780015
 20
24.2499920062
 10
-9.1851057445
 20
24.2630425045
 10
-9.1868152276
 20
24.2760213619
 10
-9.1892017703
 20
24.2888930016
 10
-9.1922588315
 20
24.3016221155
 10
-9.195978021
 20
24.314173763
 10
-9.2003491361
 20
24.3265135191
 10
-9.2053601915
 20
24.3386075563
 10
-9.2109974398
 20
24.3504227019
 10
-9.217245419
 20
24.3619265577
 10
-9.2240869948
 20
24.3730875837
 10
-9.2315034016
 20
24.383875174
 10
-9.2394743098
 20
24.3942597633
 10
-9.2479778513
 20
24.4042128667
 10
-9.2569906705
 20
24.4137071599
 10
-9.2664880049
 20
24.4227165817
 10
-9.2764438421
 20
24.4312164786
 10
-9.2868309679
 20
24.4391836209
 10
-9.2976210471
 20
24.4465962509
 10
-9.3087843655
 20
24.4534339327
 10
-9.320289966
 20
24.4596777344
 10
-9.3321060442
 20
24.465310483
 10
-9.3442004003
 20
24.4703169129
 10
-9.3565402043
 20
24.474683464
 10
-9.3690943888
 20
24.4783989037
 10
-9.381825854
 20
24.4814520171
 10
-9.3946915728
 20
24.4838331472
 10
-9.4076533474
 20
24.4855367515
 10
-9.4206782417
 20
24.4865600141
 10
-9.4337305817
 20
24.4869014213
  0
LWPOLYLINE
  5
2E9
100
AcDbEntity
  8
RACCORDO
100
AcDbPolyline
 62
7
  6
CONTINUOUS
 90
34
 70
0
 10
-9.1706362338
 20
24.2500042308
 10
-9.170919384
 20
24.261899516
 10
-9.1717681995
 20
24.2737678556
 10
-9.1731807596
 20
24.2855823661
 10
-9.175153866
 20
24.2973162875
 10
-9.1776830521
 20
24.3089430388
 10
-9.1807625921
 20
24.320436279
 10
-9.1843855124
 20
24.3317699738
 10
-9.188543608
 20
24.3429184493
 10
-9.1932274616
 20
24.3538564463
 10
-9.1984264649
 20
24.3645591876
 10
-9.2041288421
 20
24.3750024283
 10
-9.2103216756
 20
24.3851625059
 10
-9.2169909383
 20
24.3950164051
 10
-9.2241215231
 20
24.4045418038
 10
-9.2316972749
 20
24.4137171191
 10
-9.2397010333
 20
24.4225215661
 10
-9.2481146677
 20
24.4309352005
 10
-9.2569191147
 20
24.4389389589
 10
-9.2660944299
 20
24.4465147107
 10
-9.2756198286
 20
24.4536452955
 10
-9.2854737279
 20
24.4603145581
 10
-9.2956338055
 20
24.4665073916
 10
-9.3060770462
 20
24.4722097688
 10
-9.3167797875
 20
24.4774087722
 10
-9.3277177845
 20
24.4820926258
 10
-9.33886626
 20
24.4862507213
 10
-9.3501999548
 20
24.4898736417
 10
-9.361693195
 20
24.4929531817
 10
-9.3733199463
 20
24.4954823677
 10
-9.3850538676
 20
24.4974554741
 10
-9.3968683782
 20
24.4988680342
 10
-9.4087367177
 20
24.4997168498
 10
-9.420632003
 20
24.5
  0
LWPOLYLINE
  5
2EA
100
AcDbEntity
  8
RACCORDO
100
AcDbPolyline
 62
250
  6
CONTINUOUS
 90
11
 70
0
 10
-11.4199121959
 20
-21.998725222
 10
-11.4192984521
 20
-21.9950375378
 10
-11.4186881197
 20
-21.9895011587
 10
-11.4180811987
 20
-21.9821230696
 10
-11.4174769587
 20
-21.9729126684
 10
-11.4168761301
 20
-21.9618813963
 10
-11.4162809039
 20
-21.9490424785
 10
-11.4156912815
 20
-21.9344113731
 10
-11.4151072615
 20
-21.9180063567
 10
-11.4145310305
 20
-21.8998481209
 10
-11.4134020143
 20
-21.8583646881
  0
LINE
  5
2EB
100
AcDbEntity
  8
DRAFT
100
AcDbLine
 62
7
  6
CONTINUOUS
 10
-5.3206362338
 20
-23.8
 11
-5.3206362338
 21
-22.4
  0
LINE
  5
2EC
100
AcDbEntity
  8
DRAFT
100
AcDbLine
 62
7
  6
CONTINUOUS
 10
-5.3206362338
 20
22.4
 11
-5.3206362338
 21
23.8
  0
LINE
  5
2ED
100
AcDbEntity
  8
RACCORDO
100
AcDbLine
 62
250
  6
CONTINUOUS
 10
-5.3177103956
 20
23.7970741618
 11
-5.3177103956
 21
22.3736436632
  0
LINE
  5
2EE
100
AcDbEntity
  8
RACCORDO
100
AcDbLine
 62
250
  6
CONTINUOUS
 10
-5.3177103956
 20
-22.3736436632
 11
-5.3177103956
 21
-23.7970741618
  0
LWPOLYLINE
  5
2EF
100
AcDbEntity
  8
RACCORDO
100
AcDbPolyline
 62
250
  6
CONTINUOUS
 90
12
 70
0
 10
-11.9198360435
 20
-21.4994104546
 10
-11.9192227455
 20
-21.4969452148
 10
-11.9186127329
 20
-21.4932587858
 10
-11.9180060058
 20
-21.4883511677
 10
-11.91740179
 20
-21.48221322
 10
-11.9168008597
 20
-21.4748540831
 10
-11.916205537
 20
-21.4663011785
 10
-11.91561587
 20
-21.4565500692
 10
-11.9150318106
 20
-21.4456051921
 10
-11.9144555373
 20
-21.4335072799
 10
-11.9138870858
 20
-21.4202521407
 10
-11.9127756131
 20
-21.3903360643
  0
LWPOLYLINE
  5
2F0
100
AcDbEntity
  8
RACCORDO
100
AcDbPolyline
 62
250
  6
CONTINUOUS
 90
124
 70
0
 10
-0.9206362338
 20
-5.9118236473
 10
-1.0699530643
 20
-5.9099575816
 10
-1.2192440243
 20
-5.9042716564
 10
-1.3685091138
 20
-5.8947658703
 10
-1.5178835182
 20
-5.8814406955
 10
-1.6672320521
 20
-5.8642956535
 10
-1.8161491592
 20
-5.8433293155
 10
-1.9646326902
 20
-5.8185231726
 10
-2.1126847946
 20
-5.7898957215
 10
-2.2599063644
 20
-5.75750104
 10
-2.406290137
 20
-5.7213223317
 10
-2.551843375
 20
-5.6813763755
 10
-2.6961887584
 20
-5.6377676122
 10
-2.8392897765
 20
-5.5904948209
 10
-2.9811829401
 20
-5.5395592007
 10
-3.1216004603
 20
-5.4850688221
 10
-3.2605226823
 20
-5.4270273329
 10
-3.397969261
 20
-5.3654310604
 10
-3.5337313733
 20
-5.3003770932
 10
-3.6678211892
 20
-5.2318556992
 10
-3.8002265387
 20
-5.1598765837
 10
-3.9307020893
 20
-5.0845659914
 10
-4.0592565658
 20
-5.0059095718
 10
-4.1858812434
 20
-4.9239216478
 10
-4.3103046152
 20
-4.8387714761
 10
-4.4325178627
 20
-4.7504537057
 10
-4.5525298043
 20
-4.658973661
 10
-4.6700953889
 20
-4.5645166134
 10
-4.7852049543
 20
-4.4670803563
 10
-4.8978681626
 20
-4.3666670721
 10
-5.007868949
 20
-4.2634686174
 10
-5.115202643
 20
-4.1574798742
 10
-5.219873915
 20
-4.0487059399
 10
-5.3216807116
 20
-3.9373539968
 10
-5.420618884
 20
-3.8234178702
 10
-5.516692581
 20
-3.7069037189
 10
-5.6097121957
 20
-3.5880372289
 10
-5.699672108
 20
-3.4668133299
 10
-5.7865779381
 20
-3.3432370817
 10
-5.8702569396
 20
-3.2175493692
 10
-5.9507033504
 20
-3.0897446928
 10
-6.0279229328
 20
-2.9598285476
 10
-6.1017602271
 20
-2.8280583132
 10
-6.1722083012
 20
-2.6944298395
 10
-6.2392740872
 20
-2.5589472787
 10
-6.3028229228
 20
-2.4218804676
 10
-6.3628471914
 20
-2.2832268845
 10
-6.4193545094
 20
-2.1429890594
 10
-6.4722330643
 20
-2.00144441
 10
-6.521475298
 20
-1.8585911403
 10
-6.5670887685
 20
-1.7144310604
 10
-6.6089843373
 20
-1.5692470002
 10
-6.6471539858
 20
-1.4230429941
 10
-6.6816057326
 20
-1.2758150268
 10
-6.7122744944
 20
-1.127833856
 10
-6.7391545942
 20
-0.9791001572
 10
-6.762251709
 20
-0.829613278
 10
-6.7815177865
 20
-0.679641985
 10
-6.7969472519
 20
-0.5291721984
 10
-6.8085456801
 20
-0.378218024
 10
-6.8162817429
 20
-0.2270905086
 10
-6.8201450267
 20
-0.0757780649
 10
-6.8201459453
 20
0.0757076923
 10
-6.8162844121
 20
0.2270209126
 10
-6.8085499536
 20
0.3781502945
 10
-6.7969530434
 20
0.529107112
 10
-6.7815250161
 20
0.6795793777
 10
-6.7622602698
 20
0.8295527276
 10
-6.7391644064
 20
0.9790414999
 10
-6.7122855661
 20
1.1277767615
 10
-6.6816181026
 20
1.2757590267
 10
-6.6471676622
 20
1.4229877583
 10
-6.6089993239
 20
1.569192447
 10
-6.5671050653
 20
1.7143771773
 10
-6.5214929088
 20
1.8585378457
 10
-6.4722520006
 20
2.0013916634
 10
-6.4193747738
 20
2.1429368443
 10
-6.3628687954
 20
2.2831751603
 10
-6.3028459124
 20
2.4218291621
 10
-6.2392985426
 20
2.5588962586
 10
-6.1722342684
 20
2.6943790327
 10
-6.101787684
 20
2.8280077989
 10
-6.0279518599
 20
2.9597784292
 10
-5.9507337256
 20
3.0896950496
 10
-5.8702886649
 20
3.2175003595
 10
-5.7866108771
 20
3.3431889233
 10
-5.6997061628
 20
3.4667661809
 10
-5.6097473072
 20
3.5879911486
 10
-5.51672867
 20
3.7068587716
 10
-5.4206558914
 20
3.8233741151
 10
-5.3217186775
 20
3.9373113793
 10
-5.2199128966
 20
4.048664371
 10
-5.1152426804
 20
4.1574392993
 10
-5.0079101299
 20
4.26342897
 10
-4.8979106384
 20
4.3666282355
 10
-4.7852488125
 20
4.467042264
 10
-4.6701405734
 20
4.5644793379
 10
-4.5525762985
 20
4.6589372749
 10
-4.4325656104
 20
4.7504182816
 10
-4.3103532976
 20
4.8387372256
 10
-4.1859303981
 20
4.9238888874
 10
-4.059305874
 20
5.0058785133
 10
-3.9307513995
 20
5.0845366719
 10
-3.8002755117
 20
5.1598490905
 10
-3.6678696735
 20
5.2318300694
 10
-3.5337799487
 20
5.3003530383
 10
-3.398018736
 20
5.3654081343
 10
-3.2605736366
 20
5.4270052473
 10
-3.1216535176
 20
5.4850474363
 10
-2.981239185
 20
5.5395382666
 10
-2.8393498327
 20
5.5904741977
 10
-2.6962519097
 20
5.6377476301
 10
-2.5519088477
 20
5.6813575215
 10
-2.406357215
 20
5.7213049359
 10
-2.2599731659
 20
5.7574854326
 10
-2.1127490695
 20
5.7898823723
 10
-1.9646925567
 20
5.8185124119
 10
-1.8162026745
 20
5.8433210542
 10
-1.6672763085
 20
5.864289812
 10
-1.5179165731
 20
5.8814371847
 10
-1.3685318589
 20
5.8947641538
 10
-1.219258296
 20
5.9042710485
 10
-1.0699597543
 20
5.9099575459
 10
-0.9206362338
 20
5.9118236473
  0
LINE
  5
2F1
100
AcDbEntity
  8
RACCORDO
100
AcDbLine
 62
250
  6
CONTINUOUS
 10
-4.8177188571
 20
23.5953423515
 11
-4.8177188571
 21
22.3475922207
  0
LINE
  5
2F2
100
AcDbEntity
  8
RACCORDO
100
AcDbLine
 62
250
  6
CONTINUOUS
 10
-4.8177188571
 20
-22.3475922207
 11
-4.8177188571
 21
-23.5953423515
  0
LINE
  5
2F3
100
AcDbEntity
  8
RACCORDO
100
AcDbLine
 62
250
  6
CONTINUOUS
 10
-4.3284963391
 20
1.0106905633
 11
-4.2069426145
 21
1.7000559903
  0
LINE
  5
2F4
100
AcDbEntity
  8
RACCORDO
100
AcDbLine
 62
250
  6
CONTINUOUS
 10
-12.0532193314
 20
-21.8998857286
 11
-11.9198360435
 21
-21.4994104546
  0
LINE
  5
2F5
100
AcDbEntity
  8
RACCORDO
100
AcDbLine
 62
250
  6
CONTINUOUS
 10
-11.4199121959
 20
-21.998725222
 11
-11.5295515737
 21
-22.3279108386
  0
LWPOLYLINE
  5
2F6
100
AcDbEntity
  8
0
100
AcDbPolyline
 62
7
  6
CONTINUOUS
 90
16
 70
0
 10
-2.6266463266
 20
4.461622871
 10
-2.6249791275
 20
4.462532351
 10
-2.6229614483
 20
4.4643528589
 10
-2.6209563211
 20
4.4669400951
 10
-2.6189643777
 20
4.4702994429
 10
-2.6169849861
 20
4.4744255191
 10
-2.6150275727
 20
4.4792800386
 10
-2.613092672
 20
4.4848659492
 10
-2.6111797495
 20
4.4911803032
 10
-2.6092966273
 20
4.4981759724
 10
-2.607444225
 20
4.5058510088
 10
-2.605621623
 20
4.5142073603
 10
-2.6038338856
 20
4.5232037427
 10
-2.6020812565
 20
4.5328379495
 10
-2.600363492
 20
4.5431121871
 10
-2.5995051137
 20
4.5486757499
  0
LWPOLYLINE
  5
2F7
100
AcDbEntity
  8
0
100
AcDbPolyline
 62
7
  6
CONTINUOUS
 90
5
 70
0
 10
-2.6266463144
 20
3.9216567534
 10
-2.6273856438
 20
3.9213649108
 10
-2.631400232
 20
3.9207252315
 10
-2.6354234548
 20
3.9216707226
 10
-2.6394553122
 20
3.9242013839
  0
LWPOLYLINE
  5
2F8
100
AcDbEntity
  8
0
100
AcDbPolyline
 62
7
  6
CONTINUOUS
 90
5
 70
0
 10
-2.6266463238
 20
-4.4616222046
 10
-2.6270351301
 20
-4.4614891817
 10
-2.6290371742
 20
-4.4612701585
 10
-2.6310424042
 20
-4.4618274611
 10
-2.6330508201
 20
-4.4631610895
  0
LWPOLYLINE
  5
2F9
100
AcDbEntity
  8
0
100
AcDbPolyline
 62
7
  6
CONTINUOUS
 90
21
 70
0
 10
-2.6266463227
 20
-3.9216585122
 10
-2.6232721887
 20
-3.9236929139
 10
-2.6192285714
 20
-3.9276077655
 10
-2.6152118043
 20
-3.9330779039
 10
-2.6112233209
 20
-3.9401153841
 10
-2.6072616877
 20
-3.9487081509
 10
-2.6033462256
 20
-3.9587641294
 10
-2.5994783384
 20
-3.9702884916
 10
-2.5956566223
 20
-3.9832760653
 10
-2.5918961874
 20
-3.997619259
 10
-2.5881992759
 20
-4.0133106131
 10
-2.5845636457
 20
-4.0303575871
 10
-2.5809976799
 20
-4.0486749681
 10
-2.5775018003
 20
-4.0682554791
 10
-2.5740755852
 20
-4.0891063971
 10
-2.570726153
 20
-4.1111643397
 10
-2.5674532775
 20
-4.1344238284
 10
-2.5642571849
 20
-4.1588903417
 10
-2.5611456721
 20
-4.184516932
 10
-2.5581213384
 20
-4.2112879502
 10
-2.5551815845
 20
-4.2392190455
  0
LINE
  5
2FA
100
AcDbEntity
  8
RACCORDO
100
AcDbLine
 62
250
  6
CONTINUOUS
 10
-11.9198360435
 20
21.4994104546
 11
-12.0532193314
 21
21.8998857286
  0
LINE
  5
2FB
100
AcDbEntity
  8
RACCORDO
100
AcDbLine
 62
250
  6
CONTINUOUS
 10
-11.5295515737
 20
22.3279108386
 11
-11.4199121959
 21
21.998725222
  0
LINE
  5
2FC
100
AcDbEntity
  8
RACCORDO
100
AcDbLine
 62
250
  6
CONTINUOUS
 10
-4.3284963391
 20
-1.0106905633
 11
-4.2069426147
 21
-1.7000559904
  0
LINE
  5
2FD
100
AcDbEntity
  8
0
100
AcDbLine
 62
7
  6
CONTINUOUS
 10
-2.5551815845
 20
-4.2392190455
 11
-2.5228914271
 21
-4.5772511776
  0
LWPOLYLINE
  5
2FE
100
AcDbEntity
  8
0
100
AcDbPolyline
 62
7
  6
CONTINUOUS
 90
22
 70
0
 10
-2.522891322
 20
4.5772512168
 10
-2.5551934207
 20
4.2390895802
 10
-2.5581503414
 20
4.2110120458
 10
-2.5611971726
 20
4.1840776144
 10
-2.5643380343
 20
4.1582558606
 10
-2.5675688065
 20
4.1335772098
 10
-2.5708771297
 20
4.1101329388
 10
-2.5742632812
 20
4.0879246055
 10
-2.5777269838
 20
4.0669506519
 10
-2.5812550454
 20
4.0472976804
 10
-2.5848474604
 20
4.0289691105
 10
-2.5885042345
 20
4.0119615227
 10
-2.5922121932
 20
3.9963512607
 10
-2.5959711963
 20
3.9821412257
 10
-2.5997813839
 20
3.9693285165
 10
-2.6036300021
 20
3.9579807724
 10
-2.6075171552
 20
3.9480993897
 10
-2.6114427389
 20
3.9396829721
 10
-2.6153936864
 20
3.9327949703
 10
-2.6193712182
 20
3.9274376165
 10
-2.6233741137
 20
3.9236086785
 10
-2.6266463144
 20
3.9216567534
  0
LINE
  5
2FF
100
AcDbEntity
  8
RACCORDO
100
AcDbLine
 62
7
  6
CONTINUOUS
 10
-5.3206362338
 20
-22.4
 11
-5.3177103956
 21
-22.3736436632
  0
LWPOLYLINE
  5
300
100
AcDbEntity
  8
RACCORDO
100
AcDbPolyline
 62
7
  6
CONTINUOUS
 90
13
 70
0
 10
9.7220830173
 20
22.3334109614
 10
9.7217851336
 20
22.3328534742
 10
9.7210179603
 20
22.3323229492
 10
9.7197827436
 20
22.3318193863
 10
9.7180814911
 20
22.3313473676
 10
9.7159172703
 20
22.3309023111
 10
9.7132944873
 20
22.3304704706
 10
9.7102181086
 20
22.3300553617
 10
9.7066940037
 20
22.3296534689
 10
9.7027297469
 20
22.3292404994
 10
9.6983334532
 20
22.3288083558
 10
9.6935134481
 20
22.3283651355
 10
9.6882791062
 20
22.3279108386
  0
LINE
  5
301
100
AcDbEntity
  8
0
100
AcDbLine
 62
7
  6
CONTINUOUS
 10
0.8507560139
 20
4.5141663179
 11
0.7917783526
 21
4.4631610895
  0
LINE
  5
302
100
AcDbEntity
  8
0
100
AcDbLine
 62
7
  6
CONTINUOUS
 10
0.8806976803
 20
3.9930090778
 11
0.7981828446
 21
3.9242013839
  0
LWPOLYLINE
  5
303
100
AcDbEntity
  8
0
100
AcDbPolyline
 62
7
  6
CONTINUOUS
 90
5
 70
0
 10
0.7981828446
 20
3.9242013839
 10
0.7941341908
 20
3.9216528122
 10
0.7900887646
 20
3.9207154372
 10
0.7860465661
 20
3.9213892589
 10
0.7853738552
 20
3.9216585122
  0
LWPOLYLINE
  5
304
100
AcDbEntity
  8
0
100
AcDbPolyline
 62
7
  6
CONTINUOUS
 90
5
 70
0
 10
0.7917783526
 20
-4.4631610895
 10
0.7897595282
 20
-4.461818765
 10
0.7877419336
 20
-4.4612653041
 10
0.7857255689
 20
-4.4615007066
 10
0.785373859
 20
-4.461622871
  0
LINE
  5
305
100
AcDbEntity
  8
0
100
AcDbLine
 62
7
  6
CONTINUOUS
 10
0.7981828446
 20
-3.9242013839
 11
0.8806976803
 21
-3.9930090778
  0
LINE
  5
306
100
AcDbEntity
  8
0
100
AcDbLine
 62
7
  6
CONTINUOUS
 10
0.7917783526
 20
-4.4631610895
 11
0.8507560127
 21
-4.5141663184
  0
LWPOLYLINE
  5
307
100
AcDbEntity
  8
0
100
AcDbPolyline
 62
7
  6
CONTINUOUS
 90
16
 70
0
 10
-2.5995052923
 20
-4.5486756832
 10
-2.6004566967
 20
-4.5425345902
 10
-2.6021916853
 20
-4.5322092136
 10
-2.6039590697
 20
-4.5225468467
 10
-2.6057589191
 20
-4.5135497466
 10
-2.6075911643
 20
-4.5052156562
 10
-2.6094486545
 20
-4.4975811688
 10
-2.6113312777
 20
-4.4906486629
 10
-2.6132391458
 20
-4.48441576
 10
-2.6151654449
 20
-4.4789119172
 10
-2.6171101823
 20
-4.4741383925
 10
-2.6190733506
 20
-4.4700939279
 10
-2.6210481131
 20
-4.4668042063
 10
-2.623034994
 20
-4.4642705942
 10
-2.6250334691
 20
-4.462491725
 10
-2.6266463238
 20
-4.4616222046
  0
LINE
  5
308
100
AcDbEntity
  8
RACCORDO
100
AcDbLine
 62
7
  6
CONTINUOUS
 10
-5.3206362338
 20
22.4
 11
-5.3177103956
 21
22.3736436632
  0
LINE
  5
309
100
AcDbEntity
  8
0
100
AcDbLine
 62
7
  6
CONTINUOUS
 10
-2.7219701478
 20
-3.9930090778
 11
-2.9148296926
 21
-4.4205199945
  0
LINE
  5
30A
100
AcDbEntity
  8
0
100
AcDbLine
 62
7
  6
CONTINUOUS
 10
0.8806976803
 20
3.9930090778
 11
1.073557225
 21
4.4205199945
  0
LINE
  5
30B
100
AcDbEntity
  8
RACCORDO
100
AcDbLine
 62
250
  6
CONTINUOUS
 10
-4.3893090956
 20
-1.7730211821
 11
-4.2069426147
 21
-1.7000559904
  0
LINE
  5
30C
100
AcDbEntity
  8
RACCORDO
100
AcDbLine
 62
250
  6
CONTINUOUS
 10
-4.5649902616
 20
-1.842037357
 11
-4.3893090956
 21
-1.7730211821
  0
LINE
  5
30D
100
AcDbEntity
  8
RACCORDO
100
AcDbLine
 62
250
  6
CONTINUOUS
 10
-4.7271921751
 20
-1.9046799674
 11
-4.5649902616
 21
-1.842037357
  0
LINE
  5
30E
100
AcDbEntity
  8
RACCORDO
100
AcDbLine
 62
250
  6
CONTINUOUS
 10
-4.9114270834
 20
-1.9746648593
 11
-4.7271921751
 21
-1.9046799674
  0
LINE
  5
30F
100
AcDbEntity
  8
RACCORDO
100
AcDbLine
 62
250
  6
CONTINUOUS
 10
-5.0946406129
 20
-2.0430678939
 11
-4.9114270834
 21
-1.9746648593
  0
LINE
  5
310
100
AcDbEntity
  8
RACCORDO
100
AcDbLine
 62
250
  6
CONTINUOUS
 10
-5.1444227104
 20
-2.0614625391
 11
-5.0946406129
 21
-2.0430678939
  0
LINE
  5
311
100
AcDbEntity
  8
RACCORDO
100
AcDbLine
 62
250
  6
CONTINUOUS
 10
-4.2069426147
 20
-1.7000559904
 11
-1.8690173535
 21
-1.2878166879
  0
LINE
  5
312
100
AcDbEntity
  8
RACCORDO
100
AcDbLine
 62
7
  6
CONTINUOUS
 10
-5.6082290821
 20
-1.236341974
 11
-2.5664825961
 21
-0.7
  0
LINE
  5
313
100
AcDbEntity
  8
SMUSSO
100
AcDbLine
 62
7
  6
CONTINUOUS
 10
3.5327308976
 20
-1.5
 11
3.6894466537
 21
-1.5
  0
LWPOLYLINE
  5
314
100
AcDbEntity
  8
0
100
AcDbPolyline
 62
7
  6
CONTINUOUS
 90
2
 70
0
 43
0.3500000087
 10
19.4504943527
 20
-1.3571421616
 10
17.9504950195
 20
-1.3571421616
  0
LINE
  5
315
100
AcDbEntity
  8
RACCORDO
100
AcDbLine
 62
7
  6
CONTINUOUS
 10
-2.5664825961
 20
-0.7
 11
-2.4770744754
 21
-0.7
  0
LINE
  5
316
100
AcDbEntity
  8
0
100
AcDbLine
 62
7
  6
CONTINUOUS
 10
0.5174958166
 20
-0.7
 11
2.0793637662
 21
-0.7
  0
LINE
  5
317
100
AcDbEntity
  8
0
100
AcDbLine
 62
7
  6
CONTINUOUS
 10
0.6723169984
 20
-0.15
 11
0.0680497629
 21
-0.15
  0
LINE
  5
318
100
AcDbEntity
  8
0
100
AcDbLine
 62
7
  6
CONTINUOUS
 10
-1.9093222304
 20
-0.15
 11
-2.513589466
 21
-0.15
  0
LINE
  5
319
100
AcDbEntity
  8
0
100
AcDbLine
 62
7
  6
CONTINUOUS
 10
-2.513589466
 20
0.15
 11
-1.9093222304
 21
0.15
  0
LINE
  5
31A
100
AcDbEntity
  8
0
100
AcDbLine
 62
7
  6
CONTINUOUS
 10
0.0680497629
 20
0.15
 11
0.6723169984
 21
0.15
  0
LINE
  5
31B
100
AcDbEntity
  8
RACCORDO
100
AcDbLine
 62
7
  6
CONTINUOUS
 10
-2.5664825961
 20
0.7
 11
-5.6082290821
 21
1.236341974
  0
LINE
  5
31C
100
AcDbEntity
  8
RACCORDO
100
AcDbLine
 62
250
  6
CONTINUOUS
 10
-5.0476539171
 20
2.0256292852
 11
-5.1444227104
 21
2.0614625391
  0
LINE
  5
31D
100
AcDbEntity
  8
RACCORDO
100
AcDbLine
 62
250
  6
CONTINUOUS
 10
-4.9114270835
 20
1.9746648591
 11
-5.0476539171
 21
2.0256292852
  0
LINE
  5
31E
100
AcDbEntity
  8
RACCORDO
100
AcDbLine
 62
250
  6
CONTINUOUS
 10
-4.7271921749
 20
1.904679968
 11
-4.9114270835
 21
1.9746648591
  0
LINE
  5
31F
100
AcDbEntity
  8
RACCORDO
100
AcDbLine
 62
250
  6
CONTINUOUS
 10
-4.5649902622
 20
1.8420373556
 11
-4.7271921749
 21
1.904679968
  0
LINE
  5
320
100
AcDbEntity
  8
RACCORDO
100
AcDbLine
 62
250
  6
CONTINUOUS
 10
-4.3893090945
 20
1.7730211849
 11
-4.5649902622
 21
1.8420373556
  0
LINE
  5
321
100
AcDbEntity
  8
RACCORDO
100
AcDbLine
 62
250
  6
CONTINUOUS
 10
-4.2069426147
 20
1.7000559904
 11
-4.3893090945
 21
1.7730211849
  0
LINE
  5
322
100
AcDbEntity
  8
0
100
AcDbLine
 62
7
  6
CONTINUOUS
 10
0.8806976803
 20
-3.9930090778
 11
1.073557225
 21
-4.4205199945
  0
LINE
  5
323
100
AcDbEntity
  8
0
100
AcDbLine
 62
7
  6
CONTINUOUS
 10
-2.7219701478
 20
3.9930090778
 11
-2.9148296926
 21
4.4205199945
  0
LINE
  5
324
100
AcDbEntity
  8
0
100
AcDbLine
 62
7
  6
CONTINUOUS
 10
0.7139091169
 20
4.2392190455
 11
0.6816189595
 21
4.5772511776
  0
LINE
  5
325
100
AcDbEntity
  8
0
100
AcDbLine
 62
7
  6
CONTINUOUS
 10
1.3293637662
 20
-4.1264391429
 11
1.3293637662
 21
-4.2945232237
  0
LINE
  5
326
100
AcDbEntity
  8
0
100
AcDbLine
 62
7
  6
CONTINUOUS
 10
1.3293637662
 20
4.1264391429
 11
1.3293637662
 21
4.2945232237
  0
LINE
  5
327
100
AcDbEntity
  8
0
100
AcDbLine
 62
7
  6
CONTINUOUS
 10
1.5793637662
 20
4.1539354012
 11
1.5793637662
 21
3.9786787797
  0
LINE
  5
328
100
AcDbEntity
  8
RACCORDO
100
AcDbLine
 62
7
  6
CONTINUOUS
 10
1.5793637662
 20
-4.1539354012
 11
1.5793637662
 21
-3.9786787757
  0
LINE
  5
329
100
AcDbEntity
  8
0
100
AcDbLine
 62
7
  6
CONTINUOUS
 10
1.8293637662
 20
-3.8113096792
 11
1.8293637662
 21
-3.9925684948
  0
LINE
  5
32A
100
AcDbEntity
  8
SUPERFICI
100
AcDbLine
 62
7
  6
CONTINUOUS
 10
1.8293637662
 20
-3.8113096792
 11
1.8293637662
 21
-3.9925684948
  0
LWPOLYLINE
  5
32B
100
AcDbEntity
  8
0
100
AcDbPolyline
 62
7
  6
CONTINUOUS
 90
22
 70
0
 10
0.6816188544
 20
-4.5772512168
 10
0.7139209531
 20
-4.2390895802
 10
0.7168778738
 20
-4.2110120458
 10
0.7199247051
 20
-4.1840776144
 10
0.7230655667
 20
-4.1582558606
 10
0.726296339
 20
-4.1335772098
 10
0.7296046621
 20
-4.1101329388
 10
0.7329908137
 20
-4.0879246055
 10
0.7364545163
 20
-4.0669506519
 10
0.7399825779
 20
-4.0472976804
 10
0.7435749929
 20
-4.0289691105
 10
0.747231767
 20
-4.0119615227
 10
0.7509397257
 20
-3.9963512607
 10
0.7546987287
 20
-3.9821412257
 10
0.7585089163
 20
-3.9693285165
 10
0.7623575345
 20
-3.9579807724
 10
0.7662446877
 20
-3.9480993897
 10
0.7701702714
 20
-3.9396829721
 10
0.7741212188
 20
-3.9327949703
 10
0.7780987507
 20
-3.9274376165
 10
0.7821016462
 20
-3.9236086785
 10
0.7853738469
 20
-3.9216567534
  0
LINE
  5
32C
100
AcDbEntity
  8
RACCORDO
100
AcDbLine
 62
7
  6
CONTINUOUS
 10
3.4793637662
 20
22.4
 11
3.476437928
 21
22.3736436632
  0
LWPOLYLINE
  5
32D
100
AcDbEntity
  8
RACCORDO
100
AcDbPolyline
 62
7
  6
CONTINUOUS
 90
13
 70
0
 10
-11.5633554849
 20
-22.3334109614
 10
-11.5630576011
 20
-22.3328534742
 10
-11.5622904278
 20
-22.3323229492
 10
-11.5610552111
 20
-22.3318193863
 10
-11.5593539586
 20
-22.3313473676
 10
-11.5571897378
 20
-22.3309023111
 10
-11.5545669548
 20
-22.3304704706
 10
-11.5514905761
 20
-22.3300553617
 10
-11.5479664712
 20
-22.3296534689
 10
-11.5440022144
 20
-22.3292404994
 10
-11.5396059207
 20
-22.3288083558
 10
-11.5347859157
 20
-22.3283651355
 10
-11.5295515737
 20
-22.3279108386
  0
LINE
  5
32E
100
AcDbEntity
  8
0
100
AcDbLine
 62
7
  6
CONTINUOUS
 10
-2.6920284814
 20
-4.5141663179
 11
-2.6330508201
 21
-4.4631610895
  0
LINE
  5
32F
100
AcDbEntity
  8
0
100
AcDbLine
 62
7
  6
CONTINUOUS
 10
-2.7219701478
 20
-3.9930090778
 11
-2.6394553122
 21
-3.9242013839
  0
LWPOLYLINE
  5
330
100
AcDbEntity
  8
0
100
AcDbPolyline
 62
7
  6
CONTINUOUS
 90
5
 70
0
 10
-2.6394553122
 20
-3.9242013839
 10
-2.6354066583
 20
-3.9216528122
 10
-2.6313612321
 20
-3.9207154372
 10
-2.6273190337
 20
-3.9213892589
 10
-2.6266463227
 20
-3.9216585122
  0
LINE
  5
331
100
AcDbEntity
  8
0
100
AcDbLine
 62
7
  6
CONTINUOUS
 10
2.0793637662
 20
0.7
 11
0.5174958166
 21
0.7
  0
LINE
  5
332
100
AcDbEntity
  8
RACCORDO
100
AcDbLine
 62
7
  6
CONTINUOUS
 10
-2.4770744754
 20
0.7
 11
-2.5664825961
 21
0.7
  0
LINE
  5
333
100
AcDbEntity
  8
ASSI
100
AcDbLine
 62
7
  6
CONTINUOUS
 10
3.8293637662
 20
1.0001053214
 11
6.3293637662
 21
1.0001053214
  0
LINE
  5
334
100
AcDbEntity
  8
SMUSSO
100
AcDbLine
 62
7
  6
CONTINUOUS
 10
3.6894466537
 20
1.5
 11
3.5327308929
 21
1.5
  0
LWPOLYLINE
  5
335
100
AcDbEntity
  8
0
100
AcDbPolyline
 62
7
  6
CONTINUOUS
 90
28
 70
0
 10
5.0793637662
 20
1.3231927369
 10
5.0463299078
 20
1.3241416705
 10
5.0136873597
 20
1.3272144694
 10
4.9818817263
 20
1.3323781869
 10
4.9513194752
 20
1.3395153963
 10
4.9224604069
 20
1.3485945319
 10
4.895790969
 20
1.3596507691
 10
4.8716973358
 20
1.3725035231
 10
4.8504563118
 20
1.3869866426
 10
4.8323256578
 20
1.4031116428
 10
4.8175459061
 20
1.4207037541
 10
4.8063129021
 20
1.4394989783
 10
4.7987682114
 20
1.4593605003
 10
4.795017505
 20
1.4801229296
 10
4.7951242891
 20
1.5014575912
 10
4.7990837094
 20
1.5229763778
 10
4.8068196363
 20
1.5444651728
 10
4.8182186874
 20
1.565647676
 10
4.8331486648
 20
1.5860480995
 10
4.851438999
 20
1.6054888112
 10
4.8728366359
 20
1.623705851
 10
4.8970264866
 20
1.6401150915
 10
4.9236913178
 20
1.6545292068
 10
4.9524558251
 20
1.6668151287
 10
4.9828419263
 20
1.6765250796
 10
5.0143965895
 20
1.6834732451
 10
5.0467155513
 20
1.6877189359
 10
5.0793637662
 20
1.6892399958
  0
LWPOLYLINE
  5
336
100
AcDbEntity
  8
0
100
AcDbPolyline
 62
7
  6
CONTINUOUS
 90
28
 70
0
 10
5.0793637662
 20
1.6892399958
 10
5.1120067165
 20
1.6877202255
 10
5.1443307577
 20
1.6834738897
 10
5.1759000269
 20
1.6765211789
 10
5.2063181912
 20
1.6667970589
 10
5.2351190504
 20
1.6544883946
 10
5.2617965373
 20
1.6400569437
 10
5.2859562429
 20
1.6236566183
 10
5.3073148542
 20
1.6054637275
 10
5.3255984066
 20
1.5860245894
 10
5.3405616021
 20
1.5655654908
 10
5.3519865792
 20
1.5442911612
 10
5.3597086372
 20
1.5227369951
 10
5.3636268317
 20
1.5012060574
 10
5.3636897127
 20
1.4798921177
 10
5.3599076415
 20
1.4591753852
 10
5.3523665824
 20
1.4393974228
 10
5.3411830479
 20
1.4207029757
 10
5.3264630574
 20
1.4031742328
 10
5.3083532591
 20
1.3870522874
 10
5.287098386
 20
1.3725457878
 10
5.2629892992
 20
1.3596755301
 10
5.2363274724
 20
1.3486163153
 10
5.2074824107
 20
1.3395357113
 10
5.1769240945
 20
1.3323935179
 10
5.1451047837
 20
1.3272224834
 10
5.1124359908
 20
1.3241438298
 10
5.0793637662
 20
1.3231927369
  0
LINE
  5
337
100
AcDbEntity
  8
RACCORDO
100
AcDbLine
 62
250
  6
CONTINUOUS
 10
-1.8690173535
 20
1.2878166879
 11
-4.2069426147
 21
1.7000559904
  0
LINE
  5
338
100
AcDbEntity
  8
0
100
AcDbLine
 62
7
  6
CONTINUOUS
 10
-2.6394553122
 20
3.9242013839
 11
-2.7219701478
 21
3.9930090778
  0
LINE
  5
339
100
AcDbEntity
  8
0
100
AcDbLine
 62
7
  6
CONTINUOUS
 10
-2.6330508201
 20
4.4631610895
 11
-2.6920284802
 21
4.5141663184
  0
LWPOLYLINE
  5
33A
100
AcDbEntity
  8
0
100
AcDbPolyline
 62
7
  6
CONTINUOUS
 90
16
 70
0
 10
0.7582328248
 20
4.5486756832
 10
0.7591842291
 20
4.5425345902
 10
0.7609192178
 20
4.5322092136
 10
0.7626866022
 20
4.5225468467
 10
0.7644864516
 20
4.5135497466
 10
0.7663186967
 20
4.5052156562
 10
0.768176187
 20
4.4975811688
 10
0.7700588101
 20
4.4906486629
 10
0.7719666783
 20
4.48441576
 10
0.7738929774
 20
4.4789119172
 10
0.7758377148
 20
4.4741383925
 10
0.777800883
 20
4.4700939279
 10
0.7797756456
 20
4.4668042063
 10
0.7817625264
 20
4.4642705942
 10
0.7837610016
 20
4.462491725
 10
0.7853738563
 20
4.4616222046
  0
LINE
  5
33B
100
AcDbEntity
  8
RACCORDO
100
AcDbLine
 62
7
  6
CONTINUOUS
 10
3.4793637662
 20
-22.4
 11
3.476437928
 21
-22.3736436632
  0
LINE
  5
33C
100
AcDbEntity
  8
RACCORDO
100
AcDbLine
 62
250
  6
CONTINUOUS
 10
2.9764463896
 20
-23.5953423515
 11
2.9764463896
 21
-22.3475922207
  0
LINE
  5
33D
100
AcDbEntity
  8
RACCORDO
100
AcDbLine
 62
250
  6
CONTINUOUS
 10
2.9764463896
 20
22.3475922207
 11
2.9764463896
 21
23.5953423515
  0
LINE
  5
33E
100
AcDbEntity
  8
RACCORDO
100
AcDbLine
 62
250
  6
CONTINUOUS
 10
3.476437928
 20
-23.7970741618
 11
3.476437928
 21
-22.3736436632
  0
LINE
  5
33F
100
AcDbEntity
  8
RACCORDO
100
AcDbLine
 62
250
  6
CONTINUOUS
 10
3.476437928
 20
22.3736436632
 11
3.476437928
 21
23.7970741618
  0
LINE
  5
340
100
AcDbEntity
  8
DRAFT
100
AcDbLine
 62
7
  6
CONTINUOUS
 10
3.4793637662
 20
23.8
 11
3.4793637662
 21
22.4
  0
LINE
  5
341
100
AcDbEntity
  8
DRAFT
100
AcDbLine
 62
7
  6
CONTINUOUS
 10
3.4793637662
 20
-22.4
 11
3.4793637662
 21
-23.8
  0
LINE
  5
342
100
AcDbEntity
  8
ASSI
100
AcDbLine
 62
7
  6
CONTINUOUS
 10
3.8293637662
 20
5.2478922263
 11
3.8293637662
 21
1.0001053214
  0
LINE
  5
343
100
AcDbEntity
  8
RACCORDO
100
AcDbLine
 62
250
  6
CONTINUOUS
 10
9.5786397284
 20
21.998725222
 11
9.6882791062
 21
22.3279108386
  0
LINE
  5
344
100
AcDbEntity
  8
RACCORDO
100
AcDbLine
 62
250
  6
CONTINUOUS
 10
10.2119468638
 20
21.8998857286
 11
10.078563576
 21
21.4994104546
  0
LINE
  5
345
100
AcDbEntity
  8
SMUSSO
100
AcDbLine
 62
7
  6
CONTINUOUS
 10
3.2332991675
 20
2.5
 11
3.057507037
 21
2.5
  0
LWPOLYLINE
  5
346
100
AcDbEntity
  8
0
100
AcDbPolyline
 62
7
  6
CONTINUOUS
 90
21
 70
0
 10
0.7853738552
 20
3.9216585122
 10
0.7819997212
 20
3.9236929139
 10
0.7779561039
 20
3.9276077655
 10
0.7739393367
 20
3.9330779039
 10
0.7699508534
 20
3.9401153841
 10
0.7659892201
 20
3.9487081509
 10
0.762073758
 20
3.9587641294
 10
0.7582058708
 20
3.9702884916
 10
0.7543841547
 20
3.9832760653
 10
0.7506237199
 20
3.997619259
 10
0.7469268084
 20
4.0133106131
 10
0.7432911781
 20
4.0303575871
 10
0.7397252124
 20
4.0486749681
 10
0.7362293328
 20
4.0682554791
 10
0.7328031177
 20
4.0891063971
 10
0.7294536855
 20
4.1111643397
 10
0.72618081
 20
4.1344238284
 10
0.7229847173
 20
4.1588903417
 10
0.7198732046
 20
4.184516932
 10
0.7168488708
 20
4.2112879502
 10
0.7139091169
 20
4.2392190455
  0
LWPOLYLINE
  5
347
100
AcDbEntity
  8
0
100
AcDbPolyline
 62
7
  6
CONTINUOUS
 90
5
 70
0
 10
-2.6330508201
 20
4.4631610895
 10
-2.6310319957
 20
4.461818765
 10
-2.6290144012
 20
4.4612653041
 10
-2.6269980364
 20
4.4615007066
 10
-2.6266463266
 20
4.461622871
  0
LINE
  5
348
100
AcDbEntity
  8
RACCORDO
100
AcDbLine
 62
250
  6
CONTINUOUS
 10
9.6882791062
 20
-22.3279108386
 11
9.5786397284
 21
-21.998725222
  0
LINE
  5
349
100
AcDbEntity
  8
RACCORDO
100
AcDbLine
 62
250
  6
CONTINUOUS
 10
10.078563576
 20
-21.4994104546
 11
10.2119468638
 21
-21.8998857286
  0
LINE
  5
34A
100
AcDbEntity
  8
SUPERFICI
100
AcDbLine
 62
7
  6
CONTINUOUS
 10
4.7945857766
 20
0.0
 11
4.7945857766
 21
1.4901099751
  0
LINE
  5
34B
100
AcDbEntity
  8
SUPERFICI
100
AcDbLine
 62
7
  6
CONTINUOUS
 10
5.3641417559
 20
0.0
 11
5.3641417559
 21
1.4901099751
  0
LWPOLYLINE
  5
34C
100
AcDbEntity
  8
RACCORDO
100
AcDbPolyline
 62
250
  6
CONTINUOUS
 90
12
 70
0
 10
10.078563576
 20
21.4994104546
 10
10.0779501609
 20
21.4969443252
 10
10.0773400601
 20
21.4932570887
 10
10.0767332737
 20
21.4883487449
 10
10.0761290371
 20
21.482210188
 10
10.0755281147
 20
21.4748505238
 10
10.0749328004
 20
21.4662970707
 10
10.0743431324
 20
21.4565453524
 10
10.0737590724
 20
21.445599845
 10
10.0731827988
 20
21.4335012957
 10
10.0726143472
 20
21.4202455169
 10
10.0715028755
 20
21.3903281432
  0
LWPOLYLINE
  5
34D
100
AcDbEntity
  8
0
100
AcDbPolyline
 62
7
  6
CONTINUOUS
 90
16
 70
0
 10
0.785373859
 20
-4.461622871
 10
0.7837066599
 20
-4.462532351
 10
0.7816889808
 20
-4.4643528589
 10
0.7796838535
 20
-4.4669400951
 10
0.7776919101
 20
-4.4702994429
 10
0.7757125186
 20
-4.4744255191
 10
0.7737551052
 20
-4.4792800386
 10
0.7718202045
 20
-4.4848659492
 10
0.7699072819
 20
-4.4911803032
 10
0.7680241598
 20
-4.4981759724
 10
0.7661717574
 20
-4.5058510088
 10
0.7643491555
 20
-4.5142073603
 10
0.7625614181
 20
-4.5232037427
 10
0.760808789
 20
-4.5328379495
 10
0.7590910244
 20
-4.5431121871
 10
0.7582326461
 20
-4.5486757499
  0
LWPOLYLINE
  5
34E
100
AcDbEntity
  8
0
100
AcDbPolyline
 62
7
  6
CONTINUOUS
 90
5
 70
0
 10
0.7853738469
 20
-3.9216567534
 10
0.7861131763
 20
-3.9213649108
 10
0.7901277645
 20
-3.9207252315
 10
0.7941509873
 20
-3.9216707226
 10
0.7981828446
 20
-3.9242013839
  0
LINE
  5
34F
100
AcDbEntity
  8
ASSI
100
AcDbLine
 62
7
  6
CONTINUOUS
 10
3.8293637662
 20
5.2478922263
 11
6.3293637662
 21
5.2478922263
  0
LWPOLYLINE
  5
350
100
AcDbEntity
  8
0
100
AcDbPolyline
 62
7
  6
CONTINUOUS
 90
5
 70
0
 10
0.7853738563
 20
4.4616222046
 10
0.7857626626
 20
4.4614891817
 10
0.7877647067
 20
4.4612701585
 10
0.7897699367
 20
4.4618274611
 10
0.7917783526
 20
4.4631610895
  0
LINE
  5
351
100
AcDbEntity
  8
RACCORDO
100
AcDbLine
 62
7
  6
CONTINUOUS
 10
9.7293637662
 20
-22.3997080771
 11
9.7220830173
 21
-22.3334109614
  0
LWPOLYLINE
  5
352
100
AcDbEntity
  8
RACCORDO
100
AcDbPolyline
 62
250
  6
CONTINUOUS
 90
31
 70
0
 10
7.3424623449
 20
-24.2369056521
 10
7.3428037522
 20
-24.249957992
 10
7.3438270148
 20
-24.2629828864
 10
7.345530619
 20
-24.275944661
 10
7.3479117491
 20
-24.2888103798
 10
7.3509648625
 20
-24.3015418449
 10
7.3546803023
 20
-24.3140960295
 10
7.3590468534
 20
-24.3264358334
 10
7.3640532833
 20
-24.3385301896
 10
7.3696860319
 20
-24.3503462678
 10
7.3759298335
 20
-24.3618518682
 10
7.3827675153
 20
-24.3730151866
 10
7.3901801454
 20
-24.3838052658
 10
7.3981472876
 20
-24.3941923917
 10
7.4066471845
 20
-24.4041482289
 10
7.4156566063
 20
-24.4136455633
 10
7.4251508995
 20
-24.4226583824
 10
7.4351040029
 20
-24.4311619239
 10
7.4454885922
 20
-24.4391328321
 10
7.4562761825
 20
-24.446549239
 10
7.4674372085
 20
-24.4533908148
 10
7.4789410643
 20
-24.4596387939
 10
7.4907562099
 20
-24.4652760422
 10
7.5028502471
 20
-24.4702870977
 10
7.5151900033
 20
-24.4746582128
 10
7.5277416507
 20
-24.4783774023
 10
7.5404707646
 20
-24.4814344634
 10
7.5533424043
 20
-24.4838210061
 10
7.5663212617
 20
-24.4855304893
 10
7.57937176
 20
-24.4865582323
 10
7.5924581142
 20
-24.4869014213
  0
LWPOLYLINE
  5
353
100
AcDbEntity
  8
RACCORDO
100
AcDbPolyline
 62
7
  6
CONTINUOUS
 90
34
 70
0
 10
7.3293637662
 20
-24.2500042308
 10
7.3296469165
 20
-24.261899516
 10
7.330495732
 20
-24.2737678556
 10
7.3319082921
 20
-24.2855823661
 10
7.3338813985
 20
-24.2973162875
 10
7.3364105845
 20
-24.3089430388
 10
7.3394901245
 20
-24.320436279
 10
7.3431130449
 20
-24.3317699738
 10
7.3472711405
 20
-24.3429184493
 10
7.3519549941
 20
-24.3538564463
 10
7.3571539974
 20
-24.3645591876
 10
7.3628563746
 20
-24.3750024283
 10
7.3690492081
 20
-24.3851625059
 10
7.3757184708
 20
-24.3950164051
 10
7.3828490555
 20
-24.4045418038
 10
7.3904248074
 20
-24.4137171191
 10
7.3984285657
 20
-24.4225215661
 10
7.4068422001
 20
-24.4309352005
 10
7.4156466472
 20
-24.4389389589
 10
7.4248219624
 20
-24.4465147107
 10
7.4343473611
 20
-24.4536452955
 10
7.4442012603
 20
-24.4603145581
 10
7.454361338
 20
-24.4665073916
 10
7.4648045786
 20
-24.4722097688
 10
7.4755073199
 20
-24.4774087722
 10
7.4864453169
 20
-24.4820926258
 10
7.4975937925
 20
-24.4862507213
 10
7.5089274872
 20
-24.4898736417
 10
7.5204207274
 20
-24.4929531817
 10
7.5320474787
 20
-24.4954823677
 10
7.5437814001
 20
-24.4974554741
 10
7.5555959107
 20
-24.4988680342
 10
7.5674642502
 20
-24.4997168498
 10
7.5793595354
 20
-24.5
  0
LINE
  5
354
100
AcDbEntity
  8
RACCORDO
100
AcDbLine
 62
250
  6
CONTINUOUS
 10
7.3424623449
 20
-23.8443375673
 11
7.3366445151
 21
-23.2669872981
  0
LINE
  5
355
100
AcDbEntity
  8
RACCORDO
100
AcDbLine
 62
250
  6
CONTINUOUS
 10
7.5924581142
 20
-23.6278312164
 11
7.5873675131
 21
-23.1226497308
  0
LINE
  5
356
100
AcDbEntity
  8
ASSI
100
AcDbLine
 62
7
  6
CONTINUOUS
 10
6.3293637662
 20
5.2478922263
 11
6.3293637662
 21
1.0001053214
  0
LINE
  5
357
100
AcDbEntity
  8
RACCORDO
100
AcDbLine
 62
7
  6
CONTINUOUS
 10
7.3293637662
 20
-22.4
 11
7.3293637662
 21
-24.2500042308
  0
LINE
  5
358
100
AcDbEntity
  8
RACCORDO
100
AcDbLine
 62
7
  6
CONTINUOUS
 10
7.3293637662
 20
22.4
 11
7.3293637662
 21
24.2500042308
  0
LINE
  5
359
100
AcDbEntity
  8
RACCORDO
100
AcDbLine
 62
250
  6
CONTINUOUS
 10
7.3366445151
 20
-23.2669872981
 11
7.3366445151
 21
-22.3344140523
  0
LINE
  5
35A
100
AcDbEntity
  8
RACCORDO
100
AcDbLine
 62
250
  6
CONTINUOUS
 10
7.3366445151
 20
22.3344140523
 11
7.3366445151
 21
23.2669872981
  0
LINE
  5
35B
100
AcDbEntity
  8
RACCORDO
100
AcDbLine
 62
250
  6
CONTINUOUS
 10
7.3424623449
 20
24.2369056521
 11
7.3424623449
 21
23.8443375673
  0
LINE
  5
35C
100
AcDbEntity
  8
RACCORDO
100
AcDbLine
 62
250
  6
CONTINUOUS
 10
7.3424623449
 20
-23.8443375673
 11
7.3424623449
 21
-24.2369056521
  0
LINE
  5
35D
100
AcDbEntity
  8
RACCORDO
100
AcDbLine
 62
250
  6
CONTINUOUS
 10
7.3366445151
 20
23.2669872981
 11
7.3424623449
 21
23.8443375673
  0
LINE
  5
35E
100
AcDbEntity
  8
RACCORDO
100
AcDbLine
 62
250
  6
CONTINUOUS
 10
7.5873675131
 20
23.1226497308
 11
7.5924581142
 21
23.6278312164
  0
LINE
  5
35F
100
AcDbEntity
  8
RACCORDO
100
AcDbLine
 62
7
  6
CONTINUOUS
 10
9.7220830173
 20
22.3334109614
 11
9.7293637662
 21
22.3997080771
  0
LWPOLYLINE
  5
360
100
AcDbEntity
  8
RACCORDO
100
AcDbPolyline
 62
250
  6
CONTINUOUS
 90
9
 70
0
 10
9.5786397284
 20
21.998725222
 10
9.5780259774
 20
21.9950375138
 10
9.57741564
 20
21.9895011008
 10
9.5768087161
 20
21.9821229758
 10
9.5762044763
 20
21.9729125504
 10
9.5756036501
 20
21.9618812699
 10
9.5750084255
 20
21.9490423459
 10
9.5744188027
 20
21.9344112275
 10
9.5732585497
 20
21.8998479451
  0
LWPOLYLINE
  5
361
100
AcDbEntity
  8
RACCORDO
100
AcDbPolyline
 62
250
  6
CONTINUOUS
 90
124
 70
0
 10
-0.9206362338
 20
5.9118236473
 10
-0.7713194054
 20
5.9099575817
 10
-0.622028447
 20
5.9042716567
 10
-0.4727633587
 20
5.8947658707
 10
-0.323388955
 20
5.881440696
 10
-0.1740404213
 20
5.8642956543
 10
-0.0251233142
 20
5.8433293164
 10
0.1233602169
 20
5.8185231736
 10
0.2714123214
 20
5.7898957226
 10
0.4186338912
 20
5.7575010413
 10
0.5650176635
 20
5.7213223332
 10
0.710570901
 20
5.6813763773
 10
0.8549162834
 20
5.6377676145
 10
0.9980172999
 20
5.5904948241
 10
1.1399104613
 20
5.539559205
 10
1.2803279796
 20
5.4850688274
 10
1.4192501998
 20
5.4270273395
 10
1.5566967769
 20
5.3654310682
 10
1.6924588888
 20
5.3003771016
 10
1.826548706
 20
5.2318557074
 10
1.9589540581
 20
5.159876591
 10
2.0894296113
 20
5.0845659976
 10
2.2179840909
 20
5.0059095762
 10
2.3446087718
 20
4.9239216503
 10
2.4690321445
 20
4.8387714784
 10
2.5912453892
 20
4.7504537103
 10
2.7112573258
 20
4.6589736697
 10
2.8288229042
 20
4.5645166276
 10
2.943932461
 20
4.4670803792
 10
3.0565956597
 20
4.3666671051
 10
3.1665964407
 20
4.2634686566
 10
3.2739301353
 20
4.1574799147
 10
3.3786014122
 20
4.0487059777
 10
3.4804082175
 20
3.9373540266
 10
3.5793464054
 20
3.8234178821
 10
3.6754201216
 20
3.7069037074
 10
3.7684397502
 20
3.5880371999
 10
3.8583996688
 20
3.4668132903
 10
3.9453054998
 20
3.3432370375
 10
4.0289844944
 20
3.2175493347
 10
4.1094308855
 20
3.0897446909
 10
4.1866504403
 20
2.9598285928
 10
4.2604877108
 20
2.8280584029
 10
4.3309357667
 20
2.6944299723
 10
4.3980015384
 20
2.5589474519
 10
4.4615503699
 20
2.421880658
 10
4.5215746497
 20
2.2832270587
 10
4.5780819894
 20
2.142989194
 10
4.6309605674
 20
2.0014444917
 10
4.6802028253
 20
1.8585911519
 10
4.7258163215
 20
1.7144309885
 10
4.7677119102
 20
1.5692468528
 10
4.8058815698
 20
1.4230427882
 10
4.8403333218
 20
1.2758147704
 10
4.8710020859
 20
1.1278335511
 10
4.8978821856
 20
0.979099811
 10
4.9209792973
 20
0.8296128926
 10
4.9402453701
 20
0.6796415427
 10
4.9556748303
 20
0.5291716588
 10
4.9672732517
 20
0.3782173693
 10
4.9750093038
 20
0.2270897682
 10
4.9788725698
 20
0.075777283
 10
4.9788734667
 20
-0.0757084864
 10
4.9750119149
 20
-0.2270216875
 10
4.9672774434
 20
-0.3781510034
 10
4.9556805233
 20
-0.5291077234
 10
4.9402524877
 20
-0.6795799046
 10
4.9209877339
 20
-0.8295532034
 10
4.8978918646
 20
-0.9790419375
 10
4.8710130218
 20
-1.1277771569
 10
4.8403455589
 20
-1.2757593716
 10
4.8058951223
 20
-1.4229880486
 10
4.7677267938
 20
-1.5691926746
 10
4.7258325541
 20
-1.7143773257
 10
4.6802204224
 20
-1.8585379068
 10
4.6309795377
 20
-2.0013916506
 10
4.5781023335
 20
-2.1429367748
 10
4.5215963762
 20
-2.2831750476
 10
4.4615735042
 20
-2.4218290298
 10
4.3980261298
 20
-2.5588961408
 10
4.3309618407
 20
-2.694378953
 10
4.2605152375
 20
-2.8280077603
 10
4.1866793886
 20
-2.9597784335
 10
4.1094612257
 20
-3.0896951
 10
4.0290161443
 20
-3.2175004414
 10
3.9453383487
 20
-3.3431890135
 10
3.8584336346
 20
-3.4667662651
 10
3.7684747848
 20
-3.5879912206
 10
3.6754561613
 20
-3.7068588241
 10
3.5793834021
 20
-3.8233741421
 10
3.4804462039
 20
-3.9373113861
 10
3.3786404321
 20
-4.0486643676
 10
3.2739702213
 20
-4.157439291
 10
3.1666376719
 20
-4.2634289609
 10
3.0566381754
 20
-4.3666282307
 10
2.9439763403
 20
-4.4670422676
 10
2.828868093
 20
-4.5644793485
 10
2.7113038123
 20
-4.6589372895
 10
2.5912931195
 20
-4.7504182987
 10
2.4690808045
 20
-4.8387372436
 10
2.3446579065
 20
-4.9238889037
 10
2.2180333863
 20
-5.0058785261
 10
2.0894789159
 20
-5.0845366815
 10
1.9590030316
 20
-5.1598490976
 10
1.826597197
 20
-5.2318300742
 10
1.6925074746
 20
-5.3003530415
 10
1.5567462625
 20
-5.365408137
 10
1.4193011627
 20
-5.4270052501
 10
1.280381043
 20
-5.4850474392
 10
1.1399667096
 20
-5.5395382695
 10
0.9980773563
 20
-5.5904742007
 10
0.8549794329
 20
-5.637747633
 10
0.7106363712
 20
-5.6813575241
 10
0.5650847392
 20
-5.721304938
 10
0.4187006911
 20
-5.7574854343
 10
0.271476596
 20
-5.7898823736
 10
0.1234200848
 20
-5.8185124127
 10
-0.0250697959
 20
-5.8433210547
 10
-0.1739961606
 20
-5.8642898122
 10
-0.3233558946
 20
-5.8814371847
 10
-0.472740608
 20
-5.8947641537
 10
-0.6220141706
 20
-5.9042710484
 10
-0.7713127126
 20
-5.9099575458
 10
-0.9206362338
 20
-5.9118236473
  0
LWPOLYLINE
  5
362
100
AcDbEntity
  8
RACCORDO
100
AcDbPolyline
 62
7
  6
CONTINUOUS
 90
34
 70
0
 10
7.3366445151
 20
23.2669872981
 10
7.3369422415
 20
23.260745719
 10
7.3377134929
 20
23.254472608
 10
7.3389638557
 20
23.2481861919
 10
7.3406979029
 20
23.2419121598
 10
7.3429193457
 20
23.2356626215
 10
7.3456313657
 20
23.2294361375
 10
7.3488358625
 20
23.2232532001
 10
7.352533787
 20
23.2171335699
 10
7.356726038
 20
23.2110754134
 10
7.3614115222
 20
23.2051002367
 10
7.3665881642
 20
23.199228829
 10
7.3722545349
 20
23.1934590071
 10
7.3784063188
 20
23.1878130261
 10
7.3850381012
 20
23.182312533
 10
7.392145904
 20
23.1769551973
 10
7.3997218996
 20
23.171763745
 10
7.4077569816
 20
23.1667604362
 10
7.4162442071
 20
23.1619430222
 10
7.4251719166
 20
23.1573343288
 10
7.4345268953
 20
23.1529569199
 10
7.4442985699
 20
23.148808872
 10
7.4544710811
 20
23.1449126131
 10
7.4650266682
 20
23.1412905703
 10
7.475950269
 20
23.137941334
 10
7.4872213266
 20
23.1348863009
 10
7.4988172511
 20
23.1321470947
 10
7.5107179488
 20
23.1297228132
 10
7.5228847765
 20
23.1276360125
 10
7.5353028314
 20
23.1259025536
 10
7.5479868255
 20
23.1245164325
 10
7.5609215361
 20
23.1234933505
 10
7.5740600376
 20
23.1228641607
 10
7.5873675131
 20
23.1226497308
  0
LWPOLYLINE
  5
363
100
AcDbEntity
  8
RACCORDO
100
AcDbPolyline
 62
250
  6
CONTINUOUS
 90
10
 70
0
 10
10.0731830698
 20
-21.4335072799
 10
10.073759343
 20
-21.4456051921
 10
10.0743434024
 20
-21.4565500692
 10
10.0749330695
 20
-21.4663011785
 10
10.0755283922
 20
-21.4748540831
 10
10.0761293225
 20
-21.48221322
 10
10.0767335382
 20
-21.4883511677
 10
10.0773402654
 20
-21.4932587858
 10
10.077950278
 20
-21.4969452148
 10
10.078563576
 20
-21.4994104546
  0
LWPOLYLINE
  5
364
100
AcDbEntity
  8
RACCORDO
100
AcDbPolyline
 62
250
  6
CONTINUOUS
 90
8
 70
0
 10
9.574418814
 20
-21.9344113731
 10
9.5750084363
 20
-21.9490424785
 10
9.5756036625
 20
-21.9618813963
 10
9.5762044911
 20
-21.9729126684
 10
9.5768087311
 20
-21.9821230696
 10
9.5774156522
 20
-21.9895011587
 10
9.5780259846
 20
-21.9950375378
 10
9.5786397284
 20
-21.998725222
  0
LWPOLYLINE
  5
365
100
AcDbEntity
  8
RACCORDO
100
AcDbPolyline
 62
250
  6
CONTINUOUS
 90
3
 70
0
 10
10.0715031455
 20
-21.3903360643
 10
10.0720539529
 20
-21.4058439663
 10
10.0731830698
 20
-21.4335072799
  0
LWPOLYLINE
  5
366
100
AcDbEntity
  8
RACCORDO
100
AcDbPolyline
 62
250
  6
CONTINUOUS
 90
31
 70
0
 10
7.3424623449
 20
23.8443375673
 10
7.3428416767
 20
23.8330274168
 10
7.3439026586
 20
23.8217481519
 10
7.3456423935
 20
23.810530574
 10
7.3480561304
 20
23.7994053159
 10
7.351137278
 20
23.7884027584
 10
7.3548774223
 20
23.7775529472
 10
7.3592663497
 20
23.7668855107
 10
7.364292075
 20
23.7564295797
 10
7.3699408739
 20
23.7462137069
 10
7.3761973209
 20
23.7362657898
 10
7.3830443308
 20
23.7266129942
 10
7.3904632059
 20
23.7172816797
 10
7.3984336869
 20
23.7082973282
 10
7.4069340079
 20
23.6996844742
 10
7.4159409564
 20
23.6914666374
 10
7.4254299363
 20
23.6836662592
 10
7.4353750352
 20
23.6763046407
 10
7.4457490951
 20
23.6694018849
 10
7.4565237867
 20
23.6629768418
 10
7.4676696864
 20
23.6570470569
 10
7.4791563572
 20
23.6516287232
 10
7.4909524313
 20
23.646736637
 10
7.5030256963
 20
23.6423841576
 10
7.5153431824
 20
23.6385831707
 10
7.5278712533
 20
23.6353440559
 10
7.5405756974
 20
23.6326756587
 10
7.5534218214
 20
23.6305852658
 10
7.5663745455
 20
23.6290785857
 10
7.5793984983
 20
23.6281597328
 10
7.5924581142
 20
23.6278312164
  0
LWPOLYLINE
  5
367
100
AcDbEntity
  8
RACCORDO
100
AcDbPolyline
 62
250
  6
CONTINUOUS
 90
31
 70
0
 10
9.7162651875
 20
-23.8443375673
 10
9.7158866319
 20
-23.833039595
 10
9.7148275043
 20
-23.821769291
 10
9.7130901278
 20
-23.8105574212
 10
9.7106784264
 20
-23.7994336121
 10
9.7075985561
 20
-23.78842936
 10
9.7038595051
 20
-23.7775778202
 10
9.6994719607
 20
-23.7669096972
 10
9.6944475617
 20
-23.7564530239
 10
9.6887998811
 20
-23.746236105
 10
9.6825441886
 20
-23.7362866999
 10
9.675697614
 20
-23.7266321754
 10
9.6682790057
 20
-23.7172991519
 10
9.6603087016
 20
-23.7083132018
 10
9.6518084068
 20
-23.6996987826
 10
9.6428013164
 20
-23.6914794042
 10
9.6333120127
 20
-23.6836775075
 10
9.6233664256
 20
-23.6763144193
 10
9.6129917427
 20
-23.6694102704
 10
9.6022163103
 20
-23.6629839239
 10
9.5910695523
 20
-23.6570529269
 10
9.5795819153
 20
-23.6516334796
 10
9.5677847586
 20
-23.6467403776
 10
9.5557103221
 20
-23.6423869945
 10
9.5433916425
 20
-23.6385852371
 10
9.5308624071
 20
-23.6353454907
 10
9.5181568043
 20
-23.6326765842
 10
9.5053094835
 20
-23.6305857918
 10
9.4923555162
 20
-23.6290788219
 10
9.4793303025
 20
-23.6281597935
 10
9.4662694183
 20
-23.6278312164
  0
LINE
  5
368
100
AcDbEntity
  8
RACCORDO
100
AcDbLine
 62
250
  6
CONTINUOUS
 10
9.5732585629
 20
-21.8998481209
 11
9.574418814
 21
-21.9344113731
  0
LINE
  5
369
100
AcDbEntity
  8
RACCORDO
100
AcDbLine
 62
250
  6
CONTINUOUS
 10
9.5721295468
 20
-21.8583646881
 11
9.5732585629
 21
-21.8998481209
  0
LINE
  5
36A
100
AcDbEntity
  8
RACCORDO
100
AcDbLine
 62
250
  6
CONTINUOUS
 10
9.5705069134
 20
-21.7836209227
 11
9.5721295468
 21
-21.8583646881
  0
LINE
  5
36B
100
AcDbEntity
  8
RACCORDO
100
AcDbLine
 62
250
  6
CONTINUOUS
 10
9.5685030723
 20
-21.6619288248
 11
9.5705069134
 21
-21.7836209227
  0
LINE
  5
36C
100
AcDbEntity
  8
RACCORDO
100
AcDbLine
 62
250
  6
CONTINUOUS
 10
9.5663092763
 20
-21.4778722597
 11
9.5685030723
 21
-21.6619288248
  0
LINE
  5
36D
100
AcDbEntity
  8
RACCORDO
100
AcDbLine
 62
250
  6
CONTINUOUS
 10
7.5866402844
 20
-23.1226497308
 11
7.5866402844
 21
-22.3213883311
  0
LINE
  5
36E
100
AcDbEntity
  8
RACCORDO
100
AcDbLine
 62
250
  6
CONTINUOUS
 10
7.5866402844
 20
22.3213883311
 11
7.5866402844
 21
23.1226497308
  0
LINE
  5
36F
100
AcDbEntity
  8
RACCORDO
100
AcDbLine
 62
250
  6
CONTINUOUS
 10
7.5924581142
 20
-23.6278312164
 11
7.5924581142
 21
-24.4869014213
  0
LINE
  5
370
100
AcDbEntity
  8
RACCORDO
100
AcDbLine
 62
250
  6
CONTINUOUS
 10
7.5924581142
 20
23.6278312164
 11
7.5924581142
 21
24.4869014213
  0
LINE
  5
371
100
AcDbEntity
  8
RACCORDO
100
AcDbLine
 62
250
  6
CONTINUOUS
 10
9.5685030598
 20
21.6619285454
 11
9.5663092658
 21
21.4778719225
  0
LINE
  5
372
100
AcDbEntity
  8
RACCORDO
100
AcDbLine
 62
250
  6
CONTINUOUS
 10
9.5705069004
 20
21.7836206734
 11
9.5685030598
 21
21.6619285454
  0
LINE
  5
373
100
AcDbEntity
  8
RACCORDO
100
AcDbLine
 62
250
  6
CONTINUOUS
 10
9.5721295334
 20
21.8583644674
 11
9.5705069004
 21
21.7836206734
  0
LINE
  5
374
100
AcDbEntity
  8
RACCORDO
100
AcDbLine
 62
250
  6
CONTINUOUS
 10
9.5732585497
 20
21.8998479451
 11
9.5721295334
 21
21.8583644674
  0
LWPOLYLINE
  5
375
100
AcDbEntity
  8
RACCORDO
100
AcDbPolyline
 62
250
  6
CONTINUOUS
 90
31
 70
0
 10
7.3424623449
 20
-23.8443375673
 10
7.3428409006
 20
-23.833039595
 10
7.3439000282
 20
-23.821769291
 10
7.3456374047
 20
-23.8105574212
 10
7.3480491061
 20
-23.7994336121
 10
7.3511289763
 20
-23.78842936
 10
7.3548680273
 20
-23.7775778202
 10
7.3592555717
 20
-23.7669096972
 10
7.3642799707
 20
-23.7564530239
 10
7.3699276513
 20
-23.746236105
 10
7.3761833439
 20
-23.7362866999
 10
7.3830299185
 20
-23.7266321754
 10
7.3904485268
 20
-23.7172991519
 10
7.3984188308
 20
-23.7083132018
 10
7.4069191256
 20
-23.6996987826
 10
7.4159262161
 20
-23.6914794042
 10
7.4254155197
 20
-23.6836775075
 10
7.4353611069
 20
-23.6763144193
 10
7.4457357897
 20
-23.6694102704
 10
7.4565112221
 20
-23.6629839239
 10
7.4676579801
 20
-23.6570529269
 10
7.4791456172
 20
-23.6516334796
 10
7.4909427739
 20
-23.6467403776
 10
7.5030172103
 20
-23.6423869945
 10
7.51533589
 20
-23.6385852371
 10
7.5278651253
 20
-23.6353454907
 10
7.5405707282
 20
-23.6326765842
 10
7.553418049
 20
-23.6305857918
 10
7.5663720162
 20
-23.6290788219
 10
7.57939723
 20
-23.6281597935
 10
7.5924581142
 20
-23.6278312164
  0
LWPOLYLINE
  5
376
100
AcDbEntity
  8
RACCORDO
100
AcDbPolyline
 62
250
  6
CONTINUOUS
 90
31
 70
0
 10
9.7162651875
 20
23.8443375673
 10
9.7158858558
 20
23.8330274168
 10
9.7148248738
 20
23.8217481519
 10
9.713085139
 20
23.810530574
 10
9.710671402
 20
23.7994053159
 10
9.7075902545
 20
23.7884027584
 10
9.7038501102
 20
23.7775529472
 10
9.6994611828
 20
23.7668855107
 10
9.6944354575
 20
23.7564295797
 10
9.6887866585
 20
23.7462137069
 10
9.6825302116
 20
23.7362657898
 10
9.6756832016
 20
23.7266129942
 10
9.6682643265
 20
23.7172816797
 10
9.6602938456
 20
23.7082973282
 10
9.6517935246
 20
23.6996844742
 10
9.6427865761
 20
23.6914666374
 10
9.6332975961
 20
23.6836662592
 10
9.6233524972
 20
23.6763046407
 10
9.6129784373
 20
23.6694018849
 10
9.6022037458
 20
23.6629768418
 10
9.5910578461
 20
23.6570470569
 10
9.5795711753
 20
23.6516287232
 10
9.5677751011
 20
23.646736637
 10
9.5557018362
 20
23.6423841576
 10
9.5433843501
 20
23.6385831707
 10
9.5308562792
 20
23.6353440559
 10
9.5181518351
 20
23.6326756587
 10
9.505305711
 20
23.6305852658
 10
9.492352987
 20
23.6290785857
 10
9.4793290342
 20
23.6281597328
 10
9.4662694183
 20
23.6278312164
  0
LWPOLYLINE
  5
377
100
AcDbEntity
  8
RACCORDO
100
AcDbPolyline
 62
7
  6
CONTINUOUS
 90
34
 70
0
 10
7.3366445151
 20
-23.2669872981
 10
7.3369422415
 20
-23.260745719
 10
7.3377134929
 20
-23.254472608
 10
7.3389638557
 20
-23.2481861919
 10
7.3406979029
 20
-23.2419121598
 10
7.3429193457
 20
-23.2356626215
 10
7.3456313657
 20
-23.2294361375
 10
7.3488358625
 20
-23.2232532001
 10
7.352533787
 20
-23.2171335699
 10
7.356726038
 20
-23.2110754134
 10
7.3614115222
 20
-23.2051002367
 10
7.3665881642
 20
-23.199228829
 10
7.3722545349
 20
-23.1934590071
 10
7.3784063188
 20
-23.1878130261
 10
7.3850381012
 20
-23.182312533
 10
7.392145904
 20
-23.1769551973
 10
7.3997218996
 20
-23.171763745
 10
7.4077569816
 20
-23.1667604362
 10
7.4162442071
 20
-23.1619430222
 10
7.4251719166
 20
-23.1573343288
 10
7.4345268953
 20
-23.1529569199
 10
7.4442985699
 20
-23.148808872
 10
7.4544710811
 20
-23.1449126131
 10
7.4650266682
 20
-23.1412905703
 10
7.475950269
 20
-23.137941334
 10
7.4872213266
 20
-23.1348863009
 10
7.4988172511
 20
-23.1321470947
 10
7.5107179488
 20
-23.1297228132
 10
7.5228847765
 20
-23.1276360125
 10
7.5353028314
 20
-23.1259025536
 10
7.5479868255
 20
-23.1245164325
 10
7.5609215361
 20
-23.1234933505
 10
7.5740600376
 20
-23.1228641607
 10
7.5873675131
 20
-23.1226497308
  0
LWPOLYLINE
  5
378
100
AcDbEntity
  8
RACCORDO
100
AcDbPolyline
 62
7
  6
CONTINUOUS
 90
34
 70
0
 10
9.7220830173
 20
23.2669872981
 10
9.721785291
 20
23.260745719
 10
9.7210140396
 20
23.254472608
 10
9.7197636768
 20
23.2481861919
 10
9.7180296295
 20
23.2419121598
 10
9.7158081868
 20
23.2356626215
 10
9.7130961668
 20
23.2294361375
 10
9.70989167
 20
23.2232532001
 10
9.7061937454
 20
23.2171335699
 10
9.7020014944
 20
23.2110754134
 10
9.6973160102
 20
23.2051002367
 10
9.6921393683
 20
23.199228829
 10
9.6864729975
 20
23.1934590071
 10
9.6803212137
 20
23.1878130261
 10
9.6736894313
 20
23.182312533
 10
9.6665816285
 20
23.1769551973
 10
9.6590056329
 20
23.171763745
 10
9.6509705509
 20
23.1667604362
 10
9.6424833254
 20
23.1619430222
 10
9.6335556159
 20
23.1573343288
 10
9.6242006371
 20
23.1529569199
 10
9.6144289625
 20
23.148808872
 10
9.6042564513
 20
23.1449126131
 10
9.5937008642
 20
23.1412905703
 10
9.5827772634
 20
23.137941334
 10
9.5715062059
 20
23.1348863009
 10
9.5599102814
 20
23.1321470947
 10
9.5480095837
 20
23.1297228132
 10
9.5358427559
 20
23.1276360125
 10
9.523424701
 20
23.1259025536
 10
9.5107407069
 20
23.1245164325
 10
9.4978059963
 20
23.1234933505
 10
9.4846674948
 20
23.1228641607
 10
9.4713600194
 20
23.1226497308
  0
LINE
  5
379
100
AcDbEntity
  8
RACCORDO
100
AcDbLine
 62
250
  6
CONTINUOUS
 10
-11.5706362338
 20
-24.2500042308
 11
-11.5575376551
 21
-24.2369056521
  0
LINE
  5
37A
100
AcDbEntity
  8
RACCORDO
100
AcDbLine
 62
250
  6
CONTINUOUS
 10
-11.3206404646
 20
-24.5
 11
-11.3075418858
 21
-24.4869014213
  0
LINE
  5
37B
100
AcDbEntity
  8
RACCORDO
100
AcDbLine
 62
250
  6
CONTINUOUS
 10
-11.5706362338
 20
24.2500042308
 11
-11.5575376551
 21
24.2369056521
  0
LINE
  5
37C
100
AcDbEntity
  8
RACCORDO
100
AcDbLine
 62
250
  6
CONTINUOUS
 10
-11.3206404646
 20
24.5
 11
-11.3075418858
 21
24.4869014213
  0
LINE
  5
37D
100
AcDbEntity
  8
RACCORDO
100
AcDbLine
 62
250
  6
CONTINUOUS
 10
10.0704311752
 20
-21.3560129244
 11
10.0715031455
 21
-21.3903360643
  0
LWPOLYLINE
  5
37E
100
AcDbEntity
  8
RACCORDO
100
AcDbPolyline
 62
250
  6
CONTINUOUS
 90
31
 70
0
 10
9.7162651875
 20
24.2369056521
 10
9.7159221489
 20
24.2499891381
 10
9.7148948591
 20
24.2630367647
 10
9.7131861335
 20
24.2760127708
 10
9.7108006555
 20
24.2888815916
 10
9.7077449633
 20
24.3016079562
 10
9.7040274319
 20
24.3141569839
 10
9.6996582505
 20
24.3264942801
 10
9.694649394
 20
24.3385860308
 10
9.6890145908
 20
24.3503990946
 10
9.6827692849
 20
24.3619010942
 10
9.6759305935
 20
24.3730605047
 10
9.6685172601
 20
24.3838467403
 10
9.6605496034
 20
24.3942302379
 10
9.6520494611
 20
24.4041825384
 10
9.6430401305
 20
24.4136763643
 10
9.6335463046
 20
24.4226856948
 10
9.6235940041
 20
24.4311858371
 10
9.6132105065
 20
24.4391534939
 10
9.6024242709
 20
24.4465668272
 10
9.5912648604
 20
24.4534055187
 10
9.5797628608
 20
24.4596508246
 10
9.567949797
 20
24.4652856277
 10
9.5558580464
 20
24.4702944842
 10
9.5435207501
 20
24.4746636657
 10
9.5309717224
 20
24.4783811971
 10
9.5182453579
 20
24.4814368893
 10
9.505376537
 20
24.4838223673
 10
9.4924005309
 20
24.4855310928
 10
9.4793529043
 20
24.4865583827
 10
9.4662694183
 20
24.4869014213
  0
LWPOLYLINE
  5
37F
100
AcDbEntity
  8
RACCORDO
100
AcDbPolyline
 62
250
  6
CONTINUOUS
 90
34
 70
0
 10
10.078563576
 20
21.4994104546
 10
10.0779762758
 20
21.5231550079
 10
10.0762591331
 20
21.546845835
 10
10.0734160332
 20
21.5704293311
 10
10.0694534089
 20
21.5938521339
 10
10.0643802266
 20
21.617061245
 10
10.0582079652
 20
21.6400041496
 10
10.0509505904
 20
21.6626289348
 10
10.0426245235
 20
21.6848844079
 10
10.0332486036
 20
21.7067202116
 10
10.0228440456
 20
21.7280869385
 10
10.0114343916
 20
21.748936242
 10
9.999045458
 20
21.7692209469
 10
9.9857052772
 20
21.7888951551
 10
9.9714440337
 20
21.8079143499
 10
9.9562939963
 20
21.8262354968
 10
9.9402894447
 20
21.8438171408
 10
9.9234665922
 20
21.8606194999
 10
9.9058635037
 20
21.8766045557
 10
9.8875200095
 20
21.891736139
 10
9.8684776151
 20
21.9059800115
 10
9.8487794076
 20
21.9193039439
 10
9.8284699578
 20
21.9316777881
 10
9.8075952198
 20
21.943073546
 10
9.7862024265
 20
21.9534654325
 10
9.7643399832
 20
21.9628299339
 10
9.7420573578
 20
21.9711458612
 10
9.7194049689
 20
21.9783943981
 10
9.696434072
 20
21.9845591434
 10
9.673196643
 20
21.989626148
 10
9.649745261
 20
21.993583947
 10
9.6261329892
 20
21.9964235851
 10
9.6024132549
 20
21.9981386369
 10
9.5786397284
 20
21.998725222
  0
LINE
  5
380
100
AcDbEntity
  8
RACCORDO
100
AcDbLine
 62
250
  6
CONTINUOUS
 10
10.0689090334
 20
-21.2966656572
 11
10.0704311752
 21
-21.3560129244
  0
LWPOLYLINE
  5
381
100
AcDbEntity
  8
RACCORDO
100
AcDbPolyline
 62
7
  6
CONTINUOUS
 90
34
 70
0
 10
9.7293637662
 20
24.2500042308
 10
9.729080616
 20
24.261899516
 10
9.7282318005
 20
24.2737678556
 10
9.7268192404
 20
24.2855823661
 10
9.724846134
 20
24.2973162875
 10
9.7223169479
 20
24.3089430388
 10
9.7192374079
 20
24.320436279
 10
9.7156144876
 20
24.3317699738
 10
9.711456392
 20
24.3429184493
 10
9.7067725384
 20
24.3538564463
 10
9.7015735351
 20
24.3645591876
 10
9.6958711579
 20
24.3750024283
 10
9.6896783244
 20
24.3851625059
 10
9.6830090617
 20
24.3950164051
 10
9.6758784769
 20
24.4045418038
 10
9.6683027251
 20
24.4137171191
 10
9.6602989667
 20
24.4225215661
 10
9.6518853323
 20
24.4309352005
 10
9.6430808853
 20
24.4389389589
 10
9.6339055701
 20
24.4465147107
 10
9.6243801714
 20
24.4536452955
 10
9.6145262721
 20
24.4603145581
 10
9.6043661945
 20
24.4665073916
 10
9.5939229538
 20
24.4722097688
 10
9.5832202125
 20
24.4774087722
 10
9.5722822155
 20
24.4820926258
 10
9.56113374
 20
24.4862507213
 10
9.5498000452
 20
24.4898736417
 10
9.538306805
 20
24.4929531817
 10
9.5266800537
 20
24.4954823677
 10
9.5149461324
 20
24.4974554741
 10
9.5031316218
 20
24.4988680342
 10
9.4912632823
 20
24.4997168498
 10
9.479367997
 20
24.5
  0
LINE
  5
382
100
AcDbEntity
  8
RACCORDO
100
AcDbLine
 62
250
  6
CONTINUOUS
 10
10.0670653295
 20
-21.2039020815
 11
10.0689090334
 21
-21.2966656572
  0
LINE
  5
383
100
AcDbEntity
  8
RACCORDO
100
AcDbLine
 62
250
  6
CONTINUOUS
 10
10.0651091954
 20
-21.0686198031
 11
10.0670653295
 21
-21.2039020815
  0
LINE
  5
384
100
AcDbEntity
  8
RACCORDO
100
AcDbLine
 62
250
  6
CONTINUOUS
 10
9.4662694183
 20
23.6278312164
 11
9.4713600194
 21
23.1226497308
  0
LINE
  5
385
100
AcDbEntity
  8
RACCORDO
100
AcDbLine
 62
250
  6
CONTINUOUS
 10
9.7162651875
 20
23.8443375673
 11
9.7220830173
 21
23.2669872981
  0
LINE
  5
386
100
AcDbEntity
  8
RACCORDO
100
AcDbLine
 62
250
  6
CONTINUOUS
 10
10.0633516073
 20
-20.8835802529
 11
10.0651091954
 21
-21.0686198031
  0
LINE
  5
387
100
AcDbEntity
  8
RACCORDO
100
AcDbLine
 62
250
  6
CONTINUOUS
 10
9.5636730676
 20
-21.1234063808
 11
9.5663092763
 21
-21.4778722597
  0
LINE
  5
388
100
AcDbEntity
  8
RACCORDO
100
AcDbLine
 62
250
  6
CONTINUOUS
 10
10.0622093123
 20
-20.6468728001
 11
10.0633516073
 21
-20.8835802529
  0
LINE
  5
389
100
AcDbEntity
  8
RACCORDO
100
AcDbLine
 62
250
  6
CONTINUOUS
 10
9.5621491555
 20
-20.6151362611
 11
9.5636730676
 21
-21.1234063808
  0
LWPOLYLINE
  5
38A
100
AcDbEntity
  8
RACCORDO
100
AcDbPolyline
 62
250
  6
CONTINUOUS
 90
3
 70
0
 10
9.5585004805
 20
-14.689506377
 10
9.5595708749
 20
-16.6474258676
 10
9.5621491555
 20
-20.6151362611
  0
LWPOLYLINE
  5
38B
100
AcDbEntity
  8
RACCORDO
100
AcDbPolyline
 62
250
  6
CONTINUOUS
 90
3
 70
0
 10
10.0584243284
 20
-14.6748175628
 10
10.0594947228
 20
-16.6307389907
 10
10.0622093123
 20
-20.6468728001
  0
LINE
  5
38C
100
AcDbEntity
  8
RACCORDO
100
AcDbLine
 62
250
  6
CONTINUOUS
 10
9.5560918852
 20
-8.814515488
 11
9.5585004805
 21
-14.689506377
  0
LINE
  5
38D
100
AcDbEntity
  8
RACCORDO
100
AcDbLine
 62
250
  6
CONTINUOUS
 10
10.0560157329
 20
-8.8057012996
 11
10.0584243284
 21
-14.6748175628
  0
LINE
  5
38E
100
AcDbEntity
  8
RACCORDO
100
AcDbLine
 62
250
  6
CONTINUOUS
 10
9.5548875044
 20
-2.9383071023
 11
9.5560918852
 21
-8.814515488
  0
LINE
  5
38F
100
AcDbEntity
  8
RACCORDO
100
AcDbLine
 62
250
  6
CONTINUOUS
 10
10.054811352
 20
-2.9353687563
 11
10.0560157329
 21
-8.8057012996
  0
LINE
  5
390
100
AcDbEntity
  8
RACCORDO
100
AcDbLine
 62
250
  6
CONTINUOUS
 10
9.4662694183
 20
-23.6278312164
 11
9.4662694183
 21
-24.4869014213
  0
LINE
  5
391
100
AcDbEntity
  8
RACCORDO
100
AcDbLine
 62
250
  6
CONTINUOUS
 10
9.4662694183
 20
23.6278312164
 11
9.4662694183
 21
24.4869014213
  0
LINE
  5
392
100
AcDbEntity
  8
RACCORDO
100
AcDbLine
 62
250
  6
CONTINUOUS
 10
9.4720872481
 20
-23.1226497308
 11
9.4720872481
 21
-22.3213883311
  0
LINE
  5
393
100
AcDbEntity
  8
RACCORDO
100
AcDbLine
 62
250
  6
CONTINUOUS
 10
9.4720872481
 20
22.3213883311
 11
9.4720872481
 21
23.1226497308
  0
LINE
  5
394
100
AcDbEntity
  8
RACCORDO
100
AcDbLine
 62
250
  6
CONTINUOUS
 10
9.7162651875
 20
-24.2369056521
 11
9.7162651875
 21
-23.8443375673
  0
LINE
  5
395
100
AcDbEntity
  8
RACCORDO
100
AcDbLine
 62
250
  6
CONTINUOUS
 10
9.7162651875
 20
23.8443375673
 11
9.7162651875
 21
24.2369056521
  0
LINE
  5
396
100
AcDbEntity
  8
RACCORDO
100
AcDbLine
 62
250
  6
CONTINUOUS
 10
9.7220830173
 20
-23.2669872981
 11
9.7220830173
 21
-22.3334109614
  0
LINE
  5
397
100
AcDbEntity
  8
RACCORDO
100
AcDbLine
 62
250
  6
CONTINUOUS
 10
9.7220830173
 20
22.3334109614
 11
9.7220830173
 21
23.2669872981
  0
LINE
  5
398
100
AcDbEntity
  8
RACCORDO
100
AcDbLine
 62
7
  6
CONTINUOUS
 10
9.7293637662
 20
-22.399689968
 11
9.7293637662
 21
-24.2500042308
  0
LINE
  5
399
100
AcDbEntity
  8
RACCORDO
100
AcDbLine
 62
7
  6
CONTINUOUS
 10
9.7293637662
 20
22.399689968
 11
9.7293637662
 21
24.2500042308
  0
LINE
  5
39A
100
AcDbEntity
  8
RACCORDO
100
AcDbLine
 62
7
  6
CONTINUOUS
 10
10.2293637662
 20
-21.8911779406
 11
10.2293637662
 21
-18.0856341328
  0
LINE
  5
39B
100
AcDbEntity
  8
RACCORDO
100
AcDbLine
 62
7
  6
CONTINUOUS
 10
10.2293637662
 20
18.0856341328
 11
10.2293637662
 21
21.8911779406
  0
LINE
  5
39C
100
AcDbEntity
  8
RACCORDO
100
AcDbLine
 62
7
  6
CONTINUOUS
 10
10.2380912987
 20
18.0769066003
 11
10.2380912987
 21
-18.0769066003
  0
LINE
  5
39D
100
AcDbEntity
  8
RACCORDO
100
AcDbLine
 62
250
  6
CONTINUOUS
 10
9.5548875044
 20
2.938307102
 11
9.5548875044
 21
-2.9383071023
  0
LINE
  5
39E
100
AcDbEntity
  8
RACCORDO
100
AcDbLine
 62
250
  6
CONTINUOUS
 10
10.054811352
 20
2.9353691998
 11
10.054811352
 21
-2.9353687563
  0
LINE
  5
39F
100
AcDbEntity
  8
RACCORDO
100
AcDbLine
 62
250
  6
CONTINUOUS
 10
9.5585004805
 20
14.6895063768
 11
9.5548875044
 21
2.938307102
  0
LINE
  5
3A0
100
AcDbEntity
  8
RACCORDO
100
AcDbLine
 62
250
  6
CONTINUOUS
 10
10.0584243287
 20
14.6748180047
 11
10.054811352
 21
2.9353691998
  0
LINE
  5
3A1
100
AcDbEntity
  8
RACCORDO
100
AcDbLine
 62
250
  6
CONTINUOUS
 10
9.5634279012
 20
21.0750318215
 11
9.5585004805
 21
14.6895063768
  0
LINE
  5
3A2
100
AcDbEntity
  8
RACCORDO
100
AcDbLine
 62
250
  6
CONTINUOUS
 10
10.0627374315
 20
20.7841269789
 11
10.0584243287
 21
14.6748180047
  0
LINE
  5
3A3
100
AcDbEntity
  8
RACCORDO
100
AcDbLine
 62
250
  6
CONTINUOUS
 10
10.0641449572
 20
20.9787425605
 11
10.0627374315
 21
20.7841269789
  0
LWPOLYLINE
  5
3A4
100
AcDbEntity
  8
RACCORDO
100
AcDbPolyline
 62
250
  6
CONTINUOUS
 90
3
 70
0
 10
9.5663092658
 20
21.4778719225
 10
9.5659177454
 20
21.4372443505
 10
9.5634279012
 20
21.0750318215
  0
LINE
  5
3A5
100
AcDbEntity
  8
RACCORDO
100
AcDbLine
 62
250
  6
CONTINUOUS
 10
9.4713600194
 20
-23.1226497308
 11
9.4662694183
 21
-23.6278312164
  0
LINE
  5
3A6
100
AcDbEntity
  8
RACCORDO
100
AcDbLine
 62
250
  6
CONTINUOUS
 10
9.7220830173
 20
-23.2669872981
 11
9.7162651875
 21
-23.8443375673
  0
LINE
  5
3A7
100
AcDbEntity
  8
RACCORDO
100
AcDbLine
 62
250
  6
CONTINUOUS
 10
10.0658414045
 20
21.1250759166
 11
10.0641449572
 21
20.9787425605
  0
LINE
  5
3A8
100
AcDbEntity
  8
RACCORDO
100
AcDbLine
 62
250
  6
CONTINUOUS
 10
10.0675042438
 20
21.2284503157
 11
10.0658414045
 21
21.1250759166
  0
LWPOLYLINE
  5
3A9
100
AcDbEntity
  8
RACCORDO
100
AcDbPolyline
 62
7
  6
CONTINUOUS
 90
27
 70
0
 10
10.2119468638
 20
-21.8998857286
 10
10.2115155889
 20
-21.9204645317
 10
10.2102349735
 20
-21.9410481821
 10
10.2081022599
 20
-21.961601383
 10
10.2051165995
 20
-21.9820858133
 10
10.2012779844
 20
-22.0024684433
 10
10.1965861316
 20
-22.0227213834
 10
10.1910454588
 20
-22.042800984
 10
10.1846581891
 20
-22.0626782943
 10
10.1774183437
 20
-22.0823459054
 10
10.1693284093
 20
-22.1017677505
 10
10.1603941125
 20
-22.1209036522
 10
10.1506103173
 20
-22.1397371612
 10
10.1399728388
 20
-22.1582448077
 10
10.1284979987
 20
-22.1763688791
 10
10.1162150213
 20
-22.1940421359
 10
10.1031339009
 20
-22.2112330931
 10
10.0892762482
 20
-22.2278971706
 10
10.0747008328
 20
-22.2439550961
 10
10.0594306922
 20
-22.2593784507
 10
10.0434960976
 20
-22.2741337501
 10
10.0269807769
 20
-22.2881473322
 10
10.0099477584
 20
-22.3013783184
 10
9.9924078235
 20
-22.3138304621
 10
9.9743711311
 20
-22.3255031177
 10
9.9558854754
 20
-22.3363704364
 10
9.935377754
 20
-22.3472253447
  0
LINE
  5
3AA
100
AcDbEntity
  8
RACCORDO
100
AcDbLine
 62
250
  6
CONTINUOUS
 10
10.0689087748
 20
21.2966543939
 11
10.0675042438
 21
21.2284503157
  0
LWPOLYLINE
  5
3AB
100
AcDbEntity
  8
RACCORDO
100
AcDbPolyline
 62
250
  6
CONTINUOUS
 90
34
 70
0
 10
10.078563576
 20
-21.4994104546
 10
10.0779762756
 20
-21.5231550131
 10
10.0762591321
 20
-21.5468458451
 10
10.073416031
 20
-21.5704293456
 10
10.0694534054
 20
-21.5938521525
 10
10.0643802212
 20
-21.6170612672
 10
10.0582079577
 20
-21.6400041748
 10
10.0509505808
 20
-21.6626289626
 10
10.0426245115
 20
-21.6848844378
 10
10.0332485892
 20
-21.7067202431
 10
10.0228440288
 20
-21.728086971
 10
10.0114343724
 20
-21.7489362752
 10
9.9990454366
 20
-21.7692209802
 10
9.9857052537
 20
-21.7888951881
 10
9.9714440083
 20
-21.8079143822
 10
9.9562939692
 20
-21.826235528
 10
9.9402894162
 20
-21.8438171706
 10
9.9234665627
 20
-21.860619528
 10
9.9058634735
 20
-21.8766045819
 10
9.887519979
 20
-21.891736163
 10
9.8684775847
 20
-21.9059800332
 10
9.8487793776
 20
-21.9193039632
 10
9.8284699286
 20
-21.931677805
 10
9.8075951918
 20
-21.9430735605
 10
9.7862024001
 20
-21.9534654446
 10
9.7643399587
 20
-21.9628299437
 10
9.7420573356
 20
-21.971145869
 10
9.7194049493
 20
-21.9783944039
 10
9.6964340552
 20
-21.9845591475
 10
9.6731966293
 20
-21.9896261507
 10
9.6497452505
 20
-21.9935839485
 10
9.6261329821
 20
-21.9964235857
 10
9.6024132513
 20
-21.9981386371
 10
9.5786397284
 20
-21.998725222
  0
LINE
  5
3AC
100
AcDbEntity
  8
RACCORDO
100
AcDbLine
 62
250
  6
CONTINUOUS
 10
10.0704309087
 20
21.3560036891
 11
10.0689087748
 21
21.2966543939
  0
LINE
  5
3AD
100
AcDbEntity
  8
RACCORDO
100
AcDbLine
 62
250
  6
CONTINUOUS
 10
10.0715028755
 20
21.3903281432
 11
10.0704309087
 21
21.3560036891
  0
LINE
  5
3AE
100
AcDbEntity
  8
RACCORDO
100
AcDbLine
 62
7
  6
CONTINUOUS
 10
7.3293637662
 20
-22.4
 11
7.3366445151
 21
-22.3344140523
  0
LINE
  5
3AF
100
AcDbEntity
  8
RACCORDO
100
AcDbLine
 62
7
  6
CONTINUOUS
 10
7.3293637662
 20
22.4
 11
7.3366445151
 21
22.3344140523
  0
LINE
  5
3B0
100
AcDbEntity
  8
RACCORDO
100
AcDbLine
 62
7
  6
CONTINUOUS
 10
-5.3177103956
 20
-23.7970741618
 11
-5.3206362338
 21
-23.8
  0
LINE
  5
3B1
100
AcDbEntity
  8
RACCORDO
100
AcDbLine
 62
7
  6
CONTINUOUS
 10
-5.3177103956
 20
23.7970741618
 11
-5.3206362338
 21
23.8
  0
LWPOLYLINE
  5
3B2
100
AcDbEntity
  8
0
100
AcDbPolyline
 62
7
  6
CONTINUOUS
 90
10
 70
0
 43
0.3500000087
 10
19.4504943527
 20
0.4285711273
 10
18.5933524857
 20
1.285715126
 10
17.7362084869
 20
1.499999527
 10
16.879065554
 20
1.499999527
 10
16.4504946205
 20
1.0714285934
 10
16.4504946205
 20
0.4285711273
 10
16.879065554
 20
0.0000001938
 10
17.7362084869
 20
0.0000001938
 10
18.1647794205
 20
0.4285711273
 10
18.1647794205
 20
1.3571425491
  0
LWPOLYLINE
  5
3B3
100
AcDbEntity
  8
0
100
AcDbPolyline
 62
7
  6
CONTINUOUS
 90
10
 70
0
 43
0.3500000087
 10
0.1507923386
 20
33.7495919006
 10
0.2222209108
 20
33.6067327911
 10
0.2222209108
 20
33.535305368
 10
0.0793637664
 20
33.3924462585
 10
0.0079351948
 20
33.3924462585
 10
-0.0634933779
 20
33.4638779449
 10
-0.0634933779
 20
33.535305368
 10
0.0079351948
 20
33.6781602142
 10
0.0793637664
 20
33.7495919006
 10
0.1507923386
 20
33.7495919006
  0
LINE
  5
3B4
100
AcDbEntity
  8
RACCORDO
100
AcDbLine
 62
7
  6
CONTINUOUS
 10
-4.8887268242
 20
-23.6400757416
 11
-4.8177188571
 21
-23.5953423515
  0
LINE
  5
3B5
100
AcDbEntity
  8
RACCORDO
100
AcDbLine
 62
7
  6
CONTINUOUS
 10
-4.9171944176
 20
-23.6577812011
 11
-4.8887268242
 21
-23.6400757416
  0
LINE
  5
3B6
100
AcDbEntity
  8
RACCORDO
100
AcDbLine
 62
7
  6
CONTINUOUS
 10
-4.9455845539
 20
23.6751796798
 11
-4.9171944176
 21
23.6577812011
  0
LINE
  5
3B7
100
AcDbEntity
  8
RACCORDO
100
AcDbLine
 62
7
  6
CONTINUOUS
 10
-4.9171944176
 20
23.6577812011
 11
-4.8744750491
 21
23.6311538461
  0
LINE
  5
3B8
100
AcDbEntity
  8
RACCORDO
100
AcDbLine
 62
7
  6
CONTINUOUS
 10
-4.8744750491
 20
23.6311538461
 11
-4.8177188571
 21
23.5953423515
  0
LWPOLYLINE
  5
3B9
100
AcDbEntity
  8
0
100
AcDbPolyline
 62
7
  6
CONTINUOUS
 90
3
 70
0
 43
0.3500000087
 10
18.8076368866
 20
-0.8571438049
 10
18.8076368866
 20
-2.3571431381
 10
16.4504946205
 20
-1.714285672
  0
LINE
  5
3BA
100
AcDbEntity
  8
RACCORDO
100
AcDbLine
 62
250
  6
CONTINUOUS
 10
10.2293637662
 20
-18.0856341328
 11
10.2380912987
 21
-18.0769066003
  0
LINE
  5
3BB
100
AcDbEntity
  8
RACCORDO
100
AcDbLine
 62
250
  6
CONTINUOUS
 10
10.2380912987
 20
18.0769066003
 11
10.2293637662
 21
18.0856341328
  0
LWPOLYLINE
  5
3BC
100
AcDbEntity
  8
RACCORDO
100
AcDbPolyline
 62
250
  6
CONTINUOUS
 90
16
 70
0
 10
10.0620368053
 20
-20.5419058565
 10
10.0610727994
 20
-20.5428735512
 10
10.0590034421
 20
-20.5438391022
 10
10.0558333176
 20
-20.5448003704
 10
10.0515694488
 20
-20.5457552263
 10
10.0462212814
 20
-20.5467015547
 10
10.0398006634
 20
-20.5476372591
 10
10.0323218184
 20
-20.5485602666
 10
10.0238013143
 20
-20.5494685326
 10
10.0142580268
 20
-20.5503600448
 10
10.0037130971
 20
-20.5512328284
 10
9.9921898857
 20
-20.5520849498
 10
9.9797139199
 20
-20.5529145213
 10
9.966312838
 20
-20.5537197052
 10
9.9520163274
 20
-20.5544987177
 10
9.9368560595
 20
-20.5552498331
  0
LINE
  5
3BD
100
AcDbEntity
  8
RACCORDO
100
AcDbLine
 62
250
  6
CONTINUOUS
 10
-11.7781284981
 20
20.5552498304
 11
-11.7453528687
 21
20.5566617792
  0
LINE
  5
3BE
100
AcDbEntity
  8
RACCORDO
100
AcDbLine
 62
250
  6
CONTINUOUS
 10
-11.7453528687
 20
20.5566617792
 11
-11.7095486606
 21
20.5579430444
  0
LINE
  5
3BF
100
AcDbEntity
  8
RACCORDO
100
AcDbLine
 62
250
  6
CONTINUOUS
 10
-11.7095486606
 20
20.5579430444
 11
-11.6710329681
 21
20.5590822789
  0
LINE
  5
3C0
100
AcDbEntity
  8
RACCORDO
100
AcDbLine
 62
250
  6
CONTINUOUS
 10
-11.6710329681
 20
20.5590822789
 11
-11.630146899
 21
20.5600693931
  0
LINE
  5
3C1
100
AcDbEntity
  8
RACCORDO
100
AcDbLine
 62
250
  6
CONTINUOUS
 10
-11.630146899
 20
20.5600693931
 11
-11.5872525541
 21
20.5608956448
  0
LINE
  5
3C2
100
AcDbEntity
  8
RACCORDO
100
AcDbLine
 62
250
  6
CONTINUOUS
 10
-11.5872525541
 20
20.5608956448
 11
-11.5199805601
 21
20.5618178038
  0
LINE
  5
3C3
100
AcDbEntity
  8
RACCORDO
100
AcDbLine
 62
250
  6
CONTINUOUS
 10
-11.5199805601
 20
20.5618178038
 11
-11.4503873478
 21
20.5623435483
  0
LINE
  5
3C4
100
AcDbEntity
  8
RACCORDO
100
AcDbLine
 62
250
  6
CONTINUOUS
 10
-11.4503873478
 20
20.5623435483
 11
9.5621129578
 21
20.5624683248
  0
LINE
  5
3C5
100
AcDbEntity
  8
RACCORDO
100
AcDbLine
 62
250
  6
CONTINUOUS
 10
-11.4199121959
 20
21.998725222
 11
9.5786397284
 21
21.998725222
  0
LINE
  5
3C6
100
AcDbEntity
  8
RACCORDO
100
AcDbLine
 62
250
  6
CONTINUOUS
 10
9.6324856775
 20
20.5622131686
 11
9.5621129578
 21
20.5624683248
  0
LINE
  5
3C7
100
AcDbEntity
  8
RACCORDO
100
AcDbLine
 62
250
  6
CONTINUOUS
 10
9.7014573908
 20
20.5615537269
 11
9.6324856775
 21
20.5622131686
  0
LINE
  5
3C8
100
AcDbEntity
  8
RACCORDO
100
AcDbLine
 62
250
  6
CONTINUOUS
 10
9.7459801358
 20
20.5608956547
 11
9.7014573908
 21
20.5615537269
  0
LINE
  5
3C9
100
AcDbEntity
  8
RACCORDO
100
AcDbLine
 62
250
  6
CONTINUOUS
 10
9.7888744903
 20
20.5600694024
 11
9.7459801358
 21
20.5608956547
  0
LINE
  5
3CA
100
AcDbEntity
  8
RACCORDO
100
AcDbLine
 62
250
  6
CONTINUOUS
 10
9.8297605673
 20
20.5590822876
 11
9.7888744903
 21
20.5600694024
  0
LINE
  5
3CB
100
AcDbEntity
  8
RACCORDO
100
AcDbLine
 62
250
  6
CONTINUOUS
 10
9.8682762658
 20
20.5579430524
 11
9.8297605673
 21
20.5590822876
  0
LINE
  5
3CC
100
AcDbEntity
  8
RACCORDO
100
AcDbLine
 62
250
  6
CONTINUOUS
 10
9.9040804777
 20
20.5566617864
 11
9.8682762658
 21
20.5579430524
  0
LWPOLYLINE
  5
3CD
100
AcDbEntity
  8
RACCORDO
100
AcDbPolyline
 62
7
  6
CONTINUOUS
 90
13
 70
0
 10
-11.5295515737
 20
22.3279108386
 10
-11.5347859157
 20
22.3283651355
 10
-11.5396059207
 20
22.3288083558
 10
-11.5440022144
 20
22.3292404994
 10
-11.5479664712
 20
22.3296534689
 10
-11.5514905761
 20
22.3300553617
 10
-11.5545669548
 20
22.3304704706
 10
-11.5571897378
 20
22.3309023111
 10
-11.5593539586
 20
22.3313473676
 10
-11.5610552111
 20
22.3318193863
 10
-11.5622904278
 20
22.3323229492
 10
-11.5630576011
 20
22.3328534742
 10
-11.5633554849
 20
22.3334109614
  0
LWPOLYLINE
  5
3CE
100
AcDbEntity
  8
RACCORDO
100
AcDbPolyline
 62
250
  6
CONTINUOUS
 90
17
 70
0
 10
10.0620368053
 20
20.5419058565
 10
10.0610728057
 20
20.5428735514
 10
10.0590034543
 20
20.5438391026
 10
10.0558333353
 20
20.544800371
 10
10.0515694716
 20
20.5457552271
 10
10.0462213089
 20
20.5467015558
 10
10.039800695
 20
20.5476372604
 10
10.0323218537
 20
20.5485602682
 10
10.0238013529
 20
20.5494685344
 10
10.0142580682
 20
20.5503600469
 10
10.0037131409
 20
20.5512328307
 10
9.9921899314
 20
20.5520849524
 10
9.9797139671
 20
20.5529145241
 10
9.9663128861
 20
20.5537197083
 10
9.9520163762
 20
20.5544987211
 10
9.9368561085
 20
20.5552498367
 10
9.9040804777
 20
20.5566617864
  0
LINE
  5
3CF
100
AcDbEntity
  8
RACCORDO
100
AcDbLine
 62
250
  6
CONTINUOUS
 10
7.3293637662
 20
-24.2500042308
 11
7.3424623449
 21
-24.2369056521
  0
LINE
  5
3D0
100
AcDbEntity
  8
RACCORDO
100
AcDbLine
 62
250
  6
CONTINUOUS
 10
7.5793595354
 20
-24.5
 11
7.5924581142
 21
-24.4869014213
  0
LWPOLYLINE
  5
3D1
100
AcDbEntity
  8
RACCORDO
100
AcDbPolyline
 62
7
  6
CONTINUOUS
 90
23
 70
0
 10
3.3755710799
 20
23.7953389668
 10
3.3647819565
 20
23.7947915649
 10
3.3536944943
 20
23.793363895
 10
3.3423086934
 20
23.7911364879
 10
3.3305999132
 20
23.7881978965
 10
3.3185927942
 20
23.7846238716
 10
3.3063612583
 20
23.7804595132
 10
3.293912518
 20
23.7757643703
 10
3.2812393608
 20
23.7706018097
 10
3.2683940707
 20
23.7649953104
 10
3.2553809385
 20
23.758990232
 10
3.2421956735
 20
23.7526365647
 10
3.2288776865
 20
23.7459460582
 10
3.2154291995
 20
23.7389542831
 10
3.2018479907
 20
23.7317013921
 10
3.1881668059
 20
23.724193673
 10
3.1743866941
 20
23.7164601879
 10
3.1605066064
 20
23.708533951
 10
3.1465561418
 20
23.7004191901
 10
3.1325355412
 20
23.6921405291
 10
3.1184445638
 20
23.6837259593
 10
3.1043120863
 20
23.6751796798
 10
3.07592195
 20
23.6577812011
  0
LINE
  5
3D2
100
AcDbEntity
  8
RACCORDO
100
AcDbLine
 62
7
  6
CONTINUOUS
 10
-11.3133597156
 20
22.3213883311
 11
-9.4279127519
 21
22.3213883311
  0
LINE
  5
3D3
100
AcDbEntity
  8
RACCORDO
100
AcDbLine
 62
7
  6
CONTINUOUS
 10
7.5866402844
 20
22.3213883311
 11
9.4720872481
 21
22.3213883311
  0
LINE
  5
3D4
100
AcDbEntity
  8
RACCORDO
100
AcDbLine
 62
7
  6
CONTINUOUS
 10
2.9764463896
 20
22.3475922207
 11
-4.8177188571
 21
22.3475922207
  0
LINE
  5
3D5
100
AcDbEntity
  8
DRAFT
100
AcDbLine
 62
7
  6
CONTINUOUS
 10
7.3293637662
 20
22.4
 11
3.4793637662
 21
22.4
  0
LINE
  5
3D6
100
AcDbEntity
  8
DRAFT
100
AcDbLine
 62
7
  6
CONTINUOUS
 10
-5.3206362338
 20
22.4
 11
-9.1706362338
 21
22.4
  0
LINE
  5
3D7
100
AcDbEntity
  8
RACCORDO
100
AcDbLine
 62
7
  6
CONTINUOUS
 10
-11.3133597156
 20
23.1226497308
 11
-9.4279127519
 21
23.1226497308
  0
LINE
  5
3D8
100
AcDbEntity
  8
RACCORDO
100
AcDbLine
 62
7
  6
CONTINUOUS
 10
7.5866402844
 20
23.1226497308
 11
9.4720872481
 21
23.1226497308
  0
LINE
  5
3D9
100
AcDbEntity
  8
RACCORDO
100
AcDbLine
 62
250
  6
CONTINUOUS
 10
2.9764463896
 20
23.5953423515
 11
-4.8177188571
 21
23.5953423515
  0
LINE
  5
3DA
100
AcDbEntity
  8
RACCORDO
100
AcDbLine
 62
250
  6
CONTINUOUS
 10
-11.3075418858
 20
23.6278312164
 11
-9.4337305817
 21
23.6278312164
  0
LINE
  5
3DB
100
AcDbEntity
  8
RACCORDO
100
AcDbLine
 62
250
  6
CONTINUOUS
 10
7.5924581142
 20
23.6278312164
 11
9.4662694183
 21
23.6278312164
  0
LINE
  5
3DC
100
AcDbEntity
  8
RACCORDO
100
AcDbLine
 62
250
  6
CONTINUOUS
 10
3.3755710799
 20
23.7953389668
 11
-5.2168435474
 21
23.7953389668
  0
LINE
  5
3DD
100
AcDbEntity
  8
DRAFT
100
AcDbLine
 62
7
  6
CONTINUOUS
 10
-5.3206362338
 20
23.8
 11
3.4793637662
 21
23.8
  0
LINE
  5
3DE
100
AcDbEntity
  8
RACCORDO
100
AcDbLine
 62
250
  6
CONTINUOUS
 10
7.3424623449
 20
23.8443375673
 11
9.7162651875
 21
23.8443375673
  0
LINE
  5
3DF
100
AcDbEntity
  8
RACCORDO
100
AcDbLine
 62
250
  6
CONTINUOUS
 10
-9.1837348125
 20
23.8443375673
 11
-11.5575376551
 21
23.8443375673
  0
LWPOLYLINE
  5
3E0
100
AcDbEntity
  8
RACCORDO
100
AcDbPolyline
 62
7
  6
CONTINUOUS
 90
22
 70
0
 10
-5.2168435474
 20
23.7953389668
 10
-5.206054424
 20
23.7947915649
 10
-5.1949669619
 20
23.793363895
 10
-5.183581161
 20
23.7911364879
 10
-5.1718723807
 20
23.7881978965
 10
-5.1598652617
 20
23.7846238716
 10
-5.1476337258
 20
23.7804595132
 10
-5.1351849855
 20
23.7757643703
 10
-5.1225118284
 20
23.7706018097
 10
-5.1096665382
 20
23.7649953104
 10
-5.0966534061
 20
23.758990232
 10
-5.083468141
 20
23.7526365647
 10
-5.0701501541
 20
23.7459460582
 10
-5.056701667
 20
23.7389542831
 10
-5.0431204582
 20
23.7317013921
 10
-5.0294392734
 20
23.724193673
 10
-5.0156591616
 20
23.7164601879
 10
-5.0017790739
 20
23.708533951
 10
-4.9878286094
 20
23.7004191901
 10
-4.9738080088
 20
23.6921405291
 10
-4.9597170313
 20
23.6837259593
 10
-4.9455845539
 20
23.6751796798
  0
LWPOLYLINE
  5
3E1
100
AcDbEntity
  8
RACCORDO
100
AcDbPolyline
 62
7
  6
CONTINUOUS
 90
11
 70
0
 10
9.7293629054
 20
22.3996911987
 10
9.7508621559
 20
22.3984729571
 10
9.7723263439
 20
22.3963249714
 10
9.7937150293
 20
22.3932464793
 10
9.8150104472
 20
22.3892336316
 10
9.8361484966
 20
22.3842921097
 10
9.8570211186
 20
22.3784469767
 10
9.877573281
 20
22.3717193008
 10
9.8977852811
 20
22.3641212181
 10
9.9176061504
 20
22.3556775522
 10
9.935377754
 20
22.3472253447
  0
LINE
  5
3E2
100
AcDbEntity
  8
RACCORDO
100
AcDbLine
 62
250
  6
CONTINUOUS
 10
7.3293637662
 20
24.2500042308
 11
7.3424623449
 21
24.2369056521
  0
LINE
  5
3E3
100
AcDbEntity
  8
RACCORDO
100
AcDbLine
 62
250
  6
CONTINUOUS
 10
7.5793595354
 20
24.5
 11
7.5924581142
 21
24.4869014213
  0
LINE
  5
3E4
100
AcDbEntity
  8
RACCORDO
100
AcDbLine
 62
250
  6
CONTINUOUS
 10
10.2293637662
 20
-21.8911779406
 11
10.2119468638
 21
-21.8998857286
  0
LINE
  5
3E5
100
AcDbEntity
  8
RACCORDO
100
AcDbLine
 62
7
  6
CONTINUOUS
 10
9.9528807761
 20
-22.3384745002
 11
9.935377754
 21
-22.3472253447
  0
LWPOLYLINE
  5
3E6
100
AcDbEntity
  8
RACCORDO
100
AcDbPolyline
 62
7
  6
CONTINUOUS
 90
11
 70
0
 10
9.935377754
 20
-22.3472253447
 10
9.9176061504
 20
-22.3556775522
 10
9.8977852811
 20
-22.3641212181
 10
9.877573281
 20
-22.3717193008
 10
9.8570211186
 20
-22.3784469767
 10
9.8361484966
 20
-22.3842921097
 10
9.8150104472
 20
-22.3892336316
 10
9.7937150293
 20
-22.3932464793
 10
9.7723263439
 20
-22.3963249714
 10
9.7508621559
 20
-22.3984729571
 10
9.7293629054
 20
-22.3996911987
  0
LWPOLYLINE
  5
3E7
100
AcDbEntity
  8
RACCORDO
100
AcDbPolyline
 62
250
  6
CONTINUOUS
 90
31
 70
0
 10
7.5924581142
 20
24.4869014213
 10
7.57937176
 20
24.4865582323
 10
7.5663212617
 20
24.4855304893
 10
7.5533424043
 20
24.4838210061
 10
7.5404707646
 20
24.4814344634
 10
7.5277416507
 20
24.4783774023
 10
7.5151900033
 20
24.4746582128
 10
7.5028502471
 20
24.4702870977
 10
7.4907562099
 20
24.4652760422
 10
7.4789410643
 20
24.4596387939
 10
7.4674372085
 20
24.4533908148
 10
7.4562761825
 20
24.446549239
 10
7.4454885922
 20
24.4391328321
 10
7.4351040029
 20
24.4311619239
 10
7.4251508995
 20
24.4226583824
 10
7.4156566063
 20
24.4136455633
 10
7.4066471845
 20
24.4041482289
 10
7.3981472876
 20
24.3941923917
 10
7.3901801454
 20
24.3838052658
 10
7.3827675153
 20
24.3730151866
 10
7.3759298335
 20
24.3618518682
 10
7.3696860319
 20
24.3503462678
 10
7.3640532833
 20
24.3385301896
 10
7.3590468534
 20
24.3264358334
 10
7.3546803023
 20
24.3140960295
 10
7.3509648625
 20
24.3015418449
 10
7.3479117491
 20
24.2888103798
 10
7.345530619
 20
24.275944661
 10
7.3438270148
 20
24.2629828864
 10
7.3428037522
 20
24.249957992
 10
7.3424623449
 20
24.2369056521
  0
LWPOLYLINE
  5
3E8
100
AcDbEntity
  8
RACCORDO
100
AcDbPolyline
 62
250
  6
CONTINUOUS
 90
31
 70
0
 10
-11.3075418858
 20
24.4869014213
 10
-11.3206253718
 20
24.4865583827
 10
-11.3336729984
 20
24.4855310928
 10
-11.3466490046
 20
24.4838223673
 10
-11.3595178254
 20
24.4814368893
 10
-11.37224419
 20
24.4783811971
 10
-11.3847932176
 20
24.4746636657
 10
-11.3971305139
 20
24.4702944842
 10
-11.4092222646
 20
24.4652856277
 10
-11.4210353284
 20
24.4596508246
 10
-11.4325373279
 20
24.4534055187
 10
-11.4436967384
 20
24.4465668272
 10
-11.454482974
 20
24.4391534939
 10
-11.4648664717
 20
24.4311858371
 10
-11.4748187721
 20
24.4226856948
 10
-11.4843125981
 20
24.4136763643
 10
-11.4933219286
 20
24.4041825384
 10
-11.5018220709
 20
24.3942302379
 10
-11.5097897277
 20
24.3838467403
 10
-11.517203061
 20
24.3730605047
 10
-11.5240417524
 20
24.3619010942
 10
-11.5302870583
 20
24.3503990946
 10
-11.5359218615
 20
24.3385860308
 10
-11.540930718
 20
24.3264942801
 10
-11.5452998995
 20
24.3141569839
 10
-11.5490174309
 20
24.3016079562
 10
-11.5520731231
 20
24.2888815916
 10
-11.554458601
 20
24.2760127708
 10
-11.5561673266
 20
24.2630367647
 10
-11.5571946165
 20
24.2499891381
 10
-11.5575376551
 20
24.2369056521
  0
LWPOLYLINE
  5
3E9
100
AcDbEntity
  8
RACCORDO
100
AcDbPolyline
 62
7
  6
CONTINUOUS
 90
34
 70
0
 10
7.5793595354
 20
24.5
 10
7.5674642502
 20
24.4997168498
 10
7.5555959107
 20
24.4988680342
 10
7.5437814001
 20
24.4974554741
 10
7.5320474787
 20
24.4954823677
 10
7.5204207274
 20
24.4929531817
 10
7.5089274872
 20
24.4898736417
 10
7.4975937925
 20
24.4862507213
 10
7.4864453169
 20
24.4820926258
 10
7.4755073199
 20
24.4774087722
 10
7.4648045786
 20
24.4722097688
 10
7.454361338
 20
24.4665073916
 10
7.4442012603
 20
24.4603145581
 10
7.4343473611
 20
24.4536452955
 10
7.4248219624
 20
24.4465147107
 10
7.4156466472
 20
24.4389389589
 10
7.4068422001
 20
24.4309352005
 10
7.3984285657
 20
24.4225215661
 10
7.3904248074
 20
24.4137171191
 10
7.3828490555
 20
24.4045418038
 10
7.3757184708
 20
24.3950164051
 10
7.3690492081
 20
24.3851625059
 10
7.3628563746
 20
24.3750024283
 10
7.3571539974
 20
24.3645591876
 10
7.3519549941
 20
24.3538564463
 10
7.3472711405
 20
24.3429184493
 10
7.3431130449
 20
24.3317699738
 10
7.3394901245
 20
24.320436279
 10
7.3364105845
 20
24.3089430388
 10
7.3338813985
 20
24.2973162875
 10
7.3319082921
 20
24.2855823661
 10
7.330495732
 20
24.2737678556
 10
7.3296469165
 20
24.261899516
 10
7.3293637662
 20
24.2500042308
  0
LWPOLYLINE
  5
3EA
100
AcDbEntity
  8
RACCORDO
100
AcDbPolyline
 62
7
  6
CONTINUOUS
 90
34
 70
0
 10
-11.3206404646
 20
24.5
 10
-11.3325357498
 20
24.4997168498
 10
-11.3444040893
 20
24.4988680342
 10
-11.3562185999
 20
24.4974554741
 10
-11.3679525213
 20
24.4954823677
 10
-11.3795792726
 20
24.4929531817
 10
-11.3910725128
 20
24.4898736417
 10
-11.4024062075
 20
24.4862507213
 10
-11.4135546831
 20
24.4820926258
 10
-11.4244926801
 20
24.4774087722
 10
-11.4351954214
 20
24.4722097688
 10
-11.445638662
 20
24.4665073916
 10
-11.4557987397
 20
24.4603145581
 10
-11.4656526389
 20
24.4536452955
 10
-11.4751780376
 20
24.4465147107
 10
-11.4843533528
 20
24.4389389589
 10
-11.4931577999
 20
24.4309352005
 10
-11.5015714343
 20
24.4225215661
 10
-11.5095751926
 20
24.4137171191
 10
-11.5171509445
 20
24.4045418038
 10
-11.5242815292
 20
24.3950164051
 10
-11.5309507919
 20
24.3851625059
 10
-11.5371436254
 20
24.3750024283
 10
-11.5428460026
 20
24.3645591876
 10
-11.5480450059
 20
24.3538564463
 10
-11.5527288595
 20
24.3429184493
 10
-11.5568869551
 20
24.3317699738
 10
-11.5605098755
 20
24.320436279
 10
-11.5635894155
 20
24.3089430388
 10
-11.5661186015
 20
24.2973162875
 10
-11.5680917079
 20
24.2855823661
 10
-11.569504268
 20
24.2737678556
 10
-11.5703530835
 20
24.261899516
 10
-11.5706362338
 20
24.2500042308
  0
LINE
  5
3EB
100
AcDbEntity
  8
RACCORDO
100
AcDbLine
 62
250
  6
CONTINUOUS
 10
7.3424623449
 20
24.2369056521
 11
9.7162651875
 21
24.2369056521
  0
LINE
  5
3EC
100
AcDbEntity
  8
RACCORDO
100
AcDbLine
 62
250
  6
CONTINUOUS
 10
-9.1837348125
 20
24.2369056521
 11
-11.5575376551
 21
24.2369056521
  0
LINE
  5
3ED
100
AcDbEntity
  8
RACCORDO
100
AcDbLine
 62
250
  6
CONTINUOUS
 10
9.4662694183
 20
24.4869014213
 11
7.5924581142
 21
24.4869014213
  0
LINE
  5
3EE
100
AcDbEntity
  8
RACCORDO
100
AcDbLine
 62
250
  6
CONTINUOUS
 10
-9.4337305817
 20
24.4869014213
 11
-11.3075418858
 21
24.4869014213
  0
LINE
  5
3EF
100
AcDbEntity
  8
RACCORDO
100
AcDbLine
 62
7
  6
CONTINUOUS
 10
-11.3206404646
 20
24.5
 11
-9.420632003
 21
24.5
  0
LINE
  5
3F0
100
AcDbEntity
  8
RACCORDO
100
AcDbLine
 62
7
  6
CONTINUOUS
 10
7.5793595354
 20
24.5
 11
9.479367997
 21
24.5
  0
LWPOLYLINE
  5
3F1
100
AcDbEntity
  8
0
100
AcDbPolyline
 62
7
  6
CONTINUOUS
 90
6
 70
0
 43
0.3500000087
 10
1.2222208549
 20
33.2495914124
 10
2.2936493877
 20
33.2495914124
 10
2.507935121
 20
33.4638779449
 10
2.507935121
 20
34.5353063446
 10
2.0793637877
 20
34.9638751465
 10
1.6507923213
 20
34.9638751465
  0
LWPOLYLINE
  5
3F2
100
AcDbEntity
  8
0
100
AcDbPolyline
 62
7
  6
CONTINUOUS
 90
7
 70
0
 43
0.3500000087
 10
-1.3492076774
 20
33.2495914124
 10
-2.8492076767
 20
33.2495914124
 10
-1.3492076774
 20
35.3924482117
 10
-1.3492076774
 20
35.8210170135
 10
-1.7777791438
 20
36.2495900787
 10
-2.4206362103
 20
36.2495900787
 10
-2.8492076767
 20
35.6067347443
  0
LWPOLYLINE
  5
3F3
100
AcDbEntity
  8
0
100
AcDbPolyline
 62
7
  6
CONTINUOUS
 90
7
 70
0
 43
0.3500000087
 10
-3.7063506096
 20
33.2495914124
 10
-5.2063504757
 20
33.2495914124
 10
-3.7063506096
 20
35.3924482117
 10
-3.7063506096
 20
35.8210170135
 10
-4.134922076
 20
36.2495900787
 10
-4.7777790092
 20
36.2495900787
 10
-5.2063504757
 20
35.6067347443
  0
LINE
  5
3F4
100
AcDbEntity
  8
RACCORDO
100
AcDbLine
 62
250
  6
CONTINUOUS
 10
10.2119468638
 20
21.8998857286
 11
10.2293637662
 21
21.8911779406
  0
LINE
  5
3F5
100
AcDbEntity
  8
RACCORDO
100
AcDbLine
 62
7
  6
CONTINUOUS
 10
9.935377754
 20
22.3472253447
 11
9.9528807761
 21
22.3384745002
  0
LWPOLYLINE
  5
3F6
100
AcDbEntity
  8
RACCORDO
100
AcDbPolyline
 62
7
  6
CONTINUOUS
 90
27
 70
0
 10
9.935377754
 20
22.3472253447
 10
9.9558854754
 20
22.3363704364
 10
9.9743711311
 20
22.3255031177
 10
9.9924078235
 20
22.3138304621
 10
10.0099477584
 20
22.3013783184
 10
10.0269807769
 20
22.2881473322
 10
10.0434960976
 20
22.2741337501
 10
10.0594306922
 20
22.2593784507
 10
10.0747008328
 20
22.2439550961
 10
10.0892762482
 20
22.2278971706
 10
10.1031339009
 20
22.2112330931
 10
10.1162150213
 20
22.1940421359
 10
10.1284979987
 20
22.1763688791
 10
10.1399728388
 20
22.1582448077
 10
10.1506103173
 20
22.1397371612
 10
10.1603941125
 20
22.1209036522
 10
10.1693284093
 20
22.1017677505
 10
10.1774183437
 20
22.0823459054
 10
10.1846581891
 20
22.0626782943
 10
10.1910454588
 20
22.042800984
 10
10.1965861316
 20
22.0227213834
 10
10.2012779844
 20
22.0024684433
 10
10.2051165995
 20
21.9820858133
 10
10.2081022599
 20
21.961601383
 10
10.2102349735
 20
21.9410481821
 10
10.2115155889
 20
21.9204645317
 10
10.2119468638
 20
21.8998857286
  0
LWPOLYLINE
  5
3F7
100
AcDbEntity
  8
0
100
AcDbPolyline
 62
7
  6
CONTINUOUS
 90
5
 70
0
 43
0.3500000087
 10
-44.201799646
 20
45.0109518066
 10
-43.8446582672
 20
45.2252383392
 10
-43.8446582672
 20
45.8680936737
 10
-44.201799646
 20
46.2966667389
 10
-45.0589415131
 20
46.2966667389
  0
LWPOLYLINE
  5
3F8
100
AcDbEntity
  8
RACCORDO
100
AcDbPolyline
 62
7
  6
CONTINUOUS
 90
5
 70
0
 10
-52.1179054548
 20
23.1259025536
 10
-52.1202215794
 20
23.1245164325
 10
-52.1218844636
 20
23.1234933505
 10
-52.122890497
 20
23.1228641607
 10
-52.1232278343
 20
23.1226497308
  0
LINE
  5
3F9
100
AcDbEntity
  8
RACCORDO
100
AcDbLine
 62
7
  6
CONTINUOUS
 10
-52.1072977705
 20
23.1321470947
 11
-52.1179054548
 21
23.1259025536
  0
LINE
  5
3FA
100
AcDbEntity
  8
RACCORDO
100
AcDbLine
 62
250
  6
CONTINUOUS
 10
-50.6232278343
 20
23.4104851482
 11
-49.8717734014
 21
23.8443375673
  0
LINE
  5
3FB
100
AcDbEntity
  8
RACCORDO
100
AcDbLine
 62
7
  6
CONTINUOUS
 10
-50.6232278343
 20
23.1226497308
 11
-49.7482278343
 21
23.6278312164
  0
LINE
  5
3FC
100
AcDbEntity
  8
RACCORDO
100
AcDbLine
 62
7
  6
CONTINUOUS
 10
-51.8855273034
 20
23.260745719
 11
-52.1072977705
 21
23.1321470947
  0
LINE
  5
3FD
100
AcDbEntity
  8
RACCORDO
100
AcDbLine
 62
7
  6
CONTINUOUS
 10
-51.8746822671
 20
23.2669872981
 11
-51.8855273034
 21
23.260745719
  0
LINE
  5
3FE
100
AcDbEntity
  8
RACCORDO
100
AcDbLine
 62
250
  6
CONTINUOUS
 10
-49.8717734014
 20
-23.8443375673
 11
-50.6232278343
 21
-23.4104851482
  0
LINE
  5
3FF
100
AcDbEntity
  8
RACCORDO
100
AcDbLine
 62
7
  6
CONTINUOUS
 10
-49.7482278343
 20
-23.6278312164
 11
-50.6232278343
 21
-23.1226497308
  0
LINE
  5
400
100
AcDbEntity
  8
RACCORDO
100
AcDbLine
 62
7
  6
CONTINUOUS
 10
-52.1149338363
 20
-23.1276610792
 11
-51.8746822671
 21
-23.2669872981
  0
LWPOLYLINE
  5
401
100
AcDbEntity
  8
RACCORDO
100
AcDbPolyline
 62
7
  6
CONTINUOUS
 90
4
 70
0
 10
-52.1232278343
 20
-23.1226497308
 10
-52.1228883298
 20
-23.1229033082
 10
-52.1218769594
 20
-23.123528707
 10
-52.1149338363
 20
-23.1276610792
  0
LINE
  5
402
100
AcDbEntity
  8
RACCORDO
100
AcDbLine
 62
7
  6
CONTINUOUS
 10
-49.8717734014
 20
-24.495628166
 11
-50.6232278343
 21
-24.5
  0
LINE
  5
403
100
AcDbEntity
  8
RACCORDO
100
AcDbLine
 62
250
  6
CONTINUOUS
 10
-49.8717734014
 20
-24.2456323968
 11
-50.6232278343
 21
-24.2500042308
  0
LINE
  5
404
100
AcDbEntity
  8
ASSI
100
AcDbLine
 62
7
  6
CONTINUOUS
 10
-49.6283189259
 20
-23.7942117893
 11
-43.1203189686
 21
-23.7563493531
  0
LINE
  5
405
100
AcDbEntity
  8
RACCORDO
100
AcDbLine
 62
250
  6
CONTINUOUS
 10
-49.6232278343
 20
-24.2456323968
 11
-49.8717734014
 21
-24.2456323968
  0
LINE
  5
406
100
AcDbEntity
  8
RACCORDO
100
AcDbLine
 62
250
  6
CONTINUOUS
 10
-53.1232278343
 20
-24.2369056521
 11
-52.8746822671
 21
-24.2369056521
  0
LINE
  5
407
100
AcDbEntity
  8
RACCORDO
100
AcDbLine
 62
250
  6
CONTINUOUS
 10
-53.1232278343
 20
-23.8443375673
 11
-52.8746822671
 21
-23.8443375673
  0
LINE
  5
408
100
AcDbEntity
  8
RACCORDO
100
AcDbLine
 62
250
  6
CONTINUOUS
 10
-49.6232278343
 20
-23.8443375673
 11
-49.8717734014
 21
-23.8443375673
  0
LINE
  5
409
100
AcDbEntity
  8
RACCORDO
100
AcDbLine
 62
7
  6
CONTINUOUS
 10
-50.6232278343
 20
-24.5
 11
-52.8746822671
 21
-24.4869014213
  0
LINE
  5
40A
100
AcDbEntity
  8
RACCORDO
100
AcDbLine
 62
250
  6
CONTINUOUS
 10
-50.6232278343
 20
-24.2500042308
 11
-52.8746822671
 21
-24.2369056521
  0
LINE
  5
40B
100
AcDbEntity
  8
RACCORDO
100
AcDbLine
 62
7
  6
CONTINUOUS
 10
-51.9795887984
 20
-22.3288083558
 11
-51.9070943596
 21
-22.3318193863
  0
LINE
  5
40C
100
AcDbEntity
  8
RACCORDO
100
AcDbLine
 62
7
  6
CONTINUOUS
 10
-51.9987709763
 20
-22.3279108386
 11
-51.9795887984
 21
-22.3288083558
  0
LINE
  5
40D
100
AcDbEntity
  8
RACCORDO
100
AcDbLine
 62
7
  6
CONTINUOUS
 10
-51.9070943596
 20
-22.3318193863
 11
-51.8855146565
 21
-22.3328534742
  0
LINE
  5
40E
100
AcDbEntity
  8
RACCORDO
100
AcDbLine
 62
7
  6
CONTINUOUS
 10
-51.9987709763
 20
-22.3279108386
 11
-58.2800067232
 21
-21.998725222
  0
LINE
  5
40F
100
AcDbEntity
  8
RACCORDO
100
AcDbLine
 62
7
  6
CONTINUOUS
 10
-50.6232278343
 20
-22.3997080771
 11
-51.8855146565
 21
-22.3328534742
  0
LWPOLYLINE
  5
410
100
AcDbEntity
  8
RACCORDO
100
AcDbPolyline
 62
250
  6
CONTINUOUS
 90
5
 70
0
 10
-52.9957327373
 20
23.6326756587
 10
-52.9968648896
 20
23.6305852658
 10
-52.997659415
 20
23.6290785857
 10
-52.9981141438
 20
23.6281597328
 10
-52.9982278343
 20
23.6278312164
  0
LINE
  5
411
100
AcDbEntity
  8
RACCORDO
100
AcDbLine
 62
250
  6
CONTINUOUS
 10
-52.9924688321
 20
23.6385831707
 11
-52.9957327373
 21
23.6326756587
  0
LINE
  5
412
100
AcDbEntity
  8
RACCORDO
100
AcDbLine
 62
250
  6
CONTINUOUS
 10
-52.9851475076
 20
23.6516287232
 11
-52.9924688321
 21
23.6385831707
  0
LINE
  5
413
100
AcDbEntity
  8
RACCORDO
100
AcDbLine
 62
250
  6
CONTINUOUS
 10
-52.9625148536
 20
23.6914666374
 11
-52.9851475076
 21
23.6516287232
  0
LINE
  5
414
100
AcDbEntity
  8
RACCORDO
100
AcDbLine
 62
250
  6
CONTINUOUS
 10
-52.8877158926
 20
23.8217481519
 11
-52.9625148536
 21
23.6914666374
  0
LINE
  5
415
100
AcDbEntity
  8
RACCORDO
100
AcDbLine
 62
250
  6
CONTINUOUS
 10
-52.8746822671
 20
23.8443375673
 11
-52.8877158926
 21
23.8217481519
  0
LINE
  5
416
100
AcDbEntity
  8
RACCORDO
100
AcDbLine
 62
7
  6
CONTINUOUS
 10
-40.6145012988
 20
-22.3126551668
 11
-50.6232278343
 21
-22.4
  0
LINE
  5
417
100
AcDbEntity
  8
RACCORDO
100
AcDbLine
 62
250
  6
CONTINUOUS
 10
-49.6232278343
 20
-21.8911779406
 11
-50.6210415053
 21
-21.8998857286
  0
LINE
  5
418
100
AcDbEntity
  8
RACCORDO
100
AcDbLine
 62
7
  6
CONTINUOUS
 10
-39.6232278343
 20
-20.6
 11
-49.1232278343
 21
-20.6
  0
LINE
  5
419
100
AcDbEntity
  8
RACCORDO
100
AcDbLine
 62
7
  6
CONTINUOUS
 10
-40.114501631
 20
-21.5659754333
 11
-49.1232278343
 21
-21.4087275325
  0
LINE
  5
41A
100
AcDbEntity
  8
RACCORDO
100
AcDbLine
 62
250
  6
CONTINUOUS
 10
-58.2625649482
 20
-21.4994104546
 11
-50.6210415053
 21
-21.8998857286
  0
LINE
  5
41B
100
AcDbEntity
  8
RACCORDO
100
AcDbLine
 62
250
  6
CONTINUOUS
 10
-52.8746822671
 20
-23.8443375673
 11
-52.9578145098
 21
-23.6996987826
  0
LINE
  5
41C
100
AcDbEntity
  8
RACCORDO
100
AcDbLine
 62
250
  6
CONTINUOUS
 10
-52.9578145098
 20
-23.6996987826
 11
-52.9820827378
 21
-23.6570529269
  0
LINE
  5
41D
100
AcDbEntity
  8
RACCORDO
100
AcDbLine
 62
250
  6
CONTINUOUS
 10
-52.9820827378
 20
-23.6570529269
 11
-52.9903444038
 21
-23.6423869945
  0
LWPOLYLINE
  5
41E
100
AcDbEntity
  8
RACCORDO
100
AcDbPolyline
 62
250
  6
CONTINUOUS
 90
7
 70
0
 10
-52.9903444038
 20
-23.6423869945
 10
-52.994265257
 20
-23.6353454907
 10
-52.9957322318
 20
-23.6326765842
 10
-52.9968646078
 20
-23.6305857918
 10
-52.9976592934
 20
-23.6290788219
 10
-52.9981141162
 20
-23.6281597935
 10
-52.9982278343
 20
-23.6278312164
  0
LWPOLYLINE
  5
41F
100
AcDbEntity
  8
RACCORDO
100
AcDbPolyline
 62
250
  6
CONTINUOUS
 90
43
 70
0
 10
-59.2093830039
 20
-20.5419058565
 10
-59.2073116787
 20
-20.577070887
 10
-59.2040173723
 20
-20.6120598682
 10
-59.1995000846
 20
-20.6468728001
 10
-59.193751216
 20
-20.6815535638
 10
-59.1867793662
 20
-20.7160582781
 10
-59.1786103339
 20
-20.7502552997
 10
-59.1692396222
 20
-20.784142487
 10
-59.158671728
 20
-20.8177219815
 10
-59.1469459404
 20
-20.8508685638
 10
-59.1340580523
 20
-20.8835802529
 10
-59.1200122709
 20
-20.9158590299
 10
-59.1048605073
 20
-20.9475856177
 10
-59.0885986657
 20
-20.978758035
 10
-59.0712308419
 20
-21.0093782631
 10
-59.0528212354
 20
-21.0393329696
 10
-59.0333658941
 20
-21.0686198031
 10
-59.0128687701
 20
-21.0972411149
 10
-58.9914059182
 20
-21.1250906265
 10
-58.9689738168
 20
-21.1521653752
 10
-58.9455759875
 20
-21.1784683236
 10
-58.9212990502
 20
-21.2039020815
 10
-58.8961397565
 20
-21.2284634282
 10
-58.8701013547
 20
-21.2521555843
 10
-58.8432802101
 20
-21.2748908223
 10
-58.8156733233
 20
-21.2966656572
 10
-58.7872836936
 20
-21.3174835739
 10
-58.7582166838
 20
-21.3372673002
 10
-58.7284698751
 20
-21.3560129244
 10
-58.6980456863
 20
-21.3737243582
 10
-58.6670567367
 20
-21.3903360643
 10
-58.6355010021
 20
-21.4058439663
 10
-58.6033805067
 20
-21.4202521407
 10
-58.570813942
 20
-21.4335072799
 10
-58.5377992699
 20
-21.4456051921
 10
-58.5043385285
 20
-21.4565500692
 10
-58.4705565241
 20
-21.4663011785
 10
-58.4364505121
 20
-21.4748540831
 10
-58.4020232371
 20
-21.48221322
 10
-58.3674077392
 20
-21.4883511677
 10
-58.3326483651
 20
-21.4932587858
 10
-58.2977007681
 20
-21.4969452148
 10
-58.2625649482
 20
-21.4994104546
  0
LWPOLYLINE
  5
420
100
AcDbEntity
  8
RACCORDO
100
AcDbPolyline
 62
250
  6
CONTINUOUS
 90
22
 70
0
 10
-59.2093830039
 20
20.5419058565
 10
-59.2860325868
 20
18.5864352848
 10
-59.3550188032
 20
16.6307393342
 10
-59.4163416532
 20
14.6748180047
 10
-59.4700018446
 20
12.7186412172
 10
-59.5159986697
 20
10.7622390509
 10
-59.5543300047
 20
8.8057017423
 10
-59.5849954946
 20
6.8490293382
 10
-59.6079954945
 20
4.892221792
 10
-59.6233289457
 20
2.9353691998
 10
-59.6309954952
 20
0.9784715631
 10
-59.6309954961
 20
-0.9784711195
 10
-59.6233289483
 20
-2.9353687563
 10
-59.6079954988
 20
-4.8922213487
 10
-59.5849955007
 20
-6.8490288953
 10
-59.5543300125
 20
-8.8057012996
 10
-59.5159986799
 20
-10.7622385921
 10
-59.4700018572
 20
-12.7186407425
 10
-59.4163416661
 20
-14.6748175628
 10
-59.3550188138
 20
-16.6307389907
 10
-59.2860325931
 20
-18.5864350886
 10
-59.2093830039
 20
-20.5419058565
  0
LINE
  5
421
100
AcDbEntity
  8
RACCORDO
100
AcDbLine
 62
7
  6
CONTINUOUS
 10
-49.0200696767
 20
19.0031581576
 11
-49.1232278343
 21
18.9
  0
LINE
  5
422
100
AcDbEntity
  8
SUPERFICI
100
AcDbLine
 62
7
  6
CONTINUOUS
 10
-49.0200696767
 20
19.0031581576
 11
-49.1232278343
 21
18.9
  0
LINE
  5
423
100
AcDbEntity
  8
RACCORDO
100
AcDbLine
 62
250
  6
CONTINUOUS
 10
-48.7357381944
 20
19.0046469274
 11
-48.8428320983
 21
18.8975530235
  0
LINE
  5
424
100
AcDbEntity
  8
SUPERFICI
100
AcDbLine
 62
250
  6
CONTINUOUS
 10
-48.7357381944
 20
19.0046469274
 11
-48.8428320983
 21
18.8975530235
  0
LINE
  5
425
100
AcDbEntity
  8
RACCORDO
100
AcDbLine
 62
250
  6
CONTINUOUS
 10
-59.6996809774
 20
-20.5624286676
 11
-59.700233642
 21
-20.562468318
  0
LINE
  5
426
100
AcDbEntity
  8
RACCORDO
100
AcDbLine
 62
250
  6
CONTINUOUS
 10
-59.6952628388
 20
-20.5622131621
 11
-59.6996809774
 21
-20.5624286676
  0
LINE
  5
427
100
AcDbEntity
  8
RACCORDO
100
AcDbLine
 62
250
  6
CONTINUOUS
 10
-59.2093830039
 20
-20.5419058565
 11
-59.6952628388
 21
-20.5622131621
  0
LINE
  5
428
100
AcDbEntity
  8
RACCORDO
100
AcDbLine
 62
250
  6
CONTINUOUS
 10
-49.6232278343
 20
-18.7930455469
 11
-49.1232278343
 21
-18.7843180144
  0
LINE
  5
429
100
AcDbEntity
  8
RACCORDO
100
AcDbLine
 62
7
  6
CONTINUOUS
 10
-49.1232278343
 20
-18.9
 11
-22.6145012988
 21
-18.6686618482
  0
LINE
  5
42A
100
AcDbEntity
  8
SUPERFICI
100
AcDbLine
 62
7
  6
CONTINUOUS
 10
-49.1232278343
 20
-18.9
 11
-22.6145012988
 21
-18.6686618482
  0
LINE
  5
42B
100
AcDbEntity
  8
RACCORDO
100
AcDbLine
 62
7
  6
CONTINUOUS
 10
-40.1206098523
 20
-19.0497560461
 11
-49.1232278387
 21
-19.0026180178
  0
LINE
  5
42C
100
AcDbEntity
  8
RACCORDO
100
AcDbLine
 62
7
  6
CONTINUOUS
 10
-49.1232278343
 20
-18.9
 11
-49.0200696767
 21
-19.0031581576
  0
LINE
  5
42D
100
AcDbEntity
  8
SUPERFICI
100
AcDbLine
 62
7
  6
CONTINUOUS
 10
-49.1232278343
 20
-18.9
 11
-49.0200696767
 21
-19.0031581576
  0
LINE
  5
42E
100
AcDbEntity
  8
RACCORDO
100
AcDbLine
 62
250
  6
CONTINUOUS
 10
-48.8428320983
 20
-18.8975530235
 11
-48.7357381944
 21
-19.0046469274
  0
LINE
  5
42F
100
AcDbEntity
  8
SUPERFICI
100
AcDbLine
 62
250
  6
CONTINUOUS
 10
-48.8428320983
 20
-18.8975530235
 11
-48.7357381944
 21
-19.0046469274
  0
LINE
  5
430
100
AcDbEntity
  8
RACCORDO
100
AcDbLine
 62
250
  6
CONTINUOUS
 10
-58.2650107071
 20
21.546845835
 11
-58.2706368801
 21
21.6626289348
  0
LINE
  5
431
100
AcDbEntity
  8
RACCORDO
100
AcDbLine
 62
250
  6
CONTINUOUS
 10
-58.2706368801
 20
21.6626289348
 11
-58.2753171234
 21
21.7692209469
  0
LINE
  5
432
100
AcDbEntity
  8
RACCORDO
100
AcDbLine
 62
250
  6
CONTINUOUS
 10
-58.2753171234
 20
21.7692209469
 11
-58.2782009542
 21
21.8438171408
  0
LINE
  5
433
100
AcDbEntity
  8
RACCORDO
100
AcDbLine
 62
250
  6
CONTINUOUS
 10
-58.2782009542
 20
21.8438171408
 11
-58.2797911886
 21
21.891736139
  0
LINE
  5
434
100
AcDbEntity
  8
RACCORDO
100
AcDbLine
 62
250
  6
CONTINUOUS
 10
-58.2797911886
 20
21.891736139
 11
-58.2805597363
 21
21.9193039439
  0
LWPOLYLINE
  5
435
100
AcDbEntity
  8
RACCORDO
100
AcDbPolyline
 62
250
  6
CONTINUOUS
 90
12
 70
0
 10
-58.2805597363
 20
21.9193039439
 10
-58.2810865757
 20
21.943073546
 10
-58.2812577787
 20
21.9534654325
 10
-58.2813669411
 20
21.9628299339
 10
-58.2814138157
 20
21.9711458612
 10
-58.2813982964
 20
21.9783943981
 10
-58.2813204185
 20
21.9845591434
 10
-58.2811803581
 20
21.989626148
 10
-58.2809784321
 20
21.993583947
 10
-58.2807150975
 20
21.9964235851
 10
-58.28039095
 20
21.9981386369
 10
-58.2800067231
 20
21.998725222
  0
LWPOLYLINE
  5
436
100
AcDbEntity
  8
RACCORDO
100
AcDbPolyline
 62
250
  6
CONTINUOUS
 90
10
 70
0
 10
-58.2812577786
 20
-21.9534654446
 10
-58.2813669409
 20
-21.9628299437
 10
-58.2814138154
 20
-21.971145869
 10
-58.2813982962
 20
-21.9783944039
 10
-58.2813204183
 20
-21.9845591475
 10
-58.2811803579
 20
-21.9896261507
 10
-58.2809784319
 20
-21.9935839485
 10
-58.2807150973
 20
-21.9964235857
 10
-58.2803909499
 20
-21.9981386371
 10
-58.2800067232
 20
-21.998725222
  0
LINE
  5
437
100
AcDbEntity
  8
RACCORDO
100
AcDbLine
 62
250
  6
CONTINUOUS
 10
-58.2808537193
 20
-21.931677805
 11
-58.2812577786
 21
-21.9534654446
  0
LINE
  5
438
100
AcDbEntity
  8
RACCORDO
100
AcDbLine
 62
250
  6
CONTINUOUS
 10
-58.2802052924
 20
-21.9059800332
 11
-58.2808537193
 21
-21.931677805
  0
LINE
  5
439
100
AcDbEntity
  8
RACCORDO
100
AcDbLine
 62
250
  6
CONTINUOUS
 10
-58.2787878852
 20
-21.860619528
 11
-58.2802052924
 21
-21.9059800332
  0
LINE
  5
43A
100
AcDbEntity
  8
RACCORDO
100
AcDbLine
 62
250
  6
CONTINUOUS
 10
-58.276863175
 20
-21.8079143822
 11
-58.2787878852
 21
-21.860619528
  0
LINE
  5
43B
100
AcDbEntity
  8
RACCORDO
100
AcDbLine
 62
250
  6
CONTINUOUS
 10
-58.2735767883
 20
-21.728086971
 11
-58.276863175
 21
-21.8079143822
  0
LINE
  5
43C
100
AcDbEntity
  8
RACCORDO
100
AcDbLine
 62
250
  6
CONTINUOUS
 10
-58.2684831947
 20
-21.6170612672
 11
-58.2735767883
 21
-21.728086971
  0
LINE
  5
43D
100
AcDbEntity
  8
RACCORDO
100
AcDbLine
 62
250
  6
CONTINUOUS
 10
-58.2650107075
 20
-21.5468458451
 11
-58.2684831947
 21
-21.6170612672
  0
LWPOLYLINE
  5
43E
100
AcDbEntity
  8
RACCORDO
100
AcDbPolyline
 62
7
  6
CONTINUOUS
 90
13
 70
0
 10
-50.6233758071
 20
22.3996911987
 10
-50.6237902047
 20
22.3984729571
 10
-50.6241673068
 20
22.3963249714
 10
-50.6245064144
 20
22.3932464793
 10
-50.6248013353
 20
22.3892336316
 10
-50.6250568166
 20
22.3842921097
 10
-50.6252884999
 20
22.3784469767
 10
-50.6255005169
 20
22.3717193008
 10
-50.6256871415
 20
22.3641212181
 10
-50.6258491848
 20
22.3556775522
 10
-50.625985654
 20
22.3464234757
 10
-50.6260959795
 20
22.3363704364
 10
-50.6262419255
 20
22.3138304621
  0
LINE
  5
43F
100
AcDbEntity
  8
RACCORDO
100
AcDbLine
 62
250
  6
CONTINUOUS
 10
-49.6232278343
 20
-18.0856341328
 11
-49.1232278343
 21
-18.0769066003
  0
LWPOLYLINE
  5
440
100
AcDbEntity
  8
RACCORDO
100
AcDbPolyline
 62
250
  6
CONTINUOUS
 90
6
 70
0
 10
-52.8746822671
 20
-24.4869014213
 10
-52.8747564047
 20
-24.4865582323
 10
-52.874826351
 20
-24.4855304893
 10
-52.8748919143
 20
-24.4838210061
 10
-52.8749529148
 20
-24.4814344634
 10
-52.8750091852
 20
-24.4783774023
  0
LINE
  5
441
100
AcDbEntity
  8
RACCORDO
100
AcDbLine
 62
250
  6
CONTINUOUS
 10
-58.2625649482
 20
21.4994104546
 11
-58.2650107071
 21
21.546845835
  0
LINE
  5
442
100
AcDbEntity
  8
RACCORDO
100
AcDbLine
 62
250
  6
CONTINUOUS
 10
-58.2625649482
 20
-21.4994104546
 11
-58.2650107075
 21
-21.5468458451
  0
LINE
  5
443
100
AcDbEntity
  8
CURVE
100
AcDbLine
 62
7
420
10991288
  6
CONTINUOUS
 10
-43.632094732
 20
15.999605
 11
-46.53187389
 21
14.99154
  0
LINE
  5
444
100
AcDbEntity
  8
CURVE
100
AcDbLine
 62
7
420
10991288
  6
CONTINUOUS
 10
-44.2466869257
 20
15.164189
 11
-43.632094732
 21
15.373179
  0
LINE
  5
445
100
AcDbEntity
  8
CURVE
100
AcDbLine
 62
7
420
10991288
  6
CONTINUOUS
 10
-45.977593103
 20
14.606054
 11
-44.7285832254
 21
15.007474
  0
LINE
  5
446
100
AcDbEntity
  8
RACCORDO
100
AcDbLine
 62
250
  6
CONTINUOUS
 10
-49.1232278343
 20
-15.4001332693
 11
-22.6145012988
 21
-15.1687951175
  0
LINE
  5
447
100
AcDbEntity
  8
SUPERFICI
100
AcDbLine
 62
250
  6
CONTINUOUS
 10
-49.1232278343
 20
-15.4001332693
 11
-22.6145012988
 21
-15.1687951175
  0
LINE
  5
448
100
AcDbEntity
  8
0
100
AcDbLine
 62
7
  6
CONTINUOUS
 10
-21.6232278343
 20
-16.1
 11
-21.4232278343
 21
-16.1
  0
LINE
  5
449
100
AcDbEntity
  8
SUPERFICI
100
AcDbLine
 62
7
  6
CONTINUOUS
 10
-21.6232278343
 20
-16.1
 11
-21.4232278343
 21
-16.1
  0
LINE
  5
44A
100
AcDbEntity
  8
RACCORDO
100
AcDbLine
 62
250
  6
CONTINUOUS
 10
-21.6232278343
 20
-15.1687951175
 11
-22.6145012988
 21
-15.1687951167
  0
LINE
  5
44B
100
AcDbEntity
  8
SUPERFICI
100
AcDbLine
 62
250
  6
CONTINUOUS
 10
-21.6232278343
 20
-15.1687951175
 11
-22.6145012988
 21
-15.1687951167
  0
LINE
  5
44C
100
AcDbEntity
  8
CURVE
100
AcDbLine
 62
250
  6
CONTINUOUS
 10
-40.9413046906
 20
-15.0
 11
-39.6414036887
 21
-15.0
  0
LINE
  5
44D
100
AcDbEntity
  8
CURVE
100
AcDbLine
 62
250
  6
CONTINUOUS
 10
-32.9419139099
 20
-14.7523809478
 11
-31.6420129081
 21
-14.7523809478
  0
LINE
  5
44E
100
AcDbEntity
  8
CURVE
100
AcDbLine
 62
250
  6
CONTINUOUS
 10
-39.8271038401
 20
-14.35
 11
-40.7556045585
 21
-14.35
  0
LINE
  5
44F
100
AcDbEntity
  8
CURVE
100
AcDbLine
 62
250
  6
CONTINUOUS
 10
-46.5233658343
 20
-14.137714
 11
-44.5264688343
 21
-14.778839
  0
LINE
  5
450
100
AcDbEntity
  8
CURVE
100
AcDbLine
 62
250
  6
CONTINUOUS
 10
-43.6232348343
 20
-14.488824
 11
-46.5233658343
 21
-13.557685
  0
LINE
  5
451
100
AcDbEntity
  8
RACCORDO
100
AcDbLine
 62
250
  6
CONTINUOUS
 10
-52.8750091852
 20
-24.4783774023
 11
-52.8751069311
 21
-24.4702870977
  0
LINE
  5
452
100
AcDbEntity
  8
RACCORDO
100
AcDbLine
 62
250
  6
CONTINUOUS
 10
-52.8751069311
 20
-24.4702870977
 11
-52.8752146584
 21
-24.4533908148
  0
LINE
  5
453
100
AcDbEntity
  8
RACCORDO
100
AcDbLine
 62
7
  6
CONTINUOUS
 10
-53.1232278343
 20
-24.2369056521
 11
-53.1232278343
 21
-23.8443375673
  0
LINE
  5
454
100
AcDbEntity
  8
RACCORDO
100
AcDbLine
 62
7
  6
CONTINUOUS
 10
-53.1232278343
 20
23.8443375673
 11
-53.1232278343
 21
24.2369056521
  0
LINE
  5
455
100
AcDbEntity
  8
RACCORDO
100
AcDbLine
 62
250
  6
CONTINUOUS
 10
-52.8752145958
 20
24.4534055187
 11
-52.8751068622
 21
24.4702944842
  0
LWPOLYLINE
  5
456
100
AcDbEntity
  8
RACCORDO
100
AcDbPolyline
 62
250
  6
CONTINUOUS
 90
7
 70
0
 10
-52.8751068622
 20
24.4702944842
 10
-52.8750091249
 20
24.4783811971
 10
-52.8749528626
 20
24.4814368893
 10
-52.8748918722
 20
24.4838223673
 10
-52.8748263211
 20
24.4855310928
 10
-52.8747563889
 20
24.4865583827
 10
-52.8746822671
 20
24.4869014213
  0
LWPOLYLINE
  5
457
100
AcDbEntity
  8
0
100
AcDbPolyline
 62
7
  6
CONTINUOUS
 90
3
 70
0
 43
0.3500000087
 10
-39.844654361
 20
43.5823820282
 10
-39.9160860474
 20
43.3680954956
 10
-40.0589408936
 20
43.0823815399
  0
LINE
  5
458
100
AcDbEntity
  8
CURVE
100
AcDbLine
 62
7
  6
CONTINUOUS
 10
-45.8580688118
 20
12.328359
 11
-45.2756248118
 21
12.910803
  0
LINE
  5
459
100
AcDbEntity
  8
CURVE
100
AcDbLine
 62
7
  6
CONTINUOUS
 10
-44.6238160898
 20
13.562611722
 11
-44.19073011
 21
13.9956977018
  0
LINE
  5
45A
100
AcDbEntity
  8
CURVE
100
AcDbLine
 62
7
420
10991288
  6
CONTINUOUS
 10
-46.53187389
 20
11.215744
 11
-44.2339358968
 21
12.328359
  0
LINE
  5
45B
100
AcDbEntity
  8
CURVE
100
AcDbLine
 62
250
  6
CONTINUOUS
 10
-32.9419139099
 20
-14.1642857254
 11
-31.6420129081
 21
-14.1642857254
  0
LINE
  5
45C
100
AcDbEntity
  8
CURVE
100
AcDbLine
 62
250
  6
CONTINUOUS
 10
-40.9413046906
 20
-13.5761904836
 11
-39.6414036887
 21
-13.5761904836
  0
LINE
  5
45D
100
AcDbEntity
  8
0
100
AcDbLine
 62
7
  6
CONTINUOUS
 10
-21.6232278343
 20
-13.4722431864
 11
-21.4232278343
 21
-13.4722431864
  0
LINE
  5
45E
100
AcDbEntity
  8
SUPERFICI
100
AcDbLine
 62
7
  6
CONTINUOUS
 10
-21.6232278343
 20
-13.4722431864
 11
-21.4232278343
 21
-13.4722431864
  0
LINE
  5
45F
100
AcDbEntity
  8
CURVE
100
AcDbLine
 62
250
  6
CONTINUOUS
 10
-32.7562137779
 20
-13.2357143521
 11
-31.8277130595
 21
-13.2357143521
  0
LINE
  5
460
100
AcDbEntity
  8
CURVE
100
AcDbLine
 62
250
  6
CONTINUOUS
 10
-46.5233658343
 20
-13.171006
 11
-43.6232278343
 21
-13.171014
  0
LINE
  5
461
100
AcDbEntity
  8
CURVE
100
AcDbLine
 62
250
  6
CONTINUOUS
 10
-40.9413046906
 20
-12.9880951643
 11
-39.6414036887
 21
-12.9880951643
  0
LINE
  5
462
100
AcDbEntity
  8
0
100
AcDbLine
 62
250
  6
CONTINUOUS
 10
-28.2603372252
 20
-12.76459
 11
-27.4898405645
 21
-12.76459
  0
LINE
  5
463
100
AcDbEntity
  8
0
100
AcDbLine
 62
250
  6
CONTINUOUS
 10
-23.9565911049
 20
-12.76459
 11
-23.1860944442
 21
-12.76459
  0
LINE
  5
464
100
AcDbEntity
  8
CURVE
100
AcDbLine
 62
250
  6
CONTINUOUS
 10
-43.6232348343
 20
-12.590992
 11
-46.5233658343
 21
-12.590985
  0
LINE
  5
465
100
AcDbEntity
  8
CURVE
100
AcDbLine
 62
250
  6
CONTINUOUS
 10
-40.3842042944
 20
-12.3380951643
 11
-40.7556045585
 21
-12.3380951643
  0
LWPOLYLINE
  5
466
100
AcDbEntity
  8
RACCORDO
100
AcDbPolyline
 62
7
  6
CONTINUOUS
 90
11
 70
0
 10
-50.625985654
 20
-22.3464234757
 10
-50.6258491848
 20
-22.3556775522
 10
-50.6256871415
 20
-22.3641212181
 10
-50.6255005169
 20
-22.3717193008
 10
-50.6252884999
 20
-22.3784469767
 10
-50.6250568166
 20
-22.3842921097
 10
-50.6248013353
 20
-22.3892336316
 10
-50.6245064144
 20
-22.3932464793
 10
-50.6241673068
 20
-22.3963249714
 10
-50.6237902047
 20
-22.3984729571
 10
-50.6233758071
 20
-22.3996911987
  0
LINE
  5
467
100
AcDbEntity
  8
RACCORDO
100
AcDbLine
 62
250
  6
CONTINUOUS
 10
-52.8746822671
 20
24.2369056521
 11
-52.875273411
 21
24.3942302379
  0
LINE
  5
468
100
AcDbEntity
  8
RACCORDO
100
AcDbLine
 62
250
  6
CONTINUOUS
 10
-52.8746822671
 20
-24.2369056521
 11
-52.8746822671
 21
-23.8443375673
  0
LINE
  5
469
100
AcDbEntity
  8
RACCORDO
100
AcDbLine
 62
250
  6
CONTINUOUS
 10
-52.8746822671
 20
23.8443375673
 11
-52.8746822671
 21
24.2369056521
  0
LINE
  5
46A
100
AcDbEntity
  8
RACCORDO
100
AcDbLine
 62
7
  6
CONTINUOUS
 10
-52.1232278343
 20
-23.1226497308
 11
-52.1232278343
 21
-22.3213883311
  0
LINE
  5
46B
100
AcDbEntity
  8
RACCORDO
100
AcDbLine
 62
7
  6
CONTINUOUS
 10
-52.1232278343
 20
22.3213883311
 11
-52.1232278343
 21
23.1226497308
  0
LINE
  5
46C
100
AcDbEntity
  8
RACCORDO
100
AcDbLine
 62
250
  6
CONTINUOUS
 10
-51.8746822671
 20
-23.2669872981
 11
-51.8746822671
 21
-22.3334109614
  0
LINE
  5
46D
100
AcDbEntity
  8
RACCORDO
100
AcDbLine
 62
250
  6
CONTINUOUS
 10
-51.8746822671
 20
22.3334109614
 11
-51.8746822671
 21
23.2669872981
  0
LINE
  5
46E
100
AcDbEntity
  8
RACCORDO
100
AcDbLine
 62
250
  6
CONTINUOUS
 10
-52.8752146584
 20
-24.4533908148
 11
-52.8752818395
 21
-24.4041482289
  0
LWPOLYLINE
  5
46F
100
AcDbEntity
  8
RACCORDO
100
AcDbPolyline
 62
250
  6
CONTINUOUS
 90
3
 70
0
 10
-52.875273411
 20
24.3942302379
 10
-52.8752397331
 20
24.4465668272
 10
-52.8752145958
 20
24.4534055187
  0
LINE
  5
470
100
AcDbEntity
  8
RACCORDO
100
AcDbLine
 62
250
  6
CONTINUOUS
 10
-52.8752818395
 20
-24.4041482289
 11
-52.8748260406
 21
-24.2629828864
  0
LINE
  5
471
100
AcDbEntity
  8
RACCORDO
100
AcDbLine
 62
250
  6
CONTINUOUS
 10
-52.8748260406
 20
-24.2629828864
 11
-52.8746822671
 21
-24.2369056521
  0
LINE
  5
472
100
AcDbEntity
  8
CURVE
100
AcDbLine
 62
250
  6
CONTINUOUS
 10
-40.3842042944
 20
14.8071429014
 11
-40.1985041236
 21
14.9928570986
  0
LINE
  5
473
100
AcDbEntity
  8
CURVE
100
AcDbLine
 62
250
  6
CONTINUOUS
 10
-40.9413046906
 20
14.8071429014
 11
-40.7556045585
 21
14.9619048357
  0
LINE
  5
474
100
AcDbEntity
  8
CURVE
100
AcDbLine
 62
250
  6
CONTINUOUS
 10
-40.9413046906
 20
13.1357143521
 11
-40.7556045585
 21
13.2904761314
  0
LINE
  5
475
100
AcDbEntity
  8
CURVE
100
AcDbLine
 62
250
  6
CONTINUOUS
 10
-36.7963822657
 20
13.8738096714
 11
-36.8582823194
 21
13.8428570986
  0
LINE
  5
476
100
AcDbEntity
  8
CURVE
100
AcDbLine
 62
250
  6
CONTINUOUS
 10
-36.7654322437
 20
13.75
 11
-36.7035321948
 21
13.7809522629
  0
LINE
  5
477
100
AcDbEntity
  8
CURVE
100
AcDbLine
 62
7
420
10991288
  6
CONTINUOUS
 10
-43.632094732
 20
12.027151
 11
-46.0590139021
 21
10.874375
  0
LINE
  5
478
100
AcDbEntity
  8
CURVE
100
AcDbLine
 62
7
420
10991288
  6
CONTINUOUS
 10
-43.632094732
 20
9.974679
 11
-46.53187389
 21
8.966505
  0
LINE
  5
479
100
AcDbEntity
  8
CURVE
100
AcDbLine
 62
250
  6
CONTINUOUS
 10
-46.5233658343
 20
-12.010985
 11
-43.6232348343
 21
-12.010985
  0
LINE
  5
47A
100
AcDbEntity
  8
CURVE
100
AcDbLine
 62
250
  6
CONTINUOUS
 10
-40.9413046906
 20
-11.96666677
 11
-39.6414036887
 21
-11.96666677
  0
LINE
  5
47B
100
AcDbEntity
  8
CURVE
100
AcDbLine
 62
250
  6
CONTINUOUS
 10
-43.6232348343
 20
-11.430963
 11
-45.5356768343
 21
-11.430963
  0
LINE
  5
47C
100
AcDbEntity
  8
CURVE
100
AcDbLine
 62
250
  6
CONTINUOUS
 10
-40.7556045585
 20
-11.0380951643
 11
-39.8271038401
 21
-11.0380951643
  0
LINE
  5
47D
100
AcDbEntity
  8
CURVE
100
AcDbLine
 62
250
  6
CONTINUOUS
 10
-31.6420129081
 20
-10.7595238686
 11
-32.9419139099
 21
-10.7595238686
  0
LINE
  5
47E
100
AcDbEntity
  8
CURVE
100
AcDbLine
 62
250
  6
CONTINUOUS
 10
-31.8277130595
 20
-10.3880951643
 11
-32.291963409
 21
-10.3880951643
  0
LINE
  5
47F
100
AcDbEntity
  8
0
100
AcDbLine
 62
7
  6
CONTINUOUS
 10
-21.6232278343
 20
-10.3
 11
-21.4232278343
 21
-10.3
  0
LINE
  5
480
100
AcDbEntity
  8
SUPERFICI
100
AcDbLine
 62
7
  6
CONTINUOUS
 10
-21.6232278343
 20
-10.3
 11
-21.4232278343
 21
-10.3
  0
LINE
  5
481
100
AcDbEntity
  8
CURVE
100
AcDbLine
 62
250
  6
CONTINUOUS
 10
-46.5233658343
 20
-10.051012
 11
-44.6346968343
 21
-10.59258
  0
LINE
  5
482
100
AcDbEntity
  8
CURVE
100
AcDbLine
 62
250
  6
CONTINUOUS
 10
-43.6232428343
 20
-10.30258
 11
-45.5356768343
 21
-9.754205
  0
LWPOLYLINE
  5
483
100
AcDbEntity
  8
RACCORDO
100
AcDbPolyline
 62
250
  6
CONTINUOUS
 90
6
 70
0
 10
-49.8714465436
 20
24.4871079418
 10
-49.871502806
 20
24.490163634
 10
-49.8715637963
 20
24.492549112
 10
-49.8716293474
 20
24.4942578375
 10
-49.8716992797
 20
24.4952851274
 10
-49.8717734014
 20
24.495628166
  0
LINE
  5
484
100
AcDbEntity
  8
RACCORDO
100
AcDbLine
 62
7
  6
CONTINUOUS
 10
-50.623453667
 20
22.0227213834
 11
-50.6210415053
 21
21.8998857286
  0
LINE
  5
485
100
AcDbEntity
  8
RACCORDO
100
AcDbLine
 62
7
  6
CONTINUOUS
 10
-50.6252044502
 20
22.1397371612
 11
-50.623453667
 21
22.0227213834
  0
LINE
  5
486
100
AcDbEntity
  8
RACCORDO
100
AcDbLine
 62
250
  6
CONTINUOUS
 10
-49.8713488064
 20
24.4790212289
 11
-49.8714465436
 21
24.4871079418
  0
LINE
  5
487
100
AcDbEntity
  8
RACCORDO
100
AcDbLine
 62
7
  6
CONTINUOUS
 10
-50.625935302
 20
22.2112330931
 11
-50.6252044502
 21
22.1397371612
  0
LINE
  5
488
100
AcDbEntity
  8
RACCORDO
100
AcDbLine
 62
7
  6
CONTINUOUS
 10
-50.6261816125
 20
-22.3255031177
 11
-50.625985654
 21
-22.3464234757
  0
LINE
  5
489
100
AcDbEntity
  8
RACCORDO
100
AcDbLine
 62
250
  6
CONTINUOUS
 10
-49.8712410727
 20
24.4621322634
 11
-49.8713488064
 21
24.4790212289
  0
LINE
  5
48A
100
AcDbEntity
  8
RACCORDO
100
AcDbLine
 62
7
  6
CONTINUOUS
 10
-50.6262673436
 20
22.2741337501
 11
-50.625935302
 21
22.2112330931
  0
LINE
  5
48B
100
AcDbEntity
  8
RACCORDO
100
AcDbLine
 62
7
  6
CONTINUOUS
 10
-50.6262759957
 20
-22.3013783184
 11
-50.6261816125
 21
-22.3255031177
  0
LINE
  5
48C
100
AcDbEntity
  8
RACCORDO
100
AcDbLine
 62
250
  6
CONTINUOUS
 10
-49.8711822249
 20
-24.402986508
 11
-49.8717734014
 21
-24.2456323968
  0
LINE
  5
48D
100
AcDbEntity
  8
RACCORDO
100
AcDbLine
 62
7
  6
CONTINUOUS
 10
-50.6232278343
 20
-22.399689968
 11
-50.6232278343
 21
-24.5
  0
LINE
  5
48E
100
AcDbEntity
  8
RACCORDO
100
AcDbLine
 62
7
  6
CONTINUOUS
 10
-50.6232278343
 20
22.399689968
 11
-50.6232278343
 21
24.5
  0
LINE
  5
48F
100
AcDbEntity
  8
RACCORDO
100
AcDbLine
 62
250
  6
CONTINUOUS
 10
-49.8717734014
 20
24.2456323968
 11
-49.8717734014
 21
23.8443375673
  0
LINE
  5
490
100
AcDbEntity
  8
RACCORDO
100
AcDbLine
 62
250
  6
CONTINUOUS
 10
-49.8717734014
 20
-23.8443375673
 11
-49.8717734014
 21
-24.2456323968
  0
LINE
  5
491
100
AcDbEntity
  8
RACCORDO
100
AcDbLine
 62
7
  6
CONTINUOUS
 10
-49.6232278343
 20
24.2456323968
 11
-49.6232278343
 21
23.8443375673
  0
LINE
  5
492
100
AcDbEntity
  8
RACCORDO
100
AcDbLine
 62
7
  6
CONTINUOUS
 10
-49.6232278343
 20
-22.3912731322
 11
-49.6232278343
 21
-18.0856341328
  0
LINE
  5
493
100
AcDbEntity
  8
RACCORDO
100
AcDbLine
 62
7
  6
CONTINUOUS
 10
-49.6232278343
 20
-23.7941821702
 11
-49.6232278343
 21
-24.2456323968
  0
LINE
  5
494
100
AcDbEntity
  8
RACCORDO
100
AcDbLine
 62
7
  6
CONTINUOUS
 10
-49.6232278343
 20
18.0856341328
 11
-49.6232278343
 21
22.3912731322
  0
LINE
  5
495
100
AcDbEntity
  8
RACCORDO
100
AcDbLine
 62
7
  6
CONTINUOUS
 10
-49.1232278343
 20
-21.4087275325
 11
-49.1232278343
 21
21.4087275325
  0
LINE
  5
496
100
AcDbEntity
  8
RACCORDO
100
AcDbLine
 62
250
  6
CONTINUOUS
 10
-49.8711738091
 20
24.4129092831
 11
-49.8712410727
 21
24.4621322634
  0
LINE
  5
497
100
AcDbEntity
  8
RACCORDO
100
AcDbLine
 62
250
  6
CONTINUOUS
 10
-49.8712160279
 20
-24.4553229956
 11
-49.8711822249
 21
-24.402986508
  0
LINE
  5
498
100
AcDbEntity
  8
RACCORDO
100
AcDbLine
 62
7
  6
CONTINUOUS
 10
-50.6262419255
 20
22.3138304621
 11
-50.6262673436
 21
22.2741337501
  0
LINE
  5
499
100
AcDbEntity
  8
RACCORDO
100
AcDbLine
 62
7
  6
CONTINUOUS
 10
-50.6262230088
 20
-22.2593784507
 11
-50.6262759957
 21
-22.3013783184
  0
LINE
  5
49A
100
AcDbEntity
  8
RACCORDO
100
AcDbLine
 62
250
  6
CONTINUOUS
 10
-49.8716293474
 20
24.2717635094
 11
-49.8711738091
 21
24.4129092831
  0
LINE
  5
49B
100
AcDbEntity
  8
RACCORDO
100
AcDbLine
 62
250
  6
CONTINUOUS
 10
-49.8717734014
 20
24.2456323968
 11
-49.8716293474
 21
24.2717635094
  0
LINE
  5
49C
100
AcDbEntity
  8
RACCORDO
100
AcDbLine
 62
250
  6
CONTINUOUS
 10
-49.8713077796
 20
-24.4740372277
 11
-49.8712160279
 21
-24.4553229956
  0
LINE
  5
49D
100
AcDbEntity
  8
RACCORDO
100
AcDbLine
 62
7
  6
CONTINUOUS
 10
-50.6257890172
 20
-22.1940421359
 11
-50.6262230088
 21
-22.2593784507
  0
LINE
  5
49E
100
AcDbEntity
  8
RACCORDO
100
AcDbLine
 62
7
  6
CONTINUOUS
 10
-50.6247023228
 20
-22.1017677505
 11
-50.6257890172
 21
-22.1940421359
  0
LINE
  5
49F
100
AcDbEntity
  8
RACCORDO
100
AcDbLine
 62
7
  6
CONTINUOUS
 10
-50.6227155414
 20
-21.9820858133
 11
-50.6247023228
 21
-22.1017677505
  0
LINE
  5
4A0
100
AcDbEntity
  8
RACCORDO
100
AcDbLine
 62
7
  6
CONTINUOUS
 10
-50.6210415053
 20
-21.8998857286
 11
-50.6227155414
 21
-21.9820858133
  0
LINE
  5
4A1
100
AcDbEntity
  8
CURVE
100
AcDbLine
 62
7
  6
CONTINUOUS
 10
-46.1468543064
 20
8.0882608121
 11
-45.7369384199
 21
8.4981766987
  0
LINE
  5
4A2
100
AcDbEntity
  8
CURVE
100
AcDbLine
 62
7
  6
CONTINUOUS
 10
-45.5007261355
 20
8.734388983
 11
-44.5953249543
 21
9.6397901643
  0
LINE
  5
4A3
100
AcDbEntity
  8
CURVE
100
AcDbLine
 62
7
  6
CONTINUOUS
 10
-43.9431851185
 20
10.29193
 11
-43.632094732
 21
10.6030203865
  0
LINE
  5
4A4
100
AcDbEntity
  8
CURVE
100
AcDbLine
 62
250
  6
CONTINUOUS
 10
-40.3842042944
 20
13.1357143521
 11
-40.1985041236
 21
13.3214285493
  0
LINE
  5
4A5
100
AcDbEntity
  8
CURVE
100
AcDbLine
 62
250
  6
CONTINUOUS
 10
-37.8486830431
 20
14.9571425915
 11
-37.9415331478
 21
14.8642858028
  0
LINE
  5
4A6
100
AcDbEntity
  8
CURVE
100
AcDbLine
 62
250
  6
CONTINUOUS
 10
-37.9415331478
 20
13.0071429014
 11
-37.7558330158
 21
13.1619048357
  0
LINE
  5
4A7
100
AcDbEntity
  8
CURVE
100
AcDbLine
 62
7
420
10991288
  6
CONTINUOUS
 10
-44.2466869257
 20
9.139154
 11
-43.632094732
 21
9.348036
  0
LINE
  5
4A8
100
AcDbEntity
  8
CURVE
100
AcDbLine
 62
7
420
10991288
  6
CONTINUOUS
 10
-45.9777570905
 20
8.581076
 11
-44.7285832254
 21
8.982548
  0
LINE
  5
4A9
100
AcDbEntity
  8
CURVE
100
AcDbLine
 62
250
  6
CONTINUOUS
 10
-45.5356768343
 20
-9.754205
 11
-43.6232348343
 21
-9.754197
  0
LINE
  5
4AA
100
AcDbEntity
  8
CURVE
100
AcDbLine
 62
250
  6
CONTINUOUS
 10
-32.199113343
 20
-9.7380954742
 11
-31.8277130595
 21
-9.7380954742
  0
LINE
  5
4AB
100
AcDbEntity
  8
CURVE
100
AcDbLine
 62
250
  6
CONTINUOUS
 10
-40.9413046906
 20
-9.58333354
 11
-39.6414036887
 21
-9.58333354
  0
LINE
  5
4AC
100
AcDbEntity
  8
CURVE
100
AcDbLine
 62
250
  6
CONTINUOUS
 10
-32.3848135138
 20
-9.36666646
 11
-32.7562137779
 21
-9.36666646
  0
LINE
  5
4AD
100
AcDbEntity
  8
CURVE
100
AcDbLine
 62
250
  6
CONTINUOUS
 10
-43.6232348343
 20
-9.174176
 11
-46.5233658343
 21
-9.174176
  0
LINE
  5
4AE
100
AcDbEntity
  8
0
100
AcDbLine
 62
250
  6
CONTINUOUS
 10
-26.1057012703
 20
-8.93959
 11
-25.3407303991
 21
-8.93959
  0
LINE
  5
4AF
100
AcDbEntity
  8
CURVE
100
AcDbLine
 62
250
  6
CONTINUOUS
 10
-32.7562137779
 20
-8.71666646
 11
-32.3848135138
 21
-8.71666646
  0
LINE
  5
4B0
100
AcDbEntity
  8
0
100
AcDbLine
 62
250
  6
CONTINUOUS
 10
-28.2603372252
 20
-8.42959
 11
-27.4898405645
 21
-8.42959
  0
LINE
  5
4B1
100
AcDbEntity
  8
0
100
AcDbLine
 62
250
  6
CONTINUOUS
 10
-23.9565911049
 20
-8.42959
 11
-23.1860944442
 21
-8.42959
  0
LINE
  5
4B2
100
AcDbEntity
  8
CURVE
100
AcDbLine
 62
250
  6
CONTINUOUS
 10
-43.6232348343
 20
-8.787497
 11
-46.5233728343
 21
-7.856372
  0
LINE
  5
4B3
100
AcDbEntity
  8
CURVE
100
AcDbLine
 62
250
  6
CONTINUOUS
 10
-44.1935708343
 20
-8.024362
 11
-43.6232428343
 21
-8.207475
  0
LINE
  5
4B4
100
AcDbEntity
  8
CURVE
100
AcDbLine
 62
250
  6
CONTINUOUS
 10
-45.6201318343
 20
-7.56635
 11
-44.7445928343
 21
-7.84744
  0
LINE
  5
4B5
100
AcDbEntity
  8
CURVE
100
AcDbLine
 62
250
  6
CONTINUOUS
 10
-39.6414036887
 20
-14.5357142746
 11
-39.8271038401
 21
-14.35
  0
LINE
  5
4B6
100
AcDbEntity
  8
CURVE
100
AcDbLine
 62
250
  6
CONTINUOUS
 10
-40.1985041236
 20
-12.5238095164
 11
-40.3842042944
 21
-12.3380951643
  0
LINE
  5
4B7
100
AcDbEntity
  8
RACCORDO
100
AcDbLine
 62
250
  6
CONTINUOUS
 10
-45.4440717334
 20
18.8678924911
 11
-45.4168940994
 21
19.0220245132
  0
LINE
  5
4B8
100
AcDbEntity
  8
SUPERFICI
100
AcDbLine
 62
250
  6
CONTINUOUS
 10
-45.4440717334
 20
18.8678924911
 11
-45.4168940994
 21
19.0220245132
  0
LINE
  5
4B9
100
AcDbEntity
  8
RACCORDO
100
AcDbLine
 62
7
  6
CONTINUOUS
 10
-44.4302052413
 20
18.8590446123
 11
-44.4005291241
 21
19.0273462364
  0
LINE
  5
4BA
100
AcDbEntity
  8
SUPERFICI
100
AcDbLine
 62
7
  6
CONTINUOUS
 10
-44.4302052413
 20
18.8590446123
 11
-44.4005291241
 21
19.0273462364
  0
LINE
  5
4BB
100
AcDbEntity
  8
CURVE
100
AcDbLine
 62
250
  6
CONTINUOUS
 10
-37.5701328837
 20
14.3071429014
 11
-37.0130324488
 21
14.9571425915
  0
LINE
  5
4BC
100
AcDbEntity
  8
CURVE
100
AcDbLine
 62
250
  6
CONTINUOUS
 10
-36.641632146
 20
14.4
 11
-36.7344822217
 21
14.3071429014
  0
LINE
  5
4BD
100
AcDbEntity
  8
CURVE
100
AcDbLine
 62
250
  6
CONTINUOUS
 10
-37.3844327517
 20
13.0071429014
 11
-37.1987325809
 21
13.1928570986
  0
LINE
  5
4BE
100
AcDbEntity
  8
CURVE
100
AcDbLine
 62
7
  6
CONTINUOUS
 10
-46.5254952706
 20
3.7583071547
 11
-45.5097037488
 21
4.7740986764
  0
LINE
  5
4BF
100
AcDbEntity
  8
CURVE
100
AcDbLine
 62
7
  6
CONTINUOUS
 10
-45.1130644253
 20
5.170738
 11
-44.4904584253
 21
5.793344
  0
LINE
  5
4C0
100
AcDbEntity
  8
CURVE
100
AcDbLine
 62
7
  6
CONTINUOUS
 10
-44.1139900317
 20
6.1698123936
 11
-43.632094732
 21
6.6517076933
  0
LINE
  5
4C1
100
AcDbEntity
  8
CURVE
100
AcDbLine
 62
250
  6
CONTINUOUS
 10
-37.9415331478
 20
11.3357143521
 11
-37.7558330158
 21
11.4904761314
  0
LINE
  5
4C2
100
AcDbEntity
  8
0
100
AcDbLine
 62
250
  6
CONTINUOUS
 10
-32.199113343
 20
12.5285716057
 11
-32.9419139099
 21
12.1571425915
  0
LINE
  5
4C3
100
AcDbEntity
  8
0
100
AcDbLine
 62
250
  6
CONTINUOUS
 10
-24.642545975
 20
12.9261909485
 11
-25.9424469769
 21
12.5547613144
  0
LINE
  5
4C4
100
AcDbEntity
  8
0
100
AcDbLine
 62
250
  6
CONTINUOUS
 10
-29.3146970731
 20
-5.568876
 11
-25.9526040962
 21
-5.274826
  0
LINE
  5
4C5
100
AcDbEntity
  8
CURVE
100
AcDbLine
 62
250
  6
CONTINUOUS
 10
-40.5699044264
 20
-7.8190477371
 11
-40.0128039916
 21
-7.8190477371
  0
LINE
  5
4C6
100
AcDbEntity
  8
CURVE
100
AcDbLine
 62
250
  6
CONTINUOUS
 10
-40.0128039916
 20
-7.1690477371
 11
-40.5699044264
 21
-7.1690477371
  0
LINE
  5
4C7
100
AcDbEntity
  8
CURVE
100
AcDbLine
 62
250
  6
CONTINUOUS
 10
-32.7562137779
 20
-6.76666646
 11
-32.5705136458
 21
-6.76666646
  0
LINE
  5
4C8
100
AcDbEntity
  8
0
100
AcDbLine
 62
250
  6
CONTINUOUS
 10
-23.1232278343
 20
-6.592362
 11
-24.1422010334
 21
-6.592362
  0
LINE
  5
4C9
100
AcDbEntity
  8
CURVE
100
AcDbLine
 62
250
  6
CONTINUOUS
 10
-32.3848135138
 20
-8.71666646
 11
-32.0134132109
 21
-8.8095238686
  0
LINE
  5
4CA
100
AcDbEntity
  8
CURVE
100
AcDbLine
 62
250
  6
CONTINUOUS
 10
-40.7556045585
 20
-7.7261903286
 11
-40.5699044264
 21
-7.8190477371
  0
LINE
  5
4CB
100
AcDbEntity
  8
CURVE
100
AcDbLine
 62
250
  6
CONTINUOUS
 10
-39.8271038401
 20
-7.2619045258
 11
-40.0128039916
 21
-7.1690477371
  0
LINE
  5
4CC
100
AcDbEntity
  8
CURVE
100
AcDbLine
 62
250
  6
CONTINUOUS
 10
-40.9413046906
 20
-10.8523809671
 11
-40.7556045585
 21
-11.0380951643
  0
LINE
  5
4CD
100
AcDbEntity
  8
RACCORDO
100
AcDbLine
 62
250
  6
CONTINUOUS
 10
-45.4168940994
 20
-19.0220245132
 11
-45.4440717334
 21
-18.8678924911
  0
LINE
  5
4CE
100
AcDbEntity
  8
SUPERFICI
100
AcDbLine
 62
250
  6
CONTINUOUS
 10
-45.4168940994
 20
-19.0220245132
 11
-45.4440717334
 21
-18.8678924911
  0
LINE
  5
4CF
100
AcDbEntity
  8
RACCORDO
100
AcDbLine
 62
7
  6
CONTINUOUS
 10
-44.4005291241
 20
-19.0273462364
 11
-44.4302052413
 21
-18.8590446123
  0
LINE
  5
4D0
100
AcDbEntity
  8
SUPERFICI
100
AcDbLine
 62
7
  6
CONTINUOUS
 10
-44.4005291241
 20
-19.0273462364
 11
-44.4302052413
 21
-18.8590446123
  0
LINE
  5
4D1
100
AcDbEntity
  8
CURVE
100
AcDbLine
 62
7
420
10991288
  6
CONTINUOUS
 10
-45.2390876221
 20
3.7634189896
 11
-45.2342261261
 21
3.7170658629
  0
LINE
  5
4D2
100
AcDbEntity
  8
CURVE
100
AcDbLine
 62
7
420
10991288
  6
CONTINUOUS
 10
-46.53187389
 20
14.99154
 11
-46.53187389
 21
14.252489
  0
LINE
  5
4D3
100
AcDbEntity
  8
CURVE
100
AcDbLine
 62
7
420
10991288
  6
CONTINUOUS
 10
-46.53187389
 20
8.966505
 11
-46.53187389
 21
8.227454
  0
LINE
  5
4D4
100
AcDbEntity
  8
CURVE
100
AcDbLine
 62
7
420
10991288
  6
CONTINUOUS
 10
-46.53187389
 20
3.587825
 11
-46.53187389
 21
2.700395
  0
LINE
  5
4D5
100
AcDbEntity
  8
CURVE
100
AcDbLine
 62
7
420
10991288
  6
CONTINUOUS
 10
-46.53187389
 20
5.170738
 11
-46.53187389
 21
5.793344
  0
LINE
  5
4D6
100
AcDbEntity
  8
CURVE
100
AcDbLine
 62
7
420
10991288
  6
CONTINUOUS
 10
-46.53187389
 20
10.29193
 11
-46.53187389
 21
11.215744
  0
LINE
  5
4D7
100
AcDbEntity
  8
CURVE
100
AcDbLine
 62
7
420
10991288
  6
CONTINUOUS
 10
-46.53187389
 20
12.328359
 11
-46.53187389
 21
12.910803
  0
LINE
  5
4D8
100
AcDbEntity
  8
CURVE
100
AcDbLine
 62
250
  6
CONTINUOUS
 10
-46.5233728343
 20
-7.856372
 11
-46.5233728343
 21
-7.276321
  0
LINE
  5
4D9
100
AcDbEntity
  8
CURVE
100
AcDbLine
 62
250
  6
CONTINUOUS
 10
-46.5233728343
 20
-5.958503
 11
-46.5233728343
 21
-4.600289
  0
LINE
  5
4DA
100
AcDbEntity
  8
CURVE
100
AcDbLine
 62
250
  6
CONTINUOUS
 10
-46.5233658343
 20
-9.174176
 11
-46.5233658343
 21
-10.051012
  0
LINE
  5
4DB
100
AcDbEntity
  8
CURVE
100
AcDbLine
 62
250
  6
CONTINUOUS
 10
-46.5233658343
 20
-11.134148
 11
-46.5233658343
 21
-12.010985
  0
LINE
  5
4DC
100
AcDbEntity
  8
CURVE
100
AcDbLine
 62
250
  6
CONTINUOUS
 10
-46.5233658343
 20
-12.590985
 11
-46.5233658343
 21
-13.171006
  0
LINE
  5
4DD
100
AcDbEntity
  8
CURVE
100
AcDbLine
 62
250
  6
CONTINUOUS
 10
-46.5233658343
 20
-13.557685
 11
-46.5233658343
 21
-14.137714
  0
LINE
  5
4DE
100
AcDbEntity
  8
CURVE
100
AcDbLine
 62
250
  6
CONTINUOUS
 10
-46.5233658343
 20
-15.419971
 11
-46.5233658343
 21
-16.0
  0
LINE
  5
4DF
100
AcDbEntity
  8
CURVE
100
AcDbLine
 62
7
420
10991288
  6
CONTINUOUS
 10
-46.0499785903
 20
3.323001
 11
-46.0499785903
 21
3.686217
  0
LINE
  5
4E0
100
AcDbEntity
  8
CURVE
100
AcDbLine
 62
250
  6
CONTINUOUS
 10
-45.9868508343
 20
-4.680795
 11
-45.9868508343
 21
-5.386478
  0
LINE
  5
4E1
100
AcDbEntity
  8
CURVE
100
AcDbLine
 62
250
  6
CONTINUOUS
 10
-45.2811218343
 20
-5.386471
 11
-45.2811218343
 21
-4.680795
  0
LINE
  5
4E2
100
AcDbEntity
  8
CURVE
100
AcDbLine
 62
7
420
10991288
  6
CONTINUOUS
 10
-45.2306669876
 20
3.323001
 11
-45.2306669876
 21
3.686217
  0
LINE
  5
4E3
100
AcDbEntity
  8
CURVE
100
AcDbLine
 62
7
420
10991288
  6
CONTINUOUS
 10
-44.7487706879
 20
3.587825
 11
-44.7487706879
 21
3.323001
  0
LINE
  5
4E4
100
AcDbEntity
  8
CURVE
100
AcDbLine
 62
250
  6
CONTINUOUS
 10
-44.7445928343
 20
-7.84744
 11
-44.7445928343
 21
-7.285246
  0
LINE
  5
4E5
100
AcDbEntity
  8
CURVE
100
AcDbLine
 62
250
  6
CONTINUOUS
 10
-44.7445928343
 20
-4.872178
 11
-44.7445998343
 21
-5.378409
  0
LINE
  5
4E6
100
AcDbEntity
  8
CURVE
100
AcDbLine
 62
7
420
10991288
  6
CONTINUOUS
 10
-44.7285832254
 20
15.007474
 11
-44.7285832254
 21
14.176096
  0
LINE
  5
4E7
100
AcDbEntity
  8
CURVE
100
AcDbLine
 62
7
420
10991288
  6
CONTINUOUS
 10
-44.7285832254
 20
8.982548
 11
-44.7285832254
 21
8.151061
  0
LINE
  5
4E8
100
AcDbEntity
  8
CURVE
100
AcDbLine
 62
7
420
10991288
  6
CONTINUOUS
 10
-46.5282942039
 20
3.6944308163
 11
-46.5318743196
 21
3.5878250083
  0
LWPOLYLINE
  5
4E9
100
AcDbEntity
  8
CURVE
100
AcDbPolyline
 62
7
420
10991288
  6
CONTINUOUS
 90
54
 70
0
 10
-46.046419157
 20
3.7170658629
 10
-46.041557661
 20
3.7634189896
 10
-46.0398361657
 20
3.7788545775
 10
-46.0379691012
 20
3.7942671151
 10
-46.0358994249
 20
3.8096474084
 10
-46.0335700944
 20
3.8249862635
 10
-46.0309240672
 20
3.8402744865
 10
-46.0279043005
 20
3.8555028835
 10
-46.0255706094
 20
3.8659784311
 10
-46.0230120355
 20
3.8764069032
 10
-46.0202091643
 20
3.8867741447
 10
-46.0171425812
 20
3.8970660002
 10
-46.0137928716
 20
3.9072683145
 10
-46.010140621
 20
3.9173669323
 10
-46.0061664147
 20
3.9273476984
 10
-46.0018508381
 20
3.9371964574
 10
-45.9977481287
 20
3.9457607524
 10
-45.9933653116
 20
3.9541943373
 10
-45.9887029261
 20
3.9624801982
 10
-45.9837615116
 20
3.9706013217
 10
-45.9785416072
 20
3.978540694
 10
-45.9730437524
 20
3.9862813016
 10
-45.9672684864
 20
3.9938061307
 10
-45.9612163484
 20
4.0010981678
 10
-45.9548878777
 20
4.0081403992
 10
-45.9482334016
 20
4.0149724707
 10
-45.9413179256
 20
4.0215412478
 10
-45.9341606215
 20
4.0278544916
 10
-45.9267806613
 20
4.0339199631
 10
-45.9191972169
 20
4.0397454232
 10
-45.9114294602
 20
4.0453386331
 10
-45.9034965631
 20
4.0507073536
 10
-45.8954176974
 20
4.0558593458
 10
-45.8872120352
 20
4.0608023707
 10
-45.8765066603
 20
4.0668562301
 10
-45.8656317004
 20
4.072571473
 10
-45.8545952944
 20
4.0779417411
 10
-45.8434055813
 20
4.0829606758
 10
-45.8320706999
 20
4.0876219189
 10
-45.8205987892
 20
4.091919112
 10
-45.808997988
 20
4.0958458966
 10
-45.796462403
 20
4.0996317288
 10
-45.7838026743
 20
4.1030058362
 10
-45.7710326847
 20
4.1059871617
 10
-45.758166317
 20
4.1085946482
 10
-45.7452174539
 20
4.1108472385
 10
-45.7321999781
 20
4.1127638754
 10
-45.7191277723
 20
4.1143635017
 10
-45.7060147193
 20
4.1156650603
 10
-45.6928747018
 20
4.116687494
 10
-45.6797216025
 20
4.1174497457
 10
-45.6665693043
 20
4.1179707582
 10
-45.6534316897
 20
4.1182694742
 10
-45.6403226415
 20
4.1183648367
  0
LWPOLYLINE
  5
4EA
100
AcDbEntity
  8
CURVE
100
AcDbPolyline
 62
7
420
10991288
  6
CONTINUOUS
 90
3
 70
0
 10
-46.0499780882
 20
3.6862170818
 10
-46.0481288009
 20
3.7016300127
 10
-46.046419157
 20
3.7170658629
  0
LWPOLYLINE
  5
4EB
100
AcDbEntity
  8
0
100
AcDbPolyline
 62
7
  6
CONTINUOUS
 90
3
 70
0
 43
0.3500000087
 10
-34.4875144943
 20
33.5074531921
 10
-34.5589419174
 20
33.2931666595
 10
-34.7017988953
 20
33.0074527039
  0
LINE
  5
4EC
100
AcDbEntity
  8
CURVE
100
AcDbLine
 62
250
  6
CONTINUOUS
 10
-37.3844327517
 20
11.3357143521
 11
-37.1987325809
 21
11.5214285493
  0
LWPOLYLINE
  5
4ED
100
AcDbEntity
  8
0
100
AcDbPolyline
 62
250
  6
CONTINUOUS
 90
17
 70
0
 10
-26.0737434834
 20
-3.952892
 10
-26.0120585562
 20
-3.9468435097
 10
-25.9527231887
 20
-3.9289284239
 10
-25.8979974466
 20
-3.8998291227
 10
-25.8491805775
 20
-3.8598714569
 10
-25.8098395129
 20
-3.8119750371
 10
-25.7805504684
 20
-3.7573491201
 10
-25.7624290548
 20
-3.69807439
 10
-25.7561635763
 20
-3.6353
 10
-25.7622118363
 20
-3.5736127239
 10
-25.78012624
 20
-3.514275097
 10
-25.8092244332
 20
-3.4595472711
 10
-25.8491805775
 20
-3.4107285431
 10
-25.8970751735
 20
-3.3713859804
 10
-25.9516990105
 20
-3.3420958207
 10
-26.0109714836
 20
-3.3239737171
 10
-26.0737435112
 20
-3.317708
  0
LWPOLYLINE
  5
4EE
100
AcDbEntity
  8
0
100
AcDbPolyline
 62
250
  6
CONTINUOUS
 90
17
 70
0
 10
-26.0737434834
 20
-3.77581
 10
-26.0464526539
 20
-3.7731340089
 10
-26.0202013236
 20
-3.7652079632
 10
-25.9959893976
 20
-3.7523337635
 10
-25.9743916927
 20
-3.7346555738
 10
-25.9569863015
 20
-3.7134650969
 10
-25.9440281551
 20
-3.6892973358
 10
-25.9360108253
 20
-3.6630728329
 10
-25.9332388336
 20
-3.6353
 10
-25.9359147228
 20
-3.6080081313
 10
-25.9438404667
 20
-3.5817558014
 10
-25.9567141761
 20
-3.5575429534
 10
-25.9743916927
 20
-3.5359444262
 10
-25.9955813627
 20
-3.5185383722
 10
-26.0197482037
 20
-3.5055797324
 10
-26.045971708
 20
-3.4975620973
 10
-26.0737434957
 20
-3.49479
  0
LWPOLYLINE
  5
4EF
100
AcDbEntity
  8
0
100
AcDbPolyline
 62
250
  6
CONTINUOUS
 90
17
 70
0
 10
-26.0737434834
 20
-3.49479
 10
-26.1010343129
 20
-3.4974659911
 10
-26.1272856432
 20
-3.5053920368
 10
-26.1514975692
 20
-3.5182662365
 10
-26.1730952741
 20
-3.5359444262
 10
-26.1905006652
 20
-3.5571349031
 10
-26.2034588116
 20
-3.5813026642
 10
-26.2114761415
 20
-3.6075271671
 10
-26.2142481332
 20
-3.6353
 10
-26.211572244
 20
-3.6625918687
 10
-26.2036465001
 20
-3.6888441986
 10
-26.1907727906
 20
-3.7130570466
 10
-26.1730952741
 20
-3.7346555738
 10
-26.151905604
 20
-3.7520616278
 10
-26.1277387631
 20
-3.7650202676
 10
-26.1015152588
 20
-3.7730379027
 10
-26.0737434711
 20
-3.77581
  0
LWPOLYLINE
  5
4F0
100
AcDbEntity
  8
0
100
AcDbPolyline
 62
250
  6
CONTINUOUS
 90
17
 70
0
 10
-26.0737434834
 20
-3.317708
 10
-26.1354284106
 20
-3.3237564903
 10
-26.1947637781
 20
-3.3416715761
 10
-26.2494895202
 20
-3.3707708773
 10
-26.2983063892
 20
-3.4107285431
 10
-26.3376474539
 20
-3.4586249629
 10
-26.3669364983
 20
-3.5132508799
 10
-26.3850579119
 20
-3.57252561
 10
-26.3913233905
 20
-3.6353
 10
-26.3852751305
 20
-3.6969872761
 10
-26.3673607268
 20
-3.756324903
 10
-26.3382625336
 20
-3.8110527289
 10
-26.2983063892
 20
-3.8598714569
 10
-26.2504117933
 20
-3.8992140196
 10
-26.1957879562
 20
-3.9285041793
 10
-26.1365154832
 20
-3.9466262829
 10
-26.0737434556
 20
-3.952892
  0
LWPOLYLINE
  5
4F1
100
AcDbEntity
  8
0
100
AcDbPolyline
 62
250
  6
CONTINUOUS
 90
17
 70
0
 10
-29.4191700949
 20
-3.402669
 10
-29.3817654794
 20
-3.3990013057
 10
-29.3457855941
 20
-3.3881379242
 10
-29.3126009016
 20
-3.3704926384
 10
-29.282999242
 20
-3.3462630381
 10
-29.2591435374
 20
-3.3172195222
 10
-29.2413831947
 20
-3.2840953618
 10
-29.2303946999
 20
-3.2481522459
 10
-29.2265954279
 20
-3.210087
 10
-29.2302629825
 20
-3.1726809602
 10
-29.2411259503
 20
-3.1366997048
 10
-29.2587705643
 20
-3.1035137487
 10
-29.282999242
 20
-3.0739109619
 10
-29.312041652
 20
-3.0500543489
 10
-29.3451645511
 20
-3.03229333
 10
-29.3811062984
 20
-3.0213044166
 10
-29.4191701118
 20
-3.017505
  0
LWPOLYLINE
  5
4F2
100
AcDbEntity
  8
0
100
AcDbPolyline
 62
250
  6
CONTINUOUS
 90
17
 70
0
 10
-29.4191700949
 20
-3.017505
 10
-29.4565747105
 20
-3.0211726943
 10
-29.4925545958
 20
-3.0320360758
 10
-29.5257392883
 20
-3.0496813616
 10
-29.5553409479
 20
-3.0739109619
 10
-29.5791966525
 20
-3.1029544778
 10
-29.5969569951
 20
-3.1360786382
 10
-29.60794549
 20
-3.1720217541
 10
-29.611744762
 20
-3.210087
 10
-29.6080772074
 20
-3.2474930398
 10
-29.5972142396
 20
-3.2834742952
 10
-29.5795696256
 20
-3.3166602513
 10
-29.5553409479
 20
-3.3462630381
 10
-29.5262985379
 20
-3.3701196511
 10
-29.4931756388
 20
-3.38788067
 10
-29.4572338915
 20
-3.3988695834
 10
-29.4191700781
 20
-3.402669
  0
LINE
  5
4F3
100
AcDbEntity
  8
CURVE
100
AcDbLine
 62
250
  6
CONTINUOUS
 10
-43.6232428343
 20
-5.958503
 11
-46.5233728343
 21
-5.958503
  0
LINE
  5
4F4
100
AcDbEntity
  8
CURVE
100
AcDbLine
 62
250
  6
CONTINUOUS
 10
-40.4770543217
 20
-5.7761903286
 11
-39.7342537644
 21
-5.7761903286
  0
LINE
  5
4F5
100
AcDbEntity
  8
CURVE
100
AcDbLine
 62
250
  6
CONTINUOUS
 10
-45.9868508343
 20
-5.386478
 11
-45.2811218343
 21
-5.386471
  0
LINE
  5
4F6
100
AcDbEntity
  8
0
100
AcDbLine
 62
250
  6
CONTINUOUS
 10
-29.3146970731
 20
-5.281784
 11
-29.7093000473
 21
-5.281784
  0
LINE
  5
4F7
100
AcDbEntity
  8
CURVE
100
AcDbLine
 62
250
  6
CONTINUOUS
 10
-39.6414036887
 20
-5.2190477371
 11
-40.9413046906
 21
-5.2190477371
  0
LINE
  5
4F8
100
AcDbEntity
  8
0
100
AcDbLine
 62
250
  6
CONTINUOUS
 10
-25.7561635763
 20
-5.218117
 11
-25.9526040962
 21
-5.218117
  0
LINE
  5
4F9
100
AcDbEntity
  8
0
100
AcDbLine
 62
250
  6
CONTINUOUS
 10
-29.7093000473
 20
-5.18241
 11
-29.3146970731
 21
-5.18241
  0
LINE
  5
4FA
100
AcDbEntity
  8
0
100
AcDbLine
 62
250
  6
CONTINUOUS
 10
-25.9526040962
 20
-5.100497
 11
-25.7561635763
 21
-5.100497
  0
LINE
  5
4FB
100
AcDbEntity
  8
CURVE
100
AcDbLine
 62
250
  6
CONTINUOUS
 10
-40.9413046906
 20
-4.8476193428
 11
-39.6414036887
 21
-4.8476193428
  0
LINE
  5
4FC
100
AcDbEntity
  8
0
100
AcDbLine
 62
250
  6
CONTINUOUS
 10
-28.2713108036
 20
-4.71193
 11
-28.4869385928
 21
-4.71193
  0
LINE
  5
4FD
100
AcDbEntity
  8
0
100
AcDbLine
 62
250
  6
CONTINUOUS
 10
-29.5847847886
 20
-4.656927
 11
-29.8022705071
 21
-4.656927
  0
LINE
  5
4FE
100
AcDbEntity
  8
CURVE
100
AcDbLine
 62
250
  6
CONTINUOUS
 10
-40.4770543217
 20
-4.2904761314
 11
-40.7556045585
 21
-4.2904761314
  0
LINE
  5
4FF
100
AcDbEntity
  8
CURVE
100
AcDbLine
 62
250
  6
CONTINUOUS
 10
-39.8271038401
 20
-4.1976193428
 11
-40.1056540576
 21
-4.1976193428
  0
LINE
  5
500
100
AcDbEntity
  8
0
100
AcDbLine
 62
250
  6
CONTINUOUS
 10
-29.8017125283
 20
-4.083924
 11
-29.5842268098
 21
-4.083924
  0
LINE
  5
501
100
AcDbEntity
  8
0
100
AcDbLine
 62
250
  6
CONTINUOUS
 10
-28.4869385928
 20
-3.88859
 11
-28.2713108036
 21
-3.88859
  0
LINE
  5
502
100
AcDbEntity
  8
CURVE
100
AcDbLine
 62
250
  6
CONTINUOUS
 10
-44.7445998343
 20
-5.378409
 11
-43.6232428343
 21
-5.378474
  0
LINE
  5
503
100
AcDbEntity
  8
CURVE
100
AcDbLine
 62
250
  6
CONTINUOUS
 10
-32.291963409
 20
-10.3880951643
 11
-32.6633636731
 21
-10.2023809671
  0
LINE
  5
504
100
AcDbEntity
  8
CURVE
100
AcDbLine
 62
250
  6
CONTINUOUS
 10
-40.9413046906
 20
-7.5404761314
 11
-40.7556045585
 21
-7.7261903286
  0
LINE
  5
505
100
AcDbEntity
  8
CURVE
100
AcDbLine
 62
250
  6
CONTINUOUS
 10
-39.6414036887
 20
-7.4476193428
 11
-39.8271038401
 21
-7.2619045258
  0
LWPOLYLINE
  5
506
100
AcDbEntity
  8
CURVE
100
AcDbPolyline
 62
7
420
10991288
  6
CONTINUOUS
 90
3
 70
0
 10
-45.2342261261
 20
3.7170658629
 10
-45.2325164822
 20
3.7016300127
 10
-45.2306671949
 20
3.6862170818
  0
LWPOLYLINE
  5
507
100
AcDbEntity
  8
CURVE
100
AcDbPolyline
 62
7
420
10991288
  6
CONTINUOUS
 90
53
 70
0
 10
-44.7487709635
 20
3.5878250083
 10
-44.7523510792
 20
3.6944308163
 10
-44.75437816
 20
3.7477259636
 10
-44.7570208093
 20
3.8010018662
 10
-44.7597950193
 20
3.8435808487
 10
-44.763282921
 20
3.8861112127
 10
-44.7675850998
 20
3.9285633965
 10
-44.7728021407
 20
3.9709078386
 10
-44.7790346291
 20
4.0131149774
 10
-44.7850794838
 20
4.0482016873
 10
-44.7919303414
 20
4.0831449576
 10
-44.7996163203
 20
4.1179175053
 10
-44.808166539
 20
4.1524920475
 10
-44.8176101159
 20
4.1868413013
 10
-44.8279761695
 20
4.220937984
 10
-44.8376194654
 20
4.2499278481
 10
-44.8480089947
 20
4.2786630061
 10
-44.8591922857
 20
4.3070942338
 10
-44.8712168672
 20
4.3351723067
 10
-44.8841302676
 20
4.3628480007
 10
-44.8979800156
 20
4.3900720912
 10
-44.9128136396
 20
4.4167953541
 10
-44.9266457853
 20
4.4397478194
 10
-44.9412672342
 20
4.4622268446
 10
-44.9566760749
 20
4.4841809471
 10
-44.9728703961
 20
4.5055586444
 10
-44.9898482865
 20
4.526308454
 10
-45.0076078349
 20
4.5463788935
 10
-45.0261471298
 20
4.5657184802
 10
-45.04546426
 20
4.5842757318
 10
-45.0655299429
 20
4.6019893364
 10
-45.0863220438
 20
4.6188601338
 10
-45.1077925476
 20
4.6348775324
 10
-45.1298934392
 20
4.6500309406
 10
-45.1525767036
 20
4.6643097667
 10
-45.1757943258
 20
4.677703419
 10
-45.1994982907
 20
4.6902013058
 10
-45.2236405833
 20
4.7017928354
 10
-45.2481772649
 20
4.7124744607
 10
-45.2730688805
 20
4.7222657565
 10
-45.298279989
 20
4.7311934887
 10
-45.3237751493
 20
4.7392844235
 10
-45.3495189202
 20
4.7465653269
 10
-45.3754758607
 20
4.7530629651
 10
-45.4016105295
 20
4.7588041041
 10
-45.4278874856
 20
4.76381551
 10
-45.4580071727
 20
4.7686778912
 10
-45.4882423471
 20
4.7726695404
 10
-45.5185693549
 20
4.7758351702
 10
-45.5489645422
 20
4.7782194935
 10
-45.579404255
 20
4.7798672229
 10
-45.6098648395
 20
4.7808230713
 10
-45.6403226415
 20
4.7811317512
  0
LINE
  5
508
100
AcDbEntity
  8
CURVE
100
AcDbLine
 62
7
420
10991288
  6
CONTINUOUS
 10
-44.2466869257
 20
7.990417
 11
-44.2466869257
 21
9.139154
  0
LINE
  5
509
100
AcDbEntity
  8
CURVE
100
AcDbLine
 62
7
420
10991288
  6
CONTINUOUS
 10
-44.2466869257
 20
14.015451
 11
-44.2466869257
 21
15.164189
  0
LINE
  5
50A
100
AcDbEntity
  8
CURVE
100
AcDbLine
 62
250
  6
CONTINUOUS
 10
-44.1935708343
 20
-7.108317
 11
-44.1935708343
 21
-8.024362
  0
LINE
  5
50B
100
AcDbEntity
  8
CURVE
100
AcDbLine
 62
7
420
10991288
  6
CONTINUOUS
 10
-44.1139900317
 20
5.793344
 11
-44.1139900317
 21
6.866343
  0
LINE
  5
50C
100
AcDbEntity
  8
CURVE
100
AcDbLine
 62
7
420
10991288
  6
CONTINUOUS
 10
-43.632094732
 20
12.910803
 11
-43.632094732
 21
12.027151
  0
LINE
  5
50D
100
AcDbEntity
  8
CURVE
100
AcDbLine
 62
7
420
10991288
  6
CONTINUOUS
 10
-43.632094732
 20
10.874375
 11
-43.632094732
 21
10.29193
  0
LINE
  5
50E
100
AcDbEntity
  8
CURVE
100
AcDbLine
 62
7
420
10991288
  6
CONTINUOUS
 10
-43.632094732
 20
6.866343
 11
-43.632094732
 21
5.170738
  0
LINE
  5
50F
100
AcDbEntity
  8
CURVE
100
AcDbLine
 62
7
420
10991288
  6
CONTINUOUS
 10
-43.632094732
 20
2.700395
 11
-43.632094732
 21
3.323001
  0
LINE
  5
510
100
AcDbEntity
  8
CURVE
100
AcDbLine
 62
7
420
10991288
  6
CONTINUOUS
 10
-43.632094732
 20
7.179119
 11
-43.632094732
 21
7.773569
  0
LINE
  5
511
100
AcDbEntity
  8
CURVE
100
AcDbLine
 62
7
420
10991288
  6
CONTINUOUS
 10
-43.632094732
 20
9.348036
 11
-43.632094732
 21
9.974679
  0
LINE
  5
512
100
AcDbEntity
  8
CURVE
100
AcDbLine
 62
7
420
10991288
  6
CONTINUOUS
 10
-43.632094732
 20
13.204045
 11
-43.632094732
 21
13.798494
  0
LINE
  5
513
100
AcDbEntity
  8
CURVE
100
AcDbLine
 62
7
420
10991288
  6
CONTINUOUS
 10
-43.632094732
 20
15.373179
 11
-43.632094732
 21
15.999605
  0
LINE
  5
514
100
AcDbEntity
  8
CURVE
100
AcDbLine
 62
250
  6
CONTINUOUS
 10
-43.6232278343
 20
-15.068868
 11
-43.6232348343
 21
-14.488824
  0
LINE
  5
515
100
AcDbEntity
  8
CURVE
100
AcDbLine
 62
250
  6
CONTINUOUS
 10
-43.6232278343
 20
-13.171014
 11
-43.6232348343
 21
-12.590992
  0
LINE
  5
516
100
AcDbEntity
  8
CURVE
100
AcDbLine
 62
250
  6
CONTINUOUS
 10
-43.6232348343
 20
-10.882587
 11
-43.6232428343
 21
-10.30258
  0
LINE
  5
517
100
AcDbEntity
  8
CURVE
100
AcDbLine
 62
250
  6
CONTINUOUS
 10
-43.6232428343
 20
-8.207475
 11
-43.6232348343
 21
-8.787497
  0
LINE
  5
518
100
AcDbEntity
  8
CURVE
100
AcDbLine
 62
250
  6
CONTINUOUS
 10
-43.6232498343
 20
-3.637619
 11
-43.6232428343
 21
-4.290924
  0
LINE
  5
519
100
AcDbEntity
  8
CURVE
100
AcDbLine
 62
250
  6
CONTINUOUS
 10
-43.6232428343
 20
-5.378474
 11
-43.6232428343
 21
-5.958503
  0
LINE
  5
51A
100
AcDbEntity
  8
CURVE
100
AcDbLine
 62
250
  6
CONTINUOUS
 10
-43.6232348343
 20
-12.010985
 11
-43.6232348343
 21
-11.430963
  0
LINE
  5
51B
100
AcDbEntity
  8
CURVE
100
AcDbLine
 62
250
  6
CONTINUOUS
 10
-43.6232348343
 20
-9.754197
 11
-43.6232348343
 21
-9.174176
  0
LINE
  5
51C
100
AcDbEntity
  8
CURVE
100
AcDbLine
 62
250
  6
CONTINUOUS
 10
-43.6232348343
 20
-6.345182
 11
-43.6232428343
 21
-6.925211
  0
LINE
  5
51D
100
AcDbEntity
  8
ASSI
100
AcDbLine
 62
250
  6
CONTINUOUS
 10
-43.0487080075
 20
-22.3338981669
 11
-43.0487080075
 21
-23.7507734247
  0
LINE
  5
51E
100
AcDbEntity
  8
ASSI
100
AcDbLine
 62
250
  6
CONTINUOUS
 10
-43.0487080075
 20
22.3338981669
 11
-43.0487080075
 21
23.7507734247
  0
LWPOLYLINE
  5
51F
100
AcDbEntity
  8
0
100
AcDbPolyline
 62
7
  6
CONTINUOUS
 90
4
 70
0
 43
0.3500000087
 10
-42.9160847137
 20
43.7252368744
 10
-42.9160847137
 20
44.5823830048
 10
-42.4875116486
 20
45.0109518066
 10
-41.8446563141
 20
45.0109518066
  0
LINE
  5
520
100
AcDbEntity
  8
RACCORDO
100
AcDbLine
 62
7
  6
CONTINUOUS
 10
-42.6232278343
 20
-22.3301850577
 11
-42.6232278343
 21
-23.2563578147
  0
LINE
  5
521
100
AcDbEntity
  8
RACCORDO
100
AcDbLine
 62
7
  6
CONTINUOUS
 10
-42.6232278343
 20
22.3301850577
 11
-42.6232278343
 21
23.2563578147
  0
LWPOLYLINE
  5
522
100
AcDbEntity
  8
RACCORDO
100
AcDbPolyline
 62
250
  6
CONTINUOUS
 90
8
 70
0
 10
-49.8717734014
 20
-24.495628166
 10
-49.8716994514
 20
-24.4952867588
 10
-49.8716296279
 20
-24.4942634962
 10
-49.8715641298
 20
-24.492559892
 10
-49.8715031323
 20
-24.4901787618
 10
-49.8714468253
 20
-24.4871256484
 10
-49.8713954029
 20
-24.4834102087
 10
-49.8713077796
 20
-24.4740372277
  0
LINE
  5
523
100
AcDbEntity
  8
CURVE
100
AcDbLine
 62
250
  6
CONTINUOUS
 10
-40.7556045585
 20
4.5190477371
 11
-40.9103546298
 21
4.33333323
  0
LINE
  5
524
100
AcDbEntity
  8
CURVE
100
AcDbLine
 62
250
  6
CONTINUOUS
 10
-37.5701328837
 20
7.0261903286
 11
-37.0130324488
 21
7.6761903286
  0
LINE
  5
525
100
AcDbEntity
  8
CURVE
100
AcDbLine
 62
250
  6
CONTINUOUS
 10
-37.8486830431
 20
7.6761903286
 11
-37.9415331478
 21
7.58333354
  0
LINE
  5
526
100
AcDbEntity
  8
CURVE
100
AcDbLine
 62
250
  6
CONTINUOUS
 10
-40.1056540576
 20
4.6119048357
 11
-40.2913541896
 21
4.4261903286
  0
LINE
  5
527
100
AcDbEntity
  8
CURVE
100
AcDbLine
 62
250
  6
CONTINUOUS
 10
-36.641632146
 20
7.1190477371
 11
-36.7344822217
 21
7.0261903286
  0
LINE
  5
528
100
AcDbEntity
  8
0
100
AcDbLine
 62
250
  6
CONTINUOUS
 10
-32.9419139099
 20
10.5785716057
 11
-32.7562137779
 21
10.7642858028
  0
LINE
  5
529
100
AcDbEntity
  8
0
100
AcDbLine
 62
250
  6
CONTINUOUS
 10
-25.3853465807
 20
14.5047613144
 11
-25.9424469769
 21
14.1333329201
  0
LINE
  5
52A
100
AcDbEntity
  8
0
100
AcDbLine
 62
250
  6
CONTINUOUS
 10
-32.7562137779
 20
8.6595238686
 11
-32.9419139099
 21
8.5357141972
  0
LINE
  5
52B
100
AcDbEntity
  8
0
100
AcDbLine
 62
250
  6
CONTINUOUS
 10
-32.5705136458
 20
6.7714285493
 11
-32.7562137779
 21
6.6785714507
  0
LINE
  5
52C
100
AcDbEntity
  8
CURVE
100
AcDbLine
 62
250
  6
CONTINUOUS
 10
-39.6414036887
 20
3.5904761314
 11
-40.9413046906
 21
3.2190477371
  0
LINE
  5
52D
100
AcDbEntity
  8
CURVE
100
AcDbLine
 62
250
  6
CONTINUOUS
 10
-36.641632146
 20
3.8690477371
 11
-37.9415331478
 21
3.4976190329
  0
LINE
  5
52E
100
AcDbEntity
  8
0
100
AcDbLine
 62
250
  6
CONTINUOUS
 10
-28.5793510739
 20
-3.432113
 11
-28.9518008916
 21
-3.432113
  0
LINE
  5
52F
100
AcDbEntity
  8
0
100
AcDbLine
 62
250
  6
CONTINUOUS
 10
-28.9518008916
 20
-3.082053
 11
-28.5793510739
 21
-3.082053
  0
LINE
  5
530
100
AcDbEntity
  8
0
100
AcDbLine
 62
250
  6
CONTINUOUS
 10
-24.1422010334
 20
-2.407638
 11
-23.1232278343
 21
-2.407638
  0
LINE
  5
531
100
AcDbEntity
  8
0
100
AcDbLine
 62
250
  6
CONTINUOUS
 10
-26.390731413
 20
-3.619407
 11
-29.2871461222
 21
-3.350161
  0
LINE
  5
532
100
AcDbEntity
  8
CURVE
100
AcDbLine
 62
250
  6
CONTINUOUS
 10
-32.9419139099
 20
-13.05
 11
-32.7562137779
 21
-13.2357143521
  0
LINE
  5
533
100
AcDbEntity
  8
CURVE
100
AcDbLine
 62
250
  6
CONTINUOUS
 10
-40.2913541896
 20
-4.4761909485
 11
-40.4770543217
 21
-4.2904761314
  0
LINE
  5
534
100
AcDbEntity
  8
CURVE
100
AcDbLine
 62
250
  6
CONTINUOUS
 10
-39.6414036887
 20
-4.3833329201
 11
-39.8271038401
 21
-4.1976193428
  0
LINE
  5
535
100
AcDbEntity
  8
CURVE
100
AcDbLine
 62
250
  6
CONTINUOUS
 10
-32.9419139099
 20
-10.7595238686
 11
-32.5705136458
 21
-11.1309522629
  0
LINE
  5
536
100
AcDbEntity
  8
CURVE
100
AcDbLine
 62
250
  6
CONTINUOUS
 10
-40.5699044264
 20
-5.5904761314
 11
-40.4770543217
 21
-5.7761903286
  0
LINE
  5
537
100
AcDbEntity
  8
SUPERFICI
100
AcDbLine
 62
7
  6
CONTINUOUS
 10
-42.0723264713
 20
0.2847779897
 11
-42.0723264713
 21
-0.2847779897
  0
LINE
  5
538
100
AcDbEntity
  8
CURVE
100
AcDbLine
 62
250
  6
CONTINUOUS
 10
-40.9413046906
 20
6.3761903286
 11
-40.9413046906
 21
5.8190477371
  0
LINE
  5
539
100
AcDbEntity
  8
CURVE
100
AcDbLine
 62
250
  6
CONTINUOUS
 10
-40.9413046906
 20
4.2404761314
 11
-40.9413046906
 21
3.9619048357
  0
LINE
  5
53A
100
AcDbEntity
  8
CURVE
100
AcDbLine
 62
250
  6
CONTINUOUS
 10
-40.9413046906
 20
2.3214285493
 11
-40.9413046906
 21
1.95
  0
LINE
  5
53B
100
AcDbEntity
  8
CURVE
100
AcDbLine
 62
250
  6
CONTINUOUS
 10
-40.9413046906
 20
-4.5690477371
 11
-40.9413046906
 21
-4.8476193428
  0
LINE
  5
53C
100
AcDbEntity
  8
CURVE
100
AcDbLine
 62
250
  6
CONTINUOUS
 10
-40.9413046906
 20
-7.4476193428
 11
-40.9413046906
 21
-7.5404761314
  0
LINE
  5
53D
100
AcDbEntity
  8
CURVE
100
AcDbLine
 62
250
  6
CONTINUOUS
 10
-40.9413046906
 20
-9.2119045258
 11
-40.9413046906
 21
-9.9547619343
  0
LINE
  5
53E
100
AcDbEntity
  8
CURVE
100
AcDbLine
 62
250
  6
CONTINUOUS
 10
-40.9413046906
 20
-10.4809522629
 11
-40.9413046906
 21
-10.8523809671
  0
LINE
  5
53F
100
AcDbEntity
  8
CURVE
100
AcDbLine
 62
250
  6
CONTINUOUS
 10
-40.9413046906
 20
-11.4095238686
 11
-40.9413046906
 21
-11.96666677
  0
LINE
  5
540
100
AcDbEntity
  8
CURVE
100
AcDbLine
 62
250
  6
CONTINUOUS
 10
-40.9413046906
 20
-12.5238095164
 11
-40.9413046906
 21
-12.9880951643
  0
LINE
  5
541
100
AcDbEntity
  8
CURVE
100
AcDbLine
 62
250
  6
CONTINUOUS
 10
-40.9413046906
 20
-14.5357142746
 11
-40.9413046906
 21
-15.0
  0
LINE
  5
542
100
AcDbEntity
  8
CURVE
100
AcDbLine
 62
250
  6
CONTINUOUS
 10
-40.9413046906
 20
12.7642856479
 11
-40.9413046906
 21
13.1357143521
  0
LINE
  5
543
100
AcDbEntity
  8
CURVE
100
AcDbLine
 62
250
  6
CONTINUOUS
 10
-40.9413046906
 20
14.4357141972
 11
-40.9413046906
 21
14.8071429014
  0
LINE
  5
544
100
AcDbEntity
  8
CURVE
100
AcDbLine
 62
250
  6
CONTINUOUS
 10
-40.5699044264
 20
-5.2190477371
 11
-40.5699044264
 21
-5.5904761314
  0
LINE
  5
545
100
AcDbEntity
  8
CURVE
100
AcDbLine
 62
250
  6
CONTINUOUS
 10
-40.9103546298
 20
4.33333323
 11
-40.9413046906
 21
4.2404761314
  0
LINE
  5
546
100
AcDbEntity
  8
CURVE
100
AcDbLine
 62
250
  6
CONTINUOUS
 10
-37.7558330158
 20
4.7976190329
 11
-37.9105830871
 21
4.6119048357
  0
LINE
  5
547
100
AcDbEntity
  8
CURVE
100
AcDbLine
 62
250
  6
CONTINUOUS
 10
-37.1058825148
 20
4.8904761314
 11
-37.2915826469
 21
4.7047619343
  0
LINE
  5
548
100
AcDbEntity
  8
0
100
AcDbLine
 62
250
  6
CONTINUOUS
 10
-32.3848135138
 20
9.5571429014
 11
-32.199113343
 21
9.7428570986
  0
LINE
  5
549
100
AcDbEntity
  8
CURVE
100
AcDbLine
 62
250
  6
CONTINUOUS
 10
-39.8271038401
 20
1.7642856479
 11
-39.6414036887
 21
1.95
  0
LINE
  5
54A
100
AcDbEntity
  8
0
100
AcDbLine
 62
250
  6
CONTINUOUS
 10
-31.6420129081
 20
9.2785712957
 11
-31.8277130595
 21
9.0928570986
  0
LINE
  5
54B
100
AcDbEntity
  8
0
100
AcDbLine
 62
250
  6
CONTINUOUS
 10
-32.199113343
 20
8.7214287043
 11
-32.3848135138
 21
8.5357141972
  0
LINE
  5
54C
100
AcDbEntity
  8
0
100
AcDbLine
 62
250
  6
CONTINUOUS
 10
-32.0134132109
 20
6.1214285493
 11
-31.8277130595
 21
6.2142857254
  0
LINE
  5
54D
100
AcDbEntity
  8
0
100
AcDbLine
 62
250
  6
CONTINUOUS
 10
-24.642545975
 20
8.8404761314
 11
-25.9424469769
 21
8.1904761314
  0
LINE
  5
54E
100
AcDbEntity
  8
CURVE
100
AcDbLine
 62
250
  6
CONTINUOUS
 10
-32.3086288263
 20
0.725
 11
-32.1003113482
 21
0.7666666716
  0
LINE
  5
54F
100
AcDbEntity
  8
CURVE
100
AcDbLine
 62
250
  6
CONTINUOUS
 10
-32.9419139099
 20
-1.4785714507
 11
-32.6633636731
 21
-1.4785714507
  0
LINE
  5
550
100
AcDbEntity
  8
CURVE
100
AcDbLine
 62
250
  6
CONTINUOUS
 10
-32.9419139099
 20
-0.4571429014
 11
-32.3848135138
 21
-0.4571429014
  0
LINE
  5
551
100
AcDbEntity
  8
SUPERFICI
100
AcDbLine
 62
7
  6
CONTINUOUS
 10
-42.0723264713
 20
-0.2847779897
 11
-39.8509106811
 21
-0.2847779897
  0
LINE
  5
552
100
AcDbEntity
  8
CURVE
100
AcDbLine
 62
250
  6
CONTINUOUS
 10
-32.199113343
 20
0.1
 11
-31.8277130595
 21
0.1
  0
LINE
  5
553
100
AcDbEntity
  8
CURVE
100
AcDbLine
 62
250
  6
CONTINUOUS
 10
-32.6633636731
 20
-7.41666646
 11
-32.9419139099
 21
-7.2309522629
  0
LINE
  5
554
100
AcDbEntity
  8
CURVE
100
AcDbLine
 62
250
  6
CONTINUOUS
 10
-32.5705136458
 20
-6.76666646
 11
-31.6420129081
 21
-7.41666646
  0
LINE
  5
555
100
AcDbEntity
  8
CURVE
100
AcDbLine
 62
250
  6
CONTINUOUS
 10
-32.6633636731
 20
-10.2023809671
 11
-32.9419139099
 21
-9.9238096714
  0
LINE
  5
556
100
AcDbEntity
  8
CURVE
100
AcDbLine
 62
250
  6
CONTINUOUS
 10
-32.7562137779
 20
-9.36666646
 11
-32.9419139099
 21
-9.1809522629
  0
LINE
  5
557
100
AcDbEntity
  8
CURVE
100
AcDbLine
 62
250
  6
CONTINUOUS
 10
-31.8277130595
 20
-9.7380954742
 11
-31.6420129081
 21
-9.9238096714
  0
LINE
  5
558
100
AcDbEntity
  8
CURVE
100
AcDbLine
 62
250
  6
CONTINUOUS
 10
-32.0134132109
 20
-8.8095238686
 11
-31.6420129081
 21
-9.1809522629
  0
LINE
  5
559
100
AcDbEntity
  8
CURVE
100
AcDbLine
 62
250
  6
CONTINUOUS
 10
-40.9413046906
 20
0.371428588
 11
-40.5699044264
 21
-0.0
  0
LINE
  5
55A
100
AcDbEntity
  8
CURVE
100
AcDbLine
 62
250
  6
CONTINUOUS
 10
-40.3842042944
 20
-11.96666677
 11
-40.3842042944
 21
-11.5952380657
  0
LINE
  5
55B
100
AcDbEntity
  8
CURVE
100
AcDbLine
 62
250
  6
CONTINUOUS
 10
-40.3842042944
 20
5.8190477371
 11
-40.3842042944
 21
6.1904761314
  0
LINE
  5
55C
100
AcDbEntity
  8
CURVE
100
AcDbLine
 62
250
  6
CONTINUOUS
 10
-40.3842042944
 20
12.95
 11
-40.3842042944
 21
13.1357143521
  0
LINE
  5
55D
100
AcDbEntity
  8
CURVE
100
AcDbLine
 62
250
  6
CONTINUOUS
 10
-40.3842042944
 20
14.6214287043
 11
-40.3842042944
 21
14.8071429014
  0
LINE
  5
55E
100
AcDbEntity
  8
CURVE
100
AcDbLine
 62
250
  6
CONTINUOUS
 10
-40.2913541896
 20
-4.8476193428
 11
-40.2913541896
 21
-4.3833329201
  0
LINE
  5
55F
100
AcDbEntity
  8
CURVE
100
AcDbLine
 62
250
  6
CONTINUOUS
 10
-40.2913541896
 20
3.9619048357
 11
-40.2913541896
 21
4.4261903286
  0
LINE
  5
560
100
AcDbEntity
  8
CURVE
100
AcDbLine
 62
250
  6
CONTINUOUS
 10
-40.1985041236
 20
-12.9880951643
 11
-40.1985041236
 21
-12.5238095164
  0
LINE
  5
561
100
AcDbEntity
  8
RACCORDO
100
AcDbLine
 62
250
  6
CONTINUOUS
 10
-40.114501631
 20
-21.5659754333
 11
-40.114501631
 21
-20.6
  0
LINE
  5
562
100
AcDbEntity
  8
RACCORDO
100
AcDbLine
 62
250
  6
CONTINUOUS
 10
-40.114501631
 20
20.6
 11
-40.114501631
 21
21.5659754333
  0
LINE
  5
563
100
AcDbEntity
  8
CURVE
100
AcDbLine
 62
250
  6
CONTINUOUS
 10
-40.0128039916
 20
3.46666677
 11
-40.0128039916
 21
2.9714287043
  0
LINE
  5
564
100
AcDbEntity
  8
CURVE
100
AcDbLine
 62
250
  6
CONTINUOUS
 10
-39.9199539062
 20
11.7428571761
 11
-39.9199539062
 21
12.3928570986
  0
LINE
  5
565
100
AcDbEntity
  8
CURVE
100
AcDbLine
 62
250
  6
CONTINUOUS
 10
-39.6414036887
 20
14.9
 11
-39.6414036887
 21
14.4357141972
  0
LINE
  5
566
100
AcDbEntity
  8
CURVE
100
AcDbLine
 62
250
  6
CONTINUOUS
 10
-39.6414036887
 20
13.2285714507
 11
-39.6414036887
 21
12.7642856479
  0
LINE
  5
567
100
AcDbEntity
  8
CURVE
100
AcDbLine
 62
250
  6
CONTINUOUS
 10
-39.6414036887
 20
6.3761903286
 11
-39.6414036887
 21
5.8190477371
  0
LINE
  5
568
100
AcDbEntity
  8
CURVE
100
AcDbLine
 62
250
  6
CONTINUOUS
 10
-39.6414036887
 20
5.4476193428
 11
-39.6414036887
 21
4.98333323
  0
LINE
  5
569
100
AcDbEntity
  8
CURVE
100
AcDbLine
 62
250
  6
CONTINUOUS
 10
-39.6414036887
 20
-11.4095238686
 11
-39.6414036887
 21
-11.96666677
  0
LINE
  5
56A
100
AcDbEntity
  8
CURVE
100
AcDbLine
 62
250
  6
CONTINUOUS
 10
-39.6414036887
 20
-15.0
 11
-39.6414036887
 21
-14.5357142746
  0
LINE
  5
56B
100
AcDbEntity
  8
CURVE
100
AcDbLine
 62
250
  6
CONTINUOUS
 10
-39.6414036887
 20
-10.8523809671
 11
-39.6414036887
 21
-10.4809522629
  0
LINE
  5
56C
100
AcDbEntity
  8
CURVE
100
AcDbLine
 62
250
  6
CONTINUOUS
 10
-39.6414036887
 20
-7.5404761314
 11
-39.6414036887
 21
-7.4476193428
  0
LINE
  5
56D
100
AcDbEntity
  8
CURVE
100
AcDbLine
 62
250
  6
CONTINUOUS
 10
-39.6414036887
 20
-5.5904761314
 11
-39.6414036887
 21
-5.2190477371
  0
LINE
  5
56E
100
AcDbEntity
  8
CURVE
100
AcDbLine
 62
250
  6
CONTINUOUS
 10
-39.6414036887
 20
-4.8476193428
 11
-39.6414036887
 21
-4.3833329201
  0
LINE
  5
56F
100
AcDbEntity
  8
CURVE
100
AcDbLine
 62
250
  6
CONTINUOUS
 10
-39.6414036887
 20
1.95
 11
-39.6414036887
 21
2.3214285493
  0
LINE
  5
570
100
AcDbEntity
  8
CURVE
100
AcDbLine
 62
250
  6
CONTINUOUS
 10
-39.6414036887
 20
3.9619048357
 11
-39.6414036887
 21
4.4261903286
  0
LINE
  5
571
100
AcDbEntity
  8
RACCORDO
100
AcDbLine
 62
7
  6
CONTINUOUS
 10
-39.6232278343
 20
-21.3126932437
 11
-39.6232278343
 21
-19.5497491922
  0
LINE
  5
572
100
AcDbEntity
  8
RACCORDO
100
AcDbLine
 62
7
  6
CONTINUOUS
 10
-39.6232278343
 20
19.5497491922
 11
-39.6232278343
 21
21.3126932437
  0
LWPOLYLINE
  5
573
100
AcDbEntity
  8
0
100
AcDbPolyline
 62
7
  6
CONTINUOUS
 90
4
 70
0
 43
0.3500000087
 10
-38.8446576477
 20
45.6538114044
 10
-38.8446576477
 20
46.2966667389
 10
-37.3446561829
 20
46.2966667389
 10
-38.2017980499
 20
43.2966680725
  0
LINE
  5
574
100
AcDbEntity
  8
CURVE
100
AcDbLine
 62
250
  6
CONTINUOUS
 10
-37.9105830871
 20
4.6119048357
 11
-37.9415331478
 21
4.5190477371
  0
LINE
  5
575
100
AcDbEntity
  8
CURVE
100
AcDbLine
 62
250
  6
CONTINUOUS
 10
-40.9103546298
 20
-4.4761909485
 11
-40.9413046906
 21
-4.5690477371
  0
LINE
  5
576
100
AcDbEntity
  8
SUPERFICI
100
AcDbLine
 62
7
  6
CONTINUOUS
 10
-40.1528963338
 20
0.2847779897
 11
-39.2007945911
 21
1.6892399958
  0
LINE
  5
577
100
AcDbEntity
  8
SUPERFICI
100
AcDbLine
 62
7
  6
CONTINUOUS
 10
-39.8509106811
 20
-0.2847779897
 11
-38.760847921
 21
1.3231927369
  0
LINE
  5
578
100
AcDbEntity
  8
0
100
AcDbLine
 62
250
  6
CONTINUOUS
 10
-32.4776635411
 20
8.13333323
 11
-32.3848135138
 21
8.2571429014
  0
LINE
  5
579
100
AcDbEntity
  8
0
100
AcDbLine
 62
250
  6
CONTINUOUS
 10
-31.8277130595
 20
8.0714287043
 11
-31.6420129081
 21
8.2571429014
  0
LINE
  5
57A
100
AcDbEntity
  8
0
100
AcDbLine
 62
250
  6
CONTINUOUS
 10
-32.7562137779
 20
6.6785714507
 11
-32.9419139099
 21
6.4928570986
  0
LINE
  5
57B
100
AcDbEntity
  8
CURVE
100
AcDbLine
 62
250
  6
CONTINUOUS
 10
-36.8273322974
 20
2.0428570986
 11
-36.641632146
 21
2.2285714507
  0
LINE
  5
57C
100
AcDbEntity
  8
CURVE
100
AcDbLine
 62
250
  6
CONTINUOUS
 10
-37.9415331478
 20
0.4642857254
 11
-37.7558330158
 21
0.65
  0
LINE
  5
57D
100
AcDbEntity
  8
0
100
AcDbLine
 62
250
  6
CONTINUOUS
 10
-31.8277130595
 20
6.2142857254
 11
-31.6420129081
 21
6.4
  0
LINE
  5
57E
100
AcDbEntity
  8
CURVE
100
AcDbLine
 62
250
  6
CONTINUOUS
 10
-44.8143471673
 20
-4.2550232093
 11
-43.6232498343
 21
-3.637619
  0
LINE
  5
57F
100
AcDbEntity
  8
0
100
AcDbLine
 62
250
  6
CONTINUOUS
 10
-24.642545975
 20
3.8571429014
 11
-25.9424469769
 21
3.4857143521
  0
LINE
  5
580
100
AcDbEntity
  8
CURVE
100
AcDbLine
 62
250
  6
CONTINUOUS
 10
-32.3086288263
 20
1.8083333731
 11
-32.5586097882
 21
1.7666666269
  0
LINE
  5
581
100
AcDbEntity
  8
SUPERFICI
100
AcDbLine
 62
7
  6
CONTINUOUS
 10
-42.0723264713
 20
0.2847779897
 11
-40.1528963338
 21
0.2847779897
  0
LINE
  5
582
100
AcDbEntity
  8
CURVE
100
AcDbLine
 62
250
  6
CONTINUOUS
 10
-39.6414036887
 20
0.371428588
 11
-40.9413046906
 21
0.371428588
  0
LINE
  5
583
100
AcDbEntity
  8
CURVE
100
AcDbLine
 62
250
  6
CONTINUOUS
 10
-37.7558330158
 20
0.65
 11
-37.5701328837
 21
0.65
  0
LINE
  5
584
100
AcDbEntity
  8
CURVE
100
AcDbLine
 62
250
  6
CONTINUOUS
 10
-40.7556045585
 20
1.7642856479
 11
-39.8271038401
 21
1.7642856479
  0
LINE
  5
585
100
AcDbEntity
  8
0
100
AcDbLine
 62
250
  6
CONTINUOUS
 10
-25.9424469769
 20
2.0
 11
-24.642545975
 21
2.0
  0
LINE
  5
586
100
AcDbEntity
  8
CURVE
100
AcDbLine
 62
250
  6
CONTINUOUS
 10
-37.7558330158
 20
2.0428570986
 11
-36.8273322974
 21
2.0428570986
  0
LINE
  5
587
100
AcDbEntity
  8
CURVE
100
AcDbLine
 62
250
  6
CONTINUOUS
 10
-32.5586097882
 20
0.7666666716
 11
-32.3086288263
 21
0.725
  0
LINE
  5
588
100
AcDbEntity
  8
CURVE
100
AcDbLine
 62
250
  6
CONTINUOUS
 10
-31.6420129081
 20
-1.2
 11
-32.9419139099
 21
-0.8285714507
  0
LINE
  5
589
100
AcDbEntity
  8
CURVE
100
AcDbLine
 62
250
  6
CONTINUOUS
 10
-31.6420129081
 20
-2.5
 11
-32.9419139099
 21
-1.85
  0
LINE
  5
58A
100
AcDbEntity
  8
CURVE
100
AcDbLine
 62
250
  6
CONTINUOUS
 10
-37.662982911
 20
-0.0
 11
-37.9415331478
 21
0.185714294
  0
LINE
  5
58B
100
AcDbEntity
  8
CURVE
100
AcDbLine
 62
250
  6
CONTINUOUS
 10
-40.9413046906
 20
1.95
 11
-40.7556045585
 21
1.7642856479
  0
LWPOLYLINE
  5
58C
100
AcDbEntity
  8
SUPERFICI
100
AcDbPolyline
 62
7
  6
CONTINUOUS
 90
7
 70
0
 10
-40.1528963338
 20
0.2847779897
 10
-40.1521486919
 20
0.2837095804
 10
-40.1501458253
 20
0.279853727
 10
-40.1466931169
 20
0.273078496
 10
-40.14156046
 20
0.2631473079
 10
-40.1346140676
 20
0.2500500544
 10
-40.126063729
 20
0.2341707163
  0
LWPOLYLINE
  5
58D
100
AcDbEntity
  8
SUPERFICI
100
AcDbPolyline
 62
7
  6
CONTINUOUS
 90
7
 70
0
 10
-39.8777432859
 20
-0.2341707163
 10
-39.8691929473
 20
-0.2500500544
 10
-39.8622465549
 20
-0.2631473079
 10
-39.857113898
 20
-0.273078496
 10
-39.8536611896
 20
-0.279853727
 10
-39.851658323
 20
-0.2837095804
 10
-39.8509106811
 20
-0.2847779897
  0
LWPOLYLINE
  5
58E
100
AcDbEntity
  8
SUPERFICI
100
AcDbPolyline
 62
7
  6
CONTINUOUS
 90
3
 70
0
 10
-39.9698728132
 20
-0.0608675503
 10
-39.9388785469
 20
-0.1187150795
 10
-39.9244919202
 20
-0.1460454482
  0
LINE
  5
58F
100
AcDbEntity
  8
SUPERFICI
100
AcDbLine
 62
7
  6
CONTINUOUS
 10
-39.9859104461
 20
-0.0307368042
 11
-39.9698728132
 21
-0.0608675503
  0
LWPOLYLINE
  5
590
100
AcDbEntity
  8
SUPERFICI
100
AcDbPolyline
 62
7
  6
CONTINUOUS
 90
3
 70
0
 10
-40.0339342017
 20
0.0608675503
 10
-40.0178965688
 20
0.0307368042
 10
-39.9859104461
 20
-0.0307368042
  0
LINE
  5
591
100
AcDbEntity
  8
SUPERFICI
100
AcDbLine
 62
7
  6
CONTINUOUS
 10
-40.126063729
 20
0.2341707163
 11
-40.0793150947
 21
0.1460454482
  0
LINE
  5
592
100
AcDbEntity
  8
SUPERFICI
100
AcDbLine
 62
7
  6
CONTINUOUS
 10
-40.1051796247
 20
0.194673844
 11
-40.1162488071
 21
0.2156947944
  0
LINE
  5
593
100
AcDbEntity
  8
SUPERFICI
100
AcDbLine
 62
7
  6
CONTINUOUS
 10
-39.9244919202
 20
-0.1460454482
 11
-39.8777432859
 21
-0.2341707163
  0
LINE
  5
594
100
AcDbEntity
  8
SUPERFICI
100
AcDbLine
 62
7
  6
CONTINUOUS
 10
-39.8875582078
 20
-0.2156947944
 11
-39.8986273902
 21
-0.194673844
  0
LWPOLYLINE
  5
595
100
AcDbEntity
  8
SUPERFICI
100
AcDbPolyline
 62
7
  6
CONTINUOUS
 90
3
 70
0
 10
-40.0793150947
 20
0.1460454482
 10
-40.064928468
 20
0.1187150795
 10
-40.0339342017
 20
0.0608675503
  0
LINE
  5
596
100
AcDbEntity
  8
CURVE
100
AcDbLine
 62
250
  6
CONTINUOUS
 10
-37.9415331478
 20
14.8642858028
 11
-37.9415331478
 21
14.4928574085
  0
LINE
  5
597
100
AcDbEntity
  8
CURVE
100
AcDbLine
 62
250
  6
CONTINUOUS
 10
-37.9415331478
 20
7.58333354
 11
-37.9415331478
 21
7.2119045258
  0
LINE
  5
598
100
AcDbEntity
  8
CURVE
100
AcDbLine
 62
250
  6
CONTINUOUS
 10
-37.9415331478
 20
6.6547619343
 11
-37.9415331478
 21
6.0976193428
  0
LINE
  5
599
100
AcDbEntity
  8
CURVE
100
AcDbLine
 62
250
  6
CONTINUOUS
 10
-37.9415331478
 20
4.5190477371
 11
-37.9415331478
 21
4.2404761314
  0
LINE
  5
59A
100
AcDbEntity
  8
CURVE
100
AcDbLine
 62
250
  6
CONTINUOUS
 10
-37.9415331478
 20
2.6
 11
-37.9415331478
 21
2.2285714507
  0
LINE
  5
59B
100
AcDbEntity
  8
CURVE
100
AcDbLine
 62
250
  6
CONTINUOUS
 10
-37.9415331478
 20
0.185714294
 11
-37.9415331478
 21
0.4642857254
  0
LINE
  5
59C
100
AcDbEntity
  8
CURVE
100
AcDbLine
 62
250
  6
CONTINUOUS
 10
-37.9415331478
 20
10.9642856479
 11
-37.9415331478
 21
11.3357143521
  0
LINE
  5
59D
100
AcDbEntity
  8
CURVE
100
AcDbLine
 62
250
  6
CONTINUOUS
 10
-37.9415331478
 20
12.6357141972
 11
-37.9415331478
 21
13.0071429014
  0
LWPOLYLINE
  5
59E
100
AcDbEntity
  8
0
100
AcDbPolyline
 62
7
  6
CONTINUOUS
 90
4
 70
0
 43
0.3500000087
 10
-37.5589427155
 20
33.6503123016
 10
-37.5589427155
 20
34.5074541687
 10
-37.1303696503
 20
34.9360229706
 10
-36.4875143158
 20
34.9360229706
  0
LINE
  5
59F
100
AcDbEntity
  8
CURVE
100
AcDbLine
 62
250
  6
CONTINUOUS
 10
-37.3844327517
 20
6.0976193428
 11
-37.3844327517
 21
6.4690477371
  0
LINE
  5
5A0
100
AcDbEntity
  8
CURVE
100
AcDbLine
 62
250
  6
CONTINUOUS
 10
-37.3844327517
 20
11.15
 11
-37.3844327517
 21
11.3357143521
  0
LINE
  5
5A1
100
AcDbEntity
  8
CURVE
100
AcDbLine
 62
250
  6
CONTINUOUS
 10
-37.3844327517
 20
12.8214287043
 11
-37.3844327517
 21
13.0071429014
  0
LINE
  5
5A2
100
AcDbEntity
  8
CURVE
100
AcDbLine
 62
250
  6
CONTINUOUS
 10
-37.2915826469
 20
4.2404761314
 11
-37.2915826469
 21
4.7047619343
  0
LINE
  5
5A3
100
AcDbEntity
  8
CURVE
100
AcDbLine
 62
250
  6
CONTINUOUS
 10
-37.0130324488
 20
3.7452380657
 11
-37.0130324488
 21
3.25
  0
LINE
  5
5A4
100
AcDbEntity
  8
CURVE
100
AcDbLine
 62
250
  6
CONTINUOUS
 10
-36.9201823634
 20
9.9428571761
 11
-36.9201823634
 21
10.5928570986
  0
LINE
  5
5A5
100
AcDbEntity
  8
CURVE
100
AcDbLine
 62
250
  6
CONTINUOUS
 10
-36.8582823194
 20
13.8428570986
 11
-36.8582823194
 21
13.7809522629
  0
LINE
  5
5A6
100
AcDbEntity
  8
CURVE
100
AcDbLine
 62
250
  6
CONTINUOUS
 10
-36.7035321948
 20
13.7809522629
 11
-36.7035321948
 21
13.8428570986
  0
LINE
  5
5A7
100
AcDbEntity
  8
CURVE
100
AcDbLine
 62
250
  6
CONTINUOUS
 10
-36.641632146
 20
14.7714283943
 11
-36.641632146
 21
14.4
  0
LINE
  5
5A8
100
AcDbEntity
  8
CURVE
100
AcDbLine
 62
250
  6
CONTINUOUS
 10
-36.641632146
 20
13.1
 11
-36.641632146
 21
12.6357141972
  0
LINE
  5
5A9
100
AcDbEntity
  8
CURVE
100
AcDbLine
 62
250
  6
CONTINUOUS
 10
-36.641632146
 20
11.4285714507
 11
-36.641632146
 21
10.9642856479
  0
LINE
  5
5AA
100
AcDbEntity
  8
CURVE
100
AcDbLine
 62
250
  6
CONTINUOUS
 10
-36.641632146
 20
7.4904761314
 11
-36.641632146
 21
7.1190477371
  0
LINE
  5
5AB
100
AcDbEntity
  8
CURVE
100
AcDbLine
 62
250
  6
CONTINUOUS
 10
-36.641632146
 20
6.6547619343
 11
-36.641632146
 21
6.0976193428
  0
LINE
  5
5AC
100
AcDbEntity
  8
CURVE
100
AcDbLine
 62
250
  6
CONTINUOUS
 10
-36.641632146
 20
5.7261903286
 11
-36.641632146
 21
5.2619045258
  0
LINE
  5
5AD
100
AcDbEntity
  8
CURVE
100
AcDbLine
 62
250
  6
CONTINUOUS
 10
-36.641632146
 20
-0.0
 11
-36.641632146
 21
0.65
  0
LINE
  5
5AE
100
AcDbEntity
  8
CURVE
100
AcDbLine
 62
250
  6
CONTINUOUS
 10
-36.641632146
 20
2.2285714507
 11
-36.641632146
 21
2.6
  0
LINE
  5
5AF
100
AcDbEntity
  8
CURVE
100
AcDbLine
 62
250
  6
CONTINUOUS
 10
-36.641632146
 20
4.2404761314
 11
-36.641632146
 21
4.7047619343
  0
LINE
  5
5B0
100
AcDbEntity
  8
CURVE
100
AcDbLine
 62
250
  6
CONTINUOUS
 10
-39.7342537644
 20
-5.7761903286
 11
-39.6414036887
 21
-5.5904761314
  0
LWPOLYLINE
  5
5B1
100
AcDbEntity
  8
RACCORDO
100
AcDbPolyline
 62
250
  6
CONTINUOUS
 90
5
 70
0
 10
-49.7507234367
 20
-23.6326765842
 10
-49.7495910607
 20
-23.6305857918
 10
-49.7487963752
 20
-23.6290788219
 10
-49.7483415523
 20
-23.6281597935
 10
-49.7482278343
 20
-23.6278312164
  0
LINE
  5
5B2
100
AcDbEntity
  8
RACCORDO
100
AcDbLine
 62
250
  6
CONTINUOUS
 10
-49.7539879871
 20
-23.6385852371
 11
-49.7507234367
 21
-23.6326765842
  0
LINE
  5
5B3
100
AcDbEntity
  8
RACCORDO
100
AcDbLine
 62
250
  6
CONTINUOUS
 10
-49.7613108445
 20
-23.6516334796
 11
-49.7539879871
 21
-23.6385852371
  0
LINE
  5
5B4
100
AcDbEntity
  8
RACCORDO
100
AcDbLine
 62
250
  6
CONTINUOUS
 10
-49.7839481001
 20
-23.6914794042
 11
-49.7613108445
 21
-23.6516334796
  0
LINE
  5
5B5
100
AcDbEntity
  8
RACCORDO
100
AcDbLine
 62
250
  6
CONTINUOUS
 10
-49.8587519652
 20
-23.821769291
 11
-49.7839481001
 21
-23.6914794042
  0
LINE
  5
5B6
100
AcDbEntity
  8
RACCORDO
100
AcDbLine
 62
250
  6
CONTINUOUS
 10
-49.8717734014
 20
-23.8443375673
 11
-49.8587519652
 21
-23.821769291
  0
LINE
  5
5B7
100
AcDbEntity
  8
CURVE
100
AcDbLine
 62
250
  6
CONTINUOUS
 10
-40.7556045585
 20
-4.2904761314
 11
-40.9103546298
 21
-4.4761909485
  0
LINE
  5
5B8
100
AcDbEntity
  8
CURVE
100
AcDbLine
 62
250
  6
CONTINUOUS
 10
-40.1056540576
 20
-4.1976193428
 11
-40.2913541896
 21
-4.3833329201
  0
LINE
  5
5B9
100
AcDbEntity
  8
CURVE
100
AcDbLine
 62
250
  6
CONTINUOUS
 10
-32.5586097882
 20
1.7666666269
 11
-32.6836002096
 21
1.6833333731
  0
LINE
  5
5BA
100
AcDbEntity
  8
CURVE
100
AcDbLine
 62
250
  6
CONTINUOUS
 10
-43.6232428343
 20
-4.290924
 11
-44.7445928343
 21
-4.872178
  0
LINE
  5
5BB
100
AcDbEntity
  8
CURVE
100
AcDbLine
 62
250
  6
CONTINUOUS
 10
-32.1003113482
 20
0.7666666716
 11
-31.89199387
 21
0.85
  0
LINE
  5
5BC
100
AcDbEntity
  8
CURVE
100
AcDbLine
 62
7
420
10991288
  6
CONTINUOUS
 10
-46.53187389
 20
2.700395
 11
-43.632094732
 21
2.700395
  0
LINE
  5
5BD
100
AcDbEntity
  8
0
100
AcDbLine
 62
250
  6
CONTINUOUS
 10
-24.642545975
 20
2.7428571761
 11
-25.9424469769
 21
2.7428571761
  0
LINE
  5
5BE
100
AcDbEntity
  8
CURVE
100
AcDbLine
 62
7
420
10991288
  6
CONTINUOUS
 10
-43.632094732
 20
3.323001
 11
-44.7487706879
 21
3.323001
  0
LINE
  5
5BF
100
AcDbEntity
  8
CURVE
100
AcDbLine
 62
7
420
10991288
  6
CONTINUOUS
 10
-45.2306669876
 20
3.323001
 11
-46.0499785903
 21
3.323001
  0
LINE
  5
5C0
100
AcDbEntity
  8
SUPERFICI
100
AcDbLine
 62
7
  6
CONTINUOUS
 10
-35.6226215331
 20
3.8037983759
 11
-32.1877265147
 21
3.8037983759
  0
LINE
  5
5C1
100
AcDbEntity
  8
CURVE
100
AcDbLine
 62
250
  6
CONTINUOUS
 10
-40.9413046906
 20
3.9619048357
 11
-39.6414036887
 21
3.9619048357
  0
LINE
  5
5C2
100
AcDbEntity
  8
0
100
AcDbLine
 62
250
  6
CONTINUOUS
 10
-25.9424469769
 20
4.2285714507
 11
-24.642545975
 21
4.2285714507
  0
LINE
  5
5C3
100
AcDbEntity
  8
CURVE
100
AcDbLine
 62
250
  6
CONTINUOUS
 10
-37.9415331478
 20
4.2404761314
 11
-36.641632146
 21
4.2404761314
  0
LINE
  5
5C4
100
AcDbEntity
  8
SUPERFICI
100
AcDbLine
 62
7
  6
CONTINUOUS
 10
-35.9172172193
 20
4.3733543552
 11
-32.1877265147
 21
4.3733543552
  0
LWPOLYLINE
  5
5C5
100
AcDbEntity
  8
CURVE
100
AcDbPolyline
 62
7
420
10991288
  6
CONTINUOUS
 90
53
 70
0
 10
-45.6403226415
 20
4.1183648367
 10
-45.6272135934
 20
4.1182694742
 10
-45.6140759788
 20
4.1179707582
 10
-45.6009236805
 20
4.1174497457
 10
-45.5877705813
 20
4.116687494
 10
-45.5746305638
 20
4.1156650603
 10
-45.5615175108
 20
4.1143635017
 10
-45.548445305
 20
4.1127638754
 10
-45.5354278292
 20
4.1108472385
 10
-45.5224789661
 20
4.1085946482
 10
-45.5096125983
 20
4.1059871617
 10
-45.4968426088
 20
4.1030058362
 10
-45.4841828801
 20
4.0996317288
 10
-45.471647295
 20
4.0958458966
 10
-45.4600464939
 20
4.091919112
 10
-45.4485745832
 20
4.0876219189
 10
-45.4372397018
 20
4.0829606758
 10
-45.4260499887
 20
4.0779417411
 10
-45.4150135827
 20
4.072571473
 10
-45.4041386228
 20
4.0668562301
 10
-45.3934332479
 20
4.0608023707
 10
-45.3852275857
 20
4.0558593458
 10
-45.37714872
 20
4.0507073536
 10
-45.3692158229
 20
4.0453386331
 10
-45.3614480662
 20
4.0397454232
 10
-45.3538646217
 20
4.0339199631
 10
-45.3464846616
 20
4.0278544916
 10
-45.3393273575
 20
4.0215412478
 10
-45.3324118815
 20
4.0149724707
 10
-45.3257574054
 20
4.0081403992
 10
-45.3194289347
 20
4.0010981678
 10
-45.3133767967
 20
3.9938061307
 10
-45.3076015307
 20
3.9862813016
 10
-45.3021036758
 20
3.978540694
 10
-45.2968837715
 20
3.9706013217
 10
-45.291942357
 20
3.9624801982
 10
-45.2872799715
 20
3.9541943373
 10
-45.2828971544
 20
3.9457607524
 10
-45.2787944449
 20
3.9371964574
 10
-45.2744788684
 20
3.9273476984
 10
-45.2705046621
 20
3.9173669323
 10
-45.2668524115
 20
3.9072683145
 10
-45.2635027019
 20
3.8970660002
 10
-45.2604361188
 20
3.8867741447
 10
-45.2576332476
 20
3.8764069032
 10
-45.2550746737
 20
3.8659784311
 10
-45.2527409826
 20
3.8555028835
 10
-45.2497212159
 20
3.8402744865
 10
-45.2470751886
 20
3.8249862635
 10
-45.2447458581
 20
3.8096474084
 10
-45.2426761819
 20
3.7942671151
 10
-45.2408091174
 20
3.7788545775
 10
-45.2390876221
 20
3.7634189896
  0
LINE
  5
5C6
100
AcDbEntity
  8
CURVE
100
AcDbLine
 62
250
  6
CONTINUOUS
 10
-32.1003113482
 20
1.7666666269
 11
-32.3086288263
 21
1.8083333731
  0
LINE
  5
5C7
100
AcDbEntity
  8
CURVE
100
AcDbLine
 62
250
  6
CONTINUOUS
 10
-40.9413046906
 20
3.2190477371
 11
-39.6414036887
 21
2.8476190329
  0
LINE
  5
5C8
100
AcDbEntity
  8
CURVE
100
AcDbLine
 62
250
  6
CONTINUOUS
 10
-37.9415331478
 20
3.4976190329
 11
-36.641632146
 21
3.1261903286
  0
LINE
  5
5C9
100
AcDbEntity
  8
CURVE
100
AcDbLine
 62
250
  6
CONTINUOUS
 10
-37.5701328837
 20
0.65
 11
-36.641632146
 21
-0.0
  0
LINE
  5
5CA
100
AcDbEntity
  8
CURVE
100
AcDbLine
 62
250
  6
CONTINUOUS
 10
-40.2913541896
 20
4.33333323
 11
-40.4770543217
 21
4.5190477371
  0
LINE
  5
5CB
100
AcDbEntity
  8
CURVE
100
AcDbLine
 62
250
  6
CONTINUOUS
 10
-37.9415331478
 20
2.2285714507
 11
-37.7558330158
 21
2.0428570986
  0
LINE
  5
5CC
100
AcDbEntity
  8
CURVE
100
AcDbLine
 62
250
  6
CONTINUOUS
 10
-39.6414036887
 20
4.4261903286
 11
-39.8271038401
 21
4.6119048357
  0
LINE
  5
5CD
100
AcDbEntity
  8
RACCORDO
100
AcDbLine
 62
250
  6
CONTINUOUS
 10
-49.8717734014
 20
23.8443375673
 11
-49.7886411587
 21
23.6996987826
  0
LINE
  5
5CE
100
AcDbEntity
  8
RACCORDO
100
AcDbLine
 62
250
  6
CONTINUOUS
 10
-49.7886411587
 20
23.6996987826
 11
-49.7643729308
 21
23.6570529269
  0
LINE
  5
5CF
100
AcDbEntity
  8
RACCORDO
100
AcDbLine
 62
250
  6
CONTINUOUS
 10
-49.7643729308
 20
23.6570529269
 11
-49.7561112647
 21
23.6423869945
  0
LWPOLYLINE
  5
5D0
100
AcDbEntity
  8
RACCORDO
100
AcDbPolyline
 62
250
  6
CONTINUOUS
 90
7
 70
0
 10
-49.7561112647
 20
23.6423869945
 10
-49.7521904115
 20
23.6353454907
 10
-49.7507234367
 20
23.6326765842
 10
-49.7495910607
 20
23.6305857918
 10
-49.7487963752
 20
23.6290788219
 10
-49.7483415523
 20
23.6281597935
 10
-49.7482278343
 20
23.6278312164
  0
LINE
  5
5D1
100
AcDbEntity
  8
CURVE
100
AcDbLine
 62
250
  6
CONTINUOUS
 10
-32.7669272366
 20
1.6
 11
-32.8502542636
 21
1.4333333135
  0
LINE
  5
5D2
100
AcDbEntity
  8
CURVE
100
AcDbLine
 62
250
  6
CONTINUOUS
 10
-32.6836002096
 20
1.6833333731
 11
-32.7669272366
 21
1.6
  0
LINE
  5
5D3
100
AcDbEntity
  8
CURVE
100
AcDbLine
 62
250
  6
CONTINUOUS
 10
-40.7556045585
 20
-7.2619045258
 11
-40.9413046906
 21
-7.4476193428
  0
LINE
  5
5D4
100
AcDbEntity
  8
CURVE
100
AcDbLine
 62
250
  6
CONTINUOUS
 10
-32.3848135138
 20
-0.0857143521
 11
-32.199113343
 21
0.1
  0
LINE
  5
5D5
100
AcDbEntity
  8
CURVE
100
AcDbLine
 62
250
  6
CONTINUOUS
 10
-39.8271038401
 20
-7.7261903286
 11
-39.6414036887
 21
-7.5404761314
  0
LINE
  5
5D6
100
AcDbEntity
  8
CURVE
100
AcDbLine
 62
250
  6
CONTINUOUS
 10
-31.89199387
 20
0.85
 11
-31.6420129081
 21
1.0583333433
  0
LINE
  5
5D7
100
AcDbEntity
  8
0
100
AcDbLine
 62
250
  6
CONTINUOUS
 10
-25.1996464099
 20
2.371428588
 11
-25.9424469769
 21
2.0
  0
LINE
  5
5D8
100
AcDbEntity
  8
CURVE
100
AcDbLine
 62
250
  6
CONTINUOUS
 10
-40.5699044264
 20
-7.1690477371
 11
-40.7556045585
 21
-7.2619045258
  0
LINE
  5
5D9
100
AcDbEntity
  8
CURVE
100
AcDbLine
 62
250
  6
CONTINUOUS
 10
-46.5233728343
 20
-7.276321
 11
-43.6232348343
 21
-6.345182
  0
LINE
  5
5DA
100
AcDbEntity
  8
CURVE
100
AcDbLine
 62
250
  6
CONTINUOUS
 10
-44.7445928343
 20
-7.285246
 11
-45.6201318343
 21
-7.56635
  0
LINE
  5
5DB
100
AcDbEntity
  8
CURVE
100
AcDbLine
 62
250
  6
CONTINUOUS
 10
-43.6232428343
 20
-6.925211
 11
-44.1935708343
 21
-7.108317
  0
LWPOLYLINE
  5
5DC
100
AcDbEntity
  8
CURVE
100
AcDbPolyline
 62
7
420
10991288
  6
CONTINUOUS
 90
52
 70
0
 10
-45.6403226415
 20
4.7811317512
 10
-45.6707804436
 20
4.7808230713
 10
-45.7012410281
 20
4.7798672229
 10
-45.7316807409
 20
4.7782194935
 10
-45.7620759282
 20
4.7758351702
 10
-45.792402936
 20
4.7726695404
 10
-45.8226381104
 20
4.7686778912
 10
-45.8527577975
 20
4.76381551
 10
-45.8790347536
 20
4.7588041041
 10
-45.9051694224
 20
4.7530629651
 10
-45.9311263628
 20
4.7465653269
 10
-45.9568701338
 20
4.7392844235
 10
-45.982365294
 20
4.7311934887
 10
-46.0075764026
 20
4.7222657565
 10
-46.0324680182
 20
4.7124744607
 10
-46.0570046998
 20
4.7017928354
 10
-46.0811469924
 20
4.6902013058
 10
-46.1048509573
 20
4.677703419
 10
-46.1280685795
 20
4.6643097667
 10
-46.1507518439
 20
4.6500309406
 10
-46.1728527355
 20
4.6348775324
 10
-46.1943232393
 20
4.6188601338
 10
-46.2151153401
 20
4.6019893364
 10
-46.2351810231
 20
4.5842757318
 10
-46.2544981533
 20
4.5657184802
 10
-46.2730374482
 20
4.5463788935
 10
-46.2907969966
 20
4.526308454
 10
-46.307774887
 20
4.5055586444
 10
-46.3239692082
 20
4.4841809471
 10
-46.3393780489
 20
4.4622268446
 10
-46.3539994978
 20
4.4397478194
 10
-46.3678316435
 20
4.4167953541
 10
-46.3826652675
 20
4.3900720912
 10
-46.3965150155
 20
4.3628480007
 10
-46.4094284159
 20
4.3351723067
 10
-46.4214529973
 20
4.3070942338
 10
-46.4326362884
 20
4.2786630061
 10
-46.4430258176
 20
4.2499278481
 10
-46.4526691136
 20
4.220937984
 10
-46.4630351672
 20
4.1868413013
 10
-46.4724787441
 20
4.1524920475
 10
-46.4810289628
 20
4.1179175053
 10
-46.4887149417
 20
4.0831449576
 10
-46.4955657993
 20
4.0482016873
 10
-46.501610654
 20
4.0131149774
 10
-46.5078431424
 20
3.9709078386
 10
-46.5130601833
 20
3.9285633965
 10
-46.517362362
 20
3.8861112127
 10
-46.5208502638
 20
3.8435808487
 10
-46.5236244738
 20
3.8010018662
 10
-46.5262671231
 20
3.7477259636
 10
-46.5282942039
 20
3.6944308163
  0
LINE
  5
5DD
100
AcDbEntity
  8
CURVE
100
AcDbLine
 62
250
  6
CONTINUOUS
 10
-40.4770543217
 20
4.5190477371
 11
-40.7556045585
 21
4.5190477371
  0
LINE
  5
5DE
100
AcDbEntity
  8
CURVE
100
AcDbLine
 62
250
  6
CONTINUOUS
 10
-39.8271038401
 20
4.6119048357
 11
-40.1056540576
 21
4.6119048357
  0
LINE
  5
5DF
100
AcDbEntity
  8
CURVE
100
AcDbLine
 62
250
  6
CONTINUOUS
 10
-37.4772827789
 20
4.7976190329
 11
-37.7558330158
 21
4.7976190329
  0
LINE
  5
5E0
100
AcDbEntity
  8
0
100
AcDbLine
 62
250
  6
CONTINUOUS
 10
-24.8282461265
 20
4.8785712957
 11
-25.7567468448
 21
4.8785712957
  0
LINE
  5
5E1
100
AcDbEntity
  8
CURVE
100
AcDbLine
 62
250
  6
CONTINUOUS
 10
-36.8273322974
 20
4.8904761314
 11
-37.1058825148
 21
4.8904761314
  0
LINE
  5
5E2
100
AcDbEntity
  8
CURVE
100
AcDbLine
 62
250
  6
CONTINUOUS
 10
-39.6414036887
 20
4.98333323
 11
-40.9413046906
 21
4.98333323
  0
LINE
  5
5E3
100
AcDbEntity
  8
CURVE
100
AcDbLine
 62
7
420
10991288
  6
CONTINUOUS
 10
-43.632094732
 20
5.170738
 11
-46.53187389
 21
5.170738
  0
LINE
  5
5E4
100
AcDbEntity
  8
CURVE
100
AcDbLine
 62
250
  6
CONTINUOUS
 10
-36.641632146
 20
5.2619045258
 11
-37.9415331478
 21
5.2619045258
  0
LINE
  5
5E5
100
AcDbEntity
  8
0
100
AcDbLine
 62
250
  6
CONTINUOUS
 10
-25.9424469769
 20
5.4047619343
 11
-24.642545975
 21
5.4047619343
  0
LINE
  5
5E6
100
AcDbEntity
  8
0
100
AcDbLine
 62
250
  6
CONTINUOUS
 10
-32.291963409
 20
5.5333333462
 11
-31.6420129081
 21
5.5333333462
  0
LINE
  5
5E7
100
AcDbEntity
  8
CURVE
100
AcDbLine
 62
7
420
10991288
  6
CONTINUOUS
 10
-46.53187389
 20
5.793344
 11
-44.1139900317
 21
5.793344
  0
LINE
  5
5E8
100
AcDbEntity
  8
CURVE
100
AcDbLine
 62
250
  6
CONTINUOUS
 10
-40.9413046906
 20
5.8190477371
 11
-39.6414036887
 21
5.8190477371
  0
LINE
  5
5E9
100
AcDbEntity
  8
CURVE
100
AcDbLine
 62
250
  6
CONTINUOUS
 10
-37.9415331478
 20
6.0976193428
 11
-36.641632146
 21
6.0976193428
  0
LINE
  5
5EA
100
AcDbEntity
  8
0
100
AcDbLine
 62
250
  6
CONTINUOUS
 10
-32.5705136458
 20
6.1214285493
 11
-32.0134132109
 21
6.1214285493
  0
LINE
  5
5EB
100
AcDbEntity
  8
CURVE
100
AcDbLine
 62
7
420
10991288
  6
CONTINUOUS
 10
-44.7285832254
 20
8.151061
 11
-45.9777570905
 21
8.581076
  0
LINE
  5
5EC
100
AcDbEntity
  8
CURVE
100
AcDbLine
 62
7
420
10991288
  6
CONTINUOUS
 10
-43.632094732
 20
7.773569
 11
-44.2466869257
 21
7.990417
  0
LINE
  5
5ED
100
AcDbEntity
  8
CURVE
100
AcDbLine
 62
7
420
10991288
  6
CONTINUOUS
 10
-46.53187389
 20
8.227454
 11
-43.632094732
 21
7.179119
  0
LINE
  5
5EE
100
AcDbEntity
  8
CURVE
100
AcDbLine
 62
250
  6
CONTINUOUS
 10
-31.89199387
 20
1.6833333731
 11
-32.1003113482
 21
1.7666666269
  0
LINE
  5
5EF
100
AcDbEntity
  8
CURVE
100
AcDbLine
 62
250
  6
CONTINUOUS
 10
-32.6836002096
 20
0.85
 11
-32.5586097882
 21
0.7666666716
  0
LINE
  5
5F0
100
AcDbEntity
  8
0
100
AcDbLine
 62
250
  6
CONTINUOUS
 10
-25.212870264
 20
-6.875622
 11
-30.222957488
 21
-1.93899
  0
LINE
  5
5F1
100
AcDbEntity
  8
CURVE
100
AcDbLine
 62
250
  6
CONTINUOUS
 10
-37.2915826469
 20
4.6119048357
 11
-37.4772827789
 21
4.7976190329
  0
LINE
  5
5F2
100
AcDbEntity
  8
CURVE
100
AcDbLine
 62
250
  6
CONTINUOUS
 10
-36.641632146
 20
4.7047619343
 11
-36.8273322974
 21
4.8904761314
  0
LINE
  5
5F3
100
AcDbEntity
  8
CURVE
100
AcDbLine
 62
250
  6
CONTINUOUS
 10
-32.7669272366
 20
0.9333333433
 11
-32.6836002096
 21
0.85
  0
LINE
  5
5F4
100
AcDbEntity
  8
CURVE
100
AcDbLine
 62
250
  6
CONTINUOUS
 10
-31.8277130595
 20
0.1
 11
-31.6420129081
 21
-0.0857143521
  0
LINE
  5
5F5
100
AcDbEntity
  8
0
100
AcDbLine
 62
250
  6
CONTINUOUS
 10
-32.9419139099
 20
8.5357141972
 11
-32.9419139099
 21
8.2571429014
  0
LINE
  5
5F6
100
AcDbEntity
  8
0
100
AcDbLine
 62
250
  6
CONTINUOUS
 10
-32.9419139099
 20
6.4928570986
 11
-32.9419139099
 21
6.4
  0
LINE
  5
5F7
100
AcDbEntity
  8
CURVE
100
AcDbLine
 62
250
  6
CONTINUOUS
 10
-32.9419139099
 20
0.1
 11
-32.9419139099
 21
-0.4571429014
  0
LINE
  5
5F8
100
AcDbEntity
  8
CURVE
100
AcDbLine
 62
250
  6
CONTINUOUS
 10
-32.9419139099
 20
-0.8285714507
 11
-32.9419139099
 21
-1.4785714507
  0
LINE
  5
5F9
100
AcDbEntity
  8
CURVE
100
AcDbLine
 62
250
  6
CONTINUOUS
 10
-32.9419139099
 20
-1.85
 11
-32.9419139099
 21
-2.5
  0
LINE
  5
5FA
100
AcDbEntity
  8
CURVE
100
AcDbLine
 62
250
  6
CONTINUOUS
 10
-32.9419139099
 20
-12.6785714507
 11
-32.9419139099
 21
-13.05
  0
LINE
  5
5FB
100
AcDbEntity
  8
CURVE
100
AcDbLine
 62
250
  6
CONTINUOUS
 10
-32.9419139099
 20
-13.6071429014
 11
-32.9419139099
 21
-14.1642857254
  0
LINE
  5
5FC
100
AcDbEntity
  8
CURVE
100
AcDbLine
 62
250
  6
CONTINUOUS
 10
-32.9419139099
 20
-9.1809522629
 11
-32.9419139099
 21
-8.9023806572
  0
LINE
  5
5FD
100
AcDbEntity
  8
CURVE
100
AcDbLine
 62
250
  6
CONTINUOUS
 10
-32.9419139099
 20
-7.2309522629
 11
-32.9419139099
 21
-6.9523806572
  0
LINE
  5
5FE
100
AcDbEntity
  8
0
100
AcDbLine
 62
250
  6
CONTINUOUS
 10
-32.9419139099
 20
10.3
 11
-32.9419139099
 21
10.5785716057
  0
LINE
  5
5FF
100
AcDbEntity
  8
0
100
AcDbLine
 62
250
  6
CONTINUOUS
 10
-32.5705136458
 20
14.85
 11
-32.5705136458
 21
14.2928574085
  0
LINE
  5
600
100
AcDbEntity
  8
0
100
AcDbLine
 62
250
  6
CONTINUOUS
 10
-32.3848135138
 20
13.9214283943
 11
-32.3848135138
 21
13.2714283943
  0
LINE
  5
601
100
AcDbEntity
  8
0
100
AcDbLine
 62
250
  6
CONTINUOUS
 10
-32.3848135138
 20
8.5357141972
 11
-32.3848135138
 21
8.2571429014
  0
LINE
  5
602
100
AcDbEntity
  8
CURVE
100
AcDbLine
 62
250
  6
CONTINUOUS
 10
-32.3848135138
 20
-14.1642857254
 11
-32.3848135138
 21
-13.7928571761
  0
LINE
  5
603
100
AcDbEntity
  8
CURVE
100
AcDbLine
 62
250
  6
CONTINUOUS
 10
-32.3848135138
 20
-10.3261903286
 11
-32.3848135138
 21
-9.9238096714
  0
LINE
  5
604
100
AcDbEntity
  8
CURVE
100
AcDbLine
 62
250
  6
CONTINUOUS
 10
-32.3848135138
 20
-0.4571429014
 11
-32.3848135138
 21
-0.0857143521
  0
LINE
  5
605
100
AcDbEntity
  8
0
100
AcDbLine
 62
250
  6
CONTINUOUS
 10
-32.3848135138
 20
9.1547619343
 11
-32.3848135138
 21
9.5571429014
  0
LINE
  5
606
100
AcDbEntity
  8
CURVE
100
AcDbLine
 62
250
  6
CONTINUOUS
 10
-32.199113343
 20
-8.7785716057
 11
-32.199113343
 21
-9.1809522629
  0
LINE
  5
607
100
AcDbEntity
  8
SUPERFICI
100
AcDbLine
 62
7
  6
CONTINUOUS
 10
-32.1877265147
 20
4.3733543552
 11
-32.1877265147
 21
3.8037983759
  0
LINE
  5
608
100
AcDbEntity
  8
CURVE
100
AcDbLine
 62
250
  6
CONTINUOUS
 10
-32.8502542636
 20
1.4333333135
 11
-32.8919177176
 21
1.2666666865
  0
LINE
  5
609
100
AcDbEntity
  8
0
100
AcDbLine
 62
250
  6
CONTINUOUS
 10
-25.7567468448
 20
4.8785712957
 11
-25.9424469769
 21
4.6928570986
  0
LINE
  5
60A
100
AcDbEntity
  8
CURVE
100
AcDbLine
 62
250
  6
CONTINUOUS
 10
-39.8271038401
 20
-11.0380951643
 11
-39.6414036887
 21
-10.8523809671
  0
LINE
  5
60B
100
AcDbEntity
  8
CURVE
100
AcDbLine
 62
250
  6
CONTINUOUS
 10
-40.0128039916
 20
-7.8190477371
 11
-39.8271038401
 21
-7.7261903286
  0
LINE
  5
60C
100
AcDbEntity
  8
0
100
AcDbLine
 62
250
  6
CONTINUOUS
 10
-32.0134132109
 20
6.7714285493
 11
-32.5705136458
 21
6.7714285493
  0
LINE
  5
60D
100
AcDbEntity
  8
CURVE
100
AcDbLine
 62
7
420
10991288
  6
CONTINUOUS
 10
-44.1139900317
 20
6.866343
 11
-43.632094732
 21
6.866343
  0
LINE
  5
60E
100
AcDbEntity
  8
CURVE
100
AcDbLine
 62
250
  6
CONTINUOUS
 10
-37.7558330158
 20
7.0261903286
 11
-37.5701328837
 21
7.0261903286
  0
LINE
  5
60F
100
AcDbEntity
  8
0
100
AcDbLine
 62
250
  6
CONTINUOUS
 10
-25.9424469769
 20
7.6023806572
 11
-24.642545975
 21
7.6023806572
  0
LINE
  5
610
100
AcDbEntity
  8
CURVE
100
AcDbLine
 62
250
  6
CONTINUOUS
 10
-37.0130324488
 20
7.6761903286
 11
-36.8273322974
 21
7.6761903286
  0
LINE
  5
611
100
AcDbEntity
  8
0
100
AcDbLine
 62
250
  6
CONTINUOUS
 10
-32.199113343
 20
8.0714287043
 11
-31.8277130595
 21
8.0714287043
  0
LINE
  5
612
100
AcDbEntity
  8
0
100
AcDbLine
 62
250
  6
CONTINUOUS
 10
-32.7562137779
 20
8.13333323
 11
-32.4776635411
 21
8.13333323
  0
LINE
  5
613
100
AcDbEntity
  8
0
100
AcDbLine
 62
250
  6
CONTINUOUS
 10
-25.9424469769
 20
8.1904761314
 11
-24.642545975
 21
8.1904761314
  0
LINE
  5
614
100
AcDbEntity
  8
0
100
AcDbLine
 62
250
  6
CONTINUOUS
 10
-32.9419139099
 20
5.3785714313
 11
-31.9205631255
 21
5.1
  0
LINE
  5
615
100
AcDbEntity
  8
0
100
AcDbLine
 62
250
  6
CONTINUOUS
 10
-25.9424469769
 20
3.4857143521
 11
-24.642545975
 21
3.1142857254
  0
LINE
  5
616
100
AcDbEntity
  8
CURVE
100
AcDbLine
 62
250
  6
CONTINUOUS
 10
-31.6420129081
 20
1.475
 11
-31.89199387
 21
1.6833333731
  0
LINE
  5
617
100
AcDbEntity
  8
CURVE
100
AcDbLine
 62
250
  6
CONTINUOUS
 10
-37.9415331478
 20
7.2119045258
 11
-37.7558330158
 21
7.0261903286
  0
LINE
  5
618
100
AcDbEntity
  8
CURVE
100
AcDbLine
 62
250
  6
CONTINUOUS
 10
-40.9413046906
 20
11.371428588
 11
-40.5699044264
 21
11.0
  0
LINE
  5
619
100
AcDbEntity
  8
CURVE
100
AcDbLine
 62
250
  6
CONTINUOUS
 10
-36.8273322974
 20
7.6761903286
 11
-36.641632146
 21
7.4904761314
  0
LINE
  5
61A
100
AcDbEntity
  8
CURVE
100
AcDbLine
 62
250
  6
CONTINUOUS
 10
-40.4770543217
 20
13.2904761314
 11
-40.3842042944
 21
13.1357143521
  0
LINE
  5
61B
100
AcDbEntity
  8
CURVE
100
AcDbLine
 62
250
  6
CONTINUOUS
 10
-40.4770543217
 20
14.9619048357
 11
-40.3842042944
 21
14.8071429014
  0
LINE
  5
61C
100
AcDbEntity
  8
CURVE
100
AcDbLine
 62
250
  6
CONTINUOUS
 10
-32.8502542636
 20
1.1
 11
-32.7669272366
 21
0.9333333433
  0
LINE
  5
61D
100
AcDbEntity
  8
CURVE
100
AcDbLine
 62
250
  6
CONTINUOUS
 10
-32.8919177176
 20
1.2666666865
 11
-32.8502542636
 21
1.1
  0
LINE
  5
61E
100
AcDbEntity
  8
0
100
AcDbLine
 62
250
  6
CONTINUOUS
 10
-32.106263277
 20
7.7
 11
-32.106263277
 21
7.1428570986
  0
LINE
  5
61F
100
AcDbEntity
  8
CURVE
100
AcDbLine
 62
250
  6
CONTINUOUS
 10
-32.106263277
 20
-7.7880954742
 11
-32.106263277
 21
-8.3452380657
  0
LINE
  5
620
100
AcDbEntity
  8
0
100
AcDbLine
 62
250
  6
CONTINUOUS
 10
-31.9205631255
 20
5.1
 11
-31.9205631255
 21
5.75
  0
LINE
  5
621
100
AcDbEntity
  8
0
100
AcDbLine
 62
250
  6
CONTINUOUS
 10
-31.6420129081
 20
14.85
 11
-31.6420129081
 21
14.2928574085
  0
LINE
  5
622
100
AcDbEntity
  8
0
100
AcDbLine
 62
250
  6
CONTINUOUS
 10
-31.6420129081
 20
9.5571429014
 11
-31.6420129081
 21
9.2785712957
  0
LINE
  5
623
100
AcDbEntity
  8
CURVE
100
AcDbLine
 62
250
  6
CONTINUOUS
 10
-31.6420129081
 20
1.9333333731
 11
-31.6420129081
 21
1.475
  0
LINE
  5
624
100
AcDbEntity
  8
CURVE
100
AcDbLine
 62
250
  6
CONTINUOUS
 10
-31.6420129081
 20
1.0583333433
 11
-31.6420129081
 21
0.6
  0
LINE
  5
625
100
AcDbEntity
  8
CURVE
100
AcDbLine
 62
250
  6
CONTINUOUS
 10
-31.6420129081
 20
-0.0857143521
 11
-31.6420129081
 21
-0.4571429014
  0
LINE
  5
626
100
AcDbEntity
  8
CURVE
100
AcDbLine
 62
250
  6
CONTINUOUS
 10
-31.6420129081
 20
-1.85
 11
-31.6420129081
 21
-2.5
  0
LINE
  5
627
100
AcDbEntity
  8
CURVE
100
AcDbLine
 62
250
  6
CONTINUOUS
 10
-31.6420129081
 20
-9.9238096714
 11
-31.6420129081
 21
-10.2023809671
  0
LINE
  5
628
100
AcDbEntity
  8
CURVE
100
AcDbLine
 62
250
  6
CONTINUOUS
 10
-31.6420129081
 20
-13.6071429014
 11
-31.6420129081
 21
-14.1642857254
  0
LINE
  5
629
100
AcDbEntity
  8
CURVE
100
AcDbLine
 62
250
  6
CONTINUOUS
 10
-31.6420129081
 20
-13.05
 11
-31.6420129081
 21
-12.6785714507
  0
LINE
  5
62A
100
AcDbEntity
  8
CURVE
100
AcDbLine
 62
250
  6
CONTINUOUS
 10
-31.6420129081
 20
-7.41666646
 11
-31.6420129081
 21
-6.76666646
  0
LINE
  5
62B
100
AcDbEntity
  8
0
100
AcDbLine
 62
250
  6
CONTINUOUS
 10
-31.6420129081
 20
6.4
 11
-31.6420129081
 21
6.4928570986
  0
LINE
  5
62C
100
AcDbEntity
  8
0
100
AcDbLine
 62
250
  6
CONTINUOUS
 10
-31.6420129081
 20
8.2571429014
 11
-31.6420129081
 21
8.5357141972
  0
LINE
  5
62D
100
AcDbEntity
  8
0
100
AcDbLine
 62
250
  6
CONTINUOUS
 10
-31.6420129081
 20
10.1142858028
 11
-31.6420129081
 21
10.7642858028
  0
LWPOLYLINE
  5
62E
100
AcDbEntity
  8
0
100
AcDbPolyline
 62
250
  6
CONTINUOUS
 90
36
 70
0
 10
-29.4678738304
 20
-3.396457109
 10
-29.4810171717
 20
-3.4098920862
 10
-29.4937590247
 20
-3.4237030913
 10
-29.5061050872
 20
-3.437875713
 10
-29.5180610571
 20
-3.4523955398
 10
-29.5296326322
 20
-3.4672481603
 10
-29.5408255103
 20
-3.482419163
 10
-29.5516453893
 20
-3.4978941366
 10
-29.5620979671
 20
-3.5136586695
 10
-29.5721889414
 20
-3.5296983504
 10
-29.5819240102
 20
-3.5459987678
 10
-29.5913088713
 20
-3.5625455103
 10
-29.6003492225
 20
-3.5793241664
 10
-29.6090507617
 20
-3.5963203247
 10
-29.6174191867
 20
-3.6135195738
 10
-29.6254601953
 20
-3.6309075021
 10
-29.6331794855
 20
-3.6484696984
 10
-29.640582755
 20
-3.6661917511
 10
-29.6476757017
 20
-3.6840592489
 10
-29.6544640234
 20
-3.7020577802
 10
-29.6609534181
 20
-3.7201729336
 10
-29.6671495835
 20
-3.7383902978
 10
-29.6730582174
 20
-3.7566954612
 10
-29.6786850178
 20
-3.7750740125
 10
-29.6840356825
 20
-3.7935115401
 10
-29.6891159092
 20
-3.8119936328
 10
-29.693931396
 20
-3.8305058789
 10
-29.6984878405
 20
-3.8490338671
 10
-29.7027909407
 20
-3.867563186
 10
-29.7086359922
 20
-3.8945897746
 10
-29.7140152795
 20
-3.9215995436
 10
-29.7189906062
 20
-3.9486035397
 10
-29.7236237758
 20
-3.9756128096
 10
-29.7279765919
 20
-4.0026384001
 10
-29.7321108582
 20
-4.0296913578
 10
-29.7399709556
 20
-4.0839235619
  0
LINE
  5
62F
100
AcDbEntity
  8
CURVE
100
AcDbLine
 62
250
  6
CONTINUOUS
 10
-40.7556045585
 20
-12.3380951643
 11
-40.9413046906
 21
-12.5238095164
  0
LINE
  5
630
100
AcDbEntity
  8
CURVE
100
AcDbLine
 62
250
  6
CONTINUOUS
 10
-40.7556045585
 20
-14.35
 11
-40.9413046906
 21
-14.5357142746
  0
LINE
  5
631
100
AcDbEntity
  8
CURVE
100
AcDbLine
 62
250
  6
CONTINUOUS
 10
-32.9419139099
 20
-6.9523806572
 11
-32.7562137779
 21
-6.76666646
  0
LINE
  5
632
100
AcDbEntity
  8
CURVE
100
AcDbLine
 62
250
  6
CONTINUOUS
 10
-44.6346968343
 20
-10.59258
 11
-46.5233658343
 21
-11.134148
  0
LINE
  5
633
100
AcDbEntity
  8
CURVE
100
AcDbLine
 62
250
  6
CONTINUOUS
 10
-45.5356768343
 20
-11.430963
 11
-43.6232348343
 21
-10.882587
  0
LINE
  5
634
100
AcDbEntity
  8
0
100
AcDbLine
 62
250
  6
CONTINUOUS
 10
-32.4776635411
 20
8.6595238686
 11
-32.7562137779
 21
8.6595238686
  0
LINE
  5
635
100
AcDbEntity
  8
0
100
AcDbLine
 62
250
  6
CONTINUOUS
 10
-31.8277130595
 20
8.7214287043
 11
-32.199113343
 21
8.7214287043
  0
LINE
  5
636
100
AcDbEntity
  8
0
100
AcDbLine
 62
250
  6
CONTINUOUS
 10
-25.9424469769
 20
8.8404761314
 11
-24.642545975
 21
8.8404761314
  0
LINE
  5
637
100
AcDbEntity
  8
0
100
AcDbLine
 62
250
  6
CONTINUOUS
 10
-31.8277130595
 20
9.0928570986
 11
-32.291963409
 21
9.0928570986
  0
LINE
  5
638
100
AcDbEntity
  8
CURVE
100
AcDbLine
 62
250
  6
CONTINUOUS
 10
-36.641632146
 20
9.571428588
 11
-37.9415331478
 21
9.571428588
  0
LINE
  5
639
100
AcDbEntity
  8
0
100
AcDbLine
 62
250
  6
CONTINUOUS
 10
-32.199113343
 20
9.7428570986
 11
-31.8277130595
 21
9.7428570986
  0
LINE
  5
63A
100
AcDbEntity
  8
0
100
AcDbLine
 62
7
  6
CONTINUOUS
 10
-21.6232278343
 20
9.8
 11
-21.4232278343
 21
9.8
  0
LINE
  5
63B
100
AcDbEntity
  8
SUPERFICI
100
AcDbLine
 62
7
  6
CONTINUOUS
 10
-21.6232278343
 20
9.8
 11
-21.4232278343
 21
9.8
  0
LINE
  5
63C
100
AcDbEntity
  8
CURVE
100
AcDbLine
 62
7
420
10991288
  6
CONTINUOUS
 10
-43.632094732
 20
10.29193
 11
-46.53187389
 21
10.29193
  0
LINE
  5
63D
100
AcDbEntity
  8
CURVE
100
AcDbLine
 62
250
  6
CONTINUOUS
 10
-37.2915826469
 20
10.3761904836
 11
-36.641632146
 21
10.3761904836
  0
LINE
  5
63E
100
AcDbEntity
  8
0
100
AcDbLine
 62
250
  6
CONTINUOUS
 10
-25.9424469769
 20
10.4809522629
 11
-24.642545975
 21
10.4809522629
  0
LINE
  5
63F
100
AcDbEntity
  8
CURVE
100
AcDbLine
 62
250
  6
CONTINUOUS
 10
-37.9415331478
 20
10.2214285493
 11
-36.9201823634
 21
9.9428571761
  0
LINE
  5
640
100
AcDbEntity
  8
0
100
AcDbLine
 62
250
  6
CONTINUOUS
 10
-25.9424469769
 20
2.7428571761
 11
-25.1996464099
 21
2.371428588
  0
LINE
  5
641
100
AcDbEntity
  8
0
100
AcDbLine
 62
250
  6
CONTINUOUS
 10
-32.7562137779
 20
6.2142857254
 11
-32.5705136458
 21
6.1214285493
  0
LINE
  5
642
100
AcDbEntity
  8
0
100
AcDbLine
 62
250
  6
CONTINUOUS
 10
-31.8277130595
 20
6.6785714507
 11
-32.0134132109
 21
6.7714285493
  0
LINE
  5
643
100
AcDbEntity
  8
CURVE
100
AcDbLine
 62
250
  6
CONTINUOUS
 10
-37.9415331478
 20
9.571428588
 11
-37.5701328837
 21
9.2
  0
LINE
  5
644
100
AcDbEntity
  8
CURVE
100
AcDbLine
 62
250
  6
CONTINUOUS
 10
-40.9413046906
 20
14.0642858028
 11
-40.5699044264
 21
13.6928570986
  0
LINE
  5
645
100
AcDbEntity
  8
0
100
AcDbLine
 62
250
  6
CONTINUOUS
 10
-32.9419139099
 20
6.4
 11
-32.7562137779
 21
6.2142857254
  0
LINE
  5
646
100
AcDbEntity
  8
CURVE
100
AcDbLine
 62
250
  6
CONTINUOUS
 10
-39.7342537644
 20
13.3214285493
 11
-39.6414036887
 21
13.2285714507
  0
LINE
  5
647
100
AcDbEntity
  8
CURVE
100
AcDbLine
 62
250
  6
CONTINUOUS
 10
-37.9415331478
 20
12.2642858028
 11
-37.5701328837
 21
11.8928570986
  0
LINE
  5
648
100
AcDbEntity
  8
CURVE
100
AcDbLine
 62
250
  6
CONTINUOUS
 10
-37.4772827789
 20
11.4904761314
 11
-37.3844327517
 21
11.3357143521
  0
LINE
  5
649
100
AcDbEntity
  8
CURVE
100
AcDbLine
 62
250
  6
CONTINUOUS
 10
-37.4772827789
 20
13.1619048357
 11
-37.3844327517
 21
13.0071429014
  0
LWPOLYLINE
  5
64A
100
AcDbEntity
  8
0
100
AcDbPolyline
 62
250
  6
CONTINUOUS
 90
17
 70
0
 10
-27.4966079447
 20
-13.2222387988
 10
-27.4234741083
 20
-13.5628461661
 10
-27.2825555294
 20
-13.8882096853
 10
-27.0801090695
 20
-14.1792995123
 10
-26.8241227901
 20
-14.4246299264
 10
-26.5302595611
 20
-14.61171325
 10
-26.1996546718
 20
-14.7398267191
 10
-25.8502506253
 20
-14.8000636886
 10
-25.4958340844
 20
-14.7900473491
 10
-25.1503894931
 20
-14.7101729218
 10
-24.8329421081
 20
-14.5667092432
 10
-24.5447183321
 20
-14.3602105601
 10
-24.3029952989
 20
-14.1008141393
 10
-24.1173108316
 20
-13.7987551539
 10
-23.9965601673
 20
-13.4719822807
 10
-23.9412098053
 20
-13.1217579498
 10
-23.9565911051
 20
-12.7645899989
  0
LWPOLYLINE
  5
64B
100
AcDbEntity
  8
0
100
AcDbPolyline
 62
250
  6
CONTINUOUS
 90
57
 70
0
 10
-29.750091826
 20
-4.6569273296
 10
-29.7484165762
 20
-4.6943980789
 10
-29.746082411
 20
-4.7319463867
 10
-29.7431023116
 20
-4.7695179666
 10
-29.7394892593
 20
-4.8070585324
 10
-29.7352562353
 20
-4.844513798
 10
-29.7304162208
 20
-4.8818294772
 10
-29.724982197
 20
-4.9189512836
 10
-29.718967145
 20
-4.9558249312
 10
-29.7123840463
 20
-4.9923961336
 10
-29.7052458818
 20
-5.0286106047
 10
-29.7003682124
 20
-5.0516572029
 10
-29.6952235768
 20
-5.0745639598
 10
-29.6897684914
 20
-5.0973604823
 10
-29.6839594723
 20
-5.1200763773
 10
-29.6777530356
 20
-5.1427412514
 10
-29.6711056977
 20
-5.1653847116
 10
-29.6639739747
 20
-5.1880363647
 10
-29.6563143827
 20
-5.2107258175
 10
-29.648083438
 20
-5.2334826768
 10
-29.6392376569
 20
-5.2563365493
 10
-29.6297335554
 20
-5.279317042
 10
-29.6195276498
 20
-5.3024537617
 10
-29.6085764562
 20
-5.3257763151
 10
-29.6027879883
 20
-5.3375534086
 10
-29.5968012629
 20
-5.3493598698
 10
-29.5906166135
 20
-5.3611708242
 10
-29.5842343737
 20
-5.3729613974
 10
-29.5776548771
 20
-5.3847067151
 10
-29.5708784572
 20
-5.3963819029
 10
-29.5639054476
 20
-5.4079620864
 10
-29.5567361817
 20
-5.4194223912
 10
-29.5493709933
 20
-5.4307379428
 10
-29.5418102158
 20
-5.441883867
 10
-29.5340541827
 20
-5.4528352893
 10
-29.5261032277
 20
-5.4635673354
 10
-29.5179576842
 20
-5.4740551308
 10
-29.5096178859
 20
-5.4842738012
 10
-29.5010841663
 20
-5.4941984721
 10
-29.4923568589
 20
-5.5038042692
 10
-29.4834362972
 20
-5.5130663181
 10
-29.4743228149
 20
-5.5219597444
 10
-29.4650167456
 20
-5.5304596738
 10
-29.4555184226
 20
-5.5385412317
 10
-29.4458281796
 20
-5.5461795439
 10
-29.4359463502
 20
-5.553349736
 10
-29.4258732679
 20
-5.5600269335
 10
-29.4156092662
 20
-5.566186262
 10
-29.4051546788
 20
-5.5718028473
 10
-29.3945098391
 20
-5.5768518148
 10
-29.3836750807
 20
-5.5813082902
 10
-29.3726507371
 20
-5.5851473992
 10
-29.361437142
 20
-5.5883442673
 10
-29.3500346288
 20
-5.5908740201
 10
-29.3384435312
 20
-5.5927117832
 10
-29.3266641826
 20
-5.5938326824
 10
-29.3146969166
 20
-5.594211843
  0
LINE
  5
64C
100
AcDbEntity
  8
0
100
AcDbLine
 62
250
  6
CONTINUOUS
 10
-29.7093000473
 20
-5.281784
 11
-29.7093000473
 21
-5.18241
  0
LINE
  5
64D
100
AcDbEntity
  8
0
100
AcDbLine
 62
250
  6
CONTINUOUS
 10
-29.3146970731
 20
-5.809973
 11
-29.3146970731
 21
-3.372066
  0
LINE
  5
64E
100
AcDbEntity
  8
0
100
AcDbLine
 62
250
  6
CONTINUOUS
 10
-28.9518008916
 20
-3.432113
 11
-28.9518008916
 21
-3.082053
  0
LINE
  5
64F
100
AcDbEntity
  8
0
100
AcDbLine
 62
250
  6
CONTINUOUS
 10
-28.5793510739
 20
-3.082053
 11
-28.5793510739
 21
-3.432113
  0
LINE
  5
650
100
AcDbEntity
  8
0
100
AcDbLine
 62
250
  6
CONTINUOUS
 10
-28.4869385928
 20
-4.71193
 11
-28.4869385928
 21
-3.88859
  0
LINE
  5
651
100
AcDbEntity
  8
0
100
AcDbLine
 62
250
  6
CONTINUOUS
 10
-28.2713108036
 20
-3.88859
 11
-28.2713108036
 21
-4.71193
  0
LINE
  5
652
100
AcDbEntity
  8
0
100
AcDbLine
 62
250
  6
CONTINUOUS
 10
-29.8022705071
 20
-4.656927
 11
-29.8017125283
 21
-4.083924
  0
LINE
  5
653
100
AcDbEntity
  8
0
100
AcDbLine
 62
250
  6
CONTINUOUS
 10
-29.5842268098
 20
-4.083924
 11
-29.5847847886
 21
-4.656927
  0
LWPOLYLINE
  5
654
100
AcDbEntity
  8
0
100
AcDbPolyline
 62
250
  6
CONTINUOUS
 90
17
 70
0
 10
-28.2603372252
 20
-8.42959
 10
-28.2615460161
 20
-8.9272613275
 10
-28.1635038004
 20
-9.4242124046
 10
-27.9691735544
 20
-9.8919797192
 10
-27.6862230931
 20
-10.3121062718
 10
-27.325816977
 20
-10.6680148559
 10
-26.9100611162
 20
-10.9415328838
 10
-26.4405617113
 20
-11.1316036663
 10
-25.9427575233
 20
-11.2251210381
 10
-25.436290736
 20
-11.2183950236
 10
-24.9411453391
 20
-11.1116910153
 10
-24.4846313096
 20
-10.9135565139
 10
-24.0685123101
 20
-10.6247569775
 10
-23.7176840244
 20
-10.2594030101
 10
-23.4459893124
 20
-9.831910621
 10
-23.2641486093
 20
-9.3591476555
 10
-23.1793882997
 20
-8.8605127873
  0
LWPOLYLINE
  5
655
100
AcDbEntity
  8
0
100
AcDbPolyline
 62
250
  6
CONTINUOUS
 90
17
 70
0
 10
-28.2603372252
 20
-12.76459
 10
-28.2615460161
 20
-13.2622613275
 10
-28.1635038004
 20
-13.7592124046
 10
-27.9691735544
 20
-14.2269797192
 10
-27.6862230931
 20
-14.6471062718
 10
-27.325816977
 20
-15.0030148559
 10
-26.9100611162
 20
-15.2765328838
 10
-26.4405617113
 20
-15.4666036663
 10
-25.9427575233
 20
-15.5601210381
 10
-25.436290736
 20
-15.5533950236
 10
-24.9411453391
 20
-15.4466910153
 10
-24.4846313096
 20
-15.2485565139
 10
-24.0685123101
 20
-14.9597569775
 10
-23.7176840244
 20
-14.5944030101
 10
-23.4459893124
 20
-14.166910621
 10
-23.2641486093
 20
-13.6941476555
 10
-23.1793882997
 20
-13.1955127873
  0
LINE
  5
656
100
AcDbEntity
  8
CURVE
100
AcDbLine
 62
250
  6
CONTINUOUS
 10
-32.9419139099
 20
-8.9023806572
 11
-32.7562137779
 21
-8.71666646
  0
LINE
  5
657
100
AcDbEntity
  8
CURVE
100
AcDbLine
 62
250
  6
CONTINUOUS
 10
-32.199113343
 20
-9.1809522629
 11
-32.3848135138
 21
-9.36666646
  0
LINE
  5
658
100
AcDbEntity
  8
0
100
AcDbLine
 62
250
  6
CONTINUOUS
 10
-30.1992833895
 20
-7.00013
 11
-25.2221869093
 21
-2.268444
  0
LINE
  5
659
100
AcDbEntity
  8
CURVE
100
AcDbLine
 62
250
  6
CONTINUOUS
 10
-39.6414036887
 20
-12.3380951643
 11
-40.1985041236
 21
-12.7095238686
  0
LINE
  5
65A
100
AcDbEntity
  8
0
100
AcDbLine
 62
250
  6
CONTINUOUS
 10
-32.7562137779
 20
10.7642858028
 11
-32.5705136458
 21
10.7642858028
  0
LINE
  5
65B
100
AcDbEntity
  8
CURVE
100
AcDbLine
 62
7
420
10991288
  6
CONTINUOUS
 10
-46.0590139021
 20
10.874375
 11
-43.632094732
 21
10.874375
  0
LINE
  5
65C
100
AcDbEntity
  8
CURVE
100
AcDbLine
 62
250
  6
CONTINUOUS
 10
-39.6414036887
 20
11.371428588
 11
-40.9413046906
 21
11.371428588
  0
LINE
  5
65D
100
AcDbEntity
  8
0
100
AcDbLine
 62
250
  6
CONTINUOUS
 10
-25.9424469769
 20
11.4404761314
 11
-24.642545975
 21
11.4404761314
  0
LINE
  5
65E
100
AcDbEntity
  8
CURVE
100
AcDbLine
 62
250
  6
CONTINUOUS
 10
-37.7558330158
 20
11.4904761314
 11
-37.4772827789
 21
11.4904761314
  0
LINE
  5
65F
100
AcDbEntity
  8
CURVE
100
AcDbLine
 62
250
  6
CONTINUOUS
 10
-37.1987325809
 20
11.5214285493
 11
-36.7344822217
 21
11.5214285493
  0
LINE
  5
660
100
AcDbEntity
  8
0
100
AcDbLine
 62
250
  6
CONTINUOUS
 10
-32.9419139099
 20
12.1571425915
 11
-31.6420129081
 21
12.1571425915
  0
LINE
  5
661
100
AcDbEntity
  8
CURVE
100
AcDbLine
 62
250
  6
CONTINUOUS
 10
-40.2913541896
 20
12.1761904836
 11
-39.6414036887
 21
12.1761904836
  0
LINE
  5
662
100
AcDbEntity
  8
CURVE
100
AcDbLine
 62
250
  6
CONTINUOUS
 10
-36.641632146
 20
12.2642858028
 11
-37.9415331478
 21
12.2642858028
  0
LINE
  5
663
100
AcDbEntity
  8
CURVE
100
AcDbLine
 62
7
420
10991288
  6
CONTINUOUS
 10
-44.2339358968
 20
12.328359
 11
-46.53187389
 21
12.328359
  0
LINE
  5
664
100
AcDbEntity
  8
0
100
AcDbLine
 62
7
  6
CONTINUOUS
 10
-21.6232278343
 20
12.4277568136
 11
-21.4232278343
 21
12.4277568136
  0
LINE
  5
665
100
AcDbEntity
  8
SUPERFICI
100
AcDbLine
 62
7
  6
CONTINUOUS
 10
-21.6232278343
 20
12.4277568136
 11
-21.4232278343
 21
12.4277568136
  0
LINE
  5
666
100
AcDbEntity
  8
CURVE
100
AcDbLine
 62
250
  6
CONTINUOUS
 10
-40.9413046906
 20
12.0214285493
 11
-39.9199539062
 21
11.7428571761
  0
LINE
  5
667
100
AcDbEntity
  8
CURVE
100
AcDbLine
 62
7
420
10991288
  6
CONTINUOUS
 10
-44.7285832254
 20
14.176096
 11
-45.977593103
 21
14.606054
  0
LINE
  5
668
100
AcDbEntity
  8
CURVE
100
AcDbLine
 62
7
420
10991288
  6
CONTINUOUS
 10
-43.632094732
 20
13.798494
 11
-44.2466869257
 21
14.015451
  0
LINE
  5
669
100
AcDbEntity
  8
CURVE
100
AcDbLine
 62
7
420
10991288
  6
CONTINUOUS
 10
-46.53187389
 20
14.252489
 11
-43.632094732
 21
13.204045
  0
LINE
  5
66A
100
AcDbEntity
  8
0
100
AcDbLine
 62
250
  6
CONTINUOUS
 10
-32.291963409
 20
9.0928570986
 11
-32.6633636731
 21
9.2785712957
  0
LINE
  5
66B
100
AcDbEntity
  8
0
100
AcDbLine
 62
250
  6
CONTINUOUS
 10
-32.9419139099
 20
8.2571429014
 11
-32.7562137779
 21
8.13333323
  0
LINE
  5
66C
100
AcDbEntity
  8
CURVE
100
AcDbLine
 62
250
  6
CONTINUOUS
 10
-36.7344822217
 20
11.5214285493
 11
-36.641632146
 21
11.4285714507
  0
LINE
  5
66D
100
AcDbEntity
  8
0
100
AcDbLine
 62
250
  6
CONTINUOUS
 10
-31.6420129081
 20
6.4928570986
 11
-31.8277130595
 21
6.6785714507
  0
LINE
  5
66E
100
AcDbEntity
  8
CURVE
100
AcDbLine
 62
250
  6
CONTINUOUS
 10
-39.7342537644
 20
14.9928570986
 11
-39.6414036887
 21
14.9
  0
LINE
  5
66F
100
AcDbEntity
  8
0
100
AcDbLine
 62
250
  6
CONTINUOUS
 10
-32.3848135138
 20
8.2571429014
 11
-32.199113343
 21
8.0714287043
  0
LINE
  5
670
100
AcDbEntity
  8
CURVE
100
AcDbLine
 62
250
  6
CONTINUOUS
 10
-36.7344822217
 20
13.1928570986
 11
-36.641632146
 21
13.1
  0
LINE
  5
671
100
AcDbEntity
  8
CURVE
100
AcDbLine
 62
250
  6
CONTINUOUS
 10
-37.9415331478
 20
14.4928574085
 11
-37.7558330158
 21
14.3071429014
  0
LINE
  5
672
100
AcDbEntity
  8
0
100
AcDbLine
 62
250
  6
CONTINUOUS
 10
-32.6633636731
 20
9.2785712957
 11
-32.9419139099
 21
9.5571429014
  0
LINE
  5
673
100
AcDbEntity
  8
0
100
AcDbLine
 62
250
  6
CONTINUOUS
 10
-31.6420129081
 20
8.5357141972
 11
-31.8277130595
 21
8.7214287043
  0
LINE
  5
674
100
AcDbEntity
  8
0
100
AcDbLine
 62
250
  6
CONTINUOUS
 10
-32.3848135138
 20
8.5357141972
 11
-32.4776635411
 21
8.6595238686
  0
LINE
  5
675
100
AcDbEntity
  8
0
100
AcDbLine
 62
250
  6
CONTINUOUS
 10
-26.1057012703
 20
-8.93959
 11
-26.1057012703
 21
-10.428126
  0
LINE
  5
676
100
AcDbEntity
  8
0
100
AcDbLine
 62
250
  6
CONTINUOUS
 10
-25.9526040962
 20
-5.274826
 11
-25.9526040962
 21
-3.928959
  0
LINE
  5
677
100
AcDbEntity
  8
0
100
AcDbLine
 62
250
  6
CONTINUOUS
 10
-25.9424469769
 20
11.8119045258
 11
-25.9424469769
 21
11.0690477371
  0
LINE
  5
678
100
AcDbEntity
  8
0
100
AcDbLine
 62
250
  6
CONTINUOUS
 10
-25.9424469769
 20
5.9619048357
 11
-25.9424469769
 21
5.4047619343
  0
LINE
  5
679
100
AcDbEntity
  8
0
100
AcDbLine
 62
250
  6
CONTINUOUS
 10
-25.9424469769
 20
4.6928570986
 11
-25.9424469769
 21
4.2285714507
  0
LWPOLYLINE
  5
67A
100
AcDbEntity
  8
0
100
AcDbPolyline
 62
250
  6
CONTINUOUS
 90
8
 70
0
 10
-27.4898405645
 20
-8.42959
 10
-27.5038286961
 20
-8.8086947743
 10
-27.4373897294
 20
-9.1821939578
 10
-27.2935245939
 20
-9.5332172606
 10
-27.0746695545
 20
-9.8506343253
 10
-26.7977434839
 20
-10.1099068143
 10
-26.4722829211
 20
-10.304800292
 10
-26.1057013308
 20
-10.4281264426
  0
LWPOLYLINE
  5
67B
100
AcDbEntity
  8
0
100
AcDbPolyline
 62
250
  6
CONTINUOUS
 90
7
 70
0
 10
-27.4898405645
 20
-12.76459
 10
-27.4989688196
 20
-12.8387950608
 10
-27.5049818005
 20
-12.9133172973
 10
-27.5078689585
 20
-12.9880259722
 10
-27.5074635667
 20
-13.0690187464
 10
-27.5038286961
 20
-13.1436947743
 10
-27.4966079426
 20
-13.2222388174
  0
LINE
  5
67C
100
AcDbEntity
  8
CURVE
100
AcDbLine
 62
250
  6
CONTINUOUS
 10
-32.3848135138
 20
-9.9238096714
 11
-32.199113343
 21
-9.7380954742
  0
LINE
  5
67D
100
AcDbEntity
  8
CURVE
100
AcDbLine
 62
250
  6
CONTINUOUS
 10
-31.6420129081
 20
-10.2023809671
 11
-31.8277130595
 21
-10.3880951643
  0
LINE
  5
67E
100
AcDbEntity
  8
0
100
AcDbLine
 62
7
  6
CONTINUOUS
 10
-24.1422010334
 20
-2.8027692693
 11
-23.7470697641
 21
-2.407638
  0
LINE
  5
67F
100
AcDbEntity
  8
0
100
AcDbLine
 62
7
  6
CONTINUOUS
 10
-24.1422010334
 20
-3.1979005387
 11
-23.3519384948
 21
-2.407638
  0
LINE
  5
680
100
AcDbEntity
  8
0
100
AcDbLine
 62
7
  6
CONTINUOUS
 10
-24.1422010334
 20
-3.593031808
 11
-23.1232278343
 21
-2.5740586088
  0
LINE
  5
681
100
AcDbEntity
  8
0
100
AcDbLine
 62
7
  6
CONTINUOUS
 10
-24.1422010334
 20
-3.9881630773
 11
-23.1232278343
 21
-2.9691898782
  0
LINE
  5
682
100
AcDbEntity
  8
RACCORDO
100
AcDbLine
 62
7
  6
CONTINUOUS
 10
-52.1232278343
 20
-23.1226497308
 11
-52.9982278343
 21
-23.6278312164
  0
LINE
  5
683
100
AcDbEntity
  8
RACCORDO
100
AcDbLine
 62
250
  6
CONTINUOUS
 10
-51.8746822671
 20
-23.2669872981
 11
-52.8746822671
 21
-23.8443375673
  0
LWPOLYLINE
  5
684
100
AcDbEntity
  8
0
100
AcDbPolyline
 62
250
  6
CONTINUOUS
 90
8
 70
0
 10
-25.3407303991
 20
-10.428126
 10
-24.9809301299
 20
-10.307918064
 10
-24.6546575783
 20
-10.1143873028
 10
-24.3766498919
 20
-9.8562751548
 10
-24.1564695926
 20
-9.5397761207
 10
-24.0111380038
 20
-9.1893575688
 10
-23.9431379085
 20
-8.8161395686
 10
-23.9565915507
 20
-8.4295900283
  0
LINE
  5
685
100
AcDbEntity
  8
CURVE
100
AcDbLine
 62
250
  6
CONTINUOUS
 10
-44.5264688343
 20
-14.778839
 11
-46.5233658343
 21
-15.419971
  0
LINE
  5
686
100
AcDbEntity
  8
CURVE
100
AcDbLine
 62
250
  6
CONTINUOUS
 10
-46.5233658343
 20
-16.0
 11
-43.6232278343
 21
-15.068868
  0
LINE
  5
687
100
AcDbEntity
  8
0
100
AcDbLine
 62
250
  6
CONTINUOUS
 10
-31.6420129081
 20
12.9
 11
-32.9419139099
 21
12.9
  0
LINE
  5
688
100
AcDbEntity
  8
CURVE
100
AcDbLine
 62
7
420
10991288
  6
CONTINUOUS
 10
-46.53187389
 20
12.910803
 11
-43.632094732
 21
12.910803
  0
LINE
  5
689
100
AcDbEntity
  8
CURVE
100
AcDbLine
 62
250
  6
CONTINUOUS
 10
-37.7558330158
 20
13.1619048357
 11
-37.4772827789
 21
13.1619048357
  0
LINE
  5
68A
100
AcDbEntity
  8
CURVE
100
AcDbLine
 62
250
  6
CONTINUOUS
 10
-37.1987325809
 20
13.1928570986
 11
-36.7344822217
 21
13.1928570986
  0
LINE
  5
68B
100
AcDbEntity
  8
0
100
AcDbLine
 62
250
  6
CONTINUOUS
 10
-32.9419139099
 20
13.2714283943
 11
-31.6420129081
 21
13.2714283943
  0
LINE
  5
68C
100
AcDbEntity
  8
CURVE
100
AcDbLine
 62
250
  6
CONTINUOUS
 10
-40.7556045585
 20
13.2904761314
 11
-40.4770543217
 21
13.2904761314
  0
LINE
  5
68D
100
AcDbEntity
  8
0
100
AcDbLine
 62
250
  6
CONTINUOUS
 10
-24.642545975
 20
13.2976193428
 11
-25.9424469769
 21
13.2976193428
  0
LINE
  5
68E
100
AcDbEntity
  8
CURVE
100
AcDbLine
 62
250
  6
CONTINUOUS
 10
-40.1985041236
 20
13.3214285493
 11
-39.7342537644
 21
13.3214285493
  0
LINE
  5
68F
100
AcDbEntity
  8
CURVE
100
AcDbLine
 62
250
  6
CONTINUOUS
 10
-36.7963822657
 20
13.75
 11
-36.7654322437
 21
13.75
  0
LINE
  5
690
100
AcDbEntity
  8
CURVE
100
AcDbLine
 62
250
  6
CONTINUOUS
 10
-36.7654322437
 20
13.8738096714
 11
-36.7963822657
 21
13.8738096714
  0
LINE
  5
691
100
AcDbEntity
  8
0
100
AcDbLine
 62
250
  6
CONTINUOUS
 10
-31.6420129081
 20
13.9214283943
 11
-32.9419139099
 21
13.9214283943
  0
LINE
  5
692
100
AcDbEntity
  8
CURVE
100
AcDbLine
 62
250
  6
CONTINUOUS
 10
-39.6414036887
 20
14.0642858028
 11
-40.9413046906
 21
14.0642858028
  0
LINE
  5
693
100
AcDbEntity
  8
CURVE
100
AcDbLine
 62
250
  6
CONTINUOUS
 10
-37.7558330158
 20
14.3071429014
 11
-37.5701328837
 21
14.3071429014
  0
LINE
  5
694
100
AcDbEntity
  8
0
100
AcDbLine
 62
250
  6
CONTINUOUS
 10
-24.642545975
 20
14.5047613144
 11
-25.3853465807
 21
14.5047613144
  0
LINE
  5
695
100
AcDbEntity
  8
CURVE
100
AcDbLine
 62
250
  6
CONTINUOUS
 10
-36.8582823194
 20
13.7809522629
 11
-36.7963822657
 21
13.75
  0
LINE
  5
696
100
AcDbEntity
  8
CURVE
100
AcDbLine
 62
250
  6
CONTINUOUS
 10
-36.7035321948
 20
13.8428570986
 11
-36.7654322437
 21
13.8738096714
  0
LINE
  5
697
100
AcDbEntity
  8
RACCORDO
100
AcDbLine
 62
7
  6
CONTINUOUS
 10
-52.9982278343
 20
23.6278312164
 11
-52.1232278343
 21
23.1226497308
  0
LINE
  5
698
100
AcDbEntity
  8
RACCORDO
100
AcDbLine
 62
250
  6
CONTINUOUS
 10
-52.8746822671
 20
23.8443375673
 11
-51.8746822671
 21
23.2669872981
  0
LINE
  5
699
100
AcDbEntity
  8
0
100
AcDbLine
 62
250
  6
CONTINUOUS
 10
-32.6633636731
 20
10.1142858028
 11
-32.9419139099
 21
10.3
  0
LINE
  5
69A
100
AcDbEntity
  8
0
100
AcDbLine
 62
250
  6
CONTINUOUS
 10
-32.5705136458
 20
10.7642858028
 11
-31.6420129081
 21
10.1142858028
  0
LINE
  5
69B
100
AcDbEntity
  8
0
100
AcDbLine
 62
250
  6
CONTINUOUS
 10
-31.8277130595
 20
9.7428570986
 11
-31.6420129081
 21
9.5571429014
  0
LINE
  5
69C
100
AcDbEntity
  8
CURVE
100
AcDbLine
 62
250
  6
CONTINUOUS
 10
-36.8273322974
 20
14.9571425915
 11
-36.641632146
 21
14.7714283943
  0
LINE
  5
69D
100
AcDbEntity
  8
0
100
AcDbLine
 62
250
  6
CONTINUOUS
 10
-24.642545975
 20
4.6928570986
 11
-24.8282461265
 21
4.8785712957
  0
LINE
  5
69E
100
AcDbEntity
  8
0
100
AcDbLine
 62
250
  6
CONTINUOUS
 10
-25.7561635763
 20
-5.100497
 11
-25.7561635763
 21
-5.218117
  0
LINE
  5
69F
100
AcDbEntity
  8
0
100
AcDbLine
 62
250
  6
CONTINUOUS
 10
-25.3853465807
 20
5.4047619343
 11
-25.3853465807
 21
5.7761903286
  0
LINE
  5
6A0
100
AcDbEntity
  8
0
100
AcDbLine
 62
250
  6
CONTINUOUS
 10
-25.3407303991
 20
-8.93959
 11
-25.3407303991
 21
-10.428126
  0
LINE
  5
6A1
100
AcDbEntity
  8
0
100
AcDbLine
 62
250
  6
CONTINUOUS
 10
-25.0139462779
 20
12.8023806572
 11
-25.0139462779
 21
12.3071425915
  0
LINE
  5
6A2
100
AcDbEntity
  8
0
100
AcDbLine
 62
250
  6
CONTINUOUS
 10
-25.0139462779
 20
3.733333385
 11
-25.0139462779
 21
3.2380952418
  0
LINE
  5
6A3
100
AcDbEntity
  8
0
100
AcDbLine
 62
250
  6
CONTINUOUS
 10
-24.642545975
 20
13.7619045258
 11
-24.642545975
 21
13.2976193428
  0
LINE
  5
6A4
100
AcDbEntity
  8
0
100
AcDbLine
 62
250
  6
CONTINUOUS
 10
-24.642545975
 20
5.9619048357
 11
-24.642545975
 21
5.4047619343
  0
LINE
  5
6A5
100
AcDbEntity
  8
0
100
AcDbLine
 62
250
  6
CONTINUOUS
 10
-24.642545975
 20
4.2285714507
 11
-24.642545975
 21
4.6928570986
  0
LINE
  5
6A6
100
AcDbEntity
  8
0
100
AcDbLine
 62
250
  6
CONTINUOUS
 10
-24.1422010334
 20
-6.592362
 11
-24.1422010334
 21
-2.407638
  0
LINE
  5
6A7
100
AcDbEntity
  8
0
100
AcDbLine
 62
7
  6
CONTINUOUS
 10
-24.1422010334
 20
-4.3832943466
 11
-23.1232278343
 21
-3.3643211475
  0
LINE
  5
6A8
100
AcDbEntity
  8
0
100
AcDbLine
 62
7
  6
CONTINUOUS
 10
-24.1422010334
 20
-4.778425616
 11
-23.1232278343
 21
-3.7594524168
  0
LINE
  5
6A9
100
AcDbEntity
  8
0
100
AcDbLine
 62
7
  6
CONTINUOUS
 10
-24.1422010334
 20
-5.1735568853
 11
-23.1232278343
 21
-4.1545836861
  0
LINE
  5
6AA
100
AcDbEntity
  8
CURVE
100
AcDbLine
 62
250
  6
CONTINUOUS
 10
-31.8277130595
 20
-13.2357143521
 11
-31.6420129081
 21
-13.05
  0
LINE
  5
6AB
100
AcDbEntity
  8
0
100
AcDbLine
 62
7
  6
CONTINUOUS
 10
-24.1422010334
 20
-5.5686881546
 11
-23.1232278343
 21
-4.5497149555
  0
LINE
  5
6AC
100
AcDbEntity
  8
0
100
AcDbLine
 62
7
  6
CONTINUOUS
 10
-24.1422010334
 20
-5.9638194239
 11
-23.1232278343
 21
-4.9448462248
  0
LINE
  5
6AD
100
AcDbEntity
  8
0
100
AcDbLine
 62
7
  6
CONTINUOUS
 10
-24.1422010334
 20
-6.3589506933
 11
-23.1232278343
 21
-5.3399774941
  0
LINE
  5
6AE
100
AcDbEntity
  8
0
100
AcDbLine
 62
7
  6
CONTINUOUS
 10
-23.9804810708
 20
-6.592362
 11
-23.1232278343
 21
-5.7351087635
  0
LINE
  5
6AF
100
AcDbEntity
  8
0
100
AcDbLine
 62
7
  6
CONTINUOUS
 10
-23.5853498015
 20
-6.592362
 11
-23.1232278343
 21
-6.1302400328
  0
LINE
  5
6B0
100
AcDbEntity
  8
CURVE
100
AcDbLine
 62
250
  6
CONTINUOUS
 10
-37.0130324488
 20
14.9571425915
 11
-36.8273322974
 21
14.9571425915
  0
LINE
  5
6B1
100
AcDbEntity
  8
CURVE
100
AcDbLine
 62
250
  6
CONTINUOUS
 10
-40.7556045585
 20
14.9619048357
 11
-40.4770543217
 21
14.9619048357
  0
LINE
  5
6B2
100
AcDbEntity
  8
CURVE
100
AcDbLine
 62
250
  6
CONTINUOUS
 10
-40.1985041236
 20
14.9928570986
 11
-39.7342537644
 21
14.9928570986
  0
LINE
  5
6B3
100
AcDbEntity
  8
RACCORDO
100
AcDbLine
 62
250
  6
CONTINUOUS
 10
-21.6232278343
 20
15.1687951175
 11
-22.6145012988
 21
15.1687951175
  0
LINE
  5
6B4
100
AcDbEntity
  8
SUPERFICI
100
AcDbLine
 62
250
  6
CONTINUOUS
 10
-21.6232278343
 20
15.1687951175
 11
-22.6145012988
 21
15.1687951175
  0
LINE
  5
6B5
100
AcDbEntity
  8
0
100
AcDbLine
 62
7
  6
CONTINUOUS
 10
-21.6232278343
 20
15.6
 11
-21.4232278343
 21
15.6
  0
LINE
  5
6B6
100
AcDbEntity
  8
SUPERFICI
100
AcDbLine
 62
7
  6
CONTINUOUS
 10
-21.6232278343
 20
15.6
 11
-21.4232278343
 21
15.6
  0
LINE
  5
6B7
100
AcDbEntity
  8
0
100
AcDbLine
 62
7
  6
CONTINUOUS
 10
-21.6232278343
 20
15.767274
 11
-21.4232278343
 21
15.767274
  0
LINE
  5
6B8
100
AcDbEntity
  8
SUPERFICI
100
AcDbLine
 62
7
  6
CONTINUOUS
 10
-21.6232278343
 20
15.767274
 11
-21.4232278343
 21
15.767274
  0
LINE
  5
6B9
100
AcDbEntity
  8
0
100
AcDbLine
 62
7
  6
CONTINUOUS
 10
-21.6232278343
 20
15.798679726
 11
-21.4232278343
 21
15.798679726
  0
LINE
  5
6BA
100
AcDbEntity
  8
SUPERFICI
100
AcDbLine
 62
7
  6
CONTINUOUS
 10
-21.6232278343
 20
15.798679726
 11
-21.4232278343
 21
15.798679726
  0
LINE
  5
6BB
100
AcDbEntity
  8
0
100
AcDbLine
 62
7
  6
CONTINUOUS
 10
-21.6232278343
 20
15.953614
 11
-21.4232278343
 21
15.953614
  0
LINE
  5
6BC
100
AcDbEntity
  8
SUPERFICI
100
AcDbLine
 62
7
  6
CONTINUOUS
 10
-21.6232278343
 20
15.953614
 11
-21.4232278343
 21
15.953614
  0
LINE
  5
6BD
100
AcDbEntity
  8
0
100
AcDbLine
 62
7
  6
CONTINUOUS
 10
-21.6232278343
 20
16.135032
 11
-21.4232278343
 21
16.135032
  0
LINE
  5
6BE
100
AcDbEntity
  8
SUPERFICI
100
AcDbLine
 62
7
  6
CONTINUOUS
 10
-21.6232278343
 20
16.135032
 11
-21.4232278343
 21
16.135032
  0
LINE
  5
6BF
100
AcDbEntity
  8
0
100
AcDbLine
 62
7
  6
CONTINUOUS
 10
-21.6232278343
 20
16.21535
 11
-21.4232278343
 21
16.21535
  0
LINE
  5
6C0
100
AcDbEntity
  8
SUPERFICI
100
AcDbLine
 62
7
  6
CONTINUOUS
 10
-21.6232278343
 20
16.21535
 11
-21.4232278343
 21
16.21535
  0
LINE
  5
6C1
100
AcDbEntity
  8
RACCORDO
100
AcDbLine
 62
250
  6
CONTINUOUS
 10
-49.1232278343
 20
15.4001332693
 11
-22.6145012988
 21
15.1687951175
  0
LINE
  5
6C2
100
AcDbEntity
  8
SUPERFICI
100
AcDbLine
 62
250
  6
CONTINUOUS
 10
-49.1232278343
 20
15.4001332693
 11
-22.6145012988
 21
15.1687951175
  0
LINE
  5
6C3
100
AcDbEntity
  8
0
100
AcDbLine
 62
250
  6
CONTINUOUS
 10
-25.9424469769
 20
12.5547613144
 11
-24.642545975
 21
12.18333354
  0
LINE
  5
6C4
100
AcDbEntity
  8
0
100
AcDbLine
 62
250
  6
CONTINUOUS
 10
-32.9419139099
 20
12.9
 11
-32.199113343
 21
12.5285716057
  0
LINE
  5
6C5
100
AcDbEntity
  8
RACCORDO
100
AcDbLine
 62
250
  6
CONTINUOUS
 10
-22.6129666174
 20
18.6013844103
 11
-22.611826306
 21
18.4022330747
  0
LINE
  5
6C6
100
AcDbEntity
  8
SUPERFICI
100
AcDbLine
 62
250
  6
CONTINUOUS
 10
-22.6129666174
 20
18.6013844103
 11
-22.611826306
 21
18.4022330747
  0
LINE
  5
6C7
100
AcDbEntity
  8
RACCORDO
100
AcDbLine
 62
250
  6
CONTINUOUS
 10
-22.6145012988
 20
-15.1687951175
 11
-22.6139575863
 21
-15.3977454219
  0
LINE
  5
6C8
100
AcDbEntity
  8
SUPERFICI
100
AcDbLine
 62
250
  6
CONTINUOUS
 10
-22.6145012988
 20
-15.1687951175
 11
-22.6139575863
 21
-15.3977454219
  0
LINE
  5
6C9
100
AcDbEntity
  8
RACCORDO
100
AcDbLine
 62
250
  6
CONTINUOUS
 10
-22.6139575863
 20
-15.3977454219
 11
-22.6121601153
 21
-16.2938127854
  0
LINE
  5
6CA
100
AcDbEntity
  8
SUPERFICI
100
AcDbLine
 62
250
  6
CONTINUOUS
 10
-22.6139575863
 20
-15.3977454219
 11
-22.6121601153
 21
-16.2938127854
  0
LINE
  5
6CB
100
AcDbEntity
  8
RACCORDO
100
AcDbLine
 62
250
  6
CONTINUOUS
 10
-22.611826306
 20
18.4022330747
 11
-22.6111242131
 21
18.0788000761
  0
LINE
  5
6CC
100
AcDbEntity
  8
SUPERFICI
100
AcDbLine
 62
250
  6
CONTINUOUS
 10
-22.611826306
 20
18.4022330747
 11
-22.6111242131
 21
18.0788000761
  0
LINE
  5
6CD
100
AcDbEntity
  8
RACCORDO
100
AcDbLine
 62
250
  6
CONTINUOUS
 10
-22.6121601153
 20
-16.2938127854
 11
-22.6111242131
 21
-17.1132209628
  0
LINE
  5
6CE
100
AcDbEntity
  8
SUPERFICI
100
AcDbLine
 62
250
  6
CONTINUOUS
 10
-22.6121601153
 20
-16.2938127854
 11
-22.6111242131
 21
-17.1132209628
  0
LINE
  5
6CF
100
AcDbEntity
  8
0
100
AcDbLine
 62
250
  6
CONTINUOUS
 10
-23.1232278343
 20
-2.407638
 11
-23.1232278343
 21
-6.592362
  0
LINE
  5
6D0
100
AcDbEntity
  8
RACCORDO
100
AcDbLine
 62
250
  6
CONTINUOUS
 10
-22.6145012988
 20
15.1687951175
 11
-22.6145012988
 21
-15.1687951175
  0
LINE
  5
6D1
100
AcDbEntity
  8
SUPERFICI
100
AcDbLine
 62
250
  6
CONTINUOUS
 10
-22.6145012988
 20
15.1687951175
 11
-22.6145012988
 21
-15.1687951175
  0
LINE
  5
6D2
100
AcDbEntity
  8
RACCORDO
100
AcDbLine
 62
250
  6
CONTINUOUS
 10
-22.6111242131
 20
18.0788000761
 11
-22.6109128838
 21
17.4764047996
  0
LINE
  5
6D3
100
AcDbEntity
  8
SUPERFICI
100
AcDbLine
 62
250
  6
CONTINUOUS
 10
-22.6111242131
 20
18.0788000761
 11
-22.6109128838
 21
17.4764047996
  0
LINE
  5
6D4
100
AcDbEntity
  8
RACCORDO
100
AcDbLine
 62
250
  6
CONTINUOUS
 10
-22.6111242131
 20
-17.1132209628
 11
-22.6109128838
 21
-17.8001166601
  0
LINE
  5
6D5
100
AcDbEntity
  8
SUPERFICI
100
AcDbLine
 62
250
  6
CONTINUOUS
 10
-22.6111242131
 20
-17.1132209628
 11
-22.6109128838
 21
-17.8001166601
  0
LINE
  5
6D6
100
AcDbEntity
  8
RACCORDO
100
AcDbLine
 62
250
  6
CONTINUOUS
 10
-22.6109128838
 20
17.4764047996
 11
-22.6115401006
 21
16.7167311812
  0
LINE
  5
6D7
100
AcDbEntity
  8
SUPERFICI
100
AcDbLine
 62
250
  6
CONTINUOUS
 10
-22.6109128838
 20
17.4764047996
 11
-22.6115401006
 21
16.7167311812
  0
LINE
  5
6D8
100
AcDbEntity
  8
RACCORDO
100
AcDbLine
 62
250
  6
CONTINUOUS
 10
-22.6109128838
 20
-17.8001166601
 11
-22.6113074203
 21
-18.1997493658
  0
LINE
  5
6D9
100
AcDbEntity
  8
SUPERFICI
100
AcDbLine
 62
250
  6
CONTINUOUS
 10
-22.6109128838
 20
-17.8001166601
 11
-22.6113074203
 21
-18.1997493658
  0
LINE
  5
6DA
100
AcDbEntity
  8
RACCORDO
100
AcDbLine
 62
250
  6
CONTINUOUS
 10
-22.6115401006
 20
16.7167311812
 11
-22.6129665946
 21
15.8516587799
  0
LINE
  5
6DB
100
AcDbEntity
  8
SUPERFICI
100
AcDbLine
 62
250
  6
CONTINUOUS
 10
-22.6115401006
 20
16.7167311812
 11
-22.6129665946
 21
15.8516587799
  0
LINE
  5
6DC
100
AcDbEntity
  8
RACCORDO
100
AcDbLine
 62
250
  6
CONTINUOUS
 10
-22.6129665946
 20
15.8516587799
 11
-22.6145012988
 21
15.1687951175
  0
LINE
  5
6DD
100
AcDbEntity
  8
SUPERFICI
100
AcDbLine
 62
250
  6
CONTINUOUS
 10
-22.6129665946
 20
15.8516587799
 11
-22.6145012988
 21
15.1687951175
  0
LINE
  5
6DE
100
AcDbEntity
  8
RACCORDO
100
AcDbLine
 62
250
  6
CONTINUOUS
 10
-22.6113074203
 20
-18.1997493658
 11
-22.6121600723
 21
-18.4829027331
  0
LINE
  5
6DF
100
AcDbEntity
  8
SUPERFICI
100
AcDbLine
 62
250
  6
CONTINUOUS
 10
-22.6113074203
 20
-18.1997493658
 11
-22.6121600723
 21
-18.4829027331
  0
LWPOLYLINE
  5
6E0
100
AcDbEntity
  8
RACCORDO
100
AcDbPolyline
 62
250
  6
CONTINUOUS
 90
5
 70
0
 10
-22.6121600723
 20
-18.4829027331
 10
-22.6129665946
 20
-18.6013864085
 10
-22.6134434658
 20
-18.638702622
 10
-22.6139575825
 20
-18.6611609986
 10
-22.6145012988
 20
-18.6686618482
  0
LWPOLYLINE
  5
6E1
100
AcDbEntity
  8
SUPERFICI
100
AcDbPolyline
 62
250
  6
CONTINUOUS
 90
5
 70
0
 10
-22.6121600723
 20
-18.4829027331
 10
-22.6129665946
 20
-18.6013864085
 10
-22.6134434658
 20
-18.638702622
 10
-22.6139575825
 20
-18.6611609986
 10
-22.6145012988
 20
-18.6686618482
  0
LWPOLYLINE
  5
6E2
100
AcDbEntity
  8
0
100
AcDbPolyline
 62
250
  6
CONTINUOUS
 90
7
 70
0
 10
-23.179388287
 20
-8.8605126037
 10
-23.1754682267
 20
-8.7894134757
 10
-23.1735348234
 20
-8.7182326096
 10
-23.1735895847
 20
-8.6470255099
 10
-23.1756324678
 20
-8.5758477019
 10
-23.1796618798
 20
-8.5047546879
 10
-23.186094445
 20
-8.4295899921
  0
LWPOLYLINE
  5
6E3
100
AcDbEntity
  8
0
100
AcDbPolyline
 62
250
  6
CONTINUOUS
 90
7
 70
0
 10
-23.179388287
 20
-13.1955126037
 10
-23.1754682267
 20
-13.1244134757
 10
-23.1735348234
 20
-13.0532326096
 10
-23.1735895847
 20
-12.9820255099
 10
-23.1756324678
 20
-12.9108477019
 10
-23.1796618798
 20
-12.8397546879
 10
-23.186094445
 20
-12.7645899921
  0
LINE
  5
6E4
100
AcDbEntity
  8
0
100
AcDbLine
 62
7
  6
CONTINUOUS
 10
-23.1902185322
 20
-6.592362
 11
-23.1232278343
 21
-6.5253713021
  0
LINE
  5
6E5
100
AcDbEntity
  8
RACCORDO
100
AcDbLine
 62
7
  6
CONTINUOUS
 10
-49.1232278343
 20
18.9
 11
-22.6145012988
 21
18.6686618482
  0
LINE
  5
6E6
100
AcDbEntity
  8
SUPERFICI
100
AcDbLine
 62
7
  6
CONTINUOUS
 10
-49.1232278343
 20
18.9
 11
-22.6145012988
 21
18.6686618482
  0
LINE
  5
6E7
100
AcDbEntity
  8
RACCORDO
100
AcDbLine
 62
250
  6
CONTINUOUS
 10
-49.1232278343
 20
18.0769066003
 11
-49.6232278343
 21
18.0856341328
  0
LINE
  5
6E8
100
AcDbEntity
  8
RACCORDO
100
AcDbLine
 62
250
  6
CONTINUOUS
 10
-49.1232278343
 20
18.7843180144
 11
-49.6232278343
 21
18.7930455469
  0
LINE
  5
6E9
100
AcDbEntity
  8
0
100
AcDbLine
 62
250
  6
CONTINUOUS
 10
-31.6420129081
 20
14.2928574085
 11
-32.5705136458
 21
14.85
  0
LWPOLYLINE
  5
6EA
100
AcDbEntity
  8
RACCORDO
100
AcDbPolyline
 62
250
  6
CONTINUOUS
 90
4
 70
0
 10
-22.6145012988
 20
18.6686618482
 10
-22.6139575863
 20
18.6611606927
 10
-22.6134434779
 20
18.6387015658
 10
-22.6129666174
 20
18.6013844103
  0
LWPOLYLINE
  5
6EB
100
AcDbEntity
  8
SUPERFICI
100
AcDbPolyline
 62
250
  6
CONTINUOUS
 90
4
 70
0
 10
-22.6145012988
 20
18.6686618482
 10
-22.6139575863
 20
18.6611606927
 10
-22.6134434779
 20
18.6387015658
 10
-22.6129666174
 20
18.6013844103
  0
LINE
  5
6EC
100
AcDbEntity
  8
RACCORDO
100
AcDbLine
 62
7
  6
CONTINUOUS
 10
-21.6232278343
 20
17.6686999252
 11
-21.6232278343
 21
-17.6686999252
  0
LINE
  5
6ED
100
AcDbEntity
  8
SUPERFICI
100
AcDbLine
 62
7
  6
CONTINUOUS
 10
-21.6232278343
 20
17.6686999252
 11
-21.6232278343
 21
-17.6686999252
  0
LINE
  5
6EE
100
AcDbEntity
  8
0
100
AcDbLine
 62
7
  6
CONTINUOUS
 10
-21.4232278343
 20
16.21535
 11
-21.4232278343
 21
15.953614
  0
LINE
  5
6EF
100
AcDbEntity
  8
SUPERFICI
100
AcDbLine
 62
7
  6
CONTINUOUS
 10
-21.4232278343
 20
16.21535
 11
-21.4232278343
 21
15.953614
  0
LINE
  5
6F0
100
AcDbEntity
  8
0
100
AcDbLine
 62
7
  6
CONTINUOUS
 10
-21.4232278343
 20
15.798679726
 11
-21.4232278343
 21
9.8
  0
LINE
  5
6F1
100
AcDbEntity
  8
SUPERFICI
100
AcDbLine
 62
7
  6
CONTINUOUS
 10
-21.4232278343
 20
15.798679726
 11
-21.4232278343
 21
9.8
  0
LINE
  5
6F2
100
AcDbEntity
  8
0
100
AcDbLine
 62
7
  6
CONTINUOUS
 10
-21.4232278343
 20
-10.3
 11
-21.4232278343
 21
-16.1
  0
LINE
  5
6F3
100
AcDbEntity
  8
SUPERFICI
100
AcDbLine
 62
7
  6
CONTINUOUS
 10
-21.4232278343
 20
-10.3
 11
-21.4232278343
 21
-16.1
  0
LINE
  5
6F4
100
AcDbEntity
  8
RACCORDO
100
AcDbLine
 62
7
  6
CONTINUOUS
 10
-40.1206098523
 20
19.0497560461
 11
-49.1232278343
 21
19.0026180178
  0
LINE
  5
6F5
100
AcDbEntity
  8
RACCORDO
100
AcDbLine
 62
7
  6
CONTINUOUS
 10
-39.6232278343
 20
20.6
 11
-49.1232278343
 21
20.6
  0
LINE
  5
6F6
100
AcDbEntity
  8
RACCORDO
100
AcDbLine
 62
250
  6
CONTINUOUS
 10
-59.2093830039
 20
20.5419058565
 11
-59.6952630008
 21
20.5622131686
  0
LWPOLYLINE
  5
6F7
100
AcDbEntity
  8
RACCORDO
100
AcDbPolyline
 62
250
  6
CONTINUOUS
 90
3
 70
0
 10
-59.6952630008
 20
20.5622131686
 10
-59.6996811415
 20
20.5624286743
 10
-59.7002338065
 20
20.5624683248
  0
LINE
  5
6F8
100
AcDbEntity
  8
0
100
AcDbLine
 62
250
  6
CONTINUOUS
 10
-25.9424469769
 20
14.8761909485
 11
-25.3853465807
 21
14.5047613144
  0
LWPOLYLINE
  5
6F9
100
AcDbEntity
  8
0
100
AcDbPolyline
 62
7
  6
CONTINUOUS
 90
10
 70
0
 43
0.3500000087
 10
-39.9160860474
 20
43.7966685608
 10
-39.844654361
 20
43.6538094513
 10
-39.844654361
 20
43.5823820282
 10
-39.9875134705
 20
43.4395229187
 10
-40.0589408936
 20
43.4395229187
 10
-40.13037258
 20
43.5109503418
 10
-40.13037258
 20
43.5823820282
 10
-40.0589408936
 20
43.7252368744
 10
-39.9875134705
 20
43.7966685608
 10
-39.9160860474
 20
43.7966685608
  0
LWPOLYLINE
  5
6FA
100
AcDbEntity
  8
0
100
AcDbPolyline
 62
7
  6
CONTINUOUS
 90
10
 70
0
 43
0.3500000087
 10
-34.5589419174
 20
33.7217397247
 10
-34.4875144943
 20
33.5788806152
 10
-34.4875144943
 20
33.5074531921
 10
-34.6303714722
 20
33.3645983459
 10
-34.7017988953
 20
33.3645983459
 10
-34.77322845
 20
33.436025769
 10
-34.77322845
 20
33.5074531921
 10
-34.7017988953
 20
33.6503123016
 10
-34.6303714722
 20
33.7217397247
 10
-34.5589419174
 20
33.7217397247
  0
LWPOLYLINE
  5
6FB
100
AcDbEntity
  8
RACCORDO
100
AcDbPolyline
 62
250
  6
CONTINUOUS
 90
43
 70
0
 10
-58.2625649482
 20
21.4994104546
 10
-58.2977074744
 20
21.4969443252
 10
-58.3326601231
 20
21.4932570887
 10
-58.3674228942
 20
21.4883487449
 10
-58.402039589
 20
21.482210188
 10
-58.4364664063
 20
21.4748505238
 10
-58.4705719427
 20
21.4662970707
 10
-58.5043539991
 20
21.4565453524
 10
-58.5378147747
 20
21.445599845
 10
-58.5708294638
 20
21.4335012957
 10
-58.6033960336
 20
21.4202455169
 10
-58.635516517
 20
21.4058366961
 10
-58.6670722076
 20
21.3903281432
 10
-58.6980610735
 20
21.3737157822
 10
-58.7284851465
 20
21.3560036891
 10
-58.7582318157
 20
21.3372574014
 10
-58.7872986776
 20
21.3174729949
 10
-58.8156881358
 20
21.2966543939
 10
-58.8432947894
 20
21.2748789085
 10
-58.8701156292
 20
21.2521430543
 10
-58.8961536645
 20
21.2284503157
 10
-58.921312523
 20
21.2038884562
 10
-58.9455889418
 20
21.1784542696
 10
-58.9689861839
 20
21.1521509622
 10
-58.991417665
 20
21.1250759166
 10
-59.0128798632
 20
21.0972261801
 10
-59.0333763006
 20
21.0686047055
 10
-59.0528309596
 20
21.0393177329
 10
-59.0712399007
 20
21.0093628957
 10
-59.0886070634
 20
20.9787425605
 10
-59.104868249
 20
20.9475700682
 10
-59.120019361
 20
20.9158434452
 10
-59.1340644959
 20
20.8835646649
 10
-59.1469517446
 20
20.8508529891
 10
-59.1586768956
 20
20.8177064318
 10
-59.1692441605
 20
20.7841269789
 10
-59.1786142644
 20
20.7502398504
 10
-59.1867827436
 20
20.7160423592
 10
-59.1937540617
 20
20.6815371925
 10
-59.1995023352
 20
20.6468576308
 10
-59.2040189361
 20
20.612048101
 10
-59.2073124924
 20
20.5770641762
 10
-59.2093830039
 20
20.5419058565
  0
LINE
  5
6FC
100
AcDbEntity
  8
RACCORDO
100
AcDbLine
 62
250
  6
CONTINUOUS
 10
-50.6210415053
 20
21.8998857286
 11
-58.2625649482
 21
21.4994104546
  0
LINE
  5
6FD
100
AcDbEntity
  8
RACCORDO
100
AcDbLine
 62
7
  6
CONTINUOUS
 10
-58.2800067232
 20
21.998725222
 11
-51.9987709763
 21
22.3279108386
  0
LINE
  5
6FE
100
AcDbEntity
  8
RACCORDO
100
AcDbLine
 62
7
  6
CONTINUOUS
 10
-50.6232278343
 20
22.3997080771
 11
-51.8963254645
 21
22.3323229492
  0
LINE
  5
6FF
100
AcDbEntity
  8
RACCORDO
100
AcDbLine
 62
7
  6
CONTINUOUS
 10
-51.8963254645
 20
22.3323229492
 11
-51.9178017326
 21
22.3313473676
  0
LINE
  5
700
100
AcDbEntity
  8
RACCORDO
100
AcDbLine
 62
7
  6
CONTINUOUS
 10
-51.9696852744
 20
22.3292404994
 11
-51.9987709763
 21
22.3279108386
  0
LINE
  5
701
100
AcDbEntity
  8
RACCORDO
100
AcDbLine
 62
7
  6
CONTINUOUS
 10
-51.9178017326
 20
22.3313473676
 11
-51.9696852744
 21
22.3292404994
  0
LINE
  5
702
100
AcDbEntity
  8
RACCORDO
100
AcDbLine
 62
7
  6
CONTINUOUS
 10
-40.114501631
 20
21.5659754333
 11
-49.1232278343
 21
21.4087275325
  0
LINE
  5
703
100
AcDbEntity
  8
RACCORDO
100
AcDbLine
 62
250
  6
CONTINUOUS
 10
-50.6210415053
 20
21.8998857286
 11
-49.6232278343
 21
21.8911779406
  0
LINE
  5
704
100
AcDbEntity
  8
RACCORDO
100
AcDbLine
 62
7
  6
CONTINUOUS
 10
-50.6232278343
 20
22.4
 11
-40.6145012988
 21
22.3126551668
  0
LINE
  5
705
100
AcDbEntity
  8
RACCORDO
100
AcDbLine
 62
250
  6
CONTINUOUS
 10
-50.6232278343
 20
24.2500042308
 11
-52.8746822671
 21
24.2369056521
  0
LINE
  5
706
100
AcDbEntity
  8
RACCORDO
100
AcDbLine
 62
7
  6
CONTINUOUS
 10
-50.6232278343
 20
24.5
 11
-52.8746822671
 21
24.4869014213
  0
LINE
  5
707
100
AcDbEntity
  8
RACCORDO
100
AcDbLine
 62
250
  6
CONTINUOUS
 10
-53.1232278343
 20
23.8443375673
 11
-52.8746822671
 21
23.8443375673
  0
LINE
  5
708
100
AcDbEntity
  8
RACCORDO
100
AcDbLine
 62
250
  6
CONTINUOUS
 10
-49.6232278343
 20
23.8443375673
 11
-49.8717734014
 21
23.8443375673
  0
LINE
  5
709
100
AcDbEntity
  8
RACCORDO
100
AcDbLine
 62
250
  6
CONTINUOUS
 10
-53.1232278343
 20
24.2369056521
 11
-52.8746822671
 21
24.2369056521
  0
LINE
  5
70A
100
AcDbEntity
  8
RACCORDO
100
AcDbLine
 62
250
  6
CONTINUOUS
 10
-49.6232278343
 20
24.2456323968
 11
-49.8717734014
 21
24.2456323968
  0
LINE
  5
70B
100
AcDbEntity
  8
ASSI
100
AcDbLine
 62
7
  6
CONTINUOUS
 10
-49.628320492
 20
23.7942117984
 11
-43.1203189686
 21
23.7563493531
  0
LINE
  5
70C
100
AcDbEntity
  8
RACCORDO
100
AcDbLine
 62
250
  6
CONTINUOUS
 10
-49.8717734014
 20
24.2456323968
 11
-50.6232278343
 21
24.2500042308
  0
LINE
  5
70D
100
AcDbEntity
  8
RACCORDO
100
AcDbLine
 62
7
  6
CONTINUOUS
 10
-49.8717734014
 20
24.495628166
 11
-50.6232278343
 21
24.5
  0
LWPOLYLINE
  5
70E
100
AcDbEntity
  8
0
100
AcDbPolyline
 62
7
  6
CONTINUOUS
 90
7
 70
0
 43
0.3500000087
 10
-31.9875141846
 20
33.2217392365
 10
-33.4875135178
 20
33.2217392365
 10
-31.9875141846
 20
35.3645960358
 10
-31.9875141846
 20
35.793169101
 10
-32.4160851181
 20
36.2217379028
 10
-33.0589425842
 20
36.2217379028
 10
-33.4875135178
 20
35.5788825684
  0
LWPOLYLINE
  5
70F
100
AcDbEntity
  8
0
100
AcDbPolyline
 62
7
  6
CONTINUOUS
 90
7
 70
0
 43
0.3500000087
 10
-38.4160845825
 20
33.2217392365
 10
-39.9160860474
 20
33.2217392365
 10
-38.4160845825
 20
35.3645960358
 10
-38.4160845825
 20
35.793169101
 10
-38.8446576477
 20
36.2217379028
 10
-39.4875129822
 20
36.2217379028
 10
-39.9160860474
 20
35.5788825684
  0
LWPOLYLINE
  5
710
100
AcDbEntity
  8
0
100
AcDbPolyline
 62
7
  6
CONTINUOUS
 90
6
 70
0
 43
0.3500000087
 10
-45.0589415131
 20
43.2966680725
 10
-43.9875131134
 20
43.2966680725
 10
-43.7732265808
 20
43.5109503418
 10
-43.7732265808
 20
44.5823830048
 10
-44.201799646
 20
45.0109518066
 10
-44.6303727112
 20
45.0109518066
  0
LWPOLYLINE
  5
711
100
AcDbEntity
  8
0
100
AcDbPolyline
 62
7
  6
CONTINUOUS
 90
13
 70
0
 43
0.3500000087
 10
-37.1303696503
 20
34.9360229706
 10
-37.416083606
 20
35.1503095032
 10
-37.416083606
 20
35.793169101
 10
-37.1303696503
 20
36.2217379028
 10
-36.4875143158
 20
36.2217379028
 10
-36.2018003601
 20
35.793169101
 10
-36.2018003601
 20
35.1503095032
 10
-36.4875143158
 20
34.9360229706
 10
-36.0589412506
 20
34.5074541687
 10
-36.0589412506
 20
33.6503123016
 10
-36.4875143158
 20
33.2217392365
 10
-37.1303696503
 20
33.2217392365
 10
-37.5589427155
 20
33.6503123016
  0
LWPOLYLINE
  5
712
100
AcDbEntity
  8
0
100
AcDbPolyline
 62
7
  6
CONTINUOUS
 90
13
 70
0
 43
0.3500000087
 10
-42.4875116486
 20
45.0109518066
 10
-42.7732298676
 20
45.2252383392
 10
-42.7732298676
 20
45.8680936737
 10
-42.4875116486
 20
46.2966667389
 10
-41.8446563141
 20
46.2966667389
 10
-41.5589423584
 20
45.8680936737
 10
-41.5589423584
 20
45.2252383392
 10
-41.8446563141
 20
45.0109518066
 10
-41.4160832489
 20
44.5823830048
 10
-41.4160832489
 20
43.7252368744
 10
-41.8446563141
 20
43.2966680725
 10
-42.4875116486
 20
43.2966680725
 10
-42.9160847137
 20
43.7252368744
  0
CIRCLE
  5
713
100
AcDbEntity
  8
RACCORDO
100
AcDbCircle
 62
7
  6
CONTINUOUS
 10
-0.9206362338
 20
-0.0
 40
4.9
  0
CIRCLE
  5
714
100
AcDbEntity
  8
0
100
AcDbCircle
 62
7
  6
CONTINUOUS
 10
-0.9206362338
 20
0.0
 40
4.85
  0
ARC
  5
715
100
AcDbEntity
  8
0
100
AcDbCircle
 62
250
  6
CONTINUOUS
 10
-0.9206362338
 20
0.0
 40
4.7803944007
100
AcDbArc
 50
69.0093145697
 51
69.1681365031
  0
ARC
  5
716
100
AcDbEntity
  8
0
100
AcDbCircle
 62
250
  6
CONTINUOUS
 10
-0.9206362338
 20
0.0
 40
4.7803944007
100
AcDbArc
 50
110.8317771076
 51
110.9906854303
  0
ARC
  5
717
100
AcDbEntity
  8
0
100
AcDbCircle
 62
250
  6
CONTINUOUS
 10
-0.9206362338
 20
0.0
 40
4.7803944007
100
AcDbArc
 50
249.0093145697
 51
249.1681365031
  0
ARC
  5
718
100
AcDbEntity
  8
0
100
AcDbCircle
 62
250
  6
CONTINUOUS
 10
-0.9206362338
 20
0.0
 40
4.7803944007
100
AcDbArc
 50
290.8317771076
 51
290.9906854303
  0
ARC
  5
719
100
AcDbEntity
  8
RACCORDO
100
AcDbCircle
 62
7
  6
CONTINUOUS
 10
-0.9206362338
 20
-0.0
 40
4.7
100
AcDbArc
 50
114.2812062477
 51
153.984833255
  0
ARC
  5
71A
100
AcDbEntity
  8
RACCORDO
100
AcDbCircle
 62
7
  6
CONTINUOUS
 10
-0.9206362338
 20
-0.0
 40
4.7
100
AcDbArc
 50
294.2812643401
 51
65.7187356634
  0
ARC
  5
71B
100
AcDbEntity
  8
RACCORDO
100
AcDbCircle
 62
7
  6
CONTINUOUS
 10
-0.9206362338
 20
-0.0
 40
4.7
100
AcDbArc
 50
206.015166745
 51
245.7187937754
  0
ARC
  5
71C
100
AcDbEntity
  8
0
100
AcDbCircle
 62
250
  6
CONTINUOUS
 10
-0.9206362338
 20
0.0
 40
4.5695606953
100
AcDbArc
 50
69.0791381144
 51
110.9208618856
  0
ARC
  5
71D
100
AcDbEntity
  8
0
100
AcDbCircle
 62
250
  6
CONTINUOUS
 10
-0.9206362338
 20
0.0
 40
4.5695606953
100
AcDbArc
 50
249.0791381144
 51
290.9208618856
  0
ARC
  5
71E
100
AcDbEntity
  8
0
100
AcDbCircle
 62
7
  6
CONTINUOUS
 10
-0.9206362338
 20
0.0
 40
4.2766674765
100
AcDbArc
 50
66.4898767705
 51
113.5101232295
  0
ARC
  5
71F
100
AcDbEntity
  8
0
100
AcDbCircle
 62
7
  6
CONTINUOUS
 10
-0.9206362338
 20
0.0
 40
4.2766674765
100
AcDbArc
 50
246.4898767705
 51
293.5101232295
  0
ARC
  5
720
100
AcDbEntity
  8
RACCORDO
100
AcDbCircle
 62
250
  6
CONTINUOUS
 10
-0.9206362338
 20
-0.0
 40
3.7
100
AcDbArc
 50
207.3532090805
 51
152.6467909195
  0
ARC
  5
721
100
AcDbEntity
  8
RACCORDO
100
AcDbCircle
 62
250
  6
CONTINUOUS
 10
-0.9206362338
 20
0.0
 40
1.7
100
AcDbArc
 50
335.6682737626
 51
24.3316407812
  0
ARC
  5
722
100
AcDbEntity
  8
0
100
AcDbCircle
 62
7
  6
CONTINUOUS
 10
-0.9206362338
 20
0.0
 40
1.6
100
AcDbArc
 50
185.3793789911
 51
174.6206210089
  0
ARC
  5
723
100
AcDbEntity
  8
0
100
AcDbCircle
 62
7
  6
CONTINUOUS
 10
-0.9206362338
 20
0.0
 40
1.0
100
AcDbArc
 50
188.6269265587
 51
171.3730734413
  0
ARC
  5
724
100
AcDbEntity
  8
RACCORDO
100
AcDbCircle
 62
7
  6
CONTINUOUS
 10
-4.5153470522
 20
-1.7544360137
 40
0.7
100
AcDbArc
 50
100.0000894753
 51
206.0151420595
  0
ARC
  5
725
100
AcDbEntity
  8
RACCORDO
100
AcDbCircle
 62
7
  6
CONTINUOUS
 10
-2.4770744754
 20
-1.0
 40
0.3
100
AcDbArc
 50
63.3944050933
 51
90.0
  0
ARC
  5
726
100
AcDbEntity
  8
RACCORDO
100
AcDbCircle
 62
7
  6
CONTINUOUS
 10
-2.4770744754
 20
1.0
 40
0.3
100
AcDbArc
 50
270.0
 51
296.6054938983
  0
ARC
  5
727
100
AcDbEntity
  8
RACCORDO
100
AcDbCircle
 62
7
  6
CONTINUOUS
 10
-4.5153481287
 20
1.7544362035
 40
0.7
100
AcDbArc
 50
153.984833255
 51
260.0
  0
ARC
  5
728
100
AcDbEntity
  8
RACCORDO
100
AcDbCircle
 62
7
  6
CONTINUOUS
 10
2.0793637662
 20
-0.0
 40
0.7
100
AcDbArc
 50
270.0
 51
90.0
  0
CIRCLE
  5
729
100
AcDbEntity
  8
SUPERFICI
100
AcDbCircle
 62
7
  6
CONTINUOUS
 10
5.0793637662
 20
0.0
 40
0.2847779897
  0
CIRCLE
  5
72A
100
AcDbEntity
  8
SUPERFICI
100
AcDbCircle
 62
7
  6
CONTINUOUS
 10
5.0793637662
 20
4.0885763656
 40
0.2847779897
  0
CIRCLE
  5
72B
100
AcDbEntity
  8
0
100
AcDbCircle
 62
7
  6
CONTINUOUS
 10
5.0793637662
 20
4.0885763656
 40
0.2847779897
  0
ARC
  5
72C
100
AcDbEntity
  8
RACCORDO
100
AcDbCircle
 62
7
  6
CONTINUOUS
 10
-58.2015027888
 20
-20.5007809198
 40
1.5
100
AcDbArc
 50
182.3569499908
 51
267.0
  0
ARC
  5
72D
100
AcDbEntity
  8
RACCORDO
100
AcDbCircle
 62
7
  6
CONTINUOUS
 10
-40.6232278343
 20
-21.3126932437
 40
1.0
100
AcDbArc
 50
270.5
 51
360.0
  0
ARC
  5
72E
100
AcDbEntity
  8
RACCORDO
100
AcDbCircle
 62
7
  6
CONTINUOUS
 10
-22.6232278343
 20
-17.6686999252
 40
1.0
100
AcDbArc
 50
270.5
 51
360.0
  0
ARC
  5
72F
100
AcDbEntity
  8
SUPERFICI
100
AcDbCircle
 62
7
  6
CONTINUOUS
 10
-22.6232278343
 20
-17.6686999252
 40
1.0
100
AcDbArc
 50
270.5
 51
360.0
  0
ARC
  5
730
100
AcDbEntity
  8
RACCORDO
100
AcDbCircle
 62
7
  6
CONTINUOUS
 10
-40.1232278343
 20
-19.5497491922
 40
0.5
100
AcDbArc
 50
0.0
 51
89.7
  0
ARC
  5
731
100
AcDbEntity
  8
ASSI
100
AcDbCircle
 62
7
  6
CONTINUOUS
 10
-43.1232278343
 20
-23.2563578147
 40
0.5
100
AcDbArc
 50
270.3333333333
 51
360.0
  0
ARC
  5
732
100
AcDbEntity
  8
RACCORDO
100
AcDbCircle
 62
7
  6
CONTINUOUS
 10
-49.8732278343
 20
-24.2456323968
 40
0.25
100
AcDbArc
 50
270.3333333333
 51
360.0
  0
ARC
  5
733
100
AcDbEntity
  8
RACCORDO
100
AcDbCircle
 62
7
  6
CONTINUOUS
 10
-49.8732278343
 20
-23.8443375673
 40
0.25
100
AcDbArc
 50
0.0
 51
60.0
  0
ARC
  5
734
100
AcDbEntity
  8
RACCORDO
100
AcDbCircle
 62
7
  6
CONTINUOUS
 10
-52.8732278343
 20
-24.2369056521
 40
0.25
100
AcDbArc
 50
180.0
 51
269.6666666667
  0
ARC
  5
735
100
AcDbEntity
  8
RACCORDO
100
AcDbCircle
 62
7
  6
CONTINUOUS
 10
-52.8732278343
 20
-23.8443375673
 40
0.25
100
AcDbArc
 50
120.0
 51
180.0
  0
ARC
  5
736
100
AcDbEntity
  8
RACCORDO
100
AcDbCircle
 62
7
  6
CONTINUOUS
 10
-58.2015027888
 20
20.5007809198
 40
1.5
100
AcDbArc
 50
93.0
 51
177.6430500092
  0
ARC
  5
737
100
AcDbEntity
  8
RACCORDO
100
AcDbCircle
 62
7
  6
CONTINUOUS
 10
-40.6232278343
 20
21.3126932437
 40
1.0
100
AcDbArc
 50
0.0
 51
89.5
  0
ARC
  5
738
100
AcDbEntity
  8
ASSI
100
AcDbCircle
 62
7
  6
CONTINUOUS
 10
-43.1232278343
 20
23.2563578147
 40
0.5
100
AcDbArc
 50
0.0
 51
89.6666666667
  0
ARC
  5
739
100
AcDbEntity
  8
RACCORDO
100
AcDbCircle
 62
7
  6
CONTINUOUS
 10
-49.8732278343
 20
24.2456323968
 40
0.25
100
AcDbArc
 50
0.0
 51
89.6666666667
  0
ARC
  5
73A
100
AcDbEntity
  8
RACCORDO
100
AcDbCircle
 62
7
  6
CONTINUOUS
 10
-49.8732278343
 20
23.8443375673
 40
0.25
100
AcDbArc
 50
300.0
 51
360.0
  0
ARC
  5
73B
100
AcDbEntity
  8
RACCORDO
100
AcDbCircle
 62
7
  6
CONTINUOUS
 10
-52.8732278343
 20
24.2369056521
 40
0.25
100
AcDbArc
 50
90.3333333333
 51
180.0
  0
ARC
  5
73C
100
AcDbEntity
  8
RACCORDO
100
AcDbCircle
 62
7
  6
CONTINUOUS
 10
-52.8732278343
 20
23.8443375673
 40
0.25
100
AcDbArc
 50
180.0
 51
240.0
  0
ARC
  5
73D
100
AcDbEntity
  8
0
100
AcDbCircle
 62
7
  6
CONTINUOUS
 10
-37.6347835291
 20
3.1239987739
 40
2.1238934525
100
AcDbArc
 50
222.4955054648
 51
237.9817919348
  0
ARC
  5
73E
100
AcDbEntity
  8
0
100
AcDbCircle
 62
7
  6
CONTINUOUS
 10
-37.6347835291
 20
3.1239987739
 40
2.1238934525
100
AcDbArc
 50
18.6673013173
 51
36.0320956259
  0
CIRCLE
  5
73F
100
AcDbEntity
  8
ASSI
100
AcDbCircle
 62
7
  6
CONTINUOUS
 10
-37.6347835291
 20
3.1239987739
 40
2.1238934525
  0
ARC
  5
740
100
AcDbEntity
  8
RACCORDO
100
AcDbCircle
 62
7
  6
CONTINUOUS
 10
-22.6232278343
 20
17.6686999252
 40
1.0
100
AcDbArc
 50
0.0
 51
89.5
  0
ARC
  5
741
100
AcDbEntity
  8
SUPERFICI
100
AcDbCircle
 62
7
  6
CONTINUOUS
 10
-22.6232278343
 20
17.6686999252
 40
1.0
100
AcDbArc
 50
0.0
 51
89.5
  0
ARC
  5
742
100
AcDbEntity
  8
RACCORDO
100
AcDbCircle
 62
7
  6
CONTINUOUS
 10
-40.1232278343
 20
19.5497491922
 40
0.5
100
AcDbArc
 50
270.3
 51
360.0
  0
ARC
  5
743
100
AcDbEntity
  8
RACCORDO
100
AcDbCircle
 62
7
  6
CONTINUOUS
 10
439.8767721657
 20
-0.0
 40
500.0
100
AcDbArc
 50
177.6430500092
 51
182.3569499908
  0
ELLIPSE
  5
744
100
AcDbEntity
  8
RACCORDO
100
AcDbEllipse
 62
7
  6
CONTINUOUS
 10
-11.5705600697
 20
-21.891254093
 30
0.0
 11
0.4473055582
 21
-0.2236357461
 31
0.0
 40
0.9998096356
 41
-2.6780516535
 42
-1.5707963219
  0
ELLIPSE
  5
745
100
AcDbEntity
  8
RACCORDO
100
AcDbEllipse
 62
7
  6
CONTINUOUS
 10
9.7292876022
 20
21.891254093
 30
0.0
 11
0.4473055582
 21
-0.2236357461
 31
0.0
 40
0.9998096356
 41
0.4635410001
 42
1.5707963317
  0
ELLIPSE
  5
746
100
AcDbEntity
  8
RACCORDO
100
AcDbEllipse
 62
7
  6
CONTINUOUS
 10
-11.0792114382
 20
-18.0772112332
 30
0.0
 11
0.7073221892
 21
-0.7073221892
 31
0.0
 40
0.9996954599
 41
-2.3474584437
 42
-2.225487788
  0
ELLIPSE
  5
747
100
AcDbEntity
  8
RACCORDO
100
AcDbEllipse
 62
7
  6
CONTINUOUS
 10
-11.0792114382
 20
-18.0772112332
 30
0.0
 11
-0.7073221892
 21
0.7073221892
 31
0.0
 40
0.9996954599
 41
0.7852458701
 42
0.7941342099
  0
ELLIPSE
  5
748
100
AcDbEntity
  8
RACCORDO
100
AcDbEllipse
 62
7
  6
CONTINUOUS
 10
9.2379389707
 20
-18.0772112332
 30
0.0
 11
0.7073221892
 21
0.7073221892
 31
0.0
 40
0.9996954599
 41
-0.9161048656
 42
-0.7852458701
  0
ELLIPSE
  5
749
100
AcDbEntity
  8
RACCORDO
100
AcDbEllipse
 62
7
  6
CONTINUOUS
 10
9.2379389707
 20
18.0772112332
 30
0.0
 11
0.7073221892
 21
-0.7073221892
 31
0.0
 40
0.9996954599
 41
0.7852458701
 42
0.9161048656
  0
ELLIPSE
  5
74A
100
AcDbEntity
  8
RACCORDO
100
AcDbEllipse
 62
7
  6
CONTINUOUS
 10
-11.0792114382
 20
18.0772112332
 30
0.0
 11
0.7073221892
 21
0.7073221892
 31
0.0
 40
0.9996954599
 41
-4.0576975192
 42
-3.9268385237
  0
ELLIPSE
  5
74B
100
AcDbEntity
  8
RACCORDO
100
AcDbEllipse
 62
7
  6
CONTINUOUS
 10
-11.5705600697
 20
21.891254093
 30
0.0
 11
0.4473055582
 21
0.2236357461
 31
0.0
 40
0.9998096356
 41
1.5707963219
 42
2.6780516535
  0
ELLIPSE
  5
74C
100
AcDbEntity
  8
RACCORDO
100
AcDbEllipse
 62
7
  6
CONTINUOUS
 10
9.7292876022
 20
-21.891254093
 30
0.0
 11
0.4473055582
 21
0.2236357461
 31
0.0
 40
0.9998096356
 41
-1.5707963317
 42
-0.4635410001
  0
ELLIPSE
  5
74D
100
AcDbEntity
  8
RACCORDO
100
AcDbEllipse
 62
7
  6
CONTINUOUS
 10
2.9764463896
 20
22.3737961104
 30
0.0
 11
0.5
 21
0.0
 31
0.0
 40
0.0524077793
 41
-1.5707963268
 42
-0.0058177642
  0
ELLIPSE
  5
74E
100
AcDbEntity
  8
RACCORDO
100
AcDbEllipse
 62
7
  6
CONTINUOUS
 10
2.9764463896
 20
23.7970910851
 30
0.0
 11
0.5
 21
0.0
 31
0.0
 40
0.0058178298
 41
-0.6464131586
 42
-0.0058177642
  0
ELLIPSE
  5
74F
100
AcDbEntity
  8
RACCORDO
100
AcDbEllipse
 62
7
  6
CONTINUOUS
 10
-4.8177188571
 20
23.7970910851
 30
0.0
 11
0.5
 21
-0.0
 31
0.0
 40
0.0058178298
 41
-3.1357748894
 42
-2.495179495
  0
ELLIPSE
  5
750
100
AcDbEntity
  8
RACCORDO
100
AcDbEllipse
 62
7
  6
CONTINUOUS
 10
-4.8177188571
 20
22.3737961104
 30
0.0
 11
0.5
 21
0.0
 31
0.0
 40
0.0524077793
 41
-3.1357748894
 42
-1.5707963268
  0
ELLIPSE
  5
751
100
AcDbEntity
  8
RACCORDO
100
AcDbEllipse
 62
7
  6
CONTINUOUS
 10
2.9764463896
 20
-23.7970910851
 30
0.0
 11
0.5
 21
-0.0
 31
0.0
 40
0.0058178298
 41
0.0058177642
 42
0.6464131586
  0
ELLIPSE
  5
752
100
AcDbEntity
  8
RACCORDO
100
AcDbEllipse
 62
7
  6
CONTINUOUS
 10
2.9764463896
 20
-22.3737961104
 30
0.0
 11
0.5
 21
-0.0
 31
0.0
 40
0.0524077793
 41
0.0058177642
 42
1.5707963268
  0
ELLIPSE
  5
753
100
AcDbEntity
  8
RACCORDO
100
AcDbEllipse
 62
7
  6
CONTINUOUS
 10
-4.8177188571
 20
-22.3737961104
 30
0.0
 11
0.5
 21
0.0
 31
0.0
 40
0.0524077793
 41
1.5707963268
 42
3.1357748894
  0
ELLIPSE
  5
754
100
AcDbEntity
  8
RACCORDO
100
AcDbEllipse
 62
7
  6
CONTINUOUS
 10
-4.8177188571
 20
-23.7970910851
 30
0.0
 11
0.5
 21
-0.0
 31
0.0
 40
0.0058178298
 41
2.495179495
 42
3.1357748894
  0
ELLIPSE
  5
755
100
AcDbEntity
  8
RACCORDO
100
AcDbEllipse
 62
7
  6
CONTINUOUS
 10
9.4720872481
 20
-22.3344902759
 30
0.0
 11
0.25
 21
0.0
 31
0.0
 40
0.0524077793
 41
0.5261092631
 42
1.5707963268
  0
ELLIPSE
  5
756
100
AcDbEntity
  8
RACCORDO
100
AcDbEllipse
 62
7
  6
CONTINUOUS
 10
7.5866402844
 20
-22.3344902759
 30
0.0
 11
0.25
 21
-0.0
 31
0.0
 40
0.0524077793
 41
1.5707963268
 42
3.1357748894
  0
ELLIPSE
  5
757
100
AcDbEntity
  8
RACCORDO
100
AcDbEllipse
 62
7
  6
CONTINUOUS
 10
-9.4279127519
 20
-22.3344902759
 30
0.0
 11
0.25
 21
0.0
 31
0.0
 40
0.0524077793
 41
0.0058177642
 42
1.5707963268
  0
ELLIPSE
  5
758
100
AcDbEntity
  8
RACCORDO
100
AcDbEllipse
 62
7
  6
CONTINUOUS
 10
-11.3133597156
 20
-22.3344902759
 30
0.0
 11
0.25
 21
-0.0
 31
0.0
 40
0.0524077793
 41
1.5707963268
 42
2.6154833905
  0
ELLIPSE
  5
759
100
AcDbEntity
  8
RACCORDO
100
AcDbEllipse
 62
7
  6
CONTINUOUS
 10
9.4720872481
 20
22.3344902759
 30
0.0
 11
0.25
 21
0.0
 31
0.0
 40
0.0524077793
 41
-1.5707963268
 42
-0.5261092631
  0
ELLIPSE
  5
75A
100
AcDbEntity
  8
RACCORDO
100
AcDbEllipse
 62
7
  6
CONTINUOUS
 10
7.5866402844
 20
22.3344902759
 30
0.0
 11
0.25
 21
0.0
 31
0.0
 40
0.0524077793
 41
-3.1357748894
 42
-1.5707963268
  0
ELLIPSE
  5
75B
100
AcDbEntity
  8
RACCORDO
100
AcDbEllipse
 62
7
  6
CONTINUOUS
 10
-9.4279127519
 20
22.3344902759
 30
0.0
 11
0.25
 21
0.0
 31
0.0
 40
0.0524077793
 41
-1.5707963268
 42
-0.0058177642
  0
ELLIPSE
  5
75C
100
AcDbEntity
  8
RACCORDO
100
AcDbEllipse
 62
7
  6
CONTINUOUS
 10
-11.3133597156
 20
22.3344902759
 30
0.0
 11
0.25
 21
-0.0
 31
0.0
 40
0.0524077793
 41
-2.6154833905
 42
-1.5707963268
  0
ELLIPSE
  5
75D
100
AcDbEntity
  8
RACCORDO
100
AcDbEllipse
 62
7
  6
CONTINUOUS
 10
-40.1232278343
 20
22.0658992808
 30
0.0
 11
-0.0
 21
0.5
 31
0.0
 40
1.0
 41
-3.1241393611
 42
-2.2313643779
  0
ELLIPSE
  5
75E
100
AcDbEntity
  8
RACCORDO
100
AcDbEllipse
 62
7
  6
CONTINUOUS
 10
-40.1232278343
 20
-22.0658992808
 30
0.0
 11
0.5
 21
0.0
 31
0.0
 40
1.0
 41
0.6605680511
 42
1.5533430343
  0
ELLIPSE
  5
75F
100
AcDbEntity
  8
CURVE
100
AcDbEllipse
 62
250
  6
CONTINUOUS
 10
-45.6339848343
 20
-4.680795
 30
0.0
 11
0.352865
 21
-0.0
 31
0.0
 40
1.0
 41
0.0
 42
3.1415926536
  0
ELLIPSE
  5
760
100
AcDbEntity
  8
CURVE
100
AcDbEllipse
 62
250
  6
CONTINUOUS
 10
-45.6339848343
 20
-4.600289
 30
0.0
 11
0.8893898871
 21
0.0
 31
0.0
 40
1.0
 41
0.3986832664
 42
3.1415926536
  0
ENDSEC
  0
SECTION
  2
OBJECTS
  0
DICTIONARY
  5
C
100
AcDbDictionary
280
0
281
1
  3
ACAD_GROUP
350
D
  3
ACAD_MLINESTYLE
350
17
  3
ACAD_LAYOUT
350
1A
  3
ACAD_PLOTSETTINGS
350
19
  3
ACAD_PLOTSTYLENAME
350
E
  0
DICTIONARY
  5
D
102
{ACAD_REACTORS
330
C
102
}
100
AcDbDictionary
280
0
281
1
  0
ACDBDICTIONARYWDFLT
  5
E
102
{ACAD_REACTORS
330
C
102
}
100
AcDbDictionary
281
1
  3
Normal
350
F
100
AcDbDictionaryWithDefault
340
F
  0
DICTIONARY
  5
17
102
{ACAD_REACTORS
330
C
102
}
100
AcDbDictionary
280
0
281
1
  3
Standard
350
18
  0
DICTIONARY
  5
19
102
{ACAD_REACTORS
330
C
102
}
100
AcDbDictionary
281
1
  0
DICTIONARY
  5
1A
102
{ACAD_REACTORS
330
C
102
}
100
AcDbDictionary
281
1
  3
Model
350
761
  3
Layout1
350
762
  0
ACDBPLACEHOLDER
  5
F
102
{ACAD_REACTORS
330
E
102
}
  0
MLINESTYLE
  5
18
102
{ACAD_REACTORS
330
17
102
}
100
AcDbMlineStyle
  2
STANDARD
 70
0
  3

 62
256
 51
90.0
 52
90.0
 71
2
 49
0.5
 62
256
  6
BYLAYER
 49
-0.5
 62
256
  6
BYLAYER
  0
LAYOUT
  5
761
102
{ACAD_REACTORS
330
1A
102
}
100
AcDbPlotSettings
  1

  2
none_device
  4
ANSI_C_(22.00_x_17.00_Inches)
  6

 40
0.0
 41
0.0
 42
0.0
 43
0.0
 44
558.8
 45
431.8
 46
0.0
 47
0.0
 48
0.0
 49
0.0
140
0.0
141
0.0
142
1.0
143
1.0
 70
1024
 72
1
 73
0
 74
0
  7

 75
0
147
1.0
148
0.0
149
0.0
100
AcDbLayout
  1
Model
 70
0
 71
0
 10
0.0
 20
0.0
 11
558.8
 21
431.8
 12
0.0
 22
0.0
 32
0.0
 14
0.0
 24
0.0
 34
0.0
 15
0.0
 25
0.0
 35
0.0
146
0.0
 13
0.0
 23
0.0
 33
0.0
 16
1.0
 26
0.0
 36
0.0
 17
0.0
 27
1.0
 37
0.0
 76
0
330
216
345
0
346
0
  0
LAYOUT
  5
762
102
{ACAD_REACTORS
330
1A
102
}
100
AcDbPlotSettings
  1

  2
none_device
  4
ANSI_C_(22.00_x_17.00_Inches)
  6

 40
0.0
 41
0.0
 42
0.0
 43
0.0
 44
558.8
 45
431.8
 46
0.0
 47
0.0
 48
0.0
 49
0.0
140
0.0
141
0.0
142
1.0
143
1.0
 70
0
 72
1
 73
0
 74
0
  7

 75
0
147
1.0
148
0.0
149
0.0
100
AcDbLayout
  1
Layout1
 70
0
 71
1
 10
0.0
 20
0.0
 11
558.8
 21
431.8
 12
0.0
 22
0.0
 32
0.0
 14
0.0
 24
0.0
 34
0.0
 15
0.0
 25
0.0
 35
0.0
146
0.0
 13
0.0
 23
0.0
 33
0.0
 16
1.0
 26
0.0
 36
0.0
 17
0.0
 27
1.0
 37
0.0
 76
0
330
217
345
0
346
0
  0
ENDSEC
  0
EOF
