  0
SECTION
  2
HEADER
  9
$ACADVER
  1
AC1015
  9
$DWGCODEPAGE
  3
ANSI_1252
  9
$EXTMAX
 10
297.0
 20
210.0
 30
0.0
  9
$EXTMIN
 10
0.0
 20
0.0
 30
0.0
  9
$LIMMIN
 10
0.0
 20
0.0
  9
$LIMMAX
 10
297.0
 20
210.0
  9
$VIEWCTR
 10
148.5
 20
105.0
  9
$VIEWSIZE
 40
210.0
  9
$CLAYER
  8
0
  9
$LTSCALE
 40
16.335
  9
$CELTYPE
  6
BYLAYER
  9
$DIMSCALE
 40
1.0
  9
$DIMASZ
 40
3.0
  9
$DIMEXO
 40
1.85625
  9
$DIMDLI
 40
11.286
  9
$DIMEXE
 40
5.346
  9
$DIMCEN
 40
2.673
  9
$DIMLFAC
 40
1.0
  9
$DIMBLK
  1
_FILLED
  9
$DIMTXT
 40
3.0
  9
$DIMTOL
 70
1
  9
$DIMLIM
 70
0
  9
$DIMTFAC
 40
1.0
  9
$DIMTP
 40
0.01
  9
$DIMTM
 40
0.01
  9
$PDMODE
 70
3
  9
$PDSIZE
 40
3.0
  9
$HANDSEED
  5
437
  9
$TILEMODE
 70
1
  9
$MEASUREMENT
 70
1
  9
$INSUNITS
 70
4
  0
ENDSEC
  0
SECTION
  2
CLASSES
  0
CLASS
  1
ACDBDICTIONARYWDFLT
  2
AcDbDictionaryWithDefault
  3
AutoCAD 2000
 90
0
280
0
281
0
  0
CLASS
  1
ACDBPLACEHOLDER
  2
AcDbPlaceHolder
  3
AutoCAD 2000
 90
0
280
0
281
0
  0
CLASS
  1
LAYOUT
  2
AcDbLayout
  3
AutoCAD 2000
 90
0
280
0
281
0
  0
ENDSEC
  0
SECTION
  2
TABLES
  0
TABLE
  2
VPORT
  5
8
100
AcDbSymbolTable
 70
2
  0
VPORT
  5
1F4
100
AcDbSymbolTableRecord
100
AcDbViewportTableRecord
  2
*ACTIVE
 70
0
 10
0.0
 20
0.0
 11
1.0
 21
1.0
 12
148.5
 22
105.0
 13
0.0
 23
0.0
 14
1.0
 24
1.0
 15
0.0
 25
0.0
 16
0.0
 26
0.0
 36
1.0
 17
0.0
 27
0.0
 37
0.0
 40
210.0
 41
1.4142857143
 42
50.0
 43
0.0
 44
0.0
 50
0.0
 51
0.0
 71
0
 72
100
 73
1
 74
1
 75
0
 76
0
 77
0
 78
0
  0
ENDTAB
  0
TABLE
  2
LTYPE
  5
5
100
AcDbSymbolTable
 70
6
  0
LTYPE
  5
14
100
AcDbSymbolTableRecord
100
AcDbLinetypeTableRecord
  2
BYBLOCK
 70
0
  3

 72
65
 73
0
 40
0.0
  0
LTYPE
  5
15
100
AcDbSymbolTableRecord
100
AcDbLinetypeTableRecord
  2
BYLAYER
 70
0
  3

 72
65
 73
0
 40
0.0
  0
LTYPE
  5
16
100
AcDbSymbolTableRecord
100
AcDbLinetypeTableRecord
  2
CONTINUOUS
 70
64
  3
Solid line
 72
65
 73
0
 40
0.0
  0
LTYPE
  5
1F5
100
AcDbSymbolTableRecord
100
AcDbLinetypeTableRecord
  2
CENTER
 70
64
  3
____ _ ____ _ ____ _ ____ _ ____ _ ____ _ ____
 72
65
 73
4
 40
0.6
 49
0.375
 74
0
 49
-0.075
 74
0
 49
0.075
 74
0
 49
-0.075
 74
0
  0
LTYPE
  5
1F6
100
AcDbSymbolTableRecord
100
AcDbLinetypeTableRecord
  2
HIDDEN
 70
64
  3
- - - - - - - - - - - - - - - - - - - -
 72
65
 73
2
 40
0.2
 49
0.1
 74
0
 49
-0.1
 74
0
  0
LTYPE
  5
1F7
100
AcDbSymbolTableRecord
100
AcDbLinetypeTableRecord
  2
PHANTOM
 70
64
  3
_____ _ _ _____ _ _ _____ _ _ _____
 72
65
 73
6
 40
0.8
 49
0.45
 74
0
 49
-0.05
 74
0
 49
0.1
 74
0
 49
-0.05
 74
0
 49
0.1
 74
0
 49
-0.05
 74
0
  0
LTYPE
  5
1F8
100
AcDbSymbolTableRecord
100
AcDbLinetypeTableRecord
  2
DOT
 70
64
  3
. . . . . . . . . . . . . . . . . . . .
 72
65
 73
2
 40
0.2
 49
0.1
 74
0
 49
-0.1
 74
0
  0
LTYPE
  5
1F9
100
AcDbSymbolTableRecord
100
AcDbLinetypeTableRecord
  2
DASHED
 70
64
  3
- - - - - - - - - - - - - - - - - - - -
 72
65
 73
2
 40
0.2
 49
0.1
 74
0
 49
-0.1
 74
0
  0
ENDTAB
  0
TABLE
  2
LAYER
  5
2
100
AcDbSymbolTable
 70
36
  0
LAYER
  5
10
100
AcDbSymbolTableRecord
100
AcDbLayerTableRecord
  2
0
 70
0
 62
7
  6
CONTINUOUS
370
-3
390
F
  0
LAYER
  5
1FA
100
AcDbSymbolTableRecord
100
AcDbLayerTableRecord
  2
DEFAULT_1
 70
0
 62
7
  6
CENTER
370
-3
390
F
  0
LAYER
  5
1FB
100
AcDbSymbolTableRecord
100
AcDbLayerTableRecord
  2
DEFAULT_2
 70
0
 62
7
  6
HIDDEN
370
-3
390
F
  0
LAYER
  5
1FC
100
AcDbSymbolTableRecord
100
AcDbLayerTableRecord
  2
DEFAULT_3
 70
0
 62
7
  6
PHANTOM
370
-3
390
F
  0
LAYER
  5
1FD
100
AcDbSymbolTableRecord
100
AcDbLayerTableRecord
  2
ASSI
 70
0
 62
7
  6
CONTINUOUS
370
-3
390
F
  0
LAYER
  5
1FE
100
AcDbSymbolTableRecord
100
AcDbLayerTableRecord
  2
COLORE
 70
0
 62
7
  6
CONTINUOUS
370
-3
390
F
  0
LAYER
  5
1FF
100
AcDbSymbolTableRecord
100
AcDbLayerTableRecord
  2
COORDINATE
 70
0
 62
7
  6
CONTINUOUS
370
-3
390
F
  0
LAYER
  5
200
100
AcDbSymbolTableRecord
100
AcDbLayerTableRecord
  2
COORD_ORIGINE
 70
0
 62
7
  6
CONTINUOUS
370
-3
390
F
  0
LAYER
  5
201
100
AcDbSymbolTableRecord
100
AcDbLayerTableRecord
  2
COPY_PUBLISH
 70
0
 62
7
  6
CONTINUOUS
370
-3
390
F
  0
LAYER
  5
202
100
AcDbSymbolTableRecord
100
AcDbLayerTableRecord
  2
COSMETICHE
 70
0
 62
7
  6
CONTINUOUS
370
-3
390
F
  0
LAYER
  5
203
100
AcDbSymbolTableRecord
100
AcDbLayerTableRecord
  2
COSMETICI
 70
0
 62
7
  6
CONTINUOUS
370
-3
390
F
  0
LAYER
  5
204
100
AcDbSymbolTableRecord
100
AcDbLayerTableRecord
  2
CURVE
 70
0
 62
7
  6
CONTINUOUS
370
-3
390
F
  0
LAYER
  5
205
100
AcDbSymbolTableRecord
100
AcDbLayerTableRecord
  2
DRAFT
 70
0
 62
7
  6
CONTINUOUS
370
-3
390
F
  0
LAYER
  5
206
100
AcDbSymbolTableRecord
100
AcDbLayerTableRecord
  2
IMPORT_IGES
 70
0
 62
7
  6
CONTINUOUS
370
-3
390
F
  0
LAYER
  5
207
100
AcDbSymbolTableRecord
100
AcDbLayerTableRecord
  2
NOTE
 70
0
 62
7
  6
CONTINUOUS
370
-3
390
F
  0
LAYER
  5
208
100
AcDbSymbolTableRecord
100
AcDbLayerTableRecord
  2
PIANI
 70
0
 62
7
  6
CONTINUOUS
370
-3
390
F
  0
LAYER
  5
209
100
AcDbSymbolTableRecord
100
AcDbLayerTableRecord
  2
PIANI_ORIGINE
 70
0
 62
7
  6
CONTINUOUS
370
-3
390
F
  0
LAYER
  5
20A
100
AcDbSymbolTableRecord
100
AcDbLayerTableRecord
  2
PUNTI
 70
0
 62
7
  6
CONTINUOUS
370
-3
390
F
  0
LAYER
  5
20B
100
AcDbSymbolTableRecord
100
AcDbLayerTableRecord
  2
RACCORDO
 70
0
 62
7
  6
CONTINUOUS
370
-3
390
F
  0
LAYER
  5
20C
100
AcDbSymbolTableRecord
100
AcDbLayerTableRecord
  2
SIMBOLI
 70
0
 62
7
  6
CONTINUOUS
370
-3
390
F
  0
LAYER
  5
20D
100
AcDbSymbolTableRecord
100
AcDbLayerTableRecord
  2
SMUSSO
 70
0
 62
7
  6
CONTINUOUS
370
-3
390
F
  0
LAYER
  5
20E
100
AcDbSymbolTableRecord
100
AcDbLayerTableRecord
  2
SNAPLINE
 70
0
 62
7
  6
CONTINUOUS
370
-3
390
F
  0
LAYER
  5
20F
100
AcDbSymbolTableRecord
100
AcDbLayerTableRecord
  2
SUPERFICI
 70
0
 62
7
  6
CONTINUOUS
370
-3
390
F
  0
LAYER
  5
210
100
AcDbSymbolTableRecord
100
AcDbLayerTableRecord
  2
TRASH
 70
0
 62
7
  6
CONTINUOUS
370
-3
390
F
  0
LAYER
  5
211
100
AcDbSymbolTableRecord
100
AcDbLayerTableRecord
  2
XSEC_DATUMS
 70
0
 62
7
  6
CONTINUOUS
370
-3
390
F
  0
ENDTAB
  0
TABLE
  2
STYLE
  5
3
100
AcDbSymbolTable
 70
1
  0
STYLE
  5
11
100
AcDbSymbolTableRecord
100
AcDbTextStyleTableRecord
  2
STANDARD
 70
0
 40
0.0
 41
0.8
 50
0.0
 71
0
 42
0.2
  3
txt
  4

  0
STYLE
  5
212
100
AcDbSymbolTableRecord
100
AcDbTextStyleTableRecord
  2
TEXTSTYLE_1
 70
0
 40
0.0
 41
0.8
 50
0.0
 71
0
 42
0.2
  3
gdt
  4

  0
ENDTAB
  0
TABLE
  2
VIEW
  5
6
100
AcDbSymbolTable
 70
0
  0
ENDTAB
  0
TABLE
  2
UCS
  5
7
100
AcDbSymbolTable
 70
0
  0
ENDTAB
  0
TABLE
  2
APPID
  5
9
100
AcDbSymbolTable
 70
1
  0
APPID
  5
213
100
AcDbSymbolTableRecord
100
AcDbRegAppTableRecord
  2
ACAD
 70
0
  0
ENDTAB
  0
TABLE
  2
BLOCK_RECORD
  5
1
100
AcDbSymbolTable
 70
0
  0
BLOCK_RECORD
  5
214
100
AcDbSymbolTableRecord
100
AcDbBlockTableRecord
  2
*Model_Space
  0
BLOCK_RECORD
  5
215
100
AcDbSymbolTableRecord
100
AcDbBlockTableRecord
  2
*Paper_Space
  0
BLOCK_RECORD
  5
216
100
AcDbSymbolTableRecord
100
AcDbBlockTableRecord
  2
_FILLED
  0
BLOCK_RECORD
  5
217
100
AcDbSymbolTableRecord
100
AcDbBlockTableRecord
  2
*D0
  0
BLOCK_RECORD
  5
218
100
AcDbSymbolTableRecord
100
AcDbBlockTableRecord
  2
*D1
  0
BLOCK_RECORD
  5
219
100
AcDbSymbolTableRecord
100
AcDbBlockTableRecord
  2
*D2
  0
ENDTAB
  0
TABLE
  2
DIMSTYLE
  5
A
100
AcDbSymbolTable
 70
1
100
AcDbDimStyleTable
 71
0
  0
DIMSTYLE
105
21A
100
AcDbSymbolTableRecord
100
AcDbDimStyleTableRecord
  2
STANDARD
 70
0
  3

  4

 40
1.0
 41
3.0
 42
0.0625
 43
0.38
 44
0.18
 45
0.0
 46
0.0
 47
0.01
 48
0.01
140
3.0
141
0.09
142
0.0
143
25.4
144
1.0
145
0.0
146
1.0
147
0.09
 71
1.0
 72
0.0
 73
0
 74
0
 75
0
 76
0
 77
1
 78
8
170
0
171
2
172
0
173
0
174
0
175
0
176
0
177
0
178
0
270
2
271
2
272
2
273
2
274
2
275
0
280
0
281
0
282
0
283
1
284
8
285
0
286
0
287
3
288
0
340
11
341
216
342
216
343
216
344
216
  0
DIMSTYLE
105
21B
100
AcDbSymbolTableRecord
100
AcDbDimStyleTableRecord
  2
DIMSTYLE_1
 70
0
  3

  4

 40
1.0
 41
3.0
 42
0.0625
 43
0.38
 44
0.18
 45
0.0
 46
0.0
 47
0.0
 48
0.0
140
3.0
141
0.09
142
0.0
143
25.4
144
1.0
145
0.0
146
1.0
147
0.09
 71
0.0
 72
0.0
 73
0
 74
0
 75
0
 76
0
 77
1
 78
8
170
0
171
2
172
0
173
0
174
0
175
0
176
0
177
0
178
0
270
2
271
2
272
2
273
2
274
2
275
0
280
0
281
0
282
0
283
1
284
8
285
0
286
0
287
3
288
0
340
11
341
216
342
216
343
216
344
216
  0
ENDTAB
  0
ENDSEC
  0
SECTION
  2
BLOCKS
  0
BLOCK
  5
20
100
AcDbEntity
  8
0
100
AcDbBlockBegin
  2
*Model_Space
 70
0
 10
0.0
 20
0.0
 30
0.0
  3
*Model_Space
  1

  0
ENDBLK
  5
21
100
AcDbEntity
  8
0
100
AcDbBlockEnd
  0
BLOCK
  5
1C
100
AcDbEntity
  8
0
100
AcDbBlockBegin
  2
*Paper_Space
 70
0
 10
0.0
 20
0.0
 30
0.0
  3
*Paper_Space
  1

  0
ENDBLK
  5
1D
100
AcDbEntity
  8
0
100
AcDbBlockEnd
  0
BLOCK
  5
21C
100
AcDbEntity
  8
0
100
AcDbBlockBegin
  2
_FILLED
 70
64
 10
0.0
 20
0.0
  3
_FILLED
  1

  0
SOLID
  5
21D
100
AcDbEntity
  8
0
  6
BYBLOCK
 62
0
100
AcDbTrace
 10
0.0
 20
0.0
 11
-1.0
 21
0.3166666667
 12
-1.0
 22
-0.3166666667
 13
-1.0
 23
-0.3166666667
  0
ENDBLK
  5
21E
100
AcDbEntity
  8
0
  6
BYBLOCK
 62
0
100
AcDbBlockEnd
  0
BLOCK
  5
21F
100
AcDbEntity
  8
0
100
AcDbBlockBegin
 62
7
  6
CONTINUOUS
  2
*D0
 70
65
 10
0.0
 20
0.0
  3
*D0
  1

  0
LINE
  5
220
100
AcDbEntity
  8
0
100
AcDbLine
 62
7
  6
CONTINUOUS
 10
-24.5
 20
24.2507615242
 11
-24.5
 21
44.5
  0
LINE
  5
221
100
AcDbEntity
  8
0
100
AcDbLine
 62
7
  6
CONTINUOUS
 10
24.5
 20
24.2507615242
 11
24.5
 21
44.5
  0
LINE
  5
222
100
AcDbEntity
  8
0
100
AcDbLine
 62
7
  6
CONTINUOUS
 10
-24.5
 20
43.0
 11
0.0
 21
43.0
  0
LINE
  5
223
100
AcDbEntity
  8
0
100
AcDbLine
 62
7
  6
CONTINUOUS
 10
24.5
 20
43.0
 11
0.0
 21
43.0
  0
INSERT
  5
224
100
AcDbEntity
  8
0
100
AcDbBlockReference
 62
7
  6
CONTINUOUS
  2
_FILLED
 10
-24.5
 20
43.0
 41
3.0
 42
3.0
 43
3.0
 50
180.0
  0
INSERT
  5
225
100
AcDbEntity
  8
0
100
AcDbBlockReference
 62
7
  6
CONTINUOUS
  2
_FILLED
 10
24.5
 20
43.0
 41
3.0
 42
3.0
 43
3.0
 50
360.0
  0
ENDBLK
  5
226
100
AcDbEntity
  8
0
  6
BYBLOCK
 62
0
100
AcDbBlockEnd
  0
BLOCK
  5
227
100
AcDbEntity
  8
0
100
AcDbBlockBegin
 62
7
  6
CONTINUOUS
  2
*D1
 70
65
 10
0.0
 20
0.0
  3
*D1
  1

  0
LINE
  5
228
100
AcDbEntity
  8
0
100
AcDbLine
 62
7
  6
CONTINUOUS
 10
-38.7879054991
 20
22.5
 11
-38.7879054991
 21
44.5
  0
LINE
  5
229
100
AcDbEntity
  8
0
100
AcDbLine
 62
7
  6
CONTINUOUS
 10
-47.5879054991
 20
0.5
 11
-47.5879054991
 21
44.5
  0
LINE
  5
22A
100
AcDbEntity
  8
0
100
AcDbLine
 62
7
  6
CONTINUOUS
 10
-38.7879054991
 20
43.0
 11
-34.7879054991
 21
43.0
  0
LINE
  5
22B
100
AcDbEntity
  8
0
100
AcDbLine
 62
7
  6
CONTINUOUS
 10
-34.7879054991
 20
43.0
 11
-43.1879054991
 21
43.0
  0
LINE
  5
22C
100
AcDbEntity
  8
0
100
AcDbLine
 62
7
  6
CONTINUOUS
 10
-47.5879054991
 20
43.0
 11
-51.5879054991
 21
43.0
  0
LINE
  5
22D
100
AcDbEntity
  8
0
100
AcDbLine
 62
7
  6
CONTINUOUS
 10
-51.5879054991
 20
43.0
 11
-43.1879054991
 21
43.0
  0
INSERT
  5
22E
100
AcDbEntity
  8
0
100
AcDbBlockReference
 62
7
  6
CONTINUOUS
  2
_FILLED
 10
-38.7879054991
 20
43.0
 41
3.0
 42
3.0
 43
3.0
 50
180.0
  0
INSERT
  5
22F
100
AcDbEntity
  8
0
100
AcDbBlockReference
 62
7
  6
CONTINUOUS
  2
_FILLED
 10
-47.5879054991
 20
43.0
 41
3.0
 42
3.0
 43
3.0
  0
ENDBLK
  5
230
100
AcDbEntity
  8
0
  6
BYBLOCK
 62
0
100
AcDbBlockEnd
  0
BLOCK
  5
231
100
AcDbEntity
  8
0
100
AcDbBlockBegin
 62
7
  6
CONTINUOUS
  2
*D2
 70
65
 10
0.0
 20
0.0
  3
*D2
  1

  0
LINE
  5
232
100
AcDbEntity
  8
0
100
AcDbLine
 62
7
  6
CONTINUOUS
 10
20.0007615242
 20
-28.75
 11
44.5
 21
-28.75
  0
LINE
  5
233
100
AcDbEntity
  8
0
100
AcDbLine
 62
7
  6
CONTINUOUS
 10
20.0007615242
 20
28.75
 11
44.5
 21
28.75
  0
LINE
  5
234
100
AcDbEntity
  8
0
100
AcDbLine
 62
7
  6
CONTINUOUS
 10
43.0
 20
-28.75
 11
43.0
 21
-0.0
  0
LINE
  5
235
100
AcDbEntity
  8
0
100
AcDbLine
 62
7
  6
CONTINUOUS
 10
43.0
 20
28.75
 11
43.0
 21
-0.0
  0
INSERT
  5
236
100
AcDbEntity
  8
0
100
AcDbBlockReference
 62
7
  6
CONTINUOUS
  2
_FILLED
 10
43.0
 20
-28.75
 41
3.0
 42
3.0
 43
3.0
 50
270.0
  0
INSERT
  5
237
100
AcDbEntity
  8
0
100
AcDbBlockReference
 62
7
  6
CONTINUOUS
  2
_FILLED
 10
43.0
 20
28.75
 41
3.0
 42
3.0
 43
3.0
 50
90.0
  0
ENDBLK
  5
238
100
AcDbEntity
  8
0
  6
BYBLOCK
 62
0
100
AcDbBlockEnd
  0
ENDSEC
  0
SECTION
  2
ENTITIES
  0
DIMENSION
  5
239
100
AcDbEntity
  8
0
100
AcDbDimension
 62
7
  6
CONTINUOUS
  2
*D0
 10
24.5
 20
43.0
 11
-2.3571428571
 21
43.75
 70
160
 71
2
 42
49.0
  3
DIMSTYLE_1
100
AcDbAlignedDimension
 13
-24.5
 23
24.2507615242
 14
24.5
 24
24.2507615242
100
AcDbRotatedDimension
  0
DIMENSION
  5
23A
100
AcDbEntity
  8
0
100
AcDbDimension
 62
7
  6
CONTINUOUS
  2
*D1
 10
-47.5879054991
 20
43.0
 11
-46.4021912134
 21
43.75
 70
160
 71
2
 42
8.8
  3
DIMSTYLE_1
100
AcDbAlignedDimension
 13
-38.7879054991
 23
22.5
 14
-47.5879054991
 24
0.5
 50
180.0
100
AcDbRotatedDimension
  0
DIMENSION
  5
23B
100
AcDbEntity
  8
0
100
AcDbDimension
 62
7
  6
CONTINUOUS
  2
*D2
 10
43.0
 20
28.75
 11
42.25
 21
-4.1785714286
 70
160
 71
2
 42
57.5
  3
DIMSTYLE_1
100
AcDbAlignedDimension
 13
20.0007615242
 23
-28.75
 14
20.0007615242
 24
28.75
 50
90.0
100
AcDbRotatedDimension
  0
LWPOLYLINE
  5
23C
100
AcDbEntity
  8
0
100
AcDbPolyline
 62
7
  6
CONTINUOUS
 90
10
 70
0
 43
0.3500000006
 10
0.4285714127
 20
43.7499994354
 10
1.2857142735
 20
44.6071419067
 10
1.5000000329
 20
45.4642843781
 10
1.5000000329
 20
46.3214268494
 10
1.0714285848
 20
46.750000351
 10
0.4285714127
 20
46.750000351
 10
0.0
 20
46.3214268494
 10
0.0
 20
45.4642843781
 10
0.4285714127
 20
45.0357154083
 10
1.3571429071
 20
45.0357154083
  0
LINE
  5
23D
100
AcDbEntity
  8
SMUSSO
100
AcDbLine
 62
7
  6
CONTINUOUS
 10
-15.25
 20
26.050091369
 11
-14.65
 21
26.650091369
  0
LINE
  5
23E
100
AcDbEntity
  8
RACCORDO
100
AcDbLine
 62
253
  6
CONTINUOUS
 10
-7.0031688183
 20
28.314405705
 11
-6.7319205029
 21
28.4424562366
  0
LINE
  5
23F
100
AcDbEntity
  8
RACCORDO
100
AcDbLine
 62
7
  6
CONTINUOUS
 10
19.5007615242
 20
-28.75
 11
7.17064049
 21
-28.75
  0
LINE
  5
240
100
AcDbEntity
  8
RACCORDO
100
AcDbLine
 62
7
  6
CONTINUOUS
 10
-7.17064049
 20
-28.75
 11
-19.5007615242
 21
-28.75
  0
LINE
  5
241
100
AcDbEntity
  8
RACCORDO
100
AcDbLine
 62
253
  6
CONTINUOUS
 10
-19.4795999352
 20
-28.7289625322
 11
-7.1840010288
 21
-28.7289625322
  0
LINE
  5
242
100
AcDbEntity
  8
RACCORDO
100
AcDbLine
 62
253
  6
CONTINUOUS
 10
7.1840010288
 20
-28.7289625322
 11
19.4796117038
 21
-28.7289625322
  0
LINE
  5
243
100
AcDbEntity
  8
RACCORDO
100
AcDbLine
 62
253
  6
CONTINUOUS
 10
-19.4797240564
 20
-28.4290082237
 11
-7.1840010288
 21
-28.4290082237
  0
LINE
  5
244
100
AcDbEntity
  8
RACCORDO
100
AcDbLine
 62
253
  6
CONTINUOUS
 10
7.1840010288
 20
-28.4290082237
 11
19.4797240564
 21
-28.4290082237
  0
LINE
  5
245
100
AcDbEntity
  8
DRAFT
100
AcDbLine
 62
7
  6
CONTINUOUS
 10
-14.65
 20
-27.15
 11
-12.0
 21
-27.15
  0
LINE
  5
246
100
AcDbEntity
  8
DRAFT
100
AcDbLine
 62
7
  6
CONTINUOUS
 10
-10.5
 20
-27.15
 11
-7.85
 21
-27.15
  0
LINE
  5
247
100
AcDbEntity
  8
DRAFT
100
AcDbLine
 62
7
  6
CONTINUOUS
 10
7.85
 20
-27.15
 11
10.5
 21
-27.15
  0
LINE
  5
248
100
AcDbEntity
  8
DRAFT
100
AcDbLine
 62
7
  6
CONTINUOUS
 10
12.0
 20
-27.15
 11
14.65
 21
-27.15
  0
LINE
  5
249
100
AcDbEntity
  8
DRAFT
100
AcDbLine
 62
7
  6
CONTINUOUS
 10
12.0
 20
-27.0
 11
10.5
 21
-27.0
  0
LINE
  5
24A
100
AcDbEntity
  8
DRAFT
100
AcDbLine
 62
7
  6
CONTINUOUS
 10
-10.5
 20
-27.0
 11
-12.0
 21
-27.0
  0
LINE
  5
24B
100
AcDbEntity
  8
RACCORDO
100
AcDbLine
 62
253
  6
CONTINUOUS
 10
-7.0031688182
 20
-28.314405705
 11
-6.7319205026
 21
-28.4424562358
  0
LINE
  5
24C
100
AcDbEntity
  8
SMUSSO
100
AcDbLine
 62
7
  6
CONTINUOUS
 10
-14.65
 20
-26.650091369
 11
-15.25
 21
-26.050091369
  0
LINE
  5
24D
100
AcDbEntity
  8
RACCORDO
100
AcDbLine
 62
7
  6
CONTINUOUS
 10
-24.5
 20
-23.7507615242
 11
-24.5
 21
23.7507615242
  0
LINE
  5
24E
100
AcDbEntity
  8
RACCORDO
100
AcDbLine
 62
253
  6
CONTINUOUS
 10
-24.4789625322
 20
23.7295999352
 11
-24.4789625322
 21
-23.7296117038
  0
LINE
  5
24F
100
AcDbEntity
  8
RACCORDO
100
AcDbLine
 62
253
  6
CONTINUOUS
 10
-24.1790082237
 20
23.7297240564
 11
-24.1790082237
 21
-23.7297240564
  0
LINE
  5
250
100
AcDbEntity
  8
DRAFT
100
AcDbLine
 62
7
  6
CONTINUOUS
 10
-8.75
 20
25.3
 11
-8.7526449144
 21
25.2973550856
  0
LINE
  5
251
100
AcDbEntity
  8
DRAFT
100
AcDbLine
 62
7
  6
CONTINUOUS
 10
8.7526449144
 20
-25.2973550856
 11
13.7473550856
 21
-25.2973550856
  0
LINE
  5
252
100
AcDbEntity
  8
DRAFT
100
AcDbLine
 62
7
  6
CONTINUOUS
 10
-8.7526449144
 20
-25.2973550856
 11
-13.7473550856
 21
-25.2973550856
  0
LINE
  5
253
100
AcDbEntity
  8
DRAFT
100
AcDbLine
 62
7
  6
CONTINUOUS
 10
-15.25
 20
-25.05
 11
-13.75
 21
-25.05
  0
LINE
  5
254
100
AcDbEntity
  8
DRAFT
100
AcDbLine
 62
7
  6
CONTINUOUS
 10
-8.75
 20
-25.05
 11
-7.25
 21
-25.05
  0
LINE
  5
255
100
AcDbEntity
  8
DRAFT
100
AcDbLine
 62
7
  6
CONTINUOUS
 10
7.25
 20
-25.05
 11
8.75
 21
-25.05
  0
LINE
  5
256
100
AcDbEntity
  8
DRAFT
100
AcDbLine
 62
7
  6
CONTINUOUS
 10
13.75
 20
-25.05
 11
15.25
 21
-25.05
  0
LINE
  5
257
100
AcDbEntity
  8
DRAFT
100
AcDbLine
 62
7
  6
CONTINUOUS
 10
8.7552365195
 20
-25.0401923789
 11
13.7447634805
 21
-25.0401923789
  0
LINE
  5
258
100
AcDbEntity
  8
DRAFT
100
AcDbLine
 62
7
  6
CONTINUOUS
 10
-8.7552365195
 20
-25.0401923789
 11
-13.7447634805
 21
-25.0401923789
  0
LINE
  5
259
100
AcDbEntity
  8
DRAFT
100
AcDbLine
 62
7
  6
CONTINUOUS
 10
8.7552365195
 20
-24.5803847577
 11
13.7447634805
 21
-24.5803847577
  0
LINE
  5
25A
100
AcDbEntity
  8
DRAFT
100
AcDbLine
 62
7
  6
CONTINUOUS
 10
-8.7552365195
 20
-24.5803847577
 11
-13.7447634805
 21
-24.5803847577
  0
LINE
  5
25B
100
AcDbEntity
  8
DRAFT
100
AcDbLine
 62
7
  6
CONTINUOUS
 10
8.75
 20
-24.5
 11
13.75
 21
-24.5
  0
LINE
  5
25C
100
AcDbEntity
  8
DRAFT
100
AcDbLine
 62
7
  6
CONTINUOUS
 10
-8.75
 20
-24.5
 11
-13.75
 21
-24.5
  0
LINE
  5
25D
100
AcDbEntity
  8
DRAFT
100
AcDbLine
 62
7
  6
CONTINUOUS
 10
-15.25
 20
-24.05
 11
-7.25
 21
-24.05
  0
LINE
  5
25E
100
AcDbEntity
  8
DRAFT
100
AcDbLine
 62
7
  6
CONTINUOUS
 10
7.25
 20
-24.05
 11
15.25
 21
-24.05
  0
LINE
  5
25F
100
AcDbEntity
  8
RACCORDO
100
AcDbLine
 62
253
  6
CONTINUOUS
 10
24.1790082237
 20
-23.7297240564
 11
24.4789625322
 21
-23.7297240564
  0
LINE
  5
260
100
AcDbEntity
  8
RACCORDO
100
AcDbLine
 62
253
  6
CONTINUOUS
 10
-24.1790082237
 20
-23.7297240564
 11
-24.4789625322
 21
-23.7297240563
  0
LINE
  5
261
100
AcDbEntity
  8
DRAFT
100
AcDbLine
 62
7
  6
CONTINUOUS
 10
15.25
 20
-22.85
 11
7.25
 21
-22.85
  0
LINE
  5
262
100
AcDbEntity
  8
DRAFT
100
AcDbLine
 62
7
  6
CONTINUOUS
 10
-7.25
 20
-22.85
 11
-15.25
 21
-22.85
  0
LINE
  5
263
100
AcDbEntity
  8
DRAFT
100
AcDbLine
 62
7
  6
CONTINUOUS
 10
-8.7526449144
 20
-25.2973550856
 11
-8.75
 21
-25.3
  0
LINE
  5
264
100
AcDbEntity
  8
RACCORDO
100
AcDbLine
 62
7
  6
CONTINUOUS
 10
-22.2900191294
 20
-21.742776427
 11
-22.2900191294
 21
21.742776427
  0
LINE
  5
265
100
AcDbEntity
  8
RACCORDO
100
AcDbLine
 62
253
  6
CONTINUOUS
 10
-19.4797240564
 20
-28.4290082237
 11
-19.4797240564
 21
-28.7289625322
  0
LINE
  5
266
100
AcDbEntity
  8
RACCORDO
100
AcDbLine
 62
253
  6
CONTINUOUS
 10
-19.4797240564
 20
28.4290082237
 11
-19.4797240563
 21
28.7289625322
  0
LINE
  5
267
100
AcDbEntity
  8
RACCORDO
100
AcDbLine
 62
7
  6
CONTINUOUS
 10
-21.7905329658
 20
-22.2427766622
 11
21.7905329658
 21
-22.2427766622
  0
LINE
  5
268
100
AcDbEntity
  8
RACCORDO
100
AcDbLine
 62
253
  6
CONTINUOUS
 10
21.6869607251
 20
-22.0354900438
 11
-21.6869607251
 21
-22.0354900438
  0
LINE
  5
269
100
AcDbEntity
  8
RACCORDO
100
AcDbLine
 62
253
  6
CONTINUOUS
 10
21.6621675013
 20
-20.5993437298
 11
-21.6621675013
 21
-20.5993437298
  0
LINE
  5
26A
100
AcDbEntity
  8
DRAFT
100
AcDbLine
 62
7
  6
CONTINUOUS
 10
-6.3482544935
 20
19.0017455065
 11
-6.35
 21
19.0
  0
LINE
  5
26B
100
AcDbEntity
  8
DRAFT
100
AcDbLine
 62
7
  6
CONTINUOUS
 10
-13.75
 20
-24.5
 11
-13.7447634805
 21
-24.5803847577
  0
LINE
  5
26C
100
AcDbEntity
  8
DRAFT
100
AcDbLine
 62
7
  6
CONTINUOUS
 10
-13.7473550856
 20
25.2973550856
 11
-13.7447634805
 21
25.0401923789
  0
LINE
  5
26D
100
AcDbEntity
  8
SMUSSO
100
AcDbLine
 62
7
  6
CONTINUOUS
 10
-15.25
 20
26.050091369
 11
-15.25
 21
25.05
  0
LINE
  5
26E
100
AcDbEntity
  8
DRAFT
100
AcDbLine
 62
7
  6
CONTINUOUS
 10
-15.25
 20
24.05
 11
-15.25
 21
22.85
  0
LINE
  5
26F
100
AcDbEntity
  8
DRAFT
100
AcDbLine
 62
7
  6
CONTINUOUS
 10
-15.25
 20
-22.85
 11
-15.25
 21
-24.05
  0
LINE
  5
270
100
AcDbEntity
  8
SMUSSO
100
AcDbLine
 62
7
  6
CONTINUOUS
 10
-15.25
 20
-25.05
 11
-15.25
 21
-26.050091369
  0
LINE
  5
271
100
AcDbEntity
  8
SMUSSO
100
AcDbLine
 62
7
  6
CONTINUOUS
 10
-14.65
 20
27.15
 11
-14.65
 21
26.650091369
  0
LINE
  5
272
100
AcDbEntity
  8
SMUSSO
100
AcDbLine
 62
7
  6
CONTINUOUS
 10
-14.65
 20
-26.650091369
 11
-14.65
 21
-27.15
  0
LINE
  5
273
100
AcDbEntity
  8
DRAFT
100
AcDbLine
 62
7
  6
CONTINUOUS
 10
-13.75
 20
-25.05
 11
-13.75
 21
-24.5
  0
LINE
  5
274
100
AcDbEntity
  8
DRAFT
100
AcDbLine
 62
7
  6
CONTINUOUS
 10
-13.75
 20
24.5
 11
-13.75
 21
25.05
  0
LINE
  5
275
100
AcDbEntity
  8
DRAFT
100
AcDbLine
 62
7
  6
CONTINUOUS
 10
-13.7447634805
 20
25.0401923789
 11
-13.7447634805
 21
24.5803847577
  0
LINE
  5
276
100
AcDbEntity
  8
DRAFT
100
AcDbLine
 62
7
  6
CONTINUOUS
 10
-13.7447634805
 20
-24.5803847577
 11
-13.7447634805
 21
-25.0401923789
  0
LINE
  5
277
100
AcDbEntity
  8
DRAFT
100
AcDbLine
 62
7
  6
CONTINUOUS
 10
-13.7447634805
 20
-25.0401923789
 11
-13.7473550856
 21
-25.2973550856
  0
LINE
  5
278
100
AcDbEntity
  8
DRAFT
100
AcDbLine
 62
7
  6
CONTINUOUS
 10
-13.7447634805
 20
24.5803847577
 11
-13.75
 21
24.5
  0
LINE
  5
279
100
AcDbEntity
  8
RACCORDO
100
AcDbLine
 62
253
  6
CONTINUOUS
 10
-6.5584521763
 20
22.0354900438
 11
-6.4981403136
 21
22.2165727725
  0
LINE
  5
27A
100
AcDbEntity
  8
RACCORDO
100
AcDbLine
 62
253
  6
CONTINUOUS
 10
-6.408475022
 20
21.8856956136
 11
-6.3482544935
 21
22.0665041169
  0
LINE
  5
27B
100
AcDbEntity
  8
SMUSSO
100
AcDbLine
 62
7
  6
CONTINUOUS
 10
7.25
 20
26.050091369
 11
7.85
 21
26.650091369
  0
LINE
  5
27C
100
AcDbEntity
  8
SMUSSO
100
AcDbLine
 62
7
  6
CONTINUOUS
 10
7.85
 20
-26.650091369
 11
7.25
 21
-26.050091369
  0
LINE
  5
27D
100
AcDbEntity
  8
DRAFT
100
AcDbLine
 62
7
  6
CONTINUOUS
 10
-12.0
 20
27.15
 11
-12.0
 21
27.0
  0
LINE
  5
27E
100
AcDbEntity
  8
DRAFT
100
AcDbLine
 62
7
  6
CONTINUOUS
 10
-12.0
 20
-27.0
 11
-12.0
 21
-27.15
  0
LINE
  5
27F
100
AcDbEntity
  8
DRAFT
100
AcDbLine
 62
7
  6
CONTINUOUS
 10
-10.5
 20
-27.15
 11
-10.5
 21
-27.0
  0
LINE
  5
280
100
AcDbEntity
  8
DRAFT
100
AcDbLine
 62
7
  6
CONTINUOUS
 10
-10.5
 20
27.0
 11
-10.5
 21
27.15
  0
LINE
  5
281
100
AcDbEntity
  8
DRAFT
100
AcDbLine
 62
7
  6
CONTINUOUS
 10
-6.1467267152
 20
18.1892899476
 11
-6.1098533507
 21
18.3
  0
LINE
  5
282
100
AcDbEntity
  8
DRAFT
100
AcDbLine
 62
7
  6
CONTINUOUS
 10
-3.0087275325
 20
22.2165727725
 11
-3.0
 21
22.2427766622
  0
LINE
  5
283
100
AcDbEntity
  8
RACCORDO
100
AcDbLine
 62
253
  6
CONTINUOUS
 10
-22.1867893876
 20
-21.5361752764
 11
-22.2900191294
 21
-21.742776427
  0
LINE
  5
284
100
AcDbEntity
  8
RACCORDO
100
AcDbLine
 62
253
  6
CONTINUOUS
 10
-21.6869607251
 20
-22.0354900438
 11
-21.7905329658
 21
-22.2427766622
  0
LINE
  5
285
100
AcDbEntity
  8
RACCORDO
100
AcDbLine
 62
253
  6
CONTINUOUS
 10
-22.2900191294
 20
21.742776427
 11
-22.1867893876
 21
21.5361752764
  0
LINE
  5
286
100
AcDbEntity
  8
RACCORDO
100
AcDbLine
 62
253
  6
CONTINUOUS
 10
-21.7905329658
 20
22.2427766622
 11
-21.6869607251
 21
22.0354900438
  0
LINE
  5
287
100
AcDbEntity
  8
DRAFT
100
AcDbLine
 62
7
  6
CONTINUOUS
 10
-8.7552365195
 20
24.5803847577
 11
-8.75
 21
24.5
  0
LINE
  5
288
100
AcDbEntity
  8
DRAFT
100
AcDbLine
 62
7
  6
CONTINUOUS
 10
-8.7552365195
 20
-25.0401923789
 11
-8.7526449144
 21
-25.2973550856
  0
LINE
  5
289
100
AcDbEntity
  8
DRAFT
100
AcDbLine
 62
7
  6
CONTINUOUS
 10
-8.7552365195
 20
25.0401923789
 11
-8.7552365195
 21
24.5803847577
  0
LINE
  5
28A
100
AcDbEntity
  8
DRAFT
100
AcDbLine
 62
7
  6
CONTINUOUS
 10
-8.7552365195
 20
-24.5803847577
 11
-8.7552365195
 21
-25.0401923789
  0
LINE
  5
28B
100
AcDbEntity
  8
DRAFT
100
AcDbLine
 62
7
  6
CONTINUOUS
 10
-8.75
 20
-25.05
 11
-8.75
 21
-24.5
  0
LINE
  5
28C
100
AcDbEntity
  8
DRAFT
100
AcDbLine
 62
7
  6
CONTINUOUS
 10
-8.75
 20
24.5
 11
-8.75
 21
25.05
  0
LINE
  5
28D
100
AcDbEntity
  8
SMUSSO
100
AcDbLine
 62
7
  6
CONTINUOUS
 10
-7.85
 20
-27.15
 11
-7.85
 21
-26.650091369
  0
LINE
  5
28E
100
AcDbEntity
  8
SMUSSO
100
AcDbLine
 62
7
  6
CONTINUOUS
 10
-7.85
 20
26.650091369
 11
-7.85
 21
27.15
  0
LINE
  5
28F
100
AcDbEntity
  8
SMUSSO
100
AcDbLine
 62
7
  6
CONTINUOUS
 10
-7.25
 20
-26.050091369
 11
-7.25
 21
-25.05
  0
LINE
  5
290
100
AcDbEntity
  8
DRAFT
100
AcDbLine
 62
7
  6
CONTINUOUS
 10
-7.25
 20
-24.05
 11
-7.25
 21
-22.85
  0
LINE
  5
291
100
AcDbEntity
  8
DRAFT
100
AcDbLine
 62
7
  6
CONTINUOUS
 10
-7.25
 20
22.85
 11
-7.25
 21
24.05
  0
LINE
  5
292
100
AcDbEntity
  8
SMUSSO
100
AcDbLine
 62
7
  6
CONTINUOUS
 10
-7.25
 20
25.05
 11
-7.25
 21
26.050091369
  0
LINE
  5
293
100
AcDbEntity
  8
RACCORDO
100
AcDbLine
 62
253
  6
CONTINUOUS
 10
-7.1840010288
 20
-28.4290082237
 11
-7.1840010277
 21
-28.7289625322
  0
LINE
  5
294
100
AcDbEntity
  8
RACCORDO
100
AcDbLine
 62
253
  6
CONTINUOUS
 10
-7.1840010288
 20
28.4290082237
 11
-7.1840010288
 21
28.7289625322
  0
LINE
  5
295
100
AcDbEntity
  8
DRAFT
100
AcDbLine
 62
7
  6
CONTINUOUS
 10
-6.35
 20
16.0
 11
-6.35
 21
19.0
  0
LINE
  5
296
100
AcDbEntity
  8
RACCORDO
100
AcDbLine
 62
7
  6
CONTINUOUS
 10
-6.3482544935
 20
19.0017455065
 11
-6.3482544935
 21
22.0665041169
  0
LINE
  5
297
100
AcDbEntity
  8
RACCORDO
100
AcDbLine
 62
253
  6
CONTINUOUS
 10
-6.583699944
 20
16.0048014404
 11
-6.580763245
 21
20.5993437728
  0
LINE
  5
298
100
AcDbEntity
  8
DRAFT
100
AcDbLine
 62
7
  6
CONTINUOUS
 10
-8.7526449144
 20
25.2973550856
 11
-8.7552365195
 21
25.0401923789
  0
LINE
  5
299
100
AcDbEntity
  8
DRAFT
100
AcDbLine
 62
7
  6
CONTINUOUS
 10
-8.75
 20
-24.5
 11
-8.7552365195
 21
-24.5803847577
  0
LINE
  5
29A
100
AcDbEntity
  8
DRAFT
100
AcDbLine
 62
7
  6
CONTINUOUS
 10
13.75
 20
25.3
 11
13.7473550856
 21
25.2973550856
  0
LINE
  5
29B
100
AcDbEntity
  8
RACCORDO
100
AcDbLine
 62
253
  6
CONTINUOUS
 10
19.5007615242
 20
28.75
 11
19.4795999352
 21
28.7289625322
  0
LINE
  5
29C
100
AcDbEntity
  8
RACCORDO
100
AcDbLine
 62
253
  6
CONTINUOUS
 10
19.5007615242
 20
-28.75
 11
19.4796117038
 21
-28.7289625322
  0
LINE
  5
29D
100
AcDbEntity
  8
DRAFT
100
AcDbLine
 62
7
  6
CONTINUOUS
 10
13.7473550856
 20
-25.2973550856
 11
13.75
 21
-25.3
  0
LINE
  5
29E
100
AcDbEntity
  8
RACCORDO
100
AcDbLine
 62
253
  6
CONTINUOUS
 10
-5.9174910875
 20
20.5991114131
 11
-5.9145545495
 21
16.0048014404
  0
LINE
  5
29F
100
AcDbEntity
  8
RACCORDO
100
AcDbLine
 62
7
  6
CONTINUOUS
 10
-6.15
 20
22.0665041169
 11
-6.15
 21
19.9205378924
  0
LINE
  5
2A0
100
AcDbEntity
  8
DRAFT
100
AcDbLine
 62
7
  6
CONTINUOUS
 10
-6.1467267152
 20
18.1892899476
 11
-6.1467267152
 21
16.0
  0
LINE
  5
2A1
100
AcDbEntity
  8
DRAFT
100
AcDbLine
 62
7
  6
CONTINUOUS
 10
-6.1098533507
 20
19.8
 11
-6.1098533507
 21
18.3
  0
LINE
  5
2A2
100
AcDbEntity
  8
DRAFT
100
AcDbLine
 62
7
  6
CONTINUOUS
 10
-3.0
 20
22.2427766622
 11
-3.0
 21
22.2165727725
  0
LINE
  5
2A3
100
AcDbEntity
  8
DRAFT
100
AcDbLine
 62
7
  6
CONTINUOUS
 10
-2.3498778128
 20
10.089526961
 11
-2.3478713764
 21
10.1
  0
LWPOLYLINE
  5
2A4
100
AcDbEntity
  8
0
100
AcDbPolyline
 62
7
  6
CONTINUOUS
 90
2
 70
0
 43
0.3500000006
 10
-1.3571429071
 20
43.7499994354
 10
-1.3571429071
 20
45.2499998932
  0
LINE
  5
2A5
100
AcDbEntity
  8
RACCORDO
100
AcDbLine
 62
253
  6
CONTINUOUS
 10
-3.5572010965
 20
-26.4407980242
 11
-3.6
 21
-26.7589237452
  0
LINE
  5
2A6
100
AcDbEntity
  8
RACCORDO
100
AcDbLine
 62
253
  6
CONTINUOUS
 10
3.5572010965
 20
26.4407980242
 11
3.6
 21
26.7589237452
  0
LINE
  5
2A7
100
AcDbEntity
  8
RACCORDO
100
AcDbLine
 62
253
  6
CONTINUOUS
 10
5.9398063534
 20
22.0355021621
 11
6.0001141799
 21
22.2165727725
  0
LINE
  5
2A8
100
AcDbEntity
  8
RACCORDO
100
AcDbLine
 62
253
  6
CONTINUOUS
 10
6.0897794715
 20
21.8856956136
 11
6.15
 21
22.0665041169
  0
LINE
  5
2A9
100
AcDbEntity
  8
DRAFT
100
AcDbLine
 62
7
  6
CONTINUOUS
 10
6.1098533507
 20
19.8
 11
6.15
 21
19.9205378924
  0
LINE
  5
2AA
100
AcDbEntity
  8
RACCORDO
100
AcDbLine
 62
253
  6
CONTINUOUS
 10
-24.5
 20
-23.7507615242
 11
-24.4789625322
 21
-23.7296117038
  0
LWPOLYLINE
  5
2AB
100
AcDbEntity
  8
0
100
AcDbPolyline
 62
7
  6
CONTINUOUS
 90
4
 70
0
 43
0.3500000006
 10
39.892856369
 20
-2.0357142563
 10
39.2499983826
 20
-2.0357142563
 10
39.2499983826
 20
-0.5357137985
 10
42.2499992981
 20
-1.3928574028
  0
LINE
  5
2AC
100
AcDbEntity
  8
RACCORDO
100
AcDbLine
 62
253
  6
CONTINUOUS
 10
-24.5
 20
23.7507615242
 11
-24.4789625322
 21
23.7295999352
  0
LINE
  5
2AD
100
AcDbEntity
  8
RACCORDO
100
AcDbLine
 62
253
  6
CONTINUOUS
 10
-3.6
 20
26.7589237452
 11
-3.5572010965
 21
26.4407980242
  0
LINE
  5
2AE
100
AcDbEntity
  8
RACCORDO
100
AcDbLine
 62
253
  6
CONTINUOUS
 10
3.5572010965
 20
-26.4407980242
 11
3.6
 21
-26.7589237452
  0
LINE
  5
2AF
100
AcDbEntity
  8
DRAFT
100
AcDbLine
 62
7
  6
CONTINUOUS
 10
3.0
 20
22.2165727725
 11
3.0
 21
22.2427766622
  0
LINE
  5
2B0
100
AcDbEntity
  8
RACCORDO
100
AcDbLine
 62
253
  6
CONTINUOUS
 10
24.5
 20
23.7507615242
 11
24.4789625322
 21
23.7296117038
  0
LINE
  5
2B1
100
AcDbEntity
  8
RACCORDO
100
AcDbLine
 62
253
  6
CONTINUOUS
 10
24.5
 20
-23.7507615242
 11
24.4789625322
 21
-23.7295999352
  0
LINE
  5
2B2
100
AcDbEntity
  8
DRAFT
100
AcDbLine
 62
7
  6
CONTINUOUS
 10
-6.1098533507
 20
19.8
 11
-6.15
 21
19.9205378924
  0
LINE
  5
2B3
100
AcDbEntity
  8
RACCORDO
100
AcDbLine
 62
253
  6
CONTINUOUS
 10
-6.15
 20
22.0665041169
 11
-6.0897794715
 21
21.8856956136
  0
LINE
  5
2B4
100
AcDbEntity
  8
RACCORDO
100
AcDbLine
 62
253
  6
CONTINUOUS
 10
-6.0001141799
 20
22.2165727725
 11
-5.9398063534
 21
22.0355021621
  0
LINE
  5
2B5
100
AcDbEntity
  8
RACCORDO
100
AcDbLine
 62
253
  6
CONTINUOUS
 10
6.580763245
 20
20.5993437728
 11
6.583699944
 21
16.0048014404
  0
LINE
  5
2B6
100
AcDbEntity
  8
DRAFT
100
AcDbLine
 62
7
  6
CONTINUOUS
 10
6.1098533507
 20
19.8
 11
6.1098533507
 21
18.3
  0
LINE
  5
2B7
100
AcDbEntity
  8
DRAFT
100
AcDbLine
 62
7
  6
CONTINUOUS
 10
6.1467267152
 20
18.1892899476
 11
6.1467267152
 21
16.0
  0
LINE
  5
2B8
100
AcDbEntity
  8
RACCORDO
100
AcDbLine
 62
7
  6
CONTINUOUS
 10
6.15
 20
19.9205378924
 11
6.15
 21
22.0665041169
  0
LINE
  5
2B9
100
AcDbEntity
  8
RACCORDO
100
AcDbLine
 62
7
  6
CONTINUOUS
 10
6.3482544935
 20
19.0017455065
 11
6.3482544935
 21
22.0665041169
  0
LINE
  5
2BA
100
AcDbEntity
  8
DRAFT
100
AcDbLine
 62
7
  6
CONTINUOUS
 10
6.35
 20
16.0
 11
6.35
 21
19.0
  0
LINE
  5
2BB
100
AcDbEntity
  8
RACCORDO
100
AcDbLine
 62
253
  6
CONTINUOUS
 10
5.9145545495
 20
16.0048014404
 11
5.9174910875
 21
20.599111413
  0
LINE
  5
2BC
100
AcDbEntity
  8
RACCORDO
100
AcDbLine
 62
253
  6
CONTINUOUS
 10
-19.5007615242
 20
-28.75
 11
-19.4795999352
 21
-28.7289625322
  0
LINE
  5
2BD
100
AcDbEntity
  8
RACCORDO
100
AcDbLine
 62
253
  6
CONTINUOUS
 10
-19.5007615242
 20
28.75
 11
-19.4796117038
 21
28.7289625322
  0
LINE
  5
2BE
100
AcDbEntity
  8
DRAFT
100
AcDbLine
 62
7
  6
CONTINUOUS
 10
2.3498778128
 20
10.089526961
 11
2.3478713764
 21
10.1
  0
LINE
  5
2BF
100
AcDbEntity
  8
DRAFT
100
AcDbLine
 62
7
  6
CONTINUOUS
 10
8.75
 20
-24.5
 11
8.7552365195
 21
-24.5803847577
  0
LINE
  5
2C0
100
AcDbEntity
  8
DRAFT
100
AcDbLine
 62
7
  6
CONTINUOUS
 10
8.7526449144
 20
25.2973550856
 11
8.7552365195
 21
25.0401923789
  0
LINE
  5
2C1
100
AcDbEntity
  8
RACCORDO
100
AcDbLine
 62
253
  6
CONTINUOUS
 10
7.1840010288
 20
-28.4290082237
 11
7.1840010288
 21
-28.7289625322
  0
LINE
  5
2C2
100
AcDbEntity
  8
RACCORDO
100
AcDbLine
 62
253
  6
CONTINUOUS
 10
7.1840010288
 20
28.4290082237
 11
7.1840010277
 21
28.7289625322
  0
LINE
  5
2C3
100
AcDbEntity
  8
SMUSSO
100
AcDbLine
 62
7
  6
CONTINUOUS
 10
7.25
 20
26.050091369
 11
7.25
 21
25.05
  0
LINE
  5
2C4
100
AcDbEntity
  8
DRAFT
100
AcDbLine
 62
7
  6
CONTINUOUS
 10
7.25
 20
24.05
 11
7.25
 21
22.85
  0
LINE
  5
2C5
100
AcDbEntity
  8
DRAFT
100
AcDbLine
 62
7
  6
CONTINUOUS
 10
7.25
 20
-22.85
 11
7.25
 21
-24.05
  0
LINE
  5
2C6
100
AcDbEntity
  8
SMUSSO
100
AcDbLine
 62
7
  6
CONTINUOUS
 10
7.25
 20
-25.05
 11
7.25
 21
-26.050091369
  0
LINE
  5
2C7
100
AcDbEntity
  8
SMUSSO
100
AcDbLine
 62
7
  6
CONTINUOUS
 10
7.85
 20
27.15
 11
7.85
 21
26.650091369
  0
LINE
  5
2C8
100
AcDbEntity
  8
SMUSSO
100
AcDbLine
 62
7
  6
CONTINUOUS
 10
7.85
 20
-26.650091369
 11
7.85
 21
-27.15
  0
LINE
  5
2C9
100
AcDbEntity
  8
DRAFT
100
AcDbLine
 62
7
  6
CONTINUOUS
 10
8.75
 20
-25.05
 11
8.75
 21
-24.5
  0
LINE
  5
2CA
100
AcDbEntity
  8
DRAFT
100
AcDbLine
 62
7
  6
CONTINUOUS
 10
8.75
 20
24.5
 11
8.75
 21
25.05
  0
LINE
  5
2CB
100
AcDbEntity
  8
DRAFT
100
AcDbLine
 62
7
  6
CONTINUOUS
 10
8.7552365195
 20
25.0401923789
 11
8.7552365195
 21
24.5803847577
  0
LINE
  5
2CC
100
AcDbEntity
  8
DRAFT
100
AcDbLine
 62
7
  6
CONTINUOUS
 10
8.7552365195
 20
-24.5803847577
 11
8.7552365195
 21
-25.0401923789
  0
LINE
  5
2CD
100
AcDbEntity
  8
DRAFT
100
AcDbLine
 62
7
  6
CONTINUOUS
 10
8.7552365195
 20
-25.0401923789
 11
8.7526449144
 21
-25.2973550856
  0
LINE
  5
2CE
100
AcDbEntity
  8
DRAFT
100
AcDbLine
 62
7
  6
CONTINUOUS
 10
8.7552365195
 20
24.5803847577
 11
8.75
 21
24.5
  0
LINE
  5
2CF
100
AcDbEntity
  8
RACCORDO
100
AcDbLine
 62
253
  6
CONTINUOUS
 10
21.6869607251
 20
22.0354900438
 11
21.7905329658
 21
22.2427766622
  0
LINE
  5
2D0
100
AcDbEntity
  8
RACCORDO
100
AcDbLine
 62
253
  6
CONTINUOUS
 10
22.1867893876
 20
21.5361752764
 11
22.2900191294
 21
21.742776427
  0
LINE
  5
2D1
100
AcDbEntity
  8
DRAFT
100
AcDbLine
 62
7
  6
CONTINUOUS
 10
-13.7473550856
 20
-25.2973550856
 11
-13.75
 21
-25.3
  0
LINE
  5
2D2
100
AcDbEntity
  8
DRAFT
100
AcDbLine
 62
7
  6
CONTINUOUS
 10
2.3498778128
 20
10.089526961
 11
1.6467182875
 21
10.089526961
  0
LINE
  5
2D3
100
AcDbEntity
  8
DRAFT
100
AcDbLine
 62
7
  6
CONTINUOUS
 10
-1.6467170677
 20
10.089526961
 11
-2.3498778128
 21
10.089526961
  0
LINE
  5
2D4
100
AcDbEntity
  8
DRAFT
100
AcDbLine
 62
7
  6
CONTINUOUS
 10
2.3478713764
 20
10.1
 11
1.6845851725
 21
10.1
  0
LINE
  5
2D5
100
AcDbEntity
  8
DRAFT
100
AcDbLine
 62
7
  6
CONTINUOUS
 10
-1.684584371
 20
10.1
 11
-2.3478713764
 21
10.1
  0
LINE
  5
2D6
100
AcDbEntity
  8
DRAFT
100
AcDbLine
 62
7
  6
CONTINUOUS
 10
-13.75
 20
25.3
 11
-13.7473550856
 21
25.2973550856
  0
LINE
  5
2D7
100
AcDbEntity
  8
RACCORDO
100
AcDbLine
 62
253
  6
CONTINUOUS
 10
21.7905329658
 20
-22.2427766622
 11
21.6869607251
 21
-22.0354900438
  0
LINE
  5
2D8
100
AcDbEntity
  8
RACCORDO
100
AcDbLine
 62
253
  6
CONTINUOUS
 10
22.2900191294
 20
-21.742776427
 11
22.1867893876
 21
-21.5361752764
  0
LINE
  5
2D9
100
AcDbEntity
  8
DRAFT
100
AcDbLine
 62
7
  6
CONTINUOUS
 10
3.0087275325
 20
22.2165727725
 11
3.0
 21
22.2427766622
  0
LINE
  5
2DA
100
AcDbEntity
  8
DRAFT
100
AcDbLine
 62
7
  6
CONTINUOUS
 10
13.7447634805
 20
-25.0401923789
 11
13.7473550856
 21
-25.2973550856
  0
LINE
  5
2DB
100
AcDbEntity
  8
DRAFT
100
AcDbLine
 62
7
  6
CONTINUOUS
 10
10.5
 20
27.15
 11
10.5
 21
27.0
  0
LINE
  5
2DC
100
AcDbEntity
  8
DRAFT
100
AcDbLine
 62
7
  6
CONTINUOUS
 10
10.5
 20
-27.0
 11
10.5
 21
-27.15
  0
LINE
  5
2DD
100
AcDbEntity
  8
DRAFT
100
AcDbLine
 62
7
  6
CONTINUOUS
 10
12.0
 20
-27.15
 11
12.0
 21
-27.0
  0
LINE
  5
2DE
100
AcDbEntity
  8
DRAFT
100
AcDbLine
 62
7
  6
CONTINUOUS
 10
12.0
 20
27.0
 11
12.0
 21
27.15
  0
LINE
  5
2DF
100
AcDbEntity
  8
DRAFT
100
AcDbLine
 62
7
  6
CONTINUOUS
 10
13.7473550856
 20
25.2973550856
 11
13.7447634805
 21
25.0401923789
  0
LINE
  5
2E0
100
AcDbEntity
  8
SMUSSO
100
AcDbLine
 62
7
  6
CONTINUOUS
 10
-7.25
 20
-26.050091369
 11
-7.85
 21
-26.650091369
  0
LINE
  5
2E1
100
AcDbEntity
  8
SMUSSO
100
AcDbLine
 62
7
  6
CONTINUOUS
 10
-7.85
 20
26.650091369
 11
-7.25
 21
26.050091369
  0
LINE
  5
2E2
100
AcDbEntity
  8
DRAFT
100
AcDbLine
 62
7
  6
CONTINUOUS
 10
6.1467267152
 20
18.1892899476
 11
6.1098533507
 21
18.3
  0
LINE
  5
2E3
100
AcDbEntity
  8
RACCORDO
100
AcDbLine
 62
253
  6
CONTINUOUS
 10
6.3482544935
 20
22.0665041169
 11
6.408475022
 21
21.8856956136
  0
LINE
  5
2E4
100
AcDbEntity
  8
RACCORDO
100
AcDbLine
 62
253
  6
CONTINUOUS
 10
6.4981403136
 20
22.2165727725
 11
6.5584521763
 21
22.0354900438
  0
LINE
  5
2E5
100
AcDbEntity
  8
DRAFT
100
AcDbLine
 62
7
  6
CONTINUOUS
 10
13.7447634805
 20
24.5803847577
 11
13.75
 21
24.5
  0
LINE
  5
2E6
100
AcDbEntity
  8
DRAFT
100
AcDbLine
 62
7
  6
CONTINUOUS
 10
13.7447634805
 20
25.0401923789
 11
13.7447634805
 21
24.5803847577
  0
LINE
  5
2E7
100
AcDbEntity
  8
DRAFT
100
AcDbLine
 62
7
  6
CONTINUOUS
 10
13.7447634805
 20
-24.5803847577
 11
13.7447634805
 21
-25.0401923789
  0
LINE
  5
2E8
100
AcDbEntity
  8
DRAFT
100
AcDbLine
 62
7
  6
CONTINUOUS
 10
13.75
 20
-25.05
 11
13.75
 21
-24.5
  0
LINE
  5
2E9
100
AcDbEntity
  8
DRAFT
100
AcDbLine
 62
7
  6
CONTINUOUS
 10
13.75
 20
24.5
 11
13.75
 21
25.05
  0
LINE
  5
2EA
100
AcDbEntity
  8
SMUSSO
100
AcDbLine
 62
7
  6
CONTINUOUS
 10
14.65
 20
-27.15
 11
14.65
 21
-26.650091369
  0
LINE
  5
2EB
100
AcDbEntity
  8
SMUSSO
100
AcDbLine
 62
7
  6
CONTINUOUS
 10
14.65
 20
26.650091369
 11
14.65
 21
27.15
  0
LINE
  5
2EC
100
AcDbEntity
  8
SMUSSO
100
AcDbLine
 62
7
  6
CONTINUOUS
 10
15.25
 20
-26.050091369
 11
15.25
 21
-25.05
  0
LINE
  5
2ED
100
AcDbEntity
  8
DRAFT
100
AcDbLine
 62
7
  6
CONTINUOUS
 10
15.25
 20
-24.05
 11
15.25
 21
-22.85
  0
LINE
  5
2EE
100
AcDbEntity
  8
DRAFT
100
AcDbLine
 62
7
  6
CONTINUOUS
 10
15.25
 20
22.85
 11
15.25
 21
24.05
  0
LINE
  5
2EF
100
AcDbEntity
  8
SMUSSO
100
AcDbLine
 62
7
  6
CONTINUOUS
 10
15.25
 20
25.05
 11
15.25
 21
26.050091369
  0
LINE
  5
2F0
100
AcDbEntity
  8
DRAFT
100
AcDbLine
 62
7
  6
CONTINUOUS
 10
13.75
 20
-24.5
 11
13.7447634805
 21
-24.5803847577
  0
LINE
  5
2F1
100
AcDbEntity
  8
RACCORDO
100
AcDbLine
 62
253
  6
CONTINUOUS
 10
-6.1467267152
 20
16.0
 11
-6.0645318497
 21
16.0002490625
  0
LINE
  5
2F2
100
AcDbEntity
  8
RACCORDO
100
AcDbLine
 62
253
  6
CONTINUOUS
 10
6.4337227822
 20
16.0000128258
 11
6.35
 21
16.0
  0
LINE
  5
2F3
100
AcDbEntity
  8
DRAFT
100
AcDbLine
 62
253
  6
CONTINUOUS
 10
-6.35
 20
16.0
 11
-6.1467267152
 21
16.0
  0
LINE
  5
2F4
100
AcDbEntity
  8
DRAFT
100
AcDbLine
 62
253
  6
CONTINUOUS
 10
6.35
 20
16.0
 11
6.1467267152
 21
16.0
  0
LINE
  5
2F5
100
AcDbEntity
  8
RACCORDO
100
AcDbLine
 62
253
  6
CONTINUOUS
 10
6.0645317038
 20
16.0
 11
6.1467267152
 21
16.0
  0
LINE
  5
2F6
100
AcDbEntity
  8
RACCORDO
100
AcDbLine
 62
253
  6
CONTINUOUS
 10
-6.35
 20
16.0
 11
-6.4337227
 21
16.0001531405
  0
LWPOLYLINE
  5
2F7
100
AcDbEntity
  8
0
100
AcDbPolyline
 62
7
  6
CONTINUOUS
 90
3
 70
0
 43
0.3500000006
 10
41.9642836304
 20
1.0357133102
 10
42.1785726471
 20
0.9642866592
 10
42.464283783
 20
0.8214288254
  0
LINE
  5
2F8
100
AcDbEntity
  8
RACCORDO
100
AcDbLine
 62
253
  6
CONTINUOUS
 10
19.4797240564
 20
-28.4290082237
 11
19.4797240563
 21
-28.7289625322
  0
LINE
  5
2F9
100
AcDbEntity
  8
RACCORDO
100
AcDbLine
 62
253
  6
CONTINUOUS
 10
19.4797240564
 20
28.4290082237
 11
19.4797240564
 21
28.7289625322
  0
LWPOLYLINE
  5
2FA
100
AcDbEntity
  8
0
100
AcDbPolyline
 62
7
  6
CONTINUOUS
 90
10
 70
0
 43
0.3500000006
 10
41.7499991455
 20
0.9642866592
 10
41.8928569794
 20
1.0357133102
 10
41.9642836304
 20
1.0357133102
 10
42.1071414642
 20
0.8928577423
 10
42.1071414642
 20
0.8214288254
 10
42.0357148132
 20
0.7499999084
 10
41.9642836304
 20
0.7499999084
 10
41.8214303284
 20
0.8214288254
 10
41.7499991455
 20
0.8928577423
 10
41.7499991455
 20
0.9642866592
  0
LINE
  5
2FB
100
AcDbEntity
  8
DRAFT
100
AcDbLine
 62
7
  6
CONTINUOUS
 10
-6.35
 20
18.1843223248
 11
-6.1467267152
 21
18.1892899476
  0
LINE
  5
2FC
100
AcDbEntity
  8
DRAFT
100
AcDbLine
 62
7
  6
CONTINUOUS
 10
-6.3482544935
 20
19.0017455065
 11
-6.1098533507
 21
19.0017455065
  0
LINE
  5
2FD
100
AcDbEntity
  8
DRAFT
100
AcDbLine
 62
7
  6
CONTINUOUS
 10
6.3482544935
 20
19.0017455065
 11
6.1098533507
 21
19.0017455065
  0
LINE
  5
2FE
100
AcDbEntity
  8
DRAFT
100
AcDbLine
 62
7
  6
CONTINUOUS
 10
6.35
 20
18.1843223248
 11
6.1467267152
 21
18.1892899476
  0
LINE
  5
2FF
100
AcDbEntity
  8
DRAFT
100
AcDbLine
 62
7
  6
CONTINUOUS
 10
6.3482544935
 20
19.0017455065
 11
6.35
 21
19.0
  0
LINE
  5
300
100
AcDbEntity
  8
RACCORDO
100
AcDbLine
 62
7
  6
CONTINUOUS
 10
22.2900191294
 20
-21.742776427
 11
22.2900191294
 21
21.742776427
  0
LINE
  5
301
100
AcDbEntity
  8
RACCORDO
100
AcDbLine
 62
253
  6
CONTINUOUS
 10
-5.9174910875
 20
20.5991114131
 11
5.9174910875
 21
20.599111413
  0
LINE
  5
302
100
AcDbEntity
  8
RACCORDO
100
AcDbLine
 62
253
  6
CONTINUOUS
 10
-21.6621675013
 20
20.5993437287
 11
-6.580763245
 21
20.5993437728
  0
LINE
  5
303
100
AcDbEntity
  8
RACCORDO
100
AcDbLine
 62
253
  6
CONTINUOUS
 10
6.580763245
 20
20.5993437728
 11
21.6621675013
 21
20.5993437287
  0
LINE
  5
304
100
AcDbEntity
  8
RACCORDO
100
AcDbLine
 62
253
  6
CONTINUOUS
 10
-21.6869607251
 20
22.0354900438
 11
-6.5584521763
 21
22.0354900438
  0
LINE
  5
305
100
AcDbEntity
  8
RACCORDO
100
AcDbLine
 62
253
  6
CONTINUOUS
 10
6.5584521763
 20
22.0354900438
 11
21.6869607251
 21
22.0354900438
  0
LINE
  5
306
100
AcDbEntity
  8
RACCORDO
100
AcDbLine
 62
253
  6
CONTINUOUS
 10
-5.9398063534
 20
22.0355021621
 11
5.9398063534
 21
22.0355021621
  0
LINE
  5
307
100
AcDbEntity
  8
RACCORDO
100
AcDbLine
 62
7
  6
CONTINUOUS
 10
-6.4981403136
 20
22.2165727725
 11
6.4981403136
 21
22.2165727725
  0
LINE
  5
308
100
AcDbEntity
  8
RACCORDO
100
AcDbLine
 62
7
  6
CONTINUOUS
 10
-21.7905329658
 20
22.2427766622
 11
-3.0
 21
22.2427766622
  0
LINE
  5
309
100
AcDbEntity
  8
RACCORDO
100
AcDbLine
 62
7
  6
CONTINUOUS
 10
3.0
 20
22.2427766622
 11
21.7905329658
 21
22.2427766622
  0
LINE
  5
30A
100
AcDbEntity
  8
RACCORDO
100
AcDbLine
 62
7
  6
CONTINUOUS
 10
-0.0607169643
 20
22.4
 11
0.0607169643
 21
22.4
  0
LINE
  5
30B
100
AcDbEntity
  8
DRAFT
100
AcDbLine
 62
7
  6
CONTINUOUS
 10
-15.25
 20
22.85
 11
-7.25
 21
22.85
  0
LINE
  5
30C
100
AcDbEntity
  8
DRAFT
100
AcDbLine
 62
7
  6
CONTINUOUS
 10
7.25
 20
22.85
 11
15.25
 21
22.85
  0
LINE
  5
30D
100
AcDbEntity
  8
RACCORDO
100
AcDbLine
 62
253
  6
CONTINUOUS
 10
24.1790082237
 20
-23.7297240564
 11
24.1790082237
 21
23.7297240564
  0
LINE
  5
30E
100
AcDbEntity
  8
RACCORDO
100
AcDbLine
 62
253
  6
CONTINUOUS
 10
24.4789625322
 20
-23.7295999352
 11
24.4789625322
 21
23.7296117038
  0
LINE
  5
30F
100
AcDbEntity
  8
RACCORDO
100
AcDbLine
 62
7
  6
CONTINUOUS
 10
24.5
 20
23.7507615242
 11
24.5
 21
-23.7507615242
  0
LINE
  5
310
100
AcDbEntity
  8
DRAFT
100
AcDbLine
 62
7
  6
CONTINUOUS
 10
8.7526449144
 20
-25.2973550856
 11
8.75
 21
-25.3
  0
LINE
  5
311
100
AcDbEntity
  8
RACCORDO
100
AcDbLine
 62
253
  6
CONTINUOUS
 10
24.1790082237
 20
23.7297240564
 11
24.4789625322
 21
23.7297240563
  0
LINE
  5
312
100
AcDbEntity
  8
RACCORDO
100
AcDbLine
 62
253
  6
CONTINUOUS
 10
-24.1790082237
 20
23.7297240564
 11
-24.4789625322
 21
23.7297240564
  0
LINE
  5
313
100
AcDbEntity
  8
DRAFT
100
AcDbLine
 62
7
  6
CONTINUOUS
 10
15.25
 20
24.05
 11
7.25
 21
24.05
  0
LINE
  5
314
100
AcDbEntity
  8
DRAFT
100
AcDbLine
 62
7
  6
CONTINUOUS
 10
-7.25
 20
24.05
 11
-15.25
 21
24.05
  0
LINE
  5
315
100
AcDbEntity
  8
DRAFT
100
AcDbLine
 62
7
  6
CONTINUOUS
 10
8.75
 20
24.5
 11
13.75
 21
24.5
  0
LINE
  5
316
100
AcDbEntity
  8
DRAFT
100
AcDbLine
 62
7
  6
CONTINUOUS
 10
-8.75
 20
24.5
 11
-13.75
 21
24.5
  0
LINE
  5
317
100
AcDbEntity
  8
DRAFT
100
AcDbLine
 62
7
  6
CONTINUOUS
 10
8.7552365195
 20
24.5803847577
 11
13.7447634805
 21
24.5803847577
  0
LINE
  5
318
100
AcDbEntity
  8
DRAFT
100
AcDbLine
 62
7
  6
CONTINUOUS
 10
-8.7552365195
 20
24.5803847577
 11
-13.7447634805
 21
24.5803847577
  0
LINE
  5
319
100
AcDbEntity
  8
DRAFT
100
AcDbLine
 62
7
  6
CONTINUOUS
 10
8.7552365195
 20
25.0401923789
 11
13.7447634805
 21
25.0401923789
  0
LINE
  5
31A
100
AcDbEntity
  8
DRAFT
100
AcDbLine
 62
7
  6
CONTINUOUS
 10
-8.7552365195
 20
25.0401923789
 11
-13.7447634805
 21
25.0401923789
  0
LINE
  5
31B
100
AcDbEntity
  8
DRAFT
100
AcDbLine
 62
7
  6
CONTINUOUS
 10
15.25
 20
25.05
 11
13.75
 21
25.05
  0
LINE
  5
31C
100
AcDbEntity
  8
DRAFT
100
AcDbLine
 62
7
  6
CONTINUOUS
 10
8.75
 20
25.05
 11
7.25
 21
25.05
  0
LINE
  5
31D
100
AcDbEntity
  8
DRAFT
100
AcDbLine
 62
7
  6
CONTINUOUS
 10
-7.25
 20
25.05
 11
-8.75
 21
25.05
  0
LINE
  5
31E
100
AcDbEntity
  8
DRAFT
100
AcDbLine
 62
7
  6
CONTINUOUS
 10
-13.75
 20
25.05
 11
-15.25
 21
25.05
  0
LINE
  5
31F
100
AcDbEntity
  8
DRAFT
100
AcDbLine
 62
7
  6
CONTINUOUS
 10
8.7526449144
 20
25.2973550856
 11
13.7473550856
 21
25.2973550856
  0
LINE
  5
320
100
AcDbEntity
  8
DRAFT
100
AcDbLine
 62
7
  6
CONTINUOUS
 10
-8.7526449144
 20
25.2973550856
 11
-13.7473550856
 21
25.2973550856
  0
LINE
  5
321
100
AcDbEntity
  8
DRAFT
100
AcDbLine
 62
7
  6
CONTINUOUS
 10
8.75
 20
25.3
 11
8.7526449144
 21
25.2973550856
  0
LINE
  5
322
100
AcDbEntity
  8
SMUSSO
100
AcDbLine
 62
7
  6
CONTINUOUS
 10
15.25
 20
-26.050091369
 11
14.65
 21
-26.650091369
  0
LINE
  5
323
100
AcDbEntity
  8
RACCORDO
100
AcDbLine
 62
253
  6
CONTINUOUS
 10
7.0031688183
 20
-28.314405705
 11
6.7319205029
 21
-28.4424562366
  0
LINE
  5
324
100
AcDbEntity
  8
DRAFT
100
AcDbLine
 62
7
  6
CONTINUOUS
 10
-12.0
 20
27.0
 11
-10.5
 21
27.0
  0
LINE
  5
325
100
AcDbEntity
  8
DRAFT
100
AcDbLine
 62
7
  6
CONTINUOUS
 10
10.5
 20
27.0
 11
12.0
 21
27.0
  0
LINE
  5
326
100
AcDbEntity
  8
DRAFT
100
AcDbLine
 62
7
  6
CONTINUOUS
 10
14.65
 20
27.15
 11
12.0
 21
27.15
  0
LINE
  5
327
100
AcDbEntity
  8
DRAFT
100
AcDbLine
 62
7
  6
CONTINUOUS
 10
10.5
 20
27.15
 11
7.85
 21
27.15
  0
LINE
  5
328
100
AcDbEntity
  8
DRAFT
100
AcDbLine
 62
7
  6
CONTINUOUS
 10
-7.85
 20
27.15
 11
-10.5
 21
27.15
  0
LINE
  5
329
100
AcDbEntity
  8
DRAFT
100
AcDbLine
 62
7
  6
CONTINUOUS
 10
-12.0
 20
27.15
 11
-14.65
 21
27.15
  0
LINE
  5
32A
100
AcDbEntity
  8
RACCORDO
100
AcDbLine
 62
253
  6
CONTINUOUS
 10
19.4797240564
 20
28.4290082237
 11
7.1840010288
 21
28.4290082237
  0
LINE
  5
32B
100
AcDbEntity
  8
RACCORDO
100
AcDbLine
 62
253
  6
CONTINUOUS
 10
-7.1840010288
 20
28.4290082237
 11
-19.4797240564
 21
28.4290082237
  0
LINE
  5
32C
100
AcDbEntity
  8
RACCORDO
100
AcDbLine
 62
253
  6
CONTINUOUS
 10
19.4795999352
 20
28.7289625322
 11
7.1840010288
 21
28.7289625322
  0
LINE
  5
32D
100
AcDbEntity
  8
RACCORDO
100
AcDbLine
 62
253
  6
CONTINUOUS
 10
-7.1840010288
 20
28.7289625322
 11
-19.4796117038
 21
28.7289625322
  0
LINE
  5
32E
100
AcDbEntity
  8
RACCORDO
100
AcDbLine
 62
7
  6
CONTINUOUS
 10
-19.5007615242
 20
28.75
 11
-7.17064049
 21
28.75
  0
LINE
  5
32F
100
AcDbEntity
  8
RACCORDO
100
AcDbLine
 62
7
  6
CONTINUOUS
 10
7.17064049
 20
28.75
 11
19.5007615242
 21
28.75
  0
LINE
  5
330
100
AcDbEntity
  8
RACCORDO
100
AcDbLine
 62
253
  6
CONTINUOUS
 10
7.0031688182
 20
28.314405705
 11
6.7319205026
 21
28.4424562358
  0
LINE
  5
331
100
AcDbEntity
  8
SMUSSO
100
AcDbLine
 62
7
  6
CONTINUOUS
 10
14.65
 20
26.650091369
 11
15.25
 21
26.050091369
  0
LWPOLYLINE
  5
332
100
AcDbEntity
  8
0
100
AcDbPolyline
 62
7
  6
CONTINUOUS
 90
8
 70
0
 43
0.3500000006
 10
42.2499992981
 20
-4.1785715675
 10
42.2499992981
 20
-3.3214290962
 10
41.8214303284
 20
-2.8928567276
 10
40.9642878571
 20
-2.8928567276
 10
40.5357143555
 20
-3.3214290962
 10
40.5357143555
 20
-4.1785715675
 10
39.2499983826
 20
-4.1785715675
 10
39.2499983826
 20
-2.8928567276
  0
LWPOLYLINE
  5
333
100
AcDbEntity
  8
0
100
AcDbPolyline
 62
7
  6
CONTINUOUS
 90
8
 70
0
 43
0.3500000006
 10
42.2499992981
 20
2.0357136154
 10
42.2499992981
 20
2.8928560867
 10
41.8214303284
 20
3.3214295883
 10
40.9642878571
 20
3.3214295883
 10
40.5357143555
 20
2.8928560867
 10
40.5357143555
 20
2.0357136154
 10
39.2499983826
 20
2.0357136154
 10
39.2499983826
 20
3.3214295883
  0
LWPOLYLINE
  5
334
100
AcDbEntity
  8
0
100
AcDbPolyline
 62
7
  6
CONTINUOUS
 90
3
 70
0
 43
0.3500000006
 10
-0.8571428254
 20
44.3928574219
 10
-2.3571427875
 20
44.3928574219
 10
-1.7142856507
 20
46.750000351
  0
LINE
  5
335
100
AcDbEntity
  8
RACCORDO
100
AcDbLine
 62
7
  6
CONTINUOUS
 10
-39.0335423975
 20
-28.2781050106
 11
-40.2879054991
 21
-28.3
  0
LINE
  5
336
100
AcDbEntity
  8
RACCORDO
100
AcDbLine
 62
253
  6
CONTINUOUS
 10
-39.0335423975
 20
-28.0281430868
 11
-40.2879054991
 21
-28.0500380762
  0
LINE
  5
337
100
AcDbEntity
  8
RACCORDO
100
AcDbLine
 62
253
  6
CONTINUOUS
 10
-38.7879054991
 20
-28.0281430868
 11
-39.0335423975
 21
-28.0281430868
  0
LINE
  5
338
100
AcDbEntity
  8
RACCORDO
100
AcDbLine
 62
7
  6
CONTINUOUS
 10
-40.2879054991
 20
-28.75
 11
-41.493141221
 21
-28.7289625322
  0
LINE
  5
339
100
AcDbEntity
  8
RACCORDO
100
AcDbLine
 62
7
  6
CONTINUOUS
 10
-38.7888627812
 20
-27.2023484854
 11
-40.2879054991
 21
-27.1761825974
  0
LINE
  5
33A
100
AcDbEntity
  8
DRAFT
100
AcDbLine
 62
7
  6
CONTINUOUS
 10
-40.2879054991
 20
-27.0261825974
 11
-38.7879054991
 21
-27.0523651948
  0
LINE
  5
33B
100
AcDbEntity
  8
DRAFT
100
AcDbLine
 62
7
  6
CONTINUOUS
 10
-41.7879054991
 20
-24.5
 11
-42.0879054991
 21
-24.5803847577
  0
LINE
  5
33C
100
AcDbEntity
  8
RACCORDO
100
AcDbLine
 62
253
  6
CONTINUOUS
 10
-41.7879054991
 20
-23.7297240564
 11
-41.493141221
 21
-23.7297240564
  0
LINE
  5
33D
100
AcDbEntity
  8
DRAFT
100
AcDbLine
 62
7
  6
CONTINUOUS
 10
-41.9394325411
 20
-25.2973550856
 11
-41.7879054991
 21
-25.3
  0
LINE
  5
33E
100
AcDbEntity
  8
RACCORDO
100
AcDbLine
 62
253
  6
CONTINUOUS
 10
-40.2879054991
 20
-23.7507615242
 11
-41.493141221
 21
-23.7295999352
  0
LINE
  5
33F
100
AcDbEntity
  8
DRAFT
100
AcDbLine
 62
7
  6
CONTINUOUS
 10
-40.2879054991
 20
-23.0
 11
-39.0826697772
 21
-22.9789625322
  0
LINE
  5
340
100
AcDbEntity
  8
DRAFT
100
AcDbLine
 62
7
  6
CONTINUOUS
 10
-40.2879054991
 20
-21.0
 11
-39.0826697772
 21
-21.0210374678
  0
LINE
  5
341
100
AcDbEntity
  8
RACCORDO
100
AcDbLine
 62
7
  6
CONTINUOUS
 10
-41.7879054991
 20
-22.2427766622
 11
-45.7431697977
 21
-22.0354900438
  0
LINE
  5
342
100
AcDbEntity
  8
RACCORDO
100
AcDbLine
 62
253
  6
CONTINUOUS
 10
-41.7879054991
 20
-21.742776427
 11
-45.7300902937
 21
-21.5361752764
  0
LINE
  5
343
100
AcDbEntity
  8
RACCORDO
100
AcDbLine
 62
253
  6
CONTINUOUS
 10
-47.1633923202
 20
-20.5993437728
 11
-46.6769053111
 21
-20.5787444292
  0
LINE
  5
344
100
AcDbEntity
  8
DRAFT
100
AcDbLine
 62
7
  6
CONTINUOUS
 10
-40.2879054991
 20
-19.5
 11
-39.0826697772
 21
-19.4789625322
  0
LINE
  5
345
100
AcDbEntity
  8
DRAFT
100
AcDbLine
 62
7
  6
CONTINUOUS
 10
-40.2879054991
 20
-17.5
 11
-39.0826697772
 21
-17.5210374678
  0
LWPOLYLINE
  5
346
100
AcDbEntity
  8
0
100
AcDbPolyline
 62
7
  6
CONTINUOUS
 90
3
 70
0
 43
0.3500000006
 10
-43.3307618866
 20
44.0357151031
 10
-43.4021930695
 20
43.8214306183
 10
-43.5450463715
 20
43.5357149506
  0
LINE
  5
347
100
AcDbEntity
  8
DRAFT
100
AcDbLine
 62
7
  6
CONTINUOUS
 10
-41.9394325411
 20
25.2973550856
 11
-42.0879054991
 21
25.0401923789
  0
LINE
  5
348
100
AcDbEntity
  8
DRAFT
100
AcDbLine
 62
7
  6
CONTINUOUS
 10
-42.0879054991
 20
-25.0401923789
 11
-41.9394325411
 21
-25.2973550856
  0
LINE
  5
349
100
AcDbEntity
  8
RACCORDO
100
AcDbLine
 62
7
  6
CONTINUOUS
 10
-47.5872483252
 20
0.5912862322
 11
-47.5845594533
 21
0.1103368703
  0
LINE
  5
34A
100
AcDbEntity
  8
RACCORDO
100
AcDbLine
 62
7
  6
CONTINUOUS
 10
-47.5872483252
 20
0.5912862322
 11
-47.5874069498
 21
0.7063989832
  0
LINE
  5
34B
100
AcDbEntity
  8
RACCORDO
100
AcDbLine
 62
7
  6
CONTINUOUS
 10
-47.5872741989
 20
-0.5984156942
 11
-47.5874069498
 21
-0.7063989833
  0
LINE
  5
34C
100
AcDbEntity
  8
RACCORDO
100
AcDbLine
 62
7
  6
CONTINUOUS
 10
-47.5845594533
 20
0.1103368703
 11
-47.584580044
 21
-0.1174217501
  0
LINE
  5
34D
100
AcDbEntity
  8
RACCORDO
100
AcDbLine
 62
7
  6
CONTINUOUS
 10
-47.584580044
 20
-0.1174217501
 11
-47.5872741989
 21
-0.5984156942
  0
LWPOLYLINE
  5
34E
100
AcDbEntity
  8
0
100
AcDbPolyline
 62
7
  6
CONTINUOUS
 90
4
 70
0
 43
0.3500000006
 10
-46.4021894531
 20
44.178572937
 10
-46.4021894531
 20
45.0357154083
 10
-45.9736204834
 20
45.4642843781
 10
-45.3307624969
 20
45.4642843781
  0
LWPOLYLINE
  5
34F
100
AcDbEntity
  8
0
100
AcDbPolyline
 62
7
  6
CONTINUOUS
 90
4
 70
0
 43
0.3500000006
 10
-42.3307615814
 20
44.178572937
 10
-42.3307615814
 20
45.0357154083
 10
-41.9021926117
 20
45.4642843781
 10
-41.2593346252
 20
45.4642843781
  0
LINE
  5
350
100
AcDbEntity
  8
RACCORDO
100
AcDbLine
 62
7
  6
CONTINUOUS
 10
-42.2879054991
 20
22.2165727725
 11
-42.2879054991
 21
22.4
  0
LINE
  5
351
100
AcDbEntity
  8
DRAFT
100
AcDbLine
 62
7
  6
CONTINUOUS
 10
-42.0879054991
 20
25.0401923789
 11
-42.0879054991
 21
24.5803847577
  0
LINE
  5
352
100
AcDbEntity
  8
DRAFT
100
AcDbLine
 62
7
  6
CONTINUOUS
 10
-42.0879054991
 20
-24.5803847577
 11
-42.0879054991
 21
-25.0401923789
  0
LINE
  5
353
100
AcDbEntity
  8
RACCORDO
100
AcDbLine
 62
7
  6
CONTINUOUS
 10
-41.7879054991
 20
-28.4290082237
 11
-41.7879054991
 21
28.4290082237
  0
LINE
  5
354
100
AcDbEntity
  8
RACCORDO
100
AcDbLine
 62
253
  6
CONTINUOUS
 10
-41.493141221
 20
-23.7295999352
 11
-41.493141221
 21
23.7296117038
  0
LINE
  5
355
100
AcDbEntity
  8
RACCORDO
100
AcDbLine
 62
7
  6
CONTINUOUS
 10
-40.2879054991
 20
28.75
 11
-40.2879054991
 21
-28.75
  0
LINE
  5
356
100
AcDbEntity
  8
RACCORDO
100
AcDbLine
 62
253
  6
CONTINUOUS
 10
-39.0826697772
 20
22.9789625322
 11
-39.0826697772
 21
21.0210374678
  0
LINE
  5
357
100
AcDbEntity
  8
RACCORDO
100
AcDbLine
 62
253
  6
CONTINUOUS
 10
-39.0826697772
 20
19.4789625322
 11
-39.0826697772
 21
17.5210374678
  0
LINE
  5
358
100
AcDbEntity
  8
RACCORDO
100
AcDbLine
 62
253
  6
CONTINUOUS
 10
-39.0826697772
 20
-17.5210374678
 11
-39.0826697772
 21
-19.4789625322
  0
LINE
  5
359
100
AcDbEntity
  8
RACCORDO
100
AcDbLine
 62
253
  6
CONTINUOUS
 10
-39.0826697772
 20
-21.0210374678
 11
-39.0826697772
 21
-22.9789625322
  0
LINE
  5
35A
100
AcDbEntity
  8
RACCORDO
100
AcDbLine
 62
253
  6
CONTINUOUS
 10
-39.0335423975
 20
28.0281430868
 11
-39.0335423975
 21
27.1980775868
  0
LINE
  5
35B
100
AcDbEntity
  8
RACCORDO
100
AcDbLine
 62
253
  6
CONTINUOUS
 10
-39.0335423975
 20
-27.1980775868
 11
-39.0335423975
 21
-28.0281430868
  0
LINE
  5
35C
100
AcDbEntity
  8
RACCORDO
100
AcDbLine
 62
7
  6
CONTINUOUS
 10
-38.7879054991
 20
28.0281430868
 11
-38.7879054991
 21
27.2023651948
  0
LINE
  5
35D
100
AcDbEntity
  8
RACCORDO
100
AcDbLine
 62
7
  6
CONTINUOUS
 10
-38.7879054991
 20
22.678954066
 11
-38.7879054991
 21
21.321045934
  0
LINE
  5
35E
100
AcDbEntity
  8
RACCORDO
100
AcDbLine
 62
7
  6
CONTINUOUS
 10
-38.7879054991
 20
19.178954066
 11
-38.7879054991
 21
17.821045934
  0
LINE
  5
35F
100
AcDbEntity
  8
RACCORDO
100
AcDbLine
 62
7
  6
CONTINUOUS
 10
-38.7879054991
 20
-17.821045934
 11
-38.7879054991
 21
-19.178954066
  0
LINE
  5
360
100
AcDbEntity
  8
RACCORDO
100
AcDbLine
 62
7
  6
CONTINUOUS
 10
-38.7879054991
 20
-21.321045934
 11
-38.7879054991
 21
-22.678954066
  0
LINE
  5
361
100
AcDbEntity
  8
RACCORDO
100
AcDbLine
 62
7
  6
CONTINUOUS
 10
-38.7879054991
 20
-27.0523651948
 11
-38.7879054991
 21
-28.0281430868
  0
LINE
  5
362
100
AcDbEntity
  8
DRAFT
100
AcDbLine
 62
7
  6
CONTINUOUS
 10
-38.7879054991
 20
27.0523651948
 11
-38.7879054991
 21
27.2023651948
  0
LINE
  5
363
100
AcDbEntity
  8
DRAFT
100
AcDbLine
 62
7
  6
CONTINUOUS
 10
-40.2879054991
 20
17.5
 11
-39.0826697772
 21
17.5210374678
  0
LWPOLYLINE
  5
364
100
AcDbEntity
  8
0
100
AcDbPolyline
 62
7
  6
CONTINUOUS
 90
10
 70
0
 43
0.3500000006
 10
-43.4021930695
 20
44.249999588
 10
-43.3307618866
 20
44.1071417542
 10
-43.3307618866
 20
44.0357151031
 10
-43.4736197205
 20
43.8928572693
 10
-43.5450463715
 20
43.8928572693
 10
-43.6164775543
 20
43.9642839203
 10
-43.6164775543
 20
44.0357151031
 10
-43.5450463715
 20
44.178572937
 10
-43.4736197205
 20
44.249999588
 10
-43.4021930695
 20
44.249999588
  0
LINE
  5
365
100
AcDbEntity
  8
DRAFT
100
AcDbLine
 62
7
  6
CONTINUOUS
 10
-40.2879054991
 20
21.0
 11
-39.0826697772
 21
21.0210374678
  0
LINE
  5
366
100
AcDbEntity
  8
DRAFT
100
AcDbLine
 62
7
  6
CONTINUOUS
 10
-40.2879054991
 20
19.5
 11
-39.0826697772
 21
19.4789625322
  0
LINE
  5
367
100
AcDbEntity
  8
RACCORDO
100
AcDbLine
 62
253
  6
CONTINUOUS
 10
-47.1633850609
 20
20.5993434726
 11
-46.6769053111
 21
20.5787444292
  0
LINE
  5
368
100
AcDbEntity
  8
RACCORDO
100
AcDbLine
 62
253
  6
CONTINUOUS
 10
-45.7300902937
 20
21.5361752764
 11
-41.7879054991
 21
21.742776427
  0
LINE
  5
369
100
AcDbEntity
  8
RACCORDO
100
AcDbLine
 62
7
  6
CONTINUOUS
 10
-45.7431697977
 20
22.0354900438
 11
-41.7879054991
 21
22.2427766622
  0
LINE
  5
36A
100
AcDbEntity
  8
RACCORDO
100
AcDbLine
 62
253
  6
CONTINUOUS
 10
-40.2879054991
 20
23.7507615242
 11
-41.493141221
 21
23.7296117038
  0
LINE
  5
36B
100
AcDbEntity
  8
RACCORDO
100
AcDbLine
 62
253
  6
CONTINUOUS
 10
-41.7879054991
 20
23.7297240564
 11
-41.493141221
 21
23.7297240563
  0
LINE
  5
36C
100
AcDbEntity
  8
DRAFT
100
AcDbLine
 62
7
  6
CONTINUOUS
 10
-40.2879054991
 20
23.0
 11
-39.0826697772
 21
22.9789625322
  0
LINE
  5
36D
100
AcDbEntity
  8
RACCORDO
100
AcDbLine
 62
7
  6
CONTINUOUS
 10
-42.2879054991
 20
22.4
 11
-41.7879054991
 21
22.3118365096
  0
LINE
  5
36E
100
AcDbEntity
  8
DRAFT
100
AcDbLine
 62
7
  6
CONTINUOUS
 10
-42.0879054991
 20
24.5803847577
 11
-41.7879054991
 21
24.5
  0
LINE
  5
36F
100
AcDbEntity
  8
DRAFT
100
AcDbLine
 62
7
  6
CONTINUOUS
 10
-41.7879054991
 20
25.3
 11
-41.9394325411
 21
25.2973550856
  0
LINE
  5
370
100
AcDbEntity
  8
DRAFT
100
AcDbLine
 62
7
  6
CONTINUOUS
 10
-40.2879054991
 20
27.0261825974
 11
-38.7879054991
 21
27.0523651948
  0
LINE
  5
371
100
AcDbEntity
  8
RACCORDO
100
AcDbLine
 62
7
  6
CONTINUOUS
 10
-38.7879054991
 20
27.2023651948
 11
-40.2879054991
 21
27.1761825974
  0
LINE
  5
372
100
AcDbEntity
  8
RACCORDO
100
AcDbLine
 62
253
  6
CONTINUOUS
 10
-39.0335423975
 20
28.0281430868
 11
-38.7879054991
 21
28.0281430868
  0
LINE
  5
373
100
AcDbEntity
  8
RACCORDO
100
AcDbLine
 62
253
  6
CONTINUOUS
 10
-40.2879054991
 20
28.0500380762
 11
-39.0335423975
 21
28.0281430868
  0
LINE
  5
374
100
AcDbEntity
  8
RACCORDO
100
AcDbLine
 62
7
  6
CONTINUOUS
 10
-40.2879054991
 20
28.3
 11
-39.0335423975
 21
28.2781050106
  0
LINE
  5
375
100
AcDbEntity
  8
RACCORDO
100
AcDbLine
 62
7
  6
CONTINUOUS
 10
-40.2879054991
 20
28.75
 11
-41.493141221
 21
28.7289625322
  0
LWPOLYLINE
  5
376
100
AcDbEntity
  8
0
100
AcDbPolyline
 62
7
  6
CONTINUOUS
 90
13
 70
0
 43
0.3500000006
 10
-45.9736204834
 20
45.4642843781
 10
-46.2593361511
 20
45.6785733948
 10
-46.2593361511
 20
46.3214268494
 10
-45.9736204834
 20
46.750000351
 10
-45.3307624969
 20
46.750000351
 10
-45.0450468292
 20
46.3214268494
 10
-45.0450468292
 20
45.6785733948
 10
-45.3307624969
 20
45.4642843781
 10
-44.9021889954
 20
45.0357154083
 10
-44.9021889954
 20
44.178572937
 10
-45.3307624969
 20
43.7499994354
 10
-45.9736204834
 20
43.7499994354
 10
-46.4021894531
 20
44.178572937
  0
LWPOLYLINE
  5
377
100
AcDbEntity
  8
0
100
AcDbPolyline
 62
7
  6
CONTINUOUS
 90
13
 70
0
 43
0.3500000006
 10
-41.9021926117
 20
45.4642843781
 10
-42.1879037476
 20
45.6785733948
 10
-42.1879037476
 20
46.3214268494
 10
-41.9021926117
 20
46.750000351
 10
-41.2593346252
 20
46.750000351
 10
-40.9736189575
 20
46.3214268494
 10
-40.9736189575
 20
45.6785733948
 10
-41.2593346252
 20
45.4642843781
 10
-40.8307611237
 20
45.0357154083
 10
-40.8307611237
 20
44.178572937
 10
-41.2593346252
 20
43.7499994354
 10
-41.9021926117
 20
43.7499994354
 10
-42.3307615814
 20
44.178572937
  0
ARC
  5
378
100
AcDbEntity
  8
RACCORDO
100
AcDbCircle
 62
253
  6
CONTINUOUS
 10
-1.1342427496
 20
-22.6867758238
 40
9.7470190986
100
AcDbArc
 50
323.6662079219
 51
323.8070241859
  0
ARC
  5
379
100
AcDbEntity
  8
RACCORDO
100
AcDbCircle
 62
253
  6
CONTINUOUS
 10
-14.9968592077
 20
-0.0003325265
 40
6.3915720147
100
AcDbArc
 50
179.9970191424
 51
186.0530097645
  0
ARC
  5
37A
100
AcDbEntity
  8
RACCORDO
100
AcDbCircle
 62
253
  6
CONTINUOUS
 10
-15.0000113537
 20
-0.0008582039
 40
6.3886498882
100
AcDbArc
 50
0.0076968665
 51
173.933389687
  0
ARC
  5
37B
100
AcDbEntity
  8
RACCORDO
100
AcDbCircle
 62
253
  6
CONTINUOUS
 10
-19.4798883659
 20
-23.7298883667
 40
4.9990652165
100
AcDbArc
 50
179.9968291407
 51
270.0033057276
  0
ARC
  5
37C
100
AcDbEntity
  8
RACCORDO
100
AcDbCircle
 62
253
  6
CONTINUOUS
 10
-19.4799986044
 20
-23.7299986044
 40
4.6989998641
100
AcDbArc
 50
179.9966523924
 51
270.0033476076
  0
ARC
  5
37D
100
AcDbEntity
  8
RACCORDO
100
AcDbCircle
 62
253
  6
CONTINUOUS
 10
-4.0
 20
-29.7321374946
 40
3.3209917763
100
AcDbArc
 50
82.3377443392
 51
154.7290057538
  0
ARC
  5
37E
100
AcDbEntity
  8
RACCORDO
100
AcDbCircle
 62
253
  6
CONTINUOUS
 10
-4.0
 20
-29.7321374946
 40
3.0210374678
100
AcDbArc
 50
82.3377443392
 51
154.7299831569
  0
ARC
  5
37F
100
AcDbEntity
  8
RACCORDO
100
AcDbCircle
 62
7
  6
CONTINUOUS
 10
-4.0
 20
-29.7321374946
 40
3.0
100
AcDbArc
 50
82.3377443392
 51
154.9470712452
  0
ARC
  5
380
100
AcDbEntity
  8
RACCORDO
100
AcDbCircle
 62
253
  6
CONTINUOUS
 10
-21.6864234933
 20
-21.5350877286
 40
0.5003861323
100
AcDbArc
 50
180.1245324754
 51
269.9384872884
  0
ARC
  5
381
100
AcDbEntity
  8
RACCORDO
100
AcDbCircle
 62
253
  6
CONTINUOUS
 10
-7.1840804402
 20
-28.2289133783
 40
0.5000511629
100
AcDbArc
 50
270.0090989759
 51
334.7140019613
  0
ARC
  5
382
100
AcDbEntity
  8
RACCORDO
100
AcDbCircle
 62
7
  6
CONTINUOUS
 10
-7.1706516968
 20
-28.2500585434
 40
0.4999434378
100
AcDbArc
 50
270.001284353
 51
334.9457868923
  0
ARC
  5
383
100
AcDbEntity
  8
RACCORDO
100
AcDbCircle
 62
253
  6
CONTINUOUS
 10
-7.1840143947
 20
-28.2290175946
 40
0.1999906296
100
AcDbArc
 50
270.0038292127
 51
334.7251765407
  0
ARC
  5
384
100
AcDbEntity
  8
RACCORDO
100
AcDbCircle
 62
253
  6
CONTINUOUS
 10
-19087.2602184149
 20
0.0
 40
19065.1093285301
100
AcDbArc
 50
359.938155328
 51
0.061844672
  0
ARC
  5
385
100
AcDbEntity
  8
RACCORDO
100
AcDbCircle
 62
253
  6
CONTINUOUS
 10
-14.99685127
 20
0.000332107
 40
6.3915799524
100
AcDbArc
 50
173.9469939995
 51
180.0029770937
  0
ARC
  5
386
100
AcDbEntity
  8
RACCORDO
100
AcDbCircle
 62
253
  6
CONTINUOUS
 10
-15.0000113554
 20
0.0008582
 40
6.38864999
100
AcDbArc
 50
186.0666102795
 51
359.9923031688
  0
CIRCLE
  5
387
100
AcDbEntity
  8
DRAFT
100
AcDbCircle
 62
7
  6
CONTINUOUS
 10
-15.0
 20
0.0
 40
6.35
  0
ARC
  5
388
100
AcDbEntity
  8
RACCORDO
100
AcDbCircle
 62
253
  6
CONTINUOUS
 10
-19.4798883667
 20
23.7298883659
 40
4.9990652165
100
AcDbArc
 50
89.9968291407
 51
180.0033057276
  0
ARC
  5
389
100
AcDbEntity
  8
RACCORDO
100
AcDbCircle
 62
253
  6
CONTINUOUS
 10
-19.4799986044
 20
23.7299986044
 40
4.6989998641
100
AcDbArc
 50
89.9966523924
 51
180.0033476076
  0
ARC
  5
38A
100
AcDbEntity
  8
RACCORDO
100
AcDbCircle
 62
253
  6
CONTINUOUS
 10
-4.0
 20
29.7321374946
 40
3.3209917763
100
AcDbArc
 50
205.2709942462
 51
277.6622556608
  0
ARC
  5
38B
100
AcDbEntity
  8
RACCORDO
100
AcDbCircle
 62
253
  6
CONTINUOUS
 10
-4.0
 20
29.7321374946
 40
3.0210374678
100
AcDbArc
 50
205.2709942463
 51
277.6622556608
  0
ARC
  5
38C
100
AcDbEntity
  8
RACCORDO
100
AcDbCircle
 62
7
  6
CONTINUOUS
 10
-4.0
 20
29.7321374946
 40
3.0
100
AcDbArc
 50
205.0529287548
 51
277.6622556608
  0
ARC
  5
38D
100
AcDbEntity
  8
RACCORDO
100
AcDbCircle
 62
253
  6
CONTINUOUS
 10
-21.6864233067
 20
21.5350875418
 40
0.5003862509
100
AcDbArc
 50
90.061534053
 51
179.8754461856
  0
ARC
  5
38E
100
AcDbEntity
  8
RACCORDO
100
AcDbCircle
 62
253
  6
CONTINUOUS
 10
-7.1840806266
 20
28.2289130868
 40
0.5000514826
100
AcDbArc
 50
25.2801145729
 51
89.9908796734
  0
ARC
  5
38F
100
AcDbEntity
  8
RACCORDO
100
AcDbCircle
 62
7
  6
CONTINUOUS
 10
-7.1706517198
 20
28.2500585072
 40
0.4999434378
100
AcDbArc
 50
25.0542157429
 51
89.9987130118
  0
ARC
  5
390
100
AcDbEntity
  8
RACCORDO
100
AcDbCircle
 62
253
  6
CONTINUOUS
 10
-7.1840143947
 20
28.2290175946
 40
0.1999906296
100
AcDbArc
 50
25.2748234603
 51
89.9961707861
  0
ARC
  5
391
100
AcDbEntity
  8
RACCORDO
100
AcDbCircle
 62
253
  6
CONTINUOUS
 10
-5.9396932852
 20
21.8853910124
 40
0.1500849618
100
AcDbArc
 50
90.0416197014
 51
179.8837178882
  0
ARC
  5
392
100
AcDbEntity
  8
RACCORDO
100
AcDbCircle
 62
253
  6
CONTINUOUS
 10
-6.5585167317
 20
21.8854354703
 40
0.1500485319
100
AcDbArc
 50
0.0993396859
 51
89.9753506115
  0
ARC
  5
393
100
AcDbEntity
  8
RACCORDO
100
AcDbCircle
 62
253
  6
CONTINUOUS
 10
14.9968512701
 20
-0.0003321071
 40
6.3915799523
100
AcDbArc
 50
353.9469939994
 51
0.0029770937
  0
ARC
  5
394
100
AcDbEntity
  8
RACCORDO
100
AcDbCircle
 62
253
  6
CONTINUOUS
 10
15.0000102122
 20
-0.0008582598
 40
6.3886498844
100
AcDbArc
 50
6.0666097299
 51
179.9923026305
  0
ARC
  5
395
100
AcDbEntity
  8
RACCORDO
100
AcDbCircle
 62
253
  6
CONTINUOUS
 10
19.4798878996
 20
-23.7298878987
 40
4.9990652165
100
AcDbArc
 50
269.9968344951
 51
0.0033003733
  0
ARC
  5
396
100
AcDbEntity
  8
RACCORDO
100
AcDbCircle
 62
253
  6
CONTINUOUS
 10
19.4799981605
 20
-23.7299981605
 40
4.6989998641
100
AcDbArc
 50
269.9966578052
 51
0.0033421948
  0
ARC
  5
397
100
AcDbEntity
  8
RACCORDO
100
AcDbCircle
 62
253
  6
CONTINUOUS
 10
4.0
 20
-29.7321374946
 40
3.3209917763
100
AcDbArc
 50
25.2709942462
 51
97.6622556608
  0
ARC
  5
398
100
AcDbEntity
  8
RACCORDO
100
AcDbCircle
 62
253
  6
CONTINUOUS
 10
0.0
 20
-0.0004033824
 40
3.021374999
100
AcDbArc
 50
0.0076496767
 51
179.9923503233
  0
ARC
  5
399
100
AcDbEntity
  8
RACCORDO
100
AcDbCircle
 62
253
  6
CONTINUOUS
 10
4.0
 20
-29.7321374946
 40
3.0210374678
100
AcDbArc
 50
25.2709942463
 51
97.6622556608
  0
ARC
  5
39A
100
AcDbEntity
  8
RACCORDO
100
AcDbCircle
 62
7
  6
CONTINUOUS
 10
4.0
 20
-29.7321374946
 40
3.0
100
AcDbArc
 50
25.0529287548
 51
97.6622556608
  0
ARC
  5
39B
100
AcDbEntity
  8
RACCORDO
100
AcDbCircle
 62
253
  6
CONTINUOUS
 10
21.6864234953
 20
-21.5350877252
 40
0.500386133
100
AcDbArc
 50
270.0615124802
 51
359.8754671363
  0
ARC
  5
39C
100
AcDbEntity
  8
RACCORDO
100
AcDbCircle
 62
253
  6
CONTINUOUS
 10
7.1840806044
 20
-28.2289131218
 40
0.5000514826
100
AcDbArc
 50
205.280112029
 51
269.9908822173
  0
ARC
  5
39D
100
AcDbEntity
  8
RACCORDO
100
AcDbCircle
 62
7
  6
CONTINUOUS
 10
7.1706516968
 20
-28.2500585434
 40
0.4999434378
100
AcDbArc
 50
205.0542131077
 51
269.998715647
  0
ARC
  5
39E
100
AcDbEntity
  8
RACCORDO
100
AcDbCircle
 62
253
  6
CONTINUOUS
 10
7.1840143947
 20
-28.2290175946
 40
0.1999906296
100
AcDbArc
 50
205.2748234603
 51
269.9961707861
  0
ARC
  5
39F
100
AcDbEntity
  8
DRAFT
100
AcDbCircle
 62
7
  6
CONTINUOUS
 10
0.0
 20
0.0
 40
27.0
100
AcDbArc
 50
262.3377443392
 51
277.6622556608
  0
ARC
  5
3A0
100
AcDbEntity
  8
DRAFT
100
AcDbCircle
 62
7
  6
CONTINUOUS
 10
-0.0
 20
0.0
 40
27.0
100
AcDbArc
 50
82.3377443392
 51
97.6622556608
  0
ARC
  5
3A1
100
AcDbEntity
  8
RACCORDO
100
AcDbCircle
 62
253
  6
CONTINUOUS
 10
-0.0
 20
0.0
 40
26.9789625322
100
AcDbArc
 50
82.3377443392
 51
97.6622556608
  0
ARC
  5
3A2
100
AcDbEntity
  8
RACCORDO
100
AcDbCircle
 62
253
  6
CONTINUOUS
 10
0.0
 20
0.0
 40
26.9789625322
100
AcDbArc
 50
262.3377443392
 51
277.6622556608
  0
ARC
  5
3A3
100
AcDbEntity
  8
RACCORDO
100
AcDbCircle
 62
253
  6
CONTINUOUS
 10
0.0
 20
0.0
 40
26.6790082237
100
AcDbArc
 50
262.3377443392
 51
277.6622556608
  0
ARC
  5
3A4
100
AcDbEntity
  8
RACCORDO
100
AcDbCircle
 62
253
  6
CONTINUOUS
 10
-0.0
 20
0.0
 40
26.6790082237
100
AcDbArc
 50
82.3377443392
 51
97.6622556608
  0
ARC
  5
3A5
100
AcDbEntity
  8
RACCORDO
100
AcDbCircle
 62
253
  6
CONTINUOUS
 10
14.9968592076
 20
0.0003325265
 40
6.3915720148
100
AcDbArc
 50
359.9970191424
 51
6.0530097644
  0
ARC
  5
3A6
100
AcDbEntity
  8
RACCORDO
100
AcDbCircle
 62
253
  6
CONTINUOUS
 10
15.00001021
 20
0.000858265
 40
6.3886499939
100
AcDbArc
 50
180.0076974161
 51
353.9333902259
  0
CIRCLE
  5
3A7
100
AcDbEntity
  8
DRAFT
100
AcDbCircle
 62
7
  6
CONTINUOUS
 10
15.0
 20
0.0
 40
6.35
  0
ARC
  5
3A8
100
AcDbEntity
  8
RACCORDO
100
AcDbCircle
 62
253
  6
CONTINUOUS
 10
-0.0
 20
0.0004034012
 40
3.021375003
100
AcDbArc
 50
180.0076500348
 51
359.9923499652
  0
CIRCLE
  5
3A9
100
AcDbEntity
  8
0
100
AcDbCircle
 62
7
  6
CONTINUOUS
 10
0.0
 20
0.0
 40
3.0
  0
CIRCLE
  5
3AA
100
AcDbEntity
  8
RACCORDO
100
AcDbCircle
 62
253
  6
CONTINUOUS
 10
0.0
 20
0.0
 40
1.7159076719
  0
CIRCLE
  5
3AB
100
AcDbEntity
  8
RACCORDO
100
AcDbCircle
 62
253
  6
CONTINUOUS
 10
0.0
 20
0.0
 40
1.6280853978
  0
CIRCLE
  5
3AC
100
AcDbEntity
  8
DRAFT
100
AcDbCircle
 62
7
  6
CONTINUOUS
 10
0.0
 20
0.0
 40
1.6
  0
ARC
  5
3AD
100
AcDbEntity
  8
RACCORDO
100
AcDbCircle
 62
253
  6
CONTINUOUS
 10
1.1342427492
 20
22.6867758241
 40
9.747019098
100
AcDbArc
 50
143.6662079219
 51
143.8070241859
  0
ARC
  5
3AE
100
AcDbEntity
  8
RACCORDO
100
AcDbCircle
 62
253
  6
CONTINUOUS
 10
0.0000000059
 20
15.9971167574
 40
6.433849018
100
AcDbArc
 50
179.9729593692
 51
0.0257910522
  0
ARC
  5
3AF
100
AcDbEntity
  8
DRAFT
100
AcDbCircle
 62
7
  6
CONTINUOUS
 10
0.0
 20
16.0
 40
6.360473039
100
AcDbArc
 50
248.3182884719
 51
291.6817115281
  0
ARC
  5
3B0
100
AcDbEntity
  8
DRAFT
100
AcDbCircle
 62
7
  6
CONTINUOUS
 10
0.0
 20
16.0
 40
6.35
100
AcDbArc
 50
291.6998006075
 51
360.0
  0
ARC
  5
3B1
100
AcDbEntity
  8
DRAFT
100
AcDbCircle
 62
7
  6
CONTINUOUS
 10
0.0
 20
16.0
 40
6.35
100
AcDbArc
 50
180.0
 51
248.3001993925
  0
ARC
  5
3B2
100
AcDbEntity
  8
DRAFT
100
AcDbCircle
 62
7
  6
CONTINUOUS
 10
0.0
 20
16.0
 40
6.339526961
100
AcDbArc
 50
78.7651044528
 51
87.761487741
  0
ARC
  5
3B3
100
AcDbEntity
  8
DRAFT
100
AcDbCircle
 62
7
  6
CONTINUOUS
 10
0.0
 20
16.0
 40
6.339526961
100
AcDbArc
 50
92.2385122645
 51
101.2348955703
  0
ARC
  5
3B4
100
AcDbEntity
  8
RACCORDO
100
AcDbCircle
 62
253
  6
CONTINUOUS
 10
0.0
 20
16.0
 40
6.3222242126
100
AcDbArc
 50
100.4360383425
 51
100.4680137089
  0
ARC
  5
3B5
100
AcDbEntity
  8
RACCORDO
100
AcDbCircle
 62
253
  6
CONTINUOUS
 10
0.0
 20
16.0
 40
6.3222242126
100
AcDbArc
 50
87.5642867504
 51
87.5757945589
  0
ARC
  5
3B6
100
AcDbEntity
  8
RACCORDO
100
AcDbCircle
 62
7
  6
CONTINUOUS
 10
0.0
 20
16.0
 40
6.3221480601
100
AcDbArc
 50
92.4357132496
 51
100.4360383425
  0
ARC
  5
3B7
100
AcDbEntity
  8
RACCORDO
100
AcDbCircle
 62
7
  6
CONTINUOUS
 10
0.0
 20
16.0
 40
6.3221480601
100
AcDbArc
 50
79.5639616575
 51
87.5642867504
  0
ARC
  5
3B8
100
AcDbEntity
  8
DRAFT
100
AcDbCircle
 62
7
  6
CONTINUOUS
 10
0.0
 20
16.0
 40
6.1467267152
100
AcDbArc
 50
180.0
 51
200.9294929351
  0
ARC
  5
3B9
100
AcDbEntity
  8
DRAFT
100
AcDbCircle
 62
7
  6
CONTINUOUS
 10
0.0
 20
16.0
 40
6.1467267152
100
AcDbArc
 50
339.0705070649
 51
360.0
  0
ARC
  5
3BA
100
AcDbEntity
  8
DRAFT
100
AcDbCircle
 62
7
  6
CONTINUOUS
 10
0.0
 20
16.0
 40
6.1377814546
100
AcDbArc
 50
246.8180950499
 51
293.1819049501
  0
ARC
  5
3BB
100
AcDbEntity
  8
DRAFT
100
AcDbCircle
 62
7
  6
CONTINUOUS
 10
0.0
 20
16.0
 40
6.1098533507
100
AcDbArc
 50
294.1530278842
 51
338.0384843224
  0
ARC
  5
3BC
100
AcDbEntity
  8
DRAFT
100
AcDbCircle
 62
7
  6
CONTINUOUS
 10
0.0
 20
16.0
 40
6.1098533507
100
AcDbArc
 50
201.9615156776
 51
245.8469721158
  0
ARC
  5
3BD
100
AcDbEntity
  8
RACCORDO
100
AcDbCircle
 62
7
  6
CONTINUOUS
 10
-0.0000000101
 20
16.0026863549
 40
6.0644342983
100
AcDbArc
 50
180.0230267659
 51
359.9746201696
  0
ARC
  5
3BE
100
AcDbEntity
  8
RACCORDO
100
AcDbCircle
 62
253
  6
CONTINUOUS
 10
19.4798878987
 20
23.7298878996
 40
4.9990652165
100
AcDbArc
 50
359.9968344951
 51
90.0033003733
  0
ARC
  5
3BF
100
AcDbEntity
  8
RACCORDO
100
AcDbCircle
 62
253
  6
CONTINUOUS
 10
19.4799981605
 20
23.7299981605
 40
4.6989998641
100
AcDbArc
 50
359.9966578052
 51
90.0033421948
  0
ARC
  5
3C0
100
AcDbEntity
  8
RACCORDO
100
AcDbCircle
 62
253
  6
CONTINUOUS
 10
4.0
 20
29.7321374946
 40
3.3209917763
100
AcDbArc
 50
262.3377443392
 51
334.7290057538
  0
ARC
  5
3C1
100
AcDbEntity
  8
RACCORDO
100
AcDbCircle
 62
253
  6
CONTINUOUS
 10
4.0
 20
29.7321374946
 40
3.0210374678
100
AcDbArc
 50
262.3377443392
 51
334.7299831569
  0
ARC
  5
3C2
100
AcDbEntity
  8
RACCORDO
100
AcDbCircle
 62
7
  6
CONTINUOUS
 10
4.0
 20
29.7321374946
 40
3.0
100
AcDbArc
 50
262.3377443392
 51
334.9470712452
  0
ARC
  5
3C3
100
AcDbEntity
  8
RACCORDO
100
AcDbCircle
 62
253
  6
CONTINUOUS
 10
21.6864233099
 20
21.5350875396
 40
0.5003862504
100
AcDbArc
 50
0.1245540727
 51
89.9384663186
  0
ARC
  5
3C4
100
AcDbEntity
  8
RACCORDO
100
AcDbCircle
 62
253
  6
CONTINUOUS
 10
7.1840804625
 20
28.2289133431
 40
0.5000511629
100
AcDbArc
 50
90.0091015325
 51
154.7139994047
  0
ARC
  5
3C5
100
AcDbEntity
  8
RACCORDO
100
AcDbCircle
 62
7
  6
CONTINUOUS
 10
7.1706517198
 20
28.2500585072
 40
0.4999434378
100
AcDbArc
 50
90.0012869881
 51
154.9457842571
  0
ARC
  5
3C6
100
AcDbEntity
  8
RACCORDO
100
AcDbCircle
 62
253
  6
CONTINUOUS
 10
7.1840143947
 20
28.2290175946
 40
0.1999906296
100
AcDbArc
 50
90.0038292127
 51
154.7251765407
  0
ARC
  5
3C7
100
AcDbEntity
  8
RACCORDO
100
AcDbCircle
 62
253
  6
CONTINUOUS
 10
5.9396932811
 20
21.8853910215
 40
0.1500849585
100
AcDbArc
 50
0.1162786343
 51
89.9583787498
  0
ARC
  5
3C8
100
AcDbEntity
  8
RACCORDO
100
AcDbCircle
 62
253
  6
CONTINUOUS
 10
6.5585167322
 20
21.8854354708
 40
0.150048532
100
AcDbArc
 50
90.0246495941
 51
179.9006605114
  0
ARC
  5
3C9
100
AcDbEntity
  8
RACCORDO
100
AcDbCircle
 62
253
  6
CONTINUOUS
 10
19087.2602285628
 20
-0.0
 40
19065.109338678
100
AcDbArc
 50
179.9381553281
 51
180.0618446719
  0
ARC
  5
3CA
100
AcDbEntity
  8
0
100
AcDbCircle
 62
7
  6
CONTINUOUS
 10
-42.0879054991
 20
-14.0
 40
2.75
100
AcDbArc
 50
310.897676794
 51
49.102323206
  0
ARC
  5
3CB
100
AcDbEntity
  8
RACCORDO
100
AcDbCircle
 62
7
  6
CONTINUOUS
 10
-45.6646658633
 20
-20.5375457417
 40
1.5
100
AcDbArc
 50
182.3611775406
 51
267.0
  0
ARC
  5
3CC
100
AcDbEntity
  8
RACCORDO
100
AcDbCircle
 62
253
  6
CONTINUOUS
 10
-45.677754317
 20
-20.5375457214
 40
1.0000000213
100
AcDbArc
 50
182.3611802996
 51
266.9999988905
  0
ARC
  5
3CD
100
AcDbEntity
  8
RACCORDO
100
AcDbCircle
 62
7
  6
CONTINUOUS
 10
-39.0879054991
 20
-21.3209917763
 40
0.3
100
AcDbArc
 50
0.0
 51
89.0
  0
ARC
  5
3CE
100
AcDbEntity
  8
RACCORDO
100
AcDbCircle
 62
7
  6
CONTINUOUS
 10
-39.0879054991
 20
-22.6790082237
 40
0.3
100
AcDbArc
 50
271.0
 51
360.0
  0
ARC
  5
3CF
100
AcDbEntity
  8
RACCORDO
100
AcDbCircle
 62
7
  6
CONTINUOUS
 10
-39.0879054991
 20
-17.8209917763
 40
0.3
100
AcDbArc
 50
0.0
 51
89.0
  0
ARC
  5
3D0
100
AcDbEntity
  8
RACCORDO
100
AcDbCircle
 62
7
  6
CONTINUOUS
 10
-39.0879054991
 20
-19.1790082237
 40
0.3
100
AcDbArc
 50
271.0
 51
360.0
  0
ARC
  5
3D1
100
AcDbEntity
  8
RACCORDO
100
AcDbCircle
 62
7
  6
CONTINUOUS
 10
-41.4879054991
 20
-28.4290082237
 40
0.3
100
AcDbArc
 50
180.0
 51
269.0
  0
ARC
  5
3D2
100
AcDbEntity
  8
RACCORDO
100
AcDbCircle
 62
7
  6
CONTINUOUS
 10
-39.0379054991
 20
-28.0281430868
 40
0.25
100
AcDbArc
 50
271.0
 51
360.0
  0
ARC
  5
3D3
100
AcDbEntity
  8
RACCORDO
100
AcDbCircle
 62
7
  6
CONTINUOUS
 10
-45.6646658633
 20
20.5375457417
 40
1.5
100
AcDbArc
 50
93.0
 51
177.6388208179
  0
ARC
  5
3D4
100
AcDbEntity
  8
RACCORDO
100
AcDbCircle
 62
253
  6
CONTINUOUS
 10
-45.677754317
 20
20.5375457214
 40
1.0000000213
100
AcDbArc
 50
93.0000011095
 51
177.6388197004
  0
ARC
  5
3D5
100
AcDbEntity
  8
RACCORDO
100
AcDbCircle
 62
7
  6
CONTINUOUS
 10
-39.0879054991
 20
19.1790082237
 40
0.3
100
AcDbArc
 50
0.0
 51
89.0
  0
ARC
  5
3D6
100
AcDbEntity
  8
RACCORDO
100
AcDbCircle
 62
7
  6
CONTINUOUS
 10
-39.0879054991
 20
17.8209917763
 40
0.3
100
AcDbArc
 50
271.0
 51
360.0
  0
ARC
  5
3D7
100
AcDbEntity
  8
RACCORDO
100
AcDbCircle
 62
7
  6
CONTINUOUS
 10
-39.0879054991
 20
22.6790082237
 40
0.3
100
AcDbArc
 50
0.0
 51
89.0
  0
ARC
  5
3D8
100
AcDbEntity
  8
RACCORDO
100
AcDbCircle
 62
7
  6
CONTINUOUS
 10
-39.0879054991
 20
21.3209917763
 40
0.3
100
AcDbArc
 50
271.0
 51
360.0
  0
ARC
  5
3D9
100
AcDbEntity
  8
RACCORDO
100
AcDbCircle
 62
7
  6
CONTINUOUS
 10
-41.4879054991
 20
28.4290082237
 40
0.3
100
AcDbArc
 50
91.0
 51
180.0
  0
ARC
  5
3DA
100
AcDbEntity
  8
RACCORDO
100
AcDbCircle
 62
7
  6
CONTINUOUS
 10
-39.0379054991
 20
28.0281430868
 40
0.25
100
AcDbArc
 50
0.0
 51
89.0
  0
ARC
  5
3DB
100
AcDbEntity
  8
RACCORDO
100
AcDbCircle
 62
7
  6
CONTINUOUS
 10
452.4120945009
 20
0.0
 40
500.0
100
AcDbArc
 50
180.0809473815
 51
182.3611791852
  0
ARC
  5
3DC
100
AcDbEntity
  8
RACCORDO
100
AcDbCircle
 62
7
  6
CONTINUOUS
 10
452.4120945009
 20
0.0
 40
500.0
100
AcDbArc
 50
179.9191919539
 51
180.0794670745
  0
ARC
  5
3DD
100
AcDbEntity
  8
RACCORDO
100
AcDbCircle
 62
7
  6
CONTINUOUS
 10
452.4120945009
 20
0.0
 40
500.0
100
AcDbArc
 50
177.6388208149
 51
179.9190526182
  0
ARC
  5
3DE
100
AcDbEntity
  8
RACCORDO
100
AcDbCircle
 62
253
  6
CONTINUOUS
 10
452.3980461889
 20
0.0
 40
499.4990409771
100
AcDbArc
 50
177.6388162739
 51
182.3611837261
  0
LINE
  5
3DF
100
AcDbEntity
  8
DRAFT
100
AcDbLine
 62
7
  6
CONTINUOUS
 10
-5.9297688893
 20
13.7335295565
 11
-5.7411701128
 21
13.8042734579
  0
LINE
  5
3E0
100
AcDbEntity
  8
DRAFT
100
AcDbLine
 62
7
  6
CONTINUOUS
 10
5.9297688874
 20
13.7335295572
 11
5.7411701128
 21
13.8042734579
  0
SPLINE
  5
3E1
100
AcDbEntity
  8
RACCORDO
100
AcDbSpline
 62
253
  6
CONTINUOUS
 70
0
 71
3
 72
27
 73
23
 74
21
 42
0.0000001
 43
0.0000001
 44
0.0000000001
 12
0.0119150335
 22
-18.5540029001
 32
0.0
 13
0.0121283809
 23
18.5540027618
 33
0.0
 40
0.0
 40
0.0
 40
0.0
 40
0.0
 40
0.0624641427
 40
0.0937374636
 40
0.1250073496
 40
0.1874838676
 40
0.2499652149
 40
0.2812455627
 40
0.3125266987
 40
0.3750160926
 40
0.4375075612
 40
0.5000000212
 40
0.5624924809
 40
0.6249839473
 40
0.687473341
 40
0.7187544743
 40
0.7500348203
 40
0.8125161713
 40
0.8749926769
 40
0.9062625851
 40
0.9375358939
 40
1.0
 40
1.0
 40
1.0
 40
1.0
 10
-5.9145545495
 20
16.0048014404
 30
0.0
 10
-5.9143064621
 20
15.6184814785
 30
0.0
 10
-5.8567896438
 20
15.0366924873
 30
0.0
 10
-5.6683893203
 20
14.2859523336
 30
0.0
 10
-5.4074661357
 20
13.556901741
 30
0.0
 10
-4.9490293466
 20
12.6988909773
 30
0.0
 10
-4.3317615167
 20
11.9468845069
 30
0.0
 10
-3.7579748442
 20
11.4267656621
 30
0.0
 10
-3.1360336207
 20
10.9652568468
 30
0.0
 10
-2.2778820005
 20
10.50626015
 30
0.0
 10
-1.1613621308
 20
10.1674978562
 30
0.0
 10
0.0000001074
 20
10.0530281144
 30
0.0
 10
1.1613623201
 20
10.1674980457
 30
0.0
 10
2.2778820894
 20
10.5062605994
 30
0.0
 10
3.1360336428
 20
10.9652573204
 30
0.0
 10
3.757974785
 20
11.4267662457
 30
0.0
 10
4.3317609816
 20
11.946885516
 30
0.0
 10
4.9490301894
 20
12.6988909993
 30
0.0
 10
5.4074639063
 20
13.5569034935
 30
0.0
 10
5.6683890901
 20
14.2859531198
 30
0.0
 10
5.8567922947
 20
15.0366928048
 30
0.0
 10
5.91430202
 20
15.6184817082
 30
0.0
 10
5.9145545495
 20
16.0048014404
 30
0.0
 11
-5.9145545495
 21
16.0048014404
 31
0.0
 11
-5.8004588851
 21
14.8514711539
 31
0.0
 11
-5.6593152868
 21
14.2886539406
 31
0.0
 11
-5.4637579154
 21
13.7424231371
 31
0.0
 11
-4.9172942141
 21
12.7201226607
 31
0.0
 11
-4.1819318666
 21
11.8239246905
 31
0.0
 11
-3.7519604419
 21
11.4341034192
 31
0.0
 11
-3.285840117
 21
11.0882929685
 31
0.0
 11
-2.2634001152
 21
10.5415835375
 31
0.0
 11
-1.1538974885
 21
10.2048819712
 31
0.0
 11
0.0000001075
 21
10.0911849286
 31
0.0
 11
1.1538976772
 21
10.2048821745
 31
0.0
 11
2.2634001995
 21
10.5415839453
 31
0.0
 11
3.2858401358
 21
11.0882934902
 31
0.0
 11
3.7519603265
 21
11.434104036
 31
0.0
 11
4.1819315593
 21
11.8239254705
 31
0.0
 11
4.9172942085
 21
12.7201232826
 31
0.0
 11
5.4637564774
 21
13.7424242646
 31
0.0
 11
5.6593152314
 21
14.2886550108
 31
0.0
 11
5.8004598166
 21
14.8514717454
 31
0.0
 11
5.9145545495
 21
16.0048014404
 31
0.0
  0
SPLINE
  5
3E2
100
AcDbEntity
  8
RACCORDO
100
AcDbSpline
 62
253
  6
CONTINUOUS
 70
0
 71
3
 72
16
 73
12
 74
10
 42
0.0000001
 43
0.0000001
 44
0.0000000001
 12
0.1503789514
 22
-0.0001080213
 32
0.0
 13
0.0589262938
 23
-0.1383529277
 33
0.0
 40
0.0
 40
0.0
 40
0.0
 40
0.0
 40
0.3772064458
 40
0.5488617878
 40
0.6993392616
 40
0.8235799225
 40
0.9168567645
 40
0.9508570842
 40
0.9761058998
 40
0.9924269904
 40
1.0
 40
1.0
 40
1.0
 40
1.0
 10
5.9174912485
 20
20.5993430312
 30
0.0
 10
5.9363992184
 20
20.5993294491
 30
0.0
 10
5.9639134015
 20
20.5991011845
 30
0.0
 10
5.9989584625
 20
20.598339508
 30
0.0
 10
6.0213277536
 20
20.5976022346
 30
0.0
 10
6.0397375203
 20
20.5967145725
 30
0.0
 10
6.0523516184
 20
20.5958404724
 30
0.0
 10
6.0599061933
 20
20.595012896
 30
0.0
 10
6.0637405101
 20
20.5944789171
 30
0.0
 10
6.0659826969
 20
20.593921647
 30
0.0
 10
6.067319652
 20
20.5935132192
 30
0.0
 10
6.0674684018
 20
20.5931639698
 30
0.0
 11
5.9174912485
 21
20.5993430312
 31
0.0
 11
5.9742129528
 21
20.5988411678
 31
0.0
 11
6.0000198785
 21
20.598264985
 31
0.0
 11
6.0226354666
 21
20.5974962187
 31
0.0
 11
6.0412954021
 21
20.5965644388
 31
0.0
 11
6.0552819195
 21
20.5955011336
 31
0.0
 11
6.0603632364
 21
20.59493341
 31
0.0
 11
6.0641150837
 21
20.5943502924
 31
0.0
 11
6.0664969694
 21
20.5937583045
 31
0.0
 11
6.0674684018
 21
20.5931639698
 31
0.0
  0
SPLINE
  5
3E3
100
AcDbEntity
  8
RACCORDO
100
AcDbSpline
 62
253
  6
CONTINUOUS
 70
0
 71
3
 72
18
 73
14
 74
12
 42
0.0000001
 43
0.0000001
 44
0.0000000001
 12
0.4064008544
 22
-1.2275272603
 32
0.0
 13
0.0009377905
 23
-1.2930521837
 33
0.0
 40
0.0
 40
0.0
 40
0.0
 40
0.0
 40
0.0096384671
 40
0.0279801136
 40
0.0549393542
 40
0.090317562
 40
0.1337881088
 40
0.1850035371
 40
0.3088391058
 40
0.4576457415
 40
0.6263072157
 40
0.8092447724
 40
1.0
 40
1.0
 40
1.0
 40
1.0
 10
-6.0897794715
 20
21.8856956136
 30
0.0
 10
-6.0884737778
 20
21.8817517865
 30
0.0
 10
-6.0872053031
 20
21.8696341172
 30
0.0
 10
-6.0850126634
 20
21.846141265
 30
0.0
 10
-6.0831488797
 20
21.811369
 30
0.0
 10
-6.0811436987
 20
21.7658263113
 30
0.0
 10
-6.0792633595
 20
21.7097902561
 30
0.0
 10
-6.0766773676
 20
21.6156419066
 30
0.0
 10
-6.0739003734
 20
21.4760775623
 30
0.0
 10
-6.0712436399
 20
21.2858867028
 30
0.0
 10
-6.0692180125
 20
21.0702116683
 30
0.0
 10
-6.0678993786
 20
20.8364508541
 30
0.0
 10
-6.0675280322
 20
20.675382791
 30
0.0
 10
-6.0674684028
 20
20.5931639698
 30
0.0
 11
-6.0897794715
 21
21.8856956136
 31
0.0
 11
-6.0876178717
 21
21.8734214555
 31
0.0
 11
-6.085481421
 21
21.8498011672
 31
0.0
 11
-6.0833917541
 21
21.815004142
 31
0.0
 11
-6.0813683957
 21
21.76930303
 31
0.0
 11
-6.0794276752
 21
21.7131268428
 31
0.0
 11
-6.0775855954
 21
21.6469282284
 31
0.0
 11
-6.0742581786
 21
21.4868369093
 31
0.0
 11
-6.0715007325
 21
21.2944418727
 31
0.0
 11
-6.0694065998
 21
21.0763637822
 31
0.0
 11
-6.0680471299
 21
20.8398198193
 31
0.0
 11
-6.0674684028
 21
20.5931639698
 31
0.0
  0
SPLINE
  5
3E4
100
AcDbEntity
  8
RACCORDO
100
AcDbSpline
 62
253
  6
CONTINUOUS
 70
0
 71
3
 72
18
 73
14
 74
12
 42
0.0000001
 43
0.0000001
 44
0.0000000001
 12
0.4120110608
 22
-1.3765225644
 32
0.0
 13
0.0009389165
 23
-1.4368599803
 33
0.0
 40
0.0
 40
0.0
 40
0.0
 40
0.0
 40
0.0095963562
 40
0.0279186371
 40
0.0548651515
 40
0.0902324927
 40
0.1336954732
 40
0.1849085785
 40
0.3087527817
 40
0.4575740509
 40
0.6262557871
 40
0.8092199966
 40
1.0
 40
1.0
 40
1.0
 40
1.0
 10
-5.9398058899
 20
22.0355021442
 30
0.0
 10
-5.9384879549
 20
22.0310989439
 30
0.0
 10
-5.9372379867
 20
22.0176695806
 30
0.0
 10
-5.9350329646
 20
21.9915642899
 30
0.0
 10
-5.933175369
 20
21.9529429244
 30
0.0
 10
-5.9311671317
 20
21.9023377824
 30
0.0
 10
-5.9292873262
 20
21.840074237
 30
0.0
 10
-5.9267002795
 20
21.7354477799
 30
0.0
 10
-5.9239230773
 20
21.5803465112
 30
0.0
 10
-5.9212657704
 20
21.3689786661
 30
0.0
 10
-5.9192400482
 20
21.1292858769
 30
0.0
 10
-5.9179216184
 20
20.8694921401
 30
0.0
 10
-5.9175503613
 20
20.6904861296
 30
0.0
 10
-5.9174906525
 20
20.5991114123
 30
0.0
 11
-5.9398058899
 21
22.0355021442
 31
0.0
 11
-5.9376437759
 21
22.0218840903
 31
0.0
 11
-5.9355067757
 21
21.9956444091
 31
0.0
 11
-5.9334165638
 21
21.9569824939
 31
0.0
 11
-5.9313927188
 21
21.9062048821
 31
0.0
 11
-5.9294515574
 21
21.8437848275
 31
0.0
 11
-5.9276090583
 21
21.770221821
 31
0.0
 11
-5.9242809092
 21
21.5923061295
 31
0.0
 11
-5.9215229936
 21
21.3784885437
 31
0.0
 11
-5.9194287025
 21
21.136125504
 31
0.0
 11
-5.9180693506
 21
20.8732350119
 31
0.0
 11
-5.9174906525
 21
20.5991114123
 31
0.0
  0
LINE
  5
3E5
100
AcDbEntity
  8
RACCORDO
100
AcDbLine
 62
253
  6
CONTINUOUS
 10
-6.0674684028
 20
20.5931639698
 11
-6.0645318497
 21
16.0002490625
  0
SPLINE
  5
3E6
100
AcDbEntity
  8
RACCORDO
100
AcDbSpline
 62
253
  6
CONTINUOUS
 70
0
 71
3
 72
16
 73
12
 74
10
 42
0.0000001
 43
0.0000001
 44
0.0000000001
 12
-0.1503793064
 22
-0.0001080498
 32
0.0
 13
-0.0586072615
 23
-0.138488759
 33
0.0
 40
0.0
 40
0.0
 40
0.0
 40
0.0
 40
0.3772318919
 40
0.5488959858
 40
0.6993775416
 40
0.8236169097
 40
0.916886509
 40
0.9508809963
 40
0.9761226224
 40
0.9924353578
 40
1.0
 40
1.0
 40
1.0
 40
1.0
 10
-5.9174912485
 20
20.599343773
 30
0.0
 10
-5.9364005386
 20
20.5993301864
 30
0.0
 10
-5.9639165054
 20
20.5991018861
 30
0.0
 10
-5.9989635554
 20
20.5983400983
 30
0.0
 10
-6.0213335003
 20
20.5976027188
 30
0.0
 10
-6.0397430128
 20
20.5967149712
 30
0.0
 10
-6.0523565637
 20
20.5958407317
 30
0.0
 10
-6.0599099196
 20
20.5950131249
 30
0.0
 10
-6.0637435046
 20
20.5944789855
 30
0.0
 10
-6.0659838443
 20
20.5939219823
 30
0.0
 10
-6.0673206218
 20
20.5935131758
 30
0.0
 10
-6.0674684028
 20
20.5931639698
 30
0.0
 11
-5.9174912485
 21
20.599343773
 31
0.0
 11
-5.9742169126
 21
20.5988418261
 31
0.0
 11
-6.0000252138
 21
20.5982655562
 31
0.0
 11
-6.0226414658
 21
20.5974966807
 31
0.0
 11
-6.0413012447
 21
20.5965647788
 31
0.0
 11
-6.0552866935
 21
20.5955013487
 31
0.0
 11
-6.0603671333
 21
20.5949335649
 31
0.0
 11
-6.0641178867
 21
20.5943503905
 31
0.0
 11
-6.0664984708
 21
20.5937583504
 31
0.0
 11
-6.0674684028
 21
20.5931639698
 31
0.0
  0
SPLINE
  5
3E7
100
AcDbEntity
  8
RACCORDO
100
AcDbSpline
 62
253
  6
CONTINUOUS
 70
0
 71
3
 72
18
 73
14
 74
12
 42
0.0000001
 43
0.0000001
 44
0.0000000001
 12
0.0009389165
 22
1.4368599804
 32
0.0
 13
0.4120110596
 23
1.3765225649
 33
0.0
 40
0.0
 40
0.0
 40
0.0
 40
0.0
 40
0.1907800034
 40
0.3737442129
 40
0.5424259492
 40
0.6912472184
 40
0.8150914216
 40
0.8663045268
 40
0.9097675074
 40
0.9451348486
 40
0.972081363
 40
0.9904036438
 40
1.0
 40
1.0
 40
1.0
 40
1.0
 10
5.9174906525
 20
20.5991114122
 30
0.0
 10
5.9175503613
 20
20.6904861295
 30
0.0
 10
5.9179216184
 20
20.86949214
 30
0.0
 10
5.9192400482
 20
21.1292858769
 30
0.0
 10
5.9212657704
 20
21.3689786662
 30
0.0
 10
5.9239230773
 20
21.5803465113
 30
0.0
 10
5.9267002795
 20
21.73544778
 30
0.0
 10
5.9292873262
 20
21.8400742372
 30
0.0
 10
5.9311671317
 20
21.9023377826
 30
0.0
 10
5.933175369
 20
21.9529429245
 30
0.0
 10
5.9350329647
 20
21.99156429
 30
0.0
 10
5.9372379867
 20
22.0176695806
 30
0.0
 10
5.9384879549
 20
22.031098944
 30
0.0
 10
5.9398058899
 20
22.0355021442
 30
0.0
 11
5.9174906525
 21
20.5991114122
 31
0.0
 11
5.9180693506
 21
20.8732350118
 31
0.0
 11
5.9194287025
 21
21.1361255041
 31
0.0
 11
5.9215229936
 21
21.3784885438
 31
0.0
 11
5.9242809092
 21
21.5923061297
 31
0.0
 11
5.9276090583
 21
21.7702218211
 31
0.0
 11
5.9294515574
 21
21.8437848277
 31
0.0
 11
5.9313927188
 21
21.9062048822
 31
0.0
 11
5.9334165639
 21
21.956982494
 31
0.0
 11
5.9355067757
 21
21.9956444092
 31
0.0
 11
5.9376437759
 21
22.0218840904
 31
0.0
 11
5.9398058899
 21
22.0355021442
 31
0.0
  0
SPLINE
  5
3E8
100
AcDbEntity
  8
RACCORDO
100
AcDbSpline
 62
253
  6
CONTINUOUS
 70
0
 71
3
 72
18
 73
14
 74
12
 42
0.0000001
 43
0.0000001
 44
0.0000000001
 12
0.0009377905
 22
1.2930521837
 32
0.0
 13
0.4064008508
 23
1.2275272615
 33
0.0
 40
0.0
 40
0.0
 40
0.0
 40
0.0
 40
0.1907552276
 40
0.3736927843
 40
0.5423542585
 40
0.6911608942
 40
0.8149964629
 40
0.8662118912
 40
0.909682438
 40
0.9450606458
 40
0.9720198864
 40
0.9903615329
 40
1.0
 40
1.0
 40
1.0
 40
1.0
 10
6.0674684028
 20
20.5931639698
 30
0.0
 10
6.0675280322
 20
20.675382791
 30
0.0
 10
6.0678993786
 20
20.8364508541
 30
0.0
 10
6.0692180125
 20
21.0702116683
 30
0.0
 10
6.0712436399
 20
21.2858867028
 30
0.0
 10
6.0739003734
 20
21.4760775623
 30
0.0
 10
6.0766773676
 20
21.6156419066
 30
0.0
 10
6.0792633595
 20
21.7097902561
 30
0.0
 10
6.0811436987
 20
21.7658263113
 30
0.0
 10
6.0831488797
 20
21.811369
 30
0.0
 10
6.0850126634
 20
21.8461412651
 30
0.0
 10
6.0872053031
 20
21.8696341172
 30
0.0
 10
6.0884737778
 20
21.8817517865
 30
0.0
 10
6.0897794715
 20
21.8856956136
 30
0.0
 11
6.0674684028
 21
20.5931639698
 31
0.0
 11
6.0680471299
 21
20.8398198193
 31
0.0
 11
6.0694065998
 21
21.0763637822
 31
0.0
 11
6.0715007325
 21
21.2944418726
 31
0.0
 11
6.0742581786
 21
21.4868369093
 31
0.0
 11
6.0775855954
 21
21.6469282284
 31
0.0
 11
6.0794276752
 21
21.7131268428
 31
0.0
 11
6.0813683957
 21
21.76930303
 31
0.0
 11
6.0833917541
 21
21.8150041421
 31
0.0
 11
6.085481421
 21
21.8498011672
 31
0.0
 11
6.0876178717
 21
21.8734214555
 31
0.0
 11
6.0897794715
 21
21.8856956136
 31
0.0
  0
LINE
  5
3E9
100
AcDbEntity
  8
RACCORDO
100
AcDbLine
 62
253
  6
CONTINUOUS
 10
6.0645317038
 20
16.0
 11
6.0674684028
 21
20.5931639698
  0
SPLINE
  5
3EA
100
AcDbEntity
  8
RACCORDO
100
AcDbSpline
 62
253
  6
CONTINUOUS
 70
0
 71
3
 72
16
 73
12
 74
10
 42
0.0000001
 43
0.0000001
 44
0.0000000001
 12
-0.1502185859
 22
-0.000084044
 32
0.0
 13
-0.0718725359
 23
-0.1319089428
 33
0.0
 40
0.0
 40
0.0
 40
0.0
 40
0.0
 40
0.3776185725
 40
0.549443351
 40
0.7000459113
 40
0.8243522645
 40
0.9176119705
 40
0.9515584992
 40
0.9767080425
 40
0.9928484564
 40
1.0
 40
1.0
 40
1.0
 40
1.0
 10
-5.9145545495
 20
16.0048014373
 30
0.0
 10
-5.9334629922
 20
16.0047908584
 30
0.0
 10
-5.9609767202
 20
16.0046138269
 30
0.0
 10
-5.9960227135
 20
16.0040210904
 30
0.0
 10
-6.0183911467
 20
16.0034502528
 30
0.0
 10
-6.0367968872
 20
16.0027549537
 30
0.0
 10
-6.0494112337
 20
16.0020883888
 30
0.0
 10
-6.0569619606
 20
16.0014279181
 30
0.0
 10
-6.0607977325
 20
16.0010442114
 30
0.0
 10
-6.0630122356
 20
16.0005552779
 30
0.0
 10
-6.0643555493
 20
16.0003144513
 30
0.0
 10
-6.0645268825
 20
16.0000000004
 30
0.0
 11
-5.9145545495
 21
16.0048014373
 31
0.0
 11
-5.9712785454
 21
16.0044113951
 31
0.0
 11
-5.9970859409
 21
16.0039636475
 31
0.0
 11
-6.0197013595
 21
16.0033662635
 31
0.0
 11
-6.0383604447
 21
16.002642224
 31
0.0
 11
-6.0523454028
 21
16.001816
 31
0.0
 11
-6.0574256868
 21
16.0013748662
 31
0.0
 11
-6.061176348
 21
16.0009217754
 31
0.0
 11
-6.0635569065
 21
16.0004617971
 31
0.0
 11
-6.0645268825
 21
16.0000000004
 31
0.0
  0
SPLINE
  5
3EB
100
AcDbEntity
  8
RACCORDO
100
AcDbSpline
 62
253
  6
CONTINUOUS
 70
0
 71
3
 72
16
 73
12
 74
10
 42
0.0000001
 43
0.0000001
 44
0.0000000001
 12
0.1502234069
 22
-0.0000838913
 32
0.0
 13
0.0718745299
 23
-0.1319133464
 33
0.0
 40
0.0
 40
0.0
 40
0.0
 40
0.0
 40
0.3776162443
 40
0.5494410665
 40
0.7000440997
 40
0.8243511152
 40
0.9176114425
 40
0.9515582143
 40
0.9767079371
 40
0.9928484521
 40
1.0
 40
1.0
 40
1.0
 40
1.0
 10
5.9145545495
 20
16.0048014404
 30
0.0
 10
5.9334634824
 20
16.0047908809
 30
0.0
 10
5.9609779792
 20
16.0046138685
 30
0.0
 10
5.996025007
 20
16.0040211462
 30
0.0
 10
6.0183942178
 20
16.0034503099
 30
0.0
 10
6.0368006371
 20
16.0027550043
 30
0.0
 10
6.0494154667
 20
16.0020884309
 30
0.0
 10
6.0569664874
 20
16.0014279463
 30
0.0
 10
6.0608024124
 20
16.001044235
 30
0.0
 10
6.0630169964
 20
16.0005552861
 30
0.0
 10
6.0643603658
 20
16.0003144615
 30
0.0
 10
6.0645317038
 20
16.0
 30
0.0
 11
5.9145545495
 21
16.0048014404
 31
0.0
 11
5.9712800165
 21
16.0044114415
 31
0.0
 11
5.9970882471
 21
16.0039637029
 31
0.0
 11
6.0197044631
 21
16.0033663197
 31
0.0
 11
6.0383642473
 21
16.0026422733
 31
0.0
 11
6.0523497486
 21
16.0018160363
 31
0.0
 11
6.0574302327
 21
16.0013748941
 31
0.0
 11
6.0611810421
 21
16.0009217943
 31
0.0
 11
6.0635616935
 21
16.0004618064
 31
0.0
 11
6.0645317038
 21
16.0
 31
0.0
  0
SPLINE
  5
3EC
100
AcDbEntity
  8
RACCORDO
100
AcDbSpline
 62
253
  6
CONTINUOUS
 70
0
 71
3
 72
13
 73
9
 74
7
 42
0.0000001
 43
0.0000001
 44
0.0000000001
 12
0.29481927
 22
-0.0555116966
 32
0.0
 13
0.2983233077
 23
-0.0316726149
 33
0.0
 40
0.0
 40
0.0
 40
0.0
 40
0.0
 40
0.0221809165
 40
0.081083449
 40
0.174523713
 40
0.29902456
 40
0.6212619214
 40
1.0
 40
1.0
 40
1.0
 40
1.0
 10
21.3527966724
 20
-0.6743144952
 30
0.0
 10
21.3549764596
 20
-0.6747249287
 30
0.0
 10
21.3630786645
 20
-0.6753550881
 30
0.0
 10
21.3803859798
 20
-0.6775152908
 30
0.0
 10
21.4079300045
 20
-0.6803700714
 30
0.0
 10
21.4616249787
 20
-0.6862324161
 30
0.0
 10
21.543711902
 20
-0.6949661671
 30
0.0
 10
21.6134132586
 20
-0.7024004424
 30
0.0
 10
21.6510753907
 20
-0.7063989842
 30
0.0
 11
21.3527966724
 21
-0.6743144952
 31
0.0
 11
21.3594046999
 21
-0.675097645
 31
0.0
 11
21.3769682969
 21
-0.6770407454
 31
0.0
 11
21.4048360546
 21
-0.6800714403
 31
0.0
 11
21.4419708917
 21
-0.6840770097
 31
0.0
 11
21.5380923141
 21
-0.6943721313
 31
0.0
 11
21.6510753907
 21
-0.7063989842
 31
0.0
  0
SPLINE
  5
3ED
100
AcDbEntity
  8
RACCORDO
100
AcDbSpline
 62
253
  6
CONTINUOUS
 70
0
 71
3
 72
18
 73
14
 74
12
 42
0.0000001
 43
0.0000001
 44
0.0000000001
 12
0.0010378821
 22
0.9582956605
 32
0.0
 13
0.4275397114
 23
0.8576371292
 33
0.0
 40
0.0
 40
0.0
 40
0.0
 40
0.0
 40
0.1907333883
 40
0.3735187457
 40
0.5421441303
 40
0.6908803131
 40
0.8146838338
 40
0.8658866496
 40
0.909368832
 40
0.9447571035
 40
0.9717720519
 40
0.9901986559
 40
1.0
 40
1.0
 40
1.0
 40
1.0
 10
22.1619961638
 20
20.5787444292
 30
0.0
 10
22.16206215
 20
20.6396707553
 30
0.0
 10
22.1624742722
 20
20.7589845084
 30
0.0
 10
22.1639415474
 20
20.9321571207
 30
0.0
 10
22.166191183
 20
21.0919057606
 30
0.0
 10
22.1691451752
 20
21.2327969454
 30
0.0
 10
22.1722302051
 20
21.336170265
 30
0.0
 10
22.1751040931
 20
21.4058995299
 30
0.0
 10
22.1771970056
 20
21.4474073354
 30
0.0
 10
22.1794156486
 20
21.4811319211
 30
0.0
 10
22.1815145537
 20
21.506935076
 30
0.0
 10
22.1838936801
 20
21.5242978303
 30
0.0
 10
22.1853925663
 20
21.5333732775
 30
0.0
 10
22.1867893876
 20
21.5361752764
 30
0.0
 11
22.1619961638
 21
20.5787444292
 31
0.0
 11
22.1626391752
 21
20.7615223837
 31
0.0
 11
22.1641501996
 21
20.9366783837
 31
0.0
 11
22.1664775715
 21
21.0982546918
 31
0.0
 11
22.1695421113
 21
21.2407550655
 31
0.0
 11
22.1732394519
 21
21.3593378854
 31
0.0
 11
22.1752869623
 21
21.408362612
 31
0.0
 11
22.1774438154
 21
21.4499755643
 31
0.0
 11
22.179691714
 21
21.4838134278
 31
0.0
 11
22.1820121939
 21
21.5095975438
 31
0.0
 11
22.1843858197
 21
21.5270954291
 31
0.0
 11
22.1867893876
 21
21.5361752764
 31
0.0
  0
SPLINE
  5
3EE
100
AcDbEntity
  8
RACCORDO
100
AcDbSpline
 62
253
  6
CONTINUOUS
 70
0
 71
3
 72
18
 73
14
 74
12
 42
0.0000001
 43
0.0000001
 44
0.0000000001
 12
-0.4275397132
 22
0.8576371283
 32
0.0
 13
-0.0010378821
 23
0.9582956605
 33
0.0
 40
0.0
 40
0.0
 40
0.0
 40
0.0
 40
0.0098013441
 40
0.0282279482
 40
0.0552428965
 40
0.090631168
 40
0.1341133504
 40
0.1853161662
 40
0.3091196869
 40
0.4578558697
 40
0.6264812543
 40
0.8092666117
 40
1.0
 40
1.0
 40
1.0
 40
1.0
 10
22.1867893876
 20
-21.5361752764
 30
0.0
 10
22.1853925663
 20
-21.5333732775
 30
0.0
 10
22.1838936802
 20
-21.5242978303
 30
0.0
 10
22.1815145537
 20
-21.506935076
 30
0.0
 10
22.1794156486
 20
-21.4811319211
 30
0.0
 10
22.1771970056
 20
-21.4474073354
 30
0.0
 10
22.1751040931
 20
-21.4058995299
 30
0.0
 10
22.1722302051
 20
-21.336170265
 30
0.0
 10
22.1691451752
 20
-21.2327969454
 30
0.0
 10
22.166191183
 20
-21.0919057606
 30
0.0
 10
22.1639415474
 20
-20.9321571207
 30
0.0
 10
22.1624742722
 20
-20.7589845084
 30
0.0
 10
22.16206215
 20
-20.6396707553
 30
0.0
 10
22.1619961638
 20
-20.5787444292
 30
0.0
 11
22.1867893876
 21
-21.5361752764
 31
0.0
 11
22.1843858197
 21
-21.5270954291
 31
0.0
 11
22.1820121939
 21
-21.5095975438
 31
0.0
 11
22.179691714
 21
-21.4838134278
 31
0.0
 11
22.1774438154
 21
-21.4499755643
 31
0.0
 11
22.1752869623
 21
-21.408362612
 31
0.0
 11
22.1732394519
 21
-21.3593378853
 31
0.0
 11
22.1695421113
 21
-21.2407550655
 31
0.0
 11
22.1664775715
 21
-21.0982546918
 31
0.0
 11
22.1641501996
 21
-20.9366783837
 31
0.0
 11
22.1626391752
 21
-20.7615223837
 31
0.0
 11
22.1619961638
 21
-20.5787444292
 31
0.0
  0
SPLINE
  5
3EF
100
AcDbEntity
  8
RACCORDO
100
AcDbSpline
 62
253
  6
CONTINUOUS
 70
0
 71
3
 72
18
 73
14
 74
12
 42
0.0000001
 43
0.0000001
 44
0.0000000001
 12
-0.0010378821
 22
-0.9582956605
 32
0.0
 13
-0.4275397114
 23
-0.8576371292
 33
0.0
 40
0.0
 40
0.0
 40
0.0
 40
0.0
 40
0.1907333883
 40
0.3735187457
 40
0.5421441303
 40
0.6908803131
 40
0.8146838338
 40
0.8658866496
 40
0.909368832
 40
0.9447571035
 40
0.9717720519
 40
0.9901986559
 40
1.0
 40
1.0
 40
1.0
 40
1.0
 10
-22.1619961638
 20
-20.5787444292
 30
0.0
 10
-22.16206215
 20
-20.6396707553
 30
0.0
 10
-22.1624742722
 20
-20.7589845084
 30
0.0
 10
-22.1639415474
 20
-20.9321571207
 30
0.0
 10
-22.166191183
 20
-21.0919057606
 30
0.0
 10
-22.1691451752
 20
-21.2327969454
 30
0.0
 10
-22.1722302051
 20
-21.336170265
 30
0.0
 10
-22.1751040931
 20
-21.4058995299
 30
0.0
 10
-22.1771970056
 20
-21.4474073354
 30
0.0
 10
-22.1794156486
 20
-21.4811319211
 30
0.0
 10
-22.1815145537
 20
-21.506935076
 30
0.0
 10
-22.1838936801
 20
-21.5242978303
 30
0.0
 10
-22.1853925663
 20
-21.5333732775
 30
0.0
 10
-22.1867893876
 20
-21.5361752764
 30
0.0
 11
-22.1619961638
 21
-20.5787444292
 31
0.0
 11
-22.1626391752
 21
-20.7615223837
 31
0.0
 11
-22.1641501996
 21
-20.9366783837
 31
0.0
 11
-22.1664775715
 21
-21.0982546918
 31
0.0
 11
-22.1695421113
 21
-21.2407550655
 31
0.0
 11
-22.1732394519
 21
-21.3593378854
 31
0.0
 11
-22.1752869623
 21
-21.408362612
 31
0.0
 11
-22.1774438154
 21
-21.4499755643
 31
0.0
 11
-22.179691714
 21
-21.4838134278
 31
0.0
 11
-22.1820121939
 21
-21.5095975438
 31
0.0
 11
-22.1843858197
 21
-21.5270954291
 31
0.0
 11
-22.1867893876
 21
-21.5361752764
 31
0.0
  0
SPLINE
  5
3F0
100
AcDbEntity
  8
RACCORDO
100
AcDbSpline
 62
253
  6
CONTINUOUS
 70
0
 71
3
 72
18
 73
14
 74
12
 42
0.0000001
 43
0.0000001
 44
0.0000000001
 12
0.4275397132
 22
-0.8576371283
 32
0.0
 13
0.0010378821
 23
-0.9582956605
 33
0.0
 40
0.0
 40
0.0
 40
0.0
 40
0.0
 40
0.0098013441
 40
0.0282279482
 40
0.0552428965
 40
0.090631168
 40
0.1341133504
 40
0.1853161662
 40
0.3091196869
 40
0.4578558697
 40
0.6264812543
 40
0.8092666117
 40
1.0
 40
1.0
 40
1.0
 40
1.0
 10
-22.1867893876
 20
21.5361752764
 30
0.0
 10
-22.1853925663
 20
21.5333732775
 30
0.0
 10
-22.1838936802
 20
21.5242978303
 30
0.0
 10
-22.1815145537
 20
21.506935076
 30
0.0
 10
-22.1794156486
 20
21.4811319211
 30
0.0
 10
-22.1771970056
 20
21.4474073354
 30
0.0
 10
-22.1751040931
 20
21.4058995299
 30
0.0
 10
-22.1722302051
 20
21.336170265
 30
0.0
 10
-22.1691451752
 20
21.2327969454
 30
0.0
 10
-22.166191183
 20
21.0919057606
 30
0.0
 10
-22.1639415474
 20
20.9321571207
 30
0.0
 10
-22.1624742722
 20
20.7589845084
 30
0.0
 10
-22.16206215
 20
20.6396707553
 30
0.0
 10
-22.1619961638
 20
20.5787444292
 30
0.0
 11
-22.1867893876
 21
21.5361752764
 31
0.0
 11
-22.1843858197
 21
21.5270954291
 31
0.0
 11
-22.1820121939
 21
21.5095975438
 31
0.0
 11
-22.179691714
 21
21.4838134278
 31
0.0
 11
-22.1774438154
 21
21.4499755643
 31
0.0
 11
-22.1752869623
 21
21.408362612
 31
0.0
 11
-22.1732394519
 21
21.3593378853
 31
0.0
 11
-22.1695421113
 21
21.2407550655
 31
0.0
 11
-22.1664775715
 21
21.0982546918
 31
0.0
 11
-22.1641501996
 21
20.9366783837
 31
0.0
 11
-22.1626391752
 21
20.7615223837
 31
0.0
 11
-22.1619961638
 21
20.5787444292
 31
0.0
  0
LINE
  5
3F1
100
AcDbEntity
  8
RACCORDO
100
AcDbLine
 62
253
  6
CONTINUOUS
 10
6.7177509809
 20
28.4617715609
 11
6.7319425025
 21
28.4425028392
  0
SPLINE
  5
3F2
100
AcDbEntity
  8
RACCORDO
100
AcDbSpline
 62
253
  6
CONTINUOUS
 70
0
 71
3
 72
18
 73
14
 74
12
 42
0.0000001
 43
0.0000001
 44
0.0000000001
 12
-0.5011049133
 22
-0.0005401458
 32
0.0
 13
-0.2685076945
 23
-0.4230957857
 33
0.0
 40
0.0
 40
0.0
 40
0.0
 40
0.0
 40
0.1913053807
 40
0.3758639185
 40
0.5462542598
 40
0.6963786907
 40
0.8207630447
 40
0.8717754722
 40
0.91473215
 40
0.9492306309
 40
0.9749570847
 40
0.9918090739
 40
1.0
 40
1.0
 40
1.0
 40
1.0
 10
-21.6621675013
 20
20.5993437728
 30
0.0
 10
-21.69412219
 20
20.5993093285
 30
0.0
 10
-21.75690473
 20
20.5989940633
 30
0.0
 10
-21.8481411635
 20
20.5977998522
 30
0.0
 10
-21.9324881209
 20
20.5959314082
 30
0.0
 10
-22.0067587324
 20
20.5934608129
 30
0.0
 10
-22.0610831772
 20
20.5908801364
 30
0.0
 10
-22.0974638182
 20
20.5884705447
 30
0.0
 10
-22.1188819221
 20
20.5867209405
 30
0.0
 10
-22.1359414261
 20
20.584885269
 30
0.0
 10
-22.1488894645
 20
20.5831228461
 30
0.0
 10
-22.1567966827
 20
20.5812280152
 30
0.0
 10
-22.1612630549
 20
20.5798996113
 30
0.0
 10
-22.1619961638
 20
20.5787444292
 30
0.0
 11
-21.6621675013
 21
20.5993437728
 31
0.0
 11
-21.7580303884
 21
20.5988572077
 31
0.0
 11
-21.8505054054
 21
20.59762367
 31
0.0
 11
-21.93586696
 21
20.595688516
 31
0.0
 11
-22.0110513318
 21
20.5931229122
 31
0.0
 11
-22.0733039128
 21
20.590024353
 31
0.0
 11
-22.0988089609
 21
20.5883100959
 31
0.0
 11
-22.1202590717
 21
20.5865063635
 31
0.0
 11
-22.1374441902
 21
20.5846289166
 31
0.0
 11
-22.1501899999
 21
20.5826952082
 31
0.0
 11
-22.1584019214
 21
20.5807264662
 31
0.0
 11
-22.1619961638
 21
20.5787444292
 31
0.0
  0
SPLINE
  5
3F3
100
AcDbEntity
  8
RACCORDO
100
AcDbSpline
 62
253
  6
CONTINUOUS
 70
0
 71
3
 72
9
 73
5
 74
3
 42
0.0000001
 43
0.0000001
 44
0.0000000001
 12
0.0000369859
 22
-0.7140423703
 32
0.0
 13
0.1830727552
 23
-0.6901745245
 33
0.0
 40
0.0
 40
0.0
 40
0.0
 40
0.0
 40
0.5000217991
 40
1.0
 40
1.0
 40
1.0
 40
1.0
 10
-21.7443703002
 20
0.0
 30
0.0
 10
-21.7443641356
 20
-0.1190122502
 30
0.0
 10
-21.7284706278
 20
-0.3572911996
 30
0.0
 10
-21.6815861863
 20
-0.5913749109
 30
0.0
 10
-21.6510753907
 20
-0.7063989832
 30
0.0
 11
-21.7443703002
 21
0.0
 31
0.0
 11
-21.7207215259
 21
-0.3562526871
 31
0.0
 11
-21.6510753907
 21
-0.7063989832
 31
0.0
  0
SPLINE
  5
3F4
100
AcDbEntity
  8
RACCORDO
100
AcDbSpline
 62
253
  6
CONTINUOUS
 70
0
 71
3
 72
9
 73
5
 74
3
 42
0.0000001
 43
0.0000001
 44
0.0000000001
 12
-0.1830783751
 22
-0.6901729827
 32
0.0
 13
-0.0000377478
 23
-0.7140423209
 33
0.0
 40
0.0
 40
0.0
 40
0.0
 40
0.0
 40
0.4999778669
 40
1.0
 40
1.0
 40
1.0
 40
1.0
 10
-21.6510753907
 20
0.7063989832
 30
0.0
 10
-21.6815871026
 20
0.5913752447
 30
0.0
 10
-21.7284694596
 20
0.357291056
 30
0.0
 10
-21.7443640087
 20
0.1190123215
 30
0.0
 10
-21.7443703002
 20
0.0
 30
0.0
 11
-21.6510753907
 21
0.7063989832
 31
0.0
 11
-21.7207211181
 21
0.3562528744
 31
0.0
 11
-21.7443703002
 21
0.0
 31
0.0
  0
SPLINE
  5
3F5
100
AcDbEntity
  8
RACCORDO
100
AcDbSpline
 62
253
  6
CONTINUOUS
 70
0
 71
3
 72
18
 73
14
 74
12
 42
0.0000001
 43
0.0000001
 44
0.0000000001
 12
-0.5011048051
 22
0.0005401271
 32
0.0
 13
-0.2685882054
 23
0.4230445524
 33
0.0
 40
0.0
 40
0.0
 40
0.0
 40
0.0
 40
0.191303797
 40
0.3758609856
 40
0.546250415
 40
0.6963744926
 40
0.8207591011
 40
0.8717718841
 40
0.9147290604
 40
0.9492281745
 40
0.9749553829
 40
0.9918082241
 40
1.0
 40
1.0
 40
1.0
 40
1.0
 10
-21.6621675013
 20
-20.5993434726
 30
0.0
 10
-21.6941219186
 20
-20.5993090298
 30
0.0
 10
-21.7569039551
 20
-20.5989937724
 30
0.0
 10
-21.848139727
 20
-20.5977995866
 30
0.0
 10
-21.9324862296
 20
-20.5959311787
 30
0.0
 10
-22.0067566592
 20
-20.593460626
 30
0.0
 10
-22.0610811328
 20
-20.5908799903
 30
0.0
 10
-22.0974619603
 20
-20.5884704351
 30
0.0
 10
-22.1188802964
 20
-20.5867208538
 30
0.0
 10
-22.1359401524
 20
-20.5848851965
 30
0.0
 10
-22.148888481
 20
-20.5831227979
 30
0.0
 10
-22.1567962772
 20
-20.5812279432
 30
0.0
 10
-22.161262759
 20
-20.5798995913
 30
0.0
 10
-22.1619961637
 20
-20.5787444292
 30
0.0
 11
-21.6621675013
 21
-20.5993434726
 31
0.0
 11
-21.7580295741
 21
-20.5988569198
 31
0.0
 11
-21.8505038954
 21
-20.5976234091
 31
0.0
 11
-21.9358649753
 21
-20.5956882936
 31
0.0
 11
-22.0110491553
 21
-20.5931227357
 31
0.0
 11
-22.0733018529
 21
-20.5900242253
 31
0.0
 11
-22.0988070757
 21
-20.5883099925
 31
0.0
 11
-22.1202574345
 21
-20.5865062836
 31
0.0
 11
-22.1374428708
 21
-20.5846288591
 31
0.0
 11
-22.1501890634
 21
-20.5826951718
 31
0.0
 11
-22.1584014266
 21
-20.580726449
 31
0.0
 11
-22.1619961637
 21
-20.5787444292
 31
0.0
  0
LINE
  5
3F6
100
AcDbEntity
  8
RACCORDO
100
AcDbLine
 62
253
  6
CONTINUOUS
 10
-6.7177509809
 20
-28.4617715609
 11
-6.7319425025
 21
-28.4425028392
  0
LINE
  5
3F7
100
AcDbEntity
  8
RACCORDO
100
AcDbLine
 62
253
  6
CONTINUOUS
 10
7.1840010288
 20
-28.7289625322
 11
7.17064049
 21
-28.75
  0
LINE
  5
3F8
100
AcDbEntity
  8
RACCORDO
100
AcDbLine
 62
253
  6
CONTINUOUS
 10
-7.17064049
 20
-28.75
 11
-7.1840010288
 21
-28.7289625322
  0
LINE
  5
3F9
100
AcDbEntity
  8
RACCORDO
100
AcDbLine
 62
253
  6
CONTINUOUS
 10
-7.1840010288
 20
28.7289625322
 11
-7.17064049
 21
28.75
  0
LINE
  5
3FA
100
AcDbEntity
  8
RACCORDO
100
AcDbLine
 62
253
  6
CONTINUOUS
 10
7.17064049
 20
28.75
 11
7.1840010288
 21
28.7289625322
  0
SPLINE
  5
3FB
100
AcDbEntity
  8
RACCORDO
100
AcDbSpline
 62
253
  6
CONTINUOUS
 70
0
 71
3
 72
18
 73
14
 74
12
 42
0.0000001
 43
0.0000001
 44
0.0000000001
 12
0.5011049133
 22
0.0005401458
 32
0.0
 13
0.2685076888
 23
0.4230957893
 33
0.0
 40
0.0
 40
0.0
 40
0.0
 40
0.0
 40
0.1913053808
 40
0.3758639187
 40
0.54625426
 40
0.696378691
 40
0.8207630449
 40
0.8717754725
 40
0.9147321502
 40
0.9492306311
 40
0.9749570848
 40
0.991809074
 40
1.0
 40
1.0
 40
1.0
 40
1.0
 10
21.6621675013
 20
-20.5993437728
 30
0.0
 10
21.6941221901
 20
-20.5993093286
 30
0.0
 10
21.7569047301
 20
-20.5989940633
 30
0.0
 10
21.8481411635
 20
-20.5977998522
 30
0.0
 10
21.932488121
 20
-20.5959314082
 30
0.0
 10
22.0067587326
 20
-20.5934608129
 30
0.0
 10
22.0610831774
 20
-20.5908801364
 30
0.0
 10
22.0974638183
 20
-20.5884705447
 30
0.0
 10
22.1188819222
 20
-20.5867209405
 30
0.0
 10
22.1359414262
 20
-20.584885269
 30
0.0
 10
22.1488894646
 20
-20.5831228461
 30
0.0
 10
22.1567966827
 20
-20.5812280152
 30
0.0
 10
22.1612630549
 20
-20.5798996113
 30
0.0
 10
22.1619961638
 20
-20.5787444292
 30
0.0
 11
21.6621675013
 21
-20.5993437728
 31
0.0
 11
21.7580303885
 21
-20.5988572077
 31
0.0
 11
21.8505054055
 21
-20.59762367
 31
0.0
 11
21.9358669601
 21
-20.595688516
 31
0.0
 11
22.011051332
 21
-20.5931229122
 31
0.0
 11
22.0733039129
 21
-20.590024353
 31
0.0
 11
22.0988089611
 21
-20.588310096
 31
0.0
 11
22.1202590718
 21
-20.5865063635
 31
0.0
 11
22.1374441903
 21
-20.5846289166
 31
0.0
 11
22.15019
 21
-20.5826952082
 31
0.0
 11
22.1584019214
 21
-20.5807264662
 31
0.0
 11
22.1619961638
 21
-20.5787444292
 31
0.0
  0
SPLINE
  5
3FC
100
AcDbEntity
  8
RACCORDO
100
AcDbSpline
 62
253
  6
CONTINUOUS
 70
0
 71
3
 72
9
 73
5
 74
3
 42
0.0000001
 43
0.0000001
 44
0.0000000001
 12
-0.0000369859
 22
0.7140423703
 32
0.0
 13
-0.1830727552
 23
0.6901745245
 33
0.0
 40
0.0
 40
0.0
 40
0.0
 40
0.0
 40
0.5000217991
 40
1.0
 40
1.0
 40
1.0
 40
1.0
 10
21.7443703002
 20
0.0
 30
0.0
 10
21.7443641356
 20
0.1190122502
 30
0.0
 10
21.7284706278
 20
0.3572911996
 30
0.0
 10
21.6815861863
 20
0.5913749109
 30
0.0
 10
21.6510753907
 20
0.7063989832
 30
0.0
 11
21.7443703002
 21
0.0
 31
0.0
 11
21.7207215259
 21
0.3562526871
 31
0.0
 11
21.6510753907
 21
0.7063989832
 31
0.0
  0
SPLINE
  5
3FD
100
AcDbEntity
  8
RACCORDO
100
AcDbSpline
 62
253
  6
CONTINUOUS
 70
0
 71
3
 72
9
 73
5
 74
3
 42
0.0000001
 43
0.0000001
 44
0.0000000001
 12
0.1830783751
 22
0.6901729827
 32
0.0
 13
0.0000377478
 23
0.7140423209
 33
0.0
 40
0.0
 40
0.0
 40
0.0
 40
0.0
 40
0.4999778669
 40
1.0
 40
1.0
 40
1.0
 40
1.0
 10
21.6510753907
 20
-0.7063989833
 30
0.0
 10
21.6815871026
 20
-0.5913752447
 30
0.0
 10
21.7284694596
 20
-0.357291056
 30
0.0
 10
21.7443640087
 20
-0.1190123215
 30
0.0
 10
21.7443703002
 20
0.0
 30
0.0
 11
21.6510753907
 21
-0.7063989833
 31
0.0
 11
21.7207211181
 21
-0.3562528744
 31
0.0
 11
21.7443703002
 21
0.0
 31
0.0
  0
SPLINE
  5
3FE
100
AcDbEntity
  8
RACCORDO
100
AcDbSpline
 62
253
  6
CONTINUOUS
 70
0
 71
3
 72
18
 73
14
 74
12
 42
0.0000001
 43
0.0000001
 44
0.0000000001
 12
0.5011048051
 22
-0.0005401271
 32
0.0
 13
0.2685882054
 23
-0.4230445524
 33
0.0
 40
0.0
 40
0.0
 40
0.0
 40
0.0
 40
0.191303797
 40
0.3758609856
 40
0.546250415
 40
0.6963744926
 40
0.8207591011
 40
0.8717718841
 40
0.9147290604
 40
0.9492281745
 40
0.9749553829
 40
0.9918082241
 40
1.0
 40
1.0
 40
1.0
 40
1.0
 10
21.6621675013
 20
20.5993434726
 30
0.0
 10
21.6941219186
 20
20.5993090298
 30
0.0
 10
21.7569039551
 20
20.5989937724
 30
0.0
 10
21.848139727
 20
20.5977995866
 30
0.0
 10
21.9324862296
 20
20.5959311787
 30
0.0
 10
22.0067566592
 20
20.593460626
 30
0.0
 10
22.0610811328
 20
20.5908799903
 30
0.0
 10
22.0974619603
 20
20.5884704351
 30
0.0
 10
22.1188802964
 20
20.5867208538
 30
0.0
 10
22.1359401524
 20
20.5848851965
 30
0.0
 10
22.148888481
 20
20.5831227979
 30
0.0
 10
22.1567962772
 20
20.5812279432
 30
0.0
 10
22.161262759
 20
20.5798995913
 30
0.0
 10
22.1619961637
 20
20.5787444292
 30
0.0
 11
21.6621675013
 21
20.5993434726
 31
0.0
 11
21.7580295741
 21
20.5988569198
 31
0.0
 11
21.8505038954
 21
20.5976234091
 31
0.0
 11
21.9358649753
 21
20.5956882936
 31
0.0
 11
22.0110491553
 21
20.5931227357
 31
0.0
 11
22.0733018529
 21
20.5900242253
 31
0.0
 11
22.0988070757
 21
20.5883099925
 31
0.0
 11
22.1202574345
 21
20.5865062836
 31
0.0
 11
22.1374428708
 21
20.5846288591
 31
0.0
 11
22.1501890634
 21
20.5826951718
 31
0.0
 11
22.1584014266
 21
20.580726449
 31
0.0
 11
22.1619961637
 21
20.5787444292
 31
0.0
  0
SPLINE
  5
3FF
100
AcDbEntity
  8
RACCORDO
100
AcDbSpline
 62
253
  6
CONTINUOUS
 70
0
 71
3
 72
18
 73
14
 74
12
 42
0.0000001
 43
0.0000001
 44
0.0000000001
 12
0.0009338297
 22
1.4366153821
 32
0.0
 13
0.4120741146
 23
1.3762483614
 33
0.0
 40
0.0
 40
0.0
 40
0.0
 40
0.0
 40
0.19082393
 40
0.3736965712
 40
0.5424010311
 40
0.6912033738
 40
0.8150491719
 40
0.8662601546
 40
0.909736611
 40
0.9450995757
 40
0.9720645736
 40
0.9904003921
 40
1.0
 40
1.0
 40
1.0
 40
1.0
 10
-6.580763245
 20
20.5993437728
 30
0.0
 10
-6.580703846
 20
20.6907239705
 30
0.0
 10
-6.5803330941
 20
20.8696766975
 30
0.0
 10
-6.5790128912
 20
21.129414263
 30
0.0
 10
-6.5769889604
 20
21.3690242316
 30
0.0
 10
-6.5743305064
 20
21.5803586496
 30
0.0
 10
-6.5715558707
 20
21.7354242442
 30
0.0
 10
-6.5689674961
 20
21.8400390444
 30
0.0
 10
-6.5670891322
 20
21.9022953729
 30
0.0
 10
-6.5650796886
 20
21.9529050525
 30
0.0
 10
-6.5632249597
 20
21.9915332362
 30
0.0
 10
-6.561022097
 20
22.0176510821
 30
0.0
 10
-6.5597707596
 20
22.0310862289
 30
0.0
 10
-6.5584521763
 20
22.0354900438
 30
0.0
 11
-6.580763245
 21
20.5993437728
 31
0.0
 11
-6.5801847059
 21
20.8734838133
 31
0.0
 11
-6.5788251853
 21
21.1361980004
 31
0.0
 11
-6.5767310966
 21
21.3785524269
 31
0.0
 11
-6.5739735814
 21
21.5923064207
 31
0.0
 11
-6.5706464699
 21
21.7701941253
 31
0.0
 11
-6.5688039
 21
21.8437415492
 31
0.0
 11
-6.5668628894
 21
21.9061703412
 31
0.0
 11
-6.564839913
 21
21.9569330374
 31
0.0
 11
-6.5627515752
 21
21.9956150455
 31
0.0
 11
-6.5606153651
 21
22.0218698073
 31
0.0
 11
-6.5584521763
 21
22.0354900438
 31
0.0
  0
SPLINE
  5
400
100
AcDbEntity
  8
RACCORDO
100
AcDbSpline
 62
253
  6
CONTINUOUS
 70
0
 71
3
 72
18
 73
14
 74
12
 42
0.0000001
 43
0.0000001
 44
0.0000000001
 12
0.4536752971
 22
-1.3632165004
 32
0.0
 13
0.001039455
 23
-1.4367252422
 33
0.0
 40
0.0
 40
0.0
 40
0.0
 40
0.0
 40
0.0096263255
 40
0.0279745127
 40
0.0549460528
 40
0.0903121296
 40
0.1337893467
 40
0.184999368
 40
0.3088395464
 40
0.4576330724
 40
0.6263268045
 40
0.809187961
 40
1.0
 40
1.0
 40
1.0
 40
1.0
 10
-21.6869607251
 20
22.0354900438
 30
0.0
 10
-21.6855049831
 20
22.0311157885
 30
0.0
 10
-21.6840988344
 20
22.0176518963
 30
0.0
 10
-21.6816613325
 20
21.9915472645
 30
0.0
 10
-21.6795948387
 20
21.952907111
 30
0.0
 10
-21.6773639841
 20
21.9023012931
 30
0.0
 10
-21.6752757267
 20
21.8400440241
 30
0.0
 10
-21.6723995739
 20
21.7354320298
 30
0.0
 10
-21.6693159991
 20
21.5803670452
 30
0.0
 10
-21.6663617467
 20
21.3690324585
 30
0.0
 10
-21.6641125015
 20
21.1294208286
 30
0.0
 10
-21.6626454748
 20
20.8696804314
 30
0.0
 10
-21.6622336147
 20
20.6907252197
 30
0.0
 10
-21.6621675012
 20
20.5993437287
 30
0.0
 11
-21.6869607251
 21
22.0354900438
 31
0.0
 11
-21.6845567977
 21
22.0218701768
 31
0.0
 11
-21.6821831639
 21
21.9956159474
 31
0.0
 11
-21.6798626885
 21
21.9569347848
 31
0.0
 11
-21.6776147151
 21
21.9061731875
 31
0.0
 11
-21.6754576938
 21
21.8437456098
 31
0.0
 11
-21.6734100246
 21
21.7701993602
 31
0.0
 11
-21.6697126704
 21
21.5923134239
 31
0.0
 11
-21.6666482791
 21
21.378559918
 31
0.0
 11
-21.6643211259
 21
21.136204484
 31
0.0
 11
-21.6628103957
 21
20.8734875196
 31
0.0
 11
-21.6621675012
 21
20.5993437287
 31
0.0
  0
SPLINE
  5
401
100
AcDbEntity
  8
RACCORDO
100
AcDbSpline
 62
253
  6
CONTINUOUS
 70
0
 71
3
 72
18
 73
14
 74
12
 42
0.0000001
 43
0.0000001
 44
0.0000000001
 12
0.001039455
 22
1.4367252422
 32
0.0
 13
0.4536752954
 23
1.3632165009
 33
0.0
 40
0.0
 40
0.0
 40
0.0
 40
0.0
 40
0.190812039
 40
0.3736731955
 40
0.5423669276
 40
0.6911604536
 40
0.815000632
 40
0.8662106533
 40
0.9096878704
 40
0.9450539473
 40
0.9720254873
 40
0.9903736745
 40
1.0
 40
1.0
 40
1.0
 40
1.0
 10
21.6621675012
 20
20.5993437287
 30
0.0
 10
21.6622336147
 20
20.6907252197
 30
0.0
 10
21.6626454748
 20
20.8696804314
 30
0.0
 10
21.6641125015
 20
21.1294208286
 30
0.0
 10
21.6663617467
 20
21.3690324585
 30
0.0
 10
21.6693159991
 20
21.5803670452
 30
0.0
 10
21.6723995739
 20
21.7354320298
 30
0.0
 10
21.6752757267
 20
21.840044024
 30
0.0
 10
21.6773639841
 20
21.9023012931
 30
0.0
 10
21.6795948387
 20
21.952907111
 30
0.0
 10
21.6816613325
 20
21.9915472645
 30
0.0
 10
21.6840988344
 20
22.0176518963
 30
0.0
 10
21.6855049831
 20
22.0311157885
 30
0.0
 10
21.6869607251
 20
22.0354900438
 30
0.0
 11
21.6621675012
 21
20.5993437287
 31
0.0
 11
21.6628103957
 21
20.8734875196
 31
0.0
 11
21.6643211259
 21
21.136204484
 31
0.0
 11
21.6666482791
 21
21.378559918
 31
0.0
 11
21.6697126704
 21
21.5923134239
 31
0.0
 11
21.6734100246
 21
21.7701993602
 31
0.0
 11
21.6754576938
 21
21.8437456098
 31
0.0
 11
21.6776147151
 21
21.9061731875
 31
0.0
 11
21.6798626885
 21
21.9569347848
 31
0.0
 11
21.6821831639
 21
21.9956159474
 31
0.0
 11
21.6845567977
 21
22.0218701768
 31
0.0
 11
21.6869607251
 21
22.0354900438
 31
0.0
  0
SPLINE
  5
402
100
AcDbEntity
  8
RACCORDO
100
AcDbSpline
 62
253
  6
CONTINUOUS
 70
0
 71
3
 72
18
 73
14
 74
12
 42
0.0000001
 43
0.0000001
 44
0.0000000001
 12
0.4120741135
 22
-1.3762483617
 32
0.0
 13
0.0009338296
 23
-1.4366153821
 33
0.0
 40
0.0
 40
0.0
 40
0.0
 40
0.0
 40
0.0095996079
 40
0.0279354264
 40
0.0549004243
 40
0.090263389
 40
0.1337398454
 40
0.1849508281
 40
0.3087966262
 40
0.4575989689
 40
0.6263034288
 40
0.80917607
 40
1.0
 40
1.0
 40
1.0
 40
1.0
 10
6.5584521763
 20
22.0354900438
 30
0.0
 10
6.5597707596
 20
22.0310862289
 30
0.0
 10
6.561022097
 20
22.0176510821
 30
0.0
 10
6.5632249597
 20
21.9915332362
 30
0.0
 10
6.5650796886
 20
21.9529050525
 30
0.0
 10
6.5670891322
 20
21.9022953729
 30
0.0
 10
6.5689674961
 20
21.8400390444
 30
0.0
 10
6.5715558707
 20
21.7354242442
 30
0.0
 10
6.5743305064
 20
21.5803586496
 30
0.0
 10
6.5769889604
 20
21.3690242316
 30
0.0
 10
6.5790128912
 20
21.129414263
 30
0.0
 10
6.5803330941
 20
20.8696766975
 30
0.0
 10
6.580703846
 20
20.6907239705
 30
0.0
 10
6.580763245
 20
20.5993437728
 30
0.0
 11
6.5584521763
 21
22.0354900438
 31
0.0
 11
6.5606153651
 21
22.0218698073
 31
0.0
 11
6.5627515752
 21
21.9956150455
 31
0.0
 11
6.564839913
 21
21.9569330374
 31
0.0
 11
6.5668628894
 21
21.9061703412
 31
0.0
 11
6.5688039
 21
21.8437415492
 31
0.0
 11
6.5706464699
 21
21.7701941253
 31
0.0
 11
6.5739735814
 21
21.5923064206
 31
0.0
 11
6.5767310966
 21
21.3785524269
 31
0.0
 11
6.5788251853
 21
21.1361980004
 31
0.0
 11
6.5801847059
 21
20.8734838133
 31
0.0
 11
6.580763245
 21
20.5993437728
 31
0.0
  0
SPLINE
  5
403
100
AcDbEntity
  8
RACCORDO
100
AcDbSpline
 62
253
  6
CONTINUOUS
 70
0
 71
3
 72
18
 73
14
 74
12
 42
0.0000001
 43
0.0000001
 44
0.0000000001
 12
-0.001039455
 22
-1.4367252411
 32
0.0
 13
-0.453675295
 23
-1.3632164999
 33
0.0
 40
0.0
 40
0.0
 40
0.0
 40
0.0
 40
0.1908120391
 40
0.3736731955
 40
0.5423669277
 40
0.6911604536
 40
0.815000632
 40
0.8662106533
 40
0.9096878704
 40
0.9450539473
 40
0.9720254873
 40
0.9903736745
 40
1.0
 40
1.0
 40
1.0
 40
1.0
 10
-21.6621675012
 20
-20.5993437298
 30
0.0
 10
-21.6622336147
 20
-20.6907252208
 30
0.0
 10
-21.6626454748
 20
-20.8696804324
 30
0.0
 10
-21.6641125015
 20
-21.1294208294
 30
0.0
 10
-21.6663617467
 20
-21.3690324591
 30
0.0
 10
-21.6693159991
 20
-21.5803670456
 30
0.0
 10
-21.6723995739
 20
-21.7354320301
 30
0.0
 10
-21.6752757268
 20
-21.8400440242
 30
0.0
 10
-21.6773639841
 20
-21.9023012933
 30
0.0
 10
-21.6795948387
 20
-21.952907111
 30
0.0
 10
-21.6816613325
 20
-21.9915472646
 30
0.0
 10
-21.6840988344
 20
-22.0176518963
 30
0.0
 10
-21.6855049831
 20
-22.0311157885
 30
0.0
 10
-21.6869607251
 20
-22.0354900438
 30
0.0
 11
-21.6621675012
 21
-20.5993437298
 31
0.0
 11
-21.6628103957
 21
-20.8734875206
 31
0.0
 11
-21.6643211259
 21
-21.1362044848
 31
0.0
 11
-21.6666482791
 21
-21.3785599186
 31
0.0
 11
-21.6697126704
 21
-21.5923134243
 31
0.0
 11
-21.6734100246
 21
-21.7701993605
 31
0.0
 11
-21.6754576938
 21
-21.8437456099
 31
0.0
 11
-21.6776147151
 21
-21.9061731876
 31
0.0
 11
-21.6798626885
 21
-21.9569347848
 31
0.0
 11
-21.6821831639
 21
-21.9956159474
 31
0.0
 11
-21.6845567977
 21
-22.0218701768
 31
0.0
 11
-21.6869607251
 21
-22.0354900438
 31
0.0
  0
SPLINE
  5
404
100
AcDbEntity
  8
RACCORDO
100
AcDbSpline
 62
253
  6
CONTINUOUS
 70
0
 71
3
 72
18
 73
14
 74
12
 42
0.0000001
 43
0.0000001
 44
0.0000000001
 12
-0.4536752967
 22
1.3632164993
 32
0.0
 13
-0.001039455
 23
1.4367252411
 33
0.0
 40
0.0
 40
0.0
 40
0.0
 40
0.0
 40
0.0096263255
 40
0.0279745127
 40
0.0549460527
 40
0.0903121296
 40
0.1337893467
 40
0.184999368
 40
0.3088395464
 40
0.4576330723
 40
0.6263268045
 40
0.8091879609
 40
1.0
 40
1.0
 40
1.0
 40
1.0
 10
21.6869607251
 20
-22.0354900438
 30
0.0
 10
21.6855049831
 20
-22.0311157885
 30
0.0
 10
21.6840988344
 20
-22.0176518963
 30
0.0
 10
21.6816613325
 20
-21.9915472646
 30
0.0
 10
21.6795948387
 20
-21.952907111
 30
0.0
 10
21.6773639841
 20
-21.9023012933
 30
0.0
 10
21.6752757268
 20
-21.8400440242
 30
0.0
 10
21.6723995739
 20
-21.7354320301
 30
0.0
 10
21.6693159991
 20
-21.5803670456
 30
0.0
 10
21.6663617467
 20
-21.3690324591
 30
0.0
 10
21.6641125015
 20
-21.1294208294
 30
0.0
 10
21.6626454748
 20
-20.8696804324
 30
0.0
 10
21.6622336147
 20
-20.6907252208
 30
0.0
 10
21.6621675012
 20
-20.5993437298
 30
0.0
 11
21.6869607251
 21
-22.0354900438
 31
0.0
 11
21.6845567977
 21
-22.0218701768
 31
0.0
 11
21.6821831639
 21
-21.9956159474
 31
0.0
 11
21.6798626885
 21
-21.9569347848
 31
0.0
 11
21.6776147151
 21
-21.9061731876
 31
0.0
 11
21.6754576938
 21
-21.8437456099
 31
0.0
 11
21.6734100246
 21
-21.7701993605
 31
0.0
 11
21.6697126704
 21
-21.5923134243
 31
0.0
 11
21.6666482791
 21
-21.3785599186
 31
0.0
 11
21.6643211259
 21
-21.1362044848
 31
0.0
 11
21.6628103957
 21
-20.8734875206
 31
0.0
 11
21.6621675012
 21
-20.5993437298
 31
0.0
  0
SPLINE
  5
405
100
AcDbEntity
  8
RACCORDO
100
AcDbSpline
 62
253
  6
CONTINUOUS
 70
0
 71
3
 72
27
 73
23
 74
21
 42
0.0000001
 43
0.0000001
 44
0.0000000001
 12
0.0114665021
 22
-20.6655480521
 32
0.0
 13
0.0105643149
 23
20.665548533
 33
0.0
 40
0.0
 40
0.0
 40
0.0
 40
0.0
 40
0.0624421869
 40
0.0937082153
 40
0.1249791601
 40
0.1874561403
 40
0.2499410829
 40
0.2812224594
 40
0.3125045782
 40
0.3749957279
 40
0.4374890198
 40
0.4999831088
 40
0.5624771431
 40
0.6249703639
 40
0.6874617026
 40
0.7187440338
 40
0.750025348
 40
0.8125091151
 40
0.8749873065
 40
0.9062617044
 40
0.9375326756
 40
1.0
 40
1.0
 40
1.0
 40
1.0
 10
6.583699944
 20
16.0048014404
 30
0.0
 10
6.5839386085
 20
15.5746674358
 30
0.0
 10
6.5205209267
 20
14.9267965466
 30
0.0
 10
6.3115260555
 20
14.0906084399
 30
0.0
 10
6.0216385398
 20
13.2783652746
 30
0.0
 10
5.5116749806
 20
12.322307586
 30
0.0
 10
4.8245977545
 20
11.4842990852
 30
0.0
 10
4.1857322236
 20
10.9046832354
 30
0.0
 10
3.493175776
 20
10.3903844823
 30
0.0
 10
2.5374756872
 20
9.8788526773
 30
0.0
 10
1.2939104533
 20
9.5013179873
 30
0.0
 10
0.0003517059
 20
9.373684106
 30
0.0
 10
-1.2932238896
 20
9.5011715469
 30
0.0
 10
-2.536820534
 20
9.8785960679
 30
0.0
 10
-3.4925927254
 20
10.3899997813
 30
0.0
 10
-4.1851920756
 20
10.904245462
 30
0.0
 10
-4.824118429
 20
11.4837827414
 30
0.0
 10
-5.511284952
 20
12.3217181099
 30
0.0
 10
-6.02136566
 20
13.2777414136
 30
0.0
 10
-6.3113525139
 20
14.0900192717
 30
0.0
 10
-6.5204878297
 20
14.9264122046
 30
0.0
 10
-6.5839199188
 20
15.574494266
 30
0.0
 10
-6.583699944
 20
16.0048014404
 30
0.0
 11
6.583699944
 21
16.0048014404
 31
0.0
 11
6.4580021163
 21
14.7205359203
 31
0.0
 11
6.3014267098
 21
14.0936645254
 31
0.0
 11
6.0841402588
 21
13.4850583244
 31
0.0
 11
5.4762988292
 21
12.3459697233
 31
0.0
 11
4.6577558102
 21
11.3472674171
 31
0.0
 11
4.1790248946
 21
10.9128594412
 31
0.0
 11
3.6599826926
 21
10.5274912974
 31
0.0
 11
2.5213265091
 21
9.9182193057
 31
0.0
 11
1.2855867988
 21
9.5429700878
 31
0.0
 11
0.0003484385
 21
9.416204509
 31
0.0
 11
-1.2849026299
 21
9.5428296426
 31
0.0
 11
-2.5206785319
 21
9.9179545987
 31
0.0
 11
-3.6594084375
 21
10.5270970696
 31
0.0
 11
-4.1784893248
 21
10.9124204674
 31
0.0
 11
-4.6572660785
 21
11.3467760077
 31
0.0
 11
-5.475902921
 21
12.3453699987
 31
0.0
 11
-6.0838790947
 21
13.4844150596
 31
0.0
 11
-6.3012497552
 21
14.0930669634
 31
0.0
 11
-6.4579065425
 21
14.7200233138
 31
0.0
 11
-6.583699944
 21
16.0048014404
 31
0.0
  0
SPLINE
  5
406
100
AcDbEntity
  8
RACCORDO
100
AcDbSpline
 62
253
  6
CONTINUOUS
 70
0
 71
3
 72
9
 73
5
 74
3
 42
0.0000001
 43
0.0000001
 44
0.0000000001
 12
0.021457736
 22
-19.8929368252
 32
0.0
 13
0.0007352117
 23
-19.8929483844
 33
0.0
 40
0.0
 40
0.0
 40
0.0
 40
0.0
 40
0.2499065555
 40
1.0
 40
1.0
 40
1.0
 40
1.0
 10
-21.6621675013
 20
20.5993437287
 30
0.0
 10
-21.660380025
 20
18.9422186219
 30
0.0
 10
-21.6540921057
 20
12.3112387755
 30
0.0
 10
-21.6512592261
 20
5.6802556542
 30
0.0
 10
-21.6510754002
 20
0.7063989291
 30
0.0
 11
-21.6621675013
 21
20.5993437287
 31
0.0
 11
-21.657453019
 21
15.6279677516
 31
0.0
 11
-21.6510754002
 21
0.7063989291
 31
0.0
  0
SPLINE
  5
407
100
AcDbEntity
  8
RACCORDO
100
AcDbSpline
 62
253
  6
CONTINUOUS
 70
0
 71
3
 72
27
 73
23
 74
21
 42
0.0000001
 43
0.0000001
 44
0.0000000001
 12
-0.0008586703
 22
20.2849721863
 32
0.0
 13
-2.1392934523
 23
-20.1718497134
 33
0.0
 40
0.0
 40
0.0
 40
0.0
 40
0.0
 40
0.0624846138
 40
0.093759558
 40
0.1250360114
 40
0.1875184494
 40
0.2500003915
 40
0.2812764419
 40
0.312552568
 40
0.3750345887
 40
0.4375171156
 40
0.5000000214
 40
0.5624830235
 40
0.624965797
 40
0.6874480694
 40
0.7187242731
 40
0.7500003478
 40
0.8124821759
 40
0.8749643751
 40
0.9062406597
 40
0.9375153847
 40
1.0
 40
1.0
 40
1.0
 40
1.0
 10
-8.3115531587
 20
-0.0
 30
0.0
 10
-8.3115710433
 20
0.4224995513
 30
0.0
 10
-8.3720376389
 20
1.058603472
 30
0.0
 10
-8.5708861059
 20
1.881270241
 30
0.0
 10
-8.8466001574
 20
2.6817073313
 30
0.0
 10
-9.3317804004
 20
3.6277212458
 30
0.0
 10
-9.986910457
 20
4.4651001839
 30
0.0
 10
-10.5977735083
 20
5.0511846469
 30
0.0
 10
-11.2613080184
 20
5.5768619315
 30
0.0
 10
-12.1800322084
 20
6.112273482
 30
0.0
 10
-13.3829618788
 20
6.5346482398
 30
0.0
 10
-14.644171577
 20
6.7225633594
 30
0.0
 10
-15.9181789648
 20
6.6689656165
 30
0.0
 10
-17.1590063801
 20
6.3760473098
 30
0.0
 10
-18.1291527474
 20
5.9406762486
 30
0.0
 10
-18.8444965061
 20
5.4880146121
 30
0.0
 10
-19.5138342798
 20
4.9697134763
 30
0.0
 10
-20.253709434
 20
4.2061799746
 30
0.0
 10
-20.8360316049
 20
3.3166644065
 30
0.0
 10
-21.1946778724
 20
2.5497970101
 30
0.0
 10
-21.47921303
 20
1.7527071972
 30
0.0
 10
-21.6065177574
 20
1.1265423523
 30
0.0
 10
-21.6510754002
 20
0.7063989291
 30
0.0
 11
-8.3115531587
 21
-0.0
 31
0.0
 11
-8.4315341295
 21
1.2618071989
 31
0.0
 11
-8.5804971719
 21
1.8784819934
 31
0.0
 11
-8.787179642
 21
2.4783144632
 31
0.0
 11
-9.3657648185
 21
3.6060024297
 31
0.0
 11
-10.1465938198
 21
4.6043618469
 31
0.0
 11
-10.6043607015
 21
5.0436291306
 31
0.0
 11
-11.1016858067
 21
5.4375529178
 31
0.0
 11
-12.1968130092
 21
6.0756092705
 31
0.0
 11
-13.3926716616
 21
6.4955707076
 31
0.0
 11
-14.6463035995
 21
6.6823111012
 31
0.0
 11
-15.912651202
 21
6.6290784835
 31
0.0
 11
-17.1461914346
 21
6.3378110742
 31
0.0
 11
-18.3025953213
 21
5.8190023536
 31
0.0
 11
-18.8387435495
 21
5.4798043498
 31
0.0
 11
-19.3403373472
 21
5.0913322765
 31
0.0
 11
-20.2222041834
 21
4.1809914185
 31
0.0
 11
-20.916584026
 21
3.1206776399
 31
0.0
 11
-21.1854122089
 21
2.5460093017
 31
0.0
 11
-21.3986156548
 21
1.948500774
 31
0.0
 11
-21.6510754002
 21
0.7063989291
 31
0.0
  0
SPLINE
  5
408
100
AcDbEntity
  8
RACCORDO
100
AcDbSpline
 62
253
  6
CONTINUOUS
 70
0
 71
3
 72
27
 73
23
 74
21
 42
0.0000001
 43
0.0000001
 44
0.0000000001
 12
2.1392891772
 22
-20.1718500917
 32
0.0
 13
0.0008334143
 23
20.2849721127
 33
0.0
 40
0.0
 40
0.0
 40
0.0
 40
0.0
 40
0.0624846468
 40
0.0937593744
 40
0.1250356556
 40
0.1875178462
 40
0.2499996671
 40
0.2812757401
 40
0.3125519428
 40
0.3750342118
 40
0.4375169798
 40
0.4999999776
 40
0.5624828788
 40
0.6249654004
 40
0.6874474178
 40
0.718723542
 40
0.7499995894
 40
0.8124815231
 40
0.8749639559
 40
0.9062404094
 40
0.9375153589
 40
1.0
 40
1.0
 40
1.0
 40
1.0
 10
-21.6510753998
 20
-0.7063989314
 30
0.0
 10
-21.6065178236
 20
-1.1265425744
 30
0.0
 10
-21.4792129794
 20
-1.7527076329
 30
0.0
 10
-21.1946778698
 20
-2.5497976822
 30
0.0
 10
-20.8360313943
 20
-3.3166649116
 30
0.0
 10
-20.2537093216
 20
-4.2061803674
 30
0.0
 10
-19.5138341495
 20
-4.9697136911
 30
0.0
 10
-18.8444964122
 20
-5.4880147558
 30
0.0
 10
-18.1291526538
 20
-5.940676311
 30
0.0
 10
-17.1590063399
 20
-6.3760473129
 30
0.0
 10
-15.9181790027
 20
-6.6689655403
 30
0.0
 10
-14.644171719
 20
-6.722563256
 30
0.0
 10
-13.382962124
 20
-6.5346481484
 30
0.0
 10
-12.1800325294
 20
-6.1122734585
 30
0.0
 10
-11.2613083987
 20
-5.5768619637
 30
0.0
 10
-10.5977738817
 20
-5.0511847799
 30
0.0
 10
-9.9869108906
 20
-4.4651003967
 30
0.0
 10
-9.3317806983
 20
-3.6277216877
 30
0.0
 10
-8.8466006329
 20
-2.681707834
 30
0.0
 10
-8.570886027
 20
-1.8812709125
 30
0.0
 10
-8.3720381044
 20
-1.0586038155
 30
0.0
 10
-8.3115705173
 20
-0.4224997339
 30
0.0
 10
-8.3115531587
 20
-0.0
 30
0.0
 11
-21.6510753998
 21
-0.7063989314
 31
0.0
 11
-21.3986155872
 21
-1.9485014103
 31
0.0
 11
-21.1854121472
 21
-2.5460099919
 31
0.0
 11
-20.9165838815
 21
-3.120678213
 31
0.0
 11
-20.2222040546
 21
-4.1809917901
 31
0.0
 11
-19.3403372479
 21
-5.0913324646
 31
0.0
 11
-18.838743458
 21
-5.4798044872
 31
0.0
 11
-18.3025952248
 21
-5.8190024426
 31
0.0
 11
-17.1461913818
 21
-6.3378110812
 31
0.0
 11
-15.9126512507
 21
-6.6290784153
 31
0.0
 11
-14.6463037392
 21
-6.682311004
 31
0.0
 11
-13.3926718997
 21
-6.4955706251
 31
0.0
 11
-12.1968133417
 21
-6.0756092525
 31
0.0
 11
-11.1016861775
 21
-5.4375529774
 31
0.0
 11
-10.604361074
 21
-5.0436292529
 31
0.0
 11
-10.1465942148
 21
-4.6043620389
 31
0.0
 11
-9.3657651924
 21
-3.6060028597
 31
0.0
 11
-8.7871799367
 21
-2.4783150588
 31
0.0
 11
-8.5804972474
 21
-1.8784826624
 31
0.0
 11
-8.4315343232
 21
-1.2618077306
 31
0.0
 11
-8.3115531587
 21
-0.0
 31
0.0
  0
SPLINE
  5
409
100
AcDbEntity
  8
RACCORDO
100
AcDbSpline
 62
253
  6
CONTINUOUS
 70
0
 71
3
 72
9
 73
5
 74
3
 42
0.0000001
 43
0.0000001
 44
0.0000000001
 12
-0.0007352117
 22
-19.892948383
 32
0.0
 13
-0.0214577368
 23
-19.8929368237
 33
0.0
 40
0.0
 40
0.0
 40
0.0
 40
0.0
 40
0.2500656098
 40
1.0
 40
1.0
 40
1.0
 40
1.0
 10
-21.6510753998
 20
-0.7063989314
 30
0.0
 10
-21.6511366835
 20
-2.3645796875
 30
0.0
 10
-21.6522447766
 20
-8.9955624215
 30
0.0
 10
-21.6568035363
 20
-15.6265445811
 30
0.0
 10
-21.6621675013
 20
-20.5993437298
 30
0.0
 11
-21.6510753998
 21
-0.7063989314
 31
0.0
 11
-21.6519066553
 21
-5.6809411334
 31
0.0
 11
-21.6621675013
 21
-20.5993437298
 31
0.0
  0
SPLINE
  5
40A
100
AcDbEntity
  8
RACCORDO
100
AcDbSpline
 62
253
  6
CONTINUOUS
 70
0
 71
3
 72
9
 73
5
 74
3
 42
0.0000001
 43
0.0000001
 44
0.0000000001
 12
-0.0214577368
 22
19.8929368265
 32
0.0
 13
-0.0007352117
 23
19.8929483857
 33
0.0
 40
0.0
 40
0.0
 40
0.0
 40
0.0
 40
0.2499065555
 40
1.0
 40
1.0
 40
1.0
 40
1.0
 10
21.6621675013
 20
-20.5993437298
 30
0.0
 10
21.6603800249
 20
-18.9422186229
 30
0.0
 10
21.6540921057
 20
-12.3112387761
 30
0.0
 10
21.6512592261
 20
-5.6802556543
 30
0.0
 10
21.6510754002
 20
-0.7063989289
 30
0.0
 11
21.6621675013
 21
-20.5993437298
 31
0.0
 11
21.657453019
 21
-15.6279677525
 31
0.0
 11
21.6510754002
 21
-0.7063989289
 31
0.0
  0
SPLINE
  5
40B
100
AcDbEntity
  8
RACCORDO
100
AcDbSpline
 62
253
  6
CONTINUOUS
 70
0
 71
3
 72
27
 73
23
 74
21
 42
0.0000001
 43
0.0000001
 44
0.0000000001
 12
0.0008593965
 22
-20.2849721929
 32
0.0
 13
2.1392925886
 23
20.1718498117
 33
0.0
 40
0.0
 40
0.0
 40
0.0
 40
0.0
 40
0.0624846439
 40
0.0937595972
 40
0.125036052
 40
0.1875184846
 40
0.2500004179
 40
0.2812764654
 40
0.3125525897
 40
0.3750346078
 40
0.4375171298
 40
0.5000000309
 40
0.5624830289
 40
0.6249657973
 40
0.6874480659
 40
0.7187242684
 40
0.7500003414
 40
0.8124821627
 40
0.8749643533
 40
0.9062406348
 40
0.9375153621
 40
1.0
 40
1.0
 40
1.0
 40
1.0
 10
8.3115531587
 20
-0.0
 30
0.0
 10
8.3115710584
 20
-0.4224997546
 30
0.0
 10
8.3720376937
 20
-1.0586039411
 30
0.0
 10
8.5708862882
 20
-1.8812709662
 30
0.0
 10
8.8466005148
 20
-2.6817080324
 30
0.0
 10
9.3317807551
 20
-3.6277218459
 30
0.0
 10
9.9869108496
 20
-4.4651006086
 30
0.0
 10
10.5977738655
 20
-5.0511849764
 30
0.0
 10
11.2613083919
 20
-5.5768621616
 30
0.0
 10
12.1800325427
 20
-6.1122736508
 30
0.0
 10
13.3829621641
 20
-6.5346483032
 30
0.0
 10
14.6441717741
 20
-6.7225633676
 30
0.0
 10
15.9181790656
 20
-6.6689656019
 30
0.0
 10
17.1590063917
 20
-6.3760473051
 30
0.0
 10
18.1291526945
 20
-5.9406762706
 30
0.0
 10
18.8444964237
 20
-5.4880146705
 30
0.0
 10
19.5138341529
 20
-4.9697135854
 30
0.0
 10
20.2537092581
 20
-4.2061801972
 30
0.0
 10
20.8360313794
 20
-3.3166647506
 30
0.0
 10
21.1946776964
 20
-2.5497974475
 30
0.0
 10
21.4792129529
 20
-1.7527075136
 30
0.0
 10
21.6065177593
 20
-1.1265425062
 30
0.0
 10
21.6510754002
 20
-0.7063989289
 30
0.0
 11
8.3115531587
 21
-0.0
 31
0.0
 11
8.4315342385
 21
-1.261807801
 31
0.0
 11
8.5804973833
 21
-1.8784827631
 31
0.0
 11
8.7871799637
 21
-2.478315225
 31
0.0
 11
9.3657651962
 21
-3.6060030394
 31
0.0
 11
10.1465941862
 21
-4.6043622396
 31
0.0
 11
10.604361055
 21
-5.0436294506
 31
0.0
 11
11.1016861673
 21
-5.4375531731
 31
0.0
 11
12.1968133582
 21
-6.0756094408
 31
0.0
 11
13.3926719406
 21
-6.4955707797
 31
0.0
 11
14.6463037917
 21
-6.6823111144
 31
0.0
 11
15.9126513104
 21
-6.6290784735
 31
0.0
 11
17.1461914377
 21
-6.3378110769
 31
0.0
 11
18.3025952568
 21
-5.8190023893
 31
0.0
 11
18.8387434702
 21
-5.4798044063
 31
0.0
 11
19.3403372477
 21
-5.0913323629
 31
0.0
 11
20.2222040159
 21
-4.1809916326
 31
0.0
 11
20.9165838095
 21
-3.1206780289
 31
0.0
 11
21.1854120162
 21
-2.5460097698
 31
0.0
 11
21.3986155211
 21
-1.9485012152
 31
0.0
 11
21.6510754002
 21
-0.7063989289
 31
0.0
  0
SPLINE
  5
40C
100
AcDbEntity
  8
RACCORDO
100
AcDbSpline
 62
253
  6
CONTINUOUS
 70
0
 71
3
 72
27
 73
23
 74
21
 42
0.0000001
 43
0.0000001
 44
0.0000000001
 12
-2.139290076
 22
20.1718499898
 32
0.0
 13
-0.0008327018
 23
-20.2849721062
 33
0.0
 40
0.0
 40
0.0
 40
0.0
 40
0.0
 40
0.0624846247
 40
0.0937593501
 40
0.1250356344
 40
0.1875178336
 40
0.2499996613
 40
0.281275736
 40
0.3125519399
 40
0.3750342126
 40
0.4375169859
 40
0.4999999878
 40
0.5624828937
 40
0.6249654202
 40
0.6874474402
 40
0.7187235661
 40
0.7499996165
 40
0.812481559
 40
0.8749639972
 40
0.9062404493
 40
0.9375153894
 40
1.0
 40
1.0
 40
1.0
 40
1.0
 10
21.6510753998
 20
0.7063989316
 30
0.0
 10
21.6065178206
 20
1.1265424233
 30
0.0
 10
21.4792130552
 20
1.7527073233
 30
0.0
 10
21.1946780419
 20
2.549797255
 30
0.0
 10
20.8360316136
 20
3.3166645775
 30
0.0
 10
20.2537094907
 20
4.2061801544
 30
0.0
 10
19.5138342679
 20
4.9697135897
 30
0.0
 10
18.8444964856
 20
5.4880147043
 30
0.0
 10
18.1291526961
 20
5.9406762943
 30
0.0
 10
17.159006317
 20
6.3760473221
 30
0.0
 10
15.9181788895
 20
6.6689655565
 30
0.0
 10
14.6441715091
 20
6.7225632472
 30
0.0
 10
13.3829618258
 20
6.5346480822
 30
0.0
 10
12.1800321832
 20
6.1122732836
 30
0.0
 10
11.2613080137
 20
5.5768617265
 30
0.0
 10
10.5977735144
 20
5.051184441
 30
0.0
 10
9.9869104882
 20
4.4650999613
 30
0.0
 10
9.3317803362
 20
3.6277210748
 30
0.0
 10
8.8466002691
 20
2.6817071199
 30
0.0
 10
8.5708858418
 20
1.8812701754
 30
0.0
 10
8.372038048
 20
1.0586033391
 30
0.0
 10
8.3115705024
 20
0.4224995276
 30
0.0
 10
8.3115531587
 20
-0.0
 30
0.0
 11
21.6510753998
 21
0.7063989316
 31
0.0
 11
21.3986157184
 21
1.9485009777
 31
0.0
 11
21.1854123357
 21
2.5460095346
 31
0.0
 11
20.9165840923
 21
3.1206778345
 31
0.0
 11
20.2222042151
 21
4.1809915853
 31
0.0
 11
19.3403373389
 21
5.0913323858
 31
0.0
 11
18.8387435282
 21
5.4798044374
 31
0.0
 11
18.3025952792
 21
5.8190024126
 31
0.0
 11
17.1461913673
 21
6.3378110826
 31
0.0
 11
15.91265113
 21
6.6290784269
 31
0.0
 11
14.6463035345
 21
6.6823109902
 31
0.0
 11
13.3926716079
 21
6.49557055
 31
0.0
 11
12.1968129807
 21
6.0756090764
 31
0.0
 11
11.101685806
 21
5.4375527143
 31
0.0
 11
10.6043607104
 21
5.0436289236
 31
0.0
 11
10.1465938388
 21
4.604361636
 31
0.0
 11
9.3657648068
 21
3.606002237
 31
0.0
 11
8.7871796094
 21
2.4783142834
 31
0.0
 11
8.5804970325
 21
1.8784818802
 31
0.0
 11
8.4315342123
 21
1.2618071197
 31
0.0
 11
8.3115531587
 21
-0.0
 31
0.0
  0
SPLINE
  5
40D
100
AcDbEntity
  8
RACCORDO
100
AcDbSpline
 62
253
  6
CONTINUOUS
 70
0
 71
3
 72
9
 73
5
 74
3
 42
0.0000001
 43
0.0000001
 44
0.0000000001
 12
0.0007352117
 22
19.8929483817
 32
0.0
 13
0.021457736
 23
19.8929368225
 33
0.0
 40
0.0
 40
0.0
 40
0.0
 40
0.0
 40
0.2500656098
 40
1.0
 40
1.0
 40
1.0
 40
1.0
 10
21.6510753998
 20
0.7063989316
 30
0.0
 10
21.6511366835
 20
2.3645796875
 30
0.0
 10
21.6522447764
 20
8.9955624211
 30
0.0
 10
21.6568035365
 20
15.6265445803
 30
0.0
 10
21.6621675013
 20
20.5993437287
 30
0.0
 11
21.6510753998
 21
0.7063989316
 31
0.0
 11
21.6519066553
 21
5.6809411333
 31
0.0
 11
21.6621675013
 21
20.5993437287
 31
0.0
  0
SPLINE
  5
40E
100
AcDbEntity
  8
RACCORDO
100
AcDbSpline
 62
253
  6
CONTINUOUS
 70
0
 71
3
 72
16
 73
12
 74
10
 42
0.0000001
 43
0.0000001
 44
0.0000000001
 12
-0.1503819332
 22
-0.0001080517
 32
0.0
 13
-0.0586082853
 23
-0.1384911781
 33
0.0
 40
0.0
 40
0.0
 40
0.0
 40
0.0
 40
0.3777048588
 40
0.5488490936
 40
0.6992787609
 40
0.8234888758
 40
0.9170269854
 40
0.9510604652
 40
0.9762380983
 40
0.9924632468
 40
1.0
 40
1.0
 40
1.0
 40
1.0
 10
6.580763245
 20
20.599343773
 30
0.0
 10
6.5618299161
 20
20.5993301691
 30
0.0
 10
6.534315733
 20
20.5991073269
 30
0.0
 10
6.4992731754
 20
20.5983374064
 30
0.0
 10
6.4769329612
 20
20.5976031094
 30
0.0
 10
6.4585136897
 20
20.5967116583
 30
0.0
 10
6.4458860539
 20
20.5958431615
 30
0.0
 10
6.4383192578
 20
20.5950187491
 30
0.0
 10
6.4344930232
 20
20.594482724
 30
0.0
 10
6.4322581779
 20
20.5939273219
 30
0.0
 10
6.4309333295
 20
20.5935118945
 30
0.0
 10
6.4307860908
 20
20.5931639698
 30
0.0
 11
6.580763245
 21
20.599343773
 31
0.0
 11
6.5239654528
 21
20.5988428092
 31
0.0
 11
6.4982349354
 21
20.5982648506
 31
0.0
 11
6.4756260898
 21
20.5974961425
 31
0.0
 11
6.4569703735
 21
20.5965645458
 31
0.0
 11
6.442943941
 21
20.5955043208
 31
0.0
 11
6.4378574003
 21
20.5949375311
 31
0.0
 11
6.434116352
 21
20.5943541454
 31
0.0
 11
6.4317496357
 21
20.5937607596
 31
0.0
 11
6.4307860908
 21
20.5931639698
 31
0.0
  0
SPLINE
  5
40F
100
AcDbEntity
  8
RACCORDO
100
AcDbSpline
 62
253
  6
CONTINUOUS
 70
0
 71
3
 72
16
 73
12
 74
10
 42
0.0000001
 43
0.0000001
 44
0.0000000001
 12
-0.1502261387
 22
-0.0000838585
 32
0.0
 13
-0.0718774732
 23
-0.1319148537
 33
0.0
 40
0.0
 40
0.0
 40
0.0
 40
0.0
 40
0.3780914234
 40
0.5493967307
 40
0.699948848
 40
0.8242275373
 40
0.9177583563
 40
0.9517448452
 40
0.9768303563
 40
0.9928814571
 40
1.0
 40
1.0
 40
1.0
 40
1.0
 10
6.583699944
 20
16.004801437
 30
0.0
 10
6.5647668724
 20
16.0047908683
 30
0.0
 10
6.5372540455
 20
16.0046180972
 30
0.0
 10
6.502211235
 20
16.0040190717
 30
0.0
 10
6.4798716124
 20
16.0034506021
 30
0.0
 10
6.4614552239
 20
16.0027524905
 30
0.0
 10
6.4488261284
 20
16.0020902333
 30
0.0
 10
6.441261932
 20
16.0014324516
 30
0.0
 10
6.437433005
 20
16.0010467712
 30
0.0
 10
6.4352247972
 20
16.0005603207
 30
0.0
 10
6.4338923016
 20
16.0003130139
 30
0.0
 10
6.4337217473
 20
16.0
 30
0.0
 11
6.583699944
 21
16.004801437
 31
0.0
 11
6.5269020541
 21
16.0044122118
 31
0.0
 11
6.5011714333
 21
16.0039631636
 31
0.0
 11
6.4785624539
 21
16.0033659112
 31
0.0
 11
6.4599065793
 21
16.0026421011
 31
0.0
 11
6.4458799709
 21
16.0018183521
 31
0.0
 11
6.4407933379
 21
16.0013779809
 31
0.0
 11
6.4370521959
 21
16.0009247153
 31
0.0
 11
6.4346853856
 21
16.0004636801
 31
0.0
 11
6.4337217473
 21
16.0
 31
0.0
  0
SPLINE
  5
410
100
AcDbEntity
  8
RACCORDO
100
AcDbSpline
 62
253
  6
CONTINUOUS
 70
0
 71
3
 72
16
 73
12
 74
10
 42
0.0000001
 43
0.0000001
 44
0.0000000001
 12
0.1502250976
 22
-0.0000838922
 32
0.0
 13
0.0718753386
 23
-0.1319148312
 33
0.0
 40
0.0
 40
0.0
 40
0.0
 40
0.0
 40
0.3780920761
 40
0.5493974197
 40
0.6999494508
 40
0.8242279832
 40
0.9177586224
 40
0.9517450269
 40
0.9768304626
 40
0.9928815003
 40
1.0
 40
1.0
 40
1.0
 40
1.0
 10
-6.583699944
 20
16.0048014404
 30
0.0
 10
-6.564766971
 20
16.0047908674
 30
0.0
 10
-6.5372543002
 20
16.0046180919
 30
0.0
 10
-6.5022117026
 20
16.0040190629
 30
0.0
 10
-6.4798722451
 20
16.0034505923
 30
0.0
 10
-6.461456006
 20
16.0027524816
 30
0.0
 10
-6.4488270184
 20
16.0020902257
 30
0.0
 10
-6.4412628928
 20
16.0014324465
 30
0.0
 10
-6.437434002
 20
16.0010467668
 30
0.0
 10
-6.4352258221
 20
16.0005603198
 30
0.0
 10
-6.4338933379
 20
16.0003130119
 30
0.0
 10
-6.4337227897
 20
16.0
 30
0.0
 11
-6.583699944
 21
16.0048014404
 31
0.0
 11
-6.5269023498
 21
16.0044122053
 31
0.0
 11
-6.5011719019
 21
16.0039631547
 31
0.0
 11
-6.4785630923
 21
16.0033659015
 31
0.0
 11
-6.4599073707
 21
16.0026420923
 31
0.0
 11
-6.4458808867
 21
16.0018183454
 31
0.0
 11
-6.4407943019
 21
16.0013779757
 31
0.0
 11
-6.4370531975
 21
16.0009247117
 31
0.0
 11
-6.4346864134
 21
16.0004636782
 31
0.0
 11
-6.4337227897
 21
16.0
 31
0.0
  0
SPLINE
  5
411
100
AcDbEntity
  8
RACCORDO
100
AcDbSpline
 62
253
  6
CONTINUOUS
 70
0
 71
3
 72
16
 73
12
 74
10
 42
0.0000001
 43
0.0000001
 44
0.0000000001
 12
0.1503817731
 22
-0.0001080446
 32
0.0
 13
0.0587495883
 23
-0.1384311209
 33
0.0
 40
0.0
 40
0.0
 40
0.0
 40
0.0
 40
0.3776935009
 40
0.5488339173
 40
0.699261782
 40
0.8234724955
 40
0.9170137823
 40
0.9510498408
 40
0.97623067
 40
0.9924595367
 40
1.0
 40
1.0
 40
1.0
 40
1.0
 10
-6.580763245
 20
20.5993434437
 30
0.0
 10
-6.5618305056
 20
20.5993298411
 30
0.0
 10
-6.5343171146
 20
20.5991070133
 30
0.0
 10
-6.4992754399
 20
20.5983371434
 30
0.0
 10
-6.476935511
 20
20.5976028932
 30
0.0
 10
-6.4585161277
 20
20.5967114804
 30
0.0
 10
-6.4458882493
 20
20.595843046
 30
0.0
 10
-6.4383209162
 20
20.5950186455
 30
0.0
 10
-6.4344943528
 20
20.5944826937
 30
0.0
 10
-6.432258695
 20
20.5939271703
 30
0.0
 10
-6.4309337573
 20
20.5935119148
 30
0.0
 10
-6.4307860909
 20
20.5931639698
 30
0.0
 11
-6.580763245
 21
20.5993434437
 31
0.0
 11
-6.523967221
 21
20.5988425156
 31
0.0
 11
-6.4982373046
 21
20.5982645958
 31
0.0
 11
-6.4756287526
 21
20.5974959362
 31
0.0
 11
-6.4569729634
 21
20.5965643937
 31
0.0
 11
-6.4429460626
 21
20.5955042242
 31
0.0
 11
-6.4378591341
 21
20.5949374614
 31
0.0
 11
-6.4341175996
 21
20.5943541011
 31
0.0
 11
-6.4317503036
 21
20.5937607388
 31
0.0
 11
-6.4307860909
 21
20.5931639698
 31
0.0
  0
SPLINE
  5
412
100
AcDbEntity
  8
RACCORDO
100
AcDbSpline
 62
253
  6
CONTINUOUS
 70
0
 71
3
 72
13
 73
9
 74
7
 42
0.0000001
 43
0.0000001
 44
0.0000000001
 12
-0.2948282824
 22
-0.0555031518
 32
0.0
 13
-0.2983305333
 23
-0.0316734719
 33
0.0
 40
0.0
 40
0.0
 40
0.0
 40
0.0
 40
0.022181844
 40
0.0810853187
 40
0.1745264264
 40
0.2990278727
 40
0.6212650311
 40
1.0
 40
1.0
 40
1.0
 40
1.0
 10
-21.3527894367
 20
-0.6743137276
 30
0.0
 10
-21.3549693817
 20
-0.674724115
 30
0.0
 10
-21.3630719429
 20
-0.6753544347
 30
0.0
 10
-21.3803799736
 20
-0.6775145864
 30
0.0
 10
-21.407924891
 20
-0.6803695201
 30
0.0
 10
-21.4616212989
 20
-0.6862319753
 30
0.0
 10
-21.5437099379
 20
-0.6949659375
 30
0.0
 10
-21.6134126556
 20
-0.7024003645
 30
0.0
 10
-21.6510753907
 20
-0.7063989816
 30
0.0
 11
-21.3527894367
 21
-0.6743137276
 31
0.0
 11
-21.3593979026
 21
-0.6750969134
 31
0.0
 11
-21.3769622079
 21
-0.6770400796
 31
0.0
 11
-21.4048308941
 21
-0.6800708659
 31
0.0
 11
-21.4419668113
 21
-0.6840765458
 31
0.0
 11
-21.5380905042
 21
-0.6943719125
 31
0.0
 11
-21.6510753907
 21
-0.7063989816
 31
0.0
  0
SPLINE
  5
413
100
AcDbEntity
  8
RACCORDO
100
AcDbSpline
 62
253
  6
CONTINUOUS
 70
0
 71
3
 72
13
 73
9
 74
7
 42
0.0000001
 43
0.0000001
 44
0.0000000001
 12
-0.29481927
 22
0.0555116965
 32
0.0
 13
-0.2983233077
 23
0.0316726149
 33
0.0
 40
0.0
 40
0.0
 40
0.0
 40
0.0
 40
0.0221809165
 40
0.081083449
 40
0.174523713
 40
0.29902456
 40
0.6212619214
 40
1.0
 40
1.0
 40
1.0
 40
1.0
 10
-21.3527966724
 20
0.6743144952
 30
0.0
 10
-21.3549764596
 20
0.6747249287
 30
0.0
 10
-21.3630786645
 20
0.675355088
 30
0.0
 10
-21.3803859798
 20
0.6775152908
 30
0.0
 10
-21.4079300045
 20
0.6803700714
 30
0.0
 10
-21.4616249787
 20
0.6862324161
 30
0.0
 10
-21.543711902
 20
0.6949661671
 30
0.0
 10
-21.6134132586
 20
0.7024004424
 30
0.0
 10
-21.6510753907
 20
0.7063989842
 30
0.0
 11
-21.3527966724
 21
0.6743144952
 31
0.0
 11
-21.3594046999
 21
0.675097645
 31
0.0
 11
-21.3769682969
 21
0.6770407454
 31
0.0
 11
-21.4048360546
 21
0.6800714403
 31
0.0
 11
-21.4419708917
 21
0.6840770097
 31
0.0
 11
-21.5380923141
 21
0.6943721313
 31
0.0
 11
-21.6510753907
 21
0.7063989842
 31
0.0
  0
SPLINE
  5
414
100
AcDbEntity
  8
RACCORDO
100
AcDbSpline
 62
253
  6
CONTINUOUS
 70
0
 71
3
 72
13
 73
9
 74
7
 42
0.0000001
 43
0.0000001
 44
0.0000000001
 12
0.2948282611
 22
0.0555031527
 32
0.0
 13
0.2983305128
 23
0.0316734697
 33
0.0
 40
0.0
 40
0.0
 40
0.0
 40
0.0
 40
0.0221818431
 40
0.0810853163
 40
0.1745264222
 40
0.2990278669
 40
0.6212650246
 40
1.0
 40
1.0
 40
1.0
 40
1.0
 10
21.3527894573
 20
0.6743137298
 30
0.0
 10
21.354969402
 20
0.6747241172
 30
0.0
 10
21.3630719625
 20
0.6753544368
 30
0.0
 10
21.3803799915
 20
0.6775145883
 30
0.0
 10
21.4079249066
 20
0.6803695217
 30
0.0
 10
21.4616213103
 20
0.6862319765
 30
0.0
 10
21.5437099441
 20
0.6949659382
 30
0.0
 10
21.6134126576
 20
0.7024003647
 30
0.0
 10
21.6510753907
 20
0.7063989816
 30
0.0
 11
21.3527894573
 21
0.6743137298
 31
0.0
 11
21.3593979225
 21
0.6750969155
 31
0.0
 11
21.3769622261
 21
0.6770400815
 31
0.0
 11
21.4048309099
 21
0.6800708676
 31
0.0
 11
21.4419668239
 21
0.6840765472
 31
0.0
 11
21.53809051
 21
0.6943719131
 31
0.0
 11
21.6510753907
 21
0.7063989816
 31
0.0
  0
SPLINE
  5
415
100
AcDbEntity
  8
RACCORDO
100
AcDbSpline
 62
253
  6
CONTINUOUS
 70
0
 71
3
 72
23
 73
19
 74
17
 42
0.0000001
 43
0.0000001
 44
0.0000000001
 12
0.0008282732
 22
-10.4194136369
 32
0.0
 13
0.0008159044
 23
10.4194136379
 33
0.0
 40
0.0
 40
0.0
 40
0.0
 40
0.0
 40
0.0625020333
 40
0.1249997741
 40
0.1875004362
 40
0.250000146
 40
0.3125000625
 40
0.3749999788
 40
0.4374999552
 40
0.5000000131
 40
0.5625000708
 40
0.6250000464
 40
0.687499964
 40
0.7499998842
 40
0.8124995955
 40
0.8750002597
 40
0.9374979833
 40
1.0
 40
1.0
 40
1.0
 40
1.0
 10
-3.321135325
 20
-0.0
 30
0.0
 10
-3.3211180687
 20
-0.2170781794
 30
0.0
 10
-3.2783587198
 20
-0.6524237769
 30
0.0
 10
-3.0881907137
 20
-1.2794345134
 30
0.0
 10
-2.7794340063
 20
-1.8576036721
 30
0.0
 10
-2.363825201
 20
-2.3643777047
 30
0.0
 10
-1.8573422983
 20
-2.7803593746
 30
0.0
 10
-1.2794127521
 20
-3.0894957389
 30
0.0
 10
-0.6522567275
 20
-3.2798787777
 30
0.0
 10
0.0000002357
 20
-3.3441662782
 30
0.0
 10
0.6522571916
 20
-3.2798787349
 30
0.0
 10
1.2794132059
 20
-3.0894956526
 30
0.0
 10
1.8573427359
 20
-2.7803592423
 30
0.0
 10
2.363825672
 20
-2.3643775487
 30
0.0
 10
2.7794342966
 20
-1.8576033748
 30
0.0
 10
3.0881913061
 20
-1.2794343863
 30
0.0
 10
3.2783585656
 20
-0.6524235676
 30
0.0
 10
3.3211183264
 20
-0.2170781219
 30
0.0
 10
3.321135325
 20
-0.0
 30
0.0
 11
-3.321135325
 21
-0.0
 31
0.0
 11
-3.2573511094
 21
-0.6481033869
 31
0.0
 11
-3.0684294776
 21
-1.2712861791
 31
0.0
 11
-2.7616240552
 21
-1.8457061045
 31
0.0
 11
-2.3486797593
 21
-2.3492454798
 31
0.0
 11
-1.8454346478
 21
-2.7625517311
 31
0.0
 11
-1.2712086095
 21
-3.0697034109
 31
0.0
 11
-0.6480735958
 21
-3.2588627798
 31
0.0
 11
0.000000236
 21
-3.3227370949
 31
0.0
 11
0.6480740601
 21
-3.258862737
 31
0.0
 11
1.2712090542
 21
-3.0697033278
 31
0.0
 11
1.8454350853
 21
-2.7625516078
 31
0.0
 11
2.3486801993
 21
-2.3492452993
 31
0.0
 11
2.7616244309
 21
-1.84570585
 31
0.0
 11
3.0684299249
 21
-1.2712859381
 31
0.0
 11
3.2573511853
 21
-0.648103221
 31
0.0
 11
3.321135325
 21
-0.0
 31
0.0
  0
SPLINE
  5
416
100
AcDbEntity
  8
RACCORDO
100
AcDbSpline
 62
253
  6
CONTINUOUS
 70
0
 71
3
 72
23
 73
19
 74
17
 42
0.0000001
 43
0.0000001
 44
0.0000000001
 12
-0.0008266498
 22
10.4194136254
 32
0.0
 13
-0.0008142979
 23
-10.4194136263
 33
0.0
 40
0.0
 40
0.0
 40
0.0
 40
0.0
 40
0.0625019478
 40
0.124999641
 40
0.1875003125
 40
0.2500000588
 40
0.3125000086
 40
0.3749999436
 40
0.4374999339
 40
0.5000000156
 40
0.5625000968
 40
0.6250000864
 40
0.6875000227
 40
0.7499999764
 40
0.8124997244
 40
0.8750003975
 40
0.9374980711
 40
1.0
 40
1.0
 40
1.0
 40
1.0
 10
3.321135325
 20
-0.0
 30
0.0
 10
3.3211181026
 20
0.2170778822
 30
0.0
 10
3.2783587866
 20
0.6524230091
 30
0.0
 10
3.0881911608
 20
1.279433395
 30
0.0
 10
2.7794346787
 20
1.8576026707
 30
0.0
 10
2.3638258865
 20
2.3643770768
 30
0.0
 10
1.8573428235
 20
2.7803590487
 30
0.0
 10
1.279413112
 20
3.0894955939
 30
0.0
 10
0.6522569155
 20
3.2798787473
 30
0.0
 10
-0.0000002615
 20
3.3441662887
 30
0.0
 10
-0.6522574299
 20
3.2798786939
 30
0.0
 10
-1.2794136128
 20
3.0894954872
 30
0.0
 10
-1.8573433046
 20
2.7803588884
 30
0.0
 10
-2.3638263965
 20
2.364376884
 30
0.0
 10
-2.7794349987
 20
1.8576023299
 30
0.0
 10
-3.0881917681
 20
1.2794332276
 30
0.0
 10
-3.2783586363
 20
0.6524227757
 30
0.0
 10
-3.3211183599
 20
0.2170778166
 30
0.0
 10
-3.321135325
 20
-0.0
 30
0.0
 11
3.321135325
 21
-0.0
 31
0.0
 11
3.2573512698
 21
0.6481025069
 31
0.0
 11
3.0684300014
 21
1.2712848893
 31
0.0
 11
2.7616247677
 21
1.8457050267
 31
0.0
 11
2.3486804101
 21
2.3492448424
 31
0.0
 11
1.8454351191
 21
2.7625514204
 31
0.0
 11
1.2712089485
 21
3.0697032646
 31
0.0
 11
0.6480738129
 21
3.2588627302
 31
0.0
 11
-0.0000002619
 21
3.3227370889
 31
0.0
 11
-0.6480743272
 21
3.2588626769
 31
0.0
 11
-1.2712094393
 21
3.0697031617
 31
0.0
 11
-1.8454355995
 21
2.7625512692
 31
0.0
 11
-2.3486808885
 21
2.3492446253
 31
0.0
 11
-2.7616251745
 21
1.8457047267
 31
0.0
 11
-3.0684304672
 21
1.2712846034
 31
0.0
 11
-3.2573513508
 21
0.6481023172
 31
0.0
 11
-3.321135325
 21
-0.0
 31
0.0
  0
SPLINE
  5
417
100
AcDbEntity
  8
RACCORDO
100
AcDbSpline
 62
253
  6
CONTINUOUS
 70
0
 71
3
 72
18
 73
14
 74
12
 42
0.0000001
 43
0.0000001
 44
0.0000000001
 12
0.0009335082
 22
1.2930525315
 32
0.0
 13
0.4077539115
 23
1.2270788355
 33
0.0
 40
0.0
 40
0.0
 40
0.0
 40
0.0
 40
0.190811045
 40
0.3736716526
 40
0.5423666174
 40
0.6911605448
 40
0.8150008459
 40
0.8662097976
 40
0.9096867497
 40
0.9450544578
 40
0.9720266183
 40
0.9903724941
 40
1.0
 40
1.0
 40
1.0
 40
1.0
 10
-6.4307860908
 20
20.5931639698
 30
0.0
 10
-6.4307267162
 20
20.6754068714
 30
0.0
 10
-6.4303559228
 20
20.8364658735
 30
0.0
 10
-6.4290357034
 20
21.0702320639
 30
0.0
 10
-6.4270117122
 20
21.2858829685
 30
0.0
 10
-6.4243532866
 20
21.4760848363
 30
0.0
 10
-6.4215784385
 20
21.6156430625
 30
0.0
 10
-6.4189903934
 20
21.7097933523
 30
0.0
 10
-6.4171111643
 20
21.7658249814
 30
0.0
 10
-6.4151038982
 20
21.8113711955
 30
0.0
 10
-6.4132437019
 20
21.8461470251
 30
0.0
 10
-6.411051145
 20
21.8696415924
 30
0.0
 10
-6.409783573
 20
21.8817577107
 30
0.0
 10
-6.408475022
 20
21.8856956136
 30
0.0
 11
-6.4307860908
 21
20.5931639698
 31
0.0
 11
-6.4302075429
 21
20.8398920606
 31
0.0
 11
-6.4288479949
 21
21.0763365852
 31
0.0
 11
-6.4267538651
 21
21.294458041
 31
0.0
 11
-6.4239963189
 21
21.4868366933
 31
0.0
 11
-6.4206691954
 21
21.6469341817
 31
0.0
 11
-6.4188266349
 21
21.7131244226
 31
0.0
 11
-6.4168856342
 21
21.7693089024
 31
0.0
 11
-6.4148626621
 21
21.8149964537
 31
0.0
 11
-6.4127743391
 21
21.849810305
 31
0.0
 11
-6.4106381615
 21
21.8734361155
 31
0.0
 11
-6.408475022
 21
21.8856956136
 31
0.0
  0
LINE
  5
418
100
AcDbEntity
  8
RACCORDO
100
AcDbLine
 62
253
  6
CONTINUOUS
 10
-6.4337227
 20
16.0001531405
 11
-6.4307860908
 21
20.5931639698
  0
SPLINE
  5
419
100
AcDbEntity
  8
RACCORDO
100
AcDbSpline
 62
253
  6
CONTINUOUS
 70
0
 71
3
 72
18
 73
14
 74
12
 42
0.0000001
 43
0.0000001
 44
0.0000000001
 12
0.4077539033
 22
-1.2270788382
 32
0.0
 13
0.0009335081
 23
-1.2930525315
 33
0.0
 40
0.0
 40
0.0
 40
0.0
 40
0.0
 40
0.0096275059
 40
0.0279733817
 40
0.0549455422
 40
0.0903132503
 40
0.1337902024
 40
0.1849991541
 40
0.3088394552
 40
0.4576333826
 40
0.6263283474
 40
0.809188955
 40
1.0
 40
1.0
 40
1.0
 40
1.0
 10
6.408475022
 20
21.8856956136
 30
0.0
 10
6.409783573
 20
21.8817577107
 30
0.0
 10
6.411051145
 20
21.8696415924
 30
0.0
 10
6.4132437019
 20
21.8461470251
 30
0.0
 10
6.4151038982
 20
21.8113711955
 30
0.0
 10
6.4171111643
 20
21.7658249814
 30
0.0
 10
6.4189903934
 20
21.7097933524
 30
0.0
 10
6.4215784385
 20
21.6156430625
 30
0.0
 10
6.4243532866
 20
21.4760848363
 30
0.0
 10
6.4270117122
 20
21.2858829685
 30
0.0
 10
6.4290357034
 20
21.0702320639
 30
0.0
 10
6.4303559228
 20
20.8364658735
 30
0.0
 10
6.4307267162
 20
20.6754068714
 30
0.0
 10
6.4307860908
 20
20.5931639698
 30
0.0
 11
6.408475022
 21
21.8856956136
 31
0.0
 11
6.4106381615
 21
21.8734361154
 31
0.0
 11
6.4127743391
 21
21.8498103051
 31
0.0
 11
6.4148626621
 21
21.8149964538
 31
0.0
 11
6.4168856342
 21
21.7693089024
 31
0.0
 11
6.4188266349
 21
21.7131244226
 31
0.0
 11
6.4206691954
 21
21.6469341817
 31
0.0
 11
6.4239963189
 21
21.4868366933
 31
0.0
 11
6.4267538651
 21
21.294458041
 31
0.0
 11
6.4288479949
 21
21.0763365852
 31
0.0
 11
6.4302075429
 21
20.8398920606
 31
0.0
 11
6.4307860908
 21
20.5931639698
 31
0.0
  0
LINE
  5
41A
100
AcDbEntity
  8
RACCORDO
100
AcDbLine
 62
253
  6
CONTINUOUS
 10
6.4307860908
 20
20.5931639698
 11
6.4337227822
 21
16.0000128258
  0
LINE
  5
41B
100
AcDbEntity
  8
RACCORDO
100
AcDbLine
 62
253
  6
CONTINUOUS
 10
-41.4931410844
 20
-28.7289625308
 11
-41.4931409406
 21
-23.7295999401
  0
SPLINE
  5
41C
100
AcDbEntity
  8
RACCORDO
100
AcDbSpline
 62
253
  6
CONTINUOUS
 70
0
 71
3
 72
18
 73
14
 74
12
 42
0.0000001
 43
0.0000001
 44
0.0000000001
 12
0.2500340364
 22
-0.0043643603
 32
0.0
 13
-0.0043630314
 23
-0.2500340596
 33
0.0
 40
0.0
 40
0.0
 40
0.0
 40
0.0
 40
0.0051239212
 40
0.0196182269
 40
0.0434845939
 40
0.0765727967
 40
0.1185426301
 40
0.1689689154
 40
0.293313138
 40
0.4447333406
 40
0.6174990955
 40
0.8051839969
 40
1.0
 40
1.0
 40
1.0
 40
1.0
 10
-39.0335423975
 20
28.2781050106
 30
0.0
 10
-39.0331153459
 20
28.2780975564
 30
0.0
 10
-39.0332065321
 20
28.2756284075
 30
0.0
 10
-39.0325636819
 20
28.272810999
 30
0.0
 10
-39.0324729315
 20
28.2664158181
 30
0.0
 10
-39.0321467817
 20
28.2583672074
 30
0.0
 10
-39.031984997
 20
28.2478350019
 30
0.0
 10
-39.0317694983
 20
28.2298031243
 30
0.0
 10
-39.0317035923
 20
28.202591056
 30
0.0
 10
-39.0318313759
 20
28.1652115958
 30
0.0
 10
-39.0321890787
 20
28.1225418521
 30
0.0
 10
-39.0327567773
 20
28.076260566
 30
0.0
 10
-39.0332590681
 20
28.0443799655
 30
0.0
 10
-39.0335423975
 20
28.0281430868
 30
0.0
 11
-39.0335423975
 21
28.2781050106
 31
0.0
 11
-39.0331369736
 21
28.2768894906
 31
0.0
 11
-39.0327762391
 21
28.2732828642
 31
0.0
 11
-39.0324643744
 21
28.2673227047
 31
0.0
 11
-39.0322053489
 21
28.2590523229
 31
0.0
 11
-39.0320015239
 21
28.2485588168
 31
0.0
 11
-39.0318545192
 21
28.2359494655
 31
0.0
 11
-39.0317363647
 21
28.2048546662
 31
0.0
 11
-39.0318545692
 21
28.166988879
 31
0.0
 11
-39.0322054473
 21
28.1237864047
 31
0.0
 11
-39.0327762659
 21
28.0768551141
 31
0.0
 11
-39.0335423975
 21
28.0281430868
 31
0.0
  0
SPLINE
  5
41D
100
AcDbEntity
  8
RACCORDO
100
AcDbSpline
 62
253
  6
CONTINUOUS
 70
0
 71
3
 72
18
 73
14
 74
12
 42
0.0000001
 43
0.0000001
 44
0.0000000001
 12
0.0043630315
 22
-0.2500340648
 32
0.0
 13
-0.2500340416
 23
-0.0043643604
 33
0.0
 40
0.0
 40
0.0
 40
0.0
 40
0.0
 40
0.1948266539
 40
0.3825267536
 40
0.5552863631
 40
0.7066991494
 40
0.8310400578
 40
0.8814640841
 40
0.9234311497
 40
0.9565177065
 40
0.9803830148
 40
0.9948764343
 40
1.0
 40
1.0
 40
1.0
 40
1.0
 10
-39.0335423975
 20
-28.0281430868
 30
0.0
 10
-39.0332590526
 20
-28.0443808536
 30
0.0
 10
-39.0327567646
 20
-28.0762636097
 30
0.0
 10
-39.032189008
 20
-28.1225465386
 30
0.0
 10
-39.0318313465
 20
-28.1652164199
 30
0.0
 10
-39.0317035955
 20
-28.2025944747
 30
0.0
 10
-39.0317695161
 20
-28.2298054597
 30
0.0
 10
-39.0319850142
 20
-28.2478366443
 30
0.0
 10
-39.0321468149
 20
-28.2583682876
 30
0.0
 10
-39.0324729405
 20
-28.2664164558
 30
0.0
 10
-39.0325637069
 20
-28.2728113097
 30
0.0
 10
-39.033206494
 20
-28.2756285863
 30
0.0
 10
-39.0331153756
 20
-28.2780975569
 30
0.0
 10
-39.0335423975
 20
-28.2781050106
 30
0.0
 11
-39.0335423975
 21
-28.0281430868
 31
0.0
 11
-39.0327762448
 21
-28.0768577785
 31
0.0
 11
-39.0322053729
 21
-28.1237928704
 31
0.0
 11
-39.0318545377
 21
-28.1669938092
 31
0.0
 11
-39.0317363675
 21
-28.2048577426
 31
0.0
 11
-39.0318545377
 21
-28.2359517137
 31
0.0
 11
-39.0320015461
 21
-28.2485605003
 31
0.0
 11
-39.0322053729
 21
-28.2590533142
 31
0.0
 11
-39.0324643896
 21
-28.2673232847
 31
0.0
 11
-39.0327762448
 21
-28.2732831797
 31
0.0
 11
-39.0331369747
 21
-28.2768895839
 31
0.0
 11
-39.0335423975
 21
-28.2781050106
 31
0.0
  0
SPLINE
  5
41E
100
AcDbEntity
  8
RACCORDO
100
AcDbSpline
 62
253
  6
CONTINUOUS
 70
0
 71
3
 72
9
 73
5
 74
3
 42
0.0000001
 43
0.0000001
 44
0.0000000001
 12
-0.000882035
 22
0.7051709791
 32
0.0
 13
0.0000354075
 23
0.7051715298
 33
0.0
 40
0.0
 40
0.0
 40
0.0
 40
0.0
 40
0.4956996986
 40
1.0
 40
1.0
 40
1.0
 40
1.0
 10
-47.5874086611
 20
-0.7051223773
 30
0.0
 10
-47.5875544026
 20
-0.5886046967
 30
0.0
 10
-47.582376697
 20
-0.3535815068
 30
0.0
 10
-47.5791283745
 20
-0.118539405
 30
0.0
 10
-47.5791224225
 20
0.0
 30
0.0
 11
-47.5874086611
 21
-0.7051223773
 31
0.0
 11
-47.5828953129
 21
-0.3555982009
 31
0.0
 11
-47.5791224225
 21
0.0
 31
0.0
  0
LINE
  5
41F
100
AcDbEntity
  8
RACCORDO
100
AcDbLine
 62
253
  6
CONTINUOUS
 10
-41.4931409672
 20
23.7296117083
 11
-41.4931407859
 21
28.7289625379
  0
SPLINE
  5
420
100
AcDbEntity
  8
RACCORDO
100
AcDbSpline
 62
253
  6
CONTINUOUS
 70
0
 71
3
 72
20
 73
16
 74
14
 42
0.0000001
 43
0.0000001
 44
0.0000000001
 12
-0.4993524081
 22
0.0261699508
 32
0.0
 13
0.026152078
 23
0.4993533445
 33
0.0
 40
0.0
 40
0.0
 40
0.0
 40
0.0
 40
0.0017584432
 40
0.0055881856
 40
0.0201799748
 40
0.0441070278
 40
0.0772068414
 40
0.1191460404
 40
0.1695594989
 40
0.22795821
 40
0.2937738194
 40
0.4451191708
 40
0.617733126
 40
0.8051809306
 40
1.0
 40
1.0
 40
1.0
 40
1.0
 10
-45.7431697977
 20
-22.0354900438
 30
0.0
 10
-45.743462492
 20
-22.0354747043
 30
0.0
 10
-45.7440206593
 20
-22.0344624555
 30
0.0
 10
-45.7446893295
 20
-22.0314003946
 30
0.0
 10
-45.7454338195
 20
-22.0241368037
 30
0.0
 10
-45.7459337384
 20
-22.0123426635
 30
0.0
 10
-45.7462421427
 20
-21.9957905366
 30
0.0
 10
-45.7462691294
 20
-21.974901851
 30
0.0
 10
-45.7460320788
 20
-21.94976767
 30
0.0
 10
-45.7455207719
 20
-21.9206676933
 30
0.0
 10
-45.7444280783
 20
-21.8747493303
 30
0.0
 10
-45.7423763288
 20
-21.8098140492
 30
0.0
 10
-45.7390809484
 20
-21.7246360989
 30
0.0
 10
-45.7349598724
 20
-21.6322404464
 30
0.0
 10
-45.7317886016
 20
-21.5686031277
 30
0.0
 10
-45.7300902937
 20
-21.5361752764
 30
0.0
 11
-45.7431697977
 21
-22.0354900438
 31
0.0
 11
-45.7437768369
 21
-22.0348539222
 31
0.0
 11
-45.7443203406
 21
-22.033017652
 31
0.0
 11
-45.7452111129
 21
-22.0257757857
 31
0.0
 11
-45.7458309182
 21
-22.0138274223
 31
0.0
 11
-45.746172239
 21
-21.9972797876
 31
0.0
 11
-45.7462332613
 21
-21.9763086961
 31
0.0
 11
-45.7460129745
 21
-21.9511010292
 31
0.0
 11
-45.7455140063
 21
-21.9219037357
 31
0.0
 11
-45.7447413321
 21
-21.889002522
 31
0.0
 11
-45.7424048668
 21
-21.8133602179
 31
0.0
 11
-45.7390951725
 21
-21.7271102126
 31
0.0
 11
-45.7349347426
 21
-21.6334716248
 31
0.0
 11
-45.7300902937
 21
-21.5361752764
 31
0.0
  0
SPLINE
  5
421
100
AcDbEntity
  8
RACCORDO
100
AcDbSpline
 62
253
  6
CONTINUOUS
 70
0
 71
3
 72
9
 73
5
 74
3
 42
0.0000001
 43
0.0000001
 44
0.0000000001
 12
-0.0000347699
 22
0.7051963323
 32
0.0
 13
0.0008843296
 23
0.7051957786
 33
0.0
 40
0.0
 40
0.0
 40
0.0
 40
0.0
 40
0.504300341
 40
1.0
 40
1.0
 40
1.0
 40
1.0
 10
-47.5791224225
 20
0.0
 30
0.0
 10
-47.5791282674
 20
0.1185435836
 30
0.0
 10
-47.582377023
 20
0.3535939479
 30
0.0
 10
-47.5875547503
 20
0.5886254134
 30
0.0
 10
-47.5874086297
 20
0.7051471824
 30
0.0
 11
-47.5791224225
 21
0.0
 31
0.0
 11
-47.5828955384
 21
0.355610735
 31
0.0
 11
-47.5874086297
 21
0.7051471824
 31
0.0
  0
SPLINE
  5
422
100
AcDbEntity
  8
RACCORDO
100
AcDbSpline
 62
253
  6
CONTINUOUS
 70
0
 71
3
 72
20
 73
16
 74
14
 42
0.0000001
 43
0.0000001
 44
0.0000000001
 12
-0.4993524074
 22
-0.0261699508
 32
0.0
 13
0.0261520673
 23
-0.4993533443
 33
0.0
 40
0.0
 40
0.0
 40
0.0
 40
0.0
 40
0.0017584423
 40
0.0055881839
 40
0.0201799713
 40
0.0441070228
 40
0.0772068332
 40
0.1191460289
 40
0.1695594853
 40
0.2279581927
 40
0.2937738003
 40
0.445119149
 40
0.6177331059
 40
0.8051809229
 40
1.0
 40
1.0
 40
1.0
 40
1.0
 10
-45.7431697977
 20
22.0354900438
 30
0.0
 10
-45.7434624918
 20
22.0354747043
 30
0.0
 10
-45.7440206586
 20
22.0344624555
 30
0.0
 10
-45.7446893283
 20
22.0314003953
 30
0.0
 10
-45.7454338175
 20
22.0241368048
 30
0.0
 10
-45.7459337356
 20
22.0123426658
 30
0.0
 10
-45.7462421393
 20
21.9957905401
 30
0.0
 10
-45.7462691255
 20
21.974901856
 30
0.0
 10
-45.7460320745
 20
21.9497676767
 30
0.0
 10
-45.7455207676
 20
21.9206677013
 30
0.0
 10
-45.7444280739
 20
21.8747493396
 30
0.0
 10
-45.7423763249
 20
21.8098140591
 30
0.0
 10
-45.7390809454
 20
21.724636107
 30
0.0
 10
-45.7349598706
 20
21.6322404509
 30
0.0
 10
-45.7317886009
 20
21.568603129
 30
0.0
 10
-45.7300902937
 20
21.5361752764
 30
0.0
 11
-45.7431697977
 21
22.0354900438
 31
0.0
 11
-45.7437768364
 21
22.0348539224
 31
0.0
 11
-45.7443203397
 21
22.0330176525
 31
0.0
 11
-45.7452111111
 21
22.0257757869
 31
0.0
 11
-45.7458309156
 21
22.0138274243
 31
0.0
 11
-45.7461722357
 21
21.9972797912
 31
0.0
 11
-45.7462332575
 21
21.9763087014
 31
0.0
 11
-45.7460129703
 21
21.9511010356
 31
0.0
 11
-45.745514002
 21
21.921903744
 31
0.0
 11
-45.7447413278
 21
21.8890025312
 31
0.0
 11
-45.742404863
 21
21.8133602285
 31
0.0
 11
-45.7390951697
 21
21.7271102225
 31
0.0
 11
-45.7349347409
 21
21.6334716286
 31
0.0
 11
-45.7300902937
 21
21.5361752764
 31
0.0
  0
ELLIPSE
  5
423
100
AcDbEntity
  8
RACCORDO
100
AcDbEllipse
 62
7
  6
CONTINUOUS
 10
5.9999771508
 20
22.0663669206
 30
0.0
 11
0.0474717307
 21
0.1425310072
 31
0.0
 40
0.9984778551
 41
-1.2488325878
 42
0.3210503505
  0
ELLIPSE
  5
424
100
AcDbEntity
  8
RACCORDO
100
AcDbEllipse
 62
7
  6
CONTINUOUS
 10
-5.9999771508
 20
22.0663669206
 30
0.0
 11
-0.0474717307
 21
0.1425310072
 31
0.0
 40
0.9984778551
 41
-0.3210503505
 42
1.2488325878
  0
ELLIPSE
  5
425
100
AcDbEntity
  8
DRAFT
100
AcDbEllipse
 62
7
  6
CONTINUOUS
 10
-0.8559996014
 20
18.1227773529
 30
0.0
 11
-2.5700871559
 21
6.3735109228
 31
0.0
 40
0.942904759
 41
-4.3898742718
 42
-4.3728393399
  0
ELLIPSE
  5
426
100
AcDbEntity
  8
DRAFT
100
AcDbEllipse
 62
7
  6
CONTINUOUS
 10
2.6007975158
 20
16.0
 30
0.0
 11
7.8087376202
 21
-0.0
 31
0.0
 40
0.942904759
 41
-2.2826212818
 42
-2.2685244207
  0
ELLIPSE
  5
427
100
AcDbEntity
  8
DRAFT
100
AcDbEllipse
 62
7
  6
CONTINUOUS
 10
-2.6007975158
 20
16.0
 30
0.0
 11
7.8087376202
 21
-0.0
 31
0.0
 40
0.942904759
 41
-0.8730682329
 42
-0.8589713718
  0
ELLIPSE
  5
428
100
AcDbEntity
  8
DRAFT
100
AcDbEllipse
 62
7
  6
CONTINUOUS
 10
0.8559996014
 20
18.1227773529
 30
0.0
 11
2.5700871559
 21
6.3735109228
 31
0.0
 40
0.942904759
 41
-1.9103459673
 42
-1.8933110353
  0
ELLIPSE
  5
429
100
AcDbEntity
  8
RACCORDO
100
AcDbEllipse
 62
7
  6
CONTINUOUS
 10
0.0598076523
 20
22.0953720164
 30
0.0
 11
-0.0300136675
 21
-0.3031910442
 31
0.0
 40
0.9846622838
 41
2.0771519867
 42
3.2387599651
  0
ELLIPSE
  5
42A
100
AcDbEntity
  8
RACCORDO
100
AcDbEllipse
 62
7
  6
CONTINUOUS
 10
-0.0598076523
 20
22.0953720164
 30
0.0
 11
-0.0300136675
 21
0.3031910442
 31
0.0
 40
0.9846622838
 41
-0.0971673115
 42
1.0644406669
  0
ELLIPSE
  5
42B
100
AcDbEntity
  8
RACCORDO
100
AcDbEllipse
 62
7
  6
CONTINUOUS
 10
-19.4992383598
 20
23.7492383598
 30
0.0
 11
3.5366109458
 21
-3.5366109458
 31
0.0
 40
0.9996954599
 41
2.3563467834
 42
3.9268385237
  0
ELLIPSE
  5
42C
100
AcDbEntity
  8
RACCORDO
100
AcDbEllipse
 62
7
  6
CONTINUOUS
 10
-19.4992383598
 20
-23.7492383598
 30
0.0
 11
3.5366109458
 21
3.5366109458
 31
0.0
 40
0.9996954599
 41
-3.9268385237
 42
-2.3563467834
  0
ELLIPSE
  5
42D
100
AcDbEntity
  8
RACCORDO
100
AcDbEllipse
 62
7
  6
CONTINUOUS
 10
19.4992383598
 20
-23.7492383598
 30
0.0
 11
3.5366109458
 21
-3.5366109459
 31
0.0
 40
0.9996954599
 41
-0.7852458701
 42
0.7852458702
  0
ELLIPSE
  5
42E
100
AcDbEntity
  8
RACCORDO
100
AcDbEllipse
 62
7
  6
CONTINUOUS
 10
19.4992383598
 20
23.7492383598
 30
0.0
 11
3.5366109458
 21
3.5366109458
 31
0.0
 40
0.9996954599
 41
-0.7852458701
 42
0.7852458701
  0
ELLIPSE
  5
42F
100
AcDbEntity
  8
RACCORDO
100
AcDbEllipse
 62
7
  6
CONTINUOUS
 10
-21.7898477332
 20
21.7420904892
 30
0.0
 11
-0.2238673116
 21
0.4480418466
 31
0.0
 40
0.9982882662
 41
-0.4626886447
 42
1.1067376861
  0
ELLIPSE
  5
430
100
AcDbEntity
  8
RACCORDO
100
AcDbEllipse
 62
7
  6
CONTINUOUS
 10
-21.7898477332
 20
-21.7420904892
 30
0.0
 11
0.2238673116
 21
0.4480418466
 31
0.0
 40
0.9982882662
 41
-4.2483303397
 42
-2.6789040089
  0
ELLIPSE
  5
431
100
AcDbEntity
  8
RACCORDO
100
AcDbEllipse
 62
7
  6
CONTINUOUS
 10
21.7898477332
 20
-21.7420904892
 30
0.0
 11
-0.2238673116
 21
0.4480418466
 31
0.0
 40
0.9982882662
 41
-3.6042812983
 42
-2.0348549675
  0
ELLIPSE
  5
432
100
AcDbEntity
  8
RACCORDO
100
AcDbEllipse
 62
7
  6
CONTINUOUS
 10
21.7898477332
 20
21.7420904892
 30
0.0
 11
0.2238673116
 21
0.4480418466
 31
0.0
 40
0.9982882662
 41
-1.1067376861
 42
0.4626886447
  0
ELLIPSE
  5
433
100
AcDbEntity
  8
RACCORDO
100
AcDbEllipse
 62
7
  6
CONTINUOUS
 10
6.4982773427
 20
22.0663669206
 30
0.0
 11
-0.0474717307
 21
0.1425310072
 31
0.0
 40
0.9984778551
 41
-0.3210503505
 42
1.2488325878
  0
ELLIPSE
  5
434
100
AcDbEntity
  8
RACCORDO
100
AcDbEllipse
 62
7
  6
CONTINUOUS
 10
-6.4982773427
 20
22.0663669206
 30
0.0
 11
0.0474717307
 21
0.1425310072
 31
0.0
 40
0.9984778551
 41
-1.2488325878
 42
0.3210503505
  0
ENDSEC
  0
SECTION
  2
OBJECTS
  0
DICTIONARY
  5
C
100
AcDbDictionary
280
0
281
1
  3
ACAD_GROUP
350
D
  3
ACAD_MLINESTYLE
350
17
  3
ACAD_LAYOUT
350
1A
  3
ACAD_PLOTSETTINGS
350
19
  3
ACAD_PLOTSTYLENAME
350
E
  0
DICTIONARY
  5
D
102
{ACAD_REACTORS
330
C
102
}
100
AcDbDictionary
280
0
281
1
  0
ACDBDICTIONARYWDFLT
  5
E
102
{ACAD_REACTORS
330
C
102
}
100
AcDbDictionary
281
1
  3
Normal
350
F
100
AcDbDictionaryWithDefault
340
F
  0
DICTIONARY
  5
17
102
{ACAD_REACTORS
330
C
102
}
100
AcDbDictionary
280
0
281
1
  3
Standard
350
18
  0
DICTIONARY
  5
19
102
{ACAD_REACTORS
330
C
102
}
100
AcDbDictionary
281
1
  0
DICTIONARY
  5
1A
102
{ACAD_REACTORS
330
C
102
}
100
AcDbDictionary
281
1
  3
Model
350
435
  3
Layout1
350
436
  0
ACDBPLACEHOLDER
  5
F
102
{ACAD_REACTORS
330
E
102
}
  0
MLINESTYLE
  5
18
102
{ACAD_REACTORS
330
17
102
}
100
AcDbMlineStyle
  2
STANDARD
 70
0
  3

 62
256
 51
90.0
 52
90.0
 71
2
 49
0.5
 62
256
  6
BYLAYER
 49
-0.5
 62
256
  6
BYLAYER
  0
LAYOUT
  5
435
102
{ACAD_REACTORS
330
1A
102
}
100
AcDbPlotSettings
  1

  2
none_device
  4
ISO_A4_(297.00_x_210.00_MM)
  6

 40
0.0
 41
0.0
 42
0.0
 43
0.0
 44
297.0
 45
210.0
 46
0.0
 47
0.0
 48
0.0
 49
0.0
140
0.0
141
0.0
142
1.0
143
1.0
 70
1024
 72
1
 73
0
 74
0
  7

 75
0
147
1.0
148
0.0
149
0.0
100
AcDbLayout
  1
Model
 70
0
 71
0
 10
0.0
 20
0.0
 11
297.0
 21
210.0
 12
0.0
 22
0.0
 32
0.0
 14
0.0
 24
0.0
 34
0.0
 15
0.0
 25
0.0
 35
0.0
146
0.0
 13
0.0
 23
0.0
 33
0.0
 16
1.0
 26
0.0
 36
0.0
 17
0.0
 27
1.0
 37
0.0
 76
0
330
214
345
0
346
0
  0
LAYOUT
  5
436
102
{ACAD_REACTORS
330
1A
102
}
100
AcDbPlotSettings
  1

  2
none_device
  4
ISO_A4_(297.00_x_210.00_MM)
  6

 40
0.0
 41
0.0
 42
0.0
 43
0.0
 44
297.0
 45
210.0
 46
0.0
 47
0.0
 48
0.0
 49
0.0
140
0.0
141
0.0
142
1.0
143
1.0
 70
0
 72
1
 73
0
 74
0
  7

 75
0
147
1.0
148
0.0
149
0.0
100
AcDbLayout
  1
Layout1
 70
0
 71
1
 10
0.0
 20
0.0
 11
297.0
 21
210.0
 12
0.0
 22
0.0
 32
0.0
 14
0.0
 24
0.0
 34
0.0
 15
0.0
 25
0.0
 35
0.0
146
0.0
 13
0.0
 23
0.0
 33
0.0
 16
1.0
 26
0.0
 36
0.0
 17
0.0
 27
1.0
 37
0.0
 76
0
330
215
345
0
346
0
  0
ENDSEC
  0
EOF
