  0
SECTION
  2
HEADER
  9
$ACADVER
  1
AC1024
  9
$DWGCODEPAGE
  3
ANSI_1252
  9
$EXTMAX
 10
297.0
 20
210.0
 30
0.0
  9
$EXTMIN
 10
0.0
 20
0.0
 30
0.0
  9
$LIMMIN
 10
0.0
 20
0.0
  9
$LIMMAX
 10
297.0
 20
210.0
  9
$VIEWCTR
 10
148.5
 20
105.0
  9
$VIEWSIZE
 40
210.0
  9
$CLAYER
  8
0
  9
$LTSCALE
 40
16.335
  9
$CELTYPE
  6
BYLAYER
  9
$DIMSCALE
 40
1.0
  9
$DIMASZ
 40
3.0
  9
$DIMEXO
 40
0.5
  9
$DIMDLI
 40
11.286
  9
$DIMEXE
 40
1.5
  9
$DIMCEN
 40
2.673
  9
$DIMLFAC
 40
1.0
  9
$DIMBLK
  1
_FILLED
  9
$DIMALT
 70
0
  9
$DIMALTF
 40
0.0393700787
  9
$DIMTXT
 40
3.0
  9
$DIMTOL
 70
1
  9
$DIMLIM
 70
0
  9
$DIMTFAC
 40
1.0
  9
$DIMTP
 40
0.01
  9
$DIMTM
 40
0.01
  9
$DIMGAP
 40
0.625
  9
$DIMDSEP
 70
44
  9
$AUNITS
 70
0
  9
$PDMODE
 70
3
  9
$PDSIZE
 40
3.0
  9
$HANDSEED
  5
676
  9
$TILEMODE
 70
1
  9
$MEASUREMENT
 70
1
  9
$INSUNITS
 70
4
  0
ENDSEC
  0
SECTION
  2
CLASSES
  0
CLASS
  1
ACDBDICTIONARYWDFLT
  2
AcDbDictionaryWithDefault
  3
AutoCAD 2000
 90
0
 91
1
280
0
281
0
  0
CLASS
  1
ACDBPLACEHOLDER
  2
AcDbPlaceHolder
  3
AutoCAD 2000
 90
0
 91
1
280
0
281
0
  0
CLASS
  1
LAYOUT
  2
AcDbLayout
  3
AutoCAD 2000
 90
0
 91
0
280
0
281
0
  0
ENDSEC
  0
SECTION
  2
TABLES
  0
TABLE
  2
VPORT
  5
8
100
AcDbSymbolTable
 70
2
  0
VPORT
  5
1F4
100
AcDbSymbolTableRecord
100
AcDbViewportTableRecord
  2
*ACTIVE
 70
0
 10
0.0
 20
0.0
 11
1.0
 21
1.0
 12
148.5
 22
105.0
 13
0.0
 23
0.0
 14
1.0
 24
1.0
 15
0.0
 25
0.0
 16
0.0
 26
0.0
 36
1.0
 17
0.0
 27
0.0
 37
0.0
 40
210.0
 41
1.4142857143
 42
50.0
 43
0.0
 44
0.0
 50
0.0
 51
0.0
 71
0
 72
100
 73
1
 74
1
 75
0
 76
0
 77
0
 78
0
  0
ENDTAB
  0
TABLE
  2
LTYPE
  5
5
100
AcDbSymbolTable
 70
6
  0
LTYPE
  5
14
100
AcDbSymbolTableRecord
100
AcDbLinetypeTableRecord
  2
BYBLOCK
 70
0
  3

 72
65
 73
0
 40
0.0
  0
LTYPE
  5
15
100
AcDbSymbolTableRecord
100
AcDbLinetypeTableRecord
  2
BYLAYER
 70
0
  3

 72
65
 73
0
 40
0.0
  0
LTYPE
  5
16
100
AcDbSymbolTableRecord
100
AcDbLinetypeTableRecord
  2
CONTINUOUS
 70
64
  3
Solid line
 72
65
 73
0
 40
0.0
  0
LTYPE
  5
1F5
100
AcDbSymbolTableRecord
100
AcDbLinetypeTableRecord
  2
CENTER
 70
64
  3
____ _ ____ _ ____ _ ____ _ ____ _ ____ _ ____
 72
65
 73
4
 40
0.6
 49
0.375
 74
0
 49
-0.075
 74
0
 49
0.075
 74
0
 49
-0.075
 74
0
  0
LTYPE
  5
1F6
100
AcDbSymbolTableRecord
100
AcDbLinetypeTableRecord
  2
HIDDEN
 70
64
  3
- - - - - - - - - - - - - - - - - - - -
 72
65
 73
2
 40
0.2
 49
0.1
 74
0
 49
-0.1
 74
0
  0
LTYPE
  5
1F7
100
AcDbSymbolTableRecord
100
AcDbLinetypeTableRecord
  2
PHANTOM
 70
64
  3
_____ _ _ _____ _ _ _____ _ _ _____
 72
65
 73
6
 40
0.8
 49
0.45
 74
0
 49
-0.05
 74
0
 49
0.1
 74
0
 49
-0.05
 74
0
 49
0.1
 74
0
 49
-0.05
 74
0
  0
LTYPE
  5
1F8
100
AcDbSymbolTableRecord
100
AcDbLinetypeTableRecord
  2
DOT
 70
64
  3
. . . . . . . . . . . . . . . . . . . .
 72
65
 73
2
 40
0.2
 49
0.1
 74
0
 49
-0.1
 74
0
  0
LTYPE
  5
1F9
100
AcDbSymbolTableRecord
100
AcDbLinetypeTableRecord
  2
DASHED
 70
64
  3
- - - - - - - - - - - - - - - - - - - -
 72
65
 73
2
 40
0.2
 49
0.1
 74
0
 49
-0.1
 74
0
  0
ENDTAB
  0
TABLE
  2
LAYER
  5
2
100
AcDbSymbolTable
 70
36
  0
LAYER
  5
10
100
AcDbSymbolTableRecord
100
AcDbLayerTableRecord
  2
0
 70
0
 62
7
  6
CONTINUOUS
370
-3
390
F
  0
LAYER
  5
1FA
100
AcDbSymbolTableRecord
100
AcDbLayerTableRecord
  2
DEFAULT_1
 70
0
 62
7
  6
CENTER
370
-3
390
F
  0
LAYER
  5
1FB
100
AcDbSymbolTableRecord
100
AcDbLayerTableRecord
  2
DEFAULT_2
 70
0
 62
7
  6
HIDDEN
370
-3
390
F
  0
LAYER
  5
1FC
100
AcDbSymbolTableRecord
100
AcDbLayerTableRecord
  2
DEFAULT_3
 70
0
 62
7
  6
PHANTOM
370
-3
390
F
  0
LAYER
  5
1FD
100
AcDbSymbolTableRecord
100
AcDbLayerTableRecord
  2
ASSI
 70
0
 62
7
  6
CONTINUOUS
370
-3
390
F
  0
LAYER
  5
1FE
100
AcDbSymbolTableRecord
100
AcDbLayerTableRecord
  2
COORDINATE
 70
0
 62
7
  6
CONTINUOUS
370
-3
390
F
  0
LAYER
  5
1FF
100
AcDbSymbolTableRecord
100
AcDbLayerTableRecord
  2
COORD_ORIGINE
 70
0
 62
7
  6
CONTINUOUS
370
-3
390
F
  0
LAYER
  5
200
100
AcDbSymbolTableRecord
100
AcDbLayerTableRecord
  2
CURVE
 70
0
 62
7
  6
CONTINUOUS
370
-3
390
F
  0
LAYER
  5
201
100
AcDbSymbolTableRecord
100
AcDbLayerTableRecord
  2
DRAFT
 70
0
 62
7
  6
CONTINUOUS
370
-3
390
F
  0
LAYER
  5
202
100
AcDbSymbolTableRecord
100
AcDbLayerTableRecord
  2
IMPORT
 70
0
 62
7
  6
CONTINUOUS
370
-3
390
F
  0
LAYER
  5
203
100
AcDbSymbolTableRecord
100
AcDbLayerTableRecord
  2
INTF_1
 70
0
 62
7
  6
CONTINUOUS
370
-3
390
F
  0
LAYER
  5
204
100
AcDbSymbolTableRecord
100
AcDbLayerTableRecord
  2
INTF_11
 70
0
 62
7
  6
CONTINUOUS
370
-3
390
F
  0
LAYER
  5
205
100
AcDbSymbolTableRecord
100
AcDbLayerTableRecord
  2
NOTE
 70
0
 62
7
  6
CONTINUOUS
370
-3
390
F
  0
LAYER
  5
206
100
AcDbSymbolTableRecord
100
AcDbLayerTableRecord
  2
PIANI
 70
0
 62
7
  6
CONTINUOUS
370
-3
390
F
  0
LAYER
  5
207
100
AcDbSymbolTableRecord
100
AcDbLayerTableRecord
  2
PIANI_ORIGINE
 70
0
 62
7
  6
CONTINUOUS
370
-3
390
F
  0
LAYER
  5
208
100
AcDbSymbolTableRecord
100
AcDbLayerTableRecord
  2
PIANI_RIFERIMENTO
 70
0
 62
7
  6
CONTINUOUS
370
-3
390
F
  0
LAYER
  5
209
100
AcDbSymbolTableRecord
100
AcDbLayerTableRecord
  2
PIANI_SFORMO
 70
0
 62
7
  6
CONTINUOUS
370
-3
390
F
  0
LAYER
  5
20A
100
AcDbSymbolTableRecord
100
AcDbLayerTableRecord
  2
PUNTI
 70
0
 62
7
  6
CONTINUOUS
370
-3
390
F
  0
LAYER
  5
20B
100
AcDbSymbolTableRecord
100
AcDbLayerTableRecord
  2
RACCORDO
 70
0
 62
7
  6
CONTINUOUS
370
-3
390
F
  0
LAYER
  5
20C
100
AcDbSymbolTableRecord
100
AcDbLayerTableRecord
  2
SMUSSO
 70
0
 62
7
  6
CONTINUOUS
370
-3
390
F
  0
LAYER
  5
20D
100
AcDbSymbolTableRecord
100
AcDbLayerTableRecord
  2
SNAPLINE
 70
0
 62
7
  6
CONTINUOUS
370
-3
390
F
  0
LAYER
  5
20E
100
AcDbSymbolTableRecord
100
AcDbLayerTableRecord
  2
SUPERFICI
 70
0
 62
7
  6
CONTINUOUS
370
-3
390
F
  0
LAYER
  5
20F
100
AcDbSymbolTableRecord
100
AcDbLayerTableRecord
  2
TRASH
 70
0
 62
7
  6
CONTINUOUS
370
-3
390
F
  0
LAYER
  5
210
100
AcDbSymbolTableRecord
100
AcDbLayerTableRecord
  2
XSEC_DATUMS
 70
0
 62
7
  6
CONTINUOUS
370
-3
390
F
  0
ENDTAB
  0
TABLE
  2
STYLE
  5
3
100
AcDbSymbolTable
 70
1
  0
STYLE
  5
11
100
AcDbSymbolTableRecord
100
AcDbTextStyleTableRecord
  2
STANDARD
 70
0
 40
0.0
 41
0.8
 50
0.0
 71
0
 42
0.2
  3
txt
  4

  0
STYLE
  5
211
100
AcDbSymbolTableRecord
100
AcDbTextStyleTableRecord
  2
TEXTSTYLE_1
 70
0
 40
0.0
 41
0.8
 50
0.0
 71
0
 42
0.2
  3
gdt
  4

  0
ENDTAB
  0
TABLE
  2
VIEW
  5
6
100
AcDbSymbolTable
 70
0
  0
ENDTAB
  0
TABLE
  2
UCS
  5
7
100
AcDbSymbolTable
 70
0
  0
ENDTAB
  0
TABLE
  2
APPID
  5
9
100
AcDbSymbolTable
 70
1
  0
APPID
  5
212
100
AcDbSymbolTableRecord
100
AcDbRegAppTableRecord
  2
ACAD
 70
0
  0
ENDTAB
  0
TABLE
  2
BLOCK_RECORD
  5
1
100
AcDbSymbolTable
 70
0
  0
BLOCK_RECORD
  5
213
100
AcDbSymbolTableRecord
100
AcDbBlockTableRecord
  2
*Model_Space
  0
BLOCK_RECORD
  5
214
100
AcDbSymbolTableRecord
100
AcDbBlockTableRecord
  2
*Paper_Space
  0
BLOCK_RECORD
  5
215
100
AcDbSymbolTableRecord
100
AcDbBlockTableRecord
  2
_FILLED
  0
BLOCK_RECORD
  5
216
100
AcDbSymbolTableRecord
100
AcDbBlockTableRecord
  2
*D0
  0
BLOCK_RECORD
  5
217
100
AcDbSymbolTableRecord
100
AcDbBlockTableRecord
  2
*D1
  0
BLOCK_RECORD
  5
218
100
AcDbSymbolTableRecord
100
AcDbBlockTableRecord
  2
*D2
  0
BLOCK_RECORD
  5
219
100
AcDbSymbolTableRecord
100
AcDbBlockTableRecord
  2
*D3
  0
ENDTAB
  0
TABLE
  2
DIMSTYLE
  5
A
100
AcDbSymbolTable
 70
1
100
AcDbDimStyleTable
 71
0
  0
DIMSTYLE
105
21A
100
AcDbSymbolTableRecord
100
AcDbDimStyleTableRecord
  2
STANDARD
 70
0
  3

  4

 40
1.0
 41
3.0
 42
0.5
 43
0.38
 44
1.5
 45
0.0
 46
0.0
 47
0.01
 48
0.01
140
3.0
141
0.09
142
0.0
143
25.4
144
1.0
145
0.0
146
1.0
147
0.625
 71
1
 72
0
 73
0
 74
0
 75
0
 76
0
 77
1
 78
8
 79
2
170
0
171
1
172
0
173
0
174
0
175
0
176
0
177
0
178
0
270
2
179
2
271
2
272
2
273
2
274
2
275
0
280
0
281
0
282
0
283
1
284
8
285
0
286
0
287
3
288
0
340
11
278
44
341
215
342
215
343
215
344
215
  0
DIMSTYLE
105
21B
100
AcDbSymbolTableRecord
100
AcDbDimStyleTableRecord
  2
DIMSTYLE_1
 70
0
  3

  4

 40
1.0
 41
3.0
 42
0.5
 43
0.38
 44
1.5
 45
0.0
 46
0.0
 47
0.0
 48
0.0
140
3.0
141
0.09
142
0.0
143
25.4
144
1.0
145
0.0
146
1.0
147
0.75
 71
0
 72
0
 73
0
 74
0
 75
0
 76
0
 77
1
 78
8
 79
2
170
0
171
1
172
0
173
0
174
0
175
0
176
0
177
0
178
0
270
2
179
2
271
2
272
2
273
2
274
2
275
0
280
0
281
0
282
0
283
1
284
8
285
0
286
0
287
3
288
0
340
11
278
44
341
215
342
215
343
215
344
215
  0
DIMSTYLE
105
21C
100
AcDbSymbolTableRecord
100
AcDbDimStyleTableRecord
  2
DIMSTYLE_2
 70
0
  3

  4

 40
1.0
 41
3.0
 42
0.5
 43
0.38
 44
1.5
 45
0.0
 46
0.0
 47
0.0
 48
0.0
140
3.0
141
0.09
142
0.0
143
25.4
144
1.0
145
0.0
146
1.0
147
0.75
 71
0
 72
0
 73
0
 74
0
 75
0
 76
0
 77
1
 78
8
 79
2
170
0
171
1
172
0
173
0
174
0
175
0
176
0
177
0
178
0
270
2
179
2
271
1
272
1
273
2
274
2
275
0
280
0
281
0
282
0
283
1
284
8
285
0
286
0
287
3
288
0
340
11
278
44
341
215
342
215
343
215
344
215
  0
ENDTAB
  0
ENDSEC
  0
SECTION
  2
BLOCKS
  0
BLOCK
  5
20
100
AcDbEntity
  8
0
100
AcDbBlockBegin
  2
*Model_Space
 70
0
 10
0.0
 20
0.0
 30
0.0
  3
*Model_Space
  1

  0
ENDBLK
  5
21
100
AcDbEntity
  8
0
100
AcDbBlockEnd
  0
BLOCK
  5
1C
100
AcDbEntity
  8
0
100
AcDbBlockBegin
  2
*Paper_Space
 70
0
 10
0.0
 20
0.0
 30
0.0
  3
*Paper_Space
  1

  0
ENDBLK
  5
1D
100
AcDbEntity
  8
0
100
AcDbBlockEnd
  0
BLOCK
  5
21D
100
AcDbEntity
  8
0
100
AcDbBlockBegin
  2
_FILLED
 70
64
 10
0.0
 20
0.0
  3
_FILLED
  1

  0
SOLID
  5
21E
100
AcDbEntity
  8
0
  6
BYBLOCK
 62
0
100
AcDbTrace
 10
0.0
 20
0.0
 11
-1.0
 21
0.1333333333
 12
-1.0
 22
-0.1333333333
 13
-1.0
 23
-0.1333333333
  0
ENDBLK
  5
21F
100
AcDbEntity
  8
0
  6
BYBLOCK
 62
0
100
AcDbBlockEnd
  0
BLOCK
  5
220
100
AcDbEntity
  8
0
100
AcDbBlockBegin
 62
7
  6
CONTINUOUS
  2
*D0
 70
65
 10
0.0
 20
0.0
  3
*D0
  1

  0
LINE
  5
221
100
AcDbEntity
  8
0
100
AcDbLine
 62
7
  6
CONTINUOUS
 10
-9.225
 20
22.4411874598
 11
-9.225
 21
34.5
  0
LINE
  5
222
100
AcDbEntity
  8
0
100
AcDbLine
 62
7
  6
CONTINUOUS
 10
13.075
 20
22.4411874598
 11
13.075
 21
34.5
  0
LINE
  5
223
100
AcDbEntity
  8
0
100
AcDbLine
 62
7
  6
CONTINUOUS
 10
-9.225
 20
33.0
 11
1.925
 21
33.0
  0
LINE
  5
224
100
AcDbEntity
  8
0
100
AcDbLine
 62
7
  6
CONTINUOUS
 10
13.075
 20
33.0
 11
1.925
 21
33.0
  0
INSERT
  5
225
100
AcDbEntity
  8
0
100
AcDbBlockReference
 62
7
  6
CONTINUOUS
  2
_FILLED
 10
-9.225
 20
33.0
 41
3.0
 42
3.0
 43
3.0
 50
180.0
  0
INSERT
  5
226
100
AcDbEntity
  8
0
100
AcDbBlockReference
 62
7
  6
CONTINUOUS
  2
_FILLED
 10
13.075
 20
33.0
 41
3.0
 42
3.0
 43
3.0
  0
ENDBLK
  5
227
100
AcDbEntity
  8
0
  6
BYBLOCK
 62
0
100
AcDbBlockEnd
  0
BLOCK
  5
228
100
AcDbEntity
  8
0
100
AcDbBlockBegin
 62
7
  6
CONTINUOUS
  2
*D1
 70
65
 10
0.0
 20
0.0
  3
*D1
  1

  0
LINE
  5
229
100
AcDbEntity
  8
0
100
AcDbLine
 62
7
  6
CONTINUOUS
 10
-23.2541992518
 20
18.6228182695
 11
-23.2541992518
 21
34.5
  0
LINE
  5
22A
100
AcDbEntity
  8
0
100
AcDbLine
 62
7
  6
CONTINUOUS
 10
-55.8541992518
 20
22.4411874598
 11
-55.8541992518
 21
34.5
  0
LINE
  5
22B
100
AcDbEntity
  8
0
100
AcDbLine
 62
7
  6
CONTINUOUS
 10
-23.2541992518
 20
33.0
 11
-39.5541992518
 21
33.0
  0
LINE
  5
22C
100
AcDbEntity
  8
0
100
AcDbLine
 62
7
  6
CONTINUOUS
 10
-55.8541992518
 20
33.0
 11
-39.5541992518
 21
33.0
  0
INSERT
  5
22D
100
AcDbEntity
  8
0
100
AcDbBlockReference
 62
7
  6
CONTINUOUS
  2
_FILLED
 10
-23.2541992518
 20
33.0
 41
3.0
 42
3.0
 43
3.0
  0
INSERT
  5
22E
100
AcDbEntity
  8
0
100
AcDbBlockReference
 62
7
  6
CONTINUOUS
  2
_FILLED
 10
-55.8541992518
 20
33.0
 41
3.0
 42
3.0
 43
3.0
 50
180.0
  0
ENDBLK
  5
22F
100
AcDbEntity
  8
0
  6
BYBLOCK
 62
0
100
AcDbBlockEnd
  0
BLOCK
  5
230
100
AcDbEntity
  8
0
100
AcDbBlockBegin
 62
7
  6
CONTINUOUS
  2
*D2
 70
65
 10
0.0
 20
0.0
  3
*D2
  1

  0
LINE
  5
231
100
AcDbEntity
  8
0
100
AcDbLine
 62
7
  6
CONTINUOUS
 10
-23.2541992518
 20
18.6228182695
 11
-23.2541992518
 21
44.5
  0
LINE
  5
232
100
AcDbEntity
  8
0
100
AcDbLine
 62
7
  6
CONTINUOUS
 10
-66.3541992518
 20
0.5
 11
-66.3541992518
 21
44.5
  0
LINE
  5
233
100
AcDbEntity
  8
0
100
AcDbLine
 62
7
  6
CONTINUOUS
 10
-23.2541992518
 20
43.0
 11
-44.8041992518
 21
43.0
  0
LINE
  5
234
100
AcDbEntity
  8
0
100
AcDbLine
 62
7
  6
CONTINUOUS
 10
-66.3541992518
 20
43.0
 11
-44.8041992518
 21
43.0
  0
INSERT
  5
235
100
AcDbEntity
  8
0
100
AcDbBlockReference
 62
7
  6
CONTINUOUS
  2
_FILLED
 10
-23.2541992518
 20
43.0
 41
3.0
 42
3.0
 43
3.0
  0
INSERT
  5
236
100
AcDbEntity
  8
0
100
AcDbBlockReference
 62
7
  6
CONTINUOUS
  2
_FILLED
 10
-66.3541992518
 20
43.0
 41
3.0
 42
3.0
 43
3.0
 50
180.0
  0
ENDBLK
  5
237
100
AcDbEntity
  8
0
  6
BYBLOCK
 62
0
100
AcDbBlockEnd
  0
BLOCK
  5
238
100
AcDbEntity
  8
0
100
AcDbBlockBegin
 62
7
  6
CONTINUOUS
  2
*D3
 70
65
 10
0.0
 20
0.0
  3
*D3
  1

  0
LINE
  5
239
100
AcDbEntity
  8
0
100
AcDbLine
 62
7
  6
CONTINUOUS
 10
-59.6056536847
 20
24.4869014213
 11
-75.8541992518
 21
24.4869014213
  0
LINE
  5
23A
100
AcDbEntity
  8
0
100
AcDbLine
 62
7
  6
CONTINUOUS
 10
-59.6056536847
 20
-24.4869014213
 11
-75.8541992518
 21
-24.4869014213
  0
LINE
  5
23B
100
AcDbEntity
  8
0
100
AcDbLine
 62
7
  6
CONTINUOUS
 10
-74.3541992518
 20
24.4869014213
 11
-74.3541992518
 21
0.0
  0
LINE
  5
23C
100
AcDbEntity
  8
0
100
AcDbLine
 62
7
  6
CONTINUOUS
 10
-74.3541992518
 20
-24.4869014213
 11
-74.3541992518
 21
0.0
  0
INSERT
  5
23D
100
AcDbEntity
  8
0
100
AcDbBlockReference
 62
7
  6
CONTINUOUS
  2
_FILLED
 10
-74.3541992518
 20
24.4869014213
 41
3.0
 42
3.0
 43
3.0
 50
90.0
  0
INSERT
  5
23E
100
AcDbEntity
  8
0
100
AcDbBlockReference
 62
7
  6
CONTINUOUS
  2
_FILLED
 10
-74.3541992518
 20
-24.4869014213
 41
3.0
 42
3.0
 43
3.0
 50
270.0
  0
ENDBLK
  5
23F
100
AcDbEntity
  8
0
  6
BYBLOCK
 62
0
100
AcDbBlockEnd
  0
ENDSEC
  0
SECTION
  2
ENTITIES
  0
DIMENSION
  5
240
100
AcDbEntity
  8
0
100
AcDbDimension
 62
7
  6
CONTINUOUS
  2
*D0
 10
13.075
 20
33.0
 11
-2.3607142857
 21
33.0
 70
160
 71
2
 72
2
 41
0.9
 42
22.3
  3
DIMSTYLE_1
100
AcDbAlignedDimension
 13
-9.225
 23
21.9411874598
 14
13.075
 24
21.9411874598
100
AcDbRotatedDimension
  0
DIMENSION
  5
241
100
AcDbEntity
  8
0
100
AcDbDimension
 62
7
  6
CONTINUOUS
  2
*D1
 10
-55.8541992518
 20
33.0
 11
-43.8399135375
 21
33.0
 70
160
 71
2
 72
2
 41
0.9
 42
32.6
  3
DIMSTYLE_1
100
AcDbAlignedDimension
 13
-23.2541992518
 23
18.1228182695
 14
-55.8541992518
 24
21.9411874598
 50
180.0
100
AcDbRotatedDimension
  0
DIMENSION
  5
242
100
AcDbEntity
  8
0
100
AcDbDimension
 62
7
  6
CONTINUOUS
  2
*D2
 10
-66.3541992518
 20
43.0
 11
-48.7684849661
 21
43.0
 70
160
 71
2
 72
2
 41
0.9
 42
43.1
  3
DIMSTYLE_2
100
AcDbAlignedDimension
 13
-23.2541992518
 23
18.1228182695
 14
-66.3541992518
 24
0.0
 50
180.0
100
AcDbRotatedDimension
  0
DIMENSION
  5
243
100
AcDbEntity
  8
0
100
AcDbDimension
 62
7
  6
CONTINUOUS
  2
*D3
 10
-74.3541992518
 20
-24.4869014213
 11
-74.3541992518
 21
-2.3571428571
 70
160
 71
2
 72
2
 41
0.9
 42
48.9738028426
  3
DIMSTYLE_2
100
AcDbAlignedDimension
 13
-59.1056536847
 23
24.4869014213
 14
-59.1056536847
 24
-24.4869014213
 50
270.0
100
AcDbRotatedDimension
  0
LWPOLYLINE
  5
244
100
AcDbEntity
  8
0
100
AcDbPolyline
 62
7
  6
CONTINUOUS
 90
5
 70
0
 43
0.3500000006
 10
4.9249998035
 20
35.4642858582
 10
5.2821426888
 20
35.678570343
 10
5.2821426888
 20
36.3214283295
 10
4.9249998035
 20
36.7500018311
 10
4.067857049
 20
36.7500018311
  0
LWPOLYLINE
  5
245
100
AcDbEntity
  8
RACCORDO
100
AcDbPolyline
 62
250
  6
CONTINUOUS
 90
31
 70
0
 10
12.3119056521
 20
-24.4869014213
 10
12.3249891381
 20
-24.4865583827
 10
12.3380367647
 20
-24.4855310928
 10
12.3510127708
 20
-24.4838223673
 10
12.3638815916
 20
-24.4814368893
 10
12.3766079562
 20
-24.4783811971
 10
12.3891569839
 20
-24.4746636657
 10
12.4014942801
 20
-24.4702944842
 10
12.4135860308
 20
-24.4652856277
 10
12.4253990946
 20
-24.4596508246
 10
12.4369010942
 20
-24.4534055187
 10
12.4480605047
 20
-24.4465668272
 10
12.4588467403
 20
-24.4391534939
 10
12.4692302379
 20
-24.4311858371
 10
12.4791825384
 20
-24.4226856948
 10
12.4886763643
 20
-24.4136763643
 10
12.4976856948
 20
-24.4041825384
 10
12.5061858371
 20
-24.3942302379
 10
12.5141534939
 20
-24.3838467403
 10
12.5215668272
 20
-24.3730605047
 10
12.5284055187
 20
-24.3619010942
 10
12.5346508246
 20
-24.3503990946
 10
12.5402856277
 20
-24.3385860308
 10
12.5452944842
 20
-24.3264942801
 10
12.5496636657
 20
-24.3141569839
 10
12.5533811971
 20
-24.3016079562
 10
12.5564368893
 20
-24.2888815916
 10
12.5588223673
 20
-24.2760127708
 10
12.5605310928
 20
-24.2630367647
 10
12.5615583827
 20
-24.2499891381
 10
12.5619014213
 20
-24.2369056521
  0
LWPOLYLINE
  5
246
100
AcDbEntity
  8
RACCORDO
100
AcDbPolyline
 62
250
  6
CONTINUOUS
 90
31
 70
0
 10
-6.5880943479
 20
-24.4869014213
 10
-6.5750079938
 20
-24.4865582323
 10
-6.5619574955
 20
-24.4855304893
 10
-6.5489786381
 20
-24.4838210061
 10
-6.5361069984
 20
-24.4814344634
 10
-6.5233778845
 20
-24.4783774023
 10
-6.510826237
 20
-24.4746582128
 10
-6.4984864809
 20
-24.4702870977
 10
-6.4863924437
 20
-24.4652760422
 10
-6.4745772981
 20
-24.4596387939
 10
-6.4630734423
 20
-24.4533908148
 10
-6.4519124163
 20
-24.446549239
 10
-6.441124826
 20
-24.4391328321
 10
-6.4307402367
 20
-24.4311619239
 10
-6.4207871333
 20
-24.4226583824
 10
-6.4112928401
 20
-24.4136455633
 10
-6.4022834183
 20
-24.4041482289
 10
-6.3937835214
 20
-24.3941923917
 10
-6.3858163791
 20
-24.3838052658
 10
-6.3784037491
 20
-24.3730151866
 10
-6.3715660673
 20
-24.3618518682
 10
-6.3653222656
 20
-24.3503462678
 10
-6.359689517
 20
-24.3385301896
 10
-6.3546830871
 20
-24.3264358334
 10
-6.350316536
 20
-24.3140960295
 10
-6.3466010963
 20
-24.3015418449
 10
-6.3435479829
 20
-24.2888103798
 10
-6.3411668528
 20
-24.275944661
 10
-6.3394632485
 20
-24.2629828864
 10
-6.3384399859
 20
-24.249957992
 10
-6.3380985787
 20
-24.2369056521
  0
LWPOLYLINE
  5
247
100
AcDbEntity
  8
RACCORDO
100
AcDbPolyline
 62
7
  6
CONTINUOUS
 90
34
 70
0
 10
12.3250042308
 20
-24.5
 10
12.336899516
 20
-24.4997168498
 10
12.3487678556
 20
-24.4988680342
 10
12.3605823661
 20
-24.4974554741
 10
12.3723162875
 20
-24.4954823677
 10
12.3839430388
 20
-24.4929531817
 10
12.395436279
 20
-24.4898736417
 10
12.4067699738
 20
-24.4862507213
 10
12.4179184493
 20
-24.4820926258
 10
12.4288564463
 20
-24.4774087722
 10
12.4395591876
 20
-24.4722097688
 10
12.4500024283
 20
-24.4665073916
 10
12.4601625059
 20
-24.4603145581
 10
12.4700164051
 20
-24.4536452955
 10
12.4795418038
 20
-24.4465147107
 10
12.4887171191
 20
-24.4389389589
 10
12.4975215661
 20
-24.4309352005
 10
12.5059352005
 20
-24.4225215661
 10
12.5139389589
 20
-24.4137171191
 10
12.5215147107
 20
-24.4045418038
 10
12.5286452955
 20
-24.3950164051
 10
12.5353145581
 20
-24.3851625059
 10
12.5415073916
 20
-24.3750024283
 10
12.5472097688
 20
-24.3645591876
 10
12.5524087722
 20
-24.3538564463
 10
12.5570926258
 20
-24.3429184493
 10
12.5612507213
 20
-24.3317699738
 10
12.5648736417
 20
-24.320436279
 10
12.5679531817
 20
-24.3089430388
 10
12.5704823677
 20
-24.2973162875
 10
12.5724554741
 20
-24.2855823661
 10
12.5738680342
 20
-24.2737678556
 10
12.5747168498
 20
-24.261899516
 10
12.575
 20
-24.2500042308
  0
LWPOLYLINE
  5
248
100
AcDbEntity
  8
RACCORDO
100
AcDbPolyline
 62
7
  6
CONTINUOUS
 90
34
 70
0
 10
-6.5749957692
 20
-24.5
 10
-6.563100484
 20
-24.4997168498
 10
-6.5512321444
 20
-24.4988680342
 10
-6.5394176339
 20
-24.4974554741
 10
-6.5276837125
 20
-24.4954823677
 10
-6.5160569612
 20
-24.4929531817
 10
-6.504563721
 20
-24.4898736417
 10
-6.4932300262
 20
-24.4862507213
 10
-6.4820815507
 20
-24.4820926258
 10
-6.4711435537
 20
-24.4774087722
 10
-6.4604408124
 20
-24.4722097688
 10
-6.4499975717
 20
-24.4665073916
 10
-6.4398374941
 20
-24.4603145581
 10
-6.4299835949
 20
-24.4536452955
 10
-6.4204581962
 20
-24.4465147107
 10
-6.4112828809
 20
-24.4389389589
 10
-6.4024784339
 20
-24.4309352005
 10
-6.3940647995
 20
-24.4225215661
 10
-6.3860610411
 20
-24.4137171191
 10
-6.3784852893
 20
-24.4045418038
 10
-6.3713547045
 20
-24.3950164051
 10
-6.3646854419
 20
-24.3851625059
 10
-6.3584926084
 20
-24.3750024283
 10
-6.3527902312
 20
-24.3645591876
 10
-6.3475912278
 20
-24.3538564463
 10
-6.3429073742
 20
-24.3429184493
 10
-6.3387492787
 20
-24.3317699738
 10
-6.3351263583
 20
-24.320436279
 10
-6.3320468183
 20
-24.3089430388
 10
-6.3295176323
 20
-24.2973162875
 10
-6.3275445259
 20
-24.2855823661
 10
-6.3261319658
 20
-24.2737678556
 10
-6.3252831502
 20
-24.261899516
 10
-6.325
 20
-24.2500042308
  0
LINE
  5
249
100
AcDbEntity
  8
RACCORDO
100
AcDbLine
 62
7
  6
CONTINUOUS
 10
12.3250042308
 20
-24.5
 11
10.4249957692
 21
-24.5
  0
LINE
  5
24A
100
AcDbEntity
  8
RACCORDO
100
AcDbLine
 62
7
  6
CONTINUOUS
 10
-6.5749957692
 20
-24.5
 11
-8.4750042308
 21
-24.5
  0
LINE
  5
24B
100
AcDbEntity
  8
RACCORDO
100
AcDbLine
 62
250
  6
CONTINUOUS
 10
-8.4619056521
 20
-24.4869014213
 11
-6.5880943479
 21
-24.4869014213
  0
LINE
  5
24C
100
AcDbEntity
  8
RACCORDO
100
AcDbLine
 62
250
  6
CONTINUOUS
 10
10.4380943479
 20
-24.4869014213
 11
12.3119056521
 21
-24.4869014213
  0
LINE
  5
24D
100
AcDbEntity
  8
RACCORDO
100
AcDbLine
 62
250
  6
CONTINUOUS
 10
-6.3380985787
 20
-24.2369056521
 11
-8.7119014213
 21
-24.2369056521
  0
LINE
  5
24E
100
AcDbEntity
  8
RACCORDO
100
AcDbLine
 62
250
  6
CONTINUOUS
 10
10.1880985787
 20
-24.2369056521
 11
12.5619014213
 21
-24.2369056521
  0
LINE
  5
24F
100
AcDbEntity
  8
RACCORDO
100
AcDbLine
 62
7
  6
CONTINUOUS
 10
-8.9586665638
 20
22.3525030696
 11
-8.9761653088
 21
22.3437543634
  0
LINE
  5
250
100
AcDbEntity
  8
RACCORDO
100
AcDbLine
 62
250
  6
CONTINUOUS
 10
-9.2075780505
 20
21.9498977711
 11
-9.225
 21
21.9411874598
  0
LWPOLYLINE
  5
251
100
AcDbEntity
  8
RACCORDO
100
AcDbPolyline
 62
7
  6
CONTINUOUS
 90
11
 70
0
 10
-8.9586665626
 20
22.3525030702
 10
-8.9445972946
 20
22.3592350157
 10
-8.9249162987
 20
22.3676760906
 10
-8.9048548934
 20
22.3751716873
 10
-8.8844579488
 20
22.3817047368
 10
-8.8637802039
 20
22.3872580372
 10
-8.8428599813
 20
22.3918216243
 10
-8.8217176944
 20
22.3953887314
 10
-8.8003916322
 20
22.3979479803
 10
-8.7789387763
 20
22.3994876437
 10
-8.7574078424
 20
22.4
  0
LWPOLYLINE
  5
252
100
AcDbEntity
  8
RACCORDO
100
AcDbPolyline
 62
7
  6
CONTINUOUS
 90
23
 70
0
 10
-2.3712073137
 20
-23.7953389668
 10
-2.3604181903
 20
-23.7947915649
 10
-2.3493307281
 20
-23.793363895
 10
-2.3379449272
 20
-23.7911364879
 10
-2.3262361469
 20
-23.7881978965
 10
-2.314229028
 20
-23.7846238716
 10
-2.301997492
 20
-23.7804595132
 10
-2.2895487518
 20
-23.7757643703
 10
-2.2768755946
 20
-23.7706018097
 10
-2.2640303044
 20
-23.7649953104
 10
-2.2510171723
 20
-23.758990232
 10
-2.2378319072
 20
-23.7526365647
 10
-2.2245139203
 20
-23.7459460582
 10
-2.2110654333
 20
-23.7389542831
 10
-2.1974842244
 20
-23.7317013921
 10
-2.1838030396
 20
-23.724193673
 10
-2.1700229279
 20
-23.7164601879
 10
-2.1561428402
 20
-23.708533951
 10
-2.1421923756
 20
-23.7004191901
 10
-2.128171775
 20
-23.6921405291
 10
-2.1140807976
 20
-23.6837259593
 10
-2.0999483201
 20
-23.6751796798
 10
-2.0715581838
 20
-23.6577812011
  0
LINE
  5
253
100
AcDbEntity
  8
RACCORDO
100
AcDbLine
 62
250
  6
CONTINUOUS
 10
-6.3380985787
 20
-23.8443375673
 11
-8.7119014213
 21
-23.8443375673
  0
LINE
  5
254
100
AcDbEntity
  8
RACCORDO
100
AcDbLine
 62
250
  6
CONTINUOUS
 10
10.1880985787
 20
-23.8443375673
 11
12.5619014213
 21
-23.8443375673
  0
LINE
  5
255
100
AcDbEntity
  8
DRAFT
100
AcDbLine
 62
7
  6
CONTINUOUS
 10
6.325
 20
-23.8
 11
-2.475
 21
-23.8
  0
LINE
  5
256
100
AcDbEntity
  8
RACCORDO
100
AcDbLine
 62
250
  6
CONTINUOUS
 10
-2.3712073137
 20
-23.7953389668
 11
6.2212073137
 21
-23.7953389668
  0
LINE
  5
257
100
AcDbEntity
  8
RACCORDO
100
AcDbLine
 62
250
  6
CONTINUOUS
 10
12.3119056521
 20
-23.6278312164
 11
10.4380943479
 21
-23.6278312164
  0
LINE
  5
258
100
AcDbEntity
  8
RACCORDO
100
AcDbLine
 62
250
  6
CONTINUOUS
 10
-6.5880943479
 20
-23.6278312164
 11
-8.4619056521
 21
-23.6278312164
  0
LINE
  5
259
100
AcDbEntity
  8
RACCORDO
100
AcDbLine
 62
250
  6
CONTINUOUS
 10
-1.9720826234
 20
-23.5953423515
 11
5.8220826234
 21
-23.5953423515
  0
LINE
  5
25A
100
AcDbEntity
  8
RACCORDO
100
AcDbLine
 62
7
  6
CONTINUOUS
 10
12.3177234819
 20
-23.1226497308
 11
10.4322765181
 21
-23.1226497308
  0
LINE
  5
25B
100
AcDbEntity
  8
RACCORDO
100
AcDbLine
 62
7
  6
CONTINUOUS
 10
-6.5822765181
 20
-23.1226497308
 11
-8.4677234819
 21
-23.1226497308
  0
LINE
  5
25C
100
AcDbEntity
  8
RACCORDO
100
AcDbLine
 62
7
  6
CONTINUOUS
 10
-8.7574078424
 20
-22.4
 11
-8.725
 21
-22.4
  0
LINE
  5
25D
100
AcDbEntity
  8
DRAFT
100
AcDbLine
 62
7
  6
CONTINUOUS
 10
-6.325
 20
-22.4
 11
-2.475
 21
-22.4
  0
LINE
  5
25E
100
AcDbEntity
  8
DRAFT
100
AcDbLine
 62
7
  6
CONTINUOUS
 10
6.325
 20
-22.4
 11
10.175
 21
-22.4
  0
LINE
  5
25F
100
AcDbEntity
  8
RACCORDO
100
AcDbLine
 62
7
  6
CONTINUOUS
 10
12.575
 20
-22.4
 11
12.6074078424
 21
-22.4
  0
LINE
  5
260
100
AcDbEntity
  8
RACCORDO
100
AcDbLine
 62
7
  6
CONTINUOUS
 10
-1.9720826234
 20
-22.3475922207
 11
5.8220826234
 21
-22.3475922207
  0
LINE
  5
261
100
AcDbEntity
  8
RACCORDO
100
AcDbLine
 62
7
  6
CONTINUOUS
 10
12.3177234819
 20
-22.3213883311
 11
10.4322765181
 21
-22.3213883311
  0
LINE
  5
262
100
AcDbEntity
  8
RACCORDO
100
AcDbLine
 62
7
  6
CONTINUOUS
 10
-6.5822765181
 20
-22.3213883311
 11
-8.4677234819
 21
-22.3213883311
  0
LWPOLYLINE
  5
263
100
AcDbEntity
  8
RACCORDO
100
AcDbPolyline
 62
7
  6
CONTINUOUS
 90
22
 70
0
 10
6.2212073137
 20
-23.7953389668
 10
6.2104181903
 20
-23.7947915649
 10
6.1993307281
 20
-23.793363895
 10
6.1879449272
 20
-23.7911364879
 10
6.1762361469
 20
-23.7881978965
 10
6.164229028
 20
-23.7846238716
 10
6.151997492
 20
-23.7804595132
 10
6.1395487518
 20
-23.7757643703
 10
6.1268755946
 20
-23.7706018097
 10
6.1140303044
 20
-23.7649953104
 10
6.1010171723
 20
-23.758990232
 10
6.0878319072
 20
-23.7526365647
 10
6.0745139203
 20
-23.7459460582
 10
6.0610654333
 20
-23.7389542831
 10
6.0474842244
 20
-23.7317013921
 10
6.0338030396
 20
-23.724193673
 10
6.0200229279
 20
-23.7164601879
 10
6.0061428402
 20
-23.708533951
 10
5.9921923756
 20
-23.7004191901
 10
5.978171775
 20
-23.6921405291
 10
5.9640807976
 20
-23.6837259593
 10
5.9499483201
 20
-23.6751796798
  0
LWPOLYLINE
  5
264
100
AcDbEntity
  8
RACCORDO
100
AcDbPolyline
 62
7
  6
CONTINUOUS
 90
11
 70
0
 10
-8.9586664589
 20
-22.352503122
 10
-8.9445971712
 20
-22.3592350762
 10
-8.9249161851
 20
-22.3676761448
 10
-8.9048547902
 20
-22.375171735
 10
-8.8844578571
 20
-22.3817047778
 10
-8.8637801245
 20
-22.3872580713
 10
-8.8428599152
 20
-22.3918216515
 10
-8.8217176429
 20
-22.3953887516
 10
-8.8003915966
 20
-22.3979479935
 10
-8.7789387579
 20
-22.3994876502
 10
-8.7574078424
 20
-22.4
  0
LINE
  5
265
100
AcDbEntity
  8
RACCORDO
100
AcDbLine
 62
7
  6
CONTINUOUS
 10
-8.9761653088
 20
-22.3437543634
 11
-8.9586664601
 21
-22.3525031214
  0
LINE
  5
266
100
AcDbEntity
  8
RACCORDO
100
AcDbLine
 62
250
  6
CONTINUOUS
 10
-9.225
 20
-21.9411874598
 11
-9.2075779097
 21
-21.9498978415
  0
LWPOLYLINE
  5
267
100
AcDbEntity
  8
RACCORDO
100
AcDbPolyline
 62
250
  6
CONTINUOUS
 90
16
 70
0
 10
-9.057673035
 20
20.5419058565
 10
-9.0567090352
 20
20.5428735514
 10
-9.0546396836
 20
20.5438391025
 10
-9.0514695644
 20
20.544800371
 10
-9.0472057005
 20
20.5457552271
 10
-9.0418575377
 20
20.5467015557
 10
-9.0354369238
 20
20.5476372603
 10
-9.0279580824
 20
20.5485602681
 10
-9.0194375815
 20
20.5494685343
 10
-9.0098942968
 20
20.5503600468
 10
-8.9993493695
 20
20.5512328306
 10
-8.98782616
 20
20.5520849522
 10
-8.9753501957
 20
20.552914524
 10
-8.9619491149
 20
20.5537197082
 10
-8.947652605
 20
20.5544987209
 10
-8.9324923374
 20
20.5552498366
  0
LINE
  5
268
100
AcDbEntity
  8
RACCORDO
100
AcDbLine
 62
250
  6
CONTINUOUS
 10
-6.5749957692
 20
24.5
 11
-6.5880943479
 21
24.4869014213
  0
LINE
  5
269
100
AcDbEntity
  8
RACCORDO
100
AcDbLine
 62
250
  6
CONTINUOUS
 10
-6.325
 20
24.2500042308
 11
-6.3380985787
 21
24.2369056521
  0
LINE
  5
26A
100
AcDbEntity
  8
RACCORDO
100
AcDbLine
 62
250
  6
CONTINUOUS
 10
12.7824923423
 20
-20.5552498567
 11
12.7497167115
 21
-20.5566618066
  0
LINE
  5
26B
100
AcDbEntity
  8
RACCORDO
100
AcDbLine
 62
250
  6
CONTINUOUS
 10
12.7497167115
 20
-20.5566618066
 11
12.7139124997
 21
-20.5579430723
  0
LINE
  5
26C
100
AcDbEntity
  8
RACCORDO
100
AcDbLine
 62
250
  6
CONTINUOUS
 10
12.7139124997
 20
-20.5579430723
 11
12.6753968012
 21
-20.5590823065
  0
LINE
  5
26D
100
AcDbEntity
  8
RACCORDO
100
AcDbLine
 62
250
  6
CONTINUOUS
 10
12.6753968012
 20
-20.5590823065
 11
12.6345107241
 21
-20.5600694198
  0
LINE
  5
26E
100
AcDbEntity
  8
RACCORDO
100
AcDbLine
 62
250
  6
CONTINUOUS
 10
12.6345107241
 20
-20.5600694198
 11
12.5916163696
 21
-20.5608956698
  0
LINE
  5
26F
100
AcDbEntity
  8
RACCORDO
100
AcDbLine
 62
250
  6
CONTINUOUS
 10
12.5916163696
 20
-20.5608956698
 11
12.5243443586
 21
-20.561817825
  0
LINE
  5
270
100
AcDbEntity
  8
RACCORDO
100
AcDbLine
 62
250
  6
CONTINUOUS
 10
12.5243443586
 20
-20.561817825
 11
12.4547511273
 21
-20.5623435641
  0
LINE
  5
271
100
AcDbEntity
  8
RACCORDO
100
AcDbLine
 62
250
  6
CONTINUOUS
 10
12.4242759622
 20
-21.998725222
 11
-8.5742759622
 21
-21.998725222
  0
LINE
  5
272
100
AcDbEntity
  8
RACCORDO
100
AcDbLine
 62
250
  6
CONTINUOUS
 10
12.4547511273
 20
-20.5623435641
 11
-8.5577491915
 21
-20.5624683248
  0
LINE
  5
273
100
AcDbEntity
  8
RACCORDO
100
AcDbLine
 62
250
  6
CONTINUOUS
 10
-8.6281219113
 20
-20.5622131686
 11
-8.5577491915
 21
-20.5624683248
  0
LINE
  5
274
100
AcDbEntity
  8
RACCORDO
100
AcDbLine
 62
250
  6
CONTINUOUS
 10
-8.6970936246
 20
-20.5615537269
 11
-8.6281219113
 21
-20.5622131686
  0
LINE
  5
275
100
AcDbEntity
  8
RACCORDO
100
AcDbLine
 62
250
  6
CONTINUOUS
 10
-8.7416163696
 20
-20.5608956547
 11
-8.6970936246
 21
-20.5615537269
  0
LINE
  5
276
100
AcDbEntity
  8
RACCORDO
100
AcDbLine
 62
250
  6
CONTINUOUS
 10
-8.7845107241
 20
-20.5600694024
 11
-8.7416163696
 21
-20.5608956547
  0
LINE
  5
277
100
AcDbEntity
  8
RACCORDO
100
AcDbLine
 62
250
  6
CONTINUOUS
 10
-8.8253968012
 20
-20.5590822876
 11
-8.7845107241
 21
-20.5600694024
  0
LINE
  5
278
100
AcDbEntity
  8
RACCORDO
100
AcDbLine
 62
250
  6
CONTINUOUS
 10
-8.8639124997
 20
-20.5579430524
 11
-8.8253968012
 21
-20.5590822876
  0
LINE
  5
279
100
AcDbEntity
  8
RACCORDO
100
AcDbLine
 62
250
  6
CONTINUOUS
 10
-8.8997167115
 20
-20.5566617864
 11
-8.8639124997
 21
-20.5579430524
  0
LINE
  5
27A
100
AcDbEntity
  8
RACCORDO
100
AcDbLine
 62
250
  6
CONTINUOUS
 10
-6.5749957692
 20
-24.5
 11
-6.5880943479
 21
-24.4869014213
  0
LINE
  5
27B
100
AcDbEntity
  8
RACCORDO
100
AcDbLine
 62
250
  6
CONTINUOUS
 10
-6.325
 20
-24.2500042308
 11
-6.3380985787
 21
-24.2369056521
  0
LWPOLYLINE
  5
27C
100
AcDbEntity
  8
RACCORDO
100
AcDbPolyline
 62
250
  6
CONTINUOUS
 90
17
 70
0
 10
-9.0576730391
 20
-20.5419058565
 10
-9.0567090395
 20
-20.5428735514
 10
-9.0546396881
 20
-20.5438391026
 10
-9.0514695691
 20
-20.544800371
 10
-9.0472057054
 20
-20.5457552271
 10
-9.0418575427
 20
-20.5467015558
 10
-9.0354369289
 20
-20.5476372604
 10
-9.0279580876
 20
-20.5485602682
 10
-9.0194375868
 20
-20.5494685344
 10
-9.009894302
 20
-20.5503600469
 10
-8.9993493748
 20
-20.5512328307
 10
-8.9878261652
 20
-20.5520849524
 10
-8.9753502009
 20
-20.5529145242
 10
-8.96194912
 20
-20.5537197083
 10
-8.94765261
 20
-20.5544987211
 10
-8.9324923423
 20
-20.5552498368
 10
-8.8997167115
 20
-20.5566617864
  0
LINE
  5
27D
100
AcDbEntity
  8
RACCORDO
100
AcDbLine
 62
7
  6
CONTINUOUS
 10
5.8930905905
 20
23.6400757416
 11
5.8220826234
 21
23.5953423515
  0
LINE
  5
27E
100
AcDbEntity
  8
RACCORDO
100
AcDbLine
 62
7
  6
CONTINUOUS
 10
5.9215581838
 20
23.6577812011
 11
5.8930905905
 21
23.6400757416
  0
LINE
  5
27F
100
AcDbEntity
  8
RACCORDO
100
AcDbLine
 62
7
  6
CONTINUOUS
 10
5.9499483201
 20
-23.6751796798
 11
5.9215581838
 21
-23.6577812011
  0
LINE
  5
280
100
AcDbEntity
  8
RACCORDO
100
AcDbLine
 62
7
  6
CONTINUOUS
 10
5.9215581838
 20
-23.6577812011
 11
5.8788388153
 21
-23.6311538461
  0
LINE
  5
281
100
AcDbEntity
  8
RACCORDO
100
AcDbLine
 62
7
  6
CONTINUOUS
 10
5.8788388153
 20
-23.6311538461
 11
5.8220826234
 21
-23.5953423515
  0
LINE
  5
282
100
AcDbEntity
  8
RACCORDO
100
AcDbLine
 62
7
  6
CONTINUOUS
 10
6.3220741618
 20
23.7970741618
 11
6.325
 21
23.8
  0
LINE
  5
283
100
AcDbEntity
  8
RACCORDO
100
AcDbLine
 62
7
  6
CONTINUOUS
 10
6.3220741618
 20
-23.7970741618
 11
6.325
 21
-23.8
  0
LWPOLYLINE
  5
284
100
AcDbEntity
  8
RACCORDO
100
AcDbPolyline
 62
250
  6
CONTINUOUS
 90
31
 70
0
 10
-8.7119014213
 20
-24.2369056521
 10
-8.7115583827
 20
-24.2499891381
 10
-8.7105310928
 20
-24.2630367647
 10
-8.7088223673
 20
-24.2760127708
 10
-8.7064368893
 20
-24.2888815916
 10
-8.7033811971
 20
-24.3016079562
 10
-8.6996636657
 20
-24.3141569839
 10
-8.6952944842
 20
-24.3264942801
 10
-8.6902856277
 20
-24.3385860308
 10
-8.6846508246
 20
-24.3503990946
 10
-8.6784055187
 20
-24.3619010942
 10
-8.6715668272
 20
-24.3730605047
 10
-8.6641534939
 20
-24.3838467403
 10
-8.6561858371
 20
-24.3942302379
 10
-8.6476856948
 20
-24.4041825384
 10
-8.6386763643
 20
-24.4136763643
 10
-8.6291825384
 20
-24.4226856948
 10
-8.6192302379
 20
-24.4311858371
 10
-8.6088467403
 20
-24.4391534939
 10
-8.5980605047
 20
-24.4465668272
 10
-8.5869010942
 20
-24.4534055187
 10
-8.5753990946
 20
-24.4596508246
 10
-8.5635860308
 20
-24.4652856277
 10
-8.5514942801
 20
-24.4702944842
 10
-8.5391569839
 20
-24.4746636657
 10
-8.5266079562
 20
-24.4783811971
 10
-8.5138815916
 20
-24.4814368893
 10
-8.5010127708
 20
-24.4838223673
 10
-8.4880367647
 20
-24.4855310928
 10
-8.4749891381
 20
-24.4865583827
 10
-8.4619056521
 20
-24.4869014213
  0
LWPOLYLINE
  5
285
100
AcDbEntity
  8
RACCORDO
100
AcDbPolyline
 62
250
  6
CONTINUOUS
 90
34
 70
0
 10
-9.0741998056
 20
-21.4994104546
 10
-9.0736125018
 20
-21.5231550473
 10
-9.0718953532
 20
-21.5468459038
 10
-9.0690522453
 20
-21.5704294185
 10
-9.0650896107
 20
-21.5938522265
 10
-9.0600164163
 20
-21.6170613313
 10
-9.0538441427
 20
-21.6400042242
 10
-9.0465867561
 20
-21.6626289936
 10
-9.0382606775
 20
-21.6848844456
 10
-9.028884747
 20
-21.7067202275
 10
-9.0184801796
 20
-21.7280869324
 10
-9.0070705173
 20
-21.7489362137
 10
-8.994681577
 20
-21.7692208982
 10
-8.9813413911
 20
-21.7888950887
 10
-8.9670801441
 20
-21.8079142684
 10
-8.9519301049
 20
-21.8262354036
 10
-8.9359255532
 20
-21.8438170398
 10
-8.9191027024
 20
-21.860619395
 10
-8.9014996171
 20
-21.8766044503
 10
-8.8831561278
 20
-21.8917360371
 10
-8.8641137399
 20
-21.9059799169
 10
-8.8444155402
 20
-21.9193038589
 10
-8.8241060997
 20
-21.9316777156
 10
-8.8032313721
 20
-21.9430734887
 10
-8.7818385899
 20
-21.9534653906
 10
-8.7599761584
 20
-21.9628299082
 10
-8.7376935453
 20
-21.9711458522
 10
-8.7150411682
 20
-21.9783944032
 10
-8.6920702825
 20
-21.9845591602
 10
-8.6688328639
 20
-21.9896261741
 10
-8.6453814898
 20
-21.9935839757
 10
-8.6217692226
 20
-21.9964236083
 10
-8.5980494899
 20
-21.9981386482
 10
-8.5742759622
 20
-21.9987252146
  0
LWPOLYLINE
  5
286
100
AcDbEntity
  8
RACCORDO
100
AcDbPolyline
 62
7
  6
CONTINUOUS
 90
25
 70
0
 10
-9.2075778449
 20
-21.9498978739
 10
-9.2070599034
 20
-21.9713171503
 10
-9.2055239112
 20
-21.9926858616
 10
-9.2029736082
 20
-22.0139556319
 10
-9.1994150437
 20
-22.0350781601
 10
-9.1948565374
 20
-22.0560058482
 10
-9.1893085722
 20
-22.0766918903
 10
-9.1827838801
 20
-22.0970895234
 10
-9.1752974053
 20
-22.1171526528
 10
-9.1668661013
 20
-22.1368364314
 10
-9.1575091403
 20
-22.1560963804
 10
-9.1472477866
 20
-22.174888981
 10
-9.1361051196
 20
-22.1931722098
 10
-9.1241063688
 20
-22.21090474
 10
-9.1112787014
 20
-22.2280464864
 10
-9.0976508732
 20
-22.2445590757
 10
-9.083253676
 20
-22.2604051439
 10
-9.0681196448
 20
-22.2755488292
 10
-9.0522826488
 20
-22.28995617
 10
-9.0357784383
 20
-22.3035945018
 10
-9.0186442782
 20
-22.3164328943
 10
-9.0009184856
 20
-22.3284424746
 10
-8.9826410696
 20
-22.3395959252
 10
-8.9638532946
 20
-22.3498678609
 10
-8.9586664589
 20
-22.352503122
  0
LWPOLYLINE
  5
287
100
AcDbEntity
  8
RACCORDO
100
AcDbPolyline
 62
7
  6
CONTINUOUS
 90
34
 70
0
 10
-8.725
 20
-24.2500042308
 10
-8.7247168498
 20
-24.261899516
 10
-8.7238680342
 20
-24.2737678556
 10
-8.7224554741
 20
-24.2855823661
 10
-8.7204823677
 20
-24.2973162875
 10
-8.7179531817
 20
-24.3089430388
 10
-8.7148736417
 20
-24.320436279
 10
-8.7112507213
 20
-24.3317699738
 10
-8.7070926258
 20
-24.3429184493
 10
-8.7024087722
 20
-24.3538564463
 10
-8.6972097688
 20
-24.3645591876
 10
-8.6915073916
 20
-24.3750024283
 10
-8.6853145581
 20
-24.3851625059
 10
-8.6786452955
 20
-24.3950164051
 10
-8.6715147107
 20
-24.4045418038
 10
-8.6639389589
 20
-24.4137171191
 10
-8.6559352005
 20
-24.4225215661
 10
-8.6475215661
 20
-24.4309352005
 10
-8.6387171191
 20
-24.4389389589
 10
-8.6295418038
 20
-24.4465147107
 10
-8.6200164051
 20
-24.4536452955
 10
-8.6101625059
 20
-24.4603145581
 10
-8.6000024283
 20
-24.4665073916
 10
-8.5895591876
 20
-24.4722097688
 10
-8.5788564463
 20
-24.4774087722
 10
-8.5679184493
 20
-24.4820926258
 10
-8.5567699738
 20
-24.4862507213
 10
-8.545436279
 20
-24.4898736417
 10
-8.5339430388
 20
-24.4929531817
 10
-8.5223162875
 20
-24.4954823677
 10
-8.5105823661
 20
-24.4974554741
 10
-8.4987678556
 20
-24.4988680342
 10
-8.486899516
 20
-24.4997168498
 10
-8.4750042308
 20
-24.5
  0
LINE
  5
288
100
AcDbEntity
  8
0
100
AcDbLine
 62
7
  6
CONTINUOUS
 10
-9.225
 20
-17.6716990487
 11
-9.225
 21
17.6716990487
  0
LINE
  5
289
100
AcDbEntity
  8
RACCORDO
100
AcDbLine
 62
7
  6
CONTINUOUS
 10
-9.225
 20
-21.9411874598
 11
-9.225
 21
21.9411874598
  0
LWPOLYLINE
  5
28A
100
AcDbEntity
  8
RACCORDO
100
AcDbPolyline
 62
7
  6
CONTINUOUS
 90
25
 70
0
 10
-9.2075781258
 20
21.9498977334
 10
-9.2070601823
 20
21.9713170184
 10
-9.2055241857
 20
21.9926857359
 10
-9.2029738765
 20
22.0139555101
 10
-9.1994153041
 20
22.0350780389
 10
-9.194856789
 20
22.0560057254
 10
-9.1893088158
 20
22.0766917666
 10
-9.1827841168
 20
22.0970894004
 10
-9.1752976356
 20
22.1171525312
 10
-9.1668663253
 20
22.1368363114
 10
-9.1575093582
 20
22.1560962623
 10
-9.1472479986
 20
22.1748888651
 10
-9.1361053257
 20
22.1931720963
 10
-9.1241065691
 20
22.2109046293
 10
-9.1112788958
 20
22.2280463787
 10
-9.0976510617
 20
22.2445589713
 10
-9.0832538585
 20
22.2604050431
 10
-9.0681198211
 20
22.2755487323
 10
-9.0522828187
 20
22.2899560773
 10
-9.0357786015
 20
22.3035944137
 10
-9.0186444344
 20
22.3164328111
 10
-9.0009186344
 20
22.3284423967
 10
-8.9826412105
 20
22.3395958528
 10
-8.9638534271
 20
22.3498677943
 10
-8.9586665626
 20
22.3525030702
  0
LWPOLYLINE
  5
28B
100
AcDbEntity
  8
RACCORDO
100
AcDbPolyline
 62
250
  6
CONTINUOUS
 90
34
 70
0
 10
-9.0742008169
 20
21.4994104546
 10
-9.0736123417
 20
21.5231534972
 10
-9.0718940755
 20
21.5468428236
 10
-9.0690499106
 20
21.5704248356
 10
-9.0650862871
 20
21.5938461744
 10
-9.0600121779
 20
21.6170538523
 10
-9.0538390679
 20
21.6399953718
 10
-9.046580928
 20
21.6626188278
 10
-9.0382541837
 20
21.6848730348
 10
-9.0288776769
 20
21.7067076532
 10
-9.0184726253
 20
21.7280732829
 10
-9.007062573
 20
21.7489215845
 10
-8.9946733356
 20
21.7692053986
 10
-8.9813329461
 20
21.788878834
 10
-8.9670715886
 20
21.80789738
 10
-8.9519215275
 20
21.8262180152
 10
-8.9359170409
 20
21.84379929
 10
-8.9190943398
 20
21.8606014268
 10
-8.9014914809
 20
21.8765864164
 10
-8.8831482913
 20
21.8917180932
 10
-8.8641062723
 20
21.905962221
 10
-8.8444085001
 20
21.919286575
 10
-8.8240995407
 20
21.9316610085
 10
-8.8032253427
 20
21.9430575228
 10
-8.7818331261
 20
21.9534503324
 10
-8.7599712903
 20
21.9628159221
 10
-8.7376892972
 20
21.9711330997
 10
-8.7150375513
 20
21.9783830433
 10
-8.6920673017
 20
21.9845493471
 10
-8.6688305184
 20
21.9896180564
 10
-8.6453797661
 20
21.9935776957
 10
-8.6217680992
 20
21.9964193006
 10
-8.5980489428
 20
21.9981364391
 10
-8.5742759622
 20
21.9987252218
  0
LINE
  5
28C
100
AcDbEntity
  8
RACCORDO
100
AcDbLine
 62
250
  6
CONTINUOUS
 10
-9.0711257051
 20
21.474336248
 11
-9.0714826301
 21
21.4789090908
  0
LINE
  5
28D
100
AcDbEntity
  8
RACCORDO
100
AcDbLine
 62
250
  6
CONTINUOUS
 10
-9.0707705456
 20
21.4693362012
 11
-9.0711257051
 21
21.474336248
  0
LINE
  5
28E
100
AcDbEntity
  8
RACCORDO
100
AcDbLine
 62
250
  6
CONTINUOUS
 10
-9.0704172631
 20
21.463910506
 11
-9.0707705456
 21
21.4693362012
  0
LINE
  5
28F
100
AcDbEntity
  8
RACCORDO
100
AcDbLine
 62
250
  6
CONTINUOUS
 10
-9.0700660262
 20
21.4580616025
 11
-9.0704172631
 21
21.463910506
  0
LINE
  5
290
100
AcDbEntity
  8
RACCORDO
100
AcDbLine
 62
250
  6
CONTINUOUS
 10
-8.5713800877
 20
21.9646232994
 11
-8.5717378116
 21
21.971160825
  0
LINE
  5
291
100
AcDbEntity
  8
RACCORDO
100
AcDbLine
 62
250
  6
CONTINUOUS
 10
-9.0695433685
 20
21.4485008372
 11
-9.0700660262
 21
21.4580616025
  0
LINE
  5
292
100
AcDbEntity
  8
RACCORDO
100
AcDbLine
 62
250
  6
CONTINUOUS
 10
-8.5710240183
 20
21.9574431826
 11
-8.5713800877
 21
21.9646232994
  0
LINE
  5
293
100
AcDbEntity
  8
RACCORDO
100
AcDbLine
 62
250
  6
CONTINUOUS
 10
-9.0690262111
 20
21.4380036736
 11
-9.0695433685
 21
21.4485008372
  0
LWPOLYLINE
  5
294
100
AcDbEntity
  8
RACCORDO
100
AcDbPolyline
 62
7
  6
CONTINUOUS
 90
34
 70
0
 10
-6.3322807489
 20
-23.2669872981
 10
-6.3325784753
 20
-23.260745719
 10
-6.3333497267
 20
-23.254472608
 10
-6.3346000894
 20
-23.2481861919
 10
-6.3363341367
 20
-23.2419121598
 10
-6.3385555794
 20
-23.2356626215
 10
-6.3412675994
 20
-23.2294361375
 10
-6.3444720963
 20
-23.2232532001
 10
-6.3481700208
 20
-23.2171335699
 10
-6.3523622718
 20
-23.2110754134
 10
-6.357047756
 20
-23.2051002367
 10
-6.3622243979
 20
-23.199228829
 10
-6.3678907687
 20
-23.1934590071
 10
-6.3740425526
 20
-23.1878130261
 10
-6.380674335
 20
-23.182312533
 10
-6.3877821378
 20
-23.1769551973
 10
-6.3953581333
 20
-23.171763745
 10
-6.4033932153
 20
-23.1667604362
 10
-6.4118804409
 20
-23.1619430222
 10
-6.4208081504
 20
-23.1573343288
 10
-6.4301631291
 20
-23.1529569199
 10
-6.4399348037
 20
-23.148808872
 10
-6.4501073149
 20
-23.1449126131
 10
-6.460662902
 20
-23.1412905703
 10
-6.4715865028
 20
-23.137941334
 10
-6.4828575603
 20
-23.1348863009
 10
-6.4944534848
 20
-23.1321470947
 10
-6.5063541826
 20
-23.1297228132
 10
-6.5185210103
 20
-23.1276360125
 10
-6.5309390652
 20
-23.1259025536
 10
-6.5436230593
 20
-23.1245164325
 10
-6.5565577699
 20
-23.1234933505
 10
-6.5696962714
 20
-23.1228641607
 10
-6.5830037468
 20
-23.1226497308
  0
LWPOLYLINE
  5
295
100
AcDbEntity
  8
RACCORDO
100
AcDbPolyline
 62
7
  6
CONTINUOUS
 90
34
 70
0
 10
-8.7177192511
 20
23.2669872981
 10
-8.7174198287
 20
23.2606934229
 10
-8.7166441239
 20
23.2544088409
 10
-8.7153873851
 20
23.2481335519
 10
-8.7136460224
 20
23.2418552807
 10
-8.7114170759
 20
23.2355863026
 10
-8.708697709
 20
23.2293634437
 10
-8.7054867318
 20
23.2231861587
 10
-8.7017838816
 20
23.2170549928
 10
-8.6975882567
 20
23.2110084085
 10
-8.6929014786
 20
23.205045942
 10
-8.6877261214
 20
23.199168057
 10
-8.6820632404
 20
23.1934146064
 10
-8.6759174965
 20
23.1877851844
 10
-8.6692945874
 20
23.1822801967
 10
-8.6621976951
 20
23.1769407141
 10
-8.6546347916
 20
23.1717664006
 10
-8.6466150594
 20
23.1667575922
 10
-8.6381442164
 20
23.1619563668
 10
-8.629233882
 20
23.1573625195
 10
-8.619897167
 20
23.1529762552
 10
-8.6101430254
 20
23.1488402671
 10
-8.5999871321
 20
23.1449546011
 10
-8.5894470274
 20
23.1413192112
 10
-8.5785358548
 20
23.1379766523
 10
-8.5672738698
 20
23.1349274029
 10
-8.5556834708
 20
23.1321709844
 10
-8.5437828486
 20
23.1297485157
 10
-8.531584335
 20
23.1276610792
 10
-8.5191281847
 20
23.1259075925
 10
-8.5064781276
 20
23.1245259271
 10
-8.4936775292
 20
23.123528707
 10
-8.480747957
 20
23.1229033082
 10
-8.4677234819
 20
23.1226497308
  0
LINE
  5
296
100
AcDbEntity
  8
RACCORDO
100
AcDbLine
 62
250
  6
CONTINUOUS
 10
-8.5704933848
 20
21.9454745508
 11
-8.5710240183
 21
21.9574431826
  0
LINE
  5
297
100
AcDbEntity
  8
RACCORDO
100
AcDbLine
 62
250
  6
CONTINUOUS
 10
-9.0683461344
 20
21.4225695591
 11
-9.0690262111
 21
21.4380036736
  0
LINE
  5
298
100
AcDbEntity
  8
RACCORDO
100
AcDbLine
 62
250
  6
CONTINUOUS
 10
-8.5699673583
 20
21.932077961
 11
-8.5704933848
 21
21.9454745508
  0
LINE
  5
299
100
AcDbEntity
  8
RACCORDO
100
AcDbLine
 62
250
  6
CONTINUOUS
 10
-9.0675129021
 20
21.4010041498
 11
-9.0683461344
 21
21.4225695591
  0
LWPOLYLINE
  5
29A
100
AcDbEntity
  8
RACCORDO
100
AcDbPolyline
 62
250
  6
CONTINUOUS
 90
31
 70
0
 10
-8.7119014213
 20
23.8443375673
 10
-8.7115228657
 20
23.833039595
 10
-8.7104637381
 20
23.821769291
 10
-8.7087263616
 20
23.8105574212
 10
-8.7063146602
 20
23.7994336121
 10
-8.7032347899
 20
23.78842936
 10
-8.6994957389
 20
23.7775778202
 10
-8.6951081945
 20
23.7669096972
 10
-8.6900837955
 20
23.7564530239
 10
-8.6844361149
 20
23.746236105
 10
-8.6781804223
 20
23.7362866999
 10
-8.6713338477
 20
23.7266321754
 10
-8.6639152395
 20
23.7172991519
 10
-8.6559449354
 20
23.7083132018
 10
-8.6474446406
 20
23.6996987826
 10
-8.6384375501
 20
23.6914794042
 10
-8.6289482465
 20
23.6836775075
 10
-8.6190026594
 20
23.6763144193
 10
-8.6086279765
 20
23.6694102704
 10
-8.5978525441
 20
23.6629839239
 10
-8.5867057861
 20
23.6570529269
 10
-8.575218149
 20
23.6516334796
 10
-8.5634209923
 20
23.6467403776
 10
-8.5513465559
 20
23.6423869945
 10
-8.5390278763
 20
23.6385852371
 10
-8.5264986409
 20
23.6353454907
 10
-8.5137930381
 20
23.6326765842
 10
-8.5009457173
 20
23.6305857918
 10
-8.48799175
 20
23.6290788219
 10
-8.4749665362
 20
23.6281597935
 10
-8.4619056521
 20
23.6278312164
  0
LINE
  5
29B
100
AcDbEntity
  8
RACCORDO
100
AcDbLine
 62
250
  6
CONTINUOUS
 10
-8.5692740907
 20
21.9120180966
 11
-8.5699673583
 21
21.932077961
  0
LINE
  5
29C
100
AcDbEntity
  8
RACCORDO
100
AcDbLine
 62
250
  6
CONTINUOUS
 10
-9.0665407715
 20
21.3718717189
 11
-9.0675129021
 21
21.4010041498
  0
LINE
  5
29D
100
AcDbEntity
  8
RACCORDO
100
AcDbLine
 62
250
  6
CONTINUOUS
 10
-8.5684222615
 20
21.8834629423
 11
-8.5692740907
 21
21.9120180966
  0
LINE
  5
29E
100
AcDbEntity
  8
RACCORDO
100
AcDbLine
 62
250
  6
CONTINUOUS
 10
-9.0654496621
 20
21.3335426361
 11
-9.0665407715
 21
21.3718717189
  0
LINE
  5
29F
100
AcDbEntity
  8
RACCORDO
100
AcDbLine
 62
250
  6
CONTINUOUS
 10
-8.5672614718
 20
21.8371334236
 11
-8.5684222615
 21
21.8834629423
  0
LINE
  5
2A0
100
AcDbEntity
  8
RACCORDO
100
AcDbLine
 62
250
  6
CONTINUOUS
 10
-9.0641238887
 20
21.2777124585
 11
-9.0654496621
 21
21.3335426361
  0
LINE
  5
2A1
100
AcDbEntity
  8
RACCORDO
100
AcDbLine
 62
250
  6
CONTINUOUS
 10
-8.5658325075
 20
21.7670492991
 11
-8.5672614718
 21
21.8371334236
  0
LINE
  5
2A2
100
AcDbEntity
  8
RACCORDO
100
AcDbLine
 62
250
  6
CONTINUOUS
 10
-9.0626373156
 20
21.2001600995
 11
-9.0641238887
 21
21.2777124585
  0
LINE
  5
2A3
100
AcDbEntity
  8
RACCORDO
100
AcDbLine
 62
250
  6
CONTINUOUS
 10
-8.5639183013
 20
21.64613512
 11
-8.5658325075
 21
21.7670492991
  0
LINE
  5
2A4
100
AcDbEntity
  8
RACCORDO
100
AcDbLine
 62
250
  6
CONTINUOUS
 10
-9.0609870637
 20
21.088185132
 11
-9.0626373156
 21
21.2001600995
  0
LINE
  5
2A5
100
AcDbEntity
  8
RACCORDO
100
AcDbLine
 62
250
  6
CONTINUOUS
 10
-8.7119014213
 20
-23.8443375673
 11
-8.7177192511
 21
-23.2669872981
  0
LINE
  5
2A6
100
AcDbEntity
  8
RACCORDO
100
AcDbLine
 62
250
  6
CONTINUOUS
 10
-8.4619056521
 20
-23.6278312164
 11
-8.4669962532
 21
-23.1226497308
  0
LINE
  5
2A7
100
AcDbEntity
  8
RACCORDO
100
AcDbLine
 62
250
  6
CONTINUOUS
 10
-8.5615052236
 20
21.4319769327
 11
-8.5639183013
 21
21.64613512
  0
LINE
  5
2A8
100
AcDbEntity
  8
RACCORDO
100
AcDbLine
 62
250
  6
CONTINUOUS
 10
-9.059315328
 20
20.9260491449
 11
-9.0609870637
 21
21.088185132
  0
LINE
  5
2A9
100
AcDbEntity
  8
RACCORDO
100
AcDbLine
 62
250
  6
CONTINUOUS
 10
-8.5590244789
 20
21.0667245122
 11
-8.5615052236
 21
21.4319769327
  0
LINE
  5
2AA
100
AcDbEntity
  8
RACCORDO
100
AcDbLine
 62
250
  6
CONTINUOUS
 10
-9.0580372896
 20
20.708039865
 11
-9.059315328
 21
20.9260491449
  0
LINE
  5
2AB
100
AcDbEntity
  8
RACCORDO
100
AcDbLine
 62
250
  6
CONTINUOUS
 10
-9.0576730391
 20
20.5419058565
 11
-9.0580372896
 21
20.708039865
  0
LINE
  5
2AC
100
AcDbEntity
  8
RACCORDO
100
AcDbLine
 62
250
  6
CONTINUOUS
 10
-8.5577680535
 20
20.5938458632
 11
-8.5590244789
 21
21.0667245122
  0
LINE
  5
2AD
100
AcDbEntity
  8
RACCORDO
100
AcDbLine
 62
250
  6
CONTINUOUS
 10
-9.05523492
 20
16.8085801754
 11
-9.0576730391
 21
20.5419058565
  0
LINE
  5
2AE
100
AcDbEntity
  8
RACCORDO
100
AcDbLine
 62
250
  6
CONTINUOUS
 10
-8.5564691943
 20
18.694047664
 11
-8.5577680535
 21
20.5938458632
  0
LINE
  5
2AF
100
AcDbEntity
  8
RACCORDO
100
AcDbLine
 62
250
  6
CONTINUOUS
 10
-8.5553110724
 20
16.8254054982
 11
-8.5564691943
 21
18.694047664
  0
LINE
  5
2B0
100
AcDbEntity
  8
RACCORDO
100
AcDbLine
 62
250
  6
CONTINUOUS
 10
-9.0527423866
 20
11.8293878568
 11
-9.05523492
 21
16.8085801754
  0
LINE
  5
2B1
100
AcDbEntity
  8
RACCORDO
100
AcDbLine
 62
250
  6
CONTINUOUS
 10
-8.552818539
 20
11.8412293569
 11
-8.5553110724
 21
16.8254054982
  0
LINE
  5
2B2
100
AcDbEntity
  8
RACCORDO
100
AcDbLine
 62
250
  6
CONTINUOUS
 10
-9.0511166932
 20
6.8490191698
 11
-9.0527423866
 21
11.8293878568
  0
LINE
  5
2B3
100
AcDbEntity
  8
RACCORDO
100
AcDbLine
 62
250
  6
CONTINUOUS
 10
-8.5511928456
 20
6.8558747013
 11
-8.552818539
 21
11.8412293569
  0
LINE
  5
2B4
100
AcDbEntity
  8
RACCORDO
100
AcDbLine
 62
250
  6
CONTINUOUS
 10
-9.0504054204
 20
2.4906198405
 11
-9.0511166932
 21
6.8490191698
  0
LINE
  5
2B5
100
AcDbEntity
  8
RACCORDO
100
AcDbLine
 62
7
  6
CONTINUOUS
 10
-8.725
 20
-22.4
 11
-8.725
 21
-24.2500042308
  0
LINE
  5
2B6
100
AcDbEntity
  8
RACCORDO
100
AcDbLine
 62
7
  6
CONTINUOUS
 10
-8.725
 20
22.4
 11
-8.725
 21
24.2500042308
  0
LINE
  5
2B7
100
AcDbEntity
  8
RACCORDO
100
AcDbLine
 62
250
  6
CONTINUOUS
 10
-8.7177192511
 20
-23.2669872981
 11
-8.7177192511
 21
-22.3344140523
  0
LINE
  5
2B8
100
AcDbEntity
  8
RACCORDO
100
AcDbLine
 62
250
  6
CONTINUOUS
 10
-8.7177192511
 20
22.3344140523
 11
-8.7177192511
 21
23.2669872981
  0
LINE
  5
2B9
100
AcDbEntity
  8
RACCORDO
100
AcDbLine
 62
250
  6
CONTINUOUS
 10
-8.7119014213
 20
24.2369056521
 11
-8.7119014213
 21
23.8443375673
  0
LINE
  5
2BA
100
AcDbEntity
  8
RACCORDO
100
AcDbLine
 62
250
  6
CONTINUOUS
 10
-8.7119014213
 20
-23.8443375673
 11
-8.7119014213
 21
-24.2369056521
  0
LINE
  5
2BB
100
AcDbEntity
  8
RACCORDO
100
AcDbLine
 62
250
  6
CONTINUOUS
 10
-8.5504815728
 20
2.4931132829
 11
-8.5511928456
 21
6.8558747013
  0
LINE
  5
2BC
100
AcDbEntity
  8
RACCORDO
100
AcDbLine
 62
250
  6
CONTINUOUS
 10
-8.4677234819
 20
-23.1226497308
 11
-8.4677234819
 21
-22.3213883311
  0
LINE
  5
2BD
100
AcDbEntity
  8
RACCORDO
100
AcDbLine
 62
250
  6
CONTINUOUS
 10
-8.4677234819
 20
22.3213883311
 11
-8.4677234819
 21
23.1226497308
  0
LINE
  5
2BE
100
AcDbEntity
  8
RACCORDO
100
AcDbLine
 62
250
  6
CONTINUOUS
 10
-8.4619056521
 20
-23.6278312164
 11
-8.4619056521
 21
-24.4869014213
  0
LINE
  5
2BF
100
AcDbEntity
  8
RACCORDO
100
AcDbLine
 62
250
  6
CONTINUOUS
 10
-8.4619056521
 20
23.6278312164
 11
-8.4619056521
 21
24.4869014213
  0
LINE
  5
2C0
100
AcDbEntity
  8
RACCORDO
100
AcDbLine
 62
250
  6
CONTINUOUS
 10
-9.0514418397
 20
-8.0941937225
 11
-9.0504054204
 21
2.4906198405
  0
LINE
  5
2C1
100
AcDbEntity
  8
RACCORDO
100
AcDbLine
 62
250
  6
CONTINUOUS
 10
-8.5515179921
 20
-8.1022962687
 11
-8.5504815728
 21
2.4931132829
  0
LINE
  5
2C2
100
AcDbEntity
  8
RACCORDO
100
AcDbLine
 62
250
  6
CONTINUOUS
 10
-9.0548759564
 20
-16.1862636613
 11
-9.0514418397
 21
-8.0941937225
  0
LINE
  5
2C3
100
AcDbEntity
  8
RACCORDO
100
AcDbLine
 62
250
  6
CONTINUOUS
 10
-8.5549521088
 20
-16.2024656822
 11
-8.5515179921
 21
-8.1022962687
  0
LINE
  5
2C4
100
AcDbEntity
  8
RACCORDO
100
AcDbLine
 62
250
  6
CONTINUOUS
 10
-8.5577803663
 20
-20.6095392184
 11
-8.5549521088
 21
-16.2024656822
  0
LINE
  5
2C5
100
AcDbEntity
  8
RACCORDO
100
AcDbLine
 62
250
  6
CONTINUOUS
 10
-8.5578486843
 20
-20.6721295695
 11
-8.5577803663
 21
-20.6095392184
  0
LINE
  5
2C6
100
AcDbEntity
  8
RACCORDO
100
AcDbLine
 62
250
  6
CONTINUOUS
 10
-8.5579199189
 20
-20.7188803316
 11
-8.5578486843
 21
-20.6721295695
  0
LINE
  5
2C7
100
AcDbEntity
  8
RACCORDO
100
AcDbLine
 62
250
  6
CONTINUOUS
 10
-8.5580414154
 20
-20.7808654025
 11
-8.5579199189
 21
-20.7188803316
  0
LINE
  5
2C8
100
AcDbEntity
  8
RACCORDO
100
AcDbLine
 62
250
  6
CONTINUOUS
 10
-8.5581522953
 20
-20.8270310679
 11
-8.5580414154
 21
-20.7808654025
  0
LINE
  5
2C9
100
AcDbEntity
  8
RACCORDO
100
AcDbLine
 62
250
  6
CONTINUOUS
 10
-8.5583262862
 20
-20.8880764996
 11
-8.5581522953
 21
-20.8270310679
  0
LINE
  5
2CA
100
AcDbEntity
  8
RACCORDO
100
AcDbLine
 62
250
  6
CONTINUOUS
 10
-8.5585299102
 20
-20.9484496984
 11
-8.5583262862
 21
-20.8880764996
  0
LINE
  5
2CB
100
AcDbEntity
  8
RACCORDO
100
AcDbLine
 62
250
  6
CONTINUOUS
 10
-8.5588255454
 20
-21.0228003334
 11
-8.5585299102
 21
-20.9484496984
  0
LINE
  5
2CC
100
AcDbEntity
  8
RACCORDO
100
AcDbLine
 62
250
  6
CONTINUOUS
 10
-9.0582982651
 20
-20.7690828761
 11
-9.0548759564
 21
-16.1862636613
  0
LINE
  5
2CD
100
AcDbEntity
  8
RACCORDO
100
AcDbLine
 62
250
  6
CONTINUOUS
 10
-8.5591660621
 20
-21.0957150273
 11
-8.5588255454
 21
-21.0228003334
  0
LINE
  5
2CE
100
AcDbEntity
  8
RACCORDO
100
AcDbLine
 62
250
  6
CONTINUOUS
 10
-8.5597164021
 20
-21.1950100812
 11
-8.5591660621
 21
-21.0957150273
  0
LINE
  5
2CF
100
AcDbEntity
  8
RACCORDO
100
AcDbLine
 62
250
  6
CONTINUOUS
 10
-9.0597257204
 20
-20.9728603818
 11
-9.0582982651
 21
-20.7690828761
  0
LINE
  5
2D0
100
AcDbEntity
  8
RACCORDO
100
AcDbLine
 62
250
  6
CONTINUOUS
 10
-8.7177192511
 20
23.2669872981
 11
-8.7119014213
 21
23.8443375673
  0
LINE
  5
2D1
100
AcDbEntity
  8
RACCORDO
100
AcDbLine
 62
250
  6
CONTINUOUS
 10
-8.4669962532
 20
23.1226497308
 11
-8.4619056521
 21
23.6278312164
  0
LINE
  5
2D2
100
AcDbEntity
  8
RACCORDO
100
AcDbLine
 62
250
  6
CONTINUOUS
 10
-8.5622130246
 20
-21.5040162753
 11
-8.5597164021
 21
-21.1950100812
  0
LINE
  5
2D3
100
AcDbEntity
  8
RACCORDO
100
AcDbLine
 62
250
  6
CONTINUOUS
 10
-9.0614291223
 20
-21.1215819643
 11
-9.0597257204
 21
-20.9728603818
  0
LINE
  5
2D4
100
AcDbEntity
  8
RACCORDO
100
AcDbLine
 62
250
  6
CONTINUOUS
 10
-8.5644866846
 20
-21.685714832
 11
-8.5622130246
 21
-21.5040162753
  0
LINE
  5
2D5
100
AcDbEntity
  8
RACCORDO
100
AcDbLine
 62
250
  6
CONTINUOUS
 10
-9.0630271869
 20
-21.2222802652
 11
-9.0614291223
 21
-21.1215819643
  0
LINE
  5
2D6
100
AcDbEntity
  8
RACCORDO
100
AcDbLine
 62
250
  6
CONTINUOUS
 10
-8.566300304
 20
-21.7916986951
 11
-8.5644866846
 21
-21.685714832
  0
LINE
  5
2D7
100
AcDbEntity
  8
RACCORDO
100
AcDbLine
 62
250
  6
CONTINUOUS
 10
-9.0645555936
 20
-21.2971182699
 11
-9.0630271869
 21
-21.2222802652
  0
LINE
  5
2D8
100
AcDbEntity
  8
RACCORDO
100
AcDbLine
 62
250
  6
CONTINUOUS
 10
-8.5675891444
 20
-21.8511197545
 11
-8.566300304
 21
-21.7916986951
  0
LINE
  5
2D9
100
AcDbEntity
  8
RACCORDO
100
AcDbLine
 62
250
  6
CONTINUOUS
 10
-9.0657564591
 20
-21.3449638347
 11
-9.0645555936
 21
-21.2971182699
  0
LINE
  5
2DA
100
AcDbEntity
  8
RACCORDO
100
AcDbLine
 62
250
  6
CONTINUOUS
 10
-8.5685913411
 20
-21.8894848011
 11
-8.5675891444
 21
-21.8511197545
  0
LINE
  5
2DB
100
AcDbEntity
  8
RACCORDO
100
AcDbLine
 62
250
  6
CONTINUOUS
 10
-9.066861339
 20
-21.3819739381
 11
-9.0657564591
 21
-21.3449638347
  0
LINE
  5
2DC
100
AcDbEntity
  8
RACCORDO
100
AcDbLine
 62
250
  6
CONTINUOUS
 10
-8.5694466016
 20
-21.9172706408
 11
-8.5685913411
 21
-21.8894848011
  0
LWPOLYLINE
  5
2DD
100
AcDbEntity
  8
RACCORDO
100
AcDbPolyline
 62
250
  6
CONTINUOUS
 90
31
 70
0
 10
-8.7119014213
 20
-23.8443375673
 10
-8.7115220896
 20
-23.8330274168
 10
-8.7104611076
 20
-23.8217481519
 10
-8.7087213727
 20
-23.810530574
 10
-8.7063076358
 20
-23.7994053159
 10
-8.7032264882
 20
-23.7884027584
 10
-8.699486344
 20
-23.7775529472
 10
-8.6950974166
 20
-23.7668855107
 10
-8.6900716913
 20
-23.7564295797
 10
-8.6844228923
 20
-23.7462137069
 10
-8.6781664453
 20
-23.7362657898
 10
-8.6713194354
 20
-23.7266129942
 10
-8.6639005603
 20
-23.7172816797
 10
-8.6559300794
 20
-23.7082973282
 10
-8.6474297583
 20
-23.6996844742
 10
-8.6384228098
 20
-23.6914666374
 10
-8.6289338299
 20
-23.6836662592
 10
-8.618988731
 20
-23.6763046407
 10
-8.6086146711
 20
-23.6694018849
 10
-8.5978399796
 20
-23.6629768418
 10
-8.5866940799
 20
-23.6570470569
 10
-8.5752074091
 20
-23.6516287232
 10
-8.5634113349
 20
-23.646736637
 10
-8.55133807
 20
-23.6423841576
 10
-8.5390205838
 20
-23.6385831707
 10
-8.526492513
 20
-23.6353440559
 10
-8.5137880689
 20
-23.6326756587
 10
-8.5009419448
 20
-23.6305852658
 10
-8.4879892207
 20
-23.6290785857
 10
-8.4749652679
 20
-23.6281597328
 10
-8.4619056521
 20
-23.6278312164
  0
LINE
  5
2DE
100
AcDbEntity
  8
RACCORDO
100
AcDbLine
 62
250
  6
CONTINUOUS
 10
-9.0676780769
 20
-21.4055201743
 11
-9.066861339
 21
-21.3819739381
  0
LINE
  5
2DF
100
AcDbEntity
  8
RACCORDO
100
AcDbLine
 62
250
  6
CONTINUOUS
 10
-8.5701422555
 20
-21.9367041154
 11
-8.5694466016
 21
-21.9172706408
  0
LINE
  5
2E0
100
AcDbEntity
  8
RACCORDO
100
AcDbLine
 62
250
  6
CONTINUOUS
 10
-9.0683462662
 20
-21.4225727353
 11
-9.0676780769
 21
-21.4055201743
  0
LINE
  5
2E1
100
AcDbEntity
  8
RACCORDO
100
AcDbLine
 62
250
  6
CONTINUOUS
 10
-8.5706698789
 20
-21.9496258567
 11
-8.5701422555
 21
-21.9367041154
  0
LINE
  5
2E2
100
AcDbEntity
  8
RACCORDO
100
AcDbLine
 62
250
  6
CONTINUOUS
 10
-9.0690263441
 20
-21.4380065106
 11
-9.0683462662
 21
-21.4225727353
  0
LWPOLYLINE
  5
2E3
100
AcDbEntity
  8
RACCORDO
100
AcDbPolyline
 62
7
  6
CONTINUOUS
 90
34
 70
0
 10
-8.7177192511
 20
-23.2669872981
 10
-8.7174215247
 20
-23.260745719
 10
-8.7166502733
 20
-23.254472608
 10
-8.7153999106
 20
-23.2481861919
 10
-8.7136658633
 20
-23.2419121598
 10
-8.7114444206
 20
-23.2356626215
 10
-8.7087324006
 20
-23.2294361375
 10
-8.7055279037
 20
-23.2232532001
 10
-8.7018299792
 20
-23.2171335699
 10
-8.6976377282
 20
-23.2110754134
 10
-8.692952244
 20
-23.2051002367
 10
-8.6877756021
 20
-23.199228829
 10
-8.6821092313
 20
-23.1934590071
 10
-8.6759574474
 20
-23.1878130261
 10
-8.669325665
 20
-23.182312533
 10
-8.6622178622
 20
-23.1769551973
 10
-8.6546418667
 20
-23.171763745
 10
-8.6466067847
 20
-23.1667604362
 10
-8.6381195591
 20
-23.1619430222
 10
-8.6291918496
 20
-23.1573343288
 10
-8.6198368709
 20
-23.1529569199
 10
-8.6100651963
 20
-23.148808872
 10
-8.5998926851
 20
-23.1449126131
 10
-8.589337098
 20
-23.1412905703
 10
-8.5784134972
 20
-23.137941334
 10
-8.5671424397
 20
-23.1348863009
 10
-8.5555465152
 20
-23.1321470947
 10
-8.5436458174
 20
-23.1297228132
 10
-8.5314789897
 20
-23.1276360125
 10
-8.5190609348
 20
-23.1259025536
 10
-8.5063769407
 20
-23.1245164325
 10
-8.4934422301
 20
-23.1234933505
 10
-8.4803037286
 20
-23.1228641607
 10
-8.4669962532
 20
-23.1226497308
  0
LWPOLYLINE
  5
2E4
100
AcDbEntity
  8
RACCORDO
100
AcDbPolyline
 62
7
  6
CONTINUOUS
 90
34
 70
0
 10
-6.3322807489
 20
23.2669872981
 10
-6.3325784753
 20
23.260745719
 10
-6.3333497267
 20
23.254472608
 10
-6.3346000894
 20
23.2481861919
 10
-6.3363341367
 20
23.2419121598
 10
-6.3385555794
 20
23.2356626215
 10
-6.3412675994
 20
23.2294361375
 10
-6.3444720963
 20
23.2232532001
 10
-6.3481700208
 20
23.2171335699
 10
-6.3523622718
 20
23.2110754134
 10
-6.357047756
 20
23.2051002367
 10
-6.3622243979
 20
23.199228829
 10
-6.3678907687
 20
23.1934590071
 10
-6.3740425526
 20
23.1878130261
 10
-6.380674335
 20
23.182312533
 10
-6.3877821378
 20
23.1769551973
 10
-6.3953581333
 20
23.171763745
 10
-6.4033932153
 20
23.1667604362
 10
-6.4118804409
 20
23.1619430222
 10
-6.4208081504
 20
23.1573343288
 10
-6.4301631291
 20
23.1529569199
 10
-6.4399348037
 20
23.148808872
 10
-6.4501073149
 20
23.1449126131
 10
-6.460662902
 20
23.1412905703
 10
-6.4715865028
 20
23.137941334
 10
-6.4828575603
 20
23.1348863009
 10
-6.4944534848
 20
23.1321470947
 10
-6.5063541826
 20
23.1297228132
 10
-6.5185210103
 20
23.1276360125
 10
-6.5309390652
 20
23.1259025536
 10
-6.5436230593
 20
23.1245164325
 10
-6.5565577699
 20
23.1234933505
 10
-6.5696962714
 20
23.1228641607
 10
-6.5830037468
 20
23.1226497308
  0
LINE
  5
2E5
100
AcDbEntity
  8
RACCORDO
100
AcDbLine
 62
250
  6
CONTINUOUS
 10
-8.5712019656
 20
-21.9611162268
 11
-8.5706698789
 21
-21.9496258567
  0
LINE
  5
2E6
100
AcDbEntity
  8
RACCORDO
100
AcDbLine
 62
250
  6
CONTINUOUS
 10
-9.0695434887
 20
-21.4485031593
 11
-9.0690263441
 21
-21.4380065106
  0
LWPOLYLINE
  5
2E7
100
AcDbEntity
  8
RACCORDO
100
AcDbPolyline
 62
250
  6
CONTINUOUS
 90
3
 70
0
 10
-8.5717379985
 20
-21.9711640549
 10
-8.5715589218
 20
-21.9679757029
 10
-8.5712019656
 20
-21.9611162268
  0
LINE
  5
2E8
100
AcDbEntity
  8
RACCORDO
100
AcDbLine
 62
250
  6
CONTINUOUS
 10
-9.0700661331
 20
-21.4580634546
 11
-9.0695434887
 21
-21.4485031593
  0
LINE
  5
2E9
100
AcDbEntity
  8
RACCORDO
100
AcDbLine
 62
250
  6
CONTINUOUS
 10
-9.0704173686
 20
-21.4639121946
 11
-9.0700661331
 21
-21.4580634546
  0
LINE
  5
2EA
100
AcDbEntity
  8
RACCORDO
100
AcDbLine
 62
250
  6
CONTINUOUS
 10
-9.0707706631
 20
-21.4693379324
 11
-9.0704173686
 21
-21.4639121946
  0
LINE
  5
2EB
100
AcDbEntity
  8
RACCORDO
100
AcDbLine
 62
250
  6
CONTINUOUS
 10
-9.0711258466
 20
-21.4743381457
 11
-9.0707706631
 21
-21.4693379324
  0
LINE
  5
2EC
100
AcDbEntity
  8
RACCORDO
100
AcDbLine
 62
7
  6
CONTINUOUS
 10
-6.325
 20
22.4
 11
-6.3322807489
 21
22.3344140523
  0
LWPOLYLINE
  5
2ED
100
AcDbEntity
  8
0
100
AcDbPolyline
 62
7
  6
CONTINUOUS
 90
3
 70
0
 43
0.3500000006
 10
3.0678570271
 20
34.0357120514
 10
2.9964286766
 20
33.8214275665
 10
2.8535714092
 20
33.5357164307
  0
LINE
  5
2EE
100
AcDbEntity
  8
RACCORDO
100
AcDbLine
 62
250
  6
CONTINUOUS
 10
12.3250042308
 20
24.5
 11
12.3119056521
 21
24.4869014213
  0
LINE
  5
2EF
100
AcDbEntity
  8
RACCORDO
100
AcDbLine
 62
250
  6
CONTINUOUS
 10
12.575
 20
24.2500042308
 11
12.5619014213
 21
24.2369056521
  0
LINE
  5
2F0
100
AcDbEntity
  8
RACCORDO
100
AcDbLine
 62
250
  6
CONTINUOUS
 10
12.3250042308
 20
-24.5
 11
12.3119056521
 21
-24.4869014213
  0
LINE
  5
2F1
100
AcDbEntity
  8
RACCORDO
100
AcDbLine
 62
250
  6
CONTINUOUS
 10
12.575
 20
-24.2500042308
 11
12.5619014213
 21
-24.2369056521
  0
LINE
  5
2F2
100
AcDbEntity
  8
RACCORDO
100
AcDbLine
 62
7
  6
CONTINUOUS
 10
-6.325
 20
-22.4
 11
-6.3322807489
 21
-22.3344140523
  0
LWPOLYLINE
  5
2F3
100
AcDbEntity
  8
RACCORDO
100
AcDbPolyline
 62
250
  6
CONTINUOUS
 90
16
 70
0
 10
-9.0714826301
 20
21.4789090908
 10
-9.0716616934
 20
21.4810344887
 10
-9.0718411572
 20
21.4830525559
 10
-9.0720209666
 20
21.4849626546
 10
-9.072201123
 20
21.4867647722
 10
-9.0723816251
 20
21.4884589214
 10
-9.0725624135
 20
21.4900445026
 10
-9.0727434903
 20
21.4915214762
 10
-9.0729248534
 20
21.4928898817
 10
-9.0731064371
 20
21.4941492376
 10
-9.0732882428
 20
21.4952995282
 10
-9.0734702692
 20
21.4963407692
 10
-9.073652446
 20
21.4972725258
 10
-9.0738347501
 20
21.4980946531
 10
-9.0740172046
 20
21.498807296
 10
-9.0741998097
 20
21.4994104546
  0
LWPOLYLINE
  5
2F4
100
AcDbEntity
  8
RACCORDO
100
AcDbPolyline
 62
250
  6
CONTINUOUS
 90
12
 70
0
 10
-8.5722772434
 20
21.9797563175
 10
-8.5724577522
 20
21.9822973613
 10
-8.5726385406
 20
21.9846758297
 10
-8.5728195976
 20
21.9868914684
 10
-8.5730009342
 20
21.9889439901
 10
-8.5731825161
 20
21.9908330931
 10
-8.5733643734
 20
21.9925585689
 10
-8.573546476
 20
21.9941202276
 10
-8.5737286987
 20
21.995517854
 10
-8.5739109998
 20
21.9967512976
 10
-8.5740934209
 20
21.9978204543
 10
-8.5742759622
 20
21.998725222
  0
LWPOLYLINE
  5
2F5
100
AcDbEntity
  8
RACCORDO
100
AcDbPolyline
 62
250
  6
CONTINUOUS
 90
3
 70
0
 10
-8.5717378116
 20
21.971160825
 10
-8.5719172732
 20
21.9741877258
 10
-8.5722772434
 20
21.9797563175
  0
LWPOLYLINE
  5
2F6
100
AcDbEntity
  8
RACCORDO
100
AcDbPolyline
 62
250
  6
CONTINUOUS
 90
31
 70
0
 10
-6.3380985787
 20
-23.8443375673
 10
-6.3384779104
 20
-23.8330274168
 10
-6.3395388924
 20
-23.8217481519
 10
-6.3412786273
 20
-23.810530574
 10
-6.3436923642
 20
-23.7994053159
 10
-6.3467735118
 20
-23.7884027584
 10
-6.350513656
 20
-23.7775529472
 10
-6.3549025834
 20
-23.7668855107
 10
-6.3599283087
 20
-23.7564295797
 10
-6.3655771077
 20
-23.7462137069
 10
-6.3718335547
 20
-23.7362657898
 10
-6.3786805646
 20
-23.7266129942
 10
-6.3860994397
 20
-23.7172816797
 10
-6.3940699206
 20
-23.7082973282
 10
-6.4025702417
 20
-23.6996844742
 10
-6.4115771902
 20
-23.6914666374
 10
-6.4210661701
 20
-23.6836662592
 10
-6.431011269
 20
-23.6763046407
 10
-6.4413853289
 20
-23.6694018849
 10
-6.4521600204
 20
-23.6629768418
 10
-6.4633059201
 20
-23.6570470569
 10
-6.4747925909
 20
-23.6516287232
 10
-6.4865886651
 20
-23.646736637
 10
-6.49866193
 20
-23.6423841576
 10
-6.5109794162
 20
-23.6385831707
 10
-6.523507487
 20
-23.6353440559
 10
-6.5362119311
 20
-23.6326756587
 10
-6.5490580552
 20
-23.6305852658
 10
-6.5620107793
 20
-23.6290785857
 10
-6.5750347321
 20
-23.6281597328
 10
-6.5880943479
 20
-23.6278312164
  0
LWPOLYLINE
  5
2F7
100
AcDbEntity
  8
RACCORDO
100
AcDbPolyline
 62
250
  6
CONTINUOUS
 90
31
 70
0
 10
-6.3380985787
 20
24.2369056521
 10
-6.3384399859
 20
24.249957992
 10
-6.3394632485
 20
24.2629828864
 10
-6.3411668528
 20
24.275944661
 10
-6.3435479829
 20
24.2888103798
 10
-6.3466010963
 20
24.3015418449
 10
-6.350316536
 20
24.3140960295
 10
-6.3546830871
 20
24.3264358334
 10
-6.359689517
 20
24.3385301896
 10
-6.3653222656
 20
24.3503462678
 10
-6.3715660673
 20
24.3618518682
 10
-6.3784037491
 20
24.3730151866
 10
-6.3858163791
 20
24.3838052658
 10
-6.3937835214
 20
24.3941923917
 10
-6.4022834183
 20
24.4041482289
 10
-6.4112928401
 20
24.4136455633
 10
-6.4207871333
 20
24.4226583824
 10
-6.4307402367
 20
24.4311619239
 10
-6.441124826
 20
24.4391328321
 10
-6.4519124163
 20
24.446549239
 10
-6.4630734423
 20
24.4533908148
 10
-6.4745772981
 20
24.4596387939
 10
-6.4863924437
 20
24.4652760422
 10
-6.4984864809
 20
24.4702870977
 10
-6.510826237
 20
24.4746582128
 10
-6.5233778845
 20
24.4783774023
 10
-6.5361069984
 20
24.4814344634
 10
-6.5489786381
 20
24.4838210061
 10
-6.5619574955
 20
24.4855304893
 10
-6.5750079938
 20
24.4865582323
 10
-6.5880943479
 20
24.4869014213
  0
LWPOLYLINE
  5
2F8
100
AcDbEntity
  8
RACCORDO
100
AcDbPolyline
 62
7
  6
CONTINUOUS
 90
34
 70
0
 10
-6.325
 20
24.2500042308
 10
-6.3252831502
 20
24.261899516
 10
-6.3261319658
 20
24.2737678556
 10
-6.3275445259
 20
24.2855823661
 10
-6.3295176323
 20
24.2973162875
 10
-6.3320468183
 20
24.3089430388
 10
-6.3351263583
 20
24.320436279
 10
-6.3387492787
 20
24.3317699738
 10
-6.3429073742
 20
24.3429184493
 10
-6.3475912278
 20
24.3538564463
 10
-6.3527902312
 20
24.3645591876
 10
-6.3584926084
 20
24.3750024283
 10
-6.3646854419
 20
24.3851625059
 10
-6.3713547045
 20
24.3950164051
 10
-6.3784852893
 20
24.4045418038
 10
-6.3860610411
 20
24.4137171191
 10
-6.3940647995
 20
24.4225215661
 10
-6.4024784339
 20
24.4309352005
 10
-6.4112828809
 20
24.4389389589
 10
-6.4204581962
 20
24.4465147107
 10
-6.4299835949
 20
24.4536452955
 10
-6.4398374941
 20
24.4603145581
 10
-6.4499975717
 20
24.4665073916
 10
-6.4604408124
 20
24.4722097688
 10
-6.4711435537
 20
24.4774087722
 10
-6.4820815507
 20
24.4820926258
 10
-6.4932300262
 20
24.4862507213
 10
-6.504563721
 20
24.4898736417
 10
-6.5160569612
 20
24.4929531817
 10
-6.5276837125
 20
24.4954823677
 10
-6.5394176339
 20
24.4974554741
 10
-6.5512321444
 20
24.4988680342
 10
-6.563100484
 20
24.4997168498
 10
-6.5749957692
 20
24.5
  0
LINE
  5
2F9
100
AcDbEntity
  8
RACCORDO
100
AcDbLine
 62
250
  6
CONTINUOUS
 10
-6.5880943479
 20
23.6278312164
 11
-6.5830037468
 21
23.1226497308
  0
LINE
  5
2FA
100
AcDbEntity
  8
RACCORDO
100
AcDbLine
 62
250
  6
CONTINUOUS
 10
-6.3380985787
 20
23.8443375673
 11
-6.3322807489
 21
23.2669872981
  0
LINE
  5
2FB
100
AcDbEntity
  8
RACCORDO
100
AcDbLine
 62
250
  6
CONTINUOUS
 10
-6.5880943479
 20
-23.6278312164
 11
-6.5880943479
 21
-24.4869014213
  0
LINE
  5
2FC
100
AcDbEntity
  8
RACCORDO
100
AcDbLine
 62
250
  6
CONTINUOUS
 10
-6.5880943479
 20
23.6278312164
 11
-6.5880943479
 21
24.4869014213
  0
LINE
  5
2FD
100
AcDbEntity
  8
RACCORDO
100
AcDbLine
 62
250
  6
CONTINUOUS
 10
-6.5822765181
 20
23.1226497308
 11
-6.5822765181
 21
22.3213883311
  0
LINE
  5
2FE
100
AcDbEntity
  8
RACCORDO
100
AcDbLine
 62
250
  6
CONTINUOUS
 10
-6.5822765181
 20
-22.3213883311
 11
-6.5822765181
 21
-23.1226497308
  0
LINE
  5
2FF
100
AcDbEntity
  8
RACCORDO
100
AcDbLine
 62
250
  6
CONTINUOUS
 10
-6.3380985787
 20
-24.2369056521
 11
-6.3380985787
 21
-23.8443375673
  0
LINE
  5
300
100
AcDbEntity
  8
RACCORDO
100
AcDbLine
 62
250
  6
CONTINUOUS
 10
-6.3380985787
 20
23.8443375673
 11
-6.3380985787
 21
24.2369056521
  0
LINE
  5
301
100
AcDbEntity
  8
RACCORDO
100
AcDbLine
 62
250
  6
CONTINUOUS
 10
-6.3322807489
 20
23.2669872981
 11
-6.3322807489
 21
22.3344140523
  0
LINE
  5
302
100
AcDbEntity
  8
RACCORDO
100
AcDbLine
 62
250
  6
CONTINUOUS
 10
-6.3322807489
 20
-22.3344140523
 11
-6.3322807489
 21
-23.2669872981
  0
LINE
  5
303
100
AcDbEntity
  8
RACCORDO
100
AcDbLine
 62
7
  6
CONTINUOUS
 10
-6.325
 20
-22.4
 11
-6.325
 21
-24.2500042308
  0
LINE
  5
304
100
AcDbEntity
  8
RACCORDO
100
AcDbLine
 62
7
  6
CONTINUOUS
 10
-6.325
 20
22.4
 11
-6.325
 21
24.2500042308
  0
LINE
  5
305
100
AcDbEntity
  8
RACCORDO
100
AcDbLine
 62
250
  6
CONTINUOUS
 10
-6.5830037468
 20
-23.1226497308
 11
-6.5880943479
 21
-23.6278312164
  0
LINE
  5
306
100
AcDbEntity
  8
RACCORDO
100
AcDbLine
 62
250
  6
CONTINUOUS
 10
-6.3322807489
 20
-23.2669872981
 11
-6.3380985787
 21
-23.8443375673
  0
LWPOLYLINE
  5
307
100
AcDbEntity
  8
RACCORDO
100
AcDbPolyline
 62
250
  6
CONTINUOUS
 90
31
 70
0
 10
-6.3380985787
 20
23.8443375673
 10
-6.3384771343
 20
23.833039595
 10
-6.3395362619
 20
23.821769291
 10
-6.3412736384
 20
23.8105574212
 10
-6.3436853398
 20
23.7994336121
 10
-6.3467652101
 20
23.78842936
 10
-6.3505042611
 20
23.7775778202
 10
-6.3548918055
 20
23.7669096972
 10
-6.3599162045
 20
23.7564530239
 10
-6.3655638851
 20
23.746236105
 10
-6.3718195777
 20
23.7362866999
 10
-6.3786661523
 20
23.7266321754
 10
-6.3860847605
 20
23.7172991519
 10
-6.3940550646
 20
23.7083132018
 10
-6.4025553594
 20
23.6996987826
 10
-6.4115624499
 20
23.6914794042
 10
-6.4210517535
 20
23.6836775075
 10
-6.4309973406
 20
23.6763144193
 10
-6.4413720235
 20
23.6694102704
 10
-6.4521474559
 20
23.6629839239
 10
-6.4632942139
 20
23.6570529269
 10
-6.474781851
 20
23.6516334796
 10
-6.4865790077
 20
23.6467403776
 10
-6.4986534441
 20
23.6423869945
 10
-6.5109721237
 20
23.6385852371
 10
-6.5235013591
 20
23.6353454907
 10
-6.5362069619
 20
23.6326765842
 10
-6.5490542827
 20
23.6305857918
 10
-6.56200825
 20
23.6290788219
 10
-6.5750334638
 20
23.6281597935
 10
-6.5880943479
 20
23.6278312164
  0
LINE
  5
308
100
AcDbEntity
  8
RACCORDO
100
AcDbLine
 62
7
  6
CONTINUOUS
 10
-8.725
 20
-22.4
 11
-8.7177192511
 21
-22.3344140523
  0
LINE
  5
309
100
AcDbEntity
  8
RACCORDO
100
AcDbLine
 62
7
  6
CONTINUOUS
 10
-8.725
 20
22.4
 11
-8.7177192511
 21
22.3344140523
  0
LINE
  5
30A
100
AcDbEntity
  8
RACCORDO
100
AcDbLine
 62
250
  6
CONTINUOUS
 10
-4.7343815224
 20
-5.2145961196
 11
-4.7346143135
 21
-0.7006740507
  0
LWPOLYLINE
  5
30B
100
AcDbEntity
  8
RACCORDO
100
AcDbPolyline
 62
250
  6
CONTINUOUS
 90
3
 70
0
 10
-4.2344438788
 20
-4.709468522
 10
-4.2346333521
 20
-0.6999632354
 10
-4.2345419476
 20
3.3095546423
  0
LINE
  5
30C
100
AcDbEntity
  8
DRAFT
100
AcDbLine
 62
7
  6
CONTINUOUS
 10
-4.225
 20
-4.7
 11
-4.225
 21
3.3
  0
LINE
  5
30D
100
AcDbEntity
  8
0
100
AcDbLine
 62
7
  6
CONTINUOUS
 10
-3.775
 20
-0.55
 11
-3.775
 21
-2.25
  0
LINE
  5
30E
100
AcDbEntity
  8
RACCORDO
100
AcDbLine
 62
250
  6
CONTINUOUS
 10
-4.7346143135
 20
-0.7006740507
 11
-4.7344918174
 21
3.813305124
  0
LWPOLYLINE
  5
30F
100
AcDbEntity
  8
RACCORDO
100
AcDbPolyline
 62
250
  6
CONTINUOUS
 90
14
 70
0
 10
-8.5742759622
 20
-21.998725222
 10
-8.5740933968
 20
-21.9978204812
 10
-8.57391097
 20
-21.9967513979
 10
-8.5737286819
 20
-21.9955180903
 10
-8.5735465003
 20
-21.9941206978
 10
-8.5733644574
 20
-21.9925593719
 10
-8.5731826492
 20
-21.9908342722
 10
-8.5730010941
 20
-21.9889455781
 10
-8.5728197738
 20
-21.9868935003
 10
-8.5726387293
 20
-21.9846782716
 10
-8.5724579525
 20
-21.9823001351
 10
-8.5722774514
 20
-21.9797593508
 10
-8.5720972913
 20
-21.9770562074
 10
-8.5717379985
 20
-21.9711640549
  0
LINE
  5
310
100
AcDbEntity
  8
RACCORDO
100
AcDbLine
 62
250
  6
CONTINUOUS
 10
8.5843815224
 20
-5.2145961196
 11
-4.7343815224
 21
-5.2145961196
  0
LINE
  5
311
100
AcDbEntity
  8
RACCORDO
100
AcDbLine
 62
250
  6
CONTINUOUS
 10
8.084400562
 20
-4.709400562
 11
-4.234400562
 21
-4.709400562
  0
LINE
  5
312
100
AcDbEntity
  8
DRAFT
100
AcDbLine
 62
7
  6
CONTINUOUS
 10
8.075
 20
-4.7
 11
-4.225
 21
-4.7
  0
LINE
  5
313
100
AcDbEntity
  8
0
100
AcDbLine
 62
7
  6
CONTINUOUS
 10
-3.05
 20
-4.15
 11
6.9
 21
-4.15
  0
LINE
  5
314
100
AcDbEntity
  8
ASSI
100
AcDbLine
 62
250
  6
CONTINUOUS
 10
3.62
 20
-3.7269999865
 11
3.17
 21
-3.7269999865
  0
LINE
  5
315
100
AcDbEntity
  8
ASSI
100
AcDbLine
 62
250
  6
CONTINUOUS
 10
2.62
 20
-3.7269999865
 11
2.17
 21
-3.7269999865
  0
LINE
  5
316
100
AcDbEntity
  8
ASSI
100
AcDbLine
 62
250
  6
CONTINUOUS
 10
1.62
 20
-3.7269999865
 11
1.17
 21
-3.7269999865
  0
LINE
  5
317
100
AcDbEntity
  8
ASSI
100
AcDbLine
 62
250
  6
CONTINUOUS
 10
0.62
 20
-3.7269999865
 11
0.17
 21
-3.7269999865
  0
LINE
  5
318
100
AcDbEntity
  8
0
100
AcDbLine
 62
7
  6
CONTINUOUS
 10
-3.05
 20
2.8
 11
-3.05
 21
-0.55
  0
LINE
  5
319
100
AcDbEntity
  8
0
100
AcDbLine
 62
7
  6
CONTINUOUS
 10
-3.05
 20
-2.25
 11
-3.05
 21
-4.15
  0
LINE
  5
31A
100
AcDbEntity
  8
0
100
AcDbLine
 62
7
  6
CONTINUOUS
 10
-2.975
 20
-4.15
 11
-2.975
 21
-0.65
  0
LINE
  5
31B
100
AcDbEntity
  8
DRAFT
100
AcDbLine
 62
7
  6
CONTINUOUS
 10
-2.475
 20
-23.8
 11
-2.475
 21
-22.4
  0
LINE
  5
31C
100
AcDbEntity
  8
0
100
AcDbLine
 62
7
  6
CONTINUOUS
 10
-2.475
 20
-4.15
 11
-2.475
 21
-0.65
  0
LINE
  5
31D
100
AcDbEntity
  8
DRAFT
100
AcDbLine
 62
7
  6
CONTINUOUS
 10
-2.475
 20
22.4
 11
-2.475
 21
23.8
  0
LINE
  5
31E
100
AcDbEntity
  8
RACCORDO
100
AcDbLine
 62
250
  6
CONTINUOUS
 10
-2.4720741618
 20
23.7970741618
 11
-2.4720741618
 21
22.3736436632
  0
LINE
  5
31F
100
AcDbEntity
  8
RACCORDO
100
AcDbLine
 62
250
  6
CONTINUOUS
 10
-2.4720741618
 20
-22.3736436632
 11
-2.4720741618
 21
-23.7970741618
  0
LINE
  5
320
100
AcDbEntity
  8
RACCORDO
100
AcDbLine
 62
250
  6
CONTINUOUS
 10
-1.9720826234
 20
23.5953423515
 11
-1.9720826234
 21
22.3475922207
  0
LINE
  5
321
100
AcDbEntity
  8
RACCORDO
100
AcDbLine
 62
250
  6
CONTINUOUS
 10
-1.9720826234
 20
-22.3475922207
 11
-1.9720826234
 21
-23.5953423515
  0
LINE
  5
322
100
AcDbEntity
  8
0
100
AcDbLine
 62
7
  6
CONTINUOUS
 10
-1.955
 20
-4.15
 11
-1.955
 21
-0.65
  0
LINE
  5
323
100
AcDbEntity
  8
RACCORDO
100
AcDbLine
 62
250
  6
CONTINUOUS
 10
-1.9344918187
 20
3.813305124
 11
-1.9343629706
 21
5.4147777497
  0
LINE
  5
324
100
AcDbEntity
  8
RACCORDO
100
AcDbLine
 62
250
  6
CONTINUOUS
 10
-9.1370485995
 20
-21.7223497319
 11
-9.1100399195
 21
-21.6215270335
  0
LWPOLYLINE
  5
325
100
AcDbEntity
  8
RACCORDO
100
AcDbPolyline
 62
250
  6
CONTINUOUS
 90
7
 70
0
 10
-9.1100399195
 20
-21.6215270335
 10
-9.0997043465
 20
-21.5839734756
 10
-9.094680125
 20
-21.566169232
 10
-9.0896283371
 20
-21.5488243063
 10
-9.0845130609
 20
-21.5318937045
 10
-9.0793702185
 20
-21.5154224206
 10
-9.0741998097
 20
-21.4994104546
  0
LWPOLYLINE
  5
326
100
AcDbEntity
  8
RACCORDO
100
AcDbPolyline
 62
250
  6
CONTINUOUS
 90
17
 70
0
 10
-9.0741998097
 20
-21.4994104546
 10
-9.0740172113
 20
-21.4988072744
 10
-9.0738347688
 20
-21.4980946732
 10
-9.0736524823
 20
-21.4972726511
 10
-9.0734703307
 20
-21.4963410794
 10
-9.0732883351
 20
-21.4953000867
 10
-9.0731065587
 20
-21.4941500589
 10
-9.0729250025
 20
-21.4928909801
 10
-9.0727436656
 20
-21.4915228661
 10
-9.0725626085
 20
-21.4900461501
 10
-9.0723818314
 20
-21.4884607862
 10
-9.072201334
 20
-21.4867668203
 10
-9.0720211766
 20
-21.4849648222
 10
-9.0718413592
 20
-21.483054758
 10
-9.0716618817
 20
-21.4810366616
 10
-9.0714828036
 20
-21.4789112052
 10
-9.0711258466
 20
-21.4743381457
  0
LWPOLYLINE
  5
327
100
AcDbEntity
  8
RACCORDO
100
AcDbPolyline
 62
250
  6
CONTINUOUS
 90
7
 70
0
 10
-9.1709982236
 20
-21.8397834628
 10
-9.16658323
 20
-21.8257712893
 10
-9.1620390331
 20
-21.8108875338
 10
-9.1573899968
 20
-21.7952632734
 10
-9.1525727704
 20
-21.7786247399
 10
-9.1475403006
 20
-21.760720597
 10
-9.1370485995
 20
-21.7223497319
  0
LINE
  5
328
100
AcDbEntity
  8
RACCORDO
100
AcDbLine
 62
250
  6
CONTINUOUS
 10
-9.1796501349
 20
-21.8662532954
 11
-9.1709982236
 21
-21.8397834628
  0
LINE
  5
329
100
AcDbEntity
  8
RACCORDO
100
AcDbLine
 62
250
  6
CONTINUOUS
 10
-9.2075779097
 20
-21.9498978415
 11
-9.1796501349
 21
-21.8662532954
  0
LINE
  5
32A
100
AcDbEntity
  8
0
100
AcDbLine
 62
7
  6
CONTINUOUS
 10
-3.775
 20
-2.25
 11
-3.05
 21
-2.25
  0
LINE
  5
32B
100
AcDbEntity
  8
0
100
AcDbLine
 62
7
  6
CONTINUOUS
 10
6.9
 20
-2.25
 11
7.625
 21
-2.25
  0
LINE
  5
32C
100
AcDbEntity
  8
RACCORDO
100
AcDbLine
 62
250
  6
CONTINUOUS
 10
-9.1813358052
 20
21.8713815411
 11
-9.2075780505
 21
21.9498977711
  0
LWPOLYLINE
  5
32D
100
AcDbEntity
  8
RACCORDO
100
AcDbPolyline
 62
250
  6
CONTINUOUS
 90
5
 70
0
 10
-9.0741998097
 20
21.4994104546
 10
-9.0800168396
 20
21.5175213906
 10
-9.0857970998
 20
21.5361645244
 10
-9.0915405905
 20
21.5553398559
 10
-9.0971965931
 20
21.5749817897
  0
LINE
  5
32E
100
AcDbEntity
  8
RACCORDO
100
AcDbLine
 62
250
  6
CONTINUOUS
 10
-9.0971965931
 20
21.5749817897
 11
-9.1085504446
 21
21.6160590371
  0
LWPOLYLINE
  5
32F
100
AcDbEntity
  8
RACCORDO
100
AcDbPolyline
 62
250
  6
CONTINUOUS
 90
9
 70
0
 10
-9.1389749458
 20
21.7295003181
 10
-9.1449838534
 20
21.7514954283
 10
-9.1507159495
 20
21.7719710867
 10
-9.156250155
 20
21.7913125504
 10
-9.1615879241
 20
21.809444028
 10
-9.1666619031
 20
21.8260296166
 10
-9.1715394457
 20
21.8414052191
 10
-9.1764240667
 20
21.856502752
 10
-9.1813358052
 20
21.8713815411
  0
LINE
  5
330
100
AcDbEntity
  8
RACCORDO
100
AcDbLine
 62
250
  6
CONTINUOUS
 10
-9.1085504446
 20
21.6160590371
 11
-9.1389749458
 21
21.7295003181
  0
LINE
  5
331
100
AcDbEntity
  8
0
100
AcDbLine
 62
7
  6
CONTINUOUS
 10
-1.455
 20
-4.15
 11
-1.455
 21
-0.65
  0
LINE
  5
332
100
AcDbEntity
  8
DRAFT
100
AcDbLine
 62
7
  6
CONTINUOUS
 10
-1.425
 20
3.3
 11
-1.425
 21
4.9
  0
LINE
  5
333
100
AcDbEntity
  8
0
100
AcDbLine
 62
7
  6
CONTINUOUS
 10
-1.375
 20
4.4
 11
-1.375
 21
2.8
  0
LINE
  5
334
100
AcDbEntity
  8
0
100
AcDbLine
 62
7
  6
CONTINUOUS
 10
-0.935
 20
-4.15
 11
-0.935
 21
-0.65
  0
LINE
  5
335
100
AcDbEntity
  8
0
100
AcDbLine
 62
7
  6
CONTINUOUS
 10
-0.435
 20
-4.15
 11
-0.435
 21
-0.65
  0
LINE
  5
336
100
AcDbEntity
  8
DRAFT
100
AcDbLine
 62
7
  6
CONTINUOUS
 10
-0.375
 20
4.9
 11
-0.375
 21
6.1
  0
LINE
  5
337
100
AcDbEntity
  8
0
100
AcDbLine
 62
7
  6
CONTINUOUS
 10
-0.115
 20
5.3
 11
-0.115
 21
4.4
  0
LINE
  5
338
100
AcDbEntity
  8
0
100
AcDbLine
 62
7
  6
CONTINUOUS
 10
0.085
 20
-4.15
 11
0.085
 21
-0.65
  0
LINE
  5
339
100
AcDbEntity
  8
ASSI
100
AcDbLine
 62
7
  6
CONTINUOUS
 10
0.17
 20
-4.15
 11
0.17
 21
-0.65
  0
LINE
  5
33A
100
AcDbEntity
  8
RACCORDO
100
AcDbLine
 62
250
  6
CONTINUOUS
 10
-1.4345419463
 20
3.3095546401
 11
-1.4344270736
 21
4.9094537442
  0
LINE
  5
33B
100
AcDbEntity
  8
RACCORDO
100
AcDbLine
 62
250
  6
CONTINUOUS
 10
-0.8843629714
 20
5.4147777497
 11
-0.8842369857
 21
6.6158528412
  0
LINE
  5
33C
100
AcDbEntity
  8
RACCORDO
100
AcDbLine
 62
250
  6
CONTINUOUS
 10
-0.3844270721
 20
4.9094537412
 11
-0.3843115688
 21
6.1093520867
  0
LINE
  5
33D
100
AcDbEntity
  8
RACCORDO
100
AcDbLine
 62
7
  6
CONTINUOUS
 10
-2.475
 20
-22.4
 11
-2.4720741618
 21
-22.3736436632
  0
LINE
  5
33E
100
AcDbEntity
  8
RACCORDO
100
AcDbLine
 62
250
  6
CONTINUOUS
 10
-8.7432100958
 20
-22.3560992404
 11
-8.7344932607
 21
-22.329099242
  0
LWPOLYLINE
  5
33F
100
AcDbEntity
  8
RACCORDO
100
AcDbPolyline
 62
250
  6
CONTINUOUS
 90
13
 70
0
 10
-8.7344932607
 20
-22.329099242
 10
-8.7300897742
 20
-22.3159047159
 10
-8.7255848073
 20
-22.3028428033
 10
-8.7209479883
 20
-22.2898804618
 10
-8.7157827837
 20
-22.2766063312
 10
-8.7100075208
 20
-22.2629484559
 10
-8.7037038722
 20
-22.2489787916
 10
-8.6967203228
 20
-22.234501845
 10
-8.6888991412
 20
-22.2193756811
 10
-8.6803980587
 20
-22.2037422349
 10
-8.6715387539
 20
-22.1878318187
 10
-8.662260962
 20
-22.1715806691
 10
-8.6431331844
 20
-22.1386690617
  0
LWPOLYLINE
  5
340
100
AcDbEntity
  8
RACCORDO
100
AcDbPolyline
 62
250
  6
CONTINUOUS
 90
3
 70
0
 10
-8.757892514
 20
-22.4
 10
-8.7528248083
 20
-22.3849546096
 10
-8.7432100958
 20
-22.3560992404
  0
LWPOLYLINE
  5
341
100
AcDbEntity
  8
RACCORDO
100
AcDbPolyline
 62
7
  6
CONTINUOUS
 90
5
 70
0
 10
4.2343115705
 20
6.1093520903
 10
4.2347880011
 20
6.1100107924
 10
4.2357908244
 20
6.1112353791
 10
4.2373200402
 20
6.1130047617
 10
4.2393974693
 20
6.1152977126
  0
LWPOLYLINE
  5
342
100
AcDbEntity
  8
RACCORDO
100
AcDbPolyline
 62
7
  6
CONTINUOUS
 90
5
 70
0
 10
-4.2344438799
 20
-4.7094685243
 10
-4.2349203364
 20
-4.7100793712
 10
-4.2359232065
 20
-4.7112567462
 10
-4.2374524903
 20
-4.7129796089
 10
-4.2395300103
 20
-4.7152267744
  0
LWPOLYLINE
  5
343
100
AcDbEntity
  8
RACCORDO
100
AcDbPolyline
 62
7
  6
CONTINUOUS
 90
3
 70
0
 10
4.2393974693
 20
6.1152977126
 10
4.2450660428
 20
6.1213668539
 10
4.2485910589
 20
6.1250977811
  0
LWPOLYLINE
  5
344
100
AcDbEntity
  8
RACCORDO
100
AcDbPolyline
 62
7
  6
CONTINUOUS
 90
3
 70
0
 10
4.2395131726
 20
4.9152387675
 10
4.245181952
 20
4.9212314631
 10
4.248707091
 20
4.9249252631
  0
LWPOLYLINE
  5
345
100
AcDbEntity
  8
RACCORDO
100
AcDbPolyline
 62
7
  6
CONTINUOUS
 90
3
 70
0
 10
-4.2395300103
 20
-4.7152267744
 10
-4.2451988238
 20
-4.7212067255
 10
-4.2487239833
 20
-4.7248943356
  0
LINE
  5
346
100
AcDbEntity
  8
RACCORDO
100
AcDbLine
 62
7
  6
CONTINUOUS
 10
4.2485910589
 20
6.1250977811
 11
4.2617393051
 21
6.1388179575
  0
LINE
  5
347
100
AcDbEntity
  8
RACCORDO
100
AcDbLine
 62
7
  6
CONTINUOUS
 10
4.248707091
 20
4.9249252631
 11
4.2618557744
 21
4.9385386811
  0
LINE
  5
348
100
AcDbEntity
  8
RACCORDO
100
AcDbLine
 62
7
  6
CONTINUOUS
 10
-4.2487239833
 20
-4.7248943356
 11
-4.2618727392
 21
-4.7384899527
  0
LINE
  5
349
100
AcDbEntity
  8
RACCORDO
100
AcDbLine
 62
7
  6
CONTINUOUS
 10
4.2618557744
 20
4.9385386811
 11
4.2910806903
 21
4.9684658918
  0
LINE
  5
34A
100
AcDbEntity
  8
RACCORDO
100
AcDbLine
 62
7
  6
CONTINUOUS
 10
4.2617393051
 20
6.1388179575
 11
4.3436958858
 21
6.2226983033
  0
LINE
  5
34B
100
AcDbEntity
  8
RACCORDO
100
AcDbLine
 62
7
  6
CONTINUOUS
 10
4.2910806903
 20
4.9684658918
 11
4.3970486656
 21
5.0759127554
  0
LINE
  5
34C
100
AcDbEntity
  8
RACCORDO
100
AcDbLine
 62
7
  6
CONTINUOUS
 10
4.3436958858
 20
6.2226983033
 11
4.4758430915
 21
6.3563885335
  0
LINE
  5
34D
100
AcDbEntity
  8
RACCORDO
100
AcDbLine
 62
7
  6
CONTINUOUS
 10
4.3970486656
 20
5.0759127554
 11
4.5390987766
 21
5.2189863923
  0
LINE
  5
34E
100
AcDbEntity
  8
RACCORDO
100
AcDbLine
 62
7
  6
CONTINUOUS
 10
4.4758430915
 20
6.3563885335
 11
4.5930733094
 21
6.4743460396
  0
LINE
  5
34F
100
AcDbEntity
  8
RACCORDO
100
AcDbLine
 62
7
  6
CONTINUOUS
 10
4.225
 20
6.1
 11
4.2342560268
 21
6.1092560268
  0
LINE
  5
350
100
AcDbEntity
  8
RACCORDO
100
AcDbLine
 62
7
  6
CONTINUOUS
 10
4.225
 20
4.9
 11
4.2343820104
 21
4.9093820104
  0
LINE
  5
351
100
AcDbEntity
  8
RACCORDO
100
AcDbLine
 62
7
  6
CONTINUOUS
 10
4.5930733094
 20
6.4743460396
 11
4.734236988
 21
6.6158528412
  0
LINE
  5
352
100
AcDbEntity
  8
RACCORDO
100
AcDbLine
 62
7
  6
CONTINUOUS
 10
4.5390987766
 20
5.2189863923
 11
4.7343629717
 21
5.4147777497
  0
LINE
  5
353
100
AcDbEntity
  8
0
100
AcDbLine
 62
7
  6
CONTINUOUS
 10
6.705
 20
-0.65
 11
6.205
 21
-0.65
  0
LINE
  5
354
100
AcDbEntity
  8
0
100
AcDbLine
 62
7
  6
CONTINUOUS
 10
5.685
 20
-0.65
 11
5.185
 21
-0.65
  0
LINE
  5
355
100
AcDbEntity
  8
0
100
AcDbLine
 62
7
  6
CONTINUOUS
 10
4.665
 20
-0.65
 11
4.165
 21
-0.65
  0
LINE
  5
356
100
AcDbEntity
  8
0
100
AcDbLine
 62
7
  6
CONTINUOUS
 10
3.645
 20
-0.65
 11
3.145
 21
-0.65
  0
LINE
  5
357
100
AcDbEntity
  8
ASSI
100
AcDbLine
 62
7
  6
CONTINUOUS
 10
3.62
 20
-0.65
 11
3.17
 21
-0.65
  0
LINE
  5
358
100
AcDbEntity
  8
0
100
AcDbLine
 62
7
  6
CONTINUOUS
 10
2.625
 20
-0.65
 11
2.125
 21
-0.65
  0
LINE
  5
359
100
AcDbEntity
  8
ASSI
100
AcDbLine
 62
7
  6
CONTINUOUS
 10
2.62
 20
-0.65
 11
2.17
 21
-0.65
  0
LINE
  5
35A
100
AcDbEntity
  8
0
100
AcDbLine
 62
7
  6
CONTINUOUS
 10
1.605
 20
-0.65
 11
1.105
 21
-0.65
  0
LINE
  5
35B
100
AcDbEntity
  8
ASSI
100
AcDbLine
 62
7
  6
CONTINUOUS
 10
1.62
 20
-0.65
 11
1.17
 21
-0.65
  0
LINE
  5
35C
100
AcDbEntity
  8
0
100
AcDbLine
 62
7
  6
CONTINUOUS
 10
0.585
 20
-0.65
 11
0.085
 21
-0.65
  0
LINE
  5
35D
100
AcDbEntity
  8
ASSI
100
AcDbLine
 62
7
  6
CONTINUOUS
 10
0.62
 20
-0.65
 11
0.17
 21
-0.65
  0
LINE
  5
35E
100
AcDbEntity
  8
0
100
AcDbLine
 62
7
  6
CONTINUOUS
 10
-0.435
 20
-0.65
 11
-0.935
 21
-0.65
  0
LINE
  5
35F
100
AcDbEntity
  8
0
100
AcDbLine
 62
7
  6
CONTINUOUS
 10
-1.455
 20
-0.65
 11
-1.955
 21
-0.65
  0
LINE
  5
360
100
AcDbEntity
  8
0
100
AcDbLine
 62
7
  6
CONTINUOUS
 10
-2.475
 20
-0.65
 11
-2.975
 21
-0.65
  0
LINE
  5
361
100
AcDbEntity
  8
0
100
AcDbLine
 62
7
  6
CONTINUOUS
 10
7.625
 20
-0.55
 11
6.9
 21
-0.55
  0
LINE
  5
362
100
AcDbEntity
  8
0
100
AcDbLine
 62
7
  6
CONTINUOUS
 10
-3.05
 20
-0.55
 11
-3.775
 21
-0.55
  0
LINE
  5
363
100
AcDbEntity
  8
RACCORDO
100
AcDbLine
 62
7
  6
CONTINUOUS
 10
-4.225
 20
3.3
 11
-4.2345108573
 21
3.3095108573
  0
LINE
  5
364
100
AcDbEntity
  8
RACCORDO
100
AcDbLine
 62
7
  6
CONTINUOUS
 10
-4.2979698659
 20
3.3747134229
 11
-4.7344918188
 21
3.813305124
  0
LINE
  5
365
100
AcDbEntity
  8
RACCORDO
100
AcDbLine
 62
7
  6
CONTINUOUS
 10
-4.2619719241
 20
3.3381313972
 11
-4.2979698659
 21
3.3747134229
  0
LINE
  5
366
100
AcDbEntity
  8
RACCORDO
100
AcDbLine
 62
7
  6
CONTINUOUS
 10
-4.2488226604
 20
3.3246604475
 11
-4.2619719241
 21
3.3381313972
  0
LINE
  5
367
100
AcDbEntity
  8
RACCORDO
100
AcDbLine
 62
7
  6
CONTINUOUS
 10
-4.2396283067
 20
3.315125472
 11
-4.2488226604
 21
3.3246604475
  0
LWPOLYLINE
  5
368
100
AcDbEntity
  8
RACCORDO
100
AcDbPolyline
 62
7
  6
CONTINUOUS
 90
5
 70
0
 10
-4.2345419488
 20
3.3095546442
 10
-4.2350184298
 20
3.3101176298
 10
-4.2360213458
 20
3.3112477824
 10
-4.2375506966
 20
3.3129241106
 10
-4.2396283067
 20
3.315125472
  0
LINE
  5
369
100
AcDbEntity
  8
RACCORDO
100
AcDbLine
 62
250
  6
CONTINUOUS
 10
12.4953076649
 20
-22.142397878
 11
12.518278585
 21
-22.1818970249
  0
LWPOLYLINE
  5
36A
100
AcDbEntity
  8
RACCORDO
100
AcDbPolyline
 62
250
  6
CONTINUOUS
 90
8
 70
0
 10
12.518278585
 20
-22.1818970249
 10
12.5296759236
 20
-22.2023650466
 10
12.5407879665
 20
-22.2232619953
 10
12.5516249112
 20
-22.244587863
 10
12.5615682995
 20
-22.2661924851
 10
12.5701652954
 20
-22.2880766858
 10
12.577868735
 20
-22.3102396408
 10
12.5930617769
 20
-22.3548930247
  0
LWPOLYLINE
  5
36B
100
AcDbEntity
  8
RACCORDO
100
AcDbPolyline
 62
250
  6
CONTINUOUS
 90
9
 70
0
 10
-8.5742759622
 20
21.998725222
 10
-8.5799623752
 20
22.0143139686
 10
-8.5861465695
 20
22.0297857889
 10
-8.5928285452
 20
22.0451406829
 10
-8.6000295722
 20
22.060257192
 10
-8.6077283806
 20
22.0752567747
 10
-8.6158611602
 20
22.0905038067
 10
-8.6244929704
 20
22.1061373696
 10
-8.6427995163
 20
22.1380939735
  0
LINE
  5
36C
100
AcDbEntity
  8
RACCORDO
100
AcDbLine
 62
250
  6
CONTINUOUS
 10
-8.7432748551
 20
22.3562841907
 11
-8.757892023
 21
22.4
  0
LINE
  5
36D
100
AcDbEntity
  8
RACCORDO
100
AcDbLine
 62
7
  6
CONTINUOUS
 10
-2.475
 20
22.4
 11
-2.4720741618
 21
22.3736436632
  0
LINE
  5
36E
100
AcDbEntity
  8
ASSI
100
AcDbLine
 62
7
  6
CONTINUOUS
 10
0.62
 20
-4.15
 11
0.62
 21
-0.65
  0
LINE
  5
36F
100
AcDbEntity
  8
0
100
AcDbLine
 62
7
  6
CONTINUOUS
 10
1.105
 20
-4.15
 11
1.105
 21
-0.65
  0
LINE
  5
370
100
AcDbEntity
  8
ASSI
100
AcDbLine
 62
7
  6
CONTINUOUS
 10
1.17
 20
-4.15
 11
1.17
 21
-0.65
  0
LINE
  5
371
100
AcDbEntity
  8
ASSI
100
AcDbLine
 62
7
  6
CONTINUOUS
 10
1.62
 20
-4.15
 11
1.62
 21
-0.65
  0
LINE
  5
372
100
AcDbEntity
  8
0
100
AcDbLine
 62
7
  6
CONTINUOUS
 10
2.125
 20
-4.15
 11
2.125
 21
-0.65
  0
LINE
  5
373
100
AcDbEntity
  8
RACCORDO
100
AcDbLine
 62
7
  6
CONTINUOUS
 10
4.2343115682
 20
6.1093520852
 11
4.2342560268
 21
6.1092560268
  0
LWPOLYLINE
  5
374
100
AcDbEntity
  8
RACCORDO
100
AcDbPolyline
 62
7
  6
CONTINUOUS
 90
5
 70
0
 10
4.234427075
 20
4.9094537468
 10
4.2349035278
 20
4.9100714306
 10
4.2359063913
 20
4.9112555507
 10
4.2374356655
 20
4.9129850601
 10
4.2395131726
 20
4.9152387675
  0
LWPOLYLINE
  5
375
100
AcDbEntity
  8
RACCORDO
100
AcDbPolyline
 62
7
  6
CONTINUOUS
 90
5
 70
0
 10
5.284427075
 20
4.9094537468
 10
5.2849035278
 20
4.9100714306
 10
5.2859063913
 20
4.9112555507
 10
5.2874356654
 20
4.91298506
 10
5.2895131725
 20
4.9152387674
  0
LWPOLYLINE
  5
376
100
AcDbEntity
  8
RACCORDO
100
AcDbPolyline
 62
7
  6
CONTINUOUS
 90
5
 70
0
 10
5.2845419488
 20
3.3095546442
 10
5.2850184298
 20
3.3101176298
 10
5.2860213458
 20
3.3112477824
 10
5.2875506966
 20
3.3129241107
 10
5.2896283067
 20
3.315125472
  0
LWPOLYLINE
  5
377
100
AcDbEntity
  8
RACCORDO
100
AcDbPolyline
 62
7
  6
CONTINUOUS
 90
3
 70
0
 10
5.2895131725
 20
4.9152387674
 10
5.2951819518
 20
4.9212314629
 10
5.2987070908
 20
4.9249252629
  0
LINE
  5
378
100
AcDbEntity
  8
RACCORDO
100
AcDbLine
 62
7
  6
CONTINUOUS
 10
5.2896283067
 20
3.315125472
 11
5.2988226605
 21
3.3246604476
  0
LINE
  5
379
100
AcDbEntity
  8
RACCORDO
100
AcDbLine
 62
7
  6
CONTINUOUS
 10
5.2987070908
 20
4.9249252629
 11
5.3118557741
 21
4.9385386808
  0
LINE
  5
37A
100
AcDbEntity
  8
RACCORDO
100
AcDbLine
 62
7
  6
CONTINUOUS
 10
5.3118557741
 20
4.9385386808
 11
5.3410806899
 21
4.9684658914
  0
LINE
  5
37B
100
AcDbEntity
  8
RACCORDO
100
AcDbLine
 62
7
  6
CONTINUOUS
 10
-4.2618727392
 20
-4.7384899527
 11
-4.3438319365
 21
-4.8219565464
  0
LINE
  5
37C
100
AcDbEntity
  8
RACCORDO
100
AcDbLine
 62
7
  6
CONTINUOUS
 10
5.2988226605
 20
3.3246604476
 11
5.3698954384
 21
3.3969016887
  0
LINE
  5
37D
100
AcDbEntity
  8
RACCORDO
100
AcDbLine
 62
7
  6
CONTINUOUS
 10
5.3410806899
 20
4.9684658914
 11
5.4470486655
 21
5.0759127553
  0
LINE
  5
37E
100
AcDbEntity
  8
RACCORDO
100
AcDbLine
 62
7
  6
CONTINUOUS
 10
-4.3438319365
 20
-4.8219565464
 11
-4.4863162194
 21
-4.9657298159
  0
LINE
  5
37F
100
AcDbEntity
  8
RACCORDO
100
AcDbLine
 62
7
  6
CONTINUOUS
 10
5.4470486655
 20
5.0759127553
 11
5.5890987772
 21
5.218986393
  0
LINE
  5
380
100
AcDbEntity
  8
RACCORDO
100
AcDbLine
 62
7
  6
CONTINUOUS
 10
5.3698954384
 20
3.3969016887
 11
5.5364214943
 21
3.5646184547
  0
LINE
  5
381
100
AcDbEntity
  8
RACCORDO
100
AcDbLine
 62
7
  6
CONTINUOUS
 10
5.5364214943
 20
3.5646184547
 11
5.6542290097
 21
3.682842793
  0
LINE
  5
382
100
AcDbEntity
  8
RACCORDO
100
AcDbLine
 62
7
  6
CONTINUOUS
 10
-4.4863162194
 20
-4.9657298159
 11
-4.6805527615
 21
-5.1607100344
  0
LINE
  5
383
100
AcDbEntity
  8
RACCORDO
100
AcDbLine
 62
7
  6
CONTINUOUS
 10
5.6542290097
 20
3.682842793
 11
5.719781611
 21
3.7485282459
  0
LINE
  5
384
100
AcDbEntity
  8
RACCORDO
100
AcDbLine
 62
7
  6
CONTINUOUS
 10
-4.6805527615
 20
-5.1607100344
 11
-4.7129860884
 21
-5.1931910348
  0
LINE
  5
385
100
AcDbEntity
  8
RACCORDO
100
AcDbLine
 62
7
  6
CONTINUOUS
 10
5.275
 20
4.9
 11
5.2843820104
 21
4.9093820104
  0
LINE
  5
386
100
AcDbEntity
  8
RACCORDO
100
AcDbLine
 62
7
  6
CONTINUOUS
 10
-4.225
 20
-4.7
 11
-4.234400562
 21
-4.709400562
  0
LINE
  5
387
100
AcDbEntity
  8
RACCORDO
100
AcDbLine
 62
7
  6
CONTINUOUS
 10
5.275
 20
3.3
 11
5.2845108573
 21
3.3095108573
  0
LINE
  5
388
100
AcDbEntity
  8
RACCORDO
100
AcDbLine
 62
7
  6
CONTINUOUS
 10
5.5890987772
 20
5.218986393
 11
5.7843629717
 21
5.4147777497
  0
LINE
  5
389
100
AcDbEntity
  8
RACCORDO
100
AcDbLine
 62
7
  6
CONTINUOUS
 10
-4.7129860884
 20
-5.1931910348
 11
-4.7343815232
 21
-5.2145961196
  0
LINE
  5
38A
100
AcDbEntity
  8
RACCORDO
100
AcDbLine
 62
7
  6
CONTINUOUS
 10
5.719781611
 20
3.7485282459
 11
5.7844918188
 21
3.813305124
  0
LINE
  5
38B
100
AcDbEntity
  8
RACCORDO
100
AcDbLine
 62
7
  6
CONTINUOUS
 10
-1.425
 20
3.3
 11
-1.4345108573
 21
3.3095108573
  0
LINE
  5
38C
100
AcDbEntity
  8
RACCORDO
100
AcDbLine
 62
7
  6
CONTINUOUS
 10
-1.4785195832
 20
3.3549810036
 11
-1.9344918188
 21
3.813305124
  0
LINE
  5
38D
100
AcDbEntity
  8
RACCORDO
100
AcDbLine
 62
7
  6
CONTINUOUS
 10
-1.4488226604
 20
3.3246604475
 11
-1.4785195832
 21
3.3549810036
  0
LINE
  5
38E
100
AcDbEntity
  8
RACCORDO
100
AcDbLine
 62
7
  6
CONTINUOUS
 10
-1.4396283067
 20
3.315125472
 11
-1.4488226604
 21
3.3246604475
  0
LWPOLYLINE
  5
38F
100
AcDbEntity
  8
RACCORDO
100
AcDbPolyline
 62
7
  6
CONTINUOUS
 90
5
 70
0
 10
-1.4345419488
 20
3.3095546442
 10
-1.4350184298
 20
3.3101176298
 10
-1.4360213458
 20
3.3112477824
 10
-1.4375506966
 20
3.3129241106
 10
-1.4396283067
 20
3.315125472
  0
LWPOLYLINE
  5
390
100
AcDbEntity
  8
RACCORDO
100
AcDbPolyline
 62
7
  6
CONTINUOUS
 90
7
 70
0
 10
-1.434427075
 20
4.9094537468
 10
-1.4349035278
 20
4.9100714306
 10
-1.4359063913
 20
4.9112555507
 10
-1.4374356655
 20
4.9129850601
 10
-1.4395131726
 20
4.9152387675
 10
-1.4421170904
 20
4.9179950217
 10
-1.448707091
 20
4.9249252631
  0
LINE
  5
391
100
AcDbEntity
  8
ASSI
100
AcDbLine
 62
7
  6
CONTINUOUS
 10
2.17
 20
-4.15
 11
2.17
 21
-0.65
  0
LINE
  5
392
100
AcDbEntity
  8
ASSI
100
AcDbLine
 62
7
  6
CONTINUOUS
 10
2.62
 20
-4.15
 11
2.62
 21
-0.65
  0
LINE
  5
393
100
AcDbEntity
  8
0
100
AcDbLine
 62
7
  6
CONTINUOUS
 10
2.625
 20
-4.15
 11
2.625
 21
-0.65
  0
LINE
  5
394
100
AcDbEntity
  8
0
100
AcDbLine
 62
7
  6
CONTINUOUS
 10
3.145
 20
-4.15
 11
3.145
 21
-0.65
  0
LINE
  5
395
100
AcDbEntity
  8
ASSI
100
AcDbLine
 62
7
  6
CONTINUOUS
 10
3.17
 20
-4.15
 11
3.17
 21
-0.65
  0
LINE
  5
396
100
AcDbEntity
  8
ASSI
100
AcDbLine
 62
7
  6
CONTINUOUS
 10
3.62
 20
-4.15
 11
3.62
 21
-0.65
  0
LINE
  5
397
100
AcDbEntity
  8
0
100
AcDbLine
 62
7
  6
CONTINUOUS
 10
3.645
 20
-4.15
 11
3.645
 21
-0.65
  0
LINE
  5
398
100
AcDbEntity
  8
0
100
AcDbLine
 62
7
  6
CONTINUOUS
 10
3.965
 20
4.4
 11
3.965
 21
5.3
  0
LINE
  5
399
100
AcDbEntity
  8
RACCORDO
100
AcDbLine
 62
7
  6
CONTINUOUS
 10
6.325
 20
22.4
 11
6.3220741618
 21
22.3736436632
  0
LWPOLYLINE
  5
39A
100
AcDbEntity
  8
RACCORDO
100
AcDbPolyline
 62
250
  6
CONTINUOUS
 90
8
 70
0
 10
-8.6247237888
 20
-22.1065514118
 10
-8.6160258702
 20
-22.0908079916
 10
-8.6078324041
 20
-22.0754487762
 10
-8.6000735918
 20
-22.0603326496
 10
-8.5928304407
 20
-22.04513472
 10
-8.5861299533
 20
-22.0297466903
 10
-8.5799451271
 20
-22.0142768576
 10
-8.5742759622
 20
-21.998725222
  0
LINE
  5
39B
100
AcDbEntity
  8
RACCORDO
100
AcDbLine
 62
250
  6
CONTINUOUS
 10
-8.6431331844
 20
-22.1386690617
 11
-8.6247237888
 21
-22.1065514118
  0
LINE
  5
39C
100
AcDbEntity
  8
RACCORDO
100
AcDbLine
 62
7
  6
CONTINUOUS
 10
8.0896283067
 20
3.315125472
 11
8.0988226604
 21
3.3246604475
  0
LINE
  5
39D
100
AcDbEntity
  8
RACCORDO
100
AcDbLine
 62
7
  6
CONTINUOUS
 10
8.0988226604
 20
3.3246604475
 11
8.1698954383
 21
3.3969016886
  0
LINE
  5
39E
100
AcDbEntity
  8
RACCORDO
100
AcDbLine
 62
7
  6
CONTINUOUS
 10
8.1698954383
 20
3.3969016886
 11
8.3364214944
 21
3.5646184549
  0
LINE
  5
39F
100
AcDbEntity
  8
RACCORDO
100
AcDbLine
 62
7
  6
CONTINUOUS
 10
8.3364214944
 20
3.5646184549
 11
8.4542290099
 21
3.6828427933
  0
LINE
  5
3A0
100
AcDbEntity
  8
RACCORDO
100
AcDbLine
 62
7
  6
CONTINUOUS
 10
8.4542290099
 20
3.6828427933
 11
8.5197816112
 21
3.748528246
  0
LINE
  5
3A1
100
AcDbEntity
  8
RACCORDO
100
AcDbLine
 62
7
  6
CONTINUOUS
 10
8.075
 20
3.3
 11
8.0845108573
 21
3.3095108573
  0
LINE
  5
3A2
100
AcDbEntity
  8
RACCORDO
100
AcDbLine
 62
7
  6
CONTINUOUS
 10
8.5197816112
 20
3.748528246
 11
8.5844918188
 21
3.813305124
  0
LINE
  5
3A3
100
AcDbEntity
  8
0
100
AcDbLine
 62
7
  6
CONTINUOUS
 10
6.9
 20
2.8
 11
5.225
 21
2.8
  0
LINE
  5
3A4
100
AcDbEntity
  8
0
100
AcDbLine
 62
7
  6
CONTINUOUS
 10
-1.375
 20
2.8
 11
-3.05
 21
2.8
  0
LINE
  5
3A5
100
AcDbEntity
  8
0
100
AcDbLine
 62
7
  6
CONTINUOUS
 10
5.225
 20
3.25
 11
-1.375
 21
3.25
  0
LINE
  5
3A6
100
AcDbEntity
  8
DRAFT
100
AcDbLine
 62
7
  6
CONTINUOUS
 10
-4.225
 20
3.3
 11
-1.425
 21
3.3
  0
LINE
  5
3A7
100
AcDbEntity
  8
DRAFT
100
AcDbLine
 62
7
  6
CONTINUOUS
 10
5.275
 20
3.3
 11
8.075
 21
3.3
  0
LINE
  5
3A8
100
AcDbEntity
  8
RACCORDO
100
AcDbLine
 62
250
  6
CONTINUOUS
 10
-4.2345108573
 20
3.3095108573
 11
-1.4345108573
 21
3.3095108573
  0
LINE
  5
3A9
100
AcDbEntity
  8
RACCORDO
100
AcDbLine
 62
250
  6
CONTINUOUS
 10
5.2845108573
 20
3.3095108573
 11
8.0845108573
 21
3.3095108573
  0
LINE
  5
3AA
100
AcDbEntity
  8
RACCORDO
100
AcDbLine
 62
250
  6
CONTINUOUS
 10
-4.7344918174
 20
3.813305124
 11
-1.9344918187
 21
3.813305124
  0
LINE
  5
3AB
100
AcDbEntity
  8
RACCORDO
100
AcDbLine
 62
250
  6
CONTINUOUS
 10
5.7844918192
 20
3.813305124
 11
8.5844918174
 21
3.813305124
  0
LINE
  5
3AC
100
AcDbEntity
  8
RACCORDO
100
AcDbLine
 62
7
  6
CONTINUOUS
 10
8.075
 20
-4.7
 11
8.084400562
 21
-4.709400562
  0
LINE
  5
3AD
100
AcDbEntity
  8
RACCORDO
100
AcDbLine
 62
7
  6
CONTINUOUS
 10
-1.425
 20
4.9
 11
-1.4343820104
 21
4.9093820104
  0
LINE
  5
3AE
100
AcDbEntity
  8
RACCORDO
100
AcDbLine
 62
7
  6
CONTINUOUS
 10
-0.375
 20
4.9
 11
-0.3843820104
 21
4.9093820104
  0
LINE
  5
3AF
100
AcDbEntity
  8
RACCORDO
100
AcDbLine
 62
7
  6
CONTINUOUS
 10
-1.902204595
 20
5.3825904351
 11
-1.9343629717
 21
5.4147777497
  0
LINE
  5
3B0
100
AcDbEntity
  8
RACCORDO
100
AcDbLine
 62
7
  6
CONTINUOUS
 10
-0.8522045953
 20
5.3825904355
 11
-0.8843629717
 21
5.4147777497
  0
LINE
  5
3B1
100
AcDbEntity
  8
RACCORDO
100
AcDbLine
 62
7
  6
CONTINUOUS
 10
8.5196726269
 20
-5.1498086427
 11
8.5843815232
 21
-5.2145961196
  0
LINE
  5
3B2
100
AcDbEntity
  8
RACCORDO
100
AcDbLine
 62
7
  6
CONTINUOUS
 10
8.4869132576
 20
-5.1169762261
 11
8.5196726269
 21
-5.1498086427
  0
LINE
  5
3B3
100
AcDbEntity
  8
RACCORDO
100
AcDbLine
 62
7
  6
CONTINUOUS
 10
8.3259823984
 20
-4.9553262039
 11
8.4869132576
 21
-5.1169762261
  0
LINE
  5
3B4
100
AcDbEntity
  8
RACCORDO
100
AcDbLine
 62
7
  6
CONTINUOUS
 10
8.1697943361
 20
-4.7975836179
 11
8.3259823984
 21
-4.9553262039
  0
LINE
  5
3B5
100
AcDbEntity
  8
RACCORDO
100
AcDbLine
 62
7
  6
CONTINUOUS
 10
-1.5197770968
 20
4.9976785044
 11
-1.902204595
 21
5.3825904351
  0
LINE
  5
3B6
100
AcDbEntity
  8
RACCORDO
100
AcDbLine
 62
7
  6
CONTINUOUS
 10
-0.4697770963
 20
4.9976785039
 11
-0.8522045953
 21
5.3825904355
  0
LINE
  5
3B7
100
AcDbEntity
  8
RACCORDO
100
AcDbLine
 62
7
  6
CONTINUOUS
 10
8.1225658128
 20
-4.749457689
 11
8.1697943361
 21
-4.7975836179
  0
LINE
  5
3B8
100
AcDbEntity
  8
RACCORDO
100
AcDbLine
 62
7
  6
CONTINUOUS
 10
-0.4409633444
 20
6.1689070171
 11
-0.4936958862
 21
6.2226983037
  0
LINE
  5
3B9
100
AcDbEntity
  8
RACCORDO
100
AcDbLine
 62
7
  6
CONTINUOUS
 10
-1.4725487921
 20
4.9495176196
 11
-1.5197770968
 21
4.9976785044
  0
LINE
  5
3BA
100
AcDbEntity
  8
RACCORDO
100
AcDbLine
 62
7
  6
CONTINUOUS
 10
-0.4225487917
 20
4.9495176192
 11
-0.4697770963
 21
4.9976785039
  0
LWPOLYLINE
  5
3BB
100
AcDbEntity
  8
RACCORDO
100
AcDbPolyline
 62
7
  6
CONTINUOUS
 90
3
 70
0
 10
8.0987239834
 20
-4.7248943358
 10
8.1070936715
 20
-4.73355714
 10
8.1225658128
 20
-4.749457689
  0
LWPOLYLINE
  5
3BC
100
AcDbEntity
  8
RACCORDO
100
AcDbPolyline
 62
7
  6
CONTINUOUS
 90
3
 70
0
 10
-1.448707091
 20
4.9249252631
 10
-1.4570767322
 20
4.9336000657
 10
-1.4725487921
 20
4.9495176196
  0
LWPOLYLINE
  5
3BD
100
AcDbEntity
  8
RACCORDO
100
AcDbPolyline
 62
7
  6
CONTINUOUS
 90
3
 70
0
 10
-0.3987070908
 20
4.9249252629
 10
-0.4070767319
 20
4.9336000654
 10
-0.4225487917
 20
4.9495176192
  0
LINE
  5
3BE
100
AcDbEntity
  8
RACCORDO
100
AcDbLine
 62
7
  6
CONTINUOUS
 10
-0.4069604179
 20
6.1338445443
 11
-0.4409633444
 21
6.1689070171
  0
LWPOLYLINE
  5
3BF
100
AcDbEntity
  8
RACCORDO
100
AcDbPolyline
 62
7
  6
CONTINUOUS
 90
3
 70
0
 10
-0.395066043
 20
6.121366854
 10
-0.398591059
 20
6.1250977813
 10
-0.4069604179
 20
6.1338445443
  0
LWPOLYLINE
  5
3C0
100
AcDbEntity
  8
RACCORDO
100
AcDbPolyline
 62
7
  6
CONTINUOUS
 90
7
 70
0
 10
8.0844438799
 20
-4.7094685243
 10
8.0849203364
 20
-4.7100793712
 10
8.0859232065
 20
-4.7112567462
 10
8.0874524903
 20
-4.712979609
 10
8.0895300104
 20
-4.7152267745
 10
8.0921339442
 20
-4.7179765977
 10
8.0987239834
 20
-4.7248943358
  0
LWPOLYLINE
  5
3C1
100
AcDbEntity
  8
RACCORDO
100
AcDbPolyline
 62
7
  6
CONTINUOUS
 90
7
 70
0
 10
-0.384427075
 20
4.9094537468
 10
-0.3849035278
 20
4.9100714306
 10
-0.3859063913
 20
4.9112555507
 10
-0.3874356654
 20
4.91298506
 10
-0.3895131725
 20
4.9152387674
 10
-0.3921170903
 20
4.9179950216
 10
-0.3987070908
 20
4.9249252629
  0
LWPOLYLINE
  5
3C2
100
AcDbEntity
  8
RACCORDO
100
AcDbPolyline
 62
7
  6
CONTINUOUS
 90
6
 70
0
 10
-0.3843115705
 20
6.1093520903
 10
-0.3847880012
 20
6.1100107924
 10
-0.3857908244
 20
6.1112353792
 10
-0.3873200402
 20
6.1130047618
 10
-0.3893974693
 20
6.1152977127
 10
-0.395066043
 20
6.121366854
  0
LINE
  5
3C3
100
AcDbEntity
  8
RACCORDO
100
AcDbLine
 62
7
  6
CONTINUOUS
 10
-0.3844270721
 20
4.9094537412
 11
-0.3843820104
 21
4.9093820104
  0
LINE
  5
3C4
100
AcDbEntity
  8
RACCORDO
100
AcDbLine
 62
250
  6
CONTINUOUS
 10
-8.6427995163
 20
22.1380939735
 11
-8.6619783629
 21
22.1710892345
  0
LWPOLYLINE
  5
3C5
100
AcDbEntity
  8
RACCORDO
100
AcDbPolyline
 62
250
  6
CONTINUOUS
 90
13
 70
0
 10
-8.6619783629
 20
22.1710892345
 10
-8.6713127185
 20
22.187435357
 10
-8.6802511762
 20
22.203479312
 10
-8.6888470747
 20
22.2192744691
 10
-8.6967428886
 20
22.2345375598
 10
-8.7037660281
 20
22.2491111648
 10
-8.7100890829
 20
22.2631527033
 10
-8.7158722967
 20
22.2768511645
 10
-8.721031327
 20
22.2901188446
 10
-8.7256505163
 20
22.3030434474
 10
-8.7301431366
 20
22.3160770733
 10
-8.7345497388
 20
22.3292768121
 10
-8.7432748551
 20
22.3562841907
  0
LINE
  5
3C6
100
AcDbEntity
  8
RACCORDO
100
AcDbLine
 62
7
  6
CONTINUOUS
 10
6.325
 20
-22.4
 11
6.3220741618
 21
-22.3736436632
  0
LINE
  5
3C7
100
AcDbEntity
  8
0
100
AcDbLine
 62
7
  6
CONTINUOUS
 10
4.165
 20
-4.15
 11
4.165
 21
-0.65
  0
LINE
  5
3C8
100
AcDbEntity
  8
DRAFT
100
AcDbLine
 62
7
  6
CONTINUOUS
 10
4.225
 20
6.1
 11
4.225
 21
4.9
  0
LINE
  5
3C9
100
AcDbEntity
  8
RACCORDO
100
AcDbLine
 62
250
  6
CONTINUOUS
 10
4.2343115682
 20
6.1093520852
 11
4.2344270736
 21
4.9094537442
  0
LINE
  5
3CA
100
AcDbEntity
  8
0
100
AcDbLine
 62
7
  6
CONTINUOUS
 10
4.665
 20
-4.15
 11
4.665
 21
-0.65
  0
LINE
  5
3CB
100
AcDbEntity
  8
RACCORDO
100
AcDbLine
 62
250
  6
CONTINUOUS
 10
4.7342369828
 20
6.6158528412
 11
4.7343629706
 21
5.4147777497
  0
LINE
  5
3CC
100
AcDbEntity
  8
0
100
AcDbLine
 62
7
  6
CONTINUOUS
 10
5.185
 20
-4.15
 11
5.185
 21
-0.65
  0
LINE
  5
3CD
100
AcDbEntity
  8
0
100
AcDbLine
 62
7
  6
CONTINUOUS
 10
5.225
 20
2.8
 11
5.225
 21
4.4
  0
LINE
  5
3CE
100
AcDbEntity
  8
DRAFT
100
AcDbLine
 62
7
  6
CONTINUOUS
 10
5.275
 20
4.9
 11
5.275
 21
3.3
  0
LINE
  5
3CF
100
AcDbEntity
  8
RACCORDO
100
AcDbLine
 62
250
  6
CONTINUOUS
 10
5.2844270727
 20
4.9094537424
 11
5.2845419487
 21
3.3095546441
  0
LINE
  5
3D0
100
AcDbEntity
  8
0
100
AcDbLine
 62
7
  6
CONTINUOUS
 10
5.685
 20
-4.15
 11
5.685
 21
-0.65
  0
LINE
  5
3D1
100
AcDbEntity
  8
RACCORDO
100
AcDbLine
 62
250
  6
CONTINUOUS
 10
5.7843629661
 20
5.4147777497
 11
5.7844918192
 21
3.813305124
  0
LINE
  5
3D2
100
AcDbEntity
  8
RACCORDO
100
AcDbLine
 62
250
  6
CONTINUOUS
 10
5.8220826234
 20
-23.5953423515
 11
5.8220826234
 21
-22.3475922207
  0
LINE
  5
3D3
100
AcDbEntity
  8
RACCORDO
100
AcDbLine
 62
250
  6
CONTINUOUS
 10
5.8220826234
 20
22.3475922207
 11
5.8220826234
 21
23.5953423515
  0
LWPOLYLINE
  5
3D4
100
AcDbEntity
  8
RACCORDO
100
AcDbPolyline
 62
250
  6
CONTINUOUS
 90
16
 70
0
 10
12.6078874748
 20
22.4
 10
12.5996395897
 20
22.3737816516
 10
12.5909593411
 20
22.347724963
 10
12.5818467289
 20
22.3218299342
 10
12.5726073167
 20
22.2961873244
 10
12.5629355409
 20
22.2707063744
 10
12.5519147112
 20
22.2451148062
 10
12.5389457113
 20
22.2194127126
 10
12.5246276575
 20
22.1936000008
 10
12.5098412076
 20
22.1674041138
 10
12.4944584246
 20
22.1408251666
 10
12.4786072455
 20
22.1138630441
 10
12.463552139
 20
22.0862448439
 10
12.4497145944
 20
22.0578795984
 10
12.4366731224
 20
22.0288582751
 10
12.4244277228
 20
21.9991808741
  0
LWPOLYLINE
  5
3D5
100
AcDbEntity
  8
RACCORDO
100
AcDbPolyline
 62
250
  6
CONTINUOUS
 90
5
 70
0
 10
13.0230713879
 20
21.8455642319
 10
13.0146011441
 20
21.8189258015
 10
13.0060944968
 20
21.7908683775
 10
12.9975517102
 20
21.7607952918
 10
12.9802660476
 20
21.6970940403
  0
LINE
  5
3D6
100
AcDbEntity
  8
RACCORDO
100
AcDbLine
 62
250
  6
CONTINUOUS
 10
12.4244277228
 20
21.9991808741
 11
12.4242759622
 21
21.998725222
  0
LINE
  5
3D7
100
AcDbEntity
  8
RACCORDO
100
AcDbLine
 62
250
  6
CONTINUOUS
 10
12.9243515704
 20
21.4998661067
 11
12.9241998097
 21
21.4994104546
  0
LWPOLYLINE
  5
3D8
100
AcDbEntity
  8
RACCORDO
100
AcDbPolyline
 62
250
  6
CONTINUOUS
 90
4
 70
0
 10
13.0575792813
 20
21.9498971557
 10
13.0488642761
 20
21.9242195846
 10
13.0402029539
 20
21.8982111234
 10
13.0230713879
 20
21.8455642319
  0
LWPOLYLINE
  5
3D9
100
AcDbEntity
  8
RACCORDO
100
AcDbPolyline
 62
7
  6
CONTINUOUS
 90
5
 70
0
 10
8.0845419488
 20
3.3095546442
 10
8.0850184298
 20
3.3101176298
 10
8.0860213458
 20
3.3112477824
 10
8.0875506966
 20
3.3129241106
 10
8.0896283067
 20
3.315125472
  0
LINE
  5
3DA
100
AcDbEntity
  8
0
100
AcDbLine
 62
7
  6
CONTINUOUS
 10
5.225
 20
4.4
 11
3.965
 21
4.4
  0
LINE
  5
3DB
100
AcDbEntity
  8
0
100
AcDbLine
 62
7
  6
CONTINUOUS
 10
-0.115
 20
4.4
 11
-1.375
 21
4.4
  0
LINE
  5
3DC
100
AcDbEntity
  8
DRAFT
100
AcDbLine
 62
7
  6
CONTINUOUS
 10
-1.425
 20
4.9
 11
-0.375
 21
4.9
  0
LINE
  5
3DD
100
AcDbEntity
  8
DRAFT
100
AcDbLine
 62
7
  6
CONTINUOUS
 10
4.225
 20
4.9
 11
5.275
 21
4.9
  0
LINE
  5
3DE
100
AcDbEntity
  8
RACCORDO
100
AcDbLine
 62
250
  6
CONTINUOUS
 10
-1.4343820104
 20
4.9093820104
 11
-0.3843820104
 21
4.9093820104
  0
LINE
  5
3DF
100
AcDbEntity
  8
RACCORDO
100
AcDbLine
 62
250
  6
CONTINUOUS
 10
4.2343820104
 20
4.9093820104
 11
5.2843820104
 21
4.9093820104
  0
LINE
  5
3E0
100
AcDbEntity
  8
0
100
AcDbLine
 62
7
  6
CONTINUOUS
 10
3.965
 20
5.3
 11
-0.115
 21
5.3
  0
LINE
  5
3E1
100
AcDbEntity
  8
RACCORDO
100
AcDbLine
 62
250
  6
CONTINUOUS
 10
-1.9343629706
 20
5.4147777497
 11
-0.8843629714
 21
5.4147777497
  0
LINE
  5
3E2
100
AcDbEntity
  8
RACCORDO
100
AcDbLine
 62
250
  6
CONTINUOUS
 10
4.7343629706
 20
5.4147777497
 11
5.7843629661
 21
5.4147777497
  0
LINE
  5
3E3
100
AcDbEntity
  8
RACCORDO
100
AcDbLine
 62
7
  6
CONTINUOUS
 10
-0.375
 20
6.1
 11
-0.3842560268
 21
6.1092560268
  0
LINE
  5
3E4
100
AcDbEntity
  8
RACCORDO
100
AcDbLine
 62
7
  6
CONTINUOUS
 10
-0.4936958862
 20
6.2226983037
 11
-0.884236988
 21
6.6158528412
  0
LWPOLYLINE
  5
3E5
100
AcDbEntity
  8
RACCORDO
100
AcDbPolyline
 62
250
  6
CONTINUOUS
 90
9
 70
0
 10
12.4244277228
 20
-21.9991808741
 10
12.4288064342
 20
-22.0117243523
 10
12.4340921452
 20
-22.0251478635
 10
12.4402848558
 20
-22.0394514077
 10
12.4474282864
 20
-22.0546851881
 10
12.4554787166
 20
-22.0707990014
 10
12.4643049856
 20
-22.0876422381
 10
12.4739973351
 20
-22.1052148163
 10
12.4953076649
 20
-22.142397878
  0
LINE
  5
3E6
100
AcDbEntity
  8
RACCORDO
100
AcDbLine
 62
250
  6
CONTINUOUS
 10
12.4242759622
 20
-21.998725222
 11
12.4244277228
 21
-21.9991808741
  0
LWPOLYLINE
  5
3E7
100
AcDbEntity
  8
RACCORDO
100
AcDbPolyline
 62
250
  6
CONTINUOUS
 90
3
 70
0
 10
12.5930617769
 20
-22.3548930247
 10
12.6005513793
 20
-22.3773834536
 10
12.6078874748
 20
-22.4
  0
LINE
  5
3E8
100
AcDbEntity
  8
RACCORDO
100
AcDbLine
 62
250
  6
CONTINUOUS
 10
13.0425805606
 20
-21.9050695018
 11
13.0575791601
 21
-21.9498972163
  0
LINE
  5
3E9
100
AcDbEntity
  8
RACCORDO
100
AcDbLine
 62
250
  6
CONTINUOUS
 10
12.9241998097
 20
-21.4994104546
 11
12.9243515704
 21
-21.4998661067
  0
LWPOLYLINE
  5
3EA
100
AcDbEntity
  8
RACCORDO
100
AcDbPolyline
 62
250
  6
CONTINUOUS
 90
7
 70
0
 10
12.9243515704
 20
-21.4998661067
 10
12.9285225986
 20
-21.5125898514
 10
12.932985549
 20
-21.5268028535
 10
12.9377404216
 20
-21.5425051129
 10
12.942803845
 20
-21.5597732587
 10
12.9481591906
 20
-21.5785306618
 10
12.9537565723
 20
-21.5985474353
  0
LINE
  5
3EB
100
AcDbEntity
  8
0
100
AcDbLine
 62
7
  6
CONTINUOUS
 10
6.205
 20
-4.15
 11
6.205
 21
-0.65
  0
LINE
  5
3EC
100
AcDbEntity
  8
RACCORDO
100
AcDbLine
 62
250
  6
CONTINUOUS
 10
6.3220741618
 20
-23.7970741618
 11
6.3220741618
 21
-22.3736436632
  0
LINE
  5
3ED
100
AcDbEntity
  8
RACCORDO
100
AcDbLine
 62
250
  6
CONTINUOUS
 10
6.3220741618
 20
22.3736436632
 11
6.3220741618
 21
23.7970741618
  0
LINE
  5
3EE
100
AcDbEntity
  8
DRAFT
100
AcDbLine
 62
7
  6
CONTINUOUS
 10
6.325
 20
23.8
 11
6.325
 21
22.4
  0
LINE
  5
3EF
100
AcDbEntity
  8
DRAFT
100
AcDbLine
 62
7
  6
CONTINUOUS
 10
6.325
 20
-22.4
 11
6.325
 21
-23.8
  0
LINE
  5
3F0
100
AcDbEntity
  8
0
100
AcDbLine
 62
7
  6
CONTINUOUS
 10
6.705
 20
-4.15
 11
6.705
 21
-0.65
  0
LINE
  5
3F1
100
AcDbEntity
  8
0
100
AcDbLine
 62
7
  6
CONTINUOUS
 10
6.9
 20
-4.15
 11
6.9
 21
-2.25
  0
LINE
  5
3F2
100
AcDbEntity
  8
0
100
AcDbLine
 62
7
  6
CONTINUOUS
 10
6.9
 20
-0.55
 11
6.9
 21
2.8
  0
LINE
  5
3F3
100
AcDbEntity
  8
0
100
AcDbLine
 62
7
  6
CONTINUOUS
 10
7.625
 20
-2.25
 11
7.625
 21
-0.55
  0
LINE
  5
3F4
100
AcDbEntity
  8
RACCORDO
100
AcDbLine
 62
250
  6
CONTINUOUS
 10
12.9802660476
 20
21.6970940403
 11
12.9624714801
 21
21.6302751482
  0
LWPOLYLINE
  5
3F5
100
AcDbEntity
  8
RACCORDO
100
AcDbPolyline
 62
250
  6
CONTINUOUS
 90
5
 70
0
 10
12.9624714801
 20
21.6302751482
 10
12.9532920559
 20
21.5968658681
 10
12.9438637267
 20
21.564173902
 10
12.9342168982
 20
21.5318406482
 10
12.9243515704
 20
21.4998661067
  0
LWPOLYLINE
  5
3F6
100
AcDbEntity
  8
RACCORDO
100
AcDbPolyline
 62
250
  6
CONTINUOUS
 90
17
 70
0
 10
12.9241998097
 20
21.4994104546
 10
12.9240171904
 20
21.4988071334
 10
12.9238347314
 20
21.4980944235
 10
12.9236524329
 20
21.4972723249
 10
12.9234702749
 20
21.4963407233
 10
12.9232882773
 20
21.4952997331
 10
12.9231065001
 20
21.4941496965
 10
12.9229249432
 20
21.4928905774
 10
12.9227436067
 20
21.4915224119
 10
12.9225625502
 20
21.4900456515
 10
12.9223817739
 20
21.4884602607
 10
12.9222012777
 20
21.486766275
 10
12.922021121
 20
21.4849642525
 10
12.921841304
 20
21.4830541574
 10
12.9216618264
 20
21.4810360255
 10
12.9214827476
 20
21.4789105226
 10
12.9211257861
 20
21.4743373337
  0
LINE
  5
3F7
100
AcDbEntity
  8
DRAFT
100
AcDbLine
 62
7
  6
CONTINUOUS
 10
-0.375
 20
6.1
 11
4.225
 21
6.1
  0
LINE
  5
3F8
100
AcDbEntity
  8
RACCORDO
100
AcDbLine
 62
250
  6
CONTINUOUS
 10
-0.3842560268
 20
6.1092560268
 11
4.2342560268
 21
6.1092560268
  0
LINE
  5
3F9
100
AcDbEntity
  8
RACCORDO
100
AcDbLine
 62
250
  6
CONTINUOUS
 10
-0.8842369857
 20
6.6158528412
 11
4.7342369828
 21
6.6158528412
  0
LINE
  5
3FA
100
AcDbEntity
  8
RACCORDO
100
AcDbLine
 62
250
  6
CONTINUOUS
 10
12.9537565723
 20
-21.5985474353
 11
12.9656772815
 21
-21.6425383855
  0
LWPOLYLINE
  5
3FB
100
AcDbEntity
  8
RACCORDO
100
AcDbPolyline
 62
250
  6
CONTINUOUS
 90
8
 70
0
 10
12.9656772815
 20
-21.6425383855
 10
12.9850756178
 20
-21.7151403235
 10
12.9918770761
 20
-21.7401456581
 10
12.9988215169
 20
-21.7651609042
 10
13.0059089341
 20
-21.790193096
 10
13.0130898923
 20
-21.8145197364
 10
13.020365023
 20
-21.837689652
 10
13.0425805606
 20
-21.9050695018
  0
LWPOLYLINE
  5
3FC
100
AcDbEntity
  8
RACCORDO
100
AcDbPolyline
 62
250
  6
CONTINUOUS
 90
31
 70
0
 10
10.1880985787
 20
-24.2369056521
 10
10.1884417677
 20
-24.2499920062
 10
10.1894695107
 20
-24.2630425045
 10
10.1911789939
 20
-24.2760213619
 10
10.1935655366
 20
-24.2888930016
 10
10.1966225977
 20
-24.3016221155
 10
10.2003417872
 20
-24.314173763
 10
10.2047129023
 20
-24.3265135191
 10
10.2097239578
 20
-24.3386075563
 10
10.2153612061
 20
-24.3504227019
 10
10.2216091852
 20
-24.3619265577
 10
10.228450761
 20
-24.3730875837
 10
10.2358671679
 20
-24.383875174
 10
10.2438380761
 20
-24.3942597633
 10
10.2523416176
 20
-24.4042128667
 10
10.2613544367
 20
-24.4137071599
 10
10.2708517711
 20
-24.4227165817
 10
10.2808076083
 20
-24.4312164786
 10
10.2911947342
 20
-24.4391836209
 10
10.3019848134
 20
-24.4465962509
 10
10.3131481318
 20
-24.4534339327
 10
10.3246537322
 20
-24.4596777344
 10
10.3364698104
 20
-24.465310483
 10
10.3485641666
 20
-24.4703169129
 10
10.3609039705
 20
-24.474683464
 10
10.3734581551
 20
-24.4783989037
 10
10.3861896202
 20
-24.4814520171
 10
10.399055339
 20
-24.4838331472
 10
10.4120171136
 20
-24.4855367515
 10
10.425042008
 20
-24.4865600141
 10
10.4380943479
 20
-24.4869014213
  0
LWPOLYLINE
  5
3FD
100
AcDbEntity
  8
RACCORDO
100
AcDbPolyline
 62
7
  6
CONTINUOUS
 90
34
 70
0
 10
10.175
 20
-24.2500042308
 10
10.1752831502
 20
-24.261899516
 10
10.1761319658
 20
-24.2737678556
 10
10.1775445259
 20
-24.2855823661
 10
10.1795176323
 20
-24.2973162875
 10
10.1820468183
 20
-24.3089430388
 10
10.1851263583
 20
-24.320436279
 10
10.1887492787
 20
-24.3317699738
 10
10.1929073742
 20
-24.3429184493
 10
10.1975912278
 20
-24.3538564463
 10
10.2027902312
 20
-24.3645591876
 10
10.2084926084
 20
-24.3750024283
 10
10.2146854419
 20
-24.3851625059
 10
10.2213547045
 20
-24.3950164051
 10
10.2284852893
 20
-24.4045418038
 10
10.2360610411
 20
-24.4137171191
 10
10.2440647995
 20
-24.4225215661
 10
10.2524784339
 20
-24.4309352005
 10
10.2612828809
 20
-24.4389389589
 10
10.2704581962
 20
-24.4465147107
 10
10.2799835949
 20
-24.4536452955
 10
10.2898374941
 20
-24.4603145581
 10
10.2999975717
 20
-24.4665073916
 10
10.3104408124
 20
-24.4722097688
 10
10.3211435537
 20
-24.4774087722
 10
10.3320815507
 20
-24.4820926258
 10
10.3432300262
 20
-24.4862507213
 10
10.354563721
 20
-24.4898736417
 10
10.3660569612
 20
-24.4929531817
 10
10.3776837125
 20
-24.4954823677
 10
10.3894176339
 20
-24.4974554741
 10
10.4012321444
 20
-24.4988680342
 10
10.413100484
 20
-24.4997168498
 10
10.4249957692
 20
-24.5
  0
LINE
  5
3FE
100
AcDbEntity
  8
DRAFT
100
AcDbLine
 62
7
  6
CONTINUOUS
 10
8.075
 20
3.3
 11
8.075
 21
-4.7
  0
LINE
  5
3FF
100
AcDbEntity
  8
RACCORDO
100
AcDbLine
 62
250
  6
CONTINUOUS
 10
8.0845419476
 20
3.3095546423
 11
8.0844438788
 21
-4.709468522
  0
LINE
  5
400
100
AcDbEntity
  8
RACCORDO
100
AcDbLine
 62
250
  6
CONTINUOUS
 10
8.5844918174
 20
3.813305124
 11
8.5843815224
 21
-5.2145961196
  0
LWPOLYLINE
  5
401
100
AcDbEntity
  8
RACCORDO
100
AcDbPolyline
 62
250
  6
CONTINUOUS
 90
13
 70
0
 10
12.4242759622
 20
21.998725222
 10
12.4240933428
 20
21.9978204706
 10
12.4239108842
 20
21.9967513716
 10
12.4237285862
 20
21.9955180425
 10
12.423546429
 20
21.9941206186
 10
12.4233644326
 20
21.9925592535
 10
12.4231826562
 20
21.9908341186
 10
12.4230010996
 20
21.9889454033
 10
12.4228197632
 20
21.9868933151
 10
12.4226387069
 20
21.9846780795
 10
12.422457931
 20
21.9822999397
 10
12.4222774352
 20
21.979759157
 10
12.4219174622
 20
21.9741907979
  0
LWPOLYLINE
  5
402
100
AcDbEntity
  8
RACCORDO
100
AcDbPolyline
 62
250
  6
CONTINUOUS
 90
15
 70
0
 10
12.9216073223
 20
-21.4804009664
 10
12.9217905905
 20
-21.4824952446
 10
12.9219742185
 20
-21.4844767943
 10
12.9221582064
 20
-21.4863455771
 10
12.9223425541
 20
-21.4881016316
 10
12.9225271982
 20
-21.4897443526
 10
12.9227121388
 20
-21.4912737004
 10
12.9228973759
 20
-21.4926897148
 10
12.9230828456
 20
-21.4939919103
 10
12.9232685496
 20
-21.4951802532
 10
12.9234544863
 20
-21.4962547773
 10
12.9236405875
 20
-21.4972150979
 10
12.9238268304
 20
-21.4980610869
 10
12.9240132378
 20
-21.4987928725
 10
12.9241998097
 20
-21.4994104546
  0
LINE
  5
403
100
AcDbEntity
  8
RACCORDO
100
AcDbLine
 62
250
  6
CONTINUOUS
 10
12.9212420547
 20
-21.4758763477
 11
12.9216073223
 21
-21.4804009664
  0
LWPOLYLINE
  5
404
100
AcDbEntity
  8
RACCORDO
100
AcDbPolyline
 62
250
  6
CONTINUOUS
 90
11
 70
0
 10
12.4224186709
 20
-21.9817614184
 10
12.4226033148
 20
-21.9842255985
 10
12.4227882552
 20
-21.9865197666
 10
12.4229734921
 20
-21.9886436599
 10
12.4231589617
 20
-21.9905970346
 10
12.4233446638
 20
-21.9923796666
 10
12.4235305985
 20
-21.9939913518
 10
12.423716702
 20
-21.9954319053
 10
12.4239029532
 20
-21.9967011619
 10
12.4240893733
 20
-21.9977989761
 10
12.4242759622
 20
-21.998725222
  0
LINE
  5
405
100
AcDbEntity
  8
RACCORDO
100
AcDbLine
 62
250
  6
CONTINUOUS
 10
12.9208785411
 20
-21.4709044946
 11
12.9212420547
 21
-21.4758763477
  0
LINE
  5
406
100
AcDbEntity
  8
RACCORDO
100
AcDbLine
 62
250
  6
CONTINUOUS
 10
12.422050336
 20
-21.9763241728
 11
12.4224186709
 21
-21.9817614184
  0
LINE
  5
407
100
AcDbEntity
  8
RACCORDO
100
AcDbLine
 62
250
  6
CONTINUOUS
 10
12.9205169694
 20
-21.4654878776
 11
12.9208785411
 21
-21.4709044946
  0
LINE
  5
408
100
AcDbEntity
  8
RACCORDO
100
AcDbLine
 62
250
  6
CONTINUOUS
 10
12.4216834404
 20
-21.9702105247
 11
12.422050336
 21
-21.9763241728
  0
LINE
  5
409
100
AcDbEntity
  8
RACCORDO
100
AcDbLine
 62
250
  6
CONTINUOUS
 10
12.4213181733
 20
-21.9634232807
 11
12.4216834404
 21
-21.9702105247
  0
LWPOLYLINE
  5
40A
100
AcDbEntity
  8
RACCORDO
100
AcDbPolyline
 62
7
  6
CONTINUOUS
 90
34
 70
0
 10
10.1822807489
 20
23.2669872981
 10
10.1825784753
 20
23.260745719
 10
10.1833497267
 20
23.254472608
 10
10.1846000894
 20
23.2481861919
 10
10.1863341367
 20
23.2419121598
 10
10.1885555794
 20
23.2356626215
 10
10.1912675994
 20
23.2294361375
 10
10.1944720963
 20
23.2232532001
 10
10.1981700208
 20
23.2171335699
 10
10.2023622718
 20
23.2110754134
 10
10.207047756
 20
23.2051002367
 10
10.2122243979
 20
23.199228829
 10
10.2178907687
 20
23.1934590071
 10
10.2240425526
 20
23.1878130261
 10
10.230674335
 20
23.182312533
 10
10.2377821378
 20
23.1769551973
 10
10.2453581333
 20
23.171763745
 10
10.2533932153
 20
23.1667604362
 10
10.2618804409
 20
23.1619430222
 10
10.2708081504
 20
23.1573343288
 10
10.2801631291
 20
23.1529569199
 10
10.2899348037
 20
23.148808872
 10
10.3001073149
 20
23.1449126131
 10
10.310662902
 20
23.1412905703
 10
10.3215865028
 20
23.137941334
 10
10.3328575603
 20
23.1348863009
 10
10.3444534848
 20
23.1321470947
 10
10.3563541826
 20
23.1297228132
 10
10.3685210103
 20
23.1276360125
 10
10.3809390652
 20
23.1259025536
 10
10.3936230593
 20
23.1245164325
 10
10.4065577699
 20
23.1234933505
 10
10.4196962714
 20
23.1228641607
 10
10.4330037468
 20
23.1226497308
  0
LWPOLYLINE
  5
40B
100
AcDbEntity
  8
RACCORDO
100
AcDbPolyline
 62
7
  6
CONTINUOUS
 90
34
 70
0
 10
12.5677192511
 20
-23.2669872981
 10
12.5674215247
 20
-23.260745719
 10
12.5666502733
 20
-23.254472608
 10
12.5653999106
 20
-23.2481861919
 10
12.5636658633
 20
-23.2419121598
 10
12.5614444206
 20
-23.2356626215
 10
12.5587324006
 20
-23.2294361375
 10
12.5555279037
 20
-23.2232532001
 10
12.5518299792
 20
-23.2171335699
 10
12.5476377282
 20
-23.2110754134
 10
12.542952244
 20
-23.2051002367
 10
12.5377756021
 20
-23.199228829
 10
12.5321092313
 20
-23.1934590071
 10
12.5259574474
 20
-23.1878130261
 10
12.519325665
 20
-23.182312533
 10
12.5122178622
 20
-23.1769551973
 10
12.5046418667
 20
-23.171763745
 10
12.4966067847
 20
-23.1667604362
 10
12.4881195591
 20
-23.1619430222
 10
12.4791918496
 20
-23.1573343288
 10
12.4698368709
 20
-23.1529569199
 10
12.4600651963
 20
-23.148808872
 10
12.4498926851
 20
-23.1449126131
 10
12.439337098
 20
-23.1412905703
 10
12.4284134972
 20
-23.137941334
 10
12.4171424397
 20
-23.1348863009
 10
12.4055465152
 20
-23.1321470947
 10
12.3936458174
 20
-23.1297228132
 10
12.3814789897
 20
-23.1276360125
 10
12.3690609348
 20
-23.1259025536
 10
12.3563769407
 20
-23.1245164325
 10
12.3434422301
 20
-23.1234933505
 10
12.3303037286
 20
-23.1228641607
 10
12.3169962532
 20
-23.1226497308
  0
LINE
  5
40C
100
AcDbEntity
  8
RACCORDO
100
AcDbLine
 62
250
  6
CONTINUOUS
 10
12.4209546604
 20
-21.9559655548
 11
12.4213181733
 21
-21.9634232807
  0
LWPOLYLINE
  5
40D
100
AcDbEntity
  8
RACCORDO
100
AcDbPolyline
 62
250
  6
CONTINUOUS
 90
3
 70
0
 10
12.420233646
 20
-21.9390526402
 10
12.4204130938
 20
-21.9435293766
 10
12.4209546604
 20
-21.9559655548
  0
LWPOLYLINE
  5
40E
100
AcDbEntity
  8
RACCORDO
100
AcDbPolyline
 62
250
  6
CONTINUOUS
 90
31
 70
0
 10
10.1880985787
 20
23.8443375673
 10
10.1884771343
 20
23.833039595
 10
10.1895362619
 20
23.821769291
 10
10.1912736384
 20
23.8105574212
 10
10.1936853398
 20
23.7994336121
 10
10.1967652101
 20
23.78842936
 10
10.2005042611
 20
23.7775778202
 10
10.2048918055
 20
23.7669096972
 10
10.2099162045
 20
23.7564530239
 10
10.2155638851
 20
23.746236105
 10
10.2218195777
 20
23.7362866999
 10
10.2286661523
 20
23.7266321754
 10
10.2360847605
 20
23.7172991519
 10
10.2440550646
 20
23.7083132018
 10
10.2525553594
 20
23.6996987826
 10
10.2615624499
 20
23.6914794042
 10
10.2710517535
 20
23.6836775075
 10
10.2809973406
 20
23.6763144193
 10
10.2913720235
 20
23.6694102704
 10
10.3021474559
 20
23.6629839239
 10
10.3132942139
 20
23.6570529269
 10
10.324781851
 20
23.6516334796
 10
10.3365790077
 20
23.6467403776
 10
10.3486534441
 20
23.6423869945
 10
10.3609721237
 20
23.6385852371
 10
10.3735013591
 20
23.6353454907
 10
10.3862069619
 20
23.6326765842
 10
10.3990542827
 20
23.6305857918
 10
10.41200825
 20
23.6290788219
 10
10.4250334638
 20
23.6281597935
 10
10.4380943479
 20
23.6278312164
  0
LINE
  5
40F
100
AcDbEntity
  8
RACCORDO
100
AcDbLine
 62
250
  6
CONTINUOUS
 10
10.1880985787
 20
-23.8443375673
 11
10.1822807489
 21
-23.2669872981
  0
LINE
  5
410
100
AcDbEntity
  8
RACCORDO
100
AcDbLine
 62
250
  6
CONTINUOUS
 10
10.4380943479
 20
-23.6278312164
 11
10.4330037468
 21
-23.1226497308
  0
LINE
  5
411
100
AcDbEntity
  8
RACCORDO
100
AcDbLine
 62
7
  6
CONTINUOUS
 10
10.175
 20
-22.4
 11
10.175
 21
-24.2500042308
  0
LINE
  5
412
100
AcDbEntity
  8
RACCORDO
100
AcDbLine
 62
7
  6
CONTINUOUS
 10
10.175
 20
22.4
 11
10.175
 21
24.2500042308
  0
LINE
  5
413
100
AcDbEntity
  8
RACCORDO
100
AcDbLine
 62
250
  6
CONTINUOUS
 10
10.1822807489
 20
-23.2669872981
 11
10.1822807489
 21
-22.3344140523
  0
LINE
  5
414
100
AcDbEntity
  8
RACCORDO
100
AcDbLine
 62
250
  6
CONTINUOUS
 10
10.1822807489
 20
22.3344140523
 11
10.1822807489
 21
23.2669872981
  0
LINE
  5
415
100
AcDbEntity
  8
RACCORDO
100
AcDbLine
 62
250
  6
CONTINUOUS
 10
10.1880985787
 20
24.2369056521
 11
10.1880985787
 21
23.8443375673
  0
LINE
  5
416
100
AcDbEntity
  8
RACCORDO
100
AcDbLine
 62
250
  6
CONTINUOUS
 10
10.1880985787
 20
-23.8443375673
 11
10.1880985787
 21
-24.2369056521
  0
LINE
  5
417
100
AcDbEntity
  8
RACCORDO
100
AcDbLine
 62
250
  6
CONTINUOUS
 10
10.4322765181
 20
-23.1226497308
 11
10.4322765181
 21
-22.3213883311
  0
LINE
  5
418
100
AcDbEntity
  8
RACCORDO
100
AcDbLine
 62
250
  6
CONTINUOUS
 10
10.4322765181
 20
22.3213883311
 11
10.4322765181
 21
23.1226497308
  0
LINE
  5
419
100
AcDbEntity
  8
RACCORDO
100
AcDbLine
 62
250
  6
CONTINUOUS
 10
10.4380943479
 20
-23.6278312164
 11
10.4380943479
 21
-24.4869014213
  0
LINE
  5
41A
100
AcDbEntity
  8
RACCORDO
100
AcDbLine
 62
250
  6
CONTINUOUS
 10
10.4380943479
 20
23.6278312164
 11
10.4380943479
 21
24.4869014213
  0
LINE
  5
41B
100
AcDbEntity
  8
RACCORDO
100
AcDbLine
 62
250
  6
CONTINUOUS
 10
10.1822807489
 20
23.2669872981
 11
10.1880985787
 21
23.8443375673
  0
LINE
  5
41C
100
AcDbEntity
  8
RACCORDO
100
AcDbLine
 62
250
  6
CONTINUOUS
 10
10.4330037468
 20
23.1226497308
 11
10.4380943479
 21
23.6278312164
  0
LWPOLYLINE
  5
41D
100
AcDbEntity
  8
RACCORDO
100
AcDbPolyline
 62
250
  6
CONTINUOUS
 90
31
 70
0
 10
10.1880985787
 20
-23.8443375673
 10
10.1884779104
 20
-23.8330274168
 10
10.1895388924
 20
-23.8217481519
 10
10.1912786273
 20
-23.810530574
 10
10.1936923642
 20
-23.7994053159
 10
10.1967735118
 20
-23.7884027584
 10
10.200513656
 20
-23.7775529472
 10
10.2049025834
 20
-23.7668855107
 10
10.2099283087
 20
-23.7564295797
 10
10.2155771077
 20
-23.7462137069
 10
10.2218335547
 20
-23.7362657898
 10
10.2286805646
 20
-23.7266129942
 10
10.2360994397
 20
-23.7172816797
 10
10.2440699206
 20
-23.7082973282
 10
10.2525702417
 20
-23.6996844742
 10
10.2615771902
 20
-23.6914666374
 10
10.2710661701
 20
-23.6836662592
 10
10.281011269
 20
-23.6763046407
 10
10.2913853289
 20
-23.6694018849
 10
10.3021600204
 20
-23.6629768418
 10
10.3133059201
 20
-23.6570470569
 10
10.3247925909
 20
-23.6516287232
 10
10.3365886651
 20
-23.646736637
 10
10.34866193
 20
-23.6423841576
 10
10.3609794162
 20
-23.6385831707
 10
10.373507487
 20
-23.6353440559
 10
10.3862119311
 20
-23.6326756587
 10
10.3990580552
 20
-23.6305852658
 10
10.4120107793
 20
-23.6290785857
 10
10.4250347321
 20
-23.6281597328
 10
10.4380943479
 20
-23.6278312164
  0
LINE
  5
41E
100
AcDbEntity
  8
RACCORDO
100
AcDbLine
 62
250
  6
CONTINUOUS
 10
12.4208467551
 20
21.9536150025
 11
12.4203175749
 21
21.9411686896
  0
LWPOLYLINE
  5
41F
100
AcDbEntity
  8
RACCORDO
100
AcDbPolyline
 62
7
  6
CONTINUOUS
 90
34
 70
0
 10
10.1822807489
 20
-23.2669872981
 10
10.1825784753
 20
-23.260745719
 10
10.1833497267
 20
-23.254472608
 10
10.1846000894
 20
-23.2481861919
 10
10.1863341367
 20
-23.2419121598
 10
10.1885555794
 20
-23.2356626215
 10
10.1912675994
 20
-23.2294361375
 10
10.1944720963
 20
-23.2232532001
 10
10.1981700208
 20
-23.2171335699
 10
10.2023622718
 20
-23.2110754134
 10
10.207047756
 20
-23.2051002367
 10
10.2122243979
 20
-23.199228829
 10
10.2178907687
 20
-23.1934590071
 10
10.2240425526
 20
-23.1878130261
 10
10.230674335
 20
-23.182312533
 10
10.2377821378
 20
-23.1769551973
 10
10.2453581333
 20
-23.171763745
 10
10.2533932153
 20
-23.1667604362
 10
10.2618804409
 20
-23.1619430222
 10
10.2708081504
 20
-23.1573343288
 10
10.2801631291
 20
-23.1529569199
 10
10.2899348037
 20
-23.148808872
 10
10.3001073149
 20
-23.1449126131
 10
10.310662902
 20
-23.1412905703
 10
10.3215865028
 20
-23.137941334
 10
10.3328575603
 20
-23.1348863009
 10
10.3444534848
 20
-23.1321470947
 10
10.3563541826
 20
-23.1297228132
 10
10.3685210103
 20
-23.1276360125
 10
10.3809390652
 20
-23.1259025536
 10
10.3936230593
 20
-23.1245164325
 10
10.4065577699
 20
-23.1234933505
 10
10.4196962714
 20
-23.1228641607
 10
10.4330037468
 20
-23.1226497308
  0
LWPOLYLINE
  5
420
100
AcDbEntity
  8
RACCORDO
100
AcDbPolyline
 62
7
  6
CONTINUOUS
 90
34
 70
0
 10
12.5677192511
 20
23.2669872981
 10
12.5674198287
 20
23.2606934229
 10
12.5666441239
 20
23.2544088409
 10
12.5653873851
 20
23.2481335519
 10
12.5636460224
 20
23.2418552807
 10
12.5614170759
 20
23.2355863026
 10
12.558697709
 20
23.2293634437
 10
12.5554867318
 20
23.2231861587
 10
12.5517838816
 20
23.2170549928
 10
12.5475882567
 20
23.2110084085
 10
12.5429014786
 20
23.205045942
 10
12.5377261214
 20
23.199168057
 10
12.5320632404
 20
23.1934146064
 10
12.5259174965
 20
23.1877851844
 10
12.5192945874
 20
23.1822801967
 10
12.5121976951
 20
23.1769407141
 10
12.5046347916
 20
23.1717664006
 10
12.4966150594
 20
23.1667575922
 10
12.4881442164
 20
23.1619563668
 10
12.479233882
 20
23.1573625195
 10
12.469897167
 20
23.1529762552
 10
12.4601430254
 20
23.1488402671
 10
12.4499871321
 20
23.1449546011
 10
12.4394470274
 20
23.1413192112
 10
12.4285358548
 20
23.1379766523
 10
12.4172738698
 20
23.1349274029
 10
12.4056834708
 20
23.1321709844
 10
12.3937828486
 20
23.1297485157
 10
12.381584335
 20
23.1276610792
 10
12.3691281847
 20
23.1259075925
 10
12.3564781276
 20
23.1245259271
 10
12.3436775292
 20
23.123528707
 10
12.330747957
 20
23.1229033082
 10
12.3177234819
 20
23.1226497308
  0
LINE
  5
421
100
AcDbEntity
  8
RACCORDO
100
AcDbLine
 62
250
  6
CONTINUOUS
 10
12.4212019452
 20
21.9611158465
 11
12.4208467551
 21
21.9536150025
  0
LINE
  5
422
100
AcDbEntity
  8
RACCORDO
100
AcDbLine
 62
250
  6
CONTINUOUS
 10
12.4215589062
 20
21.9679754497
 11
12.4212019452
 21
21.9611158465
  0
LINE
  5
423
100
AcDbEntity
  8
RACCORDO
100
AcDbLine
 62
250
  6
CONTINUOUS
 10
12.4219174622
 20
21.9741907979
 11
12.4215589062
 21
21.9679754497
  0
LINE
  5
424
100
AcDbEntity
  8
RACCORDO
100
AcDbLine
 62
250
  6
CONTINUOUS
 10
12.9207705957
 20
21.4693369394
 11
12.920417293
 21
21.4639109861
  0
LINE
  5
425
100
AcDbEntity
  8
RACCORDO
100
AcDbLine
 62
250
  6
CONTINUOUS
 10
12.9211257861
 20
21.4743373337
 11
12.9207705957
 21
21.4693369394
  0
LINE
  5
426
100
AcDbEntity
  8
RACCORDO
100
AcDbLine
 62
7
  6
CONTINUOUS
 10
12.575
 20
22.4
 11
12.5677192511
 21
22.3344140523
  0
LINE
  5
427
100
AcDbEntity
  8
RACCORDO
100
AcDbLine
 62
250
  6
CONTINUOUS
 10
-8.725
 20
-24.2500042308
 11
-8.7119014213
 21
-24.2369056521
  0
LINE
  5
428
100
AcDbEntity
  8
RACCORDO
100
AcDbLine
 62
250
  6
CONTINUOUS
 10
-8.4750042308
 20
-24.5
 11
-8.4619056521
 21
-24.4869014213
  0
LINE
  5
429
100
AcDbEntity
  8
RACCORDO
100
AcDbLine
 62
250
  6
CONTINUOUS
 10
-8.725
 20
24.2500042308
 11
-8.7119014213
 21
24.2369056521
  0
LINE
  5
42A
100
AcDbEntity
  8
RACCORDO
100
AcDbLine
 62
250
  6
CONTINUOUS
 10
-8.4750042308
 20
24.5
 11
-8.4619056521
 21
24.4869014213
  0
LINE
  5
42B
100
AcDbEntity
  8
RACCORDO
100
AcDbLine
 62
7
  6
CONTINUOUS
 10
12.575
 20
-22.4
 11
12.5677192511
 21
-22.3344140523
  0
LINE
  5
42C
100
AcDbEntity
  8
RACCORDO
100
AcDbLine
 62
250
  6
CONTINUOUS
 10
12.9201575255
 20
-21.4596293835
 11
12.9205169694
 21
-21.4654878776
  0
LINE
  5
42D
100
AcDbEntity
  8
RACCORDO
100
AcDbLine
 62
250
  6
CONTINUOUS
 10
12.91962265
 20
-21.4500180728
 11
12.9201575255
 21
-21.4596293835
  0
LINE
  5
42E
100
AcDbEntity
  8
RACCORDO
100
AcDbLine
 62
250
  6
CONTINUOUS
 10
12.919093438
 20
-21.4394277573
 11
12.91962265
 21
-21.4500180728
  0
LINE
  5
42F
100
AcDbEntity
  8
RACCORDO
100
AcDbLine
 62
250
  6
CONTINUOUS
 10
12.9183975615
 20
-21.423803163
 11
12.919093438
 21
-21.4394277573
  0
LINE
  5
430
100
AcDbEntity
  8
RACCORDO
100
AcDbLine
 62
250
  6
CONTINUOUS
 10
12.9177140196
 20
-21.4064868171
 11
12.9183975615
 21
-21.423803163
  0
LINE
  5
431
100
AcDbEntity
  8
RACCORDO
100
AcDbLine
 62
250
  6
CONTINUOUS
 10
12.419521698
 20
-21.9195027863
 11
12.420233646
 21
-21.9390526402
  0
LWPOLYLINE
  5
432
100
AcDbEntity
  8
RACCORDO
100
AcDbPolyline
 62
250
  6
CONTINUOUS
 90
31
 70
0
 10
12.5619014213
 20
-23.8443375673
 10
12.5615220896
 20
-23.8330274168
 10
12.5604611076
 20
-23.8217481519
 10
12.5587213727
 20
-23.810530574
 10
12.5563076358
 20
-23.7994053159
 10
12.5532264882
 20
-23.7884027584
 10
12.549486344
 20
-23.7775529472
 10
12.5450974166
 20
-23.7668855107
 10
12.5400716913
 20
-23.7564295797
 10
12.5344228923
 20
-23.7462137069
 10
12.5281664453
 20
-23.7362657898
 10
12.5213194354
 20
-23.7266129942
 10
12.5139005603
 20
-23.7172816797
 10
12.5059300794
 20
-23.7082973282
 10
12.4974297583
 20
-23.6996844742
 10
12.4884228098
 20
-23.6914666374
 10
12.4789338299
 20
-23.6836662592
 10
12.468988731
 20
-23.6763046407
 10
12.4586146711
 20
-23.6694018849
 10
12.4478399796
 20
-23.6629768418
 10
12.4366940799
 20
-23.6570470569
 10
12.4252074091
 20
-23.6516287232
 10
12.4134113349
 20
-23.646736637
 10
12.40133807
 20
-23.6423841576
 10
12.3890205838
 20
-23.6385831707
 10
12.376492513
 20
-23.6353440559
 10
12.3637880689
 20
-23.6326756587
 10
12.3509419448
 20
-23.6305852658
 10
12.3379892207
 20
-23.6290785857
 10
12.3249652679
 20
-23.6281597328
 10
12.3119056521
 20
-23.6278312164
  0
LINE
  5
433
100
AcDbEntity
  8
RACCORDO
100
AcDbLine
 62
250
  6
CONTINUOUS
 10
12.9168788031
 20
-21.3825099594
 11
12.9177140196
 21
-21.4064868171
  0
LINE
  5
434
100
AcDbEntity
  8
RACCORDO
100
AcDbLine
 62
250
  6
CONTINUOUS
 10
12.418646559
 20
-21.891412362
 11
12.419521698
 21
-21.9195027863
  0
LINE
  5
435
100
AcDbEntity
  8
RACCORDO
100
AcDbLine
 62
250
  6
CONTINUOUS
 10
12.9159078947
 20
-21.3504107646
 11
12.9168788031
 21
-21.3825099594
  0
LWPOLYLINE
  5
436
100
AcDbEntity
  8
RACCORDO
100
AcDbPolyline
 62
250
  6
CONTINUOUS
 90
31
 70
0
 10
12.5619014213
 20
24.2369056521
 10
12.5615583827
 20
24.2499891381
 10
12.5605310928
 20
24.2630367647
 10
12.5588223673
 20
24.2760127708
 10
12.5564368893
 20
24.2888815916
 10
12.5533811971
 20
24.3016079562
 10
12.5496636657
 20
24.3141569839
 10
12.5452944842
 20
24.3264942801
 10
12.5402856277
 20
24.3385860308
 10
12.5346508246
 20
24.3503990946
 10
12.5284055187
 20
24.3619010942
 10
12.5215668272
 20
24.3730605047
 10
12.5141534939
 20
24.3838467403
 10
12.5061858371
 20
24.3942302379
 10
12.4976856948
 20
24.4041825384
 10
12.4886763643
 20
24.4136763643
 10
12.4791825384
 20
24.4226856948
 10
12.4692302379
 20
24.4311858371
 10
12.4588467403
 20
24.4391534939
 10
12.4480605047
 20
24.4465668272
 10
12.4369010942
 20
24.4534055187
 10
12.4253990946
 20
24.4596508246
 10
12.4135860308
 20
24.4652856277
 10
12.4014942801
 20
24.4702944842
 10
12.3891569839
 20
24.4746636657
 10
12.3766079562
 20
24.4783811971
 10
12.3638815916
 20
24.4814368893
 10
12.3510127708
 20
24.4838223673
 10
12.3380367647
 20
24.4855310928
 10
12.3249891381
 20
24.4865583827
 10
12.3119056521
 20
24.4869014213
  0
LINE
  5
437
100
AcDbEntity
  8
RACCORDO
100
AcDbLine
 62
250
  6
CONTINUOUS
 10
12.4176213364
 20
-21.8524538054
 11
12.418646559
 21
-21.891412362
  0
LWPOLYLINE
  5
438
100
AcDbEntity
  8
RACCORDO
100
AcDbPolyline
 62
7
  6
CONTINUOUS
 90
34
 70
0
 10
12.575
 20
24.2500042308
 10
12.5747168498
 20
24.261899516
 10
12.5738680342
 20
24.2737678556
 10
12.5724554741
 20
24.2855823661
 10
12.5704823677
 20
24.2973162875
 10
12.5679531817
 20
24.3089430388
 10
12.5648736417
 20
24.320436279
 10
12.5612507213
 20
24.3317699738
 10
12.5570926258
 20
24.3429184493
 10
12.5524087722
 20
24.3538564463
 10
12.5472097688
 20
24.3645591876
 10
12.5415073916
 20
24.3750024283
 10
12.5353145581
 20
24.3851625059
 10
12.5286452955
 20
24.3950164051
 10
12.5215147107
 20
24.4045418038
 10
12.5139389589
 20
24.4137171191
 10
12.5059352005
 20
24.4225215661
 10
12.4975215661
 20
24.4309352005
 10
12.4887171191
 20
24.4389389589
 10
12.4795418038
 20
24.4465147107
 10
12.4700164051
 20
24.4536452955
 10
12.4601625059
 20
24.4603145581
 10
12.4500024283
 20
24.4665073916
 10
12.4395591876
 20
24.4722097688
 10
12.4288564463
 20
24.4774087722
 10
12.4179184493
 20
24.4820926258
 10
12.4067699738
 20
24.4862507213
 10
12.395436279
 20
24.4898736417
 10
12.3839430388
 20
24.4929531817
 10
12.3723162875
 20
24.4954823677
 10
12.3605823661
 20
24.4974554741
 10
12.3487678556
 20
24.4988680342
 10
12.336899516
 20
24.4997168498
 10
12.3250042308
 20
24.5
  0
LINE
  5
439
100
AcDbEntity
  8
RACCORDO
100
AcDbLine
 62
250
  6
CONTINUOUS
 10
12.9146730944
 20
-21.3021866201
 11
12.9159078947
 21
-21.3504107646
  0
LINE
  5
43A
100
AcDbEntity
  8
RACCORDO
100
AcDbLine
 62
250
  6
CONTINUOUS
 10
12.4163036413
 20
-21.79186865
 11
12.4176213364
 21
-21.8524538054
  0
LINE
  5
43B
100
AcDbEntity
  8
RACCORDO
100
AcDbLine
 62
250
  6
CONTINUOUS
 10
12.9132382067
 20
-21.23369074
 11
12.9146730944
 21
-21.3021866201
  0
LINE
  5
43C
100
AcDbEntity
  8
RACCORDO
100
AcDbLine
 62
250
  6
CONTINUOUS
 10
12.4144521357
 20
-21.6834046909
 11
12.4163036413
 21
-21.79186865
  0
LINE
  5
43D
100
AcDbEntity
  8
RACCORDO
100
AcDbLine
 62
250
  6
CONTINUOUS
 10
12.9115784118
 20
-21.1322324363
 11
12.9132382067
 21
-21.23369074
  0
LINE
  5
43E
100
AcDbEntity
  8
RACCORDO
100
AcDbLine
 62
250
  6
CONTINUOUS
 10
12.4121387725
 20
-21.4968784092
 11
12.4144521357
 21
-21.6834046909
  0
LINE
  5
43F
100
AcDbEntity
  8
RACCORDO
100
AcDbLine
 62
250
  6
CONTINUOUS
 10
12.3119056521
 20
23.6278312164
 11
12.3169962532
 21
23.1226497308
  0
LINE
  5
440
100
AcDbEntity
  8
RACCORDO
100
AcDbLine
 62
250
  6
CONTINUOUS
 10
12.5619014213
 20
23.8443375673
 11
12.5677192511
 21
23.2669872981
  0
LINE
  5
441
100
AcDbEntity
  8
RACCORDO
100
AcDbLine
 62
250
  6
CONTINUOUS
 10
12.9098978401
 20
-20.9908292413
 11
12.9115784118
 21
-21.1322324363
  0
LINE
  5
442
100
AcDbEntity
  8
RACCORDO
100
AcDbLine
 62
250
  6
CONTINUOUS
 10
12.4096217696
 20
-21.1792070549
 11
12.4121387725
 21
-21.4968784092
  0
LINE
  5
443
100
AcDbEntity
  8
RACCORDO
100
AcDbLine
 62
250
  6
CONTINUOUS
 10
12.9084278448
 20
-20.7944367265
 11
12.9098978401
 21
-20.9908292413
  0
LINE
  5
444
100
AcDbEntity
  8
RACCORDO
100
AcDbLine
 62
250
  6
CONTINUOUS
 10
12.4092981035
 20
-21.1213188737
 11
12.4096217696
 21
-21.1792070549
  0
LINE
  5
445
100
AcDbEntity
  8
RACCORDO
100
AcDbLine
 62
250
  6
CONTINUOUS
 10
12.4088673936
 20
-21.0323874705
 11
12.4092981035
 21
-21.1213188737
  0
LINE
  5
446
100
AcDbEntity
  8
RACCORDO
100
AcDbLine
 62
250
  6
CONTINUOUS
 10
12.4085598179
 20
-20.9565875627
 11
12.4088673936
 21
-21.0323874705
  0
LINE
  5
447
100
AcDbEntity
  8
RACCORDO
100
AcDbLine
 62
250
  6
CONTINUOUS
 10
12.4083480167
 20
-20.8949973708
 11
12.4085598179
 21
-20.9565875627
  0
LINE
  5
448
100
AcDbEntity
  8
RACCORDO
100
AcDbLine
 62
250
  6
CONTINUOUS
 10
12.4081670897
 20
-20.8326847964
 11
12.4083480167
 21
-20.8949973708
  0
LINE
  5
449
100
AcDbEntity
  8
RACCORDO
100
AcDbLine
 62
250
  6
CONTINUOUS
 10
12.4080173625
 20
-20.7697637659
 11
12.4081670897
 21
-20.8326847964
  0
LINE
  5
44A
100
AcDbEntity
  8
RACCORDO
100
AcDbLine
 62
250
  6
CONTINUOUS
 10
12.4078991182
 20
-20.706349532
 11
12.4080173625
 21
-20.7697637659
  0
LINE
  5
44B
100
AcDbEntity
  8
RACCORDO
100
AcDbLine
 62
250
  6
CONTINUOUS
 10
12.4078125701
 20
-20.642558512
 11
12.4078991182
 21
-20.706349532
  0
LINE
  5
44C
100
AcDbEntity
  8
RACCORDO
100
AcDbLine
 62
250
  6
CONTINUOUS
 10
12.4077685576
 20
-20.5945384067
 11
12.4078125701
 21
-20.642558512
  0
LWPOLYLINE
  5
44D
100
AcDbEntity
  8
RACCORDO
100
AcDbPolyline
 62
250
  6
CONTINUOUS
 90
3
 70
0
 10
12.9076730391
 20
-20.5419058565
 10
12.9076817248
 20
-20.5526009072
 10
12.9084278448
 20
-20.7944367265
  0
LINE
  5
44E
100
AcDbEntity
  8
RACCORDO
100
AcDbLine
 62
250
  6
CONTINUOUS
 10
12.4077491915
 20
-20.5624683248
 11
12.4077685576
 21
-20.5945384067
  0
LINE
  5
44F
100
AcDbEntity
  8
RACCORDO
100
AcDbLine
 62
250
  6
CONTINUOUS
 10
12.4030827048
 20
-12.4643258087
 11
12.4077491915
 21
-20.5624683248
  0
LINE
  5
450
100
AcDbEntity
  8
RACCORDO
100
AcDbLine
 62
250
  6
CONTINUOUS
 10
12.9030065524
 20
-12.4518618072
 11
12.9076730391
 21
-20.5419058565
  0
LINE
  5
451
100
AcDbEntity
  8
RACCORDO
100
AcDbLine
 62
250
  6
CONTINUOUS
 10
12.4007051177
 20
-4.3629105699
 11
12.4030827048
 21
-12.4643258087
  0
LINE
  5
452
100
AcDbEntity
  8
RACCORDO
100
AcDbLine
 62
250
  6
CONTINUOUS
 10
12.9006289653
 20
-4.3585473383
 11
12.9030065524
 21
-12.4518618072
  0
LINE
  5
453
100
AcDbEntity
  8
RACCORDO
100
AcDbLine
 62
250
  6
CONTINUOUS
 10
12.3119056521
 20
-23.6278312164
 11
12.3119056521
 21
-24.4869014213
  0
LINE
  5
454
100
AcDbEntity
  8
RACCORDO
100
AcDbLine
 62
250
  6
CONTINUOUS
 10
12.3119056521
 20
23.6278312164
 11
12.3119056521
 21
24.4869014213
  0
LINE
  5
455
100
AcDbEntity
  8
RACCORDO
100
AcDbLine
 62
250
  6
CONTINUOUS
 10
12.3177234819
 20
23.1226497308
 11
12.3177234819
 21
22.3213883311
  0
LINE
  5
456
100
AcDbEntity
  8
RACCORDO
100
AcDbLine
 62
250
  6
CONTINUOUS
 10
12.3177234819
 20
-22.3213883311
 11
12.3177234819
 21
-23.1226497308
  0
LINE
  5
457
100
AcDbEntity
  8
RACCORDO
100
AcDbLine
 62
250
  6
CONTINUOUS
 10
12.4003731867
 20
0.0000000008
 11
12.4007051177
 21
-4.3629105699
  0
LINE
  5
458
100
AcDbEntity
  8
RACCORDO
100
AcDbLine
 62
250
  6
CONTINUOUS
 10
12.5619014213
 20
-24.2369056521
 11
12.5619014213
 21
-23.8443375673
  0
LINE
  5
459
100
AcDbEntity
  8
RACCORDO
100
AcDbLine
 62
250
  6
CONTINUOUS
 10
12.5619014213
 20
23.8443375673
 11
12.5619014213
 21
24.2369056521
  0
LINE
  5
45A
100
AcDbEntity
  8
RACCORDO
100
AcDbLine
 62
250
  6
CONTINUOUS
 10
12.5677192511
 20
23.2669872981
 11
12.5677192511
 21
22.3344140523
  0
LINE
  5
45B
100
AcDbEntity
  8
RACCORDO
100
AcDbLine
 62
250
  6
CONTINUOUS
 10
12.5677192511
 20
-22.3344140523
 11
12.5677192511
 21
-23.2669872981
  0
LINE
  5
45C
100
AcDbEntity
  8
RACCORDO
100
AcDbLine
 62
7
  6
CONTINUOUS
 10
12.575
 20
-22.4
 11
12.575
 21
-24.2500042308
  0
LINE
  5
45D
100
AcDbEntity
  8
RACCORDO
100
AcDbLine
 62
7
  6
CONTINUOUS
 10
12.575
 20
22.4
 11
12.575
 21
24.2500042308
  0
LINE
  5
45E
100
AcDbEntity
  8
RACCORDO
100
AcDbLine
 62
250
  6
CONTINUOUS
 10
12.9002970343
 20
-0.0000000004
 11
12.9006289653
 21
-4.3585473383
  0
LINE
  5
45F
100
AcDbEntity
  8
0
100
AcDbLine
 62
7
  6
CONTINUOUS
 10
13.075
 20
17.6716990487
 11
13.075
 21
-17.6716990487
  0
LINE
  5
460
100
AcDbEntity
  8
RACCORDO
100
AcDbLine
 62
7
  6
CONTINUOUS
 10
13.075
 20
-21.9411874598
 11
13.075
 21
21.9411874598
  0
LINE
  5
461
100
AcDbEntity
  8
RACCORDO
100
AcDbLine
 62
250
  6
CONTINUOUS
 10
12.4005425399
 20
3.1163840597
 11
12.4003731867
 21
0.0000000008
  0
LINE
  5
462
100
AcDbEntity
  8
RACCORDO
100
AcDbLine
 62
250
  6
CONTINUOUS
 10
12.9004663874
 20
3.1132679971
 11
12.9002970343
 21
-0.0000000004
  0
LINE
  5
463
100
AcDbEntity
  8
RACCORDO
100
AcDbLine
 62
250
  6
CONTINUOUS
 10
12.4015179922
 20
8.102296431
 11
12.4005425399
 21
3.1163840597
  0
LINE
  5
464
100
AcDbEntity
  8
RACCORDO
100
AcDbLine
 62
250
  6
CONTINUOUS
 10
12.9014418398
 20
8.0941938113
 11
12.9004663874
 21
3.1132679971
  0
LINE
  5
465
100
AcDbEntity
  8
RACCORDO
100
AcDbLine
 62
250
  6
CONTINUOUS
 10
12.4033604144
 20
13.0874031471
 11
12.4015179922
 21
8.102296431
  0
LINE
  5
466
100
AcDbEntity
  8
RACCORDO
100
AcDbLine
 62
250
  6
CONTINUOUS
 10
12.9032842619
 20
13.0743157435
 11
12.9014418398
 21
8.0941938113
  0
LINE
  5
467
100
AcDbEntity
  8
RACCORDO
100
AcDbLine
 62
250
  6
CONTINUOUS
 10
12.4056835778
 20
17.4483209613
 11
12.4033604144
 21
13.0874031471
  0
LINE
  5
468
100
AcDbEntity
  8
RACCORDO
100
AcDbLine
 62
250
  6
CONTINUOUS
 10
12.9056074253
 20
17.4308723178
 11
12.9032842619
 21
13.0743157435
  0
LINE
  5
469
100
AcDbEntity
  8
RACCORDO
100
AcDbLine
 62
250
  6
CONTINUOUS
 10
12.409094368
 20
21.0812484808
 11
12.4056835778
 21
17.4483209613
  0
LINE
  5
46A
100
AcDbEntity
  8
RACCORDO
100
AcDbLine
 62
250
  6
CONTINUOUS
 10
12.9083482507
 20
20.7791603337
 11
12.9056074253
 21
17.4308723178
  0
LINE
  5
46B
100
AcDbEntity
  8
RACCORDO
100
AcDbLine
 62
250
  6
CONTINUOUS
 10
12.4116194734
 20
21.4442434796
 11
12.409094368
 21
21.0812484808
  0
LINE
  5
46C
100
AcDbEntity
  8
RACCORDO
100
AcDbLine
 62
250
  6
CONTINUOUS
 10
12.9098128818
 20
20.9820689159
 11
12.9083482507
 21
20.7791603337
  0
LINE
  5
46D
100
AcDbEntity
  8
RACCORDO
100
AcDbLine
 62
250
  6
CONTINUOUS
 10
12.3169962532
 20
-23.1226497308
 11
12.3119056521
 21
-23.6278312164
  0
LINE
  5
46E
100
AcDbEntity
  8
RACCORDO
100
AcDbLine
 62
250
  6
CONTINUOUS
 10
12.5677192511
 20
-23.2669872981
 11
12.5619014213
 21
-23.8443375673
  0
LINE
  5
46F
100
AcDbEntity
  8
RACCORDO
100
AcDbLine
 62
250
  6
CONTINUOUS
 10
12.4139183331
 20
21.6461374714
 11
12.4116194734
 21
21.4442434796
  0
LINE
  5
470
100
AcDbEntity
  8
RACCORDO
100
AcDbLine
 62
250
  6
CONTINUOUS
 10
12.9115433233
 20
21.1297558237
 11
12.9098128818
 21
20.9820689159
  0
LINE
  5
471
100
AcDbEntity
  8
RACCORDO
100
AcDbLine
 62
250
  6
CONTINUOUS
 10
12.4158325128
 20
21.7670496461
 11
12.4139183331
 21
21.6461374714
  0
LINE
  5
472
100
AcDbEntity
  8
RACCORDO
100
AcDbLine
 62
250
  6
CONTINUOUS
 10
12.9131597522
 20
21.229492753
 11
12.9115433233
 21
21.1297558237
  0
LINE
  5
473
100
AcDbEntity
  8
RACCORDO
100
AcDbLine
 62
250
  6
CONTINUOUS
 10
12.4172615213
 20
21.8371356497
 11
12.4158325128
 21
21.7670496461
  0
LINE
  5
474
100
AcDbEntity
  8
RACCORDO
100
AcDbLine
 62
250
  6
CONTINUOUS
 10
12.9145555481
 20
21.2971162876
 11
12.9131597522
 21
21.229492753
  0
LINE
  5
475
100
AcDbEntity
  8
RACCORDO
100
AcDbLine
 62
250
  6
CONTINUOUS
 10
12.4184223471
 20
21.8834660872
 11
12.4172615213
 21
21.8371356497
  0
LINE
  5
476
100
AcDbEntity
  8
RACCORDO
100
AcDbLine
 62
250
  6
CONTINUOUS
 10
12.9157563556
 20
21.3449600696
 11
12.9145555481
 21
21.2971162876
  0
LINE
  5
477
100
AcDbEntity
  8
RACCORDO
100
AcDbLine
 62
250
  6
CONTINUOUS
 10
12.419274173
 20
21.9120206841
 11
12.4184223471
 21
21.8834660872
  0
LINE
  5
478
100
AcDbEntity
  8
RACCORDO
100
AcDbLine
 62
250
  6
CONTINUOUS
 10
12.9168612534
 20
21.3819713066
 11
12.9157563556
 21
21.3449600696
  0
LWPOLYLINE
  5
479
100
AcDbEntity
  8
RACCORDO
100
AcDbPolyline
 62
250
  6
CONTINUOUS
 90
31
 70
0
 10
12.5619014213
 20
23.8443375673
 10
12.5615228657
 20
23.833039595
 10
12.5604637381
 20
23.821769291
 10
12.5587263616
 20
23.8105574212
 10
12.5563146602
 20
23.7994336121
 10
12.5532347899
 20
23.78842936
 10
12.5494957389
 20
23.7775778202
 10
12.5451081945
 20
23.7669096972
 10
12.5400837955
 20
23.7564530239
 10
12.5344361149
 20
23.746236105
 10
12.5281804223
 20
23.7362866999
 10
12.5213338477
 20
23.7266321754
 10
12.5139152395
 20
23.7172991519
 10
12.5059449354
 20
23.7083132018
 10
12.4974446406
 20
23.6996987826
 10
12.4884375501
 20
23.6914794042
 10
12.4789482465
 20
23.6836775075
 10
12.4690026594
 20
23.6763144193
 10
12.4586279765
 20
23.6694102704
 10
12.4478525441
 20
23.6629839239
 10
12.4367057861
 20
23.6570529269
 10
12.425218149
 20
23.6516334796
 10
12.4134209923
 20
23.6467403776
 10
12.4013465559
 20
23.6423869945
 10
12.3890278763
 20
23.6385852371
 10
12.3764986409
 20
23.6353454907
 10
12.3637930381
 20
23.6326765842
 10
12.3509457173
 20
23.6305857918
 10
12.33799175
 20
23.6290788219
 10
12.3249665362
 20
23.6281597935
 10
12.3119056521
 20
23.6278312164
  0
LINE
  5
47A
100
AcDbEntity
  8
RACCORDO
100
AcDbLine
 62
250
  6
CONTINUOUS
 10
12.4199674237
 20
21.9320797581
 11
12.419274173
 21
21.9120206841
  0
LINE
  5
47B
100
AcDbEntity
  8
RACCORDO
100
AcDbLine
 62
250
  6
CONTINUOUS
 10
12.9176779997
 20
21.405518091
 11
12.9168612534
 21
21.3819713066
  0
LINE
  5
47C
100
AcDbEntity
  8
RACCORDO
100
AcDbLine
 62
250
  6
CONTINUOUS
 10
12.4203175749
 20
21.9411686896
 11
12.4199674237
 21
21.9320797581
  0
LINE
  5
47D
100
AcDbEntity
  8
RACCORDO
100
AcDbLine
 62
250
  6
CONTINUOUS
 10
12.9183461873
 20
21.4225708347
 11
12.9176779997
 21
21.405518091
  0
LINE
  5
47E
100
AcDbEntity
  8
RACCORDO
100
AcDbLine
 62
250
  6
CONTINUOUS
 10
12.9190262623
 20
21.4380047672
 11
12.9183461873
 21
21.4225708347
  0
LINE
  5
47F
100
AcDbEntity
  8
RACCORDO
100
AcDbLine
 62
250
  6
CONTINUOUS
 10
12.9195434058
 20
21.44850156
 11
12.9190262623
 21
21.4380047672
  0
LINE
  5
480
100
AcDbEntity
  8
RACCORDO
100
AcDbLine
 62
250
  6
CONTINUOUS
 10
12.9200660528
 20
21.4580620636
 11
12.9195434058
 21
21.44850156
  0
LINE
  5
481
100
AcDbEntity
  8
RACCORDO
100
AcDbLine
 62
250
  6
CONTINUOUS
 10
12.920417293
 20
21.4639109861
 11
12.9200660528
 21
21.4580620636
  0
LINE
  5
482
100
AcDbEntity
  8
RACCORDO
100
AcDbLine
 62
7
  6
CONTINUOUS
 10
10.175
 20
-22.4
 11
10.1822807489
 21
-22.3344140523
  0
LINE
  5
483
100
AcDbEntity
  8
RACCORDO
100
AcDbLine
 62
7
  6
CONTINUOUS
 10
10.175
 20
22.4
 11
10.1822807489
 21
22.3344140523
  0
LWPOLYLINE
  5
484
100
AcDbEntity
  8
RACCORDO
100
AcDbPolyline
 62
250
  6
CONTINUOUS
 90
34
 70
0
 10
12.9241998097
 20
21.4994104546
 10
12.9236125093
 20
21.523155013
 10
12.9218953658
 20
21.5468458449
 10
12.9190522647
 20
21.5704293453
 10
12.915089639
 20
21.593852152
 10
12.9100164548
 20
21.6170612667
 10
12.9038441913
 20
21.6400041742
 10
12.8965868143
 20
21.6626289619
 10
12.888260745
 20
21.684884437
 10
12.8788848227
 20
21.7067202423
 10
12.8684802623
 20
21.7280869701
 10
12.8570706059
 20
21.7489362743
 10
12.84468167
 20
21.7692209792
 10
12.8313414871
 20
21.7888951871
 10
12.8170802417
 20
21.8079143811
 10
12.8019302026
 20
21.826235527
 10
12.7859256497
 20
21.8438171695
 10
12.7691027962
 20
21.8606195269
 10
12.751499707
 20
21.8766045808
 10
12.7331562124
 20
21.8917361619
 10
12.7141138181
 20
21.9059800322
 10
12.694415611
 20
21.9193039622
 10
12.6741061621
 20
21.931677804
 10
12.6532314252
 20
21.9430735596
 10
12.6318386335
 20
21.9534654437
 10
12.6099761922
 20
21.9628299429
 10
12.5876935691
 20
21.9711458682
 10
12.5650411829
 20
21.9783944033
 10
12.5420702888
 20
21.9845591469
 10
12.5188328629
 20
21.9896261502
 10
12.4953814842
 20
21.9935839482
 10
12.4717692158
 20
21.9964235855
 10
12.448049485
 20
21.998138637
 10
12.4242759622
 20
21.998725222
  0
LWPOLYLINE
  5
485
100
AcDbEntity
  8
RACCORDO
100
AcDbPolyline
 62
7
  6
CONTINUOUS
 90
25
 70
0
 10
13.0575805668
 20
21.949896513
 10
13.0570626101
 20
21.9713158792
 10
13.0555265756
 20
21.9926846521
 10
13.052976209
 20
22.0139544561
 10
13.0494175589
 20
22.0350769789
 10
13.0448589582
 20
22.0560046356
 10
13.0393109093
 20
22.076690656
 10
13.0327861473
 20
22.0970882896
 10
13.0252996084
 20
22.1171514287
 10
13.0168682432
 20
22.1368352214
 10
13.0075112231
 20
22.1560951882
 10
12.9972498122
 20
22.1748878112
 10
12.9861070889
 20
22.1931710662
 10
12.9741082822
 20
22.2109036264
 10
12.9612805589
 20
22.2280454064
 10
12.947652674
 20
22.2445580329
 10
12.933255419
 20
22.2604041417
 10
12.9181213285
 20
22.2755478708
 10
12.9022842706
 20
22.2899552587
 10
12.8857799955
 20
22.3035936405
 10
12.8686457679
 20
22.3164320858
 10
12.8509199034
 20
22.3284417216
 10
12.8326424111
 20
22.3395952301
 10
12.8138545551
 20
22.3498672256
 10
12.808667383
 20
22.35250266
  0
LWPOLYLINE
  5
486
100
AcDbEntity
  8
RACCORDO
100
AcDbPolyline
 62
7
  6
CONTINUOUS
 90
25
 70
0
 10
13.0575791601
 20
-21.9498972163
 10
13.0570612314
 20
-21.9713165473
 10
13.0555252356
 20
-21.9926852973
 10
13.0529749158
 20
-22.0139550902
 10
13.0494163213
 20
-22.0350776194
 10
13.0448577787
 20
-22.0560052934
 10
13.039309781
 20
-22.0766913245
 10
13.0327850621
 20
-22.0970889558
 10
13.0252985625
 20
-22.1171520863
 10
13.0168672342
 20
-22.1368358669
 10
13.0075102495
 20
-22.1560958185
 10
12.9972488725
 20
-22.1748884228
 10
12.9861061822
 20
-22.1931716566
 10
12.9741074082
 20
-22.2109041931
 10
12.9612797173
 20
-22.2280459472
 10
12.947651865
 20
-22.2445585462
 10
12.9332546429
 20
-22.260404626
 10
12.9181205858
 20
-22.2755483249
 10
12.9022835622
 20
-22.2899556817
 10
12.8857793221
 20
-22.3035940319
 10
12.8686451305
 20
-22.3164324452
 10
12.8509193032
 20
-22.328442049
 10
12.8326418492
 20
-22.3395955256
 10
12.8138540328
 20
-22.3498674897
 10
12.8086670517
 20
-22.3525028256
  0
LWPOLYLINE
  5
487
100
AcDbEntity
  8
RACCORDO
100
AcDbPolyline
 62
250
  6
CONTINUOUS
 90
34
 70
0
 10
12.9241998097
 20
-21.4994104546
 10
12.9236125093
 20
-21.523155013
 10
12.9218953659
 20
-21.5468458448
 10
12.9190522649
 20
-21.5704293452
 10
12.9150896392
 20
-21.5938521519
 10
12.9100164552
 20
-21.6170612665
 10
12.9038441917
 20
-21.6400041741
 10
12.8965868148
 20
-21.6626289618
 10
12.8882607456
 20
-21.684884437
 10
12.8788848234
 20
-21.7067202423
 10
12.868480263
 20
-21.7280869702
 10
12.8570706066
 20
-21.7489362744
 10
12.8446816709
 20
-21.7692209794
 10
12.8313414879
 20
-21.7888951873
 10
12.8170802426
 20
-21.8079143815
 10
12.8019302035
 20
-21.8262355274
 10
12.7859256506
 20
-21.84381717
 10
12.7691027971
 20
-21.8606195275
 10
12.7514997079
 20
-21.8766045814
 10
12.7331562133
 20
-21.8917361626
 10
12.7141138189
 20
-21.9059800329
 10
12.6944156118
 20
-21.9193039629
 10
12.6741061628
 20
-21.9316778048
 10
12.6532314259
 20
-21.9430735603
 10
12.6318386341
 20
-21.9534654444
 10
12.6099761927
 20
-21.9628299436
 10
12.5876935695
 20
-21.9711458689
 10
12.5650411832
 20
-21.9783944039
 10
12.5420702891
 20
-21.9845591474
 10
12.5188328631
 20
-21.9896261507
 10
12.4953814843
 20
-21.9935839485
 10
12.4717692159
 20
-21.9964235857
 10
12.4480494851
 20
-21.9981386371
 10
12.4242759622
 20
-21.998725222
  0
LINE
  5
488
100
AcDbEntity
  8
RACCORDO
100
AcDbLine
 62
7
  6
CONTINUOUS
 10
-2.4720741618
 20
-23.7970741618
 11
-2.475
 21
-23.8
  0
LINE
  5
489
100
AcDbEntity
  8
RACCORDO
100
AcDbLine
 62
7
  6
CONTINUOUS
 10
-2.4720741618
 20
23.7970741618
 11
-2.475
 21
23.8
  0
LINE
  5
48A
100
AcDbEntity
  8
RACCORDO
100
AcDbLine
 62
7
  6
CONTINUOUS
 10
-2.0430905905
 20
-23.6400757416
 11
-1.9720826234
 21
-23.5953423515
  0
LINE
  5
48B
100
AcDbEntity
  8
RACCORDO
100
AcDbLine
 62
7
  6
CONTINUOUS
 10
-2.0715581838
 20
-23.6577812011
 11
-2.0430905905
 21
-23.6400757416
  0
LINE
  5
48C
100
AcDbEntity
  8
RACCORDO
100
AcDbLine
 62
7
  6
CONTINUOUS
 10
-2.0715581838
 20
23.6577812011
 11
-2.0288388153
 21
23.6311538461
  0
LINE
  5
48D
100
AcDbEntity
  8
RACCORDO
100
AcDbLine
 62
7
  6
CONTINUOUS
 10
-2.0288388153
 20
23.6311538461
 11
-1.9720826234
 21
23.5953423515
  0
LWPOLYLINE
  5
48E
100
AcDbEntity
  8
0
100
AcDbPolyline
 62
7
  6
CONTINUOUS
 90
10
 70
0
 43
0.3500000006
 10
2.9964286766
 20
34.2500010681
 10
3.0678570271
 20
34.1071432343
 10
3.0678570271
 20
34.0357120514
 10
2.9250000429
 20
33.8928587494
 10
2.8535714092
 20
33.8928587494
 10
2.7821427755
 20
33.9642854004
 10
2.7821427755
 20
34.0357120514
 10
2.8535714092
 20
34.1785698853
 10
2.9250000429
 20
34.2500010681
 10
2.9964286766
 20
34.2500010681
  0
LINE
  5
48F
100
AcDbEntity
  8
RACCORDO
100
AcDbLine
 62
250
  6
CONTINUOUS
 10
-8.9324923374
 20
20.5552498366
 11
-8.8997167069
 21
20.5566617862
  0
LINE
  5
490
100
AcDbEntity
  8
RACCORDO
100
AcDbLine
 62
250
  6
CONTINUOUS
 10
-8.8997167069
 20
20.5566617862
 11
-8.8639124955
 21
20.5579430522
  0
LINE
  5
491
100
AcDbEntity
  8
RACCORDO
100
AcDbLine
 62
250
  6
CONTINUOUS
 10
-8.8639124955
 20
20.5579430522
 11
-8.8253967974
 21
20.5590822874
  0
LINE
  5
492
100
AcDbEntity
  8
RACCORDO
100
AcDbLine
 62
250
  6
CONTINUOUS
 10
-8.8253967974
 20
20.5590822874
 11
-8.7845107209
 21
20.5600694022
  0
LINE
  5
493
100
AcDbEntity
  8
RACCORDO
100
AcDbLine
 62
250
  6
CONTINUOUS
 10
-8.7845107209
 20
20.5600694022
 11
-8.741616367
 21
20.5608956545
  0
LINE
  5
494
100
AcDbEntity
  8
RACCORDO
100
AcDbLine
 62
250
  6
CONTINUOUS
 10
-8.741616367
 20
20.5608956545
 11
-8.6743443569
 21
20.5618178142
  0
LINE
  5
495
100
AcDbEntity
  8
RACCORDO
100
AcDbLine
 62
250
  6
CONTINUOUS
 10
-8.6743443569
 20
20.5618178142
 11
-8.6047511266
 21
20.5623435591
  0
LINE
  5
496
100
AcDbEntity
  8
RACCORDO
100
AcDbLine
 62
250
  6
CONTINUOUS
 10
12.4077491915
 20
20.5624683248
 11
-8.6047511266
 21
20.5623435591
  0
LINE
  5
497
100
AcDbEntity
  8
RACCORDO
100
AcDbLine
 62
250
  6
CONTINUOUS
 10
12.4781219113
 20
20.5622131687
 11
12.4077491915
 21
20.5624683248
  0
LINE
  5
498
100
AcDbEntity
  8
RACCORDO
100
AcDbLine
 62
250
  6
CONTINUOUS
 10
12.5470936246
 20
20.5615537269
 11
12.4781219113
 21
20.5622131687
  0
LINE
  5
499
100
AcDbEntity
  8
RACCORDO
100
AcDbLine
 62
250
  6
CONTINUOUS
 10
12.5916163696
 20
20.5608956548
 11
12.5470936246
 21
20.5615537269
  0
LINE
  5
49A
100
AcDbEntity
  8
RACCORDO
100
AcDbLine
 62
250
  6
CONTINUOUS
 10
12.6345107241
 20
20.5600694024
 11
12.5916163696
 21
20.5608956548
  0
LWPOLYLINE
  5
49B
100
AcDbEntity
  8
RACCORDO
100
AcDbPolyline
 62
250
  6
CONTINUOUS
 90
3
 70
0
 10
12.6949727954
 20
20.558531085
 10
12.6753968011
 20
20.5590822876
 10
12.6345107241
 20
20.5600694024
  0
LINE
  5
49C
100
AcDbEntity
  8
RACCORDO
100
AcDbLine
 62
7
  6
CONTINUOUS
 10
-2.0999483201
 20
23.6751796798
 11
-2.0715581838
 21
23.6577812011
  0
LINE
  5
49D
100
AcDbEntity
  8
RACCORDO
100
AcDbLine
 62
250
  6
CONTINUOUS
 10
12.4242759622
 20
21.998725222
 11
-8.5742759622
 21
21.998725222
  0
LINE
  5
49E
100
AcDbEntity
  8
RACCORDO
100
AcDbLine
 62
7
  6
CONTINUOUS
 10
12.3177234819
 20
22.3213883311
 11
10.4322765181
 21
22.3213883311
  0
LINE
  5
49F
100
AcDbEntity
  8
RACCORDO
100
AcDbLine
 62
7
  6
CONTINUOUS
 10
-6.5822765181
 20
22.3213883311
 11
-8.4677234819
 21
22.3213883311
  0
LINE
  5
4A0
100
AcDbEntity
  8
RACCORDO
100
AcDbLine
 62
7
  6
CONTINUOUS
 10
-1.9720826234
 20
22.3475922207
 11
5.8220826234
 21
22.3475922207
  0
LINE
  5
4A1
100
AcDbEntity
  8
RACCORDO
100
AcDbLine
 62
7
  6
CONTINUOUS
 10
-8.757892023
 20
22.4
 11
-8.725
 21
22.4
  0
LINE
  5
4A2
100
AcDbEntity
  8
DRAFT
100
AcDbLine
 62
7
  6
CONTINUOUS
 10
-6.325
 20
22.4
 11
-2.475
 21
22.4
  0
LINE
  5
4A3
100
AcDbEntity
  8
DRAFT
100
AcDbLine
 62
7
  6
CONTINUOUS
 10
6.325
 20
22.4
 11
10.175
 21
22.4
  0
LINE
  5
4A4
100
AcDbEntity
  8
RACCORDO
100
AcDbLine
 62
7
  6
CONTINUOUS
 10
12.575
 20
22.4
 11
12.6078874748
 21
22.4
  0
LINE
  5
4A5
100
AcDbEntity
  8
RACCORDO
100
AcDbLine
 62
250
  6
CONTINUOUS
 10
12.7321739566
 20
20.5573194923
 11
12.6949727954
 21
20.558531085
  0
LWPOLYLINE
  5
4A6
100
AcDbEntity
  8
RACCORDO
100
AcDbPolyline
 62
250
  6
CONTINUOUS
 90
16
 70
0
 10
12.9076730391
 20
-20.5419058565
 10
12.9067090395
 20
-20.5428735536
 10
12.9046396881
 20
-20.5438391069
 10
12.9014695691
 20
-20.5448003773
 10
12.8972057054
 20
-20.5457552353
 10
12.8918575427
 20
-20.5467015656
 10
12.8854369289
 20
-20.5476372719
 10
12.8779580876
 20
-20.5485602812
 10
12.8694375868
 20
-20.5494685487
 10
12.8598943021
 20
-20.5503600625
 10
12.8493493748
 20
-20.5512328474
 10
12.8378261652
 20
-20.55208497
 10
12.8253502009
 20
-20.5529145426
 10
12.81194912
 20
-20.5537197274
 10
12.7976526101
 20
-20.5544987407
 10
12.7824923423
 20
-20.5552498567
  0
LINE
  5
4A7
100
AcDbEntity
  8
RACCORDO
100
AcDbLine
 62
250
  6
CONTINUOUS
 10
10.175
 20
-24.2500042308
 11
10.1880985787
 21
-24.2369056521
  0
LINE
  5
4A8
100
AcDbEntity
  8
RACCORDO
100
AcDbLine
 62
250
  6
CONTINUOUS
 10
10.4249957692
 20
-24.5
 11
10.4380943479
 21
-24.4869014213
  0
LWPOLYLINE
  5
4A9
100
AcDbEntity
  8
RACCORDO
100
AcDbPolyline
 62
7
  6
CONTINUOUS
 90
23
 70
0
 10
6.2212073137
 20
23.7953389668
 10
6.2104181903
 20
23.7947915649
 10
6.1993307281
 20
23.793363895
 10
6.1879449272
 20
23.7911364879
 10
6.1762361469
 20
23.7881978965
 10
6.164229028
 20
23.7846238716
 10
6.151997492
 20
23.7804595132
 10
6.1395487518
 20
23.7757643703
 10
6.1268755946
 20
23.7706018097
 10
6.1140303044
 20
23.7649953104
 10
6.1010171723
 20
23.758990232
 10
6.0878319072
 20
23.7526365647
 10
6.0745139203
 20
23.7459460582
 10
6.0610654333
 20
23.7389542831
 10
6.0474842244
 20
23.7317013921
 10
6.0338030396
 20
23.724193673
 10
6.0200229279
 20
23.7164601879
 10
6.0061428402
 20
23.708533951
 10
5.9921923756
 20
23.7004191901
 10
5.978171775
 20
23.6921405291
 10
5.9640807976
 20
23.6837259593
 10
5.9499483201
 20
23.6751796798
 10
5.9215581838
 20
23.6577812011
  0
LWPOLYLINE
  5
4AA
100
AcDbEntity
  8
RACCORDO
100
AcDbPolyline
 62
250
  6
CONTINUOUS
 90
31
 70
0
 10
10.4380943479
 20
24.4869014213
 10
10.425042008
 20
24.4865600141
 10
10.4120171136
 20
24.4855367515
 10
10.399055339
 20
24.4838331472
 10
10.3861896202
 20
24.4814520171
 10
10.3734581551
 20
24.4783989037
 10
10.3609039705
 20
24.474683464
 10
10.3485641666
 20
24.4703169129
 10
10.3364698104
 20
24.465310483
 10
10.3246537322
 20
24.4596777344
 10
10.3131481318
 20
24.4534339327
 10
10.3019848134
 20
24.4465962509
 10
10.2911947342
 20
24.4391836209
 10
10.2808076083
 20
24.4312164786
 10
10.2708517711
 20
24.4227165817
 10
10.2613544367
 20
24.4137071599
 10
10.2523416176
 20
24.4042128667
 10
10.2438380761
 20
24.3942597633
 10
10.2358671679
 20
24.383875174
 10
10.228450761
 20
24.3730875837
 10
10.2216091852
 20
24.3619265577
 10
10.2153612061
 20
24.3504227019
 10
10.2097239578
 20
24.3386075563
 10
10.2047129023
 20
24.3265135191
 10
10.2003417872
 20
24.314173763
 10
10.1966225977
 20
24.3016221155
 10
10.1935655366
 20
24.2888930016
 10
10.1911789939
 20
24.2760213619
 10
10.1894695107
 20
24.2630425045
 10
10.1884417677
 20
24.2499920062
 10
10.1880985787
 20
24.2369056521
  0
LWPOLYLINE
  5
4AB
100
AcDbEntity
  8
RACCORDO
100
AcDbPolyline
 62
250
  6
CONTINUOUS
 90
31
 70
0
 10
-8.4619056521
 20
24.4869014213
 10
-8.4749920062
 20
24.4865582323
 10
-8.4880425045
 20
24.4855304893
 10
-8.5010213619
 20
24.4838210061
 10
-8.5138930016
 20
24.4814344634
 10
-8.5266221155
 20
24.4783774023
 10
-8.539173763
 20
24.4746582128
 10
-8.5515135191
 20
24.4702870977
 10
-8.5636075563
 20
24.4652760422
 10
-8.5754227019
 20
24.4596387939
 10
-8.5869265577
 20
24.4533908148
 10
-8.5980875837
 20
24.446549239
 10
-8.608875174
 20
24.4391328321
 10
-8.6192597633
 20
24.4311619239
 10
-8.6292128667
 20
24.4226583824
 10
-8.6387071599
 20
24.4136455633
 10
-8.6477165817
 20
24.4041482289
 10
-8.6562164786
 20
24.3941923917
 10
-8.6641836209
 20
24.3838052658
 10
-8.6715962509
 20
24.3730151866
 10
-8.6784339327
 20
24.3618518682
 10
-8.6846777344
 20
24.3503462678
 10
-8.690310483
 20
24.3385301896
 10
-8.6953169129
 20
24.3264358334
 10
-8.699683464
 20
24.3140960295
 10
-8.7033989037
 20
24.3015418449
 10
-8.7064520171
 20
24.2888103798
 10
-8.7088331472
 20
24.275944661
 10
-8.7105367515
 20
24.2629828864
 10
-8.7115600141
 20
24.249957992
 10
-8.7119014213
 20
24.2369056521
  0
LWPOLYLINE
  5
4AC
100
AcDbEntity
  8
RACCORDO
100
AcDbPolyline
 62
7
  6
CONTINUOUS
 90
34
 70
0
 10
10.4249957692
 20
24.5
 10
10.413100484
 20
24.4997168498
 10
10.4012321444
 20
24.4988680342
 10
10.3894176339
 20
24.4974554741
 10
10.3776837125
 20
24.4954823677
 10
10.3660569612
 20
24.4929531817
 10
10.354563721
 20
24.4898736417
 10
10.3432300262
 20
24.4862507213
 10
10.3320815507
 20
24.4820926258
 10
10.3211435537
 20
24.4774087722
 10
10.3104408124
 20
24.4722097688
 10
10.2999975717
 20
24.4665073916
 10
10.2898374941
 20
24.4603145581
 10
10.2799835949
 20
24.4536452955
 10
10.2704581962
 20
24.4465147107
 10
10.2612828809
 20
24.4389389589
 10
10.2524784339
 20
24.4309352005
 10
10.2440647995
 20
24.4225215661
 10
10.2360610411
 20
24.4137171191
 10
10.2284852893
 20
24.4045418038
 10
10.2213547045
 20
24.3950164051
 10
10.2146854419
 20
24.3851625059
 10
10.2084926084
 20
24.3750024283
 10
10.2027902312
 20
24.3645591876
 10
10.1975912278
 20
24.3538564463
 10
10.1929073742
 20
24.3429184493
 10
10.1887492787
 20
24.3317699738
 10
10.1851263583
 20
24.320436279
 10
10.1820468183
 20
24.3089430388
 10
10.1795176323
 20
24.2973162875
 10
10.1775445259
 20
24.2855823661
 10
10.1761319658
 20
24.2737678556
 10
10.1752831502
 20
24.261899516
 10
10.175
 20
24.2500042308
  0
LWPOLYLINE
  5
4AD
100
AcDbEntity
  8
RACCORDO
100
AcDbPolyline
 62
7
  6
CONTINUOUS
 90
34
 70
0
 10
-8.4750042308
 20
24.5
 10
-8.486899516
 20
24.4997168498
 10
-8.4987678556
 20
24.4988680342
 10
-8.5105823661
 20
24.4974554741
 10
-8.5223162875
 20
24.4954823677
 10
-8.5339430388
 20
24.4929531817
 10
-8.545436279
 20
24.4898736417
 10
-8.5567699738
 20
24.4862507213
 10
-8.5679184493
 20
24.4820926258
 10
-8.5788564463
 20
24.4774087722
 10
-8.5895591876
 20
24.4722097688
 10
-8.6000024283
 20
24.4665073916
 10
-8.6101625059
 20
24.4603145581
 10
-8.6200164051
 20
24.4536452955
 10
-8.6295418038
 20
24.4465147107
 10
-8.6387171191
 20
24.4389389589
 10
-8.6475215661
 20
24.4309352005
 10
-8.6559352005
 20
24.4225215661
 10
-8.6639389589
 20
24.4137171191
 10
-8.6715147107
 20
24.4045418038
 10
-8.6786452955
 20
24.3950164051
 10
-8.6853145581
 20
24.3851625059
 10
-8.6915073916
 20
24.3750024283
 10
-8.6972097688
 20
24.3645591876
 10
-8.7024087722
 20
24.3538564463
 10
-8.7070926258
 20
24.3429184493
 10
-8.7112507213
 20
24.3317699738
 10
-8.7148736417
 20
24.320436279
 10
-8.7179531817
 20
24.3089430388
 10
-8.7204823677
 20
24.2973162875
 10
-8.7224554741
 20
24.2855823661
 10
-8.7238680342
 20
24.2737678556
 10
-8.7247168498
 20
24.261899516
 10
-8.725
 20
24.2500042308
  0
LINE
  5
4AE
100
AcDbEntity
  8
RACCORDO
100
AcDbLine
 62
7
  6
CONTINUOUS
 10
12.3169962532
 20
23.1226497308
 11
10.4330037468
 21
23.1226497308
  0
LINE
  5
4AF
100
AcDbEntity
  8
RACCORDO
100
AcDbLine
 62
7
  6
CONTINUOUS
 10
-6.5830037468
 20
23.1226497308
 11
-8.4669962532
 21
23.1226497308
  0
LINE
  5
4B0
100
AcDbEntity
  8
RACCORDO
100
AcDbLine
 62
250
  6
CONTINUOUS
 10
5.8220826234
 20
23.5953423515
 11
-1.9720826234
 21
23.5953423515
  0
LINE
  5
4B1
100
AcDbEntity
  8
RACCORDO
100
AcDbLine
 62
250
  6
CONTINUOUS
 10
-8.4619056521
 20
23.6278312164
 11
-6.5880943479
 21
23.6278312164
  0
LINE
  5
4B2
100
AcDbEntity
  8
RACCORDO
100
AcDbLine
 62
250
  6
CONTINUOUS
 10
10.4380943479
 20
23.6278312164
 11
12.3119056521
 21
23.6278312164
  0
LINE
  5
4B3
100
AcDbEntity
  8
RACCORDO
100
AcDbLine
 62
250
  6
CONTINUOUS
 10
6.2212073137
 20
23.7953389668
 11
-2.3712073137
 21
23.7953389668
  0
LINE
  5
4B4
100
AcDbEntity
  8
DRAFT
100
AcDbLine
 62
7
  6
CONTINUOUS
 10
-2.475
 20
23.8
 11
6.325
 21
23.8
  0
LINE
  5
4B5
100
AcDbEntity
  8
RACCORDO
100
AcDbLine
 62
250
  6
CONTINUOUS
 10
-6.3380985787
 20
23.8443375673
 11
-8.7119014213
 21
23.8443375673
  0
LINE
  5
4B6
100
AcDbEntity
  8
RACCORDO
100
AcDbLine
 62
250
  6
CONTINUOUS
 10
10.1880985787
 20
23.8443375673
 11
12.5619014213
 21
23.8443375673
  0
LINE
  5
4B7
100
AcDbEntity
  8
RACCORDO
100
AcDbLine
 62
250
  6
CONTINUOUS
 10
-6.3380985787
 20
24.2369056521
 11
-8.7119014213
 21
24.2369056521
  0
LINE
  5
4B8
100
AcDbEntity
  8
RACCORDO
100
AcDbLine
 62
250
  6
CONTINUOUS
 10
10.1880985787
 20
24.2369056521
 11
12.5619014213
 21
24.2369056521
  0
LINE
  5
4B9
100
AcDbEntity
  8
RACCORDO
100
AcDbLine
 62
250
  6
CONTINUOUS
 10
12.3119056521
 20
24.4869014213
 11
10.4380943479
 21
24.4869014213
  0
LINE
  5
4BA
100
AcDbEntity
  8
RACCORDO
100
AcDbLine
 62
250
  6
CONTINUOUS
 10
-6.5880943479
 20
24.4869014213
 11
-8.4619056521
 21
24.4869014213
  0
LINE
  5
4BB
100
AcDbEntity
  8
RACCORDO
100
AcDbLine
 62
7
  6
CONTINUOUS
 10
-8.4750042308
 20
24.5
 11
-6.5749957692
 21
24.5
  0
LINE
  5
4BC
100
AcDbEntity
  8
RACCORDO
100
AcDbLine
 62
7
  6
CONTINUOUS
 10
10.4249957692
 20
24.5
 11
12.3250042308
 21
24.5
  0
LWPOLYLINE
  5
4BD
100
AcDbEntity
  8
RACCORDO
100
AcDbPolyline
 62
7
  6
CONTINUOUS
 90
22
 70
0
 10
-2.3712073137
 20
23.7953389668
 10
-2.3604181903
 20
23.7947915649
 10
-2.3493307281
 20
23.793363895
 10
-2.3379449272
 20
23.7911364879
 10
-2.3262361469
 20
23.7881978965
 10
-2.314229028
 20
23.7846238716
 10
-2.301997492
 20
23.7804595132
 10
-2.2895487518
 20
23.7757643703
 10
-2.2768755946
 20
23.7706018097
 10
-2.2640303044
 20
23.7649953104
 10
-2.2510171723
 20
23.758990232
 10
-2.2378319072
 20
23.7526365647
 10
-2.2245139203
 20
23.7459460582
 10
-2.2110654333
 20
23.7389542831
 10
-2.1974842244
 20
23.7317013921
 10
-2.1838030396
 20
23.724193673
 10
-2.1700229279
 20
23.7164601879
 10
-2.1561428402
 20
23.708533951
 10
-2.1421923756
 20
23.7004191901
 10
-2.128171775
 20
23.6921405291
 10
-2.1140807976
 20
23.6837259593
 10
-2.0999483201
 20
23.6751796798
  0
LINE
  5
4BE
100
AcDbEntity
  8
RACCORDO
100
AcDbLine
 62
250
  6
CONTINUOUS
 10
10.175
 20
24.2500042308
 11
10.1880985787
 21
24.2369056521
  0
LINE
  5
4BF
100
AcDbEntity
  8
RACCORDO
100
AcDbLine
 62
250
  6
CONTINUOUS
 10
10.4249957692
 20
24.5
 11
10.4380943479
 21
24.4869014213
  0
LWPOLYLINE
  5
4C0
100
AcDbEntity
  8
RACCORDO
100
AcDbPolyline
 62
250
  6
CONTINUOUS
 90
18
 70
0
 10
12.9076730391
 20
20.5419058565
 10
12.9067090395
 20
20.5428735514
 10
12.9046396881
 20
20.5438391026
 10
12.9014695691
 20
20.544800371
 10
12.8972057054
 20
20.5457552272
 10
12.8918575427
 20
20.5467015558
 10
12.8854369288
 20
20.5476372604
 10
12.8779580875
 20
20.5485602682
 10
12.8694375867
 20
20.5494685344
 10
12.859894302
 20
20.5503600469
 10
12.8493493747
 20
20.5512328307
 10
12.8378261652
 20
20.5520849524
 10
12.8253502009
 20
20.5529145241
 10
12.81194912
 20
20.5537197083
 10
12.79765261
 20
20.5544987211
 10
12.7824923423
 20
20.5552498367
 10
12.7665019015
 20
20.5559713913
 10
12.7321739566
 20
20.5573194923
  0
LINE
  5
4C1
100
AcDbEntity
  8
RACCORDO
100
AcDbLine
 62
250
  6
CONTINUOUS
 10
13.0575791601
 20
-21.9498972163
 11
13.075
 21
-21.9411874598
  0
LINE
  5
4C2
100
AcDbEntity
  8
RACCORDO
100
AcDbLine
 62
7
  6
CONTINUOUS
 10
12.8086670529
 20
-22.3525028251
 11
12.8261653088
 21
-22.3437543634
  0
LWPOLYLINE
  5
4C3
100
AcDbEntity
  8
RACCORDO
100
AcDbPolyline
 62
7
  6
CONTINUOUS
 90
11
 70
0
 10
12.8086670517
 20
-22.3525028256
 10
12.7945978633
 20
-22.359234736
 10
12.7749168264
 20
-22.3676758378
 10
12.7548553757
 20
-22.375171463
 10
12.7344583804
 20
-22.3817045428
 10
12.7137805794
 20
-22.3872578746
 10
12.6928602952
 20
-22.3918214941
 10
12.6717179399
 20
-22.3953886342
 10
12.6503918024
 20
-22.3979479162
 10
12.6289388646
 20
-22.3994876122
 10
12.6074078424
 20
-22.4
  0
LWPOLYLINE
  5
4C4
100
AcDbEntity
  8
0
100
AcDbPolyline
 62
7
  6
CONTINUOUS
 90
7
 70
0
 43
0.3500000006
 10
1.4964285021
 20
33.7500009155
 10
-0.0035714285
 20
33.7500009155
 10
1.4964285021
 20
35.8928593597
 10
1.4964285021
 20
36.3214283295
 10
1.0678571248
 20
36.7500018311
 10
0.4249999881
 20
36.7500018311
 10
-0.0035714285
 20
36.1071438446
  0
LWPOLYLINE
  5
4C5
100
AcDbEntity
  8
0
100
AcDbPolyline
 62
7
  6
CONTINUOUS
 90
7
 70
0
 43
0.3500000006
 10
-0.8607142854
 20
33.7500009155
 10
-2.3607143183
 20
33.7500009155
 10
-0.8607142854
 20
35.8928593597
 10
-0.8607142854
 20
36.3214283295
 10
-1.2892856627
 20
36.7500018311
 10
-1.9321427994
 20
36.7500018311
 10
-2.3607143183
 20
36.1071438446
  0
LWPOLYLINE
  5
4C6
100
AcDbEntity
  8
0
100
AcDbPolyline
 62
7
  6
CONTINUOUS
 90
6
 70
0
 43
0.3500000006
 10
4.067857049
 20
33.7500009155
 10
5.1392859879
 20
33.7500009155
 10
5.3535716057
 20
33.9642854004
 10
5.3535716057
 20
35.0357123566
 10
4.9249998035
 20
35.4642858582
 10
4.4964285679
 20
35.4642858582
  0
LWPOLYLINE
  5
4C7
100
AcDbEntity
  8
RACCORDO
100
AcDbPolyline
 62
7
  6
CONTINUOUS
 90
11
 70
0
 10
12.808667383
 20
22.35250266
 10
12.7945983443
 20
22.3592345029
 10
12.7749172646
 20
22.367675635
 10
12.7548557694
 20
22.3751712897
 10
12.7344587271
 20
22.3817043981
 10
12.7137808768
 20
22.3872577575
 10
12.6928605409
 20
22.3918214033
 10
12.6717181301
 20
22.3953885686
 10
12.6503919328
 20
22.3979478745
 10
12.6289389315
 20
22.3994875925
 10
12.6074078424
 20
22.4
  0
LINE
  5
4C8
100
AcDbEntity
  8
RACCORDO
100
AcDbLine
 62
250
  6
CONTINUOUS
 10
13.075
 20
21.9411874598
 11
13.0575792813
 21
21.9498971557
  0
LINE
  5
4C9
100
AcDbEntity
  8
RACCORDO
100
AcDbLine
 62
7
  6
CONTINUOUS
 10
12.8261653088
 20
22.3437543634
 11
12.8086673841
 21
22.3525026595
  0
LWPOLYLINE
  5
4CA
100
AcDbEntity
  8
0
100
AcDbPolyline
 62
7
  6
CONTINUOUS
 90
5
 70
0
 43
0.3500000006
 10
-45.5542013397
 20
45.4642843781
 10
-45.1970544891
 20
45.6785733948
 10
-45.1970544891
 20
46.3214268494
 10
-45.5542013397
 20
46.750000351
 10
-46.411343811
 20
46.750000351
  0
LWPOLYLINE
  5
4CB
100
AcDbEntity
  8
0
100
AcDbPolyline
 62
7
  6
CONTINUOUS
 90
3
 70
0
 43
0.3500000006
 10
-75.7470547485
 20
-0.8571427917
 10
-75.7470547485
 20
-2.3571432495
 10
-78.1042022095
 20
-1.7142852631
  0
LWPOLYLINE
  5
4CC
100
AcDbEntity
  8
0
100
AcDbPolyline
 62
7
  6
CONTINUOUS
 90
3
 70
0
 43
0.3500000006
 10
-42.5542004242
 20
45.8928578796
 10
-41.6970579529
 20
46.750000351
 10
-41.6970579529
 20
43.7499994354
  0
LWPOLYLINE
  5
4CD
100
AcDbEntity
  8
0
100
AcDbPolyline
 62
7
  6
CONTINUOUS
 90
5
 70
0
 43
0.3500000006
 10
-42.9827693939
 20
35.4642858582
 10
-42.6256270752
 20
35.678570343
 10
-42.6256270752
 20
36.3214283295
 10
-42.9827693939
 20
36.7500018311
 10
-43.8399118652
 20
36.7500018311
  0
LWPOLYLINE
  5
4CE
100
AcDbEntity
  8
RACCORDO
100
AcDbPolyline
 62
7
  6
CONTINUOUS
 90
3
 70
0
 10
-58.352848377
 20
23.123528707
 10
-58.3538597474
 20
23.1229033082
 10
-58.3541992518
 20
23.1226497308
  0
LINE
  5
4CF
100
AcDbEntity
  8
RACCORDO
100
AcDbLine
 62
7
  6
CONTINUOUS
 10
-58.3459052539
 20
23.1276610792
 11
-58.352848377
 21
23.123528707
  0
LINE
  5
4D0
100
AcDbEntity
  8
RACCORDO
100
AcDbLine
 62
7
  6
CONTINUOUS
 10
-58.2950248022
 20
23.1573625195
 11
-58.3459052539
 21
23.1276610792
  0
LINE
  5
4D1
100
AcDbEntity
  8
RACCORDO
100
AcDbLine
 62
250
  6
CONTINUOUS
 10
-56.8541992518
 20
23.4104851482
 11
-56.102744819
 21
23.8443375673
  0
LINE
  5
4D2
100
AcDbEntity
  8
RACCORDO
100
AcDbLine
 62
7
  6
CONTINUOUS
 10
-58.1056536847
 20
23.2669872981
 11
-58.2950248022
 21
23.1573625195
  0
LINE
  5
4D3
100
AcDbEntity
  8
RACCORDO
100
AcDbLine
 62
250
  6
CONTINUOUS
 10
-56.102744819
 20
-23.8443375673
 11
-56.8541992518
 21
-23.4104851482
  0
LINE
  5
4D4
100
AcDbEntity
  8
RACCORDO
100
AcDbLine
 62
7
  6
CONTINUOUS
 10
-58.1056536847
 20
-23.2669872981
 11
-58.2520433411
 21
-23.182312533
  0
LINE
  5
4D5
100
AcDbEntity
  8
RACCORDO
100
AcDbLine
 62
7
  6
CONTINUOUS
 10
-58.2520433411
 20
-23.182312533
 11
-58.338269188
 21
-23.1321470947
  0
LINE
  5
4D6
100
AcDbEntity
  8
RACCORDO
100
AcDbLine
 62
7
  6
CONTINUOUS
 10
-58.338269188
 20
-23.1321470947
 11
-58.3488768724
 21
-23.1259025536
  0
LWPOLYLINE
  5
4D7
100
AcDbEntity
  8
RACCORDO
100
AcDbPolyline
 62
7
  6
CONTINUOUS
 90
5
 70
0
 10
-58.3488768724
 20
-23.1259025536
 10
-58.3511929969
 20
-23.1245164325
 10
-58.3528558811
 20
-23.1234933505
 10
-58.3538619146
 20
-23.1228641607
 10
-58.3541992518
 20
-23.1226497308
  0
LWPOLYLINE
  5
4D8
100
AcDbEntity
  8
RACCORDO
100
AcDbPolyline
 62
250
  6
CONTINUOUS
 90
5
 70
0
 10
-59.2267036494
 20
23.6326765842
 10
-59.2278360254
 20
23.6305857918
 10
-59.2286307109
 20
23.6290788219
 10
-59.2290855337
 20
23.6281597935
 10
-59.2291992518
 20
23.6278312164
  0
LINE
  5
4D9
100
AcDbEntity
  8
RACCORDO
100
AcDbLine
 62
250
  6
CONTINUOUS
 10
-59.223439099
 20
23.6385852371
 11
-59.2267036494
 21
23.6326765842
  0
LINE
  5
4DA
100
AcDbEntity
  8
RACCORDO
100
AcDbLine
 62
250
  6
CONTINUOUS
 10
-59.2161162416
 20
23.6516334796
 11
-59.223439099
 21
23.6385852371
  0
LINE
  5
4DB
100
AcDbEntity
  8
RACCORDO
100
AcDbLine
 62
250
  6
CONTINUOUS
 10
-59.193478986
 20
23.6914794042
 11
-59.2161162416
 21
23.6516334796
  0
LINE
  5
4DC
100
AcDbEntity
  8
RACCORDO
100
AcDbLine
 62
250
  6
CONTINUOUS
 10
-59.1186751209
 20
23.821769291
 11
-59.193478986
 21
23.6914794042
  0
LINE
  5
4DD
100
AcDbEntity
  8
RACCORDO
100
AcDbLine
 62
250
  6
CONTINUOUS
 10
-59.1056536847
 20
23.8443375673
 11
-59.1186751209
 21
23.821769291
  0
LINE
  5
4DE
100
AcDbEntity
  8
RACCORDO
100
AcDbLine
 62
7
  6
CONTINUOUS
 10
-56.8541992518
 20
23.1226497308
 11
-55.9791992518
 21
23.6278312164
  0
LINE
  5
4DF
100
AcDbEntity
  8
RACCORDO
100
AcDbLine
 62
7
  6
CONTINUOUS
 10
-56.102744819
 20
-24.495628166
 11
-56.8541992518
 21
-24.5
  0
LINE
  5
4E0
100
AcDbEntity
  8
RACCORDO
100
AcDbLine
 62
250
  6
CONTINUOUS
 10
-56.102744819
 20
-24.2456323968
 11
-56.8541992518
 21
-24.2500042308
  0
LINE
  5
4E1
100
AcDbEntity
  8
RACCORDO
100
AcDbLine
 62
250
  6
CONTINUOUS
 10
-55.8541992518
 20
-24.2456323968
 11
-56.102744819
 21
-24.2456323968
  0
LINE
  5
4E2
100
AcDbEntity
  8
RACCORDO
100
AcDbLine
 62
250
  6
CONTINUOUS
 10
-59.3541992518
 20
-24.2369056521
 11
-59.1056536847
 21
-24.2369056521
  0
LINE
  5
4E3
100
AcDbEntity
  8
RACCORDO
100
AcDbLine
 62
7
  6
CONTINUOUS
 10
-56.8541992518
 20
-24.5
 11
-59.1056536847
 21
-24.4869014213
  0
LINE
  5
4E4
100
AcDbEntity
  8
RACCORDO
100
AcDbLine
 62
250
  6
CONTINUOUS
 10
-56.8541992518
 20
-24.2500042308
 11
-59.1056536847
 21
-24.2369056521
  0
LINE
  5
4E5
100
AcDbEntity
  8
RACCORDO
100
AcDbLine
 62
7
  6
CONTINUOUS
 10
-55.9791992518
 20
-23.6278312164
 11
-56.8541992518
 21
-23.1226497308
  0
LINE
  5
4E6
100
AcDbEntity
  8
RACCORDO
100
AcDbLine
 62
250
  6
CONTINUOUS
 10
-59.1056536847
 20
-23.8443375673
 11
-59.1678526901
 21
-23.7362657898
  0
LINE
  5
4E7
100
AcDbEntity
  8
RACCORDO
100
AcDbLine
 62
250
  6
CONTINUOUS
 10
-59.1678526901
 20
-23.7362657898
 11
-59.2096987583
 21
-23.6629768418
  0
LINE
  5
4E8
100
AcDbEntity
  8
RACCORDO
100
AcDbLine
 62
250
  6
CONTINUOUS
 10
-59.2096987583
 20
-23.6629768418
 11
-59.2213174099
 21
-23.6423841576
  0
LWPOLYLINE
  5
4E9
100
AcDbEntity
  8
RACCORDO
100
AcDbPolyline
 62
250
  6
CONTINUOUS
 90
7
 70
0
 10
-59.2213174099
 20
-23.6423841576
 10
-59.2252374673
 20
-23.6353440559
 10
-59.2267041548
 20
-23.6326756587
 10
-59.2278363072
 20
-23.6305852658
 10
-59.2286308326
 20
-23.6290785857
 10
-59.2290855614
 20
-23.6281597328
 10
-59.2291992518
 20
-23.6278312164
  0
LINE
  5
4EA
100
AcDbEntity
  8
RACCORDO
100
AcDbLine
 62
7
  6
CONTINUOUS
 10
-46.8454727163
 20
-22.3126551668
 11
-56.8541992518
 21
-22.4
  0
LINE
  5
4EB
100
AcDbEntity
  8
RACCORDO
100
AcDbLine
 62
250
  6
CONTINUOUS
 10
-56.8522384998
 20
-21.9498972163
 11
-55.8541992518
 21
-21.9411874598
  0
LINE
  5
4EC
100
AcDbEntity
  8
ASSI
100
AcDbLine
 62
7
  6
CONTINUOUS
 10
-55.8592906202
 20
-23.7942117909
 11
-49.3512903862
 21
-23.7563493531
  0
LINE
  5
4ED
100
AcDbEntity
  8
RACCORDO
100
AcDbLine
 62
250
  6
CONTINUOUS
 10
-59.3541992518
 20
-23.8443375673
 11
-59.1056536847
 21
-23.8443375673
  0
LINE
  5
4EE
100
AcDbEntity
  8
RACCORDO
100
AcDbLine
 62
250
  6
CONTINUOUS
 10
-55.8541992518
 20
-23.8443375673
 11
-56.102744819
 21
-23.8443375673
  0
LINE
  5
4EF
100
AcDbEntity
  8
RACCORDO
100
AcDbLine
 62
7
  6
CONTINUOUS
 10
-64.5109781407
 20
-21.998725222
 11
-56.8541992518
 21
-22.4
  0
LWPOLYLINE
  5
4F0
100
AcDbEntity
  8
RACCORDO
100
AcDbPolyline
 62
250
  6
CONTINUOUS
 90
4
 70
0
 10
-58.5620840729
 20
-21.8601540163
 10
-57.711507692
 20
-21.9050695018
 10
-57.2830822263
 20
-21.9275206231
 10
-56.8522384998
 20
-21.9498972163
  0
LWPOLYLINE
  5
4F1
100
AcDbEntity
  8
RACCORDO
100
AcDbPolyline
 62
250
  6
CONTINUOUS
 90
8
 70
0
 10
-64.4935363658
 20
-21.4994104546
 10
-64.2458839564
 20
-21.5125898514
 10
-63.9902016981
 20
-21.5268028535
 10
-63.7177952306
 20
-21.5425051129
 10
-63.4277118987
 20
-21.5597732587
 10
-63.1209043575
 20
-21.5785306618
 10
-62.8002305724
 20
-21.5985474353
 10
-62.4656952095
 20
-21.6199132252
  0
LWPOLYLINE
  5
4F2
100
AcDbEntity
  8
RACCORDO
100
AcDbPolyline
 62
250
  6
CONTINUOUS
 90
9
 70
0
 10
-62.4656952095
 20
-21.6199132252
 10
-61.3874278276
 20
-21.6901519346
 10
-61.0059636593
 20
-21.7151403235
 10
-60.6163083713
 20
-21.7401456581
 10
-60.2184616285
 20
-21.7651609042
 10
-59.812423766
 20
-21.790193096
 10
-59.4010269454
 20
-21.8145197364
 10
-58.9842349882
 20
-21.837689652
 10
-58.5620840729
 20
-21.8601540163
  0
LWPOLYLINE
  5
4F3
100
AcDbEntity
  8
RACCORDO
100
AcDbPolyline
 62
250
  6
CONTINUOUS
 90
139
 70
0
 10
-65.4403544215
 20
-20.5419058565
 10
-65.4398568192
 20
-20.5526009072
 10
-65.4392449434
 20
-20.5632875846
 10
-65.4385187941
 20
-20.5739658886
 10
-65.4376782622
 20
-20.5846370427
 10
-65.4367234568
 20
-20.5952998235
 10
-65.4356547056
 20
-20.6059505611
 10
-65.434471969
 20
-20.6165892515
 10
-65.4331752865
 20
-20.6272158987
 10
-65.4317651041
 20
-20.6378268452
 10
-65.4302413826
 20
-20.6484220857
 10
-65.4286041612
 20
-20.6590016255
 10
-65.4268540032
 20
-20.6695618236
 10
-65.4249908696
 20
-20.6801026732
 10
-65.4230147996
 20
-20.690624181
 10
-65.4209264736
 20
-20.7011227261
 10
-65.4187258543
 20
-20.7115982955
 10
-65.4164129792
 20
-20.7220509021
 10
-65.413988641
 20
-20.7324769637
 10
-65.411452802
 20
-20.7428764711
 10
-65.4088054999
 20
-20.7532494334
 10
-65.4060476414
 20
-20.7635922956
 10
-65.4031791872
 20
-20.7739050518
 10
-65.4002001765
 20
-20.784187708
 10
-65.397111633
 20
-20.7944367265
 10
-65.3939135188
 20
-20.8046520959
 10
-65.3906058718
 20
-20.8148338275
 10
-65.3871898291
 20
-20.8249784184
 10
-65.3836653533
 20
-20.8350858556
 10
-65.3800324818
 20
-20.845156152
 10
-65.3762924642
 20
-20.8551858426
 10
-65.3724452634
 20
-20.8651749133
 10
-65.3684909164
 20
-20.8751233783
 10
-65.3644307836
 20
-20.8850278148
 10
-65.3602648293
 20
-20.8948882059
 10
-65.3559930891
 20
-20.9047045686
 10
-65.3516170304
 20
-20.9144735307
 10
-65.3471366183
 20
-20.9241950744
 10
-65.3425518877
 20
-20.9338692176
 10
-65.3378644109
 20
-20.9434926414
 10
-65.3330741525
 20
-20.9530653293
 10
-65.3281811478
 20
-20.9625872979
 10
-65.3231870753
 20
-20.9720552784
 10
-65.3180918997
 20
-20.9814692539
 10
-65.3128956563
 20
-20.9908292413
 10
-65.30760013
 20
-21.0001320228
 10
-65.302205286
 20
-21.0093775798
 10
-65.2967111592
 20
-21.0185659308
 10
-65.2911196388
 20
-21.0276939139
 10
-65.2854306914
 20
-21.0367615081
 10
-65.2796443506
 20
-21.0457687344
 10
-65.2737626064
 20
-21.0547124931
 10
-65.2677854265
 20
-21.0635927621
 10
-65.2617128432
 20
-21.0724095636
 10
-65.2555469449
 20
-21.0811598649
 10
-65.2492876997
 20
-21.0898436427
 10
-65.2429351393
 20
-21.0984609205
 10
-65.2364914479
 20
-21.107008735
 10
-65.2299565963
 20
-21.1154870596
 10
-65.2233306136
 20
-21.1238959209
 10
-65.2166157703
 20
-21.1322324363
 10
-65.209812035
 20
-21.1404965825
 10
-65.2029194392
 20
-21.1486883827
 10
-65.195940348
 20
-21.1568050235
 10
-65.1888747302
 20
-21.1648464811
 10
-65.181722617
 20
-21.1728127794
 10
-65.1744864682
 20
-21.1807011765
 10
-65.1671662546
 20
-21.1885116456
 10
-65.1597620054
 20
-21.1962442135
 10
-65.1522762673
 20
-21.2038962189
 10
-65.1447090121
 20
-21.2114676339
 10
-65.1370602681
 20
-21.2189584863
 10
-65.1293326667
 20
-21.2263661979
 10
-65.1215261807
 20
-21.23369074
 10
-65.1136408373
 20
-21.2409321413
 10
-65.1056793501
 20
-21.2480879094
 10
-65.0976416954
 20
-21.2551580126
 10
-65.0895278968
 20
-21.2621424826
 10
-65.0813407385
 20
-21.2690389222
 10
-65.073080196
 20
-21.275847301
 10
-65.0647462938
 20
-21.2825676493
 10
-65.0563418895
 20
-21.2891976615
 10
-65.047866956
 20
-21.2957373089
 10
-65.0393215204
 20
-21.3021866201
 10
-65.0307085217
 20
-21.3085433754
 10
-65.0220279365
 20
-21.3148075428
 10
-65.0132797883
 20
-21.3209791544
 10
-65.0044670865
 20
-21.3270560855
 10
-64.995589809
 20
-21.3330383036
 10
-64.986647978
 20
-21.3389258413
 10
-64.9776446691
 20
-21.3447166728
 10
-64.9685798612
 20
-21.3504107646
 10
-64.9594535754
 20
-21.3560081501
 10
-64.9502689504
 20
-21.3615069037
 10
-64.9410259672
 20
-21.366906991
 10
-64.9317246449
 20
-21.3722084463
 10
-64.9223681799
 20
-21.3774094474
 10
-64.9129565541
 20
-21.3825099594
 10
-64.9034897856
 20
-21.3875100173
 10
-64.8939711243
 20
-21.3924079037
 10
-64.8844005516
 20
-21.3972035841
 10
-64.8747780861
 20
-21.4018970931
 10
-64.8651070339
 20
-21.4064868171
 10
-64.8553873775
 20
-21.4109727207
 10
-64.8456191343
 20
-21.4153548393
 10
-64.8358056625
 20
-21.4196316655
 10
-64.8259469459
 20
-21.423803163
 10
-64.8160430008
 20
-21.427869368
 10
-64.8060972337
 20
-21.431828881
 10
-64.7961096303
 20
-21.4356816652
 10
-64.786080205
 20
-21.4394277573
 10
-64.7760124073
 20
-21.4430658684
 10
-64.7659062245
 20
-21.4465959611
 10
-64.7557616693
 20
-21.4500180728
 10
-64.7455822302
 20
-21.4533310263
 10
-64.7353678954
 20
-21.456534784
 10
-64.7251186767
 20
-21.4596293835
 10
-64.7148380973
 20
-21.4626137608
 10
-64.7045261475
 20
-21.4654878776
 10
-64.6941828371
 20
-21.4682517721
 10
-64.6838117189
 20
-21.4709044946
 10
-64.6734127828
 20
-21.4734460072
 10
-64.662986039
 20
-21.4758763477
 10
-64.6525350708
 20
-21.4781946803
 10
-64.642059869
 20
-21.4804009664
 10
-64.6315604429
 20
-21.4824952446
 10
-64.6210404035
 20
-21.4844767943
 10
-64.6104997438
 20
-21.4863455771
 10
-64.5999384709
 20
-21.4881016316
 10
-64.5893602166
 20
-21.4897443526
 10
-64.5787649752
 20
-21.4912737004
 10
-64.5681527525
 20
-21.4926897148
 10
-64.5575271975
 20
-21.4939919103
 10
-64.5468882235
 20
-21.4951802532
 10
-64.5362359171
 20
-21.4962547773
 10
-64.5255741873
 20
-21.4972150979
 10
-64.5149043369
 20
-21.4980610869
 10
-64.5042250631
 20
-21.4987928725
 10
-64.4935363658
 20
-21.4994104546
  0
LINE
  5
4F4
100
AcDbEntity
  8
RACCORDO
100
AcDbLine
 62
7
  6
CONTINUOUS
 10
-66.3396577444
 20
3.813305124
 11
-66.3398132123
 21
3.792866006
  0
LINE
  5
4F5
100
AcDbEntity
  8
RACCORDO
100
AcDbLine
 62
7
  6
CONTINUOUS
 10
-66.3350746677
 20
4.3731245528
 11
-66.335204145
 21
4.3582962254
  0
LINE
  5
4F6
100
AcDbEntity
  8
RACCORDO
100
AcDbLine
 62
7
  6
CONTINUOUS
 10
-66.3227178621
 20
5.6107395771
 11
-66.3227606866
 21
5.6069222283
  0
LINE
  5
4F7
100
AcDbEntity
  8
RACCORDO
100
AcDbLine
 62
7
  6
CONTINUOUS
 10
-66.3152662525
 20
6.2395098836
 11
-66.3154014222
 21
6.228669553
  0
LWPOLYLINE
  5
4F8
100
AcDbEntity
  8
RACCORDO
100
AcDbPolyline
 62
250
  6
CONTINUOUS
 90
67
 70
0
 10
-65.4403544215
 20
20.5419058565
 10
-65.4655734698
 20
19.9197575685
 10
-65.4900168804
 20
19.297580264
 10
-65.5136846532
 20
18.6753739431
 10
-65.5365768226
 20
18.0531376387
 10
-65.5586933542
 20
17.4308723178
 10
-65.580034145
 20
16.8085808812
 10
-65.6005991914
 20
16.1862633287
 10
-65.6203884969
 20
15.5639196606
 10
-65.6394019694
 20
14.9415527779
 10
-65.6576396052
 20
14.3191626805
 10
-65.6751014081
 20
13.6967493685
 10
-65.6917872965
 20
13.0743157435
 10
-65.7076972668
 20
12.4518618054
 10
-65.7228313228
 20
11.8293875542
 10
-65.7371893939
 20
11.2068958914
 10
-65.7507714765
 20
10.5843868174
 10
-65.7635775741
 20
9.9618603319
 10
-65.7756076272
 20
9.3393193359
 10
-65.7868616321
 20
8.7167638289
 10
-65.7973395924
 20
8.0941938113
 10
-65.8070414594
 20
7.4716121851
 10
-65.8159672294
 20
6.84901895
 10
-65.824116906
 20
6.2264141063
 10
-65.8314904512
 20
5.6038005561
 10
-65.8380878615
 20
4.9811782994
 10
-65.8439091404
 20
4.3585473362
 10
-65.8489542609
 20
3.7359105688
 10
-65.8532232193
 20
3.1132679971
 10
-65.8567160192
 20
2.4906196212
 10
-65.8594326443
 20
1.8679683432
 10
-65.8613730911
 20
1.2453141634
 10
-65.8625373632
 20
0.6226570815
 10
-65.862925455
 20
-0.0000000004
 10
-65.8625373632
 20
-0.6226570824
 10
-65.8613730911
 20
-1.2453141644
 10
-65.8594326443
 20
-1.8679683445
 10
-65.8567160191
 20
-2.4906196226
 10
-65.8532232192
 20
-3.1132679988
 10
-65.8489542609
 20
-3.7359105707
 10
-65.8439091404
 20
-4.3585473383
 10
-65.8380878615
 20
-4.9811783016
 10
-65.8314904512
 20
-5.6038005583
 10
-65.8241169059
 20
-6.2264141085
 10
-65.8159672293
 20
-6.8490189521
 10
-65.8070414594
 20
-7.471612187
 10
-65.7973395924
 20
-8.0941938132
 10
-65.786861632
 20
-8.7167638306
 10
-65.7756076271
 20
-9.3393193375
 10
-65.7635775741
 20
-9.9618603335
 10
-65.7507714764
 20
-10.584386819
 10
-65.7371893939
 20
-11.2068958931
 10
-65.7228313228
 20
-11.8293875559
 10
-65.7076972668
 20
-12.4518618072
 10
-65.6917872964
 20
-13.0743157455
 10
-65.675101408
 20
-13.6967493707
 10
-65.6576396052
 20
-14.3191626827
 10
-65.6394019693
 20
-14.9415527802
 10
-65.6203884968
 20
-15.5639196631
 10
-65.6005991913
 20
-16.1862633313
 10
-65.5800341449
 20
-16.8085808839
 10
-65.5586933541
 20
-17.4308723206
 10
-65.5365768225
 20
-18.0531376417
 10
-65.5136846531
 20
-18.6753739459
 10
-65.4900168803
 20
-19.2975802662
 10
-65.4655734698
 20
-19.9197575698
 10
-65.4403544215
 20
-20.5419058565
  0
LWPOLYLINE
  5
4F9
100
AcDbEntity
  8
0
100
AcDbPolyline
 62
7
  6
CONTINUOUS
 90
10
 70
0
 43
0.3500000006
 10
-36.5541985931
 20
36.7500018311
 10
-37.1970565796
 20
36.1071438446
 10
-37.6256278152
 20
35.2500013733
 10
-37.6256278152
 20
34.1785698853
 10
-37.1970565796
 20
33.7500009155
 10
-36.5541985931
 20
33.7500009155
 10
-36.1256273575
 20
34.1785698853
 10
-36.1256273575
 20
35.0357123566
 10
-36.5541985931
 20
35.4642858582
 10
-37.4827699814
 20
35.4642858582
  0
LINE
  5
4FA
100
AcDbEntity
  8
RACCORDO
100
AcDbLine
 62
250
  6
CONTINUOUS
 10
-65.8962057122
 20
-20.5608956698
 11
-65.9289943994
 21
-20.5623435641
  0
LWPOLYLINE
  5
4FB
100
AcDbEntity
  8
RACCORDO
100
AcDbPolyline
 62
250
  6
CONTINUOUS
 90
6
 70
0
 10
-65.4403544215
 20
-20.5419058565
 10
-65.4638482997
 20
-20.5428735536
 10
-65.4872708003
 20
-20.5438391069
 10
-65.5105700353
 20
-20.5448003773
 10
-65.5336943895
 20
-20.5457552353
 10
-65.8962057122
 20
-20.5608956698
  0
LINE
  5
4FC
100
AcDbEntity
  8
DRAFT
100
AcDbLine
 62
7
  6
CONTINUOUS
 10
-55.8541992518
 20
-20.85
 11
-45.8541992518
 21
-20.6754493507
  0
LINE
  5
4FD
100
AcDbEntity
  8
0
100
AcDbLine
 62
7
  6
CONTINUOUS
 10
-55.8541992518
 20
-20.85
 11
-45.8541992518
 21
-20.6754493507
  0
LINE
  5
4FE
100
AcDbEntity
  8
RACCORDO
100
AcDbLine
 62
7
  6
CONTINUOUS
 10
-45.8541992518
 20
-20.9959955457
 11
-55.6544124916
 21
-20.9104703804
  0
LINE
  5
4FF
100
AcDbEntity
  8
RACCORDO
100
AcDbLine
 62
7
  6
CONTINUOUS
 10
-46.3454730486
 20
-21.5659754333
 11
-55.8541992518
 21
-21.4
  0
LINE
  5
500
100
AcDbEntity
  8
DRAFT
100
AcDbLine
 62
7
  6
CONTINUOUS
 10
-55.6544124916
 20
-20.9104703804
 11
-55.8541992518
 21
-20.9
  0
LWPOLYLINE
  5
501
100
AcDbEntity
  8
0
100
AcDbPolyline
 62
7
  6
CONTINUOUS
 90
10
 70
0
 43
0.3500000006
 10
-75.1042012939
 20
0.4285709152
 10
-75.9613437653
 20
1.2857133865
 10
-76.8184862366
 20
1.5000001373
 10
-77.675624176
 20
1.5000001373
 10
-78.1042022095
 20
1.0714289017
 10
-78.1042022095
 20
0.4285709152
 10
-77.675624176
 20
-0.0000003204
 10
-76.8184862366
 20
-0.0000003204
 10
-76.3899172668
 20
0.4285709152
 10
-76.3899172668
 20
1.3571423035
  0
LINE
  5
502
100
AcDbEntity
  8
RACCORDO
100
AcDbLine
 62
250
  6
CONTINUOUS
 10
-64.4935363658
 20
21.4994104546
 11
-64.498326835
 21
21.593852152
  0
LINE
  5
503
100
AcDbEntity
  8
RACCORDO
100
AcDbLine
 62
250
  6
CONTINUOUS
 10
-64.498326835
 20
21.593852152
 11
-64.5026293411
 21
21.684884437
  0
LINE
  5
504
100
AcDbEntity
  8
RACCORDO
100
AcDbLine
 62
250
  6
CONTINUOUS
 10
-64.5026293411
 20
21.684884437
 11
-64.5062885605
 21
21.7692209792
  0
LINE
  5
505
100
AcDbEntity
  8
RACCORDO
100
AcDbLine
 62
250
  6
CONTINUOUS
 10
-64.5062885605
 20
21.7692209792
 11
-64.5091723928
 21
21.8438171695
  0
LINE
  5
506
100
AcDbEntity
  8
RACCORDO
100
AcDbLine
 62
250
  6
CONTINUOUS
 10
-64.5091723928
 20
21.8438171695
 11
-64.5107626265
 21
21.8917361619
  0
LINE
  5
507
100
AcDbEntity
  8
RACCORDO
100
AcDbLine
 62
250
  6
CONTINUOUS
 10
-64.5107626265
 20
21.8917361619
 11
-64.511531173
 21
21.9193039622
  0
LWPOLYLINE
  5
508
100
AcDbEntity
  8
RACCORDO
100
AcDbPolyline
 62
250
  6
CONTINUOUS
 90
12
 70
0
 10
-64.511531173
 20
21.9193039622
 10
-64.5120580106
 20
21.9430735596
 10
-64.5122292126
 20
21.9534654437
 10
-64.5123383736
 20
21.9628299429
 10
-64.5123852468
 20
21.9711458682
 10
-64.512369726
 20
21.9783944033
 10
-64.5122918464
 20
21.9845591469
 10
-64.5121517842
 20
21.9896261502
 10
-64.5119498563
 20
21.9935839482
 10
-64.5116865196
 20
21.9964235855
 10
-64.5113623699
 20
21.998138637
 10
-64.5109781407
 20
21.998725222
  0
LWPOLYLINE
  5
509
100
AcDbEntity
  8
RACCORDO
100
AcDbPolyline
 62
250
  6
CONTINUOUS
 90
10
 70
0
 10
-64.5122291963
 20
-21.9534654444
 10
-64.5123383586
 20
-21.9628299436
 10
-64.5123852332
 20
-21.9711458689
 10
-64.512369714
 20
-21.9783944039
 10
-64.5122918361
 20
-21.9845591474
 10
-64.5121517757
 20
-21.9896261507
 10
-64.5119498497
 20
-21.9935839485
 10
-64.5116865151
 20
-21.9964235857
 10
-64.5113623676
 20
-21.9981386371
 10
-64.5109781407
 20
-21.998725222
  0
LINE
  5
50A
100
AcDbEntity
  8
RACCORDO
100
AcDbLine
 62
250
  6
CONTINUOUS
 10
-64.5118251369
 20
-21.9316778048
 11
-64.5122291963
 21
-21.9534654444
  0
LINE
  5
50B
100
AcDbEntity
  8
RACCORDO
100
AcDbLine
 62
250
  6
CONTINUOUS
 10
-64.5111767099
 20
-21.9059800329
 11
-64.5118251369
 21
-21.9316778048
  0
LINE
  5
50C
100
AcDbEntity
  8
RACCORDO
100
AcDbLine
 62
250
  6
CONTINUOUS
 10
-64.5097593026
 20
-21.8606195275
 11
-64.5111767099
 21
-21.9059800329
  0
LINE
  5
50D
100
AcDbEntity
  8
RACCORDO
100
AcDbLine
 62
250
  6
CONTINUOUS
 10
-64.5078345924
 20
-21.8079143815
 11
-64.5097593026
 21
-21.8606195275
  0
LINE
  5
50E
100
AcDbEntity
  8
RACCORDO
100
AcDbLine
 62
250
  6
CONTINUOUS
 10
-64.5045482059
 20
-21.7280869702
 11
-64.5078345924
 21
-21.8079143815
  0
LINE
  5
50F
100
AcDbEntity
  8
RACCORDO
100
AcDbLine
 62
250
  6
CONTINUOUS
 10
-64.4994546124
 20
-21.6170612665
 11
-64.5045482059
 21
-21.7280869702
  0
LINE
  5
510
100
AcDbEntity
  8
RACCORDO
100
AcDbLine
 62
250
  6
CONTINUOUS
 10
-64.4935363658
 20
-21.4994104546
 11
-64.4994546124
 21
-21.6170612665
  0
LWPOLYLINE
  5
511
100
AcDbEntity
  8
RACCORDO
100
AcDbPolyline
 62
250
  6
CONTINUOUS
 90
3
 70
0
 10
-65.9289943994
 20
-20.5623435641
 10
-65.9306525592
 20
-20.5624286768
 10
-65.9312052243
 20
-20.5624683248
  0
LINE
  5
512
100
AcDbEntity
  8
RACCORDO
100
AcDbLine
 62
250
  6
CONTINUOUS
 10
-55.8541992518
 20
-19.0856972195
 11
-45.8541992518
 21
-19.0133959733
  0
LINE
  5
513
100
AcDbEntity
  8
0
100
AcDbLine
 62
250
  6
CONTINUOUS
 10
-55.8541992518
 20
-19.0856972195
 11
-45.8541992518
 21
-19.0133959733
  0
LINE
  5
514
100
AcDbEntity
  8
RACCORDO
100
AcDbLine
 62
250
  6
CONTINUOUS
 10
-55.8541992518
 20
-17.6716990487
 11
-45.8541992518
 21
-17.5993978025
  0
LINE
  5
515
100
AcDbEntity
  8
0
100
AcDbLine
 62
250
  6
CONTINUOUS
 10
-55.8541992518
 20
-17.6716990487
 11
-45.8541992518
 21
-17.5993978025
  0
LWPOLYLINE
  5
516
100
AcDbEntity
  8
RACCORDO
100
AcDbPolyline
 62
250
  6
CONTINUOUS
 90
6
 70
0
 10
-59.1056536847
 20
-24.4869014213
 10
-59.1057278064
 20
-24.4865583827
 10
-59.1057977387
 20
-24.4855310928
 10
-59.1058632898
 20
-24.4838223673
 10
-59.1059242801
 20
-24.4814368893
 10
-59.1059805424
 20
-24.4783811971
  0
LINE
  5
517
100
AcDbEntity
  8
RACCORDO
100
AcDbLine
 62
250
  6
CONTINUOUS
 10
-59.1059805424
 20
-24.4783811971
 11
-59.1060782797
 21
-24.4702944842
  0
LINE
  5
518
100
AcDbEntity
  8
RACCORDO
100
AcDbLine
 62
250
  6
CONTINUOUS
 10
-59.1060782797
 20
-24.4702944842
 11
-59.1061860134
 21
-24.4534055187
  0
LINE
  5
519
100
AcDbEntity
  8
RACCORDO
100
AcDbLine
 62
250
  6
CONTINUOUS
 10
-59.1056536847
 20
24.2369056521
 11
-59.1061554309
 21
24.3503990946
  0
LINE
  5
51A
100
AcDbEntity
  8
RACCORDO
100
AcDbLine
 62
7
  6
CONTINUOUS
 10
-59.3541992518
 20
-24.2369056521
 11
-59.3541992518
 21
-23.8443375673
  0
LINE
  5
51B
100
AcDbEntity
  8
RACCORDO
100
AcDbLine
 62
7
  6
CONTINUOUS
 10
-59.3541992518
 20
23.8443375673
 11
-59.3541992518
 21
24.2369056521
  0
LINE
  5
51C
100
AcDbEntity
  8
RACCORDO
100
AcDbLine
 62
250
  6
CONTINUOUS
 10
-59.1056536847
 20
-24.2369056521
 11
-59.1056536847
 21
-23.8443375673
  0
LINE
  5
51D
100
AcDbEntity
  8
RACCORDO
100
AcDbLine
 62
250
  6
CONTINUOUS
 10
-59.1056536847
 20
23.8443375673
 11
-59.1056536847
 21
24.2369056521
  0
LINE
  5
51E
100
AcDbEntity
  8
RACCORDO
100
AcDbLine
 62
7
  6
CONTINUOUS
 10
-58.3541992518
 20
23.1226497308
 11
-58.3541992518
 21
22.3213883311
  0
LINE
  5
51F
100
AcDbEntity
  8
RACCORDO
100
AcDbLine
 62
7
  6
CONTINUOUS
 10
-58.3541992518
 20
-22.3213883311
 11
-58.3541992518
 21
-23.1226497308
  0
LINE
  5
520
100
AcDbEntity
  8
RACCORDO
100
AcDbLine
 62
250
  6
CONTINUOUS
 10
-58.1056536847
 20
23.2669872981
 11
-58.1056536847
 21
22.3344140523
  0
LINE
  5
521
100
AcDbEntity
  8
RACCORDO
100
AcDbLine
 62
250
  6
CONTINUOUS
 10
-58.1056536847
 20
-22.3344140523
 11
-58.1056536847
 21
-23.2669872981
  0
LINE
  5
522
100
AcDbEntity
  8
RACCORDO
100
AcDbLine
 62
250
  6
CONTINUOUS
 10
-59.1061860134
 20
-24.4534055187
 11
-59.106253277
 21
-24.4041825384
  0
LINE
  5
523
100
AcDbEntity
  8
RACCORDO
100
AcDbLine
 62
250
  6
CONTINUOUS
 10
-59.1061554309
 20
24.3503990946
 11
-59.1062448285
 21
24.4311858371
  0
LINE
  5
524
100
AcDbEntity
  8
RACCORDO
100
AcDbLine
 62
250
  6
CONTINUOUS
 10
-59.106253277
 20
-24.4041825384
 11
-59.1059805424
 21
-24.3016079562
  0
LINE
  5
525
100
AcDbEntity
  8
RACCORDO
100
AcDbLine
 62
250
  6
CONTINUOUS
 10
-59.1062448285
 20
24.4311858371
 11
-59.1061554309
 21
24.4596508246
  0
LINE
  5
526
100
AcDbEntity
  8
RACCORDO
100
AcDbLine
 62
250
  6
CONTINUOUS
 10
-59.1059805424
 20
-24.3016079562
 11
-59.1056536847
 21
-24.2369056521
  0
LWPOLYLINE
  5
527
100
AcDbEntity
  8
RACCORDO
100
AcDbPolyline
 62
250
  6
CONTINUOUS
 90
8
 70
0
 10
-59.1061554309
 20
24.4596508246
 10
-59.1060319226
 20
24.4746636657
 10
-59.1059805424
 20
24.4783811971
 10
-59.1059242801
 20
24.4814368893
 10
-59.1058632898
 20
24.4838223673
 10
-59.1057977387
 20
24.4855310928
 10
-59.1057278064
 20
24.4865583827
 10
-59.1056536847
 20
24.4869014213
  0
LINE
  5
528
100
AcDbEntity
  8
0
100
AcDbLine
 62
250
  6
CONTINUOUS
 10
-49.1541992518
 20
14.9679995413
 11
-48.5970564279
 21
15.380285059
  0
LINE
  5
529
100
AcDbEntity
  8
0
100
AcDbLine
 62
250
  6
CONTINUOUS
 10
-49.1541992518
 20
13.215785059
 11
-47.8541992518
 21
13.6280719528
  0
LWPOLYLINE
  5
52A
100
AcDbEntity
  8
RACCORDO
100
AcDbPolyline
 62
7
  6
CONTINUOUS
 90
10
 70
0
 10
-56.8565748377
 20
-22.359234736
 10
-56.8564150166
 20
-22.3676758378
 10
-56.8562285562
 20
-22.375171463
 10
-56.8560148155
 20
-22.3817045428
 10
-56.8557745463
 20
-22.3872578746
 10
-56.8555088583
 20
-22.3918214941
 10
-56.8552176546
 20
-22.3953886342
 10
-56.8549015321
 20
-22.3979479162
 10
-56.8545617586
 20
-22.3994876122
 10
-56.8541992518
 20
-22.4
  0
LWPOLYLINE
  5
52B
100
AcDbEntity
  8
RACCORDO
100
AcDbPolyline
 62
250
  6
CONTINUOUS
 90
6
 70
0
 10
-56.1024179009
 20
24.487104147
 10
-56.1024741713
 20
24.4901612081
 10
-56.1025351718
 20
24.4925477509
 10
-56.1026007351
 20
24.494257234
 10
-56.1026706814
 20
24.495284977
 10
-56.102744819
 20
24.495628166
  0
LINE
  5
52C
100
AcDbEntity
  8
RACCORDO
100
AcDbLine
 62
7
  6
CONTINUOUS
 10
-56.8521579116
 20
21.949896513
 11
-56.8542640023
 21
22.0560046356
  0
LINE
  5
52D
100
AcDbEntity
  8
RACCORDO
100
AcDbLine
 62
7
  6
CONTINUOUS
 10
-56.8542640023
 20
22.0560046356
 11
-56.8555516175
 21
22.1368352214
  0
LINE
  5
52E
100
AcDbEntity
  8
RACCORDO
100
AcDbLine
 62
250
  6
CONTINUOUS
 10
-56.102320155
 20
24.4790138424
 11
-56.1024179009
 21
24.487104147
  0
LINE
  5
52F
100
AcDbEntity
  8
RACCORDO
100
AcDbLine
 62
7
  6
CONTINUOUS
 10
-56.8568104064
 20
-22.3395955256
 11
-56.8565748377
 21
-22.359234736
  0
LINE
  5
530
100
AcDbEntity
  8
RACCORDO
100
AcDbLine
 62
7
  6
CONTINUOUS
 10
-56.8555516175
 20
22.1368352214
 11
-56.8564313648
 21
22.2109036264
  0
LINE
  5
531
100
AcDbEntity
  8
RACCORDO
100
AcDbLine
 62
7
  6
CONTINUOUS
 10
-56.8564313648
 20
22.2109036264
 11
-56.8568052719
 21
22.2604041417
  0
LINE
  5
532
100
AcDbEntity
  8
RACCORDO
100
AcDbLine
 62
250
  6
CONTINUOUS
 10
-56.1022124276
 20
24.4621175595
 11
-56.102320155
 21
24.4790138424
  0
LINE
  5
533
100
AcDbEntity
  8
RACCORDO
100
AcDbLine
 62
7
  6
CONTINUOUS
 10
-56.8569343436
 20
-22.3164324452
 11
-56.8568104064
 21
-22.3395955256
  0
LINE
  5
534
100
AcDbEntity
  8
RACCORDO
100
AcDbLine
 62
250
  6
CONTINUOUS
 10
-56.1021536425
 20
-24.402986508
 11
-56.102744819
 21
-24.2456323968
  0
LINE
  5
535
100
AcDbEntity
  8
RACCORDO
100
AcDbLine
 62
7
  6
CONTINUOUS
 10
-56.8568052719
 20
22.2604041417
 11
-56.8569252103
 21
22.3035936405
  0
LINE
  5
536
100
AcDbEntity
  8
RACCORDO
100
AcDbLine
 62
7
  6
CONTINUOUS
 10
-56.8541992518
 20
-22.4
 11
-56.8541992518
 21
-24.5
  0
LINE
  5
537
100
AcDbEntity
  8
RACCORDO
100
AcDbLine
 62
7
  6
CONTINUOUS
 10
-56.8541992518
 20
22.4
 11
-56.8541992518
 21
24.5
  0
LINE
  5
538
100
AcDbEntity
  8
RACCORDO
100
AcDbLine
 62
250
  6
CONTINUOUS
 10
-56.102744819
 20
24.2456323968
 11
-56.102744819
 21
23.8443375673
  0
LINE
  5
539
100
AcDbEntity
  8
RACCORDO
100
AcDbLine
 62
250
  6
CONTINUOUS
 10
-56.102744819
 20
-23.8443375673
 11
-56.102744819
 21
-24.2456323968
  0
LINE
  5
53A
100
AcDbEntity
  8
RACCORDO
100
AcDbLine
 62
7
  6
CONTINUOUS
 10
-55.8541992518
 20
24.2456323968
 11
-55.8541992518
 21
23.8443375673
  0
LINE
  5
53B
100
AcDbEntity
  8
0
100
AcDbLine
 62
7
  6
CONTINUOUS
 10
-55.8541992518
 20
17.6716990487
 11
-55.8541992518
 21
-17.6716990487
  0
LINE
  5
53C
100
AcDbEntity
  8
RACCORDO
100
AcDbLine
 62
7
  6
CONTINUOUS
 10
-55.8541992518
 20
-23.8443375673
 11
-55.8541992518
 21
-24.2456323968
  0
LINE
  5
53D
100
AcDbEntity
  8
RACCORDO
100
AcDbLine
 62
7
  6
CONTINUOUS
 10
-55.8541992518
 20
-22.3912731322
 11
-55.8541992518
 21
22.3912731322
  0
LINE
  5
53E
100
AcDbEntity
  8
RACCORDO
100
AcDbLine
 62
250
  6
CONTINUOUS
 10
-56.1021452466
 20
24.4128749736
 11
-56.1022124276
 21
24.4621175595
  0
LINE
  5
53F
100
AcDbEntity
  8
RACCORDO
100
AcDbLine
 62
7
  6
CONTINUOUS
 10
-56.8569064745
 20
-22.2755483249
 11
-56.8569343436
 21
-22.3164324452
  0
LINE
  5
540
100
AcDbEntity
  8
RACCORDO
100
AcDbLine
 62
250
  6
CONTINUOUS
 10
-56.1021874455
 20
-24.4553229956
 11
-56.1021536425
 21
-24.402986508
  0
LINE
  5
541
100
AcDbEntity
  8
RACCORDO
100
AcDbLine
 62
7
  6
CONTINUOUS
 10
-56.8569252103
 20
22.3035936405
 11
-56.8568631093
 21
22.3284417216
  0
LINE
  5
542
100
AcDbEntity
  8
RACCORDO
100
AcDbLine
 62
250
  6
CONTINUOUS
 10
-56.1026010455
 20
24.2717096311
 11
-56.1021452466
 21
24.4128749736
  0
LINE
  5
543
100
AcDbEntity
  8
RACCORDO
100
AcDbLine
 62
250
  6
CONTINUOUS
 10
-56.102744819
 20
24.2456323968
 11
-56.1026010455
 21
24.2717096311
  0
LINE
  5
544
100
AcDbEntity
  8
RACCORDO
100
AcDbLine
 62
250
  6
CONTINUOUS
 10
-56.1022791971
 20
-24.4740372277
 11
-56.1021874455
 21
-24.4553229956
  0
LINE
  5
545
100
AcDbEntity
  8
RACCORDO
100
AcDbLine
 62
7
  6
CONTINUOUS
 10
-56.8566239437
 20
-22.2280459472
 11
-56.8569064745
 21
-22.2755483249
  0
LWPOLYLINE
  5
546
100
AcDbEntity
  8
RACCORDO
100
AcDbPolyline
 62
7
  6
CONTINUOUS
 90
12
 70
0
 10
-56.8568631093
 20
22.3284417216
 10
-56.8566873821
 20
22.3498672256
 10
-56.8565572733
 20
22.3592345029
 10
-56.8563993637
 20
22.367675635
 10
-56.8562147887
 20
22.3751712897
 10
-56.8560029387
 20
22.3817043981
 10
-56.8557645628
 20
22.3872577575
 10
-56.8555007734
 20
22.3918214033
 10
-56.8552115134
 20
22.3953885686
 10
-56.854897393
 20
22.3979478745
 10
-56.8545596665
 20
22.3994875925
 10
-56.8541992518
 20
22.4
  0
LINE
  5
547
100
AcDbEntity
  8
RACCORDO
100
AcDbLine
 62
7
  6
CONTINUOUS
 10
-56.8558608951
 20
-22.1560958185
 11
-56.8566239437
 21
-22.2280459472
  0
LINE
  5
548
100
AcDbEntity
  8
RACCORDO
100
AcDbLine
 62
7
  6
CONTINUOUS
 10
-56.8543304989
 20
-22.0560052934
 11
-56.8558608951
 21
-22.1560958185
  0
LINE
  5
549
100
AcDbEntity
  8
RACCORDO
100
AcDbLine
 62
7
  6
CONTINUOUS
 10
-56.8522384998
 20
-21.9498972163
 11
-56.8543304989
 21
-22.0560052934
  0
LWPOLYLINE
  5
54A
100
AcDbEntity
  8
0
100
AcDbPolyline
 62
7
  6
CONTINUOUS
 90
3
 70
0
 43
0.3500000006
 10
-43.5542007294
 20
44.0357151031
 10
-43.6256273804
 20
43.8214306183
 10
-43.7684852142
 20
43.5357149506
  0
LINE
  5
54B
100
AcDbEntity
  8
0
100
AcDbLine
 62
250
  6
CONTINUOUS
 10
-49.1541992518
 20
8.3714285059
 11
-47.8541992518
 21
9.0929285059
  0
LINE
  5
54C
100
AcDbEntity
  8
ASSI
100
AcDbLine
 62
250
  6
CONTINUOUS
 10
-49.2796794251
 20
-23.7507734247
 11
-49.2796794251
 21
-22.3338981669
  0
LINE
  5
54D
100
AcDbEntity
  8
ASSI
100
AcDbLine
 62
250
  6
CONTINUOUS
 10
-49.2796794251
 20
22.3338981669
 11
-49.2796794251
 21
23.7507734247
  0
LINE
  5
54E
100
AcDbEntity
  8
0
100
AcDbLine
 62
250
  6
CONTINUOUS
 10
-49.1541992518
 20
12.3912140236
 11
-49.1541992518
 21
11.5666429882
  0
LINE
  5
54F
100
AcDbEntity
  8
0
100
AcDbLine
 62
250
  6
CONTINUOUS
 10
-49.1541992518
 20
3.9737143103
 11
-49.1541992518
 21
4.4890713794
  0
LINE
  5
550
100
AcDbEntity
  8
0
100
AcDbLine
 62
250
  6
CONTINUOUS
 10
-49.1541992518
 20
5.2792857471
 11
-49.1541992518
 21
5.8977143676
  0
LWPOLYLINE
  5
551
100
AcDbEntity
  8
RACCORDO
100
AcDbPolyline
 62
250
  6
CONTINUOUS
 90
8
 70
0
 10
-56.102744819
 20
-24.495628166
 10
-56.1026708689
 20
-24.4952867588
 10
-56.1026010455
 20
-24.4942634962
 10
-56.1025355474
 20
-24.492559892
 10
-56.1024745498
 20
-24.4901787618
 10
-56.1024182428
 20
-24.4871256484
 10
-56.1023668205
 20
-24.4834102087
 10
-56.1022791971
 20
-24.4740372277
  0
LWPOLYLINE
  5
552
100
AcDbEntity
  8
0
100
AcDbPolyline
 62
7
  6
CONTINUOUS
 90
3
 70
0
 43
0.3500000006
 10
-38.6256258545
 20
34.0357120514
 10
-38.6970570374
 20
33.8214275665
 10
-38.8399148712
 20
33.5357164307
  0
LINE
  5
553
100
AcDbEntity
  8
0
100
AcDbLine
 62
250
  6
CONTINUOUS
 10
-49.1541992518
 20
4.4890713794
 11
-48.9684849772
 21
4.6952141383
  0
LINE
  5
554
100
AcDbEntity
  8
0
100
AcDbLine
 62
250
  6
CONTINUOUS
 10
-33.626556407
 20
16.4285714507
 11
-33.2142707173
 21
16.8
  0
LINE
  5
555
100
AcDbEntity
  8
0
100
AcDbLine
 62
250
  6
CONTINUOUS
 10
-49.1541992518
 20
3.1491429309
 11
-47.8541992518
 21
3.5614286206
  0
LINE
  5
556
100
AcDbEntity
  8
RACCORDO
100
AcDbLine
 62
7
  6
CONTINUOUS
 10
-24.2367468454
 20
-5.7226659647
 11
-45.8541992518
 21
-6.1
  0
LINE
  5
557
100
AcDbEntity
  8
0
100
AcDbLine
 62
7
  6
CONTINUOUS
 10
-24.2367468454
 20
-5.7226659647
 11
-45.8541992518
 21
-6.1
  0
LINE
  5
558
100
AcDbEntity
  8
RACCORDO
100
AcDbLine
 62
250
  6
CONTINUOUS
 10
-24.2367468454
 20
-4.7228182695
 11
-45.8541992518
 21
-5.1001523048
  0
LINE
  5
559
100
AcDbEntity
  8
0
100
AcDbLine
 62
250
  6
CONTINUOUS
 10
-24.2367468454
 20
-4.7228182695
 11
-45.8541992518
 21
-5.1001523048
  0
LINE
  5
55A
100
AcDbEntity
  8
RACCORDO
100
AcDbLine
 62
250
  6
CONTINUOUS
 10
-23.2541992518
 20
-4.7228182695
 11
-24.2367468454
 21
-4.7228182695
  0
LINE
  5
55B
100
AcDbEntity
  8
0
100
AcDbLine
 62
250
  6
CONTINUOUS
 10
-23.2541992518
 20
-4.7228182695
 11
-24.2367468454
 21
-4.7228182695
  0
LINE
  5
55C
100
AcDbEntity
  8
ASSI
100
AcDbLine
 62
7
  6
CONTINUOUS
 10
-48.8541992518
 20
-23.2563578147
 11
-48.8541992518
 21
-22.3301850577
  0
LINE
  5
55D
100
AcDbEntity
  8
ASSI
100
AcDbLine
 62
7
  6
CONTINUOUS
 10
-48.8541992518
 20
22.3301850577
 11
-48.8541992518
 21
23.2563578147
  0
LINE
  5
55E
100
AcDbEntity
  8
0
100
AcDbLine
 62
250
  6
CONTINUOUS
 10
-48.5970564279
 20
5.2792857471
 11
-48.5970564279
 21
5.6915712647
  0
LINE
  5
55F
100
AcDbEntity
  8
0
100
AcDbLine
 62
250
  6
CONTINUOUS
 10
-48.2256278399
 20
13.4906425295
 11
-48.2256278399
 21
12.9409282765
  0
LINE
  5
560
100
AcDbEntity
  8
0
100
AcDbLine
 62
250
  6
CONTINUOUS
 10
-48.2256278399
 20
3.4240000573
 11
-48.2256278399
 21
2.8742857184
  0
LINE
  5
561
100
AcDbEntity
  8
0
100
AcDbLine
 62
250
  6
CONTINUOUS
 10
-47.8541992518
 20
14.5557140236
 11
-47.8541992518
 21
14.0403574705
  0
LINE
  5
562
100
AcDbEntity
  8
0
100
AcDbLine
 62
250
  6
CONTINUOUS
 10
-47.8541992518
 20
5.8977143676
 11
-47.8541992518
 21
5.2792857471
  0
LINE
  5
563
100
AcDbEntity
  8
0
100
AcDbLine
 62
250
  6
CONTINUOUS
 10
-47.8541992518
 20
4.4890713794
 11
-47.8541992518
 21
3.9737143103
  0
LWPOLYLINE
  5
564
100
AcDbEntity
  8
0
100
AcDbPolyline
 62
7
  6
CONTINUOUS
 90
2
 70
0
 43
0.3500000006
 10
-47.7684864349
 20
43.7499994354
 10
-47.7684864349
 20
45.2499998932
  0
LINE
  5
565
100
AcDbEntity
  8
0
100
AcDbLine
 62
250
  6
CONTINUOUS
 10
-38.7927706313
 20
14.8
 11
-39.6173420967
 21
13.5
  0
LINE
  5
566
100
AcDbEntity
  8
0
100
AcDbLine
 62
250
  6
CONTINUOUS
 10
-36.9704135621
 20
16.8
 11
-37.176556407
 21
16.5214285493
  0
LINE
  5
567
100
AcDbEntity
  8
0
100
AcDbLine
 62
250
  6
CONTINUOUS
 10
-37.176556407
 20
15.5
 11
-36.455056321
 21
16.4285714507
  0
LINE
  5
568
100
AcDbEntity
  8
0
100
AcDbLine
 62
250
  6
CONTINUOUS
 10
-49.1541992518
 20
1.5
 11
-48.4113421145
 21
1.9122857327
  0
LINE
  5
569
100
AcDbEntity
  8
0
100
AcDbLine
 62
250
  6
CONTINUOUS
 10
-26.8539134298
 20
-2.4
 11
-27.9084135555
 21
-2.4
  0
LINE
  5
56A
100
AcDbEntity
  8
0
100
AcDbLine
 62
250
  6
CONTINUOUS
 10
-28.5109849482
 20
-2.4
 11
-29.2641992518
 21
-2.4
  0
LINE
  5
56B
100
AcDbEntity
  8
RACCORDO
100
AcDbLine
 62
250
  6
CONTINUOUS
 10
-46.3454730486
 20
21.5659754333
 11
-46.3454730486
 21
20.9917082642
  0
LINE
  5
56C
100
AcDbEntity
  8
RACCORDO
100
AcDbLine
 62
250
  6
CONTINUOUS
 10
-46.3454730486
 20
-20.9917082642
 11
-46.3454730486
 21
-21.5659754333
  0
LINE
  5
56D
100
AcDbEntity
  8
0
100
AcDbLine
 62
7
  6
CONTINUOUS
 10
-45.8541992518
 20
-20.6754493507
 11
-45.8541992518
 21
20.6754493507
  0
LINE
  5
56E
100
AcDbEntity
  8
RACCORDO
100
AcDbLine
 62
7
  6
CONTINUOUS
 10
-45.8541992518
 20
-21.3126932437
 11
-45.8541992518
 21
21.3126932437
  0
LINE
  5
56F
100
AcDbEntity
  8
0
100
AcDbLine
 62
250
  6
CONTINUOUS
 10
-30.7611992518
 20
14.8
 11
-30.9673420967
 21
14.6142857254
  0
LINE
  5
570
100
AcDbEntity
  8
0
100
AcDbLine
 62
250
  6
CONTINUOUS
 10
-30.2458421827
 20
13.685714294
 11
-30.4519849415
 21
13.5
  0
LWPOLYLINE
  5
571
100
AcDbEntity
  8
0
100
AcDbPolyline
 62
7
  6
CONTINUOUS
 90
2
 70
0
 43
0.3500000006
 10
-75.1042012939
 20
-1.3571429443
 10
-76.6042017517
 20
-1.3571429443
  0
LINE
  5
572
100
AcDbEntity
  8
0
100
AcDbLine
 62
250
  6
CONTINUOUS
 10
-27.1551992518
 20
-0.5
 11
-27.6071278592
 21
-0.5
  0
LINE
  5
573
100
AcDbEntity
  8
0
100
AcDbLine
 62
250
  6
CONTINUOUS
 10
-33.6590563408
 20
-0.5
 11
-34.8641992518
 21
-0.5
  0
LINE
  5
574
100
AcDbEntity
  8
0
100
AcDbLine
 62
250
  6
CONTINUOUS
 10
-48.4113421145
 20
1.9122857327
 11
-49.1541992518
 21
2.3245714654
  0
LINE
  5
575
100
AcDbEntity
  8
0
100
AcDbLine
 62
250
  6
CONTINUOUS
 10
-43.7852434621
 20
4.7218131513
 11
-43.7886790103
 21
5.1154879757
  0
LINE
  5
576
100
AcDbEntity
  8
0
100
AcDbLine
 62
250
  6
CONTINUOUS
 10
-43.7852434621
 20
1.4781868487
 11
-43.7886790103
 21
1.0845120243
  0
LWPOLYLINE
  5
577
100
AcDbEntity
  8
RACCORDO
100
AcDbPolyline
 62
250
  6
CONTINUOUS
 90
5
 70
0
 10
-55.9816948543
 20
-23.6326765842
 10
-55.9805624783
 20
-23.6305857918
 10
-55.9797677927
 20
-23.6290788219
 10
-55.9793129699
 20
-23.6281597935
 10
-55.9791992518
 20
-23.6278312164
  0
LINE
  5
578
100
AcDbEntity
  8
RACCORDO
100
AcDbLine
 62
250
  6
CONTINUOUS
 10
-55.9849594046
 20
-23.6385852371
 11
-55.9816948543
 21
-23.6326765842
  0
LINE
  5
579
100
AcDbEntity
  8
RACCORDO
100
AcDbLine
 62
250
  6
CONTINUOUS
 10
-55.9922822621
 20
-23.6516334796
 11
-55.9849594046
 21
-23.6385852371
  0
LINE
  5
57A
100
AcDbEntity
  8
RACCORDO
100
AcDbLine
 62
250
  6
CONTINUOUS
 10
-56.0149195177
 20
-23.6914794042
 11
-55.9922822621
 21
-23.6516334796
  0
LINE
  5
57B
100
AcDbEntity
  8
RACCORDO
100
AcDbLine
 62
250
  6
CONTINUOUS
 10
-56.0897233828
 20
-23.821769291
 11
-56.0149195177
 21
-23.6914794042
  0
LINE
  5
57C
100
AcDbEntity
  8
RACCORDO
100
AcDbLine
 62
250
  6
CONTINUOUS
 10
-56.102744819
 20
-23.8443375673
 11
-56.0897233828
 21
-23.821769291
  0
LINE
  5
57D
100
AcDbEntity
  8
0
100
AcDbLine
 62
250
  6
CONTINUOUS
 10
-47.8541992518
 20
1.5
 11
-49.1541992518
 21
1.5
  0
LINE
  5
57E
100
AcDbEntity
  8
ASSI
100
AcDbLine
 62
250
  6
CONTINUOUS
 10
-27.0041992518
 20
2.05
 11
-29.5041992518
 21
2.05
  0
LINE
  5
57F
100
AcDbEntity
  8
ASSI
100
AcDbLine
 62
250
  6
CONTINUOUS
 10
-32.0041992518
 20
2.05
 11
-34.5041992518
 21
2.05
  0
LINE
  5
580
100
AcDbEntity
  8
0
100
AcDbLine
 62
250
  6
CONTINUOUS
 10
-49.1541992518
 20
2.3245714654
 11
-47.8541992518
 21
2.3245714654
  0
LINE
  5
581
100
AcDbEntity
  8
ASSI
100
AcDbLine
 62
7
  6
CONTINUOUS
 10
-34.5041992518
 20
2.45
 11
-32.0041992518
 21
2.45
  0
LINE
  5
582
100
AcDbEntity
  8
ASSI
100
AcDbLine
 62
7
  6
CONTINUOUS
 10
-29.5041992518
 20
2.45
 11
-27.0041992518
 21
2.45
  0
LINE
  5
583
100
AcDbEntity
  8
RACCORDO
100
AcDbLine
 62
7
  6
CONTINUOUS
 10
-24.2367468454
 20
1.0053341455
 11
-43.7886790103
 21
1.0845120243
  0
LINE
  5
584
100
AcDbEntity
  8
0
100
AcDbLine
 62
7
  6
CONTINUOUS
 10
-24.2367468454
 20
1.0053341455
 11
-43.7886790103
 21
1.0845120243
  0
LINE
  5
585
100
AcDbEntity
  8
0
100
AcDbLine
 62
7
  6
CONTINUOUS
 10
-27.2070367195
 20
1.3722782751
 11
-43.7852434621
 21
1.4781868487
  0
LINE
  5
586
100
AcDbEntity
  8
0
100
AcDbLine
 62
7
  6
CONTINUOUS
 10
-23.2541992518
 20
1.3377823851
 11
-27.2070367195
 21
1.3722782751
  0
LINE
  5
587
100
AcDbEntity
  8
0
100
AcDbLine
 62
250
  6
CONTINUOUS
 10
-47.8541992518
 20
2.7368571551
 11
-49.1541992518
 21
3.1491429309
  0
LINE
  5
588
100
AcDbEntity
  8
0
100
AcDbLine
 62
250
  6
CONTINUOUS
 10
-48.0399135458
 20
4.6952141383
 11
-47.8541992518
 21
4.4890713794
  0
LINE
  5
589
100
AcDbEntity
  8
RACCORDO
100
AcDbLine
 62
250
  6
CONTINUOUS
 10
-56.102744819
 20
23.8443375673
 11
-56.0405458135
 21
23.7362657898
  0
LINE
  5
58A
100
AcDbEntity
  8
RACCORDO
100
AcDbLine
 62
250
  6
CONTINUOUS
 10
-56.0405458135
 20
23.7362657898
 11
-55.9986997454
 21
23.6629768418
  0
LINE
  5
58B
100
AcDbEntity
  8
RACCORDO
100
AcDbLine
 62
250
  6
CONTINUOUS
 10
-55.9986997454
 20
23.6629768418
 11
-55.9870810938
 21
23.6423841576
  0
LWPOLYLINE
  5
58C
100
AcDbEntity
  8
RACCORDO
100
AcDbPolyline
 62
250
  6
CONTINUOUS
 90
7
 70
0
 10
-55.9870810938
 20
23.6423841576
 10
-55.9831610364
 20
23.6353440559
 10
-55.9816943488
 20
23.6326756587
 10
-55.9805621965
 20
23.6305852658
 10
-55.9797676711
 20
23.6290785857
 10
-55.9793129423
 20
23.6281597328
 10
-55.9791992518
 20
23.6278312164
  0
LINE
  5
58D
100
AcDbEntity
  8
0
100
AcDbLine
 62
250
  6
CONTINUOUS
 10
-40.4419135191
 20
14.8
 11
-40.4419135191
 21
13.5
  0
LINE
  5
58E
100
AcDbEntity
  8
0
100
AcDbLine
 62
7
  6
CONTINUOUS
 10
-23.2541992518
 20
4.8622176149
 11
-27.2070367195
 21
4.8277217249
  0
LINE
  5
58F
100
AcDbEntity
  8
0
100
AcDbLine
 62
250
  6
CONTINUOUS
 10
-47.8541992518
 20
3.9737143103
 11
-49.1541992518
 21
3.9737143103
  0
LINE
  5
590
100
AcDbEntity
  8
0
100
AcDbLine
 62
250
  6
CONTINUOUS
 10
-48.9684849772
 20
4.6952141383
 11
-48.0399135458
 21
4.6952141383
  0
LINE
  5
591
100
AcDbEntity
  8
0
100
AcDbLine
 62
250
  6
CONTINUOUS
 10
-38.1041992518
 20
15.5
 11
-38.1041992518
 21
16.8
  0
LINE
  5
592
100
AcDbEntity
  8
0
100
AcDbLine
 62
7
  6
CONTINUOUS
 10
-27.2070367195
 20
4.8277217249
 11
-43.7852434621
 21
4.7218131513
  0
LINE
  5
593
100
AcDbEntity
  8
RACCORDO
100
AcDbLine
 62
7
  6
CONTINUOUS
 10
-24.2367468454
 20
5.1946658545
 11
-43.7886790103
 21
5.1154879757
  0
LINE
  5
594
100
AcDbEntity
  8
0
100
AcDbLine
 62
7
  6
CONTINUOUS
 10
-24.2367468454
 20
5.1946658545
 11
-43.7886790103
 21
5.1154879757
  0
LINE
  5
595
100
AcDbEntity
  8
0
100
AcDbLine
 62
250
  6
CONTINUOUS
 10
-47.8541992518
 20
5.2792857471
 11
-49.1541992518
 21
5.2792857471
  0
LINE
  5
596
100
AcDbEntity
  8
0
100
AcDbLine
 62
250
  6
CONTINUOUS
 10
-37.7541992518
 20
7.9
 11
-37.7541992518
 21
11.5
  0
LINE
  5
597
100
AcDbEntity
  8
0
100
AcDbLine
 62
250
  6
CONTINUOUS
 10
-36.7541992518
 20
6.9
 11
-36.7541992518
 21
7.9
  0
LINE
  5
598
100
AcDbEntity
  8
0
100
AcDbLine
 62
250
  6
CONTINUOUS
 10
-36.455056321
 20
16.4285714507
 11
-36.455056321
 21
16.6142857254
  0
LINE
  5
599
100
AcDbEntity
  8
0
100
AcDbLine
 62
250
  6
CONTINUOUS
 10
-36.4041992518
 20
10.0
 11
-36.4041992518
 21
13.5
  0
LINE
  5
59A
100
AcDbEntity
  8
0
100
AcDbLine
 62
250
  6
CONTINUOUS
 10
-35.8041992518
 20
15.5
 11
-35.8041992518
 21
10.0
  0
LINE
  5
59B
100
AcDbEntity
  8
0
100
AcDbLine
 62
7
  6
CONTINUOUS
 10
-35.7541992518
 20
1.4268811526
 11
-35.7541992518
 21
4.7731188474
  0
LINE
  5
59C
100
AcDbEntity
  8
ASSI
100
AcDbLine
 62
7
  6
CONTINUOUS
 10
-34.5041992518
 20
2.05
 11
-34.8187467081
 21
1.4209050874
  0
LINE
  5
59D
100
AcDbEntity
  8
0
100
AcDbLine
 62
250
  6
CONTINUOUS
 10
-34.2541992518
 20
6.9
 11
-36.7541992518
 21
6.9
  0
LINE
  5
59E
100
AcDbEntity
  8
0
100
AcDbLine
 62
250
  6
CONTINUOUS
 10
-49.1541992518
 20
7.7186425295
 11
-47.8541992518
 21
7.7186425295
  0
LINE
  5
59F
100
AcDbEntity
  8
0
100
AcDbLine
 62
250
  6
CONTINUOUS
 10
-33.2541992518
 20
7.9
 11
-34.2541992518
 21
7.9
  0
LINE
  5
5A0
100
AcDbEntity
  8
0
100
AcDbLine
 62
250
  6
CONTINUOUS
 10
-36.7541992518
 20
7.9
 11
-37.7541992518
 21
7.9
  0
LINE
  5
5A1
100
AcDbEntity
  8
0
100
AcDbLine
 62
250
  6
CONTINUOUS
 10
-47.8541992518
 20
8.3714285059
 11
-49.1541992518
 21
8.3714285059
  0
LINE
  5
5A2
100
AcDbEntity
  8
0
100
AcDbLine
 62
250
  6
CONTINUOUS
 10
-47.8541992518
 20
9.0929285059
 11
-49.1541992518
 21
9.0929285059
  0
LINE
  5
5A3
100
AcDbEntity
  8
0
100
AcDbLine
 62
7
  6
CONTINUOUS
 10
-35.3041992518
 20
4.7759936371
 11
-35.3041992518
 21
1.4240063629
  0
LINE
  5
5A4
100
AcDbEntity
  8
0
100
AcDbLine
 62
250
  6
CONTINUOUS
 10
-35.2041992518
 20
10.0
 11
-35.2041992518
 21
15.5
  0
LINE
  5
5A5
100
AcDbEntity
  8
0
100
AcDbLine
 62
250
  6
CONTINUOUS
 10
-34.6041992518
 20
13.5
 11
-34.6041992518
 21
10.0
  0
LINE
  5
5A6
100
AcDbEntity
  8
0
100
AcDbLine
 62
250
  6
CONTINUOUS
 10
-34.5541992518
 20
15.5
 11
-34.5541992518
 21
16.8
  0
LINE
  5
5A7
100
AcDbEntity
  8
ASSI
100
AcDbLine
 62
7
  6
CONTINUOUS
 10
-34.5041992518
 20
2.05
 11
-34.5041992518
 21
2.45
  0
LINE
  5
5A8
100
AcDbEntity
  8
0
100
AcDbLine
 62
250
  6
CONTINUOUS
 10
-34.2616277963
 20
-0.5
 11
-34.2616277963
 21
-2.4
  0
LINE
  5
5A9
100
AcDbEntity
  8
0
100
AcDbLine
 62
250
  6
CONTINUOUS
 10
-34.2541992518
 20
7.9
 11
-34.2541992518
 21
6.9
  0
LINE
  5
5AA
100
AcDbEntity
  8
0
100
AcDbLine
 62
250
  6
CONTINUOUS
 10
-31.8513420371
 20
-0.5
 11
-33.0564849482
 21
-2.4
  0
LINE
  5
5AB
100
AcDbEntity
  8
0
100
AcDbLine
 62
250
  6
CONTINUOUS
 10
-49.1541992518
 20
10.9138570118
 11
-47.8541992518
 21
10.9138570118
  0
LINE
  5
5AC
100
AcDbEntity
  8
0
100
AcDbLine
 62
250
  6
CONTINUOUS
 10
-47.8541992518
 20
12.8035002294
 11
-49.1541992518
 21
13.215785059
  0
LINE
  5
5AD
100
AcDbEntity
  8
0
100
AcDbLine
 62
250
  6
CONTINUOUS
 10
-49.1541992518
 20
15.7925719528
 11
-48.5970564279
 21
15.380285059
  0
LINE
  5
5AE
100
AcDbEntity
  8
0
100
AcDbLine
 62
250
  6
CONTINUOUS
 10
-31.8513420371
 20
-2.4
 11
-33.0564849482
 21
-0.5
  0
LINE
  5
5AF
100
AcDbEntity
  8
0
100
AcDbLine
 62
250
  6
CONTINUOUS
 10
-33.2541992518
 20
11.5
 11
-33.2541992518
 21
7.9
  0
LINE
  5
5B0
100
AcDbEntity
  8
0
100
AcDbLine
 62
250
  6
CONTINUOUS
 10
-33.2142707173
 20
16.8
 11
-33.2142707173
 21
15.5
  0
LINE
  5
5B1
100
AcDbEntity
  8
ASSI
100
AcDbLine
 62
7
  6
CONTINUOUS
 10
-32.0041992518
 20
2.05
 11
-32.0041992518
 21
2.45
  0
LINE
  5
5B2
100
AcDbEntity
  8
0
100
AcDbLine
 62
250
  6
CONTINUOUS
 10
-31.7919135191
 20
14.8
 11
-31.7919135191
 21
13.5
  0
LINE
  5
5B3
100
AcDbEntity
  8
ASSI
100
AcDbLine
 62
7
  6
CONTINUOUS
 10
-29.5041992518
 20
2.05
 11
-29.8346669096
 21
1.3890646845
  0
LINE
  5
5B4
100
AcDbEntity
  8
RACCORDO
100
AcDbLine
 62
7
  6
CONTINUOUS
 10
-58.3541992518
 20
-23.1226497308
 11
-59.2291992518
 21
-23.6278312164
  0
LINE
  5
5B5
100
AcDbEntity
  8
0
100
AcDbLine
 62
250
  6
CONTINUOUS
 10
-37.7541992518
 20
11.5
 11
-33.2541992518
 21
11.5
  0
LINE
  5
5B6
100
AcDbEntity
  8
0
100
AcDbLine
 62
250
  6
CONTINUOUS
 10
-49.1541992518
 20
11.9789285059
 11
-47.8541992518
 21
11.9789285059
  0
LINE
  5
5B7
100
AcDbEntity
  8
RACCORDO
100
AcDbLine
 62
7
  6
CONTINUOUS
 10
-59.2291992518
 20
23.6278312164
 11
-58.3541992518
 21
23.1226497308
  0
LINE
  5
5B8
100
AcDbEntity
  8
0
100
AcDbLine
 62
250
  6
CONTINUOUS
 10
-26.8539134298
 20
-0.7714285553
 11
-27.1551992518
 21
-0.5
  0
LINE
  5
5B9
100
AcDbEntity
  8
0
100
AcDbLine
 62
250
  6
CONTINUOUS
 10
-38.7927706313
 20
13.5
 11
-39.6173420967
 21
14.8
  0
LINE
  5
5BA
100
AcDbEntity
  8
ASSI
100
AcDbLine
 62
7
  6
CONTINUOUS
 10
-31.6796247784
 20
1.4008510531
 11
-32.0041992518
 21
2.05
  0
LINE
  5
5BB
100
AcDbEntity
  8
0
100
AcDbLine
 62
7
  6
CONTINUOUS
 10
-31.2041992518
 20
4.8021861656
 11
-31.2041992518
 21
1.3978138344
  0
LINE
  5
5BC
100
AcDbEntity
  8
0
100
AcDbLine
 62
250
  6
CONTINUOUS
 10
-30.9673420967
 20
14.6142857254
 11
-30.9673420967
 21
14.4285714507
  0
LINE
  5
5BD
100
AcDbEntity
  8
0
100
AcDbLine
 62
7
  6
CONTINUOUS
 10
-30.3041992518
 20
4.807935745
 11
-30.3041992518
 21
1.392064255
  0
LINE
  5
5BE
100
AcDbEntity
  8
0
100
AcDbLine
 62
250
  6
CONTINUOUS
 10
-30.2458421827
 20
13.871428588
 11
-30.2458421827
 21
13.685714294
  0
LINE
  5
5BF
100
AcDbEntity
  8
ASSI
100
AcDbLine
 62
7
  6
CONTINUOUS
 10
-29.5041992518
 20
2.05
 11
-29.5041992518
 21
2.45
  0
LINE
  5
5C0
100
AcDbEntity
  8
0
100
AcDbLine
 62
250
  6
CONTINUOUS
 10
-29.2641992518
 20
-2.4
 11
-29.2641992518
 21
-0.5
  0
LINE
  5
5C1
100
AcDbEntity
  8
0
100
AcDbLine
 62
250
  6
CONTINUOUS
 10
-27.6071278592
 20
-0.5
 11
-27.9084135555
 21
-0.9071428895
  0
LINE
  5
5C2
100
AcDbEntity
  8
0
100
AcDbLine
 62
250
  6
CONTINUOUS
 10
-27.9084135555
 20
-2.4
 11
-26.8539134298
 21
-1.0428571105
  0
LINE
  5
5C3
100
AcDbEntity
  8
RACCORDO
100
AcDbLine
 62
250
  6
CONTINUOUS
 10
-58.1056536847
 20
-23.2669872981
 11
-59.1056536847
 21
-23.8443375673
  0
LINE
  5
5C4
100
AcDbEntity
  8
0
100
AcDbLine
 62
250
  6
CONTINUOUS
 10
-30.4519849415
 20
13.5
 11
-30.8642707173
 21
13.5
  0
LINE
  5
5C5
100
AcDbEntity
  8
0
100
AcDbLine
 62
250
  6
CONTINUOUS
 10
-32.2541992518
 20
13.5
 11
-34.6041992518
 21
13.5
  0
LINE
  5
5C6
100
AcDbEntity
  8
0
100
AcDbLine
 62
250
  6
CONTINUOUS
 10
-36.4041992518
 20
13.5
 11
-38.7541992518
 21
13.5
  0
LINE
  5
5C7
100
AcDbEntity
  8
0
100
AcDbLine
 62
250
  6
CONTINUOUS
 10
-47.8541992518
 20
14.0403574705
 11
-49.1541992518
 21
14.0403574705
  0
LINE
  5
5C8
100
AcDbEntity
  8
0
100
AcDbLine
 62
250
  6
CONTINUOUS
 10
-30.3489135621
 20
14.8
 11
-30.7611992518
 21
14.8
  0
LINE
  5
5C9
100
AcDbEntity
  8
0
100
AcDbLine
 62
250
  6
CONTINUOUS
 10
-31.3796277864
 20
14.8
 11
-32.2041992518
 21
14.8
  0
LINE
  5
5CA
100
AcDbEntity
  8
0
100
AcDbLine
 62
250
  6
CONTINUOUS
 10
-40.0296277864
 20
14.8
 11
-40.8541992518
 21
14.8
  0
LINE
  5
5CB
100
AcDbEntity
  8
0
100
AcDbLine
 62
250
  6
CONTINUOUS
 10
-48.5970564279
 20
15.380285059
 11
-47.8541992518
 21
15.380285059
  0
LINE
  5
5CC
100
AcDbEntity
  8
0
100
AcDbLine
 62
250
  6
CONTINUOUS
 10
-36.4041992518
 20
15.5
 11
-35.8041992518
 21
15.5
  0
LINE
  5
5CD
100
AcDbEntity
  8
0
100
AcDbLine
 62
250
  6
CONTINUOUS
 10
-35.2041992518
 20
15.5
 11
-34.6041992518
 21
15.5
  0
LINE
  5
5CE
100
AcDbEntity
  8
0
100
AcDbLine
 62
250
  6
CONTINUOUS
 10
-34.0388420967
 20
15.5
 11
-34.5541992518
 21
15.5
  0
LINE
  5
5CF
100
AcDbEntity
  8
0
100
AcDbLine
 62
250
  6
CONTINUOUS
 10
-36.455056321
 20
15.5
 11
-37.176556407
 21
15.5
  0
LINE
  5
5D0
100
AcDbEntity
  8
0
100
AcDbLine
 62
250
  6
CONTINUOUS
 10
-37.5888420967
 20
15.5
 11
-38.1041992518
 21
15.5
  0
LINE
  5
5D1
100
AcDbEntity
  8
RACCORDO
100
AcDbLine
 62
250
  6
CONTINUOUS
 10
-59.1056536847
 20
23.8443375673
 11
-58.1056536847
 21
23.2669872981
  0
LINE
  5
5D2
100
AcDbEntity
  8
ASSI
100
AcDbLine
 62
7
  6
CONTINUOUS
 10
-27.0041992518
 20
2.05
 11
-27.0041992518
 21
2.45
  0
LWPOLYLINE
  5
5D3
100
AcDbEntity
  8
RACCORDO
100
AcDbPolyline
 62
250
  6
CONTINUOUS
 90
14
 70
0
 10
-24.2367468454
 20
-5.7226659647
 10
-24.2362728194
 20
-5.7222780869
 10
-24.2358124013
 20
-5.7211315278
 10
-24.2353659404
 20
-5.7192271575
 10
-24.2349337758
 20
-5.7165664217
 10
-24.2345162354
 20
-5.7131513401
 10
-24.2341136363
 20
-5.7089845052
 10
-24.2337262839
 20
-5.7040690798
 10
-24.2333544724
 20
-5.6984087952
 10
-24.232998484
 20
-5.6920079482
 10
-24.2326585889
 20
-5.6848713976
 10
-24.2323350452
 20
-5.6770045606
 10
-24.2320280984
 20
-5.6684134089
 10
-24.2314649148
 20
-5.6490847921
  0
LWPOLYLINE
  5
5D4
100
AcDbEntity
  8
0
100
AcDbPolyline
 62
250
  6
CONTINUOUS
 90
14
 70
0
 10
-24.2367468454
 20
-5.7226659647
 10
-24.2362728194
 20
-5.7222780869
 10
-24.2358124013
 20
-5.7211315278
 10
-24.2353659404
 20
-5.7192271575
 10
-24.2349337758
 20
-5.7165664217
 10
-24.2345162354
 20
-5.7131513401
 10
-24.2341136363
 20
-5.7089845052
 10
-24.2337262839
 20
-5.7040690798
 10
-24.2333544724
 20
-5.6984087952
 10
-24.232998484
 20
-5.6920079482
 10
-24.2326585889
 20
-5.6848713976
 10
-24.2323350452
 20
-5.6770045606
 10
-24.2320280984
 20
-5.6684134089
 10
-24.2314649148
 20
-5.6490847921
  0
LINE
  5
5D5
100
AcDbEntity
  8
0
100
AcDbLine
 62
250
  6
CONTINUOUS
 10
-36.6611992518
 20
16.8
 11
-36.9704135621
 21
16.8
  0
LINE
  5
5D6
100
AcDbEntity
  8
RACCORDO
100
AcDbLine
 62
250
  6
CONTINUOUS
 10
-45.8541992518
 20
17.5993978025
 11
-55.8541992518
 21
17.6716990487
  0
LINE
  5
5D7
100
AcDbEntity
  8
0
100
AcDbLine
 62
250
  6
CONTINUOUS
 10
-45.8541992518
 20
17.5993978025
 11
-55.8541992518
 21
17.6716990487
  0
LINE
  5
5D8
100
AcDbEntity
  8
ASSI
100
AcDbLine
 62
7
  6
CONTINUOUS
 10
-26.6629643656
 20
1.3675302276
 11
-27.0041992518
 21
2.05
  0
LINE
  5
5D9
100
AcDbEntity
  8
0
100
AcDbLine
 62
250
  6
CONTINUOUS
 10
-26.8539134298
 20
-1.0428571105
 11
-26.8539134298
 21
-0.7714285553
  0
LINE
  5
5DA
100
AcDbEntity
  8
0
100
AcDbLine
 62
7
  6
CONTINUOUS
 10
-26.2041992518
 20
4.8364733549
 11
-26.2041992518
 21
1.3635266451
  0
LINE
  5
5DB
100
AcDbEntity
  8
0
100
AcDbLine
 62
7
  6
CONTINUOUS
 10
-25.7541992518
 20
1.3595995546
 11
-25.7541992518
 21
4.8404004454
  0
LINE
  5
5DC
100
AcDbEntity
  8
RACCORDO
100
AcDbLine
 62
250
  6
CONTINUOUS
 10
-23.2541992518
 20
18.1228182695
 11
-24.2367468454
 21
18.1228182695
  0
LINE
  5
5DD
100
AcDbEntity
  8
0
100
AcDbLine
 62
250
  6
CONTINUOUS
 10
-23.2541992518
 20
18.1228182695
 11
-24.2367468454
 21
18.1228182695
  0
LINE
  5
5DE
100
AcDbEntity
  8
RACCORDO
100
AcDbLine
 62
250
  6
CONTINUOUS
 10
-45.8541992518
 20
19.0133959733
 11
-55.8541992518
 21
19.0856972195
  0
LINE
  5
5DF
100
AcDbEntity
  8
0
100
AcDbLine
 62
250
  6
CONTINUOUS
 10
-45.8541992518
 20
19.0133959733
 11
-55.8541992518
 21
19.0856972195
  0
LINE
  5
5E0
100
AcDbEntity
  8
RACCORDO
100
AcDbLine
 62
250
  6
CONTINUOUS
 10
-45.8541992518
 20
18.5001523048
 11
-24.2367468454
 21
18.1228182695
  0
LINE
  5
5E1
100
AcDbEntity
  8
0
100
AcDbLine
 62
250
  6
CONTINUOUS
 10
-45.8541992518
 20
18.5001523048
 11
-24.2367468454
 21
18.1228182695
  0
LINE
  5
5E2
100
AcDbEntity
  8
RACCORDO
100
AcDbLine
 62
7
  6
CONTINUOUS
 10
-45.8541992518
 20
19.5
 11
-24.2367468454
 21
19.1226659647
  0
LINE
  5
5E3
100
AcDbEntity
  8
0
100
AcDbLine
 62
7
  6
CONTINUOUS
 10
-45.8541992518
 20
19.5
 11
-24.2367468454
 21
19.1226659647
  0
LINE
  5
5E4
100
AcDbEntity
  8
RACCORDO
100
AcDbLine
 62
250
  6
CONTINUOUS
 10
-65.4403544215
 20
20.5419058565
 11
-65.865726566
 21
20.559595439
  0
LINE
  5
5E5
100
AcDbEntity
  8
RACCORDO
100
AcDbLine
 62
250
  6
CONTINUOUS
 10
-65.865726566
 20
20.559595439
 11
-65.9262344186
 21
20.5622131687
  0
LWPOLYLINE
  5
5E6
100
AcDbEntity
  8
RACCORDO
100
AcDbPolyline
 62
250
  6
CONTINUOUS
 90
3
 70
0
 10
-65.9262344186
 20
20.5622131687
 10
-65.9306525593
 20
20.5624286744
 10
-65.9312052243
 20
20.5624683248
  0
LINE
  5
5E7
100
AcDbEntity
  8
0
100
AcDbLine
 62
250
  6
CONTINUOUS
 10
-30.9673420967
 20
14.4285714507
 11
-30.2458421827
 21
13.871428588
  0
LINE
  5
5E8
100
AcDbEntity
  8
0
100
AcDbLine
 62
250
  6
CONTINUOUS
 10
-36.455056321
 20
16.6142857254
 11
-36.6611992518
 21
16.8
  0
LINE
  5
5E9
100
AcDbEntity
  8
0
100
AcDbLine
 62
250
  6
CONTINUOUS
 10
-30.8642707173
 20
13.5
 11
-30.9673420967
 21
13.592857147
  0
LWPOLYLINE
  5
5EA
100
AcDbEntity
  8
RACCORDO
100
AcDbPolyline
 62
250
  6
CONTINUOUS
 90
13
 70
0
 10
-24.2320280984
 20
19.0684134089
 10
-24.2323350452
 20
19.0770045606
 10
-24.2326585889
 20
19.0848713976
 10
-24.232998484
 20
19.0920079482
 10
-24.2333544724
 20
19.0984087952
 10
-24.2337262839
 20
19.1040690798
 10
-24.2341136363
 20
19.1089845052
 10
-24.2345162354
 20
19.1131513401
 10
-24.2349337758
 20
19.1165664217
 10
-24.2353659404
 20
19.1192271575
 10
-24.2358124013
 20
19.1211315278
 10
-24.2362728194
 20
19.1222780869
 10
-24.2367468454
 20
19.1226659647
  0
LWPOLYLINE
  5
5EB
100
AcDbEntity
  8
0
100
AcDbPolyline
 62
250
  6
CONTINUOUS
 90
13
 70
0
 10
-24.2320280984
 20
19.0684134089
 10
-24.2323350452
 20
19.0770045606
 10
-24.2326585889
 20
19.0848713976
 10
-24.232998484
 20
19.0920079482
 10
-24.2333544724
 20
19.0984087952
 10
-24.2337262839
 20
19.1040690798
 10
-24.2341136363
 20
19.1089845052
 10
-24.2345162354
 20
19.1131513401
 10
-24.2349337758
 20
19.1165664217
 10
-24.2353659404
 20
19.1192271575
 10
-24.2358124013
 20
19.1211315278
 10
-24.2362728194
 20
19.1222780869
 10
-24.2367468454
 20
19.1226659647
  0
LINE
  5
5EC
100
AcDbEntity
  8
RACCORDO
100
AcDbLine
 62
250
  6
CONTINUOUS
 10
-24.2314649148
 20
19.0490847921
 11
-24.2320280984
 21
19.0684134089
  0
LINE
  5
5ED
100
AcDbEntity
  8
0
100
AcDbLine
 62
250
  6
CONTINUOUS
 10
-24.2314649148
 20
19.0490847921
 11
-24.2320280984
 21
19.0684134089
  0
LINE
  5
5EE
100
AcDbEntity
  8
RACCORDO
100
AcDbLine
 62
250
  6
CONTINUOUS
 10
-24.2309707479
 20
19.0269442249
 11
-24.2314649148
 21
19.0490847921
  0
LINE
  5
5EF
100
AcDbEntity
  8
0
100
AcDbLine
 62
250
  6
CONTINUOUS
 10
-24.2309707479
 20
19.0269442249
 11
-24.2314649148
 21
19.0490847921
  0
LINE
  5
5F0
100
AcDbEntity
  8
RACCORDO
100
AcDbLine
 62
250
  6
CONTINUOUS
 10
-24.2305470978
 20
19.0020589213
 11
-24.2309707479
 21
19.0269442249
  0
LINE
  5
5F1
100
AcDbEntity
  8
0
100
AcDbLine
 62
250
  6
CONTINUOUS
 10
-24.2305470978
 20
19.0020589213
 11
-24.2309707479
 21
19.0269442249
  0
LINE
  5
5F2
100
AcDbEntity
  8
RACCORDO
100
AcDbLine
 62
250
  6
CONTINUOUS
 10
-24.232998484
 20
-4.9682197652
 11
-24.2367468454
 21
-4.7228182695
  0
LINE
  5
5F3
100
AcDbEntity
  8
0
100
AcDbLine
 62
250
  6
CONTINUOUS
 10
-24.232998484
 20
-4.9682197652
 11
-24.2367468454
 21
-4.7228182695
  0
LINE
  5
5F4
100
AcDbEntity
  8
RACCORDO
100
AcDbLine
 62
250
  6
CONTINUOUS
 10
-24.2300465957
 20
18.959752066
 11
-24.2305470978
 21
19.0020589213
  0
LINE
  5
5F5
100
AcDbEntity
  8
0
100
AcDbLine
 62
250
  6
CONTINUOUS
 10
-24.2300465957
 20
18.959752066
 11
-24.2305470978
 21
19.0020589213
  0
LINE
  5
5F6
100
AcDbEntity
  8
RACCORDO
100
AcDbLine
 62
250
  6
CONTINUOUS
 10
-24.2307500228
 20
-5.1742018347
 11
-24.232998484
 21
-4.9682197652
  0
LINE
  5
5F7
100
AcDbEntity
  8
0
100
AcDbLine
 62
250
  6
CONTINUOUS
 10
-24.2307500228
 20
-5.1742018347
 11
-24.232998484
 21
-4.9682197652
  0
LINE
  5
5F8
100
AcDbEntity
  8
RACCORDO
100
AcDbLine
 62
250
  6
CONTINUOUS
 10
-24.2296362355
 20
18.8945086887
 11
-24.2300465957
 21
18.959752066
  0
LINE
  5
5F9
100
AcDbEntity
  8
0
100
AcDbLine
 62
250
  6
CONTINUOUS
 10
-24.2296362355
 20
18.8945086887
 11
-24.2300465957
 21
18.959752066
  0
LINE
  5
5FA
100
AcDbEntity
  8
RACCORDO
100
AcDbLine
 62
250
  6
CONTINUOUS
 10
-24.2297110167
 20
-5.3368362686
 11
-24.2307500228
 21
-5.1742018347
  0
LINE
  5
5FB
100
AcDbEntity
  8
0
100
AcDbLine
 62
250
  6
CONTINUOUS
 10
-24.2297110167
 20
-5.3368362686
 11
-24.2307500228
 21
-5.1742018347
  0
LINE
  5
5FC
100
AcDbEntity
  8
0
100
AcDbLine
 62
7
  6
CONTINUOUS
 10
-24.6541992518
 20
1.35
 11
-24.6541992518
 21
4.85
  0
LINE
  5
5FD
100
AcDbEntity
  8
RACCORDO
100
AcDbLine
 62
250
  6
CONTINUOUS
 10
-24.2367468454
 20
18.1228182695
 11
-24.2367468454
 21
5.1946658545
  0
LINE
  5
5FE
100
AcDbEntity
  8
0
100
AcDbLine
 62
250
  6
CONTINUOUS
 10
-24.2367468454
 20
18.1228182695
 11
-24.2367468454
 21
5.1946658545
  0
LINE
  5
5FF
100
AcDbEntity
  8
RACCORDO
100
AcDbLine
 62
250
  6
CONTINUOUS
 10
-24.2367468454
 20
1.0053341455
 11
-24.2367468454
 21
-4.7228182695
  0
LINE
  5
600
100
AcDbEntity
  8
0
100
AcDbLine
 62
250
  6
CONTINUOUS
 10
-24.2367468454
 20
1.0053341455
 11
-24.2367468454
 21
-4.7228182695
  0
LINE
  5
601
100
AcDbEntity
  8
RACCORDO
100
AcDbLine
 62
250
  6
CONTINUOUS
 10
-24.2295239216
 20
-5.4393835977
 11
-24.2297110167
 21
-5.3368362686
  0
LINE
  5
602
100
AcDbEntity
  8
0
100
AcDbLine
 62
250
  6
CONTINUOUS
 10
-24.2295239216
 20
-5.4393835977
 11
-24.2297110167
 21
-5.3368362686
  0
LINE
  5
603
100
AcDbEntity
  8
RACCORDO
100
AcDbLine
 62
7
  6
CONTINUOUS
 10
-23.2541992518
 20
18.1228182695
 11
-23.2541992518
 21
4.8622176149
  0
LINE
  5
604
100
AcDbEntity
  8
RACCORDO
100
AcDbLine
 62
7
  6
CONTINUOUS
 10
-23.2541992518
 20
-4.7228182695
 11
-23.2541992518
 21
1.3377823851
  0
LINE
  5
605
100
AcDbEntity
  8
0
100
AcDbLine
 62
7
  6
CONTINUOUS
 10
-23.2541992518
 20
-4.7228182695
 11
-23.2541992518
 21
18.1228182695
  0
LINE
  5
606
100
AcDbEntity
  8
RACCORDO
100
AcDbLine
 62
250
  6
CONTINUOUS
 10
-24.2295426524
 20
18.7998905798
 11
-24.2296362355
 21
18.8945086887
  0
LINE
  5
607
100
AcDbEntity
  8
0
100
AcDbLine
 62
250
  6
CONTINUOUS
 10
-24.2295426524
 20
18.7998905798
 11
-24.2296362355
 21
18.8945086887
  0
LINE
  5
608
100
AcDbEntity
  8
RACCORDO
100
AcDbLine
 62
250
  6
CONTINUOUS
 10
-24.2297110167
 20
-5.5117303198
 11
-24.2295239216
 21
-5.4393835977
  0
LINE
  5
609
100
AcDbEntity
  8
0
100
AcDbLine
 62
250
  6
CONTINUOUS
 10
-24.2297110167
 20
-5.5117303198
 11
-24.2295239216
 21
-5.4393835977
  0
LINE
  5
60A
100
AcDbEntity
  8
RACCORDO
100
AcDbLine
 62
250
  6
CONTINUOUS
 10
-24.2300465957
 20
18.6695892175
 11
-24.2295426524
 21
18.7998905798
  0
LINE
  5
60B
100
AcDbEntity
  8
0
100
AcDbLine
 62
250
  6
CONTINUOUS
 10
-24.2300465957
 20
18.6695892175
 11
-24.2295426524
 21
18.7998905798
  0
LINE
  5
60C
100
AcDbEntity
  8
RACCORDO
100
AcDbLine
 62
250
  6
CONTINUOUS
 10
-24.2300465957
 20
-5.559752066
 11
-24.2297110167
 21
-5.5117303198
  0
LINE
  5
60D
100
AcDbEntity
  8
0
100
AcDbLine
 62
250
  6
CONTINUOUS
 10
-24.2300465957
 20
-5.559752066
 11
-24.2297110167
 21
-5.5117303198
  0
LINE
  5
60E
100
AcDbEntity
  8
RACCORDO
100
AcDbLine
 62
250
  6
CONTINUOUS
 10
-24.2317379815
 20
18.4733373895
 11
-24.2300465957
 21
18.6695892175
  0
LINE
  5
60F
100
AcDbEntity
  8
0
100
AcDbLine
 62
250
  6
CONTINUOUS
 10
-24.2317379815
 20
18.4733373895
 11
-24.2300465957
 21
18.6695892175
  0
LINE
  5
610
100
AcDbEntity
  8
RACCORDO
100
AcDbLine
 62
250
  6
CONTINUOUS
 10
-24.2305470978
 20
-5.6020589213
 11
-24.2300465957
 21
-5.559752066
  0
LINE
  5
611
100
AcDbEntity
  8
0
100
AcDbLine
 62
250
  6
CONTINUOUS
 10
-24.2305470978
 20
-5.6020589213
 11
-24.2300465957
 21
-5.559752066
  0
LINE
  5
612
100
AcDbEntity
  8
RACCORDO
100
AcDbLine
 62
250
  6
CONTINUOUS
 10
-24.2349337758
 20
18.2327884993
 11
-24.2317379815
 21
18.4733373895
  0
LINE
  5
613
100
AcDbEntity
  8
0
100
AcDbLine
 62
250
  6
CONTINUOUS
 10
-24.2349337758
 20
18.2327884993
 11
-24.2317379815
 21
18.4733373895
  0
LINE
  5
614
100
AcDbEntity
  8
RACCORDO
100
AcDbLine
 62
250
  6
CONTINUOUS
 10
-24.2367468454
 20
18.1228182695
 11
-24.2349337758
 21
18.2327884993
  0
LINE
  5
615
100
AcDbEntity
  8
0
100
AcDbLine
 62
250
  6
CONTINUOUS
 10
-24.2367468454
 20
18.1228182695
 11
-24.2349337758
 21
18.2327884993
  0
LINE
  5
616
100
AcDbEntity
  8
RACCORDO
100
AcDbLine
 62
250
  6
CONTINUOUS
 10
-24.2309707479
 20
-5.6269442249
 11
-24.2305470978
 21
-5.6020589213
  0
LINE
  5
617
100
AcDbEntity
  8
0
100
AcDbLine
 62
250
  6
CONTINUOUS
 10
-24.2309707479
 20
-5.6269442249
 11
-24.2305470978
 21
-5.6020589213
  0
LINE
  5
618
100
AcDbEntity
  8
RACCORDO
100
AcDbLine
 62
250
  6
CONTINUOUS
 10
-24.2314649148
 20
-5.6490847921
 11
-24.2309707479
 21
-5.6269442249
  0
LINE
  5
619
100
AcDbEntity
  8
0
100
AcDbLine
 62
250
  6
CONTINUOUS
 10
-24.2314649148
 20
-5.6490847921
 11
-24.2309707479
 21
-5.6269442249
  0
LINE
  5
61A
100
AcDbEntity
  8
DRAFT
100
AcDbLine
 62
7
  6
CONTINUOUS
 10
-55.6544124916
 20
20.9104703804
 11
-55.8541992518
 21
20.9
  0
LINE
  5
61B
100
AcDbEntity
  8
RACCORDO
100
AcDbLine
 62
7
  6
CONTINUOUS
 10
-46.3454730486
 20
21.5659754333
 11
-55.8541992518
 21
21.4
  0
LINE
  5
61C
100
AcDbEntity
  8
RACCORDO
100
AcDbLine
 62
7
  6
CONTINUOUS
 10
-45.8541992518
 20
20.9959955457
 11
-55.6544124916
 21
20.9104703804
  0
LINE
  5
61D
100
AcDbEntity
  8
RACCORDO
100
AcDbLine
 62
250
  6
CONTINUOUS
 10
-55.8541992518
 20
21.9411874598
 11
-56.8522315557
 21
21.9498971557
  0
LINE
  5
61E
100
AcDbEntity
  8
RACCORDO
100
AcDbLine
 62
7
  6
CONTINUOUS
 10
-46.8454727163
 20
22.3126551668
 11
-56.8541992518
 21
22.4
  0
LINE
  5
61F
100
AcDbEntity
  8
DRAFT
100
AcDbLine
 62
7
  6
CONTINUOUS
 10
-55.8541992518
 20
20.85
 11
-45.8541992518
 21
20.6754493507
  0
LINE
  5
620
100
AcDbEntity
  8
0
100
AcDbLine
 62
7
  6
CONTINUOUS
 10
-55.8541992518
 20
20.85
 11
-45.8541992518
 21
20.6754493507
  0
LINE
  5
621
100
AcDbEntity
  8
0
100
AcDbLine
 62
250
  6
CONTINUOUS
 10
-30.2458421827
 20
14.7071428239
 11
-30.3489135621
 21
14.8
  0
LWPOLYLINE
  5
622
100
AcDbEntity
  8
0
100
AcDbPolyline
 62
7
  6
CONTINUOUS
 90
10
 70
0
 43
0.3500000006
 10
-38.6970570374
 20
34.2500010681
 10
-38.6256258545
 20
34.1071432343
 10
-38.6256258545
 20
34.0357120514
 10
-38.7684836884
 20
33.8928587494
 10
-38.8399148712
 20
33.8928587494
 10
-38.9113415222
 20
33.9642854004
 10
-38.9113415222
 20
34.0357120514
 10
-38.8399148712
 20
34.1785698853
 10
-38.7684836884
 20
34.2500010681
 10
-38.6970570374
 20
34.2500010681
  0
LWPOLYLINE
  5
623
100
AcDbEntity
  8
0
100
AcDbPolyline
 62
7
  6
CONTINUOUS
 90
10
 70
0
 43
0.3500000006
 10
-43.6256273804
 20
44.249999588
 10
-43.5542007294
 20
44.1071417542
 10
-43.5542007294
 20
44.0357151031
 10
-43.6970585632
 20
43.8928572693
 10
-43.7684852142
 20
43.8928572693
 10
-43.8399118652
 20
43.9642839203
 10
-43.8399118652
 20
44.0357151031
 10
-43.7684852142
 20
44.178572937
 10
-43.6970585632
 20
44.249999588
 10
-43.6256273804
 20
44.249999588
  0
LWPOLYLINE
  5
624
100
AcDbEntity
  8
RACCORDO
100
AcDbPolyline
 62
250
  6
CONTINUOUS
 90
142
 70
0
 10
-64.4935363658
 20
21.4994104546
 10
-64.5039986233
 20
21.4988071334
 10
-64.514451689
 20
21.4980944235
 10
-64.524895563
 20
21.4972723249
 10
-64.5353313889
 20
21.4963407233
 10
-64.5457580231
 20
21.4952997331
 10
-64.5561720344
 20
21.4941496965
 10
-64.5665734201
 20
21.4928905774
 10
-64.5769621829
 20
21.4915224119
 10
-64.5873349005
 20
21.4900456515
 10
-64.5976915676
 20
21.4884602607
 10
-64.6080321894
 20
21.486766275
 10
-64.6183533596
 20
21.4849642525
 10
-64.6286550719
 20
21.4830541574
 10
-64.6389373325
 20
21.4810360255
 10
-64.6491967534
 20
21.4789105226
 10
-64.6594333263
 20
21.4766776136
 10
-64.6696470594
 20
21.4743373337
 10
-64.6798345901
 20
21.4718904538
 10
-64.6899959082
 20
21.4693369394
 10
-64.7001310238
 20
21.4666768251
 10
-64.7102366043
 20
21.4639109861
 10
-64.7203126419
 20
21.4610393872
 10
-64.7303591444
 20
21.4580620636
 10
-64.7403728032
 20
21.4549799961
 10
-64.7503536079
 20
21.45179315
 10
-64.7603015688
 20
21.44850156
 10
-64.7702134086
 20
21.445106311
 10
-64.7800891154
 20
21.4416073686
 10
-64.7899287011
 20
21.4380047672
 10
-64.7997289235
 20
21.4342996943
 10
-64.8094897699
 20
21.4304921161
 10
-64.8192112531
 20
21.4265820664
 10
-64.8288901696
 20
21.4225708347
 10
-64.8385265052
 20
21.4184583876
 10
-64.8481202741
 20
21.4142447584
 10
-64.8576683151
 20
21.4099313367
 10
-64.8671706105
 20
21.405518091
 10
-64.8766271781
 20
21.4010050529
 10
-64.8860349092
 20
21.396393707
 10
-64.8953937885
 20
21.3916840207
 10
-64.9047038315
 20
21.3868760265
 10
-64.9139619758
 20
21.3819713066
 10
-64.9231682056
 20
21.3769698285
 10
-64.9323225369
 20
21.3718716246
 10
-64.9414219553
 20
21.366678374
 10
-64.9504664434
 20
21.3613900451
 10
-64.9594560188
 20
21.3560066695
 10
-64.9683877198
 20
21.3505300214
 10
-64.9772615278
 20
21.3449600696
 10
-64.9860774616
 20
21.3392968453
 10
-64.9948326156
 20
21.3335422156
 10
-65.0035269701
 20
21.3276961504
 10
-65.012160545
 20
21.3217586798
 10
-65.0207304945
 20
21.3157317624
 10
-65.0292367963
 20
21.3096153696
 10
-65.0376794728
 20
21.3034095299
 10
-65.0460557452
 20
21.2971162876
 10
-65.0543655903
 20
21.290735615
 10
-65.0626090312
 20
21.2842675398
 10
-65.0707833585
 20
21.2777141893
 10
-65.0788885497
 20
21.2710755355
 10
-65.0869246273
 20
21.2643516064
 10
-65.094888949
 20
21.2575446136
 10
-65.1027814923
 20
21.250654529
 10
-65.1106022797
 20
21.2436813807
 10
-65.118348737
 20
21.2366274645
 10
-65.1260208405
 20
21.229492753
 10
-65.1336186138
 20
21.2222772737
 10
-65.1411395535
 20
21.2149834047
 10
-65.1485836345
 20
21.2076111197
 10
-65.1559508819
 20
21.2001604451
 10
-65.163238867
 20
21.1926338381
 10
-65.1704475633
 20
21.1850312741
 10
-65.1775769974
 20
21.1773527778
 10
-65.1846248206
 20
21.1696008804
 10
-65.1915910052
 20
21.1617755589
 10
-65.1984755789
 20
21.1538768363
 10
-65.2052762767
 20
21.1459073136
 10
-65.21199307
 20
21.1378669687
 10
-65.2186259873
 20
21.1297558237
 10
-65.2251728491
 20
21.1215765455
 10
-65.231633627
 20
21.1133291121
 10
-65.2380083494
 20
21.1050135456
 10
-65.2442949217
 20
21.0966325788
 10
-65.2504933164
 20
21.0881861887
 10
-65.256603561
 20
21.0796743983
 10
-65.2626236443
 20
21.0711000099
 10
-65.2685535374
 20
21.0624630013
 10
-65.2743932692
 20
21.0537633947
 10
-65.2801409143
 20
21.0450040587
 10
-65.2857964422
 20
21.0361849736
 10
-65.2913598836
 20
21.0273061592
 10
-65.2968294049
 20
21.0183705429
 10
-65.3022049748
 20
21.0093781064
 10
-65.3074866247
 20
21.0003288681
 10
-65.3126726153
 20
20.9912258102
 10
-65.3177629144
 20
20.9820689159
 10
-65.3227575542
 20
20.972858202
 10
-65.3276548914
 20
20.9635967015
 10
-65.3324548931
 20
20.9542843996
 10
-65.3371575922
 20
20.9449213111
 10
-65.3417614445
 20
20.9355105125
 10
-65.3462664174
 20
20.9260519892
 10
-65.3506725434
 20
20.9165457558
 10
-65.3549783763
 20
20.9069949327
 10
-65.3591838852
 20
20.897399501
 10
-65.363289101
 20
20.8877594797
 10
-65.3672926706
 20
20.8780780458
 10
-65.3711945602
 20
20.8683551853
 10
-65.3749948036
 20
20.8585909122
 10
-65.378692148
 20
20.8487884454
 10
-65.3822865593
 20
20.8389477723
 10
-65.3857780717
 20
20.8290689053
 10
-65.3891655346
 20
20.8191551014
 10
-65.3924489137
 20
20.8092063488
 10
-65.3956282433
 20
20.7992226591
 10
-65.3987024762
 20
20.7892073239
 10
-65.4016715774
 20
20.7791603337
 10
-65.404535582
 20
20.7690816978
 10
-65.4072935478
 20
20.7589747358
 10
-65.4099454388
 20
20.7488394444
 10
-65.4124912912
 20
20.7386758268
 10
-65.4149302713
 20
20.7284872118
 10
-65.4172623455
 20
20.7182735865
 10
-65.4194875475
 20
20.7080349637
 10
-65.4216051448
 20
20.6977747115
 10
-65.4236151026
 20
20.6874928198
 10
-65.4255174557
 20
20.6771892987
 10
-65.4273115761
 20
20.6668675455
 10
-65.4289974277
 20
20.6565275544
 10
-65.4305750466
 20
20.6461693311
 10
-65.4320439129
 20
20.6357962911
 10
-65.433403991
 20
20.6254084289
 10
-65.4346553166
 20
20.6150057499
 10
-65.4357974768
 20
20.6045916856
 10
-65.4368304348
 20
20.5941662398
 10
-65.4377542275
 20
20.5837294087
 10
-65.4385685527
 20
20.5732846127
 10
-65.4392733098
 20
20.5628329921
 10
-65.4398685994
 20
20.5523734067
 10
-65.4403544215
 20
20.5419058565
  0
LINE
  5
625
100
AcDbEntity
  8
RACCORDO
100
AcDbLine
 62
250
  6
CONTINUOUS
 10
-63.9196577539
 20
21.5318406482
 11
-64.4935363658
 21
21.4994104546
  0
LINE
  5
626
100
AcDbEntity
  8
RACCORDO
100
AcDbLine
 62
7
  6
CONTINUOUS
 10
-56.8541992518
 20
22.4
 11
-64.5109781407
 21
21.998725222
  0
LWPOLYLINE
  5
627
100
AcDbEntity
  8
RACCORDO
100
AcDbPolyline
 62
250
  6
CONTINUOUS
 90
15
 70
0
 10
-56.8522315557
 20
21.9498971557
 10
-57.3515138732
 20
21.9242195846
 10
-57.8477206859
 20
21.8982111234
 10
-58.3408519937
 20
21.8718717721
 10
-58.8291874444
 20
21.8455642319
 10
-59.3144473902
 20
21.8189258015
 10
-59.8017928881
 20
21.7908683775
 10
-60.2912088042
 20
21.7607952918
 10
-60.7827102724
 20
21.7293032124
 10
-61.2815037504
 20
21.6970940403
 10
-61.7875827886
 20
21.6640431406
 10
-62.3009538366
 20
21.6302751482
 10
-62.8268427016
 20
21.5968658681
 10
-63.3669913192
 20
21.564173902
 10
-63.9196577539
 20
21.5318406482
  0
LINE
  5
628
100
AcDbEntity
  8
RACCORDO
100
AcDbLine
 62
250
  6
CONTINUOUS
 10
-56.8541992518
 20
24.2500042308
 11
-59.1056536847
 21
24.2369056521
  0
LINE
  5
629
100
AcDbEntity
  8
RACCORDO
100
AcDbLine
 62
250
  6
CONTINUOUS
 10
-59.3541992518
 20
23.8443375673
 11
-59.1056536847
 21
23.8443375673
  0
LINE
  5
62A
100
AcDbEntity
  8
RACCORDO
100
AcDbLine
 62
250
  6
CONTINUOUS
 10
-55.8541992518
 20
23.8443375673
 11
-56.102744819
 21
23.8443375673
  0
LINE
  5
62B
100
AcDbEntity
  8
RACCORDO
100
AcDbLine
 62
250
  6
CONTINUOUS
 10
-59.3541992518
 20
24.2369056521
 11
-59.1056536847
 21
24.2369056521
  0
LINE
  5
62C
100
AcDbEntity
  8
RACCORDO
100
AcDbLine
 62
250
  6
CONTINUOUS
 10
-55.8541992518
 20
24.2456323968
 11
-56.102744819
 21
24.2456323968
  0
LINE
  5
62D
100
AcDbEntity
  8
ASSI
100
AcDbLine
 62
7
  6
CONTINUOUS
 10
-55.8592903435
 20
23.7942117893
 11
-49.3512903862
 21
23.7563493531
  0
LINE
  5
62E
100
AcDbEntity
  8
RACCORDO
100
AcDbLine
 62
250
  6
CONTINUOUS
 10
-56.102744819
 20
24.2456323968
 11
-56.8541992518
 21
24.2500042308
  0
LINE
  5
62F
100
AcDbEntity
  8
RACCORDO
100
AcDbLine
 62
7
  6
CONTINUOUS
 10
-56.102744819
 20
24.495628166
 11
-56.8541992518
 21
24.5
  0
LINE
  5
630
100
AcDbEntity
  8
RACCORDO
100
AcDbLine
 62
7
  6
CONTINUOUS
 10
-56.8541992518
 20
24.5
 11
-59.1056536847
 21
24.4869014213
  0
LWPOLYLINE
  5
631
100
AcDbEntity
  8
0
100
AcDbPolyline
 62
7
  6
CONTINUOUS
 90
6
 70
0
 43
0.3500000006
 10
-43.8399118652
 20
33.7500009155
 10
-42.7684849091
 20
33.7500009155
 10
-42.5542004242
 20
33.9642854004
 10
-42.5542004242
 20
35.0357123566
 10
-42.9827693939
 20
35.4642858582
 10
-43.4113428955
 20
35.4642858582
  0
LWPOLYLINE
  5
632
100
AcDbEntity
  8
0
100
AcDbPolyline
 62
7
  6
CONTINUOUS
 90
7
 70
0
 43
0.3500000006
 10
-40.1970574951
 20
33.7500009155
 10
-41.6970579529
 20
33.7500009155
 10
-40.1970574951
 20
35.8928593597
 10
-40.1970574951
 20
36.3214283295
 10
-40.6256264648
 20
36.7500018311
 10
-41.2684844513
 20
36.7500018311
 10
-41.6970579529
 20
36.1071438446
  0
LWPOLYLINE
  5
633
100
AcDbEntity
  8
0
100
AcDbPolyline
 62
7
  6
CONTINUOUS
 90
6
 70
0
 43
0.3500000006
 10
-46.411343811
 20
43.7499994354
 10
-45.339912323
 20
43.7499994354
 10
-45.1256278381
 20
43.9642839203
 10
-45.1256278381
 20
45.0357154083
 10
-45.5542013397
 20
45.4642843781
 10
-45.9827703094
 20
45.4642843781
  0
LWPOLYLINE
  5
634
100
AcDbEntity
  8
0
100
AcDbPolyline
 62
7
  6
CONTINUOUS
 90
3
 70
0
 43
0.3500000006
 10
-47.2684862823
 20
44.3928574219
 10
-48.7684867401
 20
44.3928574219
 10
-48.1256287537
 20
46.750000351
  0
ARC
  5
635
100
AcDbEntity
  8
RACCORDO
100
AcDbCircle
 62
7
  6
CONTINUOUS
 10
-64.4324742064
 20
-20.5007809198
 40
1.5
100
AcDbArc
 50
182.3569499908
 51
267.0
  0
ARC
  5
636
100
AcDbEntity
  8
RACCORDO
100
AcDbCircle
 62
7
  6
CONTINUOUS
 10
-46.8541992518
 20
-21.3126932437
 40
1.0
100
AcDbArc
 50
270.5
 51
360.0
  0
ARC
  5
637
100
AcDbEntity
  8
RACCORDO
100
AcDbCircle
 62
7
  6
CONTINUOUS
 10
-24.2541992518
 20
-4.7228182695
 40
1.0
100
AcDbArc
 50
271.0
 51
360.0
  0
ARC
  5
638
100
AcDbEntity
  8
0
100
AcDbCircle
 62
7
  6
CONTINUOUS
 10
-24.2541992518
 20
-4.7228182695
 40
1.0
100
AcDbArc
 50
271.0
 51
360.0
  0
ARC
  5
639
100
AcDbEntity
  8
ASSI
100
AcDbCircle
 62
7
  6
CONTINUOUS
 10
-49.3541992518
 20
-23.2563578147
 40
0.5
100
AcDbArc
 50
270.3333333333
 51
360.0
  0
ARC
  5
63A
100
AcDbEntity
  8
RACCORDO
100
AcDbCircle
 62
7
  6
CONTINUOUS
 10
-56.1041992518
 20
-24.2456323968
 40
0.25
100
AcDbArc
 50
270.3333333333
 51
360.0
  0
ARC
  5
63B
100
AcDbEntity
  8
RACCORDO
100
AcDbCircle
 62
7
  6
CONTINUOUS
 10
-56.1041992518
 20
-23.8443375673
 40
0.25
100
AcDbArc
 50
0.0
 51
60.0
  0
ARC
  5
63C
100
AcDbEntity
  8
RACCORDO
100
AcDbCircle
 62
7
  6
CONTINUOUS
 10
-59.1041992518
 20
-24.2369056521
 40
0.25
100
AcDbArc
 50
180.0
 51
269.6666666667
  0
ARC
  5
63D
100
AcDbEntity
  8
RACCORDO
100
AcDbCircle
 62
7
  6
CONTINUOUS
 10
-59.1041992518
 20
-23.8443375673
 40
0.25
100
AcDbArc
 50
120.0
 51
180.0
  0
ARC
  5
63E
100
AcDbEntity
  8
0
100
AcDbCircle
 62
7
  6
CONTINUOUS
 10
-33.2541992518
 20
2.85
 40
1.75
100
AcDbArc
 50
180.0
 51
217.6855336254
  0
ARC
  5
63F
100
AcDbEntity
  8
ASSI
100
AcDbCircle
 62
7
  6
CONTINUOUS
 10
-33.2541992518
 20
2.85
 40
1.75
100
AcDbArc
 50
0.0
 51
180.0
  0
ARC
  5
640
100
AcDbEntity
  8
0
100
AcDbCircle
 62
7
  6
CONTINUOUS
 10
-33.2541992518
 20
2.85
 40
1.75
100
AcDbArc
 50
322.3144663746
 51
360.0
  0
ARC
  5
641
100
AcDbEntity
  8
0
100
AcDbCircle
 62
7
  6
CONTINUOUS
 10
-28.2541992518
 20
2.85
 40
1.75
100
AcDbArc
 50
180.0
 51
217.6855336254
  0
ARC
  5
642
100
AcDbEntity
  8
ASSI
100
AcDbCircle
 62
7
  6
CONTINUOUS
 10
-28.2541992518
 20
2.85
 40
1.75
100
AcDbArc
 50
0.0
 51
180.0
  0
ARC
  5
643
100
AcDbEntity
  8
0
100
AcDbCircle
 62
7
  6
CONTINUOUS
 10
-28.2541992518
 20
2.85
 40
1.75
100
AcDbArc
 50
322.3144663746
 51
360.0
  0
ARC
  5
644
100
AcDbEntity
  8
RACCORDO
100
AcDbCircle
 62
7
  6
CONTINUOUS
 10
-64.4324742064
 20
20.5007809198
 40
1.5
100
AcDbArc
 50
93.0
 51
177.6430500092
  0
ARC
  5
645
100
AcDbEntity
  8
RACCORDO
100
AcDbCircle
 62
7
  6
CONTINUOUS
 10
-46.8541992518
 20
21.3126932437
 40
1.0
100
AcDbArc
 50
0.0
 51
89.5
  0
ARC
  5
646
100
AcDbEntity
  8
RACCORDO
100
AcDbCircle
 62
7
  6
CONTINUOUS
 10
-24.2541992518
 20
18.1228182695
 40
1.0
100
AcDbArc
 50
0.0
 51
89.0
  0
ARC
  5
647
100
AcDbEntity
  8
0
100
AcDbCircle
 62
7
  6
CONTINUOUS
 10
-24.2541992518
 20
18.1228182695
 40
1.0
100
AcDbArc
 50
0.0
 51
89.0
  0
ARC
  5
648
100
AcDbEntity
  8
ASSI
100
AcDbCircle
 62
7
  6
CONTINUOUS
 10
-49.3541992518
 20
23.2563578147
 40
0.5
100
AcDbArc
 50
0.0
 51
89.6666666667
  0
ARC
  5
649
100
AcDbEntity
  8
RACCORDO
100
AcDbCircle
 62
7
  6
CONTINUOUS
 10
-56.1041992518
 20
24.2456323968
 40
0.25
100
AcDbArc
 50
0.0
 51
89.6666666667
  0
ARC
  5
64A
100
AcDbEntity
  8
RACCORDO
100
AcDbCircle
 62
7
  6
CONTINUOUS
 10
-59.1041992518
 20
24.2369056521
 40
0.25
100
AcDbArc
 50
90.3333333333
 51
180.0
  0
ARC
  5
64B
100
AcDbEntity
  8
RACCORDO
100
AcDbCircle
 62
7
  6
CONTINUOUS
 10
-56.1041992518
 20
23.8443375673
 40
0.25
100
AcDbArc
 50
300.0
 51
360.0
  0
ARC
  5
64C
100
AcDbEntity
  8
RACCORDO
100
AcDbCircle
 62
7
  6
CONTINUOUS
 10
-59.1041992518
 20
23.8443375673
 40
0.25
100
AcDbArc
 50
180.0
 51
240.0
  0
ARC
  5
64D
100
AcDbEntity
  8
RACCORDO
100
AcDbCircle
 62
7
  6
CONTINUOUS
 10
433.6458007482
 20
0.0
 40
500.0
100
AcDbArc
 50
177.6430500092
 51
182.3569499908
  0
ELLIPSE
  5
64E
100
AcDbEntity
  8
RACCORDO
100
AcDbEllipse
 62
7
  6
CONTINUOUS
 10
-8.7749314524
 20
-21.9412559969
 30
0.0
 11
0.4025750024
 21
-0.2012721715
 31
0.0
 40
0.9998096356
 41
-2.6780516535
 42
-1.5707963209
  0
ELLIPSE
  5
64F
100
AcDbEntity
  8
RACCORDO
100
AcDbEllipse
 62
7
  6
CONTINUOUS
 10
12.6249314524
 20
21.9412559969
 30
0.0
 11
0.4025750024
 21
-0.2012721715
 31
0.0
 40
0.9998096356
 41
0.4635410001
 42
1.5707963317
  0
ELLIPSE
  5
650
100
AcDbEntity
  8
RACCORDO
100
AcDbEllipse
 62
7
  6
CONTINUOUS
 10
-8.7749314524
 20
21.9412559969
 30
0.0
 11
0.4025750024
 21
0.2012721715
 31
0.0
 40
0.9998096356
 41
1.5707963209
 42
2.6780516535
  0
ELLIPSE
  5
651
100
AcDbEntity
  8
RACCORDO
100
AcDbEllipse
 62
7
  6
CONTINUOUS
 10
12.6249314524
 20
-21.9412559969
 30
0.0
 11
0.4025750024
 21
0.2012721715
 31
0.0
 40
0.9998096356
 41
-1.5707963317
 42
-0.4635410001
  0
ELLIPSE
  5
652
100
AcDbEntity
  8
RACCORDO
100
AcDbEllipse
 62
7
  6
CONTINUOUS
 10
5.8220826234
 20
-23.7970910851
 30
0.0
 11
0.5
 21
-0.0
 31
0.0
 40
0.0058178298
 41
0.0058177642
 42
0.6464131586
  0
ELLIPSE
  5
653
100
AcDbEntity
  8
RACCORDO
100
AcDbEllipse
 62
7
  6
CONTINUOUS
 10
5.8220826234
 20
-22.3737961104
 30
0.0
 11
0.5
 21
-0.0
 31
0.0
 40
0.0524077793
 41
0.0058177642
 42
1.5707963268
  0
ELLIPSE
  5
654
100
AcDbEntity
  8
RACCORDO
100
AcDbEllipse
 62
7
  6
CONTINUOUS
 10
-1.9720826234
 20
23.7970910851
 30
0.0
 11
0.5
 21
-0.0
 31
0.0
 40
0.0058178298
 41
-3.1357748894
 42
-2.495179495
  0
ELLIPSE
  5
655
100
AcDbEntity
  8
RACCORDO
100
AcDbEllipse
 62
7
  6
CONTINUOUS
 10
-1.9720826234
 20
22.3737961104
 30
0.0
 11
0.5
 21
0.0
 31
0.0
 40
0.0524077793
 41
-3.1357748894
 42
-1.5707963268
  0
ELLIPSE
  5
656
100
AcDbEntity
  8
RACCORDO
100
AcDbEllipse
 62
7
  6
CONTINUOUS
 10
5.8220826234
 20
22.3737961104
 30
0.0
 11
0.5
 21
0.0
 31
0.0
 40
0.0524077793
 41
-1.5707963268
 42
-0.0058177642
  0
ELLIPSE
  5
657
100
AcDbEntity
  8
RACCORDO
100
AcDbEllipse
 62
7
  6
CONTINUOUS
 10
5.8220826234
 20
23.7970910851
 30
0.0
 11
0.5
 21
-0.0
 31
0.0
 40
0.0058178298
 41
-0.6464131586
 42
-0.0058177642
  0
ELLIPSE
  5
658
100
AcDbEntity
  8
RACCORDO
100
AcDbEllipse
 62
7
  6
CONTINUOUS
 10
-8.4677234819
 20
22.3344902759
 30
0.0
 11
0.25
 21
0.0
 31
0.0
 40
0.0524077793
 41
-3.1357748894
 42
-1.5707963268
  0
ELLIPSE
  5
659
100
AcDbEntity
  8
RACCORDO
100
AcDbEllipse
 62
7
  6
CONTINUOUS
 10
-6.5822765181
 20
22.3344902759
 30
0.0
 11
0.25
 21
0.0
 31
0.0
 40
0.0524077793
 41
-1.5707963268
 42
-0.0058177642
  0
ELLIPSE
  5
65A
100
AcDbEntity
  8
RACCORDO
100
AcDbEllipse
 62
7
  6
CONTINUOUS
 10
8.0843624843
 20
-5.2093815235
 30
0.0
 11
-0.0
 21
0.5
 31
0.0
 40
0.0087268678
 41
-0.0186548398
 42
-0.0087266463
  0
ELLIPSE
  5
65B
100
AcDbEntity
  8
RACCORDO
100
AcDbEllipse
 62
7
  6
CONTINUOUS
 10
10.4322765181
 20
22.3344902759
 30
0.0
 11
0.25
 21
0.0
 31
0.0
 40
0.0524077793
 41
-3.1357748894
 42
-1.5707963268
  0
ELLIPSE
  5
65C
100
AcDbEntity
  8
RACCORDO
100
AcDbEllipse
 62
7
  6
CONTINUOUS
 10
8.0844727797
 20
3.8094918189
 30
0.0
 11
0.0
 21
0.5
 31
0.0
 40
0.0087268678
 41
-3.1328660073
 42
-3.1257402647
  0
ELLIPSE
  5
65D
100
AcDbEntity
  8
RACCORDO
100
AcDbEllipse
 62
7
  6
CONTINUOUS
 10
5.2844727797
 20
3.8094918189
 30
0.0
 11
-0.0
 21
0.5
 31
0.0
 40
0.0087268678
 41
-3.1328660073
 42
-3.1257400193
  0
ELLIPSE
  5
65E
100
AcDbEntity
  8
RACCORDO
100
AcDbEllipse
 62
7
  6
CONTINUOUS
 10
5.2843439328
 20
5.409362972
 30
0.0
 11
0.0
 21
0.5
 31
0.0
 40
0.0087268678
 41
-3.1328660073
 42
-3.1225377078
  0
ELLIPSE
  5
65F
100
AcDbEntity
  8
RACCORDO
100
AcDbEllipse
 62
7
  6
CONTINUOUS
 10
12.3177234819
 20
22.3344902759
 30
0.0
 11
0.25
 21
0.0
 31
0.0
 40
0.0524077793
 41
-1.5707963268
 42
-0.0058177642
  0
ELLIPSE
  5
660
100
AcDbEntity
  8
RACCORDO
100
AcDbEllipse
 62
7
  6
CONTINUOUS
 10
-8.4677234819
 20
-22.3344902759
 30
0.0
 11
0.25
 21
0.0
 31
0.0
 40
0.0524077793
 41
1.5707963268
 42
3.1357748894
  0
ELLIPSE
  5
661
100
AcDbEntity
  8
RACCORDO
100
AcDbEllipse
 62
7
  6
CONTINUOUS
 10
4.2343439328
 20
5.409362972
 30
0.0
 11
0.0
 21
0.5
 31
0.0
 40
0.0087268678
 41
-3.1328660073
 42
-3.1225374991
  0
ELLIPSE
  5
662
100
AcDbEntity
  8
RACCORDO
100
AcDbEllipse
 62
7
  6
CONTINUOUS
 10
-6.5822765181
 20
-22.3344902759
 30
0.0
 11
0.25
 21
-0.0
 31
0.0
 40
0.0524077793
 41
0.0058177642
 42
1.5707963268
  0
ELLIPSE
  5
663
100
AcDbEntity
  8
RACCORDO
100
AcDbEllipse
 62
7
  6
CONTINUOUS
 10
10.4322765181
 20
-22.3344902759
 30
0.0
 11
0.25
 21
-0.0
 31
0.0
 40
0.0524077793
 41
1.5707963268
 42
3.1357748894
  0
ELLIPSE
  5
664
100
AcDbEntity
  8
RACCORDO
100
AcDbEllipse
 62
7
  6
CONTINUOUS
 10
12.3177234819
 20
-22.3344902759
 30
0.0
 11
0.25
 21
-0.0
 31
0.0
 40
0.0524077793
 41
0.0058177642
 42
1.5707963268
  0
ELLIPSE
  5
665
100
AcDbEntity
  8
RACCORDO
100
AcDbEllipse
 62
7
  6
CONTINUOUS
 10
-0.3842179491
 20
6.6092369883
 30
0.0
 11
0.0
 21
0.5
 31
0.0
 40
0.0087268678
 41
-3.1630498118
 42
-3.1503192998
  0
ELLIPSE
  5
666
100
AcDbEntity
  8
RACCORDO
100
AcDbEllipse
 62
7
  6
CONTINUOUS
 10
-1.4343439328
 20
5.409362972
 30
0.0
 11
0.0
 21
0.5
 31
0.0
 40
0.0087268678
 41
-3.1606478081
 42
-3.1503192998
  0
ELLIPSE
  5
667
100
AcDbEntity
  8
RACCORDO
100
AcDbEllipse
 62
7
  6
CONTINUOUS
 10
-1.4344727797
 20
3.8094918189
 30
0.0
 11
0.0
 21
0.5
 31
0.0
 40
0.0087268678
 41
-3.1574447508
 42
-3.1503192998
  0
ELLIPSE
  5
668
100
AcDbEntity
  8
RACCORDO
100
AcDbEllipse
 62
7
  6
CONTINUOUS
 10
-4.2343624843
 20
-5.2093815235
 30
0.0
 11
0.0
 21
0.5
 31
0.0
 40
0.0087268678
 41
0.0087266463
 42
0.0186548398
  0
ELLIPSE
  5
669
100
AcDbEntity
  8
RACCORDO
100
AcDbEllipse
 62
7
  6
CONTINUOUS
 10
-4.2344727797
 20
3.8094918189
 30
0.0
 11
0.0
 21
0.5
 31
0.0
 40
0.0087268678
 41
-3.1574450425
 42
-3.1503192998
  0
ELLIPSE
  5
66A
100
AcDbEntity
  8
RACCORDO
100
AcDbEllipse
 62
7
  6
CONTINUOUS
 10
-1.9720826234
 20
-22.3737961104
 30
0.0
 11
0.5
 21
-0.0
 31
0.0
 40
0.0524077793
 41
1.5707963268
 42
3.1357748894
  0
ELLIPSE
  5
66B
100
AcDbEntity
  8
RACCORDO
100
AcDbEllipse
 62
7
  6
CONTINUOUS
 10
-1.9720826234
 20
-23.7970910851
 30
0.0
 11
0.5
 21
-0.0
 31
0.0
 40
0.0058178298
 41
2.495179495
 42
3.1357748894
  0
ELLIPSE
  5
66C
100
AcDbEntity
  8
RACCORDO
100
AcDbEllipse
 62
7
  6
CONTINUOUS
 10
-46.3541992518
 20
22.0658992808
 30
0.0
 11
-0.0
 21
0.5
 31
0.0
 40
1.0
 41
-3.1241393611
 42
-2.2313643779
  0
ELLIPSE
  5
66D
100
AcDbEntity
  8
RACCORDO
100
AcDbEllipse
 62
7
  6
CONTINUOUS
 10
-46.3541992518
 20
-22.0658992808
 30
0.0
 11
-0.0
 21
0.5
 31
0.0
 40
1.0
 41
-0.9102282757
 42
-0.0174532925
  0
ELLIPSE
  5
66E
100
AcDbEntity
  8
RACCORDO
100
AcDbEllipse
 62
7
  6
CONTINUOUS
 10
-24.2541992518
 20
1.2734050343
 30
0.0
 11
0.999996827
 21
-0.0094018592
 31
0.0
 40
0.2679374115
 41
-1.5508239218
 42
0.0025191125
  0
ELLIPSE
  5
66F
100
AcDbEntity
  8
RACCORDO
100
AcDbEllipse
 62
7
  6
CONTINUOUS
 10
-24.2541992518
 20
4.9265949657
 30
0.0
 11
0.999996827
 21
0.0094018592
 31
0.0
 40
0.2679374115
 41
-0.0025191125
 42
1.5508239218
  0
ELLIPSE
  5
670
100
AcDbEntity
  8
0
100
AcDbEllipse
 62
7
  6
CONTINUOUS
 10
-43.7748825794
 20
3.1
 30
0.0
 11
1.6218506799
 21
-0.0
 31
0.0
 40
0.999997266
 41
1.5771846789
 42
4.7060006283
  0
ELLIPSE
  5
671
100
AcDbEntity
  8
0
100
AcDbEllipse
 62
7
  6
CONTINUOUS
 10
-43.780516873
 20
3.1
 30
0.0
 11
2.0155265474
 21
-0.0
 31
0.0
 40
0.9999890624
 41
1.5748459681
 42
4.7083393391
  0
ELLIPSE
  5
672
100
AcDbEntity
  8
0
100
AcDbEllipse
 62
7
  6
CONTINUOUS
 10
-24.2541992518
 20
4.9265949657
 30
0.0
 11
0.999996827
 21
0.0094018592
 31
0.0
 40
0.2679374115
 41
-0.0025191125
 42
1.5508239218
  0
ELLIPSE
  5
673
100
AcDbEntity
  8
0
100
AcDbEllipse
 62
7
  6
CONTINUOUS
 10
-24.2541992518
 20
1.2734050343
 30
0.0
 11
0.999996827
 21
-0.0094018592
 31
0.0
 40
0.2679374115
 41
-1.5508239218
 42
0.0025191125
  0
ENDSEC
  0
SECTION
  2
OBJECTS
  0
DICTIONARY
  5
C
100
AcDbDictionary
280
0
281
1
  3
ACAD_GROUP
350
D
  3
ACAD_MLINESTYLE
350
17
  3
ACAD_LAYOUT
350
1A
  3
ACAD_PLOTSETTINGS
350
19
  3
ACAD_PLOTSTYLENAME
350
E
  0
DICTIONARY
  5
D
102
{ACAD_REACTORS
330
C
102
}
100
AcDbDictionary
280
0
281
1
  0
ACDBDICTIONARYWDFLT
  5
E
102
{ACAD_REACTORS
330
C
102
}
100
AcDbDictionary
281
1
  3
Normal
350
F
100
AcDbDictionaryWithDefault
340
F
  0
DICTIONARY
  5
17
102
{ACAD_REACTORS
330
C
102
}
100
AcDbDictionary
280
0
281
1
  3
Standard
350
18
  0
DICTIONARY
  5
19
102
{ACAD_REACTORS
330
C
102
}
100
AcDbDictionary
281
1
  0
DICTIONARY
  5
1A
102
{ACAD_REACTORS
330
C
102
}
100
AcDbDictionary
281
1
  3
Model
350
674
  3
Layout1
350
675
  0
ACDBPLACEHOLDER
  5
F
102
{ACAD_REACTORS
330
E
102
}
  0
MLINESTYLE
  5
18
102
{ACAD_REACTORS
330
17
102
}
100
AcDbMlineStyle
  2
STANDARD
 70
0
  3

 62
256
 51
90.0
 52
90.0
 71
2
 49
0.5
 62
256
  6
BYLAYER
 49
-0.5
 62
256
  6
BYLAYER
  0
LAYOUT
  5
674
102
{ACAD_REACTORS
330
1A
102
}
100
AcDbPlotSettings
  1

  2
none_device
  4
ISO_A4_(297.00_x_210.00_MM)
  6

 40
0.0
 41
0.0
 42
0.0
 43
0.0
 44
297.0
 45
210.0
 46
0.0
 47
0.0
 48
0.0
 49
0.0
140
0.0
141
0.0
142
1.0
143
1.0
 70
1024
 72
1
 73
0
 74
0
  7

 75
0
147
1.0
148
0.0
149
0.0
100
AcDbLayout
  1
Model
 70
0
 71
0
 10
0.0
 20
0.0
 11
297.0
 21
210.0
 12
0.0
 22
0.0
 32
0.0
 14
0.0
 24
0.0
 34
0.0
 15
0.0
 25
0.0
 35
0.0
146
0.0
 13
0.0
 23
0.0
 33
0.0
 16
1.0
 26
0.0
 36
0.0
 17
0.0
 27
1.0
 37
0.0
 76
0
330
213
345
0
346
0
  0
LAYOUT
  5
675
102
{ACAD_REACTORS
330
1A
102
}
100
AcDbPlotSettings
  1

  2
none_device
  4
ISO_A4_(297.00_x_210.00_MM)
  6

 40
0.0
 41
0.0
 42
0.0
 43
0.0
 44
297.0
 45
210.0
 46
0.0
 47
0.0
 48
0.0
 49
0.0
140
0.0
141
0.0
142
1.0
143
1.0
 70
0
 72
1
 73
0
 74
0
  7

 75
0
147
1.0
148
0.0
149
0.0
100
AcDbLayout
  1
Layout1
 70
0
 71
1
 10
0.0
 20
0.0
 11
297.0
 21
210.0
 12
0.0
 22
0.0
 32
0.0
 14
0.0
 24
0.0
 34
0.0
 15
0.0
 25
0.0
 35
0.0
146
0.0
 13
0.0
 23
0.0
 33
0.0
 16
1.0
 26
0.0
 36
0.0
 17
0.0
 27
1.0
 37
0.0
 76
0
330
214
345
0
346
0
  0
ENDSEC
  0
EOF
