  0
SECTION
  2
HEADER
  9
$ACADVER
  1
AC1021
  9
$DWGCODEPAGE
  3
ANSI_1252
  9
$EXTMAX
 10
558.8
 20
431.8
 30
0.0
  9
$EXTMIN
 10
0.0
 20
0.0
 30
0.0
  9
$LIMMIN
 10
0.0
 20
0.0
  9
$LIMMAX
 10
558.8
 20
431.8
  9
$VIEWCTR
 10
279.4
 20
215.9
  9
$VIEWSIZE
 40
431.8
  9
$CLAYER
  8
0
  9
$LTSCALE
 40
30.734
  9
$CELTYPE
  6
BYLAYER
  9
$DIMSCALE
 40
1.0
  9
$DIMASZ
 40
3.0
  9
$DIMEXO
 40
0.5
  9
$DIMDLI
 40
21.2344
  9
$DIMEXE
 40
1.5
  9
$DIMCEN
 40
5.0292
  9
$DIMLFAC
 40
1.0
  9
$DIMBLK
  1
_FILLED
  9
$DIMALT
 70
0
  9
$DIMALTF
 40
0.0393700787
  9
$DIMTXT
 40
3.0
  9
$DIMTOL
 70
1
  9
$DIMLIM
 70
0
  9
$DIMTFAC
 40
1.0
  9
$DIMTP
 40
0.01
  9
$DIMTM
 40
0.01
  9
$DIMGAP
 40
0.625
  9
$DIMDSEP
 70
44
  9
$AUNITS
 70
0
  9
$PDMODE
 70
3
  9
$PDSIZE
 40
3.0
  9
$HANDSEED
  5
760
  9
$TILEMODE
 70
1
  9
$MEASUREMENT
 70
1
  9
$INSUNITS
 70
4
  0
ENDSEC
  0
SECTION
  2
CLASSES
  0
CLASS
  1
ACDBDICTIONARYWDFLT
  2
AcDbDictionaryWithDefault
  3
AutoCAD 2000
 90
0
 91
1
280
0
281
0
  0
CLASS
  1
ACDBPLACEHOLDER
  2
AcDbPlaceHolder
  3
AutoCAD 2000
 90
0
 91
1
280
0
281
0
  0
CLASS
  1
LAYOUT
  2
AcDbLayout
  3
AutoCAD 2000
 90
0
 91
0
280
0
281
0
  0
ENDSEC
  0
SECTION
  2
TABLES
  0
TABLE
  2
VPORT
  5
8
100
AcDbSymbolTable
 70
2
  0
VPORT
  5
1F4
100
AcDbSymbolTableRecord
100
AcDbViewportTableRecord
  2
*ACTIVE
 70
0
 10
0.0
 20
0.0
 11
1.0
 21
1.0
 12
279.4
 22
215.9
 13
0.0
 23
0.0
 14
1.0
 24
1.0
 15
0.0
 25
0.0
 16
0.0
 26
0.0
 36
1.0
 17
0.0
 27
0.0
 37
0.0
 40
431.8
 41
1.2941176471
 42
50.0
 43
0.0
 44
0.0
 50
0.0
 51
0.0
 71
0
 72
100
 73
1
 74
1
 75
0
 76
0
 77
0
 78
0
  0
ENDTAB
  0
TABLE
  2
LTYPE
  5
5
100
AcDbSymbolTable
 70
6
  0
LTYPE
  5
14
100
AcDbSymbolTableRecord
100
AcDbLinetypeTableRecord
  2
BYBLOCK
 70
0
  3

 72
65
 73
0
 40
0.0
  0
LTYPE
  5
15
100
AcDbSymbolTableRecord
100
AcDbLinetypeTableRecord
  2
BYLAYER
 70
0
  3

 72
65
 73
0
 40
0.0
  0
LTYPE
  5
16
100
AcDbSymbolTableRecord
100
AcDbLinetypeTableRecord
  2
CONTINUOUS
 70
64
  3
Solid line
 72
65
 73
0
 40
0.0
  0
LTYPE
  5
1F5
100
AcDbSymbolTableRecord
100
AcDbLinetypeTableRecord
  2
CENTER
 70
64
  3
____ _ ____ _ ____ _ ____ _ ____ _ ____ _ ____
 72
65
 73
4
 40
0.6
 49
0.375
 74
0
 49
-0.075
 74
0
 49
0.075
 74
0
 49
-0.075
 74
0
  0
LTYPE
  5
1F6
100
AcDbSymbolTableRecord
100
AcDbLinetypeTableRecord
  2
HIDDEN
 70
64
  3
- - - - - - - - - - - - - - - - - - - -
 72
65
 73
2
 40
0.2
 49
0.1
 74
0
 49
-0.1
 74
0
  0
LTYPE
  5
1F7
100
AcDbSymbolTableRecord
100
AcDbLinetypeTableRecord
  2
PHANTOM
 70
64
  3
_____ _ _ _____ _ _ _____ _ _ _____
 72
65
 73
6
 40
0.8
 49
0.45
 74
0
 49
-0.05
 74
0
 49
0.1
 74
0
 49
-0.05
 74
0
 49
0.1
 74
0
 49
-0.05
 74
0
  0
LTYPE
  5
1F8
100
AcDbSymbolTableRecord
100
AcDbLinetypeTableRecord
  2
DOT
 70
64
  3
. . . . . . . . . . . . . . . . . . . .
 72
65
 73
2
 40
0.2
 49
0.1
 74
0
 49
-0.1
 74
0
  0
LTYPE
  5
1F9
100
AcDbSymbolTableRecord
100
AcDbLinetypeTableRecord
  2
DASHED
 70
64
  3
- - - - - - - - - - - - - - - - - - - -
 72
65
 73
2
 40
0.2
 49
0.1
 74
0
 49
-0.1
 74
0
  0
ENDTAB
  0
TABLE
  2
LAYER
  5
2
100
AcDbSymbolTable
 70
36
  0
LAYER
  5
10
100
AcDbSymbolTableRecord
100
AcDbLayerTableRecord
  2
0
 70
0
 62
7
  6
CONTINUOUS
370
-3
390
F
  0
LAYER
  5
1FA
100
AcDbSymbolTableRecord
100
AcDbLayerTableRecord
  2
DEFAULT_1
 70
0
 62
7
  6
CENTER
370
-3
390
F
  0
LAYER
  5
1FB
100
AcDbSymbolTableRecord
100
AcDbLayerTableRecord
  2
DEFAULT_2
 70
0
 62
7
  6
HIDDEN
370
-3
390
F
  0
LAYER
  5
1FC
100
AcDbSymbolTableRecord
100
AcDbLayerTableRecord
  2
DEFAULT_3
 70
0
 62
7
  6
PHANTOM
370
-3
390
F
  0
LAYER
  5
1FD
100
AcDbSymbolTableRecord
100
AcDbLayerTableRecord
  2
ASSI
 70
0
 62
7
  6
CONTINUOUS
370
-3
390
F
  0
LAYER
  5
1FE
100
AcDbSymbolTableRecord
100
AcDbLayerTableRecord
  2
COORDINATE
 70
0
 62
7
  6
CONTINUOUS
370
-3
390
F
  0
LAYER
  5
1FF
100
AcDbSymbolTableRecord
100
AcDbLayerTableRecord
  2
COORD_ORIGINE
 70
0
 62
7
  6
CONTINUOUS
370
-3
390
F
  0
LAYER
  5
200
100
AcDbSymbolTableRecord
100
AcDbLayerTableRecord
  2
CURVE
 70
0
 62
7
  6
CONTINUOUS
370
-3
390
F
  0
LAYER
  5
201
100
AcDbSymbolTableRecord
100
AcDbLayerTableRecord
  2
DRAFT
 70
0
 62
7
  6
CONTINUOUS
370
-3
390
F
  0
LAYER
  5
202
100
AcDbSymbolTableRecord
100
AcDbLayerTableRecord
  2
IMPORT
 70
0
 62
7
  6
CONTINUOUS
370
-3
390
F
  0
LAYER
  5
203
100
AcDbSymbolTableRecord
100
AcDbLayerTableRecord
  2
INTF_1
 70
0
 62
7
  6
CONTINUOUS
370
-3
390
F
  0
LAYER
  5
204
100
AcDbSymbolTableRecord
100
AcDbLayerTableRecord
  2
INTF_11
 70
0
 62
7
  6
CONTINUOUS
370
-3
390
F
  0
LAYER
  5
205
100
AcDbSymbolTableRecord
100
AcDbLayerTableRecord
  2
NOTE
 70
0
 62
7
  6
CONTINUOUS
370
-3
390
F
  0
LAYER
  5
206
100
AcDbSymbolTableRecord
100
AcDbLayerTableRecord
  2
PIANI
 70
0
 62
7
  6
CONTINUOUS
370
-3
390
F
  0
LAYER
  5
207
100
AcDbSymbolTableRecord
100
AcDbLayerTableRecord
  2
PIANI_ORIGINE
 70
0
 62
7
  6
CONTINUOUS
370
-3
390
F
  0
LAYER
  5
208
100
AcDbSymbolTableRecord
100
AcDbLayerTableRecord
  2
PIANI_RIFERIMENTO
 70
0
 62
7
  6
CONTINUOUS
370
-3
390
F
  0
LAYER
  5
209
100
AcDbSymbolTableRecord
100
AcDbLayerTableRecord
  2
PIANI_SFORMO
 70
0
 62
7
  6
CONTINUOUS
370
-3
390
F
  0
LAYER
  5
20A
100
AcDbSymbolTableRecord
100
AcDbLayerTableRecord
  2
PUNTI
 70
0
 62
7
  6
CONTINUOUS
370
-3
390
F
  0
LAYER
  5
20B
100
AcDbSymbolTableRecord
100
AcDbLayerTableRecord
  2
RACCORDO
 70
0
 62
7
  6
CONTINUOUS
370
-3
390
F
  0
LAYER
  5
20C
100
AcDbSymbolTableRecord
100
AcDbLayerTableRecord
  2
SMUSSO
 70
0
 62
7
  6
CONTINUOUS
370
-3
390
F
  0
LAYER
  5
20D
100
AcDbSymbolTableRecord
100
AcDbLayerTableRecord
  2
SNAPLINE
 70
0
 62
7
  6
CONTINUOUS
370
-3
390
F
  0
LAYER
  5
20E
100
AcDbSymbolTableRecord
100
AcDbLayerTableRecord
  2
SUPERFICI
 70
0
 62
7
  6
CONTINUOUS
370
-3
390
F
  0
LAYER
  5
20F
100
AcDbSymbolTableRecord
100
AcDbLayerTableRecord
  2
TRASH
 70
0
 62
7
  6
CONTINUOUS
370
-3
390
F
  0
LAYER
  5
210
100
AcDbSymbolTableRecord
100
AcDbLayerTableRecord
  2
XSEC_DATUMS
 70
0
 62
7
  6
CONTINUOUS
370
-3
390
F
  0
ENDTAB
  0
TABLE
  2
STYLE
  5
3
100
AcDbSymbolTable
 70
1
  0
STYLE
  5
11
100
AcDbSymbolTableRecord
100
AcDbTextStyleTableRecord
  2
STANDARD
 70
0
 40
0.0
 41
0.8
 50
0.0
 71
0
 42
0.2
  3
txt
  4

  0
STYLE
  5
211
100
AcDbSymbolTableRecord
100
AcDbTextStyleTableRecord
  2
TEXTSTYLE_1
 70
0
 40
0.0
 41
0.8
 50
0.0
 71
0
 42
0.2
  3
gdt
  4

  0
ENDTAB
  0
TABLE
  2
VIEW
  5
6
100
AcDbSymbolTable
 70
0
  0
ENDTAB
  0
TABLE
  2
UCS
  5
7
100
AcDbSymbolTable
 70
0
  0
ENDTAB
  0
TABLE
  2
APPID
  5
9
100
AcDbSymbolTable
 70
1
  0
APPID
  5
212
100
AcDbSymbolTableRecord
100
AcDbRegAppTableRecord
  2
ACAD
 70
0
  0
ENDTAB
  0
TABLE
  2
BLOCK_RECORD
  5
1
100
AcDbSymbolTable
 70
0
  0
BLOCK_RECORD
  5
213
100
AcDbSymbolTableRecord
100
AcDbBlockTableRecord
  2
*Model_Space
  0
BLOCK_RECORD
  5
214
100
AcDbSymbolTableRecord
100
AcDbBlockTableRecord
  2
*Paper_Space
  0
BLOCK_RECORD
  5
215
100
AcDbSymbolTableRecord
100
AcDbBlockTableRecord
  2
_FILLED
  0
BLOCK_RECORD
  5
216
100
AcDbSymbolTableRecord
100
AcDbBlockTableRecord
  2
*D0
  0
BLOCK_RECORD
  5
217
100
AcDbSymbolTableRecord
100
AcDbBlockTableRecord
  2
*D1
  0
BLOCK_RECORD
  5
218
100
AcDbSymbolTableRecord
100
AcDbBlockTableRecord
  2
*D2
  0
BLOCK_RECORD
  5
219
100
AcDbSymbolTableRecord
100
AcDbBlockTableRecord
  2
*D3
  0
ENDTAB
  0
TABLE
  2
DIMSTYLE
  5
A
100
AcDbSymbolTable
 70
1
100
AcDbDimStyleTable
 71
0
  0
DIMSTYLE
105
21A
100
AcDbSymbolTableRecord
100
AcDbDimStyleTableRecord
  2
STANDARD
 70
0
  3

  4

 40
1.0
 41
3.0
 42
0.5
 43
0.38
 44
1.5
 45
0.0
 46
0.0
 47
0.01
 48
0.01
140
3.0
141
0.09
142
0.0
143
25.4
144
1.0
145
0.0
146
1.0
147
0.625
 71
1.0
 72
0.0
 73
0
 74
0
 75
0
 76
0
 77
1
 78
8
 79
2
170
0
171
1
172
0
173
0
174
0
175
0
176
0
177
0
178
0
270
2
179
2
271
2
272
2
273
2
274
2
275
0
280
0
281
0
282
0
283
1
284
8
285
0
286
0
287
3
288
0
340
11
278
44
341
215
342
215
343
215
344
215
  0
DIMSTYLE
105
21B
100
AcDbSymbolTableRecord
100
AcDbDimStyleTableRecord
  2
DIMSTYLE_1
 70
0
  3

  4

 40
1.0
 41
3.0
 42
0.5
 43
0.38
 44
1.5
 45
0.0
 46
0.0
 47
0.0
 48
0.0
140
3.0
141
0.09
142
0.0
143
25.4
144
1.0
145
0.0
146
1.0
147
0.75
 71
0.0
 72
0.0
 73
0
 74
0
 75
0
 76
0
 77
1
 78
8
 79
2
170
0
171
1
172
0
173
0
174
0
175
0
176
0
177
0
178
0
270
2
179
2
271
2
272
2
273
2
274
2
275
0
280
0
281
0
282
0
283
1
284
8
285
0
286
0
287
3
288
0
340
11
278
44
341
215
342
215
343
215
344
215
  0
ENDTAB
  0
ENDSEC
  0
SECTION
  2
BLOCKS
  0
BLOCK
  5
20
100
AcDbEntity
  8
0
100
AcDbBlockBegin
  2
*Model_Space
 70
0
 10
0.0
 20
0.0
 30
0.0
  3
*Model_Space
  1

  0
ENDBLK
  5
21
100
AcDbEntity
  8
0
100
AcDbBlockEnd
  0
BLOCK
  5
1C
100
AcDbEntity
  8
0
100
AcDbBlockBegin
  2
*Paper_Space
 70
0
 10
0.0
 20
0.0
 30
0.0
  3
*Paper_Space
  1

  0
ENDBLK
  5
1D
100
AcDbEntity
  8
0
100
AcDbBlockEnd
  0
BLOCK
  5
21C
100
AcDbEntity
  8
0
100
AcDbBlockBegin
  2
_FILLED
 70
64
 10
0.0
 20
0.0
  3
_FILLED
  1

  0
SOLID
  5
21D
100
AcDbEntity
  8
0
  6
BYBLOCK
 62
0
100
AcDbTrace
 10
0.0
 20
0.0
 11
-1.0
 21
0.3166666667
 12
-1.0
 22
-0.3166666667
 13
-1.0
 23
-0.3166666667
  0
ENDBLK
  5
21E
100
AcDbEntity
  8
0
  6
BYBLOCK
 62
0
100
AcDbBlockEnd
  0
BLOCK
  5
21F
100
AcDbEntity
  8
0
100
AcDbBlockBegin
 62
7
  6
CONTINUOUS
  2
*D0
 70
65
 10
0.0
 20
0.0
  3
*D0
  1

  0
LINE
  5
220
100
AcDbEntity
  8
0
100
AcDbLine
 62
7
  6
CONTINUOUS
 10
-26.2777334734
 20
5.2228182695
 11
-26.2777334734
 21
34.4799873241
  0
LINE
  5
221
100
AcDbEntity
  8
0
100
AcDbLine
 62
7
  6
CONTINUOUS
 10
-58.8777334734
 20
24.7456323968
 11
-58.8777334734
 21
34.4799873241
  0
LINE
  5
222
100
AcDbEntity
  8
0
100
AcDbLine
 62
7
  6
CONTINUOUS
 10
-26.2777334734
 20
32.9799873241
 11
-42.5777334734
 21
32.9799873241
  0
LINE
  5
223
100
AcDbEntity
  8
0
100
AcDbLine
 62
7
  6
CONTINUOUS
 10
-58.8777334734
 20
32.9799873241
 11
-42.5777334734
 21
32.9799873241
  0
INSERT
  5
224
100
AcDbEntity
  8
0
100
AcDbBlockReference
 62
7
  6
CONTINUOUS
  2
_FILLED
 10
-26.2777334734
 20
32.9799873241
 41
3.0
 42
3.0
 43
3.0
  0
INSERT
  5
225
100
AcDbEntity
  8
0
100
AcDbBlockReference
 62
7
  6
CONTINUOUS
  2
_FILLED
 10
-58.8777334734
 20
32.9799873241
 41
3.0
 42
3.0
 43
3.0
 50
180.0
  0
ENDBLK
  5
226
100
AcDbEntity
  8
0
  6
BYBLOCK
 62
0
100
AcDbBlockEnd
  0
BLOCK
  5
227
100
AcDbEntity
  8
0
100
AcDbBlockBegin
 62
7
  6
CONTINUOUS
  2
*D1
 70
65
 10
0.0
 20
0.0
  3
*D1
  1

  0
LINE
  5
228
100
AcDbEntity
  8
0
100
AcDbLine
 62
7
  6
CONTINUOUS
 10
-26.2777334734
 20
5.2228182695
 11
-26.2777334734
 21
44.4739438919
  0
LINE
  5
229
100
AcDbEntity
  8
0
100
AcDbLine
 62
7
  6
CONTINUOUS
 10
-69.3777334734
 20
0.5
 11
-69.3777334734
 21
44.4739438919
  0
LINE
  5
22A
100
AcDbEntity
  8
0
100
AcDbLine
 62
7
  6
CONTINUOUS
 10
-26.2777334734
 20
42.9739438919
 11
-47.8277334734
 21
42.9739438919
  0
LINE
  5
22B
100
AcDbEntity
  8
0
100
AcDbLine
 62
7
  6
CONTINUOUS
 10
-69.3777334734
 20
42.9739438919
 11
-47.8277334734
 21
42.9739438919
  0
INSERT
  5
22C
100
AcDbEntity
  8
0
100
AcDbBlockReference
 62
7
  6
CONTINUOUS
  2
_FILLED
 10
-26.2777334734
 20
42.9739438919
 41
3.0
 42
3.0
 43
3.0
  0
INSERT
  5
22D
100
AcDbEntity
  8
0
100
AcDbBlockReference
 62
7
  6
CONTINUOUS
  2
_FILLED
 10
-69.3777334734
 20
42.9739438919
 41
3.0
 42
3.0
 43
3.0
 50
180.0
  0
ENDBLK
  5
22E
100
AcDbEntity
  8
0
  6
BYBLOCK
 62
0
100
AcDbBlockEnd
  0
BLOCK
  5
22F
100
AcDbEntity
  8
0
100
AcDbBlockBegin
 62
7
  6
CONTINUOUS
  2
*D2
 70
65
 10
0.0
 20
0.0
  3
*D2
  1

  0
LINE
  5
230
100
AcDbEntity
  8
0
100
AcDbLine
 62
7
  6
CONTINUOUS
 10
9.225
 20
22.4411874598
 11
9.225
 21
34.5629462394
  0
LINE
  5
231
100
AcDbEntity
  8
0
100
AcDbLine
 62
7
  6
CONTINUOUS
 10
-13.075
 20
22.4411874598
 11
-13.075
 21
34.5629462394
  0
LINE
  5
232
100
AcDbEntity
  8
0
100
AcDbLine
 62
7
  6
CONTINUOUS
 10
9.225
 20
33.0629462394
 11
-1.925
 21
33.0629462394
  0
LINE
  5
233
100
AcDbEntity
  8
0
100
AcDbLine
 62
7
  6
CONTINUOUS
 10
-13.075
 20
33.0629462394
 11
-1.925
 21
33.0629462394
  0
INSERT
  5
234
100
AcDbEntity
  8
0
100
AcDbBlockReference
 62
7
  6
CONTINUOUS
  2
_FILLED
 10
9.225
 20
33.0629462394
 41
3.0
 42
3.0
 43
3.0
  0
INSERT
  5
235
100
AcDbEntity
  8
0
100
AcDbBlockReference
 62
7
  6
CONTINUOUS
  2
_FILLED
 10
-13.075
 20
33.0629462394
 41
3.0
 42
3.0
 43
3.0
 50
180.0
  0
ENDBLK
  5
236
100
AcDbEntity
  8
0
  6
BYBLOCK
 62
0
100
AcDbBlockEnd
  0
BLOCK
  5
237
100
AcDbEntity
  8
0
100
AcDbBlockBegin
 62
7
  6
CONTINUOUS
  2
*D3
 70
65
 10
0.0
 20
0.0
  3
*D3
  1

  0
LINE
  5
238
100
AcDbEntity
  8
0
100
AcDbLine
 62
7
  6
CONTINUOUS
 10
8.9750042308
 20
24.5
 11
22.5407077864
 21
24.5
  0
LINE
  5
239
100
AcDbEntity
  8
0
100
AcDbLine
 62
7
  6
CONTINUOUS
 10
8.9750042308
 20
-24.5
 11
22.5407077864
 21
-24.5
  0
LINE
  5
23A
100
AcDbEntity
  8
0
100
AcDbLine
 62
7
  6
CONTINUOUS
 10
21.0407077864
 20
24.5
 11
21.0407077864
 21
0.0
  0
LINE
  5
23B
100
AcDbEntity
  8
0
100
AcDbLine
 62
7
  6
CONTINUOUS
 10
21.0407077864
 20
-24.5
 11
21.0407077864
 21
0.0
  0
INSERT
  5
23C
100
AcDbEntity
  8
0
100
AcDbBlockReference
 62
7
  6
CONTINUOUS
  2
_FILLED
 10
21.0407077864
 20
24.5
 41
3.0
 42
3.0
 43
3.0
 50
90.0
  0
INSERT
  5
23D
100
AcDbEntity
  8
0
100
AcDbBlockReference
 62
7
  6
CONTINUOUS
  2
_FILLED
 10
21.0407077864
 20
-24.5
 41
3.0
 42
3.0
 43
3.0
 50
270.0
  0
ENDBLK
  5
23E
100
AcDbEntity
  8
0
  6
BYBLOCK
 62
0
100
AcDbBlockEnd
  0
ENDSEC
  0
SECTION
  2
ENTITIES
  0
DIMENSION
  5
23F
100
AcDbEntity
  8
0
100
AcDbDimension
 62
7
  6
CONTINUOUS
  2
*D0
 10
-58.8777334734
 20
32.9799873241
 11
-46.8634477592
 21
32.9799873241
 70
160
 71
2
 72
2
 41
0.9
 42
32.6
  3
DIMSTYLE_1
100
AcDbAlignedDimension
 13
-26.2777334734
 23
4.7228182695
 14
-58.8777334734
 24
24.2456323968
 50
180.0
100
AcDbRotatedDimension
  0
DIMENSION
  5
240
100
AcDbEntity
  8
0
100
AcDbDimension
 62
7
  6
CONTINUOUS
  2
*D1
 10
-69.3777334734
 20
42.9739438919
 11
-51.7920191877
 21
42.9739438919
 70
160
 71
2
 72
2
 41
0.9
 42
43.1
  3
DIMSTYLE_1
100
AcDbAlignedDimension
 13
-26.2777334734
 23
4.7228182695
 14
-69.3777334734
 24
0.0
 50
180.0
100
AcDbRotatedDimension
  0
DIMENSION
  5
241
100
AcDbEntity
  8
0
100
AcDbDimension
 62
7
  6
CONTINUOUS
  2
*D2
 10
-13.075
 20
33.0629462394
 11
-6.2107142857
 21
33.0629462394
 70
160
 71
2
 72
2
 41
0.9
 42
22.3
  3
DIMSTYLE_1
100
AcDbAlignedDimension
 13
9.225
 23
21.9411874598
 14
-13.075
 24
21.9411874598
 50
180.0
100
AcDbRotatedDimension
  0
DIMENSION
  5
242
100
AcDbEntity
  8
0
100
AcDbDimension
 62
7
  6
CONTINUOUS
  2
*D3
 10
21.0407077864
 20
-24.5
 11
21.0407077864
 21
-2.3571428571
 70
160
 71
2
 72
2
 41
0.9
 42
49.0
  3
DIMSTYLE_1
100
AcDbAlignedDimension
 13
8.4750042308
 23
24.5
 14
8.4750042308
 24
-24.5
 50
270.0
100
AcDbRotatedDimension
  0
LWPOLYLINE
  5
243
100
AcDbEntity
  8
0
100
AcDbPolyline
 62
7
  6
CONTINUOUS
 90
5
 70
0
 43
0.3500000087
 10
1.074999984
 20
35.5272326202
 10
1.4321428283
 20
35.7415191528
 10
1.4321428283
 20
36.3843744873
 10
1.074999984
 20
36.8129475525
 10
0.217857151
 20
36.8129475525
  0
LINE
  5
244
100
AcDbEntity
  8
RACCORDO
100
AcDbLine
 62
250
  6
CONTINUOUS
 10
-10.4249957692
 20
24.5
 11
-10.4380943479
 21
24.4869014213
  0
LINE
  5
245
100
AcDbEntity
  8
RACCORDO
100
AcDbLine
 62
250
  6
CONTINUOUS
 10
-10.175
 20
24.2500042308
 11
-10.1880985787
 21
24.2369056521
  0
LINE
  5
246
100
AcDbEntity
  8
RACCORDO
100
AcDbLine
 62
7
  6
CONTINUOUS
 10
-12.8086665638
 20
22.3525030696
 11
-12.8261653088
 21
22.3437543634
  0
LINE
  5
247
100
AcDbEntity
  8
RACCORDO
100
AcDbLine
 62
250
  6
CONTINUOUS
 10
-13.0575780505
 20
21.9498977711
 11
-13.075
 21
21.9411874598
  0
LWPOLYLINE
  5
248
100
AcDbEntity
  8
RACCORDO
100
AcDbPolyline
 62
7
  6
CONTINUOUS
 90
11
 70
0
 10
-12.8086665626
 20
22.3525030702
 10
-12.7945972946
 20
22.3592350157
 10
-12.7749162987
 20
22.3676760906
 10
-12.7548548934
 20
22.3751716873
 10
-12.7344579488
 20
22.3817047368
 10
-12.7137802039
 20
22.3872580372
 10
-12.6928599813
 20
22.3918216243
 10
-12.6717176944
 20
22.3953887314
 10
-12.6503916322
 20
22.3979479803
 10
-12.6289387763
 20
22.3994876437
 10
-12.6074078424
 20
22.4
  0
LWPOLYLINE
  5
249
100
AcDbEntity
  8
RACCORDO
100
AcDbPolyline
 62
250
  6
CONTINUOUS
 90
31
 70
0
 10
8.4619056521
 20
-24.4869014213
 10
8.4749891381
 20
-24.4865583827
 10
8.4880367647
 20
-24.4855310928
 10
8.5010127708
 20
-24.4838223673
 10
8.5138815916
 20
-24.4814368893
 10
8.5266079562
 20
-24.4783811971
 10
8.5391569839
 20
-24.4746636657
 10
8.5514942801
 20
-24.4702944842
 10
8.5635860308
 20
-24.4652856277
 10
8.5753990946
 20
-24.4596508246
 10
8.5869010942
 20
-24.4534055187
 10
8.5980605047
 20
-24.4465668272
 10
8.6088467403
 20
-24.4391534939
 10
8.6192302379
 20
-24.4311858371
 10
8.6291825384
 20
-24.4226856948
 10
8.6386763643
 20
-24.4136763643
 10
8.6476856948
 20
-24.4041825384
 10
8.6561858371
 20
-24.3942302379
 10
8.6641534939
 20
-24.3838467403
 10
8.6715668272
 20
-24.3730605047
 10
8.6784055187
 20
-24.3619010942
 10
8.6846508246
 20
-24.3503990946
 10
8.6902856277
 20
-24.3385860308
 10
8.6952944842
 20
-24.3264942801
 10
8.6996636657
 20
-24.3141569839
 10
8.7033811971
 20
-24.3016079562
 10
8.7064368893
 20
-24.2888815916
 10
8.7088223673
 20
-24.2760127708
 10
8.7105310928
 20
-24.2630367647
 10
8.7115583827
 20
-24.2499891381
 10
8.7119014213
 20
-24.2369056521
  0
LWPOLYLINE
  5
24A
100
AcDbEntity
  8
RACCORDO
100
AcDbPolyline
 62
250
  6
CONTINUOUS
 90
31
 70
0
 10
-10.4380943479
 20
-24.4869014213
 10
-10.4250079938
 20
-24.4865582323
 10
-10.4119574955
 20
-24.4855304893
 10
-10.3989786381
 20
-24.4838210061
 10
-10.3861069984
 20
-24.4814344634
 10
-10.3733778845
 20
-24.4783774023
 10
-10.360826237
 20
-24.4746582128
 10
-10.3484864809
 20
-24.4702870977
 10
-10.3363924437
 20
-24.4652760422
 10
-10.3245772981
 20
-24.4596387939
 10
-10.3130734423
 20
-24.4533908148
 10
-10.3019124163
 20
-24.446549239
 10
-10.291124826
 20
-24.4391328321
 10
-10.2807402367
 20
-24.4311619239
 10
-10.2707871333
 20
-24.4226583824
 10
-10.2612928401
 20
-24.4136455633
 10
-10.2522834183
 20
-24.4041482289
 10
-10.2437835214
 20
-24.3941923917
 10
-10.2358163791
 20
-24.3838052658
 10
-10.2284037491
 20
-24.3730151866
 10
-10.2215660673
 20
-24.3618518682
 10
-10.2153222656
 20
-24.3503462678
 10
-10.209689517
 20
-24.3385301896
 10
-10.2046830871
 20
-24.3264358334
 10
-10.200316536
 20
-24.3140960295
 10
-10.1966010963
 20
-24.3015418449
 10
-10.1935479829
 20
-24.2888103798
 10
-10.1911668528
 20
-24.275944661
 10
-10.1894632485
 20
-24.2629828864
 10
-10.1884399859
 20
-24.249957992
 10
-10.1880985787
 20
-24.2369056521
  0
LWPOLYLINE
  5
24B
100
AcDbEntity
  8
RACCORDO
100
AcDbPolyline
 62
7
  6
CONTINUOUS
 90
34
 70
0
 10
8.4750042308
 20
-24.5
 10
8.486899516
 20
-24.4997168498
 10
8.4987678556
 20
-24.4988680342
 10
8.5105823661
 20
-24.4974554741
 10
8.5223162875
 20
-24.4954823677
 10
8.5339430388
 20
-24.4929531817
 10
8.545436279
 20
-24.4898736417
 10
8.5567699738
 20
-24.4862507213
 10
8.5679184493
 20
-24.4820926258
 10
8.5788564463
 20
-24.4774087722
 10
8.5895591876
 20
-24.4722097688
 10
8.6000024283
 20
-24.4665073916
 10
8.6101625059
 20
-24.4603145581
 10
8.6200164051
 20
-24.4536452955
 10
8.6295418038
 20
-24.4465147107
 10
8.6387171191
 20
-24.4389389589
 10
8.6475215661
 20
-24.4309352005
 10
8.6559352005
 20
-24.4225215661
 10
8.6639389589
 20
-24.4137171191
 10
8.6715147107
 20
-24.4045418038
 10
8.6786452955
 20
-24.3950164051
 10
8.6853145581
 20
-24.3851625059
 10
8.6915073916
 20
-24.3750024283
 10
8.6972097688
 20
-24.3645591876
 10
8.7024087722
 20
-24.3538564463
 10
8.7070926258
 20
-24.3429184493
 10
8.7112507213
 20
-24.3317699738
 10
8.7148736417
 20
-24.320436279
 10
8.7179531817
 20
-24.3089430388
 10
8.7204823677
 20
-24.2973162875
 10
8.7224554741
 20
-24.2855823661
 10
8.7238680342
 20
-24.2737678556
 10
8.7247168498
 20
-24.261899516
 10
8.725
 20
-24.2500042308
  0
LWPOLYLINE
  5
24C
100
AcDbEntity
  8
RACCORDO
100
AcDbPolyline
 62
7
  6
CONTINUOUS
 90
34
 70
0
 10
-10.4249957692
 20
-24.5
 10
-10.413100484
 20
-24.4997168498
 10
-10.4012321444
 20
-24.4988680342
 10
-10.3894176339
 20
-24.4974554741
 10
-10.3776837125
 20
-24.4954823677
 10
-10.3660569612
 20
-24.4929531817
 10
-10.354563721
 20
-24.4898736417
 10
-10.3432300262
 20
-24.4862507213
 10
-10.3320815507
 20
-24.4820926258
 10
-10.3211435537
 20
-24.4774087722
 10
-10.3104408124
 20
-24.4722097688
 10
-10.2999975717
 20
-24.4665073916
 10
-10.2898374941
 20
-24.4603145581
 10
-10.2799835949
 20
-24.4536452955
 10
-10.2704581962
 20
-24.4465147107
 10
-10.2612828809
 20
-24.4389389589
 10
-10.2524784339
 20
-24.4309352005
 10
-10.2440647995
 20
-24.4225215661
 10
-10.2360610411
 20
-24.4137171191
 10
-10.2284852893
 20
-24.4045418038
 10
-10.2213547045
 20
-24.3950164051
 10
-10.2146854419
 20
-24.3851625059
 10
-10.2084926084
 20
-24.3750024283
 10
-10.2027902312
 20
-24.3645591876
 10
-10.1975912278
 20
-24.3538564463
 10
-10.1929073742
 20
-24.3429184493
 10
-10.1887492787
 20
-24.3317699738
 10
-10.1851263583
 20
-24.320436279
 10
-10.1820468183
 20
-24.3089430388
 10
-10.1795176323
 20
-24.2973162875
 10
-10.1775445259
 20
-24.2855823661
 10
-10.1761319658
 20
-24.2737678556
 10
-10.1752831502
 20
-24.261899516
 10
-10.175
 20
-24.2500042308
  0
LINE
  5
24D
100
AcDbEntity
  8
RACCORDO
100
AcDbLine
 62
7
  6
CONTINUOUS
 10
8.4750042308
 20
-24.5
 11
6.5749957692
 21
-24.5
  0
LINE
  5
24E
100
AcDbEntity
  8
RACCORDO
100
AcDbLine
 62
7
  6
CONTINUOUS
 10
-10.4249957692
 20
-24.5
 11
-12.3250042308
 21
-24.5
  0
LINE
  5
24F
100
AcDbEntity
  8
RACCORDO
100
AcDbLine
 62
250
  6
CONTINUOUS
 10
-12.3119056521
 20
-24.4869014213
 11
-10.4380943479
 21
-24.4869014213
  0
LINE
  5
250
100
AcDbEntity
  8
RACCORDO
100
AcDbLine
 62
250
  6
CONTINUOUS
 10
6.5880943479
 20
-24.4869014213
 11
8.4619056521
 21
-24.4869014213
  0
LINE
  5
251
100
AcDbEntity
  8
RACCORDO
100
AcDbLine
 62
250
  6
CONTINUOUS
 10
6.3380985787
 20
-24.2369056521
 11
8.7119014213
 21
-24.2369056521
  0
LINE
  5
252
100
AcDbEntity
  8
RACCORDO
100
AcDbLine
 62
250
  6
CONTINUOUS
 10
-10.1880985787
 20
-24.2369056521
 11
-12.5619014213
 21
-24.2369056521
  0
LWPOLYLINE
  5
253
100
AcDbEntity
  8
RACCORDO
100
AcDbPolyline
 62
7
  6
CONTINUOUS
 90
11
 70
0
 10
-12.8086664589
 20
-22.352503122
 10
-12.7945971712
 20
-22.3592350762
 10
-12.7749161851
 20
-22.3676761448
 10
-12.7548547902
 20
-22.375171735
 10
-12.7344578571
 20
-22.3817047778
 10
-12.7137801245
 20
-22.3872580713
 10
-12.6928599152
 20
-22.3918216515
 10
-12.6717176429
 20
-22.3953887516
 10
-12.6503915966
 20
-22.3979479935
 10
-12.6289387579
 20
-22.3994876502
 10
-12.6074078424
 20
-22.4
  0
LINE
  5
254
100
AcDbEntity
  8
RACCORDO
100
AcDbLine
 62
7
  6
CONTINUOUS
 10
-12.8261653088
 20
-22.3437543634
 11
-12.8086664601
 21
-22.3525031214
  0
LINE
  5
255
100
AcDbEntity
  8
RACCORDO
100
AcDbLine
 62
250
  6
CONTINUOUS
 10
-13.075
 20
-21.9411874598
 11
-13.0575779097
 21
-21.9498978415
  0
LINE
  5
256
100
AcDbEntity
  8
RACCORDO
100
AcDbLine
 62
250
  6
CONTINUOUS
 10
-10.4249957692
 20
-24.5
 11
-10.4380943479
 21
-24.4869014213
  0
LINE
  5
257
100
AcDbEntity
  8
RACCORDO
100
AcDbLine
 62
250
  6
CONTINUOUS
 10
-10.175
 20
-24.2500042308
 11
-10.1880985787
 21
-24.2369056521
  0
LWPOLYLINE
  5
258
100
AcDbEntity
  8
RACCORDO
100
AcDbPolyline
 62
250
  6
CONTINUOUS
 90
16
 70
0
 10
-12.907673035
 20
20.5419058565
 10
-12.9067090352
 20
20.5428735514
 10
-12.9046396836
 20
20.5438391025
 10
-12.9014695644
 20
20.544800371
 10
-12.8972057005
 20
20.5457552271
 10
-12.8918575377
 20
20.5467015557
 10
-12.8854369238
 20
20.5476372603
 10
-12.8779580824
 20
20.5485602681
 10
-12.8694375815
 20
20.5494685343
 10
-12.8598942968
 20
20.5503600468
 10
-12.8493493695
 20
20.5512328306
 10
-12.83782616
 20
20.5520849522
 10
-12.8253501957
 20
20.552914524
 10
-12.8119491149
 20
20.5537197082
 10
-12.797652605
 20
20.5544987209
 10
-12.7824923374
 20
20.5552498366
  0
LWPOLYLINE
  5
259
100
AcDbEntity
  8
RACCORDO
100
AcDbPolyline
 62
7
  6
CONTINUOUS
 90
23
 70
0
 10
-6.2212073137
 20
-23.7953389668
 10
-6.2104181903
 20
-23.7947915649
 10
-6.1993307281
 20
-23.793363895
 10
-6.1879449272
 20
-23.7911364879
 10
-6.1762361469
 20
-23.7881978965
 10
-6.164229028
 20
-23.7846238716
 10
-6.151997492
 20
-23.7804595132
 10
-6.1395487518
 20
-23.7757643703
 10
-6.1268755946
 20
-23.7706018097
 10
-6.1140303044
 20
-23.7649953104
 10
-6.1010171723
 20
-23.758990232
 10
-6.0878319072
 20
-23.7526365647
 10
-6.0745139203
 20
-23.7459460582
 10
-6.0610654333
 20
-23.7389542831
 10
-6.0474842244
 20
-23.7317013921
 10
-6.0338030396
 20
-23.724193673
 10
-6.0200229279
 20
-23.7164601879
 10
-6.0061428402
 20
-23.708533951
 10
-5.9921923756
 20
-23.7004191901
 10
-5.978171775
 20
-23.6921405291
 10
-5.9640807976
 20
-23.6837259593
 10
-5.9499483201
 20
-23.6751796798
 10
-5.9215581838
 20
-23.6577812011
  0
LINE
  5
25A
100
AcDbEntity
  8
RACCORDO
100
AcDbLine
 62
250
  6
CONTINUOUS
 10
6.3380985787
 20
-23.8443375673
 11
8.7119014213
 21
-23.8443375673
  0
LINE
  5
25B
100
AcDbEntity
  8
RACCORDO
100
AcDbLine
 62
250
  6
CONTINUOUS
 10
-10.1880985787
 20
-23.8443375673
 11
-12.5619014213
 21
-23.8443375673
  0
LINE
  5
25C
100
AcDbEntity
  8
DRAFT
100
AcDbLine
 62
7
  6
CONTINUOUS
 10
2.475
 20
-23.8
 11
-6.325
 21
-23.8
  0
LINE
  5
25D
100
AcDbEntity
  8
RACCORDO
100
AcDbLine
 62
250
  6
CONTINUOUS
 10
-6.2212073137
 20
-23.7953389668
 11
2.3712073137
 21
-23.7953389668
  0
LINE
  5
25E
100
AcDbEntity
  8
RACCORDO
100
AcDbLine
 62
250
  6
CONTINUOUS
 10
8.4619056521
 20
-23.6278312164
 11
6.5880943479
 21
-23.6278312164
  0
LINE
  5
25F
100
AcDbEntity
  8
RACCORDO
100
AcDbLine
 62
250
  6
CONTINUOUS
 10
-10.4380943479
 20
-23.6278312164
 11
-12.3119056521
 21
-23.6278312164
  0
LINE
  5
260
100
AcDbEntity
  8
RACCORDO
100
AcDbLine
 62
250
  6
CONTINUOUS
 10
-5.8220826234
 20
-23.5953423515
 11
1.9720826234
 21
-23.5953423515
  0
LINE
  5
261
100
AcDbEntity
  8
RACCORDO
100
AcDbLine
 62
7
  6
CONTINUOUS
 10
8.4677234819
 20
-23.1226497308
 11
6.5822765181
 21
-23.1226497308
  0
LINE
  5
262
100
AcDbEntity
  8
RACCORDO
100
AcDbLine
 62
7
  6
CONTINUOUS
 10
-10.4322765181
 20
-23.1226497308
 11
-12.3177234819
 21
-23.1226497308
  0
LINE
  5
263
100
AcDbEntity
  8
RACCORDO
100
AcDbLine
 62
7
  6
CONTINUOUS
 10
-12.6074078424
 20
-22.4
 11
-12.575
 21
-22.4
  0
LINE
  5
264
100
AcDbEntity
  8
DRAFT
100
AcDbLine
 62
7
  6
CONTINUOUS
 10
-10.175
 20
-22.4
 11
-6.325
 21
-22.4
  0
LINE
  5
265
100
AcDbEntity
  8
DRAFT
100
AcDbLine
 62
7
  6
CONTINUOUS
 10
2.475
 20
-22.4
 11
6.325
 21
-22.4
  0
LINE
  5
266
100
AcDbEntity
  8
RACCORDO
100
AcDbLine
 62
7
  6
CONTINUOUS
 10
8.725
 20
-22.4
 11
8.7574078424
 21
-22.4
  0
LINE
  5
267
100
AcDbEntity
  8
RACCORDO
100
AcDbLine
 62
7
  6
CONTINUOUS
 10
-5.8220826234
 20
-22.3475922207
 11
1.9720826234
 21
-22.3475922207
  0
LINE
  5
268
100
AcDbEntity
  8
RACCORDO
100
AcDbLine
 62
7
  6
CONTINUOUS
 10
8.4677234819
 20
-22.3213883311
 11
6.5822765181
 21
-22.3213883311
  0
LINE
  5
269
100
AcDbEntity
  8
RACCORDO
100
AcDbLine
 62
7
  6
CONTINUOUS
 10
-10.4322765181
 20
-22.3213883311
 11
-12.3177234819
 21
-22.3213883311
  0
LWPOLYLINE
  5
26A
100
AcDbEntity
  8
RACCORDO
100
AcDbPolyline
 62
7
  6
CONTINUOUS
 90
22
 70
0
 10
2.3712073137
 20
-23.7953389668
 10
2.3604181903
 20
-23.7947915649
 10
2.3493307281
 20
-23.793363895
 10
2.3379449272
 20
-23.7911364879
 10
2.3262361469
 20
-23.7881978965
 10
2.314229028
 20
-23.7846238716
 10
2.301997492
 20
-23.7804595132
 10
2.2895487518
 20
-23.7757643703
 10
2.2768755946
 20
-23.7706018097
 10
2.2640303044
 20
-23.7649953104
 10
2.2510171723
 20
-23.758990232
 10
2.2378319072
 20
-23.7526365647
 10
2.2245139203
 20
-23.7459460582
 10
2.2110654333
 20
-23.7389542831
 10
2.1974842244
 20
-23.7317013921
 10
2.1838030396
 20
-23.724193673
 10
2.1700229279
 20
-23.7164601879
 10
2.1561428402
 20
-23.708533951
 10
2.1421923756
 20
-23.7004191901
 10
2.128171775
 20
-23.6921405291
 10
2.1140807976
 20
-23.6837259593
 10
2.0999483201
 20
-23.6751796798
  0
LWPOLYLINE
  5
26B
100
AcDbEntity
  8
RACCORDO
100
AcDbPolyline
 62
250
  6
CONTINUOUS
 90
17
 70
0
 10
-12.9076730391
 20
-20.5419058565
 10
-12.9067090395
 20
-20.5428735514
 10
-12.9046396881
 20
-20.5438391026
 10
-12.9014695691
 20
-20.544800371
 10
-12.8972057054
 20
-20.5457552271
 10
-12.8918575427
 20
-20.5467015558
 10
-12.8854369289
 20
-20.5476372604
 10
-12.8779580876
 20
-20.5485602682
 10
-12.8694375868
 20
-20.5494685344
 10
-12.859894302
 20
-20.5503600469
 10
-12.8493493748
 20
-20.5512328307
 10
-12.8378261652
 20
-20.5520849524
 10
-12.8253502009
 20
-20.5529145242
 10
-12.81194912
 20
-20.5537197083
 10
-12.79765261
 20
-20.5544987211
 10
-12.7824923423
 20
-20.5552498368
 10
-12.7497167115
 20
-20.5566617864
  0
LINE
  5
26C
100
AcDbEntity
  8
RACCORDO
100
AcDbLine
 62
250
  6
CONTINUOUS
 10
8.9324923423
 20
-20.5552498567
 11
8.8997167115
 21
-20.5566618066
  0
LINE
  5
26D
100
AcDbEntity
  8
RACCORDO
100
AcDbLine
 62
250
  6
CONTINUOUS
 10
8.8997167115
 20
-20.5566618066
 11
8.8639124997
 21
-20.5579430723
  0
LINE
  5
26E
100
AcDbEntity
  8
RACCORDO
100
AcDbLine
 62
250
  6
CONTINUOUS
 10
8.8639124997
 20
-20.5579430723
 11
8.8253968012
 21
-20.5590823065
  0
LINE
  5
26F
100
AcDbEntity
  8
RACCORDO
100
AcDbLine
 62
250
  6
CONTINUOUS
 10
8.8253968012
 20
-20.5590823065
 11
8.7845107241
 21
-20.5600694198
  0
LINE
  5
270
100
AcDbEntity
  8
RACCORDO
100
AcDbLine
 62
250
  6
CONTINUOUS
 10
8.7845107241
 20
-20.5600694198
 11
8.7416163696
 21
-20.5608956698
  0
LINE
  5
271
100
AcDbEntity
  8
RACCORDO
100
AcDbLine
 62
250
  6
CONTINUOUS
 10
8.7416163696
 20
-20.5608956698
 11
8.6743443586
 21
-20.561817825
  0
LINE
  5
272
100
AcDbEntity
  8
RACCORDO
100
AcDbLine
 62
250
  6
CONTINUOUS
 10
8.6743443586
 20
-20.561817825
 11
8.6047511273
 21
-20.5623435641
  0
LINE
  5
273
100
AcDbEntity
  8
RACCORDO
100
AcDbLine
 62
250
  6
CONTINUOUS
 10
8.5742759622
 20
-21.998725222
 11
-12.4242759622
 21
-21.998725222
  0
LINE
  5
274
100
AcDbEntity
  8
RACCORDO
100
AcDbLine
 62
250
  6
CONTINUOUS
 10
8.6047511273
 20
-20.5623435641
 11
-12.4077491915
 21
-20.5624683248
  0
LINE
  5
275
100
AcDbEntity
  8
RACCORDO
100
AcDbLine
 62
250
  6
CONTINUOUS
 10
-12.4781219113
 20
-20.5622131686
 11
-12.4077491915
 21
-20.5624683248
  0
LINE
  5
276
100
AcDbEntity
  8
RACCORDO
100
AcDbLine
 62
250
  6
CONTINUOUS
 10
-12.5470936246
 20
-20.5615537269
 11
-12.4781219113
 21
-20.5622131686
  0
LINE
  5
277
100
AcDbEntity
  8
RACCORDO
100
AcDbLine
 62
250
  6
CONTINUOUS
 10
-12.5916163696
 20
-20.5608956547
 11
-12.5470936246
 21
-20.5615537269
  0
LINE
  5
278
100
AcDbEntity
  8
RACCORDO
100
AcDbLine
 62
250
  6
CONTINUOUS
 10
-12.6345107241
 20
-20.5600694024
 11
-12.5916163696
 21
-20.5608956547
  0
LINE
  5
279
100
AcDbEntity
  8
RACCORDO
100
AcDbLine
 62
250
  6
CONTINUOUS
 10
-12.6753968012
 20
-20.5590822876
 11
-12.6345107241
 21
-20.5600694024
  0
LINE
  5
27A
100
AcDbEntity
  8
RACCORDO
100
AcDbLine
 62
250
  6
CONTINUOUS
 10
-12.7139124997
 20
-20.5579430524
 11
-12.6753968012
 21
-20.5590822876
  0
LINE
  5
27B
100
AcDbEntity
  8
RACCORDO
100
AcDbLine
 62
250
  6
CONTINUOUS
 10
-12.7497167115
 20
-20.5566617864
 11
-12.7139124997
 21
-20.5579430524
  0
LINE
  5
27C
100
AcDbEntity
  8
RACCORDO
100
AcDbLine
 62
7
  6
CONTINUOUS
 10
2.0430905905
 20
23.6400757416
 11
1.9720826234
 21
23.5953423515
  0
LINE
  5
27D
100
AcDbEntity
  8
RACCORDO
100
AcDbLine
 62
7
  6
CONTINUOUS
 10
2.0715581838
 20
23.6577812011
 11
2.0430905905
 21
23.6400757416
  0
LINE
  5
27E
100
AcDbEntity
  8
RACCORDO
100
AcDbLine
 62
7
  6
CONTINUOUS
 10
2.0999483201
 20
-23.6751796798
 11
2.0715581838
 21
-23.6577812011
  0
LINE
  5
27F
100
AcDbEntity
  8
RACCORDO
100
AcDbLine
 62
7
  6
CONTINUOUS
 10
2.0715581838
 20
-23.6577812011
 11
2.0288388153
 21
-23.6311538461
  0
LINE
  5
280
100
AcDbEntity
  8
RACCORDO
100
AcDbLine
 62
7
  6
CONTINUOUS
 10
2.0288388153
 20
-23.6311538461
 11
1.9720826234
 21
-23.5953423515
  0
LINE
  5
281
100
AcDbEntity
  8
RACCORDO
100
AcDbLine
 62
7
  6
CONTINUOUS
 10
2.4720741618
 20
23.7970741618
 11
2.475
 21
23.8
  0
LINE
  5
282
100
AcDbEntity
  8
RACCORDO
100
AcDbLine
 62
7
  6
CONTINUOUS
 10
2.4720741618
 20
-23.7970741618
 11
2.475
 21
-23.8
  0
LWPOLYLINE
  5
283
100
AcDbEntity
  8
RACCORDO
100
AcDbPolyline
 62
250
  6
CONTINUOUS
 90
31
 70
0
 10
-12.5619014213
 20
-24.2369056521
 10
-12.5615583827
 20
-24.2499891381
 10
-12.5605310928
 20
-24.2630367647
 10
-12.5588223673
 20
-24.2760127708
 10
-12.5564368893
 20
-24.2888815916
 10
-12.5533811971
 20
-24.3016079562
 10
-12.5496636657
 20
-24.3141569839
 10
-12.5452944842
 20
-24.3264942801
 10
-12.5402856277
 20
-24.3385860308
 10
-12.5346508246
 20
-24.3503990946
 10
-12.5284055187
 20
-24.3619010942
 10
-12.5215668272
 20
-24.3730605047
 10
-12.5141534939
 20
-24.3838467403
 10
-12.5061858371
 20
-24.3942302379
 10
-12.4976856948
 20
-24.4041825384
 10
-12.4886763643
 20
-24.4136763643
 10
-12.4791825384
 20
-24.4226856948
 10
-12.4692302379
 20
-24.4311858371
 10
-12.4588467403
 20
-24.4391534939
 10
-12.4480605047
 20
-24.4465668272
 10
-12.4369010942
 20
-24.4534055187
 10
-12.4253990946
 20
-24.4596508246
 10
-12.4135860308
 20
-24.4652856277
 10
-12.4014942801
 20
-24.4702944842
 10
-12.3891569839
 20
-24.4746636657
 10
-12.3766079562
 20
-24.4783811971
 10
-12.3638815916
 20
-24.4814368893
 10
-12.3510127708
 20
-24.4838223673
 10
-12.3380367647
 20
-24.4855310928
 10
-12.3249891381
 20
-24.4865583827
 10
-12.3119056521
 20
-24.4869014213
  0
LWPOLYLINE
  5
284
100
AcDbEntity
  8
RACCORDO
100
AcDbPolyline
 62
250
  6
CONTINUOUS
 90
34
 70
0
 10
-12.9241998056
 20
-21.4994104546
 10
-12.9236125018
 20
-21.5231550473
 10
-12.9218953532
 20
-21.5468459038
 10
-12.9190522453
 20
-21.5704294185
 10
-12.9150896107
 20
-21.5938522265
 10
-12.9100164163
 20
-21.6170613313
 10
-12.9038441427
 20
-21.6400042242
 10
-12.8965867561
 20
-21.6626289936
 10
-12.8882606775
 20
-21.6848844456
 10
-12.878884747
 20
-21.7067202275
 10
-12.8684801796
 20
-21.7280869324
 10
-12.8570705173
 20
-21.7489362137
 10
-12.844681577
 20
-21.7692208982
 10
-12.8313413911
 20
-21.7888950887
 10
-12.8170801441
 20
-21.8079142684
 10
-12.8019301049
 20
-21.8262354036
 10
-12.7859255532
 20
-21.8438170398
 10
-12.7691027024
 20
-21.860619395
 10
-12.7514996171
 20
-21.8766044503
 10
-12.7331561278
 20
-21.8917360371
 10
-12.7141137399
 20
-21.9059799169
 10
-12.6944155402
 20
-21.9193038589
 10
-12.6741060997
 20
-21.9316777156
 10
-12.6532313721
 20
-21.9430734887
 10
-12.6318385899
 20
-21.9534653906
 10
-12.6099761584
 20
-21.9628299082
 10
-12.5876935453
 20
-21.9711458522
 10
-12.5650411682
 20
-21.9783944032
 10
-12.5420702825
 20
-21.9845591602
 10
-12.5188328639
 20
-21.9896261741
 10
-12.4953814898
 20
-21.9935839757
 10
-12.4717692226
 20
-21.9964236083
 10
-12.4480494899
 20
-21.9981386482
 10
-12.4242759622
 20
-21.9987252146
  0
LWPOLYLINE
  5
285
100
AcDbEntity
  8
RACCORDO
100
AcDbPolyline
 62
7
  6
CONTINUOUS
 90
25
 70
0
 10
-13.0575778449
 20
-21.9498978739
 10
-13.0570599034
 20
-21.9713171503
 10
-13.0555239112
 20
-21.9926858616
 10
-13.0529736082
 20
-22.0139556319
 10
-13.0494150437
 20
-22.0350781601
 10
-13.0448565374
 20
-22.0560058482
 10
-13.0393085722
 20
-22.0766918903
 10
-13.0327838801
 20
-22.0970895234
 10
-13.0252974053
 20
-22.1171526528
 10
-13.0168661013
 20
-22.1368364314
 10
-13.0075091403
 20
-22.1560963804
 10
-12.9972477866
 20
-22.174888981
 10
-12.9861051196
 20
-22.1931722098
 10
-12.9741063688
 20
-22.21090474
 10
-12.9612787014
 20
-22.2280464864
 10
-12.9476508732
 20
-22.2445590757
 10
-12.933253676
 20
-22.2604051439
 10
-12.9181196448
 20
-22.2755488292
 10
-12.9022826488
 20
-22.28995617
 10
-12.8857784383
 20
-22.3035945018
 10
-12.8686442782
 20
-22.3164328943
 10
-12.8509184856
 20
-22.3284424746
 10
-12.8326410696
 20
-22.3395959252
 10
-12.8138532946
 20
-22.3498678609
 10
-12.8086664589
 20
-22.352503122
  0
LWPOLYLINE
  5
286
100
AcDbEntity
  8
RACCORDO
100
AcDbPolyline
 62
7
  6
CONTINUOUS
 90
34
 70
0
 10
-12.575
 20
-24.2500042308
 10
-12.5747168498
 20
-24.261899516
 10
-12.5738680342
 20
-24.2737678556
 10
-12.5724554741
 20
-24.2855823661
 10
-12.5704823677
 20
-24.2973162875
 10
-12.5679531817
 20
-24.3089430388
 10
-12.5648736417
 20
-24.320436279
 10
-12.5612507213
 20
-24.3317699738
 10
-12.5570926258
 20
-24.3429184493
 10
-12.5524087722
 20
-24.3538564463
 10
-12.5472097688
 20
-24.3645591876
 10
-12.5415073916
 20
-24.3750024283
 10
-12.5353145581
 20
-24.3851625059
 10
-12.5286452955
 20
-24.3950164051
 10
-12.5215147107
 20
-24.4045418038
 10
-12.5139389589
 20
-24.4137171191
 10
-12.5059352005
 20
-24.4225215661
 10
-12.4975215661
 20
-24.4309352005
 10
-12.4887171191
 20
-24.4389389589
 10
-12.4795418038
 20
-24.4465147107
 10
-12.4700164051
 20
-24.4536452955
 10
-12.4601625059
 20
-24.4603145581
 10
-12.4500024283
 20
-24.4665073916
 10
-12.4395591876
 20
-24.4722097688
 10
-12.4288564463
 20
-24.4774087722
 10
-12.4179184493
 20
-24.4820926258
 10
-12.4067699738
 20
-24.4862507213
 10
-12.395436279
 20
-24.4898736417
 10
-12.3839430388
 20
-24.4929531817
 10
-12.3723162875
 20
-24.4954823677
 10
-12.3605823661
 20
-24.4974554741
 10
-12.3487678556
 20
-24.4988680342
 10
-12.336899516
 20
-24.4997168498
 10
-12.3250042308
 20
-24.5
  0
LINE
  5
287
100
AcDbEntity
  8
0
100
AcDbLine
 62
7
  6
CONTINUOUS
 10
-13.075
 20
-17.6716990487
 11
-13.075
 21
17.6716990487
  0
LINE
  5
288
100
AcDbEntity
  8
RACCORDO
100
AcDbLine
 62
7
  6
CONTINUOUS
 10
-13.075
 20
-21.9411874598
 11
-13.075
 21
21.9411874598
  0
LWPOLYLINE
  5
289
100
AcDbEntity
  8
RACCORDO
100
AcDbPolyline
 62
7
  6
CONTINUOUS
 90
25
 70
0
 10
-13.0575781258
 20
21.9498977334
 10
-13.0570601823
 20
21.9713170184
 10
-13.0555241857
 20
21.9926857359
 10
-13.0529738765
 20
22.0139555101
 10
-13.0494153041
 20
22.0350780389
 10
-13.044856789
 20
22.0560057254
 10
-13.0393088158
 20
22.0766917666
 10
-13.0327841168
 20
22.0970894004
 10
-13.0252976356
 20
22.1171525312
 10
-13.0168663253
 20
22.1368363114
 10
-13.0075093582
 20
22.1560962623
 10
-12.9972479986
 20
22.1748888651
 10
-12.9861053257
 20
22.1931720963
 10
-12.9741065691
 20
22.2109046293
 10
-12.9612788958
 20
22.2280463787
 10
-12.9476510617
 20
22.2445589713
 10
-12.9332538585
 20
22.2604050431
 10
-12.9181198211
 20
22.2755487323
 10
-12.9022828187
 20
22.2899560773
 10
-12.8857786015
 20
22.3035944137
 10
-12.8686444344
 20
22.3164328111
 10
-12.8509186344
 20
22.3284423967
 10
-12.8326412105
 20
22.3395958528
 10
-12.8138534271
 20
22.3498677943
 10
-12.8086665626
 20
22.3525030702
  0
LWPOLYLINE
  5
28A
100
AcDbEntity
  8
RACCORDO
100
AcDbPolyline
 62
250
  6
CONTINUOUS
 90
34
 70
0
 10
-12.9242008169
 20
21.4994104546
 10
-12.9236123417
 20
21.5231534972
 10
-12.9218940755
 20
21.5468428236
 10
-12.9190499106
 20
21.5704248356
 10
-12.9150862871
 20
21.5938461744
 10
-12.9100121779
 20
21.6170538523
 10
-12.9038390679
 20
21.6399953718
 10
-12.896580928
 20
21.6626188278
 10
-12.8882541837
 20
21.6848730348
 10
-12.8788776769
 20
21.7067076532
 10
-12.8684726253
 20
21.7280732829
 10
-12.857062573
 20
21.7489215845
 10
-12.8446733356
 20
21.7692053986
 10
-12.8313329461
 20
21.788878834
 10
-12.8170715886
 20
21.80789738
 10
-12.8019215275
 20
21.8262180152
 10
-12.7859170409
 20
21.84379929
 10
-12.7690943398
 20
21.8606014268
 10
-12.7514914809
 20
21.8765864164
 10
-12.7331482913
 20
21.8917180932
 10
-12.7141062723
 20
21.905962221
 10
-12.6944085001
 20
21.919286575
 10
-12.6740995407
 20
21.9316610085
 10
-12.6532253427
 20
21.9430575228
 10
-12.6318331261
 20
21.9534503324
 10
-12.6099712903
 20
21.9628159221
 10
-12.5876892972
 20
21.9711330997
 10
-12.5650375513
 20
21.9783830433
 10
-12.5420673017
 20
21.9845493471
 10
-12.5188305184
 20
21.9896180564
 10
-12.4953797661
 20
21.9935776957
 10
-12.4717680992
 20
21.9964193006
 10
-12.4480489428
 20
21.9981364391
 10
-12.4242759622
 20
21.9987252218
  0
LINE
  5
28B
100
AcDbEntity
  8
RACCORDO
100
AcDbLine
 62
250
  6
CONTINUOUS
 10
-12.9213039674
 20
21.4766763348
 11
-12.9216616934
 21
21.4810344887
  0
LINE
  5
28C
100
AcDbEntity
  8
RACCORDO
100
AcDbLine
 62
250
  6
CONTINUOUS
 10
-12.9209478981
 20
21.4718895498
 11
-12.9213039674
 21
21.4766763348
  0
LINE
  5
28D
100
AcDbEntity
  8
RACCORDO
100
AcDbLine
 62
250
  6
CONTINUOUS
 10
-12.9205936484
 20
21.4666762412
 11
-12.9209478981
 21
21.4718895498
  0
LINE
  5
28E
100
AcDbEntity
  8
RACCORDO
100
AcDbLine
 62
250
  6
CONTINUOUS
 10
-12.9202413887
 20
21.4610389419
 11
-12.9205936484
 21
21.4666762412
  0
LINE
  5
28F
100
AcDbEntity
  8
RACCORDO
100
AcDbLine
 62
250
  6
CONTINUOUS
 10
-12.4215587501
 20
21.9679725648
 11
-12.4219172732
 21
21.9741877258
  0
LINE
  5
290
100
AcDbEntity
  8
RACCORDO
100
AcDbLine
 62
250
  6
CONTINUOUS
 10
-12.9197170161
 20
21.4517925502
 11
-12.9202413887
 21
21.4610389419
  0
LINE
  5
291
100
AcDbEntity
  8
RACCORDO
100
AcDbLine
 62
250
  6
CONTINUOUS
 10
-12.4212018254
 20
21.9611134028
 11
-12.4215587501
 21
21.9679725648
  0
LINE
  5
292
100
AcDbEntity
  8
RACCORDO
100
AcDbLine
 62
250
  6
CONTINUOUS
 10
-12.919197966
 20
21.4416063989
 11
-12.9197170161
 21
21.4517925502
  0
LWPOLYLINE
  5
293
100
AcDbEntity
  8
RACCORDO
100
AcDbPolyline
 62
7
  6
CONTINUOUS
 90
34
 70
0
 10
-10.1822807489
 20
-23.2669872981
 10
-10.1825784753
 20
-23.260745719
 10
-10.1833497267
 20
-23.254472608
 10
-10.1846000894
 20
-23.2481861919
 10
-10.1863341367
 20
-23.2419121598
 10
-10.1885555794
 20
-23.2356626215
 10
-10.1912675994
 20
-23.2294361375
 10
-10.1944720963
 20
-23.2232532001
 10
-10.1981700208
 20
-23.2171335699
 10
-10.2023622718
 20
-23.2110754134
 10
-10.207047756
 20
-23.2051002367
 10
-10.2122243979
 20
-23.199228829
 10
-10.2178907687
 20
-23.1934590071
 10
-10.2240425526
 20
-23.1878130261
 10
-10.230674335
 20
-23.182312533
 10
-10.2377821378
 20
-23.1769551973
 10
-10.2453581333
 20
-23.171763745
 10
-10.2533932153
 20
-23.1667604362
 10
-10.2618804409
 20
-23.1619430222
 10
-10.2708081504
 20
-23.1573343288
 10
-10.2801631291
 20
-23.1529569199
 10
-10.2899348037
 20
-23.148808872
 10
-10.3001073149
 20
-23.1449126131
 10
-10.310662902
 20
-23.1412905703
 10
-10.3215865028
 20
-23.137941334
 10
-10.3328575603
 20
-23.1348863009
 10
-10.3444534848
 20
-23.1321470947
 10
-10.3563541826
 20
-23.1297228132
 10
-10.3685210103
 20
-23.1276360125
 10
-10.3809390652
 20
-23.1259025536
 10
-10.3936230593
 20
-23.1245164325
 10
-10.4065577699
 20
-23.1234933505
 10
-10.4196962714
 20
-23.1228641607
 10
-10.4330037468
 20
-23.1226497308
  0
LWPOLYLINE
  5
294
100
AcDbEntity
  8
RACCORDO
100
AcDbPolyline
 62
7
  6
CONTINUOUS
 90
34
 70
0
 10
-12.5677192511
 20
23.2669872981
 10
-12.5674198287
 20
23.2606934229
 10
-12.5666441239
 20
23.2544088409
 10
-12.5653873851
 20
23.2481335519
 10
-12.5636460224
 20
23.2418552807
 10
-12.5614170759
 20
23.2355863026
 10
-12.558697709
 20
23.2293634437
 10
-12.5554867318
 20
23.2231861587
 10
-12.5517838816
 20
23.2170549928
 10
-12.5475882567
 20
23.2110084085
 10
-12.5429014786
 20
23.205045942
 10
-12.5377261214
 20
23.199168057
 10
-12.5320632404
 20
23.1934146064
 10
-12.5259174965
 20
23.1877851844
 10
-12.5192945874
 20
23.1822801967
 10
-12.5121976951
 20
23.1769407141
 10
-12.5046347916
 20
23.1717664006
 10
-12.4966150594
 20
23.1667575922
 10
-12.4881442164
 20
23.1619563668
 10
-12.479233882
 20
23.1573625195
 10
-12.469897167
 20
23.1529762552
 10
-12.4601430254
 20
23.1488402671
 10
-12.4499871321
 20
23.1449546011
 10
-12.4394470274
 20
23.1413192112
 10
-12.4285358548
 20
23.1379766523
 10
-12.4172738698
 20
23.1349274029
 10
-12.4056834708
 20
23.1321709844
 10
-12.3937828486
 20
23.1297485157
 10
-12.381584335
 20
23.1276610792
 10
-12.3691281847
 20
23.1259075925
 10
-12.3564781276
 20
23.1245259271
 10
-12.3436775292
 20
23.123528707
 10
-12.330747957
 20
23.1229033082
 10
-12.3177234819
 20
23.1226497308
  0
LINE
  5
295
100
AcDbEntity
  8
RACCORDO
100
AcDbLine
 62
250
  6
CONTINUOUS
 10
-12.4206697696
 20
21.9496233445
 11
-12.4212018254
 21
21.9611134028
  0
LINE
  5
296
100
AcDbEntity
  8
RACCORDO
100
AcDbLine
 62
250
  6
CONTINUOUS
 10
-12.918515079
 20
21.4265807916
 11
-12.919197966
 21
21.4416063989
  0
LINE
  5
297
100
AcDbEntity
  8
RACCORDO
100
AcDbLine
 62
250
  6
CONTINUOUS
 10
-12.4201421488
 20
21.9367013491
 11
-12.4206697696
 21
21.9496233445
  0
LINE
  5
298
100
AcDbEntity
  8
RACCORDO
100
AcDbLine
 62
250
  6
CONTINUOUS
 10
-12.9178438206
 20
21.4099302257
 11
-12.918515079
 21
21.4265807916
  0
LINE
  5
299
100
AcDbEntity
  8
RACCORDO
100
AcDbLine
 62
250
  6
CONTINUOUS
 10
-12.4194464759
 20
21.9172668781
 11
-12.4201421488
 21
21.9367013491
  0
LINE
  5
29A
100
AcDbEntity
  8
RACCORDO
100
AcDbLine
 62
250
  6
CONTINUOUS
 10
-12.9170228399
 20
21.386875577
 11
-12.9178438206
 21
21.4099302257
  0
LWPOLYLINE
  5
29B
100
AcDbEntity
  8
RACCORDO
100
AcDbPolyline
 62
250
  6
CONTINUOUS
 90
31
 70
0
 10
-12.5619014213
 20
23.8443375673
 10
-12.5615228657
 20
23.833039595
 10
-12.5604637381
 20
23.821769291
 10
-12.5587263616
 20
23.8105574212
 10
-12.5563146602
 20
23.7994336121
 10
-12.5532347899
 20
23.78842936
 10
-12.5494957389
 20
23.7775778202
 10
-12.5451081945
 20
23.7669096972
 10
-12.5400837955
 20
23.7564530239
 10
-12.5344361149
 20
23.746236105
 10
-12.5281804223
 20
23.7362866999
 10
-12.5213338477
 20
23.7266321754
 10
-12.5139152395
 20
23.7172991519
 10
-12.5059449354
 20
23.7083132018
 10
-12.4974446406
 20
23.6996987826
 10
-12.4884375501
 20
23.6914794042
 10
-12.4789482465
 20
23.6836775075
 10
-12.4690026594
 20
23.6763144193
 10
-12.4586279765
 20
23.6694102704
 10
-12.4478525441
 20
23.6629839239
 10
-12.4367057861
 20
23.6570529269
 10
-12.425218149
 20
23.6516334796
 10
-12.4134209923
 20
23.6467403776
 10
-12.4013465559
 20
23.6423869945
 10
-12.3890278763
 20
23.6385852371
 10
-12.3764986409
 20
23.6353454907
 10
-12.3637930381
 20
23.6326765842
 10
-12.3509457173
 20
23.6305857918
 10
-12.33799175
 20
23.6290788219
 10
-12.3249665362
 20
23.6281597935
 10
-12.3119056521
 20
23.6278312164
  0
LINE
  5
29C
100
AcDbEntity
  8
RACCORDO
100
AcDbLine
 62
250
  6
CONTINUOUS
 10
-12.9160671669
 20
21.3560071908
 11
-12.9170228399
 21
21.386875577
  0
LINE
  5
29D
100
AcDbEntity
  8
RACCORDO
100
AcDbLine
 62
250
  6
CONTINUOUS
 10
-12.4185912056
 20
21.8894800448
 11
-12.4194464759
 21
21.9172668781
  0
LINE
  5
29E
100
AcDbEntity
  8
RACCORDO
100
AcDbLine
 62
250
  6
CONTINUOUS
 10
-12.9148491063
 20
21.3096146331
 11
-12.9160671669
 21
21.3560071908
  0
LINE
  5
29F
100
AcDbEntity
  8
RACCORDO
100
AcDbLine
 62
250
  6
CONTINUOUS
 10
-12.4174248252
 20
21.8441979654
 11
-12.4185912056
 21
21.8894800448
  0
LINE
  5
2A0
100
AcDbEntity
  8
RACCORDO
100
AcDbLine
 62
250
  6
CONTINUOUS
 10
-12.9134288947
 20
21.2436819397
 11
-12.9148491063
 21
21.3096146331
  0
LINE
  5
2A1
100
AcDbEntity
  8
RACCORDO
100
AcDbLine
 62
250
  6
CONTINUOUS
 10
-12.4159874001
 20
21.7754044949
 11
-12.4174248252
 21
21.8441979654
  0
LINE
  5
2A2
100
AcDbEntity
  8
RACCORDO
100
AcDbLine
 62
250
  6
CONTINUOUS
 10
-12.9117763465
 20
21.1459075259
 11
-12.9134288947
 21
21.2436819397
  0
LINE
  5
2A3
100
AcDbEntity
  8
RACCORDO
100
AcDbLine
 62
250
  6
CONTINUOUS
 10
-12.4140585612
 20
21.6562195832
 11
-12.4159874001
 21
21.7754044949
  0
LINE
  5
2A4
100
AcDbEntity
  8
RACCORDO
100
AcDbLine
 62
250
  6
CONTINUOUS
 10
-12.9100843866
 20
21.0093722957
 11
-12.9117763465
 21
21.1459075259
  0
LINE
  5
2A5
100
AcDbEntity
  8
RACCORDO
100
AcDbLine
 62
250
  6
CONTINUOUS
 10
-12.5619014213
 20
-23.8443375673
 11
-12.5677192511
 21
-23.2669872981
  0
LINE
  5
2A6
100
AcDbEntity
  8
RACCORDO
100
AcDbLine
 62
250
  6
CONTINUOUS
 10
-12.3119056521
 20
-23.6278312164
 11
-12.3169962532
 21
-23.1226497308
  0
LINE
  5
2A7
100
AcDbEntity
  8
RACCORDO
100
AcDbLine
 62
250
  6
CONTINUOUS
 10
-12.4117352663
 20
21.4564108721
 11
-12.4140585612
 21
21.6562195832
  0
LINE
  5
2A8
100
AcDbEntity
  8
RACCORDO
100
AcDbLine
 62
250
  6
CONTINUOUS
 10
-12.9085665314
 20
20.8191528685
 11
-12.9100843866
 21
21.0093722957
  0
LINE
  5
2A9
100
AcDbEntity
  8
RACCORDO
100
AcDbLine
 62
250
  6
CONTINUOUS
 10
-12.4092394222
 20
21.1100993463
 11
-12.4117352663
 21
21.4564108721
  0
LINE
  5
2AA
100
AcDbEntity
  8
RACCORDO
100
AcDbLine
 62
250
  6
CONTINUOUS
 10
-12.9077184102
 20
20.5837182746
 11
-12.9085665314
 21
20.8191528685
  0
LINE
  5
2AB
100
AcDbEntity
  8
RACCORDO
100
AcDbLine
 62
250
  6
CONTINUOUS
 10
-12.4077680535
 20
20.5938458632
 11
-12.4092394222
 21
21.1100993463
  0
LWPOLYLINE
  5
2AC
100
AcDbEntity
  8
RACCORDO
100
AcDbPolyline
 62
250
  6
CONTINUOUS
 90
3
 70
0
 10
-12.90523492
 20
16.8085801754
 10
-12.9059934604
 20
18.0531216464
 10
-12.9077184102
 20
20.5837182746
  0
LINE
  5
2AD
100
AcDbEntity
  8
RACCORDO
100
AcDbLine
 62
250
  6
CONTINUOUS
 10
-12.4064691943
 20
18.694047664
 11
-12.4077680535
 21
20.5938458632
  0
LINE
  5
2AE
100
AcDbEntity
  8
RACCORDO
100
AcDbLine
 62
250
  6
CONTINUOUS
 10
-12.4053110724
 20
16.8254054982
 11
-12.4064691943
 21
18.694047664
  0
LINE
  5
2AF
100
AcDbEntity
  8
RACCORDO
100
AcDbLine
 62
250
  6
CONTINUOUS
 10
-12.9027423866
 20
11.8293878568
 11
-12.90523492
 21
16.8085801754
  0
LINE
  5
2B0
100
AcDbEntity
  8
RACCORDO
100
AcDbLine
 62
250
  6
CONTINUOUS
 10
-12.402818539
 20
11.8412293569
 11
-12.4053110724
 21
16.8254054982
  0
LINE
  5
2B1
100
AcDbEntity
  8
RACCORDO
100
AcDbLine
 62
250
  6
CONTINUOUS
 10
-12.9011166932
 20
6.8490191698
 11
-12.9027423866
 21
11.8293878568
  0
LINE
  5
2B2
100
AcDbEntity
  8
RACCORDO
100
AcDbLine
 62
250
  6
CONTINUOUS
 10
-12.4011928456
 20
6.8558747013
 11
-12.402818539
 21
11.8412293569
  0
LINE
  5
2B3
100
AcDbEntity
  8
RACCORDO
100
AcDbLine
 62
250
  6
CONTINUOUS
 10
-12.9004054204
 20
2.4906198405
 11
-12.9011166932
 21
6.8490191698
  0
LINE
  5
2B4
100
AcDbEntity
  8
RACCORDO
100
AcDbLine
 62
7
  6
CONTINUOUS
 10
-12.575
 20
-22.4
 11
-12.575
 21
-24.2500042308
  0
LINE
  5
2B5
100
AcDbEntity
  8
RACCORDO
100
AcDbLine
 62
7
  6
CONTINUOUS
 10
-12.575
 20
22.4
 11
-12.575
 21
24.2500042308
  0
LINE
  5
2B6
100
AcDbEntity
  8
RACCORDO
100
AcDbLine
 62
250
  6
CONTINUOUS
 10
-12.5677192511
 20
-23.2669872981
 11
-12.5677192511
 21
-22.3344140523
  0
LINE
  5
2B7
100
AcDbEntity
  8
RACCORDO
100
AcDbLine
 62
250
  6
CONTINUOUS
 10
-12.5677192511
 20
22.3344140523
 11
-12.5677192511
 21
23.2669872981
  0
LINE
  5
2B8
100
AcDbEntity
  8
RACCORDO
100
AcDbLine
 62
250
  6
CONTINUOUS
 10
-12.5619014213
 20
24.2369056521
 11
-12.5619014213
 21
23.8443375673
  0
LINE
  5
2B9
100
AcDbEntity
  8
RACCORDO
100
AcDbLine
 62
250
  6
CONTINUOUS
 10
-12.5619014213
 20
-23.8443375673
 11
-12.5619014213
 21
-24.2369056521
  0
LINE
  5
2BA
100
AcDbEntity
  8
RACCORDO
100
AcDbLine
 62
250
  6
CONTINUOUS
 10
-12.4004815728
 20
2.4931132829
 11
-12.4011928456
 21
6.8558747013
  0
LINE
  5
2BB
100
AcDbEntity
  8
RACCORDO
100
AcDbLine
 62
250
  6
CONTINUOUS
 10
-12.3177234819
 20
-23.1226497308
 11
-12.3177234819
 21
-22.3213883311
  0
LINE
  5
2BC
100
AcDbEntity
  8
RACCORDO
100
AcDbLine
 62
250
  6
CONTINUOUS
 10
-12.3177234819
 20
22.3213883311
 11
-12.3177234819
 21
23.1226497308
  0
LINE
  5
2BD
100
AcDbEntity
  8
RACCORDO
100
AcDbLine
 62
250
  6
CONTINUOUS
 10
-12.3119056521
 20
-23.6278312164
 11
-12.3119056521
 21
-24.4869014213
  0
LINE
  5
2BE
100
AcDbEntity
  8
RACCORDO
100
AcDbLine
 62
250
  6
CONTINUOUS
 10
-12.3119056521
 20
23.6278312164
 11
-12.3119056521
 21
24.4869014213
  0
LINE
  5
2BF
100
AcDbEntity
  8
RACCORDO
100
AcDbLine
 62
250
  6
CONTINUOUS
 10
-12.9014418397
 20
-8.0941937225
 11
-12.9004054204
 21
2.4906198405
  0
LINE
  5
2C0
100
AcDbEntity
  8
RACCORDO
100
AcDbLine
 62
250
  6
CONTINUOUS
 10
-12.4015179921
 20
-8.1022962687
 11
-12.4004815728
 21
2.4931132829
  0
LINE
  5
2C1
100
AcDbEntity
  8
RACCORDO
100
AcDbLine
 62
250
  6
CONTINUOUS
 10
-12.9048759564
 20
-16.1862636613
 11
-12.9014418397
 21
-8.0941937225
  0
LINE
  5
2C2
100
AcDbEntity
  8
RACCORDO
100
AcDbLine
 62
250
  6
CONTINUOUS
 10
-12.4049521088
 20
-16.2024656822
 11
-12.4015179921
 21
-8.1022962687
  0
LINE
  5
2C3
100
AcDbEntity
  8
RACCORDO
100
AcDbLine
 62
250
  6
CONTINUOUS
 10
-12.4077803663
 20
-20.6095392184
 11
-12.4049521088
 21
-16.2024656822
  0
LINE
  5
2C4
100
AcDbEntity
  8
RACCORDO
100
AcDbLine
 62
250
  6
CONTINUOUS
 10
-12.4078486843
 20
-20.6721295695
 11
-12.4077803663
 21
-20.6095392184
  0
LINE
  5
2C5
100
AcDbEntity
  8
RACCORDO
100
AcDbLine
 62
250
  6
CONTINUOUS
 10
-12.4079199189
 20
-20.7188803316
 11
-12.4078486843
 21
-20.6721295695
  0
LINE
  5
2C6
100
AcDbEntity
  8
RACCORDO
100
AcDbLine
 62
250
  6
CONTINUOUS
 10
-12.4080414154
 20
-20.7808654025
 11
-12.4079199189
 21
-20.7188803316
  0
LINE
  5
2C7
100
AcDbEntity
  8
RACCORDO
100
AcDbLine
 62
250
  6
CONTINUOUS
 10
-12.4081522953
 20
-20.8270310679
 11
-12.4080414154
 21
-20.7808654025
  0
LINE
  5
2C8
100
AcDbEntity
  8
RACCORDO
100
AcDbLine
 62
250
  6
CONTINUOUS
 10
-12.4083262862
 20
-20.8880764996
 11
-12.4081522953
 21
-20.8270310679
  0
LINE
  5
2C9
100
AcDbEntity
  8
RACCORDO
100
AcDbLine
 62
250
  6
CONTINUOUS
 10
-12.4085299102
 20
-20.9484496984
 11
-12.4083262862
 21
-20.8880764996
  0
LINE
  5
2CA
100
AcDbEntity
  8
RACCORDO
100
AcDbLine
 62
250
  6
CONTINUOUS
 10
-12.4088255454
 20
-21.0228003334
 11
-12.4085299102
 21
-20.9484496984
  0
LINE
  5
2CB
100
AcDbEntity
  8
RACCORDO
100
AcDbLine
 62
250
  6
CONTINUOUS
 10
-12.9082982651
 20
-20.7690828761
 11
-12.9048759564
 21
-16.1862636613
  0
LINE
  5
2CC
100
AcDbEntity
  8
RACCORDO
100
AcDbLine
 62
250
  6
CONTINUOUS
 10
-12.4091660621
 20
-21.0957150273
 11
-12.4088255454
 21
-21.0228003334
  0
LINE
  5
2CD
100
AcDbEntity
  8
RACCORDO
100
AcDbLine
 62
250
  6
CONTINUOUS
 10
-12.4097164021
 20
-21.1950100812
 11
-12.4091660621
 21
-21.0957150273
  0
LINE
  5
2CE
100
AcDbEntity
  8
RACCORDO
100
AcDbLine
 62
250
  6
CONTINUOUS
 10
-12.9097257204
 20
-20.9728603818
 11
-12.9082982651
 21
-20.7690828761
  0
LINE
  5
2CF
100
AcDbEntity
  8
RACCORDO
100
AcDbLine
 62
250
  6
CONTINUOUS
 10
-12.5677192511
 20
23.2669872981
 11
-12.5619014213
 21
23.8443375673
  0
LINE
  5
2D0
100
AcDbEntity
  8
RACCORDO
100
AcDbLine
 62
250
  6
CONTINUOUS
 10
-12.3169962532
 20
23.1226497308
 11
-12.3119056521
 21
23.6278312164
  0
LINE
  5
2D1
100
AcDbEntity
  8
RACCORDO
100
AcDbLine
 62
250
  6
CONTINUOUS
 10
-12.4122130246
 20
-21.5040162753
 11
-12.4097164021
 21
-21.1950100812
  0
LINE
  5
2D2
100
AcDbEntity
  8
RACCORDO
100
AcDbLine
 62
250
  6
CONTINUOUS
 10
-12.9114291223
 20
-21.1215819643
 11
-12.9097257204
 21
-20.9728603818
  0
LINE
  5
2D3
100
AcDbEntity
  8
RACCORDO
100
AcDbLine
 62
250
  6
CONTINUOUS
 10
-12.4144866846
 20
-21.685714832
 11
-12.4122130246
 21
-21.5040162753
  0
LINE
  5
2D4
100
AcDbEntity
  8
RACCORDO
100
AcDbLine
 62
250
  6
CONTINUOUS
 10
-12.9130271869
 20
-21.2222802652
 11
-12.9114291223
 21
-21.1215819643
  0
LINE
  5
2D5
100
AcDbEntity
  8
RACCORDO
100
AcDbLine
 62
250
  6
CONTINUOUS
 10
-12.416300304
 20
-21.7916986951
 11
-12.4144866846
 21
-21.685714832
  0
LINE
  5
2D6
100
AcDbEntity
  8
RACCORDO
100
AcDbLine
 62
250
  6
CONTINUOUS
 10
-12.9145555936
 20
-21.2971182699
 11
-12.9130271869
 21
-21.2222802652
  0
LINE
  5
2D7
100
AcDbEntity
  8
RACCORDO
100
AcDbLine
 62
250
  6
CONTINUOUS
 10
-12.4175891444
 20
-21.8511197545
 11
-12.416300304
 21
-21.7916986951
  0
LINE
  5
2D8
100
AcDbEntity
  8
RACCORDO
100
AcDbLine
 62
250
  6
CONTINUOUS
 10
-12.9157564591
 20
-21.3449638347
 11
-12.9145555936
 21
-21.2971182699
  0
LINE
  5
2D9
100
AcDbEntity
  8
RACCORDO
100
AcDbLine
 62
250
  6
CONTINUOUS
 10
-12.4185913411
 20
-21.8894848011
 11
-12.4175891444
 21
-21.8511197545
  0
LINE
  5
2DA
100
AcDbEntity
  8
RACCORDO
100
AcDbLine
 62
250
  6
CONTINUOUS
 10
-12.916861339
 20
-21.3819739381
 11
-12.9157564591
 21
-21.3449638347
  0
LINE
  5
2DB
100
AcDbEntity
  8
RACCORDO
100
AcDbLine
 62
250
  6
CONTINUOUS
 10
-12.4194466016
 20
-21.9172706408
 11
-12.4185913411
 21
-21.8894848011
  0
LWPOLYLINE
  5
2DC
100
AcDbEntity
  8
RACCORDO
100
AcDbPolyline
 62
250
  6
CONTINUOUS
 90
31
 70
0
 10
-12.5619014213
 20
-23.8443375673
 10
-12.5615220896
 20
-23.8330274168
 10
-12.5604611076
 20
-23.8217481519
 10
-12.5587213727
 20
-23.810530574
 10
-12.5563076358
 20
-23.7994053159
 10
-12.5532264882
 20
-23.7884027584
 10
-12.549486344
 20
-23.7775529472
 10
-12.5450974166
 20
-23.7668855107
 10
-12.5400716913
 20
-23.7564295797
 10
-12.5344228923
 20
-23.7462137069
 10
-12.5281664453
 20
-23.7362657898
 10
-12.5213194354
 20
-23.7266129942
 10
-12.5139005603
 20
-23.7172816797
 10
-12.5059300794
 20
-23.7082973282
 10
-12.4974297583
 20
-23.6996844742
 10
-12.4884228098
 20
-23.6914666374
 10
-12.4789338299
 20
-23.6836662592
 10
-12.468988731
 20
-23.6763046407
 10
-12.4586146711
 20
-23.6694018849
 10
-12.4478399796
 20
-23.6629768418
 10
-12.4366940799
 20
-23.6570470569
 10
-12.4252074091
 20
-23.6516287232
 10
-12.4134113349
 20
-23.646736637
 10
-12.40133807
 20
-23.6423841576
 10
-12.3890205838
 20
-23.6385831707
 10
-12.376492513
 20
-23.6353440559
 10
-12.3637880689
 20
-23.6326756587
 10
-12.3509419448
 20
-23.6305852658
 10
-12.3379892207
 20
-23.6290785857
 10
-12.3249652679
 20
-23.6281597328
 10
-12.3119056521
 20
-23.6278312164
  0
LINE
  5
2DD
100
AcDbEntity
  8
RACCORDO
100
AcDbLine
 62
250
  6
CONTINUOUS
 10
-12.9176780769
 20
-21.4055201743
 11
-12.916861339
 21
-21.3819739381
  0
LINE
  5
2DE
100
AcDbEntity
  8
RACCORDO
100
AcDbLine
 62
250
  6
CONTINUOUS
 10
-12.4201422555
 20
-21.9367041154
 11
-12.4194466016
 21
-21.9172706408
  0
LINE
  5
2DF
100
AcDbEntity
  8
RACCORDO
100
AcDbLine
 62
250
  6
CONTINUOUS
 10
-12.9183462662
 20
-21.4225727353
 11
-12.9176780769
 21
-21.4055201743
  0
LINE
  5
2E0
100
AcDbEntity
  8
RACCORDO
100
AcDbLine
 62
250
  6
CONTINUOUS
 10
-12.4206698789
 20
-21.9496258567
 11
-12.4201422555
 21
-21.9367041154
  0
LINE
  5
2E1
100
AcDbEntity
  8
RACCORDO
100
AcDbLine
 62
250
  6
CONTINUOUS
 10
-12.9190263441
 20
-21.4380065106
 11
-12.9183462662
 21
-21.4225727353
  0
LWPOLYLINE
  5
2E2
100
AcDbEntity
  8
RACCORDO
100
AcDbPolyline
 62
7
  6
CONTINUOUS
 90
34
 70
0
 10
-12.5677192511
 20
-23.2669872981
 10
-12.5674215247
 20
-23.260745719
 10
-12.5666502733
 20
-23.254472608
 10
-12.5653999106
 20
-23.2481861919
 10
-12.5636658633
 20
-23.2419121598
 10
-12.5614444206
 20
-23.2356626215
 10
-12.5587324006
 20
-23.2294361375
 10
-12.5555279037
 20
-23.2232532001
 10
-12.5518299792
 20
-23.2171335699
 10
-12.5476377282
 20
-23.2110754134
 10
-12.542952244
 20
-23.2051002367
 10
-12.5377756021
 20
-23.199228829
 10
-12.5321092313
 20
-23.1934590071
 10
-12.5259574474
 20
-23.1878130261
 10
-12.519325665
 20
-23.182312533
 10
-12.5122178622
 20
-23.1769551973
 10
-12.5046418667
 20
-23.171763745
 10
-12.4966067847
 20
-23.1667604362
 10
-12.4881195591
 20
-23.1619430222
 10
-12.4791918496
 20
-23.1573343288
 10
-12.4698368709
 20
-23.1529569199
 10
-12.4600651963
 20
-23.148808872
 10
-12.4498926851
 20
-23.1449126131
 10
-12.439337098
 20
-23.1412905703
 10
-12.4284134972
 20
-23.137941334
 10
-12.4171424397
 20
-23.1348863009
 10
-12.4055465152
 20
-23.1321470947
 10
-12.3936458174
 20
-23.1297228132
 10
-12.3814789897
 20
-23.1276360125
 10
-12.3690609348
 20
-23.1259025536
 10
-12.3563769407
 20
-23.1245164325
 10
-12.3434422301
 20
-23.1234933505
 10
-12.3303037286
 20
-23.1228641607
 10
-12.3169962532
 20
-23.1226497308
  0
LWPOLYLINE
  5
2E3
100
AcDbEntity
  8
RACCORDO
100
AcDbPolyline
 62
7
  6
CONTINUOUS
 90
34
 70
0
 10
-10.1822807489
 20
23.2669872981
 10
-10.1825784753
 20
23.260745719
 10
-10.1833497267
 20
23.254472608
 10
-10.1846000894
 20
23.2481861919
 10
-10.1863341367
 20
23.2419121598
 10
-10.1885555794
 20
23.2356626215
 10
-10.1912675994
 20
23.2294361375
 10
-10.1944720963
 20
23.2232532001
 10
-10.1981700208
 20
23.2171335699
 10
-10.2023622718
 20
23.2110754134
 10
-10.207047756
 20
23.2051002367
 10
-10.2122243979
 20
23.199228829
 10
-10.2178907687
 20
23.1934590071
 10
-10.2240425526
 20
23.1878130261
 10
-10.230674335
 20
23.182312533
 10
-10.2377821378
 20
23.1769551973
 10
-10.2453581333
 20
23.171763745
 10
-10.2533932153
 20
23.1667604362
 10
-10.2618804409
 20
23.1619430222
 10
-10.2708081504
 20
23.1573343288
 10
-10.2801631291
 20
23.1529569199
 10
-10.2899348037
 20
23.148808872
 10
-10.3001073149
 20
23.1449126131
 10
-10.310662902
 20
23.1412905703
 10
-10.3215865028
 20
23.137941334
 10
-10.3328575603
 20
23.1348863009
 10
-10.3444534848
 20
23.1321470947
 10
-10.3563541826
 20
23.1297228132
 10
-10.3685210103
 20
23.1276360125
 10
-10.3809390652
 20
23.1259025536
 10
-10.3936230593
 20
23.1245164325
 10
-10.4065577699
 20
23.1234933505
 10
-10.4196962714
 20
23.1228641607
 10
-10.4330037468
 20
23.1226497308
  0
LINE
  5
2E4
100
AcDbEntity
  8
RACCORDO
100
AcDbLine
 62
250
  6
CONTINUOUS
 10
-12.4212019656
 20
-21.9611162268
 11
-12.4206698789
 21
-21.9496258567
  0
LINE
  5
2E5
100
AcDbEntity
  8
RACCORDO
100
AcDbLine
 62
250
  6
CONTINUOUS
 10
-12.9195434887
 20
-21.4485031593
 11
-12.9190263441
 21
-21.4380065106
  0
LINE
  5
2E6
100
AcDbEntity
  8
RACCORDO
100
AcDbLine
 62
250
  6
CONTINUOUS
 10
-12.4215589218
 20
-21.9679757029
 11
-12.4212019656
 21
-21.9611162268
  0
LINE
  5
2E7
100
AcDbEntity
  8
RACCORDO
100
AcDbLine
 62
250
  6
CONTINUOUS
 10
-12.9200661331
 20
-21.4580634546
 11
-12.9195434887
 21
-21.4485031593
  0
LINE
  5
2E8
100
AcDbEntity
  8
RACCORDO
100
AcDbLine
 62
250
  6
CONTINUOUS
 10
-12.4219174744
 20
-21.9741910038
 11
-12.4215589218
 21
-21.9679757029
  0
LINE
  5
2E9
100
AcDbEntity
  8
RACCORDO
100
AcDbLine
 62
250
  6
CONTINUOUS
 10
-12.9204173686
 20
-21.4639121946
 11
-12.9200661331
 21
-21.4580634546
  0
LINE
  5
2EA
100
AcDbEntity
  8
RACCORDO
100
AcDbLine
 62
250
  6
CONTINUOUS
 10
-12.9207706631
 20
-21.4693379324
 11
-12.9204173686
 21
-21.4639121946
  0
LINE
  5
2EB
100
AcDbEntity
  8
RACCORDO
100
AcDbLine
 62
250
  6
CONTINUOUS
 10
-12.9211258466
 20
-21.4743381457
 11
-12.9207706631
 21
-21.4693379324
  0
LINE
  5
2EC
100
AcDbEntity
  8
RACCORDO
100
AcDbLine
 62
7
  6
CONTINUOUS
 10
-10.175
 20
22.4
 11
-10.1822807489
 21
22.3344140523
  0
LWPOLYLINE
  5
2ED
100
AcDbEntity
  8
0
100
AcDbPolyline
 62
7
  6
CONTINUOUS
 90
3
 70
0
 43
0.3500000087
 10
-0.7821428596
 20
34.0986585785
 10
-0.8535714152
 20
33.8843763092
 10
-0.9964285929
 20
33.5986623535
  0
LINE
  5
2EE
100
AcDbEntity
  8
RACCORDO
100
AcDbLine
 62
250
  6
CONTINUOUS
 10
8.4750042308
 20
24.5
 11
8.4619056521
 21
24.4869014213
  0
LINE
  5
2EF
100
AcDbEntity
  8
RACCORDO
100
AcDbLine
 62
250
  6
CONTINUOUS
 10
8.4750042308
 20
-24.5
 11
8.4619056521
 21
-24.4869014213
  0
LINE
  5
2F0
100
AcDbEntity
  8
RACCORDO
100
AcDbLine
 62
7
  6
CONTINUOUS
 10
-10.175
 20
-22.4
 11
-10.1822807489
 21
-22.3344140523
  0
LWPOLYLINE
  5
2F1
100
AcDbEntity
  8
RACCORDO
100
AcDbPolyline
 62
250
  6
CONTINUOUS
 90
15
 70
0
 10
-12.9216616934
 20
21.4810344887
 10
-12.9218411572
 20
21.4830525559
 10
-12.9220209666
 20
21.4849626546
 10
-12.922201123
 20
21.4867647722
 10
-12.9223816251
 20
21.4884589214
 10
-12.9225624135
 20
21.4900445026
 10
-12.9227434903
 20
21.4915214762
 10
-12.9229248534
 20
21.4928898817
 10
-12.9231064371
 20
21.4941492376
 10
-12.9232882428
 20
21.4952995282
 10
-12.9234702692
 20
21.4963407692
 10
-12.923652446
 20
21.4972725258
 10
-12.9238347501
 20
21.4980946531
 10
-12.9240172046
 20
21.498807296
 10
-12.9241998097
 20
21.4994104546
  0
LWPOLYLINE
  5
2F2
100
AcDbEntity
  8
RACCORDO
100
AcDbPolyline
 62
250
  6
CONTINUOUS
 90
12
 70
0
 10
-12.4222772434
 20
21.9797563175
 10
-12.4224577522
 20
21.9822973613
 10
-12.4226385406
 20
21.9846758297
 10
-12.4228195976
 20
21.9868914684
 10
-12.4230009342
 20
21.9889439901
 10
-12.4231825161
 20
21.9908330931
 10
-12.4233643734
 20
21.9925585689
 10
-12.423546476
 20
21.9941202276
 10
-12.4237286987
 20
21.995517854
 10
-12.4239109998
 20
21.9967512976
 10
-12.4240934209
 20
21.9978204543
 10
-12.4242759622
 20
21.998725222
  0
LINE
  5
2F3
100
AcDbEntity
  8
RACCORDO
100
AcDbLine
 62
250
  6
CONTINUOUS
 10
-12.4219172732
 20
21.9741877258
 11
-12.4222772434
 21
21.9797563175
  0
LWPOLYLINE
  5
2F4
100
AcDbEntity
  8
RACCORDO
100
AcDbPolyline
 62
250
  6
CONTINUOUS
 90
31
 70
0
 10
-10.1880985787
 20
-23.8443375673
 10
-10.1884779104
 20
-23.8330274168
 10
-10.1895388924
 20
-23.8217481519
 10
-10.1912786273
 20
-23.810530574
 10
-10.1936923642
 20
-23.7994053159
 10
-10.1967735118
 20
-23.7884027584
 10
-10.200513656
 20
-23.7775529472
 10
-10.2049025834
 20
-23.7668855107
 10
-10.2099283087
 20
-23.7564295797
 10
-10.2155771077
 20
-23.7462137069
 10
-10.2218335547
 20
-23.7362657898
 10
-10.2286805646
 20
-23.7266129942
 10
-10.2360994397
 20
-23.7172816797
 10
-10.2440699206
 20
-23.7082973282
 10
-10.2525702417
 20
-23.6996844742
 10
-10.2615771902
 20
-23.6914666374
 10
-10.2710661701
 20
-23.6836662592
 10
-10.281011269
 20
-23.6763046407
 10
-10.2913853289
 20
-23.6694018849
 10
-10.3021600204
 20
-23.6629768418
 10
-10.3133059201
 20
-23.6570470569
 10
-10.3247925909
 20
-23.6516287232
 10
-10.3365886651
 20
-23.646736637
 10
-10.34866193
 20
-23.6423841576
 10
-10.3609794162
 20
-23.6385831707
 10
-10.373507487
 20
-23.6353440559
 10
-10.3862119311
 20
-23.6326756587
 10
-10.3990580552
 20
-23.6305852658
 10
-10.4120107793
 20
-23.6290785857
 10
-10.4250347321
 20
-23.6281597328
 10
-10.4380943479
 20
-23.6278312164
  0
LWPOLYLINE
  5
2F5
100
AcDbEntity
  8
RACCORDO
100
AcDbPolyline
 62
250
  6
CONTINUOUS
 90
31
 70
0
 10
-10.1880985787
 20
24.2369056521
 10
-10.1884399859
 20
24.249957992
 10
-10.1894632485
 20
24.2629828864
 10
-10.1911668528
 20
24.275944661
 10
-10.1935479829
 20
24.2888103798
 10
-10.1966010963
 20
24.3015418449
 10
-10.200316536
 20
24.3140960295
 10
-10.2046830871
 20
24.3264358334
 10
-10.209689517
 20
24.3385301896
 10
-10.2153222656
 20
24.3503462678
 10
-10.2215660673
 20
24.3618518682
 10
-10.2284037491
 20
24.3730151866
 10
-10.2358163791
 20
24.3838052658
 10
-10.2437835214
 20
24.3941923917
 10
-10.2522834183
 20
24.4041482289
 10
-10.2612928401
 20
24.4136455633
 10
-10.2707871333
 20
24.4226583824
 10
-10.2807402367
 20
24.4311619239
 10
-10.291124826
 20
24.4391328321
 10
-10.3019124163
 20
24.446549239
 10
-10.3130734423
 20
24.4533908148
 10
-10.3245772981
 20
24.4596387939
 10
-10.3363924437
 20
24.4652760422
 10
-10.3484864809
 20
24.4702870977
 10
-10.360826237
 20
24.4746582128
 10
-10.3733778845
 20
24.4783774023
 10
-10.3861069984
 20
24.4814344634
 10
-10.3989786381
 20
24.4838210061
 10
-10.4119574955
 20
24.4855304893
 10
-10.4250079938
 20
24.4865582323
 10
-10.4380943479
 20
24.4869014213
  0
LWPOLYLINE
  5
2F6
100
AcDbEntity
  8
RACCORDO
100
AcDbPolyline
 62
7
  6
CONTINUOUS
 90
34
 70
0
 10
-10.175
 20
24.2500042308
 10
-10.1752831502
 20
24.261899516
 10
-10.1761319658
 20
24.2737678556
 10
-10.1775445259
 20
24.2855823661
 10
-10.1795176323
 20
24.2973162875
 10
-10.1820468183
 20
24.3089430388
 10
-10.1851263583
 20
24.320436279
 10
-10.1887492787
 20
24.3317699738
 10
-10.1929073742
 20
24.3429184493
 10
-10.1975912278
 20
24.3538564463
 10
-10.2027902312
 20
24.3645591876
 10
-10.2084926084
 20
24.3750024283
 10
-10.2146854419
 20
24.3851625059
 10
-10.2213547045
 20
24.3950164051
 10
-10.2284852893
 20
24.4045418038
 10
-10.2360610411
 20
24.4137171191
 10
-10.2440647995
 20
24.4225215661
 10
-10.2524784339
 20
24.4309352005
 10
-10.2612828809
 20
24.4389389589
 10
-10.2704581962
 20
24.4465147107
 10
-10.2799835949
 20
24.4536452955
 10
-10.2898374941
 20
24.4603145581
 10
-10.2999975717
 20
24.4665073916
 10
-10.3104408124
 20
24.4722097688
 10
-10.3211435537
 20
24.4774087722
 10
-10.3320815507
 20
24.4820926258
 10
-10.3432300262
 20
24.4862507213
 10
-10.354563721
 20
24.4898736417
 10
-10.3660569612
 20
24.4929531817
 10
-10.3776837125
 20
24.4954823677
 10
-10.3894176339
 20
24.4974554741
 10
-10.4012321444
 20
24.4988680342
 10
-10.413100484
 20
24.4997168498
 10
-10.4249957692
 20
24.5
  0
LINE
  5
2F7
100
AcDbEntity
  8
RACCORDO
100
AcDbLine
 62
250
  6
CONTINUOUS
 10
-10.4380943479
 20
23.6278312164
 11
-10.4330037468
 21
23.1226497308
  0
LINE
  5
2F8
100
AcDbEntity
  8
RACCORDO
100
AcDbLine
 62
250
  6
CONTINUOUS
 10
-10.1880985787
 20
23.8443375673
 11
-10.1822807489
 21
23.2669872981
  0
LINE
  5
2F9
100
AcDbEntity
  8
RACCORDO
100
AcDbLine
 62
250
  6
CONTINUOUS
 10
-10.4380943479
 20
-23.6278312164
 11
-10.4380943479
 21
-24.4869014213
  0
LINE
  5
2FA
100
AcDbEntity
  8
RACCORDO
100
AcDbLine
 62
250
  6
CONTINUOUS
 10
-10.4380943479
 20
23.6278312164
 11
-10.4380943479
 21
24.4869014213
  0
LINE
  5
2FB
100
AcDbEntity
  8
RACCORDO
100
AcDbLine
 62
250
  6
CONTINUOUS
 10
-10.4322765181
 20
23.1226497308
 11
-10.4322765181
 21
22.3213883311
  0
LINE
  5
2FC
100
AcDbEntity
  8
RACCORDO
100
AcDbLine
 62
250
  6
CONTINUOUS
 10
-10.4322765181
 20
-22.3213883311
 11
-10.4322765181
 21
-23.1226497308
  0
LINE
  5
2FD
100
AcDbEntity
  8
RACCORDO
100
AcDbLine
 62
250
  6
CONTINUOUS
 10
-10.1880985787
 20
-24.2369056521
 11
-10.1880985787
 21
-23.8443375673
  0
LINE
  5
2FE
100
AcDbEntity
  8
RACCORDO
100
AcDbLine
 62
250
  6
CONTINUOUS
 10
-10.1880985787
 20
23.8443375673
 11
-10.1880985787
 21
24.2369056521
  0
LINE
  5
2FF
100
AcDbEntity
  8
RACCORDO
100
AcDbLine
 62
250
  6
CONTINUOUS
 10
-10.1822807489
 20
23.2669872981
 11
-10.1822807489
 21
22.3344140523
  0
LINE
  5
300
100
AcDbEntity
  8
RACCORDO
100
AcDbLine
 62
250
  6
CONTINUOUS
 10
-10.1822807489
 20
-22.3344140523
 11
-10.1822807489
 21
-23.2669872981
  0
LINE
  5
301
100
AcDbEntity
  8
RACCORDO
100
AcDbLine
 62
7
  6
CONTINUOUS
 10
-10.175
 20
-22.4
 11
-10.175
 21
-24.2500042308
  0
LINE
  5
302
100
AcDbEntity
  8
RACCORDO
100
AcDbLine
 62
7
  6
CONTINUOUS
 10
-10.175
 20
22.4
 11
-10.175
 21
24.2500042308
  0
LINE
  5
303
100
AcDbEntity
  8
RACCORDO
100
AcDbLine
 62
250
  6
CONTINUOUS
 10
-10.4330037468
 20
-23.1226497308
 11
-10.4380943479
 21
-23.6278312164
  0
LINE
  5
304
100
AcDbEntity
  8
RACCORDO
100
AcDbLine
 62
250
  6
CONTINUOUS
 10
-10.1822807489
 20
-23.2669872981
 11
-10.1880985787
 21
-23.8443375673
  0
LWPOLYLINE
  5
305
100
AcDbEntity
  8
RACCORDO
100
AcDbPolyline
 62
250
  6
CONTINUOUS
 90
31
 70
0
 10
-10.1880985787
 20
23.8443375673
 10
-10.1884771343
 20
23.833039595
 10
-10.1895362619
 20
23.821769291
 10
-10.1912736384
 20
23.8105574212
 10
-10.1936853398
 20
23.7994336121
 10
-10.1967652101
 20
23.78842936
 10
-10.2005042611
 20
23.7775778202
 10
-10.2048918055
 20
23.7669096972
 10
-10.2099162045
 20
23.7564530239
 10
-10.2155638851
 20
23.746236105
 10
-10.2218195777
 20
23.7362866999
 10
-10.2286661523
 20
23.7266321754
 10
-10.2360847605
 20
23.7172991519
 10
-10.2440550646
 20
23.7083132018
 10
-10.2525553594
 20
23.6996987826
 10
-10.2615624499
 20
23.6914794042
 10
-10.2710517535
 20
23.6836775075
 10
-10.2809973406
 20
23.6763144193
 10
-10.2913720235
 20
23.6694102704
 10
-10.3021474559
 20
23.6629839239
 10
-10.3132942139
 20
23.6570529269
 10
-10.324781851
 20
23.6516334796
 10
-10.3365790077
 20
23.6467403776
 10
-10.3486534441
 20
23.6423869945
 10
-10.3609721237
 20
23.6385852371
 10
-10.3735013591
 20
23.6353454907
 10
-10.3862069619
 20
23.6326765842
 10
-10.3990542827
 20
23.6305857918
 10
-10.41200825
 20
23.6290788219
 10
-10.4250334638
 20
23.6281597935
 10
-10.4380943479
 20
23.6278312164
  0
LINE
  5
306
100
AcDbEntity
  8
RACCORDO
100
AcDbLine
 62
7
  6
CONTINUOUS
 10
-12.575
 20
-22.4
 11
-12.5677192511
 21
-22.3344140523
  0
LINE
  5
307
100
AcDbEntity
  8
RACCORDO
100
AcDbLine
 62
250
  6
CONTINUOUS
 10
8.725
 20
24.2500042308
 11
8.7119014213
 21
24.2369056521
  0
LINE
  5
308
100
AcDbEntity
  8
RACCORDO
100
AcDbLine
 62
250
  6
CONTINUOUS
 10
8.725
 20
-24.2500042308
 11
8.7119014213
 21
-24.2369056521
  0
LINE
  5
309
100
AcDbEntity
  8
RACCORDO
100
AcDbLine
 62
7
  6
CONTINUOUS
 10
-12.575
 20
22.4
 11
-12.5677192511
 21
22.3344140523
  0
LINE
  5
30A
100
AcDbEntity
  8
RACCORDO
100
AcDbLine
 62
250
  6
CONTINUOUS
 10
-8.5843815224
 20
-5.2145961196
 11
-8.5846143135
 21
-0.7006740507
  0
LWPOLYLINE
  5
30B
100
AcDbEntity
  8
RACCORDO
100
AcDbPolyline
 62
250
  6
CONTINUOUS
 90
3
 70
0
 10
-8.0844438788
 20
-4.709468522
 10
-8.0846333521
 20
-0.6999632354
 10
-8.0845419476
 20
3.3095546423
  0
LINE
  5
30C
100
AcDbEntity
  8
DRAFT
100
AcDbLine
 62
7
  6
CONTINUOUS
 10
-8.075
 20
-4.7
 11
-8.075
 21
3.3
  0
LINE
  5
30D
100
AcDbEntity
  8
0
100
AcDbLine
 62
7
  6
CONTINUOUS
 10
-7.625
 20
2.25
 11
-7.625
 21
0.55
  0
LINE
  5
30E
100
AcDbEntity
  8
RACCORDO
100
AcDbLine
 62
250
  6
CONTINUOUS
 10
-8.5846143135
 20
-0.7006740507
 11
-8.5844918174
 21
3.813305124
  0
LWPOLYLINE
  5
30F
100
AcDbEntity
  8
RACCORDO
100
AcDbPolyline
 62
250
  6
CONTINUOUS
 90
13
 70
0
 10
-12.4242759622
 20
-21.998725222
 10
-12.4240933968
 20
-21.9978204812
 10
-12.42391097
 20
-21.9967513979
 10
-12.4237286819
 20
-21.9955180903
 10
-12.4235465003
 20
-21.9941206978
 10
-12.4233644574
 20
-21.9925593719
 10
-12.4231826492
 20
-21.9908342722
 10
-12.4230010941
 20
-21.9889455781
 10
-12.4228197738
 20
-21.9868935003
 10
-12.4226387293
 20
-21.9846782716
 10
-12.4224579525
 20
-21.9823001351
 10
-12.4222774514
 20
-21.9797593508
 10
-12.4219174744
 20
-21.9741910038
  0
LINE
  5
310
100
AcDbEntity
  8
0
100
AcDbLine
 62
7
  6
CONTINUOUS
 10
-6.9
 20
3.3
 11
-6.9
 21
2.25
  0
LINE
  5
311
100
AcDbEntity
  8
0
100
AcDbLine
 62
7
  6
CONTINUOUS
 10
-6.9
 20
0.55
 11
-6.9
 21
-2.8
  0
LINE
  5
312
100
AcDbEntity
  8
0
100
AcDbLine
 62
7
  6
CONTINUOUS
 10
-6.705
 20
3.3
 11
-6.705
 21
0.65
  0
LINE
  5
313
100
AcDbEntity
  8
DRAFT
100
AcDbLine
 62
7
  6
CONTINUOUS
 10
-6.325
 20
-23.8
 11
-6.325
 21
-22.4
  0
LINE
  5
314
100
AcDbEntity
  8
DRAFT
100
AcDbLine
 62
7
  6
CONTINUOUS
 10
-6.325
 20
22.4
 11
-6.325
 21
23.8
  0
LINE
  5
315
100
AcDbEntity
  8
RACCORDO
100
AcDbLine
 62
250
  6
CONTINUOUS
 10
-6.3220741618
 20
23.7970741618
 11
-6.3220741618
 21
22.3736436632
  0
LINE
  5
316
100
AcDbEntity
  8
RACCORDO
100
AcDbLine
 62
250
  6
CONTINUOUS
 10
-6.3220741618
 20
-22.3736436632
 11
-6.3220741618
 21
-23.7970741618
  0
LINE
  5
317
100
AcDbEntity
  8
0
100
AcDbLine
 62
7
  6
CONTINUOUS
 10
-6.205
 20
3.3
 11
-6.205
 21
0.65
  0
LINE
  5
318
100
AcDbEntity
  8
RACCORDO
100
AcDbLine
 62
250
  6
CONTINUOUS
 10
-5.8220826234
 20
23.5953423515
 11
-5.8220826234
 21
22.3475922207
  0
LINE
  5
319
100
AcDbEntity
  8
RACCORDO
100
AcDbLine
 62
250
  6
CONTINUOUS
 10
-5.8220826234
 20
-22.3475922207
 11
-5.8220826234
 21
-23.5953423515
  0
LINE
  5
31A
100
AcDbEntity
  8
0
100
AcDbLine
 62
7
  6
CONTINUOUS
 10
-5.685
 20
3.3
 11
-5.685
 21
0.65
  0
LINE
  5
31B
100
AcDbEntity
  8
RACCORDO
100
AcDbLine
 62
250
  6
CONTINUOUS
 10
-5.7844918187
 20
3.813305124
 11
-5.7843629706
 21
5.4147777497
  0
LINE
  5
31C
100
AcDbEntity
  8
RACCORDO
100
AcDbLine
 62
250
  6
CONTINUOUS
 10
-12.9870485995
 20
-21.7223497319
 11
-12.9600399195
 21
-21.6215270335
  0
LWPOLYLINE
  5
31D
100
AcDbEntity
  8
RACCORDO
100
AcDbPolyline
 62
250
  6
CONTINUOUS
 90
7
 70
0
 10
-12.9600399195
 20
-21.6215270335
 10
-12.9497043465
 20
-21.5839734756
 10
-12.944680125
 20
-21.566169232
 10
-12.9396283371
 20
-21.5488243063
 10
-12.9345130609
 20
-21.5318937045
 10
-12.9293702185
 20
-21.5154224206
 10
-12.9241998097
 20
-21.4994104546
  0
LWPOLYLINE
  5
31E
100
AcDbEntity
  8
RACCORDO
100
AcDbPolyline
 62
250
  6
CONTINUOUS
 90
17
 70
0
 10
-12.9241998097
 20
-21.4994104546
 10
-12.9240172113
 20
-21.4988072744
 10
-12.9238347688
 20
-21.4980946732
 10
-12.9236524823
 20
-21.4972726511
 10
-12.9234703307
 20
-21.4963410794
 10
-12.9232883351
 20
-21.4953000867
 10
-12.9231065587
 20
-21.4941500589
 10
-12.9229250025
 20
-21.4928909801
 10
-12.9227436656
 20
-21.4915228661
 10
-12.9225626085
 20
-21.4900461501
 10
-12.9223818314
 20
-21.4884607862
 10
-12.922201334
 20
-21.4867668203
 10
-12.9220211766
 20
-21.4849648222
 10
-12.9218413592
 20
-21.483054758
 10
-12.9216618817
 20
-21.4810366616
 10
-12.9214828036
 20
-21.4789112052
 10
-12.9211258466
 20
-21.4743381457
  0
LWPOLYLINE
  5
31F
100
AcDbEntity
  8
RACCORDO
100
AcDbPolyline
 62
250
  6
CONTINUOUS
 90
7
 70
0
 10
-13.0209982236
 20
-21.8397834628
 10
-13.01658323
 20
-21.8257712893
 10
-13.0120390331
 20
-21.8108875338
 10
-13.0073899968
 20
-21.7952632734
 10
-13.0025727704
 20
-21.7786247399
 10
-12.9975403006
 20
-21.760720597
 10
-12.9870485995
 20
-21.7223497319
  0
LINE
  5
320
100
AcDbEntity
  8
RACCORDO
100
AcDbLine
 62
250
  6
CONTINUOUS
 10
-13.0575779097
 20
-21.9498978415
 11
-13.0430014657
 21
-21.9060737572
  0
LINE
  5
321
100
AcDbEntity
  8
RACCORDO
100
AcDbLine
 62
250
  6
CONTINUOUS
 10
-13.0413239155
 20
21.9010588494
 11
-13.0575780505
 21
21.9498977711
  0
LWPOLYLINE
  5
322
100
AcDbEntity
  8
RACCORDO
100
AcDbPolyline
 62
250
  6
CONTINUOUS
 90
5
 70
0
 10
-12.9241998097
 20
21.4994104546
 10
-12.9300168396
 20
21.5175213906
 10
-12.9357970998
 20
21.5361645244
 10
-12.9415405905
 20
21.5553398559
 10
-12.9471965931
 20
21.5749817897
  0
LINE
  5
323
100
AcDbEntity
  8
RACCORDO
100
AcDbLine
 62
250
  6
CONTINUOUS
 10
-12.9471965931
 20
21.5749817897
 11
-12.9585504446
 21
21.6160590371
  0
LWPOLYLINE
  5
324
100
AcDbEntity
  8
RACCORDO
100
AcDbPolyline
 62
250
  6
CONTINUOUS
 90
9
 70
0
 10
-12.9889749458
 20
21.7295003181
 10
-12.9949838534
 20
21.7514954283
 10
-13.0007159495
 20
21.7719710867
 10
-13.006250155
 20
21.7913125504
 10
-13.0115879241
 20
21.809444028
 10
-13.0166619031
 20
21.8260296166
 10
-13.0215394457
 20
21.8414052191
 10
-13.0264240667
 20
21.856502752
 10
-13.0313358052
 20
21.8713815411
  0
LINE
  5
325
100
AcDbEntity
  8
RACCORDO
100
AcDbLine
 62
250
  6
CONTINUOUS
 10
-12.9585504446
 20
21.6160590371
 11
-12.9889749458
 21
21.7295003181
  0
LINE
  5
326
100
AcDbEntity
  8
DRAFT
100
AcDbLine
 62
7
  6
CONTINUOUS
 10
-5.275
 20
3.3
 11
-5.275
 21
4.9
  0
LINE
  5
327
100
AcDbEntity
  8
0
100
AcDbLine
 62
7
  6
CONTINUOUS
 10
-5.225
 20
-2.8
 11
-5.225
 21
-4.4
  0
LINE
  5
328
100
AcDbEntity
  8
0
100
AcDbLine
 62
7
  6
CONTINUOUS
 10
-5.185
 20
4.15
 11
-5.185
 21
0.65
  0
LINE
  5
329
100
AcDbEntity
  8
0
100
AcDbLine
 62
7
  6
CONTINUOUS
 10
-4.665
 20
4.15
 11
-4.665
 21
0.65
  0
LINE
  5
32A
100
AcDbEntity
  8
ASSI
100
AcDbLine
 62
7
  6
CONTINUOUS
 10
-4.64
 20
4.15
 11
-4.64
 21
0.65
  0
LINE
  5
32B
100
AcDbEntity
  8
DRAFT
100
AcDbLine
 62
7
  6
CONTINUOUS
 10
-4.225
 20
4.9
 11
-4.225
 21
6.1
  0
LINE
  5
32C
100
AcDbEntity
  8
ASSI
100
AcDbLine
 62
7
  6
CONTINUOUS
 10
-4.19
 20
4.15
 11
-4.19
 21
0.65
  0
LINE
  5
32D
100
AcDbEntity
  8
0
100
AcDbLine
 62
7
  6
CONTINUOUS
 10
-4.165
 20
4.15
 11
-4.165
 21
0.65
  0
LINE
  5
32E
100
AcDbEntity
  8
0
100
AcDbLine
 62
7
  6
CONTINUOUS
 10
-3.965
 20
-4.4
 11
-3.965
 21
-4.7
  0
LINE
  5
32F
100
AcDbEntity
  8
0
100
AcDbLine
 62
7
  6
CONTINUOUS
 10
-3.645
 20
4.15
 11
-3.645
 21
0.65
  0
LINE
  5
330
100
AcDbEntity
  8
ASSI
100
AcDbLine
 62
7
  6
CONTINUOUS
 10
-3.64
 20
4.15
 11
-3.64
 21
0.65
  0
LINE
  5
331
100
AcDbEntity
  8
RACCORDO
100
AcDbLine
 62
250
  6
CONTINUOUS
 10
-5.2845419463
 20
3.3095546401
 11
-5.2844270736
 21
4.9094537442
  0
LINE
  5
332
100
AcDbEntity
  8
RACCORDO
100
AcDbLine
 62
250
  6
CONTINUOUS
 10
-4.7343629714
 20
5.4147777497
 11
-4.7342369857
 21
6.6158528412
  0
LINE
  5
333
100
AcDbEntity
  8
RACCORDO
100
AcDbLine
 62
250
  6
CONTINUOUS
 10
-4.2344270721
 20
4.9094537412
 11
-4.2343115688
 21
6.1093520867
  0
LINE
  5
334
100
AcDbEntity
  8
RACCORDO
100
AcDbLine
 62
7
  6
CONTINUOUS
 10
-6.325
 20
-22.4
 11
-6.3220741618
 21
-22.3736436632
  0
LINE
  5
335
100
AcDbEntity
  8
RACCORDO
100
AcDbLine
 62
250
  6
CONTINUOUS
 10
-12.5932100958
 20
-22.3560992404
 11
-12.5844932607
 21
-22.329099242
  0
LWPOLYLINE
  5
336
100
AcDbEntity
  8
RACCORDO
100
AcDbPolyline
 62
250
  6
CONTINUOUS
 90
13
 70
0
 10
-12.5844932607
 20
-22.329099242
 10
-12.5800897742
 20
-22.3159047159
 10
-12.5755848073
 20
-22.3028428033
 10
-12.5709479883
 20
-22.2898804618
 10
-12.5657827837
 20
-22.2766063312
 10
-12.5600075208
 20
-22.2629484559
 10
-12.5537038722
 20
-22.2489787916
 10
-12.5467203228
 20
-22.234501845
 10
-12.5388991412
 20
-22.2193756811
 10
-12.5303980587
 20
-22.2037422349
 10
-12.5215387539
 20
-22.1878318187
 10
-12.512260962
 20
-22.1715806691
 10
-12.4931331844
 20
-22.1386690617
  0
LWPOLYLINE
  5
337
100
AcDbEntity
  8
RACCORDO
100
AcDbPolyline
 62
250
  6
CONTINUOUS
 90
3
 70
0
 10
-12.607892514
 20
-22.4
 10
-12.6028248083
 20
-22.3849546096
 10
-12.5932100958
 20
-22.3560992404
  0
LWPOLYLINE
  5
338
100
AcDbEntity
  8
RACCORDO
100
AcDbPolyline
 62
250
  6
CONTINUOUS
 90
4
 70
0
 10
-13.0430014657
 20
-21.9060737572
 10
-13.0340341354
 20
-21.8794275036
 10
-13.0296501349
 20
-21.8662532954
 10
-13.0209982236
 20
-21.8397834628
  0
LWPOLYLINE
  5
339
100
AcDbEntity
  8
RACCORDO
100
AcDbPolyline
 62
7
  6
CONTINUOUS
 90
3
 70
0
 10
0.3893974693
 20
6.1152977126
 10
0.3950660428
 20
6.1213668539
 10
0.3985910589
 20
6.1250977811
  0
LINE
  5
33A
100
AcDbEntity
  8
RACCORDO
100
AcDbLine
 62
7
  6
CONTINUOUS
 10
0.3985910589
 20
6.1250977811
 11
0.4117393051
 21
6.1388179575
  0
LINE
  5
33B
100
AcDbEntity
  8
RACCORDO
100
AcDbLine
 62
7
  6
CONTINUOUS
 10
0.4117393051
 20
6.1388179575
 11
0.4936958858
 21
6.2226983033
  0
LINE
  5
33C
100
AcDbEntity
  8
RACCORDO
100
AcDbLine
 62
7
  6
CONTINUOUS
 10
0.4936958858
 20
6.2226983033
 11
0.6258430915
 21
6.3563885335
  0
LINE
  5
33D
100
AcDbEntity
  8
RACCORDO
100
AcDbLine
 62
7
  6
CONTINUOUS
 10
0.6258430915
 20
6.3563885335
 11
0.7430733094
 21
6.4743460396
  0
LINE
  5
33E
100
AcDbEntity
  8
RACCORDO
100
AcDbLine
 62
7
  6
CONTINUOUS
 10
0.375
 20
6.1
 11
0.3842560268
 21
6.1092560268
  0
LINE
  5
33F
100
AcDbEntity
  8
RACCORDO
100
AcDbLine
 62
7
  6
CONTINUOUS
 10
0.7430733094
 20
6.4743460396
 11
0.884236988
 21
6.6158528412
  0
LINE
  5
340
100
AcDbEntity
  8
RACCORDO
100
AcDbLine
 62
250
  6
CONTINUOUS
 10
4.7343815224
 20
-5.2145961196
 11
-8.5843815224
 21
-5.2145961196
  0
LINE
  5
341
100
AcDbEntity
  8
RACCORDO
100
AcDbLine
 62
250
  6
CONTINUOUS
 10
4.234400562
 20
-4.709400562
 11
-8.084400562
 21
-4.709400562
  0
LINE
  5
342
100
AcDbEntity
  8
DRAFT
100
AcDbLine
 62
7
  6
CONTINUOUS
 10
4.225
 20
-4.7
 11
-8.075
 21
-4.7
  0
LINE
  5
343
100
AcDbEntity
  8
0
100
AcDbLine
 62
7
  6
CONTINUOUS
 10
-5.225
 20
-4.4
 11
-3.965
 21
-4.4
  0
LINE
  5
344
100
AcDbEntity
  8
0
100
AcDbLine
 62
7
  6
CONTINUOUS
 10
0.115
 20
-4.4
 11
1.375
 21
-4.4
  0
LINE
  5
345
100
AcDbEntity
  8
RACCORDO
100
AcDbLine
 62
7
  6
CONTINUOUS
 10
-8.0896283067
 20
3.315125472
 11
-8.0988226604
 21
3.3246604475
  0
LWPOLYLINE
  5
346
100
AcDbEntity
  8
RACCORDO
100
AcDbPolyline
 62
7
  6
CONTINUOUS
 90
5
 70
0
 10
-8.0845419488
 20
3.3095546442
 10
-8.0850184298
 20
3.3101176298
 10
-8.0860213458
 20
3.3112477824
 10
-8.0875506966
 20
3.3129241106
 10
-8.0896283067
 20
3.315125472
  0
LWPOLYLINE
  5
347
100
AcDbEntity
  8
RACCORDO
100
AcDbPolyline
 62
250
  6
CONTINUOUS
 90
9
 70
0
 10
-12.4242759622
 20
21.998725222
 10
-12.4299623752
 20
22.0143139686
 10
-12.4361465695
 20
22.0297857889
 10
-12.4428285452
 20
22.0451406829
 10
-12.4500295722
 20
22.060257192
 10
-12.4577283806
 20
22.0752567747
 10
-12.4658611602
 20
22.0905038067
 10
-12.4744929704
 20
22.1061373696
 10
-12.4927995163
 20
22.1380939735
  0
LINE
  5
348
100
AcDbEntity
  8
RACCORDO
100
AcDbLine
 62
250
  6
CONTINUOUS
 10
-13.0313358052
 20
21.8713815411
 11
-13.0413239155
 21
21.9010588494
  0
LINE
  5
349
100
AcDbEntity
  8
RACCORDO
100
AcDbLine
 62
250
  6
CONTINUOUS
 10
-12.5932748551
 20
22.3562841907
 11
-12.607892023
 21
22.4
  0
LINE
  5
34A
100
AcDbEntity
  8
RACCORDO
100
AcDbLine
 62
7
  6
CONTINUOUS
 10
-6.325
 20
22.4
 11
-6.3220741618
 21
22.3736436632
  0
LINE
  5
34B
100
AcDbEntity
  8
ASSI
100
AcDbLine
 62
7
  6
CONTINUOUS
 10
-3.19
 20
4.15
 11
-3.19
 21
0.65
  0
LINE
  5
34C
100
AcDbEntity
  8
0
100
AcDbLine
 62
7
  6
CONTINUOUS
 10
-3.145
 20
4.15
 11
-3.145
 21
0.65
  0
LINE
  5
34D
100
AcDbEntity
  8
ASSI
100
AcDbLine
 62
7
  6
CONTINUOUS
 10
-2.64
 20
4.15
 11
-2.64
 21
0.65
  0
LINE
  5
34E
100
AcDbEntity
  8
ASSI
100
AcDbLine
 62
7
  6
CONTINUOUS
 10
-2.19
 20
4.15
 11
-2.19
 21
0.65
  0
LINE
  5
34F
100
AcDbEntity
  8
0
100
AcDbLine
 62
7
  6
CONTINUOUS
 10
-2.125
 20
4.15
 11
-2.125
 21
0.65
  0
LINE
  5
350
100
AcDbEntity
  8
ASSI
100
AcDbLine
 62
7
  6
CONTINUOUS
 10
-1.64
 20
4.15
 11
-1.64
 21
0.65
  0
LINE
  5
351
100
AcDbEntity
  8
RACCORDO
100
AcDbLine
 62
7
  6
CONTINUOUS
 10
0.3843115682
 20
6.1093520852
 11
0.3842560268
 21
6.1092560268
  0
LWPOLYLINE
  5
352
100
AcDbEntity
  8
RACCORDO
100
AcDbPolyline
 62
7
  6
CONTINUOUS
 90
5
 70
0
 10
0.3843115705
 20
6.1093520903
 10
0.3847880011
 20
6.1100107924
 10
0.3857908244
 20
6.1112353791
 10
0.3873200402
 20
6.1130047617
 10
0.3893974693
 20
6.1152977126
  0
LWPOLYLINE
  5
353
100
AcDbEntity
  8
RACCORDO
100
AcDbPolyline
 62
7
  6
CONTINUOUS
 90
5
 70
0
 10
0.384427075
 20
4.9094537468
 10
0.3849035278
 20
4.9100714306
 10
0.3859063913
 20
4.9112555507
 10
0.3874356655
 20
4.9129850601
 10
0.3895131726
 20
4.9152387675
  0
LWPOLYLINE
  5
354
100
AcDbEntity
  8
RACCORDO
100
AcDbPolyline
 62
7
  6
CONTINUOUS
 90
5
 70
0
 10
1.434427075
 20
4.9094537468
 10
1.4349035278
 20
4.9100714306
 10
1.4359063913
 20
4.9112555507
 10
1.4374356654
 20
4.91298506
 10
1.4395131725
 20
4.9152387674
  0
LWPOLYLINE
  5
355
100
AcDbEntity
  8
RACCORDO
100
AcDbPolyline
 62
7
  6
CONTINUOUS
 90
5
 70
0
 10
-8.0844438799
 20
-4.7094685243
 10
-8.0849203364
 20
-4.7100793712
 10
-8.0859232065
 20
-4.7112567462
 10
-8.0874524903
 20
-4.7129796089
 10
-8.0895300103
 20
-4.7152267744
  0
LWPOLYLINE
  5
356
100
AcDbEntity
  8
RACCORDO
100
AcDbPolyline
 62
7
  6
CONTINUOUS
 90
3
 70
0
 10
0.3895131726
 20
4.9152387675
 10
0.395181952
 20
4.9212314631
 10
0.398707091
 20
4.9249252631
  0
LWPOLYLINE
  5
357
100
AcDbEntity
  8
RACCORDO
100
AcDbPolyline
 62
7
  6
CONTINUOUS
 90
3
 70
0
 10
1.4395131725
 20
4.9152387674
 10
1.4451819518
 20
4.9212314629
 10
1.4487070908
 20
4.9249252629
  0
LWPOLYLINE
  5
358
100
AcDbEntity
  8
RACCORDO
100
AcDbPolyline
 62
7
  6
CONTINUOUS
 90
3
 70
0
 10
-8.0895300103
 20
-4.7152267744
 10
-8.0951988238
 20
-4.7212067255
 10
-8.0987239833
 20
-4.7248943356
  0
LINE
  5
359
100
AcDbEntity
  8
RACCORDO
100
AcDbLine
 62
7
  6
CONTINUOUS
 10
0.398707091
 20
4.9249252631
 11
0.4118557744
 21
4.9385386811
  0
LINE
  5
35A
100
AcDbEntity
  8
RACCORDO
100
AcDbLine
 62
7
  6
CONTINUOUS
 10
1.4487070908
 20
4.9249252629
 11
1.4618557741
 21
4.9385386808
  0
LINE
  5
35B
100
AcDbEntity
  8
RACCORDO
100
AcDbLine
 62
7
  6
CONTINUOUS
 10
-8.0987239833
 20
-4.7248943356
 11
-8.1118727392
 21
-4.7384899527
  0
LINE
  5
35C
100
AcDbEntity
  8
RACCORDO
100
AcDbLine
 62
7
  6
CONTINUOUS
 10
0.4118557744
 20
4.9385386811
 11
0.4938145984
 21
5.0220644221
  0
LINE
  5
35D
100
AcDbEntity
  8
RACCORDO
100
AcDbLine
 62
7
  6
CONTINUOUS
 10
1.4618557741
 20
4.9385386808
 11
1.543814598
 21
5.0220644217
  0
LINE
  5
35E
100
AcDbEntity
  8
RACCORDO
100
AcDbLine
 62
7
  6
CONTINUOUS
 10
-8.1118727392
 20
-4.7384899527
 11
-8.1938319365
 21
-4.8219565464
  0
LINE
  5
35F
100
AcDbEntity
  8
RACCORDO
100
AcDbLine
 62
7
  6
CONTINUOUS
 10
0.4938145984
 20
5.0220644221
 11
0.6259645953
 21
5.1554799383
  0
LINE
  5
360
100
AcDbEntity
  8
RACCORDO
100
AcDbLine
 62
7
  6
CONTINUOUS
 10
1.543814598
 20
5.0220644217
 11
1.6759645956
 21
5.1554799387
  0
LINE
  5
361
100
AcDbEntity
  8
RACCORDO
100
AcDbLine
 62
7
  6
CONTINUOUS
 10
-8.1938319365
 20
-4.8219565464
 11
-8.3363162194
 21
-4.9657298159
  0
LINE
  5
362
100
AcDbEntity
  8
RACCORDO
100
AcDbLine
 62
7
  6
CONTINUOUS
 10
0.6259645953
 20
5.1554799383
 11
0.7978248916
 21
5.3281141889
  0
LINE
  5
363
100
AcDbEntity
  8
RACCORDO
100
AcDbLine
 62
7
  6
CONTINUOUS
 10
1.6759645956
 20
5.1554799387
 11
1.8368949786
 21
5.3171543486
  0
LINE
  5
364
100
AcDbEntity
  8
RACCORDO
100
AcDbLine
 62
7
  6
CONTINUOUS
 10
-8.3363162194
 20
-4.9657298159
 11
-8.5305527615
 21
-5.1607100344
  0
LINE
  5
365
100
AcDbEntity
  8
RACCORDO
100
AcDbLine
 62
7
  6
CONTINUOUS
 10
-8.5305527615
 20
-5.1607100344
 11
-8.5629860884
 21
-5.1931910348
  0
LINE
  5
366
100
AcDbEntity
  8
RACCORDO
100
AcDbLine
 62
7
  6
CONTINUOUS
 10
0.375
 20
4.9
 11
0.3843820104
 21
4.9093820104
  0
LINE
  5
367
100
AcDbEntity
  8
RACCORDO
100
AcDbLine
 62
7
  6
CONTINUOUS
 10
1.425
 20
4.9
 11
1.4343820104
 21
4.9093820104
  0
LINE
  5
368
100
AcDbEntity
  8
RACCORDO
100
AcDbLine
 62
7
  6
CONTINUOUS
 10
-8.075
 20
-4.7
 11
-8.084400562
 21
-4.709400562
  0
LINE
  5
369
100
AcDbEntity
  8
RACCORDO
100
AcDbLine
 62
7
  6
CONTINUOUS
 10
0.7978248916
 20
5.3281141889
 11
0.8843629717
 21
5.4147777497
  0
LINE
  5
36A
100
AcDbEntity
  8
RACCORDO
100
AcDbLine
 62
7
  6
CONTINUOUS
 10
1.8368949786
 20
5.3171543486
 11
1.9343629717
 21
5.4147777497
  0
LINE
  5
36B
100
AcDbEntity
  8
RACCORDO
100
AcDbLine
 62
7
  6
CONTINUOUS
 10
-8.5629860884
 20
-5.1931910348
 11
-8.5843815232
 21
-5.2145961196
  0
LINE
  5
36C
100
AcDbEntity
  8
0
100
AcDbLine
 62
7
  6
CONTINUOUS
 10
-5.225
 20
-3.25
 11
1.375
 21
-3.25
  0
LINE
  5
36D
100
AcDbEntity
  8
0
100
AcDbLine
 62
7
  6
CONTINUOUS
 10
-6.9
 20
-2.8
 11
-5.225
 21
-2.8
  0
LINE
  5
36E
100
AcDbEntity
  8
0
100
AcDbLine
 62
7
  6
CONTINUOUS
 10
1.375
 20
-2.8
 11
3.05
 21
-2.8
  0
LINE
  5
36F
100
AcDbEntity
  8
RACCORDO
100
AcDbLine
 62
7
  6
CONTINUOUS
 10
-8.075
 20
3.3
 11
-8.0845108573
 21
3.3095108573
  0
LINE
  5
370
100
AcDbEntity
  8
RACCORDO
100
AcDbLine
 62
7
  6
CONTINUOUS
 10
-8.1698954383
 20
3.3969016886
 11
-8.5844918188
 21
3.813305124
  0
LINE
  5
371
100
AcDbEntity
  8
RACCORDO
100
AcDbLine
 62
7
  6
CONTINUOUS
 10
-8.1119719241
 20
3.3381313972
 11
-8.1698954383
 21
3.3969016886
  0
LINE
  5
372
100
AcDbEntity
  8
RACCORDO
100
AcDbLine
 62
7
  6
CONTINUOUS
 10
-8.0988226604
 20
3.3246604475
 11
-8.1119719241
 21
3.3381313972
  0
LWPOLYLINE
  5
373
100
AcDbEntity
  8
RACCORDO
100
AcDbPolyline
 62
7
  6
CONTINUOUS
 90
5
 70
0
 10
-5.2845419488
 20
3.3095546442
 10
-5.2850184298
 20
3.3101176298
 10
-5.2860213458
 20
3.3112477824
 10
-5.2875506966
 20
3.3129241106
 10
-5.2896283067
 20
3.315125472
  0
LWPOLYLINE
  5
374
100
AcDbEntity
  8
RACCORDO
100
AcDbPolyline
 62
250
  6
CONTINUOUS
 90
8
 70
0
 10
8.668278585
 20
-22.1818970249
 10
8.6796759236
 20
-22.2023650466
 10
8.6907879665
 20
-22.2232619953
 10
8.7016249112
 20
-22.244587863
 10
8.7115682995
 20
-22.2661924851
 10
8.7201652954
 20
-22.2880766858
 10
8.727868735
 20
-22.3102396408
 10
8.7430617769
 20
-22.3548930247
  0
LINE
  5
375
100
AcDbEntity
  8
ASSI
100
AcDbLine
 62
7
  6
CONTINUOUS
 10
-1.19
 20
4.15
 11
-1.19
 21
0.65
  0
LINE
  5
376
100
AcDbEntity
  8
0
100
AcDbLine
 62
7
  6
CONTINUOUS
 10
-1.105
 20
4.15
 11
-1.105
 21
0.65
  0
LINE
  5
377
100
AcDbEntity
  8
ASSI
100
AcDbLine
 62
7
  6
CONTINUOUS
 10
-0.64
 20
4.15
 11
-0.64
 21
0.65
  0
LINE
  5
378
100
AcDbEntity
  8
ASSI
100
AcDbLine
 62
7
  6
CONTINUOUS
 10
-0.19
 20
4.15
 11
-0.19
 21
0.65
  0
LINE
  5
379
100
AcDbEntity
  8
0
100
AcDbLine
 62
7
  6
CONTINUOUS
 10
-0.085
 20
4.15
 11
-0.085
 21
0.65
  0
LINE
  5
37A
100
AcDbEntity
  8
0
100
AcDbLine
 62
7
  6
CONTINUOUS
 10
0.115
 20
-4.7
 11
0.115
 21
-4.4
  0
LINE
  5
37B
100
AcDbEntity
  8
RACCORDO
100
AcDbLine
 62
7
  6
CONTINUOUS
 10
2.475
 20
22.4
 11
2.4720741618
 21
22.3736436632
  0
LWPOLYLINE
  5
37C
100
AcDbEntity
  8
RACCORDO
100
AcDbPolyline
 62
250
  6
CONTINUOUS
 90
8
 70
0
 10
-12.4747237888
 20
-22.1065514118
 10
-12.4660258702
 20
-22.0908079916
 10
-12.4578324041
 20
-22.0754487762
 10
-12.4500735918
 20
-22.0603326496
 10
-12.4428304407
 20
-22.04513472
 10
-12.4361299533
 20
-22.0297466903
 10
-12.4299451271
 20
-22.0142768576
 10
-12.4242759622
 20
-21.998725222
  0
LINE
  5
37D
100
AcDbEntity
  8
RACCORDO
100
AcDbLine
 62
250
  6
CONTINUOUS
 10
-12.4931331844
 20
-22.1386690617
 11
-12.4747237888
 21
-22.1065514118
  0
LWPOLYLINE
  5
37E
100
AcDbEntity
  8
RACCORDO
100
AcDbPolyline
 62
7
  6
CONTINUOUS
 90
5
 70
0
 10
1.4345419488
 20
3.3095546442
 10
1.4350184298
 20
3.3101176298
 10
1.4360213458
 20
3.3112477824
 10
1.4375506966
 20
3.3129241107
 10
1.4396283067
 20
3.315125472
  0
LINE
  5
37F
100
AcDbEntity
  8
RACCORDO
100
AcDbLine
 62
7
  6
CONTINUOUS
 10
1.4396283067
 20
3.315125472
 11
1.4488226605
 21
3.3246604476
  0
LINE
  5
380
100
AcDbEntity
  8
RACCORDO
100
AcDbLine
 62
7
  6
CONTINUOUS
 10
1.4488226605
 20
3.3246604476
 11
1.5198954384
 21
3.3969016887
  0
LINE
  5
381
100
AcDbEntity
  8
RACCORDO
100
AcDbLine
 62
7
  6
CONTINUOUS
 10
1.5198954384
 20
3.3969016887
 11
1.6864214943
 21
3.5646184547
  0
LINE
  5
382
100
AcDbEntity
  8
RACCORDO
100
AcDbLine
 62
7
  6
CONTINUOUS
 10
1.6864214943
 20
3.5646184547
 11
1.8042290097
 21
3.682842793
  0
LINE
  5
383
100
AcDbEntity
  8
RACCORDO
100
AcDbLine
 62
7
  6
CONTINUOUS
 10
1.425
 20
3.3
 11
1.4345108573
 21
3.3095108573
  0
LINE
  5
384
100
AcDbEntity
  8
RACCORDO
100
AcDbLine
 62
7
  6
CONTINUOUS
 10
1.8042290097
 20
3.682842793
 11
1.9344918188
 21
3.813305124
  0
LWPOLYLINE
  5
385
100
AcDbEntity
  8
0
100
AcDbPolyline
 62
7
  6
CONTINUOUS
 90
2
 70
0
 43
0.3500000087
 10
20.2907087646
 20
-1.3571421616
 10
18.7907072998
 20
-1.3571421616
  0
LINE
  5
386
100
AcDbEntity
  8
RACCORDO
100
AcDbLine
 62
7
  6
CONTINUOUS
 10
-5.275
 20
3.3
 11
-5.2845108573
 21
3.3095108573
  0
LINE
  5
387
100
AcDbEntity
  8
RACCORDO
100
AcDbLine
 62
7
  6
CONTINUOUS
 10
4.225
 20
-4.7
 11
4.234400562
 21
-4.709400562
  0
LINE
  5
388
100
AcDbEntity
  8
RACCORDO
100
AcDbLine
 62
7
  6
CONTINUOUS
 10
-5.275
 20
4.9
 11
-5.2843820104
 21
4.9093820104
  0
LINE
  5
389
100
AcDbEntity
  8
RACCORDO
100
AcDbLine
 62
7
  6
CONTINUOUS
 10
-5.752204595
 20
5.3825904351
 11
-5.7843629717
 21
5.4147777497
  0
LINE
  5
38A
100
AcDbEntity
  8
RACCORDO
100
AcDbLine
 62
7
  6
CONTINUOUS
 10
4.6696726269
 20
-5.1498086427
 11
4.7343815232
 21
-5.2145961196
  0
LINE
  5
38B
100
AcDbEntity
  8
RACCORDO
100
AcDbLine
 62
7
  6
CONTINUOUS
 10
4.6369132576
 20
-5.1169762261
 11
4.6696726269
 21
-5.1498086427
  0
LINE
  5
38C
100
AcDbEntity
  8
RACCORDO
100
AcDbLine
 62
7
  6
CONTINUOUS
 10
4.4759823984
 20
-4.9553262039
 11
4.6369132576
 21
-5.1169762261
  0
LINE
  5
38D
100
AcDbEntity
  8
RACCORDO
100
AcDbLine
 62
7
  6
CONTINUOUS
 10
-5.3479698659
 20
3.3747134229
 11
-5.7844918188
 21
3.813305124
  0
LINE
  5
38E
100
AcDbEntity
  8
RACCORDO
100
AcDbLine
 62
7
  6
CONTINUOUS
 10
4.3197943361
 20
-4.7975836179
 11
4.4759823984
 21
-4.9553262039
  0
LINE
  5
38F
100
AcDbEntity
  8
RACCORDO
100
AcDbLine
 62
7
  6
CONTINUOUS
 10
-5.3697770968
 20
4.9976785044
 11
-5.752204595
 21
5.3825904351
  0
LINE
  5
390
100
AcDbEntity
  8
RACCORDO
100
AcDbLine
 62
7
  6
CONTINUOUS
 10
-5.3119719241
 20
3.3381313972
 11
-5.3479698659
 21
3.3747134229
  0
LINE
  5
391
100
AcDbEntity
  8
RACCORDO
100
AcDbLine
 62
7
  6
CONTINUOUS
 10
4.2725658128
 20
-4.749457689
 11
4.3197943361
 21
-4.7975836179
  0
LINE
  5
392
100
AcDbEntity
  8
RACCORDO
100
AcDbLine
 62
7
  6
CONTINUOUS
 10
-5.3225487921
 20
4.9495176196
 11
-5.3697770968
 21
4.9976785044
  0
LINE
  5
393
100
AcDbEntity
  8
RACCORDO
100
AcDbLine
 62
7
  6
CONTINUOUS
 10
-5.2988226604
 20
3.3246604475
 11
-5.3119719241
 21
3.3381313972
  0
LWPOLYLINE
  5
394
100
AcDbEntity
  8
RACCORDO
100
AcDbPolyline
 62
7
  6
CONTINUOUS
 90
3
 70
0
 10
4.2487239834
 20
-4.7248943358
 10
4.2570936715
 20
-4.73355714
 10
4.2725658128
 20
-4.749457689
  0
LWPOLYLINE
  5
395
100
AcDbEntity
  8
RACCORDO
100
AcDbPolyline
 62
7
  6
CONTINUOUS
 90
3
 70
0
 10
-5.298707091
 20
4.9249252631
 10
-5.3070767322
 20
4.9336000657
 10
-5.3225487921
 20
4.9495176196
  0
LINE
  5
396
100
AcDbEntity
  8
RACCORDO
100
AcDbLine
 62
7
  6
CONTINUOUS
 10
-5.2896283067
 20
3.315125472
 11
-5.2988226604
 21
3.3246604475
  0
LWPOLYLINE
  5
397
100
AcDbEntity
  8
RACCORDO
100
AcDbPolyline
 62
7
  6
CONTINUOUS
 90
7
 70
0
 10
-5.284427075
 20
4.9094537468
 10
-5.2849035278
 20
4.9100714306
 10
-5.2859063913
 20
4.9112555507
 10
-5.2874356655
 20
4.9129850601
 10
-5.2895131726
 20
4.9152387675
 10
-5.2921170904
 20
4.9179950217
 10
-5.298707091
 20
4.9249252631
  0
LWPOLYLINE
  5
398
100
AcDbEntity
  8
RACCORDO
100
AcDbPolyline
 62
7
  6
CONTINUOUS
 90
7
 70
0
 10
-4.234427075
 20
4.9094537468
 10
-4.2349035278
 20
4.9100714306
 10
-4.2359063913
 20
4.9112555507
 10
-4.2374356654
 20
4.91298506
 10
-4.2395131725
 20
4.9152387674
 10
-4.2421170903
 20
4.9179950216
 10
-4.2487070908
 20
4.9249252629
  0
LWPOLYLINE
  5
399
100
AcDbEntity
  8
RACCORDO
100
AcDbPolyline
 62
7
  6
CONTINUOUS
 90
6
 70
0
 10
-4.2343115705
 20
6.1093520903
 10
-4.2347880012
 20
6.1100107924
 10
-4.2357908244
 20
6.1112353792
 10
-4.2373200402
 20
6.1130047618
 10
-4.2393974693
 20
6.1152977127
 10
-4.245066043
 20
6.121366854
  0
LINE
  5
39A
100
AcDbEntity
  8
RACCORDO
100
AcDbLine
 62
7
  6
CONTINUOUS
 10
-4.2344270721
 20
4.9094537412
 11
-4.2343820104
 21
4.9093820104
  0
LWPOLYLINE
  5
39B
100
AcDbEntity
  8
RACCORDO
100
AcDbPolyline
 62
250
  6
CONTINUOUS
 90
13
 70
0
 10
-12.5119783629
 20
22.1710892345
 10
-12.5213127185
 20
22.187435357
 10
-12.5302511762
 20
22.203479312
 10
-12.5388470747
 20
22.2192744691
 10
-12.5467428886
 20
22.2345375598
 10
-12.5537660281
 20
22.2491111648
 10
-12.5600890829
 20
22.2631527033
 10
-12.5658722967
 20
22.2768511645
 10
-12.571031327
 20
22.2901188446
 10
-12.5756505163
 20
22.3030434474
 10
-12.5801431366
 20
22.3160770733
 10
-12.5845497388
 20
22.3292768121
 10
-12.5932748551
 20
22.3562841907
  0
LINE
  5
39C
100
AcDbEntity
  8
RACCORDO
100
AcDbLine
 62
7
  6
CONTINUOUS
 10
2.475
 20
-22.4
 11
2.4720741618
 21
-22.3736436632
  0
LINE
  5
39D
100
AcDbEntity
  8
ASSI
100
AcDbLine
 62
7
  6
CONTINUOUS
 10
0.36
 20
4.15
 11
0.36
 21
0.65
  0
LINE
  5
39E
100
AcDbEntity
  8
DRAFT
100
AcDbLine
 62
7
  6
CONTINUOUS
 10
0.375
 20
6.1
 11
0.375
 21
4.9
  0
LINE
  5
39F
100
AcDbEntity
  8
RACCORDO
100
AcDbLine
 62
250
  6
CONTINUOUS
 10
0.3843115682
 20
6.1093520852
 11
0.3844270736
 21
4.9094537442
  0
LINE
  5
3A0
100
AcDbEntity
  8
ASSI
100
AcDbLine
 62
7
  6
CONTINUOUS
 10
0.81
 20
4.15
 11
0.81
 21
0.65
  0
LINE
  5
3A1
100
AcDbEntity
  8
RACCORDO
100
AcDbLine
 62
250
  6
CONTINUOUS
 10
0.8842369828
 20
6.6158528412
 11
0.8843629706
 21
5.4147777497
  0
LINE
  5
3A2
100
AcDbEntity
  8
0
100
AcDbLine
 62
7
  6
CONTINUOUS
 10
0.935
 20
4.15
 11
0.935
 21
0.65
  0
LINE
  5
3A3
100
AcDbEntity
  8
0
100
AcDbLine
 62
7
  6
CONTINUOUS
 10
1.375
 20
-4.4
 11
1.375
 21
-2.8
  0
LINE
  5
3A4
100
AcDbEntity
  8
DRAFT
100
AcDbLine
 62
7
  6
CONTINUOUS
 10
1.425
 20
4.9
 11
1.425
 21
3.3
  0
LINE
  5
3A5
100
AcDbEntity
  8
RACCORDO
100
AcDbLine
 62
250
  6
CONTINUOUS
 10
1.4344270727
 20
4.9094537424
 11
1.4345419487
 21
3.3095546441
  0
LINE
  5
3A6
100
AcDbEntity
  8
0
100
AcDbLine
 62
7
  6
CONTINUOUS
 10
1.455
 20
3.3
 11
1.455
 21
0.65
  0
LINE
  5
3A7
100
AcDbEntity
  8
RACCORDO
100
AcDbLine
 62
250
  6
CONTINUOUS
 10
1.9343629661
 20
5.4147777497
 11
1.9344918192
 21
3.813305124
  0
LINE
  5
3A8
100
AcDbEntity
  8
0
100
AcDbLine
 62
7
  6
CONTINUOUS
 10
1.955
 20
3.3
 11
1.955
 21
0.65
  0
LINE
  5
3A9
100
AcDbEntity
  8
RACCORDO
100
AcDbLine
 62
250
  6
CONTINUOUS
 10
1.9720826234
 20
-23.5953423515
 11
1.9720826234
 21
-22.3475922207
  0
LINE
  5
3AA
100
AcDbEntity
  8
RACCORDO
100
AcDbLine
 62
250
  6
CONTINUOUS
 10
1.9720826234
 20
22.3475922207
 11
1.9720826234
 21
23.5953423515
  0
LWPOLYLINE
  5
3AB
100
AcDbEntity
  8
RACCORDO
100
AcDbPolyline
 62
250
  6
CONTINUOUS
 90
16
 70
0
 10
8.7578874748
 20
22.4
 10
8.7496395897
 20
22.3737816516
 10
8.7409593411
 20
22.347724963
 10
8.7318467289
 20
22.3218299342
 10
8.7226073167
 20
22.2961873244
 10
8.7129355409
 20
22.2707063744
 10
8.7019147112
 20
22.2451148062
 10
8.6889457113
 20
22.2194127126
 10
8.6746276575
 20
22.1936000008
 10
8.6598412076
 20
22.1674041138
 10
8.6444584246
 20
22.1408251666
 10
8.6286072455
 20
22.1138630441
 10
8.613552139
 20
22.0862448439
 10
8.5997145944
 20
22.0578795984
 10
8.5866731224
 20
22.0288582751
 10
8.5744277228
 20
21.9991808741
  0
LWPOLYLINE
  5
3AC
100
AcDbEntity
  8
RACCORDO
100
AcDbPolyline
 62
250
  6
CONTINUOUS
 90
5
 70
0
 10
9.1730713879
 20
21.8455642319
 10
9.1646011441
 20
21.8189258015
 10
9.1560944968
 20
21.7908683775
 10
9.1475517102
 20
21.7607952918
 10
9.1302660476
 20
21.6970940403
  0
LINE
  5
3AD
100
AcDbEntity
  8
RACCORDO
100
AcDbLine
 62
250
  6
CONTINUOUS
 10
8.5744277228
 20
21.9991808741
 11
8.5742759622
 21
21.998725222
  0
LINE
  5
3AE
100
AcDbEntity
  8
RACCORDO
100
AcDbLine
 62
250
  6
CONTINUOUS
 10
9.0743515704
 20
21.4998661067
 11
9.0741998097
 21
21.4994104546
  0
LWPOLYLINE
  5
3AF
100
AcDbEntity
  8
RACCORDO
100
AcDbPolyline
 62
250
  6
CONTINUOUS
 90
4
 70
0
 10
9.2075792813
 20
21.9498971557
 10
9.1988642761
 20
21.9242195846
 10
9.1902029539
 20
21.8982111234
 10
9.1730713879
 20
21.8455642319
  0
LWPOLYLINE
  5
3B0
100
AcDbEntity
  8
RACCORDO
100
AcDbPolyline
 62
7
  6
CONTINUOUS
 90
5
 70
0
 10
4.2345419488
 20
3.3095546442
 10
4.2350184298
 20
3.3101176298
 10
4.2360213458
 20
3.3112477824
 10
4.2375506966
 20
3.3129241106
 10
4.2396283067
 20
3.315125472
  0
LINE
  5
3B1
100
AcDbEntity
  8
RACCORDO
100
AcDbLine
 62
7
  6
CONTINUOUS
 10
4.2396283067
 20
3.315125472
 11
4.2488226604
 21
3.3246604475
  0
LINE
  5
3B2
100
AcDbEntity
  8
RACCORDO
100
AcDbLine
 62
7
  6
CONTINUOUS
 10
4.2488226604
 20
3.3246604475
 11
4.3198954383
 21
3.3969016886
  0
LINE
  5
3B3
100
AcDbEntity
  8
RACCORDO
100
AcDbLine
 62
7
  6
CONTINUOUS
 10
4.3198954383
 20
3.3969016886
 11
4.4864214944
 21
3.5646184549
  0
LINE
  5
3B4
100
AcDbEntity
  8
RACCORDO
100
AcDbLine
 62
7
  6
CONTINUOUS
 10
4.4864214944
 20
3.5646184549
 11
4.6042290099
 21
3.6828427933
  0
LINE
  5
3B5
100
AcDbEntity
  8
RACCORDO
100
AcDbLine
 62
7
  6
CONTINUOUS
 10
4.6042290099
 20
3.6828427933
 11
4.6697816112
 21
3.748528246
  0
LINE
  5
3B6
100
AcDbEntity
  8
RACCORDO
100
AcDbLine
 62
7
  6
CONTINUOUS
 10
4.225
 20
3.3
 11
4.2345108573
 21
3.3095108573
  0
LINE
  5
3B7
100
AcDbEntity
  8
RACCORDO
100
AcDbLine
 62
7
  6
CONTINUOUS
 10
4.6697816112
 20
3.748528246
 11
4.7344918188
 21
3.813305124
  0
LINE
  5
3B8
100
AcDbEntity
  8
0
100
AcDbLine
 62
7
  6
CONTINUOUS
 10
-7.625
 20
0.55
 11
-6.9
 21
0.55
  0
LINE
  5
3B9
100
AcDbEntity
  8
0
100
AcDbLine
 62
7
  6
CONTINUOUS
 10
3.05
 20
0.55
 11
3.775
 21
0.55
  0
LINE
  5
3BA
100
AcDbEntity
  8
0
100
AcDbLine
 62
7
  6
CONTINUOUS
 10
-6.705
 20
0.65
 11
-6.205
 21
0.65
  0
LINE
  5
3BB
100
AcDbEntity
  8
0
100
AcDbLine
 62
7
  6
CONTINUOUS
 10
-5.685
 20
0.65
 11
-5.185
 21
0.65
  0
LINE
  5
3BC
100
AcDbEntity
  8
ASSI
100
AcDbLine
 62
7
  6
CONTINUOUS
 10
-4.64
 20
0.65
 11
-4.19
 21
0.65
  0
LINE
  5
3BD
100
AcDbEntity
  8
0
100
AcDbLine
 62
7
  6
CONTINUOUS
 10
-4.665
 20
0.65
 11
-4.165
 21
0.65
  0
LINE
  5
3BE
100
AcDbEntity
  8
ASSI
100
AcDbLine
 62
7
  6
CONTINUOUS
 10
-3.64
 20
0.65
 11
-3.19
 21
0.65
  0
LINE
  5
3BF
100
AcDbEntity
  8
0
100
AcDbLine
 62
7
  6
CONTINUOUS
 10
-3.645
 20
0.65
 11
-3.145
 21
0.65
  0
LINE
  5
3C0
100
AcDbEntity
  8
ASSI
100
AcDbLine
 62
7
  6
CONTINUOUS
 10
-2.64
 20
0.65
 11
-2.19
 21
0.65
  0
LINE
  5
3C1
100
AcDbEntity
  8
0
100
AcDbLine
 62
7
  6
CONTINUOUS
 10
-2.625
 20
0.65
 11
-2.125
 21
0.65
  0
LINE
  5
3C2
100
AcDbEntity
  8
0
100
AcDbLine
 62
7
  6
CONTINUOUS
 10
-1.605
 20
0.65
 11
-1.105
 21
0.65
  0
LINE
  5
3C3
100
AcDbEntity
  8
ASSI
100
AcDbLine
 62
7
  6
CONTINUOUS
 10
-1.64
 20
0.65
 11
-1.19
 21
0.65
  0
LINE
  5
3C4
100
AcDbEntity
  8
ASSI
100
AcDbLine
 62
7
  6
CONTINUOUS
 10
-0.64
 20
0.65
 11
-0.19
 21
0.65
  0
LINE
  5
3C5
100
AcDbEntity
  8
0
100
AcDbLine
 62
7
  6
CONTINUOUS
 10
-0.585
 20
0.65
 11
-0.085
 21
0.65
  0
LINE
  5
3C6
100
AcDbEntity
  8
ASSI
100
AcDbLine
 62
7
  6
CONTINUOUS
 10
0.36
 20
0.65
 11
0.81
 21
0.65
  0
LINE
  5
3C7
100
AcDbEntity
  8
0
100
AcDbLine
 62
7
  6
CONTINUOUS
 10
0.435
 20
0.65
 11
0.935
 21
0.65
  0
LINE
  5
3C8
100
AcDbEntity
  8
0
100
AcDbLine
 62
7
  6
CONTINUOUS
 10
1.455
 20
0.65
 11
1.955
 21
0.65
  0
LINE
  5
3C9
100
AcDbEntity
  8
0
100
AcDbLine
 62
7
  6
CONTINUOUS
 10
2.475
 20
0.65
 11
2.975
 21
0.65
  0
LINE
  5
3CA
100
AcDbEntity
  8
RACCORDO
100
AcDbLine
 62
7
  6
CONTINUOUS
 10
-4.225
 20
4.9
 11
-4.2343820104
 21
4.9093820104
  0
LINE
  5
3CB
100
AcDbEntity
  8
RACCORDO
100
AcDbLine
 62
7
  6
CONTINUOUS
 10
-4.225
 20
6.1
 11
-4.2342560268
 21
6.1092560268
  0
LINE
  5
3CC
100
AcDbEntity
  8
RACCORDO
100
AcDbLine
 62
7
  6
CONTINUOUS
 10
-4.7022045953
 20
5.3825904355
 11
-4.7343629717
 21
5.4147777497
  0
LINE
  5
3CD
100
AcDbEntity
  8
RACCORDO
100
AcDbLine
 62
7
  6
CONTINUOUS
 10
-4.3197770963
 20
4.9976785039
 11
-4.7022045953
 21
5.3825904355
  0
LINE
  5
3CE
100
AcDbEntity
  8
RACCORDO
100
AcDbLine
 62
7
  6
CONTINUOUS
 10
-4.2909633444
 20
6.1689070171
 11
-4.734236988
 21
6.6158528412
  0
LINE
  5
3CF
100
AcDbEntity
  8
RACCORDO
100
AcDbLine
 62
7
  6
CONTINUOUS
 10
-4.2725487917
 20
4.9495176192
 11
-4.3197770963
 21
4.9976785039
  0
LWPOLYLINE
  5
3D0
100
AcDbEntity
  8
RACCORDO
100
AcDbPolyline
 62
7
  6
CONTINUOUS
 90
3
 70
0
 10
-4.2487070908
 20
4.9249252629
 10
-4.2570767319
 20
4.9336000654
 10
-4.2725487917
 20
4.9495176192
  0
LINE
  5
3D1
100
AcDbEntity
  8
RACCORDO
100
AcDbLine
 62
7
  6
CONTINUOUS
 10
-4.2569604179
 20
6.1338445443
 11
-4.2909633444
 21
6.1689070171
  0
LWPOLYLINE
  5
3D2
100
AcDbEntity
  8
RACCORDO
100
AcDbPolyline
 62
7
  6
CONTINUOUS
 90
3
 70
0
 10
-4.245066043
 20
6.121366854
 10
-4.248591059
 20
6.1250977813
 10
-4.2569604179
 20
6.1338445443
  0
LWPOLYLINE
  5
3D3
100
AcDbEntity
  8
RACCORDO
100
AcDbPolyline
 62
7
  6
CONTINUOUS
 90
7
 70
0
 10
4.2344438799
 20
-4.7094685243
 10
4.2349203364
 20
-4.7100793712
 10
4.2359232065
 20
-4.7112567462
 10
4.2374524903
 20
-4.712979609
 10
4.2395300104
 20
-4.7152267745
 10
4.2421339442
 20
-4.7179765977
 10
4.2487239834
 20
-4.7248943358
  0
LINE
  5
3D4
100
AcDbEntity
  8
RACCORDO
100
AcDbLine
 62
250
  6
CONTINUOUS
 10
-12.4927995163
 20
22.1380939735
 11
-12.5119783629
 21
22.1710892345
  0
LWPOLYLINE
  5
3D5
100
AcDbEntity
  8
RACCORDO
100
AcDbPolyline
 62
250
  6
CONTINUOUS
 90
11
 70
0
 10
8.5744277228
 20
-21.9991808741
 10
8.5788064342
 20
-22.0117243523
 10
8.5840921452
 20
-22.0251478635
 10
8.5902848558
 20
-22.0394514077
 10
8.5974282864
 20
-22.0546851881
 10
8.6054787166
 20
-22.0707990014
 10
8.6143049856
 20
-22.0876422381
 10
8.6239973351
 20
-22.1052148163
 10
8.6344655234
 20
-22.1235168178
 10
8.6453076649
 20
-22.142397878
 10
8.668278585
 20
-22.1818970249
  0
LINE
  5
3D6
100
AcDbEntity
  8
RACCORDO
100
AcDbLine
 62
250
  6
CONTINUOUS
 10
8.5742759622
 20
-21.998725222
 11
8.5744277228
 21
-21.9991808741
  0
LWPOLYLINE
  5
3D7
100
AcDbEntity
  8
RACCORDO
100
AcDbPolyline
 62
250
  6
CONTINUOUS
 90
3
 70
0
 10
8.7430617769
 20
-22.3548930247
 10
8.7505513793
 20
-22.3773834536
 10
8.7578874748
 20
-22.4
  0
LINE
  5
3D8
100
AcDbEntity
  8
RACCORDO
100
AcDbLine
 62
250
  6
CONTINUOUS
 10
9.1925805606
 20
-21.9050695018
 11
9.2075791601
 21
-21.9498972163
  0
LINE
  5
3D9
100
AcDbEntity
  8
RACCORDO
100
AcDbLine
 62
250
  6
CONTINUOUS
 10
9.0741998097
 20
-21.4994104546
 11
9.0743515704
 21
-21.4998661067
  0
LWPOLYLINE
  5
3DA
100
AcDbEntity
  8
RACCORDO
100
AcDbPolyline
 62
250
  6
CONTINUOUS
 90
7
 70
0
 10
9.0743515704
 20
-21.4998661067
 10
9.0785225986
 20
-21.5125898514
 10
9.082985549
 20
-21.5268028535
 10
9.0877404216
 20
-21.5425051129
 10
9.092803845
 20
-21.5597732587
 10
9.0981591906
 20
-21.5785306618
 10
9.1037565723
 20
-21.5985474353
  0
LINE
  5
3DB
100
AcDbEntity
  8
RACCORDO
100
AcDbLine
 62
250
  6
CONTINUOUS
 10
2.4720741618
 20
-23.7970741618
 11
2.4720741618
 21
-22.3736436632
  0
LINE
  5
3DC
100
AcDbEntity
  8
RACCORDO
100
AcDbLine
 62
250
  6
CONTINUOUS
 10
2.4720741618
 20
22.3736436632
 11
2.4720741618
 21
23.7970741618
  0
LINE
  5
3DD
100
AcDbEntity
  8
DRAFT
100
AcDbLine
 62
7
  6
CONTINUOUS
 10
2.475
 20
23.8
 11
2.475
 21
22.4
  0
LINE
  5
3DE
100
AcDbEntity
  8
0
100
AcDbLine
 62
7
  6
CONTINUOUS
 10
2.475
 20
3.3
 11
2.475
 21
0.65
  0
LINE
  5
3DF
100
AcDbEntity
  8
DRAFT
100
AcDbLine
 62
7
  6
CONTINUOUS
 10
2.475
 20
-22.4
 11
2.475
 21
-23.8
  0
LINE
  5
3E0
100
AcDbEntity
  8
0
100
AcDbLine
 62
7
  6
CONTINUOUS
 10
2.975
 20
3.3
 11
2.975
 21
0.65
  0
LINE
  5
3E1
100
AcDbEntity
  8
0
100
AcDbLine
 62
7
  6
CONTINUOUS
 10
3.05
 20
-2.8
 11
3.05
 21
0.55
  0
LINE
  5
3E2
100
AcDbEntity
  8
0
100
AcDbLine
 62
7
  6
CONTINUOUS
 10
3.05
 20
2.25
 11
3.05
 21
3.3
  0
LINE
  5
3E3
100
AcDbEntity
  8
0
100
AcDbLine
 62
7
  6
CONTINUOUS
 10
3.775
 20
0.55
 11
3.775
 21
2.25
  0
LINE
  5
3E4
100
AcDbEntity
  8
RACCORDO
100
AcDbLine
 62
250
  6
CONTINUOUS
 10
9.1302660476
 20
21.6970940403
 11
9.1124714801
 21
21.6302751482
  0
LWPOLYLINE
  5
3E5
100
AcDbEntity
  8
RACCORDO
100
AcDbPolyline
 62
250
  6
CONTINUOUS
 90
5
 70
0
 10
9.1124714801
 20
21.6302751482
 10
9.1032920559
 20
21.5968658681
 10
9.0938637267
 20
21.564173902
 10
9.0842168982
 20
21.5318406482
 10
9.0743515704
 20
21.4998661067
  0
LWPOLYLINE
  5
3E6
100
AcDbEntity
  8
RACCORDO
100
AcDbPolyline
 62
250
  6
CONTINUOUS
 90
16
 70
0
 10
9.0741998097
 20
21.4994104546
 10
9.0740171904
 20
21.4988071334
 10
9.0738347314
 20
21.4980944235
 10
9.0736524329
 20
21.4972723249
 10
9.0734702749
 20
21.4963407233
 10
9.0732882773
 20
21.4952997331
 10
9.0731065001
 20
21.4941496965
 10
9.0729249432
 20
21.4928905774
 10
9.0727436067
 20
21.4915224119
 10
9.0725625502
 20
21.4900456515
 10
9.0723817739
 20
21.4884602607
 10
9.0722012777
 20
21.486766275
 10
9.072021121
 20
21.4849642525
 10
9.071841304
 20
21.4830541574
 10
9.0716618264
 20
21.4810360255
 10
9.0713040675
 20
21.4766776136
  0
LINE
  5
3E7
100
AcDbEntity
  8
0
100
AcDbLine
 62
7
  6
CONTINUOUS
 10
3.775
 20
2.25
 11
3.05
 21
2.25
  0
LINE
  5
3E8
100
AcDbEntity
  8
0
100
AcDbLine
 62
7
  6
CONTINUOUS
 10
-6.9
 20
2.25
 11
-7.625
 21
2.25
  0
LINE
  5
3E9
100
AcDbEntity
  8
DRAFT
100
AcDbLine
 62
7
  6
CONTINUOUS
 10
-8.075
 20
3.3
 11
-5.275
 21
3.3
  0
LINE
  5
3EA
100
AcDbEntity
  8
DRAFT
100
AcDbLine
 62
7
  6
CONTINUOUS
 10
1.425
 20
3.3
 11
4.225
 21
3.3
  0
LINE
  5
3EB
100
AcDbEntity
  8
RACCORDO
100
AcDbLine
 62
250
  6
CONTINUOUS
 10
-8.0845108573
 20
3.3095108573
 11
-5.2845108573
 21
3.3095108573
  0
LINE
  5
3EC
100
AcDbEntity
  8
RACCORDO
100
AcDbLine
 62
250
  6
CONTINUOUS
 10
1.4345108573
 20
3.3095108573
 11
4.2345108573
 21
3.3095108573
  0
LINE
  5
3ED
100
AcDbEntity
  8
ASSI
100
AcDbLine
 62
250
  6
CONTINUOUS
 10
-4.64
 20
3.7269999865
 11
-4.19
 21
3.7269999865
  0
LINE
  5
3EE
100
AcDbEntity
  8
ASSI
100
AcDbLine
 62
250
  6
CONTINUOUS
 10
-3.64
 20
3.7269999865
 11
-3.19
 21
3.7269999865
  0
LINE
  5
3EF
100
AcDbEntity
  8
ASSI
100
AcDbLine
 62
250
  6
CONTINUOUS
 10
-2.64
 20
3.7269999865
 11
-2.19
 21
3.7269999865
  0
LINE
  5
3F0
100
AcDbEntity
  8
ASSI
100
AcDbLine
 62
250
  6
CONTINUOUS
 10
-1.64
 20
3.7269999865
 11
-1.19
 21
3.7269999865
  0
LINE
  5
3F1
100
AcDbEntity
  8
ASSI
100
AcDbLine
 62
250
  6
CONTINUOUS
 10
-0.64
 20
3.7269999865
 11
-0.19
 21
3.7269999865
  0
LINE
  5
3F2
100
AcDbEntity
  8
ASSI
100
AcDbLine
 62
250
  6
CONTINUOUS
 10
0.36
 20
3.7269999865
 11
0.81
 21
3.7269999865
  0
LINE
  5
3F3
100
AcDbEntity
  8
RACCORDO
100
AcDbLine
 62
250
  6
CONTINUOUS
 10
-8.5844918174
 20
3.813305124
 11
-5.7844918187
 21
3.813305124
  0
LINE
  5
3F4
100
AcDbEntity
  8
RACCORDO
100
AcDbLine
 62
250
  6
CONTINUOUS
 10
1.9344918192
 20
3.813305124
 11
4.7344918174
 21
3.813305124
  0
LINE
  5
3F5
100
AcDbEntity
  8
RACCORDO
100
AcDbLine
 62
250
  6
CONTINUOUS
 10
9.1037565723
 20
-21.5985474353
 11
9.1156772815
 21
-21.6425383855
  0
LWPOLYLINE
  5
3F6
100
AcDbEntity
  8
RACCORDO
100
AcDbPolyline
 62
250
  6
CONTINUOUS
 90
8
 70
0
 10
9.1156772815
 20
-21.6425383855
 10
9.1350756178
 20
-21.7151403235
 10
9.1418770761
 20
-21.7401456581
 10
9.1488215169
 20
-21.7651609042
 10
9.1559089341
 20
-21.790193096
 10
9.1630898923
 20
-21.8145197364
 10
9.170365023
 20
-21.837689652
 10
9.1925805606
 20
-21.9050695018
  0
LWPOLYLINE
  5
3F7
100
AcDbEntity
  8
RACCORDO
100
AcDbPolyline
 62
250
  6
CONTINUOUS
 90
31
 70
0
 10
6.3380985787
 20
-24.2369056521
 10
6.3384417677
 20
-24.2499920062
 10
6.3394695107
 20
-24.2630425045
 10
6.3411789939
 20
-24.2760213619
 10
6.3435655366
 20
-24.2888930016
 10
6.3466225977
 20
-24.3016221155
 10
6.3503417872
 20
-24.314173763
 10
6.3547129023
 20
-24.3265135191
 10
6.3597239578
 20
-24.3386075563
 10
6.3653612061
 20
-24.3504227019
 10
6.3716091852
 20
-24.3619265577
 10
6.378450761
 20
-24.3730875837
 10
6.3858671679
 20
-24.383875174
 10
6.3938380761
 20
-24.3942597633
 10
6.4023416176
 20
-24.4042128667
 10
6.4113544367
 20
-24.4137071599
 10
6.4208517711
 20
-24.4227165817
 10
6.4308076083
 20
-24.4312164786
 10
6.4411947342
 20
-24.4391836209
 10
6.4519848134
 20
-24.4465962509
 10
6.4631481318
 20
-24.4534339327
 10
6.4746537322
 20
-24.4596777344
 10
6.4864698104
 20
-24.465310483
 10
6.4985641666
 20
-24.4703169129
 10
6.5109039705
 20
-24.474683464
 10
6.5234581551
 20
-24.4783989037
 10
6.5361896202
 20
-24.4814520171
 10
6.549055339
 20
-24.4838331472
 10
6.5620171136
 20
-24.4855367515
 10
6.575042008
 20
-24.4865600141
 10
6.5880943479
 20
-24.4869014213
  0
LWPOLYLINE
  5
3F8
100
AcDbEntity
  8
RACCORDO
100
AcDbPolyline
 62
7
  6
CONTINUOUS
 90
34
 70
0
 10
6.325
 20
-24.2500042308
 10
6.3252831502
 20
-24.261899516
 10
6.3261319658
 20
-24.2737678556
 10
6.3275445259
 20
-24.2855823661
 10
6.3295176323
 20
-24.2973162875
 10
6.3320468183
 20
-24.3089430388
 10
6.3351263583
 20
-24.320436279
 10
6.3387492787
 20
-24.3317699738
 10
6.3429073742
 20
-24.3429184493
 10
6.3475912278
 20
-24.3538564463
 10
6.3527902312
 20
-24.3645591876
 10
6.3584926084
 20
-24.3750024283
 10
6.3646854419
 20
-24.3851625059
 10
6.3713547045
 20
-24.3950164051
 10
6.3784852893
 20
-24.4045418038
 10
6.3860610411
 20
-24.4137171191
 10
6.3940647995
 20
-24.4225215661
 10
6.4024784339
 20
-24.4309352005
 10
6.4112828809
 20
-24.4389389589
 10
6.4204581962
 20
-24.4465147107
 10
6.4299835949
 20
-24.4536452955
 10
6.4398374941
 20
-24.4603145581
 10
6.4499975717
 20
-24.4665073916
 10
6.4604408124
 20
-24.4722097688
 10
6.4711435537
 20
-24.4774087722
 10
6.4820815507
 20
-24.4820926258
 10
6.4932300262
 20
-24.4862507213
 10
6.504563721
 20
-24.4898736417
 10
6.5160569612
 20
-24.4929531817
 10
6.5276837125
 20
-24.4954823677
 10
6.5394176339
 20
-24.4974554741
 10
6.5512321444
 20
-24.4988680342
 10
6.563100484
 20
-24.4997168498
 10
6.5749957692
 20
-24.5
  0
LINE
  5
3F9
100
AcDbEntity
  8
DRAFT
100
AcDbLine
 62
7
  6
CONTINUOUS
 10
4.225
 20
3.3
 11
4.225
 21
-4.7
  0
LINE
  5
3FA
100
AcDbEntity
  8
RACCORDO
100
AcDbLine
 62
250
  6
CONTINUOUS
 10
4.2345419476
 20
3.3095546423
 11
4.2344438788
 21
-4.709468522
  0
LINE
  5
3FB
100
AcDbEntity
  8
RACCORDO
100
AcDbLine
 62
250
  6
CONTINUOUS
 10
4.7344918174
 20
3.813305124
 11
4.7343815224
 21
-5.2145961196
  0
LWPOLYLINE
  5
3FC
100
AcDbEntity
  8
RACCORDO
100
AcDbPolyline
 62
250
  6
CONTINUOUS
 90
13
 70
0
 10
8.5742759622
 20
21.998725222
 10
8.5740933428
 20
21.9978204706
 10
8.5739108842
 20
21.9967513716
 10
8.5737285862
 20
21.9955180425
 10
8.573546429
 20
21.9941206186
 10
8.5733644326
 20
21.9925592535
 10
8.5731826562
 20
21.9908341186
 10
8.5730010996
 20
21.9889454033
 10
8.5728197632
 20
21.9868933151
 10
8.5726387069
 20
21.9846780795
 10
8.572457931
 20
21.9822999397
 10
8.5722774352
 20
21.979759157
 10
8.5719174622
 20
21.9741907979
  0
LINE
  5
3FD
100
AcDbEntity
  8
0
100
AcDbLine
 62
7
  6
CONTINUOUS
 10
1.425
 20
4.15
 11
-5.275
 21
4.15
  0
LINE
  5
3FE
100
AcDbEntity
  8
DRAFT
100
AcDbLine
 62
7
  6
CONTINUOUS
 10
-5.275
 20
4.9
 11
-4.225
 21
4.9
  0
LINE
  5
3FF
100
AcDbEntity
  8
DRAFT
100
AcDbLine
 62
7
  6
CONTINUOUS
 10
0.375
 20
4.9
 11
1.425
 21
4.9
  0
LINE
  5
400
100
AcDbEntity
  8
RACCORDO
100
AcDbLine
 62
250
  6
CONTINUOUS
 10
-5.2843820104
 20
4.9093820104
 11
-4.2343820104
 21
4.9093820104
  0
LINE
  5
401
100
AcDbEntity
  8
RACCORDO
100
AcDbLine
 62
250
  6
CONTINUOUS
 10
0.3843820104
 20
4.9093820104
 11
1.4343820104
 21
4.9093820104
  0
LINE
  5
402
100
AcDbEntity
  8
RACCORDO
100
AcDbLine
 62
250
  6
CONTINUOUS
 10
-5.7843629706
 20
5.4147777497
 11
-4.7343629714
 21
5.4147777497
  0
LINE
  5
403
100
AcDbEntity
  8
RACCORDO
100
AcDbLine
 62
250
  6
CONTINUOUS
 10
0.8843629706
 20
5.4147777497
 11
1.9343629661
 21
5.4147777497
  0
LWPOLYLINE
  5
404
100
AcDbEntity
  8
RACCORDO
100
AcDbPolyline
 62
250
  6
CONTINUOUS
 90
15
 70
0
 10
9.0716073223
 20
-21.4804009664
 10
9.0717905905
 20
-21.4824952446
 10
9.0719742185
 20
-21.4844767943
 10
9.0721582064
 20
-21.4863455771
 10
9.0723425541
 20
-21.4881016316
 10
9.0725271982
 20
-21.4897443526
 10
9.0727121388
 20
-21.4912737004
 10
9.0728973759
 20
-21.4926897148
 10
9.0730828456
 20
-21.4939919103
 10
9.0732685496
 20
-21.4951802532
 10
9.0734544863
 20
-21.4962547773
 10
9.0736405875
 20
-21.4972150979
 10
9.0738268304
 20
-21.4980610869
 10
9.0740132378
 20
-21.4987928725
 10
9.0741998097
 20
-21.4994104546
  0
LINE
  5
405
100
AcDbEntity
  8
RACCORDO
100
AcDbLine
 62
250
  6
CONTINUOUS
 10
9.0712420547
 20
-21.4758763477
 11
9.0716073223
 21
-21.4804009664
  0
LWPOLYLINE
  5
406
100
AcDbEntity
  8
RACCORDO
100
AcDbPolyline
 62
250
  6
CONTINUOUS
 90
11
 70
0
 10
8.5724186709
 20
-21.9817614184
 10
8.5726033148
 20
-21.9842255985
 10
8.5727882552
 20
-21.9865197666
 10
8.5729734921
 20
-21.9886436599
 10
8.5731589617
 20
-21.9905970346
 10
8.5733446638
 20
-21.9923796666
 10
8.5735305985
 20
-21.9939913518
 10
8.573716702
 20
-21.9954319053
 10
8.5739029532
 20
-21.9967011619
 10
8.5740893733
 20
-21.9977989761
 10
8.5742759622
 20
-21.998725222
  0
LINE
  5
407
100
AcDbEntity
  8
RACCORDO
100
AcDbLine
 62
250
  6
CONTINUOUS
 10
9.0708785411
 20
-21.4709044946
 11
9.0712420547
 21
-21.4758763477
  0
LINE
  5
408
100
AcDbEntity
  8
RACCORDO
100
AcDbLine
 62
250
  6
CONTINUOUS
 10
8.572050336
 20
-21.9763241728
 11
8.5724186709
 21
-21.9817614184
  0
LINE
  5
409
100
AcDbEntity
  8
RACCORDO
100
AcDbLine
 62
250
  6
CONTINUOUS
 10
9.0705169694
 20
-21.4654878776
 11
9.0708785411
 21
-21.4709044946
  0
LINE
  5
40A
100
AcDbEntity
  8
RACCORDO
100
AcDbLine
 62
250
  6
CONTINUOUS
 10
9.0701575255
 20
-21.4596293835
 11
9.0705169694
 21
-21.4654878776
  0
LINE
  5
40B
100
AcDbEntity
  8
RACCORDO
100
AcDbLine
 62
250
  6
CONTINUOUS
 10
8.5716834404
 20
-21.9702105247
 11
8.572050336
 21
-21.9763241728
  0
LINE
  5
40C
100
AcDbEntity
  8
RACCORDO
100
AcDbLine
 62
250
  6
CONTINUOUS
 10
8.5713181733
 20
-21.9634232807
 11
8.5716834404
 21
-21.9702105247
  0
LWPOLYLINE
  5
40D
100
AcDbEntity
  8
RACCORDO
100
AcDbPolyline
 62
7
  6
CONTINUOUS
 90
34
 70
0
 10
6.3322807489
 20
23.2669872981
 10
6.3325784753
 20
23.260745719
 10
6.3333497267
 20
23.254472608
 10
6.3346000894
 20
23.2481861919
 10
6.3363341367
 20
23.2419121598
 10
6.3385555794
 20
23.2356626215
 10
6.3412675994
 20
23.2294361375
 10
6.3444720963
 20
23.2232532001
 10
6.3481700208
 20
23.2171335699
 10
6.3523622718
 20
23.2110754134
 10
6.357047756
 20
23.2051002367
 10
6.3622243979
 20
23.199228829
 10
6.3678907687
 20
23.1934590071
 10
6.3740425526
 20
23.1878130261
 10
6.380674335
 20
23.182312533
 10
6.3877821378
 20
23.1769551973
 10
6.3953581333
 20
23.171763745
 10
6.4033932153
 20
23.1667604362
 10
6.4118804409
 20
23.1619430222
 10
6.4208081504
 20
23.1573343288
 10
6.4301631291
 20
23.1529569199
 10
6.4399348037
 20
23.148808872
 10
6.4501073149
 20
23.1449126131
 10
6.460662902
 20
23.1412905703
 10
6.4715865028
 20
23.137941334
 10
6.4828575603
 20
23.1348863009
 10
6.4944534848
 20
23.1321470947
 10
6.5063541826
 20
23.1297228132
 10
6.5185210103
 20
23.1276360125
 10
6.5309390652
 20
23.1259025536
 10
6.5436230593
 20
23.1245164325
 10
6.5565577699
 20
23.1234933505
 10
6.5696962714
 20
23.1228641607
 10
6.5830037468
 20
23.1226497308
  0
LWPOLYLINE
  5
40E
100
AcDbEntity
  8
RACCORDO
100
AcDbPolyline
 62
7
  6
CONTINUOUS
 90
34
 70
0
 10
8.7177192511
 20
-23.2669872981
 10
8.7174215247
 20
-23.260745719
 10
8.7166502733
 20
-23.254472608
 10
8.7153999106
 20
-23.2481861919
 10
8.7136658633
 20
-23.2419121598
 10
8.7114444206
 20
-23.2356626215
 10
8.7087324006
 20
-23.2294361375
 10
8.7055279037
 20
-23.2232532001
 10
8.7018299792
 20
-23.2171335699
 10
8.6976377282
 20
-23.2110754134
 10
8.692952244
 20
-23.2051002367
 10
8.6877756021
 20
-23.199228829
 10
8.6821092313
 20
-23.1934590071
 10
8.6759574474
 20
-23.1878130261
 10
8.669325665
 20
-23.182312533
 10
8.6622178622
 20
-23.1769551973
 10
8.6546418667
 20
-23.171763745
 10
8.6466067847
 20
-23.1667604362
 10
8.6381195591
 20
-23.1619430222
 10
8.6291918496
 20
-23.1573343288
 10
8.6198368709
 20
-23.1529569199
 10
8.6100651963
 20
-23.148808872
 10
8.5998926851
 20
-23.1449126131
 10
8.589337098
 20
-23.1412905703
 10
8.5784134972
 20
-23.137941334
 10
8.5671424397
 20
-23.1348863009
 10
8.5555465152
 20
-23.1321470947
 10
8.5436458174
 20
-23.1297228132
 10
8.5314789897
 20
-23.1276360125
 10
8.5190609348
 20
-23.1259025536
 10
8.5063769407
 20
-23.1245164325
 10
8.4934422301
 20
-23.1234933505
 10
8.4803037286
 20
-23.1228641607
 10
8.4669962532
 20
-23.1226497308
  0
LINE
  5
40F
100
AcDbEntity
  8
RACCORDO
100
AcDbLine
 62
250
  6
CONTINUOUS
 10
8.5709546604
 20
-21.9559655548
 11
8.5713181733
 21
-21.9634232807
  0
LINE
  5
410
100
AcDbEntity
  8
RACCORDO
100
AcDbLine
 62
250
  6
CONTINUOUS
 10
8.5704130938
 20
-21.9435293766
 11
8.5709546604
 21
-21.9559655548
  0
LINE
  5
411
100
AcDbEntity
  8
RACCORDO
100
AcDbLine
 62
250
  6
CONTINUOUS
 10
8.569876454
 20
-21.9296052025
 11
8.5704130938
 21
-21.9435293766
  0
LWPOLYLINE
  5
412
100
AcDbEntity
  8
RACCORDO
100
AcDbPolyline
 62
250
  6
CONTINUOUS
 90
31
 70
0
 10
6.3380985787
 20
23.8443375673
 10
6.3384771343
 20
23.833039595
 10
6.3395362619
 20
23.821769291
 10
6.3412736384
 20
23.8105574212
 10
6.3436853398
 20
23.7994336121
 10
6.3467652101
 20
23.78842936
 10
6.3505042611
 20
23.7775778202
 10
6.3548918055
 20
23.7669096972
 10
6.3599162045
 20
23.7564530239
 10
6.3655638851
 20
23.746236105
 10
6.3718195777
 20
23.7362866999
 10
6.3786661523
 20
23.7266321754
 10
6.3860847605
 20
23.7172991519
 10
6.3940550646
 20
23.7083132018
 10
6.4025553594
 20
23.6996987826
 10
6.4115624499
 20
23.6914794042
 10
6.4210517535
 20
23.6836775075
 10
6.4309973406
 20
23.6763144193
 10
6.4413720235
 20
23.6694102704
 10
6.4521474559
 20
23.6629839239
 10
6.4632942139
 20
23.6570529269
 10
6.474781851
 20
23.6516334796
 10
6.4865790077
 20
23.6467403776
 10
6.4986534441
 20
23.6423869945
 10
6.5109721237
 20
23.6385852371
 10
6.5235013591
 20
23.6353454907
 10
6.5362069619
 20
23.6326765842
 10
6.5490542827
 20
23.6305857918
 10
6.56200825
 20
23.6290788219
 10
6.5750334638
 20
23.6281597935
 10
6.5880943479
 20
23.6278312164
  0
LINE
  5
413
100
AcDbEntity
  8
RACCORDO
100
AcDbLine
 62
250
  6
CONTINUOUS
 10
6.3380985787
 20
-23.8443375673
 11
6.3322807489
 21
-23.2669872981
  0
LINE
  5
414
100
AcDbEntity
  8
RACCORDO
100
AcDbLine
 62
250
  6
CONTINUOUS
 10
6.5880943479
 20
-23.6278312164
 11
6.5830037468
 21
-23.1226497308
  0
LINE
  5
415
100
AcDbEntity
  8
RACCORDO
100
AcDbLine
 62
7
  6
CONTINUOUS
 10
6.325
 20
-22.4
 11
6.325
 21
-24.2500042308
  0
LINE
  5
416
100
AcDbEntity
  8
RACCORDO
100
AcDbLine
 62
7
  6
CONTINUOUS
 10
6.325
 20
22.4
 11
6.325
 21
24.2500042308
  0
LINE
  5
417
100
AcDbEntity
  8
RACCORDO
100
AcDbLine
 62
250
  6
CONTINUOUS
 10
6.3322807489
 20
-23.2669872981
 11
6.3322807489
 21
-22.3344140523
  0
LINE
  5
418
100
AcDbEntity
  8
RACCORDO
100
AcDbLine
 62
250
  6
CONTINUOUS
 10
6.3322807489
 20
22.3344140523
 11
6.3322807489
 21
23.2669872981
  0
LINE
  5
419
100
AcDbEntity
  8
RACCORDO
100
AcDbLine
 62
250
  6
CONTINUOUS
 10
6.3380985787
 20
24.2369056521
 11
6.3380985787
 21
23.8443375673
  0
LINE
  5
41A
100
AcDbEntity
  8
RACCORDO
100
AcDbLine
 62
250
  6
CONTINUOUS
 10
6.3380985787
 20
-23.8443375673
 11
6.3380985787
 21
-24.2369056521
  0
LINE
  5
41B
100
AcDbEntity
  8
RACCORDO
100
AcDbLine
 62
250
  6
CONTINUOUS
 10
6.5822765181
 20
-23.1226497308
 11
6.5822765181
 21
-22.3213883311
  0
LINE
  5
41C
100
AcDbEntity
  8
RACCORDO
100
AcDbLine
 62
250
  6
CONTINUOUS
 10
6.5822765181
 20
22.3213883311
 11
6.5822765181
 21
23.1226497308
  0
LINE
  5
41D
100
AcDbEntity
  8
RACCORDO
100
AcDbLine
 62
250
  6
CONTINUOUS
 10
6.5880943479
 20
-23.6278312164
 11
6.5880943479
 21
-24.4869014213
  0
LINE
  5
41E
100
AcDbEntity
  8
RACCORDO
100
AcDbLine
 62
250
  6
CONTINUOUS
 10
6.5880943479
 20
23.6278312164
 11
6.5880943479
 21
24.4869014213
  0
LINE
  5
41F
100
AcDbEntity
  8
RACCORDO
100
AcDbLine
 62
250
  6
CONTINUOUS
 10
6.3322807489
 20
23.2669872981
 11
6.3380985787
 21
23.8443375673
  0
LINE
  5
420
100
AcDbEntity
  8
RACCORDO
100
AcDbLine
 62
250
  6
CONTINUOUS
 10
6.5830037468
 20
23.1226497308
 11
6.5880943479
 21
23.6278312164
  0
LWPOLYLINE
  5
421
100
AcDbEntity
  8
RACCORDO
100
AcDbPolyline
 62
250
  6
CONTINUOUS
 90
31
 70
0
 10
6.3380985787
 20
-23.8443375673
 10
6.3384779104
 20
-23.8330274168
 10
6.3395388924
 20
-23.8217481519
 10
6.3412786273
 20
-23.810530574
 10
6.3436923642
 20
-23.7994053159
 10
6.3467735118
 20
-23.7884027584
 10
6.350513656
 20
-23.7775529472
 10
6.3549025834
 20
-23.7668855107
 10
6.3599283087
 20
-23.7564295797
 10
6.3655771077
 20
-23.7462137069
 10
6.3718335547
 20
-23.7362657898
 10
6.3786805646
 20
-23.7266129942
 10
6.3860994397
 20
-23.7172816797
 10
6.3940699206
 20
-23.7082973282
 10
6.4025702417
 20
-23.6996844742
 10
6.4115771902
 20
-23.6914666374
 10
6.4210661701
 20
-23.6836662592
 10
6.431011269
 20
-23.6763046407
 10
6.4413853289
 20
-23.6694018849
 10
6.4521600204
 20
-23.6629768418
 10
6.4633059201
 20
-23.6570470569
 10
6.4747925909
 20
-23.6516287232
 10
6.4865886651
 20
-23.646736637
 10
6.49866193
 20
-23.6423841576
 10
6.5109794162
 20
-23.6385831707
 10
6.523507487
 20
-23.6353440559
 10
6.5362119311
 20
-23.6326756587
 10
6.5490580552
 20
-23.6305852658
 10
6.5620107793
 20
-23.6290785857
 10
6.5750347321
 20
-23.6281597328
 10
6.5880943479
 20
-23.6278312164
  0
LINE
  5
422
100
AcDbEntity
  8
RACCORDO
100
AcDbLine
 62
250
  6
CONTINUOUS
 10
8.5703175749
 20
21.9411686896
 11
8.5697932081
 21
21.9272993467
  0
LINE
  5
423
100
AcDbEntity
  8
RACCORDO
100
AcDbLine
 62
250
  6
CONTINUOUS
 10
8.5708467551
 20
21.9536150025
 11
8.5703175749
 21
21.9411686896
  0
LWPOLYLINE
  5
424
100
AcDbEntity
  8
RACCORDO
100
AcDbPolyline
 62
7
  6
CONTINUOUS
 90
34
 70
0
 10
6.3322807489
 20
-23.2669872981
 10
6.3325784753
 20
-23.260745719
 10
6.3333497267
 20
-23.254472608
 10
6.3346000894
 20
-23.2481861919
 10
6.3363341367
 20
-23.2419121598
 10
6.3385555794
 20
-23.2356626215
 10
6.3412675994
 20
-23.2294361375
 10
6.3444720963
 20
-23.2232532001
 10
6.3481700208
 20
-23.2171335699
 10
6.3523622718
 20
-23.2110754134
 10
6.357047756
 20
-23.2051002367
 10
6.3622243979
 20
-23.199228829
 10
6.3678907687
 20
-23.1934590071
 10
6.3740425526
 20
-23.1878130261
 10
6.380674335
 20
-23.182312533
 10
6.3877821378
 20
-23.1769551973
 10
6.3953581333
 20
-23.171763745
 10
6.4033932153
 20
-23.1667604362
 10
6.4118804409
 20
-23.1619430222
 10
6.4208081504
 20
-23.1573343288
 10
6.4301631291
 20
-23.1529569199
 10
6.4399348037
 20
-23.148808872
 10
6.4501073149
 20
-23.1449126131
 10
6.460662902
 20
-23.1412905703
 10
6.4715865028
 20
-23.137941334
 10
6.4828575603
 20
-23.1348863009
 10
6.4944534848
 20
-23.1321470947
 10
6.5063541826
 20
-23.1297228132
 10
6.5185210103
 20
-23.1276360125
 10
6.5309390652
 20
-23.1259025536
 10
6.5436230593
 20
-23.1245164325
 10
6.5565577699
 20
-23.1234933505
 10
6.5696962714
 20
-23.1228641607
 10
6.5830037468
 20
-23.1226497308
  0
LWPOLYLINE
  5
425
100
AcDbEntity
  8
RACCORDO
100
AcDbPolyline
 62
7
  6
CONTINUOUS
 90
34
 70
0
 10
8.7177192511
 20
23.2669872981
 10
8.7174198287
 20
23.2606934229
 10
8.7166441239
 20
23.2544088409
 10
8.7153873851
 20
23.2481335519
 10
8.7136460224
 20
23.2418552807
 10
8.7114170759
 20
23.2355863026
 10
8.708697709
 20
23.2293634437
 10
8.7054867318
 20
23.2231861587
 10
8.7017838816
 20
23.2170549928
 10
8.6975882567
 20
23.2110084085
 10
8.6929014786
 20
23.205045942
 10
8.6877261214
 20
23.199168057
 10
8.6820632404
 20
23.1934146064
 10
8.6759174965
 20
23.1877851844
 10
8.6692945874
 20
23.1822801967
 10
8.6621976951
 20
23.1769407141
 10
8.6546347916
 20
23.1717664006
 10
8.6466150594
 20
23.1667575922
 10
8.6381442164
 20
23.1619563668
 10
8.629233882
 20
23.1573625195
 10
8.619897167
 20
23.1529762552
 10
8.6101430254
 20
23.1488402671
 10
8.5999871321
 20
23.1449546011
 10
8.5894470274
 20
23.1413192112
 10
8.5785358548
 20
23.1379766523
 10
8.5672738698
 20
23.1349274029
 10
8.5556834708
 20
23.1321709844
 10
8.5437828486
 20
23.1297485157
 10
8.531584335
 20
23.1276610792
 10
8.5191281847
 20
23.1259075925
 10
8.5064781276
 20
23.1245259271
 10
8.4936775292
 20
23.123528707
 10
8.480747957
 20
23.1229033082
 10
8.4677234819
 20
23.1226497308
  0
LINE
  5
426
100
AcDbEntity
  8
RACCORDO
100
AcDbLine
 62
250
  6
CONTINUOUS
 10
8.5712019452
 20
21.9611158465
 11
8.5708467551
 21
21.9536150025
  0
LINE
  5
427
100
AcDbEntity
  8
RACCORDO
100
AcDbLine
 62
250
  6
CONTINUOUS
 10
8.5715589062
 20
21.9679754497
 11
8.5712019452
 21
21.9611158465
  0
LINE
  5
428
100
AcDbEntity
  8
RACCORDO
100
AcDbLine
 62
250
  6
CONTINUOUS
 10
8.5719174622
 20
21.9741907979
 11
8.5715589062
 21
21.9679754497
  0
LINE
  5
429
100
AcDbEntity
  8
RACCORDO
100
AcDbLine
 62
250
  6
CONTINUOUS
 10
9.0705936866
 20
21.4666768251
 11
9.0702414151
 21
21.4610393872
  0
LINE
  5
42A
100
AcDbEntity
  8
RACCORDO
100
AcDbLine
 62
250
  6
CONTINUOUS
 10
9.0709479621
 20
21.4718904538
 11
9.0705936866
 21
21.4666768251
  0
LINE
  5
42B
100
AcDbEntity
  8
RACCORDO
100
AcDbLine
 62
250
  6
CONTINUOUS
 10
9.0713040675
 20
21.4766776136
 11
9.0709479621
 21
21.4718904538
  0
LINE
  5
42C
100
AcDbEntity
  8
RACCORDO
100
AcDbLine
 62
7
  6
CONTINUOUS
 10
8.725
 20
22.4
 11
8.7177192511
 21
22.3344140523
  0
LINE
  5
42D
100
AcDbEntity
  8
DRAFT
100
AcDbLine
 62
7
  6
CONTINUOUS
 10
-4.225
 20
6.1
 11
0.375
 21
6.1
  0
LINE
  5
42E
100
AcDbEntity
  8
RACCORDO
100
AcDbLine
 62
250
  6
CONTINUOUS
 10
-4.2342560268
 20
6.1092560268
 11
0.3842560268
 21
6.1092560268
  0
LINE
  5
42F
100
AcDbEntity
  8
RACCORDO
100
AcDbLine
 62
250
  6
CONTINUOUS
 10
-4.7342369857
 20
6.6158528412
 11
0.8842369828
 21
6.6158528412
  0
LINE
  5
430
100
AcDbEntity
  8
RACCORDO
100
AcDbLine
 62
7
  6
CONTINUOUS
 10
8.725
 20
-22.4
 11
8.7177192511
 21
-22.3344140523
  0
LINE
  5
431
100
AcDbEntity
  8
RACCORDO
100
AcDbLine
 62
250
  6
CONTINUOUS
 10
9.06962265
 20
-21.4500180728
 11
9.0701575255
 21
-21.4596293835
  0
LINE
  5
432
100
AcDbEntity
  8
RACCORDO
100
AcDbLine
 62
250
  6
CONTINUOUS
 10
9.069093438
 20
-21.4394277573
 11
9.06962265
 21
-21.4500180728
  0
LINE
  5
433
100
AcDbEntity
  8
RACCORDO
100
AcDbLine
 62
250
  6
CONTINUOUS
 10
9.0683975615
 20
-21.423803163
 11
9.069093438
 21
-21.4394277573
  0
LINE
  5
434
100
AcDbEntity
  8
RACCORDO
100
AcDbLine
 62
250
  6
CONTINUOUS
 10
9.0677140196
 20
-21.4064868171
 11
9.0683975615
 21
-21.423803163
  0
LWPOLYLINE
  5
435
100
AcDbEntity
  8
RACCORDO
100
AcDbPolyline
 62
250
  6
CONTINUOUS
 90
31
 70
0
 10
8.7119014213
 20
-23.8443375673
 10
8.7115220896
 20
-23.8330274168
 10
8.7104611076
 20
-23.8217481519
 10
8.7087213727
 20
-23.810530574
 10
8.7063076358
 20
-23.7994053159
 10
8.7032264882
 20
-23.7884027584
 10
8.699486344
 20
-23.7775529472
 10
8.6950974166
 20
-23.7668855107
 10
8.6900716913
 20
-23.7564295797
 10
8.6844228923
 20
-23.7462137069
 10
8.6781664453
 20
-23.7362657898
 10
8.6713194354
 20
-23.7266129942
 10
8.6639005603
 20
-23.7172816797
 10
8.6559300794
 20
-23.7082973282
 10
8.6474297583
 20
-23.6996844742
 10
8.6384228098
 20
-23.6914666374
 10
8.6289338299
 20
-23.6836662592
 10
8.618988731
 20
-23.6763046407
 10
8.6086146711
 20
-23.6694018849
 10
8.5978399796
 20
-23.6629768418
 10
8.5866940799
 20
-23.6570470569
 10
8.5752074091
 20
-23.6516287232
 10
8.5634113349
 20
-23.646736637
 10
8.55133807
 20
-23.6423841576
 10
8.5390205838
 20
-23.6385831707
 10
8.526492513
 20
-23.6353440559
 10
8.5137880689
 20
-23.6326756587
 10
8.5009419448
 20
-23.6305852658
 10
8.4879892207
 20
-23.6290785857
 10
8.4749652679
 20
-23.6281597328
 10
8.4619056521
 20
-23.6278312164
  0
LINE
  5
436
100
AcDbEntity
  8
RACCORDO
100
AcDbLine
 62
250
  6
CONTINUOUS
 10
9.0668788031
 20
-21.3825099594
 11
9.0677140196
 21
-21.4064868171
  0
LINE
  5
437
100
AcDbEntity
  8
RACCORDO
100
AcDbLine
 62
250
  6
CONTINUOUS
 10
8.5691695605
 20
-21.9087500259
 11
8.569876454
 21
-21.9296052025
  0
LINE
  5
438
100
AcDbEntity
  8
RACCORDO
100
AcDbLine
 62
250
  6
CONTINUOUS
 10
9.0659078947
 20
-21.3504107646
 11
9.0668788031
 21
-21.3825099594
  0
LINE
  5
439
100
AcDbEntity
  8
RACCORDO
100
AcDbLine
 62
250
  6
CONTINUOUS
 10
8.5683016012
 20
-21.8790559728
 11
8.5691695605
 21
-21.9087500259
  0
LWPOLYLINE
  5
43A
100
AcDbEntity
  8
RACCORDO
100
AcDbPolyline
 62
250
  6
CONTINUOUS
 90
31
 70
0
 10
8.7119014213
 20
24.2369056521
 10
8.7115583827
 20
24.2499891381
 10
8.7105310928
 20
24.2630367647
 10
8.7088223673
 20
24.2760127708
 10
8.7064368893
 20
24.2888815916
 10
8.7033811971
 20
24.3016079562
 10
8.6996636657
 20
24.3141569839
 10
8.6952944842
 20
24.3264942801
 10
8.6902856277
 20
24.3385860308
 10
8.6846508246
 20
24.3503990946
 10
8.6784055187
 20
24.3619010942
 10
8.6715668272
 20
24.3730605047
 10
8.6641534939
 20
24.3838467403
 10
8.6561858371
 20
24.3942302379
 10
8.6476856948
 20
24.4041825384
 10
8.6386763643
 20
24.4136763643
 10
8.6291825384
 20
24.4226856948
 10
8.6192302379
 20
24.4311858371
 10
8.6088467403
 20
24.4391534939
 10
8.5980605047
 20
24.4465668272
 10
8.5869010942
 20
24.4534055187
 10
8.5753990946
 20
24.4596508246
 10
8.5635860308
 20
24.4652856277
 10
8.5514942801
 20
24.4702944842
 10
8.5391569839
 20
24.4746636657
 10
8.5266079562
 20
24.4783811971
 10
8.5138815916
 20
24.4814368893
 10
8.5010127708
 20
24.4838223673
 10
8.4880367647
 20
24.4855310928
 10
8.4749891381
 20
24.4865583827
 10
8.4619056521
 20
24.4869014213
  0
LWPOLYLINE
  5
43B
100
AcDbEntity
  8
RACCORDO
100
AcDbPolyline
 62
250
  6
CONTINUOUS
 90
34
 70
0
 10
9.0741998097
 20
21.4994104546
 10
9.0736125093
 20
21.523155013
 10
9.0718953658
 20
21.5468458449
 10
9.0690522647
 20
21.5704293453
 10
9.065089639
 20
21.593852152
 10
9.0600164548
 20
21.6170612667
 10
9.0538441913
 20
21.6400041742
 10
9.0465868143
 20
21.6626289619
 10
9.038260745
 20
21.684884437
 10
9.0288848227
 20
21.7067202423
 10
9.0184802623
 20
21.7280869701
 10
9.0070706059
 20
21.7489362743
 10
8.99468167
 20
21.7692209792
 10
8.9813414871
 20
21.7888951871
 10
8.9670802417
 20
21.8079143811
 10
8.9519302026
 20
21.826235527
 10
8.9359256497
 20
21.8438171695
 10
8.9191027962
 20
21.8606195269
 10
8.901499707
 20
21.8766045808
 10
8.8831562124
 20
21.8917361619
 10
8.8641138181
 20
21.9059800322
 10
8.844415611
 20
21.9193039622
 10
8.8241061621
 20
21.931677804
 10
8.8032314252
 20
21.9430735596
 10
8.7818386335
 20
21.9534654437
 10
8.7599761922
 20
21.9628299429
 10
8.7376935691
 20
21.9711458682
 10
8.7150411829
 20
21.9783944033
 10
8.6920702888
 20
21.9845591469
 10
8.6688328629
 20
21.9896261502
 10
8.6453814842
 20
21.9935839482
 10
8.6217692158
 20
21.9964235855
 10
8.598049485
 20
21.998138637
 10
8.5742759622
 20
21.998725222
  0
LWPOLYLINE
  5
43C
100
AcDbEntity
  8
RACCORDO
100
AcDbPolyline
 62
7
  6
CONTINUOUS
 90
34
 70
0
 10
8.725
 20
24.2500042308
 10
8.7247168498
 20
24.261899516
 10
8.7238680342
 20
24.2737678556
 10
8.7224554741
 20
24.2855823661
 10
8.7204823677
 20
24.2973162875
 10
8.7179531817
 20
24.3089430388
 10
8.7148736417
 20
24.320436279
 10
8.7112507213
 20
24.3317699738
 10
8.7070926258
 20
24.3429184493
 10
8.7024087722
 20
24.3538564463
 10
8.6972097688
 20
24.3645591876
 10
8.6915073916
 20
24.3750024283
 10
8.6853145581
 20
24.3851625059
 10
8.6786452955
 20
24.3950164051
 10
8.6715147107
 20
24.4045418038
 10
8.6639389589
 20
24.4137171191
 10
8.6559352005
 20
24.4225215661
 10
8.6475215661
 20
24.4309352005
 10
8.6387171191
 20
24.4389389589
 10
8.6295418038
 20
24.4465147107
 10
8.6200164051
 20
24.4536452955
 10
8.6101625059
 20
24.4603145581
 10
8.6000024283
 20
24.4665073916
 10
8.5895591876
 20
24.4722097688
 10
8.5788564463
 20
24.4774087722
 10
8.5679184493
 20
24.4820926258
 10
8.5567699738
 20
24.4862507213
 10
8.545436279
 20
24.4898736417
 10
8.5339430388
 20
24.4929531817
 10
8.5223162875
 20
24.4954823677
 10
8.5105823661
 20
24.4974554741
 10
8.4987678556
 20
24.4988680342
 10
8.486899516
 20
24.4997168498
 10
8.4750042308
 20
24.5
  0
LINE
  5
43D
100
AcDbEntity
  8
RACCORDO
100
AcDbLine
 62
250
  6
CONTINUOUS
 10
9.0646730944
 20
-21.3021866201
 11
9.0659078947
 21
-21.3504107646
  0
LINE
  5
43E
100
AcDbEntity
  8
RACCORDO
100
AcDbLine
 62
250
  6
CONTINUOUS
 10
8.5671201729
 20
-21.8308731277
 11
8.5683016012
 21
-21.8790559728
  0
LINE
  5
43F
100
AcDbEntity
  8
RACCORDO
100
AcDbLine
 62
250
  6
CONTINUOUS
 10
9.0632382067
 20
-21.23369074
 11
9.0646730944
 21
-21.3021866201
  0
LINE
  5
440
100
AcDbEntity
  8
RACCORDO
100
AcDbLine
 62
250
  6
CONTINUOUS
 10
8.5655125646
 20
-21.7491660644
 11
8.5671201729
 21
-21.8308731277
  0
LINE
  5
441
100
AcDbEntity
  8
RACCORDO
100
AcDbLine
 62
250
  6
CONTINUOUS
 10
9.0615784118
 20
-21.1322324363
 11
9.0632382067
 21
-21.23369074
  0
LINE
  5
442
100
AcDbEntity
  8
RACCORDO
100
AcDbLine
 62
250
  6
CONTINUOUS
 10
8.5634519814
 20
-21.6110060037
 11
8.5655125646
 21
-21.7491660644
  0
LINE
  5
443
100
AcDbEntity
  8
RACCORDO
100
AcDbLine
 62
250
  6
CONTINUOUS
 10
8.4619056521
 20
23.6278312164
 11
8.4669962532
 21
23.1226497308
  0
LINE
  5
444
100
AcDbEntity
  8
RACCORDO
100
AcDbLine
 62
250
  6
CONTINUOUS
 10
8.7119014213
 20
23.8443375673
 11
8.7177192511
 21
23.2669872981
  0
LINE
  5
445
100
AcDbEntity
  8
RACCORDO
100
AcDbLine
 62
250
  6
CONTINUOUS
 10
9.0598978401
 20
-20.9908292413
 11
9.0615784118
 21
-21.1322324363
  0
LINE
  5
446
100
AcDbEntity
  8
RACCORDO
100
AcDbLine
 62
250
  6
CONTINUOUS
 10
8.560975008
 20
-21.3713480903
 11
8.5634519814
 21
-21.6110060037
  0
LINE
  5
447
100
AcDbEntity
  8
RACCORDO
100
AcDbLine
 62
250
  6
CONTINUOUS
 10
9.0584278448
 20
-20.7944367265
 11
9.0598978401
 21
-20.9908292413
  0
LINE
  5
448
100
AcDbEntity
  8
RACCORDO
100
AcDbLine
 62
250
  6
CONTINUOUS
 10
8.5592981035
 20
-21.1213188737
 11
8.560975008
 21
-21.3713480903
  0
LINE
  5
449
100
AcDbEntity
  8
RACCORDO
100
AcDbLine
 62
250
  6
CONTINUOUS
 10
8.5588673936
 20
-21.0323874705
 11
8.5592981035
 21
-21.1213188737
  0
LINE
  5
44A
100
AcDbEntity
  8
RACCORDO
100
AcDbLine
 62
250
  6
CONTINUOUS
 10
8.5585598179
 20
-20.9565875627
 11
8.5588673936
 21
-21.0323874705
  0
LINE
  5
44B
100
AcDbEntity
  8
RACCORDO
100
AcDbLine
 62
250
  6
CONTINUOUS
 10
8.5583480167
 20
-20.8949973708
 11
8.5585598179
 21
-20.9565875627
  0
LINE
  5
44C
100
AcDbEntity
  8
RACCORDO
100
AcDbLine
 62
250
  6
CONTINUOUS
 10
8.5581670897
 20
-20.8326847964
 11
8.5583480167
 21
-20.8949973708
  0
LINE
  5
44D
100
AcDbEntity
  8
RACCORDO
100
AcDbLine
 62
250
  6
CONTINUOUS
 10
8.5580173625
 20
-20.7697637659
 11
8.5581670897
 21
-20.8326847964
  0
LINE
  5
44E
100
AcDbEntity
  8
RACCORDO
100
AcDbLine
 62
250
  6
CONTINUOUS
 10
8.5578991182
 20
-20.706349532
 11
8.5580173625
 21
-20.7697637659
  0
LINE
  5
44F
100
AcDbEntity
  8
RACCORDO
100
AcDbLine
 62
250
  6
CONTINUOUS
 10
8.5578125701
 20
-20.642558512
 11
8.5578991182
 21
-20.706349532
  0
LINE
  5
450
100
AcDbEntity
  8
RACCORDO
100
AcDbLine
 62
250
  6
CONTINUOUS
 10
8.5577685576
 20
-20.5945384067
 11
8.5578125701
 21
-20.642558512
  0
LWPOLYLINE
  5
451
100
AcDbEntity
  8
RACCORDO
100
AcDbPolyline
 62
250
  6
CONTINUOUS
 90
3
 70
0
 10
9.0576730391
 20
-20.5419058565
 10
9.0576817248
 20
-20.5526009072
 10
9.0584278448
 20
-20.7944367265
  0
LINE
  5
452
100
AcDbEntity
  8
RACCORDO
100
AcDbLine
 62
250
  6
CONTINUOUS
 10
8.5577491915
 20
-20.5624683248
 11
8.5577685576
 21
-20.5945384067
  0
LINE
  5
453
100
AcDbEntity
  8
RACCORDO
100
AcDbLine
 62
250
  6
CONTINUOUS
 10
8.5530827048
 20
-12.4643258087
 11
8.5577491915
 21
-20.5624683248
  0
LINE
  5
454
100
AcDbEntity
  8
RACCORDO
100
AcDbLine
 62
250
  6
CONTINUOUS
 10
9.0530065524
 20
-12.4518618072
 11
9.0576730391
 21
-20.5419058565
  0
LINE
  5
455
100
AcDbEntity
  8
RACCORDO
100
AcDbLine
 62
250
  6
CONTINUOUS
 10
8.5507051177
 20
-4.3629105699
 11
8.5530827048
 21
-12.4643258087
  0
LINE
  5
456
100
AcDbEntity
  8
RACCORDO
100
AcDbLine
 62
250
  6
CONTINUOUS
 10
9.0506289653
 20
-4.3585473383
 11
9.0530065524
 21
-12.4518618072
  0
LINE
  5
457
100
AcDbEntity
  8
RACCORDO
100
AcDbLine
 62
250
  6
CONTINUOUS
 10
8.4619056521
 20
-23.6278312164
 11
8.4619056521
 21
-24.4869014213
  0
LINE
  5
458
100
AcDbEntity
  8
RACCORDO
100
AcDbLine
 62
250
  6
CONTINUOUS
 10
8.4619056521
 20
23.6278312164
 11
8.4619056521
 21
24.4869014213
  0
LINE
  5
459
100
AcDbEntity
  8
RACCORDO
100
AcDbLine
 62
250
  6
CONTINUOUS
 10
8.4677234819
 20
23.1226497308
 11
8.4677234819
 21
22.3213883311
  0
LINE
  5
45A
100
AcDbEntity
  8
RACCORDO
100
AcDbLine
 62
250
  6
CONTINUOUS
 10
8.4677234819
 20
-22.3213883311
 11
8.4677234819
 21
-23.1226497308
  0
LINE
  5
45B
100
AcDbEntity
  8
RACCORDO
100
AcDbLine
 62
250
  6
CONTINUOUS
 10
8.5503731867
 20
0.0000000008
 11
8.5507051177
 21
-4.3629105699
  0
LINE
  5
45C
100
AcDbEntity
  8
RACCORDO
100
AcDbLine
 62
250
  6
CONTINUOUS
 10
8.7119014213
 20
-24.2369056521
 11
8.7119014213
 21
-23.8443375673
  0
LINE
  5
45D
100
AcDbEntity
  8
RACCORDO
100
AcDbLine
 62
250
  6
CONTINUOUS
 10
8.7119014213
 20
23.8443375673
 11
8.7119014213
 21
24.2369056521
  0
LINE
  5
45E
100
AcDbEntity
  8
RACCORDO
100
AcDbLine
 62
250
  6
CONTINUOUS
 10
8.7177192511
 20
23.2669872981
 11
8.7177192511
 21
22.3344140523
  0
LINE
  5
45F
100
AcDbEntity
  8
RACCORDO
100
AcDbLine
 62
250
  6
CONTINUOUS
 10
8.7177192511
 20
-22.3344140523
 11
8.7177192511
 21
-23.2669872981
  0
LINE
  5
460
100
AcDbEntity
  8
RACCORDO
100
AcDbLine
 62
7
  6
CONTINUOUS
 10
8.725
 20
-22.4
 11
8.725
 21
-24.2500042308
  0
LINE
  5
461
100
AcDbEntity
  8
RACCORDO
100
AcDbLine
 62
7
  6
CONTINUOUS
 10
8.725
 20
22.4
 11
8.725
 21
24.2500042308
  0
LINE
  5
462
100
AcDbEntity
  8
RACCORDO
100
AcDbLine
 62
250
  6
CONTINUOUS
 10
9.0502970343
 20
-0.0000000004
 11
9.0506289653
 21
-4.3585473383
  0
LINE
  5
463
100
AcDbEntity
  8
0
100
AcDbLine
 62
7
  6
CONTINUOUS
 10
9.225
 20
17.6716990487
 11
9.225
 21
-17.6716990487
  0
LINE
  5
464
100
AcDbEntity
  8
RACCORDO
100
AcDbLine
 62
7
  6
CONTINUOUS
 10
9.225
 20
-21.9411874598
 11
9.225
 21
21.9411874598
  0
LINE
  5
465
100
AcDbEntity
  8
RACCORDO
100
AcDbLine
 62
250
  6
CONTINUOUS
 10
8.5505425399
 20
3.1163840597
 11
8.5503731867
 21
0.0000000008
  0
LINE
  5
466
100
AcDbEntity
  8
RACCORDO
100
AcDbLine
 62
250
  6
CONTINUOUS
 10
9.0504663874
 20
3.1132679971
 11
9.0502970343
 21
-0.0000000004
  0
LINE
  5
467
100
AcDbEntity
  8
RACCORDO
100
AcDbLine
 62
250
  6
CONTINUOUS
 10
8.5515179922
 20
8.102296431
 11
8.5505425399
 21
3.1163840597
  0
LINE
  5
468
100
AcDbEntity
  8
RACCORDO
100
AcDbLine
 62
250
  6
CONTINUOUS
 10
9.0514418398
 20
8.0941938113
 11
9.0504663874
 21
3.1132679971
  0
LINE
  5
469
100
AcDbEntity
  8
RACCORDO
100
AcDbLine
 62
250
  6
CONTINUOUS
 10
8.5533604144
 20
13.0874031471
 11
8.5515179922
 21
8.102296431
  0
LINE
  5
46A
100
AcDbEntity
  8
RACCORDO
100
AcDbLine
 62
250
  6
CONTINUOUS
 10
9.0532842619
 20
13.0743157435
 11
9.0514418398
 21
8.0941938113
  0
LINE
  5
46B
100
AcDbEntity
  8
RACCORDO
100
AcDbLine
 62
250
  6
CONTINUOUS
 10
8.5556835778
 20
17.4483209613
 11
8.5533604144
 21
13.0874031471
  0
LINE
  5
46C
100
AcDbEntity
  8
RACCORDO
100
AcDbLine
 62
250
  6
CONTINUOUS
 10
9.0556074253
 20
17.4308723178
 11
9.0532842619
 21
13.0743157435
  0
LINE
  5
46D
100
AcDbEntity
  8
RACCORDO
100
AcDbLine
 62
250
  6
CONTINUOUS
 10
8.559094368
 20
21.0812484808
 11
8.5556835778
 21
17.4483209613
  0
LINE
  5
46E
100
AcDbEntity
  8
RACCORDO
100
AcDbLine
 62
250
  6
CONTINUOUS
 10
9.0583482507
 20
20.7791603337
 11
9.0556074253
 21
17.4308723178
  0
LINE
  5
46F
100
AcDbEntity
  8
RACCORDO
100
AcDbLine
 62
250
  6
CONTINUOUS
 10
8.5616194734
 20
21.4442434796
 11
8.559094368
 21
21.0812484808
  0
LINE
  5
470
100
AcDbEntity
  8
RACCORDO
100
AcDbLine
 62
250
  6
CONTINUOUS
 10
9.0598128818
 20
20.9820689159
 11
9.0583482507
 21
20.7791603337
  0
LINE
  5
471
100
AcDbEntity
  8
RACCORDO
100
AcDbLine
 62
250
  6
CONTINUOUS
 10
8.4669962532
 20
-23.1226497308
 11
8.4619056521
 21
-23.6278312164
  0
LINE
  5
472
100
AcDbEntity
  8
RACCORDO
100
AcDbLine
 62
250
  6
CONTINUOUS
 10
8.7177192511
 20
-23.2669872981
 11
8.7119014213
 21
-23.8443375673
  0
LINE
  5
473
100
AcDbEntity
  8
RACCORDO
100
AcDbLine
 62
250
  6
CONTINUOUS
 10
8.5639183331
 20
21.6461374714
 11
8.5616194734
 21
21.4442434796
  0
LINE
  5
474
100
AcDbEntity
  8
RACCORDO
100
AcDbLine
 62
250
  6
CONTINUOUS
 10
9.0615433233
 20
21.1297558237
 11
9.0598128818
 21
20.9820689159
  0
LINE
  5
475
100
AcDbEntity
  8
RACCORDO
100
AcDbLine
 62
250
  6
CONTINUOUS
 10
8.5658325128
 20
21.7670496461
 11
8.5639183331
 21
21.6461374714
  0
LINE
  5
476
100
AcDbEntity
  8
RACCORDO
100
AcDbLine
 62
250
  6
CONTINUOUS
 10
9.0631597522
 20
21.229492753
 11
9.0615433233
 21
21.1297558237
  0
LINE
  5
477
100
AcDbEntity
  8
RACCORDO
100
AcDbLine
 62
250
  6
CONTINUOUS
 10
8.5672615213
 20
21.8371356497
 11
8.5658325128
 21
21.7670496461
  0
LINE
  5
478
100
AcDbEntity
  8
RACCORDO
100
AcDbLine
 62
250
  6
CONTINUOUS
 10
9.0645555481
 20
21.2971162876
 11
9.0631597522
 21
21.229492753
  0
LWPOLYLINE
  5
479
100
AcDbEntity
  8
RACCORDO
100
AcDbPolyline
 62
250
  6
CONTINUOUS
 90
34
 70
0
 10
9.0741998097
 20
-21.4994104546
 10
9.0736125093
 20
-21.523155013
 10
9.0718953659
 20
-21.5468458448
 10
9.0690522649
 20
-21.5704293452
 10
9.0650896392
 20
-21.5938521519
 10
9.0600164552
 20
-21.6170612665
 10
9.0538441917
 20
-21.6400041741
 10
9.0465868148
 20
-21.6626289618
 10
9.0382607456
 20
-21.684884437
 10
9.0288848234
 20
-21.7067202423
 10
9.018480263
 20
-21.7280869702
 10
9.0070706066
 20
-21.7489362744
 10
8.9946816709
 20
-21.7692209794
 10
8.9813414879
 20
-21.7888951873
 10
8.9670802426
 20
-21.8079143815
 10
8.9519302035
 20
-21.8262355274
 10
8.9359256506
 20
-21.84381717
 10
8.9191027971
 20
-21.8606195275
 10
8.9014997079
 20
-21.8766045814
 10
8.8831562133
 20
-21.8917361626
 10
8.8641138189
 20
-21.9059800329
 10
8.8444156118
 20
-21.9193039629
 10
8.8241061628
 20
-21.9316778048
 10
8.8032314259
 20
-21.9430735603
 10
8.7818386341
 20
-21.9534654444
 10
8.7599761927
 20
-21.9628299436
 10
8.7376935695
 20
-21.9711458689
 10
8.7150411832
 20
-21.9783944039
 10
8.6920702891
 20
-21.9845591474
 10
8.6688328631
 20
-21.9896261507
 10
8.6453814843
 20
-21.9935839485
 10
8.6217692159
 20
-21.9964235857
 10
8.5980494851
 20
-21.9981386371
 10
8.5742759622
 20
-21.998725222
  0
LINE
  5
47A
100
AcDbEntity
  8
RACCORDO
100
AcDbLine
 62
250
  6
CONTINUOUS
 10
8.5684223471
 20
21.8834660872
 11
8.5672615213
 21
21.8371356497
  0
LINE
  5
47B
100
AcDbEntity
  8
RACCORDO
100
AcDbLine
 62
250
  6
CONTINUOUS
 10
9.0657563556
 20
21.3449600696
 11
9.0645555481
 21
21.2971162876
  0
LINE
  5
47C
100
AcDbEntity
  8
RACCORDO
100
AcDbLine
 62
250
  6
CONTINUOUS
 10
8.569274173
 20
21.9120206841
 11
8.5684223471
 21
21.8834660872
  0
LINE
  5
47D
100
AcDbEntity
  8
RACCORDO
100
AcDbLine
 62
250
  6
CONTINUOUS
 10
9.0668612534
 20
21.3819713066
 11
9.0657563556
 21
21.3449600696
  0
LWPOLYLINE
  5
47E
100
AcDbEntity
  8
RACCORDO
100
AcDbPolyline
 62
250
  6
CONTINUOUS
 90
31
 70
0
 10
8.7119014213
 20
23.8443375673
 10
8.7115228657
 20
23.833039595
 10
8.7104637381
 20
23.821769291
 10
8.7087263616
 20
23.8105574212
 10
8.7063146602
 20
23.7994336121
 10
8.7032347899
 20
23.78842936
 10
8.6994957389
 20
23.7775778202
 10
8.6951081945
 20
23.7669096972
 10
8.6900837955
 20
23.7564530239
 10
8.6844361149
 20
23.746236105
 10
8.6781804223
 20
23.7362866999
 10
8.6713338477
 20
23.7266321754
 10
8.6639152395
 20
23.7172991519
 10
8.6559449354
 20
23.7083132018
 10
8.6474446406
 20
23.6996987826
 10
8.6384375501
 20
23.6914794042
 10
8.6289482465
 20
23.6836775075
 10
8.6190026594
 20
23.6763144193
 10
8.6086279765
 20
23.6694102704
 10
8.5978525441
 20
23.6629839239
 10
8.5867057861
 20
23.6570529269
 10
8.575218149
 20
23.6516334796
 10
8.5634209923
 20
23.6467403776
 10
8.5513465559
 20
23.6423869945
 10
8.5390278763
 20
23.6385852371
 10
8.5264986409
 20
23.6353454907
 10
8.5137930381
 20
23.6326765842
 10
8.5009457173
 20
23.6305857918
 10
8.48799175
 20
23.6290788219
 10
8.4749665362
 20
23.6281597935
 10
8.4619056521
 20
23.6278312164
  0
LINE
  5
47F
100
AcDbEntity
  8
RACCORDO
100
AcDbLine
 62
250
  6
CONTINUOUS
 10
8.5697932081
 20
21.9272993467
 11
8.569274173
 21
21.9120206841
  0
LINE
  5
480
100
AcDbEntity
  8
RACCORDO
100
AcDbLine
 62
250
  6
CONTINUOUS
 10
9.0676779997
 20
21.405518091
 11
9.0668612534
 21
21.3819713066
  0
LINE
  5
481
100
AcDbEntity
  8
RACCORDO
100
AcDbLine
 62
250
  6
CONTINUOUS
 10
9.0683461873
 20
21.4225708347
 11
9.0676779997
 21
21.405518091
  0
LINE
  5
482
100
AcDbEntity
  8
RACCORDO
100
AcDbLine
 62
250
  6
CONTINUOUS
 10
9.0690262623
 20
21.4380047672
 11
9.0683461873
 21
21.4225708347
  0
LINE
  5
483
100
AcDbEntity
  8
RACCORDO
100
AcDbLine
 62
250
  6
CONTINUOUS
 10
9.0695434058
 20
21.44850156
 11
9.0690262623
 21
21.4380047672
  0
LWPOLYLINE
  5
484
100
AcDbEntity
  8
RACCORDO
100
AcDbPolyline
 62
250
  6
CONTINUOUS
 90
3
 70
0
 10
9.0702414151
 20
21.4610393872
 10
9.0700660528
 20
21.4580620636
 10
9.0695434058
 20
21.44850156
  0
LINE
  5
485
100
AcDbEntity
  8
RACCORDO
100
AcDbLine
 62
7
  6
CONTINUOUS
 10
6.325
 20
-22.4
 11
6.3322807489
 21
-22.3344140523
  0
LINE
  5
486
100
AcDbEntity
  8
RACCORDO
100
AcDbLine
 62
250
  6
CONTINUOUS
 10
-12.575
 20
-24.2500042308
 11
-12.5619014213
 21
-24.2369056521
  0
LINE
  5
487
100
AcDbEntity
  8
RACCORDO
100
AcDbLine
 62
250
  6
CONTINUOUS
 10
-12.3250042308
 20
-24.5
 11
-12.3119056521
 21
-24.4869014213
  0
LINE
  5
488
100
AcDbEntity
  8
RACCORDO
100
AcDbLine
 62
250
  6
CONTINUOUS
 10
-12.575
 20
24.2500042308
 11
-12.5619014213
 21
24.2369056521
  0
LINE
  5
489
100
AcDbEntity
  8
RACCORDO
100
AcDbLine
 62
250
  6
CONTINUOUS
 10
-12.3250042308
 20
24.5
 11
-12.3119056521
 21
24.4869014213
  0
LINE
  5
48A
100
AcDbEntity
  8
RACCORDO
100
AcDbLine
 62
7
  6
CONTINUOUS
 10
6.325
 20
22.4
 11
6.3322807489
 21
22.3344140523
  0
LWPOLYLINE
  5
48B
100
AcDbEntity
  8
RACCORDO
100
AcDbPolyline
 62
7
  6
CONTINUOUS
 90
25
 70
0
 10
9.2075805668
 20
21.949896513
 10
9.2070626101
 20
21.9713158792
 10
9.2055265756
 20
21.9926846521
 10
9.202976209
 20
22.0139544561
 10
9.1994175589
 20
22.0350769789
 10
9.1948589582
 20
22.0560046356
 10
9.1893109093
 20
22.076690656
 10
9.1827861473
 20
22.0970882896
 10
9.1752996084
 20
22.1171514287
 10
9.1668682432
 20
22.1368352214
 10
9.1575112231
 20
22.1560951882
 10
9.1472498122
 20
22.1748878112
 10
9.1361070889
 20
22.1931710662
 10
9.1241082822
 20
22.2109036264
 10
9.1112805589
 20
22.2280454064
 10
9.097652674
 20
22.2445580329
 10
9.083255419
 20
22.2604041417
 10
9.0681213285
 20
22.2755478708
 10
9.0522842706
 20
22.2899552587
 10
9.0357799955
 20
22.3035936405
 10
9.0186457679
 20
22.3164320858
 10
9.0009199034
 20
22.3284417216
 10
8.9826424111
 20
22.3395952301
 10
8.9638545551
 20
22.3498672256
 10
8.958667383
 20
22.35250266
  0
LWPOLYLINE
  5
48C
100
AcDbEntity
  8
RACCORDO
100
AcDbPolyline
 62
7
  6
CONTINUOUS
 90
25
 70
0
 10
9.2075791601
 20
-21.9498972163
 10
9.2070612314
 20
-21.9713165473
 10
9.2055252356
 20
-21.9926852973
 10
9.2029749158
 20
-22.0139550902
 10
9.1994163213
 20
-22.0350776194
 10
9.1948577787
 20
-22.0560052934
 10
9.189309781
 20
-22.0766913245
 10
9.1827850621
 20
-22.0970889558
 10
9.1752985625
 20
-22.1171520863
 10
9.1668672342
 20
-22.1368358669
 10
9.1575102495
 20
-22.1560958185
 10
9.1472488725
 20
-22.1748884228
 10
9.1361061822
 20
-22.1931716566
 10
9.1241074082
 20
-22.2109041931
 10
9.1112797173
 20
-22.2280459472
 10
9.097651865
 20
-22.2445585462
 10
9.0832546429
 20
-22.260404626
 10
9.0681205858
 20
-22.2755483249
 10
9.0522835622
 20
-22.2899556817
 10
9.0357793221
 20
-22.3035940319
 10
9.0186451305
 20
-22.3164324452
 10
9.0009193032
 20
-22.328442049
 10
8.9826418492
 20
-22.3395955256
 10
8.9638540328
 20
-22.3498674897
 10
8.9586670517
 20
-22.3525028256
  0
LINE
  5
48D
100
AcDbEntity
  8
RACCORDO
100
AcDbLine
 62
7
  6
CONTINUOUS
 10
-6.3220741618
 20
-23.7970741618
 11
-6.325
 21
-23.8
  0
LINE
  5
48E
100
AcDbEntity
  8
RACCORDO
100
AcDbLine
 62
7
  6
CONTINUOUS
 10
-6.3220741618
 20
23.7970741618
 11
-6.325
 21
23.8
  0
LWPOLYLINE
  5
48F
100
AcDbEntity
  8
0
100
AcDbPolyline
 62
7
  6
CONTINUOUS
 90
10
 70
0
 43
0.3500000087
 10
20.2907087646
 20
0.4285711273
 10
19.4335647659
 20
1.285715126
 10
18.5764228989
 20
1.499999527
 10
17.7192789001
 20
1.499999527
 10
17.2907079666
 20
1.0714285934
 10
17.2907079666
 20
0.4285711273
 10
17.7192789001
 20
0.0000001938
 10
18.5764228989
 20
0.0000001938
 10
19.0049938324
 20
0.4285711273
 10
19.0049938324
 20
1.3571425491
  0
LWPOLYLINE
  5
490
100
AcDbEntity
  8
0
100
AcDbPolyline
 62
7
  6
CONTINUOUS
 90
10
 70
0
 43
0.3500000087
 10
-0.8535714152
 20
34.3129451111
 10
-0.7821428596
 20
34.1700902649
 10
-0.7821428596
 20
34.0986585785
 10
-0.9249999707
 20
33.9558037323
 10
-0.9964285929
 20
33.9558037323
 10
-1.0678571484
 20
34.0272311554
 10
-1.0678571484
 20
34.0986585785
 10
-0.9964285929
 20
34.241517688
 10
-0.9249999707
 20
34.3129451111
 10
-0.8535714152
 20
34.3129451111
  0
LINE
  5
491
100
AcDbEntity
  8
RACCORDO
100
AcDbLine
 62
7
  6
CONTINUOUS
 10
-5.8930905905
 20
-23.6400757416
 11
-5.8220826234
 21
-23.5953423515
  0
LINE
  5
492
100
AcDbEntity
  8
RACCORDO
100
AcDbLine
 62
7
  6
CONTINUOUS
 10
-5.9215581838
 20
-23.6577812011
 11
-5.8930905905
 21
-23.6400757416
  0
LINE
  5
493
100
AcDbEntity
  8
RACCORDO
100
AcDbLine
 62
7
  6
CONTINUOUS
 10
-5.9499483201
 20
23.6751796798
 11
-5.9215581838
 21
23.6577812011
  0
LINE
  5
494
100
AcDbEntity
  8
RACCORDO
100
AcDbLine
 62
7
  6
CONTINUOUS
 10
-5.9215581838
 20
23.6577812011
 11
-5.8788388153
 21
23.6311538461
  0
LINE
  5
495
100
AcDbEntity
  8
RACCORDO
100
AcDbLine
 62
7
  6
CONTINUOUS
 10
-5.8788388153
 20
23.6311538461
 11
-5.8220826234
 21
23.5953423515
  0
LWPOLYLINE
  5
496
100
AcDbEntity
  8
0
100
AcDbPolyline
 62
7
  6
CONTINUOUS
 90
3
 70
0
 43
0.3500000087
 10
19.6478512985
 20
-0.8571438049
 10
19.6478512985
 20
-2.3571431381
 10
17.2907079666
 20
-1.714285672
  0
LWPOLYLINE
  5
497
100
AcDbEntity
  8
RACCORDO
100
AcDbPolyline
 62
250
  6
CONTINUOUS
 90
16
 70
0
 10
9.0576730391
 20
-20.5419058565
 10
9.0567090395
 20
-20.5428735536
 10
9.0546396881
 20
-20.5438391069
 10
9.0514695691
 20
-20.5448003773
 10
9.0472057054
 20
-20.5457552353
 10
9.0418575427
 20
-20.5467015656
 10
9.0354369289
 20
-20.5476372719
 10
9.0279580876
 20
-20.5485602812
 10
9.0194375868
 20
-20.5494685487
 10
9.0098943021
 20
-20.5503600625
 10
8.9993493748
 20
-20.5512328474
 10
8.9878261652
 20
-20.55208497
 10
8.9753502009
 20
-20.5529145426
 10
8.96194912
 20
-20.5537197274
 10
8.9476526101
 20
-20.5544987407
 10
8.9324923423
 20
-20.5552498567
  0
LINE
  5
498
100
AcDbEntity
  8
RACCORDO
100
AcDbLine
 62
250
  6
CONTINUOUS
 10
-12.6949727914
 20
20.5585310848
 11
-12.6552278804
 21
20.5595954387
  0
LINE
  5
499
100
AcDbEntity
  8
RACCORDO
100
AcDbLine
 62
250
  6
CONTINUOUS
 10
-12.6552278804
 20
20.5595954387
 11
-12.6132912138
 21
20.5605031277
  0
LINE
  5
49A
100
AcDbEntity
  8
RACCORDO
100
AcDbLine
 62
250
  6
CONTINUOUS
 10
-12.6132912138
 20
20.5605031277
 11
-12.5695341969
 21
20.5612461129
  0
LINE
  5
49B
100
AcDbEntity
  8
RACCORDO
100
AcDbLine
 62
250
  6
CONTINUOUS
 10
-12.5695341969
 20
20.5612461129
 11
-12.5013367965
 21
20.5620377905
  0
LINE
  5
49C
100
AcDbEntity
  8
RACCORDO
100
AcDbLine
 62
250
  6
CONTINUOUS
 10
-12.5013367965
 20
20.5620377905
 11
-12.4312762189
 21
20.5624286741
  0
LINE
  5
49D
100
AcDbEntity
  8
RACCORDO
100
AcDbLine
 62
250
  6
CONTINUOUS
 10
8.5812762192
 20
20.5624286744
 11
-12.4312762189
 21
20.5624286741
  0
LINE
  5
49E
100
AcDbEntity
  8
RACCORDO
100
AcDbLine
 62
250
  6
CONTINUOUS
 10
8.6513367978
 20
20.5620377909
 11
8.5812762192
 21
20.5624286744
  0
LINE
  5
49F
100
AcDbEntity
  8
RACCORDO
100
AcDbLine
 62
250
  6
CONTINUOUS
 10
8.7195341992
 20
20.5612461132
 11
8.6513367978
 21
20.5620377909
  0
LINE
  5
4A0
100
AcDbEntity
  8
RACCORDO
100
AcDbLine
 62
250
  6
CONTINUOUS
 10
8.7632912167
 20
20.560503128
 11
8.7195341992
 21
20.5612461132
  0
LINE
  5
4A1
100
AcDbEntity
  8
RACCORDO
100
AcDbLine
 62
250
  6
CONTINUOUS
 10
8.8052278839
 20
20.559595439
 11
8.7632912167
 21
20.560503128
  0
LINE
  5
4A2
100
AcDbEntity
  8
RACCORDO
100
AcDbLine
 62
250
  6
CONTINUOUS
 10
8.8449727954
 20
20.558531085
 11
8.8052278839
 21
20.559595439
  0
LINE
  5
4A3
100
AcDbEntity
  8
RACCORDO
100
AcDbLine
 62
250
  6
CONTINUOUS
 10
8.8821739566
 20
20.5573194923
 11
8.8449727954
 21
20.558531085
  0
LWPOLYLINE
  5
4A4
100
AcDbEntity
  8
RACCORDO
100
AcDbPolyline
 62
250
  6
CONTINUOUS
 90
18
 70
0
 10
9.0576730391
 20
20.5419058565
 10
9.0567090395
 20
20.5428735514
 10
9.0546396881
 20
20.5438391026
 10
9.0514695691
 20
20.544800371
 10
9.0472057054
 20
20.5457552272
 10
9.0418575427
 20
20.5467015558
 10
9.0354369288
 20
20.5476372604
 10
9.0279580875
 20
20.5485602682
 10
9.0194375867
 20
20.5494685344
 10
9.009894302
 20
20.5503600469
 10
8.9993493747
 20
20.5512328307
 10
8.9878261652
 20
20.5520849524
 10
8.9753502009
 20
20.5529145241
 10
8.96194912
 20
20.5537197083
 10
8.94765261
 20
20.5544987211
 10
8.9324923423
 20
20.5552498367
 10
8.9165019015
 20
20.5559713913
 10
8.8821739566
 20
20.5573194923
  0
LINE
  5
4A5
100
AcDbEntity
  8
RACCORDO
100
AcDbLine
 62
250
  6
CONTINUOUS
 10
6.325
 20
-24.2500042308
 11
6.3380985787
 21
-24.2369056521
  0
LINE
  5
4A6
100
AcDbEntity
  8
RACCORDO
100
AcDbLine
 62
250
  6
CONTINUOUS
 10
6.5749957692
 20
-24.5
 11
6.5880943479
 21
-24.4869014213
  0
LINE
  5
4A7
100
AcDbEntity
  8
RACCORDO
100
AcDbLine
 62
250
  6
CONTINUOUS
 10
-12.7824923374
 20
20.5552498366
 11
-12.7497167069
 21
20.5566617862
  0
LWPOLYLINE
  5
4A8
100
AcDbEntity
  8
RACCORDO
100
AcDbPolyline
 62
250
  6
CONTINUOUS
 90
3
 70
0
 10
-12.7497167069
 20
20.5566617862
 10
-12.7139124955
 20
20.5579430522
 10
-12.6949727914
 20
20.5585310848
  0
LINE
  5
4A9
100
AcDbEntity
  8
RACCORDO
100
AcDbLine
 62
250
  6
CONTINUOUS
 10
8.5742759622
 20
21.998725222
 11
-12.4242759622
 21
21.998725222
  0
LINE
  5
4AA
100
AcDbEntity
  8
RACCORDO
100
AcDbLine
 62
7
  6
CONTINUOUS
 10
8.4677234819
 20
22.3213883311
 11
6.5822765181
 21
22.3213883311
  0
LINE
  5
4AB
100
AcDbEntity
  8
RACCORDO
100
AcDbLine
 62
7
  6
CONTINUOUS
 10
-10.4322765181
 20
22.3213883311
 11
-12.3177234819
 21
22.3213883311
  0
LINE
  5
4AC
100
AcDbEntity
  8
RACCORDO
100
AcDbLine
 62
7
  6
CONTINUOUS
 10
-5.8220826234
 20
22.3475922207
 11
1.9720826234
 21
22.3475922207
  0
LINE
  5
4AD
100
AcDbEntity
  8
RACCORDO
100
AcDbLine
 62
7
  6
CONTINUOUS
 10
-12.607892023
 20
22.4
 11
-12.575
 21
22.4
  0
LINE
  5
4AE
100
AcDbEntity
  8
DRAFT
100
AcDbLine
 62
7
  6
CONTINUOUS
 10
-10.175
 20
22.4
 11
-6.325
 21
22.4
  0
LINE
  5
4AF
100
AcDbEntity
  8
DRAFT
100
AcDbLine
 62
7
  6
CONTINUOUS
 10
2.475
 20
22.4
 11
6.325
 21
22.4
  0
LINE
  5
4B0
100
AcDbEntity
  8
RACCORDO
100
AcDbLine
 62
7
  6
CONTINUOUS
 10
8.725
 20
22.4
 11
8.7578874748
 21
22.4
  0
LINE
  5
4B1
100
AcDbEntity
  8
RACCORDO
100
AcDbLine
 62
250
  6
CONTINUOUS
 10
6.325
 20
24.2500042308
 11
6.3380985787
 21
24.2369056521
  0
LINE
  5
4B2
100
AcDbEntity
  8
RACCORDO
100
AcDbLine
 62
250
  6
CONTINUOUS
 10
6.5749957692
 20
24.5
 11
6.5880943479
 21
24.4869014213
  0
LINE
  5
4B3
100
AcDbEntity
  8
RACCORDO
100
AcDbLine
 62
250
  6
CONTINUOUS
 10
9.2075791601
 20
-21.9498972163
 11
9.225
 21
-21.9411874598
  0
LINE
  5
4B4
100
AcDbEntity
  8
RACCORDO
100
AcDbLine
 62
7
  6
CONTINUOUS
 10
8.9586670529
 20
-22.3525028251
 11
8.9761653088
 21
-22.3437543634
  0
LWPOLYLINE
  5
4B5
100
AcDbEntity
  8
RACCORDO
100
AcDbPolyline
 62
7
  6
CONTINUOUS
 90
11
 70
0
 10
8.9586670517
 20
-22.3525028256
 10
8.9445978633
 20
-22.359234736
 10
8.9249168264
 20
-22.3676758378
 10
8.9048553757
 20
-22.375171463
 10
8.8844583804
 20
-22.3817045428
 10
8.8637805794
 20
-22.3872578746
 10
8.8428602952
 20
-22.3918214941
 10
8.8217179399
 20
-22.3953886342
 10
8.8003918024
 20
-22.3979479162
 10
8.7789388646
 20
-22.3994876122
 10
8.7574078424
 20
-22.4
  0
LWPOLYLINE
  5
4B6
100
AcDbEntity
  8
RACCORDO
100
AcDbPolyline
 62
7
  6
CONTINUOUS
 90
23
 70
0
 10
2.3712073137
 20
23.7953389668
 10
2.3604181903
 20
23.7947915649
 10
2.3493307281
 20
23.793363895
 10
2.3379449272
 20
23.7911364879
 10
2.3262361469
 20
23.7881978965
 10
2.314229028
 20
23.7846238716
 10
2.301997492
 20
23.7804595132
 10
2.2895487518
 20
23.7757643703
 10
2.2768755946
 20
23.7706018097
 10
2.2640303044
 20
23.7649953104
 10
2.2510171723
 20
23.758990232
 10
2.2378319072
 20
23.7526365647
 10
2.2245139203
 20
23.7459460582
 10
2.2110654333
 20
23.7389542831
 10
2.1974842244
 20
23.7317013921
 10
2.1838030396
 20
23.724193673
 10
2.1700229279
 20
23.7164601879
 10
2.1561428402
 20
23.708533951
 10
2.1421923756
 20
23.7004191901
 10
2.128171775
 20
23.6921405291
 10
2.1140807976
 20
23.6837259593
 10
2.0999483201
 20
23.6751796798
 10
2.0715581838
 20
23.6577812011
  0
LWPOLYLINE
  5
4B7
100
AcDbEntity
  8
RACCORDO
100
AcDbPolyline
 62
250
  6
CONTINUOUS
 90
31
 70
0
 10
6.5880943479
 20
24.4869014213
 10
6.575042008
 20
24.4865600141
 10
6.5620171136
 20
24.4855367515
 10
6.549055339
 20
24.4838331472
 10
6.5361896202
 20
24.4814520171
 10
6.5234581551
 20
24.4783989037
 10
6.5109039705
 20
24.474683464
 10
6.4985641666
 20
24.4703169129
 10
6.4864698104
 20
24.465310483
 10
6.4746537322
 20
24.4596777344
 10
6.4631481318
 20
24.4534339327
 10
6.4519848134
 20
24.4465962509
 10
6.4411947342
 20
24.4391836209
 10
6.4308076083
 20
24.4312164786
 10
6.4208517711
 20
24.4227165817
 10
6.4113544367
 20
24.4137071599
 10
6.4023416176
 20
24.4042128667
 10
6.3938380761
 20
24.3942597633
 10
6.3858671679
 20
24.383875174
 10
6.378450761
 20
24.3730875837
 10
6.3716091852
 20
24.3619265577
 10
6.3653612061
 20
24.3504227019
 10
6.3597239578
 20
24.3386075563
 10
6.3547129023
 20
24.3265135191
 10
6.3503417872
 20
24.314173763
 10
6.3466225977
 20
24.3016221155
 10
6.3435655366
 20
24.2888930016
 10
6.3411789939
 20
24.2760213619
 10
6.3394695107
 20
24.2630425045
 10
6.3384417677
 20
24.2499920062
 10
6.3380985787
 20
24.2369056521
  0
LWPOLYLINE
  5
4B8
100
AcDbEntity
  8
RACCORDO
100
AcDbPolyline
 62
7
  6
CONTINUOUS
 90
34
 70
0
 10
6.5749957692
 20
24.5
 10
6.563100484
 20
24.4997168498
 10
6.5512321444
 20
24.4988680342
 10
6.5394176339
 20
24.4974554741
 10
6.5276837125
 20
24.4954823677
 10
6.5160569612
 20
24.4929531817
 10
6.504563721
 20
24.4898736417
 10
6.4932300262
 20
24.4862507213
 10
6.4820815507
 20
24.4820926258
 10
6.4711435537
 20
24.4774087722
 10
6.4604408124
 20
24.4722097688
 10
6.4499975717
 20
24.4665073916
 10
6.4398374941
 20
24.4603145581
 10
6.4299835949
 20
24.4536452955
 10
6.4204581962
 20
24.4465147107
 10
6.4112828809
 20
24.4389389589
 10
6.4024784339
 20
24.4309352005
 10
6.3940647995
 20
24.4225215661
 10
6.3860610411
 20
24.4137171191
 10
6.3784852893
 20
24.4045418038
 10
6.3713547045
 20
24.3950164051
 10
6.3646854419
 20
24.3851625059
 10
6.3584926084
 20
24.3750024283
 10
6.3527902312
 20
24.3645591876
 10
6.3475912278
 20
24.3538564463
 10
6.3429073742
 20
24.3429184493
 10
6.3387492787
 20
24.3317699738
 10
6.3351263583
 20
24.320436279
 10
6.3320468183
 20
24.3089430388
 10
6.3295176323
 20
24.2973162875
 10
6.3275445259
 20
24.2855823661
 10
6.3261319658
 20
24.2737678556
 10
6.3252831502
 20
24.261899516
 10
6.325
 20
24.2500042308
  0
LINE
  5
4B9
100
AcDbEntity
  8
RACCORDO
100
AcDbLine
 62
7
  6
CONTINUOUS
 10
8.4669962532
 20
23.1226497308
 11
6.5830037468
 21
23.1226497308
  0
LINE
  5
4BA
100
AcDbEntity
  8
RACCORDO
100
AcDbLine
 62
7
  6
CONTINUOUS
 10
-10.4330037468
 20
23.1226497308
 11
-12.3169962532
 21
23.1226497308
  0
LINE
  5
4BB
100
AcDbEntity
  8
RACCORDO
100
AcDbLine
 62
250
  6
CONTINUOUS
 10
1.9720826234
 20
23.5953423515
 11
-5.8220826234
 21
23.5953423515
  0
LINE
  5
4BC
100
AcDbEntity
  8
RACCORDO
100
AcDbLine
 62
250
  6
CONTINUOUS
 10
-12.3119056521
 20
23.6278312164
 11
-10.4380943479
 21
23.6278312164
  0
LINE
  5
4BD
100
AcDbEntity
  8
RACCORDO
100
AcDbLine
 62
250
  6
CONTINUOUS
 10
6.5880943479
 20
23.6278312164
 11
8.4619056521
 21
23.6278312164
  0
LINE
  5
4BE
100
AcDbEntity
  8
RACCORDO
100
AcDbLine
 62
250
  6
CONTINUOUS
 10
2.3712073137
 20
23.7953389668
 11
-6.2212073137
 21
23.7953389668
  0
LINE
  5
4BF
100
AcDbEntity
  8
DRAFT
100
AcDbLine
 62
7
  6
CONTINUOUS
 10
-6.325
 20
23.8
 11
2.475
 21
23.8
  0
LINE
  5
4C0
100
AcDbEntity
  8
RACCORDO
100
AcDbLine
 62
250
  6
CONTINUOUS
 10
6.3380985787
 20
23.8443375673
 11
8.7119014213
 21
23.8443375673
  0
LINE
  5
4C1
100
AcDbEntity
  8
RACCORDO
100
AcDbLine
 62
250
  6
CONTINUOUS
 10
-10.1880985787
 20
23.8443375673
 11
-12.5619014213
 21
23.8443375673
  0
LINE
  5
4C2
100
AcDbEntity
  8
RACCORDO
100
AcDbLine
 62
250
  6
CONTINUOUS
 10
6.3380985787
 20
24.2369056521
 11
8.7119014213
 21
24.2369056521
  0
LINE
  5
4C3
100
AcDbEntity
  8
RACCORDO
100
AcDbLine
 62
250
  6
CONTINUOUS
 10
-10.1880985787
 20
24.2369056521
 11
-12.5619014213
 21
24.2369056521
  0
LINE
  5
4C4
100
AcDbEntity
  8
RACCORDO
100
AcDbLine
 62
250
  6
CONTINUOUS
 10
8.4619056521
 20
24.4869014213
 11
6.5880943479
 21
24.4869014213
  0
LINE
  5
4C5
100
AcDbEntity
  8
RACCORDO
100
AcDbLine
 62
250
  6
CONTINUOUS
 10
-10.4380943479
 20
24.4869014213
 11
-12.3119056521
 21
24.4869014213
  0
LINE
  5
4C6
100
AcDbEntity
  8
RACCORDO
100
AcDbLine
 62
7
  6
CONTINUOUS
 10
-12.3250042308
 20
24.5
 11
-10.4249957692
 21
24.5
  0
LINE
  5
4C7
100
AcDbEntity
  8
RACCORDO
100
AcDbLine
 62
7
  6
CONTINUOUS
 10
6.5749957692
 20
24.5
 11
8.4750042308
 21
24.5
  0
LWPOLYLINE
  5
4C8
100
AcDbEntity
  8
RACCORDO
100
AcDbPolyline
 62
7
  6
CONTINUOUS
 90
22
 70
0
 10
-6.2212073137
 20
23.7953389668
 10
-6.2104181903
 20
23.7947915649
 10
-6.1993307281
 20
23.793363895
 10
-6.1879449272
 20
23.7911364879
 10
-6.1762361469
 20
23.7881978965
 10
-6.164229028
 20
23.7846238716
 10
-6.151997492
 20
23.7804595132
 10
-6.1395487518
 20
23.7757643703
 10
-6.1268755946
 20
23.7706018097
 10
-6.1140303044
 20
23.7649953104
 10
-6.1010171723
 20
23.758990232
 10
-6.0878319072
 20
23.7526365647
 10
-6.0745139203
 20
23.7459460582
 10
-6.0610654333
 20
23.7389542831
 10
-6.0474842244
 20
23.7317013921
 10
-6.0338030396
 20
23.724193673
 10
-6.0200229279
 20
23.7164601879
 10
-6.0061428402
 20
23.708533951
 10
-5.9921923756
 20
23.7004191901
 10
-5.978171775
 20
23.6921405291
 10
-5.9640807976
 20
23.6837259593
 10
-5.9499483201
 20
23.6751796798
  0
LWPOLYLINE
  5
4C9
100
AcDbEntity
  8
RACCORDO
100
AcDbPolyline
 62
7
  6
CONTINUOUS
 90
11
 70
0
 10
8.958667383
 20
22.35250266
 10
8.9445983443
 20
22.3592345029
 10
8.9249172646
 20
22.367675635
 10
8.9048557694
 20
22.3751712897
 10
8.8844587271
 20
22.3817043981
 10
8.8637808768
 20
22.3872577575
 10
8.8428605409
 20
22.3918214033
 10
8.8217181301
 20
22.3953885686
 10
8.8003919328
 20
22.3979478745
 10
8.7789389315
 20
22.3994875925
 10
8.7574078424
 20
22.4
  0
LINE
  5
4CA
100
AcDbEntity
  8
RACCORDO
100
AcDbLine
 62
250
  6
CONTINUOUS
 10
9.225
 20
21.9411874598
 11
9.2075792813
 21
21.9498971557
  0
LINE
  5
4CB
100
AcDbEntity
  8
RACCORDO
100
AcDbLine
 62
7
  6
CONTINUOUS
 10
8.9761653088
 20
22.3437543634
 11
8.9586673841
 21
22.3525026595
  0
LWPOLYLINE
  5
4CC
100
AcDbEntity
  8
RACCORDO
100
AcDbPolyline
 62
250
  6
CONTINUOUS
 90
31
 70
0
 10
-12.3119056521
 20
24.4869014213
 10
-12.3249920062
 20
24.4865582323
 10
-12.3380425045
 20
24.4855304893
 10
-12.3510213619
 20
24.4838210061
 10
-12.3638930016
 20
24.4814344634
 10
-12.3766221155
 20
24.4783774023
 10
-12.389173763
 20
24.4746582128
 10
-12.4015135191
 20
24.4702870977
 10
-12.4136075563
 20
24.4652760422
 10
-12.4254227019
 20
24.4596387939
 10
-12.4369265577
 20
24.4533908148
 10
-12.4480875837
 20
24.446549239
 10
-12.458875174
 20
24.4391328321
 10
-12.4692597633
 20
24.4311619239
 10
-12.4792128667
 20
24.4226583824
 10
-12.4887071599
 20
24.4136455633
 10
-12.4977165817
 20
24.4041482289
 10
-12.5062164786
 20
24.3941923917
 10
-12.5141836209
 20
24.3838052658
 10
-12.5215962509
 20
24.3730151866
 10
-12.5284339327
 20
24.3618518682
 10
-12.5346777344
 20
24.3503462678
 10
-12.540310483
 20
24.3385301896
 10
-12.5453169129
 20
24.3264358334
 10
-12.549683464
 20
24.3140960295
 10
-12.5533989037
 20
24.3015418449
 10
-12.5564520171
 20
24.2888103798
 10
-12.5588331472
 20
24.275944661
 10
-12.5605367515
 20
24.2629828864
 10
-12.5615600141
 20
24.249957992
 10
-12.5619014213
 20
24.2369056521
  0
LWPOLYLINE
  5
4CD
100
AcDbEntity
  8
RACCORDO
100
AcDbPolyline
 62
7
  6
CONTINUOUS
 90
34
 70
0
 10
-12.3250042308
 20
24.5
 10
-12.336899516
 20
24.4997168498
 10
-12.3487678556
 20
24.4988680342
 10
-12.3605823661
 20
24.4974554741
 10
-12.3723162875
 20
24.4954823677
 10
-12.3839430388
 20
24.4929531817
 10
-12.395436279
 20
24.4898736417
 10
-12.4067699738
 20
24.4862507213
 10
-12.4179184493
 20
24.4820926258
 10
-12.4288564463
 20
24.4774087722
 10
-12.4395591876
 20
24.4722097688
 10
-12.4500024283
 20
24.4665073916
 10
-12.4601625059
 20
24.4603145581
 10
-12.4700164051
 20
24.4536452955
 10
-12.4795418038
 20
24.4465147107
 10
-12.4887171191
 20
24.4389389589
 10
-12.4975215661
 20
24.4309352005
 10
-12.5059352005
 20
24.4225215661
 10
-12.5139389589
 20
24.4137171191
 10
-12.5215147107
 20
24.4045418038
 10
-12.5286452955
 20
24.3950164051
 10
-12.5353145581
 20
24.3851625059
 10
-12.5415073916
 20
24.3750024283
 10
-12.5472097688
 20
24.3645591876
 10
-12.5524087722
 20
24.3538564463
 10
-12.5570926258
 20
24.3429184493
 10
-12.5612507213
 20
24.3317699738
 10
-12.5648736417
 20
24.320436279
 10
-12.5679531817
 20
24.3089430388
 10
-12.5704823677
 20
24.2973162875
 10
-12.5724554741
 20
24.2855823661
 10
-12.5738680342
 20
24.2737678556
 10
-12.5747168498
 20
24.261899516
 10
-12.575
 20
24.2500042308
  0
LWPOLYLINE
  5
4CE
100
AcDbEntity
  8
0
100
AcDbPolyline
 62
7
  6
CONTINUOUS
 90
6
 70
0
 43
0.3500000087
 10
0.217857151
 20
33.8129446228
 10
1.2892857172
 20
33.8129446228
 10
1.5035714504
 20
34.0272311554
 10
1.5035714504
 20
35.0986595551
 10
1.074999984
 20
35.5272326202
 10
0.6464285841
 20
35.5272326202
  0
LWPOLYLINE
  5
4CF
100
AcDbEntity
  8
0
100
AcDbPolyline
 62
7
  6
CONTINUOUS
 90
7
 70
0
 43
0.3500000087
 10
-2.3535714811
 20
33.8129446228
 10
-3.8535713472
 20
33.8129446228
 10
-2.3535714811
 20
35.9558014221
 10
-2.3535714811
 20
36.3843744873
 10
-2.7821429476
 20
36.8129475525
 10
-3.4249998808
 20
36.8129475525
 10
-3.8535713472
 20
36.1700879547
  0
LWPOLYLINE
  5
4D0
100
AcDbEntity
  8
0
100
AcDbPolyline
 62
7
  6
CONTINUOUS
 90
7
 70
0
 43
0.3500000087
 10
-4.7107145466
 20
33.8129446228
 10
-6.2107144127
 20
33.8129446228
 10
-4.7107145466
 20
35.9558014221
 10
-4.7107145466
 20
36.3843744873
 10
-5.1392854801
 20
36.8129475525
 10
-5.7821429462
 20
36.8129475525
 10
-6.2107144127
 20
36.1700879547
  0
LWPOLYLINE
  5
4D1
100
AcDbEntity
  8
0
100
AcDbPolyline
 62
7
  6
CONTINUOUS
 90
5
 70
0
 43
0.3500000087
 10
-48.5777333191
 20
45.4382288269
 10
-48.2205919403
 20
45.6525153595
 10
-48.2205919403
 20
46.295370694
 10
-48.5777333191
 20
46.7239437592
 10
-49.4348751862
 20
46.7239437592
  0
LWPOLYLINE
  5
4D2
100
AcDbEntity
  8
0
100
AcDbPolyline
 62
7
  6
CONTINUOUS
 90
3
 70
0
 43
0.3500000087
 10
-45.5777346527
 20
45.8668018921
 10
-44.7205885223
 20
46.7239437592
 10
-44.7205885223
 20
43.7239450928
  0
LWPOLYLINE
  5
4D3
100
AcDbEntity
  8
0
100
AcDbPolyline
 62
7
  6
CONTINUOUS
 90
5
 70
0
 43
0.3500000087
 10
-46.0063034546
 20
35.4442729553
 10
-45.6491620758
 20
35.6585594879
 10
-45.6491620758
 20
36.3014148224
 10
-46.0063034546
 20
36.7299878876
 10
-46.863449585
 20
36.7299878876
  0
LWPOLYLINE
  5
4D4
100
AcDbEntity
  8
RACCORDO
100
AcDbPolyline
 62
7
  6
CONTINUOUS
 90
3
 70
0
 10
-61.3763825986
 20
23.123528707
 10
-61.377393969
 20
23.1229033082
 10
-61.3777334734
 20
23.1226497308
  0
LINE
  5
4D5
100
AcDbEntity
  8
RACCORDO
100
AcDbLine
 62
7
  6
CONTINUOUS
 10
-61.3694394755
 20
23.1276610792
 11
-61.3763825986
 21
23.123528707
  0
LINE
  5
4D6
100
AcDbEntity
  8
RACCORDO
100
AcDbLine
 62
7
  6
CONTINUOUS
 10
-61.3185590238
 20
23.1573625195
 11
-61.3694394755
 21
23.1276610792
  0
LINE
  5
4D7
100
AcDbEntity
  8
RACCORDO
100
AcDbLine
 62
250
  6
CONTINUOUS
 10
-59.8777334734
 20
23.4104851482
 11
-59.1262790406
 21
23.8443375673
  0
LINE
  5
4D8
100
AcDbEntity
  8
RACCORDO
100
AcDbLine
 62
7
  6
CONTINUOUS
 10
-61.1291879063
 20
23.2669872981
 11
-61.3185590238
 21
23.1573625195
  0
LINE
  5
4D9
100
AcDbEntity
  8
RACCORDO
100
AcDbLine
 62
250
  6
CONTINUOUS
 10
-59.1262790406
 20
-23.8443375673
 11
-59.8777334734
 21
-23.4104851482
  0
LINE
  5
4DA
100
AcDbEntity
  8
RACCORDO
100
AcDbLine
 62
7
  6
CONTINUOUS
 10
-61.1291879063
 20
-23.2669872981
 11
-61.2755775627
 21
-23.182312533
  0
LINE
  5
4DB
100
AcDbEntity
  8
RACCORDO
100
AcDbLine
 62
7
  6
CONTINUOUS
 10
-61.2755775627
 20
-23.182312533
 11
-61.3618034096
 21
-23.1321470947
  0
LINE
  5
4DC
100
AcDbEntity
  8
RACCORDO
100
AcDbLine
 62
7
  6
CONTINUOUS
 10
-61.3618034096
 20
-23.1321470947
 11
-61.372411094
 21
-23.1259025536
  0
LWPOLYLINE
  5
4DD
100
AcDbEntity
  8
RACCORDO
100
AcDbPolyline
 62
7
  6
CONTINUOUS
 90
5
 70
0
 10
-61.372411094
 20
-23.1259025536
 10
-61.3747272185
 20
-23.1245164325
 10
-61.3763901028
 20
-23.1234933505
 10
-61.3773961362
 20
-23.1228641607
 10
-61.3777334734
 20
-23.1226497308
  0
LWPOLYLINE
  5
4DE
100
AcDbEntity
  8
RACCORDO
100
AcDbPolyline
 62
250
  6
CONTINUOUS
 90
5
 70
0
 10
-62.250237871
 20
23.6326765842
 10
-62.251370247
 20
23.6305857918
 10
-62.2521649325
 20
23.6290788219
 10
-62.2526197553
 20
23.6281597935
 10
-62.2527334734
 20
23.6278312164
  0
LINE
  5
4DF
100
AcDbEntity
  8
RACCORDO
100
AcDbLine
 62
250
  6
CONTINUOUS
 10
-62.2469733206
 20
23.6385852371
 11
-62.250237871
 21
23.6326765842
  0
LINE
  5
4E0
100
AcDbEntity
  8
RACCORDO
100
AcDbLine
 62
250
  6
CONTINUOUS
 10
-62.2396504632
 20
23.6516334796
 11
-62.2469733206
 21
23.6385852371
  0
LINE
  5
4E1
100
AcDbEntity
  8
RACCORDO
100
AcDbLine
 62
250
  6
CONTINUOUS
 10
-62.2170132076
 20
23.6914794042
 11
-62.2396504632
 21
23.6516334796
  0
LINE
  5
4E2
100
AcDbEntity
  8
RACCORDO
100
AcDbLine
 62
250
  6
CONTINUOUS
 10
-62.1422093425
 20
23.821769291
 11
-62.2170132076
 21
23.6914794042
  0
LINE
  5
4E3
100
AcDbEntity
  8
RACCORDO
100
AcDbLine
 62
250
  6
CONTINUOUS
 10
-62.1291879063
 20
23.8443375673
 11
-62.1422093425
 21
23.821769291
  0
LINE
  5
4E4
100
AcDbEntity
  8
RACCORDO
100
AcDbLine
 62
7
  6
CONTINUOUS
 10
-59.8777334734
 20
23.1226497308
 11
-59.0027334734
 21
23.6278312164
  0
LINE
  5
4E5
100
AcDbEntity
  8
RACCORDO
100
AcDbLine
 62
7
  6
CONTINUOUS
 10
-59.1262790406
 20
-24.495628166
 11
-59.8777334734
 21
-24.5
  0
LINE
  5
4E6
100
AcDbEntity
  8
RACCORDO
100
AcDbLine
 62
250
  6
CONTINUOUS
 10
-59.1262790406
 20
-24.2456323968
 11
-59.8777334734
 21
-24.2500042308
  0
LINE
  5
4E7
100
AcDbEntity
  8
RACCORDO
100
AcDbLine
 62
250
  6
CONTINUOUS
 10
-58.8777334734
 20
-24.2456323968
 11
-59.1262790406
 21
-24.2456323968
  0
LINE
  5
4E8
100
AcDbEntity
  8
RACCORDO
100
AcDbLine
 62
250
  6
CONTINUOUS
 10
-62.3777334734
 20
-24.2369056521
 11
-62.1291879063
 21
-24.2369056521
  0
LINE
  5
4E9
100
AcDbEntity
  8
RACCORDO
100
AcDbLine
 62
7
  6
CONTINUOUS
 10
-59.8777334734
 20
-24.5
 11
-62.1291879063
 21
-24.4869014213
  0
LINE
  5
4EA
100
AcDbEntity
  8
RACCORDO
100
AcDbLine
 62
250
  6
CONTINUOUS
 10
-59.8777334734
 20
-24.2500042308
 11
-62.1291879063
 21
-24.2369056521
  0
LINE
  5
4EB
100
AcDbEntity
  8
RACCORDO
100
AcDbLine
 62
7
  6
CONTINUOUS
 10
-59.0027334734
 20
-23.6278312164
 11
-59.8777334734
 21
-23.1226497308
  0
LINE
  5
4EC
100
AcDbEntity
  8
RACCORDO
100
AcDbLine
 62
250
  6
CONTINUOUS
 10
-62.1291879063
 20
-23.8443375673
 11
-62.1913869117
 21
-23.7362657898
  0
LINE
  5
4ED
100
AcDbEntity
  8
RACCORDO
100
AcDbLine
 62
250
  6
CONTINUOUS
 10
-62.1913869117
 20
-23.7362657898
 11
-62.2332329799
 21
-23.6629768418
  0
LINE
  5
4EE
100
AcDbEntity
  8
RACCORDO
100
AcDbLine
 62
250
  6
CONTINUOUS
 10
-62.2332329799
 20
-23.6629768418
 11
-62.2448516315
 21
-23.6423841576
  0
LWPOLYLINE
  5
4EF
100
AcDbEntity
  8
RACCORDO
100
AcDbPolyline
 62
250
  6
CONTINUOUS
 90
7
 70
0
 10
-62.2448516315
 20
-23.6423841576
 10
-62.2487716889
 20
-23.6353440559
 10
-62.2502383764
 20
-23.6326756587
 10
-62.2513705288
 20
-23.6305852658
 10
-62.2521650542
 20
-23.6290785857
 10
-62.252619783
 20
-23.6281597328
 10
-62.2527334734
 20
-23.6278312164
  0
LINE
  5
4F0
100
AcDbEntity
  8
RACCORDO
100
AcDbLine
 62
7
  6
CONTINUOUS
 10
-49.8690069379
 20
-22.3126551668
 11
-59.8777334734
 21
-22.4
  0
LINE
  5
4F1
100
AcDbEntity
  8
RACCORDO
100
AcDbLine
 62
250
  6
CONTINUOUS
 10
-59.8757727214
 20
-21.9498972163
 11
-58.8777334734
 21
-21.9411874598
  0
LINE
  5
4F2
100
AcDbEntity
  8
ASSI
100
AcDbLine
 62
7
  6
CONTINUOUS
 10
-58.8828248418
 20
-23.7942117909
 11
-52.3748246078
 21
-23.7563493531
  0
LINE
  5
4F3
100
AcDbEntity
  8
RACCORDO
100
AcDbLine
 62
250
  6
CONTINUOUS
 10
-62.3777334734
 20
-23.8443375673
 11
-62.1291879063
 21
-23.8443375673
  0
LINE
  5
4F4
100
AcDbEntity
  8
RACCORDO
100
AcDbLine
 62
250
  6
CONTINUOUS
 10
-58.8777334734
 20
-23.8443375673
 11
-59.1262790406
 21
-23.8443375673
  0
LINE
  5
4F5
100
AcDbEntity
  8
RACCORDO
100
AcDbLine
 62
7
  6
CONTINUOUS
 10
-67.5345123623
 20
-21.998725222
 11
-59.8777334734
 21
-22.4
  0
LWPOLYLINE
  5
4F6
100
AcDbEntity
  8
RACCORDO
100
AcDbPolyline
 62
250
  6
CONTINUOUS
 90
4
 70
0
 10
-61.5856182945
 20
-21.8601540163
 10
-60.7350419136
 20
-21.9050695018
 10
-60.3066164479
 20
-21.9275206231
 10
-59.8757727214
 20
-21.9498972163
  0
LWPOLYLINE
  5
4F7
100
AcDbEntity
  8
RACCORDO
100
AcDbPolyline
 62
250
  6
CONTINUOUS
 90
8
 70
0
 10
-67.5170705874
 20
-21.4994104546
 10
-67.269418178
 20
-21.5125898514
 10
-67.0137359197
 20
-21.5268028535
 10
-66.7413294522
 20
-21.5425051129
 10
-66.4512461203
 20
-21.5597732587
 10
-66.1444385791
 20
-21.5785306618
 10
-65.823764794
 20
-21.5985474353
 10
-65.4892294311
 20
-21.6199132252
  0
LWPOLYLINE
  5
4F8
100
AcDbEntity
  8
RACCORDO
100
AcDbPolyline
 62
250
  6
CONTINUOUS
 90
9
 70
0
 10
-65.4892294311
 20
-21.6199132252
 10
-64.4109620492
 20
-21.6901519346
 10
-64.0294978809
 20
-21.7151403235
 10
-63.6398425929
 20
-21.7401456581
 10
-63.2419958502
 20
-21.7651609042
 10
-62.8359579876
 20
-21.790193096
 10
-62.424561167
 20
-21.8145197364
 10
-62.0077692098
 20
-21.837689652
 10
-61.5856182945
 20
-21.8601540163
  0
LWPOLYLINE
  5
4F9
100
AcDbEntity
  8
RACCORDO
100
AcDbPolyline
 62
250
  6
CONTINUOUS
 90
139
 70
0
 10
-68.4638886431
 20
-20.5419058565
 10
-68.4633910408
 20
-20.5526009072
 10
-68.462779165
 20
-20.5632875846
 10
-68.4620530157
 20
-20.5739658886
 10
-68.4612124838
 20
-20.5846370427
 10
-68.4602576784
 20
-20.5952998235
 10
-68.4591889272
 20
-20.6059505611
 10
-68.4580061906
 20
-20.6165892515
 10
-68.4567095081
 20
-20.6272158987
 10
-68.4552993257
 20
-20.6378268452
 10
-68.4537756042
 20
-20.6484220857
 10
-68.4521383828
 20
-20.6590016255
 10
-68.4503882248
 20
-20.6695618236
 10
-68.4485250912
 20
-20.6801026732
 10
-68.4465490212
 20
-20.690624181
 10
-68.4444606952
 20
-20.7011227261
 10
-68.4422600759
 20
-20.7115982955
 10
-68.4399472008
 20
-20.7220509021
 10
-68.4375228626
 20
-20.7324769637
 10
-68.4349870236
 20
-20.7428764711
 10
-68.4323397215
 20
-20.7532494334
 10
-68.429581863
 20
-20.7635922956
 10
-68.4267134088
 20
-20.7739050518
 10
-68.4237343981
 20
-20.784187708
 10
-68.4206458546
 20
-20.7944367265
 10
-68.4174477404
 20
-20.8046520959
 10
-68.4141400934
 20
-20.8148338275
 10
-68.4107240507
 20
-20.8249784184
 10
-68.4071995749
 20
-20.8350858556
 10
-68.4035667034
 20
-20.845156152
 10
-68.3998266858
 20
-20.8551858426
 10
-68.395979485
 20
-20.8651749133
 10
-68.392025138
 20
-20.8751233783
 10
-68.3879650052
 20
-20.8850278148
 10
-68.3837990509
 20
-20.8948882059
 10
-68.3795273107
 20
-20.9047045686
 10
-68.375151252
 20
-20.9144735307
 10
-68.3706708399
 20
-20.9241950744
 10
-68.3660861093
 20
-20.9338692176
 10
-68.3613986325
 20
-20.9434926414
 10
-68.3566083741
 20
-20.9530653293
 10
-68.3517153694
 20
-20.9625872979
 10
-68.3467212969
 20
-20.9720552784
 10
-68.3416261213
 20
-20.9814692539
 10
-68.3364298779
 20
-20.9908292413
 10
-68.3311343516
 20
-21.0001320228
 10
-68.3257395076
 20
-21.0093775798
 10
-68.3202453808
 20
-21.0185659308
 10
-68.3146538604
 20
-21.0276939139
 10
-68.308964913
 20
-21.0367615081
 10
-68.3031785722
 20
-21.0457687344
 10
-68.2972968281
 20
-21.0547124931
 10
-68.2913196481
 20
-21.0635927621
 10
-68.2852470648
 20
-21.0724095636
 10
-68.2790811665
 20
-21.0811598649
 10
-68.2728219213
 20
-21.0898436427
 10
-68.266469361
 20
-21.0984609205
 10
-68.2600256695
 20
-21.107008735
 10
-68.2534908179
 20
-21.1154870596
 10
-68.2468648352
 20
-21.1238959209
 10
-68.2401499919
 20
-21.1322324363
 10
-68.2333462566
 20
-21.1404965825
 10
-68.2264536608
 20
-21.1486883827
 10
-68.2194745697
 20
-21.1568050235
 10
-68.2124089518
 20
-21.1648464811
 10
-68.2052568386
 20
-21.1728127794
 10
-68.1980206898
 20
-21.1807011765
 10
-68.1907004763
 20
-21.1885116456
 10
-68.183296227
 20
-21.1962442135
 10
-68.1758104889
 20
-21.2038962189
 10
-68.1682432337
 20
-21.2114676339
 10
-68.1605944897
 20
-21.2189584863
 10
-68.1528668883
 20
-21.2263661979
 10
-68.1450604023
 20
-21.23369074
 10
-68.1371750589
 20
-21.2409321413
 10
-68.1292135717
 20
-21.2480879094
 10
-68.121175917
 20
-21.2551580126
 10
-68.1130621184
 20
-21.2621424826
 10
-68.1048749601
 20
-21.2690389222
 10
-68.0966144176
 20
-21.275847301
 10
-68.0882805154
 20
-21.2825676493
 10
-68.0798761112
 20
-21.2891976615
 10
-68.0714011776
 20
-21.2957373089
 10
-68.062855742
 20
-21.3021866201
 10
-68.0542427433
 20
-21.3085433754
 10
-68.0455621581
 20
-21.3148075428
 10
-68.0368140099
 20
-21.3209791544
 10
-68.0280013081
 20
-21.3270560855
 10
-68.0191240306
 20
-21.3330383036
 10
-68.0101821997
 20
-21.3389258413
 10
-68.0011788907
 20
-21.3447166728
 10
-67.9921140828
 20
-21.3504107646
 10
-67.982987797
 20
-21.3560081501
 10
-67.973803172
 20
-21.3615069037
 10
-67.9645601888
 20
-21.366906991
 10
-67.9552588665
 20
-21.3722084463
 10
-67.9459024015
 20
-21.3774094474
 10
-67.9364907757
 20
-21.3825099594
 10
-67.9270240072
 20
-21.3875100173
 10
-67.9175053459
 20
-21.3924079037
 10
-67.9079347732
 20
-21.3972035841
 10
-67.8983123077
 20
-21.4018970931
 10
-67.8886412555
 20
-21.4064868171
 10
-67.8789215991
 20
-21.4109727207
 10
-67.8691533559
 20
-21.4153548393
 10
-67.8593398841
 20
-21.4196316655
 10
-67.8494811675
 20
-21.423803163
 10
-67.8395772224
 20
-21.427869368
 10
-67.8296314553
 20
-21.431828881
 10
-67.8196438519
 20
-21.4356816652
 10
-67.8096144266
 20
-21.4394277573
 10
-67.7995466289
 20
-21.4430658684
 10
-67.7894404461
 20
-21.4465959611
 10
-67.7792958909
 20
-21.4500180728
 10
-67.7691164518
 20
-21.4533310263
 10
-67.758902117
 20
-21.456534784
 10
-67.7486528983
 20
-21.4596293835
 10
-67.7383723189
 20
-21.4626137608
 10
-67.7280603691
 20
-21.4654878776
 10
-67.7177170587
 20
-21.4682517721
 10
-67.7073459405
 20
-21.4709044946
 10
-67.6969470044
 20
-21.4734460072
 10
-67.6865202606
 20
-21.4758763477
 10
-67.6760692924
 20
-21.4781946803
 10
-67.6655940906
 20
-21.4804009664
 10
-67.6550946645
 20
-21.4824952446
 10
-67.6445746251
 20
-21.4844767943
 10
-67.6340339654
 20
-21.4863455771
 10
-67.6234726925
 20
-21.4881016316
 10
-67.6128944382
 20
-21.4897443526
 10
-67.6022991968
 20
-21.4912737004
 10
-67.5916869741
 20
-21.4926897148
 10
-67.5810614191
 20
-21.4939919103
 10
-67.5704224451
 20
-21.4951802532
 10
-67.5597701387
 20
-21.4962547773
 10
-67.5491084089
 20
-21.4972150979
 10
-67.5384385585
 20
-21.4980610869
 10
-67.5277592847
 20
-21.4987928725
 10
-67.5170705874
 20
-21.4994104546
  0
LINE
  5
4FA
100
AcDbEntity
  8
RACCORDO
100
AcDbLine
 62
7
  6
CONTINUOUS
 10
-69.363191966
 20
3.813305124
 11
-69.3633474339
 21
3.792866006
  0
LINE
  5
4FB
100
AcDbEntity
  8
RACCORDO
100
AcDbLine
 62
7
  6
CONTINUOUS
 10
-69.3586088893
 20
4.3731245528
 11
-69.3587383666
 21
4.3582962253
  0
LINE
  5
4FC
100
AcDbEntity
  8
RACCORDO
100
AcDbLine
 62
7
  6
CONTINUOUS
 10
-69.3462520838
 20
5.6107395771
 11
-69.3462949082
 21
5.6069222283
  0
LINE
  5
4FD
100
AcDbEntity
  8
RACCORDO
100
AcDbLine
 62
7
  6
CONTINUOUS
 10
-69.3388004741
 20
6.2395098835
 11
-69.3389356438
 21
6.228669553
  0
LWPOLYLINE
  5
4FE
100
AcDbEntity
  8
RACCORDO
100
AcDbPolyline
 62
250
  6
CONTINUOUS
 90
67
 70
0
 10
-68.4638886431
 20
20.5419058565
 10
-68.4891076914
 20
19.9197575685
 10
-68.513551102
 20
19.297580264
 10
-68.5372188748
 20
18.6753739431
 10
-68.5601110442
 20
18.0531376387
 10
-68.5822275758
 20
17.4308723178
 10
-68.6035683666
 20
16.8085808812
 10
-68.624133413
 20
16.1862633287
 10
-68.6439227185
 20
15.5639196606
 10
-68.662936191
 20
14.9415527779
 10
-68.6811738269
 20
14.3191626805
 10
-68.6986356297
 20
13.6967493685
 10
-68.7153215181
 20
13.0743157435
 10
-68.7312314885
 20
12.4518618054
 10
-68.7463655444
 20
11.8293875542
 10
-68.7607236155
 20
11.2068958914
 10
-68.7743056981
 20
10.5843868174
 10
-68.7871117957
 20
9.9618603319
 10
-68.7991418488
 20
9.3393193359
 10
-68.8103958537
 20
8.7167638289
 10
-68.820873814
 20
8.0941938113
 10
-68.830575681
 20
7.4716121851
 10
-68.839501451
 20
6.84901895
 10
-68.8476511276
 20
6.2264141063
 10
-68.8550246728
 20
5.6038005561
 10
-68.8616220831
 20
4.9811782994
 10
-68.867443362
 20
4.3585473362
 10
-68.8724884825
 20
3.7359105688
 10
-68.8767574409
 20
3.1132679971
 10
-68.8802502408
 20
2.4906196212
 10
-68.8829668659
 20
1.8679683432
 10
-68.8849073127
 20
1.2453141634
 10
-68.8860715848
 20
0.6226570815
 10
-68.8864596767
 20
-0.0000000004
 10
-68.8860715848
 20
-0.6226570824
 10
-68.8849073127
 20
-1.2453141644
 10
-68.8829668659
 20
-1.8679683445
 10
-68.8802502408
 20
-2.4906196226
 10
-68.8767574408
 20
-3.1132679988
 10
-68.8724884825
 20
-3.7359105707
 10
-68.867443362
 20
-4.3585473383
 10
-68.8616220831
 20
-4.9811783016
 10
-68.8550246728
 20
-5.6038005583
 10
-68.8476511275
 20
-6.2264141085
 10
-68.8395014509
 20
-6.8490189521
 10
-68.830575681
 20
-7.471612187
 10
-68.820873814
 20
-8.0941938132
 10
-68.8103958536
 20
-8.7167638306
 10
-68.7991418487
 20
-9.3393193375
 10
-68.7871117957
 20
-9.9618603335
 10
-68.774305698
 20
-10.584386819
 10
-68.7607236155
 20
-11.2068958931
 10
-68.7463655444
 20
-11.8293875559
 10
-68.7312314884
 20
-12.4518618072
 10
-68.715321518
 20
-13.0743157455
 10
-68.6986356296
 20
-13.6967493707
 10
-68.6811738268
 20
-14.3191626827
 10
-68.6629361909
 20
-14.9415527802
 10
-68.6439227184
 20
-15.5639196631
 10
-68.6241334129
 20
-16.1862633313
 10
-68.6035683665
 20
-16.8085808839
 10
-68.5822275757
 20
-17.4308723206
 10
-68.5601110441
 20
-18.0531376417
 10
-68.5372188747
 20
-18.6753739459
 10
-68.5135511019
 20
-19.2975802662
 10
-68.4891076914
 20
-19.9197575698
 10
-68.4638886431
 20
-20.5419058565
  0
LWPOLYLINE
  5
4FF
100
AcDbEntity
  8
0
100
AcDbPolyline
 62
7
  6
CONTINUOUS
 90
10
 70
0
 43
0.3500000087
 10
-39.5777330566
 20
36.7299878876
 10
-40.2205926544
 20
36.0871282898
 10
-40.6491614563
 20
35.2299864227
 10
-40.6491614563
 20
34.1585580231
 10
-40.2205926544
 20
33.7299892212
 10
-39.5777330566
 20
33.7299892212
 10
-39.1491599915
 20
34.1585580231
 10
-39.1491599915
 20
35.0156998901
 10
-39.5777330566
 20
35.4442729553
 10
-40.5063066101
 20
35.4442729553
  0
LINE
  5
500
100
AcDbEntity
  8
RACCORDO
100
AcDbLine
 62
250
  6
CONTINUOUS
 10
-68.9197399338
 20
-20.5608956698
 11
-68.952528621
 21
-20.5623435641
  0
LWPOLYLINE
  5
501
100
AcDbEntity
  8
RACCORDO
100
AcDbPolyline
 62
250
  6
CONTINUOUS
 90
6
 70
0
 10
-68.4638886431
 20
-20.5419058565
 10
-68.4873825213
 20
-20.5428735536
 10
-68.5108050219
 20
-20.5438391069
 10
-68.5341042569
 20
-20.5448003773
 10
-68.5572286111
 20
-20.5457552353
 10
-68.9197399338
 20
-20.5608956698
  0
LINE
  5
502
100
AcDbEntity
  8
DRAFT
100
AcDbLine
 62
7
  6
CONTINUOUS
 10
-58.8777334734
 20
-20.85
 11
-48.8777334734
 21
-20.6754493507
  0
LINE
  5
503
100
AcDbEntity
  8
0
100
AcDbLine
 62
7
  6
CONTINUOUS
 10
-58.8777334734
 20
-20.85
 11
-48.8777334734
 21
-20.6754493507
  0
LINE
  5
504
100
AcDbEntity
  8
RACCORDO
100
AcDbLine
 62
7
  6
CONTINUOUS
 10
-48.8777334734
 20
-20.9959955457
 11
-58.6779467132
 21
-20.9104703804
  0
LINE
  5
505
100
AcDbEntity
  8
RACCORDO
100
AcDbLine
 62
7
  6
CONTINUOUS
 10
-49.3690072702
 20
-21.5659754333
 11
-58.8777334734
 21
-21.4
  0
LINE
  5
506
100
AcDbEntity
  8
DRAFT
100
AcDbLine
 62
7
  6
CONTINUOUS
 10
-58.6779467132
 20
-20.9104703804
 11
-58.8777334734
 21
-20.9
  0
LINE
  5
507
100
AcDbEntity
  8
RACCORDO
100
AcDbLine
 62
250
  6
CONTINUOUS
 10
-67.5170705874
 20
21.4994104546
 11
-67.5218610566
 21
21.593852152
  0
LINE
  5
508
100
AcDbEntity
  8
RACCORDO
100
AcDbLine
 62
250
  6
CONTINUOUS
 10
-67.5218610566
 20
21.593852152
 11
-67.5261635627
 21
21.684884437
  0
LINE
  5
509
100
AcDbEntity
  8
RACCORDO
100
AcDbLine
 62
250
  6
CONTINUOUS
 10
-67.5261635627
 20
21.684884437
 11
-67.5298227822
 21
21.7692209792
  0
LINE
  5
50A
100
AcDbEntity
  8
RACCORDO
100
AcDbLine
 62
250
  6
CONTINUOUS
 10
-67.5298227822
 20
21.7692209792
 11
-67.5327066144
 21
21.8438171695
  0
LINE
  5
50B
100
AcDbEntity
  8
RACCORDO
100
AcDbLine
 62
250
  6
CONTINUOUS
 10
-67.5327066144
 20
21.8438171695
 11
-67.5342968482
 21
21.8917361619
  0
LINE
  5
50C
100
AcDbEntity
  8
RACCORDO
100
AcDbLine
 62
250
  6
CONTINUOUS
 10
-67.5342968482
 20
21.8917361619
 11
-67.5350653946
 21
21.9193039622
  0
LWPOLYLINE
  5
50D
100
AcDbEntity
  8
RACCORDO
100
AcDbPolyline
 62
250
  6
CONTINUOUS
 90
12
 70
0
 10
-67.5350653946
 20
21.9193039622
 10
-67.5355922322
 20
21.9430735596
 10
-67.5357634342
 20
21.9534654437
 10
-67.5358725952
 20
21.9628299429
 10
-67.5359194684
 20
21.9711458682
 10
-67.5359039477
 20
21.9783944033
 10
-67.5358260681
 20
21.9845591469
 10
-67.5356860058
 20
21.9896261502
 10
-67.5354840779
 20
21.9935839482
 10
-67.5352207412
 20
21.9964235855
 10
-67.5348965915
 20
21.998138637
 10
-67.5345123623
 20
21.998725222
  0
LWPOLYLINE
  5
50E
100
AcDbEntity
  8
RACCORDO
100
AcDbPolyline
 62
250
  6
CONTINUOUS
 90
10
 70
0
 10
-67.5357634179
 20
-21.9534654444
 10
-67.5358725802
 20
-21.9628299436
 10
-67.5359194548
 20
-21.9711458689
 10
-67.5359039356
 20
-21.9783944039
 10
-67.5358260577
 20
-21.9845591474
 10
-67.5356859973
 20
-21.9896261507
 10
-67.5354840713
 20
-21.9935839485
 10
-67.5352207367
 20
-21.9964235857
 10
-67.5348965892
 20
-21.9981386371
 10
-67.5345123623
 20
-21.998725222
  0
LINE
  5
50F
100
AcDbEntity
  8
RACCORDO
100
AcDbLine
 62
250
  6
CONTINUOUS
 10
-67.5353593585
 20
-21.9316778048
 11
-67.5357634179
 21
-21.9534654444
  0
LINE
  5
510
100
AcDbEntity
  8
RACCORDO
100
AcDbLine
 62
250
  6
CONTINUOUS
 10
-67.5347109315
 20
-21.9059800329
 11
-67.5353593585
 21
-21.9316778048
  0
LINE
  5
511
100
AcDbEntity
  8
RACCORDO
100
AcDbLine
 62
250
  6
CONTINUOUS
 10
-67.5332935242
 20
-21.8606195275
 11
-67.5347109315
 21
-21.9059800329
  0
LINE
  5
512
100
AcDbEntity
  8
RACCORDO
100
AcDbLine
 62
250
  6
CONTINUOUS
 10
-67.531368814
 20
-21.8079143815
 11
-67.5332935242
 21
-21.8606195275
  0
LINE
  5
513
100
AcDbEntity
  8
RACCORDO
100
AcDbLine
 62
250
  6
CONTINUOUS
 10
-67.5280824275
 20
-21.7280869702
 11
-67.531368814
 21
-21.8079143815
  0
LINE
  5
514
100
AcDbEntity
  8
RACCORDO
100
AcDbLine
 62
250
  6
CONTINUOUS
 10
-67.522988834
 20
-21.6170612665
 11
-67.5280824275
 21
-21.7280869702
  0
LINE
  5
515
100
AcDbEntity
  8
RACCORDO
100
AcDbLine
 62
250
  6
CONTINUOUS
 10
-67.5170705874
 20
-21.4994104546
 11
-67.522988834
 21
-21.6170612665
  0
LWPOLYLINE
  5
516
100
AcDbEntity
  8
RACCORDO
100
AcDbPolyline
 62
250
  6
CONTINUOUS
 90
3
 70
0
 10
-68.952528621
 20
-20.5623435641
 10
-68.9541867808
 20
-20.5624286768
 10
-68.9547394459
 20
-20.5624683248
  0
LINE
  5
517
100
AcDbEntity
  8
RACCORDO
100
AcDbLine
 62
7
  6
CONTINUOUS
 10
-27.260281067
 20
-19.1226659647
 11
-48.8777334734
 21
-19.5
  0
LINE
  5
518
100
AcDbEntity
  8
0
100
AcDbLine
 62
7
  6
CONTINUOUS
 10
-27.260281067
 20
-19.1226659647
 11
-48.8777334734
 21
-19.5
  0
LINE
  5
519
100
AcDbEntity
  8
RACCORDO
100
AcDbLine
 62
250
  6
CONTINUOUS
 10
-27.260281067
 20
-18.1228182695
 11
-48.8777334734
 21
-18.5001523048
  0
LINE
  5
51A
100
AcDbEntity
  8
0
100
AcDbLine
 62
250
  6
CONTINUOUS
 10
-27.260281067
 20
-18.1228182695
 11
-48.8777334734
 21
-18.5001523048
  0
LINE
  5
51B
100
AcDbEntity
  8
RACCORDO
100
AcDbLine
 62
250
  6
CONTINUOUS
 10
-58.8777334734
 20
-19.0856972195
 11
-48.8777334734
 21
-19.0133959733
  0
LINE
  5
51C
100
AcDbEntity
  8
0
100
AcDbLine
 62
250
  6
CONTINUOUS
 10
-58.8777334734
 20
-19.0856972195
 11
-48.8777334734
 21
-19.0133959733
  0
LINE
  5
51D
100
AcDbEntity
  8
RACCORDO
100
AcDbLine
 62
250
  6
CONTINUOUS
 10
-58.8777334734
 20
-17.6716990487
 11
-48.8777334734
 21
-17.5993978025
  0
LINE
  5
51E
100
AcDbEntity
  8
0
100
AcDbLine
 62
250
  6
CONTINUOUS
 10
-58.8777334734
 20
-17.6716990487
 11
-48.8777334734
 21
-17.5993978025
  0
LINE
  5
51F
100
AcDbEntity
  8
RACCORDO
100
AcDbLine
 62
250
  6
CONTINUOUS
 10
-26.2777334734
 20
-18.1228182695
 11
-27.260281067
 21
-18.1228182695
  0
LINE
  5
520
100
AcDbEntity
  8
0
100
AcDbLine
 62
250
  6
CONTINUOUS
 10
-26.2777334734
 20
-18.1228182695
 11
-27.260281067
 21
-18.1228182695
  0
LWPOLYLINE
  5
521
100
AcDbEntity
  8
RACCORDO
100
AcDbPolyline
 62
250
  6
CONTINUOUS
 90
6
 70
0
 10
-62.1291879063
 20
-24.4869014213
 10
-62.129262028
 20
-24.4865583827
 10
-62.1293319603
 20
-24.4855310928
 10
-62.1293975114
 20
-24.4838223673
 10
-62.1294585017
 20
-24.4814368893
 10
-62.1295147641
 20
-24.4783811971
  0
LINE
  5
522
100
AcDbEntity
  8
0
100
AcDbLine
 62
7
  6
CONTINUOUS
 10
-56.3457079292
 20
14.4497245318
 11
-55.5144608857
 21
15.2809715752
  0
LINE
  5
523
100
AcDbEntity
  8
0
100
AcDbLine
 62
7
  6
CONTINUOUS
 10
-55.90989454
 20
14.0952753823
 11
-55.4993362507
 21
14.5058336716
  0
LINE
  5
524
100
AcDbEntity
  8
0
100
AcDbLine
 62
7
  6
CONTINUOUS
 10
-55.2126124424
 20
14.7925574798
 11
-54.3029324529
 21
15.7022374693
  0
LINE
  5
525
100
AcDbEntity
  8
0
100
AcDbLine
 62
7
  6
CONTINUOUS
 10
-56.3457079292
 20
12.8691994545
 11
-56.3037093836
 21
12.911198
  0
LINE
  5
526
100
AcDbEntity
  8
0
100
AcDbLine
 62
7
  6
CONTINUOUS
 10
-55.3295200487
 20
13.8853873349
 11
-54.9114822632
 21
14.3034251205
  0
LINE
  5
527
100
AcDbEntity
  8
0
100
AcDbLine
 62
7
  6
CONTINUOUS
 10
-54.5428282293
 20
14.6720791544
 11
-54.0610420196
 21
15.1538653641
  0
LINE
  5
528
100
AcDbEntity
  8
0
100
AcDbLine
 62
7
  6
CONTINUOUS
 10
-54.0447986023
 20
15.1701087813
 11
-53.4465902303
 21
15.7683171534
  0
LINE
  5
529
100
AcDbEntity
  8
0
100
AcDbLine
 62
250
  6
CONTINUOUS
 10
-53.4465902303
 20
16.0
 11
-56.3457079292
 21
14.991935
  0
LINE
  5
52A
100
AcDbEntity
  8
0
100
AcDbLine
 62
250
  6
CONTINUOUS
 10
-54.0610420196
 20
15.164584
 11
-53.4465902303
 21
15.373574
  0
LINE
  5
52B
100
AcDbEntity
  8
0
100
AcDbLine
 62
250
  6
CONTINUOUS
 10
-55.7915527688
 20
14.606449
 11
-54.5428282293
 21
15.007869
  0
LINE
  5
52C
100
AcDbEntity
  8
0
100
AcDbLine
 62
250
  6
CONTINUOUS
 10
-56.3458448874
 20
-14.137714
 11
-54.3495561153
 21
-14.778839
  0
LINE
  5
52D
100
AcDbEntity
  8
0
100
AcDbLine
 62
250
  6
CONTINUOUS
 10
-53.4465972282
 20
-14.488824
 11
-56.3458448874
 21
-13.557685
  0
LINE
  5
52E
100
AcDbEntity
  8
RACCORDO
100
AcDbLine
 62
250
  6
CONTINUOUS
 10
-62.1295147641
 20
-24.4783811971
 11
-62.1296125013
 21
-24.4702944842
  0
LINE
  5
52F
100
AcDbEntity
  8
RACCORDO
100
AcDbLine
 62
250
  6
CONTINUOUS
 10
-62.1296125013
 20
-24.4702944842
 11
-62.129720235
 21
-24.4534055187
  0
LINE
  5
530
100
AcDbEntity
  8
RACCORDO
100
AcDbLine
 62
250
  6
CONTINUOUS
 10
-62.1291879063
 20
24.2369056521
 11
-62.1296896525
 21
24.3503990946
  0
LINE
  5
531
100
AcDbEntity
  8
RACCORDO
100
AcDbLine
 62
7
  6
CONTINUOUS
 10
-62.3777334734
 20
-24.2369056521
 11
-62.3777334734
 21
-23.8443375673
  0
LINE
  5
532
100
AcDbEntity
  8
RACCORDO
100
AcDbLine
 62
7
  6
CONTINUOUS
 10
-62.3777334734
 20
23.8443375673
 11
-62.3777334734
 21
24.2369056521
  0
LINE
  5
533
100
AcDbEntity
  8
RACCORDO
100
AcDbLine
 62
250
  6
CONTINUOUS
 10
-62.1291879063
 20
-24.2369056521
 11
-62.1291879063
 21
-23.8443375673
  0
LINE
  5
534
100
AcDbEntity
  8
RACCORDO
100
AcDbLine
 62
250
  6
CONTINUOUS
 10
-62.1291879063
 20
23.8443375673
 11
-62.1291879063
 21
24.2369056521
  0
LINE
  5
535
100
AcDbEntity
  8
RACCORDO
100
AcDbLine
 62
7
  6
CONTINUOUS
 10
-61.3777334734
 20
23.1226497308
 11
-61.3777334734
 21
22.3213883311
  0
LINE
  5
536
100
AcDbEntity
  8
RACCORDO
100
AcDbLine
 62
7
  6
CONTINUOUS
 10
-61.3777334734
 20
-22.3213883311
 11
-61.3777334734
 21
-23.1226497308
  0
LINE
  5
537
100
AcDbEntity
  8
RACCORDO
100
AcDbLine
 62
250
  6
CONTINUOUS
 10
-61.1291879063
 20
23.2669872981
 11
-61.1291879063
 21
22.3344140523
  0
LINE
  5
538
100
AcDbEntity
  8
RACCORDO
100
AcDbLine
 62
250
  6
CONTINUOUS
 10
-61.1291879063
 20
-22.3344140523
 11
-61.1291879063
 21
-23.2669872981
  0
LINE
  5
539
100
AcDbEntity
  8
RACCORDO
100
AcDbLine
 62
250
  6
CONTINUOUS
 10
-62.129720235
 20
-24.4534055187
 11
-62.1297874986
 21
-24.4041825384
  0
LINE
  5
53A
100
AcDbEntity
  8
RACCORDO
100
AcDbLine
 62
250
  6
CONTINUOUS
 10
-62.1296896525
 20
24.3503990946
 11
-62.1297790502
 21
24.4311858371
  0
LINE
  5
53B
100
AcDbEntity
  8
RACCORDO
100
AcDbLine
 62
250
  6
CONTINUOUS
 10
-62.1297874986
 20
-24.4041825384
 11
-62.1295147641
 21
-24.3016079562
  0
LINE
  5
53C
100
AcDbEntity
  8
RACCORDO
100
AcDbLine
 62
250
  6
CONTINUOUS
 10
-62.1297790502
 20
24.4311858371
 11
-62.1296896525
 21
24.4596508246
  0
LINE
  5
53D
100
AcDbEntity
  8
RACCORDO
100
AcDbLine
 62
250
  6
CONTINUOUS
 10
-62.1295147641
 20
-24.3016079562
 11
-62.1291879063
 21
-24.2369056521
  0
LWPOLYLINE
  5
53E
100
AcDbEntity
  8
RACCORDO
100
AcDbPolyline
 62
250
  6
CONTINUOUS
 90
8
 70
0
 10
-62.1296896525
 20
24.4596508246
 10
-62.1295661442
 20
24.4746636657
 10
-62.1295147641
 20
24.4783811971
 10
-62.1294585017
 20
24.4814368893
 10
-62.1293975114
 20
24.4838223673
 10
-62.1293319603
 20
24.4855310928
 10
-62.129262028
 20
24.4865583827
 10
-62.1291879063
 20
24.4869014213
  0
LINE
  5
53F
100
AcDbEntity
  8
0
100
AcDbLine
 62
7
  6
CONTINUOUS
 10
-56.095890845
 20
12.328754
 11
-55.513446845
 21
12.911198
  0
LINE
  5
540
100
AcDbEntity
  8
0
100
AcDbLine
 62
7
  6
CONTINUOUS
 10
-54.7491455575
 20
13.6754992875
 11
-54.0610420196
 21
14.3636028254
  0
LINE
  5
541
100
AcDbEntity
  8
0
100
AcDbLine
 62
7
  6
CONTINUOUS
 10
-55.3056283063
 20
12.328754
 11
-54.7231843063
 21
12.911198
  0
LINE
  5
542
100
AcDbEntity
  8
0
100
AcDbLine
 62
7
  6
CONTINUOUS
 10
-54.1687710663
 20
13.46561124
 11
-53.7340086387
 21
13.9003736677
  0
LINE
  5
543
100
AcDbEntity
  8
0
100
AcDbLine
 62
7
  6
CONTINUOUS
 10
-56.3457079292
 20
10.4984118385
 11
-54.9539812213
 21
11.8901385464
  0
LINE
  5
544
100
AcDbEntity
  8
0
100
AcDbLine
 62
7
  6
CONTINUOUS
 10
-54.5153657677
 20
12.328754
 11
-53.9329217677
 21
12.911198
  0
LINE
  5
545
100
AcDbEntity
  8
0
100
AcDbLine
 62
7
  6
CONTINUOUS
 10
-53.5883965751
 20
13.2557231926
 11
-53.4465902303
 21
13.3975295374
  0
LINE
  5
546
100
AcDbEntity
  8
0
100
AcDbLine
 62
250
  6
CONTINUOUS
 10
-56.3457079292
 20
11.216139
 11
-54.0482939036
 21
12.328754
  0
LINE
  5
547
100
AcDbEntity
  8
0
100
AcDbLine
 62
250
  6
CONTINUOUS
 10
-53.4465902303
 20
12.027546
 11
-55.8729549672
 21
10.87477
  0
LWPOLYLINE
  5
548
100
AcDbEntity
  8
0
100
AcDbPolyline
 62
250
  6
CONTINUOUS
 90
50
 70
0
 10
-31.6657213226
 20
-13.3420303195
 10
-31.6638808394
 20
-13.3418372101
 10
-31.6620408205
 20
-13.341574913
 10
-31.6602026211
 20
-13.3412449209
 10
-31.6583675964
 20
-13.3408487266
 10
-31.6565371015
 20
-13.3403878228
 10
-31.6547124916
 20
-13.3398637021
 10
-31.6528951218
 20
-13.3392778575
 10
-31.6510863473
 20
-13.3386317815
 10
-31.6492875232
 20
-13.3379269669
 10
-31.6475000047
 20
-13.3371649065
 10
-31.6457251469
 20
-13.3363470929
 10
-31.6439643049
 20
-13.3354750189
 10
-31.642218834
 20
-13.3345501773
 10
-31.6404900892
 20
-13.3335740607
 10
-31.6387794257
 20
-13.3325481619
 10
-31.6370881987
 20
-13.3314739736
 10
-31.6354177633
 20
-13.3303529885
 10
-31.6337694746
 20
-13.3291866994
 10
-31.6321446879
 20
-13.3279765991
 10
-31.6305447581
 20
-13.3267241801
 10
-31.6289710406
 20
-13.3254309354
 10
-31.6274248904
 20
-13.3240983575
 10
-31.6259076627
 20
-13.3227279392
 10
-31.6244207127
 20
-13.3213211733
 10
-31.6229653954
 20
-13.3198795525
 10
-31.6215430661
 20
-13.3184045695
 10
-31.6201550799
 20
-13.316897717
 10
-31.6188027919
 20
-13.3153604878
 10
-31.6174875573
 20
-13.3137943746
 10
-31.6162107312
 20
-13.3122008701
 10
-31.6149736688
 20
-13.3105814671
 10
-31.6137777252
 20
-13.3089376583
 10
-31.6126242556
 20
-13.3072709364
 10
-31.6115146151
 20
-13.3055827941
 10
-31.6104501589
 20
-13.3038747242
 10
-31.6094322421
 20
-13.3021482195
 10
-31.6084622199
 20
-13.3004047725
 10
-31.6075414474
 20
-13.2986458762
 10
-31.6066712797
 20
-13.2968730231
 10
-31.6058530721
 20
-13.295087706
 10
-31.6050881797
 20
-13.2932914177
 10
-31.6043779575
 20
-13.2914856509
 10
-31.6037237608
 20
-13.2896718983
 10
-31.6031269447
 20
-13.2878516527
 10
-31.6025888644
 20
-13.2860264067
 10
-31.602110875
 20
-13.2841976531
 10
-31.6016943316
 20
-13.2823668847
 10
-31.6013405894
 20
-13.2805355941
 10
-31.6010510036
 20
-13.2787052741
  0
LWPOLYLINE
  5
549
100
AcDbEntity
  8
0
100
AcDbPolyline
 62
250
  6
CONTINUOUS
 90
17
 70
0
 10
-31.7925184699
 20
-11.859431
 10
-31.7510054529
 20
-11.8553599931
 10
-31.7110736537
 20
-11.8433020356
 10
-31.6742440623
 20
-11.8237164115
 10
-31.6413910524
 20
-11.7968224384
 10
-31.6149151147
 20
-11.7645851945
 10
-31.5952040337
 20
-11.7278185839
 10
-31.5830085982
 20
-11.6879230354
 10
-31.5787920265
 20
-11.645672
 10
-31.5828624134
 20
-11.6041526593
 10
-31.5949185344
 20
-11.5642147774
 10
-31.6145011755
 20
-11.5273795758
 10
-31.6413910524
 20
-11.4945215616
 10
-31.6736233865
 20
-11.4680415908
 10
-31.7103843974
 20
-11.4483275072
 10
-31.7502738696
 20
-11.436130214
 10
-31.7925184886
 20
-11.431913
  0
LWPOLYLINE
  5
54A
100
AcDbEntity
  8
0
100
AcDbPolyline
 62
250
  6
CONTINUOUS
 90
17
 70
0
 10
-31.792524469
 20
-11.784496
 10
-31.7655641863
 20
-11.7818521185
 10
-31.7396308123
 20
-11.7740211786
 10
-31.7157121413
 20
-11.7613014583
 10
-31.694376028
 20
-11.7438353918
 10
-31.677181451
 20
-11.7228991825
 10
-31.6643802538
 20
-11.6990214139
 10
-31.6564600299
 20
-11.6731115826
 10
-31.6537216126
 20
-11.645672
 10
-31.6563650914
 20
-11.6187076104
 10
-31.6641948387
 20
-11.5927702861
 10
-31.6769126216
 20
-11.5688479716
 10
-31.694376028
 20
-11.5475086082
 10
-31.7153090486
 20
-11.530311412
 10
-31.7391831805
 20
-11.5175082648
 10
-31.7650890656
 20
-11.5095868345
 10
-31.7925244812
 20
-11.506848
  0
LWPOLYLINE
  5
54B
100
AcDbEntity
  8
0
100
AcDbPolyline
 62
250
  6
CONTINUOUS
 90
17
 70
0
 10
-31.792524469
 20
-11.506848
 10
-31.8194847518
 20
-11.5094918815
 10
-31.8454181258
 20
-11.5173228214
 10
-31.8693367968
 20
-11.5300425417
 10
-31.8906729101
 20
-11.5475086082
 10
-31.907867487
 20
-11.5684448175
 10
-31.9206686842
 20
-11.5923225861
 10
-31.9285889081
 20
-11.6182324174
 10
-31.9313273255
 20
-11.645672
 10
-31.9286838466
 20
-11.6726363896
 10
-31.9208540994
 20
-11.6985737139
 10
-31.9081363164
 20
-11.7224960284
 10
-31.8906729101
 20
-11.7438353918
 10
-31.8697398895
 20
-11.761032588
 10
-31.8458657575
 20
-11.7738357352
 10
-31.8199598725
 20
-11.7817571655
 10
-31.7925244569
 20
-11.784496
  0
LWPOLYLINE
  5
54C
100
AcDbEntity
  8
0
100
AcDbPolyline
 62
250
  6
CONTINUOUS
 90
17
 70
0
 10
-31.7925184699
 20
-11.431913
 10
-31.834031487
 20
-11.4359840069
 10
-31.8739632862
 20
-11.4480419644
 10
-31.9107928776
 20
-11.4676275885
 10
-31.9436458874
 20
-11.4945215616
 10
-31.9701218251
 20
-11.5267588055
 10
-31.9898329062
 20
-11.5635254161
 10
-32.0020283417
 20
-11.6034209646
 10
-32.0062449134
 20
-11.645672
 10
-32.0021745265
 20
-11.6871913407
 10
-31.9901184055
 20
-11.7271292226
 10
-31.9705357644
 20
-11.7639644242
 10
-31.9436458874
 20
-11.7968224384
 10
-31.9114135534
 20
-11.8233024092
 10
-31.8746525425
 20
-11.8430164928
 10
-31.8347630703
 20
-11.855213786
 10
-31.7925184513
 20
-11.859431
  0
LINE
  5
54D
100
AcDbEntity
  8
0
100
AcDbLine
 62
250
  6
CONTINUOUS
 10
-32.3219053133
 20
-13.3984933674
 11
-31.6657213226
 21
-13.3420303195
  0
LINE
  5
54E
100
AcDbEntity
  8
0
100
AcDbLine
 62
250
  6
CONTINUOUS
 10
-32.6086371522
 20
-13.279931
 11
-34.1522930101
 21
-13.41274
  0
LINE
  5
54F
100
AcDbEntity
  8
0
100
AcDbLine
 62
250
  6
CONTINUOUS
 10
-34.9237876424
 20
-13.6223488001
 11
-34.4998549483
 21
-13.5858758386
  0
LINE
  5
550
100
AcDbEntity
  8
0
100
AcDbLine
 62
250
  6
CONTINUOUS
 10
-34.3184344992
 20
-13.5702617819
 11
-32.4746351663
 21
-13.411634521
  0
LINE
  5
551
100
AcDbEntity
  8
0
100
AcDbLine
 62
250
  6
CONTINUOUS
 10
-34.3340103295
 20
-13.428378
 11
-34.91787839
 21
-13.478611
  0
LINE
  5
552
100
AcDbEntity
  8
0
100
AcDbLine
 62
250
  6
CONTINUOUS
 10
-31.7431744656
 20
-13.2054864389
 11
-32.4560269918
 21
-13.2668132741
  0
LINE
  5
553
100
AcDbEntity
  8
0
100
AcDbLine
 62
250
  6
CONTINUOUS
 10
-35.9574974659
 20
-14.9701405
 11
-35.794898553
 21
-14.9701405
  0
LINE
  5
554
100
AcDbEntity
  8
0
100
AcDbLine
 62
250
  6
CONTINUOUS
 10
-28.8777334734
 20
-14.567264
 11
-29.8843691346
 21
-14.567264
  0
LINE
  5
555
100
AcDbEntity
  8
0
100
AcDbLine
 62
250
  6
CONTINUOUS
 10
-35.0664699084
 20
-13.7942594773
 11
-34.9237876424
 21
-13.7942594773
  0
LINE
  5
556
100
AcDbEntity
  8
0
100
AcDbLine
 62
250
  6
CONTINUOUS
 10
-35.196311293
 20
-13.3483450412
 11
-35.0664822457
 21
-13.3483450412
  0
LINE
  5
557
100
AcDbEntity
  8
0
100
AcDbLine
 62
250
  6
CONTINUOUS
 10
-35.447039409
 20
-13.348333428
 11
-35.3527386871
 21
-13.348333428
  0
LINE
  5
558
100
AcDbEntity
  8
0
100
AcDbLine
 62
250
  6
CONTINUOUS
 10
-31.6010510036
 20
-13.2787052741
 11
-31.3858265387
 21
-13.2787052741
  0
LINE
  5
559
100
AcDbEntity
  8
0
100
AcDbLine
 62
250
  6
CONTINUOUS
 10
-42.9145530447
 20
-13.26459
 11
-42.1441443995
 21
-13.26459
  0
LINE
  5
55A
100
AcDbEntity
  8
0
100
AcDbLine
 62
250
  6
CONTINUOUS
 10
-38.611298551
 20
-13.26459
 11
-37.8408899059
 21
-13.26459
  0
LINE
  5
55B
100
AcDbEntity
  8
0
100
AcDbLine
 62
250
  6
CONTINUOUS
 10
-56.3458448874
 20
-13.171006
 11
-53.4465902303
 21
-13.171014
  0
LINE
  5
55C
100
AcDbEntity
  8
0
100
AcDbLine
 62
250
  6
CONTINUOUS
 10
-35.4324502692
 20
-13.1044879089
 11
-35.447039409
 21
-13.1044879089
  0
LINE
  5
55D
100
AcDbEntity
  8
0
100
AcDbLine
 62
250
  6
CONTINUOUS
 10
-35.0664699084
 20
-13.1044879089
 11
-35.2834898034
 21
-13.1044879089
  0
LINE
  5
55E
100
AcDbEntity
  8
0
100
AcDbLine
 62
250
  6
CONTINUOUS
 10
-31.3858265387
 20
-13.0142628749
 11
-31.600503811
 21
-13.0142628749
  0
LWPOLYLINE
  5
55F
100
AcDbEntity
  8
RACCORDO
100
AcDbPolyline
 62
7
  6
CONTINUOUS
 90
10
 70
0
 10
-59.8801090594
 20
-22.359234736
 10
-59.8799492382
 20
-22.3676758378
 10
-59.8797627778
 20
-22.375171463
 10
-59.8795490371
 20
-22.3817045428
 10
-59.8793087679
 20
-22.3872578746
 10
-59.8790430799
 20
-22.3918214941
 10
-59.8787518762
 20
-22.3953886342
 10
-59.8784357537
 20
-22.3979479162
 10
-59.8780959803
 20
-22.3994876122
 10
-59.8777334734
 20
-22.4
  0
LWPOLYLINE
  5
560
100
AcDbEntity
  8
RACCORDO
100
AcDbPolyline
 62
250
  6
CONTINUOUS
 90
6
 70
0
 10
-59.1259521225
 20
24.487104147
 10
-59.1260083929
 20
24.4901612081
 10
-59.1260693934
 20
24.4925477509
 10
-59.1261349567
 20
24.494257234
 10
-59.126204903
 20
24.495284977
 10
-59.1262790406
 20
24.495628166
  0
LINE
  5
561
100
AcDbEntity
  8
RACCORDO
100
AcDbLine
 62
7
  6
CONTINUOUS
 10
-59.8756921332
 20
21.949896513
 11
-59.8777982239
 21
22.0560046356
  0
LINE
  5
562
100
AcDbEntity
  8
RACCORDO
100
AcDbLine
 62
7
  6
CONTINUOUS
 10
-59.8777982239
 20
22.0560046356
 11
-59.8790858391
 21
22.1368352214
  0
LINE
  5
563
100
AcDbEntity
  8
RACCORDO
100
AcDbLine
 62
250
  6
CONTINUOUS
 10
-59.1258543766
 20
24.4790138424
 11
-59.1259521225
 21
24.487104147
  0
LINE
  5
564
100
AcDbEntity
  8
RACCORDO
100
AcDbLine
 62
7
  6
CONTINUOUS
 10
-59.880344628
 20
-22.3395955256
 11
-59.8801090594
 21
-22.359234736
  0
LINE
  5
565
100
AcDbEntity
  8
RACCORDO
100
AcDbLine
 62
7
  6
CONTINUOUS
 10
-59.8790858391
 20
22.1368352214
 11
-59.8799655864
 21
22.2109036264
  0
LINE
  5
566
100
AcDbEntity
  8
RACCORDO
100
AcDbLine
 62
7
  6
CONTINUOUS
 10
-59.8799655864
 20
22.2109036264
 11
-59.8803394935
 21
22.2604041417
  0
LINE
  5
567
100
AcDbEntity
  8
RACCORDO
100
AcDbLine
 62
250
  6
CONTINUOUS
 10
-59.1257466493
 20
24.4621175595
 11
-59.1258543766
 21
24.4790138424
  0
LINE
  5
568
100
AcDbEntity
  8
RACCORDO
100
AcDbLine
 62
7
  6
CONTINUOUS
 10
-59.8804685652
 20
-22.3164324452
 11
-59.880344628
 21
-22.3395955256
  0
LINE
  5
569
100
AcDbEntity
  8
RACCORDO
100
AcDbLine
 62
250
  6
CONTINUOUS
 10
-59.1256878641
 20
-24.402986508
 11
-59.1262790406
 21
-24.2456323968
  0
LINE
  5
56A
100
AcDbEntity
  8
RACCORDO
100
AcDbLine
 62
7
  6
CONTINUOUS
 10
-59.8803394935
 20
22.2604041417
 11
-59.8804594319
 21
22.3035936405
  0
LINE
  5
56B
100
AcDbEntity
  8
RACCORDO
100
AcDbLine
 62
7
  6
CONTINUOUS
 10
-59.8777334734
 20
-22.4
 11
-59.8777334734
 21
-24.5
  0
LINE
  5
56C
100
AcDbEntity
  8
RACCORDO
100
AcDbLine
 62
7
  6
CONTINUOUS
 10
-59.8777334734
 20
22.4
 11
-59.8777334734
 21
24.5
  0
LINE
  5
56D
100
AcDbEntity
  8
RACCORDO
100
AcDbLine
 62
250
  6
CONTINUOUS
 10
-59.1262790406
 20
24.2456323968
 11
-59.1262790406
 21
23.8443375673
  0
LINE
  5
56E
100
AcDbEntity
  8
RACCORDO
100
AcDbLine
 62
250
  6
CONTINUOUS
 10
-59.1262790406
 20
-23.8443375673
 11
-59.1262790406
 21
-24.2456323968
  0
LINE
  5
56F
100
AcDbEntity
  8
RACCORDO
100
AcDbLine
 62
7
  6
CONTINUOUS
 10
-58.8777334734
 20
24.2456323968
 11
-58.8777334734
 21
23.8443375673
  0
LINE
  5
570
100
AcDbEntity
  8
0
100
AcDbLine
 62
7
  6
CONTINUOUS
 10
-58.8777334734
 20
17.6716990487
 11
-58.8777334734
 21
-17.6716990487
  0
LINE
  5
571
100
AcDbEntity
  8
RACCORDO
100
AcDbLine
 62
7
  6
CONTINUOUS
 10
-58.8777334734
 20
-23.8443375673
 11
-58.8777334734
 21
-24.2456323968
  0
LINE
  5
572
100
AcDbEntity
  8
RACCORDO
100
AcDbLine
 62
7
  6
CONTINUOUS
 10
-58.8777334734
 20
-22.3912731322
 11
-58.8777334734
 21
22.3912731322
  0
LINE
  5
573
100
AcDbEntity
  8
RACCORDO
100
AcDbLine
 62
250
  6
CONTINUOUS
 10
-59.1256794682
 20
24.4128749736
 11
-59.1257466493
 21
24.4621175595
  0
LINE
  5
574
100
AcDbEntity
  8
RACCORDO
100
AcDbLine
 62
7
  6
CONTINUOUS
 10
-59.8804406962
 20
-22.2755483249
 11
-59.8804685652
 21
-22.3164324452
  0
LINE
  5
575
100
AcDbEntity
  8
RACCORDO
100
AcDbLine
 62
250
  6
CONTINUOUS
 10
-59.1257216671
 20
-24.4553229956
 11
-59.1256878641
 21
-24.402986508
  0
LINE
  5
576
100
AcDbEntity
  8
RACCORDO
100
AcDbLine
 62
7
  6
CONTINUOUS
 10
-59.8804594319
 20
22.3035936405
 11
-59.8803973309
 21
22.3284417216
  0
LINE
  5
577
100
AcDbEntity
  8
RACCORDO
100
AcDbLine
 62
250
  6
CONTINUOUS
 10
-59.1261352671
 20
24.2717096311
 11
-59.1256794682
 21
24.4128749736
  0
LINE
  5
578
100
AcDbEntity
  8
RACCORDO
100
AcDbLine
 62
250
  6
CONTINUOUS
 10
-59.1262790406
 20
24.2456323968
 11
-59.1261352671
 21
24.2717096311
  0
LINE
  5
579
100
AcDbEntity
  8
RACCORDO
100
AcDbLine
 62
250
  6
CONTINUOUS
 10
-59.1258134187
 20
-24.4740372277
 11
-59.1257216671
 21
-24.4553229956
  0
LINE
  5
57A
100
AcDbEntity
  8
RACCORDO
100
AcDbLine
 62
7
  6
CONTINUOUS
 10
-59.8801581653
 20
-22.2280459472
 11
-59.8804406962
 21
-22.2755483249
  0
LWPOLYLINE
  5
57B
100
AcDbEntity
  8
RACCORDO
100
AcDbPolyline
 62
7
  6
CONTINUOUS
 90
12
 70
0
 10
-59.8803973309
 20
22.3284417216
 10
-59.8802216037
 20
22.3498672256
 10
-59.8800914949
 20
22.3592345029
 10
-59.8799335853
 20
22.367675635
 10
-59.8797490103
 20
22.3751712897
 10
-59.8795371603
 20
22.3817043981
 10
-59.8792987844
 20
22.3872577575
 10
-59.879034995
 20
22.3918214033
 10
-59.878745735
 20
22.3953885686
 10
-59.8784316146
 20
22.3979478745
 10
-59.8780938881
 20
22.3994875925
 10
-59.8777334734
 20
22.4
  0
LINE
  5
57C
100
AcDbEntity
  8
RACCORDO
100
AcDbLine
 62
7
  6
CONTINUOUS
 10
-59.8793951167
 20
-22.1560958185
 11
-59.8801581653
 21
-22.2280459472
  0
LINE
  5
57D
100
AcDbEntity
  8
RACCORDO
100
AcDbLine
 62
7
  6
CONTINUOUS
 10
-59.8778647205
 20
-22.0560052934
 11
-59.8793951167
 21
-22.1560958185
  0
LINE
  5
57E
100
AcDbEntity
  8
RACCORDO
100
AcDbLine
 62
7
  6
CONTINUOUS
 10
-59.8757727214
 20
-21.9498972163
 11
-59.8778647205
 21
-22.0560052934
  0
LWPOLYLINE
  5
57F
100
AcDbEntity
  8
0
100
AcDbPolyline
 62
7
  6
CONTINUOUS
 90
3
 70
0
 43
0.3500000087
 10
-46.577731366
 20
44.0096590485
 10
-46.6491630524
 20
43.7953725159
 10
-46.7920178986
 20
43.5096585602
  0
LINE
  5
580
100
AcDbEntity
  8
0
100
AcDbLine
 62
250
  6
CONTINUOUS
 10
-51.6759492298
 20
14.3231427853
 11
-51.9473364452
 21
14.0218572147
  0
LINE
  5
581
100
AcDbEntity
  8
0
100
AcDbLine
 62
250
  6
CONTINUOUS
 10
-50.8617875271
 20
12.6660713927
 11
-51.1331747991
 21
12.364785822
  0
LINE
  5
582
100
AcDbEntity
  8
0
100
AcDbLine
 62
7
  6
CONTINUOUS
 10
-55.761532229
 20
10.292325
 11
-55.179087229
 21
10.87477
  0
LINE
  5
583
100
AcDbEntity
  8
0
100
AcDbLine
 62
7
  6
CONTINUOUS
 10
-54.5510398441
 20
11.502817385
 11
-53.4465902303
 21
12.6072669987
  0
LINE
  5
584
100
AcDbEntity
  8
0
100
AcDbLine
 62
7
  6
CONTINUOUS
 10
-56.3457079292
 20
8.9178867612
 11
-56.270562832
 21
8.9930318584
  0
LINE
  5
585
100
AcDbEntity
  8
0
100
AcDbLine
 62
7
  6
CONTINUOUS
 10
-54.9712696904
 20
10.292325
 11
-54.3888246904
 21
10.87477
  0
LINE
  5
586
100
AcDbEntity
  8
0
100
AcDbLine
 62
7
  6
CONTINUOUS
 10
-56.2721000994
 20
8.2012320523
 11
-55.0589645628
 21
9.4143675889
  0
LINE
  5
587
100
AcDbEntity
  8
0
100
AcDbLine
 62
7
  6
CONTINUOUS
 10
-54.1810071517
 20
10.292325
 11
-53.5985621517
 21
10.87477
  0
LINE
  5
588
100
AcDbEntity
  8
0
100
AcDbLine
 62
7
  6
CONTINUOUS
 10
-55.6917095825
 20
7.9913600306
 11
-55.278357515
 21
8.4047120981
  0
LINE
  5
589
100
AcDbEntity
  8
0
100
AcDbLine
 62
7
  6
CONTINUOUS
 10
-54.7746482887
 20
8.9084213244
 11
-53.8473662937
 21
9.8357033194
  0
LINE
  5
58A
100
AcDbEntity
  8
0
100
AcDbLine
 62
250
  6
CONTINUOUS
 10
-51.6759492298
 20
12.6158570471
 11
-51.9473364452
 21
12.364785822
  0
LINE
  5
58B
100
AcDbEntity
  8
0
100
AcDbLine
 62
250
  6
CONTINUOUS
 10
-53.4465902303
 20
9.975074
 11
-56.3457079292
 21
8.9669
  0
LWPOLYLINE
  5
58C
100
AcDbEntity
  8
0
100
AcDbPolyline
 62
250
  6
CONTINUOUS
 90
14
 70
0
 10
-31.7925183138
 20
-12.0566955723
 10
-31.7887155339
 20
-12.0566782248
 10
-31.7849122005
 20
-12.056626194
 10
-31.7811087872
 20
-12.0565394973
 10
-31.7773057677
 20
-12.0564181522
 10
-31.7735036157
 20
-12.0562621762
 10
-31.7697028047
 20
-12.0560715867
 10
-31.7659038085
 20
-12.0558464012
 10
-31.7621071007
 20
-12.0555866373
 10
-31.758313155
 20
-12.0552923122
 10
-31.7545224449
 20
-12.0549634437
 10
-31.7507354442
 20
-12.054600049
 10
-31.7469526266
 20
-12.0542021457
 10
-31.7431744656
 20
-12.0537697512
  0
LINE
  5
58D
100
AcDbEntity
  8
0
100
AcDbLine
 62
250
  6
CONTINUOUS
 10
-34.2104711479
 20
-12.741818
 11
-33.925106617
 21
-12.741818
  0
LINE
  5
58E
100
AcDbEntity
  8
0
100
AcDbLine
 62
250
  6
CONTINUOUS
 10
-35.5420774619
 20
-12.7180095207
 11
-35.4855758419
 21
-12.7180095207
  0
LINE
  5
58F
100
AcDbEntity
  8
0
100
AcDbLine
 62
250
  6
CONTINUOUS
 10
-35.3394805169
 20
-12.7180095207
 11
-35.1913052797
 21
-12.7180095207
  0
LINE
  5
590
100
AcDbEntity
  8
0
100
AcDbLine
 62
250
  6
CONTINUOUS
 10
-53.4465972282
 20
-12.590992
 11
-56.3458448874
 21
-12.590985
  0
LINE
  5
591
100
AcDbEntity
  8
0
100
AcDbLine
 62
250
  6
CONTINUOUS
 10
-35.3339880048
 20
-12.57533
 11
-35.3994080395
 21
-12.57533
  0
LINE
  5
592
100
AcDbEntity
  8
0
100
AcDbLine
 62
250
  6
CONTINUOUS
 10
-35.3994080395
 20
-12.159121
 11
-35.3339880048
 21
-12.159121
  0
LINE
  5
593
100
AcDbEntity
  8
0
100
AcDbLine
 62
250
  6
CONTINUOUS
 10
-35.1913052797
 20
-12.016393857
 11
-35.3244755398
 21
-12.0164054703
  0
LINE
  5
594
100
AcDbEntity
  8
0
100
AcDbLine
 62
250
  6
CONTINUOUS
 10
-56.3458448874
 20
-12.010985
 11
-53.4465972282
 21
-12.010985
  0
LINE
  5
595
100
AcDbEntity
  8
0
100
AcDbLine
 62
250
  6
CONTINUOUS
 10
-34.0454952784
 20
-11.867743
 11
-34.2104711479
 21
-11.867743
  0
LINE
  5
596
100
AcDbEntity
  8
0
100
AcDbLine
 62
250
  6
CONTINUOUS
 10
-34.7020592653
 20
-11.522946
 11
-34.3963038404
 21
-11.522946
  0
LINE
  5
597
100
AcDbEntity
  8
0
100
AcDbLine
 62
250
  6
CONTINUOUS
 10
-34.2320878551
 20
-11.522946
 11
-34.2045740462
 21
-11.522946
  0
LINE
  5
598
100
AcDbEntity
  8
0
100
AcDbLine
 62
250
  6
CONTINUOUS
 10
-53.4465972282
 20
-11.430963
 11
-55.3584567242
 21
-11.430963
  0
LINE
  5
599
100
AcDbEntity
  8
0
100
AcDbLine
 62
250
  6
CONTINUOUS
 10
-34.5737648081
 20
-11.163617
 11
-34.3328695032
 21
-11.163617
  0
LINE
  5
59A
100
AcDbEntity
  8
0
100
AcDbLine
 62
250
  6
CONTINUOUS
 10
-34.2045741844
 20
-11.0387283195
 11
-34.7020832278
 21
-11.0387283195
  0
LINE
  5
59B
100
AcDbEntity
  8
0
100
AcDbLine
 62
250
  6
CONTINUOUS
 10
-35.4697616876
 20
-12.0164054703
 11
-35.5420774619
 21
-12.016393857
  0
LINE
  5
59C
100
AcDbEntity
  8
0
100
AcDbLine
 62
250
  6
CONTINUOUS
 10
-56.3458448874
 20
-10.051012
 11
-54.4577511505
 21
-10.59258
  0
LINE
  5
59D
100
AcDbEntity
  8
0
100
AcDbLine
 62
250
  6
CONTINUOUS
 10
-53.4466052257
 20
-10.30258
 11
-55.3584567242
 21
-9.754205
  0
LINE
  5
59E
100
AcDbEntity
  8
0
100
AcDbLine
 62
250
  6
CONTINUOUS
 10
-56.3458518853
 20
-7.856372
 11
-56.3458518853
 21
-7.276321
  0
LINE
  5
59F
100
AcDbEntity
  8
0
100
AcDbLine
 62
250
  6
CONTINUOUS
 10
-56.3458518853
 20
-5.958503
 11
-56.3458518853
 21
-4.600288
  0
LINE
  5
5A0
100
AcDbEntity
  8
0
100
AcDbLine
 62
250
  6
CONTINUOUS
 10
-56.3458448874
 20
-9.174176
 11
-56.3458448874
 21
-10.051012
  0
LINE
  5
5A1
100
AcDbEntity
  8
0
100
AcDbLine
 62
250
  6
CONTINUOUS
 10
-56.3458448874
 20
-11.134148
 11
-56.3458448874
 21
-12.010985
  0
LINE
  5
5A2
100
AcDbEntity
  8
0
100
AcDbLine
 62
250
  6
CONTINUOUS
 10
-56.3458448874
 20
-12.590985
 11
-56.3458448874
 21
-13.171006
  0
LINE
  5
5A3
100
AcDbEntity
  8
0
100
AcDbLine
 62
250
  6
CONTINUOUS
 10
-56.3458448874
 20
-13.557685
 11
-56.3458448874
 21
-14.137714
  0
LINE
  5
5A4
100
AcDbEntity
  8
0
100
AcDbLine
 62
250
  6
CONTINUOUS
 10
-56.3458448874
 20
-15.419971
 11
-56.3458448874
 21
-16.0
  0
LINE
  5
5A5
100
AcDbEntity
  8
0
100
AcDbLine
 62
250
  6
CONTINUOUS
 10
-56.3457079292
 20
14.991935
 11
-56.3457079292
 21
14.252884
  0
LINE
  5
5A6
100
AcDbEntity
  8
0
100
AcDbLine
 62
250
  6
CONTINUOUS
 10
-56.3457079292
 20
8.9669
 11
-56.3457079292
 21
8.227849
  0
LINE
  5
5A7
100
AcDbEntity
  8
0
100
AcDbLine
 62
250
  6
CONTINUOUS
 10
-56.3457079292
 20
3.58822
 11
-56.3457079292
 21
2.70079
  0
LINE
  5
5A8
100
AcDbEntity
  8
0
100
AcDbLine
 62
250
  6
CONTINUOUS
 10
-56.3457079292
 20
5.171133
 11
-56.3457079292
 21
5.793739
  0
LINE
  5
5A9
100
AcDbEntity
  8
0
100
AcDbLine
 62
250
  6
CONTINUOUS
 10
-56.3457079292
 20
10.292325
 11
-56.3457079292
 21
11.216139
  0
LINE
  5
5AA
100
AcDbEntity
  8
0
100
AcDbLine
 62
250
  6
CONTINUOUS
 10
-56.3457079292
 20
12.328754
 11
-56.3457079292
 21
12.911198
  0
LINE
  5
5AB
100
AcDbEntity
  8
0
100
AcDbLine
 62
250
  6
CONTINUOUS
 10
-56.3421284902
 20
3.6948258614
 11
-56.3457077885
 21
3.5882200575
  0
LINE
  5
5AC
100
AcDbEntity
  8
0
100
AcDbLine
 62
7
  6
CONTINUOUS
 10
-55.1113190655
 20
7.7814880089
 11
-54.6905037197
 21
8.2023033547
  0
LINE
  5
5AD
100
AcDbEntity
  8
0
100
AcDbLine
 62
7
  6
CONTINUOUS
 10
-54.5428282293
 20
8.3499788451
 11
-54.0610420196
 21
8.8317650549
  0
LINE
  5
5AE
100
AcDbEntity
  8
0
100
AcDbLine
 62
7
  6
CONTINUOUS
 10
-53.5947390532
 20
9.2980680212
 11
-53.4465902303
 21
9.4462168441
  0
LINE
  5
5AF
100
AcDbEntity
  8
0
100
AcDbLine
 62
7
  6
CONTINUOUS
 10
-56.3457079292
 20
5.7568366066
 11
-56.3088055358
 21
5.793739
  0
LINE
  5
5B0
100
AcDbEntity
  8
0
100
AcDbLine
 62
7
  6
CONTINUOUS
 10
-54.5309285485
 20
7.5716159872
 11
-54.0610420196
 21
8.0415025162
  0
LINE
  5
5B1
100
AcDbEntity
  8
0
100
AcDbLine
 62
7
  6
CONTINUOUS
 10
-56.1411489971
 20
5.171133
 11
-55.5185429971
 21
5.793739
  0
LINE
  5
5B2
100
AcDbEntity
  8
0
100
AcDbLine
 62
7
  6
CONTINUOUS
 10
-53.9505380316
 20
7.3617439655
 11
-53.5143904284
 21
7.7978915687
  0
LINE
  5
5B3
100
AcDbEntity
  8
0
100
AcDbLine
 62
7
  6
CONTINUOUS
 10
-56.2479654636
 20
4.2740539949
 11
-55.7884006753
 21
4.7336187832
  0
LINE
  5
5B4
100
AcDbEntity
  8
0
100
AcDbLine
 62
7
  6
CONTINUOUS
 10
-55.3508864584
 20
5.171133
 11
-54.7282804584
 21
5.793739
  0
LINE
  5
5B5
100
AcDbEntity
  8
0
100
AcDbLine
 62
7
  6
CONTINUOUS
 10
-53.92837644
 20
6.5936430184
 11
-53.6552814584
 21
6.866738
  0
LINE
  5
5B6
100
AcDbEntity
  8
0
100
AcDbLine
 62
250
  6
CONTINUOUS
 10
-54.0610420196
 20
9.139549
 11
-53.4465902303
 21
9.348431
  0
LINE
  5
5B7
100
AcDbEntity
  8
0
100
AcDbLine
 62
250
  6
CONTINUOUS
 10
-55.7917167188
 20
8.581471
 11
-54.5428282293
 21
8.982943
  0
LINE
  5
5B8
100
AcDbEntity
  8
0
100
AcDbLine
 62
250
  6
CONTINUOUS
 10
-29.8843691346
 20
-10.432736
 11
-28.8777334734
 21
-10.432736
  0
LINE
  5
5B9
100
AcDbEntity
  8
0
100
AcDbLine
 62
250
  6
CONTINUOUS
 10
-35.8139704623
 20
-9.9697090822
 11
-35.9766521073
 21
-9.9697090822
  0
LINE
  5
5BA
100
AcDbEntity
  8
0
100
AcDbLine
 62
250
  6
CONTINUOUS
 10
-55.3584567242
 20
-9.754205
 11
-53.4465972282
 21
-9.754197
  0
LINE
  5
5BB
100
AcDbEntity
  8
0
100
AcDbLine
 62
250
  6
CONTINUOUS
 10
-40.7601632187
 20
-9.43959
 11
-39.9952797319
 21
-9.43959
  0
LINE
  5
5BC
100
AcDbEntity
  8
0
100
AcDbLine
 62
250
  6
CONTINUOUS
 10
-53.4465972282
 20
-9.174176
 11
-56.3458448874
 21
-9.174176
  0
LINE
  5
5BD
100
AcDbEntity
  8
0
100
AcDbLine
 62
250
  6
CONTINUOUS
 10
-42.9145530447
 20
-8.92959
 11
-42.1441443995
 21
-8.92959
  0
LINE
  5
5BE
100
AcDbEntity
  8
0
100
AcDbLine
 62
250
  6
CONTINUOUS
 10
-38.611298551
 20
-8.92959
 11
-37.8408899059
 21
-8.92959
  0
LINE
  5
5BF
100
AcDbEntity
  8
0
100
AcDbLine
 62
250
  6
CONTINUOUS
 10
-34.91787839
 20
-11.440618
 11
-34.7020592653
 21
-11.460728
  0
LINE
  5
5C0
100
AcDbEntity
  8
0
100
AcDbLine
 62
250
  6
CONTINUOUS
 10
-34.2045740462
 20
-11.507094
 11
-32.4801397259
 21
-11.667827
  0
LINE
  5
5C1
100
AcDbEntity
  8
0
100
AcDbLine
 62
250
  6
CONTINUOUS
 10
-32.3269708357
 20
-11.6820975708
 11
-32.2006847511
 21
-11.6938705347
  0
LINE
  5
5C2
100
AcDbEntity
  8
0
100
AcDbLine
 62
250
  6
CONTINUOUS
 10
-32.3427131438
 20
-11.5373002763
 11
-34.2045741844
 21
-11.3637484973
  0
LINE
  5
5C3
100
AcDbEntity
  8
0
100
AcDbLine
 62
250
  6
CONTINUOUS
 10
-34.7020716162
 20
-11.3173817459
 11
-34.9220401097
 21
-11.2968676103
  0
LINE
  5
5C4
100
AcDbEntity
  8
0
100
AcDbLine
 62
250
  6
CONTINUOUS
 10
-34.3328695032
 20
-11.351808
 11
-34.4140791327
 21
-11.344233
  0
LINE
  5
5C5
100
AcDbEntity
  8
0
100
AcDbLine
 62
250
  6
CONTINUOUS
 10
-53.4465972282
 20
-8.787497
 11
-56.3458518853
 21
-7.856372
  0
LINE
  5
5C6
100
AcDbEntity
  8
0
100
AcDbLine
 62
250
  6
CONTINUOUS
 10
-54.0167595115
 20
-8.024362
 11
-53.4466052257
 21
-8.207475
  0
LINE
  5
5C7
100
AcDbEntity
  8
0
100
AcDbLine
 62
250
  6
CONTINUOUS
 10
-55.4428860003
 20
-7.56635
 11
-54.5676136777
 21
-7.84744
  0
LINE
  5
5C8
100
AcDbEntity
  8
0
100
AcDbLine
 62
250
  6
CONTINUOUS
 10
-55.0532164218
 20
3.763813985
 11
-55.0483560424
 21
3.7174608972
  0
LWPOLYLINE
  5
5C9
100
AcDbEntity
  8
0
100
AcDbPolyline
 62
250
  6
CONTINUOUS
 90
53
 70
0
 10
-54.563011785
 20
3.5882200575
 10
-54.5665910833
 20
3.6948258614
 10
-54.5686177011
 20
3.7481210085
 10
-54.5712597461
 20
3.8013969153
 10
-54.5740333182
 20
3.8439758624
 10
-54.5775204191
 20
3.8865062021
 10
-54.581821613
 20
3.9289583793
 10
-54.5870374641
 20
3.9713028391
 10
-54.5932685368
 20
4.0135100265
 10
-54.5993119931
 20
4.0485966381
 10
-54.6061612701
 20
4.0835398425
 10
-54.6138454834
 20
4.1183123618
 10
-54.6223937485
 20
4.1528869186
 10
-54.631835181
 20
4.1872362349
 10
-54.6421988964
 20
4.2213330331
 10
-54.6518399126
 20
4.2503226951
 10
-54.6622270001
 20
4.2790577062
 10
-54.6734076869
 20
4.3074888493
 10
-54.685429501
 20
4.3355669076
 10
-54.6983399702
 20
4.363242664
 10
-54.7121866223
 20
4.3904669015
 10
-54.7270169853
 20
4.4171904032
 10
-54.7408457716
 20
4.4401425663
 10
-54.7554637079
 20
4.4626213833
 10
-54.7708688983
 20
4.484575368
 10
-54.7870594467
 20
4.5059530338
 10
-54.8040334573
 20
4.5267028944
 10
-54.821789034
 20
4.5467734634
 10
-54.8403242807
 20
4.5661132544
 10
-54.8596373015
 20
4.584670781
 10
-54.8796981052
 20
4.6023841097
 10
-54.9004852398
 20
4.6192547416
 10
-54.9219507037
 20
4.6352720693
 10
-54.9440464959
 20
4.6504254852
 10
-54.9667246149
 20
4.6647043821
 10
-54.9899370595
 20
4.6780981526
 10
-55.0136358283
 20
4.6905961892
 10
-55.0377729201
 20
4.7021878845
 10
-55.0623037895
 20
4.7128694219
 10
-55.0871895841
 20
4.7226606687
 10
-55.1123948641
 20
4.7315883841
 10
-55.1378841901
 20
4.7396793271
 10
-55.1636221224
 20
4.7469602571
 10
-55.1895732216
 20
4.753457933
 10
-55.2157020479
 20
4.7591991139
 10
-55.2419731619
 20
4.7642105591
 10
-55.2720859159
 20
4.7690729355
 10
-55.3023141573
 20
4.7730645828
 10
-55.3326342321
 20
4.776230213
 10
-55.3630224864
 20
4.7786145378
 10
-55.3934552663
 20
4.7802622694
 10
-55.4239089177
 20
4.7812181196
 10
-55.4543597868
 20
4.7815268003
  0
LINE
  5
5CA
100
AcDbEntity
  8
0
100
AcDbLine
 62
250
  6
CONTINUOUS
 10
-55.8639217194
 20
3.323396
 11
-55.8639217194
 21
3.686612
  0
LINE
  5
5CB
100
AcDbEntity
  8
0
100
AcDbLine
 62
250
  6
CONTINUOUS
 10
-55.8094933027
 20
-4.680792
 11
-55.8094933027
 21
-5.386478
  0
LINE
  5
5CC
100
AcDbEntity
  8
0
100
AcDbLine
 62
250
  6
CONTINUOUS
 10
-55.1039792582
 20
-5.386471
 11
-55.1039792582
 21
-4.680792
  0
LINE
  5
5CD
100
AcDbEntity
  8
0
100
AcDbLine
 62
250
  6
CONTINUOUS
 10
-55.0447982894
 20
3.323396
 11
-55.0447982894
 21
3.686612
  0
LINE
  5
5CE
100
AcDbEntity
  8
0
100
AcDbLine
 62
250
  6
CONTINUOUS
 10
-54.5676136777
 20
-7.84744
 11
-54.5676136777
 21
-7.285246
  0
LINE
  5
5CF
100
AcDbEntity
  8
0
100
AcDbLine
 62
250
  6
CONTINUOUS
 10
-54.5676136777
 20
-4.872178
 11
-54.5676206755
 21
-5.378409
  0
LINE
  5
5D0
100
AcDbEntity
  8
0
100
AcDbLine
 62
250
  6
CONTINUOUS
 10
-54.5630120797
 20
3.58822
 11
-54.5630120797
 21
3.323396
  0
LINE
  5
5D1
100
AcDbEntity
  8
0
100
AcDbLine
 62
250
  6
CONTINUOUS
 10
-54.5428282293
 20
15.007869
 11
-54.5428282293
 21
14.176491
  0
LINE
  5
5D2
100
AcDbEntity
  8
0
100
AcDbLine
 62
250
  6
CONTINUOUS
 10
-54.5428282293
 20
8.982943
 11
-54.5428282293
 21
8.151456
  0
LWPOLYLINE
  5
5D3
100
AcDbEntity
  8
0
100
AcDbPolyline
 62
250
  6
CONTINUOUS
 90
54
 70
0
 10
-55.8603635311
 20
3.7174608972
 10
-55.8555031517
 20
3.763813985
 10
-55.8537820512
 20
3.7792495632
 10
-55.851915414
 20
3.794662096
 10
-55.8498462103
 20
3.8100423913
 10
-55.8475174103
 20
3.8253812571
 10
-55.8448719842
 20
3.8406695016
 10
-55.8418529021
 20
3.8558979327
 10
-55.8395197598
 20
3.8663734222
 10
-55.8369617863
 20
3.8768018468
 10
-55.8341595691
 20
3.8871690543
 10
-55.8310936958
 20
3.8974608925
 10
-55.8277447538
 20
3.907663209
 10
-55.8240933308
 20
3.9177618517
 10
-55.8201200143
 20
3.9277426683
 10
-55.8158053917
 20
3.9375915065
 10
-55.8117036805
 20
3.9461556907
 10
-55.8073219218
 20
3.9545891942
 10
-55.8026606499
 20
3.9628750024
 10
-55.7977203991
 20
3.9709961011
 10
-55.7925017036
 20
3.9789354759
 10
-55.7870050977
 20
3.9866761124
 10
-55.7812311157
 20
3.9942009963
 10
-55.7751802917
 20
4.001493113
 10
-55.76885316
 20
4.0085354483
 10
-55.7622003008
 20
4.0153674044
 10
-55.7552864777
 20
4.0219361053
 10
-55.748130858
 20
4.0282493076
 10
-55.7407526089
 20
4.0343147679
 10
-55.7331708978
 20
4.0401402428
 10
-55.7254048918
 20
4.0457334888
 10
-55.7174737584
 20
4.0511022627
 10
-55.7093966647
 20
4.0562543208
 10
-55.7011927782
 20
4.0611974199
 10
-55.6904899433
 20
4.0672512393
 10
-55.6796175294
 20
4.0729664611
 10
-55.6685836743
 20
4.0783367237
 10
-55.6573965158
 20
4.0833556651
 10
-55.6460641919
 20
4.0880169238
 10
-55.6345948404
 20
4.0923141379
 10
-55.6229965991
 20
4.0962409458
 10
-55.6104639662
 20
4.1000267408
 10
-55.5978071935
 20
4.103400823
 10
-55.5850401632
 20
4.1063821336
 10
-55.5721767576
 20
4.1089896139
 10
-55.5592308589
 20
4.1112422052
 10
-55.5462163494
 20
4.1131588488
 10
-55.5331471113
 20
4.1147584859
 10
-55.5200370267
 20
4.1160600579
 10
-55.5068999781
 20
4.1170825061
 10
-55.4937498475
 20
4.1178447717
 10
-55.4806005173
 20
4.118365796
 10
-55.4674658696
 20
4.1186645203
 10
-55.4543597868
 20
4.1187598859
  0
LWPOLYLINE
  5
5D4
100
AcDbEntity
  8
0
100
AcDbPolyline
 62
250
  6
CONTINUOUS
 90
3
 70
0
 10
-55.8639216471
 20
3.6866121309
 10
-55.8620727829
 20
3.7020250568
 10
-55.8603635311
 20
3.7174608972
  0
LINE
  5
5D5
100
AcDbEntity
  8
0
100
AcDbLine
 62
7
  6
CONTINUOUS
 10
-56.3457078206
 20
3.3860490992
 11
-55.8292298794
 21
3.9025270404
  0
LINE
  5
5D6
100
AcDbEntity
  8
0
100
AcDbLine
 62
7
  6
CONTINUOUS
 10
-55.6433085352
 20
4.0884483846
 11
-55.0323738771
 21
4.6993830427
  0
LINE
  5
5D7
100
AcDbEntity
  8
0
100
AcDbLine
 62
7
  6
CONTINUOUS
 10
-54.5606239198
 20
5.171133
 11
-53.9380179198
 21
5.793739
  0
LINE
  5
5D8
100
AcDbEntity
  8
0
100
AcDbLine
 62
7
  6
CONTINUOUS
 10
-53.92837644
 20
5.8033804798
 11
-53.4465902303
 21
6.2851666895
  0
LINE
  5
5D9
100
AcDbEntity
  8
0
100
AcDbLine
 62
7
  6
CONTINUOUS
 10
-56.2407043811
 20
2.70079
 11
-55.6180983811
 21
3.323396
  0
LINE
  5
5DA
100
AcDbEntity
  8
0
100
AcDbLine
 62
7
  6
CONTINUOUS
 10
-55.0705151278
 20
3.8709792534
 11
-54.6624947376
 21
4.2789996435
  0
LINE
  5
5DB
100
AcDbEntity
  8
0
100
AcDbLine
 62
7
  6
CONTINUOUS
 10
-53.7703613811
 20
5.171133
 11
-53.4465902303
 21
5.4949041508
  0
LINE
  5
5DC
100
AcDbEntity
  8
0
100
AcDbLine
 62
7
  6
CONTINUOUS
 10
-55.4504418425
 20
2.70079
 11
-54.5630120797
 21
3.5882197628
  0
LINE
  5
5DD
100
AcDbEntity
  8
0
100
AcDbLine
 62
7
  6
CONTINUOUS
 10
-54.6601793038
 20
2.70079
 11
-54.0375733038
 21
3.323396
  0
LWPOLYLINE
  5
5DE
100
AcDbEntity
  8
0
100
AcDbPolyline
 62
250
  6
CONTINUOUS
 90
73
 70
0
 10
-54.6373464315
 20
-4.255024
 10
-54.6510389227
 20
-4.2241841821
 10
-54.6659265556
 20
-4.1938422761
 10
-54.6819792362
 20
-4.1640480313
 10
-54.6991668706
 20
-4.1348511972
 10
-54.717459365
 20
-4.1063015231
 10
-54.7368266255
 20
-4.0784487582
 10
-54.7572385581
 20
-4.051342652
 10
-54.778665069
 20
-4.0250329538
 10
-54.8010760642
 20
-3.9995694128
 10
-54.8244401036
 20
-3.9749981577
 10
-54.8487203622
 20
-3.9513508336
 10
-54.8738786689
 20
-3.9286554648
 10
-54.8998768523
 20
-3.9069400756
 10
-54.9266767413
 20
-3.8862326905
 10
-54.9542401645
 20
-3.8665613336
 10
-54.9825289509
 20
-3.8479540295
 10
-55.0115049291
 20
-3.8304388024
 10
-55.041129928
 20
-3.8140436766
 10
-55.0713642689
 20
-3.7987946565
 10
-55.1021622437
 20
-3.7847096666
 10
-55.1334766371
 20
-3.7718046114
 10
-55.1652602334
 20
-3.7600953953
 10
-55.1974658173
 20
-3.7495979229
 10
-55.2300461732
 20
-3.7403280986
 10
-55.2629540858
 20
-3.7323018269
 10
-55.2961423395
 20
-3.7255350123
 10
-55.3295637189
 20
-3.7200435593
 10
-55.3631706588
 20
-3.715840458
 10
-55.3969141952
 20
-3.7129270416
 10
-55.4307450143
 20
-3.7113017286
 10
-55.4646138025
 20
-3.7109629379
 10
-55.4984712461
 20
-3.711909088
 10
-55.5322680312
 20
-3.7141385976
 10
-55.5659548443
 20
-3.7176498856
 10
-55.5994823715
 20
-3.7224413705
 10
-55.6328012991
 20
-3.7285114712
 10
-55.6658628558
 20
-3.735855921
 10
-55.6986204393
 20
-3.7444597129
 10
-55.7310279898
 20
-3.7543051544
 10
-55.7630394473
 20
-3.7653745533
 10
-55.794608752
 20
-3.7776502172
 10
-55.8256898439
 20
-3.7911144537
 10
-55.8562366633
 20
-3.8057495705
 10
-55.8862031501
 20
-3.8215378752
 10
-55.9155432445
 20
-3.8384616756
 10
-55.94421234
 20
-3.8565007292
 10
-55.9721716429
 20
-3.8756245941
 10
-55.9993838131
 20
-3.8958002783
 10
-56.0258115104
 20
-3.9169947897
 10
-56.0514173947
 20
-3.9391751365
 10
-56.0761641256
 20
-3.9623083266
 10
-56.100014363
 20
-3.986361368
 10
-56.1229307667
 20
-4.0113012687
 10
-56.1448759964
 20
-4.0370950369
 10
-56.1658148852
 20
-4.0637084042
 10
-56.185720958
 20
-4.0911019976
 10
-56.2045699133
 20
-4.119235168
 10
-56.2223374493
 20
-4.1480672661
 10
-56.2389992642
 20
-4.1775576426
 10
-56.2545310564
 20
-4.2076656483
 10
-56.2689085241
 20
-4.238350634
 10
-56.2821073655
 20
-4.2695719505
 10
-56.294103279
 20
-4.3012889485
 10
-56.3048746086
 20
-4.3334581646
 10
-56.3144102819
 20
-4.3660248793
 10
-56.322701872
 20
-4.3989315587
 10
-56.3297409523
 20
-4.4321206689
 10
-56.3355190961
 20
-4.4655346762
 10
-56.3400278767
 20
-4.4991160468
 10
-56.3432588673
 20
-4.5328072468
 10
-56.3452036412
 20
-4.5665507425
 10
-56.3458537718
 20
-4.600289
  0
LWPOLYLINE
  5
5DF
100
AcDbEntity
  8
0
100
AcDbPolyline
 62
250
  6
CONTINUOUS
 90
3
 70
0
 10
-55.0483560424
 20
3.7174608972
 10
-55.0466467906
 20
3.7020250568
 10
-55.0447979265
 20
3.6866121309
  0
LINE
  5
5E0
100
AcDbEntity
  8
0
100
AcDbLine
 62
250
  6
CONTINUOUS
 10
-54.0610420196
 20
7.990812
 11
-54.0610420196
 21
9.139549
  0
LINE
  5
5E1
100
AcDbEntity
  8
0
100
AcDbLine
 62
250
  6
CONTINUOUS
 10
-54.0610420196
 20
14.015846
 11
-54.0610420196
 21
15.164584
  0
LINE
  5
5E2
100
AcDbEntity
  8
0
100
AcDbLine
 62
250
  6
CONTINUOUS
 10
-54.0167595115
 20
-7.108317
 11
-54.0167595115
 21
-8.024362
  0
LINE
  5
5E3
100
AcDbEntity
  8
0
100
AcDbLine
 62
250
  6
CONTINUOUS
 10
-53.92837644
 20
5.793739
 11
-53.92837644
 21
6.866738
  0
LINE
  5
5E4
100
AcDbEntity
  8
0
100
AcDbLine
 62
250
  6
CONTINUOUS
 10
-53.4465902303
 20
-15.068868
 11
-53.4465972282
 21
-14.488824
  0
LINE
  5
5E5
100
AcDbEntity
  8
0
100
AcDbLine
 62
250
  6
CONTINUOUS
 10
-53.4465902303
 20
-13.171014
 11
-53.4465972282
 21
-12.590992
  0
LINE
  5
5E6
100
AcDbEntity
  8
0
100
AcDbLine
 62
250
  6
CONTINUOUS
 10
-53.4465972282
 20
-10.882587
 11
-53.4466052257
 21
-10.30258
  0
LINE
  5
5E7
100
AcDbEntity
  8
0
100
AcDbLine
 62
250
  6
CONTINUOUS
 10
-53.4466052257
 20
-8.207475
 11
-53.4465972282
 21
-8.787497
  0
LINE
  5
5E8
100
AcDbEntity
  8
0
100
AcDbLine
 62
250
  6
CONTINUOUS
 10
-53.4466122236
 20
-3.637619
 11
-53.4466052257
 21
-4.290924
  0
LINE
  5
5E9
100
AcDbEntity
  8
0
100
AcDbLine
 62
250
  6
CONTINUOUS
 10
-53.4466052257
 20
-5.378474
 11
-53.4466052257
 21
-5.958503
  0
LINE
  5
5EA
100
AcDbEntity
  8
0
100
AcDbLine
 62
250
  6
CONTINUOUS
 10
-53.4465972282
 20
-12.010985
 11
-53.4465972282
 21
-11.430963
  0
LINE
  5
5EB
100
AcDbEntity
  8
0
100
AcDbLine
 62
250
  6
CONTINUOUS
 10
-53.4465972282
 20
-9.754197
 11
-53.4465972282
 21
-9.174176
  0
LINE
  5
5EC
100
AcDbEntity
  8
0
100
AcDbLine
 62
250
  6
CONTINUOUS
 10
-53.4465902303
 20
12.911198
 11
-53.4465902303
 21
12.027546
  0
LINE
  5
5ED
100
AcDbEntity
  8
0
100
AcDbLine
 62
250
  6
CONTINUOUS
 10
-53.4465902303
 20
10.87477
 11
-53.4465902303
 21
10.292325
  0
LINE
  5
5EE
100
AcDbEntity
  8
0
100
AcDbLine
 62
250
  6
CONTINUOUS
 10
-53.4465902303
 20
6.866738
 11
-53.4465902303
 21
5.171133
  0
LINE
  5
5EF
100
AcDbEntity
  8
0
100
AcDbLine
 62
250
  6
CONTINUOUS
 10
-53.4465902303
 20
2.70079
 11
-53.4465902303
 21
3.323396
  0
LINE
  5
5F0
100
AcDbEntity
  8
0
100
AcDbLine
 62
250
  6
CONTINUOUS
 10
-53.4465902303
 20
7.179514
 11
-53.4465902303
 21
7.773964
  0
LINE
  5
5F1
100
AcDbEntity
  8
0
100
AcDbLine
 62
250
  6
CONTINUOUS
 10
-53.4465902303
 20
9.348431
 11
-53.4465902303
 21
9.975074
  0
LINE
  5
5F2
100
AcDbEntity
  8
0
100
AcDbLine
 62
250
  6
CONTINUOUS
 10
-53.4465902303
 20
13.20444
 11
-53.4465902303
 21
13.798889
  0
LINE
  5
5F3
100
AcDbEntity
  8
0
100
AcDbLine
 62
250
  6
CONTINUOUS
 10
-53.4465902303
 20
15.373574
 11
-53.4465902303
 21
16.0
  0
LINE
  5
5F4
100
AcDbEntity
  8
0
100
AcDbLine
 62
250
  6
CONTINUOUS
 10
-53.4465972282
 20
-6.345182
 11
-53.4466052257
 21
-6.925211
  0
LINE
  5
5F5
100
AcDbEntity
  8
ASSI
100
AcDbLine
 62
250
  6
CONTINUOUS
 10
-52.3032136467
 20
-23.7507734247
 11
-52.3032136467
 21
-22.3338981669
  0
LINE
  5
5F6
100
AcDbEntity
  8
ASSI
100
AcDbLine
 62
250
  6
CONTINUOUS
 10
-52.3032136467
 20
22.3338981669
 11
-52.3032136467
 21
23.7507734247
  0
LINE
  5
5F7
100
AcDbEntity
  8
0
100
AcDbLine
 62
250
  6
CONTINUOUS
 10
-51.9473364452
 20
14.0218572147
 11
-51.9473364452
 21
13.5699283559
  0
LINE
  5
5F8
100
AcDbEntity
  8
0
100
AcDbLine
 62
250
  6
CONTINUOUS
 10
-51.9473364452
 20
12.364785822
 11
-51.9473364452
 21
11.762214178
  0
LWPOLYLINE
  5
5F9
100
AcDbEntity
  8
RACCORDO
100
AcDbPolyline
 62
250
  6
CONTINUOUS
 90
8
 70
0
 10
-59.1262790406
 20
-24.495628166
 10
-59.1262050906
 20
-24.4952867588
 10
-59.1261352671
 20
-24.4942634962
 10
-59.126069769
 20
-24.492559892
 10
-59.1260087714
 20
-24.4901787618
 10
-59.1259524644
 20
-24.4871256484
 10
-59.1259010421
 20
-24.4834102087
 10
-59.1258134187
 20
-24.4740372277
  0
LWPOLYLINE
  5
5FA
100
AcDbEntity
  8
0
100
AcDbPolyline
 62
7
  6
CONTINUOUS
 90
3
 70
0
 43
0.3500000087
 10
-41.6491624329
 20
34.0157031769
 10
-41.720589856
 20
33.8014166443
 10
-41.8634489655
 20
33.5157026886
  0
LINE
  5
5FB
100
AcDbEntity
  8
0
100
AcDbLine
 62
7
  6
CONTINUOUS
 10
-53.8699167652
 20
2.70079
 11
-53.4465902303
 21
3.1241165349
  0
LINE
  5
5FC
100
AcDbEntity
  8
0
100
AcDbLine
 62
250
  6
CONTINUOUS
 10
-53.4466052257
 20
-5.958503
 11
-56.3458518853
 21
-5.958503
  0
LINE
  5
5FD
100
AcDbEntity
  8
0
100
AcDbLine
 62
250
  6
CONTINUOUS
 10
-55.8094933027
 20
-5.386478
 11
-55.1039792582
 21
-5.386471
  0
LINE
  5
5FE
100
AcDbEntity
  8
0
100
AcDbLine
 62
250
  6
CONTINUOUS
 10
-54.5676206755
 20
-5.378409
 11
-53.4466052257
 21
-5.378474
  0
LINE
  5
5FF
100
AcDbEntity
  8
RACCORDO
100
AcDbLine
 62
7
  6
CONTINUOUS
 10
-27.260281067
 20
-5.1946658545
 11
-46.8122132319
 21
-5.1154879757
  0
LINE
  5
600
100
AcDbEntity
  8
0
100
AcDbLine
 62
7
  6
CONTINUOUS
 10
-27.260281067
 20
-5.1946658545
 11
-46.8122132319
 21
-5.1154879757
  0
LINE
  5
601
100
AcDbEntity
  8
0
100
AcDbLine
 62
7
  6
CONTINUOUS
 10
-30.2305709411
 20
-4.8277217249
 11
-46.8087776837
 21
-4.7218131513
  0
LINE
  5
602
100
AcDbEntity
  8
0
100
AcDbLine
 62
7
  6
CONTINUOUS
 10
-26.2777334734
 20
-4.8622176149
 11
-30.2305709411
 21
-4.8277217249
  0
LWPOLYLINE
  5
603
100
AcDbEntity
  8
0
100
AcDbPolyline
 62
250
  6
CONTINUOUS
 90
33
 70
0
 10
-35.0664822457
 20
-13.4904306346
 10
-35.0714003835
 20
-13.487739928
 10
-35.0762496256
 20
-13.4849223085
 10
-35.081028924
 20
-13.4819826805
 10
-35.0857372305
 20
-13.4789259481
 10
-35.0903734971
 20
-13.4757570157
 10
-35.0949366758
 20
-13.4724807874
 10
-35.0994257185
 20
-13.4691021677
 10
-35.1038395771
 20
-13.4656260607
 10
-35.1086507118
 20
-13.4616584179
 10
-35.1133691726
 20
-13.457580776
 10
-35.1179962353
 20
-13.4533972369
 10
-35.122533176
 20
-13.4491119022
 10
-35.1269812706
 20
-13.4447288741
 10
-35.1313417949
 20
-13.4402522542
 10
-35.135616025
 20
-13.4356861445
 10
-35.1398052368
 20
-13.4310346468
 10
-35.1439107061
 20
-13.426301863
 10
-35.147933709
 20
-13.421491895
 10
-35.1518755213
 20
-13.4166088446
 10
-35.1557374191
 20
-13.4116568136
 10
-35.1595206782
 20
-13.4066399041
 10
-35.1632265745
 20
-13.4015622177
 10
-35.1668563841
 20
-13.3964278564
 10
-35.1704113827
 20
-13.3912409221
 10
-35.1738928465
 20
-13.3860055166
 10
-35.1773020512
 20
-13.3807257417
 10
-35.1806402729
 20
-13.3754056994
 10
-35.1839087875
 20
-13.3700494915
 10
-35.1871088708
 20
-13.3646612199
 10
-35.1902417989
 20
-13.3592449864
 10
-35.1933088477
 20
-13.3538048929
 10
-35.196311293
 20
-13.3483450412
  0
LINE
  5
604
100
AcDbEntity
  8
ASSI
100
AcDbLine
 62
7
  6
CONTINUOUS
 10
-51.8777334734
 20
-23.2563578147
 11
-51.8777334734
 21
-22.3301850577
  0
LINE
  5
605
100
AcDbEntity
  8
ASSI
100
AcDbLine
 62
7
  6
CONTINUOUS
 10
-51.8777334734
 20
22.3301850577
 11
-51.8777334734
 21
23.2563578147
  0
LINE
  5
606
100
AcDbEntity
  8
0
100
AcDbLine
 62
250
  6
CONTINUOUS
 10
-51.1331747991
 20
12.364785822
 11
-51.1331747991
 21
12.0635
  0
LWPOLYLINE
  5
607
100
AcDbEntity
  8
0
100
AcDbPolyline
 62
7
  6
CONTINUOUS
 90
2
 70
0
 43
0.3500000087
 10
-50.7920175415
 20
43.7239450928
 10
-50.7920175415
 20
45.2239422943
  0
LINE
  5
608
100
AcDbEntity
  8
0
100
AcDbLine
 62
250
  6
CONTINUOUS
 10
-50.4547066757
 20
11.1596427853
 11
-50.4547066757
 21
10.105142911
  0
LINE
  5
609
100
AcDbEntity
  8
0
100
AcDbLine
 62
250
  6
CONTINUOUS
 10
-50.0476258244
 20
14.3231427853
 11
-50.0476258244
 21
13.2686427853
  0
LINE
  5
60A
100
AcDbEntity
  8
0
100
AcDbLine
 62
250
  6
CONTINUOUS
 10
-50.0476258244
 20
11.762214178
 11
-50.0476258244
 21
12.5154286073
  0
LINE
  5
60B
100
AcDbEntity
  8
ASSI
100
AcDbLine
 62
7
  6
CONTINUOUS
 10
-42.5277334734
 20
-2.45
 11
-40.0277334734
 21
-2.45
  0
LINE
  5
60C
100
AcDbEntity
  8
ASSI
100
AcDbLine
 62
7
  6
CONTINUOUS
 10
-37.5277334734
 20
-2.45
 11
-35.0277334734
 21
-2.45
  0
LINE
  5
60D
100
AcDbEntity
  8
ASSI
100
AcDbLine
 62
7
  6
CONTINUOUS
 10
-32.5277334734
 20
-2.45
 11
-30.0277334734
 21
-2.45
  0
LINE
  5
60E
100
AcDbEntity
  8
ASSI
100
AcDbLine
 62
250
  6
CONTINUOUS
 10
-42.5277334734
 20
-2.05
 11
-40.0277334734
 21
-2.05
  0
LINE
  5
60F
100
AcDbEntity
  8
ASSI
100
AcDbLine
 62
250
  6
CONTINUOUS
 10
-37.5277334734
 20
-2.05
 11
-35.0277334734
 21
-2.05
  0
LINE
  5
610
100
AcDbEntity
  8
ASSI
100
AcDbLine
 62
250
  6
CONTINUOUS
 10
-32.5277334734
 20
-2.05
 11
-30.0277334734
 21
-2.05
  0
LINE
  5
611
100
AcDbEntity
  8
RACCORDO
100
AcDbLine
 62
250
  6
CONTINUOUS
 10
-49.3690072702
 20
21.5659754333
 11
-49.3690072702
 21
20.9917082642
  0
LINE
  5
612
100
AcDbEntity
  8
RACCORDO
100
AcDbLine
 62
250
  6
CONTINUOUS
 10
-49.3690072702
 20
-20.9917082642
 11
-49.3690072702
 21
-21.5659754333
  0
LINE
  5
613
100
AcDbEntity
  8
0
100
AcDbLine
 62
7
  6
CONTINUOUS
 10
-48.8777334734
 20
-20.6754493507
 11
-48.8777334734
 21
20.6754493507
  0
LINE
  5
614
100
AcDbEntity
  8
RACCORDO
100
AcDbLine
 62
7
  6
CONTINUOUS
 10
-48.8777334734
 20
-21.3126932437
 11
-48.8777334734
 21
21.3126932437
  0
LINE
  5
615
100
AcDbEntity
  8
0
100
AcDbLine
 62
7
  6
CONTINUOUS
 10
-26.2777334734
 20
-1.3377823851
 11
-30.2305709411
 21
-1.3722782751
  0
LINE
  5
616
100
AcDbEntity
  8
0
100
AcDbLine
 62
7
  6
CONTINUOUS
 10
-30.2305709411
 20
-1.3722782751
 11
-46.8087776837
 21
-1.4781868487
  0
LINE
  5
617
100
AcDbEntity
  8
RACCORDO
100
AcDbLine
 62
7
  6
CONTINUOUS
 10
-27.260281067
 20
-1.0053341455
 11
-46.8122132319
 21
-1.0845120243
  0
LINE
  5
618
100
AcDbEntity
  8
0
100
AcDbLine
 62
7
  6
CONTINUOUS
 10
-27.260281067
 20
-1.0053341455
 11
-46.8122132319
 21
-1.0845120243
  0
LINE
  5
619
100
AcDbEntity
  8
0
100
AcDbLine
 62
250
  6
CONTINUOUS
 10
-46.8122132319
 20
-1.0845120243
 11
-46.8087776837
 21
-1.4781868487
  0
LINE
  5
61A
100
AcDbEntity
  8
0
100
AcDbLine
 62
250
  6
CONTINUOUS
 10
-46.8122132319
 20
-5.1154879757
 11
-46.8087776837
 21
-4.7218131513
  0
LWPOLYLINE
  5
61B
100
AcDbEntity
  8
RACCORDO
100
AcDbPolyline
 62
250
  6
CONTINUOUS
 90
5
 70
0
 10
-59.0052290759
 20
-23.6326765842
 10
-59.0040966999
 20
-23.6305857918
 10
-59.0033020143
 20
-23.6290788219
 10
-59.0028471915
 20
-23.6281597935
 10
-59.0027334734
 20
-23.6278312164
  0
LINE
  5
61C
100
AcDbEntity
  8
RACCORDO
100
AcDbLine
 62
250
  6
CONTINUOUS
 10
-59.0084936262
 20
-23.6385852371
 11
-59.0052290759
 21
-23.6326765842
  0
LINE
  5
61D
100
AcDbEntity
  8
RACCORDO
100
AcDbLine
 62
250
  6
CONTINUOUS
 10
-59.0158164837
 20
-23.6516334796
 11
-59.0084936262
 21
-23.6385852371
  0
LINE
  5
61E
100
AcDbEntity
  8
RACCORDO
100
AcDbLine
 62
250
  6
CONTINUOUS
 10
-59.0384537393
 20
-23.6914794042
 11
-59.0158164837
 21
-23.6516334796
  0
LINE
  5
61F
100
AcDbEntity
  8
RACCORDO
100
AcDbLine
 62
250
  6
CONTINUOUS
 10
-59.1132576044
 20
-23.821769291
 11
-59.0384537393
 21
-23.6914794042
  0
LINE
  5
620
100
AcDbEntity
  8
RACCORDO
100
AcDbLine
 62
250
  6
CONTINUOUS
 10
-59.1262790406
 20
-23.8443375673
 11
-59.1132576044
 21
-23.821769291
  0
LINE
  5
621
100
AcDbEntity
  8
0
100
AcDbLine
 62
250
  6
CONTINUOUS
 10
-54.6373444321
 20
-4.255022
 11
-53.4466122236
 21
-3.637619
  0
LINE
  5
622
100
AcDbEntity
  8
0
100
AcDbLine
 62
250
  6
CONTINUOUS
 10
-53.4466052257
 20
-4.290924
 11
-54.5676136777
 21
-4.872178
  0
LINE
  5
623
100
AcDbEntity
  8
0
100
AcDbLine
 62
250
  6
CONTINUOUS
 10
-41.0828763845
 20
0.5
 11
-39.8777334734
 21
0.5
  0
LINE
  5
624
100
AcDbEntity
  8
0
100
AcDbLine
 62
250
  6
CONTINUOUS
 10
-37.5893048661
 20
0.5
 11
-36.9867334734
 21
0.5
  0
LINE
  5
625
100
AcDbEntity
  8
0
100
AcDbLine
 62
250
  6
CONTINUOUS
 10
-36.0828763845
 20
0.5
 11
-34.8777334734
 21
0.5
  0
LINE
  5
626
100
AcDbEntity
  8
0
100
AcDbLine
 62
250
  6
CONTINUOUS
 10
-30.6309477771
 20
2.2890208311
 11
-29.8777334734
 21
2.2890208311
  0
LINE
  5
627
100
AcDbEntity
  8
0
100
AcDbLine
 62
250
  6
CONTINUOUS
 10
-37.4386620808
 20
2.4
 11
-36.8360905624
 21
2.4
  0
LINE
  5
628
100
AcDbEntity
  8
0
100
AcDbLine
 62
250
  6
CONTINUOUS
 10
-33.2957124913
 20
-12.442341
 11
-34.2320878551
 21
-11.522946
  0
LINE
  5
629
100
AcDbEntity
  8
0
100
AcDbLine
 62
250
  6
CONTINUOUS
 10
-30.8951661106
 20
-14.7993831668
 11
-32.3219053133
 21
-13.3984933674
  0
LINE
  5
62A
100
AcDbEntity
  8
0
100
AcDbLine
 62
250
  6
CONTINUOUS
 10
-32.4560269918
 20
-13.2668132741
 11
-33.2137173736
 21
-12.5228497802
  0
LINE
  5
62B
100
AcDbEntity
  8
0
100
AcDbLine
 62
250
  6
CONTINUOUS
 10
-34.7020832278
 20
-11.0614540594
 11
-35.8139704623
 21
-9.9697090822
  0
LINE
  5
62C
100
AcDbEntity
  8
0
100
AcDbLine
 62
250
  6
CONTINUOUS
 10
-34.4140791327
 20
-11.344233
 11
-34.5737648081
 21
-11.187437
  0
LINE
  5
62D
100
AcDbEntity
  8
0
100
AcDbLine
 62
250
  6
CONTINUOUS
 10
-33.2978161709
 20
-12.602586
 11
-32.6086371522
 21
-13.279931
  0
LINE
  5
62E
100
AcDbEntity
  8
0
100
AcDbLine
 62
250
  6
CONTINUOUS
 10
-32.4746351663
 20
-13.411634521
 11
-30.9774460141
 21
-14.8831265382
  0
LINE
  5
62F
100
AcDbEntity
  8
0
100
AcDbLine
 62
250
  6
CONTINUOUS
 10
-35.9766521073
 20
-9.9697090822
 11
-34.7020716162
 21
-11.2224119606
  0
LINE
  5
630
100
AcDbEntity
  8
0
100
AcDbLine
 62
250
  6
CONTINUOUS
 10
-33.925106617
 20
-11.986057
 11
-33.3797036971
 21
-12.522113
  0
LINE
  5
631
100
AcDbEntity
  8
0
100
AcDbLine
 62
250
  6
CONTINUOUS
 10
-34.3963038404
 20
-11.522946
 11
-34.0454952784
 21
-11.867743
  0
LINE
  5
632
100
AcDbEntity
  8
RACCORDO
100
AcDbLine
 62
250
  6
CONTINUOUS
 10
-59.1262790406
 20
23.8443375673
 11
-59.0640800351
 21
23.7362657898
  0
LINE
  5
633
100
AcDbEntity
  8
RACCORDO
100
AcDbLine
 62
250
  6
CONTINUOUS
 10
-59.0640800351
 20
23.7362657898
 11
-59.022233967
 21
23.6629768418
  0
LINE
  5
634
100
AcDbEntity
  8
RACCORDO
100
AcDbLine
 62
250
  6
CONTINUOUS
 10
-59.022233967
 20
23.6629768418
 11
-59.0106153154
 21
23.6423841576
  0
LWPOLYLINE
  5
635
100
AcDbEntity
  8
RACCORDO
100
AcDbPolyline
 62
250
  6
CONTINUOUS
 90
7
 70
0
 10
-59.0106153154
 20
23.6423841576
 10
-59.006695258
 20
23.6353440559
 10
-59.0052285704
 20
23.6326756587
 10
-59.0040964181
 20
23.6305852658
 10
-59.0033018927
 20
23.6290785857
 10
-59.0028471639
 20
23.6281597328
 10
-59.0027334734
 20
23.6278312164
  0
LINE
  5
636
100
AcDbEntity
  8
0
100
AcDbLine
 62
7
  6
CONTINUOUS
 10
-43.7777334734
 20
-4.7411767396
 11
-43.7777334734
 21
-1.4588232604
  0
LINE
  5
637
100
AcDbEntity
  8
0
100
AcDbLine
 62
7
  6
CONTINUOUS
 10
-43.3277334734
 20
-4.7440515293
 11
-43.3277334734
 21
-1.4559484707
  0
LINE
  5
638
100
AcDbEntity
  8
0
100
AcDbLine
 62
250
  6
CONTINUOUS
 10
-56.3458518853
 20
-7.276321
 11
-53.4465972282
 21
-6.345182
  0
LINE
  5
639
100
AcDbEntity
  8
0
100
AcDbLine
 62
250
  6
CONTINUOUS
 10
-56.3457079292
 20
2.70079
 11
-53.4465902303
 21
2.70079
  0
LINE
  5
63A
100
AcDbEntity
  8
0
100
AcDbLine
 62
250
  6
CONTINUOUS
 10
-53.4465902303
 20
3.323396
 11
-54.5630120797
 21
3.323396
  0
LINE
  5
63B
100
AcDbEntity
  8
0
100
AcDbLine
 62
250
  6
CONTINUOUS
 10
-55.0447982894
 20
3.323396
 11
-55.8639217194
 21
3.323396
  0
LWPOLYLINE
  5
63C
100
AcDbEntity
  8
0
100
AcDbPolyline
 62
250
  6
CONTINUOUS
 90
53
 70
0
 10
-55.4543597868
 20
4.1187598859
 10
-55.4412537039
 20
4.1186645203
 10
-55.4281190562
 20
4.118365796
 10
-55.414969726
 20
4.1178447717
 10
-55.4018195954
 20
4.1170825061
 10
-55.3886825468
 20
4.1160600579
 10
-55.3755724623
 20
4.1147584859
 10
-55.3625032241
 20
4.1131588488
 10
-55.3494887146
 20
4.1112422052
 10
-55.3365428159
 20
4.1089896139
 10
-55.3236794103
 20
4.1063821336
 10
-55.3109123801
 20
4.103400823
 10
-55.2982556073
 20
4.1000267408
 10
-55.2857229744
 20
4.0962409458
 10
-55.2741247331
 20
4.0923141379
 10
-55.2626553816
 20
4.0880169238
 10
-55.2513230577
 20
4.0833556651
 10
-55.2401358992
 20
4.0783367237
 10
-55.2291020441
 20
4.0729664611
 10
-55.2182296302
 20
4.0672512393
 10
-55.2075267954
 20
4.0611974199
 10
-55.1993229088
 20
4.0562543208
 10
-55.1912458151
 20
4.0511022627
 10
-55.1833146817
 20
4.0457334888
 10
-55.1755486758
 20
4.0401402428
 10
-55.1679669646
 20
4.0343147679
 10
-55.1605887155
 20
4.0282493076
 10
-55.1534330958
 20
4.0219361053
 10
-55.1465192727
 20
4.0153674044
 10
-55.1398664135
 20
4.0085354483
 10
-55.1335392818
 20
4.001493113
 10
-55.1274884579
 20
3.9942009963
 10
-55.1217144758
 20
3.9866761124
 10
-55.1162178699
 20
3.9789354759
 10
-55.1109991744
 20
3.9709961011
 10
-55.1060589236
 20
3.9628750024
 10
-55.1013976517
 20
3.9545891942
 10
-55.0970158931
 20
3.9461556907
 10
-55.0929141818
 20
3.9375915065
 10
-55.0885995593
 20
3.9277426683
 10
-55.0846262427
 20
3.9177618517
 10
-55.0809748197
 20
3.907663209
 10
-55.0776258778
 20
3.8974608925
 10
-55.0745600044
 20
3.8871690543
 10
-55.0717577872
 20
3.8768018468
 10
-55.0691998137
 20
3.8663734222
 10
-55.0668666714
 20
3.8558979327
 10
-55.0638475893
 20
3.8406695016
 10
-55.0612021632
 20
3.8253812571
 10
-55.0588733632
 20
3.8100423913
 10
-55.0568041595
 20
3.794662096
 10
-55.0549375223
 20
3.7792495632
 10
-55.0532164218
 20
3.763813985
  0
LINE
  5
63D
100
AcDbEntity
  8
0
100
AcDbLine
 62
250
  6
CONTINUOUS
 10
-51.4045620144
 20
8.9
 11
-51.9473364452
 21
9.5025714555
  0
LINE
  5
63E
100
AcDbEntity
  8
0
100
AcDbLine
 62
250
  6
CONTINUOUS
 10
-51.1331747991
 20
12.364785822
 11
-51.2688683501
 21
12.6158570471
  0
LINE
  5
63F
100
AcDbEntity
  8
ASSI
100
AcDbLine
 62
7
  6
CONTINUOUS
 10
-42.5277334734
 20
-2.05
 11
-42.8263607283
 21
-1.4527454903
  0
LWPOLYLINE
  5
640
100
AcDbEntity
  8
0
100
AcDbPolyline
 62
250
  6
CONTINUOUS
 90
17
 70
0
 10
-42.1509110067
 20
-13.7222387988
 10
-42.0777855245
 20
-14.0628461661
 10
-41.9368830431
 20
-14.3882096853
 10
-41.734459709
 20
-14.6792995123
 10
-41.4785026716
 20
-14.9246299264
 10
-41.1846730112
 20
-15.11171325
 10
-40.8541058877
 20
-15.2398267191
 10
-40.5047417544
 20
-15.3000636886
 10
-40.1503656992
 20
-15.2900473491
 10
-39.8049605689
 20
-15.2101729218
 10
-39.4875494466
 20
-15.0667092432
 10
-39.199358595
 20
-14.8602105601
 10
-38.9576631744
 20
-14.6008141393
 10
-38.7719999183
 20
-14.2987551539
 10
-38.6512630477
 20
-13.9719822807
 10
-38.5959190084
 20
-13.6217579498
 10
-38.6112985512
 20
-13.2645899989
  0
LINE
  5
641
100
AcDbEntity
  8
ASSI
100
AcDbLine
 62
7
  6
CONTINUOUS
 10
-42.5277334734
 20
-2.05
 11
-42.5277334734
 21
-2.45
  0
LWPOLYLINE
  5
642
100
AcDbEntity
  8
0
100
AcDbPolyline
 62
250
  6
CONTINUOUS
 90
17
 70
0
 10
-42.9145530447
 20
-8.92959
 10
-42.9157616975
 20
-9.4272613275
 10
-42.8177306814
 20
-9.9242124046
 10
-42.6234226341
 20
-10.3919797192
 10
-42.3405044949
 20
-10.8121062718
 10
-41.9801395488
 20
-11.1680148559
 10
-41.5644311807
 20
-11.4415328838
 10
-41.0949854078
 20
-11.6316036663
 10
-40.5972380851
 20
-11.7251210381
 10
-40.0908291526
 20
-11.7183950236
 10
-39.5957403173
 20
-11.6116910153
 10
-39.1392784364
 20
-11.4135565139
 10
-38.7232069711
 20
-11.1247569775
 10
-38.3724187613
 20
-10.7594030101
 10
-38.1007550857
 20
-10.331910621
 10
-37.9189351546
 20
-9.8591476555
 10
-37.8341845274
 20
-9.3605127873
  0
LWPOLYLINE
  5
643
100
AcDbEntity
  8
0
100
AcDbPolyline
 62
250
  6
CONTINUOUS
 90
17
 70
0
 10
-42.9145530447
 20
-13.26459
 10
-42.9157616975
 20
-13.7622613275
 10
-42.8177306814
 20
-14.2592124046
 10
-42.6234226341
 20
-14.7269797192
 10
-42.3405044949
 20
-15.1471062718
 10
-41.9801395488
 20
-15.5030148559
 10
-41.5644311807
 20
-15.7765328838
 10
-41.0949854078
 20
-15.9666036663
 10
-40.5972380851
 20
-16.0601210381
 10
-40.0908291526
 20
-16.0533950236
 10
-39.5957403173
 20
-15.9466910153
 10
-39.1392784364
 20
-15.7485565139
 10
-38.7232069711
 20
-15.4597569775
 10
-38.3724187613
 20
-15.0944030101
 10
-38.1007550857
 20
-14.666910621
 10
-37.9189351546
 20
-14.1941476555
 10
-37.8341845274
 20
-13.6955127873
  0
LWPOLYLINE
  5
644
100
AcDbEntity
  8
0
100
AcDbPolyline
 62
250
  6
CONTINUOUS
 90
8
 70
0
 10
-42.1441443995
 20
-8.92959
 10
-42.1581309332
 20
-9.3086947743
 10
-42.091699556
 20
-9.6821939578
 10
-41.9478508545
 20
-10.0332172606
 10
-41.7290208155
 20
-10.3506343253
 10
-41.4521263787
 20
-10.6099068143
 10
-41.1267029941
 20
-10.804800292
 10
-40.7601632792
 20
-10.9281264426
  0
LINE
  5
645
100
AcDbEntity
  8
0
100
AcDbLine
 62
250
  6
CONTINUOUS
 10
-37.7399476514
 20
2.1285714164
 11
-37.4386620808
 21
2.4
  0
LINE
  5
646
100
AcDbEntity
  8
0
100
AcDbLine
 62
250
  6
CONTINUOUS
 10
-36.9867334734
 20
0.5
 11
-36.6854477771
 21
0.7714285553
  0
LINE
  5
647
100
AcDbEntity
  8
0
100
AcDbLine
 62
250
  6
CONTINUOUS
 10
-54.5676136777
 20
-7.285246
 11
-55.4428860003
 21
-7.56635
  0
LINE
  5
648
100
AcDbEntity
  8
0
100
AcDbLine
 62
250
  6
CONTINUOUS
 10
-53.4466052257
 20
-6.925211
 11
-54.0167595115
 21
-7.108317
  0
LWPOLYLINE
  5
649
100
AcDbEntity
  8
0
100
AcDbPolyline
 62
250
  6
CONTINUOUS
 90
52
 70
0
 10
-55.4543597868
 20
4.7815268003
 10
-55.4848106558
 20
4.7812181196
 10
-55.5152643072
 20
4.7802622694
 10
-55.5456970871
 20
4.7786145378
 10
-55.5760853414
 20
4.776230213
 10
-55.6064054162
 20
4.7730645828
 10
-55.6366336576
 20
4.7690729355
 10
-55.6667464116
 20
4.7642105591
 10
-55.6930175256
 20
4.7591991139
 10
-55.719146352
 20
4.753457933
 10
-55.7450974511
 20
4.7469602571
 10
-55.7708353835
 20
4.7396793271
 10
-55.7963247094
 20
4.7315883841
 10
-55.8215299895
 20
4.7226606687
 10
-55.846415784
 20
4.7128694219
 10
-55.8709466534
 20
4.7021878845
 10
-55.8950837452
 20
4.6905961892
 10
-55.918782514
 20
4.6780981526
 10
-55.9419949586
 20
4.6647043821
 10
-55.9646730776
 20
4.6504254852
 10
-55.9867688698
 20
4.6352720693
 10
-56.0082343338
 20
4.6192547416
 10
-56.0290214683
 20
4.6023841097
 10
-56.049082272
 20
4.584670781
 10
-56.0683952928
 20
4.5661132544
 10
-56.0869305396
 20
4.5467734634
 10
-56.1046861162
 20
4.5267028944
 10
-56.1216601268
 20
4.5059530338
 10
-56.1378506753
 20
4.484575368
 10
-56.1532558657
 20
4.4626213833
 10
-56.167873802
 20
4.4401425663
 10
-56.1817025882
 20
4.4171904032
 10
-56.1965329512
 20
4.3904669015
 10
-56.2103796034
 20
4.363242664
 10
-56.2232900725
 20
4.3355669076
 10
-56.2353118866
 20
4.3074888493
 10
-56.2464925734
 20
4.2790577062
 10
-56.256879661
 20
4.2503226951
 10
-56.2665206771
 20
4.2213330331
 10
-56.2768843926
 20
4.1872362349
 10
-56.286325825
 20
4.1528869186
 10
-56.2948740901
 20
4.1183123618
 10
-56.3025583034
 20
4.0835398425
 10
-56.3094075804
 20
4.0485966381
 10
-56.3154510367
 20
4.0135100265
 10
-56.3216821094
 20
3.9713028391
 10
-56.3268979605
 20
3.9289583793
 10
-56.3311991544
 20
3.8865062021
 10
-56.3346862553
 20
3.8439758624
 10
-56.3374598274
 20
3.8013969153
 10
-56.3401018724
 20
3.7481210085
 10
-56.3421284902
 20
3.6948258614
  0
LINE
  5
64A
100
AcDbEntity
  8
RACCORDO
100
AcDbLine
 62
250
  6
CONTINUOUS
 10
-26.2777334734
 20
4.7228182695
 11
-27.260281067
 21
4.7228182695
  0
LINE
  5
64B
100
AcDbEntity
  8
0
100
AcDbLine
 62
250
  6
CONTINUOUS
 10
-26.2777334734
 20
4.7228182695
 11
-27.260281067
 21
4.7228182695
  0
LINE
  5
64C
100
AcDbEntity
  8
0
100
AcDbLine
 62
250
  6
CONTINUOUS
 10
-53.4465902303
 20
5.171133
 11
-56.3457079292
 21
5.171133
  0
LINE
  5
64D
100
AcDbEntity
  8
0
100
AcDbLine
 62
250
  6
CONTINUOUS
 10
-56.3457079292
 20
5.793739
 11
-53.92837644
 21
5.793739
  0
LINE
  5
64E
100
AcDbEntity
  8
0
100
AcDbLine
 62
250
  6
CONTINUOUS
 10
-53.92837644
 20
6.866738
 11
-53.4465902303
 21
6.866738
  0
LINE
  5
64F
100
AcDbEntity
  8
RACCORDO
100
AcDbLine
 62
250
  6
CONTINUOUS
 10
-48.8777334734
 20
5.1001523048
 11
-27.260281067
 21
4.7228182695
  0
LINE
  5
650
100
AcDbEntity
  8
0
100
AcDbLine
 62
250
  6
CONTINUOUS
 10
-48.8777334734
 20
5.1001523048
 11
-27.260281067
 21
4.7228182695
  0
LINE
  5
651
100
AcDbEntity
  8
RACCORDO
100
AcDbLine
 62
7
  6
CONTINUOUS
 10
-48.8777334734
 20
6.1
 11
-27.260281067
 21
5.7226659647
  0
LINE
  5
652
100
AcDbEntity
  8
0
100
AcDbLine
 62
7
  6
CONTINUOUS
 10
-48.8777334734
 20
6.1
 11
-27.260281067
 21
5.7226659647
  0
LINE
  5
653
100
AcDbEntity
  8
0
100
AcDbLine
 62
250
  6
CONTINUOUS
 10
-54.5428282293
 20
8.151456
 11
-55.7917167188
 21
8.581471
  0
LINE
  5
654
100
AcDbEntity
  8
0
100
AcDbLine
 62
250
  6
CONTINUOUS
 10
-53.4465902303
 20
7.773964
 11
-54.0610420196
 21
7.990812
  0
LINE
  5
655
100
AcDbEntity
  8
0
100
AcDbLine
 62
250
  6
CONTINUOUS
 10
-56.3457079292
 20
8.227849
 11
-53.4465902303
 21
7.179514
  0
LINE
  5
656
100
AcDbEntity
  8
0
100
AcDbLine
 62
250
  6
CONTINUOUS
 10
-30.9100404581
 20
-10.3386702872
 11
-30.9908580368
 21
-10.2534999339
  0
LINE
  5
657
100
AcDbEntity
  8
0
100
AcDbLine
 62
250
  6
CONTINUOUS
 10
-50.0476258244
 20
12.5154286073
 11
-50.1833194462
 21
12.6660713927
  0
LWPOLYLINE
  5
658
100
AcDbEntity
  8
0
100
AcDbPolyline
 62
250
  6
CONTINUOUS
 90
40
 70
0
 10
-35.3527386871
 20
-13.348333428
 10
-35.3474050776
 20
-13.3598505829
 10
-35.341904454
 20
-13.3713091393
 10
-35.3362325104
 20
-13.3826995648
 10
-35.3303849408
 20
-13.3940123273
 10
-35.3243574394
 20
-13.4052378944
 10
-35.3181457001
 20
-13.4163667341
 10
-35.3117454172
 20
-13.4273893139
 10
-35.3051522847
 20
-13.4382961018
 10
-35.2983619966
 20
-13.4490775655
 10
-35.291370247
 20
-13.4597241728
 10
-35.2841727301
 20
-13.4702263914
 10
-35.2767651399
 20
-13.4805746891
 10
-35.2691431704
 20
-13.4907595336
 10
-35.2613025159
 20
-13.5007713928
 10
-35.2532388702
 20
-13.5106007345
 10
-35.2449479276
 20
-13.5202380263
 10
-35.237864723
 20
-13.5281126397
 10
-35.230620817
 20
-13.5358391248
 10
-35.2232162433
 20
-13.5434092537
 10
-35.2156510356
 20
-13.5508147985
 10
-35.2079252278
 20
-13.5580475312
 10
-35.2000388537
 20
-13.565099224
 10
-35.191991947
 20
-13.571961649
 10
-35.1837845415
 20
-13.5786265782
 10
-35.1754166711
 20
-13.5850857839
 10
-35.1678487487
 20
-13.5906449971
 10
-35.1601569966
 20
-13.5960308858
 10
-35.1523441994
 20
-13.6012389786
 10
-35.1444131414
 20
-13.606264804
 10
-35.1363666073
 20
-13.6111038904
 10
-35.1281688478
 20
-13.6157731374
 10
-35.1198611806
 20
-13.6202444271
 10
-35.1114474543
 20
-13.6245128187
 10
-35.1029315174
 20
-13.6285733714
 10
-35.0943172184
 20
-13.6324211442
 10
-35.0874453972
 20
-13.635304955
 10
-35.0805139853
 20
-13.6380393095
 10
-35.0735223625
 20
-13.6406105948
 10
-35.0664699084
 20
-13.6430051984
  0
LINE
  5
659
100
AcDbEntity
  8
0
100
AcDbLine
 62
250
  6
CONTINUOUS
 10
-40.7601632187
 20
-9.43959
 11
-40.7601632187
 21
-10.928126
  0
LINE
  5
65A
100
AcDbEntity
  8
0
100
AcDbLine
 62
250
  6
CONTINUOUS
 10
-40.4803049289
 20
0.5
 11
-40.4803049289
 21
2.4
  0
LINE
  5
65B
100
AcDbEntity
  8
ASSI
100
AcDbLine
 62
7
  6
CONTINUOUS
 10
-40.0277334734
 20
-2.05
 11
-40.0277334734
 21
-2.45
  0
LINE
  5
65C
100
AcDbEntity
  8
0
100
AcDbLine
 62
250
  6
CONTINUOUS
 10
-39.9952797319
 20
-9.43959
 11
-39.9952797319
 21
-10.928126
  0
LINE
  5
65D
100
AcDbEntity
  8
0
100
AcDbLine
 62
7
  6
CONTINUOUS
 10
-39.2277334734
 20
-4.7702440577
 11
-39.2277334734
 21
-1.4297559423
  0
LWPOLYLINE
  5
65E
100
AcDbEntity
  8
0
100
AcDbPolyline
 62
250
  6
CONTINUOUS
 90
7
 70
0
 10
-42.1441443995
 20
-13.26459
 10
-42.1532716118
 20
-13.3387950608
 10
-42.1592839059
 20
-13.4133172973
 10
-42.1621707341
 20
-13.4880259722
 10
-42.1617653886
 20
-13.5690187464
 10
-42.1581309332
 20
-13.6436947743
 10
-42.1509110045
 20
-13.7222388174
  0
LINE
  5
65F
100
AcDbEntity
  8
ASSI
100
AcDbLine
 62
7
  6
CONTINUOUS
 10
-39.7191812323
 20
-1.4328955178
 11
-40.0277334734
 21
-2.05
  0
LINE
  5
660
100
AcDbEntity
  8
0
100
AcDbLine
 62
250
  6
CONTINUOUS
 10
-54.4577511505
 20
-10.59258
 11
-56.3458448874
 21
-11.134148
  0
LINE
  5
661
100
AcDbEntity
  8
0
100
AcDbLine
 62
250
  6
CONTINUOUS
 10
-55.3584567242
 20
-11.430963
 11
-53.4465972282
 21
-10.882587
  0
LINE
  5
662
100
AcDbEntity
  8
0
100
AcDbLine
 62
250
  6
CONTINUOUS
 10
-50.4547066757
 20
10.105142911
 11
-51.9473364452
 21
10.5570713927
  0
LINE
  5
663
100
AcDbEntity
  8
0
100
AcDbLine
 62
250
  6
CONTINUOUS
 10
-51.9473364452
 20
13.5699283559
 11
-51.5402555655
 21
13.2686427853
  0
LINE
  5
664
100
AcDbEntity
  8
0
100
AcDbLine
 62
250
  6
CONTINUOUS
 10
-36.6854477771
 20
1.0428571105
 11
-37.7399476514
 21
1.8571428329
  0
LINE
  5
665
100
AcDbEntity
  8
0
100
AcDbLine
 62
250
  6
CONTINUOUS
 10
-37.7399476514
 20
0.6357143342
 11
-37.5893048661
 21
0.5
  0
LINE
  5
666
100
AcDbEntity
  8
0
100
AcDbLine
 62
250
  6
CONTINUOUS
 10
-51.4045620144
 20
14.9257144294
 11
-51.9473364452
 21
15.5282855706
  0
LINE
  5
667
100
AcDbEntity
  8
ASSI
100
AcDbLine
 62
7
  6
CONTINUOUS
 10
-37.5277334734
 20
-2.05
 11
-37.8422809298
 21
-1.4209050874
  0
LINE
  5
668
100
AcDbEntity
  8
0
100
AcDbLine
 62
7
  6
CONTINUOUS
 10
-38.3277334734
 20
-4.7759936371
 11
-38.3277334734
 21
-1.4240063629
  0
LINE
  5
669
100
AcDbEntity
  8
0
100
AcDbLine
 62
250
  6
CONTINUOUS
 10
-37.7399476514
 20
1.8571428329
 11
-37.7399476514
 21
2.1285714164
  0
LINE
  5
66A
100
AcDbEntity
  8
ASSI
100
AcDbLine
 62
7
  6
CONTINUOUS
 10
-37.5277334734
 20
-2.05
 11
-37.5277334734
 21
-2.45
  0
LINE
  5
66B
100
AcDbEntity
  8
0
100
AcDbLine
 62
250
  6
CONTINUOUS
 10
-36.6854477771
 20
0.7714285553
 11
-36.6854477771
 21
1.0428571105
  0
LWPOLYLINE
  5
66C
100
AcDbEntity
  8
0
100
AcDbPolyline
 62
250
  6
CONTINUOUS
 90
7
 70
0
 10
-37.8341845147
 20
-9.3605126037
 10
-37.8302649022
 20
-9.2894134757
 10
-37.8283317198
 20
-9.2182326096
 10
-37.8283864748
 20
-9.1470255099
 10
-37.8304291245
 20
-9.0758477019
 10
-37.8344580762
 20
-9.0047546879
 10
-37.8408899066
 20
-8.9295899921
  0
LWPOLYLINE
  5
66D
100
AcDbEntity
  8
0
100
AcDbPolyline
 62
250
  6
CONTINUOUS
 90
7
 70
0
 10
-37.8341845147
 20
-13.6955126037
 10
-37.8302649022
 20
-13.6244134757
 10
-37.8283317198
 20
-13.5532326096
 10
-37.8283864748
 20
-13.4820255099
 10
-37.8304291245
 20
-13.4108477019
 10
-37.8344580762
 20
-13.3397546879
 10
-37.8408899066
 20
-13.2645899921
  0
LINE
  5
66E
100
AcDbEntity
  8
0
100
AcDbLine
 62
250
  6
CONTINUOUS
 10
-31.2335191698
 20
0.9318779416
 11
-31.8360905624
 21
0.3890208311
  0
LINE
  5
66F
100
AcDbEntity
  8
0
100
AcDbLine
 62
250
  6
CONTINUOUS
 10
-51.9473364452
 20
9.5025714555
 11
-50.0476258244
 21
9.5025714555
  0
LINE
  5
670
100
AcDbEntity
  8
0
100
AcDbLine
 62
250
  6
CONTINUOUS
 10
-53.4465902303
 20
10.292325
 11
-56.3457079292
 21
10.292325
  0
LINE
  5
671
100
AcDbEntity
  8
0
100
AcDbLine
 62
250
  6
CONTINUOUS
 10
-50.0476258244
 20
10.8081428691
 11
-50.9974811348
 21
10.8081428691
  0
LINE
  5
672
100
AcDbEntity
  8
0
100
AcDbLine
 62
250
  6
CONTINUOUS
 10
-55.8729549672
 20
10.87477
 11
-53.4465902303
 21
10.87477
  0
LINE
  5
673
100
AcDbEntity
  8
0
100
AcDbLine
 62
250
  6
CONTINUOUS
 10
-54.5428282293
 20
14.176491
 11
-55.7915527688
 21
14.606449
  0
LINE
  5
674
100
AcDbEntity
  8
0
100
AcDbLine
 62
250
  6
CONTINUOUS
 10
-53.4465902303
 20
13.798889
 11
-54.0610420196
 21
14.015846
  0
LINE
  5
675
100
AcDbEntity
  8
0
100
AcDbLine
 62
250
  6
CONTINUOUS
 10
-56.3457079292
 20
14.252884
 11
-53.4465902303
 21
13.20444
  0
LINE
  5
676
100
AcDbEntity
  8
0
100
AcDbLine
 62
250
  6
CONTINUOUS
 10
-50.0476258244
 20
13.2686427853
 11
-51.4045620144
 21
14.3231427853
  0
LINE
  5
677
100
AcDbEntity
  8
0
100
AcDbLine
 62
250
  6
CONTINUOUS
 10
-36.8360905624
 20
2.4
 11
-36.6854477771
 21
2.2642857082
  0
LWPOLYLINE
  5
678
100
AcDbEntity
  8
0
100
AcDbPolyline
 62
250
  6
CONTINUOUS
 90
17
 70
0
 10
-35.2834898034
 20
-13.1044879089
 10
-35.2885996505
 20
-13.0823709779
 10
-35.2934296569
 20
-13.0601888074
 10
-35.2979899844
 20
-13.0379461895
 10
-35.3022907946
 20
-13.0156479162
 10
-35.3063422494
 20
-12.9932987795
 10
-35.3101545104
 20
-12.9709035714
 10
-35.3137377392
 20
-12.9484670838
 10
-35.3171020976
 20
-12.9259941089
 10
-35.3202577473
 20
-12.9034894386
 10
-35.32321485
 20
-12.8809578649
 10
-35.3259835673
 20
-12.8584041799
 10
-35.328574061
 20
-12.8358331754
 10
-35.3309964927
 20
-12.8132496437
 10
-35.3341297612
 20
-12.7815245251
 10
-35.3369562564
 20
-12.749779402
 10
-35.3394805169
 20
-12.7180095207
  0
LWPOLYLINE
  5
679
100
AcDbEntity
  8
0
100
AcDbPolyline
 62
250
  6
CONTINUOUS
 90
18
 70
0
 10
-35.4855758419
 20
-12.7180095207
 10
-35.4839502495
 20
-12.7418547053
 10
-35.4821448025
 20
-12.7656863695
 10
-35.4801555992
 20
-12.7895058946
 10
-35.4779787377
 20
-12.8133146622
 10
-35.4757363196
 20
-12.8358868985
 10
-35.4733135109
 20
-12.8584462827
 10
-35.4707022466
 20
-12.8809883975
 10
-35.4678944618
 20
-12.9035088256
 10
-35.4648820916
 20
-12.9260031495
 10
-35.4616570711
 20
-12.9484669519
 10
-35.4582113355
 20
-12.9708958155
 10
-35.4545368199
 20
-12.9932853228
 10
-35.4506254592
 20
-13.0156310566
 10
-35.4464691887
 20
-13.0379285995
 10
-35.4420599435
 20
-13.060173534
 10
-35.4373896586
 20
-13.082361443
 10
-35.4324502692
 20
-13.1044879089
  0
LINE
  5
67A
100
AcDbEntity
  8
0
100
AcDbLine
 62
250
  6
CONTINUOUS
 10
-35.5420774619
 20
-12.016393857
 11
-35.5420774619
 21
-12.7180095207
  0
LINE
  5
67B
100
AcDbEntity
  8
0
100
AcDbLine
 62
250
  6
CONTINUOUS
 10
-35.4803049289
 20
0.5
 11
-35.4803049289
 21
2.4
  0
LINE
  5
67C
100
AcDbEntity
  8
0
100
AcDbLine
 62
250
  6
CONTINUOUS
 10
-35.447039409
 20
-13.1044879089
 11
-35.447039409
 21
-13.348333428
  0
LINE
  5
67D
100
AcDbEntity
  8
0
100
AcDbLine
 62
250
  6
CONTINUOUS
 10
-35.3994080395
 20
-12.57533
 11
-35.3994080395
 21
-12.159121
  0
LINE
  5
67E
100
AcDbEntity
  8
0
100
AcDbLine
 62
250
  6
CONTINUOUS
 10
-35.3339880048
 20
-12.159121
 11
-35.3339880048
 21
-12.57533
  0
LINE
  5
67F
100
AcDbEntity
  8
0
100
AcDbLine
 62
250
  6
CONTINUOUS
 10
-35.1913052797
 20
-12.7180095207
 11
-35.1913052797
 21
-12.016393857
  0
LINE
  5
680
100
AcDbEntity
  8
0
100
AcDbLine
 62
250
  6
CONTINUOUS
 10
-35.0664822457
 20
-13.3483450412
 11
-35.0664822457
 21
-13.4904306346
  0
LINE
  5
681
100
AcDbEntity
  8
0
100
AcDbLine
 62
250
  6
CONTINUOUS
 10
-35.0664699084
 20
-11.4462194886
 11
-35.0664699084
 21
-13.1044879089
  0
LINE
  5
682
100
AcDbEntity
  8
0
100
AcDbLine
 62
250
  6
CONTINUOUS
 10
-35.0664699084
 20
-13.6430051984
 11
-35.0664699084
 21
-13.7942594773
  0
LINE
  5
683
100
AcDbEntity
  8
ASSI
100
AcDbLine
 62
7
  6
CONTINUOUS
 10
-35.0277334734
 20
-2.05
 11
-35.0277334734
 21
-2.45
  0
LINE
  5
684
100
AcDbEntity
  8
0
100
AcDbLine
 62
250
  6
CONTINUOUS
 10
-34.9237876424
 20
-13.7942594773
 11
-34.9237876424
 21
-13.6223488001
  0
LINE
  5
685
100
AcDbEntity
  8
0
100
AcDbLine
 62
250
  6
CONTINUOUS
 10
-34.91787839
 20
-13.478611
 11
-34.91787839
 21
-11.440618
  0
LINE
  5
686
100
AcDbEntity
  8
0
100
AcDbLine
 62
250
  6
CONTINUOUS
 10
-34.7020832278
 20
-11.0387283195
 11
-34.7020832278
 21
-11.0614540594
  0
LINE
  5
687
100
AcDbEntity
  8
0
100
AcDbLine
 62
250
  6
CONTINUOUS
 10
-34.7020716162
 20
-11.2224119606
 11
-34.7020716162
 21
-11.3173817459
  0
LINE
  5
688
100
AcDbEntity
  8
0
100
AcDbLine
 62
250
  6
CONTINUOUS
 10
-34.7020592653
 20
-11.460728
 11
-34.7020592653
 21
-11.522946
  0
LINE
  5
689
100
AcDbEntity
  8
0
100
AcDbLine
 62
250
  6
CONTINUOUS
 10
-34.5737648081
 20
-11.187437
 11
-34.5737648081
 21
-11.163617
  0
LINE
  5
68A
100
AcDbEntity
  8
0
100
AcDbLine
 62
250
  6
CONTINUOUS
 10
-34.3328695032
 20
-11.163617
 11
-34.3328695032
 21
-11.351808
  0
LINE
  5
68B
100
AcDbEntity
  8
ASSI
100
AcDbLine
 62
7
  6
CONTINUOUS
 10
-34.703159
 20
-1.4008510531
 11
-35.0277334734
 21
-2.05
  0
LINE
  5
68C
100
AcDbEntity
  8
RACCORDO
100
AcDbLine
 62
7
  6
CONTINUOUS
 10
-61.3777334734
 20
-23.1226497308
 11
-62.2527334734
 21
-23.6278312164
  0
LWPOLYLINE
  5
68D
100
AcDbEntity
  8
0
100
AcDbPolyline
 62
250
  6
CONTINUOUS
 90
8
 70
0
 10
-39.9952797319
 20
-10.928126
 10
-39.6355205634
 20
-10.807918064
 10
-39.3092852826
 20
-10.6143873028
 10
-39.0313093537
 20
-10.3562751548
 10
-38.8111542061
 20
-10.0397761207
 10
-38.6658392189
 20
-9.6893575688
 10
-38.5978468914
 20
-9.3161395686
 10
-38.6112989967
 20
-8.9295900283
  0
LINE
  5
68E
100
AcDbEntity
  8
0
100
AcDbLine
 62
250
  6
CONTINUOUS
 10
-54.3495561153
 20
-14.778839
 11
-56.3458448874
 21
-15.419971
  0
LINE
  5
68F
100
AcDbEntity
  8
0
100
AcDbLine
 62
250
  6
CONTINUOUS
 10
-56.3458448874
 20
-16.0
 11
-53.4465902303
 21
-15.068868
  0
LINE
  5
690
100
AcDbEntity
  8
0
100
AcDbLine
 62
250
  6
CONTINUOUS
 10
-54.0482939036
 20
12.328754
 11
-56.3457079292
 21
12.328754
  0
LINE
  5
691
100
AcDbEntity
  8
0
100
AcDbLine
 62
250
  6
CONTINUOUS
 10
-51.2688683501
 20
12.6158570471
 11
-51.6759492298
 21
12.6158570471
  0
LINE
  5
692
100
AcDbEntity
  8
0
100
AcDbLine
 62
250
  6
CONTINUOUS
 10
-50.1833194462
 20
12.6660713927
 11
-50.8617875271
 21
12.6660713927
  0
LINE
  5
693
100
AcDbEntity
  8
0
100
AcDbLine
 62
250
  6
CONTINUOUS
 10
-56.3457079292
 20
12.911198
 11
-53.4465902303
 21
12.911198
  0
LINE
  5
694
100
AcDbEntity
  8
RACCORDO
100
AcDbLine
 62
7
  6
CONTINUOUS
 10
-62.2527334734
 20
23.6278312164
 11
-61.3777334734
 21
23.1226497308
  0
LINE
  5
695
100
AcDbEntity
  8
ASSI
100
AcDbLine
 62
7
  6
CONTINUOUS
 10
-32.5277334734
 20
-2.05
 11
-32.8582011312
 21
-1.3890646845
  0
LINE
  5
696
100
AcDbEntity
  8
0
100
AcDbLine
 62
7
  6
CONTINUOUS
 10
-34.2277334734
 20
-4.8021861656
 11
-34.2277334734
 21
-1.3978138344
  0
LINE
  5
697
100
AcDbEntity
  8
0
100
AcDbLine
 62
250
  6
CONTINUOUS
 10
-34.2104711479
 20
-11.867743
 11
-34.2104711479
 21
-12.741818
  0
LINE
  5
698
100
AcDbEntity
  8
0
100
AcDbLine
 62
250
  6
CONTINUOUS
 10
-34.2045741844
 20
-11.3637484973
 11
-34.2045741844
 21
-11.0387283195
  0
LINE
  5
699
100
AcDbEntity
  8
0
100
AcDbLine
 62
250
  6
CONTINUOUS
 10
-34.2045740462
 20
-11.522946
 11
-34.2045740462
 21
-11.507094
  0
LINE
  5
69A
100
AcDbEntity
  8
0
100
AcDbLine
 62
250
  6
CONTINUOUS
 10
-33.925106617
 20
-12.741818
 11
-33.925106617
 21
-11.986057
  0
LINE
  5
69B
100
AcDbEntity
  8
0
100
AcDbLine
 62
7
  6
CONTINUOUS
 10
-33.3277334734
 20
-4.807935745
 11
-33.3277334734
 21
-1.392064255
  0
LINE
  5
69C
100
AcDbEntity
  8
ASSI
100
AcDbLine
 62
7
  6
CONTINUOUS
 10
-32.5277334734
 20
-2.05
 11
-32.5277334734
 21
-2.45
  0
LWPOLYLINE
  5
69D
100
AcDbEntity
  8
0
100
AcDbPolyline
 62
250
  6
CONTINUOUS
 90
46
 70
0
 10
-35.3244755398
 20
-12.0164054703
 10
-35.3208533929
 20
-11.9896070311
 10
-35.3169080937
 20
-11.9628158999
 10
-35.3126301583
 20
-11.9360648191
 10
-35.308010103
 20
-11.9093865313
 10
-35.3030384441
 20
-11.8828137788
 10
-35.2977056977
 20
-11.8563793041
 10
-35.2920023802
 20
-11.8301158497
 10
-35.2880668505
 20
-11.8130588503
 10
-35.2839416481
 20
-11.7960750428
 10
-35.2795993703
 20
-11.7791506199
 10
-35.2750126142
 20
-11.7622717739
 10
-35.2701539772
 20
-11.7454246974
 10
-35.2649960565
 20
-11.728595583
 10
-35.2595114494
 20
-11.711770623
 10
-35.2536727531
 20
-11.6949360102
 10
-35.2474525649
 20
-11.6780779368
 10
-35.2408234821
 20
-11.6611825956
 10
-35.2369222962
 20
-11.6517021136
 10
-35.2328806032
 20
-11.6422210872
 10
-35.2286947373
 20
-11.6327549914
 10
-35.2243610328
 20
-11.6233193012
 10
-35.2198758243
 20
-11.6139294917
 10
-35.2152354459
 20
-11.6046010378
 10
-35.2104362322
 20
-11.5953494147
 10
-35.2054745174
 20
-11.5861900972
 10
-35.2003466358
 20
-11.5771385606
 10
-35.1950489219
 20
-11.5682102797
 10
-35.1895777101
 20
-11.5594207296
 10
-35.1839293345
 20
-11.5507853853
 10
-35.1781001297
 20
-11.5423197218
 10
-35.17208643
 20
-11.5340392143
 10
-35.1658845698
 20
-11.5259593376
 10
-35.1594908833
 20
-11.5180955669
 10
-35.152901705
 20
-11.5104633771
 10
-35.1461133692
 20
-11.5030782432
 10
-35.1391222103
 20
-11.4959556404
 10
-35.1319245626
 20
-11.4891110436
 10
-35.1245167605
 20
-11.4825599278
 10
-35.1168951383
 20
-11.4763177681
 10
-35.1090560305
 20
-11.4704000395
 10
-35.1009957713
 20
-11.464822217
 10
-35.0927106952
 20
-11.4595997756
 10
-35.0841971364
 20
-11.4547481904
 10
-35.0754514294
 20
-11.4502829364
 10
-35.0664699084
 20
-11.4462194886
  0
LWPOLYLINE
  5
69E
100
AcDbEntity
  8
0
100
AcDbPolyline
 62
250
  6
CONTINUOUS
 90
44
 70
0
 10
-35.2758473752
 20
-11.1568639115
 10
-35.2777231112
 20
-11.1621724198
 10
-35.2794400217
 20
-11.1675351485
 10
-35.2809972596
 20
-11.1729472508
 10
-35.2823939777
 20
-11.17840388
 10
-35.2836293291
 20
-11.1839001893
 10
-35.2847024667
 20
-11.189431332
 10
-35.2856125433
 20
-11.1949924614
 10
-35.286358712
 20
-11.2005787307
 10
-35.2869401256
 20
-11.2061852932
 10
-35.2873559371
 20
-11.2118073022
 10
-35.2876052993
 20
-11.2174399109
 10
-35.2876873652
 20
-11.2230782726
 10
-35.2876065642
 20
-11.2285487369
 10
-35.2873682622
 20
-11.2340155781
 10
-35.2869731845
 20
-11.2394743207
 10
-35.2864220566
 20
-11.2449204887
 10
-35.2857156037
 20
-11.2503496065
 10
-35.2848545511
 20
-11.2557571982
 10
-35.2838396243
 20
-11.2611387881
 10
-35.2826715485
 20
-11.2664899005
 10
-35.2813510492
 20
-11.2718060595
 10
-35.2798788516
 20
-11.2770827894
 10
-35.2782556811
 20
-11.2823156144
 10
-35.2764822631
 20
-11.2875000587
 10
-35.2745593228
 20
-11.2926316466
 10
-35.2724875857
 20
-11.2977059024
 10
-35.270267777
 20
-11.3027183502
 10
-35.2679006221
 20
-11.3076645142
 10
-35.2653059256
 20
-11.3126922243
 10
-35.2625592709
 20
-11.3176404069
 10
-35.2596646918
 20
-11.3225048168
 10
-35.2566262221
 20
-11.3272812085
 10
-35.2534478958
 20
-11.3319653368
 10
-35.2501337466
 20
-11.3365529561
 10
-35.2466878083
 20
-11.3410398212
 10
-35.2431141149
 20
-11.3454216868
 10
-35.2394167002
 20
-11.3496943074
 10
-35.2355995979
 20
-11.3538534377
 10
-35.231666842
 20
-11.3578948323
 10
-35.2276224663
 20
-11.3618142458
 10
-35.2234705046
 20
-11.365607433
 10
-35.2192149907
 20
-11.3692701484
 10
-35.2148599586
 20
-11.3727981468
  0
LINE
  5
69F
100
AcDbEntity
  8
RACCORDO
100
AcDbLine
 62
250
  6
CONTINUOUS
 10
-61.1291879063
 20
-23.2669872981
 11
-62.1291879063
 21
-23.8443375673
  0
LINE
  5
6A0
100
AcDbEntity
  8
0
100
AcDbLine
 62
250
  6
CONTINUOUS
 10
-51.4045620144
 20
14.3231427853
 11
-51.6759492298
 21
14.3231427853
  0
LINE
  5
6A1
100
AcDbEntity
  8
0
100
AcDbLine
 62
250
  6
CONTINUOUS
 10
-51.9473364452
 20
15.5282855706
 11
-50.0476258244
 21
15.5282855706
  0
LINE
  5
6A2
100
AcDbEntity
  8
RACCORDO
100
AcDbLine
 62
250
  6
CONTINUOUS
 10
-62.1291879063
 20
23.8443375673
 11
-61.1291879063
 21
23.2669872981
  0
LWPOLYLINE
  5
6A3
100
AcDbEntity
  8
0
100
AcDbPolyline
 62
250
  6
CONTINUOUS
 90
49
 70
0
 10
-32.2006847511
 20
-11.6938705347
 10
-32.199086652
 20
-11.7058968749
 10
-32.197105506
 20
-11.7179009815
 10
-32.1947462781
 20
-11.7298707628
 10
-32.1920139334
 20
-11.7417941273
 10
-32.1889134369
 20
-11.7536589834
 10
-32.1854497537
 20
-11.7654532396
 10
-32.1816278489
 20
-11.7771648044
 10
-32.1774526874
 20
-11.788781586
 10
-32.1729292344
 20
-11.8002914931
 10
-32.1680624548
 20
-11.8116824339
 10
-32.1628573138
 20
-11.822942317
 10
-32.1573187764
 20
-11.8340590507
 10
-32.1514518076
 20
-11.8450205435
 10
-32.1452613725
 20
-11.8558147038
 10
-32.1387524362
 20
-11.8664294401
 10
-32.1319299637
 20
-11.8768526608
 10
-32.12479892
 20
-11.8870722743
 10
-32.1173642702
 20
-11.8970761891
 10
-32.1096309793
 20
-11.9068523135
 10
-32.1016040125
 20
-11.9163885561
 10
-32.0932883347
 20
-11.9256728252
 10
-32.084688911
 20
-11.9346930293
 10
-32.0758107065
 20
-11.9434370768
 10
-32.0666586862
 20
-11.9518928762
 10
-32.0571482631
 20
-11.9601258746
 10
-32.0473767783
 20
-11.9680491808
 10
-32.0373571583
 20
-11.9756591808
 10
-32.0271023291
 20
-11.9829522612
 10
-32.0166252171
 20
-11.989924808
 10
-32.0059387487
 20
-11.9965732076
 10
-31.99505585
 20
-12.0028938462
 10
-31.9839894473
 20
-12.0088831101
 10
-31.972752467
 20
-12.0145373856
 10
-31.9613578353
 20
-12.019853059
 10
-31.9498184786
 20
-12.0248265165
 10
-31.9381473229
 20
-12.0294541443
 10
-31.9263572948
 20
-12.0337323289
 10
-31.9144613204
 20
-12.0376574564
 10
-31.902472326
 20
-12.041225913
 10
-31.8904032379
 20
-12.0444340852
 10
-31.8782669824
 20
-12.0472783591
 10
-31.8660764857
 20
-12.0497551211
 10
-31.8538446742
 20
-12.0518607573
 10
-31.8415844742
 20
-12.0535916541
 10
-31.8293088118
 20
-12.0549441977
 10
-31.8170306134
 20
-12.0559147744
 10
-31.8047628053
 20
-12.0564997705
 10
-31.7925183138
 20
-12.0566955723
  0
LINE
  5
6A4
100
AcDbEntity
  8
0
100
AcDbLine
 62
250
  6
CONTINUOUS
 10
-31.8360905624
 20
0.3890208311
 11
-31.8360905624
 21
2.2890208311
  0
LINE
  5
6A5
100
AcDbEntity
  8
0
100
AcDbLine
 62
250
  6
CONTINUOUS
 10
-31.7431744656
 20
-12.0537697512
 11
-31.7431744656
 21
-13.2054864389
  0
LINE
  5
6A6
100
AcDbEntity
  8
0
100
AcDbLine
 62
250
  6
CONTINUOUS
 10
-31.600503811
 20
-13.0142628749
 11
-31.600503811
 21
-12.0091515245
  0
LINE
  5
6A7
100
AcDbEntity
  8
0
100
AcDbLine
 62
250
  6
CONTINUOUS
 10
-31.3858265387
 20
-13.2787052741
 11
-31.3858265387
 21
-13.0142628749
  0
LINE
  5
6A8
100
AcDbEntity
  8
ASSI
100
AcDbLine
 62
7
  6
CONTINUOUS
 10
-30.0277334734
 20
-2.05
 11
-30.0277334734
 21
-2.45
  0
LWPOLYLINE
  5
6A9
100
AcDbEntity
  8
0
100
AcDbPolyline
 62
250
  6
CONTINUOUS
 90
79
 70
0
 10
-34.9220401097
 20
-11.2968676103
 10
-34.9192577947
 20
-11.289866498
 10
-34.9167573191
 20
-11.2827444284
 10
-34.9145411963
 20
-11.2755152756
 10
-34.9126119395
 20
-11.2681929133
 10
-34.9109720618
 20
-11.2607912152
 10
-34.9096240764
 20
-11.2533240553
 10
-34.9085704966
 20
-11.2458053072
 10
-34.9078138355
 20
-11.2382488449
 10
-34.9073566064
 20
-11.2306685421
 10
-34.9072013224
 20
-11.2230782726
 10
-34.9073508938
 20
-11.2154620748
 10
-34.9078051607
 20
-11.2078614504
 10
-34.9085619912
 20
-11.2002880355
 10
-34.9096192533
 20
-11.1927534659
 10
-34.9109748149
 20
-11.1852693777
 10
-34.9126265439
 20
-11.1778474067
 10
-34.9145723084
 20
-11.170499189
 10
-34.9168099763
 20
-11.1632363604
 10
-34.9193374156
 20
-11.1560705568
 10
-34.9221524942
 20
-11.1490134144
 10
-34.9254883152
 20
-11.1415773164
 10
-34.9291436624
 20
-11.1342918124
 10
-34.9331095701
 20
-11.1271690881
 10
-34.9373770723
 20
-11.120221329
 10
-34.9419372034
 20
-11.1134607208
 10
-34.9467809974
 20
-11.1068994491
 10
-34.9518994885
 20
-11.1005496996
 10
-34.957283711
 20
-11.0944236578
 10
-34.9629246989
 20
-11.0885335095
 10
-34.9688128831
 20
-11.0828909905
 10
-34.9749368351
 20
-11.0775055143
 10
-34.9812845307
 20
-11.0723860525
 10
-34.9878439459
 20
-11.0675415764
 10
-34.9946030565
 20
-11.0629810577
 10
-35.0015498385
 20
-11.0587134677
 10
-35.0086722676
 20
-11.0547477782
 10
-35.0159583197
 20
-11.0510929604
 10
-35.0233959708
 20
-11.047757986
 10
-35.0304551021
 20
-11.0449441133
 10
-35.0376234014
 20
-11.0424179841
 10
-35.0448887394
 20
-11.0401815864
 10
-35.0522389871
 20
-11.0382369081
 10
-35.0596620153
 20
-11.0365859372
 10
-35.0671456948
 20
-11.0352306616
 10
-35.0746778966
 20
-11.0341730694
 10
-35.0822464914
 20
-11.0334151483
 10
-35.0898393502
 20
-11.0329588865
 10
-35.0974443438
 20
-11.0328062719
 10
-35.1050498261
 20
-11.0329586498
 10
-35.112643182
 20
-11.0334147174
 10
-35.1202122791
 20
-11.0341724906
 10
-35.1277449855
 20
-11.0352299852
 10
-35.1352291689
 20
-11.0365852169
 10
-35.1426526971
 20
-11.0382362016
 10
-35.1500034381
 20
-11.0401809551
 10
-35.1572692596
 20
-11.0424174931
 10
-35.1644380294
 20
-11.0449438315
 10
-35.1714976155
 20
-11.047757986
 10
-35.1789352197
 20
-11.0510930989
 10
-35.1862212224
 20
-11.0547480742
 10
-35.1933435991
 20
-11.0587139174
 10
-35.2002903253
 20
-11.0629816339
 10
-35.2070493766
 20
-11.0675422293
 10
-35.2136087285
 20
-11.072386709
 10
-35.2199563565
 20
-11.0775060786
 10
-35.2260802362
 20
-11.0828913436
 10
-35.231968343
 20
-11.0885335095
 10
-35.2376091656
 20
-11.0944230713
 10
-35.2429932138
 20
-11.10054845
 10
-35.248111511
 20
-11.1068975555
 10
-35.2529550803
 20
-11.1134582979
 10
-35.2575149451
 20
-11.1202185873
 10
-35.2617821289
 20
-11.1271663336
 10
-35.2657476548
 20
-11.1342894469
 10
-35.2694025461
 20
-11.1415758371
 10
-35.2727378263
 20
-11.1490134144
 10
-35.2743368535
 20
-11.152921028
 10
-35.2758473752
 20
-11.1568639115
  0
LINE
  5
6AA
100
AcDbEntity
  8
ASSI
100
AcDbLine
 62
7
  6
CONTINUOUS
 10
-29.6864985872
 20
-1.3675302276
 11
-30.0277334734
 21
-2.05
  0
LWPOLYLINE
  5
6AB
100
AcDbEntity
  8
0
100
AcDbPolyline
 62
250
  6
CONTINUOUS
 90
38
 70
0
 10
-35.2148599586
 20
-11.3727981468
 10
-35.2259311189
 20
-11.3826021892
 10
-35.2366429854
 20
-11.3927753126
 10
-35.2470036289
 20
-11.4033012427
 10
-35.2570211201
 20
-11.4141637051
 10
-35.2667035296
 20
-11.4253464256
 10
-35.2760589282
 20
-11.4368331298
 10
-35.2850953866
 20
-11.4486075435
 10
-35.2938209756
 20
-11.4606533923
 10
-35.3022437658
 20
-11.4729544019
 10
-35.3103718279
 20
-11.485494298
 10
-35.3182132327
 20
-11.4982568063
 10
-35.3257760509
 20
-11.5112256525
 10
-35.3330683531
 20
-11.5243845623
 10
-35.3400982102
 20
-11.5377172613
 10
-35.3468736928
 20
-11.5512074753
 10
-35.3534028716
 20
-11.5648389299
 10
-35.3596938173
 20
-11.5785953509
 10
-35.3657546007
 20
-11.5924604639
 10
-35.3715932925
 20
-11.6064179946
 10
-35.3772179634
 20
-11.6204516687
 10
-35.3826366841
 20
-11.6345452119
 10
-35.3878575253
 20
-11.6486823499
 10
-35.3962832427
 20
-11.6727361128
 10
-35.4041855415
 20
-11.696866133
 10
-35.4115874487
 20
-11.7210700141
 10
-35.4185119915
 20
-11.74534536
 10
-35.4249821972
 20
-11.769689774
 10
-35.4310210929
 20
-11.79410086
 10
-35.4366517058
 20
-11.8185762215
 10
-35.4418970629
 20
-11.8431134622
 10
-35.4467801916
 20
-11.8677101858
 10
-35.4513241191
 20
-11.8923639958
 10
-35.4555518723
 20
-11.9170724959
 10
-35.4594864786
 20
-11.9418332898
 10
-35.4631509652
 20
-11.9666439811
 10
-35.4665683591
 20
-11.9915021734
 10
-35.4697616876
 20
-12.0164054703
  0
LINE
  5
6AC
100
AcDbEntity
  8
RACCORDO
100
AcDbLine
 62
250
  6
CONTINUOUS
 10
-48.8777334734
 20
17.5993978025
 11
-58.8777334734
 21
17.6716990487
  0
LINE
  5
6AD
100
AcDbEntity
  8
0
100
AcDbLine
 62
250
  6
CONTINUOUS
 10
-48.8777334734
 20
17.5993978025
 11
-58.8777334734
 21
17.6716990487
  0
LINE
  5
6AE
100
AcDbEntity
  8
0
100
AcDbLine
 62
250
  6
CONTINUOUS
 10
-29.8843691346
 20
-14.567264
 11
-29.8843691346
 21
-10.432736
  0
LINE
  5
6AF
100
AcDbEntity
  8
0
100
AcDbLine
 62
250
  6
CONTINUOUS
 10
-29.8777334734
 20
2.2890208311
 11
-29.8777334734
 21
0.3890208311
  0
LINE
  5
6B0
100
AcDbEntity
  8
0
100
AcDbLine
 62
7
  6
CONTINUOUS
 10
-29.2277334734
 20
-4.8364733549
 11
-29.2277334734
 21
-1.3635266451
  0
LINE
  5
6B1
100
AcDbEntity
  8
0
100
AcDbLine
 62
250
  6
CONTINUOUS
 10
-28.8777334734
 20
-10.432736
 11
-28.8777334734
 21
-14.567264
  0
LINE
  5
6B2
100
AcDbEntity
  8
0
100
AcDbLine
 62
7
  6
CONTINUOUS
 10
-28.7777334734
 20
-4.8404004454
 11
-28.7777334734
 21
-1.3595995546
  0
LINE
  5
6B3
100
AcDbEntity
  8
0
100
AcDbLine
 62
250
  6
CONTINUOUS
 10
-30.9908580368
 20
-10.2534999339
 11
-32.3427131438
 21
-11.5373002763
  0
LINE
  5
6B4
100
AcDbEntity
  8
0
100
AcDbLine
 62
250
  6
CONTINUOUS
 10
-32.4801397259
 20
-11.667827
 11
-33.2957124913
 21
-12.442341
  0
LINE
  5
6B5
100
AcDbEntity
  8
0
100
AcDbLine
 62
250
  6
CONTINUOUS
 10
-33.3797036971
 20
-12.522113
 11
-34.3340103295
 21
-13.428378
  0
LINE
  5
6B6
100
AcDbEntity
  8
0
100
AcDbLine
 62
250
  6
CONTINUOUS
 10
-34.4998549483
 20
-13.5858758386
 11
-35.9574974659
 21
-14.9701405
  0
LINE
  5
6B7
100
AcDbEntity
  8
0
100
AcDbLine
 62
250
  6
CONTINUOUS
 10
-31.8610414779
 20
-11.2403334311
 11
-30.9100404581
 21
-10.3386702872
  0
LINE
  5
6B8
100
AcDbEntity
  8
0
100
AcDbLine
 62
250
  6
CONTINUOUS
 10
-35.794898553
 20
-14.9701405
 11
-34.3184344992
 21
-13.5702617819
  0
LINE
  5
6B9
100
AcDbEntity
  8
0
100
AcDbLine
 62
250
  6
CONTINUOUS
 10
-34.1522930101
 20
-13.41274
 11
-33.2978161709
 21
-12.602586
  0
LINE
  5
6BA
100
AcDbEntity
  8
0
100
AcDbLine
 62
250
  6
CONTINUOUS
 10
-33.2137173736
 20
-12.5228497802
 11
-32.3269708357
 21
-11.6820975708
  0
LWPOLYLINE
  5
6BB
100
AcDbEntity
  8
0
100
AcDbPolyline
 62
250
  6
CONTINUOUS
 90
72
 70
0
 10
-31.600503811
 20
-12.0091515245
 10
-31.5858943815
 20
-12.0010108108
 10
-31.5715928956
 20
-11.992230151
 10
-31.5576259361
 20
-11.9828349081
 10
-31.5440200859
 20
-11.9728504448
 10
-31.5308019278
 20
-11.9623021237
 10
-31.5179980445
 20
-11.9512153077
 10
-31.505635019
 20
-11.9396153595
 10
-31.4937394341
 20
-11.9275276419
 10
-31.4823378725
 20
-11.9149775176
 10
-31.4714569171
 20
-11.9019903493
 10
-31.4611231507
 20
-11.8885914999
 10
-31.4513631562
 20
-11.8748063321
 10
-31.4422035163
 20
-11.8606602085
 10
-31.434093167
 20
-11.8469347881
 10
-31.4265500683
 20
-11.8329257024
 10
-31.4195777117
 20
-11.8186510602
 10
-31.4131795889
 20
-11.8041289704
 10
-31.4073591912
 20
-11.7893775418
 10
-31.4021200103
 20
-11.7744148833
 10
-31.3974655378
 20
-11.7592591037
 10
-31.3932680183
 20
-11.7433907173
 10
-31.3897050869
 20
-11.727360169
 10
-31.3867813214
 20
-11.7111927496
 10
-31.3845012991
 20
-11.6949137498
 10
-31.3828695977
 20
-11.6785484603
 10
-31.3818907948
 20
-11.6621221718
 10
-31.3815694679
 20
-11.6456601749
 10
-31.3819061227
 20
-11.6292539431
 10
-31.3828957447
 20
-11.6128649129
 10
-31.3845345238
 20
-11.5965206204
 10
-31.3868186499
 20
-11.5802486019
 10
-31.3897443131
 20
-11.5640763936
 10
-31.3933077032
 20
-11.5480315315
 10
-31.3975050101
 20
-11.5321415519
 10
-31.4023324239
 20
-11.5164339909
 10
-31.4077861344
 20
-11.5009363847
 10
-31.4138623316
 20
-11.4856762696
 10
-31.4203133905
 20
-11.4711943262
 10
-31.4273265609
 20
-11.4569779274
 10
-31.4348873558
 20
-11.4430456157
 10
-31.4429812884
 20
-11.4294159338
 10
-31.4515938717
 20
-11.4161074244
 10
-31.4607106189
 20
-11.4031386303
 10
-31.4703170431
 20
-11.390528094
 10
-31.4803986573
 20
-11.3782943583
 10
-31.4909409746
 20
-11.3664559659
 10
-31.5019295082
 20
-11.3550314595
 10
-31.5133492334
 20
-11.3440386276
 10
-31.5251825061
 20
-11.3334926874
 10
-31.5374111387
 20
-11.3234080964
 10
-31.5500169434
 20
-11.3137993118
 10
-31.5629817325
 20
-11.3046807908
 10
-31.5762873185
 20
-11.2960669907
 10
-31.5899155135
 20
-11.2879723689
 10
-31.6038481299
 20
-11.2804113827
 10
-31.61806698
 20
-11.2733984892
 10
-31.6325538762
 20
-11.2669481459
 10
-31.647822209
 20
-11.2608729464
 10
-31.6633296555
 20
-11.2554204747
 10
-31.6790472239
 20
-11.2505943128
 10
-31.6949459226
 20
-11.2463980425
 10
-31.7109967598
 20
-11.2428352457
 10
-31.7271707439
 20
-11.2399095043
 10
-31.743438883
 20
-11.2376244002
 10
-31.7597721855
 20
-11.2359835151
 10
-31.7761416597
 20
-11.2349904311
 10
-31.7925183138
 20
-11.23464873
 10
-31.8097459445
 20
-11.2349954346
 10
-31.8269251591
 20
-11.2360626068
 10
-31.844031742
 20
-11.2378440159
 10
-31.8610414779
 20
-11.2403334311
  0
LINE
  5
6BC
100
AcDbEntity
  8
RACCORDO
100
AcDbLine
 62
250
  6
CONTINUOUS
 10
-48.8777334734
 20
19.0133959733
 11
-58.8777334734
 21
19.0856972195
  0
LINE
  5
6BD
100
AcDbEntity
  8
0
100
AcDbLine
 62
250
  6
CONTINUOUS
 10
-48.8777334734
 20
19.0133959733
 11
-58.8777334734
 21
19.0856972195
  0
LINE
  5
6BE
100
AcDbEntity
  8
RACCORDO
100
AcDbLine
 62
250
  6
CONTINUOUS
 10
-68.4638886431
 20
20.5419058565
 11
-68.8892607876
 21
20.559595439
  0
LINE
  5
6BF
100
AcDbEntity
  8
RACCORDO
100
AcDbLine
 62
250
  6
CONTINUOUS
 10
-68.8892607876
 20
20.559595439
 11
-68.9497686402
 21
20.5622131687
  0
LWPOLYLINE
  5
6C0
100
AcDbEntity
  8
RACCORDO
100
AcDbPolyline
 62
250
  6
CONTINUOUS
 90
3
 70
0
 10
-68.9497686402
 20
20.5622131687
 10
-68.9541867809
 20
20.5624286744
 10
-68.9547394459
 20
20.5624683248
  0
LWPOLYLINE
  5
6C1
100
AcDbEntity
  8
RACCORDO
100
AcDbPolyline
 62
250
  6
CONTINUOUS
 90
13
 70
0
 10
-27.25556232
 20
5.6684134089
 10
-27.2558692668
 20
5.6770045606
 10
-27.2561928105
 20
5.6848713976
 10
-27.2565327056
 20
5.6920079482
 10
-27.256888694
 20
5.6984087952
 10
-27.2572605055
 20
5.7040690798
 10
-27.2576478579
 20
5.7089845052
 10
-27.258050457
 20
5.7131513401
 10
-27.2584679974
 20
5.7165664217
 10
-27.2589001621
 20
5.7192271575
 10
-27.2593466229
 20
5.7211315278
 10
-27.259807041
 20
5.7222780869
 10
-27.260281067
 20
5.7226659647
  0
LWPOLYLINE
  5
6C2
100
AcDbEntity
  8
0
100
AcDbPolyline
 62
250
  6
CONTINUOUS
 90
13
 70
0
 10
-27.25556232
 20
5.6684134089
 10
-27.2558692668
 20
5.6770045606
 10
-27.2561928105
 20
5.6848713976
 10
-27.2565327056
 20
5.6920079482
 10
-27.256888694
 20
5.6984087952
 10
-27.2572605055
 20
5.7040690798
 10
-27.2576478579
 20
5.7089845052
 10
-27.258050457
 20
5.7131513401
 10
-27.2584679974
 20
5.7165664217
 10
-27.2589001621
 20
5.7192271575
 10
-27.2593466229
 20
5.7211315278
 10
-27.259807041
 20
5.7222780869
 10
-27.260281067
 20
5.7226659647
  0
LINE
  5
6C3
100
AcDbEntity
  8
RACCORDO
100
AcDbLine
 62
250
  6
CONTINUOUS
 10
-27.2549991364
 20
5.6490847921
 11
-27.25556232
 21
5.6684134089
  0
LINE
  5
6C4
100
AcDbEntity
  8
0
100
AcDbLine
 62
250
  6
CONTINUOUS
 10
-27.2549991364
 20
5.6490847921
 11
-27.25556232
 21
5.6684134089
  0
LINE
  5
6C5
100
AcDbEntity
  8
RACCORDO
100
AcDbLine
 62
250
  6
CONTINUOUS
 10
-27.2545049695
 20
5.6269442249
 11
-27.2549991364
 21
5.6490847921
  0
LINE
  5
6C6
100
AcDbEntity
  8
0
100
AcDbLine
 62
250
  6
CONTINUOUS
 10
-27.2545049695
 20
5.6269442249
 11
-27.2549991364
 21
5.6490847921
  0
LINE
  5
6C7
100
AcDbEntity
  8
RACCORDO
100
AcDbLine
 62
250
  6
CONTINUOUS
 10
-27.2540813194
 20
5.6020589213
 11
-27.2545049695
 21
5.6269442249
  0
LINE
  5
6C8
100
AcDbEntity
  8
0
100
AcDbLine
 62
250
  6
CONTINUOUS
 10
-27.2540813194
 20
5.6020589213
 11
-27.2545049695
 21
5.6269442249
  0
LINE
  5
6C9
100
AcDbEntity
  8
RACCORDO
100
AcDbLine
 62
250
  6
CONTINUOUS
 10
-27.2565327056
 20
-18.3682197652
 11
-27.260281067
 21
-18.1228182695
  0
LINE
  5
6CA
100
AcDbEntity
  8
0
100
AcDbLine
 62
250
  6
CONTINUOUS
 10
-27.2565327056
 20
-18.3682197652
 11
-27.260281067
 21
-18.1228182695
  0
LINE
  5
6CB
100
AcDbEntity
  8
RACCORDO
100
AcDbLine
 62
250
  6
CONTINUOUS
 10
-27.2535808173
 20
5.559752066
 11
-27.2540813194
 21
5.6020589213
  0
LINE
  5
6CC
100
AcDbEntity
  8
0
100
AcDbLine
 62
250
  6
CONTINUOUS
 10
-27.2535808173
 20
5.559752066
 11
-27.2540813194
 21
5.6020589213
  0
LINE
  5
6CD
100
AcDbEntity
  8
RACCORDO
100
AcDbLine
 62
250
  6
CONTINUOUS
 10
-27.2542842444
 20
-18.5742018347
 11
-27.2565327056
 21
-18.3682197652
  0
LINE
  5
6CE
100
AcDbEntity
  8
0
100
AcDbLine
 62
250
  6
CONTINUOUS
 10
-27.2542842444
 20
-18.5742018347
 11
-27.2565327056
 21
-18.3682197652
  0
LINE
  5
6CF
100
AcDbEntity
  8
RACCORDO
100
AcDbLine
 62
250
  6
CONTINUOUS
 10
-27.2531704571
 20
5.4945086887
 11
-27.2535808173
 21
5.559752066
  0
LINE
  5
6D0
100
AcDbEntity
  8
0
100
AcDbLine
 62
250
  6
CONTINUOUS
 10
-27.2531704571
 20
5.4945086887
 11
-27.2535808173
 21
5.559752066
  0
LINE
  5
6D1
100
AcDbEntity
  8
RACCORDO
100
AcDbLine
 62
250
  6
CONTINUOUS
 10
-27.2532452383
 20
-18.7368362686
 11
-27.2542842444
 21
-18.5742018347
  0
LINE
  5
6D2
100
AcDbEntity
  8
0
100
AcDbLine
 62
250
  6
CONTINUOUS
 10
-27.2532452383
 20
-18.7368362686
 11
-27.2542842444
 21
-18.5742018347
  0
LINE
  5
6D3
100
AcDbEntity
  8
0
100
AcDbLine
 62
7
  6
CONTINUOUS
 10
-27.6777334734
 20
-4.85
 11
-27.6777334734
 21
-1.35
  0
LINE
  5
6D4
100
AcDbEntity
  8
RACCORDO
100
AcDbLine
 62
250
  6
CONTINUOUS
 10
-27.260281067
 20
4.7228182695
 11
-27.260281067
 21
-1.0053341455
  0
LINE
  5
6D5
100
AcDbEntity
  8
0
100
AcDbLine
 62
250
  6
CONTINUOUS
 10
-27.260281067
 20
4.7228182695
 11
-27.260281067
 21
-1.0053341455
  0
LINE
  5
6D6
100
AcDbEntity
  8
RACCORDO
100
AcDbLine
 62
250
  6
CONTINUOUS
 10
-27.260281067
 20
-5.1946658545
 11
-27.260281067
 21
-18.1228182695
  0
LINE
  5
6D7
100
AcDbEntity
  8
0
100
AcDbLine
 62
250
  6
CONTINUOUS
 10
-27.260281067
 20
-5.1946658545
 11
-27.260281067
 21
-18.1228182695
  0
LINE
  5
6D8
100
AcDbEntity
  8
RACCORDO
100
AcDbLine
 62
250
  6
CONTINUOUS
 10
-27.2530581432
 20
-18.8393835977
 11
-27.2532452383
 21
-18.7368362686
  0
LINE
  5
6D9
100
AcDbEntity
  8
0
100
AcDbLine
 62
250
  6
CONTINUOUS
 10
-27.2530581432
 20
-18.8393835977
 11
-27.2532452383
 21
-18.7368362686
  0
LINE
  5
6DA
100
AcDbEntity
  8
RACCORDO
100
AcDbLine
 62
7
  6
CONTINUOUS
 10
-26.2777334734
 20
4.7228182695
 11
-26.2777334734
 21
-1.3377823851
  0
LINE
  5
6DB
100
AcDbEntity
  8
RACCORDO
100
AcDbLine
 62
7
  6
CONTINUOUS
 10
-26.2777334734
 20
-18.1228182695
 11
-26.2777334734
 21
-4.8622176149
  0
LINE
  5
6DC
100
AcDbEntity
  8
0
100
AcDbLine
 62
7
  6
CONTINUOUS
 10
-26.2777334734
 20
-18.1228182695
 11
-26.2777334734
 21
4.7228182695
  0
LINE
  5
6DD
100
AcDbEntity
  8
RACCORDO
100
AcDbLine
 62
250
  6
CONTINUOUS
 10
-27.253076874
 20
5.3998905798
 11
-27.2531704571
 21
5.4945086887
  0
LINE
  5
6DE
100
AcDbEntity
  8
0
100
AcDbLine
 62
250
  6
CONTINUOUS
 10
-27.253076874
 20
5.3998905798
 11
-27.2531704571
 21
5.4945086887
  0
LINE
  5
6DF
100
AcDbEntity
  8
RACCORDO
100
AcDbLine
 62
250
  6
CONTINUOUS
 10
-27.2532452383
 20
-18.9117303198
 11
-27.2530581432
 21
-18.8393835977
  0
LINE
  5
6E0
100
AcDbEntity
  8
0
100
AcDbLine
 62
250
  6
CONTINUOUS
 10
-27.2532452383
 20
-18.9117303198
 11
-27.2530581432
 21
-18.8393835977
  0
LINE
  5
6E1
100
AcDbEntity
  8
RACCORDO
100
AcDbLine
 62
250
  6
CONTINUOUS
 10
-27.2535808173
 20
5.2695892175
 11
-27.253076874
 21
5.3998905798
  0
LINE
  5
6E2
100
AcDbEntity
  8
0
100
AcDbLine
 62
250
  6
CONTINUOUS
 10
-27.2535808173
 20
5.2695892175
 11
-27.253076874
 21
5.3998905798
  0
LINE
  5
6E3
100
AcDbEntity
  8
RACCORDO
100
AcDbLine
 62
250
  6
CONTINUOUS
 10
-27.2535808173
 20
-18.959752066
 11
-27.2532452383
 21
-18.9117303198
  0
LINE
  5
6E4
100
AcDbEntity
  8
0
100
AcDbLine
 62
250
  6
CONTINUOUS
 10
-27.2535808173
 20
-18.959752066
 11
-27.2532452383
 21
-18.9117303198
  0
LINE
  5
6E5
100
AcDbEntity
  8
RACCORDO
100
AcDbLine
 62
250
  6
CONTINUOUS
 10
-27.2552722031
 20
5.0733373895
 11
-27.2535808173
 21
5.2695892175
  0
LINE
  5
6E6
100
AcDbEntity
  8
0
100
AcDbLine
 62
250
  6
CONTINUOUS
 10
-27.2552722031
 20
5.0733373895
 11
-27.2535808173
 21
5.2695892175
  0
LINE
  5
6E7
100
AcDbEntity
  8
RACCORDO
100
AcDbLine
 62
250
  6
CONTINUOUS
 10
-27.2540813194
 20
-19.0020589213
 11
-27.2535808173
 21
-18.959752066
  0
LINE
  5
6E8
100
AcDbEntity
  8
0
100
AcDbLine
 62
250
  6
CONTINUOUS
 10
-27.2540813194
 20
-19.0020589213
 11
-27.2535808173
 21
-18.959752066
  0
LINE
  5
6E9
100
AcDbEntity
  8
RACCORDO
100
AcDbLine
 62
250
  6
CONTINUOUS
 10
-27.2584679974
 20
4.8327884993
 11
-27.2552722031
 21
5.0733373895
  0
LINE
  5
6EA
100
AcDbEntity
  8
0
100
AcDbLine
 62
250
  6
CONTINUOUS
 10
-27.2584679974
 20
4.8327884993
 11
-27.2552722031
 21
5.0733373895
  0
LINE
  5
6EB
100
AcDbEntity
  8
RACCORDO
100
AcDbLine
 62
250
  6
CONTINUOUS
 10
-27.260281067
 20
4.7228182695
 11
-27.2584679974
 21
4.8327884993
  0
LINE
  5
6EC
100
AcDbEntity
  8
0
100
AcDbLine
 62
250
  6
CONTINUOUS
 10
-27.260281067
 20
4.7228182695
 11
-27.2584679974
 21
4.8327884993
  0
LINE
  5
6ED
100
AcDbEntity
  8
RACCORDO
100
AcDbLine
 62
250
  6
CONTINUOUS
 10
-27.2545049695
 20
-19.0269442249
 11
-27.2540813194
 21
-19.0020589213
  0
LINE
  5
6EE
100
AcDbEntity
  8
0
100
AcDbLine
 62
250
  6
CONTINUOUS
 10
-27.2545049695
 20
-19.0269442249
 11
-27.2540813194
 21
-19.0020589213
  0
LINE
  5
6EF
100
AcDbEntity
  8
RACCORDO
100
AcDbLine
 62
250
  6
CONTINUOUS
 10
-27.2549991364
 20
-19.0490847921
 11
-27.2545049695
 21
-19.0269442249
  0
LINE
  5
6F0
100
AcDbEntity
  8
0
100
AcDbLine
 62
250
  6
CONTINUOUS
 10
-27.2549991364
 20
-19.0490847921
 11
-27.2545049695
 21
-19.0269442249
  0
LINE
  5
6F1
100
AcDbEntity
  8
0
100
AcDbLine
 62
7
  6
CONTINUOUS
 10
-29.8843691346
 20
-10.8278672693
 11
-29.4892378653
 21
-10.432736
  0
LINE
  5
6F2
100
AcDbEntity
  8
0
100
AcDbLine
 62
7
  6
CONTINUOUS
 10
-29.8843691346
 20
-11.2229985387
 11
-29.0941065959
 21
-10.432736
  0
LINE
  5
6F3
100
AcDbEntity
  8
0
100
AcDbLine
 62
7
  6
CONTINUOUS
 10
-29.8843691346
 20
-11.618129808
 11
-28.8777334734
 21
-10.6114941468
  0
LINE
  5
6F4
100
AcDbEntity
  8
0
100
AcDbLine
 62
7
  6
CONTINUOUS
 10
-29.8843691346
 20
-12.0132610773
 11
-28.8777334734
 21
-11.0066254161
  0
LINE
  5
6F5
100
AcDbEntity
  8
0
100
AcDbLine
 62
7
  6
CONTINUOUS
 10
-29.8843691346
 20
-12.4083923466
 11
-28.8777334734
 21
-11.4017566855
  0
LINE
  5
6F6
100
AcDbEntity
  8
0
100
AcDbLine
 62
7
  6
CONTINUOUS
 10
-29.8843691346
 20
-12.803523616
 11
-28.8777334734
 21
-11.7968879548
  0
LINE
  5
6F7
100
AcDbEntity
  8
0
100
AcDbLine
 62
7
  6
CONTINUOUS
 10
-29.8843691346
 20
-13.1986548853
 11
-28.8777334734
 21
-12.1920192241
  0
LINE
  5
6F8
100
AcDbEntity
  8
DRAFT
100
AcDbLine
 62
7
  6
CONTINUOUS
 10
-58.6779467132
 20
20.9104703804
 11
-58.8777334734
 21
20.9
  0
LINE
  5
6F9
100
AcDbEntity
  8
RACCORDO
100
AcDbLine
 62
7
  6
CONTINUOUS
 10
-49.3690072702
 20
21.5659754333
 11
-58.8777334734
 21
21.4
  0
LINE
  5
6FA
100
AcDbEntity
  8
RACCORDO
100
AcDbLine
 62
7
  6
CONTINUOUS
 10
-48.8777334734
 20
20.9959955457
 11
-58.6779467132
 21
20.9104703804
  0
LINE
  5
6FB
100
AcDbEntity
  8
RACCORDO
100
AcDbLine
 62
250
  6
CONTINUOUS
 10
-58.8777334734
 20
21.9411874598
 11
-59.8757657773
 21
21.9498971557
  0
LINE
  5
6FC
100
AcDbEntity
  8
RACCORDO
100
AcDbLine
 62
7
  6
CONTINUOUS
 10
-49.8690069379
 20
22.3126551668
 11
-59.8777334734
 21
22.4
  0
LINE
  5
6FD
100
AcDbEntity
  8
DRAFT
100
AcDbLine
 62
7
  6
CONTINUOUS
 10
-58.8777334734
 20
20.85
 11
-48.8777334734
 21
20.6754493507
  0
LINE
  5
6FE
100
AcDbEntity
  8
0
100
AcDbLine
 62
7
  6
CONTINUOUS
 10
-58.8777334734
 20
20.85
 11
-48.8777334734
 21
20.6754493507
  0
LWPOLYLINE
  5
6FF
100
AcDbEntity
  8
0
100
AcDbPolyline
 62
7
  6
CONTINUOUS
 90
10
 70
0
 43
0.3500000087
 10
-41.720589856
 20
34.2299854462
 10
-41.6491624329
 20
34.0871306
 10
-41.6491624329
 20
34.0157031769
 10
-41.7920172791
 20
33.8728440674
 10
-41.8634489655
 20
33.8728440674
 10
-41.9348763885
 20
33.9442714905
 10
-41.9348763885
 20
34.0157031769
 10
-41.8634489655
 20
34.1585580231
 10
-41.7920172791
 20
34.2299854462
 10
-41.720589856
 20
34.2299854462
  0
LWPOLYLINE
  5
700
100
AcDbEntity
  8
0
100
AcDbPolyline
 62
7
  6
CONTINUOUS
 90
10
 70
0
 43
0.3500000087
 10
-46.6491630524
 20
44.2239455811
 10
-46.577731366
 20
44.0810864716
 10
-46.577731366
 20
44.0096590485
 10
-46.7205904755
 20
43.866799939
 10
-46.7920178986
 20
43.866799939
 10
-46.863449585
 20
43.9382316254
 10
-46.863449585
 20
44.0096590485
 10
-46.7920178986
 20
44.1525138947
 10
-46.7205904755
 20
44.2239455811
 10
-46.6491630524
 20
44.2239455811
  0
LINE
  5
701
100
AcDbEntity
  8
0
100
AcDbLine
 62
250
  6
CONTINUOUS
 10
-30.9774460141
 20
-14.8831265382
 11
-30.8951661106
 21
-14.7993831668
  0
LINE
  5
702
100
AcDbEntity
  8
0
100
AcDbLine
 62
7
  6
CONTINUOUS
 10
-29.8843691346
 20
-13.5937861546
 11
-28.8777334734
 21
-12.5871504935
  0
LINE
  5
703
100
AcDbEntity
  8
0
100
AcDbLine
 62
7
  6
CONTINUOUS
 10
-29.8843691346
 20
-13.9889174239
 11
-28.8777334734
 21
-12.9822817628
  0
LINE
  5
704
100
AcDbEntity
  8
0
100
AcDbLine
 62
7
  6
CONTINUOUS
 10
-29.8843691346
 20
-14.3840486933
 11
-28.8777334734
 21
-13.3774130321
  0
LINE
  5
705
100
AcDbEntity
  8
0
100
AcDbLine
 62
7
  6
CONTINUOUS
 10
-29.672453172
 20
-14.567264
 11
-28.8777334734
 21
-13.7725443014
  0
LINE
  5
706
100
AcDbEntity
  8
0
100
AcDbLine
 62
7
  6
CONTINUOUS
 10
-29.2773219027
 20
-14.567264
 11
-28.8777334734
 21
-14.1676755708
  0
LINE
  5
707
100
AcDbEntity
  8
0
100
AcDbLine
 62
7
  6
CONTINUOUS
 10
-28.8821906333
 20
-14.567264
 11
-28.8777334734
 21
-14.5628068401
  0
LWPOLYLINE
  5
708
100
AcDbEntity
  8
RACCORDO
100
AcDbPolyline
 62
250
  6
CONTINUOUS
 90
142
 70
0
 10
-67.5170705874
 20
21.4994104546
 10
-67.5275328449
 20
21.4988071334
 10
-67.5379859106
 20
21.4980944235
 10
-67.5484297846
 20
21.4972723249
 10
-67.5588656105
 20
21.4963407233
 10
-67.5692922447
 20
21.4952997331
 10
-67.579706256
 20
21.4941496965
 10
-67.5901076417
 20
21.4928905774
 10
-67.6004964045
 20
21.4915224119
 10
-67.6108691221
 20
21.4900456515
 10
-67.6212257892
 20
21.4884602607
 10
-67.631566411
 20
21.486766275
 10
-67.6418875812
 20
21.4849642525
 10
-67.6521892935
 20
21.4830541574
 10
-67.6624715541
 20
21.4810360255
 10
-67.672730975
 20
21.4789105226
 10
-67.6829675479
 20
21.4766776136
 10
-67.693181281
 20
21.4743373337
 10
-67.7033688117
 20
21.4718904538
 10
-67.7135301298
 20
21.4693369394
 10
-67.7236652454
 20
21.4666768251
 10
-67.7337708259
 20
21.4639109861
 10
-67.7438468635
 20
21.4610393872
 10
-67.753893366
 20
21.4580620636
 10
-67.7639070248
 20
21.4549799961
 10
-67.7738878295
 20
21.45179315
 10
-67.7838357904
 20
21.44850156
 10
-67.7937476302
 20
21.445106311
 10
-67.803623337
 20
21.4416073686
 10
-67.8134629227
 20
21.4380047672
 10
-67.8232631451
 20
21.4342996943
 10
-67.8330239915
 20
21.4304921161
 10
-67.8427454747
 20
21.4265820664
 10
-67.8524243912
 20
21.4225708347
 10
-67.8620607268
 20
21.4184583876
 10
-67.8716544957
 20
21.4142447584
 10
-67.8812025367
 20
21.4099313367
 10
-67.8907048322
 20
21.405518091
 10
-67.9001613997
 20
21.4010050529
 10
-67.9095691308
 20
21.396393707
 10
-67.9189280101
 20
21.3916840207
 10
-67.9282380531
 20
21.3868760265
 10
-67.9374961974
 20
21.3819713066
 10
-67.9467024272
 20
21.3769698285
 10
-67.9558567585
 20
21.3718716246
 10
-67.9649561769
 20
21.366678374
 10
-67.974000665
 20
21.3613900451
 10
-67.9829902404
 20
21.3560066695
 10
-67.9919219414
 20
21.3505300214
 10
-68.0007957495
 20
21.3449600696
 10
-68.0096116832
 20
21.3392968453
 10
-68.0183668372
 20
21.3335422156
 10
-68.0270611917
 20
21.3276961504
 10
-68.0356947666
 20
21.3217586798
 10
-68.0442647161
 20
21.3157317624
 10
-68.0527710179
 20
21.3096153696
 10
-68.0612136944
 20
21.3034095299
 10
-68.0695899668
 20
21.2971162876
 10
-68.0778998119
 20
21.290735615
 10
-68.0861432528
 20
21.2842675398
 10
-68.0943175801
 20
21.2777141893
 10
-68.1024227713
 20
21.2710755355
 10
-68.1104588489
 20
21.2643516064
 10
-68.1184231706
 20
21.2575446136
 10
-68.1263157139
 20
21.250654529
 10
-68.1341365013
 20
21.2436813807
 10
-68.1418829586
 20
21.2366274645
 10
-68.1495550621
 20
21.229492753
 10
-68.1571528354
 20
21.2222772737
 10
-68.1646737751
 20
21.2149834047
 10
-68.1721178561
 20
21.2076111197
 10
-68.1794851035
 20
21.2001604451
 10
-68.1867730886
 20
21.1926338381
 10
-68.1939817849
 20
21.1850312741
 10
-68.201111219
 20
21.1773527778
 10
-68.2081590422
 20
21.1696008804
 10
-68.2151252268
 20
21.1617755589
 10
-68.2220098005
 20
21.1538768363
 10
-68.2288104983
 20
21.1459073136
 10
-68.2355272916
 20
21.1378669687
 10
-68.2421602089
 20
21.1297558237
 10
-68.2487070707
 20
21.1215765455
 10
-68.2551678486
 20
21.1133291121
 10
-68.261542571
 20
21.1050135456
 10
-68.2678291433
 20
21.0966325788
 10
-68.274027538
 20
21.0881861887
 10
-68.2801377826
 20
21.0796743983
 10
-68.2861578659
 20
21.0711000099
 10
-68.292087759
 20
21.0624630013
 10
-68.2979274908
 20
21.0537633947
 10
-68.3036751359
 20
21.0450040587
 10
-68.3093306638
 20
21.0361849736
 10
-68.3148941052
 20
21.0273061592
 10
-68.3203636265
 20
21.0183705429
 10
-68.3257391964
 20
21.0093781064
 10
-68.3310208464
 20
21.0003288681
 10
-68.3362068369
 20
20.9912258102
 10
-68.341297136
 20
20.9820689159
 10
-68.3462917758
 20
20.972858202
 10
-68.351189113
 20
20.9635967015
 10
-68.3559891147
 20
20.9542843996
 10
-68.3606918138
 20
20.9449213111
 10
-68.3652956662
 20
20.9355105125
 10
-68.369800639
 20
20.9260519892
 10
-68.374206765
 20
20.9165457558
 10
-68.3785125979
 20
20.9069949327
 10
-68.3827181068
 20
20.897399501
 10
-68.3868233227
 20
20.8877594797
 10
-68.3908268922
 20
20.8780780458
 10
-68.3947287818
 20
20.8683551853
 10
-68.3985290252
 20
20.8585909122
 10
-68.4022263696
 20
20.8487884454
 10
-68.4058207809
 20
20.8389477723
 10
-68.4093122933
 20
20.8290689053
 10
-68.4126997562
 20
20.8191551014
 10
-68.4159831353
 20
20.8092063488
 10
-68.4191624649
 20
20.7992226591
 10
-68.4222366978
 20
20.7892073239
 10
-68.425205799
 20
20.7791603337
 10
-68.4280698036
 20
20.7690816978
 10
-68.4308277695
 20
20.7589747358
 10
-68.4334796605
 20
20.7488394444
 10
-68.4360255128
 20
20.7386758268
 10
-68.4384644929
 20
20.7284872118
 10
-68.4407965671
 20
20.7182735865
 10
-68.4430217691
 20
20.7080349637
 10
-68.4451393664
 20
20.6977747115
 10
-68.4471493242
 20
20.6874928198
 10
-68.4490516773
 20
20.6771892987
 10
-68.4508457977
 20
20.6668675455
 10
-68.4525316493
 20
20.6565275544
 10
-68.4541092682
 20
20.6461693311
 10
-68.4555781345
 20
20.6357962911
 10
-68.4569382126
 20
20.6254084289
 10
-68.4581895382
 20
20.6150057499
 10
-68.4593316984
 20
20.6045916856
 10
-68.4603646565
 20
20.5941662398
 10
-68.4612884491
 20
20.5837294087
 10
-68.4621027744
 20
20.5732846127
 10
-68.4628075314
 20
20.5628329921
 10
-68.463402821
 20
20.5523734067
 10
-68.4638886431
 20
20.5419058565
  0
LINE
  5
709
100
AcDbEntity
  8
RACCORDO
100
AcDbLine
 62
250
  6
CONTINUOUS
 10
-66.9431919755
 20
21.5318406482
 11
-67.5170705874
 21
21.4994104546
  0
LINE
  5
70A
100
AcDbEntity
  8
RACCORDO
100
AcDbLine
 62
7
  6
CONTINUOUS
 10
-59.8777334734
 20
22.4
 11
-67.5345123623
 21
21.998725222
  0
LWPOLYLINE
  5
70B
100
AcDbEntity
  8
RACCORDO
100
AcDbPolyline
 62
250
  6
CONTINUOUS
 90
15
 70
0
 10
-59.8757657773
 20
21.9498971557
 10
-60.3750480948
 20
21.9242195846
 10
-60.8712549075
 20
21.8982111234
 10
-61.3643862153
 20
21.8718717721
 10
-61.852721666
 20
21.8455642319
 10
-62.3379816119
 20
21.8189258015
 10
-62.8253271097
 20
21.7908683775
 10
-63.3147430259
 20
21.7607952918
 10
-63.806244494
 20
21.7293032124
 10
-64.305037972
 20
21.6970940403
 10
-64.8111170102
 20
21.6640431406
 10
-65.3244880582
 20
21.6302751482
 10
-65.8503769232
 20
21.5968658681
 10
-66.3905255409
 20
21.564173902
 10
-66.9431919755
 20
21.5318406482
  0
LINE
  5
70C
100
AcDbEntity
  8
RACCORDO
100
AcDbLine
 62
250
  6
CONTINUOUS
 10
-59.8777334734
 20
24.2500042308
 11
-62.1291879063
 21
24.2369056521
  0
LINE
  5
70D
100
AcDbEntity
  8
RACCORDO
100
AcDbLine
 62
250
  6
CONTINUOUS
 10
-62.3777334734
 20
23.8443375673
 11
-62.1291879063
 21
23.8443375673
  0
LINE
  5
70E
100
AcDbEntity
  8
RACCORDO
100
AcDbLine
 62
250
  6
CONTINUOUS
 10
-58.8777334734
 20
23.8443375673
 11
-59.1262790406
 21
23.8443375673
  0
LINE
  5
70F
100
AcDbEntity
  8
RACCORDO
100
AcDbLine
 62
250
  6
CONTINUOUS
 10
-62.3777334734
 20
24.2369056521
 11
-62.1291879063
 21
24.2369056521
  0
LINE
  5
710
100
AcDbEntity
  8
RACCORDO
100
AcDbLine
 62
250
  6
CONTINUOUS
 10
-58.8777334734
 20
24.2456323968
 11
-59.1262790406
 21
24.2456323968
  0
LINE
  5
711
100
AcDbEntity
  8
ASSI
100
AcDbLine
 62
7
  6
CONTINUOUS
 10
-58.8828245651
 20
23.7942117893
 11
-52.3748246078
 21
23.7563493531
  0
LINE
  5
712
100
AcDbEntity
  8
RACCORDO
100
AcDbLine
 62
250
  6
CONTINUOUS
 10
-59.1262790406
 20
24.2456323968
 11
-59.8777334734
 21
24.2500042308
  0
LINE
  5
713
100
AcDbEntity
  8
RACCORDO
100
AcDbLine
 62
7
  6
CONTINUOUS
 10
-59.1262790406
 20
24.495628166
 11
-59.8777334734
 21
24.5
  0
LINE
  5
714
100
AcDbEntity
  8
RACCORDO
100
AcDbLine
 62
7
  6
CONTINUOUS
 10
-59.8777334734
 20
24.5
 11
-62.1291879063
 21
24.4869014213
  0
LWPOLYLINE
  5
715
100
AcDbEntity
  8
RACCORDO
100
AcDbPolyline
 62
250
  6
CONTINUOUS
 90
14
 70
0
 10
-27.260281067
 20
-19.1226659647
 10
-27.259807041
 20
-19.1222780869
 10
-27.2593466229
 20
-19.1211315278
 10
-27.2589001621
 20
-19.1192271575
 10
-27.2584679974
 20
-19.1165664217
 10
-27.258050457
 20
-19.1131513401
 10
-27.2576478579
 20
-19.1089845052
 10
-27.2572605055
 20
-19.1040690798
 10
-27.256888694
 20
-19.0984087952
 10
-27.2565327056
 20
-19.0920079482
 10
-27.2561928105
 20
-19.0848713976
 10
-27.2558692668
 20
-19.0770045606
 10
-27.25556232
 20
-19.0684134089
 10
-27.2549991364
 20
-19.0490847921
  0
LWPOLYLINE
  5
716
100
AcDbEntity
  8
0
100
AcDbPolyline
 62
250
  6
CONTINUOUS
 90
14
 70
0
 10
-27.260281067
 20
-19.1226659647
 10
-27.259807041
 20
-19.1222780869
 10
-27.2593466229
 20
-19.1211315278
 10
-27.2589001621
 20
-19.1192271575
 10
-27.2584679974
 20
-19.1165664217
 10
-27.258050457
 20
-19.1131513401
 10
-27.2576478579
 20
-19.1089845052
 10
-27.2572605055
 20
-19.1040690798
 10
-27.256888694
 20
-19.0984087952
 10
-27.2565327056
 20
-19.0920079482
 10
-27.2561928105
 20
-19.0848713976
 10
-27.2558692668
 20
-19.0770045606
 10
-27.25556232
 20
-19.0684134089
 10
-27.2549991364
 20
-19.0490847921
  0
LWPOLYLINE
  5
717
100
AcDbEntity
  8
0
100
AcDbPolyline
 62
7
  6
CONTINUOUS
 90
6
 70
0
 43
0.3500000087
 10
-46.863449585
 20
33.7299892212
 10
-45.7920211853
 20
33.7299892212
 10
-45.5777346527
 20
33.9442714905
 10
-45.5777346527
 20
35.0156998901
 10
-46.0063034546
 20
35.4442729553
 10
-46.4348765198
 20
35.4442729553
  0
LWPOLYLINE
  5
718
100
AcDbEntity
  8
0
100
AcDbPolyline
 62
7
  6
CONTINUOUS
 90
7
 70
0
 43
0.3500000087
 10
-43.2205913208
 20
33.7299892212
 10
-44.7205885223
 20
33.7299892212
 10
-43.2205913208
 20
35.8728460205
 10
-43.2205913208
 20
36.3014148224
 10
-43.6491601227
 20
36.7299878876
 10
-44.2920197205
 20
36.7299878876
 10
-44.7205885223
 20
36.0871282898
  0
LWPOLYLINE
  5
719
100
AcDbEntity
  8
0
100
AcDbPolyline
 62
7
  6
CONTINUOUS
 90
6
 70
0
 43
0.3500000087
 10
-49.4348751862
 20
43.7239450928
 10
-48.3634467865
 20
43.7239450928
 10
-48.1491602539
 20
43.9382316254
 10
-48.1491602539
 20
45.009660025
 10
-48.5777333191
 20
45.4382288269
 10
-49.0063063843
 20
45.4382288269
  0
LWPOLYLINE
  5
71A
100
AcDbEntity
  8
0
100
AcDbPolyline
 62
7
  6
CONTINUOUS
 90
3
 70
0
 43
0.3500000087
 10
-50.2920213165
 20
44.3668004272
 10
-51.7920185181
 20
44.3668004272
 10
-51.1491631836
 20
46.7239437592
  0
ARC
  5
71B
100
AcDbEntity
  8
0
100
AcDbCircle
 62
7
  6
CONTINUOUS
 10
-41.2777334734
 20
-2.85
 40
1.75
100
AcDbArc
 50
0.0
 51
37.6855336254
  0
ARC
  5
71C
100
AcDbEntity
  8
ASSI
100
AcDbCircle
 62
7
  6
CONTINUOUS
 10
-41.2777334734
 20
-2.85
 40
1.75
100
AcDbArc
 50
180.0
 51
360.0
  0
ARC
  5
71D
100
AcDbEntity
  8
0
100
AcDbCircle
 62
7
  6
CONTINUOUS
 10
-41.2777334734
 20
-2.85
 40
1.75
100
AcDbArc
 50
142.3144663746
 51
180.0
  0
ARC
  5
71E
100
AcDbEntity
  8
0
100
AcDbCircle
 62
7
  6
CONTINUOUS
 10
-36.2777334734
 20
-2.85
 40
1.75
100
AcDbArc
 50
0.0
 51
37.6855336254
  0
ARC
  5
71F
100
AcDbEntity
  8
ASSI
100
AcDbCircle
 62
7
  6
CONTINUOUS
 10
-36.2777334734
 20
-2.85
 40
1.75
100
AcDbArc
 50
180.0
 51
360.0
  0
ARC
  5
720
100
AcDbEntity
  8
0
100
AcDbCircle
 62
7
  6
CONTINUOUS
 10
-36.2777334734
 20
-2.85
 40
1.75
100
AcDbArc
 50
142.3144663746
 51
180.0
  0
ARC
  5
721
100
AcDbEntity
  8
0
100
AcDbCircle
 62
7
  6
CONTINUOUS
 10
-31.2777334734
 20
-2.85
 40
1.75
100
AcDbArc
 50
0.0
 51
37.6855336254
  0
ARC
  5
722
100
AcDbEntity
  8
ASSI
100
AcDbCircle
 62
7
  6
CONTINUOUS
 10
-31.2777334734
 20
-2.85
 40
1.75
100
AcDbArc
 50
180.0
 51
360.0
  0
ARC
  5
723
100
AcDbEntity
  8
0
100
AcDbCircle
 62
7
  6
CONTINUOUS
 10
-31.2777334734
 20
-2.85
 40
1.75
100
AcDbArc
 50
142.3144663746
 51
180.0
  0
ARC
  5
724
100
AcDbEntity
  8
RACCORDO
100
AcDbCircle
 62
7
  6
CONTINUOUS
 10
-67.456008428
 20
-20.5007809198
 40
1.5
100
AcDbArc
 50
182.3569499908
 51
267.0
  0
ARC
  5
725
100
AcDbEntity
  8
RACCORDO
100
AcDbCircle
 62
7
  6
CONTINUOUS
 10
-49.8777334734
 20
-21.3126932437
 40
1.0
100
AcDbArc
 50
270.5
 51
360.0
  0
ARC
  5
726
100
AcDbEntity
  8
RACCORDO
100
AcDbCircle
 62
7
  6
CONTINUOUS
 10
-27.2777334734
 20
-18.1228182695
 40
1.0
100
AcDbArc
 50
271.0
 51
360.0
  0
ARC
  5
727
100
AcDbEntity
  8
0
100
AcDbCircle
 62
7
  6
CONTINUOUS
 10
-27.2777334734
 20
-18.1228182695
 40
1.0
100
AcDbArc
 50
271.0
 51
360.0
  0
ARC
  5
728
100
AcDbEntity
  8
ASSI
100
AcDbCircle
 62
7
  6
CONTINUOUS
 10
-52.3777334734
 20
-23.2563578147
 40
0.5
100
AcDbArc
 50
270.3333333333
 51
360.0
  0
ARC
  5
729
100
AcDbEntity
  8
RACCORDO
100
AcDbCircle
 62
7
  6
CONTINUOUS
 10
-59.1277334734
 20
-24.2456323968
 40
0.25
100
AcDbArc
 50
270.3333333333
 51
360.0
  0
ARC
  5
72A
100
AcDbEntity
  8
RACCORDO
100
AcDbCircle
 62
7
  6
CONTINUOUS
 10
-59.1277334734
 20
-23.8443375673
 40
0.25
100
AcDbArc
 50
0.0
 51
60.0
  0
ARC
  5
72B
100
AcDbEntity
  8
RACCORDO
100
AcDbCircle
 62
7
  6
CONTINUOUS
 10
-62.1277334734
 20
-24.2369056521
 40
0.25
100
AcDbArc
 50
180.0
 51
269.6666666667
  0
ARC
  5
72C
100
AcDbEntity
  8
RACCORDO
100
AcDbCircle
 62
7
  6
CONTINUOUS
 10
-62.1277334734
 20
-23.8443375673
 40
0.25
100
AcDbArc
 50
120.0
 51
180.0
  0
ARC
  5
72D
100
AcDbEntity
  8
RACCORDO
100
AcDbCircle
 62
7
  6
CONTINUOUS
 10
-67.456008428
 20
20.5007809198
 40
1.5
100
AcDbArc
 50
93.0
 51
177.6430500092
  0
ARC
  5
72E
100
AcDbEntity
  8
RACCORDO
100
AcDbCircle
 62
7
  6
CONTINUOUS
 10
-49.8777334734
 20
21.3126932437
 40
1.0
100
AcDbArc
 50
0.0
 51
89.5
  0
ARC
  5
72F
100
AcDbEntity
  8
RACCORDO
100
AcDbCircle
 62
7
  6
CONTINUOUS
 10
-27.2777334734
 20
4.7228182695
 40
1.0
100
AcDbArc
 50
0.0
 51
89.0
  0
ARC
  5
730
100
AcDbEntity
  8
0
100
AcDbCircle
 62
7
  6
CONTINUOUS
 10
-27.2777334734
 20
4.7228182695
 40
1.0
100
AcDbArc
 50
0.0
 51
89.0
  0
ARC
  5
731
100
AcDbEntity
  8
ASSI
100
AcDbCircle
 62
7
  6
CONTINUOUS
 10
-52.3777334734
 20
23.2563578147
 40
0.5
100
AcDbArc
 50
0.0
 51
89.6666666667
  0
ARC
  5
732
100
AcDbEntity
  8
RACCORDO
100
AcDbCircle
 62
7
  6
CONTINUOUS
 10
-59.1277334734
 20
24.2456323968
 40
0.25
100
AcDbArc
 50
0.0
 51
89.6666666667
  0
ARC
  5
733
100
AcDbEntity
  8
RACCORDO
100
AcDbCircle
 62
7
  6
CONTINUOUS
 10
-62.1277334734
 20
24.2369056521
 40
0.25
100
AcDbArc
 50
90.3333333333
 51
180.0
  0
ARC
  5
734
100
AcDbEntity
  8
RACCORDO
100
AcDbCircle
 62
7
  6
CONTINUOUS
 10
-59.1277334734
 20
23.8443375673
 40
0.25
100
AcDbArc
 50
300.0
 51
360.0
  0
ARC
  5
735
100
AcDbEntity
  8
RACCORDO
100
AcDbCircle
 62
7
  6
CONTINUOUS
 10
-62.1277334734
 20
23.8443375673
 40
0.25
100
AcDbArc
 50
180.0
 51
240.0
  0
ARC
  5
736
100
AcDbEntity
  8
RACCORDO
100
AcDbCircle
 62
7
  6
CONTINUOUS
 10
430.6222665266
 20
-0.0
 40
500.0
100
AcDbArc
 50
177.6430500092
 51
182.3569499908
  0
ELLIPSE
  5
737
100
AcDbEntity
  8
RACCORDO
100
AcDbEllipse
 62
7
  6
CONTINUOUS
 10
-12.6249314524
 20
-21.9412559969
 30
0.0
 11
0.4025750024
 21
-0.2012721715
 31
0.0
 40
0.9998096356
 41
-2.6780516535
 42
-1.5707963209
  0
ELLIPSE
  5
738
100
AcDbEntity
  8
RACCORDO
100
AcDbEllipse
 62
7
  6
CONTINUOUS
 10
8.7749314524
 20
21.9412559969
 30
0.0
 11
0.4025750024
 21
-0.2012721715
 31
0.0
 40
0.9998096356
 41
0.4635410001
 42
1.5707963317
  0
ELLIPSE
  5
739
100
AcDbEntity
  8
RACCORDO
100
AcDbEllipse
 62
7
  6
CONTINUOUS
 10
-12.6249314524
 20
21.9412559969
 30
0.0
 11
0.4025750024
 21
0.2012721715
 31
0.0
 40
0.9998096356
 41
1.5707963209
 42
2.6780516535
  0
ELLIPSE
  5
73A
100
AcDbEntity
  8
RACCORDO
100
AcDbEllipse
 62
7
  6
CONTINUOUS
 10
8.7749314524
 20
-21.9412559969
 30
0.0
 11
0.4025750024
 21
0.2012721715
 31
0.0
 40
0.9998096356
 41
-1.5707963317
 42
-0.4635410001
  0
ELLIPSE
  5
73B
100
AcDbEntity
  8
RACCORDO
100
AcDbEllipse
 62
7
  6
CONTINUOUS
 10
1.9720826234
 20
-23.7970910851
 30
0.0
 11
0.5
 21
0.0
 31
0.0
 40
0.0058178298
 41
0.0058177642
 42
0.6464131586
  0
ELLIPSE
  5
73C
100
AcDbEntity
  8
RACCORDO
100
AcDbEllipse
 62
7
  6
CONTINUOUS
 10
1.9720826234
 20
-22.3737961104
 30
0.0
 11
0.5
 21
-0.0
 31
0.0
 40
0.0524077793
 41
0.0058177642
 42
1.5707963268
  0
ELLIPSE
  5
73D
100
AcDbEntity
  8
RACCORDO
100
AcDbEllipse
 62
7
  6
CONTINUOUS
 10
-5.8220826234
 20
23.7970910851
 30
0.0
 11
0.5
 21
0.0
 31
0.0
 40
0.0058178298
 41
-3.1357748894
 42
-2.495179495
  0
ELLIPSE
  5
73E
100
AcDbEntity
  8
RACCORDO
100
AcDbEllipse
 62
7
  6
CONTINUOUS
 10
-5.8220826234
 20
22.3737961104
 30
0.0
 11
0.5
 21
0.0
 31
0.0
 40
0.0524077793
 41
-3.1357748894
 42
-1.5707963268
  0
ELLIPSE
  5
73F
100
AcDbEntity
  8
RACCORDO
100
AcDbEllipse
 62
7
  6
CONTINUOUS
 10
1.9720826234
 20
22.3737961104
 30
0.0
 11
0.5
 21
-0.0
 31
0.0
 40
0.0524077793
 41
-1.5707963268
 42
-0.0058177642
  0
ELLIPSE
  5
740
100
AcDbEntity
  8
RACCORDO
100
AcDbEllipse
 62
7
  6
CONTINUOUS
 10
1.9720826234
 20
23.7970910851
 30
0.0
 11
0.5
 21
0.0
 31
0.0
 40
0.0058178298
 41
-0.6464131586
 42
-0.0058177642
  0
ELLIPSE
  5
741
100
AcDbEntity
  8
RACCORDO
100
AcDbEllipse
 62
7
  6
CONTINUOUS
 10
-12.3177234819
 20
22.3344902759
 30
0.0
 11
0.25
 21
0.0
 31
0.0
 40
0.0524077793
 41
-3.1357748894
 42
-1.5707963268
  0
ELLIPSE
  5
742
100
AcDbEntity
  8
RACCORDO
100
AcDbEllipse
 62
7
  6
CONTINUOUS
 10
-10.4322765181
 20
22.3344902759
 30
0.0
 11
0.25
 21
0.0
 31
0.0
 40
0.0524077793
 41
-1.5707963268
 42
-0.0058177642
  0
ELLIPSE
  5
743
100
AcDbEntity
  8
RACCORDO
100
AcDbEllipse
 62
7
  6
CONTINUOUS
 10
4.2343624843
 20
-5.2093815235
 30
0.0
 11
-0.0
 21
0.5
 31
0.0
 40
0.0087268678
 41
-0.0186548398
 42
-0.0087266463
  0
ELLIPSE
  5
744
100
AcDbEntity
  8
RACCORDO
100
AcDbEllipse
 62
7
  6
CONTINUOUS
 10
6.5822765181
 20
22.3344902759
 30
0.0
 11
0.25
 21
-0.0
 31
0.0
 40
0.0524077793
 41
-3.1357748894
 42
-1.5707963268
  0
ELLIPSE
  5
745
100
AcDbEntity
  8
RACCORDO
100
AcDbEllipse
 62
7
  6
CONTINUOUS
 10
4.2344727797
 20
3.8094918189
 30
0.0
 11
-0.0
 21
0.5
 31
0.0
 40
0.0087268678
 41
-3.1328660073
 42
-3.1257402647
  0
ELLIPSE
  5
746
100
AcDbEntity
  8
RACCORDO
100
AcDbEllipse
 62
7
  6
CONTINUOUS
 10
1.4344727797
 20
3.8094918189
 30
0.0
 11
-0.0
 21
0.5
 31
0.0
 40
0.0087268678
 41
-3.1328660073
 42
-3.1257400193
  0
ELLIPSE
  5
747
100
AcDbEntity
  8
RACCORDO
100
AcDbEllipse
 62
7
  6
CONTINUOUS
 10
1.4343439328
 20
5.409362972
 30
0.0
 11
0.0
 21
0.5
 31
0.0
 40
0.0087268678
 41
-3.1328660073
 42
-3.1225377078
  0
ELLIPSE
  5
748
100
AcDbEntity
  8
RACCORDO
100
AcDbEllipse
 62
7
  6
CONTINUOUS
 10
8.4677234819
 20
22.3344902759
 30
0.0
 11
0.25
 21
0.0
 31
0.0
 40
0.0524077793
 41
-1.5707963268
 42
-0.0058177642
  0
ELLIPSE
  5
749
100
AcDbEntity
  8
RACCORDO
100
AcDbEllipse
 62
7
  6
CONTINUOUS
 10
-12.3177234819
 20
-22.3344902759
 30
0.0
 11
0.25
 21
0.0
 31
0.0
 40
0.0524077793
 41
1.5707963268
 42
3.1357748894
  0
ELLIPSE
  5
74A
100
AcDbEntity
  8
RACCORDO
100
AcDbEllipse
 62
7
  6
CONTINUOUS
 10
0.3843439328
 20
5.409362972
 30
0.0
 11
0.0
 21
0.5
 31
0.0
 40
0.0087268678
 41
-3.1328660073
 42
-3.1225374991
  0
ELLIPSE
  5
74B
100
AcDbEntity
  8
RACCORDO
100
AcDbEllipse
 62
7
  6
CONTINUOUS
 10
-10.4322765181
 20
-22.3344902759
 30
0.0
 11
0.25
 21
0.0
 31
0.0
 40
0.0524077793
 41
0.0058177642
 42
1.5707963268
  0
ELLIPSE
  5
74C
100
AcDbEntity
  8
RACCORDO
100
AcDbEllipse
 62
7
  6
CONTINUOUS
 10
6.5822765181
 20
-22.3344902759
 30
0.0
 11
0.25
 21
0.0
 31
0.0
 40
0.0524077793
 41
1.5707963268
 42
3.1357748894
  0
ELLIPSE
  5
74D
100
AcDbEntity
  8
RACCORDO
100
AcDbEllipse
 62
7
  6
CONTINUOUS
 10
8.4677234819
 20
-22.3344902759
 30
0.0
 11
0.25
 21
0.0
 31
0.0
 40
0.0524077793
 41
0.0058177642
 42
1.5707963268
  0
ELLIPSE
  5
74E
100
AcDbEntity
  8
RACCORDO
100
AcDbEllipse
 62
7
  6
CONTINUOUS
 10
-4.2342179491
 20
6.6092369883
 30
0.0
 11
-0.0
 21
0.5
 31
0.0
 40
0.0087268678
 41
-3.1630498118
 42
-3.1503192998
  0
ELLIPSE
  5
74F
100
AcDbEntity
  8
RACCORDO
100
AcDbEllipse
 62
7
  6
CONTINUOUS
 10
-5.2843439328
 20
5.409362972
 30
0.0
 11
0.0
 21
0.5
 31
0.0
 40
0.0087268678
 41
-3.1606478081
 42
-3.1503192998
  0
ELLIPSE
  5
750
100
AcDbEntity
  8
RACCORDO
100
AcDbEllipse
 62
7
  6
CONTINUOUS
 10
-5.2844727797
 20
3.8094918189
 30
0.0
 11
0.0
 21
0.5
 31
0.0
 40
0.0087268678
 41
-3.1574447508
 42
-3.1503192998
  0
ELLIPSE
  5
751
100
AcDbEntity
  8
RACCORDO
100
AcDbEllipse
 62
7
  6
CONTINUOUS
 10
-8.0843624843
 20
-5.2093815235
 30
0.0
 11
-0.0
 21
0.5
 31
0.0
 40
0.0087268678
 41
0.0087266463
 42
0.0186548398
  0
ELLIPSE
  5
752
100
AcDbEntity
  8
RACCORDO
100
AcDbEllipse
 62
7
  6
CONTINUOUS
 10
-8.0844727797
 20
3.8094918189
 30
0.0
 11
0.0
 21
0.5
 31
0.0
 40
0.0087268678
 41
-3.1574450425
 42
-3.1503192998
  0
ELLIPSE
  5
753
100
AcDbEntity
  8
RACCORDO
100
AcDbEllipse
 62
7
  6
CONTINUOUS
 10
-5.8220826234
 20
-22.3737961104
 30
0.0
 11
0.5
 21
-0.0
 31
0.0
 40
0.0524077793
 41
1.5707963268
 42
3.1357748894
  0
ELLIPSE
  5
754
100
AcDbEntity
  8
RACCORDO
100
AcDbEllipse
 62
7
  6
CONTINUOUS
 10
-5.8220826234
 20
-23.7970910851
 30
0.0
 11
0.5
 21
-0.0
 31
0.0
 40
0.0058178298
 41
2.495179495
 42
3.1357748894
  0
ELLIPSE
  5
755
100
AcDbEntity
  8
RACCORDO
100
AcDbEllipse
 62
7
  6
CONTINUOUS
 10
-49.3777334734
 20
22.0658992808
 30
0.0
 11
0.0
 21
0.5
 31
0.0
 40
1.0
 41
-3.1241393611
 42
-2.2313643779
  0
ELLIPSE
  5
756
100
AcDbEntity
  8
RACCORDO
100
AcDbEllipse
 62
7
  6
CONTINUOUS
 10
-49.3777334734
 20
-22.0658992808
 30
0.0
 11
0.0
 21
0.5
 31
0.0
 40
1.0
 41
-0.9102282757
 42
-0.0174532925
  0
ELLIPSE
  5
757
100
AcDbEntity
  8
RACCORDO
100
AcDbEllipse
 62
7
  6
CONTINUOUS
 10
-27.2777334734
 20
-1.2734050343
 30
0.0
 11
0.999996827
 21
0.0094018592
 31
0.0
 40
0.2679374115
 41
-0.0025191125
 42
1.5508239218
  0
ELLIPSE
  5
758
100
AcDbEntity
  8
RACCORDO
100
AcDbEllipse
 62
7
  6
CONTINUOUS
 10
-27.2777334734
 20
-4.9265949657
 30
0.0
 11
0.999996827
 21
-0.0094018592
 31
0.0
 40
0.2679374115
 41
-1.5508239218
 42
0.0025191125
  0
ELLIPSE
  5
759
100
AcDbEntity
  8
0
100
AcDbEllipse
 62
7
  6
CONTINUOUS
 10
-46.798416801
 20
-3.1
 30
0.0
 11
1.6218506799
 21
0.0
 31
0.0
 40
0.999997266
 41
1.5771846789
 42
4.7060006283
  0
ELLIPSE
  5
75A
100
AcDbEntity
  8
0
100
AcDbEllipse
 62
7
  6
CONTINUOUS
 10
-27.2777334734
 20
-4.9265949657
 30
0.0
 11
0.999996827
 21
-0.0094018592
 31
0.0
 40
0.2679374115
 41
-1.5508239218
 42
0.0025191125
  0
ELLIPSE
  5
75B
100
AcDbEntity
  8
0
100
AcDbEllipse
 62
7
  6
CONTINUOUS
 10
-27.2777334734
 20
-1.2734050343
 30
0.0
 11
0.999996827
 21
0.0094018592
 31
0.0
 40
0.2679374115
 41
-0.0025191125
 42
1.5508239218
  0
ELLIPSE
  5
75C
100
AcDbEntity
  8
0
100
AcDbEllipse
 62
7
  6
CONTINUOUS
 10
-46.8040510947
 20
-3.1
 30
0.0
 11
2.0155265474
 21
0.0
 31
0.0
 40
0.9999890624
 41
1.5748459681
 42
4.7083393391
  0
ELLIPSE
  5
75D
100
AcDbEntity
  8
0
100
AcDbEllipse
 62
250
  6
CONTINUOUS
 10
-55.4567347809
 20
-4.680795
 30
0.0
 11
0.0
 21
0.352865
 31
0.0
 40
0.9996954135
 41
-1.5707963268
 42
1.5707963268
  0
ENDSEC
  0
SECTION
  2
OBJECTS
  0
DICTIONARY
  5
C
100
AcDbDictionary
280
0
281
1
  3
ACAD_GROUP
350
D
  3
ACAD_MLINESTYLE
350
17
  3
ACAD_LAYOUT
350
1A
  3
ACAD_PLOTSETTINGS
350
19
  3
ACAD_PLOTSTYLENAME
350
E
  0
DICTIONARY
  5
D
102
{ACAD_REACTORS
330
C
102
}
100
AcDbDictionary
280
0
281
1
  0
ACDBDICTIONARYWDFLT
  5
E
102
{ACAD_REACTORS
330
C
102
}
100
AcDbDictionary
281
1
  3
Normal
350
F
100
AcDbDictionaryWithDefault
340
F
  0
DICTIONARY
  5
17
102
{ACAD_REACTORS
330
C
102
}
100
AcDbDictionary
280
0
281
1
  3
Standard
350
18
  0
DICTIONARY
  5
19
102
{ACAD_REACTORS
330
C
102
}
100
AcDbDictionary
281
1
  0
DICTIONARY
  5
1A
102
{ACAD_REACTORS
330
C
102
}
100
AcDbDictionary
281
1
  3
Model
350
75E
  3
Layout1
350
75F
  0
ACDBPLACEHOLDER
  5
F
102
{ACAD_REACTORS
330
E
102
}
  0
MLINESTYLE
  5
18
102
{ACAD_REACTORS
330
17
102
}
100
AcDbMlineStyle
  2
STANDARD
 70
0
  3

 62
256
 51
90.0
 52
90.0
 71
2
 49
0.5
 62
256
  6
BYLAYER
 49
-0.5
 62
256
  6
BYLAYER
  0
LAYOUT
  5
75E
102
{ACAD_REACTORS
330
1A
102
}
100
AcDbPlotSettings
  1

  2
none_device
  4
ANSI_C_(22.00_x_17.00_Inches)
  6

 40
0.0
 41
0.0
 42
0.0
 43
0.0
 44
558.8
 45
431.8
 46
0.0
 47
0.0
 48
0.0
 49
0.0
140
0.0
141
0.0
142
1.0
143
1.0
 70
1024
 72
1
 73
0
 74
0
  7

 75
0
147
1.0
148
0.0
149
0.0
100
AcDbLayout
  1
Model
 70
0
 71
0
 10
0.0
 20
0.0
 11
558.8
 21
431.8
 12
0.0
 22
0.0
 32
0.0
 14
0.0
 24
0.0
 34
0.0
 15
0.0
 25
0.0
 35
0.0
146
0.0
 13
0.0
 23
0.0
 33
0.0
 16
1.0
 26
0.0
 36
0.0
 17
0.0
 27
1.0
 37
0.0
 76
0
330
213
345
0
346
0
  0
LAYOUT
  5
75F
102
{ACAD_REACTORS
330
1A
102
}
100
AcDbPlotSettings
  1

  2
none_device
  4
ANSI_C_(22.00_x_17.00_Inches)
  6

 40
0.0
 41
0.0
 42
0.0
 43
0.0
 44
558.8
 45
431.8
 46
0.0
 47
0.0
 48
0.0
 49
0.0
140
0.0
141
0.0
142
1.0
143
1.0
 70
0
 72
1
 73
0
 74
0
  7

 75
0
147
1.0
148
0.0
149
0.0
100
AcDbLayout
  1
Layout1
 70
0
 71
1
 10
0.0
 20
0.0
 11
558.8
 21
431.8
 12
0.0
 22
0.0
 32
0.0
 14
0.0
 24
0.0
 34
0.0
 15
0.0
 25
0.0
 35
0.0
146
0.0
 13
0.0
 23
0.0
 33
0.0
 16
1.0
 26
0.0
 36
0.0
 17
0.0
 27
1.0
 37
0.0
 76
0
330
214
345
0
346
0
  0
ENDSEC
  0
EOF
