  0
SECTION
  2
HEADER
  9
$ACADVER
  1
AC1021
  9
$DWGCODEPAGE
  3
ANSI_1252
  9
$EXTMAX
 10
558.8
 20
431.8
 30
0.0
  9
$EXTMIN
 10
0.0
 20
0.0
 30
0.0
  9
$LIMMIN
 10
0.0
 20
0.0
  9
$LIMMAX
 10
558.8
 20
431.8
  9
$VIEWCTR
 10
279.4
 20
215.9
  9
$VIEWSIZE
 40
431.8
  9
$CLAYER
  8
0
  9
$LTSCALE
 40
30.734
  9
$CELTYPE
  6
BYLAYER
  9
$DIMSCALE
 40
1.0
  9
$DIMASZ
 40
3.0
  9
$DIMEXO
 40
0.5
  9
$DIMDLI
 40
21.2344
  9
$DIMEXE
 40
1.5
  9
$DIMCEN
 40
5.0292
  9
$DIMLFAC
 40
1.0
  9
$DIMBLK
  1
_FILLED
  9
$DIMALT
 70
0
  9
$DIMALTF
 40
0.0393700787
  9
$DIMTXT
 40
3.0
  9
$DIMTOL
 70
1
  9
$DIMLIM
 70
0
  9
$DIMTFAC
 40
1.0
  9
$DIMTP
 40
0.01
  9
$DIMTM
 40
0.01
  9
$DIMGAP
 40
0.625
  9
$DIMDSEP
 70
44
  9
$AUNITS
 70
0
  9
$PDMODE
 70
3
  9
$PDSIZE
 40
3.0
  9
$HANDSEED
  5
766
  9
$TILEMODE
 70
1
  9
$MEASUREMENT
 70
1
  9
$INSUNITS
 70
4
  0
ENDSEC
  0
SECTION
  2
CLASSES
  0
CLASS
  1
ACDBDICTIONARYWDFLT
  2
AcDbDictionaryWithDefault
  3
AutoCAD 2000
 90
0
 91
1
280
0
281
0
  0
CLASS
  1
ACDBPLACEHOLDER
  2
AcDbPlaceHolder
  3
AutoCAD 2000
 90
0
 91
1
280
0
281
0
  0
CLASS
  1
LAYOUT
  2
AcDbLayout
  3
AutoCAD 2000
 90
0
 91
0
280
0
281
0
  0
ENDSEC
  0
SECTION
  2
TABLES
  0
TABLE
  2
VPORT
  5
8
100
AcDbSymbolTable
 70
2
  0
VPORT
  5
1F4
100
AcDbSymbolTableRecord
100
AcDbViewportTableRecord
  2
*ACTIVE
 70
0
 10
0.0
 20
0.0
 11
1.0
 21
1.0
 12
279.4
 22
215.9
 13
0.0
 23
0.0
 14
1.0
 24
1.0
 15
0.0
 25
0.0
 16
0.0
 26
0.0
 36
1.0
 17
0.0
 27
0.0
 37
0.0
 40
431.8
 41
1.2941176471
 42
50.0
 43
0.0
 44
0.0
 50
0.0
 51
0.0
 71
0
 72
100
 73
1
 74
1
 75
0
 76
0
 77
0
 78
0
  0
ENDTAB
  0
TABLE
  2
LTYPE
  5
5
100
AcDbSymbolTable
 70
6
  0
LTYPE
  5
14
100
AcDbSymbolTableRecord
100
AcDbLinetypeTableRecord
  2
BYBLOCK
 70
0
  3

 72
65
 73
0
 40
0.0
  0
LTYPE
  5
15
100
AcDbSymbolTableRecord
100
AcDbLinetypeTableRecord
  2
BYLAYER
 70
0
  3

 72
65
 73
0
 40
0.0
  0
LTYPE
  5
16
100
AcDbSymbolTableRecord
100
AcDbLinetypeTableRecord
  2
CONTINUOUS
 70
64
  3
Solid line
 72
65
 73
0
 40
0.0
  0
LTYPE
  5
1F5
100
AcDbSymbolTableRecord
100
AcDbLinetypeTableRecord
  2
CENTER
 70
64
  3
____ _ ____ _ ____ _ ____ _ ____ _ ____ _ ____
 72
65
 73
4
 40
0.6
 49
0.375
 74
0
 49
-0.075
 74
0
 49
0.075
 74
0
 49
-0.075
 74
0
  0
LTYPE
  5
1F6
100
AcDbSymbolTableRecord
100
AcDbLinetypeTableRecord
  2
HIDDEN
 70
64
  3
- - - - - - - - - - - - - - - - - - - -
 72
65
 73
2
 40
0.2
 49
0.1
 74
0
 49
-0.1
 74
0
  0
LTYPE
  5
1F7
100
AcDbSymbolTableRecord
100
AcDbLinetypeTableRecord
  2
PHANTOM
 70
64
  3
_____ _ _ _____ _ _ _____ _ _ _____
 72
65
 73
6
 40
0.8
 49
0.45
 74
0
 49
-0.05
 74
0
 49
0.1
 74
0
 49
-0.05
 74
0
 49
0.1
 74
0
 49
-0.05
 74
0
  0
LTYPE
  5
1F8
100
AcDbSymbolTableRecord
100
AcDbLinetypeTableRecord
  2
DOT
 70
64
  3
. . . . . . . . . . . . . . . . . . . .
 72
65
 73
2
 40
0.2
 49
0.1
 74
0
 49
-0.1
 74
0
  0
LTYPE
  5
1F9
100
AcDbSymbolTableRecord
100
AcDbLinetypeTableRecord
  2
DASHED
 70
64
  3
- - - - - - - - - - - - - - - - - - - -
 72
65
 73
2
 40
0.2
 49
0.1
 74
0
 49
-0.1
 74
0
  0
ENDTAB
  0
TABLE
  2
LAYER
  5
2
100
AcDbSymbolTable
 70
36
  0
LAYER
  5
10
100
AcDbSymbolTableRecord
100
AcDbLayerTableRecord
  2
0
 70
0
 62
7
  6
CONTINUOUS
370
-3
390
F
  0
LAYER
  5
1FA
100
AcDbSymbolTableRecord
100
AcDbLayerTableRecord
  2
DEFAULT_1
 70
0
 62
7
  6
CENTER
370
-3
390
F
  0
LAYER
  5
1FB
100
AcDbSymbolTableRecord
100
AcDbLayerTableRecord
  2
DEFAULT_2
 70
0
 62
7
  6
HIDDEN
370
-3
390
F
  0
LAYER
  5
1FC
100
AcDbSymbolTableRecord
100
AcDbLayerTableRecord
  2
DEFAULT_3
 70
0
 62
7
  6
PHANTOM
370
-3
390
F
  0
LAYER
  5
1FD
100
AcDbSymbolTableRecord
100
AcDbLayerTableRecord
  2
ASSI
 70
0
 62
7
  6
CONTINUOUS
370
-3
390
F
  0
LAYER
  5
1FE
100
AcDbSymbolTableRecord
100
AcDbLayerTableRecord
  2
COORDINATE
 70
0
 62
7
  6
CONTINUOUS
370
-3
390
F
  0
LAYER
  5
1FF
100
AcDbSymbolTableRecord
100
AcDbLayerTableRecord
  2
COORD_ORIGINE
 70
0
 62
7
  6
CONTINUOUS
370
-3
390
F
  0
LAYER
  5
200
100
AcDbSymbolTableRecord
100
AcDbLayerTableRecord
  2
COSMETICHE
 70
0
 62
7
  6
CONTINUOUS
370
-3
390
F
  0
LAYER
  5
201
100
AcDbSymbolTableRecord
100
AcDbLayerTableRecord
  2
CURVE
 70
0
 62
7
  6
CONTINUOUS
370
-3
390
F
  0
LAYER
  5
202
100
AcDbSymbolTableRecord
100
AcDbLayerTableRecord
  2
DRAFT
 70
0
 62
7
  6
CONTINUOUS
370
-3
390
F
  0
LAYER
  5
203
100
AcDbSymbolTableRecord
100
AcDbLayerTableRecord
  2
IMPORT
 70
0
 62
7
  6
CONTINUOUS
370
-3
390
F
  0
LAYER
  5
204
100
AcDbSymbolTableRecord
100
AcDbLayerTableRecord
  2
INTFCLR_3
 70
0
 62
7
  6
CONTINUOUS
370
-3
390
F
  0
LAYER
  5
205
100
AcDbSymbolTableRecord
100
AcDbLayerTableRecord
  2
INTF_1
 70
0
 62
7
  6
CONTINUOUS
370
-3
390
F
  0
LAYER
  5
206
100
AcDbSymbolTableRecord
100
AcDbLayerTableRecord
  2
INTF_11
 70
0
 62
7
  6
CONTINUOUS
370
-3
390
F
  0
LAYER
  5
207
100
AcDbSymbolTableRecord
100
AcDbLayerTableRecord
  2
LAY0001
 70
0
 62
7
  6
CONTINUOUS
370
-3
390
F
  0
LAYER
  5
208
100
AcDbSymbolTableRecord
100
AcDbLayerTableRecord
  2
LIVELLO_2
 70
0
 62
7
  6
CONTINUOUS
370
-3
390
F
  0
LAYER
  5
209
100
AcDbSymbolTableRecord
100
AcDbLayerTableRecord
  2
NOTE
 70
0
 62
7
  6
CONTINUOUS
370
-3
390
F
  0
LAYER
  5
20A
100
AcDbSymbolTableRecord
100
AcDbLayerTableRecord
  2
PIANI
 70
0
 62
7
  6
CONTINUOUS
370
-3
390
F
  0
LAYER
  5
20B
100
AcDbSymbolTableRecord
100
AcDbLayerTableRecord
  2
PIANI_ORIGINE
 70
0
 62
7
  6
CONTINUOUS
370
-3
390
F
  0
LAYER
  5
20C
100
AcDbSymbolTableRecord
100
AcDbLayerTableRecord
  2
PIANI_RIFERIMENTO
 70
0
 62
7
  6
CONTINUOUS
370
-3
390
F
  0
LAYER
  5
20D
100
AcDbSymbolTableRecord
100
AcDbLayerTableRecord
  2
PIANI_SFORMO
 70
0
 62
7
  6
CONTINUOUS
370
-3
390
F
  0
LAYER
  5
20E
100
AcDbSymbolTableRecord
100
AcDbLayerTableRecord
  2
PUNTI
 70
0
 62
7
  6
CONTINUOUS
370
-3
390
F
  0
LAYER
  5
20F
100
AcDbSymbolTableRecord
100
AcDbLayerTableRecord
  2
RACCORDO
 70
0
 62
7
  6
CONTINUOUS
370
-3
390
F
  0
LAYER
  5
210
100
AcDbSymbolTableRecord
100
AcDbLayerTableRecord
  2
SMUSSO
 70
0
 62
7
  6
CONTINUOUS
370
-3
390
F
  0
LAYER
  5
211
100
AcDbSymbolTableRecord
100
AcDbLayerTableRecord
  2
SNAPLINE
 70
0
 62
7
  6
CONTINUOUS
370
-3
390
F
  0
LAYER
  5
212
100
AcDbSymbolTableRecord
100
AcDbLayerTableRecord
  2
SUPERFICI
 70
0
 62
7
  6
CONTINUOUS
370
-3
390
F
  0
LAYER
  5
213
100
AcDbSymbolTableRecord
100
AcDbLayerTableRecord
  2
TRASH
 70
0
 62
7
  6
CONTINUOUS
370
-3
390
F
  0
LAYER
  5
214
100
AcDbSymbolTableRecord
100
AcDbLayerTableRecord
  2
XSEC_DATUMS
 70
0
 62
7
  6
CONTINUOUS
370
-3
390
F
  0
ENDTAB
  0
TABLE
  2
STYLE
  5
3
100
AcDbSymbolTable
 70
1
  0
STYLE
  5
11
100
AcDbSymbolTableRecord
100
AcDbTextStyleTableRecord
  2
STANDARD
 70
0
 40
0.0
 41
0.8
 50
0.0
 71
0
 42
0.2
  3
txt
  4

  0
STYLE
  5
215
100
AcDbSymbolTableRecord
100
AcDbTextStyleTableRecord
  2
TEXTSTYLE_1
 70
0
 40
0.0
 41
0.8
 50
0.0
 71
0
 42
0.2
  3
gdt
  4

  0
ENDTAB
  0
TABLE
  2
VIEW
  5
6
100
AcDbSymbolTable
 70
0
  0
ENDTAB
  0
TABLE
  2
UCS
  5
7
100
AcDbSymbolTable
 70
0
  0
ENDTAB
  0
TABLE
  2
APPID
  5
9
100
AcDbSymbolTable
 70
1
  0
APPID
  5
216
100
AcDbSymbolTableRecord
100
AcDbRegAppTableRecord
  2
ACAD
 70
0
  0
ENDTAB
  0
TABLE
  2
BLOCK_RECORD
  5
1
100
AcDbSymbolTable
 70
0
  0
BLOCK_RECORD
  5
217
100
AcDbSymbolTableRecord
100
AcDbBlockTableRecord
  2
*Model_Space
  0
BLOCK_RECORD
  5
218
100
AcDbSymbolTableRecord
100
AcDbBlockTableRecord
  2
*Paper_Space
  0
BLOCK_RECORD
  5
219
100
AcDbSymbolTableRecord
100
AcDbBlockTableRecord
  2
_FILLED
  0
BLOCK_RECORD
  5
21A
100
AcDbSymbolTableRecord
100
AcDbBlockTableRecord
  2
*D0
  0
BLOCK_RECORD
  5
21B
100
AcDbSymbolTableRecord
100
AcDbBlockTableRecord
  2
*D1
  0
BLOCK_RECORD
  5
21C
100
AcDbSymbolTableRecord
100
AcDbBlockTableRecord
  2
*D2
  0
BLOCK_RECORD
  5
21D
100
AcDbSymbolTableRecord
100
AcDbBlockTableRecord
  2
*D3
  0
ENDTAB
  0
TABLE
  2
DIMSTYLE
  5
A
100
AcDbSymbolTable
 70
1
100
AcDbDimStyleTable
 71
0
  0
DIMSTYLE
105
21E
100
AcDbSymbolTableRecord
100
AcDbDimStyleTableRecord
  2
STANDARD
 70
0
  3

  4

 40
1.0
 41
3.0
 42
0.5
 43
0.38
 44
1.5
 45
0.0
 46
0.0
 47
0.01
 48
0.01
140
3.0
141
0.09
142
0.0
143
25.4
144
1.0
145
0.0
146
1.0
147
0.625
 71
1.0
 72
0.0
 73
0
 74
0
 75
0
 76
0
 77
1
 78
8
 79
2
170
0
171
1
172
0
173
0
174
0
175
0
176
0
177
0
178
0
270
2
179
2
271
2
272
2
273
2
274
2
275
0
280
0
281
0
282
0
283
1
284
8
285
0
286
0
287
3
288
0
340
11
278
44
341
219
342
219
343
219
344
219
  0
DIMSTYLE
105
21F
100
AcDbSymbolTableRecord
100
AcDbDimStyleTableRecord
  2
DIMSTYLE_1
 70
0
  3

  4

 40
1.0
 41
3.0
 42
0.5
 43
0.38
 44
1.5
 45
0.0
 46
0.0
 47
0.0
 48
0.0
140
3.0
141
0.09
142
0.0
143
25.4
144
1.0
145
0.0
146
1.0
147
0.75
 71
0.0
 72
0.0
 73
0
 74
0
 75
0
 76
0
 77
1
 78
8
 79
2
170
0
171
1
172
0
173
0
174
0
175
0
176
0
177
0
178
0
270
2
179
2
271
2
272
2
273
2
274
2
275
0
280
0
281
0
282
0
283
1
284
8
285
0
286
0
287
3
288
0
340
11
278
44
341
219
342
219
343
219
344
219
  0
ENDTAB
  0
ENDSEC
  0
SECTION
  2
BLOCKS
  0
BLOCK
  5
20
100
AcDbEntity
  8
0
100
AcDbBlockBegin
  2
*Model_Space
 70
0
 10
0.0
 20
0.0
 30
0.0
  3
*Model_Space
  1

  0
ENDBLK
  5
21
100
AcDbEntity
  8
0
100
AcDbBlockEnd
  0
BLOCK
  5
1C
100
AcDbEntity
  8
0
100
AcDbBlockBegin
  2
*Paper_Space
 70
0
 10
0.0
 20
0.0
 30
0.0
  3
*Paper_Space
  1

  0
ENDBLK
  5
1D
100
AcDbEntity
  8
0
100
AcDbBlockEnd
  0
BLOCK
  5
220
100
AcDbEntity
  8
0
100
AcDbBlockBegin
  2
_FILLED
 70
64
 10
0.0
 20
0.0
  3
_FILLED
  1

  0
SOLID
  5
221
100
AcDbEntity
  8
0
  6
BYBLOCK
 62
0
100
AcDbTrace
 10
0.0
 20
0.0
 11
-1.0
 21
0.3166666667
 12
-1.0
 22
-0.3166666667
 13
-1.0
 23
-0.3166666667
  0
ENDBLK
  5
222
100
AcDbEntity
  8
0
  6
BYBLOCK
 62
0
100
AcDbBlockEnd
  0
BLOCK
  5
223
100
AcDbEntity
  8
0
100
AcDbBlockBegin
 62
7
  6
CONTINUOUS
  2
*D0
 70
65
 10
0.0
 20
0.0
  3
*D0
  1

  0
LINE
  5
224
100
AcDbEntity
  8
0
100
AcDbLine
 62
7
  6
CONTINUOUS
 10
-27.4095500063
 20
11.3001233091
 11
-27.4095500063
 21
34.5704914121
  0
LINE
  5
225
100
AcDbEntity
  8
0
100
AcDbLine
 62
7
  6
CONTINUOUS
 10
-51.4095500063
 20
24.7456323968
 11
-51.4095500063
 21
34.5704914121
  0
LINE
  5
226
100
AcDbEntity
  8
0
100
AcDbLine
 62
7
  6
CONTINUOUS
 10
-27.4095500063
 20
33.0704914121
 11
-39.4095500063
 21
33.0704914121
  0
LINE
  5
227
100
AcDbEntity
  8
0
100
AcDbLine
 62
7
  6
CONTINUOUS
 10
-51.4095500063
 20
33.0704914121
 11
-39.4095500063
 21
33.0704914121
  0
INSERT
  5
228
100
AcDbEntity
  8
0
100
AcDbBlockReference
 62
7
  6
CONTINUOUS
  2
_FILLED
 10
-27.4095500063
 20
33.0704914121
 41
3.0
 42
3.0
 43
3.0
  0
INSERT
  5
229
100
AcDbEntity
  8
0
100
AcDbBlockReference
 62
7
  6
CONTINUOUS
  2
_FILLED
 10
-51.4095500063
 20
33.0704914121
 41
3.0
 42
3.0
 43
3.0
 50
180.0
  0
ENDBLK
  5
22A
100
AcDbEntity
  8
0
  6
BYBLOCK
 62
0
100
AcDbBlockEnd
  0
BLOCK
  5
22B
100
AcDbEntity
  8
0
100
AcDbBlockBegin
 62
7
  6
CONTINUOUS
  2
*D1
 70
65
 10
0.0
 20
0.0
  3
*D1
  1

  0
LINE
  5
22C
100
AcDbEntity
  8
0
100
AcDbLine
 62
7
  6
CONTINUOUS
 10
-27.4095500063
 20
11.3001233091
 11
-27.4095500063
 21
44.3929795262
  0
LINE
  5
22D
100
AcDbEntity
  8
0
100
AcDbLine
 62
7
  6
CONTINUOUS
 10
-61.9095500063
 20
0.5
 11
-61.9095500063
 21
44.3929795262
  0
LINE
  5
22E
100
AcDbEntity
  8
0
100
AcDbLine
 62
7
  6
CONTINUOUS
 10
-27.4095500063
 20
42.8929795262
 11
-44.6595500063
 21
42.8929795262
  0
LINE
  5
22F
100
AcDbEntity
  8
0
100
AcDbLine
 62
7
  6
CONTINUOUS
 10
-61.9095500063
 20
42.8929795262
 11
-44.6595500063
 21
42.8929795262
  0
INSERT
  5
230
100
AcDbEntity
  8
0
100
AcDbBlockReference
 62
7
  6
CONTINUOUS
  2
_FILLED
 10
-27.4095500063
 20
42.8929795262
 41
3.0
 42
3.0
 43
3.0
  0
INSERT
  5
231
100
AcDbEntity
  8
0
100
AcDbBlockReference
 62
7
  6
CONTINUOUS
  2
_FILLED
 10
-61.9095500063
 20
42.8929795262
 41
3.0
 42
3.0
 43
3.0
 50
180.0
  0
ENDBLK
  5
232
100
AcDbEntity
  8
0
  6
BYBLOCK
 62
0
100
AcDbBlockEnd
  0
BLOCK
  5
233
100
AcDbEntity
  8
0
100
AcDbBlockBegin
 62
7
  6
CONTINUOUS
  2
*D2
 70
65
 10
0.0
 20
0.0
  3
*D2
  1

  0
LINE
  5
234
100
AcDbEntity
  8
0
100
AcDbLine
 62
7
  6
CONTINUOUS
 10
-11.575
 20
22.4411874598
 11
-11.575
 21
34.5494723962
  0
LINE
  5
235
100
AcDbEntity
  8
0
100
AcDbLine
 62
7
  6
CONTINUOUS
 10
10.725
 20
22.4411874598
 11
10.725
 21
34.5494723962
  0
LINE
  5
236
100
AcDbEntity
  8
0
100
AcDbLine
 62
7
  6
CONTINUOUS
 10
-11.575
 20
33.0494723962
 11
-0.425
 21
33.0494723962
  0
LINE
  5
237
100
AcDbEntity
  8
0
100
AcDbLine
 62
7
  6
CONTINUOUS
 10
10.725
 20
33.0494723962
 11
-0.425
 21
33.0494723962
  0
INSERT
  5
238
100
AcDbEntity
  8
0
100
AcDbBlockReference
 62
7
  6
CONTINUOUS
  2
_FILLED
 10
-11.575
 20
33.0494723962
 41
3.0
 42
3.0
 43
3.0
 50
180.0
  0
INSERT
  5
239
100
AcDbEntity
  8
0
100
AcDbBlockReference
 62
7
  6
CONTINUOUS
  2
_FILLED
 10
10.725
 20
33.0494723962
 41
3.0
 42
3.0
 43
3.0
  0
ENDBLK
  5
23A
100
AcDbEntity
  8
0
  6
BYBLOCK
 62
0
100
AcDbBlockEnd
  0
BLOCK
  5
23B
100
AcDbEntity
  8
0
100
AcDbBlockBegin
 62
7
  6
CONTINUOUS
  2
*D3
 70
65
 10
0.0
 20
0.0
  3
*D3
  1

  0
LINE
  5
23C
100
AcDbEntity
  8
0
100
AcDbLine
 62
7
  6
CONTINUOUS
 10
10.4750042308
 20
24.5
 11
21.1502797578
 21
24.5
  0
LINE
  5
23D
100
AcDbEntity
  8
0
100
AcDbLine
 62
7
  6
CONTINUOUS
 10
10.4750042308
 20
-24.5
 11
21.1502797578
 21
-24.5
  0
LINE
  5
23E
100
AcDbEntity
  8
0
100
AcDbLine
 62
7
  6
CONTINUOUS
 10
19.6502797578
 20
24.5
 11
19.6502797578
 21
0.0
  0
LINE
  5
23F
100
AcDbEntity
  8
0
100
AcDbLine
 62
7
  6
CONTINUOUS
 10
19.6502797578
 20
-24.5
 11
19.6502797578
 21
0.0
  0
INSERT
  5
240
100
AcDbEntity
  8
0
100
AcDbBlockReference
 62
7
  6
CONTINUOUS
  2
_FILLED
 10
19.6502797578
 20
24.5
 41
3.0
 42
3.0
 43
3.0
 50
90.0
  0
INSERT
  5
241
100
AcDbEntity
  8
0
100
AcDbBlockReference
 62
7
  6
CONTINUOUS
  2
_FILLED
 10
19.6502797578
 20
-24.5
 41
3.0
 42
3.0
 43
3.0
 50
270.0
  0
ENDBLK
  5
242
100
AcDbEntity
  8
0
  6
BYBLOCK
 62
0
100
AcDbBlockEnd
  0
ENDSEC
  0
SECTION
  2
ENTITIES
  0
DIMENSION
  5
243
100
AcDbEntity
  8
0
100
AcDbDimension
 62
7
  6
CONTINUOUS
  2
*D0
 10
-51.4095500063
 20
33.0704914121
 11
-41.7666928635
 21
33.0704914121
 70
160
 71
2
 72
2
 41
0.9
 42
24.0
  3
DIMSTYLE_1
100
AcDbAlignedDimension
 13
-27.4095500063
 23
10.8001233091
 14
-51.4095500063
 24
24.2456323968
 50
180.0
100
AcDbRotatedDimension
  0
DIMENSION
  5
244
100
AcDbEntity
  8
0
100
AcDbDimension
 62
7
  6
CONTINUOUS
  2
*D1
 10
-61.9095500063
 20
42.8929795262
 11
-48.8381214349
 21
42.8929795262
 70
160
 71
2
 72
2
 41
0.9
 42
34.5
  3
DIMSTYLE_1
100
AcDbAlignedDimension
 13
-27.4095500063
 23
10.8001233091
 14
-61.9095500063
 24
0.0
 50
180.0
100
AcDbRotatedDimension
  0
DIMENSION
  5
245
100
AcDbEntity
  8
0
100
AcDbDimension
 62
7
  6
CONTINUOUS
  2
*D2
 10
10.725
 20
33.0494723962
 11
-4.7107142857
 21
33.0494723962
 70
160
 71
2
 72
2
 41
0.9
 42
22.3
  3
DIMSTYLE_1
100
AcDbAlignedDimension
 13
-11.575
 23
21.9411874598
 14
10.725
 24
21.9411874598
100
AcDbRotatedDimension
  0
DIMENSION
  5
246
100
AcDbEntity
  8
0
100
AcDbDimension
 62
7
  6
CONTINUOUS
  2
*D3
 10
19.6502797578
 20
-24.5
 11
19.6502797578
 21
-2.3571428571
 70
160
 71
2
 72
2
 41
0.9
 42
49.0
  3
DIMSTYLE_1
100
AcDbAlignedDimension
 13
9.9750042308
 23
24.5
 14
9.9750042308
 24
-24.5
 50
270.0
100
AcDbRotatedDimension
  0
LWPOLYLINE
  5
247
100
AcDbEntity
  8
0
100
AcDbPolyline
 62
7
  6
CONTINUOUS
 90
5
 70
0
 43
0.3500000087
 10
2.5750001165
 20
35.513756311
 10
2.9321428276
 20
35.7280428436
 10
2.9321428276
 20
36.3709024414
 10
2.5750001165
 20
36.7994712433
 10
1.7178571836
 20
36.7994712433
  0
LINE
  5
248
100
AcDbEntity
  8
RACCORDO
100
AcDbLine
 62
250
  6
CONTINUOUS
 10
-8.9249957692
 20
24.5
 11
-8.9380943479
 21
24.4869014213
  0
LINE
  5
249
100
AcDbEntity
  8
RACCORDO
100
AcDbLine
 62
7
  6
CONTINUOUS
 10
-11.3261653088
 20
22.3437543634
 11
-11.3086673841
 21
22.3525026595
  0
LINE
  5
24A
100
AcDbEntity
  8
RACCORDO
100
AcDbLine
 62
250
  6
CONTINUOUS
 10
-11.5575792813
 20
21.9498971557
 11
-11.575
 21
21.9411874598
  0
LWPOLYLINE
  5
24B
100
AcDbEntity
  8
RACCORDO
100
AcDbPolyline
 62
7
  6
CONTINUOUS
 90
11
 70
0
 10
-11.308667383
 20
22.35250266
 10
-11.2945983443
 20
22.3592345029
 10
-11.2749172646
 20
22.367675635
 10
-11.2548557694
 20
22.3751712897
 10
-11.2344587271
 20
22.3817043981
 10
-11.2137808768
 20
22.3872577575
 10
-11.1928605409
 20
22.3918214033
 10
-11.1717181301
 20
22.3953885686
 10
-11.1503919328
 20
22.3979478745
 10
-11.1289389315
 20
22.3994875925
 10
-11.1074078424
 20
22.4
  0
LWPOLYLINE
  5
24C
100
AcDbEntity
  8
RACCORDO
100
AcDbPolyline
 62
250
  6
CONTINUOUS
 90
31
 70
0
 10
9.9619056521
 20
-24.4869014213
 10
9.9749891381
 20
-24.4865583827
 10
9.9880367647
 20
-24.4855310928
 10
10.0010127708
 20
-24.4838223673
 10
10.0138815916
 20
-24.4814368893
 10
10.0266079562
 20
-24.4783811971
 10
10.0391569839
 20
-24.4746636657
 10
10.0514942801
 20
-24.4702944842
 10
10.0635860308
 20
-24.4652856277
 10
10.0753990946
 20
-24.4596508246
 10
10.0869010942
 20
-24.4534055187
 10
10.0980605047
 20
-24.4465668272
 10
10.1088467403
 20
-24.4391534939
 10
10.1192302379
 20
-24.4311858371
 10
10.1291825384
 20
-24.4226856948
 10
10.1386763643
 20
-24.4136763643
 10
10.1476856948
 20
-24.4041825384
 10
10.1561858371
 20
-24.3942302379
 10
10.1641534939
 20
-24.3838467403
 10
10.1715668272
 20
-24.3730605047
 10
10.1784055187
 20
-24.3619010942
 10
10.1846508246
 20
-24.3503990946
 10
10.1902856277
 20
-24.3385860308
 10
10.1952944842
 20
-24.3264942801
 10
10.1996636657
 20
-24.3141569839
 10
10.2033811971
 20
-24.3016079562
 10
10.2064368893
 20
-24.2888815916
 10
10.2088223673
 20
-24.2760127708
 10
10.2105310928
 20
-24.2630367647
 10
10.2115583827
 20
-24.2499891381
 10
10.2119014213
 20
-24.2369056521
  0
LWPOLYLINE
  5
24D
100
AcDbEntity
  8
RACCORDO
100
AcDbPolyline
 62
250
  6
CONTINUOUS
 90
31
 70
0
 10
-8.9380943479
 20
-24.4869014213
 10
-8.9250079938
 20
-24.4865582323
 10
-8.9119574955
 20
-24.4855304893
 10
-8.8989786381
 20
-24.4838210061
 10
-8.8861069984
 20
-24.4814344634
 10
-8.8733778845
 20
-24.4783774023
 10
-8.860826237
 20
-24.4746582128
 10
-8.8484864809
 20
-24.4702870977
 10
-8.8363924437
 20
-24.4652760422
 10
-8.8245772981
 20
-24.4596387939
 10
-8.8130734423
 20
-24.4533908148
 10
-8.8019124163
 20
-24.446549239
 10
-8.791124826
 20
-24.4391328321
 10
-8.7807402367
 20
-24.4311619239
 10
-8.7707871333
 20
-24.4226583824
 10
-8.7612928401
 20
-24.4136455633
 10
-8.7522834183
 20
-24.4041482289
 10
-8.7437835214
 20
-24.3941923917
 10
-8.7358163791
 20
-24.3838052658
 10
-8.7284037491
 20
-24.3730151866
 10
-8.7215660673
 20
-24.3618518682
 10
-8.7153222656
 20
-24.3503462678
 10
-8.709689517
 20
-24.3385301896
 10
-8.7046830871
 20
-24.3264358334
 10
-8.700316536
 20
-24.3140960295
 10
-8.6966010963
 20
-24.3015418449
 10
-8.6935479829
 20
-24.2888103798
 10
-8.6911668528
 20
-24.275944661
 10
-8.6894632485
 20
-24.2629828864
 10
-8.6884399859
 20
-24.249957992
 10
-8.6880985787
 20
-24.2369056521
  0
LWPOLYLINE
  5
24E
100
AcDbEntity
  8
RACCORDO
100
AcDbPolyline
 62
7
  6
CONTINUOUS
 90
34
 70
0
 10
9.9750042308
 20
-24.5
 10
9.986899516
 20
-24.4997168498
 10
9.9987678556
 20
-24.4988680342
 10
10.0105823661
 20
-24.4974554741
 10
10.0223162875
 20
-24.4954823677
 10
10.0339430388
 20
-24.4929531817
 10
10.045436279
 20
-24.4898736417
 10
10.0567699738
 20
-24.4862507213
 10
10.0679184493
 20
-24.4820926258
 10
10.0788564463
 20
-24.4774087722
 10
10.0895591876
 20
-24.4722097688
 10
10.1000024283
 20
-24.4665073916
 10
10.1101625059
 20
-24.4603145581
 10
10.1200164051
 20
-24.4536452955
 10
10.1295418038
 20
-24.4465147107
 10
10.1387171191
 20
-24.4389389589
 10
10.1475215661
 20
-24.4309352005
 10
10.1559352005
 20
-24.4225215661
 10
10.1639389589
 20
-24.4137171191
 10
10.1715147107
 20
-24.4045418038
 10
10.1786452955
 20
-24.3950164051
 10
10.1853145581
 20
-24.3851625059
 10
10.1915073916
 20
-24.3750024283
 10
10.1972097688
 20
-24.3645591876
 10
10.2024087722
 20
-24.3538564463
 10
10.2070926258
 20
-24.3429184493
 10
10.2112507213
 20
-24.3317699738
 10
10.2148736417
 20
-24.320436279
 10
10.2179531817
 20
-24.3089430388
 10
10.2204823677
 20
-24.2973162875
 10
10.2224554741
 20
-24.2855823661
 10
10.2238680342
 20
-24.2737678556
 10
10.2247168498
 20
-24.261899516
 10
10.225
 20
-24.2500042308
  0
LWPOLYLINE
  5
24F
100
AcDbEntity
  8
RACCORDO
100
AcDbPolyline
 62
7
  6
CONTINUOUS
 90
34
 70
0
 10
-8.9249957692
 20
-24.5
 10
-8.913100484
 20
-24.4997168498
 10
-8.9012321444
 20
-24.4988680342
 10
-8.8894176339
 20
-24.4974554741
 10
-8.8776837125
 20
-24.4954823677
 10
-8.8660569612
 20
-24.4929531817
 10
-8.854563721
 20
-24.4898736417
 10
-8.8432300262
 20
-24.4862507213
 10
-8.8320815507
 20
-24.4820926258
 10
-8.8211435537
 20
-24.4774087722
 10
-8.8104408124
 20
-24.4722097688
 10
-8.7999975717
 20
-24.4665073916
 10
-8.7898374941
 20
-24.4603145581
 10
-8.7799835949
 20
-24.4536452955
 10
-8.7704581962
 20
-24.4465147107
 10
-8.7612828809
 20
-24.4389389589
 10
-8.7524784339
 20
-24.4309352005
 10
-8.7440647995
 20
-24.4225215661
 10
-8.7360610411
 20
-24.4137171191
 10
-8.7284852893
 20
-24.4045418038
 10
-8.7213547045
 20
-24.3950164051
 10
-8.7146854419
 20
-24.3851625059
 10
-8.7084926084
 20
-24.3750024283
 10
-8.7027902312
 20
-24.3645591876
 10
-8.6975912278
 20
-24.3538564463
 10
-8.6929073742
 20
-24.3429184493
 10
-8.6887492787
 20
-24.3317699738
 10
-8.6851263583
 20
-24.320436279
 10
-8.6820468183
 20
-24.3089430388
 10
-8.6795176323
 20
-24.2973162875
 10
-8.6775445259
 20
-24.2855823661
 10
-8.6761319658
 20
-24.2737678556
 10
-8.6752831502
 20
-24.261899516
 10
-8.675
 20
-24.2500042308
  0
LINE
  5
250
100
AcDbEntity
  8
RACCORDO
100
AcDbLine
 62
7
  6
CONTINUOUS
 10
9.9750042308
 20
-24.5
 11
8.0749957692
 21
-24.5
  0
LINE
  5
251
100
AcDbEntity
  8
RACCORDO
100
AcDbLine
 62
7
  6
CONTINUOUS
 10
-8.9249957692
 20
-24.5
 11
-10.8250042308
 21
-24.5
  0
LINE
  5
252
100
AcDbEntity
  8
RACCORDO
100
AcDbLine
 62
250
  6
CONTINUOUS
 10
-10.8119056521
 20
-24.4869014213
 11
-8.9380943479
 21
-24.4869014213
  0
LINE
  5
253
100
AcDbEntity
  8
RACCORDO
100
AcDbLine
 62
250
  6
CONTINUOUS
 10
8.0880943479
 20
-24.4869014213
 11
9.9619056521
 21
-24.4869014213
  0
LINE
  5
254
100
AcDbEntity
  8
RACCORDO
100
AcDbLine
 62
250
  6
CONTINUOUS
 10
7.8380985787
 20
-24.2369056521
 11
10.2119014213
 21
-24.2369056521
  0
LINE
  5
255
100
AcDbEntity
  8
RACCORDO
100
AcDbLine
 62
250
  6
CONTINUOUS
 10
-8.6880985787
 20
-24.2369056521
 11
-11.0619014213
 21
-24.2369056521
  0
LINE
  5
256
100
AcDbEntity
  8
RACCORDO
100
AcDbLine
 62
250
  6
CONTINUOUS
 10
7.8380985787
 20
-23.8443375673
 11
10.2119014213
 21
-23.8443375673
  0
LINE
  5
257
100
AcDbEntity
  8
RACCORDO
100
AcDbLine
 62
250
  6
CONTINUOUS
 10
-8.6880985787
 20
-23.8443375673
 11
-11.0619014213
 21
-23.8443375673
  0
LINE
  5
258
100
AcDbEntity
  8
DRAFT
100
AcDbLine
 62
7
  6
CONTINUOUS
 10
3.975
 20
-23.8
 11
-4.825
 21
-23.8
  0
LINE
  5
259
100
AcDbEntity
  8
RACCORDO
100
AcDbLine
 62
250
  6
CONTINUOUS
 10
-4.7212073137
 20
-23.7953389668
 11
3.8712073137
 21
-23.7953389668
  0
LWPOLYLINE
  5
25A
100
AcDbEntity
  8
RACCORDO
100
AcDbPolyline
 62
7
  6
CONTINUOUS
 90
11
 70
0
 10
-11.3086670517
 20
-22.3525028256
 10
-11.2945978633
 20
-22.359234736
 10
-11.2749168264
 20
-22.3676758378
 10
-11.2548553757
 20
-22.375171463
 10
-11.2344583804
 20
-22.3817045428
 10
-11.2137805794
 20
-22.3872578746
 10
-11.1928602952
 20
-22.3918214941
 10
-11.1717179399
 20
-22.3953886342
 10
-11.1503918024
 20
-22.3979479162
 10
-11.1289388646
 20
-22.3994876122
 10
-11.1074078424
 20
-22.4
  0
LINE
  5
25B
100
AcDbEntity
  8
RACCORDO
100
AcDbLine
 62
7
  6
CONTINUOUS
 10
-11.3086670529
 20
-22.3525028251
 11
-11.3261653088
 21
-22.3437543634
  0
LINE
  5
25C
100
AcDbEntity
  8
RACCORDO
100
AcDbLine
 62
250
  6
CONTINUOUS
 10
-11.575
 20
-21.9411874598
 11
-11.5575791601
 21
-21.9498972163
  0
LINE
  5
25D
100
AcDbEntity
  8
RACCORDO
100
AcDbLine
 62
250
  6
CONTINUOUS
 10
-8.9249957692
 20
-24.5
 11
-8.9380943479
 21
-24.4869014213
  0
LWPOLYLINE
  5
25E
100
AcDbEntity
  8
RACCORDO
100
AcDbPolyline
 62
250
  6
CONTINUOUS
 90
16
 70
0
 10
-11.4076730391
 20
20.5419058565
 10
-11.4067090395
 20
20.5428735514
 10
-11.4046396881
 20
20.5438391026
 10
-11.4014695691
 20
20.544800371
 10
-11.3972057054
 20
20.5457552272
 10
-11.3918575427
 20
20.5467015558
 10
-11.3854369288
 20
20.5476372604
 10
-11.3779580875
 20
20.5485602682
 10
-11.3694375867
 20
20.5494685344
 10
-11.359894302
 20
20.5503600469
 10
-11.3493493747
 20
20.5512328307
 10
-11.3378261652
 20
20.5520849524
 10
-11.3253502009
 20
20.5529145241
 10
-11.31194912
 20
20.5537197083
 10
-11.29765261
 20
20.5544987211
 10
-11.2824923423
 20
20.5552498367
  0
LINE
  5
25F
100
AcDbEntity
  8
RACCORDO
100
AcDbLine
 62
250
  6
CONTINUOUS
 10
-8.675
 20
24.2500042308
 11
-8.6880985787
 21
24.2369056521
  0
LWPOLYLINE
  5
260
100
AcDbEntity
  8
RACCORDO
100
AcDbPolyline
 62
7
  6
CONTINUOUS
 90
23
 70
0
 10
-4.7212073137
 20
-23.7953389668
 10
-4.7104181903
 20
-23.7947915649
 10
-4.6993307281
 20
-23.793363895
 10
-4.6879449272
 20
-23.7911364879
 10
-4.6762361469
 20
-23.7881978965
 10
-4.664229028
 20
-23.7846238716
 10
-4.651997492
 20
-23.7804595132
 10
-4.6395487518
 20
-23.7757643703
 10
-4.6268755946
 20
-23.7706018097
 10
-4.6140303044
 20
-23.7649953104
 10
-4.6010171723
 20
-23.758990232
 10
-4.5878319072
 20
-23.7526365647
 10
-4.5745139203
 20
-23.7459460582
 10
-4.5610654333
 20
-23.7389542831
 10
-4.5474842244
 20
-23.7317013921
 10
-4.5338030396
 20
-23.724193673
 10
-4.5200229279
 20
-23.7164601879
 10
-4.5061428402
 20
-23.708533951
 10
-4.4921923756
 20
-23.7004191901
 10
-4.478171775
 20
-23.6921405291
 10
-4.4640807976
 20
-23.6837259593
 10
-4.4499483201
 20
-23.6751796798
 10
-4.4215581838
 20
-23.6577812011
  0
LINE
  5
261
100
AcDbEntity
  8
RACCORDO
100
AcDbLine
 62
250
  6
CONTINUOUS
 10
9.9619056521
 20
-23.6278312164
 11
8.0880943479
 21
-23.6278312164
  0
LINE
  5
262
100
AcDbEntity
  8
RACCORDO
100
AcDbLine
 62
250
  6
CONTINUOUS
 10
-8.9380943479
 20
-23.6278312164
 11
-10.8119056521
 21
-23.6278312164
  0
LINE
  5
263
100
AcDbEntity
  8
RACCORDO
100
AcDbLine
 62
250
  6
CONTINUOUS
 10
-4.3220826234
 20
-23.5953423515
 11
3.4720826234
 21
-23.5953423515
  0
LINE
  5
264
100
AcDbEntity
  8
RACCORDO
100
AcDbLine
 62
7
  6
CONTINUOUS
 10
9.9677234819
 20
-23.1226497308
 11
8.0822765181
 21
-23.1226497308
  0
LINE
  5
265
100
AcDbEntity
  8
RACCORDO
100
AcDbLine
 62
7
  6
CONTINUOUS
 10
-8.9322765181
 20
-23.1226497308
 11
-10.8177234819
 21
-23.1226497308
  0
LINE
  5
266
100
AcDbEntity
  8
RACCORDO
100
AcDbLine
 62
7
  6
CONTINUOUS
 10
-11.1074078424
 20
-22.4
 11
-11.075
 21
-22.4
  0
LINE
  5
267
100
AcDbEntity
  8
DRAFT
100
AcDbLine
 62
7
  6
CONTINUOUS
 10
-8.675
 20
-22.4
 11
-4.825
 21
-22.4
  0
LINE
  5
268
100
AcDbEntity
  8
DRAFT
100
AcDbLine
 62
7
  6
CONTINUOUS
 10
3.975
 20
-22.4
 11
7.825
 21
-22.4
  0
LINE
  5
269
100
AcDbEntity
  8
RACCORDO
100
AcDbLine
 62
7
  6
CONTINUOUS
 10
10.225
 20
-22.4
 11
10.2574078424
 21
-22.4
  0
LINE
  5
26A
100
AcDbEntity
  8
RACCORDO
100
AcDbLine
 62
7
  6
CONTINUOUS
 10
-4.3220826234
 20
-22.3475922207
 11
3.4720826234
 21
-22.3475922207
  0
LINE
  5
26B
100
AcDbEntity
  8
RACCORDO
100
AcDbLine
 62
7
  6
CONTINUOUS
 10
9.9677234819
 20
-22.3213883311
 11
8.0822765181
 21
-22.3213883311
  0
LINE
  5
26C
100
AcDbEntity
  8
RACCORDO
100
AcDbLine
 62
7
  6
CONTINUOUS
 10
-8.9322765181
 20
-22.3213883311
 11
-10.8177234819
 21
-22.3213883311
  0
LINE
  5
26D
100
AcDbEntity
  8
RACCORDO
100
AcDbLine
 62
250
  6
CONTINUOUS
 10
10.0742759622
 20
-21.998725222
 11
-10.9242759622
 21
-21.998725222
  0
LWPOLYLINE
  5
26E
100
AcDbEntity
  8
RACCORDO
100
AcDbPolyline
 62
7
  6
CONTINUOUS
 90
22
 70
0
 10
3.8712073137
 20
-23.7953389668
 10
3.8604181903
 20
-23.7947915649
 10
3.8493307281
 20
-23.793363895
 10
3.8379449272
 20
-23.7911364879
 10
3.8262361469
 20
-23.7881978965
 10
3.814229028
 20
-23.7846238716
 10
3.801997492
 20
-23.7804595132
 10
3.7895487518
 20
-23.7757643703
 10
3.7768755946
 20
-23.7706018097
 10
3.7640303044
 20
-23.7649953104
 10
3.7510171723
 20
-23.758990232
 10
3.7378319072
 20
-23.7526365647
 10
3.7245139203
 20
-23.7459460582
 10
3.7110654333
 20
-23.7389542831
 10
3.6974842244
 20
-23.7317013921
 10
3.6838030396
 20
-23.724193673
 10
3.6700229279
 20
-23.7164601879
 10
3.6561428402
 20
-23.708533951
 10
3.6421923756
 20
-23.7004191901
 10
3.628171775
 20
-23.6921405291
 10
3.6140807976
 20
-23.6837259593
 10
3.5999483201
 20
-23.6751796798
  0
LINE
  5
26F
100
AcDbEntity
  8
RACCORDO
100
AcDbLine
 62
250
  6
CONTINUOUS
 10
-8.675
 20
-24.2500042308
 11
-8.6880985787
 21
-24.2369056521
  0
LWPOLYLINE
  5
270
100
AcDbEntity
  8
RACCORDO
100
AcDbPolyline
 62
250
  6
CONTINUOUS
 90
17
 70
0
 10
-11.4076730391
 20
-20.5419058565
 10
-11.4067090395
 20
-20.5428735536
 10
-11.4046396881
 20
-20.5438391069
 10
-11.4014695691
 20
-20.5448003773
 10
-11.3972057054
 20
-20.5457552353
 10
-11.3918575427
 20
-20.5467015656
 10
-11.3854369289
 20
-20.5476372719
 10
-11.3779580876
 20
-20.5485602812
 10
-11.3694375868
 20
-20.5494685487
 10
-11.3598943021
 20
-20.5503600625
 10
-11.3493493748
 20
-20.5512328474
 10
-11.3378261652
 20
-20.55208497
 10
-11.3253502009
 20
-20.5529145426
 10
-11.31194912
 20
-20.5537197274
 10
-11.2976526101
 20
-20.5544987407
 10
-11.2824923423
 20
-20.5552498567
 10
-11.2497167115
 20
-20.5566618066
  0
LINE
  5
271
100
AcDbEntity
  8
RACCORDO
100
AcDbLine
 62
250
  6
CONTINUOUS
 10
10.432492336
 20
-20.5552498365
 11
10.3997167056
 21
-20.5566617861
  0
LINE
  5
272
100
AcDbEntity
  8
RACCORDO
100
AcDbLine
 62
250
  6
CONTINUOUS
 10
10.3997167056
 20
-20.5566617861
 11
10.3639124943
 21
-20.5579430521
  0
LINE
  5
273
100
AcDbEntity
  8
RACCORDO
100
AcDbLine
 62
250
  6
CONTINUOUS
 10
10.3639124943
 20
-20.5579430521
 11
10.3253967964
 21
-20.5590822873
  0
LINE
  5
274
100
AcDbEntity
  8
RACCORDO
100
AcDbLine
 62
250
  6
CONTINUOUS
 10
10.3253967964
 20
-20.5590822873
 11
10.28451072
 21
-20.5600694021
  0
LINE
  5
275
100
AcDbEntity
  8
RACCORDO
100
AcDbLine
 62
250
  6
CONTINUOUS
 10
10.28451072
 20
-20.5600694021
 11
10.2416163663
 21
-20.5608956544
  0
LINE
  5
276
100
AcDbEntity
  8
RACCORDO
100
AcDbLine
 62
250
  6
CONTINUOUS
 10
10.2416163663
 20
-20.5608956544
 11
10.1743443564
 21
-20.5618178141
  0
LINE
  5
277
100
AcDbEntity
  8
RACCORDO
100
AcDbLine
 62
250
  6
CONTINUOUS
 10
10.1743443564
 20
-20.5618178141
 11
10.1047511264
 21
-20.5623435591
  0
LINE
  5
278
100
AcDbEntity
  8
RACCORDO
100
AcDbLine
 62
250
  6
CONTINUOUS
 10
10.1047511264
 20
-20.5623435591
 11
-10.9077491915
 21
-20.5624683248
  0
LINE
  5
279
100
AcDbEntity
  8
RACCORDO
100
AcDbLine
 62
250
  6
CONTINUOUS
 10
-10.9781219113
 20
-20.5622131754
 11
-10.9077491915
 21
-20.5624683248
  0
LINE
  5
27A
100
AcDbEntity
  8
RACCORDO
100
AcDbLine
 62
250
  6
CONTINUOUS
 10
-11.0470936246
 20
-20.5615537391
 11
-10.9781219113
 21
-20.5622131754
  0
LINE
  5
27B
100
AcDbEntity
  8
RACCORDO
100
AcDbLine
 62
250
  6
CONTINUOUS
 10
-11.0916163696
 20
-20.5608956698
 11
-11.0470936246
 21
-20.5615537391
  0
LINE
  5
27C
100
AcDbEntity
  8
RACCORDO
100
AcDbLine
 62
250
  6
CONTINUOUS
 10
-11.1345107241
 20
-20.5600694198
 11
-11.0916163696
 21
-20.5608956698
  0
LINE
  5
27D
100
AcDbEntity
  8
RACCORDO
100
AcDbLine
 62
250
  6
CONTINUOUS
 10
-11.1753968012
 20
-20.5590823065
 11
-11.1345107241
 21
-20.5600694198
  0
LINE
  5
27E
100
AcDbEntity
  8
RACCORDO
100
AcDbLine
 62
250
  6
CONTINUOUS
 10
-11.2139124997
 20
-20.5579430723
 11
-11.1753968012
 21
-20.5590823065
  0
LINE
  5
27F
100
AcDbEntity
  8
RACCORDO
100
AcDbLine
 62
250
  6
CONTINUOUS
 10
-11.2497167115
 20
-20.5566618066
 11
-11.2139124997
 21
-20.5579430723
  0
LINE
  5
280
100
AcDbEntity
  8
RACCORDO
100
AcDbLine
 62
7
  6
CONTINUOUS
 10
3.5573307642
 20
23.6489589663
 11
3.5146087954
 21
23.6222016262
  0
LINE
  5
281
100
AcDbEntity
  8
RACCORDO
100
AcDbLine
 62
7
  6
CONTINUOUS
 10
3.5999483201
 20
-23.6751796798
 11
3.5715581838
 21
-23.6577812011
  0
LWPOLYLINE
  5
282
100
AcDbEntity
  8
RACCORDO
100
AcDbPolyline
 62
7
  6
CONTINUOUS
 90
3
 70
0
 10
3.5715581838
 20
-23.6577812011
 10
3.5288388153
 20
-23.6311538461
 10
3.5146087954
 20
-23.6222016262
  0
LINE
  5
283
100
AcDbEntity
  8
RACCORDO
100
AcDbLine
 62
7
  6
CONTINUOUS
 10
3.5146087954
 20
23.6222016262
 11
3.4720826234
 21
23.5953423515
  0
LINE
  5
284
100
AcDbEntity
  8
RACCORDO
100
AcDbLine
 62
7
  6
CONTINUOUS
 10
3.5146087954
 20
-23.6222016262
 11
3.4720826234
 21
-23.5953423515
  0
LINE
  5
285
100
AcDbEntity
  8
RACCORDO
100
AcDbLine
 62
7
  6
CONTINUOUS
 10
3.9720741618
 20
23.7970741618
 11
3.975
 21
23.8
  0
LINE
  5
286
100
AcDbEntity
  8
RACCORDO
100
AcDbLine
 62
7
  6
CONTINUOUS
 10
3.9720741618
 20
-23.7970741618
 11
3.975
 21
-23.8
  0
LWPOLYLINE
  5
287
100
AcDbEntity
  8
RACCORDO
100
AcDbPolyline
 62
250
  6
CONTINUOUS
 90
31
 70
0
 10
-11.0619014213
 20
-24.2369056521
 10
-11.0615583827
 20
-24.2499891381
 10
-11.0605310928
 20
-24.2630367647
 10
-11.0588223673
 20
-24.2760127708
 10
-11.0564368893
 20
-24.2888815916
 10
-11.0533811971
 20
-24.3016079562
 10
-11.0496636657
 20
-24.3141569839
 10
-11.0452944842
 20
-24.3264942801
 10
-11.0402856277
 20
-24.3385860308
 10
-11.0346508246
 20
-24.3503990946
 10
-11.0284055187
 20
-24.3619010942
 10
-11.0215668272
 20
-24.3730605047
 10
-11.0141534939
 20
-24.3838467403
 10
-11.0061858371
 20
-24.3942302379
 10
-10.9976856948
 20
-24.4041825384
 10
-10.9886763643
 20
-24.4136763643
 10
-10.9791825384
 20
-24.4226856948
 10
-10.9692302379
 20
-24.4311858371
 10
-10.9588467403
 20
-24.4391534939
 10
-10.9480605047
 20
-24.4465668272
 10
-10.9369010942
 20
-24.4534055187
 10
-10.9253990946
 20
-24.4596508246
 10
-10.9135860308
 20
-24.4652856277
 10
-10.9014942801
 20
-24.4702944842
 10
-10.8891569839
 20
-24.4746636657
 10
-10.8766079562
 20
-24.4783811971
 10
-10.8638815916
 20
-24.4814368893
 10
-10.8510127708
 20
-24.4838223673
 10
-10.8380367647
 20
-24.4855310928
 10
-10.8249891381
 20
-24.4865583827
 10
-10.8119056521
 20
-24.4869014213
  0
LINE
  5
288
100
AcDbEntity
  8
RACCORDO
100
AcDbLine
 62
250
  6
CONTINUOUS
 10
-11.4152978906
 20
21.3276961504
 11
-11.4163819377
 21
21.366678374
  0
LWPOLYLINE
  5
289
100
AcDbEntity
  8
RACCORDO
100
AcDbPolyline
 62
250
  6
CONTINUOUS
 90
34
 70
0
 10
-11.4241998097
 20
-21.4994104546
 10
-11.4236125093
 20
-21.523155013
 10
-11.4218953659
 20
-21.5468458448
 10
-11.4190522649
 20
-21.5704293452
 10
-11.4150896392
 20
-21.5938521519
 10
-11.4100164552
 20
-21.6170612665
 10
-11.4038441917
 20
-21.6400041741
 10
-11.3965868148
 20
-21.6626289618
 10
-11.3882607456
 20
-21.684884437
 10
-11.3788848234
 20
-21.7067202423
 10
-11.368480263
 20
-21.7280869702
 10
-11.3570706066
 20
-21.7489362744
 10
-11.3446816709
 20
-21.7692209794
 10
-11.3313414879
 20
-21.7888951873
 10
-11.3170802426
 20
-21.8079143815
 10
-11.3019302035
 20
-21.8262355274
 10
-11.2859256506
 20
-21.84381717
 10
-11.2691027971
 20
-21.8606195275
 10
-11.2514997079
 20
-21.8766045814
 10
-11.2331562133
 20
-21.8917361626
 10
-11.2141138189
 20
-21.9059800329
 10
-11.1944156118
 20
-21.9193039629
 10
-11.1741061628
 20
-21.9316778048
 10
-11.1532314259
 20
-21.9430735603
 10
-11.1318386341
 20
-21.9534654444
 10
-11.1099761927
 20
-21.9628299436
 10
-11.0876935695
 20
-21.9711458689
 10
-11.0650411832
 20
-21.9783944039
 10
-11.0420702891
 20
-21.9845591474
 10
-11.0188328631
 20
-21.9896261507
 10
-10.9953814843
 20
-21.9935839485
 10
-10.9717692159
 20
-21.9964235857
 10
-10.9480494851
 20
-21.9981386371
 10
-10.9242759622
 20
-21.998725222
  0
LWPOLYLINE
  5
28A
100
AcDbEntity
  8
RACCORDO
100
AcDbPolyline
 62
7
  6
CONTINUOUS
 90
25
 70
0
 10
-11.5575791601
 20
-21.9498972163
 10
-11.5570612314
 20
-21.9713165473
 10
-11.5555252356
 20
-21.9926852973
 10
-11.5529749158
 20
-22.0139550902
 10
-11.5494163213
 20
-22.0350776194
 10
-11.5448577787
 20
-22.0560052934
 10
-11.539309781
 20
-22.0766913245
 10
-11.5327850621
 20
-22.0970889558
 10
-11.5252985625
 20
-22.1171520863
 10
-11.5168672342
 20
-22.1368358669
 10
-11.5075102495
 20
-22.1560958185
 10
-11.4972488725
 20
-22.1748884228
 10
-11.4861061822
 20
-22.1931716566
 10
-11.4741074082
 20
-22.2109041931
 10
-11.4612797173
 20
-22.2280459472
 10
-11.447651865
 20
-22.2445585462
 10
-11.4332546429
 20
-22.260404626
 10
-11.4181205858
 20
-22.2755483249
 10
-11.4022835622
 20
-22.2899556817
 10
-11.3857793221
 20
-22.3035940319
 10
-11.3686451305
 20
-22.3164324452
 10
-11.3509193032
 20
-22.328442049
 10
-11.3326418492
 20
-22.3395955256
 10
-11.3138540328
 20
-22.3498674897
 10
-11.3086670517
 20
-22.3525028256
  0
LWPOLYLINE
  5
28B
100
AcDbEntity
  8
RACCORDO
100
AcDbPolyline
 62
7
  6
CONTINUOUS
 90
34
 70
0
 10
-11.075
 20
-24.2500042308
 10
-11.0747168498
 20
-24.261899516
 10
-11.0738680342
 20
-24.2737678556
 10
-11.0724554741
 20
-24.2855823661
 10
-11.0704823677
 20
-24.2973162875
 10
-11.0679531817
 20
-24.3089430388
 10
-11.0648736417
 20
-24.320436279
 10
-11.0612507213
 20
-24.3317699738
 10
-11.0570926258
 20
-24.3429184493
 10
-11.0524087722
 20
-24.3538564463
 10
-11.0472097688
 20
-24.3645591876
 10
-11.0415073916
 20
-24.3750024283
 10
-11.0353145581
 20
-24.3851625059
 10
-11.0286452955
 20
-24.3950164051
 10
-11.0215147107
 20
-24.4045418038
 10
-11.0139389589
 20
-24.4137171191
 10
-11.0059352005
 20
-24.4225215661
 10
-10.9975215661
 20
-24.4309352005
 10
-10.9887171191
 20
-24.4389389589
 10
-10.9795418038
 20
-24.4465147107
 10
-10.9700164051
 20
-24.4536452955
 10
-10.9601625059
 20
-24.4603145581
 10
-10.9500024283
 20
-24.4665073916
 10
-10.9395591876
 20
-24.4722097688
 10
-10.9288564463
 20
-24.4774087722
 10
-10.9179184493
 20
-24.4820926258
 10
-10.9067699738
 20
-24.4862507213
 10
-10.895436279
 20
-24.4898736417
 10
-10.8839430388
 20
-24.4929531817
 10
-10.8723162875
 20
-24.4954823677
 10
-10.8605823661
 20
-24.4974554741
 10
-10.8487678556
 20
-24.4988680342
 10
-10.836899516
 20
-24.4997168498
 10
-10.8250042308
 20
-24.5
  0
LINE
  5
28C
100
AcDbEntity
  8
RACCORDO
100
AcDbLine
 62
250
  6
CONTINUOUS
 10
-11.4139824494
 20
21.2710755355
 11
-11.4152978906
 21
21.3276961504
  0
LINE
  5
28D
100
AcDbEntity
  8
RACCORDO
100
AcDbLine
 62
250
  6
CONTINUOUS
 10
-11.4123842808
 20
21.1850312741
 11
-11.4139824494
 21
21.2710755355
  0
LINE
  5
28E
100
AcDbEntity
  8
RACCORDO
100
AcDbLine
 62
250
  6
CONTINUOUS
 10
-11.4106718347
 20
21.0624630013
 11
-11.4123842808
 21
21.1850312741
  0
LINE
  5
28F
100
AcDbEntity
  8
RACCORDO
100
AcDbLine
 62
250
  6
CONTINUOUS
 10
-11.0619014213
 20
-23.8443375673
 11
-11.0677192511
 21
-23.2669872981
  0
LINE
  5
290
100
AcDbEntity
  8
RACCORDO
100
AcDbLine
 62
250
  6
CONTINUOUS
 10
-10.8119056521
 20
-23.6278312164
 11
-10.8169962532
 21
-23.1226497308
  0
LINE
  5
291
100
AcDbEntity
  8
RACCORDO
100
AcDbLine
 62
250
  6
CONTINUOUS
 10
-11.4090182193
 20
20.8877594797
 11
-11.4106718347
 21
21.0624630013
  0
LINE
  5
292
100
AcDbEntity
  8
RACCORDO
100
AcDbLine
 62
250
  6
CONTINUOUS
 10
-11.4079007028
 20
20.6668675455
 11
-11.4090182193
 21
20.8877594797
  0
LINE
  5
293
100
AcDbEntity
  8
RACCORDO
100
AcDbLine
 62
250
  6
CONTINUOUS
 10
-10.907976854
 20
20.7499101646
 11
-10.9098890303
 21
21.222711763
  0
LWPOLYLINE
  5
294
100
AcDbEntity
  8
RACCORDO
100
AcDbPolyline
 62
250
  6
CONTINUOUS
 90
3
 70
0
 10
-11.4052349205
 20
16.8085808815
 10
-11.4059934708
 20
18.053137639
 10
-11.4079007028
 20
20.6668675455
  0
LINE
  5
295
100
AcDbEntity
  8
RACCORDO
100
AcDbLine
 62
250
  6
CONTINUOUS
 10
-10.9064692076
 20
18.6940680115
 11
-10.907976854
 21
20.7499101646
  0
LINE
  5
296
100
AcDbEntity
  8
RACCORDO
100
AcDbLine
 62
250
  6
CONTINUOUS
 10
-10.9053110729
 20
16.825406288
 11
-10.9064692076
 21
18.6940680115
  0
LINE
  5
297
100
AcDbEntity
  8
RACCORDO
100
AcDbLine
 62
250
  6
CONTINUOUS
 10
-11.4027423864
 20
11.8293875537
 11
-11.4052349205
 21
16.8085808815
  0
LINE
  5
298
100
AcDbEntity
  8
RACCORDO
100
AcDbLine
 62
250
  6
CONTINUOUS
 10
-10.9028185389
 20
11.8412291058
 11
-10.9053110729
 21
16.825406288
  0
LINE
  5
299
100
AcDbEntity
  8
RACCORDO
100
AcDbLine
 62
250
  6
CONTINUOUS
 10
-11.4011166932
 20
6.8490189494
 11
-11.4027423864
 21
11.8293875537
  0
LINE
  5
29A
100
AcDbEntity
  8
RACCORDO
100
AcDbLine
 62
250
  6
CONTINUOUS
 10
-10.9011928456
 20
6.8558745023
 11
-10.9028185389
 21
11.8412291058
  0
LINE
  5
29B
100
AcDbEntity
  8
ASSI
100
AcDbLine
 62
7
  6
CONTINUOUS
 10
-11.575
 20
-17.6716990487
 11
-11.575
 21
17.6716990487
  0
LINE
  5
29C
100
AcDbEntity
  8
RACCORDO
100
AcDbLine
 62
7
  6
CONTINUOUS
 10
-11.575
 20
-21.9411874598
 11
-11.575
 21
21.9411874598
  0
LINE
  5
29D
100
AcDbEntity
  8
RACCORDO
100
AcDbLine
 62
250
  6
CONTINUOUS
 10
-11.4004054204
 20
2.4906196208
 11
-11.4011166932
 21
6.8490189494
  0
LINE
  5
29E
100
AcDbEntity
  8
RACCORDO
100
AcDbLine
 62
7
  6
CONTINUOUS
 10
-11.075
 20
-22.4
 11
-11.075
 21
-24.2500042308
  0
LINE
  5
29F
100
AcDbEntity
  8
RACCORDO
100
AcDbLine
 62
7
  6
CONTINUOUS
 10
-11.075
 20
22.4
 11
-11.075
 21
24.2500042308
  0
LINE
  5
2A0
100
AcDbEntity
  8
RACCORDO
100
AcDbLine
 62
250
  6
CONTINUOUS
 10
-11.0677192511
 20
-23.2669872981
 11
-11.0677192511
 21
-22.3344140523
  0
LINE
  5
2A1
100
AcDbEntity
  8
RACCORDO
100
AcDbLine
 62
250
  6
CONTINUOUS
 10
-11.0677192511
 20
22.3344140523
 11
-11.0677192511
 21
23.2669872981
  0
LINE
  5
2A2
100
AcDbEntity
  8
RACCORDO
100
AcDbLine
 62
250
  6
CONTINUOUS
 10
-11.0619014213
 20
24.2369056521
 11
-11.0619014213
 21
23.8443375673
  0
LINE
  5
2A3
100
AcDbEntity
  8
RACCORDO
100
AcDbLine
 62
250
  6
CONTINUOUS
 10
-11.0619014213
 20
-23.8443375673
 11
-11.0619014213
 21
-24.2369056521
  0
LINE
  5
2A4
100
AcDbEntity
  8
RACCORDO
100
AcDbLine
 62
250
  6
CONTINUOUS
 10
-10.9004815728
 20
2.4931130575
 11
-10.9011928456
 21
6.8558745023
  0
LINE
  5
2A5
100
AcDbEntity
  8
RACCORDO
100
AcDbLine
 62
250
  6
CONTINUOUS
 10
-10.8177234819
 20
-23.1226497308
 11
-10.8177234819
 21
-22.3213883311
  0
LINE
  5
2A6
100
AcDbEntity
  8
RACCORDO
100
AcDbLine
 62
250
  6
CONTINUOUS
 10
-10.8177234819
 20
22.3213883311
 11
-10.8177234819
 21
23.1226497308
  0
LINE
  5
2A7
100
AcDbEntity
  8
RACCORDO
100
AcDbLine
 62
250
  6
CONTINUOUS
 10
-10.8119056521
 20
-23.6278312164
 11
-10.8119056521
 21
-24.4869014213
  0
LINE
  5
2A8
100
AcDbEntity
  8
RACCORDO
100
AcDbLine
 62
250
  6
CONTINUOUS
 10
-10.8119056521
 20
23.6278312164
 11
-10.8119056521
 21
24.4869014213
  0
LINE
  5
2A9
100
AcDbEntity
  8
RACCORDO
100
AcDbLine
 62
250
  6
CONTINUOUS
 10
-11.4014418398
 20
-8.0941938134
 11
-11.4004054204
 21
2.4906196208
  0
LINE
  5
2AA
100
AcDbEntity
  8
RACCORDO
100
AcDbLine
 62
250
  6
CONTINUOUS
 10
-10.9015179922
 20
-8.1022964306
 11
-10.9004815728
 21
2.4931130575
  0
LINE
  5
2AB
100
AcDbEntity
  8
RACCORDO
100
AcDbLine
 62
250
  6
CONTINUOUS
 10
-11.4048759562
 20
-16.1862633315
 11
-11.4014418398
 21
-8.0941938134
  0
LINE
  5
2AC
100
AcDbEntity
  8
RACCORDO
100
AcDbLine
 62
250
  6
CONTINUOUS
 10
-10.9049521087
 20
-16.2024654725
 11
-10.9015179922
 21
-8.1022964306
  0
LINE
  5
2AD
100
AcDbEntity
  8
RACCORDO
100
AcDbLine
 62
250
  6
CONTINUOUS
 10
-10.9077812325
 20
-20.6105582788
 11
-10.9049521087
 21
-16.2024654725
  0
LINE
  5
2AE
100
AcDbEntity
  8
RACCORDO
100
AcDbLine
 62
250
  6
CONTINUOUS
 10
-10.9078518698
 20
-20.6744938139
 11
-10.9077812325
 21
-20.6105582788
  0
LINE
  5
2AF
100
AcDbEntity
  8
RACCORDO
100
AcDbLine
 62
250
  6
CONTINUOUS
 10
-10.9079542925
 20
-20.7381110425
 11
-10.9078518698
 21
-20.6744938139
  0
LINE
  5
2B0
100
AcDbEntity
  8
RACCORDO
100
AcDbLine
 62
250
  6
CONTINUOUS
 10
-10.9080518548
 20
-20.7855447938
 11
-10.9079542925
 21
-20.7381110425
  0
LINE
  5
2B1
100
AcDbEntity
  8
RACCORDO
100
AcDbLine
 62
250
  6
CONTINUOUS
 10
-10.9082094065
 20
-20.848324453
 11
-10.9080518548
 21
-20.7855447938
  0
LINE
  5
2B2
100
AcDbEntity
  8
RACCORDO
100
AcDbLine
 62
250
  6
CONTINUOUS
 10
-10.9084500843
 20
-20.9258898579
 11
-10.9082094065
 21
-20.848324453
  0
LINE
  5
2B3
100
AcDbEntity
  8
RACCORDO
100
AcDbLine
 62
250
  6
CONTINUOUS
 10
-10.90867718
 20
-20.9870764043
 11
-10.9084500843
 21
-20.9258898579
  0
LINE
  5
2B4
100
AcDbEntity
  8
RACCORDO
100
AcDbLine
 62
250
  6
CONTINUOUS
 10
-11.4083219352
 20
-20.7739050518
 11
-11.4048759562
 21
-16.1862633315
  0
LINE
  5
2B5
100
AcDbEntity
  8
RACCORDO
100
AcDbLine
 62
250
  6
CONTINUOUS
 10
-10.9090744393
 20
-21.0771503623
 11
-10.90867718
 21
-20.9870764043
  0
LINE
  5
2B6
100
AcDbEntity
  8
RACCORDO
100
AcDbLine
 62
250
  6
CONTINUOUS
 10
-10.9096217696
 20
-21.1792070549
 11
-10.9090744393
 21
-21.0771503623
  0
LINE
  5
2B7
100
AcDbEntity
  8
RACCORDO
100
AcDbLine
 62
250
  6
CONTINUOUS
 10
-10.909883285
 20
-21.2218128808
 11
-10.9096217696
 21
-21.1792070549
  0
LINE
  5
2B8
100
AcDbEntity
  8
RACCORDO
100
AcDbLine
 62
250
  6
CONTINUOUS
 10
-11.4097182027
 20
-20.9720552784
 11
-11.4083219352
 21
-20.7739050518
  0
LINE
  5
2B9
100
AcDbEntity
  8
RACCORDO
100
AcDbLine
 62
250
  6
CONTINUOUS
 10
-11.0677192511
 20
23.2669872981
 11
-11.0619014213
 21
23.8443375673
  0
LINE
  5
2BA
100
AcDbEntity
  8
RACCORDO
100
AcDbLine
 62
250
  6
CONTINUOUS
 10
-10.8169962532
 20
23.1226497308
 11
-10.8119056521
 21
23.6278312164
  0
LINE
  5
2BB
100
AcDbEntity
  8
RACCORDO
100
AcDbLine
 62
250
  6
CONTINUOUS
 10
-11.4114612038
 20
-21.1238959209
 11
-11.4097182027
 21
-20.9720552784
  0
LINE
  5
2BC
100
AcDbEntity
  8
RACCORDO
100
AcDbLine
 62
250
  6
CONTINUOUS
 10
-11.413101944
 20
-21.2263661979
 11
-11.4114612038
 21
-21.1238959209
  0
LINE
  5
2BD
100
AcDbEntity
  8
RACCORDO
100
AcDbLine
 62
250
  6
CONTINUOUS
 10
-11.4145239333
 20
-21.2957373089
 11
-11.413101944
 21
-21.2263661979
  0
LWPOLYLINE
  5
2BE
100
AcDbEntity
  8
RACCORDO
100
AcDbPolyline
 62
7
  6
CONTINUOUS
 90
25
 70
0
 10
-11.5575805668
 20
21.949896513
 10
-11.5570626101
 20
21.9713158792
 10
-11.5555265756
 20
21.9926846521
 10
-11.552976209
 20
22.0139544561
 10
-11.5494175589
 20
22.0350769789
 10
-11.5448589582
 20
22.0560046356
 10
-11.5393109093
 20
22.076690656
 10
-11.5327861473
 20
22.0970882896
 10
-11.5252996084
 20
22.1171514287
 10
-11.5168682432
 20
22.1368352214
 10
-11.5075112231
 20
22.1560951882
 10
-11.4972498122
 20
22.1748878112
 10
-11.4861070889
 20
22.1931710662
 10
-11.4741082822
 20
22.2109036264
 10
-11.4612805589
 20
22.2280454064
 10
-11.447652674
 20
22.2445580329
 10
-11.433255419
 20
22.2604041417
 10
-11.4181213285
 20
22.2755478708
 10
-11.4022842706
 20
22.2899552587
 10
-11.3857799955
 20
22.3035936405
 10
-11.3686457679
 20
22.3164320858
 10
-11.3509199034
 20
22.3284417216
 10
-11.3326424111
 20
22.3395952301
 10
-11.3138545551
 20
22.3498672256
 10
-11.308667383
 20
22.35250266
  0
LWPOLYLINE
  5
2BF
100
AcDbEntity
  8
RACCORDO
100
AcDbPolyline
 62
250
  6
CONTINUOUS
 90
34
 70
0
 10
-11.4241998097
 20
21.4994104546
 10
-11.4236125093
 20
21.523155013
 10
-11.4218953658
 20
21.5468458449
 10
-11.4190522647
 20
21.5704293453
 10
-11.415089639
 20
21.593852152
 10
-11.4100164548
 20
21.6170612667
 10
-11.4038441913
 20
21.6400041742
 10
-11.3965868143
 20
21.6626289619
 10
-11.388260745
 20
21.684884437
 10
-11.3788848227
 20
21.7067202423
 10
-11.3684802623
 20
21.7280869701
 10
-11.3570706059
 20
21.7489362743
 10
-11.34468167
 20
21.7692209792
 10
-11.3313414871
 20
21.7888951871
 10
-11.3170802417
 20
21.8079143811
 10
-11.3019302026
 20
21.826235527
 10
-11.2859256497
 20
21.8438171695
 10
-11.2691027962
 20
21.8606195269
 10
-11.251499707
 20
21.8766045808
 10
-11.2331562124
 20
21.8917361619
 10
-11.2141138181
 20
21.9059800322
 10
-11.194415611
 20
21.9193039622
 10
-11.1741061621
 20
21.931677804
 10
-11.1532314252
 20
21.9430735596
 10
-11.1318386335
 20
21.9534654437
 10
-11.1099761922
 20
21.9628299429
 10
-11.0876935691
 20
21.9711458682
 10
-11.0650411829
 20
21.9783944033
 10
-11.0420702888
 20
21.9845591469
 10
-11.0188328629
 20
21.9896261502
 10
-10.9953814842
 20
21.9935839482
 10
-10.9717692158
 20
21.9964235855
 10
-10.948049485
 20
21.998138637
 10
-10.9242759622
 20
21.998725222
  0
LINE
  5
2C0
100
AcDbEntity
  8
RACCORDO
100
AcDbLine
 62
250
  6
CONTINUOUS
 10
-11.4157496679
 20
-21.3447166728
 11
-11.4145239333
 21
-21.2957373089
  0
LINE
  5
2C1
100
AcDbEntity
  8
RACCORDO
100
AcDbLine
 62
250
  6
CONTINUOUS
 10
-11.4162275128
 20
-21.3615069037
 11
-11.4157496679
 21
-21.3447166728
  0
LINE
  5
2C2
100
AcDbEntity
  8
RACCORDO
100
AcDbLine
 62
7
  6
CONTINUOUS
 10
-8.675
 20
22.4
 11
-8.6822807489
 21
22.3344140523
  0
LINE
  5
2C3
100
AcDbEntity
  8
RACCORDO
100
AcDbLine
 62
7
  6
CONTINUOUS
 10
-8.675
 20
-22.4
 11
-8.6822807489
 21
-22.3344140523
  0
LWPOLYLINE
  5
2C4
100
AcDbEntity
  8
RACCORDO
100
AcDbPolyline
 62
250
  6
CONTINUOUS
 90
15
 70
0
 10
-11.4216618264
 20
21.4810360255
 10
-11.421841304
 20
21.4830541574
 10
-11.422021121
 20
21.4849642525
 10
-11.4222012777
 20
21.486766275
 10
-11.4223817739
 20
21.4884602607
 10
-11.4225625502
 20
21.4900456515
 10
-11.4227436067
 20
21.4915224119
 10
-11.4229249432
 20
21.4928905774
 10
-11.4231065001
 20
21.4941496965
 10
-11.4232882773
 20
21.4952997331
 10
-11.4234702749
 20
21.4963407233
 10
-11.4236524329
 20
21.4972723249
 10
-11.4238347314
 20
21.4980944235
 10
-11.4240171904
 20
21.4988071334
 10
-11.4241998097
 20
21.4994104546
  0
LINE
  5
2C5
100
AcDbEntity
  8
RACCORDO
100
AcDbLine
 62
250
  6
CONTINUOUS
 10
-11.4213040675
 20
21.4766776136
 11
-11.4216618264
 21
21.4810360255
  0
LINE
  5
2C6
100
AcDbEntity
  8
RACCORDO
100
AcDbLine
 62
250
  6
CONTINUOUS
 10
-11.4209479621
 20
21.4718904538
 11
-11.4213040675
 21
21.4766776136
  0
LWPOLYLINE
  5
2C7
100
AcDbEntity
  8
RACCORDO
100
AcDbPolyline
 62
250
  6
CONTINUOUS
 90
12
 70
0
 10
-10.9222774352
 20
21.979759157
 10
-10.922457931
 20
21.9822999397
 10
-10.9226387069
 20
21.9846780795
 10
-10.9228197632
 20
21.9868933151
 10
-10.9230010996
 20
21.9889454033
 10
-10.9231826562
 20
21.9908341186
 10
-10.9233644326
 20
21.9925592535
 10
-10.923546429
 20
21.9941206186
 10
-10.9237285862
 20
21.9955180425
 10
-10.9239108842
 20
21.9967513716
 10
-10.9240933428
 20
21.9978204706
 10
-10.9242759622
 20
21.998725222
  0
LINE
  5
2C8
100
AcDbEntity
  8
RACCORDO
100
AcDbLine
 62
250
  6
CONTINUOUS
 10
-11.4205936866
 20
21.4666768251
 11
-11.4209479621
 21
21.4718904538
  0
LINE
  5
2C9
100
AcDbEntity
  8
RACCORDO
100
AcDbLine
 62
250
  6
CONTINUOUS
 10
-10.9219174622
 20
21.9741907979
 11
-10.9222774352
 21
21.979759157
  0
LINE
  5
2CA
100
AcDbEntity
  8
RACCORDO
100
AcDbLine
 62
250
  6
CONTINUOUS
 10
-11.4202414151
 20
21.4610393872
 11
-11.4205936866
 21
21.4666768251
  0
LINE
  5
2CB
100
AcDbEntity
  8
RACCORDO
100
AcDbLine
 62
250
  6
CONTINUOUS
 10
-10.9215589062
 20
21.9679754497
 11
-10.9219174622
 21
21.9741907979
  0
LINE
  5
2CC
100
AcDbEntity
  8
RACCORDO
100
AcDbLine
 62
250
  6
CONTINUOUS
 10
-11.4197170481
 20
21.45179315
 11
-11.4202414151
 21
21.4610393872
  0
LINE
  5
2CD
100
AcDbEntity
  8
RACCORDO
100
AcDbLine
 62
250
  6
CONTINUOUS
 10
-10.9212019452
 20
21.9611158465
 11
-10.9215589062
 21
21.9679754497
  0
LINE
  5
2CE
100
AcDbEntity
  8
RACCORDO
100
AcDbLine
 62
250
  6
CONTINUOUS
 10
-11.4191980129
 20
21.4416073686
 11
-11.4197170481
 21
21.45179315
  0
LWPOLYLINE
  5
2CF
100
AcDbEntity
  8
RACCORDO
100
AcDbPolyline
 62
7
  6
CONTINUOUS
 90
34
 70
0
 10
-8.6822807489
 20
-23.2669872981
 10
-8.6825784753
 20
-23.260745719
 10
-8.6833497267
 20
-23.254472608
 10
-8.6846000894
 20
-23.2481861919
 10
-8.6863341367
 20
-23.2419121598
 10
-8.6885555794
 20
-23.2356626215
 10
-8.6912675994
 20
-23.2294361375
 10
-8.6944720963
 20
-23.2232532001
 10
-8.6981700208
 20
-23.2171335699
 10
-8.7023622718
 20
-23.2110754134
 10
-8.707047756
 20
-23.2051002367
 10
-8.7122243979
 20
-23.199228829
 10
-8.7178907687
 20
-23.1934590071
 10
-8.7240425526
 20
-23.1878130261
 10
-8.730674335
 20
-23.182312533
 10
-8.7377821378
 20
-23.1769551973
 10
-8.7453581333
 20
-23.171763745
 10
-8.7533932153
 20
-23.1667604362
 10
-8.7618804409
 20
-23.1619430222
 10
-8.7708081504
 20
-23.1573343288
 10
-8.7801631291
 20
-23.1529569199
 10
-8.7899348037
 20
-23.148808872
 10
-8.8001073149
 20
-23.1449126131
 10
-8.810662902
 20
-23.1412905703
 10
-8.8215865028
 20
-23.137941334
 10
-8.8328575603
 20
-23.1348863009
 10
-8.8444534848
 20
-23.1321470947
 10
-8.8563541826
 20
-23.1297228132
 10
-8.8685210103
 20
-23.1276360125
 10
-8.8809390652
 20
-23.1259025536
 10
-8.8936230593
 20
-23.1245164325
 10
-8.9065577699
 20
-23.1234933505
 10
-8.9196962714
 20
-23.1228641607
 10
-8.9330037468
 20
-23.1226497308
  0
LWPOLYLINE
  5
2D0
100
AcDbEntity
  8
RACCORDO
100
AcDbPolyline
 62
7
  6
CONTINUOUS
 90
34
 70
0
 10
-11.0677192511
 20
23.2669872981
 10
-11.0674198287
 20
23.2606934229
 10
-11.0666441239
 20
23.2544088409
 10
-11.0653873851
 20
23.2481335519
 10
-11.0636460224
 20
23.2418552807
 10
-11.0614170759
 20
23.2355863026
 10
-11.058697709
 20
23.2293634437
 10
-11.0554867318
 20
23.2231861587
 10
-11.0517838816
 20
23.2170549928
 10
-11.0475882567
 20
23.2110084085
 10
-11.0429014786
 20
23.205045942
 10
-11.0377261214
 20
23.199168057
 10
-11.0320632404
 20
23.1934146064
 10
-11.0259174965
 20
23.1877851844
 10
-11.0192945874
 20
23.1822801967
 10
-11.0121976951
 20
23.1769407141
 10
-11.0046347916
 20
23.1717664006
 10
-10.9966150594
 20
23.1667575922
 10
-10.9881442164
 20
23.1619563668
 10
-10.979233882
 20
23.1573625195
 10
-10.969897167
 20
23.1529762552
 10
-10.9601430254
 20
23.1488402671
 10
-10.9499871321
 20
23.1449546011
 10
-10.9394470274
 20
23.1413192112
 10
-10.9285358548
 20
23.1379766523
 10
-10.9172738698
 20
23.1349274029
 10
-10.9056834708
 20
23.1321709844
 10
-10.8937828486
 20
23.1297485157
 10
-10.881584335
 20
23.1276610792
 10
-10.8691281847
 20
23.1259075925
 10
-10.8564781276
 20
23.1245259271
 10
-10.8436775292
 20
23.123528707
 10
-10.830747957
 20
23.1229033082
 10
-10.8177234819
 20
23.1226497308
  0
LINE
  5
2D1
100
AcDbEntity
  8
RACCORDO
100
AcDbLine
 62
250
  6
CONTINUOUS
 10
-10.9206698462
 20
21.9496251343
 11
-10.9212019452
 21
21.9611158465
  0
LINE
  5
2D2
100
AcDbEntity
  8
RACCORDO
100
AcDbLine
 62
250
  6
CONTINUOUS
 10
-11.4185151334
 20
21.4265820664
 11
-11.4191980129
 21
21.4416073686
  0
LINE
  5
2D3
100
AcDbEntity
  8
RACCORDO
100
AcDbLine
 62
250
  6
CONTINUOUS
 10
-10.9201422127
 20
21.9367030415
 11
-10.9206698462
 21
21.9496251343
  0
LINE
  5
2D4
100
AcDbEntity
  8
RACCORDO
100
AcDbLine
 62
250
  6
CONTINUOUS
 10
-11.4178438629
 20
21.4099313367
 11
-11.4185151334
 21
21.4265820664
  0
LINE
  5
2D5
100
AcDbEntity
  8
RACCORDO
100
AcDbLine
 62
250
  6
CONTINUOUS
 10
-10.9194465541
 20
21.9172692585
 11
-10.9201422127
 21
21.9367030415
  0
LINE
  5
2D6
100
AcDbEntity
  8
RACCORDO
100
AcDbLine
 62
250
  6
CONTINUOUS
 10
-11.4170228549
 20
21.3868760265
 11
-11.4178438629
 21
21.4099313367
  0
LWPOLYLINE
  5
2D7
100
AcDbEntity
  8
RACCORDO
100
AcDbPolyline
 62
250
  6
CONTINUOUS
 90
31
 70
0
 10
-11.0619014213
 20
23.8443375673
 10
-11.0615228657
 20
23.833039595
 10
-11.0604637381
 20
23.821769291
 10
-11.0587263616
 20
23.8105574212
 10
-11.0563146602
 20
23.7994336121
 10
-11.0532347899
 20
23.78842936
 10
-11.0494957389
 20
23.7775778202
 10
-11.0451081945
 20
23.7669096972
 10
-11.0400837955
 20
23.7564530239
 10
-11.0344361149
 20
23.746236105
 10
-11.0281804223
 20
23.7362866999
 10
-11.0213338477
 20
23.7266321754
 10
-11.0139152395
 20
23.7172991519
 10
-11.0059449354
 20
23.7083132018
 10
-10.9974446406
 20
23.6996987826
 10
-10.9884375501
 20
23.6914794042
 10
-10.9789482465
 20
23.6836775075
 10
-10.9690026594
 20
23.6763144193
 10
-10.9586279765
 20
23.6694102704
 10
-10.9478525441
 20
23.6629839239
 10
-10.9367057861
 20
23.6570529269
 10
-10.925218149
 20
23.6516334796
 10
-10.9134209923
 20
23.6467403776
 10
-10.9013465559
 20
23.6423869945
 10
-10.8890278763
 20
23.6385852371
 10
-10.8764986409
 20
23.6353454907
 10
-10.8637930381
 20
23.6326765842
 10
-10.8509457173
 20
23.6305857918
 10
-10.83799175
 20
23.6290788219
 10
-10.8249665362
 20
23.6281597935
 10
-10.8119056521
 20
23.6278312164
  0
LWPOLYLINE
  5
2D8
100
AcDbEntity
  8
RACCORDO
100
AcDbPolyline
 62
250
  6
CONTINUOUS
 90
31
 70
0
 10
-8.6880985787
 20
-23.8443375673
 10
-8.6884779104
 20
-23.8330274168
 10
-8.6895388924
 20
-23.8217481519
 10
-8.6912786273
 20
-23.810530574
 10
-8.6936923642
 20
-23.7994053159
 10
-8.6967735118
 20
-23.7884027584
 10
-8.700513656
 20
-23.7775529472
 10
-8.7049025834
 20
-23.7668855107
 10
-8.7099283087
 20
-23.7564295797
 10
-8.7155771077
 20
-23.7462137069
 10
-8.7218335547
 20
-23.7362657898
 10
-8.7286805646
 20
-23.7266129942
 10
-8.7360994397
 20
-23.7172816797
 10
-8.7440699206
 20
-23.7082973282
 10
-8.7525702417
 20
-23.6996844742
 10
-8.7615771902
 20
-23.6914666374
 10
-8.7710661701
 20
-23.6836662592
 10
-8.781011269
 20
-23.6763046407
 10
-8.7913853289
 20
-23.6694018849
 10
-8.8021600204
 20
-23.6629768418
 10
-8.8133059201
 20
-23.6570470569
 10
-8.8247925909
 20
-23.6516287232
 10
-8.8365886651
 20
-23.646736637
 10
-8.84866193
 20
-23.6423841576
 10
-8.8609794162
 20
-23.6385831707
 10
-8.873507487
 20
-23.6353440559
 10
-8.8862119311
 20
-23.6326756587
 10
-8.8990580552
 20
-23.6305852658
 10
-8.9120107793
 20
-23.6290785857
 10
-8.9250347321
 20
-23.6281597328
 10
-8.9380943479
 20
-23.6278312164
  0
LINE
  5
2D9
100
AcDbEntity
  8
RACCORDO
100
AcDbLine
 62
250
  6
CONTINUOUS
 10
-11.4163819377
 20
21.366678374
 11
-11.4170228549
 21
21.3868760265
  0
LINE
  5
2DA
100
AcDbEntity
  8
RACCORDO
100
AcDbLine
 62
250
  6
CONTINUOUS
 10
-10.9185912933
 20
21.8894831717
 11
-10.9194465541
 21
21.9172692585
  0
LINE
  5
2DB
100
AcDbEntity
  8
RACCORDO
100
AcDbLine
 62
250
  6
CONTINUOUS
 10
-10.9174248813
 20
21.8442004157
 11
-10.9185912933
 21
21.8894831717
  0
LINE
  5
2DC
100
AcDbEntity
  8
RACCORDO
100
AcDbLine
 62
250
  6
CONTINUOUS
 10
-10.9159874059
 20
21.7754048656
 11
-10.9174248813
 21
21.8442004157
  0
LINE
  5
2DD
100
AcDbEntity
  8
RACCORDO
100
AcDbLine
 62
250
  6
CONTINUOUS
 10
-10.9140586036
 20
21.6562226436
 11
-10.9159874059
 21
21.7754048656
  0
LINE
  5
2DE
100
AcDbEntity
  8
RACCORDO
100
AcDbLine
 62
250
  6
CONTINUOUS
 10
-10.9117352516
 20
21.4564093314
 11
-10.9140586036
 21
21.6562226436
  0
LINE
  5
2DF
100
AcDbEntity
  8
RACCORDO
100
AcDbLine
 62
250
  6
CONTINUOUS
 10
-10.9098890303
 20
21.222711763
 11
-10.9117352516
 21
21.4564093314
  0
LINE
  5
2E0
100
AcDbEntity
  8
RACCORDO
100
AcDbLine
 62
250
  6
CONTINUOUS
 10
-8.9380943479
 20
-23.6278312164
 11
-8.9380943479
 21
-24.4869014213
  0
LINE
  5
2E1
100
AcDbEntity
  8
RACCORDO
100
AcDbLine
 62
250
  6
CONTINUOUS
 10
-8.9380943479
 20
23.6278312164
 11
-8.9380943479
 21
24.4869014213
  0
LINE
  5
2E2
100
AcDbEntity
  8
RACCORDO
100
AcDbLine
 62
250
  6
CONTINUOUS
 10
-10.9123899198
 20
-21.5206599638
 11
-10.909883285
 21
-21.2218128808
  0
LINE
  5
2E3
100
AcDbEntity
  8
RACCORDO
100
AcDbLine
 62
250
  6
CONTINUOUS
 10
-10.9146000659
 20
-21.6932145626
 11
-10.9123899198
 21
-21.5206599638
  0
LINE
  5
2E4
100
AcDbEntity
  8
RACCORDO
100
AcDbLine
 62
250
  6
CONTINUOUS
 10
-10.9163036413
 20
-21.79186865
 11
-10.9146000659
 21
-21.6932145626
  0
LINE
  5
2E5
100
AcDbEntity
  8
RACCORDO
100
AcDbLine
 62
250
  6
CONTINUOUS
 10
-10.9176213364
 20
-21.8524538054
 11
-10.9163036413
 21
-21.79186865
  0
LINE
  5
2E6
100
AcDbEntity
  8
RACCORDO
100
AcDbLine
 62
250
  6
CONTINUOUS
 10
-10.918646559
 20
-21.891412362
 11
-10.9176213364
 21
-21.8524538054
  0
LINE
  5
2E7
100
AcDbEntity
  8
RACCORDO
100
AcDbLine
 62
250
  6
CONTINUOUS
 10
-10.919521698
 20
-21.9195027863
 11
-10.918646559
 21
-21.891412362
  0
LWPOLYLINE
  5
2E8
100
AcDbEntity
  8
RACCORDO
100
AcDbPolyline
 62
250
  6
CONTINUOUS
 90
31
 70
0
 10
-11.0619014213
 20
-23.8443375673
 10
-11.0615220896
 20
-23.8330274168
 10
-11.0604611076
 20
-23.8217481519
 10
-11.0587213727
 20
-23.810530574
 10
-11.0563076358
 20
-23.7994053159
 10
-11.0532264882
 20
-23.7884027584
 10
-11.049486344
 20
-23.7775529472
 10
-11.0450974166
 20
-23.7668855107
 10
-11.0400716913
 20
-23.7564295797
 10
-11.0344228923
 20
-23.7462137069
 10
-11.0281664453
 20
-23.7362657898
 10
-11.0213194354
 20
-23.7266129942
 10
-11.0139005603
 20
-23.7172816797
 10
-11.0059300794
 20
-23.7082973282
 10
-10.9974297583
 20
-23.6996844742
 10
-10.9884228098
 20
-23.6914666374
 10
-10.9789338299
 20
-23.6836662592
 10
-10.968988731
 20
-23.6763046407
 10
-10.9586146711
 20
-23.6694018849
 10
-10.9478399796
 20
-23.6629768418
 10
-10.9366940799
 20
-23.6570470569
 10
-10.9252074091
 20
-23.6516287232
 10
-10.9134113349
 20
-23.646736637
 10
-10.90133807
 20
-23.6423841576
 10
-10.8890205838
 20
-23.6385831707
 10
-10.876492513
 20
-23.6353440559
 10
-10.8637880689
 20
-23.6326756587
 10
-10.8509419448
 20
-23.6305852658
 10
-10.8379892207
 20
-23.6290785857
 10
-10.8249652679
 20
-23.6281597328
 10
-10.8119056521
 20
-23.6278312164
  0
LWPOLYLINE
  5
2E9
100
AcDbEntity
  8
RACCORDO
100
AcDbPolyline
 62
250
  6
CONTINUOUS
 90
31
 70
0
 10
-8.6880985787
 20
23.8443375673
 10
-8.6884771343
 20
23.833039595
 10
-8.6895362619
 20
23.821769291
 10
-8.6912736384
 20
23.8105574212
 10
-8.6936853398
 20
23.7994336121
 10
-8.6967652101
 20
23.78842936
 10
-8.7005042611
 20
23.7775778202
 10
-8.7048918055
 20
23.7669096972
 10
-8.7099162045
 20
23.7564530239
 10
-8.7155638851
 20
23.746236105
 10
-8.7218195777
 20
23.7362866999
 10
-8.7286661523
 20
23.7266321754
 10
-8.7360847605
 20
23.7172991519
 10
-8.7440550646
 20
23.7083132018
 10
-8.7525553594
 20
23.6996987826
 10
-8.7615624499
 20
23.6914794042
 10
-8.7710517535
 20
23.6836775075
 10
-8.7809973406
 20
23.6763144193
 10
-8.7913720235
 20
23.6694102704
 10
-8.8021474559
 20
23.6629839239
 10
-8.8132942139
 20
23.6570529269
 10
-8.824781851
 20
23.6516334796
 10
-8.8365790077
 20
23.6467403776
 10
-8.8486534441
 20
23.6423869945
 10
-8.8609721237
 20
23.6385852371
 10
-8.8735013591
 20
23.6353454907
 10
-8.8862069619
 20
23.6326765842
 10
-8.8990542827
 20
23.6305857918
 10
-8.91200825
 20
23.6290788219
 10
-8.9250334638
 20
23.6281597935
 10
-8.9380943479
 20
23.6278312164
  0
LINE
  5
2EA
100
AcDbEntity
  8
RACCORDO
100
AcDbLine
 62
250
  6
CONTINUOUS
 10
-11.417210195
 20
-21.3924079037
 11
-11.4162275128
 21
-21.3615069037
  0
LINE
  5
2EB
100
AcDbEntity
  8
RACCORDO
100
AcDbLine
 62
250
  6
CONTINUOUS
 10
-10.920233646
 20
-21.9390526402
 11
-10.919521698
 21
-21.9195027863
  0
LINE
  5
2EC
100
AcDbEntity
  8
RACCORDO
100
AcDbLine
 62
250
  6
CONTINUOUS
 10
-11.4180541822
 20
-21.4153548393
 11
-11.417210195
 21
-21.3924079037
  0
LINE
  5
2ED
100
AcDbEntity
  8
RACCORDO
100
AcDbLine
 62
250
  6
CONTINUOUS
 10
-10.9207736321
 20
-21.951986318
 11
-10.920233646
 21
-21.9390526402
  0
LINE
  5
2EE
100
AcDbEntity
  8
RACCORDO
100
AcDbLine
 62
250
  6
CONTINUOUS
 10
-11.4187440395
 20
-21.431828881
 11
-11.4180541822
 21
-21.4153548393
  0
LWPOLYLINE
  5
2EF
100
AcDbEntity
  8
RACCORDO
100
AcDbPolyline
 62
7
  6
CONTINUOUS
 90
34
 70
0
 10
-11.0677192511
 20
-23.2669872981
 10
-11.0674215247
 20
-23.260745719
 10
-11.0666502733
 20
-23.254472608
 10
-11.0653999106
 20
-23.2481861919
 10
-11.0636658633
 20
-23.2419121598
 10
-11.0614444206
 20
-23.2356626215
 10
-11.0587324006
 20
-23.2294361375
 10
-11.0555279037
 20
-23.2232532001
 10
-11.0518299792
 20
-23.2171335699
 10
-11.0476377282
 20
-23.2110754134
 10
-11.042952244
 20
-23.2051002367
 10
-11.0377756021
 20
-23.199228829
 10
-11.0321092313
 20
-23.1934590071
 10
-11.0259574474
 20
-23.1878130261
 10
-11.019325665
 20
-23.182312533
 10
-11.0122178622
 20
-23.1769551973
 10
-11.0046418667
 20
-23.171763745
 10
-10.9966067847
 20
-23.1667604362
 10
-10.9881195591
 20
-23.1619430222
 10
-10.9791918496
 20
-23.1573343288
 10
-10.9698368709
 20
-23.1529569199
 10
-10.9600651963
 20
-23.148808872
 10
-10.9498926851
 20
-23.1449126131
 10
-10.939337098
 20
-23.1412905703
 10
-10.9284134972
 20
-23.137941334
 10
-10.9171424397
 20
-23.1348863009
 10
-10.9055465152
 20
-23.1321470947
 10
-10.8936458174
 20
-23.1297228132
 10
-10.8814789897
 20
-23.1276360125
 10
-10.8690609348
 20
-23.1259025536
 10
-10.8563769407
 20
-23.1245164325
 10
-10.8434422301
 20
-23.1234933505
 10
-10.8303037286
 20
-23.1228641607
 10
-10.8169962532
 20
-23.1226497308
  0
LINE
  5
2F0
100
AcDbEntity
  8
RACCORDO
100
AcDbLine
 62
250
  6
CONTINUOUS
 10
-10.9211361742
 20
-21.9597780215
 11
-10.9207736321
 21
-21.951986318
  0
LWPOLYLINE
  5
2F1
100
AcDbEntity
  8
RACCORDO
100
AcDbPolyline
 62
7
  6
CONTINUOUS
 90
34
 70
0
 10
-8.6822807489
 20
23.2669872981
 10
-8.6825784753
 20
23.260745719
 10
-8.6833497267
 20
23.254472608
 10
-8.6846000894
 20
23.2481861919
 10
-8.6863341367
 20
23.2419121598
 10
-8.6885555794
 20
23.2356626215
 10
-8.6912675994
 20
23.2294361375
 10
-8.6944720963
 20
23.2232532001
 10
-8.6981700208
 20
23.2171335699
 10
-8.7023622718
 20
23.2110754134
 10
-8.707047756
 20
23.2051002367
 10
-8.7122243979
 20
23.199228829
 10
-8.7178907687
 20
23.1934590071
 10
-8.7240425526
 20
23.1878130261
 10
-8.730674335
 20
23.182312533
 10
-8.7377821378
 20
23.1769551973
 10
-8.7453581333
 20
23.171763745
 10
-8.7533932153
 20
23.1667604362
 10
-8.7618804409
 20
23.1619430222
 10
-8.7708081504
 20
23.1573343288
 10
-8.7801631291
 20
23.1529569199
 10
-8.7899348037
 20
23.148808872
 10
-8.8001073149
 20
23.1449126131
 10
-8.810662902
 20
23.1412905703
 10
-8.8215865028
 20
23.137941334
 10
-8.8328575603
 20
23.1348863009
 10
-8.8444534848
 20
23.1321470947
 10
-8.8563541826
 20
23.1297228132
 10
-8.8685210103
 20
23.1276360125
 10
-8.8809390652
 20
23.1259025536
 10
-8.8936230593
 20
23.1245164325
 10
-8.9065577699
 20
23.1234933505
 10
-8.9196962714
 20
23.1228641607
 10
-8.9330037468
 20
23.1226497308
  0
LINE
  5
2F2
100
AcDbEntity
  8
RACCORDO
100
AcDbLine
 62
250
  6
CONTINUOUS
 10
-11.4192691721
 20
-21.4430658684
 11
-11.4187440395
 21
-21.431828881
  0
LINE
  5
2F3
100
AcDbEntity
  8
RACCORDO
100
AcDbLine
 62
250
  6
CONTINUOUS
 10
-10.9215005954
 20
-21.9669009147
 11
-10.9211361742
 21
-21.9597780215
  0
LINE
  5
2F4
100
AcDbEntity
  8
RACCORDO
100
AcDbLine
 62
250
  6
CONTINUOUS
 10
-11.4198003328
 20
-21.4533310263
 11
-11.4192691721
 21
-21.4430658684
  0
LINE
  5
2F5
100
AcDbEntity
  8
RACCORDO
100
AcDbLine
 62
250
  6
CONTINUOUS
 10
-11.4201575255
 20
-21.4596293835
 11
-11.4198003328
 21
-21.4533310263
  0
LINE
  5
2F6
100
AcDbEntity
  8
RACCORDO
100
AcDbLine
 62
250
  6
CONTINUOUS
 10
-10.9218667083
 20
-21.973351731
 11
-10.9215005954
 21
-21.9669009147
  0
LINE
  5
2F7
100
AcDbEntity
  8
RACCORDO
100
AcDbLine
 62
250
  6
CONTINUOUS
 10
-11.4205169694
 20
-21.4654878776
 11
-11.4201575255
 21
-21.4596293835
  0
LINE
  5
2F8
100
AcDbEntity
  8
RACCORDO
100
AcDbLine
 62
250
  6
CONTINUOUS
 10
-11.4208785411
 20
-21.4709044946
 11
-11.4205169694
 21
-21.4654878776
  0
LINE
  5
2F9
100
AcDbEntity
  8
RACCORDO
100
AcDbLine
 62
250
  6
CONTINUOUS
 10
-11.4212420547
 20
-21.4758763477
 11
-11.4208785411
 21
-21.4709044946
  0
LWPOLYLINE
  5
2FA
100
AcDbEntity
  8
0
100
AcDbPolyline
 62
7
  6
CONTINUOUS
 90
3
 70
0
 43
0.3500000087
 10
0.7178571397
 20
34.0851865326
 10
0.6464285841
 20
33.8709
 10
0.5035714398
 20
33.5851860443
  0
LINE
  5
2FB
100
AcDbEntity
  8
RACCORDO
100
AcDbLine
 62
250
  6
CONTINUOUS
 10
9.9750042308
 20
24.5
 11
9.9619056521
 21
24.4869014213
  0
LINE
  5
2FC
100
AcDbEntity
  8
RACCORDO
100
AcDbLine
 62
250
  6
CONTINUOUS
 10
10.225
 20
24.2500042308
 11
10.2119014213
 21
24.2369056521
  0
LINE
  5
2FD
100
AcDbEntity
  8
RACCORDO
100
AcDbLine
 62
250
  6
CONTINUOUS
 10
9.9750042308
 20
-24.5
 11
9.9619056521
 21
-24.4869014213
  0
LINE
  5
2FE
100
AcDbEntity
  8
RACCORDO
100
AcDbLine
 62
250
  6
CONTINUOUS
 10
10.225
 20
-24.2500042308
 11
10.2119014213
 21
-24.2369056521
  0
LWPOLYLINE
  5
2FF
100
AcDbEntity
  8
RACCORDO
100
AcDbPolyline
 62
250
  6
CONTINUOUS
 90
31
 70
0
 10
-8.6880985787
 20
24.2369056521
 10
-8.6884399859
 20
24.249957992
 10
-8.6894632485
 20
24.2629828864
 10
-8.6911668528
 20
24.275944661
 10
-8.6935479829
 20
24.2888103798
 10
-8.6966010963
 20
24.3015418449
 10
-8.700316536
 20
24.3140960295
 10
-8.7046830871
 20
24.3264358334
 10
-8.709689517
 20
24.3385301896
 10
-8.7153222656
 20
24.3503462678
 10
-8.7215660673
 20
24.3618518682
 10
-8.7284037491
 20
24.3730151866
 10
-8.7358163791
 20
24.3838052658
 10
-8.7437835214
 20
24.3941923917
 10
-8.7522834183
 20
24.4041482289
 10
-8.7612928401
 20
24.4136455633
 10
-8.7707871333
 20
24.4226583824
 10
-8.7807402367
 20
24.4311619239
 10
-8.791124826
 20
24.4391328321
 10
-8.8019124163
 20
24.446549239
 10
-8.8130734423
 20
24.4533908148
 10
-8.8245772981
 20
24.4596387939
 10
-8.8363924437
 20
24.4652760422
 10
-8.8484864809
 20
24.4702870977
 10
-8.860826237
 20
24.4746582128
 10
-8.8733778845
 20
24.4783774023
 10
-8.8861069984
 20
24.4814344634
 10
-8.8989786381
 20
24.4838210061
 10
-8.9119574955
 20
24.4855304893
 10
-8.9250079938
 20
24.4865582323
 10
-8.9380943479
 20
24.4869014213
  0
LWPOLYLINE
  5
300
100
AcDbEntity
  8
RACCORDO
100
AcDbPolyline
 62
7
  6
CONTINUOUS
 90
34
 70
0
 10
-8.675
 20
24.2500042308
 10
-8.6752831502
 20
24.261899516
 10
-8.6761319658
 20
24.2737678556
 10
-8.6775445259
 20
24.2855823661
 10
-8.6795176323
 20
24.2973162875
 10
-8.6820468183
 20
24.3089430388
 10
-8.6851263583
 20
24.320436279
 10
-8.6887492787
 20
24.3317699738
 10
-8.6929073742
 20
24.3429184493
 10
-8.6975912278
 20
24.3538564463
 10
-8.7027902312
 20
24.3645591876
 10
-8.7084926084
 20
24.3750024283
 10
-8.7146854419
 20
24.3851625059
 10
-8.7213547045
 20
24.3950164051
 10
-8.7284852893
 20
24.4045418038
 10
-8.7360610411
 20
24.4137171191
 10
-8.7440647995
 20
24.4225215661
 10
-8.7524784339
 20
24.4309352005
 10
-8.7612828809
 20
24.4389389589
 10
-8.7704581962
 20
24.4465147107
 10
-8.7799835949
 20
24.4536452955
 10
-8.7898374941
 20
24.4603145581
 10
-8.7999975717
 20
24.4665073916
 10
-8.8104408124
 20
24.4722097688
 10
-8.8211435537
 20
24.4774087722
 10
-8.8320815507
 20
24.4820926258
 10
-8.8432300262
 20
24.4862507213
 10
-8.854563721
 20
24.4898736417
 10
-8.8660569612
 20
24.4929531817
 10
-8.8776837125
 20
24.4954823677
 10
-8.8894176339
 20
24.4974554741
 10
-8.9012321444
 20
24.4988680342
 10
-8.913100484
 20
24.4997168498
 10
-8.9249957692
 20
24.5
  0
LINE
  5
301
100
AcDbEntity
  8
RACCORDO
100
AcDbLine
 62
250
  6
CONTINUOUS
 10
-8.9380943479
 20
23.6278312164
 11
-8.9330037468
 21
23.1226497308
  0
LINE
  5
302
100
AcDbEntity
  8
RACCORDO
100
AcDbLine
 62
250
  6
CONTINUOUS
 10
-8.6880985787
 20
23.8443375673
 11
-8.6822807489
 21
23.2669872981
  0
LINE
  5
303
100
AcDbEntity
  8
RACCORDO
100
AcDbLine
 62
250
  6
CONTINUOUS
 10
-8.9322765181
 20
23.1226497308
 11
-8.9322765181
 21
22.3213883311
  0
LINE
  5
304
100
AcDbEntity
  8
RACCORDO
100
AcDbLine
 62
250
  6
CONTINUOUS
 10
-8.9322765181
 20
-22.3213883311
 11
-8.9322765181
 21
-23.1226497308
  0
LINE
  5
305
100
AcDbEntity
  8
RACCORDO
100
AcDbLine
 62
250
  6
CONTINUOUS
 10
-8.6880985787
 20
-24.2369056521
 11
-8.6880985787
 21
-23.8443375673
  0
LINE
  5
306
100
AcDbEntity
  8
RACCORDO
100
AcDbLine
 62
250
  6
CONTINUOUS
 10
-8.6880985787
 20
23.8443375673
 11
-8.6880985787
 21
24.2369056521
  0
LINE
  5
307
100
AcDbEntity
  8
RACCORDO
100
AcDbLine
 62
250
  6
CONTINUOUS
 10
-8.6822807489
 20
23.2669872981
 11
-8.6822807489
 21
22.3344140523
  0
LINE
  5
308
100
AcDbEntity
  8
RACCORDO
100
AcDbLine
 62
250
  6
CONTINUOUS
 10
-8.6822807489
 20
-22.3344140523
 11
-8.6822807489
 21
-23.2669872981
  0
LINE
  5
309
100
AcDbEntity
  8
RACCORDO
100
AcDbLine
 62
7
  6
CONTINUOUS
 10
-8.675
 20
-22.4
 11
-8.675
 21
-24.2500042308
  0
LINE
  5
30A
100
AcDbEntity
  8
RACCORDO
100
AcDbLine
 62
7
  6
CONTINUOUS
 10
-8.675
 20
22.4
 11
-8.675
 21
24.2500042308
  0
LINE
  5
30B
100
AcDbEntity
  8
RACCORDO
100
AcDbLine
 62
250
  6
CONTINUOUS
 10
-8.9330037468
 20
-23.1226497308
 11
-8.9380943479
 21
-23.6278312164
  0
LINE
  5
30C
100
AcDbEntity
  8
RACCORDO
100
AcDbLine
 62
250
  6
CONTINUOUS
 10
-8.6822807489
 20
-23.2669872981
 11
-8.6880985787
 21
-23.8443375673
  0
LINE
  5
30D
100
AcDbEntity
  8
RACCORDO
100
AcDbLine
 62
7
  6
CONTINUOUS
 10
-11.075
 20
-22.4
 11
-11.0677192511
 21
-22.3344140523
  0
LWPOLYLINE
  5
30E
100
AcDbEntity
  8
RACCORDO
100
AcDbPolyline
 62
250
  6
CONTINUOUS
 90
97
 70
0
 10
-0.425
 20
-8.2657198624
 10
-0.491607748
 20
-8.2646677014
 10
-0.5581924825
 20
-8.2614315382
 10
-0.6247542035
 20
-8.256011372
 10
-0.6913938423
 20
-8.2484067621
 10
-0.7580104675
 20
-8.2386181464
 10
-0.8243012849
 20
-8.2266468417
 10
-0.8902627258
 20
-8.2124754559
 10
-0.9558983588
 20
-8.1961213755
 10
-1.0209160947
 20
-8.1776380844
 10
-1.0853077574
 20
-8.1570105447
 10
-1.1490815229
 20
-8.1342537862
 10
-1.2119698304
 20
-8.1094663948
 10
-1.273944115
 20
-8.0826484529
 10
-1.3350329415
 20
-8.053799868
 10
-1.3950544432
 20
-8.0230189626
 10
-1.4539964072
 20
-7.9903083681
 10
-1.5118710464
 20
-7.9556654415
 10
-1.5685331328
 20
-7.9191805944
 10
-1.6239910489
 20
-7.8808439258
 10
-1.6782364122
 20
-7.840665324
 10
-1.7310988474
 20
-7.7987648854
 10
-1.7825807796
 20
-7.7551304595
 10
-1.8326797837
 20
-7.7097741836
 10
-1.8812182087
 20
-7.6628525859
 10
-1.9281867402
 20
-7.6143624947
 10
-1.9735946926
 20
-7.5643070689
 10
-2.0172923576
 20
-7.5128523339
 10
-2.0592715591
 20
-7.4599970005
 10
-2.0995404732
 20
-7.4057423459
 10
-2.1379739199
 20
-7.3502582461
 10
-2.1745669551
 20
-7.2935404588
 10
-2.2093245229
 20
-7.2355932157
 10
-2.2421362751
 20
-7.1765991057
 10
-2.2729970263
 20
-7.1165529146
 10
-2.301911962
 20
-7.0554598475
 10
-2.3287862904
 20
-6.9935181249
 10
-2.3536130788
 20
-6.9307252093
 10
-2.37639926
 20
-6.8670836312
 10
-2.3970708396
 20
-6.802799215
 10
-2.4156207798
 20
-6.7378703189
 10
-2.4320561185
 20
-6.67229858
 10
-2.4463239746
 20
-6.606294744
 10
-2.4584173706
 20
-6.5398575414
 10
-2.4683432841
 20
-6.4729882394
 10
-2.4760697671
 20
-6.4059013902
 10
-2.4815897554
 20
-6.3385959663
 10
-2.4849103131
 20
-6.2710729953
 10
-2.4860206852
 20
-6.2035501142
 10
-2.484913676
 20
-6.1360273261
 10
-2.4815964812
 20
-6.0685046302
 10
-2.4760799322
 20
-6.0011996593
 10
-2.4683569685
 20
-5.934113464
 10
-2.4584346506
 20
-5.8672449982
 10
-2.4463449908
 20
-5.8008087514
 10
-2.4320810271
 20
-5.7348060248
 10
-2.4156497215
 20
-5.6692355236
 10
-2.3971039727
 20
-5.6043078455
 10
-2.3764367624
 20
-5.5400246429
 10
-2.3536551088
 20
-5.4763842712
 10
-2.3288329645
 20
-5.413592385
 10
-2.3019633933
 20
-5.3516514859
 10
-2.2730533314
 20
-5.2905590811
 10
-2.2421975401
 20
-5.230513335
 10
-2.209390817
 20
-5.1715194373
 10
-2.1746383645
 20
-5.1135722077
 10
-2.1380505502
 20
-5.056854257
 10
-2.0996224966
 20
-5.0013699063
 10
-2.0593590811
 20
-4.9471148442
 10
-2.0173853043
 20
-4.8942587326
 10
-1.9736930937
 20
-4.8428029039
 10
-1.9282905218
 20
-4.7927460354
 10
-1.8813268054
 20
-4.7442538077
 10
-1.8327925057
 20
-4.6973292189
 10
-1.7826970616
 20
-4.6519692802
 10
-1.7312180068
 20
-4.6083306922
 10
-1.6783574171
 20
-4.5664254217
 10
-1.6241132166
 20
-4.5262415106
 10
-1.5686567115
 20
-4.4878997732
 10
-1.511996448
 20
-4.4514103416
 10
-1.4541238799
 20
-4.4167630915
 10
-1.3951846743
 20
-4.384048452
 10
-1.3351673806
 20
-4.3532640758
 10
-1.2740834495
 20
-4.3244123169
 10
-1.2121129006
 20
-4.2975906569
 10
-1.1492272867
 20
-4.2727987594
 10
-1.085455055
 20
-4.2500369663
 10
-1.021061566
 20
-4.2294037755
 10
-0.9560379477
 20
-4.2109138806
 10
-0.8903930721
 20
-4.1945525924
 10
-0.8244189163
 20
-4.1803743345
 10
-0.7581106969
 20
-4.1683964842
 10
-0.6914731974
 20
-4.1586016671
 10
-0.6248127452
 20
-4.1509921795
 10
-0.5582314495
 20
-4.1455687872
 10
-0.4916272011
 20
-4.1423307256
 10
-0.425
 20
-4.1412779953
  0
LWPOLYLINE
  5
30F
100
AcDbEntity
  8
RACCORDO
100
AcDbPolyline
 62
250
  6
CONTINUOUS
 90
97
 70
0
 10
-0.425
 20
-7.9607718536
 10
-0.4818357853
 20
-7.9598544693
 10
-0.5387670942
 20
-7.9570932677
 10
-0.5957335694
 20
-7.9524761052
 10
-0.6526960616
 20
-7.945989923
 10
-0.7095702984
 20
-7.9376279849
 10
-0.7662280033
 20
-7.9273971087
 10
-0.8226075146
 20
-7.915299607
 10
-0.8786461468
 20
-7.9013400305
 10
-0.9342164037
 20
-7.8855446223
 10
-0.9892546846
 20
-7.8679295607
 10
-1.04370445
 20
-7.848511015
 10
-1.0974530142
 20
-7.8273300439
 10
-1.1504235734
 20
-7.8044220467
 10
-1.2025815817
 20
-7.7798071577
 10
-1.2538807568
 20
-7.7535107531
 10
-1.3042588142
 20
-7.7255684166
 10
-1.353672082
 20
-7.6960080873
 10
-1.4021015112
 20
-7.6648421271
 10
-1.4495034027
 20
-7.6320967848
 10
-1.4958173848
 20
-7.5978118486
 10
-1.5409986201
 20
-7.5620187372
 10
-1.585003634
 20
-7.5247491736
 10
-1.6277777828
 20
-7.4860466418
 10
-1.6692619714
 20
-7.4459633459
 10
-1.7094090297
 20
-7.4045450211
 10
-1.7481786199
 20
-7.361833444
 10
-1.7855255533
 20
-7.3178786416
 10
-1.8214079515
 20
-7.2727308967
 10
-1.8557900549
 20
-7.2264362359
 10
-1.8886382198
 20
-7.1790402624
 10
-1.9199175409
 20
-7.1305932133
 10
-1.9495940578
 20
-7.0811475541
 10
-1.9776373856
 20
-7.0307534634
 10
-2.0040179338
 20
-6.9794632076
 10
-2.028706192
 20
-6.9273331978
 10
-2.0516744803
 20
-6.8744212302
 10
-2.0728979211
 20
-6.8207843077
 10
-2.0923537419
 20
-6.7664796507
 10
-2.1100205341
 20
-6.7115666995
 10
-2.1258792196
 20
-6.6561047823
 10
-2.1399129066
 20
-6.6001530099
 10
-2.1521064922
 20
-6.5437714298
 10
-2.1624468649
 20
-6.4870206438
 10
-2.1709229433
 20
-6.429961448
 10
-2.1775256237
 20
-6.3726547769
 10
-2.1822478001
 20
-6.315161846
 10
-2.1850843316
 20
-6.2575446269
 10
-2.1860321115
 20
-6.1998654937
 10
-2.1850901374
 20
-6.1421863462
 10
-2.182259437
 20
-6.0845690854
 10
-2.1775430962
 20
-6.0270760898
 10
-2.1709462832
 20
-5.969769342
 10
-2.162476129
 20
-5.9127100411
 10
-2.1521417108
 20
-5.855959091
 10
-2.1399541366
 20
-5.7995773031
 10
-2.1259265375
 20
-5.7436252546
 10
-2.1100739682
 20
-5.6881629104
 10
-2.0924133378
 20
-5.6332493892
 10
-2.072963736
 20
-5.5789440032
 10
-2.0517464959
 20
-5.5253060873
 10
-2.0287843807
 20
-5.472392836
 10
-2.0041022828
 20
-5.4202612797
 10
-1.9777278309
 20
-5.3689692018
 10
-1.9496905243
 20
-5.3185729952
 10
-1.9200199683
 20
-5.2691249516
 10
-1.8887465406
 20
-5.2206753077
 10
-1.8559042612
 20
-5.1732766041
 10
-1.821527997
 20
-5.1269790013
 10
-1.7856512266
 20
-5.081827949
 10
-1.7483097624
 20
-5.0378695575
 10
-1.7095454216
 20
-4.9951540507
 10
-1.6694030074
 20
-4.9537311406
 10
-1.627922696
 20
-4.9136425388
 10
-1.5851517422
 20
-4.8749341581
 10
-1.5411491995
 20
-4.8376582901
 10
-1.4959694299
 20
-4.8018582807
 10
-1.4496561352
 20
-4.7675661243
 10
-1.4022549428
 20
-4.7348138675
 10
-1.3538264596
 20
-4.7036413998
 10
-1.3044142419
 20
-4.6740748132
 10
-1.2540376359
 20
-4.6461266036
 10
-1.2027409875
 20
-4.6198249596
 10
-1.1505860269
 20
-4.5952050584
 10
-1.0976174297
 20
-4.572291553
 10
-1.0438697449
 20
-4.5511046831
 10
-0.9894197306
 20
-4.5316799319
 10
-0.9343782696
 20
-4.5140579375
 10
-0.8788012516
 20
-4.4982549891
 10
-0.8227528268
 20
-4.4842877373
 10
-0.7663604555
 20
-4.4721827155
 10
-0.7096865368
 20
-4.461944713
 10
-0.6527930401
 20
-4.453576386
 10
-0.5958091376
 20
-4.4470849164
 10
-0.5388194525
 20
-4.4424637783
 10
-0.4818629252
 20
-4.439700062
 10
-0.425
 20
-4.4387818054
  0
LINE
  5
310
100
AcDbEntity
  8
RACCORDO
100
AcDbLine
 62
7
  6
CONTINUOUS
 10
-11.075
 20
22.4
 11
-11.0677192511
 21
22.3344140523
  0
LWPOLYLINE
  5
311
100
AcDbEntity
  8
RACCORDO
100
AcDbPolyline
 62
250
  6
CONTINUOUS
 90
13
 70
0
 10
-10.9242759622
 20
-21.998725222
 10
-10.9240893733
 20
-21.9977989761
 10
-10.9239029532
 20
-21.9967011619
 10
-10.923716702
 20
-21.9954319053
 10
-10.9235305985
 20
-21.9939913518
 10
-10.9233446638
 20
-21.9923796666
 10
-10.9231589617
 20
-21.9905970346
 10
-10.9229734921
 20
-21.9886436599
 10
-10.9227882552
 20
-21.9865197666
 10
-10.9226033148
 20
-21.9842255985
 10
-10.9224186709
 20
-21.9817614184
 10
-10.9222343236
 20
-21.9791275091
 10
-10.9218667083
 20
-21.973351731
  0
LWPOLYLINE
  5
312
100
AcDbEntity
  8
RACCORDO
100
AcDbPolyline
 62
250
  6
CONTINUOUS
 90
6
 70
0
 10
-11.4850756178
 20
-21.7151403235
 10
-11.4918770761
 20
-21.7401456581
 10
-11.4988215169
 20
-21.7651609042
 10
-11.5059089341
 20
-21.790193096
 10
-11.5130898923
 20
-21.8145197364
 10
-11.520365023
 20
-21.837689652
  0
LINE
  5
313
100
AcDbEntity
  8
RACCORDO
100
AcDbLine
 62
250
  6
CONTINUOUS
 10
-11.4802660476
 20
21.6970940403
 11
-11.4975517102
 21
21.7607952918
  0
LINE
  5
314
100
AcDbEntity
  8
DRAFT
100
AcDbLine
 62
7
  6
CONTINUOUS
 10
-4.825
 20
-23.8
 11
-4.825
 21
-22.4
  0
LINE
  5
315
100
AcDbEntity
  8
DRAFT
100
AcDbLine
 62
7
  6
CONTINUOUS
 10
-4.825
 20
22.4
 11
-4.825
 21
23.8
  0
LINE
  5
316
100
AcDbEntity
  8
RACCORDO
100
AcDbLine
 62
250
  6
CONTINUOUS
 10
-4.8220741618
 20
23.7970741618
 11
-4.8220741618
 21
22.3736436632
  0
LINE
  5
317
100
AcDbEntity
  8
RACCORDO
100
AcDbLine
 62
250
  6
CONTINUOUS
 10
-4.8220741618
 20
-22.3736436632
 11
-4.8220741618
 21
-23.7970741618
  0
LINE
  5
318
100
AcDbEntity
  8
RACCORDO
100
AcDbLine
 62
250
  6
CONTINUOUS
 10
-4.3220826234
 20
23.5953423515
 11
-4.3220826234
 21
22.3475922207
  0
LINE
  5
319
100
AcDbEntity
  8
RACCORDO
100
AcDbLine
 62
250
  6
CONTINUOUS
 10
-4.3220826234
 20
-22.3475922207
 11
-4.3220826234
 21
-23.5953423515
  0
LWPOLYLINE
  5
31A
100
AcDbEntity
  8
RACCORDO
100
AcDbPolyline
 62
250
  6
CONTINUOUS
 90
16
 70
0
 10
-11.4241998097
 20
-21.4994104546
 10
-11.4240132378
 20
-21.4987928725
 10
-11.4238268304
 20
-21.4980610869
 10
-11.4236405875
 20
-21.4972150979
 10
-11.4234544863
 20
-21.4962547773
 10
-11.4232685496
 20
-21.4951802532
 10
-11.4230828456
 20
-21.4939919103
 10
-11.4228973759
 20
-21.4926897148
 10
-11.4227121388
 20
-21.4912737004
 10
-11.4225271982
 20
-21.4897443526
 10
-11.4223425541
 20
-21.4881016316
 10
-11.4221582064
 20
-21.4863455771
 10
-11.4219742185
 20
-21.4844767943
 10
-11.4217905905
 20
-21.4824952446
 10
-11.4216073223
 20
-21.4804009664
 10
-11.4212420547
 20
-21.4758763477
  0
LWPOLYLINE
  5
31B
100
AcDbEntity
  8
RACCORDO
100
AcDbPolyline
 62
250
  6
CONTINUOUS
 90
9
 70
0
 10
-11.4243515704
 20
-21.4998661067
 10
-11.4285225986
 20
-21.5125898514
 10
-11.432985549
 20
-21.5268028535
 10
-11.4377404216
 20
-21.5425051129
 10
-11.442803845
 20
-21.5597732587
 10
-11.4481591906
 20
-21.5785306618
 10
-11.4537565723
 20
-21.5985474353
 10
-11.4595959088
 20
-21.6199132252
 10
-11.4850756178
 20
-21.7151403235
  0
LINE
  5
31C
100
AcDbEntity
  8
RACCORDO
100
AcDbLine
 62
250
  6
CONTINUOUS
 10
-11.4243515704
 20
-21.4998661067
 11
-11.4241998097
 21
-21.4994104546
  0
LWPOLYLINE
  5
31D
100
AcDbEntity
  8
RACCORDO
100
AcDbPolyline
 62
250
  6
CONTINUOUS
 90
3
 70
0
 10
-11.520365023
 20
-21.837689652
 10
-11.5500587549
 20
-21.9275206231
 10
-11.5575791601
 20
-21.9498972163
  0
LWPOLYLINE
  5
31E
100
AcDbEntity
  8
RACCORDO
100
AcDbPolyline
 62
250
  6
CONTINUOUS
 90
97
 70
0
 10
-0.425
 20
-4.1412779953
 10
-0.3583866949
 20
-4.1423303649
 10
-0.2917966518
 20
-4.1455670455
 10
-0.2252298709
 20
-4.1509880369
 10
-0.1585854006
 20
-4.1585937992
 10
-0.0919641925
 20
-4.1683838708
 10
-0.0256691006
 20
-4.1803568685
 10
0.0402962991
 20
-4.1945301824
 10
0.1059355827
 20
-4.2108864195
 10
0.1709566237
 20
-4.229372022
 10
0.2353512476
 20
-4.2500020271
 10
0.2991276289
 20
-4.2727613932
 10
0.3620181652
 20
-4.297551444
 10
0.4239942979
 20
-4.3243721005
 10
0.4850845856
 20
-4.3532234362
 10
0.5451071021
 20
-4.3840070025
 10
0.6040496054
 20
-4.4167201519
 10
0.6619243375
 20
-4.4513655253
 10
0.7185860978
 20
-4.4878526066
 10
0.7740432354
 20
-4.5261912609
 10
0.8282874011
 20
-4.5663716152
 10
0.8811483469
 20
-4.6082735463
 10
0.9326284996
 20
-4.6519091823
 10
0.9827254325
 20
-4.6972663863
 10
1.0312616172
 20
-4.7441886369
 10
1.0782277467
 20
-4.7926790898
 10
1.1236331281
 20
-4.84273458
 10
1.1673281541
 20
-4.8941891051
 10
1.2093046477
 20
-4.9470439278
 10
1.2495707859
 20
-5.0012977757
 10
1.288001493
 20
-5.0567808451
 10
1.3245918306
 20
-5.1134973547
 10
1.3593467372
 20
-5.171443076
 10
1.3921559519
 20
-5.2304355362
 10
1.4230143019
 20
-5.2904799356
 10
1.4519269601
 20
-5.3515710643
 10
1.4787991835
 20
-5.4135108359
 10
1.5036240546
 20
-5.4763017844
 10
1.5264084909
 20
-5.5399413669
 10
1.5470785019
 20
-5.6042238826
 10
1.5656270624
 20
-5.6691509758
 10
1.5820611975
 20
-5.7347209945
 10
1.5963279922
 20
-5.8007232947
 10
1.6084204781
 20
-5.867159152
 10
1.6183456236
 20
-5.9340272846
 10
1.6260714181
 20
-6.0011132139
 10
1.6315908031
 20
-6.0684179838
 10
1.6349108371
 20
-6.1359405459
 10
1.6360206855
 20
-6.2034632854
 10
1.6349131527
 20
-6.2709862151
 10
1.6315954342
 20
-6.3385093197
 10
1.6260782819
 20
-6.4058149445
 10
1.6183546298
 20
-6.4729020597
 10
1.608431544
 20
-6.5397716949
 10
1.5963409742
 20
-6.6062092868
 10
1.5820759491
 20
-6.6722135492
 10
1.5656434402
 20
-6.7377857705
 10
1.5470963118
 20
-6.8027152511
 10
1.5264275334
 20
-6.8670003537
 10
1.5036441354
 20
-6.9306427202
 10
1.4788200743
 20
-6.9934365728
 10
1.4519483987
 20
-7.0553794223
 10
1.4230360598
 20
-7.1164737649
 10
1.3921778678
 20
-7.1765213025
 10
1.3593686076
 20
-7.2355168498
 10
1.3246134943
 20
-7.2934656013
 10
1.2880229827
 20
-7.35018483
 10
1.2495921897
 20
-7.4056702112
 10
1.2093259985
 20
-7.4599260804
 10
1.1673495142
 20
-7.5127827027
 10
1.1236546656
 20
-7.5642387408
 10
1.0782495239
 20
-7.614295544
 10
1.0312834072
 20
-7.6627874089
 10
0.9827468695
 20
-7.7097113435
 10
0.9326493567
 20
-7.7550703525
 10
0.8811685243
 20
-7.7987077294
 10
0.828306446
 20
-7.8406115077
 10
0.774061048
 20
-7.8807936669
 10
0.7186037637
 20
-7.9191334198
 10
0.661943172
 20
-7.9556206189
 10
0.604070694
 20
-7.9902654244
 10
0.545132026
 20
-8.0229775106
 10
0.4851157466
 20
-8.0537592266
 10
0.4240332773
 20
-8.0826082348
 10
0.362064578
 20
-8.1094271799
 10
0.2991811963
 20
-8.1342164173
 10
0.2354115846
 20
-8.1569756016
 10
0.1710210605
 20
-8.1776063263
 10
0.1060007501
 20
-8.1960939097
 10
0.0403595272
 20
-8.2124530415
 10
-0.0256106688
 20
-8.2266293717
 10
-0.0919146137
 20
-8.2386055295
 10
-0.1585475317
 20
-8.2483988914
 10
-0.2252031561
 20
-8.2560072274
 10
-0.2917793978
 20
-8.2614297952
 10
-0.3583783457
 20
-8.26466734
 10
-0.425
 20
-8.2657198624
  0
LWPOLYLINE
  5
31F
100
AcDbEntity
  8
RACCORDO
100
AcDbPolyline
 62
250
  6
CONTINUOUS
 90
97
 70
0
 10
-0.425
 20
-4.4387818054
 10
-0.3681573988
 20
-4.4396994055
 10
-0.3112194413
 20
-4.4424612597
 10
-0.2542465206
 20
-4.4470794933
 10
-0.1972778276
 20
-4.4535671431
 10
-0.1403976614
 20
-4.4619309226
 10
-0.0837343101
 20
-4.472163994
 10
-0.027349468
 20
-4.4842640235
 10
0.0286941512
 20
-4.4982264298
 10
0.084269048
 20
-4.514024939
 10
0.1393116022
 20
-4.5316433508
 10
0.1937652436
 20
-4.5510654614
 10
0.2475172708
 20
-4.5722501641
 10
0.300490874
 20
-4.5951620355
 10
0.3526514777
 20
-4.6197809029
 10
0.4039527572
 20
-4.6460813167
 10
0.4543324035
 20
-4.6740276465
 10
0.5037467547
 20
-4.7035919226
 10
0.55217678
 20
-4.7347617314
 10
0.5995787559
 20
-4.7675107698
 10
0.6458923376
 20
-4.8017992248
 10
0.6910727843
 20
-4.83759568
 10
0.7350766242
 20
-4.8748683845
 10
0.7778492176
 20
-4.9135738212
 10
0.8193315637
 20
-4.9536597981
 10
0.8594764999
 20
-4.9950805636
 10
0.8982436894
 20
-5.0377943137
 10
0.9355880235
 20
-5.0817510325
 10
0.971467623
 20
-5.1269004166
 10
1.0058467395
 20
-5.173196429
 10
1.0386918192
 20
-5.2205935082
 10
1.0699679553
 20
-5.2690414054
 10
1.0996411933
 20
-5.3184876501
 10
1.1276812381
 20
-5.3688821323
 10
1.1540584949
 20
-5.4201725865
 10
1.1787434489
 20
-5.4723025975
 10
1.2017084956
 20
-5.5252144461
 10
1.2229287474
 20
-5.5788511401
 10
1.242381418
 20
-5.633155455
 10
1.2600451534
 20
-5.6880680185
 10
1.2759008584
 20
-5.7435295153
 10
1.2899316204
 20
-5.7994808322
 10
1.3021223749
 20
-5.8558619769
 10
1.3124599865
 20
-5.9126123592
 10
1.3209333483
 20
-5.969671181
 10
1.3275333826
 20
-6.0269775498
 10
1.3322529552
 20
-6.0844702652
 10
1.3350868951
 20
-6.1420873463
 10
1.3360321137
 20
-6.1997664305
 10
1.3350875782
 20
-6.2574456273
 10
1.3322542863
 20
-6.3150630263
 10
1.3275353417
 20
-6.3725562377
 10
1.3209358826
 20
-6.429863288
 10
1.3124630118
 20
-6.4869229631
 10
1.3021258325
 20
-6.5436743171
 10
1.289935427
 20
-6.6000565408
 10
1.2759049031
 20
-6.656009045
 10
1.2600493532
 20
-6.7114718096
 10
1.2423856661
 20
-6.7663857184
 10
1.2229329142
 20
-6.8206914462
 10
1.2017124854
 20
-6.8743295904
 10
1.1787471288
 20
-6.9272429605
 10
1.1540617269
 20
-6.9793745155
 10
1.1276839836
 20
-7.0306663951
 10
1.099643394
 20
-7.0810622105
 10
1.069969559
 20
-7.1305096689
 10
1.0386929462
 20
-7.1789584652
 10
1.0058475813
 20
-7.2263560637
 10
0.9714683298
 20
-7.2726523154
 10
0.9355887606
 20
-7.3178017286
 10
0.8982446973
 20
-7.3617582035
 10
0.8594779566
 20
-7.4044715368
 10
0.8193334211
 20
-7.4458920054
 10
0.7778512684
 20
-7.4859779251
 10
0.7350787609
 20
-7.5246833996
 10
0.6910750453
 20
-7.5619561259
 10
0.6458944873
 20
-7.5977527915
 10
0.5995807915
 20
-7.6320414296
 10
0.5521796824
 20
-7.6647899913
 10
0.5037517931
 20
-7.6959586119
 10
0.4543406558
 20
-7.7255212533
 10
0.4039656364
 20
-7.7534654707
 10
0.3526710915
 20
-7.7797631059
 10
0.3005187262
 20
-7.8043790287
 10
0.2475531737
 20
-7.8272886593
 10
0.193808954
 20
-7.8484717967
 10
0.1393628189
 20
-7.8678929817
 10
0.084325634
 20
-7.8855116249
 10
0.0287532579
 20
-7.9013114717
 10
-0.0272901782
 20
-7.915275893
 10
-0.0836772179
 20
-7.9273783867
 10
-0.1403454906
 20
-7.937614194
 10
-0.1972330591
 20
-7.9459806796
 10
-0.2542107627
 20
-7.9524706818
 10
-0.3111940049
 20
-7.957090749
 10
-0.3681438867
 20
-7.9598538128
 10
-0.425
 20
-7.9607718536
  0
LINE
  5
320
100
AcDbEntity
  8
RACCORDO
100
AcDbLine
 62
250
  6
CONTINUOUS
 10
-11.4243515704
 20
21.4998661067
 11
-11.4241998097
 21
21.4994104546
  0
LWPOLYLINE
  5
321
100
AcDbEntity
  8
RACCORDO
100
AcDbPolyline
 62
250
  6
CONTINUOUS
 90
3
 70
0
 10
-11.5402029539
 20
21.8982111234
 10
-11.5488642761
 20
21.9242195846
 10
-11.5575792813
 20
21.9498971557
  0
LWPOLYLINE
  5
322
100
AcDbEntity
  8
RACCORDO
100
AcDbPolyline
 62
250
  6
CONTINUOUS
 90
6
 70
0
 10
-11.4243515704
 20
21.4998661067
 10
-11.4342168982
 20
21.5318406482
 10
-11.4438637267
 20
21.564173902
 10
-11.4532920559
 20
21.5968658682
 10
-11.4624714801
 20
21.6302751482
 10
-11.4802660476
 20
21.6970940403
  0
LWPOLYLINE
  5
323
100
AcDbEntity
  8
RACCORDO
100
AcDbPolyline
 62
250
  6
CONTINUOUS
 90
5
 70
0
 10
-11.4975517102
 20
21.7607952918
 10
-11.5060944968
 20
21.7908683775
 10
-11.5146011441
 20
21.8189258015
 10
-11.5230713879
 20
21.8455642319
 10
-11.5402029539
 20
21.8982111234
  0
LINE
  5
324
100
AcDbEntity
  8
RACCORDO
100
AcDbLine
 62
7
  6
CONTINUOUS
 10
-4.825
 20
-22.4
 11
-4.8220741618
 21
-22.3736436632
  0
LINE
  5
325
100
AcDbEntity
  8
RACCORDO
100
AcDbLine
 62
250
  6
CONTINUOUS
 10
-10.9244277228
 20
-21.9991808741
 11
-10.9242759622
 21
-21.998725222
  0
LWPOLYLINE
  5
326
100
AcDbEntity
  8
RACCORDO
100
AcDbPolyline
 62
250
  6
CONTINUOUS
 90
4
 70
0
 10
-11.077868735
 20
-22.3102396408
 10
-11.0930617769
 20
-22.3548930247
 10
-11.1005513793
 20
-22.3773834536
 10
-11.1078874748
 20
-22.4
  0
LWPOLYLINE
  5
327
100
AcDbEntity
  8
RACCORDO
100
AcDbPolyline
 62
250
  6
CONTINUOUS
 90
8
 70
0
 10
-10.9244277228
 20
-21.9991808741
 10
-10.9288064342
 20
-22.0117243523
 10
-10.9340921452
 20
-22.0251478635
 10
-10.9402848558
 20
-22.0394514077
 10
-10.9474282864
 20
-22.0546851881
 10
-10.9554787166
 20
-22.0707990014
 10
-10.9643049856
 20
-22.0876422381
 10
-10.9739973351
 20
-22.1052148163
  0
LWPOLYLINE
  5
328
100
AcDbEntity
  8
RACCORDO
100
AcDbPolyline
 62
250
  6
CONTINUOUS
 90
8
 70
0
 10
10.1247237888
 20
22.1065514119
 10
10.1160258702
 20
22.0908079916
 10
10.1078324041
 20
22.0754487763
 10
10.1000735918
 20
22.0603326496
 10
10.0928304407
 20
22.04513472
 10
10.0861299533
 20
22.0297466903
 10
10.0799451271
 20
22.0142768576
 10
10.0742759622
 20
21.998725222
  0
LINE
  5
329
100
AcDbEntity
  8
RACCORDO
100
AcDbLine
 62
250
  6
CONTINUOUS
 10
10.1431331844
 20
22.1386690617
 11
10.1247237888
 21
22.1065514119
  0
LINE
  5
32A
100
AcDbEntity
  8
RACCORDO
100
AcDbLine
 62
250
  6
CONTINUOUS
 10
10.1427995163
 20
-22.1380939736
 11
10.1619783629
 21
-22.1710892346
  0
LWPOLYLINE
  5
32B
100
AcDbEntity
  8
RACCORDO
100
AcDbPolyline
 62
250
  6
CONTINUOUS
 90
13
 70
0
 10
10.1619783629
 20
-22.1710892346
 10
10.1713127186
 20
-22.1874353571
 10
10.1802511762
 20
-22.2034793121
 10
10.1888470748
 20
-22.2192744692
 10
10.1967428886
 20
-22.2345375599
 10
10.2037660281
 20
-22.2491111649
 10
10.2100890829
 20
-22.2631527034
 10
10.2158722968
 20
-22.2768511646
 10
10.221031327
 20
-22.2901188447
 10
10.2256505163
 20
-22.3030434474
 10
10.2301431366
 20
-22.3160770734
 10
10.2345497388
 20
-22.3292768121
 10
10.2432748551
 20
-22.3562841907
  0
LWPOLYLINE
  5
32C
100
AcDbEntity
  8
RACCORDO
100
AcDbPolyline
 62
250
  6
CONTINUOUS
 90
16
 70
0
 10
-10.9244277228
 20
21.9991808741
 10
-10.9366731224
 20
22.0288582751
 10
-10.9497145944
 20
22.0578795984
 10
-10.963552139
 20
22.0862448439
 10
-10.9786072455
 20
22.1138630441
 10
-10.9944584246
 20
22.1408251666
 10
-11.0098412076
 20
22.1674041138
 10
-11.0246276575
 20
22.1936000008
 10
-11.0389457113
 20
22.2194127126
 10
-11.0519147112
 20
22.2451148062
 10
-11.0629355409
 20
22.2707063744
 10
-11.0726073167
 20
22.2961873244
 10
-11.0818467289
 20
22.3218299342
 10
-11.0909593411
 20
22.347724963
 10
-11.0996395897
 20
22.3737816516
 10
-11.1078874748
 20
22.4
  0
LINE
  5
32D
100
AcDbEntity
  8
RACCORDO
100
AcDbLine
 62
250
  6
CONTINUOUS
 10
-10.9244277228
 20
21.9991808741
 11
-10.9242759622
 21
21.998725222
  0
LINE
  5
32E
100
AcDbEntity
  8
RACCORDO
100
AcDbLine
 62
7
  6
CONTINUOUS
 10
-4.825
 20
22.4
 11
-4.8220741618
 21
22.3736436632
  0
LINE
  5
32F
100
AcDbEntity
  8
0
100
AcDbLine
 62
250
  6
CONTINUOUS
 10
-0.9294178173
 20
7.8754636062
 11
-0.9294178173
 21
4.5245363938
  0
LINE
  5
330
100
AcDbEntity
  8
0
100
AcDbLine
 62
250
  6
CONTINUOUS
 10
-0.9294178173
 20
-4.5245363938
 11
-0.9294178173
 21
-7.8754636062
  0
LINE
  5
331
100
AcDbEntity
  8
0
100
AcDbLine
 62
7
  6
CONTINUOUS
 10
-0.519367311
 20
-7.9471847928
 11
-0.519367311
 21
-4.4528152072
  0
LINE
  5
332
100
AcDbEntity
  8
0
100
AcDbLine
 62
7
  6
CONTINUOUS
 10
-0.519367311
 20
4.4528152072
 11
-0.519367311
 21
7.9471847928
  0
LINE
  5
333
100
AcDbEntity
  8
ASSI
100
AcDbLine
 62
7
  6
CONTINUOUS
 10
-0.425
 20
6.0
 11
-0.425
 21
4.45
  0
LINE
  5
334
100
AcDbEntity
  8
ASSI
100
AcDbLine
 62
7
  6
CONTINUOUS
 10
-0.425
 20
-4.45
 11
-0.425
 21
-6.0
  0
LINE
  5
335
100
AcDbEntity
  8
0
100
AcDbLine
 62
7
  6
CONTINUOUS
 10
-0.330632689
 20
7.9471847928
 11
-0.330632689
 21
4.4528152072
  0
LINE
  5
336
100
AcDbEntity
  8
0
100
AcDbLine
 62
7
  6
CONTINUOUS
 10
-0.330632689
 20
-4.4528152072
 11
-0.330632689
 21
-7.9471847928
  0
LINE
  5
337
100
AcDbEntity
  8
0
100
AcDbLine
 62
250
  6
CONTINUOUS
 10
0.0794178173
 20
-7.8754636062
 11
0.0794178173
 21
-4.5245363938
  0
LINE
  5
338
100
AcDbEntity
  8
0
100
AcDbLine
 62
250
  6
CONTINUOUS
 10
0.0794178173
 20
4.5245363938
 11
0.0794178173
 21
7.8754636062
  0
LWPOLYLINE
  5
339
100
AcDbEntity
  8
0
100
AcDbPolyline
 62
7
  6
CONTINUOUS
 90
2
 70
0
 43
0.3500000087
 10
18.9002806503
 20
-1.3571421616
 10
17.4002802513
 20
-1.3571421616
  0
LINE
  5
33A
100
AcDbEntity
  8
RACCORDO
100
AcDbLine
 62
7
  6
CONTINUOUS
 10
3.975
 20
22.4
 11
3.9720741618
 21
22.3736436632
  0
LINE
  5
33B
100
AcDbEntity
  8
RACCORDO
100
AcDbLine
 62
250
  6
CONTINUOUS
 10
-10.9739973351
 20
-22.1052148163
 11
-10.9953076649
 21
-22.142397878
  0
LWPOLYLINE
  5
33C
100
AcDbEntity
  8
RACCORDO
100
AcDbPolyline
 62
250
  6
CONTINUOUS
 90
8
 70
0
 10
-10.9953076649
 20
-22.142397878
 10
-11.018278585
 20
-22.1818970249
 10
-11.0296759236
 20
-22.2023650466
 10
-11.0407879665
 20
-22.2232619953
 10
-11.0516249112
 20
-22.244587863
 10
-11.0615682995
 20
-22.2661924851
 10
-11.0701652954
 20
-22.2880766858
 10
-11.077868735
 20
-22.3102396408
  0
LWPOLYLINE
  5
33D
100
AcDbEntity
  8
RACCORDO
100
AcDbPolyline
 62
250
  6
CONTINUOUS
 90
9
 70
0
 10
10.0742759622
 20
-21.998725222
 10
10.0799623752
 20
-22.0143139686
 10
10.0861465696
 20
-22.0297857889
 10
10.0928285452
 20
-22.0451406829
 10
10.1000295723
 20
-22.060257192
 10
10.1077283806
 20
-22.0752567748
 10
10.1158611602
 20
-22.0905038068
 10
10.1244929704
 20
-22.1061373697
 10
10.1427995163
 20
-22.1380939736
  0
LINE
  5
33E
100
AcDbEntity
  8
RACCORDO
100
AcDbLine
 62
7
  6
CONTINUOUS
 10
3.975
 20
-22.4
 11
3.9720741618
 21
-22.3736436632
  0
LINE
  5
33F
100
AcDbEntity
  8
RACCORDO
100
AcDbLine
 62
250
  6
CONTINUOUS
 10
3.4720826234
 20
-23.5953423515
 11
3.4720826234
 21
-22.3475922207
  0
LINE
  5
340
100
AcDbEntity
  8
RACCORDO
100
AcDbLine
 62
250
  6
CONTINUOUS
 10
3.4720826234
 20
22.3475922207
 11
3.4720826234
 21
23.5953423515
  0
LWPOLYLINE
  5
341
100
AcDbEntity
  8
RACCORDO
100
AcDbPolyline
 62
250
  6
CONTINUOUS
 90
17
 70
0
 10
10.5741998097
 20
21.4994104546
 10
10.5740172046
 20
21.498807296
 10
10.5738347501
 20
21.4980946531
 10
10.573652446
 20
21.4972725258
 10
10.5734702692
 20
21.4963407692
 10
10.5732882428
 20
21.4952995282
 10
10.5731064371
 20
21.4941492376
 10
10.5729248534
 20
21.4928898817
 10
10.5727434903
 20
21.4915214762
 10
10.5725624135
 20
21.4900445026
 10
10.5723816251
 20
21.4884589214
 10
10.572201123
 20
21.4867647722
 10
10.5720209666
 20
21.4849626546
 10
10.5718411572
 20
21.4830525559
 10
10.5716616934
 20
21.4810344887
 10
10.5714826301
 20
21.4789090908
 10
10.5711257051
 20
21.474336248
  0
LWPOLYLINE
  5
342
100
AcDbEntity
  8
RACCORDO
100
AcDbPolyline
 62
250
  6
CONTINUOUS
 90
7
 70
0
 10
10.6709982236
 20
21.8397834629
 10
10.66658323
 20
21.8257712893
 10
10.6620390331
 20
21.8108875338
 10
10.6573899968
 20
21.7952632735
 10
10.6525727704
 20
21.7786247399
 10
10.6475403006
 20
21.760720597
 10
10.6370485995
 20
21.7223497319
  0
LINE
  5
343
100
AcDbEntity
  8
RACCORDO
100
AcDbLine
 62
250
  6
CONTINUOUS
 10
10.2432100958
 20
22.3560992404
 11
10.2344932607
 21
22.3290992421
  0
LINE
  5
344
100
AcDbEntity
  8
RACCORDO
100
AcDbLine
 62
250
  6
CONTINUOUS
 10
10.6796501349
 20
21.8662532954
 11
10.6709982236
 21
21.8397834629
  0
LWPOLYLINE
  5
345
100
AcDbEntity
  8
RACCORDO
100
AcDbPolyline
 62
250
  6
CONTINUOUS
 90
13
 70
0
 10
10.2344932607
 20
22.3290992421
 10
10.2300897742
 20
22.3159047159
 10
10.2255848073
 20
22.3028428033
 10
10.2209479883
 20
22.2898804618
 10
10.2157827837
 20
22.2766063312
 10
10.2100075208
 20
22.262948456
 10
10.2037038723
 20
22.2489787916
 10
10.1967203229
 20
22.234501845
 10
10.1888991412
 20
22.2193756811
 10
10.1803980587
 20
22.2037422349
 10
10.1715387539
 20
22.1878318187
 10
10.1622609621
 20
22.1715806691
 10
10.1431331844
 20
22.1386690617
  0
LWPOLYLINE
  5
346
100
AcDbEntity
  8
RACCORDO
100
AcDbPolyline
 62
250
  6
CONTINUOUS
 90
3
 70
0
 10
10.257892514
 20
22.4
 10
10.2528248083
 20
22.3849546096
 10
10.2432100958
 20
22.3560992404
  0
LINE
  5
347
100
AcDbEntity
  8
RACCORDO
100
AcDbLine
 62
250
  6
CONTINUOUS
 10
10.7075779097
 20
21.9498978415
 11
10.6796501349
 21
21.8662532954
  0
LINE
  5
348
100
AcDbEntity
  8
RACCORDO
100
AcDbLine
 62
250
  6
CONTINUOUS
 10
10.6813358052
 20
-21.8713815411
 11
10.7075780505
 21
-21.9498977711
  0
LINE
  5
349
100
AcDbEntity
  8
RACCORDO
100
AcDbLine
 62
250
  6
CONTINUOUS
 10
10.2432748551
 20
-22.3562841907
 11
10.257892023
 21
-22.4
  0
LWPOLYLINE
  5
34A
100
AcDbEntity
  8
RACCORDO
100
AcDbPolyline
 62
250
  6
CONTINUOUS
 90
5
 70
0
 10
10.5741998097
 20
-21.4994104546
 10
10.5800168396
 20
-21.5175213906
 10
10.5857970998
 20
-21.5361645244
 10
10.5915405905
 20
-21.555339856
 10
10.5971965931
 20
-21.5749817898
  0
LINE
  5
34B
100
AcDbEntity
  8
RACCORDO
100
AcDbLine
 62
250
  6
CONTINUOUS
 10
3.9720741618
 20
-23.7970741618
 11
3.9720741618
 21
-22.3736436632
  0
LINE
  5
34C
100
AcDbEntity
  8
RACCORDO
100
AcDbLine
 62
250
  6
CONTINUOUS
 10
3.9720741618
 20
22.3736436632
 11
3.9720741618
 21
23.7970741618
  0
LINE
  5
34D
100
AcDbEntity
  8
DRAFT
100
AcDbLine
 62
7
  6
CONTINUOUS
 10
3.975
 20
23.8
 11
3.975
 21
22.4
  0
LINE
  5
34E
100
AcDbEntity
  8
DRAFT
100
AcDbLine
 62
7
  6
CONTINUOUS
 10
3.975
 20
-22.4
 11
3.975
 21
-23.8
  0
LWPOLYLINE
  5
34F
100
AcDbEntity
  8
RACCORDO
100
AcDbPolyline
 62
250
  6
CONTINUOUS
 90
13
 70
0
 10
10.0742759622
 20
21.998725222
 10
10.0740934209
 20
21.9978204543
 10
10.0739109998
 20
21.9967512976
 10
10.0737286987
 20
21.995517854
 10
10.073546476
 20
21.9941202276
 10
10.0733643734
 20
21.9925585689
 10
10.0731825161
 20
21.9908330931
 10
10.0730009342
 20
21.9889439901
 10
10.0728195976
 20
21.9868914684
 10
10.0726385406
 20
21.9846758297
 10
10.0724577522
 20
21.9822973613
 10
10.0722772434
 20
21.9797563175
 10
10.0719172732
 20
21.9741877258
  0
LINE
  5
350
100
AcDbEntity
  8
RACCORDO
100
AcDbLine
 62
250
  6
CONTINUOUS
 10
10.6370485995
 20
21.7223497319
 11
10.6100399195
 21
21.6215270335
  0
LWPOLYLINE
  5
351
100
AcDbEntity
  8
RACCORDO
100
AcDbPolyline
 62
250
  6
CONTINUOUS
 90
7
 70
0
 10
10.6100399195
 20
21.6215270335
 10
10.5997043465
 20
21.5839734756
 10
10.594680125
 20
21.566169232
 10
10.5896283371
 20
21.5488243063
 10
10.5845130609
 20
21.5318937045
 10
10.5793702185
 20
21.5154224206
 10
10.5741998097
 20
21.4994104546
  0
LWPOLYLINE
  5
352
100
AcDbEntity
  8
RACCORDO
100
AcDbPolyline
 62
250
  6
CONTINUOUS
 90
97
 70
0
 10
-0.425
 20
4.1412779953
 10
-0.4916133051
 20
4.1423303649
 10
-0.5582033482
 20
4.1455670455
 10
-0.6247701291
 20
4.1509880369
 10
-0.6914145994
 20
4.1585937992
 10
-0.7580358075
 20
4.1683838708
 10
-0.8243308994
 20
4.1803568685
 10
-0.8902962991
 20
4.1945301824
 10
-0.9559355827
 20
4.2108864195
 10
-1.0209566237
 20
4.229372022
 10
-1.0853512476
 20
4.2500020271
 10
-1.1491276289
 20
4.2727613932
 10
-1.2120181652
 20
4.297551444
 10
-1.2739942979
 20
4.3243721005
 10
-1.3350845856
 20
4.3532234362
 10
-1.3951071021
 20
4.3840070025
 10
-1.4540496054
 20
4.4167201519
 10
-1.5119243375
 20
4.4513655253
 10
-1.5685860978
 20
4.4878526066
 10
-1.6240432354
 20
4.5261912609
 10
-1.6782874011
 20
4.5663716152
 10
-1.7311483469
 20
4.6082735463
 10
-1.7826284996
 20
4.6519091823
 10
-1.8327254325
 20
4.6972663863
 10
-1.8812616172
 20
4.7441886369
 10
-1.9282277467
 20
4.7926790898
 10
-1.9736331281
 20
4.84273458
 10
-2.0173281541
 20
4.8941891051
 10
-2.0593046477
 20
4.9470439278
 10
-2.0995707859
 20
5.0012977757
 10
-2.138001493
 20
5.0567808451
 10
-2.1745918306
 20
5.1134973547
 10
-2.2093467372
 20
5.171443076
 10
-2.2421559519
 20
5.2304355362
 10
-2.2730143019
 20
5.2904799356
 10
-2.3019269601
 20
5.3515710643
 10
-2.3287991835
 20
5.4135108359
 10
-2.3536240546
 20
5.4763017844
 10
-2.3764084909
 20
5.5399413669
 10
-2.3970785019
 20
5.6042238826
 10
-2.4156270624
 20
5.6691509758
 10
-2.4320611975
 20
5.7347209945
 10
-2.4463279922
 20
5.8007232947
 10
-2.4584204781
 20
5.867159152
 10
-2.4683456236
 20
5.9340272846
 10
-2.4760714181
 20
6.0011132139
 10
-2.4815908031
 20
6.0684179838
 10
-2.4849108371
 20
6.1359405459
 10
-2.4860206855
 20
6.2034632854
 10
-2.4849131527
 20
6.2709862151
 10
-2.4815954342
 20
6.3385093197
 10
-2.4760782819
 20
6.4058149445
 10
-2.4683546298
 20
6.4729020597
 10
-2.458431544
 20
6.5397716949
 10
-2.4463409742
 20
6.6062092868
 10
-2.4320759491
 20
6.6722135492
 10
-2.4156434402
 20
6.7377857705
 10
-2.3970963118
 20
6.8027152511
 10
-2.3764275334
 20
6.8670003537
 10
-2.3536441354
 20
6.9306427202
 10
-2.3288200743
 20
6.9934365728
 10
-2.3019483987
 20
7.0553794223
 10
-2.2730360598
 20
7.1164737649
 10
-2.2421778678
 20
7.1765213025
 10
-2.2093686076
 20
7.2355168498
 10
-2.1746134943
 20
7.2934656013
 10
-2.1380229827
 20
7.35018483
 10
-2.0995921897
 20
7.4056702112
 10
-2.0593259985
 20
7.4599260804
 10
-2.0173495142
 20
7.5127827027
 10
-1.9736546656
 20
7.5642387408
 10
-1.9282495239
 20
7.614295544
 10
-1.8812834072
 20
7.6627874089
 10
-1.8327468695
 20
7.7097113435
 10
-1.7826493567
 20
7.7550703525
 10
-1.7311685243
 20
7.7987077294
 10
-1.678306446
 20
7.8406115077
 10
-1.624061048
 20
7.8807936669
 10
-1.5686037637
 20
7.9191334198
 10
-1.511943172
 20
7.9556206189
 10
-1.454070694
 20
7.9902654244
 10
-1.395132026
 20
8.0229775106
 10
-1.3351157466
 20
8.0537592266
 10
-1.2740332773
 20
8.0826082348
 10
-1.212064578
 20
8.1094271799
 10
-1.1491811963
 20
8.1342164173
 10
-1.0854115846
 20
8.1569756016
 10
-1.0210210605
 20
8.1776063263
 10
-0.9560007501
 20
8.1960939097
 10
-0.8903595272
 20
8.2124530415
 10
-0.8243893312
 20
8.2266293717
 10
-0.7580853863
 20
8.2386055295
 10
-0.6914524683
 20
8.2483988914
 10
-0.6247968439
 20
8.2560072274
 10
-0.5582206022
 20
8.2614297952
 10
-0.4916216543
 20
8.26466734
 10
-0.425
 20
8.2657198624
  0
LWPOLYLINE
  5
353
100
AcDbEntity
  8
RACCORDO
100
AcDbPolyline
 62
250
  6
CONTINUOUS
 90
97
 70
0
 10
-0.425
 20
4.4387818054
 10
-0.4818426012
 20
4.4396994055
 10
-0.5387805587
 20
4.4424612597
 10
-0.5957534794
 20
4.4470794933
 10
-0.6527221724
 20
4.4535671431
 10
-0.7096023386
 20
4.4619309226
 10
-0.7662656899
 20
4.472163994
 10
-0.822650532
 20
4.4842640235
 10
-0.8786941512
 20
4.4982264298
 10
-0.934269048
 20
4.514024939
 10
-0.9893116022
 20
4.5316433508
 10
-1.0437652436
 20
4.5510654614
 10
-1.0975172708
 20
4.5722501641
 10
-1.150490874
 20
4.5951620355
 10
-1.2026514777
 20
4.6197809029
 10
-1.2539527572
 20
4.6460813167
 10
-1.3043324035
 20
4.6740276465
 10
-1.3537467547
 20
4.7035919226
 10
-1.40217678
 20
4.7347617314
 10
-1.4495787559
 20
4.7675107698
 10
-1.4958923376
 20
4.8017992248
 10
-1.5410727843
 20
4.83759568
 10
-1.5850766242
 20
4.8748683845
 10
-1.6278492176
 20
4.9135738212
 10
-1.6693315637
 20
4.9536597981
 10
-1.7094764999
 20
4.9950805636
 10
-1.7482436894
 20
5.0377943137
 10
-1.7855880235
 20
5.0817510325
 10
-1.821467623
 20
5.1269004166
 10
-1.8558467395
 20
5.173196429
 10
-1.8886918192
 20
5.2205935082
 10
-1.9199679553
 20
5.2690414055
 10
-1.9496411933
 20
5.3184876501
 10
-1.9776812381
 20
5.3688821323
 10
-2.0040584949
 20
5.4201725865
 10
-2.0287434489
 20
5.4723025975
 10
-2.0517084956
 20
5.5252144461
 10
-2.0729287474
 20
5.5788511401
 10
-2.092381418
 20
5.633155455
 10
-2.1100451534
 20
5.6880680185
 10
-2.1259008584
 20
5.7435295153
 10
-2.1399316204
 20
5.7994808323
 10
-2.1521223749
 20
5.8558619769
 10
-2.1624599865
 20
5.9126123592
 10
-2.1709333483
 20
5.969671181
 10
-2.1775333826
 20
6.0269775498
 10
-2.1822529552
 20
6.0844702652
 10
-2.1850868951
 20
6.1420873463
 10
-2.1860321137
 20
6.1997664305
 10
-2.1850875782
 20
6.2574456273
 10
-2.1822542863
 20
6.3150630263
 10
-2.1775353417
 20
6.3725562377
 10
-2.1709358826
 20
6.429863288
 10
-2.1624630118
 20
6.4869229631
 10
-2.1521258325
 20
6.5436743171
 10
-2.139935427
 20
6.6000565408
 10
-2.1259049031
 20
6.656009045
 10
-2.1100493532
 20
6.7114718096
 10
-2.0923856661
 20
6.7663857184
 10
-2.0729329142
 20
6.8206914462
 10
-2.0517124854
 20
6.8743295904
 10
-2.0287471288
 20
6.9272429605
 10
-2.0040617269
 20
6.9793745155
 10
-1.9776839836
 20
7.0306663951
 10
-1.949643394
 20
7.0810622105
 10
-1.919969559
 20
7.1305096689
 10
-1.8886929461
 20
7.1789584652
 10
-1.8558475813
 20
7.2263560637
 10
-1.8214683298
 20
7.2726523154
 10
-1.7855887606
 20
7.3178017286
 10
-1.7482446973
 20
7.3617582035
 10
-1.7094779566
 20
7.4044715368
 10
-1.6693334211
 20
7.4458920054
 10
-1.6278512684
 20
7.4859779251
 10
-1.5850787609
 20
7.5246833996
 10
-1.5410750453
 20
7.5619561259
 10
-1.4958944873
 20
7.5977527915
 10
-1.4495807915
 20
7.6320414296
 10
-1.4021796824
 20
7.6647899913
 10
-1.3537517931
 20
7.6959586119
 10
-1.3043406558
 20
7.7255212533
 10
-1.2539656364
 20
7.7534654707
 10
-1.2026710915
 20
7.7797631059
 10
-1.1505187262
 20
7.8043790287
 10
-1.0975531737
 20
7.8272886593
 10
-1.043808954
 20
7.8484717967
 10
-0.9893628189
 20
7.8678929817
 10
-0.934325634
 20
7.8855116249
 10
-0.8787532579
 20
7.9013114717
 10
-0.8227098218
 20
7.915275893
 10
-0.7663227821
 20
7.9273783867
 10
-0.7096545094
 20
7.937614194
 10
-0.6527669409
 20
7.9459806796
 10
-0.5957892373
 20
7.9524706818
 10
-0.5388059951
 20
7.957090749
 10
-0.4818561133
 20
7.9598538128
 10
-0.425
 20
7.9607718536
  0
LINE
  5
354
100
AcDbEntity
  8
RACCORDO
100
AcDbLine
 62
250
  6
CONTINUOUS
 10
10.5971965931
 20
-21.5749817898
 11
10.6085504447
 21
-21.6160590372
  0
LWPOLYLINE
  5
355
100
AcDbEntity
  8
RACCORDO
100
AcDbPolyline
 62
250
  6
CONTINUOUS
 90
9
 70
0
 10
10.6389749459
 20
-21.7295003182
 10
10.6449838534
 20
-21.7514954284
 10
10.6507159495
 20
-21.7719710868
 10
10.6562501551
 20
-21.7913125505
 10
10.6615879242
 20
-21.809444028
 10
10.6666619031
 20
-21.8260296167
 10
10.6715394457
 20
-21.8414052191
 10
10.6764240667
 20
-21.856502752
 10
10.6813358052
 20
-21.8713815411
  0
LINE
  5
356
100
AcDbEntity
  8
RACCORDO
100
AcDbLine
 62
250
  6
CONTINUOUS
 10
10.6085504447
 20
-21.6160590372
 11
10.6389749459
 21
-21.7295003182
  0
LWPOLYLINE
  5
357
100
AcDbEntity
  8
RACCORDO
100
AcDbPolyline
 62
250
  6
CONTINUOUS
 90
31
 70
0
 10
7.8380985787
 20
-24.2369056521
 10
7.8384417677
 20
-24.2499920062
 10
7.8394695107
 20
-24.2630425045
 10
7.8411789939
 20
-24.2760213619
 10
7.8435655366
 20
-24.2888930016
 10
7.8466225977
 20
-24.3016221155
 10
7.8503417872
 20
-24.314173763
 10
7.8547129023
 20
-24.3265135191
 10
7.8597239578
 20
-24.3386075563
 10
7.8653612061
 20
-24.3504227019
 10
7.8716091852
 20
-24.3619265577
 10
7.878450761
 20
-24.3730875837
 10
7.8858671679
 20
-24.383875174
 10
7.8938380761
 20
-24.3942597633
 10
7.9023416176
 20
-24.4042128667
 10
7.9113544367
 20
-24.4137071599
 10
7.9208517711
 20
-24.4227165817
 10
7.9308076083
 20
-24.4312164786
 10
7.9411947342
 20
-24.4391836209
 10
7.9519848134
 20
-24.4465962509
 10
7.9631481318
 20
-24.4534339327
 10
7.9746537322
 20
-24.4596777344
 10
7.9864698104
 20
-24.465310483
 10
7.9985641666
 20
-24.4703169129
 10
8.0109039705
 20
-24.474683464
 10
8.0234581551
 20
-24.4783989037
 10
8.0361896202
 20
-24.4814520171
 10
8.049055339
 20
-24.4838331472
 10
8.0620171136
 20
-24.4855367515
 10
8.075042008
 20
-24.4865600141
 10
8.0880943479
 20
-24.4869014213
  0
LWPOLYLINE
  5
358
100
AcDbEntity
  8
RACCORDO
100
AcDbPolyline
 62
7
  6
CONTINUOUS
 90
34
 70
0
 10
7.825
 20
-24.2500042308
 10
7.8252831502
 20
-24.261899516
 10
7.8261319658
 20
-24.2737678556
 10
7.8275445259
 20
-24.2855823661
 10
7.8295176323
 20
-24.2973162875
 10
7.8320468183
 20
-24.3089430388
 10
7.8351263583
 20
-24.320436279
 10
7.8387492787
 20
-24.3317699738
 10
7.8429073742
 20
-24.3429184493
 10
7.8475912278
 20
-24.3538564463
 10
7.8527902312
 20
-24.3645591876
 10
7.8584926084
 20
-24.3750024283
 10
7.8646854419
 20
-24.3851625059
 10
7.8713547045
 20
-24.3950164051
 10
7.8784852893
 20
-24.4045418038
 10
7.8860610411
 20
-24.4137171191
 10
7.8940647995
 20
-24.4225215661
 10
7.9024784339
 20
-24.4309352005
 10
7.9112828809
 20
-24.4389389589
 10
7.9204581962
 20
-24.4465147107
 10
7.9299835949
 20
-24.4536452955
 10
7.9398374941
 20
-24.4603145581
 10
7.9499975717
 20
-24.4665073916
 10
7.9604408124
 20
-24.4722097688
 10
7.9711435537
 20
-24.4774087722
 10
7.9820815507
 20
-24.4820926258
 10
7.9932300262
 20
-24.4862507213
 10
8.004563721
 20
-24.4898736417
 10
8.0160569612
 20
-24.4929531817
 10
8.0276837125
 20
-24.4954823677
 10
8.0394176339
 20
-24.4974554741
 10
8.0512321444
 20
-24.4988680342
 10
8.063100484
 20
-24.4997168498
 10
8.0749957692
 20
-24.5
  0
LWPOLYLINE
  5
359
100
AcDbEntity
  8
RACCORDO
100
AcDbPolyline
 62
250
  6
CONTINUOUS
 90
15
 70
0
 10
10.5716618817
 20
-21.4810366616
 10
10.5718413592
 20
-21.483054758
 10
10.5720211766
 20
-21.4849648223
 10
10.572201334
 20
-21.4867668203
 10
10.5723818314
 20
-21.4884607863
 10
10.5725626085
 20
-21.4900461501
 10
10.5727436656
 20
-21.4915228662
 10
10.5729250025
 20
-21.4928909801
 10
10.5731065587
 20
-21.4941500589
 10
10.5732883351
 20
-21.4953000867
 10
10.5734703307
 20
-21.4963410794
 10
10.5736524823
 20
-21.4972726511
 10
10.5738347688
 20
-21.4980946732
 10
10.5740172113
 20
-21.4988072744
 10
10.5741998097
 20
-21.4994104546
  0
LINE
  5
35A
100
AcDbEntity
  8
RACCORDO
100
AcDbLine
 62
250
  6
CONTINUOUS
 10
10.5713041254
 20
-21.4766783555
 11
10.5716618817
 21
-21.4810366616
  0
LINE
  5
35B
100
AcDbEntity
  8
RACCORDO
100
AcDbLine
 62
250
  6
CONTINUOUS
 10
10.5709480257
 20
-21.4718913476
 11
10.5713041254
 21
-21.4766783555
  0
LWPOLYLINE
  5
35C
100
AcDbEntity
  8
RACCORDO
100
AcDbPolyline
 62
250
  6
CONTINUOUS
 90
12
 70
0
 10
10.0722774514
 20
-21.9797593508
 10
10.0724579525
 20
-21.9823001351
 10
10.0726387293
 20
-21.9846782716
 10
10.0728197738
 20
-21.9868935003
 10
10.0730010941
 20
-21.9889455781
 10
10.0731826492
 20
-21.9908342722
 10
10.0733644574
 20
-21.9925593719
 10
10.0735465003
 20
-21.9941206978
 10
10.0737286819
 20
-21.9955180903
 10
10.07391097
 20
-21.9967513979
 10
10.0740933968
 20
-21.9978204812
 10
10.0742759622
 20
-21.998725222
  0
LINE
  5
35D
100
AcDbEntity
  8
RACCORDO
100
AcDbLine
 62
250
  6
CONTINUOUS
 10
10.5705937584
 20
-21.4666779288
 11
10.5709480257
 21
-21.4718913476
  0
LINE
  5
35E
100
AcDbEntity
  8
RACCORDO
100
AcDbLine
 62
250
  6
CONTINUOUS
 10
10.0719174744
 20
-21.9741910038
 11
10.0722774514
 21
-21.9797593508
  0
LINE
  5
35F
100
AcDbEntity
  8
RACCORDO
100
AcDbLine
 62
250
  6
CONTINUOUS
 10
10.5702414934
 20
-21.4610406899
 11
10.5705937584
 21
-21.4666779288
  0
LINE
  5
360
100
AcDbEntity
  8
RACCORDO
100
AcDbLine
 62
250
  6
CONTINUOUS
 10
10.0715589218
 20
-21.9679757029
 11
10.0719174744
 21
-21.9741910038
  0
LWPOLYLINE
  5
361
100
AcDbEntity
  8
RACCORDO
100
AcDbPolyline
 62
250
  6
CONTINUOUS
 90
3
 70
0
 10
10.5695434887
 20
-21.4485031593
 10
10.5697171308
 20
-21.4517946893
 10
10.5702414934
 20
-21.4610406899
  0
LINE
  5
362
100
AcDbEntity
  8
RACCORDO
100
AcDbLine
 62
250
  6
CONTINUOUS
 10
10.0712019656
 20
-21.9611162268
 11
10.0715589218
 21
-21.9679757029
  0
LWPOLYLINE
  5
363
100
AcDbEntity
  8
RACCORDO
100
AcDbPolyline
 62
7
  6
CONTINUOUS
 90
34
 70
0
 10
7.8322807489
 20
23.2669872981
 10
7.8325784753
 20
23.260745719
 10
7.8333497267
 20
23.254472608
 10
7.8346000894
 20
23.2481861919
 10
7.8363341367
 20
23.2419121598
 10
7.8385555794
 20
23.2356626215
 10
7.8412675994
 20
23.2294361375
 10
7.8444720963
 20
23.2232532001
 10
7.8481700208
 20
23.2171335699
 10
7.8523622718
 20
23.2110754134
 10
7.857047756
 20
23.2051002367
 10
7.8622243979
 20
23.199228829
 10
7.8678907687
 20
23.1934590071
 10
7.8740425526
 20
23.1878130261
 10
7.880674335
 20
23.182312533
 10
7.8877821378
 20
23.1769551973
 10
7.8953581333
 20
23.171763745
 10
7.9033932153
 20
23.1667604362
 10
7.9118804409
 20
23.1619430222
 10
7.9208081504
 20
23.1573343288
 10
7.9301631291
 20
23.1529569199
 10
7.9399348037
 20
23.148808872
 10
7.9501073149
 20
23.1449126131
 10
7.960662902
 20
23.1412905703
 10
7.9715865028
 20
23.137941334
 10
7.9828575603
 20
23.1348863009
 10
7.9944534848
 20
23.1321470947
 10
8.0063541826
 20
23.1297228132
 10
8.0185210103
 20
23.1276360125
 10
8.0309390652
 20
23.1259025536
 10
8.0436230593
 20
23.1245164325
 10
8.0565577699
 20
23.1234933505
 10
8.0696962714
 20
23.1228641607
 10
8.0830037468
 20
23.1226497308
  0
LWPOLYLINE
  5
364
100
AcDbEntity
  8
RACCORDO
100
AcDbPolyline
 62
7
  6
CONTINUOUS
 90
34
 70
0
 10
10.2177192511
 20
-23.2669872981
 10
10.2174215247
 20
-23.260745719
 10
10.2166502733
 20
-23.254472608
 10
10.2153999106
 20
-23.2481861919
 10
10.2136658633
 20
-23.2419121598
 10
10.2114444206
 20
-23.2356626215
 10
10.2087324006
 20
-23.2294361375
 10
10.2055279037
 20
-23.2232532001
 10
10.2018299792
 20
-23.2171335699
 10
10.1976377282
 20
-23.2110754134
 10
10.192952244
 20
-23.2051002367
 10
10.1877756021
 20
-23.199228829
 10
10.1821092313
 20
-23.1934590071
 10
10.1759574474
 20
-23.1878130261
 10
10.169325665
 20
-23.182312533
 10
10.1622178622
 20
-23.1769551973
 10
10.1546418667
 20
-23.171763745
 10
10.1466067847
 20
-23.1667604362
 10
10.1381195591
 20
-23.1619430222
 10
10.1291918496
 20
-23.1573343288
 10
10.1198368709
 20
-23.1529569199
 10
10.1100651963
 20
-23.148808872
 10
10.0998926851
 20
-23.1449126131
 10
10.089337098
 20
-23.1412905703
 10
10.0784134972
 20
-23.137941334
 10
10.0671424397
 20
-23.1348863009
 10
10.0555465152
 20
-23.1321470947
 10
10.0436458174
 20
-23.1297228132
 10
10.0314789897
 20
-23.1276360125
 10
10.0190609348
 20
-23.1259025536
 10
10.0063769407
 20
-23.1245164325
 10
9.9934422301
 20
-23.1234933505
 10
9.9803037286
 20
-23.1228641607
 10
9.9669962532
 20
-23.1226497308
  0
LINE
  5
365
100
AcDbEntity
  8
RACCORDO
100
AcDbLine
 62
250
  6
CONTINUOUS
 10
10.0706698789
 20
-21.9496258567
 11
10.0712019656
 21
-21.9611162268
  0
LINE
  5
366
100
AcDbEntity
  8
RACCORDO
100
AcDbLine
 62
250
  6
CONTINUOUS
 10
10.0701422555
 20
-21.9367041154
 11
10.0706698789
 21
-21.9496258567
  0
LINE
  5
367
100
AcDbEntity
  8
RACCORDO
100
AcDbLine
 62
250
  6
CONTINUOUS
 10
10.0694466016
 20
-21.9172706408
 11
10.0701422555
 21
-21.9367041154
  0
LWPOLYLINE
  5
368
100
AcDbEntity
  8
RACCORDO
100
AcDbPolyline
 62
250
  6
CONTINUOUS
 90
31
 70
0
 10
7.8380985787
 20
23.8443375673
 10
7.8384771343
 20
23.833039595
 10
7.8395362619
 20
23.821769291
 10
7.8412736384
 20
23.8105574212
 10
7.8436853398
 20
23.7994336121
 10
7.8467652101
 20
23.78842936
 10
7.8505042611
 20
23.7775778202
 10
7.8548918055
 20
23.7669096972
 10
7.8599162045
 20
23.7564530239
 10
7.8655638851
 20
23.746236105
 10
7.8718195777
 20
23.7362866999
 10
7.8786661523
 20
23.7266321754
 10
7.8860847605
 20
23.7172991519
 10
7.8940550646
 20
23.7083132018
 10
7.9025553594
 20
23.6996987826
 10
7.9115624499
 20
23.6914794042
 10
7.9210517535
 20
23.6836775075
 10
7.9309973406
 20
23.6763144193
 10
7.9413720235
 20
23.6694102704
 10
7.9521474559
 20
23.6629839239
 10
7.9632942139
 20
23.6570529269
 10
7.974781851
 20
23.6516334796
 10
7.9865790077
 20
23.6467403776
 10
7.9986534441
 20
23.6423869945
 10
8.0109721237
 20
23.6385852371
 10
8.0235013591
 20
23.6353454907
 10
8.0362069619
 20
23.6326765842
 10
8.0490542827
 20
23.6305857918
 10
8.06200825
 20
23.6290788219
 10
8.0750334638
 20
23.6281597935
 10
8.0880943479
 20
23.6278312164
  0
LWPOLYLINE
  5
369
100
AcDbEntity
  8
RACCORDO
100
AcDbPolyline
 62
250
  6
CONTINUOUS
 90
31
 70
0
 10
10.2119014213
 20
-23.8443375673
 10
10.2115220896
 20
-23.8330274168
 10
10.2104611076
 20
-23.8217481519
 10
10.2087213727
 20
-23.810530574
 10
10.2063076358
 20
-23.7994053159
 10
10.2032264882
 20
-23.7884027584
 10
10.199486344
 20
-23.7775529472
 10
10.1950974166
 20
-23.7668855107
 10
10.1900716913
 20
-23.7564295797
 10
10.1844228923
 20
-23.7462137069
 10
10.1781664453
 20
-23.7362657898
 10
10.1713194354
 20
-23.7266129942
 10
10.1639005603
 20
-23.7172816797
 10
10.1559300794
 20
-23.7082973282
 10
10.1474297583
 20
-23.6996844742
 10
10.1384228098
 20
-23.6914666374
 10
10.1289338299
 20
-23.6836662592
 10
10.118988731
 20
-23.6763046407
 10
10.1086146711
 20
-23.6694018849
 10
10.0978399796
 20
-23.6629768418
 10
10.0866940799
 20
-23.6570470569
 10
10.0752074091
 20
-23.6516287232
 10
10.0634113349
 20
-23.646736637
 10
10.05133807
 20
-23.6423841576
 10
10.0390205838
 20
-23.6385831707
 10
10.026492513
 20
-23.6353440559
 10
10.0137880689
 20
-23.6326756587
 10
10.0009419448
 20
-23.6305852658
 10
9.9879892207
 20
-23.6290785857
 10
9.9749652679
 20
-23.6281597328
 10
9.9619056521
 20
-23.6278312164
  0
LINE
  5
36A
100
AcDbEntity
  8
RACCORDO
100
AcDbLine
 62
250
  6
CONTINUOUS
 10
10.0687610303
 20
-21.8953493919
 11
10.0694466016
 21
-21.9172706408
  0
LINE
  5
36B
100
AcDbEntity
  8
RACCORDO
100
AcDbLine
 62
250
  6
CONTINUOUS
 10
7.8380985787
 20
-23.8443375673
 11
7.8322807489
 21
-23.2669872981
  0
LINE
  5
36C
100
AcDbEntity
  8
RACCORDO
100
AcDbLine
 62
250
  6
CONTINUOUS
 10
8.0880943479
 20
-23.6278312164
 11
8.0830037468
 21
-23.1226497308
  0
LINE
  5
36D
100
AcDbEntity
  8
RACCORDO
100
AcDbLine
 62
7
  6
CONTINUOUS
 10
7.825
 20
-22.4
 11
7.825
 21
-24.2500042308
  0
LINE
  5
36E
100
AcDbEntity
  8
RACCORDO
100
AcDbLine
 62
7
  6
CONTINUOUS
 10
7.825
 20
22.4
 11
7.825
 21
24.2500042308
  0
LINE
  5
36F
100
AcDbEntity
  8
RACCORDO
100
AcDbLine
 62
250
  6
CONTINUOUS
 10
7.8322807489
 20
-23.2669872981
 11
7.8322807489
 21
-22.3344140523
  0
LINE
  5
370
100
AcDbEntity
  8
RACCORDO
100
AcDbLine
 62
250
  6
CONTINUOUS
 10
7.8322807489
 20
22.3344140523
 11
7.8322807489
 21
23.2669872981
  0
LINE
  5
371
100
AcDbEntity
  8
RACCORDO
100
AcDbLine
 62
250
  6
CONTINUOUS
 10
7.8380985787
 20
24.2369056521
 11
7.8380985787
 21
23.8443375673
  0
LINE
  5
372
100
AcDbEntity
  8
RACCORDO
100
AcDbLine
 62
250
  6
CONTINUOUS
 10
7.8380985787
 20
-23.8443375673
 11
7.8380985787
 21
-24.2369056521
  0
LINE
  5
373
100
AcDbEntity
  8
RACCORDO
100
AcDbLine
 62
250
  6
CONTINUOUS
 10
8.0822765181
 20
-23.1226497308
 11
8.0822765181
 21
-22.3213883311
  0
LINE
  5
374
100
AcDbEntity
  8
RACCORDO
100
AcDbLine
 62
250
  6
CONTINUOUS
 10
8.0822765181
 20
22.3213883311
 11
8.0822765181
 21
23.1226497308
  0
LINE
  5
375
100
AcDbEntity
  8
RACCORDO
100
AcDbLine
 62
250
  6
CONTINUOUS
 10
8.0880943479
 20
-23.6278312164
 11
8.0880943479
 21
-24.4869014213
  0
LINE
  5
376
100
AcDbEntity
  8
RACCORDO
100
AcDbLine
 62
250
  6
CONTINUOUS
 10
8.0880943479
 20
23.6278312164
 11
8.0880943479
 21
24.4869014213
  0
LINE
  5
377
100
AcDbEntity
  8
RACCORDO
100
AcDbLine
 62
250
  6
CONTINUOUS
 10
7.8322807489
 20
23.2669872981
 11
7.8380985787
 21
23.8443375673
  0
LINE
  5
378
100
AcDbEntity
  8
RACCORDO
100
AcDbLine
 62
250
  6
CONTINUOUS
 10
8.0830037468
 20
23.1226497308
 11
8.0880943479
 21
23.6278312164
  0
LWPOLYLINE
  5
379
100
AcDbEntity
  8
RACCORDO
100
AcDbPolyline
 62
250
  6
CONTINUOUS
 90
31
 70
0
 10
7.8380985787
 20
-23.8443375673
 10
7.8384779104
 20
-23.8330274168
 10
7.8395388924
 20
-23.8217481519
 10
7.8412786273
 20
-23.810530574
 10
7.8436923642
 20
-23.7994053159
 10
7.8467735118
 20
-23.7884027584
 10
7.850513656
 20
-23.7775529472
 10
7.8549025834
 20
-23.7668855107
 10
7.8599283087
 20
-23.7564295797
 10
7.8655771077
 20
-23.7462137069
 10
7.8718335547
 20
-23.7362657898
 10
7.8786805646
 20
-23.7266129942
 10
7.8860994397
 20
-23.7172816797
 10
7.8940699206
 20
-23.7082973282
 10
7.9025702417
 20
-23.6996844742
 10
7.9115771902
 20
-23.6914666374
 10
7.9210661701
 20
-23.6836662592
 10
7.931011269
 20
-23.6763046407
 10
7.9413853289
 20
-23.6694018849
 10
7.9521600204
 20
-23.6629768418
 10
7.9633059201
 20
-23.6570470569
 10
7.9747925909
 20
-23.6516287232
 10
7.9865886651
 20
-23.646736637
 10
7.99866193
 20
-23.6423841576
 10
8.0109794162
 20
-23.6385831707
 10
8.023507487
 20
-23.6353440559
 10
8.0362119311
 20
-23.6326756587
 10
8.0490580552
 20
-23.6305852658
 10
8.0620107793
 20
-23.6290785857
 10
8.0750347321
 20
-23.6281597328
 10
8.0880943479
 20
-23.6278312164
  0
LWPOLYLINE
  5
37A
100
AcDbEntity
  8
RACCORDO
100
AcDbPolyline
 62
250
  6
CONTINUOUS
 90
31
 70
0
 10
10.2119014213
 20
23.8443375673
 10
10.2115228657
 20
23.833039595
 10
10.2104637381
 20
23.821769291
 10
10.2087263616
 20
23.8105574212
 10
10.2063146602
 20
23.7994336121
 10
10.2032347899
 20
23.78842936
 10
10.1994957389
 20
23.7775778202
 10
10.1951081945
 20
23.7669096972
 10
10.1900837955
 20
23.7564530239
 10
10.1844361149
 20
23.746236105
 10
10.1781804223
 20
23.7362866999
 10
10.1713338477
 20
23.7266321754
 10
10.1639152395
 20
23.7172991519
 10
10.1559449354
 20
23.7083132018
 10
10.1474446406
 20
23.6996987826
 10
10.1384375501
 20
23.6914794042
 10
10.1289482465
 20
23.6836775075
 10
10.1190026594
 20
23.6763144193
 10
10.1086279765
 20
23.6694102704
 10
10.0978525441
 20
23.6629839239
 10
10.0867057861
 20
23.6570529269
 10
10.075218149
 20
23.6516334796
 10
10.0634209923
 20
23.6467403776
 10
10.0513465559
 20
23.6423869945
 10
10.0390278763
 20
23.6385852371
 10
10.0264986409
 20
23.6353454907
 10
10.0137930381
 20
23.6326765842
 10
10.0009457173
 20
23.6305857918
 10
9.98799175
 20
23.6290788219
 10
9.9749665362
 20
23.6281597935
 10
9.9619056521
 20
23.6278312164
  0
LINE
  5
37B
100
AcDbEntity
  8
RACCORDO
100
AcDbLine
 62
250
  6
CONTINUOUS
 10
10.0696194923
 20
21.9223601661
 11
10.0687608937
 21
21.8953447423
  0
LINE
  5
37C
100
AcDbEntity
  8
RACCORDO
100
AcDbLine
 62
250
  6
CONTINUOUS
 10
10.0703175109
 20
21.9411670557
 11
10.0696194923
 21
21.9223601661
  0
LINE
  5
37D
100
AcDbEntity
  8
RACCORDO
100
AcDbLine
 62
250
  6
CONTINUOUS
 10
10.0708466663
 20
21.9536130196
 11
10.0703175109
 21
21.9411670557
  0
LWPOLYLINE
  5
37E
100
AcDbEntity
  8
RACCORDO
100
AcDbPolyline
 62
7
  6
CONTINUOUS
 90
34
 70
0
 10
7.8322807489
 20
-23.2669872981
 10
7.8325784753
 20
-23.260745719
 10
7.8333497267
 20
-23.254472608
 10
7.8346000894
 20
-23.2481861919
 10
7.8363341367
 20
-23.2419121598
 10
7.8385555794
 20
-23.2356626215
 10
7.8412675994
 20
-23.2294361375
 10
7.8444720963
 20
-23.2232532001
 10
7.8481700208
 20
-23.2171335699
 10
7.8523622718
 20
-23.2110754134
 10
7.857047756
 20
-23.2051002367
 10
7.8622243979
 20
-23.199228829
 10
7.8678907687
 20
-23.1934590071
 10
7.8740425526
 20
-23.1878130261
 10
7.880674335
 20
-23.182312533
 10
7.8877821378
 20
-23.1769551973
 10
7.8953581333
 20
-23.171763745
 10
7.9033932153
 20
-23.1667604362
 10
7.9118804409
 20
-23.1619430222
 10
7.9208081504
 20
-23.1573343288
 10
7.9301631291
 20
-23.1529569199
 10
7.9399348037
 20
-23.148808872
 10
7.9501073149
 20
-23.1449126131
 10
7.960662902
 20
-23.1412905703
 10
7.9715865028
 20
-23.137941334
 10
7.9828575603
 20
-23.1348863009
 10
7.9944534848
 20
-23.1321470947
 10
8.0063541826
 20
-23.1297228132
 10
8.0185210103
 20
-23.1276360125
 10
8.0309390652
 20
-23.1259025536
 10
8.0436230593
 20
-23.1245164325
 10
8.0565577699
 20
-23.1234933505
 10
8.0696962714
 20
-23.1228641607
 10
8.0830037468
 20
-23.1226497308
  0
LWPOLYLINE
  5
37F
100
AcDbEntity
  8
RACCORDO
100
AcDbPolyline
 62
7
  6
CONTINUOUS
 90
34
 70
0
 10
10.2177192511
 20
23.2669872981
 10
10.2174198287
 20
23.2606934229
 10
10.2166441239
 20
23.2544088409
 10
10.2153873851
 20
23.2481335519
 10
10.2136460224
 20
23.2418552807
 10
10.2114170759
 20
23.2355863026
 10
10.208697709
 20
23.2293634437
 10
10.2054867318
 20
23.2231861587
 10
10.2017838816
 20
23.2170549928
 10
10.1975882567
 20
23.2110084085
 10
10.1929014786
 20
23.205045942
 10
10.1877261214
 20
23.199168057
 10
10.1820632404
 20
23.1934146064
 10
10.1759174965
 20
23.1877851844
 10
10.1692945874
 20
23.1822801967
 10
10.1621976951
 20
23.1769407141
 10
10.1546347916
 20
23.1717664006
 10
10.1466150594
 20
23.1667575922
 10
10.1381442164
 20
23.1619563668
 10
10.129233882
 20
23.1573625195
 10
10.119897167
 20
23.1529762552
 10
10.1101430254
 20
23.1488402671
 10
10.0999871321
 20
23.1449546011
 10
10.0894470274
 20
23.1413192112
 10
10.0785358548
 20
23.1379766523
 10
10.0672738698
 20
23.1349274029
 10
10.0556834708
 20
23.1321709844
 10
10.0437828486
 20
23.1297485157
 10
10.031584335
 20
23.1276610792
 10
10.0191281847
 20
23.1259075925
 10
10.0064781276
 20
23.1245259271
 10
9.9936775292
 20
23.123528707
 10
9.980747957
 20
23.1229033082
 10
9.9677234819
 20
23.1226497308
  0
LINE
  5
380
100
AcDbEntity
  8
RACCORDO
100
AcDbLine
 62
250
  6
CONTINUOUS
 10
10.0712018254
 20
21.9611134028
 11
10.0708466663
 21
21.9536130196
  0
LINE
  5
381
100
AcDbEntity
  8
RACCORDO
100
AcDbLine
 62
250
  6
CONTINUOUS
 10
10.0715587501
 20
21.9679725648
 11
10.0712018254
 21
21.9611134028
  0
LINE
  5
382
100
AcDbEntity
  8
RACCORDO
100
AcDbLine
 62
250
  6
CONTINUOUS
 10
10.5700660262
 20
21.4580616025
 11
10.5695433685
 21
21.4485008372
  0
LINE
  5
383
100
AcDbEntity
  8
RACCORDO
100
AcDbLine
 62
250
  6
CONTINUOUS
 10
10.0719172732
 20
21.9741877258
 11
10.0715587501
 21
21.9679725648
  0
LINE
  5
384
100
AcDbEntity
  8
RACCORDO
100
AcDbLine
 62
250
  6
CONTINUOUS
 10
10.5704172631
 20
21.463910506
 11
10.5700660262
 21
21.4580616025
  0
LINE
  5
385
100
AcDbEntity
  8
RACCORDO
100
AcDbLine
 62
250
  6
CONTINUOUS
 10
10.5707705456
 20
21.4693362012
 11
10.5704172631
 21
21.463910506
  0
LINE
  5
386
100
AcDbEntity
  8
RACCORDO
100
AcDbLine
 62
250
  6
CONTINUOUS
 10
10.5711257051
 20
21.474336248
 11
10.5707705456
 21
21.4693362012
  0
LINE
  5
387
100
AcDbEntity
  8
RACCORDO
100
AcDbLine
 62
7
  6
CONTINUOUS
 10
10.225
 20
22.4
 11
10.2177192511
 21
22.3344140523
  0
LINE
  5
388
100
AcDbEntity
  8
RACCORDO
100
AcDbLine
 62
250
  6
CONTINUOUS
 10
-11.075
 20
-24.2500042308
 11
-11.0619014213
 21
-24.2369056521
  0
LWPOLYLINE
  5
389
100
AcDbEntity
  8
RACCORDO
100
AcDbPolyline
 62
250
  6
CONTINUOUS
 90
97
 70
0
 10
-0.425
 20
8.2657198624
 10
-0.358392252
 20
8.2646677014
 10
-0.2918075175
 20
8.2614315382
 10
-0.2252457965
 20
8.256011372
 10
-0.1586061577
 20
8.2484067621
 10
-0.0919895325
 20
8.2386181464
 10
-0.0256987151
 20
8.2266468418
 10
0.0402627258
 20
8.2124754559
 10
0.1058983588
 20
8.1961213755
 10
0.1709160947
 20
8.1776380844
 10
0.2353077574
 20
8.1570105447
 10
0.2990815229
 20
8.1342537862
 10
0.3619698304
 20
8.1094663948
 10
0.423944115
 20
8.0826484529
 10
0.4850329415
 20
8.053799868
 10
0.5450544432
 20
8.0230189626
 10
0.6039964072
 20
7.9903083681
 10
0.6618710464
 20
7.9556654415
 10
0.7185331328
 20
7.9191805945
 10
0.7739910489
 20
7.8808439258
 10
0.8282364122
 20
7.840665324
 10
0.8810988474
 20
7.7987648854
 10
0.9325807796
 20
7.7551304595
 10
0.9826797837
 20
7.7097741836
 10
1.0312182087
 20
7.6628525859
 10
1.0781867402
 20
7.6143624947
 10
1.1235946926
 20
7.5643070689
 10
1.1672923576
 20
7.5128523339
 10
1.2092715591
 20
7.4599970005
 10
1.2495404732
 20
7.4057423459
 10
1.2879739199
 20
7.3502582461
 10
1.3245669551
 20
7.2935404588
 10
1.3593245229
 20
7.2355932157
 10
1.3921362751
 20
7.1765991057
 10
1.4229970263
 20
7.1165529146
 10
1.451911962
 20
7.0554598475
 10
1.4787862904
 20
6.9935181249
 10
1.5036130788
 20
6.9307252093
 10
1.52639926
 20
6.8670836312
 10
1.5470708396
 20
6.802799215
 10
1.5656207798
 20
6.7378703189
 10
1.5820561185
 20
6.67229858
 10
1.5963239746
 20
6.606294744
 10
1.6084173706
 20
6.5398575414
 10
1.6183432841
 20
6.4729882394
 10
1.6260697671
 20
6.4059013902
 10
1.6315897554
 20
6.3385959663
 10
1.6349103131
 20
6.2710729953
 10
1.6360206852
 20
6.2035501142
 10
1.634913676
 20
6.1360273261
 10
1.6315964812
 20
6.0685046302
 10
1.6260799322
 20
6.0011996593
 10
1.6183569685
 20
5.934113464
 10
1.6084346506
 20
5.8672449982
 10
1.5963449908
 20
5.8008087514
 10
1.5820810271
 20
5.7348060248
 10
1.5656497216
 20
5.6692355236
 10
1.5471039727
 20
5.6043078455
 10
1.5264367624
 20
5.5400246429
 10
1.5036551088
 20
5.4763842712
 10
1.4788329645
 20
5.413592385
 10
1.4519633933
 20
5.3516514859
 10
1.4230533314
 20
5.2905590811
 10
1.3921975401
 20
5.230513335
 10
1.359390817
 20
5.1715194373
 10
1.3246383645
 20
5.1135722077
 10
1.2880505502
 20
5.056854257
 10
1.2496224966
 20
5.0013699063
 10
1.2093590812
 20
4.9471148442
 10
1.1673853043
 20
4.8942587327
 10
1.1236930937
 20
4.8428029039
 10
1.0782905218
 20
4.7927460354
 10
1.0313268054
 20
4.7442538077
 10
0.9827925057
 20
4.6973292189
 10
0.9326970616
 20
4.6519692802
 10
0.8812180068
 20
4.6083306922
 10
0.8283574171
 20
4.5664254217
 10
0.7741132166
 20
4.5262415106
 10
0.7186567115
 20
4.4878997732
 10
0.661996448
 20
4.4514103416
 10
0.6041238799
 20
4.4167630915
 10
0.5451846743
 20
4.384048452
 10
0.4851673806
 20
4.3532640758
 10
0.4240834495
 20
4.3244123169
 10
0.3621129006
 20
4.2975906569
 10
0.2992272867
 20
4.2727987594
 10
0.235455055
 20
4.2500369663
 10
0.171061566
 20
4.2294037755
 10
0.1060379477
 20
4.2109138806
 10
0.0403930721
 20
4.1945525924
 10
-0.0255810837
 20
4.1803743345
 10
-0.0918893031
 20
4.1683964842
 10
-0.1585268026
 20
4.1586016671
 10
-0.2251872548
 20
4.1509921795
 10
-0.2917685505
 20
4.1455687872
 10
-0.3583727989
 20
4.1423307256
 10
-0.425
 20
4.1412779953
  0
LWPOLYLINE
  5
38A
100
AcDbEntity
  8
RACCORDO
100
AcDbPolyline
 62
250
  6
CONTINUOUS
 90
97
 70
0
 10
-0.425
 20
7.9607718536
 10
-0.3681642147
 20
7.9598544693
 10
-0.3112329058
 20
7.9570932677
 10
-0.2542664306
 20
7.9524761052
 10
-0.1973039384
 20
7.945989923
 10
-0.1404297016
 20
7.9376279849
 10
-0.0837719967
 20
7.9273971087
 10
-0.0273924854
 20
7.915299607
 10
0.0286461468
 20
7.9013400305
 10
0.0842164037
 20
7.8855446223
 10
0.1392546846
 20
7.8679295607
 10
0.19370445
 20
7.848511015
 10
0.2474530142
 20
7.8273300439
 10
0.3004235734
 20
7.8044220467
 10
0.3525815817
 20
7.7798071577
 10
0.4038807568
 20
7.7535107531
 10
0.4542588142
 20
7.7255684166
 10
0.503672082
 20
7.6960080874
 10
0.5521015112
 20
7.6648421271
 10
0.5995034027
 20
7.6320967848
 10
0.6458173848
 20
7.5978118486
 10
0.6909986201
 20
7.5620187372
 10
0.735003634
 20
7.5247491736
 10
0.7777777828
 20
7.4860466418
 10
0.8192619714
 20
7.4459633459
 10
0.8594090297
 20
7.4045450211
 10
0.8981786198
 20
7.361833444
 10
0.9355255533
 20
7.3178786416
 10
0.9714079515
 20
7.2727308967
 10
1.0057900549
 20
7.226436236
 10
1.0386382198
 20
7.1790402624
 10
1.0699175408
 20
7.1305932133
 10
1.0995940578
 20
7.0811475541
 10
1.1276373856
 20
7.0307534634
 10
1.1540179338
 20
6.9794632076
 10
1.178706192
 20
6.9273331978
 10
1.2016744803
 20
6.8744212302
 10
1.2228979211
 20
6.8207843077
 10
1.2423537419
 20
6.7664796507
 10
1.2600205341
 20
6.7115666995
 10
1.2758792196
 20
6.6561047823
 10
1.2899129066
 20
6.6001530099
 10
1.3021064922
 20
6.5437714298
 10
1.3124468649
 20
6.4870206438
 10
1.3209229433
 20
6.429961448
 10
1.3275256237
 20
6.3726547769
 10
1.3322478001
 20
6.315161846
 10
1.3350843316
 20
6.2575446269
 10
1.3360321115
 20
6.1998654937
 10
1.3350901374
 20
6.1421863462
 10
1.332259437
 20
6.0845690854
 10
1.3275430962
 20
6.0270760898
 10
1.3209462832
 20
5.969769342
 10
1.312476129
 20
5.9127100411
 10
1.3021417108
 20
5.855959091
 10
1.2899541366
 20
5.7995773031
 10
1.2759265375
 20
5.7436252546
 10
1.2600739682
 20
5.6881629104
 10
1.2424133378
 20
5.6332493892
 10
1.222963736
 20
5.5789440032
 10
1.2017464959
 20
5.5253060873
 10
1.1787843807
 20
5.472392836
 10
1.1541022828
 20
5.4202612797
 10
1.1277278309
 20
5.3689692018
 10
1.0996905243
 20
5.3185729952
 10
1.0700199683
 20
5.2691249516
 10
1.0387465406
 20
5.2206753077
 10
1.0059042612
 20
5.1732766041
 10
0.971527997
 20
5.1269790013
 10
0.9356512266
 20
5.081827949
 10
0.8983097624
 20
5.0378695575
 10
0.8595454216
 20
4.9951540507
 10
0.8194030074
 20
4.9537311406
 10
0.777922696
 20
4.9136425388
 10
0.7351517422
 20
4.8749341581
 10
0.6911491995
 20
4.8376582901
 10
0.6459694299
 20
4.8018582807
 10
0.5996561352
 20
4.7675661243
 10
0.5522549428
 20
4.7348138675
 10
0.5038264596
 20
4.7036413998
 10
0.4544142419
 20
4.6740748132
 10
0.4040376359
 20
4.6461266036
 10
0.3527409875
 20
4.6198249596
 10
0.3005860269
 20
4.5952050584
 10
0.2476174297
 20
4.572291553
 10
0.1938697449
 20
4.5511046831
 10
0.1394197306
 20
4.5316799319
 10
0.0843782696
 20
4.5140579375
 10
0.0288012516
 20
4.4982549891
 10
-0.0272471732
 20
4.4842877373
 10
-0.0836395445
 20
4.4721827155
 10
-0.1403134632
 20
4.461944713
 10
-0.1972069599
 20
4.453576386
 10
-0.2541908624
 20
4.4470849164
 10
-0.3111805475
 20
4.4424637783
 10
-0.3681370748
 20
4.439700062
 10
-0.425
 20
4.4387818054
  0
LINE
  5
38B
100
AcDbEntity
  8
RACCORDO
100
AcDbLine
 62
250
  6
CONTINUOUS
 10
-11.075
 20
24.2500042308
 11
-11.0619014213
 21
24.2369056521
  0
LINE
  5
38C
100
AcDbEntity
  8
RACCORDO
100
AcDbLine
 62
7
  6
CONTINUOUS
 10
10.225
 20
-22.4
 11
10.2177192511
 21
-22.3344140523
  0
LINE
  5
38D
100
AcDbEntity
  8
RACCORDO
100
AcDbLine
 62
250
  6
CONTINUOUS
 10
10.5690263441
 20
-21.4380065106
 11
10.5695434887
 21
-21.4485031593
  0
LINE
  5
38E
100
AcDbEntity
  8
RACCORDO
100
AcDbLine
 62
250
  6
CONTINUOUS
 10
10.5683462662
 20
-21.4225727353
 11
10.5690263441
 21
-21.4380065106
  0
LINE
  5
38F
100
AcDbEntity
  8
RACCORDO
100
AcDbLine
 62
250
  6
CONTINUOUS
 10
10.567513012
 20
-21.4010071952
 11
10.5683462662
 21
-21.4225727353
  0
LINE
  5
390
100
AcDbEntity
  8
RACCORDO
100
AcDbLine
 62
250
  6
CONTINUOUS
 10
10.5665408619
 20
-21.3718746411
 11
10.567513012
 21
-21.4010071952
  0
LINE
  5
391
100
AcDbEntity
  8
RACCORDO
100
AcDbLine
 62
250
  6
CONTINUOUS
 10
10.5654497493
 20
-21.333545957
 11
10.5665408619
 21
-21.3718746411
  0
LWPOLYLINE
  5
392
100
AcDbEntity
  8
RACCORDO
100
AcDbPolyline
 62
250
  6
CONTINUOUS
 90
31
 70
0
 10
10.2119014213
 20
24.2369056521
 10
10.2115583827
 20
24.2499891381
 10
10.2105310928
 20
24.2630367647
 10
10.2088223673
 20
24.2760127708
 10
10.2064368893
 20
24.2888815916
 10
10.2033811971
 20
24.3016079562
 10
10.1996636657
 20
24.3141569839
 10
10.1952944842
 20
24.3264942801
 10
10.1902856277
 20
24.3385860308
 10
10.1846508246
 20
24.3503990946
 10
10.1784055187
 20
24.3619010942
 10
10.1715668272
 20
24.3730605047
 10
10.1641534939
 20
24.3838467403
 10
10.1561858371
 20
24.3942302379
 10
10.1476856948
 20
24.4041825384
 10
10.1386763643
 20
24.4136763643
 10
10.1291825384
 20
24.4226856948
 10
10.1192302379
 20
24.4311858371
 10
10.1088467403
 20
24.4391534939
 10
10.0980605047
 20
24.4465668272
 10
10.0869010942
 20
24.4534055187
 10
10.0753990946
 20
24.4596508246
 10
10.0635860308
 20
24.4652856277
 10
10.0514942801
 20
24.4702944842
 10
10.0391569839
 20
24.4746636657
 10
10.0266079562
 20
24.4783811971
 10
10.0138815916
 20
24.4814368893
 10
10.0010127708
 20
24.4838223673
 10
9.9880367647
 20
24.4855310928
 10
9.9749891381
 20
24.4865583827
 10
9.9619056521
 20
24.4869014213
  0
LINE
  5
393
100
AcDbEntity
  8
RACCORDO
100
AcDbLine
 62
250
  6
CONTINUOUS
 10
10.0677542086
 20
-21.8578887195
 11
10.0687610303
 21
-21.8953493919
  0
LWPOLYLINE
  5
394
100
AcDbEntity
  8
RACCORDO
100
AcDbPolyline
 62
250
  6
CONTINUOUS
 90
34
 70
0
 10
10.5741998042
 20
21.4994104546
 10
10.5736124952
 20
21.5231550457
 10
10.5718953417
 20
21.5468459003
 10
10.5690522294
 20
21.5704294129
 10
10.5650895908
 20
21.5938522188
 10
10.5600163929
 20
21.6170613212
 10
10.5538441162
 20
21.6400042117
 10
10.546586727
 20
21.6626289787
 10
10.5382606461
 20
21.6848844282
 10
10.5288847138
 20
21.7067202077
 10
10.5184801449
 20
21.7280869103
 10
10.5070704816
 20
21.7489361892
 10
10.4946815407
 20
21.7692208715
 10
10.4813413546
 20
21.78889506
 10
10.4670801077
 20
21.8079142379
 10
10.4519300689
 20
21.8262353714
 10
10.4359255181
 20
21.8438170062
 10
10.4191026683
 20
21.8606193603
 10
10.4014995845
 20
21.8766044148
 10
10.3831560968
 20
21.8917360011
 10
10.3641137107
 20
21.9059798807
 10
10.344415513
 20
21.9193038229
 10
10.3241060747
 20
21.9316776802
 10
10.3032313493
 20
21.9430734542
 10
10.2818385695
 20
21.9534653575
 10
10.2599761405
 20
21.9628298768
 10
10.2376935299
 20
21.971145823
 10
10.2150411553
 20
21.9783943766
 10
10.1920702721
 20
21.9845591366
 10
10.1688328559
 20
21.9896261539
 10
10.145381484
 20
21.9935839594
 10
10.1217692189
 20
21.9964235964
 10
10.0980494882
 20
21.998138641
 10
10.0742759622
 20
21.9987252125
  0
LWPOLYLINE
  5
395
100
AcDbEntity
  8
RACCORDO
100
AcDbPolyline
 62
7
  6
CONTINUOUS
 90
25
 70
0
 10
10.7075778449
 20
21.9498978739
 10
10.7070599034
 20
21.9713171503
 10
10.7055239112
 20
21.9926858616
 10
10.7029736082
 20
22.0139556319
 10
10.6994150437
 20
22.0350781601
 10
10.6948565374
 20
22.0560058482
 10
10.6893085722
 20
22.0766918903
 10
10.6827838801
 20
22.0970895234
 10
10.6752974053
 20
22.1171526528
 10
10.6668661013
 20
22.1368364314
 10
10.6575091403
 20
22.1560963804
 10
10.6472477866
 20
22.174888981
 10
10.6361051196
 20
22.1931722098
 10
10.6241063688
 20
22.21090474
 10
10.6112787014
 20
22.2280464864
 10
10.5976508732
 20
22.2445590757
 10
10.583253676
 20
22.2604051439
 10
10.5681196448
 20
22.2755488292
 10
10.5522826488
 20
22.28995617
 10
10.5357784383
 20
22.3035945018
 10
10.5186442782
 20
22.3164328943
 10
10.5009184856
 20
22.3284424746
 10
10.4826410696
 20
22.3395959252
 10
10.4638532946
 20
22.3498678609
 10
10.4586664589
 20
22.352503122
  0
LWPOLYLINE
  5
396
100
AcDbEntity
  8
RACCORDO
100
AcDbPolyline
 62
7
  6
CONTINUOUS
 90
34
 70
0
 10
10.225
 20
24.2500042308
 10
10.2247168498
 20
24.261899516
 10
10.2238680342
 20
24.2737678556
 10
10.2224554741
 20
24.2855823661
 10
10.2204823677
 20
24.2973162875
 10
10.2179531817
 20
24.3089430388
 10
10.2148736417
 20
24.320436279
 10
10.2112507213
 20
24.3317699738
 10
10.2070926258
 20
24.3429184493
 10
10.2024087722
 20
24.3538564463
 10
10.1972097688
 20
24.3645591876
 10
10.1915073916
 20
24.3750024283
 10
10.1853145581
 20
24.3851625059
 10
10.1786452955
 20
24.3950164051
 10
10.1715147107
 20
24.4045418038
 10
10.1639389589
 20
24.4137171191
 10
10.1559352005
 20
24.4225215661
 10
10.1475215661
 20
24.4309352005
 10
10.1387171191
 20
24.4389389589
 10
10.1295418038
 20
24.4465147107
 10
10.1200164051
 20
24.4536452955
 10
10.1101625059
 20
24.4603145581
 10
10.1000024283
 20
24.4665073916
 10
10.0895591876
 20
24.4722097688
 10
10.0788564463
 20
24.4774087722
 10
10.0679184493
 20
24.4820926258
 10
10.0567699738
 20
24.4862507213
 10
10.045436279
 20
24.4898736417
 10
10.0339430388
 20
24.4929531817
 10
10.0223162875
 20
24.4954823677
 10
10.0105823661
 20
24.4974554741
 10
9.9987678556
 20
24.4988680342
 10
9.986899516
 20
24.4997168498
 10
9.9750042308
 20
24.5
  0
LINE
  5
397
100
AcDbEntity
  8
RACCORDO
100
AcDbLine
 62
250
  6
CONTINUOUS
 10
10.5641239527
 20
-21.2777154312
 11
10.5654497493
 21
-21.333545957
  0
LINE
  5
398
100
AcDbEntity
  8
RACCORDO
100
AcDbLine
 62
250
  6
CONTINUOUS
 10
10.0664581722
 20
-21.7996311612
 11
10.0677542086
 21
-21.8578887195
  0
LINE
  5
399
100
AcDbEntity
  8
RACCORDO
100
AcDbLine
 62
250
  6
CONTINUOUS
 10
10.5626373671
 20
-21.200163118
 11
10.5641239527
 21
-21.2777154312
  0
LINE
  5
39A
100
AcDbEntity
  8
RACCORDO
100
AcDbLine
 62
250
  6
CONTINUOUS
 10
10.0647779579
 20
-21.7047273276
 11
10.0664581722
 21
-21.7996311612
  0
LINE
  5
39B
100
AcDbEntity
  8
RACCORDO
100
AcDbLine
 62
250
  6
CONTINUOUS
 10
10.5609871241
 20
-21.0881899045
 11
10.5626373671
 21
-21.200163118
  0
LINE
  5
39C
100
AcDbEntity
  8
RACCORDO
100
AcDbLine
 62
250
  6
CONTINUOUS
 10
10.0625863095
 20
-21.5385646394
 11
10.0647779579
 21
-21.7047273276
  0
LINE
  5
39D
100
AcDbEntity
  8
RACCORDO
100
AcDbLine
 62
250
  6
CONTINUOUS
 10
9.9619056521
 20
23.6278312164
 11
9.9669962532
 21
23.1226497308
  0
LINE
  5
39E
100
AcDbEntity
  8
RACCORDO
100
AcDbLine
 62
250
  6
CONTINUOUS
 10
10.2119014213
 20
23.8443375673
 11
10.2177192511
 21
23.2669872981
  0
LINE
  5
39F
100
AcDbEntity
  8
RACCORDO
100
AcDbLine
 62
250
  6
CONTINUOUS
 10
10.5593153746
 20
-20.9260548195
 11
10.5609871241
 21
-21.0881899045
  0
LINE
  5
3A0
100
AcDbEntity
  8
RACCORDO
100
AcDbLine
 62
250
  6
CONTINUOUS
 10
10.0600684312
 20
-21.2501069432
 11
10.0625863095
 21
-21.5385646394
  0
LINE
  5
3A1
100
AcDbEntity
  8
RACCORDO
100
AcDbLine
 62
250
  6
CONTINUOUS
 10
10.0594701727
 20
-21.1528814814
 11
10.0600684312
 21
-21.2501069432
  0
LINE
  5
3A2
100
AcDbEntity
  8
RACCORDO
100
AcDbLine
 62
250
  6
CONTINUOUS
 10
10.059024524
 20
-21.0667340132
 11
10.0594701727
 21
-21.1528814814
  0
LINE
  5
3A3
100
AcDbEntity
  8
RACCORDO
100
AcDbLine
 62
250
  6
CONTINUOUS
 10
10.0587018564
 20
-20.9932212159
 11
10.059024524
 21
-21.0667340132
  0
LINE
  5
3A4
100
AcDbEntity
  8
RACCORDO
100
AcDbLine
 62
250
  6
CONTINUOUS
 10
10.5580372992
 20
-20.7080424366
 11
10.5593153746
 21
-20.9260548195
  0
LINE
  5
3A5
100
AcDbEntity
  8
RACCORDO
100
AcDbLine
 62
250
  6
CONTINUOUS
 10
10.0584244183
 20
-20.9183540478
 11
10.0587018564
 21
-20.9932212159
  0
LINE
  5
3A6
100
AcDbEntity
  8
RACCORDO
100
AcDbLine
 62
250
  6
CONTINUOUS
 10
10.058235566
 20
-20.8576315072
 11
10.0584244183
 21
-20.9183540478
  0
LINE
  5
3A7
100
AcDbEntity
  8
RACCORDO
100
AcDbLine
 62
250
  6
CONTINUOUS
 10
10.0581134586
 20
-20.811676632
 11
10.058235566
 21
-20.8576315072
  0
LINE
  5
3A8
100
AcDbEntity
  8
RACCORDO
100
AcDbLine
 62
250
  6
CONTINUOUS
 10
10.0579768906
 20
-20.7499289139
 11
10.0581134586
 21
-20.811676632
  0
LINE
  5
3A9
100
AcDbEntity
  8
RACCORDO
100
AcDbLine
 62
250
  6
CONTINUOUS
 10
10.0578705307
 20
-20.6877345329
 11
10.0579768906
 21
-20.7499289139
  0
LINE
  5
3AA
100
AcDbEntity
  8
RACCORDO
100
AcDbLine
 62
250
  6
CONTINUOUS
 10
10.0578107103
 20
-20.6408649588
 11
10.0578705307
 21
-20.6877345329
  0
LINE
  5
3AB
100
AcDbEntity
  8
RACCORDO
100
AcDbLine
 62
250
  6
CONTINUOUS
 10
10.0577680633
 20
-20.5938582138
 11
10.0578107103
 21
-20.6408649588
  0
LINE
  5
3AC
100
AcDbEntity
  8
RACCORDO
100
AcDbLine
 62
250
  6
CONTINUOUS
 10
10.5576730391
 20
-20.5419058565
 11
10.5580372992
 21
-20.7080424366
  0
LINE
  5
3AD
100
AcDbEntity
  8
RACCORDO
100
AcDbLine
 62
250
  6
CONTINUOUS
 10
10.0577491915
 20
-20.5624683248
 11
10.0577680633
 21
-20.5938582138
  0
LINE
  5
3AE
100
AcDbEntity
  8
RACCORDO
100
AcDbLine
 62
250
  6
CONTINUOUS
 10
10.0530827048
 20
-12.4643257635
 11
10.0577491915
 21
-20.5624683248
  0
LINE
  5
3AF
100
AcDbEntity
  8
RACCORDO
100
AcDbLine
 62
250
  6
CONTINUOUS
 10
10.5530065524
 20
-12.4518618596
 11
10.5576730391
 21
-20.5419058565
  0
LINE
  5
3B0
100
AcDbEntity
  8
RACCORDO
100
AcDbLine
 62
250
  6
CONTINUOUS
 10
10.0507051177
 20
-4.3629104113
 11
10.0530827048
 21
-12.4643257635
  0
LINE
  5
3B1
100
AcDbEntity
  8
RACCORDO
100
AcDbLine
 62
250
  6
CONTINUOUS
 10
10.5506289653
 20
-4.3585472277
 11
10.5530065524
 21
-12.4518618596
  0
LINE
  5
3B2
100
AcDbEntity
  8
RACCORDO
100
AcDbLine
 62
250
  6
CONTINUOUS
 10
9.9619056521
 20
-23.6278312164
 11
9.9619056521
 21
-24.4869014213
  0
LINE
  5
3B3
100
AcDbEntity
  8
RACCORDO
100
AcDbLine
 62
250
  6
CONTINUOUS
 10
9.9619056521
 20
23.6278312164
 11
9.9619056521
 21
24.4869014213
  0
LINE
  5
3B4
100
AcDbEntity
  8
RACCORDO
100
AcDbLine
 62
250
  6
CONTINUOUS
 10
9.9677234819
 20
23.1226497308
 11
9.9677234819
 21
22.3213883311
  0
LINE
  5
3B5
100
AcDbEntity
  8
RACCORDO
100
AcDbLine
 62
250
  6
CONTINUOUS
 10
9.9677234819
 20
-22.3213883311
 11
9.9677234819
 21
-23.1226497308
  0
LINE
  5
3B6
100
AcDbEntity
  8
RACCORDO
100
AcDbLine
 62
250
  6
CONTINUOUS
 10
10.0503731867
 20
0.000000171
 11
10.0507051177
 21
-4.3629104113
  0
LINE
  5
3B7
100
AcDbEntity
  8
RACCORDO
100
AcDbLine
 62
250
  6
CONTINUOUS
 10
10.2119014213
 20
-24.2369056521
 11
10.2119014213
 21
-23.8443375673
  0
LINE
  5
3B8
100
AcDbEntity
  8
RACCORDO
100
AcDbLine
 62
250
  6
CONTINUOUS
 10
10.2119014213
 20
23.8443375673
 11
10.2119014213
 21
24.2369056521
  0
LINE
  5
3B9
100
AcDbEntity
  8
RACCORDO
100
AcDbLine
 62
250
  6
CONTINUOUS
 10
10.2177192511
 20
23.2669872981
 11
10.2177192511
 21
22.3344140523
  0
LINE
  5
3BA
100
AcDbEntity
  8
RACCORDO
100
AcDbLine
 62
250
  6
CONTINUOUS
 10
10.2177192511
 20
-22.3344140523
 11
10.2177192511
 21
-23.2669872981
  0
LINE
  5
3BB
100
AcDbEntity
  8
RACCORDO
100
AcDbLine
 62
7
  6
CONTINUOUS
 10
10.225
 20
-22.4
 11
10.225
 21
-24.2500042308
  0
LINE
  5
3BC
100
AcDbEntity
  8
RACCORDO
100
AcDbLine
 62
7
  6
CONTINUOUS
 10
10.225
 20
22.4
 11
10.225
 21
24.2500042308
  0
LINE
  5
3BD
100
AcDbEntity
  8
RACCORDO
100
AcDbLine
 62
250
  6
CONTINUOUS
 10
10.5502970343
 20
0.0000001487
 11
10.5506289653
 21
-4.3585472277
  0
LINE
  5
3BE
100
AcDbEntity
  8
ASSI
100
AcDbLine
 62
7
  6
CONTINUOUS
 10
10.725
 20
17.6716990487
 11
10.725
 21
-17.6716990487
  0
LINE
  5
3BF
100
AcDbEntity
  8
RACCORDO
100
AcDbLine
 62
7
  6
CONTINUOUS
 10
10.725
 20
-21.9411874598
 11
10.725
 21
21.9411874598
  0
LINE
  5
3C0
100
AcDbEntity
  8
RACCORDO
100
AcDbLine
 62
250
  6
CONTINUOUS
 10
10.0505425399
 20
3.1163842734
 11
10.0503731867
 21
0.000000171
  0
LINE
  5
3C1
100
AcDbEntity
  8
RACCORDO
100
AcDbLine
 62
250
  6
CONTINUOUS
 10
10.5504663875
 20
3.113268209
 11
10.5502970343
 21
0.0000001487
  0
LINE
  5
3C2
100
AcDbEntity
  8
RACCORDO
100
AcDbLine
 62
250
  6
CONTINUOUS
 10
10.0515179922
 20
8.102296637
 11
10.0505425399
 21
3.1163842734
  0
LINE
  5
3C3
100
AcDbEntity
  8
RACCORDO
100
AcDbLine
 62
250
  6
CONTINUOUS
 10
10.5514418398
 20
8.0941940464
 11
10.5504663875
 21
3.113268209
  0
LINE
  5
3C4
100
AcDbEntity
  8
RACCORDO
100
AcDbLine
 62
250
  6
CONTINUOUS
 10
10.0533604145
 20
13.0874034309
 11
10.0515179922
 21
8.102296637
  0
LINE
  5
3C5
100
AcDbEntity
  8
RACCORDO
100
AcDbLine
 62
250
  6
CONTINUOUS
 10
10.5532842621
 20
13.074316087
 11
10.5514418398
 21
8.0941940464
  0
LINE
  5
3C6
100
AcDbEntity
  8
RACCORDO
100
AcDbLine
 62
250
  6
CONTINUOUS
 10
10.055683573
 20
17.4483135283
 11
10.0533604145
 21
13.0874034309
  0
LINE
  5
3C7
100
AcDbEntity
  8
RACCORDO
100
AcDbLine
 62
250
  6
CONTINUOUS
 10
10.5556074206
 20
17.4308649834
 11
10.5532842621
 21
13.074316087
  0
LINE
  5
3C8
100
AcDbEntity
  8
RACCORDO
100
AcDbLine
 62
250
  6
CONTINUOUS
 10
10.0590943601
 20
21.0812469916
 11
10.055683573
 21
17.4483135283
  0
LINE
  5
3C9
100
AcDbEntity
  8
RACCORDO
100
AcDbLine
 62
250
  6
CONTINUOUS
 10
10.5583482362
 20
20.7791574818
 11
10.5556074206
 21
17.4308649834
  0
LINE
  5
3CA
100
AcDbEntity
  8
RACCORDO
100
AcDbLine
 62
250
  6
CONTINUOUS
 10
10.0616194961
 20
21.4442459203
 11
10.0590943601
 21
21.0812469916
  0
LINE
  5
3CB
100
AcDbEntity
  8
RACCORDO
100
AcDbLine
 62
250
  6
CONTINUOUS
 10
10.5598128402
 20
20.9820645835
 11
10.5583482362
 21
20.7791574818
  0
LINE
  5
3CC
100
AcDbEntity
  8
RACCORDO
100
AcDbLine
 62
250
  6
CONTINUOUS
 10
9.9669962532
 20
-23.1226497308
 11
9.9619056521
 21
-23.6278312164
  0
LINE
  5
3CD
100
AcDbEntity
  8
RACCORDO
100
AcDbLine
 62
250
  6
CONTINUOUS
 10
10.2177192511
 20
-23.2669872981
 11
10.2119014213
 21
-23.8443375673
  0
LINE
  5
3CE
100
AcDbEntity
  8
RACCORDO
100
AcDbLine
 62
250
  6
CONTINUOUS
 10
10.0639183013
 20
21.64613512
 11
10.0616194961
 21
21.4442459203
  0
LINE
  5
3CF
100
AcDbEntity
  8
RACCORDO
100
AcDbLine
 62
250
  6
CONTINUOUS
 10
10.561543342
 20
21.1297571648
 11
10.5598128402
 21
20.9820645835
  0
LINE
  5
3D0
100
AcDbEntity
  8
RACCORDO
100
AcDbLine
 62
250
  6
CONTINUOUS
 10
10.0658325075
 20
21.7670492991
 11
10.0639183013
 21
21.64613512
  0
LINE
  5
3D1
100
AcDbEntity
  8
RACCORDO
100
AcDbLine
 62
250
  6
CONTINUOUS
 10
10.5631597722
 20
21.2294938315
 11
10.561543342
 21
21.1297571648
  0
LINE
  5
3D2
100
AcDbEntity
  8
RACCORDO
100
AcDbLine
 62
250
  6
CONTINUOUS
 10
10.0672614718
 20
21.8371334236
 11
10.0658325075
 21
21.7670492991
  0
LINE
  5
3D3
100
AcDbEntity
  8
RACCORDO
100
AcDbLine
 62
250
  6
CONTINUOUS
 10
10.5645555154
 20
21.2971148677
 11
10.5631597722
 21
21.2294938315
  0
LWPOLYLINE
  5
3D4
100
AcDbEntity
  8
RACCORDO
100
AcDbPolyline
 62
7
  6
CONTINUOUS
 90
25
 70
0
 10
10.7075781258
 20
-21.9498977334
 10
10.7070601823
 20
-21.9713170184
 10
10.7055241857
 20
-21.9926857359
 10
10.7029738765
 20
-22.0139555101
 10
10.6994153041
 20
-22.0350780389
 10
10.694856789
 20
-22.0560057254
 10
10.6893088158
 20
-22.0766917666
 10
10.6827841168
 20
-22.0970894004
 10
10.6752976356
 20
-22.1171525312
 10
10.6668663253
 20
-22.1368363114
 10
10.6575093582
 20
-22.1560962623
 10
10.6472479986
 20
-22.1748888651
 10
10.6361053257
 20
-22.1931720963
 10
10.6241065691
 20
-22.2109046293
 10
10.6112788958
 20
-22.2280463787
 10
10.5976510617
 20
-22.2445589713
 10
10.5832538585
 20
-22.2604050431
 10
10.5681198211
 20
-22.2755487323
 10
10.5522828187
 20
-22.2899560773
 10
10.5357786015
 20
-22.3035944137
 10
10.5186444344
 20
-22.3164328111
 10
10.5009186344
 20
-22.3284423967
 10
10.4826412105
 20
-22.3395958528
 10
10.4638534271
 20
-22.3498677943
 10
10.4586665626
 20
-22.3525030702
  0
LWPOLYLINE
  5
3D5
100
AcDbEntity
  8
RACCORDO
100
AcDbPolyline
 62
250
  6
CONTINUOUS
 90
34
 70
0
 10
10.5742008169
 20
-21.4994104546
 10
10.5736123417
 20
-21.5231534983
 10
10.5718940753
 20
-21.5468428256
 10
10.5690499103
 20
-21.5704248382
 10
10.5650862865
 20
-21.5938461775
 10
10.5600121771
 20
-21.6170538557
 10
10.5538390669
 20
-21.6399953754
 10
10.5465809268
 20
-21.6626188313
 10
10.5382541824
 20
-21.6848730382
 10
10.5288776755
 20
-21.7067076564
 10
10.5184726238
 20
-21.7280732857
 10
10.5070625716
 20
-21.7489215869
 10
10.4946733344
 20
-21.7692054006
 10
10.481332945
 20
-21.7888788355
 10
10.4670715879
 20
-21.807897381
 10
10.4519215271
 20
-21.8262180157
 10
10.4359170409
 20
-21.84379929
 10
10.4190943402
 20
-21.8606014264
 10
10.4014914818
 20
-21.8765864156
 10
10.3831482927
 20
-21.891718092
 10
10.3641062742
 20
-21.9059622196
 10
10.3444085025
 20
-21.9192865734
 10
10.3240995436
 20
-21.9316610068
 10
10.303225346
 20
-21.9430575211
 10
10.2818331297
 20
-21.9534503308
 10
10.2599712941
 20
-21.9628159205
 10
10.2376893012
 20
-21.9711330983
 10
10.2150375552
 20
-21.9783830421
 10
10.1920673054
 20
-21.9845493462
 10
10.1688305218
 20
-21.9896180557
 10
10.145379769
 20
-21.9935776953
 10
10.1217681013
 20
-21.9964193004
 10
10.0980489439
 20
-21.998136439
 10
10.0742759622
 20
-21.9987252218
  0
LINE
  5
3D6
100
AcDbEntity
  8
RACCORDO
100
AcDbLine
 62
250
  6
CONTINUOUS
 10
10.0684222615
 20
21.8834629423
 11
10.0672614718
 21
21.8371334236
  0
LINE
  5
3D7
100
AcDbEntity
  8
RACCORDO
100
AcDbLine
 62
250
  6
CONTINUOUS
 10
10.5657563719
 20
21.3449606608
 11
10.5645555154
 21
21.2971148677
  0
LINE
  5
3D8
100
AcDbEntity
  8
RACCORDO
100
AcDbLine
 62
250
  6
CONTINUOUS
 10
10.0687608937
 20
21.8953447423
 11
10.0684222615
 21
21.8834629423
  0
LINE
  5
3D9
100
AcDbEntity
  8
RACCORDO
100
AcDbLine
 62
250
  6
CONTINUOUS
 10
10.5668612444
 20
21.3819710312
 11
10.5657563719
 21
21.3449606608
  0
LINE
  5
3DA
100
AcDbEntity
  8
RACCORDO
100
AcDbLine
 62
250
  6
CONTINUOUS
 10
10.567677962
 20
21.4055170743
 11
10.5668612444
 21
21.3819710312
  0
LINE
  5
3DB
100
AcDbEntity
  8
RACCORDO
100
AcDbLine
 62
250
  6
CONTINUOUS
 10
10.5683461344
 20
21.4225695591
 11
10.567677962
 21
21.4055170743
  0
LINE
  5
3DC
100
AcDbEntity
  8
RACCORDO
100
AcDbLine
 62
250
  6
CONTINUOUS
 10
10.5690262111
 20
21.4380036736
 11
10.5683461344
 21
21.4225695591
  0
LINE
  5
3DD
100
AcDbEntity
  8
RACCORDO
100
AcDbLine
 62
250
  6
CONTINUOUS
 10
10.5695433685
 20
21.4485008372
 11
10.5690262111
 21
21.4380036736
  0
LINE
  5
3DE
100
AcDbEntity
  8
RACCORDO
100
AcDbLine
 62
7
  6
CONTINUOUS
 10
7.825
 20
-22.4
 11
7.8322807489
 21
-22.3344140523
  0
LINE
  5
3DF
100
AcDbEntity
  8
RACCORDO
100
AcDbLine
 62
250
  6
CONTINUOUS
 10
-10.8250042308
 20
-24.5
 11
-10.8119056521
 21
-24.4869014213
  0
LINE
  5
3E0
100
AcDbEntity
  8
RACCORDO
100
AcDbLine
 62
250
  6
CONTINUOUS
 10
-10.8250042308
 20
24.5
 11
-10.8119056521
 21
24.4869014213
  0
LINE
  5
3E1
100
AcDbEntity
  8
RACCORDO
100
AcDbLine
 62
7
  6
CONTINUOUS
 10
7.825
 20
22.4
 11
7.8322807489
 21
22.3344140523
  0
LINE
  5
3E2
100
AcDbEntity
  8
RACCORDO
100
AcDbLine
 62
7
  6
CONTINUOUS
 10
-4.8220741618
 20
-23.7970741618
 11
-4.825
 21
-23.8
  0
LINE
  5
3E3
100
AcDbEntity
  8
RACCORDO
100
AcDbLine
 62
7
  6
CONTINUOUS
 10
-4.8220741618
 20
23.7970741618
 11
-4.825
 21
23.8
  0
LWPOLYLINE
  5
3E4
100
AcDbEntity
  8
0
100
AcDbPolyline
 62
7
  6
CONTINUOUS
 90
10
 70
0
 43
0.3500000087
 10
18.9002806503
 20
0.4285711273
 10
18.0431366516
 20
1.285715126
 10
17.1859937187
 20
1.499999527
 10
16.3288507858
 20
1.499999527
 10
15.9002798523
 20
1.0714285934
 10
15.9002798523
 20
0.4285711273
 10
16.3288507858
 20
0.0000001938
 10
17.1859937187
 20
0.0000001938
 10
17.6145657181
 20
0.4285711273
 10
17.6145657181
 20
1.3571425491
  0
LWPOLYLINE
  5
3E5
100
AcDbEntity
  8
0
100
AcDbPolyline
 62
7
  6
CONTINUOUS
 90
10
 70
0
 43
0.3500000087
 10
0.6464285841
 20
34.2994730652
 10
0.7178571397
 20
34.1566139557
 10
0.7178571397
 20
34.0851865326
 10
0.5750000286
 20
33.9423274231
 10
0.5035714398
 20
33.9423274231
 10
0.4321428509
 20
34.0137591095
 10
0.4321428509
 20
34.0851865326
 10
0.5035714398
 20
34.2280456421
 10
0.5750000286
 20
34.2994730652
 10
0.6464285841
 20
34.2994730652
  0
LWPOLYLINE
  5
3E6
100
AcDbEntity
  8
0
100
AcDbPolyline
 62
7
  6
CONTINUOUS
 90
3
 70
0
 43
0.3500000087
 10
18.2574231842
 20
-0.8571438049
 10
18.2574231842
 20
-2.3571431381
 10
15.9002798523
 20
-1.714285672
  0
LINE
  5
3E7
100
AcDbEntity
  8
RACCORDO
100
AcDbLine
 62
7
  6
CONTINUOUS
 10
-4.3930905905
 20
-23.6400757416
 11
-4.3220826234
 21
-23.5953423515
  0
LINE
  5
3E8
100
AcDbEntity
  8
RACCORDO
100
AcDbLine
 62
7
  6
CONTINUOUS
 10
-4.4215581838
 20
-23.6577812011
 11
-4.3930905905
 21
-23.6400757416
  0
LINE
  5
3E9
100
AcDbEntity
  8
RACCORDO
100
AcDbLine
 62
7
  6
CONTINUOUS
 10
-4.4499483201
 20
23.6751796798
 11
-4.4215581838
 21
23.6577812011
  0
LINE
  5
3EA
100
AcDbEntity
  8
RACCORDO
100
AcDbLine
 62
7
  6
CONTINUOUS
 10
-4.4215581838
 20
23.6577812011
 11
-4.3788388153
 21
23.6311538461
  0
LINE
  5
3EB
100
AcDbEntity
  8
RACCORDO
100
AcDbLine
 62
7
  6
CONTINUOUS
 10
-4.3788388153
 20
23.6311538461
 11
-4.3220826234
 21
23.5953423515
  0
LWPOLYLINE
  5
3EC
100
AcDbEntity
  8
RACCORDO
100
AcDbPolyline
 62
250
  6
CONTINUOUS
 90
16
 70
0
 10
10.5576730337
 20
-20.5419058565
 10
10.5567090338
 20
-20.5428735514
 10
10.5546396822
 20
-20.5438391025
 10
10.551469563
 20
-20.5448003709
 10
10.5472056991
 20
-20.5457552271
 10
10.5418575362
 20
-20.5467015557
 10
10.5354369222
 20
-20.5476372603
 10
10.5279580808
 20
-20.5485602681
 10
10.51943758
 20
-20.5494685343
 10
10.5098942952
 20
-20.5503600467
 10
10.4993493679
 20
-20.5512328306
 10
10.4878261584
 20
-20.5520849522
 10
10.4753501942
 20
-20.552914524
 10
10.4619491134
 20
-20.5537197081
 10
10.4476526036
 20
-20.5544987209
 10
10.432492336
 20
-20.5552498365
  0
LINE
  5
3ED
100
AcDbEntity
  8
RACCORDO
100
AcDbLine
 62
250
  6
CONTINUOUS
 10
-11.2824923423
 20
20.5552498367
 11
-11.2497167115
 21
20.5566617863
  0
LINE
  5
3EE
100
AcDbEntity
  8
RACCORDO
100
AcDbLine
 62
250
  6
CONTINUOUS
 10
-11.2497167115
 20
20.5566617863
 11
-11.2139124996
 21
20.5579430524
  0
LINE
  5
3EF
100
AcDbEntity
  8
RACCORDO
100
AcDbLine
 62
250
  6
CONTINUOUS
 10
-11.2139124996
 20
20.5579430524
 11
-11.1753968011
 21
20.5590822876
  0
LINE
  5
3F0
100
AcDbEntity
  8
RACCORDO
100
AcDbLine
 62
250
  6
CONTINUOUS
 10
-11.1753968011
 20
20.5590822876
 11
-11.1345107241
 21
20.5600694024
  0
LINE
  5
3F1
100
AcDbEntity
  8
RACCORDO
100
AcDbLine
 62
250
  6
CONTINUOUS
 10
-11.1345107241
 20
20.5600694024
 11
-11.0916163696
 21
20.5608956548
  0
LINE
  5
3F2
100
AcDbEntity
  8
RACCORDO
100
AcDbLine
 62
250
  6
CONTINUOUS
 10
-11.0916163696
 20
20.5608956548
 11
-11.0243443585
 21
20.5618178145
  0
LINE
  5
3F3
100
AcDbEntity
  8
RACCORDO
100
AcDbLine
 62
250
  6
CONTINUOUS
 10
-11.0243443585
 20
20.5618178145
 11
-10.9547511272
 21
20.5623435595
  0
LINE
  5
3F4
100
AcDbEntity
  8
RACCORDO
100
AcDbLine
 62
250
  6
CONTINUOUS
 10
10.0577491915
 20
20.5624683248
 11
-10.9547511272
 21
20.5623435595
  0
LINE
  5
3F5
100
AcDbEntity
  8
RACCORDO
100
AcDbLine
 62
250
  6
CONTINUOUS
 10
10.0742759622
 20
21.998725222
 11
-10.9242759622
 21
21.998725222
  0
LINE
  5
3F6
100
AcDbEntity
  8
RACCORDO
100
AcDbLine
 62
250
  6
CONTINUOUS
 10
10.1281219113
 20
20.5622131686
 11
10.0577491915
 21
20.5624683248
  0
LINE
  5
3F7
100
AcDbEntity
  8
RACCORDO
100
AcDbLine
 62
250
  6
CONTINUOUS
 10
10.1970936246
 20
20.5615537269
 11
10.1281219113
 21
20.5622131686
  0
LINE
  5
3F8
100
AcDbEntity
  8
RACCORDO
100
AcDbLine
 62
250
  6
CONTINUOUS
 10
10.2416163696
 20
20.5608956547
 11
10.1970936246
 21
20.5615537269
  0
LINE
  5
3F9
100
AcDbEntity
  8
RACCORDO
100
AcDbLine
 62
250
  6
CONTINUOUS
 10
10.2845107241
 20
20.5600694024
 11
10.2416163696
 21
20.5608956547
  0
LINE
  5
3FA
100
AcDbEntity
  8
RACCORDO
100
AcDbLine
 62
250
  6
CONTINUOUS
 10
10.3253968012
 20
20.5590822876
 11
10.2845107241
 21
20.5600694024
  0
LINE
  5
3FB
100
AcDbEntity
  8
RACCORDO
100
AcDbLine
 62
250
  6
CONTINUOUS
 10
10.3639124997
 20
20.5579430524
 11
10.3253968012
 21
20.5590822876
  0
LINE
  5
3FC
100
AcDbEntity
  8
RACCORDO
100
AcDbLine
 62
250
  6
CONTINUOUS
 10
10.3997167115
 20
20.5566617864
 11
10.3639124997
 21
20.5579430524
  0
LWPOLYLINE
  5
3FD
100
AcDbEntity
  8
RACCORDO
100
AcDbPolyline
 62
250
  6
CONTINUOUS
 90
17
 70
0
 10
10.5576730391
 20
20.5419058565
 10
10.5567090395
 20
20.5428735514
 10
10.5546396881
 20
20.5438391026
 10
10.5514695691
 20
20.544800371
 10
10.5472057054
 20
20.5457552271
 10
10.5418575427
 20
20.5467015558
 10
10.5354369289
 20
20.5476372604
 10
10.5279580876
 20
20.5485602682
 10
10.5194375868
 20
20.5494685344
 10
10.509894302
 20
20.5503600469
 10
10.4993493748
 20
20.5512328307
 10
10.4878261652
 20
20.5520849524
 10
10.4753502009
 20
20.5529145242
 10
10.46194912
 20
20.5537197083
 10
10.44765261
 20
20.5544987211
 10
10.4324923423
 20
20.5552498368
 10
10.3997167115
 20
20.5566617864
  0
LINE
  5
3FE
100
AcDbEntity
  8
RACCORDO
100
AcDbLine
 62
250
  6
CONTINUOUS
 10
7.825
 20
-24.2500042308
 11
7.8380985787
 21
-24.2369056521
  0
LINE
  5
3FF
100
AcDbEntity
  8
RACCORDO
100
AcDbLine
 62
250
  6
CONTINUOUS
 10
8.0749957692
 20
-24.5
 11
8.0880943479
 21
-24.4869014213
  0
LWPOLYLINE
  5
400
100
AcDbEntity
  8
RACCORDO
100
AcDbPolyline
 62
7
  6
CONTINUOUS
 90
24
 70
0
 10
3.8712073137
 20
23.7953389668
 10
3.8604181903
 20
23.7947915649
 10
3.8493307281
 20
23.793363895
 10
3.8379449272
 20
23.7911364879
 10
3.8262361469
 20
23.7881978965
 10
3.814229028
 20
23.7846238716
 10
3.801997492
 20
23.7804595132
 10
3.7895487518
 20
23.7757643703
 10
3.7768755946
 20
23.7706018097
 10
3.7640303044
 20
23.7649953104
 10
3.7510171723
 20
23.758990232
 10
3.7378319072
 20
23.7526365647
 10
3.7245139203
 20
23.7459460582
 10
3.7110654333
 20
23.7389542831
 10
3.6974842244
 20
23.7317013921
 10
3.6838030396
 20
23.724193673
 10
3.6700229279
 20
23.7164601879
 10
3.6561428402
 20
23.708533951
 10
3.6421923756
 20
23.7004191901
 10
3.628171775
 20
23.6921405291
 10
3.6140807976
 20
23.6837259593
 10
3.5999483201
 20
23.6751796798
 10
3.585774002
 20
23.6665232606
 10
3.5573307642
 20
23.6489589663
  0
LINE
  5
401
100
AcDbEntity
  8
RACCORDO
100
AcDbLine
 62
7
  6
CONTINUOUS
 10
9.9677234819
 20
22.3213883311
 11
8.0822765181
 21
22.3213883311
  0
LINE
  5
402
100
AcDbEntity
  8
RACCORDO
100
AcDbLine
 62
7
  6
CONTINUOUS
 10
-8.9322765181
 20
22.3213883311
 11
-10.8177234819
 21
22.3213883311
  0
LINE
  5
403
100
AcDbEntity
  8
RACCORDO
100
AcDbLine
 62
7
  6
CONTINUOUS
 10
-4.3220826234
 20
22.3475922207
 11
3.4720826234
 21
22.3475922207
  0
LINE
  5
404
100
AcDbEntity
  8
RACCORDO
100
AcDbLine
 62
7
  6
CONTINUOUS
 10
-11.1078874748
 20
22.4
 11
-11.075
 21
22.4
  0
LINE
  5
405
100
AcDbEntity
  8
DRAFT
100
AcDbLine
 62
7
  6
CONTINUOUS
 10
-8.675
 20
22.4
 11
-4.825
 21
22.4
  0
LINE
  5
406
100
AcDbEntity
  8
DRAFT
100
AcDbLine
 62
7
  6
CONTINUOUS
 10
3.975
 20
22.4
 11
7.825
 21
22.4
  0
LINE
  5
407
100
AcDbEntity
  8
RACCORDO
100
AcDbLine
 62
7
  6
CONTINUOUS
 10
10.225
 20
22.4
 11
10.257892514
 21
22.4
  0
LINE
  5
408
100
AcDbEntity
  8
RACCORDO
100
AcDbLine
 62
7
  6
CONTINUOUS
 10
9.9669962532
 20
23.1226497308
 11
8.0830037468
 21
23.1226497308
  0
LINE
  5
409
100
AcDbEntity
  8
RACCORDO
100
AcDbLine
 62
7
  6
CONTINUOUS
 10
-8.9330037468
 20
23.1226497308
 11
-10.8169962532
 21
23.1226497308
  0
LINE
  5
40A
100
AcDbEntity
  8
RACCORDO
100
AcDbLine
 62
250
  6
CONTINUOUS
 10
3.4720826234
 20
23.5953423515
 11
-4.3220826234
 21
23.5953423515
  0
LINE
  5
40B
100
AcDbEntity
  8
RACCORDO
100
AcDbLine
 62
250
  6
CONTINUOUS
 10
-10.8119056521
 20
23.6278312164
 11
-8.9380943479
 21
23.6278312164
  0
LINE
  5
40C
100
AcDbEntity
  8
RACCORDO
100
AcDbLine
 62
250
  6
CONTINUOUS
 10
8.0880943479
 20
23.6278312164
 11
9.9619056521
 21
23.6278312164
  0
LINE
  5
40D
100
AcDbEntity
  8
RACCORDO
100
AcDbLine
 62
250
  6
CONTINUOUS
 10
3.8712073137
 20
23.7953389668
 11
-4.7212073137
 21
23.7953389668
  0
LINE
  5
40E
100
AcDbEntity
  8
DRAFT
100
AcDbLine
 62
7
  6
CONTINUOUS
 10
-4.825
 20
23.8
 11
3.975
 21
23.8
  0
LINE
  5
40F
100
AcDbEntity
  8
RACCORDO
100
AcDbLine
 62
250
  6
CONTINUOUS
 10
7.8380985787
 20
23.8443375673
 11
10.2119014213
 21
23.8443375673
  0
LINE
  5
410
100
AcDbEntity
  8
RACCORDO
100
AcDbLine
 62
250
  6
CONTINUOUS
 10
-8.6880985787
 20
23.8443375673
 11
-11.0619014213
 21
23.8443375673
  0
LWPOLYLINE
  5
411
100
AcDbEntity
  8
RACCORDO
100
AcDbPolyline
 62
7
  6
CONTINUOUS
 90
22
 70
0
 10
-4.7212073137
 20
23.7953389668
 10
-4.7104181903
 20
23.7947915649
 10
-4.6993307281
 20
23.793363895
 10
-4.6879449272
 20
23.7911364879
 10
-4.6762361469
 20
23.7881978965
 10
-4.664229028
 20
23.7846238716
 10
-4.651997492
 20
23.7804595132
 10
-4.6395487518
 20
23.7757643703
 10
-4.6268755946
 20
23.7706018097
 10
-4.6140303044
 20
23.7649953104
 10
-4.6010171723
 20
23.758990232
 10
-4.5878319072
 20
23.7526365647
 10
-4.5745139203
 20
23.7459460582
 10
-4.5610654333
 20
23.7389542831
 10
-4.5474842244
 20
23.7317013921
 10
-4.5338030396
 20
23.724193673
 10
-4.5200229279
 20
23.7164601879
 10
-4.5061428402
 20
23.708533951
 10
-4.4921923756
 20
23.7004191901
 10
-4.478171775
 20
23.6921405291
 10
-4.4640807976
 20
23.6837259593
 10
-4.4499483201
 20
23.6751796798
  0
LINE
  5
412
100
AcDbEntity
  8
RACCORDO
100
AcDbLine
 62
250
  6
CONTINUOUS
 10
7.825
 20
24.2500042308
 11
7.8380985787
 21
24.2369056521
  0
LINE
  5
413
100
AcDbEntity
  8
RACCORDO
100
AcDbLine
 62
250
  6
CONTINUOUS
 10
8.0749957692
 20
24.5
 11
8.0880943479
 21
24.4869014213
  0
LINE
  5
414
100
AcDbEntity
  8
RACCORDO
100
AcDbLine
 62
250
  6
CONTINUOUS
 10
10.7075780505
 20
-21.9498977711
 11
10.725
 21
-21.9411874598
  0
LINE
  5
415
100
AcDbEntity
  8
RACCORDO
100
AcDbLine
 62
7
  6
CONTINUOUS
 10
10.4586665638
 20
-22.3525030696
 11
10.4761653088
 21
-22.3437543634
  0
LWPOLYLINE
  5
416
100
AcDbEntity
  8
RACCORDO
100
AcDbPolyline
 62
7
  6
CONTINUOUS
 90
11
 70
0
 10
10.4586665626
 20
-22.3525030702
 10
10.4445972946
 20
-22.3592350157
 10
10.4249162987
 20
-22.3676760906
 10
10.4048548934
 20
-22.3751716873
 10
10.3844579488
 20
-22.3817047368
 10
10.3637802039
 20
-22.3872580372
 10
10.3428599813
 20
-22.3918216243
 10
10.3217176944
 20
-22.3953887314
 10
10.3003916322
 20
-22.3979479803
 10
10.2789387763
 20
-22.3994876437
 10
10.2574078424
 20
-22.4
  0
LWPOLYLINE
  5
417
100
AcDbEntity
  8
RACCORDO
100
AcDbPolyline
 62
250
  6
CONTINUOUS
 90
31
 70
0
 10
8.0880943479
 20
24.4869014213
 10
8.075042008
 20
24.4865600141
 10
8.0620171136
 20
24.4855367515
 10
8.049055339
 20
24.4838331472
 10
8.0361896202
 20
24.4814520171
 10
8.0234581551
 20
24.4783989037
 10
8.0109039705
 20
24.474683464
 10
7.9985641666
 20
24.4703169129
 10
7.9864698104
 20
24.465310483
 10
7.9746537322
 20
24.4596777344
 10
7.9631481318
 20
24.4534339327
 10
7.9519848134
 20
24.4465962509
 10
7.9411947342
 20
24.4391836209
 10
7.9308076083
 20
24.4312164786
 10
7.9208517711
 20
24.4227165817
 10
7.9113544367
 20
24.4137071599
 10
7.9023416176
 20
24.4042128667
 10
7.8938380761
 20
24.3942597633
 10
7.8858671679
 20
24.383875174
 10
7.878450761
 20
24.3730875837
 10
7.8716091852
 20
24.3619265577
 10
7.8653612061
 20
24.3504227019
 10
7.8597239578
 20
24.3386075563
 10
7.8547129023
 20
24.3265135191
 10
7.8503417872
 20
24.314173763
 10
7.8466225977
 20
24.3016221155
 10
7.8435655366
 20
24.2888930016
 10
7.8411789939
 20
24.2760213619
 10
7.8394695107
 20
24.2630425045
 10
7.8384417677
 20
24.2499920062
 10
7.8380985787
 20
24.2369056521
  0
LWPOLYLINE
  5
418
100
AcDbEntity
  8
RACCORDO
100
AcDbPolyline
 62
250
  6
CONTINUOUS
 90
31
 70
0
 10
-10.8119056521
 20
24.4869014213
 10
-10.8249920062
 20
24.4865582323
 10
-10.8380425045
 20
24.4855304893
 10
-10.8510213619
 20
24.4838210061
 10
-10.8638930016
 20
24.4814344634
 10
-10.8766221155
 20
24.4783774023
 10
-10.889173763
 20
24.4746582128
 10
-10.9015135191
 20
24.4702870977
 10
-10.9136075563
 20
24.4652760422
 10
-10.9254227019
 20
24.4596387939
 10
-10.9369265577
 20
24.4533908148
 10
-10.9480875837
 20
24.446549239
 10
-10.958875174
 20
24.4391328321
 10
-10.9692597633
 20
24.4311619239
 10
-10.9792128667
 20
24.4226583824
 10
-10.9887071599
 20
24.4136455633
 10
-10.9977165817
 20
24.4041482289
 10
-11.0062164786
 20
24.3941923917
 10
-11.0141836209
 20
24.3838052658
 10
-11.0215962509
 20
24.3730151866
 10
-11.0284339327
 20
24.3618518682
 10
-11.0346777344
 20
24.3503462678
 10
-11.040310483
 20
24.3385301896
 10
-11.0453169129
 20
24.3264358334
 10
-11.049683464
 20
24.3140960295
 10
-11.0533989037
 20
24.3015418449
 10
-11.0564520171
 20
24.2888103798
 10
-11.0588331472
 20
24.275944661
 10
-11.0605367515
 20
24.2629828864
 10
-11.0615600141
 20
24.249957992
 10
-11.0619014213
 20
24.2369056521
  0
LWPOLYLINE
  5
419
100
AcDbEntity
  8
RACCORDO
100
AcDbPolyline
 62
7
  6
CONTINUOUS
 90
34
 70
0
 10
8.0749957692
 20
24.5
 10
8.063100484
 20
24.4997168498
 10
8.0512321444
 20
24.4988680342
 10
8.0394176339
 20
24.4974554741
 10
8.0276837125
 20
24.4954823677
 10
8.0160569612
 20
24.4929531817
 10
8.004563721
 20
24.4898736417
 10
7.9932300262
 20
24.4862507213
 10
7.9820815507
 20
24.4820926258
 10
7.9711435537
 20
24.4774087722
 10
7.9604408124
 20
24.4722097688
 10
7.9499975717
 20
24.4665073916
 10
7.9398374941
 20
24.4603145581
 10
7.9299835949
 20
24.4536452955
 10
7.9204581962
 20
24.4465147107
 10
7.9112828809
 20
24.4389389589
 10
7.9024784339
 20
24.4309352005
 10
7.8940647995
 20
24.4225215661
 10
7.8860610411
 20
24.4137171191
 10
7.8784852893
 20
24.4045418038
 10
7.8713547045
 20
24.3950164051
 10
7.8646854419
 20
24.3851625059
 10
7.8584926084
 20
24.3750024283
 10
7.8527902312
 20
24.3645591876
 10
7.8475912278
 20
24.3538564463
 10
7.8429073742
 20
24.3429184493
 10
7.8387492787
 20
24.3317699738
 10
7.8351263583
 20
24.320436279
 10
7.8320468183
 20
24.3089430388
 10
7.8295176323
 20
24.2973162875
 10
7.8275445259
 20
24.2855823661
 10
7.8261319658
 20
24.2737678556
 10
7.8252831502
 20
24.261899516
 10
7.825
 20
24.2500042308
  0
LWPOLYLINE
  5
41A
100
AcDbEntity
  8
RACCORDO
100
AcDbPolyline
 62
7
  6
CONTINUOUS
 90
34
 70
0
 10
-10.8250042308
 20
24.5
 10
-10.836899516
 20
24.4997168498
 10
-10.8487678556
 20
24.4988680342
 10
-10.8605823661
 20
24.4974554741
 10
-10.8723162875
 20
24.4954823677
 10
-10.8839430388
 20
24.4929531817
 10
-10.895436279
 20
24.4898736417
 10
-10.9067699738
 20
24.4862507213
 10
-10.9179184493
 20
24.4820926258
 10
-10.9288564463
 20
24.4774087722
 10
-10.9395591876
 20
24.4722097688
 10
-10.9500024283
 20
24.4665073916
 10
-10.9601625059
 20
24.4603145581
 10
-10.9700164051
 20
24.4536452955
 10
-10.9795418038
 20
24.4465147107
 10
-10.9887171191
 20
24.4389389589
 10
-10.9975215661
 20
24.4309352005
 10
-11.0059352005
 20
24.4225215661
 10
-11.0139389589
 20
24.4137171191
 10
-11.0215147107
 20
24.4045418038
 10
-11.0286452955
 20
24.3950164051
 10
-11.0353145581
 20
24.3851625059
 10
-11.0415073916
 20
24.3750024283
 10
-11.0472097688
 20
24.3645591876
 10
-11.0524087722
 20
24.3538564463
 10
-11.0570926258
 20
24.3429184493
 10
-11.0612507213
 20
24.3317699738
 10
-11.0648736417
 20
24.320436279
 10
-11.0679531817
 20
24.3089430388
 10
-11.0704823677
 20
24.2973162875
 10
-11.0724554741
 20
24.2855823661
 10
-11.0738680342
 20
24.2737678556
 10
-11.0747168498
 20
24.261899516
 10
-11.075
 20
24.2500042308
  0
LINE
  5
41B
100
AcDbEntity
  8
RACCORDO
100
AcDbLine
 62
250
  6
CONTINUOUS
 10
7.8380985787
 20
24.2369056521
 11
10.2119014213
 21
24.2369056521
  0
LINE
  5
41C
100
AcDbEntity
  8
RACCORDO
100
AcDbLine
 62
250
  6
CONTINUOUS
 10
-8.6880985787
 20
24.2369056521
 11
-11.0619014213
 21
24.2369056521
  0
LINE
  5
41D
100
AcDbEntity
  8
RACCORDO
100
AcDbLine
 62
250
  6
CONTINUOUS
 10
9.9619056521
 20
24.4869014213
 11
8.0880943479
 21
24.4869014213
  0
LINE
  5
41E
100
AcDbEntity
  8
RACCORDO
100
AcDbLine
 62
250
  6
CONTINUOUS
 10
-8.9380943479
 20
24.4869014213
 11
-10.8119056521
 21
24.4869014213
  0
LINE
  5
41F
100
AcDbEntity
  8
RACCORDO
100
AcDbLine
 62
7
  6
CONTINUOUS
 10
-10.8250042308
 20
24.5
 11
-8.9249957692
 21
24.5
  0
LINE
  5
420
100
AcDbEntity
  8
RACCORDO
100
AcDbLine
 62
7
  6
CONTINUOUS
 10
8.0749957692
 20
24.5
 11
9.9750042308
 21
24.5
  0
LWPOLYLINE
  5
421
100
AcDbEntity
  8
0
100
AcDbPolyline
 62
7
  6
CONTINUOUS
 90
6
 70
0
 43
0.3500000087
 10
1.7178571836
 20
33.7994725769
 10
2.7892855833
 20
33.7994725769
 10
3.0035713165
 20
34.0137591095
 10
3.0035713165
 20
35.0851875092
 10
2.5750001165
 20
35.513756311
 10
2.1464285169
 20
35.513756311
  0
LWPOLYLINE
  5
422
100
AcDbEntity
  8
0
100
AcDbPolyline
 62
7
  6
CONTINUOUS
 90
7
 70
0
 43
0.3500000087
 10
-0.8535714152
 20
33.7994725769
 10
-2.3535714811
 20
33.7994725769
 10
-0.8535714152
 20
35.9423293762
 10
-0.8535714152
 20
36.3709024414
 10
-1.282142815
 20
36.7994712433
 10
-1.9250000147
 20
36.7994712433
 10
-2.3535714811
 20
36.1566159088
  0
LWPOLYLINE
  5
423
100
AcDbEntity
  8
0
100
AcDbPolyline
 62
7
  6
CONTINUOUS
 90
7
 70
0
 43
0.3500000087
 10
-3.210714414
 20
33.7994725769
 10
-4.7107145466
 20
33.7994725769
 10
-3.210714414
 20
35.9423293762
 10
-3.210714414
 20
36.3709024414
 10
-3.639285614
 20
36.7994712433
 10
-4.2821428137
 20
36.7994712433
 10
-4.7107145466
 20
36.1566159088
  0
LWPOLYLINE
  5
424
100
AcDbEntity
  8
RACCORDO
100
AcDbPolyline
 62
7
  6
CONTINUOUS
 90
11
 70
0
 10
10.4586664589
 20
22.352503122
 10
10.4445971712
 20
22.3592350762
 10
10.4249161851
 20
22.3676761448
 10
10.4048547902
 20
22.375171735
 10
10.3844578571
 20
22.3817047778
 10
10.3637801245
 20
22.3872580713
 10
10.3428599152
 20
22.3918216515
 10
10.3217176429
 20
22.3953887516
 10
10.3003915966
 20
22.3979479935
 10
10.2789387579
 20
22.3994876502
 10
10.2574078424
 20
22.4
  0
LINE
  5
425
100
AcDbEntity
  8
RACCORDO
100
AcDbLine
 62
250
  6
CONTINUOUS
 10
10.725
 20
21.9411874598
 11
10.7075779097
 21
21.9498978415
  0
LINE
  5
426
100
AcDbEntity
  8
RACCORDO
100
AcDbLine
 62
7
  6
CONTINUOUS
 10
10.4761653088
 20
22.3437543634
 11
10.4586664601
 21
22.3525031214
  0
LWPOLYLINE
  5
427
100
AcDbEntity
  8
0
100
AcDbPolyline
 62
7
  6
CONTINUOUS
 90
5
 70
0
 43
0.3500000087
 10
-47.9809771088
 20
45.357264389
 10
-47.62383573
 20
45.5715509216
 10
-47.62383573
 20
46.2144062561
 10
-47.9809771088
 20
46.6429793213
 10
-48.8381232391
 20
46.6429793213
  0
LWPOLYLINE
  5
428
100
AcDbEntity
  8
RACCORDO
100
AcDbPolyline
 62
7
  6
CONTINUOUS
 90
3
 70
0
 10
-53.9081991315
 20
23.123528707
 10
-53.9092105019
 20
23.1229033082
 10
-53.9095500063
 20
23.1226497308
  0
LINE
  5
429
100
AcDbEntity
  8
RACCORDO
100
AcDbLine
 62
7
  6
CONTINUOUS
 10
-53.9012560084
 20
23.1276610792
 11
-53.9081991315
 21
23.123528707
  0
LINE
  5
42A
100
AcDbEntity
  8
RACCORDO
100
AcDbLine
 62
7
  6
CONTINUOUS
 10
-53.8503755566
 20
23.1573625195
 11
-53.9012560084
 21
23.1276610792
  0
LINE
  5
42B
100
AcDbEntity
  8
RACCORDO
100
AcDbLine
 62
250
  6
CONTINUOUS
 10
-52.4095500063
 20
23.4104851482
 11
-51.6580955735
 21
23.8443375673
  0
LINE
  5
42C
100
AcDbEntity
  8
RACCORDO
100
AcDbLine
 62
7
  6
CONTINUOUS
 10
-53.6610044392
 20
23.2669872981
 11
-53.8503755566
 21
23.1573625195
  0
LINE
  5
42D
100
AcDbEntity
  8
RACCORDO
100
AcDbLine
 62
7
  6
CONTINUOUS
 10
-51.6580955735
 20
-24.495628166
 11
-52.4095500063
 21
-24.5
  0
LINE
  5
42E
100
AcDbEntity
  8
RACCORDO
100
AcDbLine
 62
250
  6
CONTINUOUS
 10
-51.6580955735
 20
-24.2456323968
 11
-52.4095500063
 21
-24.2500042308
  0
LINE
  5
42F
100
AcDbEntity
  8
RACCORDO
100
AcDbLine
 62
250
  6
CONTINUOUS
 10
-51.4095500063
 20
-24.2456323968
 11
-51.6580955735
 21
-24.2456323968
  0
LINE
  5
430
100
AcDbEntity
  8
RACCORDO
100
AcDbLine
 62
250
  6
CONTINUOUS
 10
-54.9095500063
 20
-24.2369056521
 11
-54.6610044392
 21
-24.2369056521
  0
LINE
  5
431
100
AcDbEntity
  8
RACCORDO
100
AcDbLine
 62
7
  6
CONTINUOUS
 10
-52.4095500063
 20
-24.5
 11
-54.6610044392
 21
-24.4869014213
  0
LINE
  5
432
100
AcDbEntity
  8
RACCORDO
100
AcDbLine
 62
250
  6
CONTINUOUS
 10
-52.4095500063
 20
-24.2500042308
 11
-54.6610044392
 21
-24.2369056521
  0
LINE
  5
433
100
AcDbEntity
  8
RACCORDO
100
AcDbLine
 62
250
  6
CONTINUOUS
 10
-51.6580955735
 20
-23.8443375673
 11
-52.4095500063
 21
-23.4104851482
  0
LINE
  5
434
100
AcDbEntity
  8
RACCORDO
100
AcDbLine
 62
7
  6
CONTINUOUS
 10
-53.6610044392
 20
-23.2669872981
 11
-53.8073940956
 21
-23.182312533
  0
LINE
  5
435
100
AcDbEntity
  8
RACCORDO
100
AcDbLine
 62
7
  6
CONTINUOUS
 10
-53.8073940956
 20
-23.182312533
 11
-53.8936199425
 21
-23.1321470947
  0
LINE
  5
436
100
AcDbEntity
  8
RACCORDO
100
AcDbLine
 62
7
  6
CONTINUOUS
 10
-53.8936199425
 20
-23.1321470947
 11
-53.9042276269
 21
-23.1259025536
  0
LWPOLYLINE
  5
437
100
AcDbEntity
  8
RACCORDO
100
AcDbPolyline
 62
7
  6
CONTINUOUS
 90
5
 70
0
 10
-53.9042276269
 20
-23.1259025536
 10
-53.9065437514
 20
-23.1245164325
 10
-53.9082066356
 20
-23.1234933505
 10
-53.9092126691
 20
-23.1228641607
 10
-53.9095500063
 20
-23.1226497308
  0
LINE
  5
438
100
AcDbEntity
  8
RACCORDO
100
AcDbLine
 62
7
  6
CONTINUOUS
 10
-52.4095500063
 20
23.1226497308
 11
-51.5345500063
 21
23.6278312164
  0
LINE
  5
439
100
AcDbEntity
  8
RACCORDO
100
AcDbLine
 62
7
  6
CONTINUOUS
 10
-42.4008234708
 20
-22.3126551668
 11
-52.4095500063
 21
-22.4
  0
LINE
  5
43A
100
AcDbEntity
  8
ASSI
100
AcDbLine
 62
7
  6
CONTINUOUS
 10
-51.4146413747
 20
-23.7942117909
 11
-44.9066411407
 21
-23.7563493531
  0
LINE
  5
43B
100
AcDbEntity
  8
RACCORDO
100
AcDbLine
 62
250
  6
CONTINUOUS
 10
-54.9095500063
 20
-23.8443375673
 11
-54.6610044392
 21
-23.8443375673
  0
LINE
  5
43C
100
AcDbEntity
  8
RACCORDO
100
AcDbLine
 62
250
  6
CONTINUOUS
 10
-51.4095500063
 20
-23.8443375673
 11
-51.6580955735
 21
-23.8443375673
  0
LINE
  5
43D
100
AcDbEntity
  8
RACCORDO
100
AcDbLine
 62
7
  6
CONTINUOUS
 10
-60.0663288952
 20
-21.998725222
 11
-52.4095500063
 21
-22.4
  0
LINE
  5
43E
100
AcDbEntity
  8
RACCORDO
100
AcDbLine
 62
250
  6
CONTINUOUS
 10
-53.9110700502
 20
-21.8713815411
 11
-53.0370727835
 21
-21.9168626206
  0
LINE
  5
43F
100
AcDbEntity
  8
RACCORDO
100
AcDbLine
 62
250
  6
CONTINUOUS
 10
-53.0370727835
 20
-21.9168626206
 11
-52.4076528265
 21
-21.9498977711
  0
LWPOLYLINE
  5
440
100
AcDbEntity
  8
RACCORDO
100
AcDbPolyline
 62
250
  6
CONTINUOUS
 90
9
 70
0
 10
-59.7156297028
 20
-21.5175213906
 10
-59.3844788152
 20
-21.5361645244
 10
-59.0554344575
 20
-21.555339856
 10
-58.7314022823
 20
-21.5749817898
 10
-58.409476637
 20
-21.5951559214
 10
-58.080940564
 20
-21.6160590372
 10
-57.7413994943
 20
-21.6379672715
 10
-57.395247997
 20
-21.6606044901
 10
-56.3379220565
 20
-21.7295003182
  0
LWPOLYLINE
  5
441
100
AcDbEntity
  8
RACCORDO
100
AcDbPolyline
 62
250
  6
CONTINUOUS
 90
9
 70
0
 10
-56.3379220565
 20
-21.7295003182
 10
-55.9936719758
 20
-21.7514954284
 10
-55.6652804101
 20
-21.7719710868
 10
-55.3482259853
 20
-21.7913125505
 10
-55.0424253984
 20
-21.809444028
 10
-54.7517373366
 20
-21.8260296167
 10
-54.4723031126
 20
-21.8414052191
 10
-54.1924633629
 20
-21.856502752
 10
-53.9110700502
 20
-21.8713815411
  0
LINE
  5
442
100
AcDbEntity
  8
RACCORDO
100
AcDbLine
 62
7
  6
CONTINUOUS
 10
-51.5345500063
 20
-23.6278312164
 11
-52.4095500063
 21
-23.1226497308
  0
LWPOLYLINE
  5
443
100
AcDbEntity
  8
RACCORDO
100
AcDbPolyline
 62
250
  6
CONTINUOUS
 90
5
 70
0
 10
-54.7820544039
 20
23.6326765842
 10
-54.7831867799
 20
23.6305857918
 10
-54.7839814654
 20
23.6290788219
 10
-54.7844362882
 20
23.6281597935
 10
-54.7845500063
 20
23.6278312164
  0
LINE
  5
444
100
AcDbEntity
  8
RACCORDO
100
AcDbLine
 62
250
  6
CONTINUOUS
 10
-54.7787898535
 20
23.6385852371
 11
-54.7820544039
 21
23.6326765842
  0
LINE
  5
445
100
AcDbEntity
  8
RACCORDO
100
AcDbLine
 62
250
  6
CONTINUOUS
 10
-54.7714669961
 20
23.6516334796
 11
-54.7787898535
 21
23.6385852371
  0
LINE
  5
446
100
AcDbEntity
  8
RACCORDO
100
AcDbLine
 62
250
  6
CONTINUOUS
 10
-54.7488297405
 20
23.6914794042
 11
-54.7714669961
 21
23.6516334796
  0
LINE
  5
447
100
AcDbEntity
  8
RACCORDO
100
AcDbLine
 62
250
  6
CONTINUOUS
 10
-54.6740258754
 20
23.821769291
 11
-54.7488297405
 21
23.6914794042
  0
LINE
  5
448
100
AcDbEntity
  8
RACCORDO
100
AcDbLine
 62
250
  6
CONTINUOUS
 10
-54.6610044392
 20
23.8443375673
 11
-54.6740258754
 21
23.821769291
  0
LINE
  5
449
100
AcDbEntity
  8
DRAFT
100
AcDbLine
 62
7
  6
CONTINUOUS
 10
-51.4095500063
 20
-20.85
 11
-41.4095500063
 21
-20.6754493507
  0
LINE
  5
44A
100
AcDbEntity
  8
ASSI
100
AcDbLine
 62
7
  6
CONTINUOUS
 10
-51.4095500063
 20
-20.85
 11
-41.4095500063
 21
-20.6754493507
  0
LINE
  5
44B
100
AcDbEntity
  8
RACCORDO
100
AcDbLine
 62
250
  6
CONTINUOUS
 10
-52.4076528265
 20
-21.9498977711
 11
-51.4095500063
 21
-21.9411874598
  0
LINE
  5
44C
100
AcDbEntity
  8
RACCORDO
100
AcDbLine
 62
7
  6
CONTINUOUS
 10
-41.4095500063
 20
-20.9959955457
 11
-51.2097632461
 21
-20.9104703804
  0
LINE
  5
44D
100
AcDbEntity
  8
RACCORDO
100
AcDbLine
 62
7
  6
CONTINUOUS
 10
-41.9008238031
 20
-21.5659754333
 11
-51.4095500063
 21
-21.4
  0
LINE
  5
44E
100
AcDbEntity
  8
DRAFT
100
AcDbLine
 62
7
  6
CONTINUOUS
 10
-51.2097632461
 20
-20.9104703804
 11
-51.4095500063
 21
-20.9
  0
LINE
  5
44F
100
AcDbEntity
  8
RACCORDO
100
AcDbLine
 62
250
  6
CONTINUOUS
 10
-54.6610044392
 20
-23.8443375673
 11
-54.7232034446
 21
-23.7362657898
  0
LINE
  5
450
100
AcDbEntity
  8
RACCORDO
100
AcDbLine
 62
250
  6
CONTINUOUS
 10
-54.7232034446
 20
-23.7362657898
 11
-54.7650495128
 21
-23.6629768418
  0
LINE
  5
451
100
AcDbEntity
  8
RACCORDO
100
AcDbLine
 62
250
  6
CONTINUOUS
 10
-54.7650495128
 20
-23.6629768418
 11
-54.7766681644
 21
-23.6423841576
  0
LWPOLYLINE
  5
452
100
AcDbEntity
  8
RACCORDO
100
AcDbPolyline
 62
250
  6
CONTINUOUS
 90
7
 70
0
 10
-54.7766681644
 20
-23.6423841576
 10
-54.7805882218
 20
-23.6353440559
 10
-54.7820549093
 20
-23.6326756587
 10
-54.7831870617
 20
-23.6305852658
 10
-54.7839815871
 20
-23.6290785857
 10
-54.7844363159
 20
-23.6281597328
 10
-54.7845500063
 20
-23.6278312164
  0
LINE
  5
453
100
AcDbEntity
  8
RACCORDO
100
AcDbLine
 62
250
  6
CONTINUOUS
 10
-61.4860033045
 20
-20.562428674
 11
-61.4865559695
 21
-20.5624683244
  0
LINE
  5
454
100
AcDbEntity
  8
RACCORDO
100
AcDbLine
 62
250
  6
CONTINUOUS
 10
-61.481585164
 20
-20.5622131683
 11
-61.4860033045
 21
-20.562428674
  0
LINE
  5
455
100
AcDbEntity
  8
RACCORDO
100
AcDbLine
 62
250
  6
CONTINUOUS
 10
-61.178777384
 20
-20.5494685343
 11
-61.481585164
 21
-20.5622131683
  0
LWPOLYLINE
  5
456
100
AcDbEntity
  8
RACCORDO
100
AcDbPolyline
 62
250
  6
CONTINUOUS
 90
6
 70
0
 10
-60.9957051759
 20
-20.5419058565
 10
-61.0191990539
 20
-20.5428735514
 10
-61.0426215543
 20
-20.5438391025
 10
-61.065920789
 20
-20.5448003709
 10
-61.0890451429
 20
-20.5457552271
 10
-61.178777384
 20
-20.5494685343
  0
LINE
  5
457
100
AcDbEntity
  8
0
100
AcDbLine
 62
250
  6
CONTINUOUS
 10
-51.4095500063
 20
-19.0856972195
 11
-41.4095500063
 21
-19.0133959733
  0
LINE
  5
458
100
AcDbEntity
  8
ASSI
100
AcDbLine
 62
250
  6
CONTINUOUS
 10
-51.4095500063
 20
-19.0856972195
 11
-41.4095500063
 21
-19.0133959733
  0
LWPOLYLINE
  5
459
100
AcDbEntity
  8
RACCORDO
100
AcDbPolyline
 62
250
  6
CONTINUOUS
 90
142
 70
0
 10
-60.995705176
 20
-20.5419058565
 10
-60.9952194105
 20
-20.5523728179
 10
-60.9946241287
 20
-20.5628322981
 10
-60.9939193307
 20
-20.5732842972
 10
-60.9931049085
 20
-20.5837301166
 10
-60.9921809701
 20
-20.594168455
 10
-60.9911478386
 20
-20.6045954075
 10
-60.990005474
 20
-20.615010881
 10
-60.9887539163
 20
-20.6254149686
 10
-60.9873936093
 20
-20.6358040455
 10
-60.9859245075
 20
-20.6461781108
 10
-60.9843466565
 20
-20.6565371654
 10
-60.9826606369
 20
-20.6668775863
 10
-60.980866426
 20
-20.6771992721
 10
-60.9789640465
 20
-20.6875023242
 10
-60.9769541469
 20
-20.6977834241
 10
-60.9748367289
 20
-20.7080424366
 10
-60.9726117908
 20
-20.718279497
 10
-60.9702799764
 20
-20.7284916916
 10
-60.9678412485
 20
-20.7386790858
 10
-60.9652956443
 20
-20.7488416143
 10
-60.9626439182
 20
-20.7589761679
 10
-60.9598859998
 20
-20.7690828761
 10
-60.9570219597
 20
-20.7791616095
 10
-60.9540527636
 20
-20.7892088706
 10
-60.9509783547
 20
-20.799224688
 10
-60.9477987899
 20
-20.8092090332
 10
-60.9445152062
 20
-20.8191583232
 10
-60.9411275958
 20
-20.8290724474
 10
-60.9376359665
 20
-20.8389515164
 10
-60.9340414787
 20
-20.8487922793
 10
-60.9303441122
 20
-20.8585946929
 10
-60.9265438873
 20
-20.8683588003
 10
-60.9226420253
 20
-20.8780814809
 10
-60.9186384914
 20
-20.8877627332
 10
-60.9145333204
 20
-20.8974025587
 10
-60.9103278385
 20
-20.9069978398
 10
-60.9060219949
 20
-20.9165486018
 10
-60.9016158403
 20
-20.9260548195
 10
-60.8971108538
 20
-20.9355133
 10
-60.8925070077
 20
-20.9449240129
 10
-60.8878043296
 20
-20.9542869885
 10
-60.8830043812
 20
-20.9635991253
 10
-60.8781071442
 20
-20.9728603819
 10
-60.8731126368
 20
-20.9820707997
 10
-60.8680224755
 20
-20.9912274012
 10
-60.8628366413
 20
-21.000330154
 10
-60.8575551532
 20
-21.0093790906
 10
-60.8521796844
 20
-21.0183713304
 10
-60.8467101956
 20
-21.0273068756
 10
-60.8411467261
 20
-21.036185724
 10
-60.8354910671
 20
-21.0450049889
 10
-60.8297431581
 20
-21.0537646951
 10
-60.8239030596
 20
-21.0624648176
 10
-60.8179727449
 20
-21.071102395
 10
-60.811952166
 20
-21.0796774224
 10
-60.8058413709
 20
-21.0881899045
 10
-60.7996424766
 20
-21.0966368945
 10
-60.7933554568
 20
-21.1050183559
 10
-60.7869803378
 20
-21.1133343251
 10
-60.7805193153
 20
-21.1215819644
 10
-60.7739724138
 20
-21.1297611838
 10
-60.7673396089
 20
-21.1378720733
 10
-60.7606230227
 20
-21.1459120647
 10
-60.7538226665
 20
-21.1538811011
 10
-60.746938529
 20
-21.1617792393
 10
-60.7399726985
 20
-21.1696040814
 10
-60.7329250963
 20
-21.1773556701
 10
-60.7257958012
 20
-21.1850339627
 10
-60.7185871382
 20
-21.1926364334
 10
-60.7112990162
 20
-21.200163118
 10
-60.7039315264
 20
-21.2076139807
 10
-60.6964872673
 20
-21.2149863883
 10
-60.6889662549
 20
-21.2222802653
 10
-60.6813684731
 20
-21.2294956871
 10
-60.6736964722
 20
-21.2366302465
 10
-60.6659503018
 20
-21.2436838538
 10
-60.6581299124
 20
-21.2506565986
 10
-60.6502377058
 20
-21.2575463426
 10
-60.6422736387
 20
-21.2643530857
 10
-60.6342377544
 20
-21.2710768279
 10
-60.6261325846
 20
-21.2777154312
 10
-60.6179580372
 20
-21.2842689239
 10
-60.6097142043
 20
-21.2907372777
 10
-60.6014038939
 20
-21.2971182699
 10
-60.5930270743
 20
-21.3034118717
 10
-60.5845837772
 20
-21.3096181119
 10
-60.5760769055
 20
-21.3157348541
 10
-60.5675064599
 20
-21.3217620481
 10
-60.5588724397
 20
-21.3276997441
 10
-60.5501777465
 20
-21.333545957
 10
-60.541422388
 20
-21.3393006375
 10
-60.5326063564
 20
-21.3449638348
 10
-60.5237325301
 20
-21.3505337116
 10
-60.5148008982
 20
-21.3560102344
 10
-60.5058114716
 20
-21.3613934368
 10
-60.4967671603
 20
-21.366681582
 10
-60.4876679473
 20
-21.3718746411
 10
-60.4785138496
 20
-21.3769726431
 10
-60.4693078286
 20
-21.3819739382
 10
-60.4600498566
 20
-21.3868785021
 10
-60.4507399613
 20
-21.391686359
 10
-60.4413811872
 20
-21.3963959318
 10
-60.431973504
 20
-21.4010071952
 10
-60.422516942
 20
-21.4055201744
 10
-60.4130146377
 20
-21.4099333681
 10
-60.4034665795
 20
-21.414246741
 10
-60.393872779
 20
-21.4184603284
 10
-60.3842364071
 20
-21.4225727353
 10
-60.3745574505
 20
-21.4265839276
 10
-60.3648359226
 20
-21.4304939394
 10
-60.3550750342
 20
-21.4343014783
 10
-60.3452747704
 20
-21.4380065106
 10
-60.3354351461
 20
-21.4416090699
 10
-60.325559418
 20
-21.4451079644
 10
-60.3156475734
 20
-21.4485031593
 10
-60.3056996249
 20
-21.4517946893
 10
-60.295718867
 20
-21.4549814666
 10
-60.2857052942
 20
-21.4580634546
 10
-60.275658912
 20
-21.4610406899
 10
-60.2655830307
 20
-21.4639121946
 10
-60.2554776646
 20
-21.4666779288
 10
-60.2453427996
 20
-21.4693379324
 10
-60.2351817034
 20
-21.4718913476
 10
-60.2249943497
 20
-21.4743381457
 10
-60.2147807649
 20
-21.4766783555
 10
-60.2045442959
 20
-21.4789112052
 10
-60.194284921
 20
-21.4810366616
 10
-60.1840026618
 20
-21.483054758
 10
-60.1737009305
 20
-21.4849648223
 10
-60.1633797171
 20
-21.4867668203
 10
-60.1530390316
 20
-21.4884607863
 10
-60.142682316
 20
-21.4900461501
 10
-60.1323095613
 20
-21.4915228662
 10
-60.1219207764
 20
-21.4928909801
 10
-60.1115194297
 20
-21.4941500589
 10
-60.1011054688
 20
-21.4953000867
 10
-60.0906789461
 20
-21.4963410794
 10
-60.0802434873
 20
-21.4972726511
 10
-60.0698003011
 20
-21.4980946732
 10
-60.0593481787
 20
-21.4988072744
 10
-59.7156297028
 20
-21.5175213906
  0
LWPOLYLINE
  5
45A
100
AcDbEntity
  8
RACCORDO
100
AcDbPolyline
 62
250
  6
CONTINUOUS
 90
67
 70
0
 10
-60.995705176
 20
20.5419058565
 10
-61.0209246422
 20
19.9197464067
 10
-61.0453683051
 20
19.297562358
 10
-61.0690361647
 20
18.6753537106
 10
-61.0919281744
 20
18.0531216464
 10
-61.1140443808
 20
17.4308649834
 10
-61.1353849233
 20
16.8085801754
 10
-61.155949903
 20
16.1862644516
 10
-61.175739219
 20
15.5639205828
 10
-61.1947527072
 20
14.9415533353
 10
-61.2129903423
 20
14.3191632699
 10
-61.2304521496
 20
13.6967498259
 10
-61.247138042
 20
13.074316087
 10
-61.2630480136
 20
12.4518621194
 10
-61.2781820702
 20
11.8293878568
 10
-61.2925401418
 20
11.2068961845
 10
-61.306122225
 20
10.5843870975
 10
-61.3189283232
 20
9.9618606007
 10
-61.3309583768
 20
9.3393195937
 10
-61.3422123823
 20
8.7167640752
 10
-61.3526903431
 20
8.0941940464
 10
-61.3623922105
 20
7.4716124109
 10
-61.3713179809
 20
6.8490191698
 10
-61.3794676578
 20
6.226414322
 10
-61.3868412033
 20
5.6038007685
 10
-61.3934386139
 20
4.9811785086
 10
-61.3992598931
 20
4.358547543
 10
-61.4043050138
 20
3.7359107751
 10
-61.4085739725
 20
3.113268209
 10
-61.4120667726
 20
2.4906198405
 10
-61.414783398
 20
1.8679685611
 10
-61.4167238451
 20
1.2453143631
 10
-61.4178881174
 20
0.6226572542
 10
-61.4182762095
 20
0.0000001487
 10
-61.4178881178
 20
-0.6226569494
 10
-61.4167238459
 20
-1.2453140441
 10
-61.4147833992
 20
-1.8679682326
 10
-61.4120667742
 20
-2.4906195131
 10
-61.4085739744
 20
-3.1132678874
 10
-61.4043050162
 20
-3.7359104584
 10
-61.3992598959
 20
-4.3585472277
 10
-61.393438617
 20
-4.9811781937
 10
-61.3868412069
 20
-5.603800454
 10
-61.3794676617
 20
-6.2264140093
 10
-61.3713179851
 20
-6.8490188591
 10
-61.3623922152
 20
-7.4716120989
 10
-61.3526903484
 20
-8.0941937225
 10
-61.3422123882
 20
-8.7167637361
 10
-61.3309583832
 20
-9.3393192542
 10
-61.3189283293
 20
-9.9618602928
 10
-61.3061222305
 20
-10.5843868359
 10
-61.2925401471
 20
-11.2068959505
 10
-61.2781820759
 20
-11.8293876193
 10
-61.26304802
 20
-12.4518618596
 10
-61.2471380497
 20
-13.0743157901
 10
-61.2304521617
 20
-13.6967494028
 10
-61.2129903592
 20
-14.3191627057
 10
-61.194752722
 20
-14.9415528416
 10
-61.1757392458
 20
-15.5639198349
 10
-61.155949935
 20
-16.1862636613
 10
-61.1353848823
 20
-16.8085813906
 10
-61.1140440815
 20
-17.4308730836
 10
-61.0919275388
 20
-18.0531386795
 10
-61.0690353657
 20
-18.6753750659
 10
-61.0453675995
 20
-19.2975812055
 10
-61.0209242029
 20
-19.9197581357
 10
-60.995705176
 20
-20.5419058565
  0
LINE
  5
45B
100
AcDbEntity
  8
RACCORDO
100
AcDbLine
 62
7
  6
CONTINUOUS
 10
-40.9182762095
 20
-15.9508855631
 11
-30.3920975999
 21
-15.767150432
  0
LINE
  5
45C
100
AcDbEntity
  8
ASSI
100
AcDbLine
 62
7
  6
CONTINUOUS
 10
-40.9182762095
 20
-15.9508855631
 11
-30.3920975999
 21
-15.767150432
  0
LINE
  5
45D
100
AcDbEntity
  8
0
100
AcDbLine
 62
250
  6
CONTINUOUS
 10
-51.4095500063
 20
-17.6716990487
 11
-41.4095500063
 21
-17.5993978025
  0
LINE
  5
45E
100
AcDbEntity
  8
ASSI
100
AcDbLine
 62
250
  6
CONTINUOUS
 10
-51.4095500063
 20
-17.6716990487
 11
-41.4095500063
 21
-17.5993978025
  0
LINE
  5
45F
100
AcDbEntity
  8
RACCORDO
100
AcDbLine
 62
250
  6
CONTINUOUS
 10
-60.0488871202
 20
21.4994104546
 11
-60.0536761471
 21
21.5938522188
  0
LINE
  5
460
100
AcDbEntity
  8
RACCORDO
100
AcDbLine
 62
250
  6
CONTINUOUS
 10
-60.0536761471
 20
21.5938522188
 11
-60.0579792566
 21
21.6848844282
  0
LINE
  5
461
100
AcDbEntity
  8
RACCORDO
100
AcDbLine
 62
250
  6
CONTINUOUS
 10
-60.0579792566
 20
21.6848844282
 11
-60.0616395285
 21
21.7692208715
  0
LINE
  5
462
100
AcDbEntity
  8
RACCORDO
100
AcDbLine
 62
250
  6
CONTINUOUS
 10
-60.0616395285
 20
21.7692208715
 11
-60.0645239056
 21
21.8438170062
  0
LINE
  5
463
100
AcDbEntity
  8
RACCORDO
100
AcDbLine
 62
250
  6
CONTINUOUS
 10
-60.0645239056
 20
21.8438170062
 11
-60.0661139683
 21
21.8917360011
  0
LINE
  5
464
100
AcDbEntity
  8
RACCORDO
100
AcDbLine
 62
250
  6
CONTINUOUS
 10
-60.0661139683
 20
21.8917360011
 11
-60.0668821392
 21
21.9193038229
  0
LWPOLYLINE
  5
465
100
AcDbEntity
  8
RACCORDO
100
AcDbPolyline
 62
250
  6
CONTINUOUS
 90
12
 70
0
 10
-60.0668821392
 20
21.9193038229
 10
-60.0674084573
 20
21.9430734542
 10
-60.0675793913
 20
21.9534653575
 10
-60.0676882881
 20
21.9628298768
 10
-60.067734907
 20
21.971145823
 10
-60.0677192027
 20
21.9783943766
 10
-60.0676412057
 20
21.9845591366
 10
-60.0675010993
 20
21.9896261539
 10
-60.0672992803
 20
21.9935839594
 10
-60.0670362328
 20
21.9964235964
 10
-60.0667125266
 20
21.998138641
 10
-60.0663288947
 20
21.9987252125
  0
LWPOLYLINE
  5
466
100
AcDbEntity
  8
RACCORDO
100
AcDbPolyline
 62
250
  6
CONTINUOUS
 90
10
 70
0
 10
-60.0677907659
 20
-21.9534503308
 10
-60.0678833074
 20
-21.9628159205
 10
-60.0679116567
 20
-21.9711330983
 10
-60.067875831
 20
-21.9783830421
 10
-60.067775904
 20
-21.9845493462
 10
-60.0676121074
 20
-21.9896180557
 10
-60.0673849129
 20
-21.9935776953
 10
-60.0670948683
 20
-21.9964193004
 10
-60.0667425964
 20
-21.998136439
 10
-60.0663288952
 20
-21.9987252218
  0
LINE
  5
467
100
AcDbEntity
  8
RACCORDO
100
AcDbLine
 62
250
  6
CONTINUOUS
 10
-60.0674140761
 20
-21.9316610068
 11
-60.0677907659
 21
-21.9534503308
  0
LINE
  5
468
100
AcDbEntity
  8
RACCORDO
100
AcDbLine
 62
250
  6
CONTINUOUS
 10
-60.0667848393
 20
-21.9059622196
 11
-60.0674140761
 21
-21.9316610068
  0
LINE
  5
469
100
AcDbEntity
  8
RACCORDO
100
AcDbLine
 62
250
  6
CONTINUOUS
 10
-60.0659086695
 20
-21.8765864156
 11
-60.0667848393
 21
-21.9059622196
  0
LINE
  5
46A
100
AcDbEntity
  8
RACCORDO
100
AcDbLine
 62
250
  6
CONTINUOUS
 10
-60.0641491883
 20
-21.8262180157
 11
-60.0659086695
 21
-21.8765864156
  0
LINE
  5
46B
100
AcDbEntity
  8
RACCORDO
100
AcDbLine
 62
250
  6
CONTINUOUS
 10
-60.0610306328
 20
-21.7489215869
 11
-60.0641491883
 21
-21.8262180157
  0
LINE
  5
46C
100
AcDbEntity
  8
RACCORDO
100
AcDbLine
 62
250
  6
CONTINUOUS
 10
-60.0560554935
 20
-21.6399953754
 11
-60.0610306328
 21
-21.7489215869
  0
LWPOLYLINE
  5
46D
100
AcDbEntity
  8
RACCORDO
100
AcDbPolyline
 62
250
  6
CONTINUOUS
 90
3
 70
0
 10
-60.0488871379
 20
-21.4994104546
 10
-60.0501508394
 20
-21.5231534983
 10
-60.0560554935
 20
-21.6399953754
  0
LINE
  5
46E
100
AcDbEntity
  8
0
100
AcDbLine
 62
250
  6
CONTINUOUS
 10
-45.9260575181
 20
16.0
 11
-48.825175217
 21
14.991935
  0
LINE
  5
46F
100
AcDbEntity
  8
0
100
AcDbLine
 62
250
  6
CONTINUOUS
 10
-46.5405093074
 20
15.164584
 11
-45.9260575181
 21
15.373574
  0
LINE
  5
470
100
AcDbEntity
  8
0
100
AcDbLine
 62
250
  6
CONTINUOUS
 10
-48.2710200566
 20
14.606449
 11
-47.0222955171
 21
15.007869
  0
LINE
  5
471
100
AcDbEntity
  8
RACCORDO
100
AcDbLine
 62
250
  6
CONTINUOUS
 10
-40.918276178
 20
-14.9510378674
 11
-30.3920975999
 21
-14.7673027369
  0
LINE
  5
472
100
AcDbEntity
  8
ASSI
100
AcDbLine
 62
250
  6
CONTINUOUS
 10
-40.918276178
 20
-14.9510378674
 11
-30.3920975999
 21
-14.7673027369
  0
LINE
  5
473
100
AcDbEntity
  8
RACCORDO
100
AcDbLine
 62
250
  6
CONTINUOUS
 10
-30.3920975999
 20
-14.7673027369
 11
-29.4095500063
 21
-14.7673027369
  0
LINE
  5
474
100
AcDbEntity
  8
ASSI
100
AcDbLine
 62
250
  6
CONTINUOUS
 10
-30.3920975999
 20
-14.7673027369
 11
-29.4095500063
 21
-14.7673027369
  0
LINE
  5
475
100
AcDbEntity
  8
0
100
AcDbLine
 62
250
  6
CONTINUOUS
 10
-48.8253121753
 20
-14.137714
 11
-46.8290234031
 21
-14.778839
  0
LINE
  5
476
100
AcDbEntity
  8
0
100
AcDbLine
 62
250
  6
CONTINUOUS
 10
-45.926064516
 20
-14.488824
 11
-48.8253121753
 21
-13.557685
  0
LWPOLYLINE
  5
477
100
AcDbEntity
  8
RACCORDO
100
AcDbPolyline
 62
250
  6
CONTINUOUS
 90
6
 70
0
 10
-54.6610044392
 20
-24.4869014213
 10
-54.6610785609
 20
-24.4865583827
 10
-54.6611484932
 20
-24.4855310928
 10
-54.6612140443
 20
-24.4838223673
 10
-54.6612750346
 20
-24.4814368893
 10
-54.6613312969
 20
-24.4783811971
  0
LWPOLYLINE
  5
478
100
AcDbEntity
  8
0
100
AcDbPolyline
 62
7
  6
CONTINUOUS
 90
3
 70
0
 43
0.3500000087
 10
-43.623836087
 20
43.9286946106
 10
-43.6952635101
 20
43.714408078
 10
-43.8381226196
 20
43.4286941223
  0
LINE
  5
479
100
AcDbEntity
  8
0
100
AcDbLine
 62
7
  6
CONTINUOUS
 10
-48.825175217
 20
14.923882055
 11
-48.7208452332
 21
15.0282120387
  0
LINE
  5
47A
100
AcDbEntity
  8
0
100
AcDbLine
 62
7
  6
CONTINUOUS
 10
-48.825175217
 20
14.7658295472
 11
-48.4785395467
 21
15.1124652176
  0
LINE
  5
47B
100
AcDbEntity
  8
0
100
AcDbLine
 62
7
  6
CONTINUOUS
 10
-48.825175217
 20
14.6077770395
 11
-48.2362338601
 21
15.1967183964
  0
LINE
  5
47C
100
AcDbEntity
  8
0
100
AcDbLine
 62
7
  6
CONTINUOUS
 10
-48.825175217
 20
14.4497245318
 11
-47.9939281736
 21
15.2809715752
  0
LINE
  5
47D
100
AcDbEntity
  8
0
100
AcDbLine
 62
7
  6
CONTINUOUS
 10
-48.825175217
 20
14.2916720241
 11
-47.751622487
 21
15.365224754
  0
LINE
  5
47E
100
AcDbEntity
  8
0
100
AcDbLine
 62
7
  6
CONTINUOUS
 10
-48.7375865225
 20
14.2212082108
 11
-47.5093168005
 21
15.4494779329
  0
LINE
  5
47F
100
AcDbEntity
  8
0
100
AcDbLine
 62
7
  6
CONTINUOUS
 10
-48.6215116243
 20
14.1792306013
 11
-48.2139451336
 21
14.586797092
  0
LINE
  5
480
100
AcDbEntity
  8
0
100
AcDbLine
 62
7
  6
CONTINUOUS
 10
-48.1579430315
 20
14.6427991941
 11
-47.2670111139
 21
15.5337311117
  0
LINE
  5
481
100
AcDbEntity
  8
0
100
AcDbLine
 62
7
  6
CONTINUOUS
 10
-48.5054367261
 20
14.1372529918
 11
-48.0963743361
 21
14.5463153818
  0
LINE
  5
482
100
AcDbEntity
  8
0
100
AcDbLine
 62
7
  6
CONTINUOUS
 10
-47.9250113809
 20
14.717678337
 11
-47.0247054273
 21
15.6179842905
  0
LINE
  5
483
100
AcDbEntity
  8
0
100
AcDbLine
 62
7
  6
CONTINUOUS
 10
-48.3893618278
 20
14.0952753823
 11
-47.9788035386
 21
14.5058336716
  0
LINE
  5
484
100
AcDbEntity
  8
0
100
AcDbLine
 62
7
  6
CONTINUOUS
 10
-47.6920797303
 20
14.7925574798
 11
-46.7823997408
 21
15.7022374693
  0
LINE
  5
485
100
AcDbEntity
  8
0
100
AcDbLine
 62
7
  6
CONTINUOUS
 10
-48.2732869296
 20
14.0532977728
 11
-47.8612327411
 21
14.4653519613
  0
LINE
  5
486
100
AcDbEntity
  8
0
100
AcDbLine
 62
7
  6
CONTINUOUS
 10
-47.4591480797
 20
14.8674366227
 11
-46.5400940542
 21
15.7864906482
  0
LINE
  5
487
100
AcDbEntity
  8
0
100
AcDbLine
 62
7
  6
CONTINUOUS
 10
-48.1572120313
 20
14.0113201633
 11
-47.7436619435
 21
14.4248702511
  0
LINE
  5
488
100
AcDbEntity
  8
0
100
AcDbLine
 62
7
  6
CONTINUOUS
 10
-47.2262164291
 20
14.9423157656
 11
-46.2977883677
 21
15.870743827
  0
LINE
  5
489
100
AcDbEntity
  8
0
100
AcDbLine
 62
7
  6
CONTINUOUS
 10
-48.0411371331
 20
13.9693425539
 11
-47.626091146
 21
14.3843885409
  0
LINE
  5
48A
100
AcDbEntity
  8
0
100
AcDbLine
 62
7
  6
CONTINUOUS
 10
-47.0222955171
 20
14.9881841698
 11
-46.0554826811
 21
15.9549970058
  0
LINE
  5
48B
100
AcDbEntity
  8
0
100
AcDbLine
 62
7
  6
CONTINUOUS
 10
-47.9250622348
 20
13.9273649444
 11
-47.5085203485
 21
14.3439068307
  0
LINE
  5
48C
100
AcDbEntity
  8
0
100
AcDbLine
 62
7
  6
CONTINUOUS
 10
-47.0222955171
 20
14.8301316621
 11
-45.9260575181
 21
15.9263696611
  0
LINE
  5
48D
100
AcDbEntity
  8
0
100
AcDbLine
 62
7
  6
CONTINUOUS
 10
-48.825175217
 20
12.8691994545
 11
-48.7831766715
 21
12.911198
  0
LINE
  5
48E
100
AcDbEntity
  8
0
100
AcDbLine
 62
7
  6
CONTINUOUS
 10
-47.8089873366
 20
13.8853873349
 11
-47.390949551
 21
14.3034251205
  0
LINE
  5
48F
100
AcDbEntity
  8
0
100
AcDbLine
 62
7
  6
CONTINUOUS
 10
-47.0222955171
 20
14.6720791544
 11
-46.5405093074
 21
15.1538653641
  0
LINE
  5
490
100
AcDbEntity
  8
0
100
AcDbLine
 62
7
  6
CONTINUOUS
 10
-46.5242658902
 20
15.1701087813
 11
-45.9260575181
 21
15.7683171534
  0
LINE
  5
491
100
AcDbEntity
  8
0
100
AcDbLine
 62
7
  6
CONTINUOUS
 10
-48.825175217
 20
12.7111469467
 11
-48.6251241637
 21
12.911198
  0
LINE
  5
492
100
AcDbEntity
  8
0
100
AcDbLine
 62
7
  6
CONTINUOUS
 10
-47.6929124383
 20
13.8434097254
 11
-47.2733787535
 21
14.2629434102
  0
LINE
  5
493
100
AcDbEntity
  8
0
100
AcDbLine
 62
7
  6
CONTINUOUS
 10
-47.0222955171
 20
14.5140266466
 11
-46.5405093074
 21
14.9958128564
  0
LINE
  5
494
100
AcDbEntity
  8
0
100
AcDbLine
 62
7
  6
CONTINUOUS
 10
-46.2847472752
 20
15.2515748885
 11
-45.9260575181
 21
15.6102646456
  0
LINE
  5
495
100
AcDbEntity
  8
0
100
AcDbLine
 62
250
  6
CONTINUOUS
 10
-44.1381214511
 20
15.7789283559
 11
-43.8666928958
 21
15.9295716441
  0
LINE
  5
496
100
AcDbEntity
  8
0
100
AcDbLine
 62
250
  6
CONTINUOUS
 10
-42.7809785899
 20
15.0257144294
 11
-43.0524071735
 21
14.8750716441
  0
LINE
  5
497
100
AcDbEntity
  8
0
100
AcDbLine
 62
250
  6
CONTINUOUS
 10
-48.825175217
 20
11.216139
 11
-46.5277611915
 21
12.328754
  0
LINE
  5
498
100
AcDbEntity
  8
DRAFT
100
AcDbLine
 62
7
  6
CONTINUOUS
 10
-27.6834032835
 20
-11.0989817302
 11
-29.1356967292
 21
-11.2260409428
  0
LINE
  5
499
100
AcDbEntity
  8
ASSI
100
AcDbLine
 62
7
  6
CONTINUOUS
 10
-27.6834032835
 20
-11.0989817302
 11
-29.1356967292
 21
-11.2260409428
  0
LINE
  5
49A
100
AcDbEntity
  8
0
100
AcDbLine
 62
250
  6
CONTINUOUS
 10
-48.8253121753
 20
-13.171006
 11
-45.9260575181
 21
-13.171014
  0
LINE
  5
49B
100
AcDbEntity
  8
0
100
AcDbLine
 62
250
  6
CONTINUOUS
 10
-45.926064516
 20
-12.590992
 11
-48.8253121753
 21
-12.590985
  0
LINE
  5
49C
100
AcDbEntity
  8
0
100
AcDbLine
 62
250
  6
CONTINUOUS
 10
-48.8253121753
 20
-12.010985
 11
-45.926064516
 21
-12.010985
  0
LINE
  5
49D
100
AcDbEntity
  8
RACCORDO
100
AcDbLine
 62
250
  6
CONTINUOUS
 10
-54.6613312969
 20
-24.4783811971
 11
-54.6614290342
 21
-24.4702944842
  0
LINE
  5
49E
100
AcDbEntity
  8
RACCORDO
100
AcDbLine
 62
250
  6
CONTINUOUS
 10
-54.6614290342
 20
-24.4702944842
 11
-54.6615367679
 21
-24.4534055187
  0
LINE
  5
49F
100
AcDbEntity
  8
RACCORDO
100
AcDbLine
 62
250
  6
CONTINUOUS
 10
-54.6610044392
 20
24.2369056521
 11
-54.6615061854
 21
24.3503990946
  0
LINE
  5
4A0
100
AcDbEntity
  8
RACCORDO
100
AcDbLine
 62
7
  6
CONTINUOUS
 10
-54.9095500063
 20
-24.2369056521
 11
-54.9095500063
 21
-23.8443375673
  0
LINE
  5
4A1
100
AcDbEntity
  8
RACCORDO
100
AcDbLine
 62
7
  6
CONTINUOUS
 10
-54.9095500063
 20
23.8443375673
 11
-54.9095500063
 21
24.2369056521
  0
LINE
  5
4A2
100
AcDbEntity
  8
RACCORDO
100
AcDbLine
 62
250
  6
CONTINUOUS
 10
-54.6610044392
 20
-24.2369056521
 11
-54.6610044392
 21
-23.8443375673
  0
LINE
  5
4A3
100
AcDbEntity
  8
RACCORDO
100
AcDbLine
 62
250
  6
CONTINUOUS
 10
-54.6610044392
 20
23.8443375673
 11
-54.6610044392
 21
24.2369056521
  0
LINE
  5
4A4
100
AcDbEntity
  8
RACCORDO
100
AcDbLine
 62
250
  6
CONTINUOUS
 10
-54.6615367679
 20
-24.4534055187
 11
-54.6616040315
 21
-24.4041825384
  0
LINE
  5
4A5
100
AcDbEntity
  8
RACCORDO
100
AcDbLine
 62
250
  6
CONTINUOUS
 10
-54.6615061854
 20
24.3503990946
 11
-54.661595583
 21
24.4311858371
  0
LINE
  5
4A6
100
AcDbEntity
  8
RACCORDO
100
AcDbLine
 62
250
  6
CONTINUOUS
 10
-54.6616040315
 20
-24.4041825384
 11
-54.6613312969
 21
-24.3016079562
  0
LINE
  5
4A7
100
AcDbEntity
  8
RACCORDO
100
AcDbLine
 62
250
  6
CONTINUOUS
 10
-54.661595583
 20
24.4311858371
 11
-54.6615061854
 21
24.4596508246
  0
LINE
  5
4A8
100
AcDbEntity
  8
RACCORDO
100
AcDbLine
 62
250
  6
CONTINUOUS
 10
-54.6613312969
 20
-24.3016079562
 11
-54.6610044392
 21
-24.2369056521
  0
LWPOLYLINE
  5
4A9
100
AcDbEntity
  8
RACCORDO
100
AcDbPolyline
 62
250
  6
CONTINUOUS
 90
8
 70
0
 10
-54.6615061854
 20
24.4596508246
 10
-54.6613826771
 20
24.4746636657
 10
-54.6613312969
 20
24.4783811971
 10
-54.6612750346
 20
24.4814368893
 10
-54.6612140443
 20
24.4838223673
 10
-54.6611484932
 20
24.4855310928
 10
-54.6610785609
 20
24.4865583827
 10
-54.6610044392
 20
24.4869014213
  0
LINE
  5
4AA
100
AcDbEntity
  8
0
100
AcDbLine
 62
250
  6
CONTINUOUS
 10
-44.4095500063
 20
15.4776427853
 11
-44.1381214511
 21
15.7789283559
  0
LINE
  5
4AB
100
AcDbEntity
  8
0
100
AcDbLine
 62
7
  6
CONTINUOUS
 10
-48.825175217
 20
12.553094439
 11
-48.467071656
 21
12.911198
  0
LINE
  5
4AC
100
AcDbEntity
  8
0
100
AcDbLine
 62
7
  6
CONTINUOUS
 10
-47.5768375401
 20
13.8014321159
 11
-47.155807956
 21
14.2224617
  0
LINE
  5
4AD
100
AcDbEntity
  8
0
100
AcDbLine
 62
7
  6
CONTINUOUS
 10
-47.0222955171
 20
14.3559741389
 11
-46.5405093074
 21
14.8377603486
  0
LINE
  5
4AE
100
AcDbEntity
  8
0
100
AcDbLine
 62
7
  6
CONTINUOUS
 10
-46.0452286603
 20
15.3330409957
 11
-45.9260575181
 21
15.4522121379
  0
LINE
  5
4AF
100
AcDbEntity
  8
0
100
AcDbLine
 62
7
  6
CONTINUOUS
 10
-48.825175217
 20
12.3950419313
 11
-48.3090191483
 21
12.911198
  0
LINE
  5
4B0
100
AcDbEntity
  8
0
100
AcDbLine
 62
7
  6
CONTINUOUS
 10
-47.4607626418
 20
13.7594545064
 11
-47.0382371585
 21
14.1819799898
  0
LINE
  5
4B1
100
AcDbEntity
  8
0
100
AcDbLine
 62
7
  6
CONTINUOUS
 10
-47.0222955171
 20
14.1979216312
 11
-46.5405093074
 21
14.6797078409
  0
LINE
  5
4B2
100
AcDbEntity
  8
0
100
AcDbLine
 62
7
  6
CONTINUOUS
 10
-48.7334106406
 20
12.328754
 11
-48.1509666406
 21
12.911198
  0
LINE
  5
4B3
100
AcDbEntity
  8
0
100
AcDbLine
 62
7
  6
CONTINUOUS
 10
-47.3446877436
 20
13.7174768969
 11
-46.5405093074
 21
14.5216553332
  0
LINE
  5
4B4
100
AcDbEntity
  8
0
100
AcDbLine
 62
7
  6
CONTINUOUS
 10
-48.5753581328
 20
12.328754
 11
-47.9929141328
 21
12.911198
  0
LINE
  5
4B5
100
AcDbEntity
  8
0
100
AcDbLine
 62
7
  6
CONTINUOUS
 10
-47.2286128454
 20
13.6754992875
 11
-46.5405093074
 21
14.3636028254
  0
LINE
  5
4B6
100
AcDbEntity
  8
0
100
AcDbLine
 62
7
  6
CONTINUOUS
 10
-48.4173056251
 20
12.328754
 11
-47.8348616251
 21
12.911198
  0
LINE
  5
4B7
100
AcDbEntity
  8
0
100
AcDbLine
 62
7
  6
CONTINUOUS
 10
-47.1125379471
 20
13.633521678
 11
-46.5405093074
 21
14.2055503177
  0
LINE
  5
4B8
100
AcDbEntity
  8
0
100
AcDbLine
 62
7
  6
CONTINUOUS
 10
-48.2592531174
 20
12.328754
 11
-47.6768091174
 21
12.911198
  0
LINE
  5
4B9
100
AcDbEntity
  8
0
100
AcDbLine
 62
7
  6
CONTINUOUS
 10
-46.9964630489
 20
13.5915440685
 11
-46.5405093074
 21
14.04749781
  0
LINE
  5
4BA
100
AcDbEntity
  8
0
100
AcDbLine
 62
7
  6
CONTINUOUS
 10
-48.1012006096
 20
12.328754
 11
-47.5187566096
 21
12.911198
  0
LINE
  5
4BB
100
AcDbEntity
  8
0
100
AcDbLine
 62
7
  6
CONTINUOUS
 10
-46.8803881506
 20
13.549566459
 11
-46.447093005
 21
13.9828616047
  0
LINE
  5
4BC
100
AcDbEntity
  8
0
100
AcDbLine
 62
7
  6
CONTINUOUS
 10
-47.9431481019
 20
12.328754
 11
-47.3607041019
 21
12.911198
  0
LINE
  5
4BD
100
AcDbEntity
  8
0
100
AcDbLine
 62
7
  6
CONTINUOUS
 10
-46.7643132524
 20
13.5075888495
 11
-46.3302844657
 21
13.9416176362
  0
LINE
  5
4BE
100
AcDbEntity
  8
0
100
AcDbLine
 62
7
  6
CONTINUOUS
 10
-47.7850955942
 20
12.328754
 11
-47.2026515942
 21
12.911198
  0
LINE
  5
4BF
100
AcDbEntity
  8
0
100
AcDbLine
 62
7
  6
CONTINUOUS
 10
-46.6482383541
 20
13.46561124
 11
-46.2134759265
 21
13.9003736677
  0
LINE
  5
4C0
100
AcDbEntity
  8
0
100
AcDbLine
 62
7
  6
CONTINUOUS
 10
-48.825175217
 20
11.1306218694
 11
-48.6593510975
 21
11.2964459889
  0
LINE
  5
4C1
100
AcDbEntity
  8
0
100
AcDbLine
 62
7
  6
CONTINUOUS
 10
-47.6270430864
 20
12.328754
 11
-47.0445990864
 21
12.911198
  0
LINE
  5
4C2
100
AcDbEntity
  8
0
100
AcDbLine
 62
7
  6
CONTINUOUS
 10
-46.5321634559
 20
13.4236336306
 11
-46.0966673873
 21
13.8591296992
  0
LINE
  5
4C3
100
AcDbEntity
  8
0
100
AcDbLine
 62
7
  6
CONTINUOUS
 10
-48.825175217
 20
10.9725693617
 11
-48.3528754504
 21
11.4448691283
  0
LINE
  5
4C4
100
AcDbEntity
  8
0
100
AcDbLine
 62
7
  6
CONTINUOUS
 10
-47.4689905787
 20
12.328754
 11
-46.8865465787
 21
12.911198
  0
LINE
  5
4C5
100
AcDbEntity
  8
0
100
AcDbLine
 62
7
  6
CONTINUOUS
 10
-46.4160885576
 20
13.3816560211
 11
-45.9798588481
 21
13.8178857306
  0
LINE
  5
4C6
100
AcDbEntity
  8
0
100
AcDbLine
 62
7
  6
CONTINUOUS
 10
-48.825175217
 20
10.814516854
 11
-48.0463998033
 21
11.5932922677
  0
LINE
  5
4C7
100
AcDbEntity
  8
0
100
AcDbLine
 62
7
  6
CONTINUOUS
 10
-47.310938071
 20
12.328754
 11
-46.728494071
 21
12.911198
  0
LINE
  5
4C8
100
AcDbEntity
  8
0
100
AcDbLine
 62
7
  6
CONTINUOUS
 10
-46.3000136594
 20
13.3396784116
 11
-45.9260575181
 21
13.7136345529
  0
LINE
  5
4C9
100
AcDbEntity
  8
0
100
AcDbLine
 62
7
  6
CONTINUOUS
 10
-48.825175217
 20
10.6564643462
 11
-47.7399241562
 21
11.741715407
  0
LINE
  5
4CA
100
AcDbEntity
  8
0
100
AcDbLine
 62
7
  6
CONTINUOUS
 10
-47.1528855632
 20
12.328754
 11
-46.5704415632
 21
12.911198
  0
LINE
  5
4CB
100
AcDbEntity
  8
0
100
AcDbLine
 62
7
  6
CONTINUOUS
 10
-46.1839387611
 20
13.2977008021
 11
-45.9260575181
 21
13.5555820451
  0
LINE
  5
4CC
100
AcDbEntity
  8
0
100
AcDbLine
 62
7
  6
CONTINUOUS
 10
-48.825175217
 20
10.4984118385
 11
-47.4334485091
 21
11.8901385464
  0
LINE
  5
4CD
100
AcDbEntity
  8
0
100
AcDbLine
 62
7
  6
CONTINUOUS
 10
-46.9948330555
 20
12.328754
 11
-46.4123890555
 21
12.911198
  0
LINE
  5
4CE
100
AcDbEntity
  8
0
100
AcDbLine
 62
7
  6
CONTINUOUS
 10
-46.0678638629
 20
13.2557231926
 11
-45.9260575181
 21
13.3975295374
  0
LINE
  5
4CF
100
AcDbEntity
  8
0
100
AcDbLine
 62
7
  6
CONTINUOUS
 10
-48.825175217
 20
10.3403593308
 11
-48.2907645478
 21
10.87477
  0
LINE
  5
4D0
100
AcDbEntity
  8
0
100
AcDbLine
 62
7
  6
CONTINUOUS
 10
-48.2349556959
 20
10.9305788519
 11
-47.126972862
 21
12.0385616858
  0
LINE
  5
4D1
100
AcDbEntity
  8
0
100
AcDbLine
 62
7
  6
CONTINUOUS
 10
-46.8367805478
 20
12.328754
 11
-46.2543365478
 21
12.911198
  0
LINE
  5
4D2
100
AcDbEntity
  8
0
100
AcDbLine
 62
7
  6
CONTINUOUS
 10
-45.9517889647
 20
13.2137455831
 11
-45.9260575181
 21
13.2394770297
  0
LINE
  5
4D3
100
AcDbEntity
  8
0
100
AcDbLine
 62
7
  6
CONTINUOUS
 10
-48.7151570401
 20
10.292325
 11
-48.1327120401
 21
10.87477
  0
LINE
  5
4D4
100
AcDbEntity
  8
0
100
AcDbLine
 62
7
  6
CONTINUOUS
 10
-47.9338435549
 20
11.0736384851
 11
-46.8204972149
 21
12.1869848251
  0
LINE
  5
4D5
100
AcDbEntity
  8
0
100
AcDbLine
 62
7
  6
CONTINUOUS
 10
-46.6787280401
 20
12.328754
 11
-46.0962840401
 21
12.911198
  0
LINE
  5
4D6
100
AcDbEntity
  8
0
100
AcDbLine
 62
7
  6
CONTINUOUS
 10
-48.5571045323
 20
10.292325
 11
-47.9746595323
 21
10.87477
  0
LINE
  5
4D7
100
AcDbEntity
  8
0
100
AcDbLine
 62
7
  6
CONTINUOUS
 10
-47.6327314139
 20
11.2166981184
 11
-45.9382315323
 21
12.911198
  0
LINE
  5
4D8
100
AcDbEntity
  8
0
100
AcDbLine
 62
7
  6
CONTINUOUS
 10
-48.3990520246
 20
10.292325
 11
-47.8166070246
 21
10.87477
  0
LINE
  5
4D9
100
AcDbEntity
  8
0
100
AcDbLine
 62
7
  6
CONTINUOUS
 10
-47.3316192729
 20
11.3597577517
 11
-45.9260575181
 21
12.7653195065
  0
LINE
  5
4DA
100
AcDbEntity
  8
0
100
AcDbLine
 62
250
  6
CONTINUOUS
 10
-44.4095500063
 20
13.9712144294
 11
-44.1381214511
 21
14.2222859058
  0
LINE
  5
4DB
100
AcDbEntity
  8
0
100
AcDbLine
 62
250
  6
CONTINUOUS
 10
-45.9260575181
 20
12.027546
 11
-48.352422255
 21
10.87477
  0
LINE
  5
4DC
100
AcDbEntity
  8
0
100
AcDbLine
 62
250
  6
CONTINUOUS
 10
-45.926064516
 20
-11.430963
 11
-47.837924012
 21
-11.430963
  0
LINE
  5
4DD
100
AcDbEntity
  8
0
100
AcDbLine
 62
250
  6
CONTINUOUS
 10
-48.8253121753
 20
-10.051012
 11
-46.9372184383
 21
-10.59258
  0
LINE
  5
4DE
100
AcDbEntity
  8
0
100
AcDbLine
 62
250
  6
CONTINUOUS
 10
-45.9260725136
 20
-10.30258
 11
-47.837924012
 21
-9.754205
  0
LWPOLYLINE
  5
4DF
100
AcDbEntity
  8
RACCORDO
100
AcDbPolyline
 62
7
  6
CONTINUOUS
 90
10
 70
0
 10
-52.4119519033
 20
-22.3592350157
 10
-52.4117896459
 20
-22.3676760906
 10
-52.411600644
 20
-22.3751716873
 10
-52.4113842415
 20
-22.3817047368
 10
-52.4111411903
 20
-22.3872580372
 10
-52.4108725999
 20
-22.3918216243
 10
-52.4105783577
 20
-22.3953887314
 10
-52.4102590552
 20
-22.3979479803
 10
-52.4099159655
 20
-22.3994876437
 10
-52.4095500063
 20
-22.4
  0
LINE
  5
4E0
100
AcDbEntity
  8
RACCORDO
100
AcDbLine
 62
7
  6
CONTINUOUS
 10
-52.4121920309
 20
-22.3395958528
 11
-52.4119519033
 21
-22.3592350157
  0
LINE
  5
4E1
100
AcDbEntity
  8
RACCORDO
100
AcDbLine
 62
7
  6
CONTINUOUS
 10
-52.4123201432
 20
-22.3164328111
 11
-52.4121920309
 21
-22.3395958528
  0
LINE
  5
4E2
100
AcDbEntity
  8
RACCORDO
100
AcDbLine
 62
7
  6
CONTINUOUS
 10
-53.9095500063
 20
23.1226497308
 11
-53.9095500063
 21
22.3213883311
  0
LINE
  5
4E3
100
AcDbEntity
  8
RACCORDO
100
AcDbLine
 62
7
  6
CONTINUOUS
 10
-53.9095500063
 20
-22.3213883311
 11
-53.9095500063
 21
-23.1226497308
  0
LINE
  5
4E4
100
AcDbEntity
  8
RACCORDO
100
AcDbLine
 62
250
  6
CONTINUOUS
 10
-53.6610044392
 20
23.2669872981
 11
-53.6610044392
 21
22.3344140523
  0
LINE
  5
4E5
100
AcDbEntity
  8
RACCORDO
100
AcDbLine
 62
250
  6
CONTINUOUS
 10
-53.6610044392
 20
-22.3344140523
 11
-53.6610044392
 21
-23.2669872981
  0
LINE
  5
4E6
100
AcDbEntity
  8
RACCORDO
100
AcDbLine
 62
7
  6
CONTINUOUS
 10
-52.4123277227
 20
22.3164328943
 11
-52.4121986218
 21
22.3395959252
  0
LWPOLYLINE
  5
4E7
100
AcDbEntity
  8
RACCORDO
100
AcDbPolyline
 62
7
  6
CONTINUOUS
 90
11
 70
0
 10
-52.4121986218
 20
22.3395959252
 10
-52.4119574604
 20
22.3592350762
 10
-52.411794665
 20
22.3676761448
 10
-52.4116051109
 20
22.375171735
 10
-52.4113881369
 20
22.3817047778
 10
-52.4111444952
 20
22.3872580713
 10
-52.410875295
 20
22.3918216515
 10
-52.4105804179
 20
22.3953887516
 10
-52.4102604538
 20
22.3979479935
 10
-52.4099166773
 20
22.3994876502
 10
-52.4095500063
 20
22.4
  0
LINE
  5
4E8
100
AcDbEntity
  8
0
100
AcDbLine
 62
250
  6
CONTINUOUS
 10
-42.5095500063
 20
15.327
 11
-42.7809785899
 21
15.0257144294
  0
LINE
  5
4E9
100
AcDbEntity
  8
0
100
AcDbLine
 62
250
  6
CONTINUOUS
 10
-43.5952643406
 20
13.9712144294
 11
-43.3238357287
 21
14.2725
  0
LINE
  5
4EA
100
AcDbEntity
  8
0
100
AcDbLine
 62
7
  6
CONTINUOUS
 10
-48.2409995169
 20
10.292325
 11
-47.6585545169
 21
10.87477
  0
LINE
  5
4EB
100
AcDbEntity
  8
0
100
AcDbLine
 62
7
  6
CONTINUOUS
 10
-47.0305071319
 20
11.502817385
 11
-45.9260575181
 21
12.6072669987
  0
LINE
  5
4EC
100
AcDbEntity
  8
0
100
AcDbLine
 62
7
  6
CONTINUOUS
 10
-48.0829470091
 20
10.292325
 11
-47.5005020091
 21
10.87477
  0
LINE
  5
4ED
100
AcDbEntity
  8
0
100
AcDbLine
 62
7
  6
CONTINUOUS
 10
-46.7293949909
 20
11.6458770182
 11
-45.9260575181
 21
12.449214491
  0
LINE
  5
4EE
100
AcDbEntity
  8
0
100
AcDbLine
 62
7
  6
CONTINUOUS
 10
-47.9248945014
 20
10.292325
 11
-47.3424495014
 21
10.87477
  0
LINE
  5
4EF
100
AcDbEntity
  8
0
100
AcDbLine
 62
7
  6
CONTINUOUS
 10
-46.4282828499
 20
11.7889366515
 11
-45.9260575181
 21
12.2911619833
  0
LINE
  5
4F0
100
AcDbEntity
  8
0
100
AcDbLine
 62
7
  6
CONTINUOUS
 10
-47.7668419937
 20
10.292325
 11
-47.1843969937
 21
10.87477
  0
LINE
  5
4F1
100
AcDbEntity
  8
0
100
AcDbLine
 62
7
  6
CONTINUOUS
 10
-46.1271707089
 20
11.9319962848
 11
-45.9260575181
 21
12.1331094755
  0
LINE
  5
4F2
100
AcDbEntity
  8
0
100
AcDbLine
 62
7
  6
CONTINUOUS
 10
-47.6087894859
 20
10.292325
 11
-47.0263444859
 21
10.87477
  0
LINE
  5
4F3
100
AcDbEntity
  8
0
100
AcDbLine
 62
7
  6
CONTINUOUS
 10
-48.825175217
 20
8.9178867612
 11
-48.7500301198
 21
8.9930318584
  0
LINE
  5
4F4
100
AcDbEntity
  8
0
100
AcDbLine
 62
7
  6
CONTINUOUS
 10
-47.4507369782
 20
10.292325
 11
-46.8682919782
 21
10.87477
  0
LINE
  5
4F5
100
AcDbEntity
  8
0
100
AcDbLine
 62
7
  6
CONTINUOUS
 10
-48.825175217
 20
8.7598342535
 11
-48.507710466
 21
9.0772990045
  0
LINE
  5
4F6
100
AcDbEntity
  8
0
100
AcDbLine
 62
7
  6
CONTINUOUS
 10
-47.2926844705
 20
10.292325
 11
-46.7102394705
 21
10.87477
  0
LINE
  5
4F7
100
AcDbEntity
  8
0
100
AcDbLine
 62
7
  6
CONTINUOUS
 10
-48.825175217
 20
8.6017817457
 11
-48.2653908121
 21
9.1615661506
  0
LINE
  5
4F8
100
AcDbEntity
  8
0
100
AcDbLine
 62
7
  6
CONTINUOUS
 10
-47.1346319627
 20
10.292325
 11
-46.5521869627
 21
10.87477
  0
LINE
  5
4F9
100
AcDbEntity
  8
0
100
AcDbLine
 62
7
  6
CONTINUOUS
 10
-48.825175217
 20
8.443729238
 11
-48.0230711583
 21
9.2458332967
  0
LINE
  5
4FA
100
AcDbEntity
  8
0
100
AcDbLine
 62
7
  6
CONTINUOUS
 10
-46.976579455
 20
10.292325
 11
-46.394134455
 21
10.87477
  0
LINE
  5
4FB
100
AcDbEntity
  8
0
100
AcDbLine
 62
7
  6
CONTINUOUS
 10
-48.825175217
 20
8.2856767303
 11
-47.7807515045
 21
9.3301004428
  0
LINE
  5
4FC
100
AcDbEntity
  8
0
100
AcDbLine
 62
7
  6
CONTINUOUS
 10
-46.8185269473
 20
10.292325
 11
-46.2360819473
 21
10.87477
  0
LINE
  5
4FD
100
AcDbEntity
  8
0
100
AcDbLine
 62
7
  6
CONTINUOUS
 10
-48.7515673873
 20
8.2012320523
 11
-47.5384318507
 21
9.4143675889
  0
LINE
  5
4FE
100
AcDbEntity
  8
0
100
AcDbLine
 62
7
  6
CONTINUOUS
 10
-46.6604744396
 20
10.292325
 11
-46.0780294396
 21
10.87477
  0
LINE
  5
4FF
100
AcDbEntity
  8
0
100
AcDbLine
 62
7
  6
CONTINUOUS
 10
-48.6354892839
 20
8.159257648
 11
-48.228107839
 21
8.5666390928
  0
LINE
  5
500
100
AcDbEntity
  8
0
100
AcDbLine
 62
7
  6
CONTINUOUS
 10
-48.1858414048
 20
8.6089055271
 11
-47.2961121968
 21
9.498634735
  0
LINE
  5
501
100
AcDbEntity
  8
0
100
AcDbLine
 62
7
  6
CONTINUOUS
 10
-46.5024219318
 20
10.292325
 11
-45.9260575181
 21
10.8686894137
  0
LINE
  5
502
100
AcDbEntity
  8
0
100
AcDbLine
 62
7
  6
CONTINUOUS
 10
-48.5194111805
 20
8.1172832436
 11
-48.11053708
 21
8.5261573441
  0
LINE
  5
503
100
AcDbEntity
  8
0
100
AcDbLine
 62
7
  6
CONTINUOUS
 10
-47.9529099477
 20
8.6837844764
 11
-47.053792543
 21
9.5829018811
  0
LINE
  5
504
100
AcDbEntity
  8
0
100
AcDbLine
 62
7
  6
CONTINUOUS
 10
-46.3443694241
 20
10.292325
 11
-45.9260575181
 21
10.710636906
  0
LINE
  5
505
100
AcDbEntity
  8
0
100
AcDbLine
 62
7
  6
CONTINUOUS
 10
-48.4033330771
 20
8.0753088393
 11
-47.9929663209
 21
8.4856755954
  0
LINE
  5
506
100
AcDbEntity
  8
0
100
AcDbLine
 62
7
  6
CONTINUOUS
 10
-47.7199784906
 20
8.7586634257
 11
-46.8114728892
 21
9.6671690272
  0
LINE
  5
507
100
AcDbEntity
  8
0
100
AcDbLine
 62
7
  6
CONTINUOUS
 10
-46.1863169164
 20
10.292325
 11
-45.9260575181
 21
10.5525843982
  0
LINE
  5
508
100
AcDbEntity
  8
0
100
AcDbLine
 62
7
  6
CONTINUOUS
 10
-48.2872549737
 20
8.0333344349
 11
-47.8753955619
 21
8.4451938468
  0
LINE
  5
509
100
AcDbEntity
  8
0
100
AcDbLine
 62
7
  6
CONTINUOUS
 10
-47.4870470336
 20
8.8335423751
 11
-46.5691532354
 21
9.7514361733
  0
LINE
  5
50A
100
AcDbEntity
  8
0
100
AcDbLine
 62
7
  6
CONTINUOUS
 10
-46.0282644086
 20
10.292325
 11
-45.9260575181
 21
10.3945318905
  0
LINE
  5
50B
100
AcDbEntity
  8
0
100
AcDbLine
 62
7
  6
CONTINUOUS
 10
-48.1711768703
 20
7.9913600306
 11
-47.7578248028
 21
8.4047120981
  0
LINE
  5
50C
100
AcDbEntity
  8
0
100
AcDbLine
 62
7
  6
CONTINUOUS
 10
-47.2541155765
 20
8.9084213244
 11
-46.3268335815
 21
9.8357033194
  0
LINE
  5
50D
100
AcDbEntity
  8
0
100
AcDbLine
 62
7
  6
CONTINUOUS
 10
-48.0550987669
 20
7.9493856263
 11
-47.6402540438
 21
8.3642303494
  0
LINE
  5
50E
100
AcDbEntity
  8
0
100
AcDbLine
 62
7
  6
CONTINUOUS
 10
-47.0222955171
 20
8.9821888761
 11
-46.0845139277
 21
9.9199704655
  0
LINE
  5
50F
100
AcDbEntity
  8
0
100
AcDbLine
 62
7
  6
CONTINUOUS
 10
-47.9390206635
 20
7.9074112219
 11
-47.5226832847
 21
8.3237486007
  0
LINE
  5
510
100
AcDbEntity
  8
0
100
AcDbLine
 62
7
  6
CONTINUOUS
 10
-47.0222955171
 20
8.8241363683
 11
-45.9260575181
 21
9.9203743673
  0
LINE
  5
511
100
AcDbEntity
  8
0
100
AcDbLine
 62
250
  6
CONTINUOUS
 10
-44.4095500063
 20
12.464785822
 11
-44.1381214511
 21
12.7158570471
  0
LINE
  5
512
100
AcDbEntity
  8
0
100
AcDbLine
 62
250
  6
CONTINUOUS
 10
-45.9260575181
 20
9.975074
 11
-48.825175217
 21
8.9669
  0
LINE
  5
513
100
AcDbEntity
  8
0
100
AcDbLine
 62
250
  6
CONTINUOUS
 10
-46.5405093074
 20
9.139549
 11
-45.9260575181
 21
9.348431
  0
LINE
  5
514
100
AcDbEntity
  8
0
100
AcDbLine
 62
250
  6
CONTINUOUS
 10
-48.2711840066
 20
8.581471
 11
-47.0222955171
 21
8.982943
  0
LINE
  5
515
100
AcDbEntity
  8
0
100
AcDbLine
 62
250
  6
CONTINUOUS
 10
-47.837924012
 20
-9.754205
 11
-45.926064516
 21
-9.754197
  0
LINE
  5
516
100
AcDbEntity
  8
0
100
AcDbLine
 62
250
  6
CONTINUOUS
 10
-45.926064516
 20
-9.174176
 11
-48.8253121753
 21
-9.174176
  0
LINE
  5
517
100
AcDbEntity
  8
0
100
AcDbLine
 62
250
  6
CONTINUOUS
 10
-45.926064516
 20
-8.787497
 11
-48.8253191731
 21
-7.856372
  0
LINE
  5
518
100
AcDbEntity
  8
0
100
AcDbLine
 62
250
  6
CONTINUOUS
 10
-46.4962267994
 20
-8.024362
 11
-45.9260725136
 21
-8.207475
  0
LINE
  5
519
100
AcDbEntity
  8
0
100
AcDbLine
 62
250
  6
CONTINUOUS
 10
-47.9223532881
 20
-7.56635
 11
-47.0470809655
 21
-7.84744
  0
LINE
  5
51A
100
AcDbEntity
  8
RACCORDO
100
AcDbLine
 62
7
  6
CONTINUOUS
 10
-52.4076646034
 20
21.9498978739
 11
-52.4093776285
 21
22.0350781601
  0
LWPOLYLINE
  5
51B
100
AcDbEntity
  8
RACCORDO
100
AcDbPolyline
 62
250
  6
CONTINUOUS
 90
6
 70
0
 10
-51.6577686554
 20
24.487104147
 10
-51.6578249258
 20
24.4901612081
 10
-51.6578859263
 20
24.4925477509
 10
-51.6579514896
 20
24.494257234
 10
-51.6580214359
 20
24.495284977
 10
-51.6580955735
 20
24.495628166
  0
LINE
  5
51C
100
AcDbEntity
  8
RACCORDO
100
AcDbLine
 62
7
  6
CONTINUOUS
 10
-52.4093776285
 20
22.0350781601
 11
-52.4107403036
 21
22.1171526528
  0
LINE
  5
51D
100
AcDbEntity
  8
RACCORDO
100
AcDbLine
 62
7
  6
CONTINUOUS
 10
-52.4107403036
 20
22.1171526528
 11
-52.4117068328
 21
22.1931722098
  0
LINE
  5
51E
100
AcDbEntity
  8
RACCORDO
100
AcDbLine
 62
250
  6
CONTINUOUS
 10
-51.6576709095
 20
24.4790138424
 11
-51.6577686554
 21
24.487104147
  0
LINE
  5
51F
100
AcDbEntity
  8
RACCORDO
100
AcDbLine
 62
7
  6
CONTINUOUS
 10
-52.4117068328
 20
22.1931722098
 11
-52.4122422482
 21
22.2604051439
  0
LINE
  5
520
100
AcDbEntity
  8
RACCORDO
100
AcDbLine
 62
250
  6
CONTINUOUS
 10
-51.6575631821
 20
24.4621175595
 11
-51.6576709095
 21
24.4790138424
  0
LINE
  5
521
100
AcDbEntity
  8
RACCORDO
100
AcDbLine
 62
250
  6
CONTINUOUS
 10
-51.657504397
 20
-24.402986508
 11
-51.6580955735
 21
-24.2456323968
  0
LWPOLYLINE
  5
522
100
AcDbEntity
  8
RACCORDO
100
AcDbPolyline
 62
7
  6
CONTINUOUS
 90
3
 70
0
 10
-52.4122422482
 20
22.2604051439
 10
-52.412348689
 20
22.3035945018
 10
-52.4123277227
 20
22.3164328943
  0
LINE
  5
523
100
AcDbEntity
  8
RACCORDO
100
AcDbLine
 62
7
  6
CONTINUOUS
 10
-52.4095500063
 20
-22.4
 11
-52.4095500063
 21
-24.5
  0
LINE
  5
524
100
AcDbEntity
  8
RACCORDO
100
AcDbLine
 62
7
  6
CONTINUOUS
 10
-52.4095500063
 20
22.4
 11
-52.4095500063
 21
24.5
  0
LINE
  5
525
100
AcDbEntity
  8
RACCORDO
100
AcDbLine
 62
250
  6
CONTINUOUS
 10
-51.6580955735
 20
24.2456323968
 11
-51.6580955735
 21
23.8443375673
  0
LINE
  5
526
100
AcDbEntity
  8
RACCORDO
100
AcDbLine
 62
250
  6
CONTINUOUS
 10
-51.6580955735
 20
-23.8443375673
 11
-51.6580955735
 21
-24.2456323968
  0
LINE
  5
527
100
AcDbEntity
  8
RACCORDO
100
AcDbLine
 62
7
  6
CONTINUOUS
 10
-51.4095500063
 20
24.2456323968
 11
-51.4095500063
 21
23.8443375673
  0
LINE
  5
528
100
AcDbEntity
  8
ASSI
100
AcDbLine
 62
7
  6
CONTINUOUS
 10
-51.4095500063
 20
17.6716990487
 11
-51.4095500063
 21
-17.6716990487
  0
LINE
  5
529
100
AcDbEntity
  8
RACCORDO
100
AcDbLine
 62
7
  6
CONTINUOUS
 10
-51.4095500063
 20
-23.8443375673
 11
-51.4095500063
 21
-24.2456323968
  0
LINE
  5
52A
100
AcDbEntity
  8
RACCORDO
100
AcDbLine
 62
7
  6
CONTINUOUS
 10
-51.4095500063
 20
-22.3912731322
 11
-51.4095500063
 21
22.3912731322
  0
LINE
  5
52B
100
AcDbEntity
  8
RACCORDO
100
AcDbLine
 62
250
  6
CONTINUOUS
 10
-51.6574960011
 20
24.4128749736
 11
-51.6575631821
 21
24.4621175595
  0
LINE
  5
52C
100
AcDbEntity
  8
RACCORDO
100
AcDbLine
 62
7
  6
CONTINUOUS
 10
-52.412297872
 20
-22.2755487323
 11
-52.4123201432
 21
-22.3164328111
  0
LINE
  5
52D
100
AcDbEntity
  8
RACCORDO
100
AcDbLine
 62
250
  6
CONTINUOUS
 10
-51.6575382
 20
-24.4553229956
 11
-51.657504397
 21
-24.402986508
  0
LINE
  5
52E
100
AcDbEntity
  8
RACCORDO
100
AcDbLine
 62
250
  6
CONTINUOUS
 10
-51.6579518
 20
24.2717096311
 11
-51.6574960011
 21
24.4128749736
  0
LINE
  5
52F
100
AcDbEntity
  8
RACCORDO
100
AcDbLine
 62
250
  6
CONTINUOUS
 10
-51.6580955735
 20
24.2456323968
 11
-51.6579518
 21
24.2717096311
  0
LINE
  5
530
100
AcDbEntity
  8
RACCORDO
100
AcDbLine
 62
250
  6
CONTINUOUS
 10
-51.6576299516
 20
-24.4740372277
 11
-51.6575382
 21
-24.4553229956
  0
LINE
  5
531
100
AcDbEntity
  8
RACCORDO
100
AcDbLine
 62
7
  6
CONTINUOUS
 10
-52.4120202306
 20
-22.2280463787
 11
-52.412297872
 21
-22.2755487323
  0
LINE
  5
532
100
AcDbEntity
  8
RACCORDO
100
AcDbLine
 62
7
  6
CONTINUOUS
 10
-52.4112627782
 20
-22.1560962623
 11
-52.4120202306
 21
-22.2280463787
  0
LINE
  5
533
100
AcDbEntity
  8
RACCORDO
100
AcDbLine
 62
7
  6
CONTINUOUS
 10
-52.4097389475
 20
-22.0560057254
 11
-52.4112627782
 21
-22.1560962623
  0
LINE
  5
534
100
AcDbEntity
  8
RACCORDO
100
AcDbLine
 62
7
  6
CONTINUOUS
 10
-52.4076485107
 20
-21.9498977334
 11
-52.4097389475
 21
-22.0560057254
  0
LINE
  5
535
100
AcDbEntity
  8
0
100
AcDbLine
 62
250
  6
CONTINUOUS
 10
-43.5952643406
 20
12.464785822
 11
-43.3238357287
 21
12.7660713927
  0
LWPOLYLINE
  5
536
100
AcDbEntity
  8
0
100
AcDbPolyline
 62
250
  6
CONTINUOUS
 90
36
 70
0
 10
-40.7534712393
 20
13.103542891
 10
-40.7666130792
 20
13.0901079138
 10
-40.7793534766
 20
13.0762969087
 10
-40.7916981288
 20
13.062124287
 10
-40.8036527329
 20
13.0476044602
 10
-40.8152229861
 20
13.0327518397
 10
-40.8264145857
 20
13.017580837
 10
-40.8372332287
 20
13.0021058634
 10
-40.8476846125
 20
12.9863413305
 10
-40.8577744341
 20
12.9703016496
 10
-40.8675083908
 20
12.9540012322
 10
-40.8768921799
 20
12.9374544897
 10
-40.8859314984
 20
12.9206758336
 10
-40.8946320435
 20
12.9036796753
 10
-40.9029995126
 20
12.8864804262
 10
-40.9110396027
 20
12.8690924979
 10
-40.9187580111
 20
12.8515303016
 10
-40.9261604349
 20
12.8338082489
 10
-40.9332525713
 20
12.8159407511
 10
-40.9400401176
 20
12.7979422198
 10
-40.946528771
 20
12.7798270664
 10
-40.9527242286
 20
12.7616097022
 10
-40.9586321876
 20
12.7433045388
 10
-40.9642583452
 20
12.7249259875
 10
-40.9696083986
 20
12.7064884599
 10
-40.9746880451
 20
12.6880063672
 10
-40.9795029817
 20
12.6694941211
 10
-40.9840589058
 20
12.6509661329
 10
-40.9883615144
 20
12.632436814
 10
-40.9942058983
 20
12.6054102254
 10
-40.9995845711
 20
12.5784004564
 10
-41.0045593294
 20
12.5513964603
 10
-41.0091919697
 20
12.5243871904
 10
-41.0135442886
 20
12.4973615999
 10
-41.0176780827
 20
12.4703086422
 10
-41.0255372822
 20
12.4160764381
  0
LINE
  5
537
100
AcDbEntity
  8
0
100
AcDbLine
 62
7
  6
CONTINUOUS
 10
-47.8229425601
 20
7.8654368176
 11
-47.4051125256
 21
8.2832668521
  0
LINE
  5
538
100
AcDbEntity
  8
0
100
AcDbLine
 62
7
  6
CONTINUOUS
 10
-47.0222955171
 20
8.6660838606
 11
-45.9260575181
 21
9.7623218596
  0
LINE
  5
539
100
AcDbEntity
  8
0
100
AcDbLine
 62
7
  6
CONTINUOUS
 10
-47.7068644567
 20
7.8234624132
 11
-47.2875417666
 21
8.2427851034
  0
LINE
  5
53A
100
AcDbEntity
  8
0
100
AcDbLine
 62
7
  6
CONTINUOUS
 10
-47.0222955171
 20
8.5080313529
 11
-46.5405093074
 21
8.9898175626
  0
LINE
  5
53B
100
AcDbEntity
  8
0
100
AcDbLine
 62
7
  6
CONTINUOUS
 10
-46.3136611741
 20
9.2166656959
 11
-45.9260575181
 21
9.6042693518
  0
LINE
  5
53C
100
AcDbEntity
  8
0
100
AcDbLine
 62
7
  6
CONTINUOUS
 10
-47.5907863533
 20
7.7814880089
 11
-47.1699710075
 21
8.2023033547
  0
LINE
  5
53D
100
AcDbEntity
  8
0
100
AcDbLine
 62
7
  6
CONTINUOUS
 10
-47.0222955171
 20
8.3499788451
 11
-46.5405093074
 21
8.8317650549
  0
LINE
  5
53E
100
AcDbEntity
  8
0
100
AcDbLine
 62
7
  6
CONTINUOUS
 10
-46.074206341
 20
9.2980680212
 11
-45.9260575181
 21
9.4462168441
  0
LINE
  5
53F
100
AcDbEntity
  8
0
100
AcDbLine
 62
7
  6
CONTINUOUS
 10
-47.4747082499
 20
7.7395136046
 11
-47.0524002485
 21
8.161821606
  0
LINE
  5
540
100
AcDbEntity
  8
0
100
AcDbLine
 62
7
  6
CONTINUOUS
 10
-47.0222955171
 20
8.1919263374
 11
-46.5405093074
 21
8.6737125471
  0
LINE
  5
541
100
AcDbEntity
  8
0
100
AcDbLine
 62
7
  6
CONTINUOUS
 10
-47.3586301466
 20
7.6975392002
 11
-46.5405093074
 21
8.5156600394
  0
LINE
  5
542
100
AcDbEntity
  8
0
100
AcDbLine
 62
7
  6
CONTINUOUS
 10
-47.2425520432
 20
7.6555647959
 11
-46.5405093074
 21
8.3576075317
  0
LINE
  5
543
100
AcDbEntity
  8
0
100
AcDbLine
 62
7
  6
CONTINUOUS
 10
-47.1264739398
 20
7.6135903915
 11
-46.5405093074
 21
8.1995550239
  0
LINE
  5
544
100
AcDbEntity
  8
0
100
AcDbLine
 62
7
  6
CONTINUOUS
 10
-48.825175217
 20
5.7568366066
 11
-48.7882728236
 21
5.793739
  0
LINE
  5
545
100
AcDbEntity
  8
0
100
AcDbLine
 62
7
  6
CONTINUOUS
 10
-47.0103958364
 20
7.5716159872
 11
-46.5405093074
 21
8.0415025162
  0
LINE
  5
546
100
AcDbEntity
  8
0
100
AcDbLine
 62
7
  6
CONTINUOUS
 10
-48.825175217
 20
5.5987840989
 11
-48.6302203159
 21
5.793739
  0
LINE
  5
547
100
AcDbEntity
  8
0
100
AcDbLine
 62
7
  6
CONTINUOUS
 10
-46.894317733
 20
7.5296415829
 11
-46.4611531369
 21
7.9628061789
  0
LINE
  5
548
100
AcDbEntity
  8
0
100
AcDbLine
 62
7
  6
CONTINUOUS
 10
-48.825175217
 20
5.4407315911
 11
-48.4721678081
 21
5.793739
  0
LINE
  5
549
100
AcDbEntity
  8
0
100
AcDbLine
 62
7
  6
CONTINUOUS
 10
-46.7782396296
 20
7.4876671785
 11
-46.3443292818
 21
7.9215775264
  0
LINE
  5
54A
100
AcDbEntity
  8
0
100
AcDbLine
 62
7
  6
CONTINUOUS
 10
-48.825175217
 20
5.2826790834
 11
-48.3141153004
 21
5.793739
  0
LINE
  5
54B
100
AcDbEntity
  8
0
100
AcDbLine
 62
7
  6
CONTINUOUS
 10
-46.6621615262
 20
7.4456927742
 11
-46.2275054266
 21
7.8803488738
  0
LINE
  5
54C
100
AcDbEntity
  8
0
100
AcDbLine
 62
7
  6
CONTINUOUS
 10
-48.7786687927
 20
5.171133
 11
-48.1560627927
 21
5.793739
  0
LINE
  5
54D
100
AcDbEntity
  8
0
100
AcDbLine
 62
7
  6
CONTINUOUS
 10
-46.5460834228
 20
7.4037183698
 11
-46.1106815714
 21
7.8391202212
  0
LINE
  5
54E
100
AcDbEntity
  8
0
100
AcDbLine
 62
7
  6
CONTINUOUS
 10
-48.6206162849
 20
5.171133
 11
-47.9980102849
 21
5.793739
  0
LINE
  5
54F
100
AcDbEntity
  8
0
100
AcDbLine
 62
7
  6
CONTINUOUS
 10
-46.4300053194
 20
7.3617439655
 11
-45.9938577163
 21
7.7978915687
  0
LINE
  5
550
100
AcDbEntity
  8
0
100
AcDbLine
 62
7
  6
CONTINUOUS
 10
-48.4625637772
 20
5.171133
 11
-47.8399577772
 21
5.793739
  0
LINE
  5
551
100
AcDbEntity
  8
0
100
AcDbLine
 62
7
  6
CONTINUOUS
 10
-46.313927216
 20
7.3197695612
 11
-45.9260575181
 21
7.7076392591
  0
LINE
  5
552
100
AcDbEntity
  8
0
100
AcDbLine
 62
7
  6
CONTINUOUS
 10
-48.3045112695
 20
5.171133
 11
-47.6819052695
 21
5.793739
  0
LINE
  5
553
100
AcDbEntity
  8
0
100
AcDbLine
 62
7
  6
CONTINUOUS
 10
-46.1978491126
 20
7.2777951568
 11
-45.9260575181
 21
7.5495867513
  0
LINE
  5
554
100
AcDbEntity
  8
0
100
AcDbLine
 62
7
  6
CONTINUOUS
 10
-48.1464587617
 20
5.171133
 11
-47.5238527617
 21
5.793739
  0
LINE
  5
555
100
AcDbEntity
  8
0
100
AcDbLine
 62
7
  6
CONTINUOUS
 10
-46.0817710092
 20
7.2358207525
 11
-45.9260575181
 21
7.3915342436
  0
LINE
  5
556
100
AcDbEntity
  8
0
100
AcDbLine
 62
7
  6
CONTINUOUS
 10
-47.988406254
 20
5.171133
 11
-47.365800254
 21
5.793739
  0
LINE
  5
557
100
AcDbEntity
  8
0
100
AcDbLine
 62
7
  6
CONTINUOUS
 10
-46.4078437278
 20
6.7516955262
 11
-46.292801254
 21
6.866738
  0
LINE
  5
558
100
AcDbEntity
  8
0
100
AcDbLine
 62
7
  6
CONTINUOUS
 10
-45.9656929059
 20
7.1938463482
 11
-45.9260575181
 21
7.2334817359
  0
LINE
  5
559
100
AcDbEntity
  8
0
100
AcDbLine
 62
7
  6
CONTINUOUS
 10
-48.7274327514
 20
4.2740539949
 11
-48.2678679631
 21
4.7336187832
  0
LINE
  5
55A
100
AcDbEntity
  8
0
100
AcDbLine
 62
7
  6
CONTINUOUS
 10
-47.8303537463
 20
5.171133
 11
-47.2077477463
 21
5.793739
  0
LINE
  5
55B
100
AcDbEntity
  8
0
100
AcDbLine
 62
7
  6
CONTINUOUS
 10
-46.4078437278
 20
6.5936430184
 11
-46.1347487463
 21
6.866738
  0
LINE
  5
55C
100
AcDbEntity
  8
0
100
AcDbLine
 62
250
  6
CONTINUOUS
 10
-32.7095500063
 20
11.915785059
 11
-31.4095500063
 21
12.3280719528
  0
LINE
  5
55D
100
AcDbEntity
  8
0
100
AcDbLine
 62
250
  6
CONTINUOUS
 10
-45.9260725136
 20
-5.958503
 11
-48.8253191731
 21
-5.958503
  0
LWPOLYLINE
  5
55E
100
AcDbEntity
  8
RACCORDO
100
AcDbPolyline
 62
250
  6
CONTINUOUS
 90
10
 70
0
 10
-40.9182762095
 20
-15.9508855631
 10
-40.9184901906
 20
-15.9505829631
 10
-40.9186981009
 20
-15.9496658715
 10
-40.9189002479
 20
-15.9481320031
 10
-40.9190973957
 20
-15.9459788816
 10
-40.9192893869
 20
-15.9432052711
 10
-40.9194751136
 20
-15.9398126298
 10
-40.9196547593
 20
-15.9358015425
 10
-40.9198286573
 20
-15.9311729591
 10
-40.9199958634
 20
-15.9259320469
  0
LWPOLYLINE
  5
55F
100
AcDbEntity
  8
ASSI
100
AcDbPolyline
 62
250
  6
CONTINUOUS
 90
10
 70
0
 10
-40.9182762095
 20
-15.9508855631
 10
-40.9184901906
 20
-15.9505829631
 10
-40.9186981009
 20
-15.9496658715
 10
-40.9189002479
 20
-15.9481320031
 10
-40.9190973957
 20
-15.9459788816
 10
-40.9192893869
 20
-15.9432052711
 10
-40.9194751136
 20
-15.9398126298
 10
-40.9196547593
 20
-15.9358015425
 10
-40.9198286573
 20
-15.9311729591
 10
-40.9199958634
 20
-15.9259320469
  0
LINE
  5
560
100
AcDbEntity
  8
0
100
AcDbLine
 62
250
  6
CONTINUOUS
 10
-48.8253191731
 20
-7.856372
 11
-48.8253191731
 21
-7.276321
  0
LINE
  5
561
100
AcDbEntity
  8
0
100
AcDbLine
 62
250
  6
CONTINUOUS
 10
-48.8253191731
 20
-5.958503
 11
-48.8253191731
 21
-4.600288
  0
LINE
  5
562
100
AcDbEntity
  8
0
100
AcDbLine
 62
250
  6
CONTINUOUS
 10
-48.8253121753
 20
-9.174176
 11
-48.8253121753
 21
-10.051012
  0
LINE
  5
563
100
AcDbEntity
  8
0
100
AcDbLine
 62
250
  6
CONTINUOUS
 10
-48.8253121753
 20
-11.134148
 11
-48.8253121753
 21
-12.010985
  0
LINE
  5
564
100
AcDbEntity
  8
0
100
AcDbLine
 62
250
  6
CONTINUOUS
 10
-48.8253121753
 20
-12.590985
 11
-48.8253121753
 21
-13.171006
  0
LINE
  5
565
100
AcDbEntity
  8
0
100
AcDbLine
 62
250
  6
CONTINUOUS
 10
-48.8253121753
 20
-13.557685
 11
-48.8253121753
 21
-14.137714
  0
LINE
  5
566
100
AcDbEntity
  8
0
100
AcDbLine
 62
250
  6
CONTINUOUS
 10
-48.8253121753
 20
-15.419971
 11
-48.8253121753
 21
-16.0
  0
LINE
  5
567
100
AcDbEntity
  8
0
100
AcDbLine
 62
250
  6
CONTINUOUS
 10
-48.825175217
 20
14.991935
 11
-48.825175217
 21
14.252884
  0
LINE
  5
568
100
AcDbEntity
  8
0
100
AcDbLine
 62
250
  6
CONTINUOUS
 10
-48.825175217
 20
8.9669
 11
-48.825175217
 21
8.227849
  0
LINE
  5
569
100
AcDbEntity
  8
0
100
AcDbLine
 62
250
  6
CONTINUOUS
 10
-48.825175217
 20
3.58822
 11
-48.825175217
 21
2.70079
  0
LINE
  5
56A
100
AcDbEntity
  8
0
100
AcDbLine
 62
250
  6
CONTINUOUS
 10
-48.825175217
 20
5.171133
 11
-48.825175217
 21
5.793739
  0
LINE
  5
56B
100
AcDbEntity
  8
0
100
AcDbLine
 62
250
  6
CONTINUOUS
 10
-48.825175217
 20
10.292325
 11
-48.825175217
 21
11.216139
  0
LINE
  5
56C
100
AcDbEntity
  8
0
100
AcDbLine
 62
250
  6
CONTINUOUS
 10
-48.825175217
 20
12.328754
 11
-48.825175217
 21
12.911198
  0
LINE
  5
56D
100
AcDbEntity
  8
0
100
AcDbLine
 62
250
  6
CONTINUOUS
 10
-48.821595778
 20
3.6948258614
 11
-48.8251750764
 21
3.5882200575
  0
LWPOLYLINE
  5
56E
100
AcDbEntity
  8
0
100
AcDbPolyline
 62
250
  6
CONTINUOUS
 90
54
 70
0
 10
-48.339830819
 20
3.7174608972
 10
-48.3349704395
 20
3.763813985
 10
-48.333249339
 20
3.7792495632
 10
-48.3313827018
 20
3.794662096
 10
-48.3293134981
 20
3.8100423913
 10
-48.3269846981
 20
3.8253812571
 10
-48.324339272
 20
3.8406695016
 10
-48.32132019
 20
3.8558979327
 10
-48.3189870477
 20
3.8663734222
 10
-48.3164290741
 20
3.8768018468
 10
-48.3136268569
 20
3.8871690543
 10
-48.3105609836
 20
3.8974608925
 10
-48.3072120417
 20
3.907663209
 10
-48.3035606186
 20
3.9177618517
 10
-48.2995873021
 20
3.9277426683
 10
-48.2952726796
 20
3.9375915065
 10
-48.2911709683
 20
3.9461556907
 10
-48.2867892096
 20
3.9545891942
 10
-48.2821279377
 20
3.9628750024
 10
-48.2771876869
 20
3.9709961011
 10
-48.2719689915
 20
3.9789354759
 10
-48.2664723856
 20
3.9866761124
 10
-48.2606984035
 20
3.9942009963
 10
-48.2546475795
 20
4.001493113
 10
-48.2483204478
 20
4.0085354483
 10
-48.2416675887
 20
4.0153674044
 10
-48.2347537656
 20
4.0219361053
 10
-48.2275981458
 20
4.0282493076
 10
-48.2202198968
 20
4.0343147679
 10
-48.2126381856
 20
4.0401402428
 10
-48.2048721797
 20
4.0457334888
 10
-48.1969410462
 20
4.0511022627
 10
-48.1888639526
 20
4.0562543208
 10
-48.180660066
 20
4.0611974199
 10
-48.1699572312
 20
4.0672512393
 10
-48.1590848173
 20
4.0729664611
 10
-48.1480509621
 20
4.0783367237
 10
-48.1368638037
 20
4.0833556651
 10
-48.1255314797
 20
4.0880169238
 10
-48.1140621282
 20
4.0923141379
 10
-48.102463887
 20
4.0962409458
 10
-48.089931254
 20
4.1000267408
 10
-48.0772744813
 20
4.103400823
 10
-48.064507451
 20
4.1063821336
 10
-48.0516440454
 20
4.1089896139
 10
-48.0386981468
 20
4.1112422052
 10
-48.0256836372
 20
4.1131588488
 10
-48.0126143991
 20
4.1147584859
 10
-47.9995043146
 20
4.1160600579
 10
-47.9863672659
 20
4.1170825061
 10
-47.9732171354
 20
4.1178447717
 10
-47.9600678051
 20
4.118365796
 10
-47.9469331575
 20
4.1186645203
 10
-47.9338270746
 20
4.1187598859
  0
LWPOLYLINE
  5
56F
100
AcDbEntity
  8
0
100
AcDbPolyline
 62
250
  6
CONTINUOUS
 90
3
 70
0
 10
-48.3433889349
 20
3.6866121309
 10
-48.3415400708
 20
3.7020250568
 10
-48.339830819
 20
3.7174608972
  0
LINE
  5
570
100
AcDbEntity
  8
0
100
AcDbLine
 62
7
  6
CONTINUOUS
 10
-48.7863661019
 20
4.0570681366
 11
-48.0695910779
 21
4.7738431607
  0
LINE
  5
571
100
AcDbEntity
  8
0
100
AcDbLine
 62
7
  6
CONTINUOUS
 10
-47.6723012385
 20
5.171133
 11
-47.0496952385
 21
5.793739
  0
LINE
  5
572
100
AcDbEntity
  8
0
100
AcDbLine
 62
7
  6
CONTINUOUS
 10
-46.4078437278
 20
6.4355905107
 11
-45.9766962385
 21
6.866738
  0
LINE
  5
573
100
AcDbEntity
  8
0
100
AcDbLine
 62
7
  6
CONTINUOUS
 10
-48.8112480696
 20
3.8741336612
 11
-47.9049420145
 21
4.7804397163
  0
LINE
  5
574
100
AcDbEntity
  8
0
100
AcDbLine
 62
7
  6
CONTINUOUS
 10
-47.5142487308
 20
5.171133
 11
-46.8916427308
 21
5.793739
  0
LINE
  5
575
100
AcDbEntity
  8
0
100
AcDbLine
 62
7
  6
CONTINUOUS
 10
-46.4078437278
 20
6.277538003
 11
-45.9260575181
 21
6.7593242127
  0
LINE
  5
576
100
AcDbEntity
  8
0
100
AcDbLine
 62
7
  6
CONTINUOUS
 10
-48.8210960466
 20
3.7062331765
 11
-47.7584642255
 21
4.7688649976
  0
LINE
  5
577
100
AcDbEntity
  8
0
100
AcDbLine
 62
7
  6
CONTINUOUS
 10
-47.3561962231
 20
5.171133
 11
-46.7335902231
 21
5.793739
  0
LINE
  5
578
100
AcDbEntity
  8
0
100
AcDbLine
 62
7
  6
CONTINUOUS
 10
-46.4078437278
 20
6.1194854952
 11
-45.9260575181
 21
6.601271705
  0
LINE
  5
579
100
AcDbEntity
  8
0
100
AcDbLine
 62
7
  6
CONTINUOUS
 10
-48.8251750833
 20
3.544101632
 11
-47.6273742892
 21
4.7419024262
  0
LINE
  5
57A
100
AcDbEntity
  8
0
100
AcDbLine
 62
7
  6
CONTINUOUS
 10
-47.1981437154
 20
5.171133
 11
-46.5755377154
 21
5.793739
  0
LINE
  5
57B
100
AcDbEntity
  8
0
100
AcDbLine
 62
7
  6
CONTINUOUS
 10
-46.4078437278
 20
5.9614329875
 11
-45.9260575181
 21
6.4432191972
  0
LINE
  5
57C
100
AcDbEntity
  8
0
100
AcDbLine
 62
7
  6
CONTINUOUS
 10
-48.8251751084
 20
3.3860490992
 11
-48.3086971672
 21
3.9025270404
  0
LINE
  5
57D
100
AcDbEntity
  8
0
100
AcDbLine
 62
7
  6
CONTINUOUS
 10
-48.122775823
 20
4.0884483846
 11
-47.5118411649
 21
4.6993830427
  0
LINE
  5
57E
100
AcDbEntity
  8
0
100
AcDbLine
 62
7
  6
CONTINUOUS
 10
-47.0400912076
 20
5.171133
 11
-46.4174852076
 21
5.793739
  0
LINE
  5
57F
100
AcDbEntity
  8
0
100
AcDbLine
 62
7
  6
CONTINUOUS
 10
-46.4078437278
 20
5.8033804798
 11
-45.9260575181
 21
6.2851666895
  0
LINE
  5
580
100
AcDbEntity
  8
0
100
AcDbLine
 62
7
  6
CONTINUOUS
 10
-48.8251751334
 20
3.2279965664
 11
-48.34044572
 21
3.7127259799
  0
LINE
  5
581
100
AcDbEntity
  8
0
100
AcDbLine
 62
7
  6
CONTINUOUS
 10
-47.934427029
 20
4.1187446709
 11
-47.4116584682
 21
4.6415132317
  0
LINE
  5
582
100
AcDbEntity
  8
0
100
AcDbLine
 62
7
  6
CONTINUOUS
 10
-46.8820386999
 20
5.171133
 11
-45.9260575181
 21
6.1271141818
  0
LINE
  5
583
100
AcDbEntity
  8
0
100
AcDbLine
 62
7
  6
CONTINUOUS
 10
-48.8251751585
 20
3.0699440337
 11
-48.3433889618
 21
3.5517302304
  0
LINE
  5
584
100
AcDbEntity
  8
0
100
AcDbLine
 62
7
  6
CONTINUOUS
 10
-47.7918625904
 20
4.1032566018
 11
-47.3249790812
 21
4.570140111
  0
LINE
  5
585
100
AcDbEntity
  8
0
100
AcDbLine
 62
7
  6
CONTINUOUS
 10
-46.7239861922
 20
5.171133
 11
-45.9260575181
 21
5.969061674
  0
LINE
  5
586
100
AcDbEntity
  8
0
100
AcDbLine
 62
7
  6
CONTINUOUS
 10
-48.8251751835
 20
2.9118915009
 11
-48.3433889933
 21
3.3936776912
  0
LINE
  5
587
100
AcDbEntity
  8
0
100
AcDbLine
 62
7
  6
CONTINUOUS
 10
-47.6802052166
 20
4.0568614678
 11
-47.2515608443
 21
4.4855058401
  0
LINE
  5
588
100
AcDbEntity
  8
0
100
AcDbLine
 62
7
  6
CONTINUOUS
 10
-46.5659336844
 20
5.171133
 11
-45.9260575181
 21
5.8110091663
  0
LINE
  5
589
100
AcDbEntity
  8
0
100
AcDbLine
 62
7
  6
CONTINUOUS
 10
-48.8251752086
 20
2.7538389681
 11
-48.2556181767
 21
3.323396
  0
LINE
  5
58A
100
AcDbEntity
  8
0
100
AcDbLine
 62
7
  6
CONTINUOUS
 10
-47.5976727745
 20
3.9813414022
 11
-47.1911271787
 21
4.387886998
  0
LINE
  5
58B
100
AcDbEntity
  8
0
100
AcDbLine
 62
7
  6
CONTINUOUS
 10
-46.4078811767
 20
5.171133
 11
-45.9260575181
 21
5.6529566586
  0
LINE
  5
58C
100
AcDbEntity
  8
0
100
AcDbLine
 62
7
  6
CONTINUOUS
 10
-48.720171669
 20
2.70079
 11
-48.097565669
 21
3.323396
  0
LINE
  5
58D
100
AcDbEntity
  8
0
100
AcDbLine
 62
7
  6
CONTINUOUS
 10
-47.5499824156
 20
3.8709792534
 11
-47.1419620255
 21
4.2789996435
  0
LINE
  5
58E
100
AcDbEntity
  8
0
100
AcDbLine
 62
7
  6
CONTINUOUS
 10
-46.249828669
 20
5.171133
 11
-45.9260575181
 21
5.4949041508
  0
LINE
  5
58F
100
AcDbEntity
  8
0
100
AcDbLine
 62
7
  6
CONTINUOUS
 10
-48.5621191612
 20
2.70079
 11
-47.9395131612
 21
3.323396
  0
LINE
  5
590
100
AcDbEntity
  8
0
100
AcDbLine
 62
7
  6
CONTINUOUS
 10
-47.5295072941
 20
3.7334018671
 11
-47.104380991
 21
4.1585281703
  0
LINE
  5
591
100
AcDbEntity
  8
0
100
AcDbLine
 62
7
  6
CONTINUOUS
 10
-46.0917761612
 20
5.171133
 11
-45.9260575181
 21
5.3368516431
  0
LINE
  5
592
100
AcDbEntity
  8
0
100
AcDbLine
 62
7
  6
CONTINUOUS
 10
-48.4040666535
 20
2.70079
 11
-47.7814606535
 21
3.323396
  0
LINE
  5
593
100
AcDbEntity
  8
0
100
AcDbLine
 62
7
  6
CONTINUOUS
 10
-47.5242655772
 20
3.5805910763
 11
-47.0757901848
 21
4.0290664687
  0
LINE
  5
594
100
AcDbEntity
  8
0
100
AcDbLine
 62
7
  6
CONTINUOUS
 10
-45.9337236535
 20
5.171133
 11
-45.9260575181
 21
5.1787991354
  0
LINE
  5
595
100
AcDbEntity
  8
0
100
AcDbLine
 62
7
  6
CONTINUOUS
 10
-48.2460141458
 20
2.70079
 11
-47.6234081458
 21
3.323396
  0
LINE
  5
596
100
AcDbEntity
  8
0
100
AcDbLine
 62
7
  6
CONTINUOUS
 10
-47.5242655772
 20
3.4225385686
 11
-47.0575839839
 21
3.8892201619
  0
LINE
  5
597
100
AcDbEntity
  8
0
100
AcDbLine
 62
7
  6
CONTINUOUS
 10
-48.087961638
 20
2.70079
 11
-47.0480673369
 21
3.7406843012
  0
LINE
  5
598
100
AcDbEntity
  8
0
100
AcDbLine
 62
7
  6
CONTINUOUS
 10
-47.9299091303
 20
2.70079
 11
-47.0424793675
 21
3.5882197628
  0
LINE
  5
599
100
AcDbEntity
  8
0
100
AcDbLine
 62
7
  6
CONTINUOUS
 10
-47.7718566226
 20
2.70079
 11
-47.0424793675
 21
3.4301672551
  0
LINE
  5
59A
100
AcDbEntity
  8
0
100
AcDbLine
 62
7
  6
CONTINUOUS
 10
-47.6138041149
 20
2.70079
 11
-46.9911981149
 21
3.323396
  0
LINE
  5
59B
100
AcDbEntity
  8
0
100
AcDbLine
 62
7
  6
CONTINUOUS
 10
-47.4557516071
 20
2.70079
 11
-46.8331456071
 21
3.323396
  0
LINE
  5
59C
100
AcDbEntity
  8
0
100
AcDbLine
 62
250
  6
CONTINUOUS
 10
-41.4847972478
 20
9.49987
 11
-36.5082693125
 21
14.231556
  0
LINE
  5
59D
100
AcDbEntity
  8
0
100
AcDbLine
 62
250
  6
CONTINUOUS
 10
-32.7095500063
 20
13.6679995413
 11
-32.1524071824
 21
14.080285059
  0
LWPOLYLINE
  5
59E
100
AcDbEntity
  8
0
100
AcDbPolyline
 62
250
  6
CONTINUOUS
 90
8
 70
0
 10
-37.5270962648
 20
6.571874
 10
-37.1673370963
 20
6.692081936
 10
-36.8411018155
 20
6.8856126972
 10
-36.5631258866
 20
7.1437248452
 10
-36.342970739
 20
7.4602238793
 10
-36.1976557518
 20
7.8106424312
 10
-36.1296634242
 20
8.1838604314
 10
-36.1431155296
 20
8.5704099717
  0
LINE
  5
59F
100
AcDbEntity
  8
0
100
AcDbLine
 62
250
  6
CONTINUOUS
 10
-48.2889605905
 20
-5.386478
 11
-47.583446546
 21
-5.386471
  0
LINE
  5
5A0
100
AcDbEntity
  8
0
100
AcDbLine
 62
250
  6
CONTINUOUS
 10
-47.0470879634
 20
-5.378409
 11
-45.9260725136
 21
-5.378474
  0
LWPOLYLINE
  5
5A1
100
AcDbEntity
  8
0
100
AcDbPolyline
 62
250
  6
CONTINUOUS
 90
73
 70
0
 10
-47.1168137194
 20
-4.255024
 10
-47.1305062106
 20
-4.2241841821
 10
-47.1453938434
 20
-4.1938422761
 10
-47.161446524
 20
-4.1640480313
 10
-47.1786341585
 20
-4.1348511972
 10
-47.1969266529
 20
-4.1063015231
 10
-47.2162939133
 20
-4.0784487582
 10
-47.2367058459
 20
-4.051342652
 10
-47.2581323568
 20
-4.0250329538
 10
-47.280543352
 20
-3.9995694128
 10
-47.3039073914
 20
-3.9749981577
 10
-47.3281876501
 20
-3.9513508336
 10
-47.3533459567
 20
-3.9286554648
 10
-47.3793441401
 20
-3.9069400756
 10
-47.4061440291
 20
-3.8862326905
 10
-47.4337074524
 20
-3.8665613336
 10
-47.4619962387
 20
-3.8479540295
 10
-47.490972217
 20
-3.8304388024
 10
-47.5205972158
 20
-3.8140436766
 10
-47.5508315567
 20
-3.7987946565
 10
-47.5816295316
 20
-3.7847096666
 10
-47.6129439249
 20
-3.7718046114
 10
-47.6447275212
 20
-3.7600953953
 10
-47.6769331051
 20
-3.7495979229
 10
-47.7095134611
 20
-3.7403280986
 10
-47.7424213736
 20
-3.7323018269
 10
-47.7756096273
 20
-3.7255350123
 10
-47.8090310067
 20
-3.7200435593
 10
-47.8426379466
 20
-3.715840458
 10
-47.876381483
 20
-3.7129270416
 10
-47.9102123022
 20
-3.7113017286
 10
-47.9440810904
 20
-3.7109629379
 10
-47.9779385339
 20
-3.711909088
 10
-48.0117353191
 20
-3.7141385976
 10
-48.0454221321
 20
-3.7176498856
 10
-48.0789496593
 20
-3.7224413705
 10
-48.112268587
 20
-3.7285114712
 10
-48.1453301437
 20
-3.735855921
 10
-48.1780877272
 20
-3.7444597129
 10
-48.2104952776
 20
-3.7543051544
 10
-48.2425067352
 20
-3.7653745533
 10
-48.2740760398
 20
-3.7776502172
 10
-48.3051571318
 20
-3.7911144537
 10
-48.3357039511
 20
-3.8057495705
 10
-48.3656704379
 20
-3.8215378752
 10
-48.3950105324
 20
-3.8384616756
 10
-48.4236796278
 20
-3.8565007292
 10
-48.4516389307
 20
-3.8756245941
 10
-48.4788511009
 20
-3.8958002783
 10
-48.5052787983
 20
-3.9169947897
 10
-48.5308846825
 20
-3.9391751365
 10
-48.5556314134
 20
-3.9623083266
 10
-48.5794816508
 20
-3.986361368
 10
-48.6023980545
 20
-4.0113012687
 10
-48.6243432843
 20
-4.0370950369
 10
-48.645282173
 20
-4.0637084042
 10
-48.6651882459
 20
-4.0911019976
 10
-48.6840372012
 20
-4.119235168
 10
-48.7018047371
 20
-4.1480672661
 10
-48.7184665521
 20
-4.1775576426
 10
-48.7339983442
 20
-4.2076656483
 10
-48.7483758119
 20
-4.238350634
 10
-48.7615746533
 20
-4.2695719505
 10
-48.7735705668
 20
-4.3012889485
 10
-48.7843418965
 20
-4.3334581646
 10
-48.7938775697
 20
-4.3660248793
 10
-48.8021691598
 20
-4.3989315587
 10
-48.8092082402
 20
-4.4321206689
 10
-48.814986384
 20
-4.4655346762
 10
-48.8194951645
 20
-4.4991160468
 10
-48.8227261551
 20
-4.5328072468
 10
-48.8246709291
 20
-4.5665507425
 10
-48.8253210597
 20
-4.600289
  0
LINE
  5
5A2
100
AcDbEntity
  8
0
100
AcDbLine
 62
250
  6
CONTINUOUS
 10
-47.5326837097
 20
3.763813985
 11
-47.5278233302
 21
3.7174608972
  0
LWPOLYLINE
  5
5A3
100
AcDbEntity
  8
0
100
AcDbPolyline
 62
250
  6
CONTINUOUS
 90
53
 70
0
 10
-47.0424790728
 20
3.5882200575
 10
-47.0460583712
 20
3.6948258614
 10
-47.0480849889
 20
3.7481210085
 10
-47.050727034
 20
3.8013969153
 10
-47.0535006061
 20
3.8439758624
 10
-47.056987707
 20
3.8865062021
 10
-47.0612889008
 20
3.9289583793
 10
-47.066504752
 20
3.9713028391
 10
-47.0727358246
 20
4.0135100265
 10
-47.078779281
 20
4.0485966381
 10
-47.085628558
 20
4.0835398425
 10
-47.0933127712
 20
4.1183123618
 10
-47.1018610363
 20
4.1528869186
 10
-47.1113024688
 20
4.1872362349
 10
-47.1216661843
 20
4.2213330331
 10
-47.1313072004
 20
4.2503226951
 10
-47.1416942879
 20
4.2790577062
 10
-47.1528749748
 20
4.3074888493
 10
-47.1648967888
 20
4.3355669076
 10
-47.177807258
 20
4.363242664
 10
-47.1916539101
 20
4.3904669015
 10
-47.2064842732
 20
4.4171904032
 10
-47.2203130594
 20
4.4401425663
 10
-47.2349309957
 20
4.4626213833
 10
-47.2503361861
 20
4.484575368
 10
-47.2665267346
 20
4.5059530338
 10
-47.2835007452
 20
4.5267028944
 10
-47.3012563218
 20
4.5467734634
 10
-47.3197915685
 20
4.5661132544
 10
-47.3391045893
 20
4.584670781
 10
-47.3591653931
 20
4.6023841097
 10
-47.3799525276
 20
4.6192547416
 10
-47.4014179916
 20
4.6352720693
 10
-47.4235137837
 20
4.6504254852
 10
-47.4461919027
 20
4.6647043821
 10
-47.4694043473
 20
4.6780981526
 10
-47.4931031162
 20
4.6905961892
 10
-47.517240208
 20
4.7021878845
 10
-47.5417710774
 20
4.7128694219
 10
-47.5666568719
 20
4.7226606687
 10
-47.5918621519
 20
4.7315883841
 10
-47.6173514779
 20
4.7396793271
 10
-47.6430894102
 20
4.7469602571
 10
-47.6690405094
 20
4.753457933
 10
-47.6951693358
 20
4.7591991139
 10
-47.7214404498
 20
4.7642105591
 10
-47.7515532038
 20
4.7690729355
 10
-47.7817814451
 20
4.7730645828
 10
-47.81210152
 20
4.776230213
 10
-47.8424897743
 20
4.7786145378
 10
-47.8729225541
 20
4.7802622694
 10
-47.9033762055
 20
4.7812181196
 10
-47.9338270746
 20
4.7815268003
  0
LINE
  5
5A4
100
AcDbEntity
  8
0
100
AcDbLine
 62
250
  6
CONTINUOUS
 10
-48.3433890073
 20
3.323396
 11
-48.3433890073
 21
3.686612
  0
LINE
  5
5A5
100
AcDbEntity
  8
0
100
AcDbLine
 62
250
  6
CONTINUOUS
 10
-48.2889605905
 20
-4.680792
 11
-48.2889605905
 21
-5.386478
  0
LINE
  5
5A6
100
AcDbEntity
  8
0
100
AcDbLine
 62
250
  6
CONTINUOUS
 10
-47.583446546
 20
-5.386471
 11
-47.583446546
 21
-4.680792
  0
LINE
  5
5A7
100
AcDbEntity
  8
0
100
AcDbLine
 62
250
  6
CONTINUOUS
 10
-47.5242655772
 20
3.323396
 11
-47.5242655772
 21
3.686612
  0
LINE
  5
5A8
100
AcDbEntity
  8
0
100
AcDbLine
 62
250
  6
CONTINUOUS
 10
-47.0470809655
 20
-7.84744
 11
-47.0470809655
 21
-7.285246
  0
LINE
  5
5A9
100
AcDbEntity
  8
0
100
AcDbLine
 62
250
  6
CONTINUOUS
 10
-47.0470809655
 20
-4.872178
 11
-47.0470879634
 21
-5.378409
  0
LINE
  5
5AA
100
AcDbEntity
  8
0
100
AcDbLine
 62
250
  6
CONTINUOUS
 10
-47.0424793675
 20
3.58822
 11
-47.0424793675
 21
3.323396
  0
LINE
  5
5AB
100
AcDbEntity
  8
0
100
AcDbLine
 62
250
  6
CONTINUOUS
 10
-47.0222955171
 20
15.007869
 11
-47.0222955171
 21
14.176491
  0
LINE
  5
5AC
100
AcDbEntity
  8
0
100
AcDbLine
 62
250
  6
CONTINUOUS
 10
-47.0222955171
 20
8.982943
 11
-47.0222955171
 21
8.151456
  0
LINE
  5
5AD
100
AcDbEntity
  8
0
100
AcDbLine
 62
250
  6
CONTINUOUS
 10
-46.5405093074
 20
7.990812
 11
-46.5405093074
 21
9.139549
  0
LINE
  5
5AE
100
AcDbEntity
  8
0
100
AcDbLine
 62
250
  6
CONTINUOUS
 10
-46.5405093074
 20
14.015846
 11
-46.5405093074
 21
15.164584
  0
LINE
  5
5AF
100
AcDbEntity
  8
ASSI
100
AcDbLine
 62
250
  6
CONTINUOUS
 10
-46.5095500063
 20
-20.7644701819
 11
-46.5095500063
 21
20.7644701819
  0
LINE
  5
5B0
100
AcDbEntity
  8
0
100
AcDbLine
 62
250
  6
CONTINUOUS
 10
-46.4962267994
 20
-7.108317
 11
-46.4962267994
 21
-8.024362
  0
LINE
  5
5B1
100
AcDbEntity
  8
0
100
AcDbLine
 62
7
  6
CONTINUOUS
 10
-47.2976990994
 20
2.70079
 11
-46.6750930994
 21
3.323396
  0
LINE
  5
5B2
100
AcDbEntity
  8
0
100
AcDbLine
 62
7
  6
CONTINUOUS
 10
-47.1396465917
 20
2.70079
 11
-46.5170405917
 21
3.323396
  0
LINE
  5
5B3
100
AcDbEntity
  8
0
100
AcDbLine
 62
7
  6
CONTINUOUS
 10
-46.9815940839
 20
2.70079
 11
-46.3589880839
 21
3.323396
  0
LINE
  5
5B4
100
AcDbEntity
  8
0
100
AcDbLine
 62
7
  6
CONTINUOUS
 10
-46.8235415762
 20
2.70079
 11
-46.2009355762
 21
3.323396
  0
LINE
  5
5B5
100
AcDbEntity
  8
0
100
AcDbLine
 62
7
  6
CONTINUOUS
 10
-35.4284068059
 20
14.0254877017
 11
-35.3615325076
 21
14.092362
  0
LINE
  5
5B6
100
AcDbEntity
  8
0
100
AcDbLine
 62
7
  6
CONTINUOUS
 10
-46.6654890685
 20
2.70079
 11
-46.0428830685
 21
3.323396
  0
LINE
  5
5B7
100
AcDbEntity
  8
0
100
AcDbLine
 62
7
  6
CONTINUOUS
 10
-46.5074365607
 20
2.70079
 11
-45.9260575181
 21
3.2821690426
  0
LINE
  5
5B8
100
AcDbEntity
  8
0
100
AcDbLine
 62
7
  6
CONTINUOUS
 10
-35.4284068059
 20
13.6303564324
 11
-34.9664012383
 21
14.092362
  0
LINE
  5
5B9
100
AcDbEntity
  8
0
100
AcDbLine
 62
7
  6
CONTINUOUS
 10
-46.349384053
 20
2.70079
 11
-45.9260575181
 21
3.1241165349
  0
LINE
  5
5BA
100
AcDbEntity
  8
0
100
AcDbLine
 62
7
  6
CONTINUOUS
 10
-46.1913315453
 20
2.70079
 11
-45.9260575181
 21
2.9660640272
  0
LINE
  5
5BB
100
AcDbEntity
  8
0
100
AcDbLine
 62
7
  6
CONTINUOUS
 10
-46.0332790375
 20
2.70079
 11
-45.9260575181
 21
2.8080115194
  0
LINE
  5
5BC
100
AcDbEntity
  8
0
100
AcDbLine
 62
7
  6
CONTINUOUS
 10
-35.4284068059
 20
13.2352251631
 11
-34.5712699689
 21
14.092362
  0
LINE
  5
5BD
100
AcDbEntity
  8
0
100
AcDbLine
 62
7
  6
CONTINUOUS
 10
-35.4284068059
 20
12.8400938937
 11
-34.4095500063
 21
13.8589506933
  0
LINE
  5
5BE
100
AcDbEntity
  8
0
100
AcDbLine
 62
7
  6
CONTINUOUS
 10
-35.4284068059
 20
12.4449626244
 11
-34.4095500063
 21
13.4638194239
  0
LINE
  5
5BF
100
AcDbEntity
  8
0
100
AcDbLine
 62
7
  6
CONTINUOUS
 10
-35.4284068059
 20
12.0498313551
 11
-34.4095500063
 21
13.0686881546
  0
LINE
  5
5C0
100
AcDbEntity
  8
DRAFT
100
AcDbLine
 62
7
  6
CONTINUOUS
 10
-27.6834032835
 20
-5.2010182698
 11
-29.1356967292
 21
-5.0739590572
  0
LINE
  5
5C1
100
AcDbEntity
  8
ASSI
100
AcDbLine
 62
7
  6
CONTINUOUS
 10
-27.6834032835
 20
-5.2010182698
 11
-29.1356967292
 21
-5.0739590572
  0
LWPOLYLINE
  5
5C2
100
AcDbEntity
  8
0
100
AcDbPolyline
 62
250
  6
CONTINUOUS
 90
3
 70
0
 10
-47.5278233302
 20
3.7174608972
 10
-47.5261140784
 20
3.7020250568
 10
-47.5242652143
 20
3.6866121309
  0
LINE
  5
5C3
100
AcDbEntity
  8
0
100
AcDbLine
 62
250
  6
CONTINUOUS
 10
-46.4078437278
 20
5.793739
 11
-46.4078437278
 21
6.866738
  0
LINE
  5
5C4
100
AcDbEntity
  8
0
100
AcDbLine
 62
250
  6
CONTINUOUS
 10
-45.9260575181
 20
-15.068868
 11
-45.926064516
 21
-14.488824
  0
LINE
  5
5C5
100
AcDbEntity
  8
0
100
AcDbLine
 62
250
  6
CONTINUOUS
 10
-45.9260575181
 20
-13.171014
 11
-45.926064516
 21
-12.590992
  0
LINE
  5
5C6
100
AcDbEntity
  8
0
100
AcDbLine
 62
250
  6
CONTINUOUS
 10
-45.926064516
 20
-10.882587
 11
-45.9260725136
 21
-10.30258
  0
LINE
  5
5C7
100
AcDbEntity
  8
0
100
AcDbLine
 62
250
  6
CONTINUOUS
 10
-45.9260725136
 20
-8.207475
 11
-45.926064516
 21
-8.787497
  0
LINE
  5
5C8
100
AcDbEntity
  8
0
100
AcDbLine
 62
250
  6
CONTINUOUS
 10
-45.9260795114
 20
-3.637619
 11
-45.9260725136
 21
-4.290924
  0
LINE
  5
5C9
100
AcDbEntity
  8
0
100
AcDbLine
 62
250
  6
CONTINUOUS
 10
-45.9260725136
 20
-5.378474
 11
-45.9260725136
 21
-5.958503
  0
LINE
  5
5CA
100
AcDbEntity
  8
0
100
AcDbLine
 62
250
  6
CONTINUOUS
 10
-45.926064516
 20
-12.010985
 11
-45.926064516
 21
-11.430963
  0
LINE
  5
5CB
100
AcDbEntity
  8
0
100
AcDbLine
 62
250
  6
CONTINUOUS
 10
-45.926064516
 20
-9.754197
 11
-45.926064516
 21
-9.174176
  0
LINE
  5
5CC
100
AcDbEntity
  8
0
100
AcDbLine
 62
250
  6
CONTINUOUS
 10
-45.9260575181
 20
12.911198
 11
-45.9260575181
 21
12.027546
  0
LINE
  5
5CD
100
AcDbEntity
  8
0
100
AcDbLine
 62
250
  6
CONTINUOUS
 10
-45.9260575181
 20
10.87477
 11
-45.9260575181
 21
10.292325
  0
LINE
  5
5CE
100
AcDbEntity
  8
0
100
AcDbLine
 62
250
  6
CONTINUOUS
 10
-45.9260575181
 20
6.866738
 11
-45.9260575181
 21
5.171133
  0
LINE
  5
5CF
100
AcDbEntity
  8
0
100
AcDbLine
 62
250
  6
CONTINUOUS
 10
-45.9260575181
 20
2.70079
 11
-45.9260575181
 21
3.323396
  0
LINE
  5
5D0
100
AcDbEntity
  8
0
100
AcDbLine
 62
250
  6
CONTINUOUS
 10
-45.9260575181
 20
7.179514
 11
-45.9260575181
 21
7.773964
  0
LINE
  5
5D1
100
AcDbEntity
  8
0
100
AcDbLine
 62
250
  6
CONTINUOUS
 10
-45.9260575181
 20
9.348431
 11
-45.9260575181
 21
9.975074
  0
LINE
  5
5D2
100
AcDbEntity
  8
0
100
AcDbLine
 62
250
  6
CONTINUOUS
 10
-45.9260575181
 20
13.20444
 11
-45.9260575181
 21
13.798889
  0
LINE
  5
5D3
100
AcDbEntity
  8
0
100
AcDbLine
 62
250
  6
CONTINUOUS
 10
-45.9260575181
 20
15.373574
 11
-45.9260575181
 21
16.0
  0
LINE
  5
5D4
100
AcDbEntity
  8
0
100
AcDbLine
 62
250
  6
CONTINUOUS
 10
-45.926064516
 20
-6.345182
 11
-45.9260725136
 21
-6.925211
  0
LWPOLYLINE
  5
5D5
100
AcDbEntity
  8
0
100
AcDbPolyline
 62
7
  6
CONTINUOUS
 90
2
 70
0
 43
0.3500000087
 10
-45.6952654633
 20
43.6429806549
 10
-45.6952654633
 20
45.1429778564
  0
LINE
  5
5D6
100
AcDbEntity
  8
ASSI
100
AcDbLine
 62
250
  6
CONTINUOUS
 10
-44.8350301796
 20
-23.7507734247
 11
-44.8350301796
 21
-22.3338981669
  0
LINE
  5
5D7
100
AcDbEntity
  8
ASSI
100
AcDbLine
 62
250
  6
CONTINUOUS
 10
-44.8350301796
 20
22.3338981669
 11
-44.8350301796
 21
23.7507734247
  0
LINE
  5
5D8
100
AcDbEntity
  8
ASSI
100
AcDbLine
 62
7
  6
CONTINUOUS
 10
-44.4095500063
 20
-23.2563578147
 11
-44.4095500063
 21
-22.3301850577
  0
LINE
  5
5D9
100
AcDbEntity
  8
0
100
AcDbLine
 62
250
  6
CONTINUOUS
 10
-44.4095500063
 20
11.862214178
 11
-44.4095500063
 21
12.464785822
  0
LINE
  5
5DA
100
AcDbEntity
  8
0
100
AcDbLine
 62
250
  6
CONTINUOUS
 10
-44.4095500063
 20
13.3686427853
 11
-44.4095500063
 21
13.9712144294
  0
LINE
  5
5DB
100
AcDbEntity
  8
0
100
AcDbLine
 62
250
  6
CONTINUOUS
 10
-44.4095500063
 20
15.327
 11
-44.4095500063
 21
15.4776427853
  0
LINE
  5
5DC
100
AcDbEntity
  8
ASSI
100
AcDbLine
 62
7
  6
CONTINUOUS
 10
-44.4095500063
 20
22.3301850577
 11
-44.4095500063
 21
23.2563578147
  0
LWPOLYLINE
  5
5DD
100
AcDbEntity
  8
RACCORDO
100
AcDbPolyline
 62
250
  6
CONTINUOUS
 90
8
 70
0
 10
-51.6580955735
 20
-24.495628166
 10
-51.6580216234
 20
-24.4952867588
 10
-51.6579518
 20
-24.4942634962
 10
-51.6578863019
 20
-24.492559892
 10
-51.6578253043
 20
-24.4901787618
 10
-51.6577689973
 20
-24.4871256484
 10
-51.657717575
 20
-24.4834102087
 10
-51.6576299516
 20
-24.4740372277
  0
LINE
  5
5DE
100
AcDbEntity
  8
0
100
AcDbLine
 62
7
  6
CONTINUOUS
 10
-35.4284068059
 20
11.6547000858
 11
-34.4095500063
 21
12.6735568853
  0
LINE
  5
5DF
100
AcDbEntity
  8
0
100
AcDbLine
 62
7
  6
CONTINUOUS
 10
-35.4284068059
 20
11.2595688164
 11
-34.4095500063
 21
12.278425616
  0
LINE
  5
5E0
100
AcDbEntity
  8
0
100
AcDbLine
 62
7
  6
CONTINUOUS
 10
-35.4284068059
 20
10.8644375471
 11
-34.4095500063
 21
11.8832943466
  0
LINE
  5
5E1
100
AcDbEntity
  8
0
100
AcDbLine
 62
7
  6
CONTINUOUS
 10
-35.4284068059
 20
10.4693062778
 11
-34.4095500063
 21
11.4881630773
  0
LINE
  5
5E2
100
AcDbEntity
  8
0
100
AcDbLine
 62
7
  6
CONTINUOUS
 10
-35.4284068059
 20
10.0741750084
 11
-34.4095500063
 21
11.093031808
  0
LINE
  5
5E3
100
AcDbEntity
  8
0
100
AcDbLine
 62
7
  6
CONTINUOUS
 10
-35.199812545
 20
9.907638
 11
-34.4095500063
 21
10.6979005387
  0
LINE
  5
5E4
100
AcDbEntity
  8
0
100
AcDbLine
 62
7
  6
CONTINUOUS
 10
-34.8046812757
 20
9.907638
 11
-34.4095500063
 21
10.3027692693
  0
LINE
  5
5E5
100
AcDbEntity
  8
0
100
AcDbLine
 62
250
  6
CONTINUOUS
 10
-32.7095500063
 20
7.0714285059
 11
-31.4095500063
 21
7.7929285059
  0
LINE
  5
5E6
100
AcDbEntity
  8
0
100
AcDbLine
 62
250
  6
CONTINUOUS
 10
-31.4095500063
 20
0.2
 11
-32.7095500063
 21
0.2
  0
LINE
  5
5E7
100
AcDbEntity
  8
0
100
AcDbLine
 62
250
  6
CONTINUOUS
 10
-43.5952643406
 20
12.1635
 11
-43.5952643406
 21
12.464785822
  0
LINE
  5
5E8
100
AcDbEntity
  8
0
100
AcDbLine
 62
250
  6
CONTINUOUS
 10
-43.5952643406
 20
13.6699283559
 11
-43.5952643406
 21
13.9712144294
  0
LINE
  5
5E9
100
AcDbEntity
  8
0
100
AcDbLine
 62
250
  6
CONTINUOUS
 10
-42.9166928675
 20
11.2596427853
 11
-42.9166928675
 21
10.205142911
  0
LINE
  5
5EA
100
AcDbEntity
  8
0
100
AcDbLine
 62
250
  6
CONTINUOUS
 10
-42.5095500063
 20
15.4776427853
 11
-42.5095500063
 21
15.327
  0
LINE
  5
5EB
100
AcDbEntity
  8
0
100
AcDbLine
 62
250
  6
CONTINUOUS
 10
-42.5095500063
 20
14.1218572147
 11
-42.5095500063
 21
13.3686427853
  0
LINE
  5
5EC
100
AcDbEntity
  8
0
100
AcDbLine
 62
250
  6
CONTINUOUS
 10
-42.5095500063
 20
12.6154286073
 11
-42.5095500063
 21
11.862214178
  0
LINE
  5
5ED
100
AcDbEntity
  8
0
100
AcDbLine
 62
250
  6
CONTINUOUS
 10
-32.7095500063
 20
1.8491429309
 11
-31.4095500063
 21
2.2614286206
  0
LINE
  5
5EE
100
AcDbEntity
  8
0
100
AcDbLine
 62
250
  6
CONTINUOUS
 10
-32.7095500063
 20
1.0245714654
 11
-31.4095500063
 21
1.0245714654
  0
LWPOLYLINE
  5
5EF
100
AcDbEntity
  8
0
100
AcDbPolyline
 62
250
  6
CONTINUOUS
 90
60
 70
0
 10
-41.0356569965
 20
11.8430726704
 10
-41.0346521662
 20
11.816853434
 10
-41.033504163
 20
11.7907450224
 10
-41.0321865091
 20
11.7647385253
 10
-41.0306727265
 20
11.7388250323
 10
-41.0289363375
 20
11.7129956331
 10
-41.0269508642
 20
11.6872414173
 10
-41.0246898287
 20
11.6615534746
 10
-41.0221267532
 20
11.6359228946
 10
-41.0192351598
 20
11.6103407669
 10
-41.0159885706
 20
11.5847981813
 10
-41.0123605079
 20
11.5592862274
 10
-41.0083244937
 20
11.5337959948
 10
-41.0038540501
 20
11.5083185733
 10
-40.9989226995
 20
11.4828450523
 10
-40.9935039637
 20
11.4573665217
 10
-40.9875713651
 20
11.431874071
 10
-40.9810984258
 20
11.4063587899
 10
-40.9740586679
 20
11.3808117681
 10
-40.9664256135
 20
11.3552240951
 10
-40.9581727848
 20
11.3295868608
 10
-40.949273704
 20
11.3038911546
 10
-40.9397018931
 20
11.2781280663
 10
-40.9294308743
 20
11.2522886856
 10
-40.9184341699
 20
11.226364102
 10
-40.9066853018
 20
11.2003454052
 10
-40.8941577923
 20
11.1742236849
 10
-40.8881437845
 20
11.1622085161
 10
-40.8819593753
 20
11.1501932741
 10
-40.8756035726
 20
11.1382014383
 10
-40.8690753846
 20
11.1262564881
 10
-40.8623738195
 20
11.114381903
 10
-40.8554978853
 20
11.1026011623
 10
-40.8484465902
 20
11.0909377455
 10
-40.8412189423
 20
11.0794151319
 10
-40.8338139497
 20
11.0680568011
 10
-40.8262306205
 20
11.0568862324
 10
-40.8184679629
 20
11.0459269053
 10
-40.8105249849
 20
11.035202299
 10
-40.8024006947
 20
11.0247358932
 10
-40.7940941003
 20
11.0145511672
 10
-40.78560421
 20
11.0046716004
 10
-40.7769300318
 20
10.9951206721
 10
-40.7680705739
 20
10.985921862
 10
-40.7590248443
 20
10.9770986493
 10
-40.7497918512
 20
10.9686745134
 10
-40.7403706026
 20
10.9606729339
 10
-40.7307601068
 20
10.9531173901
 10
-40.7209593718
 20
10.9460313613
 10
-40.7109674058
 20
10.9394383272
 10
-40.7007832168
 20
10.933361767
 10
-40.690405813
 20
10.9278251601
 10
-40.6798342025
 20
10.9228519861
 10
-40.6690673934
 20
10.9184657242
 10
-40.6581043939
 20
10.914689854
 10
-40.646944212
 20
10.9115478549
 10
-40.6355858558
 20
10.9090632062
 10
-40.6240283336
 20
10.9072593873
 10
-40.6122706533
 20
10.9061598778
 10
-40.6003118232
 20
10.905788157
  0
LINE
  5
5F0
100
AcDbEntity
  8
RACCORDO
100
AcDbLine
 62
250
  6
CONTINUOUS
 10
-40.9199958634
 20
-15.9259320469
 11
-40.9203108606
 21
-15.9136262429
  0
LINE
  5
5F1
100
AcDbEntity
  8
ASSI
100
AcDbLine
 62
250
  6
CONTINUOUS
 10
-40.9199958634
 20
-15.9259320469
 11
-40.9203108606
 21
-15.9136262429
  0
LINE
  5
5F2
100
AcDbEntity
  8
RACCORDO
100
AcDbLine
 62
250
  6
CONTINUOUS
 10
-40.9203108606
 20
-15.9136262429
 11
-40.9205986325
 21
-15.8989275606
  0
LINE
  5
5F3
100
AcDbEntity
  8
ASSI
100
AcDbLine
 62
250
  6
CONTINUOUS
 10
-40.9203108606
 20
-15.9136262429
 11
-40.9205986325
 21
-15.8989275606
  0
LINE
  5
5F4
100
AcDbEntity
  8
RACCORDO
100
AcDbLine
 62
250
  6
CONTINUOUS
 10
-40.9205986325
 20
-15.8989275606
 11
-40.920978322
 21
-15.8724909221
  0
LINE
  5
5F5
100
AcDbEntity
  8
ASSI
100
AcDbLine
 62
250
  6
CONTINUOUS
 10
-40.9205986325
 20
-15.8989275606
 11
-40.920978322
 21
-15.8724909221
  0
LINE
  5
5F6
100
AcDbEntity
  8
RACCORDO
100
AcDbLine
 62
250
  6
CONTINUOUS
 10
-40.920978322
 20
-15.8724909221
 11
-40.9213847542
 21
-15.829265917
  0
LINE
  5
5F7
100
AcDbEntity
  8
ASSI
100
AcDbLine
 62
250
  6
CONTINUOUS
 10
-40.920978322
 20
-15.8724909221
 11
-40.9213847542
 21
-15.829265917
  0
LINE
  5
5F8
100
AcDbEntity
  8
RACCORDO
100
AcDbLine
 62
250
  6
CONTINUOUS
 10
-40.9182762095
 20
14.951037868
 11
-40.9198287031
 21
15.1487921108
  0
LINE
  5
5F9
100
AcDbEntity
  8
ASSI
100
AcDbLine
 62
250
  6
CONTINUOUS
 10
-40.9182762095
 20
14.951037868
 11
-40.9198287031
 21
15.1487921108
  0
LINE
  5
5FA
100
AcDbEntity
  8
RACCORDO
100
AcDbLine
 62
250
  6
CONTINUOUS
 10
-40.9198287031
 20
15.1487921108
 11
-40.9209783482
 21
15.3393374721
  0
LINE
  5
5FB
100
AcDbEntity
  8
ASSI
100
AcDbLine
 62
250
  6
CONTINUOUS
 10
-40.9198287031
 20
15.1487921108
 11
-40.9209783482
 21
15.3393374721
  0
LINE
  5
5FC
100
AcDbEntity
  8
RACCORDO
100
AcDbLine
 62
250
  6
CONTINUOUS
 10
-40.9213847542
 20
-15.829265917
 11
-40.9217729415
 21
-15.7481634439
  0
LINE
  5
5FD
100
AcDbEntity
  8
ASSI
100
AcDbLine
 62
250
  6
CONTINUOUS
 10
-40.9213847542
 20
-15.829265917
 11
-40.9217729415
 21
-15.7481634439
  0
LINE
  5
5FE
100
AcDbEntity
  8
RACCORDO
100
AcDbLine
 62
250
  6
CONTINUOUS
 10
-40.9209783482
 20
15.3393374721
 11
-40.9216736038
 21
15.5142782733
  0
LINE
  5
5FF
100
AcDbEntity
  8
ASSI
100
AcDbLine
 62
250
  6
CONTINUOUS
 10
-40.9209783482
 20
15.3393374721
 11
-40.9216736038
 21
15.5142782733
  0
LINE
  5
600
100
AcDbEntity
  8
RACCORDO
100
AcDbLine
 62
250
  6
CONTINUOUS
 10
-40.9216736038
 20
15.5142782733
 11
-40.921887862
 21
15.6492491323
  0
LINE
  5
601
100
AcDbEntity
  8
ASSI
100
AcDbLine
 62
250
  6
CONTINUOUS
 10
-40.9216736038
 20
15.5142782733
 11
-40.921887862
 21
15.6492491323
  0
LINE
  5
602
100
AcDbEntity
  8
RACCORDO
100
AcDbLine
 62
250
  6
CONTINUOUS
 10
-41.9008238031
 20
21.5659754333
 11
-41.9008238031
 21
20.9917082642
  0
LINE
  5
603
100
AcDbEntity
  8
RACCORDO
100
AcDbLine
 62
250
  6
CONTINUOUS
 10
-41.9008238031
 20
-20.9917082642
 11
-41.9008238031
 21
-21.5659754333
  0
LINE
  5
604
100
AcDbEntity
  8
0
100
AcDbLine
 62
7
  6
CONTINUOUS
 10
-41.4095500063
 20
-20.6754493507
 11
-41.4095500063
 21
-17.5993978025
  0
LINE
  5
605
100
AcDbEntity
  8
RACCORDO
100
AcDbLine
 62
7
  6
CONTINUOUS
 10
-41.4095500063
 20
-20.6754493507
 11
-41.4095500063
 21
-21.3126932437
  0
LINE
  5
606
100
AcDbEntity
  8
RACCORDO
100
AcDbLine
 62
7
  6
CONTINUOUS
 10
-41.4095500063
 20
-17.5993978025
 11
-41.4095500063
 21
-16.0612245737
  0
LINE
  5
607
100
AcDbEntity
  8
ASSI
100
AcDbLine
 62
7
  6
CONTINUOUS
 10
-41.4095500063
 20
-20.6754493507
 11
-41.4095500063
 21
-16.0612245737
  0
LINE
  5
608
100
AcDbEntity
  8
RACCORDO
100
AcDbLine
 62
7
  6
CONTINUOUS
 10
-41.4095500063
 20
16.0612245737
 11
-41.4095500063
 21
17.5993978025
  0
LINE
  5
609
100
AcDbEntity
  8
0
100
AcDbLine
 62
7
  6
CONTINUOUS
 10
-41.4095500063
 20
17.5993978025
 11
-41.4095500063
 21
20.6754493507
  0
LINE
  5
60A
100
AcDbEntity
  8
ASSI
100
AcDbLine
 62
7
  6
CONTINUOUS
 10
-41.4095500063
 20
16.0612245737
 11
-41.4095500063
 21
20.6754493507
  0
LINE
  5
60B
100
AcDbEntity
  8
RACCORDO
100
AcDbLine
 62
7
  6
CONTINUOUS
 10
-41.4095500063
 20
20.6754493507
 11
-41.4095500063
 21
21.3126932437
  0
LINE
  5
60C
100
AcDbEntity
  8
0
100
AcDbLine
 62
250
  6
CONTINUOUS
 10
-40.9948698774
 20
11.218216
 11
-40.9948698774
 21
11.31759
  0
LINE
  5
60D
100
AcDbEntity
  8
0
100
AcDbLine
 62
250
  6
CONTINUOUS
 10
-40.6003119797
 20
10.690027
 11
-40.6003119797
 21
13.127934
  0
LINE
  5
60E
100
AcDbEntity
  8
RACCORDO
100
AcDbLine
 62
250
  6
CONTINUOUS
 10
-40.9217729415
 20
-15.7481634439
 11
-40.9218802119
 21
-15.6311813107
  0
LINE
  5
60F
100
AcDbEntity
  8
ASSI
100
AcDbLine
 62
250
  6
CONTINUOUS
 10
-40.9217729415
 20
-15.7481634439
 11
-40.9218802119
 21
-15.6311813107
  0
LINE
  5
610
100
AcDbEntity
  8
0
100
AcDbLine
 62
250
  6
CONTINUOUS
 10
-41.087829717
 20
11.843073
 11
-41.087271802
 21
12.416076
  0
LINE
  5
611
100
AcDbEntity
  8
0
100
AcDbLine
 62
250
  6
CONTINUOUS
 10
-40.8698109274
 20
12.416076
 11
-40.8703688424
 21
11.843073
  0
LWPOLYLINE
  5
612
100
AcDbEntity
  8
0
100
AcDbPolyline
 62
250
  6
CONTINUOUS
 90
17
 70
0
 10
-40.4463695776
 20
8.57041
 10
-40.4475782304
 20
8.0727386725
 10
-40.3495472142
 20
7.5757875954
 10
-40.155239167
 20
7.1080202808
 10
-39.8723210278
 20
6.6878937282
 10
-39.5119560817
 20
6.3319851441
 10
-39.0962477136
 20
6.0584671162
 10
-38.6268019407
 20
5.8683963337
 10
-38.129054618
 20
5.7748789619
 10
-37.6226456855
 20
5.7816049764
 10
-37.1275568502
 20
5.8883089847
 10
-36.6710949693
 20
6.0864434861
 10
-36.255023504
 20
6.3752430225
 10
-35.9042352942
 20
6.7405969899
 10
-35.6325716186
 20
7.168089379
 10
-35.4507516875
 20
7.6408523445
 10
-35.3660010603
 20
8.1394872127
  0
LWPOLYLINE
  5
613
100
AcDbEntity
  8
0
100
AcDbPolyline
 62
250
  6
CONTINUOUS
 90
17
 70
0
 10
-40.4463695776
 20
4.23541
 10
-40.4475782304
 20
3.7377386725
 10
-40.3495472142
 20
3.2407875954
 10
-40.155239167
 20
2.7730202808
 10
-39.8723210278
 20
2.3528937282
 10
-39.5119560817
 20
1.9969851441
 10
-39.0962477136
 20
1.7234671162
 10
-38.6268019407
 20
1.5333963337
 10
-38.129054618
 20
1.4398789619
 10
-37.6226456855
 20
1.4466049764
 10
-37.1275568502
 20
1.5533089847
 10
-36.6710949693
 20
1.7514434861
 10
-36.255023504
 20
2.0402430225
 10
-35.9042352942
 20
2.4055969899
 10
-35.6325716186
 20
2.833089379
 10
-35.4507516875
 20
3.3058523445
 10
-35.3660010603
 20
3.8044872127
  0
LINE
  5
614
100
AcDbEntity
  8
RACCORDO
100
AcDbLine
 62
250
  6
CONTINUOUS
 10
-40.9218802119
 20
-15.6311813107
 11
-40.9216126069
 21
-15.4934902725
  0
LINE
  5
615
100
AcDbEntity
  8
ASSI
100
AcDbLine
 62
250
  6
CONTINUOUS
 10
-40.9218802119
 20
-15.6311813107
 11
-40.9216126069
 21
-15.4934902725
  0
LINE
  5
616
100
AcDbEntity
  8
RACCORDO
100
AcDbLine
 62
250
  6
CONTINUOUS
 10
-40.921887862
 20
15.6492491323
 11
-40.9217270005
 21
15.7629731977
  0
LINE
  5
617
100
AcDbEntity
  8
ASSI
100
AcDbLine
 62
250
  6
CONTINUOUS
 10
-40.921887862
 20
15.6492491323
 11
-40.9217270005
 21
15.7629731977
  0
LINE
  5
618
100
AcDbEntity
  8
RACCORDO
100
AcDbLine
 62
250
  6
CONTINUOUS
 10
-40.9216126069
 20
-15.4934902725
 11
-40.9208589132
 21
-15.3162414453
  0
LINE
  5
619
100
AcDbEntity
  8
ASSI
100
AcDbLine
 62
250
  6
CONTINUOUS
 10
-40.9216126069
 20
-15.4934902725
 11
-40.9208589132
 21
-15.3162414453
  0
LINE
  5
61A
100
AcDbEntity
  8
RACCORDO
100
AcDbLine
 62
250
  6
CONTINUOUS
 10
-40.9208589132
 20
-15.3162414453
 11
-40.9196548048
 21
-15.1242471774
  0
LINE
  5
61B
100
AcDbEntity
  8
ASSI
100
AcDbLine
 62
250
  6
CONTINUOUS
 10
-40.9208589132
 20
-15.3162414453
 11
-40.9196548048
 21
-15.1242471774
  0
LINE
  5
61C
100
AcDbEntity
  8
RACCORDO
100
AcDbLine
 62
250
  6
CONTINUOUS
 10
-40.9217270005
 20
15.7629731977
 11
-40.9212939192
 21
15.8409115017
  0
LINE
  5
61D
100
AcDbEntity
  8
ASSI
100
AcDbLine
 62
250
  6
CONTINUOUS
 10
-40.9217270005
 20
15.7629731977
 11
-40.9212939192
 21
15.8409115017
  0
LINE
  5
61E
100
AcDbEntity
  8
RACCORDO
100
AcDbLine
 62
250
  6
CONTINUOUS
 10
-40.9196548048
 20
-15.1242471774
 11
-40.9182762095
 21
-14.951037868
  0
LINE
  5
61F
100
AcDbEntity
  8
ASSI
100
AcDbLine
 62
250
  6
CONTINUOUS
 10
-40.9196548048
 20
-15.1242471774
 11
-40.9182762095
 21
-14.951037868
  0
LINE
  5
620
100
AcDbEntity
  8
RACCORDO
100
AcDbLine
 62
250
  6
CONTINUOUS
 10
-40.9212939192
 20
15.8409115017
 11
-40.9208588849
 21
15.8818811906
  0
LINE
  5
621
100
AcDbEntity
  8
ASSI
100
AcDbLine
 62
250
  6
CONTINUOUS
 10
-40.9212939192
 20
15.8409115017
 11
-40.9208588849
 21
15.8818811906
  0
LINE
  5
622
100
AcDbEntity
  8
RACCORDO
100
AcDbLine
 62
250
  6
CONTINUOUS
 10
-40.9208588849
 20
15.8818811906
 11
-40.9204582137
 21
15.9065723991
  0
LINE
  5
623
100
AcDbEntity
  8
ASSI
100
AcDbLine
 62
250
  6
CONTINUOUS
 10
-40.9208588849
 20
15.8818811906
 11
-40.9204582137
 21
15.9065723991
  0
LWPOLYLINE
  5
624
100
AcDbEntity
  8
RACCORDO
100
AcDbPolyline
 62
7
  6
CONTINUOUS
 90
38
 70
0
 10
-41.4095500063
 20
-16.0612232482
 10
-41.4090037522
 20
-16.0316232443
 10
-41.4076283789
 20
-16.0022289008
 10
-41.4054238864
 20
-15.9730402176
 10
-41.4023505379
 20
-15.9440463661
 10
-41.3984480703
 20
-15.9152581749
 10
-41.3938356936
 20
-15.88670813
 10
-41.3885183156
 20
-15.858401579
 10
-41.3824910286
 20
-15.8303331743
 10
-41.3758583194
 20
-15.8025193599
 10
-41.3686244179
 20
-15.7749639654
 10
-41.3607850944
 20
-15.7476631611
 10
-41.3524321456
 20
-15.7206219013
 10
-41.3435691485
 20
-15.6938429173
 10
-41.3341925262
 20
-15.6673234779
 10
-41.3243833453
 20
-15.6410603434
 10
-41.3141446578
 20
-15.6150555193
 10
-41.3034734116
 20
-15.5893070002
 10
-41.2924415171
 20
-15.5638055305
 10
-41.2810515325
 20
-15.5385524772
 10
-41.2693008996
 20
-15.5135464735
 10
-41.2572538538
 20
-15.488774163
 10
-41.244912553
 20
-15.4642364952
 10
-41.2322748394
 20
-15.4399325207
 10
-41.2193984743
 20
-15.4158460354
 10
-41.2062852586
 20
-15.3919776168
 10
-41.1929333913
 20
-15.3683266873
 10
-41.1793952319
 20
-15.3448753107
 10
-41.1656722496
 20
-15.321623721
 10
-41.1517629751
 20
-15.2985716842
 10
-41.1377153597
 20
-15.2757005616
 10
-41.1235306123
 20
-15.2530103776
 10
-41.1092075239
 20
-15.2305011078
 10
-41.094790419
 20
-15.2081540409
 10
-41.0802802343
 20
-15.185968867
 10
-41.065676033
 20
-15.163945896
 10
-41.0510193291
 20
-15.1420673461
 10
-41.036310811
 20
-15.1203327545
  0
LWPOLYLINE
  5
625
100
AcDbEntity
  8
ASSI
100
AcDbPolyline
 62
7
  6
CONTINUOUS
 90
38
 70
0
 10
-41.4095500063
 20
-16.0612232482
 10
-41.4090037522
 20
-16.0316232443
 10
-41.4076283789
 20
-16.0022289008
 10
-41.4054238864
 20
-15.9730402176
 10
-41.4023505379
 20
-15.9440463661
 10
-41.3984480703
 20
-15.9152581749
 10
-41.3938356936
 20
-15.88670813
 10
-41.3885183156
 20
-15.858401579
 10
-41.3824910286
 20
-15.8303331743
 10
-41.3758583194
 20
-15.8025193599
 10
-41.3686244179
 20
-15.7749639654
 10
-41.3607850944
 20
-15.7476631611
 10
-41.3524321456
 20
-15.7206219013
 10
-41.3435691485
 20
-15.6938429173
 10
-41.3341925262
 20
-15.6673234779
 10
-41.3243833453
 20
-15.6410603434
 10
-41.3141446578
 20
-15.6150555193
 10
-41.3034734116
 20
-15.5893070002
 10
-41.2924415171
 20
-15.5638055305
 10
-41.2810515325
 20
-15.5385524772
 10
-41.2693008996
 20
-15.5135464735
 10
-41.2572538538
 20
-15.488774163
 10
-41.244912553
 20
-15.4642364952
 10
-41.2322748394
 20
-15.4399325207
 10
-41.2193984743
 20
-15.4158460354
 10
-41.2062852586
 20
-15.3919776168
 10
-41.1929333913
 20
-15.3683266873
 10
-41.1793952319
 20
-15.3448753107
 10
-41.1656722496
 20
-15.321623721
 10
-41.1517629751
 20
-15.2985716842
 10
-41.1377153597
 20
-15.2757005616
 10
-41.1235306123
 20
-15.2530103776
 10
-41.1092075239
 20
-15.2305011078
 10
-41.094790419
 20
-15.2081540409
 10
-41.0802802343
 20
-15.185968867
 10
-41.065676033
 20
-15.163945896
 10
-41.0510193291
 20
-15.1420673461
 10
-41.036310811
 20
-15.1203327545
  0
LWPOLYLINE
  5
626
100
AcDbEntity
  8
RACCORDO
100
AcDbPolyline
 62
250
  6
CONTINUOUS
 90
12
 70
0
 10
-40.9204582137
 20
15.9065723991
 10
-40.9201564982
 20
15.9200820826
 10
-40.9199958634
 20
15.9259320469
 10
-40.9198286573
 20
15.9311729591
 10
-40.9196547593
 20
15.9358015425
 10
-40.9194751136
 20
15.9398126298
 10
-40.9192893869
 20
15.9432052711
 10
-40.9190973957
 20
15.9459788816
 10
-40.9189002478
 20
15.9481320031
 10
-40.9186981009
 20
15.9496658715
 10
-40.9184901906
 20
15.9505829631
 10
-40.9182762095
 20
15.9508855631
  0
LWPOLYLINE
  5
627
100
AcDbEntity
  8
ASSI
100
AcDbPolyline
 62
250
  6
CONTINUOUS
 90
12
 70
0
 10
-40.9204582137
 20
15.9065723991
 10
-40.9201564982
 20
15.9200820826
 10
-40.9199958634
 20
15.9259320469
 10
-40.9198286573
 20
15.9311729591
 10
-40.9196547593
 20
15.9358015425
 10
-40.9194751136
 20
15.9398126298
 10
-40.9192893869
 20
15.9432052711
 10
-40.9190973957
 20
15.9459788816
 10
-40.9189002478
 20
15.9481320031
 10
-40.9186981009
 20
15.9496658715
 10
-40.9184901906
 20
15.9505829631
 10
-40.9182762095
 20
15.9508855631
  0
LINE
  5
628
100
AcDbEntity
  8
0
100
AcDbLine
 62
250
  6
CONTINUOUS
 10
-47.11681172
 20
-4.255022
 11
-45.9260795114
 21
-3.637619
  0
LINE
  5
629
100
AcDbEntity
  8
0
100
AcDbLine
 62
250
  6
CONTINUOUS
 10
-45.9260725136
 20
-4.290924
 11
-47.0470809655
 21
-4.872178
  0
LINE
  5
62A
100
AcDbEntity
  8
DRAFT
100
AcDbLine
 62
7
  6
CONTINUOUS
 10
-27.6834032835
 20
5.2010182698
 11
-29.1356967292
 21
5.0739590572
  0
LINE
  5
62B
100
AcDbEntity
  8
ASSI
100
AcDbLine
 62
7
  6
CONTINUOUS
 10
-27.6834032835
 20
5.2010182698
 11
-29.1356967292
 21
5.0739590572
  0
LINE
  5
62C
100
AcDbEntity
  8
0
100
AcDbLine
 62
250
  6
CONTINUOUS
 10
-31.4095500063
 20
2.6737143103
 11
-32.7095500063
 21
2.6737143103
  0
LINE
  5
62D
100
AcDbEntity
  8
0
100
AcDbLine
 62
250
  6
CONTINUOUS
 10
-48.825175217
 20
2.70079
 11
-45.9260575181
 21
2.70079
  0
LINE
  5
62E
100
AcDbEntity
  8
0
100
AcDbLine
 62
250
  6
CONTINUOUS
 10
-45.9260575181
 20
3.323396
 11
-47.0424793675
 21
3.323396
  0
LINE
  5
62F
100
AcDbEntity
  8
0
100
AcDbLine
 62
250
  6
CONTINUOUS
 10
-47.5242655772
 20
3.323396
 11
-48.3433890073
 21
3.323396
  0
LINE
  5
630
100
AcDbEntity
  8
0
100
AcDbLine
 62
250
  6
CONTINUOUS
 10
-32.5238357317
 20
3.3952141383
 11
-31.5952643003
 21
3.3952141383
  0
LINE
  5
631
100
AcDbEntity
  8
0
100
AcDbLine
 62
250
  6
CONTINUOUS
 10
-31.4095500063
 20
3.9792857471
 11
-32.7095500063
 21
3.9792857471
  0
LINE
  5
632
100
AcDbEntity
  8
0
100
AcDbLine
 62
250
  6
CONTINUOUS
 10
-40.4463695776
 20
4.23541
 11
-39.6759609324
 21
4.23541
  0
LINE
  5
633
100
AcDbEntity
  8
0
100
AcDbLine
 62
250
  6
CONTINUOUS
 10
-36.1431150839
 20
4.23541
 11
-35.3727064387
 21
4.23541
  0
LWPOLYLINE
  5
634
100
AcDbEntity
  8
0
100
AcDbPolyline
 62
250
  6
CONTINUOUS
 90
53
 70
0
 10
-47.9338270746
 20
4.1187598859
 10
-47.9207209917
 20
4.1186645203
 10
-47.9075863441
 20
4.118365796
 10
-47.8944370138
 20
4.1178447717
 10
-47.8812868833
 20
4.1170825061
 10
-47.8681498346
 20
4.1160600579
 10
-47.8550397501
 20
4.1147584859
 10
-47.841970512
 20
4.1131588488
 10
-47.8289560024
 20
4.1112422052
 10
-47.8160101038
 20
4.1089896139
 10
-47.8031466982
 20
4.1063821336
 10
-47.7903796679
 20
4.103400823
 10
-47.7777228952
 20
4.1000267408
 10
-47.7651902622
 20
4.0962409458
 10
-47.753592021
 20
4.0923141379
 10
-47.7421226695
 20
4.0880169238
 10
-47.7307903455
 20
4.0833556651
 10
-47.719603187
 20
4.0783367237
 10
-47.7085693319
 20
4.0729664611
 10
-47.697696918
 20
4.0672512393
 10
-47.6869940832
 20
4.0611974199
 10
-47.6787901966
 20
4.0562543208
 10
-47.670713103
 20
4.0511022627
 10
-47.6627819695
 20
4.0457334888
 10
-47.6550159636
 20
4.0401402428
 10
-47.6474342524
 20
4.0343147679
 10
-47.6400560034
 20
4.0282493076
 10
-47.6329003836
 20
4.0219361053
 10
-47.6259865605
 20
4.0153674044
 10
-47.6193337013
 20
4.0085354483
 10
-47.6130065697
 20
4.001493113
 10
-47.6069557457
 20
3.9942009963
 10
-47.6011817636
 20
3.9866761124
 10
-47.5956851577
 20
3.9789354759
 10
-47.5904664622
 20
3.9709961011
 10
-47.5855262115
 20
3.9628750024
 10
-47.5808649396
 20
3.9545891942
 10
-47.5764831809
 20
3.9461556907
 10
-47.5723814696
 20
3.9375915065
 10
-47.5680668471
 20
3.9277426683
 10
-47.5640935306
 20
3.9177618517
 10
-47.5604421075
 20
3.907663209
 10
-47.5570931656
 20
3.8974608925
 10
-47.5540272923
 20
3.8871690543
 10
-47.5512250751
 20
3.8768018468
 10
-47.5486671015
 20
3.8663734222
 10
-47.5463339592
 20
3.8558979327
 10
-47.5433148772
 20
3.8406695016
 10
-47.5406694511
 20
3.8253812571
 10
-47.5383406511
 20
3.8100423913
 10
-47.5362714474
 20
3.794662096
 10
-47.5344048102
 20
3.7792495632
 10
-47.5326837097
 20
3.763813985
  0
LINE
  5
635
100
AcDbEntity
  8
0
100
AcDbLine
 62
250
  6
CONTINUOUS
 10
-40.2374572526
 20
13.067887
 11
-40.2374572526
 21
13.417947
  0
LINE
  5
636
100
AcDbEntity
  8
0
100
AcDbLine
 62
250
  6
CONTINUOUS
 10
-39.8650499807
 20
13.417947
 11
-39.8650499807
 21
13.067887
  0
LINE
  5
637
100
AcDbEntity
  8
0
100
AcDbLine
 62
250
  6
CONTINUOUS
 10
-39.7726480561
 20
11.78807
 11
-39.7726480561
 21
12.61141
  0
LINE
  5
638
100
AcDbEntity
  8
0
100
AcDbLine
 62
250
  6
CONTINUOUS
 10
-39.5570448985
 20
12.61141
 11
-39.5570448985
 21
11.78807
  0
LWPOLYLINE
  5
639
100
AcDbEntity
  8
0
100
AcDbPolyline
 62
7
  6
CONTINUOUS
 90
2
 70
0
 43
0.3500000087
 10
-38.4095489349
 20
33.8204906738
 10
-38.4095489349
 20
35.3204921387
  0
LWPOLYLINE
  5
63A
100
AcDbEntity
  8
0
100
AcDbPolyline
 62
250
  6
CONTINUOUS
 90
8
 70
0
 10
-39.6759609324
 20
8.57041
 10
-39.6899474661
 20
8.1913052257
 10
-39.6235160889
 20
7.8178060422
 10
-39.4796673874
 20
7.4667827394
 10
-39.2608373484
 20
7.1493656747
 10
-38.9839429116
 20
6.8900931857
 10
-38.6585195269
 20
6.695199708
 10
-38.2919798121
 20
6.5718735574
  0
LWPOLYLINE
  5
63B
100
AcDbEntity
  8
0
100
AcDbPolyline
 62
250
  6
CONTINUOUS
 90
7
 70
0
 10
-39.6759609324
 20
4.23541
 10
-39.6850881447
 20
4.1612049392
 10
-39.6911004388
 20
4.0866827027
 10
-39.6939872669
 20
4.0119740278
 10
-39.6935819215
 20
3.9309812536
 10
-39.6899474661
 20
3.8563052257
 10
-39.6827275374
 20
3.7777611826
  0
LWPOLYLINE
  5
63C
100
AcDbEntity
  8
RACCORDO
100
AcDbPolyline
 62
250
  6
CONTINUOUS
 90
5
 70
0
 10
-51.5370456088
 20
-23.6326765842
 10
-51.5359132327
 20
-23.6305857918
 10
-51.5351185472
 20
-23.6290788219
 10
-51.5346637244
 20
-23.6281597935
 10
-51.5345500063
 20
-23.6278312164
  0
LINE
  5
63D
100
AcDbEntity
  8
RACCORDO
100
AcDbLine
 62
250
  6
CONTINUOUS
 10
-51.5403101591
 20
-23.6385852371
 11
-51.5370456088
 21
-23.6326765842
  0
LINE
  5
63E
100
AcDbEntity
  8
RACCORDO
100
AcDbLine
 62
250
  6
CONTINUOUS
 10
-51.5476330166
 20
-23.6516334796
 11
-51.5403101591
 21
-23.6385852371
  0
LINE
  5
63F
100
AcDbEntity
  8
RACCORDO
100
AcDbLine
 62
250
  6
CONTINUOUS
 10
-51.5702702722
 20
-23.6914794042
 11
-51.5476330166
 21
-23.6516334796
  0
LINE
  5
640
100
AcDbEntity
  8
RACCORDO
100
AcDbLine
 62
250
  6
CONTINUOUS
 10
-51.6450741373
 20
-23.821769291
 11
-51.5702702722
 21
-23.6914794042
  0
LINE
  5
641
100
AcDbEntity
  8
RACCORDO
100
AcDbLine
 62
250
  6
CONTINUOUS
 10
-51.6580955735
 20
-23.8443375673
 11
-51.6450741373
 21
-23.821769291
  0
LINE
  5
642
100
AcDbEntity
  8
0
100
AcDbLine
 62
250
  6
CONTINUOUS
 10
-32.7095500063
 20
0.2
 11
-31.966692869
 21
0.6122857327
  0
LINE
  5
643
100
AcDbEntity
  8
0
100
AcDbLine
 62
250
  6
CONTINUOUS
 10
-48.8253191731
 20
-7.276321
 11
-45.926064516
 21
-6.345182
  0
LINE
  5
644
100
AcDbEntity
  8
0
100
AcDbLine
 62
250
  6
CONTINUOUS
 10
-47.0470809655
 20
-7.285246
 11
-47.9223532881
 21
-7.56635
  0
LINE
  5
645
100
AcDbEntity
  8
0
100
AcDbLine
 62
250
  6
CONTINUOUS
 10
-45.9260725136
 20
-6.925211
 11
-46.4962267994
 21
-7.108317
  0
LWPOLYLINE
  5
646
100
AcDbEntity
  8
0
100
AcDbPolyline
 62
250
  6
CONTINUOUS
 90
52
 70
0
 10
-47.9338270746
 20
4.7815268003
 10
-47.9642779437
 20
4.7812181196
 10
-47.9947315951
 20
4.7802622694
 10
-48.0251643749
 20
4.7786145378
 10
-48.0555526292
 20
4.776230213
 10
-48.0858727041
 20
4.7730645828
 10
-48.1161009454
 20
4.7690729355
 10
-48.1462136994
 20
4.7642105591
 10
-48.1724848134
 20
4.7591991139
 10
-48.1986136398
 20
4.753457933
 10
-48.2245647389
 20
4.7469602571
 10
-48.2503026713
 20
4.7396793271
 10
-48.2757919973
 20
4.7315883841
 10
-48.3009972773
 20
4.7226606687
 10
-48.3258830718
 20
4.7128694219
 10
-48.3504139412
 20
4.7021878845
 10
-48.374551033
 20
4.6905961892
 10
-48.3982498019
 20
4.6780981526
 10
-48.4214622465
 20
4.6647043821
 10
-48.4441403655
 20
4.6504254852
 10
-48.4662361576
 20
4.6352720693
 10
-48.4877016216
 20
4.6192547416
 10
-48.5084887561
 20
4.6023841097
 10
-48.5285495599
 20
4.584670781
 10
-48.5478625807
 20
4.5661132544
 10
-48.5663978274
 20
4.5467734634
 10
-48.584153404
 20
4.5267028944
 10
-48.6011274146
 20
4.5059530338
 10
-48.6173179631
 20
4.484575368
 10
-48.6327231535
 20
4.4626213833
 10
-48.6473410898
 20
4.4401425663
 10
-48.661169876
 20
4.4171904032
 10
-48.6760002391
 20
4.3904669015
 10
-48.6898468912
 20
4.363242664
 10
-48.7027573604
 20
4.3355669076
 10
-48.7147791744
 20
4.3074888493
 10
-48.7259598613
 20
4.2790577062
 10
-48.7363469488
 20
4.2503226951
 10
-48.7459879649
 20
4.2213330331
 10
-48.7563516804
 20
4.1872362349
 10
-48.7657931129
 20
4.1528869186
 10
-48.774341378
 20
4.1183123618
 10
-48.7820255912
 20
4.0835398425
 10
-48.7888748682
 20
4.0485966381
 10
-48.7949183246
 20
4.0135100265
 10
-48.8011493972
 20
3.9713028391
 10
-48.8063652484
 20
3.9289583793
 10
-48.8106664422
 20
3.8865062021
 10
-48.8141535431
 20
3.8439758624
 10
-48.8169271152
 20
3.8013969153
 10
-48.8195691603
 20
3.7481210085
 10
-48.821595778
 20
3.6948258614
  0
LINE
  5
647
100
AcDbEntity
  8
0
100
AcDbLine
 62
250
  6
CONTINUOUS
 10
-45.9260575181
 20
5.171133
 11
-48.825175217
 21
5.171133
  0
LINE
  5
648
100
AcDbEntity
  8
0
100
AcDbLine
 62
250
  6
CONTINUOUS
 10
-48.825175217
 20
5.793739
 11
-46.4078437278
 21
5.793739
  0
LINE
  5
649
100
AcDbEntity
  8
0
100
AcDbLine
 62
250
  6
CONTINUOUS
 10
-31.4095500063
 20
1.4368571551
 11
-32.7095500063
 21
1.8491429309
  0
LINE
  5
64A
100
AcDbEntity
  8
0
100
AcDbLine
 62
250
  6
CONTINUOUS
 10
-48.825175217
 20
8.227849
 11
-45.9260575181
 21
7.179514
  0
LINE
  5
64B
100
AcDbEntity
  8
RACCORDO
100
AcDbLine
 62
250
  6
CONTINUOUS
 10
-51.6580955735
 20
23.8443375673
 11
-51.595896568
 21
23.7362657898
  0
LINE
  5
64C
100
AcDbEntity
  8
RACCORDO
100
AcDbLine
 62
250
  6
CONTINUOUS
 10
-51.595896568
 20
23.7362657898
 11
-51.5540504999
 21
23.6629768418
  0
LINE
  5
64D
100
AcDbEntity
  8
RACCORDO
100
AcDbLine
 62
250
  6
CONTINUOUS
 10
-51.5540504999
 20
23.6629768418
 11
-51.5424318483
 21
23.6423841576
  0
LWPOLYLINE
  5
64E
100
AcDbEntity
  8
RACCORDO
100
AcDbPolyline
 62
250
  6
CONTINUOUS
 90
7
 70
0
 10
-51.5424318483
 20
23.6423841576
 10
-51.5385117909
 20
23.6353440559
 10
-51.5370451033
 20
23.6326756587
 10
-51.535912951
 20
23.6305852658
 10
-51.5351184256
 20
23.6290785857
 10
-51.5346636968
 20
23.6281597328
 10
-51.5345500063
 20
23.6278312164
  0
LWPOLYLINE
  5
64F
100
AcDbEntity
  8
0
100
AcDbPolyline
 62
250
  6
CONTINUOUS
 90
17
 70
0
 10
-39.6827275395
 20
3.7777612012
 10
-39.6096020574
 20
3.4371538339
 10
-39.4686995759
 20
3.1117903147
 10
-39.2662762419
 20
2.8207004877
 10
-39.0103192045
 20
2.5753700736
 10
-38.7164895441
 20
2.38828675
 10
-38.3859224206
 20
2.2601732809
 10
-38.0365582873
 20
2.1999363114
 10
-37.6821822321
 20
2.2099526509
 10
-37.3367771018
 20
2.2898270782
 10
-37.0193659795
 20
2.4332907568
 10
-36.7311751279
 20
2.6397894399
 10
-36.4894797073
 20
2.8991858607
 10
-36.3038164512
 20
3.2012448461
 10
-36.1830795806
 20
3.5280177193
 10
-36.1277355413
 20
3.8782420502
 10
-36.1431150841
 20
4.2354100011
  0
LINE
  5
650
100
AcDbEntity
  8
0
100
AcDbLine
 62
250
  6
CONTINUOUS
 10
-38.2919797516
 20
8.06041
 11
-38.2919797516
 21
6.571874
  0
LINE
  5
651
100
AcDbEntity
  8
0
100
AcDbLine
 62
250
  6
CONTINUOUS
 10
-37.5270962648
 20
8.06041
 11
-37.5270962648
 21
6.571874
  0
LINE
  5
652
100
AcDbEntity
  8
0
100
AcDbLine
 62
250
  6
CONTINUOUS
 10
-37.2386030622
 20
11.225174
 11
-37.2386030622
 21
12.571041
  0
LINE
  5
653
100
AcDbEntity
  8
0
100
AcDbLine
 62
250
  6
CONTINUOUS
 10
-37.0421849822
 20
11.399503
 11
-37.0421849822
 21
11.281883
  0
LINE
  5
654
100
AcDbEntity
  8
0
100
AcDbLine
 62
250
  6
CONTINUOUS
 10
-32.7095500063
 20
3.1890713794
 11
-32.5238357317
 21
3.3952141383
  0
LINE
  5
655
100
AcDbEntity
  8
0
100
AcDbLine
 62
250
  6
CONTINUOUS
 10
-32.7095500063
 20
6.4186425295
 11
-31.4095500063
 21
6.4186425295
  0
LINE
  5
656
100
AcDbEntity
  8
0
100
AcDbLine
 62
250
  6
CONTINUOUS
 10
-46.4078437278
 20
6.866738
 11
-45.9260575181
 21
6.866738
  0
LINE
  5
657
100
AcDbEntity
  8
0
100
AcDbLine
 62
250
  6
CONTINUOUS
 10
-31.4095500063
 20
7.0714285059
 11
-32.7095500063
 21
7.0714285059
  0
LINE
  5
658
100
AcDbEntity
  8
0
100
AcDbLine
 62
250
  6
CONTINUOUS
 10
-31.4095500063
 20
7.7929285059
 11
-32.7095500063
 21
7.7929285059
  0
LINE
  5
659
100
AcDbEntity
  8
0
100
AcDbLine
 62
250
  6
CONTINUOUS
 10
-38.2919797516
 20
8.06041
 11
-37.5270962648
 21
8.06041
  0
LINE
  5
65A
100
AcDbEntity
  8
0
100
AcDbLine
 62
250
  6
CONTINUOUS
 10
-47.0222955171
 20
8.151456
 11
-48.2711840066
 21
8.581471
  0
LINE
  5
65B
100
AcDbEntity
  8
0
100
AcDbLine
 62
250
  6
CONTINUOUS
 10
-45.9260575181
 20
7.773964
 11
-46.5405093074
 21
7.990812
  0
LINE
  5
65C
100
AcDbEntity
  8
0
100
AcDbLine
 62
250
  6
CONTINUOUS
 10
-31.966692869
 20
0.6122857327
 11
-32.7095500063
 21
1.0245714654
  0
LINE
  5
65D
100
AcDbEntity
  8
0
100
AcDbLine
 62
250
  6
CONTINUOUS
 10
-43.8666928958
 20
9.0
 11
-44.4095500063
 21
9.6025714555
  0
LINE
  5
65E
100
AcDbEntity
  8
0
100
AcDbLine
 62
250
  6
CONTINUOUS
 10
-43.7309785616
 20
12.7158570471
 11
-43.5952643406
 21
12.464785822
  0
LINE
  5
65F
100
AcDbEntity
  8
0
100
AcDbLine
 62
250
  6
CONTINUOUS
 10
-43.7309785616
 20
14.2222859058
 11
-43.5952643406
 21
13.9712144294
  0
LINE
  5
660
100
AcDbEntity
  8
0
100
AcDbLine
 62
250
  6
CONTINUOUS
 10
-35.4284068059
 20
9.907638
 11
-35.4284068059
 21
14.092362
  0
LINE
  5
661
100
AcDbEntity
  8
0
100
AcDbLine
 62
250
  6
CONTINUOUS
 10
-34.4095500063
 20
14.092362
 11
-34.4095500063
 21
9.907638
  0
LWPOLYLINE
  5
662
100
AcDbEntity
  8
0
100
AcDbPolyline
 62
250
  6
CONTINUOUS
 90
7
 70
0
 10
-35.3660010476
 20
8.1394873963
 10
-35.3620814351
 20
8.2105865243
 10
-35.3601482527
 20
8.2817673904
 10
-35.3602030077
 20
8.3529744901
 10
-35.3622456574
 20
8.4241522981
 10
-35.3662746091
 20
8.4952453121
 10
-35.3727064395
 20
8.5704100079
  0
LWPOLYLINE
  5
663
100
AcDbEntity
  8
0
100
AcDbPolyline
 62
250
  6
CONTINUOUS
 90
7
 70
0
 10
-35.3660010476
 20
3.8044873963
 10
-35.3620814351
 20
3.8755865243
 10
-35.3601482527
 20
3.9467673904
 10
-35.3602030077
 20
4.0179744901
 10
-35.3622456574
 20
4.0891522981
 10
-35.3662746091
 20
4.1602453121
 10
-35.3727064395
 20
4.2354100079
  0
LINE
  5
664
100
AcDbEntity
  8
0
100
AcDbLine
 62
250
  6
CONTINUOUS
 10
-46.9372184383
 20
-10.59258
 11
-48.8253121753
 21
-11.134148
  0
LINE
  5
665
100
AcDbEntity
  8
0
100
AcDbLine
 62
250
  6
CONTINUOUS
 10
-47.837924012
 20
-11.430963
 11
-45.926064516
 21
-10.882587
  0
LINE
  5
666
100
AcDbEntity
  8
0
100
AcDbLine
 62
250
  6
CONTINUOUS
 10
-40.4463695776
 20
8.57041
 11
-39.6759609324
 21
8.57041
  0
LINE
  5
667
100
AcDbEntity
  8
0
100
AcDbLine
 62
250
  6
CONTINUOUS
 10
-36.1431150839
 20
8.57041
 11
-35.3727064387
 21
8.57041
  0
LINE
  5
668
100
AcDbEntity
  8
0
100
AcDbLine
 62
250
  6
CONTINUOUS
 10
-44.4095500063
 20
9.6025714555
 11
-42.5095500063
 21
9.6025714555
  0
LINE
  5
669
100
AcDbEntity
  8
0
100
AcDbLine
 62
250
  6
CONTINUOUS
 10
-32.7095500063
 20
9.6138570118
 11
-31.4095500063
 21
9.6138570118
  0
LINE
  5
66A
100
AcDbEntity
  8
0
100
AcDbLine
 62
250
  6
CONTINUOUS
 10
-34.4095500063
 20
9.907638
 11
-35.4284068059
 21
9.907638
  0
LINE
  5
66B
100
AcDbEntity
  8
0
100
AcDbLine
 62
250
  6
CONTINUOUS
 10
-45.9260575181
 20
10.292325
 11
-48.825175217
 21
10.292325
  0
LINE
  5
66C
100
AcDbEntity
  8
0
100
AcDbLine
 62
250
  6
CONTINUOUS
 10
-42.9166928675
 20
10.205142911
 11
-44.4095500063
 21
10.6570713927
  0
LINE
  5
66D
100
AcDbEntity
  8
0
100
AcDbLine
 62
250
  6
CONTINUOUS
 10
-42.6452642981
 20
12.7660713927
 11
-42.5095500063
 21
12.6154286073
  0
LINE
  5
66E
100
AcDbEntity
  8
0
100
AcDbLine
 62
250
  6
CONTINUOUS
 10
-32.7095500063
 20
11.0912140236
 11
-32.7095500063
 21
10.2666429882
  0
LINE
  5
66F
100
AcDbEntity
  8
0
100
AcDbLine
 62
250
  6
CONTINUOUS
 10
-32.7095500063
 20
2.6737143103
 11
-32.7095500063
 21
3.1890713794
  0
LINE
  5
670
100
AcDbEntity
  8
0
100
AcDbLine
 62
250
  6
CONTINUOUS
 10
-32.7095500063
 20
3.9792857471
 11
-32.7095500063
 21
4.5977143676
  0
LINE
  5
671
100
AcDbEntity
  8
RACCORDO
100
AcDbLine
 62
7
  6
CONTINUOUS
 10
-41.036310811
 20
-15.1203327545
 11
-41.0067757157
 21
-15.077280442
  0
LINE
  5
672
100
AcDbEntity
  8
ASSI
100
AcDbLine
 62
7
  6
CONTINUOUS
 10
-41.036310811
 20
-15.1203327545
 11
-41.0067757157
 21
-15.077280442
  0
LINE
  5
673
100
AcDbEntity
  8
RACCORDO
100
AcDbLine
 62
7
  6
CONTINUOUS
 10
-41.0067757157
 20
-15.077280442
 11
-40.9771895087
 21
-15.0347386137
  0
LINE
  5
674
100
AcDbEntity
  8
ASSI
100
AcDbLine
 62
7
  6
CONTINUOUS
 10
-41.0067757157
 20
-15.077280442
 11
-40.9771895087
 21
-15.0347386137
  0
LWPOLYLINE
  5
675
100
AcDbEntity
  8
RACCORDO
100
AcDbPolyline
 62
7
  6
CONTINUOUS
 90
3
 70
0
 10
-40.9771895087
 20
-15.0347386137
 10
-40.9329642516
 20
-14.971793096
 10
-40.918276178
 20
-14.9510378674
  0
LWPOLYLINE
  5
676
100
AcDbEntity
  8
ASSI
100
AcDbPolyline
 62
7
  6
CONTINUOUS
 90
3
 70
0
 10
-40.9771895087
 20
-15.0347386137
 10
-40.9329642516
 20
-14.971793096
 10
-40.918276178
 20
-14.9510378674
  0
LWPOLYLINE
  5
677
100
AcDbEntity
  8
0
100
AcDbPolyline
 62
250
  6
CONTINUOUS
 90
17
 70
0
 10
-37.3597286114
 20
12.547108
 10
-37.2980507306
 20
12.5531564903
 10
-37.2387221411
 20
12.5710715761
 10
-37.1840026505
 20
12.6001708773
 10
-37.1351913579
 20
12.6401285431
 10
-37.0958547872
 20
12.6880249629
 10
-37.0665690885
 20
12.7426508799
 10
-37.048449745
 20
12.80192561
 10
-37.0421849822
 20
12.8647
 10
-37.0482325513
 20
12.9263872761
 10
-37.0661449085
 20
12.985724903
 10
-37.0952397778
 20
13.0404527289
 10
-37.1351913579
 20
13.0892714569
 10
-37.1830804827
 20
13.1286140196
 10
-37.2376980799
 20
13.1579041793
 10
-37.2969637822
 20
13.1760262829
 10
-37.3597286392
 20
13.182292
  0
LWPOLYLINE
  5
678
100
AcDbEntity
  8
0
100
AcDbPolyline
 62
250
  6
CONTINUOUS
 90
17
 70
0
 10
-37.3597286114
 20
12.72419
 10
-37.3324408994
 20
12.7268659911
 10
-37.3061925679
 20
12.7347920368
 10
-37.2819834076
 20
12.7476662365
 10
-37.2603881699
 20
12.7653444262
 10
-37.242984767
 20
12.7865349031
 10
-37.2300281008
 20
12.8107026642
 10
-37.2220116868
 20
12.8369271671
 10
-37.2192400117
 20
12.8647
 10
-37.2219155953
 20
12.8919918687
 10
-37.2298404338
 20
12.9182441986
 10
-37.2427126727
 20
12.9424570466
 10
-37.2603881699
 20
12.9640555738
 10
-37.2815754194
 20
12.9814616278
 10
-37.3057394997
 20
12.9944202676
 10
-37.3319600084
 20
13.0024379027
 10
-37.3597286237
 20
13.00521
  0
LWPOLYLINE
  5
679
100
AcDbEntity
  8
0
100
AcDbPolyline
 62
250
  6
CONTINUOUS
 90
17
 70
0
 10
-37.3597286114
 20
13.00521
 10
-37.3870163234
 20
13.0025340089
 10
-37.4132646549
 20
12.9946079632
 10
-37.4374738152
 20
12.9817337635
 10
-37.4590690529
 20
12.9640555738
 10
-37.4764724558
 20
12.9428650969
 10
-37.489429122
 20
12.9186973358
 10
-37.497445536
 20
12.8924728329
 10
-37.500217211
 20
12.8647
 10
-37.4975416275
 20
12.8374081313
 10
-37.489616789
 20
12.8111558014
 10
-37.4767445501
 20
12.7869429534
 10
-37.4590690529
 20
12.7653444262
 10
-37.4378818034
 20
12.7479383722
 10
-37.4137177231
 20
12.7349797324
 10
-37.3874972144
 20
12.7269620973
 10
-37.3597285991
 20
12.72419
  0
LWPOLYLINE
  5
67A
100
AcDbEntity
  8
0
100
AcDbPolyline
 62
250
  6
CONTINUOUS
 90
17
 70
0
 10
-37.3597286114
 20
13.182292
 10
-37.4214064922
 20
13.1762435097
 10
-37.4807350817
 20
13.1583284239
 10
-37.5354545723
 20
13.1292291227
 10
-37.5842658649
 20
13.0892714569
 10
-37.6236024356
 20
13.0413750371
 10
-37.6528881342
 20
12.9867491201
 10
-37.6710074778
 20
12.92747439
 10
-37.6772722406
 20
12.8647
 10
-37.6712246715
 20
12.8030127239
 10
-37.6533123143
 20
12.743675097
 10
-37.624217445
 20
12.6889472711
 10
-37.5842658649
 20
12.6401285431
 10
-37.53637674
 20
12.6007859804
 10
-37.4817591428
 20
12.5714958207
 10
-37.4224934406
 20
12.5533737171
 10
-37.3597285836
 20
12.547108
  0
LINE
  5
67B
100
AcDbEntity
  8
0
100
AcDbLine
 62
250
  6
CONTINUOUS
 10
-40.6003119797
 20
10.931124
 11
-37.2386030622
 21
11.225174
  0
LINE
  5
67C
100
AcDbEntity
  8
0
100
AcDbLine
 62
250
  6
CONTINUOUS
 10
-32.7095500063
 20
10.6789285059
 11
-31.4095500063
 21
10.6789285059
  0
LINE
  5
67D
100
AcDbEntity
  8
0
100
AcDbLine
 62
250
  6
CONTINUOUS
 10
-48.352422255
 20
10.87477
 11
-45.9260575181
 21
10.87477
  0
LINE
  5
67E
100
AcDbEntity
  8
0
100
AcDbLine
 62
250
  6
CONTINUOUS
 10
-43.4595500063
 20
10.9081428691
 11
-42.5095500063
 21
10.9081428691
  0
LINE
  5
67F
100
AcDbEntity
  8
0
100
AcDbLine
 62
250
  6
CONTINUOUS
 10
-40.6003119797
 20
11.218216
 11
-40.9948698774
 21
11.218216
  0
LINE
  5
680
100
AcDbEntity
  8
0
100
AcDbLine
 62
250
  6
CONTINUOUS
 10
-37.0421849822
 20
11.281883
 11
-37.2386030622
 21
11.281883
  0
LINE
  5
681
100
AcDbEntity
  8
0
100
AcDbLine
 62
250
  6
CONTINUOUS
 10
-40.9948698774
 20
11.31759
 11
-40.6003119797
 21
11.31759
  0
LINE
  5
682
100
AcDbEntity
  8
0
100
AcDbLine
 62
250
  6
CONTINUOUS
 10
-37.2386030622
 20
11.399503
 11
-37.0421849822
 21
11.399503
  0
LINE
  5
683
100
AcDbEntity
  8
0
100
AcDbLine
 62
250
  6
CONTINUOUS
 10
-39.5570448985
 20
11.78807
 11
-39.7726480561
 21
11.78807
  0
LINE
  5
684
100
AcDbEntity
  8
0
100
AcDbLine
 62
250
  6
CONTINUOUS
 10
-40.8703688424
 20
11.843073
 11
-41.087829717
 21
11.843073
  0
LINE
  5
685
100
AcDbEntity
  8
0
100
AcDbLine
 62
250
  6
CONTINUOUS
 10
-46.5277611915
 20
12.328754
 11
-48.825175217
 21
12.328754
  0
LINE
  5
686
100
AcDbEntity
  8
0
100
AcDbLine
 62
250
  6
CONTINUOUS
 10
-41.087271802
 20
12.416076
 11
-40.8698109274
 21
12.416076
  0
LINE
  5
687
100
AcDbEntity
  8
0
100
AcDbLine
 62
250
  6
CONTINUOUS
 10
-48.825175217
 20
14.252884
 11
-45.9260575181
 21
13.20444
  0
LINE
  5
688
100
AcDbEntity
  8
0
100
AcDbLine
 62
250
  6
CONTINUOUS
 10
-44.1381214511
 20
15.0257144294
 11
-44.4095500063
 21
15.327
  0
LINE
  5
689
100
AcDbEntity
  8
0
100
AcDbLine
 62
250
  6
CONTINUOUS
 10
-42.6452642981
 20
14.2725
 11
-42.5095500063
 21
14.1218572147
  0
LINE
  5
68A
100
AcDbEntity
  8
0
100
AcDbLine
 62
250
  6
CONTINUOUS
 10
-42.7809785899
 20
15.7789283559
 11
-42.5095500063
 21
15.4776427853
  0
LINE
  5
68B
100
AcDbEntity
  8
0
100
AcDbLine
 62
250
  6
CONTINUOUS
 10
-31.5952643003
 20
3.3952141383
 11
-31.4095500063
 21
3.1890713794
  0
LINE
  5
68C
100
AcDbEntity
  8
RACCORDO
100
AcDbLine
 62
7
  6
CONTINUOUS
 10
-40.918276178
 20
14.9510378674
 11
-40.9624146185
 21
15.0136457945
  0
LINE
  5
68D
100
AcDbEntity
  8
ASSI
100
AcDbLine
 62
7
  6
CONTINUOUS
 10
-40.918276178
 20
14.9510378674
 11
-40.9624146185
 21
15.0136457945
  0
LINE
  5
68E
100
AcDbEntity
  8
RACCORDO
100
AcDbLine
 62
7
  6
CONTINUOUS
 10
-40.9624146185
 20
15.0136457945
 11
-40.9919891395
 21
15.0559455145
  0
LINE
  5
68F
100
AcDbEntity
  8
ASSI
100
AcDbLine
 62
7
  6
CONTINUOUS
 10
-40.9624146185
 20
15.0136457945
 11
-40.9919891395
 21
15.0559455145
  0
LWPOLYLINE
  5
690
100
AcDbEntity
  8
RACCORDO
100
AcDbPolyline
 62
7
  6
CONTINUOUS
 90
40
 70
0
 10
-40.9919891395
 20
15.0559455145
 10
-41.0215497906
 20
15.0987425848
 10
-41.0363108113
 20
15.120332755
 10
-41.0510193295
 20
15.1420673465
 10
-41.0656760333
 20
15.1639458964
 10
-41.0802802346
 20
15.1859688675
 10
-41.0947904193
 20
15.2081540415
 10
-41.1092075242
 20
15.2305011084
 10
-41.1235306126
 20
15.2530103781
 10
-41.13771536
 20
15.2757005621
 10
-41.1517629754
 20
15.2985716847
 10
-41.1656722499
 20
15.3216237215
 10
-41.1793952322
 20
15.3448753112
 10
-41.1929333916
 20
15.3683266878
 10
-41.2062852588
 20
15.3919776172
 10
-41.2193984746
 20
15.4158460359
 10
-41.2322748397
 20
15.4399325212
 10
-41.2449125533
 20
15.4642364957
 10
-41.257253854
 20
15.4887741635
 10
-41.2693008998
 20
15.513546474
 10
-41.2810515327
 20
15.5385524777
 10
-41.2924415173
 20
15.563805531
 10
-41.3034734118
 20
15.5893070007
 10
-41.314144658
 20
15.6150555198
 10
-41.3243833455
 20
15.641060344
 10
-41.3341925264
 20
15.6673234784
 10
-41.3435691487
 20
15.6938429178
 10
-41.3524321458
 20
15.7206219018
 10
-41.3607850945
 20
15.7476631615
 10
-41.3686244181
 20
15.7749639658
 10
-41.3758583195
 20
15.8025193603
 10
-41.3824910287
 20
15.8303331748
 10
-41.3885183157
 20
15.8584015794
 10
-41.3938356937
 20
15.8867081304
 10
-41.3984480703
 20
15.9152581752
 10
-41.402350538
 20
15.9440463663
 10
-41.4054238864
 20
15.9730402178
 10
-41.4076283789
 20
16.0022289009
 10
-41.4090037522
 20
16.0316232444
 10
-41.4095500063
 20
16.0612232482
  0
LWPOLYLINE
  5
691
100
AcDbEntity
  8
ASSI
100
AcDbPolyline
 62
7
  6
CONTINUOUS
 90
40
 70
0
 10
-40.9919891395
 20
15.0559455145
 10
-41.0215497906
 20
15.0987425848
 10
-41.0363108113
 20
15.120332755
 10
-41.0510193295
 20
15.1420673465
 10
-41.0656760333
 20
15.1639458964
 10
-41.0802802346
 20
15.1859688675
 10
-41.0947904193
 20
15.2081540415
 10
-41.1092075242
 20
15.2305011084
 10
-41.1235306126
 20
15.2530103781
 10
-41.13771536
 20
15.2757005621
 10
-41.1517629754
 20
15.2985716847
 10
-41.1656722499
 20
15.3216237215
 10
-41.1793952322
 20
15.3448753112
 10
-41.1929333916
 20
15.3683266878
 10
-41.2062852588
 20
15.3919776172
 10
-41.2193984746
 20
15.4158460359
 10
-41.2322748397
 20
15.4399325212
 10
-41.2449125533
 20
15.4642364957
 10
-41.257253854
 20
15.4887741635
 10
-41.2693008998
 20
15.513546474
 10
-41.2810515327
 20
15.5385524777
 10
-41.2924415173
 20
15.563805531
 10
-41.3034734118
 20
15.5893070007
 10
-41.314144658
 20
15.6150555198
 10
-41.3243833455
 20
15.641060344
 10
-41.3341925264
 20
15.6673234784
 10
-41.3435691487
 20
15.6938429178
 10
-41.3524321458
 20
15.7206219018
 10
-41.3607850945
 20
15.7476631615
 10
-41.3686244181
 20
15.7749639658
 10
-41.3758583195
 20
15.8025193603
 10
-41.3824910287
 20
15.8303331748
 10
-41.3885183157
 20
15.8584015794
 10
-41.3938356937
 20
15.8867081304
 10
-41.3984480703
 20
15.9152581752
 10
-41.402350538
 20
15.9440463663
 10
-41.4054238864
 20
15.9730402178
 10
-41.4076283789
 20
16.0022289009
 10
-41.4090037522
 20
16.0316232444
 10
-41.4095500063
 20
16.0612232482
  0
LINE
  5
692
100
AcDbEntity
  8
RACCORDO
100
AcDbLine
 62
250
  6
CONTINUOUS
 10
-30.3920975999
 20
-14.7673027369
 11
-30.3898669899
 21
-14.9046089206
  0
LINE
  5
693
100
AcDbEntity
  8
ASSI
100
AcDbLine
 62
250
  6
CONTINUOUS
 10
-30.3920975999
 20
-14.7673027369
 11
-30.3898669899
 21
-14.9046089206
  0
LINE
  5
694
100
AcDbEntity
  8
RACCORDO
100
AcDbLine
 62
250
  6
CONTINUOUS
 10
-30.3898669899
 20
-14.9046089206
 11
-30.3880093434
 21
-15.0393133591
  0
LINE
  5
695
100
AcDbEntity
  8
ASSI
100
AcDbLine
 62
250
  6
CONTINUOUS
 10
-30.3898669899
 20
-14.9046089206
 11
-30.3880093434
 21
-15.0393133591
  0
LINE
  5
696
100
AcDbEntity
  8
RACCORDO
100
AcDbLine
 62
250
  6
CONTINUOUS
 10
-30.3880093434
 20
-15.0393133591
 11
-30.38655986
 21
-15.1688636067
  0
LINE
  5
697
100
AcDbEntity
  8
ASSI
100
AcDbLine
 62
250
  6
CONTINUOUS
 10
-30.3880093434
 20
-15.0393133591
 11
-30.38655986
 21
-15.1688636067
  0
LINE
  5
698
100
AcDbEntity
  8
RACCORDO
100
AcDbLine
 62
250
  6
CONTINUOUS
 10
-30.38655986
 20
-15.1688636067
 11
-30.3855460052
 21
-15.2908048814
  0
LINE
  5
699
100
AcDbEntity
  8
ASSI
100
AcDbLine
 62
250
  6
CONTINUOUS
 10
-30.38655986
 20
-15.1688636067
 11
-30.3855460052
 21
-15.2908048814
  0
LINE
  5
69A
100
AcDbEntity
  8
RACCORDO
100
AcDbLine
 62
250
  6
CONTINUOUS
 10
-30.3851551799
 20
15.5728437052
 11
-30.3855460689
 21
15.6189947248
  0
LINE
  5
69B
100
AcDbEntity
  8
ASSI
100
AcDbLine
 62
250
  6
CONTINUOUS
 10
-30.3851551799
 20
15.5728437052
 11
-30.3855460689
 21
15.6189947248
  0
LINE
  5
69C
100
AcDbEntity
  8
RACCORDO
100
AcDbLine
 62
250
  6
CONTINUOUS
 10
-30.3855460052
 20
-15.2908048814
 11
-30.38498699
 21
-15.40282658
  0
LINE
  5
69D
100
AcDbEntity
  8
ASSI
100
AcDbLine
 62
250
  6
CONTINUOUS
 10
-30.3855460052
 20
-15.2908048814
 11
-30.38498699
 21
-15.40282658
  0
LINE
  5
69E
100
AcDbEntity
  8
RACCORDO
100
AcDbLine
 62
250
  6
CONTINUOUS
 10
-30.3848934164
 20
15.5028123634
 11
-30.3851551799
 21
15.5728437052
  0
LINE
  5
69F
100
AcDbEntity
  8
ASSI
100
AcDbLine
 62
250
  6
CONTINUOUS
 10
-30.3848934164
 20
15.5028123634
 11
-30.3851551799
 21
15.5728437052
  0
LINE
  5
6A0
100
AcDbEntity
  8
0
100
AcDbLine
 62
250
  6
CONTINUOUS
 10
-32.1524071824
 20
3.9792857471
 11
-32.1524071824
 21
4.3915712647
  0
LINE
  5
6A1
100
AcDbEntity
  8
0
100
AcDbLine
 62
250
  6
CONTINUOUS
 10
-31.7809785944
 20
12.1906425295
 11
-31.7809785944
 21
11.6409282765
  0
LINE
  5
6A2
100
AcDbEntity
  8
0
100
AcDbLine
 62
250
  6
CONTINUOUS
 10
-31.7809785944
 20
2.1240000573
 11
-31.7809785944
 21
1.5742857184
  0
LINE
  5
6A3
100
AcDbEntity
  8
0
100
AcDbLine
 62
250
  6
CONTINUOUS
 10
-31.4095500063
 20
13.2557140236
 11
-31.4095500063
 21
12.7403574705
  0
LINE
  5
6A4
100
AcDbEntity
  8
0
100
AcDbLine
 62
250
  6
CONTINUOUS
 10
-31.4095500063
 20
4.5977143676
 11
-31.4095500063
 21
3.9792857471
  0
LINE
  5
6A5
100
AcDbEntity
  8
0
100
AcDbLine
 62
250
  6
CONTINUOUS
 10
-31.4095500063
 20
3.1890713794
 11
-31.4095500063
 21
2.6737143103
  0
LINE
  5
6A6
100
AcDbEntity
  8
RACCORDO
100
AcDbLine
 62
250
  6
CONTINUOUS
 10
-30.3920975999
 20
-14.7673027369
 11
-30.3920975999
 21
14.7673027369
  0
LINE
  5
6A7
100
AcDbEntity
  8
ASSI
100
AcDbLine
 62
250
  6
CONTINUOUS
 10
-30.3920975999
 20
-14.7673027369
 11
-30.3920975999
 21
14.7673027369
  0
LINE
  5
6A8
100
AcDbEntity
  8
RACCORDO
100
AcDbLine
 62
250
  6
CONTINUOUS
 10
-30.38498699
 20
-15.40282658
 11
-30.3848934069
 21
-15.5028060603
  0
LINE
  5
6A9
100
AcDbEntity
  8
ASSI
100
AcDbLine
 62
250
  6
CONTINUOUS
 10
-30.38498699
 20
-15.40282658
 11
-30.3848934069
 21
-15.5028060603
  0
LINE
  5
6AA
100
AcDbEntity
  8
RACCORDO
100
AcDbLine
 62
250
  6
CONTINUOUS
 10
-30.3849869713
 20
15.4028326634
 11
-30.3848934164
 21
15.5028123634
  0
LINE
  5
6AB
100
AcDbEntity
  8
ASSI
100
AcDbLine
 62
250
  6
CONTINUOUS
 10
-30.3849869713
 20
15.4028326634
 11
-30.3848934164
 21
15.5028123634
  0
LINE
  5
6AC
100
AcDbEntity
  8
RACCORDO
100
AcDbLine
 62
250
  6
CONTINUOUS
 10
-30.3848934069
 20
-15.5028060603
 11
-30.3851551413
 21
-15.5728375619
  0
LINE
  5
6AD
100
AcDbEntity
  8
ASSI
100
AcDbLine
 62
250
  6
CONTINUOUS
 10
-30.3848934069
 20
-15.5028060603
 11
-30.3851551413
 21
-15.5728375619
  0
LINE
  5
6AE
100
AcDbEntity
  8
RACCORDO
100
AcDbLine
 62
250
  6
CONTINUOUS
 10
-30.3858978118
 20
15.2430981409
 11
-30.3849869713
 21
15.4028326634
  0
LINE
  5
6AF
100
AcDbEntity
  8
ASSI
100
AcDbLine
 62
250
  6
CONTINUOUS
 10
-30.3858978118
 20
15.2430981409
 11
-30.3849869713
 21
15.4028326634
  0
LINE
  5
6B0
100
AcDbEntity
  8
RACCORDO
100
AcDbLine
 62
250
  6
CONTINUOUS
 10
-30.3851551413
 20
-15.5728375619
 11
-30.3855460052
 21
-15.6189888954
  0
LINE
  5
6B1
100
AcDbEntity
  8
ASSI
100
AcDbLine
 62
250
  6
CONTINUOUS
 10
-30.3851551413
 20
-15.5728375619
 11
-30.3855460052
 21
-15.6189888954
  0
LINE
  5
6B2
100
AcDbEntity
  8
RACCORDO
100
AcDbLine
 62
250
  6
CONTINUOUS
 10
-30.3880093048
 20
15.0393164488
 11
-30.3858978118
 21
15.2430981409
  0
LINE
  5
6B3
100
AcDbEntity
  8
ASSI
100
AcDbLine
 62
250
  6
CONTINUOUS
 10
-30.3880093048
 20
15.0393164488
 11
-30.3858978118
 21
15.2430981409
  0
LWPOLYLINE
  5
6B4
100
AcDbEntity
  8
RACCORDO
100
AcDbPolyline
 62
250
  6
CONTINUOUS
 90
3
 70
0
 10
-30.3920975999
 20
14.7673027369
 10
-30.3916235686
 20
14.7948478563
 10
-30.3880093048
 20
15.0393164488
  0
LWPOLYLINE
  5
6B5
100
AcDbEntity
  8
ASSI
100
AcDbPolyline
 62
250
  6
CONTINUOUS
 90
3
 70
0
 10
-30.3920975999
 20
14.7673027369
 10
-30.3916235686
 20
14.7948478563
 10
-30.3880093048
 20
15.0393164488
  0
LINE
  5
6B6
100
AcDbEntity
  8
0
100
AcDbLine
 62
250
  6
CONTINUOUS
 10
-46.8290234031
 20
-14.778839
 11
-48.8253121753
 21
-15.419971
  0
LINE
  5
6B7
100
AcDbEntity
  8
0
100
AcDbLine
 62
250
  6
CONTINUOUS
 10
-48.8253121753
 20
-16.0
 11
-45.9260575181
 21
-15.068868
  0
LWPOLYLINE
  5
6B8
100
AcDbEntity
  8
0
100
AcDbPolyline
 62
250
  6
CONTINUOUS
 90
17
 70
0
 10
-40.7047730673
 20
13.097331
 10
-40.6673727246
 20
13.1009986943
 10
-40.6313969493
 20
13.1118620758
 10
-40.5982160476
 20
13.1295073616
 10
-40.5686177694
 20
13.1537369619
 10
-40.54476479
 20
13.1827804778
 10
-40.5270064761
 20
13.2159046382
 10
-40.5160192365
 20
13.2518477541
 10
-40.5122203985
 20
13.289913
 10
-40.5158875341
 20
13.3273190398
 10
-40.5267492611
 20
13.3633002952
 10
-40.5443918595
 20
13.3964862513
 10
-40.5686177694
 20
13.4260890381
 10
-40.5976568619
 20
13.4499456511
 10
-40.6307759773
 20
13.46770667
 10
-40.6667136189
 20
13.4786955834
 10
-40.7047730841
 20
13.482495
  0
LWPOLYLINE
  5
6B9
100
AcDbEntity
  8
0
100
AcDbPolyline
 62
250
  6
CONTINUOUS
 90
17
 70
0
 10
-40.7047730673
 20
13.482495
 10
-40.74217341
 20
13.4788273057
 10
-40.7781491853
 20
13.4679639242
 10
-40.811330087
 20
13.4503186384
 10
-40.8409283652
 20
13.4260890381
 10
-40.8647813446
 20
13.3970455222
 10
-40.8825396585
 20
13.3639213618
 10
-40.8935268982
 20
13.3279782459
 10
-40.8973257361
 20
13.289913
 10
-40.8936586005
 20
13.2525069602
 10
-40.8827968735
 20
13.2165257048
 10
-40.8651542751
 20
13.1833397487
 10
-40.8409283652
 20
13.1537369619
 10
-40.8118892727
 20
13.1298803489
 10
-40.7787701573
 20
13.11211933
 10
-40.7428325157
 20
13.1011304166
 10
-40.7047730505
 20
13.097331
  0
LINE
  5
6BA
100
AcDbEntity
  8
0
100
AcDbLine
 62
250
  6
CONTINUOUS
 10
-39.7726480561
 20
12.61141
 11
-39.5570448985
 21
12.61141
  0
LINE
  5
6BB
100
AcDbEntity
  8
0
100
AcDbLine
 62
250
  6
CONTINUOUS
 10
-44.1381214511
 20
12.7158570471
 11
-43.7309785616
 21
12.7158570471
  0
LINE
  5
6BC
100
AcDbEntity
  8
0
100
AcDbLine
 62
250
  6
CONTINUOUS
 10
-31.4095500063
 20
12.7403574705
 11
-32.7095500063
 21
12.7403574705
  0
LINE
  5
6BD
100
AcDbEntity
  8
0
100
AcDbLine
 62
250
  6
CONTINUOUS
 10
-43.3238357287
 20
12.7660713927
 11
-42.6452642981
 21
12.7660713927
  0
LINE
  5
6BE
100
AcDbEntity
  8
0
100
AcDbLine
 62
250
  6
CONTINUOUS
 10
-48.825175217
 20
12.911198
 11
-45.9260575181
 21
12.911198
  0
LINE
  5
6BF
100
AcDbEntity
  8
0
100
AcDbLine
 62
250
  6
CONTINUOUS
 10
-39.8650499807
 20
13.067887
 11
-40.2374572526
 21
13.067887
  0
LINE
  5
6C0
100
AcDbEntity
  8
0
100
AcDbLine
 62
250
  6
CONTINUOUS
 10
-40.2374572526
 20
13.417947
 11
-39.8650499807
 21
13.417947
  0
LINE
  5
6C1
100
AcDbEntity
  8
0
100
AcDbLine
 62
250
  6
CONTINUOUS
 10
-32.1524071824
 20
14.080285059
 11
-31.4095500063
 21
14.080285059
  0
LINE
  5
6C2
100
AcDbEntity
  8
0
100
AcDbLine
 62
250
  6
CONTINUOUS
 10
-35.4284068059
 20
14.092362
 11
-34.4095500063
 21
14.092362
  0
LINE
  5
6C3
100
AcDbEntity
  8
0
100
AcDbLine
 62
250
  6
CONTINUOUS
 10
-44.1381214511
 20
14.2222859058
 11
-43.7309785616
 21
14.2222859058
  0
LINE
  5
6C4
100
AcDbEntity
  8
0
100
AcDbLine
 62
250
  6
CONTINUOUS
 10
-43.3238357287
 20
14.2725
 11
-42.6452642981
 21
14.2725
  0
LINE
  5
6C5
100
AcDbEntity
  8
DRAFT
100
AcDbLine
 62
7
  6
CONTINUOUS
 10
-27.6834032835
 20
11.0989817302
 11
-29.1356967292
 21
11.2260409428
  0
LINE
  5
6C6
100
AcDbEntity
  8
ASSI
100
AcDbLine
 62
7
  6
CONTINUOUS
 10
-27.6834032835
 20
11.0989817302
 11
-29.1356967292
 21
11.2260409428
  0
LINE
  5
6C7
100
AcDbEntity
  8
0
100
AcDbLine
 62
250
  6
CONTINUOUS
 10
-37.6766803308
 20
12.880593
 11
-40.572764176
 21
13.149839
  0
LINE
  5
6C8
100
AcDbEntity
  8
0
100
AcDbLine
 62
250
  6
CONTINUOUS
 10
-47.0222955171
 20
14.176491
 11
-48.2710200566
 21
14.606449
  0
LINE
  5
6C9
100
AcDbEntity
  8
0
100
AcDbLine
 62
250
  6
CONTINUOUS
 10
-45.9260575181
 20
13.798889
 11
-46.5405093074
 21
14.015846
  0
LINE
  5
6CA
100
AcDbEntity
  8
0
100
AcDbLine
 62
250
  6
CONTINUOUS
 10
-43.8666928958
 20
14.8750716441
 11
-44.1381214511
 21
15.0257144294
  0
LINE
  5
6CB
100
AcDbEntity
  8
0
100
AcDbLine
 62
250
  6
CONTINUOUS
 10
-36.4989537315
 20
9.624378
 11
-41.5084686419
 21
14.56101
  0
LWPOLYLINE
  5
6CC
100
AcDbEntity
  8
RACCORDO
100
AcDbPolyline
 62
250
  6
CONTINUOUS
 90
13
 70
0
 10
-30.3873789953
 20
15.7129021456
 10
-30.3876859535
 20
15.7214930434
 10
-30.3880095091
 20
15.7293596105
 10
-30.3883494154
 20
15.736495857
 10
-30.3887054139
 20
15.742896361
 10
-30.3890772346
 20
15.7485562806
 10
-30.3894645962
 20
15.7534713343
 10
-30.3898672131
 20
15.7576378702
 10
-30.3902847717
 20
15.761052615
 10
-30.3907169286
 20
15.7637128387
 10
-30.3911633439
 20
15.7656166281
 10
-30.391623685
 20
15.7667627366
 10
-30.3920975999
 20
15.767150432
  0
LWPOLYLINE
  5
6CD
100
AcDbEntity
  8
ASSI
100
AcDbPolyline
 62
250
  6
CONTINUOUS
 90
13
 70
0
 10
-30.3873789953
 20
15.7129021456
 10
-30.3876859535
 20
15.7214930434
 10
-30.3880095091
 20
15.7293596105
 10
-30.3883494154
 20
15.736495857
 10
-30.3887054139
 20
15.742896361
 10
-30.3890772346
 20
15.7485562806
 10
-30.3894645962
 20
15.7534713343
 10
-30.3898672131
 20
15.7576378702
 10
-30.3902847717
 20
15.761052615
 10
-30.3907169286
 20
15.7637128387
 10
-30.3911633439
 20
15.7656166281
 10
-30.391623685
 20
15.7667627366
 10
-30.3920975999
 20
15.767150432
  0
LINE
  5
6CE
100
AcDbEntity
  8
RACCORDO
100
AcDbLine
 62
250
  6
CONTINUOUS
 10
-30.3868157905
 20
15.6935740127
 11
-30.3873789953
 21
15.7129021456
  0
LINE
  5
6CF
100
AcDbEntity
  8
ASSI
100
AcDbLine
 62
250
  6
CONTINUOUS
 10
-30.3868157905
 20
15.6935740127
 11
-30.3873789953
 21
15.7129021456
  0
LINE
  5
6D0
100
AcDbEntity
  8
RACCORDO
100
AcDbLine
 62
250
  6
CONTINUOUS
 10
-30.3863216034
 20
15.6714338677
 11
-30.3868157905
 21
15.6935740127
  0
LINE
  5
6D1
100
AcDbEntity
  8
ASSI
100
AcDbLine
 62
250
  6
CONTINUOUS
 10
-30.3863216034
 20
15.6714338677
 11
-30.3868157905
 21
15.6935740127
  0
LINE
  5
6D2
100
AcDbEntity
  8
RACCORDO
100
AcDbLine
 62
250
  6
CONTINUOUS
 10
-30.3858979341
 20
15.6465489217
 11
-30.3863216034
 21
15.6714338677
  0
LINE
  5
6D3
100
AcDbEntity
  8
ASSI
100
AcDbLine
 62
250
  6
CONTINUOUS
 10
-30.3858979341
 20
15.6465489217
 11
-30.3863216034
 21
15.6714338677
  0
LINE
  5
6D4
100
AcDbEntity
  8
RACCORDO
100
AcDbLine
 62
250
  6
CONTINUOUS
 10
-30.3855460689
 20
15.6189947248
 11
-30.3858979341
 21
15.6465489217
  0
LINE
  5
6D5
100
AcDbEntity
  8
ASSI
100
AcDbLine
 62
250
  6
CONTINUOUS
 10
-30.3855460689
 20
15.6189947248
 11
-30.3858979341
 21
15.6465489217
  0
LINE
  5
6D6
100
AcDbEntity
  8
RACCORDO
100
AcDbLine
 62
7
  6
CONTINUOUS
 10
-29.4095500063
 20
-14.7673027369
 11
-29.4095500063
 21
14.7673027369
  0
LINE
  5
6D7
100
AcDbEntity
  8
ASSI
100
AcDbLine
 62
7
  6
CONTINUOUS
 10
-29.4095500063
 20
-14.7673027369
 11
-29.4095500063
 21
14.7673027369
  0
LINE
  5
6D8
100
AcDbEntity
  8
RACCORDO
100
AcDbLine
 62
250
  6
CONTINUOUS
 10
-29.1356967213
 20
11.2260409421
 11
-29.1356967208
 21
5.0739590579
  0
LINE
  5
6D9
100
AcDbEntity
  8
ASSI
100
AcDbLine
 62
250
  6
CONTINUOUS
 10
-29.1356967213
 20
11.2260409421
 11
-29.1356967208
 21
5.0739590579
  0
LINE
  5
6DA
100
AcDbEntity
  8
RACCORDO
100
AcDbLine
 62
250
  6
CONTINUOUS
 10
-29.1356967213
 20
-5.0739590579
 11
-29.1356967208
 21
-11.2260409421
  0
LINE
  5
6DB
100
AcDbEntity
  8
ASSI
100
AcDbLine
 62
250
  6
CONTINUOUS
 10
-29.1356967213
 20
-5.0739590579
 11
-29.1356967208
 21
-11.2260409421
  0
LINE
  5
6DC
100
AcDbEntity
  8
RACCORDO
100
AcDbLine
 62
250
  6
CONTINUOUS
 10
-30.3855460052
 20
-15.6189888954
 11
-30.3861007773
 21
-15.6593246036
  0
LINE
  5
6DD
100
AcDbEntity
  8
ASSI
100
AcDbLine
 62
250
  6
CONTINUOUS
 10
-30.3855460052
 20
-15.6189888954
 11
-30.3861007773
 21
-15.6593246036
  0
LINE
  5
6DE
100
AcDbEntity
  8
RACCORDO
100
AcDbLine
 62
250
  6
CONTINUOUS
 10
-30.3861007773
 20
-15.6593246036
 11
-30.38655986
 21
-15.6828464666
  0
LINE
  5
6DF
100
AcDbEntity
  8
ASSI
100
AcDbLine
 62
250
  6
CONTINUOUS
 10
-30.3861007773
 20
-15.6593246036
 11
-30.38655986
 21
-15.6828464666
  0
LWPOLYLINE
  5
6E0
100
AcDbEntity
  8
RACCORDO
100
AcDbPolyline
 62
250
  6
CONTINUOUS
 90
15
 70
0
 10
-30.38655986
 20
-15.6828464666
 10
-30.387088736
 20
-15.7035889313
 10
-30.3873788529
 20
-15.7128978762
 10
-30.3876857997
 20
-15.7214890279
 10
-30.3880093434
 20
-15.7293558649
 10
-30.3883492385
 20
-15.7364924156
 10
-30.3887052269
 20
-15.7428932626
 10
-30.3890770384
 20
-15.7485535471
 10
-30.3894643908
 20
-15.7534689725
 10
-30.3898669899
 20
-15.7576358075
 10
-30.3902845303
 20
-15.7610508891
 10
-30.3907166949
 20
-15.7637116249
 10
-30.3911631558
 20
-15.7656159952
 10
-30.3916235739
 20
-15.7667625543
 10
-30.3920975999
 20
-15.767150432
  0
LWPOLYLINE
  5
6E1
100
AcDbEntity
  8
ASSI
100
AcDbPolyline
 62
250
  6
CONTINUOUS
 90
15
 70
0
 10
-30.38655986
 20
-15.6828464666
 10
-30.387088736
 20
-15.7035889313
 10
-30.3873788529
 20
-15.7128978762
 10
-30.3876857997
 20
-15.7214890279
 10
-30.3880093434
 20
-15.7293558649
 10
-30.3883492385
 20
-15.7364924156
 10
-30.3887052269
 20
-15.7428932626
 10
-30.3890770384
 20
-15.7485535471
 10
-30.3894643908
 20
-15.7534689725
 10
-30.3898669899
 20
-15.7576358075
 10
-30.3902845303
 20
-15.7610508891
 10
-30.3907166949
 20
-15.7637116249
 10
-30.3911631558
 20
-15.7656159952
 10
-30.3916235739
 20
-15.7667625543
 10
-30.3920975999
 20
-15.767150432
  0
LINE
  5
6E2
100
AcDbEntity
  8
RACCORDO
100
AcDbLine
 62
7
  6
CONTINUOUS
 10
-53.9095500063
 20
-23.1226497308
 11
-54.7845500063
 21
-23.6278312164
  0
LINE
  5
6E3
100
AcDbEntity
  8
RACCORDO
100
AcDbLine
 62
250
  6
CONTINUOUS
 10
-53.6610044392
 20
-23.2669872981
 11
-54.6610044392
 21
-23.8443375673
  0
LINE
  5
6E4
100
AcDbEntity
  8
RACCORDO
100
AcDbLine
 62
250
  6
CONTINUOUS
 10
-30.3920975999
 20
14.7673027369
 11
-29.4095500063
 21
14.7673027369
  0
LINE
  5
6E5
100
AcDbEntity
  8
ASSI
100
AcDbLine
 62
250
  6
CONTINUOUS
 10
-30.3920975999
 20
14.7673027369
 11
-29.4095500063
 21
14.7673027369
  0
LINE
  5
6E6
100
AcDbEntity
  8
0
100
AcDbLine
 62
250
  6
CONTINUOUS
 10
-43.0524071735
 20
14.8750716441
 11
-43.8666928958
 21
14.8750716441
  0
LINE
  5
6E7
100
AcDbEntity
  8
0
100
AcDbLine
 62
250
  6
CONTINUOUS
 10
-43.8666928958
 20
15.9295716441
 11
-43.0524071735
 21
15.9295716441
  0
LINE
  5
6E8
100
AcDbEntity
  8
RACCORDO
100
AcDbLine
 62
250
  6
CONTINUOUS
 10
-30.3920975999
 20
14.7673027369
 11
-40.918276178
 21
14.9510378674
  0
LINE
  5
6E9
100
AcDbEntity
  8
ASSI
100
AcDbLine
 62
250
  6
CONTINUOUS
 10
-30.3920975999
 20
14.7673027369
 11
-40.918276178
 21
14.9510378674
  0
LINE
  5
6EA
100
AcDbEntity
  8
RACCORDO
100
AcDbLine
 62
7
  6
CONTINUOUS
 10
-30.3920975999
 20
15.767150432
 11
-40.9182762095
 21
15.9508855631
  0
LINE
  5
6EB
100
AcDbEntity
  8
ASSI
100
AcDbLine
 62
7
  6
CONTINUOUS
 10
-30.3920975999
 20
15.767150432
 11
-40.9182762095
 21
15.9508855631
  0
LINE
  5
6EC
100
AcDbEntity
  8
0
100
AcDbLine
 62
250
  6
CONTINUOUS
 10
-31.4095500063
 20
11.5035002294
 11
-32.7095500063
 21
11.915785059
  0
LINE
  5
6ED
100
AcDbEntity
  8
0
100
AcDbLine
 62
250
  6
CONTINUOUS
 10
-43.0524071735
 20
15.9295716441
 11
-42.7809785899
 21
15.7789283559
  0
LINE
  5
6EE
100
AcDbEntity
  8
RACCORDO
100
AcDbLine
 62
7
  6
CONTINUOUS
 10
-54.7845500063
 20
23.6278312164
 11
-53.9095500063
 21
23.1226497308
  0
LINE
  5
6EF
100
AcDbEntity
  8
RACCORDO
100
AcDbLine
 62
250
  6
CONTINUOUS
 10
-54.6610044392
 20
23.8443375673
 11
-53.6610044392
 21
23.2669872981
  0
LINE
  5
6F0
100
AcDbEntity
  8
RACCORDO
100
AcDbLine
 62
250
  6
CONTINUOUS
 10
-27.6834032814
 20
11.09898173
 11
-27.6834032819
 21
5.20101827
  0
LINE
  5
6F1
100
AcDbEntity
  8
ASSI
100
AcDbLine
 62
250
  6
CONTINUOUS
 10
-27.6834032814
 20
11.09898173
 11
-27.6834032819
 21
5.20101827
  0
LINE
  5
6F2
100
AcDbEntity
  8
RACCORDO
100
AcDbLine
 62
250
  6
CONTINUOUS
 10
-27.6834032814
 20
-5.20101827
 11
-27.6834032819
 21
-11.09898173
  0
LINE
  5
6F3
100
AcDbEntity
  8
ASSI
100
AcDbLine
 62
250
  6
CONTINUOUS
 10
-27.6834032814
 20
-5.20101827
 11
-27.6834032819
 21
-11.09898173
  0
LINE
  5
6F4
100
AcDbEntity
  8
RACCORDO
100
AcDbLine
 62
7
  6
CONTINUOUS
 10
-27.4095500063
 20
10.8001228038
 11
-27.4095500063
 21
5.4998771914
  0
LINE
  5
6F5
100
AcDbEntity
  8
ASSI
100
AcDbLine
 62
7
  6
CONTINUOUS
 10
-27.4095500063
 20
10.8001228038
 11
-27.4095500063
 21
5.4999347357
  0
LINE
  5
6F6
100
AcDbEntity
  8
RACCORDO
100
AcDbLine
 62
7
  6
CONTINUOUS
 10
-27.4095500063
 20
-5.4998771962
 11
-27.4095500063
 21
-10.8001228086
  0
LINE
  5
6F7
100
AcDbEntity
  8
ASSI
100
AcDbLine
 62
7
  6
CONTINUOUS
 10
-27.4095500063
 20
-5.4998771962
 11
-27.4095500063
 21
-10.8000652643
  0
LINE
  5
6F8
100
AcDbEntity
  8
0
100
AcDbLine
 62
250
  6
CONTINUOUS
 10
-41.4095500063
 20
17.5993978025
 11
-51.4095500063
 21
17.6716990487
  0
LINE
  5
6F9
100
AcDbEntity
  8
ASSI
100
AcDbLine
 62
250
  6
CONTINUOUS
 10
-41.4095500063
 20
17.5993978025
 11
-51.4095500063
 21
17.6716990487
  0
LINE
  5
6FA
100
AcDbEntity
  8
0
100
AcDbLine
 62
250
  6
CONTINUOUS
 10
-41.4095500063
 20
19.0133959733
 11
-51.4095500063
 21
19.0856972195
  0
LINE
  5
6FB
100
AcDbEntity
  8
ASSI
100
AcDbLine
 62
250
  6
CONTINUOUS
 10
-41.4095500063
 20
19.0133959733
 11
-51.4095500063
 21
19.0856972195
  0
LINE
  5
6FC
100
AcDbEntity
  8
RACCORDO
100
AcDbLine
 62
250
  6
CONTINUOUS
 10
-60.995705176
 20
20.5419058565
 11
-61.4210773205
 21
20.559595439
  0
LINE
  5
6FD
100
AcDbEntity
  8
RACCORDO
100
AcDbLine
 62
250
  6
CONTINUOUS
 10
-61.4210773205
 20
20.559595439
 11
-61.4815851731
 21
20.5622131686
  0
LWPOLYLINE
  5
6FE
100
AcDbEntity
  8
RACCORDO
100
AcDbPolyline
 62
250
  6
CONTINUOUS
 90
3
 70
0
 10
-61.4815851731
 20
20.5622131686
 10
-61.4860033138
 20
20.5624286744
 10
-61.4865559788
 20
20.5624683248
  0
LINE
  5
6FF
100
AcDbEntity
  8
0
100
AcDbLine
 62
250
  6
CONTINUOUS
 10
-32.7095500063
 20
14.4925719528
 11
-32.1524071824
 21
14.080285059
  0
LWPOLYLINE
  5
700
100
AcDbEntity
  8
RACCORDO
100
AcDbPolyline
 62
250
  6
CONTINUOUS
 90
141
 70
0
 10
-60.0593485596
 20
21.498807296
 10
-60.069801375
 20
21.4980946531
 10
-60.0802455664
 20
21.4972725258
 10
-60.0906824716
 20
21.4963407692
 10
-60.1011107529
 20
21.4952995282
 10
-60.1115263967
 20
21.4941492376
 10
-60.1219293203
 20
21.4928898817
 10
-60.1323196064
 20
21.4915214762
 10
-60.1426934901
 20
21.4900445026
 10
-60.1530508488
 20
21.4884589214
 10
-60.1633918051
 20
21.4867647722
 10
-60.1737129617
 20
21.4849626546
 10
-60.1840142342
 20
21.4830525559
 10
-60.1942957071
 20
21.4810344887
 10
-60.204554236
 20
21.4789090908
 10
-60.2147898184
 20
21.4766763348
 10
-60.2250024568
 20
21.474336248
 10
-60.2351890151
 20
21.4718895498
 10
-60.2453495301
 20
21.4693362012
 10
-60.2554839648
 20
21.4666762412
 10
-60.2655890722
 20
21.463910506
 10
-60.2756649089
 20
21.4610389419
 10
-60.2857114182
 20
21.4580616025
 10
-60.2957251827
 20
21.4549794854
 10
-60.3057061938
 20
21.4517925502
 10
-60.3156544601
 20
21.4485008372
 10
-60.3255665903
 20
21.4451054644
 10
-60.3354425564
 20
21.4416063989
 10
-60.3452823863
 20
21.4380036736
 10
-60.355082772
 20
21.4342985053
 10
-60.364843672
 20
21.43049087
 10
-60.3745651277
 20
21.4265807916
 10
-60.3842439562
 20
21.4225695591
 10
-60.3938801397
 20
21.4184571417
 10
-60.403473696
 20
21.4142435702
 10
-60.413021495
 20
21.4099302257
 10
-60.4225235261
 20
21.4055170743
 10
-60.4319797999
 20
21.4010041498
 10
-60.4413872186
 20
21.396392935
 10
-60.4507457607
 20
21.3916834012
 10
-60.4600554476
 20
21.386875577
 10
-60.4693132449
 20
21.3819710312
 10
-60.4785191316
 20
21.3769697359
 10
-60.4876731287
 20
21.3718717189
 10
-60.4967722644
 20
21.3666786323
 10
-60.5058165223
 20
21.3613904463
 10
-60.5148059189
 20
21.3560071908
 10
-60.5237375313
 20
21.3505306078
 10
-60.532611352
 20
21.3449606608
 10
-60.5414273884
 20
21.3392973864
 10
-60.5501827403
 20
21.3335426361
 10
-60.5588774146
 20
21.3276963596
 10
-60.5675114044
 20
21.3217586073
 10
-60.5760817872
 20
21.3157313817
 10
-60.5845885611
 20
21.3096146331
 10
-60.593031728
 20
21.3034084112
 10
-60.6014083722
 20
21.2971148677
 10
-60.6097184509
 20
21.290733982
 10
-60.6179620068
 20
21.2842657747
 10
-60.6261362522
 20
21.2777124585
 10
-60.6342410788
 20
21.2710740777
 10
-60.6422765949
 20
21.264350588
 10
-60.6502403379
 20
21.2575440685
 10
-60.6581322704
 20
21.2506545189
 10
-60.6659524298
 20
21.2436819397
 10
-60.6736984663
 20
21.2366284112
 10
-60.6813704458
 20
21.2294938315
 10
-60.6889683024
 20
21.2222783026
 10
-60.6964894886
 20
21.2149842112
 10
-60.7039340623
 20
21.2076114366
 10
-60.7113019655
 20
21.2001600995
 10
-60.7185904772
 20
21.1926329489
 10
-60.7257995061
 20
21.1850300098
 10
-60.7329291435
 20
21.1773512572
 10
-60.7399769419
 20
21.1695993651
 10
-60.7469427461
 20
21.1617744595
 10
-60.7538267114
 20
21.1538764143
 10
-60.7606268554
 20
21.1459075259
 10
-60.7673431752
 20
21.137867767
 10
-60.7739756738
 20
21.1297571648
 10
-60.780522378
 20
21.1215780974
 10
-60.786983383
 20
21.113330391
 10
-60.7933585936
 20
21.1050142194
 10
-60.7996457515
 20
21.0966324816
 10
-60.8058448322
 20
21.088185132
 10
-60.8119558603
 20
21.0796722162
 10
-60.8179766508
 20
21.0710967707
 10
-60.8239071488
 20
21.0624587932
 10
-60.8297474093
 20
21.0537582859
 10
-60.8354954124
 20
21.0449982919
 10
-60.8411510738
 20
21.0361788704
 10
-60.8467144779
 20
21.0272999621
 10
-60.8521838583
 20
21.0183644322
 10
-60.8575591706
 20
21.0093722957
 10
-60.8628404592
 20
21.0003235374
 10
-60.8680260916
 20
20.9912209776
 10
-60.8731160525
 20
20.9820645835
 10
-60.8781103571
 20
20.9728543877
 10
-60.8830074193
 20
20.9635933083
 10
-60.8878072311
 20
20.9542812876
 10
-60.8925098004
 20
20.9449183833
 10
-60.8971135649
 20
20.9355076862
 10
-60.901618506
 20
20.9260491449
 10
-60.9060246422
 20
20.916542811
 10
-60.9103304669
 20
20.90699193
 10
-60.9145359253
 20
20.8973965302
 10
-60.9186410721
 20
20.8877565833
 10
-60.9226445649
 20
20.8780752501
 10
-60.9265463659
 20
20.8683525318
 10
-60.9303465127
 20
20.8585884271
 10
-60.9340437764
 20
20.8487860927
 10
-60.9376381264
 20
20.8389455138
 10
-60.9411295933
 20
20.8290667053
 10
-60.9445170393
 20
20.8191528685
 10
-60.9478004616
 20
20.8092038826
 10
-60.9509798632
 20
20.7992198685
 10
-60.9540541147
 20
20.789204389
 10
-60.957023158
 20
20.7791574818
 10
-60.9598870514
 20
20.7690791092
 10
-60.9626448403
 20
20.7589727216
 10
-60.9652964581
 20
20.7488384395
 10
-60.9678419716
 20
20.7386761423
 10
-60.970280626
 20
20.7284889178
 10
-60.9726123815
 20
20.718276855
 10
-60.974837278
 20
20.708039865
 10
-60.9769546816
 20
20.6977807678
 10
-60.9789645987
 20
20.687499421
 10
-60.9808670229
 20
20.6771959671
 10
-60.9826613001
 20
20.6668736541
 10
-60.9843474188
 20
20.6565323022
 10
-60.9859253906
 20
20.6461720913
 10
-60.9873945962
 20
20.6357968087
 10
-60.9887549917
 20
20.6254063354
 10
-60.990006621
 20
20.6150007904
 10
-60.9911489969
 20
20.6045843179
 10
-60.9921820601
 20
20.59415676
 10
-60.99310587
 20
20.5837182746
 10
-60.9939201174
 20
20.5732734798
 10
-60.9946246994
 20
20.5628239149
 10
-60.9952197189
 20
20.5523680404
 10
-60.995705176
 20
20.5419058565
  0
LINE
  5
701
100
AcDbEntity
  8
RACCORDO
100
AcDbLine
 62
250
  6
CONTINUOUS
 10
-56.7577477431
 20
21.7022643973
 11
-57.3842629814
 21
21.6612684283
  0
LWPOLYLINE
  5
702
100
AcDbEntity
  8
RACCORDO
100
AcDbPolyline
 62
250
  6
CONTINUOUS
 90
9
 70
0
 10
-57.3842629814
 20
21.6612684283
 10
-57.9956086074
 20
21.6215270335
 10
-58.2953010807
 20
21.6023720188
 10
-58.5877331863
 20
21.5839734756
 10
-58.8755706474
 20
21.566169232
 10
-59.1649873797
 20
21.5488243063
 10
-59.4580413553
 20
21.5318937045
 10
-59.7526746022
 20
21.5154224206
 10
-60.0593485596
 20
21.498807296
  0
LWPOLYLINE
  5
703
100
AcDbEntity
  8
RACCORDO
100
AcDbPolyline
 62
250
  6
CONTINUOUS
 90
9
 70
0
 10
-54.5033097015
 20
21.8397834629
 10
-54.7562445167
 20
21.8257712893
 10
-55.0165813818
 20
21.8108875338
 10
-55.2829244929
 20
21.7952632735
 10
-55.558903211
 20
21.7786247399
 10
-55.8472132122
 20
21.760720597
 10
-56.1451588204
 20
21.7418021809
 10
-56.4482823682
 20
21.7223497319
 10
-56.7577477431
 20
21.7022643973
  0
LINE
  5
704
100
AcDbEntity
  8
RACCORDO
100
AcDbLine
 62
250
  6
CONTINUOUS
 10
-54.0076420359
 20
21.8662532954
 11
-54.5033097015
 21
21.8397834629
  0
LINE
  5
705
100
AcDbEntity
  8
DRAFT
100
AcDbLine
 62
7
  6
CONTINUOUS
 10
-51.2097632461
 20
20.9104703804
 11
-51.4095500063
 21
20.9
  0
LINE
  5
706
100
AcDbEntity
  8
RACCORDO
100
AcDbLine
 62
250
  6
CONTINUOUS
 10
-52.4076608921
 20
21.9498978415
 11
-53.2427448112
 21
21.9060737572
  0
LINE
  5
707
100
AcDbEntity
  8
RACCORDO
100
AcDbLine
 62
250
  6
CONTINUOUS
 10
-53.2427448112
 20
21.9060737572
 11
-54.0076420359
 21
21.8662532954
  0
LINE
  5
708
100
AcDbEntity
  8
RACCORDO
100
AcDbLine
 62
7
  6
CONTINUOUS
 10
-41.9008238031
 20
21.5659754333
 11
-51.4095500063
 21
21.4
  0
LINE
  5
709
100
AcDbEntity
  8
RACCORDO
100
AcDbLine
 62
7
  6
CONTINUOUS
 10
-41.4095500063
 20
20.9959955457
 11
-51.2097632461
 21
20.9104703804
  0
LINE
  5
70A
100
AcDbEntity
  8
RACCORDO
100
AcDbLine
 62
250
  6
CONTINUOUS
 10
-51.4095500063
 20
21.9411874598
 11
-52.4076608921
 21
21.9498978415
  0
LINE
  5
70B
100
AcDbEntity
  8
RACCORDO
100
AcDbLine
 62
7
  6
CONTINUOUS
 10
-42.4008234708
 20
22.3126551668
 11
-52.4095500063
 21
22.4
  0
LINE
  5
70C
100
AcDbEntity
  8
DRAFT
100
AcDbLine
 62
7
  6
CONTINUOUS
 10
-51.4095500063
 20
20.85
 11
-41.4095500063
 21
20.6754493507
  0
LINE
  5
70D
100
AcDbEntity
  8
ASSI
100
AcDbLine
 62
7
  6
CONTINUOUS
 10
-51.4095500063
 20
20.85
 11
-41.4095500063
 21
20.6754493507
  0
LWPOLYLINE
  5
70E
100
AcDbEntity
  8
0
100
AcDbPolyline
 62
7
  6
CONTINUOUS
 90
10
 70
0
 43
0.3500000087
 10
-43.6952635101
 20
44.1429811432
 10
-43.623836087
 20
44.0001220337
 10
-43.623836087
 20
43.9286946106
 10
-43.7666909332
 20
43.7858355011
 10
-43.8381226196
 20
43.7858355011
 10
-43.9095500427
 20
43.8572671875
 10
-43.9095500427
 20
43.9286946106
 10
-43.8381226196
 20
44.0715494568
 10
-43.7666909332
 20
44.1429811432
 10
-43.6952635101
 20
44.1429811432
  0
LINE
  5
70F
100
AcDbEntity
  8
RACCORDO
100
AcDbLine
 62
7
  6
CONTINUOUS
 10
-52.4095500063
 20
22.4
 11
-60.0663288952
 21
21.998725222
  0
LINE
  5
710
100
AcDbEntity
  8
RACCORDO
100
AcDbLine
 62
250
  6
CONTINUOUS
 10
-52.4095500063
 20
24.2500042308
 11
-54.6610044392
 21
24.2369056521
  0
LINE
  5
711
100
AcDbEntity
  8
RACCORDO
100
AcDbLine
 62
7
  6
CONTINUOUS
 10
-52.4095500063
 20
24.5
 11
-54.6610044392
 21
24.4869014213
  0
LINE
  5
712
100
AcDbEntity
  8
RACCORDO
100
AcDbLine
 62
250
  6
CONTINUOUS
 10
-54.9095500063
 20
23.8443375673
 11
-54.6610044392
 21
23.8443375673
  0
LINE
  5
713
100
AcDbEntity
  8
RACCORDO
100
AcDbLine
 62
250
  6
CONTINUOUS
 10
-51.4095500063
 20
23.8443375673
 11
-51.6580955735
 21
23.8443375673
  0
LINE
  5
714
100
AcDbEntity
  8
RACCORDO
100
AcDbLine
 62
250
  6
CONTINUOUS
 10
-54.9095500063
 20
24.2369056521
 11
-54.6610044392
 21
24.2369056521
  0
LINE
  5
715
100
AcDbEntity
  8
RACCORDO
100
AcDbLine
 62
250
  6
CONTINUOUS
 10
-51.4095500063
 20
24.2456323968
 11
-51.6580955735
 21
24.2456323968
  0
LINE
  5
716
100
AcDbEntity
  8
ASSI
100
AcDbLine
 62
7
  6
CONTINUOUS
 10
-51.414641098
 20
23.7942117893
 11
-44.9066411407
 21
23.7563493531
  0
LINE
  5
717
100
AcDbEntity
  8
RACCORDO
100
AcDbLine
 62
250
  6
CONTINUOUS
 10
-51.6580955735
 20
24.2456323968
 11
-52.4095500063
 21
24.2500042308
  0
LINE
  5
718
100
AcDbEntity
  8
RACCORDO
100
AcDbLine
 62
7
  6
CONTINUOUS
 10
-51.6580955735
 20
24.495628166
 11
-52.4095500063
 21
24.5
  0
LWPOLYLINE
  5
719
100
AcDbEntity
  8
0
100
AcDbPolyline
 62
7
  6
CONTINUOUS
 90
7
 70
0
 43
0.3500000087
 10
-40.2666917786
 20
33.8204906738
 10
-41.7666932434
 20
33.8204906738
 10
-40.2666917786
 20
35.9633474731
 10
-40.2666917786
 20
36.3919205383
 10
-40.6952648437
 20
36.8204893402
 10
-41.3381201782
 20
36.8204893402
 10
-41.7666932434
 20
36.1776340057
  0
LWPOLYLINE
  5
71A
100
AcDbEntity
  8
0
100
AcDbPolyline
 62
7
  6
CONTINUOUS
 90
3
 70
0
 43
0.3500000087
 10
-37.9095484467
 20
34.4633502716
 10
-39.4095499115
 20
34.4633502716
 10
-38.766694577
 20
36.8204893402
  0
LWPOLYLINE
  5
71B
100
AcDbEntity
  8
0
100
AcDbPolyline
 62
7
  6
CONTINUOUS
 90
6
 70
0
 43
0.3500000087
 10
-48.8381232391
 20
43.6429806549
 10
-47.7666948395
 20
43.6429806549
 10
-47.5524083069
 20
43.8572671875
 10
-47.5524083069
 20
44.9286955872
 10
-47.9809771088
 20
45.357264389
 10
-48.409550174
 20
45.357264389
  0
LWPOLYLINE
  5
71C
100
AcDbEntity
  8
0
100
AcDbPolyline
 62
7
  6
CONTINUOUS
 90
8
 70
0
 43
0.3500000087
 10
-42.6238351105
 20
43.6429806549
 10
-41.7666932434
 20
43.6429806549
 10
-41.3381201782
 20
44.0715494568
 10
-41.3381201782
 20
44.9286955872
 10
-41.7666932434
 20
45.357264389
 10
-42.6238351105
 20
45.357264389
 10
-42.6238351105
 20
46.6429793213
 10
-41.3381201782
 20
46.6429793213
  0
LWPOLYLINE
  5
71D
100
AcDbEntity
  8
0
100
AcDbPolyline
 62
7
  6
CONTINUOUS
 90
3
 70
0
 43
0.3500000087
 10
-45.195264975
 20
44.2858359894
 10
-46.6952621765
 20
44.2858359894
 10
-46.052406842
 20
46.6429793213
  0
ARC
  5
71E
100
AcDbEntity
  8
0
100
AcDbCircle
 62
7
  6
CONTINUOUS
 10
-2.2911298413
 20
5.65
 40
1.8
100
AcDbArc
 50
349.8685857136
 51
10.1315571997
  0
ARC
  5
71F
100
AcDbEntity
  8
0
100
AcDbCircle
 62
7
  6
CONTINUOUS
 10
1.4411298413
 20
5.65
 40
1.8
100
AcDbArc
 50
169.8685857324
 51
190.1315571839
  0
ARC
  5
720
100
AcDbEntity
  8
0
100
AcDbCircle
 62
7
  6
CONTINUOUS
 10
1.4411298413
 20
-5.65
 40
1.8
100
AcDbArc
 50
169.8685857136
 51
190.1315571997
  0
ARC
  5
721
100
AcDbEntity
  8
0
100
AcDbCircle
 62
7
  6
CONTINUOUS
 10
-2.2911298413
 20
-5.65
 40
1.8
100
AcDbArc
 50
349.8685857324
 51
10.1315571839
  0
CIRCLE
  5
722
100
AcDbEntity
  8
DRAFT
100
AcDbCircle
 62
7
  6
CONTINUOUS
 10
-0.425
 20
-6.2
 40
1.75
  0
CIRCLE
  5
723
100
AcDbEntity
  8
DRAFT
100
AcDbCircle
 62
7
  6
CONTINUOUS
 10
-0.425
 20
6.2
 40
1.75
  0
ARC
  5
724
100
AcDbEntity
  8
RACCORDO
100
AcDbCircle
 62
7
  6
CONTINUOUS
 10
-59.9878249609
 20
-20.5007809198
 40
1.5
100
AcDbArc
 50
182.3569499908
 51
267.0
  0
ARC
  5
725
100
AcDbEntity
  8
ASSI
100
AcDbCircle
 62
7
  6
CONTINUOUS
 10
-44.9095500063
 20
-23.2563578147
 40
0.5
100
AcDbArc
 50
270.3333333333
 51
360.0
  0
ARC
  5
726
100
AcDbEntity
  8
RACCORDO
100
AcDbCircle
 62
7
  6
CONTINUOUS
 10
-51.6595500063
 20
-24.2456323968
 40
0.25
100
AcDbArc
 50
270.3333333333
 51
360.0
  0
ARC
  5
727
100
AcDbEntity
  8
RACCORDO
100
AcDbCircle
 62
7
  6
CONTINUOUS
 10
-51.6595500063
 20
-23.8443375673
 40
0.25
100
AcDbArc
 50
0.0
 51
60.0
  0
ARC
  5
728
100
AcDbEntity
  8
RACCORDO
100
AcDbCircle
 62
7
  6
CONTINUOUS
 10
-54.6595500063
 20
-24.2369056521
 40
0.25
100
AcDbArc
 50
180.0
 51
269.6666666667
  0
ARC
  5
729
100
AcDbEntity
  8
RACCORDO
100
AcDbCircle
 62
7
  6
CONTINUOUS
 10
-54.6595500063
 20
-23.8443375673
 40
0.25
100
AcDbArc
 50
120.0
 51
180.0
  0
ARC
  5
72A
100
AcDbEntity
  8
RACCORDO
100
AcDbCircle
 62
7
  6
CONTINUOUS
 10
-42.4095500063
 20
-21.3126932437
 40
1.0
100
AcDbArc
 50
270.5
 51
360.0
  0
ARC
  5
72B
100
AcDbEntity
  8
RACCORDO
100
AcDbCircle
 62
7
  6
CONTINUOUS
 10
-30.4095500063
 20
-14.7673027369
 40
1.0
100
AcDbArc
 50
271.0
 51
360.0
  0
ARC
  5
72C
100
AcDbEntity
  8
ASSI
100
AcDbCircle
 62
7
  6
CONTINUOUS
 10
-30.4095500063
 20
-14.7673027369
 40
1.0
100
AcDbArc
 50
271.0
 51
360.0
  0
ARC
  5
72D
100
AcDbEntity
  8
RACCORDO
100
AcDbCircle
 62
7
  6
CONTINUOUS
 10
-40.9095500063
 20
-16.4508093387
 40
0.499999976
100
AcDbArc
 50
91.000000144
 51
180.0000082537
  0
ARC
  5
72E
100
AcDbEntity
  8
ASSI
100
AcDbCircle
 62
7
  6
CONTINUOUS
 10
-40.9095500063
 20
-16.4508093387
 40
0.499999976
100
AcDbArc
 50
91.000000144
 51
180.0000082537
  0
ARC
  5
72F
100
AcDbEntity
  8
RACCORDO
100
AcDbCircle
 62
7
  6
CONTINUOUS
 10
-29.1095500063
 20
-11.5248993522
 40
0.3
100
AcDbArc
 50
95.0
 51
180.0
  0
ARC
  5
730
100
AcDbEntity
  8
ASSI
100
AcDbCircle
 62
7
  6
CONTINUOUS
 10
-29.1095500063
 20
-11.5248993522
 40
0.3
100
AcDbArc
 50
95.0
 51
180.0
  0
ARC
  5
731
100
AcDbEntity
  8
RACCORDO
100
AcDbCircle
 62
7
  6
CONTINUOUS
 10
-29.1095500063
 20
-4.7751006478
 40
0.3
100
AcDbArc
 50
187.2277082453
 51
265.0
  0
ARC
  5
732
100
AcDbEntity
  8
ASSI
100
AcDbCircle
 62
7
  6
CONTINUOUS
 10
-29.1095500063
 20
-4.7751006478
 40
0.3
100
AcDbArc
 50
180.0
 51
265.0
  0
ARC
  5
733
100
AcDbEntity
  8
RACCORDO
100
AcDbCircle
 62
7
  6
CONTINUOUS
 10
-27.7095500063
 20
-10.8001233207
 40
0.3
100
AcDbArc
 50
275.0
 51
360.0
  0
ARC
  5
734
100
AcDbEntity
  8
ASSI
100
AcDbCircle
 62
7
  6
CONTINUOUS
 10
-27.7095500063
 20
-10.8001233207
 40
0.3
100
AcDbArc
 50
275.0
 51
360.0
  0
ARC
  5
735
100
AcDbEntity
  8
RACCORDO
100
AcDbCircle
 62
7
  6
CONTINUOUS
 10
-27.7095500063
 20
-5.4998766793
 40
0.3
100
AcDbArc
 50
0.0
 51
85.0
  0
ARC
  5
736
100
AcDbEntity
  8
ASSI
100
AcDbCircle
 62
7
  6
CONTINUOUS
 10
-27.7095500063
 20
-5.4998766793
 40
0.3
100
AcDbArc
 50
0.0
 51
85.0
  0
ARC
  5
737
100
AcDbEntity
  8
RACCORDO
100
AcDbCircle
 62
7
  6
CONTINUOUS
 10
-61.5924098182
 20
4.1387934118
 40
0.2999999733
100
AcDbArc
 50
178.9383315041
 51
179.5254740732
  0
ARC
  5
738
100
AcDbEntity
  8
RACCORDO
100
AcDbCircle
 62
7
  6
CONTINUOUS
 10
-61.5412642127
 20
8.2607602473
 40
0.2999999733
100
AcDbArc
 50
179.0527401225
 51
179.592128241
  0
ARC
  5
739
100
AcDbEntity
  8
RACCORDO
100
AcDbCircle
 62
7
  6
CONTINUOUS
 10
-59.9878249609
 20
20.5007809198
 40
1.5
100
AcDbArc
 50
93.0
 51
177.6430500092
  0
ARC
  5
73A
100
AcDbEntity
  8
ASSI
100
AcDbCircle
 62
7
  6
CONTINUOUS
 10
-44.9095500063
 20
23.2563578147
 40
0.5
100
AcDbArc
 50
0.0
 51
89.6666666667
  0
ARC
  5
73B
100
AcDbEntity
  8
RACCORDO
100
AcDbCircle
 62
7
  6
CONTINUOUS
 10
-51.6595500063
 20
24.2456323968
 40
0.25
100
AcDbArc
 50
0.0
 51
89.6666666667
  0
ARC
  5
73C
100
AcDbEntity
  8
RACCORDO
100
AcDbCircle
 62
7
  6
CONTINUOUS
 10
-54.6595500063
 20
24.2369056521
 40
0.25
100
AcDbArc
 50
90.3333333333
 51
180.0
  0
ARC
  5
73D
100
AcDbEntity
  8
RACCORDO
100
AcDbCircle
 62
7
  6
CONTINUOUS
 10
-51.6595500063
 20
23.8443375673
 40
0.25
100
AcDbArc
 50
300.0
 51
360.0
  0
ARC
  5
73E
100
AcDbEntity
  8
RACCORDO
100
AcDbCircle
 62
7
  6
CONTINUOUS
 10
-54.6595500063
 20
23.8443375673
 40
0.25
100
AcDbArc
 50
180.0
 51
240.0
  0
ARC
  5
73F
100
AcDbEntity
  8
RACCORDO
100
AcDbCircle
 62
7
  6
CONTINUOUS
 10
-29.1095500063
 20
4.7751006478
 40
0.3
100
AcDbArc
 50
95.0
 51
180.0
  0
ARC
  5
740
100
AcDbEntity
  8
ASSI
100
AcDbCircle
 62
7
  6
CONTINUOUS
 10
-29.1095500063
 20
4.7751006478
 40
0.3
100
AcDbArc
 50
95.0
 51
180.0
  0
ARC
  5
741
100
AcDbEntity
  8
RACCORDO
100
AcDbCircle
 62
7
  6
CONTINUOUS
 10
-29.1095500063
 20
11.5248993522
 40
0.3
100
AcDbArc
 50
187.2277082435
 51
265.0
  0
ARC
  5
742
100
AcDbEntity
  8
ASSI
100
AcDbCircle
 62
7
  6
CONTINUOUS
 10
-29.1095500063
 20
11.5248993522
 40
0.3
100
AcDbArc
 50
180.0
 51
265.0
  0
ARC
  5
743
100
AcDbEntity
  8
RACCORDO
100
AcDbCircle
 62
7
  6
CONTINUOUS
 10
-27.7095500063
 20
5.4998766793
 40
0.3
100
AcDbArc
 50
275.0
 51
360.0
  0
ARC
  5
744
100
AcDbEntity
  8
ASSI
100
AcDbCircle
 62
7
  6
CONTINUOUS
 10
-27.7095500063
 20
5.4998766793
 40
0.3
100
AcDbArc
 50
275.0
 51
360.0
  0
ARC
  5
745
100
AcDbEntity
  8
RACCORDO
100
AcDbCircle
 62
7
  6
CONTINUOUS
 10
-27.7095500063
 20
10.8001233207
 40
0.3
100
AcDbArc
 50
0.0
 51
85.0
  0
ARC
  5
746
100
AcDbEntity
  8
ASSI
100
AcDbCircle
 62
7
  6
CONTINUOUS
 10
-27.7095500063
 20
10.8001233207
 40
0.3
100
AcDbArc
 50
0.0
 51
85.0
  0
ARC
  5
747
100
AcDbEntity
  8
RACCORDO
100
AcDbCircle
 62
7
  6
CONTINUOUS
 10
-42.4095500063
 20
21.3126932437
 40
1.0
100
AcDbArc
 50
0.0
 51
89.5
  0
ARC
  5
748
100
AcDbEntity
  8
RACCORDO
100
AcDbCircle
 62
7
  6
CONTINUOUS
 10
-30.4095500063
 20
14.7673027369
 40
1.0
100
AcDbArc
 50
0.0
 51
89.0
  0
ARC
  5
749
100
AcDbEntity
  8
ASSI
100
AcDbCircle
 62
7
  6
CONTINUOUS
 10
-30.4095500063
 20
14.7673027369
 40
1.0
100
AcDbArc
 50
0.0
 51
89.0
  0
ARC
  5
74A
100
AcDbEntity
  8
RACCORDO
100
AcDbCircle
 62
7
  6
CONTINUOUS
 10
-40.9095500063
 20
16.4508093387
 40
0.499999976
100
AcDbArc
 50
179.9999917463
 51
268.999999856
  0
ARC
  5
74B
100
AcDbEntity
  8
ASSI
100
AcDbCircle
 62
7
  6
CONTINUOUS
 10
-40.9095500063
 20
16.4508093387
 40
0.499999976
100
AcDbArc
 50
179.9999917463
 51
268.999999856
  0
ARC
  5
74C
100
AcDbEntity
  8
RACCORDO
100
AcDbCircle
 62
7
  6
CONTINUOUS
 10
438.0904499937
 20
-0.0
 40
500.0
100
AcDbArc
 50
177.6430500092
 51
182.3569499908
  0
ELLIPSE
  5
74D
100
AcDbEntity
  8
RACCORDO
100
AcDbEllipse
 62
7
  6
CONTINUOUS
 10
10.2749314524
 20
21.9412559969
 30
0.0
 11
0.4025750024
 21
-0.2012721715
 31
0.0
 40
0.9998096356
 41
0.4635410001
 42
1.5707963327
  0
ELLIPSE
  5
74E
100
AcDbEntity
  8
RACCORDO
100
AcDbEllipse
 62
7
  6
CONTINUOUS
 10
-11.1249314524
 20
-21.9412559969
 30
0.0
 11
0.4025750024
 21
-0.2012721715
 31
0.0
 40
0.9998096356
 41
-2.6780516535
 42
-1.5707963219
  0
ELLIPSE
  5
74F
100
AcDbEntity
  8
RACCORDO
100
AcDbEllipse
 62
7
  6
CONTINUOUS
 10
10.2749314524
 20
-21.9412559969
 30
0.0
 11
0.4025750024
 21
0.2012721715
 31
0.0
 40
0.9998096356
 41
-1.5707963327
 42
-0.4635410001
  0
ELLIPSE
  5
750
100
AcDbEntity
  8
RACCORDO
100
AcDbEllipse
 62
7
  6
CONTINUOUS
 10
-11.1249314524
 20
21.9412559969
 30
0.0
 11
0.4025750024
 21
0.2012721715
 31
0.0
 40
0.9998096356
 41
1.5707963219
 42
2.6780516535
  0
ELLIPSE
  5
751
100
AcDbEntity
  8
RACCORDO
100
AcDbEllipse
 62
7
  6
CONTINUOUS
 10
3.4720826234
 20
-22.3737961104
 30
0.0
 11
0.5
 21
0.0
 31
0.0
 40
0.0524077793
 41
0.0058177642
 42
1.5707963268
  0
ELLIPSE
  5
752
100
AcDbEntity
  8
RACCORDO
100
AcDbEllipse
 62
7
  6
CONTINUOUS
 10
-4.3220826234
 20
23.7970910851
 30
0.0
 11
0.5
 21
-0.0
 31
0.0
 40
0.0058178298
 41
-3.1357748894
 42
-2.495179495
  0
ELLIPSE
  5
753
100
AcDbEntity
  8
RACCORDO
100
AcDbEllipse
 62
7
  6
CONTINUOUS
 10
-4.3220826234
 20
22.3737961104
 30
0.0
 11
0.5
 21
0.0
 31
0.0
 40
0.0524077793
 41
-3.1357748894
 42
-1.5707963268
  0
ELLIPSE
  5
754
100
AcDbEntity
  8
RACCORDO
100
AcDbEllipse
 62
7
  6
CONTINUOUS
 10
3.4720826234
 20
22.3737961104
 30
0.0
 11
0.5
 21
0.0
 31
0.0
 40
0.0524077793
 41
-1.5707963268
 42
-0.0058177642
  0
ELLIPSE
  5
755
100
AcDbEntity
  8
RACCORDO
100
AcDbEllipse
 62
7
  6
CONTINUOUS
 10
3.4720826234
 20
23.7970910851
 30
0.0
 11
0.5
 21
0.0
 31
0.0
 40
0.0058178298
 41
-0.6464131586
 42
-0.0058177642
  0
ELLIPSE
  5
756
100
AcDbEntity
  8
RACCORDO
100
AcDbEllipse
 62
7
  6
CONTINUOUS
 10
-10.8177234819
 20
22.3344902759
 30
0.0
 11
0.25
 21
-0.0
 31
0.0
 40
0.0524077793
 41
-3.1357748894
 42
-1.5707963268
  0
ELLIPSE
  5
757
100
AcDbEntity
  8
RACCORDO
100
AcDbEllipse
 62
7
  6
CONTINUOUS
 10
-8.9322765181
 20
22.3344902759
 30
0.0
 11
0.25
 21
0.0
 31
0.0
 40
0.0524077793
 41
-1.5707963268
 42
-0.0058177642
  0
ELLIPSE
  5
758
100
AcDbEntity
  8
RACCORDO
100
AcDbEllipse
 62
7
  6
CONTINUOUS
 10
8.0822765181
 20
22.3344902759
 30
0.0
 11
0.25
 21
-0.0
 31
0.0
 40
0.0524077793
 41
-3.1357748894
 42
-1.5707963268
  0
ELLIPSE
  5
759
100
AcDbEntity
  8
RACCORDO
100
AcDbEllipse
 62
7
  6
CONTINUOUS
 10
9.9677234819
 20
22.3344902759
 30
0.0
 11
0.25
 21
0.0
 31
0.0
 40
0.0524077793
 41
-1.5707963268
 42
-0.0058177642
  0
ELLIPSE
  5
75A
100
AcDbEntity
  8
RACCORDO
100
AcDbEllipse
 62
7
  6
CONTINUOUS
 10
-10.8177234819
 20
-22.3344902759
 30
0.0
 11
0.25
 21
0.0
 31
0.0
 40
0.0524077793
 41
1.5707963268
 42
3.1357748894
  0
ELLIPSE
  5
75B
100
AcDbEntity
  8
RACCORDO
100
AcDbEllipse
 62
7
  6
CONTINUOUS
 10
-8.9322765181
 20
-22.3344902759
 30
0.0
 11
0.25
 21
0.0
 31
0.0
 40
0.0524077793
 41
0.0058177642
 42
1.5707963268
  0
ELLIPSE
  5
75C
100
AcDbEntity
  8
RACCORDO
100
AcDbEllipse
 62
7
  6
CONTINUOUS
 10
8.0822765181
 20
-22.3344902759
 30
0.0
 11
0.25
 21
0.0
 31
0.0
 40
0.0524077793
 41
1.5707963268
 42
3.1357748894
  0
ELLIPSE
  5
75D
100
AcDbEntity
  8
RACCORDO
100
AcDbEllipse
 62
7
  6
CONTINUOUS
 10
9.9677234819
 20
-22.3344902759
 30
0.0
 11
0.25
 21
0.0
 31
0.0
 40
0.0524077793
 41
0.0058177642
 42
1.5707963268
  0
ELLIPSE
  5
75E
100
AcDbEntity
  8
RACCORDO
100
AcDbEllipse
 62
7
  6
CONTINUOUS
 10
-4.3220826234
 20
-22.3737961104
 30
0.0
 11
0.5
 21
-0.0
 31
0.0
 40
0.0524077793
 41
1.5707963268
 42
3.1357748894
  0
ELLIPSE
  5
75F
100
AcDbEntity
  8
RACCORDO
100
AcDbEllipse
 62
7
  6
CONTINUOUS
 10
-4.3220826234
 20
-23.7970910851
 30
0.0
 11
0.5
 21
0.0
 31
0.0
 40
0.0058178298
 41
2.495179495
 42
3.1357748894
  0
ELLIPSE
  5
760
100
AcDbEntity
  8
RACCORDO
100
AcDbEllipse
 62
7
  6
CONTINUOUS
 10
3.4720826234
 20
-23.7970910851
 30
0.0
 11
0.5
 21
0.0
 31
0.0
 40
0.0058178298
 41
0.0058177642
 42
0.6464131586
  0
ELLIPSE
  5
761
100
AcDbEntity
  8
RACCORDO
100
AcDbEllipse
 62
7
  6
CONTINUOUS
 10
-41.9095500063
 20
22.0658992808
 30
0.0
 11
0.5
 21
0.0
 31
0.0
 40
1.0
 41
-1.5533430343
 42
-0.6605680511
  0
ELLIPSE
  5
762
100
AcDbEntity
  8
RACCORDO
100
AcDbEllipse
 62
7
  6
CONTINUOUS
 10
-41.9095500063
 20
-22.0658992808
 30
0.0
 11
0.5
 21
-0.0
 31
0.0
 40
1.0
 41
0.6605680511
 42
1.5533430343
  0
ELLIPSE
  5
763
100
AcDbEntity
  8
0
100
AcDbEllipse
 62
250
  6
CONTINUOUS
 10
-47.9362020687
 20
-4.680795
 30
0.0
 11
-0.0
 21
0.352865
 31
0.0
 40
0.9996954135
 41
-1.5707963268
 42
1.5707963268
  0
ENDSEC
  0
SECTION
  2
OBJECTS
  0
DICTIONARY
  5
C
100
AcDbDictionary
280
0
281
1
  3
ACAD_GROUP
350
D
  3
ACAD_MLINESTYLE
350
17
  3
ACAD_LAYOUT
350
1A
  3
ACAD_PLOTSETTINGS
350
19
  3
ACAD_PLOTSTYLENAME
350
E
  0
DICTIONARY
  5
D
102
{ACAD_REACTORS
330
C
102
}
100
AcDbDictionary
280
0
281
1
  0
ACDBDICTIONARYWDFLT
  5
E
102
{ACAD_REACTORS
330
C
102
}
100
AcDbDictionary
281
1
  3
Normal
350
F
100
AcDbDictionaryWithDefault
340
F
  0
DICTIONARY
  5
17
102
{ACAD_REACTORS
330
C
102
}
100
AcDbDictionary
280
0
281
1
  3
Standard
350
18
  0
DICTIONARY
  5
19
102
{ACAD_REACTORS
330
C
102
}
100
AcDbDictionary
281
1
  0
DICTIONARY
  5
1A
102
{ACAD_REACTORS
330
C
102
}
100
AcDbDictionary
281
1
  3
Model
350
764
  3
Layout1
350
765
  0
ACDBPLACEHOLDER
  5
F
102
{ACAD_REACTORS
330
E
102
}
  0
MLINESTYLE
  5
18
102
{ACAD_REACTORS
330
17
102
}
100
AcDbMlineStyle
  2
STANDARD
 70
0
  3

 62
256
 51
90.0
 52
90.0
 71
2
 49
0.5
 62
256
  6
BYLAYER
 49
-0.5
 62
256
  6
BYLAYER
  0
LAYOUT
  5
764
102
{ACAD_REACTORS
330
1A
102
}
100
AcDbPlotSettings
  1

  2
none_device
  4
ANSI_C_(22.00_x_17.00_Inches)
  6

 40
0.0
 41
0.0
 42
0.0
 43
0.0
 44
558.8
 45
431.8
 46
0.0
 47
0.0
 48
0.0
 49
0.0
140
0.0
141
0.0
142
1.0
143
1.0
 70
1024
 72
1
 73
0
 74
0
  7

 75
0
147
1.0
148
0.0
149
0.0
100
AcDbLayout
  1
Model
 70
0
 71
0
 10
0.0
 20
0.0
 11
558.8
 21
431.8
 12
0.0
 22
0.0
 32
0.0
 14
0.0
 24
0.0
 34
0.0
 15
0.0
 25
0.0
 35
0.0
146
0.0
 13
0.0
 23
0.0
 33
0.0
 16
1.0
 26
0.0
 36
0.0
 17
0.0
 27
1.0
 37
0.0
 76
0
330
217
345
0
346
0
  0
LAYOUT
  5
765
102
{ACAD_REACTORS
330
1A
102
}
100
AcDbPlotSettings
  1

  2
none_device
  4
ANSI_C_(22.00_x_17.00_Inches)
  6

 40
0.0
 41
0.0
 42
0.0
 43
0.0
 44
558.8
 45
431.8
 46
0.0
 47
0.0
 48
0.0
 49
0.0
140
0.0
141
0.0
142
1.0
143
1.0
 70
0
 72
1
 73
0
 74
0
  7

 75
0
147
1.0
148
0.0
149
0.0
100
AcDbLayout
  1
Layout1
 70
0
 71
1
 10
0.0
 20
0.0
 11
558.8
 21
431.8
 12
0.0
 22
0.0
 32
0.0
 14
0.0
 24
0.0
 34
0.0
 15
0.0
 25
0.0
 35
0.0
146
0.0
 13
0.0
 23
0.0
 33
0.0
 16
1.0
 26
0.0
 36
0.0
 17
0.0
 27
1.0
 37
0.0
 76
0
330
218
345
0
346
0
  0
ENDSEC
  0
EOF
