  0
SECTION
  2
HEADER
  9
$ACADVER
  1
AC1021
  9
$DWGCODEPAGE
  3
ANSI_1252
  9
$EXTMAX
 10
297.0
 20
210.0
 30
0.0
  9
$EXTMIN
 10
0.0
 20
0.0
 30
0.0
  9
$LIMMIN
 10
0.0
 20
0.0
  9
$LIMMAX
 10
297.0
 20
210.0
  9
$VIEWCTR
 10
148.5
 20
105.0
  9
$VIEWSIZE
 40
210.0
  9
$CLAYER
  8
0
  9
$LTSCALE
 40
16.335
  9
$CELTYPE
  6
BYLAYER
  9
$DIMSCALE
 40
1.0
  9
$DIMASZ
 40
3.0
  9
$DIMEXO
 40
0.5
  9
$DIMDLI
 40
11.286
  9
$DIMEXE
 40
1.5
  9
$DIMCEN
 40
2.673
  9
$DIMLFAC
 40
1.0
  9
$DIMBLK
  1
_FILLED
  9
$DIMALT
 70
0
  9
$DIMALTF
 40
0.0393700787
  9
$DIMTXT
 40
3.0
  9
$DIMTOL
 70
1
  9
$DIMLIM
 70
0
  9
$DIMTFAC
 40
1.0
  9
$DIMTP
 40
0.01
  9
$DIMTM
 40
0.01
  9
$DIMGAP
 40
0.625
  9
$DIMDSEP
 70
44
  9
$AUNITS
 70
0
  9
$PDMODE
 70
3
  9
$PDSIZE
 40
3.0
  9
$HANDSEED
  5
69D
  9
$TILEMODE
 70
1
  9
$MEASUREMENT
 70
1
  9
$INSUNITS
 70
4
  0
ENDSEC
  0
SECTION
  2
CLASSES
  0
CLASS
  1
ACDBDICTIONARYWDFLT
  2
AcDbDictionaryWithDefault
  3
AutoCAD 2000
 90
0
 91
1
280
0
281
0
  0
CLASS
  1
ACDBPLACEHOLDER
  2
AcDbPlaceHolder
  3
AutoCAD 2000
 90
0
 91
1
280
0
281
0
  0
CLASS
  1
LAYOUT
  2
AcDbLayout
  3
AutoCAD 2000
 90
0
 91
0
280
0
281
0
  0
ENDSEC
  0
SECTION
  2
TABLES
  0
TABLE
  2
VPORT
  5
8
100
AcDbSymbolTable
 70
2
  0
VPORT
  5
1F4
100
AcDbSymbolTableRecord
100
AcDbViewportTableRecord
  2
*ACTIVE
 70
0
 10
0.0
 20
0.0
 11
1.0
 21
1.0
 12
148.5
 22
105.0
 13
0.0
 23
0.0
 14
1.0
 24
1.0
 15
0.0
 25
0.0
 16
0.0
 26
0.0
 36
1.0
 17
0.0
 27
0.0
 37
0.0
 40
210.0
 41
1.4142857143
 42
50.0
 43
0.0
 44
0.0
 50
0.0
 51
0.0
 71
0
 72
100
 73
1
 74
1
 75
0
 76
0
 77
0
 78
0
  0
ENDTAB
  0
TABLE
  2
LTYPE
  5
5
100
AcDbSymbolTable
 70
6
  0
LTYPE
  5
14
100
AcDbSymbolTableRecord
100
AcDbLinetypeTableRecord
  2
BYBLOCK
 70
0
  3

 72
65
 73
0
 40
0.0
  0
LTYPE
  5
15
100
AcDbSymbolTableRecord
100
AcDbLinetypeTableRecord
  2
BYLAYER
 70
0
  3

 72
65
 73
0
 40
0.0
  0
LTYPE
  5
16
100
AcDbSymbolTableRecord
100
AcDbLinetypeTableRecord
  2
CONTINUOUS
 70
64
  3
Solid line
 72
65
 73
0
 40
0.0
  0
LTYPE
  5
1F5
100
AcDbSymbolTableRecord
100
AcDbLinetypeTableRecord
  2
CENTER
 70
64
  3
____ _ ____ _ ____ _ ____ _ ____ _ ____ _ ____
 72
65
 73
4
 40
0.6
 49
0.375
 74
0
 49
-0.075
 74
0
 49
0.075
 74
0
 49
-0.075
 74
0
  0
LTYPE
  5
1F6
100
AcDbSymbolTableRecord
100
AcDbLinetypeTableRecord
  2
HIDDEN
 70
64
  3
- - - - - - - - - - - - - - - - - - - -
 72
65
 73
2
 40
0.2
 49
0.1
 74
0
 49
-0.1
 74
0
  0
LTYPE
  5
1F7
100
AcDbSymbolTableRecord
100
AcDbLinetypeTableRecord
  2
PHANTOM
 70
64
  3
_____ _ _ _____ _ _ _____ _ _ _____
 72
65
 73
6
 40
0.8
 49
0.45
 74
0
 49
-0.05
 74
0
 49
0.1
 74
0
 49
-0.05
 74
0
 49
0.1
 74
0
 49
-0.05
 74
0
  0
LTYPE
  5
1F8
100
AcDbSymbolTableRecord
100
AcDbLinetypeTableRecord
  2
DOT
 70
64
  3
. . . . . . . . . . . . . . . . . . . .
 72
65
 73
2
 40
0.2
 49
0.1
 74
0
 49
-0.1
 74
0
  0
LTYPE
  5
1F9
100
AcDbSymbolTableRecord
100
AcDbLinetypeTableRecord
  2
DASHED
 70
64
  3
- - - - - - - - - - - - - - - - - - - -
 72
65
 73
2
 40
0.2
 49
0.1
 74
0
 49
-0.1
 74
0
  0
ENDTAB
  0
TABLE
  2
LAYER
  5
2
100
AcDbSymbolTable
 70
36
  0
LAYER
  5
10
100
AcDbSymbolTableRecord
100
AcDbLayerTableRecord
  2
0
 70
0
 62
7
  6
CONTINUOUS
370
-3
390
F
  0
LAYER
  5
1FA
100
AcDbSymbolTableRecord
100
AcDbLayerTableRecord
  2
DEFAULT_1
 70
0
 62
7
  6
CENTER
370
-3
390
F
  0
LAYER
  5
1FB
100
AcDbSymbolTableRecord
100
AcDbLayerTableRecord
  2
DEFAULT_2
 70
0
 62
7
  6
HIDDEN
370
-3
390
F
  0
LAYER
  5
1FC
100
AcDbSymbolTableRecord
100
AcDbLayerTableRecord
  2
DEFAULT_3
 70
0
 62
7
  6
PHANTOM
370
-3
390
F
  0
LAYER
  5
1FD
100
AcDbSymbolTableRecord
100
AcDbLayerTableRecord
  2
ASSI
 70
0
 62
7
  6
CONTINUOUS
370
-3
390
F
  0
LAYER
  5
1FE
100
AcDbSymbolTableRecord
100
AcDbLayerTableRecord
  2
CN-MRT4P5_3SQV01-VIMAR_1600000
 70
0
 62
7
  6
CONTINUOUS
370
-3
390
F
  0
LAYER
  5
1FF
100
AcDbSymbolTableRecord
100
AcDbLayerTableRecord
  2
COLOR5
 70
0
 62
7
  6
CONTINUOUS
370
-3
390
F
  0
LAYER
  5
200
100
AcDbSymbolTableRecord
100
AcDbLayerTableRecord
  2
COLORE_MATERIALE
 70
0
 62
7
  6
CONTINUOUS
370
-3
390
F
  0
LAYER
  5
201
100
AcDbSymbolTableRecord
100
AcDbLayerTableRecord
  2
COORDINATE
 70
0
 62
7
  6
CONTINUOUS
370
-3
390
F
  0
LAYER
  5
202
100
AcDbSymbolTableRecord
100
AcDbLayerTableRecord
  2
COORD_ORIGINE
 70
0
 62
7
  6
CONTINUOUS
370
-3
390
F
  0
LAYER
  5
203
100
AcDbSymbolTableRecord
100
AcDbLayerTableRecord
  2
COPY_PUBLISH
 70
0
 62
7
  6
CONTINUOUS
370
-3
390
F
  0
LAYER
  5
204
100
AcDbSymbolTableRecord
100
AcDbLayerTableRecord
  2
COSMETIC
 70
0
 62
7
  6
CONTINUOUS
370
-3
390
F
  0
LAYER
  5
205
100
AcDbSymbolTableRecord
100
AcDbLayerTableRecord
  2
CURVE
 70
0
 62
7
  6
CONTINUOUS
370
-3
390
F
  0
LAYER
  5
206
100
AcDbSymbolTableRecord
100
AcDbLayerTableRecord
  2
DRAFT
 70
0
 62
7
  6
CONTINUOUS
370
-3
390
F
  0
LAYER
  5
207
100
AcDbSymbolTableRecord
100
AcDbLayerTableRecord
  2
IMPORT_IGES
 70
0
 62
7
  6
CONTINUOUS
370
-3
390
F
  0
LAYER
  5
208
100
AcDbSymbolTableRecord
100
AcDbLayerTableRecord
  2
INCISIONI
 70
0
 62
7
  6
CONTINUOUS
370
-3
390
F
  0
LAYER
  5
209
100
AcDbSymbolTableRecord
100
AcDbLayerTableRecord
  2
INTF_1
 70
0
 62
7
  6
CONTINUOUS
370
-3
390
F
  0
LAYER
  5
20A
100
AcDbSymbolTableRecord
100
AcDbLayerTableRecord
  2
INTF_11
 70
0
 62
7
  6
CONTINUOUS
370
-3
390
F
  0
LAYER
  5
20B
100
AcDbSymbolTableRecord
100
AcDbLayerTableRecord
  2
INTF_RED
 70
0
 62
7
  6
CONTINUOUS
370
-3
390
F
  0
LAYER
  5
20C
100
AcDbSymbolTableRecord
100
AcDbLayerTableRecord
  2
NOTE
 70
0
 62
7
  6
CONTINUOUS
370
-3
390
F
  0
LAYER
  5
20D
100
AcDbSymbolTableRecord
100
AcDbLayerTableRecord
  2
PIANI
 70
0
 62
7
  6
CONTINUOUS
370
-3
390
F
  0
LAYER
  5
20E
100
AcDbSymbolTableRecord
100
AcDbLayerTableRecord
  2
PIANI_DI_RIFERIMENTO
 70
0
 62
7
  6
CONTINUOUS
370
-3
390
F
  0
LAYER
  5
20F
100
AcDbSymbolTableRecord
100
AcDbLayerTableRecord
  2
PIANI_ORIGINE
 70
0
 62
7
  6
CONTINUOUS
370
-3
390
F
  0
LAYER
  5
210
100
AcDbSymbolTableRecord
100
AcDbLayerTableRecord
  2
PIANI_RIFERIMENTO
 70
0
 62
7
  6
CONTINUOUS
370
-3
390
F
  0
LAYER
  5
211
100
AcDbSymbolTableRecord
100
AcDbLayerTableRecord
  2
PUBLISHED_GEOMETRY
 70
0
 62
7
  6
CONTINUOUS
370
-3
390
F
  0
LAYER
  5
212
100
AcDbSymbolTableRecord
100
AcDbLayerTableRecord
  2
PUNTI
 70
0
 62
7
  6
CONTINUOUS
370
-3
390
F
  0
LAYER
  5
213
100
AcDbSymbolTableRecord
100
AcDbLayerTableRecord
  2
RACCORDO
 70
0
 62
7
  6
CONTINUOUS
370
-3
390
F
  0
LAYER
  5
214
100
AcDbSymbolTableRecord
100
AcDbLayerTableRecord
  2
SMUSSO
 70
0
 62
7
  6
CONTINUOUS
370
-3
390
F
  0
LAYER
  5
215
100
AcDbSymbolTableRecord
100
AcDbLayerTableRecord
  2
SNAPLINE
 70
0
 62
7
  6
CONTINUOUS
370
-3
390
F
  0
LAYER
  5
216
100
AcDbSymbolTableRecord
100
AcDbLayerTableRecord
  2
SUPERFICI
 70
0
 62
7
  6
CONTINUOUS
370
-3
390
F
  0
LAYER
  5
217
100
AcDbSymbolTableRecord
100
AcDbLayerTableRecord
  2
TRASH
 70
0
 62
7
  6
CONTINUOUS
370
-3
390
F
  0
LAYER
  5
218
100
AcDbSymbolTableRecord
100
AcDbLayerTableRecord
  2
XSEC_DATUMS
 70
0
 62
7
  6
CONTINUOUS
370
-3
390
F
  0
LAYER
  5
219
100
AcDbSymbolTableRecord
100
AcDbLayerTableRecord
  2
___SHELL
 70
0
 62
7
  6
CONTINUOUS
370
-3
390
F
  0
ENDTAB
  0
TABLE
  2
STYLE
  5
3
100
AcDbSymbolTable
 70
1
  0
STYLE
  5
11
100
AcDbSymbolTableRecord
100
AcDbTextStyleTableRecord
  2
STANDARD
 70
0
 40
0.0
 41
0.8
 50
0.0
 71
0
 42
0.2
  3
txt
  4

  0
STYLE
  5
21A
100
AcDbSymbolTableRecord
100
AcDbTextStyleTableRecord
  2
TEXTSTYLE_1
 70
0
 40
0.0
 41
0.8
 50
0.0
 71
0
 42
0.2
  3
gdt
  4

  0
ENDTAB
  0
TABLE
  2
VIEW
  5
6
100
AcDbSymbolTable
 70
0
  0
ENDTAB
  0
TABLE
  2
UCS
  5
7
100
AcDbSymbolTable
 70
0
  0
ENDTAB
  0
TABLE
  2
APPID
  5
9
100
AcDbSymbolTable
 70
1
  0
APPID
  5
21B
100
AcDbSymbolTableRecord
100
AcDbRegAppTableRecord
  2
ACAD
 70
0
  0
ENDTAB
  0
TABLE
  2
BLOCK_RECORD
  5
1
100
AcDbSymbolTable
 70
0
  0
BLOCK_RECORD
  5
21C
100
AcDbSymbolTableRecord
100
AcDbBlockTableRecord
  2
*Model_Space
  0
BLOCK_RECORD
  5
21D
100
AcDbSymbolTableRecord
100
AcDbBlockTableRecord
  2
*Paper_Space
  0
BLOCK_RECORD
  5
21E
100
AcDbSymbolTableRecord
100
AcDbBlockTableRecord
  2
_FILLED
  0
BLOCK_RECORD
  5
21F
100
AcDbSymbolTableRecord
100
AcDbBlockTableRecord
  2
*D0
  0
BLOCK_RECORD
  5
220
100
AcDbSymbolTableRecord
100
AcDbBlockTableRecord
  2
*D1
  0
BLOCK_RECORD
  5
221
100
AcDbSymbolTableRecord
100
AcDbBlockTableRecord
  2
*D2
  0
BLOCK_RECORD
  5
222
100
AcDbSymbolTableRecord
100
AcDbBlockTableRecord
  2
*D3
  0
ENDTAB
  0
TABLE
  2
DIMSTYLE
  5
A
100
AcDbSymbolTable
 70
1
100
AcDbDimStyleTable
 71
0
  0
DIMSTYLE
105
223
100
AcDbSymbolTableRecord
100
AcDbDimStyleTableRecord
  2
STANDARD
 70
0
  3

  4

 40
1.0
 41
3.0
 42
0.5
 43
0.38
 44
1.5
 45
0.0
 46
0.0
 47
0.01
 48
0.01
140
3.0
141
0.09
142
0.0
143
25.4
144
1.0
145
0.0
146
1.0
147
0.625
 71
1.0
 72
0.0
 73
0
 74
0
 75
0
 76
0
 77
1
 78
8
 79
2
170
0
171
1
172
0
173
0
174
0
175
0
176
0
177
0
178
0
270
2
179
2
271
2
272
2
273
2
274
2
275
0
280
0
281
0
282
0
283
1
284
8
285
0
286
0
287
3
288
0
340
11
278
44
341
21E
342
21E
343
21E
344
21E
  0
DIMSTYLE
105
224
100
AcDbSymbolTableRecord
100
AcDbDimStyleTableRecord
  2
DIMSTYLE_1
 70
0
  3

  4

 40
1.0
 41
3.0
 42
0.5
 43
0.38
 44
1.5
 45
0.0
 46
0.0
 47
0.0
 48
0.0
140
3.0
141
0.09
142
0.0
143
25.4
144
1.0
145
0.0
146
1.0
147
0.75
 71
0.0
 72
0.0
 73
0
 74
0
 75
0
 76
0
 77
1
 78
8
 79
2
170
0
171
1
172
0
173
0
174
0
175
0
176
0
177
0
178
0
270
2
179
2
271
2
272
2
273
2
274
2
275
0
280
0
281
0
282
0
283
1
284
8
285
0
286
0
287
3
288
0
340
11
278
44
341
21E
342
21E
343
21E
344
21E
  0
ENDTAB
  0
ENDSEC
  0
SECTION
  2
BLOCKS
  0
BLOCK
  5
20
100
AcDbEntity
  8
0
100
AcDbBlockBegin
  2
*Model_Space
 70
0
 10
0.0
 20
0.0
 30
0.0
  3
*Model_Space
  1

  0
ENDBLK
  5
21
100
AcDbEntity
  8
0
100
AcDbBlockEnd
  0
BLOCK
  5
1C
100
AcDbEntity
  8
0
100
AcDbBlockBegin
  2
*Paper_Space
 70
0
 10
0.0
 20
0.0
 30
0.0
  3
*Paper_Space
  1

  0
ENDBLK
  5
1D
100
AcDbEntity
  8
0
100
AcDbBlockEnd
  0
BLOCK
  5
225
100
AcDbEntity
  8
0
100
AcDbBlockBegin
  2
_FILLED
 70
64
 10
0.0
 20
0.0
  3
_FILLED
  1

  0
SOLID
  5
226
100
AcDbEntity
  8
0
  6
BYBLOCK
 62
0
100
AcDbTrace
 10
0.0
 20
0.0
 11
-1.0
 21
0.3166666667
 12
-1.0
 22
-0.3166666667
 13
-1.0
 23
-0.3166666667
  0
ENDBLK
  5
227
100
AcDbEntity
  8
0
  6
BYBLOCK
 62
0
100
AcDbBlockEnd
  0
BLOCK
  5
228
100
AcDbEntity
  8
0
100
AcDbBlockBegin
 62
7
  6
CONTINUOUS
  2
*D0
 70
65
 10
0.0
 20
0.0
  3
*D0
  1

  0
LINE
  5
229
100
AcDbEntity
  8
0
100
AcDbLine
 62
7
  6
CONTINUOUS
 10
-11.15
 20
22.4011798444
 11
-11.15
 21
34.0
  0
LINE
  5
22A
100
AcDbEntity
  8
0
100
AcDbLine
 62
7
  6
CONTINUOUS
 10
11.15
 20
22.4011798444
 11
11.15
 21
34.0
  0
LINE
  5
22B
100
AcDbEntity
  8
0
100
AcDbLine
 62
7
  6
CONTINUOUS
 10
-11.15
 20
32.5
 11
0.0
 21
32.5
  0
LINE
  5
22C
100
AcDbEntity
  8
0
100
AcDbLine
 62
7
  6
CONTINUOUS
 10
11.15
 20
32.5
 11
0.0
 21
32.5
  0
INSERT
  5
22D
100
AcDbEntity
  8
0
100
AcDbBlockReference
 62
7
  6
CONTINUOUS
  2
_FILLED
 10
-11.15
 20
32.5
 41
3.0
 42
3.0
 43
3.0
 50
180.0
  0
INSERT
  5
22E
100
AcDbEntity
  8
0
100
AcDbBlockReference
 62
7
  6
CONTINUOUS
  2
_FILLED
 10
11.15
 20
32.5
 41
3.0
 42
3.0
 43
3.0
  0
ENDBLK
  5
22F
100
AcDbEntity
  8
0
  6
BYBLOCK
 62
0
100
AcDbBlockEnd
  0
BLOCK
  5
230
100
AcDbEntity
  8
0
100
AcDbBlockBegin
 62
7
  6
CONTINUOUS
  2
*D1
 70
65
 10
0.0
 20
0.0
  3
*D1
  1

  0
LINE
  5
231
100
AcDbEntity
  8
0
100
AcDbLine
 62
7
  6
CONTINUOUS
 10
8.9999957692
 20
24.5
 11
20.65
 21
24.5
  0
LINE
  5
232
100
AcDbEntity
  8
0
100
AcDbLine
 62
7
  6
CONTINUOUS
 10
10.9000042308
 20
-24.5
 11
20.65
 21
-24.5
  0
LINE
  5
233
100
AcDbEntity
  8
0
100
AcDbLine
 62
7
  6
CONTINUOUS
 10
19.15
 20
24.5
 11
19.15
 21
0.0
  0
LINE
  5
234
100
AcDbEntity
  8
0
100
AcDbLine
 62
7
  6
CONTINUOUS
 10
19.15
 20
-24.5
 11
19.15
 21
0.0
  0
INSERT
  5
235
100
AcDbEntity
  8
0
100
AcDbBlockReference
 62
7
  6
CONTINUOUS
  2
_FILLED
 10
19.15
 20
24.5
 41
3.0
 42
3.0
 43
3.0
 50
90.0
  0
INSERT
  5
236
100
AcDbEntity
  8
0
100
AcDbBlockReference
 62
7
  6
CONTINUOUS
  2
_FILLED
 10
19.15
 20
-24.5
 41
3.0
 42
3.0
 43
3.0
 50
270.0
  0
ENDBLK
  5
237
100
AcDbEntity
  8
0
  6
BYBLOCK
 62
0
100
AcDbBlockEnd
  0
BLOCK
  5
238
100
AcDbEntity
  8
0
100
AcDbBlockBegin
 62
7
  6
CONTINUOUS
  2
*D2
 70
65
 10
0.0
 20
0.0
  3
*D2
  1

  0
LINE
  5
239
100
AcDbEntity
  8
0
100
AcDbLine
 62
7
  6
CONTINUOUS
 10
-44.2458012474
 20
22.4011798444
 11
-44.2458012474
 21
34.0
  0
LINE
  5
23A
100
AcDbEntity
  8
0
100
AcDbLine
 62
7
  6
CONTINUOUS
 10
-20.8458012474
 20
18.009618074
 11
-20.8458012474
 21
34.0
  0
LINE
  5
23B
100
AcDbEntity
  8
0
100
AcDbLine
 62
7
  6
CONTINUOUS
 10
-44.2458012474
 20
32.5
 11
-32.5458012474
 21
32.5
  0
LINE
  5
23C
100
AcDbEntity
  8
0
100
AcDbLine
 62
7
  6
CONTINUOUS
 10
-20.8458012474
 20
32.5
 11
-32.5458012474
 21
32.5
  0
INSERT
  5
23D
100
AcDbEntity
  8
0
100
AcDbBlockReference
 62
7
  6
CONTINUOUS
  2
_FILLED
 10
-44.2458012474
 20
32.5
 41
3.0
 42
3.0
 43
3.0
 50
180.0
  0
INSERT
  5
23E
100
AcDbEntity
  8
0
100
AcDbBlockReference
 62
7
  6
CONTINUOUS
  2
_FILLED
 10
-20.8458012474
 20
32.5
 41
3.0
 42
3.0
 43
3.0
  0
ENDBLK
  5
23F
100
AcDbEntity
  8
0
  6
BYBLOCK
 62
0
100
AcDbBlockEnd
  0
BLOCK
  5
240
100
AcDbEntity
  8
0
100
AcDbBlockBegin
 62
7
  6
CONTINUOUS
  2
*D3
 70
65
 10
0.0
 20
0.0
  3
*D3
  1

  0
LINE
  5
241
100
AcDbEntity
  8
0
100
AcDbLine
 62
7
  6
CONTINUOUS
 10
-54.7458012474
 20
0.5
 11
-54.7458012474
 21
43.9177586789
  0
LINE
  5
242
100
AcDbEntity
  8
0
100
AcDbLine
 62
7
  6
CONTINUOUS
 10
-20.8458012474
 20
16.574826
 11
-20.8458012474
 21
43.9177586789
  0
LINE
  5
243
100
AcDbEntity
  8
0
100
AcDbLine
 62
7
  6
CONTINUOUS
 10
-54.7458012474
 20
42.4177586789
 11
-37.7958012474
 21
42.4177586789
  0
LINE
  5
244
100
AcDbEntity
  8
0
100
AcDbLine
 62
7
  6
CONTINUOUS
 10
-20.8458012474
 20
42.4177586789
 11
-37.7958012474
 21
42.4177586789
  0
INSERT
  5
245
100
AcDbEntity
  8
0
100
AcDbBlockReference
 62
7
  6
CONTINUOUS
  2
_FILLED
 10
-54.7458012474
 20
42.4177586789
 41
3.0
 42
3.0
 43
3.0
 50
180.0
  0
INSERT
  5
246
100
AcDbEntity
  8
0
100
AcDbBlockReference
 62
7
  6
CONTINUOUS
  2
_FILLED
 10
-20.8458012474
 20
42.4177586789
 41
3.0
 42
3.0
 43
3.0
  0
ENDBLK
  5
247
100
AcDbEntity
  8
0
  6
BYBLOCK
 62
0
100
AcDbBlockEnd
  0
ENDSEC
  0
SECTION
  2
ENTITIES
  0
DIMENSION
  5
248
100
AcDbEntity
  8
0
100
AcDbDimension
 62
7
  6
CONTINUOUS
  2
*D0
 10
11.15
 20
32.5
 11
-4.2857142857
 21
32.5
 70
160
 71
2
 72
2
 41
0.9
 42
22.3
  3
DIMSTYLE_1
100
AcDbAlignedDimension
 13
-11.15
 23
21.9011798444
 14
11.15
 24
21.9011798444
100
AcDbRotatedDimension
  0
DIMENSION
  5
249
100
AcDbEntity
  8
0
100
AcDbDimension
 62
7
  6
CONTINUOUS
  2
*D1
 10
19.15
 20
-24.5
 11
19.15
 21
-2.3571428571
 70
160
 71
2
 72
2
 41
0.9
 42
49.0
  3
DIMSTYLE_1
100
AcDbAlignedDimension
 13
8.4999957692
 23
24.5
 14
10.4000042308
 24
-24.5
 50
270.0
100
AcDbRotatedDimension
  0
DIMENSION
  5
24A
100
AcDbEntity
  8
0
100
AcDbDimension
 62
7
  6
CONTINUOUS
  2
*D2
 10
-20.8458012474
 20
32.5
 11
-36.8315155331
 21
32.5
 70
160
 71
2
 72
2
 41
0.9
 42
23.4
  3
DIMSTYLE_1
100
AcDbAlignedDimension
 13
-44.2458012474
 23
21.9011798444
 14
-20.8458012474
 24
17.509618074
100
AcDbRotatedDimension
  0
DIMENSION
  5
24B
100
AcDbEntity
  8
0
100
AcDbDimension
 62
7
  6
CONTINUOUS
  2
*D3
 10
-20.8458012474
 20
42.4177586789
 11
-41.974372676
 21
42.4177586789
 70
160
 71
2
 72
2
 41
0.9
 42
33.9
  3
DIMSTYLE_1
100
AcDbAlignedDimension
 13
-54.7458012474
 23
0.0
 14
-20.8458012474
 24
16.074826
100
AcDbRotatedDimension
  0
LWPOLYLINE
  5
24C
100
AcDbEntity
  8
0
100
AcDbPolyline
 62
7
  6
CONTINUOUS
 90
5
 70
0
 43
0.3500000006
 10
3.0000000658
 20
34.9642857056
 10
3.357142951
 20
35.1785701904
 10
3.357142951
 20
35.8214281769
 10
3.0000000658
 20
36.2500016785
 10
2.1428571696
 20
36.2500016785
  0
LINE
  5
24D
100
AcDbEntity
  8
RACCORDO
100
AcDbLine
 62
250
  6
CONTINUOUS
 10
-8.4999957692
 20
24.5
 11
-8.5130943479
 21
24.4869014213
  0
LINE
  5
24E
100
AcDbEntity
  8
RACCORDO
100
AcDbLine
 62
7
  6
CONTINUOUS
 10
-10.8615448759
 20
22.3482807033
 11
-10.879046662
 21
22.3395304767
  0
LINE
  5
24F
100
AcDbEntity
  8
RACCORDO
100
AcDbLine
 62
250
  6
CONTINUOUS
 10
-11.1325823343
 20
21.909888014
 11
-11.15
 21
21.9011798444
  0
LWPOLYLINE
  5
250
100
AcDbEntity
  8
RACCORDO
100
AcDbPolyline
 62
7
  6
CONTINUOUS
 90
11
 70
0
 10
-10.8615648735
 20
22.3482707046
 10
-10.8533385495
 20
22.3522884217
 10
-10.8320684489
 20
22.361817674
 10
-10.8103126543
 20
22.3703454156
 10
-10.7881404311
 20
22.3778369941
 10
-10.7655807771
 20
22.3842754978
 10
-10.7427032516
 20
22.3896340413
 10
-10.7196438765
 20
22.3938816039
 10
-10.6964851131
 20
22.3970121642
 10
-10.6732526189
 20
22.3990313623
 10
-10.6499996309
 20
22.3999415484
  0
LWPOLYLINE
  5
251
100
AcDbEntity
  8
RACCORDO
100
AcDbPolyline
 62
7
  6
CONTINUOUS
 90
23
 70
0
 10
-4.2962073137
 20
-23.7953389668
 10
-4.2854181903
 20
-23.7947915649
 10
-4.2743307281
 20
-23.793363895
 10
-4.2629449272
 20
-23.7911364879
 10
-4.2512361469
 20
-23.7881978965
 10
-4.239229028
 20
-23.7846238716
 10
-4.226997492
 20
-23.7804595132
 10
-4.2145487518
 20
-23.7757643703
 10
-4.2018755946
 20
-23.7706018097
 10
-4.1890303044
 20
-23.7649953104
 10
-4.1760171723
 20
-23.758990232
 10
-4.1628319072
 20
-23.7526365647
 10
-4.1495139203
 20
-23.7459460582
 10
-4.1360654333
 20
-23.7389542831
 10
-4.1224842244
 20
-23.7317013921
 10
-4.1088030396
 20
-23.724193673
 10
-4.0950229279
 20
-23.7164601879
 10
-4.0811428402
 20
-23.708533951
 10
-4.0671923756
 20
-23.7004191901
 10
-4.053171775
 20
-23.6921405291
 10
-4.0390807976
 20
-23.6837259593
 10
-4.0249483201
 20
-23.6751796798
 10
-3.9965581838
 20
-23.6577812011
  0
LWPOLYLINE
  5
252
100
AcDbEntity
  8
RACCORDO
100
AcDbPolyline
 62
250
  6
CONTINUOUS
 90
31
 70
0
 10
10.3869056521
 20
-24.4869014213
 10
10.3999891381
 20
-24.4865583827
 10
10.4130367647
 20
-24.4855310928
 10
10.4260127708
 20
-24.4838223673
 10
10.4388815916
 20
-24.4814368893
 10
10.4516079562
 20
-24.4783811971
 10
10.4641569839
 20
-24.4746636657
 10
10.4764942801
 20
-24.4702944842
 10
10.4885860308
 20
-24.4652856277
 10
10.5003990946
 20
-24.4596508246
 10
10.5119010942
 20
-24.4534055187
 10
10.5230605047
 20
-24.4465668272
 10
10.5338467403
 20
-24.4391534939
 10
10.5442302379
 20
-24.4311858371
 10
10.5541825384
 20
-24.4226856948
 10
10.5636763643
 20
-24.4136763643
 10
10.5726856948
 20
-24.4041825384
 10
10.5811858371
 20
-24.3942302379
 10
10.5891534939
 20
-24.3838467403
 10
10.5965668272
 20
-24.3730605047
 10
10.6034055187
 20
-24.3619010942
 10
10.6096508246
 20
-24.3503990946
 10
10.6152856277
 20
-24.3385860308
 10
10.6202944842
 20
-24.3264942801
 10
10.6246636657
 20
-24.3141569839
 10
10.6283811971
 20
-24.3016079562
 10
10.6314368893
 20
-24.2888815916
 10
10.6338223673
 20
-24.2760127708
 10
10.6355310928
 20
-24.2630367647
 10
10.6365583827
 20
-24.2499891381
 10
10.6369014213
 20
-24.2369056521
  0
LWPOLYLINE
  5
253
100
AcDbEntity
  8
RACCORDO
100
AcDbPolyline
 62
250
  6
CONTINUOUS
 90
31
 70
0
 10
-8.5130943479
 20
-24.4869014213
 10
-8.5000079938
 20
-24.4865582323
 10
-8.4869574955
 20
-24.4855304893
 10
-8.4739786381
 20
-24.4838210061
 10
-8.4611069984
 20
-24.4814344634
 10
-8.4483778845
 20
-24.4783774023
 10
-8.435826237
 20
-24.4746582128
 10
-8.4234864809
 20
-24.4702870977
 10
-8.4113924437
 20
-24.4652760422
 10
-8.3995772981
 20
-24.4596387939
 10
-8.3880734423
 20
-24.4533908148
 10
-8.3769124163
 20
-24.446549239
 10
-8.366124826
 20
-24.4391328321
 10
-8.3557402367
 20
-24.4311619239
 10
-8.3457871333
 20
-24.4226583824
 10
-8.3362928401
 20
-24.4136455633
 10
-8.3272834183
 20
-24.4041482289
 10
-8.3187835214
 20
-24.3941923917
 10
-8.3108163791
 20
-24.3838052658
 10
-8.3034037491
 20
-24.3730151866
 10
-8.2965660673
 20
-24.3618518682
 10
-8.2903222656
 20
-24.3503462678
 10
-8.284689517
 20
-24.3385301896
 10
-8.2796830871
 20
-24.3264358334
 10
-8.275316536
 20
-24.3140960295
 10
-8.2716010963
 20
-24.3015418449
 10
-8.2685479829
 20
-24.2888103798
 10
-8.2661668528
 20
-24.275944661
 10
-8.2644632485
 20
-24.2629828864
 10
-8.2634399859
 20
-24.249957992
 10
-8.2630985787
 20
-24.2369056521
  0
LWPOLYLINE
  5
254
100
AcDbEntity
  8
RACCORDO
100
AcDbPolyline
 62
7
  6
CONTINUOUS
 90
34
 70
0
 10
10.4000042308
 20
-24.5
 10
10.411899516
 20
-24.4997168498
 10
10.4237678556
 20
-24.4988680342
 10
10.4355823661
 20
-24.4974554741
 10
10.4473162875
 20
-24.4954823677
 10
10.4589430388
 20
-24.4929531817
 10
10.470436279
 20
-24.4898736417
 10
10.4817699738
 20
-24.4862507213
 10
10.4929184493
 20
-24.4820926258
 10
10.5038564463
 20
-24.4774087722
 10
10.5145591876
 20
-24.4722097688
 10
10.5250024283
 20
-24.4665073916
 10
10.5351625059
 20
-24.4603145581
 10
10.5450164051
 20
-24.4536452955
 10
10.5545418038
 20
-24.4465147107
 10
10.5637171191
 20
-24.4389389589
 10
10.5725215661
 20
-24.4309352005
 10
10.5809352005
 20
-24.4225215661
 10
10.5889389589
 20
-24.4137171191
 10
10.5965147107
 20
-24.4045418038
 10
10.6036452955
 20
-24.3950164051
 10
10.6103145581
 20
-24.3851625059
 10
10.6165073916
 20
-24.3750024283
 10
10.6222097688
 20
-24.3645591876
 10
10.6274087722
 20
-24.3538564463
 10
10.6320926258
 20
-24.3429184493
 10
10.6362507213
 20
-24.3317699738
 10
10.6398736417
 20
-24.320436279
 10
10.6429531817
 20
-24.3089430388
 10
10.6454823677
 20
-24.2973162875
 10
10.6474554741
 20
-24.2855823661
 10
10.6488680342
 20
-24.2737678556
 10
10.6497168498
 20
-24.261899516
 10
10.65
 20
-24.2500042308
  0
LWPOLYLINE
  5
255
100
AcDbEntity
  8
RACCORDO
100
AcDbPolyline
 62
7
  6
CONTINUOUS
 90
34
 70
0
 10
-8.4999957692
 20
-24.5
 10
-8.488100484
 20
-24.4997168498
 10
-8.4762321444
 20
-24.4988680342
 10
-8.4644176339
 20
-24.4974554741
 10
-8.4526837125
 20
-24.4954823677
 10
-8.4410569612
 20
-24.4929531817
 10
-8.429563721
 20
-24.4898736417
 10
-8.4182300262
 20
-24.4862507213
 10
-8.4070815507
 20
-24.4820926258
 10
-8.3961435537
 20
-24.4774087722
 10
-8.3854408124
 20
-24.4722097688
 10
-8.3749975717
 20
-24.4665073916
 10
-8.3648374941
 20
-24.4603145581
 10
-8.3549835949
 20
-24.4536452955
 10
-8.3454581962
 20
-24.4465147107
 10
-8.3362828809
 20
-24.4389389589
 10
-8.3274784339
 20
-24.4309352005
 10
-8.3190647995
 20
-24.4225215661
 10
-8.3110610411
 20
-24.4137171191
 10
-8.3034852893
 20
-24.4045418038
 10
-8.2963547045
 20
-24.3950164051
 10
-8.2896854419
 20
-24.3851625059
 10
-8.2834926084
 20
-24.3750024283
 10
-8.2777902312
 20
-24.3645591876
 10
-8.2725912278
 20
-24.3538564463
 10
-8.2679073742
 20
-24.3429184493
 10
-8.2637492787
 20
-24.3317699738
 10
-8.2601263583
 20
-24.320436279
 10
-8.2570468183
 20
-24.3089430388
 10
-8.2545176323
 20
-24.2973162875
 10
-8.2525445259
 20
-24.2855823661
 10
-8.2511319658
 20
-24.2737678556
 10
-8.2502831502
 20
-24.261899516
 10
-8.25
 20
-24.2500042308
  0
LINE
  5
256
100
AcDbEntity
  8
RACCORDO
100
AcDbLine
 62
7
  6
CONTINUOUS
 10
10.4000042308
 20
-24.5
 11
8.4999957692
 21
-24.5
  0
LINE
  5
257
100
AcDbEntity
  8
RACCORDO
100
AcDbLine
 62
7
  6
CONTINUOUS
 10
-8.4999957692
 20
-24.5
 11
-10.4000042308
 21
-24.5
  0
LINE
  5
258
100
AcDbEntity
  8
RACCORDO
100
AcDbLine
 62
250
  6
CONTINUOUS
 10
-10.3869056521
 20
-24.4869014213
 11
-8.5130943479
 21
-24.4869014213
  0
LINE
  5
259
100
AcDbEntity
  8
RACCORDO
100
AcDbLine
 62
250
  6
CONTINUOUS
 10
8.5130943479
 20
-24.4869014213
 11
10.3869056521
 21
-24.4869014213
  0
LINE
  5
25A
100
AcDbEntity
  8
RACCORDO
100
AcDbLine
 62
250
  6
CONTINUOUS
 10
8.2630985787
 20
-24.2369056521
 11
10.6369014213
 21
-24.2369056521
  0
LINE
  5
25B
100
AcDbEntity
  8
RACCORDO
100
AcDbLine
 62
250
  6
CONTINUOUS
 10
-8.2630985787
 20
-24.2369056521
 11
-10.6369014213
 21
-24.2369056521
  0
LINE
  5
25C
100
AcDbEntity
  8
RACCORDO
100
AcDbLine
 62
250
  6
CONTINUOUS
 10
8.2630985787
 20
-23.8443375673
 11
10.6369014213
 21
-23.8443375673
  0
LINE
  5
25D
100
AcDbEntity
  8
RACCORDO
100
AcDbLine
 62
250
  6
CONTINUOUS
 10
-8.2630985787
 20
-23.8443375673
 11
-10.6369014213
 21
-23.8443375673
  0
LINE
  5
25E
100
AcDbEntity
  8
DRAFT
100
AcDbLine
 62
7
  6
CONTINUOUS
 10
4.4
 20
-23.8
 11
-4.4
 21
-23.8
  0
LINE
  5
25F
100
AcDbEntity
  8
RACCORDO
100
AcDbLine
 62
250
  6
CONTINUOUS
 10
-4.2962073137
 20
-23.7953389668
 11
4.2962073137
 21
-23.7953389668
  0
LINE
  5
260
100
AcDbEntity
  8
RACCORDO
100
AcDbLine
 62
250
  6
CONTINUOUS
 10
10.3869056521
 20
-23.6278312164
 11
8.5130943479
 21
-23.6278312164
  0
LINE
  5
261
100
AcDbEntity
  8
RACCORDO
100
AcDbLine
 62
250
  6
CONTINUOUS
 10
-8.5130943479
 20
-23.6278312164
 11
-10.3869056521
 21
-23.6278312164
  0
LINE
  5
262
100
AcDbEntity
  8
RACCORDO
100
AcDbLine
 62
250
  6
CONTINUOUS
 10
-3.8970826234
 20
-23.5953423515
 11
3.8970826234
 21
-23.5953423515
  0
LINE
  5
263
100
AcDbEntity
  8
RACCORDO
100
AcDbLine
 62
7
  6
CONTINUOUS
 10
10.3927234819
 20
-23.1226497308
 11
8.5072765181
 21
-23.1226497308
  0
LINE
  5
264
100
AcDbEntity
  8
RACCORDO
100
AcDbLine
 62
7
  6
CONTINUOUS
 10
-8.5072765181
 20
-23.1226497308
 11
-10.3927234819
 21
-23.1226497308
  0
LWPOLYLINE
  5
265
100
AcDbEntity
  8
RACCORDO
100
AcDbPolyline
 62
7
  6
CONTINUOUS
 90
22
 70
0
 10
4.2962073137
 20
-23.7953389668
 10
4.2854181903
 20
-23.7947915649
 10
4.2743307281
 20
-23.793363895
 10
4.2629449272
 20
-23.7911364879
 10
4.2512361469
 20
-23.7881978965
 10
4.239229028
 20
-23.7846238716
 10
4.226997492
 20
-23.7804595132
 10
4.2145487518
 20
-23.7757643703
 10
4.2018755946
 20
-23.7706018097
 10
4.1890303044
 20
-23.7649953104
 10
4.1760171723
 20
-23.758990232
 10
4.1628319072
 20
-23.7526365647
 10
4.1495139203
 20
-23.7459460582
 10
4.1360654333
 20
-23.7389542831
 10
4.1224842244
 20
-23.7317013921
 10
4.1088030396
 20
-23.724193673
 10
4.0950229279
 20
-23.7164601879
 10
4.0811428402
 20
-23.708533951
 10
4.0671923756
 20
-23.7004191901
 10
4.053171775
 20
-23.6921405291
 10
4.0390807976
 20
-23.6837259593
 10
4.0249483201
 20
-23.6751796798
  0
LINE
  5
266
100
AcDbEntity
  8
RACCORDO
100
AcDbLine
 62
7
  6
CONTINUOUS
 10
-10.879046662
 20
-22.3395304767
 11
-10.8615448759
 21
-22.3482807033
  0
LINE
  5
267
100
AcDbEntity
  8
RACCORDO
100
AcDbLine
 62
250
  6
CONTINUOUS
 10
-11.15
 20
-21.9011798444
 11
-11.1325823343
 21
-21.909888014
  0
LWPOLYLINE
  5
268
100
AcDbEntity
  8
RACCORDO
100
AcDbPolyline
 62
7
  6
CONTINUOUS
 90
25
 70
0
 10
-10.8615648735
 20
-22.3482707046
 10
-10.8740339205
 20
-22.3418109895
 10
-10.8941586403
 20
-22.3303970169
 10
-10.9137781602
 20
-22.3180089201
 10
-10.932886211
 20
-22.3046350291
 10
-10.9513885598
 20
-22.2903251119
 10
-10.9692135166
 20
-22.2751254563
 10
-10.9863294154
 20
-22.259054914
 10
-11.0026802205
 20
-22.2421575722
 10
-11.0181711134
 20
-22.2245328395
 10
-11.0327680029
 20
-22.2062307982
 10
-11.0464473842
 20
-22.1872928453
 10
-11.0591499375
 20
-22.1678207565
 10
-11.0708490745
 20
-22.1478877728
 10
-11.0815459557
 20
-22.1275267947
 10
-11.0912337096
 20
-22.1067839739
 10
-11.0999002847
 20
-22.0857223491
 10
-11.1075461593
 20
-22.0643819723
 10
-11.1141806365
 20
-22.0427714956
 10
-11.1197998708
 20
-22.0209310001
 10
-11.1243976375
 20
-21.9989170614
 10
-11.1279750642
 20
-21.9767602752
 10
-11.1305312827
 20
-21.9545022069
 10
-11.1320660506
 20
-21.9321958432
 10
-11.1325823343
 20
-21.909888014
  0
LINE
  5
269
100
AcDbEntity
  8
RACCORDO
100
AcDbLine
 62
250
  6
CONTINUOUS
 10
-8.4999957692
 20
-24.5
 11
-8.5130943479
 21
-24.4869014213
  0
LWPOLYLINE
  5
26A
100
AcDbEntity
  8
RACCORDO
100
AcDbPolyline
 62
250
  6
CONTINUOUS
 90
16
 70
0
 10
-10.9825016824
 20
20.5423171059
 10
-10.9815569565
 20
20.5432654467
 10
-10.9795289861
 20
20.5442116866
 10
-10.9764222639
 20
20.5451537294
 10
-10.9722436724
 20
20.5460894883
 10
-10.9670024682
 20
20.5470168901
 10
-10.9607102624
 20
20.5479338804
 10
-10.9533809942
 20
20.5488384277
 10
-10.9450309001
 20
20.5497285284
 10
-10.9356784782
 20
20.5506022103
 10
-10.9253444471
 20
20.5514575382
 10
-10.9140516998
 20
20.5522926172
 10
-10.9018252533
 20
20.5531055973
 10
-10.888692193
 20
20.5538946775
 10
-10.8746816126
 20
20.5546581097
 10
-10.8598245501
 20
20.5553942028
  0
LINE
  5
26B
100
AcDbEntity
  8
RACCORDO
100
AcDbLine
 62
250
  6
CONTINUOUS
 10
-8.25
 20
24.2500042308
 11
-8.2630985787
 21
24.2369056521
  0
LINE
  5
26C
100
AcDbEntity
  8
DRAFT
100
AcDbLine
 62
7
  6
CONTINUOUS
 10
-8.25
 20
-22.4
 11
-4.4
 21
-22.4
  0
LINE
  5
26D
100
AcDbEntity
  8
DRAFT
100
AcDbLine
 62
7
  6
CONTINUOUS
 10
4.4
 20
-22.4
 11
8.25
 21
-22.4
  0
LINE
  5
26E
100
AcDbEntity
  8
RACCORDO
100
AcDbLine
 62
7
  6
CONTINUOUS
 10
-3.8970826234
 20
-22.3475922207
 11
3.8970826234
 21
-22.3475922207
  0
LINE
  5
26F
100
AcDbEntity
  8
RACCORDO
100
AcDbLine
 62
7
  6
CONTINUOUS
 10
10.3927234819
 20
-22.3213883311
 11
8.5072765181
 21
-22.3213883311
  0
LINE
  5
270
100
AcDbEntity
  8
RACCORDO
100
AcDbLine
 62
7
  6
CONTINUOUS
 10
-8.5072765181
 20
-22.3213883311
 11
-10.3927234819
 21
-22.3213883311
  0
LINE
  5
271
100
AcDbEntity
  8
RACCORDO
100
AcDbLine
 62
250
  6
CONTINUOUS
 10
10.5092683502
 20
-21.998725222
 11
-10.5092683502
 21
-21.998725222
  0
LWPOLYLINE
  5
272
100
AcDbEntity
  8
RACCORDO
100
AcDbPolyline
 62
250
  6
CONTINUOUS
 90
25
 70
0
 10
0.0
 20
-21.2958508559
 10
-0.091907248
 20
-21.2952697306
 10
-0.1871683065
 20
-21.2923148336
 10
-0.2857831756
 20
-21.2869759049
 10
-0.3882092301
 20
-21.2793444411
 10
-0.4939890952
 20
-21.2692855126
 10
-0.6017506456
 20
-21.2564329568
 10
-0.7114649365
 20
-21.240611156
 10
-0.8231609128
 20
-21.2218917648
 10
-0.9355532843
 20
-21.2002640754
 10
-1.0485135579
 20
-21.1755853878
 10
-1.1621702267
 20
-21.1478595193
 10
-1.2756234799
 20
-21.1172995379
 10
-1.3887597165
 20
-21.0838252929
 10
-1.5016925375
 20
-21.0473904428
 10
-1.6138629351
 20
-21.0082814319
 10
-1.7253580254
 20
-20.966397032
 10
-1.8360906924
 20
-20.9217625242
 10
-1.9452405808
 20
-20.8748917525
 10
-2.0532884232
 20
-20.8254670114
 10
-2.1597534869
 20
-20.7738135027
 10
-2.2623732189
 20
-20.7214727041
 10
-2.3603934347
 20
-20.6690119892
 10
-2.4545683187
 20
-20.6159890356
 10
-2.544897871
 20
-20.5624671365
  0
LWPOLYLINE
  5
273
100
AcDbEntity
  8
RACCORDO
100
AcDbPolyline
 62
7
  6
CONTINUOUS
 90
11
 70
0
 10
-10.6499996309
 20
-22.3999415484
 10
-10.6732526189
 20
-22.3990313623
 10
-10.6964851131
 20
-22.3970121642
 10
-10.7196438765
 20
-22.3938816039
 10
-10.7427032516
 20
-22.3896340413
 10
-10.7655807771
 20
-22.3842754978
 10
-10.7881404311
 20
-22.3778369941
 10
-10.8103126543
 20
-22.3703454156
 10
-10.8320684489
 20
-22.361817674
 10
-10.8533385495
 20
-22.3522884217
 10
-10.8615648735
 20
-22.3482707046
  0
LINE
  5
274
100
AcDbEntity
  8
RACCORDO
100
AcDbLine
 62
250
  6
CONTINUOUS
 10
-8.25
 20
-24.2500042308
 11
-8.2630985787
 21
-24.2369056521
  0
LWPOLYLINE
  5
275
100
AcDbEntity
  8
RACCORDO
100
AcDbPolyline
 62
250
  6
CONTINUOUS
 90
17
 70
0
 10
-10.9825016824
 20
-20.5423171059
 10
-10.9815569629
 20
-20.5432654469
 10
-10.9795289985
 20
-20.544211687
 10
-10.9764222819
 20
-20.5451537301
 10
-10.9722436954
 20
-20.5460894891
 10
-10.9670024959
 20
-20.5470168911
 10
-10.9607102944
 20
-20.5479338817
 10
-10.9533810299
 20
-20.5488384293
 10
-10.9450309391
 20
-20.5497285302
 10
-10.9356785201
 20
-20.5506022124
 10
-10.9253444913
 20
-20.5514575406
 10
-10.914051746
 20
-20.5522926198
 10
-10.9018253009
 20
-20.5531056002
 10
-10.8886922416
 20
-20.5538946806
 10
-10.8746816619
 20
-20.5546581132
 10
-10.8598245995
 20
-20.5553942065
 10
-10.8277044813
 20
-20.5567779171
  0
LWPOLYLINE
  5
276
100
AcDbEntity
  8
RACCORDO
100
AcDbPolyline
 62
250
  6
CONTINUOUS
 90
25
 70
0
 10
-2.3587158718
 20
20.0779436818
 10
-2.2750407278
 20
20.1107931748
 10
-2.1878322472
 20
20.1435626907
 10
-2.0970594382
 20
20.1761097384
 10
-2.001979316
 20
20.2085212404
 10
-1.903273493
 20
20.2403839992
 10
-1.8030859099
 20
20.2709016501
 10
-1.7019217856
 20
20.2998800366
 10
-1.5993087668
 20
20.3274163336
 10
-1.4959694076
 20
20.3532910433
 10
-1.3920209791
 20
20.3774623199
 10
-1.2873992993
 20
20.3999326288
 10
-1.1825689245
 20
20.4206068326
 10
-1.0774648038
 20
20.4395038666
 10
-0.9722135928
 20
20.4566059916
 10
-0.8675770446
 20
20.4718226864
 10
-0.763483736
 20
20.4852080104
 10
-0.6600732736
 20
20.4967849611
 10
-0.5584329668
 20
20.5065054244
 10
-0.4585658946
 20
20.514464747
 10
-0.3605350761
 20
20.5207485224
 10
-0.2655221645
 20
20.5253975917
 10
-0.1739392628
 20
20.5285401611
 10
-0.0854254469
 20
20.530332237
 10
0.0
 20
20.5309036963
  0
LINE
  5
277
100
AcDbEntity
  8
RACCORDO
100
AcDbLine
 62
250
  6
CONTINUOUS
 10
10.8598245209
 20
-20.5553942002
 11
10.827704404
 21
-20.5567779099
  0
LINE
  5
278
100
AcDbEntity
  8
RACCORDO
100
AcDbLine
 62
250
  6
CONTINUOUS
 10
10.827704404
 20
-20.5567779099
 11
10.7926162802
 21
-20.5580335498
  0
LINE
  5
279
100
AcDbEntity
  8
RACCORDO
100
AcDbLine
 62
250
  6
CONTINUOUS
 10
10.7926162802
 20
-20.5580335498
 11
10.7548709018
 21
-20.5591499996
  0
LINE
  5
27A
100
AcDbEntity
  8
RACCORDO
100
AcDbLine
 62
250
  6
CONTINUOUS
 10
10.7548709018
 20
-20.5591499996
 11
10.7148025543
 21
-20.5601173715
  0
LINE
  5
27B
100
AcDbEntity
  8
RACCORDO
100
AcDbLine
 62
250
  6
CONTINUOUS
 10
10.7148025543
 20
-20.5601173715
 11
10.6727660966
 21
-20.5609270981
  0
LINE
  5
27C
100
AcDbEntity
  8
RACCORDO
100
AcDbLine
 62
250
  6
CONTINUOUS
 10
10.6727660966
 20
-20.5609270981
 11
10.606839543
 21
-20.5618308139
  0
LINE
  5
27D
100
AcDbEntity
  8
RACCORDO
100
AcDbLine
 62
250
  6
CONTINUOUS
 10
10.606839543
 20
-20.5618308139
 11
10.5386381955
 21
-20.5623460436
  0
LINE
  5
27E
100
AcDbEntity
  8
RACCORDO
100
AcDbLine
 62
250
  6
CONTINUOUS
 10
10.5386381955
 20
-20.5623460436
 11
2.54489787
 21
-20.562467137
  0
LINE
  5
27F
100
AcDbEntity
  8
RACCORDO
100
AcDbLine
 62
250
  6
CONTINUOUS
 10
-10.5386382088
 20
-20.5623460547
 11
-2.544897871
 21
-20.5624671365
  0
LWPOLYLINE
  5
280
100
AcDbEntity
  8
RACCORDO
100
AcDbPolyline
 62
250
  6
CONTINUOUS
 90
25
 70
0
 10
-0.0
 20
-20.5309036963
 10
-0.0851465042
 20
-20.5303358986
 10
-0.1734449427
 20
-20.5285535275
 10
-0.2648761157
 20
-20.5254243656
 10
-0.3598110467
 20
-20.52078933
 10
-0.4578274723
 20
-20.5145177346
 10
-0.5577134005
 20
-20.5065684046
 10
-0.6594079442
 20
-20.4968539446
 10
-0.7629055725
 20
-20.4852775033
 10
-0.8670819633
 20
-20.4718904714
 10
-0.9717876325
 20
-20.4566715366
 10
-1.077103855
 20
-20.4395656235
 10
-1.1822617273
 20
-20.4206647241
 10
-1.2871312792
 20
-20.3999878255
 10
-1.3917810283
 20
-20.3775159783
 10
-1.4957494933
 20
-20.353344134
 10
-1.5991016595
 20
-20.3274700438
 10
-1.7017196114
 20
-20.2999361184
 10
-1.8028816743
 20
-20.2709619999
 10
-1.9030470103
 20
-20.2404550606
 10
-2.0017239433
 20
-20.2086060317
 10
-2.096808864
 20
-20.1761974003
 10
-2.1876329435
 20
-20.1436358527
 10
-2.2749251346
 20
-20.1108375534
 10
-2.3587158718
 20
-20.0779436818
  0
LINE
  5
281
100
AcDbEntity
  8
RACCORDO
100
AcDbLine
 62
250
  6
CONTINUOUS
 10
-10.6068395755
 20
-20.5618308246
 11
-10.5386382088
 21
-20.5623460547
  0
LINE
  5
282
100
AcDbEntity
  8
RACCORDO
100
AcDbLine
 62
250
  6
CONTINUOUS
 10
-10.6727661463
 20
-20.5609271081
 11
-10.6068395755
 21
-20.5618308246
  0
LINE
  5
283
100
AcDbEntity
  8
RACCORDO
100
AcDbLine
 62
250
  6
CONTINUOUS
 10
-10.7148026137
 20
-20.5601173809
 11
-10.6727661463
 21
-20.5609271081
  0
LINE
  5
284
100
AcDbEntity
  8
RACCORDO
100
AcDbLine
 62
250
  6
CONTINUOUS
 10
-10.7548709692
 20
-20.5591500083
 11
-10.7148026137
 21
-20.5601173809
  0
LINE
  5
285
100
AcDbEntity
  8
RACCORDO
100
AcDbLine
 62
250
  6
CONTINUOUS
 10
-10.7926163537
 20
-20.5580335579
 11
-10.7548709692
 21
-20.5591500083
  0
LINE
  5
286
100
AcDbEntity
  8
RACCORDO
100
AcDbLine
 62
250
  6
CONTINUOUS
 10
-10.8277044813
 20
-20.5567779171
 11
-10.7926163537
 21
-20.5580335579
  0
LWPOLYLINE
  5
287
100
AcDbEntity
  8
RACCORDO
100
AcDbPolyline
 62
7
  6
CONTINUOUS
 90
10
 70
0
 10
10.6192531143
 20
-22.3289478403
 10
10.6240540756
 20
-22.329482895
 10
10.6283256396
 20
-22.3300174843
 10
10.6320577888
 20
-22.3305516082
 10
10.6352419603
 20
-22.3310782807
 10
10.6378703061
 20
-22.3316044878
 10
10.6399361444
 20
-22.3321511872
 10
10.6414347948
 20
-22.3327253649
 10
10.6423631553
 20
-22.3333200348
 10
10.6427192511
 20
-22.3339351971
  0
LWPOLYLINE
  5
288
100
AcDbEntity
  8
RACCORDO
100
AcDbPolyline
 62
250
  6
CONTINUOUS
 90
112
 70
0
 10
-2.5448984373
 20
-20.5624671365
 10
-2.7013179265
 20
-20.4974402141
 10
-2.856053108
 20
-20.4285484866
 10
-3.0091039817
 20
-20.3557918899
 10
-3.1606029631
 20
-20.2791097565
 10
-3.3104176368
 20
-20.1985626152
 10
-3.4581507561
 20
-20.1143321948
 10
-3.6037864567
 20
-20.0264061245
 10
-3.7473406031
 20
-19.9347966268
 10
-3.8884635422
 20
-19.8397223248
 10
-4.027121999
 20
-19.7411906284
 10
-4.1633492486
 20
-19.6391939752
 10
-4.2968954635
 20
-19.5339285372
 10
-4.4277428013
 20
-19.4254018886
 10
-4.5559091044
 20
-19.3136063011
 10
-4.6811980731
 20
-19.1987149993
 10
-4.8036170194
 20
-19.0807146443
 10
-4.9231586313
 20
-18.9596184212
 10
-5.0396046728
 20
-18.8356393479
 10
-5.1529570556
 20
-18.7087625721
 10
-5.263213868
 20
-18.5790027982
 10
-5.3701511385
 20
-18.4466173918
 10
-5.4737580605
 20
-18.3116045703
 10
-5.5740454406
 20
-18.1739659799
 10
-5.6708217277
 20
-18.0339641439
 10
-5.7640772319
 20
-17.8915992514
 10
-5.853821643
 20
-17.7468709914
 10
-5.9398924803
 20
-17.6000411535
 10
-6.0222841564
 20
-17.4511047914
 10
-6.1010022587
 20
-17.3000667459
 10
-6.1759010678
 20
-17.1472035039
 10
-6.246974672
 20
-16.9925090099
 10
-6.3142289831
 20
-16.8359892328
 10
-6.3775360175
 20
-16.6779387147
 10
-6.4368878654
 20
-16.5183550007
 10
-6.4922924365
 20
-16.3572404804
 10
-6.5436454763
 20
-16.1948969824
 10
-6.590939019
 20
-16.0313231887
 10
-6.6341810303
 20
-15.866520374
 10
-6.6732911528
 20
-15.7007942757
 10
-6.7082617383
 20
-15.5341431022
 10
-6.739100435
 20
-15.366568624
 10
-6.7657498303
 20
-15.1983819426
 10
-6.7882021363
 20
-15.029581038
 10
-6.8064651408
 20
-14.860167931
 10
-6.820504795
 20
-14.6904598029
 10
-6.8303130123
 20
-14.5204564651
 10
-6.8358978792
 20
-14.350158128
 10
-6.8372496061
 20
-14.1798825914
 10
-6.8343603725
 20
-14.0096313142
 10
-6.8272379989
 20
-13.8394028784
 10
-6.8158961575
 20
-13.6695107868
 10
-6.8003271843
 20
-13.4999554117
 10
-6.7805387432
 20
-13.3307364387
 10
-6.7565674983
 20
-13.1621663575
 10
-6.7284050178
 20
-12.9942437926
 10
-6.6960597333
 20
-12.8269701923
 10
-6.6595936043
 20
-12.6606622977
 10
-6.618998365
 20
-12.4953221974
 10
-6.5742822811
 20
-12.3309478881
 10
-6.5255321088
 20
-12.1678499872
 10
-6.4727425141
 20
-12.0060368601
 10
-6.4159188309
 20
-11.8455002365
 10
-6.3551638176
 20
-11.6865257934
 10
-6.2904717372
 20
-11.5291167782
 10
-6.2218483266
 20
-11.3732700447
 10
-6.149413555
 20
-11.2192616895
 10
-6.0731535909
 20
-11.0670827327
 10
-5.9930822658
 20
-10.9167422587
 10
-5.9093610431
 20
-10.7685434707
 10
-5.8219820866
 20
-10.6224934501
 10
-5.7309532324
 20
-10.4785852226
 10
-5.6364594521
 20
-10.3371009164
 10
-5.5385063718
 20
-10.1980611985
 10
-5.4370883654
 20
-10.0614455087
 10
-5.3323735264
 20
-9.9274741406
 10
-5.2243472056
 20
-9.7961390475
 10
-5.1130240521
 20
-9.6674483785
 10
-4.9986161076
 20
-9.5416467247
 10
-4.8811204032
 20
-9.4187427578
 10
-4.7605399078
 20
-9.298727904
 10
-4.6370955684
 20
-9.1818208902
 10
-4.5107856948
 20
-9.0680294827
 10
-4.3816119773
 20
-8.9573460066
 10
-4.2498004346
 20
-8.8499660288
 10
-4.115340196
 20
-8.7458904118
 10
-3.9782421322
 20
-8.6451183767
 10
-3.8387648741
 20
-8.5478430298
 10
-3.6968941541
 20
-8.4540669719
 10
-3.5526442399
 20
-8.3637876778
 10
-3.4063165652
 20
-8.2771905657
 10
-3.2579182949
 20
-8.1942909228
 10
-3.1074422641
 20
-8.115073529
 10
-2.9551684115
 20
-8.0396780409
 10
-2.801116118
 20
-7.9681183653
 10
-2.6452660028
 20
-7.900380653
 10
-2.4878398623
 20
-7.8365629258
 10
-2.3288215743
 20
-7.7766621332
 10
-2.1682272611
 20
-7.7206813732
 10
-2.0063270861
 20
-7.6687278887
 10
-1.8430774486
 20
-7.6208004392
 10
-1.6785219494
 20
-7.5769003033
 10
-1.5130615548
 20
-7.5371385014
 10
-1.3466862772
 20
-7.5015320524
 10
-1.1794061042
 20
-7.4700639661
 10
-1.0116519643
 20
-7.4427942467
 10
-0.8434206737
 20
-7.4197425522
 10
-0.6747154163
 20
-7.4008892436
 10
-0.5059766721
 20
-7.3862353773
 10
-0.3373512681
 20
-7.3757813085
 10
-0.1686923774
 20
-7.3695266915
 10
-0.0
 20
-7.3674715284
  0
LINE
  5
289
100
AcDbEntity
  8
RACCORDO
100
AcDbLine
 62
7
  6
CONTINUOUS
 10
3.9680905905
 20
23.6400757416
 11
3.8970826234
 21
23.5953423515
  0
LINE
  5
28A
100
AcDbEntity
  8
RACCORDO
100
AcDbLine
 62
7
  6
CONTINUOUS
 10
3.9965581838
 20
23.6577812011
 11
3.9680905905
 21
23.6400757416
  0
LWPOLYLINE
  5
28B
100
AcDbEntity
  8
RACCORDO
100
AcDbPolyline
 62
250
  6
CONTINUOUS
 90
25
 70
0
 10
-2.5448979752
 20
20.5624670775
 10
-2.4546962286
 20
20.6159195196
 10
-2.360612868
 20
20.6688944218
 10
-2.2626478934
 20
20.7213284566
 10
-2.1600325444
 20
20.7736718861
 10
-2.0535355814
 20
20.8253487444
 10
-1.9454632856
 20
20.874793008
 10
-1.8363105963
 20
20.9216711318
 10
-1.7255825742
 20
20.966309402
 10
-1.6141006819
 20
21.0081953246
 10
-1.5019512129
 20
21.0473037138
 10
-1.3890478736
 20
21.0837358117
 10
-1.2759532468
 20
21.1172063297
 10
-1.1625574711
 20
21.1477607524
 10
-1.0489704078
 20
21.1754801354
 10
-0.9360842236
 20
21.2001550505
 10
-0.82378128
 20
21.2217816725
 10
-0.7121792156
 20
21.2405025231
 10
-0.602523112
 20
21.2563315186
 10
-0.4947813979
 20
21.2692004328
 10
-0.3889856447
 20
21.2792812459
 10
-0.2864756487
 20
21.2869328109
 10
-0.1876980086
 20
21.2922877098
 10
-0.0922061257
 20
21.2952569528
 10
-0.0
 20
21.2958508559
  0
LINE
  5
28C
100
AcDbEntity
  8
DRAFT
100
AcDbLine
 62
7
  6
CONTINUOUS
 10
2.3242348525
 20
-18.0528749139
 11
-2.3242348525
 21
-18.0528749139
  0
LINE
  5
28D
100
AcDbEntity
  8
ASSI
100
AcDbLine
 62
7
  6
CONTINUOUS
 10
2.3242348525
 20
-18.0528749139
 11
-2.3242348525
 21
-18.0528749139
  0
LINE
  5
28E
100
AcDbEntity
  8
RACCORDO
100
AcDbLine
 62
250
  6
CONTINUOUS
 10
2.5428153857
 20
-17.9123494959
 11
-2.5428153857
 21
-17.9123494959
  0
LINE
  5
28F
100
AcDbEntity
  8
ASSI
100
AcDbLine
 62
7
  6
CONTINUOUS
 10
2.5428153857
 20
-17.9123494959
 11
-2.5428153857
 21
-17.9123494959
  0
LWPOLYLINE
  5
290
100
AcDbEntity
  8
RACCORDO
100
AcDbPolyline
 62
250
  6
CONTINUOUS
 90
112
 70
0
 10
-2.3587158718
 20
-20.0779436818
 10
-2.5035746661
 20
-20.0177716889
 10
-2.6470483784
 20
-19.9539648699
 10
-2.7890440714
 20
-19.886551291
 10
-2.9294997396
 20
-19.8155456073
 10
-3.0682921117
 20
-19.7409950147
 10
-3.2052407396
 20
-19.6629867796
 10
-3.3402550545
 20
-19.5815675281
 10
-3.4732530389
 20
-19.4967816483
 10
-3.6040758367
 20
-19.408728801
 10
-3.732620027
 20
-19.3174825983
 10
-3.8588319294
 20
-19.2230851923
 10
-3.9826331705
 20
-19.1255977518
 10
-4.1039356192
 20
-19.0250934927
 10
-4.2226794731
 20
-18.9216258451
 10
-4.3388289015
 20
-18.8152263623
 10
-4.4523207155
 20
-18.7059504336
 10
-4.5630739548
 20
-18.5938734489
 10
-4.6710255732
 20
-18.4790564017
 10
-4.7761145974
 20
-18.3615605129
 10
-4.8782667813
 20
-18.2414650529
 10
-4.9774025415
 20
-18.1188613187
 10
-5.0734572264
 20
-17.993829055
 10
-5.1663743653
 20
-17.866441544
 10
-5.2560913064
 20
-17.7367841958
 10
-5.3425499365
 20
-17.6049418544
 10
-5.4257000193
 20
-17.4709920184
 10
-5.5054937622
 20
-17.335011203
 10
-5.5818821772
 20
-17.1970822769
 10
-5.6548170563
 20
-17.0572916509
 10
-5.7242542211
 20
-16.9157225985
 10
-5.7901512752
 20
-16.7724601663
 10
-5.8524657608
 20
-16.6275952071
 10
-5.9111567517
 20
-16.4812213514
 10
-5.9661875225
 20
-16.3334297657
 10
-6.0175240468
 20
-16.1843114014
 10
-6.0651333319
 20
-16.0339611248
 10
-6.1089856337
 20
-15.8824730673
 10
-6.1490541286
 20
-15.7299401451
 10
-6.1853138591
 20
-15.5764565498
 10
-6.2177423716
 20
-15.4221173249
 10
-6.2463195703
 20
-15.2670181738
 10
-6.2710275627
 20
-15.1112550948
 10
-6.2918511324
 20
-14.9549238053
 10
-6.3087772482
 20
-14.7981219943
 10
-6.3217950726
 20
-14.6409491901
 10
-6.3308967002
 20
-14.4835031333
 10
-6.3360767127
 20
-14.3258810942
 10
-6.3373319266
 20
-14.1681821843
 10
-6.3346618879
 20
-14.0105054046
 10
-6.3280685803
 20
-13.8529471927
 10
-6.3175560543
 20
-13.6956028084
 10
-6.3031309098
 20
-13.5385694808
 10
-6.2848022295
 20
-13.3819447749
 10
-6.2625811338
 20
-13.2258241947
 10
-6.236480945
 20
-13.0703020043
 10
-6.2065181792
 20
-12.9154770785
 10
-6.1727126784
 20
-12.7614512209
 10
-6.1350858431
 20
-12.6083198172
 10
-6.0936614365
 20
-12.4561776008
 10
-6.0484672569
 20
-12.305124348
 10
-5.9995340304
 20
-12.1552588681
 10
-5.9468913388
 20
-12.0066681187
 10
-5.8905683402
 20
-11.8594331247
 10
-5.8306002622
 20
-11.7136457674
 10
-5.767024022
 20
-11.5693955622
 10
-5.6998729423
 20
-11.4267593439
 10
-5.629181688
 20
-11.2858142061
 10
-5.5549986313
 20
-11.1466598501
 10
-5.4773817019
 20
-11.0094050175
 10
-5.3963807589
 20
-10.8741358586
 10
-5.3120458909
 20
-10.740934056
 10
-5.2244414278
 20
-10.6098980635
 10
-5.1336344754
 20
-10.4811226552
 10
-5.0396730937
 20
-10.3546705667
 10
-4.942595068
 20
-10.2305907673
 10
-4.8424509084
 20
-10.1089490586
 10
-4.7393111662
 20
-9.9898323277
 10
-4.6332448422
 20
-9.8733201048
 10
-4.5243205645
 20
-9.7594870167
 10
-4.4126033411
 20
-9.6484002491
 10
-4.2981596106
 20
-9.5401254945
 10
-4.1810629818
 20
-9.4347321005
 10
-4.0613832329
 20
-9.3322825773
 10
-3.9391825668
 20
-9.2328307499
 10
-3.8145300107
 20
-9.1364345013
 10
-3.6875076659
 20
-9.0431589896
 10
-3.5581992303
 20
-8.9530665908
 10
-3.4266762807
 20
-8.866208258
 10
-3.2930277531
 20
-8.7826437856
 10
-3.1573671751
 20
-8.7024431382
 10
-3.0197906388
 20
-8.6256600816
 10
-2.8803734728
 20
-8.5523336571
 10
-2.7392010726
 20
-8.4825063713
 10
-2.5963813271
 20
-8.416228448
 10
-2.4519839301
 20
-8.3535291303
 10
-2.3060363504
 20
-8.2944208289
 10
-2.1586137873
 20
-8.2389378083
 10
-2.0098198066
 20
-8.1871228243
 10
-1.8597233917
 20
-8.1390039297
 10
-1.7083786888
 20
-8.0946049375
 10
-1.5559148363
 20
-8.053970142
 10
-1.4025159284
 20
-8.0171498478
 10
-1.2482717173
 20
-7.9841635187
 10
-1.0932839955
 20
-7.9550308555
 10
-0.937758877
 20
-7.9297840745
 10
-0.7817944276
 20
-7.9084284336
 10
-0.6254880688
 20
-7.8909666588
 10
-0.4690471443
 20
-7.8774071997
 10
-0.3126060053
 20
-7.8677415843
 10
-0.156224943
 20
-7.861953508
 10
-0.0
 20
-7.8600279044
  0
LINE
  5
291
100
AcDbEntity
  8
RACCORDO
100
AcDbLine
 62
7
  6
CONTINUOUS
 10
4.0249483201
 20
-23.6751796798
 11
3.9965581838
 21
-23.6577812011
  0
LINE
  5
292
100
AcDbEntity
  8
RACCORDO
100
AcDbLine
 62
7
  6
CONTINUOUS
 10
3.9965581838
 20
-23.6577812011
 11
3.9538388153
 21
-23.6311538461
  0
LINE
  5
293
100
AcDbEntity
  8
RACCORDO
100
AcDbLine
 62
7
  6
CONTINUOUS
 10
3.9538388153
 20
-23.6311538461
 11
3.8970826234
 21
-23.5953423515
  0
LINE
  5
294
100
AcDbEntity
  8
RACCORDO
100
AcDbLine
 62
250
  6
CONTINUOUS
 10
2.9330844581
 20
-17.612360919
 11
-2.9330844581
 21
-17.612360919
  0
LINE
  5
295
100
AcDbEntity
  8
ASSI
100
AcDbLine
 62
250
  6
CONTINUOUS
 10
2.9330844581
 20
-17.612360919
 11
-2.9330844581
 21
-17.612360919
  0
LINE
  5
296
100
AcDbEntity
  8
0
100
AcDbLine
 62
7
  6
CONTINUOUS
 10
-3.7743900767
 20
-16.65
 11
-0.0
 21
-16.65
  0
LINE
  5
297
100
AcDbEntity
  8
ASSI
100
AcDbLine
 62
7
  6
CONTINUOUS
 10
-3.7743900767
 20
-16.65
 11
-0.0
 21
-16.65
  0
LINE
  5
298
100
AcDbEntity
  8
RACCORDO
100
AcDbLine
 62
7
  6
CONTINUOUS
 10
4.3970741618
 20
23.7970741618
 11
4.4
 21
23.8
  0
LINE
  5
299
100
AcDbEntity
  8
0
100
AcDbLine
 62
7
  6
CONTINUOUS
 10
-0.0
 20
-13.35
 11
-4.4188277265
 21
-13.35
  0
LINE
  5
29A
100
AcDbEntity
  8
ASSI
100
AcDbLine
 62
7
  6
CONTINUOUS
 10
-0.0
 20
-13.35
 11
-4.4188277265
 21
-13.35
  0
LINE
  5
29B
100
AcDbEntity
  8
RACCORDO
100
AcDbLine
 62
7
  6
CONTINUOUS
 10
4.3970741618
 20
-23.7970741618
 11
4.4
 21
-23.8
  0
LWPOLYLINE
  5
29C
100
AcDbEntity
  8
RACCORDO
100
AcDbPolyline
 62
250
  6
CONTINUOUS
 90
31
 70
0
 10
-10.6369014213
 20
-24.2369056521
 10
-10.6365583827
 20
-24.2499891381
 10
-10.6355310928
 20
-24.2630367647
 10
-10.6338223673
 20
-24.2760127708
 10
-10.6314368893
 20
-24.2888815916
 10
-10.6283811971
 20
-24.3016079562
 10
-10.6246636657
 20
-24.3141569839
 10
-10.6202944842
 20
-24.3264942801
 10
-10.6152856277
 20
-24.3385860308
 10
-10.6096508246
 20
-24.3503990946
 10
-10.6034055187
 20
-24.3619010942
 10
-10.5965668272
 20
-24.3730605047
 10
-10.5891534939
 20
-24.3838467403
 10
-10.5811858371
 20
-24.3942302379
 10
-10.5726856948
 20
-24.4041825384
 10
-10.5636763643
 20
-24.4136763643
 10
-10.5541825384
 20
-24.4226856948
 10
-10.5442302379
 20
-24.4311858371
 10
-10.5338467403
 20
-24.4391534939
 10
-10.5230605047
 20
-24.4465668272
 10
-10.5119010942
 20
-24.4534055187
 10
-10.5003990946
 20
-24.4596508246
 10
-10.4885860308
 20
-24.4652856277
 10
-10.4764942801
 20
-24.4702944842
 10
-10.4641569839
 20
-24.4746636657
 10
-10.4516079562
 20
-24.4783811971
 10
-10.4388815916
 20
-24.4814368893
 10
-10.4260127708
 20
-24.4838223673
 10
-10.4130367647
 20
-24.4855310928
 10
-10.3999891381
 20
-24.4865583827
 10
-10.3869056521
 20
-24.4869014213
  0
LWPOLYLINE
  5
29D
100
AcDbEntity
  8
RACCORDO
100
AcDbPolyline
 62
250
  6
CONTINUOUS
 90
34
 70
0
 10
-10.9991937208
 20
-21.5093967499
 10
-10.9986181666
 20
-21.532666412
 10
-10.9969353668
 20
-21.5558834225
 10
-10.9941491289
 20
-21.5789952485
 10
-10.9902657572
 20
-21.6019495952
 10
-10.9852940386
 20
-21.6246945241
 10
-10.9792452224
 20
-21.6471785704
 10
-10.9721329952
 20
-21.6693508599
 10
-10.9639734496
 20
-21.6911612235
 10
-10.9547850482
 20
-21.7125603112
 10
-10.9445885814
 20
-21.7334997034
 10
-10.9334071205
 20
-21.7539320209
 10
-10.9212659657
 20
-21.7738110317
 10
-10.9081925885
 20
-21.7930917557
 10
-10.8942165699
 20
-21.8117305666
 10
-10.8793695333
 20
-21.8296852906
 10
-10.8636850727
 20
-21.8469153017
 10
-10.8471986773
 20
-21.8633816138
 10
-10.8299476506
 20
-21.8790469685
 10
-10.8119710263
 20
-21.8938759201
 10
-10.7933094798
 20
-21.9078349153
 10
-10.7740052364
 20
-21.920892369
 10
-10.7541019756
 20
-21.9330187364
 10
-10.7336447323
 20
-21.9441865792
 10
-10.7126797948
 20
-21.954370628
 10
-10.6912546004
 20
-21.9635478395
 10
-10.6694176274
 20
-21.9716974483
 10
-10.6472182863
 20
-21.9788010145
 10
-10.6247068073
 20
-21.9848424649
 10
-10.6019341268
 20
-21.9898081295
 10
-10.5789517723
 20
-21.9936867725
 10
-10.5558117459
 20
-21.9964696178
 10
-10.5325664062
 20
-21.9981503686
 10
-10.5092683502
 20
-21.998725222
  0
LWPOLYLINE
  5
29E
100
AcDbEntity
  8
RACCORDO
100
AcDbPolyline
 62
7
  6
CONTINUOUS
 90
34
 70
0
 10
-10.65
 20
-24.2500042308
 10
-10.6497168498
 20
-24.261899516
 10
-10.6488680342
 20
-24.2737678556
 10
-10.6474554741
 20
-24.2855823661
 10
-10.6454823677
 20
-24.2973162875
 10
-10.6429531817
 20
-24.3089430388
 10
-10.6398736417
 20
-24.320436279
 10
-10.6362507213
 20
-24.3317699738
 10
-10.6320926258
 20
-24.3429184493
 10
-10.6274087722
 20
-24.3538564463
 10
-10.6222097688
 20
-24.3645591876
 10
-10.6165073916
 20
-24.3750024283
 10
-10.6103145581
 20
-24.3851625059
 10
-10.6036452955
 20
-24.3950164051
 10
-10.5965147107
 20
-24.4045418038
 10
-10.5889389589
 20
-24.4137171191
 10
-10.5809352005
 20
-24.4225215661
 10
-10.5725215661
 20
-24.4309352005
 10
-10.5637171191
 20
-24.4389389589
 10
-10.5545418038
 20
-24.4465147107
 10
-10.5450164051
 20
-24.4536452955
 10
-10.5351625059
 20
-24.4603145581
 10
-10.5250024283
 20
-24.4665073916
 10
-10.5145591876
 20
-24.4722097688
 10
-10.5038564463
 20
-24.4774087722
 10
-10.4929184493
 20
-24.4820926258
 10
-10.4817699738
 20
-24.4862507213
 10
-10.470436279
 20
-24.4898736417
 10
-10.4589430388
 20
-24.4929531817
 10
-10.4473162875
 20
-24.4954823677
 10
-10.4355823661
 20
-24.4974554741
 10
-10.4237678556
 20
-24.4988680342
 10
-10.411899516
 20
-24.4997168498
 10
-10.4000042308
 20
-24.5
  0
LINE
  5
29F
100
AcDbEntity
  8
RACCORDO
100
AcDbLine
 62
250
  6
CONTINUOUS
 10
-10.9871524942
 20
21.1852449164
 11
-10.9889559289
 21
21.2826316848
  0
LINE
  5
2A0
100
AcDbEntity
  8
RACCORDO
100
AcDbLine
 62
250
  6
CONTINUOUS
 10
-10.985261803
 20
21.0447181956
 11
-10.9871524942
 21
21.1852449164
  0
LINE
  5
2A1
100
AcDbEntity
  8
RACCORDO
100
AcDbLine
 62
250
  6
CONTINUOUS
 10
-10.6369014213
 20
-23.8443375673
 11
-10.6427192511
 21
-23.2669872981
  0
LINE
  5
2A2
100
AcDbEntity
  8
RACCORDO
100
AcDbLine
 62
250
  6
CONTINUOUS
 10
-10.3869056521
 20
-23.6278312164
 11
-10.3919962532
 21
-23.1226497308
  0
LINE
  5
2A3
100
AcDbEntity
  8
RACCORDO
100
AcDbLine
 62
250
  6
CONTINUOUS
 10
-10.9836024224
 20
20.8543692149
 11
-10.985261803
 21
21.0447181956
  0
LINE
  5
2A4
100
AcDbEntity
  8
RACCORDO
100
AcDbLine
 62
250
  6
CONTINUOUS
 10
-10.9825962764
 20
20.6131726082
 11
-10.9836024224
 21
20.8543692149
  0
LWPOLYLINE
  5
2A5
100
AcDbEntity
  8
RACCORDO
100
AcDbPolyline
 62
250
  6
CONTINUOUS
 90
3
 70
0
 10
-10.979959549
 20
16.6310719384
 10
-10.9811637321
 20
18.5868071894
 10
-10.9825962764
 20
20.6131726082
  0
LINE
  5
2A6
100
AcDbEntity
  8
RACCORDO
100
AcDbLine
 62
250
  6
CONTINUOUS
 10
-10.9771495788
 20
10.7624540524
 11
-10.979959549
 21
16.6310719384
  0
LINE
  5
2A7
100
AcDbEntity
  8
RACCORDO
100
AcDbLine
 62
250
  6
CONTINUOUS
 10
-10.9759452107
 20
6.8491660129
 11
-10.9771495788
 21
10.7624540524
  0
LINE
  5
2A8
100
AcDbEntity
  8
ASSI
100
AcDbLine
 62
7
  6
CONTINUOUS
 10
-11.15
 20
-17.6716990487
 11
-11.15
 21
17.6716990487
  0
LINE
  5
2A9
100
AcDbEntity
  8
RACCORDO
100
AcDbLine
 62
7
  6
CONTINUOUS
 10
-11.15
 20
-21.9011798444
 11
-11.15
 21
21.9011798444
  0
LINE
  5
2AA
100
AcDbEntity
  8
RACCORDO
100
AcDbLine
 62
250
  6
CONTINUOUS
 10
-10.9751422617
 20
0.9784907085
 11
-10.9759452107
 21
6.8491660129
  0
LINE
  5
2AB
100
AcDbEntity
  8
RACCORDO
100
AcDbLine
 62
7
  6
CONTINUOUS
 10
-10.65
 20
-22.3999410061
 11
-10.65
 21
-24.2500042308
  0
LINE
  5
2AC
100
AcDbEntity
  8
RACCORDO
100
AcDbLine
 62
7
  6
CONTINUOUS
 10
-10.65
 20
22.3999410061
 11
-10.65
 21
24.2500042308
  0
LINE
  5
2AD
100
AcDbEntity
  8
RACCORDO
100
AcDbLine
 62
250
  6
CONTINUOUS
 10
-10.6427192511
 20
-23.2669872981
 11
-10.6427192511
 21
-22.3339351971
  0
LINE
  5
2AE
100
AcDbEntity
  8
RACCORDO
100
AcDbLine
 62
250
  6
CONTINUOUS
 10
-10.6427192511
 20
22.3339351971
 11
-10.6427192511
 21
23.2669872981
  0
LINE
  5
2AF
100
AcDbEntity
  8
RACCORDO
100
AcDbLine
 62
250
  6
CONTINUOUS
 10
-10.6369014213
 20
24.2369056521
 11
-10.6369014213
 21
23.8443375673
  0
LINE
  5
2B0
100
AcDbEntity
  8
RACCORDO
100
AcDbLine
 62
250
  6
CONTINUOUS
 10
-10.6369014213
 20
-23.8443375673
 11
-10.6369014213
 21
-24.2369056521
  0
LINE
  5
2B1
100
AcDbEntity
  8
RACCORDO
100
AcDbLine
 62
250
  6
CONTINUOUS
 10
-10.9752760845
 20
-2.9354279659
 11
-10.9751422617
 21
0.9784907085
  0
LWPOLYLINE
  5
2B2
100
AcDbEntity
  8
RACCORDO
100
AcDbPolyline
 62
250
  6
CONTINUOUS
 90
3
 70
0
 10
-10.9764804896
 20
-8.8058780326
 10
-10.9759452108
 20
-6.8491664559
 10
-10.9752760845
 20
-2.9354279659
  0
LWPOLYLINE
  5
2B3
100
AcDbEntity
  8
RACCORDO
100
AcDbPolyline
 62
250
  6
CONTINUOUS
 90
3
 70
0
 10
-10.9788891335
 20
-14.6751117948
 10
-10.9779524726
 20
-12.7188958447
 10
-10.9764804896
 20
-8.8058780326
  0
LINE
  5
2B4
100
AcDbEntity
  8
RACCORDO
100
AcDbLine
 62
250
  6
CONTINUOUS
 10
-10.9811637322
 20
-18.5868073856
 11
-10.9788891335
 21
-14.6751117948
  0
LINE
  5
2B5
100
AcDbEntity
  8
RACCORDO
100
AcDbLine
 62
250
  6
CONTINUOUS
 10
-10.9832093138
 20
-20.7869602486
 11
-10.9811637322
 21
-18.5868073856
  0
LINE
  5
2B6
100
AcDbEntity
  8
RACCORDO
100
AcDbLine
 62
250
  6
CONTINUOUS
 10
-10.9846309132
 20
-20.9835218948
 11
-10.9832093138
 21
-20.7869602486
  0
LINE
  5
2B7
100
AcDbEntity
  8
RACCORDO
100
AcDbLine
 62
250
  6
CONTINUOUS
 10
-10.6427192511
 20
23.2669872981
 11
-10.6369014213
 21
23.8443375673
  0
LINE
  5
2B8
100
AcDbEntity
  8
RACCORDO
100
AcDbLine
 62
250
  6
CONTINUOUS
 10
-10.3919962532
 20
23.1226497308
 11
-10.3869056521
 21
23.6278312164
  0
LINE
  5
2B9
100
AcDbEntity
  8
RACCORDO
100
AcDbLine
 62
250
  6
CONTINUOUS
 10
-10.9863443235
 20
-21.1313185733
 11
-10.9846309132
 21
-20.9835218948
  0
LINE
  5
2BA
100
AcDbEntity
  8
RACCORDO
100
AcDbLine
 62
250
  6
CONTINUOUS
 10
-10.9880237904
 20
-21.2357267466
 11
-10.9863443235
 21
-21.1313185733
  0
LINE
  5
2BB
100
AcDbEntity
  8
RACCORDO
100
AcDbLine
 62
250
  6
CONTINUOUS
 10
-10.9889556719
 20
-21.2826196512
 11
-10.9880237904
 21
-21.2357267466
  0
LWPOLYLINE
  5
2BC
100
AcDbEntity
  8
RACCORDO
100
AcDbPolyline
 62
7
  6
CONTINUOUS
 90
25
 70
0
 10
-11.1325823343
 20
21.909888014
 10
-11.1320660506
 20
21.9321958432
 10
-11.1305312827
 20
21.9545022069
 10
-11.1279750642
 20
21.9767602752
 10
-11.1243976375
 20
21.9989170614
 10
-11.1197998708
 20
22.0209310001
 10
-11.1141806365
 20
22.0427714956
 10
-11.1075461593
 20
22.0643819723
 10
-11.0999002847
 20
22.0857223491
 10
-11.0912337096
 20
22.1067839739
 10
-11.0815459557
 20
22.1275267947
 10
-11.0708490745
 20
22.1478877728
 10
-11.0591499375
 20
22.1678207565
 10
-11.0464473842
 20
22.1872928453
 10
-11.0327680029
 20
22.2062307982
 10
-11.0181711134
 20
22.2245328395
 10
-11.0026802205
 20
22.2421575722
 10
-10.9863294154
 20
22.259054914
 10
-10.9692135166
 20
22.2751254563
 10
-10.9513885598
 20
22.2903251119
 10
-10.932886211
 20
22.3046350291
 10
-10.9137781602
 20
22.3180089201
 10
-10.8941586403
 20
22.3303970169
 10
-10.8740339205
 20
22.3418109895
 10
-10.8615648735
 20
22.3482707046
  0
LWPOLYLINE
  5
2BD
100
AcDbEntity
  8
RACCORDO
100
AcDbPolyline
 62
250
  6
CONTINUOUS
 90
34
 70
0
 10
-10.9991937208
 20
21.5093967499
 10
-10.9986181664
 20
21.5326664173
 10
-10.9969353658
 20
21.5558834326
 10
-10.9941491268
 20
21.5789952631
 10
-10.9902657536
 20
21.6019496138
 10
-10.9852940332
 20
21.6246945463
 10
-10.9792452149
 20
21.6471785957
 10
-10.9721329855
 20
21.6693508878
 10
-10.9639734376
 20
21.6911612534
 10
-10.9547850338
 20
21.7125603427
 10
-10.9445885645
 20
21.733499736
 10
-10.9334071013
 20
21.7539320541
 10
-10.9212659442
 20
21.773811065
 10
-10.9081925649
 20
21.7930917887
 10
-10.8942165444
 20
21.811730599
 10
-10.8793695062
 20
21.8296853219
 10
-10.8636850443
 20
21.8469153316
 10
-10.8471986478
 20
21.8633816419
 10
-10.8299476204
 20
21.8790469947
 10
-10.8119709957
 20
21.8938759441
 10
-10.7933094493
 20
21.907834937
 10
-10.7740052064
 20
21.9208923884
 10
-10.7541019464
 20
21.9330187533
 10
-10.7336447043
 20
21.9441865937
 10
-10.7126797684
 20
21.9543706401
 10
-10.6912545759
 20
21.9635478493
 10
-10.6694176052
 20
21.971697456
 10
-10.6472182667
 20
21.9788010203
 10
-10.6247067905
 20
21.984842469
 10
-10.601934113
 20
21.9898081321
 10
-10.5789517618
 20
21.993686774
 10
-10.5558117388
 20
21.9964696185
 10
-10.5325664026
 20
21.9981503688
 10
-10.5092683502
 20
21.998725222
  0
LINE
  5
2BE
100
AcDbEntity
  8
RACCORDO
100
AcDbLine
 62
7
  6
CONTINUOUS
 10
-8.25
 20
22.4
 11
-8.2572807489
 21
22.3344140523
  0
LINE
  5
2BF
100
AcDbEntity
  8
0
100
AcDbLine
 62
7
  6
CONTINUOUS
 10
-3.7075127176
 20
-11.65
 11
-0.0
 21
-11.65
  0
LINE
  5
2C0
100
AcDbEntity
  8
ASSI
100
AcDbLine
 62
7
  6
CONTINUOUS
 10
-3.7075127176
 20
-11.65
 11
-0.0
 21
-11.65
  0
LINE
  5
2C1
100
AcDbEntity
  8
RACCORDO
100
AcDbLine
 62
7
  6
CONTINUOUS
 10
-8.25
 20
-22.4
 11
-8.2572807489
 21
-22.3344140523
  0
LWPOLYLINE
  5
2C2
100
AcDbEntity
  8
RACCORDO
100
AcDbPolyline
 62
7
  6
CONTINUOUS
 90
34
 70
0
 10
-8.2572807489
 20
-23.2669872981
 10
-8.2575784753
 20
-23.260745719
 10
-8.2583497267
 20
-23.254472608
 10
-8.2596000894
 20
-23.2481861919
 10
-8.2613341367
 20
-23.2419121598
 10
-8.2635555794
 20
-23.2356626215
 10
-8.2662675994
 20
-23.2294361375
 10
-8.2694720963
 20
-23.2232532001
 10
-8.2731700208
 20
-23.2171335699
 10
-8.2773622718
 20
-23.2110754134
 10
-8.282047756
 20
-23.2051002367
 10
-8.2872243979
 20
-23.199228829
 10
-8.2928907687
 20
-23.1934590071
 10
-8.2990425526
 20
-23.1878130261
 10
-8.305674335
 20
-23.182312533
 10
-8.3127821378
 20
-23.1769551973
 10
-8.3203581333
 20
-23.171763745
 10
-8.3283932153
 20
-23.1667604362
 10
-8.3368804409
 20
-23.1619430222
 10
-8.3458081504
 20
-23.1573343288
 10
-8.3551631291
 20
-23.1529569199
 10
-8.3649348037
 20
-23.148808872
 10
-8.3751073149
 20
-23.1449126131
 10
-8.385662902
 20
-23.1412905703
 10
-8.3965865028
 20
-23.137941334
 10
-8.4078575603
 20
-23.1348863009
 10
-8.4194534848
 20
-23.1321470947
 10
-8.4313541826
 20
-23.1297228132
 10
-8.4435210103
 20
-23.1276360125
 10
-8.4559390652
 20
-23.1259025536
 10
-8.4686230593
 20
-23.1245164325
 10
-8.4815577699
 20
-23.1234933505
 10
-8.4946962714
 20
-23.1228641607
 10
-8.5080037468
 20
-23.1226497308
  0
LWPOLYLINE
  5
2C3
100
AcDbEntity
  8
RACCORDO
100
AcDbPolyline
 62
250
  6
CONTINUOUS
 90
10
 70
0
 10
-10.9937594056
 20
21.4428344556
 10
-10.9943414419
 20
21.4550533628
 10
-10.9949313423
 20
21.4661077039
 10
-10.9955269065
 20
21.4759563377
 10
-10.9961281827
 20
21.4845947824
 10
-10.9967351227
 20
21.4920275198
 10
-10.997345381
 20
21.4982268547
 10
-10.9979581759
 20
21.5031835556
 10
-10.9985742892
 20
21.506906854
 10
-10.9991937208
 20
21.5093967499
  0
LWPOLYLINE
  5
2C4
100
AcDbEntity
  8
RACCORDO
100
AcDbPolyline
 62
7
  6
CONTINUOUS
 90
34
 70
0
 10
-10.6427192511
 20
23.2669872981
 10
-10.6424198287
 20
23.2606934229
 10
-10.6416441239
 20
23.2544088409
 10
-10.6403873851
 20
23.2481335519
 10
-10.6386460224
 20
23.2418552807
 10
-10.6364170759
 20
23.2355863026
 10
-10.633697709
 20
23.2293634437
 10
-10.6304867318
 20
23.2231861587
 10
-10.6267838816
 20
23.2170549928
 10
-10.6225882567
 20
23.2110084085
 10
-10.6179014786
 20
23.205045942
 10
-10.6127261214
 20
23.199168057
 10
-10.6070632404
 20
23.1934146064
 10
-10.6009174965
 20
23.1877851844
 10
-10.5942945874
 20
23.1822801967
 10
-10.5871976951
 20
23.1769407141
 10
-10.5796347916
 20
23.1717664006
 10
-10.5716150594
 20
23.1667575922
 10
-10.5631442164
 20
23.1619563668
 10
-10.554233882
 20
23.1573625195
 10
-10.544897167
 20
23.1529762552
 10
-10.5351430254
 20
23.1488402671
 10
-10.5249871321
 20
23.1449546011
 10
-10.5144470274
 20
23.1413192112
 10
-10.5035358548
 20
23.1379766523
 10
-10.4922738698
 20
23.1349274029
 10
-10.4806834708
 20
23.1321709844
 10
-10.4687828486
 20
23.1297485157
 10
-10.456584335
 20
23.1276610792
 10
-10.4441281847
 20
23.1259075925
 10
-10.4314781276
 20
23.1245259271
 10
-10.4186775292
 20
23.123528707
 10
-10.405747957
 20
23.1229033082
 10
-10.3927234819
 20
23.1226497308
  0
LWPOLYLINE
  5
2C5
100
AcDbEntity
  8
RACCORDO
100
AcDbPolyline
 62
250
  6
CONTINUOUS
 90
8
 70
0
 10
-10.5050052219
 20
21.9344112891
 10
-10.5056007407
 20
21.9490424141
 10
-10.50620192
 20
21.9618813478
 10
-10.5068087579
 20
21.9729126334
 10
-10.5074190413
 20
21.9821230466
 10
-10.5080320322
 20
21.9895011462
 10
-10.5086484685
 20
21.9950375331
 10
-10.5092683502
 20
21.998725222
  0
LINE
  5
2C6
100
AcDbEntity
  8
RACCORDO
100
AcDbLine
 62
250
  6
CONTINUOUS
 10
-10.9926189971
 20
21.4148944764
 11
-10.9937594056
 21
21.4428344556
  0
LWPOLYLINE
  5
2C7
100
AcDbEntity
  8
RACCORDO
100
AcDbPolyline
 62
250
  6
CONTINUOUS
 90
31
 70
0
 10
-10.6369014213
 20
23.8443375673
 10
-10.6365228657
 20
23.833039595
 10
-10.6354637381
 20
23.821769291
 10
-10.6337263616
 20
23.8105574212
 10
-10.6313146602
 20
23.7994336121
 10
-10.6282347899
 20
23.78842936
 10
-10.6244957389
 20
23.7775778202
 10
-10.6201081945
 20
23.7669096972
 10
-10.6150837955
 20
23.7564530239
 10
-10.6094361149
 20
23.746236105
 10
-10.6031804223
 20
23.7362866999
 10
-10.5963338477
 20
23.7266321754
 10
-10.5889152395
 20
23.7172991519
 10
-10.5809449354
 20
23.7083132018
 10
-10.5724446406
 20
23.6996987826
 10
-10.5634375501
 20
23.6914794042
 10
-10.5539482465
 20
23.6836775075
 10
-10.5440026594
 20
23.6763144193
 10
-10.5336279765
 20
23.6694102704
 10
-10.5228525441
 20
23.6629839239
 10
-10.5117057861
 20
23.6570529269
 10
-10.500218149
 20
23.6516334796
 10
-10.4884209923
 20
23.6467403776
 10
-10.4763465559
 20
23.6423869945
 10
-10.4640278763
 20
23.6385852371
 10
-10.4514986409
 20
23.6353454907
 10
-10.4387930381
 20
23.6326765842
 10
-10.4259457173
 20
23.6305857918
 10
-10.41299175
 20
23.6290788219
 10
-10.3999665362
 20
23.6281597935
 10
-10.3869056521
 20
23.6278312164
  0
LWPOLYLINE
  5
2C8
100
AcDbEntity
  8
RACCORDO
100
AcDbPolyline
 62
250
  6
CONTINUOUS
 90
31
 70
0
 10
-8.2630985787
 20
-23.8443375673
 10
-8.2634779104
 20
-23.8330274168
 10
-8.2645388924
 20
-23.8217481519
 10
-8.2662786273
 20
-23.810530574
 10
-8.2686923642
 20
-23.7994053159
 10
-8.2717735118
 20
-23.7884027584
 10
-8.275513656
 20
-23.7775529472
 10
-8.2799025834
 20
-23.7668855107
 10
-8.2849283087
 20
-23.7564295797
 10
-8.2905771077
 20
-23.7462137069
 10
-8.2968335547
 20
-23.7362657898
 10
-8.3036805646
 20
-23.7266129942
 10
-8.3110994397
 20
-23.7172816797
 10
-8.3190699206
 20
-23.7082973282
 10
-8.3275702417
 20
-23.6996844742
 10
-8.3365771902
 20
-23.6914666374
 10
-8.3460661701
 20
-23.6836662592
 10
-8.356011269
 20
-23.6763046407
 10
-8.3663853289
 20
-23.6694018849
 10
-8.3771600204
 20
-23.6629768418
 10
-8.3883059201
 20
-23.6570470569
 10
-8.3997925909
 20
-23.6516287232
 10
-8.4115886651
 20
-23.646736637
 10
-8.42366193
 20
-23.6423841576
 10
-8.4359794162
 20
-23.6385831707
 10
-8.448507487
 20
-23.6353440559
 10
-8.4612119311
 20
-23.6326756587
 10
-8.4740580552
 20
-23.6305852658
 10
-8.4870107793
 20
-23.6290785857
 10
-8.5000347321
 20
-23.6281597328
 10
-8.5130943479
 20
-23.6278312164
  0
LINE
  5
2C9
100
AcDbEntity
  8
RACCORDO
100
AcDbLine
 62
250
  6
CONTINUOUS
 10
-10.991516358
 20
21.3824536385
 11
-10.9926189971
 21
21.4148944764
  0
LINE
  5
2CA
100
AcDbEntity
  8
RACCORDO
100
AcDbLine
 62
250
  6
CONTINUOUS
 10
-10.5038333684
 20
21.8998479905
 11
-10.5050052219
 21
21.9344112891
  0
LINE
  5
2CB
100
AcDbEntity
  8
RACCORDO
100
AcDbLine
 62
250
  6
CONTINUOUS
 10
-10.5026930615
 20
21.8583645094
 11
-10.5038333684
 21
21.8998479905
  0
LINE
  5
2CC
100
AcDbEntity
  8
RACCORDO
100
AcDbLine
 62
250
  6
CONTINUOUS
 10
-10.989943126
 20
21.3256503956
 11
-10.991516358
 21
21.3824536385
  0
LINE
  5
2CD
100
AcDbEntity
  8
RACCORDO
100
AcDbLine
 62
250
  6
CONTINUOUS
 10
-10.9889559289
 20
21.2826316848
 11
-10.989943126
 21
21.3256503956
  0
LINE
  5
2CE
100
AcDbEntity
  8
RACCORDO
100
AcDbLine
 62
250
  6
CONTINUOUS
 10
-10.5010542015
 20
21.7836206686
 11
-10.5026930615
 21
21.8583645094
  0
LINE
  5
2CF
100
AcDbEntity
  8
RACCORDO
100
AcDbLine
 62
250
  6
CONTINUOUS
 10
-10.4990303221
 20
21.6619284735
 11
-10.5010542015
 21
21.7836206686
  0
LINE
  5
2D0
100
AcDbEntity
  8
RACCORDO
100
AcDbLine
 62
250
  6
CONTINUOUS
 10
-10.4968145891
 20
21.4778718322
 11
-10.4990303221
 21
21.6619284735
  0
LINE
  5
2D1
100
AcDbEntity
  8
RACCORDO
100
AcDbLine
 62
250
  6
CONTINUOUS
 10
-10.4947058045
 20
21.2177853363
 11
-10.4968145891
 21
21.4778718322
  0
LINE
  5
2D2
100
AcDbEntity
  8
RACCORDO
100
AcDbLine
 62
250
  6
CONTINUOUS
 10
-10.4931189603
 20
20.8750401679
 11
-10.4947058045
 21
21.2177853363
  0
LINE
  5
2D3
100
AcDbEntity
  8
RACCORDO
100
AcDbLine
 62
250
  6
CONTINUOUS
 10
-10.4925763118
 20
20.5624683248
 11
-10.4931189603
 21
20.8750401679
  0
LINE
  5
2D4
100
AcDbEntity
  8
RACCORDO
100
AcDbLine
 62
250
  6
CONTINUOUS
 10
-10.4900341781
 20
16.6474258676
 11
-10.4925763118
 21
20.5624683248
  0
LINE
  5
2D5
100
AcDbEntity
  8
RACCORDO
100
AcDbLine
 62
250
  6
CONTINUOUS
 10
-10.4872242079
 20
10.773021139
 11
-10.4900341781
 21
16.6474258676
  0
LINE
  5
2D6
100
AcDbEntity
  8
RACCORDO
100
AcDbLine
 62
250
  6
CONTINUOUS
 10
-10.48601984
 20
6.8558745557
 11
-10.4872242079
 21
10.773021139
  0
LINE
  5
2D7
100
AcDbEntity
  8
RACCORDO
100
AcDbLine
 62
250
  6
CONTINUOUS
 10
-10.4852168911
 20
0.9794407092
 11
-10.48601984
 21
6.8558745557
  0
LINE
  5
2D8
100
AcDbEntity
  8
RACCORDO
100
AcDbLine
 62
250
  6
CONTINUOUS
 10
-10.3927234819
 20
-23.1226497308
 11
-10.3927234819
 21
-22.3213883311
  0
LINE
  5
2D9
100
AcDbEntity
  8
RACCORDO
100
AcDbLine
 62
250
  6
CONTINUOUS
 10
-10.3927234819
 20
22.3213883311
 11
-10.3927234819
 21
23.1226497308
  0
LINE
  5
2DA
100
AcDbEntity
  8
RACCORDO
100
AcDbLine
 62
250
  6
CONTINUOUS
 10
-10.3869056521
 20
-23.6278312164
 11
-10.3869056521
 21
-24.4869014213
  0
LINE
  5
2DB
100
AcDbEntity
  8
RACCORDO
100
AcDbLine
 62
250
  6
CONTINUOUS
 10
-10.3869056521
 20
23.6278312164
 11
-10.3869056521
 21
24.4869014213
  0
LINE
  5
2DC
100
AcDbEntity
  8
RACCORDO
100
AcDbLine
 62
250
  6
CONTINUOUS
 10
-10.4853507138
 20
-2.938307102
 11
-10.4852168911
 21
0.9794407092
  0
LWPOLYLINE
  5
2DD
100
AcDbEntity
  8
RACCORDO
100
AcDbPolyline
 62
250
  6
CONTINUOUS
 90
3
 70
0
 10
-10.4865551187
 20
-8.8145154878
 10
-10.48601984
 20
-6.8558745555
 10
-10.4853507138
 20
-2.938307102
  0
LWPOLYLINE
  5
2DE
100
AcDbEntity
  8
RACCORDO
100
AcDbPolyline
 62
250
  6
CONTINUOUS
 90
3
 70
0
 10
-10.4889637623
 20
-14.6895063768
 10
-10.4880271014
 20
-12.7313614503
 10
-10.4865551187
 20
-8.8145154878
  0
LINE
  5
2DF
100
AcDbEntity
  8
RACCORDO
100
AcDbLine
 62
250
  6
CONTINUOUS
 10
-10.4912383613
 20
-18.6050898662
 11
-10.4889637623
 21
-14.6895063768
  0
LINE
  5
2E0
100
AcDbEntity
  8
RACCORDO
100
AcDbLine
 62
250
  6
CONTINUOUS
 10
-10.4932841677
 20
-20.925888119
 11
-10.4912383613
 21
-18.6050898662
  0
LINE
  5
2E1
100
AcDbEntity
  8
RACCORDO
100
AcDbLine
 62
250
  6
CONTINUOUS
 10
-10.4950119683
 20
-21.2636734115
 11
-10.4932841677
 21
-20.925888119
  0
LINE
  5
2E2
100
AcDbEntity
  8
RACCORDO
100
AcDbLine
 62
250
  6
CONTINUOUS
 10
-10.4972270372
 20
-21.5172903707
 11
-10.4950119683
 21
-21.2636734115
  0
LINE
  5
2E3
100
AcDbEntity
  8
RACCORDO
100
AcDbLine
 62
250
  6
CONTINUOUS
 10
-10.4995169641
 20
-21.6946046842
 11
-10.4972270372
 21
-21.5172903707
  0
LINE
  5
2E4
100
AcDbEntity
  8
RACCORDO
100
AcDbLine
 62
250
  6
CONTINUOUS
 10
-10.5015905085
 20
-21.8101651503
 11
-10.4995169641
 21
-21.6946046842
  0
LINE
  5
2E5
100
AcDbEntity
  8
RACCORDO
100
AcDbLine
 62
250
  6
CONTINUOUS
 10
-10.9904552994
 20
-21.3456219776
 11
-10.9889556719
 21
-21.2826196512
  0
LINE
  5
2E6
100
AcDbEntity
  8
RACCORDO
100
AcDbLine
 62
250
  6
CONTINUOUS
 10
-10.5032592684
 20
-21.87995906
 11
-10.5015905085
 21
-21.8101651503
  0
LINE
  5
2E7
100
AcDbEntity
  8
RACCORDO
100
AcDbLine
 62
250
  6
CONTINUOUS
 10
-10.9915160867
 20
-21.3824449762
 11
-10.9904552994
 21
-21.3456219776
  0
LWPOLYLINE
  5
2E8
100
AcDbEntity
  8
RACCORDO
100
AcDbPolyline
 62
250
  6
CONTINUOUS
 90
31
 70
0
 10
-10.6369014213
 20
-23.8443375673
 10
-10.6365220896
 20
-23.8330274168
 10
-10.6354611076
 20
-23.8217481519
 10
-10.6337213727
 20
-23.810530574
 10
-10.6313076358
 20
-23.7994053159
 10
-10.6282264882
 20
-23.7884027584
 10
-10.624486344
 20
-23.7775529472
 10
-10.6200974166
 20
-23.7668855107
 10
-10.6150716913
 20
-23.7564295797
 10
-10.6094228923
 20
-23.7462137069
 10
-10.6031664453
 20
-23.7362657898
 10
-10.5963194354
 20
-23.7266129942
 10
-10.5889005603
 20
-23.7172816797
 10
-10.5809300794
 20
-23.7082973282
 10
-10.5724297583
 20
-23.6996844742
 10
-10.5634228098
 20
-23.6914666374
 10
-10.5539338299
 20
-23.6836662592
 10
-10.543988731
 20
-23.6763046407
 10
-10.5336146711
 20
-23.6694018849
 10
-10.5228399796
 20
-23.6629768418
 10
-10.5116940799
 20
-23.6570470569
 10
-10.5002074091
 20
-23.6516287232
 10
-10.4884113349
 20
-23.646736637
 10
-10.47633807
 20
-23.6423841576
 10
-10.4640205838
 20
-23.6385831707
 10
-10.451492513
 20
-23.6353440559
 10
-10.4387880689
 20
-23.6326756587
 10
-10.4259419448
 20
-23.6305852658
 10
-10.4129892207
 20
-23.6290785857
 10
-10.3999652679
 20
-23.6281597328
 10
-10.3869056521
 20
-23.6278312164
  0
LWPOLYLINE
  5
2E9
100
AcDbEntity
  8
RACCORDO
100
AcDbPolyline
 62
250
  6
CONTINUOUS
 90
31
 70
0
 10
-8.2630985787
 20
23.8443375673
 10
-8.2634771343
 20
23.833039595
 10
-8.2645362619
 20
23.821769291
 10
-8.2662736384
 20
23.8105574212
 10
-8.2686853398
 20
23.7994336121
 10
-8.2717652101
 20
23.78842936
 10
-8.2755042611
 20
23.7775778202
 10
-8.2798918055
 20
23.7669096972
 10
-8.2849162045
 20
23.7564530239
 10
-8.2905638851
 20
23.746236105
 10
-8.2968195777
 20
23.7362866999
 10
-8.3036661523
 20
23.7266321754
 10
-8.3110847605
 20
23.7172991519
 10
-8.3190550646
 20
23.7083132018
 10
-8.3275553594
 20
23.6996987826
 10
-8.3365624499
 20
23.6914794042
 10
-8.3460517535
 20
23.6836775075
 10
-8.3559973406
 20
23.6763144193
 10
-8.3663720235
 20
23.6694102704
 10
-8.3771474559
 20
23.6629839239
 10
-8.3882942139
 20
23.6570529269
 10
-8.399781851
 20
23.6516334796
 10
-8.4115790077
 20
23.6467403776
 10
-8.4236534441
 20
23.6423869945
 10
-8.4359721237
 20
23.6385852371
 10
-8.4485013591
 20
23.6353454907
 10
-8.4612069619
 20
23.6326765842
 10
-8.4740542827
 20
23.6305857918
 10
-8.48700825
 20
23.6290788219
 10
-8.5000334638
 20
23.6281597935
 10
-8.5130943479
 20
23.6278312164
  0
LINE
  5
2EA
100
AcDbEntity
  8
RACCORDO
100
AcDbLine
 62
250
  6
CONTINUOUS
 10
-10.9926187235
 20
-21.414887133
 11
-10.9915160867
 21
-21.3824449762
  0
LWPOLYLINE
  5
2EB
100
AcDbEntity
  8
RACCORDO
100
AcDbPolyline
 62
7
  6
CONTINUOUS
 90
34
 70
0
 10
-10.6427192511
 20
-23.2669872981
 10
-10.6424215247
 20
-23.260745719
 10
-10.6416502733
 20
-23.254472608
 10
-10.6403999106
 20
-23.2481861919
 10
-10.6386658633
 20
-23.2419121598
 10
-10.6364444206
 20
-23.2356626215
 10
-10.6337324006
 20
-23.2294361375
 10
-10.6305279037
 20
-23.2232532001
 10
-10.6268299792
 20
-23.2171335699
 10
-10.6226377282
 20
-23.2110754134
 10
-10.617952244
 20
-23.2051002367
 10
-10.6127756021
 20
-23.199228829
 10
-10.6071092313
 20
-23.1934590071
 10
-10.6009574474
 20
-23.1878130261
 10
-10.594325665
 20
-23.182312533
 10
-10.5872178622
 20
-23.1769551973
 10
-10.5796418667
 20
-23.171763745
 10
-10.5716067847
 20
-23.1667604362
 10
-10.5631195591
 20
-23.1619430222
 10
-10.5541918496
 20
-23.1573343288
 10
-10.5448368709
 20
-23.1529569199
 10
-10.5350651963
 20
-23.148808872
 10
-10.5248926851
 20
-23.1449126131
 10
-10.514337098
 20
-23.1412905703
 10
-10.5034134972
 20
-23.137941334
 10
-10.4921424397
 20
-23.1348863009
 10
-10.4805465152
 20
-23.1321470947
 10
-10.4686458174
 20
-23.1297228132
 10
-10.4564789897
 20
-23.1276360125
 10
-10.4440609348
 20
-23.1259025536
 10
-10.4313769407
 20
-23.1245164325
 10
-10.4184422301
 20
-23.1234933505
 10
-10.4053037286
 20
-23.1228641607
 10
-10.3919962532
 20
-23.1226497308
  0
LWPOLYLINE
  5
2EC
100
AcDbEntity
  8
RACCORDO
100
AcDbPolyline
 62
7
  6
CONTINUOUS
 90
34
 70
0
 10
-8.2572807489
 20
23.2669872981
 10
-8.2575784753
 20
23.260745719
 10
-8.2583497267
 20
23.254472608
 10
-8.2596000894
 20
23.2481861919
 10
-8.2613341367
 20
23.2419121598
 10
-8.2635555794
 20
23.2356626215
 10
-8.2662675994
 20
23.2294361375
 10
-8.2694720963
 20
23.2232532001
 10
-8.2731700208
 20
23.2171335699
 10
-8.2773622718
 20
23.2110754134
 10
-8.282047756
 20
23.2051002367
 10
-8.2872243979
 20
23.199228829
 10
-8.2928907687
 20
23.1934590071
 10
-8.2990425526
 20
23.1878130261
 10
-8.305674335
 20
23.182312533
 10
-8.3127821378
 20
23.1769551973
 10
-8.3203581333
 20
23.171763745
 10
-8.3283932153
 20
23.1667604362
 10
-8.3368804409
 20
23.1619430222
 10
-8.3458081504
 20
23.1573343288
 10
-8.3551631291
 20
23.1529569199
 10
-8.3649348037
 20
23.148808872
 10
-8.3751073149
 20
23.1449126131
 10
-8.385662902
 20
23.1412905703
 10
-8.3965865028
 20
23.137941334
 10
-8.4078575603
 20
23.1348863009
 10
-8.4194534848
 20
23.1321470947
 10
-8.4313541826
 20
23.1297228132
 10
-8.4435210103
 20
23.1276360125
 10
-8.4559390652
 20
23.1259025536
 10
-8.4686230593
 20
23.1245164325
 10
-8.4815577699
 20
23.1234933505
 10
-8.4946962714
 20
23.1228641607
 10
-8.5080037468
 20
23.1226497308
  0
LWPOLYLINE
  5
2ED
100
AcDbEntity
  8
0
100
AcDbPolyline
 62
7
  6
CONTINUOUS
 90
3
 70
0
 43
0.3500000006
 10
1.1428571477
 20
33.5357164307
 10
1.0714285848
 20
33.3214274139
 10
0.9285714591
 20
33.0357162781
  0
LINE
  5
2EE
100
AcDbEntity
  8
RACCORDO
100
AcDbLine
 62
250
  6
CONTINUOUS
 10
10.4000042308
 20
24.5
 11
10.3869056521
 21
24.4869014213
  0
LINE
  5
2EF
100
AcDbEntity
  8
RACCORDO
100
AcDbLine
 62
250
  6
CONTINUOUS
 10
10.65
 20
24.2500042308
 11
10.6369014213
 21
24.2369056521
  0
LINE
  5
2F0
100
AcDbEntity
  8
RACCORDO
100
AcDbLine
 62
250
  6
CONTINUOUS
 10
10.4000042308
 20
-24.5
 11
10.3869056521
 21
-24.4869014213
  0
LINE
  5
2F1
100
AcDbEntity
  8
RACCORDO
100
AcDbLine
 62
250
  6
CONTINUOUS
 10
10.65
 20
-24.2500042308
 11
10.6369014213
 21
-24.2369056521
  0
LWPOLYLINE
  5
2F2
100
AcDbEntity
  8
RACCORDO
100
AcDbPolyline
 62
250
  6
CONTINUOUS
 90
31
 70
0
 10
-8.2630985787
 20
24.2369056521
 10
-8.2634399859
 20
24.249957992
 10
-8.2644632485
 20
24.2629828864
 10
-8.2661668528
 20
24.275944661
 10
-8.2685479829
 20
24.2888103798
 10
-8.2716010963
 20
24.3015418449
 10
-8.275316536
 20
24.3140960295
 10
-8.2796830871
 20
24.3264358334
 10
-8.284689517
 20
24.3385301896
 10
-8.2903222656
 20
24.3503462678
 10
-8.2965660673
 20
24.3618518682
 10
-8.3034037491
 20
24.3730151866
 10
-8.3108163791
 20
24.3838052658
 10
-8.3187835214
 20
24.3941923917
 10
-8.3272834183
 20
24.4041482289
 10
-8.3362928401
 20
24.4136455633
 10
-8.3457871333
 20
24.4226583824
 10
-8.3557402367
 20
24.4311619239
 10
-8.366124826
 20
24.4391328321
 10
-8.3769124163
 20
24.446549239
 10
-8.3880734423
 20
24.4533908148
 10
-8.3995772981
 20
24.4596387939
 10
-8.4113924437
 20
24.4652760422
 10
-8.4234864809
 20
24.4702870977
 10
-8.435826237
 20
24.4746582128
 10
-8.4483778845
 20
24.4783774023
 10
-8.4611069984
 20
24.4814344634
 10
-8.4739786381
 20
24.4838210061
 10
-8.4869574955
 20
24.4855304893
 10
-8.5000079938
 20
24.4865582323
 10
-8.5130943479
 20
24.4869014213
  0
LWPOLYLINE
  5
2F3
100
AcDbEntity
  8
RACCORDO
100
AcDbPolyline
 62
7
  6
CONTINUOUS
 90
34
 70
0
 10
-8.25
 20
24.2500042308
 10
-8.2502831502
 20
24.261899516
 10
-8.2511319658
 20
24.2737678556
 10
-8.2525445259
 20
24.2855823661
 10
-8.2545176323
 20
24.2973162875
 10
-8.2570468183
 20
24.3089430388
 10
-8.2601263583
 20
24.320436279
 10
-8.2637492787
 20
24.3317699738
 10
-8.2679073742
 20
24.3429184493
 10
-8.2725912278
 20
24.3538564463
 10
-8.2777902312
 20
24.3645591876
 10
-8.2834926084
 20
24.3750024283
 10
-8.2896854419
 20
24.3851625059
 10
-8.2963547045
 20
24.3950164051
 10
-8.3034852893
 20
24.4045418038
 10
-8.3110610411
 20
24.4137171191
 10
-8.3190647995
 20
24.4225215661
 10
-8.3274784339
 20
24.4309352005
 10
-8.3362828809
 20
24.4389389589
 10
-8.3454581962
 20
24.4465147107
 10
-8.3549835949
 20
24.4536452955
 10
-8.3648374941
 20
24.4603145581
 10
-8.3749975717
 20
24.4665073916
 10
-8.3854408124
 20
24.4722097688
 10
-8.3961435537
 20
24.4774087722
 10
-8.4070815507
 20
24.4820926258
 10
-8.4182300262
 20
24.4862507213
 10
-8.429563721
 20
24.4898736417
 10
-8.4410569612
 20
24.4929531817
 10
-8.4526837125
 20
24.4954823677
 10
-8.4644176339
 20
24.4974554741
 10
-8.4762321444
 20
24.4988680342
 10
-8.488100484
 20
24.4997168498
 10
-8.4999957692
 20
24.5
  0
LINE
  5
2F4
100
AcDbEntity
  8
RACCORDO
100
AcDbLine
 62
250
  6
CONTINUOUS
 10
-8.5130943479
 20
23.6278312164
 11
-8.5080037468
 21
23.1226497308
  0
LINE
  5
2F5
100
AcDbEntity
  8
RACCORDO
100
AcDbLine
 62
250
  6
CONTINUOUS
 10
-8.2630985787
 20
23.8443375673
 11
-8.2572807489
 21
23.2669872981
  0
LINE
  5
2F6
100
AcDbEntity
  8
RACCORDO
100
AcDbLine
 62
250
  6
CONTINUOUS
 10
-8.5130943479
 20
-23.6278312164
 11
-8.5130943479
 21
-24.4869014213
  0
LINE
  5
2F7
100
AcDbEntity
  8
RACCORDO
100
AcDbLine
 62
250
  6
CONTINUOUS
 10
-8.5130943479
 20
23.6278312164
 11
-8.5130943479
 21
24.4869014213
  0
LINE
  5
2F8
100
AcDbEntity
  8
RACCORDO
100
AcDbLine
 62
250
  6
CONTINUOUS
 10
-8.5072765181
 20
23.1226497308
 11
-8.5072765181
 21
22.3213883311
  0
LINE
  5
2F9
100
AcDbEntity
  8
RACCORDO
100
AcDbLine
 62
250
  6
CONTINUOUS
 10
-8.5072765181
 20
-22.3213883311
 11
-8.5072765181
 21
-23.1226497308
  0
LINE
  5
2FA
100
AcDbEntity
  8
RACCORDO
100
AcDbLine
 62
250
  6
CONTINUOUS
 10
-8.2630985787
 20
-24.2369056521
 11
-8.2630985787
 21
-23.8443375673
  0
LINE
  5
2FB
100
AcDbEntity
  8
RACCORDO
100
AcDbLine
 62
250
  6
CONTINUOUS
 10
-8.2630985787
 20
23.8443375673
 11
-8.2630985787
 21
24.2369056521
  0
LINE
  5
2FC
100
AcDbEntity
  8
RACCORDO
100
AcDbLine
 62
250
  6
CONTINUOUS
 10
-8.2572807489
 20
23.2669872981
 11
-8.2572807489
 21
22.3344140523
  0
LINE
  5
2FD
100
AcDbEntity
  8
RACCORDO
100
AcDbLine
 62
250
  6
CONTINUOUS
 10
-8.2572807489
 20
-22.3344140523
 11
-8.2572807489
 21
-23.2669872981
  0
LINE
  5
2FE
100
AcDbEntity
  8
RACCORDO
100
AcDbLine
 62
7
  6
CONTINUOUS
 10
-8.25
 20
-22.4
 11
-8.25
 21
-24.2500042308
  0
LINE
  5
2FF
100
AcDbEntity
  8
RACCORDO
100
AcDbLine
 62
7
  6
CONTINUOUS
 10
-8.25
 20
22.4
 11
-8.25
 21
24.2500042308
  0
LINE
  5
300
100
AcDbEntity
  8
RACCORDO
100
AcDbLine
 62
250
  6
CONTINUOUS
 10
-8.5080037468
 20
-23.1226497308
 11
-8.5130943479
 21
-23.6278312164
  0
LINE
  5
301
100
AcDbEntity
  8
RACCORDO
100
AcDbLine
 62
250
  6
CONTINUOUS
 10
-8.2572807489
 20
-23.2669872981
 11
-8.2630985787
 21
-23.8443375673
  0
LINE
  5
302
100
AcDbEntity
  8
RACCORDO
100
AcDbLine
 62
7
  6
CONTINUOUS
 10
-10.6427192511
 20
-22.3339351971
 11
-10.65
 21
-22.3999487714
  0
LWPOLYLINE
  5
303
100
AcDbEntity
  8
RACCORDO
100
AcDbPolyline
 62
250
  6
CONTINUOUS
 90
112
 70
0
 10
-0.0
 20
-7.3674715284
 10
0.1686877932
 20
-7.3695266999
 10
0.3373412553
 20
-7.3757809198
 10
0.5059603865
 20
-7.3862341856
 10
0.6746911644
 20
-7.4008867152
 10
0.8433876113
 20
-7.4197382815
 10
1.0116117941
 20
-7.4427882123
 10
1.1793614201
 20
-7.4700561619
 10
1.346638782
 20
-7.501522457
 10
1.5130128256
 20
-7.5371274323
 10
1.6784738873
 20
-7.5768882056
 10
1.8430316307
 20
-7.6207876304
 10
2.006283992
 20
-7.6687146422
 10
2.1681873988
 20
-7.720668094
 10
2.3287854235
 20
-7.7766490949
 10
2.4878067195
 20
-7.836549963
 10
2.6452346848
 20
-7.9003674673
 10
2.8010859214
 20
-7.9681047914
 10
2.9551388894
 20
-8.0396638742
 10
3.1074128088
 20
-8.1150584299
 10
3.2578884596
 20
-8.1942746868
 10
3.4062866429
 20
-8.2771733541
 10
3.55261478
 20
-8.3637697514
 10
3.6968654495
 20
-8.4540484921
 10
3.8387371883
 20
-8.5478242262
 10
3.9782158236
 20
-8.6450995642
 10
4.1153155281
 20
-8.7458718201
 10
4.2497773565
 20
-8.849947699
 10
4.3815903242
 20
-8.9573279098
 10
4.5107654158
 20
-9.0680116599
 10
4.6370766401
 20
-9.1818034042
 10
4.7605224053
 20
-9.2987109346
 10
4.8811043033
 20
-9.4187263677
 10
4.9986011175
 20
-9.5416306475
 10
5.113010032
 20
-9.6674326439
 10
5.2243338628
 20
-9.7961233892
 10
5.3323598423
 20
-9.9274570748
 10
5.4370726829
 20
-10.0614247331
 10
5.5384876722
 20
-10.1980352296
 10
5.6364379049
 20
-10.3370695093
 10
5.7309291992
 20
-10.4785481485
 10
5.821955737
 20
-10.6224504642
 10
5.9093331589
 20
-10.7684955194
 10
5.9930539475
 20
-10.9166907364
 10
6.0731256201
 20
-11.0670285858
 10
6.1493863693
 20
-11.2192057116
 10
6.2218223752
 20
-11.3732131633
 10
6.2904474578
 20
-11.5290597868
 10
6.3551412693
 20
-11.6864689303
 10
6.4158979764
 20
-11.8454436117
 10
6.4727234124
 20
-12.0059807119
 10
6.5255147293
 20
-12.1677943838
 10
6.5742665674
 20
-12.330892852
 10
6.6189842864
 20
-12.4952677968
 10
6.659581117
 20
-12.660608567
 10
6.6960487938
 20
-12.8269172088
 10
6.7283955822
 20
-12.9941915907
 10
6.7565595093
 20
-13.1621148093
 10
6.7805321272
 20
-13.3306853367
 10
6.8003218837
 20
-13.4999046282
 10
6.8158921499
 20
-13.6694602717
 10
6.8272352723
 20
-13.8393525492
 10
6.8343589043
 20
-14.0095811206
 10
6.8372493777
 20
-14.1798326579
 10
6.8358988806
 20
-14.350108641
 10
6.8303152247
 20
-14.5204075488
 10
6.820508178
 20
-14.6904115701
 10
6.8064696441
 20
-14.8601205344
 10
6.7882077192
 20
-15.0295345904
 10
6.7657564596
 20
-15.1983364244
 10
6.739108076
 20
-15.3665239765
 10
6.7082703577
 20
-15.5340993059
 10
6.6733007287
 20
-15.7007512982
 10
6.6341915488
 20
-15.8664781575
 10
6.5909504583
 20
-16.0312817008
 10
6.5436578013
 20
-16.1948562516
 10
6.4923056175
 20
-16.3572005391
 10
6.4369018673
 20
-16.5183158773
 10
6.377550776
 20
-16.6779004885
 10
6.3142444185
 20
-16.835952022
 10
6.2469907199
 20
-16.9924728936
 10
6.1759176809
 20
-17.1471684947
 10
6.1010193691
 20
-17.3000328752
 10
6.0223017168
 20
-17.4510720716
 10
5.9399105213
 20
-17.6000094741
 10
5.8538402221
 20
-17.7468401851
 10
5.7640963797
 20
-17.8915692077
 10
5.6708414728
 20
-18.0339348003
 10
5.5740658932
 20
-18.1739371907
 10
5.4737792491
 20
-18.311576273
 10
5.3701728442
 20
-18.4465898211
 10
5.2632358188
 20
-18.5789762914
 10
5.1529790326
 20
-18.7087373639
 10
5.0396263682
 20
-18.835615662
 10
4.9231794936
 20
-18.959596686
 10
4.8036367409
 20
-19.0806950837
 10
4.681216989
 20
-19.1986972128
 10
4.5559276277
 20
-19.3135897272
 10
4.4277612673
 20
-19.4253861268
 10
4.2969146176
 20
-19.5339130465
 10
4.1633703564
 20
-19.6391778623
 10
4.0271458059
 20
-19.7411733524
 10
3.8884896431
 20
-19.8397042615
 10
3.7473684767
 20
-19.9347783701
 10
3.603815698
 20
-20.0263880503
 10
3.458180157
 20
-20.1143149405
 10
3.310445847
 20
-20.1985469639
 10
3.1606287747
 20
-20.2790963456
 10
3.0091258105
 20
-20.3557811819
 10
2.8560692443
 20
-20.4285408857
 10
2.7013267862
 20
-20.4974361826
 10
2.5448984361
 20
-20.562467137
  0
LWPOLYLINE
  5
304
100
AcDbEntity
  8
RACCORDO
100
AcDbPolyline
 62
250
  6
CONTINUOUS
 90
112
 70
0
 10
-0.0
 20
-7.8600279044
 10
0.156213974
 20
-7.8619532375
 10
0.3125849716
 20
-7.8677405457
 10
0.469016966
 20
-7.8774049604
 10
0.6254494602
 20
-7.8909628301
 10
0.7817483327
 20
-7.9084227043
 10
0.9377068999
 20
-7.929776299
 10
1.0932279766
 20
-7.9550210459
 10
1.2482132438
 20
-7.9841517729
 10
1.4024565001
 20
-8.0171363634
 10
1.5558562299
 20
-8.0539553013
 10
1.7083223531
 20
-8.0945891695
 10
1.8596697916
 20
-8.1389874786
 10
2.0097694456
 20
-8.1871059861
 10
2.1585670985
 20
-8.2389208964
 10
2.3059926641
 20
-8.2944037649
 10
2.4519421671
 20
-8.3535116096
 10
2.5963408553
 20
-8.4162102741
 10
2.7391614685
 20
-8.4824873911
 10
2.8803341609
 20
-8.5523136009
 10
3.0197512294
 20
-8.625638725
 10
3.1573279628
 20
-8.7024206097
 10
3.2929892375
 20
-8.7826203648
 10
3.426638728
 20
-8.8661841234
 10
3.5581629042
 20
-8.9530419469
 10
3.6874729099
 20
-9.0431341268
 10
3.8144970561
 20
-9.1364096656
 10
3.9391513666
 20
-9.2328059964
 10
4.0613536434
 20
-9.3322578787
 10
4.181034958
 20
-9.4347075013
 10
4.2981331353
 20
-9.5401010629
 10
4.4125784956
 20
-9.6483761507
 10
4.5242973214
 20
-9.759463323
 10
4.6332229095
 20
-9.8732966058
 10
4.7392904728
 20
-9.9898090209
 10
4.8424311888
 20
-10.1089257039
 10
4.9425752635
 20
-10.2305660927
 10
5.0396516651
 20
-10.3546424651
 10
5.1336106005
 20
-10.4810896763
 10
5.2244152732
 20
-10.6098599765
 10
5.3120176994
 20
-10.7408907316
 10
5.3963507169
 20
-10.8740870771
 10
5.4773506165
 20
-11.0093516099
 10
5.554967484
 20
-11.1466031355
 10
5.6291511285
 20
-11.285755123
 10
5.6998434211
 20
-11.4266986107
 10
5.7669959804
 20
-11.5693340246
 10
5.8305740372
 20
-11.7135842014
 10
5.8905439855
 20
-11.8593717583
 10
5.9468688426
 20
-12.006607046
 10
5.9995134239
 20
-12.1551983223
 10
6.0484485052
 20
-12.3050644015
 10
6.0936444885
 20
-12.4561182784
 10
6.1350706605
 20
-12.6082611879
 10
6.1726992139
 20
-12.7613933251
 10
6.2065063925
 20
-12.9154199931
 10
6.2364707856
 20
-13.0702457661
 10
6.2625725281
 20
-13.2257686945
 10
6.2847951047
 20
-13.3818898259
 10
6.3031252169
 20
-13.5385149667
 10
6.3175517611
 20
-13.6955486883
 10
6.3280656577
 20
-13.8528933957
 10
6.334660315
 20
-14.0104518872
 10
6.337331688
 20
-14.168129066
 10
6.3360777848
 20
-14.3258285512
 10
6.3308990503
 20
-14.4834512833
 10
6.3217986614
 20
-14.6408981421
 10
6.3087820261
 20
-14.7980718928
 10
6.2918570454
 20
-14.9548747552
 10
6.2710345673
 20
-15.111207081
 10
6.2463276315
 20
-15.2669711443
 10
6.2177514526
 20
-15.4220712624
 10
6.185323928
 20
-15.5764114255
 10
6.1490651626
 20
-15.7298959064
 10
6.1089976087
 20
-15.8824296846
 10
6.0651462094
 20
-16.0339186265
 10
6.0175377867
 20
-16.184269816
 10
5.9662020841
 20
-16.3333891185
 10
5.9111720732
 20
-16.4811817188
 10
5.8524817607
 20
-16.6275566978
 10
5.7901678805
 20
-16.7724228491
 10
5.7242713797
 20
-16.9156864852
 10
5.6548347052
 20
-17.0572567725
 10
5.5819002625
 20
-17.1970486407
 10
5.5055122952
 20
-17.3349787
 10
5.4257190492
 20
-17.4709604935
 10
5.3425694936
 20
-17.6049112065
 10
5.2561114058
 20
-17.7367543618
 10
5.1663950891
 20
-17.8664123765
 10
5.0734786042
 20
-17.9938004994
 10
4.9774243847
 20
-18.1188336063
 10
4.8782888191
 20
-18.2414384812
 10
4.7761366051
 20
-18.3615352822
 10
4.6710472768
 20
-18.4790327349
 10
4.5630948605
 20
-18.5938517604
 10
4.4523405062
 20
-18.7059308982
 10
4.3388478465
 20
-18.8152085695
 10
4.222697982
 20
-18.9216093082
 10
4.1039540208
 20
-19.0250778564
 10
3.9826521083
 20
-19.125582454
 10
3.8588525454
 20
-19.2230693693
 10
3.7326430611
 20
-19.3174658129
 10
3.6041009458
 20
-19.4087114429
 10
3.4732796883
 20
-19.4967641891
 10
3.3402828484
 20
-19.5815502921
 10
3.2052686064
 20
-19.6629704438
 10
3.0683187813
 20
-19.7409802593
 10
2.9295240452
 20
-19.8155329385
 10
2.7890645903
 20
-19.8865412358
 10
2.6470635723
 20
-19.9539578862
 10
2.5035830311
 20
-20.0177680923
 10
2.3587158718
 20
-20.0779436818
  0
LINE
  5
305
100
AcDbEntity
  8
RACCORDO
100
AcDbLine
 62
7
  6
CONTINUOUS
 10
-10.65
 20
22.3999487714
 11
-10.6427192511
 21
22.3339351971
  0
LWPOLYLINE
  5
306
100
AcDbEntity
  8
RACCORDO
100
AcDbPolyline
 62
250
  6
CONTINUOUS
 90
10
 70
0
 10
-10.5092683502
 20
-21.998725222
 10
-10.5086484614
 20
-21.995037509
 10
-10.5080320202
 20
-21.9895010881
 10
-10.5074190264
 20
-21.9821229525
 10
-10.5068087433
 20
-21.9729125149
 10
-10.5062019076
 20
-21.961881221
 10
-10.50560073
 20
-21.949042281
 10
-10.5050052108
 20
-21.934411143
 10
-10.5044153496
 20
-21.9180060897
 10
-10.5032592684
 20
-21.87995906
  0
LWPOLYLINE
  5
307
100
AcDbEntity
  8
RACCORDO
100
AcDbPolyline
 62
250
  6
CONTINUOUS
 90
11
 70
0
 10
-10.9991937208
 20
-21.5093967499
 10
-10.9985741709
 20
-21.5069059554
 10
-10.9979579686
 20
-21.5031818412
 10
-10.9973451138
 20
-21.4982244075
 10
-10.9967348344
 20
-21.4920244571
 10
-10.9961279025
 20
-21.4845911872
 10
-10.9955266346
 20
-21.4759521886
 10
-10.9949310695
 20
-21.4661029396
 10
-10.9943411685
 20
-21.4550479619
 10
-10.9937591319
 20
-21.4428284112
 10
-10.9926187235
 20
-21.414887133
  0
LINE
  5
308
100
AcDbEntity
  8
RACCORDO
100
AcDbLine
 62
250
  6
CONTINUOUS
 10
2.5091941796
 20
20.4731998898
 11
2.4585270491
 21
20.3450889351
  0
LINE
  5
309
100
AcDbEntity
  8
RACCORDO
100
AcDbLine
 62
250
  6
CONTINUOUS
 10
2.5448957681
 20
20.5624683241
 11
2.5091941796
 21
20.4731998898
  0
LWPOLYLINE
  5
30A
100
AcDbEntity
  8
RACCORDO
100
AcDbPolyline
 62
250
  6
CONTINUOUS
 90
127
 70
0
 10
-0.0
 20
-6.8468718661
 10
-0.1692817536
 20
-6.8448026746
 10
-0.3385229414
 20
-6.8385079833
 10
-0.5077235632
 20
-6.8279877899
 10
-0.6770297689
 20
-6.813241672
 10
-0.8462954088
 20
-6.7942700434
 10
-1.015082033
 20
-6.7710741537
 10
-1.1833873464
 20
-6.74363443
 10
-1.3512136441
 20
-6.7119704281
 10
-1.5181293617
 20
-6.6761420893
 10
-1.6841248094
 20
-6.6361323924
 10
-1.8492096769
 20
-6.5919583337
 10
-2.0129814692
 20
-6.5437308799
 10
-2.1753982533
 20
-6.491450554
 10
-2.3365019623
 20
-6.435116802
 10
-2.4960159002
 20
-6.3748389736
 10
-2.6539244456
 20
-6.3106193154
 10
-2.8102432199
 20
-6.2424555451
 10
-2.9647423919
 20
-6.1704502193
 10
-3.1174383278
 20
-6.0945906036
 10
-3.2683146614
 20
-6.0148893935
 10
-3.4170924619
 20
-5.9314872898
 10
-3.5637772817
 20
-5.844370568
 10
-3.7083635685
 20
-5.7535529126
 10
-3.8505557347
 20
-5.65921614
 10
-3.9903419359
 20
-5.5613566407
 10
-4.1277340165
 20
-5.4599779855
 10
-4.2624719232
 20
-5.3552727633
 10
-4.3945465819
 20
-5.2472384215
 10
-4.5239670666
 20
-5.1358774768
 10
-4.6505005457
 20
-5.0213901253
 10
-4.7741442467
 20
-4.9037690383
 10
-4.8949009421
 20
-4.7830215133
 10
-5.0125461171
 20
-4.6593696886
 10
-5.1270761219
 20
-4.532805447
 10
-5.2384946064
 20
-4.4033368808
 10
-5.3465880056
 20
-4.2712104464
 10
-5.4513483724
 20
-4.1364227073
 10
-5.5527836539
 20
-3.9989770826
 10
-5.6507041269
 20
-3.8591303173
 10
-5.7451020129
 20
-3.7168803186
 10
-5.8359850904
 20
-3.5722291703
 10
-5.9231869718
 20
-3.4254398862
 10
-6.0067021806
 20
-3.2765069594
 10
-6.0865361931
 20
-3.1254358966
 10
-6.1625390509
 20
-2.9725062363
 10
-6.2347050263
 20
-2.8177104604
 10
-6.3030398469
 20
-2.6610560956
 10
-6.3674107364
 20
-2.5028452525
 10
-6.4278088796
 20
-2.3430763035
 10
-6.4842430916
 20
-2.1817508934
 10
-6.536607041
 20
-2.0191760449
 10
-6.5848918693
 20
-1.8553537518
 10
-6.629106435
 20
-1.6902820451
 10
-6.6691709824
 20
-1.5242620066
 10
-6.7050787091
 20
-1.3572889693
 10
-6.7368364175
 20
-1.1893676312
 10
-6.7643847586
 20
-1.0208131248
 10
-6.7877156862
 20
-0.8516122575
 10
-6.8068372466
 20
-0.6817782577
 10
-6.8217142293
 20
-0.5116658916
 10
-6.8323368601
 20
-0.3413005012
 10
-6.8387149132
 20
-0.1706567833
 10
-6.8408425012
 20
-0.0000135377
 10
-6.8387156439
 20
0.1706290843
 10
-6.8323383216
 20
0.3412711942
 10
-6.8217165877
 20
0.5116343871
 10
-6.8068407752
 20
0.6817436624
 10
-6.787720551
 20
0.8515739818
 10
-6.7643909701
 20
1.0207718842
 10
-6.7368439557
 20
1.1893246807
 10
-6.7050875844
 20
1.3572450244
 10
-6.6691811421
 20
1.5242174693
 10
-6.6291177979
 20
1.6902373093
 10
-6.5849043826
 20
1.8553092195
 10
-6.5366206734
 20
2.0191318287
 10
-6.4842578237
 20
2.1817070163
 10
-6.4278246801
 20
2.3430328781
 10
-6.3674275596
 20
2.5028023709
 10
-6.3030576308
 20
2.6610138756
 10
-6.2347237251
 20
2.8176689941
 10
-6.1625586533
 20
2.9724655186
 10
-6.0865566806
 20
3.1253959149
 10
-6.0067235418
 20
3.2764677085
 10
-5.9232092519
 20
3.4254012854
 10
-5.8360083669
 20
3.5721910832
 10
-5.7451263309
 20
3.7168426645
 10
-5.6507294905
 20
3.8590931068
 10
-5.5528100792
 20
3.9989403275
 10
-5.4513758636
 20
4.1363864181
 10
-5.3466164897
 20
4.2711747211
 10
-5.2385239746
 20
4.4033018663
 10
-5.1271063012
 20
4.5327712412
 10
-5.0125770642
 20
4.6593363302
 10
-4.8949325872
 20
4.7829890542
 10
-4.7741765466
 20
4.9037375173
 10
-4.6505335671
 20
5.0213594821
 10
-4.5240009261
 20
5.1358475997
 10
-4.394581346
 20
5.2472092503
 10
-4.2625076193
 20
5.3552442943
 10
-4.1277707411
 20
5.4599501826
 10
-3.9903797162
 20
5.5613295002
 10
-3.8505943516
 20
5.6591898115
 10
-3.7084027163
 20
5.7535276195
 10
-3.5638167414
 20
5.8443464601
 10
-3.4171320273
 20
5.9314644491
 10
-3.2683539324
 20
6.0148679733
 10
-3.1174770983
 20
6.094570686
 10
-2.9647810499
 20
6.1704316048
 10
-2.8102822821
 20
6.2424379264
 10
-2.6539643
 20
6.3106024929
 10
-2.4960571434
 20
6.3748227898
 10
-2.3365456157
 20
6.4351009834
 10
-2.1754449135
 20
6.491434943
 10
-2.0130306667
 20
6.5437157096
 10
-1.8492609491
 20
6.5919439515
 10
-1.6841776869
 20
6.6361190313
 10
-1.5181822883
 20
6.6761300297
 10
-1.3512647383
 20
6.7119600773
 10
-1.1834350519
 20
6.7436260684
 10
-1.0151246823
 20
6.7710677276
 10
-0.846330448
 20
6.7942655134
 10
-0.6770555306
 20
6.8132389846
 10
-0.5077409273
 20
6.8279865145
 10
-0.3385336373
 20
6.8385075636
 10
-0.1692866616
 20
6.8448026801
 10
0.0
 20
6.8468718661
  0
LWPOLYLINE
  5
30B
100
AcDbEntity
  8
RACCORDO
100
AcDbPolyline
 62
250
  6
CONTINUOUS
 90
127
 70
0
 10
0.0
 20
-6.3401011466
 10
-0.1567638128
 20
-6.3381633004
 10
-0.3136805548
 20
-6.3323386252
 10
-0.4706533609
 20
-6.3226122036
 10
-0.627620226
 20
-6.3089679825
 10
-0.7844468854
 20
-6.2913976505
 10
-0.9409278645
 20
-6.2699095349
 10
-1.0969651567
 20
-6.2445064059
 10
-1.2524596314
 20
-6.2151936426
 10
-1.4072062864
 20
-6.182003202
 10
-1.5611027257
 20
-6.1449547709
 10
-1.7140580995
 20
-6.1040679114
 10
-1.8658886423
 20
-6.0593926913
 10
-2.0164659232
 20
-6.0109729682
 10
-2.1657333157
 20
-5.9588330467
 10
-2.3136174483
 20
-5.9030023715
 10
-2.4600146315
 20
-5.8435238314
 10
-2.6048482214
 20
-5.7804323324
 10
-2.7480846426
 20
-5.7137431259
 10
-2.8896509874
 20
-5.6434876203
 10
-3.0294415424
 20
-5.5697157002
 10
-3.1673729866
 20
-5.4924691696
 10
-3.3033676901
 20
-5.4117887842
 10
-3.4373307662
 20
-5.3277280668
 10
-3.569155591
 20
-5.2403526068
 10
-3.6987542577
 20
-5.1497210301
 10
-3.8260523027
 20
-5.055885769
 10
-3.950966608
 20
-4.9589081713
 10
-4.0734157934
 20
-4.858852159
 10
-4.1933280439
 20
-4.7557771662
 10
-4.3106365969
 20
-4.6497403865
 10
-4.4252701513
 20
-4.5408056125
 10
-4.5371551251
 20
-4.4290420936
 10
-4.6462231619
 20
-4.3145172225
 10
-4.7524080667
 20
-4.1972995125
 10
-4.8556411538
 20
-4.0774637678
 10
-4.9558532541
 20
-3.9550895847
 10
-5.0529806607
 20
-3.830254818
 10
-5.1469642781
 20
-3.7030354879
 10
-5.2377451481
 20
-3.5735111234
 10
-5.3252654036
 20
-3.4417644477
 10
-5.4094720352
 20
-3.3078754336
 10
-5.4903159947
 20
-3.171921325
 10
-5.5677473711
 20
-3.0339849021
 10
-5.6417165624
 20
-2.894153338
 10
-5.7121776028
 20
-2.7525120292
 10
-5.7790876521
 20
-2.6091453381
 10
-5.8424026808
 20
-2.4641457818
 10
-5.902078833
 20
-2.3176129002
 10
-5.958078512
 20
-2.1696395138
 10
-6.0103675804
 20
-2.0203163977
 10
-6.058911891
 20
-1.8697418189
 10
-6.1036805979
 20
-1.7180137283
 10
-6.1446476719
 20
-1.5652228562
 10
-6.1817896071
 20
-1.4114576994
 10
-6.2150838621
 20
-1.256811228
 10
-6.2445090336
 20
-1.1013825358
 10
-6.2700465326
 20
-0.9452700212
 10
-6.2916819846
 20
-0.788559895
 10
-6.3094001426
 20
-0.6313607542
 10
-6.3231874785
 20
-0.4738054374
 10
-6.3330369765
 20
-0.3160161631
 10
-6.3389476709
 20
-0.1580674746
 10
-6.340918654
 20
-0.00002096
 10
-6.3389487306
 20
0.1580249843
 10
-6.3330391706
 20
0.3159722009
 10
-6.3231909242
 20
0.4737594623
 10
-6.3094050275
 20
0.6313119489
 10
-6.2916885234
 20
0.7885077354
 10
-6.2700548009
 20
0.9452151892
 10
-6.2445189718
 20
1.1013262019
 10
-6.2150954243
 20
1.2567540646
 10
-6.1818027628
 20
1.4114000947
 10
-6.144662365
 20
1.5651651886
 10
-6.1036967449
 20
1.717956376
 10
-6.0589294609
 20
1.8696848972
 10
-6.0103865629
 20
2.0202599392
 10
-5.9580988669
 20
2.1695836306
 10
-5.9021005181
 20
2.31755769
 10
-5.8424256379
 20
2.4640913647
 10
-5.7791118267
 20
2.6090918061
 10
-5.7122029762
 20
2.7524593857
 10
-5.6417431183
 20
2.8941015839
 10
-5.5677750933
 20
3.0339340409
 10
-5.4903449111
 20
3.1718712856
 10
-5.4095022115
 20
3.3078260977
 10
-5.3252968833
 20
3.4417157529
 10
-5.2377779293
 20
3.5734630874
 10
-5.1469983625
 20
3.7029881246
 10
-5.0530160475
 20
3.8302081464
 10
-4.9558898752
 20
3.9550437087
 10
-4.8556788996
 20
4.0774188294
 10
-4.7524468555
 20
4.1972556048
 10
-4.6462629468
 20
4.3144743895
 10
-4.5371958395
 20
4.4290003958
 10
-4.4253117436
 20
4.5407650885
 10
-4.3106791146
 20
4.6497009794
 10
-4.1933715892
 20
4.7557387804
 10
-4.073460426
 20
4.8588147506
 10
-3.9510123441
 20
4.9588717405
 10
-3.8260992154
 20
5.0558502766
 10
-3.6988023678
 20
5.1496864838
 10
-3.5692046981
 20
5.2403191687
 10
-3.4373805723
 20
5.327695941
 10
-3.3034179721
 20
5.4117580995
 10
-3.1674235491
 20
5.4924400186
 10
-3.0294920172
 20
5.5696882531
 10
-2.8897011627
 20
5.6434619352
 10
-2.7481348519
 20
5.7137189832
 10
-2.6048989487
 20
5.7804094787
 10
-2.4600662419
 20
5.8435021097
 10
-2.3136704734
 20
5.902981594
 10
-2.1657886829
 20
5.9588129284
 10
-2.0165241982
 20
6.0109534237
 10
-1.8659493963
 20
6.0593739876
 10
-1.7141208697
 20
6.1040502893
 10
-1.5611670558
 20
6.1449384319
 10
-1.4072707437
 20
6.1819885331
 10
-1.2525224551
 20
6.2151809856
 10
-1.0970248663
 20
6.2444959192
 10
-0.9409829034
 20
6.2699012771
 10
-0.7844954499
 20
6.2913915966
 10
-0.6276607458
 20
6.3089639525
 10
-0.4706849232
 20
6.3226098547
 10
-0.3137024771
 20
6.3323375395
 10
-0.1567752085
 20
6.3381630187
 10
-0.0
 20
6.3401011466
  0
LINE
  5
30C
100
AcDbEntity
  8
RACCORDO
100
AcDbLine
 62
250
  6
CONTINUOUS
 10
2.5448957681
 20
-20.562468332
 11
2.5091941701
 21
-20.4731999065
  0
LINE
  5
30D
100
AcDbEntity
  8
RACCORDO
100
AcDbLine
 62
250
  6
CONTINUOUS
 10
2.5091941701
 20
-20.4731999065
 11
2.4748170911
 21
-20.3864804437
  0
LINE
  5
30E
100
AcDbEntity
  8
RACCORDO
100
AcDbLine
 62
250
  6
CONTINUOUS
 10
2.4748170911
 20
-20.3864804437
 11
2.4585270352
 21
-20.345088969
  0
LINE
  5
30F
100
AcDbEntity
  8
DRAFT
100
AcDbLine
 62
7
  6
CONTINUOUS
 10
-4.4
 20
-23.8
 11
-4.4
 21
-22.4
  0
LINE
  5
310
100
AcDbEntity
  8
DRAFT
100
AcDbLine
 62
7
  6
CONTINUOUS
 10
-4.4
 20
22.4
 11
-4.4
 21
23.8
  0
LINE
  5
311
100
AcDbEntity
  8
RACCORDO
100
AcDbLine
 62
250
  6
CONTINUOUS
 10
-4.3970741618
 20
23.7970741618
 11
-4.3970741618
 21
22.3736436632
  0
LINE
  5
312
100
AcDbEntity
  8
RACCORDO
100
AcDbLine
 62
250
  6
CONTINUOUS
 10
-4.3970741618
 20
-22.3736436632
 11
-4.3970741618
 21
-23.7970741618
  0
LINE
  5
313
100
AcDbEntity
  8
RACCORDO
100
AcDbLine
 62
250
  6
CONTINUOUS
 10
-3.8970826234
 20
23.5953423515
 11
-3.8970826234
 21
22.3475922207
  0
LINE
  5
314
100
AcDbEntity
  8
RACCORDO
100
AcDbLine
 62
250
  6
CONTINUOUS
 10
-3.8970826234
 20
-22.3475922207
 11
-3.8970826234
 21
-23.5953423515
  0
LINE
  5
315
100
AcDbEntity
  8
RACCORDO
100
AcDbLine
 62
250
  6
CONTINUOUS
 10
-11.1325823343
 20
-21.909888014
 11
-10.9991937208
 21
-21.5093967499
  0
LWPOLYLINE
  5
316
100
AcDbEntity
  8
RACCORDO
100
AcDbPolyline
 62
250
  6
CONTINUOUS
 90
9
 70
0
 10
2.3709498403
 20
20.1161706276
 10
2.3679467485
 20
20.1077592668
 10
2.3653551481
 20
20.1003575054
 10
2.363181066
 20
20.0939825561
 10
2.3614295579
 20
20.0886492439
 10
2.3601046969
 20
20.0843699711
 10
2.359209564
 20
20.0811546892
 10
2.3587462408
 20
20.0790108752
 10
2.3587158046
 20
20.0779435145
  0
LINE
  5
317
100
AcDbEntity
  8
RACCORDO
100
AcDbLine
 62
250
  6
CONTINUOUS
 10
2.3781616234
 20
20.1359416036
 11
2.3709498403
 21
20.1161706276
  0
LINE
  5
318
100
AcDbEntity
  8
RACCORDO
100
AcDbLine
 62
250
  6
CONTINUOUS
 10
2.3869234529
 20
20.159486632
 11
2.3781616234
 21
20.1359416036
  0
LINE
  5
319
100
AcDbEntity
  8
RACCORDO
100
AcDbLine
 62
250
  6
CONTINUOUS
 10
2.4027905958
 20
20.201392609
 11
2.3869234529
 21
20.159486632
  0
LINE
  5
31A
100
AcDbEntity
  8
RACCORDO
100
AcDbLine
 62
250
  6
CONTINUOUS
 10
2.4284996971
 20
20.2681628915
 11
2.4027905958
 21
20.201392609
  0
LINE
  5
31B
100
AcDbEntity
  8
RACCORDO
100
AcDbLine
 62
250
  6
CONTINUOUS
 10
2.4585270491
 20
20.3450889351
 11
2.4284996971
 21
20.2681628915
  0
LINE
  5
31C
100
AcDbEntity
  8
0
100
AcDbLine
 62
7
  6
CONTINUOUS
 10
-0.0
 20
-3.35
 11
-3.0039392337
 21
-3.35
  0
LINE
  5
31D
100
AcDbEntity
  8
ASSI
100
AcDbLine
 62
7
  6
CONTINUOUS
 10
-0.0
 20
-3.35
 11
-3.0039392337
 21
-3.35
  0
LINE
  5
31E
100
AcDbEntity
  8
RACCORDO
100
AcDbLine
 62
250
  6
CONTINUOUS
 10
2.4585270352
 20
-20.345088969
 11
2.4284996862
 21
-20.2681629387
  0
LINE
  5
31F
100
AcDbEntity
  8
RACCORDO
100
AcDbLine
 62
250
  6
CONTINUOUS
 10
2.4284996862
 20
-20.2681629387
 11
2.4027905919
 21
-20.2013926701
  0
LINE
  5
320
100
AcDbEntity
  8
RACCORDO
100
AcDbLine
 62
250
  6
CONTINUOUS
 10
2.4027905919
 20
-20.2013926701
 11
2.3869234565
 21
-20.1594867037
  0
LINE
  5
321
100
AcDbEntity
  8
RACCORDO
100
AcDbLine
 62
250
  6
CONTINUOUS
 10
2.3869234565
 20
-20.1594867037
 11
2.3781616328
 21
-20.1359416821
  0
LWPOLYLINE
  5
322
100
AcDbEntity
  8
RACCORDO
100
AcDbPolyline
 62
250
  6
CONTINUOUS
 90
10
 70
0
 10
2.3781616328
 20
-20.1359416821
 10
2.370949856
 20
-20.1161707129
 10
2.3679467675
 20
-20.1077593554
 10
2.3653551706
 20
-20.1003575972
 10
2.3631810919
 20
-20.0939826511
 10
2.3614295874
 20
-20.088649342
 10
2.36010473
 20
-20.0843700722
 10
2.3592096007
 20
-20.0811547932
 10
2.3587462811
 20
-20.079010982
 10
2.3587158486
 20
-20.0779436241
  0
LINE
  5
323
100
AcDbEntity
  8
RACCORDO
100
AcDbLine
 62
250
  6
CONTINUOUS
 10
-10.9991937208
 20
21.5093967499
 11
-11.1325823343
 21
21.909888014
  0
LINE
  5
324
100
AcDbEntity
  8
RACCORDO
100
AcDbLine
 62
7
  6
CONTINUOUS
 10
-4.4
 20
-22.4
 11
-4.3970741618
 21
-22.3736436632
  0
LINE
  5
325
100
AcDbEntity
  8
RACCORDO
100
AcDbLine
 62
250
  6
CONTINUOUS
 10
-10.5092683502
 20
-21.998725222
 11
-10.6192531143
 21
-22.3289478403
  0
LWPOLYLINE
  5
326
100
AcDbEntity
  8
RACCORDO
100
AcDbPolyline
 62
7
  6
CONTINUOUS
 90
10
 70
0
 10
10.6427192511
 20
22.3339351971
 10
10.6423631553
 20
22.3333200348
 10
10.6414347948
 20
22.3327253649
 10
10.6399361444
 20
22.3321511872
 10
10.6378703061
 20
22.3316044878
 10
10.6352419603
 20
22.3310782807
 10
10.6320577888
 20
22.3305516082
 10
10.6283256396
 20
22.3300174843
 10
10.6240540756
 20
22.329482895
 10
10.6192531143
 20
22.3289478403
  0
LINE
  5
327
100
AcDbEntity
  8
0
100
AcDbLine
 62
7
  6
CONTINUOUS
 10
-4.1861503407
 20
-1.65
 11
0.0
 21
-1.65
  0
LINE
  5
328
100
AcDbEntity
  8
ASSI
100
AcDbLine
 62
7
  6
CONTINUOUS
 10
-4.1861503407
 20
-1.65
 11
0.0
 21
-1.65
  0
LINE
  5
329
100
AcDbEntity
  8
RACCORDO
100
AcDbLine
 62
250
  6
CONTINUOUS
 10
-10.6192531143
 20
22.3289478403
 11
-10.5092683502
 21
21.998725222
  0
LINE
  5
32A
100
AcDbEntity
  8
RACCORDO
100
AcDbLine
 62
7
  6
CONTINUOUS
 10
-4.4
 20
22.4
 11
-4.3970741618
 21
22.3736436632
  0
LINE
  5
32B
100
AcDbEntity
  8
0
100
AcDbLine
 62
7
  6
CONTINUOUS
 10
-0.0
 20
-16.65
 11
-0.0
 21
-13.35
  0
LINE
  5
32C
100
AcDbEntity
  8
ASSI
100
AcDbLine
 62
7
  6
CONTINUOUS
 10
-0.0
 20
-16.65
 11
-0.0
 21
-13.35
  0
LINE
  5
32D
100
AcDbEntity
  8
0
100
AcDbLine
 62
7
  6
CONTINUOUS
 10
-0.0
 20
-11.65
 11
-0.0
 21
-9.7
  0
LINE
  5
32E
100
AcDbEntity
  8
ASSI
100
AcDbLine
 62
7
  6
CONTINUOUS
 10
-0.0
 20
-11.65
 11
-0.0
 21
-9.7
  0
LINE
  5
32F
100
AcDbEntity
  8
0
100
AcDbLine
 62
7
  6
CONTINUOUS
 10
-0.0
 20
-4.5
 11
-0.0
 21
-3.35
  0
LINE
  5
330
100
AcDbEntity
  8
ASSI
100
AcDbLine
 62
7
  6
CONTINUOUS
 10
-0.0
 20
-4.5
 11
-0.0
 21
-3.35
  0
LINE
  5
331
100
AcDbEntity
  8
0
100
AcDbLine
 62
7
  6
CONTINUOUS
 10
0.0
 20
-1.65
 11
0.0
 21
1.65
  0
LINE
  5
332
100
AcDbEntity
  8
ASSI
100
AcDbLine
 62
7
  6
CONTINUOUS
 10
0.0
 20
-1.65
 11
0.0
 21
1.65
  0
LINE
  5
333
100
AcDbEntity
  8
0
100
AcDbLine
 62
7
  6
CONTINUOUS
 10
0.0
 20
3.35
 11
0.0
 21
4.5
  0
LINE
  5
334
100
AcDbEntity
  8
ASSI
100
AcDbLine
 62
7
  6
CONTINUOUS
 10
0.0
 20
3.35
 11
0.0
 21
4.5
  0
LINE
  5
335
100
AcDbEntity
  8
0
100
AcDbLine
 62
7
  6
CONTINUOUS
 10
0.0
 20
9.7
 11
0.0
 21
11.65
  0
LINE
  5
336
100
AcDbEntity
  8
ASSI
100
AcDbLine
 62
7
  6
CONTINUOUS
 10
0.0
 20
9.7
 11
0.0
 21
11.65
  0
LWPOLYLINE
  5
337
100
AcDbEntity
  8
0
100
AcDbPolyline
 62
7
  6
CONTINUOUS
 90
2
 70
0
 43
0.3500000006
 10
18.3999999504
 20
-1.3571429443
 10
16.8999994926
 20
-1.3571429443
  0
LINE
  5
338
100
AcDbEntity
  8
RACCORDO
100
AcDbLine
 62
7
  6
CONTINUOUS
 10
4.4
 20
22.4
 11
4.3970741618
 21
22.3736436632
  0
LWPOLYLINE
  5
339
100
AcDbEntity
  8
RACCORDO
100
AcDbPolyline
 62
7
  6
CONTINUOUS
 90
10
 70
0
 10
-10.6427192511
 20
-22.3339351971
 10
-10.6423631553
 20
-22.3333200348
 10
-10.6414347948
 20
-22.3327253649
 10
-10.6399361444
 20
-22.3321511872
 10
-10.6378703061
 20
-22.3316044878
 10
-10.6352419603
 20
-22.3310782807
 10
-10.6320577888
 20
-22.3305516082
 10
-10.6283256396
 20
-22.3300174843
 10
-10.6240540756
 20
-22.329482895
 10
-10.6192531143
 20
-22.3289478403
  0
LINE
  5
33A
100
AcDbEntity
  8
0
100
AcDbLine
 62
7
  6
CONTINUOUS
 10
0.0
 20
1.65
 11
-4.1861503407
 21
1.65
  0
LINE
  5
33B
100
AcDbEntity
  8
ASSI
100
AcDbLine
 62
7
  6
CONTINUOUS
 10
0.0
 20
1.65
 11
-4.1861503407
 21
1.65
  0
LINE
  5
33C
100
AcDbEntity
  8
RACCORDO
100
AcDbLine
 62
7
  6
CONTINUOUS
 10
4.4
 20
-22.4
 11
4.3970741618
 21
-22.3736436632
  0
LINE
  5
33D
100
AcDbEntity
  8
RACCORDO
100
AcDbLine
 62
250
  6
CONTINUOUS
 10
10.5092683502
 20
21.998725222
 11
10.6192531143
 21
22.3289478403
  0
LINE
  5
33E
100
AcDbEntity
  8
RACCORDO
100
AcDbLine
 62
250
  6
CONTINUOUS
 10
11.1325823343
 20
21.909888014
 11
10.9991937208
 21
21.5093967499
  0
LINE
  5
33F
100
AcDbEntity
  8
0
100
AcDbLine
 62
7
  6
CONTINUOUS
 10
-3.0039392337
 20
3.35
 11
0.0
 21
3.35
  0
LINE
  5
340
100
AcDbEntity
  8
ASSI
100
AcDbLine
 62
7
  6
CONTINUOUS
 10
-3.0039392337
 20
3.35
 11
0.0
 21
3.35
  0
LINE
  5
341
100
AcDbEntity
  8
RACCORDO
100
AcDbLine
 62
250
  6
CONTINUOUS
 10
10.6192531143
 20
-22.3289478403
 11
10.5092683502
 21
-21.998725222
  0
LINE
  5
342
100
AcDbEntity
  8
RACCORDO
100
AcDbLine
 62
250
  6
CONTINUOUS
 10
10.9991937208
 20
-21.5093967499
 11
11.1325823343
 21
-21.909888014
  0
LINE
  5
343
100
AcDbEntity
  8
RACCORDO
100
AcDbLine
 62
250
  6
CONTINUOUS
 10
3.8970826234
 20
-23.5953423515
 11
3.8970826234
 21
-22.3475922207
  0
LINE
  5
344
100
AcDbEntity
  8
RACCORDO
100
AcDbLine
 62
250
  6
CONTINUOUS
 10
3.8970826234
 20
22.3475922207
 11
3.8970826234
 21
23.5953423515
  0
LINE
  5
345
100
AcDbEntity
  8
RACCORDO
100
AcDbLine
 62
250
  6
CONTINUOUS
 10
4.3970741618
 20
-23.7970741618
 11
4.3970741618
 21
-22.3736436632
  0
LINE
  5
346
100
AcDbEntity
  8
RACCORDO
100
AcDbLine
 62
250
  6
CONTINUOUS
 10
4.3970741618
 20
22.3736436632
 11
4.3970741618
 21
23.7970741618
  0
LINE
  5
347
100
AcDbEntity
  8
DRAFT
100
AcDbLine
 62
7
  6
CONTINUOUS
 10
4.4
 20
23.8
 11
4.4
 21
22.4
  0
LINE
  5
348
100
AcDbEntity
  8
DRAFT
100
AcDbLine
 62
7
  6
CONTINUOUS
 10
4.4
 20
-22.4
 11
4.4
 21
-23.8
  0
LWPOLYLINE
  5
349
100
AcDbEntity
  8
RACCORDO
100
AcDbPolyline
 62
250
  6
CONTINUOUS
 90
12
 70
0
 10
10.9991937208
 20
21.5093967499
 10
10.9985742892
 20
21.506906854
 10
10.9979581759
 20
21.5031835556
 10
10.997345381
 20
21.4982268547
 10
10.9967351227
 20
21.4920275198
 10
10.9961281827
 20
21.4845947824
 10
10.9955269065
 20
21.4759563377
 10
10.9949313423
 20
21.4661077039
 10
10.9943414419
 20
21.4550533628
 10
10.9937594056
 20
21.4428344556
 10
10.9931852693
 20
21.4294467491
 10
10.9920626814
 20
21.3992314786
  0
LWPOLYLINE
  5
34A
100
AcDbEntity
  8
RACCORDO
100
AcDbPolyline
 62
250
  6
CONTINUOUS
 90
9
 70
0
 10
-2.370949847
 20
-20.1161706442
 10
-2.3679467553
 20
-20.1077592837
 10
-2.3653551551
 20
-20.1003575226
 10
-2.3631810731
 20
-20.0939825737
 10
-2.361429565
 20
-20.0886492616
 10
-2.3601047041
 20
-20.084369989
 10
-2.3592095713
 20
-20.0811547072
 10
-2.358746248
 20
-20.0790108933
 10
-2.3587158119
 20
-20.0779435326
  0
LINE
  5
34B
100
AcDbEntity
  8
RACCORDO
100
AcDbLine
 62
250
  6
CONTINUOUS
 10
-2.3781616298
 20
-20.1359416192
 11
-2.370949847
 21
-20.1161706442
  0
LINE
  5
34C
100
AcDbEntity
  8
RACCORDO
100
AcDbLine
 62
250
  6
CONTINUOUS
 10
-2.3869234588
 20
-20.1594866466
 11
-2.3781616298
 21
-20.1359416192
  0
LINE
  5
34D
100
AcDbEntity
  8
RACCORDO
100
AcDbLine
 62
250
  6
CONTINUOUS
 10
-2.402790601
 20
-20.2013926217
 11
-2.3869234588
 21
-20.1594866466
  0
LINE
  5
34E
100
AcDbEntity
  8
RACCORDO
100
AcDbLine
 62
250
  6
CONTINUOUS
 10
-2.4284997012
 20
-20.2681629013
 11
-2.402790601
 21
-20.2013926217
  0
LINE
  5
34F
100
AcDbEntity
  8
RACCORDO
100
AcDbLine
 62
250
  6
CONTINUOUS
 10
-2.4665810197
 20
-20.3655796601
 11
-2.4284997012
 21
-20.2681629013
  0
LINE
  5
350
100
AcDbEntity
  8
RACCORDO
100
AcDbLine
 62
250
  6
CONTINUOUS
 10
-2.5180466779
 20
-20.4954067272
 11
-2.4665810197
 21
-20.3655796601
  0
LINE
  5
351
100
AcDbEntity
  8
RACCORDO
100
AcDbLine
 62
250
  6
CONTINUOUS
 10
-2.5448957681
 20
-20.5624683242
 11
-2.5180466779
 21
-20.4954067272
  0
LINE
  5
352
100
AcDbEntity
  8
RACCORDO
100
AcDbLine
 62
250
  6
CONTINUOUS
 10
-2.5448957681
 20
20.5624683333
 11
-2.5091941669
 21
20.4731999055
  0
LINE
  5
353
100
AcDbEntity
  8
RACCORDO
100
AcDbLine
 62
250
  6
CONTINUOUS
 10
-2.5091941669
 20
20.4731999055
 11
-2.4748170853
 21
20.3864804401
  0
LINE
  5
354
100
AcDbEntity
  8
RACCORDO
100
AcDbLine
 62
250
  6
CONTINUOUS
 10
-2.4748170853
 20
20.3864804401
 11
-2.4430399004
 21
20.3055271989
  0
LINE
  5
355
100
AcDbEntity
  8
RACCORDO
100
AcDbLine
 62
250
  6
CONTINUOUS
 10
-2.4430399004
 20
20.3055271989
 11
-2.4150415342
 21
20.2333435188
  0
LINE
  5
356
100
AcDbEntity
  8
RACCORDO
100
AcDbLine
 62
250
  6
CONTINUOUS
 10
-2.4150415342
 20
20.2333435188
 11
-2.3971538639
 21
20.1865868811
  0
LINE
  5
357
100
AcDbEntity
  8
RACCORDO
100
AcDbLine
 62
250
  6
CONTINUOUS
 10
-2.3971538639
 20
20.1865868811
 11
-2.3869234478
 21
20.1594866933
  0
LINE
  5
358
100
AcDbEntity
  8
RACCORDO
100
AcDbLine
 62
250
  6
CONTINUOUS
 10
-2.3869234478
 20
20.1594866933
 11
-2.3781616246
 21
20.1359416714
  0
LWPOLYLINE
  5
359
100
AcDbEntity
  8
RACCORDO
100
AcDbPolyline
 62
250
  6
CONTINUOUS
 90
10
 70
0
 10
-2.3781616246
 20
20.1359416714
 10
-2.3709498484
 20
20.1161707021
 10
-2.3679467602
 20
20.1077593446
 10
-2.3653551637
 20
20.1003575865
 10
-2.3631810856
 20
20.0939826407
 10
-2.3614295815
 20
20.0886493317
 10
-2.3601047247
 20
20.0843700623
 10
-2.359209596
 20
20.0811547837
 10
-2.3587462771
 20
20.079010973
 10
-2.3587158453
 20
20.0779436157
  0
LWPOLYLINE
  5
35A
100
AcDbEntity
  8
RACCORDO
100
AcDbPolyline
 62
250
  6
CONTINUOUS
 90
10
 70
0
 10
10.5092683502
 20
21.998725222
 10
10.5086484685
 20
21.9950375331
 10
10.5080320322
 20
21.9895011462
 10
10.5074190413
 20
21.9821230466
 10
10.5068087579
 20
21.9729126334
 10
10.50620192
 20
21.9618813478
 10
10.5056007407
 20
21.9490424141
 10
10.5050052219
 20
21.9344112891
 10
10.5044153618
 20
21.9180062501
 10
10.5032592816
 20
21.8799592572
  0
LWPOLYLINE
  5
35B
100
AcDbEntity
  8
RACCORDO
100
AcDbPolyline
 62
250
  6
CONTINUOUS
 90
127
 70
0
 10
0.0
 20
6.8468718661
 10
0.1692816741
 20
6.8448026765
 10
0.3385227818
 20
6.8385079911
 10
0.5077233234
 20
6.8279878078
 10
0.6770294481
 20
6.813241704
 10
0.8462950066
 20
6.7942700936
 10
1.0150815502
 20
6.7710742262
 10
1.1833867838
 20
6.743634529
 10
1.3512130025
 20
6.7119705576
 10
1.5181286429
 20
6.6761422531
 10
1.6841240153
 20
6.6361325943
 10
1.8492088094
 20
6.5919585776
 10
2.0129805308
 20
6.5437311691
 10
2.1753972469
 20
6.4914508918
 10
2.3365008904
 20
6.4351171918
 10
2.4960147645
 20
6.3748394191
 10
2.6539232476
 20
6.31061982
 10
2.8102419613
 20
6.2424561126
 10
2.9647410735
 20
6.1704508538
 10
3.1174369494
 20
6.0945913101
 10
3.2683132238
 20
6.0148901762
 10
3.4170909688
 20
5.9314881515
 10
3.5637757366
 20
5.844371512
 10
3.7083619749
 20
5.7535539418
 10
3.8505540998
 20
5.6592172543
 10
3.9903402691
 20
5.5613578384
 10
4.1277323249
 20
5.4599792664
 10
4.2624702099
 20
5.3552741293
 10
4.3945448514
 20
5.2472398728
 10
4.5239653221
 20
5.1358790153
 10
4.6504987835
 20
5.0213917602
 10
4.774142459
 20
4.9037707826
 10
4.8948991253
 20
4.7830233761
 10
5.0125442737
 20
4.6593716752
 10
5.1270742516
 20
4.5328075678
 10
5.2384927117
 20
4.403339141
 10
5.3465861028
 20
4.2712128325
 10
5.4513464837
 20
4.1364251997
 10
5.5527817957
 20
3.9989796679
 10
5.6507023108
 20
3.8591329812
 10
5.7451002554
 20
3.7168830365
 10
5.835983403
 20
3.572231928
 10
5.923185347
 20
3.4254427007
 10
6.0067006052
 20
3.276509852
 10
6.0865346597
 20
3.1254388843
 10
6.1625375493
 20
2.9725093549
 10
6.234703541
 20
2.817713757
 10
6.3030383679
 20
2.661059606
 10
6.3674092673
 20
2.5028489964
 10
6.4278074237
 20
2.3430803123
 10
6.4842416527
 20
2.1817551868
 10
6.5366056388
 20
2.0191805923
 10
6.5848905255
 20
1.8553585439
 10
6.6291051693
 20
1.6902870514
 10
6.6691698242
 20
1.5242670829
 10
6.7050777002
 20
1.3572939592
 10
6.7368355872
 20
1.1893723908
 10
6.7643841096
 20
1.0208174331
 10
6.7877152285
 20
0.8516158467
 10
6.8068369828
 20
0.681780907
 10
6.8217141131
 20
0.5116674435
 10
6.832336834
 20
0.3413007314
 10
6.8387149309
 20
0.1706555343
 10
6.8408425012
 20
0.0000109155
 10
6.8387155358
 20
-0.1706329933
 10
6.8323380438
 20
-0.3412762841
 10
6.8217161503
 20
-0.5116402293
 10
6.8068402101
 20
-0.6817495871
 10
6.7877198684
 20
-0.8515795605
 10
6.7643901859
 20
-1.0207770903
 10
6.7368430933
 20
-1.1893295963
 10
6.7050866598
 20
-1.3572496228
 10
6.6691801541
 20
-1.5242217998
 10
6.6291167393
 20
-1.6902414577
 10
6.5849032523
 20
-1.8553132349
 10
6.5366194715
 20
-2.0191357267
 10
6.4842565498
 20
-2.1817108059
 10
6.4278233344
 20
-2.3430365747
 10
6.3674261453
 20
-2.5028059753
 10
6.3030561515
 20
-2.6610173851
 10
6.2347221841
 20
-2.8176724093
 10
6.1625570563
 20
-2.9724688354
 10
6.0865550342
 20
-3.1253991271
 10
6.0067218519
 20
-3.276470812
 10
5.9232075247
 20
-3.4254042772
 10
5.8360066097
 20
-3.5721939597
 10
5.7451245498
 20
-3.7168454227
 10
5.6507276901
 20
-3.8590957476
 10
5.5528082638
 20
-3.9989428529
 10
5.4513740376
 20
-4.136388829
 10
5.3466146567
 20
-4.2711770197
 10
5.2385221378
 20
-4.4033040552
 10
5.1271044642
 20
-4.5327733227
 10
5.012575231
 20
-4.6593383059
 10
4.8949307618
 20
-4.7829909256
 10
4.774174733
 20
-4.903739286
 10
4.6505317694
 20
-5.0213611501
 10
4.5239991483
 20
-5.1358491685
 10
4.3945795923
 20
-5.2472107217
 10
4.2625058933
 20
-5.3552456706
 10
4.1277690464
 20
-5.4599514661
 10
3.9903780565
 20
-5.5613306932
 10
3.8505927303
 20
-5.6591909166
 10
3.7084011368
 20
-5.7535286394
 10
3.5638152071
 20
-5.8443473974
 10
3.4171305411
 20
-5.9314653069
 10
3.2683524975
 20
-6.0148687545
 10
3.1174757176
 20
-6.0945713936
 10
2.9647797258
 20
-6.1704322421
 10
2.810281017
 20
-6.2424384969
 10
2.6539630963
 20
-6.310603
 10
2.4960560033
 20
-6.3748232371
 10
2.336544541
 20
-6.4351013743
 10
2.1754439064
 20
-6.4914352811
 10
2.0130297291
 20
-6.5437159985
 10
1.849260083
 20
-6.591944195
 10
1.6841768942
 20
-6.6361192329
 10
1.5181815706
 20
-6.6761301932
 10
1.3512640971
 20
-6.7119602067
 10
1.1834344887
 20
-6.7436261674
 10
1.015124198
 20
-6.7710678003
 10
0.8463300435
 20
-6.7942655639
 10
0.6770552066
 20
-6.8132390169
 10
0.5077406841
 20
-6.8279865326
 10
0.338533475
 20
-6.8385075716
 10
0.1692865803
 20
-6.844802682
 10
-0.0
 20
-6.8468718661
  0
LWPOLYLINE
  5
35C
100
AcDbEntity
  8
RACCORDO
100
AcDbPolyline
 62
250
  6
CONTINUOUS
 90
112
 70
0
 10
0.0
 20
7.3674715284
 10
-0.1686877438
 20
7.369526699
 10
-0.337341156
 20
7.3757809153
 10
-0.5059602364
 20
7.3862341747
 10
-0.6746909628
 20
7.4008866952
 10
-0.8433873575
 20
7.4197382496
 10
-1.0116114876
 20
7.4427881659
 10
-1.1793610608
 20
7.4700560986
 10
-1.3466383695
 20
7.5015223741
 10
-1.5130123576
 20
7.537127326
 10
-1.6784733652
 20
7.5768880737
 10
-1.8430310522
 20
7.620787469
 10
-2.0062833426
 20
7.6687144423
 10
-2.168186648
 20
7.7206678402
 10
-2.3287845568
 20
7.7766487781
 10
-2.4878057587
 20
7.8365495871
 10
-2.6452336653
 20
7.9003670397
 10
-2.801084865
 20
7.968104316
 10
-2.9551378133
 20
8.0396633576
 10
-3.1074117393
 20
8.1150578856
 10
-3.257887414
 20
8.1942741216
 10
-3.4062856053
 20
8.2771727571
 10
-3.5526137203
 20
8.3637691051
 10
-3.6968643521
 20
8.4540477857
 10
-3.8387360475
 20
8.5478234513
 10
-3.9782146341
 20
8.6450987114
 10
-4.1153142843
 20
8.745870881
 10
-4.2497760622
 20
8.8499466709
 10
-4.3815889929
 20
8.9573267989
 10
-4.5107640513
 20
9.0680104635
 10
-4.6370752258
 20
9.1818020978
 10
-4.7605208904
 20
9.2987094556
 10
-4.8811026712
 20
9.4187246918
 10
-4.9985994347
 20
9.5416288428
 10
-5.1130083465
 20
9.6674307305
 10
-5.224332241
 20
9.7961214353
 10
-5.3323584878
 20
9.9274553858
 10
-5.4370719243
 20
10.0614237756
 10
-5.538487713
 20
10.198035309
 10
-5.6364387112
 20
10.3370706852
 10
-5.7309306992
 20
10.478550478
 10
-5.8219578966
 20
10.6224540069
 10
-5.9093358193
 20
10.7685000954
 10
-5.9930568855
 20
10.9166960747
 10
-6.0731286771
 20
11.0670345065
 10
-6.1493894554
 20
11.2192120681
 10
-6.221825404
 20
11.3732197995
 10
-6.2904503392
 20
11.5290665564
 10
-6.355143972
 20
11.6864757489
 10
-6.4159004775
 20
11.8454503964
 10
-6.4727256805
 20
12.0059873783
 10
-6.5255167666
 20
12.1678009061
 10
-6.5742683836
 20
12.3308992114
 10
-6.6189858837
 20
12.4952739675
 10
-6.6595825082
 20
12.6606145601
 10
-6.6960499956
 20
12.8269230372
 10
-6.7283966075
 20
12.9941972655
 10
-6.7565603699
 20
13.1621203741
 10
-6.7805328381
 20
13.3306908574
 10
-6.8003224568
 20
13.4999101482
 10
-6.8158925863
 20
13.6694657991
 10
-6.8272355696
 20
13.8393580927
 10
-6.8343590638
 20
14.0095866885
 10
-6.8372494008
 20
14.1798382211
 10
-6.8358987671
 20
14.3501141558
 10
-6.8303149762
 20
14.5204129865
 10
-6.8205078008
 20
14.6904169094
 10
-6.806469147
 20
14.8601257461
 10
-6.7882071086
 20
15.0295396533
 10
-6.7657557394
 20
15.198341349
 10
-6.7391072495
 20
15.3665287849
 10
-6.7082694288
 20
15.5341040085
 10
-6.6732996996
 20
15.7007559014
 10
-6.6341904208
 20
15.86648267
 10
-6.5909492335
 20
16.031286129
 10
-6.5436564841
 20
16.1948605923
 10
-6.4923042109
 20
16.3572047888
 10
-6.4369003756
 20
16.5183200329
 10
-6.3775492087
 20
16.6779045369
 10
-6.3142427874
 20
16.835955944
 10
-6.2469890346
 20
16.9924766763
 10
-6.1759159488
 20
17.1471721347
 10
-6.1010176012
 20
17.3000363658
 10
-6.0222999207
 20
17.4510754095
 10
-5.9399086931
 20
17.600012675
 10
-5.853838358
 20
17.746843268
 10
-5.7640944759
 20
17.8915721883
 10
-5.6708395134
 20
18.0339377034
 10
-5.5740638432
 20
18.173940064
 10
-5.4737770926
 20
18.3115791414
 10
-5.3701706105
 20
18.4465926498
 10
-5.2632335343
 20
18.5789790382
 10
-5.1529767265
 20
18.7087399941
 10
-5.0396241236
 20
18.835618104
 10
-4.9231774497
 20
18.9595988145
 10
-4.8036349807
 20
19.0806968271
 10
-4.6812154808
 20
19.198698623
 10
-4.5559263551
 20
19.3135908654
 10
-4.4277601986
 20
19.4253870449
 10
-4.2969135599
 20
19.5339138928
 10
-4.1633690156
 20
19.6391788665
 10
-4.0271439892
 20
19.7411746627
 10
-3.8884872992
 20
19.8397058778
 10
-3.7473656134
 20
19.9347802395
 10
-3.6038122641
 20
20.0263901725
 10
-3.4581760671
 20
20.1143173257
 10
-3.3104406328
 20
20.1985497834
 10
-3.1606223508
 20
20.2790996095
 10
-3.0091192051
 20
20.3557844274
 10
-2.856063857
 20
20.4285434923
 10
-2.7013236452
 20
20.4974376876
 10
-2.5448985697
 20
20.5624670775
  0
LWPOLYLINE
  5
35D
100
AcDbEntity
  8
RACCORDO
100
AcDbPolyline
 62
250
  6
CONTINUOUS
 90
127
 70
0
 10
0.0
 20
6.3401011466
 10
0.1567637393
 20
6.3381633023
 10
0.3136804071
 20
6.3323386325
 10
0.4706531386
 20
6.3226122202
 10
0.6276199286
 20
6.3089680121
 10
0.7844465126
 20
6.291397697
 10
0.940927417
 20
6.2699096021
 10
1.0969646351
 20
6.2445064975
 10
1.2524590367
 20
6.2151937624
 10
1.4072056201
 20
6.1820033536
 10
1.5611019895
 20
6.1449549579
 10
1.7140572953
 20
6.1040681371
 10
1.8658877724
 20
6.0593929591
 10
2.0164649903
 20
6.010973281
 10
2.1657323223
 20
5.9588334077
 10
2.3136163956
 20
5.903002784
 10
2.460013521
 20
5.8435242987
 10
2.6048470549
 20
5.780432858
 10
2.7480834205
 20
5.7137437135
 10
2.8896497095
 20
5.6434882744
 10
3.0294402098
 20
5.5697164249
 10
3.1673716026
 20
5.4924699675
 10
3.3033662578
 20
5.4117896583
 10
3.437329289
 20
5.3277290196
 10
3.5691540756
 20
5.2403536387
 10
3.6987527128
 20
5.1497221394
 10
3.8260507348
 20
5.0558869552
 10
3.9509650199
 20
4.9589094363
 10
4.0734141896
 20
4.8588535032
 10
4.1933264273
 20
4.7557785913
 10
4.3106349635
 20
4.6497419004
 10
4.4252684939
 20
4.5408072273
 10
4.537153441
 20
4.4290438184
 10
4.6462214531
 20
4.3145190621
 10
4.7524063324
 20
4.1973014758
 10
4.8556393965
 20
4.0774658599
 10
4.9558514903
 20
3.9550917943
 10
5.0529789104
 20
3.8302571265
 10
5.1469625554
 20
3.7030378817
 10
5.2377434647
 20
3.5735135901
 10
5.325263776
 20
3.4417669654
 10
5.4094704727
 20
3.3078779881
 10
5.4903144886
 20
3.1719239312
 10
5.5677459112
 20
3.0339875807
 10
5.6417151425
 20
2.8941561052
 10
5.7121762109
 20
2.7525149169
 10
5.7790862739
 20
2.60914839
 10
5.8424013096
 20
2.464149032
 10
5.9020774713
 20
2.317616367
 10
5.9580771602
 20
2.1696432252
 10
6.0103662441
 20
2.0203203724
 10
6.0589105912
 20
1.8697460298
 10
6.1036793487
 20
1.7180181653
 10
6.1446464911
 20
1.5652274904
 10
6.1817885336
 20
1.4114624
 10
6.2150829273
 20
1.2568158495
 10
6.2445082561
 20
1.1013869429
 10
6.270045931
 20
0.9452740107
 10
6.2916815678
 20
0.7885632201
 10
6.3093998969
 20
0.6313632089
 10
6.3231873708
 20
0.4738068745
 10
6.3330369658
 20
0.3160163765
 10
6.3389476997
 20
0.1580663194
 10
6.340918654
 20
0.000018532
 10
6.3389486403
 20
-0.1580286061
 10
6.3330389353
 20
-0.3159769161
 10
6.3231905188
 20
-0.4737648722
 10
6.3094044785
 20
-0.6313174339
 10
6.2916878759
 20
-0.7885129007
 10
6.270054074
 20
-0.9452200101
 10
6.244518169
 20
-1.1013307529
 10
6.2150945632
 20
-1.256758322
 10
6.181801847
 20
-1.4114041047
 10
6.1446613862
 20
-1.5651690303
 10
6.103695698
 20
-1.7179600945
 10
6.0589283468
 20
-1.8696885067
 10
6.010385383
 20
-2.0202634486
 10
5.95809762
 20
-2.1695870539
 10
5.9020992072
 20
-2.3175610276
 10
5.8424242669
 20
-2.4640946145
 10
5.7791103985
 20
-2.6090949687
 10
5.7122014959
 20
-2.752462457
 10
5.6417415921
 20
-2.8941045583
 10
5.5677735269
 20
-3.0339369148
 10
5.4903433101
 20
-3.171874056
 10
5.4095005824
 20
-3.3078287611
 10
5.3252952322
 20
-3.441718307
 10
5.2377762605
 20
-3.5734655328
 10
5.1469966797
 20
-3.7029904631
 10
5.0530143548
 20
-3.830210379
 10
4.9558881762
 20
-3.9550458372
 10
4.8556771971
 20
-4.0774208564
 10
4.7524451527
 20
-4.1972575323
 10
4.6462612475
 20
-4.3144762189
 10
4.5371941475
 20
-4.4290021286
 10
4.4253100625
 20
-4.5407667264
 10
4.3106774482
 20
-4.6497025239
 10
4.1933699413
 20
-4.7557402331
 10
4.0734588003
 20
-4.8588161131
 10
3.9510107442
 20
-4.958873015
 10
3.8260976445
 20
-5.0558514651
 10
3.6988008294
 20
-5.1496875885
 10
3.5692031953
 20
-5.240320192
 10
3.4373791082
 20
-5.3276968854
 10
3.3034165498
 20
-5.4117589675
 10
3.1674221715
 20
-5.4924408129
 10
3.0294906871
 20
-5.5696889764
 10
2.8896998827
 20
-5.6434625904
 10
2.7481336245
 20
-5.7137195734
 10
2.604897776
 20
-5.780410007
 10
2.4600651261
 20
-5.8435025793
 10
2.3136694165
 20
-5.9029820082
 10
2.1657876868
 20
-5.9588132904
 10
2.0165232646
 20
-6.0109537368
 10
1.8659485271
 20
-6.0593742552
 10
1.7141200669
 20
-6.1040505147
 10
1.561166321
 20
-6.1449386186
 10
1.4072700784
 20
-6.1819886845
 10
1.2525218607
 20
-6.2151811054
 10
1.0970243442
 20
-6.2444960109
 10
0.9409824545
 20
-6.2699013445
 10
0.7844950749
 20
-6.2913916434
 10
0.6276604454
 20
-6.3089639824
 10
0.4706846978
 20
-6.3226098715
 10
0.3137023267
 20
-6.3323375469
 10
0.1567751334
 20
-6.3381630205
 10
0.0
 20
-6.3401011466
  0
LWPOLYLINE
  5
35E
100
AcDbEntity
  8
RACCORDO
100
AcDbPolyline
 62
250
  6
CONTINUOUS
 90
31
 70
0
 10
8.2630985787
 20
23.8443375673
 10
8.2634771343
 20
23.833039595
 10
8.2645362619
 20
23.821769291
 10
8.2662736384
 20
23.8105574212
 10
8.2686853398
 20
23.7994336121
 10
8.2717652101
 20
23.78842936
 10
8.2755042611
 20
23.7775778202
 10
8.2798918055
 20
23.7669096972
 10
8.2849162045
 20
23.7564530239
 10
8.2905638851
 20
23.746236105
 10
8.2968195777
 20
23.7362866999
 10
8.3036661523
 20
23.7266321754
 10
8.3110847605
 20
23.7172991519
 10
8.3190550646
 20
23.7083132018
 10
8.3275553594
 20
23.6996987826
 10
8.3365624499
 20
23.6914794042
 10
8.3460517535
 20
23.6836775075
 10
8.3559973406
 20
23.6763144193
 10
8.3663720235
 20
23.6694102704
 10
8.3771474559
 20
23.6629839239
 10
8.3882942139
 20
23.6570529269
 10
8.399781851
 20
23.6516334796
 10
8.4115790077
 20
23.6467403776
 10
8.4236534441
 20
23.6423869945
 10
8.4359721237
 20
23.6385852371
 10
8.4485013591
 20
23.6353454907
 10
8.4612069619
 20
23.6326765842
 10
8.4740542827
 20
23.6305857918
 10
8.48700825
 20
23.6290788219
 10
8.5000334638
 20
23.6281597935
 10
8.5130943479
 20
23.6278312164
  0
LWPOLYLINE
  5
35F
100
AcDbEntity
  8
RACCORDO
100
AcDbPolyline
 62
250
  6
CONTINUOUS
 90
31
 70
0
 10
8.2630985787
 20
-24.2369056521
 10
8.2634417677
 20
-24.2499920062
 10
8.2644695107
 20
-24.2630425045
 10
8.2661789939
 20
-24.2760213619
 10
8.2685655366
 20
-24.2888930016
 10
8.2716225977
 20
-24.3016221155
 10
8.2753417872
 20
-24.314173763
 10
8.2797129023
 20
-24.3265135191
 10
8.2847239578
 20
-24.3386075563
 10
8.2903612061
 20
-24.3504227019
 10
8.2966091852
 20
-24.3619265577
 10
8.303450761
 20
-24.3730875837
 10
8.3108671679
 20
-24.383875174
 10
8.3188380761
 20
-24.3942597633
 10
8.3273416176
 20
-24.4042128667
 10
8.3363544367
 20
-24.4137071599
 10
8.3458517711
 20
-24.4227165817
 10
8.3558076083
 20
-24.4312164786
 10
8.3661947342
 20
-24.4391836209
 10
8.3769848134
 20
-24.4465962509
 10
8.3881481318
 20
-24.4534339327
 10
8.3996537322
 20
-24.4596777344
 10
8.4114698104
 20
-24.465310483
 10
8.4235641666
 20
-24.4703169129
 10
8.4359039705
 20
-24.474683464
 10
8.4484581551
 20
-24.4783989037
 10
8.4611896202
 20
-24.4814520171
 10
8.474055339
 20
-24.4838331472
 10
8.4870171136
 20
-24.4855367515
 10
8.500042008
 20
-24.4865600141
 10
8.5130943479
 20
-24.4869014213
  0
LWPOLYLINE
  5
360
100
AcDbEntity
  8
RACCORDO
100
AcDbPolyline
 62
7
  6
CONTINUOUS
 90
34
 70
0
 10
8.25
 20
-24.2500042308
 10
8.2502831502
 20
-24.261899516
 10
8.2511319658
 20
-24.2737678556
 10
8.2525445259
 20
-24.2855823661
 10
8.2545176323
 20
-24.2973162875
 10
8.2570468183
 20
-24.3089430388
 10
8.2601263583
 20
-24.320436279
 10
8.2637492787
 20
-24.3317699738
 10
8.2679073742
 20
-24.3429184493
 10
8.2725912278
 20
-24.3538564463
 10
8.2777902312
 20
-24.3645591876
 10
8.2834926084
 20
-24.3750024283
 10
8.2896854419
 20
-24.3851625059
 10
8.2963547045
 20
-24.3950164051
 10
8.3034852893
 20
-24.4045418038
 10
8.3110610411
 20
-24.4137171191
 10
8.3190647995
 20
-24.4225215661
 10
8.3274784339
 20
-24.4309352005
 10
8.3362828809
 20
-24.4389389589
 10
8.3454581962
 20
-24.4465147107
 10
8.3549835949
 20
-24.4536452955
 10
8.3648374941
 20
-24.4603145581
 10
8.3749975717
 20
-24.4665073916
 10
8.3854408124
 20
-24.4722097688
 10
8.3961435537
 20
-24.4774087722
 10
8.4070815507
 20
-24.4820926258
 10
8.4182300262
 20
-24.4862507213
 10
8.429563721
 20
-24.4898736417
 10
8.4410569612
 20
-24.4929531817
 10
8.4526837125
 20
-24.4954823677
 10
8.4644176339
 20
-24.4974554741
 10
8.4762321444
 20
-24.4988680342
 10
8.488100484
 20
-24.4997168498
 10
8.4999957692
 20
-24.5
  0
LINE
  5
361
100
AcDbEntity
  8
RACCORDO
100
AcDbLine
 62
250
  6
CONTINUOUS
 10
8.2630985787
 20
-23.8443375673
 11
8.2572807489
 21
-23.2669872981
  0
LINE
  5
362
100
AcDbEntity
  8
RACCORDO
100
AcDbLine
 62
250
  6
CONTINUOUS
 10
8.5130943479
 20
-23.6278312164
 11
8.5080037468
 21
-23.1226497308
  0
LINE
  5
363
100
AcDbEntity
  8
RACCORDO
100
AcDbLine
 62
7
  6
CONTINUOUS
 10
8.25
 20
-22.4
 11
8.25
 21
-24.2500042308
  0
LINE
  5
364
100
AcDbEntity
  8
RACCORDO
100
AcDbLine
 62
7
  6
CONTINUOUS
 10
8.25
 20
22.4
 11
8.25
 21
24.2500042308
  0
LINE
  5
365
100
AcDbEntity
  8
RACCORDO
100
AcDbLine
 62
250
  6
CONTINUOUS
 10
8.2572807489
 20
-23.2669872981
 11
8.2572807489
 21
-22.3344140523
  0
LINE
  5
366
100
AcDbEntity
  8
RACCORDO
100
AcDbLine
 62
250
  6
CONTINUOUS
 10
8.2572807489
 20
22.3344140523
 11
8.2572807489
 21
23.2669872981
  0
LINE
  5
367
100
AcDbEntity
  8
RACCORDO
100
AcDbLine
 62
250
  6
CONTINUOUS
 10
8.2630985787
 20
24.2369056521
 11
8.2630985787
 21
23.8443375673
  0
LINE
  5
368
100
AcDbEntity
  8
RACCORDO
100
AcDbLine
 62
250
  6
CONTINUOUS
 10
8.2630985787
 20
-23.8443375673
 11
8.2630985787
 21
-24.2369056521
  0
LINE
  5
369
100
AcDbEntity
  8
RACCORDO
100
AcDbLine
 62
250
  6
CONTINUOUS
 10
8.5072765181
 20
-23.1226497308
 11
8.5072765181
 21
-22.3213883311
  0
LINE
  5
36A
100
AcDbEntity
  8
RACCORDO
100
AcDbLine
 62
250
  6
CONTINUOUS
 10
8.5072765181
 20
22.3213883311
 11
8.5072765181
 21
23.1226497308
  0
LINE
  5
36B
100
AcDbEntity
  8
RACCORDO
100
AcDbLine
 62
250
  6
CONTINUOUS
 10
8.5130943479
 20
-23.6278312164
 11
8.5130943479
 21
-24.4869014213
  0
LINE
  5
36C
100
AcDbEntity
  8
RACCORDO
100
AcDbLine
 62
250
  6
CONTINUOUS
 10
8.5130943479
 20
23.6278312164
 11
8.5130943479
 21
24.4869014213
  0
LINE
  5
36D
100
AcDbEntity
  8
RACCORDO
100
AcDbLine
 62
250
  6
CONTINUOUS
 10
8.2572807489
 20
23.2669872981
 11
8.2630985787
 21
23.8443375673
  0
LINE
  5
36E
100
AcDbEntity
  8
RACCORDO
100
AcDbLine
 62
250
  6
CONTINUOUS
 10
8.5080037468
 20
23.1226497308
 11
8.5130943479
 21
23.6278312164
  0
LWPOLYLINE
  5
36F
100
AcDbEntity
  8
RACCORDO
100
AcDbPolyline
 62
250
  6
CONTINUOUS
 90
31
 70
0
 10
8.2630985787
 20
-23.8443375673
 10
8.2634779104
 20
-23.8330274168
 10
8.2645388924
 20
-23.8217481519
 10
8.2662786273
 20
-23.810530574
 10
8.2686923642
 20
-23.7994053159
 10
8.2717735118
 20
-23.7884027584
 10
8.275513656
 20
-23.7775529472
 10
8.2799025834
 20
-23.7668855107
 10
8.2849283087
 20
-23.7564295797
 10
8.2905771077
 20
-23.7462137069
 10
8.2968335547
 20
-23.7362657898
 10
8.3036805646
 20
-23.7266129942
 10
8.3110994397
 20
-23.7172816797
 10
8.3190699206
 20
-23.7082973282
 10
8.3275702417
 20
-23.6996844742
 10
8.3365771902
 20
-23.6914666374
 10
8.3460661701
 20
-23.6836662592
 10
8.356011269
 20
-23.6763046407
 10
8.3663853289
 20
-23.6694018849
 10
8.3771600204
 20
-23.6629768418
 10
8.3883059201
 20
-23.6570470569
 10
8.3997925909
 20
-23.6516287232
 10
8.4115886651
 20
-23.646736637
 10
8.42366193
 20
-23.6423841576
 10
8.4359794162
 20
-23.6385831707
 10
8.448507487
 20
-23.6353440559
 10
8.4612119311
 20
-23.6326756587
 10
8.4740580552
 20
-23.6305852658
 10
8.4870107793
 20
-23.6290785857
 10
8.5000347321
 20
-23.6281597328
 10
8.5130943479
 20
-23.6278312164
  0
LINE
  5
370
100
AcDbEntity
  8
RACCORDO
100
AcDbLine
 62
7
  6
CONTINUOUS
 10
10.6427192511
 20
22.3339351971
 11
10.65
 21
22.3999487714
  0
LWPOLYLINE
  5
371
100
AcDbEntity
  8
RACCORDO
100
AcDbPolyline
 62
250
  6
CONTINUOUS
 90
112
 70
0
 10
0.0
 20
7.8600279044
 10
-0.1562138695
 20
7.861953235
 10
-0.3125847593
 20
7.8677405352
 10
-0.4690166431
 20
7.8774049364
 10
-0.6254490233
 20
7.8909627868
 10
-0.7817477793
 20
7.9084226356
 10
-0.9377062296
 20
7.9297761987
 10
-1.0932271905
 20
7.9550209082
 10
-1.2482123418
 20
7.9841515917
 10
-1.4024554809
 20
8.0171361322
 10
-1.555855096
 20
8.0539550142
 10
-1.7083211037
 20
8.0945888198
 10
-1.8596684138
 20
8.1389870558
 10
-2.0097679124
 20
8.1871054735
 10
-2.1585653985
 20
8.2389202806
 10
-2.3059908195
 20
8.2944030444
 10
-2.4519402116
 20
8.3535107892
 10
-2.5963388102
 20
8.4162093557
 10
-2.7391593517
 20
8.4824863767
 10
-2.8803319995
 20
8.5523124982
 10
-3.0197490403
 20
8.6256375387
 10
-3.1573257325
 20
8.7024193284
 10
-3.2929869413
 20
8.7826189685
 10
-3.4266363545
 20
8.866182598
 10
-3.5581604504
 20
8.9530402822
 10
-3.6874703734
 20
9.0431323123
 10
-3.8144944353
 20
9.1364076904
 10
-3.9391486676
 20
9.2328038552
 10
-4.0613508822
 20
9.3322555738
 10
-4.1810321408
 20
9.4347050284
 10
-4.2981302492
 20
9.5400983996
 10
-4.4125754953
 20
9.6483732406
 10
-4.5242941988
 20
9.7594601399
 10
-4.6332197375
 20
9.8732932073
 10
-4.73928729
 20
9.9898054362
 10
-4.8424280603
 20
10.1089219988
 10
-4.9425724055
 20
10.2305625318
 10
-5.0396493866
 20
10.354639477
 10
-5.1336090694
 20
10.4810875614
 10
-5.2244144606
 20
10.6098587932
 10
-5.3120175611
 20
10.7408905192
 10
-5.3963512188
 20
10.8740878921
 10
-5.4773515988
 20
11.0093532975
 10
-5.5549687509
 20
11.1466054423
 10
-5.6291525508
 20
11.285757873
 10
-5.6998449101
 20
11.4267016739
 10
-5.7669974552
 20
11.5693372608
 10
-5.8305754294
 20
11.7135874698
 10
-5.8905452654
 20
11.8593749832
 10
-5.9468699875
 20
12.0066101541
 10
-5.999514415
 20
12.1552012341
 10
-6.0484493475
 20
12.3050670942
 10
-6.093645191
 20
12.4561207374
 10
-6.1350712309
 20
12.6082633904
 10
-6.1726996691
 20
12.7613952828
 10
-6.2065067491
 20
12.9154217202
 10
-6.2364710583
 20
13.0702472757
 10
-6.2625727349
 20
13.2257700282
 10
-6.284795263
 20
13.3818910469
 10
-6.3031253372
 20
13.5385161183
 10
-6.3175518477
 20
13.6955497804
 10
-6.3280657144
 20
13.8528944387
 10
-6.3346603445
 20
14.0104528913
 10
-6.3373316923
 20
14.1681300073
 10
-6.3360777676
 20
14.325829392
 10
-6.3308990178
 20
14.483452
 10
-6.3217986209
 20
14.640898718
 10
-6.3087819869
 20
14.7980723041
 10
-6.2918570176
 20
14.9548749859
 10
-6.2710345581
 20
15.1112071441
 10
-6.2463276453
 20
15.2669710637
 10
-6.2177514942
 20
15.4220710514
 10
-6.185324002
 20
15.5764110938
 10
-6.1490652725
 20
15.7298954657
 10
-6.1089977577
 20
15.8824291446
 10
-6.0651464029
 20
16.0339179879
 10
-6.0175380299
 20
16.1842690798
 10
-5.9662023823
 20
16.3333882859
 10
-5.9111724355
 20
16.4811807814
 10
-5.8524821994
 20
16.627555642
 10
-5.7901684062
 20
16.7724216678
 10
-5.7242720003
 20
16.915685179
 10
-5.6548354304
 20
17.0572553392
 10
-5.5819011007
 20
17.1970470818
 10
-5.5055132446
 20
17.3349770349
 10
-5.4257201058
 20
17.4709587432
 10
-5.342570653
 20
17.6049093895
 10
-5.2561126555
 20
17.7367525068
 10
-5.1663963986
 20
17.8664105334
 10
-5.073479956
 20
17.9937986937
 10
-4.977425802
 20
18.1188318082
 10
-4.8782903295
 20
18.24143666
 10
-4.7761382365
 20
18.3615334118
 10
-4.6710490993
 20
18.4790307475
 10
-4.563096999
 20
18.5938495418
 10
-4.4523430435
 20
18.7059283936
 10
-4.3388507577
 20
18.8152058353
 10
-4.2227012431
 20
18.9216063945
 10
-4.1039576002
 20
19.0250748148
 10
-3.9826558382
 20
19.1255794409
 10
-3.8588561529
 20
19.2230666006
 10
-3.7326463534
 20
19.3174634137
 10
-3.604103872
 20
19.40870942
 10
-3.4732822579
 20
19.4967625056
 10
-3.3402850105
 20
19.5815489513
 10
-3.2052702777
 20
19.6629694641
 10
-3.0683197547
 20
19.7409797208
 10
-2.9295242302
 20
19.8155328421
 10
-2.7890642377
 20
19.8865414086
 10
-2.6470630596
 20
19.9539581218
 10
-2.503582633
 20
20.0177682635
 10
-2.3587158718
 20
20.0779436818
  0
LINE
  5
372
100
AcDbEntity
  8
RACCORDO
100
AcDbLine
 62
7
  6
CONTINUOUS
 10
10.65
 20
-22.3999487714
 11
10.6427192511
 21
-22.3339351971
  0
LWPOLYLINE
  5
373
100
AcDbEntity
  8
RACCORDO
100
AcDbPolyline
 62
7
  6
CONTINUOUS
 90
34
 70
0
 10
8.2572807489
 20
23.2669872981
 10
8.2575784753
 20
23.260745719
 10
8.2583497267
 20
23.254472608
 10
8.2596000894
 20
23.2481861919
 10
8.2613341367
 20
23.2419121598
 10
8.2635555794
 20
23.2356626215
 10
8.2662675994
 20
23.2294361375
 10
8.2694720963
 20
23.2232532001
 10
8.2731700208
 20
23.2171335699
 10
8.2773622718
 20
23.2110754134
 10
8.282047756
 20
23.2051002367
 10
8.2872243979
 20
23.199228829
 10
8.2928907687
 20
23.1934590071
 10
8.2990425526
 20
23.1878130261
 10
8.305674335
 20
23.182312533
 10
8.3127821378
 20
23.1769551973
 10
8.3203581333
 20
23.171763745
 10
8.3283932153
 20
23.1667604362
 10
8.3368804409
 20
23.1619430222
 10
8.3458081504
 20
23.1573343288
 10
8.3551631291
 20
23.1529569199
 10
8.3649348037
 20
23.148808872
 10
8.3751073149
 20
23.1449126131
 10
8.385662902
 20
23.1412905703
 10
8.3965865028
 20
23.137941334
 10
8.4078575603
 20
23.1348863009
 10
8.4194534848
 20
23.1321470947
 10
8.4313541826
 20
23.1297228132
 10
8.4435210103
 20
23.1276360125
 10
8.4559390652
 20
23.1259025536
 10
8.4686230593
 20
23.1245164325
 10
8.4815577699
 20
23.1234933505
 10
8.4946962714
 20
23.1228641607
 10
8.5080037468
 20
23.1226497308
  0
LWPOLYLINE
  5
374
100
AcDbEntity
  8
RACCORDO
100
AcDbPolyline
 62
7
  6
CONTINUOUS
 90
34
 70
0
 10
10.6427192511
 20
-23.2669872981
 10
10.6424215247
 20
-23.260745719
 10
10.6416502733
 20
-23.254472608
 10
10.6403999106
 20
-23.2481861919
 10
10.6386658633
 20
-23.2419121598
 10
10.6364444206
 20
-23.2356626215
 10
10.6337324006
 20
-23.2294361375
 10
10.6305279037
 20
-23.2232532001
 10
10.6268299792
 20
-23.2171335699
 10
10.6226377282
 20
-23.2110754134
 10
10.617952244
 20
-23.2051002367
 10
10.6127756021
 20
-23.199228829
 10
10.6071092313
 20
-23.1934590071
 10
10.6009574474
 20
-23.1878130261
 10
10.594325665
 20
-23.182312533
 10
10.5872178622
 20
-23.1769551973
 10
10.5796418667
 20
-23.171763745
 10
10.5716067847
 20
-23.1667604362
 10
10.5631195591
 20
-23.1619430222
 10
10.5541918496
 20
-23.1573343288
 10
10.5448368709
 20
-23.1529569199
 10
10.5350651963
 20
-23.148808872
 10
10.5248926851
 20
-23.1449126131
 10
10.514337098
 20
-23.1412905703
 10
10.5034134972
 20
-23.137941334
 10
10.4921424397
 20
-23.1348863009
 10
10.4805465152
 20
-23.1321470947
 10
10.4686458174
 20
-23.1297228132
 10
10.4564789897
 20
-23.1276360125
 10
10.4440609348
 20
-23.1259025536
 10
10.4313769407
 20
-23.1245164325
 10
10.4184422301
 20
-23.1234933505
 10
10.4053037286
 20
-23.1228641607
 10
10.3919962532
 20
-23.1226497308
  0
LWPOLYLINE
  5
375
100
AcDbEntity
  8
RACCORDO
100
AcDbPolyline
 62
250
  6
CONTINUOUS
 90
10
 70
0
 10
10.9937591319
 20
-21.4428284112
 10
10.9943411685
 20
-21.4550479619
 10
10.9949310695
 20
-21.4661029396
 10
10.9955266346
 20
-21.4759521886
 10
10.9961279025
 20
-21.4845911872
 10
10.9967348344
 20
-21.4920244571
 10
10.9973451138
 20
-21.4982244075
 10
10.9979579686
 20
-21.5031818412
 10
10.9985741709
 20
-21.5069059554
 10
10.9991937208
 20
-21.5093967499
  0
LWPOLYLINE
  5
376
100
AcDbEntity
  8
RACCORDO
100
AcDbPolyline
 62
250
  6
CONTINUOUS
 90
8
 70
0
 10
10.5050052108
 20
-21.934411143
 10
10.50560073
 20
-21.949042281
 10
10.5062019076
 20
-21.961881221
 10
10.5068087433
 20
-21.9729125149
 10
10.5074190264
 20
-21.9821229525
 10
10.5080320202
 20
-21.9895010881
 10
10.5086484614
 20
-21.995037509
 10
10.5092683502
 20
-21.998725222
  0
LINE
  5
377
100
AcDbEntity
  8
RACCORDO
100
AcDbLine
 62
250
  6
CONTINUOUS
 10
10.9926187235
 20
-21.414887133
 11
10.9937591319
 21
-21.4428284112
  0
LWPOLYLINE
  5
378
100
AcDbEntity
  8
RACCORDO
100
AcDbPolyline
 62
250
  6
CONTINUOUS
 90
31
 70
0
 10
10.6369014213
 20
-23.8443375673
 10
10.6365220896
 20
-23.8330274168
 10
10.6354611076
 20
-23.8217481519
 10
10.6337213727
 20
-23.810530574
 10
10.6313076358
 20
-23.7994053159
 10
10.6282264882
 20
-23.7884027584
 10
10.624486344
 20
-23.7775529472
 10
10.6200974166
 20
-23.7668855107
 10
10.6150716913
 20
-23.7564295797
 10
10.6094228923
 20
-23.7462137069
 10
10.6031664453
 20
-23.7362657898
 10
10.5963194354
 20
-23.7266129942
 10
10.5889005603
 20
-23.7172816797
 10
10.5809300794
 20
-23.7082973282
 10
10.5724297583
 20
-23.6996844742
 10
10.5634228098
 20
-23.6914666374
 10
10.5539338299
 20
-23.6836662592
 10
10.543988731
 20
-23.6763046407
 10
10.5336146711
 20
-23.6694018849
 10
10.5228399796
 20
-23.6629768418
 10
10.5116940799
 20
-23.6570470569
 10
10.5002074091
 20
-23.6516287232
 10
10.4884113349
 20
-23.646736637
 10
10.47633807
 20
-23.6423841576
 10
10.4640205838
 20
-23.6385831707
 10
10.451492513
 20
-23.6353440559
 10
10.4387880689
 20
-23.6326756587
 10
10.4259419448
 20
-23.6305852658
 10
10.4129892207
 20
-23.6290785857
 10
10.3999652679
 20
-23.6281597328
 10
10.3869056521
 20
-23.6278312164
  0
LINE
  5
379
100
AcDbEntity
  8
RACCORDO
100
AcDbLine
 62
250
  6
CONTINUOUS
 10
10.9915160867
 20
-21.3824449762
 11
10.9926187235
 21
-21.414887133
  0
LINE
  5
37A
100
AcDbEntity
  8
RACCORDO
100
AcDbLine
 62
250
  6
CONTINUOUS
 10
10.5038333554
 20
-21.8998478141
 11
10.5050052108
 21
-21.934411143
  0
LINE
  5
37B
100
AcDbEntity
  8
RACCORDO
100
AcDbLine
 62
250
  6
CONTINUOUS
 10
10.5026930483
 20
-21.8583642879
 11
10.5038333554
 21
-21.8998478141
  0
LINE
  5
37C
100
AcDbEntity
  8
RACCORDO
100
AcDbLine
 62
250
  6
CONTINUOUS
 10
10.9899428618
 20
-21.3256397103
 11
10.9915160867
 21
-21.3824449762
  0
LINE
  5
37D
100
AcDbEntity
  8
RACCORDO
100
AcDbLine
 62
250
  6
CONTINUOUS
 10
10.9884828309
 20
-21.2596564248
 11
10.9899428618
 21
-21.3256397103
  0
LINE
  5
37E
100
AcDbEntity
  8
RACCORDO
100
AcDbLine
 62
250
  6
CONTINUOUS
 10
10.5010541887
 20
-21.7836204185
 11
10.5026930483
 21
-21.8583642879
  0
LINE
  5
37F
100
AcDbEntity
  8
RACCORDO
100
AcDbLine
 62
250
  6
CONTINUOUS
 10
10.9867397816
 20
-21.1586643741
 11
10.9884828309
 21
-21.2596564248
  0
LINE
  5
380
100
AcDbEntity
  8
RACCORDO
100
AcDbLine
 62
250
  6
CONTINUOUS
 10
10.4990303099
 20
-21.6619281931
 11
10.5010541887
 21
-21.7836204185
  0
LINE
  5
381
100
AcDbEntity
  8
RACCORDO
100
AcDbLine
 62
250
  6
CONTINUOUS
 10
10.9849370893
 20
-21.0144484253
 11
10.9867397816
 21
-21.1586643741
  0
LINE
  5
382
100
AcDbEntity
  8
RACCORDO
100
AcDbLine
 62
250
  6
CONTINUOUS
 10
10.4968145789
 20
-21.477871494
 11
10.4990303099
 21
-21.6619281931
  0
LINE
  5
383
100
AcDbEntity
  8
RACCORDO
100
AcDbLine
 62
250
  6
CONTINUOUS
 10
10.3869056521
 20
23.6278312164
 11
10.3919962532
 21
23.1226497308
  0
LINE
  5
384
100
AcDbEntity
  8
RACCORDO
100
AcDbLine
 62
250
  6
CONTINUOUS
 10
10.6369014213
 20
23.8443375673
 11
10.6427192511
 21
23.2669872981
  0
LINE
  5
385
100
AcDbEntity
  8
RACCORDO
100
AcDbLine
 62
250
  6
CONTINUOUS
 10
10.4947057982
 20
-21.2177848983
 11
10.4968145789
 21
-21.477871494
  0
LINE
  5
386
100
AcDbEntity
  8
RACCORDO
100
AcDbLine
 62
250
  6
CONTINUOUS
 10
10.9833956104
 20
-20.8208754778
 11
10.9849370893
 21
-21.0144484253
  0
LINE
  5
387
100
AcDbEntity
  8
RACCORDO
100
AcDbLine
 62
250
  6
CONTINUOUS
 10
10.4931189593
 20
-20.8750396934
 11
10.4947057982
 21
-21.2177848983
  0
LINE
  5
388
100
AcDbEntity
  8
RACCORDO
100
AcDbLine
 62
250
  6
CONTINUOUS
 10
10.9825381847
 20
-20.5778269843
 11
10.9833956104
 21
-20.8208754778
  0
LINE
  5
389
100
AcDbEntity
  8
RACCORDO
100
AcDbLine
 62
250
  6
CONTINUOUS
 10
10.4925763118
 20
-20.5624683248
 11
10.4931189593
 21
-20.8750396934
  0
LWPOLYLINE
  5
38A
100
AcDbEntity
  8
RACCORDO
100
AcDbPolyline
 62
250
  6
CONTINUOUS
 90
3
 70
0
 10
10.4889637623
 20
-14.6895063768
 10
10.4900341781
 20
-16.6474258675
 10
10.4925763118
 20
-20.5624683248
  0
LWPOLYLINE
  5
38B
100
AcDbEntity
  8
RACCORDO
100
AcDbPolyline
 62
250
  6
CONTINUOUS
 90
4
 70
0
 10
10.9788891335
 20
-14.6751117948
 10
10.9799595492
 20
-16.631072282
 10
10.9811637322
 20
-18.5868073856
 10
10.9825381847
 20
-20.5778269843
  0
LINE
  5
38C
100
AcDbEntity
  8
RACCORDO
100
AcDbLine
 62
250
  6
CONTINUOUS
 10
10.4872242079
 20
-10.7730211388
 11
10.4889637623
 21
-14.6895063768
  0
LINE
  5
38D
100
AcDbEntity
  8
RACCORDO
100
AcDbLine
 62
250
  6
CONTINUOUS
 10
10.9771495789
 20
-10.7624545111
 11
10.9788891335
 21
-14.6751117948
  0
LINE
  5
38E
100
AcDbEntity
  8
RACCORDO
100
AcDbLine
 62
250
  6
CONTINUOUS
 10
10.48601984
 20
-6.8558745555
 11
10.4872242079
 21
-10.7730211388
  0
LINE
  5
38F
100
AcDbEntity
  8
RACCORDO
100
AcDbLine
 62
250
  6
CONTINUOUS
 10
10.4853507138
 20
-2.938307102
 11
10.48601984
 21
-6.8558745555
  0
LINE
  5
390
100
AcDbEntity
  8
RACCORDO
100
AcDbLine
 62
250
  6
CONTINUOUS
 10
10.9759452108
 20
-6.8491664559
 11
10.9771495789
 21
-10.7624545111
  0
LINE
  5
391
100
AcDbEntity
  8
RACCORDO
100
AcDbLine
 62
250
  6
CONTINUOUS
 10
10.9752760845
 20
-2.9354279659
 11
10.9759452108
 21
-6.8491664559
  0
LINE
  5
392
100
AcDbEntity
  8
RACCORDO
100
AcDbLine
 62
250
  6
CONTINUOUS
 10
10.3869056521
 20
-23.6278312164
 11
10.3869056521
 21
-24.4869014213
  0
LINE
  5
393
100
AcDbEntity
  8
RACCORDO
100
AcDbLine
 62
250
  6
CONTINUOUS
 10
10.3869056521
 20
23.6278312164
 11
10.3869056521
 21
24.4869014213
  0
LINE
  5
394
100
AcDbEntity
  8
RACCORDO
100
AcDbLine
 62
250
  6
CONTINUOUS
 10
10.3927234819
 20
23.1226497308
 11
10.3927234819
 21
22.3213883311
  0
LINE
  5
395
100
AcDbEntity
  8
RACCORDO
100
AcDbLine
 62
250
  6
CONTINUOUS
 10
10.3927234819
 20
-22.3213883311
 11
10.3927234819
 21
-23.1226497308
  0
LINE
  5
396
100
AcDbEntity
  8
RACCORDO
100
AcDbLine
 62
250
  6
CONTINUOUS
 10
10.6369014213
 20
-24.2369056521
 11
10.6369014213
 21
-23.8443375673
  0
LINE
  5
397
100
AcDbEntity
  8
RACCORDO
100
AcDbLine
 62
250
  6
CONTINUOUS
 10
10.6369014213
 20
23.8443375673
 11
10.6369014213
 21
24.2369056521
  0
LINE
  5
398
100
AcDbEntity
  8
RACCORDO
100
AcDbLine
 62
250
  6
CONTINUOUS
 10
10.6427192511
 20
23.2669872981
 11
10.6427192511
 21
22.3339351971
  0
LINE
  5
399
100
AcDbEntity
  8
RACCORDO
100
AcDbLine
 62
250
  6
CONTINUOUS
 10
10.6427192511
 20
-22.3339351971
 11
10.6427192511
 21
-23.2669872981
  0
LINE
  5
39A
100
AcDbEntity
  8
RACCORDO
100
AcDbLine
 62
7
  6
CONTINUOUS
 10
10.65
 20
-22.3999410061
 11
10.65
 21
-24.2500042308
  0
LINE
  5
39B
100
AcDbEntity
  8
RACCORDO
100
AcDbLine
 62
7
  6
CONTINUOUS
 10
10.65
 20
22.3999410061
 11
10.65
 21
24.2500042308
  0
LWPOLYLINE
  5
39C
100
AcDbEntity
  8
RACCORDO
100
AcDbPolyline
 62
250
  6
CONTINUOUS
 90
3
 70
0
 10
10.4853507138
 20
2.9383071023
 10
10.4852168911
 20
0.9794407092
 10
10.4853507138
 20
-2.938307102
  0
LWPOLYLINE
  5
39D
100
AcDbEntity
  8
RACCORDO
100
AcDbPolyline
 62
250
  6
CONTINUOUS
 90
3
 70
0
 10
10.9752760845
 20
2.9354275224
 10
10.9751422617
 20
0.9784907085
 10
10.9752760845
 20
-2.9354279659
  0
LINE
  5
39E
100
AcDbEntity
  8
RACCORDO
100
AcDbLine
 62
250
  6
CONTINUOUS
 10
10.4865551187
 20
8.814515488
 11
10.4853507138
 21
2.9383071023
  0
LINE
  5
39F
100
AcDbEntity
  8
RACCORDO
100
AcDbLine
 62
250
  6
CONTINUOUS
 10
10.9764804895
 20
8.8058775899
 11
10.9752760845
 21
2.9354275224
  0
LINE
  5
3A0
100
AcDbEntity
  8
RACCORDO
100
AcDbLine
 62
250
  6
CONTINUOUS
 10
10.4880271014
 20
12.7313614504
 11
10.4865551187
 21
8.814515488
  0
LINE
  5
3A1
100
AcDbEntity
  8
RACCORDO
100
AcDbLine
 62
250
  6
CONTINUOUS
 10
10.9779524724
 20
12.7188953699
 11
10.9764804895
 21
8.8058775899
  0
LINE
  5
3A2
100
AcDbEntity
  8
RACCORDO
100
AcDbLine
 62
250
  6
CONTINUOUS
 10
10.4912383613
 20
18.6050898662
 11
10.4880271014
 21
12.7313614504
  0
LINE
  5
3A3
100
AcDbEntity
  8
RACCORDO
100
AcDbLine
 62
250
  6
CONTINUOUS
 10
10.9811637321
 20
18.5868071894
 11
10.9779524724
 21
12.7188953699
  0
LINE
  5
3A4
100
AcDbEntity
  8
RACCORDO
100
AcDbLine
 62
250
  6
CONTINUOUS
 10
10.4932841695
 20
20.9258885749
 11
10.4912383613
 21
18.6050898662
  0
LINE
  5
3A5
100
AcDbEntity
  8
RACCORDO
100
AcDbLine
 62
250
  6
CONTINUOUS
 10
10.9832093939
 20
20.7869759126
 11
10.9811637321
 21
18.5868071894
  0
LINE
  5
3A6
100
AcDbEntity
  8
RACCORDO
100
AcDbLine
 62
250
  6
CONTINUOUS
 10
10.4950119752
 20
21.2636738178
 11
10.4932841695
 21
20.9258885749
  0
LINE
  5
3A7
100
AcDbEntity
  8
RACCORDO
100
AcDbLine
 62
250
  6
CONTINUOUS
 10
10.9846310612
 20
20.9835375248
 11
10.9832093939
 21
20.7869759126
  0
LINE
  5
3A8
100
AcDbEntity
  8
RACCORDO
100
AcDbLine
 62
250
  6
CONTINUOUS
 10
10.3919962532
 20
-23.1226497308
 11
10.3869056521
 21
-23.6278312164
  0
LINE
  5
3A9
100
AcDbEntity
  8
RACCORDO
100
AcDbLine
 62
250
  6
CONTINUOUS
 10
10.6427192511
 20
-23.2669872981
 11
10.6369014213
 21
-23.8443375673
  0
LINE
  5
3AA
100
AcDbEntity
  8
RACCORDO
100
AcDbLine
 62
250
  6
CONTINUOUS
 10
10.4972270481
 20
21.5172907066
 11
10.4950119752
 21
21.2636738178
  0
LINE
  5
3AB
100
AcDbEntity
  8
RACCORDO
100
AcDbLine
 62
250
  6
CONTINUOUS
 10
10.9863445306
 20
21.131333431
 11
10.9846310612
 21
20.9835375248
  0
LINE
  5
3AC
100
AcDbEntity
  8
RACCORDO
100
AcDbLine
 62
250
  6
CONTINUOUS
 10
10.4995169766
 20
21.6946049529
 11
10.4972270481
 21
21.5172907066
  0
LINE
  5
3AD
100
AcDbEntity
  8
RACCORDO
100
AcDbLine
 62
250
  6
CONTINUOUS
 10
10.9880240356
 20
21.2357399909
 11
10.9863445306
 21
21.131333431
  0
LINE
  5
3AE
100
AcDbEntity
  8
RACCORDO
100
AcDbLine
 62
250
  6
CONTINUOUS
 10
10.5015905214
 20
21.8101653997
 11
10.4995169766
 21
21.6946049529
  0
LINE
  5
3AF
100
AcDbEntity
  8
RACCORDO
100
AcDbLine
 62
250
  6
CONTINUOUS
 10
10.9894426277
 20
21.3046242831
 11
10.9880240356
 21
21.2357399909
  0
LINE
  5
3B0
100
AcDbEntity
  8
RACCORDO
100
AcDbLine
 62
250
  6
CONTINUOUS
 10
10.5032592816
 20
21.8799592572
 11
10.5015905214
 21
21.8101653997
  0
LINE
  5
3B1
100
AcDbEntity
  8
RACCORDO
100
AcDbLine
 62
250
  6
CONTINUOUS
 10
10.9909799911
 20
21.3645650733
 11
10.9894426277
 21
21.3046242831
  0
LINE
  5
3B2
100
AcDbEntity
  8
RACCORDO
100
AcDbLine
 62
250
  6
CONTINUOUS
 10
10.9920626814
 20
21.3992314786
 11
10.9909799911
 21
21.3645650733
  0
LWPOLYLINE
  5
3B3
100
AcDbEntity
  8
RACCORDO
100
AcDbPolyline
 62
250
  6
CONTINUOUS
 90
31
 70
0
 10
10.6369014213
 20
23.8443375673
 10
10.6365228657
 20
23.833039595
 10
10.6354637381
 20
23.821769291
 10
10.6337263616
 20
23.8105574212
 10
10.6313146602
 20
23.7994336121
 10
10.6282347899
 20
23.78842936
 10
10.6244957389
 20
23.7775778202
 10
10.6201081945
 20
23.7669096972
 10
10.6150837955
 20
23.7564530239
 10
10.6094361149
 20
23.746236105
 10
10.6031804223
 20
23.7362866999
 10
10.5963338477
 20
23.7266321754
 10
10.5889152395
 20
23.7172991519
 10
10.5809449354
 20
23.7083132018
 10
10.5724446406
 20
23.6996987826
 10
10.5634375501
 20
23.6914794042
 10
10.5539482465
 20
23.6836775075
 10
10.5440026594
 20
23.6763144193
 10
10.5336279765
 20
23.6694102704
 10
10.5228525441
 20
23.6629839239
 10
10.5117057861
 20
23.6570529269
 10
10.500218149
 20
23.6516334796
 10
10.4884209923
 20
23.6467403776
 10
10.4763465559
 20
23.6423869945
 10
10.4640278763
 20
23.6385852371
 10
10.4514986409
 20
23.6353454907
 10
10.4387930381
 20
23.6326765842
 10
10.4259457173
 20
23.6305857918
 10
10.41299175
 20
23.6290788219
 10
10.3999665362
 20
23.6281597935
 10
10.3869056521
 20
23.6278312164
  0
LWPOLYLINE
  5
3B4
100
AcDbEntity
  8
RACCORDO
100
AcDbPolyline
 62
7
  6
CONTINUOUS
 90
34
 70
0
 10
8.2572807489
 20
-23.2669872981
 10
8.2575784753
 20
-23.260745719
 10
8.2583497267
 20
-23.254472608
 10
8.2596000894
 20
-23.2481861919
 10
8.2613341367
 20
-23.2419121598
 10
8.2635555794
 20
-23.2356626215
 10
8.2662675994
 20
-23.2294361375
 10
8.2694720963
 20
-23.2232532001
 10
8.2731700208
 20
-23.2171335699
 10
8.2773622718
 20
-23.2110754134
 10
8.282047756
 20
-23.2051002367
 10
8.2872243979
 20
-23.199228829
 10
8.2928907687
 20
-23.1934590071
 10
8.2990425526
 20
-23.1878130261
 10
8.305674335
 20
-23.182312533
 10
8.3127821378
 20
-23.1769551973
 10
8.3203581333
 20
-23.171763745
 10
8.3283932153
 20
-23.1667604362
 10
8.3368804409
 20
-23.1619430222
 10
8.3458081504
 20
-23.1573343288
 10
8.3551631291
 20
-23.1529569199
 10
8.3649348037
 20
-23.148808872
 10
8.3751073149
 20
-23.1449126131
 10
8.385662902
 20
-23.1412905703
 10
8.3965865028
 20
-23.137941334
 10
8.4078575603
 20
-23.1348863009
 10
8.4194534848
 20
-23.1321470947
 10
8.4313541826
 20
-23.1297228132
 10
8.4435210103
 20
-23.1276360125
 10
8.4559390652
 20
-23.1259025536
 10
8.4686230593
 20
-23.1245164325
 10
8.4815577699
 20
-23.1234933505
 10
8.4946962714
 20
-23.1228641607
 10
8.5080037468
 20
-23.1226497308
  0
LWPOLYLINE
  5
3B5
100
AcDbEntity
  8
RACCORDO
100
AcDbPolyline
 62
7
  6
CONTINUOUS
 90
34
 70
0
 10
10.6427192511
 20
23.2669872981
 10
10.6424198287
 20
23.2606934229
 10
10.6416441239
 20
23.2544088409
 10
10.6403873851
 20
23.2481335519
 10
10.6386460224
 20
23.2418552807
 10
10.6364170759
 20
23.2355863026
 10
10.633697709
 20
23.2293634437
 10
10.6304867318
 20
23.2231861587
 10
10.6267838816
 20
23.2170549928
 10
10.6225882567
 20
23.2110084085
 10
10.6179014786
 20
23.205045942
 10
10.6127261214
 20
23.199168057
 10
10.6070632404
 20
23.1934146064
 10
10.6009174965
 20
23.1877851844
 10
10.5942945874
 20
23.1822801967
 10
10.5871976951
 20
23.1769407141
 10
10.5796347916
 20
23.1717664006
 10
10.5716150594
 20
23.1667575922
 10
10.5631442164
 20
23.1619563668
 10
10.554233882
 20
23.1573625195
 10
10.544897167
 20
23.1529762552
 10
10.5351430254
 20
23.1488402671
 10
10.5249871321
 20
23.1449546011
 10
10.5144470274
 20
23.1413192112
 10
10.5035358548
 20
23.1379766523
 10
10.4922738698
 20
23.1349274029
 10
10.4806834708
 20
23.1321709844
 10
10.4687828486
 20
23.1297485157
 10
10.456584335
 20
23.1276610792
 10
10.4441281847
 20
23.1259075925
 10
10.4314781276
 20
23.1245259271
 10
10.4186775292
 20
23.123528707
 10
10.405747957
 20
23.1229033082
 10
10.3927234819
 20
23.1226497308
  0
LINE
  5
3B6
100
AcDbEntity
  8
RACCORDO
100
AcDbLine
 62
7
  6
CONTINUOUS
 10
8.25
 20
-22.4
 11
8.2572807489
 21
-22.3344140523
  0
LINE
  5
3B7
100
AcDbEntity
  8
RACCORDO
100
AcDbLine
 62
250
  6
CONTINUOUS
 10
-10.65
 20
-24.2500042308
 11
-10.6369014213
 21
-24.2369056521
  0
LINE
  5
3B8
100
AcDbEntity
  8
RACCORDO
100
AcDbLine
 62
250
  6
CONTINUOUS
 10
-10.4000042308
 20
-24.5
 11
-10.3869056521
 21
-24.4869014213
  0
LINE
  5
3B9
100
AcDbEntity
  8
RACCORDO
100
AcDbLine
 62
250
  6
CONTINUOUS
 10
-10.65
 20
24.2500042308
 11
-10.6369014213
 21
24.2369056521
  0
LINE
  5
3BA
100
AcDbEntity
  8
RACCORDO
100
AcDbLine
 62
250
  6
CONTINUOUS
 10
-10.4000042308
 20
24.5
 11
-10.3869056521
 21
24.4869014213
  0
LINE
  5
3BB
100
AcDbEntity
  8
RACCORDO
100
AcDbLine
 62
7
  6
CONTINUOUS
 10
8.25
 20
22.4
 11
8.2572807489
 21
22.3344140523
  0
LWPOLYLINE
  5
3BC
100
AcDbEntity
  8
RACCORDO
100
AcDbPolyline
 62
250
  6
CONTINUOUS
 90
31
 70
0
 10
10.6369014213
 20
24.2369056521
 10
10.6365583827
 20
24.2499891381
 10
10.6355310928
 20
24.2630367647
 10
10.6338223673
 20
24.2760127708
 10
10.6314368893
 20
24.2888815916
 10
10.6283811971
 20
24.3016079562
 10
10.6246636657
 20
24.3141569839
 10
10.6202944842
 20
24.3264942801
 10
10.6152856277
 20
24.3385860308
 10
10.6096508246
 20
24.3503990946
 10
10.6034055187
 20
24.3619010942
 10
10.5965668272
 20
24.3730605047
 10
10.5891534939
 20
24.3838467403
 10
10.5811858371
 20
24.3942302379
 10
10.5726856948
 20
24.4041825384
 10
10.5636763643
 20
24.4136763643
 10
10.5541825384
 20
24.4226856948
 10
10.5442302379
 20
24.4311858371
 10
10.5338467403
 20
24.4391534939
 10
10.5230605047
 20
24.4465668272
 10
10.5119010942
 20
24.4534055187
 10
10.5003990946
 20
24.4596508246
 10
10.4885860308
 20
24.4652856277
 10
10.4764942801
 20
24.4702944842
 10
10.4641569839
 20
24.4746636657
 10
10.4516079562
 20
24.4783811971
 10
10.4388815916
 20
24.4814368893
 10
10.4260127708
 20
24.4838223673
 10
10.4130367647
 20
24.4855310928
 10
10.3999891381
 20
24.4865583827
 10
10.3869056521
 20
24.4869014213
  0
LWPOLYLINE
  5
3BD
100
AcDbEntity
  8
RACCORDO
100
AcDbPolyline
 62
250
  6
CONTINUOUS
 90
34
 70
0
 10
10.9991937208
 20
21.5093967499
 10
10.9986181668
 20
21.5326664083
 10
10.9969353675
 20
21.5558834153
 10
10.9941491304
 20
21.5789952382
 10
10.9902657598
 20
21.6019495819
 10
10.9852940424
 20
21.6246945082
 10
10.9792452277
 20
21.6471785522
 10
10.9721330022
 20
21.6693508398
 10
10.9639734584
 20
21.6911612018
 10
10.9547850587
 20
21.7125602882
 10
10.9445885937
 20
21.7334996796
 10
10.9334071346
 20
21.7539319966
 10
10.9212659815
 20
21.7738110071
 10
10.9081926059
 20
21.7930917313
 10
10.8942165888
 20
21.8117305427
 10
10.8793695534
 20
21.8296852674
 10
10.8636850939
 20
21.8469152795
 10
10.8471986993
 20
21.8633815928
 10
10.8299476732
 20
21.879046949
 10
10.8119710492
 20
21.8938759021
 10
10.7933095027
 20
21.907834899
 10
10.774005259
 20
21.9208923545
 10
10.7541019976
 20
21.9330187237
 10
10.7336447534
 20
21.9441865683
 10
10.7126798148
 20
21.9543706189
 10
10.6912546189
 20
21.963547832
 10
10.6694176442
 20
21.9716974425
 10
10.6472183012
 20
21.9788010101
 10
10.62470682
 20
21.9848424618
 10
10.6019341372
 20
21.9898081274
 10
10.5789517803
 20
21.9936867713
 10
10.5558117513
 20
21.9964696173
 10
10.5325664089
 20
21.9981503685
 10
10.5092683502
 20
21.998725222
  0
LWPOLYLINE
  5
3BE
100
AcDbEntity
  8
RACCORDO
100
AcDbPolyline
 62
7
  6
CONTINUOUS
 90
34
 70
0
 10
10.65
 20
24.2500042308
 10
10.6497168498
 20
24.261899516
 10
10.6488680342
 20
24.2737678556
 10
10.6474554741
 20
24.2855823661
 10
10.6454823677
 20
24.2973162875
 10
10.6429531817
 20
24.3089430388
 10
10.6398736417
 20
24.320436279
 10
10.6362507213
 20
24.3317699738
 10
10.6320926258
 20
24.3429184493
 10
10.6274087722
 20
24.3538564463
 10
10.6222097688
 20
24.3645591876
 10
10.6165073916
 20
24.3750024283
 10
10.6103145581
 20
24.3851625059
 10
10.6036452955
 20
24.3950164051
 10
10.5965147107
 20
24.4045418038
 10
10.5889389589
 20
24.4137171191
 10
10.5809352005
 20
24.4225215661
 10
10.5725215661
 20
24.4309352005
 10
10.5637171191
 20
24.4389389589
 10
10.5545418038
 20
24.4465147107
 10
10.5450164051
 20
24.4536452955
 10
10.5351625059
 20
24.4603145581
 10
10.5250024283
 20
24.4665073916
 10
10.5145591876
 20
24.4722097688
 10
10.5038564463
 20
24.4774087722
 10
10.4929184493
 20
24.4820926258
 10
10.4817699738
 20
24.4862507213
 10
10.470436279
 20
24.4898736417
 10
10.4589430388
 20
24.4929531817
 10
10.4473162875
 20
24.4954823677
 10
10.4355823661
 20
24.4974554741
 10
10.4237678556
 20
24.4988680342
 10
10.411899516
 20
24.4997168498
 10
10.4000042308
 20
24.5
  0
LINE
  5
3BF
100
AcDbEntity
  8
ASSI
100
AcDbLine
 62
7
  6
CONTINUOUS
 10
11.15
 20
17.6716990487
 11
11.15
 21
-17.6716990487
  0
LINE
  5
3C0
100
AcDbEntity
  8
RACCORDO
100
AcDbLine
 62
7
  6
CONTINUOUS
 10
11.15
 20
-21.9011798444
 11
11.15
 21
21.9011798444
  0
LWPOLYLINE
  5
3C1
100
AcDbEntity
  8
RACCORDO
100
AcDbPolyline
 62
7
  6
CONTINUOUS
 90
25
 70
0
 10
11.1325823343
 20
-21.909888014
 10
11.1320660506
 20
-21.9321958432
 10
11.1305312827
 20
-21.9545022069
 10
11.1279750642
 20
-21.9767602752
 10
11.1243976375
 20
-21.9989170614
 10
11.1197998708
 20
-22.0209310001
 10
11.1141806365
 20
-22.0427714956
 10
11.1075461593
 20
-22.0643819723
 10
11.0999002847
 20
-22.0857223491
 10
11.0912337096
 20
-22.1067839739
 10
11.0815459557
 20
-22.1275267947
 10
11.0708490745
 20
-22.1478877728
 10
11.0591499375
 20
-22.1678207565
 10
11.0464473842
 20
-22.1872928453
 10
11.0327680029
 20
-22.2062307982
 10
11.0181711134
 20
-22.2245328395
 10
11.0026802205
 20
-22.2421575722
 10
10.9863294154
 20
-22.259054914
 10
10.9692135166
 20
-22.2751254563
 10
10.9513885598
 20
-22.2903251119
 10
10.932886211
 20
-22.3046350291
 10
10.9137781602
 20
-22.3180089201
 10
10.8941586403
 20
-22.3303970169
 10
10.8740339205
 20
-22.3418109895
 10
10.8615648735
 20
-22.3482707046
  0
LWPOLYLINE
  5
3C2
100
AcDbEntity
  8
RACCORDO
100
AcDbPolyline
 62
250
  6
CONTINUOUS
 90
34
 70
0
 10
10.9991937208
 20
-21.5093967499
 10
10.9986181664
 20
-21.5326664173
 10
10.9969353658
 20
-21.5558834326
 10
10.9941491268
 20
-21.5789952631
 10
10.9902657536
 20
-21.6019496138
 10
10.9852940332
 20
-21.6246945463
 10
10.9792452149
 20
-21.6471785957
 10
10.9721329855
 20
-21.6693508878
 10
10.9639734376
 20
-21.6911612534
 10
10.9547850338
 20
-21.7125603427
 10
10.9445885645
 20
-21.733499736
 10
10.9334071013
 20
-21.7539320541
 10
10.9212659442
 20
-21.773811065
 10
10.9081925649
 20
-21.7930917887
 10
10.8942165444
 20
-21.811730599
 10
10.8793695062
 20
-21.8296853219
 10
10.8636850443
 20
-21.8469153316
 10
10.8471986478
 20
-21.8633816419
 10
10.8299476204
 20
-21.8790469947
 10
10.8119709957
 20
-21.8938759441
 10
10.7933094493
 20
-21.907834937
 10
10.7740052064
 20
-21.9208923884
 10
10.7541019464
 20
-21.9330187533
 10
10.7336447043
 20
-21.9441865937
 10
10.7126797684
 20
-21.9543706401
 10
10.6912545759
 20
-21.9635478493
 10
10.6694176052
 20
-21.971697456
 10
10.6472182667
 20
-21.9788010203
 10
10.6247067905
 20
-21.984842469
 10
10.601934113
 20
-21.9898081321
 10
10.5789517618
 20
-21.993686774
 10
10.5558117388
 20
-21.9964696185
 10
10.5325664026
 20
-21.9981503688
 10
10.5092683502
 20
-21.998725222
  0
LINE
  5
3C3
100
AcDbEntity
  8
0
100
AcDbLine
 62
7
  6
CONTINUOUS
 10
0.0
 20
11.65
 11
-3.7075127176
 21
11.65
  0
LINE
  5
3C4
100
AcDbEntity
  8
ASSI
100
AcDbLine
 62
7
  6
CONTINUOUS
 10
0.0
 20
11.65
 11
-3.7075127176
 21
11.65
  0
LINE
  5
3C5
100
AcDbEntity
  8
RACCORDO
100
AcDbLine
 62
7
  6
CONTINUOUS
 10
-4.3970741618
 20
-23.7970741618
 11
-4.4
 21
-23.8
  0
LWPOLYLINE
  5
3C6
100
AcDbEntity
  8
0
100
AcDbPolyline
 62
7
  6
CONTINUOUS
 90
10
 70
0
 43
0.3500000006
 10
18.3999999504
 20
0.4285709152
 10
17.5428574791
 20
1.2857133865
 10
16.6857138748
 20
1.5000001373
 10
15.8285714035
 20
1.5000001373
 10
15.4000001678
 20
1.0714289017
 10
15.4000001678
 20
0.4285709152
 10
15.8285714035
 20
-0.0000003204
 10
16.6857138748
 20
-0.0000003204
 10
17.1142862434
 20
0.4285709152
 10
17.1142862434
 20
1.3571423035
  0
LINE
  5
3C7
100
AcDbEntity
  8
RACCORDO
100
AcDbLine
 62
7
  6
CONTINUOUS
 10
-4.3970741618
 20
23.7970741618
 11
-4.4
 21
23.8
  0
LWPOLYLINE
  5
3C8
100
AcDbEntity
  8
0
100
AcDbPolyline
 62
7
  6
CONTINUOUS
 90
10
 70
0
 43
0.3500000006
 10
1.0714285848
 20
33.7500009155
 10
1.1428571477
 20
33.6071430817
 10
1.1428571477
 20
33.5357164307
 10
1.0000000219
 20
33.3928585968
 10
0.9285714591
 20
33.3928585968
 10
0.8571428254
 20
33.4642852478
 10
0.8571428254
 20
33.5357164307
 10
0.9285714591
 20
33.6785697327
 10
1.0000000219
 20
33.7500009155
 10
1.0714285848
 20
33.7500009155
  0
LWPOLYLINE
  5
3C9
100
AcDbEntity
  8
0
100
AcDbPolyline
 62
7
  6
CONTINUOUS
 90
3
 70
0
 43
0.3500000006
 10
17.7571430969
 20
-0.8571427917
 10
17.7571430969
 20
-2.3571432495
 10
15.4000001678
 20
-1.7142852631
  0
LINE
  5
3CA
100
AcDbEntity
  8
RACCORDO
100
AcDbLine
 62
7
  6
CONTINUOUS
 10
-3.9680905905
 20
-23.6400757416
 11
-3.8970826234
 21
-23.5953423515
  0
LINE
  5
3CB
100
AcDbEntity
  8
RACCORDO
100
AcDbLine
 62
7
  6
CONTINUOUS
 10
-3.9965581838
 20
-23.6577812011
 11
-3.9680905905
 21
-23.6400757416
  0
LINE
  5
3CC
100
AcDbEntity
  8
RACCORDO
100
AcDbLine
 62
250
  6
CONTINUOUS
 10
-2.9330844581
 20
17.612360919
 11
2.9330844581
 21
17.612360919
  0
LINE
  5
3CD
100
AcDbEntity
  8
ASSI
100
AcDbLine
 62
250
  6
CONTINUOUS
 10
-2.9330844581
 20
17.612360919
 11
2.9330844581
 21
17.612360919
  0
LINE
  5
3CE
100
AcDbEntity
  8
RACCORDO
100
AcDbLine
 62
250
  6
CONTINUOUS
 10
-2.5428153857
 20
17.9123494959
 11
2.5428153857
 21
17.9123494959
  0
LINE
  5
3CF
100
AcDbEntity
  8
ASSI
100
AcDbLine
 62
7
  6
CONTINUOUS
 10
-2.5428153857
 20
17.9123494959
 11
2.5428153857
 21
17.9123494959
  0
LINE
  5
3D0
100
AcDbEntity
  8
DRAFT
100
AcDbLine
 62
7
  6
CONTINUOUS
 10
-2.3242348525
 20
18.0528749139
 11
2.3242348525
 21
18.0528749139
  0
LINE
  5
3D1
100
AcDbEntity
  8
ASSI
100
AcDbLine
 62
7
  6
CONTINUOUS
 10
-2.3242348525
 20
18.0528749139
 11
2.3242348525
 21
18.0528749139
  0
LINE
  5
3D2
100
AcDbEntity
  8
RACCORDO
100
AcDbLine
 62
7
  6
CONTINUOUS
 10
-4.0249483201
 20
23.6751796798
 11
-3.9965581838
 21
23.6577812011
  0
LINE
  5
3D3
100
AcDbEntity
  8
RACCORDO
100
AcDbLine
 62
7
  6
CONTINUOUS
 10
-3.9965581838
 20
23.6577812011
 11
-3.9538388153
 21
23.6311538461
  0
LINE
  5
3D4
100
AcDbEntity
  8
RACCORDO
100
AcDbLine
 62
7
  6
CONTINUOUS
 10
-3.9538388153
 20
23.6311538461
 11
-3.8970826234
 21
23.5953423515
  0
LWPOLYLINE
  5
3D5
100
AcDbEntity
  8
RACCORDO
100
AcDbPolyline
 62
250
  6
CONTINUOUS
 90
25
 70
0
 10
2.54489787
 20
-20.562467137
 10
2.4546844796
 20
-20.615925914
 10
2.3605930922
 20
-20.6689050606
 10
2.2626237076
 20
-20.7213412542
 10
2.1600085763
 20
-20.77368413
 10
2.0535154478
 20
-20.825358414
 10
1.9454475714
 20
-20.8748000471
 10
1.8362977264
 20
-20.9216764252
 10
1.7255731335
 20
-20.9663128937
 10
1.6140987042
 20
-21.0081960837
 10
1.5019634593
 20
-21.047299914
 10
1.3890783782
 20
-21.0837266054
 10
1.2760013103
 20
-21.1171927681
 10
1.1626229664
 20
-21.1477442127
 10
1.0490526359
 20
-21.1754615919
 10
0.936176036
 20
-21.2001361962
 10
0.8238721078
 20
-21.2217649849
 10
0.7122619102
 20
-21.2404895884
 10
0.6025943376
 20
-21.2563221588
 10
0.4948368666
 20
-21.2691941193
 10
0.3890220205
 20
-21.27927783
 10
0.2864962644
 20
-21.2869315253
 10
0.1877084197
 20
-21.2922875926
 10
0.0922096649
 20
-21.2952572626
 10
0.0
 20
-21.2958508559
  0
LWPOLYLINE
  5
3D6
100
AcDbEntity
  8
RACCORDO
100
AcDbPolyline
 62
250
  6
CONTINUOUS
 90
25
 70
0
 10
2.3587158718
 20
-20.0779436818
 10
2.275031931
 20
-20.1107965518
 10
2.1878173706
 20
-20.1435681515
 10
2.0970412459
 20
-20.176116103
 10
2.0019613859
 20
-20.208527194
 10
1.9032586906
 20
-20.2403886438
 10
1.8030748199
 20
-20.2709049273
 10
1.7019131962
 20
-20.2998824195
 10
1.5993032568
 20
-20.3274177628
 10
1.4959706577
 20
-20.3532907414
 10
1.3920352194
 20
-20.377459135
 10
1.2874303027
 20
-20.3999262432
 10
1.1826160402
 20
-20.4205979521
 10
1.0775278136
 20
-20.4394930823
 10
0.9722918072
 20
-20.4565939509
 10
0.8676638993
 20
-20.4718107904
 10
0.7635694518
 20
-20.4851977059
 10
0.6601511772
 20
-20.4967768808
 10
0.5584999829
 20
-20.5064995547
 10
0.4586181037
 20
-20.514461
 10
0.3605693985
 20
-20.5207465891
 10
0.26554169
 20
-20.5253967816
 10
0.1739491555
 20
-20.5285398904
 10
0.0854288289
 20
-20.5303321894
 10
-0.0
 20
-20.5309036963
  0
LWPOLYLINE
  5
3D7
100
AcDbEntity
  8
RACCORDO
100
AcDbPolyline
 62
250
  6
CONTINUOUS
 90
112
 70
0
 10
2.3587158718
 20
20.0779436818
 10
2.5035742703
 20
20.0177718591
 10
2.6470478692
 20
19.953965104
 10
2.7890437227
 20
19.8865514619
 10
2.9294999274
 20
19.8155455095
 10
3.0682930859
 20
19.7409944757
 10
3.2052424101
 20
19.6629858003
 10
3.3402572137
 20
19.5815661892
 10
3.4732556038
 20
19.4967799679
 10
3.6040787595
 20
19.4087267805
 10
3.7326233225
 20
19.3174801969
 10
3.8588355492
 20
19.2230824141
 10
3.9826369205
 20
19.1255947226
 10
4.103939224
 20
19.0250904296
 10
4.2226827635
 20
18.9216229053
 10
4.3388318441
 20
18.8152235986
 10
4.4523232836
 20
18.7059478987
 10
4.5630761218
 20
18.5938712007
 10
4.6710274223
 20
18.4790543854
 10
4.7761162539
 20
18.3615586139
 10
4.8782683154
 20
18.2414632031
 10
4.9774039818
 20
18.1188594914
 10
5.0734586012
 20
17.9938272187
 10
5.1663756983
 20
17.8664396678
 10
5.25609258
 20
17.7367823054
 10
5.3425511199
 20
17.6049399999
 10
5.4257010998
 20
17.4709902285
 10
5.5054947354
 20
17.3350094962
 10
5.5818830389
 20
17.1970806744
 10
5.6548178046
 20
17.0572901722
 10
5.724254864
 20
16.9157212452
 10
5.7901518226
 20
16.7724589362
 10
5.8524662204
 20
16.627594101
 10
5.9111571341
 20
16.4812203621
 10
5.9661878398
 20
16.3334288798
 10
6.0175243081
 20
16.1843106106
 10
6.0651335424
 20
16.03396043
 10
6.1089857986
 20
15.8824724696
 10
6.1490542533
 20
15.7299396451
 10
6.1853139467
 20
15.5764561571
 10
6.2177424256
 20
15.4221170508
 10
6.2463195953
 20
15.2670180278
 10
6.2710275634
 20
15.1112550903
 10
6.291851113
 20
14.9549239663
 10
6.3087772157
 20
14.7981223341
 10
6.3217950373
 20
14.6409496931
 10
6.330896671
 20
14.4835037765
 10
6.3360766971
 20
14.3258818614
 10
6.3373319305
 20
14.1681830517
 10
6.3346619152
 20
14.0105063347
 10
6.3280686329
 20
13.8529481616
 10
6.317556135
 20
13.6956038258
 10
6.3031310221
 20
13.5385705563
 10
6.2848023777
 20
13.3819459179
 10
6.2625813282
 20
13.2258254483
 10
6.2364812028
 20
13.0703034313
 10
6.2065185181
 20
12.9154787202
 10
6.1727131131
 20
12.7614530902
 10
6.1350863897
 20
12.6083219281
 10
6.0936621118
 20
12.4561799648
 10
6.0484680687
 20
12.3051269432
 10
5.9995349875
 20
12.1552616804
 10
5.9468924465
 20
12.0066711261
 10
5.8905695809
 20
11.859436251
 10
5.8306016153
 20
11.7136489441
 10
5.7670254594
 20
11.5693987167
 10
5.6998743975
 20
11.4267623376
 10
5.6291830821
 20
11.2858169015
 10
5.5549998774
 20
11.1466621191
 10
5.4773826721
 20
11.0094066844
 10
5.3963812586
 20
10.87413667
 10
5.3120457616
 20
10.7409338573
 10
5.2244406358
 20
10.6098969102
 10
5.1336329785
 20
10.4811205876
 10
5.0396708634
 20
10.3546676419
 10
4.942592267
 20
10.2305872775
 10
4.8424478356
 20
10.1089454194
 10
4.7393080308
 20
9.9898287964
 10
4.6332417099
 20
9.8733167488
 10
4.5243174773
 20
9.7594838696
 10
4.4126003727
 20
9.6483973699
 10
4.2981567536
 20
9.540122858
 10
4.1810601918
 20
9.4347296514
 10
4.0613804978
 20
9.3322802943
 10
3.9391798929
 20
9.2328286285
 10
3.8145274132
 20
9.1364325437
 10
3.6875051509
 20
9.0431571904
 10
3.5581967964
 20
8.9530649396
 10
3.4266739256
 20
8.8662067443
 10
3.2930254741
 20
8.7826423998
 10
3.1573649617
 20
8.7024418665
 10
3.0197884674
 20
8.6256589049
 10
2.880371331
 20
8.5523325644
 10
2.7391989773
 20
8.4825053671
 10
2.5963793049
 20
8.4162275399
 10
2.4519819988
 20
8.35352832
 10
2.3060345299
 20
8.2944201178
 10
2.1586121092
 20
8.2389372005
 10
2.0098182915
 20
8.1871223178
 10
1.8597220282
 20
8.1390035112
 10
1.7083774493
 20
8.0946045906
 10
1.5559137079
 20
8.0539698562
 10
1.4025149114
 20
8.017149617
 10
1.248270816
 20
7.9841633377
 10
1.09328321
 20
7.9550307179
 10
0.9377582073
 20
7.9297839744
 10
0.7817938744
 20
7.9084283648
 10
0.625487632
 20
7.8909666155
 10
0.4690468213
 20
7.8774071757
 10
0.312605793
 20
7.8677415738
 10
0.1562248383
 20
7.8619535054
 10
0.0
 20
7.8600279044
  0
LWPOLYLINE
  5
3D8
100
AcDbEntity
  8
RACCORDO
100
AcDbPolyline
 62
250
  6
CONTINUOUS
 90
112
 70
0
 10
2.5448985711
 20
20.5624670769
 10
2.7013147838
 20
20.4974417197
 10
2.8560477167
 20
20.428551095
 10
3.0090973698
 20
20.3557951386
 10
3.1605965295
 20
20.2791130256
 10
3.3104124093
 20
20.1985654421
 10
3.4581466498
 20
20.1143345897
 10
3.6037830029
 20
20.0264082593
 10
3.7473377166
 20
19.9347985116
 10
3.8884611753
 20
19.8397239572
 10
4.027120165
 20
19.741191951
 10
4.1633478995
 20
19.6391949856
 10
4.2968944051
 20
19.5339293842
 10
4.4277417369
 20
19.4254028033
 10
4.5559078396
 20
19.3136074324
 10
4.6811965743
 20
19.1987164007
 10
4.8036152677
 20
19.0807163798
 10
4.923156593
 20
18.9596205442
 10
5.0396024311
 20
18.8356417869
 10
5.1529547507
 20
18.7087652013
 10
5.263211583
 20
18.5790055458
 10
5.3701489035
 20
18.4466202224
 10
5.4737559026
 20
18.3116074406
 10
5.5740433898
 20
18.1739688545
 10
5.6708197682
 20
18.0339670475
 10
5.7640753284
 20
17.8916022319
 10
5.8538197797
 20
17.7468740735
 10
5.9398906531
 20
17.6000443529
 10
6.0222823616
 20
17.4511081275
 10
6.1010004922
 20
17.3000702344
 10
6.1758993372
 20
17.1472071414
 10
6.2469729882
 20
16.9925127898
 10
6.3142273536
 20
16.8359931518
 10
6.3775344517
 20
16.6779427599
 10
6.4368863752
 20
16.5183591528
 10
6.4922910314
 20
16.3572447265
 10
6.5436441605
 20
16.1949013191
 10
6.5909377957
 20
16.0313276125
 10
6.6341799037
 20
15.8665248815
 10
6.6732901253
 20
15.7007988732
 10
6.708260811
 20
15.5341477976
 10
6.7390996103
 20
15.3665734236
 10
6.7657491118
 20
15.1983868569
 10
6.7882015274
 20
15.0295860894
 10
6.8064646453
 20
14.8601731297
 10
6.8205044191
 20
14.6904651284
 10
6.8303127648
 20
14.5204618888
 10
6.8358977664
 20
14.3501636292
 10
6.8372496294
 20
14.1798881411
 10
6.8343605319
 20
14.0096368687
 10
6.8272382959
 20
13.8394084087
 10
6.8158965931
 20
13.6695163005
 10
6.800327756
 20
13.4999609165
 10
6.7805394523
 20
13.3307419421
 10
6.7565683562
 20
13.1621719025
 10
6.7284060393
 20
12.9942494448
 10
6.6960609301
 20
12.8269759946
 10
6.659594989
 20
12.6606682611
 10
6.6189999539
 20
12.4953283344
 10
6.5742840868
 20
12.3309542097
 10
6.5255341336
 20
12.1678564685
 10
6.4727447674
 20
12.0060434825
 10
6.4159213152
 20
11.8455069751
 10
6.355166503
 20
11.6865325674
 10
6.2904746028
 20
11.5291235095
 10
6.2218513427
 20
11.3732766525
 10
6.1494166336
 20
11.2192680297
 10
6.0731566482
 20
11.0670886524
 10
5.9930852138
 20
10.9167476138
 10
5.9093637228
 20
10.7685480794
 10
5.8219842746
 20
10.6224970385
 10
5.7309547699
 20
10.478587609
 10
5.6364603036
 20
10.3371021573
 10
5.5385064651
 20
10.1980613494
 10
5.4370876649
 20
10.0614446261
 10
5.3323722294
 20
9.9274725227
 10
5.2243456294
 20
9.7961371484
 10
5.1130223939
 20
9.6674464963
 10
4.9986144362
 20
9.5416449318
 10
4.8811187727
 20
9.4187410826
 10
4.760538387
 20
9.2987264188
 10
4.637094143
 20
9.1818195729
 10
4.5107843163
 20
9.0680282733
 10
4.3816106312
 20
8.9573448829
 10
4.2497991247
 20
8.849964988
 10
4.1153389349
 20
8.7458894593
 10
3.9782409237
 20
8.6451175099
 10
3.838763713
 20
8.5478422407
 10
3.6968930353
 20
8.4540662514
 10
3.5526431582
 20
8.3637870178
 10
3.4063155057
 20
8.2771899558
 10
3.2579172292
 20
8.1942903464
 10
3.1074411775
 20
8.1150729757
 10
2.9551673209
 20
8.0396775172
 10
2.8011150499
 20
7.9681178843
 10
2.6452649742
 20
7.9003802212
 10
2.4878388936
 20
7.8365625465
 10
2.3288206985
 20
7.776661813
 10
2.1682264985
 20
7.7206811154
 10
2.0063264222
 20
7.6687276843
 10
1.8430768525
 20
7.6208002729
 10
1.6785214064
 20
7.5769001661
 10
1.513061064
 20
7.5371383897
 10
1.3466858422
 20
7.5015319648
 10
1.1794057242
 20
7.470063899
 10
1.0116516388
 20
7.4427941974
 10
0.8434204024
 20
7.4197425181
 10
0.6747151987
 20
7.400889222
 10
0.5059765085
 20
7.3862353653
 10
0.3373511588
 20
7.3757813034
 10
0.1686923226
 20
7.3695266903
 10
0.0
 20
7.3674715284
  0
LINE
  5
3D9
100
AcDbEntity
  8
RACCORDO
100
AcDbLine
 62
250
  6
CONTINUOUS
 10
-10.8598245501
 20
20.5553942028
 11
-10.8277044327
 21
20.5567779129
  0
LINE
  5
3DA
100
AcDbEntity
  8
RACCORDO
100
AcDbLine
 62
250
  6
CONTINUOUS
 10
-10.8277044327
 20
20.5567779129
 11
-10.7926163075
 21
20.5580335532
  0
LINE
  5
3DB
100
AcDbEntity
  8
RACCORDO
100
AcDbLine
 62
250
  6
CONTINUOUS
 10
-10.7926163075
 20
20.5580335532
 11
-10.7548709268
 21
20.5591500032
  0
LINE
  5
3DC
100
AcDbEntity
  8
RACCORDO
100
AcDbLine
 62
250
  6
CONTINUOUS
 10
-10.7548709268
 20
20.5591500032
 11
-10.7148025764
 21
20.5601173753
  0
LINE
  5
3DD
100
AcDbEntity
  8
RACCORDO
100
AcDbLine
 62
250
  6
CONTINUOUS
 10
-10.7148025764
 20
20.5601173753
 11
-10.6727661151
 21
20.5609271022
  0
LINE
  5
3DE
100
AcDbEntity
  8
RACCORDO
100
AcDbLine
 62
250
  6
CONTINUOUS
 10
-10.6727661151
 20
20.5609271022
 11
-10.606839555
 21
20.5618308183
  0
LINE
  5
3DF
100
AcDbEntity
  8
RACCORDO
100
AcDbLine
 62
250
  6
CONTINUOUS
 10
-10.606839555
 20
20.5618308183
 11
-10.5386382004
 21
20.5623460481
  0
LINE
  5
3E0
100
AcDbEntity
  8
RACCORDO
100
AcDbLine
 62
250
  6
CONTINUOUS
 10
-2.5448979752
 20
20.5624670775
 11
-10.5386382004
 21
20.5623460481
  0
LINE
  5
3E1
100
AcDbEntity
  8
RACCORDO
100
AcDbLine
 62
250
  6
CONTINUOUS
 10
10.5386382088
 20
20.5623460547
 11
2.5448979764
 21
20.5624670769
  0
LWPOLYLINE
  5
3E2
100
AcDbEntity
  8
RACCORDO
100
AcDbPolyline
 62
250
  6
CONTINUOUS
 90
25
 70
0
 10
-0.0
 20
21.2958508559
 10
0.0919070488
 20
21.2952692473
 10
0.1871635423
 20
21.2923146326
 10
0.2857694806
 20
21.2869767561
 10
0.3881797534
 20
21.279347316
 10
0.4939394709
 20
21.2692912068
 10
0.6016839642
 20
21.2564417037
 10
0.7113853062
 20
21.2406236255
 10
0.823071424
 20
21.2219082245
 10
0.9354614299
 20
21.2002829213
 10
1.0484304319
 20
21.1756041184
 10
1.1621033221
 20
21.1478764234
 10
1.2755738891
 20
21.1173135283
 10
1.3887281361
 20
21.0838348031
 10
1.5016800599
 20
21.0473942999
 10
1.6138654389
 20
21.0082804839
 10
1.7253685975
 20
20.9663930936
 10
1.8361052114
 20
20.9217565275
 10
1.9452580851
 20
20.8748839227
 10
2.0533097989
 20
20.8254567953
 10
2.1597777726
 20
20.7738011372
 10
2.2623970708
 20
20.7214600858
 10
2.3604127149
 20
20.6690016006
 10
2.4545796834
 20
20.615982832
 10
2.5448979764
 20
20.5624670769
  0
LWPOLYLINE
  5
3E3
100
AcDbEntity
  8
RACCORDO
100
AcDbPolyline
 62
250
  6
CONTINUOUS
 90
25
 70
0
 10
0.0
 20
20.5309036963
 10
0.0851462136
 20
20.5303359057
 10
0.1734402755
 20
20.5285536565
 10
0.264862992
 20
20.5254249088
 10
0.3597831039
 20
20.5207908998
 10
0.4577806653
 20
20.5145210877
 10
0.5576505798
 20
20.5065738991
 10
0.6593328563
 20
20.4968617239
 10
0.7628210673
 20
20.4852876532
 10
0.8669950459
 20
20.4719023678
 10
0.9717085861
 20
20.4566836991
 10
1.0770395722
 20
20.4395766212
 10
1.1822132581
 20
20.4206738568
 10
1.2870993554
 20
20.3999943992
 10
1.3917666532
 20
20.3775191927
 10
1.4957488095
 20
20.3533442991
 10
1.5991083004
 20
20.3274683215
 10
1.7017298132
 20
20.2999332885
 10
1.8028945047
 20
20.2709582089
 10
1.9030630471
 20
20.2404500295
 10
2.0017422616
 20
20.2085999503
 10
2.0968268446
 20
20.1761911106
 10
2.1876474436
 20
20.1436305306
 10
2.2749336267
 20
20.1108342935
 10
2.3587158718
 20
20.0779436818
  0
LINE
  5
3E4
100
AcDbEntity
  8
RACCORDO
100
AcDbLine
 62
250
  6
CONTINUOUS
 10
10.6068395755
 20
20.5618308247
 11
10.5386382088
 21
20.5623460547
  0
LINE
  5
3E5
100
AcDbEntity
  8
RACCORDO
100
AcDbLine
 62
250
  6
CONTINUOUS
 10
10.6727661463
 20
20.5609271081
 11
10.6068395755
 21
20.5618308247
  0
LINE
  5
3E6
100
AcDbEntity
  8
RACCORDO
100
AcDbLine
 62
250
  6
CONTINUOUS
 10
10.7148026137
 20
20.5601173809
 11
10.6727661463
 21
20.5609271081
  0
LINE
  5
3E7
100
AcDbEntity
  8
RACCORDO
100
AcDbLine
 62
250
  6
CONTINUOUS
 10
10.7548709692
 20
20.5591500083
 11
10.7148026137
 21
20.5601173809
  0
LINE
  5
3E8
100
AcDbEntity
  8
RACCORDO
100
AcDbLine
 62
250
  6
CONTINUOUS
 10
10.7926163538
 20
20.5580335579
 11
10.7548709692
 21
20.5591500083
  0
LINE
  5
3E9
100
AcDbEntity
  8
RACCORDO
100
AcDbLine
 62
250
  6
CONTINUOUS
 10
10.8277044814
 20
20.5567779171
 11
10.7926163538
 21
20.5580335579
  0
LWPOLYLINE
  5
3EA
100
AcDbEntity
  8
RACCORDO
100
AcDbPolyline
 62
7
  6
CONTINUOUS
 90
10
 70
0
 10
-10.6192531143
 20
22.3289478403
 10
-10.6240540756
 20
22.329482895
 10
-10.6283256396
 20
22.3300174843
 10
-10.6320577888
 20
22.3305516082
 10
-10.6352419603
 20
22.3310782807
 10
-10.6378703061
 20
22.3316044878
 10
-10.6399361444
 20
22.3321511872
 10
-10.6414347948
 20
22.3327253649
 10
-10.6423631553
 20
22.3333200348
 10
-10.6427192511
 20
22.3339351971
  0
LWPOLYLINE
  5
3EB
100
AcDbEntity
  8
RACCORDO
100
AcDbPolyline
 62
250
  6
CONTINUOUS
 90
16
 70
0
 10
10.9825016824
 20
-20.5423171059
 10
10.9815569527
 20
-20.5432654465
 10
10.9795289788
 20
-20.5442116863
 10
10.9764222533
 20
-20.545153729
 10
10.9722436587
 20
-20.5460894876
 10
10.9670024519
 20
-20.5470168892
 10
10.9607102436
 20
-20.5479338794
 10
10.9533809731
 20
-20.5488384265
 10
10.9450308771
 20
-20.549728527
 10
10.9356784535
 20
-20.5506022088
 10
10.925344421
 20
-20.5514575365
 10
10.9140516725
 20
-20.5522926152
 10
10.9018252252
 20
-20.5531055951
 10
10.8886921642
 20
-20.5538946752
 10
10.8746815835
 20
-20.5546581073
 10
10.8598245209
 20
-20.5553942002
  0
LINE
  5
3EC
100
AcDbEntity
  8
RACCORDO
100
AcDbLine
 62
250
  6
CONTINUOUS
 10
8.25
 20
-24.2500042308
 11
8.2630985787
 21
-24.2369056521
  0
LINE
  5
3ED
100
AcDbEntity
  8
RACCORDO
100
AcDbLine
 62
250
  6
CONTINUOUS
 10
8.4999957692
 20
-24.5
 11
8.5130943479
 21
-24.4869014213
  0
LWPOLYLINE
  5
3EE
100
AcDbEntity
  8
RACCORDO
100
AcDbPolyline
 62
7
  6
CONTINUOUS
 90
23
 70
0
 10
4.2962073137
 20
23.7953389668
 10
4.2854181903
 20
23.7947915649
 10
4.2743307281
 20
23.793363895
 10
4.2629449272
 20
23.7911364879
 10
4.2512361469
 20
23.7881978965
 10
4.239229028
 20
23.7846238716
 10
4.226997492
 20
23.7804595132
 10
4.2145487518
 20
23.7757643703
 10
4.2018755946
 20
23.7706018097
 10
4.1890303044
 20
23.7649953104
 10
4.1760171723
 20
23.758990232
 10
4.1628319072
 20
23.7526365647
 10
4.1495139203
 20
23.7459460582
 10
4.1360654333
 20
23.7389542831
 10
4.1224842244
 20
23.7317013921
 10
4.1088030396
 20
23.724193673
 10
4.0950229279
 20
23.7164601879
 10
4.0811428402
 20
23.708533951
 10
4.0671923756
 20
23.7004191901
 10
4.053171775
 20
23.6921405291
 10
4.0390807976
 20
23.6837259593
 10
4.0249483201
 20
23.6751796798
 10
3.9965581838
 20
23.6577812011
  0
LINE
  5
3EF
100
AcDbEntity
  8
RACCORDO
100
AcDbLine
 62
250
  6
CONTINUOUS
 10
10.5092683502
 20
21.998725222
 11
-10.5092683502
 21
21.998725222
  0
LINE
  5
3F0
100
AcDbEntity
  8
RACCORDO
100
AcDbLine
 62
7
  6
CONTINUOUS
 10
10.3927234819
 20
22.3213883311
 11
8.5072765181
 21
22.3213883311
  0
LINE
  5
3F1
100
AcDbEntity
  8
RACCORDO
100
AcDbLine
 62
7
  6
CONTINUOUS
 10
-8.5072765181
 20
22.3213883311
 11
-10.3927234819
 21
22.3213883311
  0
LINE
  5
3F2
100
AcDbEntity
  8
RACCORDO
100
AcDbLine
 62
7
  6
CONTINUOUS
 10
-3.8970826234
 20
22.3475922207
 11
3.8970826234
 21
22.3475922207
  0
LINE
  5
3F3
100
AcDbEntity
  8
DRAFT
100
AcDbLine
 62
7
  6
CONTINUOUS
 10
-8.25
 20
22.4
 11
-4.4
 21
22.4
  0
LINE
  5
3F4
100
AcDbEntity
  8
DRAFT
100
AcDbLine
 62
7
  6
CONTINUOUS
 10
4.4
 20
22.4
 11
8.25
 21
22.4
  0
LINE
  5
3F5
100
AcDbEntity
  8
RACCORDO
100
AcDbLine
 62
7
  6
CONTINUOUS
 10
10.3919962532
 20
23.1226497308
 11
8.5080037468
 21
23.1226497308
  0
LINE
  5
3F6
100
AcDbEntity
  8
RACCORDO
100
AcDbLine
 62
7
  6
CONTINUOUS
 10
-8.5080037468
 20
23.1226497308
 11
-10.3919962532
 21
23.1226497308
  0
LWPOLYLINE
  5
3F7
100
AcDbEntity
  8
RACCORDO
100
AcDbPolyline
 62
7
  6
CONTINUOUS
 90
11
 70
0
 10
10.6499996309
 20
22.3999415484
 10
10.6732526189
 20
22.3990313623
 10
10.6964851131
 20
22.3970121642
 10
10.7196438765
 20
22.3938816039
 10
10.7427032516
 20
22.3896340413
 10
10.7655807771
 20
22.3842754978
 10
10.7881404311
 20
22.3778369941
 10
10.8103126543
 20
22.3703454156
 10
10.8320684489
 20
22.361817674
 10
10.8533385495
 20
22.3522884217
 10
10.8615648735
 20
22.3482707046
  0
LWPOLYLINE
  5
3F8
100
AcDbEntity
  8
RACCORDO
100
AcDbPolyline
 62
7
  6
CONTINUOUS
 90
22
 70
0
 10
-4.2962073137
 20
23.7953389668
 10
-4.2854181903
 20
23.7947915649
 10
-4.2743307281
 20
23.793363895
 10
-4.2629449272
 20
23.7911364879
 10
-4.2512361469
 20
23.7881978965
 10
-4.239229028
 20
23.7846238716
 10
-4.226997492
 20
23.7804595132
 10
-4.2145487518
 20
23.7757643703
 10
-4.2018755946
 20
23.7706018097
 10
-4.1890303044
 20
23.7649953104
 10
-4.1760171723
 20
23.758990232
 10
-4.1628319072
 20
23.7526365647
 10
-4.1495139203
 20
23.7459460582
 10
-4.1360654333
 20
23.7389542831
 10
-4.1224842244
 20
23.7317013921
 10
-4.1088030396
 20
23.724193673
 10
-4.0950229279
 20
23.7164601879
 10
-4.0811428402
 20
23.708533951
 10
-4.0671923756
 20
23.7004191901
 10
-4.053171775
 20
23.6921405291
 10
-4.0390807976
 20
23.6837259593
 10
-4.0249483201
 20
23.6751796798
  0
LINE
  5
3F9
100
AcDbEntity
  8
RACCORDO
100
AcDbLine
 62
250
  6
CONTINUOUS
 10
8.25
 20
24.2500042308
 11
8.2630985787
 21
24.2369056521
  0
LINE
  5
3FA
100
AcDbEntity
  8
RACCORDO
100
AcDbLine
 62
250
  6
CONTINUOUS
 10
8.4999957692
 20
24.5
 11
8.5130943479
 21
24.4869014213
  0
LWPOLYLINE
  5
3FB
100
AcDbEntity
  8
RACCORDO
100
AcDbPolyline
 62
250
  6
CONTINUOUS
 90
17
 70
0
 10
10.9825016824
 20
20.5423171059
 10
10.9815569629
 20
20.5432654469
 10
10.9795289985
 20
20.544211687
 10
10.9764222819
 20
20.5451537301
 10
10.9722436954
 20
20.5460894891
 10
10.9670024959
 20
20.5470168911
 10
10.9607102944
 20
20.5479338817
 10
10.9533810299
 20
20.5488384293
 10
10.9450309391
 20
20.5497285302
 10
10.9356785201
 20
20.5506022124
 10
10.9253444913
 20
20.5514575406
 10
10.914051746
 20
20.5522926198
 10
10.901825301
 20
20.5531056002
 10
10.8886922417
 20
20.5538946806
 10
10.8746816619
 20
20.5546581132
 10
10.8598245996
 20
20.5553942065
 10
10.8277044814
 20
20.5567779171
  0
LINE
  5
3FC
100
AcDbEntity
  8
RACCORDO
100
AcDbLine
 62
250
  6
CONTINUOUS
 10
11.1325823343
 20
-21.909888014
 11
11.15
 21
-21.9011798444
  0
LINE
  5
3FD
100
AcDbEntity
  8
RACCORDO
100
AcDbLine
 62
7
  6
CONTINUOUS
 10
10.8615448759
 20
-22.3482807033
 11
10.879046662
 21
-22.3395304767
  0
LWPOLYLINE
  5
3FE
100
AcDbEntity
  8
RACCORDO
100
AcDbPolyline
 62
7
  6
CONTINUOUS
 90
11
 70
0
 10
10.8615648735
 20
-22.3482707046
 10
10.8533385495
 20
-22.3522884217
 10
10.8320684489
 20
-22.361817674
 10
10.8103126543
 20
-22.3703454156
 10
10.7881404311
 20
-22.3778369941
 10
10.7655807771
 20
-22.3842754978
 10
10.7427032516
 20
-22.3896340413
 10
10.7196438765
 20
-22.3938816039
 10
10.6964851131
 20
-22.3970121642
 10
10.6732526189
 20
-22.3990313623
 10
10.6499996309
 20
-22.3999415484
  0
LWPOLYLINE
  5
3FF
100
AcDbEntity
  8
RACCORDO
100
AcDbPolyline
 62
250
  6
CONTINUOUS
 90
31
 70
0
 10
8.5130943479
 20
24.4869014213
 10
8.500042008
 20
24.4865600141
 10
8.4870171136
 20
24.4855367515
 10
8.474055339
 20
24.4838331472
 10
8.4611896202
 20
24.4814520171
 10
8.4484581551
 20
24.4783989037
 10
8.4359039705
 20
24.474683464
 10
8.4235641666
 20
24.4703169129
 10
8.4114698104
 20
24.465310483
 10
8.3996537322
 20
24.4596777344
 10
8.3881481318
 20
24.4534339327
 10
8.3769848134
 20
24.4465962509
 10
8.3661947342
 20
24.4391836209
 10
8.3558076083
 20
24.4312164786
 10
8.3458517711
 20
24.4227165817
 10
8.3363544367
 20
24.4137071599
 10
8.3273416176
 20
24.4042128667
 10
8.3188380761
 20
24.3942597633
 10
8.3108671679
 20
24.383875174
 10
8.303450761
 20
24.3730875837
 10
8.2966091852
 20
24.3619265577
 10
8.2903612061
 20
24.3504227019
 10
8.2847239578
 20
24.3386075563
 10
8.2797129023
 20
24.3265135191
 10
8.2753417872
 20
24.314173763
 10
8.2716225977
 20
24.3016221155
 10
8.2685655366
 20
24.2888930016
 10
8.2661789939
 20
24.2760213619
 10
8.2644695107
 20
24.2630425045
 10
8.2634417677
 20
24.2499920062
 10
8.2630985787
 20
24.2369056521
  0
LWPOLYLINE
  5
400
100
AcDbEntity
  8
RACCORDO
100
AcDbPolyline
 62
250
  6
CONTINUOUS
 90
31
 70
0
 10
-10.3869056521
 20
24.4869014213
 10
-10.3999920062
 20
24.4865582323
 10
-10.4130425045
 20
24.4855304893
 10
-10.4260213619
 20
24.4838210061
 10
-10.4388930016
 20
24.4814344634
 10
-10.4516221155
 20
24.4783774023
 10
-10.464173763
 20
24.4746582128
 10
-10.4765135191
 20
24.4702870977
 10
-10.4886075563
 20
24.4652760422
 10
-10.5004227019
 20
24.4596387939
 10
-10.5119265577
 20
24.4533908148
 10
-10.5230875837
 20
24.446549239
 10
-10.533875174
 20
24.4391328321
 10
-10.5442597633
 20
24.4311619239
 10
-10.5542128667
 20
24.4226583824
 10
-10.5637071599
 20
24.4136455633
 10
-10.5727165817
 20
24.4041482289
 10
-10.5812164786
 20
24.3941923917
 10
-10.5891836209
 20
24.3838052658
 10
-10.5965962509
 20
24.3730151866
 10
-10.6034339327
 20
24.3618518682
 10
-10.6096777344
 20
24.3503462678
 10
-10.615310483
 20
24.3385301896
 10
-10.6203169129
 20
24.3264358334
 10
-10.624683464
 20
24.3140960295
 10
-10.6283989037
 20
24.3015418449
 10
-10.6314520171
 20
24.2888103798
 10
-10.6338331472
 20
24.275944661
 10
-10.6355367515
 20
24.2629828864
 10
-10.6365600141
 20
24.249957992
 10
-10.6369014213
 20
24.2369056521
  0
LWPOLYLINE
  5
401
100
AcDbEntity
  8
RACCORDO
100
AcDbPolyline
 62
7
  6
CONTINUOUS
 90
34
 70
0
 10
8.4999957692
 20
24.5
 10
8.488100484
 20
24.4997168498
 10
8.4762321444
 20
24.4988680342
 10
8.4644176339
 20
24.4974554741
 10
8.4526837125
 20
24.4954823677
 10
8.4410569612
 20
24.4929531817
 10
8.429563721
 20
24.4898736417
 10
8.4182300262
 20
24.4862507213
 10
8.4070815507
 20
24.4820926258
 10
8.3961435537
 20
24.4774087722
 10
8.3854408124
 20
24.4722097688
 10
8.3749975717
 20
24.4665073916
 10
8.3648374941
 20
24.4603145581
 10
8.3549835949
 20
24.4536452955
 10
8.3454581962
 20
24.4465147107
 10
8.3362828809
 20
24.4389389589
 10
8.3274784339
 20
24.4309352005
 10
8.3190647995
 20
24.4225215661
 10
8.3110610411
 20
24.4137171191
 10
8.3034852893
 20
24.4045418038
 10
8.2963547045
 20
24.3950164051
 10
8.2896854419
 20
24.3851625059
 10
8.2834926084
 20
24.3750024283
 10
8.2777902312
 20
24.3645591876
 10
8.2725912278
 20
24.3538564463
 10
8.2679073742
 20
24.3429184493
 10
8.2637492787
 20
24.3317699738
 10
8.2601263583
 20
24.320436279
 10
8.2570468183
 20
24.3089430388
 10
8.2545176323
 20
24.2973162875
 10
8.2525445259
 20
24.2855823661
 10
8.2511319658
 20
24.2737678556
 10
8.2502831502
 20
24.261899516
 10
8.25
 20
24.2500042308
  0
LWPOLYLINE
  5
402
100
AcDbEntity
  8
RACCORDO
100
AcDbPolyline
 62
7
  6
CONTINUOUS
 90
34
 70
0
 10
-10.4000042308
 20
24.5
 10
-10.411899516
 20
24.4997168498
 10
-10.4237678556
 20
24.4988680342
 10
-10.4355823661
 20
24.4974554741
 10
-10.4473162875
 20
24.4954823677
 10
-10.4589430388
 20
24.4929531817
 10
-10.470436279
 20
24.4898736417
 10
-10.4817699738
 20
24.4862507213
 10
-10.4929184493
 20
24.4820926258
 10
-10.5038564463
 20
24.4774087722
 10
-10.5145591876
 20
24.4722097688
 10
-10.5250024283
 20
24.4665073916
 10
-10.5351625059
 20
24.4603145581
 10
-10.5450164051
 20
24.4536452955
 10
-10.5545418038
 20
24.4465147107
 10
-10.5637171191
 20
24.4389389589
 10
-10.5725215661
 20
24.4309352005
 10
-10.5809352005
 20
24.4225215661
 10
-10.5889389589
 20
24.4137171191
 10
-10.5965147107
 20
24.4045418038
 10
-10.6036452955
 20
24.3950164051
 10
-10.6103145581
 20
24.3851625059
 10
-10.6165073916
 20
24.3750024283
 10
-10.6222097688
 20
24.3645591876
 10
-10.6274087722
 20
24.3538564463
 10
-10.6320926258
 20
24.3429184493
 10
-10.6362507213
 20
24.3317699738
 10
-10.6398736417
 20
24.320436279
 10
-10.6429531817
 20
24.3089430388
 10
-10.6454823677
 20
24.2973162875
 10
-10.6474554741
 20
24.2855823661
 10
-10.6488680342
 20
24.2737678556
 10
-10.6497168498
 20
24.261899516
 10
-10.65
 20
24.2500042308
  0
LINE
  5
403
100
AcDbEntity
  8
RACCORDO
100
AcDbLine
 62
250
  6
CONTINUOUS
 10
3.8970826234
 20
23.5953423515
 11
-3.8970826234
 21
23.5953423515
  0
LINE
  5
404
100
AcDbEntity
  8
RACCORDO
100
AcDbLine
 62
250
  6
CONTINUOUS
 10
-10.3869056521
 20
23.6278312164
 11
-8.5130943479
 21
23.6278312164
  0
LINE
  5
405
100
AcDbEntity
  8
RACCORDO
100
AcDbLine
 62
250
  6
CONTINUOUS
 10
8.5130943479
 20
23.6278312164
 11
10.3869056521
 21
23.6278312164
  0
LINE
  5
406
100
AcDbEntity
  8
RACCORDO
100
AcDbLine
 62
250
  6
CONTINUOUS
 10
4.2962073137
 20
23.7953389668
 11
-4.2962073137
 21
23.7953389668
  0
LINE
  5
407
100
AcDbEntity
  8
DRAFT
100
AcDbLine
 62
7
  6
CONTINUOUS
 10
-4.4
 20
23.8
 11
4.4
 21
23.8
  0
LINE
  5
408
100
AcDbEntity
  8
RACCORDO
100
AcDbLine
 62
250
  6
CONTINUOUS
 10
8.2630985787
 20
23.8443375673
 11
10.6369014213
 21
23.8443375673
  0
LINE
  5
409
100
AcDbEntity
  8
RACCORDO
100
AcDbLine
 62
250
  6
CONTINUOUS
 10
-8.2630985787
 20
23.8443375673
 11
-10.6369014213
 21
23.8443375673
  0
LINE
  5
40A
100
AcDbEntity
  8
RACCORDO
100
AcDbLine
 62
250
  6
CONTINUOUS
 10
8.2630985787
 20
24.2369056521
 11
10.6369014213
 21
24.2369056521
  0
LINE
  5
40B
100
AcDbEntity
  8
RACCORDO
100
AcDbLine
 62
250
  6
CONTINUOUS
 10
-8.2630985787
 20
24.2369056521
 11
-10.6369014213
 21
24.2369056521
  0
LINE
  5
40C
100
AcDbEntity
  8
RACCORDO
100
AcDbLine
 62
250
  6
CONTINUOUS
 10
10.3869056521
 20
24.4869014213
 11
8.5130943479
 21
24.4869014213
  0
LINE
  5
40D
100
AcDbEntity
  8
RACCORDO
100
AcDbLine
 62
250
  6
CONTINUOUS
 10
-8.5130943479
 20
24.4869014213
 11
-10.3869056521
 21
24.4869014213
  0
LINE
  5
40E
100
AcDbEntity
  8
RACCORDO
100
AcDbLine
 62
7
  6
CONTINUOUS
 10
-10.4000042308
 20
24.5
 11
-8.4999957692
 21
24.5
  0
LINE
  5
40F
100
AcDbEntity
  8
RACCORDO
100
AcDbLine
 62
7
  6
CONTINUOUS
 10
8.4999957692
 20
24.5
 11
10.4000042308
 21
24.5
  0
LWPOLYLINE
  5
410
100
AcDbEntity
  8
0
100
AcDbPolyline
 62
7
  6
CONTINUOUS
 90
7
 70
0
 43
0.3500000006
 10
-0.4285714127
 20
33.2500007629
 10
-1.9285714102
 20
33.2500007629
 10
-0.4285714127
 20
35.3928592072
 10
-0.4285714127
 20
35.8214281769
 10
-0.8571428254
 20
36.2500016785
 10
-1.5000000329
 20
36.2500016785
 10
-1.9285714102
 20
35.607143692
  0
LWPOLYLINE
  5
411
100
AcDbEntity
  8
0
100
AcDbPolyline
 62
7
  6
CONTINUOUS
 90
6
 70
0
 43
0.3500000006
 10
2.1428571696
 20
33.2500007629
 10
3.2142856836
 20
33.2500007629
 10
3.4285713015
 20
33.4642852478
 10
3.4285713015
 20
34.535712204
 10
3.0000000658
 20
34.9642857056
 10
2.5714285469
 20
34.9642857056
  0
LWPOLYLINE
  5
412
100
AcDbEntity
  8
0
100
AcDbPolyline
 62
7
  6
CONTINUOUS
 90
7
 70
0
 43
0.3500000006
 10
-2.7857141647
 20
33.2500007629
 10
-4.2857143393
 20
33.2500007629
 10
-2.7857141647
 20
35.3928592072
 10
-2.7857141647
 20
35.8214281769
 10
-3.2142856836
 20
36.2500016785
 10
-3.8571428204
 20
36.2500016785
 10
-4.2857143393
 20
35.607143692
  0
LINE
  5
413
100
AcDbEntity
  8
RACCORDO
100
AcDbLine
 62
250
  6
CONTINUOUS
 10
11.15
 20
21.9011798444
 11
11.1325823343
 21
21.909888014
  0
LINE
  5
414
100
AcDbEntity
  8
RACCORDO
100
AcDbLine
 62
7
  6
CONTINUOUS
 10
10.879046662
 20
22.3395304767
 11
10.8615448759
 21
22.3482807033
  0
LWPOLYLINE
  5
415
100
AcDbEntity
  8
RACCORDO
100
AcDbPolyline
 62
7
  6
CONTINUOUS
 90
25
 70
0
 10
10.8615648735
 20
22.3482707046
 10
10.8740339205
 20
22.3418109895
 10
10.8941586403
 20
22.3303970169
 10
10.9137781602
 20
22.3180089201
 10
10.932886211
 20
22.3046350291
 10
10.9513885598
 20
22.2903251119
 10
10.9692135166
 20
22.2751254563
 10
10.9863294154
 20
22.259054914
 10
11.0026802205
 20
22.2421575722
 10
11.0181711134
 20
22.2245328395
 10
11.0327680029
 20
22.2062307982
 10
11.0464473842
 20
22.1872928453
 10
11.0591499375
 20
22.1678207565
 10
11.0708490745
 20
22.1478877728
 10
11.0815459557
 20
22.1275267947
 10
11.0912337096
 20
22.1067839739
 10
11.0999002847
 20
22.0857223491
 10
11.1075461593
 20
22.0643819723
 10
11.1141806365
 20
22.0427714956
 10
11.1197998708
 20
22.0209310001
 10
11.1243976375
 20
21.9989170614
 10
11.1279750642
 20
21.9767602752
 10
11.1305312827
 20
21.9545022069
 10
11.1320660506
 20
21.9321958432
 10
11.1325823343
 20
21.909888014
  0
LWPOLYLINE
  5
416
100
AcDbEntity
  8
0
100
AcDbPolyline
 62
7
  6
CONTINUOUS
 90
5
 70
0
 43
0.3500000006
 10
-41.1172290802
 20
44.8820445557
 10
-40.7600867615
 20
45.0963290405
 10
-40.7600867615
 20
45.739187027
 10
-41.1172290802
 20
46.1677605286
 10
-41.9743715515
 20
46.1677605286
  0
LWPOLYLINE
  5
417
100
AcDbEntity
  8
0
100
AcDbPolyline
 62
7
  6
CONTINUOUS
 90
5
 70
0
 43
0.3500000006
 10
-38.974370636
 20
44.8820445557
 10
-38.6172283173
 20
45.0963290405
 10
-38.6172283173
 20
45.739187027
 10
-38.974370636
 20
46.1677605286
 10
-39.8315176392
 20
46.1677605286
  0
LWPOLYLINE
  5
418
100
AcDbEntity
  8
0
100
AcDbPolyline
 62
7
  6
CONTINUOUS
 90
10
 70
0
 43
0.3500000006
 10
-35.5458007507
 20
43.167759613
 10
-34.6886582794
 20
44.0249020844
 10
-34.4743737946
 20
44.8820445557
 10
-34.4743737946
 20
45.739187027
 10
-34.9029450302
 20
46.1677605286
 10
-35.5458007507
 20
46.1677605286
 10
-35.9743719864
 20
45.739187027
 10
-35.9743719864
 20
44.8820445557
 10
-35.5458007507
 20
44.4534710541
 10
-34.6172293625
 20
44.4534710541
  0
LWPOLYLINE
  5
419
100
AcDbEntity
  8
0
100
AcDbPolyline
 62
7
  6
CONTINUOUS
 90
5
 70
0
 43
0.3500000006
 10
-33.6172290573
 20
34.9642857056
 10
-33.2600867386
 20
35.1785701904
 10
-33.2600867386
 20
35.8214281769
 10
-33.6172290573
 20
36.2500016785
 10
-34.4743737946
 20
36.2500016785
  0
LWPOLYLINE
  5
41A
100
AcDbEntity
  8
RACCORDO
100
AcDbPolyline
 62
7
  6
CONTINUOUS
 90
3
 70
0
 10
-46.7444503725
 20
23.123528707
 10
-46.745461743
 20
23.1229033082
 10
-46.7458012474
 20
23.1226497308
  0
LINE
  5
41B
100
AcDbEntity
  8
RACCORDO
100
AcDbLine
 62
7
  6
CONTINUOUS
 10
-46.7375072495
 20
23.1276610792
 11
-46.7444503725
 21
23.123528707
  0
LINE
  5
41C
100
AcDbEntity
  8
RACCORDO
100
AcDbLine
 62
7
  6
CONTINUOUS
 10
-46.6866267977
 20
23.1573625195
 11
-46.7375072495
 21
23.1276610792
  0
LINE
  5
41D
100
AcDbEntity
  8
RACCORDO
100
AcDbLine
 62
7
  6
CONTINUOUS
 10
-46.4972556802
 20
23.2669872981
 11
-46.6866267977
 21
23.1573625195
  0
LINE
  5
41E
100
AcDbEntity
  8
RACCORDO
100
AcDbLine
 62
7
  6
CONTINUOUS
 10
-44.4943468146
 20
-24.495628166
 11
-45.2458012474
 21
-24.5
  0
LINE
  5
41F
100
AcDbEntity
  8
RACCORDO
100
AcDbLine
 62
250
  6
CONTINUOUS
 10
-44.4943468146
 20
-24.2456323968
 11
-45.2458012474
 21
-24.2500042308
  0
LINE
  5
420
100
AcDbEntity
  8
RACCORDO
100
AcDbLine
 62
250
  6
CONTINUOUS
 10
-44.2458012474
 20
-24.2456323968
 11
-44.4943468146
 21
-24.2456323968
  0
LINE
  5
421
100
AcDbEntity
  8
RACCORDO
100
AcDbLine
 62
250
  6
CONTINUOUS
 10
-47.7458012474
 20
-24.2369056521
 11
-47.4972556802
 21
-24.2369056521
  0
LINE
  5
422
100
AcDbEntity
  8
RACCORDO
100
AcDbLine
 62
7
  6
CONTINUOUS
 10
-45.2458012474
 20
-24.5
 11
-47.4972556802
 21
-24.4869014213
  0
LINE
  5
423
100
AcDbEntity
  8
RACCORDO
100
AcDbLine
 62
250
  6
CONTINUOUS
 10
-45.2458012474
 20
-24.2500042308
 11
-47.4972556802
 21
-24.2369056521
  0
LINE
  5
424
100
AcDbEntity
  8
RACCORDO
100
AcDbLine
 62
7
  6
CONTINUOUS
 10
-46.4972556802
 20
-23.2669872981
 11
-46.6244043207
 21
-23.1934590071
  0
LINE
  5
425
100
AcDbEntity
  8
RACCORDO
100
AcDbLine
 62
7
  6
CONTINUOUS
 10
-46.6244043207
 20
-23.1934590071
 11
-46.7142316984
 21
-23.1412905703
  0
LINE
  5
426
100
AcDbEntity
  8
RACCORDO
100
AcDbLine
 62
7
  6
CONTINUOUS
 10
-46.7142316984
 20
-23.1412905703
 11
-46.740478868
 21
-23.1259025536
  0
LWPOLYLINE
  5
427
100
AcDbEntity
  8
RACCORDO
100
AcDbPolyline
 62
7
  6
CONTINUOUS
 90
5
 70
0
 10
-46.740478868
 20
-23.1259025536
 10
-46.7427949925
 20
-23.1245164325
 10
-46.7444578767
 20
-23.1234933505
 10
-46.7454639102
 20
-23.1228641607
 10
-46.7458012474
 20
-23.1226497308
  0
LINE
  5
428
100
AcDbEntity
  8
RACCORDO
100
AcDbLine
 62
250
  6
CONTINUOUS
 10
-45.2458012474
 20
23.4104851482
 11
-44.4943468146
 21
23.8443375673
  0
LINE
  5
429
100
AcDbEntity
  8
RACCORDO
100
AcDbLine
 62
7
  6
CONTINUOUS
 10
-45.2458012474
 20
23.1226497308
 11
-44.2458012474
 21
23.7
  0
LINE
  5
42A
100
AcDbEntity
  8
RACCORDO
100
AcDbLine
 62
7
  6
CONTINUOUS
 10
-45.2458012474
 20
-22.4
 11
-44.2458012474
 21
-22.3912731322
  0
LINE
  5
42B
100
AcDbEntity
  8
DRAFT
100
AcDbLine
 62
7
  6
CONTINUOUS
 10
-35.2370747119
 20
-22.3126551668
 11
-44.2458012474
 21
-22.3912731322
  0
LINE
  5
42C
100
AcDbEntity
  8
ASSI
100
AcDbLine
 62
7
  6
CONTINUOUS
 10
-44.2508939051
 20
-23.7942117984
 11
-37.7428923817
 21
-23.7563493531
  0
LINE
  5
42D
100
AcDbEntity
  8
RACCORDO
100
AcDbLine
 62
250
  6
CONTINUOUS
 10
-47.7458012474
 20
-23.8443375673
 11
-47.4972556802
 21
-23.8443375673
  0
LINE
  5
42E
100
AcDbEntity
  8
RACCORDO
100
AcDbLine
 62
250
  6
CONTINUOUS
 10
-44.2458012474
 20
-23.8443375673
 11
-44.4943468146
 21
-23.8443375673
  0
LINE
  5
42F
100
AcDbEntity
  8
RACCORDO
100
AcDbLine
 62
7
  6
CONTINUOUS
 10
-46.6015572195
 20
-22.3289478403
 11
-46.5211524377
 21
-22.3327253649
  0
LINE
  5
430
100
AcDbEntity
  8
RACCORDO
100
AcDbLine
 62
7
  6
CONTINUOUS
 10
-46.6015572195
 20
-22.3289478403
 11
-52.9025801363
 21
-21.998725222
  0
LINE
  5
431
100
AcDbEntity
  8
RACCORDO
100
AcDbLine
 62
250
  6
CONTINUOUS
 10
-52.8854871969
 20
-21.5093967499
 11
-45.243658645
 21
-21.909888014
  0
LINE
  5
432
100
AcDbEntity
  8
RACCORDO
100
AcDbLine
 62
7
  6
CONTINUOUS
 10
-45.2458012474
 20
-22.3999487714
 11
-46.5211524377
 21
-22.3327253649
  0
LINE
  5
433
100
AcDbEntity
  8
RACCORDO
100
AcDbLine
 62
250
  6
CONTINUOUS
 10
-44.4943468146
 20
-23.8443375673
 11
-45.2458012474
 21
-23.4104851482
  0
LINE
  5
434
100
AcDbEntity
  8
RACCORDO
100
AcDbLine
 62
7
  6
CONTINUOUS
 10
-44.3708012474
 20
-23.6278312164
 11
-45.2458012474
 21
-23.1226497308
  0
LINE
  5
435
100
AcDbEntity
  8
RACCORDO
100
AcDbLine
 62
250
  6
CONTINUOUS
 10
-45.243658645
 20
-21.909888014
 11
-44.2458012474
 21
-21.9011798444
  0
LINE
  5
436
100
AcDbEntity
  8
DRAFT
100
AcDbLine
 62
7
  6
CONTINUOUS
 10
-44.2458012474
 20
-20.85
 11
-34.2458012474
 21
-20.85
  0
LINE
  5
437
100
AcDbEntity
  8
ASSI
100
AcDbLine
 62
7
  6
CONTINUOUS
 10
-44.2458012474
 20
-20.85
 11
-34.2458012474
 21
-20.85
  0
LINE
  5
438
100
AcDbEntity
  8
DRAFT
100
AcDbLine
 62
7
  6
CONTINUOUS
 10
-34.7370750442
 20
-21.448622017
 11
-44.2458012474
 21
-21.4
  0
LINE
  5
439
100
AcDbEntity
  8
DRAFT
100
AcDbLine
 62
7
  6
CONTINUOUS
 10
-34.2458012474
 20
-20.9872686779
 11
-44.2458012474
 21
-20.9
  0
LWPOLYLINE
  5
43A
100
AcDbEntity
  8
RACCORDO
100
AcDbPolyline
 62
250
  6
CONTINUOUS
 90
5
 70
0
 10
-47.6183056449
 20
23.6326765842
 10
-47.619438021
 20
23.6305857918
 10
-47.6202327065
 20
23.6290788219
 10
-47.6206875293
 20
23.6281597935
 10
-47.6208012474
 20
23.6278312164
  0
LINE
  5
43B
100
AcDbEntity
  8
RACCORDO
100
AcDbLine
 62
250
  6
CONTINUOUS
 10
-47.6150410946
 20
23.6385852371
 11
-47.6183056449
 21
23.6326765842
  0
LINE
  5
43C
100
AcDbEntity
  8
RACCORDO
100
AcDbLine
 62
250
  6
CONTINUOUS
 10
-47.6077182372
 20
23.6516334796
 11
-47.6150410946
 21
23.6385852371
  0
LINE
  5
43D
100
AcDbEntity
  8
RACCORDO
100
AcDbLine
 62
250
  6
CONTINUOUS
 10
-47.5850809816
 20
23.6914794042
 11
-47.6077182372
 21
23.6516334796
  0
LINE
  5
43E
100
AcDbEntity
  8
RACCORDO
100
AcDbLine
 62
250
  6
CONTINUOUS
 10
-47.5102771164
 20
23.821769291
 11
-47.5850809816
 21
23.6914794042
  0
LINE
  5
43F
100
AcDbEntity
  8
RACCORDO
100
AcDbLine
 62
250
  6
CONTINUOUS
 10
-47.4972556802
 20
23.8443375673
 11
-47.5102771164
 21
23.821769291
  0
LINE
  5
440
100
AcDbEntity
  8
RACCORDO
100
AcDbLine
 62
250
  6
CONTINUOUS
 10
-54.3222653326
 20
-20.5624294561
 11
-54.3228069436
 21
-20.5624683134
  0
LINE
  5
441
100
AcDbEntity
  8
RACCORDO
100
AcDbLine
 62
250
  6
CONTINUOUS
 10
-54.3179355582
 20
-20.5622182607
 11
-54.3222653326
 21
-20.5624294561
  0
LINE
  5
442
100
AcDbEntity
  8
RACCORDO
100
AcDbLine
 62
250
  6
CONTINUOUS
 10
-54.0211841144
 20
-20.549728527
 11
-54.3179355582
 21
-20.5622182607
  0
LWPOLYLINE
  5
443
100
AcDbEntity
  8
RACCORDO
100
AcDbPolyline
 62
250
  6
CONTINUOUS
 90
6
 70
0
 10
-53.8417734331
 20
-20.5423171059
 10
-53.8647974244
 20
-20.5432654465
 10
-53.8877514651
 20
-20.5442116863
 10
-53.9105847052
 20
-20.545153729
 10
-53.9332465617
 20
-20.5460894876
 10
-54.0211841144
 20
-20.549728527
  0
LINE
  5
444
100
AcDbEntity
  8
RACCORDO
100
AcDbLine
 62
7
  6
CONTINUOUS
 10
-21.828348841
 20
-19.3942317309
 11
-34.2458012474
 21
-19.6109791689
  0
LINE
  5
445
100
AcDbEntity
  8
ASSI
100
AcDbLine
 62
7
  6
CONTINUOUS
 10
-21.828348841
 20
-19.3942317309
 11
-34.2458012474
 21
-19.6109791689
  0
LINE
  5
446
100
AcDbEntity
  8
RACCORDO
100
AcDbLine
 62
250
  6
CONTINUOUS
 10
-21.828348841
 20
-19.1013831211
 11
-34.2458012474
 21
-19.3181305591
  0
LINE
  5
447
100
AcDbEntity
  8
ASSI
100
AcDbLine
 62
250
  6
CONTINUOUS
 10
-21.828348841
 20
-19.1013831211
 11
-34.2458012474
 21
-19.3181305591
  0
LINE
  5
448
100
AcDbEntity
  8
RACCORDO
100
AcDbLine
 62
250
  6
CONTINUOUS
 10
-44.2458012474
 20
-19.0856972195
 11
-21.828348841
 21
-18.9236182982
  0
LINE
  5
449
100
AcDbEntity
  8
ASSI
100
AcDbLine
 62
250
  6
CONTINUOUS
 10
-44.2458012474
 20
-19.0856972195
 11
-21.828348841
 21
-18.9236182982
  0
LINE
  5
44A
100
AcDbEntity
  8
RACCORDO
100
AcDbLine
 62
250
  6
CONTINUOUS
 10
-47.4972556802
 20
-23.8443375673
 11
-47.5537476521
 21
-23.7462137069
  0
LINE
  5
44B
100
AcDbEntity
  8
RACCORDO
100
AcDbLine
 62
250
  6
CONTINUOUS
 10
-47.5537476521
 20
-23.7462137069
 11
-47.5976539388
 21
-23.6694018849
  0
LINE
  5
44C
100
AcDbEntity
  8
RACCORDO
100
AcDbLine
 62
250
  6
CONTINUOUS
 10
-47.5976539388
 20
-23.6694018849
 11
-47.6104767405
 21
-23.646736637
  0
LINE
  5
44D
100
AcDbEntity
  8
RACCORDO
100
AcDbLine
 62
250
  6
CONTINUOUS
 10
-47.6104767405
 20
-23.646736637
 11
-47.6150422452
 21
-23.6385831707
  0
LWPOLYLINE
  5
44E
100
AcDbEntity
  8
RACCORDO
100
AcDbPolyline
 62
250
  6
CONTINUOUS
 90
6
 70
0
 10
-47.6150422452
 20
-23.6385831707
 10
-47.6183061504
 20
-23.6326756587
 10
-47.6194383027
 20
-23.6305852658
 10
-47.6202328281
 20
-23.6290785857
 10
-47.620687557
 20
-23.6281597328
 10
-47.6208012474
 20
-23.6278312164
  0
LWPOLYLINE
  5
44F
100
AcDbEntity
  8
RACCORDO
100
AcDbPolyline
 62
250
  6
CONTINUOUS
 90
43
 70
0
 10
-53.8417734331
 20
-20.5423171059
 10
-53.839682218
 20
-20.5778269843
 10
-53.83635573
 20
-20.6131607224
 10
-53.8317939692
 20
-20.6483183201
 10
-53.8259882218
 20
-20.6833446468
 10
-53.8189472016
 20
-20.7181948331
 10
-53.8106970497
 20
-20.7527342708
 10
-53.8012332574
 20
-20.7869602486
 10
-53.7905603335
 20
-20.8208754778
 10
-53.7787179456
 20
-20.8543534838
 10
-53.7657018407
 20
-20.8873922594
 10
-53.7515162719
 20
-20.9199938119
 10
-53.7362136664
 20
-20.952037688
 10
-53.7197898867
 20
-20.9835218948
 10
-53.7022490704
 20
-21.0144484253
 10
-53.6836560571
 20
-21.0447028058
 10
-53.6640068676
 20
-21.0742826462
 10
-53.6433054812
 20
-21.1031903366
 10
-53.6216286752
 20
-21.1313185733
 10
-53.5989728925
 20
-21.1586643741
 10
-53.5753416903
 20
-21.1852307212
 10
-53.5508225177
 20
-21.2109192582
 10
-53.5254120792
 20
-21.2357267466
 10
-53.4991136703
 20
-21.2596564248
 10
-53.4720246265
 20
-21.2826196512
 10
-53.4441419078
 20
-21.3046129067
 10
-53.4154685542
 20
-21.3256397103
 10
-53.3861110208
 20
-21.3456219776
 10
-53.3560668804
 20
-21.3645557451
 10
-53.3253385602
 20
-21.3824449762
 10
-53.2940397969
 20
-21.3992234778
 10
-53.2621685386
 20
-21.414887133
 10
-53.2297268373
 20
-21.4294400586
 10
-53.1968345859
 20
-21.4428284112
 10
-53.1634897296
 20
-21.4550479619
 10
-53.1296943231
 20
-21.4661029396
 10
-53.0955744233
 20
-21.4759521886
 10
-53.0611278115
 20
-21.4845911872
 10
-53.0263567064
 20
-21.4920244571
 10
-52.991393821
 20
-21.4982244075
 10
-52.9562833932
 20
-21.5031818412
 10
-52.9209811851
 20
-21.5069059554
 10
-52.8854871969
 20
-21.5093967499
  0
LWPOLYLINE
  5
450
100
AcDbEntity
  8
RACCORDO
100
AcDbPolyline
 62
250
  6
CONTINUOUS
 90
22
 70
0
 10
-53.8417734331
 20
20.5423171059
 10
-53.9184245568
 20
18.5868071894
 10
-53.9874121586
 20
16.6310719384
 10
-54.0487362386
 20
14.675111353
 10
-54.102397504
 20
12.7188953699
 10
-54.1483952476
 20
10.7624540524
 10
-54.1867273476
 20
8.8058775899
 10
-54.2173934497
 20
6.8491660129
 10
-54.2403939083
 20
4.8923192911
 10
-54.2557276647
 20
2.9354275224
 10
-54.263394366
 20
0.9784907085
 10
-54.2633943651
 20
-0.9784911521
 10
-54.2557276621
 20
-2.9354279659
 10
-54.2403939039
 20
-4.8923197344
 10
-54.2173934436
 20
-6.8491664559
 10
-54.1867273397
 20
-8.8058780326
 10
-54.1483952373
 20
-10.7624545111
 10
-54.1023974914
 20
-12.7188958447
 10
-54.0487362257
 20
-14.6751117948
 10
-53.987412148
 20
-16.631072282
 10
-53.9184245505
 20
-18.5868073856
 10
-53.8417734331
 20
-20.5423171059
  0
LINE
  5
451
100
AcDbEntity
  8
RACCORDO
100
AcDbLine
 62
250
  6
CONTINUOUS
 10
-44.2458012474
 20
-17.6716990487
 11
-21.828348841
 21
-17.5096157267
  0
LINE
  5
452
100
AcDbEntity
  8
ASSI
100
AcDbLine
 62
250
  6
CONTINUOUS
 10
-44.2458012474
 20
-17.6716990487
 11
-21.828348841
 21
-17.5096157267
  0
LINE
  5
453
100
AcDbEntity
  8
RACCORDO
100
AcDbLine
 62
250
  6
CONTINUOUS
 10
-20.8458012474
 20
-17.509618074
 11
-21.828348841
 21
-17.509618074
  0
LINE
  5
454
100
AcDbEntity
  8
ASSI
100
AcDbLine
 62
250
  6
CONTINUOUS
 10
-20.8458012474
 20
-17.509618074
 11
-21.828348841
 21
-17.509618074
  0
LINE
  5
455
100
AcDbEntity
  8
ASSI
100
AcDbLine
 62
7
  6
CONTINUOUS
 10
-20.8458012474
 20
-17.1
 11
-28.3458012474
 21
-17.1
  0
LINE
  5
456
100
AcDbEntity
  8
0
100
AcDbLine
 62
250
  6
CONTINUOUS
 10
-35.6458012474
 20
-16.0
 11
-37.1455727901
 21
-16.0
  0
LWPOLYLINE
  5
457
100
AcDbEntity
  8
RACCORDO
100
AcDbPolyline
 62
250
  6
CONTINUOUS
 90
11
 70
0
 10
-52.9036383917
 20
-21.9441865937
 10
-52.9038061707
 20
-21.9543706401
 10
-52.9039131497
 20
-21.9635478493
 10
-52.9039590867
 20
-21.971697456
 10
-52.9039438779
 20
-21.9788010203
 10
-52.9038675575
 20
-21.984842469
 10
-52.9037302983
 20
-21.9898081321
 10
-52.9035324109
 20
-21.993686774
 10
-52.903274343
 20
-21.9964696185
 10
-52.9029566785
 20
-21.9981503688
 10
-52.9025801363
 20
-21.998725222
  0
LWPOLYLINE
  5
458
100
AcDbEntity
  8
RACCORDO
100
AcDbPolyline
 62
7
  6
CONTINUOUS
 90
11
 70
0
 10
-45.2458646973
 20
22.3999415484
 10
-45.246278905
 20
22.3990313623
 10
-45.2466614949
 20
22.3970121642
 10
-45.2470115581
 20
22.3938816039
 10
-45.2473258023
 20
22.3896340413
 10
-45.2476056294
 20
22.3842754978
 10
-45.2478570752
 20
22.3778369941
 10
-45.24808071
 20
22.3703454156
 10
-45.248273861
 20
22.361817674
 10
-45.2484376406
 20
22.3522884217
 10
-45.2486724582
 20
22.3303970169
  0
LINE
  5
459
100
AcDbEntity
  8
0
100
AcDbLine
 62
250
  6
CONTINUOUS
 10
-38.7458012474
 20
16.0
 11
-41.6449189463
 21
14.991935
  0
LINE
  5
45A
100
AcDbEntity
  8
0
100
AcDbLine
 62
250
  6
CONTINUOUS
 10
-39.3604402474
 20
15.164584
 11
-38.7458012474
 21
15.373574
  0
LINE
  5
45B
100
AcDbEntity
  8
0
100
AcDbLine
 62
250
  6
CONTINUOUS
 10
-39.3602530367
 20
15.164584
 11
-38.7458012474
 21
15.373574
  0
LINE
  5
45C
100
AcDbEntity
  8
0
100
AcDbLine
 62
250
  6
CONTINUOUS
 10
-41.0907637859
 20
14.606449
 11
-39.8420392464
 21
15.007869
  0
LINE
  5
45D
100
AcDbEntity
  8
INCISIONI
100
AcDbLine
 62
250
  6
CONTINUOUS
 10
-41.6525726144
 20
-15.342748
 11
-39.6572595449
 21
-14.790021
  0
LINE
  5
45E
100
AcDbEntity
  8
0
100
AcDbLine
 62
250
  6
CONTINUOUS
 10
-37.1455727901
 20
-15.1428571045
 11
-35.6458012474
 21
-15.1428571045
  0
LINE
  5
45F
100
AcDbEntity
  8
INCISIONI
100
AcDbLine
 62
250
  6
CONTINUOUS
 10
-39.6572595449
 20
-14.790021
 11
-41.6525726144
 21
-14.22041
  0
LINE
  5
460
100
AcDbEntity
  8
INCISIONI
100
AcDbLine
 62
250
  6
CONTINUOUS
 10
-41.6525726144
 20
-13.615552
 11
-38.7538028095
 21
-14.547617
  0
LWPOLYLINE
  5
461
100
AcDbEntity
  8
RACCORDO
100
AcDbPolyline
 62
250
  6
CONTINUOUS
 90
6
 70
0
 10
-47.4972556802
 20
-24.4869014213
 10
-47.497329802
 20
-24.4865583827
 10
-47.4973997343
 20
-24.4855310928
 10
-47.4974652854
 20
-24.4838223673
 10
-47.4975262757
 20
-24.4814368893
 10
-47.497582538
 20
-24.4783811971
  0
LINE
  5
462
100
AcDbEntity
  8
RACCORDO
100
AcDbLine
 62
250
  6
CONTINUOUS
 10
-52.8854871969
 20
21.5093967499
 11
-52.8901818473
 21
21.6019495819
  0
LINE
  5
463
100
AcDbEntity
  8
RACCORDO
100
AcDbLine
 62
250
  6
CONTINUOUS
 10
-52.8901818473
 20
21.6019495819
 11
-52.8943982965
 21
21.6911612018
  0
LINE
  5
464
100
AcDbEntity
  8
RACCORDO
100
AcDbLine
 62
250
  6
CONTINUOUS
 10
-52.8943982965
 20
21.6911612018
 11
-52.8979843275
 21
21.7738110071
  0
LINE
  5
465
100
AcDbEntity
  8
RACCORDO
100
AcDbLine
 62
250
  6
CONTINUOUS
 10
-52.8979843275
 20
21.7738110071
 11
-52.900810482
 21
21.8469152795
  0
LINE
  5
466
100
AcDbEntity
  8
RACCORDO
100
AcDbLine
 62
250
  6
CONTINUOUS
 10
-52.900810482
 20
21.8469152795
 11
-52.9023689119
 21
21.8938759021
  0
LINE
  5
467
100
AcDbEntity
  8
RACCORDO
100
AcDbLine
 62
250
  6
CONTINUOUS
 10
-52.9023689119
 20
21.8938759021
 11
-52.9031220888
 21
21.9208923545
  0
LWPOLYLINE
  5
468
100
AcDbEntity
  8
RACCORDO
100
AcDbPolyline
 62
250
  6
CONTINUOUS
 90
12
 70
0
 10
-52.9031220888
 20
21.9208923545
 10
-52.9036383916
 20
21.9441865683
 10
-52.9038061707
 20
21.9543706189
 10
-52.9039131498
 20
21.963547832
 10
-52.903959087
 20
21.9716974425
 10
-52.9039438782
 20
21.9788010101
 10
-52.9038675578
 20
21.9848424618
 10
-52.9037302987
 20
21.9898081274
 10
-52.9035324112
 20
21.9936867713
 10
-52.9032743432
 20
21.9964696173
 10
-52.9029566787
 20
21.9981503685
 10
-52.9025801363
 20
21.998725222
  0
LINE
  5
469
100
AcDbEntity
  8
RACCORDO
100
AcDbLine
 62
250
  6
CONTINUOUS
 10
-52.9031220893
 20
-21.9208923884
 11
-52.9036383917
 21
-21.9441865937
  0
LINE
  5
46A
100
AcDbEntity
  8
RACCORDO
100
AcDbLine
 62
250
  6
CONTINUOUS
 10
-52.9023689128
 20
-21.8938759441
 11
-52.9031220893
 21
-21.9208923884
  0
LINE
  5
46B
100
AcDbEntity
  8
RACCORDO
100
AcDbLine
 62
250
  6
CONTINUOUS
 10
-52.9008104835
 20
-21.8469153316
 11
-52.9023689128
 21
-21.8938759441
  0
LINE
  5
46C
100
AcDbEntity
  8
RACCORDO
100
AcDbLine
 62
250
  6
CONTINUOUS
 10
-52.8979843296
 20
-21.773811065
 11
-52.9008104835
 21
-21.8469153316
  0
LINE
  5
46D
100
AcDbEntity
  8
RACCORDO
100
AcDbLine
 62
250
  6
CONTINUOUS
 10
-52.8933976911
 20
-21.6693508878
 11
-52.8979843296
 21
-21.773811065
  0
LWPOLYLINE
  5
46E
100
AcDbEntity
  8
RACCORDO
100
AcDbPolyline
 62
250
  6
CONTINUOUS
 90
3
 70
0
 10
-52.8854871969
 20
-21.5093967499
 10
-52.8866966621
 20
-21.5326664173
 10
-52.8933976911
 20
-21.6693508878
  0
LWPOLYLINE
  5
46F
100
AcDbEntity
  8
0
100
AcDbPolyline
 62
7
  6
CONTINUOUS
 90
3
 70
0
 43
0.3500000006
 10
-36.9743722916
 20
43.4534707489
 10
-37.0458012085
 20
43.239186264
 10
-37.1886590424
 20
42.9534751282
  0
LINE
  5
470
100
AcDbEntity
  8
0
100
AcDbLine
 62
7
  6
CONTINUOUS
 10
-41.6449189463
 20
14.9221273823
 11
-41.537898925
 21
15.0291474036
  0
LINE
  5
471
100
AcDbEntity
  8
0
100
AcDbLine
 62
7
  6
CONTINUOUS
 10
-41.6449189463
 20
14.5021059542
 11
-40.8939763328
 21
15.2530485678
  0
LINE
  5
472
100
AcDbEntity
  8
0
100
AcDbLine
 62
7
  6
CONTINUOUS
 10
-41.5194825845
 20
14.207520888
 11
-40.2500537405
 21
15.476949732
  0
LINE
  5
473
100
AcDbEntity
  8
0
100
AcDbLine
 62
250
  6
CONTINUOUS
 10
-35.6458012474
 20
-13.428571403
 11
-37.1455727901
 21
-13.428571403
  0
LINE
  5
474
100
AcDbEntity
  8
INCISIONI
100
AcDbLine
 62
250
  6
CONTINUOUS
 10
-41.6527465614
 20
-13.390935
 11
-38.7538028095
 21
-13.390935
  0
LINE
  5
475
100
AcDbEntity
  8
ASSI
100
AcDbLine
 62
7
  6
CONTINUOUS
 10
-20.8458012474
 20
-12.9
 11
-28.3458012474
 21
-12.9
  0
LINE
  5
476
100
AcDbEntity
  8
INCISIONI
100
AcDbLine
 62
250
  6
CONTINUOUS
 10
-38.7538028095
 20
-12.785664
 11
-41.6527465614
 21
-12.785664
  0
LINE
  5
477
100
AcDbEntity
  8
0
100
AcDbLine
 62
250
  6
CONTINUOUS
 10
-36.9313197254
 20
-12.6785715818
 11
-35.8600543345
 21
-12.6785715818
  0
LINE
  5
478
100
AcDbEntity
  8
ASSI
100
AcDbLine
 62
7
  6
CONTINUOUS
 10
-20.8458012474
 20
-12.1
 11
-28.3458012474
 21
-12.1
  0
LINE
  5
479
100
AcDbEntity
  8
0
100
AcDbLine
 62
250
  6
CONTINUOUS
 10
-35.6458012474
 20
-12.0714285374
 11
-37.1455727901
 21
-12.0714285374
  0
LINE
  5
47A
100
AcDbEntity
  8
INCISIONI
100
AcDbLine
 62
250
  6
CONTINUOUS
 10
-40.6466450996
 20
-11.750162
 11
-38.7538028095
 21
-11.880779
  0
LINE
  5
47B
100
AcDbEntity
  8
INCISIONI
100
AcDbLine
 62
250
  6
CONTINUOUS
 10
-38.7538028095
 20
-12.459827
 11
-41.6525726144
 21
-12.198005
  0
LINE
  5
47C
100
AcDbEntity
  8
0
100
AcDbLine
 62
250
  6
CONTINUOUS
 10
-35.6458012474
 20
-14.7142857015
 11
-37.1455727901
 21
-14.2857142091
  0
LINE
  5
47D
100
AcDbEntity
  8
0
100
AcDbLine
 62
250
  6
CONTINUOUS
 10
-36.2885604864
 20
-15.5714285523
 11
-37.1455727901
 21
-15.1428571045
  0
LINE
  5
47E
100
AcDbEntity
  8
0
100
AcDbLine
 62
7
  6
CONTINUOUS
 10
-41.2110158273
 20
14.0959662171
 11
-40.8004821564
 21
14.506499888
  0
LINE
  5
47F
100
AcDbEntity
  8
0
100
AcDbLine
 62
7
  6
CONTINUOUS
 10
-40.5156568672
 20
14.7913251772
 11
-39.6061311483
 21
15.7008508962
  0
LINE
  5
480
100
AcDbEntity
  8
0
100
AcDbLine
 62
7
  6
CONTINUOUS
 10
-40.9025490702
 20
13.9844115462
 11
-40.4880400765
 21
14.39892054
  0
LINE
  5
481
100
AcDbEntity
  8
0
100
AcDbLine
 62
7
  6
CONTINUOUS
 10
-39.8966455911
 20
14.9903150254
 11
-38.9622085561
 21
15.9247520604
  0
LINE
  5
482
100
AcDbEntity
  8
0
100
AcDbLine
 62
7
  6
CONTINUOUS
 10
-41.6449189463
 20
12.8220202421
 11
-41.5557411884
 21
12.911198
  0
LINE
  5
483
100
AcDbEntity
  8
0
100
AcDbLine
 62
7
  6
CONTINUOUS
 10
-40.5940823131
 20
13.8728568754
 11
-40.1755979965
 21
14.291341192
  0
LINE
  5
484
100
AcDbEntity
  8
0
100
AcDbLine
 62
7
  6
CONTINUOUS
 10
-39.8420392464
 20
14.624899942
 11
-39.3602530367
 21
15.1066861518
  0
LINE
  5
485
100
AcDbEntity
  8
0
100
AcDbLine
 62
7
  6
CONTINUOUS
 10
-39.2725124964
 20
15.194426692
 11
-38.7458012474
 21
15.721137941
  0
LINE
  5
486
100
AcDbEntity
  8
0
100
AcDbLine
 62
7
  6
CONTINUOUS
 10
-41.6449189463
 20
12.4019988141
 11
-41.1357197604
 21
12.911198
  0
LINE
  5
487
100
AcDbEntity
  8
0
100
AcDbLine
 62
7
  6
CONTINUOUS
 10
-40.2856155559
 20
13.7613022045
 11
-39.8631559165
 21
14.1837618439
  0
LINE
  5
488
100
AcDbEntity
  8
0
100
AcDbLine
 62
7
  6
CONTINUOUS
 10
-39.8420392464
 20
14.204878514
 11
-39.3602530367
 21
14.6866647237
  0
LINE
  5
489
100
AcDbEntity
  8
0
100
AcDbLine
 62
7
  6
CONTINUOUS
 10
-41.2981423324
 20
12.328754
 11
-40.7156983324
 21
12.911198
  0
LINE
  5
48A
100
AcDbEntity
  8
0
100
AcDbLine
 62
7
  6
CONTINUOUS
 10
-39.9771487988
 20
13.6497475336
 11
-39.3602530367
 21
14.2666432957
  0
LINE
  5
48B
100
AcDbEntity
  8
0
100
AcDbLine
 62
7
  6
CONTINUOUS
 10
-40.8781209043
 20
12.328754
 11
-40.2956769043
 21
12.911198
  0
LINE
  5
48C
100
AcDbEntity
  8
0
100
AcDbLine
 62
7
  6
CONTINUOUS
 10
-39.6686820416
 20
13.5381928627
 11
-39.2351881201
 21
13.9716867843
  0
LINE
  5
48D
100
AcDbEntity
  8
0
100
AcDbLine
 62
7
  6
CONTINUOUS
 10
-41.6449189463
 20
11.14193453
 11
-41.5010309228
 21
11.2858225536
  0
LINE
  5
48E
100
AcDbEntity
  8
0
100
AcDbLine
 62
7
  6
CONTINUOUS
 10
-40.4580994763
 20
12.328754
 11
-39.8756554763
 21
12.911198
  0
LINE
  5
48F
100
AcDbEntity
  8
0
100
AcDbLine
 62
7
  6
CONTINUOUS
 10
-39.3602152845
 20
13.4266381919
 11
-38.9247717265
 21
13.8620817499
  0
LINE
  5
490
100
AcDbEntity
  8
INCISIONI
100
AcDbLine
 62
250
  6
CONTINUOUS
 10
-37.2741246528
 20
14.2047620773
 11
-37.5455118682
 21
13.978571558
  0
LINE
  5
491
100
AcDbEntity
  8
0
100
AcDbLine
 62
250
  6
CONTINUOUS
 10
-41.6449189463
 20
11.216139
 11
-39.3475049208
 21
12.328754
  0
LINE
  5
492
100
AcDbEntity
  8
0
100
AcDbLine
 62
250
  6
CONTINUOUS
 10
-38.7458012474
 20
12.027546
 11
-41.1721659843
 21
10.87477
  0
LINE
  5
493
100
AcDbEntity
  8
INCISIONI
100
AcDbLine
 62
250
  6
CONTINUOUS
 10
-38.7538028095
 20
-10.111193
 11
-40.6387545037
 21
-10.235548
  0
LINE
  5
494
100
AcDbEntity
  8
INCISIONI
100
AcDbLine
 62
250
  6
CONTINUOUS
 10
-40.0431669669
 20
-10.994355
 11
-41.6525726144
 21
-10.389084
  0
LINE
  5
495
100
AcDbEntity
  8
INCISIONI
100
AcDbLine
 62
250
  6
CONTINUOUS
 10
-40.6387545037
 20
-10.235548
 11
-38.7538028095
 21
-10.955216
  0
LINE
  5
496
100
AcDbEntity
  8
RACCORDO
100
AcDbLine
 62
250
  6
CONTINUOUS
 10
-47.497582538
 20
-24.4783811971
 11
-47.4976802753
 21
-24.4702944842
  0
LINE
  5
497
100
AcDbEntity
  8
RACCORDO
100
AcDbLine
 62
250
  6
CONTINUOUS
 10
-47.4976802753
 20
-24.4702944842
 11
-47.497788009
 21
-24.4534055187
  0
LINE
  5
498
100
AcDbEntity
  8
RACCORDO
100
AcDbLine
 62
250
  6
CONTINUOUS
 10
-47.4972556802
 20
24.2369056521
 11
-47.4977574264
 21
24.3503990946
  0
LINE
  5
499
100
AcDbEntity
  8
RACCORDO
100
AcDbLine
 62
7
  6
CONTINUOUS
 10
-47.7458012474
 20
-24.2369056521
 11
-47.7458012474
 21
-23.8443375673
  0
LINE
  5
49A
100
AcDbEntity
  8
RACCORDO
100
AcDbLine
 62
7
  6
CONTINUOUS
 10
-47.7458012474
 20
23.8443375673
 11
-47.7458012474
 21
24.2369056521
  0
LINE
  5
49B
100
AcDbEntity
  8
RACCORDO
100
AcDbLine
 62
250
  6
CONTINUOUS
 10
-47.4972556802
 20
-24.2369056521
 11
-47.4972556802
 21
-23.8443375673
  0
LINE
  5
49C
100
AcDbEntity
  8
RACCORDO
100
AcDbLine
 62
250
  6
CONTINUOUS
 10
-47.4972556802
 20
23.8443375673
 11
-47.4972556802
 21
24.2369056521
  0
LINE
  5
49D
100
AcDbEntity
  8
RACCORDO
100
AcDbLine
 62
7
  6
CONTINUOUS
 10
-46.7458012474
 20
23.1226497308
 11
-46.7458012474
 21
22.3213883311
  0
LINE
  5
49E
100
AcDbEntity
  8
RACCORDO
100
AcDbLine
 62
7
  6
CONTINUOUS
 10
-46.7458012474
 20
-22.3213883311
 11
-46.7458012474
 21
-23.1226497308
  0
LINE
  5
49F
100
AcDbEntity
  8
RACCORDO
100
AcDbLine
 62
250
  6
CONTINUOUS
 10
-46.4972556802
 20
23.2669872981
 11
-46.4972556802
 21
22.3339351971
  0
LINE
  5
4A0
100
AcDbEntity
  8
RACCORDO
100
AcDbLine
 62
250
  6
CONTINUOUS
 10
-46.4972556802
 20
-22.3339351971
 11
-46.4972556802
 21
-23.2669872981
  0
LINE
  5
4A1
100
AcDbEntity
  8
RACCORDO
100
AcDbLine
 62
250
  6
CONTINUOUS
 10
-47.497788009
 20
-24.4534055187
 11
-47.4978552725
 21
-24.4041825384
  0
LINE
  5
4A2
100
AcDbEntity
  8
RACCORDO
100
AcDbLine
 62
250
  6
CONTINUOUS
 10
-47.4977574264
 20
24.3503990946
 11
-47.4978468241
 21
24.4311858371
  0
LINE
  5
4A3
100
AcDbEntity
  8
RACCORDO
100
AcDbLine
 62
250
  6
CONTINUOUS
 10
-47.4978552725
 20
-24.4041825384
 11
-47.497582538
 21
-24.3016079562
  0
LINE
  5
4A4
100
AcDbEntity
  8
RACCORDO
100
AcDbLine
 62
250
  6
CONTINUOUS
 10
-47.4978468241
 20
24.4311858371
 11
-47.4977574264
 21
24.4596508246
  0
LINE
  5
4A5
100
AcDbEntity
  8
RACCORDO
100
AcDbLine
 62
250
  6
CONTINUOUS
 10
-47.497582538
 20
-24.3016079562
 11
-47.4972556802
 21
-24.2369056521
  0
LWPOLYLINE
  5
4A6
100
AcDbEntity
  8
RACCORDO
100
AcDbPolyline
 62
250
  6
CONTINUOUS
 90
8
 70
0
 10
-47.4977574264
 20
24.4596508246
 10
-47.4976339182
 20
24.4746636657
 10
-47.497582538
 20
24.4783811971
 10
-47.4975262757
 20
24.4814368893
 10
-47.4974652854
 20
24.4838223673
 10
-47.4973997343
 20
24.4855310928
 10
-47.497329802
 20
24.4865583827
 10
-47.4972556802
 20
24.4869014213
  0
LINE
  5
4A7
100
AcDbEntity
  8
0
100
AcDbLine
 62
7
  6
CONTINUOUS
 10
-41.6449189463
 20
10.721913102
 11
-40.6865779236
 21
11.6802541247
  0
LINE
  5
4A8
100
AcDbEntity
  8
0
100
AcDbLine
 62
7
  6
CONTINUOUS
 10
-40.0380780483
 20
12.328754
 11
-39.4556340483
 21
12.911198
  0
LINE
  5
4A9
100
AcDbEntity
  8
0
100
AcDbLine
 62
7
  6
CONTINUOUS
 10
-39.0517485273
 20
13.315083521
 11
-38.7458012474
 21
13.6210308009
  0
LINE
  5
4AA
100
AcDbEntity
  8
INCISIONI
100
AcDbLine
 62
250
  6
CONTINUOUS
 10
-36.4599629501
 20
15.607142663
 11
-36.7313502221
 21
15.335714221
  0
LINE
  5
4AB
100
AcDbEntity
  8
0
100
AcDbLine
 62
7
  6
CONTINUOUS
 10
-41.6449189463
 20
10.301891674
 11
-41.0720406203
 21
10.87477
  0
LINE
  5
4AC
100
AcDbEntity
  8
0
100
AcDbLine
 62
7
  6
CONTINUOUS
 10
-40.9814131569
 20
10.9653974634
 11
-39.8721249244
 21
12.0746856959
  0
LINE
  5
4AD
100
AcDbEntity
  8
0
100
AcDbLine
 62
7
  6
CONTINUOUS
 10
-39.6180566203
 20
12.328754
 11
-39.0356126203
 21
12.911198
  0
LINE
  5
4AE
100
AcDbEntity
  8
0
100
AcDbLine
 62
7
  6
CONTINUOUS
 10
-41.2344641922
 20
10.292325
 11
-40.6520191922
 21
10.87477
  0
LINE
  5
4AF
100
AcDbEntity
  8
0
100
AcDbLine
 62
7
  6
CONTINUOUS
 10
-40.1812135695
 20
11.3455756227
 11
-38.7458012474
 21
12.7809879448
  0
LINE
  5
4B0
100
AcDbEntity
  8
0
100
AcDbLine
 62
7
  6
CONTINUOUS
 10
-40.8144427642
 20
10.292325
 11
-40.2319977642
 21
10.87477
  0
LINE
  5
4B1
100
AcDbEntity
  8
0
100
AcDbLine
 62
7
  6
CONTINUOUS
 10
-39.3810139822
 20
11.725753782
 11
-38.7458012474
 21
12.3609665168
  0
LINE
  5
4B2
100
AcDbEntity
  8
INCISIONI
100
AcDbLine
 62
250
  6
CONTINUOUS
 10
-36.4599629501
 20
14.25
 11
-36.7313502221
 21
13.978571558
  0
LINE
  5
4B3
100
AcDbEntity
  8
0
100
AcDbLine
 62
7
  6
CONTINUOUS
 10
-40.3944213362
 20
10.292325
 11
-39.8119763362
 21
10.87477
  0
LINE
  5
4B4
100
AcDbEntity
  8
0
100
AcDbLine
 62
7
  6
CONTINUOUS
 10
-41.6449189463
 20
8.6218059619
 11
-41.1158348523
 21
9.1508900559
  0
LINE
  5
4B5
100
AcDbEntity
  8
0
100
AcDbLine
 62
7
  6
CONTINUOUS
 10
-39.9743999082
 20
10.292325
 11
-39.3919549082
 21
10.87477
  0
LINE
  5
4B6
100
AcDbEntity
  8
0
100
AcDbLine
 62
7
  6
CONTINUOUS
 10
-41.6257764864
 20
8.2209269938
 11
-40.4718751423
 21
9.3748283378
  0
LINE
  5
4B7
100
AcDbEntity
  8
0
100
AcDbLine
 62
7
  6
CONTINUOUS
 10
-39.5543784801
 20
10.292325
 11
-38.9719334801
 21
10.87477
  0
LINE
  5
4B8
100
AcDbEntity
  8
INCISIONI
100
AcDbLine
 62
250
  6
CONTINUOUS
 10
-37.2741246528
 20
12.8476189613
 11
-37.5455118682
 21
12.6214286685
  0
LINE
  5
4B9
100
AcDbEntity
  8
0
100
AcDbLine
 62
250
  6
CONTINUOUS
 10
-38.7458012474
 20
9.975074
 11
-41.6449189463
 21
8.9669
  0
LINE
  5
4BA
100
AcDbEntity
  8
0
100
AcDbLine
 62
250
  6
CONTINUOUS
 10
-39.3604402474
 20
9.139549
 11
-38.7458012474
 21
9.348431
  0
LINE
  5
4BB
100
AcDbEntity
  8
0
100
AcDbLine
 62
250
  6
CONTINUOUS
 10
-41.0909277359
 20
8.581471
 11
-39.8420392464
 21
8.982943
  0
LINE
  5
4BC
100
AcDbEntity
  8
INCISIONI
100
AcDbLine
 62
250
  6
CONTINUOUS
 10
-41.6525726144
 20
-9.790227
 11
-38.7538028095
 21
-9.519077
  0
LINE
  5
4BD
100
AcDbEntity
  8
0
100
AcDbLine
 62
250
  6
CONTINUOUS
 10
-35.6458012474
 20
-9.5357146263
 11
-37.1455727901
 21
-9.5357146263
  0
LINE
  5
4BE
100
AcDbEntity
  8
0
100
AcDbLine
 62
250
  6
CONTINUOUS
 10
-35.6458012474
 20
-8.8571429253
 11
-37.1455727901
 21
-8.8571429253
  0
LINE
  5
4BF
100
AcDbEntity
  8
0
100
AcDbLine
 62
250
  6
CONTINUOUS
 10
-35.6458012474
 20
-8.1071429253
 11
-37.1455727901
 21
-8.1071429253
  0
LINE
  5
4C0
100
AcDbEntity
  8
ASSI
100
AcDbLine
 62
7
  6
CONTINUOUS
 10
-20.8458012474
 20
-7.9
 11
-28.3458012474
 21
-7.9
  0
LINE
  5
4C1
100
AcDbEntity
  8
INCISIONI
100
AcDbLine
 62
250
  6
CONTINUOUS
 10
-40.856064294
 20
-8.233126
 11
-39.7802940589
 21
-8.5345
  0
LINE
  5
4C2
100
AcDbEntity
  8
INCISIONI
100
AcDbLine
 62
250
  6
CONTINUOUS
 10
-39.3325004923
 20
-8.658312
 11
-38.7538028095
 21
-8.825329
  0
LINE
  5
4C3
100
AcDbEntity
  8
INCISIONI
100
AcDbLine
 62
250
  6
CONTINUOUS
 10
-38.7538028095
 20
-9.424033
 11
-41.6525726144
 21
-8.514517
  0
LINE
  5
4C4
100
AcDbEntity
  8
RACCORDO
100
AcDbLine
 62
7
  6
CONTINUOUS
 10
-45.2462369709
 20
22.0427714956
 11
-45.243658645
 21
21.909888014
  0
LWPOLYLINE
  5
4C5
100
AcDbEntity
  8
RACCORDO
100
AcDbPolyline
 62
7
  6
CONTINUOUS
 90
10
 70
0
 10
-45.2484376406
 20
-22.3522884217
 10
-45.248273861
 20
-22.361817674
 10
-45.24808071
 20
-22.3703454156
 10
-45.2478570752
 20
-22.3778369941
 10
-45.2476056294
 20
-22.3842754978
 10
-45.2473258023
 20
-22.3896340413
 10
-45.2470115581
 20
-22.3938816039
 10
-45.2466614949
 20
-22.3970121642
 10
-45.246278905
 20
-22.3990313623
 10
-45.2458646973
 20
-22.3999415484
  0
LINE
  5
4C6
100
AcDbEntity
  8
RACCORDO
100
AcDbLine
 62
7
  6
CONTINUOUS
 10
-45.2477748099
 20
22.1478877728
 11
-45.2462369709
 21
22.0427714956
  0
LINE
  5
4C7
100
AcDbEntity
  8
RACCORDO
100
AcDbLine
 62
7
  6
CONTINUOUS
 10
-45.2486724582
 20
-22.3303970169
 11
-45.2484376406
 21
-22.3522884217
  0
LINE
  5
4C8
100
AcDbEntity
  8
RACCORDO
100
AcDbLine
 62
7
  6
CONTINUOUS
 10
-45.2485271662
 20
22.2245328395
 11
-45.2477748099
 21
22.1478877728
  0
LINE
  5
4C9
100
AcDbEntity
  8
RACCORDO
100
AcDbLine
 62
7
  6
CONTINUOUS
 10
-45.2487864181
 20
-22.3046350291
 11
-45.2486724582
 21
-22.3303970169
  0
LINE
  5
4CA
100
AcDbEntity
  8
RACCORDO
100
AcDbLine
 62
7
  6
CONTINUOUS
 10
-45.2487765433
 20
22.2751254563
 11
-45.2485271662
 21
22.2245328395
  0
LINE
  5
4CB
100
AcDbEntity
  8
RACCORDO
100
AcDbLine
 62
250
  6
CONTINUOUS
 10
-44.493755638
 20
-24.402986508
 11
-44.4943468146
 21
-24.2456323968
  0
LINE
  5
4CC
100
AcDbEntity
  8
RACCORDO
100
AcDbLine
 62
7
  6
CONTINUOUS
 10
-45.2458012474
 20
-22.3999410061
 11
-45.2458012474
 21
-24.5
  0
LINE
  5
4CD
100
AcDbEntity
  8
RACCORDO
100
AcDbLine
 62
7
  6
CONTINUOUS
 10
-45.2458012474
 20
22.3999410061
 11
-45.2458012474
 21
24.5
  0
LINE
  5
4CE
100
AcDbEntity
  8
RACCORDO
100
AcDbLine
 62
250
  6
CONTINUOUS
 10
-44.4943468146
 20
24.2456323968
 11
-44.4943468146
 21
23.8443375673
  0
LINE
  5
4CF
100
AcDbEntity
  8
RACCORDO
100
AcDbLine
 62
250
  6
CONTINUOUS
 10
-44.4943468146
 20
-23.8443375673
 11
-44.4943468146
 21
-24.2456323968
  0
LINE
  5
4D0
100
AcDbEntity
  8
RACCORDO
100
AcDbLine
 62
250
  6
CONTINUOUS
 10
-44.4937472422
 20
24.4128749736
 11
-44.4938144232
 21
24.4621175595
  0
LINE
  5
4D1
100
AcDbEntity
  8
RACCORDO
100
AcDbLine
 62
7
  6
CONTINUOUS
 10
-45.2487864181
 20
22.3046350291
 11
-45.2487765433
 21
22.2751254563
  0
LINE
  5
4D2
100
AcDbEntity
  8
RACCORDO
100
AcDbLine
 62
7
  6
CONTINUOUS
 10
-45.248724765
 20
-22.259054914
 11
-45.2487864181
 21
-22.3046350291
  0
LWPOLYLINE
  5
4D3
100
AcDbEntity
  8
RACCORDO
100
AcDbPolyline
 62
250
  6
CONTINUOUS
 90
3
 70
0
 10
-44.4938146069
 20
-24.4621606774
 10
-44.4937894411
 20
-24.4553229956
 10
-44.493755638
 20
-24.402986508
  0
LINE
  5
4D4
100
AcDbEntity
  8
RACCORDO
100
AcDbLine
 62
250
  6
CONTINUOUS
 10
-44.4942030411
 20
24.2717096311
 11
-44.4937472422
 21
24.4128749736
  0
LINE
  5
4D5
100
AcDbEntity
  8
RACCORDO
100
AcDbLine
 62
250
  6
CONTINUOUS
 10
-44.4943468146
 20
24.2456323968
 11
-44.4942030411
 21
24.2717096311
  0
LINE
  5
4D6
100
AcDbEntity
  8
RACCORDO
100
AcDbLine
 62
7
  6
CONTINUOUS
 10
-45.2486724582
 20
22.3303970169
 11
-45.2487864181
 21
22.3046350291
  0
LINE
  5
4D7
100
AcDbEntity
  8
RACCORDO
100
AcDbLine
 62
7
  6
CONTINUOUS
 10
-45.248207507
 20
-22.1872928453
 11
-45.248724765
 21
-22.259054914
  0
LINE
  5
4D8
100
AcDbEntity
  8
RACCORDO
100
AcDbLine
 62
7
  6
CONTINUOUS
 10
-45.2469254652
 20
-22.0857223491
 11
-45.248207507
 21
-22.1872928453
  0
LINE
  5
4D9
100
AcDbEntity
  8
RACCORDO
100
AcDbLine
 62
7
  6
CONTINUOUS
 10
-45.2445982532
 20
-21.9545022069
 11
-45.2469254652
 21
-22.0857223491
  0
LINE
  5
4DA
100
AcDbEntity
  8
RACCORDO
100
AcDbLine
 62
7
  6
CONTINUOUS
 10
-45.243658645
 20
-21.909888014
 11
-45.2445982532
 21
-21.9545022069
  0
LINE
  5
4DB
100
AcDbEntity
  8
0
100
AcDbLine
 62
7
  6
CONTINUOUS
 10
-41.3173012116
 20
8.1093808405
 11
-40.908146093
 21
8.5185359591
  0
LINE
  5
4DC
100
AcDbEntity
  8
0
100
AcDbLine
 62
7
  6
CONTINUOUS
 10
-40.7288003265
 20
8.6978817257
 11
-39.8279154324
 21
9.5987666197
  0
LINE
  5
4DD
100
AcDbEntity
  8
0
100
AcDbLine
 62
7
  6
CONTINUOUS
 10
-39.1343570521
 20
10.292325
 11
-38.7458012474
 21
10.6808808047
  0
LINE
  5
4DE
100
AcDbEntity
  8
INCISIONI
100
AcDbLine
 62
250
  6
CONTINUOUS
 10
-36.4599629501
 20
12.8928571105
 11
-36.7313502221
 21
12.6214286685
  0
LINE
  5
4DF
100
AcDbEntity
  8
0
100
AcDbLine
 62
7
  6
CONTINUOUS
 10
-41.0088259368
 20
7.9978346873
 11
-40.5957041152
 21
8.4109565089
  0
LINE
  5
4E0
100
AcDbEntity
  8
0
100
AcDbLine
 62
7
  6
CONTINUOUS
 10
-40.1097895646
 20
8.8968710595
 11
-39.1839557224
 21
9.8227049017
  0
LINE
  5
4E1
100
AcDbEntity
  8
0
100
AcDbLine
 62
7
  6
CONTINUOUS
 10
-40.7003506621
 20
7.886288534
 11
-40.2832621374
 21
8.3033770587
  0
LINE
  5
4E2
100
AcDbEntity
  8
0
100
AcDbLine
 62
7
  6
CONTINUOUS
 10
-39.8420392464
 20
8.7445999497
 11
-38.7458012474
 21
9.8408379487
  0
LINE
  5
4E3
100
AcDbEntity
  8
0
100
AcDbLine
 62
7
  6
CONTINUOUS
 10
-40.3918753873
 20
7.7747423807
 11
-39.9708201596
 21
8.1957976084
  0
LINE
  5
4E4
100
AcDbEntity
  8
0
100
AcDbLine
 62
7
  6
CONTINUOUS
 10
-39.8420392464
 20
8.3245785217
 11
-39.3602530367
 21
8.8063647314
  0
LINE
  5
4E5
100
AcDbEntity
  8
0
100
AcDbLine
 62
7
  6
CONTINUOUS
 10
-38.8554677311
 20
9.311150037
 11
-38.7458012474
 21
9.4208165206
  0
LINE
  5
4E6
100
AcDbEntity
  8
0
100
AcDbLine
 62
7
  6
CONTINUOUS
 10
-40.0834001125
 20
7.6631962275
 11
-39.3602530367
 21
8.3863433034
  0
LINE
  5
4E7
100
AcDbEntity
  8
0
100
AcDbLine
 62
7
  6
CONTINUOUS
 10
-41.6449189463
 20
5.6816559657
 11
-41.532835912
 21
5.793739
  0
LINE
  5
4E8
100
AcDbEntity
  8
0
100
AcDbLine
 62
7
  6
CONTINUOUS
 10
-39.7749248378
 20
7.5516500742
 11
-39.3421512627
 21
7.9844236493
  0
LINE
  5
4E9
100
AcDbEntity
  8
0
100
AcDbLine
 62
7
  6
CONTINUOUS
 10
-41.6449189463
 20
5.2616345377
 11
-41.112814484
 21
5.793739
  0
LINE
  5
4EA
100
AcDbEntity
  8
0
100
AcDbLine
 62
7
  6
CONTINUOUS
 10
-39.466449563
 20
7.4401039209
 11
-39.0316941673
 21
7.8748593167
  0
LINE
  5
4EB
100
AcDbEntity
  8
INCISIONI
100
AcDbLine
 62
250
  6
CONTINUOUS
 10
-38.7538028095
 20
-7.677235
 11
-39.3325004923
 21
-7.834033
  0
LINE
  5
4EC
100
AcDbEntity
  8
INCISIONI
100
AcDbLine
 62
250
  6
CONTINUOUS
 10
-39.7802940589
 20
-7.954996
 11
-40.856064294
 21
-8.233126
  0
LINE
  5
4ED
100
AcDbEntity
  8
ASSI
100
AcDbLine
 62
7
  6
CONTINUOUS
 10
-20.8458012474
 20
-7.1
 11
-28.3458012474
 21
-7.1
  0
LINE
  5
4EE
100
AcDbEntity
  8
INCISIONI
100
AcDbLine
 62
250
  6
CONTINUOUS
 10
-41.6187052804
 20
-6.8615673444
 11
-38.7538024573
 21
-6.8615673444
  0
LINE
  5
4EF
100
AcDbEntity
  8
INCISIONI
100
AcDbLine
 62
250
  6
CONTINUOUS
 10
-40.3629694309
 20
-6.2788012718
 11
-41.1587383337
 21
-6.2788012718
  0
LINE
  5
4F0
100
AcDbEntity
  8
INCISIONI
100
AcDbLine
 62
250
  6
CONTINUOUS
 10
-38.7538024573
 20
-6.2587313832
 11
-39.8882209377
 21
-6.2587313832
  0
LINE
  5
4F1
100
AcDbEntity
  8
0
100
AcDbLine
 62
250
  6
CONTINUOUS
 10
-35.6458012474
 20
-6.2142858505
 11
-37.1455727901
 21
-6.2142858505
  0
LINE
  5
4F2
100
AcDbEntity
  8
0
100
AcDbLine
 62
250
  6
CONTINUOUS
 10
-35.8600543345
 20
-12.6785715818
 11
-35.6458012474
 21
-12.8928571939
  0
LWPOLYLINE
  5
4F3
100
AcDbEntity
  8
RACCORDO
100
AcDbPolyline
 62
250
  6
CONTINUOUS
 90
6
 70
0
 10
-44.4940198965
 20
24.487104147
 10
-44.4940761668
 20
24.4901612081
 10
-44.4941371673
 20
24.4925477509
 10
-44.4942027307
 20
24.494257234
 10
-44.494272677
 20
24.495284977
 10
-44.4943468146
 20
24.495628166
  0
LINE
  5
4F4
100
AcDbEntity
  8
RACCORDO
100
AcDbLine
 62
250
  6
CONTINUOUS
 10
-44.4939221505
 20
24.4790138424
 11
-44.4940198965
 21
24.487104147
  0
LINE
  5
4F5
100
AcDbEntity
  8
RACCORDO
100
AcDbLine
 62
250
  6
CONTINUOUS
 10
-44.4938144232
 20
24.4621175595
 11
-44.4939221505
 21
24.4790138424
  0
LINE
  5
4F6
100
AcDbEntity
  8
RACCORDO
100
AcDbLine
 62
7
  6
CONTINUOUS
 10
-44.2458012474
 20
24.2456323968
 11
-44.2458012474
 21
23.7
  0
LINE
  5
4F7
100
AcDbEntity
  8
ASSI
100
AcDbLine
 62
7
  6
CONTINUOUS
 10
-44.2458012474
 20
17.6716990487
 11
-44.2458012474
 21
-17.6716990487
  0
LINE
  5
4F8
100
AcDbEntity
  8
RACCORDO
100
AcDbLine
 62
7
  6
CONTINUOUS
 10
-44.2458012474
 20
-23.8443375673
 11
-44.2458012474
 21
-24.2456323968
  0
LINE
  5
4F9
100
AcDbEntity
  8
RACCORDO
100
AcDbLine
 62
7
  6
CONTINUOUS
 10
-44.2458012474
 20
-22.3912731322
 11
-44.2458012474
 21
22.3912731322
  0
LINE
  5
4FA
100
AcDbEntity
  8
RACCORDO
100
AcDbLine
 62
250
  6
CONTINUOUS
 10
-44.4939224291
 20
-24.4790436576
 11
-44.4938146069
 21
-24.4621606774
  0
LWPOLYLINE
  5
4FB
100
AcDbEntity
  8
0
100
AcDbPolyline
 62
7
  6
CONTINUOUS
 90
3
 70
0
 43
0.3500000006
 10
-31.6172307129
 20
33.5357164307
 10
-31.6886573639
 20
33.3214274139
 10
-31.8315151978
 20
33.0357162781
  0
LINE
  5
4FC
100
AcDbEntity
  8
0
100
AcDbLine
 62
7
  6
CONTINUOUS
 10
-41.3153990559
 20
5.171133
 11
-40.6927930559
 21
5.793739
  0
LINE
  5
4FD
100
AcDbEntity
  8
0
100
AcDbLine
 62
7
  6
CONTINUOUS
 10
-39.1579742883
 20
7.3285577677
 11
-38.7458012474
 21
7.7407308085
  0
LINE
  5
4FE
100
AcDbEntity
  8
0
100
AcDbLine
 62
7
  6
CONTINUOUS
 10
-40.8953776279
 20
5.171133
 11
-40.2727716279
 21
5.793739
  0
LINE
  5
4FF
100
AcDbEntity
  8
0
100
AcDbLine
 62
7
  6
CONTINUOUS
 10
-39.2275874571
 20
6.8389231708
 11
-39.1997726279
 21
6.866738
  0
LINE
  5
500
100
AcDbEntity
  8
0
100
AcDbLine
 62
7
  6
CONTINUOUS
 10
-38.8494990135
 20
7.2170116144
 11
-38.7458012474
 21
7.3207093805
  0
LINE
  5
501
100
AcDbEntity
  8
0
100
AcDbLine
 62
7
  6
CONTINUOUS
 10
-41.6101870328
 20
4.0363021671
 11
-40.8702463348
 21
4.7762428651
  0
LINE
  5
502
100
AcDbEntity
  8
0
100
AcDbLine
 62
7
  6
CONTINUOUS
 10
-40.4753561999
 20
5.171133
 11
-39.8527501999
 21
5.793739
  0
LINE
  5
503
100
AcDbEntity
  8
0
100
AcDbLine
 62
7
  6
CONTINUOUS
 10
-39.2275874571
 20
6.4189017428
 11
-38.7797511999
 21
6.866738
  0
LINE
  5
504
100
AcDbEntity
  8
0
100
AcDbLine
 62
7
  6
CONTINUOUS
 10
-41.6449188067
 20
3.5815489652
 11
-40.4762301096
 21
4.7502376622
  0
LINE
  5
505
100
AcDbEntity
  8
0
100
AcDbLine
 62
7
  6
CONTINUOUS
 10
-40.0553347719
 20
5.171133
 11
-39.4327287719
 21
5.793739
  0
LINE
  5
506
100
AcDbEntity
  8
0
100
AcDbLine
 62
7
  6
CONTINUOUS
 10
-39.2275874571
 20
5.9988803148
 11
-38.7458012474
 21
6.4806665245
  0
LINE
  5
507
100
AcDbEntity
  8
0
100
AcDbLine
 62
7
  6
CONTINUOUS
 10
-41.6449188733
 20
3.1615274706
 11
-41.1631327366
 21
3.6433136073
  0
LINE
  5
508
100
AcDbEntity
  8
0
100
AcDbLine
 62
7
  6
CONTINUOUS
 10
-40.6905262966
 20
4.1159200472
 11
-40.1933592689
 21
4.613087075
  0
LINE
  5
509
100
AcDbEntity
  8
0
100
AcDbLine
 62
7
  6
CONTINUOUS
 10
-39.6353133438
 20
5.171133
 11
-38.7458012474
 21
6.0606450964
  0
LINE
  5
50A
100
AcDbEntity
  8
0
100
AcDbLine
 62
7
  6
CONTINUOUS
 10
-41.6449189398
 20
2.741505976
 11
-41.0630289158
 21
3.323396
  0
LINE
  5
50B
100
AcDbEntity
  8
0
100
AcDbLine
 62
7
  6
CONTINUOUS
 10
-40.4125230394
 20
3.9739018764
 11
-40.0066300487
 21
4.3797948671
  0
LINE
  5
50C
100
AcDbEntity
  8
0
100
AcDbLine
 62
7
  6
CONTINUOUS
 10
-39.2152919158
 20
5.171133
 11
-38.7458012474
 21
5.6406236684
  0
LINE
  5
50D
100
AcDbEntity
  8
0
100
AcDbLine
 62
7
  6
CONTINUOUS
 10
-41.2656134878
 20
2.70079
 11
-40.6430074878
 21
3.323396
  0
LINE
  5
50E
100
AcDbEntity
  8
0
100
AcDbLine
 62
7
  6
CONTINUOUS
 10
-40.3440090077
 20
3.6223944801
 11
-39.9023945393
 21
4.0640089485
  0
LINE
  5
50F
100
AcDbEntity
  8
0
100
AcDbLine
 62
7
  6
CONTINUOUS
 10
-38.7952704878
 20
5.171133
 11
-38.7458012474
 21
5.2206022404
  0
LWPOLYLINE
  5
510
100
AcDbEntity
  8
INTF_11
100
AcDbPolyline
 62
7
  6
CONTINUOUS
 90
8
 70
0
 10
-34.3633475058
 20
5.571874
 10
-34.0035883374
 20
5.692081936
 10
-33.6773530566
 20
5.8856126972
 10
-33.3993771277
 20
6.1437248452
 10
-33.1792219801
 20
6.4602238793
 10
-33.0339069929
 20
6.8106424312
 10
-32.9659146653
 20
7.1838604314
 10
-32.9793667707
 20
7.5704099717
  0
LWPOLYLINE
  5
511
100
AcDbEntity
  8
0
100
AcDbPolyline
 62
250
  6
CONTINUOUS
 90
8
 70
0
 10
-34.3633475058
 20
5.571874
 10
-34.0035883374
 20
5.692081936
 10
-33.6773530566
 20
5.8856126972
 10
-33.3993771277
 20
6.1437248452
 10
-33.1792219801
 20
6.4602238793
 10
-33.0339069929
 20
6.8106424312
 10
-32.9659146653
 20
7.1838604314
 10
-32.9793667707
 20
7.5704099717
  0
LWPOLYLINE
  5
512
100
AcDbEntity
  8
INCISIONI
100
AcDbPolyline
 62
250
  6
CONTINUOUS
 90
39
 70
0
 10
-39.6082214147
 20
-4.9755600079
 10
-39.6314561357
 20
-4.9820617689
 10
-39.6546330879
 20
-4.9887601707
 10
-39.6777316839
 20
-4.9957227965
 10
-39.7007313364
 20
-5.0030172293
 10
-39.7218361307
 20
-5.0100906194
 10
-39.7428234601
 20
-5.0175209873
 10
-39.7636775145
 20
-5.0253256507
 10
-39.7843824839
 20
-5.0335219273
 10
-39.804922558
 20
-5.0421271347
 10
-39.8252819267
 20
-5.0511585907
 10
-39.8454447798
 20
-5.060633613
 10
-39.8653953073
 20
-5.0705695192
 10
-39.8783848047
 20
-5.0773616341
 10
-39.8912606693
 20
-5.0843730945
 10
-39.9040078489
 20
-5.0916166084
 10
-39.9166112912
 20
-5.0991048838
 10
-39.9290559441
 20
-5.1068506288
 10
-39.9413267553
 20
-5.1148665514
 10
-39.9534086725
 20
-5.1231653597
 10
-39.9652866437
 20
-5.1317597617
 10
-39.9769456165
 20
-5.1406624655
 10
-39.9883705387
 20
-5.1498861791
 10
-39.9995463581
 20
-5.1594436106
 10
-40.0104580225
 20
-5.169347468
 10
-40.0191402786
 20
-5.1776789631
 10
-40.0276191465
 20
-5.1862439096
 10
-40.0358765529
 20
-5.1950373947
 10
-40.0438944245
 20
-5.204054506
 10
-40.0516546881
 20
-5.2132903309
 10
-40.0591392704
 20
-5.2227399567
 10
-40.0663300981
 20
-5.232398471
 10
-40.0732090981
 20
-5.2422609611
 10
-40.0797581971
 20
-5.2523225145
 10
-40.0859593218
 20
-5.2625782185
 10
-40.0917943991
 20
-5.2730231607
 10
-40.0972453555
 20
-5.2836524284
 10
-40.1022941179
 20
-5.294461109
 10
-40.1069226131
 20
-5.30544429
  0
LINE
  5
513
100
AcDbEntity
  8
INCISIONI
100
AcDbLine
 62
250
  6
CONTINUOUS
 10
-39.5383765124
 20
-4.9565587397
 11
-39.6082214147
 21
-4.9755600079
  0
LWPOLYLINE
  5
514
100
AcDbEntity
  8
INCISIONI
100
AcDbPolyline
 62
250
  6
CONTINUOUS
 90
3
 70
0
 10
-38.7538024573
 20
-4.7496410148
 10
-38.8517489057
 20
-4.7759741012
 10
-38.949808015
 20
-4.8018864136
  0
LWPOLYLINE
  5
515
100
AcDbEntity
  8
INCISIONI
100
AcDbPolyline
 62
250
  6
CONTINUOUS
 90
4
 70
0
 10
-39.2442770161
 20
-4.8785334756
 10
-39.3424024766
 20
-4.9041974609
 10
-39.4404484518
 20
-4.9301580566
 10
-39.5383765124
 20
-4.9565587397
  0
LINE
  5
516
100
AcDbEntity
  8
INCISIONI
100
AcDbLine
 62
250
  6
CONTINUOUS
 10
-38.949808015
 20
-4.8018864136
 11
-39.2442770161
 21
-4.8785334756
  0
LWPOLYLINE
  5
517
100
AcDbEntity
  8
INCISIONI
100
AcDbPolyline
 62
250
  6
CONTINUOUS
 90
56
 70
0
 10
-40.8134370602
 20
-5.4627200261
 10
-40.7992893124
 20
-5.4626240272
 10
-40.7851157452
 20
-5.4627858047
 10
-40.7709299374
 20
-5.4632257158
 10
-40.756745468
 20
-5.4639641177
 10
-40.7425759161
 20
-5.4650213675
 10
-40.7284348604
 20
-5.4664178224
 10
-40.71433588
 20
-5.4681738395
 10
-40.7002925538
 20
-5.4703097761
 10
-40.6863184607
 20
-5.4728459892
 10
-40.6724271798
 20
-5.4758028361
 10
-40.6586322899
 20
-5.4792006738
 10
-40.64494737
 20
-5.4830598595
 10
-40.631385999
 20
-5.4874007505
 10
-40.6197869305
 20
-5.4915493253
 10
-40.6083065918
 20
-5.4960675883
 10
-40.5969614668
 20
-5.5009508776
 10
-40.5857680393
 20
-5.5061945309
 10
-40.5747427931
 20
-5.5117938863
 10
-40.5639022121
 20
-5.5177442816
 10
-40.55326278
 20
-5.5240410547
 10
-40.5428409807
 20
-5.5306795436
 10
-40.532653298
 20
-5.537655086
 10
-40.5227162157
 20
-5.54496302
 10
-40.5130462177
 20
-5.5525986834
 10
-40.5036597878
 20
-5.5605574141
 10
-40.4945734098
 20
-5.5688345501
 10
-40.4858035675
 20
-5.5774254292
 10
-40.4773667448
 20
-5.5863253894
 10
-40.4692549077
 20
-5.5955525881
 10
-40.4614895573
 20
-5.605069398
 10
-40.4540658237
 20
-5.614859397
 10
-40.4469788366
 20
-5.6249061628
 10
-40.440223726
 20
-5.6351932733
 10
-40.433795622
 20
-5.6457043065
 10
-40.4276896543
 20
-5.6564228401
 10
-40.4219009529
 20
-5.6673324521
 10
-40.4164246478
 20
-5.6784167202
 10
-40.4112558688
 20
-5.6896592224
 10
-40.406389746
 20
-5.7010435365
 10
-40.4018214091
 20
-5.7125532404
 10
-40.3975459883
 20
-5.7241719119
 10
-40.3935586133
 20
-5.7358831289
 10
-40.3898544141
 20
-5.7476704692
 10
-40.3855347274
 20
-5.7627829233
 10
-40.3816500691
 20
-5.7779835314
 10
-40.3781833455
 20
-5.7932634599
 10
-40.3751174628
 20
-5.808613875
 10
-40.3724353274
 20
-5.8240259432
 10
-40.3701198455
 20
-5.8394908307
 10
-40.3681539234
 20
-5.8549997038
 10
-40.3665204675
 20
-5.8705437289
 10
-40.365202384
 20
-5.8861140724
 10
-40.3641825792
 20
-5.9017019004
 10
-40.3634439594
 20
-5.9172983795
 10
-40.3629694309
 20
-5.9328946758
  0
LINE
  5
518
100
AcDbEntity
  8
INCISIONI
100
AcDbLine
 62
250
  6
CONTINUOUS
 10
-40.1069226131
 20
-5.30544429
 11
-40.124051817
 21
-5.30544429
  0
LINE
  5
519
100
AcDbEntity
  8
0
100
AcDbLine
 62
250
  6
CONTINUOUS
 10
-35.6458012474
 20
-5.1071429253
 11
-37.1455727901
 21
-5.1071429253
  0
LWPOLYLINE
  5
51A
100
AcDbEntity
  8
INCISIONI
100
AcDbPolyline
 62
250
  6
CONTINUOUS
 90
61
 70
0
 10
-40.1994028349
 20
-5.185470439
 10
-40.2181613153
 20
-5.1640681327
 10
-40.2371399042
 20
-5.1432380904
 10
-40.2566704553
 20
-5.1229750287
 10
-40.2766386589
 20
-5.1036489366
 10
-40.2974053506
 20
-5.0849692718
 10
-40.3189173786
 20
-5.0670412131
 10
-40.3411215911
 20
-5.0499699399
 10
-40.3642935772
 20
-5.0336173522
 10
-40.3880754265
 20
-5.0182267263
 10
-40.4124197665
 20
-5.0037706572
 10
-40.4372792244
 20
-4.9902217399
 10
-40.4627707222
 20
-4.9774810278
 10
-40.4886987801
 20
-4.9656409153
 10
-40.5150262458
 20
-4.954711032
 10
-40.5417159669
 20
-4.9447010075
 10
-40.5685505433
 20
-4.9356765436
 10
-40.5956749729
 20
-4.9275703245
 10
-40.6230583279
 20
-4.9203834633
 10
-40.6506696805
 20
-4.914117073
 10
-40.6823370391
 20
-4.9081016624
 10
-40.7142174543
 20
-4.9032564582
 10
-40.7462686549
 20
-4.8995576434
 10
-40.7784483699
 20
-4.896981401
 10
-40.8107143281
 20
-4.8955039141
 10
-40.8430242585
 20
-4.8951013658
 10
-40.8753358899
 20
-4.8957499389
 10
-40.9035795435
 20
-4.8971675124
 10
-40.9317634326
 20
-4.8993940001
 10
-40.9598588602
 20
-4.9024516258
 10
-40.9878371298
 20
-4.9063626134
 10
-41.0156695445
 20
-4.9111491869
 10
-41.0433274076
 20
-4.9168335701
 10
-41.0707820222
 20
-4.9234379869
 10
-41.0980046916
 20
-4.9309846614
 10
-41.1249860086
 20
-4.9394976407
 10
-41.1516638319
 20
-4.9489664454
 10
-41.1779957295
 20
-4.9593808677
 10
-41.2039392691
 20
-4.9707306997
 10
-41.2294520184
 20
-4.9830057337
 10
-41.2544915451
 20
-4.9961957619
 10
-41.2790154171
 20
-5.0102905766
 10
-41.3029812021
 20
-5.0252799698
 10
-41.3263546469
 20
-5.0411533151
 10
-41.3491140205
 20
-5.057884408
 10
-41.3712459451
 20
-5.0754463694
 10
-41.3927370423
 20
-5.0938123202
 10
-41.4135739342
 20
-5.1129553813
 10
-41.4337432426
 20
-5.1328486737
 10
-41.4532315895
 20
-5.1534653182
 10
-41.4720255966
 20
-5.1747784359
 10
-41.4865219026
 20
-5.1922853923
 10
-41.5005152732
 20
-5.2102121356
 10
-41.5139542849
 20
-5.2285512635
 10
-41.5267875141
 20
-5.2472953735
 10
-41.5389635371
 20
-5.2664370631
 10
-41.5504309304
 20
-5.2859689299
 10
-41.5611382704
 20
-5.3058835713
 10
-41.5710341334
 20
-5.326173585
 10
-41.580067096
 20
-5.3468315684
 10
-41.5881857344
 20
-5.3678501192
  0
LINE
  5
51B
100
AcDbEntity
  8
INCISIONI
100
AcDbLine
 62
250
  6
CONTINUOUS
 10
-41.6527465614
 20
-12.785664
 11
-41.6527465614
 21
-13.390935
  0
LINE
  5
51C
100
AcDbEntity
  8
INCISIONI
100
AcDbLine
 62
250
  6
CONTINUOUS
 10
-41.6525726144
 20
-16.00026
 11
-41.6525726144
 21
-15.342748
  0
LINE
  5
51D
100
AcDbEntity
  8
INCISIONI
100
AcDbLine
 62
250
  6
CONTINUOUS
 10
-41.6525726144
 20
-14.22041
 11
-41.6525726144
 21
-13.615552
  0
LINE
  5
51E
100
AcDbEntity
  8
INCISIONI
100
AcDbLine
 62
250
  6
CONTINUOUS
 10
-41.6525726144
 20
-12.198005
 11
-41.6525726144
 21
-11.593234
  0
LINE
  5
51F
100
AcDbEntity
  8
INCISIONI
100
AcDbLine
 62
250
  6
CONTINUOUS
 10
-41.6525726144
 20
-10.389084
 11
-41.6525726144
 21
-9.790227
  0
LINE
  5
520
100
AcDbEntity
  8
INCISIONI
100
AcDbLine
 62
250
  6
CONTINUOUS
 10
-41.6525726144
 20
-8.514517
 11
-41.6525726144
 21
-7.92899
  0
LINE
  5
521
100
AcDbEntity
  8
0
100
AcDbLine
 62
250
  6
CONTINUOUS
 10
-41.6449189463
 20
14.991935
 11
-41.6449189463
 21
14.252884
  0
LINE
  5
522
100
AcDbEntity
  8
0
100
AcDbLine
 62
250
  6
CONTINUOUS
 10
-41.6449189463
 20
8.9669
 11
-41.6449189463
 21
8.227849
  0
LINE
  5
523
100
AcDbEntity
  8
0
100
AcDbLine
 62
250
  6
CONTINUOUS
 10
-41.6449189463
 20
3.58822
 11
-41.6449189463
 21
2.70079
  0
LINE
  5
524
100
AcDbEntity
  8
0
100
AcDbLine
 62
250
  6
CONTINUOUS
 10
-41.6449189463
 20
5.171133
 11
-41.6449189463
 21
5.793739
  0
LINE
  5
525
100
AcDbEntity
  8
0
100
AcDbLine
 62
250
  6
CONTINUOUS
 10
-41.6449189463
 20
10.292325
 11
-41.6449189463
 21
11.216139
  0
LINE
  5
526
100
AcDbEntity
  8
0
100
AcDbLine
 62
250
  6
CONTINUOUS
 10
-41.6449189463
 20
12.328754
 11
-41.6449189463
 21
12.911198
  0
LINE
  5
527
100
AcDbEntity
  8
0
100
AcDbLine
 62
250
  6
CONTINUOUS
 10
-41.1631327366
 20
3.323396
 11
-41.1631327366
 21
3.686612
  0
LINE
  5
528
100
AcDbEntity
  8
INCISIONI
100
AcDbLine
 62
250
  6
CONTINUOUS
 10
-40.3629694309
 20
-5.9328946758
 11
-40.3629694309
 21
-6.2788012718
  0
LINE
  5
529
100
AcDbEntity
  8
0
100
AcDbLine
 62
250
  6
CONTINUOUS
 10
-41.6413395073
 20
3.6948258614
 11
-41.6449188056
 21
3.5882200575
  0
LWPOLYLINE
  5
52A
100
AcDbEntity
  8
0
100
AcDbPolyline
 62
250
  6
CONTINUOUS
 90
54
 70
0
 10
-41.1595745482
 20
3.7174608972
 10
-41.1547141688
 20
3.763813985
 10
-41.1529930683
 20
3.7792495632
 10
-41.1511264311
 20
3.794662096
 10
-41.1490572274
 20
3.8100423913
 10
-41.1467284274
 20
3.8253812571
 10
-41.1440830013
 20
3.8406695016
 10
-41.1410639193
 20
3.8558979327
 10
-41.1387307769
 20
3.8663734222
 10
-41.1361728034
 20
3.8768018468
 10
-41.1333705862
 20
3.8871690543
 10
-41.1303047129
 20
3.8974608925
 10
-41.1269557709
 20
3.907663209
 10
-41.1233043479
 20
3.9177618517
 10
-41.1193310314
 20
3.9277426683
 10
-41.1150164088
 20
3.9375915065
 10
-41.1109146976
 20
3.9461556907
 10
-41.1065329389
 20
3.9545891942
 10
-41.101871667
 20
3.9628750024
 10
-41.0969314162
 20
3.9709961011
 10
-41.0917127208
 20
3.9789354759
 10
-41.0862161149
 20
3.9866761124
 10
-41.0804421328
 20
3.9942009963
 10
-41.0743913088
 20
4.001493113
 10
-41.0680641771
 20
4.0085354483
 10
-41.0614113179
 20
4.0153674044
 10
-41.0544974948
 20
4.0219361053
 10
-41.0473418751
 20
4.0282493076
 10
-41.039963626
 20
4.0343147679
 10
-41.0323819149
 20
4.0401402428
 10
-41.0246159089
 20
4.0457334888
 10
-41.0166847755
 20
4.0511022627
 10
-41.0086076819
 20
4.0562543208
 10
-41.0004037953
 20
4.0611974199
 10
-40.9897009605
 20
4.0672512393
 10
-40.9788285466
 20
4.0729664611
 10
-40.9677946914
 20
4.0783367237
 10
-40.956607533
 20
4.0833556651
 10
-40.945275209
 20
4.0880169238
 10
-40.9338058575
 20
4.0923141379
 10
-40.9222076162
 20
4.0962409458
 10
-40.9096749833
 20
4.1000267408
 10
-40.8970182106
 20
4.103400823
 10
-40.8842511803
 20
4.1063821336
 10
-40.8713877747
 20
4.1089896139
 10
-40.858441876
 20
4.1112422052
 10
-40.8454273665
 20
4.1131588488
 10
-40.8323581284
 20
4.1147584859
 10
-40.8192480439
 20
4.1160600579
 10
-40.8061109952
 20
4.1170825061
 10
-40.7929608647
 20
4.1178447717
 10
-40.7798115344
 20
4.118365796
 10
-40.7666768867
 20
4.1186645203
 10
-40.7535708039
 20
4.1187598859
  0
LWPOLYLINE
  5
52B
100
AcDbEntity
  8
0
100
AcDbPolyline
 62
250
  6
CONTINUOUS
 90
3
 70
0
 10
-41.1631326642
 20
3.6866121309
 10
-41.1612838
 20
3.7020250568
 10
-41.1595745482
 20
3.7174608972
  0
LWPOLYLINE
  5
52C
100
AcDbEntity
  8
INCISIONI
100
AcDbPolyline
 62
250
  6
CONTINUOUS
 90
49
 70
0
 10
-41.1758023249
 20
-5.804625691
 10
-41.1743695161
 20
-5.793561482
 10
-41.1726389152
 20
-5.7824965657
 10
-41.1706113079
 20
-5.771443063
 10
-41.1682874796
 20
-5.7604130948
 10
-41.165668216
 20
-5.749418782
 10
-41.1627543026
 20
-5.7384722454
 10
-41.159546525
 20
-5.727585606
 10
-41.1560456687
 20
-5.7167709845
 10
-41.1522525193
 20
-5.7060405019
 10
-41.1481678625
 20
-5.695406279
 10
-41.1437924836
 20
-5.6848804368
 10
-41.1391271684
 20
-5.6744750961
 10
-41.1341727023
 20
-5.6642023778
 10
-41.128929871
 20
-5.6540744027
 10
-41.12339946
 20
-5.6441032918
 10
-41.1175822549
 20
-5.6343011659
 10
-41.1114790412
 20
-5.6246801459
 10
-41.1050906046
 20
-5.6152523527
 10
-41.0984177305
 20
-5.6060299072
 10
-41.0914612045
 20
-5.5970249301
 10
-41.0842218123
 20
-5.5882495425
 10
-41.0767003393
 20
-5.5797158652
 10
-41.0688975712
 20
-5.571436019
 10
-41.0608142935
 20
-5.5634221249
 10
-41.0524563613
 20
-5.5556875616
 10
-41.0438321036
 20
-5.5482344547
 10
-41.0349547214
 20
-5.541066384
 10
-41.0258374158
 20
-5.5341869293
 10
-41.0164933879
 20
-5.5275996704
 10
-41.0069358387
 20
-5.521308187
 10
-40.9971779694
 20
-5.5153160589
 10
-40.987232981
 20
-5.5096268658
 10
-40.9771140747
 20
-5.5042441876
 10
-40.9668344515
 20
-5.4991716039
 10
-40.9564073124
 20
-5.4944126945
 10
-40.9458458587
 20
-5.4899710392
 10
-40.9351632913
 20
-5.4858502177
 10
-40.9243728113
 20
-5.4820538098
 10
-40.9134876199
 20
-5.4785853953
 10
-40.9025209181
 20
-5.4754485539
 10
-40.891485907
 20
-5.4726468654
 10
-40.8803957877
 20
-5.4701839095
 10
-40.8692637613
 20
-5.468063266
 10
-40.8581030288
 20
-5.4662885147
 10
-40.8469267914
 20
-5.4648632352
 10
-40.8357482501
 20
-5.4637910075
 10
-40.824580606
 20
-5.4630754112
 10
-40.8134370602
 20
-5.4627200261
  0
LINE
  5
52D
100
AcDbEntity
  8
0
100
AcDbLine
 62
7
  6
CONTINUOUS
 10
-40.8455920598
 20
2.70079
 11
-39.8653393678
 21
3.681042692
  0
LINE
  5
52E
100
AcDbEntity
  8
0
100
AcDbLine
 62
7
  6
CONTINUOUS
 10
-40.4255706317
 20
2.70079
 11
-39.8029646317
 21
3.323396
  0
LINE
  5
52F
100
AcDbEntity
  8
0
100
AcDbLine
 62
7
  6
CONTINUOUS
 10
-40.0055492037
 20
2.70079
 11
-39.3829432037
 21
3.323396
  0
LINE
  5
530
100
AcDbEntity
  8
0
100
AcDbLine
 62
7
  6
CONTINUOUS
 10
-39.5855277757
 20
2.70079
 11
-38.9629217757
 21
3.323396
  0
LINE
  5
531
100
AcDbEntity
  8
0
100
AcDbLine
 62
7
  6
CONTINUOUS
 10
-39.1655063477
 20
2.70079
 11
-38.7458012474
 21
3.1204951003
  0
LINE
  5
532
100
AcDbEntity
  8
0
100
AcDbLine
 62
250
  6
CONTINUOUS
 10
-37.1455727901
 20
-2.9642853737
 11
-35.6458012474
 21
-2.9642853737
  0
LINE
  5
533
100
AcDbEntity
  8
ASSI
100
AcDbLine
 62
7
  6
CONTINUOUS
 10
-20.8458012474
 20
-2.9
 11
-28.3458012474
 21
-2.9
  0
LINE
  5
534
100
AcDbEntity
  8
ASSI
100
AcDbLine
 62
7
  6
CONTINUOUS
 10
-20.8458012474
 20
-2.1
 11
-28.3458012474
 21
-2.1
  0
LINE
  5
535
100
AcDbEntity
  8
0
100
AcDbLine
 62
250
  6
CONTINUOUS
 10
-35.6458012474
 20
-4.2499997616
 11
-37.1455727901
 21
-3.8214292526
  0
LWPOLYLINE
  5
536
100
AcDbEntity
  8
INCISIONI
100
AcDbPolyline
 62
250
  6
CONTINUOUS
 90
12
 70
0
 10
-40.124051817
 20
-5.30544429
 10
-40.1258855077
 20
-5.2953992912
 10
-40.1286871854
 20
-5.2856463238
 10
-40.1323542497
 20
-5.2761638078
 10
-40.1367840998
 20
-5.2669301627
 10
-40.1418741353
 20
-5.2579238083
 10
-40.1475217556
 20
-5.2491231645
 10
-40.1536243601
 20
-5.2405066508
 10
-40.1600793483
 20
-5.2320526871
 10
-40.1667841197
 20
-5.223739693
 10
-40.1736360736
 20
-5.2155460884
 10
-40.1994028349
 20
-5.185470439
  0
LWPOLYLINE
  5
537
100
AcDbEntity
  8
INCISIONI
100
AcDbPolyline
 62
250
  6
CONTINUOUS
 90
23
 70
0
 10
-41.1587383337
 20
-6.2788012718
 10
-41.1622809283
 20
-6.2574724525
 10
-41.1656302188
 20
-6.2361061107
 10
-41.1687734773
 20
-6.2147043259
 10
-41.171697976
 20
-6.1932691773
 10
-41.1743909872
 20
-6.1718027442
 10
-41.1768397829
 20
-6.1503071059
 10
-41.1790316355
 20
-6.1287843418
 10
-41.180953817
 20
-6.107236531
 10
-41.1825935997
 20
-6.085665753
 10
-41.1839382557
 20
-6.0640740869
 10
-41.1849750573
 20
-6.0424636122
 10
-41.1856943651
 20
-6.0208165152
 10
-41.1860951216
 20
-5.9991581207
 10
-41.1861799645
 20
-5.9774938925
 10
-41.1859515313
 20
-5.9558292942
 10
-41.1854124596
 20
-5.9341697896
 10
-41.184565387
 20
-5.9125208421
 10
-41.1834129511
 20
-5.8908879155
 10
-41.1819577893
 20
-5.8692764734
 10
-41.1802025393
 20
-5.8476919796
 10
-41.1781498386
 20
-5.8261398975
 10
-41.1758023249
 20
-5.804625691
  0
LINE
  5
538
100
AcDbEntity
  8
0
100
AcDbLine
 62
250
  6
CONTINUOUS
 10
-40.3524274389
 20
3.763813985
 11
-40.3475670595
 21
3.7174608972
  0
LWPOLYLINE
  5
539
100
AcDbEntity
  8
0
100
AcDbPolyline
 62
250
  6
CONTINUOUS
 90
53
 70
0
 10
-39.8622228021
 20
3.5882200575
 10
-39.8658021005
 20
3.6948258614
 10
-39.8678287182
 20
3.7481210085
 10
-39.8704707632
 20
3.8013969153
 10
-39.8732443354
 20
3.8439758624
 10
-39.8767314362
 20
3.8865062021
 10
-39.8810326301
 20
3.9289583793
 10
-39.8862484813
 20
3.9713028391
 10
-39.8924795539
 20
4.0135100265
 10
-39.8985230102
 20
4.0485966381
 10
-39.9053722873
 20
4.0835398425
 10
-39.9130565005
 20
4.1183123618
 10
-39.9216047656
 20
4.1528869186
 10
-39.9310461981
 20
4.1872362349
 10
-39.9414099135
 20
4.2213330331
 10
-39.9510509297
 20
4.2503226951
 10
-39.9614380172
 20
4.2790577062
 10
-39.9726187041
 20
4.3074888493
 10
-39.9846405181
 20
4.3355669076
 10
-39.9975509873
 20
4.363242664
 10
-40.0113976394
 20
4.3904669015
 10
-40.0262280025
 20
4.4171904032
 10
-40.0400567887
 20
4.4401425663
 10
-40.054674725
 20
4.4626213833
 10
-40.0700799154
 20
4.484575368
 10
-40.0862704639
 20
4.5059530338
 10
-40.1032444744
 20
4.5267028944
 10
-40.1210000511
 20
4.5467734634
 10
-40.1395352978
 20
4.5661132544
 10
-40.1588483186
 20
4.584670781
 10
-40.1789091224
 20
4.6023841097
 10
-40.1996962569
 20
4.6192547416
 10
-40.2211617209
 20
4.6352720693
 10
-40.243257513
 20
4.6504254852
 10
-40.265935632
 20
4.6647043821
 10
-40.2891480766
 20
4.6780981526
 10
-40.3128468454
 20
4.6905961892
 10
-40.3369839372
 20
4.7021878845
 10
-40.3615148067
 20
4.7128694219
 10
-40.3864006012
 20
4.7226606687
 10
-40.4116058812
 20
4.7315883841
 10
-40.4370952072
 20
4.7396793272
 10
-40.4628331395
 20
4.7469602571
 10
-40.4887842387
 20
4.753457933
 10
-40.514913065
 20
4.7591991139
 10
-40.541184179
 20
4.7642105591
 10
-40.571296933
 20
4.7690729355
 10
-40.6015251744
 20
4.7730645828
 10
-40.6318452492
 20
4.776230213
 10
-40.6622335035
 20
4.7786145378
 10
-40.6926662834
 20
4.7802622694
 10
-40.7231199348
 20
4.7812181196
 10
-40.7535708039
 20
4.7815268003
  0
LINE
  5
53A
100
AcDbEntity
  8
0
100
AcDbLine
 62
250
  6
CONTINUOUS
 10
-40.3440093065
 20
3.323396
 11
-40.3440093065
 21
3.686612
  0
LINE
  5
53B
100
AcDbEntity
  8
INCISIONI
100
AcDbLine
 62
250
  6
CONTINUOUS
 10
-39.8882209377
 20
-6.2587313832
 11
-39.8882209377
 21
-5.9341993273
  0
LINE
  5
53C
100
AcDbEntity
  8
0
100
AcDbLine
 62
250
  6
CONTINUOUS
 10
-39.8622230968
 20
3.58822
 11
-39.8622230968
 21
3.323396
  0
LINE
  5
53D
100
AcDbEntity
  8
0
100
AcDbLine
 62
250
  6
CONTINUOUS
 10
-39.8420392464
 20
15.007869
 11
-39.8420392464
 21
14.176491
  0
LINE
  5
53E
100
AcDbEntity
  8
0
100
AcDbLine
 62
250
  6
CONTINUOUS
 10
-39.8420392464
 20
8.982943
 11
-39.8420392464
 21
8.151456
  0
LINE
  5
53F
100
AcDbEntity
  8
INCISIONI
100
AcDbLine
 62
250
  6
CONTINUOUS
 10
-39.7802940589
 20
-8.5345
 11
-39.7802940589
 21
-7.954996
  0
LINE
  5
540
100
AcDbEntity
  8
0
100
AcDbLine
 62
250
  6
CONTINUOUS
 10
-39.3604402474
 20
7.990812
 11
-39.3604402474
 21
9.139549
  0
LINE
  5
541
100
AcDbEntity
  8
0
100
AcDbLine
 62
250
  6
CONTINUOUS
 10
-39.3604402474
 20
14.015846
 11
-39.3604402474
 21
15.164584
  0
LINE
  5
542
100
AcDbEntity
  8
0
100
AcDbLine
 62
250
  6
CONTINUOUS
 10
-39.3602530367
 20
7.990812
 11
-39.3602530367
 21
9.139549
  0
LINE
  5
543
100
AcDbEntity
  8
0
100
AcDbLine
 62
250
  6
CONTINUOUS
 10
-39.3602530367
 20
14.015846
 11
-39.3602530367
 21
15.164584
  0
LINE
  5
544
100
AcDbEntity
  8
INCISIONI
100
AcDbLine
 62
250
  6
CONTINUOUS
 10
-39.3325004923
 20
-7.834033
 11
-39.3325004923
 21
-8.658312
  0
LINE
  5
545
100
AcDbEntity
  8
0
100
AcDbLine
 62
250
  6
CONTINUOUS
 10
-39.2277342474
 20
5.793739
 11
-39.2277342474
 21
6.866738
  0
LINE
  5
546
100
AcDbEntity
  8
INCISIONI
100
AcDbLine
 62
250
  6
CONTINUOUS
 10
-38.7538028095
 20
-7.039304
 11
-38.7538028095
 21
-7.677235
  0
LINE
  5
547
100
AcDbEntity
  8
INCISIONI
100
AcDbLine
 62
250
  6
CONTINUOUS
 10
-38.7538028095
 20
-8.825329
 11
-38.7538028095
 21
-9.424033
  0
LINE
  5
548
100
AcDbEntity
  8
INCISIONI
100
AcDbLine
 62
250
  6
CONTINUOUS
 10
-38.7538028095
 20
-9.519077
 11
-38.7538028095
 21
-10.111193
  0
LINE
  5
549
100
AcDbEntity
  8
INCISIONI
100
AcDbLine
 62
250
  6
CONTINUOUS
 10
-38.7538028095
 20
-10.955216
 11
-38.7538028095
 21
-11.040105
  0
LINE
  5
54A
100
AcDbEntity
  8
INCISIONI
100
AcDbLine
 62
250
  6
CONTINUOUS
 10
-38.7538028095
 20
-11.880779
 11
-38.7538028095
 21
-12.459827
  0
LINE
  5
54B
100
AcDbEntity
  8
INCISIONI
100
AcDbLine
 62
250
  6
CONTINUOUS
 10
-38.7538028095
 20
-14.547617
 11
-38.7538028095
 21
-15.081013
  0
LINE
  5
54C
100
AcDbEntity
  8
INCISIONI
100
AcDbLine
 62
250
  6
CONTINUOUS
 10
-38.7538028095
 20
-13.390935
 11
-38.7538028095
 21
-12.785664
  0
LINE
  5
54D
100
AcDbEntity
  8
INCISIONI
100
AcDbLine
 62
250
  6
CONTINUOUS
 10
-38.7538024573
 20
-6.8615673444
 11
-38.7538024573
 21
-6.2587313832
  0
LINE
  5
54E
100
AcDbEntity
  8
INCISIONI
100
AcDbLine
 62
250
  6
CONTINUOUS
 10
-38.7538024573
 20
-5.3318417383
 11
-38.7538024573
 21
-4.7496410148
  0
LINE
  5
54F
100
AcDbEntity
  8
0
100
AcDbLine
 62
250
  6
CONTINUOUS
 10
-38.7458012474
 20
12.911198
 11
-38.7458012474
 21
12.027546
  0
LINE
  5
550
100
AcDbEntity
  8
0
100
AcDbLine
 62
250
  6
CONTINUOUS
 10
-38.7458012474
 20
10.87477
 11
-38.7458012474
 21
10.292325
  0
LINE
  5
551
100
AcDbEntity
  8
0
100
AcDbLine
 62
250
  6
CONTINUOUS
 10
-38.7458012474
 20
6.866738
 11
-38.7458012474
 21
5.171133
  0
LINE
  5
552
100
AcDbEntity
  8
0
100
AcDbLine
 62
250
  6
CONTINUOUS
 10
-38.7458012474
 20
2.70079
 11
-38.7458012474
 21
3.323396
  0
LINE
  5
553
100
AcDbEntity
  8
0
100
AcDbLine
 62
250
  6
CONTINUOUS
 10
-38.7458012474
 20
7.179514
 11
-38.7458012474
 21
7.773964
  0
LINE
  5
554
100
AcDbEntity
  8
0
100
AcDbLine
 62
250
  6
CONTINUOUS
 10
-38.7458012474
 20
9.348431
 11
-38.7458012474
 21
9.975074
  0
LINE
  5
555
100
AcDbEntity
  8
0
100
AcDbLine
 62
250
  6
CONTINUOUS
 10
-38.7458012474
 20
13.20444
 11
-38.7458012474
 21
13.798889
  0
LINE
  5
556
100
AcDbEntity
  8
0
100
AcDbLine
 62
250
  6
CONTINUOUS
 10
-38.7458012474
 20
15.373574
 11
-38.7458012474
 21
16.0
  0
LWPOLYLINE
  5
557
100
AcDbEntity
  8
INCISIONI
100
AcDbPolyline
 62
250
  6
CONTINUOUS
 90
46
 70
0
 10
-39.8882209377
 20
-5.9341993273
 10
-39.8881070223
 20
-5.9248882709
 10
-39.8877628365
 20
-5.9155691635
 10
-39.8871847212
 20
-5.9062509842
 10
-39.8863690172
 20
-5.8969427125
 10
-39.8853120652
 20
-5.8876533277
 10
-39.8840102061
 20
-5.8783918093
 10
-39.8824597807
 20
-5.8691671367
 10
-39.8806571297
 20
-5.8599882891
 10
-39.878598594
 20
-5.8508642461
 10
-39.8762805145
 20
-5.8418039869
 10
-39.8736992318
 20
-5.832816491
 10
-39.8708510868
 20
-5.8239107377
 10
-39.8677274789
 20
-5.8150777488
 10
-39.8643380343
 20
-5.80634242
 10
-39.8606885215
 20
-5.7977113258
 10
-39.8567847093
 20
-5.7891910409
 10
-39.8526323664
 20
-5.7807881396
 10
-39.8482372616
 20
-5.7725091966
 10
-39.8436051635
 20
-5.7643607864
 10
-39.838741841
 20
-5.7563494835
 10
-39.8336530627
 20
-5.7484818624
 10
-39.8283445973
 20
-5.7407644978
 10
-39.8228222137
 20
-5.733203964
 10
-39.8170916805
 20
-5.7258068357
 10
-39.8104948256
 20
-5.7177939883
 10
-39.8036594836
 20
-5.7099892304
 10
-39.7965964989
 20
-5.7023912377
 10
-39.7893167159
 20
-5.6949986857
 10
-39.781830979
 20
-5.6878102502
 10
-39.7741501326
 20
-5.6808246066
 10
-39.7662850213
 20
-5.6740404305
 10
-39.7582464893
 20
-5.6674563976
 10
-39.7500453813
 20
-5.6610711835
 10
-39.7416925414
 20
-5.6548834638
 10
-39.7331988143
 20
-5.648891914
 10
-39.7237528836
 20
-5.6425584593
 10
-39.7141576967
 20
-5.6364611359
 10
-39.7044197662
 20
-5.6306026835
 10
-39.694545605
 20
-5.6249858417
 10
-39.6845417259
 20
-5.6196133502
 10
-39.6744146417
 20
-5.6144879486
 10
-39.6641708651
 20
-5.6096123767
 10
-39.653816909
 20
-5.6049893741
 10
-39.6433592862
 20
-5.6006216805
 10
-39.6328045094
 20
-5.5965120355
  0
LWPOLYLINE
  5
558
100
AcDbEntity
  8
RACCORDO
100
AcDbPolyline
 62
250
  6
CONTINUOUS
 90
7
 70
0
 10
-44.4943468146
 20
-24.495628166
 10
-44.4942728645
 20
-24.4952867588
 10
-44.4942030411
 20
-24.4942634962
 10
-44.4941375429
 20
-24.492559892
 10
-44.4940765454
 20
-24.4901787618
 10
-44.4940202384
 20
-24.4871256484
 10
-44.4939224291
 20
-24.4790436576
  0
LWPOLYLINE
  5
559
100
AcDbEntity
  8
INCISIONI
100
AcDbPolyline
 62
250
  6
CONTINUOUS
 90
30
 70
0
 10
-41.5881857344
 20
-5.3678501192
 10
-41.5993361931
 20
-5.4001581126
 10
-41.6095935423
 20
-5.4327655026
 10
-41.6190002673
 20
-5.4656445225
 10
-41.6275988529
 20
-5.4987674059
 10
-41.6354317845
 20
-5.5321063861
 10
-41.6425415469
 20
-5.5656336966
 10
-41.6489706254
 20
-5.5993215708
 10
-41.6547615051
 20
-5.6331422421
 10
-41.659956671
 20
-5.6670679439
 10
-41.6645986082
 20
-5.7010709097
 10
-41.6687298018
 20
-5.7351233729
 10
-41.6742869903
 20
-5.7888259623
 10
-41.67873816
 20
-5.8425741821
 10
-41.6821397307
 20
-5.8963597166
 10
-41.6845481223
 20
-5.9501742502
 10
-41.6860197545
 20
-6.0040094671
 10
-41.6866110472
 20
-6.0578570517
 10
-41.68637842
 20
-6.1117086883
 10
-41.6851366323
 20
-6.1744795877
 10
-41.6829070532
 20
-6.2372322381
 10
-41.6797448765
 20
-6.2999541848
 10
-41.6757052962
 20
-6.3626329729
 10
-41.670843506
 20
-6.4252561475
 10
-41.6652146997
 20
-6.487811254
 10
-41.6575288148
 20
-6.5627633179
 10
-41.6489265762
 20
-6.6376072117
 10
-41.6395163381
 20
-6.7123506825
 10
-41.6294064548
 20
-6.7870014777
 10
-41.6187052804
 20
-6.8615673444
  0
LINE
  5
55A
100
AcDbEntity
  8
0
100
AcDbLine
 62
250
  6
CONTINUOUS
 10
-36.5028135958
 20
-1.5714292526
 11
-35.6458012474
 21
-1.5714292526
  0
LINE
  5
55B
100
AcDbEntity
  8
0
100
AcDbLine
 62
250
  6
CONTINUOUS
 10
-36.5028135958
 20
-1.5714292526
 11
-37.1455727901
 21
-1.1428565979
  0
LWPOLYLINE
  5
55C
100
AcDbEntity
  8
0
100
AcDbPolyline
 62
250
  6
CONTINUOUS
 90
3
 70
0
 10
-40.3475670595
 20
3.7174608972
 10
-40.3458578077
 20
3.7020250568
 10
-40.3440089436
 20
3.6866121309
  0
LINE
  5
55D
100
AcDbEntity
  8
ASSI
100
AcDbLine
 62
250
  6
CONTINUOUS
 10
-37.6712814207
 20
-23.7507734247
 11
-37.6712814207
 21
-22.3338981669
  0
LINE
  5
55E
100
AcDbEntity
  8
ASSI
100
AcDbLine
 62
250
  6
CONTINUOUS
 10
-37.6712814207
 20
22.3338981669
 11
-37.6712814207
 21
23.7511641713
  0
LINE
  5
55F
100
AcDbEntity
  8
INCISIONI
100
AcDbLine
 62
250
  6
CONTINUOUS
 10
-37.5455118682
 20
13.978571558
 11
-37.5455118682
 21
13.435714221
  0
LINE
  5
560
100
AcDbEntity
  8
INCISIONI
100
AcDbLine
 62
250
  6
CONTINUOUS
 10
-37.5455118682
 20
12.6214286685
 11
-37.5455118682
 21
12.0785713315
  0
LINE
  5
561
100
AcDbEntity
  8
INCISIONI
100
AcDbLine
 62
250
  6
CONTINUOUS
 10
-37.5455118682
 20
14.792857337
 11
-37.5455118682
 21
15.607142663
  0
LINE
  5
562
100
AcDbEntity
  8
ASSI
100
AcDbLine
 62
7
  6
CONTINUOUS
 10
-37.2458012474
 20
-23.2563578147
 11
-37.2458012474
 21
-22.3301954119
  0
LINE
  5
563
100
AcDbEntity
  8
ASSI
100
AcDbLine
 62
7
  6
CONTINUOUS
 10
-37.2458012474
 20
22.3301954119
 11
-37.2458012474
 21
23.2592582188
  0
LINE
  5
564
100
AcDbEntity
  8
0
100
AcDbLine
 62
250
  6
CONTINUOUS
 10
-37.1455727901
 20
-13.428571403
 11
-37.1455727901
 21
-12.8928571939
  0
LINE
  5
565
100
AcDbEntity
  8
0
100
AcDbLine
 62
250
  6
CONTINUOUS
 10
-37.1455727901
 20
-12.0714285374
 11
-37.1455727901
 21
-11.4285713434
  0
LINE
  5
566
100
AcDbEntity
  8
0
100
AcDbLine
 62
250
  6
CONTINUOUS
 10
-37.1455727901
 20
-5.5357141495
 11
-37.1455727901
 21
-4.678571701
  0
LINE
  5
567
100
AcDbEntity
  8
INCISIONI
100
AcDbLine
 62
250
  6
CONTINUOUS
 10
-36.7313502221
 20
15.335714221
 11
-36.7313502221
 21
14.792857337
  0
LINE
  5
568
100
AcDbEntity
  8
INCISIONI
100
AcDbLine
 62
250
  6
CONTINUOUS
 10
-36.7313502221
 20
13.978571558
 11
-36.7313502221
 21
13.707142663
  0
LINE
  5
569
100
AcDbEntity
  8
INCISIONI
100
AcDbLine
 62
250
  6
CONTINUOUS
 10
-36.7313502221
 20
12.6214286685
 11
-36.7313502221
 21
12.35
  0
LINE
  5
56A
100
AcDbEntity
  8
0
100
AcDbLine
 62
250
  6
CONTINUOUS
 10
-36.5028135958
 20
-11.6428573132
 11
-36.5028135958
 21
-12.0714285374
  0
LWPOLYLINE
  5
56B
100
AcDbEntity
  8
INTF_11
100
AcDbPolyline
 62
7
  6
CONTINUOUS
 90
17
 70
0
 10
-37.2826208186
 20
7.57041
 10
-37.2838294714
 20
7.0727386725
 10
-37.1857984553
 20
6.5757875954
 10
-36.9914904081
 20
6.1080202808
 10
-36.7085722689
 20
5.6878937282
 10
-36.3482073227
 20
5.3319851441
 10
-35.9324989547
 20
5.0584671162
 10
-35.4630531817
 20
4.8683963337
 10
-34.965305859
 20
4.7748789619
 10
-34.4588969266
 20
4.7816049764
 10
-33.9638080912
 20
4.8883089847
 10
-33.5073462104
 20
5.0864434861
 10
-33.0912747451
 20
5.3752430225
 10
-32.7404865353
 20
5.7405969899
 10
-32.4688228596
 20
6.168089379
 10
-32.2870029286
 20
6.6408523445
 10
-32.2022523013
 20
7.1394872127
  0
LWPOLYLINE
  5
56C
100
AcDbEntity
  8
0
100
AcDbPolyline
 62
250
  6
CONTINUOUS
 90
17
 70
0
 10
-37.2826208186
 20
7.57041
 10
-37.2838294714
 20
7.0727386725
 10
-37.1857984553
 20
6.5757875954
 10
-36.9914904081
 20
6.1080202808
 10
-36.7085722689
 20
5.6878937282
 10
-36.3482073227
 20
5.3319851441
 10
-35.9324989547
 20
5.0584671162
 10
-35.4630531817
 20
4.8683963337
 10
-34.965305859
 20
4.7748789619
 10
-34.4588969266
 20
4.7816049764
 10
-33.9638080912
 20
4.8883089847
 10
-33.5073462104
 20
5.0864434861
 10
-33.0912747451
 20
5.3752430225
 10
-32.7404865353
 20
5.7405969899
 10
-32.4688228596
 20
6.168089379
 10
-32.2870029286
 20
6.6408523445
 10
-32.2022523013
 20
7.1394872127
  0
LWPOLYLINE
  5
56D
100
AcDbEntity
  8
INTF_11
100
AcDbPolyline
 62
7
  6
CONTINUOUS
 90
17
 70
0
 10
-37.2826208186
 20
3.23541
 10
-37.2838294714
 20
2.7377386725
 10
-37.1857984553
 20
2.2407875954
 10
-36.9914904081
 20
1.7730202808
 10
-36.7085722689
 20
1.3528937282
 10
-36.3482073227
 20
0.9969851441
 10
-35.9324989547
 20
0.7234671162
 10
-35.4630531817
 20
0.5333963337
 10
-34.965305859
 20
0.4398789619
 10
-34.4588969266
 20
0.4466049764
 10
-33.9638080912
 20
0.5533089847
 10
-33.5073462104
 20
0.7514434861
 10
-33.0912747451
 20
1.0402430225
 10
-32.7404865353
 20
1.4055969899
 10
-32.4688228596
 20
1.833089379
 10
-32.2870029286
 20
2.3058523445
 10
-32.2022523013
 20
2.8044872127
  0
LWPOLYLINE
  5
56E
100
AcDbEntity
  8
0
100
AcDbPolyline
 62
250
  6
CONTINUOUS
 90
17
 70
0
 10
-37.2826208186
 20
3.23541
 10
-37.2838294714
 20
2.7377386725
 10
-37.1857984553
 20
2.2407875954
 10
-36.9914904081
 20
1.7730202808
 10
-36.7085722689
 20
1.3528937282
 10
-36.3482073227
 20
0.9969851441
 10
-35.9324989547
 20
0.7234671162
 10
-35.4630531817
 20
0.5333963337
 10
-34.965305859
 20
0.4398789619
 10
-34.4588969266
 20
0.4466049764
 10
-33.9638080912
 20
0.5533089847
 10
-33.5073462104
 20
0.7514434861
 10
-33.0912747451
 20
1.0402430225
 10
-32.7404865353
 20
1.4055969899
 10
-32.4688228596
 20
1.833089379
 10
-32.2870029286
 20
2.3058523445
 10
-32.2022523013
 20
2.8044872127
  0
LWPOLYLINE
  5
56F
100
AcDbEntity
  8
INTF_11
100
AcDbPolyline
 62
7
  6
CONTINUOUS
 90
8
 70
0
 10
-36.5122121735
 20
7.57041
 10
-36.5261987071
 20
7.1913052257
 10
-36.45976733
 20
6.8178060422
 10
-36.3159186285
 20
6.4667827394
 10
-36.0970885894
 20
6.1493656747
 10
-35.8201941526
 20
5.8900931857
 10
-35.494770768
 20
5.695199708
 10
-35.1282310531
 20
5.5718735574
  0
LWPOLYLINE
  5
570
100
AcDbEntity
  8
0
100
AcDbPolyline
 62
250
  6
CONTINUOUS
 90
8
 70
0
 10
-36.5122121735
 20
7.57041
 10
-36.5261987071
 20
7.1913052257
 10
-36.45976733
 20
6.8178060422
 10
-36.3159186285
 20
6.4667827394
 10
-36.0970885894
 20
6.1493656747
 10
-35.8201941526
 20
5.8900931857
 10
-35.494770768
 20
5.695199708
 10
-35.1282310531
 20
5.5718735574
  0
LWPOLYLINE
  5
571
100
AcDbEntity
  8
INTF_11
100
AcDbPolyline
 62
7
  6
CONTINUOUS
 90
17
 70
0
 10
-36.5122121735
 20
3.23541
 10
-36.5280931392
 20
2.8874012902
 10
-36.4745493228
 20
2.5368971332
 10
-36.3527926951
 20
2.203892952
 10
-36.1676274866
 20
1.9015283093
 10
-35.9310248294
 20
1.6458635475
 10
-35.6438987966
 20
1.4378863829
 10
-35.3213354709
 20
1.2907735765
 10
-34.9760624435
 20
1.2103298541
 10
-34.6217033767
 20
1.1997293358
 10
-34.2782498969
 20
1.2577475327
 10
-33.9470288768
 20
1.3841603017
 10
-33.6473250646
 20
1.5735573337
 10
-33.3909640685
 20
1.8184654669
 10
-33.1911113346
 20
2.1037881957
 10
-33.0485389593
 20
2.4284232254
 10
-32.9725997177
 20
2.7777612023
  0
LWPOLYLINE
  5
572
100
AcDbEntity
  8
0
100
AcDbPolyline
 62
250
  6
CONTINUOUS
 90
7
 70
0
 10
-36.5122121735
 20
3.23541
 10
-36.5213393858
 20
3.1612049392
 10
-36.5273516799
 20
3.0866827027
 10
-36.530238508
 20
3.0119740278
 10
-36.5298331626
 20
2.9309812536
 10
-36.5261987071
 20
2.8563052257
 10
-36.5189787785
 20
2.7777611826
  0
LINE
  5
573
100
AcDbEntity
  8
ASSI
100
AcDbLine
 62
7
  6
CONTINUOUS
 10
-20.8458012474
 20
2.1
 11
-28.3458012474
 21
2.1
  0
LINE
  5
574
100
AcDbEntity
  8
0
100
AcDbLine
 62
250
  6
CONTINUOUS
 10
-36.0743074216
 20
-14.5714285672
 11
-36.0743074216
 21
-13.9999999404
  0
LINE
  5
575
100
AcDbEntity
  8
0
100
AcDbLine
 62
250
  6
CONTINUOUS
 10
-36.0743074216
 20
-4.1071431637
 11
-36.0743074216
 21
-3.5357146263
  0
LINE
  5
576
100
AcDbEntity
  8
INCISIONI
100
AcDbLine
 62
250
  6
CONTINUOUS
 10
-36.0528820988
 20
11.535714221
 11
-36.0528820988
 21
10.5857143342
  0
LINE
  5
577
100
AcDbEntity
  8
0
100
AcDbLine
 62
250
  6
CONTINUOUS
 10
-35.6458012474
 20
-12.8928571939
 11
-35.6458012474
 21
-13.428571403
  0
LINE
  5
578
100
AcDbEntity
  8
0
100
AcDbLine
 62
250
  6
CONTINUOUS
 10
-35.6458012474
 20
-12.0714285374
 11
-35.6458012474
 21
-11.4285713434
  0
LINE
  5
579
100
AcDbEntity
  8
0
100
AcDbLine
 62
250
  6
CONTINUOUS
 10
-35.6458012474
 20
-2.9642853737
 11
-35.6458012474
 21
-2.428571701
  0
LINE
  5
57A
100
AcDbEntity
  8
INCISIONI
100
AcDbLine
 62
250
  6
CONTINUOUS
 10
-35.6458012474
 20
12.0785713315
 11
-35.6458012474
 21
12.7571428895
  0
LINE
  5
57B
100
AcDbEntity
  8
INCISIONI
100
AcDbLine
 62
250
  6
CONTINUOUS
 10
-35.6458012474
 20
13.435714221
 11
-35.6458012474
 21
14.114285779
  0
LINE
  5
57C
100
AcDbEntity
  8
INCISIONI
100
AcDbLine
 62
250
  6
CONTINUOUS
 10
-35.6458012474
 20
14.792857337
 11
-35.6458012474
 21
15.335714221
  0
LINE
  5
57D
100
AcDbEntity
  8
INTF_11
100
AcDbLine
 62
7
  6
CONTINUOUS
 10
-35.1282309926
 20
7.06041
 11
-35.1282309926
 21
5.571874
  0
LINE
  5
57E
100
AcDbEntity
  8
0
100
AcDbLine
 62
250
  6
CONTINUOUS
 10
-35.1282309926
 20
7.06041
 11
-35.1282309926
 21
5.571874
  0
LINE
  5
57F
100
AcDbEntity
  8
DRAFT
100
AcDbLine
 62
250
  6
CONTINUOUS
 10
-34.7370750442
 20
21.448622017
 11
-34.7370750442
 21
20.9829813964
  0
LINE
  5
580
100
AcDbEntity
  8
DRAFT
100
AcDbLine
 62
250
  6
CONTINUOUS
 10
-34.7370750442
 20
-20.9829813964
 11
-34.7370750442
 21
-21.448622017
  0
LINE
  5
581
100
AcDbEntity
  8
INTF_11
100
AcDbLine
 62
7
  6
CONTINUOUS
 10
-34.3633475058
 20
7.06041
 11
-34.3633475058
 21
5.571874
  0
LINE
  5
582
100
AcDbEntity
  8
0
100
AcDbLine
 62
250
  6
CONTINUOUS
 10
-34.3633475058
 20
7.06041
 11
-34.3633475058
 21
5.571874
  0
LINE
  5
583
100
AcDbEntity
  8
0
100
AcDbLine
 62
250
  6
CONTINUOUS
 10
-37.1455727901
 20
-2.0000004768
 11
-36.5028135958
 21
-1.5714292526
  0
LINE
  5
584
100
AcDbEntity
  8
0
100
AcDbLine
 62
250
  6
CONTINUOUS
 10
-37.1455727901
 20
-3.8214292526
 11
-35.6458012474
 21
-3.3928565979
  0
LINE
  5
585
100
AcDbEntity
  8
0
100
AcDbLine
 62
250
  6
CONTINUOUS
 10
-41.6449189463
 20
2.70079
 11
-38.7458012474
 21
2.70079
  0
LINE
  5
586
100
AcDbEntity
  8
ASSI
100
AcDbLine
 62
7
  6
CONTINUOUS
 10
-20.8458012474
 20
2.9
 11
-28.3458012474
 21
2.9
  0
LINE
  5
587
100
AcDbEntity
  8
INTF_11
100
AcDbLine
 62
7
  6
CONTINUOUS
 10
-37.2826208186
 20
3.23541
 11
-36.5122121735
 21
3.23541
  0
LINE
  5
588
100
AcDbEntity
  8
0
100
AcDbLine
 62
250
  6
CONTINUOUS
 10
-37.2826208186
 20
3.23541
 11
-36.5122121735
 21
3.23541
  0
LINE
  5
589
100
AcDbEntity
  8
INTF_11
100
AcDbLine
 62
7
  6
CONTINUOUS
 10
-32.979366325
 20
3.23541
 11
-32.2089576798
 21
3.23541
  0
LINE
  5
58A
100
AcDbEntity
  8
0
100
AcDbLine
 62
250
  6
CONTINUOUS
 10
-32.979366325
 20
3.23541
 11
-32.2089576798
 21
3.23541
  0
LINE
  5
58B
100
AcDbEntity
  8
0
100
AcDbLine
 62
250
  6
CONTINUOUS
 10
-38.7458012474
 20
3.323396
 11
-39.8625632474
 21
3.323396
  0
LINE
  5
58C
100
AcDbEntity
  8
0
100
AcDbLine
 62
250
  6
CONTINUOUS
 10
-40.3440093065
 20
3.323396
 11
-41.1631327366
 21
3.323396
  0
LWPOLYLINE
  5
58D
100
AcDbEntity
  8
0
100
AcDbPolyline
 62
250
  6
CONTINUOUS
 90
53
 70
0
 10
-40.7535708039
 20
4.1187598859
 10
-40.740464721
 20
4.1186645203
 10
-40.7273300733
 20
4.118365796
 10
-40.7141807431
 20
4.1178447717
 10
-40.7010306125
 20
4.1170825061
 10
-40.6878935639
 20
4.1160600579
 10
-40.6747834794
 20
4.1147584859
 10
-40.6617142412
 20
4.1131588488
 10
-40.6486997317
 20
4.1112422052
 10
-40.635753833
 20
4.1089896139
 10
-40.6228904274
 20
4.1063821336
 10
-40.6101233972
 20
4.103400823
 10
-40.5974666244
 20
4.1000267408
 10
-40.5849339915
 20
4.0962409458
 10
-40.5733357503
 20
4.0923141379
 10
-40.5618663987
 20
4.0880169238
 10
-40.5505340748
 20
4.0833556651
 10
-40.5393469163
 20
4.0783367237
 10
-40.5283130612
 20
4.0729664611
 10
-40.5174406473
 20
4.0672512393
 10
-40.5067378125
 20
4.0611974199
 10
-40.4985339259
 20
4.0562543208
 10
-40.4904568322
 20
4.0511022627
 10
-40.4825256988
 20
4.0457334888
 10
-40.4747596929
 20
4.0401402428
 10
-40.4671779817
 20
4.0343147679
 10
-40.4597997326
 20
4.0282493076
 10
-40.4526441129
 20
4.0219361053
 10
-40.4457302898
 20
4.0153674044
 10
-40.4390774306
 20
4.0085354483
 10
-40.432750299
 20
4.001493113
 10
-40.426699475
 20
3.9942009963
 10
-40.4209254929
 20
3.9866761124
 10
-40.415428887
 20
3.9789354759
 10
-40.4102101915
 20
3.9709961011
 10
-40.4052699407
 20
3.9628750024
 10
-40.4006086689
 20
3.9545891942
 10
-40.3962269102
 20
3.9461556907
 10
-40.3921251989
 20
3.9375915065
 10
-40.3878105764
 20
3.9277426683
 10
-40.3838372598
 20
3.9177618517
 10
-40.3801858368
 20
3.907663209
 10
-40.3768368949
 20
3.8974608925
 10
-40.3737710215
 20
3.8871690543
 10
-40.3709688043
 20
3.8768018468
 10
-40.3684108308
 20
3.8663734222
 10
-40.3660776885
 20
3.8558979327
 10
-40.3630586065
 20
3.8406695016
 10
-40.3604131803
 20
3.8253812571
 10
-40.3580843803
 20
3.8100423913
 10
-40.3560151766
 20
3.794662096
 10
-40.3541485394
 20
3.7792495632
 10
-40.3524274389
 20
3.763813985
  0
LWPOLYLINE
  5
58E
100
AcDbEntity
  8
0
100
AcDbPolyline
 62
250
  6
CONTINUOUS
 90
17
 70
0
 10
-36.5189787806
 20
2.7777612012
 10
-36.4458532984
 20
2.4371538339
 10
-36.304950817
 20
2.1117903147
 10
-36.102527483
 20
1.8207004877
 10
-35.8465704456
 20
1.5753700736
 10
-35.5527407852
 20
1.38828675
 10
-35.2221736616
 20
1.2601732809
 10
-34.8728095283
 20
1.1999363114
 10
-34.5184334732
 20
1.2099526509
 10
-34.1730283429
 20
1.2898270782
 10
-33.8556172206
 20
1.4332907568
 10
-33.567426369
 20
1.6397894399
 10
-33.3257309484
 20
1.8991858607
 10
-33.1400676923
 20
2.2012448461
 10
-33.0193308216
 20
2.5280177193
 10
-32.9639867823
 20
2.8782420502
 10
-32.9793663251
 20
3.2354100011
  0
LINE
  5
58F
100
AcDbEntity
  8
RACCORDO
100
AcDbLine
 62
7
  6
CONTINUOUS
 10
-34.2458012474
 20
21.3126932437
 11
-34.2458012474
 21
20.9872686779
  0
LINE
  5
590
100
AcDbEntity
  8
DRAFT
100
AcDbLine
 62
7
  6
CONTINUOUS
 10
-34.2458012474
 20
21.3126932437
 11
-34.2458012474
 21
20.85
  0
LINE
  5
591
100
AcDbEntity
  8
RACCORDO
100
AcDbLine
 62
7
  6
CONTINUOUS
 10
-34.2458012474
 20
-20.9872686779
 11
-34.2458012474
 21
-21.3126932437
  0
LINE
  5
592
100
AcDbEntity
  8
DRAFT
100
AcDbLine
 62
7
  6
CONTINUOUS
 10
-34.2458012474
 20
-20.85
 11
-34.2458012474
 21
-21.3126932437
  0
LINE
  5
593
100
AcDbEntity
  8
RACCORDO
100
AcDbLine
 62
7
  6
CONTINUOUS
 10
-34.2458012474
 20
-20.85
 11
-34.2458012474
 21
-19.3181305591
  0
LINE
  5
594
100
AcDbEntity
  8
ASSI
100
AcDbLine
 62
7
  6
CONTINUOUS
 10
-34.2458012474
 20
-20.85
 11
-34.2458012474
 21
-19.3181305591
  0
LINE
  5
595
100
AcDbEntity
  8
RACCORDO
100
AcDbLine
 62
7
  6
CONTINUOUS
 10
-34.2458012474
 20
19.3181305591
 11
-34.2458012474
 21
20.85
  0
LINE
  5
596
100
AcDbEntity
  8
ASSI
100
AcDbLine
 62
7
  6
CONTINUOUS
 10
-34.2458012474
 20
19.3181305591
 11
-34.2458012474
 21
20.85
  0
LWPOLYLINE
  5
597
100
AcDbEntity
  8
0
100
AcDbPolyline
 62
250
  6
CONTINUOUS
 90
7
 70
0
 10
-32.2022522886
 20
7.1394873963
 10
-32.1983326762
 20
7.2105865243
 10
-32.1963994937
 20
7.2817673904
 10
-32.1964542487
 20
7.3529744901
 10
-32.1984968985
 20
7.4241522981
 10
-32.2025258502
 20
7.4952453121
 10
-32.2089576806
 20
7.5704100079
  0
LWPOLYLINE
  5
598
100
AcDbEntity
  8
INTF_11
100
AcDbPolyline
 62
7
  6
CONTINUOUS
 90
7
 70
0
 10
-32.2022522886
 20
7.1394873963
 10
-32.1983326762
 20
7.2105865243
 10
-32.1963994937
 20
7.2817673904
 10
-32.1964542487
 20
7.3529744901
 10
-32.1984968985
 20
7.4241522981
 10
-32.2025258502
 20
7.4952453121
 10
-32.2089576806
 20
7.5704100079
  0
LWPOLYLINE
  5
599
100
AcDbEntity
  8
0
100
AcDbPolyline
 62
250
  6
CONTINUOUS
 90
7
 70
0
 10
-32.2022522886
 20
2.8044873963
 10
-32.1983326762
 20
2.8755865243
 10
-32.1963994937
 20
2.9467673904
 10
-32.1964542487
 20
3.0179744901
 10
-32.1984968985
 20
3.0891522981
 10
-32.2025258502
 20
3.1602453121
 10
-32.2089576806
 20
3.2354100079
  0
LWPOLYLINE
  5
59A
100
AcDbEntity
  8
INTF_11
100
AcDbPolyline
 62
7
  6
CONTINUOUS
 90
7
 70
0
 10
-32.2022522886
 20
2.8044873963
 10
-32.1983326762
 20
2.8755865243
 10
-32.1963994937
 20
2.9467673904
 10
-32.1964542487
 20
3.0179744901
 10
-32.1984968985
 20
3.0891522981
 10
-32.2025258502
 20
3.1602453121
 10
-32.2089576806
 20
3.2354100079
  0
LWPOLYLINE
  5
59B
100
AcDbEntity
  8
INTF_11
100
AcDbPolyline
 62
7
  6
CONTINUOUS
 90
7
 70
0
 10
-32.9725997178
 20
2.7777612012
 10
-32.9656703479
 20
2.8522037403
 10
-32.9618639113
 20
2.9268711968
 10
-32.961187086
 20
3.0016325785
 10
-32.9639867823
 20
3.0825779498
 10
-32.9698274239
 20
3.1571138401
 10
-32.9793663277
 20
3.2354100186
  0
LWPOLYLINE
  5
59C
100
AcDbEntity
  8
RACCORDO
100
AcDbPolyline
 62
250
  6
CONTINUOUS
 90
5
 70
0
 10
-44.3732968499
 20
-23.6326765842
 10
-44.3721644738
 20
-23.6305857918
 10
-44.3713697883
 20
-23.6290788219
 10
-44.3709149655
 20
-23.6281597935
 10
-44.3708012474
 20
-23.6278312164
  0
LWPOLYLINE
  5
59D
100
AcDbEntity
  8
INCISIONI
100
AcDbPolyline
 62
250
  6
CONTINUOUS
 90
8
 70
0
 10
-39.6328045094
 20
-5.5965120355
 10
-39.5936356598
 20
-5.5821496629
 10
-39.5542629833
 20
-5.5683752311
 10
-39.5147099733
 20
-5.5551224623
 10
-39.4750001233
 20
-5.5423250787
 10
-39.4351569266
 20
-5.5299168024
 10
-39.3952038765
 20
-5.5178313556
 10
-39.3551644665
 20
-5.5060024606
  0
LINE
  5
59E
100
AcDbEntity
  8
INCISIONI
100
AcDbLine
 62
250
  6
CONTINUOUS
 10
-39.084319088
 20
-5.4280820816
 11
-38.864018414
 21
-5.3637704762
  0
LINE
  5
59F
100
AcDbEntity
  8
INCISIONI
100
AcDbLine
 62
250
  6
CONTINUOUS
 10
-38.864018414
 20
-5.3637704762
 11
-38.7538024573
 21
-5.3318417383
  0
LWPOLYLINE
  5
5A0
100
AcDbEntity
  8
INCISIONI
100
AcDbPolyline
 62
250
  6
CONTINUOUS
 90
3
 70
0
 10
-39.3551644665
 20
-5.5060024606
 10
-39.2749205401
 20
-5.4828492144
 10
-39.084319088
 20
-5.4280820816
  0
LWPOLYLINE
  5
5A1
100
AcDbEntity
  8
0
100
AcDbPolyline
 62
250
  6
CONTINUOUS
 90
52
 70
0
 10
-40.7535708039
 20
4.7815268003
 10
-40.7840216729
 20
4.7812181196
 10
-40.8144753244
 20
4.7802622694
 10
-40.8449081042
 20
4.7786145378
 10
-40.8752963585
 20
4.776230213
 10
-40.9056164333
 20
4.7730645828
 10
-40.9358446747
 20
4.7690729355
 10
-40.9659574287
 20
4.7642105591
 10
-40.9922285427
 20
4.7591991139
 10
-41.0183573691
 20
4.753457933
 10
-41.0443084682
 20
4.7469602571
 10
-41.0700464006
 20
4.7396793272
 10
-41.0955357265
 20
4.7315883841
 10
-41.1207410066
 20
4.7226606687
 10
-41.1456268011
 20
4.7128694219
 10
-41.1701576705
 20
4.7021878845
 10
-41.1942947623
 20
4.6905961892
 10
-41.2179935311
 20
4.6780981526
 10
-41.2412059757
 20
4.6647043821
 10
-41.2638840947
 20
4.6504254852
 10
-41.2859798869
 20
4.6352720693
 10
-41.3074453509
 20
4.6192547416
 10
-41.3282324854
 20
4.6023841097
 10
-41.3482932891
 20
4.584670781
 10
-41.3676063099
 20
4.5661132544
 10
-41.3861415567
 20
4.5467734634
 10
-41.4038971333
 20
4.5267028944
 10
-41.4208711439
 20
4.5059530338
 10
-41.4370616924
 20
4.484575368
 10
-41.4524668828
 20
4.4626213833
 10
-41.4670848191
 20
4.4401425663
 10
-41.4809136053
 20
4.4171904032
 10
-41.4957439683
 20
4.3904669015
 10
-41.5095906205
 20
4.363242664
 10
-41.5225010896
 20
4.3355669076
 10
-41.5345229037
 20
4.3074888493
 10
-41.5457035905
 20
4.2790577062
 10
-41.5560906781
 20
4.2503226951
 10
-41.5657316942
 20
4.2213330331
 10
-41.5760954097
 20
4.1872362349
 10
-41.5855368421
 20
4.1528869186
 10
-41.5940851072
 20
4.1183123618
 10
-41.6017693205
 20
4.0835398425
 10
-41.6086185975
 20
4.0485966381
 10
-41.6146620538
 20
4.0135100265
 10
-41.6208931265
 20
3.9713028391
 10
-41.6261089776
 20
3.9289583793
 10
-41.6304101715
 20
3.8865062021
 10
-41.6338972724
 20
3.8439758624
 10
-41.6366708445
 20
3.8013969153
 10
-41.6393128895
 20
3.7481210085
 10
-41.6413395073
 20
3.6948258614
  0
LINE
  5
5A2
100
AcDbEntity
  8
0
100
AcDbLine
 62
250
  6
CONTINUOUS
 10
-38.7458012474
 20
5.171133
 11
-41.6449189463
 21
5.171133
  0
LINE
  5
5A3
100
AcDbEntity
  8
0
100
AcDbLine
 62
250
  6
CONTINUOUS
 10
-41.6449189463
 20
5.793739
 11
-39.2275874571
 21
5.793739
  0
LINE
  5
5A4
100
AcDbEntity
  8
RACCORDO
100
AcDbLine
 62
250
  6
CONTINUOUS
 10
-44.3765614002
 20
-23.6385852371
 11
-44.3732968499
 21
-23.6326765842
  0
LINE
  5
5A5
100
AcDbEntity
  8
RACCORDO
100
AcDbLine
 62
250
  6
CONTINUOUS
 10
-44.3838842576
 20
-23.6516334796
 11
-44.3765614002
 21
-23.6385852371
  0
LINE
  5
5A6
100
AcDbEntity
  8
RACCORDO
100
AcDbLine
 62
250
  6
CONTINUOUS
 10
-44.4065215132
 20
-23.6914794042
 11
-44.3838842576
 21
-23.6516334796
  0
LINE
  5
5A7
100
AcDbEntity
  8
RACCORDO
100
AcDbLine
 62
250
  6
CONTINUOUS
 10
-44.4813253784
 20
-23.821769291
 11
-44.4065215132
 21
-23.6914794042
  0
LINE
  5
5A8
100
AcDbEntity
  8
RACCORDO
100
AcDbLine
 62
250
  6
CONTINUOUS
 10
-44.4943468146
 20
-23.8443375673
 11
-44.4813253784
 21
-23.821769291
  0
LINE
  5
5A9
100
AcDbEntity
  8
INCISIONI
100
AcDbLine
 62
250
  6
CONTINUOUS
 10
-41.6525726144
 20
-7.92899
 11
-38.7538028095
 21
-7.039304
  0
LINE
  5
5AA
100
AcDbEntity
  8
0
100
AcDbLine
 62
250
  6
CONTINUOUS
 10
-39.2275874571
 20
6.866738
 11
-38.7458012474
 21
6.866738
  0
LINE
  5
5AB
100
AcDbEntity
  8
INTF_11
100
AcDbLine
 62
7
  6
CONTINUOUS
 10
-35.1282309926
 20
7.06041
 11
-34.3633475058
 21
7.06041
  0
LINE
  5
5AC
100
AcDbEntity
  8
0
100
AcDbLine
 62
250
  6
CONTINUOUS
 10
-35.1282309926
 20
7.06041
 11
-34.3633475058
 21
7.06041
  0
LINE
  5
5AD
100
AcDbEntity
  8
ASSI
100
AcDbLine
 62
7
  6
CONTINUOUS
 10
-20.8458012474
 20
7.1
 11
-28.3458012474
 21
7.1
  0
LINE
  5
5AE
100
AcDbEntity
  8
INTF_11
100
AcDbLine
 62
7
  6
CONTINUOUS
 10
-37.2826208186
 20
7.57041
 11
-36.5122121735
 21
7.57041
  0
LINE
  5
5AF
100
AcDbEntity
  8
0
100
AcDbLine
 62
250
  6
CONTINUOUS
 10
-37.2826208186
 20
7.57041
 11
-36.5122121735
 21
7.57041
  0
LINE
  5
5B0
100
AcDbEntity
  8
INTF_11
100
AcDbLine
 62
7
  6
CONTINUOUS
 10
-32.979366325
 20
7.57041
 11
-32.2089576798
 21
7.57041
  0
LINE
  5
5B1
100
AcDbEntity
  8
0
100
AcDbLine
 62
250
  6
CONTINUOUS
 10
-32.979366325
 20
7.57041
 11
-32.2089576798
 21
7.57041
  0
LINE
  5
5B2
100
AcDbEntity
  8
ASSI
100
AcDbLine
 62
7
  6
CONTINUOUS
 10
-20.8458012474
 20
7.9
 11
-28.3458012474
 21
7.9
  0
LINE
  5
5B3
100
AcDbEntity
  8
0
100
AcDbLine
 62
250
  6
CONTINUOUS
 10
-39.8420392464
 20
8.151456
 11
-41.0909277359
 21
8.581471
  0
LINE
  5
5B4
100
AcDbEntity
  8
0
100
AcDbLine
 62
250
  6
CONTINUOUS
 10
-38.7458012474
 20
7.773964
 11
-39.3604402474
 21
7.990812
  0
LINE
  5
5B5
100
AcDbEntity
  8
0
100
AcDbLine
 62
250
  6
CONTINUOUS
 10
-41.6449189463
 20
8.227849
 11
-38.7458012474
 21
7.179514
  0
LINE
  5
5B6
100
AcDbEntity
  8
INCISIONI
100
AcDbLine
 62
250
  6
CONTINUOUS
 10
-37.0027374375
 20
9.5
 11
-37.5455118682
 21
10.0428571671
  0
LINE
  5
5B7
100
AcDbEntity
  8
INCISIONI
100
AcDbLine
 62
250
  6
CONTINUOUS
 10
-36.7313502221
 20
12.6214286685
 11
-36.8670437732
 21
12.8476189613
  0
LWPOLYLINE
  5
5B8
100
AcDbEntity
  8
0
100
AcDbPolyline
 62
7
  6
CONTINUOUS
 90
2
 70
0
 43
0.3500000006
 10
-29.6172301025
 20
33.2500007629
 10
-29.6172301025
 20
34.7500012207
  0
LINE
  5
5B9
100
AcDbEntity
  8
0
100
AcDbLine
 62
250
  6
CONTINUOUS
 10
-37.1455727901
 20
-12.8928571939
 11
-36.9313197254
 21
-12.6785715818
  0
LINE
  5
5BA
100
AcDbEntity
  8
0
100
AcDbLine
 62
250
  6
CONTINUOUS
 10
-37.1455727901
 20
-8.8571429253
 11
-35.6458012474
 21
-8.1071429253
  0
LINE
  5
5BB
100
AcDbEntity
  8
INCISIONI
100
AcDbLine
 62
250
  6
CONTINUOUS
 10
-38.7538028095
 20
-11.040105
 11
-40.6466450996
 21
-11.750162
  0
LINE
  5
5BC
100
AcDbEntity
  8
INCISIONI
100
AcDbLine
 62
250
  6
CONTINUOUS
 10
-41.6525726144
 20
-11.593234
 11
-40.0431669669
 21
-10.994355
  0
LINE
  5
5BD
100
AcDbEntity
  8
INCISIONI
100
AcDbLine
 62
250
  6
CONTINUOUS
 10
-37.5455118682
 20
10.0428571671
 11
-35.6458012474
 21
10.0428571671
  0
LINE
  5
5BE
100
AcDbEntity
  8
0
100
AcDbLine
 62
250
  6
CONTINUOUS
 10
-38.7458012474
 20
10.292325
 11
-41.6449189463
 21
10.292325
  0
LINE
  5
5BF
100
AcDbEntity
  8
INCISIONI
100
AcDbLine
 62
250
  6
CONTINUOUS
 10
-36.7313502221
 20
13.978571558
 11
-36.8670437732
 21
14.2047620773
  0
LINE
  5
5C0
100
AcDbEntity
  8
0
100
AcDbLine
 62
250
  6
CONTINUOUS
 10
-41.1721659843
 20
10.87477
 11
-38.7458012474
 21
10.87477
  0
LINE
  5
5C1
100
AcDbEntity
  8
INCISIONI
100
AcDbLine
 62
250
  6
CONTINUOUS
 10
-35.6458012474
 20
11.2190476298
 11
-36.5956565578
 21
11.2190476298
  0
LINE
  5
5C2
100
AcDbEntity
  8
ASSI
100
AcDbLine
 62
7
  6
CONTINUOUS
 10
-20.8458012474
 20
12.1
 11
-28.3458012474
 21
12.1
  0
LINE
  5
5C3
100
AcDbEntity
  8
0
100
AcDbLine
 62
250
  6
CONTINUOUS
 10
-39.3475049208
 20
12.328754
 11
-41.6449189463
 21
12.328754
  0
LINE
  5
5C4
100
AcDbEntity
  8
INCISIONI
100
AcDbLine
 62
250
  6
CONTINUOUS
 10
-36.0528820988
 20
10.5857143342
 11
-37.5455118682
 21
10.9928571105
  0
LINE
  5
5C5
100
AcDbEntity
  8
0
100
AcDbLine
 62
250
  6
CONTINUOUS
 10
-41.6449189463
 20
14.252884
 11
-38.7458012474
 21
13.20444
  0
LINE
  5
5C6
100
AcDbEntity
  8
INCISIONI
100
AcDbLine
 62
250
  6
CONTINUOUS
 10
-35.6458012474
 20
12.7571428895
 11
-35.7814948692
 21
12.8928571105
  0
LINE
  5
5C7
100
AcDbEntity
  8
INCISIONI
100
AcDbLine
 62
250
  6
CONTINUOUS
 10
-35.6458012474
 20
14.114285779
 11
-35.7814948692
 21
14.25
  0
LINE
  5
5C8
100
AcDbEntity
  8
INCISIONI
100
AcDbLine
 62
250
  6
CONTINUOUS
 10
-38.7538028095
 20
-15.081013
 11
-41.6525726144
 21
-16.00026
  0
LINE
  5
5C9
100
AcDbEntity
  8
0
100
AcDbLine
 62
250
  6
CONTINUOUS
 10
-37.1455727901
 20
-14.2857142091
 11
-35.6458012474
 21
-13.8571428061
  0
LINE
  5
5CA
100
AcDbEntity
  8
INCISIONI
100
AcDbLine
 62
250
  6
CONTINUOUS
 10
-36.8670437732
 20
12.8476189613
 11
-37.2741246528
 21
12.8476189613
  0
LINE
  5
5CB
100
AcDbEntity
  8
INCISIONI
100
AcDbLine
 62
250
  6
CONTINUOUS
 10
-35.7814948692
 20
12.8928571105
 11
-36.4599629501
 21
12.8928571105
  0
LINE
  5
5CC
100
AcDbEntity
  8
0
100
AcDbLine
 62
250
  6
CONTINUOUS
 10
-41.6449189463
 20
12.911198
 11
-38.7458012474
 21
12.911198
  0
LINE
  5
5CD
100
AcDbEntity
  8
INCISIONI
100
AcDbLine
 62
250
  6
CONTINUOUS
 10
-36.8670437732
 20
14.2047620773
 11
-37.2741246528
 21
14.2047620773
  0
LINE
  5
5CE
100
AcDbEntity
  8
INCISIONI
100
AcDbLine
 62
250
  6
CONTINUOUS
 10
-35.7814948692
 20
14.25
 11
-36.4599629501
 21
14.25
  0
LINE
  5
5CF
100
AcDbEntity
  8
0
100
AcDbLine
 62
250
  6
CONTINUOUS
 10
-39.8420392464
 20
14.176491
 11
-41.0907637859
 21
14.606449
  0
LINE
  5
5D0
100
AcDbEntity
  8
0
100
AcDbLine
 62
250
  6
CONTINUOUS
 10
-38.7458012474
 20
13.798889
 11
-39.3604402474
 21
14.015846
  0
LINE
  5
5D1
100
AcDbEntity
  8
INCISIONI
100
AcDbLine
 62
250
  6
CONTINUOUS
 10
-35.6458012474
 20
15.335714221
 11
-35.9171884911
 21
15.607142663
  0
LINE
  5
5D2
100
AcDbEntity
  8
RACCORDO
100
AcDbLine
 62
250
  6
CONTINUOUS
 10
-22.7431832868
 20
-17.1
 11
-22.7431832868
 21
-12.9
  0
LINE
  5
5D3
100
AcDbEntity
  8
ASSI
100
AcDbLine
 62
250
  6
CONTINUOUS
 10
-22.7431832868
 20
-17.1
 11
-22.7431832868
 21
-12.9
  0
LINE
  5
5D4
100
AcDbEntity
  8
RACCORDO
100
AcDbLine
 62
250
  6
CONTINUOUS
 10
-22.7431832868
 20
-12.1
 11
-22.7431832868
 21
-7.9
  0
LINE
  5
5D5
100
AcDbEntity
  8
ASSI
100
AcDbLine
 62
250
  6
CONTINUOUS
 10
-22.7431832868
 20
-12.1
 11
-22.7431832868
 21
-7.9
  0
LINE
  5
5D6
100
AcDbEntity
  8
RACCORDO
100
AcDbLine
 62
250
  6
CONTINUOUS
 10
-22.7431832868
 20
-7.1
 11
-22.7431832868
 21
-2.9
  0
LINE
  5
5D7
100
AcDbEntity
  8
ASSI
100
AcDbLine
 62
250
  6
CONTINUOUS
 10
-22.7431832868
 20
-7.1
 11
-22.7431832868
 21
-2.9
  0
LINE
  5
5D8
100
AcDbEntity
  8
RACCORDO
100
AcDbLine
 62
250
  6
CONTINUOUS
 10
-22.7431832868
 20
-2.1
 11
-22.7431832868
 21
2.1
  0
LINE
  5
5D9
100
AcDbEntity
  8
ASSI
100
AcDbLine
 62
250
  6
CONTINUOUS
 10
-22.7431832868
 20
-2.1
 11
-22.7431832868
 21
2.1
  0
LINE
  5
5DA
100
AcDbEntity
  8
RACCORDO
100
AcDbLine
 62
250
  6
CONTINUOUS
 10
-22.7431832868
 20
2.9
 11
-22.7431832868
 21
7.1
  0
LINE
  5
5DB
100
AcDbEntity
  8
ASSI
100
AcDbLine
 62
250
  6
CONTINUOUS
 10
-22.7431832868
 20
2.9
 11
-22.7431832868
 21
7.1
  0
LINE
  5
5DC
100
AcDbEntity
  8
RACCORDO
100
AcDbLine
 62
250
  6
CONTINUOUS
 10
-22.7431832868
 20
7.9
 11
-22.7431832868
 21
12.1
  0
LINE
  5
5DD
100
AcDbEntity
  8
ASSI
100
AcDbLine
 62
250
  6
CONTINUOUS
 10
-22.7431832868
 20
7.9
 11
-22.7431832868
 21
12.1
  0
LINE
  5
5DE
100
AcDbEntity
  8
ASSI
100
AcDbLine
 62
7
  6
CONTINUOUS
 10
-22.4460676096
 20
12.1
 11
-22.4460676096
 21
7.9
  0
LINE
  5
5DF
100
AcDbEntity
  8
ASSI
100
AcDbLine
 62
7
  6
CONTINUOUS
 10
-22.4460676096
 20
7.1
 11
-22.4460676096
 21
2.9
  0
LINE
  5
5E0
100
AcDbEntity
  8
ASSI
100
AcDbLine
 62
7
  6
CONTINUOUS
 10
-22.4460676096
 20
2.1
 11
-22.4460676096
 21
-2.1
  0
LINE
  5
5E1
100
AcDbEntity
  8
ASSI
100
AcDbLine
 62
7
  6
CONTINUOUS
 10
-22.4460676096
 20
-2.9
 11
-22.4460676096
 21
-7.1
  0
LINE
  5
5E2
100
AcDbEntity
  8
ASSI
100
AcDbLine
 62
7
  6
CONTINUOUS
 10
-22.4460676096
 20
-7.9
 11
-22.4460676096
 21
-12.1
  0
LINE
  5
5E3
100
AcDbEntity
  8
ASSI
100
AcDbLine
 62
7
  6
CONTINUOUS
 10
-22.4460676096
 20
-12.9
 11
-22.4460676096
 21
-17.1
  0
LINE
  5
5E4
100
AcDbEntity
  8
RACCORDO
100
AcDbLine
 62
7
  6
CONTINUOUS
 10
-46.7458012474
 20
-23.1226497308
 11
-47.6208012474
 21
-23.6278312164
  0
LINE
  5
5E5
100
AcDbEntity
  8
RACCORDO
100
AcDbLine
 62
250
  6
CONTINUOUS
 10
-46.4972556802
 20
-23.2669872981
 11
-47.4972556802
 21
-23.8443375673
  0
LINE
  5
5E6
100
AcDbEntity
  8
0
100
AcDbLine
 62
250
  6
CONTINUOUS
 10
-37.1455727901
 20
-16.0
 11
-36.2885604864
 21
-15.5714285523
  0
LINE
  5
5E7
100
AcDbEntity
  8
INCISIONI
100
AcDbLine
 62
250
  6
CONTINUOUS
 10
-36.7313502221
 20
14.792857337
 11
-37.5455118682
 21
14.792857337
  0
LINE
  5
5E8
100
AcDbEntity
  8
INCISIONI
100
AcDbLine
 62
250
  6
CONTINUOUS
 10
-35.9171884911
 20
15.607142663
 11
-36.4599629501
 21
15.607142663
  0
LINE
  5
5E9
100
AcDbEntity
  8
RACCORDO
100
AcDbLine
 62
7
  6
CONTINUOUS
 10
-47.6208012474
 20
23.6278312164
 11
-46.7458012474
 21
23.1226497308
  0
LINE
  5
5EA
100
AcDbEntity
  8
RACCORDO
100
AcDbLine
 62
250
  6
CONTINUOUS
 10
-47.4972556802
 20
23.8443375673
 11
-46.4972556802
 21
23.2669872981
  0
LWPOLYLINE
  5
5EB
100
AcDbEntity
  8
RACCORDO
100
AcDbPolyline
 62
7
  6
CONTINUOUS
 90
4
 70
0
 10
-44.2458012474
 20
23.7
 10
-44.2461407518
 20
23.7002535774
 10
-44.2471521223
 20
23.7008789762
 10
-44.2540952453
 20
23.7050113484
  0
LWPOLYLINE
  5
5EC
100
AcDbEntity
  8
RACCORDO
100
AcDbPolyline
 62
250
  6
CONTINUOUS
 90
8
 70
0
 10
-20.8458012474
 20
18.2166171594
 10
-20.8461725501
 20
18.2358845881
 10
-20.8472861826
 20
18.2551377087
 10
-20.8491413179
 20
18.2743622237
 10
-20.8517365783
 20
18.2935438569
 10
-20.8550700365
 20
18.312668364
 10
-20.8591392172
 20
18.3317215429
 10
-20.8639410985
 20
18.3506892446
  0
LWPOLYLINE
  5
5ED
100
AcDbEntity
  8
ASSI
100
AcDbPolyline
 62
250
  6
CONTINUOUS
 90
6
 70
0
 10
-20.8458012474
 20
18.2166171594
 10
-20.8461725501
 20
18.2358845881
 10
-20.8472861826
 20
18.2551377087
 10
-20.8491413179
 20
18.2743622237
 10
-20.8517365783
 20
18.2935438569
 10
-20.8550700365
 20
18.312668364
  0
LWPOLYLINE
  5
5EE
100
AcDbEntity
  8
RACCORDO
100
AcDbPolyline
 62
250
  6
CONTINUOUS
 90
58
 70
0
 10
-20.8458012474
 20
18.3943840357
 10
-20.8461725502
 20
18.4136514657
 10
-20.8472861828
 20
18.4329045875
 10
-20.8491413183
 20
18.4521291038
 10
-20.8517365788
 20
18.471310737
 10
-20.8550700372
 20
18.490435244
 10
-20.8591392189
 20
18.5094884266
 10
-20.8639411033
 20
18.5284561384
 10
-20.8694721244
 20
18.5473242912
 10
-20.8757281737
 20
18.5660788691
 10
-20.8827046048
 20
18.5847059433
 10
-20.8903962374
 20
18.6031916827
 10
-20.8987973599
 20
18.6215223605
 10
-20.9079017339
 20
18.6396843644
 10
-20.9177025981
 20
18.6576642069
 10
-20.9281926742
 20
18.6754485358
 10
-20.9393641722
 20
18.6930241442
 10
-20.9512087961
 20
18.7103779804
 10
-20.9637177501
 20
18.7274971574
 10
-20.9768817449
 20
18.7443689626
 10
-20.9906910048
 20
18.7609808667
 10
-21.0051352751
 20
18.7773205337
 10
-21.0202038293
 20
18.7933758296
 10
-21.0358854774
 20
18.8091348316
 10
-21.0521685741
 20
18.8245858372
 10
-21.0690410277
 20
18.8397173721
 10
-21.0864903084
 20
18.8545181998
 10
-21.1045034584
 20
18.8689773289
 10
-21.123067101
 20
18.8830840222
 10
-21.1421674508
 20
18.8968278038
 10
-21.1617903238
 20
18.9101984676
 10
-21.181921148
 20
18.9231860845
 10
-21.2025449741
 20
18.9357810097
 10
-21.2236464868
 20
18.9479738902
 10
-21.2452100162
 20
18.9597556715
 10
-21.267219549
 20
18.9711176043
 10
-21.2896587406
 20
18.9820512511
 10
-21.3125109278
 20
18.9925484926
 10
-21.3357591402
 20
19.0026015334
 10
-21.3593861134
 20
19.0122029078
 10
-21.3833743018
 20
19.0213454859
 10
-21.4077058916
 20
19.0300224782
 10
-21.4323628139
 20
19.0382274412
 10
-21.4573267583
 20
19.0459542819
 10
-21.4825791865
 20
19.0531972621
 10
-21.5081013457
 20
19.0599510032
 10
-21.5338742843
 20
19.0662104901
 10
-21.5598788619
 20
19.0719710742
 10
-21.5860957641
 20
19.077228477
 10
-21.6125055195
 20
19.081978794
 10
-21.6390885184
 20
19.0862184985
 10
-21.6658250235
 20
19.0899444424
 10
-21.6926952129
 20
19.0931538627
 10
-21.7196791001
 20
19.095844371
 10
-21.7467565504
 20
19.0980139626
 10
-21.7739074231
 20
19.0996610302
 10
-21.8011115873
 20
19.1007843593
 10
-21.828348841
 20
19.1013831211
  0
LWPOLYLINE
  5
5EF
100
AcDbEntity
  8
ASSI
100
AcDbPolyline
 62
250
  6
CONTINUOUS
 90
58
 70
0
 10
-20.8458012474
 20
18.3943840357
 10
-20.8461725502
 20
18.4136514657
 10
-20.8472861828
 20
18.4329045875
 10
-20.8491413183
 20
18.4521291038
 10
-20.8517365788
 20
18.471310737
 10
-20.8550700372
 20
18.490435244
 10
-20.8591392189
 20
18.5094884266
 10
-20.8639411033
 20
18.5284561384
 10
-20.8694721244
 20
18.5473242912
 10
-20.8757281737
 20
18.5660788691
 10
-20.8827046048
 20
18.5847059433
 10
-20.8903962374
 20
18.6031916827
 10
-20.8987973599
 20
18.6215223605
 10
-20.9079017339
 20
18.6396843644
 10
-20.9177025981
 20
18.6576642069
 10
-20.9281926742
 20
18.6754485358
 10
-20.9393641722
 20
18.6930241442
 10
-20.9512087961
 20
18.7103779804
 10
-20.9637177501
 20
18.7274971574
 10
-20.9768817449
 20
18.7443689626
 10
-20.9906910048
 20
18.7609808667
 10
-21.0051352751
 20
18.7773205337
 10
-21.0202038293
 20
18.7933758296
 10
-21.0358854774
 20
18.8091348316
 10
-21.0521685741
 20
18.8245858372
 10
-21.0690410277
 20
18.8397173721
 10
-21.0864903084
 20
18.8545181998
 10
-21.1045034584
 20
18.8689773289
 10
-21.123067101
 20
18.8830840222
 10
-21.1421674508
 20
18.8968278038
 10
-21.1617903238
 20
18.9101984676
 10
-21.181921148
 20
18.9231860845
 10
-21.2025449741
 20
18.9357810097
 10
-21.2236464868
 20
18.9479738902
 10
-21.2452100162
 20
18.9597556715
 10
-21.267219549
 20
18.9711176043
 10
-21.2896587406
 20
18.9820512511
 10
-21.3125109278
 20
18.9925484926
 10
-21.3357591402
 20
19.0026015334
 10
-21.3593861134
 20
19.0122029078
 10
-21.3833743018
 20
19.0213454859
 10
-21.4077058916
 20
19.0300224782
 10
-21.4323628139
 20
19.0382274412
 10
-21.4573267583
 20
19.0459542819
 10
-21.4825791865
 20
19.0531972621
 10
-21.5081013457
 20
19.0599510032
 10
-21.5338742843
 20
19.0662104901
 10
-21.5598788619
 20
19.0719710742
 10
-21.5860957641
 20
19.077228477
 10
-21.6125055195
 20
19.081978794
 10
-21.6390885184
 20
19.0862184985
 10
-21.6658250235
 20
19.0899444424
 10
-21.6926952129
 20
19.0931538627
 10
-21.7196791001
 20
19.095844371
 10
-21.7467565504
 20
19.0980139626
 10
-21.7739074231
 20
19.0996610302
 10
-21.8011115873
 20
19.1007843593
 10
-21.828348841
 20
19.1013831211
  0
LINE
  5
5F0
100
AcDbEntity
  8
RACCORDO
100
AcDbLine
 62
250
  6
CONTINUOUS
 10
-21.8272276034
 20
19.3723634275
 11
-21.8270729459
 21
19.3601409819
  0
LINE
  5
5F1
100
AcDbEntity
  8
ASSI
100
AcDbLine
 62
250
  6
CONTINUOUS
 10
-21.8272276034
 20
19.3723634275
 11
-21.8270729459
 21
19.3601409819
  0
LINE
  5
5F2
100
AcDbEntity
  8
RACCORDO
100
AcDbLine
 62
250
  6
CONTINUOUS
 10
-21.828348841
 20
-19.1013831211
 11
-21.8274331537
 21
-19.2032629843
  0
LINE
  5
5F3
100
AcDbEntity
  8
ASSI
100
AcDbLine
 62
250
  6
CONTINUOUS
 10
-21.828348841
 20
-19.1013831211
 11
-21.8274331537
 21
-19.2032629843
  0
LINE
  5
5F4
100
AcDbEntity
  8
RACCORDO
100
AcDbLine
 62
250
  6
CONTINUOUS
 10
-21.8270729459
 20
19.3601409819
 11
-21.8269372719
 21
19.3368580977
  0
LINE
  5
5F5
100
AcDbEntity
  8
ASSI
100
AcDbLine
 62
250
  6
CONTINUOUS
 10
-21.8270729459
 20
19.3601409819
 11
-21.8269372719
 21
19.3368580977
  0
LINE
  5
5F6
100
AcDbEntity
  8
RACCORDO
100
AcDbLine
 62
250
  6
CONTINUOUS
 10
-21.8274331537
 20
-19.2032629843
 11
-21.8269696048
 21
-19.2852319488
  0
LINE
  5
5F7
100
AcDbEntity
  8
ASSI
100
AcDbLine
 62
250
  6
CONTINUOUS
 10
-21.8274331537
 20
-19.2032629843
 11
-21.8269696048
 21
-19.2852319488
  0
LINE
  5
5F8
100
AcDbEntity
  8
RACCORDO
100
AcDbLine
 62
250
  6
CONTINUOUS
 10
-21.8283488523
 20
18.9236182983
 11
-21.8276658107
 21
18.7612671031
  0
LINE
  5
5F9
100
AcDbEntity
  8
ASSI
100
AcDbLine
 62
250
  6
CONTINUOUS
 10
-21.8283488523
 20
18.9236182983
 11
-21.8276658107
 21
18.7612671031
  0
LINE
  5
5FA
100
AcDbEntity
  8
RACCORDO
100
AcDbLine
 62
250
  6
CONTINUOUS
 10
-21.8283488501
 20
-17.5096157267
 11
-21.8275548364
 21
-17.7706283986
  0
LINE
  5
5FB
100
AcDbEntity
  8
ASSI
100
AcDbLine
 62
250
  6
CONTINUOUS
 10
-21.8283488501
 20
-17.5096157267
 11
-21.8275548364
 21
-17.7706283986
  0
LINE
  5
5FC
100
AcDbEntity
  8
RACCORDO
100
AcDbLine
 62
250
  6
CONTINUOUS
 10
-21.8276658107
 20
18.7612671031
 11
-21.8271311729
 21
18.5469958612
  0
LINE
  5
5FD
100
AcDbEntity
  8
ASSI
100
AcDbLine
 62
250
  6
CONTINUOUS
 10
-21.8276658107
 20
18.7612671031
 11
-21.8271311729
 21
18.5469958612
  0
LINE
  5
5FE
100
AcDbEntity
  8
RACCORDO
100
AcDbLine
 62
250
  6
CONTINUOUS
 10
-21.8275548364
 20
-17.7706283986
 11
-21.8270729446
 21
-18.0271712123
  0
LINE
  5
5FF
100
AcDbEntity
  8
ASSI
100
AcDbLine
 62
250
  6
CONTINUOUS
 10
-21.8275548364
 20
-17.7706283986
 11
-21.8270729446
 21
-18.0271712123
  0
LINE
  5
600
100
AcDbEntity
  8
RACCORDO
100
AcDbLine
 62
250
  6
CONTINUOUS
 10
-21.8271311729
 20
18.5469958612
 11
-21.8269158811
 21
18.3149788108
  0
LINE
  5
601
100
AcDbEntity
  8
ASSI
100
AcDbLine
 62
250
  6
CONTINUOUS
 10
-21.8271311729
 20
18.5469958612
 11
-21.8269158811
 21
18.3149788108
  0
LINE
  5
602
100
AcDbEntity
  8
RACCORDO
100
AcDbLine
 62
250
  6
CONTINUOUS
 10
-21.8270729446
 20
-18.0271712123
 11
-21.8269113924
 21
-18.2748587728
  0
LINE
  5
603
100
AcDbEntity
  8
ASSI
100
AcDbLine
 62
250
  6
CONTINUOUS
 10
-21.8270729446
 20
-18.0271712123
 11
-21.8269113924
 21
-18.2748587728
  0
LINE
  5
604
100
AcDbEntity
  8
RACCORDO
100
AcDbLine
 62
250
  6
CONTINUOUS
 10
-21.828348841
 20
19.1013831211
 11
-21.828348841
 21
18.9236182982
  0
LINE
  5
605
100
AcDbEntity
  8
ASSI
100
AcDbLine
 62
250
  6
CONTINUOUS
 10
-21.828348841
 20
19.1013831211
 11
-21.828348841
 21
18.9236182982
  0
LINE
  5
606
100
AcDbEntity
  8
ASSI
100
AcDbLine
 62
250
  6
CONTINUOUS
 10
-21.828348841
 20
17.5096157267
 11
-21.828348841
 21
12.1
  0
LINE
  5
607
100
AcDbEntity
  8
ASSI
100
AcDbLine
 62
250
  6
CONTINUOUS
 10
-21.828348841
 20
7.9
 11
-21.828348841
 21
7.1
  0
LINE
  5
608
100
AcDbEntity
  8
ASSI
100
AcDbLine
 62
250
  6
CONTINUOUS
 10
-21.828348841
 20
2.9
 11
-21.828348841
 21
2.1
  0
LINE
  5
609
100
AcDbEntity
  8
ASSI
100
AcDbLine
 62
250
  6
CONTINUOUS
 10
-21.828348841
 20
-2.1
 11
-21.828348841
 21
-2.9
  0
LINE
  5
60A
100
AcDbEntity
  8
ASSI
100
AcDbLine
 62
250
  6
CONTINUOUS
 10
-21.828348841
 20
-7.1
 11
-21.828348841
 21
-7.9
  0
LINE
  5
60B
100
AcDbEntity
  8
ASSI
100
AcDbLine
 62
250
  6
CONTINUOUS
 10
-21.828348841
 20
-12.1
 11
-21.828348841
 21
-12.9
  0
LINE
  5
60C
100
AcDbEntity
  8
ASSI
100
AcDbLine
 62
250
  6
CONTINUOUS
 10
-21.828348841
 20
-17.1
 11
-21.828348841
 21
-17.5096157267
  0
LINE
  5
60D
100
AcDbEntity
  8
RACCORDO
100
AcDbLine
 62
250
  6
CONTINUOUS
 10
-21.828348841
 20
-18.9236182982
 11
-21.828348841
 21
-19.1013831211
  0
LINE
  5
60E
100
AcDbEntity
  8
ASSI
100
AcDbLine
 62
250
  6
CONTINUOUS
 10
-21.828348841
 20
-18.9236182982
 11
-21.828348841
 21
-19.1013831211
  0
LINE
  5
60F
100
AcDbEntity
  8
INTF_1
100
AcDbLine
 62
7
  6
CONTINUOUS
 10
-20.8458012474
 20
17.80013
 11
-20.8458012474
 21
17.509618074
  0
LINE
  5
610
100
AcDbEntity
  8
0
100
AcDbLine
 62
250
  6
CONTINUOUS
 10
-20.8458012474
 20
17.80013
 11
-20.8458012474
 21
17.509618074
  0
LINE
  5
611
100
AcDbEntity
  8
RACCORDO
100
AcDbLine
 62
7
  6
CONTINUOUS
 10
-20.8458012474
 20
18.3943840357
 11
-20.8458012474
 21
17.509618074
  0
LINE
  5
612
100
AcDbEntity
  8
RACCORDO
100
AcDbLine
 62
7
  6
CONTINUOUS
 10
-20.8458012474
 20
7.9
 11
-20.8458012474
 21
7.1
  0
LINE
  5
613
100
AcDbEntity
  8
RACCORDO
100
AcDbLine
 62
7
  6
CONTINUOUS
 10
-20.8458012474
 20
2.9
 11
-20.8458012474
 21
2.1
  0
LINE
  5
614
100
AcDbEntity
  8
RACCORDO
100
AcDbLine
 62
7
  6
CONTINUOUS
 10
-20.8458012474
 20
-2.1
 11
-20.8458012474
 21
-2.9
  0
LINE
  5
615
100
AcDbEntity
  8
RACCORDO
100
AcDbLine
 62
7
  6
CONTINUOUS
 10
-20.8458012474
 20
-7.1
 11
-20.8458012474
 21
-7.9
  0
LINE
  5
616
100
AcDbEntity
  8
RACCORDO
100
AcDbLine
 62
7
  6
CONTINUOUS
 10
-20.8458012474
 20
-12.1
 11
-20.8458012474
 21
-12.9
  0
LINE
  5
617
100
AcDbEntity
  8
RACCORDO
100
AcDbLine
 62
7
  6
CONTINUOUS
 10
-20.8458012474
 20
-17.509618074
 11
-20.8458012474
 21
-18.3943840357
  0
LINE
  5
618
100
AcDbEntity
  8
ASSI
100
AcDbLine
 62
7
  6
CONTINUOUS
 10
-20.8458012474
 20
-18.3943840357
 11
-20.8458012474
 21
18.3943840357
  0
LINE
  5
619
100
AcDbEntity
  8
RACCORDO
100
AcDbLine
 62
250
  6
CONTINUOUS
 10
-21.8269696048
 20
-19.2852319488
 11
-21.8269178634
 21
-19.3277981644
  0
LINE
  5
61A
100
AcDbEntity
  8
ASSI
100
AcDbLine
 62
250
  6
CONTINUOUS
 10
-21.8269696048
 20
-19.2852319488
 11
-21.8269178634
 21
-19.3277981644
  0
LINE
  5
61B
100
AcDbEntity
  8
RACCORDO
100
AcDbLine
 62
250
  6
CONTINUOUS
 10
-21.8269158811
 20
18.3149788108
 11
-21.8270236169
 21
18.0691840479
  0
LINE
  5
61C
100
AcDbEntity
  8
ASSI
100
AcDbLine
 62
250
  6
CONTINUOUS
 10
-21.8269158811
 20
18.3149788108
 11
-21.8270236169
 21
18.0691840479
  0
LINE
  5
61D
100
AcDbEntity
  8
RACCORDO
100
AcDbLine
 62
250
  6
CONTINUOUS
 10
-21.8269113924
 20
-18.2748587728
 11
-21.827072944
 21
-18.5094549604
  0
LINE
  5
61E
100
AcDbEntity
  8
ASSI
100
AcDbLine
 62
250
  6
CONTINUOUS
 10
-21.8269113924
 20
-18.2748587728
 11
-21.827072944
 21
-18.5094549604
  0
LINE
  5
61F
100
AcDbEntity
  8
RACCORDO
100
AcDbLine
 62
250
  6
CONTINUOUS
 10
-21.8269372719
 20
19.3368580977
 11
-21.8269372719
 21
19.29680832
  0
LINE
  5
620
100
AcDbEntity
  8
ASSI
100
AcDbLine
 62
250
  6
CONTINUOUS
 10
-21.8269372719
 20
19.3368580977
 11
-21.8269372719
 21
19.29680832
  0
LINE
  5
621
100
AcDbEntity
  8
RACCORDO
100
AcDbLine
 62
250
  6
CONTINUOUS
 10
-21.8270236169
 20
18.0691840479
 11
-21.8274525359
 21
17.8138156443
  0
LINE
  5
622
100
AcDbEntity
  8
ASSI
100
AcDbLine
 62
250
  6
CONTINUOUS
 10
-21.8270236169
 20
18.0691840479
 11
-21.8274525359
 21
17.8138156443
  0
LINE
  5
623
100
AcDbEntity
  8
RACCORDO
100
AcDbLine
 62
250
  6
CONTINUOUS
 10
-21.827072944
 20
-18.5094549604
 11
-21.8275548355
 21
-18.7269474652
  0
LINE
  5
624
100
AcDbEntity
  8
ASSI
100
AcDbLine
 62
250
  6
CONTINUOUS
 10
-21.827072944
 20
-18.5094549604
 11
-21.8275548355
 21
-18.7269474652
  0
LWPOLYLINE
  5
625
100
AcDbEntity
  8
RACCORDO
100
AcDbPolyline
 62
250
  6
CONTINUOUS
 90
3
 70
0
 10
-21.8274525359
 20
17.8138156443
 10
-21.8281954607
 20
17.5532398869
 10
-21.8283488501
 20
17.5096157267
  0
LWPOLYLINE
  5
626
100
AcDbEntity
  8
ASSI
100
AcDbPolyline
 62
250
  6
CONTINUOUS
 90
3
 70
0
 10
-21.8274525359
 20
17.8138156443
 10
-21.8281954607
 20
17.5532398869
 10
-21.8283488501
 20
17.5096157267
  0
LWPOLYLINE
  5
627
100
AcDbEntity
  8
RACCORDO
100
AcDbPolyline
 62
250
  6
CONTINUOUS
 90
3
 70
0
 10
-21.8275548355
 20
-18.7269474652
 10
-21.8281954611
 20
-18.8924328271
 10
-21.8283488523
 20
-18.9236182983
  0
LWPOLYLINE
  5
628
100
AcDbEntity
  8
ASSI
100
AcDbPolyline
 62
250
  6
CONTINUOUS
 90
3
 70
0
 10
-21.8275548355
 20
-18.7269474652
 10
-21.8281954611
 20
-18.8924328271
 10
-21.8283488523
 20
-18.9236182983
  0
LINE
  5
629
100
AcDbEntity
  8
RACCORDO
100
AcDbLine
 62
250
  6
CONTINUOUS
 10
-21.8269178634
 20
-19.3277981644
 11
-21.8270148398
 21
-19.3530350481
  0
LINE
  5
62A
100
AcDbEntity
  8
ASSI
100
AcDbLine
 62
250
  6
CONTINUOUS
 10
-21.8269178634
 20
-19.3277981644
 11
-21.8270148398
 21
-19.3530350481
  0
LINE
  5
62B
100
AcDbEntity
  8
RACCORDO
100
AcDbLine
 62
250
  6
CONTINUOUS
 10
-21.8269372719
 20
19.29680832
 11
-21.8273240489
 21
19.2183680351
  0
LINE
  5
62C
100
AcDbEntity
  8
ASSI
100
AcDbLine
 62
250
  6
CONTINUOUS
 10
-21.8269372719
 20
19.29680832
 11
-21.8273240489
 21
19.2183680351
  0
LWPOLYLINE
  5
62D
100
AcDbEntity
  8
RACCORDO
100
AcDbPolyline
 62
250
  6
CONTINUOUS
 90
3
 70
0
 10
-21.8273240489
 20
19.2183680351
 10
-21.8281656499
 20
19.1196450344
 10
-21.828348841
 20
19.1013831211
  0
LWPOLYLINE
  5
62E
100
AcDbEntity
  8
ASSI
100
AcDbPolyline
 62
250
  6
CONTINUOUS
 90
3
 70
0
 10
-21.8273240489
 20
19.2183680351
 10
-21.8281656499
 20
19.1196450344
 10
-21.828348841
 20
19.1013831211
  0
LWPOLYLINE
  5
62F
100
AcDbEntity
  8
RACCORDO
100
AcDbPolyline
 62
250
  6
CONTINUOUS
 90
11
 70
0
 10
-21.8270148398
 20
-19.3530350481
 10
-21.8271438833
 20
-19.3665852467
 10
-21.8272276034
 20
-19.3723634275
 10
-21.8273240489
 20
-19.3774715653
 10
-21.8274331537
 20
-19.3819061605
 10
-21.827554843
 20
-19.3856641748
 10
-21.8276890334
 20
-19.3887430334
 10
-21.8278356331
 20
-19.391140627
 10
-21.8279945416
 20
-19.3928553128
 10
-21.8281656499
 20
-19.3938859161
 10
-21.828348841
 20
-19.3942317309
  0
LWPOLYLINE
  5
630
100
AcDbEntity
  8
ASSI
100
AcDbPolyline
 62
250
  6
CONTINUOUS
 90
11
 70
0
 10
-21.8270148398
 20
-19.3530350481
 10
-21.8271438833
 20
-19.3665852467
 10
-21.8272276034
 20
-19.3723634275
 10
-21.8273240489
 20
-19.3774715653
 10
-21.8274331537
 20
-19.3819061605
 10
-21.827554843
 20
-19.3856641748
 10
-21.8276890334
 20
-19.3887430334
 10
-21.8278356331
 20
-19.391140627
 10
-21.8279945416
 20
-19.3928553128
 10
-21.8281656499
 20
-19.3938859161
 10
-21.828348841
 20
-19.3942317309
  0
LWPOLYLINE
  5
631
100
AcDbEntity
  8
RACCORDO
100
AcDbPolyline
 62
250
  6
CONTINUOUS
 90
8
 70
0
 10
-20.8458012474
 20
-18.2166171594
 10
-20.8461725501
 20
-18.2358845883
 10
-20.8472861827
 20
-18.2551377091
 10
-20.849141318
 20
-18.2743622243
 10
-20.8517365784
 20
-18.2935438577
 10
-20.8550700367
 20
-18.3126683649
 10
-20.8591392175
 20
-18.331721544
 10
-20.8639410989
 20
-18.3506892459
  0
LWPOLYLINE
  5
632
100
AcDbEntity
  8
ASSI
100
AcDbPolyline
 62
250
  6
CONTINUOUS
 90
58
 70
0
 10
-20.8458012474
 20
-18.2166171594
 10
-20.8461725501
 20
-18.2358845883
 10
-20.8472861827
 20
-18.2551377091
 10
-20.849141318
 20
-18.2743622243
 10
-20.8517365784
 20
-18.2935438577
 10
-20.8550700367
 20
-18.3126683649
 10
-20.8591392175
 20
-18.331721544
 10
-20.8639410989
 20
-18.3506892459
 10
-20.869472115
 20
-18.3695573851
 10
-20.8757281586
 20
-18.3883119501
 10
-20.8827045837
 20
-18.4069390136
 10
-20.8903962097
 20
-18.4254247431
 10
-20.8987973248
 20
-18.4437554108
 10
-20.9079016901
 20
-18.4619174045
 10
-20.9177025449
 20
-18.4798972369
 10
-20.9281926108
 20
-18.497681556
 10
-20.9393640979
 20
-18.5152571551
 10
-20.9512087103
 20
-18.5326109826
 10
-20.963717652
 20
-18.5497301513
 10
-20.9768816338
 20
-18.5666019485
 10
-20.9906908801
 20
-18.583213845
 10
-21.0051351361
 20
-18.5995535048
 10
-21.0202036753
 20
-18.615608794
 10
-21.0358853078
 20
-18.6313677898
 10
-21.0521683884
 20
-18.6468187896
 10
-21.0690408251
 20
-18.6619503192
 10
-21.0864900883
 20
-18.6767511419
 10
-21.1045032202
 20
-18.6912102667
 10
-21.1230668441
 20
-18.705316956
 10
-21.1421671745
 20
-18.7190607341
 10
-21.1617900274
 20
-18.7324313949
 10
-21.1819208309
 20
-18.7454190092
 10
-21.2025446355
 20
-18.7580139323
 10
-21.2236461261
 20
-18.7702068112
 10
-21.2452096325
 20
-18.7819885914
 10
-21.2672191415
 20
-18.7933505236
 10
-21.2896583088
 20
-18.8042841705
 10
-21.3125104709
 20
-18.8147814127
 10
-21.3357586576
 20
-18.8248344547
 10
-21.3593856048
 20
-18.8344358313
 10
-21.3833737669
 20
-18.8435784123
 10
-21.4077053302
 20
-18.8522554085
 10
-21.4323622259
 20
-18.8604603762
 10
-21.4573261437
 20
-18.8681872224
 10
-21.4825785453
 20
-18.875430209
 10
-21.508100678
 20
-18.8821839575
 10
-21.5338735891
 20
-18.8884434525
 10
-21.5598781393
 20
-18.8942040455
 10
-21.5860950176
 20
-18.8994614587
 10
-21.6125047552
 20
-18.9042117881
 10
-21.63908774
 20
-18.9084515059
 10
-21.6658242315
 20
-18.9121774637
 10
-21.6926943748
 20
-18.9153868946
 10
-21.7196782161
 20
-18.9180774153
 10
-21.7467557172
 20
-18.9202470277
 10
-21.7739067699
 20
-18.9218941207
 10
-21.8011112119
 20
-18.9230174711
 10
-21.828348841
 20
-18.9236162448
  0
LWPOLYLINE
  5
633
100
AcDbEntity
  8
RACCORDO
100
AcDbPolyline
 62
250
  6
CONTINUOUS
 90
58
 70
0
 10
-20.8458012474
 20
-18.3943840357
 10
-20.8461725502
 20
-18.4136514656
 10
-20.8472861828
 20
-18.4329045874
 10
-20.8491413183
 20
-18.4521291037
 10
-20.8517365788
 20
-18.4713107368
 10
-20.8550700372
 20
-18.4904352438
 10
-20.8591392189
 20
-18.5094884264
 10
-20.8639411032
 20
-18.5284561382
 10
-20.8694721243
 20
-18.5473242909
 10
-20.8757281736
 20
-18.5660788688
 10
-20.8827046047
 20
-18.584705943
 10
-20.8903962373
 20
-18.6031916825
 10
-20.8987973599
 20
-18.6215223604
 10
-20.9079017338
 20
-18.6396843644
 10
-20.9177025981
 20
-18.657664207
 10
-20.9281926743
 20
-18.6754485359
 10
-20.9393641723
 20
-18.6930241443
 10
-20.9512087963
 20
-18.7103779806
 10
-20.9637177502
 20
-18.7274971577
 10
-20.9768817451
 20
-18.7443689629
 10
-20.9906910051
 20
-18.760980867
 10
-21.0051352754
 20
-18.777320534
 10
-21.0202038296
 20
-18.7933758299
 10
-21.0358854777
 20
-18.809134832
 10
-21.0521685745
 20
-18.8245858375
 10
-21.069041028
 20
-18.8397173724
 10
-21.0864903087
 20
-18.8545182001
 10
-21.1045034587
 20
-18.8689773292
 10
-21.1230671013
 20
-18.8830840224
 10
-21.1421674511
 20
-18.896827804
 10
-21.161790324
 20
-18.9101984678
 10
-21.1819211482
 20
-18.9231860846
 10
-21.2025449742
 20
-18.9357810097
 10
-21.2236464869
 20
-18.9479738902
 10
-21.2452100162
 20
-18.9597556714
 10
-21.2672195488
 20
-18.9711176042
 10
-21.2896587404
 20
-18.982051251
 10
-21.3125109275
 20
-18.9925484925
 10
-21.3357591399
 20
-19.0026015332
 10
-21.3593861131
 20
-19.0122029077
 10
-21.3833743015
 20
-19.0213454858
 10
-21.4077058913
 20
-19.0300224781
 10
-21.4323628137
 20
-19.0382274412
 10
-21.4573267582
 20
-19.0459542818
 10
-21.4825791865
 20
-19.0531972621
 10
-21.5081013459
 20
-19.0599510032
 10
-21.5338742845
 20
-19.0662104902
 10
-21.5598788623
 20
-19.0719710743
 10
-21.5860957645
 20
-19.0772284771
 10
-21.61250552
 20
-19.0819787941
 10
-21.6390885188
 20
-19.0862184985
 10
-21.6658250238
 20
-19.0899444425
 10
-21.6926952131
 20
-19.0931538627
 10
-21.7196791003
 20
-19.095844371
 10
-21.7467565505
 20
-19.0980139626
 10
-21.7739074232
 20
-19.0996610302
 10
-21.8011115873
 20
-19.1007843593
 10
-21.828348841
 20
-19.1013831211
  0
LWPOLYLINE
  5
634
100
AcDbEntity
  8
ASSI
100
AcDbPolyline
 62
250
  6
CONTINUOUS
 90
58
 70
0
 10
-20.8458012474
 20
-18.3943840357
 10
-20.8461725502
 20
-18.4136514656
 10
-20.8472861828
 20
-18.4329045874
 10
-20.8491413183
 20
-18.4521291037
 10
-20.8517365788
 20
-18.4713107368
 10
-20.8550700372
 20
-18.4904352438
 10
-20.8591392189
 20
-18.5094884264
 10
-20.8639411032
 20
-18.5284561382
 10
-20.8694721243
 20
-18.5473242909
 10
-20.8757281736
 20
-18.5660788688
 10
-20.8827046047
 20
-18.584705943
 10
-20.8903962373
 20
-18.6031916825
 10
-20.8987973599
 20
-18.6215223604
 10
-20.9079017338
 20
-18.6396843644
 10
-20.9177025981
 20
-18.657664207
 10
-20.9281926743
 20
-18.6754485359
 10
-20.9393641723
 20
-18.6930241443
 10
-20.9512087963
 20
-18.7103779806
 10
-20.9637177502
 20
-18.7274971577
 10
-20.9768817451
 20
-18.7443689629
 10
-20.9906910051
 20
-18.760980867
 10
-21.0051352754
 20
-18.777320534
 10
-21.0202038296
 20
-18.7933758299
 10
-21.0358854777
 20
-18.809134832
 10
-21.0521685745
 20
-18.8245858375
 10
-21.069041028
 20
-18.8397173724
 10
-21.0864903087
 20
-18.8545182001
 10
-21.1045034587
 20
-18.8689773292
 10
-21.1230671013
 20
-18.8830840224
 10
-21.1421674511
 20
-18.896827804
 10
-21.161790324
 20
-18.9101984678
 10
-21.1819211482
 20
-18.9231860846
 10
-21.2025449742
 20
-18.9357810097
 10
-21.2236464869
 20
-18.9479738902
 10
-21.2452100162
 20
-18.9597556714
 10
-21.2672195488
 20
-18.9711176042
 10
-21.2896587404
 20
-18.982051251
 10
-21.3125109275
 20
-18.9925484925
 10
-21.3357591399
 20
-19.0026015332
 10
-21.3593861131
 20
-19.0122029077
 10
-21.3833743015
 20
-19.0213454858
 10
-21.4077058913
 20
-19.0300224781
 10
-21.4323628137
 20
-19.0382274412
 10
-21.4573267582
 20
-19.0459542818
 10
-21.4825791865
 20
-19.0531972621
 10
-21.5081013459
 20
-19.0599510032
 10
-21.5338742845
 20
-19.0662104902
 10
-21.5598788623
 20
-19.0719710743
 10
-21.5860957645
 20
-19.0772284771
 10
-21.61250552
 20
-19.0819787941
 10
-21.6390885188
 20
-19.0862184985
 10
-21.6658250238
 20
-19.0899444425
 10
-21.6926952131
 20
-19.0931538627
 10
-21.7196791003
 20
-19.095844371
 10
-21.7467565505
 20
-19.0980139626
 10
-21.7739074232
 20
-19.0996610302
 10
-21.8011115873
 20
-19.1007843593
 10
-21.828348841
 20
-19.1013831211
  0
LINE
  5
635
100
AcDbEntity
  8
RACCORDO
100
AcDbLine
 62
250
  6
CONTINUOUS
 10
-20.8458012474
 20
17.509618074
 11
-21.828348841
 21
17.509618074
  0
LINE
  5
636
100
AcDbEntity
  8
ASSI
100
AcDbLine
 62
250
  6
CONTINUOUS
 10
-20.8458012474
 20
17.509618074
 11
-21.828348841
 21
17.509618074
  0
LINE
  5
637
100
AcDbEntity
  8
RACCORDO
100
AcDbLine
 62
250
  6
CONTINUOUS
 10
-21.828348841
 20
17.5096157267
 11
-44.2458012474
 21
17.6716990487
  0
LINE
  5
638
100
AcDbEntity
  8
ASSI
100
AcDbLine
 62
250
  6
CONTINUOUS
 10
-21.828348841
 20
17.5096157267
 11
-44.2458012474
 21
17.6716990487
  0
LINE
  5
639
100
AcDbEntity
  8
RACCORDO
100
AcDbLine
 62
7
  6
CONTINUOUS
 10
-44.2836543011
 20
23.7223048703
 11
-44.4943468146
 21
23.8443375673
  0
LINE
  5
63A
100
AcDbEntity
  8
RACCORDO
100
AcDbLine
 62
7
  6
CONTINUOUS
 10
-44.2540952453
 20
23.7050113484
 11
-44.2836543011
 21
23.7223048703
  0
LINE
  5
63B
100
AcDbEntity
  8
RACCORDO
100
AcDbLine
 62
250
  6
CONTINUOUS
 10
-21.828348841
 20
18.9236182982
 11
-44.2458012474
 21
19.0856972195
  0
LINE
  5
63C
100
AcDbEntity
  8
ASSI
100
AcDbLine
 62
250
  6
CONTINUOUS
 10
-21.828348841
 20
18.9236182982
 11
-44.2458012474
 21
19.0856972195
  0
LINE
  5
63D
100
AcDbEntity
  8
RACCORDO
100
AcDbLine
 62
250
  6
CONTINUOUS
 10
-34.2458012474
 20
19.3181305591
 11
-21.828348841
 21
19.1013831211
  0
LINE
  5
63E
100
AcDbEntity
  8
ASSI
100
AcDbLine
 62
250
  6
CONTINUOUS
 10
-34.2458012474
 20
19.3181305591
 11
-21.828348841
 21
19.1013831211
  0
LINE
  5
63F
100
AcDbEntity
  8
RACCORDO
100
AcDbLine
 62
7
  6
CONTINUOUS
 10
-34.2458012474
 20
19.6109791689
 11
-21.828348841
 21
19.3942317309
  0
LINE
  5
640
100
AcDbEntity
  8
ASSI
100
AcDbLine
 62
7
  6
CONTINUOUS
 10
-34.2458012474
 20
19.6109791689
 11
-21.828348841
 21
19.3942317309
  0
LINE
  5
641
100
AcDbEntity
  8
RACCORDO
100
AcDbLine
 62
250
  6
CONTINUOUS
 10
-53.8417734331
 20
20.5423171059
 11
-54.2339760995
 21
20.5586098298
  0
LINE
  5
642
100
AcDbEntity
  8
RACCORDO
100
AcDbLine
 62
250
  6
CONTINUOUS
 10
-54.2339760995
 20
20.5586098298
 11
-54.3179358301
 21
20.5622182718
  0
LWPOLYLINE
  5
643
100
AcDbEntity
  8
RACCORDO
100
AcDbPolyline
 62
250
  6
CONTINUOUS
 90
3
 70
0
 10
-54.3179358301
 20
20.5622182718
 10
-54.322265608
 20
20.5624294674
 10
-54.3228072197
 20
20.5624683248
  0
LWPOLYLINE
  5
644
100
AcDbEntity
  8
RACCORDO
100
AcDbPolyline
 62
250
  6
CONTINUOUS
 90
51
 70
0
 10
-20.8639410989
 20
-18.3506892459
 10
-20.869472115
 20
-18.3695573851
 10
-20.8757281586
 20
-18.3883119501
 10
-20.8827045837
 20
-18.4069390136
 10
-20.8903962097
 20
-18.4254247431
 10
-20.8987973248
 20
-18.4437554108
 10
-20.9079016901
 20
-18.4619174045
 10
-20.9177025449
 20
-18.4798972369
 10
-20.9281926108
 20
-18.497681556
 10
-20.9393640979
 20
-18.5152571551
 10
-20.9512087103
 20
-18.5326109826
 10
-20.963717652
 20
-18.5497301513
 10
-20.9768816338
 20
-18.5666019485
 10
-20.9906908801
 20
-18.583213845
 10
-21.0051351361
 20
-18.5995535048
 10
-21.0202036753
 20
-18.615608794
 10
-21.0358853078
 20
-18.6313677898
 10
-21.0521683884
 20
-18.6468187896
 10
-21.0690408251
 20
-18.6619503192
 10
-21.0864900883
 20
-18.6767511419
 10
-21.1045032202
 20
-18.6912102667
 10
-21.1230668441
 20
-18.705316956
 10
-21.1421671745
 20
-18.7190607341
 10
-21.1617900274
 20
-18.7324313949
 10
-21.1819208309
 20
-18.7454190092
 10
-21.2025446355
 20
-18.7580139323
 10
-21.2236461261
 20
-18.7702068112
 10
-21.2452096325
 20
-18.7819885914
 10
-21.2672191415
 20
-18.7933505236
 10
-21.2896583088
 20
-18.8042841705
 10
-21.3125104709
 20
-18.8147814127
 10
-21.3357586576
 20
-18.8248344547
 10
-21.3593856048
 20
-18.8344358313
 10
-21.3833737669
 20
-18.8435784123
 10
-21.4077053302
 20
-18.8522554085
 10
-21.4323622259
 20
-18.8604603762
 10
-21.4573261437
 20
-18.8681872224
 10
-21.4825785453
 20
-18.875430209
 10
-21.508100678
 20
-18.8821839575
 10
-21.5338735891
 20
-18.8884434525
 10
-21.5598781393
 20
-18.8942040455
 10
-21.5860950176
 20
-18.8994614587
 10
-21.6125047552
 20
-18.9042117881
 10
-21.63908774
 20
-18.9084515059
 10
-21.6658242315
 20
-18.9121774637
 10
-21.6926943748
 20
-18.9153868946
 10
-21.7196782161
 20
-18.9180774153
 10
-21.7467557172
 20
-18.9202470277
 10
-21.7739067699
 20
-18.9218941207
 10
-21.8011112119
 20
-18.9230174711
 10
-21.828348841
 20
-18.9236162448
  0
LWPOLYLINE
  5
645
100
AcDbEntity
  8
RACCORDO
100
AcDbPolyline
 62
250
  6
CONTINUOUS
 90
43
 70
0
 10
-52.8854871969
 20
21.5093967499
 10
-52.9209744112
 20
21.506906854
 10
-52.9562715166
 20
21.5031835556
 10
-52.9913785131
 20
21.4982268547
 10
-53.0263401896
 20
21.4920275198
 10
-53.0611117572
 20
21.4845947824
 10
-53.0955588494
 20
21.4759563377
 10
-53.1296786967
 20
21.4661077039
 10
-53.1634740687
 20
21.4550533628
 10
-53.1968189078
 20
21.4428344556
 10
-53.2297111541
 20
21.4294467491
 10
-53.2621528675
 20
21.4148944764
 10
-53.2940241703
 20
21.3992314786
 10
-53.3253230182
 20
21.3824536385
 10
-53.3560514554
 20
21.3645650733
 10
-53.3860957368
 20
21.345631976
 10
-53.4154534196
 20
21.3256503956
 10
-53.4441269465
 20
21.3046242831
 10
-53.4720099006
 20
21.2826316848
 10
-53.4990992524
 20
21.2596690808
 10
-53.5253980314
 20
21.2357399909
 10
-53.5508089096
 20
21.2109330204
 10
-53.5753286058
 20
21.1852449164
 10
-53.5989604012
 20
21.1586789318
 10
-53.6216168104
 20
21.131333431
 10
-53.6432942766
 20
21.1032054214
 10
-53.6639963566
 20
21.0742978955
 10
-53.6836462351
 20
21.0447181956
 10
-53.7022399206
 20
21.0144639473
 10
-53.7197814046
 20
20.9835375248
 10
-53.7362058468
 20
20.9520533939
 10
-53.7515091105
 20
20.9200095533
 10
-53.7656953324
 20
20.8874080041
 10
-53.7787120832
 20
20.8543692149
 10
-53.7905551139
 20
20.8208911838
 10
-53.8012286735
 20
20.7869759126
 10
-53.8106930797
 20
20.7527498754
 10
-53.8189437903
 20
20.7182109122
 10
-53.8259853475
 20
20.6833611829
 10
-53.8317916959
 20
20.6483336422
 10
-53.8363541504
 20
20.6131726082
 10
-53.8396813962
 20
20.5778337628
 10
-53.8417734331
 20
20.5423171059
  0
LINE
  5
646
100
AcDbEntity
  8
RACCORDO
100
AcDbLine
 62
250
  6
CONTINUOUS
 10
-45.243658645
 20
21.909888014
 11
-52.8854871969
 21
21.5093967499
  0
LINE
  5
647
100
AcDbEntity
  8
DRAFT
100
AcDbLine
 62
7
  6
CONTINUOUS
 10
-34.2458012474
 20
20.9872686779
 11
-44.2458012474
 21
20.9
  0
LINE
  5
648
100
AcDbEntity
  8
DRAFT
100
AcDbLine
 62
7
  6
CONTINUOUS
 10
-34.7370750442
 20
21.448622017
 11
-44.2458012474
 21
21.4
  0
LINE
  5
649
100
AcDbEntity
  8
DRAFT
100
AcDbLine
 62
7
  6
CONTINUOUS
 10
-44.2458012474
 20
20.85
 11
-34.2458012474
 21
20.85
  0
LINE
  5
64A
100
AcDbEntity
  8
ASSI
100
AcDbLine
 62
7
  6
CONTINUOUS
 10
-44.2458012474
 20
20.85
 11
-34.2458012474
 21
20.85
  0
LINE
  5
64B
100
AcDbEntity
  8
RACCORDO
100
AcDbLine
 62
250
  6
CONTINUOUS
 10
-44.2458012474
 20
21.9011798444
 11
-45.243658645
 21
21.909888014
  0
LINE
  5
64C
100
AcDbEntity
  8
DRAFT
100
AcDbLine
 62
7
  6
CONTINUOUS
 10
-35.2370747119
 20
22.3126551668
 11
-44.2458012474
 21
22.3912731322
  0
LINE
  5
64D
100
AcDbEntity
  8
RACCORDO
100
AcDbLine
 62
7
  6
CONTINUOUS
 10
-44.2458012474
 20
22.3912731322
 11
-45.2458012474
 21
22.4
  0
LWPOLYLINE
  5
64E
100
AcDbEntity
  8
0
100
AcDbPolyline
 62
7
  6
CONTINUOUS
 90
10
 70
0
 43
0.3500000006
 10
-37.0458012085
 20
43.6677597656
 10
-36.9743722916
 20
43.5249019318
 10
-36.9743722916
 20
43.4534707489
 10
-37.1172301254
 20
43.3106174469
 10
-37.1886590424
 20
43.3106174469
 10
-37.2600879593
 20
43.3820440979
 10
-37.2600879593
 20
43.4534707489
 10
-37.1886590424
 20
43.5963285828
 10
-37.1172301254
 20
43.6677597656
 10
-37.0458012085
 20
43.6677597656
  0
LWPOLYLINE
  5
64F
100
AcDbEntity
  8
0
100
AcDbPolyline
 62
7
  6
CONTINUOUS
 90
10
 70
0
 43
0.3500000006
 10
-31.6886573639
 20
33.7500009155
 10
-31.6172307129
 20
33.6071430817
 10
-31.6172307129
 20
33.5357164307
 10
-31.7600862808
 20
33.3928585968
 10
-31.8315151978
 20
33.3928585968
 10
-31.9029441147
 20
33.4642852478
 10
-31.9029441147
 20
33.5357164307
 10
-31.8315151978
 20
33.6785697327
 10
-31.7600862808
 20
33.7500009155
 10
-31.6886573639
 20
33.7500009155
  0
LWPOLYLINE
  5
650
100
AcDbEntity
  8
RACCORDO
100
AcDbPolyline
 62
250
  6
CONTINUOUS
 90
51
 70
0
 10
-20.8639410985
 20
18.3506892446
 10
-20.8694721146
 20
18.3695573837
 10
-20.875728158
 20
18.3883119486
 10
-20.8827045831
 20
18.406939012
 10
-20.890396209
 20
18.4254247413
 10
-20.8987973239
 20
18.443755409
 10
-20.9079016891
 20
18.4619174026
 10
-20.9177025437
 20
18.4798972349
 10
-20.9281926096
 20
18.4976815539
 10
-20.9393640966
 20
18.515257153
 10
-20.9512087088
 20
18.5326109805
 10
-20.9637176504
 20
18.5497301491
 10
-20.9768816321
 20
18.5666019463
 10
-20.9906908783
 20
18.5832138428
 10
-21.0051351341
 20
18.5995535027
 10
-21.0202036732
 20
18.6156087919
 10
-21.0358853057
 20
18.6313677877
 10
-21.0521683861
 20
18.6468187874
 10
-21.0690408227
 20
18.6619503171
 10
-21.0864900859
 20
18.6767511399
 10
-21.1045032177
 20
18.6912102647
 10
-21.1230668415
 20
18.705316954
 10
-21.1421671719
 20
18.7190607322
 10
-21.1617900248
 20
18.7324313931
 10
-21.1819208282
 20
18.7454190074
 10
-21.2025446328
 20
18.7580139306
 10
-21.2236461234
 20
18.7702068096
 10
-21.2452096298
 20
18.7819885899
 10
-21.2672191388
 20
18.7933505222
 10
-21.2896583061
 20
18.8042841692
 10
-21.3125104682
 20
18.8147814114
 10
-21.335758655
 20
18.8248344536
 10
-21.3593856023
 20
18.8344358303
 10
-21.3833737644
 20
18.8435784114
 10
-21.4077053278
 20
18.8522554076
 10
-21.4323622236
 20
18.8604603754
 10
-21.4573261415
 20
18.8681872217
 10
-21.4825785432
 20
18.8754302084
 10
-21.5081006761
 20
18.882183957
 10
-21.5338735872
 20
18.888443452
 10
-21.5598781376
 20
18.8942040451
 10
-21.586095016
 20
18.8994614584
 10
-21.6125047538
 20
18.9042117878
 10
-21.6390877388
 20
18.9084515057
 10
-21.6658242303
 20
18.9121774635
 10
-21.6926943739
 20
18.9153868945
 10
-21.7196782154
 20
18.9180774152
 10
-21.7467557166
 20
18.9202470276
 10
-21.7739067695
 20
18.9218941206
 10
-21.8011112117
 20
18.9230174711
 10
-21.828348841
 20
18.9236162448
  0
LWPOLYLINE
  5
651
100
AcDbEntity
  8
ASSI
100
AcDbPolyline
 62
250
  6
CONTINUOUS
 90
53
 70
0
 10
-20.8550700365
 20
18.312668364
 10
-20.8591392172
 20
18.3317215429
 10
-20.8639410985
 20
18.3506892446
 10
-20.8694721146
 20
18.3695573837
 10
-20.875728158
 20
18.3883119486
 10
-20.8827045831
 20
18.406939012
 10
-20.890396209
 20
18.4254247413
 10
-20.8987973239
 20
18.443755409
 10
-20.9079016891
 20
18.4619174026
 10
-20.9177025437
 20
18.4798972349
 10
-20.9281926096
 20
18.4976815539
 10
-20.9393640966
 20
18.515257153
 10
-20.9512087088
 20
18.5326109805
 10
-20.9637176504
 20
18.5497301491
 10
-20.9768816321
 20
18.5666019463
 10
-20.9906908783
 20
18.5832138428
 10
-21.0051351341
 20
18.5995535027
 10
-21.0202036732
 20
18.6156087919
 10
-21.0358853057
 20
18.6313677877
 10
-21.0521683861
 20
18.6468187874
 10
-21.0690408227
 20
18.6619503171
 10
-21.0864900859
 20
18.6767511399
 10
-21.1045032177
 20
18.6912102647
 10
-21.1230668415
 20
18.705316954
 10
-21.1421671719
 20
18.7190607322
 10
-21.1617900248
 20
18.7324313931
 10
-21.1819208282
 20
18.7454190074
 10
-21.2025446328
 20
18.7580139306
 10
-21.2236461234
 20
18.7702068096
 10
-21.2452096298
 20
18.7819885899
 10
-21.2672191388
 20
18.7933505222
 10
-21.2896583061
 20
18.8042841692
 10
-21.3125104682
 20
18.8147814114
 10
-21.335758655
 20
18.8248344536
 10
-21.3593856023
 20
18.8344358303
 10
-21.3833737644
 20
18.8435784114
 10
-21.4077053278
 20
18.8522554076
 10
-21.4323622236
 20
18.8604603754
 10
-21.4573261415
 20
18.8681872217
 10
-21.4825785432
 20
18.8754302084
 10
-21.5081006761
 20
18.882183957
 10
-21.5338735872
 20
18.888443452
 10
-21.5598781376
 20
18.8942040451
 10
-21.586095016
 20
18.8994614584
 10
-21.6125047538
 20
18.9042117878
 10
-21.6390877388
 20
18.9084515057
 10
-21.6658242303
 20
18.9121774635
 10
-21.6926943739
 20
18.9153868945
 10
-21.7196782154
 20
18.9180774152
 10
-21.7467557166
 20
18.9202470276
 10
-21.7739067695
 20
18.9218941206
 10
-21.8011112117
 20
18.9230174711
 10
-21.828348841
 20
18.9236162448
  0
LINE
  5
652
100
AcDbEntity
  8
RACCORDO
100
AcDbLine
 62
7
  6
CONTINUOUS
 10
-45.2458012474
 20
22.3999487714
 11
-46.5092189023
 21
22.3333200348
  0
LINE
  5
653
100
AcDbEntity
  8
RACCORDO
100
AcDbLine
 62
7
  6
CONTINUOUS
 10
-46.5905965869
 20
22.329482895
 11
-52.9025801363
 21
21.998725222
  0
LWPOLYLINE
  5
654
100
AcDbEntity
  8
RACCORDO
100
AcDbPolyline
 62
7
  6
CONTINUOUS
 90
3
 70
0
 10
-46.5092189023
 20
22.3333200348
 10
-46.5448220042
 20
22.3316044878
 10
-46.5905965869
 20
22.329482895
  0
LINE
  5
655
100
AcDbEntity
  8
RACCORDO
100
AcDbLine
 62
250
  6
CONTINUOUS
 10
-45.2458012474
 20
24.2500042308
 11
-47.4972556802
 21
24.2369056521
  0
LINE
  5
656
100
AcDbEntity
  8
RACCORDO
100
AcDbLine
 62
250
  6
CONTINUOUS
 10
-47.7458012474
 20
23.8443375673
 11
-47.4972556802
 21
23.8443375673
  0
LINE
  5
657
100
AcDbEntity
  8
RACCORDO
100
AcDbLine
 62
250
  6
CONTINUOUS
 10
-47.7458012474
 20
24.2369056521
 11
-47.4972556802
 21
24.2369056521
  0
LINE
  5
658
100
AcDbEntity
  8
RACCORDO
100
AcDbLine
 62
250
  6
CONTINUOUS
 10
-44.2458012474
 20
24.2456323968
 11
-44.4943468146
 21
24.2456323968
  0
LINE
  5
659
100
AcDbEntity
  8
ASSI
100
AcDbLine
 62
7
  6
CONTINUOUS
 10
-44.2458012474
 20
23.7941821702
 11
-37.7371085942
 21
23.756315704
  0
LINE
  5
65A
100
AcDbEntity
  8
RACCORDO
100
AcDbLine
 62
250
  6
CONTINUOUS
 10
-44.4943468146
 20
24.2456323968
 11
-45.2458012474
 21
24.2500042308
  0
LINE
  5
65B
100
AcDbEntity
  8
RACCORDO
100
AcDbLine
 62
7
  6
CONTINUOUS
 10
-44.4943468146
 20
24.495628166
 11
-45.2458012474
 21
24.5
  0
LWPOLYLINE
  5
65C
100
AcDbEntity
  8
RACCORDO
100
AcDbPolyline
 62
250
  6
CONTINUOUS
 90
9
 70
0
 10
-21.828348841
 20
19.3942317309
 10
-21.8281656499
 20
19.3938859161
 10
-21.8279945416
 20
19.3928553128
 10
-21.8278356331
 20
19.391140627
 10
-21.8276890334
 20
19.3887430334
 10
-21.827554843
 20
19.3856641748
 10
-21.8274331537
 20
19.3819061605
 10
-21.8273240489
 20
19.3774715653
 10
-21.8272276034
 20
19.3723634275
  0
LWPOLYLINE
  5
65D
100
AcDbEntity
  8
ASSI
100
AcDbPolyline
 62
250
  6
CONTINUOUS
 90
9
 70
0
 10
-21.828348841
 20
19.3942317309
 10
-21.8281656499
 20
19.3938859161
 10
-21.8279945416
 20
19.3928553128
 10
-21.8278356331
 20
19.391140627
 10
-21.8276890334
 20
19.3887430334
 10
-21.827554843
 20
19.3856641748
 10
-21.8274331537
 20
19.3819061605
 10
-21.8273240489
 20
19.3774715653
 10
-21.8272276034
 20
19.3723634275
  0
LINE
  5
65E
100
AcDbEntity
  8
RACCORDO
100
AcDbLine
 62
7
  6
CONTINUOUS
 10
-45.2458012474
 20
24.5
 11
-47.4972556802
 21
24.4869014213
  0
LWPOLYLINE
  5
65F
100
AcDbEntity
  8
0
100
AcDbPolyline
 62
7
  6
CONTINUOUS
 90
6
 70
0
 43
0.3500000006
 10
-34.4743737946
 20
33.2500007629
 10
-33.4029445724
 20
33.2500007629
 10
-33.1886578217
 20
33.4642852478
 10
-33.1886578217
 20
34.535712204
 10
-33.6172290573
 20
34.9642857056
 10
-34.045800293
 20
34.9642857056
  0
LWPOLYLINE
  5
660
100
AcDbEntity
  8
0
100
AcDbPolyline
 62
7
  6
CONTINUOUS
 90
7
 70
0
 43
0.3500000006
 10
-35.3315162659
 20
33.2500007629
 10
-36.8315144577
 20
33.2500007629
 10
-35.3315162659
 20
35.3928592072
 10
-35.3315162659
 20
35.8214281769
 10
-35.7600875015
 20
36.2500016785
 10
-36.402943222
 20
36.2500016785
 10
-36.8315144577
 20
35.607143692
  0
LWPOLYLINE
  5
661
100
AcDbEntity
  8
0
100
AcDbPolyline
 62
7
  6
CONTINUOUS
 90
3
 70
0
 43
0.3500000006
 10
-29.11722995
 20
33.8928587494
 10
-30.6172304077
 20
33.8928587494
 10
-29.9743724213
 20
36.2500016785
  0
LWPOLYLINE
  5
662
100
AcDbEntity
  8
0
100
AcDbPolyline
 62
7
  6
CONTINUOUS
 90
6
 70
0
 43
0.3500000006
 10
-41.9743715515
 20
43.167759613
 10
-40.9029445953
 20
43.167759613
 10
-40.6886601105
 20
43.3820440979
 10
-40.6886601105
 20
44.4534710541
 10
-41.1172290802
 20
44.8820445557
 10
-41.5458025818
 20
44.8820445557
  0
LWPOLYLINE
  5
663
100
AcDbEntity
  8
0
100
AcDbPolyline
 62
7
  6
CONTINUOUS
 90
6
 70
0
 43
0.3500000006
 10
-39.8315176392
 20
43.167759613
 10
-38.7600861511
 20
43.167759613
 10
-38.5458016663
 20
43.3820440979
 10
-38.5458016663
 20
44.4534710541
 10
-38.974370636
 20
44.8820445557
 10
-39.4029441376
 20
44.8820445557
  0
CIRCLE
  5
664
100
AcDbEntity
  8
DRAFT
100
AcDbCircle
 62
7
  6
CONTINUOUS
 10
-0.0
 20
-14.2
 40
6.25
  0
CIRCLE
  5
665
100
AcDbEntity
  8
DRAFT
100
AcDbCircle
 62
7
  6
CONTINUOUS
 10
0.0
 20
0.0
 40
6.25
  0
CIRCLE
  5
666
100
AcDbEntity
  8
DRAFT
100
AcDbCircle
 62
7
  6
CONTINUOUS
 10
0.0
 20
14.2
 40
6.25
  0
CIRCLE
  5
667
100
AcDbEntity
  8
DRAFT
100
AcDbCircle
 62
7
  6
CONTINUOUS
 10
0.0
 20
0.0
 40
4.5122176149
  0
CIRCLE
  5
668
100
AcDbEntity
  8
DRAFT
100
AcDbCircle
 62
7
  6
CONTINUOUS
 10
-0.0
 20
-14.2
 40
4.5122176149
  0
CIRCLE
  5
669
100
AcDbEntity
  8
DRAFT
100
AcDbCircle
 62
7
  6
CONTINUOUS
 10
0.0
 20
14.2
 40
4.5122176149
  0
CIRCLE
  5
66A
100
AcDbEntity
  8
DRAFT
100
AcDbCircle
 62
7
  6
CONTINUOUS
 10
0.0
 20
14.2
 40
4.5
  0
CIRCLE
  5
66B
100
AcDbEntity
  8
DRAFT
100
AcDbCircle
 62
7
  6
CONTINUOUS
 10
0.0
 20
0.0
 40
4.5
  0
CIRCLE
  5
66C
100
AcDbEntity
  8
DRAFT
100
AcDbCircle
 62
7
  6
CONTINUOUS
 10
-0.0
 20
-14.2
 40
4.5
  0
ARC
  5
66D
100
AcDbEntity
  8
ASSI
100
AcDbCircle
 62
7
  6
CONTINUOUS
 10
-28.3458012474
 20
-5.0
 40
2.1
100
AcDbArc
 50
90.0
 51
270.0
  0
ARC
  5
66E
100
AcDbEntity
  8
ASSI
100
AcDbCircle
 62
7
  6
CONTINUOUS
 10
-28.3458012474
 20
-10.0
 40
2.1
100
AcDbArc
 50
90.0
 51
270.0
  0
ARC
  5
66F
100
AcDbEntity
  8
ASSI
100
AcDbCircle
 62
7
  6
CONTINUOUS
 10
-28.3458012474
 20
-15.0
 40
2.1
100
AcDbArc
 50
90.0
 51
270.0
  0
ARC
  5
670
100
AcDbEntity
  8
RACCORDO
100
AcDbCircle
 62
7
  6
CONTINUOUS
 10
-52.8240762019
 20
-20.5007809198
 40
1.5
100
AcDbArc
 50
182.3569499908
 51
267.0
  0
ARC
  5
671
100
AcDbEntity
  8
RACCORDO
100
AcDbCircle
 62
7
  6
CONTINUOUS
 10
-21.8458012474
 20
-18.3943840357
 40
1.0
100
AcDbArc
 50
271.0
 51
360.0
  0
ARC
  5
672
100
AcDbEntity
  8
ASSI
100
AcDbCircle
 62
7
  6
CONTINUOUS
 10
-21.8458012474
 20
-18.3943840357
 40
1.0
100
AcDbArc
 50
271.0
 51
360.0
  0
ARC
  5
673
100
AcDbEntity
  8
DRAFT
100
AcDbCircle
 62
7
  6
CONTINUOUS
 10
-35.2458012474
 20
-21.3126932437
 40
1.0
100
AcDbArc
 50
270.5
 51
360.0
  0
ARC
  5
674
100
AcDbEntity
  8
ASSI
100
AcDbCircle
 62
7
  6
CONTINUOUS
 10
-37.7458012474
 20
-23.2563578147
 40
0.5
100
AcDbArc
 50
270.3333333333
 51
360.0
  0
ARC
  5
675
100
AcDbEntity
  8
RACCORDO
100
AcDbCircle
 62
7
  6
CONTINUOUS
 10
-47.4958012474
 20
-23.8443375673
 40
0.25
100
AcDbArc
 50
120.0
 51
180.0
  0
ARC
  5
676
100
AcDbEntity
  8
RACCORDO
100
AcDbCircle
 62
7
  6
CONTINUOUS
 10
-47.4958012474
 20
-24.2369056521
 40
0.25
100
AcDbArc
 50
180.0
 51
269.6666666667
  0
ARC
  5
677
100
AcDbEntity
  8
RACCORDO
100
AcDbCircle
 62
7
  6
CONTINUOUS
 10
-44.4958012474
 20
-23.8443375673
 40
0.25
100
AcDbArc
 50
0.0
 51
60.0
  0
ARC
  5
678
100
AcDbEntity
  8
RACCORDO
100
AcDbCircle
 62
7
  6
CONTINUOUS
 10
-44.4958012474
 20
-24.2456323968
 40
0.25
100
AcDbArc
 50
270.3333333333
 51
360.0
  0
ARC
  5
679
100
AcDbEntity
  8
ASSI
100
AcDbCircle
 62
7
  6
CONTINUOUS
 10
-28.3458012474
 20
10.0
 40
2.1
100
AcDbArc
 50
90.0
 51
270.0
  0
ARC
  5
67A
100
AcDbEntity
  8
ASSI
100
AcDbCircle
 62
7
  6
CONTINUOUS
 10
-28.3458012474
 20
5.0
 40
2.1
100
AcDbArc
 50
90.0
 51
270.0
  0
ARC
  5
67B
100
AcDbEntity
  8
ASSI
100
AcDbCircle
 62
7
  6
CONTINUOUS
 10
-28.3458012474
 20
0.0
 40
2.1
100
AcDbArc
 50
90.0
 51
270.0
  0
ARC
  5
67C
100
AcDbEntity
  8
RACCORDO
100
AcDbCircle
 62
7
  6
CONTINUOUS
 10
-52.8240762019
 20
20.5007809198
 40
1.5
100
AcDbArc
 50
93.0
 51
177.6430500092
  0
ARC
  5
67D
100
AcDbEntity
  8
RACCORDO
100
AcDbCircle
 62
7
  6
CONTINUOUS
 10
-21.8458012474
 20
18.3943840357
 40
1.0
100
AcDbArc
 50
0.0
 51
89.0
  0
ARC
  5
67E
100
AcDbEntity
  8
ASSI
100
AcDbCircle
 62
7
  6
CONTINUOUS
 10
-21.8458012474
 20
18.3943840357
 40
1.0
100
AcDbArc
 50
0.0
 51
89.0
  0
ARC
  5
67F
100
AcDbEntity
  8
DRAFT
100
AcDbCircle
 62
7
  6
CONTINUOUS
 10
-35.2458012474
 20
21.3126932437
 40
1.0
100
AcDbArc
 50
0.0
 51
89.5
  0
ARC
  5
680
100
AcDbEntity
  8
ASSI
100
AcDbCircle
 62
7
  6
CONTINUOUS
 10
-37.7428923817
 20
23.2592582188
 40
0.4970911343
100
AcDbArc
 50
0.0
 51
89.3333333334
  0
ARC
  5
681
100
AcDbEntity
  8
RACCORDO
100
AcDbCircle
 62
7
  6
CONTINUOUS
 10
-47.4958012474
 20
24.2369056521
 40
0.25
100
AcDbArc
 50
90.3333333333
 51
180.0
  0
ARC
  5
682
100
AcDbEntity
  8
RACCORDO
100
AcDbCircle
 62
7
  6
CONTINUOUS
 10
-44.4958012474
 20
24.2456323968
 40
0.25
100
AcDbArc
 50
0.0
 51
89.6666666667
  0
ARC
  5
683
100
AcDbEntity
  8
RACCORDO
100
AcDbCircle
 62
7
  6
CONTINUOUS
 10
-47.4958012474
 20
23.8443375673
 40
0.25
100
AcDbArc
 50
180.0
 51
240.0
  0
ARC
  5
684
100
AcDbEntity
  8
RACCORDO
100
AcDbCircle
 62
7
  6
CONTINUOUS
 10
445.2541987526
 20
0.0
 40
500.0
100
AcDbArc
 50
177.6430500092
 51
182.3569499908
  0
ELLIPSE
  5
685
100
AcDbEntity
  8
RACCORDO
100
AcDbEllipse
 62
7
  6
CONTINUOUS
 10
10.6599253593
 20
21.9012544738
 30
0.0
 11
0.4383594471
 21
-0.2191630312
 31
0.0
 40
0.9998096356
 41
0.4635410001
 42
1.5708581097
  0
ELLIPSE
  5
686
100
AcDbEntity
  8
RACCORDO
100
AcDbEllipse
 62
7
  6
CONTINUOUS
 10
-10.6599253593
 20
-21.9012544738
 30
0.0
 11
0.4383594471
 21
-0.2191630312
 31
0.0
 40
0.9998096356
 41
-2.6780516535
 42
-1.5707345439
  0
ELLIPSE
  5
687
100
AcDbEntity
  8
RACCORDO
100
AcDbEllipse
 62
7
  6
CONTINUOUS
 10
10.6599253593
 20
-21.9012544738
 30
0.0
 11
0.4383594471
 21
0.2191630312
 31
0.0
 40
0.9998096356
 41
-1.5708581097
 42
-0.4635410001
  0
ELLIPSE
  5
688
100
AcDbEntity
  8
RACCORDO
100
AcDbEllipse
 62
7
  6
CONTINUOUS
 10
-10.6599253593
 20
21.9012544738
 30
0.0
 11
0.4383594471
 21
0.2191630312
 31
0.0
 40
0.9998096356
 41
1.5707345439
 42
2.6780516535
  0
ELLIPSE
  5
689
100
AcDbEntity
  8
RACCORDO
100
AcDbEllipse
 62
7
  6
CONTINUOUS
 10
-3.8970826234
 20
-22.3737961104
 30
0.0
 11
0.5
 21
0.0
 31
0.0
 40
0.0524077793
 41
1.5707963268
 42
3.1357748894
  0
ELLIPSE
  5
68A
100
AcDbEntity
  8
RACCORDO
100
AcDbEllipse
 62
7
  6
CONTINUOUS
 10
-3.8970826234
 20
-23.7970910851
 30
0.0
 11
0.5
 21
0.0
 31
0.0
 40
0.0058178298
 41
2.495179495
 42
3.1357748894
  0
ELLIPSE
  5
68B
100
AcDbEntity
  8
RACCORDO
100
AcDbEllipse
 62
7
  6
CONTINUOUS
 10
3.8970826234
 20
-23.7970910851
 30
0.0
 11
0.5
 21
-0.0
 31
0.0
 40
0.0058178298
 41
0.0058177642
 42
0.6464131586
  0
ELLIPSE
  5
68C
100
AcDbEntity
  8
RACCORDO
100
AcDbEllipse
 62
7
  6
CONTINUOUS
 10
3.8970826234
 20
-22.3737961104
 30
0.0
 11
0.5
 21
0.0
 31
0.0
 40
0.0524077793
 41
0.0058177642
 42
1.5707963268
  0
ELLIPSE
  5
68D
100
AcDbEntity
  8
RACCORDO
100
AcDbEllipse
 62
7
  6
CONTINUOUS
 10
-3.8970826234
 20
23.7970910851
 30
0.0
 11
0.5
 21
-0.0
 31
0.0
 40
0.0058178298
 41
-3.1357748894
 42
-2.495179495
  0
ELLIPSE
  5
68E
100
AcDbEntity
  8
RACCORDO
100
AcDbEllipse
 62
7
  6
CONTINUOUS
 10
-3.8970826234
 20
22.3737961104
 30
0.0
 11
0.5
 21
0.0
 31
0.0
 40
0.0524077793
 41
-3.1357748894
 42
-1.5707963268
  0
ELLIPSE
  5
68F
100
AcDbEntity
  8
RACCORDO
100
AcDbEllipse
 62
7
  6
CONTINUOUS
 10
3.8970826234
 20
22.3737961104
 30
0.0
 11
0.5
 21
-0.0
 31
0.0
 40
0.0524077793
 41
-1.5707963268
 42
-0.0058177642
  0
ELLIPSE
  5
690
100
AcDbEntity
  8
RACCORDO
100
AcDbEllipse
 62
7
  6
CONTINUOUS
 10
3.8970826234
 20
23.7970910851
 30
0.0
 11
0.5
 21
-0.0
 31
0.0
 40
0.0058178298
 41
-0.6464131586
 42
-0.0058177642
  0
ELLIPSE
  5
691
100
AcDbEntity
  8
RACCORDO
100
AcDbEllipse
 62
7
  6
CONTINUOUS
 10
-10.3927234819
 20
22.3344902759
 30
0.0
 11
0.25
 21
0.0
 31
0.0
 40
0.0524077793
 41
-2.7048127343
 42
-1.5707963268
  0
ELLIPSE
  5
692
100
AcDbEntity
  8
RACCORDO
100
AcDbEllipse
 62
7
  6
CONTINUOUS
 10
-8.5072765181
 20
22.3344902759
 30
0.0
 11
0.25
 21
0.0
 31
0.0
 40
0.0524077793
 41
-1.5707963268
 42
-0.0058177642
  0
ELLIPSE
  5
693
100
AcDbEntity
  8
RACCORDO
100
AcDbEllipse
 62
7
  6
CONTINUOUS
 10
8.5072765181
 20
22.3344902759
 30
0.0
 11
0.25
 21
-0.0
 31
0.0
 40
0.0524077793
 41
-3.1357748894
 42
-1.5707963268
  0
ELLIPSE
  5
694
100
AcDbEntity
  8
RACCORDO
100
AcDbEllipse
 62
7
  6
CONTINUOUS
 10
10.3927234819
 20
22.3344902759
 30
0.0
 11
0.25
 21
0.0
 31
0.0
 40
0.0524077793
 41
-1.5707963268
 42
-0.4367799193
  0
ELLIPSE
  5
695
100
AcDbEntity
  8
RACCORDO
100
AcDbEllipse
 62
7
  6
CONTINUOUS
 10
-10.3927234819
 20
-22.3344902759
 30
0.0
 11
0.25
 21
-0.0
 31
0.0
 40
0.0524077793
 41
1.5707963268
 42
2.7048127343
  0
ELLIPSE
  5
696
100
AcDbEntity
  8
RACCORDO
100
AcDbEllipse
 62
7
  6
CONTINUOUS
 10
-8.5072765181
 20
-22.3344902759
 30
0.0
 11
0.25
 21
0.0
 31
0.0
 40
0.0524077793
 41
0.0058177642
 42
1.5707963268
  0
ELLIPSE
  5
697
100
AcDbEntity
  8
RACCORDO
100
AcDbEllipse
 62
7
  6
CONTINUOUS
 10
8.5072765181
 20
-22.3344902759
 30
0.0
 11
0.25
 21
0.0
 31
0.0
 40
0.0524077793
 41
1.5707963268
 42
3.1357748894
  0
ELLIPSE
  5
698
100
AcDbEntity
  8
RACCORDO
100
AcDbEllipse
 62
7
  6
CONTINUOUS
 10
10.3927234819
 20
-22.3344902759
 30
0.0
 11
0.25
 21
-0.0
 31
0.0
 40
0.0524077793
 41
0.4367799193
 42
1.5707963268
  0
ELLIPSE
  5
699
100
AcDbEntity
  8
DRAFT
100
AcDbEllipse
 62
7
  6
CONTINUOUS
 10
-34.7458012474
 20
-21.9486535604
 30
0.0
 11
0.3546425507
 21
0.3568377408
 31
0.0
 40
0.9877342685
 41
-0.2393634764
 42
0.7710302454
  0
ELLIPSE
  5
69A
100
AcDbEntity
  8
DRAFT
100
AcDbEllipse
 62
7
  6
CONTINUOUS
 10
-34.7458012474
 20
21.9486535604
 30
0.0
 11
-0.3546425507
 21
0.3568377408
 31
0.0
 40
0.9877342685
 41
-3.912622899
 42
-2.9022291772
  0
ENDSEC
  0
SECTION
  2
OBJECTS
  0
DICTIONARY
  5
C
100
AcDbDictionary
280
0
281
1
  3
ACAD_GROUP
350
D
  3
ACAD_MLINESTYLE
350
17
  3
ACAD_LAYOUT
350
1A
  3
ACAD_PLOTSETTINGS
350
19
  3
ACAD_PLOTSTYLENAME
350
E
  0
DICTIONARY
  5
D
102
{ACAD_REACTORS
330
C
102
}
100
AcDbDictionary
280
0
281
1
  0
ACDBDICTIONARYWDFLT
  5
E
102
{ACAD_REACTORS
330
C
102
}
100
AcDbDictionary
281
1
  3
Normal
350
F
100
AcDbDictionaryWithDefault
340
F
  0
DICTIONARY
  5
17
102
{ACAD_REACTORS
330
C
102
}
100
AcDbDictionary
280
0
281
1
  3
Standard
350
18
  0
DICTIONARY
  5
19
102
{ACAD_REACTORS
330
C
102
}
100
AcDbDictionary
281
1
  0
DICTIONARY
  5
1A
102
{ACAD_REACTORS
330
C
102
}
100
AcDbDictionary
281
1
  3
Model
350
69B
  3
Layout1
350
69C
  0
ACDBPLACEHOLDER
  5
F
102
{ACAD_REACTORS
330
E
102
}
  0
MLINESTYLE
  5
18
102
{ACAD_REACTORS
330
17
102
}
100
AcDbMlineStyle
  2
STANDARD
 70
0
  3

 62
256
 51
90.0
 52
90.0
 71
2
 49
0.5
 62
256
  6
BYLAYER
 49
-0.5
 62
256
  6
BYLAYER
  0
LAYOUT
  5
69B
102
{ACAD_REACTORS
330
1A
102
}
100
AcDbPlotSettings
  1

  2
none_device
  4
ISO_A4_(297.00_x_210.00_MM)
  6

 40
0.0
 41
0.0
 42
0.0
 43
0.0
 44
297.0
 45
210.0
 46
0.0
 47
0.0
 48
0.0
 49
0.0
140
0.0
141
0.0
142
1.0
143
1.0
 70
1024
 72
1
 73
0
 74
0
  7

 75
0
147
1.0
148
0.0
149
0.0
100
AcDbLayout
  1
Model
 70
0
 71
0
 10
0.0
 20
0.0
 11
297.0
 21
210.0
 12
0.0
 22
0.0
 32
0.0
 14
0.0
 24
0.0
 34
0.0
 15
0.0
 25
0.0
 35
0.0
146
0.0
 13
0.0
 23
0.0
 33
0.0
 16
1.0
 26
0.0
 36
0.0
 17
0.0
 27
1.0
 37
0.0
 76
0
330
21C
345
0
346
0
  0
LAYOUT
  5
69C
102
{ACAD_REACTORS
330
1A
102
}
100
AcDbPlotSettings
  1

  2
none_device
  4
ISO_A4_(297.00_x_210.00_MM)
  6

 40
0.0
 41
0.0
 42
0.0
 43
0.0
 44
297.0
 45
210.0
 46
0.0
 47
0.0
 48
0.0
 49
0.0
140
0.0
141
0.0
142
1.0
143
1.0
 70
0
 72
1
 73
0
 74
0
  7

 75
0
147
1.0
148
0.0
149
0.0
100
AcDbLayout
  1
Layout1
 70
0
 71
1
 10
0.0
 20
0.0
 11
297.0
 21
210.0
 12
0.0
 22
0.0
 32
0.0
 14
0.0
 24
0.0
 34
0.0
 15
0.0
 25
0.0
 35
0.0
146
0.0
 13
0.0
 23
0.0
 33
0.0
 16
1.0
 26
0.0
 36
0.0
 17
0.0
 27
1.0
 37
0.0
 76
0
330
21D
345
0
346
0
  0
ENDSEC
  0
EOF
