  0
SECTION
  2
HEADER
  9
$ACADVER
  1
AC1024
  9
$DWGCODEPAGE
  3
ANSI_1252
  9
$EXTMAX
 10
558.8
 20
431.8
 30
0.0
  9
$EXTMIN
 10
0.0
 20
0.0
 30
0.0
  9
$LIMMIN
 10
0.0
 20
0.0
  9
$LIMMAX
 10
558.8
 20
431.8
  9
$VIEWCTR
 10
279.4
 20
215.9
  9
$VIEWSIZE
 40
431.8
  9
$CLAYER
  8
0
  9
$LTSCALE
 40
30.734
  9
$CELTYPE
  6
BYLAYER
  9
$DIMSCALE
 40
1.0
  9
$DIMASZ
 40
3.0
  9
$DIMEXO
 40
0.5
  9
$DIMDLI
 40
21.2344
  9
$DIMEXE
 40
1.5
  9
$DIMCEN
 40
5.0292
  9
$DIMLFAC
 40
1.0
  9
$DIMBLK
  1
_FILLED
  9
$DIMALT
 70
0
  9
$DIMALTF
 40
0.0393700787
  9
$DIMTXT
 40
3.0
  9
$DIMTOL
 70
1
  9
$DIMLIM
 70
0
  9
$DIMTFAC
 40
1.0
  9
$DIMTP
 40
0.01
  9
$DIMTM
 40
0.01
  9
$DIMGAP
 40
0.625
  9
$DIMDSEP
 70
44
  9
$AUNITS
 70
0
  9
$PDMODE
 70
3
  9
$PDSIZE
 40
3.0
  9
$HANDSEED
  5
4BE
  9
$TILEMODE
 70
1
  9
$MEASUREMENT
 70
1
  9
$INSUNITS
 70
4
  0
ENDSEC
  0
SECTION
  2
CLASSES
  0
CLASS
  1
ACDBDICTIONARYWDFLT
  2
AcDbDictionaryWithDefault
  3
AutoCAD 2000
 90
0
 91
1
280
0
281
0
  0
CLASS
  1
ACDBPLACEHOLDER
  2
AcDbPlaceHolder
  3
AutoCAD 2000
 90
0
 91
1
280
0
281
0
  0
CLASS
  1
LAYOUT
  2
AcDbLayout
  3
AutoCAD 2000
 90
0
 91
0
280
0
281
0
  0
ENDSEC
  0
SECTION
  2
TABLES
  0
TABLE
  2
VPORT
  5
8
100
AcDbSymbolTable
 70
2
  0
VPORT
  5
1F4
100
AcDbSymbolTableRecord
100
AcDbViewportTableRecord
  2
*ACTIVE
 70
0
 10
0.0
 20
0.0
 11
1.0
 21
1.0
 12
279.4
 22
215.9
 13
0.0
 23
0.0
 14
1.0
 24
1.0
 15
0.0
 25
0.0
 16
0.0
 26
0.0
 36
1.0
 17
0.0
 27
0.0
 37
0.0
 40
431.8
 41
1.2941176471
 42
50.0
 43
0.0
 44
0.0
 50
0.0
 51
0.0
 71
0
 72
100
 73
1
 74
1
 75
0
 76
0
 77
0
 78
0
  0
ENDTAB
  0
TABLE
  2
LTYPE
  5
5
100
AcDbSymbolTable
 70
6
  0
LTYPE
  5
14
100
AcDbSymbolTableRecord
100
AcDbLinetypeTableRecord
  2
BYBLOCK
 70
0
  3

 72
65
 73
0
 40
0.0
  0
LTYPE
  5
15
100
AcDbSymbolTableRecord
100
AcDbLinetypeTableRecord
  2
BYLAYER
 70
0
  3

 72
65
 73
0
 40
0.0
  0
LTYPE
  5
16
100
AcDbSymbolTableRecord
100
AcDbLinetypeTableRecord
  2
CONTINUOUS
 70
64
  3
Solid line
 72
65
 73
0
 40
0.0
  0
LTYPE
  5
1F5
100
AcDbSymbolTableRecord
100
AcDbLinetypeTableRecord
  2
CENTER
 70
64
  3
____ _ ____ _ ____ _ ____ _ ____ _ ____ _ ____
 72
65
 73
4
 40
0.6
 49
0.375
 74
0
 49
-0.075
 74
0
 49
0.075
 74
0
 49
-0.075
 74
0
  0
LTYPE
  5
1F6
100
AcDbSymbolTableRecord
100
AcDbLinetypeTableRecord
  2
HIDDEN
 70
64
  3
- - - - - - - - - - - - - - - - - - - -
 72
65
 73
2
 40
0.2
 49
0.1
 74
0
 49
-0.1
 74
0
  0
LTYPE
  5
1F7
100
AcDbSymbolTableRecord
100
AcDbLinetypeTableRecord
  2
PHANTOM
 70
64
  3
_____ _ _ _____ _ _ _____ _ _ _____
 72
65
 73
6
 40
0.8
 49
0.45
 74
0
 49
-0.05
 74
0
 49
0.1
 74
0
 49
-0.05
 74
0
 49
0.1
 74
0
 49
-0.05
 74
0
  0
LTYPE
  5
1F8
100
AcDbSymbolTableRecord
100
AcDbLinetypeTableRecord
  2
DOT
 70
64
  3
. . . . . . . . . . . . . . . . . . . .
 72
65
 73
2
 40
0.2
 49
0.1
 74
0
 49
-0.1
 74
0
  0
LTYPE
  5
1F9
100
AcDbSymbolTableRecord
100
AcDbLinetypeTableRecord
  2
DASHED
 70
64
  3
- - - - - - - - - - - - - - - - - - - -
 72
65
 73
2
 40
0.2
 49
0.1
 74
0
 49
-0.1
 74
0
  0
ENDTAB
  0
TABLE
  2
LAYER
  5
2
100
AcDbSymbolTable
 70
36
  0
LAYER
  5
10
100
AcDbSymbolTableRecord
100
AcDbLayerTableRecord
  2
0
 70
0
 62
7
  6
CONTINUOUS
370
-3
390
F
  0
LAYER
  5
1FA
100
AcDbSymbolTableRecord
100
AcDbLayerTableRecord
  2
DEFAULT_1
 70
0
 62
7
  6
CENTER
370
-3
390
F
  0
LAYER
  5
1FB
100
AcDbSymbolTableRecord
100
AcDbLayerTableRecord
  2
DEFAULT_2
 70
0
 62
7
  6
HIDDEN
370
-3
390
F
  0
LAYER
  5
1FC
100
AcDbSymbolTableRecord
100
AcDbLayerTableRecord
  2
DEFAULT_3
 70
0
 62
7
  6
PHANTOM
370
-3
390
F
  0
LAYER
  5
1FD
100
AcDbSymbolTableRecord
100
AcDbLayerTableRecord
  2
ASSI
 70
0
 62
7
  6
CONTINUOUS
370
-3
390
F
  0
LAYER
  5
1FE
100
AcDbSymbolTableRecord
100
AcDbLayerTableRecord
  2
COORDINATE
 70
0
 62
7
  6
CONTINUOUS
370
-3
390
F
  0
LAYER
  5
1FF
100
AcDbSymbolTableRecord
100
AcDbLayerTableRecord
  2
COORD_ORIGINE
 70
0
 62
7
  6
CONTINUOUS
370
-3
390
F
  0
LAYER
  5
200
100
AcDbSymbolTableRecord
100
AcDbLayerTableRecord
  2
COPY_PUBLISH
 70
0
 62
7
  6
CONTINUOUS
370
-3
390
F
  0
LAYER
  5
201
100
AcDbSymbolTableRecord
100
AcDbLayerTableRecord
  2
COSMETIC
 70
0
 62
7
  6
CONTINUOUS
370
-3
390
F
  0
LAYER
  5
202
100
AcDbSymbolTableRecord
100
AcDbLayerTableRecord
  2
CURVE
 70
0
 62
7
  6
CONTINUOUS
370
-3
390
F
  0
LAYER
  5
203
100
AcDbSymbolTableRecord
100
AcDbLayerTableRecord
  2
DRAFT
 70
0
 62
7
  6
CONTINUOUS
370
-3
390
F
  0
LAYER
  5
204
100
AcDbSymbolTableRecord
100
AcDbLayerTableRecord
  2
IMPORT
 70
0
 62
7
  6
CONTINUOUS
370
-3
390
F
  0
LAYER
  5
205
100
AcDbSymbolTableRecord
100
AcDbLayerTableRecord
  2
IMPORT_IGES
 70
0
 62
7
  6
CONTINUOUS
370
-3
390
F
  0
LAYER
  5
206
100
AcDbSymbolTableRecord
100
AcDbLayerTableRecord
  2
INTF_1
 70
0
 62
7
  6
CONTINUOUS
370
-3
390
F
  0
LAYER
  5
207
100
AcDbSymbolTableRecord
100
AcDbLayerTableRecord
  2
INTF_11
 70
0
 62
7
  6
CONTINUOUS
370
-3
390
F
  0
LAYER
  5
208
100
AcDbSymbolTableRecord
100
AcDbLayerTableRecord
  2
LAY0001
 70
0
 62
7
  6
CONTINUOUS
370
-3
390
F
  0
LAYER
  5
209
100
AcDbSymbolTableRecord
100
AcDbLayerTableRecord
  2
NOTE
 70
0
 62
7
  6
CONTINUOUS
370
-3
390
F
  0
LAYER
  5
20A
100
AcDbSymbolTableRecord
100
AcDbLayerTableRecord
  2
PIANI
 70
0
 62
7
  6
CONTINUOUS
370
-3
390
F
  0
LAYER
  5
20B
100
AcDbSymbolTableRecord
100
AcDbLayerTableRecord
  2
PIANI_ORIGINE
 70
0
 62
7
  6
CONTINUOUS
370
-3
390
F
  0
LAYER
  5
20C
100
AcDbSymbolTableRecord
100
AcDbLayerTableRecord
  2
PIANI_RIFERIMENTO
 70
0
 62
7
  6
CONTINUOUS
370
-3
390
F
  0
LAYER
  5
20D
100
AcDbSymbolTableRecord
100
AcDbLayerTableRecord
  2
PUNTI
 70
0
 62
7
  6
CONTINUOUS
370
-3
390
F
  0
LAYER
  5
20E
100
AcDbSymbolTableRecord
100
AcDbLayerTableRecord
  2
RACCORDO
 70
0
 62
7
  6
CONTINUOUS
370
-3
390
F
  0
LAYER
  5
20F
100
AcDbSymbolTableRecord
100
AcDbLayerTableRecord
  2
SMUSSO
 70
0
 62
7
  6
CONTINUOUS
370
-3
390
F
  0
LAYER
  5
210
100
AcDbSymbolTableRecord
100
AcDbLayerTableRecord
  2
SNAPLINE
 70
0
 62
7
  6
CONTINUOUS
370
-3
390
F
  0
LAYER
  5
211
100
AcDbSymbolTableRecord
100
AcDbLayerTableRecord
  2
SUPERFICI
 70
0
 62
7
  6
CONTINUOUS
370
-3
390
F
  0
LAYER
  5
212
100
AcDbSymbolTableRecord
100
AcDbLayerTableRecord
  2
TRASH
 70
0
 62
7
  6
CONTINUOUS
370
-3
390
F
  0
LAYER
  5
213
100
AcDbSymbolTableRecord
100
AcDbLayerTableRecord
  2
XSEC_DATUMS
 70
0
 62
7
  6
CONTINUOUS
370
-3
390
F
  0
ENDTAB
  0
TABLE
  2
STYLE
  5
3
100
AcDbSymbolTable
 70
1
  0
STYLE
  5
11
100
AcDbSymbolTableRecord
100
AcDbTextStyleTableRecord
  2
STANDARD
 70
0
 40
0.0
 41
0.8
 50
0.0
 71
0
 42
0.2
  3
txt
  4

  0
STYLE
  5
214
100
AcDbSymbolTableRecord
100
AcDbTextStyleTableRecord
  2
TEXTSTYLE_1
 70
0
 40
0.0
 41
0.8
 50
0.0
 71
0
 42
0.2
  3
gdt
  4

  0
ENDTAB
  0
TABLE
  2
VIEW
  5
6
100
AcDbSymbolTable
 70
0
  0
ENDTAB
  0
TABLE
  2
UCS
  5
7
100
AcDbSymbolTable
 70
0
  0
ENDTAB
  0
TABLE
  2
APPID
  5
9
100
AcDbSymbolTable
 70
1
  0
APPID
  5
215
100
AcDbSymbolTableRecord
100
AcDbRegAppTableRecord
  2
ACAD
 70
0
  0
ENDTAB
  0
TABLE
  2
BLOCK_RECORD
  5
1
100
AcDbSymbolTable
 70
0
  0
BLOCK_RECORD
  5
216
100
AcDbSymbolTableRecord
100
AcDbBlockTableRecord
  2
*Model_Space
  0
BLOCK_RECORD
  5
217
100
AcDbSymbolTableRecord
100
AcDbBlockTableRecord
  2
*Paper_Space
  0
BLOCK_RECORD
  5
218
100
AcDbSymbolTableRecord
100
AcDbBlockTableRecord
  2
_FILLED
  0
BLOCK_RECORD
  5
219
100
AcDbSymbolTableRecord
100
AcDbBlockTableRecord
  2
*D0
  0
BLOCK_RECORD
  5
21A
100
AcDbSymbolTableRecord
100
AcDbBlockTableRecord
  2
*D1
  0
BLOCK_RECORD
  5
21B
100
AcDbSymbolTableRecord
100
AcDbBlockTableRecord
  2
*D2
  0
BLOCK_RECORD
  5
21C
100
AcDbSymbolTableRecord
100
AcDbBlockTableRecord
  2
*D3
  0
ENDTAB
  0
TABLE
  2
DIMSTYLE
  5
A
100
AcDbSymbolTable
 70
1
100
AcDbDimStyleTable
 71
0
  0
DIMSTYLE
105
21D
100
AcDbSymbolTableRecord
100
AcDbDimStyleTableRecord
  2
STANDARD
 70
0
  3

  4

 40
1.0
 41
3.0
 42
0.5
 43
0.38
 44
1.5
 45
0.0
 46
0.0
 47
0.01
 48
0.01
140
3.0
141
0.0
142
0.0
143
25.4
144
1.0
145
0.0
146
1.0
147
0.625
 71
1
 72
0
 73
0
 74
0
 75
0
 76
0
 77
1
 78
8
 79
2
170
0
171
1
172
0
173
0
174
0
175
0
176
0
177
0
178
0
270
2
179
1
271
2
272
2
273
2
274
2
275
0
280
0
281
0
282
0
283
1
284
8
285
0
286
0
287
3
288
0
340
11
278
44
341
218
342
218
343
218
344
218
  0
DIMSTYLE
105
21E
100
AcDbSymbolTableRecord
100
AcDbDimStyleTableRecord
  2
DIMSTYLE_1
 70
0
  3

  4

 40
1.0
 41
3.0
 42
0.5
 43
0.38
 44
1.5
 45
0.0
 46
0.0
 47
0.0
 48
0.0
140
3.0
141
0.0
142
0.0
143
25.4
144
1.0
145
0.0
146
1.0
147
0.75
 71
0
 72
0
 73
0
 74
0
 75
0
 76
0
 77
1
 78
8
 79
2
170
0
171
1
172
0
173
0
174
0
175
0
176
0
177
0
178
0
270
2
179
2
271
2
272
2
273
2
274
2
275
0
280
0
281
0
282
0
283
1
284
8
285
0
286
0
287
3
288
0
340
11
278
44
341
218
342
218
343
218
344
218
  0
ENDTAB
  0
ENDSEC
  0
SECTION
  2
BLOCKS
  0
BLOCK
  5
20
100
AcDbEntity
  8
0
100
AcDbBlockBegin
  2
*Model_Space
 70
0
 10
0.0
 20
0.0
 30
0.0
  3
*Model_Space
  1

  0
ENDBLK
  5
21
100
AcDbEntity
  8
0
100
AcDbBlockEnd
  0
BLOCK
  5
1C
100
AcDbEntity
  8
0
100
AcDbBlockBegin
  2
*Paper_Space
 70
0
 10
0.0
 20
0.0
 30
0.0
  3
*Paper_Space
  1

  0
ENDBLK
  5
1D
100
AcDbEntity
  8
0
100
AcDbBlockEnd
  0
BLOCK
  5
21F
100
AcDbEntity
  8
0
100
AcDbBlockBegin
  2
_FILLED
 70
64
 10
0.0
 20
0.0
 30
0.0
  3
_FILLED
  1

  0
SOLID
  5
220
100
AcDbEntity
  8
0
  6
BYBLOCK
 62
0
100
AcDbTrace
 10
0.0
 20
0.0
 30
0.0
 11
-1.0
 21
0.3166666667
 31
0.0
 12
-1.0
 22
-0.3166666667
 32
0.0
 13
-1.0
 23
-0.3166666667
 33
0.0
  0
ENDBLK
  5
221
100
AcDbEntity
  8
0
  6
BYBLOCK
 62
0
100
AcDbBlockEnd
  0
BLOCK
  5
222
100
AcDbEntity
  8
0
100
AcDbBlockBegin
 62
7
  6
CONTINUOUS
  2
*D0
 70
65
 10
0.0
 20
0.0
 30
0.0
  3
*D0
  1

  0
MTEXT
  5
223
100
AcDbEntity
  8
0
100
AcDbMText
 62
7
  6
CONTINUOUS
  7
STANDARD
 71
2
 72
1
 10
-40.9270068884
 20
36.2731479284
 30
0.0
 11
1.0
 21
0.0
 31
0.0
 73
2
 44
0.9
  1
{\ftxt;\W0.0001;\H0.0001;\~}{\ftxt;\W2.6428571429;\H3.0; }{\ftxt;\W0.0001;\H0.0001;\~}
 40
3.0
 41
11.8928571429
  0
LINE
  5
224
100
AcDbEntity
  8
0
100
AcDbLine
 62
7
  6
CONTINUOUS
 10
-29.3770068884
 20
2.1
 30
0.0
 11
-29.3770068884
 21
34.0231479284
 31
0.0
  0
LINE
  5
225
100
AcDbEntity
  8
0
100
AcDbLine
 62
7
  6
CONTINUOUS
 10
-52.4770068884
 20
24.7456323968
 30
0.0
 11
-52.4770068884
 21
34.0231479284
 31
0.0
  0
LINE
  5
226
100
AcDbEntity
  8
0
100
AcDbLine
 62
7
  6
CONTINUOUS
 10
-29.3770068884
 20
32.5231479284
 30
0.0
 11
-40.9270068884
 21
32.5231479284
 31
0.0
  0
LINE
  5
227
100
AcDbEntity
  8
0
100
AcDbLine
 62
7
  6
CONTINUOUS
 10
-52.4770068884
 20
32.5231479284
 30
0.0
 11
-40.9270068884
 21
32.5231479284
 31
0.0
  0
INSERT
  5
228
100
AcDbEntity
  8
0
100
AcDbBlockReference
 62
7
  6
CONTINUOUS
  2
_FILLED
 10
-29.3770068884
 20
32.5231479284
 30
0.0
 41
3.0
 42
3.0
 43
3.0
  0
INSERT
  5
229
100
AcDbEntity
  8
0
100
AcDbBlockReference
 62
7
  6
CONTINUOUS
  2
_FILLED
 10
-52.4770068884
 20
32.5231479284
 30
0.0
 41
3.0
 42
3.0
 43
3.0
 50
180.0
  0
ENDBLK
  5
22A
100
AcDbEntity
  8
0
  6
BYBLOCK
 62
0
100
AcDbBlockEnd
  0
BLOCK
  5
22B
100
AcDbEntity
  8
0
100
AcDbBlockBegin
 62
7
  6
CONTINUOUS
  2
*D1
 70
65
 10
0.0
 20
0.0
 30
0.0
  3
*D1
  1

  0
MTEXT
  5
22C
100
AcDbEntity
  8
0
100
AcDbMText
 62
7
  6
CONTINUOUS
  7
STANDARD
 71
2
 72
1
 10
-46.1770068884
 20
46.2963105905
 30
0.0
 11
1.0
 21
0.0
 31
0.0
 73
2
 44
0.9
  1
{\ftxt;\W0.0001;\H0.0001;\~}{\ftxt;\W2.7857142857;\H3.0; }{\ftxt;\W0.0001;\H0.0001;\~}
 40
3.0
 41
12.5357142857
  0
LINE
  5
22D
100
AcDbEntity
  8
0
100
AcDbLine
 62
7
  6
CONTINUOUS
 10
-29.3770068884
 20
2.1
 30
0.0
 11
-29.3770068884
 21
44.0463105905
 31
0.0
  0
LINE
  5
22E
100
AcDbEntity
  8
0
100
AcDbLine
 62
7
  6
CONTINUOUS
 10
-62.9770068884
 20
0.5
 30
0.0
 11
-62.9770068884
 21
44.0463105905
 31
0.0
  0
LINE
  5
22F
100
AcDbEntity
  8
0
100
AcDbLine
 62
7
  6
CONTINUOUS
 10
-29.3770068884
 20
42.5463105905
 30
0.0
 11
-46.1770068884
 21
42.5463105905
 31
0.0
  0
LINE
  5
230
100
AcDbEntity
  8
0
100
AcDbLine
 62
7
  6
CONTINUOUS
 10
-62.9770068884
 20
42.5463105905
 30
0.0
 11
-46.1770068884
 21
42.5463105905
 31
0.0
  0
INSERT
  5
231
100
AcDbEntity
  8
0
100
AcDbBlockReference
 62
7
  6
CONTINUOUS
  2
_FILLED
 10
-29.3770068884
 20
42.5463105905
 30
0.0
 41
3.0
 42
3.0
 43
3.0
  0
INSERT
  5
232
100
AcDbEntity
  8
0
100
AcDbBlockReference
 62
7
  6
CONTINUOUS
  2
_FILLED
 10
-62.9770068884
 20
42.5463105905
 30
0.0
 41
3.0
 42
3.0
 43
3.0
 50
180.0
  0
ENDBLK
  5
233
100
AcDbEntity
  8
0
  6
BYBLOCK
 62
0
100
AcDbBlockEnd
  0
BLOCK
  5
234
100
AcDbEntity
  8
0
100
AcDbBlockBegin
 62
7
  6
CONTINUOUS
  2
*D2
 70
65
 10
0.0
 20
0.0
 30
0.0
  3
*D2
  1

  0
MTEXT
  5
235
100
AcDbEntity
  8
0
100
AcDbMText
 62
7
  6
CONTINUOUS
  7
STANDARD
 71
2
 72
1
 10
0.0
 20
36.2268464054
 30
0.0
 11
1.0
 21
0.0
 31
0.0
 73
2
 44
0.9
  1
{\ftxt;\W0.0001;\H0.0001;\~}{\ftxt;\W2.8571428571;\H3.0; }{\ftxt;\W0.0001;\H0.0001;\~}
 40
3.0
 41
12.8571428571
  0
LINE
  5
236
100
AcDbEntity
  8
0
100
AcDbLine
 62
7
  6
CONTINUOUS
 10
-11.15
 20
22.3911779406
 30
0.0
 11
-11.15
 21
33.9768464054
 31
0.0
  0
LINE
  5
237
100
AcDbEntity
  8
0
100
AcDbLine
 62
7
  6
CONTINUOUS
 10
11.15
 20
22.3911779406
 30
0.0
 11
11.15
 21
33.9768464054
 31
0.0
  0
LINE
  5
238
100
AcDbEntity
  8
0
100
AcDbLine
 62
7
  6
CONTINUOUS
 10
-11.15
 20
32.4768464054
 30
0.0
 11
0.0
 21
32.4768464054
 31
0.0
  0
LINE
  5
239
100
AcDbEntity
  8
0
100
AcDbLine
 62
7
  6
CONTINUOUS
 10
11.15
 20
32.4768464054
 30
0.0
 11
0.0
 21
32.4768464054
 31
0.0
  0
INSERT
  5
23A
100
AcDbEntity
  8
0
100
AcDbBlockReference
 62
7
  6
CONTINUOUS
  2
_FILLED
 10
-11.15
 20
32.4768464054
 30
0.0
 41
3.0
 42
3.0
 43
3.0
 50
180.0
  0
INSERT
  5
23B
100
AcDbEntity
  8
0
100
AcDbBlockReference
 62
7
  6
CONTINUOUS
  2
_FILLED
 10
11.15
 20
32.4768464054
 30
0.0
 41
3.0
 42
3.0
 43
3.0
  0
ENDBLK
  5
23C
100
AcDbEntity
  8
0
  6
BYBLOCK
 62
0
100
AcDbBlockEnd
  0
BLOCK
  5
23D
100
AcDbEntity
  8
0
100
AcDbBlockBegin
 62
7
  6
CONTINUOUS
  2
*D3
 70
65
 10
0.0
 20
0.0
 30
0.0
  3
*D3
  1

  0
MTEXT
  5
23E
100
AcDbEntity
  8
0
100
AcDbMText
 62
7
  6
CONTINUOUS
  7
STANDARD
 71
2
 72
1
 10
15.4663197633
 20
0.0
 30
0.0
 11
0.0
 21
1.0
 31
0.0
 73
2
 44
0.9
  1
{\ftxt;\W0.0001;\H0.0001;\~}{\ftxt;\W1.5714285714;\H3.0; }{\ftxt;\W0.0001;\H0.0001;\~}
 40
3.0
 41
7.0714285714
  0
LINE
  5
23F
100
AcDbEntity
  8
0
100
AcDbLine
 62
7
  6
CONTINUOUS
 10
10.9000042308
 20
24.5
 30
0.0
 11
20.7163197633
 21
24.5
 31
0.0
  0
LINE
  5
240
100
AcDbEntity
  8
0
100
AcDbLine
 62
7
  6
CONTINUOUS
 10
10.9000042308
 20
-24.5
 30
0.0
 11
20.7163197633
 21
-24.5
 31
0.0
  0
LINE
  5
241
100
AcDbEntity
  8
0
100
AcDbLine
 62
7
  6
CONTINUOUS
 10
19.2163197633
 20
24.5
 30
0.0
 11
19.2163197633
 21
0.0
 31
0.0
  0
LINE
  5
242
100
AcDbEntity
  8
0
100
AcDbLine
 62
7
  6
CONTINUOUS
 10
19.2163197633
 20
-24.5
 30
0.0
 11
19.2163197633
 21
0.0
 31
0.0
  0
INSERT
  5
243
100
AcDbEntity
  8
0
100
AcDbBlockReference
 62
7
  6
CONTINUOUS
  2
_FILLED
 10
19.2163197633
 20
24.5
 30
0.0
 41
3.0
 42
3.0
 43
3.0
 50
90.0
  0
INSERT
  5
244
100
AcDbEntity
  8
0
100
AcDbBlockReference
 62
7
  6
CONTINUOUS
  2
_FILLED
 10
19.2163197633
 20
-24.5
 30
0.0
 41
3.0
 42
3.0
 43
3.0
 50
270.0
  0
ENDBLK
  5
245
100
AcDbEntity
  8
0
  6
BYBLOCK
 62
0
100
AcDbBlockEnd
  0
ENDSEC
  0
SECTION
  2
ENTITIES
  0
DIMENSION
  5
246
100
AcDbEntity
  8
0
100
AcDbDimension
 62
7
  6
CONTINUOUS
  2
*D0
 10
-52.4770068884
 20
32.5231479284
 30
0.0
 11
-41.3555784149
 21
32.5231479284
 31
0.0
 70
160
 71
2
 72
2
 41
0.9
 42
23.1
  1
{\ftxt;\W0.0001;\H0.0001;\~}{\ftxt;\W2.6428571429;\H3.0; }{\ftxt;\W0.0001;\H0.0001;\~}
  3
DIMSTYLE_1
100
AcDbAlignedDimension
 13
-29.3770068884
 23
1.6
 33
0.0
 14
-52.4770068884
 24
24.2456323968
 34
0.0
 50
180.0
100
AcDbRotatedDimension
  0
DIMENSION
  5
247
100
AcDbEntity
  8
0
100
AcDbDimension
 62
7
  6
CONTINUOUS
  2
*D1
 10
-62.9770068884
 20
42.5463105905
 30
0.0
 11
-46.6055792786
 21
42.5463105905
 31
0.0
 70
160
 71
2
 72
2
 41
0.9
 42
33.6
  1
{\ftxt;\W0.0001;\H0.0001;\~}{\ftxt;\W2.7857142857;\H3.0; }{\ftxt;\W0.0001;\H0.0001;\~}
  3
DIMSTYLE_1
100
AcDbAlignedDimension
 13
-29.3770068884
 23
1.6
 33
0.0
 14
-62.9770068884
 24
-0.0
 34
0.0
 50
180.0
100
AcDbRotatedDimension
  0
DIMENSION
  5
248
100
AcDbEntity
  8
0
100
AcDbDimension
 62
7
  6
CONTINUOUS
  2
*D2
 10
11.15
 20
32.4768464054
 30
0.0
 11
-0.4285714664
 21
32.4768464054
 31
0.0
 70
160
 71
2
 72
2
 41
0.9
 42
22.3
  1
{\ftxt;\W0.0001;\H0.0001;\~}{\ftxt;\W2.8571428571;\H3.0; }{\ftxt;\W0.0001;\H0.0001;\~}
  3
DIMSTYLE_1
100
AcDbAlignedDimension
 13
-11.15
 23
21.8911779406
 33
0.0
 14
11.15
 24
21.8911779406
 34
0.0
100
AcDbRotatedDimension
  0
DIMENSION
  5
249
100
AcDbEntity
  8
0
100
AcDbDimension
 62
7
  6
CONTINUOUS
  2
*D3
 10
19.2163197633
 20
-24.5
 30
0.0
 11
19.2163197633
 21
-0.4285714553
 31
0.0
 70
160
 71
2
 72
2
 41
0.9
 42
49.0
  1
{\ftxt;\W0.0001;\H0.0001;\~}{\ftxt;\W1.5714285714;\H3.0; }{\ftxt;\W0.0001;\H0.0001;\~}
  3
DIMSTYLE_1
100
AcDbAlignedDimension
 13
10.4000042308
 23
24.5
 33
0.0
 14
10.4000042308
 24
-24.5
 34
0.0
 50
270.0
100
AcDbRotatedDimension
  0
LWPOLYLINE
  5
24A
100
AcDbEntity
  8
0
100
AcDbPolyline
 62
7
  6
CONTINUOUS
 90
5
 70
0
 43
0.3500000087
 10
2.9999999987
 20
34.9411304108
 10
3.3571429762
 20
35.1554169434
 10
3.3571429762
 20
35.7982765411
 10
2.9999999987
 20
36.226845343
 10
2.142857199
 20
36.226845343
  0
LINE
  5
24B
100
AcDbEntity
  8
RACCORDO
100
AcDbLine
 62
250
  6
CONTINUOUS
 10
-8.4999957692
 20
24.5
 30
0.0
 11
-8.5130943479
 21
24.4869014213
 31
0.0
  0
LINE
  5
24C
100
AcDbEntity
  8
RACCORDO
100
AcDbLine
 62
7
  6
CONTINUOUS
 10
-10.8560139878
 20
22.3472253447
 30
0.0
 11
-10.8735170098
 21
22.3384745002
 31
0.0
  0
LINE
  5
24D
100
AcDbEntity
  8
RACCORDO
100
AcDbLine
 62
250
  6
CONTINUOUS
 10
-11.1325830976
 20
21.8998857286
 30
0.0
 11
-11.15
 21
21.8911779406
 31
0.0
  0
LINE
  5
24E
100
AcDbEntity
  8
RACCORDO
100
AcDbLine
 62
7
  6
CONTINUOUS
 10
10.4000042308
 20
-24.5
 30
0.0
 11
8.4999957692
 21
-24.5
 31
0.0
  0
LINE
  5
24F
100
AcDbEntity
  8
RACCORDO
100
AcDbLine
 62
7
  6
CONTINUOUS
 10
-8.4999957692
 20
-24.5
 30
0.0
 11
-10.4000042308
 21
-24.5
 31
0.0
  0
LINE
  5
250
100
AcDbEntity
  8
RACCORDO
100
AcDbLine
 62
250
  6
CONTINUOUS
 10
-10.3869056521
 20
-24.4869014213
 30
0.0
 11
-8.5130943479
 21
-24.4869014213
 31
0.0
  0
LINE
  5
251
100
AcDbEntity
  8
RACCORDO
100
AcDbLine
 62
250
  6
CONTINUOUS
 10
8.5130943479
 20
-24.4869014213
 30
0.0
 11
10.3869056521
 21
-24.4869014213
 31
0.0
  0
LINE
  5
252
100
AcDbEntity
  8
RACCORDO
100
AcDbLine
 62
250
  6
CONTINUOUS
 10
8.2630985787
 20
-24.2369056521
 30
0.0
 11
10.6369014213
 21
-24.2369056521
 31
0.0
  0
LINE
  5
253
100
AcDbEntity
  8
RACCORDO
100
AcDbLine
 62
250
  6
CONTINUOUS
 10
-8.2630985787
 20
-24.2369056521
 30
0.0
 11
-10.6369014213
 21
-24.2369056521
 31
0.0
  0
LINE
  5
254
100
AcDbEntity
  8
RACCORDO
100
AcDbLine
 62
250
  6
CONTINUOUS
 10
8.2630985787
 20
-23.8443375673
 30
0.0
 11
10.6369014213
 21
-23.8443375673
 31
0.0
  0
LINE
  5
255
100
AcDbEntity
  8
RACCORDO
100
AcDbLine
 62
250
  6
CONTINUOUS
 10
-8.2630985787
 20
-23.8443375673
 30
0.0
 11
-10.6369014213
 21
-23.8443375673
 31
0.0
  0
LINE
  5
256
100
AcDbEntity
  8
DRAFT
100
AcDbLine
 62
7
  6
CONTINUOUS
 10
4.4
 20
-23.8
 30
0.0
 11
-4.4
 21
-23.8
 31
0.0
  0
LINE
  5
257
100
AcDbEntity
  8
RACCORDO
100
AcDbLine
 62
250
  6
CONTINUOUS
 10
-4.2962073137
 20
-23.7953389668
 30
0.0
 11
4.2962073137
 21
-23.7953389668
 31
0.0
  0
LINE
  5
258
100
AcDbEntity
  8
RACCORDO
100
AcDbLine
 62
250
  6
CONTINUOUS
 10
10.3869056521
 20
-23.6278312164
 30
0.0
 11
8.5130943479
 21
-23.6278312164
 31
0.0
  0
LINE
  5
259
100
AcDbEntity
  8
RACCORDO
100
AcDbLine
 62
250
  6
CONTINUOUS
 10
-8.5130943479
 20
-23.6278312164
 30
0.0
 11
-10.3869056521
 21
-23.6278312164
 31
0.0
  0
LINE
  5
25A
100
AcDbEntity
  8
RACCORDO
100
AcDbLine
 62
250
  6
CONTINUOUS
 10
-3.8970826234
 20
-23.5953423515
 30
0.0
 11
3.8970826234
 21
-23.5953423515
 31
0.0
  0
LINE
  5
25B
100
AcDbEntity
  8
RACCORDO
100
AcDbLine
 62
7
  6
CONTINUOUS
 10
-10.3919962532
 20
-23.1226497308
 30
0.0
 11
-8.5080037468
 21
-23.1226497308
 31
0.0
  0
LINE
  5
25C
100
AcDbEntity
  8
RACCORDO
100
AcDbLine
 62
7
  6
CONTINUOUS
 10
8.5080037468
 20
-23.1226497308
 30
0.0
 11
10.3919962532
 21
-23.1226497308
 31
0.0
  0
LINE
  5
25D
100
AcDbEntity
  8
RACCORDO
100
AcDbLine
 62
7
  6
CONTINUOUS
 10
-10.8735170098
 20
-22.3384745002
 30
0.0
 11
-10.8560139878
 21
-22.3472253447
 31
0.0
  0
LINE
  5
25E
100
AcDbEntity
  8
RACCORDO
100
AcDbLine
 62
250
  6
CONTINUOUS
 10
-11.15
 20
-21.8911779406
 30
0.0
 11
-11.1325830976
 21
-21.8998857286
 31
0.0
  0
LINE
  5
25F
100
AcDbEntity
  8
RACCORDO
100
AcDbLine
 62
250
  6
CONTINUOUS
 10
-8.4999957692
 20
-24.5
 30
0.0
 11
-8.5130943479
 21
-24.4869014213
 31
0.0
  0
LINE
  5
260
100
AcDbEntity
  8
RACCORDO
100
AcDbLine
 62
250
  6
CONTINUOUS
 10
-8.25
 20
24.2500042308
 30
0.0
 11
-8.2630985787
 21
24.2369056521
 31
0.0
  0
LINE
  5
261
100
AcDbEntity
  8
DRAFT
100
AcDbLine
 62
7
  6
CONTINUOUS
 10
8.25
 20
-22.4
 30
0.0
 11
4.4
 21
-22.4
 31
0.0
  0
LINE
  5
262
100
AcDbEntity
  8
DRAFT
100
AcDbLine
 62
7
  6
CONTINUOUS
 10
-4.4
 20
-22.4
 30
0.0
 11
-8.25
 21
-22.4
 31
0.0
  0
LINE
  5
263
100
AcDbEntity
  8
RACCORDO
100
AcDbLine
 62
7
  6
CONTINUOUS
 10
3.8970826234
 20
-22.3475922207
 30
0.0
 11
-3.8970826234
 21
-22.3475922207
 31
0.0
  0
LINE
  5
264
100
AcDbEntity
  8
RACCORDO
100
AcDbLine
 62
7
  6
CONTINUOUS
 10
-10.3927234819
 20
-22.3213883311
 30
0.0
 11
-8.5072765181
 21
-22.3213883311
 31
0.0
  0
LINE
  5
265
100
AcDbEntity
  8
RACCORDO
100
AcDbLine
 62
7
  6
CONTINUOUS
 10
8.5072765181
 20
-22.3213883311
 30
0.0
 11
10.3927234819
 21
-22.3213883311
 31
0.0
  0
LINE
  5
266
100
AcDbEntity
  8
RACCORDO
100
AcDbLine
 62
250
  6
CONTINUOUS
 10
-10.4992759622
 20
-21.998725222
 30
0.0
 11
10.4992759622
 21
-21.998725222
 31
0.0
  0
LINE
  5
267
100
AcDbEntity
  8
RACCORDO
100
AcDbLine
 62
250
  6
CONTINUOUS
 10
-8.25
 20
-24.2500042308
 30
0.0
 11
-8.2630985787
 21
-24.2369056521
 31
0.0
  0
LINE
  5
268
100
AcDbEntity
  8
RACCORDO
100
AcDbLine
 62
250
  6
CONTINUOUS
 10
-10.4827491915
 20
-20.5624683248
 30
0.0
 11
10.4827491915
 21
-20.5624683248
 31
0.0
  0
LINE
  5
269
100
AcDbEntity
  8
RACCORDO
100
AcDbLine
 62
7
  6
CONTINUOUS
 10
4.3970741618
 20
23.7970741618
 30
0.0
 11
4.4
 21
23.8
 31
0.0
  0
LINE
  5
26A
100
AcDbEntity
  8
RACCORDO
100
AcDbLine
 62
7
  6
CONTINUOUS
 10
4.3970741618
 20
-23.7970741618
 30
0.0
 11
4.4
 21
-23.8
 31
0.0
  0
LINE
  5
26B
100
AcDbEntity
  8
RACCORDO
100
AcDbLine
 62
250
  6
CONTINUOUS
 10
-10.6369014213
 20
-23.8443375673
 30
0.0
 11
-10.6427192511
 21
-23.2669872981
 31
0.0
  0
LINE
  5
26C
100
AcDbEntity
  8
RACCORDO
100
AcDbLine
 62
250
  6
CONTINUOUS
 10
-10.3869056521
 20
-23.6278312164
 30
0.0
 11
-10.3919962532
 21
-23.1226497308
 31
0.0
  0
LINE
  5
26D
100
AcDbEntity
  8
RACCORDO
100
AcDbLine
 62
7
  6
CONTINUOUS
 10
-11.15
 20
21.8911779406
 30
0.0
 11
-11.15
 21
-21.8911779406
 31
0.0
  0
LINE
  5
26E
100
AcDbEntity
  8
RACCORDO
100
AcDbLine
 62
7
  6
CONTINUOUS
 10
-10.65
 20
-22.399689968
 30
0.0
 11
-10.65
 21
-24.2500042308
 31
0.0
  0
LINE
  5
26F
100
AcDbEntity
  8
RACCORDO
100
AcDbLine
 62
7
  6
CONTINUOUS
 10
-10.65
 20
22.399689968
 30
0.0
 11
-10.65
 21
24.2500042308
 31
0.0
  0
LINE
  5
270
100
AcDbEntity
  8
RACCORDO
100
AcDbLine
 62
250
  6
CONTINUOUS
 10
-10.6427192511
 20
23.2669872981
 30
0.0
 11
-10.6427192511
 21
22.3334109614
 31
0.0
  0
LINE
  5
271
100
AcDbEntity
  8
RACCORDO
100
AcDbLine
 62
250
  6
CONTINUOUS
 10
-10.6427192511
 20
-22.3334109614
 30
0.0
 11
-10.6427192511
 21
-23.2669872981
 31
0.0
  0
LINE
  5
272
100
AcDbEntity
  8
RACCORDO
100
AcDbLine
 62
250
  6
CONTINUOUS
 10
-10.6369014213
 20
24.2369056521
 30
0.0
 11
-10.6369014213
 21
23.8443375673
 31
0.0
  0
LINE
  5
273
100
AcDbEntity
  8
RACCORDO
100
AcDbLine
 62
250
  6
CONTINUOUS
 10
-10.6369014213
 20
-23.8443375673
 30
0.0
 11
-10.6369014213
 21
-24.2369056521
 31
0.0
  0
LINE
  5
274
100
AcDbEntity
  8
RACCORDO
100
AcDbLine
 62
250
  6
CONTINUOUS
 10
-10.6427192511
 20
23.2669872981
 30
0.0
 11
-10.6369014213
 21
23.8443375673
 31
0.0
  0
LINE
  5
275
100
AcDbEntity
  8
RACCORDO
100
AcDbLine
 62
250
  6
CONTINUOUS
 10
-10.3919962532
 20
23.1226497308
 30
0.0
 11
-10.3869056521
 21
23.6278312164
 31
0.0
  0
LINE
  5
276
100
AcDbEntity
  8
RACCORDO
100
AcDbLine
 62
7
  6
CONTINUOUS
 10
-8.25
 20
22.4
 30
0.0
 11
-8.2572807489
 21
22.3344140523
 31
0.0
  0
LINE
  5
277
100
AcDbEntity
  8
RACCORDO
100
AcDbLine
 62
7
  6
CONTINUOUS
 10
-8.25
 20
-22.4
 30
0.0
 11
-8.2572807489
 21
-22.3344140523
 31
0.0
  0
LINE
  5
278
100
AcDbEntity
  8
RACCORDO
100
AcDbLine
 62
250
  6
CONTINUOUS
 10
-10.3927234819
 20
23.1226497308
 30
0.0
 11
-10.3927234819
 21
22.3213883311
 31
0.0
  0
LINE
  5
279
100
AcDbEntity
  8
RACCORDO
100
AcDbLine
 62
250
  6
CONTINUOUS
 10
-10.3927234819
 20
-22.3213883311
 30
0.0
 11
-10.3927234819
 21
-23.1226497308
 31
0.0
  0
LINE
  5
27A
100
AcDbEntity
  8
RACCORDO
100
AcDbLine
 62
250
  6
CONTINUOUS
 10
-10.3869056521
 20
-23.6278312164
 30
0.0
 11
-10.3869056521
 21
-24.4869014213
 31
0.0
  0
LINE
  5
27B
100
AcDbEntity
  8
RACCORDO
100
AcDbLine
 62
250
  6
CONTINUOUS
 10
-10.3869056521
 20
23.6278312164
 30
0.0
 11
-10.3869056521
 21
24.4869014213
 31
0.0
  0
LINE
  5
27C
100
AcDbEntity
  8
ASSI
100
AcDbLine
 62
7
  6
CONTINUOUS
 10
-9.5
 20
15.6
 30
0.0
 11
-9.5
 21
22.1379611036
 31
0.0
  0
LINE
  5
27D
100
AcDbEntity
  8
RACCORDO
100
AcDbLine
 62
7
  6
CONTINUOUS
 10
-9.45
 20
15.85
 30
0.0
 11
-9.45
 21
21.9496569135
 31
0.0
  0
LINE
  5
27E
100
AcDbEntity
  8
RACCORDO
100
AcDbLine
 62
250
  6
CONTINUOUS
 10
-9.2
 20
15.7031206241
 30
0.0
 11
-9.2
 21
22.2
 31
0.0
  0
LWPOLYLINE
  5
27F
100
AcDbEntity
  8
0
100
AcDbPolyline
 62
7
  6
CONTINUOUS
 90
3
 70
0
 43
0.3500000087
 10
1.142857155
 20
33.5125606323
 10
1.0714285995
 20
33.2982740997
 10
0.9285714218
 20
33.012560144
  0
LINE
  5
280
100
AcDbEntity
  8
RACCORDO
100
AcDbLine
 62
250
  6
CONTINUOUS
 10
10.4000042308
 20
24.5
 30
0.0
 11
10.3869056521
 21
24.4869014213
 31
0.0
  0
LINE
  5
281
100
AcDbEntity
  8
RACCORDO
100
AcDbLine
 62
250
  6
CONTINUOUS
 10
10.65
 20
24.2500042308
 30
0.0
 11
10.6369014213
 21
24.2369056521
 31
0.0
  0
LINE
  5
282
100
AcDbEntity
  8
RACCORDO
100
AcDbLine
 62
250
  6
CONTINUOUS
 10
10.4000042308
 20
-24.5
 30
0.0
 11
10.3869056521
 21
-24.4869014213
 31
0.0
  0
LINE
  5
283
100
AcDbEntity
  8
RACCORDO
100
AcDbLine
 62
250
  6
CONTINUOUS
 10
10.65
 20
-24.2500042308
 30
0.0
 11
10.6369014213
 21
-24.2369056521
 31
0.0
  0
LINE
  5
284
100
AcDbEntity
  8
RACCORDO
100
AcDbLine
 62
250
  6
CONTINUOUS
 10
-8.5130943479
 20
23.6278312164
 30
0.0
 11
-8.5080037468
 21
23.1226497308
 31
0.0
  0
LINE
  5
285
100
AcDbEntity
  8
RACCORDO
100
AcDbLine
 62
250
  6
CONTINUOUS
 10
-8.2630985787
 20
23.8443375673
 30
0.0
 11
-8.2572807489
 21
23.2669872981
 31
0.0
  0
LINE
  5
286
100
AcDbEntity
  8
RACCORDO
100
AcDbLine
 62
250
  6
CONTINUOUS
 10
-8.5130943479
 20
-23.6278312164
 30
0.0
 11
-8.5130943479
 21
-24.4869014213
 31
0.0
  0
LINE
  5
287
100
AcDbEntity
  8
RACCORDO
100
AcDbLine
 62
250
  6
CONTINUOUS
 10
-8.5130943479
 20
23.6278312164
 30
0.0
 11
-8.5130943479
 21
24.4869014213
 31
0.0
  0
LINE
  5
288
100
AcDbEntity
  8
RACCORDO
100
AcDbLine
 62
250
  6
CONTINUOUS
 10
-8.5072765181
 20
23.1226497308
 30
0.0
 11
-8.5072765181
 21
22.3213883311
 31
0.0
  0
LINE
  5
289
100
AcDbEntity
  8
RACCORDO
100
AcDbLine
 62
250
  6
CONTINUOUS
 10
-8.5072765181
 20
-22.3213883311
 30
0.0
 11
-8.5072765181
 21
-23.1226497308
 31
0.0
  0
LINE
  5
28A
100
AcDbEntity
  8
RACCORDO
100
AcDbLine
 62
250
  6
CONTINUOUS
 10
-8.2630985787
 20
-24.2369056521
 30
0.0
 11
-8.2630985787
 21
-23.8443375673
 31
0.0
  0
LINE
  5
28B
100
AcDbEntity
  8
RACCORDO
100
AcDbLine
 62
250
  6
CONTINUOUS
 10
-8.2630985787
 20
23.8443375673
 30
0.0
 11
-8.2630985787
 21
24.2369056521
 31
0.0
  0
LINE
  5
28C
100
AcDbEntity
  8
RACCORDO
100
AcDbLine
 62
250
  6
CONTINUOUS
 10
-8.2572807489
 20
23.2669872981
 30
0.0
 11
-8.2572807489
 21
22.3344140523
 31
0.0
  0
LINE
  5
28D
100
AcDbEntity
  8
RACCORDO
100
AcDbLine
 62
250
  6
CONTINUOUS
 10
-8.2572807489
 20
-22.3344140523
 30
0.0
 11
-8.2572807489
 21
-23.2669872981
 31
0.0
  0
LINE
  5
28E
100
AcDbEntity
  8
RACCORDO
100
AcDbLine
 62
7
  6
CONTINUOUS
 10
-8.25
 20
-22.4
 30
0.0
 11
-8.25
 21
-24.2500042308
 31
0.0
  0
LINE
  5
28F
100
AcDbEntity
  8
RACCORDO
100
AcDbLine
 62
7
  6
CONTINUOUS
 10
-8.25
 20
22.4
 30
0.0
 11
-8.25
 21
24.2500042308
 31
0.0
  0
LINE
  5
290
100
AcDbEntity
  8
RACCORDO
100
AcDbLine
 62
250
  6
CONTINUOUS
 10
-6.9594850761
 20
3.9133984746
 30
0.0
 11
-6.9593993763
 21
-5.0144137901
 31
0.0
  0
LINE
  5
291
100
AcDbEntity
  8
RACCORDO
100
AcDbLine
 62
250
  6
CONTINUOUS
 10
-8.5080037468
 20
-23.1226497308
 30
0.0
 11
-8.5130943479
 21
-23.6278312164
 31
0.0
  0
LINE
  5
292
100
AcDbEntity
  8
RACCORDO
100
AcDbLine
 62
250
  6
CONTINUOUS
 10
-8.2572807489
 20
-23.2669872981
 30
0.0
 11
-8.2630985787
 21
-23.8443375673
 31
0.0
  0
LINE
  5
293
100
AcDbEntity
  8
RACCORDO
100
AcDbLine
 62
250
  6
CONTINUOUS
 10
-3.0090651868
 20
-7.967032219
 30
0.0
 11
3.0090651868
 21
-7.967032219
 31
0.0
  0
LINE
  5
294
100
AcDbEntity
  8
RACCORDO
100
AcDbLine
 62
250
  6
CONTINUOUS
 10
-2.5090842253
 20
-7.4590842253
 30
0.0
 11
2.5090842253
 21
-7.4590842253
 31
0.0
  0
LINE
  5
295
100
AcDbEntity
  8
DRAFT
100
AcDbLine
 62
7
  6
CONTINUOUS
 10
-2.5
 20
-7.45
 30
0.0
 11
2.5
 21
-7.45
 31
0.0
  0
LINE
  5
296
100
AcDbEntity
  8
0
100
AcDbLine
 62
7
  6
CONTINUOUS
 10
-2.05
 20
-7.25
 30
0.0
 11
2.05
 21
-7.25
 31
0.0
  0
LINE
  5
297
100
AcDbEntity
  8
ASSI
100
AcDbLine
 62
7
  6
CONTINUOUS
 10
-2.05
 20
-7.1
 30
0.0
 11
-1.3678601086
 21
-7.1
 31
0.0
  0
LINE
  5
298
100
AcDbEntity
  8
RACCORDO
100
AcDbLine
 62
7
  6
CONTINUOUS
 10
-1.4
 20
-7.1
 30
0.0
 11
1.4
 21
-7.1
 31
0.0
  0
LINE
  5
299
100
AcDbEntity
  8
ASSI
100
AcDbLine
 62
7
  6
CONTINUOUS
 10
1.4120984603
 20
-7.1
 30
0.0
 11
2.05
 21
-7.1
 31
0.0
  0
LINE
  5
29A
100
AcDbEntity
  8
DRAFT
100
AcDbLine
 62
7
  6
CONTINUOUS
 10
-6.45
 20
3.4
 30
0.0
 11
-6.45
 21
-4.5
 31
0.0
  0
LINE
  5
29B
100
AcDbEntity
  8
0
100
AcDbLine
 62
7
  6
CONTINUOUS
 10
-6.0
 20
2.7
 30
0.0
 11
-6.0
 21
-4.2
 31
0.0
  0
LINE
  5
29C
100
AcDbEntity
  8
RACCORDO
100
AcDbLine
 62
250
  6
CONTINUOUS
 10
-1.4
 20
-6.8520944533
 30
0.0
 11
1.4
 21
-6.8520944533
 31
0.0
  0
LINE
  5
29D
100
AcDbEntity
  8
RACCORDO
100
AcDbLine
 62
250
  6
CONTINUOUS
 10
-4.1592369883
 20
-6.6158528412
 30
0.0
 11
-3.0092369883
 21
-6.6158528412
 31
0.0
  0
LINE
  5
29E
100
AcDbEntity
  8
RACCORDO
100
AcDbLine
 62
250
  6
CONTINUOUS
 10
3.0092369883
 20
-6.6158528412
 30
0.0
 11
4.1592369883
 21
-6.6158528412
 31
0.0
  0
LINE
  5
29F
100
AcDbEntity
  8
RACCORDO
100
AcDbLine
 62
250
  6
CONTINUOUS
 10
-3.6592560268
 20
-6.1092560268
 30
0.0
 11
-2.5092560268
 21
-6.1092560268
 31
0.0
  0
LINE
  5
2A0
100
AcDbEntity
  8
RACCORDO
100
AcDbLine
 62
250
  6
CONTINUOUS
 10
2.5092560268
 20
-6.1092560268
 30
0.0
 11
3.6592560268
 21
-6.1092560268
 31
0.0
  0
LINE
  5
2A1
100
AcDbEntity
  8
DRAFT
100
AcDbLine
 62
7
  6
CONTINUOUS
 10
-3.65
 20
-6.1
 30
0.0
 11
-2.5
 21
-6.1
 31
0.0
  0
LINE
  5
2A2
100
AcDbEntity
  8
DRAFT
100
AcDbLine
 62
7
  6
CONTINUOUS
 10
2.5
 20
-6.1
 30
0.0
 11
3.65
 21
-6.1
 31
0.0
  0
LINE
  5
2A3
100
AcDbEntity
  8
0
100
AcDbLine
 62
7
  6
CONTINUOUS
 10
-3.15
 20
-5.9
 30
0.0
 11
-2.05
 21
-5.9
 31
0.0
  0
LINE
  5
2A4
100
AcDbEntity
  8
0
100
AcDbLine
 62
7
  6
CONTINUOUS
 10
2.05
 20
-5.9
 30
0.0
 11
3.15
 21
-5.9
 31
0.0
  0
LINE
  5
2A5
100
AcDbEntity
  8
DRAFT
100
AcDbLine
 62
7
  6
CONTINUOUS
 10
-4.4
 20
-23.8
 30
0.0
 11
-4.4
 21
-22.4
 31
0.0
  0
LINE
  5
2A6
100
AcDbEntity
  8
DRAFT
100
AcDbLine
 62
7
  6
CONTINUOUS
 10
-4.4
 20
22.4
 30
0.0
 11
-4.4
 21
23.8
 31
0.0
  0
LINE
  5
2A7
100
AcDbEntity
  8
RACCORDO
100
AcDbLine
 62
250
  6
CONTINUOUS
 10
-4.3970741618
 20
23.7970741618
 30
0.0
 11
-4.3970741618
 21
22.3736436632
 31
0.0
  0
LINE
  5
2A8
100
AcDbEntity
  8
RACCORDO
100
AcDbLine
 62
250
  6
CONTINUOUS
 10
-4.3970741618
 20
-22.3736436632
 30
0.0
 11
-4.3970741618
 21
-23.7970741618
 31
0.0
  0
LINE
  5
2A9
100
AcDbEntity
  8
RACCORDO
100
AcDbLine
 62
250
  6
CONTINUOUS
 10
-4.1593993763
 20
-5.0144137901
 30
0.0
 11
-4.1592369883
 21
-6.6158528412
 31
0.0
  0
LINE
  5
2AA
100
AcDbEntity
  8
RACCORDO
100
AcDbLine
 62
250
  6
CONTINUOUS
 10
-3.8970826234
 20
23.5953423515
 30
0.0
 11
-3.8970826234
 21
22.3475922207
 31
0.0
  0
LINE
  5
2AB
100
AcDbEntity
  8
RACCORDO
100
AcDbLine
 62
250
  6
CONTINUOUS
 10
-3.8970826234
 20
-22.3475922207
 30
0.0
 11
-3.8970826234
 21
-23.5953423515
 31
0.0
  0
LINE
  5
2AC
100
AcDbEntity
  8
DRAFT
100
AcDbLine
 62
7
  6
CONTINUOUS
 10
-3.65
 20
-4.5
 30
0.0
 11
-3.65
 21
-6.1
 31
0.0
  0
LINE
  5
2AD
100
AcDbEntity
  8
0
100
AcDbLine
 62
7
  6
CONTINUOUS
 10
-3.6
 20
2.7
 30
0.0
 11
-3.6
 21
-0.25
 31
0.0
  0
LINE
  5
2AE
100
AcDbEntity
  8
RACCORDO
100
AcDbLine
 62
250
  6
CONTINUOUS
 10
-11.1325830976
 20
-21.8998857286
 30
0.0
 11
-10.9991998097
 21
-21.4994104546
 31
0.0
  0
LINE
  5
2AF
100
AcDbEntity
  8
RACCORDO
100
AcDbLine
 62
250
  6
CONTINUOUS
 10
-6.9593993763
 20
-5.0144137901
 30
0.0
 11
-4.1593993763
 21
-5.0144137901
 31
0.0
  0
LINE
  5
2B0
100
AcDbEntity
  8
RACCORDO
100
AcDbLine
 62
250
  6
CONTINUOUS
 10
4.1593993763
 20
-5.0144137901
 30
0.0
 11
6.9593993763
 21
-5.0144137901
 31
0.0
  0
LINE
  5
2B1
100
AcDbEntity
  8
RACCORDO
100
AcDbLine
 62
250
  6
CONTINUOUS
 10
-6.4594184148
 20
-4.5094184148
 30
0.0
 11
-3.6594184148
 21
-4.5094184148
 31
0.0
  0
LINE
  5
2B2
100
AcDbEntity
  8
RACCORDO
100
AcDbLine
 62
250
  6
CONTINUOUS
 10
3.6594184148
 20
-4.5094184148
 30
0.0
 11
6.4594184148
 21
-4.5094184148
 31
0.0
  0
LINE
  5
2B3
100
AcDbEntity
  8
DRAFT
100
AcDbLine
 62
7
  6
CONTINUOUS
 10
-6.45
 20
-4.5
 30
0.0
 11
-3.65
 21
-4.5
 31
0.0
  0
LINE
  5
2B4
100
AcDbEntity
  8
DRAFT
100
AcDbLine
 62
7
  6
CONTINUOUS
 10
3.65
 20
-4.5
 30
0.0
 11
6.45
 21
-4.5
 31
0.0
  0
LINE
  5
2B5
100
AcDbEntity
  8
0
100
AcDbLine
 62
7
  6
CONTINUOUS
 10
6.0
 20
-4.2
 30
0.0
 11
-6.0
 21
-4.2
 31
0.0
  0
LINE
  5
2B6
100
AcDbEntity
  8
RACCORDO
100
AcDbLine
 62
7
  6
CONTINUOUS
 10
2.5
 20
-7.45
 30
0.0
 11
2.5090842253
 21
-7.4590842253
 31
0.0
  0
LINE
  5
2B7
100
AcDbEntity
  8
RACCORDO
100
AcDbLine
 62
250
  6
CONTINUOUS
 10
-10.9991998097
 20
21.4994104546
 30
0.0
 11
-11.1325830976
 21
21.8998857286
 31
0.0
  0
LINE
  5
2B8
100
AcDbEntity
  8
0
100
AcDbLine
 62
7
  6
CONTINUOUS
 10
-3.15
 20
-5.9
 30
0.0
 11
-3.15
 21
-2.05
 31
0.0
  0
LINE
  5
2B9
100
AcDbEntity
  8
0
100
AcDbLine
 62
7
  6
CONTINUOUS
 10
-3.05
 20
2.7
 30
0.0
 11
-3.05
 21
-0.25
 31
0.0
  0
LINE
  5
2BA
100
AcDbEntity
  8
RACCORDO
100
AcDbLine
 62
250
  6
CONTINUOUS
 10
-3.0092369883
 20
-6.6158528412
 30
0.0
 11
-3.0090651868
 21
-7.967032219
 31
0.0
  0
LINE
  5
2BB
100
AcDbEntity
  8
0
100
AcDbLine
 62
7
  6
CONTINUOUS
 10
-2.65
 20
2.7
 30
0.0
 11
-2.65
 21
-0.25
 31
0.0
  0
LINE
  5
2BC
100
AcDbEntity
  8
DRAFT
100
AcDbLine
 62
7
  6
CONTINUOUS
 10
-2.5
 20
-6.1
 30
0.0
 11
-2.5
 21
-7.45
 31
0.0
  0
LINE
  5
2BD
100
AcDbEntity
  8
RACCORDO
100
AcDbLine
 62
7
  6
CONTINUOUS
 10
-2.2
 20
-5.9
 30
0.0
 11
-2.2
 21
-4.2
 31
0.0
  0
LINE
  5
2BE
100
AcDbEntity
  8
0
100
AcDbLine
 62
7
  6
CONTINUOUS
 10
-2.1
 20
2.7
 30
0.0
 11
-2.1
 21
-0.25
 31
0.0
  0
LINE
  5
2BF
100
AcDbEntity
  8
0
100
AcDbLine
 62
7
  6
CONTINUOUS
 10
-2.05
 20
-5.9
 30
0.0
 11
-2.05
 21
-7.25
 31
0.0
  0
LINE
  5
2C0
100
AcDbEntity
  8
0
100
AcDbLine
 62
7
  6
CONTINUOUS
 10
-1.7
 20
2.7
 30
0.0
 11
-1.7
 21
-0.25
 31
0.0
  0
LINE
  5
2C1
100
AcDbEntity
  8
RACCORDO
100
AcDbLine
 62
7
  6
CONTINUOUS
 10
-4.4
 20
-22.4
 30
0.0
 11
-4.3970741618
 21
-22.3736436632
 31
0.0
  0
LINE
  5
2C2
100
AcDbEntity
  8
RACCORDO
100
AcDbLine
 62
250
  6
CONTINUOUS
 10
-10.4992759622
 20
-21.998725222
 30
0.0
 11
-10.60891534
 21
-22.3279108386
 31
0.0
  0
LINE
  5
2C3
100
AcDbEntity
  8
0
100
AcDbLine
 62
7
  6
CONTINUOUS
 10
-6.0
 20
-3.1
 30
0.0
 11
-3.15
 21
-3.1
 31
0.0
  0
LINE
  5
2C4
100
AcDbEntity
  8
0
100
AcDbLine
 62
7
  6
CONTINUOUS
 10
3.15
 20
-3.1
 30
0.0
 11
6.0
 21
-3.1
 31
0.0
  0
LINE
  5
2C5
100
AcDbEntity
  8
0
100
AcDbLine
 62
7
  6
CONTINUOUS
 10
-3.15
 20
-2.05
 30
0.0
 11
3.15
 21
-2.05
 31
0.0
  0
LINE
  5
2C6
100
AcDbEntity
  8
RACCORDO
100
AcDbLine
 62
7
  6
CONTINUOUS
 10
2.5
 20
-6.1
 30
0.0
 11
2.5092560268
 21
-6.1092560268
 31
0.0
  0
LINE
  5
2C7
100
AcDbEntity
  8
RACCORDO
100
AcDbLine
 62
7
  6
CONTINUOUS
 10
-6.45
 20
3.4
 30
0.0
 11
-6.4595041146
 21
3.4095041146
 31
0.0
  0
LINE
  5
2C8
100
AcDbEntity
  8
RACCORDO
100
AcDbLine
 62
7
  6
CONTINUOUS
 10
3.65
 20
-6.1
 30
0.0
 11
3.6592560268
 21
-6.1092560268
 31
0.0
  0
LINE
  5
2C9
100
AcDbEntity
  8
RACCORDO
100
AcDbLine
 62
250
  6
CONTINUOUS
 10
-10.60891534
 20
22.3279108386
 30
0.0
 11
-10.4992759622
 21
21.998725222
 31
0.0
  0
LINE
  5
2CA
100
AcDbEntity
  8
RACCORDO
100
AcDbLine
 62
7
  6
CONTINUOUS
 10
-4.4
 20
22.4
 30
0.0
 11
-4.3970741618
 21
22.3736436632
 31
0.0
  0
LINE
  5
2CB
100
AcDbEntity
  8
RACCORDO
100
AcDbLine
 62
7
  6
CONTINUOUS
 10
-1.4
 20
-7.1
 30
0.0
 11
-1.4
 21
-4.2
 31
0.0
  0
LINE
  5
2CC
100
AcDbEntity
  8
0
100
AcDbLine
 62
7
  6
CONTINUOUS
 10
-1.15
 20
2.7
 30
0.0
 11
-1.15
 21
-0.25
 31
0.0
  0
LINE
  5
2CD
100
AcDbEntity
  8
0
100
AcDbLine
 62
7
  6
CONTINUOUS
 10
-0.75
 20
2.7
 30
0.0
 11
-0.75
 21
-0.25
 31
0.0
  0
LINE
  5
2CE
100
AcDbEntity
  8
0
100
AcDbLine
 62
7
  6
CONTINUOUS
 10
-0.2
 20
2.7
 30
0.0
 11
-0.2
 21
-0.25
 31
0.0
  0
LINE
  5
2CF
100
AcDbEntity
  8
0
100
AcDbLine
 62
7
  6
CONTINUOUS
 10
0.2
 20
2.7
 30
0.0
 11
0.2
 21
-0.25
 31
0.0
  0
LINE
  5
2D0
100
AcDbEntity
  8
RACCORDO
100
AcDbLine
 62
7
  6
CONTINUOUS
 10
-6.45
 20
-4.5
 30
0.0
 11
-6.4594184148
 21
-4.5094184148
 31
0.0
  0
LWPOLYLINE
  5
2D1
100
AcDbEntity
  8
0
100
AcDbPolyline
 62
7
  6
CONTINUOUS
 90
2
 70
0
 43
0.3500000087
 10
18.4663187668
 20
-1.3571421616
 10
16.9663194336
 20
-1.3571421616
  0
LINE
  5
2D2
100
AcDbEntity
  8
0
100
AcDbLine
 62
7
  6
CONTINUOUS
 10
-3.6
 20
-0.25
 30
0.0
 11
-3.05
 21
-0.25
 31
0.0
  0
LINE
  5
2D3
100
AcDbEntity
  8
0
100
AcDbLine
 62
7
  6
CONTINUOUS
 10
-2.65
 20
-0.25
 30
0.0
 11
-2.1
 21
-0.25
 31
0.0
  0
LINE
  5
2D4
100
AcDbEntity
  8
0
100
AcDbLine
 62
7
  6
CONTINUOUS
 10
-1.7
 20
-0.25
 30
0.0
 11
-1.15
 21
-0.25
 31
0.0
  0
LINE
  5
2D5
100
AcDbEntity
  8
0
100
AcDbLine
 62
7
  6
CONTINUOUS
 10
-0.75
 20
-0.25
 30
0.0
 11
-0.2
 21
-0.25
 31
0.0
  0
LINE
  5
2D6
100
AcDbEntity
  8
0
100
AcDbLine
 62
7
  6
CONTINUOUS
 10
0.2
 20
-0.25
 30
0.0
 11
0.75
 21
-0.25
 31
0.0
  0
LINE
  5
2D7
100
AcDbEntity
  8
0
100
AcDbLine
 62
7
  6
CONTINUOUS
 10
1.15
 20
-0.25
 30
0.0
 11
1.7
 21
-0.25
 31
0.0
  0
LINE
  5
2D8
100
AcDbEntity
  8
0
100
AcDbLine
 62
7
  6
CONTINUOUS
 10
2.1
 20
-0.25
 30
0.0
 11
2.65
 21
-0.25
 31
0.0
  0
LINE
  5
2D9
100
AcDbEntity
  8
0
100
AcDbLine
 62
7
  6
CONTINUOUS
 10
3.05
 20
-0.25
 30
0.0
 11
3.6
 21
-0.25
 31
0.0
  0
LINE
  5
2DA
100
AcDbEntity
  8
RACCORDO
100
AcDbLine
 62
7
  6
CONTINUOUS
 10
3.65
 20
-4.5
 30
0.0
 11
3.6594184148
 21
-4.5094184148
 31
0.0
  0
LINE
  5
2DB
100
AcDbEntity
  8
0
100
AcDbLine
 62
7
  6
CONTINUOUS
 10
0.75
 20
2.7
 30
0.0
 11
0.75
 21
-0.25
 31
0.0
  0
LINE
  5
2DC
100
AcDbEntity
  8
0
100
AcDbLine
 62
7
  6
CONTINUOUS
 10
1.15
 20
2.7
 30
0.0
 11
1.15
 21
-0.25
 31
0.0
  0
LINE
  5
2DD
100
AcDbEntity
  8
RACCORDO
100
AcDbLine
 62
7
  6
CONTINUOUS
 10
1.4
 20
-7.1
 30
0.0
 11
1.4
 21
-4.2
 31
0.0
  0
LINE
  5
2DE
100
AcDbEntity
  8
0
100
AcDbLine
 62
7
  6
CONTINUOUS
 10
1.7
 20
2.7
 30
0.0
 11
1.7
 21
-0.25
 31
0.0
  0
LINE
  5
2DF
100
AcDbEntity
  8
RACCORDO
100
AcDbLine
 62
7
  6
CONTINUOUS
 10
4.4
 20
22.4
 30
0.0
 11
4.3970741618
 21
22.3736436632
 31
0.0
  0
LINE
  5
2E0
100
AcDbEntity
  8
RACCORDO
100
AcDbLine
 62
7
  6
CONTINUOUS
 10
-3.65
 20
-4.5
 30
0.0
 11
-3.6594184148
 21
-4.5094184148
 31
0.0
  0
LINE
  5
2E1
100
AcDbEntity
  8
RACCORDO
100
AcDbLine
 62
7
  6
CONTINUOUS
 10
-3.65
 20
-6.1
 30
0.0
 11
-3.6592560268
 21
-6.1092560268
 31
0.0
  0
LINE
  5
2E2
100
AcDbEntity
  8
RACCORDO
100
AcDbLine
 62
7
  6
CONTINUOUS
 10
6.45
 20
-4.5
 30
0.0
 11
6.4594184148
 21
-4.5094184148
 31
0.0
  0
LINE
  5
2E3
100
AcDbEntity
  8
RACCORDO
100
AcDbLine
 62
7
  6
CONTINUOUS
 10
4.4
 20
-22.4
 30
0.0
 11
4.3970741618
 21
-22.3736436632
 31
0.0
  0
LINE
  5
2E4
100
AcDbEntity
  8
0
100
AcDbLine
 62
7
  6
CONTINUOUS
 10
2.05
 20
-7.25
 30
0.0
 11
2.05
 21
-5.9
 31
0.0
  0
LINE
  5
2E5
100
AcDbEntity
  8
0
100
AcDbLine
 62
7
  6
CONTINUOUS
 10
2.1
 20
2.7
 30
0.0
 11
2.1
 21
-0.25
 31
0.0
  0
LINE
  5
2E6
100
AcDbEntity
  8
RACCORDO
100
AcDbLine
 62
7
  6
CONTINUOUS
 10
2.2
 20
-5.9
 30
0.0
 11
2.2
 21
-4.2
 31
0.0
  0
LINE
  5
2E7
100
AcDbEntity
  8
DRAFT
100
AcDbLine
 62
7
  6
CONTINUOUS
 10
2.5
 20
-7.45
 30
0.0
 11
2.5
 21
-6.1
 31
0.0
  0
LINE
  5
2E8
100
AcDbEntity
  8
0
100
AcDbLine
 62
7
  6
CONTINUOUS
 10
2.65
 20
2.7
 30
0.0
 11
2.65
 21
-0.25
 31
0.0
  0
LINE
  5
2E9
100
AcDbEntity
  8
0
100
AcDbLine
 62
7
  6
CONTINUOUS
 10
3.05
 20
2.7
 30
0.0
 11
3.05
 21
-0.25
 31
0.0
  0
LINE
  5
2EA
100
AcDbEntity
  8
0
100
AcDbLine
 62
7
  6
CONTINUOUS
 10
3.15
 20
-5.9
 30
0.0
 11
3.15
 21
-2.05
 31
0.0
  0
LINE
  5
2EB
100
AcDbEntity
  8
0
100
AcDbLine
 62
7
  6
CONTINUOUS
 10
3.6
 20
2.7
 30
0.0
 11
3.6
 21
-0.25
 31
0.0
  0
LINE
  5
2EC
100
AcDbEntity
  8
DRAFT
100
AcDbLine
 62
7
  6
CONTINUOUS
 10
3.65
 20
-6.1
 30
0.0
 11
3.65
 21
-4.5
 31
0.0
  0
LINE
  5
2ED
100
AcDbEntity
  8
RACCORDO
100
AcDbLine
 62
250
  6
CONTINUOUS
 10
3.0090651868
 20
-7.967032219
 30
0.0
 11
3.0092369883
 21
-6.6158528412
 31
0.0
  0
LINE
  5
2EE
100
AcDbEntity
  8
RACCORDO
100
AcDbLine
 62
250
  6
CONTINUOUS
 10
10.4992759622
 20
21.998725222
 30
0.0
 11
10.60891534
 21
22.3279108386
 31
0.0
  0
LINE
  5
2EF
100
AcDbEntity
  8
RACCORDO
100
AcDbLine
 62
250
  6
CONTINUOUS
 10
11.1325830976
 20
21.8998857286
 30
0.0
 11
10.9991998097
 21
21.4994104546
 31
0.0
  0
LINE
  5
2F0
100
AcDbEntity
  8
RACCORDO
100
AcDbLine
 62
7
  6
CONTINUOUS
 10
6.45
 20
3.4
 30
0.0
 11
6.4595041146
 21
3.4095041146
 31
0.0
  0
LINE
  5
2F1
100
AcDbEntity
  8
RACCORDO
100
AcDbLine
 62
7
  6
CONTINUOUS
 10
-2.5
 20
-6.1
 30
0.0
 11
-2.5092560268
 21
-6.1092560268
 31
0.0
  0
LINE
  5
2F2
100
AcDbEntity
  8
RACCORDO
100
AcDbLine
 62
7
  6
CONTINUOUS
 10
-2.5
 20
-7.45
 30
0.0
 11
-2.5090842253
 21
-7.4590842253
 31
0.0
  0
LINE
  5
2F3
100
AcDbEntity
  8
0
100
AcDbLine
 62
7
  6
CONTINUOUS
 10
6.0
 20
2.7
 30
0.0
 11
-6.0
 21
2.7
 31
0.0
  0
LINE
  5
2F4
100
AcDbEntity
  8
DRAFT
100
AcDbLine
 62
7
  6
CONTINUOUS
 10
6.45
 20
3.4
 30
0.0
 11
-6.45
 21
3.4
 31
0.0
  0
LINE
  5
2F5
100
AcDbEntity
  8
RACCORDO
100
AcDbLine
 62
250
  6
CONTINUOUS
 10
6.4595041146
 20
3.4095041146
 30
0.0
 11
-6.4595041146
 21
3.4095041146
 31
0.0
  0
LINE
  5
2F6
100
AcDbEntity
  8
RACCORDO
100
AcDbLine
 62
250
  6
CONTINUOUS
 10
10.60891534
 20
-22.3279108386
 30
0.0
 11
10.4992759622
 21
-21.998725222
 31
0.0
  0
LINE
  5
2F7
100
AcDbEntity
  8
RACCORDO
100
AcDbLine
 62
250
  6
CONTINUOUS
 10
10.9991998097
 20
-21.4994104546
 30
0.0
 11
11.1325830976
 21
-21.8998857286
 31
0.0
  0
LINE
  5
2F8
100
AcDbEntity
  8
RACCORDO
100
AcDbLine
 62
250
  6
CONTINUOUS
 10
3.8970826234
 20
-23.5953423515
 30
0.0
 11
3.8970826234
 21
-22.3475922207
 31
0.0
  0
LINE
  5
2F9
100
AcDbEntity
  8
RACCORDO
100
AcDbLine
 62
250
  6
CONTINUOUS
 10
3.8970826234
 20
22.3475922207
 30
0.0
 11
3.8970826234
 21
23.5953423515
 31
0.0
  0
LINE
  5
2FA
100
AcDbEntity
  8
RACCORDO
100
AcDbLine
 62
250
  6
CONTINUOUS
 10
4.3970741618
 20
-23.7970741618
 30
0.0
 11
4.3970741618
 21
-22.3736436632
 31
0.0
  0
LINE
  5
2FB
100
AcDbEntity
  8
RACCORDO
100
AcDbLine
 62
250
  6
CONTINUOUS
 10
4.3970741618
 20
22.3736436632
 30
0.0
 11
4.3970741618
 21
23.7970741618
 31
0.0
  0
LINE
  5
2FC
100
AcDbEntity
  8
DRAFT
100
AcDbLine
 62
7
  6
CONTINUOUS
 10
4.4
 20
23.8
 30
0.0
 11
4.4
 21
22.4
 31
0.0
  0
LINE
  5
2FD
100
AcDbEntity
  8
DRAFT
100
AcDbLine
 62
7
  6
CONTINUOUS
 10
4.4
 20
-22.4
 30
0.0
 11
4.4
 21
-23.8
 31
0.0
  0
LINE
  5
2FE
100
AcDbEntity
  8
RACCORDO
100
AcDbLine
 62
250
  6
CONTINUOUS
 10
4.1592369883
 20
-6.6158528412
 30
0.0
 11
4.1593993763
 21
-5.0144137901
 31
0.0
  0
LINE
  5
2FF
100
AcDbEntity
  8
RACCORDO
100
AcDbLine
 62
250
  6
CONTINUOUS
 10
6.9594850761
 20
3.9133984746
 30
0.0
 11
-6.9594850761
 21
3.9133984746
 31
0.0
  0
LINE
  5
300
100
AcDbEntity
  8
0
100
AcDbLine
 62
7
  6
CONTINUOUS
 10
6.0
 20
-4.2
 30
0.0
 11
6.0
 21
2.7
 31
0.0
  0
LINE
  5
301
100
AcDbEntity
  8
DRAFT
100
AcDbLine
 62
7
  6
CONTINUOUS
 10
6.45
 20
-4.5
 30
0.0
 11
6.45
 21
3.4
 31
0.0
  0
LINE
  5
302
100
AcDbEntity
  8
RACCORDO
100
AcDbLine
 62
250
  6
CONTINUOUS
 10
6.9593993763
 20
-5.0144137901
 30
0.0
 11
6.9594850761
 21
3.9133984746
 31
0.0
  0
LINE
  5
303
100
AcDbEntity
  8
RACCORDO
100
AcDbLine
 62
250
  6
CONTINUOUS
 10
8.2630985787
 20
-23.8443375673
 30
0.0
 11
8.2572807489
 21
-23.2669872981
 31
0.0
  0
LINE
  5
304
100
AcDbEntity
  8
RACCORDO
100
AcDbLine
 62
250
  6
CONTINUOUS
 10
8.5130943479
 20
-23.6278312164
 30
0.0
 11
8.5080037468
 21
-23.1226497308
 31
0.0
  0
LINE
  5
305
100
AcDbEntity
  8
RACCORDO
100
AcDbLine
 62
7
  6
CONTINUOUS
 10
8.25
 20
-22.4
 30
0.0
 11
8.25
 21
-24.2500042308
 31
0.0
  0
LINE
  5
306
100
AcDbEntity
  8
RACCORDO
100
AcDbLine
 62
7
  6
CONTINUOUS
 10
8.25
 20
22.4
 30
0.0
 11
8.25
 21
24.2500042308
 31
0.0
  0
LINE
  5
307
100
AcDbEntity
  8
RACCORDO
100
AcDbLine
 62
250
  6
CONTINUOUS
 10
8.2572807489
 20
-23.2669872981
 30
0.0
 11
8.2572807489
 21
-22.3344140523
 31
0.0
  0
LINE
  5
308
100
AcDbEntity
  8
RACCORDO
100
AcDbLine
 62
250
  6
CONTINUOUS
 10
8.2572807489
 20
22.3344140523
 30
0.0
 11
8.2572807489
 21
23.2669872981
 31
0.0
  0
LINE
  5
309
100
AcDbEntity
  8
RACCORDO
100
AcDbLine
 62
250
  6
CONTINUOUS
 10
8.2630985787
 20
24.2369056521
 30
0.0
 11
8.2630985787
 21
23.8443375673
 31
0.0
  0
LINE
  5
30A
100
AcDbEntity
  8
RACCORDO
100
AcDbLine
 62
250
  6
CONTINUOUS
 10
8.2630985787
 20
-23.8443375673
 30
0.0
 11
8.2630985787
 21
-24.2369056521
 31
0.0
  0
LINE
  5
30B
100
AcDbEntity
  8
RACCORDO
100
AcDbLine
 62
250
  6
CONTINUOUS
 10
8.5072765181
 20
-23.1226497308
 30
0.0
 11
8.5072765181
 21
-22.3213883311
 31
0.0
  0
LINE
  5
30C
100
AcDbEntity
  8
RACCORDO
100
AcDbLine
 62
250
  6
CONTINUOUS
 10
8.5072765181
 20
22.3213883311
 30
0.0
 11
8.5072765181
 21
23.1226497308
 31
0.0
  0
LINE
  5
30D
100
AcDbEntity
  8
RACCORDO
100
AcDbLine
 62
250
  6
CONTINUOUS
 10
8.5130943479
 20
-23.6278312164
 30
0.0
 11
8.5130943479
 21
-24.4869014213
 31
0.0
  0
LINE
  5
30E
100
AcDbEntity
  8
RACCORDO
100
AcDbLine
 62
250
  6
CONTINUOUS
 10
8.5130943479
 20
23.6278312164
 30
0.0
 11
8.5130943479
 21
24.4869014213
 31
0.0
  0
LINE
  5
30F
100
AcDbEntity
  8
RACCORDO
100
AcDbLine
 62
250
  6
CONTINUOUS
 10
9.2
 20
22.2
 30
0.0
 11
9.2
 21
15.7031206241
 31
0.0
  0
LINE
  5
310
100
AcDbEntity
  8
RACCORDO
100
AcDbLine
 62
250
  6
CONTINUOUS
 10
8.2572807489
 20
23.2669872981
 30
0.0
 11
8.2630985787
 21
23.8443375673
 31
0.0
  0
LINE
  5
311
100
AcDbEntity
  8
RACCORDO
100
AcDbLine
 62
250
  6
CONTINUOUS
 10
8.5080037468
 20
23.1226497308
 30
0.0
 11
8.5130943479
 21
23.6278312164
 31
0.0
  0
LINE
  5
312
100
AcDbEntity
  8
RACCORDO
100
AcDbLine
 62
250
  6
CONTINUOUS
 10
10.3869056521
 20
23.6278312164
 30
0.0
 11
10.3919962532
 21
23.1226497308
 31
0.0
  0
LINE
  5
313
100
AcDbEntity
  8
RACCORDO
100
AcDbLine
 62
250
  6
CONTINUOUS
 10
10.6369014213
 20
23.8443375673
 30
0.0
 11
10.6427192511
 21
23.2669872981
 31
0.0
  0
LINE
  5
314
100
AcDbEntity
  8
RACCORDO
100
AcDbLine
 62
7
  6
CONTINUOUS
 10
9.45
 20
21.9496569135
 30
0.0
 11
9.45
 21
15.85
 31
0.0
  0
LINE
  5
315
100
AcDbEntity
  8
ASSI
100
AcDbLine
 62
7
  6
CONTINUOUS
 10
9.5
 20
15.6
 30
0.0
 11
9.5
 21
22.1379611036
 31
0.0
  0
LINE
  5
316
100
AcDbEntity
  8
RACCORDO
100
AcDbLine
 62
250
  6
CONTINUOUS
 10
10.3869056521
 20
-23.6278312164
 30
0.0
 11
10.3869056521
 21
-24.4869014213
 31
0.0
  0
LINE
  5
317
100
AcDbEntity
  8
RACCORDO
100
AcDbLine
 62
250
  6
CONTINUOUS
 10
10.3869056521
 20
23.6278312164
 30
0.0
 11
10.3869056521
 21
24.4869014213
 31
0.0
  0
LINE
  5
318
100
AcDbEntity
  8
RACCORDO
100
AcDbLine
 62
250
  6
CONTINUOUS
 10
10.3927234819
 20
-23.1226497308
 30
0.0
 11
10.3927234819
 21
-22.3213883311
 31
0.0
  0
LINE
  5
319
100
AcDbEntity
  8
RACCORDO
100
AcDbLine
 62
250
  6
CONTINUOUS
 10
10.3927234819
 20
22.3213883311
 30
0.0
 11
10.3927234819
 21
23.1226497308
 31
0.0
  0
LINE
  5
31A
100
AcDbEntity
  8
RACCORDO
100
AcDbLine
 62
250
  6
CONTINUOUS
 10
10.6369014213
 20
-24.2369056521
 30
0.0
 11
10.6369014213
 21
-23.8443375673
 31
0.0
  0
LINE
  5
31B
100
AcDbEntity
  8
RACCORDO
100
AcDbLine
 62
250
  6
CONTINUOUS
 10
10.6369014213
 20
23.8443375673
 30
0.0
 11
10.6369014213
 21
24.2369056521
 31
0.0
  0
LINE
  5
31C
100
AcDbEntity
  8
RACCORDO
100
AcDbLine
 62
250
  6
CONTINUOUS
 10
10.6427192511
 20
-23.2669872981
 30
0.0
 11
10.6427192511
 21
-22.3334109614
 31
0.0
  0
LINE
  5
31D
100
AcDbEntity
  8
RACCORDO
100
AcDbLine
 62
250
  6
CONTINUOUS
 10
10.6427192511
 20
22.3334109614
 30
0.0
 11
10.6427192511
 21
23.2669872981
 31
0.0
  0
LINE
  5
31E
100
AcDbEntity
  8
RACCORDO
100
AcDbLine
 62
7
  6
CONTINUOUS
 10
10.65
 20
-22.399689968
 30
0.0
 11
10.65
 21
-24.2500042308
 31
0.0
  0
LINE
  5
31F
100
AcDbEntity
  8
RACCORDO
100
AcDbLine
 62
7
  6
CONTINUOUS
 10
10.65
 20
22.399689968
 30
0.0
 11
10.65
 21
24.2500042308
 31
0.0
  0
LINE
  5
320
100
AcDbEntity
  8
RACCORDO
100
AcDbLine
 62
250
  6
CONTINUOUS
 10
10.3919962532
 20
-23.1226497308
 30
0.0
 11
10.3869056521
 21
-23.6278312164
 31
0.0
  0
LINE
  5
321
100
AcDbEntity
  8
RACCORDO
100
AcDbLine
 62
250
  6
CONTINUOUS
 10
10.6427192511
 20
-23.2669872981
 30
0.0
 11
10.6369014213
 21
-23.8443375673
 31
0.0
  0
LINE
  5
322
100
AcDbEntity
  8
RACCORDO
100
AcDbLine
 62
7
  6
CONTINUOUS
 10
8.25
 20
-22.4
 30
0.0
 11
8.2572807489
 21
-22.3344140523
 31
0.0
  0
LINE
  5
323
100
AcDbEntity
  8
RACCORDO
100
AcDbLine
 62
250
  6
CONTINUOUS
 10
-10.65
 20
-24.2500042308
 30
0.0
 11
-10.6369014213
 21
-24.2369056521
 31
0.0
  0
LINE
  5
324
100
AcDbEntity
  8
RACCORDO
100
AcDbLine
 62
250
  6
CONTINUOUS
 10
-10.4000042308
 20
-24.5
 30
0.0
 11
-10.3869056521
 21
-24.4869014213
 31
0.0
  0
LINE
  5
325
100
AcDbEntity
  8
RACCORDO
100
AcDbLine
 62
250
  6
CONTINUOUS
 10
-10.65
 20
24.2500042308
 30
0.0
 11
-10.6369014213
 21
24.2369056521
 31
0.0
  0
LINE
  5
326
100
AcDbEntity
  8
RACCORDO
100
AcDbLine
 62
250
  6
CONTINUOUS
 10
-10.4000042308
 20
24.5
 30
0.0
 11
-10.3869056521
 21
24.4869014213
 31
0.0
  0
LINE
  5
327
100
AcDbEntity
  8
RACCORDO
100
AcDbLine
 62
7
  6
CONTINUOUS
 10
8.25
 20
22.4
 30
0.0
 11
8.2572807489
 21
22.3344140523
 31
0.0
  0
LINE
  5
328
100
AcDbEntity
  8
RACCORDO
100
AcDbLine
 62
7
  6
CONTINUOUS
 10
11.15
 20
21.8911779406
 30
0.0
 11
11.15
 21
-21.8911779406
 31
0.0
  0
LINE
  5
329
100
AcDbEntity
  8
RACCORDO
100
AcDbLine
 62
7
  6
CONTINUOUS
 10
-4.3970741618
 20
-23.7970741618
 30
0.0
 11
-4.4
 21
-23.8
 31
0.0
  0
LWPOLYLINE
  5
32A
100
AcDbEntity
  8
0
100
AcDbPolyline
 62
7
  6
CONTINUOUS
 90
10
 70
0
 43
0.3500000087
 10
18.4663187668
 20
0.4285711273
 10
17.6091768997
 20
1.285715126
 10
16.7520339668
 20
1.499999527
 10
15.8948910339
 20
1.499999527
 10
15.4663201004
 20
1.0714285934
 10
15.4663201004
 20
0.4285711273
 10
15.8948910339
 20
0.0000001938
 10
16.7520339668
 20
0.0000001938
 10
17.1806059662
 20
0.4285711273
 10
17.1806059662
 20
1.3571425491
  0
LINE
  5
32B
100
AcDbEntity
  8
RACCORDO
100
AcDbLine
 62
7
  6
CONTINUOUS
 10
-4.3970741618
 20
23.7970741618
 30
0.0
 11
-4.4
 21
23.8
 31
0.0
  0
LINE
  5
32C
100
AcDbEntity
  8
ASSI
100
AcDbLine
 62
7
  6
CONTINUOUS
 10
9.5
 20
15.6
 30
0.0
 11
-9.5
 21
15.6
 31
0.0
  0
LINE
  5
32D
100
AcDbEntity
  8
RACCORDO
100
AcDbLine
 62
250
  6
CONTINUOUS
 10
9.2
 20
15.7031206241
 30
0.0
 11
-9.2
 21
15.7031206241
 31
0.0
  0
LWPOLYLINE
  5
32E
100
AcDbEntity
  8
0
100
AcDbPolyline
 62
7
  6
CONTINUOUS
 90
10
 70
0
 43
0.3500000087
 10
1.0714285995
 20
33.7268471649
 10
1.142857155
 20
33.5839880554
 10
1.142857155
 20
33.5125606323
 10
0.9999999774
 20
33.3697015228
 10
0.9285714218
 20
33.3697015228
 10
0.8571428663
 20
33.4411332092
 10
0.8571428663
 20
33.5125606323
 10
0.9285714218
 20
33.6554197418
 10
0.9999999774
 20
33.7268471649
 10
1.0714285995
 20
33.7268471649
  0
LWPOLYLINE
  5
32F
100
AcDbEntity
  8
0
100
AcDbPolyline
 62
7
  6
CONTINUOUS
 90
3
 70
0
 43
0.3500000087
 10
17.8234623665
 20
-0.8571438049
 10
17.8234623665
 20
-2.3571431381
 10
15.4663201004
 20
-1.714285672
  0
LINE
  5
330
100
AcDbEntity
  8
RACCORDO
100
AcDbLine
 62
250
  6
CONTINUOUS
 10
9.5
 20
19.9
 30
0.0
 11
9.45
 21
19.9
 31
0.0
  0
LINE
  5
331
100
AcDbEntity
  8
RACCORDO
100
AcDbLine
 62
250
  6
CONTINUOUS
 10
-9.45
 20
19.9
 30
0.0
 11
-9.5
 21
19.9
 31
0.0
  0
LINE
  5
332
100
AcDbEntity
  8
RACCORDO
100
AcDbLine
 62
7
  6
CONTINUOUS
 10
9.5
 20
20.4
 30
0.0
 11
9.45
 21
20.4
 31
0.0
  0
LINE
  5
333
100
AcDbEntity
  8
RACCORDO
100
AcDbLine
 62
7
  6
CONTINUOUS
 10
-9.45
 20
20.4
 30
0.0
 11
-9.5
 21
20.4
 31
0.0
  0
LINE
  5
334
100
AcDbEntity
  8
ASSI
100
AcDbLine
 62
250
  6
CONTINUOUS
 10
-10.4827491915
 20
20.5624683248
 30
0.0
 11
-9.5
 21
20.5624683248
 31
0.0
  0
LINE
  5
335
100
AcDbEntity
  8
ASSI
100
AcDbLine
 62
250
  6
CONTINUOUS
 10
9.5
 20
20.5624683248
 30
0.0
 11
10.4827491915
 21
20.5624683248
 31
0.0
  0
LINE
  5
336
100
AcDbEntity
  8
RACCORDO
100
AcDbLine
 62
250
  6
CONTINUOUS
 10
9.2
 20
20.6248213396
 30
0.0
 11
-9.2
 21
20.6248213396
 31
0.0
  0
LINE
  5
337
100
AcDbEntity
  8
SMUSSO
100
AcDbLine
 62
7
  6
CONTINUOUS
 10
-9.5
 20
21.3
 30
0.0
 11
-9.45
 21
21.3
 31
0.0
  0
LINE
  5
338
100
AcDbEntity
  8
SMUSSO
100
AcDbLine
 62
7
  6
CONTINUOUS
 10
9.5
 20
21.3
 30
0.0
 11
9.45
 21
21.3
 31
0.0
  0
LINE
  5
339
100
AcDbEntity
  8
SMUSSO
100
AcDbLine
 62
7
  6
CONTINUOUS
 10
-9.5
 20
21.7
 30
0.0
 11
-9.45
 21
21.7
 31
0.0
  0
LINE
  5
33A
100
AcDbEntity
  8
SMUSSO
100
AcDbLine
 62
7
  6
CONTINUOUS
 10
9.5
 20
21.7
 30
0.0
 11
9.45
 21
21.7
 31
0.0
  0
LINE
  5
33B
100
AcDbEntity
  8
RACCORDO
100
AcDbLine
 62
250
  6
CONTINUOUS
 10
8.25
 20
-24.2500042308
 30
0.0
 11
8.2630985787
 21
-24.2369056521
 31
0.0
  0
LINE
  5
33C
100
AcDbEntity
  8
RACCORDO
100
AcDbLine
 62
250
  6
CONTINUOUS
 10
8.4999957692
 20
-24.5
 30
0.0
 11
8.5130943479
 21
-24.4869014213
 31
0.0
  0
LINE
  5
33D
100
AcDbEntity
  8
ASSI
100
AcDbLine
 62
250
  6
CONTINUOUS
 10
-10.4992759622
 20
21.998725222
 30
0.0
 11
-9.5
 21
21.998725222
 31
0.0
  0
LINE
  5
33E
100
AcDbEntity
  8
ASSI
100
AcDbLine
 62
250
  6
CONTINUOUS
 10
9.5
 20
21.998725222
 30
0.0
 11
10.4992759622
 21
21.998725222
 31
0.0
  0
LINE
  5
33F
100
AcDbEntity
  8
RACCORDO
100
AcDbLine
 62
250
  6
CONTINUOUS
 10
9.2
 20
22.0611911777
 30
0.0
 11
-9.2
 21
22.0611911777
 31
0.0
  0
LINE
  5
340
100
AcDbEntity
  8
0
100
AcDbLine
 62
7
  6
CONTINUOUS
 10
9.5
 20
22.1379611036
 30
0.0
 11
9.3647145093
 21
22.1379611036
 31
0.0
  0
LINE
  5
341
100
AcDbEntity
  8
0
100
AcDbLine
 62
7
  6
CONTINUOUS
 10
-9.364714702
 20
22.1379611036
 30
0.0
 11
-9.5
 21
22.1379611036
 31
0.0
  0
LINE
  5
342
100
AcDbEntity
  8
RACCORDO
100
AcDbLine
 62
7
  6
CONTINUOUS
 10
-9.2
 20
22.2
 30
0.0
 11
9.2
 21
22.2
 31
0.0
  0
LINE
  5
343
100
AcDbEntity
  8
RACCORDO
100
AcDbLine
 62
7
  6
CONTINUOUS
 10
-10.3927234819
 20
22.3213883311
 30
0.0
 11
-8.5072765181
 21
22.3213883311
 31
0.0
  0
LINE
  5
344
100
AcDbEntity
  8
RACCORDO
100
AcDbLine
 62
7
  6
CONTINUOUS
 10
8.5072765181
 20
22.3213883311
 30
0.0
 11
10.3927234819
 21
22.3213883311
 31
0.0
  0
LINE
  5
345
100
AcDbEntity
  8
RACCORDO
100
AcDbLine
 62
7
  6
CONTINUOUS
 10
3.8970826234
 20
22.3475922207
 30
0.0
 11
-3.8970826234
 21
22.3475922207
 31
0.0
  0
LINE
  5
346
100
AcDbEntity
  8
DRAFT
100
AcDbLine
 62
7
  6
CONTINUOUS
 10
8.25
 20
22.4
 30
0.0
 11
4.4
 21
22.4
 31
0.0
  0
LINE
  5
347
100
AcDbEntity
  8
DRAFT
100
AcDbLine
 62
7
  6
CONTINUOUS
 10
-4.4
 20
22.4
 30
0.0
 11
-8.25
 21
22.4
 31
0.0
  0
LINE
  5
348
100
AcDbEntity
  8
RACCORDO
100
AcDbLine
 62
7
  6
CONTINUOUS
 10
-10.3927234819
 20
23.1226497308
 30
0.0
 11
-8.5072765181
 21
23.1226497308
 31
0.0
  0
LINE
  5
349
100
AcDbEntity
  8
RACCORDO
100
AcDbLine
 62
7
  6
CONTINUOUS
 10
8.5072765181
 20
23.1226497308
 30
0.0
 11
10.3927234819
 21
23.1226497308
 31
0.0
  0
LINE
  5
34A
100
AcDbEntity
  8
RACCORDO
100
AcDbLine
 62
250
  6
CONTINUOUS
 10
8.25
 20
24.2500042308
 30
0.0
 11
8.2630985787
 21
24.2369056521
 31
0.0
  0
LINE
  5
34B
100
AcDbEntity
  8
RACCORDO
100
AcDbLine
 62
250
  6
CONTINUOUS
 10
8.4999957692
 20
24.5
 30
0.0
 11
8.5130943479
 21
24.4869014213
 31
0.0
  0
LINE
  5
34C
100
AcDbEntity
  8
RACCORDO
100
AcDbLine
 62
250
  6
CONTINUOUS
 10
11.1325830976
 20
-21.8998857286
 30
0.0
 11
11.15
 21
-21.8911779406
 31
0.0
  0
LINE
  5
34D
100
AcDbEntity
  8
RACCORDO
100
AcDbLine
 62
7
  6
CONTINUOUS
 10
10.8560139878
 20
-22.3472253447
 30
0.0
 11
10.8735170098
 21
-22.3384745002
 31
0.0
  0
LINE
  5
34E
100
AcDbEntity
  8
RACCORDO
100
AcDbLine
 62
250
  6
CONTINUOUS
 10
3.8970826234
 20
23.5953423515
 30
0.0
 11
-3.8970826234
 21
23.5953423515
 31
0.0
  0
LINE
  5
34F
100
AcDbEntity
  8
RACCORDO
100
AcDbLine
 62
250
  6
CONTINUOUS
 10
-10.3869056521
 20
23.6278312164
 30
0.0
 11
-8.5130943479
 21
23.6278312164
 31
0.0
  0
LINE
  5
350
100
AcDbEntity
  8
RACCORDO
100
AcDbLine
 62
250
  6
CONTINUOUS
 10
8.5130943479
 20
23.6278312164
 30
0.0
 11
10.3869056521
 21
23.6278312164
 31
0.0
  0
LINE
  5
351
100
AcDbEntity
  8
RACCORDO
100
AcDbLine
 62
250
  6
CONTINUOUS
 10
4.2962073137
 20
23.7953389668
 30
0.0
 11
-4.2962073137
 21
23.7953389668
 31
0.0
  0
LINE
  5
352
100
AcDbEntity
  8
DRAFT
100
AcDbLine
 62
7
  6
CONTINUOUS
 10
-4.4
 20
23.8
 30
0.0
 11
4.4
 21
23.8
 31
0.0
  0
LINE
  5
353
100
AcDbEntity
  8
RACCORDO
100
AcDbLine
 62
250
  6
CONTINUOUS
 10
8.2630985787
 20
23.8443375673
 30
0.0
 11
10.6369014213
 21
23.8443375673
 31
0.0
  0
LINE
  5
354
100
AcDbEntity
  8
RACCORDO
100
AcDbLine
 62
250
  6
CONTINUOUS
 10
-8.2630985787
 20
23.8443375673
 30
0.0
 11
-10.6369014213
 21
23.8443375673
 31
0.0
  0
LINE
  5
355
100
AcDbEntity
  8
RACCORDO
100
AcDbLine
 62
250
  6
CONTINUOUS
 10
8.2630985787
 20
24.2369056521
 30
0.0
 11
10.6369014213
 21
24.2369056521
 31
0.0
  0
LINE
  5
356
100
AcDbEntity
  8
RACCORDO
100
AcDbLine
 62
250
  6
CONTINUOUS
 10
-8.2630985787
 20
24.2369056521
 30
0.0
 11
-10.6369014213
 21
24.2369056521
 31
0.0
  0
LINE
  5
357
100
AcDbEntity
  8
RACCORDO
100
AcDbLine
 62
250
  6
CONTINUOUS
 10
10.3869056521
 20
24.4869014213
 30
0.0
 11
8.5130943479
 21
24.4869014213
 31
0.0
  0
LINE
  5
358
100
AcDbEntity
  8
RACCORDO
100
AcDbLine
 62
250
  6
CONTINUOUS
 10
-8.5130943479
 20
24.4869014213
 30
0.0
 11
-10.3869056521
 21
24.4869014213
 31
0.0
  0
LINE
  5
359
100
AcDbEntity
  8
RACCORDO
100
AcDbLine
 62
7
  6
CONTINUOUS
 10
-10.4000042308
 20
24.5
 30
0.0
 11
-8.4999957692
 21
24.5
 31
0.0
  0
LINE
  5
35A
100
AcDbEntity
  8
RACCORDO
100
AcDbLine
 62
7
  6
CONTINUOUS
 10
8.4999957692
 20
24.5
 30
0.0
 11
10.4000042308
 21
24.5
 31
0.0
  0
LWPOLYLINE
  5
35B
100
AcDbEntity
  8
0
100
AcDbPolyline
 62
7
  6
CONTINUOUS
 90
7
 70
0
 43
0.3500000087
 10
-0.4285714331
 20
33.2268466766
 10
-1.9285714658
 20
33.2268466766
 10
-0.4285714331
 20
35.369703476
 10
-0.4285714331
 20
35.7982765411
 10
-0.8571428663
 20
36.226845343
 10
-1.4999999993
 20
36.226845343
 10
-1.9285714658
 20
35.5839900085
  0
LWPOLYLINE
  5
35C
100
AcDbEntity
  8
0
100
AcDbPolyline
 62
7
  6
CONTINUOUS
 90
6
 70
0
 43
0.3500000087
 10
2.142857199
 20
33.2268466766
 10
3.2142857319
 20
33.2268466766
 10
3.4285714651
 20
33.4411332092
 10
3.4285714651
 20
34.5125616089
 10
2.9999999987
 20
34.9411304108
 10
2.5714285322
 20
34.9411304108
  0
LWPOLYLINE
  5
35D
100
AcDbEntity
  8
0
100
AcDbPolyline
 62
7
  6
CONTINUOUS
 90
7
 70
0
 43
0.3500000087
 10
-2.7857142654
 20
33.2268466766
 10
-4.285714398
 20
33.2268466766
 10
-2.7857142654
 20
35.369703476
 10
-2.7857142654
 20
35.7982765411
 10
-3.2142857319
 20
36.226845343
 10
-3.8571429316
 20
36.226845343
 10
-4.285714398
 20
35.5839900085
  0
LINE
  5
35E
100
AcDbEntity
  8
RACCORDO
100
AcDbLine
 62
250
  6
CONTINUOUS
 10
11.15
 20
21.8911779406
 30
0.0
 11
11.1325830976
 21
21.8998857286
 31
0.0
  0
LINE
  5
35F
100
AcDbEntity
  8
RACCORDO
100
AcDbLine
 62
7
  6
CONTINUOUS
 10
10.8735170098
 20
22.3384745002
 30
0.0
 11
10.8560139878
 21
22.3472253447
 31
0.0
  0
LWPOLYLINE
  5
360
100
AcDbEntity
  8
0
100
AcDbPolyline
 62
7
  6
CONTINUOUS
 90
10
 70
0
 43
0.3500000087
 10
-43.2841486816
 20
46.2963086212
 10
-43.9270082794
 20
45.6534532867
 10
-44.3555770813
 20
44.7963114197
 10
-44.3555770813
 20
43.72488302
 10
-43.9270082794
 20
43.2963099548
 10
-43.2841486816
 20
43.2963099548
 10
-42.8555798798
 20
43.72488302
 10
-42.8555798798
 20
44.5820248871
 10
-43.2841486816
 20
45.0105979523
 10
-44.2127222351
 20
45.0105979523
  0
LWPOLYLINE
  5
361
100
AcDbEntity
  8
0
100
AcDbPolyline
 62
7
  6
CONTINUOUS
 90
5
 70
0
 43
0.3500000087
 10
-49.4984368103
 20
45.0105979523
 10
-49.1412911682
 20
45.2248802216
 10
-49.1412911682
 20
45.8677398193
 10
-49.4984368103
 20
46.2963086212
 10
-50.3555786774
 20
46.2963086212
  0
LWPOLYLINE
  5
362
100
AcDbEntity
  8
0
100
AcDbPolyline
 62
7
  6
CONTINUOUS
 90
5
 70
0
 43
0.3500000087
 10
-47.355580011
 20
45.0105979523
 10
-46.9984343689
 20
45.2248802216
 10
-46.9984343689
 20
45.8677398193
 10
-47.355580011
 20
46.2963086212
 10
-48.2127218781
 20
46.2963086212
  0
LWPOLYLINE
  5
363
100
AcDbEntity
  8
0
100
AcDbPolyline
 62
7
  6
CONTINUOUS
 90
5
 70
0
 43
0.3500000087
 10
-41.6770060822
 20
34.9874341736
 10
-41.3198647034
 20
35.2017207062
 10
-41.3198647034
 20
35.8445760406
 10
-41.6770060822
 20
36.2731491058
 10
-42.5341479492
 20
36.2731491058
  0
LINE
  5
364
100
AcDbEntity
  8
RACCORDO
100
AcDbLine
 62
250
  6
CONTINUOUS
 10
-53.4770068884
 20
23.4104851482
 30
0.0
 11
-52.7255524555
 21
23.8443375673
 31
0.0
  0
LINE
  5
365
100
AcDbEntity
  8
RACCORDO
100
AcDbLine
 62
7
  6
CONTINUOUS
 10
-53.4770068884
 20
23.1226497308
 30
0.0
 11
-52.6020068884
 21
23.6278312164
 31
0.0
  0
LINE
  5
366
100
AcDbEntity
  8
RACCORDO
100
AcDbLine
 62
7
  6
CONTINUOUS
 10
-52.7255524555
 20
-24.495628166
 30
0.0
 11
-53.4770068884
 21
-24.5
 31
0.0
  0
LINE
  5
367
100
AcDbEntity
  8
RACCORDO
100
AcDbLine
 62
250
  6
CONTINUOUS
 10
-52.7255524555
 20
-24.2456323968
 30
0.0
 11
-53.4770068884
 21
-24.2500042308
 31
0.0
  0
LINE
  5
368
100
AcDbEntity
  8
ASSI
100
AcDbLine
 62
7
  6
CONTINUOUS
 10
-52.4820979801
 20
-23.7942117893
 30
0.0
 11
-45.9740980227
 21
-23.7563493531
 31
0.0
  0
LINE
  5
369
100
AcDbEntity
  8
RACCORDO
100
AcDbLine
 62
250
  6
CONTINUOUS
 10
-52.4770068884
 20
-24.2456323968
 30
0.0
 11
-52.7255524555
 21
-24.2456323968
 31
0.0
  0
LINE
  5
36A
100
AcDbEntity
  8
RACCORDO
100
AcDbLine
 62
250
  6
CONTINUOUS
 10
-55.9770068884
 20
-24.2369056521
 30
0.0
 11
-55.7284613212
 21
-24.2369056521
 31
0.0
  0
LINE
  5
36B
100
AcDbEntity
  8
RACCORDO
100
AcDbLine
 62
250
  6
CONTINUOUS
 10
-55.9770068884
 20
-23.8443375673
 30
0.0
 11
-55.7284613212
 21
-23.8443375673
 31
0.0
  0
LINE
  5
36C
100
AcDbEntity
  8
RACCORDO
100
AcDbLine
 62
250
  6
CONTINUOUS
 10
-52.4770068884
 20
-23.8443375673
 30
0.0
 11
-52.7255524555
 21
-23.8443375673
 31
0.0
  0
LINE
  5
36D
100
AcDbEntity
  8
RACCORDO
100
AcDbLine
 62
7
  6
CONTINUOUS
 10
-53.4770068884
 20
-24.5
 30
0.0
 11
-55.7284613212
 21
-24.4869014213
 31
0.0
  0
LINE
  5
36E
100
AcDbEntity
  8
RACCORDO
100
AcDbLine
 62
250
  6
CONTINUOUS
 10
-53.4770068884
 20
-24.2500042308
 30
0.0
 11
-55.7284613212
 21
-24.2369056521
 31
0.0
  0
LINE
  5
36F
100
AcDbEntity
  8
RACCORDO
100
AcDbLine
 62
250
  6
CONTINUOUS
 10
-52.7255524555
 20
-23.8443375673
 30
0.0
 11
-53.4770068884
 21
-23.4104851482
 31
0.0
  0
LINE
  5
370
100
AcDbEntity
  8
RACCORDO
100
AcDbLine
 62
7
  6
CONTINUOUS
 10
-52.6020068884
 20
-23.6278312164
 30
0.0
 11
-53.4770068884
 21
-23.1226497308
 31
0.0
  0
LINE
  5
371
100
AcDbEntity
  8
RACCORDO
100
AcDbLine
 62
7
  6
CONTINUOUS
 10
-43.4682803529
 20
-22.3126551668
 30
0.0
 11
-53.4770068884
 21
-22.4
 31
0.0
  0
LINE
  5
372
100
AcDbEntity
  8
RACCORDO
100
AcDbLine
 62
250
  6
CONTINUOUS
 10
-53.4748205594
 20
-21.8998857286
 30
0.0
 11
-52.4770068884
 21
-21.8911779406
 31
0.0
  0
LINE
  5
373
100
AcDbEntity
  8
RACCORDO
100
AcDbLine
 62
7
  6
CONTINUOUS
 10
-54.8525500304
 20
-22.3279108386
 30
0.0
 11
-61.1337857773
 21
-21.998725222
 31
0.0
  0
LINE
  5
374
100
AcDbEntity
  8
RACCORDO
100
AcDbLine
 62
250
  6
CONTINUOUS
 10
-61.1163440024
 20
-21.4994104546
 30
0.0
 11
-53.4748205594
 21
-21.8998857286
 31
0.0
  0
LWPOLYLINE
  5
375
100
AcDbEntity
  8
0
100
AcDbPolyline
 62
7
  6
CONTINUOUS
 90
3
 70
0
 43
0.3500000087
 10
-38.6770074158
 20
35.4160029755
 10
-37.8198655487
 20
36.2731491058
 10
-37.8198655487
 20
33.2731461761
  0
LINE
  5
376
100
AcDbEntity
  8
RACCORDO
100
AcDbLine
 62
250
  6
CONTINUOUS
 10
-62.0631620581
 20
-20.5419058565
 30
0.0
 11
-62.5540126961
 21
-20.562468318
 31
0.0
  0
LINE
  5
377
100
AcDbEntity
  8
RACCORDO
100
AcDbLine
 62
7
  6
CONTINUOUS
 10
-42.4770068884
 20
-20.9959955457
 30
0.0
 11
-52.2772201282
 21
-20.9104703804
 31
0.0
  0
LINE
  5
378
100
AcDbEntity
  8
RACCORDO
100
AcDbLine
 62
7
  6
CONTINUOUS
 10
-42.9682806852
 20
-21.5659754333
 30
0.0
 11
-52.4770068884
 21
-21.4
 31
0.0
  0
LINE
  5
379
100
AcDbEntity
  8
DRAFT
100
AcDbLine
 62
7
  6
CONTINUOUS
 10
-52.2772201282
 20
-20.9104703804
 30
0.0
 11
-52.4770068884
 21
-20.9
 31
0.0
  0
LINE
  5
37A
100
AcDbEntity
  8
RACCORDO
100
AcDbLine
 62
250
  6
CONTINUOUS
 10
-42.4770068884
 20
-20.0275513222
 30
0.0
 11
-52.4770068884
 21
-18.3232986254
 31
0.0
  0
LINE
  5
37B
100
AcDbEntity
  8
RACCORDO
100
AcDbLine
 62
7
  6
CONTINUOUS
 10
-42.4770068884
 20
-19.6808012501
 30
0.0
 11
-52.4770068884
 21
-17.917531443
 31
0.0
  0
LINE
  5
37C
100
AcDbEntity
  8
RACCORDO
100
AcDbLine
 62
250
  6
CONTINUOUS
 10
-61.1223945875
 20
21.9993222089
 30
0.0
 11
-61.1256370003
 21
22.0611911777
 31
0.0
  0
LINE
  5
37D
100
AcDbEntity
  8
RACCORDO
100
AcDbLine
 62
7
  6
CONTINUOUS
 10
-58.4770068884
 20
22.2
 30
0.0
 11
-58.4770068884
 21
22.1379611036
 31
0.0
  0
LWPOLYLINE
  5
37E
100
AcDbEntity
  8
0
100
AcDbPolyline
 62
7
  6
CONTINUOUS
 90
3
 70
0
 43
0.3500000087
 10
-45.3555780579
 20
43.5820239105
 10
-45.427005481
 20
43.3677373779
 10
-45.5698645905
 20
43.0820234222
  0
LINE
  5
37F
100
AcDbEntity
  8
RACCORDO
100
AcDbLine
 62
7
  6
CONTINUOUS
 10
-51.7933717718
 20
11.5836351166
 30
0.0
 11
-52.0891389227
 21
11.2878679656
 31
0.0
  0
LINE
  5
380
100
AcDbEntity
  8
RACCORDO
100
AcDbLine
 62
7
  6
CONTINUOUS
 10
-55.9770068884
 20
-24.2369056521
 30
0.0
 11
-55.9770068884
 21
-23.8443375673
 31
0.0
  0
LINE
  5
381
100
AcDbEntity
  8
RACCORDO
100
AcDbLine
 62
7
  6
CONTINUOUS
 10
-55.9770068884
 20
23.8443375673
 30
0.0
 11
-55.9770068884
 21
24.2369056521
 31
0.0
  0
LINE
  5
382
100
AcDbEntity
  8
RACCORDO
100
AcDbLine
 62
7
  6
CONTINUOUS
 10
-51.0770068884
 20
-10.8101132618
 30
0.0
 11
-52.4770068884
 21
-10.8223308767
 31
0.0
  0
LINE
  5
383
100
AcDbEntity
  8
RACCORDO
100
AcDbLine
 62
250
  6
CONTINUOUS
 10
-51.0770068884
 20
-10.3101323002
 30
0.0
 11
-52.4770068884
 21
-10.3223499151
 31
0.0
  0
LINE
  5
384
100
AcDbEntity
  8
RACCORDO
100
AcDbLine
 62
250
  6
CONTINUOUS
 10
-55.7284613212
 20
-24.2369056521
 30
0.0
 11
-55.7284613212
 21
-23.8443375673
 31
0.0
  0
LINE
  5
385
100
AcDbEntity
  8
RACCORDO
100
AcDbLine
 62
250
  6
CONTINUOUS
 10
-55.7284613212
 20
23.8443375673
 30
0.0
 11
-55.7284613212
 21
24.2369056521
 31
0.0
  0
LINE
  5
386
100
AcDbEntity
  8
RACCORDO
100
AcDbLine
 62
7
  6
CONTINUOUS
 10
-54.9770068884
 20
-23.1226497308
 30
0.0
 11
-54.9770068884
 21
-22.3213883311
 31
0.0
  0
LINE
  5
387
100
AcDbEntity
  8
RACCORDO
100
AcDbLine
 62
7
  6
CONTINUOUS
 10
-54.9770068884
 20
22.3213883311
 30
0.0
 11
-54.9770068884
 21
23.1226497308
 31
0.0
  0
LINE
  5
388
100
AcDbEntity
  8
RACCORDO
100
AcDbLine
 62
250
  6
CONTINUOUS
 10
-54.7284613212
 20
-23.2669872981
 30
0.0
 11
-54.7284613212
 21
-22.3334109614
 31
0.0
  0
LINE
  5
389
100
AcDbEntity
  8
RACCORDO
100
AcDbLine
 62
250
  6
CONTINUOUS
 10
-54.7284613212
 20
22.3334109614
 30
0.0
 11
-54.7284613212
 21
23.2669872981
 31
0.0
  0
LINE
  5
38A
100
AcDbEntity
  8
RACCORDO
100
AcDbLine
 62
7
  6
CONTINUOUS
 10
-51.0770068884
 20
-8.8101132618
 30
0.0
 11
-52.4770068884
 21
-8.8223308767
 31
0.0
  0
LINE
  5
38B
100
AcDbEntity
  8
0
100
AcDbLine
 62
7
  6
CONTINUOUS
 10
-48.2770068884
 20
-8.1
 30
0.0
 11
-51.2770068884
 21
-8.1
 31
0.0
  0
LINE
  5
38C
100
AcDbEntity
  8
RACCORDO
100
AcDbLine
 62
7
  6
CONTINUOUS
 10
-52.4770068884
 20
-7.9776691233
 30
0.0
 11
-51.2770068884
 21
-7.9881413647
 31
0.0
  0
LINE
  5
38D
100
AcDbEntity
  8
RACCORDO
100
AcDbLine
 62
7
  6
CONTINUOUS
 10
-53.4770068884
 20
-22.399689968
 30
0.0
 11
-53.4770068884
 21
-24.5
 31
0.0
  0
LINE
  5
38E
100
AcDbEntity
  8
RACCORDO
100
AcDbLine
 62
7
  6
CONTINUOUS
 10
-53.4770068884
 20
22.399689968
 30
0.0
 11
-53.4770068884
 21
24.5
 31
0.0
  0
LINE
  5
38F
100
AcDbEntity
  8
RACCORDO
100
AcDbLine
 62
250
  6
CONTINUOUS
 10
-52.7255524555
 20
24.2456323968
 30
0.0
 11
-52.7255524555
 21
23.8443375673
 31
0.0
  0
LINE
  5
390
100
AcDbEntity
  8
RACCORDO
100
AcDbLine
 62
250
  6
CONTINUOUS
 10
-52.7255524555
 20
-23.8443375673
 30
0.0
 11
-52.7255524555
 21
-24.2456323968
 31
0.0
  0
LINE
  5
391
100
AcDbEntity
  8
RACCORDO
100
AcDbLine
 62
7
  6
CONTINUOUS
 10
-52.4770068884
 20
24.2456323968
 30
0.0
 11
-52.4770068884
 21
23.8443375673
 31
0.0
  0
LINE
  5
392
100
AcDbEntity
  8
RACCORDO
100
AcDbLine
 62
7
  6
CONTINUOUS
 10
-52.4770068884
 20
22.3912731322
 30
0.0
 11
-52.4770068884
 21
-22.3912731322
 31
0.0
  0
LINE
  5
393
100
AcDbEntity
  8
RACCORDO
100
AcDbLine
 62
7
  6
CONTINUOUS
 10
-52.4770068884
 20
-23.7941821702
 30
0.0
 11
-52.4770068884
 21
-24.2456323968
 31
0.0
  0
LINE
  5
394
100
AcDbEntity
  8
RACCORDO
100
AcDbLine
 62
7
  6
CONTINUOUS
 10
-39.0480259463
 20
-7.1
 30
0.0
 11
-45.9962960569
 21
-7.1
 31
0.0
  0
LINE
  5
395
100
AcDbEntity
  8
0
100
AcDbLine
 62
7
  6
CONTINUOUS
 10
-48.2770068884
 20
-6.65
 30
0.0
 11
-51.2770068884
 21
-6.65
 31
0.0
  0
LINE
  5
396
100
AcDbEntity
  8
RACCORDO
100
AcDbLine
 62
7
  6
CONTINUOUS
 10
-52.4770068884
 20
-5.9776691233
 30
0.0
 11
-51.3743889277
 21
-5.9872915245
 31
0.0
  0
LINE
  5
397
100
AcDbEntity
  8
0
100
AcDbLine
 62
7
  6
CONTINUOUS
 10
-51.2770068884
 20
7.2881641073
 30
0.0
 11
-51.2770068884
 21
0.4118358927
 31
0.0
  0
LINE
  5
398
100
AcDbEntity
  8
0
100
AcDbLine
 62
7
  6
CONTINUOUS
 10
-51.2770068884
 20
-0.4118358927
 30
0.0
 11
-51.2770068884
 21
-6.0045435156
 31
0.0
  0
LINE
  5
399
100
AcDbEntity
  8
0
100
AcDbLine
 62
7
  6
CONTINUOUS
 10
-51.2770068884
 20
-8.1
 30
0.0
 11
-51.2770068884
 21
-6.65
 31
0.0
  0
LINE
  5
39A
100
AcDbEntity
  8
RACCORDO
100
AcDbLine
 62
250
  6
CONTINUOUS
 10
-51.2744008454
 20
12.4118358927
 30
0.0
 11
-51.2744008454
 21
11.5881641073
 31
0.0
  0
LINE
  5
39B
100
AcDbEntity
  8
RACCORDO
100
AcDbLine
 62
250
  6
CONTINUOUS
 10
-51.2744008454
 20
8.35
 30
0.0
 11
-51.2744008454
 21
7.2881641073
 31
0.0
  0
LINE
  5
39C
100
AcDbEntity
  8
RACCORDO
100
AcDbLine
 62
250
  6
CONTINUOUS
 10
-51.2744008454
 20
0.4118358927
 30
0.0
 11
-51.2744008454
 21
-0.4118358927
 31
0.0
  0
LINE
  5
39D
100
AcDbEntity
  8
RACCORDO
100
AcDbLine
 62
250
  6
CONTINUOUS
 10
-51.2744008454
 20
-8.1
 30
0.0
 11
-51.2744008454
 21
-8.8118358927
 31
0.0
  0
LINE
  5
39E
100
AcDbEntity
  8
RACCORDO
100
AcDbLine
 62
7
  6
CONTINUOUS
 10
-51.0770068884
 20
13.8101132618
 30
0.0
 11
-51.0770068884
 21
11.5898867382
 31
0.0
  0
LINE
  5
39F
100
AcDbEntity
  8
RACCORDO
100
AcDbLine
 62
7
  6
CONTINUOUS
 10
-51.0770068884
 20
8.35
 30
0.0
 11
-51.0770068884
 21
7.2898867382
 31
0.0
  0
LINE
  5
3A0
100
AcDbEntity
  8
RACCORDO
100
AcDbLine
 62
7
  6
CONTINUOUS
 10
-51.0770068884
 20
0.4101132618
 30
0.0
 11
-51.0770068884
 21
-0.4101132618
 31
0.0
  0
LINE
  5
3A1
100
AcDbEntity
  8
RACCORDO
100
AcDbLine
 62
7
  6
CONTINUOUS
 10
-51.0770068884
 20
-6.2872801014
 30
0.0
 11
-51.0770068884
 21
-6.65
 31
0.0
  0
LINE
  5
3A2
100
AcDbEntity
  8
RACCORDO
100
AcDbLine
 62
7
  6
CONTINUOUS
 10
-51.0770068884
 20
-10.8101132618
 30
0.0
 11
-51.0770068884
 21
-8.1
 31
0.0
  0
LINE
  5
3A3
100
AcDbEntity
  8
0
100
AcDbLine
 62
7
  6
CONTINUOUS
 10
-50.4770068884
 20
8.1
 30
0.0
 11
-50.4770068884
 21
2.0
 31
0.0
  0
LWPOLYLINE
  5
3A4
100
AcDbEntity
  8
0
100
AcDbPolyline
 62
7
  6
CONTINUOUS
 90
3
 70
0
 43
0.3500000087
 10
-39.6770083923
 20
33.5588601318
 10
-39.7484358154
 20
33.3445778625
 10
-39.8912906616
 20
33.0588639069
  0
LINE
  5
3A5
100
AcDbEntity
  8
0
100
AcDbLine
 62
7
  6
CONTINUOUS
 10
-47.2770068884
 20
-4.6
 30
0.0
 11
-48.2770068884
 21
-4.6
 31
0.0
  0
LINE
  5
3A6
100
AcDbEntity
  8
RACCORDO
100
AcDbLine
 62
7
  6
CONTINUOUS
 10
-29.5770068884
 20
-4.5
 30
0.0
 11
-34.5446938466
 21
-4.5
 31
0.0
  0
LINE
  5
3A7
100
AcDbEntity
  8
0
100
AcDbLine
 62
7
  6
CONTINUOUS
 10
-40.4280259463
 20
-4.3473247376
 30
0.0
 11
-43.0770068884
 21
-4.3473247376
 31
0.0
  0
LINE
  5
3A8
100
AcDbEntity
  8
RACCORDO
100
AcDbLine
 62
250
  6
CONTINUOUS
 10
-32.8770068884
 20
-4.3
 30
0.0
 11
-29.3770068884
 21
-4.3
 31
0.0
  0
LINE
  5
3A9
100
AcDbEntity
  8
0
100
AcDbLine
 62
7
  6
CONTINUOUS
 10
-48.2770068884
 20
-4.1
 30
0.0
 11
-46.7770068884
 21
-4.1
 31
0.0
  0
LINE
  5
3AA
100
AcDbEntity
  8
0
100
AcDbLine
 62
7
  6
CONTINUOUS
 10
-48.2770068884
 20
-8.1
 30
0.0
 11
-48.2770068884
 21
-4.6
 31
0.0
  0
LINE
  5
3AB
100
AcDbEntity
  8
0
100
AcDbLine
 62
7
  6
CONTINUOUS
 10
-48.2770068884
 20
-4.1
 30
0.0
 11
-48.2770068884
 21
2.0
 31
0.0
  0
LINE
  5
3AC
100
AcDbEntity
  8
0
100
AcDbLine
 62
7
  6
CONTINUOUS
 10
-40.4280259463
 20
-2.1
 30
0.0
 11
-39.0480259463
 21
-2.1
 31
0.0
  0
LINE
  5
3AD
100
AcDbEntity
  8
0
100
AcDbLine
 62
7
  6
CONTINUOUS
 10
-47.8770068884
 20
9.4305942288
 30
0.0
 11
-47.8770068884
 21
8.1
 31
0.0
  0
LINE
  5
3AE
100
AcDbEntity
  8
0
100
AcDbLine
 62
7
  6
CONTINUOUS
 10
-47.5770068884
 20
3.4
 30
0.0
 11
-47.5770068884
 21
6.5
 31
0.0
  0
LINE
  5
3AF
100
AcDbEntity
  8
0
100
AcDbLine
 62
7
  6
CONTINUOUS
 10
-46.2770068884
 20
8.1
 30
0.0
 11
-46.2770068884
 21
1.8
 31
0.0
  0
LINE
  5
3B0
100
AcDbEntity
  8
RACCORDO
100
AcDbLine
 62
7
  6
CONTINUOUS
 10
-51.0770068884
 20
-0.4101132618
 30
0.0
 11
-52.4770068884
 21
-0.4223308767
 31
0.0
  0
LINE
  5
3B1
100
AcDbEntity
  8
0
100
AcDbLine
 62
7
  6
CONTINUOUS
 10
-32.8770068884
 20
-1.7
 30
0.0
 11
-36.3770068884
 21
-1.7
 31
0.0
  0
LINE
  5
3B2
100
AcDbEntity
  8
0
100
AcDbLine
 62
7
  6
CONTINUOUS
 10
-48.2770068884
 20
-1.4
 30
0.0
 11
-45.0770068884
 21
-1.4
 31
0.0
  0
LINE
  5
3B3
100
AcDbEntity
  8
0
100
AcDbLine
 62
7
  6
CONTINUOUS
 10
-43.0770068884
 20
-0.9
 30
0.0
 11
-45.0770068884
 21
-0.9
 31
0.0
  0
LINE
  5
3B4
100
AcDbEntity
  8
0
100
AcDbLine
 62
7
  6
CONTINUOUS
 10
-45.0770068884
 20
-1.4
 30
0.0
 11
-43.0770068884
 21
-3.4
 31
0.0
  0
LINE
  5
3B5
100
AcDbEntity
  8
RACCORDO
100
AcDbLine
 62
7
  6
CONTINUOUS
 10
-46.2917383828
 20
-6.8520944533
 30
0.0
 11
-46.7770068884
 21
-4.1
 31
0.0
  0
LINE
  5
3B6
100
AcDbEntity
  8
ASSI
100
AcDbLine
 62
250
  6
CONTINUOUS
 10
-45.9024870616
 20
-22.3338981669
 30
0.0
 11
-45.9024870616
 21
-23.7507734247
 31
0.0
  0
LINE
  5
3B7
100
AcDbEntity
  8
ASSI
100
AcDbLine
 62
250
  6
CONTINUOUS
 10
-45.9024870616
 20
22.3338981669
 30
0.0
 11
-45.9024870616
 21
23.7507734247
 31
0.0
  0
LINE
  5
3B8
100
AcDbEntity
  8
RACCORDO
100
AcDbLine
 62
7
  6
CONTINUOUS
 10
-45.4770068884
 20
-22.3301850577
 30
0.0
 11
-45.4770068884
 21
-23.2563578147
 31
0.0
  0
LINE
  5
3B9
100
AcDbEntity
  8
RACCORDO
100
AcDbLine
 62
7
  6
CONTINUOUS
 10
-45.4770068884
 20
22.3301850577
 30
0.0
 11
-45.4770068884
 21
23.2563578147
 31
0.0
  0
LINE
  5
3BA
100
AcDbEntity
  8
0
100
AcDbLine
 62
7
  6
CONTINUOUS
 10
-45.0770068884
 20
-0.9
 30
0.0
 11
-45.0770068884
 21
1.8
 31
0.0
  0
LINE
  5
3BB
100
AcDbEntity
  8
0
100
AcDbLine
 62
7
  6
CONTINUOUS
 10
-45.0770068884
 20
1.8
 30
0.0
 11
-48.2770068884
 21
1.8
 31
0.0
  0
LINE
  5
3BC
100
AcDbEntity
  8
0
100
AcDbLine
 62
7
  6
CONTINUOUS
 10
-35.3770068884
 20
1.9
 30
0.0
 11
-32.8770068884
 21
1.9
 31
0.0
  0
LINE
  5
3BD
100
AcDbEntity
  8
0
100
AcDbLine
 62
7
  6
CONTINUOUS
 10
-51.2770068884
 20
2.0
 30
0.0
 11
-46.2770068884
 21
2.0
 31
0.0
  0
LINE
  5
3BE
100
AcDbEntity
  8
RACCORDO
100
AcDbLine
 62
7
  6
CONTINUOUS
 10
-52.4770068884
 20
0.4223308767
 30
0.0
 11
-51.0770068884
 21
0.4101132618
 31
0.0
  0
LINE
  5
3BF
100
AcDbEntity
  8
DRAFT
100
AcDbLine
 62
7
  6
CONTINUOUS
 10
-43.4770068884
 20
10.0
 30
0.0
 11
-43.4770068884
 21
8.1
 31
0.0
  0
LINE
  5
3C0
100
AcDbEntity
  8
0
100
AcDbLine
 62
7
  6
CONTINUOUS
 10
-43.0770068884
 20
-4.3473247376
 30
0.0
 11
-43.0770068884
 21
-0.9
 31
0.0
  0
LINE
  5
3C1
100
AcDbEntity
  8
RACCORDO
100
AcDbLine
 62
250
  6
CONTINUOUS
 10
-42.9682806852
 20
21.5659754333
 30
0.0
 11
-42.9682806852
 21
20.9917082642
 31
0.0
  0
LINE
  5
3C2
100
AcDbEntity
  8
RACCORDO
100
AcDbLine
 62
250
  6
CONTINUOUS
 10
-42.9682806852
 20
-20.9917082642
 30
0.0
 11
-42.9682806852
 21
-21.5659754333
 31
0.0
  0
LINE
  5
3C3
100
AcDbEntity
  8
RACCORDO
100
AcDbLine
 62
7
  6
CONTINUOUS
 10
-42.4770068884
 20
-19.6808012501
 30
0.0
 11
-42.4770068884
 21
-21.3126932437
 31
0.0
  0
LINE
  5
3C4
100
AcDbEntity
  8
RACCORDO
100
AcDbLine
 62
7
  6
CONTINUOUS
 10
-42.4770068884
 20
19.6808012501
 30
0.0
 11
-42.4770068884
 21
21.3126932437
 31
0.0
  0
LINE
  5
3C5
100
AcDbEntity
  8
0
100
AcDbLine
 62
7
  6
CONTINUOUS
 10
-46.7770068884
 20
-4.1
 30
0.0
 11
-47.2770068884
 21
-4.6
 31
0.0
  0
LINE
  5
3C6
100
AcDbEntity
  8
0
100
AcDbLine
 62
7
  6
CONTINUOUS
 10
-39.0480259463
 20
2.4
 30
0.0
 11
-40.4280259463
 21
1.02
 31
0.0
  0
LINE
  5
3C7
100
AcDbEntity
  8
0
100
AcDbLine
 62
7
  6
CONTINUOUS
 10
-37.5158957773
 20
2.4
 30
0.0
 11
-39.0480259463
 21
2.4
 31
0.0
  0
LINE
  5
3C8
100
AcDbEntity
  8
0
100
AcDbLine
 62
7
  6
CONTINUOUS
 10
-50.4770068884
 20
3.4
 30
0.0
 11
-47.5770068884
 21
3.4
 31
0.0
  0
LINE
  5
3C9
100
AcDbEntity
  8
0
100
AcDbLine
 62
7
  6
CONTINUOUS
 10
-41.8770068884
 20
11.0
 30
0.0
 11
-41.8770068884
 21
6.3
 31
0.0
  0
LINE
  5
3CA
100
AcDbEntity
  8
0
100
AcDbLine
 62
7
  6
CONTINUOUS
 10
-40.4280259463
 20
1.02
 30
0.0
 11
-40.4280259463
 21
-4.3473247376
 31
0.0
  0
LINE
  5
3CB
100
AcDbEntity
  8
0
100
AcDbLine
 62
7
  6
CONTINUOUS
 10
-32.6770068884
 20
5.4
 30
0.0
 11
-30.8770068884
 21
5.4
 31
0.0
  0
LINE
  5
3CC
100
AcDbEntity
  8
RACCORDO
100
AcDbLine
 62
7
  6
CONTINUOUS
 10
-34.0598496009
 20
6.2
 30
0.0
 11
-35.1521048211
 21
6.2
 31
0.0
  0
LINE
  5
3CD
100
AcDbEntity
  8
0
100
AcDbLine
 62
7
  6
CONTINUOUS
 10
-39.0480259463
 20
-7.1
 30
0.0
 11
-39.0480259463
 21
-2.1
 31
0.0
  0
LINE
  5
3CE
100
AcDbEntity
  8
RACCORDO
100
AcDbLine
 62
7
  6
CONTINUOUS
 10
-35.3318183243
 20
6.0877670597
 30
0.0
 11
-37.3770068884
 21
1.9
 31
0.0
  0
LINE
  5
3CF
100
AcDbEntity
  8
DRAFT
100
AcDbLine
 62
7
  6
CONTINUOUS
 10
-52.2583705093
 20
-10.8204228659
 30
0.0
 11
-52.4770068884
 21
-10.9
 31
0.0
  0
LINE
  5
3D0
100
AcDbEntity
  8
RACCORDO
100
AcDbLine
 62
7
  6
CONTINUOUS
 10
-51.0770068884
 20
7.2898867382
 30
0.0
 11
-52.4770068884
 21
7.2776691233
 31
0.0
  0
LINE
  5
3D1
100
AcDbEntity
  8
0
100
AcDbLine
 62
7
  6
CONTINUOUS
 10
-46.2770068884
 20
6.3
 30
0.0
 11
-33.1770068884
 21
6.3
 31
0.0
  0
LINE
  5
3D2
100
AcDbEntity
  8
0
100
AcDbLine
 62
7
  6
CONTINUOUS
 10
-50.4770068884
 20
6.5
 30
0.0
 11
-47.5770068884
 21
6.5
 31
0.0
  0
LINE
  5
3D3
100
AcDbEntity
  8
0
100
AcDbLine
 62
7
  6
CONTINUOUS
 10
-51.0770068884
 20
8.1
 30
0.0
 11
-46.2770068884
 21
8.1
 31
0.0
  0
LINE
  5
3D4
100
AcDbEntity
  8
DRAFT
100
AcDbLine
 62
7
  6
CONTINUOUS
 10
-43.4770068884
 20
8.1
 30
0.0
 11
-46.2770068884
 21
8.1
 31
0.0
  0
LINE
  5
3D5
100
AcDbEntity
  8
RACCORDO
100
AcDbLine
 62
7
  6
CONTINUOUS
 10
-34.5446938466
 20
-4.5
 30
0.0
 11
-36.3770068884
 21
-1.7
 31
0.0
  0
LINE
  5
3D6
100
AcDbEntity
  8
RACCORDO
100
AcDbLine
 62
250
  6
CONTINUOUS
 10
-34.6543794423
 20
-4.3323869006
 30
0.0
 11
-39.0480259463
 21
-6.8690598923
 31
0.0
  0
LINE
  5
3D7
100
AcDbEntity
  8
RACCORDO
100
AcDbLine
 62
7
  6
CONTINUOUS
 10
-34.5446938466
 20
-4.5
 30
0.0
 11
-39.0480259463
 21
-7.1
 31
0.0
  0
LINE
  5
3D8
100
AcDbEntity
  8
RACCORDO
100
AcDbLine
 62
7
  6
CONTINUOUS
 10
-52.4770068884
 20
8.35
 30
0.0
 11
-51.0770068884
 21
8.35
 31
0.0
  0
LINE
  5
3D9
100
AcDbEntity
  8
DRAFT
100
AcDbLine
 62
7
  6
CONTINUOUS
 10
-52.4770068884
 20
10.0
 30
0.0
 11
-43.4770068884
 21
10.0
 31
0.0
  0
LINE
  5
3DA
100
AcDbEntity
  8
ASSI
100
AcDbLine
 62
7
  6
CONTINUOUS
 10
-52.4770068884
 20
9.6716700135
 30
0.0
 11
-43.4770068884
 21
9.2
 31
0.0
  0
LINE
  5
3DB
100
AcDbEntity
  8
0
100
AcDbLine
 62
7
  6
CONTINUOUS
 10
-37.5158957773
 20
2.4
 30
0.0
 11
-36.3770068884
 21
-1.7
 31
0.0
  0
LINE
  5
3DC
100
AcDbEntity
  8
0
100
AcDbLine
 62
7
  6
CONTINUOUS
 10
-35.3770068884
 20
-1.7
 30
0.0
 11
-35.3770068884
 21
1.9
 31
0.0
  0
LINE
  5
3DD
100
AcDbEntity
  8
RACCORDO
100
AcDbLine
 62
7
  6
CONTINUOUS
 10
-51.0770068884
 20
11.5898867382
 30
0.0
 11
-52.4770068884
 21
11.5776691233
 31
0.0
  0
LINE
  5
3DE
100
AcDbEntity
  8
DRAFT
100
AcDbLine
 62
7
  6
CONTINUOUS
 10
-41.8770068884
 20
11.0
 30
0.0
 11
-52.4770068884
 21
11.0
 31
0.0
  0
LINE
  5
3DF
100
AcDbEntity
  8
RACCORDO
100
AcDbLine
 62
7
  6
CONTINUOUS
 10
-52.3012709571
 20
11.2
 30
0.0
 11
-52.4770068884
 21
11.2
 31
0.0
  0
LINE
  5
3E0
100
AcDbEntity
  8
0
100
AcDbLine
 62
7
  6
CONTINUOUS
 10
-33.1770068884
 20
6.3
 30
0.0
 11
-33.1770068884
 21
6.2
 31
0.0
  0
LINE
  5
3E1
100
AcDbEntity
  8
RACCORDO
100
AcDbLine
 62
7
  6
CONTINUOUS
 10
-32.8770068884
 20
1.9
 30
0.0
 11
-32.8770068884
 21
-4.3
 31
0.0
  0
LINE
  5
3E2
100
AcDbEntity
  8
RACCORDO
100
AcDbLine
 62
7
  6
CONTINUOUS
 10
-52.4770068884
 20
12.4223308767
 30
0.0
 11
-51.0770068884
 21
12.4101132618
 31
0.0
  0
LINE
  5
3E3
100
AcDbEntity
  8
RACCORDO
100
AcDbLine
 62
250
  6
CONTINUOUS
 10
-52.4770068884
 20
13.3223499151
 30
0.0
 11
-51.0770068884
 21
13.3101323002
 31
0.0
  0
LINE
  5
3E4
100
AcDbEntity
  8
RACCORDO
100
AcDbLine
 62
7
  6
CONTINUOUS
 10
-52.4770068884
 20
13.8223308767
 30
0.0
 11
-51.0770068884
 21
13.8101132618
 31
0.0
  0
LINE
  5
3E5
100
AcDbEntity
  8
RACCORDO
100
AcDbLine
 62
7
  6
CONTINUOUS
 10
-29.3770068884
 20
1.6
 30
0.0
 11
-33.9184282446
 21
6.1414213562
 31
0.0
  0
LINE
  5
3E6
100
AcDbEntity
  8
0
100
AcDbLine
 62
7
  6
CONTINUOUS
 10
-30.8770068884
 20
5.4
 30
0.0
 11
-30.8770068884
 21
3.1
 31
0.0
  0
LINE
  5
3E7
100
AcDbEntity
  8
RACCORDO
100
AcDbLine
 62
7
  6
CONTINUOUS
 10
-54.9770068884
 20
-23.1226497308
 30
0.0
 11
-55.8520068884
 21
-23.6278312164
 31
0.0
  0
LINE
  5
3E8
100
AcDbEntity
  8
RACCORDO
100
AcDbLine
 62
250
  6
CONTINUOUS
 10
-54.7284613212
 20
-23.2669872981
 30
0.0
 11
-55.7284613212
 21
-23.8443375673
 31
0.0
  0
LINE
  5
3E9
100
AcDbEntity
  8
RACCORDO
100
AcDbLine
 62
7
  6
CONTINUOUS
 10
-55.8520068884
 20
23.6278312164
 30
0.0
 11
-54.9770068884
 21
23.1226497308
 31
0.0
  0
LINE
  5
3EA
100
AcDbEntity
  8
RACCORDO
100
AcDbLine
 62
250
  6
CONTINUOUS
 10
-55.7284613212
 20
23.8443375673
 30
0.0
 11
-54.7284613212
 21
23.2669872981
 31
0.0
  0
LINE
  5
3EB
100
AcDbEntity
  8
0
100
AcDbLine
 62
7
  6
CONTINUOUS
 10
-33.1770068884
 20
6.2
 30
0.0
 11
-32.6770068884
 21
5.4
 31
0.0
  0
LINE
  5
3EC
100
AcDbEntity
  8
RACCORDO
100
AcDbLine
 62
7
  6
CONTINUOUS
 10
-29.3770068884
 20
-4.3
 30
0.0
 11
-29.3770068884
 21
1.6
 31
0.0
  0
LINE
  5
3ED
100
AcDbEntity
  8
RACCORDO
100
AcDbLine
 62
7
  6
CONTINUOUS
 10
-52.4770068884
 20
17.917531443
 30
0.0
 11
-42.4770068884
 21
19.6808012501
 31
0.0
  0
LINE
  5
3EE
100
AcDbEntity
  8
0
100
AcDbLine
 62
250
  6
CONTINUOUS
 10
-42.4770068884
 20
20.0275513222
 30
0.0
 11
-52.4770068884
 21
18.3232986254
 31
0.0
  0
LINE
  5
3EF
100
AcDbEntity
  8
RACCORDO
100
AcDbLine
 62
250
  6
CONTINUOUS
 10
-62.0631620581
 20
20.5419058565
 30
0.0
 11
-62.5540128606
 21
20.5624683248
 31
0.0
  0
LINE
  5
3F0
100
AcDbEntity
  8
DRAFT
100
AcDbLine
 62
7
  6
CONTINUOUS
 10
-52.4770068884
 20
20.9
 30
0.0
 11
-52.2772201282
 21
20.9104703804
 31
0.0
  0
LINE
  5
3F1
100
AcDbEntity
  8
RACCORDO
100
AcDbLine
 62
7
  6
CONTINUOUS
 10
-42.9682806852
 20
21.5659754333
 30
0.0
 11
-52.4770068884
 21
21.4
 31
0.0
  0
LINE
  5
3F2
100
AcDbEntity
  8
RACCORDO
100
AcDbLine
 62
7
  6
CONTINUOUS
 10
-42.4770068884
 20
20.9959955457
 30
0.0
 11
-52.2772201282
 21
20.9104703804
 31
0.0
  0
LINE
  5
3F3
100
AcDbEntity
  8
RACCORDO
100
AcDbLine
 62
250
  6
CONTINUOUS
 10
-52.4770068884
 20
21.8911779406
 30
0.0
 11
-53.4748205594
 21
21.8998857286
 31
0.0
  0
LWPOLYLINE
  5
3F4
100
AcDbEntity
  8
0
100
AcDbPolyline
 62
7
  6
CONTINUOUS
 90
10
 70
0
 43
0.3500000087
 10
-45.427005481
 20
43.7963104431
 10
-45.3555780579
 20
43.6534513336
 10
-45.3555780579
 20
43.5820239105
 10
-45.4984371674
 20
43.4391690643
 10
-45.5698645905
 20
43.4391690643
 10
-45.6412920135
 20
43.5105964874
 10
-45.6412920135
 20
43.5820239105
 10
-45.5698645905
 20
43.72488302
 10
-45.4984371674
 20
43.7963104431
 10
-45.427005481
 20
43.7963104431
  0
LWPOLYLINE
  5
3F5
100
AcDbEntity
  8
0
100
AcDbPolyline
 62
7
  6
CONTINUOUS
 90
10
 70
0
 43
0.3500000087
 10
-39.7484358154
 20
33.7731466644
 10
-39.6770083923
 20
33.6302918182
 10
-39.6770083923
 20
33.5588601318
 10
-39.8198632385
 20
33.4160052856
 10
-39.8912906616
 20
33.4160052856
 10
-39.962722348
 20
33.4874327087
 10
-39.962722348
 20
33.5588601318
 10
-39.8912906616
 20
33.7017192413
 10
-39.8198632385
 20
33.7731466644
 10
-39.7484358154
 20
33.7731466644
  0
LINE
  5
3F6
100
AcDbEntity
  8
RACCORDO
100
AcDbLine
 62
250
  6
CONTINUOUS
 10
-53.4748205594
 20
21.8998857286
 30
0.0
 11
-61.1163440024
 21
21.4994104546
 31
0.0
  0
LINE
  5
3F7
100
AcDbEntity
  8
RACCORDO
100
AcDbLine
 62
7
  6
CONTINUOUS
 10
-61.1337857773
 20
21.998725222
 30
0.0
 11
-54.8525500304
 21
22.3279108386
 31
0.0
  0
LINE
  5
3F8
100
AcDbEntity
  8
RACCORDO
100
AcDbLine
 62
7
  6
CONTINUOUS
 10
-58.4770068884
 20
22.2
 30
0.0
 11
-61.1256370006
 21
22.0611911777
 31
0.0
  0
LINE
  5
3F9
100
AcDbEntity
  8
RACCORDO
100
AcDbLine
 62
250
  6
CONTINUOUS
 10
-55.9770068884
 20
23.8443375673
 30
0.0
 11
-55.7284613212
 21
23.8443375673
 31
0.0
  0
LINE
  5
3FA
100
AcDbEntity
  8
RACCORDO
100
AcDbLine
 62
250
  6
CONTINUOUS
 10
-52.4770068884
 20
23.8443375673
 30
0.0
 11
-52.7255524555
 21
23.8443375673
 31
0.0
  0
LINE
  5
3FB
100
AcDbEntity
  8
ASSI
100
AcDbLine
 62
7
  6
CONTINUOUS
 10
-52.4820995461
 20
23.7942117984
 30
0.0
 11
-45.9740980227
 21
23.7563493531
 31
0.0
  0
LINE
  5
3FC
100
AcDbEntity
  8
RACCORDO
100
AcDbLine
 62
7
  6
CONTINUOUS
 10
-43.4682803529
 20
22.3126551668
 30
0.0
 11
-53.4770068884
 21
22.4
 31
0.0
  0
LINE
  5
3FD
100
AcDbEntity
  8
RACCORDO
100
AcDbLine
 62
250
  6
CONTINUOUS
 10
-53.4770068884
 20
24.2500042308
 30
0.0
 11
-55.7284613212
 21
24.2369056521
 31
0.0
  0
LINE
  5
3FE
100
AcDbEntity
  8
RACCORDO
100
AcDbLine
 62
7
  6
CONTINUOUS
 10
-53.4770068884
 20
24.5
 30
0.0
 11
-55.7284613212
 21
24.4869014213
 31
0.0
  0
LINE
  5
3FF
100
AcDbEntity
  8
RACCORDO
100
AcDbLine
 62
250
  6
CONTINUOUS
 10
-55.9770068884
 20
24.2369056521
 30
0.0
 11
-55.7284613212
 21
24.2369056521
 31
0.0
  0
LINE
  5
400
100
AcDbEntity
  8
RACCORDO
100
AcDbLine
 62
250
  6
CONTINUOUS
 10
-52.4770068884
 20
24.2456323968
 30
0.0
 11
-52.7255524555
 21
24.2456323968
 31
0.0
  0
LINE
  5
401
100
AcDbEntity
  8
RACCORDO
100
AcDbLine
 62
250
  6
CONTINUOUS
 10
-52.7255524555
 20
24.2456323968
 30
0.0
 11
-53.4770068884
 21
24.2500042308
 31
0.0
  0
LINE
  5
402
100
AcDbEntity
  8
RACCORDO
100
AcDbLine
 62
7
  6
CONTINUOUS
 10
-52.7255524555
 20
24.495628166
 30
0.0
 11
-53.4770068884
 21
24.5
 31
0.0
  0
LWPOLYLINE
  5
403
100
AcDbEntity
  8
0
100
AcDbPolyline
 62
7
  6
CONTINUOUS
 90
6
 70
0
 43
0.3500000087
 10
-42.5341479492
 20
33.2731461761
 10
-41.4627195496
 20
33.2731461761
 10
-41.2484372803
 20
33.4874327087
 10
-41.2484372803
 20
34.5588611084
 10
-41.6770060822
 20
34.9874341736
 10
-42.1055791473
 20
34.9874341736
  0
LWPOLYLINE
  5
404
100
AcDbEntity
  8
0
100
AcDbPolyline
 62
7
  6
CONTINUOUS
 90
7
 70
0
 43
0.3500000087
 10
-43.3912940796
 20
33.2731461761
 10
-44.8912912811
 20
33.2731461761
 10
-43.3912940796
 20
35.4160029755
 10
-43.3912940796
 20
35.8445760406
 10
-43.8198628815
 20
36.2731491058
 10
-44.4627224792
 20
36.2731491058
 10
-44.8912912811
 20
35.6302895081
  0
LWPOLYLINE
  5
405
100
AcDbEntity
  8
0
100
AcDbPolyline
 62
7
  6
CONTINUOUS
 90
6
 70
0
 43
0.3500000087
 10
-50.3555786774
 20
43.2963099548
 10
-49.2841502777
 20
43.2963099548
 10
-49.0698637451
 20
43.5105964874
 10
-49.0698637451
 20
44.5820248871
 10
-49.4984368103
 20
45.0105979523
 10
-49.9270056122
 20
45.0105979523
  0
LWPOLYLINE
  5
406
100
AcDbEntity
  8
0
100
AcDbPolyline
 62
7
  6
CONTINUOUS
 90
6
 70
0
 43
0.3500000087
 10
-48.2127218781
 20
43.2963099548
 10
-47.1412934784
 20
43.2963099548
 10
-46.9270069458
 20
43.5105964874
 10
-46.9270069458
 20
44.5820248871
 10
-47.355580011
 20
45.0105979523
 10
-47.7841488129
 20
45.0105979523
  0
ARC
  5
407
100
AcDbEntity
  8
RACCORDO
100
AcDbCircle
 62
7
  6
CONTINUOUS
 10
10.6322169119
 20
21.8996996299
 30
0.0
 40
0.5003655785
100
AcDbArc
 50
0.0213097249
 51
63.4314444296
  0
ARC
  5
408
100
AcDbEntity
  8
RACCORDO
100
AcDbCircle
 62
7
  6
CONTINUOUS
 10
-10.6322169024
 20
21.8996996237
 30
0.0
 40
0.5003655785
100
AcDbArc
 50
116.5685562188
 51
179.9786895607
  0
ARC
  5
409
100
AcDbEntity
  8
RACCORDO
100
AcDbCircle
 62
7
  6
CONTINUOUS
 10
10.632216912
 20
-21.8996996297
 30
0.0
 40
0.5003655785
100
AcDbArc
 50
296.5685555374
 51
359.9786902422
  0
ARC
  5
40A
100
AcDbEntity
  8
RACCORDO
100
AcDbCircle
 62
7
  6
CONTINUOUS
 10
-10.6322169022
 20
-21.899699624
 30
0.0
 40
0.5003655785
100
AcDbArc
 50
180.0213104057
 51
243.4314437488
  0
ARC
  5
40B
100
AcDbEntity
  8
RACCORDO
100
AcDbCircle
 62
250
  6
CONTINUOUS
 10
-10.4990666028
 20
21.4985215997
 30
0.0
 40
0.5001723744
100
AcDbArc
 50
90.0239810469
 51
179.8981719658
  0
ARC
  5
40C
100
AcDbEntity
  8
RACCORDO
100
AcDbCircle
 62
250
  6
CONTINUOUS
 10
-10.499066664
 20
-21.498521661
 30
0.0
 40
0.5001723744
100
AcDbArc
 50
180.1018210193
 51
269.9760259536
  0
ARC
  5
40D
100
AcDbEntity
  8
RACCORDO
100
AcDbCircle
 62
250
  6
CONTINUOUS
 10
10.4990666558
 20
21.4985216786
 30
0.0
 40
0.5001723744
100
AcDbArc
 50
0.1018189988
 51
89.9760250166
  0
ARC
  5
40E
100
AcDbEntity
  8
RACCORDO
100
AcDbCircle
 62
250
  6
CONTINUOUS
 10
10.499066664
 20
-21.4985216611
 30
0.0
 40
0.5001723744
100
AcDbArc
 50
270.0239740404
 51
359.8981789871
  0
ARC
  5
40F
100
AcDbEntity
  8
RACCORDO
100
AcDbCircle
 62
7
  6
CONTINUOUS
 10
-10.6324618861
 20
21.9001238099
 30
0.0
 40
0.4998751156
100
AcDbArc
 50
92.0105358189
 51
116.5651877244
  0
ARC
  5
410
100
AcDbEntity
  8
RACCORDO
100
AcDbCircle
 62
7
  6
CONTINUOUS
 10
10.6324618861
 20
-21.9001238099
 30
0.0
 40
0.4998751156
100
AcDbArc
 50
272.0105358189
 51
296.5651877244
  0
ARC
  5
411
100
AcDbEntity
  8
RACCORDO
100
AcDbCircle
 62
7
  6
CONTINUOUS
 10
10.6324618861
 20
21.9001238099
 30
0.0
 40
0.4998751156
100
AcDbArc
 50
63.4348122756
 51
87.9894641811
  0
ARC
  5
412
100
AcDbEntity
  8
RACCORDO
100
AcDbCircle
 62
7
  6
CONTINUOUS
 10
-10.6324618861
 20
-21.9001238099
 30
0.0
 40
0.4998751156
100
AcDbArc
 50
243.4348122756
 51
267.9894641811
  0
ARC
  5
413
100
AcDbEntity
  8
RACCORDO
100
AcDbCircle
 62
250
  6
CONTINUOUS
 10
-8.513104562
 20
24.236895438
 30
0.0
 40
0.2500059834
100
AcDbArc
 50
0.0023408263
 51
89.9976591737
  0
ARC
  5
414
100
AcDbEntity
  8
RACCORDO
100
AcDbCircle
 62
250
  6
CONTINUOUS
 10
-10.3868954381
 20
24.2368954381
 30
0.0
 40
0.2500059834
100
AcDbArc
 50
90.0023408215
 51
179.9976591785
  0
ARC
  5
415
100
AcDbEntity
  8
RACCORDO
100
AcDbCircle
 62
250
  6
CONTINUOUS
 10
10.386895438
 20
-24.236895438
 30
0.0
 40
0.2500059834
100
AcDbArc
 50
270.0023408263
 51
359.9976591737
  0
ARC
  5
416
100
AcDbEntity
  8
RACCORDO
100
AcDbCircle
 62
250
  6
CONTINUOUS
 10
8.513104562
 20
-24.236895438
 30
0.0
 40
0.2500059834
100
AcDbArc
 50
180.0023408263
 51
269.9976591737
  0
ARC
  5
417
100
AcDbEntity
  8
RACCORDO
100
AcDbCircle
 62
250
  6
CONTINUOUS
 10
8.513104562
 20
24.236895438
 30
0.0
 40
0.2500059834
100
AcDbArc
 50
90.0023408263
 51
179.9976591737
  0
ARC
  5
418
100
AcDbEntity
  8
RACCORDO
100
AcDbCircle
 62
250
  6
CONTINUOUS
 10
10.3868954381
 20
24.2368954381
 30
0.0
 40
0.2500059834
100
AcDbArc
 50
0.0023408215
 51
89.9976591785
  0
ARC
  5
419
100
AcDbEntity
  8
RACCORDO
100
AcDbCircle
 62
250
  6
CONTINUOUS
 10
-10.3868954381
 20
-24.2368954381
 30
0.0
 40
0.2500059834
100
AcDbArc
 50
180.0023408215
 51
269.9976591785
  0
ARC
  5
41A
100
AcDbEntity
  8
RACCORDO
100
AcDbCircle
 62
250
  6
CONTINUOUS
 10
-8.513104562
 20
-24.236895438
 30
0.0
 40
0.2500059834
100
AcDbArc
 50
270.0023408263
 51
359.9976591737
  0
ARC
  5
41B
100
AcDbEntity
  8
RACCORDO
100
AcDbCircle
 62
7
  6
CONTINUOUS
 10
-9.2
 20
15.85
 30
0.0
 40
0.25
100
AcDbArc
 50
180.0
 51
270.0
  0
ARC
  5
41C
100
AcDbEntity
  8
RACCORDO
100
AcDbCircle
 62
7
  6
CONTINUOUS
 10
9.2
 20
15.85
 30
0.0
 40
0.25
100
AcDbArc
 50
270.0
 51
360.0
  0
ARC
  5
41D
100
AcDbEntity
  8
RACCORDO
100
AcDbCircle
 62
7
  6
CONTINUOUS
 10
-8.4999946513
 20
24.2500053487
 30
0.0
 40
0.2499946513
100
AcDbArc
 50
359.9997437926
 51
90.0002562074
  0
ARC
  5
41E
100
AcDbEntity
  8
RACCORDO
100
AcDbCircle
 62
7
  6
CONTINUOUS
 10
-10.4000053487
 20
24.2500053487
 30
0.0
 40
0.2499946513
100
AcDbArc
 50
89.9997437926
 51
180.0002562074
  0
ARC
  5
41F
100
AcDbEntity
  8
RACCORDO
100
AcDbCircle
 62
7
  6
CONTINUOUS
 10
10.4000053487
 20
-24.2500053487
 30
0.0
 40
0.2499946513
100
AcDbArc
 50
269.9997437926
 51
0.0002562074
  0
ARC
  5
420
100
AcDbEntity
  8
RACCORDO
100
AcDbCircle
 62
7
  6
CONTINUOUS
 10
8.4999946513
 20
-24.2500053487
 30
0.0
 40
0.2499946513
100
AcDbArc
 50
179.9997437926
 51
270.0002562074
  0
ARC
  5
421
100
AcDbEntity
  8
RACCORDO
100
AcDbCircle
 62
7
  6
CONTINUOUS
 10
8.4999946513
 20
24.2500053487
 30
0.0
 40
0.2499946513
100
AcDbArc
 50
89.9997437926
 51
180.0002562074
  0
ARC
  5
422
100
AcDbEntity
  8
RACCORDO
100
AcDbCircle
 62
7
  6
CONTINUOUS
 10
10.4000053487
 20
24.2500053487
 30
0.0
 40
0.2499946513
100
AcDbArc
 50
359.9997437926
 51
90.0002562074
  0
ARC
  5
423
100
AcDbEntity
  8
RACCORDO
100
AcDbCircle
 62
7
  6
CONTINUOUS
 10
-10.4000053487
 20
-24.2500053487
 30
0.0
 40
0.2499946513
100
AcDbArc
 50
179.9997437926
 51
270.0002562074
  0
ARC
  5
424
100
AcDbEntity
  8
RACCORDO
100
AcDbCircle
 62
7
  6
CONTINUOUS
 10
-8.4999946513
 20
-24.2500053487
 30
0.0
 40
0.2499946513
100
AcDbArc
 50
269.9997437926
 51
0.0002562074
  0
ARC
  5
425
100
AcDbEntity
  8
RACCORDO
100
AcDbCircle
 62
250
  6
CONTINUOUS
 10
9.2001692386
 20
21.8113366061
 30
0.0
 40
0.249843983
100
AcDbArc
 50
0.0452227342
 51
90.0388091898
  0
ARC
  5
426
100
AcDbEntity
  8
RACCORDO
100
AcDbCircle
 62
250
  6
CONTINUOUS
 10
-9.2001692374
 20
21.8113366079
 30
0.0
 40
0.2498439827
100
AcDbArc
 50
89.9611910773
 51
179.9547776654
  0
ARC
  5
427
100
AcDbEntity
  8
RACCORDO
100
AcDbCircle
 62
7
  6
CONTINUOUS
 10
-61.0552818429
 20
-20.5007809198
 30
0.0
 40
1.5
100
AcDbArc
 50
182.3569499908
 51
267.0
  0
ARC
  5
428
100
AcDbEntity
  8
RACCORDO
100
AcDbCircle
 62
250
  6
CONTINUOUS
 10
-61.0640080403
 20
-20.5007809141
 30
0.0
 40
1.0000000061
100
AcDbArc
 50
182.3569503068
 51
266.999999684
  0
ARC
  5
429
100
AcDbEntity
  8
RACCORDO
100
AcDbCircle
 62
7
  6
CONTINUOUS
 10
-43.4770068884
 20
-21.3126932437
 30
0.0
 40
1.0
100
AcDbArc
 50
270.5
 51
360.0
  0
ARC
  5
42A
100
AcDbEntity
  8
ASSI
100
AcDbCircle
 62
7
  6
CONTINUOUS
 10
-45.9770068884
 20
-23.2563578147
 30
0.0
 40
0.5
100
AcDbArc
 50
270.3333333333
 51
360.0
  0
ARC
  5
42B
100
AcDbEntity
  8
RACCORDO
100
AcDbCircle
 62
7
  6
CONTINUOUS
 10
-45.9962960569
 20
-6.8
 30
0.0
 40
0.3
100
AcDbArc
 50
190.0
 51
270.0
  0
ARC
  5
42C
100
AcDbEntity
  8
RACCORDO
100
AcDbCircle
 62
7
  6
CONTINUOUS
 10
-51.3770068884
 20
-6.2872801014
 30
0.0
 40
0.3
100
AcDbArc
 50
0.0
 51
89.5
  0
ARC
  5
42D
100
AcDbEntity
  8
RACCORDO
100
AcDbCircle
 62
7
  6
CONTINUOUS
 10
-52.7270068884
 20
-23.8443375673
 30
0.0
 40
0.25
100
AcDbArc
 50
0.0
 51
60.0
  0
ARC
  5
42E
100
AcDbEntity
  8
RACCORDO
100
AcDbCircle
 62
7
  6
CONTINUOUS
 10
-52.7270068884
 20
-24.2456323968
 30
0.0
 40
0.25
100
AcDbArc
 50
270.3333333333
 51
360.0
  0
ARC
  5
42F
100
AcDbEntity
  8
RACCORDO
100
AcDbCircle
 62
7
  6
CONTINUOUS
 10
-55.7270068884
 20
-24.2369056521
 30
0.0
 40
0.25
100
AcDbArc
 50
180.0
 51
269.6666666667
  0
ARC
  5
430
100
AcDbEntity
  8
RACCORDO
100
AcDbCircle
 62
7
  6
CONTINUOUS
 10
-55.7270068884
 20
-23.8443375673
 30
0.0
 40
0.25
100
AcDbArc
 50
120.0
 51
180.0
  0
ARC
  5
431
100
AcDbEntity
  8
RACCORDO
100
AcDbCircle
 62
7
  6
CONTINUOUS
 10
-29.5770068884
 20
-4.3
 30
0.0
 40
0.2
100
AcDbArc
 50
270.0
 51
360.0
  0
ARC
  5
432
100
AcDbEntity
  8
RACCORDO
100
AcDbCircle
 62
7
  6
CONTINUOUS
 10
-32.6770068884
 20
-4.3
 30
0.0
 40
0.2
100
AcDbArc
 50
180.0
 51
270.0
  0
ARC
  5
433
100
AcDbEntity
  8
RACCORDO
100
AcDbCircle
 62
7
  6
CONTINUOUS
 10
-34.4365556843
 20
-4.3
 30
0.0
 40
0.2
100
AcDbArc
 50
213.2006359034
 51
270.0
  0
ARC
  5
434
100
AcDbEntity
  8
RACCORDO
100
AcDbCircle
 62
7
  6
CONTINUOUS
 10
-61.0471330662
 20
20.5632468755
 30
0.0
 40
1.5
100
AcDbArc
 50
93.0
 51
173.5114051664
  0
ARC
  5
435
100
AcDbEntity
  8
RACCORDO
100
AcDbCircle
 62
7
  6
CONTINUOUS
 10
-61.0552818429
 20
20.5007809198
 30
0.0
 40
1.5
100
AcDbArc
 50
93.0
 51
177.6430500092
  0
ARC
  5
436
100
AcDbEntity
  8
RACCORDO
100
AcDbCircle
 62
250
  6
CONTINUOUS
 10
-61.0640080403
 20
20.5007809141
 30
0.0
 40
1.000000006
100
AcDbArc
 50
93.0000003145
 51
177.6430496947
  0
ARC
  5
437
100
AcDbEntity
  8
RACCORDO
100
AcDbCircle
 62
7
  6
CONTINUOUS
 10
-43.4770068884
 20
21.3126932437
 30
0.0
 40
1.0
100
AcDbArc
 50
0.0
 51
89.5
  0
ARC
  5
438
100
AcDbEntity
  8
ASSI
100
AcDbCircle
 62
7
  6
CONTINUOUS
 10
-45.9770068884
 20
23.2563578147
 30
0.0
 40
0.5
100
AcDbArc
 50
0.0
 51
89.6666666667
  0
ARC
  5
439
100
AcDbEntity
  8
RACCORDO
100
AcDbCircle
 62
7
  6
CONTINUOUS
 10
-52.3012709571
 20
11.5
 30
0.0
 40
0.3
100
AcDbArc
 50
270.0
 51
315.0
  0
ARC
  5
43A
100
AcDbEntity
  8
RACCORDO
100
AcDbCircle
 62
7
  6
CONTINUOUS
 10
-52.7270068884
 20
23.8443375673
 30
0.0
 40
0.25
100
AcDbArc
 50
300.0
 51
360.0
  0
ARC
  5
43B
100
AcDbEntity
  8
RACCORDO
100
AcDbCircle
 62
7
  6
CONTINUOUS
 10
-52.7270068884
 20
24.2456323968
 30
0.0
 40
0.25
100
AcDbArc
 50
0.0
 51
89.6666666667
  0
ARC
  5
43C
100
AcDbEntity
  8
RACCORDO
100
AcDbCircle
 62
7
  6
CONTINUOUS
 10
-55.7270068884
 20
24.2369056521
 30
0.0
 40
0.25
100
AcDbArc
 50
90.3333333333
 51
180.0
  0
ARC
  5
43D
100
AcDbEntity
  8
RACCORDO
100
AcDbCircle
 62
7
  6
CONTINUOUS
 10
-55.7270068884
 20
23.8443375673
 30
0.0
 40
0.25
100
AcDbArc
 50
180.0
 51
240.0
  0
ARC
  5
43E
100
AcDbEntity
  8
RACCORDO
100
AcDbCircle
 62
7
  6
CONTINUOUS
 10
-34.0598496009
 20
6.0
 30
0.0
 40
0.2
100
AcDbArc
 50
45.0
 51
90.0
  0
ARC
  5
43F
100
AcDbEntity
  8
RACCORDO
100
AcDbCircle
 62
7
  6
CONTINUOUS
 10
-35.1521048211
 20
6.0
 30
0.0
 40
0.2
100
AcDbArc
 50
90.0
 51
153.9704078085
  0
ARC
  5
440
100
AcDbEntity
  8
RACCORDO
100
AcDbCircle
 62
7
  6
CONTINUOUS
 10
437.0326853638
 20
0.1
 30
0.0
 40
500.0
100
AcDbArc
 50
177.647367682
 51
177.6545447484
  0
ARC
  5
441
100
AcDbEntity
  8
ASSI
100
AcDbCircle
 62
7
  6
CONTINUOUS
 10
437.0229931116
 20
0.0
 30
0.0
 40
500.0
100
AcDbArc
 50
177.8718070179
 51
178.2120815273
  0
ARC
  5
442
100
AcDbEntity
  8
RACCORDO
100
AcDbCircle
 62
7
  6
CONTINUOUS
 10
437.0229931116
 20
-0.0
 30
0.0
 40
500.0
100
AcDbArc
 50
177.6430500092
 51
182.3569499908
  0
ARC
  5
443
100
AcDbEntity
  8
RACCORDO
100
AcDbCircle
 62
250
  6
CONTINUOUS
 10
437.0142857527
 20
0.0
 30
0.0
 40
499.5000188283
100
AcDbArc
 50
177.6430500981
 51
182.3569499019
  0
SPLINE
  5
444
100
AcDbEntity
  8
RACCORDO
100
AcDbSpline
 62
250
  6
CONTINUOUS
 70
0
 71
3
 72
18
 73
14
 74
0
 42
0.0000001
 43
0.0000001
 44
0.0000000001
 40
0.0
 40
0.0
 40
0.0
 40
0.0
 40
0.006264746
 40
0.0211639132
 40
0.0452318522
 40
0.0784153465
 40
0.1204091079
 40
0.1708066669
 40
0.2949697191
 40
0.4460784038
 40
0.6184399264
 40
0.8056756222
 40
1.0
 40
1.0
 40
1.0
 40
1.0
 10
-9.45
 20
20.6145589289
 30
0.0
 10
-9.45
 20
20.6150826108
 30
0.0
 10
-9.4478688972
 20
20.6159725293
 30
0.0
 10
-9.444607559
 20
20.6167318058
 30
0.0
 10
-9.4384143991
 20
20.6177078987
 30
0.0
 10
-9.4302657111
 20
20.6185908791
 30
0.0
 10
-9.419767965
 20
20.619486455
 30
0.0
 10
-9.4017231076
 20
20.6206958433
 30
0.0
 10
-9.3745176081
 20
20.6219921997
 30
0.0
 10
-9.3371228997
 20
20.6232167379
 30
0.0
 10
-9.2944395098
 20
20.6241304339
 30
0.0
 10
-9.2481395327
 20
20.6246938898
 30
0.0
 10
-9.2162439407
 20
20.6248213398
 30
0.0
 10
-9.2
 20
20.6248213394
 30
0.0
  0
SPLINE
  5
445
100
AcDbEntity
  8
RACCORDO
100
AcDbSpline
 62
250
  6
CONTINUOUS
 70
0
 71
3
 72
18
 73
14
 74
0
 42
0.0000001
 43
0.0000001
 44
0.0000000001
 40
0.0
 40
0.0
 40
0.0
 40
0.0
 40
0.0062647454
 40
0.0211639136
 40
0.0452318538
 40
0.0784153494
 40
0.1204091133
 40
0.1708066743
 40
0.2949697286
 40
0.4460784149
 40
0.6184399353
 40
0.8056756247
 40
1.0
 40
1.0
 40
1.0
 40
1.0
 10
9.45
 20
20.6145589289
 30
0.0
 10
9.45
 20
20.6150826108
 30
0.0
 10
9.4478688966
 20
20.6159725285
 30
0.0
 10
9.4446075586
 20
20.616731805
 30
0.0
 10
9.4384143981
 20
20.6177078975
 30
0.0
 10
9.4302657099
 20
20.6185908777
 30
0.0
 10
9.4197679632
 20
20.6194864532
 30
0.0
 10
9.4017231053
 20
20.6206958412
 30
0.0
 10
9.3745176053
 20
20.6219921974
 30
0.0
 10
9.3371228969
 20
20.6232167356
 30
0.0
 10
9.2944395077
 20
20.624130432
 30
0.0
 10
9.2481395316
 20
20.6246938887
 30
0.0
 10
9.2162439405
 20
20.6248213395
 30
0.0
 10
9.2
 20
20.6248213396
 30
0.0
  0
SPLINE
  5
446
100
AcDbEntity
  8
RACCORDO
100
AcDbSpline
 62
7
  6
CONTINUOUS
 70
0
 71
3
 72
9
 73
5
 74
0
 42
0.0000001
 43
0.0000001
 44
0.0000000001
 40
0.0
 40
0.0
 40
0.0
 40
0.0
 40
0.2396270654
 40
1.0
 40
1.0
 40
1.0
 40
1.0
 10
9.3194793325
 20
15.6303987953
 30
0.0
 10
9.3096644251
 20
15.6357392042
 30
0.0
 10
9.2692263919
 20
15.6589818681
 30
0.0
 10
9.229969065
 20
15.6841738597
 30
0.0
 10
9.2
 20
15.7031206241
 30
0.0
  0
SPLINE
  5
447
100
AcDbEntity
  8
RACCORDO
100
AcDbSpline
 62
7
  6
CONTINUOUS
 70
0
 71
3
 72
9
 73
5
 74
0
 42
0.0000001
 43
0.0000001
 44
0.0000000001
 40
0.0
 40
0.0
 40
0.0
 40
0.0
 40
0.2396270654
 40
1.0
 40
1.0
 40
1.0
 40
1.0
 10
-9.3194793325
 20
15.6303987953
 30
0.0
 10
-9.3096644251
 20
15.6357392042
 30
0.0
 10
-9.2692263919
 20
15.6589818681
 30
0.0
 10
-9.229969065
 20
15.6841738597
 30
0.0
 10
-9.2
 20
15.7031206241
 30
0.0
  0
SPLINE
  5
448
100
AcDbEntity
  8
RACCORDO
100
AcDbSpline
 62
7
  6
CONTINUOUS
 70
0
 71
3
 72
22
 73
18
 74
0
 42
0.0000001
 43
0.0000001
 44
0.0000000001
 40
0.0
 40
0.0
 40
0.0
 40
0.0
 40
0.0026709558
 40
0.0087879877
 40
0.0182668808
 40
0.0309570141
 40
0.0466750215
 40
0.0652091053
 40
0.1098300625
 40
0.1630464838
 40
0.2232389868
 40
0.2890281401
 40
0.359280637
 40
0.5096777402
 40
0.6689563562
 40
0.8333466306
 40
1.0
 40
1.0
 40
1.0
 40
1.0
 10
-2.5093115708
 20
-6.1093520911
 30
0.0
 10
-2.5095502559
 20
-6.1099390598
 30
0.0
 10
-2.5110658329
 20
-6.1114647903
 30
0.0
 10
-2.5138098868
 20
-6.1147560992
 30
0.0
 10
-2.5184558665
 20
-6.119637532
 30
0.0
 10
-2.5246021437
 20
-6.1261795741
 30
0.0
 10
-2.5323142388
 20
-6.1342195142
 30
0.0
 10
-2.545298174
 20
-6.1476902402
 30
0.0
 10
-2.5645486072
 20
-6.1674805838
 30
0.0
 10
-2.5907653748
 20
-6.194278993
 30
0.0
 10
-2.6205598891
 20
-6.2246033746
 30
0.0
 10
-2.6532373308
 20
-6.2577607008
 30
0.0
 10
-2.7009946318
 20
-6.3061018879
 30
0.0
 10
-2.7644345548
 20
-6.3701266153
 30
0.0
 10
-2.8437083014
 20
-6.449901292
 30
0.0
 10
-2.9258009539
 20
-6.5323115127
 30
0.0
 10
-2.9812882641
 20
-6.5878893528
 30
0.0
 10
-3.0092369883
 20
-6.6158528412
 30
0.0
  0
SPLINE
  5
449
100
AcDbEntity
  8
RACCORDO
100
AcDbSpline
 62
7
  6
CONTINUOUS
 70
0
 71
3
 72
22
 73
18
 74
0
 42
0.0000001
 43
0.0000001
 44
0.0000000001
 40
0.0
 40
0.0
 40
0.0
 40
0.0
 40
0.0026709558
 40
0.0087879877
 40
0.0182668808
 40
0.0309570141
 40
0.0466750215
 40
0.0652091053
 40
0.1098300625
 40
0.1630464838
 40
0.2232389868
 40
0.2890281401
 40
0.359280637
 40
0.5096777402
 40
0.6689563562
 40
0.8333466306
 40
1.0
 40
1.0
 40
1.0
 40
1.0
 10
-3.6593115708
 20
-6.1093520911
 30
0.0
 10
-3.6595502559
 20
-6.1099390598
 30
0.0
 10
-3.6610658329
 20
-6.1114647903
 30
0.0
 10
-3.6638098868
 20
-6.1147560992
 30
0.0
 10
-3.6684558665
 20
-6.119637532
 30
0.0
 10
-3.6746021437
 20
-6.1261795741
 30
0.0
 10
-3.6823142388
 20
-6.1342195142
 30
0.0
 10
-3.695298174
 20
-6.1476902402
 30
0.0
 10
-3.7145486072
 20
-6.1674805838
 30
0.0
 10
-3.7407653748
 20
-6.194278993
 30
0.0
 10
-3.7705598891
 20
-6.2246033746
 30
0.0
 10
-3.8032373308
 20
-6.2577607008
 30
0.0
 10
-3.8509946318
 20
-6.3061018879
 30
0.0
 10
-3.9144345548
 20
-6.3701266153
 30
0.0
 10
-3.9937083014
 20
-6.449901292
 30
0.0
 10
-4.0758009539
 20
-6.5323115127
 30
0.0
 10
-4.1312882641
 20
-6.5878893528
 30
0.0
 10
-4.1592369883
 20
-6.6158528412
 30
0.0
  0
SPLINE
  5
44A
100
AcDbEntity
  8
RACCORDO
100
AcDbSpline
 62
7
  6
CONTINUOUS
 70
0
 71
3
 72
22
 73
18
 74
0
 42
0.0000001
 43
0.0000001
 44
0.0000000001
 40
0.0
 40
0.0
 40
0.0
 40
0.0
 40
0.0025696322
 40
0.0085978523
 40
0.0179966237
 40
0.0306146704
 40
0.046268435
 40
0.0647459982
 40
0.1092763885
 40
0.1624305918
 40
0.2225869524
 40
0.2883636642
 40
0.3586251774
 40
0.5090969427
 40
0.6685153963
 40
0.8331014371
 40
1.0
 40
1.0
 40
1.0
 40
1.0
 10
-3.6594599863
 20
-4.5094826835
 30
0.0
 10
-3.6597224749
 20
-4.5100318164
 30
0.0
 10
-3.6612213028
 20
-4.511484932
 30
0.0
 10
-3.6639733518
 20
-4.5146917683
 30
0.0
 10
-3.6686097963
 20
-4.5194796952
 30
0.0
 10
-3.6747573445
 20
-4.525934059
 30
0.0
 10
-3.6824677376
 20
-4.533886394
 30
0.0
 10
-3.6954565128
 20
-4.547242287
 30
0.0
 10
-3.7147092906
 20
-4.5668997922
 30
0.0
 10
-3.7409249425
 20
-4.5935539365
 30
0.0
 10
-3.7707188855
 20
-4.6237479022
 30
0.0
 10
-3.8033963188
 20
-4.6567889146
 30
0.0
 10
-3.8511601172
 20
-4.7049966571
 30
0.0
 10
-3.9146058026
 20
-4.768890017
 30
0.0
 10
-3.9938795073
 20
-4.8485516512
 30
0.0
 10
-4.0759730391
 20
-4.9308962338
 30
0.0
 10
-4.1314537998
 20
-4.9864531906
 30
0.0
 10
-4.1593993763
 20
-5.0144137901
 30
0.0
  0
SPLINE
  5
44B
100
AcDbEntity
  8
RACCORDO
100
AcDbSpline
 62
250
  6
CONTINUOUS
 70
0
 71
3
 72
8
 73
4
 74
0
 42
0.0000001
 43
0.0000001
 44
0.0000000001
 40
0.0
 40
0.0
 40
0.0
 40
0.0
 40
1.0
 40
1.0
 40
1.0
 40
1.0
 10
6.4594599868
 20
-4.5094826844
 30
0.0
 10
6.4596679652
 20
-1.8698052981
 30
0.0
 10
6.4596933262
 20
0.7698721089
 30
0.0
 10
6.4595360798
 20
3.4095494987
 30
0.0
  0
LINE
  5
44C
100
AcDbEntity
  8
RACCORDO
100
AcDbLine
 62
250
  6
CONTINUOUS
 10
3.659311571
 20
-6.1093520915
 30
0.0
 11
3.6594599863
 21
-4.5094826835
 31
0.0
  0
LINE
  5
44D
100
AcDbEntity
  8
RACCORDO
100
AcDbLine
 62
250
  6
CONTINUOUS
 10
2.5091515579
 20
-7.4592111058
 30
0.0
 11
2.5093115708
 21
-6.1093520911
 31
0.0
  0
LINE
  5
44E
100
AcDbEntity
  8
RACCORDO
100
AcDbLine
 62
250
  6
CONTINUOUS
 10
-2.5093115708
 20
-6.1093520911
 30
0.0
 11
-2.5091515579
 21
-7.4592111059
 31
0.0
  0
SPLINE
  5
44F
100
AcDbEntity
  8
RACCORDO
100
AcDbSpline
 62
7
  6
CONTINUOUS
 70
0
 71
3
 72
14
 73
10
 74
0
 42
0.0000001
 43
0.0000001
 44
0.0000000001
 40
0.0
 40
0.0
 40
0.0
 40
0.0
 40
0.1667834584
 40
0.3265303553
 40
0.6054058426
 40
0.7218936117
 40
0.824084769
 40
0.9151739062
 40
1.0
 40
1.0
 40
1.0
 40
1.0
 10
10.3927234819
 20
-23.1226497308
 30
0.0
 10
10.410182792
 20
-23.1226497308
 30
0.0
 10
10.4444168225
 20
-23.1249185553
 30
0.0
 10
10.5067384775
 20
-23.1366236518
 30
0.0
 10
10.5619252705
 20
-23.1579880447
 30
0.0
 10
10.6041083992
 20
-23.1890148207
 30
0.0
 10
10.6258994697
 20
-23.2134191306
 30
0.0
 10
10.6393998865
 20
-23.2396147063
 30
0.0
 10
10.6426297781
 20
-23.2581079409
 30
0.0
 10
10.6427192511
 20
-23.2669872981
 30
0.0
  0
SPLINE
  5
450
100
AcDbEntity
  8
RACCORDO
100
AcDbSpline
 62
7
  6
CONTINUOUS
 70
0
 71
3
 72
12
 73
8
 74
0
 42
0.0000001
 43
0.0000001
 44
0.0000000001
 40
0.0
 40
0.0
 40
0.0
 40
0.0
 40
0.4189758554
 40
0.7258150368
 40
0.9169374284
 40
0.970078621
 40
1.0
 40
1.0
 40
1.0
 40
1.0
 10
10.60891534
 20
-22.3279108386
 30
0.0
 10
10.6137355339
 20
-22.328345856
 30
0.0
 10
10.6221021029
 20
-22.3290818085
 30
0.0
 10
10.6325917423
 20
-22.3301849672
 30
0.0
 10
10.6389546858
 20
-22.3312764657
 30
0.0
 10
10.6418861623
 20
-22.3323145409
 30
0.0
 10
10.6426816398
 20
-22.3330673782
 30
0.0
 10
10.6427192511
 20
-22.3334109614
 30
0.0
  0
SPLINE
  5
451
100
AcDbEntity
  8
RACCORDO
100
AcDbSpline
 62
7
  6
CONTINUOUS
 70
0
 71
3
 72
12
 73
8
 74
0
 42
0.0000001
 43
0.0000001
 44
0.0000000001
 40
0.0
 40
0.0
 40
0.0
 40
0.0
 40
0.029921379
 40
0.0830625716
 40
0.2741849632
 40
0.5810241446
 40
1.0
 40
1.0
 40
1.0
 40
1.0
 10
-10.6427192511
 20
-22.3334109614
 30
0.0
 10
-10.6426816398
 20
-22.3330673782
 30
0.0
 10
-10.6418861623
 20
-22.3323145409
 30
0.0
 10
-10.6389546858
 20
-22.3312764657
 30
0.0
 10
-10.6325917423
 20
-22.3301849672
 30
0.0
 10
-10.6221021029
 20
-22.3290818085
 30
0.0
 10
-10.6137355339
 20
-22.328345856
 30
0.0
 10
-10.60891534
 20
-22.3279108386
 30
0.0
  0
SPLINE
  5
452
100
AcDbEntity
  8
RACCORDO
100
AcDbSpline
 62
7
  6
CONTINUOUS
 70
0
 71
3
 72
14
 73
10
 74
0
 42
0.0000001
 43
0.0000001
 44
0.0000000001
 40
0.0
 40
0.0
 40
0.0
 40
0.0
 40
0.1667834584
 40
0.3265303553
 40
0.6054058426
 40
0.7218936117
 40
0.824084769
 40
0.9151739062
 40
1.0
 40
1.0
 40
1.0
 40
1.0
 10
-10.3927234819
 20
-23.1226497308
 30
0.0
 10
-10.410182792
 20
-23.1226497308
 30
0.0
 10
-10.4444168225
 20
-23.1249185553
 30
0.0
 10
-10.5067384775
 20
-23.1366236518
 30
0.0
 10
-10.5619252705
 20
-23.1579880447
 30
0.0
 10
-10.6041083992
 20
-23.1890148207
 30
0.0
 10
-10.6258994697
 20
-23.2134191306
 30
0.0
 10
-10.6393998865
 20
-23.2396147063
 30
0.0
 10
-10.6426297781
 20
-23.2581079409
 30
0.0
 10
-10.6427192511
 20
-23.2669872981
 30
0.0
  0
SPLINE
  5
453
100
AcDbEntity
  8
RACCORDO
100
AcDbSpline
 62
7
  6
CONTINUOUS
 70
0
 71
3
 72
12
 73
8
 74
0
 42
0.0000001
 43
0.0000001
 44
0.0000000001
 40
0.0
 40
0.0
 40
0.0
 40
0.0
 40
0.029921379
 40
0.0830625716
 40
0.2741849632
 40
0.5810241446
 40
1.0
 40
1.0
 40
1.0
 40
1.0
 10
10.6427192511
 20
22.3334109614
 30
0.0
 10
10.6426816398
 20
22.3330673782
 30
0.0
 10
10.6418861623
 20
22.3323145409
 30
0.0
 10
10.6389546858
 20
22.3312764657
 30
0.0
 10
10.6325917423
 20
22.3301849672
 30
0.0
 10
10.6221021029
 20
22.3290818085
 30
0.0
 10
10.6137355339
 20
22.328345856
 30
0.0
 10
10.60891534
 20
22.3279108386
 30
0.0
  0
SPLINE
  5
454
100
AcDbEntity
  8
RACCORDO
100
AcDbSpline
 62
7
  6
CONTINUOUS
 70
0
 71
3
 72
12
 73
8
 74
0
 42
0.0000001
 43
0.0000001
 44
0.0000000001
 40
0.0
 40
0.0
 40
0.0
 40
0.0
 40
0.4189758554
 40
0.7258150368
 40
0.9169374284
 40
0.970078621
 40
1.0
 40
1.0
 40
1.0
 40
1.0
 10
-10.60891534
 20
22.3279108386
 30
0.0
 10
-10.6137355339
 20
22.328345856
 30
0.0
 10
-10.6221021029
 20
22.3290818085
 30
0.0
 10
-10.6325917423
 20
22.3301849672
 30
0.0
 10
-10.6389546858
 20
22.3312764657
 30
0.0
 10
-10.6418861623
 20
22.3323145409
 30
0.0
 10
-10.6426816398
 20
22.3330673782
 30
0.0
 10
-10.6427192511
 20
22.3334109614
 30
0.0
  0
SPLINE
  5
455
100
AcDbEntity
  8
RACCORDO
100
AcDbSpline
 62
7
  6
CONTINUOUS
 70
0
 71
3
 72
13
 73
9
 74
0
 42
0.0000001
 43
0.0000001
 44
0.0000000001
 40
0.0
 40
0.0
 40
0.0
 40
0.0
 40
0.0927966287
 40
0.2002447148
 40
0.3193571807
 40
0.4469985052
 40
0.7183509509
 40
1.0
 40
1.0
 40
1.0
 40
1.0
 10
-4.2962073137
 20
-23.7953389668
 30
0.0
 10
-4.2822924006
 20
-23.7952316797
 30
0.0
 10
-4.252382272
 20
-23.789799767
 30
0.0
 10
-4.2072472469
 20
-23.7736730732
 30
0.0
 10
-4.1590026256
 20
-23.7513098509
 30
0.0
 10
-4.0904209279
 20
-23.714769798
 30
0.0
 10
-4.0028591526
 20
-23.6622363788
 30
0.0
 10
-3.9327774665
 20
-23.6179177525
 30
0.0
 10
-3.8970826234
 20
-23.5953423515
 30
0.0
  0
SPLINE
  5
456
100
AcDbEntity
  8
RACCORDO
100
AcDbSpline
 62
7
  6
CONTINUOUS
 70
0
 71
3
 72
13
 73
9
 74
0
 42
0.0000001
 43
0.0000001
 44
0.0000000001
 40
0.0
 40
0.0
 40
0.0
 40
0.0
 40
0.0927966287
 40
0.2002447148
 40
0.3193571807
 40
0.4469985052
 40
0.7183509509
 40
1.0
 40
1.0
 40
1.0
 40
1.0
 10
4.2962073137
 20
-23.7953389668
 30
0.0
 10
4.2822924006
 20
-23.7952316797
 30
0.0
 10
4.252382272
 20
-23.789799767
 30
0.0
 10
4.2072472469
 20
-23.7736730732
 30
0.0
 10
4.1590026256
 20
-23.7513098509
 30
0.0
 10
4.0904209279
 20
-23.714769798
 30
0.0
 10
4.0028591526
 20
-23.6622363788
 30
0.0
 10
3.9327774665
 20
-23.6179177525
 30
0.0
 10
3.8970826234
 20
-23.5953423515
 30
0.0
  0
SPLINE
  5
457
100
AcDbEntity
  8
RACCORDO
100
AcDbSpline
 62
7
  6
CONTINUOUS
 70
0
 71
3
 72
13
 73
9
 74
0
 42
0.0000001
 43
0.0000001
 44
0.0000000001
 40
0.0
 40
0.0
 40
0.0
 40
0.0
 40
0.0927966287
 40
0.2002447148
 40
0.3193571807
 40
0.4469985052
 40
0.7183509509
 40
1.0
 40
1.0
 40
1.0
 40
1.0
 10
4.2962073137
 20
23.7953389668
 30
0.0
 10
4.2822924006
 20
23.7952316797
 30
0.0
 10
4.252382272
 20
23.789799767
 30
0.0
 10
4.2072472469
 20
23.7736730732
 30
0.0
 10
4.1590026256
 20
23.7513098509
 30
0.0
 10
4.0904209279
 20
23.714769798
 30
0.0
 10
4.0028591526
 20
23.6622363788
 30
0.0
 10
3.9327774665
 20
23.6179177525
 30
0.0
 10
3.8970826234
 20
23.5953423515
 30
0.0
  0
SPLINE
  5
458
100
AcDbEntity
  8
RACCORDO
100
AcDbSpline
 62
7
  6
CONTINUOUS
 70
0
 71
3
 72
13
 73
9
 74
0
 42
0.0000001
 43
0.0000001
 44
0.0000000001
 40
0.0
 40
0.0
 40
0.0
 40
0.0
 40
0.0927966287
 40
0.2002447148
 40
0.3193571807
 40
0.4469985052
 40
0.7183509509
 40
1.0
 40
1.0
 40
1.0
 40
1.0
 10
-4.2962073137
 20
23.7953389668
 30
0.0
 10
-4.2822924006
 20
23.7952316797
 30
0.0
 10
-4.252382272
 20
23.789799767
 30
0.0
 10
-4.2072472469
 20
23.7736730732
 30
0.0
 10
-4.1590026256
 20
23.7513098509
 30
0.0
 10
-4.0904209279
 20
23.714769798
 30
0.0
 10
-4.0028591526
 20
23.6622363788
 30
0.0
 10
-3.9327774665
 20
23.6179177525
 30
0.0
 10
-3.8970826234
 20
23.5953423515
 30
0.0
  0
LINE
  5
459
100
AcDbEntity
  8
RACCORDO
100
AcDbLine
 62
250
  6
CONTINUOUS
 10
-3.6594599863
 20
-4.5094826835
 30
0.0
 11
-3.659311571
 21
-6.1093520915
 31
0.0
  0
SPLINE
  5
45A
100
AcDbEntity
  8
RACCORDO
100
AcDbSpline
 62
250
  6
CONTINUOUS
 70
0
 71
3
 72
8
 73
4
 74
0
 42
0.0000001
 43
0.0000001
 44
0.0000000001
 40
0.0
 40
0.0
 40
0.0
 40
0.0
 40
1.0
 40
1.0
 40
1.0
 40
1.0
 10
-6.4595360797
 20
3.4095494986
 30
0.0
 10
-6.4596933262
 20
0.7698721088
 30
0.0
 10
-6.4596679653
 20
-1.8698052982
 30
0.0
 10
-6.4594599869
 20
-4.5094826846
 30
0.0
  0
SPLINE
  5
45B
100
AcDbEntity
  8
RACCORDO
100
AcDbSpline
 62
7
  6
CONTINUOUS
 70
0
 71
3
 72
22
 73
18
 74
0
 42
0.0000001
 43
0.0000001
 44
0.0000000001
 40
0.0
 40
0.0
 40
0.0
 40
0.0
 40
0.0025696321
 40
0.0085978521
 40
0.0179966234
 40
0.03061467
 40
0.0462684345
 40
0.0647459977
 40
0.1092763879
 40
0.1624305911
 40
0.2225869517
 40
0.2883636635
 40
0.3586251768
 40
0.5090969422
 40
0.6685153959
 40
0.8331014369
 40
1.0
 40
1.0
 40
1.0
 40
1.0
 10
-6.4594599863
 20
-4.5094826834
 30
0.0
 10
-6.459722475
 20
-4.5100318163
 30
0.0
 10
-6.4612213028
 20
-4.5114849319
 30
0.0
 10
-6.4639733518
 20
-4.514691768
 30
0.0
 10
-6.4686097963
 20
-4.5194796948
 30
0.0
 10
-6.4747573446
 20
-4.5259340585
 30
0.0
 10
-6.4824677377
 20
-4.5338863934
 30
0.0
 10
-6.4954565129
 20
-4.5472422863
 30
0.0
 10
-6.5147092908
 20
-4.5668997913
 30
0.0
 10
-6.5409249428
 20
-4.5935539355
 30
0.0
 10
-6.570718886
 20
-4.6237479011
 30
0.0
 10
-6.6033963194
 20
-4.6567889133
 30
0.0
 10
-6.6511601181
 20
-4.7049966556
 30
0.0
 10
-6.7146058041
 20
-4.7688900149
 30
0.0
 10
-6.7938795089
 20
-4.8485516494
 30
0.0
 10
-6.8759730454
 20
-4.9308962273
 30
0.0
 10
-6.9314537997
 20
-4.9864531906
 30
0.0
 10
-6.9593993763
 20
-5.0144137901
 30
0.0
  0
LINE
  5
45C
100
AcDbEntity
  8
RACCORDO
100
AcDbLine
 62
7
  6
CONTINUOUS
 10
-10.65
 20
22.3997080771
 30
0.0
 11
-10.6427192511
 21
22.3334109614
 31
0.0
  0
SPLINE
  5
45D
100
AcDbEntity
  8
RACCORDO
100
AcDbSpline
 62
250
  6
CONTINUOUS
 70
0
 71
3
 72
20
 73
16
 74
0
 42
0.0000001
 43
0.0000001
 44
0.0000000001
 40
0.0
 40
0.0
 40
0.0
 40
0.0
 40
0.0028346901
 40
0.0076286019
 40
0.023828488
 40
0.0490222795
 40
0.0830759304
 40
0.1257050931
 40
0.1765261986
 40
0.2350735305
 40
0.3008020624
 40
0.4512808123
 40
0.6223376091
 40
0.8075537894
 40
1.0
 40
1.0
 40
1.0
 40
1.0
 10
-10.9826730391
 20
20.5419058565
 30
0.0
 10
-10.9824881362
 20
20.5423419868
 30
0.0
 10
-10.9813871704
 20
20.5431624714
 30
0.0
 10
-10.9777423536
 20
20.5446306512
 30
0.0
 10
-10.9701049963
 20
20.5462610469
 30
0.0
 10
-10.957671623
 20
20.5480980008
 30
0.0
 10
-10.9407213983
 20
20.549903798
 30
0.0
 10
-10.9194932603
 20
20.5516684718
 30
0.0
 10
-10.8941453495
 20
20.5533526213
 30
0.0
 10
-10.8649281162
 20
20.5549397869
 30
0.0
 10
-10.819058728
 20
20.5569936212
 30
0.0
 10
-10.7543757693
 20
20.55912217
 30
0.0
 10
-10.6697111358
 20
20.5609785395
 30
0.0
 10
-10.5780206134
 20
20.5621517896
 30
0.0
 10
-10.5149090317
 20
20.5624452475
 30
0.0
 10
-10.4827491915
 20
20.5624683135
 30
0.0
  0
SPLINE
  5
45E
100
AcDbEntity
  8
RACCORDO
100
AcDbSpline
 62
250
  6
CONTINUOUS
 70
0
 71
3
 72
20
 73
16
 74
0
 42
0.0000001
 43
0.0000001
 44
0.0000000001
 40
0.0
 40
0.0
 40
0.0
 40
0.0
 40
0.1908437993
 40
0.373735532
 40
0.5424597247
 40
0.6912796925
 40
0.7566134999
 40
0.8151372557
 40
0.8663531186
 40
0.9098257417
 40
0.9451862671
 40
0.9721358772
 40
0.9904509848
 40
0.9963243607
 40
1.0
 40
1.0
 40
1.0
 40
1.0
 10
-10.4827491915
 20
20.5624683248
 30
0.0
 10
-10.4827929896
 20
20.6538519851
 30
0.0
 10
-10.4830678733
 20
20.8328115098
 30
0.0
 10
-10.4840447133
 20
21.0925613976
 30
0.0
 10
-10.4855463591
 20
21.3321857505
 30
0.0
 10
-10.487247753
 20
21.5155156221
 30
0.0
 10
-10.4888793924
 20
21.6460745229
 30
0.0
 10
-10.4901420725
 20
21.7298972103
 30
0.0
 10
-10.4914817527
 20
21.8032496116
 30
0.0
 10
-10.4928909938
 20
21.8655057475
 30
0.0
 10
-10.494330458
 20
21.9161410531
 30
0.0
 10
-10.4958262854
 20
21.9547141328
 30
0.0
 10
-10.4971080921
 20
21.9791792285
 30
0.0
 10
-10.4983145289
 20
21.9924611896
 30
0.0
 10
-10.4988945494
 20
21.9970070026
 30
0.0
 10
-10.4992759622
 20
21.998725222
 30
0.0
  0
SPLINE
  5
45F
100
AcDbEntity
  8
RACCORDO
100
AcDbSpline
 62
250
  6
CONTINUOUS
 70
0
 71
3
 72
20
 73
16
 74
0
 42
0.0000001
 43
0.0000001
 44
0.0000000001
 40
0.0
 40
0.0
 40
0.0
 40
0.0
 40
0.1908080295
 40
0.3736652202
 40
0.5423575206
 40
0.6911509351
 40
0.7564747439
 40
0.8149915518
 40
0.8662043867
 40
0.9096791199
 40
0.9450485497
 40
0.9720170973
 40
0.9903681075
 40
0.9962724674
 40
1.0
 40
1.0
 40
1.0
 40
1.0
 10
-10.9826730391
 20
20.5419058565
 30
0.0
 10
-10.982716832
 20
20.6028307761
 30
0.0
 10
-10.9829917539
 20
20.7221418744
 30
0.0
 10
-10.9839686537
 20
20.8953140355
 30
0.0
 10
-10.9854703935
 20
21.0550666866
 30
0.0
 10
-10.9871718524
 20
21.1772864326
 30
0.0
 10
-10.9888035224
 20
21.2643233079
 30
0.0
 10
-10.9900661886
 20
21.3202035816
 30
0.0
 10
-10.9914059922
 20
21.3691039906
 30
0.0
 10
-10.9928149466
 20
21.4106064366
 30
0.0
 10
-10.9942554395
 20
21.4443654918
 30
0.0
 10
-10.9957493385
 20
21.4700799663
 30
0.0
 10
-10.9970362136
 20
21.486401405
 30
0.0
 10
-10.9982386464
 20
21.4952473812
 30
0.0
 10
-10.9988238286
 20
21.4982812009
 30
0.0
 10
-10.9991998097
 20
21.4994104546
 30
0.0
  0
SPLINE
  5
460
100
AcDbEntity
  8
RACCORDO
100
AcDbSpline
 62
250
  6
CONTINUOUS
 70
0
 71
3
 72
20
 73
16
 74
0
 42
0.0000001
 43
0.0000001
 44
0.0000000001
 40
0.0
 40
0.0
 40
0.0
 40
0.0
 40
0.0028346756
 40
0.0076285697
 40
0.0238284213
 40
0.0490221825
 40
0.0830758084
 40
0.1257049517
 40
0.1765260437
 40
0.2350733681
 40
0.3008018986
 40
0.4512806635
 40
0.6223374963
 40
0.8075537285
 40
1.0
 40
1.0
 40
1.0
 40
1.0
 10
-10.9826730391
 20
-20.5419058565
 30
0.0
 10
-10.9824881411
 20
-20.5423419863
 30
0.0
 10
-10.9813871819
 20
-20.5431624732
 30
0.0
 10
-10.9777423777
 20
-20.5446306524
 30
0.0
 10
-10.9701050337
 20
-20.5462610494
 30
0.0
 10
-10.9576716759
 20
-20.5480980032
 30
0.0
 10
-10.9407214634
 20
-20.5499038014
 30
0.0
 10
-10.919493335
 20
-20.5516684759
 30
0.0
 10
-10.8941454308
 20
-20.5533526262
 30
0.0
 10
-10.8649282009
 20
-20.5549397927
 30
0.0
 10
-10.8190588112
 20
-20.5569936283
 30
0.0
 10
-10.7543758435
 20
-20.5591221786
 30
0.0
 10
-10.6697111918
 20
-20.5609785494
 30
0.0
 10
-10.5780206436
 20
-20.5621518005
 30
0.0
 10
-10.5149090423
 20
-20.5624452588
 30
0.0
 10
-10.4827491915
 20
-20.5624683248
 30
0.0
  0
SPLINE
  5
461
100
AcDbEntity
  8
RACCORDO
100
AcDbSpline
 62
250
  6
CONTINUOUS
 70
0
 71
3
 72
9
 73
5
 74
0
 42
0.0000001
 43
0.0000001
 44
0.0000000001
 40
0.0
 40
0.0
 40
0.0
 40
0.0
 40
0.2499471355
 40
1.0
 40
1.0
 40
1.0
 40
1.0
 10
-10.4827491915
 20
-20.5624683248
 30
0.0
 10
-10.4802900036
 20
-17.1361156711
 30
0.0
 10
-10.4729150376
 20
-3.4278046669
 30
0.0
 10
-10.4753695474
 20
10.2805116313
 30
0.0
 10
-10.4827491915
 20
20.5624683248
 30
0.0
  0
SPLINE
  5
462
100
AcDbEntity
  8
RACCORDO
100
AcDbSpline
 62
250
  6
CONTINUOUS
 70
0
 71
3
 72
9
 73
5
 74
0
 42
0.0000001
 43
0.0000001
 44
0.0000000001
 40
0.0
 40
0.0
 40
0.0
 40
0.0
 40
0.2499471355
 40
1.0
 40
1.0
 40
1.0
 40
1.0
 10
-10.9826730391
 20
-20.5419058565
 30
0.0
 10
-10.9802138512
 20
-17.1189795567
 30
0.0
 10
-10.9728388852
 20
-3.4243768659
 30
0.0
 10
-10.975293395
 20
10.2702311241
 30
0.0
 10
-10.9826730391
 20
20.5419058565
 30
0.0
  0
SPLINE
  5
463
100
AcDbEntity
  8
RACCORDO
100
AcDbSpline
 62
250
  6
CONTINUOUS
 70
0
 71
3
 72
20
 73
16
 74
0
 42
0.0000001
 43
0.0000001
 44
0.0000000001
 40
0.0
 40
0.0
 40
0.0
 40
0.0
 40
0.0036756631
 40
0.0095490205
 40
0.0278641196
 40
0.0548137339
 40
0.0901742576
 40
0.1336468812
 40
0.184862744
 40
0.2433864999
 40
0.3087203072
 40
0.457540275
 40
0.6262644677
 40
0.8091562005
 40
1.0
 40
1.0
 40
1.0
 40
1.0
 10
-10.4992759622
 20
-21.998725222
 30
0.0
 10
-10.4988945381
 20
-21.9970069934
 30
0.0
 10
-10.4983145181
 20
-21.9924611766
 30
0.0
 10
-10.4971081109
 20
-21.9791792153
 30
0.0
 10
-10.4958262873
 20
-21.9547141315
 30
0.0
 10
-10.4943304647
 20
-21.9161410542
 30
0.0
 10
-10.4928910032
 20
-21.8655057472
 30
0.0
 10
-10.4914817598
 20
-21.803249612
 30
0.0
 10
-10.4901420817
 20
-21.7298972104
 30
0.0
 10
-10.4888794008
 20
-21.6460745232
 30
0.0
 10
-10.487247761
 20
-21.5155156224
 30
0.0
 10
-10.4855463643
 20
-21.3321857508
 30
0.0
 10
-10.4840447158
 20
-21.0925613979
 30
0.0
 10
-10.4830678757
 20
-20.83281151
 30
0.0
 10
-10.4827929824
 20
-20.6538519852
 30
0.0
 10
-10.4827491915
 20
-20.5624683248
 30
0.0
  0
SPLINE
  5
464
100
AcDbEntity
  8
RACCORDO
100
AcDbSpline
 62
250
  6
CONTINUOUS
 70
0
 71
3
 72
20
 73
16
 74
0
 42
0.0000001
 43
0.0000001
 44
0.0000000001
 40
0.0
 40
0.0
 40
0.0
 40
0.0
 40
0.0037275608
 40
0.0096318853
 40
0.0279829313
 40
0.054951479
 40
0.0903208879
 40
0.1337956274
 40
0.1850084513
 40
0.2435252556
 40
0.3088490586
 40
0.457642466
 40
0.626334763
 40
0.8091919447
 40
1.0
 40
1.0
 40
1.0
 40
1.0
 10
-10.9991998097
 20
-21.4994104546
 30
0.0
 10
-10.998823839
 20
-21.498281188
 30
0.0
 10
-10.9982386456
 20
-21.4952473755
 30
0.0
 10
-10.99703621
 20
-21.4864013875
 30
0.0
 10
-10.9957493424
 20
-21.4700799503
 30
0.0
 10
-10.9942554393
 20
-21.4443654702
 30
0.0
 10
-10.9928149465
 20
-21.41060642
 30
0.0
 10
-10.9914059929
 20
-21.3691039821
 30
0.0
 10
-10.9900661886
 20
-21.3202035759
 30
0.0
 10
-10.9888035227
 20
-21.2643233087
 30
0.0
 10
-10.9871718524
 20
-21.1772864387
 30
0.0
 10
-10.9854703934
 20
-21.055066698
 30
0.0
 10
-10.9839686535
 20
-20.8953140532
 30
0.0
 10
-10.9829917539
 20
-20.7221418879
 30
0.0
 10
-10.9827168298
 20
-20.6028307843
 30
0.0
 10
-10.9826730391
 20
-20.5419058565
 30
0.0
  0
LINE
  5
465
100
AcDbEntity
  8
RACCORDO
100
AcDbLine
 62
7
  6
CONTINUOUS
 10
-10.6427192511
 20
-22.3334109614
 30
0.0
 11
-10.65
 21
-22.3997080771
 31
0.0
  0
LINE
  5
466
100
AcDbEntity
  8
RACCORDO
100
AcDbLine
 62
7
  6
CONTINUOUS
 10
10.6427192511
 20
22.3334109614
 30
0.0
 11
10.65
 21
22.3997080771
 31
0.0
  0
SPLINE
  5
467
100
AcDbEntity
  8
RACCORDO
100
AcDbSpline
 62
250
  6
CONTINUOUS
 70
0
 71
3
 72
20
 73
16
 74
0
 42
0.0000001
 43
0.0000001
 44
0.0000000001
 40
0.0
 40
0.0
 40
0.0
 40
0.0
 40
0.0036756393
 40
0.0095490152
 40
0.0278641228
 40
0.0548137329
 40
0.0901742583
 40
0.1336468814
 40
0.1848627443
 40
0.2433865001
 40
0.3087203075
 40
0.4575402753
 40
0.626264468
 40
0.8091562007
 40
1.0
 40
1.0
 40
1.0
 40
1.0
 10
10.4992759622
 20
21.998725222
 30
0.0
 10
10.4988945494
 20
21.9970070026
 30
0.0
 10
10.4983145289
 20
21.9924611896
 30
0.0
 10
10.4971080921
 20
21.9791792285
 30
0.0
 10
10.4958262854
 20
21.9547141328
 30
0.0
 10
10.494330458
 20
21.9161410531
 30
0.0
 10
10.4928909938
 20
21.8655057475
 30
0.0
 10
10.4914817527
 20
21.8032496116
 30
0.0
 10
10.4901420725
 20
21.7298972103
 30
0.0
 10
10.4888793924
 20
21.6460745229
 30
0.0
 10
10.487247753
 20
21.5155156221
 30
0.0
 10
10.4855463591
 20
21.3321857505
 30
0.0
 10
10.4840447133
 20
21.0925613976
 30
0.0
 10
10.4830678733
 20
20.8328115098
 30
0.0
 10
10.4827929896
 20
20.6538519851
 30
0.0
 10
10.4827491915
 20
20.5624683248
 30
0.0
  0
SPLINE
  5
468
100
AcDbEntity
  8
RACCORDO
100
AcDbSpline
 62
250
  6
CONTINUOUS
 70
0
 71
3
 72
20
 73
16
 74
0
 42
0.0000001
 43
0.0000001
 44
0.0000000001
 40
0.0
 40
0.0
 40
0.0
 40
0.0
 40
0.0037275326
 40
0.0096318925
 40
0.0279829027
 40
0.0549514503
 40
0.0903208801
 40
0.1337956133
 40
0.1850084482
 40
0.2435252561
 40
0.3088490649
 40
0.4576424794
 40
0.6263347798
 40
0.8091919705
 40
1.0
 40
1.0
 40
1.0
 40
1.0
 10
10.9991998097
 20
21.4994104546
 30
0.0
 10
10.9988238286
 20
21.4982812009
 30
0.0
 10
10.9982386464
 20
21.4952473812
 30
0.0
 10
10.9970362136
 20
21.486401405
 30
0.0
 10
10.9957493385
 20
21.4700799663
 30
0.0
 10
10.9942554395
 20
21.4443654918
 30
0.0
 10
10.9928149466
 20
21.4106064366
 30
0.0
 10
10.9914059922
 20
21.3691039906
 30
0.0
 10
10.9900661886
 20
21.3202035816
 30
0.0
 10
10.9888035224
 20
21.2643233079
 30
0.0
 10
10.9871718524
 20
21.1772864326
 30
0.0
 10
10.9854703935
 20
21.0550666866
 30
0.0
 10
10.9839686537
 20
20.8953140355
 30
0.0
 10
10.9829917539
 20
20.7221418744
 30
0.0
 10
10.982716832
 20
20.6028307761
 30
0.0
 10
10.9826730391
 20
20.5419058565
 30
0.0
  0
SPLINE
  5
469
100
AcDbEntity
  8
RACCORDO
100
AcDbSpline
 62
250
  6
CONTINUOUS
 70
0
 71
3
 72
20
 73
16
 74
0
 42
0.0000001
 43
0.0000001
 44
0.0000000001
 40
0.0
 40
0.0
 40
0.0
 40
0.0
 40
0.0028346756
 40
0.0076285697
 40
0.0238284213
 40
0.0490221826
 40
0.0830758085
 40
0.1257049518
 40
0.1765260437
 40
0.2350733681
 40
0.3008018987
 40
0.4512806635
 40
0.6223374963
 40
0.8075537286
 40
1.0
 40
1.0
 40
1.0
 40
1.0
 10
10.9826730391
 20
20.5419058565
 30
0.0
 10
10.9824881411
 20
20.5423419863
 30
0.0
 10
10.9813871819
 20
20.5431624732
 30
0.0
 10
10.9777423776
 20
20.5446306524
 30
0.0
 10
10.9701050337
 20
20.5462610494
 30
0.0
 10
10.9576716759
 20
20.5480980032
 30
0.0
 10
10.9407214634
 20
20.5499038014
 30
0.0
 10
10.919493335
 20
20.5516684759
 30
0.0
 10
10.8941454307
 20
20.5533526262
 30
0.0
 10
10.8649282008
 20
20.5549397927
 30
0.0
 10
10.8190588112
 20
20.5569936283
 30
0.0
 10
10.7543758435
 20
20.5591221786
 30
0.0
 10
10.6697111918
 20
20.5609785494
 30
0.0
 10
10.5780206436
 20
20.5621518005
 30
0.0
 10
10.5149090423
 20
20.5624452588
 30
0.0
 10
10.4827491915
 20
20.5624683248
 30
0.0
  0
SPLINE
  5
46A
100
AcDbEntity
  8
RACCORDO
100
AcDbSpline
 62
250
  6
CONTINUOUS
 70
0
 71
3
 72
9
 73
5
 74
0
 42
0.0000001
 43
0.0000001
 44
0.0000000001
 40
0.0
 40
0.0
 40
0.0
 40
0.0
 40
0.2499471355
 40
1.0
 40
1.0
 40
1.0
 40
1.0
 10
10.4827491915
 20
20.5624683248
 30
0.0
 10
10.4802900037
 20
17.1361156711
 30
0.0
 10
10.4729150376
 20
3.4278046669
 30
0.0
 10
10.4753695474
 20
-10.2805116313
 30
0.0
 10
10.4827491915
 20
-20.5624683248
 30
0.0
  0
SPLINE
  5
46B
100
AcDbEntity
  8
RACCORDO
100
AcDbSpline
 62
250
  6
CONTINUOUS
 70
0
 71
3
 72
9
 73
5
 74
0
 42
0.0000001
 43
0.0000001
 44
0.0000000001
 40
0.0
 40
0.0
 40
0.0
 40
0.0
 40
0.2499471355
 40
1.0
 40
1.0
 40
1.0
 40
1.0
 10
10.9826730391
 20
20.5419058565
 30
0.0
 10
10.9802138512
 20
17.1189795567
 30
0.0
 10
10.9728388852
 20
3.4243768659
 30
0.0
 10
10.975293395
 20
-10.2702311241
 30
0.0
 10
10.9826730391
 20
-20.5419058565
 30
0.0
  0
SPLINE
  5
46C
100
AcDbEntity
  8
RACCORDO
100
AcDbSpline
 62
7
  6
CONTINUOUS
 70
0
 71
3
 72
22
 73
18
 74
0
 42
0.0000001
 43
0.0000001
 44
0.0000000001
 40
0.0
 40
0.0
 40
0.0
 40
0.0
 40
0.0025013319
 40
0.0084690637
 40
0.0178130505
 40
0.030381701
 40
0.0459913801
 40
0.064430112
 40
0.1088981838
 40
0.1620094728
 40
0.222140797
 40
0.2879087389
 40
0.3581762202
 40
0.508698843
 40
0.6682129825
 40
0.8329332069
 40
1.0
 40
1.0
 40
1.0
 40
1.0
 10
-6.4595360794
 20
3.4095494981
 30
0.0
 10
-6.459818727
 20
3.4100694653
 30
0.0
 10
-6.4612978561
 20
3.4114778284
 30
0.0
 10
-6.4640623829
 20
3.4146228285
 30
0.0
 10
-6.4686885469
 20
3.4193486609
 30
0.0
 10
-6.4748385325
 20
3.425741882
 30
0.0
 10
-6.482547173
 20
3.4336342857
 30
0.0
 10
-6.4955395372
 20
3.4469109799
 30
0.0
 10
-6.5147937624
 20
3.466477136
 30
0.0
 10
-6.5410087112
 20
3.4930319288
 30
0.0
 10
-6.5708022404
 20
3.5231360812
 30
0.0
 10
-6.6034796744
 20
3.5560969373
 30
0.0
 10
-6.6512479394
 20
3.6042126413
 30
0.0
 10
-6.7146975879
 20
3.6680153098
 30
0.0
 10
-6.7939712655
 20
3.7475987701
 30
0.0
 10
-6.8760654064
 20
3.8298977461
 30
0.0
 10
-6.9315416626
 20
3.8854400265
 30
0.0
 10
-6.9594850761
 20
3.9133984746
 30
0.0
  0
SPLINE
  5
46D
100
AcDbEntity
  8
RACCORDO
100
AcDbSpline
 62
250
  6
CONTINUOUS
 70
0
 71
3
 72
20
 73
16
 74
0
 42
0.0000001
 43
0.0000001
 44
0.0000000001
 40
0.0
 40
0.0
 40
0.0
 40
0.0
 40
0.0028346847
 40
0.0076285899
 40
0.023828463
 40
0.0490222429
 40
0.0830758841
 40
0.1257050391
 40
0.1765261391
 40
0.2350734678
 40
0.3008019989
 40
0.451280754
 40
0.6223375646
 40
0.8075537653
 40
1.0
 40
1.0
 40
1.0
 40
1.0
 10
10.9826730391
 20
-20.5419058565
 30
0.0
 10
10.982488138
 20
-20.5423419866
 30
0.0
 10
10.9813871747
 20
-20.5431624721
 30
0.0
 10
10.9777423626
 20
-20.5446306517
 30
0.0
 10
10.9701050104
 20
-20.5462610479
 30
0.0
 10
10.957671643
 20
-20.5480980018
 30
0.0
 10
10.940721423
 20
-20.5499037994
 30
0.0
 10
10.9194932889
 20
-20.5516684735
 30
0.0
 10
10.8941453807
 20
-20.5533526233
 30
0.0
 10
10.8649281489
 20
-20.5549397893
 30
0.0
 10
10.8190587603
 20
-20.5569936241
 30
0.0
 10
10.7543757983
 20
-20.5591221736
 30
0.0
 10
10.6697111578
 20
-20.5609785435
 30
0.0
 10
10.5780206253
 20
-20.5621517941
 30
0.0
 10
10.5149090359
 20
-20.5624452521
 30
0.0
 10
10.4827491915
 20
-20.562468318
 30
0.0
  0
SPLINE
  5
46E
100
AcDbEntity
  8
RACCORDO
100
AcDbSpline
 62
250
  6
CONTINUOUS
 70
0
 71
3
 72
20
 73
16
 74
0
 42
0.0000001
 43
0.0000001
 44
0.0000000001
 40
0.0
 40
0.0
 40
0.0
 40
0.0
 40
0.1908437995
 40
0.3737355323
 40
0.542459725
 40
0.6912796928
 40
0.7566135001
 40
0.815137256
 40
0.8663531188
 40
0.9098257424
 40
0.9451862661
 40
0.9721358804
 40
0.9904509795
 40
0.9963243369
 40
1.0
 40
1.0
 40
1.0
 40
1.0
 10
10.4827491915
 20
-20.5624683248
 30
0.0
 10
10.4827929824
 20
-20.6538519852
 30
0.0
 10
10.4830678757
 20
-20.83281151
 30
0.0
 10
10.4840447158
 20
-21.0925613979
 30
0.0
 10
10.4855463643
 20
-21.3321857508
 30
0.0
 10
10.487247761
 20
-21.5155156224
 30
0.0
 10
10.4888794008
 20
-21.6460745232
 30
0.0
 10
10.4901420817
 20
-21.7298972104
 30
0.0
 10
10.4914817598
 20
-21.803249612
 30
0.0
 10
10.4928910032
 20
-21.8655057472
 30
0.0
 10
10.4943304647
 20
-21.9161410542
 30
0.0
 10
10.4958262873
 20
-21.9547141315
 30
0.0
 10
10.4971081109
 20
-21.9791792153
 30
0.0
 10
10.4983145181
 20
-21.9924611766
 30
0.0
 10
10.4988945381
 20
-21.9970069934
 30
0.0
 10
10.4992759622
 20
-21.998725222
 30
0.0
  0
SPLINE
  5
46F
100
AcDbEntity
  8
RACCORDO
100
AcDbSpline
 62
250
  6
CONTINUOUS
 70
0
 71
3
 72
20
 73
16
 74
0
 42
0.0000001
 43
0.0000001
 44
0.0000000001
 40
0.0
 40
0.0
 40
0.0
 40
0.0
 40
0.1908080553
 40
0.373665237
 40
0.542357534
 40
0.6911509414
 40
0.7564747444
 40
0.8149915487
 40
0.8662043726
 40
0.9096791121
 40
0.945048521
 40
0.9720170687
 40
0.9903681147
 40
0.9962724392
 40
1.0
 40
1.0
 40
1.0
 40
1.0
 10
10.9826730391
 20
-20.5419058565
 30
0.0
 10
10.9827168298
 20
-20.6028307843
 30
0.0
 10
10.9829917539
 20
-20.7221418879
 30
0.0
 10
10.9839686535
 20
-20.8953140532
 30
0.0
 10
10.9854703934
 20
-21.055066698
 30
0.0
 10
10.9871718524
 20
-21.1772864387
 30
0.0
 10
10.9888035227
 20
-21.2643233087
 30
0.0
 10
10.9900661886
 20
-21.3202035759
 30
0.0
 10
10.9914059929
 20
-21.3691039821
 30
0.0
 10
10.9928149465
 20
-21.41060642
 30
0.0
 10
10.9942554393
 20
-21.4443654702
 30
0.0
 10
10.9957493424
 20
-21.4700799503
 30
0.0
 10
10.99703621
 20
-21.4864013875
 30
0.0
 10
10.9982386456
 20
-21.4952473755
 30
0.0
 10
10.998823839
 20
-21.498281188
 30
0.0
 10
10.9991998097
 20
-21.4994104546
 30
0.0
  0
LINE
  5
470
100
AcDbEntity
  8
RACCORDO
100
AcDbLine
 62
7
  6
CONTINUOUS
 10
10.65
 20
-22.3997080771
 30
0.0
 11
10.6427192511
 21
-22.3334109614
 31
0.0
  0
SPLINE
  5
471
100
AcDbEntity
  8
RACCORDO
100
AcDbSpline
 62
7
  6
CONTINUOUS
 70
0
 71
3
 72
22
 73
18
 74
0
 42
0.0000001
 43
0.0000001
 44
0.0000000001
 40
0.0
 40
0.0
 40
0.0
 40
0.0
 40
0.0025013318
 40
0.0084690635
 40
0.0178130503
 40
0.0303817007
 40
0.0459913797
 40
0.0644301116
 40
0.1088981833
 40
0.1620094723
 40
0.2221407965
 40
0.2879087384
 40
0.3581762197
 40
0.5086988426
 40
0.6682129822
 40
0.8329332068
 40
1.0
 40
1.0
 40
1.0
 40
1.0
 10
6.4595360794
 20
3.4095494981
 30
0.0
 10
6.4598187271
 20
3.4100694652
 30
0.0
 10
6.461297856
 20
3.4114778283
 30
0.0
 10
6.464062383
 20
3.4146228283
 30
0.0
 10
6.4686885469
 20
3.4193486606
 30
0.0
 10
6.4748385325
 20
3.4257418817
 30
0.0
 10
6.482547173
 20
3.4336342852
 30
0.0
 10
6.4955395373
 20
3.4469109793
 30
0.0
 10
6.5147937626
 20
3.4664771354
 30
0.0
 10
6.5410087115
 20
3.4930319281
 30
0.0
 10
6.5708022407
 20
3.5231360804
 30
0.0
 10
6.6034796749
 20
3.5560969363
 30
0.0
 10
6.65124794
 20
3.6042126401
 30
0.0
 10
6.714697589
 20
3.6680153083
 30
0.0
 10
6.7939712666
 20
3.7475987687
 30
0.0
 10
6.876065411
 20
3.8298977414
 30
0.0
 10
6.9315416625
 20
3.8854400265
 30
0.0
 10
6.9594850761
 20
3.9133984746
 30
0.0
  0
SPLINE
  5
472
100
AcDbEntity
  8
RACCORDO
100
AcDbSpline
 62
7
  6
CONTINUOUS
 70
0
 71
3
 72
22
 73
18
 74
0
 42
0.0000001
 43
0.0000001
 44
0.0000000001
 40
0.0
 40
0.0
 40
0.0
 40
0.0
 40
0.0025696322
 40
0.0085978522
 40
0.0179966236
 40
0.0306146703
 40
0.0462684349
 40
0.0647459981
 40
0.1092763883
 40
0.1624305916
 40
0.2225869522
 40
0.288363664
 40
0.3586251773
 40
0.5090969426
 40
0.6685153962
 40
0.833101437
 40
1.0
 40
1.0
 40
1.0
 40
1.0
 10
6.4594599863
 20
-4.5094826835
 30
0.0
 10
6.4597224749
 20
-4.5100318164
 30
0.0
 10
6.4612213028
 20
-4.511484932
 30
0.0
 10
6.4639733518
 20
-4.5146917682
 30
0.0
 10
6.4686097963
 20
-4.519479695
 30
0.0
 10
6.4747573445
 20
-4.5259340588
 30
0.0
 10
6.4824677377
 20
-4.5338863938
 30
0.0
 10
6.4954565128
 20
-4.5472422867
 30
0.0
 10
6.5147092907
 20
-4.5668997919
 30
0.0
 10
6.5409249426
 20
-4.5935539362
 30
0.0
 10
6.5707188857
 20
-4.6237479018
 30
0.0
 10
6.603396319
 20
-4.6567889141
 30
0.0
 10
6.6511601176
 20
-4.7049966566
 30
0.0
 10
6.7146058033
 20
-4.7688900161
 30
0.0
 10
6.793879508
 20
-4.8485516504
 30
0.0
 10
6.8759730423
 20
-4.9308962306
 30
0.0
 10
6.9314537997
 20
-4.9864531906
 30
0.0
 10
6.9593993763
 20
-5.0144137901
 30
0.0
  0
SPLINE
  5
473
100
AcDbEntity
  8
RACCORDO
100
AcDbSpline
 62
7
  6
CONTINUOUS
 70
0
 71
3
 72
22
 73
18
 74
0
 42
0.0000001
 43
0.0000001
 44
0.0000000001
 40
0.0
 40
0.0
 40
0.0
 40
0.0
 40
0.0025696322
 40
0.0085978523
 40
0.0179966237
 40
0.0306146704
 40
0.046268435
 40
0.0647459982
 40
0.1092763885
 40
0.1624305918
 40
0.2225869524
 40
0.2883636642
 40
0.3586251774
 40
0.5090969427
 40
0.6685153963
 40
0.8331014371
 40
1.0
 40
1.0
 40
1.0
 40
1.0
 10
3.6594599863
 20
-4.5094826835
 30
0.0
 10
3.6597224749
 20
-4.5100318164
 30
0.0
 10
3.6612213028
 20
-4.511484932
 30
0.0
 10
3.6639733518
 20
-4.5146917683
 30
0.0
 10
3.6686097963
 20
-4.5194796952
 30
0.0
 10
3.6747573445
 20
-4.525934059
 30
0.0
 10
3.6824677376
 20
-4.533886394
 30
0.0
 10
3.6954565128
 20
-4.547242287
 30
0.0
 10
3.7147092906
 20
-4.5668997922
 30
0.0
 10
3.7409249425
 20
-4.5935539365
 30
0.0
 10
3.7707188855
 20
-4.6237479022
 30
0.0
 10
3.8033963188
 20
-4.6567889146
 30
0.0
 10
3.8511601172
 20
-4.7049966571
 30
0.0
 10
3.9146058026
 20
-4.768890017
 30
0.0
 10
3.9938795073
 20
-4.8485516512
 30
0.0
 10
4.0759730391
 20
-4.9308962338
 30
0.0
 10
4.1314537998
 20
-4.9864531906
 30
0.0
 10
4.1593993763
 20
-5.0144137901
 30
0.0
  0
SPLINE
  5
474
100
AcDbEntity
  8
RACCORDO
100
AcDbSpline
 62
250
  6
CONTINUOUS
 70
0
 71
3
 72
12
 73
8
 74
0
 42
0.0000001
 43
0.0000001
 44
0.0000000001
 40
0.0
 40
0.0
 40
0.0
 40
0.0
 40
0.1163884573
 40
0.2342766891
 40
0.4774313669
 40
0.7341995372
 40
1.0
 40
1.0
 40
1.0
 40
1.0
 10
10.6369014213
 20
-23.8443375673
 30
0.0
 10
10.6368538949
 20
-23.8301877969
 30
0.0
 10
10.6334864602
 20
-23.8016107177
 30
0.0
 10
10.6139553545
 20
-23.7465223251
 30
0.0
 10
10.5659411583
 20
-23.6857279588
 30
0.0
 10
10.4832767035
 20
-23.6388607919
 30
0.0
 10
10.4192200662
 20
-23.6279126226
 30
0.0
 10
10.3869056521
 20
-23.6278312164
 30
0.0
  0
SPLINE
  5
475
100
AcDbEntity
  8
RACCORDO
100
AcDbSpline
 62
250
  6
CONTINUOUS
 70
0
 71
3
 72
12
 73
8
 74
0
 42
0.0000001
 43
0.0000001
 44
0.0000000001
 40
0.0
 40
0.0
 40
0.0
 40
0.0
 40
0.1163886204
 40
0.2342768317
 40
0.4774314757
 40
0.7341995903
 40
1.0
 40
1.0
 40
1.0
 40
1.0
 10
-10.6369014213
 20
23.8443375673
 30
0.0
 10
-10.6368538948
 20
23.830187777
 30
0.0
 10
-10.6334864572
 20
23.8016106793
 30
0.0
 10
-10.6139553237
 20
23.7465222824
 30
0.0
 10
-10.5659411288
 20
23.6857279355
 30
0.0
 10
-10.4832766835
 20
23.6388607872
 30
0.0
 10
-10.4192200598
 20
23.6279126226
 30
0.0
 10
-10.3869056521
 20
23.6278312164
 30
0.0
  0
SPLINE
  5
476
100
AcDbEntity
  8
RACCORDO
100
AcDbSpline
 62
7
  6
CONTINUOUS
 70
0
 71
3
 72
13
 73
9
 74
0
 42
0.0000001
 43
0.0000001
 44
0.0000000001
 40
0.0
 40
0.0
 40
0.0
 40
0.0
 40
0.0848322853
 40
0.1759482271
 40
0.2781995767
 40
0.3947846151
 40
0.6739262862
 40
1.0
 40
1.0
 40
1.0
 40
1.0
 10
-10.6427192511
 20
23.2669872981
 30
0.0
 10
-10.6426296219
 20
23.258092445
 30
0.0
 10
-10.6393881504
 20
23.2395646609
 30
0.0
 10
-10.6258395915
 20
23.2133256907
 30
0.0
 10
-10.6039758939
 20
23.1888896337
 30
0.0
 10
-10.5616358337
 20
23.1578237628
 30
0.0
 10
-10.4898624508
 20
23.1301860757
 30
0.0
 10
-10.4261875404
 20
23.1226497308
 30
0.0
 10
-10.3919962532
 20
23.1226497308
 30
0.0
  0
SPLINE
  5
477
100
AcDbEntity
  8
RACCORDO
100
AcDbSpline
 62
7
  6
CONTINUOUS
 70
0
 71
3
 72
13
 73
9
 74
0
 42
0.0000001
 43
0.0000001
 44
0.0000000001
 40
0.0
 40
0.0
 40
0.0
 40
0.0
 40
0.0848322853
 40
0.1759482271
 40
0.2781995767
 40
0.3947846151
 40
0.6739262862
 40
1.0
 40
1.0
 40
1.0
 40
1.0
 10
-8.2572807489
 20
23.2669872981
 30
0.0
 10
-8.2573703781
 20
23.258092445
 30
0.0
 10
-8.2606118496
 20
23.2395646609
 30
0.0
 10
-8.2741604085
 20
23.2133256907
 30
0.0
 10
-8.2960241061
 20
23.1888896337
 30
0.0
 10
-8.3383641663
 20
23.1578237628
 30
0.0
 10
-8.4101375492
 20
23.1301860757
 30
0.0
 10
-8.4738124596
 20
23.1226497308
 30
0.0
 10
-8.5080037468
 20
23.1226497308
 30
0.0
  0
SPLINE
  5
478
100
AcDbEntity
  8
RACCORDO
100
AcDbSpline
 62
250
  6
CONTINUOUS
 70
0
 71
3
 72
12
 73
8
 74
0
 42
0.0000001
 43
0.0000001
 44
0.0000000001
 40
0.0
 40
0.0
 40
0.0
 40
0.0
 40
0.1163886204
 40
0.2342768317
 40
0.4774314757
 40
0.7341995903
 40
1.0
 40
1.0
 40
1.0
 40
1.0
 10
-8.2630985787
 20
23.8443375673
 30
0.0
 10
-8.2631461052
 20
23.830187777
 30
0.0
 10
-8.2665135428
 20
23.8016106793
 30
0.0
 10
-8.2860446763
 20
23.7465222824
 30
0.0
 10
-8.3340588712
 20
23.6857279355
 30
0.0
 10
-8.4167233165
 20
23.6388607872
 30
0.0
 10
-8.4807799402
 20
23.6279126226
 30
0.0
 10
-8.5130943479
 20
23.6278312164
 30
0.0
  0
SPLINE
  5
479
100
AcDbEntity
  8
RACCORDO
100
AcDbSpline
 62
7
  6
CONTINUOUS
 70
0
 71
3
 72
22
 73
18
 74
0
 42
0.0000001
 43
0.0000001
 44
0.0000000001
 40
0.0
 40
0.0
 40
0.0
 40
0.0
 40
0.0026709558
 40
0.0087879877
 40
0.0182668808
 40
0.0309570141
 40
0.0466750215
 40
0.0652091053
 40
0.1098300625
 40
0.1630464838
 40
0.2232389868
 40
0.2890281401
 40
0.359280637
 40
0.5096777402
 40
0.6689563562
 40
0.8333466306
 40
1.0
 40
1.0
 40
1.0
 40
1.0
 10
3.6593115708
 20
-6.1093520911
 30
0.0
 10
3.6595502559
 20
-6.1099390598
 30
0.0
 10
3.6610658329
 20
-6.1114647903
 30
0.0
 10
3.6638098868
 20
-6.1147560992
 30
0.0
 10
3.6684558665
 20
-6.119637532
 30
0.0
 10
3.6746021437
 20
-6.1261795741
 30
0.0
 10
3.6823142388
 20
-6.1342195142
 30
0.0
 10
3.695298174
 20
-6.1476902402
 30
0.0
 10
3.7145486072
 20
-6.1674805838
 30
0.0
 10
3.7407653748
 20
-6.194278993
 30
0.0
 10
3.7705598891
 20
-6.2246033746
 30
0.0
 10
3.8032373308
 20
-6.2577607008
 30
0.0
 10
3.8509946318
 20
-6.3061018879
 30
0.0
 10
3.9144345548
 20
-6.3701266153
 30
0.0
 10
3.9937083014
 20
-6.449901292
 30
0.0
 10
4.0758009539
 20
-6.5323115127
 30
0.0
 10
4.1312882641
 20
-6.5878893528
 30
0.0
 10
4.1592369883
 20
-6.6158528412
 30
0.0
  0
SPLINE
  5
47A
100
AcDbEntity
  8
RACCORDO
100
AcDbSpline
 62
250
  6
CONTINUOUS
 70
0
 71
3
 72
12
 73
8
 74
0
 42
0.0000001
 43
0.0000001
 44
0.0000000001
 40
0.0
 40
0.0
 40
0.0
 40
0.0
 40
0.1163884573
 40
0.2342766891
 40
0.4774313669
 40
0.7341995372
 40
1.0
 40
1.0
 40
1.0
 40
1.0
 10
8.2630985787
 20
-23.8443375673
 30
0.0
 10
8.2631461051
 20
-23.8301877969
 30
0.0
 10
8.2665135398
 20
-23.8016107177
 30
0.0
 10
8.2860446455
 20
-23.7465223251
 30
0.0
 10
8.3340588417
 20
-23.6857279588
 30
0.0
 10
8.4167232965
 20
-23.6388607919
 30
0.0
 10
8.4807799338
 20
-23.6279126226
 30
0.0
 10
8.5130943479
 20
-23.6278312164
 30
0.0
  0
SPLINE
  5
47B
100
AcDbEntity
  8
RACCORDO
100
AcDbSpline
 62
7
  6
CONTINUOUS
 70
0
 71
3
 72
13
 73
9
 74
0
 42
0.0000001
 43
0.0000001
 44
0.0000000001
 40
0.0
 40
0.0
 40
0.0
 40
0.0
 40
0.0848322853
 40
0.1759482271
 40
0.2781995767
 40
0.3947846151
 40
0.6739262862
 40
1.0
 40
1.0
 40
1.0
 40
1.0
 10
8.2572807489
 20
-23.2669872981
 30
0.0
 10
8.2573703781
 20
-23.258092445
 30
0.0
 10
8.2606118496
 20
-23.2395646609
 30
0.0
 10
8.2741604085
 20
-23.2133256907
 30
0.0
 10
8.2960241061
 20
-23.1888896337
 30
0.0
 10
8.3383641663
 20
-23.1578237628
 30
0.0
 10
8.4101375492
 20
-23.1301860757
 30
0.0
 10
8.4738124596
 20
-23.1226497308
 30
0.0
 10
8.5080037468
 20
-23.1226497308
 30
0.0
  0
SPLINE
  5
47C
100
AcDbEntity
  8
RACCORDO
100
AcDbSpline
 62
7
  6
CONTINUOUS
 70
0
 71
3
 72
22
 73
18
 74
0
 42
0.0000001
 43
0.0000001
 44
0.0000000001
 40
0.0
 40
0.0
 40
0.0
 40
0.0
 40
0.0026709558
 40
0.0087879877
 40
0.0182668808
 40
0.0309570141
 40
0.0466750215
 40
0.0652091053
 40
0.1098300625
 40
0.1630464838
 40
0.2232389868
 40
0.2890281401
 40
0.359280637
 40
0.5096777402
 40
0.6689563562
 40
0.8333466306
 40
1.0
 40
1.0
 40
1.0
 40
1.0
 10
2.5093115708
 20
-6.1093520911
 30
0.0
 10
2.5095502559
 20
-6.1099390598
 30
0.0
 10
2.5110658329
 20
-6.1114647903
 30
0.0
 10
2.5138098868
 20
-6.1147560992
 30
0.0
 10
2.5184558665
 20
-6.119637532
 30
0.0
 10
2.5246021437
 20
-6.1261795741
 30
0.0
 10
2.5323142388
 20
-6.1342195142
 30
0.0
 10
2.545298174
 20
-6.1476902402
 30
0.0
 10
2.5645486072
 20
-6.1674805838
 30
0.0
 10
2.5907653748
 20
-6.194278993
 30
0.0
 10
2.6205598891
 20
-6.2246033746
 30
0.0
 10
2.6532373308
 20
-6.2577607008
 30
0.0
 10
2.7009946318
 20
-6.3061018879
 30
0.0
 10
2.7644345548
 20
-6.3701266153
 30
0.0
 10
2.8437083014
 20
-6.449901292
 30
0.0
 10
2.9258009539
 20
-6.5323115127
 30
0.0
 10
2.9812882641
 20
-6.5878893528
 30
0.0
 10
3.0092369883
 20
-6.6158528412
 30
0.0
  0
SPLINE
  5
47D
100
AcDbEntity
  8
RACCORDO
100
AcDbSpline
 62
250
  6
CONTINUOUS
 70
0
 71
3
 72
12
 73
8
 74
0
 42
0.0000001
 43
0.0000001
 44
0.0000000001
 40
0.0
 40
0.0
 40
0.0
 40
0.0
 40
0.1163886204
 40
0.2342768317
 40
0.4774314757
 40
0.7341995903
 40
1.0
 40
1.0
 40
1.0
 40
1.0
 10
8.2630985787
 20
23.8443375673
 30
0.0
 10
8.2631461052
 20
23.830187777
 30
0.0
 10
8.2665135428
 20
23.8016106793
 30
0.0
 10
8.2860446763
 20
23.7465222824
 30
0.0
 10
8.3340588712
 20
23.6857279355
 30
0.0
 10
8.4167233165
 20
23.6388607872
 30
0.0
 10
8.4807799402
 20
23.6279126226
 30
0.0
 10
8.5130943479
 20
23.6278312164
 30
0.0
  0
SPLINE
  5
47E
100
AcDbEntity
  8
RACCORDO
100
AcDbSpline
 62
7
  6
CONTINUOUS
 70
0
 71
3
 72
13
 73
9
 74
0
 42
0.0000001
 43
0.0000001
 44
0.0000000001
 40
0.0
 40
0.0
 40
0.0
 40
0.0
 40
0.0848322853
 40
0.1759482271
 40
0.2781995767
 40
0.3947846151
 40
0.6739262862
 40
1.0
 40
1.0
 40
1.0
 40
1.0
 10
8.2572807489
 20
23.2669872981
 30
0.0
 10
8.2573703781
 20
23.258092445
 30
0.0
 10
8.2606118496
 20
23.2395646609
 30
0.0
 10
8.2741604085
 20
23.2133256907
 30
0.0
 10
8.2960241061
 20
23.1888896337
 30
0.0
 10
8.3383641663
 20
23.1578237628
 30
0.0
 10
8.4101375492
 20
23.1301860757
 30
0.0
 10
8.4738124596
 20
23.1226497308
 30
0.0
 10
8.5080037468
 20
23.1226497308
 30
0.0
  0
SPLINE
  5
47F
100
AcDbEntity
  8
RACCORDO
100
AcDbSpline
 62
7
  6
CONTINUOUS
 70
0
 71
3
 72
13
 73
9
 74
0
 42
0.0000001
 43
0.0000001
 44
0.0000000001
 40
0.0
 40
0.0
 40
0.0
 40
0.0
 40
0.0848322853
 40
0.1759482271
 40
0.2781995767
 40
0.3947846151
 40
0.6739262862
 40
1.0
 40
1.0
 40
1.0
 40
1.0
 10
-8.2572807489
 20
-23.2669872981
 30
0.0
 10
-8.2573703781
 20
-23.258092445
 30
0.0
 10
-8.2606118496
 20
-23.2395646609
 30
0.0
 10
-8.2741604085
 20
-23.2133256907
 30
0.0
 10
-8.2960241061
 20
-23.1888896337
 30
0.0
 10
-8.3383641663
 20
-23.1578237628
 30
0.0
 10
-8.4101375492
 20
-23.1301860757
 30
0.0
 10
-8.4738124596
 20
-23.1226497308
 30
0.0
 10
-8.5080037468
 20
-23.1226497308
 30
0.0
  0
SPLINE
  5
480
100
AcDbEntity
  8
RACCORDO
100
AcDbSpline
 62
250
  6
CONTINUOUS
 70
0
 71
3
 72
12
 73
8
 74
0
 42
0.0000001
 43
0.0000001
 44
0.0000000001
 40
0.0
 40
0.0
 40
0.0
 40
0.0
 40
0.1163884573
 40
0.2342766891
 40
0.4774313669
 40
0.7341995372
 40
1.0
 40
1.0
 40
1.0
 40
1.0
 10
-8.2630985787
 20
-23.8443375673
 30
0.0
 10
-8.2631461051
 20
-23.8301877969
 30
0.0
 10
-8.2665135398
 20
-23.8016107177
 30
0.0
 10
-8.2860446455
 20
-23.7465223251
 30
0.0
 10
-8.3340588417
 20
-23.6857279588
 30
0.0
 10
-8.4167232965
 20
-23.6388607919
 30
0.0
 10
-8.4807799338
 20
-23.6279126226
 30
0.0
 10
-8.5130943479
 20
-23.6278312164
 30
0.0
  0
SPLINE
  5
481
100
AcDbEntity
  8
RACCORDO
100
AcDbSpline
 62
7
  6
CONTINUOUS
 70
0
 71
3
 72
13
 73
9
 74
0
 42
0.0000001
 43
0.0000001
 44
0.0000000001
 40
0.0
 40
0.0
 40
0.0
 40
0.0
 40
0.0848322853
 40
0.1759482271
 40
0.2781995767
 40
0.3947846151
 40
0.6739262862
 40
1.0
 40
1.0
 40
1.0
 40
1.0
 10
10.6427192511
 20
23.2669872981
 30
0.0
 10
10.6426296219
 20
23.258092445
 30
0.0
 10
10.6393881504
 20
23.2395646609
 30
0.0
 10
10.6258395915
 20
23.2133256907
 30
0.0
 10
10.6039758939
 20
23.1888896337
 30
0.0
 10
10.5616358337
 20
23.1578237628
 30
0.0
 10
10.4898624508
 20
23.1301860757
 30
0.0
 10
10.4261875404
 20
23.1226497308
 30
0.0
 10
10.3919962532
 20
23.1226497308
 30
0.0
  0
SPLINE
  5
482
100
AcDbEntity
  8
RACCORDO
100
AcDbSpline
 62
250
  6
CONTINUOUS
 70
0
 71
3
 72
12
 73
8
 74
0
 42
0.0000001
 43
0.0000001
 44
0.0000000001
 40
0.0
 40
0.0
 40
0.0
 40
0.0
 40
0.1163886204
 40
0.2342768317
 40
0.4774314757
 40
0.7341995903
 40
1.0
 40
1.0
 40
1.0
 40
1.0
 10
10.6369014213
 20
23.8443375673
 30
0.0
 10
10.6368538948
 20
23.830187777
 30
0.0
 10
10.6334864572
 20
23.8016106793
 30
0.0
 10
10.6139553237
 20
23.7465222824
 30
0.0
 10
10.5659411288
 20
23.6857279355
 30
0.0
 10
10.4832766835
 20
23.6388607872
 30
0.0
 10
10.4192200598
 20
23.6279126226
 30
0.0
 10
10.3869056521
 20
23.6278312164
 30
0.0
  0
SPLINE
  5
483
100
AcDbEntity
  8
RACCORDO
100
AcDbSpline
 62
250
  6
CONTINUOUS
 70
0
 71
3
 72
12
 73
8
 74
0
 42
0.0000001
 43
0.0000001
 44
0.0000000001
 40
0.0
 40
0.0
 40
0.0
 40
0.0
 40
0.1163884573
 40
0.2342766891
 40
0.4774313669
 40
0.7341995372
 40
1.0
 40
1.0
 40
1.0
 40
1.0
 10
-10.6369014213
 20
-23.8443375673
 30
0.0
 10
-10.6368538949
 20
-23.8301877969
 30
0.0
 10
-10.6334864602
 20
-23.8016107177
 30
0.0
 10
-10.6139553545
 20
-23.7465223251
 30
0.0
 10
-10.5659411583
 20
-23.6857279588
 30
0.0
 10
-10.4832767035
 20
-23.6388607919
 30
0.0
 10
-10.4192200662
 20
-23.6279126226
 30
0.0
 10
-10.3869056521
 20
-23.6278312164
 30
0.0
  0
SPLINE
  5
484
100
AcDbEntity
  8
RACCORDO
100
AcDbSpline
 62
7
  6
CONTINUOUS
 70
0
 71
3
 72
22
 73
18
 74
0
 42
0.0000001
 43
0.0000001
 44
0.0000000001
 40
0.0
 40
0.0
 40
0.0
 40
0.0
 40
0.0027580613
 40
0.0089507483
 40
0.0184976286
 40
0.0312487969
 40
0.047021116
 40
0.0656029258
 40
0.1103002343
 40
0.1635689781
 40
0.2237917399
 40
0.2895911197
 40
0.3598357206
 40
0.5101692399
 40
0.6693293115
 40
0.8335539158
 40
1.0
 40
1.0
 40
1.0
 40
1.0
 10
2.5091515576
 20
-7.4592111053
 30
0.0
 10
2.5093741024
 20
-7.4598273302
 30
0.0
 10
2.5108956652
 20
-7.4614179592
 30
0.0
 10
2.5136396457
 20
-7.464778303
 30
0.0
 10
2.5182901376
 20
-7.4697400482
 30
0.0
 10
2.5244368088
 20
-7.476355547
 30
0.0
 10
2.5321497932
 20
-7.4844695649
 30
0.0
 10
2.5451298895
 20
-7.498036951
 30
0.0
 10
2.5643781891
 20
-7.5179392813
 30
0.0
 10
2.5905959571
 20
-7.5448592126
 30
0.0
 10
2.6203909333
 20
-7.5752934195
 30
0.0
 10
2.6530683884
 20
-7.6085486327
 30
0.0
 10
2.7008202073
 20
-7.6570020167
 30
0.0
 10
2.7642552692
 20
-7.7211370823
 30
0.0
 10
2.8435290536
 20
-7.801006525
 30
0.0
 10
2.9256209672
 20
-7.8834714868
 30
0.0
 10
2.9811138053
 20
-7.9390665151
 30
0.0
 10
3.0090651868
 20
-7.967032219
 30
0.0
  0
SPLINE
  5
485
100
AcDbEntity
  8
RACCORDO
100
AcDbSpline
 62
7
  6
CONTINUOUS
 70
0
 71
3
 72
22
 73
18
 74
0
 42
0.0000001
 43
0.0000001
 44
0.0000000001
 40
0.0
 40
0.0
 40
0.0
 40
0.0
 40
0.0027580613
 40
0.0089507483
 40
0.0184976286
 40
0.0312487969
 40
0.047021116
 40
0.0656029258
 40
0.1103002343
 40
0.1635689781
 40
0.2237917399
 40
0.2895911197
 40
0.3598357206
 40
0.5101692399
 40
0.6693293115
 40
0.8335539158
 40
1.0
 40
1.0
 40
1.0
 40
1.0
 10
-2.5091515576
 20
-7.4592111053
 30
0.0
 10
-2.5093741024
 20
-7.4598273302
 30
0.0
 10
-2.5108956652
 20
-7.4614179592
 30
0.0
 10
-2.5136396457
 20
-7.464778303
 30
0.0
 10
-2.5182901376
 20
-7.4697400482
 30
0.0
 10
-2.5244368088
 20
-7.476355547
 30
0.0
 10
-2.5321497932
 20
-7.4844695649
 30
0.0
 10
-2.5451298895
 20
-7.498036951
 30
0.0
 10
-2.5643781891
 20
-7.5179392813
 30
0.0
 10
-2.5905959571
 20
-7.5448592126
 30
0.0
 10
-2.6203909333
 20
-7.5752934195
 30
0.0
 10
-2.6530683884
 20
-7.6085486327
 30
0.0
 10
-2.7008202073
 20
-7.6570020167
 30
0.0
 10
-2.7642552692
 20
-7.7211370823
 30
0.0
 10
-2.8435290536
 20
-7.801006525
 30
0.0
 10
-2.9256209672
 20
-7.8834714868
 30
0.0
 10
-2.9811138053
 20
-7.9390665151
 30
0.0
 10
-3.0090651868
 20
-7.967032219
 30
0.0
  0
SPLINE
  5
486
100
AcDbEntity
  8
RACCORDO
100
AcDbSpline
 62
7
  6
CONTINUOUS
 70
0
 71
3
 72
9
 73
5
 74
0
 42
0.0000001
 43
0.0000001
 44
0.0000000001
 40
0.0
 40
0.0
 40
0.0
 40
0.0
 40
0.517786632
 40
1.0
 40
1.0
 40
1.0
 40
1.0
 10
-54.7284613212
 20
22.3334109614
 30
0.0
 10
-54.7498693184
 20
22.332273202
 30
0.0
 10
-54.7912333378
 20
22.3304456948
 30
0.0
 10
-54.8326120421
 20
22.3289557443
 30
0.0
 10
-54.8525500304
 20
22.3279108386
 30
0.0
  0
SPLINE
  5
487
100
AcDbEntity
  8
RACCORDO
100
AcDbSpline
 62
250
  6
CONTINUOUS
 70
0
 71
3
 72
23
 73
19
 74
0
 42
0.0000001
 43
0.0000001
 44
0.0000000001
 40
0.0
 40
0.0
 40
0.0
 40
0.0
 40
0.1950127054
 40
0.3824958636
 40
0.5552737702
 40
0.6340446109
 40
0.7067097782
 40
0.7725722969
 40
0.8309984953
 40
0.8814269851
 40
0.9233768973
 40
0.9564476413
 40
0.9695519304
 40
0.9803282323
 40
0.9887549018
 40
0.994816536
 40
0.9985233215
 40
1.0
 40
1.0
 40
1.0
 40
1.0
 10
-61.1163440024
 20
-21.4994104546
 30
0.0
 10
-61.1180441105
 20
-21.5318603333
 30
0.0
 10
-61.121271648
 20
-21.5955128517
 30
0.0
 10
-61.1256337936
 20
-21.6879337564
 30
0.0
 10
-61.1287977627
 20
-21.7610201367
 30
0.0
 10
-61.130932268
 20
-21.8150008192
 30
0.0
 10
-61.1322602063
 20
-21.8511842823
 30
0.0
 10
-61.1333534809
 20
-21.8839841037
 30
0.0
 10
-61.1342020605
 20
-21.9130840561
 30
0.0
 10
-61.1347998937
 20
-21.9382063837
 30
0.0
 10
-61.1351419634
 20
-21.9591037831
 30
0.0
 10
-61.1352257458
 20
-21.9737955791
 30
0.0
 10
-61.1351362918
 20
-21.9832735981
 30
0.0
 10
-61.1350096998
 20
-21.9886797549
 30
0.0
 10
-61.1348264773
 20
-21.9928231394
 30
0.0
 10
-61.1345820945
 20
-21.9959900504
 30
0.0
 10
-61.1343168544
 20
-21.9975846231
 30
0.0
 10
-61.1340314946
 20
-21.9987123445
 30
0.0
 10
-61.1337857773
 20
-21.998725222
 30
0.0
  0
LINE
  5
488
100
AcDbEntity
  8
RACCORDO
100
AcDbLine
 62
7
  6
CONTINUOUS
 10
-53.4770068884
 20
-22.3997080771
 30
0.0
 11
-54.7284613212
 21
-22.3334109614
 31
0.0
  0
SPLINE
  5
489
100
AcDbEntity
  8
RACCORDO
100
AcDbSpline
 62
250
  6
CONTINUOUS
 70
0
 71
3
 72
23
 73
19
 74
0
 42
0.0000001
 43
0.0000001
 44
0.0000000001
 40
0.0
 40
0.0
 40
0.0
 40
0.0
 40
0.1952396719
 40
0.3828780266
 40
0.5557565082
 40
0.6345570769
 40
0.7072432922
 40
0.7731137541
 40
0.8315398341
 40
0.8819601501
 40
0.9238889979
 40
0.9569285413
 40
0.9700098801
 40
0.9807584244
 40
0.9891469756
 40
0.9951538559
 40
0.9987701865
 40
1.0
 40
1.0
 40
1.0
 40
1.0
 10
-52.7255524555
 20
-23.8443375673
 30
0.0
 10
-52.7174408595
 20
-23.8302873953
 30
0.0
 10
-52.7015468526
 20
-23.8027263465
 30
0.0
 10
-52.67851678
 20
-23.7626975287
 30
0.0
 10
-52.6603475266
 20
-23.731034834
 30
0.0
 10
-52.6469577602
 20
-23.7076425082
 30
0.0
 10
-52.6379981796
 20
-23.6919599717
 30
0.0
 10
-52.6298921533
 20
-23.6777394934
 30
0.0
 10
-52.6227180559
 20
-23.6651179971
 30
0.0
 10
-52.6165425672
 20
-23.6542157421
 30
0.0
 10
-52.6114302692
 20
-23.6451400919
 30
0.0
 10
-52.6078509757
 20
-23.6387512992
 30
0.0
 10
-52.6055725186
 20
-23.6346226741
 30
0.0
 10
-52.6042626143
 20
-23.6322635419
 30
0.0
 10
-52.6033273226
 20
-23.6304560673
 30
0.0
 10
-52.6024964858
 20
-23.6290629562
 30
0.0
 10
-52.6023253438
 20
-23.6283790951
 30
0.0
 10
-52.6019183872
 20
-23.6278823125
 30
0.0
 10
-52.6020068884
 20
-23.6278312164
 30
0.0
  0
SPLINE
  5
48A
100
AcDbEntity
  8
RACCORDO
100
AcDbSpline
 62
250
  6
CONTINUOUS
 70
0
 71
3
 72
23
 73
19
 74
0
 42
0.0000001
 43
0.0000001
 44
0.0000000001
 40
0.0
 40
0.0
 40
0.0
 40
0.0
 40
0.1952396719
 40
0.3828780266
 40
0.5557565082
 40
0.6345570769
 40
0.7072432922
 40
0.7731137541
 40
0.8315398341
 40
0.8819601501
 40
0.9238889979
 40
0.9569285413
 40
0.9700098801
 40
0.9807584244
 40
0.9891469756
 40
0.9951538559
 40
0.9987701865
 40
1.0
 40
1.0
 40
1.0
 40
1.0
 10
-55.7284613212
 20
-23.8443375673
 30
0.0
 10
-55.7365729173
 20
-23.8302873953
 30
0.0
 10
-55.7524669241
 20
-23.8027263465
 30
0.0
 10
-55.7754969967
 20
-23.7626975287
 30
0.0
 10
-55.7936662501
 20
-23.731034834
 30
0.0
 10
-55.8070560166
 20
-23.7076425082
 30
0.0
 10
-55.8160155971
 20
-23.6919599717
 30
0.0
 10
-55.8241216235
 20
-23.6777394934
 30
0.0
 10
-55.8312957208
 20
-23.6651179971
 30
0.0
 10
-55.8374712096
 20
-23.6542157421
 30
0.0
 10
-55.8425835075
 20
-23.6451400919
 30
0.0
 10
-55.846162801
 20
-23.6387512992
 30
0.0
 10
-55.8484412581
 20
-23.6346226741
 30
0.0
 10
-55.8497511624
 20
-23.6322635419
 30
0.0
 10
-55.8506864541
 20
-23.6304560673
 30
0.0
 10
-55.851517291
 20
-23.6290629562
 30
0.0
 10
-55.851688433
 20
-23.6283790951
 30
0.0
 10
-55.8520953896
 20
-23.6278823125
 30
0.0
 10
-55.8520068884
 20
-23.6278312164
 30
0.0
  0
SPLINE
  5
48B
100
AcDbEntity
  8
RACCORDO
100
AcDbSpline
 62
250
  6
CONTINUOUS
 70
0
 71
3
 72
23
 73
19
 74
0
 42
0.0000001
 43
0.0000001
 44
0.0000000001
 40
0.0
 40
0.0
 40
0.0
 40
0.0
 40
0.0012388838
 40
0.0048606977
 40
0.0108737392
 40
0.0192697131
 40
0.0300270182
 40
0.0431184624
 40
0.0761818945
 40
0.1181384666
 40
0.168588709
 40
0.2270449431
 40
0.2929434384
 40
0.365653037
 40
0.4444695596
 40
0.6173459605
 40
0.8049166945
 40
1.0
 40
1.0
 40
1.0
 40
1.0
 10
-52.7255524555
 20
-24.495628166
 30
0.0
 10
-52.7254492124
 20
-24.4956275653
 30
0.0
 10
-52.7255370113
 20
-24.4949951256
 30
0.0
 10
-52.7253518031
 20
-24.4943093131
 30
0.0
 10
-52.7253679358
 20
-24.4926837653
 30
0.0
 10
-52.7252801344
 20
-24.4906417629
 30
0.0
 10
-52.7252402738
 20
-24.4879340366
 30
0.0
 10
-52.7251640236
 20
-24.4832016059
 30
0.0
 10
-52.7250962917
 20
-24.475852515
 30
0.0
 10
-52.7250298396
 20
-24.4653991618
 30
0.0
 10
-52.7249837558
 20
-24.4528257758
 30
0.0
 10
-52.7249555255
 20
-24.4382583958
 30
0.0
 10
-52.724946822
 20
-24.4218355296
 30
0.0
 10
-52.7249574954
 20
-24.4037160369
 30
0.0
 10
-52.7249990433
 20
-24.3766813055
 30
0.0
 10
-52.7251010287
 20
-24.3400745039
 30
0.0
 10
-52.7252902703
 20
-24.2937786126
 30
0.0
 10
-52.725457876
 20
-24.261889788
 30
0.0
 10
-52.7255524555
 20
-24.2456323968
 30
0.0
  0
SPLINE
  5
48C
100
AcDbEntity
  8
RACCORDO
100
AcDbSpline
 62
250
  6
CONTINUOUS
 70
0
 71
3
 72
23
 73
19
 74
0
 42
0.0000001
 43
0.0000001
 44
0.0000000001
 40
0.0
 40
0.0
 40
0.0
 40
0.0
 40
0.1950832165
 40
0.3826538753
 40
0.555530217
 40
0.6343467192
 40
0.707056309
 40
0.7729548092
 40
0.8314110437
 40
0.8818613134
 40
0.9238179118
 40
0.9568813775
 40
0.9699728489
 40
0.9807301876
 40
0.9891261733
 40
0.9951392412
 40
0.9987610956
 40
1.0
 40
1.0
 40
1.0
 40
1.0
 10
-55.7284613212
 20
24.2369056521
 30
0.0
 10
-55.7285559007
 20
24.2531630359
 30
0.0
 10
-55.7287235064
 20
24.2850518467
 30
0.0
 10
-55.7289127479
 20
24.3313477194
 30
0.0
 10
-55.7290147333
 20
24.3679545081
 30
0.0
 10
-55.7290562813
 20
24.3949892321
 30
0.0
 10
-55.7290669547
 20
24.4131087227
 30
0.0
 10
-55.7290582513
 20
24.4295315887
 30
0.0
 10
-55.7290300211
 20
24.4440989714
 30
0.0
 10
-55.7289839375
 20
24.4566723619
 30
0.0
 10
-55.7289174853
 20
24.4671257223
 30
0.0
 10
-55.7288497537
 20
24.4744748205
 30
0.0
 10
-55.7287735035
 20
24.4792072591
 30
0.0
 10
-55.7287336434
 20
24.4819149914
 30
0.0
 10
-55.7286458412
 20
24.4839569998
 30
0.0
 10
-55.7286619747
 20
24.4855825546
 30
0.0
 10
-55.7284767634
 20
24.4862683722
 30
0.0
 10
-55.7285645661
 20
24.4869008206
 30
0.0
 10
-55.7284613212
 20
24.4869014213
 30
0.0
  0
SPLINE
  5
48D
100
AcDbEntity
  8
RACCORDO
100
AcDbSpline
 62
7
  6
CONTINUOUS
 70
0
 71
3
 72
21
 73
17
 74
0
 42
0.0000001
 43
0.0000001
 44
0.0000000001
 40
0.0
 40
0.0
 40
0.0
 40
0.0
 40
0.0029790658
 40
0.008175116
 40
0.0156250978
 40
0.0253283399
 40
0.0514214958
 40
0.0862381945
 40
0.1294620787
 40
0.1806964401
 40
0.2394705042
 40
0.3052441117
 40
0.4553064688
 40
0.6253651728
 40
0.8091743646
 40
1.0
 40
1.0
 40
1.0
 40
1.0
 10
-53.4771548613
 20
22.3996911987
 30
0.0
 10
-53.4774020461
 20
22.3992605945
 30
0.0
 10
-53.4777141023
 20
22.3979045676
 30
0.0
 10
-53.4781075023
 20
22.3953465347
 30
0.0
 10
-53.4784370656
 20
22.3916265377
 30
0.0
 10
-53.478875611
 20
22.3844364857
 30
0.0
 10
-53.4792792194
 20
22.3726699905
 30
0.0
 10
-53.4796693285
 20
22.3553204389
 30
0.0
 10
-53.4799240252
 20
22.3337752387
 30
0.0
 10
-53.4800623404
 20
22.3082371894
 30
0.0
 10
-53.4800755839
 20
22.2789401678
 30
0.0
 10
-53.4799169308
 20
22.2331723136
 30
0.0
 10
-53.4793791461
 20
22.1688587659
 30
0.0
 10
-53.4782939437
 20
22.0848776728
 30
0.0
 10
-53.4767699279
 20
21.9941085464
 30
0.0
 10
-53.4755191791
 20
21.9316821458
 30
0.0
 10
-53.4748205594
 20
21.8998857286
 30
0.0
  0
SPLINE
  5
48E
100
AcDbEntity
  8
RACCORDO
100
AcDbSpline
 62
250
  6
CONTINUOUS
 70
0
 71
3
 72
23
 73
19
 74
0
 42
0.0000001
 43
0.0000001
 44
0.0000000001
 40
0.0
 40
0.0
 40
0.0
 40
0.0
 40
0.1950832165
 40
0.3826538753
 40
0.555530217
 40
0.6343467192
 40
0.707056309
 40
0.7729548092
 40
0.8314110437
 40
0.8818613134
 40
0.9238179118
 40
0.9568813775
 40
0.9699728489
 40
0.9807301876
 40
0.9891261733
 40
0.9951392412
 40
0.9987610956
 40
1.0
 40
1.0
 40
1.0
 40
1.0
 10
-52.7255524555
 20
24.2456323968
 30
0.0
 10
-52.725457876
 20
24.2618897806
 30
0.0
 10
-52.7252902704
 20
24.2937785914
 30
0.0
 10
-52.7251010288
 20
24.3400744642
 30
0.0
 10
-52.7249990434
 20
24.3766812528
 30
0.0
 10
-52.7249574955
 20
24.4037159769
 30
0.0
 10
-52.724946822
 20
24.4218354674
 30
0.0
 10
-52.7249555254
 20
24.4382583334
 30
0.0
 10
-52.7249837557
 20
24.4528257161
 30
0.0
 10
-52.7250298393
 20
24.4653991066
 30
0.0
 10
-52.7250962914
 20
24.475852467
 30
0.0
 10
-52.7251640231
 20
24.4832015652
 30
0.0
 10
-52.7252402732
 20
24.4879340038
 30
0.0
 10
-52.7252801334
 20
24.4906417361
 30
0.0
 10
-52.7253679356
 20
24.4926837445
 30
0.0
 10
-52.7253518021
 20
24.4943092993
 30
0.0
 10
-52.7255370134
 20
24.4949951169
 30
0.0
 10
-52.7254492107
 20
24.4956275653
 30
0.0
 10
-52.7255524555
 20
24.495628166
 30
0.0
  0
SPLINE
  5
48F
100
AcDbEntity
  8
RACCORDO
100
AcDbSpline
 62
250
  6
CONTINUOUS
 70
0
 71
3
 72
23
 73
19
 74
0
 42
0.0000001
 43
0.0000001
 44
0.0000000001
 40
0.0
 40
0.0
 40
0.0
 40
0.0
 40
0.1952396719
 40
0.3828780266
 40
0.5557565082
 40
0.6345570769
 40
0.7072432922
 40
0.7731137541
 40
0.8315398341
 40
0.8819601501
 40
0.9238889979
 40
0.9569285413
 40
0.9700098801
 40
0.9807584244
 40
0.9891469756
 40
0.9951538559
 40
0.9987701865
 40
1.0
 40
1.0
 40
1.0
 40
1.0
 10
-52.7255524555
 20
23.8443375673
 30
0.0
 10
-52.7174408595
 20
23.8302873953
 30
0.0
 10
-52.7015468526
 20
23.8027263465
 30
0.0
 10
-52.67851678
 20
23.7626975287
 30
0.0
 10
-52.6603475266
 20
23.731034834
 30
0.0
 10
-52.6469577602
 20
23.7076425082
 30
0.0
 10
-52.6379981796
 20
23.6919599717
 30
0.0
 10
-52.6298921533
 20
23.6777394934
 30
0.0
 10
-52.6227180559
 20
23.6651179971
 30
0.0
 10
-52.6165425672
 20
23.6542157421
 30
0.0
 10
-52.6114302692
 20
23.6451400919
 30
0.0
 10
-52.6078509757
 20
23.6387512992
 30
0.0
 10
-52.6055725186
 20
23.6346226741
 30
0.0
 10
-52.6042626143
 20
23.6322635419
 30
0.0
 10
-52.6033273226
 20
23.6304560673
 30
0.0
 10
-52.6024964858
 20
23.6290629562
 30
0.0
 10
-52.6023253438
 20
23.6283790951
 30
0.0
 10
-52.6019183872
 20
23.6278823125
 30
0.0
 10
-52.6020068884
 20
23.6278312164
 30
0.0
  0
SPLINE
  5
490
100
AcDbEntity
  8
RACCORDO
100
AcDbSpline
 62
7
  6
CONTINUOUS
 70
0
 71
3
 72
11
 73
7
 74
0
 42
0.0000001
 43
0.0000001
 44
0.0000000001
 40
0.0
 40
0.0
 40
0.0
 40
0.0
 40
0.6821066062
 40
0.9136705788
 40
0.978027483
 40
1.0
 40
1.0
 40
1.0
 40
1.0
 10
-54.7284613212
 20
23.2669872981
 30
0.0
 10
-54.7850557436
 20
23.2343116637
 30
0.0
 10
-54.8608866243
 20
23.1905799738
 30
0.0
 10
-54.9418045794
 20
23.143339517
 30
0.0
 10
-54.9681568156
 20
23.1280662994
 30
0.0
 10
-54.9752180323
 20
23.1237597705
 30
0.0
 10
-54.9770068884
 20
23.1226497308
 30
0.0
  0
SPLINE
  5
491
100
AcDbEntity
  8
RACCORDO
100
AcDbSpline
 62
250
  6
CONTINUOUS
 70
0
 71
3
 72
23
 73
19
 74
0
 42
0.0000001
 43
0.0000001
 44
0.0000000001
 40
0.0
 40
0.0
 40
0.0
 40
0.0
 40
0.1952399434
 40
0.3828782425
 40
0.5557566864
 40
0.6345572254
 40
0.707243413
 40
0.7731138479
 40
0.8315399057
 40
0.8819601977
 40
0.9238890294
 40
0.9569285592
 40
0.9700098927
 40
0.9807584317
 40
0.9891469801
 40
0.9951538586
 40
0.9987701874
 40
1.0
 40
1.0
 40
1.0
 40
1.0
 10
-55.7284613212
 20
23.8443375673
 30
0.0
 10
-55.7365729285
 20
23.8302873757
 30
0.0
 10
-55.7524669444
 20
23.8027263114
 30
0.0
 10
-55.7754970243
 20
23.7626974807
 30
0.0
 10
-55.7936662726
 20
23.7310347949
 30
0.0
 10
-55.8070560351
 20
23.7076424759
 30
0.0
 10
-55.8160156121
 20
23.6919599455
 30
0.0
 10
-55.8241216352
 20
23.6777394727
 30
0.0
 10
-55.8312957296
 20
23.6651179818
 30
0.0
 10
-55.8374712157
 20
23.6542157312
 30
0.0
 10
-55.8425835115
 20
23.6451400849
 30
0.0
 10
-55.8461628035
 20
23.6387512947
 30
0.0
 10
-55.8484412597
 20
23.6346226714
 30
0.0
 10
-55.8497511634
 20
23.6322635401
 30
0.0
 10
-55.8506864547
 20
23.6304560662
 30
0.0
 10
-55.8515172912
 20
23.6290629556
 30
0.0
 10
-55.8516884332
 20
23.6283790949
 30
0.0
 10
-55.8520953895
 20
23.6278823125
 30
0.0
 10
-55.8520068884
 20
23.6278312164
 30
0.0
  0
SPLINE
  5
492
100
AcDbEntity
  8
RACCORDO
100
AcDbSpline
 62
250
  6
CONTINUOUS
 70
0
 71
3
 72
23
 73
19
 74
0
 42
0.0000001
 43
0.0000001
 44
0.0000000001
 40
0.0
 40
0.0
 40
0.0
 40
0.0
 40
0.0012389062
 40
0.0048607647
 40
0.0108738371
 40
0.0192698293
 40
0.0300271803
 40
0.0431186638
 40
0.0761821588
 40
0.118138791
 40
0.1685891107
 40
0.2270453895
 40
0.292943944
 40
0.3656535884
 40
0.4444701482
 40
0.617346572
 40
0.8049173772
 40
1.0
 40
1.0
 40
1.0
 40
1.0
 10
-55.7284613212
 20
-24.4869014213
 30
0.0
 10
-55.7285645663
 20
-24.4869008206
 30
0.0
 10
-55.7284767632
 20
-24.4862683713
 30
0.0
 10
-55.7286619748
 20
-24.4855825531
 30
0.0
 10
-55.7286458412
 20
-24.483956997
 30
0.0
 10
-55.7287336435
 20
-24.4819149867
 30
0.0
 10
-55.7287735036
 20
-24.4792072518
 30
0.0
 10
-55.7288497538
 20
-24.4744748088
 30
0.0
 10
-55.7289174854
 20
-24.4671257043
 30
0.0
 10
-55.7289839377
 20
-24.4566723344
 30
0.0
 10
-55.7290300212
 20
-24.4440989332
 30
0.0
 10
-55.7290582514
 20
-24.4295315382
 30
0.0
 10
-55.7290669547
 20
-24.4131086594
 30
0.0
 10
-55.7290562812
 20
-24.394989155
 30
0.0
 10
-55.7290147331
 20
-24.3679544147
 30
0.0
 10
-55.7289127475
 20
-24.3313476023
 30
0.0
 10
-55.7287235059
 20
-24.28505176
 30
0.0
 10
-55.7285559004
 20
-24.2531629864
 30
0.0
 10
-55.7284613212
 20
-24.2369056521
 30
0.0
  0
SPLINE
  5
493
100
AcDbEntity
  8
RACCORDO
100
AcDbSpline
 62
7
  6
CONTINUOUS
 70
0
 71
3
 72
21
 73
17
 74
0
 42
0.0000001
 43
0.0000001
 44
0.0000000001
 40
0.0
 40
0.0
 40
0.0
 40
0.0
 40
0.1908256354
 40
0.3746348272
 40
0.5446935312
 40
0.6947558883
 40
0.7605294958
 40
0.8193035599
 40
0.8705379213
 40
0.9137618055
 40
0.9485785042
 40
0.9746716601
 40
0.9843749022
 40
0.991824884
 40
0.9970209342
 40
1.0
 40
1.0
 40
1.0
 40
1.0
 10
-53.4748205594
 20
-21.8998857286
 30
0.0
 10
-53.4755191791
 20
-21.9316821458
 30
0.0
 10
-53.4767699279
 20
-21.9941085464
 30
0.0
 10
-53.4782939437
 20
-22.0848776728
 30
0.0
 10
-53.4793791461
 20
-22.1688587659
 30
0.0
 10
-53.4799169308
 20
-22.2331723136
 30
0.0
 10
-53.4800755839
 20
-22.2789401678
 30
0.0
 10
-53.4800623404
 20
-22.3082371894
 30
0.0
 10
-53.4799240252
 20
-22.3337752387
 30
0.0
 10
-53.4796693285
 20
-22.3553204389
 30
0.0
 10
-53.4792792194
 20
-22.3726699905
 30
0.0
 10
-53.478875611
 20
-22.3844364857
 30
0.0
 10
-53.4784370656
 20
-22.3916265377
 30
0.0
 10
-53.4781075023
 20
-22.3953465347
 30
0.0
 10
-53.4777141023
 20
-22.3979045676
 30
0.0
 10
-53.4774020461
 20
-22.3992605945
 30
0.0
 10
-53.4771548613
 20
-22.3996911987
 30
0.0
  0
SPLINE
  5
494
100
AcDbEntity
  8
RACCORDO
100
AcDbSpline
 62
7
  6
CONTINUOUS
 70
0
 71
3
 72
11
 73
7
 74
0
 42
0.0000001
 43
0.0000001
 44
0.0000000001
 40
0.0
 40
0.0
 40
0.0
 40
0.0
 40
0.0225227456
 40
0.0871911634
 40
0.3188730302
 40
1.0
 40
1.0
 40
1.0
 40
1.0
 10
-54.9770068884
 20
-23.1226497308
 30
0.0
 10
-54.9751729583
 20
-23.1237871186
 30
0.0
 10
-54.9680400076
 20
-23.1281345861
 30
0.0
 10
-54.9416071858
 20
-23.1434558003
 30
0.0
 10
-54.8607329523
 20
-23.1906667698
 30
0.0
 10
-54.7849744618
 20
-23.2343585929
 30
0.0
 10
-54.7284613212
 20
-23.2669872981
 30
0.0
  0
LINE
  5
495
100
AcDbEntity
  8
RACCORDO
100
AcDbLine
 62
7
  6
CONTINUOUS
 10
-54.7284613212
 20
22.3334109614
 30
0.0
 11
-53.4770068884
 21
22.3997080771
 31
0.0
  0
SPLINE
  5
496
100
AcDbEntity
  8
RACCORDO
100
AcDbSpline
 62
250
  6
CONTINUOUS
 70
0
 71
3
 72
23
 73
19
 74
0
 42
0.0000001
 43
0.0000001
 44
0.0000000001
 40
0.0
 40
0.0
 40
0.0
 40
0.0
 40
0.1950127053
 40
0.3824958635
 40
0.55527377
 40
0.6340446107
 40
0.706709778
 40
0.7725722967
 40
0.8309984952
 40
0.881426985
 40
0.9233768971
 40
0.9564476412
 40
0.9695519303
 40
0.9803282322
 40
0.9887549017
 40
0.9948165359
 40
0.9985233215
 40
1.0
 40
1.0
 40
1.0
 40
1.0
 10
-61.1163440024
 20
21.4994104546
 30
0.0
 10
-61.1180441105
 20
21.5318603333
 30
0.0
 10
-61.1212716481
 20
21.5955128517
 30
0.0
 10
-61.1256337939
 20
21.6879337563
 30
0.0
 10
-61.128797763
 20
21.7610201366
 30
0.0
 10
-61.1309322683
 20
21.8150008191
 30
0.0
 10
-61.1322602066
 20
21.8511842823
 30
0.0
 10
-61.1333534812
 20
21.8839841037
 30
0.0
 10
-61.1342020608
 20
21.913084056
 30
0.0
 10
-61.134799894
 20
21.9382063836
 30
0.0
 10
-61.1351419636
 20
21.9591037831
 30
0.0
 10
-61.1352257461
 20
21.9737955791
 30
0.0
 10
-61.135136292
 20
21.983273598
 30
0.0
 10
-61.1350096999
 20
21.9886797548
 30
0.0
 10
-61.1348264774
 20
21.9928231393
 30
0.0
 10
-61.1345820945
 20
21.9959900504
 30
0.0
 10
-61.1343168545
 20
21.9975846231
 30
0.0
 10
-61.1340314946
 20
21.9987123445
 30
0.0
 10
-61.1337857773
 20
21.998725222
 30
0.0
  0
SPLINE
  5
497
100
AcDbEntity
  8
RACCORDO
100
AcDbSpline
 62
7
  6
CONTINUOUS
 70
0
 71
3
 72
9
 73
5
 74
0
 42
0.0000001
 43
0.0000001
 44
0.0000000001
 40
0.0
 40
0.0
 40
0.0
 40
0.0
 40
0.482213368
 40
1.0
 40
1.0
 40
1.0
 40
1.0
 10
-54.8525500304
 20
-22.3279108386
 30
0.0
 10
-54.8326120421
 20
-22.3289557443
 30
0.0
 10
-54.7912333378
 20
-22.3304456948
 30
0.0
 10
-54.7498693184
 20
-22.332273202
 30
0.0
 10
-54.7284613212
 20
-22.3334109614
 30
0.0
  0
ELLIPSE
  5
498
100
AcDbEntity
  8
RACCORDO
100
AcDbEllipse
 62
7
  6
CONTINUOUS
 10
-9.2
 20
21.9496569135
 30
0.0
 11
-0.0
 21
0.2503430865
 31
0.0
 40
0.9986295348
 41
0.0
 42
1.5707963268
  0
ELLIPSE
  5
499
100
AcDbEntity
  8
RACCORDO
100
AcDbEllipse
 62
7
  6
CONTINUOUS
 10
9.2
 20
21.9496569135
 30
0.0
 11
0.0
 21
0.2503430865
 31
0.0
 40
0.9986295348
 41
-1.5707963268
 42
0.0
  0
ELLIPSE
  5
49A
100
AcDbEntity
  8
RACCORDO
100
AcDbEllipse
 62
7
  6
CONTINUOUS
 10
10.649923836
 20
21.891254093
 30
0.0
 11
0.4473055582
 21
-0.2236357461
 31
0.0
 40
0.9998096356
 41
0.4635410001
 42
1.5707963317
  0
ELLIPSE
  5
49B
100
AcDbEntity
  8
RACCORDO
100
AcDbEllipse
 62
7
  6
CONTINUOUS
 10
-10.649923836
 20
-21.891254093
 30
0.0
 11
0.4473055582
 21
-0.2236357461
 31
0.0
 40
0.9998096356
 41
-2.6780516535
 42
-1.5707963219
  0
ELLIPSE
  5
49C
100
AcDbEntity
  8
RACCORDO
100
AcDbEllipse
 62
7
  6
CONTINUOUS
 10
-10.649923836
 20
21.891254093
 30
0.0
 11
0.4473055582
 21
0.2236357461
 31
0.0
 40
0.9998096356
 41
1.5707963219
 42
2.6780516535
  0
ELLIPSE
  5
49D
100
AcDbEntity
  8
RACCORDO
100
AcDbEllipse
 62
7
  6
CONTINUOUS
 10
10.649923836
 20
-21.891254093
 30
0.0
 11
0.4473055582
 21
0.2236357461
 31
0.0
 40
0.9998096356
 41
-1.5707963317
 42
-0.4635410001
  0
ELLIPSE
  5
49E
100
AcDbEntity
  8
RACCORDO
100
AcDbEllipse
 62
7
  6
CONTINUOUS
 10
6.4594660369
 20
3.9094850761
 30
0.0
 11
0.0
 21
0.5
 31
0.0
 40
0.0087268678
 41
-3.1328660073
 42
-3.1255397368
  0
ELLIPSE
  5
49F
100
AcDbEntity
  8
RACCORDO
100
AcDbEllipse
 62
7
  6
CONTINUOUS
 10
6.4593803371
 20
-5.0093993763
 30
0.0
 11
-0.0
 21
0.5
 31
0.0
 40
0.0087268678
 41
-0.0182549165
 42
-0.0087266463
  0
ELLIPSE
  5
4A0
100
AcDbEntity
  8
RACCORDO
100
AcDbEllipse
 62
7
  6
CONTINUOUS
 10
3.6593803371
 20
-5.0093993763
 30
0.0
 11
-0.0
 21
0.5
 31
0.0
 40
0.0087268678
 41
-0.0182548059
 42
-0.0087266463
  0
ELLIPSE
  5
4A1
100
AcDbEntity
  8
RACCORDO
100
AcDbEllipse
 62
7
  6
CONTINUOUS
 10
3.6592179491
 20
-6.6092369883
 30
0.0
 11
0.0
 21
0.5
 31
0.0
 40
0.0087268678
 41
-0.0214576456
 42
-0.0087266463
  0
ELLIPSE
  5
4A2
100
AcDbEntity
  8
RACCORDO
100
AcDbEllipse
 62
7
  6
CONTINUOUS
 10
2.5092179491
 20
-6.6092369883
 30
0.0
 11
0.0
 21
0.5
 31
0.0
 40
0.0087268678
 41
-0.0214576049
 42
-0.0087266463
  0
ELLIPSE
  5
4A3
100
AcDbEntity
  8
RACCORDO
100
AcDbEllipse
 62
7
  6
CONTINUOUS
 10
2.5090461476
 20
-7.9590651868
 30
0.0
 11
-0.0
 21
0.5
 31
0.0
 40
0.0087268678
 41
-0.024159982
 42
-0.0087266463
  0
ELLIPSE
  5
4A4
100
AcDbEntity
  8
RACCORDO
100
AcDbEllipse
 62
7
  6
CONTINUOUS
 10
-2.5090461476
 20
-7.9590651868
 30
0.0
 11
0.0
 21
0.5
 31
0.0
 40
0.0087268678
 41
0.0087266463
 42
0.0241599888
  0
ELLIPSE
  5
4A5
100
AcDbEntity
  8
RACCORDO
100
AcDbEllipse
 62
7
  6
CONTINUOUS
 10
10.3927234819
 20
-22.3344902759
 30
0.0
 11
0.25
 21
0.0
 31
0.0
 40
0.0524077793
 41
0.5261092631
 42
1.5707963268
  0
ELLIPSE
  5
4A6
100
AcDbEntity
  8
RACCORDO
100
AcDbEllipse
 62
7
  6
CONTINUOUS
 10
-10.3927234819
 20
-22.3344902759
 30
0.0
 11
0.25
 21
-0.0
 31
0.0
 40
0.0524077793
 41
1.5707963268
 42
2.6154833905
  0
ELLIPSE
  5
4A7
100
AcDbEntity
  8
RACCORDO
100
AcDbEllipse
 62
7
  6
CONTINUOUS
 10
10.3927234819
 20
22.3344902759
 30
0.0
 11
0.25
 21
0.0
 31
0.0
 40
0.0524077793
 41
-1.5707963268
 42
-0.5261092631
  0
ELLIPSE
  5
4A8
100
AcDbEntity
  8
RACCORDO
100
AcDbEllipse
 62
7
  6
CONTINUOUS
 10
-10.3927234819
 20
22.3344902759
 30
0.0
 11
0.25
 21
0.0
 31
0.0
 40
0.0524077793
 41
-2.6154833905
 42
-1.5707963268
  0
ELLIPSE
  5
4A9
100
AcDbEntity
  8
RACCORDO
100
AcDbEllipse
 62
7
  6
CONTINUOUS
 10
3.8970826234
 20
22.3737961104
 30
0.0
 11
0.5
 21
0.0
 31
0.0
 40
0.0524077793
 41
-1.5707963268
 42
-0.0058177642
  0
ELLIPSE
  5
4AA
100
AcDbEntity
  8
RACCORDO
100
AcDbEllipse
 62
7
  6
CONTINUOUS
 10
3.8970826234
 20
23.7970910851
 30
0.0
 11
0.5
 21
0.0
 31
0.0
 40
0.0058178298
 41
-0.6464131586
 42
-0.0058177642
  0
ELLIPSE
  5
4AB
100
AcDbEntity
  8
RACCORDO
100
AcDbEllipse
 62
7
  6
CONTINUOUS
 10
-3.8970826234
 20
23.7970910851
 30
0.0
 11
0.5
 21
-0.0
 31
0.0
 40
0.0058178298
 41
-3.1357748894
 42
-2.495179495
  0
ELLIPSE
  5
4AC
100
AcDbEntity
  8
RACCORDO
100
AcDbEllipse
 62
7
  6
CONTINUOUS
 10
-3.8970826234
 20
22.3737961104
 30
0.0
 11
0.5
 21
0.0
 31
0.0
 40
0.0524077793
 41
-3.1357748894
 42
-1.5707963268
  0
ELLIPSE
  5
4AD
100
AcDbEntity
  8
RACCORDO
100
AcDbEllipse
 62
7
  6
CONTINUOUS
 10
3.8970826234
 20
-23.7970910851
 30
0.0
 11
0.5
 21
-0.0
 31
0.0
 40
0.0058178298
 41
0.0058177642
 42
0.6464131586
  0
ELLIPSE
  5
4AE
100
AcDbEntity
  8
RACCORDO
100
AcDbEllipse
 62
7
  6
CONTINUOUS
 10
3.8970826234
 20
-22.3737961104
 30
0.0
 11
0.5
 21
-0.0
 31
0.0
 40
0.0524077793
 41
0.0058177642
 42
1.5707963268
  0
ELLIPSE
  5
4AF
100
AcDbEntity
  8
RACCORDO
100
AcDbEllipse
 62
7
  6
CONTINUOUS
 10
-3.8970826234
 20
-22.3737961104
 30
0.0
 11
0.5
 21
-0.0
 31
0.0
 40
0.0524077793
 41
1.5707963268
 42
3.1357748894
  0
ELLIPSE
  5
4B0
100
AcDbEntity
  8
RACCORDO
100
AcDbEllipse
 62
7
  6
CONTINUOUS
 10
-2.5092179491
 20
-6.6092369883
 30
0.0
 11
0.0
 21
0.5
 31
0.0
 40
0.0087268678
 41
0.0087266463
 42
0.0214576049
  0
ELLIPSE
  5
4B1
100
AcDbEntity
  8
RACCORDO
100
AcDbEllipse
 62
7
  6
CONTINUOUS
 10
-3.6592179491
 20
-6.6092369883
 30
0.0
 11
0.0
 21
0.5
 31
0.0
 40
0.0087268678
 41
0.0087266463
 42
0.021457651
  0
ELLIPSE
  5
4B2
100
AcDbEntity
  8
RACCORDO
100
AcDbEllipse
 62
7
  6
CONTINUOUS
 10
-3.6593803371
 20
-5.0093993763
 30
0.0
 11
-0.0
 21
0.5
 31
0.0
 40
0.0087268678
 41
0.0087266463
 42
0.0182548059
  0
ELLIPSE
  5
4B3
100
AcDbEntity
  8
RACCORDO
100
AcDbEllipse
 62
7
  6
CONTINUOUS
 10
-6.4594660369
 20
3.9094850761
 30
0.0
 11
0.0
 21
0.5
 31
0.0
 40
0.0087268678
 41
-3.1576455584
 42
-3.1503192998
  0
ELLIPSE
  5
4B4
100
AcDbEntity
  8
RACCORDO
100
AcDbEllipse
 62
7
  6
CONTINUOUS
 10
-6.4593803371
 20
-5.0093993763
 30
0.0
 11
0.0
 21
0.5
 31
0.0
 40
0.0087268678
 41
0.0087266463
 42
0.0182549368
  0
ELLIPSE
  5
4B5
100
AcDbEntity
  8
RACCORDO
100
AcDbEllipse
 62
7
  6
CONTINUOUS
 10
-3.8970826234
 20
-23.7970910851
 30
0.0
 11
0.5
 21
0.0
 31
0.0
 40
0.0058178298
 41
2.495179495
 42
3.1357748894
  0
ELLIPSE
  5
4B6
100
AcDbEntity
  8
RACCORDO
100
AcDbEllipse
 62
7
  6
CONTINUOUS
 10
-8.5072765181
 20
22.3344902759
 30
0.0
 11
0.25
 21
0.0
 31
0.0
 40
0.0524077793
 41
-1.5707963268
 42
-0.0058177642
  0
ELLIPSE
  5
4B7
100
AcDbEntity
  8
RACCORDO
100
AcDbEllipse
 62
7
  6
CONTINUOUS
 10
8.5072765181
 20
-22.3344902759
 30
0.0
 11
0.25
 21
-0.0
 31
0.0
 40
0.0524077793
 41
1.5707963268
 42
3.1357748894
  0
ELLIPSE
  5
4B8
100
AcDbEntity
  8
RACCORDO
100
AcDbEllipse
 62
7
  6
CONTINUOUS
 10
8.5072765181
 20
22.3344902759
 30
0.0
 11
0.25
 21
0.0
 31
0.0
 40
0.0524077793
 41
-3.1357748894
 42
-1.5707963268
  0
ELLIPSE
  5
4B9
100
AcDbEntity
  8
RACCORDO
100
AcDbEllipse
 62
7
  6
CONTINUOUS
 10
-8.5072765181
 20
-22.3344902759
 30
0.0
 11
0.25
 21
-0.0
 31
0.0
 40
0.0524077793
 41
0.0058177642
 42
1.5707963268
  0
ELLIPSE
  5
4BA
100
AcDbEntity
  8
RACCORDO
100
AcDbEllipse
 62
7
  6
CONTINUOUS
 10
-42.9770068884
 20
-22.0658992808
 30
0.0
 11
0.5
 21
-0.0
 31
0.0
 40
1.0
 41
0.6605680511
 42
1.5533430343
  0
ELLIPSE
  5
4BB
100
AcDbEntity
  8
RACCORDO
100
AcDbEllipse
 62
7
  6
CONTINUOUS
 10
-42.9770068884
 20
22.0658992808
 30
0.0
 11
0.0
 21
0.5
 31
0.0
 40
1.0
 41
-3.1241393611
 42
-2.2313643779
  0
ENDSEC
  0
SECTION
  2
OBJECTS
  0
DICTIONARY
  5
C
100
AcDbDictionary
280
0
281
1
  3
ACAD_GROUP
350
D
  3
ACAD_MLINESTYLE
350
17
  3
ACAD_LAYOUT
350
1A
  3
ACAD_PLOTSETTINGS
350
19
  3
ACAD_PLOTSTYLENAME
350
E
  0
DICTIONARY
  5
D
102
{ACAD_REACTORS
330
C
102
}
100
AcDbDictionary
280
0
281
1
  0
ACDBDICTIONARYWDFLT
  5
E
102
{ACAD_REACTORS
330
C
102
}
100
AcDbDictionary
281
1
  3
Normal
350
F
100
AcDbDictionaryWithDefault
340
F
  0
DICTIONARY
  5
17
102
{ACAD_REACTORS
330
C
102
}
100
AcDbDictionary
280
0
281
1
  3
Standard
350
18
  0
DICTIONARY
  5
19
102
{ACAD_REACTORS
330
C
102
}
100
AcDbDictionary
281
1
  0
DICTIONARY
  5
1A
102
{ACAD_REACTORS
330
C
102
}
100
AcDbDictionary
281
1
  3
Model
350
4BC
  3
Layout1
350
4BD
  0
ACDBPLACEHOLDER
  5
F
102
{ACAD_REACTORS
330
E
102
}
  0
MLINESTYLE
  5
18
102
{ACAD_REACTORS
330
17
102
}
100
AcDbMlineStyle
  2
STANDARD
 70
0
  3

 62
256
 51
90.0
 52
90.0
 71
2
 49
0.5
 62
256
  6
BYLAYER
 49
-0.5
 62
256
  6
BYLAYER
  0
LAYOUT
  5
4BC
102
{ACAD_REACTORS
330
1A
102
}
100
AcDbPlotSettings
  1

  2
none_device
  4
ANSI_C_(22.00_x_17.00_Inches)
  6

 40
0.0
 41
0.0
 42
0.0
 43
0.0
 44
558.8
 45
431.8
 46
0.0
 47
0.0
 48
0.0
 49
0.0
140
0.0
141
0.0
142
1.0
143
1.0
 70
1024
 72
1
 73
0
 74
0
  7

 75
0
147
1.0
148
0.0
149
0.0
100
AcDbLayout
  1
Model
 70
0
 71
0
 10
0.0
 20
0.0
 11
558.8
 21
431.8
 12
0.0
 22
0.0
 32
0.0
 14
0.0
 24
0.0
 34
0.0
 15
0.0
 25
0.0
 35
0.0
146
0.0
 13
0.0
 23
0.0
 33
0.0
 16
1.0
 26
0.0
 36
0.0
 17
0.0
 27
1.0
 37
0.0
 76
0
330
216
345
0
346
0
  0
LAYOUT
  5
4BD
102
{ACAD_REACTORS
330
1A
102
}
100
AcDbPlotSettings
  1

  2
none_device
  4
ANSI_C_(22.00_x_17.00_Inches)
  6

 40
0.0
 41
0.0
 42
0.0
 43
0.0
 44
558.8
 45
431.8
 46
0.0
 47
0.0
 48
0.0
 49
0.0
140
0.0
141
0.0
142
1.0
143
1.0
 70
0
 72
1
 73
0
 74
0
  7

 75
0
147
1.0
148
0.0
149
0.0
100
AcDbLayout
  1
Layout1
 70
0
 71
1
 10
0.0
 20
0.0
 11
558.8
 21
431.8
 12
0.0
 22
0.0
 32
0.0
 14
0.0
 24
0.0
 34
0.0
 15
0.0
 25
0.0
 35
0.0
146
0.0
 13
0.0
 23
0.0
 33
0.0
 16
1.0
 26
0.0
 36
0.0
 17
0.0
 27
1.0
 37
0.0
 76
0
330
217
345
0
346
0
  0
ENDSEC
  0
EOF
