  0
SECTION
  2
HEADER
  9
$ACADVER
  1
AC1024
  9
$DWGCODEPAGE
  3
ANSI_1252
  9
$EXTMAX
 10
297.0
 20
210.0
 30
0.0
  9
$EXTMIN
 10
0.0
 20
0.0
 30
0.0
  9
$LIMMIN
 10
0.0
 20
0.0
  9
$LIMMAX
 10
297.0
 20
210.0
  9
$VIEWCTR
 10
148.5
 20
105.0
  9
$VIEWSIZE
 40
210.0
  9
$CLAYER
  8
0
  9
$LTSCALE
 40
16.335
  9
$CELTYPE
  6
BYLAYER
  9
$DIMSCALE
 40
1.0
  9
$DIMASZ
 40
3.0
  9
$DIMEXO
 40
0.5
  9
$DIMDLI
 40
11.286
  9
$DIMEXE
 40
1.5
  9
$DIMCEN
 40
2.673
  9
$DIMLFAC
 40
1.0
  9
$DIMBLK
  1
_FILLED
  9
$DIMALT
 70
0
  9
$DIMALTF
 40
0.0393700787
  9
$DIMTXT
 40
3.0
  9
$DIMTOL
 70
1
  9
$DIMLIM
 70
0
  9
$DIMTFAC
 40
1.0
  9
$DIMTP
 40
0.01
  9
$DIMTM
 40
0.01
  9
$DIMGAP
 40
0.625
  9
$DIMDSEP
 70
44
  9
$AUNITS
 70
0
  9
$PDMODE
 70
3
  9
$PDSIZE
 40
3.0
  9
$HANDSEED
  5
691
  9
$TILEMODE
 70
1
  9
$MEASUREMENT
 70
1
  9
$INSUNITS
 70
4
  0
ENDSEC
  0
SECTION
  2
CLASSES
  0
CLASS
  1
ACDBDICTIONARYWDFLT
  2
AcDbDictionaryWithDefault
  3
AutoCAD 2000
 90
0
 91
1
280
0
281
0
  0
CLASS
  1
ACDBPLACEHOLDER
  2
AcDbPlaceHolder
  3
AutoCAD 2000
 90
0
 91
1
280
0
281
0
  0
CLASS
  1
LAYOUT
  2
AcDbLayout
  3
AutoCAD 2000
 90
0
 91
0
280
0
281
0
  0
ENDSEC
  0
SECTION
  2
TABLES
  0
TABLE
  2
VPORT
  5
8
100
AcDbSymbolTable
 70
2
  0
VPORT
  5
1F4
100
AcDbSymbolTableRecord
100
AcDbViewportTableRecord
  2
*ACTIVE
 70
0
 10
0.0
 20
0.0
 11
1.0
 21
1.0
 12
148.5
 22
105.0
 13
0.0
 23
0.0
 14
1.0
 24
1.0
 15
0.0
 25
0.0
 16
0.0
 26
0.0
 36
1.0
 17
0.0
 27
0.0
 37
0.0
 40
210.0
 41
1.4142857143
 42
50.0
 43
0.0
 44
0.0
 50
0.0
 51
0.0
 71
0
 72
100
 73
1
 74
1
 75
0
 76
0
 77
0
 78
0
  0
ENDTAB
  0
TABLE
  2
LTYPE
  5
5
100
AcDbSymbolTable
 70
6
  0
LTYPE
  5
14
100
AcDbSymbolTableRecord
100
AcDbLinetypeTableRecord
  2
BYBLOCK
 70
0
  3

 72
65
 73
0
 40
0.0
  0
LTYPE
  5
15
100
AcDbSymbolTableRecord
100
AcDbLinetypeTableRecord
  2
BYLAYER
 70
0
  3

 72
65
 73
0
 40
0.0
  0
LTYPE
  5
16
100
AcDbSymbolTableRecord
100
AcDbLinetypeTableRecord
  2
CONTINUOUS
 70
64
  3
Solid line
 72
65
 73
0
 40
0.0
  0
LTYPE
  5
1F5
100
AcDbSymbolTableRecord
100
AcDbLinetypeTableRecord
  2
CENTER
 70
64
  3
____ _ ____ _ ____ _ ____ _ ____ _ ____ _ ____
 72
65
 73
4
 40
0.6
 49
0.375
 74
0
 49
-0.075
 74
0
 49
0.075
 74
0
 49
-0.075
 74
0
  0
LTYPE
  5
1F6
100
AcDbSymbolTableRecord
100
AcDbLinetypeTableRecord
  2
HIDDEN
 70
64
  3
- - - - - - - - - - - - - - - - - - - -
 72
65
 73
2
 40
0.2
 49
0.1
 74
0
 49
-0.1
 74
0
  0
LTYPE
  5
1F7
100
AcDbSymbolTableRecord
100
AcDbLinetypeTableRecord
  2
PHANTOM
 70
64
  3
_____ _ _ _____ _ _ _____ _ _ _____
 72
65
 73
6
 40
0.8
 49
0.45
 74
0
 49
-0.05
 74
0
 49
0.1
 74
0
 49
-0.05
 74
0
 49
0.1
 74
0
 49
-0.05
 74
0
  0
LTYPE
  5
1F8
100
AcDbSymbolTableRecord
100
AcDbLinetypeTableRecord
  2
DOT
 70
64
  3
. . . . . . . . . . . . . . . . . . . .
 72
65
 73
2
 40
0.2
 49
0.1
 74
0
 49
-0.1
 74
0
  0
LTYPE
  5
1F9
100
AcDbSymbolTableRecord
100
AcDbLinetypeTableRecord
  2
DASHED
 70
64
  3
- - - - - - - - - - - - - - - - - - - -
 72
65
 73
2
 40
0.2
 49
0.1
 74
0
 49
-0.1
 74
0
  0
ENDTAB
  0
TABLE
  2
LAYER
  5
2
100
AcDbSymbolTable
 70
36
  0
LAYER
  5
10
100
AcDbSymbolTableRecord
100
AcDbLayerTableRecord
  2
0
 70
0
 62
7
  6
CONTINUOUS
370
-3
390
F
  0
LAYER
  5
1FA
100
AcDbSymbolTableRecord
100
AcDbLayerTableRecord
  2
DEFAULT_1
 70
0
 62
7
  6
CENTER
370
-3
390
F
  0
LAYER
  5
1FB
100
AcDbSymbolTableRecord
100
AcDbLayerTableRecord
  2
DEFAULT_2
 70
0
 62
7
  6
HIDDEN
370
-3
390
F
  0
LAYER
  5
1FC
100
AcDbSymbolTableRecord
100
AcDbLayerTableRecord
  2
DEFAULT_3
 70
0
 62
7
  6
PHANTOM
370
-3
390
F
  0
LAYER
  5
1FD
100
AcDbSymbolTableRecord
100
AcDbLayerTableRecord
  2
ASSI
 70
0
 62
7
  6
CONTINUOUS
370
-3
390
F
  0
LAYER
  5
1FE
100
AcDbSymbolTableRecord
100
AcDbLayerTableRecord
  2
COLOR17
 70
0
 62
7
  6
CONTINUOUS
370
-3
390
F
  0
LAYER
  5
1FF
100
AcDbSymbolTableRecord
100
AcDbLayerTableRecord
  2
COLOR3
 70
0
 62
7
  6
CONTINUOUS
370
-3
390
F
  0
LAYER
  5
200
100
AcDbSymbolTableRecord
100
AcDbLayerTableRecord
  2
COLOR5
 70
0
 62
7
  6
CONTINUOUS
370
-3
390
F
  0
LAYER
  5
201
100
AcDbSymbolTableRecord
100
AcDbLayerTableRecord
  2
COORDINATE
 70
0
 62
7
  6
CONTINUOUS
370
-3
390
F
  0
LAYER
  5
202
100
AcDbSymbolTableRecord
100
AcDbLayerTableRecord
  2
COORD_ORIGINE
 70
0
 62
7
  6
CONTINUOUS
370
-3
390
F
  0
LAYER
  5
203
100
AcDbSymbolTableRecord
100
AcDbLayerTableRecord
  2
COPY_PUBLISH
 70
0
 62
7
  6
CONTINUOUS
370
-3
390
F
  0
LAYER
  5
204
100
AcDbSymbolTableRecord
100
AcDbLayerTableRecord
  2
COSMETICI
 70
0
 62
7
  6
CONTINUOUS
370
-3
390
F
  0
LAYER
  5
205
100
AcDbSymbolTableRecord
100
AcDbLayerTableRecord
  2
CURVE
 70
0
 62
7
  6
CONTINUOUS
370
-3
390
F
  0
LAYER
  5
206
100
AcDbSymbolTableRecord
100
AcDbLayerTableRecord
  2
DRAFT
 70
0
 62
7
  6
CONTINUOUS
370
-3
390
F
  0
LAYER
  5
207
100
AcDbSymbolTableRecord
100
AcDbLayerTableRecord
  2
IMPORT
 70
0
 62
7
  6
CONTINUOUS
370
-3
390
F
  0
LAYER
  5
208
100
AcDbSymbolTableRecord
100
AcDbLayerTableRecord
  2
IMPORT_IGES
 70
0
 62
7
  6
CONTINUOUS
370
-3
390
F
  0
LAYER
  5
209
100
AcDbSymbolTableRecord
100
AcDbLayerTableRecord
  2
INCISIONI_LASER
 70
0
 62
7
  6
CONTINUOUS
370
-3
390
F
  0
LAYER
  5
20A
100
AcDbSymbolTableRecord
100
AcDbLayerTableRecord
  2
INTF_1
 70
0
 62
7
  6
CONTINUOUS
370
-3
390
F
  0
LAYER
  5
20B
100
AcDbSymbolTableRecord
100
AcDbLayerTableRecord
  2
INTF_11
 70
0
 62
7
  6
CONTINUOUS
370
-3
390
F
  0
LAYER
  5
20C
100
AcDbSymbolTableRecord
100
AcDbLayerTableRecord
  2
INTF_12
 70
0
 62
7
  6
CONTINUOUS
370
-3
390
F
  0
LAYER
  5
20D
100
AcDbSymbolTableRecord
100
AcDbLayerTableRecord
  2
LAY0001
 70
0
 62
7
  6
CONTINUOUS
370
-3
390
F
  0
LAYER
  5
20E
100
AcDbSymbolTableRecord
100
AcDbLayerTableRecord
  2
NOTE
 70
0
 62
7
  6
CONTINUOUS
370
-3
390
F
  0
LAYER
  5
20F
100
AcDbSymbolTableRecord
100
AcDbLayerTableRecord
  2
PIANI
 70
0
 62
7
  6
CONTINUOUS
370
-3
390
F
  0
LAYER
  5
210
100
AcDbSymbolTableRecord
100
AcDbLayerTableRecord
  2
PIANI_ORIGINE
 70
0
 62
7
  6
CONTINUOUS
370
-3
390
F
  0
LAYER
  5
211
100
AcDbSymbolTableRecord
100
AcDbLayerTableRecord
  2
PIANI_RIFERIMENTO
 70
0
 62
7
  6
CONTINUOUS
370
-3
390
F
  0
LAYER
  5
212
100
AcDbSymbolTableRecord
100
AcDbLayerTableRecord
  2
PUNTI
 70
0
 62
7
  6
CONTINUOUS
370
-3
390
F
  0
LAYER
  5
213
100
AcDbSymbolTableRecord
100
AcDbLayerTableRecord
  2
RACCORDO
 70
0
 62
7
  6
CONTINUOUS
370
-3
390
F
  0
LAYER
  5
214
100
AcDbSymbolTableRecord
100
AcDbLayerTableRecord
  2
SIMBOLI
 70
0
 62
7
  6
CONTINUOUS
370
-3
390
F
  0
LAYER
  5
215
100
AcDbSymbolTableRecord
100
AcDbLayerTableRecord
  2
SMUSSO
 70
0
 62
7
  6
CONTINUOUS
370
-3
390
F
  0
LAYER
  5
216
100
AcDbSymbolTableRecord
100
AcDbLayerTableRecord
  2
SNAPLINE
 70
0
 62
7
  6
CONTINUOUS
370
-3
390
F
  0
LAYER
  5
217
100
AcDbSymbolTableRecord
100
AcDbLayerTableRecord
  2
SUPERFICI
 70
0
 62
7
  6
CONTINUOUS
370
-3
390
F
  0
LAYER
  5
218
100
AcDbSymbolTableRecord
100
AcDbLayerTableRecord
  2
TRASH
 70
0
 62
7
  6
CONTINUOUS
370
-3
390
F
  0
LAYER
  5
219
100
AcDbSymbolTableRecord
100
AcDbLayerTableRecord
  2
XSEC_DATUMS
 70
0
 62
7
  6
CONTINUOUS
370
-3
390
F
  0
LAYER
  5
21A
100
AcDbSymbolTableRecord
100
AcDbLayerTableRecord
  2
___SHELL
 70
0
 62
7
  6
CONTINUOUS
370
-3
390
F
  0
ENDTAB
  0
TABLE
  2
STYLE
  5
3
100
AcDbSymbolTable
 70
1
  0
STYLE
  5
11
100
AcDbSymbolTableRecord
100
AcDbTextStyleTableRecord
  2
STANDARD
 70
0
 40
0.0
 41
0.8
 50
0.0
 71
0
 42
0.2
  3
txt
  4

  0
STYLE
  5
21B
100
AcDbSymbolTableRecord
100
AcDbTextStyleTableRecord
  2
TEXTSTYLE_1
 70
0
 40
0.0
 41
0.8
 50
0.0
 71
0
 42
0.2
  3
gdt
  4

  0
ENDTAB
  0
TABLE
  2
VIEW
  5
6
100
AcDbSymbolTable
 70
0
  0
ENDTAB
  0
TABLE
  2
UCS
  5
7
100
AcDbSymbolTable
 70
0
  0
ENDTAB
  0
TABLE
  2
APPID
  5
9
100
AcDbSymbolTable
 70
1
  0
APPID
  5
21C
100
AcDbSymbolTableRecord
100
AcDbRegAppTableRecord
  2
ACAD
 70
0
  0
ENDTAB
  0
TABLE
  2
BLOCK_RECORD
  5
1
100
AcDbSymbolTable
 70
0
  0
BLOCK_RECORD
  5
21D
100
AcDbSymbolTableRecord
100
AcDbBlockTableRecord
  2
*Model_Space
  0
BLOCK_RECORD
  5
21E
100
AcDbSymbolTableRecord
100
AcDbBlockTableRecord
  2
*Paper_Space
  0
BLOCK_RECORD
  5
21F
100
AcDbSymbolTableRecord
100
AcDbBlockTableRecord
  2
_FILLED
  0
BLOCK_RECORD
  5
220
100
AcDbSymbolTableRecord
100
AcDbBlockTableRecord
  2
*D0
  0
BLOCK_RECORD
  5
221
100
AcDbSymbolTableRecord
100
AcDbBlockTableRecord
  2
*D1
  0
BLOCK_RECORD
  5
222
100
AcDbSymbolTableRecord
100
AcDbBlockTableRecord
  2
*D2
  0
BLOCK_RECORD
  5
223
100
AcDbSymbolTableRecord
100
AcDbBlockTableRecord
  2
*D3
  0
ENDTAB
  0
TABLE
  2
DIMSTYLE
  5
A
100
AcDbSymbolTable
 70
1
100
AcDbDimStyleTable
 71
0
  0
DIMSTYLE
105
224
100
AcDbSymbolTableRecord
100
AcDbDimStyleTableRecord
  2
STANDARD
 70
0
  3

  4

 40
1.0
 41
3.0
 42
0.5
 43
0.38
 44
1.5
 45
0.0
 46
0.0
 47
0.01
 48
0.01
140
3.0
141
0.0
142
0.0
143
25.4
144
1.0
145
0.0
146
1.0
147
0.625
 71
1
 72
0
 73
0
 74
0
 75
0
 76
0
 77
1
 78
8
 79
2
170
0
171
1
172
0
173
0
174
0
175
0
176
0
177
0
178
0
270
2
179
1
271
2
272
2
273
2
274
2
275
0
280
0
281
0
282
0
283
1
284
8
285
0
286
0
287
3
288
0
340
11
278
44
341
21F
342
21F
343
21F
344
21F
  0
DIMSTYLE
105
225
100
AcDbSymbolTableRecord
100
AcDbDimStyleTableRecord
  2
DIMSTYLE_1
 70
0
  3

  4

 40
1.0
 41
3.0
 42
0.5
 43
0.38
 44
1.5
 45
0.0
 46
0.0
 47
0.0
 48
0.0
140
3.0
141
0.0
142
0.0
143
25.4
144
1.0
145
0.0
146
1.0
147
0.75
 71
0
 72
0
 73
0
 74
0
 75
0
 76
0
 77
1
 78
8
 79
2
170
0
171
1
172
0
173
0
174
0
175
0
176
0
177
0
178
0
270
2
179
1
271
1
272
2
273
2
274
2
275
0
280
0
281
0
282
0
283
1
284
8
285
0
286
0
287
3
288
0
340
11
278
44
341
21F
342
21F
343
21F
344
21F
  0
DIMSTYLE
105
226
100
AcDbSymbolTableRecord
100
AcDbDimStyleTableRecord
  2
DIMSTYLE_2
 70
0
  3

  4

 40
1.0
 41
3.0
 42
0.5
 43
0.38
 44
1.5
 45
0.0
 46
0.0
 47
0.0
 48
0.0
140
3.0
141
0.0
142
0.0
143
25.4
144
1.0
145
0.0
146
1.0
147
0.75
 71
0
 72
0
 73
0
 74
0
 75
0
 76
0
 77
1
 78
8
 79
2
170
0
171
1
172
0
173
0
174
0
175
0
176
0
177
0
178
0
270
2
179
2
271
2
272
2
273
2
274
2
275
0
280
0
281
0
282
0
283
1
284
8
285
0
286
0
287
3
288
0
340
11
278
44
341
21F
342
21F
343
21F
344
21F
  0
ENDTAB
  0
ENDSEC
  0
SECTION
  2
BLOCKS
  0
BLOCK
  5
20
100
AcDbEntity
  8
0
100
AcDbBlockBegin
  2
*Model_Space
 70
0
 10
0.0
 20
0.0
 30
0.0
  3
*Model_Space
  1

  0
ENDBLK
  5
21
100
AcDbEntity
  8
0
100
AcDbBlockEnd
  0
BLOCK
  5
1C
100
AcDbEntity
  8
0
100
AcDbBlockBegin
  2
*Paper_Space
 70
0
 10
0.0
 20
0.0
 30
0.0
  3
*Paper_Space
  1

  0
ENDBLK
  5
1D
100
AcDbEntity
  8
0
100
AcDbBlockEnd
  0
BLOCK
  5
227
100
AcDbEntity
  8
0
100
AcDbBlockBegin
  2
_FILLED
 70
64
 10
0.0
 20
0.0
 30
0.0
  3
_FILLED
  1

  0
SOLID
  5
228
100
AcDbEntity
  8
0
  6
BYBLOCK
 62
0
100
AcDbTrace
 10
0.0
 20
0.0
 30
0.0
 11
-1.0
 21
0.3166666667
 31
0.0
 12
-1.0
 22
-0.3166666667
 32
0.0
 13
-1.0
 23
-0.3166666667
 33
0.0
  0
ENDBLK
  5
229
100
AcDbEntity
  8
0
  6
BYBLOCK
 62
0
100
AcDbBlockEnd
  0
BLOCK
  5
22A
100
AcDbEntity
  8
0
100
AcDbBlockBegin
 62
7
  6
CONTINUOUS
  2
*D0
 70
65
 10
0.0
 20
0.0
 30
0.0
  3
*D0
  1

  0
MTEXT
  5
22B
100
AcDbEntity
  8
0
100
AcDbMText
 62
7
  6
CONTINUOUS
  7
STANDARD
 71
2
 72
1
 10
-0.675
 20
36.25
 30
0.0
 11
1.0
 21
0.0
 31
0.0
 73
2
 44
0.9
  1
{\ftxt;\W0.0001;\H0.0001;\~}{\ftxt;\W2.8571428571;\H3.0; }{\ftxt;\W0.0001;\H0.0001;\~}
 40
3.0
 41
12.8571428571
  0
LINE
  5
22C
100
AcDbEntity
  8
0
100
AcDbLine
 62
7
  6
CONTINUOUS
 10
-11.825
 20
22.5050550302
 30
0.0
 11
-11.825
 21
34.0
 31
0.0
  0
LINE
  5
22D
100
AcDbEntity
  8
0
100
AcDbLine
 62
7
  6
CONTINUOUS
 10
10.475
 20
22.5050550302
 30
0.0
 11
10.475
 21
34.0
 31
0.0
  0
LINE
  5
22E
100
AcDbEntity
  8
0
100
AcDbLine
 62
7
  6
CONTINUOUS
 10
-11.825
 20
32.5
 30
0.0
 11
-0.675
 21
32.5
 31
0.0
  0
LINE
  5
22F
100
AcDbEntity
  8
0
100
AcDbLine
 62
7
  6
CONTINUOUS
 10
10.475
 20
32.5
 30
0.0
 11
-0.675
 21
32.5
 31
0.0
  0
INSERT
  5
230
100
AcDbEntity
  8
0
100
AcDbBlockReference
 62
7
  6
CONTINUOUS
  2
_FILLED
 10
-11.825
 20
32.5
 30
0.0
 41
3.0
 42
3.0
 43
3.0
 50
180.0
  0
INSERT
  5
231
100
AcDbEntity
  8
0
100
AcDbBlockReference
 62
7
  6
CONTINUOUS
  2
_FILLED
 10
10.475
 20
32.5
 30
0.0
 41
3.0
 42
3.0
 43
3.0
  0
ENDBLK
  5
232
100
AcDbEntity
  8
0
  6
BYBLOCK
 62
0
100
AcDbBlockEnd
  0
BLOCK
  5
233
100
AcDbEntity
  8
0
100
AcDbBlockBegin
 62
7
  6
CONTINUOUS
  2
*D1
 70
65
 10
0.0
 20
0.0
 30
0.0
  3
*D1
  1

  0
MTEXT
  5
234
100
AcDbEntity
  8
0
100
AcDbMText
 62
7
  6
CONTINUOUS
  7
STANDARD
 71
2
 72
1
 10
-59.0145173042
 20
46.25
 30
0.0
 11
1.0
 21
0.0
 31
0.0
 73
2
 44
0.9
  1
{\ftxt;\W0.0001;\H0.0001;\~}{\ftxt;\W2.8571428571;\H3.0; }{\ftxt;\W0.0001;\H0.0001;\~}
 40
3.0
 41
12.8571428571
  0
LINE
  5
235
100
AcDbEntity
  8
0
100
AcDbLine
 62
7
  6
CONTINUOUS
 10
-78.9145173042
 20
0.5
 30
0.0
 11
-78.9145173042
 21
44.0
 31
0.0
  0
LINE
  5
236
100
AcDbEntity
  8
0
100
AcDbLine
 62
7
  6
CONTINUOUS
 10
-39.1145173042
 20
-2.145
 30
0.0
 11
-39.1145173042
 21
44.0
 31
0.0
  0
LINE
  5
237
100
AcDbEntity
  8
0
100
AcDbLine
 62
7
  6
CONTINUOUS
 10
-78.9145173042
 20
42.5
 30
0.0
 11
-59.0145173042
 21
42.5
 31
0.0
  0
LINE
  5
238
100
AcDbEntity
  8
0
100
AcDbLine
 62
7
  6
CONTINUOUS
 10
-39.1145173042
 20
42.5
 30
0.0
 11
-59.0145173042
 21
42.5
 31
0.0
  0
INSERT
  5
239
100
AcDbEntity
  8
0
100
AcDbBlockReference
 62
7
  6
CONTINUOUS
  2
_FILLED
 10
-78.9145173042
 20
42.5
 30
0.0
 41
3.0
 42
3.0
 43
3.0
 50
180.0
  0
INSERT
  5
23A
100
AcDbEntity
  8
0
100
AcDbBlockReference
 62
7
  6
CONTINUOUS
  2
_FILLED
 10
-39.1145173042
 20
42.5
 30
0.0
 41
3.0
 42
3.0
 43
3.0
  0
ENDBLK
  5
23B
100
AcDbEntity
  8
0
  6
BYBLOCK
 62
0
100
AcDbBlockEnd
  0
BLOCK
  5
23C
100
AcDbEntity
  8
0
100
AcDbBlockBegin
 62
7
  6
CONTINUOUS
  2
*D2
 70
65
 10
0.0
 20
0.0
 30
0.0
  3
*D2
  1

  0
MTEXT
  5
23D
100
AcDbEntity
  8
0
100
AcDbMText
 62
7
  6
CONTINUOUS
  7
STANDARD
 71
2
 72
1
 10
-53.7645173042
 20
36.25
 30
0.0
 11
1.0
 21
0.0
 31
0.0
 73
2
 44
0.9
  1
{\ftxt;\W0.0001;\H0.0001;\~}{\ftxt;\W2.8571428571;\H3.0; }{\ftxt;\W0.0001;\H0.0001;\~}
 40
3.0
 41
12.8571428571
  0
LINE
  5
23E
100
AcDbEntity
  8
0
100
AcDbLine
 62
7
  6
CONTINUOUS
 10
-39.1145173042
 20
0.955
 30
0.0
 11
-39.1145173042
 21
34.0
 31
0.0
  0
LINE
  5
23F
100
AcDbEntity
  8
0
100
AcDbLine
 62
7
  6
CONTINUOUS
 10
-68.4145173042
 20
24.7456323968
 30
0.0
 11
-68.4145173042
 21
34.0
 31
0.0
  0
LINE
  5
240
100
AcDbEntity
  8
0
100
AcDbLine
 62
7
  6
CONTINUOUS
 10
-39.1145173042
 20
32.5
 30
0.0
 11
-53.7645173042
 21
32.5
 31
0.0
  0
LINE
  5
241
100
AcDbEntity
  8
0
100
AcDbLine
 62
7
  6
CONTINUOUS
 10
-68.4145173042
 20
32.5
 30
0.0
 11
-53.7645173042
 21
32.5
 31
0.0
  0
INSERT
  5
242
100
AcDbEntity
  8
0
100
AcDbBlockReference
 62
7
  6
CONTINUOUS
  2
_FILLED
 10
-39.1145173042
 20
32.5
 30
0.0
 41
3.0
 42
3.0
 43
3.0
  0
INSERT
  5
243
100
AcDbEntity
  8
0
100
AcDbBlockReference
 62
7
  6
CONTINUOUS
  2
_FILLED
 10
-68.4145173042
 20
32.5
 30
0.0
 41
3.0
 42
3.0
 43
3.0
 50
180.0
  0
ENDBLK
  5
244
100
AcDbEntity
  8
0
  6
BYBLOCK
 62
0
100
AcDbBlockEnd
  0
BLOCK
  5
245
100
AcDbEntity
  8
0
100
AcDbBlockBegin
 62
7
  6
CONTINUOUS
  2
*D3
 70
65
 10
0.0
 20
0.0
 30
0.0
  3
*D3
  1

  0
MTEXT
  5
246
100
AcDbEntity
  8
0
100
AcDbMText
 62
7
  6
CONTINUOUS
  7
STANDARD
 71
2
 72
1
 10
16.075
 20
0.0
 30
0.0
 11
0.0
 21
1.0
 31
0.0
 73
2
 44
0.9
  1
{\ftxt;\W0.0001;\H0.0001;\~}{\ftxt;\W1.5714285714;\H3.0; }{\ftxt;\W0.0001;\H0.0001;\~}
 40
3.0
 41
7.0714285714
  0
LINE
  5
247
100
AcDbEntity
  8
0
100
AcDbLine
 62
7
  6
CONTINUOUS
 10
10.2250042308
 20
-24.5
 30
0.0
 11
21.325
 21
-24.5
 31
0.0
  0
LINE
  5
248
100
AcDbEntity
  8
0
100
AcDbLine
 62
7
  6
CONTINUOUS
 10
8.3249957692
 20
24.5
 30
0.0
 11
21.325
 21
24.5
 31
0.0
  0
LINE
  5
249
100
AcDbEntity
  8
0
100
AcDbLine
 62
7
  6
CONTINUOUS
 10
19.825
 20
-24.5
 30
0.0
 11
19.825
 21
0.0
 31
0.0
  0
LINE
  5
24A
100
AcDbEntity
  8
0
100
AcDbLine
 62
7
  6
CONTINUOUS
 10
19.825
 20
24.5
 30
0.0
 11
19.825
 21
0.0
 31
0.0
  0
INSERT
  5
24B
100
AcDbEntity
  8
0
100
AcDbBlockReference
 62
7
  6
CONTINUOUS
  2
_FILLED
 10
19.825
 20
-24.5
 30
0.0
 41
3.0
 42
3.0
 43
3.0
 50
270.0
  0
INSERT
  5
24C
100
AcDbEntity
  8
0
100
AcDbBlockReference
 62
7
  6
CONTINUOUS
  2
_FILLED
 10
19.825
 20
24.5
 30
0.0
 41
3.0
 42
3.0
 43
3.0
 50
90.0
  0
ENDBLK
  5
24D
100
AcDbEntity
  8
0
  6
BYBLOCK
 62
0
100
AcDbBlockEnd
  0
ENDSEC
  0
SECTION
  2
ENTITIES
  0
DIMENSION
  5
24E
100
AcDbEntity
  8
0
100
AcDbDimension
 62
7
  6
CONTINUOUS
  2
*D0
 10
10.475
 20
32.5
 30
0.0
 11
-1.1035714417
 21
32.5
 31
0.0
 70
160
 71
2
 72
2
 41
0.9
 42
22.3
  1
{\ftxt;\W0.0001;\H0.0001;\~}{\ftxt;\W2.8571428571;\H3.0; }{\ftxt;\W0.0001;\H0.0001;\~}
  3
DIMSTYLE_1
100
AcDbAlignedDimension
 13
-11.825
 23
22.0050550302
 33
0.0
 14
10.475
 24
22.0050550302
 34
0.0
100
AcDbRotatedDimension
  0
DIMENSION
  5
24F
100
AcDbEntity
  8
0
100
AcDbDimension
 62
7
  6
CONTINUOUS
  2
*D1
 10
-39.1145173042
 20
42.5
 30
0.0
 11
-59.4430889282
 21
42.5
 31
0.0
 70
160
 71
2
 72
2
 41
0.9
 42
39.8
  1
{\ftxt;\W0.0001;\H0.0001;\~}{\ftxt;\W2.8571428571;\H3.0; }{\ftxt;\W0.0001;\H0.0001;\~}
  3
DIMSTYLE_2
100
AcDbAlignedDimension
 13
-78.9145173042
 23
0.0
 33
0.0
 14
-39.1145173042
 24
-2.645
 34
0.0
100
AcDbRotatedDimension
  0
DIMENSION
  5
250
100
AcDbEntity
  8
0
100
AcDbDimension
 62
7
  6
CONTINUOUS
  2
*D2
 10
-68.4145173042
 20
32.5
 30
0.0
 11
-54.193087326
 21
32.5
 31
0.0
 70
160
 71
2
 72
2
 41
0.9
 42
29.3
  1
{\ftxt;\W0.0001;\H0.0001;\~}{\ftxt;\W2.8571428571;\H3.0; }{\ftxt;\W0.0001;\H0.0001;\~}
  3
DIMSTYLE_2
100
AcDbAlignedDimension
 13
-39.1145173042
 23
0.455
 33
0.0
 14
-68.4145173042
 24
24.2456323968
 34
0.0
 50
180.0
100
AcDbRotatedDimension
  0
DIMENSION
  5
251
100
AcDbEntity
  8
0
100
AcDbDimension
 62
7
  6
CONTINUOUS
  2
*D3
 10
19.825
 20
24.5
 30
0.0
 11
19.825
 21
-0.4285721403
 31
0.0
 70
160
 71
2
 72
2
 41
0.9
 42
49.0
  1
{\ftxt;\W0.0001;\H0.0001;\~}{\ftxt;\W1.5714285714;\H3.0; }{\ftxt;\W0.0001;\H0.0001;\~}
  3
DIMSTYLE_2
100
AcDbAlignedDimension
 13
9.7250042308
 23
-24.5
 33
0.0
 14
7.8249957692
 24
24.5
 34
0.0
 50
90.0
100
AcDbRotatedDimension
  0
LWPOLYLINE
  5
252
100
AcDbEntity
  8
0
100
AcDbPolyline
 62
7
  6
CONTINUOUS
 90
5
 70
0
 43
0.3500000006
 10
2.3250000014
 20
34.9642857056
 10
2.682142745
 20
35.1785701904
 10
2.682142745
 20
35.8214281769
 10
2.3250000014
 20
36.2500016785
 10
1.4678571053
 20
36.2500016785
  0
LINE
  5
253
100
AcDbEntity
  8
RACCORDO
100
AcDbLine
 62
250
  6
CONTINUOUS
 10
-9.1749957692
 20
24.5
 30
0.0
 11
-9.1880943479
 21
24.4869014213
 31
0.0
  0
LINE
  5
254
100
AcDbEntity
  8
RACCORDO
100
AcDbLine
 62
250
  6
CONTINUOUS
 10
-8.925
 20
24.2500042308
 30
0.0
 11
-8.9380985787
 21
24.2369056521
 31
0.0
  0
LINE
  5
255
100
AcDbEntity
  8
RACCORDO
100
AcDbLine
 62
7
  6
CONTINUOUS
 10
-11.5310144094
 20
22.3472251339
 30
0.0
 11
-11.548517002
 21
22.3384745041
 31
0.0
  0
LINE
  5
256
100
AcDbEntity
  8
RACCORDO
100
AcDbLine
 62
250
  6
CONTINUOUS
 10
-11.8075830976
 20
21.8998857286
 30
0.0
 11
-11.825
 21
21.8911779406
 31
0.0
  0
LINE
  5
257
100
AcDbEntity
  8
RACCORDO
100
AcDbLine
 62
7
  6
CONTINUOUS
 10
9.7250042308
 20
-24.5
 30
0.0
 11
7.8249957692
 21
-24.5
 31
0.0
  0
LINE
  5
258
100
AcDbEntity
  8
RACCORDO
100
AcDbLine
 62
7
  6
CONTINUOUS
 10
-9.1749957692
 20
-24.5
 30
0.0
 11
-11.0750042308
 21
-24.5
 31
0.0
  0
LINE
  5
259
100
AcDbEntity
  8
RACCORDO
100
AcDbLine
 62
250
  6
CONTINUOUS
 10
-11.0619056521
 20
-24.4869014213
 30
0.0
 11
-9.1880943479
 21
-24.4869014213
 31
0.0
  0
LINE
  5
25A
100
AcDbEntity
  8
RACCORDO
100
AcDbLine
 62
250
  6
CONTINUOUS
 10
7.8380943479
 20
-24.4869014213
 30
0.0
 11
9.7119056521
 21
-24.4869014213
 31
0.0
  0
LINE
  5
25B
100
AcDbEntity
  8
RACCORDO
100
AcDbLine
 62
250
  6
CONTINUOUS
 10
7.5880985787
 20
-24.2369056521
 30
0.0
 11
9.9619014213
 21
-24.2369056521
 31
0.0
  0
LINE
  5
25C
100
AcDbEntity
  8
RACCORDO
100
AcDbLine
 62
250
  6
CONTINUOUS
 10
-8.9380985787
 20
-24.2369056521
 30
0.0
 11
-11.3119014213
 21
-24.2369056521
 31
0.0
  0
LINE
  5
25D
100
AcDbEntity
  8
RACCORDO
100
AcDbLine
 62
250
  6
CONTINUOUS
 10
7.5880985787
 20
-23.8443375673
 30
0.0
 11
9.9619014213
 21
-23.8443375673
 31
0.0
  0
LINE
  5
25E
100
AcDbEntity
  8
RACCORDO
100
AcDbLine
 62
250
  6
CONTINUOUS
 10
-8.9380985787
 20
-23.8443375673
 30
0.0
 11
-11.3119014213
 21
-23.8443375673
 31
0.0
  0
LINE
  5
25F
100
AcDbEntity
  8
DRAFT
100
AcDbLine
 62
7
  6
CONTINUOUS
 10
3.725
 20
-23.8
 30
0.0
 11
-5.075
 21
-23.8
 31
0.0
  0
LINE
  5
260
100
AcDbEntity
  8
RACCORDO
100
AcDbLine
 62
250
  6
CONTINUOUS
 10
-4.9712073137
 20
-23.7953389668
 30
0.0
 11
3.6212073137
 21
-23.7953389668
 31
0.0
  0
LINE
  5
261
100
AcDbEntity
  8
RACCORDO
100
AcDbLine
 62
250
  6
CONTINUOUS
 10
9.7119056521
 20
-23.6278312164
 30
0.0
 11
7.8380943479
 21
-23.6278312164
 31
0.0
  0
LINE
  5
262
100
AcDbEntity
  8
RACCORDO
100
AcDbLine
 62
250
  6
CONTINUOUS
 10
-9.1880943479
 20
-23.6278312164
 30
0.0
 11
-11.0619056521
 21
-23.6278312164
 31
0.0
  0
LINE
  5
263
100
AcDbEntity
  8
RACCORDO
100
AcDbLine
 62
250
  6
CONTINUOUS
 10
-4.5720826234
 20
-23.5953423515
 30
0.0
 11
3.2220826234
 21
-23.5953423515
 31
0.0
  0
LINE
  5
264
100
AcDbEntity
  8
RACCORDO
100
AcDbLine
 62
7
  6
CONTINUOUS
 10
-11.548517002
 20
-22.3384745041
 30
0.0
 11
-11.5310144094
 21
-22.3472251339
 31
0.0
  0
LINE
  5
265
100
AcDbEntity
  8
RACCORDO
100
AcDbLine
 62
250
  6
CONTINUOUS
 10
-11.825
 20
-21.8911779406
 30
0.0
 11
-11.8075830976
 21
-21.8998857286
 31
0.0
  0
LINE
  5
266
100
AcDbEntity
  8
RACCORDO
100
AcDbLine
 62
250
  6
CONTINUOUS
 10
-9.1749957692
 20
-24.5
 30
0.0
 11
-9.1880943479
 21
-24.4869014213
 31
0.0
  0
LINE
  5
267
100
AcDbEntity
  8
RACCORDO
100
AcDbLine
 62
250
  6
CONTINUOUS
 10
-8.925
 20
-24.2500042308
 30
0.0
 11
-8.9380985787
 21
-24.2369056521
 31
0.0
  0
LINE
  5
268
100
AcDbEntity
  8
RACCORDO
100
AcDbLine
 62
7
  6
CONTINUOUS
 10
-11.0669962532
 20
-23.1226497308
 30
0.0
 11
-9.1830037468
 21
-23.1226497308
 31
0.0
  0
LINE
  5
269
100
AcDbEntity
  8
RACCORDO
100
AcDbLine
 62
7
  6
CONTINUOUS
 10
7.8330037468
 20
-23.1226497308
 30
0.0
 11
9.7169962532
 21
-23.1226497308
 31
0.0
  0
LINE
  5
26A
100
AcDbEntity
  8
DRAFT
100
AcDbLine
 62
7
  6
CONTINUOUS
 10
7.575
 20
-22.4
 30
0.0
 11
3.725
 21
-22.4
 31
0.0
  0
LINE
  5
26B
100
AcDbEntity
  8
DRAFT
100
AcDbLine
 62
7
  6
CONTINUOUS
 10
-5.075
 20
-22.4
 30
0.0
 11
-8.925
 21
-22.4
 31
0.0
  0
LINE
  5
26C
100
AcDbEntity
  8
RACCORDO
100
AcDbLine
 62
7
  6
CONTINUOUS
 10
3.2220826234
 20
-22.3475922207
 30
0.0
 11
-4.5720826234
 21
-22.3475922207
 31
0.0
  0
LINE
  5
26D
100
AcDbEntity
  8
RACCORDO
100
AcDbLine
 62
7
  6
CONTINUOUS
 10
-11.0677234819
 20
-22.3213883311
 30
0.0
 11
-9.1822765181
 21
-22.3213883311
 31
0.0
  0
LINE
  5
26E
100
AcDbEntity
  8
RACCORDO
100
AcDbLine
 62
7
  6
CONTINUOUS
 10
7.8322765181
 20
-22.3213883311
 30
0.0
 11
9.7177234819
 21
-22.3213883311
 31
0.0
  0
LINE
  5
26F
100
AcDbEntity
  8
RACCORDO
100
AcDbLine
 62
250
  6
CONTINUOUS
 10
-11.1742759622
 20
-21.998725222
 30
0.0
 11
9.8242759622
 21
-21.998725222
 31
0.0
  0
LINE
  5
270
100
AcDbEntity
  8
RACCORDO
100
AcDbLine
 62
250
  6
CONTINUOUS
 10
-11.1577491915
 20
-20.5624683248
 30
0.0
 11
9.8077491915
 21
-20.5624683248
 31
0.0
  0
LINE
  5
271
100
AcDbEntity
  8
RACCORDO
100
AcDbLine
 62
7
  6
CONTINUOUS
 10
3.7220741618
 20
23.7970741618
 30
0.0
 11
3.725
 21
23.8
 31
0.0
  0
LINE
  5
272
100
AcDbEntity
  8
RACCORDO
100
AcDbLine
 62
7
  6
CONTINUOUS
 10
3.7220741618
 20
-23.7970741618
 30
0.0
 11
3.725
 21
-23.8
 31
0.0
  0
LINE
  5
273
100
AcDbEntity
  8
RACCORDO
100
AcDbLine
 62
250
  6
CONTINUOUS
 10
-11.3119014213
 20
-23.8443375673
 30
0.0
 11
-11.3177192511
 21
-23.2669872981
 31
0.0
  0
LINE
  5
274
100
AcDbEntity
  8
RACCORDO
100
AcDbLine
 62
250
  6
CONTINUOUS
 10
-11.0619056521
 20
-23.6278312164
 30
0.0
 11
-11.0669962532
 21
-23.1226497308
 31
0.0
  0
LINE
  5
275
100
AcDbEntity
  8
RACCORDO
100
AcDbLine
 62
7
  6
CONTINUOUS
 10
-11.825
 20
21.8911779406
 30
0.0
 11
-11.825
 21
-21.8911779406
 31
0.0
  0
LINE
  5
276
100
AcDbEntity
  8
RACCORDO
100
AcDbLine
 62
7
  6
CONTINUOUS
 10
-11.325
 20
-22.399689968
 30
0.0
 11
-11.325
 21
-24.2500042308
 31
0.0
  0
LINE
  5
277
100
AcDbEntity
  8
RACCORDO
100
AcDbLine
 62
7
  6
CONTINUOUS
 10
-11.325
 20
22.399689968
 30
0.0
 11
-11.325
 21
24.2500042308
 31
0.0
  0
LINE
  5
278
100
AcDbEntity
  8
RACCORDO
100
AcDbLine
 62
250
  6
CONTINUOUS
 10
-11.3177192511
 20
23.2669872981
 30
0.0
 11
-11.3177192511
 21
22.3334109614
 31
0.0
  0
LINE
  5
279
100
AcDbEntity
  8
RACCORDO
100
AcDbLine
 62
250
  6
CONTINUOUS
 10
-11.3177192511
 20
-22.3334109614
 30
0.0
 11
-11.3177192511
 21
-23.2669872981
 31
0.0
  0
LINE
  5
27A
100
AcDbEntity
  8
RACCORDO
100
AcDbLine
 62
250
  6
CONTINUOUS
 10
-11.3119014213
 20
24.2369056521
 30
0.0
 11
-11.3119014213
 21
23.8443375673
 31
0.0
  0
LINE
  5
27B
100
AcDbEntity
  8
RACCORDO
100
AcDbLine
 62
250
  6
CONTINUOUS
 10
-11.3119014213
 20
-23.8443375673
 30
0.0
 11
-11.3119014213
 21
-24.2369056521
 31
0.0
  0
LINE
  5
27C
100
AcDbEntity
  8
RACCORDO
100
AcDbLine
 62
250
  6
CONTINUOUS
 10
-11.0677234819
 20
23.1226497308
 30
0.0
 11
-11.0677234819
 21
22.3213883311
 31
0.0
  0
LINE
  5
27D
100
AcDbEntity
  8
RACCORDO
100
AcDbLine
 62
250
  6
CONTINUOUS
 10
-11.0677234819
 20
-22.3213883311
 30
0.0
 11
-11.0677234819
 21
-23.1226497308
 31
0.0
  0
LINE
  5
27E
100
AcDbEntity
  8
RACCORDO
100
AcDbLine
 62
250
  6
CONTINUOUS
 10
-11.0619056521
 20
-23.6278312164
 30
0.0
 11
-11.0619056521
 21
-24.4869014213
 31
0.0
  0
LINE
  5
27F
100
AcDbEntity
  8
RACCORDO
100
AcDbLine
 62
250
  6
CONTINUOUS
 10
-11.0619056521
 20
23.6278312164
 30
0.0
 11
-11.0619056521
 21
24.4869014213
 31
0.0
  0
LINE
  5
280
100
AcDbEntity
  8
RACCORDO
100
AcDbLine
 62
250
  6
CONTINUOUS
 10
-11.3177192511
 20
23.2669872981
 30
0.0
 11
-11.3119014213
 21
23.8443375673
 31
0.0
  0
LINE
  5
281
100
AcDbEntity
  8
RACCORDO
100
AcDbLine
 62
250
  6
CONTINUOUS
 10
-11.0669962532
 20
23.1226497308
 30
0.0
 11
-11.0619056521
 21
23.6278312164
 31
0.0
  0
LINE
  5
282
100
AcDbEntity
  8
RACCORDO
100
AcDbLine
 62
7
  6
CONTINUOUS
 10
-8.925
 20
22.4
 30
0.0
 11
-8.9322807489
 21
22.3344140523
 31
0.0
  0
LINE
  5
283
100
AcDbEntity
  8
RACCORDO
100
AcDbLine
 62
7
  6
CONTINUOUS
 10
-8.925
 20
-22.4
 30
0.0
 11
-8.9322807489
 21
-22.3344140523
 31
0.0
  0
LINE
  5
284
100
AcDbEntity
  8
RACCORDO
100
AcDbLine
 62
250
  6
CONTINUOUS
 10
-9.1880943479
 20
23.6278312164
 30
0.0
 11
-9.1830037468
 21
23.1226497308
 31
0.0
  0
LINE
  5
285
100
AcDbEntity
  8
ASSI
100
AcDbLine
 62
7
  6
CONTINUOUS
 10
-10.175
 20
15.6
 30
0.0
 11
-10.175
 21
22.1379611036
 31
0.0
  0
LINE
  5
286
100
AcDbEntity
  8
RACCORDO
100
AcDbLine
 62
7
  6
CONTINUOUS
 10
-10.125
 20
15.85
 30
0.0
 11
-10.125
 21
21.9496569135
 31
0.0
  0
LINE
  5
287
100
AcDbEntity
  8
RACCORDO
100
AcDbLine
 62
250
  6
CONTINUOUS
 10
-9.875
 20
15.7031206241
 30
0.0
 11
-9.875
 21
22.2
 31
0.0
  0
LINE
  5
288
100
AcDbEntity
  8
RACCORDO
100
AcDbLine
 62
250
  6
CONTINUOUS
 10
-9.1880943479
 20
-23.6278312164
 30
0.0
 11
-9.1880943479
 21
-24.4869014213
 31
0.0
  0
LINE
  5
289
100
AcDbEntity
  8
RACCORDO
100
AcDbLine
 62
250
  6
CONTINUOUS
 10
-9.1880943479
 20
23.6278312164
 30
0.0
 11
-9.1880943479
 21
24.4869014213
 31
0.0
  0
LINE
  5
28A
100
AcDbEntity
  8
RACCORDO
100
AcDbLine
 62
250
  6
CONTINUOUS
 10
-9.1822765181
 20
23.1226497308
 30
0.0
 11
-9.1822765181
 21
22.3213883311
 31
0.0
  0
LINE
  5
28B
100
AcDbEntity
  8
RACCORDO
100
AcDbLine
 62
250
  6
CONTINUOUS
 10
-9.1822765181
 20
-22.3213883311
 30
0.0
 11
-9.1822765181
 21
-23.1226497308
 31
0.0
  0
LINE
  5
28C
100
AcDbEntity
  8
RACCORDO
100
AcDbLine
 62
250
  6
CONTINUOUS
 10
-8.9380985787
 20
-24.2369056521
 30
0.0
 11
-8.9380985787
 21
-23.8443375673
 31
0.0
  0
LINE
  5
28D
100
AcDbEntity
  8
RACCORDO
100
AcDbLine
 62
250
  6
CONTINUOUS
 10
-8.9380985787
 20
23.8443375673
 30
0.0
 11
-8.9380985787
 21
24.2369056521
 31
0.0
  0
LINE
  5
28E
100
AcDbEntity
  8
RACCORDO
100
AcDbLine
 62
250
  6
CONTINUOUS
 10
-8.9322807489
 20
23.2669872981
 30
0.0
 11
-8.9322807489
 21
22.3344140523
 31
0.0
  0
LINE
  5
28F
100
AcDbEntity
  8
RACCORDO
100
AcDbLine
 62
250
  6
CONTINUOUS
 10
-8.9322807489
 20
-22.3344140523
 30
0.0
 11
-8.9322807489
 21
-23.2669872981
 31
0.0
  0
LINE
  5
290
100
AcDbEntity
  8
RACCORDO
100
AcDbLine
 62
7
  6
CONTINUOUS
 10
-8.925
 20
-22.4
 30
0.0
 11
-8.925
 21
-24.2500042308
 31
0.0
  0
LINE
  5
291
100
AcDbEntity
  8
RACCORDO
100
AcDbLine
 62
7
  6
CONTINUOUS
 10
-8.925
 20
22.4
 30
0.0
 11
-8.925
 21
24.2500042308
 31
0.0
  0
LINE
  5
292
100
AcDbEntity
  8
RACCORDO
100
AcDbLine
 62
250
  6
CONTINUOUS
 10
-9.1830037468
 20
-23.1226497308
 30
0.0
 11
-9.1880943479
 21
-23.6278312164
 31
0.0
  0
LWPOLYLINE
  5
293
100
AcDbEntity
  8
0
100
AcDbPolyline
 62
7
  6
CONTINUOUS
 90
3
 70
0
 43
0.3500000006
 10
0.4678571541
 20
33.5357164307
 10
0.3964285558
 20
33.3214274139
 10
0.2535714301
 20
33.0357162781
  0
LINE
  5
294
100
AcDbEntity
  8
RACCORDO
100
AcDbLine
 62
250
  6
CONTINUOUS
 10
9.7250042308
 20
24.5
 30
0.0
 11
9.7119056521
 21
24.4869014213
 31
0.0
  0
LINE
  5
295
100
AcDbEntity
  8
RACCORDO
100
AcDbLine
 62
250
  6
CONTINUOUS
 10
9.975
 20
24.2500042308
 30
0.0
 11
9.9619014213
 21
24.2369056521
 31
0.0
  0
LINE
  5
296
100
AcDbEntity
  8
RACCORDO
100
AcDbLine
 62
250
  6
CONTINUOUS
 10
9.7250042308
 20
-24.5
 30
0.0
 11
9.7119056521
 21
-24.4869014213
 31
0.0
  0
LINE
  5
297
100
AcDbEntity
  8
RACCORDO
100
AcDbLine
 62
250
  6
CONTINUOUS
 10
9.975
 20
-24.2500042308
 30
0.0
 11
9.9619014213
 21
-24.2369056521
 31
0.0
  0
LINE
  5
298
100
AcDbEntity
  8
RACCORDO
100
AcDbLine
 62
250
  6
CONTINUOUS
 10
-8.9380985787
 20
23.8443375673
 30
0.0
 11
-8.9322807489
 21
23.2669872981
 31
0.0
  0
LINE
  5
299
100
AcDbEntity
  8
RACCORDO
100
AcDbLine
 62
250
  6
CONTINUOUS
 10
-7.6344850761
 20
3.9133984746
 30
0.0
 11
-7.6343993763
 21
-5.0144137901
 31
0.0
  0
LINE
  5
29A
100
AcDbEntity
  8
DRAFT
100
AcDbLine
 62
7
  6
CONTINUOUS
 10
-7.125
 20
3.4
 30
0.0
 11
-7.125
 21
-4.5
 31
0.0
  0
LINE
  5
29B
100
AcDbEntity
  8
RACCORDO
100
AcDbLine
 62
250
  6
CONTINUOUS
 10
-8.9322807489
 20
-23.2669872981
 30
0.0
 11
-8.9380985787
 21
-23.8443375673
 31
0.0
  0
LINE
  5
29C
100
AcDbEntity
  8
RACCORDO
100
AcDbLine
 62
250
  6
CONTINUOUS
 10
-3.6840651868
 20
-7.967032219
 30
0.0
 11
2.3340651868
 21
-7.967032219
 31
0.0
  0
LINE
  5
29D
100
AcDbEntity
  8
RACCORDO
100
AcDbLine
 62
250
  6
CONTINUOUS
 10
-3.1840842253
 20
-7.4590842253
 30
0.0
 11
1.8340842253
 21
-7.4590842253
 31
0.0
  0
LINE
  5
29E
100
AcDbEntity
  8
DRAFT
100
AcDbLine
 62
7
  6
CONTINUOUS
 10
-3.175
 20
-7.45
 30
0.0
 11
1.825
 21
-7.45
 31
0.0
  0
LINE
  5
29F
100
AcDbEntity
  8
IMPORT_IGES
100
AcDbLine
 62
250
  6
CONTINUOUS
 10
-6.925
 20
-4.5
 30
0.0
 11
-6.925
 21
3.2565560385
 31
0.0
  0
LINE
  5
2A0
100
AcDbEntity
  8
IMPORT_IGES
100
AcDbLine
 62
7
  6
CONTINUOUS
 10
-6.625
 20
2.798298469
 30
0.0
 11
-6.625
 21
-4.2
 31
0.0
  0
LINE
  5
2A1
100
AcDbEntity
  8
IMPORT_IGES
100
AcDbLine
 62
7
  6
CONTINUOUS
 10
-5.775
 20
2.7
 30
0.0
 11
-5.775
 21
2.7528839596
 31
0.0
  0
LINE
  5
2A2
100
AcDbEntity
  8
IMPORT_IGES
100
AcDbLine
 62
7
  6
CONTINUOUS
 10
-2.7
 20
-7.0
 30
0.0
 11
1.35
 21
-7.0
 31
0.0
  0
LINE
  5
2A3
100
AcDbEntity
  8
0
100
AcDbLine
 62
7
  6
CONTINUOUS
 10
-2.7
 20
-6.8
 30
0.0
 11
1.35
 21
-6.8
 31
0.0
  0
LINE
  5
2A4
100
AcDbEntity
  8
RACCORDO
100
AcDbLine
 62
250
  6
CONTINUOUS
 10
-4.8342369883
 20
-6.6158528412
 30
0.0
 11
-3.6842369883
 21
-6.6158528412
 31
0.0
  0
LINE
  5
2A5
100
AcDbEntity
  8
RACCORDO
100
AcDbLine
 62
250
  6
CONTINUOUS
 10
2.3342369883
 20
-6.6158528412
 30
0.0
 11
3.4842369883
 21
-6.6158528412
 31
0.0
  0
LINE
  5
2A6
100
AcDbEntity
  8
RACCORDO
100
AcDbLine
 62
250
  6
CONTINUOUS
 10
-4.3342560268
 20
-6.1092560268
 30
0.0
 11
-3.1842560268
 21
-6.1092560268
 31
0.0
  0
LINE
  5
2A7
100
AcDbEntity
  8
RACCORDO
100
AcDbLine
 62
250
  6
CONTINUOUS
 10
1.8342560268
 20
-6.1092560268
 30
0.0
 11
2.9842560268
 21
-6.1092560268
 31
0.0
  0
LINE
  5
2A8
100
AcDbEntity
  8
DRAFT
100
AcDbLine
 62
7
  6
CONTINUOUS
 10
-4.325
 20
-6.1
 30
0.0
 11
-3.175
 21
-6.1
 31
0.0
  0
LINE
  5
2A9
100
AcDbEntity
  8
DRAFT
100
AcDbLine
 62
7
  6
CONTINUOUS
 10
1.825
 20
-6.1
 30
0.0
 11
2.975
 21
-6.1
 31
0.0
  0
LINE
  5
2AA
100
AcDbEntity
  8
IMPORT_IGES
100
AcDbLine
 62
250
  6
CONTINUOUS
 10
1.65
 20
-6.05
 30
0.0
 11
2.775
 21
-6.05
 31
0.0
  0
LINE
  5
2AB
100
AcDbEntity
  8
IMPORT_IGES
100
AcDbLine
 62
250
  6
CONTINUOUS
 10
-3.0
 20
-6.05
 30
0.0
 11
-4.125
 21
-6.05
 31
0.0
  0
LINE
  5
2AC
100
AcDbEntity
  8
IMPORT_IGES
100
AcDbLine
 62
7
  6
CONTINUOUS
 10
-3.825
 20
-5.75
 30
0.0
 11
-2.7
 21
-5.75
 31
0.0
  0
LINE
  5
2AD
100
AcDbEntity
  8
IMPORT_IGES
100
AcDbLine
 62
7
  6
CONTINUOUS
 10
-2.1
 20
-5.75
 30
0.0
 11
0.75
 21
-5.75
 31
0.0
  0
LINE
  5
2AE
100
AcDbEntity
  8
IMPORT_IGES
100
AcDbLine
 62
7
  6
CONTINUOUS
 10
1.35
 20
-5.75
 30
0.0
 11
2.475
 21
-5.75
 31
0.0
  0
LINE
  5
2AF
100
AcDbEntity
  8
IMPORT_IGES
100
AcDbLine
 62
7
  6
CONTINUOUS
 10
-2.257495549
 20
-6.8
 30
0.0
 11
-2.0557239609
 21
-7.0
 31
0.0
  0
LINE
  5
2B0
100
AcDbEntity
  8
IMPORT_IGES
100
AcDbLine
 62
7
  6
CONTINUOUS
 10
-1.9968089773
 20
-7.0
 30
0.0
 11
-2.1605123953
 21
-6.8377339252
 31
0.0
  0
LINE
  5
2B1
100
AcDbEntity
  8
IMPORT_IGES
100
AcDbLine
 62
7
  6
CONTINUOUS
 10
-5.1286037012
 20
2.7
 30
0.0
 11
-5.075
 21
2.1639629885
 31
0.0
  0
LINE
  5
2B2
100
AcDbEntity
  8
DRAFT
100
AcDbLine
 62
7
  6
CONTINUOUS
 10
-5.075
 20
-23.8
 30
0.0
 11
-5.075
 21
-22.4
 31
0.0
  0
LINE
  5
2B3
100
AcDbEntity
  8
IMPORT_IGES
100
AcDbLine
 62
7
  6
CONTINUOUS
 10
-5.075
 20
0.8539629885
 30
0.0
 11
-5.075
 21
2.1639629885
 31
0.0
  0
LINE
  5
2B4
100
AcDbEntity
  8
DRAFT
100
AcDbLine
 62
7
  6
CONTINUOUS
 10
-5.075
 20
22.4
 30
0.0
 11
-5.075
 21
23.8
 31
0.0
  0
LINE
  5
2B5
100
AcDbEntity
  8
RACCORDO
100
AcDbLine
 62
250
  6
CONTINUOUS
 10
-5.0720741618
 20
23.7970741618
 30
0.0
 11
-5.0720741618
 21
22.3736436632
 31
0.0
  0
LINE
  5
2B6
100
AcDbEntity
  8
RACCORDO
100
AcDbLine
 62
250
  6
CONTINUOUS
 10
-5.0720741618
 20
-22.3736436632
 30
0.0
 11
-5.0720741618
 21
-23.7970741618
 31
0.0
  0
LINE
  5
2B7
100
AcDbEntity
  8
RACCORDO
100
AcDbLine
 62
250
  6
CONTINUOUS
 10
-4.8343993763
 20
-5.0144137901
 30
0.0
 11
-4.8342369883
 21
-6.6158528412
 31
0.0
  0
LINE
  5
2B8
100
AcDbEntity
  8
RACCORDO
100
AcDbLine
 62
250
  6
CONTINUOUS
 10
-4.5720826234
 20
23.5953423515
 30
0.0
 11
-4.5720826234
 21
22.3475922207
 31
0.0
  0
LINE
  5
2B9
100
AcDbEntity
  8
RACCORDO
100
AcDbLine
 62
250
  6
CONTINUOUS
 10
-4.5720826234
 20
-22.3475922207
 30
0.0
 11
-4.5720826234
 21
-23.5953423515
 31
0.0
  0
LINE
  5
2BA
100
AcDbEntity
  8
IMPORT_IGES
100
AcDbLine
 62
7
  6
CONTINUOUS
 10
-4.4993282525
 20
-0.0760370115
 30
0.0
 11
-4.4993282525
 21
0.6539629885
 31
0.0
  0
LINE
  5
2BB
100
AcDbEntity
  8
0
100
AcDbLine
 62
7
  6
CONTINUOUS
 10
-4.375
 20
2.7528839596
 30
0.0
 11
-4.375
 21
-0.3
 31
0.0
  0
LINE
  5
2BC
100
AcDbEntity
  8
DRAFT
100
AcDbLine
 62
7
  6
CONTINUOUS
 10
-4.325
 20
-4.5
 30
0.0
 11
-4.325
 21
-6.1
 31
0.0
  0
LINE
  5
2BD
100
AcDbEntity
  8
IMPORT_IGES
100
AcDbLine
 62
250
  6
CONTINUOUS
 10
-4.125
 20
-6.05
 30
0.0
 11
-4.125
 21
-4.5
 31
0.0
  0
LINE
  5
2BE
100
AcDbEntity
  8
0
100
AcDbLine
 62
7
  6
CONTINUOUS
 10
-3.875
 20
2.7528839596
 30
0.0
 11
-3.875
 21
-0.3
 31
0.0
  0
LINE
  5
2BF
100
AcDbEntity
  8
IMPORT_IGES
100
AcDbLine
 62
7
  6
CONTINUOUS
 10
-3.825
 20
-5.75
 30
0.0
 11
-3.825
 21
-2.1791287848
 31
0.0
  0
LINE
  5
2C0
100
AcDbEntity
  8
RACCORDO
100
AcDbLine
 62
250
  6
CONTINUOUS
 10
-3.6842369883
 20
-6.6158528412
 30
0.0
 11
-3.6840651868
 21
-7.967032219
 31
0.0
  0
LINE
  5
2C1
100
AcDbEntity
  8
IMPORT_IGES
100
AcDbLine
 62
7
  6
CONTINUOUS
 10
-3.6298535023
 20
-0.7
 30
0.0
 11
-3.6298535023
 21
-0.0760370115
 31
0.0
  0
LINE
  5
2C2
100
AcDbEntity
  8
RACCORDO
100
AcDbLine
 62
250
  6
CONTINUOUS
 10
-11.8075830976
 20
-21.8998857286
 30
0.0
 11
-11.6741998097
 21
-21.4994104546
 31
0.0
  0
LINE
  5
2C3
100
AcDbEntity
  8
RACCORDO
100
AcDbLine
 62
250
  6
CONTINUOUS
 10
-11.1742759622
 20
-21.998725222
 30
0.0
 11
-11.28391534
 21
-22.3279108386
 31
0.0
  0
LINE
  5
2C4
100
AcDbEntity
  8
RACCORDO
100
AcDbLine
 62
250
  6
CONTINUOUS
 10
-7.6343993763
 20
-5.0144137901
 30
0.0
 11
-4.8343993763
 21
-5.0144137901
 31
0.0
  0
LINE
  5
2C5
100
AcDbEntity
  8
RACCORDO
100
AcDbLine
 62
250
  6
CONTINUOUS
 10
3.4843993763
 20
-5.0144137901
 30
0.0
 11
6.2843993763
 21
-5.0144137901
 31
0.0
  0
LINE
  5
2C6
100
AcDbEntity
  8
IMPORT_IGES
100
AcDbLine
 62
7
  6
CONTINUOUS
 10
-3.825
 20
-4.95
 30
0.0
 11
-2.1
 21
-4.95
 31
0.0
  0
LINE
  5
2C7
100
AcDbEntity
  8
IMPORT_IGES
100
AcDbLine
 62
7
  6
CONTINUOUS
 10
0.75
 20
-4.95
 30
0.0
 11
2.475
 21
-4.95
 31
0.0
  0
LINE
  5
2C8
100
AcDbEntity
  8
RACCORDO
100
AcDbLine
 62
250
  6
CONTINUOUS
 10
-7.1344184148
 20
-4.5094184148
 30
0.0
 11
-4.3344184148
 21
-4.5094184148
 31
0.0
  0
LINE
  5
2C9
100
AcDbEntity
  8
RACCORDO
100
AcDbLine
 62
250
  6
CONTINUOUS
 10
2.9844184148
 20
-4.5094184148
 30
0.0
 11
5.7844184148
 21
-4.5094184148
 31
0.0
  0
LINE
  5
2CA
100
AcDbEntity
  8
DRAFT
100
AcDbLine
 62
7
  6
CONTINUOUS
 10
-7.125
 20
-4.5
 30
0.0
 11
-4.325
 21
-4.5
 31
0.0
  0
LINE
  5
2CB
100
AcDbEntity
  8
IMPORT_IGES
100
AcDbLine
 62
250
  6
CONTINUOUS
 10
2.975
 20
-4.5
 30
0.0
 11
2.775
 21
-4.5
 31
0.0
  0
LINE
  5
2CC
100
AcDbEntity
  8
DRAFT
100
AcDbLine
 62
7
  6
CONTINUOUS
 10
2.975
 20
-4.5
 30
0.0
 11
5.775
 21
-4.5
 31
0.0
  0
LINE
  5
2CD
100
AcDbEntity
  8
IMPORT_IGES
100
AcDbLine
 62
250
  6
CONTINUOUS
 10
-4.125
 20
-4.5
 30
0.0
 11
-4.325
 21
-4.5
 31
0.0
  0
LINE
  5
2CE
100
AcDbEntity
  8
IMPORT_IGES
100
AcDbLine
 62
7
  6
CONTINUOUS
 10
2.475
 20
-4.2
 30
0.0
 11
5.275
 21
-4.2
 31
0.0
  0
LINE
  5
2CF
100
AcDbEntity
  8
IMPORT_IGES
100
AcDbLine
 62
7
  6
CONTINUOUS
 10
-3.825
 20
-4.2
 30
0.0
 11
-6.625
 21
-4.2
 31
0.0
  0
LINE
  5
2D0
100
AcDbEntity
  8
RACCORDO
100
AcDbLine
 62
7
  6
CONTINUOUS
 10
1.825
 20
-7.45
 30
0.0
 11
1.8340842253
 21
-7.4590842253
 31
0.0
  0
LINE
  5
2D1
100
AcDbEntity
  8
IMPORT_IGES
100
AcDbLine
 62
7
  6
CONTINUOUS
 10
0.3507041597
 20
-6.8
 30
0.0
 11
0.5489481265
 21
-7.0
 31
0.0
  0
LINE
  5
2D2
100
AcDbEntity
  8
IMPORT_IGES
100
AcDbLine
 62
7
  6
CONTINUOUS
 10
0.7731097803
 20
-6.8
 30
0.0
 11
0.8105123953
 21
-6.8377339252
 31
0.0
  0
LINE
  5
2D3
100
AcDbEntity
  8
IMPORT_IGES
100
AcDbLine
 62
7
  6
CONTINUOUS
 10
-4.5993282525
 20
0.8539629885
 30
0.0
 11
-4.4993282525
 21
0.6539629885
 31
0.0
  0
LINE
  5
2D4
100
AcDbEntity
  8
RACCORDO
100
AcDbLine
 62
250
  6
CONTINUOUS
 10
-11.6741998097
 20
21.4994104546
 30
0.0
 11
-11.8075830976
 21
21.8998857286
 31
0.0
  0
LINE
  5
2D5
100
AcDbEntity
  8
RACCORDO
100
AcDbLine
 62
250
  6
CONTINUOUS
 10
-11.28391534
 20
22.3279108386
 30
0.0
 11
-11.1742759622
 21
21.998725222
 31
0.0
  0
LINE
  5
2D6
100
AcDbEntity
  8
IMPORT_IGES
100
AcDbLine
 62
7
  6
CONTINUOUS
 10
-2.1528777456
 20
-6.8300316482
 30
0.0
 11
-2.1605301809
 21
-6.8
 31
0.0
  0
LINE
  5
2D7
100
AcDbEntity
  8
0
100
AcDbLine
 62
7
  6
CONTINUOUS
 10
-3.375
 20
2.7528839596
 30
0.0
 11
-3.375
 21
-0.3
 31
0.0
  0
LINE
  5
2D8
100
AcDbEntity
  8
DRAFT
100
AcDbLine
 62
7
  6
CONTINUOUS
 10
-3.175
 20
-6.1
 30
0.0
 11
-3.175
 21
-7.45
 31
0.0
  0
LINE
  5
2D9
100
AcDbEntity
  8
IMPORT_IGES
100
AcDbLine
 62
250
  6
CONTINUOUS
 10
-3.0
 20
-7.45
 30
0.0
 11
-3.0
 21
-6.05
 31
0.0
  0
LINE
  5
2DA
100
AcDbEntity
  8
0
100
AcDbLine
 62
7
  6
CONTINUOUS
 10
-2.875
 20
2.7528839596
 30
0.0
 11
-2.875
 21
-0.3
 31
0.0
  0
LINE
  5
2DB
100
AcDbEntity
  8
IMPORT_IGES
100
AcDbLine
 62
7
  6
CONTINUOUS
 10
-2.8298535023
 20
-0.0760370115
 30
0.0
 11
-2.8298535023
 21
-0.7
 31
0.0
  0
LINE
  5
2DC
100
AcDbEntity
  8
IMPORT_IGES
100
AcDbLine
 62
7
  6
CONTINUOUS
 10
-2.7
 20
-5.75
 30
0.0
 11
-2.7
 21
-7.4287187079
 31
0.0
  0
LINE
  5
2DD
100
AcDbEntity
  8
0
100
AcDbLine
 62
7
  6
CONTINUOUS
 10
-2.375
 20
2.7528839596
 30
0.0
 11
-2.375
 21
-0.3
 31
0.0
  0
LINE
  5
2DE
100
AcDbEntity
  8
IMPORT_IGES
100
AcDbLine
 62
7
  6
CONTINUOUS
 10
-2.1
 20
-4.95
 30
0.0
 11
-2.1
 21
-5.75
 31
0.0
  0
LINE
  5
2DF
100
AcDbEntity
  8
0
100
AcDbLine
 62
7
  6
CONTINUOUS
 10
-1.875
 20
2.7528839596
 30
0.0
 11
-1.875
 21
-0.3
 31
0.0
  0
LINE
  5
2E0
100
AcDbEntity
  8
RACCORDO
100
AcDbLine
 62
7
  6
CONTINUOUS
 10
-5.075
 20
-22.4
 30
0.0
 11
-5.0720741618
 21
-22.3736436632
 31
0.0
  0
LINE
  5
2E1
100
AcDbEntity
  8
IMPORT_IGES
100
AcDbLine
 62
7
  6
CONTINUOUS
 10
-1.875
 20
1.0710050598
 30
0.0
 11
-1.8593282525
 21
1.1023485547
 31
0.0
  0
LINE
  5
2E2
100
AcDbEntity
  8
RACCORDO
100
AcDbLine
 62
7
  6
CONTINUOUS
 10
-7.125
 20
-4.5
 30
0.0
 11
-7.1344184148
 21
-4.5094184148
 31
0.0
  0
LINE
  5
2E3
100
AcDbEntity
  8
IMPORT_IGES
100
AcDbLine
 62
7
  6
CONTINUOUS
 10
5.275
 20
-2.95
 30
0.0
 11
2.475
 21
-2.95
 31
0.0
  0
LINE
  5
2E4
100
AcDbEntity
  8
IMPORT_IGES
100
AcDbLine
 62
7
  6
CONTINUOUS
 10
-3.825
 20
-2.95
 30
0.0
 11
-6.625
 21
-2.95
 31
0.0
  0
LINE
  5
2E5
100
AcDbEntity
  8
IMPORT_IGES
100
AcDbLine
 62
7
  6
CONTINUOUS
 10
5.275
 20
-2.1791287848
 30
0.0
 11
-6.625
 21
-2.1791287848
 31
0.0
  0
LINE
  5
2E6
100
AcDbEntity
  8
RACCORDO
100
AcDbLine
 62
7
  6
CONTINUOUS
 10
1.825
 20
-6.1
 30
0.0
 11
1.8342560268
 21
-6.1092560268
 31
0.0
  0
LINE
  5
2E7
100
AcDbEntity
  8
RACCORDO
100
AcDbLine
 62
7
  6
CONTINUOUS
 10
-7.125
 20
3.4
 30
0.0
 11
-7.1345041146
 21
3.4095041146
 31
0.0
  0
LINE
  5
2E8
100
AcDbEntity
  8
RACCORDO
100
AcDbLine
 62
7
  6
CONTINUOUS
 10
2.975
 20
-6.1
 30
0.0
 11
2.9842560268
 21
-6.1092560268
 31
0.0
  0
LINE
  5
2E9
100
AcDbEntity
  8
RACCORDO
100
AcDbLine
 62
7
  6
CONTINUOUS
 10
-5.075
 20
22.4
 30
0.0
 11
-5.0720741618
 21
22.3736436632
 31
0.0
  0
LINE
  5
2EA
100
AcDbEntity
  8
IMPORT_IGES
100
AcDbLine
 62
7
  6
CONTINUOUS
 10
-1.4393282525
 20
-0.7
 30
0.0
 11
-1.4393282525
 21
0.9023485547
 31
0.0
  0
LINE
  5
2EB
100
AcDbEntity
  8
0
100
AcDbLine
 62
7
  6
CONTINUOUS
 10
-1.375
 20
2.7528839596
 30
0.0
 11
-1.375
 21
-0.3
 31
0.0
  0
LINE
  5
2EC
100
AcDbEntity
  8
0
100
AcDbLine
 62
7
  6
CONTINUOUS
 10
-0.875
 20
2.7528839596
 30
0.0
 11
-0.875
 21
-0.3
 31
0.0
  0
LINE
  5
2ED
100
AcDbEntity
  8
0
100
AcDbLine
 62
7
  6
CONTINUOUS
 10
-0.375
 20
2.7528839596
 30
0.0
 11
-0.375
 21
-0.3
 31
0.0
  0
LINE
  5
2EE
100
AcDbEntity
  8
0
100
AcDbLine
 62
7
  6
CONTINUOUS
 10
0.125
 20
2.7528839596
 30
0.0
 11
0.125
 21
-0.3
 31
0.0
  0
LINE
  5
2EF
100
AcDbEntity
  8
RACCORDO
100
AcDbLine
 62
7
  6
CONTINUOUS
 10
-4.325
 20
-4.5
 30
0.0
 11
-4.3344184148
 21
-4.5094184148
 31
0.0
  0
LWPOLYLINE
  5
2F0
100
AcDbEntity
  8
0
100
AcDbPolyline
 62
7
  6
CONTINUOUS
 90
2
 70
0
 43
0.3500000006
 10
19.0749990234
 20
-1.3571429443
 10
17.5749996986
 20
-1.3571429443
  0
LINE
  5
2F1
100
AcDbEntity
  8
IMPORT_IGES
100
AcDbLine
 62
7
  6
CONTINUOUS
 10
-3.6298535023
 20
-0.7
 30
0.0
 11
-2.8298535023
 21
-0.7
 31
0.0
  0
LINE
  5
2F2
100
AcDbEntity
  8
IMPORT_IGES
100
AcDbLine
 62
7
  6
CONTINUOUS
 10
-1.4393282525
 20
-0.7
 30
0.0
 11
1.1001464977
 21
-0.7
 31
0.0
  0
LINE
  5
2F3
100
AcDbEntity
  8
0
100
AcDbLine
 62
7
  6
CONTINUOUS
 10
-4.375
 20
-0.3
 30
0.0
 11
-3.875
 21
-0.3
 31
0.0
  0
LINE
  5
2F4
100
AcDbEntity
  8
0
100
AcDbLine
 62
7
  6
CONTINUOUS
 10
-3.375
 20
-0.3
 30
0.0
 11
-2.875
 21
-0.3
 31
0.0
  0
LINE
  5
2F5
100
AcDbEntity
  8
0
100
AcDbLine
 62
7
  6
CONTINUOUS
 10
-2.375
 20
-0.3
 30
0.0
 11
-1.875
 21
-0.3
 31
0.0
  0
LINE
  5
2F6
100
AcDbEntity
  8
0
100
AcDbLine
 62
7
  6
CONTINUOUS
 10
-1.375
 20
-0.3
 30
0.0
 11
-0.875
 21
-0.3
 31
0.0
  0
LINE
  5
2F7
100
AcDbEntity
  8
0
100
AcDbLine
 62
7
  6
CONTINUOUS
 10
-0.375
 20
-0.3
 30
0.0
 11
0.125
 21
-0.3
 31
0.0
  0
LINE
  5
2F8
100
AcDbEntity
  8
0
100
AcDbLine
 62
7
  6
CONTINUOUS
 10
0.625
 20
-0.3
 30
0.0
 11
1.125
 21
-0.3
 31
0.0
  0
LINE
  5
2F9
100
AcDbEntity
  8
0
100
AcDbLine
 62
7
  6
CONTINUOUS
 10
1.625
 20
-0.3
 30
0.0
 11
2.125
 21
-0.3
 31
0.0
  0
LINE
  5
2FA
100
AcDbEntity
  8
0
100
AcDbLine
 62
7
  6
CONTINUOUS
 10
2.625
 20
-0.3
 30
0.0
 11
3.125
 21
-0.3
 31
0.0
  0
LINE
  5
2FB
100
AcDbEntity
  8
IMPORT_IGES
100
AcDbLine
 62
7
  6
CONTINUOUS
 10
3.1406717475
 20
-0.0760370115
 30
0.0
 11
3.125
 21
-0.0760370115
 31
0.0
  0
LINE
  5
2FC
100
AcDbEntity
  8
IMPORT_IGES
100
AcDbLine
 62
7
  6
CONTINUOUS
 10
-2.375
 20
-0.0760370115
 30
0.0
 11
-2.8298535023
 21
-0.0760370115
 31
0.0
  0
LINE
  5
2FD
100
AcDbEntity
  8
IMPORT_IGES
100
AcDbLine
 62
7
  6
CONTINUOUS
 10
-3.6298535023
 20
-0.0760370115
 30
0.0
 11
-3.875
 21
-0.0760370115
 31
0.0
  0
LINE
  5
2FE
100
AcDbEntity
  8
IMPORT_IGES
100
AcDbLine
 62
7
  6
CONTINUOUS
 10
-4.375
 20
-0.0760370115
 30
0.0
 11
-4.4993282525
 21
-0.0760370115
 31
0.0
  0
LINE
  5
2FF
100
AcDbEntity
  8
RACCORDO
100
AcDbLine
 62
7
  6
CONTINUOUS
 10
2.975
 20
-4.5
 30
0.0
 11
2.9844184148
 21
-4.5094184148
 31
0.0
  0
LINE
  5
300
100
AcDbEntity
  8
IMPORT_IGES
100
AcDbLine
 62
7
  6
CONTINUOUS
 10
-1.5393282525
 20
1.1023485547
 30
0.0
 11
-1.4393282525
 21
0.9023485547
 31
0.0
  0
LINE
  5
301
100
AcDbEntity
  8
0
100
AcDbLine
 62
7
  6
CONTINUOUS
 10
0.625
 20
2.7528839596
 30
0.0
 11
0.625
 21
-0.3
 31
0.0
  0
LINE
  5
302
100
AcDbEntity
  8
IMPORT_IGES
100
AcDbLine
 62
7
  6
CONTINUOUS
 10
0.75
 20
-5.75
 30
0.0
 11
0.75
 21
-4.95
 31
0.0
  0
LINE
  5
303
100
AcDbEntity
  8
IMPORT_IGES
100
AcDbLine
 62
7
  6
CONTINUOUS
 10
1.1001464977
 20
-0.3
 30
0.0
 11
1.1001464977
 21
-0.7
 31
0.0
  0
LINE
  5
304
100
AcDbEntity
  8
0
100
AcDbLine
 62
7
  6
CONTINUOUS
 10
1.125
 20
2.7528839596
 30
0.0
 11
1.125
 21
-0.3
 31
0.0
  0
LINE
  5
305
100
AcDbEntity
  8
IMPORT_IGES
100
AcDbLine
 62
7
  6
CONTINUOUS
 10
1.35
 20
-7.4287187079
 30
0.0
 11
1.35
 21
-5.75
 31
0.0
  0
LINE
  5
306
100
AcDbEntity
  8
0
100
AcDbLine
 62
7
  6
CONTINUOUS
 10
1.625
 20
2.7528839596
 30
0.0
 11
1.625
 21
-0.3
 31
0.0
  0
LINE
  5
307
100
AcDbEntity
  8
IMPORT_IGES
100
AcDbLine
 62
250
  6
CONTINUOUS
 10
1.65
 20
-7.45
 30
0.0
 11
1.65
 21
-6.05
 31
0.0
  0
LINE
  5
308
100
AcDbEntity
  8
DRAFT
100
AcDbLine
 62
7
  6
CONTINUOUS
 10
1.825
 20
-7.45
 30
0.0
 11
1.825
 21
-6.1
 31
0.0
  0
LINE
  5
309
100
AcDbEntity
  8
RACCORDO
100
AcDbLine
 62
7
  6
CONTINUOUS
 10
3.725
 20
22.4
 30
0.0
 11
3.7220741618
 21
22.3736436632
 31
0.0
  0
LINE
  5
30A
100
AcDbEntity
  8
IMPORT_IGES
100
AcDbLine
 62
7
  6
CONTINUOUS
 10
1.125
 20
0.9520555593
 30
0.0
 11
1.2001464977
 21
1.1023485547
 31
0.0
  0
LINE
  5
30B
100
AcDbEntity
  8
IMPORT_IGES
100
AcDbLine
 62
7
  6
CONTINUOUS
 10
2.125
 20
0.9110050598
 30
0.0
 11
2.2206717475
 21
1.1023485547
 31
0.0
  0
LINE
  5
30C
100
AcDbEntity
  8
RACCORDO
100
AcDbLine
 62
7
  6
CONTINUOUS
 10
-4.325
 20
-6.1
 30
0.0
 11
-4.3342560268
 21
-6.1092560268
 31
0.0
  0
LINE
  5
30D
100
AcDbEntity
  8
RACCORDO
100
AcDbLine
 62
7
  6
CONTINUOUS
 10
5.775
 20
3.4
 30
0.0
 11
5.7845041146
 21
3.4095041146
 31
0.0
  0
LINE
  5
30E
100
AcDbEntity
  8
IMPORT_IGES
100
AcDbLine
 62
7
  6
CONTINUOUS
 10
3.725
 20
0.8539629885
 30
0.0
 11
3.2406717475
 21
0.8539629885
 31
0.0
  0
LINE
  5
30F
100
AcDbEntity
  8
IMPORT_IGES
100
AcDbLine
 62
7
  6
CONTINUOUS
 10
-4.5993282525
 20
0.8539629885
 30
0.0
 11
-5.075
 21
0.8539629885
 31
0.0
  0
LINE
  5
310
100
AcDbEntity
  8
IMPORT_IGES
100
AcDbLine
 62
7
  6
CONTINUOUS
 10
2.5401464977
 20
1.1023485547
 30
0.0
 11
2.2206717475
 21
1.1023485547
 31
0.0
  0
LINE
  5
311
100
AcDbEntity
  8
IMPORT_IGES
100
AcDbLine
 62
7
  6
CONTINUOUS
 10
1.5206717475
 20
1.1023485547
 30
0.0
 11
1.2001464977
 21
1.1023485547
 31
0.0
  0
LINE
  5
312
100
AcDbEntity
  8
IMPORT_IGES
100
AcDbLine
 62
7
  6
CONTINUOUS
 10
-1.5393282525
 20
1.1023485547
 30
0.0
 11
-1.8593282525
 21
1.1023485547
 31
0.0
  0
LINE
  5
313
100
AcDbEntity
  8
RACCORDO
100
AcDbLine
 62
7
  6
CONTINUOUS
 10
5.775
 20
-4.5
 30
0.0
 11
5.7844184148
 21
-4.5094184148
 31
0.0
  0
LINE
  5
314
100
AcDbEntity
  8
IMPORT_IGES
100
AcDbLine
 62
7
  6
CONTINUOUS
 10
1.5206717475
 20
1.1023485547
 30
0.0
 11
1.6206717475
 21
0.9023485547
 31
0.0
  0
LINE
  5
315
100
AcDbEntity
  8
RACCORDO
100
AcDbLine
 62
7
  6
CONTINUOUS
 10
3.725
 20
-22.4
 30
0.0
 11
3.7220741618
 21
-22.3736436632
 31
0.0
  0
LINE
  5
316
100
AcDbEntity
  8
0
100
AcDbLine
 62
7
  6
CONTINUOUS
 10
2.125
 20
2.7528839596
 30
0.0
 11
2.125
 21
-0.3
 31
0.0
  0
LINE
  5
317
100
AcDbEntity
  8
IMPORT_IGES
100
AcDbLine
 62
7
  6
CONTINUOUS
 10
2.475
 20
-5.75
 30
0.0
 11
2.475
 21
-2.1791287848
 31
0.0
  0
LINE
  5
318
100
AcDbEntity
  8
0
100
AcDbLine
 62
7
  6
CONTINUOUS
 10
2.625
 20
2.7528839596
 30
0.0
 11
2.625
 21
-0.3
 31
0.0
  0
LINE
  5
319
100
AcDbEntity
  8
IMPORT_IGES
100
AcDbLine
 62
250
  6
CONTINUOUS
 10
2.775
 20
-4.5
 30
0.0
 11
2.775
 21
-6.05
 31
0.0
  0
LINE
  5
31A
100
AcDbEntity
  8
DRAFT
100
AcDbLine
 62
7
  6
CONTINUOUS
 10
2.975
 20
-6.1
 30
0.0
 11
2.975
 21
-4.5
 31
0.0
  0
LINE
  5
31B
100
AcDbEntity
  8
0
100
AcDbLine
 62
7
  6
CONTINUOUS
 10
3.125
 20
2.7528839596
 30
0.0
 11
3.125
 21
-0.3
 31
0.0
  0
LINE
  5
31C
100
AcDbEntity
  8
IMPORT_IGES
100
AcDbLine
 62
7
  6
CONTINUOUS
 10
3.1406717475
 20
0.6539629885
 30
0.0
 11
3.1406717475
 21
-0.0760370115
 31
0.0
  0
LINE
  5
31D
100
AcDbEntity
  8
RACCORDO
100
AcDbLine
 62
250
  6
CONTINUOUS
 10
3.2220826234
 20
-23.5953423515
 30
0.0
 11
3.2220826234
 21
-22.3475922207
 31
0.0
  0
LINE
  5
31E
100
AcDbEntity
  8
RACCORDO
100
AcDbLine
 62
250
  6
CONTINUOUS
 10
3.2220826234
 20
22.3475922207
 30
0.0
 11
3.2220826234
 21
23.5953423515
 31
0.0
  0
LINE
  5
31F
100
AcDbEntity
  8
RACCORDO
100
AcDbLine
 62
250
  6
CONTINUOUS
 10
3.7220741618
 20
-23.7970741618
 30
0.0
 11
3.7220741618
 21
-22.3736436632
 31
0.0
  0
LINE
  5
320
100
AcDbEntity
  8
RACCORDO
100
AcDbLine
 62
250
  6
CONTINUOUS
 10
3.7220741618
 20
22.3736436632
 30
0.0
 11
3.7220741618
 21
23.7970741618
 31
0.0
  0
LINE
  5
321
100
AcDbEntity
  8
DRAFT
100
AcDbLine
 62
7
  6
CONTINUOUS
 10
3.725
 20
23.8
 30
0.0
 11
3.725
 21
22.4
 31
0.0
  0
LINE
  5
322
100
AcDbEntity
  8
IMPORT_IGES
100
AcDbLine
 62
7
  6
CONTINUOUS
 10
3.725
 20
2.1639629885
 30
0.0
 11
3.725
 21
0.8539629885
 31
0.0
  0
LINE
  5
323
100
AcDbEntity
  8
DRAFT
100
AcDbLine
 62
7
  6
CONTINUOUS
 10
3.725
 20
-22.4
 30
0.0
 11
3.725
 21
-23.8
 31
0.0
  0
LINE
  5
324
100
AcDbEntity
  8
RACCORDO
100
AcDbLine
 62
250
  6
CONTINUOUS
 10
2.3340651868
 20
-7.967032219
 30
0.0
 11
2.3342369883
 21
-6.6158528412
 31
0.0
  0
LINE
  5
325
100
AcDbEntity
  8
RACCORDO
100
AcDbLine
 62
250
  6
CONTINUOUS
 10
3.4842369883
 20
-6.6158528412
 30
0.0
 11
3.4843993763
 21
-5.0144137901
 31
0.0
  0
LINE
  5
326
100
AcDbEntity
  8
IMPORT_IGES
100
AcDbLine
 62
7
  6
CONTINUOUS
 10
3.725
 20
2.1639629885
 30
0.0
 11
3.7786037012
 21
2.7
 31
0.0
  0
LINE
  5
327
100
AcDbEntity
  8
IMPORT_IGES
100
AcDbLine
 62
7
  6
CONTINUOUS
 10
0.8105301809
 20
-6.8
 30
0.0
 11
0.8028777456
 21
-6.8300316482
 31
0.0
  0
LINE
  5
328
100
AcDbEntity
  8
RACCORDO
100
AcDbLine
 62
250
  6
CONTINUOUS
 10
9.8242759622
 20
21.998725222
 30
0.0
 11
9.93391534
 21
22.3279108386
 31
0.0
  0
LINE
  5
329
100
AcDbEntity
  8
RACCORDO
100
AcDbLine
 62
250
  6
CONTINUOUS
 10
10.4575830976
 20
21.8998857286
 30
0.0
 11
10.3241998097
 21
21.4994104546
 31
0.0
  0
LINE
  5
32A
100
AcDbEntity
  8
IMPORT_IGES
100
AcDbLine
 62
7
  6
CONTINUOUS
 10
3.1406717475
 20
0.6539629885
 30
0.0
 11
3.2406717474
 21
0.8539629885
 31
0.0
  0
LINE
  5
32B
100
AcDbEntity
  8
IMPORT_IGES
100
AcDbLine
 62
7
  6
CONTINUOUS
 10
-2.1605123953
 20
-6.8377339252
 30
0.0
 11
-2.1231097803
 21
-6.8
 31
0.0
  0
LINE
  5
32C
100
AcDbEntity
  8
IMPORT_IGES
100
AcDbLine
 62
7
  6
CONTINUOUS
 10
-1.8989481265
 20
-7.0
 30
0.0
 11
-1.7007041597
 21
-6.8
 31
0.0
  0
LINE
  5
32D
100
AcDbEntity
  8
RACCORDO
100
AcDbLine
 62
7
  6
CONTINUOUS
 10
-3.175
 20
-6.1
 30
0.0
 11
-3.1842560268
 21
-6.1092560268
 31
0.0
  0
LINE
  5
32E
100
AcDbEntity
  8
RACCORDO
100
AcDbLine
 62
7
  6
CONTINUOUS
 10
-3.175
 20
-7.45
 30
0.0
 11
-3.1840842253
 21
-7.4590842253
 31
0.0
  0
LINE
  5
32F
100
AcDbEntity
  8
IMPORT_IGES
100
AcDbLine
 62
7
  6
CONTINUOUS
 10
5.275
 20
2.7
 30
0.0
 11
3.7786037012
 21
2.7
 31
0.0
  0
LINE
  5
330
100
AcDbEntity
  8
IMPORT_IGES
100
AcDbLine
 62
7
  6
CONTINUOUS
 10
-5.1286037012
 20
2.7
 30
0.0
 11
-6.625
 21
2.7
 31
0.0
  0
LINE
  5
331
100
AcDbEntity
  8
IMPORT_IGES
100
AcDbLine
 62
7
  6
CONTINUOUS
 10
5.275
 20
2.7565628924
 30
0.0
 11
-6.625
 21
2.7565628924
 31
0.0
  0
LINE
  5
332
100
AcDbEntity
  8
IMPORT_IGES
100
AcDbLine
 62
250
  6
CONTINUOUS
 10
-6.925
 20
3.2565560385
 30
0.0
 11
5.575
 21
3.2565560385
 31
0.0
  0
LINE
  5
333
100
AcDbEntity
  8
DRAFT
100
AcDbLine
 62
7
  6
CONTINUOUS
 10
5.775
 20
3.4
 30
0.0
 11
-7.125
 21
3.4
 31
0.0
  0
LINE
  5
334
100
AcDbEntity
  8
RACCORDO
100
AcDbLine
 62
250
  6
CONTINUOUS
 10
5.7845041146
 20
3.4095041146
 30
0.0
 11
-7.1345041146
 21
3.4095041146
 31
0.0
  0
LINE
  5
335
100
AcDbEntity
  8
IMPORT_IGES
100
AcDbLine
 62
7
  6
CONTINUOUS
 10
2.5401464977
 20
1.1023485547
 30
0.0
 11
2.625
 21
0.93264155
 31
0.0
  0
LINE
  5
336
100
AcDbEntity
  8
RACCORDO
100
AcDbLine
 62
250
  6
CONTINUOUS
 10
9.93391534
 20
-22.3279108386
 30
0.0
 11
9.8242759622
 21
-21.998725222
 31
0.0
  0
LINE
  5
337
100
AcDbEntity
  8
RACCORDO
100
AcDbLine
 62
250
  6
CONTINUOUS
 10
10.3241998097
 20
-21.4994104546
 30
0.0
 11
10.4575830976
 21
-21.8998857286
 31
0.0
  0
LINE
  5
338
100
AcDbEntity
  8
IMPORT_IGES
100
AcDbLine
 62
7
  6
CONTINUOUS
 10
4.425
 20
2.7528839596
 30
0.0
 11
4.425
 21
2.7
 31
0.0
  0
LINE
  5
339
100
AcDbEntity
  8
IMPORT_IGES
100
AcDbLine
 62
7
  6
CONTINUOUS
 10
5.275
 20
-4.2
 30
0.0
 11
5.275
 21
2.798298469
 31
0.0
  0
LINE
  5
33A
100
AcDbEntity
  8
IMPORT_IGES
100
AcDbLine
 62
250
  6
CONTINUOUS
 10
5.575
 20
3.2565560385
 30
0.0
 11
5.575
 21
-4.5
 31
0.0
  0
LINE
  5
33B
100
AcDbEntity
  8
IMPORT_IGES
100
AcDbLine
 62
7
  6
CONTINUOUS
 10
0.8105123953
 20
-6.8377339252
 30
0.0
 11
0.6468089773
 21
-7.0
 31
0.0
  0
LINE
  5
33C
100
AcDbEntity
  8
IMPORT_IGES
100
AcDbLine
 62
7
  6
CONTINUOUS
 10
0.7057239609
 20
-7.0
 30
0.0
 11
0.907495549
 21
-6.8
 31
0.0
  0
LINE
  5
33D
100
AcDbEntity
  8
RACCORDO
100
AcDbLine
 62
250
  6
CONTINUOUS
 10
6.2844850761
 20
3.9133984746
 30
0.0
 11
-7.6344850761
 21
3.9133984746
 31
0.0
  0
LINE
  5
33E
100
AcDbEntity
  8
RACCORDO
100
AcDbLine
 62
250
  6
CONTINUOUS
 10
7.5880985787
 20
-23.8443375673
 30
0.0
 11
7.5822807489
 21
-23.2669872981
 31
0.0
  0
LINE
  5
33F
100
AcDbEntity
  8
DRAFT
100
AcDbLine
 62
7
  6
CONTINUOUS
 10
5.775
 20
-4.5
 30
0.0
 11
5.775
 21
3.4
 31
0.0
  0
LINE
  5
340
100
AcDbEntity
  8
RACCORDO
100
AcDbLine
 62
250
  6
CONTINUOUS
 10
6.2843993763
 20
-5.0144137901
 30
0.0
 11
6.2844850761
 21
3.9133984746
 31
0.0
  0
LINE
  5
341
100
AcDbEntity
  8
RACCORDO
100
AcDbLine
 62
250
  6
CONTINUOUS
 10
7.5822807489
 20
23.2669872981
 30
0.0
 11
7.5880985787
 21
23.8443375673
 31
0.0
  0
LINE
  5
342
100
AcDbEntity
  8
RACCORDO
100
AcDbLine
 62
250
  6
CONTINUOUS
 10
7.8380943479
 20
-23.6278312164
 30
0.0
 11
7.8330037468
 21
-23.1226497308
 31
0.0
  0
LINE
  5
343
100
AcDbEntity
  8
RACCORDO
100
AcDbLine
 62
7
  6
CONTINUOUS
 10
7.575
 20
-22.4
 30
0.0
 11
7.575
 21
-24.2500042308
 31
0.0
  0
LINE
  5
344
100
AcDbEntity
  8
RACCORDO
100
AcDbLine
 62
7
  6
CONTINUOUS
 10
7.575
 20
22.4
 30
0.0
 11
7.575
 21
24.2500042308
 31
0.0
  0
LINE
  5
345
100
AcDbEntity
  8
RACCORDO
100
AcDbLine
 62
250
  6
CONTINUOUS
 10
7.5822807489
 20
-23.2669872981
 30
0.0
 11
7.5822807489
 21
-22.3344140523
 31
0.0
  0
LINE
  5
346
100
AcDbEntity
  8
RACCORDO
100
AcDbLine
 62
250
  6
CONTINUOUS
 10
7.5822807489
 20
22.3344140523
 30
0.0
 11
7.5822807489
 21
23.2669872981
 31
0.0
  0
LINE
  5
347
100
AcDbEntity
  8
RACCORDO
100
AcDbLine
 62
250
  6
CONTINUOUS
 10
7.5880985787
 20
24.2369056521
 30
0.0
 11
7.5880985787
 21
23.8443375673
 31
0.0
  0
LINE
  5
348
100
AcDbEntity
  8
RACCORDO
100
AcDbLine
 62
250
  6
CONTINUOUS
 10
7.5880985787
 20
-23.8443375673
 30
0.0
 11
7.5880985787
 21
-24.2369056521
 31
0.0
  0
LINE
  5
349
100
AcDbEntity
  8
RACCORDO
100
AcDbLine
 62
250
  6
CONTINUOUS
 10
7.8322765181
 20
-23.1226497308
 30
0.0
 11
7.8322765181
 21
-22.3213883311
 31
0.0
  0
LINE
  5
34A
100
AcDbEntity
  8
RACCORDO
100
AcDbLine
 62
250
  6
CONTINUOUS
 10
7.8322765181
 20
22.3213883311
 30
0.0
 11
7.8322765181
 21
23.1226497308
 31
0.0
  0
LINE
  5
34B
100
AcDbEntity
  8
RACCORDO
100
AcDbLine
 62
250
  6
CONTINUOUS
 10
7.8380943479
 20
-23.6278312164
 30
0.0
 11
7.8380943479
 21
-24.4869014213
 31
0.0
  0
LINE
  5
34C
100
AcDbEntity
  8
RACCORDO
100
AcDbLine
 62
250
  6
CONTINUOUS
 10
7.8380943479
 20
23.6278312164
 30
0.0
 11
7.8380943479
 21
24.4869014213
 31
0.0
  0
LINE
  5
34D
100
AcDbEntity
  8
RACCORDO
100
AcDbLine
 62
250
  6
CONTINUOUS
 10
8.525
 20
22.2
 30
0.0
 11
8.525
 21
15.7031206241
 31
0.0
  0
LINE
  5
34E
100
AcDbEntity
  8
RACCORDO
100
AcDbLine
 62
7
  6
CONTINUOUS
 10
8.775
 20
21.9496569135
 30
0.0
 11
8.775
 21
15.85
 31
0.0
  0
LINE
  5
34F
100
AcDbEntity
  8
ASSI
100
AcDbLine
 62
7
  6
CONTINUOUS
 10
8.825
 20
15.6
 30
0.0
 11
8.825
 21
22.1379611036
 31
0.0
  0
LINE
  5
350
100
AcDbEntity
  8
RACCORDO
100
AcDbLine
 62
250
  6
CONTINUOUS
 10
7.8330037468
 20
23.1226497308
 30
0.0
 11
7.8380943479
 21
23.6278312164
 31
0.0
  0
LINE
  5
351
100
AcDbEntity
  8
RACCORDO
100
AcDbLine
 62
250
  6
CONTINUOUS
 10
-11.325
 20
-24.2500042308
 30
0.0
 11
-11.3119014213
 21
-24.2369056521
 31
0.0
  0
LINE
  5
352
100
AcDbEntity
  8
RACCORDO
100
AcDbLine
 62
250
  6
CONTINUOUS
 10
-11.325
 20
24.2500042308
 30
0.0
 11
-11.3119014213
 21
24.2369056521
 31
0.0
  0
LINE
  5
353
100
AcDbEntity
  8
RACCORDO
100
AcDbLine
 62
250
  6
CONTINUOUS
 10
9.7119056521
 20
23.6278312164
 30
0.0
 11
9.7169962532
 21
23.1226497308
 31
0.0
  0
LINE
  5
354
100
AcDbEntity
  8
RACCORDO
100
AcDbLine
 62
250
  6
CONTINUOUS
 10
9.9619014213
 20
23.8443375673
 30
0.0
 11
9.9677192511
 21
23.2669872981
 31
0.0
  0
LINE
  5
355
100
AcDbEntity
  8
RACCORDO
100
AcDbLine
 62
250
  6
CONTINUOUS
 10
9.7119056521
 20
-23.6278312164
 30
0.0
 11
9.7119056521
 21
-24.4869014213
 31
0.0
  0
LINE
  5
356
100
AcDbEntity
  8
RACCORDO
100
AcDbLine
 62
250
  6
CONTINUOUS
 10
9.7119056521
 20
23.6278312164
 30
0.0
 11
9.7119056521
 21
24.4869014213
 31
0.0
  0
LINE
  5
357
100
AcDbEntity
  8
RACCORDO
100
AcDbLine
 62
250
  6
CONTINUOUS
 10
9.7177234819
 20
-23.1226497308
 30
0.0
 11
9.7177234819
 21
-22.3213883311
 31
0.0
  0
LINE
  5
358
100
AcDbEntity
  8
RACCORDO
100
AcDbLine
 62
250
  6
CONTINUOUS
 10
9.7177234819
 20
22.3213883311
 30
0.0
 11
9.7177234819
 21
23.1226497308
 31
0.0
  0
LINE
  5
359
100
AcDbEntity
  8
RACCORDO
100
AcDbLine
 62
250
  6
CONTINUOUS
 10
9.9619014213
 20
-24.2369056521
 30
0.0
 11
9.9619014213
 21
-23.8443375673
 31
0.0
  0
LINE
  5
35A
100
AcDbEntity
  8
RACCORDO
100
AcDbLine
 62
250
  6
CONTINUOUS
 10
9.9619014213
 20
23.8443375673
 30
0.0
 11
9.9619014213
 21
24.2369056521
 31
0.0
  0
LINE
  5
35B
100
AcDbEntity
  8
RACCORDO
100
AcDbLine
 62
250
  6
CONTINUOUS
 10
9.9677192511
 20
-23.2669872981
 30
0.0
 11
9.9677192511
 21
-22.3334109614
 31
0.0
  0
LINE
  5
35C
100
AcDbEntity
  8
RACCORDO
100
AcDbLine
 62
250
  6
CONTINUOUS
 10
9.9677192511
 20
22.3334109614
 30
0.0
 11
9.9677192511
 21
23.2669872981
 31
0.0
  0
LINE
  5
35D
100
AcDbEntity
  8
RACCORDO
100
AcDbLine
 62
7
  6
CONTINUOUS
 10
9.975
 20
-22.399689968
 30
0.0
 11
9.975
 21
-24.2500042308
 31
0.0
  0
LINE
  5
35E
100
AcDbEntity
  8
RACCORDO
100
AcDbLine
 62
7
  6
CONTINUOUS
 10
9.975
 20
22.399689968
 30
0.0
 11
9.975
 21
24.2500042308
 31
0.0
  0
LINE
  5
35F
100
AcDbEntity
  8
RACCORDO
100
AcDbLine
 62
7
  6
CONTINUOUS
 10
10.475
 20
21.8911779406
 30
0.0
 11
10.475
 21
-21.8911779406
 31
0.0
  0
LINE
  5
360
100
AcDbEntity
  8
RACCORDO
100
AcDbLine
 62
250
  6
CONTINUOUS
 10
9.7169962532
 20
-23.1226497308
 30
0.0
 11
9.7119056521
 21
-23.6278312164
 31
0.0
  0
LINE
  5
361
100
AcDbEntity
  8
RACCORDO
100
AcDbLine
 62
250
  6
CONTINUOUS
 10
9.9677192511
 20
-23.2669872981
 30
0.0
 11
9.9619014213
 21
-23.8443375673
 31
0.0
  0
LINE
  5
362
100
AcDbEntity
  8
RACCORDO
100
AcDbLine
 62
7
  6
CONTINUOUS
 10
7.575
 20
-22.4
 30
0.0
 11
7.5822807489
 21
-22.3344140523
 31
0.0
  0
LINE
  5
363
100
AcDbEntity
  8
RACCORDO
100
AcDbLine
 62
250
  6
CONTINUOUS
 10
-11.0750042308
 20
-24.5
 30
0.0
 11
-11.0619056521
 21
-24.4869014213
 31
0.0
  0
LINE
  5
364
100
AcDbEntity
  8
RACCORDO
100
AcDbLine
 62
250
  6
CONTINUOUS
 10
-11.0750042308
 20
24.5
 30
0.0
 11
-11.0619056521
 21
24.4869014213
 31
0.0
  0
LINE
  5
365
100
AcDbEntity
  8
RACCORDO
100
AcDbLine
 62
7
  6
CONTINUOUS
 10
7.575
 20
22.4
 30
0.0
 11
7.5822807489
 21
22.3344140523
 31
0.0
  0
LINE
  5
366
100
AcDbEntity
  8
RACCORDO
100
AcDbLine
 62
7
  6
CONTINUOUS
 10
-5.0720741618
 20
-23.7970741618
 30
0.0
 11
-5.075
 21
-23.8
 31
0.0
  0
LINE
  5
367
100
AcDbEntity
  8
RACCORDO
100
AcDbLine
 62
7
  6
CONTINUOUS
 10
-5.0720741618
 20
23.7970741618
 30
0.0
 11
-5.075
 21
23.8
 31
0.0
  0
LWPOLYLINE
  5
368
100
AcDbEntity
  8
0
100
AcDbPolyline
 62
7
  6
CONTINUOUS
 90
10
 70
0
 43
0.3500000006
 10
19.0749990234
 20
0.4285709152
 10
18.2178576851
 20
1.2857133865
 10
17.3607140808
 20
1.5000001373
 10
16.5035716095
 20
1.5000001373
 10
16.0750003738
 20
1.0714289017
 10
16.0750003738
 20
0.4285709152
 10
16.5035716095
 20
-0.0000003204
 10
17.3607140808
 20
-0.0000003204
 10
17.7892853165
 20
0.4285709152
 10
17.7892853165
 20
1.3571423035
  0
LINE
  5
369
100
AcDbEntity
  8
ASSI
100
AcDbLine
 62
7
  6
CONTINUOUS
 10
8.825
 20
15.6
 30
0.0
 11
-10.175
 21
15.6
 31
0.0
  0
LINE
  5
36A
100
AcDbEntity
  8
RACCORDO
100
AcDbLine
 62
250
  6
CONTINUOUS
 10
8.525
 20
15.7031206241
 30
0.0
 11
-9.875
 21
15.7031206241
 31
0.0
  0
LWPOLYLINE
  5
36B
100
AcDbEntity
  8
0
100
AcDbPolyline
 62
7
  6
CONTINUOUS
 90
10
 70
0
 43
0.3500000006
 10
0.3964285558
 20
33.7500009155
 10
0.4678571541
 20
33.6071430817
 10
0.4678571541
 20
33.5357164307
 10
0.324999993
 20
33.3928585968
 10
0.2535714301
 20
33.3928585968
 10
0.1821428495
 20
33.4642852478
 10
0.1821428495
 20
33.5357164307
 10
0.2535714301
 20
33.6785697327
 10
0.324999993
 20
33.7500009155
 10
0.3964285558
 20
33.7500009155
  0
LWPOLYLINE
  5
36C
100
AcDbEntity
  8
0
100
AcDbPolyline
 62
7
  6
CONTINUOUS
 90
3
 70
0
 43
0.3500000006
 10
18.4321433029
 20
-0.8571427917
 10
18.4321433029
 20
-2.3571432495
 10
16.0750003738
 20
-1.7142852631
  0
LINE
  5
36D
100
AcDbEntity
  8
RACCORDO
100
AcDbLine
 62
250
  6
CONTINUOUS
 10
8.825
 20
19.9
 30
0.0
 11
8.775
 21
19.9
 31
0.0
  0
LINE
  5
36E
100
AcDbEntity
  8
RACCORDO
100
AcDbLine
 62
250
  6
CONTINUOUS
 10
-10.125
 20
19.9
 30
0.0
 11
-10.175
 21
19.9
 31
0.0
  0
LINE
  5
36F
100
AcDbEntity
  8
RACCORDO
100
AcDbLine
 62
7
  6
CONTINUOUS
 10
8.825
 20
20.4
 30
0.0
 11
8.775
 21
20.4
 31
0.0
  0
LINE
  5
370
100
AcDbEntity
  8
RACCORDO
100
AcDbLine
 62
7
  6
CONTINUOUS
 10
-10.125
 20
20.4
 30
0.0
 11
-10.175
 21
20.4
 31
0.0
  0
LINE
  5
371
100
AcDbEntity
  8
ASSI
100
AcDbLine
 62
250
  6
CONTINUOUS
 10
-11.1577491915
 20
20.5624683248
 30
0.0
 11
-10.175
 21
20.5624683248
 31
0.0
  0
LINE
  5
372
100
AcDbEntity
  8
ASSI
100
AcDbLine
 62
250
  6
CONTINUOUS
 10
8.825
 20
20.5624683248
 30
0.0
 11
9.8077491915
 21
20.5624683248
 31
0.0
  0
LINE
  5
373
100
AcDbEntity
  8
RACCORDO
100
AcDbLine
 62
250
  6
CONTINUOUS
 10
8.525
 20
20.6248213396
 30
0.0
 11
-9.875
 21
20.6248213396
 31
0.0
  0
LINE
  5
374
100
AcDbEntity
  8
SMUSSO
100
AcDbLine
 62
7
  6
CONTINUOUS
 10
-10.175
 20
21.3
 30
0.0
 11
-10.125
 21
21.3
 31
0.0
  0
LINE
  5
375
100
AcDbEntity
  8
SMUSSO
100
AcDbLine
 62
7
  6
CONTINUOUS
 10
8.825
 20
21.3
 30
0.0
 11
8.775
 21
21.3
 31
0.0
  0
LINE
  5
376
100
AcDbEntity
  8
SMUSSO
100
AcDbLine
 62
7
  6
CONTINUOUS
 10
-10.175
 20
21.7
 30
0.0
 11
-10.125
 21
21.7
 31
0.0
  0
LINE
  5
377
100
AcDbEntity
  8
SMUSSO
100
AcDbLine
 62
7
  6
CONTINUOUS
 10
8.825
 20
21.7
 30
0.0
 11
8.775
 21
21.7
 31
0.0
  0
LINE
  5
378
100
AcDbEntity
  8
ASSI
100
AcDbLine
 62
250
  6
CONTINUOUS
 10
-11.1742759622
 20
21.998725222
 30
0.0
 11
-10.175
 21
21.998725222
 31
0.0
  0
LINE
  5
379
100
AcDbEntity
  8
ASSI
100
AcDbLine
 62
250
  6
CONTINUOUS
 10
8.825
 20
21.998725222
 30
0.0
 11
9.8242759622
 21
21.998725222
 31
0.0
  0
LINE
  5
37A
100
AcDbEntity
  8
RACCORDO
100
AcDbLine
 62
250
  6
CONTINUOUS
 10
7.575
 20
-24.2500042308
 30
0.0
 11
7.5880985787
 21
-24.2369056521
 31
0.0
  0
LINE
  5
37B
100
AcDbEntity
  8
RACCORDO
100
AcDbLine
 62
250
  6
CONTINUOUS
 10
7.8249957692
 20
-24.5
 30
0.0
 11
7.8380943479
 21
-24.4869014213
 31
0.0
  0
LINE
  5
37C
100
AcDbEntity
  8
RACCORDO
100
AcDbLine
 62
250
  6
CONTINUOUS
 10
8.525
 20
22.0611911777
 30
0.0
 11
-9.875
 21
22.0611911777
 31
0.0
  0
LINE
  5
37D
100
AcDbEntity
  8
0
100
AcDbLine
 62
7
  6
CONTINUOUS
 10
8.825
 20
22.1379611036
 30
0.0
 11
8.6897145093
 21
22.1379611036
 31
0.0
  0
LINE
  5
37E
100
AcDbEntity
  8
0
100
AcDbLine
 62
7
  6
CONTINUOUS
 10
-10.039714702
 20
22.1379611036
 30
0.0
 11
-10.175
 21
22.1379611036
 31
0.0
  0
LINE
  5
37F
100
AcDbEntity
  8
RACCORDO
100
AcDbLine
 62
7
  6
CONTINUOUS
 10
-9.875
 20
22.2
 30
0.0
 11
8.525
 21
22.2
 31
0.0
  0
LINE
  5
380
100
AcDbEntity
  8
RACCORDO
100
AcDbLine
 62
7
  6
CONTINUOUS
 10
-11.0677234819
 20
22.3213883311
 30
0.0
 11
-9.1822765181
 21
22.3213883311
 31
0.0
  0
LINE
  5
381
100
AcDbEntity
  8
RACCORDO
100
AcDbLine
 62
7
  6
CONTINUOUS
 10
7.8322765181
 20
22.3213883311
 30
0.0
 11
9.7177234819
 21
22.3213883311
 31
0.0
  0
LINE
  5
382
100
AcDbEntity
  8
RACCORDO
100
AcDbLine
 62
7
  6
CONTINUOUS
 10
3.2220826234
 20
22.3475922207
 30
0.0
 11
-4.5720826234
 21
22.3475922207
 31
0.0
  0
LINE
  5
383
100
AcDbEntity
  8
DRAFT
100
AcDbLine
 62
7
  6
CONTINUOUS
 10
7.575
 20
22.4
 30
0.0
 11
3.725
 21
22.4
 31
0.0
  0
LINE
  5
384
100
AcDbEntity
  8
DRAFT
100
AcDbLine
 62
7
  6
CONTINUOUS
 10
-5.075
 20
22.4
 30
0.0
 11
-8.925
 21
22.4
 31
0.0
  0
LINE
  5
385
100
AcDbEntity
  8
RACCORDO
100
AcDbLine
 62
7
  6
CONTINUOUS
 10
-11.0677234819
 20
23.1226497308
 30
0.0
 11
-9.1822765181
 21
23.1226497308
 31
0.0
  0
LINE
  5
386
100
AcDbEntity
  8
RACCORDO
100
AcDbLine
 62
7
  6
CONTINUOUS
 10
7.8322765181
 20
23.1226497308
 30
0.0
 11
9.7177234819
 21
23.1226497308
 31
0.0
  0
LINE
  5
387
100
AcDbEntity
  8
RACCORDO
100
AcDbLine
 62
250
  6
CONTINUOUS
 10
3.2220826234
 20
23.5953423515
 30
0.0
 11
-4.5720826234
 21
23.5953423515
 31
0.0
  0
LINE
  5
388
100
AcDbEntity
  8
RACCORDO
100
AcDbLine
 62
250
  6
CONTINUOUS
 10
-11.0619056521
 20
23.6278312164
 30
0.0
 11
-9.1880943479
 21
23.6278312164
 31
0.0
  0
LINE
  5
389
100
AcDbEntity
  8
RACCORDO
100
AcDbLine
 62
250
  6
CONTINUOUS
 10
7.8380943479
 20
23.6278312164
 30
0.0
 11
9.7119056521
 21
23.6278312164
 31
0.0
  0
LINE
  5
38A
100
AcDbEntity
  8
RACCORDO
100
AcDbLine
 62
250
  6
CONTINUOUS
 10
3.6212073137
 20
23.7953389668
 30
0.0
 11
-4.9712073137
 21
23.7953389668
 31
0.0
  0
LINE
  5
38B
100
AcDbEntity
  8
DRAFT
100
AcDbLine
 62
7
  6
CONTINUOUS
 10
-5.075
 20
23.8
 30
0.0
 11
3.725
 21
23.8
 31
0.0
  0
LINE
  5
38C
100
AcDbEntity
  8
RACCORDO
100
AcDbLine
 62
250
  6
CONTINUOUS
 10
7.575
 20
24.2500042308
 30
0.0
 11
7.5880985787
 21
24.2369056521
 31
0.0
  0
LINE
  5
38D
100
AcDbEntity
  8
RACCORDO
100
AcDbLine
 62
250
  6
CONTINUOUS
 10
7.8249957692
 20
24.5
 30
0.0
 11
7.8380943479
 21
24.4869014213
 31
0.0
  0
LINE
  5
38E
100
AcDbEntity
  8
RACCORDO
100
AcDbLine
 62
250
  6
CONTINUOUS
 10
10.4575830976
 20
-21.8998857286
 30
0.0
 11
10.475
 21
-21.8911779406
 31
0.0
  0
LINE
  5
38F
100
AcDbEntity
  8
RACCORDO
100
AcDbLine
 62
7
  6
CONTINUOUS
 10
10.1810144094
 20
-22.3472251339
 30
0.0
 11
10.198517002
 21
-22.3384745041
 31
0.0
  0
LINE
  5
390
100
AcDbEntity
  8
RACCORDO
100
AcDbLine
 62
250
  6
CONTINUOUS
 10
7.5880985787
 20
23.8443375673
 30
0.0
 11
9.9619014213
 21
23.8443375673
 31
0.0
  0
LINE
  5
391
100
AcDbEntity
  8
RACCORDO
100
AcDbLine
 62
250
  6
CONTINUOUS
 10
-8.9380985787
 20
23.8443375673
 30
0.0
 11
-11.3119014213
 21
23.8443375673
 31
0.0
  0
LINE
  5
392
100
AcDbEntity
  8
RACCORDO
100
AcDbLine
 62
250
  6
CONTINUOUS
 10
7.5880985787
 20
24.2369056521
 30
0.0
 11
9.9619014213
 21
24.2369056521
 31
0.0
  0
LINE
  5
393
100
AcDbEntity
  8
RACCORDO
100
AcDbLine
 62
250
  6
CONTINUOUS
 10
-8.9380985787
 20
24.2369056521
 30
0.0
 11
-11.3119014213
 21
24.2369056521
 31
0.0
  0
LINE
  5
394
100
AcDbEntity
  8
RACCORDO
100
AcDbLine
 62
250
  6
CONTINUOUS
 10
9.7119056521
 20
24.4869014213
 30
0.0
 11
7.8380943479
 21
24.4869014213
 31
0.0
  0
LINE
  5
395
100
AcDbEntity
  8
RACCORDO
100
AcDbLine
 62
250
  6
CONTINUOUS
 10
-9.1880943479
 20
24.4869014213
 30
0.0
 11
-11.0619056521
 21
24.4869014213
 31
0.0
  0
LINE
  5
396
100
AcDbEntity
  8
RACCORDO
100
AcDbLine
 62
7
  6
CONTINUOUS
 10
-11.0750042308
 20
24.5
 30
0.0
 11
-9.1749957692
 21
24.5
 31
0.0
  0
LINE
  5
397
100
AcDbEntity
  8
RACCORDO
100
AcDbLine
 62
7
  6
CONTINUOUS
 10
7.8249957692
 20
24.5
 30
0.0
 11
9.7250042308
 21
24.5
 31
0.0
  0
LWPOLYLINE
  5
398
100
AcDbEntity
  8
0
100
AcDbPolyline
 62
7
  6
CONTINUOUS
 90
6
 70
0
 43
0.3500000006
 10
1.4678571053
 20
33.2500007629
 10
2.5392857609
 20
33.2500007629
 10
2.7535713787
 20
33.4642852478
 10
2.7535713787
 20
34.535712204
 10
2.3250000014
 20
34.9642857056
 10
1.8964286242
 20
34.9642857056
  0
LWPOLYLINE
  5
399
100
AcDbEntity
  8
0
100
AcDbPolyline
 62
7
  6
CONTINUOUS
 90
7
 70
0
 43
0.3500000006
 10
-1.1035714417
 20
33.2500007629
 10
-2.6035713329
 20
33.2500007629
 10
-1.1035714417
 20
35.3928592072
 10
-1.1035714417
 20
35.8214281769
 10
-1.5321428189
 20
36.2500016785
 10
-2.1749999557
 20
36.2500016785
 10
-2.6035713329
 20
35.607143692
  0
LWPOLYLINE
  5
39A
100
AcDbEntity
  8
0
100
AcDbPolyline
 62
7
  6
CONTINUOUS
 90
7
 70
0
 43
0.3500000006
 10
-3.4607143707
 20
33.2500007629
 10
-4.960714262
 20
33.2500007629
 10
-3.4607143707
 20
35.3928592072
 10
-3.4607143707
 20
35.8214281769
 10
-3.8892856064
 20
36.2500016785
 10
-4.5321427431
 20
36.2500016785
 10
-4.960714262
 20
35.607143692
  0
LINE
  5
39B
100
AcDbEntity
  8
RACCORDO
100
AcDbLine
 62
250
  6
CONTINUOUS
 10
10.475
 20
21.8911779406
 30
0.0
 11
10.4575830976
 21
21.8998857286
 31
0.0
  0
LINE
  5
39C
100
AcDbEntity
  8
RACCORDO
100
AcDbLine
 62
7
  6
CONTINUOUS
 10
10.198517002
 20
22.3384745041
 30
0.0
 11
10.1810144094
 21
22.3472251339
 31
0.0
  0
LWPOLYLINE
  5
39D
100
AcDbEntity
  8
0
100
AcDbPolyline
 62
7
  6
CONTINUOUS
 90
10
 70
0
 43
0.3500000006
 10
-60.7288049011
 20
43.2499992828
 10
-59.8716578979
 20
44.1071417542
 10
-59.6573734131
 20
44.9642842255
 10
-59.6573734131
 20
45.8214266968
 10
-60.0859469147
 20
46.2500001984
 10
-60.7288049011
 20
46.2500001984
 10
-61.1573738708
 20
45.8214266968
 10
-61.1573738708
 20
44.9642842255
 10
-60.7288049011
 20
44.5357152557
 10
-59.8002312469
 20
44.5357152557
  0
LWPOLYLINE
  5
39E
100
AcDbEntity
  8
0
100
AcDbPolyline
 62
7
  6
CONTINUOUS
 90
5
 70
0
 43
0.3500000006
 10
-62.4430898438
 20
44.9642842255
 10
-62.085947525
 20
45.1785732422
 10
-62.085947525
 20
45.8214266968
 10
-62.4430898438
 20
46.2500001984
 10
-63.3002323151
 20
46.2500001984
  0
LWPOLYLINE
  5
39F
100
AcDbEntity
  8
0
100
AcDbPolyline
 62
7
  6
CONTINUOUS
 90
5
 70
0
 43
0.3500000006
 10
-50.7645174408
 20
34.9642857056
 10
-50.4073751221
 20
35.1785701904
 10
-50.4073751221
 20
35.8214281769
 10
-50.7645174408
 20
36.2500016785
 10
-51.6216599121
 20
36.2500016785
  0
LINE
  5
3A0
100
AcDbEntity
  8
RACCORDO
100
AcDbLine
 62
250
  6
CONTINUOUS
 10
-69.4145173042
 20
23.4104851482
 30
0.0
 11
-68.6630628714
 21
23.8443375673
 31
0.0
  0
LINE
  5
3A1
100
AcDbEntity
  8
RACCORDO
100
AcDbLine
 62
7
  6
CONTINUOUS
 10
-69.4145173042
 20
23.1226497308
 30
0.0
 11
-68.5395173042
 21
23.6278312164
 31
0.0
  0
LINE
  5
3A2
100
AcDbEntity
  8
RACCORDO
100
AcDbLine
 62
250
  6
CONTINUOUS
 10
-68.6630628714
 20
-23.8443375673
 30
0.0
 11
-69.4145173042
 21
-23.4104851482
 31
0.0
  0
LINE
  5
3A3
100
AcDbEntity
  8
RACCORDO
100
AcDbLine
 62
7
  6
CONTINUOUS
 10
-68.5395173042
 20
-23.6278312164
 30
0.0
 11
-69.4145173042
 21
-23.1226497308
 31
0.0
  0
LINE
  5
3A4
100
AcDbEntity
  8
RACCORDO
100
AcDbLine
 62
7
  6
CONTINUOUS
 10
-68.6630628714
 20
-24.495628166
 30
0.0
 11
-69.4145173042
 21
-24.5
 31
0.0
  0
LINE
  5
3A5
100
AcDbEntity
  8
RACCORDO
100
AcDbLine
 62
250
  6
CONTINUOUS
 10
-68.6630628714
 20
-24.2456323968
 30
0.0
 11
-69.4145173042
 21
-24.2500042308
 31
0.0
  0
LINE
  5
3A6
100
AcDbEntity
  8
ASSI
100
AcDbLine
 62
7
  6
CONTINUOUS
 10
-68.4196083959
 20
-23.7942117893
 30
0.0
 11
-61.9116084386
 21
-23.7563493531
 31
0.0
  0
LINE
  5
3A7
100
AcDbEntity
  8
RACCORDO
100
AcDbLine
 62
250
  6
CONTINUOUS
 10
-68.4145173042
 20
-24.2456323968
 30
0.0
 11
-68.6630628714
 21
-24.2456323968
 31
0.0
  0
LINE
  5
3A8
100
AcDbEntity
  8
RACCORDO
100
AcDbLine
 62
250
  6
CONTINUOUS
 10
-71.9145173042
 20
-24.2369056521
 30
0.0
 11
-71.6659717371
 21
-24.2369056521
 31
0.0
  0
LINE
  5
3A9
100
AcDbEntity
  8
RACCORDO
100
AcDbLine
 62
250
  6
CONTINUOUS
 10
-71.9145173042
 20
-23.8443375673
 30
0.0
 11
-71.6659717371
 21
-23.8443375673
 31
0.0
  0
LINE
  5
3AA
100
AcDbEntity
  8
RACCORDO
100
AcDbLine
 62
250
  6
CONTINUOUS
 10
-68.4145173042
 20
-23.8443375673
 30
0.0
 11
-68.6630628714
 21
-23.8443375673
 31
0.0
  0
LINE
  5
3AB
100
AcDbEntity
  8
RACCORDO
100
AcDbLine
 62
7
  6
CONTINUOUS
 10
-69.4145173042
 20
-24.5
 30
0.0
 11
-71.6659717371
 21
-24.4869014213
 31
0.0
  0
LINE
  5
3AC
100
AcDbEntity
  8
RACCORDO
100
AcDbLine
 62
250
  6
CONTINUOUS
 10
-69.4145173042
 20
-24.2500042308
 30
0.0
 11
-71.6659717371
 21
-24.2369056521
 31
0.0
  0
LINE
  5
3AD
100
AcDbEntity
  8
RACCORDO
100
AcDbLine
 62
7
  6
CONTINUOUS
 10
-70.7900604462
 20
-22.3279108386
 30
0.0
 11
-77.0712961931
 21
-21.998725222
 31
0.0
  0
LWPOLYLINE
  5
3AE
100
AcDbEntity
  8
0
100
AcDbPolyline
 62
7
  6
CONTINUOUS
 90
10
 70
0
 43
0.3500000006
 10
-55.2645188141
 20
33.2500007629
 10
-54.4073763428
 20
34.1071432343
 10
-54.193087326
 20
34.9642857056
 10
-54.193087326
 20
35.8214281769
 10
-54.6216608276
 20
36.2500016785
 10
-55.2645188141
 20
36.2500016785
 10
-55.6930877838
 20
35.8214281769
 10
-55.6930877838
 20
34.9642857056
 10
-55.2645188141
 20
34.535712204
 10
-54.3359451599
 20
34.535712204
  0
LINE
  5
3AF
100
AcDbEntity
  8
RACCORDO
100
AcDbLine
 62
7
  6
CONTINUOUS
 10
-59.4057907688
 20
-22.3126551668
 30
0.0
 11
-69.4145173042
 21
-22.4
 31
0.0
  0
LINE
  5
3B0
100
AcDbEntity
  8
RACCORDO
100
AcDbLine
 62
250
  6
CONTINUOUS
 10
-69.4123309752
 20
-21.8998857286
 30
0.0
 11
-68.4145173042
 21
-21.8911779406
 31
0.0
  0
LINE
  5
3B1
100
AcDbEntity
  8
RACCORDO
100
AcDbLine
 62
7
  6
CONTINUOUS
 10
-58.4145173042
 20
-20.9959955457
 30
0.0
 11
-68.214730544
 21
-20.9104703804
 31
0.0
  0
LINE
  5
3B2
100
AcDbEntity
  8
RACCORDO
100
AcDbLine
 62
7
  6
CONTINUOUS
 10
-58.905791101
 20
-21.5659754333
 30
0.0
 11
-68.4145173042
 21
-21.4
 31
0.0
  0
LINE
  5
3B3
100
AcDbEntity
  8
RACCORDO
100
AcDbLine
 62
250
  6
CONTINUOUS
 10
-77.0538544182
 20
-21.4994104546
 30
0.0
 11
-69.4123309752
 21
-21.8998857286
 31
0.0
  0
LINE
  5
3B4
100
AcDbEntity
  8
DRAFT
100
AcDbLine
 62
7
  6
CONTINUOUS
 10
-68.214730544
 20
-20.9104703804
 30
0.0
 11
-68.4145173042
 21
-20.9
 31
0.0
  0
LINE
  5
3B5
100
AcDbEntity
  8
RACCORDO
100
AcDbLine
 62
250
  6
CONTINUOUS
 10
-78.0006724739
 20
-20.5419058565
 30
0.0
 11
-78.491523112
 21
-20.562468318
 31
0.0
  0
LINE
  5
3B6
100
AcDbEntity
  8
RACCORDO
100
AcDbLine
 62
7
  6
CONTINUOUS
 10
-58.4145173042
 20
-19.6808012501
 30
0.0
 11
-68.4145173042
 21
-17.917531443
 31
0.0
  0
LINE
  5
3B7
100
AcDbEntity
  8
RACCORDO
100
AcDbLine
 62
250
  6
CONTINUOUS
 10
-77.0599050034
 20
21.9993222089
 30
0.0
 11
-77.0631474161
 21
22.0611911777
 31
0.0
  0
LINE
  5
3B8
100
AcDbEntity
  8
RACCORDO
100
AcDbLine
 62
7
  6
CONTINUOUS
 10
-74.4145173042
 20
22.2
 30
0.0
 11
-74.4145173042
 21
22.1379611036
 31
0.0
  0
LINE
  5
3B9
100
AcDbEntity
  8
RACCORDO
100
AcDbLine
 62
7
  6
CONTINUOUS
 10
-71.9145173042
 20
-24.2369056521
 30
0.0
 11
-71.9145173042
 21
-23.8443375673
 31
0.0
  0
LINE
  5
3BA
100
AcDbEntity
  8
RACCORDO
100
AcDbLine
 62
7
  6
CONTINUOUS
 10
-71.9145173042
 20
23.8443375673
 30
0.0
 11
-71.9145173042
 21
24.2369056521
 31
0.0
  0
LINE
  5
3BB
100
AcDbEntity
  8
RACCORDO
100
AcDbLine
 62
250
  6
CONTINUOUS
 10
-71.6659717371
 20
-24.2369056521
 30
0.0
 11
-71.6659717371
 21
-23.8443375673
 31
0.0
  0
LINE
  5
3BC
100
AcDbEntity
  8
RACCORDO
100
AcDbLine
 62
250
  6
CONTINUOUS
 10
-71.6659717371
 20
23.8443375673
 30
0.0
 11
-71.6659717371
 21
24.2369056521
 31
0.0
  0
LWPOLYLINE
  5
3BD
100
AcDbEntity
  8
0
100
AcDbPolyline
 62
7
  6
CONTINUOUS
 90
3
 70
0
 43
0.3500000006
 10
-58.0859463043
 20
43.5357149506
 10
-58.1573729553
 20
43.3214304657
 10
-58.3002307892
 20
43.035714798
  0
LINE
  5
3BE
100
AcDbEntity
  8
RACCORDO
100
AcDbLine
 62
7
  6
CONTINUOUS
 10
-67.7308821876
 20
11.5836351166
 30
0.0
 11
-68.0266493386
 21
11.2878679656
 31
0.0
  0
LINE
  5
3BF
100
AcDbEntity
  8
IMPORT_IGES
100
AcDbLine
 62
7
  6
CONTINUOUS
 10
-49.0259202384
 20
-10.9462084977
 30
0.0
 11
-48.9978941269
 21
-10.9386376134
 31
0.0
  0
LINE
  5
3C0
100
AcDbEntity
  8
RACCORDO
100
AcDbLine
 62
7
  6
CONTINUOUS
 10
-70.9145173042
 20
-23.1226497308
 30
0.0
 11
-70.9145173042
 21
-22.3213883311
 31
0.0
  0
LINE
  5
3C1
100
AcDbEntity
  8
RACCORDO
100
AcDbLine
 62
7
  6
CONTINUOUS
 10
-70.9145173042
 20
22.3213883311
 30
0.0
 11
-70.9145173042
 21
23.1226497308
 31
0.0
  0
LINE
  5
3C2
100
AcDbEntity
  8
RACCORDO
100
AcDbLine
 62
250
  6
CONTINUOUS
 10
-70.6659717371
 20
-23.2669872981
 30
0.0
 11
-70.6659717371
 21
-22.3334109614
 31
0.0
  0
LINE
  5
3C3
100
AcDbEntity
  8
RACCORDO
100
AcDbLine
 62
250
  6
CONTINUOUS
 10
-70.6659717371
 20
22.3334109614
 30
0.0
 11
-70.6659717371
 21
23.2669872981
 31
0.0
  0
LINE
  5
3C4
100
AcDbEntity
  8
RACCORDO
100
AcDbLine
 62
7
  6
CONTINUOUS
 10
-69.4145173042
 20
-22.399689968
 30
0.0
 11
-69.4145173042
 21
-24.2500042308
 31
0.0
  0
LINE
  5
3C5
100
AcDbEntity
  8
RACCORDO
100
AcDbLine
 62
7
  6
CONTINUOUS
 10
-69.4145173042
 20
22.399689968
 30
0.0
 11
-69.4145173042
 21
24.2500042308
 31
0.0
  0
LWPOLYLINE
  5
3C6
100
AcDbEntity
  8
IMPORT_IGES
100
AcDbPolyline
 62
7
  6
CONTINUOUS
 90
10
 70
0
 10
-48.0997713829
 20
-10.6665365421
 10
-48.0378348862
 20
-10.6599742715
 10
-47.9754252581
 20
-10.6467420875
 10
-47.9129760363
 20
-10.627129073
 10
-47.8511732947
 20
-10.6017615872
 10
-47.7900483831
 20
-10.5707409962
 10
-47.729749458
 20
-10.5342576342
 10
-47.671102503
 20
-10.4927502002
 10
-47.6143763703
 20
-10.4464288765
 10
-47.5610168147
 20
-10.3965138662
  0
LWPOLYLINE
  5
3C7
100
AcDbEntity
  8
IMPORT_IGES
100
AcDbPolyline
 62
7
  6
CONTINUOUS
 90
3
 70
0
 10
-49.0629050584
 20
-10.9499878621
 10
-49.0552538915
 20
-10.9497631817
 10
-49.0259202384
 20
-10.9462084977
  0
LINE
  5
3C8
100
AcDbEntity
  8
IMPORT_IGES
100
AcDbLine
 62
7
  6
CONTINUOUS
 10
-48.1267157879
 20
-10.6672422846
 30
0.0
 11
-48.0997713829
 21
-10.6665365421
 31
0.0
  0
LINE
  5
3C9
100
AcDbEntity
  8
RACCORDO
100
AcDbLine
 62
7
  6
CONTINUOUS
 10
-67.0145173042
 20
-10.8101132618
 30
0.0
 11
-68.4145173042
 21
-10.8223308767
 31
0.0
  0
LINE
  5
3CA
100
AcDbEntity
  8
RACCORDO
100
AcDbLine
 62
250
  6
CONTINUOUS
 10
-67.0145173042
 20
-10.3101323002
 30
0.0
 11
-68.4145173042
 21
-10.3223499151
 31
0.0
  0
LINE
  5
3CB
100
AcDbEntity
  8
IMPORT_IGES
100
AcDbLine
 62
7
  6
CONTINUOUS
 10
-49.0650643851
 20
-10.9499974091
 30
0.0
 11
-49.0629092333
 21
-10.9499853878
 31
0.0
  0
LINE
  5
3CC
100
AcDbEntity
  8
IMPORT_IGES
100
AcDbLine
 62
7
  6
CONTINUOUS
 10
-60.0076182874
 20
-10.6517099561
 30
0.0
 11
-60.2975654031
 21
-10.6523850164
 31
0.0
  0
LINE
  5
3CD
100
AcDbEntity
  8
IMPORT_IGES
100
AcDbLine
 62
7
  6
CONTINUOUS
 10
-57.8645170126
 20
-11.15
 30
0.0
 11
-57.3645198583
 21
-11.15
 31
0.0
  0
LINE
  5
3CE
100
AcDbEntity
  8
IMPORT_IGES
100
AcDbLine
 62
7
  6
CONTINUOUS
 10
-51.1645170126
 20
-11.15
 30
0.0
 11
-50.6645198583
 21
-11.15
 31
0.0
  0
LINE
  5
3CF
100
AcDbEntity
  8
IMPORT_IGES
100
AcDbLine
 62
7
  6
CONTINUOUS
 10
-52.7776559721
 20
-11.15
 30
0.0
 11
-55.8136775677
 21
-11.15
 31
0.0
  0
LINE
  5
3D0
100
AcDbEntity
  8
IMPORT_IGES
100
AcDbLine
 62
250
  6
CONTINUOUS
 10
-57.9645173042
 20
-11.05
 30
0.0
 11
-57.2645173043
 21
-11.05
 31
0.0
  0
LINE
  5
3D1
100
AcDbEntity
  8
IMPORT_IGES
100
AcDbLine
 62
250
  6
CONTINUOUS
 10
-51.2645173042
 20
-11.05
 30
0.0
 11
-50.5645173043
 21
-11.05
 31
0.0
  0
LINE
  5
3D2
100
AcDbEntity
  8
IMPORT_IGES
100
AcDbLine
 62
7
  6
CONTINUOUS
 10
-48.3216240862
 20
-10.95
 30
0.0
 11
-59.3083845516
 21
-10.95
 31
0.0
  0
LINE
  5
3D3
100
AcDbEntity
  8
IMPORT_IGES
100
AcDbLine
 62
250
  6
CONTINUOUS
 10
-49.0443176493
 20
-10.8621318567
 30
0.0
 11
-59.5134098048
 21
-10.8621318567
 31
0.0
  0
LINE
  5
3D4
100
AcDbEntity
  8
IMPORT_IGES
100
AcDbLine
 62
250
  6
CONTINUOUS
 10
-48.3216240854
 20
-10.75
 30
0.0
 11
-48.6723255857
 21
-10.7500000336
 31
0.0
  0
LINE
  5
3D5
100
AcDbEntity
  8
IMPORT_IGES
100
AcDbLine
 62
7
  6
CONTINUOUS
 10
-48.1267094153
 20
-10.6672173642
 30
0.0
 11
-48.6695596886
 21
-10.6672173642
 31
0.0
  0
LINE
  5
3D6
100
AcDbEntity
  8
IMPORT_IGES
100
AcDbLine
 62
250
  6
CONTINUOUS
 10
-48.1267094148
 20
-10.6086387202
 30
0.0
 11
-48.6695517991
 21
-10.6086387199
 31
0.0
  0
LINE
  5
3D7
100
AcDbEntity
  8
RACCORDO
100
AcDbLine
 62
250
  6
CONTINUOUS
 10
-68.6630628714
 20
24.2456323968
 30
0.0
 11
-68.6630628714
 21
23.8443375673
 31
0.0
  0
LINE
  5
3D8
100
AcDbEntity
  8
RACCORDO
100
AcDbLine
 62
250
  6
CONTINUOUS
 10
-68.6630628714
 20
-23.8443375673
 30
0.0
 11
-68.6630628714
 21
-24.2456323968
 31
0.0
  0
LINE
  5
3D9
100
AcDbEntity
  8
RACCORDO
100
AcDbLine
 62
7
  6
CONTINUOUS
 10
-68.4145173042
 20
24.2456323968
 30
0.0
 11
-68.4145173042
 21
23.8443375673
 31
0.0
  0
LINE
  5
3DA
100
AcDbEntity
  8
RACCORDO
100
AcDbLine
 62
7
  6
CONTINUOUS
 10
-68.4145173042
 20
22.3912731322
 30
0.0
 11
-68.4145173042
 21
-22.3912731322
 31
0.0
  0
LINE
  5
3DB
100
AcDbEntity
  8
RACCORDO
100
AcDbLine
 62
7
  6
CONTINUOUS
 10
-68.4145173042
 20
-23.7941821702
 30
0.0
 11
-68.4145173042
 21
-24.2456323968
 31
0.0
  0
LINE
  5
3DC
100
AcDbEntity
  8
0
100
AcDbLine
 62
7
  6
CONTINUOUS
 10
-67.9352292985
 20
11.2117237174
 30
0.0
 11
-67.9352292985
 21
11.3117237174
 31
0.0
  0
LINE
  5
3DD
100
AcDbEntity
  8
0
100
AcDbLine
 62
7
  6
CONTINUOUS
 10
-67.9115468567
 20
11.2117237174
 30
0.0
 11
-67.9115468567
 21
11.3117237174
 31
0.0
  0
LINE
  5
3DE
100
AcDbEntity
  8
0
100
AcDbLine
 62
7
  6
CONTINUOUS
 10
-67.9027461902
 20
11.2117237174
 30
0.0
 11
-67.9027461902
 21
11.3117237174
 31
0.0
  0
LINE
  5
3DF
100
AcDbEntity
  8
0
100
AcDbLine
 62
7
  6
CONTINUOUS
 10
-67.8497793105
 20
11.2117237174
 30
0.0
 11
-67.8497793105
 21
11.3117237174
 31
0.0
  0
LINE
  5
3E0
100
AcDbEntity
  8
0
100
AcDbLine
 62
7
  6
CONTINUOUS
 10
-67.8260570201
 20
11.2117237174
 30
0.0
 11
-67.8260570201
 21
11.3117237174
 31
0.0
  0
LINE
  5
3E1
100
AcDbEntity
  8
0
100
AcDbLine
 62
250
  6
CONTINUOUS
 10
-67.8164315581
 20
11.2117237174
 30
0.0
 11
-67.8164315581
 21
11.3117237174
 31
0.0
  0
LINE
  5
3E2
100
AcDbEntity
  8
0
100
AcDbLine
 62
250
  6
CONTINUOUS
 10
-67.7408424688
 20
11.2117237174
 30
0.0
 11
-67.7408424688
 21
11.3117237174
 31
0.0
  0
LINE
  5
3E3
100
AcDbEntity
  8
0
100
AcDbLine
 62
7
  6
CONTINUOUS
 10
-67.612512633
 20
11.2117237174
 30
0.0
 11
-67.612512633
 21
11.3117237174
 31
0.0
  0
LINE
  5
3E4
100
AcDbEntity
  8
0
100
AcDbLine
 62
7
  6
CONTINUOUS
 10
-67.4502677854
 20
11.2117237174
 30
0.0
 11
-67.4502677854
 21
11.3117237174
 31
0.0
  0
LINE
  5
3E5
100
AcDbEntity
  8
0
100
AcDbLine
 62
7
  6
CONTINUOUS
 10
-67.4295624311
 20
11.2117237174
 30
0.0
 11
-67.4295624311
 21
11.3117237174
 31
0.0
  0
LINE
  5
3E6
100
AcDbEntity
  8
0
100
AcDbLine
 62
250
  6
CONTINUOUS
 10
-67.3913639287
 20
11.2117237174
 30
0.0
 11
-67.3913639287
 21
11.3117237174
 31
0.0
  0
LINE
  5
3E7
100
AcDbEntity
  8
0
100
AcDbLine
 62
7
  6
CONTINUOUS
 10
-67.253593693
 20
11.2117237174
 30
0.0
 11
-67.253593693
 21
11.3117237174
 31
0.0
  0
LINE
  5
3E8
100
AcDbEntity
  8
RACCORDO
100
AcDbLine
 62
250
  6
CONTINUOUS
 10
-67.2119112613
 20
12.4118358927
 30
0.0
 11
-67.2119112613
 21
11.5881641073
 31
0.0
  0
LINE
  5
3E9
100
AcDbEntity
  8
RACCORDO
100
AcDbLine
 62
250
  6
CONTINUOUS
 10
-67.2119112613
 20
8.35
 30
0.0
 11
-67.2119112613
 21
7.2881641073
 31
0.0
  0
LINE
  5
3EA
100
AcDbEntity
  8
RACCORDO
100
AcDbLine
 62
250
  6
CONTINUOUS
 10
-67.2119112613
 20
0.4118358927
 30
0.0
 11
-67.2119112613
 21
-0.4118358927
 31
0.0
  0
LINE
  5
3EB
100
AcDbEntity
  8
RACCORDO
100
AcDbLine
 62
250
  6
CONTINUOUS
 10
-67.2119112613
 20
-7.9881641073
 30
0.0
 11
-67.2119112613
 21
-8.8118358927
 31
0.0
  0
LINE
  5
3EC
100
AcDbEntity
  8
IMPORT_IGES
100
AcDbLine
 62
7
  6
CONTINUOUS
 10
-62.1109483986
 20
9.8035689056
 30
0.0
 11
-63.7250260047
 21
8.1894912995
 31
0.0
  0
LINE
  5
3ED
100
AcDbEntity
  8
IMPORT_IGES
100
AcDbLine
 62
250
  6
CONTINUOUS
 10
-63.0559364587
 20
8.4395480957
 30
0.0
 11
-61.8988306822
 21
9.5966558819
 31
0.0
  0
LINE
  5
3EE
100
AcDbEntity
  8
IMPORT_IGES
100
AcDbLine
 62
250
  6
CONTINUOUS
 10
-63.6013756809
 20
7.88992475
 30
0.0
 11
-63.4145173042
 21
8.0767831267
 31
0.0
  0
LINE
  5
3EF
100
AcDbEntity
  8
IMPORT_IGES
100
AcDbLine
 62
7
  6
CONTINUOUS
 10
-65.7534066342
 20
5.9569269492
 30
0.0
 11
-66.8885089678
 21
5.0600559696
 31
0.0
  0
LINE
  5
3F0
100
AcDbEntity
  8
IMPORT_IGES
100
AcDbLine
 62
250
  6
CONTINUOUS
 10
-66.7645173042
 20
4.9031290204
 30
0.0
 11
-65.6294149707
 21
5.8
 31
0.0
  0
LINE
  5
3F1
100
AcDbEntity
  8
RACCORDO
100
AcDbLine
 62
7
  6
CONTINUOUS
 10
-67.0145173042
 20
-8.8101132618
 30
0.0
 11
-68.4145173042
 21
-8.8223308767
 31
0.0
  0
LINE
  5
3F2
100
AcDbEntity
  8
IMPORT_IGES
100
AcDbLine
 62
250
  6
CONTINUOUS
 10
-47.3024625653
 20
-9.7843758577
 30
0.0
 11
-61.6561579172
 21
-9.7843765612
 31
0.0
  0
LINE
  5
3F3
100
AcDbEntity
  8
IMPORT_IGES
100
AcDbLine
 62
250
  6
CONTINUOUS
 10
-61.6561579154
 20
-9.5774802551
 30
0.0
 11
-47.3024472624
 21
-9.5774802551
 31
0.0
  0
LINE
  5
3F4
100
AcDbEntity
  8
IMPORT_IGES
100
AcDbLine
 62
7
  6
CONTINUOUS
 10
-43.2645173042
 20
-8.2455021716
 30
0.0
 11
-44.0444687399
 21
-8.2455021716
 31
0.0
  0
LINE
  5
3F5
100
AcDbEntity
  8
IMPORT_IGES
100
AcDbLine
 62
7
  6
CONTINUOUS
 10
-59.5134098048
 20
-10.8621320344
 30
0.0
 11
-59.3083845516
 21
-10.95
 31
0.0
  0
LINE
  5
3F6
100
AcDbEntity
  8
IMPORT_IGES
100
AcDbLine
 62
7
  6
CONTINUOUS
 10
-65.1899725183
 20
-7.8843776508
 30
0.0
 11
-63.3311537626
 21
-8.9429338024
 31
0.0
  0
LINE
  5
3F7
100
AcDbEntity
  8
IMPORT_IGES
100
AcDbLine
 62
250
  6
CONTINUOUS
 10
-63.4145173042
 20
-8.5508211038
 30
0.0
 11
-65.1111000035
 21
-7.5846547966
 31
0.0
  0
LINE
  5
3F8
100
AcDbEntity
  8
IMPORT_IGES
100
AcDbLine
 62
250
  6
CONTINUOUS
 10
-60.2975654031
 20
-10.6523850164
 30
0.0
 11
-61.6561579172
 21
-9.7843765612
 31
0.0
  0
LINE
  5
3F9
100
AcDbEntity
  8
IMPORT_IGES
100
AcDbLine
 62
7
  6
CONTINUOUS
 10
-63.2761257432
 20
-8.9884875088
 30
0.0
 11
-61.119858706
 21
-10.3672037902
 31
0.0
  0
LINE
  5
3FA
100
AcDbEntity
  8
IMPORT_IGES
100
AcDbLine
 62
250
  6
CONTINUOUS
 10
-61.988252143
 20
-9.4611064278
 30
0.0
 11
-63.1145173042
 21
-8.7409729341
 31
0.0
  0
LINE
  5
3FB
100
AcDbEntity
  8
IMPORT_IGES
100
AcDbLine
 62
7
  6
CONTINUOUS
 10
-66.8885089678
 20
-4.7600559695
 30
0.0
 11
-65.7534066342
 21
-5.6569269492
 31
0.0
  0
LINE
  5
3FC
100
AcDbEntity
  8
IMPORT_IGES
100
AcDbLine
 62
250
  6
CONTINUOUS
 10
-65.6294149707
 20
-5.5
 30
0.0
 11
-66.7645173042
 21
-4.6031290204
 31
0.0
  0
LINE
  5
3FD
100
AcDbEntity
  8
RACCORDO
100
AcDbLine
 62
7
  6
CONTINUOUS
 10
-67.0145173042
 20
13.8101132618
 30
0.0
 11
-67.0145173042
 21
11.5898867382
 31
0.0
  0
LINE
  5
3FE
100
AcDbEntity
  8
RACCORDO
100
AcDbLine
 62
7
  6
CONTINUOUS
 10
-67.0145173042
 20
8.35
 30
0.0
 11
-67.0145173042
 21
7.2898867382
 31
0.0
  0
LINE
  5
3FF
100
AcDbEntity
  8
RACCORDO
100
AcDbLine
 62
7
  6
CONTINUOUS
 10
-67.0145173042
 20
0.4101132618
 30
0.0
 11
-67.0145173042
 21
-0.4101132618
 31
0.0
  0
LINE
  5
400
100
AcDbEntity
  8
RACCORDO
100
AcDbLine
 62
7
  6
CONTINUOUS
 10
-67.0145173042
 20
-10.8101132618
 30
0.0
 11
-67.0145173042
 21
-6.2872801014
 31
0.0
  0
LINE
  5
401
100
AcDbEntity
  8
IMPORT_IGES
100
AcDbLine
 62
7
  6
CONTINUOUS
 10
-66.9645173042
 20
4.9031290204
 30
0.0
 11
-66.9645173042
 21
-4.6031290204
 31
0.0
  0
LINE
  5
402
100
AcDbEntity
  8
ASSI
100
AcDbLine
 62
7
  6
CONTINUOUS
 10
-66.9645173042
 20
4.9031290204
 30
0.0
 11
-66.9645173042
 21
-4.6031290204
 31
0.0
  0
LINE
  5
403
100
AcDbEntity
  8
0
100
AcDbLine
 62
250
  6
CONTINUOUS
 10
-66.957181509
 20
11.2117237174
 30
0.0
 11
-66.957181509
 21
11.3117237174
 31
0.0
  0
LINE
  5
404
100
AcDbEntity
  8
0
100
AcDbLine
 62
250
  6
CONTINUOUS
 10
-66.8746084093
 20
11.2117237174
 30
0.0
 11
-66.8746084093
 21
11.3117237174
 31
0.0
  0
LINE
  5
405
100
AcDbEntity
  8
0
100
AcDbLine
 62
7
  6
CONTINUOUS
 10
-66.8069451576
 20
11.2117237174
 30
0.0
 11
-66.8069451576
 21
11.3117237174
 31
0.0
  0
LINE
  5
406
100
AcDbEntity
  8
0
100
AcDbLine
 62
7
  6
CONTINUOUS
 10
-66.7862398074
 20
11.2117237174
 30
0.0
 11
-66.7862398074
 21
11.3117237174
 31
0.0
  0
LINE
  5
407
100
AcDbEntity
  8
ASSI
100
AcDbLine
 62
250
  6
CONTINUOUS
 10
-66.7645173042
 20
-4.6031290204
 30
0.0
 11
-66.7645173042
 21
4.9031290204
 31
0.0
  0
LINE
  5
408
100
AcDbEntity
  8
0
100
AcDbLine
 62
250
  6
CONTINUOUS
 10
-66.6813335522
 20
11.2117237174
 30
0.0
 11
-66.6813335522
 21
11.3117237174
 31
0.0
  0
LINE
  5
409
100
AcDbEntity
  8
0
100
AcDbLine
 62
7
  6
CONTINUOUS
 10
-66.658309983
 20
11.2117237174
 30
0.0
 11
-66.658309983
 21
11.3117237174
 31
0.0
  0
LINE
  5
40A
100
AcDbEntity
  8
0
100
AcDbLine
 62
7
  6
CONTINUOUS
 10
-66.3810255736
 20
11.2117237174
 30
0.0
 11
-66.3810255736
 21
11.3117237174
 31
0.0
  0
LINE
  5
40B
100
AcDbEntity
  8
0
100
AcDbLine
 62
7
  6
CONTINUOUS
 10
-66.3691707439
 20
11.2117237174
 30
0.0
 11
-66.3691707439
 21
11.3117237174
 31
0.0
  0
LINE
  5
40C
100
AcDbEntity
  8
0
100
AcDbLine
 62
7
  6
CONTINUOUS
 10
-66.1727210679
 20
11.2117237174
 30
0.0
 11
-66.1727210679
 21
11.3117237174
 31
0.0
  0
LINE
  5
40D
100
AcDbEntity
  8
0
100
AcDbLine
 62
250
  6
CONTINUOUS
 10
-66.1224813681
 20
11.2117237174
 30
0.0
 11
-66.1224813681
 21
11.3117237174
 31
0.0
  0
LINE
  5
40E
100
AcDbEntity
  8
0
100
AcDbLine
 62
7
  6
CONTINUOUS
 10
-66.0282844968
 20
11.2117237174
 30
0.0
 11
-66.0282844968
 21
11.3117237174
 31
0.0
  0
LINE
  5
40F
100
AcDbEntity
  8
0
100
AcDbLine
 62
7
  6
CONTINUOUS
 10
-66.0036478392
 20
11.2117237174
 30
0.0
 11
-66.0036478392
 21
11.3117237174
 31
0.0
  0
LINE
  5
410
100
AcDbEntity
  8
0
100
AcDbLine
 62
7
  6
CONTINUOUS
 10
-65.9606260996
 20
11.2117237174
 30
0.0
 11
-65.9606260996
 21
11.3117237174
 31
0.0
  0
LINE
  5
411
100
AcDbEntity
  8
IMPORT_IGES
100
AcDbLine
 62
250
  6
CONTINUOUS
 10
-65.6294149707
 20
6.0
 30
0.0
 11
-65.6294149707
 21
5.8
 31
0.0
  0
LINE
  5
412
100
AcDbEntity
  8
IMPORT_IGES
100
AcDbLine
 62
250
  6
CONTINUOUS
 10
-65.6294149707
 20
-5.5
 30
0.0
 11
-65.6294149707
 21
-5.7
 31
0.0
  0
LINE
  5
413
100
AcDbEntity
  8
0
100
AcDbLine
 62
7
  6
CONTINUOUS
 10
-65.3621889955
 20
11.2117237174
 30
0.0
 11
-65.3621889955
 21
11.3117237174
 31
0.0
  0
LINE
  5
414
100
AcDbEntity
  8
0
100
AcDbLine
 62
7
  6
CONTINUOUS
 10
-65.2787569797
 20
11.2117237174
 30
0.0
 11
-65.2787569797
 21
11.3117237174
 31
0.0
  0
LINE
  5
415
100
AcDbEntity
  8
0
100
AcDbLine
 62
7
  6
CONTINUOUS
 10
-65.260666315
 20
11.2117237174
 30
0.0
 11
-65.260666315
 21
11.3117237174
 31
0.0
  0
LINE
  5
416
100
AcDbEntity
  8
0
100
AcDbLine
 62
7
  6
CONTINUOUS
 10
-65.1894283503
 20
11.2117237174
 30
0.0
 11
-65.1894283503
 21
11.3117237174
 31
0.0
  0
LINE
  5
417
100
AcDbEntity
  8
0
100
AcDbLine
 62
7
  6
CONTINUOUS
 10
-65.1282183736
 20
11.2117237174
 30
0.0
 11
-65.1282183736
 21
11.3117237174
 31
0.0
  0
LINE
  5
418
100
AcDbEntity
  8
0
100
AcDbLine
 62
7
  6
CONTINUOUS
 10
-65.0735682057
 20
11.3117237174
 30
0.0
 11
-65.0735682057
 21
11.2117237174
 31
0.0
  0
LINE
  5
419
100
AcDbEntity
  8
0
100
AcDbLine
 62
250
  6
CONTINUOUS
 10
-65.0721668363
 20
11.2117237174
 30
0.0
 11
-65.0721668363
 21
11.3117237174
 31
0.0
  0
LINE
  5
41A
100
AcDbEntity
  8
0
100
AcDbLine
 62
7
  6
CONTINUOUS
 10
-65.0648457804
 20
11.2117237174
 30
0.0
 11
-65.0648457804
 21
11.3117237174
 31
0.0
  0
LINE
  5
41B
100
AcDbEntity
  8
IMPORT_IGES
100
AcDbLine
 62
7
  6
CONTINUOUS
 10
-39.9145173042
 20
-7.481099574
 30
0.0
 11
-39.3145173043
 21
-7.481099574
 31
0.0
  0
LINE
  5
41C
100
AcDbEntity
  8
IMPORT_IGES
100
AcDbLine
 62
250
  6
CONTINUOUS
 10
-39.3145173042
 20
-6.601034697
 30
0.0
 11
-39.9145173042
 21
-6.601034697
 31
0.0
  0
LINE
  5
41D
100
AcDbEntity
  8
IMPORT_IGES
100
AcDbLine
 62
7
  6
CONTINUOUS
 10
-45.0447754507
 20
-6.4018989274
 30
0.0
 11
-43.2645171429
 21
-6.4019021835
 31
0.0
  0
LINE
  5
41E
100
AcDbEntity
  8
IMPORT_IGES
100
AcDbLine
 62
7
  6
CONTINUOUS
 10
-42.9645173042
 20
-6.1502977476
 30
0.0
 11
-40.3145173042
 21
-6.1502977476
 31
0.0
  0
LINE
  5
41F
100
AcDbEntity
  8
IMPORT_IGES
100
AcDbLine
 62
7
  6
CONTINUOUS
 10
-67.0145173042
 20
-7.8780087621
 30
0.0
 11
-65.1899725183
 21
-7.8843776507
 31
0.0
  0
LINE
  5
420
100
AcDbEntity
  8
IMPORT_IGES
100
AcDbLine
 62
250
  6
CONTINUOUS
 10
-65.1111000035
 20
-7.5846547966
 30
0.0
 11
-67.0145173042
 21
-7.5780105898
 31
0.0
  0
LINE
  5
421
100
AcDbEntity
  8
RACCORDO
100
AcDbLine
 62
7
  6
CONTINUOUS
 10
-68.4145173042
 20
-7.9776691233
 30
0.0
 11
-67.0145173042
 21
-7.9898867382
 31
0.0
  0
LINE
  5
422
100
AcDbEntity
  8
RACCORDO
100
AcDbLine
 62
7
  6
CONTINUOUS
 10
-68.4145173042
 20
-5.9776691233
 30
0.0
 11
-67.3118993436
 21
-5.9872915245
 31
0.0
  0
LINE
  5
423
100
AcDbEntity
  8
0
100
AcDbLine
 62
7
  6
CONTINUOUS
 10
-65.0027959705
 20
11.2117237174
 30
0.0
 11
-65.0027959705
 21
11.3117237174
 31
0.0
  0
LINE
  5
424
100
AcDbEntity
  8
0
100
AcDbLine
 62
7
  6
CONTINUOUS
 10
-64.9747545249
 20
11.2117237174
 30
0.0
 11
-64.9747545249
 21
11.3117237174
 31
0.0
  0
LINE
  5
425
100
AcDbEntity
  8
0
100
AcDbLine
 62
250
  6
CONTINUOUS
 10
-64.9660991091
 20
11.2117237174
 30
0.0
 11
-64.9660991091
 21
11.3117237174
 31
0.0
  0
LINE
  5
426
100
AcDbEntity
  8
0
100
AcDbLine
 62
250
  6
CONTINUOUS
 10
-64.9464309172
 20
11.2117237174
 30
0.0
 11
-64.9464309172
 21
11.3117237174
 31
0.0
  0
LINE
  5
427
100
AcDbEntity
  8
0
100
AcDbLine
 62
250
  6
CONTINUOUS
 10
-64.8846830569
 20
11.2117237174
 30
0.0
 11
-64.8846830569
 21
11.3117237174
 31
0.0
  0
LINE
  5
428
100
AcDbEntity
  8
0
100
AcDbLine
 62
250
  6
CONTINUOUS
 10
-64.7751645892
 20
11.2117237174
 30
0.0
 11
-64.7751645892
 21
11.3117237174
 31
0.0
  0
LINE
  5
429
100
AcDbEntity
  8
0
100
AcDbLine
 62
250
  6
CONTINUOUS
 10
-64.6073868777
 20
11.2117237174
 30
0.0
 11
-64.6073868777
 21
11.3117237174
 31
0.0
  0
LINE
  5
42A
100
AcDbEntity
  8
0
100
AcDbLine
 62
7
  6
CONTINUOUS
 10
-64.5525234012
 20
11.2117237174
 30
0.0
 11
-64.5525234012
 21
11.3117237174
 31
0.0
  0
LINE
  5
42B
100
AcDbEntity
  8
0
100
AcDbLine
 62
7
  6
CONTINUOUS
 10
-64.5223459605
 20
11.2117237174
 30
0.0
 11
-64.5223459605
 21
11.3117237174
 31
0.0
  0
LINE
  5
42C
100
AcDbEntity
  8
0
100
AcDbLine
 62
7
  6
CONTINUOUS
 10
-64.4600329186
 20
11.2117237174
 30
0.0
 11
-64.4600329186
 21
11.3117237174
 31
0.0
  0
LINE
  5
42D
100
AcDbEntity
  8
0
100
AcDbLine
 62
7
  6
CONTINUOUS
 10
-64.4345765115
 20
11.2117237174
 30
0.0
 11
-64.4345765115
 21
11.3117237174
 31
0.0
  0
LINE
  5
42E
100
AcDbEntity
  8
0
100
AcDbLine
 62
250
  6
CONTINUOUS
 10
-64.3423961768
 20
11.2117237174
 30
0.0
 11
-64.3423961768
 21
11.3117237174
 31
0.0
  0
LINE
  5
42F
100
AcDbEntity
  8
0
100
AcDbLine
 62
7
  6
CONTINUOUS
 10
-64.2765086119
 20
11.2117237174
 30
0.0
 11
-64.2765086119
 21
11.3117237174
 31
0.0
  0
LINE
  5
430
100
AcDbEntity
  8
IMPORT_IGES
100
AcDbLine
 62
7
  6
CONTINUOUS
 10
-64.2145173042
 20
-2.2
 30
0.0
 11
-64.2145173042
 21
2.5
 31
0.0
  0
LINE
  5
431
100
AcDbEntity
  8
0
100
AcDbLine
 62
7
  6
CONTINUOUS
 10
-64.1145423214
 20
11.2117237174
 30
0.0
 11
-64.1145423214
 21
11.3117237174
 31
0.0
  0
LINE
  5
432
100
AcDbEntity
  8
0
100
AcDbLine
 62
7
  6
CONTINUOUS
 10
-64.1040118454
 20
11.2117237174
 30
0.0
 11
-64.1040118454
 21
11.3117237174
 31
0.0
  0
LINE
  5
433
100
AcDbEntity
  8
IMPORT_IGES
100
AcDbLine
 62
7
  6
CONTINUOUS
 10
-64.0645173042
 20
2.4023764963
 30
0.0
 11
-64.0645173042
 21
-2.1789290622
 31
0.0
  0
LINE
  5
434
100
AcDbEntity
  8
IMPORT_IGES
100
AcDbLine
 62
250
  6
CONTINUOUS
 10
-63.9045173042
 20
-2.1817218726
 30
0.0
 11
-63.9045173042
 21
2.4051693067
 31
0.0
  0
LINE
  5
435
100
AcDbEntity
  8
0
100
AcDbLine
 62
7
  6
CONTINUOUS
 10
-63.8175005247
 20
11.2117237174
 30
0.0
 11
-63.8175005247
 21
11.3117237174
 31
0.0
  0
LINE
  5
436
100
AcDbEntity
  8
0
100
AcDbLine
 62
250
  6
CONTINUOUS
 10
-63.7446421347
 20
11.2117237174
 30
0.0
 11
-63.7446421347
 21
11.3117237174
 31
0.0
  0
LINE
  5
437
100
AcDbEntity
  8
0
100
AcDbLine
 62
7
  6
CONTINUOUS
 10
-63.4998166265
 20
11.2117237174
 30
0.0
 11
-63.4998166265
 21
11.3117237174
 31
0.0
  0
LINE
  5
438
100
AcDbEntity
  8
0
100
AcDbLine
 62
7
  6
CONTINUOUS
 10
-63.4840626655
 20
11.2117237174
 30
0.0
 11
-63.4840626655
 21
11.3117237174
 31
0.0
  0
LINE
  5
439
100
AcDbEntity
  8
IMPORT_IGES
100
AcDbLine
 62
7
  6
CONTINUOUS
 10
-63.4645173042
 20
-5.7
 30
0.0
 11
-63.4645173042
 21
-3.2759794687
 31
0.0
  0
LINE
  5
43A
100
AcDbEntity
  8
IMPORT_IGES
100
AcDbLine
 62
7
  6
CONTINUOUS
 10
-63.4645173042
 20
3.5759794687
 30
0.0
 11
-63.4645173042
 21
6.0
 31
0.0
  0
LINE
  5
43B
100
AcDbEntity
  8
IMPORT_IGES
100
AcDbLine
 62
7
  6
CONTINUOUS
 10
-63.4145173042
 20
8.2928937005
 30
0.0
 11
-63.4145173042
 21
3.7948571136
 31
0.0
  0
LINE
  5
43C
100
AcDbEntity
  8
IMPORT_IGES
100
AcDbLine
 62
7
  6
CONTINUOUS
 10
-63.4145173042
 20
-3.4683371079
 30
0.0
 11
-63.4145173042
 21
-8.7357372121
 31
0.0
  0
LINE
  5
43D
100
AcDbEntity
  8
IMPORT_IGES
100
AcDbLine
 62
7
  6
CONTINUOUS
 10
-63.3145173042
 20
-2.1920203609
 30
0.0
 11
-63.3145173042
 21
2.415467795
 31
0.0
  0
LINE
  5
43E
100
AcDbEntity
  8
0
100
AcDbLine
 62
7
  6
CONTINUOUS
 10
-63.2432343499
 20
11.2117237174
 30
0.0
 11
-63.2432343499
 21
11.3117237174
 31
0.0
  0
LINE
  5
43F
100
AcDbEntity
  8
IMPORT_IGES
100
AcDbLine
 62
250
  6
CONTINUOUS
 10
-63.114517215
 20
3.8000928356
 30
0.0
 11
-63.1145170215
 21
8.2981289408
 31
0.0
  0
LINE
  5
440
100
AcDbEntity
  8
IMPORT_IGES
100
AcDbLine
 62
250
  6
CONTINUOUS
 10
-63.1145173042
 20
-3.4735728303
 30
0.0
 11
-63.1145173042
 21
-8.7409729341
 31
0.0
  0
LINE
  5
441
100
AcDbEntity
  8
0
100
AcDbLine
 62
250
  6
CONTINUOUS
 10
-63.1028146072
 20
11.2117237174
 30
0.0
 11
-63.1028146072
 21
11.3117237174
 31
0.0
  0
LINE
  5
442
100
AcDbEntity
  8
0
100
AcDbLine
 62
7
  6
CONTINUOUS
 10
-63.0690073785
 20
11.2117237174
 30
0.0
 11
-63.0690073785
 21
11.3117237174
 31
0.0
  0
LINE
  5
443
100
AcDbEntity
  8
0
100
AcDbLine
 62
7
  6
CONTINUOUS
 10
-63.0487003072
 20
11.2117237174
 30
0.0
 11
-63.0487003072
 21
11.3117237174
 31
0.0
  0
LWPOLYLINE
  5
444
100
AcDbEntity
  8
0
100
AcDbPolyline
 62
7
  6
CONTINUOUS
 90
3
 70
0
 43
0.3500000006
 10
-52.6216602173
 20
33.5357164307
 10
-52.6930868683
 20
33.3214274139
 10
-52.8359447021
 20
33.0357162781
  0
LINE
  5
445
100
AcDbEntity
  8
IMPORT_IGES
100
AcDbLine
 62
7
  6
CONTINUOUS
 10
-65.6294149707
 20
-5.7
 30
0.0
 11
-63.4645173042
 21
-5.7
 31
0.0
  0
LINE
  5
446
100
AcDbEntity
  8
IMPORT_IGES
100
AcDbLine
 62
250
  6
CONTINUOUS
 10
-63.4645173042
 20
-5.5
 30
0.0
 11
-65.6294149707
 21
-5.5
 31
0.0
  0
LINE
  5
447
100
AcDbEntity
  8
IMPORT_IGES
100
AcDbLine
 62
250
  6
CONTINUOUS
 10
-40.3145173042
 20
-5.1391742633
 30
0.0
 11
-42.9645173042
 21
-5.1391742738
 31
0.0
  0
LINE
  5
448
100
AcDbEntity
  8
IMPORT_IGES
100
AcDbLine
 62
250
  6
CONTINUOUS
 10
-66.9645173042
 20
-4.6031290204
 30
0.0
 11
-66.7645173042
 21
-4.6031290204
 31
0.0
  0
LINE
  5
449
100
AcDbEntity
  8
IMPORT_IGES
100
AcDbLine
 62
7
  6
CONTINUOUS
 10
-62.9145173042
 20
2.5656164976
 30
0.0
 11
-62.9145173042
 21
-2.2656164976
 31
0.0
  0
LINE
  5
44A
100
AcDbEntity
  8
0
100
AcDbLine
 62
7
  6
CONTINUOUS
 10
-62.9120802703
 20
11.2117237174
 30
0.0
 11
-62.9120802703
 21
11.3117237174
 31
0.0
  0
LINE
  5
44B
100
AcDbEntity
  8
0
100
AcDbLine
 62
7
  6
CONTINUOUS
 10
-62.695434001
 20
11.2117237174
 30
0.0
 11
-62.695434001
 21
11.3117237174
 31
0.0
  0
LINE
  5
44C
100
AcDbEntity
  8
0
100
AcDbLine
 62
7
  6
CONTINUOUS
 10
-62.6823375251
 20
11.2117237174
 30
0.0
 11
-62.6823375251
 21
11.3117237174
 31
0.0
  0
LINE
  5
44D
100
AcDbEntity
  8
0
100
AcDbLine
 62
250
  6
CONTINUOUS
 10
-62.5708246809
 20
11.2117237174
 30
0.0
 11
-62.5708246809
 21
11.3117237174
 31
0.0
  0
LINE
  5
44E
100
AcDbEntity
  8
0
100
AcDbLine
 62
250
  6
CONTINUOUS
 10
-62.439289575
 20
11.2117237174
 30
0.0
 11
-62.439289575
 21
11.3117237174
 31
0.0
  0
LINE
  5
44F
100
AcDbEntity
  8
0
100
AcDbLine
 62
7
  6
CONTINUOUS
 10
-62.4293593478
 20
11.2117237174
 30
0.0
 11
-62.4293593478
 21
11.3117237174
 31
0.0
  0
LINE
  5
450
100
AcDbEntity
  8
ASSI
100
AcDbLine
 62
250
  6
CONTINUOUS
 10
-61.8399974775
 20
-22.3338981669
 30
0.0
 11
-61.8399974775
 21
-23.7507734247
 31
0.0
  0
LINE
  5
451
100
AcDbEntity
  8
ASSI
100
AcDbLine
 62
250
  6
CONTINUOUS
 10
-61.8399974775
 20
22.3338981669
 30
0.0
 11
-61.8399974775
 21
23.7507734247
 31
0.0
  0
LINE
  5
452
100
AcDbEntity
  8
IMPORT_IGES
100
AcDbLine
 62
250
  6
CONTINUOUS
 10
-61.7574106096
 20
9.95
 30
0.0
 11
-61.7574105253
 21
9.6552348775
 31
0.0
  0
LINE
  5
453
100
AcDbEntity
  8
IMPORT_IGES
100
AcDbLine
 62
7
  6
CONTINUOUS
 10
-61.7145173042
 20
2.6052365604
 30
0.0
 11
-61.7145173042
 21
-2.3150004114
 31
0.0
  0
LINE
  5
454
100
AcDbEntity
  8
IMPORT_IGES
100
AcDbLine
 62
250
  6
CONTINUOUS
 10
-61.6561579172
 20
-9.7843758577
 30
0.0
 11
-61.6561579154
 21
-9.5774802551
 31
0.0
  0
LINE
  5
455
100
AcDbEntity
  8
IMPORT_IGES
100
AcDbLine
 62
250
  6
CONTINUOUS
 10
-61.4145173042
 20
2.7800928356
 30
0.0
 11
-61.4145173042
 21
0.055
 31
0.0
  0
LINE
  5
456
100
AcDbEntity
  8
IMPORT_IGES
100
AcDbLine
 62
250
  6
CONTINUOUS
 10
-61.4145173042
 20
-0.045
 30
0.0
 11
-61.4145173042
 21
-2.4935728303
 31
0.0
  0
LINE
  5
457
100
AcDbEntity
  8
RACCORDO
100
AcDbLine
 62
7
  6
CONTINUOUS
 10
-61.4145173042
 20
-22.330195412
 30
0.0
 11
-61.4145173042
 21
-23.2563578147
 31
0.0
  0
LINE
  5
458
100
AcDbEntity
  8
RACCORDO
100
AcDbLine
 62
7
  6
CONTINUOUS
 10
-61.4145173042
 20
22.330195412
 30
0.0
 11
-61.4145173042
 21
23.2563578147
 31
0.0
  0
LINE
  5
459
100
AcDbEntity
  8
0
100
AcDbLine
 62
7
  6
CONTINUOUS
 10
-61.3645173042
 20
11.2117237174
 30
0.0
 11
-61.3645173042
 21
11.3117237174
 31
0.0
  0
LINE
  5
45A
100
AcDbEntity
  8
0
100
AcDbLine
 62
250
  6
CONTINUOUS
 10
-61.2423820842
 20
11.2117237174
 30
0.0
 11
-61.2423820842
 21
11.3117237174
 31
0.0
  0
LINE
  5
45B
100
AcDbEntity
  8
0
100
AcDbLine
 62
250
  6
CONTINUOUS
 10
-60.9468660324
 20
11.2117237174
 30
0.0
 11
-60.9468660324
 21
11.3117237174
 31
0.0
  0
LINE
  5
45C
100
AcDbEntity
  8
IMPORT_IGES
100
AcDbLine
 62
7
  6
CONTINUOUS
 10
-57.1795815698
 20
10.8913945178
 30
0.0
 11
-57.7236275322
 21
9.9490802462
 31
0.0
  0
LINE
  5
45D
100
AcDbEntity
  8
IMPORT_IGES
100
AcDbLine
 62
250
  6
CONTINUOUS
 10
-66.7645173042
 20
-4.6031290204
 30
0.0
 11
-66.8885089678
 21
-4.7600559695
 31
0.0
  0
LINE
  5
45E
100
AcDbEntity
  8
IMPORT_IGES
100
AcDbLine
 62
250
  6
CONTINUOUS
 10
-42.9645173042
 20
-3.8919551343
 30
0.0
 11
-40.1145173043
 21
-3.8919551344
 31
0.0
  0
LINE
  5
45F
100
AcDbEntity
  8
IMPORT_IGES
100
AcDbLine
 62
250
  6
CONTINUOUS
 10
-39.9145173042
 20
-3.7922589292
 30
0.0
 11
-39.3145173042
 21
-3.7922589293
 31
0.0
  0
LINE
  5
460
100
AcDbEntity
  8
IMPORT_IGES
100
AcDbLine
 62
250
  6
CONTINUOUS
 10
-40.1225536113
 20
-3.3132052805
 30
0.0
 11
-42.9645173042
 21
-3.3132052804
 31
0.0
  0
LINE
  5
461
100
AcDbEntity
  8
IMPORT_IGES
100
AcDbLine
 62
7
  6
CONTINUOUS
 10
-39.3145173042
 20
-3.1132052805
 30
0.0
 11
-42.9333027762
 21
-3.1132052805
 31
0.0
  0
LINE
  5
462
100
AcDbEntity
  8
IMPORT_IGES
100
AcDbLine
 62
7
  6
CONTINUOUS
 10
-42.6645173042
 20
-2.945
 30
0.0
 11
-39.4145173042
 21
-2.945
 31
0.0
  0
LINE
  5
463
100
AcDbEntity
  8
IMPORT_IGES
100
AcDbLine
 62
7
  6
CONTINUOUS
 10
-62.9145173042
 20
-2.2656164976
 30
0.0
 11
-63.4645173042
 21
-2.2656164976
 31
0.0
  0
LINE
  5
464
100
AcDbEntity
  8
IMPORT_IGES
100
AcDbLine
 62
250
  6
CONTINUOUS
 10
-42.9645173043
 20
-1.945
 30
0.0
 11
-39.1145173042
 21
-1.945
 31
0.0
  0
LINE
  5
465
100
AcDbEntity
  8
IMPORT_IGES
100
AcDbLine
 62
7
  6
CONTINUOUS
 10
-64.0645173042
 20
-1.8876514453
 30
0.0
 11
-64.2145173042
 21
-1.8876514453
 31
0.0
  0
LINE
  5
466
100
AcDbEntity
  8
IMPORT_IGES
100
AcDbLine
 62
7
  6
CONTINUOUS
 10
-62.9145173042
 20
-2.1990023869
 30
0.0
 11
-64.0645173042
 21
-2.1789290622
 31
0.0
  0
LINE
  5
467
100
AcDbEntity
  8
IMPORT_IGES
100
AcDbLine
 62
7
  6
CONTINUOUS
 10
-64.2145173042
 20
-2.2
 30
0.0
 11
-63.4645173042
 21
-2.2656164976
 31
0.0
  0
LINE
  5
468
100
AcDbEntity
  8
IMPORT_IGES
100
AcDbLine
 62
7
  6
CONTINUOUS
 10
-64.2145173042
 20
-1.3855933529
 30
0.0
 11
-64.0645173042
 21
-1.4590497836
 31
0.0
  0
LINE
  5
469
100
AcDbEntity
  8
IMPORT_IGES
100
AcDbLine
 62
250
  6
CONTINUOUS
 10
-66.8885089678
 20
5.0600559695
 30
0.0
 11
-66.7645173042
 21
4.9031290204
 31
0.0
  0
LINE
  5
46A
100
AcDbEntity
  8
0
100
AcDbLine
 62
250
  6
CONTINUOUS
 10
-60.6870276746
 20
11.2117237174
 30
0.0
 11
-60.6870276746
 21
11.3117237174
 31
0.0
  0
LINE
  5
46B
100
AcDbEntity
  8
0
100
AcDbLine
 62
7
  6
CONTINUOUS
 10
-60.5890013068
 20
11.2117237174
 30
0.0
 11
-60.5890013068
 21
11.3117237174
 31
0.0
  0
LINE
  5
46C
100
AcDbEntity
  8
0
100
AcDbLine
 62
250
  6
CONTINUOUS
 10
-60.3532717555
 20
11.2117237174
 30
0.0
 11
-60.3532717555
 21
11.3117237174
 31
0.0
  0
LINE
  5
46D
100
AcDbEntity
  8
0
100
AcDbLine
 62
7
  6
CONTINUOUS
 10
-60.184161432
 20
11.2117237174
 30
0.0
 11
-60.184161432
 21
11.3117237174
 31
0.0
  0
LINE
  5
46E
100
AcDbEntity
  8
0
100
AcDbLine
 62
7
  6
CONTINUOUS
 10
-60.1457272678
 20
11.2117237174
 30
0.0
 11
-60.1457272678
 21
11.3117237174
 31
0.0
  0
LINE
  5
46F
100
AcDbEntity
  8
RACCORDO
100
AcDbLine
 62
250
  6
CONTINUOUS
 10
-58.905791101
 20
21.5659754333
 30
0.0
 11
-58.905791101
 21
20.9917082642
 31
0.0
  0
LINE
  5
470
100
AcDbEntity
  8
RACCORDO
100
AcDbLine
 62
250
  6
CONTINUOUS
 10
-58.905791101
 20
-20.9917082642
 30
0.0
 11
-58.905791101
 21
-21.5659754333
 31
0.0
  0
LINE
  5
471
100
AcDbEntity
  8
IMPORT_IGES
100
AcDbLine
 62
250
  6
CONTINUOUS
 10
-65.7534066342
 20
-5.6569269492
 30
0.0
 11
-65.6294149707
 21
-5.5
 31
0.0
  0
LINE
  5
472
100
AcDbEntity
  8
RACCORDO
100
AcDbLine
 62
7
  6
CONTINUOUS
 10
-67.0145173042
 20
-0.4101132618
 30
0.0
 11
-68.4145173042
 21
-0.4223308767
 31
0.0
  0
LINE
  5
473
100
AcDbEntity
  8
IMPORT_IGES
100
AcDbLine
 62
250
  6
CONTINUOUS
 10
-42.9645173043
 20
-0.545
 30
0.0
 11
-40.6645173042
 21
-0.545
 31
0.0
  0
LINE
  5
474
100
AcDbEntity
  8
IMPORT_IGES
100
AcDbLine
 62
7
  6
CONTINUOUS
 10
-46.7145173042
 20
-0.345
 30
0.0
 11
-46.8545173042
 21
-0.345
 31
0.0
  0
LINE
  5
475
100
AcDbEntity
  8
0
100
AcDbLine
 62
7
  6
CONTINUOUS
 10
-64.2145173042
 20
-0.3
 30
0.0
 11
-64.0645173042
 21
-0.3
 31
0.0
  0
LINE
  5
476
100
AcDbEntity
  8
IMPORT_IGES
100
AcDbLine
 62
7
  6
CONTINUOUS
 10
-47.1545173042
 20
-0.045
 30
0.0
 11
-61.7145173042
 21
-0.045
 31
0.0
  0
LINE
  5
477
100
AcDbEntity
  8
IMPORT_IGES
100
AcDbLine
 62
7
  6
CONTINUOUS
 10
-61.7145173042
 20
0.055
 30
0.0
 11
-43.2645171429
 21
0.055
 31
0.0
  0
LINE
  5
478
100
AcDbEntity
  8
IMPORT_IGES
100
AcDbLine
 62
7
  6
CONTINUOUS
 10
-40.6645173042
 20
0.055
 30
0.0
 11
-42.6660536857
 21
0.055
 31
0.0
  0
LINE
  5
479
100
AcDbEntity
  8
0
100
AcDbLine
 62
7
  6
CONTINUOUS
 10
-64.0645173042
 20
0.2
 30
0.0
 11
-64.2145173042
 21
0.2
 31
0.0
  0
LINE
  5
47A
100
AcDbEntity
  8
IMPORT_IGES
100
AcDbLine
 62
250
  6
CONTINUOUS
 10
-48.1049518536
 20
-10.6666722318
 30
0.0
 11
-47.968070695
 21
-10.8035533907
 31
0.0
  0
LINE
  5
47B
100
AcDbEntity
  8
IMPORT_IGES
100
AcDbLine
 62
250
  6
CONTINUOUS
 10
-65.6294149707
 20
5.8
 30
0.0
 11
-65.7534066342
 21
5.9569269492
 31
0.0
  0
LINE
  5
47C
100
AcDbEntity
  8
RACCORDO
100
AcDbLine
 62
7
  6
CONTINUOUS
 10
-58.4145173042
 20
-19.6808012501
 30
0.0
 11
-58.4145173042
 21
-21.3126932437
 31
0.0
  0
LINE
  5
47D
100
AcDbEntity
  8
RACCORDO
100
AcDbLine
 62
7
  6
CONTINUOUS
 10
-58.4145173042
 20
19.6808012501
 30
0.0
 11
-58.4145173042
 21
21.3126932437
 31
0.0
  0
LWPOLYLINE
  5
47E
100
AcDbEntity
  8
0
100
AcDbPolyline
 62
7
  6
CONTINUOUS
 90
4
 70
0
 43
0.3500000006
 10
-57.0859459991
 20
43.6785727844
 10
-57.0859459991
 20
44.5357152557
 10
-56.6573724976
 20
44.9642842255
 10
-56.014519043
 20
44.9642842255
  0
LINE
  5
47F
100
AcDbEntity
  8
IMPORT_IGES
100
AcDbLine
 62
7
  6
CONTINUOUS
 10
-61.7145173042
 20
-2.2656164976
 30
0.0
 11
-63.4645173042
 21
-3.2759794687
 31
0.0
  0
LINE
  5
480
100
AcDbEntity
  8
IMPORT_IGES
100
AcDbLine
 62
7
  6
CONTINUOUS
 10
-61.7145173044
 20
-2.3149999997
 30
0.0
 11
-63.2643457956
 21
-3.2084305417
 31
0.0
  0
LINE
  5
481
100
AcDbEntity
  8
IMPORT_IGES
100
AcDbLine
 62
250
  6
CONTINUOUS
 10
-63.1145173042
 20
-3.4735728303
 30
0.0
 11
-61.4145173042
 21
-2.4935728303
 31
0.0
  0
LINE
  5
482
100
AcDbEntity
  8
IMPORT_IGES
100
AcDbLine
 62
250
  6
CONTINUOUS
 10
-39.1145173042
 20
0.455
 30
0.0
 11
-40.1645173042
 21
0.4550000001
 31
0.0
  0
LINE
  5
483
100
AcDbEntity
  8
IMPORT_IGES
100
AcDbLine
 62
7
  6
CONTINUOUS
 10
-40.1645173042
 20
1.055
 30
0.0
 11
-39.4145173042
 21
1.055
 31
0.0
  0
LINE
  5
484
100
AcDbEntity
  8
RACCORDO
100
AcDbLine
 62
7
  6
CONTINUOUS
 10
-68.4145173042
 20
0.4223308767
 30
0.0
 11
-67.0145173042
 21
0.4101132618
 31
0.0
  0
LINE
  5
485
100
AcDbEntity
  8
IMPORT_IGES
100
AcDbLine
 62
7
  6
CONTINUOUS
 10
-63.4645173042
 20
3.5759794687
 30
0.0
 11
-61.7145173042
 21
2.5656164976
 31
0.0
  0
LINE
  5
486
100
AcDbEntity
  8
IMPORT_IGES
100
AcDbLine
 62
7
  6
CONTINUOUS
 10
-63.2688660309
 20
3.537609236
 30
0.0
 11
-61.7145186132
 21
2.6050007854
 31
0.0
  0
LINE
  5
487
100
AcDbEntity
  8
IMPORT_IGES
100
AcDbLine
 62
250
  6
CONTINUOUS
 10
-61.4145173042
 20
2.7800928356
 30
0.0
 11
-63.114517215
 21
3.8000928356
 31
0.0
  0
LINE
  5
488
100
AcDbEntity
  8
IMPORT_IGES
100
AcDbLine
 62
7
  6
CONTINUOUS
 10
-55.8130129649
 20
-10.95
 30
0.0
 11
-55.8130129649
 21
-11.15
 31
0.0
  0
LINE
  5
489
100
AcDbEntity
  8
IMPORT_IGES
100
AcDbLine
 62
250
  6
CONTINUOUS
 10
-55.7106870372
 20
-11.15
 30
0.0
 11
-55.7106871193
 21
-10.95
 31
0.0
  0
LINE
  5
48A
100
AcDbEntity
  8
IMPORT_IGES
100
AcDbLine
 62
7
  6
CONTINUOUS
 10
-54.8227895
 20
11.15
 30
0.0
 11
-54.8227895
 21
10.95
 31
0.0
  0
LINE
  5
48B
100
AcDbEntity
  8
IMPORT_IGES
100
AcDbLine
 62
7
  6
CONTINUOUS
 10
-54.7772973042
 20
11.15
 30
0.0
 11
-54.7772973042
 21
10.95
 31
0.0
  0
LINE
  5
48C
100
AcDbEntity
  8
IMPORT_IGES
100
AcDbLine
 62
7
  6
CONTINUOUS
 10
-63.4645173042
 20
2.5656164976
 30
0.0
 11
-64.2145173042
 21
2.5
 31
0.0
  0
LINE
  5
48D
100
AcDbEntity
  8
IMPORT_IGES
100
AcDbLine
 62
7
  6
CONTINUOUS
 10
-64.0645173042
 20
2.4023764963
 30
0.0
 11
-62.9145173042
 21
2.4224498209
 31
0.0
  0
LINE
  5
48E
100
AcDbEntity
  8
IMPORT_IGES
100
AcDbLine
 62
7
  6
CONTINUOUS
 10
-63.4645173042
 20
2.5656164976
 30
0.0
 11
-62.9145173042
 21
2.5656164976
 31
0.0
  0
LINE
  5
48F
100
AcDbEntity
  8
IMPORT_IGES
100
AcDbLine
 62
7
  6
CONTINUOUS
 10
-54.1955880314
 20
-11.15
 30
0.0
 11
-54.1955880314
 21
-10.95
 31
0.0
  0
LINE
  5
490
100
AcDbEntity
  8
IMPORT_IGES
100
AcDbLine
 62
7
  6
CONTINUOUS
 10
-54.1778314381
 20
-11.15
 30
0.0
 11
-54.1778246232
 21
-10.95
 31
0.0
  0
LINE
  5
491
100
AcDbEntity
  8
IMPORT_IGES
100
AcDbLine
 62
250
  6
CONTINUOUS
 10
-53.5895311201
 20
-11.15
 30
0.0
 11
-53.5895311201
 21
-10.95
 31
0.0
  0
LINE
  5
492
100
AcDbEntity
  8
IMPORT_IGES
100
AcDbLine
 62
7
  6
CONTINUOUS
 10
-52.7776578509
 20
-11.15
 30
0.0
 11
-52.7776578509
 21
-10.95
 31
0.0
  0
LINE
  5
493
100
AcDbEntity
  8
IMPORT_IGES
100
AcDbLine
 62
250
  6
CONTINUOUS
 10
-43.2875393536
 20
5.8638753356
 30
0.0
 11
-43.0875865568
 21
5.8682203415
 31
0.0
  0
LINE
  5
494
100
AcDbEntity
  8
IMPORT_IGES
100
AcDbLine
 62
250
  6
CONTINUOUS
 10
-66.7645173042
 20
4.9031290204
 30
0.0
 11
-66.9645173042
 21
4.9031290204
 31
0.0
  0
LINE
  5
495
100
AcDbEntity
  8
IMPORT_IGES
100
AcDbLine
 62
250
  6
CONTINUOUS
 10
-63.4645173042
 20
5.8
 30
0.0
 11
-65.6294149707
 21
5.8
 31
0.0
  0
LINE
  5
496
100
AcDbEntity
  8
IMPORT_IGES
100
AcDbLine
 62
7
  6
CONTINUOUS
 10
-63.4645173042
 20
6.0
 30
0.0
 11
-65.6294149707
 21
6.0
 31
0.0
  0
LINE
  5
497
100
AcDbEntity
  8
IMPORT_IGES
100
AcDbLine
 62
7
  6
CONTINUOUS
 10
-58.9635656259
 20
9.95
 30
0.0
 11
-59.0930108017
 21
10.1830032908
 31
0.0
  0
LINE
  5
498
100
AcDbEntity
  8
IMPORT_IGES
100
AcDbLine
 62
7
  6
CONTINUOUS
 10
-51.7776583042
 20
10.95
 30
0.0
 11
-51.7776583042
 21
11.15
 31
0.0
  0
LINE
  5
499
100
AcDbEntity
  8
IMPORT_IGES
100
AcDbLine
 62
250
  6
CONTINUOUS
 10
-43.3168050739
 20
5.9324135107
 30
0.0
 11
-43.1753837176
 21
6.073834867
 31
0.0
  0
LINE
  5
49A
100
AcDbEntity
  8
DRAFT
100
AcDbLine
 62
7
  6
CONTINUOUS
 10
-68.1958809252
 20
-10.8204228659
 30
0.0
 11
-68.4145173042
 21
-10.9
 31
0.0
  0
LINE
  5
49B
100
AcDbEntity
  8
RACCORDO
100
AcDbLine
 62
7
  6
CONTINUOUS
 10
-67.0145173042
 20
7.2898867382
 30
0.0
 11
-68.4145173042
 21
7.2776691233
 31
0.0
  0
LINE
  5
49C
100
AcDbEntity
  8
IMPORT_IGES
100
AcDbLine
 62
250
  6
CONTINUOUS
 10
-67.0145173042
 20
7.8780105898
 30
0.0
 11
-63.6013756809
 21
7.88992475
 31
0.0
  0
LINE
  5
49D
100
AcDbEntity
  8
IMPORT_IGES
100
AcDbLine
 62
7
  6
CONTINUOUS
 10
-63.7250260047
 20
8.1894912995
 30
0.0
 11
-67.0145173042
 21
8.1780087621
 31
0.0
  0
LINE
  5
49E
100
AcDbEntity
  8
RACCORDO
100
AcDbLine
 62
7
  6
CONTINUOUS
 10
-68.4145173042
 20
8.35
 30
0.0
 11
-67.0145173042
 21
8.35
 31
0.0
  0
LINE
  5
49F
100
AcDbEntity
  8
IMPORT_IGES
100
AcDbLine
 62
7
  6
CONTINUOUS
 10
-45.1145173042
 20
-2.085
 30
0.0
 11
-47.1545173042
 21
-0.045
 31
0.0
  0
LINE
  5
4A0
100
AcDbEntity
  8
IMPORT_IGES
100
AcDbLine
 62
7
  6
CONTINUOUS
 10
-47.1145173042
 20
0.055
 30
0.0
 11
-45.1145172748
 21
-1.9450000295
 31
0.0
  0
LINE
  5
4A1
100
AcDbEntity
  8
IMPORT_IGES
100
AcDbLine
 62
250
  6
CONTINUOUS
 10
-49.0499975441
 20
10.9098077379
 30
0.0
 11
-49.0499975441
 21
10.95
 31
0.0
  0
LINE
  5
4A2
100
AcDbEntity
  8
IMPORT_IGES
100
AcDbLine
 62
250
  6
CONTINUOUS
 10
-48.6723036259
 20
-10.95
 30
0.0
 11
-48.6723255857
 21
-10.75
 31
0.0
  0
LINE
  5
4A3
100
AcDbEntity
  8
IMPORT_IGES
100
AcDbLine
 62
250
  6
CONTINUOUS
 10
-48.6410752443
 20
10.2303488012
 30
0.0
 11
-48.6410753047
 21
10.2571439828
 31
0.0
  0
LINE
  5
4A4
100
AcDbEntity
  8
IMPORT_IGES
100
AcDbLine
 62
250
  6
CONTINUOUS
 10
-48.3216240854
 20
-10.95
 30
0.0
 11
-48.3216240854
 21
-10.75
 31
0.0
  0
LINE
  5
4A5
100
AcDbEntity
  8
IMPORT_IGES
100
AcDbLine
 62
250
  6
CONTINUOUS
 10
-48.6695478761
 20
-10.60863872
 30
0.0
 11
-48.6695601322
 21
-10.6672173601
 31
0.0
  0
LINE
  5
4A6
100
AcDbEntity
  8
IMPORT_IGES
100
AcDbLine
 62
250
  6
CONTINUOUS
 10
-48.6500303717
 20
10.95
 30
0.0
 11
-48.6500465869
 21
10.7520245536
 31
0.0
  0
LINE
  5
4A7
100
AcDbEntity
  8
IMPORT_IGES
100
AcDbLine
 62
250
  6
CONTINUOUS
 10
-47.7303048671
 20
9.6552357183
 30
0.0
 11
-61.7574105253
 21
9.6552344442
 31
0.0
  0
LINE
  5
4A8
100
AcDbEntity
  8
IMPORT_IGES
100
AcDbLine
 62
7
  6
CONTINUOUS
 10
-68.4145173042
 20
9.8617237167
 30
0.0
 11
-62.040828903
 21
9.8617237168
 31
0.0
  0
LINE
  5
4A9
100
AcDbEntity
  8
IMPORT_IGES
100
AcDbLine
 62
250
  6
CONTINUOUS
 10
-47.7303048644
 20
9.9098076211
 30
0.0
 11
-57.7153434473
 21
9.9098235042
 31
0.0
  0
LINE
  5
4AA
100
AcDbEntity
  8
IMPORT_IGES
100
AcDbLine
 62
7
  6
CONTINUOUS
 10
-57.7192618176
 20
9.95
 30
0.0
 11
-61.7574105454
 21
9.95
 31
0.0
  0
LINE
  5
4AB
100
AcDbEntity
  8
IMPORT_IGES
100
AcDbLine
 62
250
  6
CONTINUOUS
 10
-48.6410752443
 20
10.2303488012
 30
0.0
 11
-48.1556853326
 21
10.2303488012
 31
0.0
  0
LINE
  5
4AC
100
AcDbEntity
  8
IMPORT_IGES
100
AcDbLine
 62
7
  6
CONTINUOUS
 10
-48.6410753006
 20
10.257144089
 30
0.0
 11
-48.1556915149
 21
10.257144089
 31
0.0
  0
LWPOLYLINE
  5
4AD
100
AcDbEntity
  8
IMPORT_IGES
100
AcDbPolyline
 62
7
  6
CONTINUOUS
 90
3
 70
0
 10
-48.6410753292
 20
10.2571444635
 10
-48.6634390377
 20
10.257658473
 10
-48.6883415006
 20
10.2594276302
  0
LINE
  5
4AE
100
AcDbEntity
  8
IMPORT_IGES
100
AcDbLine
 62
7
  6
CONTINUOUS
 10
-44.0395562782
 20
-8.2454276957
 30
0.0
 11
-44.9201917621
 21
-6.688214071
 31
0.0
  0
LINE
  5
4AF
100
AcDbEntity
  8
IMPORT_IGES
100
AcDbLine
 62
250
  6
CONTINUOUS
 10
-48.1556915149
 20
10.2571439655
 30
0.0
 11
-48.1556915149
 21
10.2303491692
 31
0.0
  0
LINE
  5
4B0
100
AcDbEntity
  8
IMPORT_IGES
100
AcDbLine
 62
250
  6
CONTINUOUS
 10
-48.1267094148
 20
-10.6086387199
 30
0.0
 11
-48.1267094153
 21
-10.6672173642
 31
0.0
  0
LINE
  5
4B1
100
AcDbEntity
  8
IMPORT_IGES
100
AcDbLine
 62
250
  6
CONTINUOUS
 10
-47.7303048644
 20
9.9098235028
 30
0.0
 11
-47.7303048644
 21
9.6552357219
 31
0.0
  0
LINE
  5
4B2
100
AcDbEntity
  8
IMPORT_IGES
100
AcDbLine
 62
250
  6
CONTINUOUS
 10
-47.3024472624
 20
-9.5774802551
 30
0.0
 11
-47.3024607221
 21
-9.7843765541
 31
0.0
  0
LINE
  5
4B3
100
AcDbEntity
  8
RACCORDO
100
AcDbLine
 62
7
  6
CONTINUOUS
 10
-67.0145173042
 20
11.5898867382
 30
0.0
 11
-68.4145173042
 21
11.5776691233
 31
0.0
  0
LINE
  5
4B4
100
AcDbEntity
  8
IMPORT_IGES
100
AcDbLine
 62
250
  6
CONTINUOUS
 10
-49.0499744763
 20
10.9098108667
 30
0.0
 11
-57.0946444968
 21
10.9098140625
 31
0.0
  0
LINE
  5
4B5
100
AcDbEntity
  8
IMPORT_IGES
100
AcDbLine
 62
7
  6
CONTINUOUS
 10
-48.5918437414
 20
10.95
 30
0.0
 11
-57.078034976
 21
10.95
 31
0.0
  0
LINE
  5
4B6
100
AcDbEntity
  8
IMPORT_IGES
100
AcDbLine
 62
250
  6
CONTINUOUS
 10
-50.7776583043
 20
11.0499982165
 30
0.0
 11
-50.0776583043
 21
11.05
 31
0.0
  0
LINE
  5
4B7
100
AcDbEntity
  8
IMPORT_IGES
100
AcDbLine
 62
250
  6
CONTINUOUS
 10
-55.7772973048
 20
11.05
 30
0.0
 11
-56.4772973036
 21
11.05
 31
0.0
  0
LINE
  5
4B8
100
AcDbEntity
  8
IMPORT_IGES
100
AcDbLine
 62
7
  6
CONTINUOUS
 10
-56.3772973038
 20
11.15
 30
0.0
 11
-55.8772973047
 21
11.15
 31
0.0
  0
LINE
  5
4B9
100
AcDbEntity
  8
IMPORT_IGES
100
AcDbLine
 62
7
  6
CONTINUOUS
 10
-50.6776583038
 20
11.15
 30
0.0
 11
-50.1776583047
 21
11.15
 31
0.0
  0
LINE
  5
4BA
100
AcDbEntity
  8
IMPORT_IGES
100
AcDbLine
 62
7
  6
CONTINUOUS
 10
-51.7776583042
 20
11.15
 30
0.0
 11
-54.8220035562
 21
11.15
 31
0.0
  0
LINE
  5
4BB
100
AcDbEntity
  8
RACCORDO
100
AcDbLine
 62
7
  6
CONTINUOUS
 10
-68.238781373
 20
11.2
 30
0.0
 11
-68.4145173042
 21
11.2
 31
0.0
  0
LINE
  5
4BC
100
AcDbEntity
  8
0
100
AcDbLine
 62
7
  6
CONTINUOUS
 10
-60.6870276746
 20
11.2117237174
 30
0.0
 11
-60.1457272678
 21
11.2117237174
 31
0.0
  0
LINE
  5
4BD
100
AcDbEntity
  8
IMPORT_IGES
100
AcDbLine
 62
7
  6
CONTINUOUS
 10
-60.8413288478
 20
11.2117237174
 30
0.0
 11
-68.1559838778
 21
11.2117237174
 31
0.0
  0
LINE
  5
4BE
100
AcDbEntity
  8
0
100
AcDbLine
 62
7
  6
CONTINUOUS
 10
-67.9352292985
 20
11.3117237174
 30
0.0
 11
-67.8260570201
 21
11.3117237174
 31
0.0
  0
LINE
  5
4BF
100
AcDbEntity
  8
0
100
AcDbLine
 62
7
  6
CONTINUOUS
 10
-67.8202790039
 20
11.3117237174
 30
0.0
 11
-65.2787569797
 21
11.3117237174
 31
0.0
  0
LINE
  5
4C0
100
AcDbEntity
  8
0
100
AcDbLine
 62
7
  6
CONTINUOUS
 10
-64.4317325578
 20
11.3117237174
 30
0.0
 11
-64.1167810604
 21
11.3117237174
 31
0.0
  0
LINE
  5
4C1
100
AcDbEntity
  8
0
100
AcDbLine
 62
7
  6
CONTINUOUS
 10
-65.2776391544
 20
11.3117237174
 30
0.0
 11
-64.4345765115
 21
11.3117237174
 31
0.0
  0
LINE
  5
4C2
100
AcDbEntity
  8
0
100
AcDbLine
 62
7
  6
CONTINUOUS
 10
-64.1145423214
 20
11.3117237174
 30
0.0
 11
-62.4294046508
 21
11.3117237174
 31
0.0
  0
LINE
  5
4C3
100
AcDbEntity
  8
0
100
AcDbLine
 62
7
  6
CONTINUOUS
 10
-61.3645173042
 20
11.3117237174
 30
0.0
 11
-60.1457272678
 21
11.3117237174
 31
0.0
  0
LINE
  5
4C4
100
AcDbEntity
  8
RACCORDO
100
AcDbLine
 62
7
  6
CONTINUOUS
 10
-68.4145173042
 20
12.4223308767
 30
0.0
 11
-67.0145173042
 21
12.4101132618
 31
0.0
  0
LWPOLYLINE
  5
4C5
100
AcDbEntity
  8
IMPORT_IGES
100
AcDbPolyline
 62
7
  6
CONTINUOUS
 90
3
 70
0
 10
-48.6883415006
 20
10.2594276302
 10
-48.7128776062
 20
10.2624584076
 10
-48.7366684892
 20
10.2667114014
  0
LWPOLYLINE
  5
4C6
100
AcDbEntity
  8
IMPORT_IGES
100
AcDbPolyline
 62
7
  6
CONTINUOUS
 90
3
 70
0
 10
-48.0829963338
 20
10.2491702466
 10
-48.1281501455
 20
10.2559865027
 10
-48.1556987319
 20
10.2571510402
  0
LWPOLYLINE
  5
4C7
100
AcDbEntity
  8
IMPORT_IGES
100
AcDbPolyline
 62
7
  6
CONTINUOUS
 90
8
 70
0
 10
-48.7366684892
 20
10.2667114014
 10
-48.7591809423
 20
10.2720543293
 10
-48.7801203658
 20
10.2783526327
 10
-48.7991983235
 20
10.2854407009
 10
-48.8158700412
 20
10.2929754535
 10
-48.8295094837
 20
10.3004084809
 10
-48.8400876484
 20
10.3073511371
 10
-48.8411999436
 20
10.3081670599
  0
LINE
  5
4C8
100
AcDbEntity
  8
IMPORT_IGES
100
AcDbLine
 62
250
  6
CONTINUOUS
 10
-45.4145173042
 20
-7.7481289407
 30
0.0
 11
-45.4145173042
 21
-1.785
 31
0.0
  0
LINE
  5
4C9
100
AcDbEntity
  8
IMPORT_IGES
100
AcDbLine
 62
7
  6
CONTINUOUS
 10
-45.1145173042
 20
-7.7428932182
 30
0.0
 11
-45.1145173042
 21
-1.945
 31
0.0
  0
LINE
  5
4CA
100
AcDbEntity
  8
IMPORT_IGES
100
AcDbLine
 62
7
  6
CONTINUOUS
 10
-48.8586272088
 20
-10.7949949611
 30
0.0
 11
-48.8585329257
 21
-10.79475797
 31
0.0
  0
LWPOLYLINE
  5
4CB
100
AcDbEntity
  8
IMPORT_IGES
100
AcDbPolyline
 62
7
  6
CONTINUOUS
 90
17
 70
0
 10
-48.8586438717
 20
-10.7950283453
 10
-48.8563670373
 20
-10.789583347
 10
-48.8501623947
 20
-10.7766285834
 10
-48.8430057704
 20
-10.7640819551
 10
-48.8348928933
 20
-10.7519682004
 10
-48.825870954
 20
-10.7403917165
 10
-48.8158560657
 20
-10.7293107312
 10
-48.8046408734
 20
-10.7186226735
 10
-48.7922471703
 20
-10.7084951091
 10
-48.7786667037
 20
-10.6990883243
 10
-48.7637473208
 20
-10.690481428
 10
-48.7477329036
 20
-10.6829600669
 10
-48.7308318469
 20
-10.6767549039
 10
-48.7130824956
 20
-10.6719915302
 10
-48.6948716897
 20
-10.6688133235
 10
-48.676682424
 20
-10.6673164815
 10
-48.6695583589
 20
-10.6671955369
  0
LWPOLYLINE
  5
4CC
100
AcDbEntity
  8
IMPORT_IGES
100
AcDbPolyline
 62
7
  6
CONTINUOUS
 90
4
 70
0
 10
-48.885317088
 20
-10.8474345637
 10
-48.8748677934
 20
-10.8297228481
 10
-48.8653268861
 20
-10.8106182845
 10
-48.8585329257
 20
-10.79475797
  0
LWPOLYLINE
  5
4CD
100
AcDbEntity
  8
IMPORT_IGES
100
AcDbPolyline
 62
7
  6
CONTINUOUS
 90
5
 70
0
 10
-48.9490329784
 20
-10.9140066509
 10
-48.9289779078
 20
-10.8985217678
 10
-48.9118180706
 20
-10.8818664534
 10
-48.8973789035
 20
-10.8646844907
 10
-48.885317088
 20
-10.8474345637
  0
LINE
  5
4CE
100
AcDbEntity
  8
RACCORDO
100
AcDbLine
 62
7
  6
CONTINUOUS
 10
-70.9145173042
 20
-23.1226497308
 30
0.0
 11
-71.7895173042
 21
-23.6278312164
 31
0.0
  0
LINE
  5
4CF
100
AcDbEntity
  8
RACCORDO
100
AcDbLine
 62
250
  6
CONTINUOUS
 10
-70.6659717371
 20
-23.2669872981
 30
0.0
 11
-71.6659717371
 21
-23.8443375673
 31
0.0
  0
LWPOLYLINE
  5
4D0
100
AcDbEntity
  8
IMPORT_IGES
100
AcDbPolyline
 62
7
  6
CONTINUOUS
 90
3
 70
0
 10
-48.9978941269
 20
-10.9386376134
 10
-48.9720432536
 20
-10.9276272905
 10
-48.9490329784
 20
-10.9140066509
  0
LINE
  5
4D1
100
AcDbEntity
  8
RACCORDO
100
AcDbLine
 62
250
  6
CONTINUOUS
 10
-68.4145173042
 20
13.3223499151
 30
0.0
 11
-67.0145173042
 21
13.3101323002
 31
0.0
  0
LINE
  5
4D2
100
AcDbEntity
  8
RACCORDO
100
AcDbLine
 62
7
  6
CONTINUOUS
 10
-68.4145173042
 20
13.8223308767
 30
0.0
 11
-67.0145173042
 21
13.8101132618
 31
0.0
  0
LINE
  5
4D3
100
AcDbEntity
  8
RACCORDO
100
AcDbLine
 62
7
  6
CONTINUOUS
 10
-71.7895173042
 20
23.6278312164
 30
0.0
 11
-70.9145173042
 21
23.1226497308
 31
0.0
  0
LINE
  5
4D4
100
AcDbEntity
  8
RACCORDO
100
AcDbLine
 62
250
  6
CONTINUOUS
 10
-71.6659717371
 20
23.8443375673
 30
0.0
 11
-70.6659717371
 21
23.2669872981
 31
0.0
  0
LWPOLYLINE
  5
4D5
100
AcDbEntity
  8
IMPORT_IGES
100
AcDbPolyline
 62
7
  6
CONTINUOUS
 90
5
 70
0
 10
-47.9368236648
 20
10.1812658645
 10
-47.9547185363
 20
10.1939801085
 10
-47.9954613894
 20
10.2178104949
 10
-48.038368127
 20
10.236281964
 10
-48.0829963338
 20
10.2491702466
  0
LINE
  5
4D6
100
AcDbEntity
  8
IMPORT_IGES
100
AcDbLine
 62
250
  6
CONTINUOUS
 10
-47.7303048671
 20
9.6552357183
 30
0.0
 11
-45.463597957
 21
7.9471485648
 31
0.0
  0
LINE
  5
4D7
100
AcDbEntity
  8
IMPORT_IGES
100
AcDbLine
 62
250
  6
CONTINUOUS
 10
-48.1556853326
 20
10.2303488012
 30
0.0
 11
-47.7303048644
 21
9.9098076211
 31
0.0
  0
LINE
  5
4D8
100
AcDbEntity
  8
IMPORT_IGES
100
AcDbLine
 62
7
  6
CONTINUOUS
 10
-45.2830520705
 20
8.181503443
 30
0.0
 11
-47.9368248757
 21
10.1812646884
 31
0.0
  0
LINE
  5
4D9
100
AcDbEntity
  8
IMPORT_IGES
100
AcDbLine
 62
250
  6
CONTINUOUS
 10
-45.1927819038
 20
8.2994966472
 30
0.0
 11
-45.4081596378
 21
8.4617830117
 31
0.0
  0
LINE
  5
4DA
100
AcDbEntity
  8
IMPORT_IGES
100
AcDbLine
 62
250
  6
CONTINUOUS
 10
-44.8058876318
 20
4.0505300207
 30
0.0
 11
-43.414823088
 21
0.9736365856
 31
0.0
  0
LINE
  5
4DB
100
AcDbEntity
  8
IMPORT_IGES
100
AcDbLine
 62
7
  6
CONTINUOUS
 10
-43.1414615822
 20
1.091987288
 30
0.0
 11
-44.5325268497
 21
4.1688797904
 31
0.0
  0
LINE
  5
4DC
100
AcDbEntity
  8
IMPORT_IGES
100
AcDbLine
 62
250
  6
CONTINUOUS
 10
-45.3855549854
 20
7.8126088588
 30
0.0
 11
-44.9912182505
 21
4.7062900986
 31
0.0
  0
LINE
  5
4DD
100
AcDbEntity
  8
IMPORT_IGES
100
AcDbLine
 62
7
  6
CONTINUOUS
 10
-44.6936077188
 20
4.7388424615
 30
0.0
 11
-45.0879412519
 21
7.8451539653
 31
0.0
  0
LINE
  5
4DE
100
AcDbEntity
  8
IMPORT_IGES
100
AcDbLine
 62
7
  6
CONTINUOUS
 10
-42.9676370158
 20
0.4016172304
 30
0.0
 11
-42.9804105831
 21
0.9360899655
 31
0.0
  0
LINE
  5
4DF
100
AcDbEntity
  8
IMPORT_IGES
100
AcDbLine
 62
250
  6
CONTINUOUS
 10
-43.2993204927
 20
6.4081076972
 30
0.0
 11
-43.3090267954
 21
6.8455661868
 31
0.0
  0
LINE
  5
4E0
100
AcDbEntity
  8
IMPORT_IGES
100
AcDbLine
 62
250
  6
CONTINUOUS
 10
-43.2875393536
 20
5.8638753356
 30
0.0
 11
-43.1859855073
 21
1.1904696055
 31
0.0
  0
LINE
  5
4E1
100
AcDbEntity
  8
IMPORT_IGES
100
AcDbLine
 62
7
  6
CONTINUOUS
 10
-42.9687958223
 20
0.4015903741
 30
0.0
 11
-43.1088230424
 21
6.8455020306
 31
0.0
  0
LINE
  5
4E2
100
AcDbEntity
  8
IMPORT_IGES
100
AcDbLine
 62
250
  6
CONTINUOUS
 10
-43.2645173042
 20
-8.2455021707
 30
0.0
 11
-43.2645202781
 21
0.2763176961
 31
0.0
  0
LINE
  5
4E3
100
AcDbEntity
  8
IMPORT_IGES
100
AcDbLine
 62
7
  6
CONTINUOUS
 10
-42.9645173042
 20
-7.9454698509
 30
0.0
 11
-42.9645173042
 21
0.2710821499
 31
0.0
  0
LINE
  5
4E4
100
AcDbEntity
  8
IMPORT_IGES
100
AcDbLine
 62
250
  6
CONTINUOUS
 10
-42.6645173042
 20
-2.945
 30
0.0
 11
-42.6645173042
 21
-0.134278678
 31
0.0
  0
LINE
  5
4E5
100
AcDbEntity
  8
IMPORT_IGES
100
AcDbLine
 62
250
  6
CONTINUOUS
 10
-45.473095948
 20
-7.889550297
 30
0.0
 11
-47.0170921773
 21
-9.4335465263
 31
0.0
  0
LINE
  5
4E6
100
AcDbEntity
  8
IMPORT_IGES
100
AcDbLine
 62
250
  6
CONTINUOUS
 10
-47.3024625653
 20
-9.7843758577
 30
0.0
 11
-48.1267094148
 21
-10.6086387202
 31
0.0
  0
LINE
  5
4E7
100
AcDbEntity
  8
IMPORT_IGES
100
AcDbLine
 62
7
  6
CONTINUOUS
 10
-47.9680706949
 20
-10.8035533907
 30
0.0
 11
-45.2609639134
 21
-8.0964466092
 31
0.0
  0
LINE
  5
4E8
100
AcDbEntity
  8
IMPORT_IGES
100
AcDbLine
 62
250
  6
CONTINUOUS
 10
-47.5085533566
 20
10.3899455634
 30
0.0
 11
-43.6271350077
 21
7.4650870464
 31
0.0
  0
LINE
  5
4E9
100
AcDbEntity
  8
IMPORT_IGES
100
AcDbLine
 62
7
  6
CONTINUOUS
 10
-43.5067729671
 20
7.6224132296
 30
0.0
 11
-47.3881903754
 21
10.5472710377
 31
0.0
  0
LINE
  5
4EA
100
AcDbEntity
  8
IMPORT_IGES
100
AcDbLine
 62
250
  6
CONTINUOUS
 10
-45.0673513668
 20
7.6829598037
 30
0.0
 11
-43.3168050739
 21
5.9324135107
 31
0.0
  0
LINE
  5
4EB
100
AcDbEntity
  8
IMPORT_IGES
100
AcDbLine
 62
7
  6
CONTINUOUS
 10
-45.1846428721
 20
8.0830940215
 30
0.0
 11
-43.1753837176
 21
6.073834867
 31
0.0
  0
LINE
  5
4EC
100
AcDbEntity
  8
IMPORT_IGES
100
AcDbLine
 62
250
  6
CONTINUOUS
 10
-43.2993204927
 20
6.4081076972
 30
0.0
 11
-45.0716477221
 21
8.1804296718
 31
0.0
  0
LINE
  5
4ED
100
AcDbEntity
  8
IMPORT_IGES
100
AcDbLine
 62
250
  6
CONTINUOUS
 10
-40.6645173042
 20
-0.545
 30
0.0
 11
-40.6645173042
 21
0.055
 31
0.0
  0
LINE
  5
4EE
100
AcDbEntity
  8
IMPORT_IGES
100
AcDbLine
 62
250
  6
CONTINUOUS
 10
-40.3145173042
 20
-6.1502977476
 30
0.0
 11
-40.3145173042
 21
-3.1132052805
 31
0.0
  0
LINE
  5
4EF
100
AcDbEntity
  8
IMPORT_IGES
100
AcDbLine
 62
7
  6
CONTINUOUS
 10
-40.1645173042
 20
1.055
 30
0.0
 11
-40.1645173042
 21
0.3769544457
 31
0.0
  0
LINE
  5
4F0
100
AcDbEntity
  8
IMPORT_IGES
100
AcDbLine
 62
7
  6
CONTINUOUS
 10
-40.1145173042
 20
-3.3292843134
 30
0.0
 11
-40.1145173042
 21
-7.2810435682
 31
0.0
  0
LINE
  5
4F1
100
AcDbEntity
  8
IMPORT_IGES
100
AcDbLine
 62
250
  6
CONTINUOUS
 10
-39.9145173042
 20
-7.481099574
 30
0.0
 11
-39.9145173191
 21
-3.1373143479
 31
0.0
  0
LINE
  5
4F2
100
AcDbEntity
  8
IMPORT_IGES
100
AcDbLine
 62
250
  6
CONTINUOUS
 10
-39.4145173042
 20
-2.945
 30
0.0
 11
-39.4145173042
 21
1.055
 31
0.0
  0
LINE
  5
4F3
100
AcDbEntity
  8
IMPORT_IGES
100
AcDbLine
 62
250
  6
CONTINUOUS
 10
-39.3145173043
 20
-7.481099574
 30
0.0
 11
-39.3145173042
 21
-3.1132052805
 31
0.0
  0
LINE
  5
4F4
100
AcDbEntity
  8
IMPORT_IGES
100
AcDbLine
 62
7
  6
CONTINUOUS
 10
-39.1145173043
 20
-7.281043448
 30
0.0
 11
-39.1145173043
 21
-3.3132052805
 31
0.0
  0
LINE
  5
4F5
100
AcDbEntity
  8
IMPORT_IGES
100
AcDbLine
 62
7
  6
CONTINUOUS
 10
-39.1145173042
 20
-2.645
 30
0.0
 11
-39.1145173042
 21
0.755
 31
0.0
  0
LINE
  5
4F6
100
AcDbEntity
  8
RACCORDO
100
AcDbLine
 62
7
  6
CONTINUOUS
 10
-68.4145173042
 20
17.917531443
 30
0.0
 11
-58.4145173042
 21
19.6808012501
 31
0.0
  0
LINE
  5
4F7
100
AcDbEntity
  8
RACCORDO
100
AcDbLine
 62
7
  6
CONTINUOUS
 10
-58.4145173042
 20
20.9959955457
 30
0.0
 11
-68.214730544
 21
20.9104703804
 31
0.0
  0
LINE
  5
4F8
100
AcDbEntity
  8
RACCORDO
100
AcDbLine
 62
250
  6
CONTINUOUS
 10
-78.0006724739
 20
20.5419058565
 30
0.0
 11
-78.4915232765
 21
20.5624683248
 31
0.0
  0
LWPOLYLINE
  5
4F9
100
AcDbEntity
  8
0
100
AcDbPolyline
 62
7
  6
CONTINUOUS
 90
10
 70
0
 43
0.3500000006
 10
-58.1573729553
 20
43.7499994354
 10
-58.0859463043
 20
43.6071416016
 10
-58.0859463043
 20
43.5357149506
 10
-58.2288041382
 20
43.3928571167
 10
-58.3002307892
 20
43.3928571167
 10
-58.371661972
 20
43.4642837677
 10
-58.371661972
 20
43.5357149506
 10
-58.3002307892
 20
43.6785727844
 10
-58.2288041382
 20
43.7499994354
 10
-58.1573729553
 20
43.7499994354
  0
LWPOLYLINE
  5
4FA
100
AcDbEntity
  8
0
100
AcDbPolyline
 62
7
  6
CONTINUOUS
 90
10
 70
0
 43
0.3500000006
 10
-52.6930868683
 20
33.7500009155
 10
-52.6216602173
 20
33.6071430817
 10
-52.6216602173
 20
33.5357164307
 10
-52.7645180511
 20
33.3928585968
 10
-52.8359447021
 20
33.3928585968
 10
-52.907375885
 20
33.4642852478
 10
-52.907375885
 20
33.5357164307
 10
-52.8359447021
 20
33.6785697327
 10
-52.7645180511
 20
33.7500009155
 10
-52.6930868683
 20
33.7500009155
  0
LINE
  5
4FB
100
AcDbEntity
  8
DRAFT
100
AcDbLine
 62
7
  6
CONTINUOUS
 10
-68.4145173042
 20
20.9
 30
0.0
 11
-68.214730544
 21
20.9104703804
 31
0.0
  0
LINE
  5
4FC
100
AcDbEntity
  8
RACCORDO
100
AcDbLine
 62
250
  6
CONTINUOUS
 10
-69.4123309752
 20
21.8998857286
 30
0.0
 11
-77.0538544182
 21
21.4994104546
 31
0.0
  0
LINE
  5
4FD
100
AcDbEntity
  8
RACCORDO
100
AcDbLine
 62
7
  6
CONTINUOUS
 10
-77.0712961931
 20
21.998725222
 30
0.0
 11
-70.7900604462
 21
22.3279108386
 31
0.0
  0
LINE
  5
4FE
100
AcDbEntity
  8
RACCORDO
100
AcDbLine
 62
7
  6
CONTINUOUS
 10
-74.4145173042
 20
22.2
 30
0.0
 11
-77.0631474165
 21
22.0611911777
 31
0.0
  0
LINE
  5
4FF
100
AcDbEntity
  8
RACCORDO
100
AcDbLine
 62
7
  6
CONTINUOUS
 10
-58.905791101
 20
21.5659754333
 30
0.0
 11
-68.4145173042
 21
21.4
 31
0.0
  0
LINE
  5
500
100
AcDbEntity
  8
RACCORDO
100
AcDbLine
 62
250
  6
CONTINUOUS
 10
-68.4145173042
 20
21.8911779406
 30
0.0
 11
-69.4123309752
 21
21.8998857286
 31
0.0
  0
LINE
  5
501
100
AcDbEntity
  8
RACCORDO
100
AcDbLine
 62
7
  6
CONTINUOUS
 10
-59.4057907688
 20
22.3126551668
 30
0.0
 11
-69.4145173042
 21
22.4
 31
0.0
  0
LINE
  5
502
100
AcDbEntity
  8
RACCORDO
100
AcDbLine
 62
250
  6
CONTINUOUS
 10
-69.4145173042
 20
24.2500042308
 30
0.0
 11
-71.6659717371
 21
24.2369056521
 31
0.0
  0
LINE
  5
503
100
AcDbEntity
  8
RACCORDO
100
AcDbLine
 62
7
  6
CONTINUOUS
 10
-69.4145173042
 20
24.5
 30
0.0
 11
-71.6659717371
 21
24.4869014213
 31
0.0
  0
LINE
  5
504
100
AcDbEntity
  8
RACCORDO
100
AcDbLine
 62
250
  6
CONTINUOUS
 10
-71.9145173042
 20
23.8443375673
 30
0.0
 11
-71.6659717371
 21
23.8443375673
 31
0.0
  0
LINE
  5
505
100
AcDbEntity
  8
RACCORDO
100
AcDbLine
 62
250
  6
CONTINUOUS
 10
-68.4145173042
 20
23.8443375673
 30
0.0
 11
-68.6630628714
 21
23.8443375673
 31
0.0
  0
LINE
  5
506
100
AcDbEntity
  8
RACCORDO
100
AcDbLine
 62
250
  6
CONTINUOUS
 10
-71.9145173042
 20
24.2369056521
 30
0.0
 11
-71.6659717371
 21
24.2369056521
 31
0.0
  0
LINE
  5
507
100
AcDbEntity
  8
RACCORDO
100
AcDbLine
 62
250
  6
CONTINUOUS
 10
-68.4145173042
 20
24.2456323968
 30
0.0
 11
-68.6630628714
 21
24.2456323968
 31
0.0
  0
LINE
  5
508
100
AcDbEntity
  8
ASSI
100
AcDbLine
 62
7
  6
CONTINUOUS
 10
-68.419609962
 20
23.7942117984
 30
0.0
 11
-61.9116084386
 21
23.7563493531
 31
0.0
  0
LINE
  5
509
100
AcDbEntity
  8
RACCORDO
100
AcDbLine
 62
250
  6
CONTINUOUS
 10
-68.6630628714
 20
24.2456323968
 30
0.0
 11
-69.4145173042
 21
24.2500042308
 31
0.0
  0
LINE
  5
50A
100
AcDbEntity
  8
RACCORDO
100
AcDbLine
 62
7
  6
CONTINUOUS
 10
-68.6630628714
 20
24.495628166
 30
0.0
 11
-69.4145173042
 21
24.5
 31
0.0
  0
LWPOLYLINE
  5
50B
100
AcDbEntity
  8
0
100
AcDbPolyline
 62
7
  6
CONTINUOUS
 90
6
 70
0
 43
0.3500000006
 10
-51.6216599121
 20
33.2500007629
 10
-50.5502329559
 20
33.2500007629
 10
-50.3359439392
 20
33.4642852478
 10
-50.3359439392
 20
34.535712204
 10
-50.7645174408
 20
34.9642857056
 10
-51.1930909424
 20
34.9642857056
  0
LWPOLYLINE
  5
50C
100
AcDbEntity
  8
0
100
AcDbPolyline
 62
7
  6
CONTINUOUS
 90
7
 70
0
 43
0.3500000006
 10
-56.5502302551
 20
33.2500007629
 10
-58.0502307129
 20
33.2500007629
 10
-56.5502302551
 20
35.3928592072
 10
-56.5502302551
 20
35.8214281769
 10
-56.9788037567
 20
36.2500016785
 10
-57.6216617432
 20
36.2500016785
 10
-58.0502307129
 20
35.607143692
  0
LWPOLYLINE
  5
50D
100
AcDbEntity
  8
0
100
AcDbPolyline
 62
7
  6
CONTINUOUS
 90
6
 70
0
 43
0.3500000006
 10
-63.3002323151
 20
43.2499992828
 10
-62.228800827
 20
43.2499992828
 10
-62.0145163422
 20
43.4642837677
 10
-62.0145163422
 20
44.5357152557
 10
-62.4430898438
 20
44.9642842255
 10
-62.8716588135
 20
44.9642842255
  0
LWPOLYLINE
  5
50E
100
AcDbEntity
  8
0
100
AcDbPolyline
 62
7
  6
CONTINUOUS
 90
13
 70
0
 43
0.3500000006
 10
-56.6573724976
 20
44.9642842255
 10
-56.9430881653
 20
45.1785732422
 10
-56.9430881653
 20
45.8214266968
 10
-56.6573724976
 20
46.2500001984
 10
-56.014519043
 20
46.2500001984
 10
-55.7288033752
 20
45.8214266968
 10
-55.7288033752
 20
45.1785732422
 10
-56.014519043
 20
44.9642842255
 10
-55.5859455414
 20
44.5357152557
 10
-55.5859455414
 20
43.6785727844
 10
-56.014519043
 20
43.2499992828
 10
-56.6573724976
 20
43.2499992828
 10
-57.0859459991
 20
43.6785727844
  0
ARC
  5
50F
100
AcDbEntity
  8
RACCORDO
100
AcDbCircle
 62
7
  6
CONTINUOUS
 10
9.957216904
 20
21.8996996272
 30
0.0
 40
0.5003655864
100
AcDbArc
 50
0.0213100439
 51
63.4284881755
  0
ARC
  5
510
100
AcDbEntity
  8
RACCORDO
100
AcDbCircle
 62
7
  6
CONTINUOUS
 10
-11.3072168946
 20
21.8996996209
 30
0.0
 40
0.5003655864
100
AcDbArc
 50
116.5715124707
 51
179.978689244
  0
ARC
  5
511
100
AcDbEntity
  8
RACCORDO
100
AcDbCircle
 62
7
  6
CONTINUOUS
 10
9.9572169042
 20
-21.8996996269
 30
0.0
 40
0.5003655864
100
AcDbArc
 50
296.5715117915
 51
359.9786899232
  0
ARC
  5
512
100
AcDbEntity
  8
RACCORDO
100
AcDbCircle
 62
7
  6
CONTINUOUS
 10
-11.3072168944
 20
-21.8996996212
 30
0.0
 40
0.5003655864
100
AcDbArc
 50
180.0213107224
 51
243.4284874969
  0
ARC
  5
513
100
AcDbEntity
  8
RACCORDO
100
AcDbCircle
 62
250
  6
CONTINUOUS
 10
-11.1740666028
 20
21.4985215997
 30
0.0
 40
0.5001723744
100
AcDbArc
 50
90.0239810484
 51
179.8981719674
  0
ARC
  5
514
100
AcDbEntity
  8
RACCORDO
100
AcDbCircle
 62
250
  6
CONTINUOUS
 10
-11.174066664
 20
-21.498521661
 30
0.0
 40
0.5001723744
100
AcDbArc
 50
180.1018210193
 51
269.9760259536
  0
ARC
  5
515
100
AcDbEntity
  8
RACCORDO
100
AcDbCircle
 62
250
  6
CONTINUOUS
 10
9.8240666558
 20
21.4985216786
 30
0.0
 40
0.5001723744
100
AcDbArc
 50
0.1018189988
 51
89.9760250166
  0
ARC
  5
516
100
AcDbEntity
  8
RACCORDO
100
AcDbCircle
 62
250
  6
CONTINUOUS
 10
9.824066664
 20
-21.4985216611
 30
0.0
 40
0.5001723744
100
AcDbArc
 50
270.0239740422
 51
359.8981789889
  0
ARC
  5
517
100
AcDbEntity
  8
RACCORDO
100
AcDbCircle
 62
7
  6
CONTINUOUS
 10
-11.3074618824
 20
21.9001237906
 30
0.0
 40
0.499875135
100
AcDbArc
 50
92.0105361646
 51
116.5681456001
  0
ARC
  5
518
100
AcDbEntity
  8
RACCORDO
100
AcDbCircle
 62
7
  6
CONTINUOUS
 10
9.9574618824
 20
-21.9001237906
 30
0.0
 40
0.499875135
100
AcDbArc
 50
272.0105361646
 51
296.5681456001
  0
ARC
  5
519
100
AcDbEntity
  8
RACCORDO
100
AcDbCircle
 62
7
  6
CONTINUOUS
 10
9.9574618824
 20
21.9001237906
 30
0.0
 40
0.499875135
100
AcDbArc
 50
63.4318543999
 51
87.9894638354
  0
ARC
  5
51A
100
AcDbEntity
  8
RACCORDO
100
AcDbCircle
 62
7
  6
CONTINUOUS
 10
-11.3074618824
 20
-21.9001237906
 30
0.0
 40
0.499875135
100
AcDbArc
 50
243.4318543999
 51
267.9894638354
  0
ARC
  5
51B
100
AcDbEntity
  8
RACCORDO
100
AcDbCircle
 62
250
  6
CONTINUOUS
 10
-9.8750869385
 20
21.8111720897
 30
0.0
 40
0.2500136588
100
AcDbArc
 50
89.9800766812
 51
155.9453455016
  0
ARC
  5
51C
100
AcDbEntity
  8
RACCORDO
100
AcDbCircle
 62
250
  6
CONTINUOUS
 10
8.52508694
 20
21.8111720898
 30
0.0
 40
0.2500136579
100
AcDbArc
 50
24.0545126979
 51
90.0199236525
  0
ARC
  5
51D
100
AcDbEntity
  8
RACCORDO
100
AcDbCircle
 62
250
  6
CONTINUOUS
 10
-9.188104562
 20
24.236895438
 30
0.0
 40
0.2500059834
100
AcDbArc
 50
0.0023408263
 51
89.9976591737
  0
ARC
  5
51E
100
AcDbEntity
  8
RACCORDO
100
AcDbCircle
 62
250
  6
CONTINUOUS
 10
-11.0618954381
 20
24.2368954381
 30
0.0
 40
0.2500059834
100
AcDbArc
 50
90.0023408215
 51
179.9976591785
  0
ARC
  5
51F
100
AcDbEntity
  8
RACCORDO
100
AcDbCircle
 62
250
  6
CONTINUOUS
 10
9.711895438
 20
-24.236895438
 30
0.0
 40
0.2500059834
100
AcDbArc
 50
270.0023408263
 51
359.9976591737
  0
ARC
  5
520
100
AcDbEntity
  8
RACCORDO
100
AcDbCircle
 62
250
  6
CONTINUOUS
 10
7.838104562
 20
-24.236895438
 30
0.0
 40
0.2500059834
100
AcDbArc
 50
180.0023408263
 51
269.9976591737
  0
ARC
  5
521
100
AcDbEntity
  8
RACCORDO
100
AcDbCircle
 62
250
  6
CONTINUOUS
 10
7.838104562
 20
24.236895438
 30
0.0
 40
0.2500059834
100
AcDbArc
 50
90.0023408263
 51
179.9976591737
  0
ARC
  5
522
100
AcDbEntity
  8
RACCORDO
100
AcDbCircle
 62
250
  6
CONTINUOUS
 10
9.7118954381
 20
24.2368954381
 30
0.0
 40
0.2500059834
100
AcDbArc
 50
0.0023408215
 51
89.9976591785
  0
ARC
  5
523
100
AcDbEntity
  8
RACCORDO
100
AcDbCircle
 62
250
  6
CONTINUOUS
 10
-11.0618954381
 20
-24.2368954381
 30
0.0
 40
0.2500059834
100
AcDbArc
 50
180.0023408215
 51
269.9976591785
  0
ARC
  5
524
100
AcDbEntity
  8
RACCORDO
100
AcDbCircle
 62
250
  6
CONTINUOUS
 10
-9.188104562
 20
-24.236895438
 30
0.0
 40
0.2500059834
100
AcDbArc
 50
270.0023408263
 51
359.9976591737
  0
ARC
  5
525
100
AcDbEntity
  8
RACCORDO
100
AcDbCircle
 62
7
  6
CONTINUOUS
 10
-9.875
 20
15.85
 30
0.0
 40
0.25
100
AcDbArc
 50
180.0
 51
270.0
  0
ARC
  5
526
100
AcDbEntity
  8
RACCORDO
100
AcDbCircle
 62
7
  6
CONTINUOUS
 10
8.525
 20
15.85
 30
0.0
 40
0.25
100
AcDbArc
 50
270.0
 51
360.0
  0
ARC
  5
527
100
AcDbEntity
  8
RACCORDO
100
AcDbCircle
 62
7
  6
CONTINUOUS
 10
-9.1749946513
 20
24.2500053487
 30
0.0
 40
0.2499946513
100
AcDbArc
 50
359.9997437926
 51
90.0002562074
  0
ARC
  5
528
100
AcDbEntity
  8
RACCORDO
100
AcDbCircle
 62
7
  6
CONTINUOUS
 10
-11.0750053487
 20
24.2500053487
 30
0.0
 40
0.2499946513
100
AcDbArc
 50
89.9997437926
 51
180.0002562074
  0
ARC
  5
529
100
AcDbEntity
  8
RACCORDO
100
AcDbCircle
 62
7
  6
CONTINUOUS
 10
9.7250053487
 20
-24.2500053487
 30
0.0
 40
0.2499946513
100
AcDbArc
 50
269.9997437926
 51
0.0002562074
  0
ARC
  5
52A
100
AcDbEntity
  8
RACCORDO
100
AcDbCircle
 62
7
  6
CONTINUOUS
 10
7.8249946513
 20
-24.2500053487
 30
0.0
 40
0.2499946513
100
AcDbArc
 50
179.9997437926
 51
270.0002562074
  0
ARC
  5
52B
100
AcDbEntity
  8
RACCORDO
100
AcDbCircle
 62
7
  6
CONTINUOUS
 10
7.8249946513
 20
24.2500053487
 30
0.0
 40
0.2499946513
100
AcDbArc
 50
89.9997437926
 51
180.0002562074
  0
ARC
  5
52C
100
AcDbEntity
  8
RACCORDO
100
AcDbCircle
 62
7
  6
CONTINUOUS
 10
9.7250053487
 20
24.2500053487
 30
0.0
 40
0.2499946513
100
AcDbArc
 50
359.9997437926
 51
90.0002562074
  0
ARC
  5
52D
100
AcDbEntity
  8
RACCORDO
100
AcDbCircle
 62
7
  6
CONTINUOUS
 10
-11.0750053487
 20
-24.2500053487
 30
0.0
 40
0.2499946513
100
AcDbArc
 50
179.9997437926
 51
270.0002562074
  0
ARC
  5
52E
100
AcDbEntity
  8
RACCORDO
100
AcDbCircle
 62
7
  6
CONTINUOUS
 10
-9.1749946513
 20
-24.2500053487
 30
0.0
 40
0.2499946513
100
AcDbArc
 50
269.9997437926
 51
0.0002562074
  0
ARC
  5
52F
100
AcDbEntity
  8
RACCORDO
100
AcDbCircle
 62
250
  6
CONTINUOUS
 10
-9.8755578689
 20
21.811516317
 30
0.0
 40
0.2494421317
100
AcDbArc
 50
155.9734553544
 51
179.9959856129
  0
ARC
  5
530
100
AcDbEntity
  8
RACCORDO
100
AcDbCircle
 62
250
  6
CONTINUOUS
 10
8.5255578746
 20
21.811516318
 30
0.0
 40
0.249442126
100
AcDbArc
 50
0.0040141642
 51
24.026402741
  0
ARC
  5
531
100
AcDbEntity
  8
RACCORDO
100
AcDbCircle
 62
7
  6
CONTINUOUS
 10
-76.9927922588
 20
-20.5007809198
 30
0.0
 40
1.5
100
AcDbArc
 50
182.3569499908
 51
267.0
  0
ARC
  5
532
100
AcDbEntity
  8
RACCORDO
100
AcDbCircle
 62
250
  6
CONTINUOUS
 10
-77.0015184562
 20
-20.5007809141
 30
0.0
 40
1.0000000061
100
AcDbArc
 50
182.3569503068
 51
266.999999684
  0
ARC
  5
533
100
AcDbEntity
  8
RACCORDO
100
AcDbCircle
 62
7
  6
CONTINUOUS
 10
-59.4145173042
 20
-21.3126932437
 30
0.0
 40
1.0
100
AcDbArc
 50
270.5
 51
360.0
  0
ARC
  5
534
100
AcDbEntity
  8
ASSI
100
AcDbCircle
 62
7
  6
CONTINUOUS
 10
-61.9145173042
 20
-23.2563578147
 30
0.0
 40
0.5
100
AcDbArc
 50
270.3333333333
 51
360.0
  0
ARC
  5
535
100
AcDbEntity
  8
RACCORDO
100
AcDbCircle
 62
7
  6
CONTINUOUS
 10
-68.6645173042
 20
-23.8443375673
 30
0.0
 40
0.25
100
AcDbArc
 50
0.0
 51
60.0
  0
ARC
  5
536
100
AcDbEntity
  8
RACCORDO
100
AcDbCircle
 62
7
  6
CONTINUOUS
 10
-71.6645173042
 20
-23.8443375673
 30
0.0
 40
0.25
100
AcDbArc
 50
120.0
 51
180.0
  0
ARC
  5
537
100
AcDbEntity
  8
RACCORDO
100
AcDbCircle
 62
7
  6
CONTINUOUS
 10
-71.6645173042
 20
-24.2369056521
 30
0.0
 40
0.25
100
AcDbArc
 50
180.0
 51
269.6666666667
  0
ARC
  5
538
100
AcDbEntity
  8
RACCORDO
100
AcDbCircle
 62
7
  6
CONTINUOUS
 10
-68.6645173042
 20
-24.2456323968
 30
0.0
 40
0.25
100
AcDbArc
 50
270.3333333333
 51
360.0
  0
ARC
  5
539
100
AcDbEntity
  8
IMPORT_IGES
100
AcDbCircle
 62
7
  6
CONTINUOUS
 10
-63.1145173042
 20
-3.4683371083
 30
0.0
 40
0.3
100
AcDbArc
 50
119.9621840985
 51
180.0
  0
ARC
  5
53A
100
AcDbEntity
  8
IMPORT_IGES
100
AcDbCircle
 62
7
  6
CONTINUOUS
 10
-63.1145173042
 20
-8.7357372121
 30
0.0
 40
0.3
100
AcDbArc
 50
180.0
 51
237.4051679367
  0
ARC
  5
53B
100
AcDbEntity
  8
RACCORDO
100
AcDbCircle
 62
7
  6
CONTINUOUS
 10
-67.3145173042
 20
-6.2872801014
 30
0.0
 40
0.3
100
AcDbArc
 50
0.0
 51
89.5
  0
ARC
  5
53C
100
AcDbEntity
  8
IMPORT_IGES
100
AcDbCircle
 62
7
  6
CONTINUOUS
 10
-65.6294149707
 20
-5.5
 30
0.0
 40
0.2
100
AcDbArc
 50
231.6869093262
 51
270.0
  0
ARC
  5
53D
100
AcDbEntity
  8
IMPORT_IGES
100
AcDbCircle
 62
7
  6
CONTINUOUS
 10
-66.7645173042
 20
-4.6031290204
 30
0.0
 40
0.2
100
AcDbArc
 50
180.0
 51
231.6869093257
  0
ARC
  5
53E
100
AcDbEntity
  8
IMPORT_IGES
100
AcDbCircle
 62
7
  6
CONTINUOUS
 10
-57.8645173042
 20
-11.05
 30
0.0
 40
0.1
100
AcDbArc
 50
179.9999995539
 51
269.9985367325
  0
ARC
  5
53F
100
AcDbEntity
  8
IMPORT_IGES
100
AcDbCircle
 62
7
  6
CONTINUOUS
 10
-57.3645173042
 20
-11.05
 30
0.0
 40
0.1
100
AcDbArc
 50
270.001296179
 51
360.0
  0
ARC
  5
540
100
AcDbEntity
  8
IMPORT_IGES
100
AcDbCircle
 62
7
  6
CONTINUOUS
 10
-57.1645173042
 20
-11.05
 30
0.0
 40
0.1
100
AcDbArc
 50
90.0000007302
 51
180.0000000001
  0
ARC
  5
541
100
AcDbEntity
  8
IMPORT_IGES
100
AcDbCircle
 62
7
  6
CONTINUOUS
 10
-58.0645173042
 20
-11.05
 30
0.0
 40
0.1
100
AcDbArc
 50
0.0000000008
 51
90.0000489297
  0
ARC
  5
542
100
AcDbEntity
  8
IMPORT_IGES
100
AcDbCircle
 62
7
  6
CONTINUOUS
 10
-63.1145173042
 20
3.7948571137
 30
0.0
 40
0.3
100
AcDbArc
 50
180.0
 51
239.036243468
  0
ARC
  5
543
100
AcDbEntity
  8
IMPORT_IGES
100
AcDbCircle
 62
7
  6
CONTINUOUS
 10
-65.6294149707
 20
5.8
 30
0.0
 40
0.2
100
AcDbArc
 50
90.0
 51
128.3130906738
  0
ARC
  5
544
100
AcDbEntity
  8
IMPORT_IGES
100
AcDbCircle
 62
7
  6
CONTINUOUS
 10
-66.7645173042
 20
4.9031290204
 30
0.0
 40
0.2
100
AcDbArc
 50
128.3130906738
 51
180.0
  0
ARC
  5
545
100
AcDbEntity
  8
IMPORT_IGES
100
AcDbCircle
 62
7
  6
CONTINUOUS
 10
-62.9145173043
 20
8.2928932188
 30
0.0
 40
0.5
100
AcDbArc
 50
135.0026207296
 51
179.9999449478
  0
ARC
  5
546
100
AcDbEntity
  8
RACCORDO
100
AcDbCircle
 62
7
  6
CONTINUOUS
 10
-68.238781373
 20
11.5
 30
0.0
 40
0.3
100
AcDbArc
 50
270.0
 51
315.0
  0
ARC
  5
547
100
AcDbEntity
  8
IMPORT_IGES
100
AcDbCircle
 62
7
  6
CONTINUOUS
 10
-60.8413288478
 20
9.2117237174
 30
0.0
 40
2.0
100
AcDbArc
 50
29.0543979959
 51
90.0
  0
ARC
  5
548
100
AcDbEntity
  8
IMPORT_IGES
100
AcDbCircle
 62
7
  6
CONTINUOUS
 10
-61.7574105231
 20
9.45
 30
0.0
 40
0.5
100
AcDbArc
 50
90.0000025555
 51
134.9974856792
  0
ARC
  5
549
100
AcDbEntity
  8
IMPORT_IGES
100
AcDbCircle
 62
7
  6
CONTINUOUS
 10
-57.0777825316
 20
10.8314349363
 30
0.0
 40
0.1185765694
100
AcDbArc
 50
96.700938551
 51
103.3450187373
  0
ARC
  5
54A
100
AcDbEntity
  8
IMPORT_IGES
100
AcDbCircle
 62
7
  6
CONTINUOUS
 10
-57.0775743194
 20
10.8323146546
 30
0.0
 40
0.117880905
100
AcDbArc
 50
136.6911729188
 51
149.9217281628
  0
ARC
  5
54B
100
AcDbEntity
  8
IMPORT_IGES
100
AcDbCircle
 62
7
  6
CONTINUOUS
 10
-57.0779954311
 20
10.8333880539
 30
0.0
 40
0.1166119526
100
AcDbArc
 50
90.0194299188
 51
96.7090251387
  0
ARC
  5
54C
100
AcDbEntity
  8
IMPORT_IGES
100
AcDbCircle
 62
7
  6
CONTINUOUS
 10
-55.8772973047
 20
11.05
 30
0.0
 40
0.1
100
AcDbArc
 50
359.9999998326
 51
89.9934060556
  0
ARC
  5
54D
100
AcDbEntity
  8
IMPORT_IGES
100
AcDbCircle
 62
7
  6
CONTINUOUS
 10
-56.3772973042
 20
11.05
 30
0.0
 40
0.1
100
AcDbArc
 50
90.0063659942
 51
180.0000000002
  0
ARC
  5
54E
100
AcDbEntity
  8
IMPORT_IGES
100
AcDbCircle
 62
7
  6
CONTINUOUS
 10
-56.5772973042
 20
11.05
 30
0.0
 40
0.1
100
AcDbArc
 50
270.0000000035
 51
359.9999998323
  0
ARC
  5
54F
100
AcDbEntity
  8
IMPORT_IGES
100
AcDbCircle
 62
7
  6
CONTINUOUS
 10
-55.6772973043
 20
11.05
 30
0.0
 40
0.1
100
AcDbArc
 50
180.0000001679
 51
269.9989146356
  0
ARC
  5
550
100
AcDbEntity
  8
IMPORT_IGES
100
AcDbCircle
 62
250
  6
CONTINUOUS
 10
-57.1233755594
 20
10.8280270685
 30
0.0
 40
0.0803595449
100
AcDbArc
 50
141.5811639842
 51
150.0032157245
  0
ARC
  5
551
100
AcDbEntity
  8
IMPORT_IGES
100
AcDbCircle
 62
7
  6
CONTINUOUS
 10
-45.6145173042
 20
-7.7428932188
 30
0.0
 40
0.5
100
AcDbArc
 50
315.0000000296
 51
360.0
  0
ARC
  5
552
100
AcDbEntity
  8
IMPORT_IGES
100
AcDbCircle
 62
7
  6
CONTINUOUS
 10
-48.3216240854
 20
-10.45
 30
0.0
 40
0.5
100
AcDbArc
 50
270.0
 51
314.9999999775
  0
ARC
  5
553
100
AcDbEntity
  8
IMPORT_IGES
100
AcDbCircle
 62
250
  6
CONTINUOUS
 10
-48.6668037375
 20
-11.0291243604
 30
0.0
 40
0.4204946202
100
AcDbArc
 50
90.3744482014
 51
101.0486714639
  0
ARC
  5
554
100
AcDbEntity
  8
IMPORT_IGES
100
AcDbCircle
 62
250
  6
CONTINUOUS
 10
-48.3216240854
 20
-10.45
 30
0.0
 40
0.3
100
AcDbArc
 50
270.0
 51
313.6309534759
  0
ARC
  5
555
100
AcDbEntity
  8
IMPORT_IGES
100
AcDbCircle
 62
7
  6
CONTINUOUS
 10
-51.1645173042
 20
-11.05
 30
0.0
 40
0.1
100
AcDbArc
 50
179.9999995539
 51
269.9985367325
  0
ARC
  5
556
100
AcDbEntity
  8
IMPORT_IGES
100
AcDbCircle
 62
7
  6
CONTINUOUS
 10
-50.6645173042
 20
-11.05
 30
0.0
 40
0.1
100
AcDbArc
 50
270.001296179
 51
360.0
  0
ARC
  5
557
100
AcDbEntity
  8
IMPORT_IGES
100
AcDbCircle
 62
7
  6
CONTINUOUS
 10
-50.4645173042
 20
-11.05
 30
0.0
 40
0.1
100
AcDbArc
 50
90.0000007302
 51
180.0000000001
  0
ARC
  5
558
100
AcDbEntity
  8
IMPORT_IGES
100
AcDbCircle
 62
7
  6
CONTINUOUS
 10
-51.3645173042
 20
-11.05
 30
0.0
 40
0.1
100
AcDbArc
 50
0.0000000008
 51
90.0000488725
  0
ARC
  5
559
100
AcDbEntity
  8
IMPORT_IGES
100
AcDbCircle
 62
250
  6
CONTINUOUS
 10
-38.0583891352
 20
-7.5215027468
 30
0.0
 40
7.0741096185
100
AcDbArc
 50
170.91087175
 51
171.1608175135
  0
ARC
  5
55A
100
AcDbEntity
  8
IMPORT_IGES
100
AcDbCircle
 62
250
  6
CONTINUOUS
 10
-40.3584553509
 20
-7.2441652745
 30
0.0
 40
4.7566331153
100
AcDbArc
 50
175.5519620997
 51
176.9409384138
  0
ARC
  5
55B
100
AcDbEntity
  8
IMPORT_IGES
100
AcDbCircle
 62
250
  6
CONTINUOUS
 10
-42.6985342251
 20
-7.2585686439
 30
0.0
 40
2.4185256281
100
AcDbArc
 50
162.2567460543
 51
171.2651823566
  0
ARC
  5
55C
100
AcDbEntity
  8
IMPORT_IGES
100
AcDbCircle
 62
250
  6
CONTINUOUS
 10
-42.8105101446
 20
-7.2383987122
 30
0.0
 40
2.3047872575
100
AcDbArc
 50
171.3380496302
 51
172.4828180327
  0
ARC
  5
55D
100
AcDbEntity
  8
IMPORT_IGES
100
AcDbCircle
 62
250
  6
CONTINUOUS
 10
-42.8673931433
 20
-7.2312112396
 30
0.0
 40
2.2474528616
100
AcDbArc
 50
172.4747637736
 51
175.4270026212
  0
ARC
  5
55E
100
AcDbEntity
  8
IMPORT_IGES
100
AcDbCircle
 62
7
  6
CONTINUOUS
 10
-43.6145173042
 20
-7.6502977476
 30
0.0
 40
1.5
100
AcDbArc
 50
145.7316915939
 51
179.9988821068
  0
ARC
  5
55F
100
AcDbEntity
  8
IMPORT_IGES
100
AcDbCircle
 62
7
  6
CONTINUOUS
 10
-43.2645173042
 20
-7.9455021716
 30
0.0
 40
0.3
100
AcDbArc
 50
270.0000000003
 51
0.0031980645
  0
ARC
  5
560
100
AcDbEntity
  8
IMPORT_IGES
100
AcDbCircle
 62
7
  6
CONTINUOUS
 10
-39.9145173042
 20
-7.281099574
 30
0.0
 40
0.2
100
AcDbArc
 50
179.9839555172
 51
269.9999999999
  0
ARC
  5
561
100
AcDbEntity
  8
IMPORT_IGES
100
AcDbCircle
 62
7
  6
CONTINUOUS
 10
-39.3145173043
 20
-7.281099574
 30
0.0
 40
0.2
100
AcDbArc
 50
269.9999999991
 51
0.0160444831
  0
ARC
  5
562
100
AcDbEntity
  8
IMPORT_IGES
100
AcDbCircle
 62
7
  6
CONTINUOUS
 10
-43.6145173043
 20
-5.9498278509
 30
0.0
 40
1.5
100
AcDbArc
 50
180.0
 51
209.489067492
  0
ARC
  5
563
100
AcDbEntity
  8
IMPORT_IGES
100
AcDbCircle
 62
7
  6
CONTINUOUS
 10
-39.4145173042
 20
-2.645
 30
0.0
 40
0.3
100
AcDbArc
 50
270.0
 51
359.9999999999
  0
ARC
  5
564
100
AcDbEntity
  8
IMPORT_IGES
100
AcDbCircle
 62
7
  6
CONTINUOUS
 10
-42.6645173043
 20
-3.245
 30
0.0
 40
0.3
100
AcDbArc
 50
89.9999999995
 51
179.9999999983
  0
ARC
  5
565
100
AcDbEntity
  8
IMPORT_IGES
100
AcDbCircle
 62
7
  6
CONTINUOUS
 10
-40.3145173042
 20
-6.3502977476
 30
0.0
 40
0.2
100
AcDbArc
 50
0.0005279882
 51
90.0000000006
  0
ARC
  5
566
100
AcDbEntity
  8
IMPORT_IGES
100
AcDbCircle
 62
7
  6
CONTINUOUS
 10
-39.3145173042
 20
-3.3132052805
 30
0.0
 40
0.2
100
AcDbArc
 50
0.0
 51
90.0000000001
  0
ARC
  5
567
100
AcDbEntity
  8
IMPORT_IGES
100
AcDbCircle
 62
7
  6
CONTINUOUS
 10
-48.5918203983
 20
8.95
 30
0.0
 40
2.0
100
AcDbArc
 50
53.0000001029
 51
90.0006687305
  0
ARC
  5
568
100
AcDbEntity
  8
IMPORT_IGES
100
AcDbCircle
 62
250
  6
CONTINUOUS
 10
-48.6267868167
 20
11.1044634466
 30
0.0
 40
0.8742314182
100
AcDbArc
 50
266.1839283476
 51
269.0635167819
  0
ARC
  5
569
100
AcDbEntity
  8
IMPORT_IGES
100
AcDbCircle
 62
250
  6
CONTINUOUS
 10
-48.6337768143
 20
11.0023131613
 30
0.0
 40
0.7718424258
100
AcDbArc
 50
263.0753037066
 51
266.196994122
  0
ARC
  5
56A
100
AcDbEntity
  8
IMPORT_IGES
100
AcDbCircle
 62
250
  6
CONTINUOUS
 10
-48.6481789509
 20
10.8852112222
 30
0.0
 40
0.6538583252
100
AcDbArc
 50
259.560842482
 51
263.090964027
  0
ARC
  5
56B
100
AcDbEntity
  8
IMPORT_IGES
100
AcDbCircle
 62
7
  6
CONTINUOUS
 10
-45.5839604873
 20
7.7821863701
 30
0.0
 40
0.5
100
AcDbArc
 50
7.2347655619
 51
52.999663288
  0
ARC
  5
56C
100
AcDbEntity
  8
IMPORT_IGES
100
AcDbCircle
 62
250
  6
CONTINUOUS
 10
-49.0497496127
 20
10.679627272
 30
0.0
 40
0.2301804701
100
AcDbArc
 50
83.7352037812
 51
90.0559723781
  0
ARC
  5
56D
100
AcDbEntity
  8
IMPORT_IGES
100
AcDbCircle
 62
7
  6
CONTINUOUS
 10
-49.0500126702
 20
10.75
 30
0.0
 40
0.2
100
AcDbArc
 50
0.2527618433
 51
89.9988817169
  0
ARC
  5
56E
100
AcDbEntity
  8
IMPORT_IGES
100
AcDbCircle
 62
7
  6
CONTINUOUS
 10
-50.6776583042
 20
11.05
 30
0.0
 40
0.1
100
AcDbArc
 50
90.0065541164
 51
180.0000000002
  0
ARC
  5
56F
100
AcDbEntity
  8
IMPORT_IGES
100
AcDbCircle
 62
7
  6
CONTINUOUS
 10
-50.8776583042
 20
11.05
 30
0.0
 40
0.1
100
AcDbArc
 50
270.0000000035
 51
359.9999998321
  0
ARC
  5
570
100
AcDbEntity
  8
IMPORT_IGES
100
AcDbCircle
 62
7
  6
CONTINUOUS
 10
-49.9776583042
 20
11.05
 30
0.0
 40
0.1
100
AcDbArc
 50
180.0000001669
 51
269.9989146326
  0
ARC
  5
571
100
AcDbEntity
  8
IMPORT_IGES
100
AcDbCircle
 62
7
  6
CONTINUOUS
 10
-50.1776583042
 20
11.05
 30
0.0
 40
0.1
100
AcDbArc
 50
359.9999998329
 51
89.9934392114
  0
ARC
  5
572
100
AcDbEntity
  8
IMPORT_IGES
100
AcDbCircle
 62
7
  6
CONTINUOUS
 10
-44.9572203323
 20
0.2710819832
 30
0.0
 40
1.9927030281
100
AcDbArc
 50
0.0000047949
 51
24.3276976851
  0
ARC
  5
573
100
AcDbEntity
  8
IMPORT_IGES
100
AcDbCircle
 62
250
  6
CONTINUOUS
 10
-44.9731450362
 20
0.2728919777
 30
0.0
 40
1.7086281923
100
AcDbArc
 50
0.1148753948
 51
24.2124472725
  0
ARC
  5
574
100
AcDbEntity
  8
IMPORT_IGES
100
AcDbCircle
 62
250
  6
CONTINUOUS
 10
-42.661678031
 20
0.3458068454
 30
0.0
 40
0.313196016
100
AcDbArc
 50
215.2711674381
 51
221.5383241918
  0
ARC
  5
575
100
AcDbEntity
  8
IMPORT_IGES
100
AcDbCircle
 62
250
  6
CONTINUOUS
 10
-42.6656019377
 20
0.3544213533
 30
0.0
 40
0.3051434748
100
AcDbArc
 50
255.8344651005
 51
262.9582833625
  0
ARC
  5
576
100
AcDbEntity
  8
IMPORT_IGES
100
AcDbCircle
 62
250
  6
CONTINUOUS
 10
-42.6693948258
 20
0.3404879756
 30
0.0
 40
0.3038244631
100
AcDbArc
 50
208.7816715268
 51
215.2925833914
  0
ARC
  5
577
100
AcDbEntity
  8
IMPORT_IGES
100
AcDbCircle
 62
250
  6
CONTINUOUS
 10
-42.6638552364
 20
0.3507948723
 30
0.0
 40
0.3031325344
100
AcDbArc
 50
212.4618084941
 51
219.5897923421
  0
ARC
  5
578
100
AcDbEntity
  8
IMPORT_IGES
100
AcDbCircle
 62
250
  6
CONTINUOUS
 10
-42.6658734276
 20
0.3508865858
 30
0.0
 40
0.3016021315
100
AcDbArc
 50
262.9271485699
 51
270.0167372905
  0
ARC
  5
579
100
AcDbEntity
  8
IMPORT_IGES
100
AcDbCircle
 62
7
  6
CONTINUOUS
 10
-42.6660536118
 20
0.355
 30
0.0
 40
0.3
100
AcDbArc
 50
182.0976211818
 51
269.9998766406
  0
ARC
  5
57A
100
AcDbEntity
  8
IMPORT_IGES
100
AcDbCircle
 62
250
  6
CONTINUOUS
 10
-42.6673232165
 20
0.3487523666
 30
0.0
 40
0.2991101712
100
AcDbArc
 50
205.0883015713
 51
212.4882489655
  0
ARC
  5
57B
100
AcDbEntity
  8
IMPORT_IGES
100
AcDbCircle
 62
250
  6
CONTINUOUS
 10
-42.6688676098
 20
0.3466936735
 30
0.0
 40
0.2969068416
100
AcDbArc
 50
189.5527149784
 51
197.211629743
  0
ARC
  5
57C
100
AcDbEntity
  8
IMPORT_IGES
100
AcDbCircle
 62
250
  6
CONTINUOUS
 10
-42.6706304493
 20
0.3464610309
 30
0.0
 40
0.2951298453
100
AcDbArc
 50
181.9241184974
 51
189.5649719152
  0
ARC
  5
57D
100
AcDbEntity
  8
IMPORT_IGES
100
AcDbCircle
 62
250
  6
CONTINUOUS
 10
-42.6769939777
 20
0.3360560517
 30
0.0
 40
0.2950303379
100
AcDbArc
 50
201.9629791939
 51
208.7378557465
  0
ARC
  5
57E
100
AcDbEntity
  8
IMPORT_IGES
100
AcDbCircle
 62
250
  6
CONTINUOUS
 10
-42.6754715482
 20
0.3446709535
 30
0.0
 40
0.2900001127
100
AcDbArc
 50
197.2159721653
 51
205.0406190752
  0
ARC
  5
57F
100
AcDbEntity
  8
IMPORT_IGES
100
AcDbCircle
 62
250
  6
CONTINUOUS
 10
-42.7171499151
 20
4.9949172031
 30
0.0
 40
2.2923115843
100
AcDbArc
 50
187.2333644028
 51
204.3292941278
  0
ARC
  5
580
100
AcDbEntity
  8
IMPORT_IGES
100
AcDbCircle
 62
7
  6
CONTINUOUS
 10
-42.7167687071
 20
4.989786439
 30
0.0
 40
1.992703028
100
AcDbArc
 50
187.2345488903
 51
204.3277884814
  0
ARC
  5
581
100
AcDbEntity
  8
IMPORT_IGES
100
AcDbCircle
 62
7
  6
CONTINUOUS
 10
-40.6645173043
 20
0.555
 30
0.0
 40
0.5
100
AcDbArc
 50
270.0000000002
 51
353.9778369184
  0
ARC
  5
582
100
AcDbEntity
  8
IMPORT_IGES
100
AcDbCircle
 62
7
  6
CONTINUOUS
 10
-39.4145173042
 20
0.755
 30
0.0
 40
0.3
100
AcDbArc
 50
0.0
 51
90.0000000003
  0
ARC
  5
583
100
AcDbEntity
  8
IMPORT_IGES
100
AcDbCircle
 62
7
  6
CONTINUOUS
 10
-44.1085870262
 20
6.8237769931
 30
0.0
 40
1.0
100
AcDbArc
 50
1.2448503125
 51
53.000289763
  0
ARC
  5
584
100
AcDbEntity
  8
IMPORT_IGES
100
AcDbCircle
 62
250
  6
CONTINUOUS
 10
-43.8579801991
 20
5.8515850243
 30
0.0
 40
0.7705732253
100
AcDbArc
 50
1.2380106591
 51
9.7633427504
  0
ARC
  5
585
100
AcDbEntity
  8
IMPORT_IGES
100
AcDbCircle
 62
250
  6
CONTINUOUS
 10
-43.6436888549
 20
5.90648489
 30
0.0
 40
0.5489492685
100
AcDbArc
 50
22.6272139423
 51
26.078048389
  0
ARC
  5
586
100
AcDbEntity
  8
IMPORT_IGES
100
AcDbCircle
 62
250
  6
CONTINUOUS
 10
-43.6370707589
 20
5.9096884812
 30
0.0
 40
0.5415966388
100
AcDbArc
 50
26.0814156392
 51
29.5055422743
  0
ARC
  5
587
100
AcDbEntity
  8
IMPORT_IGES
100
AcDbCircle
 62
7
  6
CONTINUOUS
 10
-43.387515752
 20
5.8617028326
 30
0.0
 40
0.3
100
AcDbArc
 50
1.2448504427
 51
45.0000000017
  0
ARC
  5
588
100
AcDbEntity
  8
IMPORT_IGES
100
AcDbCircle
 62
250
  6
CONTINUOUS
 10
-43.3905507073
 20
5.8604069103
 30
0.0
 40
0.1030697286
100
AcDbArc
 50
1.9284387393
 51
44.3164117168
  0
ARC
  5
589
100
AcDbEntity
  8
IMPORT_IGES
100
AcDbCircle
 62
250
  6
CONTINUOUS
 10
16.1311708197
 20
-34.8736594347
 30
0.0
 40
86.3608553284
100
AcDbArc
 50
148.0756549024
 51
148.3416247571
  0
ARC
  5
58A
100
AcDbEntity
  8
IMPORT_IGES
100
AcDbCircle
 62
250
  6
CONTINUOUS
 10
-7.5956897912
 20
10.9328554406
 30
0.0
 40
41.4537987571
100
AcDbArc
 50
180.0318518527
 51
180.6518024103
  0
ARC
  5
58B
100
AcDbEntity
  8
IMPORT_IGES
100
AcDbCircle
 62
7
  6
CONTINUOUS
 10
-7.5958046534
 20
10.9328529191
 30
0.0
 40
41.2546112934
100
AcDbArc
 50
180.2527278577
 51
180.8911979751
  0
ARC
  5
58C
100
AcDbEntity
  8
IMPORT_IGES
100
AcDbCircle
 62
7
  6
CONTINUOUS
 10
-7.4668094791
 20
10.9332057267
 30
0.0
 40
41.1836356493
100
AcDbArc
 50
180.2520649206
 51
180.9406696752
  0
ARC
  5
58D
100
AcDbEntity
  8
IMPORT_IGES
100
AcDbCircle
 62
250
  6
CONTINUOUS
 10
-7.6185036308
 20
-11.0080978493
 30
0.0
 40
41.0546112937
100
AcDbArc
 50
179.524200648
 51
179.6397967347
  0
ARC
  5
58E
100
AcDbEntity
  8
IMPORT_IGES
100
AcDbCircle
 62
250
  6
CONTINUOUS
 10
-138.1079326109
 20
60.0786159239
 30
0.0
 40
94.7622956739
100
AcDbArc
 50
328.1095375459
 51
328.3413999646
  0
ARC
  5
58F
100
AcDbEntity
  8
IMPORT_IGES
100
AcDbCircle
 62
250
  6
CONTINUOUS
 10
-59.1584672879
 20
18.8200318269
 30
0.0
 40
17.2152327429
100
AcDbArc
 50
322.7552103633
 51
323.0089078246
  0
ARC
  5
590
100
AcDbEntity
  8
RACCORDO
100
AcDbCircle
 62
7
  6
CONTINUOUS
 10
-76.9846434821
 20
20.5632468755
 30
0.0
 40
1.5
100
AcDbArc
 50
93.0
 51
173.5114051664
  0
ARC
  5
591
100
AcDbEntity
  8
RACCORDO
100
AcDbCircle
 62
7
  6
CONTINUOUS
 10
-76.9927922588
 20
20.5007809198
 30
0.0
 40
1.5
100
AcDbArc
 50
93.0
 51
177.6430500092
  0
ARC
  5
592
100
AcDbEntity
  8
RACCORDO
100
AcDbCircle
 62
250
  6
CONTINUOUS
 10
-77.0015184562
 20
20.5007809141
 30
0.0
 40
1.000000006
100
AcDbArc
 50
93.0000003145
 51
177.6430496947
  0
ARC
  5
593
100
AcDbEntity
  8
RACCORDO
100
AcDbCircle
 62
7
  6
CONTINUOUS
 10
-59.4145173042
 20
21.3126932437
 30
0.0
 40
1.0
100
AcDbArc
 50
0.0
 51
89.5
  0
ARC
  5
594
100
AcDbEntity
  8
ASSI
100
AcDbCircle
 62
7
  6
CONTINUOUS
 10
-61.9145173042
 20
23.2563578147
 30
0.0
 40
0.5
100
AcDbArc
 50
0.0
 51
89.6666666667
  0
ARC
  5
595
100
AcDbEntity
  8
RACCORDO
100
AcDbCircle
 62
7
  6
CONTINUOUS
 10
-68.6645173042
 20
23.8443375673
 30
0.0
 40
0.25
100
AcDbArc
 50
300.0
 51
360.0
  0
ARC
  5
596
100
AcDbEntity
  8
RACCORDO
100
AcDbCircle
 62
7
  6
CONTINUOUS
 10
-68.6645173042
 20
24.2456323968
 30
0.0
 40
0.25
100
AcDbArc
 50
0.0
 51
89.6666666667
  0
ARC
  5
597
100
AcDbEntity
  8
RACCORDO
100
AcDbCircle
 62
7
  6
CONTINUOUS
 10
-71.6645173042
 20
24.2369056521
 30
0.0
 40
0.25
100
AcDbArc
 50
90.3333333333
 51
180.0
  0
ARC
  5
598
100
AcDbEntity
  8
RACCORDO
100
AcDbCircle
 62
7
  6
CONTINUOUS
 10
-71.6645173042
 20
23.8443375673
 30
0.0
 40
0.25
100
AcDbArc
 50
180.0
 51
240.0
  0
ARC
  5
599
100
AcDbEntity
  8
RACCORDO
100
AcDbCircle
 62
7
  6
CONTINUOUS
 10
421.0951749479
 20
0.1
 30
0.0
 40
500.0
100
AcDbArc
 50
177.647367682
 51
177.6545447484
  0
ARC
  5
59A
100
AcDbEntity
  8
ASSI
100
AcDbCircle
 62
7
  6
CONTINUOUS
 10
421.0854826958
 20
0.0
 30
0.0
 40
500.0
100
AcDbArc
 50
177.8718070179
 51
178.2120815273
  0
ARC
  5
59B
100
AcDbEntity
  8
RACCORDO
100
AcDbCircle
 62
7
  6
CONTINUOUS
 10
421.0854826958
 20
-0.0
 30
0.0
 40
500.0
100
AcDbArc
 50
177.6430500092
 51
182.3569499908
  0
ARC
  5
59C
100
AcDbEntity
  8
RACCORDO
100
AcDbCircle
 62
250
  6
CONTINUOUS
 10
421.0767753368
 20
-0.0
 30
0.0
 40
499.5000188283
100
AcDbArc
 50
177.6430500981
 51
182.3569499019
  0
SPLINE
  5
59D
100
AcDbEntity
  8
RACCORDO
100
AcDbSpline
 62
7
  6
CONTINUOUS
 70
0
 71
3
 72
9
 73
5
 74
0
 42
0.0000001
 43
0.0000001
 44
0.0000000001
 40
0.0
 40
0.0
 40
0.0
 40
0.0
 40
0.4886661288
 40
1.0
 40
1.0
 40
1.0
 40
1.0
 10
-9.9944793325
 20
15.6303987953
 30
0.0
 10
-9.9744644259
 20
15.6412891461
 30
0.0
 10
-9.9344954923
 20
15.6653644482
 30
0.0
 10
-9.895153111
 20
15.6903796111
 30
0.0
 10
-9.875
 20
15.7031206241
 30
0.0
  0
SPLINE
  5
59E
100
AcDbEntity
  8
RACCORDO
100
AcDbSpline
 62
250
  6
CONTINUOUS
 70
0
 71
3
 72
18
 73
14
 74
0
 42
0.0000001
 43
0.0000001
 44
0.0000000001
 40
0.0
 40
0.0
 40
0.0
 40
0.0
 40
0.0062647454
 40
0.0211639136
 40
0.0452318538
 40
0.0784153494
 40
0.1204091133
 40
0.1708066743
 40
0.2949697286
 40
0.4460784149
 40
0.6184399353
 40
0.8056756247
 40
1.0
 40
1.0
 40
1.0
 40
1.0
 10
8.775
 20
20.6145589289
 30
0.0
 10
8.775
 20
20.6150826108
 30
0.0
 10
8.7728688966
 20
20.6159725285
 30
0.0
 10
8.7696075586
 20
20.616731805
 30
0.0
 10
8.7634143981
 20
20.6177078975
 30
0.0
 10
8.7552657099
 20
20.6185908777
 30
0.0
 10
8.7447679632
 20
20.6194864532
 30
0.0
 10
8.7267231053
 20
20.6206958412
 30
0.0
 10
8.6995176053
 20
20.6219921974
 30
0.0
 10
8.6621228969
 20
20.6232167356
 30
0.0
 10
8.6194395077
 20
20.624130432
 30
0.0
 10
8.5731395316
 20
20.6246938887
 30
0.0
 10
8.5412439405
 20
20.6248213395
 30
0.0
 10
8.525
 20
20.6248213396
 30
0.0
  0
SPLINE
  5
59F
100
AcDbEntity
  8
RACCORDO
100
AcDbSpline
 62
250
  6
CONTINUOUS
 70
0
 71
3
 72
18
 73
14
 74
0
 42
0.0000001
 43
0.0000001
 44
0.0000000001
 40
0.0
 40
0.0
 40
0.0
 40
0.0
 40
0.006264746
 40
0.0211639132
 40
0.0452318522
 40
0.0784153465
 40
0.1204091079
 40
0.1708066669
 40
0.2949697191
 40
0.4460784038
 40
0.6184399264
 40
0.8056756222
 40
1.0
 40
1.0
 40
1.0
 40
1.0
 10
-10.125
 20
20.6145589289
 30
0.0
 10
-10.125
 20
20.6150826108
 30
0.0
 10
-10.1228688972
 20
20.6159725293
 30
0.0
 10
-10.119607559
 20
20.6167318058
 30
0.0
 10
-10.1134143991
 20
20.6177078987
 30
0.0
 10
-10.1052657111
 20
20.6185908791
 30
0.0
 10
-10.094767965
 20
20.619486455
 30
0.0
 10
-10.0767231076
 20
20.6206958433
 30
0.0
 10
-10.0495176081
 20
20.6219921997
 30
0.0
 10
-10.0121228997
 20
20.6232167379
 30
0.0
 10
-9.9694395098
 20
20.6241304339
 30
0.0
 10
-9.9231395327
 20
20.6246938898
 30
0.0
 10
-9.8912439407
 20
20.6248213398
 30
0.0
 10
-9.875
 20
20.6248213394
 30
0.0
  0
SPLINE
  5
5A0
100
AcDbEntity
  8
RACCORDO
100
AcDbSpline
 62
7
  6
CONTINUOUS
 70
0
 71
3
 72
9
 73
5
 74
0
 42
0.0000001
 43
0.0000001
 44
0.0000000001
 40
0.0
 40
0.0
 40
0.0
 40
0.0
 40
0.4886661288
 40
1.0
 40
1.0
 40
1.0
 40
1.0
 10
8.6444793325
 20
15.6303987953
 30
0.0
 10
8.6244644259
 20
15.6412891461
 30
0.0
 10
8.5844954923
 20
15.6653644482
 30
0.0
 10
8.545153111
 20
15.6903796111
 30
0.0
 10
8.525
 20
15.7031206241
 30
0.0
  0
LINE
  5
5A1
100
AcDbEntity
  8
IMPORT_IGES
100
AcDbLine
 62
7
  6
CONTINUOUS
 10
-3.825
 20
-5.75
 30
0.0
 11
-4.125
 21
-6.05
 31
0.0
  0
LINE
  5
5A2
100
AcDbEntity
  8
IMPORT_IGES
100
AcDbLine
 62
7
  6
CONTINUOUS
 10
-4.125
 20
-4.5
 30
0.0
 11
-3.825
 21
-4.2
 31
0.0
  0
LINE
  5
5A3
100
AcDbEntity
  8
IMPORT_IGES
100
AcDbLine
 62
7
  6
CONTINUOUS
 10
1.65
 20
-6.05
 30
0.0
 11
1.35
 21
-5.75
 31
0.0
  0
LINE
  5
5A4
100
AcDbEntity
  8
IMPORT_IGES
100
AcDbLine
 62
7
  6
CONTINUOUS
 10
-3.0
 20
-6.05
 30
0.0
 11
-2.7
 21
-5.75
 31
0.0
  0
LINE
  5
5A5
100
AcDbEntity
  8
IMPORT_IGES
100
AcDbLine
 62
7
  6
CONTINUOUS
 10
2.475
 20
-4.2
 30
0.0
 11
2.775
 21
-4.5
 31
0.0
  0
LINE
  5
5A6
100
AcDbEntity
  8
IMPORT_IGES
100
AcDbLine
 62
7
  6
CONTINUOUS
 10
2.775
 20
-6.05
 30
0.0
 11
2.475
 21
-5.75
 31
0.0
  0
SPLINE
  5
5A7
100
AcDbEntity
  8
IMPORT_IGES
100
AcDbSpline
 62
7
  6
CONTINUOUS
 70
0
 71
3
 72
13
 73
9
 74
0
 42
0.0000001
 43
0.0000001
 44
0.0000000001
 40
0.0
 40
0.0
 40
0.0
 40
0.0
 40
0.0725858035
 40
0.170210022
 40
0.287017984
 40
0.4171653119
 40
0.7012589502
 40
1.0
 40
1.0
 40
1.0
 40
1.0
 10
5.275
 20
2.798298469
 30
0.0
 10
5.275
 20
2.8116410937
 30
0.0
 10
5.2844030903
 20
2.8423931271
 30
0.0
 10
5.3082921844
 20
2.889224288
 30
0.0
 10
5.3418426533
 20
2.9431154098
 30
0.0
 10
5.397207294
 20
3.0234846094
 30
0.0
 10
5.4757783631
 20
3.1284478368
 30
0.0
 10
5.5413720712
 20
3.2131425691
 30
0.0
 10
5.575
 20
3.2565560385
 30
0.0
  0
LINE
  5
5A8
100
AcDbEntity
  8
IMPORT_IGES
100
AcDbLine
 62
7
  6
CONTINUOUS
 10
5.275
 20
-4.2
 30
0.0
 11
5.575
 21
-4.5
 31
0.0
  0
LINE
  5
5A9
100
AcDbEntity
  8
IMPORT_IGES
100
AcDbLine
 62
7
  6
CONTINUOUS
 10
-6.925
 20
-4.5
 30
0.0
 11
-6.625
 21
-4.2
 31
0.0
  0
SPLINE
  5
5AA
100
AcDbEntity
  8
IMPORT_IGES
100
AcDbSpline
 62
7
  6
CONTINUOUS
 70
0
 71
3
 72
13
 73
9
 74
0
 42
0.0000001
 43
0.0000001
 44
0.0000000001
 40
0.0
 40
0.0
 40
0.0
 40
0.0
 40
0.2987408962
 40
0.582834497
 40
0.7129818611
 40
0.8297899091
 40
0.9274141419
 40
1.0
 40
1.0
 40
1.0
 40
1.0
 10
-6.925
 20
3.2565560385
 30
0.0
 10
-6.8913720885
 20
3.2131425915
 30
0.0
 10
-6.8257784012
 20
3.1284478876
 30
0.0
 10
-6.7472073514
 20
3.0234846814
 30
0.0
 10
-6.6918426961
 20
2.9431154733
 30
0.0
 10
-6.6582922093
 20
2.8892243328
 30
0.0
 10
-6.6344030991
 20
2.8423931489
 30
0.0
 10
-6.625
 20
2.8116411038
 30
0.0
 10
-6.625
 20
2.798298469
 30
0.0
  0
SPLINE
  5
5AB
100
AcDbEntity
  8
RACCORDO
100
AcDbSpline
 62
7
  6
CONTINUOUS
 70
0
 71
3
 72
26
 73
22
 74
0
 42
0.0000001
 43
0.0000001
 44
0.0000000001
 40
0.0
 40
0.0
 40
0.0
 40
0.0
 40
0.0008510653
 40
0.0025716542
 40
0.0051572082
 40
0.0086000001
 40
0.0179987509
 40
0.0306167699
 40
0.0462705002
 40
0.0647480229
 40
0.0858262035
 40
0.1092783295
 40
0.1624324164
 40
0.2225886454
 40
0.2883652133
 40
0.3586265728
 40
0.4324525713
 40
0.5090980165
 40
0.6685161213
 40
0.8331018021
 40
1.0
 40
1.0
 40
1.0
 40
1.0
 10
-7.1344599863
 20
-4.5094826834
 30
0.0
 10
-7.1345469231
 20
-4.5096645573
 30
0.0
 10
-7.1349479902
 20
-4.5101346262
 30
0.0
 10
-7.1357263379
 20
-4.5110677628
 30
0.0
 10
-7.1369651445
 20
-4.5124269312
 30
0.0
 10
-7.1394404363
 20
-4.515112244
 30
0.0
 10
-7.1435900056
 20
-4.519490131
 30
0.0
 10
-7.1497648249
 20
-4.5259301158
 30
0.0
 10
-7.1574652085
 20
-4.5338877167
 30
0.0
 10
-7.1665844963
 20
-4.5432601795
 30
0.0
 10
-7.1770141023
 20
-4.5539350443
 30
0.0
 10
-7.193209053
 20
-4.5704599327
 30
0.0
 10
-7.2159253825
 20
-4.5935536451
 30
0.0
 10
-7.2457187465
 20
-4.6237479943
 30
0.0
 10
-7.2783963735
 20
-4.6567888728
 30
0.0
 10
-7.3133825379
 20
-4.6921004445
 30
0.0
 10
-7.3502079539
 20
-4.729213723
 30
0.0
 10
-7.4019402608
 20
-4.7812851058
 30
0.0
 10
-7.4688795583
 20
-4.8485516009
 30
0.0
 10
-7.5509730309
 20
-4.9308962415
 30
0.0
 10
-7.6064537997
 20
-4.9864531906
 30
0.0
 10
-7.6343993763
 20
-5.0144137901
 30
0.0
  0
SPLINE
  5
5AC
100
AcDbEntity
  8
RACCORDO
100
AcDbSpline
 62
7
  6
CONTINUOUS
 70
0
 71
3
 72
26
 73
22
 74
0
 42
0.0000001
 43
0.0000001
 44
0.0000000001
 40
0.0
 40
0.0
 40
0.0
 40
0.0
 40
0.0008149399
 40
0.0025026447
 40
0.0050571636
 40
0.0084704532
 40
0.0178144268
 40
0.0303830596
 40
0.0459927165
 40
0.0644314224
 40
0.0854759452
 40
0.1088994395
 40
0.1620106534
 40
0.2221418926
 40
0.2879097415
 40
0.3581771234
 40
0.4320225157
 40
0.5086995377
 40
0.6682134517
 40
0.8329334432
 40
1.0
 40
1.0
 40
1.0
 40
1.0
 10
-7.1345360794
 20
3.4095494981
 30
0.0
 10
-7.1346281668
 20
3.4097189049
 30
0.0
 10
-7.1350281346
 20
3.4101646578
 30
0.0
 10
-7.1358062369
 20
3.4110670947
 30
0.0
 10
-7.1370434911
 20
3.4123938605
 30
0.0
 10
-7.1395211685
 20
3.4150348338
 30
0.0
 10
-7.1436710706
 20
3.4193591584
 30
0.0
 10
-7.1498451508
 20
3.4257379079
 30
0.0
 10
-7.1575449301
 20
3.4336356261
 30
0.0
 10
-7.1666639866
 20
3.44294998
 30
0.0
 10
-7.1770934919
 20
3.4535687785
 30
0.0
 10
-7.193290889
 20
3.470021202
 30
0.0
 10
-7.2160090857
 20
3.4930316656
 30
0.0
 10
-7.2458021218
 20
3.5231361653
 30
0.0
 10
-7.2784797193
 20
3.5560969025
 30
0.0
 10
-7.3134660677
 20
3.5913379037
 30
0.0
 10
-7.3502918017
 20
3.6283899344
 30
0.0
 10
-7.4020280092
 20
3.6803941256
 30
0.0
 10
-7.4689713032
 20
3.7475987329
 30
0.0
 10
-7.5510653953
 20
3.8298977571
 30
0.0
 10
-7.6065416626
 20
3.8854400265
 30
0.0
 10
-7.6344850761
 20
3.9133984746
 30
0.0
  0
SPLINE
  5
5AD
100
AcDbEntity
  8
RACCORDO
100
AcDbSpline
 62
7
  6
CONTINUOUS
 70
0
 71
3
 72
26
 73
22
 74
0
 42
0.0000001
 43
0.0000001
 44
0.0000000001
 40
0.0
 40
0.0
 40
0.0
 40
0.0
 40
0.0008149398
 40
0.0025026446
 40
0.0050571635
 40
0.008470453
 40
0.0178144266
 40
0.0303830592
 40
0.0459927162
 40
0.064431422
 40
0.0854759447
 40
0.108899439
 40
0.1620106529
 40
0.2221418921
 40
0.287909741
 40
0.3581771229
 40
0.4320225153
 40
0.5086995373
 40
0.6682134514
 40
0.832933443
 40
1.0
 40
1.0
 40
1.0
 40
1.0
 10
5.7845360794
 20
3.4095494981
 30
0.0
 10
5.7846281668
 20
3.4097189049
 30
0.0
 10
5.7850281346
 20
3.4101646577
 30
0.0
 10
5.7858062369
 20
3.4110670945
 30
0.0
 10
5.7870434911
 20
3.4123938604
 30
0.0
 10
5.7895211685
 20
3.4150348336
 30
0.0
 10
5.7936710706
 20
3.4193591581
 30
0.0
 10
5.7998451508
 20
3.4257379075
 30
0.0
 10
5.8075449302
 20
3.4336356256
 30
0.0
 10
5.8166639867
 20
3.4429499795
 30
0.0
 10
5.827093492
 20
3.4535687779
 30
0.0
 10
5.8432908892
 20
3.4700212013
 30
0.0
 10
5.866009086
 20
3.4930316648
 30
0.0
 10
5.8958021221
 20
3.5231361644
 30
0.0
 10
5.9284797198
 20
3.5560969015
 30
0.0
 10
5.9634660683
 20
3.5913379026
 30
0.0
 10
6.0002918024
 20
3.6283899332
 30
0.0
 10
6.0520280103
 20
3.6803941241
 30
0.0
 10
6.1189713043
 20
3.7475987315
 30
0.0
 10
6.2010654
 20
3.8298977523
 30
0.0
 10
6.2565416625
 20
3.8854400265
 30
0.0
 10
6.2844850761
 20
3.9133984746
 30
0.0
  0
SPLINE
  5
5AE
100
AcDbEntity
  8
RACCORDO
100
AcDbSpline
 62
7
  6
CONTINUOUS
 70
0
 71
3
 72
26
 73
22
 74
0
 42
0.0000001
 43
0.0000001
 44
0.0000000001
 40
0.0
 40
0.0
 40
0.0
 40
0.0
 40
0.0008510653
 40
0.0025716543
 40
0.0051572083
 40
0.0086000003
 40
0.0179987511
 40
0.0306167702
 40
0.0462705005
 40
0.0647480233
 40
0.0858262039
 40
0.10927833
 40
0.1624324169
 40
0.2225886459
 40
0.2883652137
 40
0.3586265732
 40
0.4324525717
 40
0.5090980168
 40
0.6685161216
 40
0.8331018023
 40
1.0
 40
1.0
 40
1.0
 40
1.0
 10
5.7844599863
 20
-4.5094826835
 30
0.0
 10
5.7845469231
 20
-4.5096645574
 30
0.0
 10
5.7849479902
 20
-4.5101346262
 30
0.0
 10
5.7857263379
 20
-4.5110677629
 30
0.0
 10
5.7869651445
 20
-4.5124269313
 30
0.0
 10
5.7894404363
 20
-4.5151122442
 30
0.0
 10
5.7935900056
 20
-4.5194901312
 30
0.0
 10
5.7997648249
 20
-4.5259301161
 30
0.0
 10
5.8074652085
 20
-4.533887717
 30
0.0
 10
5.8165844962
 20
-4.5432601799
 30
0.0
 10
5.8270141022
 20
-4.5539350448
 30
0.0
 10
5.8432090529
 20
-4.5704599333
 30
0.0
 10
5.8659253823
 20
-4.5935536457
 30
0.0
 10
5.8957187463
 20
-4.623747995
 30
0.0
 10
5.9283963731
 20
-4.6567888736
 30
0.0
 10
5.9633825374
 20
-4.6921004454
 30
0.0
 10
6.0002079534
 20
-4.729213724
 30
0.0
 10
6.05194026
 20
-4.781285107
 30
0.0
 10
6.1188795575
 20
-4.848551602
 30
0.0
 10
6.2009730277
 20
-4.9308962448
 30
0.0
 10
6.2564537997
 20
-4.9864531906
 30
0.0
 10
6.2843993763
 20
-5.0144137901
 30
0.0
  0
SPLINE
  5
5AF
100
AcDbEntity
  8
RACCORDO
100
AcDbSpline
 62
7
  6
CONTINUOUS
 70
0
 71
3
 72
26
 73
22
 74
0
 42
0.0000001
 43
0.0000001
 44
0.0000000001
 40
0.0
 40
0.0
 40
0.0
 40
0.0
 40
0.0008510654
 40
0.0025716543
 40
0.0051572083
 40
0.0086000004
 40
0.0179987512
 40
0.0306167703
 40
0.0462705007
 40
0.0647480234
 40
0.0858262041
 40
0.1092783302
 40
0.1624324171
 40
0.2225886461
 40
0.2883652139
 40
0.3586265734
 40
0.4324525718
 40
0.509098017
 40
0.6685161217
 40
0.8331018023
 40
1.0
 40
1.0
 40
1.0
 40
1.0
 10
2.9844599863
 20
-4.5094826835
 30
0.0
 10
2.9845469231
 20
-4.5096645574
 30
0.0
 10
2.9849479902
 20
-4.5101346263
 30
0.0
 10
2.9857263379
 20
-4.511067763
 30
0.0
 10
2.9869651445
 20
-4.5124269314
 30
0.0
 10
2.9894404363
 20
-4.5151122443
 30
0.0
 10
2.9935900056
 20
-4.5194901314
 30
0.0
 10
2.9997648248
 20
-4.5259301163
 30
0.0
 10
3.0074652085
 20
-4.5338877172
 30
0.0
 10
3.0165844962
 20
-4.5432601801
 30
0.0
 10
3.0270141022
 20
-4.5539350451
 30
0.0
 10
3.0432090528
 20
-4.5704599336
 30
0.0
 10
3.0659253822
 20
-4.593553646
 30
0.0
 10
3.0957187461
 20
-4.6237479954
 30
0.0
 10
3.1283963729
 20
-4.6567888741
 30
0.0
 10
3.1633825371
 20
-4.6921004459
 30
0.0
 10
3.2002079529
 20
-4.7292137246
 30
0.0
 10
3.2519402593
 20
-4.7812851079
 30
0.0
 10
3.3188795568
 20
-4.8485516028
 30
0.0
 10
3.4009730245
 20
-4.9308962481
 30
0.0
 10
3.4564537998
 20
-4.9864531906
 30
0.0
 10
3.4843993763
 20
-5.0144137901
 30
0.0
  0
SPLINE
  5
5B0
100
AcDbEntity
  8
RACCORDO
100
AcDbSpline
 62
7
  6
CONTINUOUS
 70
0
 71
3
 72
26
 73
22
 74
0
 42
0.0000001
 43
0.0000001
 44
0.0000000001
 40
0.0
 40
0.0
 40
0.0
 40
0.0
 40
0.0009049298
 40
0.002674114
 40
0.005305308
 40
0.0087913609
 40
0.0182702214
 40
0.030960311
 40
0.0466782643
 40
0.0652122844
 40
0.086339402
 40
0.1098331126
 40
0.1630493508
 40
0.2232416466
 40
0.2890305735
 40
0.3592828285
 40
0.4330802646
 40
0.5096794276
 40
0.6689574955
 40
0.8333472041
 40
1.0
 40
1.0
 40
1.0
 40
1.0
 10
2.9843115708
 20
-6.1093520911
 30
0.0
 10
2.9843924385
 20
-6.109550959
 30
0.0
 10
2.9847926721
 20
-6.1100573295
 30
0.0
 10
2.9855730314
 20
-6.111034838
 30
0.0
 10
2.9868132109
 20
-6.1124415169
 30
0.0
 10
2.9892855236
 20
-6.1151910878
 30
0.0
 10
2.9934342407
 20
-6.1196470005
 30
0.0
 10
2.9996102946
 20
-6.1261760084
 30
0.0
 10
3.0073114929
 20
-6.1342206999
 30
0.0
 10
3.0164311362
 20
-6.1436776159
 30
0.0
 10
3.0268608805
 20
-6.1544339543
 30
0.0
 10
3.0430522763
 20
-6.1710640765
 30
0.0
 10
3.0657658854
 20
-6.1942786773
 30
0.0
 10
3.0955597267
 20
-6.2246034766
 30
0.0
 10
3.1282373961
 20
-6.2577606533
 30
0.0
 10
3.1632232932
 20
-6.2931745777
 30
0.0
 10
3.2000482474
 20
-6.3303766309
 30
0.0
 10
3.2517748824
 20
-6.3825452903
 30
0.0
 10
3.3187083681
 20
-6.4499012275
 30
0.0
 10
3.4008009343
 20
-6.5323115317
 30
0.0
 10
3.4562882641
 20
-6.5878893528
 30
0.0
 10
3.4842369883
 20
-6.6158528412
 30
0.0
  0
SPLINE
  5
5B1
100
AcDbEntity
  8
RACCORDO
100
AcDbSpline
 62
7
  6
CONTINUOUS
 70
0
 71
3
 72
26
 73
22
 74
0
 42
0.0000001
 43
0.0000001
 44
0.0000000001
 40
0.0
 40
0.0
 40
0.0
 40
0.0
 40
0.0009049298
 40
0.002674114
 40
0.005305308
 40
0.0087913609
 40
0.0182702214
 40
0.030960311
 40
0.0466782643
 40
0.0652122844
 40
0.086339402
 40
0.1098331126
 40
0.1630493508
 40
0.2232416466
 40
0.2890305735
 40
0.3592828285
 40
0.4330802646
 40
0.5096794276
 40
0.6689574955
 40
0.8333472041
 40
1.0
 40
1.0
 40
1.0
 40
1.0
 10
1.8343115708
 20
-6.1093520911
 30
0.0
 10
1.8343924385
 20
-6.109550959
 30
0.0
 10
1.8347926721
 20
-6.1100573295
 30
0.0
 10
1.8355730314
 20
-6.111034838
 30
0.0
 10
1.8368132109
 20
-6.1124415169
 30
0.0
 10
1.8392855236
 20
-6.1151910878
 30
0.0
 10
1.8434342407
 20
-6.1196470005
 30
0.0
 10
1.8496102946
 20
-6.1261760084
 30
0.0
 10
1.8573114929
 20
-6.1342206999
 30
0.0
 10
1.8664311362
 20
-6.1436776159
 30
0.0
 10
1.8768608805
 20
-6.1544339543
 30
0.0
 10
1.8930522763
 20
-6.1710640765
 30
0.0
 10
1.9157658854
 20
-6.1942786773
 30
0.0
 10
1.9455597267
 20
-6.2246034766
 30
0.0
 10
1.9782373961
 20
-6.2577606533
 30
0.0
 10
2.0132232932
 20
-6.2931745777
 30
0.0
 10
2.0500482474
 20
-6.3303766309
 30
0.0
 10
2.1017748824
 20
-6.3825452903
 30
0.0
 10
2.1687083681
 20
-6.4499012275
 30
0.0
 10
2.2508009343
 20
-6.5323115317
 30
0.0
 10
2.3062882641
 20
-6.5878893528
 30
0.0
 10
2.3342369883
 20
-6.6158528412
 30
0.0
  0
SPLINE
  5
5B2
100
AcDbEntity
  8
RACCORDO
100
AcDbSpline
 62
7
  6
CONTINUOUS
 70
0
 71
3
 72
26
 73
22
 74
0
 42
0.0000001
 43
0.0000001
 44
0.0000000001
 40
0.0
 40
0.0
 40
0.0
 40
0.0
 40
0.0009513896
 40
0.0027622175
 40
0.0054323498
 40
0.0089552087
 40
0.0185020454
 40
0.0312531556
 40
0.0470254029
 40
0.065607128
 40
0.0867755218
 40
0.1103042687
 40
0.1635727697
 40
0.2237952571
 40
0.2895943371
 40
0.3598386178
 40
0.433611656
 40
0.510171472
 40
0.6693308183
 40
0.8335546743
 40
1.0
 40
1.0
 40
1.0
 40
1.0
 10
1.8341515576
 20
-7.4592111053
 30
0.0
 10
1.8342283245
 20
-7.4594236722
 30
0.0
 10
1.8346263149
 20
-7.459960862
 30
0.0
 10
1.835409279
 20
-7.460975993
 30
0.0
 10
1.8366501066
 20
-7.4624228589
 30
0.0
 10
1.8391201778
 20
-7.4652265647
 30
0.0
 10
1.8432679649
 20
-7.4697483201
 30
0.0
 10
1.8494451458
 20
-7.4763524408
 30
0.0
 10
1.857146994
 20
-7.484470587
 30
0.0
 10
1.866266947
 20
-7.4939987021
 30
0.0
 10
1.8766968029
 20
-7.50482371
 30
0.0
 10
1.8928852018
 20
-7.5215424676
 30
0.0
 10
1.9155965122
 20
-7.5448588822
 30
0.0
 10
1.9453907564
 20
-7.5752935269
 30
0.0
 10
1.9780684616
 20
-7.6085485799
 30
0.0
 10
2.013054134
 20
-7.6440485918
 30
0.0
 10
2.0498786996
 20
-7.6813252596
 30
0.0
 10
2.1016005518
 20
-7.7335755742
 30
0.0
 10
2.1685291349
 20
-7.8010064473
 30
0.0
 10
2.2506209433
 20
-7.8834715096
 30
0.0
 10
2.3061138053
 20
-7.9390665151
 30
0.0
 10
2.3340651868
 20
-7.967032219
 30
0.0
  0
SPLINE
  5
5B3
100
AcDbEntity
  8
RACCORDO
100
AcDbSpline
 62
7
  6
CONTINUOUS
 70
0
 71
3
 72
26
 73
22
 74
0
 42
0.0000001
 43
0.0000001
 44
0.0000000001
 40
0.0
 40
0.0
 40
0.0
 40
0.0
 40
0.0009513896
 40
0.0027622175
 40
0.0054323498
 40
0.0089552087
 40
0.0185020454
 40
0.0312531556
 40
0.0470254029
 40
0.065607128
 40
0.0867755218
 40
0.1103042687
 40
0.1635727697
 40
0.2237952571
 40
0.2895943371
 40
0.3598386178
 40
0.433611656
 40
0.510171472
 40
0.6693308183
 40
0.8335546743
 40
1.0
 40
1.0
 40
1.0
 40
1.0
 10
-3.1841515576
 20
-7.4592111053
 30
0.0
 10
-3.1842283245
 20
-7.4594236722
 30
0.0
 10
-3.1846263149
 20
-7.459960862
 30
0.0
 10
-3.185409279
 20
-7.460975993
 30
0.0
 10
-3.1866501066
 20
-7.4624228589
 30
0.0
 10
-3.1891201778
 20
-7.4652265647
 30
0.0
 10
-3.1932679649
 20
-7.4697483201
 30
0.0
 10
-3.1994451458
 20
-7.4763524408
 30
0.0
 10
-3.207146994
 20
-7.484470587
 30
0.0
 10
-3.216266947
 20
-7.4939987021
 30
0.0
 10
-3.2266968029
 20
-7.50482371
 30
0.0
 10
-3.2428852018
 20
-7.5215424676
 30
0.0
 10
-3.2655965122
 20
-7.5448588822
 30
0.0
 10
-3.2953907564
 20
-7.5752935269
 30
0.0
 10
-3.3280684616
 20
-7.6085485799
 30
0.0
 10
-3.363054134
 20
-7.6440485918
 30
0.0
 10
-3.3998786996
 20
-7.6813252596
 30
0.0
 10
-3.4516005518
 20
-7.7335755742
 30
0.0
 10
-3.5185291349
 20
-7.8010064473
 30
0.0
 10
-3.6006209433
 20
-7.8834715096
 30
0.0
 10
-3.6561138053
 20
-7.9390665151
 30
0.0
 10
-3.6840651868
 20
-7.967032219
 30
0.0
  0
SPLINE
  5
5B4
100
AcDbEntity
  8
RACCORDO
100
AcDbSpline
 62
7
  6
CONTINUOUS
 70
0
 71
3
 72
26
 73
22
 74
0
 42
0.0000001
 43
0.0000001
 44
0.0000000001
 40
0.0
 40
0.0
 40
0.0
 40
0.0
 40
0.0009049298
 40
0.002674114
 40
0.005305308
 40
0.0087913609
 40
0.0182702214
 40
0.030960311
 40
0.0466782643
 40
0.0652122844
 40
0.086339402
 40
0.1098331126
 40
0.1630493508
 40
0.2232416466
 40
0.2890305735
 40
0.3592828285
 40
0.4330802646
 40
0.5096794276
 40
0.6689574955
 40
0.8333472041
 40
1.0
 40
1.0
 40
1.0
 40
1.0
 10
-3.1843115708
 20
-6.1093520911
 30
0.0
 10
-3.1843924385
 20
-6.109550959
 30
0.0
 10
-3.1847926721
 20
-6.1100573295
 30
0.0
 10
-3.1855730314
 20
-6.111034838
 30
0.0
 10
-3.1868132109
 20
-6.1124415169
 30
0.0
 10
-3.1892855236
 20
-6.1151910878
 30
0.0
 10
-3.1934342407
 20
-6.1196470005
 30
0.0
 10
-3.1996102946
 20
-6.1261760084
 30
0.0
 10
-3.2073114929
 20
-6.1342206999
 30
0.0
 10
-3.2164311362
 20
-6.1436776159
 30
0.0
 10
-3.2268608805
 20
-6.1544339543
 30
0.0
 10
-3.2430522763
 20
-6.1710640765
 30
0.0
 10
-3.2657658854
 20
-6.1942786773
 30
0.0
 10
-3.2955597267
 20
-6.2246034766
 30
0.0
 10
-3.3282373961
 20
-6.2577606533
 30
0.0
 10
-3.3632232932
 20
-6.2931745777
 30
0.0
 10
-3.4000482474
 20
-6.3303766309
 30
0.0
 10
-3.4517748824
 20
-6.3825452903
 30
0.0
 10
-3.5187083681
 20
-6.4499012275
 30
0.0
 10
-3.6008009343
 20
-6.5323115317
 30
0.0
 10
-3.6562882641
 20
-6.5878893528
 30
0.0
 10
-3.6842369883
 20
-6.6158528412
 30
0.0
  0
SPLINE
  5
5B5
100
AcDbEntity
  8
RACCORDO
100
AcDbSpline
 62
7
  6
CONTINUOUS
 70
0
 71
3
 72
26
 73
22
 74
0
 42
0.0000001
 43
0.0000001
 44
0.0000000001
 40
0.0
 40
0.0
 40
0.0
 40
0.0
 40
0.0009049298
 40
0.002674114
 40
0.005305308
 40
0.0087913609
 40
0.0182702214
 40
0.030960311
 40
0.0466782643
 40
0.0652122844
 40
0.086339402
 40
0.1098331126
 40
0.1630493508
 40
0.2232416466
 40
0.2890305735
 40
0.3592828285
 40
0.4330802646
 40
0.5096794276
 40
0.6689574955
 40
0.8333472041
 40
1.0
 40
1.0
 40
1.0
 40
1.0
 10
-4.3343115708
 20
-6.1093520911
 30
0.0
 10
-4.3343924385
 20
-6.109550959
 30
0.0
 10
-4.3347926721
 20
-6.1100573295
 30
0.0
 10
-4.3355730314
 20
-6.111034838
 30
0.0
 10
-4.3368132109
 20
-6.1124415169
 30
0.0
 10
-4.3392855236
 20
-6.1151910878
 30
0.0
 10
-4.3434342407
 20
-6.1196470005
 30
0.0
 10
-4.3496102946
 20
-6.1261760084
 30
0.0
 10
-4.3573114929
 20
-6.1342206999
 30
0.0
 10
-4.3664311362
 20
-6.1436776159
 30
0.0
 10
-4.3768608805
 20
-6.1544339543
 30
0.0
 10
-4.3930522763
 20
-6.1710640765
 30
0.0
 10
-4.4157658854
 20
-6.1942786773
 30
0.0
 10
-4.4455597267
 20
-6.2246034766
 30
0.0
 10
-4.4782373961
 20
-6.2577606533
 30
0.0
 10
-4.5132232932
 20
-6.2931745777
 30
0.0
 10
-4.5500482474
 20
-6.3303766309
 30
0.0
 10
-4.6017748824
 20
-6.3825452903
 30
0.0
 10
-4.6687083681
 20
-6.4499012275
 30
0.0
 10
-4.7508009343
 20
-6.5323115317
 30
0.0
 10
-4.8062882641
 20
-6.5878893528
 30
0.0
 10
-4.8342369883
 20
-6.6158528412
 30
0.0
  0
SPLINE
  5
5B6
100
AcDbEntity
  8
RACCORDO
100
AcDbSpline
 62
7
  6
CONTINUOUS
 70
0
 71
3
 72
26
 73
22
 74
0
 42
0.0000001
 43
0.0000001
 44
0.0000000001
 40
0.0
 40
0.0
 40
0.0
 40
0.0
 40
0.0008510654
 40
0.0025716543
 40
0.0051572083
 40
0.0086000004
 40
0.0179987512
 40
0.0306167703
 40
0.0462705007
 40
0.0647480234
 40
0.0858262041
 40
0.1092783302
 40
0.1624324171
 40
0.2225886461
 40
0.2883652139
 40
0.3586265734
 40
0.4324525718
 40
0.509098017
 40
0.6685161217
 40
0.8331018023
 40
1.0
 40
1.0
 40
1.0
 40
1.0
 10
-4.3344599863
 20
-4.5094826835
 30
0.0
 10
-4.3345469231
 20
-4.5096645574
 30
0.0
 10
-4.3349479902
 20
-4.5101346263
 30
0.0
 10
-4.3357263379
 20
-4.511067763
 30
0.0
 10
-4.3369651445
 20
-4.5124269314
 30
0.0
 10
-4.3394404363
 20
-4.5151122443
 30
0.0
 10
-4.3435900056
 20
-4.5194901314
 30
0.0
 10
-4.3497648248
 20
-4.5259301163
 30
0.0
 10
-4.3574652085
 20
-4.5338877172
 30
0.0
 10
-4.3665844962
 20
-4.5432601801
 30
0.0
 10
-4.3770141022
 20
-4.5539350451
 30
0.0
 10
-4.3932090528
 20
-4.5704599336
 30
0.0
 10
-4.4159253822
 20
-4.593553646
 30
0.0
 10
-4.4457187461
 20
-4.6237479954
 30
0.0
 10
-4.4783963729
 20
-4.6567888741
 30
0.0
 10
-4.5133825371
 20
-4.6921004459
 30
0.0
 10
-4.5502079529
 20
-4.7292137246
 30
0.0
 10
-4.6019402593
 20
-4.7812851079
 30
0.0
 10
-4.6688795568
 20
-4.8485516028
 30
0.0
 10
-4.7509730245
 20
-4.9308962481
 30
0.0
 10
-4.8064537998
 20
-4.9864531906
 30
0.0
 10
-4.8343993763
 20
-5.0144137901
 30
0.0
  0
SPLINE
  5
5B7
100
AcDbEntity
  8
RACCORDO
100
AcDbSpline
 62
250
  6
CONTINUOUS
 70
0
 71
3
 72
8
 73
4
 74
0
 42
0.0000001
 43
0.0000001
 44
0.0000000001
 40
0.0
 40
0.0
 40
0.0
 40
0.0
 40
1.0
 40
1.0
 40
1.0
 40
1.0
 10
5.7844599868
 20
-4.5094826844
 30
0.0
 10
5.7846679652
 20
-1.8698052981
 30
0.0
 10
5.7846933262
 20
0.7698721089
 30
0.0
 10
5.7845360798
 20
3.4095494987
 30
0.0
  0
LINE
  5
5B8
100
AcDbEntity
  8
RACCORDO
100
AcDbLine
 62
250
  6
CONTINUOUS
 10
2.984311571
 20
-6.1093520915
 30
0.0
 11
2.9844599863
 21
-4.5094826835
 31
0.0
  0
SPLINE
  5
5B9
100
AcDbEntity
  8
RACCORDO
100
AcDbSpline
 62
7
  6
CONTINUOUS
 70
0
 71
3
 72
15
 73
11
 74
0
 42
0.0000001
 43
0.0000001
 44
0.0000000001
 40
0.0
 40
0.0
 40
0.0
 40
0.0
 40
0.1666545511
 40
0.3262779792
 40
0.4735916211
 40
0.6057108254
 40
0.7221085607
 40
0.8242207343
 40
0.9152394685
 40
1.0
 40
1.0
 40
1.0
 40
1.0
 10
9.7177234819
 20
-23.1226497308
 30
0.0
 10
9.735182792
 20
-23.1226497308
 30
0.0
 10
9.7693945583
 20
-23.1249197959
 30
0.0
 10
9.8182789333
 20
-23.1340781896
 30
0.0
 10
9.8621199981
 20
-23.1484841847
 30
0.0
 10
9.8993602838
 20
-23.1671098288
 30
0.0
 10
9.9291080599
 20
-23.1890199577
 30
0.0
 10
9.9508995457
 20
-23.2134179792
 30
0.0
 10
9.9643998674
 20
-23.2396149959
 30
0.0
 10
9.9676297781
 20
-23.2581079409
 30
0.0
 10
9.9677192511
 20
-23.2669872981
 30
0.0
  0
SPLINE
  5
5BA
100
AcDbEntity
  8
RACCORDO
100
AcDbSpline
 62
7
  6
CONTINUOUS
 70
0
 71
3
 72
12
 73
8
 74
0
 42
0.0000001
 43
0.0000001
 44
0.0000000001
 40
0.0
 40
0.0
 40
0.0
 40
0.0
 40
0.4189758554
 40
0.7258150368
 40
0.9169374284
 40
0.970078621
 40
1.0
 40
1.0
 40
1.0
 40
1.0
 10
9.93391534
 20
-22.3279108386
 30
0.0
 10
9.9387355339
 20
-22.328345856
 30
0.0
 10
9.9471021029
 20
-22.3290818085
 30
0.0
 10
9.9575917423
 20
-22.3301849672
 30
0.0
 10
9.9639546858
 20
-22.3312764657
 30
0.0
 10
9.9668861623
 20
-22.3323145409
 30
0.0
 10
9.9676816398
 20
-22.3330673782
 30
0.0
 10
9.9677192511
 20
-22.3334109614
 30
0.0
  0
SPLINE
  5
5BB
100
AcDbEntity
  8
RACCORDO
100
AcDbSpline
 62
7
  6
CONTINUOUS
 70
0
 71
3
 72
12
 73
8
 74
0
 42
0.0000001
 43
0.0000001
 44
0.0000000001
 40
0.0
 40
0.0
 40
0.0
 40
0.0
 40
0.029921379
 40
0.0830625716
 40
0.2741849632
 40
0.5810241446
 40
1.0
 40
1.0
 40
1.0
 40
1.0
 10
-11.3177192511
 20
-22.3334109614
 30
0.0
 10
-11.3176816398
 20
-22.3330673782
 30
0.0
 10
-11.3168861623
 20
-22.3323145409
 30
0.0
 10
-11.3139546858
 20
-22.3312764657
 30
0.0
 10
-11.3075917423
 20
-22.3301849672
 30
0.0
 10
-11.2971021029
 20
-22.3290818085
 30
0.0
 10
-11.2887355339
 20
-22.328345856
 30
0.0
 10
-11.28391534
 20
-22.3279108386
 30
0.0
  0
SPLINE
  5
5BC
100
AcDbEntity
  8
RACCORDO
100
AcDbSpline
 62
7
  6
CONTINUOUS
 70
0
 71
3
 72
15
 73
11
 74
0
 42
0.0000001
 43
0.0000001
 44
0.0000000001
 40
0.0
 40
0.0
 40
0.0
 40
0.0
 40
0.1666545511
 40
0.3262779792
 40
0.4735916211
 40
0.6057108254
 40
0.7221085607
 40
0.8242207343
 40
0.9152394685
 40
1.0
 40
1.0
 40
1.0
 40
1.0
 10
-11.0677234819
 20
-23.1226497308
 30
0.0
 10
-11.085182792
 20
-23.1226497308
 30
0.0
 10
-11.1193945583
 20
-23.1249197959
 30
0.0
 10
-11.1682789333
 20
-23.1340781896
 30
0.0
 10
-11.2121199981
 20
-23.1484841847
 30
0.0
 10
-11.2493602838
 20
-23.1671098288
 30
0.0
 10
-11.2791080599
 20
-23.1890199577
 30
0.0
 10
-11.3008995457
 20
-23.2134179792
 30
0.0
 10
-11.3143998674
 20
-23.2396149959
 30
0.0
 10
-11.3176297781
 20
-23.2581079409
 30
0.0
 10
-11.3177192511
 20
-23.2669872981
 30
0.0
  0
SPLINE
  5
5BD
100
AcDbEntity
  8
RACCORDO
100
AcDbSpline
 62
7
  6
CONTINUOUS
 70
0
 71
3
 72
12
 73
8
 74
0
 42
0.0000001
 43
0.0000001
 44
0.0000000001
 40
0.0
 40
0.0
 40
0.0
 40
0.0
 40
0.029921379
 40
0.0830625716
 40
0.2741849632
 40
0.5810241446
 40
1.0
 40
1.0
 40
1.0
 40
1.0
 10
9.9677192511
 20
22.3334109614
 30
0.0
 10
9.9676816398
 20
22.3330673782
 30
0.0
 10
9.9668861623
 20
22.3323145409
 30
0.0
 10
9.9639546858
 20
22.3312764657
 30
0.0
 10
9.9575917423
 20
22.3301849672
 30
0.0
 10
9.9471021029
 20
22.3290818085
 30
0.0
 10
9.9387355339
 20
22.328345856
 30
0.0
 10
9.93391534
 20
22.3279108386
 30
0.0
  0
SPLINE
  5
5BE
100
AcDbEntity
  8
RACCORDO
100
AcDbSpline
 62
7
  6
CONTINUOUS
 70
0
 71
3
 72
12
 73
8
 74
0
 42
0.0000001
 43
0.0000001
 44
0.0000000001
 40
0.0
 40
0.0
 40
0.0
 40
0.0
 40
0.4189758554
 40
0.7258150368
 40
0.9169374284
 40
0.970078621
 40
1.0
 40
1.0
 40
1.0
 40
1.0
 10
-11.28391534
 20
22.3279108386
 30
0.0
 10
-11.2887355339
 20
22.328345856
 30
0.0
 10
-11.2971021029
 20
22.3290818085
 30
0.0
 10
-11.3075917423
 20
22.3301849672
 30
0.0
 10
-11.3139546858
 20
22.3312764657
 30
0.0
 10
-11.3168861623
 20
22.3323145409
 30
0.0
 10
-11.3176816398
 20
22.3330673782
 30
0.0
 10
-11.3177192511
 20
22.3334109614
 30
0.0
  0
SPLINE
  5
5BF
100
AcDbEntity
  8
RACCORDO
100
AcDbSpline
 62
7
  6
CONTINUOUS
 70
0
 71
3
 72
13
 73
9
 74
0
 42
0.0000001
 43
0.0000001
 44
0.0000000001
 40
0.0
 40
0.0
 40
0.0
 40
0.0
 40
0.0927966287
 40
0.2002447148
 40
0.3193571807
 40
0.4469985052
 40
0.7183509509
 40
1.0
 40
1.0
 40
1.0
 40
1.0
 10
-4.9712073137
 20
-23.7953389668
 30
0.0
 10
-4.9572924006
 20
-23.7952316797
 30
0.0
 10
-4.927382272
 20
-23.789799767
 30
0.0
 10
-4.8822472469
 20
-23.7736730732
 30
0.0
 10
-4.8340026256
 20
-23.7513098509
 30
0.0
 10
-4.7654209279
 20
-23.714769798
 30
0.0
 10
-4.6778591526
 20
-23.6622363788
 30
0.0
 10
-4.6077774665
 20
-23.6179177525
 30
0.0
 10
-4.5720826234
 20
-23.5953423515
 30
0.0
  0
SPLINE
  5
5C0
100
AcDbEntity
  8
RACCORDO
100
AcDbSpline
 62
7
  6
CONTINUOUS
 70
0
 71
3
 72
13
 73
9
 74
0
 42
0.0000001
 43
0.0000001
 44
0.0000000001
 40
0.0
 40
0.0
 40
0.0
 40
0.0
 40
0.0927966287
 40
0.2002447148
 40
0.3193571807
 40
0.4469985052
 40
0.7183509509
 40
1.0
 40
1.0
 40
1.0
 40
1.0
 10
3.6212073137
 20
-23.7953389668
 30
0.0
 10
3.6072924006
 20
-23.7952316797
 30
0.0
 10
3.577382272
 20
-23.789799767
 30
0.0
 10
3.5322472469
 20
-23.7736730732
 30
0.0
 10
3.4840026256
 20
-23.7513098509
 30
0.0
 10
3.4154209279
 20
-23.714769798
 30
0.0
 10
3.3278591526
 20
-23.6622363788
 30
0.0
 10
3.2577774665
 20
-23.6179177525
 30
0.0
 10
3.2220826234
 20
-23.5953423515
 30
0.0
  0
SPLINE
  5
5C1
100
AcDbEntity
  8
RACCORDO
100
AcDbSpline
 62
7
  6
CONTINUOUS
 70
0
 71
3
 72
13
 73
9
 74
0
 42
0.0000001
 43
0.0000001
 44
0.0000000001
 40
0.0
 40
0.0
 40
0.0
 40
0.0
 40
0.0927966287
 40
0.2002447148
 40
0.3193571807
 40
0.4469985052
 40
0.7183509509
 40
1.0
 40
1.0
 40
1.0
 40
1.0
 10
3.6212073137
 20
23.7953389668
 30
0.0
 10
3.6072924006
 20
23.7952316797
 30
0.0
 10
3.577382272
 20
23.789799767
 30
0.0
 10
3.5322472469
 20
23.7736730732
 30
0.0
 10
3.4840026256
 20
23.7513098509
 30
0.0
 10
3.4154209279
 20
23.714769798
 30
0.0
 10
3.3278591526
 20
23.6622363788
 30
0.0
 10
3.2577774665
 20
23.6179177525
 30
0.0
 10
3.2220826234
 20
23.5953423515
 30
0.0
  0
SPLINE
  5
5C2
100
AcDbEntity
  8
RACCORDO
100
AcDbSpline
 62
7
  6
CONTINUOUS
 70
0
 71
3
 72
13
 73
9
 74
0
 42
0.0000001
 43
0.0000001
 44
0.0000000001
 40
0.0
 40
0.0
 40
0.0
 40
0.0
 40
0.0927966287
 40
0.2002447148
 40
0.3193571807
 40
0.4469985052
 40
0.7183509509
 40
1.0
 40
1.0
 40
1.0
 40
1.0
 10
-4.9712073137
 20
23.7953389668
 30
0.0
 10
-4.9572924006
 20
23.7952316797
 30
0.0
 10
-4.927382272
 20
23.789799767
 30
0.0
 10
-4.8822472469
 20
23.7736730732
 30
0.0
 10
-4.8340026256
 20
23.7513098509
 30
0.0
 10
-4.7654209279
 20
23.714769798
 30
0.0
 10
-4.6778591526
 20
23.6622363788
 30
0.0
 10
-4.6077774665
 20
23.6179177525
 30
0.0
 10
-4.5720826234
 20
23.5953423515
 30
0.0
  0
LINE
  5
5C3
100
AcDbEntity
  8
RACCORDO
100
AcDbLine
 62
250
  6
CONTINUOUS
 10
1.8341515579
 20
-7.4592111058
 30
0.0
 11
1.8343115708
 21
-6.1093520911
 31
0.0
  0
LINE
  5
5C4
100
AcDbEntity
  8
RACCORDO
100
AcDbLine
 62
250
  6
CONTINUOUS
 10
-3.1843115708
 20
-6.1093520911
 30
0.0
 11
-3.1841515579
 21
-7.4592111059
 31
0.0
  0
LINE
  5
5C5
100
AcDbEntity
  8
RACCORDO
100
AcDbLine
 62
250
  6
CONTINUOUS
 10
-4.3344599863
 20
-4.5094826835
 30
0.0
 11
-4.334311571
 21
-6.1093520915
 31
0.0
  0
LINE
  5
5C6
100
AcDbEntity
  8
RACCORDO
100
AcDbLine
 62
7
  6
CONTINUOUS
 10
-11.325
 20
22.3997080771
 30
0.0
 11
-11.3177192511
 21
22.3334109614
 31
0.0
  0
SPLINE
  5
5C7
100
AcDbEntity
  8
RACCORDO
100
AcDbSpline
 62
250
  6
CONTINUOUS
 70
0
 71
3
 72
22
 73
18
 74
0
 42
0.0000001
 43
0.0000001
 44
0.0000000001
 40
0.0
 40
0.0
 40
0.0
 40
0.0
 40
0.0028346579
 40
0.0076285154
 40
0.0146109708
 40
0.0238387332
 40
0.0490322391
 40
0.083085504
 40
0.1257141835
 40
0.1765347129
 40
0.2350813812
 40
0.3008091681
 40
0.3731030181
 40
0.4512870321
 40
0.62234189
 40
0.8075559708
 40
1.0
 40
1.0
 40
1.0
 40
1.0
 10
-11.6576730391
 20
20.5419058565
 30
0.0
 10
-11.6574881362
 20
20.5423419868
 30
0.0
 10
-11.656386386
 20
20.5431620604
 30
0.0
 10
-11.6541580438
 20
20.5440657673
 30
0.0
 10
-11.6507568319
 20
20.545027701
 30
0.0
 10
-11.6439931579
 20
20.5464467566
 30
0.0
 10
-11.6326529662
 20
20.5480899793
 30
0.0
 10
-11.6157285504
 20
20.5499068746
 30
0.0
 10
-11.5944907289
 20
20.5516673754
 30
0.0
 10
-11.5691461976
 20
20.5533530248
 30
0.0
 10
-11.5399278428
 20
20.5549394919
 30
0.0
 10
-11.5071113937
 20
20.5564100015
 30
0.0
 10
-11.4710051639
 20
20.5577488989
 30
0.0
 10
-11.4172976994
 20
20.5593891923
 30
0.0
 10
-11.3447110236
 20
20.5609777063
 30
0.0
 10
-11.253020648
 20
20.562152046
 30
0.0
 10
-11.1899090317
 20
20.5624452475
 30
0.0
 10
-11.1577491915
 20
20.5624683135
 30
0.0
  0
SPLINE
  5
5C8
100
AcDbEntity
  8
RACCORDO
100
AcDbSpline
 62
250
  6
CONTINUOUS
 70
0
 71
3
 72
21
 73
17
 74
0
 42
0.0000001
 43
0.0000001
 44
0.0000000001
 40
0.0
 40
0.0
 40
0.0
 40
0.0
 40
0.1908437011
 40
0.3737353397
 40
0.5424594456
 40
0.6912793369
 40
0.7566131107
 40
0.8151368364
 40
0.866352673
 40
0.9098252737
 40
0.9451857809
 40
0.9721353771
 40
0.9823830754
 40
0.9904509897
 40
0.9963243625
 40
1.0
 40
1.0
 40
1.0
 40
1.0
 10
-11.1577491915
 20
20.5624683248
 30
0.0
 10
-11.1577929896
 20
20.6538519851
 30
0.0
 10
-11.1580678774
 20
20.8328115089
 30
0.0
 10
-11.1590446999
 20
21.0925614005
 30
0.0
 10
-11.1605464024
 20
21.3321857412
 30
0.0
 10
-11.1622476451
 20
21.5155156452
 30
0.0
 10
-11.1638795482
 20
21.6460744895
 30
0.0
 10
-11.1651415728
 20
21.7298973175
 30
0.0
 10
-11.1664832667
 20
21.8032492868
 30
0.0
 10
-11.1678866318
 20
21.8655066834
 30
0.0
 10
-11.1693421816
 20
21.9161385378
 30
0.0
 10
-11.1706523544
 20
21.9508596947
 30
0.0
 10
-11.171787404
 20
21.9725038686
 30
0.0
 10
-11.1725468052
 20
21.9840646806
 30
0.0
 10
-11.1733152648
 20
21.9924610508
 30
0.0
 10
-11.1738945494
 20
21.9970070026
 30
0.0
 10
-11.1742759622
 20
21.998725222
 30
0.0
  0
SPLINE
  5
5C9
100
AcDbEntity
  8
RACCORDO
100
AcDbSpline
 62
250
  6
CONTINUOUS
 70
0
 71
3
 72
21
 73
17
 74
0
 42
0.0000001
 43
0.0000001
 44
0.0000000001
 40
0.0
 40
0.0
 40
0.0
 40
0.0
 40
0.1908078103
 40
0.3736647908
 40
0.5423568974
 40
0.691150141
 40
0.7564738747
 40
0.8149906153
 40
0.8662033914
 40
0.9096780747
 40
0.9450474638
 40
0.9720159805
 40
0.9822790167
 40
0.9903681185
 40
0.9962724717
 40
1.0
 40
1.0
 40
1.0
 40
1.0
 10
-11.6576730391
 20
20.5419058565
 30
0.0
 10
-11.657716832
 20
20.6028307761
 30
0.0
 10
-11.6579917577
 20
20.7221418732
 30
0.0
 10
-11.6589686413
 20
20.8953140395
 30
0.0
 10
-11.6604704335
 20
21.0550666738
 30
0.0
 10
-11.6621717526
 20
21.1772864646
 30
0.0
 10
-11.6638036666
 20
21.2643232618
 30
0.0
 10
-11.665065726
 20
21.3202037297
 30
0.0
 10
-11.6664073939
 20
21.369103542
 30
0.0
 10
-11.6678109074
 20
21.4106077292
 30
0.0
 10
-11.6692662994
 20
21.4443620165
 30
0.0
 10
-11.6705771102
 20
21.4675096392
 30
0.0
 10
-11.6717113852
 20
21.4819348742
 30
0.0
 10
-11.672472542
 20
21.4896466903
 30
0.0
 10
-11.6732393404
 20
21.4952471883
 30
0.0
 10
-11.6738238286
 20
21.4982812009
 30
0.0
 10
-11.6741998097
 20
21.4994104546
 30
0.0
  0
SPLINE
  5
5CA
100
AcDbEntity
  8
RACCORDO
100
AcDbSpline
 62
250
  6
CONTINUOUS
 70
0
 71
3
 72
22
 73
18
 74
0
 42
0.0000001
 43
0.0000001
 44
0.0000000001
 40
0.0
 40
0.0
 40
0.0
 40
0.0
 40
0.0028346435
 40
0.0076284833
 40
0.014610921
 40
0.0238386666
 40
0.0490321422
 40
0.0830853821
 40
0.1257140422
 40
0.1765345581
 40
0.2350812188
 40
0.3008090043
 40
0.3731028589
 40
0.4512868833
 40
0.6223417772
 40
0.80755591
 40
1.0
 40
1.0
 40
1.0
 40
1.0
 10
-11.6576730391
 20
-20.5419058565
 30
0.0
 10
-11.6574881411
 20
-20.5423419863
 30
0.0
 10
-11.6563863975
 20
-20.5431620622
 30
0.0
 10
-11.6541580644
 20
-20.5440657681
 30
0.0
 10
-11.6507568614
 20
-20.5450277025
 30
0.0
 10
-11.6439931986
 20
-20.5464467585
 30
0.0
 10
-11.6326530189
 20
-20.5480899819
 30
0.0
 10
-11.6157286156
 20
-20.5499068778
 30
0.0
 10
-11.5944908036
 20
-20.5516673795
 30
0.0
 10
-11.5691462789
 20
-20.5533530297
 30
0.0
 10
-11.5399279275
 20
-20.5549394978
 30
0.0
 10
-11.5071114788
 20
-20.5564100082
 30
0.0
 10
-11.4710052463
 20
-20.5577489064
 30
0.0
 10
-11.4172977727
 20
-20.559389201
 30
0.0
 10
-11.3447110796
 20
-20.5609777163
 30
0.0
 10
-11.2530206781
 20
-20.5621520569
 30
0.0
 10
-11.1899090423
 20
-20.5624452588
 30
0.0
 10
-11.1577491915
 20
-20.5624683248
 30
0.0
  0
SPLINE
  5
5CB
100
AcDbEntity
  8
RACCORDO
100
AcDbSpline
 62
250
  6
CONTINUOUS
 70
0
 71
3
 72
9
 73
5
 74
0
 42
0.0000001
 43
0.0000001
 44
0.0000000001
 40
0.0
 40
0.0
 40
0.0
 40
0.0
 40
0.2499471355
 40
1.0
 40
1.0
 40
1.0
 40
1.0
 10
-11.1577491915
 20
-20.5624683248
 30
0.0
 10
-11.1552900036
 20
-17.1361156711
 30
0.0
 10
-11.1479150376
 20
-3.4278046669
 30
0.0
 10
-11.1503695474
 20
10.2805116313
 30
0.0
 10
-11.1577491915
 20
20.5624683248
 30
0.0
  0
SPLINE
  5
5CC
100
AcDbEntity
  8
RACCORDO
100
AcDbSpline
 62
250
  6
CONTINUOUS
 70
0
 71
3
 72
9
 73
5
 74
0
 42
0.0000001
 43
0.0000001
 44
0.0000000001
 40
0.0
 40
0.0
 40
0.0
 40
0.0
 40
0.2499471355
 40
1.0
 40
1.0
 40
1.0
 40
1.0
 10
-11.6576730391
 20
-20.5419058565
 30
0.0
 10
-11.6552138512
 20
-17.1189795567
 30
0.0
 10
-11.6478388852
 20
-3.4243768659
 30
0.0
 10
-11.650293395
 20
10.2702311241
 30
0.0
 10
-11.6576730391
 20
20.5419058565
 30
0.0
  0
SPLINE
  5
5CD
100
AcDbEntity
  8
RACCORDO
100
AcDbSpline
 62
250
  6
CONTINUOUS
 70
0
 71
3
 72
21
 73
17
 74
0
 42
0.0000001
 43
0.0000001
 44
0.0000000001
 40
0.0
 40
0.0
 40
0.0
 40
0.0
 40
0.0036756612
 40
0.0095490156
 40
0.0176169182
 40
0.0278646196
 40
0.0548142201
 40
0.0901747256
 40
0.1336473269
 40
0.1848631633
 40
0.243386889
 40
0.3087206628
 40
0.457540554
 40
0.62626466
 40
0.8091562986
 40
1.0
 40
1.0
 40
1.0
 40
1.0
 10
-11.1742759622
 20
-21.998725222
 30
0.0
 10
-11.1738945381
 20
-21.9970069934
 30
0.0
 10
-11.173315254
 20
-21.9924610378
 30
0.0
 10
-11.1725468135
 20
-21.9840646695
 30
0.0
 10
-11.1717874176
 20
-21.9725038701
 30
0.0
 10
-11.170652358
 20
-21.9508596989
 30
0.0
 10
-11.1693421877
 20
-21.916138539
 30
0.0
 10
-11.1678866414
 20
-21.865506683
 30
0.0
 10
-11.1664832737
 20
-21.8032492872
 30
0.0
 10
-11.165141582
 20
-21.7298973176
 30
0.0
 10
-11.1638795566
 20
-21.6460744898
 30
0.0
 10
-11.1622476531
 20
-21.5155156455
 30
0.0
 10
-11.1605464075
 20
-21.3321857415
 30
0.0
 10
-11.1590447024
 20
-21.0925614008
 30
0.0
 10
-11.1580678799
 20
-20.8328115091
 30
0.0
 10
-11.1577929824
 20
-20.6538519852
 30
0.0
 10
-11.1577491915
 20
-20.5624683248
 30
0.0
  0
SPLINE
  5
5CE
100
AcDbEntity
  8
RACCORDO
100
AcDbSpline
 62
250
  6
CONTINUOUS
 70
0
 71
3
 72
21
 73
17
 74
0
 42
0.0000001
 43
0.0000001
 44
0.0000000001
 40
0.0
 40
0.0
 40
0.0
 40
0.0
 40
0.0037275565
 40
0.0096318743
 40
0.0177209763
 40
0.0279840482
 40
0.0549525649
 40
0.0903219332
 40
0.1337966227
 40
0.1850093878
 40
0.2435261249
 40
0.3088498528
 40
0.4576430892
 40
0.6263351923
 40
0.8091921639
 40
1.0
 40
1.0
 40
1.0
 40
1.0
 10
-11.6741998097
 20
-21.4994104546
 30
0.0
 10
-11.673823839
 20
-21.498281188
 30
0.0
 10
-11.6732393397
 20
-21.4952471827
 30
0.0
 10
-11.6724725406
 20
-21.4896466849
 30
0.0
 10
-11.671711384
 20
-21.4819348695
 30
0.0
 10
-11.6705771142
 20
-21.4675096222
 30
0.0
 10
-11.669266299
 20
-21.4443619953
 30
0.0
 10
-11.6678109074
 20
-21.4106077125
 30
0.0
 10
-11.6664073945
 20
-21.3691035336
 30
0.0
 10
-11.665065726
 20
-21.3202037239
 30
0.0
 10
-11.6638036669
 20
-21.2643232625
 30
0.0
 10
-11.6621717525
 20
-21.1772864706
 30
0.0
 10
-11.6604704334
 20
-21.0550666852
 30
0.0
 10
-11.6589686411
 20
-20.8953140572
 30
0.0
 10
-11.6579917578
 20
-20.7221418867
 30
0.0
 10
-11.6577168298
 20
-20.6028307843
 30
0.0
 10
-11.6576730391
 20
-20.5419058565
 30
0.0
  0
LINE
  5
5CF
100
AcDbEntity
  8
RACCORDO
100
AcDbLine
 62
7
  6
CONTINUOUS
 10
-11.3177192511
 20
-22.3334109614
 30
0.0
 11
-11.325
 21
-22.3997080771
 31
0.0
  0
LINE
  5
5D0
100
AcDbEntity
  8
RACCORDO
100
AcDbLine
 62
7
  6
CONTINUOUS
 10
9.9677192511
 20
22.3334109614
 30
0.0
 11
9.975
 21
22.3997080771
 31
0.0
  0
SPLINE
  5
5D1
100
AcDbEntity
  8
RACCORDO
100
AcDbSpline
 62
250
  6
CONTINUOUS
 70
0
 71
3
 72
21
 73
17
 74
0
 42
0.0000001
 43
0.0000001
 44
0.0000000001
 40
0.0
 40
0.0
 40
0.0
 40
0.0
 40
0.0036756375
 40
0.0095490103
 40
0.0176169246
 40
0.0278646229
 40
0.0548142191
 40
0.0901747263
 40
0.133647327
 40
0.1848631636
 40
0.2433868893
 40
0.3087206631
 40
0.4575405544
 40
0.6262646603
 40
0.8091562989
 40
1.0
 40
1.0
 40
1.0
 40
1.0
 10
9.8242759622
 20
21.998725222
 30
0.0
 10
9.8238945494
 20
21.9970070026
 30
0.0
 10
9.8233152648
 20
21.9924610508
 30
0.0
 10
9.8225468052
 20
21.9840646806
 30
0.0
 10
9.821787404
 20
21.9725038686
 30
0.0
 10
9.8206523544
 20
21.9508596947
 30
0.0
 10
9.8193421816
 20
21.9161385378
 30
0.0
 10
9.8178866318
 20
21.8655066834
 30
0.0
 10
9.8164832667
 20
21.8032492868
 30
0.0
 10
9.8151415728
 20
21.7298973175
 30
0.0
 10
9.8138795482
 20
21.6460744895
 30
0.0
 10
9.8122476451
 20
21.5155156452
 30
0.0
 10
9.8105464024
 20
21.3321857412
 30
0.0
 10
9.8090446999
 20
21.0925614005
 30
0.0
 10
9.8080678774
 20
20.8328115089
 30
0.0
 10
9.8077929896
 20
20.6538519851
 30
0.0
 10
9.8077491915
 20
20.5624683248
 30
0.0
  0
SPLINE
  5
5D2
100
AcDbEntity
  8
RACCORDO
100
AcDbSpline
 62
250
  6
CONTINUOUS
 70
0
 71
3
 72
21
 73
17
 74
0
 42
0.0000001
 43
0.0000001
 44
0.0000000001
 40
0.0
 40
0.0
 40
0.0
 40
0.0
 40
0.0037275284
 40
0.0096318815
 40
0.0177209833
 40
0.0279840195
 40
0.0549525362
 40
0.0903219253
 40
0.1337966086
 40
0.1850093847
 40
0.2435261253
 40
0.308849859
 40
0.4576431026
 40
0.6263352092
 40
0.8091921897
 40
1.0
 40
1.0
 40
1.0
 40
1.0
 10
10.3241998097
 20
21.4994104546
 30
0.0
 10
10.3238238286
 20
21.4982812009
 30
0.0
 10
10.3232393404
 20
21.4952471883
 30
0.0
 10
10.322472542
 20
21.4896466903
 30
0.0
 10
10.3217113852
 20
21.4819348742
 30
0.0
 10
10.3205771102
 20
21.4675096392
 30
0.0
 10
10.3192662994
 20
21.4443620165
 30
0.0
 10
10.3178109074
 20
21.4106077292
 30
0.0
 10
10.3164073939
 20
21.369103542
 30
0.0
 10
10.315065726
 20
21.3202037297
 30
0.0
 10
10.3138036666
 20
21.2643232618
 30
0.0
 10
10.3121717526
 20
21.1772864646
 30
0.0
 10
10.3104704335
 20
21.0550666738
 30
0.0
 10
10.3089686413
 20
20.8953140395
 30
0.0
 10
10.3079917577
 20
20.7221418732
 30
0.0
 10
10.307716832
 20
20.6028307761
 30
0.0
 10
10.3076730391
 20
20.5419058565
 30
0.0
  0
SPLINE
  5
5D3
100
AcDbEntity
  8
RACCORDO
100
AcDbSpline
 62
250
  6
CONTINUOUS
 70
0
 71
3
 72
22
 73
18
 74
0
 42
0.0000001
 43
0.0000001
 44
0.0000000001
 40
0.0
 40
0.0
 40
0.0
 40
0.0
 40
0.0028346435
 40
0.0076284833
 40
0.014610921
 40
0.0238386666
 40
0.0490321423
 40
0.0830853821
 40
0.1257140422
 40
0.1765345581
 40
0.2350812189
 40
0.3008090044
 40
0.373102859
 40
0.4512868834
 40
0.6223417772
 40
0.80755591
 40
1.0
 40
1.0
 40
1.0
 40
1.0
 10
10.3076730391
 20
20.5419058565
 30
0.0
 10
10.3074881411
 20
20.5423419863
 30
0.0
 10
10.3063863975
 20
20.5431620622
 30
0.0
 10
10.3041580644
 20
20.5440657681
 30
0.0
 10
10.3007568614
 20
20.5450277025
 30
0.0
 10
10.2939931986
 20
20.5464467585
 30
0.0
 10
10.2826530189
 20
20.5480899819
 30
0.0
 10
10.2657286155
 20
20.5499068778
 30
0.0
 10
10.2444908036
 20
20.5516673795
 30
0.0
 10
10.2191462788
 20
20.5533530297
 30
0.0
 10
10.1899279275
 20
20.5549394978
 30
0.0
 10
10.1571114788
 20
20.5564100082
 30
0.0
 10
10.1210052463
 20
20.5577489064
 30
0.0
 10
10.0672977727
 20
20.559389201
 30
0.0
 10
9.9947110796
 20
20.5609777162
 30
0.0
 10
9.9030206781
 20
20.5621520569
 30
0.0
 10
9.8399090423
 20
20.5624452588
 30
0.0
 10
9.8077491915
 20
20.5624683248
 30
0.0
  0
SPLINE
  5
5D4
100
AcDbEntity
  8
RACCORDO
100
AcDbSpline
 62
250
  6
CONTINUOUS
 70
0
 71
3
 72
9
 73
5
 74
0
 42
0.0000001
 43
0.0000001
 44
0.0000000001
 40
0.0
 40
0.0
 40
0.0
 40
0.0
 40
0.2499471355
 40
1.0
 40
1.0
 40
1.0
 40
1.0
 10
9.8077491915
 20
20.5624683248
 30
0.0
 10
9.8052900037
 20
17.1361156711
 30
0.0
 10
9.7979150376
 20
3.4278046669
 30
0.0
 10
9.8003695474
 20
-10.2805116313
 30
0.0
 10
9.8077491915
 20
-20.5624683248
 30
0.0
  0
SPLINE
  5
5D5
100
AcDbEntity
  8
RACCORDO
100
AcDbSpline
 62
250
  6
CONTINUOUS
 70
0
 71
3
 72
9
 73
5
 74
0
 42
0.0000001
 43
0.0000001
 44
0.0000000001
 40
0.0
 40
0.0
 40
0.0
 40
0.0
 40
0.2499471355
 40
1.0
 40
1.0
 40
1.0
 40
1.0
 10
10.3076730391
 20
20.5419058565
 30
0.0
 10
10.3052138512
 20
17.1189795567
 30
0.0
 10
10.2978388852
 20
3.4243768659
 30
0.0
 10
10.300293395
 20
-10.2702311241
 30
0.0
 10
10.3076730391
 20
-20.5419058565
 30
0.0
  0
SPLINE
  5
5D6
100
AcDbEntity
  8
RACCORDO
100
AcDbSpline
 62
250
  6
CONTINUOUS
 70
0
 71
3
 72
22
 73
18
 74
0
 42
0.0000001
 43
0.0000001
 44
0.0000000001
 40
0.0
 40
0.0
 40
0.0
 40
0.0
 40
0.0028346526
 40
0.0076285035
 40
0.0146109522
 40
0.0238387082
 40
0.0490322025
 40
0.0830854577
 40
0.1257141296
 40
0.1765346534
 40
0.2350813185
 40
0.3008091045
 40
0.373102956
 40
0.4512869739
 40
0.6223418455
 40
0.8075559467
 40
1.0
 40
1.0
 40
1.0
 40
1.0
 10
10.3076730391
 20
-20.5419058565
 30
0.0
 10
10.307488138
 20
-20.5423419866
 30
0.0
 10
10.3063863903
 20
-20.5431620611
 30
0.0
 10
10.3041580515
 20
-20.5440657676
 30
0.0
 10
10.300756843
 20
-20.5450277016
 30
0.0
 10
10.2939931732
 20
-20.5464467574
 30
0.0
 10
10.2826529861
 20
-20.5480899804
 30
0.0
 10
10.2657285751
 20
-20.5499068759
 30
0.0
 10
10.2444907575
 20
-20.5516673771
 30
0.0
 10
10.2191462288
 20
-20.5533530268
 30
0.0
 10
10.1899278755
 20
-20.5549394944
 30
0.0
 10
10.1571114267
 20
-20.5564100043
 30
0.0
 10
10.121005196
 20
-20.557748902
 30
0.0
 10
10.0672977281
 20
-20.5593891959
 30
0.0
 10
9.9947110456
 20
-20.5609777104
 30
0.0
 10
9.9030206599
 20
-20.5621520504
 30
0.0
 10
9.8399090359
 20
-20.5624452521
 30
0.0
 10
9.8077491915
 20
-20.562468318
 30
0.0
  0
SPLINE
  5
5D7
100
AcDbEntity
  8
RACCORDO
100
AcDbSpline
 62
250
  6
CONTINUOUS
 70
0
 71
3
 72
21
 73
17
 74
0
 42
0.0000001
 43
0.0000001
 44
0.0000000001
 40
0.0
 40
0.0
 40
0.0
 40
0.0
 40
0.1908437014
 40
0.37373534
 40
0.542459446
 40
0.6912793372
 40
0.756613111
 40
0.8151368367
 40
0.8663526731
 40
0.9098252744
 40
0.9451857799
 40
0.9721353804
 40
0.9823830818
 40
0.9904509844
 40
0.9963243388
 40
1.0
 40
1.0
 40
1.0
 40
1.0
 10
9.8077491915
 20
-20.5624683248
 30
0.0
 10
9.8077929824
 20
-20.6538519852
 30
0.0
 10
9.8080678799
 20
-20.8328115091
 30
0.0
 10
9.8090447024
 20
-21.0925614008
 30
0.0
 10
9.8105464075
 20
-21.3321857415
 30
0.0
 10
9.8122476531
 20
-21.5155156455
 30
0.0
 10
9.8138795566
 20
-21.6460744898
 30
0.0
 10
9.815141582
 20
-21.7298973176
 30
0.0
 10
9.8164832737
 20
-21.8032492872
 30
0.0
 10
9.8178866414
 20
-21.865506683
 30
0.0
 10
9.8193421877
 20
-21.916138539
 30
0.0
 10
9.820652358
 20
-21.9508596989
 30
0.0
 10
9.8217874176
 20
-21.9725038701
 30
0.0
 10
9.8225468135
 20
-21.9840646695
 30
0.0
 10
9.823315254
 20
-21.9924610378
 30
0.0
 10
9.8238945381
 20
-21.9970069934
 30
0.0
 10
9.8242759622
 20
-21.998725222
 30
0.0
  0
SPLINE
  5
5D8
100
AcDbEntity
  8
RACCORDO
100
AcDbSpline
 62
250
  6
CONTINUOUS
 70
0
 71
3
 72
21
 73
17
 74
0
 42
0.0000001
 43
0.0000001
 44
0.0000000001
 40
0.0
 40
0.0
 40
0.0
 40
0.0
 40
0.1908078361
 40
0.3736648077
 40
0.5423569108
 40
0.6911501472
 40
0.7564738751
 40
0.8149906122
 40
0.8662033773
 40
0.9096780668
 40
0.9450474351
 40
0.9720159518
 40
0.9822790237
 40
0.9903681257
 40
0.9962724435
 40
1.0
 40
1.0
 40
1.0
 40
1.0
 10
10.3076730391
 20
-20.5419058565
 30
0.0
 10
10.3077168298
 20
-20.6028307843
 30
0.0
 10
10.3079917578
 20
-20.7221418867
 30
0.0
 10
10.3089686411
 20
-20.8953140572
 30
0.0
 10
10.3104704334
 20
-21.0550666852
 30
0.0
 10
10.3121717525
 20
-21.1772864706
 30
0.0
 10
10.3138036669
 20
-21.2643232625
 30
0.0
 10
10.315065726
 20
-21.3202037239
 30
0.0
 10
10.3164073945
 20
-21.3691035336
 30
0.0
 10
10.3178109074
 20
-21.4106077125
 30
0.0
 10
10.319266299
 20
-21.4443619953
 30
0.0
 10
10.3205771142
 20
-21.4675096222
 30
0.0
 10
10.321711384
 20
-21.4819348695
 30
0.0
 10
10.3224725406
 20
-21.4896466849
 30
0.0
 10
10.3232393397
 20
-21.4952471827
 30
0.0
 10
10.323823839
 20
-21.498281188
 30
0.0
 10
10.3241998097
 20
-21.4994104546
 30
0.0
  0
LINE
  5
5D9
100
AcDbEntity
  8
RACCORDO
100
AcDbLine
 62
7
  6
CONTINUOUS
 10
9.975
 20
-22.3997080771
 30
0.0
 11
9.9677192511
 21
-22.3334109614
 31
0.0
  0
SPLINE
  5
5DA
100
AcDbEntity
  8
RACCORDO
100
AcDbSpline
 62
250
  6
CONTINUOUS
 70
0
 71
3
 72
8
 73
4
 74
0
 42
0.0000001
 43
0.0000001
 44
0.0000000001
 40
0.0
 40
0.0
 40
0.0
 40
0.0
 40
1.0
 40
1.0
 40
1.0
 40
1.0
 10
-7.1345360797
 20
3.4095494986
 30
0.0
 10
-7.1346933262
 20
0.7698721088
 30
0.0
 10
-7.1346679653
 20
-1.8698052982
 30
0.0
 10
-7.1344599869
 20
-4.5094826846
 30
0.0
  0
SPLINE
  5
5DB
100
AcDbEntity
  8
RACCORDO
100
AcDbSpline
 62
250
  6
CONTINUOUS
 70
0
 71
3
 72
13
 73
9
 74
0
 42
0.0000001
 43
0.0000001
 44
0.0000000001
 40
0.0
 40
0.0
 40
0.0
 40
0.0
 40
0.1162399782
 40
0.2339778175
 40
0.3543713311
 40
0.4780980184
 40
0.7345386243
 40
1.0
 40
1.0
 40
1.0
 40
1.0
 10
9.9619014213
 20
-23.8443375673
 30
0.0
 10
9.9618538949
 20
-23.8301877969
 30
0.0
 10
9.9584956104
 20
-23.8016148029
 30
0.0
 10
9.9439382831
 20
-23.7606547352
 30
0.0
 10
9.9204678694
 20
-23.7229828841
 30
0.0
 10
9.8781654793
 20
-23.6786204872
 30
0.0
 10
9.8082385508
 20
-23.6387874753
 30
0.0
 10
9.7442200662
 20
-23.6279126226
 30
0.0
 10
9.7119056521
 20
-23.6278312164
 30
0.0
  0
SPLINE
  5
5DC
100
AcDbEntity
  8
RACCORDO
100
AcDbSpline
 62
250
  6
CONTINUOUS
 70
0
 71
3
 72
13
 73
9
 74
0
 42
0.0000001
 43
0.0000001
 44
0.0000000001
 40
0.0
 40
0.0
 40
0.0
 40
0.0
 40
0.1162401412
 40
0.2339779602
 40
0.3543714643
 40
0.4780981267
 40
0.7345386771
 40
1.0
 40
1.0
 40
1.0
 40
1.0
 10
-11.3119014213
 20
23.8443375673
 30
0.0
 10
-11.3118538948
 20
23.830187777
 30
0.0
 10
-11.3084956075
 20
23.8016147644
 30
0.0
 10
-11.2939382568
 20
23.7606546878
 30
0.0
 10
-11.2704678401
 20
23.722982847
 30
0.0
 10
-11.2281654486
 20
23.6786204663
 30
0.0
 10
-11.1582385313
 20
23.6387874704
 30
0.0
 10
-11.0942200598
 20
23.6279126226
 30
0.0
 10
-11.0619056521
 20
23.6278312164
 30
0.0
  0
SPLINE
  5
5DD
100
AcDbEntity
  8
RACCORDO
100
AcDbSpline
 62
7
  6
CONTINUOUS
 70
0
 71
3
 72
15
 73
11
 74
0
 42
0.0000001
 43
0.0000001
 44
0.0000000001
 40
0.0
 40
0.0
 40
0.0
 40
0.0
 40
0.0847129374
 40
0.1757006909
 40
0.2778081862
 40
0.3942292046
 40
0.5263924491
 40
0.6737522819
 40
0.8333934372
 40
1.0
 40
1.0
 40
1.0
 40
1.0
 10
-11.3177192511
 20
23.2669872981
 30
0.0
 10
-11.3176296219
 20
23.258092445
 30
0.0
 10
-11.3143880304
 20
23.2395648789
 30
0.0
 10
-11.3008400686
 20
23.2133248236
 30
0.0
 10
-11.2789737644
 20
23.1888935038
 30
0.0
 10
-11.2491263724
 20
23.1669636521
 30
0.0
 10
-11.2117662434
 20
23.1483344332
 30
0.0
 10
-11.1677934721
 20
23.1339562437
 30
0.0
 10
-11.1187829097
 20
23.1248200479
 30
0.0
 10
-11.0844908199
 20
23.1226497308
 30
0.0
 10
-11.0669962532
 20
23.1226497308
 30
0.0
  0
SPLINE
  5
5DE
100
AcDbEntity
  8
RACCORDO
100
AcDbSpline
 62
7
  6
CONTINUOUS
 70
0
 71
3
 72
15
 73
11
 74
0
 42
0.0000001
 43
0.0000001
 44
0.0000000001
 40
0.0
 40
0.0
 40
0.0
 40
0.0
 40
0.0847129374
 40
0.1757006909
 40
0.2778081862
 40
0.3942292046
 40
0.5263924491
 40
0.6737522819
 40
0.8333934372
 40
1.0
 40
1.0
 40
1.0
 40
1.0
 10
-8.9322807489
 20
23.2669872981
 30
0.0
 10
-8.9323703781
 20
23.258092445
 30
0.0
 10
-8.9356119696
 20
23.2395648789
 30
0.0
 10
-8.9491599314
 20
23.2133248236
 30
0.0
 10
-8.9710262356
 20
23.1888935038
 30
0.0
 10
-9.0008736276
 20
23.1669636521
 30
0.0
 10
-9.0382337566
 20
23.1483344332
 30
0.0
 10
-9.0822065279
 20
23.1339562437
 30
0.0
 10
-9.1312170903
 20
23.1248200479
 30
0.0
 10
-9.1655091801
 20
23.1226497308
 30
0.0
 10
-9.1830037468
 20
23.1226497308
 30
0.0
  0
SPLINE
  5
5DF
100
AcDbEntity
  8
RACCORDO
100
AcDbSpline
 62
250
  6
CONTINUOUS
 70
0
 71
3
 72
13
 73
9
 74
0
 42
0.0000001
 43
0.0000001
 44
0.0000000001
 40
0.0
 40
0.0
 40
0.0
 40
0.0
 40
0.1162401412
 40
0.2339779602
 40
0.3543714643
 40
0.4780981267
 40
0.7345386771
 40
1.0
 40
1.0
 40
1.0
 40
1.0
 10
-8.9380985787
 20
23.8443375673
 30
0.0
 10
-8.9381461052
 20
23.830187777
 30
0.0
 10
-8.9415043925
 20
23.8016147644
 30
0.0
 10
-8.9560617432
 20
23.7606546878
 30
0.0
 10
-8.9795321599
 20
23.722982847
 30
0.0
 10
-9.0218345514
 20
23.6786204663
 30
0.0
 10
-9.0917614687
 20
23.6387874704
 30
0.0
 10
-9.1557799402
 20
23.6279126226
 30
0.0
 10
-9.1880943479
 20
23.6278312164
 30
0.0
  0
SPLINE
  5
5E0
100
AcDbEntity
  8
RACCORDO
100
AcDbSpline
 62
250
  6
CONTINUOUS
 70
0
 71
3
 72
13
 73
9
 74
0
 42
0.0000001
 43
0.0000001
 44
0.0000000001
 40
0.0
 40
0.0
 40
0.0
 40
0.0
 40
0.1162399782
 40
0.2339778175
 40
0.3543713311
 40
0.4780980184
 40
0.7345386243
 40
1.0
 40
1.0
 40
1.0
 40
1.0
 10
7.5880985787
 20
-23.8443375673
 30
0.0
 10
7.5881461051
 20
-23.8301877969
 30
0.0
 10
7.5915043896
 20
-23.8016148029
 30
0.0
 10
7.6060617169
 20
-23.7606547352
 30
0.0
 10
7.6295321306
 20
-23.7229828841
 30
0.0
 10
7.6718345207
 20
-23.6786204872
 30
0.0
 10
7.7417614492
 20
-23.6387874753
 30
0.0
 10
7.8057799338
 20
-23.6279126226
 30
0.0
 10
7.8380943479
 20
-23.6278312164
 30
0.0
  0
SPLINE
  5
5E1
100
AcDbEntity
  8
RACCORDO
100
AcDbSpline
 62
7
  6
CONTINUOUS
 70
0
 71
3
 72
15
 73
11
 74
0
 42
0.0000001
 43
0.0000001
 44
0.0000000001
 40
0.0
 40
0.0
 40
0.0
 40
0.0
 40
0.0847129374
 40
0.1757006909
 40
0.2778081862
 40
0.3942292046
 40
0.5263924491
 40
0.6737522819
 40
0.8333934372
 40
1.0
 40
1.0
 40
1.0
 40
1.0
 10
7.5822807489
 20
-23.2669872981
 30
0.0
 10
7.5823703781
 20
-23.258092445
 30
0.0
 10
7.5856119696
 20
-23.2395648789
 30
0.0
 10
7.5991599314
 20
-23.2133248236
 30
0.0
 10
7.6210262356
 20
-23.1888935038
 30
0.0
 10
7.6508736276
 20
-23.1669636521
 30
0.0
 10
7.6882337566
 20
-23.1483344332
 30
0.0
 10
7.7322065279
 20
-23.1339562437
 30
0.0
 10
7.7812170903
 20
-23.1248200479
 30
0.0
 10
7.8155091801
 20
-23.1226497308
 30
0.0
 10
7.8330037468
 20
-23.1226497308
 30
0.0
  0
SPLINE
  5
5E2
100
AcDbEntity
  8
RACCORDO
100
AcDbSpline
 62
250
  6
CONTINUOUS
 70
0
 71
3
 72
13
 73
9
 74
0
 42
0.0000001
 43
0.0000001
 44
0.0000000001
 40
0.0
 40
0.0
 40
0.0
 40
0.0
 40
0.1162401412
 40
0.2339779602
 40
0.3543714643
 40
0.4780981267
 40
0.7345386771
 40
1.0
 40
1.0
 40
1.0
 40
1.0
 10
7.5880985787
 20
23.8443375673
 30
0.0
 10
7.5881461052
 20
23.830187777
 30
0.0
 10
7.5915043925
 20
23.8016147644
 30
0.0
 10
7.6060617432
 20
23.7606546878
 30
0.0
 10
7.6295321599
 20
23.722982847
 30
0.0
 10
7.6718345514
 20
23.6786204663
 30
0.0
 10
7.7417614687
 20
23.6387874704
 30
0.0
 10
7.8057799402
 20
23.6279126226
 30
0.0
 10
7.8380943479
 20
23.6278312164
 30
0.0
  0
SPLINE
  5
5E3
100
AcDbEntity
  8
RACCORDO
100
AcDbSpline
 62
7
  6
CONTINUOUS
 70
0
 71
3
 72
15
 73
11
 74
0
 42
0.0000001
 43
0.0000001
 44
0.0000000001
 40
0.0
 40
0.0
 40
0.0
 40
0.0
 40
0.0847129374
 40
0.1757006909
 40
0.2778081862
 40
0.3942292046
 40
0.5263924491
 40
0.6737522819
 40
0.8333934372
 40
1.0
 40
1.0
 40
1.0
 40
1.0
 10
7.5822807489
 20
23.2669872981
 30
0.0
 10
7.5823703781
 20
23.258092445
 30
0.0
 10
7.5856119696
 20
23.2395648789
 30
0.0
 10
7.5991599314
 20
23.2133248236
 30
0.0
 10
7.6210262356
 20
23.1888935038
 30
0.0
 10
7.6508736276
 20
23.1669636521
 30
0.0
 10
7.6882337566
 20
23.1483344332
 30
0.0
 10
7.7322065279
 20
23.1339562437
 30
0.0
 10
7.7812170903
 20
23.1248200479
 30
0.0
 10
7.8155091801
 20
23.1226497308
 30
0.0
 10
7.8330037468
 20
23.1226497308
 30
0.0
  0
SPLINE
  5
5E4
100
AcDbEntity
  8
RACCORDO
100
AcDbSpline
 62
7
  6
CONTINUOUS
 70
0
 71
3
 72
15
 73
11
 74
0
 42
0.0000001
 43
0.0000001
 44
0.0000000001
 40
0.0
 40
0.0
 40
0.0
 40
0.0
 40
0.0847129374
 40
0.1757006909
 40
0.2778081862
 40
0.3942292046
 40
0.5263924491
 40
0.6737522819
 40
0.8333934372
 40
1.0
 40
1.0
 40
1.0
 40
1.0
 10
-8.9322807489
 20
-23.2669872981
 30
0.0
 10
-8.9323703781
 20
-23.258092445
 30
0.0
 10
-8.9356119696
 20
-23.2395648789
 30
0.0
 10
-8.9491599314
 20
-23.2133248236
 30
0.0
 10
-8.9710262356
 20
-23.1888935038
 30
0.0
 10
-9.0008736276
 20
-23.1669636521
 30
0.0
 10
-9.0382337566
 20
-23.1483344332
 30
0.0
 10
-9.0822065279
 20
-23.1339562437
 30
0.0
 10
-9.1312170903
 20
-23.1248200479
 30
0.0
 10
-9.1655091801
 20
-23.1226497308
 30
0.0
 10
-9.1830037468
 20
-23.1226497308
 30
0.0
  0
SPLINE
  5
5E5
100
AcDbEntity
  8
RACCORDO
100
AcDbSpline
 62
250
  6
CONTINUOUS
 70
0
 71
3
 72
13
 73
9
 74
0
 42
0.0000001
 43
0.0000001
 44
0.0000000001
 40
0.0
 40
0.0
 40
0.0
 40
0.0
 40
0.1162399782
 40
0.2339778175
 40
0.3543713311
 40
0.4780980184
 40
0.7345386243
 40
1.0
 40
1.0
 40
1.0
 40
1.0
 10
-8.9380985787
 20
-23.8443375673
 30
0.0
 10
-8.9381461051
 20
-23.8301877969
 30
0.0
 10
-8.9415043896
 20
-23.8016148029
 30
0.0
 10
-8.9560617169
 20
-23.7606547352
 30
0.0
 10
-8.9795321306
 20
-23.7229828841
 30
0.0
 10
-9.0218345207
 20
-23.6786204872
 30
0.0
 10
-9.0917614492
 20
-23.6387874753
 30
0.0
 10
-9.1557799338
 20
-23.6279126226
 30
0.0
 10
-9.1880943479
 20
-23.6278312164
 30
0.0
  0
SPLINE
  5
5E6
100
AcDbEntity
  8
RACCORDO
100
AcDbSpline
 62
7
  6
CONTINUOUS
 70
0
 71
3
 72
15
 73
11
 74
0
 42
0.0000001
 43
0.0000001
 44
0.0000000001
 40
0.0
 40
0.0
 40
0.0
 40
0.0
 40
0.0847129374
 40
0.1757006909
 40
0.2778081862
 40
0.3942292046
 40
0.5263924491
 40
0.6737522819
 40
0.8333934372
 40
1.0
 40
1.0
 40
1.0
 40
1.0
 10
9.9677192511
 20
23.2669872981
 30
0.0
 10
9.9676296219
 20
23.258092445
 30
0.0
 10
9.9643880304
 20
23.2395648789
 30
0.0
 10
9.9508400686
 20
23.2133248236
 30
0.0
 10
9.9289737644
 20
23.1888935038
 30
0.0
 10
9.8991263724
 20
23.1669636521
 30
0.0
 10
9.8617662434
 20
23.1483344332
 30
0.0
 10
9.8177934721
 20
23.1339562437
 30
0.0
 10
9.7687829097
 20
23.1248200479
 30
0.0
 10
9.7344908199
 20
23.1226497308
 30
0.0
 10
9.7169962532
 20
23.1226497308
 30
0.0
  0
SPLINE
  5
5E7
100
AcDbEntity
  8
RACCORDO
100
AcDbSpline
 62
250
  6
CONTINUOUS
 70
0
 71
3
 72
13
 73
9
 74
0
 42
0.0000001
 43
0.0000001
 44
0.0000000001
 40
0.0
 40
0.0
 40
0.0
 40
0.0
 40
0.1162401412
 40
0.2339779602
 40
0.3543714643
 40
0.4780981267
 40
0.7345386771
 40
1.0
 40
1.0
 40
1.0
 40
1.0
 10
9.9619014213
 20
23.8443375673
 30
0.0
 10
9.9618538948
 20
23.830187777
 30
0.0
 10
9.9584956075
 20
23.8016147644
 30
0.0
 10
9.9439382568
 20
23.7606546878
 30
0.0
 10
9.9204678401
 20
23.722982847
 30
0.0
 10
9.8781654486
 20
23.6786204663
 30
0.0
 10
9.8082385313
 20
23.6387874704
 30
0.0
 10
9.7442200598
 20
23.6279126226
 30
0.0
 10
9.7119056521
 20
23.6278312164
 30
0.0
  0
SPLINE
  5
5E8
100
AcDbEntity
  8
RACCORDO
100
AcDbSpline
 62
250
  6
CONTINUOUS
 70
0
 71
3
 72
13
 73
9
 74
0
 42
0.0000001
 43
0.0000001
 44
0.0000000001
 40
0.0
 40
0.0
 40
0.0
 40
0.0
 40
0.1162399782
 40
0.2339778175
 40
0.3543713311
 40
0.4780980184
 40
0.7345386243
 40
1.0
 40
1.0
 40
1.0
 40
1.0
 10
-11.3119014213
 20
-23.8443375673
 30
0.0
 10
-11.3118538949
 20
-23.8301877969
 30
0.0
 10
-11.3084956104
 20
-23.8016148029
 30
0.0
 10
-11.2939382831
 20
-23.7606547352
 30
0.0
 10
-11.2704678694
 20
-23.7229828841
 30
0.0
 10
-11.2281654793
 20
-23.6786204872
 30
0.0
 10
-11.1582385508
 20
-23.6387874753
 30
0.0
 10
-11.0942200662
 20
-23.6279126226
 30
0.0
 10
-11.0619056521
 20
-23.6278312164
 30
0.0
  0
SPLINE
  5
5E9
100
AcDbEntity
  8
IMPORT_IGES
100
AcDbSpline
 62
7
  6
CONTINUOUS
 70
0
 71
3
 72
8
 73
4
 74
0
 42
0.0000001
 43
0.0000001
 44
0.0000000001
 40
0.0
 40
0.0
 40
0.0
 40
0.0
 40
1.0
 40
1.0
 40
1.0
 40
1.0
 10
-59.5134098048
 20
-10.8621318567
 30
0.0
 10
-59.6779796646
 20
-10.7916019168
 30
0.0
 10
-59.8430484276
 20
-10.722239896
 30
0.0
 10
-60.0076182874
 20
-10.6517099561
 30
0.0
  0
SPLINE
  5
5EA
100
AcDbEntity
  8
IMPORT_IGES
100
AcDbSpline
 62
7
  6
CONTINUOUS
 70
0
 71
3
 72
10
 73
6
 74
0
 42
0.0000001
 43
0.0000001
 44
0.0000000001
 40
0.0
 40
0.0
 40
0.0
 40
0.0
 40
0.2500009989
 40
0.5001796269
 40
1.0
 40
1.0
 40
1.0
 40
1.0
 10
-60.2975654031
 20
-10.6530600767
 30
0.0
 10
-60.3708839983
 20
-10.653060077
 30
0.0
 10
-60.5176370104
 20
-10.6333020954
 30
0.0
 10
-60.7986397633
 20
-10.5476311241
 30
0.0
 10
-60.9963616044
 20
-10.4461677876
 30
0.0
 10
-61.119858706
 20
-10.3672037902
 30
0.0
  0
SPLINE
  5
5EB
100
AcDbEntity
  8
IMPORT_IGES
100
AcDbSpline
 62
250
  6
CONTINUOUS
 70
0
 71
3
 72
20
 73
16
 74
0
 42
0.0000001
 43
0.0000001
 44
0.0000000001
 40
0.0
 40
0.0
 40
0.0
 40
0.0
 40
0.0014835871
 40
0.0052119096
 40
0.0197246214
 40
0.0435840512
 40
0.076631481
 40
0.1186327716
 40
0.1691101171
 40
0.2275247627
 40
0.293337148
 40
0.4447203119
 40
0.6175689931
 40
0.8054427951
 40
1.0
 40
1.0
 40
1.0
 40
1.0
 10
-63.4145173042
 20
-8.7357372121
 30
0.0
 10
-63.4145173042
 20
-8.73588567
 30
0.0
 10
-63.4138444616
 20
-8.7360890032
 30
0.0
 10
-63.4121536298
 20
-8.73645551
 30
0.0
 10
-63.4077051455
 20
-8.7368643733
 30
0.0
 10
-63.400720197
 20
-8.7373358697
 30
0.0
 10
-63.3907692479
 20
-8.7377982957
 30
0.0
 10
-63.3782407885
 20
-8.738250447
 30
0.0
 10
-63.3631387586
 20
-8.7386814812
 30
0.0
 10
-63.3456641778
 20
-8.7390876037
 30
0.0
 10
-63.3180884993
 20
-8.7396128851
 30
0.0
 10
-63.2790621839
 20
-8.740153179
 30
0.0
 10
-63.2278191334
 20
-8.7406211493
 30
0.0
 10
-63.1722547387
 20
-8.740907121
 30
0.0
 10
-63.133986029
 20
-8.7409729341
 30
0.0
 10
-63.1145173042
 20
-8.7409729341
 30
0.0
  0
SPLINE
  5
5EC
100
AcDbEntity
  8
IMPORT_IGES
100
AcDbSpline
 62
250
  6
CONTINUOUS
 70
0
 71
3
 72
11
 73
7
 74
0
 42
0.0000001
 43
0.0000001
 44
0.0000000001
 40
0.0
 40
0.0
 40
0.0
 40
0.0
 40
0.2287820514
 40
0.4705284561
 40
0.7295036757
 40
1.0
 40
1.0
 40
1.0
 40
1.0
 10
-39.1145173043
 20
-6.4342446924
 30
0.0
 10
-39.1145173043
 20
-6.4561174493
 30
0.0
 10
-39.1257178112
 20
-6.501683664
 30
0.0
 10
-39.1714933746
 20
-6.5568803911
 30
0.0
 10
-39.2376194292
 20
-6.5928082221
 30
0.0
 10
-39.2886564454
 20
-6.601034697
 30
0.0
 10
-39.3145173042
 20
-6.601034697
 30
0.0
  0
SPLINE
  5
5ED
100
AcDbEntity
  8
IMPORT_IGES
100
AcDbSpline
 62
250
  6
CONTINUOUS
 70
0
 71
3
 72
13
 73
9
 74
0
 42
0.0000001
 43
0.0000001
 44
0.0000000001
 40
0.0
 40
0.0
 40
0.0
 40
0.0
 40
0.3972111836
 40
0.7019346415
 40
0.8161921222
 40
0.9038680461
 40
0.9646604328
 40
1.0
 40
1.0
 40
1.0
 40
1.0
 10
-49.0443176493
 20
-10.8621318567
 30
0.0
 10
-49.0459826432
 20
-10.8739834958
 30
0.0
 10
-49.0490749034
 20
-10.8949000684
 30
0.0
 10
-49.0535980189
 20
-10.9191065581
 30
0.0
 10
-49.0573052755
 20
-10.9338965694
 30
0.0
 10
-49.0596306408
 20
-10.9415130315
 30
0.0
 10
-49.0616899427
 20
-10.9465674071
 30
0.0
 10
-49.0632940495
 20
-10.9491738977
 30
0.0
 10
-49.0642018193
 20
-10.9497304247
 30
0.0
  0
LINE
  5
5EE
100
AcDbEntity
  8
IMPORT_IGES
100
AcDbLine
 62
250
  6
CONTINUOUS
 10
-49.0642018193
 20
-10.9497304247
 30
0.0
 11
-49.0650640526
 21
-10.95
 31
0.0
  0
SPLINE
  5
5EF
100
AcDbEntity
  8
IMPORT_IGES
100
AcDbSpline
 62
250
  6
CONTINUOUS
 70
0
 71
3
 72
9
 73
5
 74
0
 42
0.0000001
 43
0.0000001
 44
0.0000000001
 40
0.0
 40
0.0
 40
0.0
 40
0.0
 40
0.5191985576
 40
1.0
 40
1.0
 40
1.0
 40
1.0
 10
-48.7473885024
 20
-10.6164237167
 30
0.0
 10
-48.7804934607
 20
-10.6228795809
 30
0.0
 10
-48.8429520638
 20
-10.6434922436
 30
0.0
 10
-48.898423031
 20
-10.6785047224
 30
0.0
 10
-48.922789957
 20
-10.6980451266
 30
0.0
  0
SPLINE
  5
5F0
100
AcDbEntity
  8
IMPORT_IGES
100
AcDbSpline
 62
250
  6
CONTINUOUS
 70
0
 71
3
 72
9
 73
5
 74
0
 42
0.0000001
 43
0.0000001
 44
0.0000000001
 40
0.0
 40
0.0
 40
0.0
 40
0.0
 40
0.517964488
 40
1.0
 40
1.0
 40
1.0
 40
1.0
 10
-48.922789957
 20
-10.6980451266
 30
0.0
 10
-48.9505130369
 20
-10.7202769086
 30
0.0
 10
-48.998520477
 20
-10.7707647715
 30
0.0
 10
-49.0313021022
 20
-10.8317295538
 30
0.0
 10
-49.0443176493
 20
-10.8621318567
 30
0.0
  0
SPLINE
  5
5F1
100
AcDbEntity
  8
IMPORT_IGES
100
AcDbSpline
 62
250
  6
CONTINUOUS
 70
0
 71
3
 72
21
 73
17
 74
0
 42
0.0000001
 43
0.0000001
 44
0.0000000001
 40
0.0
 40
0.0
 40
0.0
 40
0.0
 40
0.0012920889
 40
0.0049636248
 40
0.0110284392
 40
0.0194688548
 40
0.0433899742
 40
0.0765477592
 40
0.1186965133
 40
0.1693445166
 40
0.2279391945
 40
0.2939277735
 40
0.4455954093
 40
0.618530784
 40
0.8061610791
 40
1.0
 40
1.0
 40
1.0
 40
1.0
 10
-63.2643457956
 20
-3.2084305417
 30
0.0
 10
-63.2644594483
 20
-3.2084960591
 30
0.0
 10
-63.2640614975
 20
-3.2091471662
 30
0.0
 10
-63.2638156727
 20
-3.2100044258
 30
0.0
 10
-63.2628796681
 20
-3.2117511579
 30
0.0
 10
-63.261166911
 20
-3.2151654669
 30
0.0
 10
-63.2579761858
 20
-3.2210720175
 30
0.0
 10
-63.2531755904
 20
-3.2298961221
 30
0.0
 10
-63.2469762772
 20
-3.2410939528
 30
0.0
 10
-63.2394919544
 20
-3.2545148655
 30
0.0
 10
-63.2307824994
 20
-3.2700298961
 30
0.0
 10
-63.2170037999
 20
-3.2944590422
 30
0.0
 10
-63.1974317847
 20
-3.3289496524
 30
0.0
 10
-63.171658924
 20
-3.3741209371
 30
0.0
 10
-63.1436667361
 20
-3.422955526
 30
0.0
 10
-63.1243484625
 20
-3.4565239746
 30
0.0
 10
-63.1145173043
 20
-3.4735728302
 30
0.0
  0
SPLINE
  5
5F2
100
AcDbEntity
  8
IMPORT_IGES
100
AcDbSpline
 62
250
  6
CONTINUOUS
 70
0
 71
3
 72
10
 73
6
 74
0
 42
0.0000001
 43
0.0000001
 44
0.0000000001
 40
0.0
 40
0.0
 40
0.0
 40
0.0
 40
0.2563773645
 40
0.5076104123
 40
1.0
 40
1.0
 40
1.0
 40
1.0
 10
-61.6561579172
 20
-9.7843765612
 30
0.0
 10
-61.6981599443
 20
-9.7969684161
 30
0.0
 10
-61.784536537
 20
-9.8129648338
 30
0.0
 10
-61.9563651532
 20
-9.8022610808
 30
0.0
 10
-62.0788290992
 20
-9.7540289687
 30
0.0
 10
-62.1497843722
 20
-9.7086697274
 30
0.0
  0
SPLINE
  5
5F3
100
AcDbEntity
  8
IMPORT_IGES
100
AcDbSpline
 62
250
  6
CONTINUOUS
 70
0
 71
3
 72
9
 73
5
 74
0
 42
0.0000001
 43
0.0000001
 44
0.0000000001
 40
0.0
 40
0.0
 40
0.0
 40
0.0
 40
0.4999896853
 40
1.0
 40
1.0
 40
1.0
 40
1.0
 10
-45.4145173042
 20
-7.7481289407
 30
0.0
 10
-45.4146290381
 20
-7.7741414221
 30
0.0
 10
-45.4247427594
 20
-7.8267356225
 30
0.0
 10
-45.4547811687
 20
-7.8710763593
 30
0.0
 10
-45.473095948
 20
-7.889550297
 30
0.0
  0
SPLINE
  5
5F4
100
AcDbEntity
  8
IMPORT_IGES
100
AcDbSpline
 62
250
  6
CONTINUOUS
 70
0
 71
3
 72
10
 73
6
 74
0
 42
0.0000001
 43
0.0000001
 44
0.0000000001
 40
0.0
 40
0.0
 40
0.0
 40
0.0
 40
0.5183224905
 40
0.7676113605
 40
1.0
 40
1.0
 40
1.0
 40
1.0
 10
-47.0171125228
 20
-9.4335261866
 30
0.0
 10
-47.056949897
 20
-9.4733628275
 30
0.0
 10
-47.124422944
 20
-9.5252625138
 30
0.0
 10
-47.2247814694
 20
-9.5681272248
 30
0.0
 10
-47.2771882459
 20
-9.5774320466
 30
0.0
 10
-47.3024472685
 20
-9.577435516
 30
0.0
  0
SPLINE
  5
5F5
100
AcDbEntity
  8
IMPORT_IGES
100
AcDbSpline
 62
250
  6
CONTINUOUS
 70
0
 71
3
 72
10
 73
6
 74
0
 42
0.0000001
 43
0.0000001
 44
0.0000000001
 40
0.0
 40
0.0
 40
0.0
 40
0.0
 40
0.236405457
 40
0.4861991185
 40
1.0
 40
1.0
 40
1.0
 40
1.0
 10
-61.6561579151
 20
-9.5774753263
 30
0.0
 10
-61.6841817636
 20
-9.5774734154
 30
0.0
 10
-61.741861181
 20
-9.5700819347
 30
0.0
 10
-61.8555242944
 20
-9.5355959931
 30
0.0
 10
-61.936937414
 20
-9.4939153546
 30
0.0
 10
-61.988251346
 20
-9.4611051816
 30
0.0
  0
SPLINE
  5
5F6
100
AcDbEntity
  8
IMPORT_IGES
100
AcDbSpline
 62
7
  6
CONTINUOUS
 70
0
 71
3
 72
9
 73
5
 74
0
 42
0.0000001
 43
0.0000001
 44
0.0000000001
 40
0.0
 40
0.0
 40
0.0
 40
0.0
 40
0.0646766616
 40
1.0
 40
1.0
 40
1.0
 40
1.0
 10
-61.7145173044
 20
-2.3149999997
 30
0.0
 10
-61.7137744204
 20
-2.3155432708
 30
0.0
 10
-61.7022455658
 20
-2.3238823996
 30
0.0
 10
-61.690099086
 20
-2.3313413692
 30
0.0
 10
-61.6787429874
 20
-2.3382805803
 30
0.0
  0
SPLINE
  5
5F7
100
AcDbEntity
  8
IMPORT_IGES
100
AcDbSpline
 62
7
  6
CONTINUOUS
 70
0
 71
3
 72
9
 73
5
 74
0
 42
0.0000001
 43
0.0000001
 44
0.0000000001
 40
0.0
 40
0.0
 40
0.0
 40
0.0
 40
0.4344875594
 40
1.0
 40
1.0
 40
1.0
 40
1.0
 10
-61.6787429874
 20
-2.3382805803
 30
0.0
 10
-61.6408666663
 20
-2.36142513
 30
0.0
 10
-61.5527593113
 20
-2.4131520169
 30
0.0
 10
-61.4645440342
 20
-2.4646744688
 30
0.0
 10
-61.4145173042
 20
-2.4935728303
 30
0.0
  0
SPLINE
  5
5F8
100
AcDbEntity
  8
IMPORT_IGES
100
AcDbSpline
 62
250
  6
CONTINUOUS
 70
0
 71
3
 72
20
 73
16
 74
0
 42
0.0000001
 43
0.0000001
 44
0.0000000001
 40
0.0
 40
0.0
 40
0.0
 40
0.0
 40
0.1945564266
 40
0.3824287156
 40
0.5552773475
 40
0.7066616808
 40
0.7724745201
 40
0.8308895543
 40
0.8813672118
 40
0.9233687267
 40
0.9564162231
 40
0.9802755687
 40
0.9947881525
 40
0.9985164284
 40
1.0
 40
1.0
 40
1.0
 40
1.0
 10
-63.1145173042
 20
-3.4735728303
 30
0.0
 10
-63.1339859513
 20
-3.4735728303
 30
0.0
 10
-63.1722544318
 20
-3.4735070214
 30
0.0
 10
-63.2278185926
 20
-3.47322105
 30
0.0
 10
-63.279061604
 20
-3.4727530788
 30
0.0
 10
-63.3180880772
 20
-3.4722127892
 30
0.0
 10
-63.3456639572
 20
-3.4716875039
 30
0.0
 10
-63.3631386535
 20
-3.4712813787
 30
0.0
 10
-63.378240776
 20
-3.470850342
 30
0.0
 10
-63.390769296
 20
-3.4703981902
 30
0.0
 10
-63.4007202652
 20
-3.4699357643
 30
0.0
 10
-63.4077052017
 20
-3.4694642703
 30
0.0
 10
-63.4121536542
 20
-3.469055404
 30
0.0
 10
-63.4138444735
 20
-3.4686889004
 30
0.0
 10
-63.4145173042
 20
-3.4684855642
 30
0.0
 10
-63.4145173042
 20
-3.4683371079
 30
0.0
  0
SPLINE
  5
5F9
100
AcDbEntity
  8
IMPORT_IGES
100
AcDbSpline
 62
250
  6
CONTINUOUS
 70
0
 71
3
 72
21
 73
17
 74
0
 42
0.0000001
 43
0.0000001
 44
0.0000000001
 40
0.0
 40
0.0
 40
0.0
 40
0.0
 40
0.1954268666
 40
0.3837033066
 40
0.5566183633
 40
0.7078486401
 40
0.7735367358
 40
0.8318110702
 40
0.8821425255
 40
0.9240022217
 40
0.956919817
 40
0.9806610767
 40
0.9890371314
 40
0.9950564471
 40
0.9987034826
 40
1.0
 40
1.0
 40
1.0
 40
1.0
 10
-63.1145173042
 20
-8.7409729341
 30
0.0
 10
-63.1248944163
 20
-8.7571974537
 30
0.0
 10
-63.1452981588
 20
-8.789034179
 30
0.0
 10
-63.1749817149
 20
-8.835163583
 30
0.0
 10
-63.2023994049
 20
-8.8775713196
 30
0.0
 10
-63.2233400051
 20
-8.909780963
 30
0.0
 10
-63.2381864066
 20
-8.932475937
 30
0.0
 10
-63.2476222277
 20
-8.9468301853
 30
0.0
 10
-63.2558031248
 20
-8.9591931802
 30
0.0
 10
-63.2626488278
 20
-8.9694601273
 30
0.0
 10
-63.2680817277
 20
-8.9774740712
 30
0.0
 10
-63.2717341102
 20
-8.9828098217
 30
0.0
 10
-63.2739046284
 20
-8.9857846685
 30
0.0
 10
-63.274996144
 20
-8.9873454422
 30
0.0
 10
-63.2756213976
 20
-8.9879455712
 30
0.0
 10
-63.2760178593
 20
-8.9885560961
 30
0.0
 10
-63.2761256851
 20
-8.9884875458
 30
0.0
  0
SPLINE
  5
5FA
100
AcDbEntity
  8
IMPORT_IGES
100
AcDbSpline
 62
250
  6
CONTINUOUS
 70
0
 71
3
 72
21
 73
17
 74
0
 42
0.0000001
 43
0.0000001
 44
0.0000000001
 40
0.0
 40
0.0
 40
0.0
 40
0.0
 40
0.1830815603
 40
0.3693946529
 40
0.548309891
 40
0.7078536016
 40
0.7766735271
 40
0.8369898346
 40
0.8882196777
 40
0.9297804476
 40
0.9612805887
 40
0.9830934559
 40
0.9905448195
 40
0.9957890178
 40
0.9989029181
 40
1.0
 40
1.0
 40
1.0
 40
1.0
 10
-61.9882521469
 20
-9.4611064253
 30
0.0
 10
-61.9979737614
 20
-9.4763060817
 30
0.0
 10
-62.0176148093
 20
-9.5069569048
 30
0.0
 10
-62.0468490104
 20
-9.5524020239
 30
0.0
 10
-62.0749226961
 20
-9.5958351904
 30
0.0
 10
-62.0967954012
 20
-9.6294897073
 30
0.0
 10
-62.1123711485
 20
-9.6532959347
 30
0.0
 10
-62.1221391683
 20
-9.6681481363
 30
0.0
 10
-62.1304683024
 20
-9.6807250139
 30
0.0
 10
-62.1372755201
 20
-9.6909209954
 30
0.0
 10
-62.1425148741
 20
-9.6986332941
 30
0.0
 10
-62.1459394704
 20
-9.7036097046
 30
0.0
 10
-62.147911483
 20
-9.7062972038
 30
0.0
 10
-62.1488794773
 20
-9.7076531605
 30
0.0
 10
-62.1494184498
 20
-9.708177674
 30
0.0
 10
-62.1497694698
 20
-9.7086792207
 30
0.0
 10
-62.1498605724
 20
-9.7086209993
 30
0.0
  0
LINE
  5
5FB
100
AcDbEntity
  8
IMPORT_IGES
100
AcDbLine
 62
250
  6
CONTINUOUS
 10
-48.6723255837
 20
-10.7500005699
 30
0.0
 11
-48.7722413471
 21
-10.750625522
 31
0.0
  0
LINE
  5
5FC
100
AcDbEntity
  8
IMPORT_IGES
100
AcDbLine
 62
250
  6
CONTINUOUS
 10
-48.7722413471
 20
-10.750625522
 30
0.0
 11
-48.8343085196
 21
-10.7510109402
 31
0.0
  0
SPLINE
  5
5FD
100
AcDbEntity
  8
IMPORT_IGES
100
AcDbSpline
 62
250
  6
CONTINUOUS
 70
0
 71
3
 72
9
 73
5
 74
0
 42
0.0000001
 43
0.0000001
 44
0.0000000001
 40
0.0
 40
0.0
 40
0.0
 40
0.0
 40
0.2507823313
 40
1.0
 40
1.0
 40
1.0
 40
1.0
 10
-45.1007618634
 20
-6.8752648331
 30
0.0
 10
-45.0978892542
 20
-6.8382657822
 30
0.0
 10
-45.0847717645
 20
-6.6908609471
 30
0.0
 10
-45.0655181601
 20
-6.5440352509
 30
0.0
 10
-45.0484832957
 20
-6.4344836475
 30
0.0
  0
SPLINE
  5
5FE
100
AcDbEntity
  8
IMPORT_IGES
100
AcDbSpline
 62
250
  6
CONTINUOUS
 70
0
 71
3
 72
11
 73
7
 74
0
 42
0.0000001
 43
0.0000001
 44
0.0000000001
 40
0.0
 40
0.0
 40
0.0
 40
0.0
 40
0.2355198116
 40
0.4933167353
 40
0.7553391844
 40
1.0
 40
1.0
 40
1.0
 40
1.0
 10
-39.9305898417
 20
-3.1132384537
 30
0.0
 10
-39.954603209
 20
-3.1132364094
 30
0.0
 10
-40.0054215914
 20
-3.1233318045
 30
0.0
 10
-40.0706218715
 20
-3.1683292906
 30
0.0
 10
-40.113123703
 20
-3.2361301389
 30
0.0
 10
-40.1225591581
 20
-3.288259905
 30
0.0
 10
-40.1225600553
 20
-3.3132052801
 30
0.0
  0
SPLINE
  5
5FF
100
AcDbEntity
  8
IMPORT_IGES
100
AcDbSpline
 62
250
  6
CONTINUOUS
 70
0
 71
3
 72
11
 73
7
 74
0
 42
0.0000001
 43
0.0000001
 44
0.0000000001
 40
0.0
 40
0.0
 40
0.0
 40
0.0
 40
0.190838361
 40
0.3937143497
 40
0.6591046613
 40
1.0
 40
1.0
 40
1.0
 40
1.0
 10
-40.1225536113
 20
-3.3132052805
 30
0.0
 10
-40.1212879103
 20
-3.3131908639
 30
0.0
 10
-40.1185515259
 20
-3.313938986
 30
0.0
 10
-40.1159181626
 20
-3.3177113027
 30
0.0
 10
-40.1147126769
 20
-3.3229841025
 30
0.0
 10
-40.1145173043
 20
-3.3270150833
 30
0.0
 10
-40.1145173043
 20
-3.3292761568
 30
0.0
  0
SPLINE
  5
600
100
AcDbEntity
  8
IMPORT_IGES
100
AcDbSpline
 62
250
  6
CONTINUOUS
 70
0
 71
3
 72
13
 73
9
 74
0
 42
0.0000001
 43
0.0000001
 44
0.0000000001
 40
0.0
 40
0.0
 40
0.0
 40
0.0
 40
0.3739455391
 40
0.6920781578
 40
0.8150357436
 40
0.908085612
 40
0.9686589833
 40
1.0
 40
1.0
 40
1.0
 40
1.0
 10
-39.3145173043
 20
-3.7922589292
 30
0.0
 10
-39.2889963153
 20
-3.7922589292
 30
0.0
 10
-39.2417855599
 20
-3.7911171619
 30
0.0
 10
-39.1861967717
 20
-3.7866583586
 30
0.0
 10
-39.1502572161
 20
-3.7812924515
 30
0.0
 10
-39.131626592
 20
-3.7767652454
 30
0.0
 10
-39.120159853
 20
-3.772944227
 30
0.0
 10
-39.1145173043
 20
-3.7680466708
 30
0.0
 10
-39.1145173043
 20
-3.765907713
 30
0.0
  0
SPLINE
  5
601
100
AcDbEntity
  8
IMPORT_IGES
100
AcDbSpline
 62
250
  6
CONTINUOUS
 70
0
 71
3
 72
11
 73
7
 74
0
 42
0.0000001
 43
0.0000001
 44
0.0000000001
 40
0.0
 40
0.0
 40
0.0
 40
0.0
 40
0.2704919178
 40
0.5294668366
 40
0.771216229
 40
1.0
 40
1.0
 40
1.0
 40
1.0
 10
-39.9145173043
 20
-6.601034697
 30
0.0
 10
-39.9403736325
 20
-6.601034697
 30
0.0
 10
-39.9914019351
 20
-6.5928110506
 30
0.0
 10
-40.0575200126
 20
-6.5568953523
 30
0.0
 10
-40.1032979987
 20
-6.5017161206
 30
0.0
 10
-40.1145097716
 20
-6.4561608095
 30
0.0
 10
-40.1145172962
 20
-6.4342913652
 30
0.0
  0
SPLINE
  5
602
100
AcDbEntity
  8
IMPORT_IGES
100
AcDbSpline
 62
250
  6
CONTINUOUS
 70
0
 71
3
 72
19
 73
15
 74
0
 42
0.0000001
 43
0.0000001
 44
0.0000000001
 40
0.0
 40
0.0
 40
0.0
 40
0.0
 40
0.1829062881
 40
0.3691387569
 40
0.5480552783
 40
0.7076473925
 40
0.776497476
 40
0.8368440159
 40
0.8881019362
 40
0.9296865687
 40
0.9612058866
 40
0.9830365109
 40
0.995754141
 40
1.0
 40
1.0
 40
1.0
 40
1.0
 10
-47.0170921094
 20
-9.4335464584
 30
0.0
 10
-47.0043122659
 20
-9.4463224227
 30
0.0
 10
-46.9784912125
 20
-9.4720776255
 30
0.0
 10
-46.940066583
 20
-9.5102277594
 30
0.0
 10
-46.9031729162
 20
-9.546648327
 30
0.0
 10
-46.8744380444
 20
-9.57483168
 30
0.0
 10
-46.8539899115
 20
-9.5947222861
 30
0.0
 10
-46.841167954
 20
-9.6071275101
 30
0.0
 10
-46.8302567901
 20
-9.617564118
 30
0.0
 10
-46.8213096707
 20
-9.6261270722
 30
0.0
 10
-46.8145312486
 20
-9.6322574059
 30
0.0
 10
-46.8095166047
 20
-9.6372189865
 30
0.0
 10
-46.8069087416
 20
-9.6387329532
 30
0.0
 10
-46.8052544048
 20
-9.6407418825
 30
0.0
 10
-46.8049578441
 20
-9.6404452085
 30
0.0
  0
SPLINE
  5
603
100
AcDbEntity
  8
IMPORT_IGES
100
AcDbSpline
 62
250
  6
CONTINUOUS
 70
0
 71
3
 72
11
 73
7
 74
0
 42
0.0000001
 43
0.0000001
 44
0.0000000001
 40
0.0
 40
0.0
 40
0.0
 40
0.0
 40
0.2573487241
 40
0.5088230862
 40
0.7554308586
 40
1.0
 40
1.0
 40
1.0
 40
1.0
 10
-47.3024569931
 20
-9.7843779403
 30
0.0
 10
-47.2575253368
 20
-9.7956221905
 30
0.0
 10
-47.1650144464
 20
-9.8051859115
 30
0.0
 10
-47.0295086756
 20
-9.7821245826
 30
0.0
 10
-46.9063665483
 20
-9.7268201864
 30
0.0
 10
-46.8360816418
 20
-9.6715643376
 30
0.0
 10
-46.8049567871
 20
-9.6404394829
 30
0.0
  0
SPLINE
  5
604
100
AcDbEntity
  8
IMPORT_IGES
100
AcDbSpline
 62
250
  6
CONTINUOUS
 70
0
 71
3
 72
11
 73
7
 74
0
 42
0.0000001
 43
0.0000001
 44
0.0000000001
 40
0.0
 40
0.0
 40
0.0
 40
0.0
 40
0.2226681431
 40
0.4287410506
 40
0.6762661625
 40
1.0
 40
1.0
 40
1.0
 40
1.0
 10
-39.9305899195
 20
-3.1132052805
 30
0.0
 10
-39.9281593319
 20
-3.1132052805
 30
0.0
 10
-39.923300313
 20
-3.1139652374
 30
0.0
 10
-39.9176255759
 20
-3.1192734023
 30
0.0
 10
-39.9149194006
 20
-3.1275333501
 30
0.0
 10
-39.9145048447
 20
-3.1337805754
 30
0.0
 10
-39.9145173191
 20
-3.1373143479
 30
0.0
  0
SPLINE
  5
605
100
AcDbEntity
  8
IMPORT_IGES
100
AcDbSpline
 62
250
  6
CONTINUOUS
 70
0
 71
3
 72
13
 73
9
 74
0
 42
0.0000001
 43
0.0000001
 44
0.0000000001
 40
0.0
 40
0.0
 40
0.0
 40
0.0
 40
0.0313410167
 40
0.091914388
 40
0.1849642564
 40
0.3079218422
 40
0.6260544609
 40
1.0
 40
1.0
 40
1.0
 40
1.0
 10
-40.1145173042
 20
-3.765907713
 30
0.0
 10
-40.1145173042
 20
-3.7680466708
 30
0.0
 10
-40.1088747555
 20
-3.772944227
 30
0.0
 10
-40.0974080165
 20
-3.7767652454
 30
0.0
 10
-40.0787773923
 20
-3.7812924515
 30
0.0
 10
-40.0428378368
 20
-3.7866583586
 30
0.0
 10
-39.9872490486
 20
-3.7911171619
 30
0.0
 10
-39.9400382932
 20
-3.7922589292
 30
0.0
 10
-39.9145173042
 20
-3.7922589292
 30
0.0
  0
SPLINE
  5
606
100
AcDbEntity
  8
IMPORT_IGES
100
AcDbSpline
 62
250
  6
CONTINUOUS
 70
0
 71
3
 72
11
 73
7
 74
0
 42
0.0000001
 43
0.0000001
 44
0.0000000001
 40
0.0
 40
0.0
 40
0.0
 40
0.0
 40
0.2355076672
 40
0.4932981199
 40
0.7553261715
 40
1.0
 40
1.0
 40
1.0
 40
1.0
 10
-40.1145182284
 20
-3.3292784197
 30
0.0
 10
-40.1145189735
 20
-3.3052652895
 30
0.0
 10
-40.1044189983
 20
-3.2544471019
 30
0.0
 10
-40.0594107199
 20
-3.189251452
 30
0.0
 10
-39.9915995987
 20
-3.1467576944
 30
0.0
 10
-39.9394650469
 20
-3.1373274587
 30
0.0
 10
-39.914517305
 20
-3.1373286562
 30
0.0
  0
SPLINE
  5
607
100
AcDbEntity
  8
IMPORT_IGES
100
AcDbSpline
 62
250
  6
CONTINUOUS
 70
0
 71
3
 72
11
 73
7
 74
0
 42
0.0000001
 43
0.0000001
 44
0.0000000001
 40
0.0
 40
0.0
 40
0.0
 40
0.0
 40
0.2284332448
 40
0.4700530404
 40
0.7291784083
 40
1.0
 40
1.0
 40
1.0
 40
1.0
 10
-40.1145173043
 20
-5.3054701472
 30
0.0
 10
-40.1145173043
 20
-5.2836586962
 30
0.0
 10
-40.1257331069
 20
-5.2381962124
 30
0.0
 10
-40.1715267301
 20
-5.1831724321
 30
0.0
 10
-40.2376431265
 20
-5.1473703973
 30
0.0
 10
-40.2886584942
 20
-5.1391742633
 30
0.0
 10
-40.3145173042
 20
-5.1391742633
 30
0.0
  0
SPLINE
  5
608
100
AcDbEntity
  8
IMPORT_IGES
100
AcDbSpline
 62
250
  6
CONTINUOUS
 70
0
 71
3
 72
11
 73
7
 74
0
 42
0.0000001
 43
0.0000001
 44
0.0000000001
 40
0.0
 40
0.0
 40
0.0
 40
0.0
 40
0.2484937578
 40
0.4976055518
 40
0.7478076724
 40
1.0
 40
1.0
 40
1.0
 40
1.0
 10
-47.5610240595
 20
-10.3965067553
 30
0.0
 10
-47.5976058753
 20
-10.4330885621
 30
0.0
 10
-47.6781531684
 20
-10.4994234879
 30
0.0
 10
-47.8162456891
 20
-10.5736053627
 30
0.0
 10
-47.9684995888
 20
-10.6156769675
 30
0.0
 10
-48.0747169802
 20
-10.6159537768
 30
0.0
 10
-48.1267094148
 20
-10.6086387202
 30
0.0
  0
SPLINE
  5
609
100
AcDbEntity
  8
IMPORT_IGES
100
AcDbSpline
 62
250
  6
CONTINUOUS
 70
0
 71
3
 72
11
 73
7
 74
0
 42
0.0000001
 43
0.0000001
 44
0.0000000001
 40
0.0
 40
0.0
 40
0.0
 40
0.0
 40
0.2656566437
 40
0.5329099743
 40
0.7797251781
 40
1.0
 40
1.0
 40
1.0
 40
1.0
 10
-49.0443163155
 20
-10.8621296153
 30
0.0
 10
-49.025875811
 20
-10.8658230158
 30
0.0
 10
-48.9879741121
 20
-10.8696015221
 30
0.0
 10
-48.9327508227
 20
-10.8612361425
 30
0.0
 10
-48.8851011955
 20
-10.8372605845
 30
0.0
 10
-48.8645588467
 20
-10.8094183817
 30
0.0
 10
-48.8586912171
 20
-10.7949704093
 30
0.0
  0
SPLINE
  5
60A
100
AcDbEntity
  8
IMPORT_IGES
100
AcDbSpline
 62
250
  6
CONTINUOUS
 70
0
 71
3
 72
21
 73
17
 74
0
 42
0.0000001
 43
0.0000001
 44
0.0000000001
 40
0.0
 40
0.0
 40
0.0
 40
0.0
 40
0.1952773985
 40
0.383479757
 40
0.5563737982
 40
0.7076187101
 40
0.7733230021
 40
0.8316171325
 40
0.881970177
 40
0.9238516195
 40
0.9567907092
 40
0.9805542967
 40
0.9889428351
 40
0.9949771066
 40
0.9986460835
 40
1.0
 40
1.0
 40
1.0
 40
1.0
 10
-45.473095948
 20
-7.889550297
 30
0.0
 10
-45.4594513443
 20
-7.9031907622
 30
0.0
 10
-45.4326241953
 20
-7.9299451931
 30
0.0
 10
-45.3936081828
 20
-7.968667902
 30
0.0
 10
-45.357579693
 20
-8.0042245308
 30
0.0
 10
-45.3300750084
 20
-8.0311884166
 30
0.0
 10
-45.3105857866
 20
-8.0501533166
 30
0.0
 10
-45.2982041102
 20
-8.062131074
 30
0.0
 10
-45.2874770761
 20
-8.0724276368
 30
0.0
 10
-45.27850608
 20
-8.0809540037
 30
0.0
 10
-45.2714038629
 20
-8.0875845778
 30
0.0
 10
-45.266624098
 20
-8.0919622287
 30
0.0
 10
-45.2638176663
 20
-8.0943822603
 30
0.0
 10
-45.2623768578
 20
-8.0956199114
 30
0.0
 10
-45.2616181646
 20
-8.096100061
 30
0.0
 10
-45.2610585366
 20
-8.0965412324
 30
0.0
 10
-45.2609639489
 20
-8.0964466446
 30
0.0
  0
SPLINE
  5
60B
100
AcDbEntity
  8
IMPORT_IGES
100
AcDbSpline
 62
250
  6
CONTINUOUS
 70
0
 71
3
 72
20
 73
16
 74
0
 42
0.0000001
 43
0.0000001
 44
0.0000000001
 40
0.0
 40
0.0
 40
0.0
 40
0.0
 40
0.194546167
 40
0.3823739722
 40
0.5551617998
 40
0.7065105111
 40
0.7723323226
 40
0.8307771971
 40
0.8812881142
 40
0.9233089709
 40
0.9563709514
 40
0.9802504577
 40
0.994780894
 40
0.998514687
 40
1.0
 40
1.0
 40
1.0
 40
1.0
 10
-45.4145173042
 20
-7.7481289397
 30
0.0
 10
-45.3950496948
 20
-7.7481289397
 30
0.0
 10
-45.3567867137
 20
-7.7480631705
 30
0.0
 10
-45.3012341468
 20
-7.7477772523
 30
0.0
 10
-45.250005262
 20
-7.7473096278
 30
0.0
 10
-45.2109875605
 20
-7.7467695566
 30
0.0
 10
-45.1834113731
 20
-7.7462443871
 30
0.0
 10
-45.1659294764
 20
-7.7458383498
 30
0.0
 10
-45.1508190888
 20
-7.7454073936
 30
0.0
 10
-45.1382839137
 20
-7.7449549884
 30
0.0
 10
-45.1283274326
 20
-7.7444922574
 30
0.0
 10
-45.1213376059
 20
-7.7440203613
 30
0.0
 10
-45.1168840627
 20
-7.7436117698
 30
0.0
 10
-45.1151914956
 20
-7.7432448756
 30
0.0
 10
-45.1145173042
 20
-7.7430418489
 30
0.0
 10
-45.1145173042
 20
-7.7428932184
 30
0.0
  0
SPLINE
  5
60C
100
AcDbEntity
  8
IMPORT_IGES
100
AcDbSpline
 62
7
  6
CONTINUOUS
 70
0
 71
3
 72
22
 73
18
 74
0
 42
0.0000001
 43
0.0000001
 44
0.0000000001
 40
0.0
 40
0.0
 40
0.0
 40
0.0
 40
0.0012687718
 40
0.0050444125
 40
0.011296368
 40
0.0199929311
 40
0.0311022798
 40
0.0445925716
 40
0.0785884791
 40
0.1216356075
 40
0.1731419266
 40
0.2324733854
 40
0.2989957165
 40
0.450866489
 40
0.6228219329
 40
0.808427886
 40
1.0
 40
1.0
 40
1.0
 40
1.0
 10
-65.1899728438
 20
-7.8843774337
 30
0.0
 10
-65.1900994957
 20
-7.8843436625
 30
0.0
 10
-65.1896455589
 20
-7.8835995968
 30
0.0
 10
-65.1897114462
 20
-7.8826880208
 30
0.0
 10
-65.1890717724
 20
-7.8806799828
 30
0.0
 10
-65.1885120112
 20
-7.8781213507
 30
0.0
 10
-65.1876497508
 20
-7.8747619086
 30
0.0
 10
-65.1861870575
 20
-7.8689015598
 30
0.0
 10
-65.1838611494
 20
-7.8598333346
 30
0.0
 10
-65.1805304925
 20
-7.8469811518
 30
0.0
 10
-65.176507803
 20
-7.8315992529
 30
0.0
 10
-65.1718531292
 20
-7.8138776598
 30
0.0
 10
-65.1645466404
 20
-7.7861315881
 30
0.0
 10
-65.1542577331
 20
-7.7471393051
 30
0.0
 10
-65.1407906318
 20
-7.6962618712
 30
0.0
 10
-65.1262271273
 20
-7.6414319152
 30
0.0
 10
-65.1161990644
 20
-7.6037780201
 30
0.0
 10
-65.1111000035
 20
-7.5846547966
 30
0.0
  0
SPLINE
  5
60D
100
AcDbEntity
  8
IMPORT_IGES
100
AcDbSpline
 62
7
  6
CONTINUOUS
 70
0
 71
3
 72
22
 73
18
 74
0
 42
0.0000001
 43
0.0000001
 44
0.0000000001
 40
0.0
 40
0.0
 40
0.0
 40
0.0
 40
0.0013539602
 40
0.0053184344
 40
0.0118552878
 40
0.0209254548
 40
0.0324897741
 40
0.0465090666
 40
0.0817539516
 40
0.1261850941
 40
0.1790489703
 40
0.239563962
 40
0.3069485838
 40
0.4592422231
 40
0.6298137438
 40
0.8123501613
 40
1.0
 40
1.0
 40
1.0
 40
1.0
 10
-63.7250256102
 20
8.1894910748
 30
0.0
 10
-63.7251285461
 20
8.1893871612
 30
0.0
 10
-63.7245897267
 20
8.1887580875
 30
0.0
 10
-63.7244548684
 20
8.1876475764
 30
0.0
 10
-63.7235020029
 20
8.1856308081
 30
0.0
 10
-63.7225010165
 20
8.1829225924
 30
0.0
 10
-63.7210824774
 20
8.1794378207
 30
0.0
 10
-63.71864629
 20
8.173344375
 30
0.0
 10
-63.7148319285
 20
8.1639626262
 30
0.0
 10
-63.7094147265
 20
8.150711515
 30
0.0
 10
-63.7029335888
 20
8.1349426251
 30
0.0
 10
-63.6954933439
 20
8.1168882712
 30
0.0
 10
-63.683943042
 20
8.0889096776
 30
0.0
 10
-63.6678313248
 20
8.0499518265
 30
0.0
 10
-63.6469279075
 20
7.9995140498
 30
0.0
 10
-63.6245240508
 20
7.9455636601
 30
0.0
 10
-63.609165869
 20
7.9086396697
 30
0.0
 10
-63.6013756809
 20
7.88992475
 30
0.0
  0
SPLINE
  5
60E
100
AcDbEntity
  8
IMPORT_IGES
100
AcDbSpline
 62
7
  6
CONTINUOUS
 70
0
 71
3
 72
8
 73
4
 74
0
 42
0.0000001
 43
0.0000001
 44
0.0000000001
 40
0.0
 40
0.0
 40
0.0
 40
0.0
 40
1.0
 40
1.0
 40
1.0
 40
1.0
 10
-57.1633327967
 20
10.9131933197
 30
0.0
 10
-57.1541348049
 20
10.922951283
 30
0.0
 10
-57.1430826591
 20
10.9312289606
 30
0.0
 10
-57.1311250715
 20
10.9372983097
 30
0.0
  0
SPLINE
  5
60F
100
AcDbEntity
  8
IMPORT_IGES
100
AcDbSpline
 62
7
  6
CONTINUOUS
 70
0
 71
3
 72
8
 73
4
 74
0
 42
0.0000001
 43
0.0000001
 44
0.0000000001
 40
0.0
 40
0.0
 40
0.0
 40
0.0
 40
1.0
 40
1.0
 40
1.0
 40
1.0
 10
-57.1633523746
 20
10.9131727588
 30
0.0
 10
-57.1479866707
 20
10.929481642
 30
0.0
 10
-57.126953862
 20
10.9416376077
 30
0.0
 10
-57.1051517015
 20
10.9468096794
 30
0.0
  0
SPLINE
  5
610
100
AcDbEntity
  8
IMPORT_IGES
100
AcDbSpline
 62
250
  6
CONTINUOUS
 70
0
 71
3
 72
18
 73
14
 74
0
 42
0.0000001
 43
0.0000001
 44
0.0000000001
 40
0.0
 40
0.0
 40
0.0
 40
0.0
 40
0.0042906493
 40
0.0171088328
 40
0.0390425639
 40
0.070658267
 40
0.112328193
 40
0.163656973
 40
0.2929409998
 40
0.4525336558
 40
0.6313529547
 40
0.817385482
 40
1.0
 40
1.0
 40
1.0
 40
1.0
 10
-45.2830528242
 20
8.1815011685
 30
0.0
 10
-45.2828586661
 20
8.1814148272
 30
0.0
 10
-45.2823406701
 20
8.1825637055
 30
0.0
 10
-45.2810640396
 20
8.1835514418
 30
0.0
 10
-45.2790385035
 20
8.1864142876
 30
0.0
 10
-45.2761121308
 20
8.189986267
 30
0.0
 10
-45.2723276128
 20
8.1949114419
 30
0.0
 10
-45.2655937446
 20
8.2035957496
 30
0.0
 10
-45.255341157
 20
8.216981238
 30
0.0
 10
-45.2412959869
 20
8.2353927752
 30
0.0
 10
-45.2255879076
 20
8.2560790139
 30
0.0
 10
-45.2092258809
 20
8.2776975408
 30
0.0
 10
-45.1982280012
 20
8.2922703057
 30
0.0
 10
-45.1927847929
 20
8.29949264
 30
0.0
  0
SPLINE
  5
611
100
AcDbEntity
  8
IMPORT_IGES
100
AcDbSpline
 62
250
  6
CONTINUOUS
 70
0
 71
3
 72
12
 73
8
 74
0
 42
0.0000001
 43
0.0000001
 44
0.0000000001
 40
0.0
 40
0.0
 40
0.0
 40
0.0
 40
0.2496908945
 40
0.4998377455
 40
0.6246453625
 40
0.7497403808
 40
1.0
 40
1.0
 40
1.0
 40
1.0
 10
-45.7503118238
 20
8.5337023095
 30
0.0
 10
-45.7206878222
 20
8.5369924268
 30
0.0
 10
-45.6610623542
 20
8.5410908865
 30
0.0
 10
-45.586228197
 20
8.53595404
 30
0.0
 10
-45.5280029397
 20
8.5221317121
 30
0.0
 10
-45.471997179
 20
8.5010968376
 30
0.0
 10
-45.4327859275
 20
8.4786946609
 30
0.0
 10
-45.4081596378
 20
8.4617830117
 30
0.0
  0
SPLINE
  5
612
100
AcDbEntity
  8
IMPORT_IGES
100
AcDbSpline
 62
250
  6
CONTINUOUS
 70
0
 71
3
 72
14
 73
10
 74
0
 42
0.0000001
 43
0.0000001
 44
0.0000000001
 40
0.0
 40
0.0
 40
0.0
 40
0.0
 40
0.016594006
 40
0.0662987439
 40
0.1484863415
 40
0.2624141344
 40
0.4066237815
 40
0.5790506154
 40
1.0
 40
1.0
 40
1.0
 40
1.0
 10
-45.4984439529
 20
8.343813051
 30
0.0
 10
-45.4982326643
 20
8.3435851796
 30
0.0
 10
-45.4973167943
 20
8.3455362877
 30
0.0
 10
-45.4956533446
 20
8.3467131028
 30
0.0
 10
-45.4927404003
 20
8.350873292
 30
0.0
 10
-45.4888413179
 20
8.3556557966
 30
0.0
 10
-45.4838979732
 20
8.3621241001
 30
0.0
 10
-45.4754800792
 20
8.3730296725
 30
0.0
 10
-45.4687304773
 20
8.3818772179
 30
0.0
 10
-45.4639499592
 20
8.3881453548
 30
0.0
  0
LINE
  5
613
100
AcDbEntity
  8
IMPORT_IGES
100
AcDbLine
 62
250
  6
CONTINUOUS
 10
-45.4639499592
 20
8.3881453548
 30
0.0
 11
-45.4541600081
 21
8.401001144
 31
0.0
  0
SPLINE
  5
614
100
AcDbEntity
  8
IMPORT_IGES
100
AcDbSpline
 62
250
  6
CONTINUOUS
 70
0
 71
3
 72
9
 73
5
 74
0
 42
0.0000001
 43
0.0000001
 44
0.0000000001
 40
0.0
 40
0.0
 40
0.0
 40
0.0
 40
0.4961890697
 40
1.0
 40
1.0
 40
1.0
 40
1.0
 10
-47.9368248764
 20
10.1812646889
 30
0.0
 10
-47.9571050488
 20
10.1965468948
 30
0.0
 10
-48.0026487441
 20
10.2215671401
 30
0.0
 10
-48.053383471
 20
10.2327514638
 30
0.0
 10
-48.0790900593
 20
10.2347426751
 30
0.0
  0
SPLINE
  5
615
100
AcDbEntity
  8
IMPORT_IGES
100
AcDbSpline
 62
250
  6
CONTINUOUS
 70
0
 71
3
 72
9
 73
5
 74
0
 42
0.0000001
 43
0.0000001
 44
0.0000000001
 40
0.0
 40
0.0
 40
0.0
 40
0.0
 40
0.2478265157
 40
1.0
 40
1.0
 40
1.0
 40
1.0
 10
-48.0790900593
 20
10.2347426751
 30
0.0
 10
-48.0854194758
 20
10.2352329465
 30
0.0
 10
-48.1110219139
 20
10.2363300392
 30
0.0
 10
-48.1367564431
 20
10.233946569
 30
0.0
 10
-48.1556853326
 20
10.2303484345
 30
0.0
  0
SPLINE
  5
616
100
AcDbEntity
  8
IMPORT_IGES
100
AcDbSpline
 62
250
  6
CONTINUOUS
 70
0
 71
3
 72
9
 73
5
 74
0
 42
0.0000001
 43
0.0000001
 44
0.0000000001
 40
0.0
 40
0.0
 40
0.0
 40
0.0
 40
0.6154029738
 40
1.0
 40
1.0
 40
1.0
 40
1.0
 10
-42.6750632048
 20
0.0331757882
 30
0.0
 10
-42.6725857371
 20
0.0361320593
 30
0.0
 10
-42.668775274
 20
0.0409134035
 30
0.0
 10
-42.6656673829
 20
0.0468747328
 30
0.0
 10
-42.6657564237
 20
0.0492836016
 30
0.0
  0
LINE
  5
617
100
AcDbEntity
  8
IMPORT_IGES
100
AcDbLine
 62
250
  6
CONTINUOUS
 10
-42.6657771677
 20
0.0492846841
 30
0.0
 11
-42.6660616327
 21
0.0549866633
 31
0.0
  0
SPLINE
  5
618
100
AcDbEntity
  8
IMPORT_IGES
100
AcDbSpline
 62
7
  6
CONTINUOUS
 70
0
 71
3
 72
11
 73
7
 74
0
 42
0.0000001
 43
0.0000001
 44
0.0000000001
 40
0.0
 40
0.0
 40
0.0
 40
0.0
 40
0.3826010081
 40
0.6814010799
 40
0.8887211361
 40
1.0
 40
1.0
 40
1.0
 40
1.0
 10
-57.7153434473
 20
9.9098393815
 30
0.0
 10
-57.7163772284
 20
9.9148678137
 30
0.0
 10
-57.718432799
 20
9.9237335537
 30
0.0
 10
-57.7216823312
 20
9.9353714422
 30
0.0
 10
-57.7233012555
 20
9.9431660446
 30
0.0
 10
-57.7246261214
 20
9.9477263653
 30
0.0
 10
-57.7239950168
 20
9.9490795283
 30
0.0
  0
SPLINE
  5
619
100
AcDbEntity
  8
IMPORT_IGES
100
AcDbSpline
 62
7
  6
CONTINUOUS
 70
0
 71
3
 72
18
 73
14
 74
0
 42
0.0000001
 43
0.0000001
 44
0.0000000001
 40
0.0
 40
0.0
 40
0.0
 40
0.0
 40
0.0057007348
 40
0.0204037618
 40
0.0443573144
 40
0.0774484117
 40
0.119460421
 40
0.1699248642
 40
0.29406671
 40
0.445302924
 40
0.6179717711
 40
0.8056509152
 40
1.0
 40
1.0
 40
1.0
 40
1.0
 10
-42.9645173082
 20
-6.3924681615
 30
0.0
 10
-42.9645178636
 20
-6.3930392593
 30
0.0
 10
-42.9672699924
 20
-6.393672167
 30
0.0
 10
-42.9709427786
 20
-6.3944664192
 30
0.0
 10
-42.9784746023
 20
-6.3952667397
 30
0.0
 10
-42.9881968956
 20
-6.3960886834
 30
0.0
 10
-43.0008153628
 20
-6.3968849322
 30
0.0
 10
-43.0224589663
 20
-6.3979893141
 30
0.0
 10
-43.055099846
 20
-6.3991824778
 30
0.0
 10
-43.0999635668
 20
-6.4003209835
 30
0.0
 10
-43.1512096433
 20
-6.4011881974
 30
0.0
 10
-43.2067758935
 20
-6.4017386336
 30
0.0
 10
-43.245047479
 20
-6.4018952657
 30
0.0
 10
-43.2645173016
 20
-6.4019208396
 30
0.0
  0
SPLINE
  5
61A
100
AcDbEntity
  8
IMPORT_IGES
100
AcDbSpline
 62
250
  6
CONTINUOUS
 70
0
 71
3
 72
18
 73
14
 74
0
 42
0.0000001
 43
0.0000001
 44
0.0000000001
 40
0.0
 40
0.0
 40
0.0
 40
0.0
 40
0.1951832849
 40
0.3834225065
 40
0.5564207453
 40
0.7077669437
 40
0.8317998707
 40
0.8821454247
 40
0.9240240449
 40
0.9569649541
 40
0.9807203614
 40
0.9951157656
 40
1.0
 40
1.0
 40
1.0
 40
1.0
 10
-47.5085732361
 20
10.3899191862
 30
0.0
 10
-47.5008145929
 20
10.4002138063
 30
0.0
 10
-47.4855590282
 20
10.4204262553
 30
0.0
 10
-47.4633786894
 20
10.4497256756
 30
0.0
 10
-47.4429014031
 20
10.4766873565
 30
0.0
 10
-47.4249425204
 20
10.5002234413
 30
0.0
 10
-47.4118506556
 20
10.5173182463
 30
0.0
 10
-47.4031203142
 20
10.5285831599
 30
0.0
 10
-47.3980457988
 20
10.5351934562
 30
0.0
 10
-47.3940295642
 20
10.5400956178
 30
0.0
 10
-47.3910960813
 20
10.5442704368
 30
0.0
 10
-47.3893046873
 20
10.5455739275
 30
0.0
 10
-47.3884481164
 20
10.5474650165
 30
0.0
 10
-47.3881903757
 20
10.5472710379
 30
0.0
  0
SPLINE
  5
61B
100
AcDbEntity
  8
IMPORT_IGES
100
AcDbSpline
 62
250
  6
CONTINUOUS
 70
0
 71
3
 72
21
 73
17
 74
0
 42
0.0000001
 43
0.0000001
 44
0.0000000001
 40
0.0
 40
0.0
 40
0.0
 40
0.0
 40
0.0013534119
 40
0.0050207771
 40
0.0110524159
 40
0.0194373655
 40
0.0431911518
 40
0.0761173316
 40
0.1179738953
 40
0.168290994
 40
0.2265512543
 40
0.2922367726
 40
0.4434691273
 40
0.6164107306
 40
0.8046928156
 40
1.0
 40
1.0
 40
1.0
 40
1.0
 10
-63.2680709515
 20
8.6464463528
 30
0.0
 10
-63.2679763982
 20
8.6465409061
 30
0.0
 10
-63.2674169544
 20
8.6461000594
 30
0.0
 10
-63.2666585593
 20
8.645620065
 30
0.0
 10
-63.2652183201
 20
8.644383033
 30
0.0
 10
-63.2624130006
 20
8.6419640199
 30
0.0
 10
-63.2576350881
 20
8.637588163
 30
0.0
 10
-63.2505362519
 20
8.6309607167
 30
0.0
 10
-63.241570401
 20
8.6224393763
 30
0.0
 10
-63.2308499238
 20
8.6121493124
 30
0.0
 10
-63.218474359
 20
8.6001776241
 30
0.0
 10
-63.1989895938
 20
8.5812170614
 30
0.0
 10
-63.1714833966
 20
8.5542519773
 30
0.0
 10
-63.1354464926
 20
8.5186871457
 30
0.0
 10
-63.0964190437
 20
8.4799532901
 30
0.0
 10
-63.0695838266
 20
8.4531911869
 30
0.0
 10
-63.0559369612
 20
8.439548598
 30
0.0
  0
SPLINE
  5
61C
100
AcDbEntity
  8
IMPORT_IGES
100
AcDbSpline
 62
250
  6
CONTINUOUS
 70
0
 71
3
 72
20
 73
16
 74
0
 42
0.0000001
 43
0.0000001
 44
0.0000000001
 40
0.0
 40
0.0
 40
0.0
 40
0.0
 40
0.1945393846
 40
0.382355833
 40
0.5551405118
 40
0.7064929548
 40
0.7723167417
 40
0.8307637585
 40
0.8812764176
 40
0.9232980825
 40
0.9563618574
 40
0.9802446495
 40
0.9947786146
 40
0.9985138473
 40
1.0
 40
1.0
 40
1.0
 40
1.0
 10
-63.1145170215
 20
8.2981289408
 30
0.0
 10
-63.1339839626
 20
8.2981289651
 30
0.0
 10
-63.1722451493
 20
8.2980632635
 30
0.0
 10
-63.2277956161
 20
8.2977773897
 30
0.0
 10
-63.2790234502
 20
8.2973097837
 30
0.0
 10
-63.3180414295
 20
8.2967697422
 30
0.0
 10
-63.3456184167
 20
8.2962445848
 30
0.0
 10
-63.3631009114
 20
8.295838556
 30
0.0
 10
-63.3782117719
 20
8.2954076286
 30
0.0
 10
-63.3907474043
 20
8.2949551833
 30
0.0
 10
-63.400704442
 20
8.2944925344
 30
0.0
 10
-63.4076952096
 20
8.294020467
 30
0.0
 10
-63.4121494916
 20
8.2936122527
 30
0.0
 10
-63.413842719
 20
8.2932450615
 30
0.0
 10
-63.4145171536
 20
8.2930423225
 30
0.0
 10
-63.4145173042
 20
8.292893608
 30
0.0
  0
SPLINE
  5
61D
100
AcDbEntity
  8
IMPORT_IGES
100
AcDbSpline
 62
7
  6
CONTINUOUS
 70
0
 71
3
 72
9
 73
5
 74
0
 42
0.0000001
 43
0.0000001
 44
0.0000000001
 40
0.0
 40
0.0
 40
0.0
 40
0.0
 40
0.5000097291
 40
1.0
 40
1.0
 40
1.0
 40
1.0
 10
-63.0559364587
 20
8.4395480957
 30
0.0
 10
-63.0739921295
 20
8.4208668596
 30
0.0
 10
-63.1036318353
 20
8.3764641379
 30
0.0
 10
-63.1140850812
 20
8.3241050205
 30
0.0
 10
-63.1145170215
 20
8.2981289408
 30
0.0
  0
SPLINE
  5
61E
100
AcDbEntity
  8
IMPORT_IGES
100
AcDbSpline
 62
250
  6
CONTINUOUS
 70
0
 71
3
 72
9
 73
5
 74
0
 42
0.0000001
 43
0.0000001
 44
0.0000000001
 40
0.0
 40
0.0
 40
0.0
 40
0.0
 40
0.2617029579
 40
1.0
 40
1.0
 40
1.0
 40
1.0
 10
-48.7666523928
 20
10.2421756454
 30
0.0
 10
-48.7762357843
 20
10.2439507732
 30
0.0
 10
-48.8126795614
 20
10.2516338046
 30
0.0
 10
-48.8484111586
 20
10.2628084158
 30
0.0
 10
-48.873893233
 20
10.2731372803
 30
0.0
  0
SPLINE
  5
61F
100
AcDbEntity
  8
IMPORT_IGES
100
AcDbSpline
 62
250
  6
CONTINUOUS
 70
0
 71
3
 72
11
 73
7
 74
0
 42
0.0000001
 43
0.0000001
 44
0.0000000001
 40
0.0
 40
0.0
 40
0.0
 40
0.0
 40
0.3103176296
 40
0.5724069938
 40
0.7960597084
 40
1.0
 40
1.0
 40
1.0
 40
1.0
 10
-48.873893233
 20
10.2731372803
 30
0.0
 10
-48.8995652452
 20
10.283543134
 30
0.0
 10
-48.9455809257
 20
10.3066332815
 30
0.0
 10
-49.000673671
 20
10.3528803338
 30
0.0
 10
-49.0343031613
 20
10.4057248969
 30
0.0
 10
-49.0437986759
 20
10.44325846
 30
0.0
 10
-49.046313812
 20
10.4612888026
 30
0.0
  0
SPLINE
  5
620
100
AcDbEntity
  8
IMPORT_IGES
100
AcDbSpline
 62
250
  6
CONTINUOUS
 70
0
 71
3
 72
21
 73
17
 74
0
 42
0.0000001
 43
0.0000001
 44
0.0000000001
 40
0.0
 40
0.0
 40
0.0
 40
0.0
 40
0.0013477562
 40
0.0050139282
 40
0.0110456198
 40
0.0194311707
 40
0.043186457
 40
0.076112863
 40
0.1179691981
 40
0.1682865652
 40
0.2265467939
 40
0.2922312256
 40
0.4434594915
 40
0.6164011315
 40
0.8046885566
 40
1.0
 40
1.0
 40
1.0
 40
1.0
 10
-62.1109483991
 20
9.8035689052
 30
0.0
 10
-62.1108542427
 20
9.803663063
 30
0.0
 10
-62.1102980587
 20
9.8032154248
 30
0.0
 10
-62.1095413204
 20
9.8027380743
 30
0.0
 10
-62.1081035311
 20
9.8014960221
 30
0.0
 10
-62.1053007214
 20
9.7990752355
 30
0.0
 10
-62.1005254863
 20
9.7946952487
 30
0.0
 10
-62.0934284527
 20
9.7880662947
 30
0.0
 10
-62.0844633707
 20
9.7795441321
 30
0.0
 10
-62.0737428699
 20
9.7692543945
 30
0.0
 10
-62.0613669366
 20
9.757283462
 30
0.0
 10
-62.0418819903
 20
9.7383242633
 30
0.0
 10
-62.0143764919
 20
9.7113597939
 30
0.0
 10
-61.9783403038
 20
9.6757948582
 30
0.0
 10
-61.9393126863
 20
9.6370606866
 30
0.0
 10
-61.9124771301
 20
9.6102981759
 30
0.0
 10
-61.8988301797
 20
9.5966553796
 30
0.0
  0
LINE
  5
621
100
AcDbEntity
  8
IMPORT_IGES
100
AcDbLine
 62
250
  6
CONTINUOUS
 10
-57.7154016434
 20
9.9098325706
 30
0.0
 11
-57.6995156897
 21
9.9352039271
 31
0.0
  0
LINE
  5
622
100
AcDbEntity
  8
IMPORT_IGES
100
AcDbLine
 62
250
  6
CONTINUOUS
 10
-57.6995156897
 20
9.9352039271
 30
0.0
 11
-57.6490919087
 21
10.0159788154
 31
0.0
  0
LINE
  5
623
100
AcDbEntity
  8
IMPORT_IGES
100
AcDbLine
 62
250
  6
CONTINUOUS
 10
-57.4471596609
 20
10.3419856751
 30
0.0
 11
-57.3785531255
 21
10.4531297585
 31
0.0
  0
LINE
  5
624
100
AcDbEntity
  8
IMPORT_IGES
100
AcDbLine
 62
250
  6
CONTINUOUS
 10
-57.1673526588
 20
10.793875959
 30
0.0
 11
-57.141199893
 21
10.8357519776
 31
0.0
  0
LINE
  5
625
100
AcDbEntity
  8
IMPORT_IGES
100
AcDbLine
 62
250
  6
CONTINUOUS
 10
-57.141199893
 20
10.8357519776
 30
0.0
 11
-57.1269968596
 21
10.8584521509
 31
0.0
  0
LINE
  5
626
100
AcDbEntity
  8
IMPORT_IGES
100
AcDbLine
 62
250
  6
CONTINUOUS
 10
-57.1269968596
 20
10.8584521509
 30
0.0
 11
-57.0947742099
 21
10.9098343111
 31
0.0
  0
SPLINE
  5
627
100
AcDbEntity
  8
IMPORT_IGES
100
AcDbSpline
 62
250
  6
CONTINUOUS
 70
0
 71
3
 72
9
 73
5
 74
0
 42
0.0000001
 43
0.0000001
 44
0.0000000001
 40
0.0
 40
0.0
 40
0.0
 40
0.0
 40
0.2488276355
 40
1.0
 40
1.0
 40
1.0
 40
1.0
 10
-43.0985674979
 20
5.9822580694
 30
0.0
 10
-43.1005534742
 20
5.99377715
 30
0.0
 10
-43.1095772693
 20
6.0398741529
 30
0.0
 10
-43.1234145821
 20
6.0851141308
 30
0.0
 10
-43.1369935383
 20
6.1176842166
 30
0.0
  0
SPLINE
  5
628
100
AcDbEntity
  8
IMPORT_IGES
100
AcDbSpline
 62
250
  6
CONTINUOUS
 70
0
 71
3
 72
9
 73
5
 74
0
 42
0.0000001
 43
0.0000001
 44
0.0000000001
 40
0.0
 40
0.0
 40
0.0
 40
0.0
 40
0.2378259769
 40
1.0
 40
1.0
 40
1.0
 40
1.0
 10
-48.8454255862
 20
10.2911942331
 30
0.0
 10
-48.8455077849
 20
10.2964805054
 30
0.0
 10
-48.8470446881
 20
10.3186738999
 30
0.0
 10
-48.8535380765
 20
10.3405205042
 30
0.0
 10
-48.8609557375
 20
10.3557537651
 30
0.0
  0
SPLINE
  5
629
100
AcDbEntity
  8
IMPORT_IGES
100
AcDbSpline
 62
250
  6
CONTINUOUS
 70
0
 71
3
 72
10
 73
6
 74
0
 42
0.0000001
 43
0.0000001
 44
0.0000000001
 40
0.0
 40
0.0
 40
0.0
 40
0.0
 40
0.2428228559
 40
0.4997528776
 40
1.0
 40
1.0
 40
1.0
 40
1.0
 10
-48.8609557375
 20
10.3557537651
 30
0.0
 10
-48.8688612627
 20
10.3719889269
 30
0.0
 10
-48.8909388663
 20
10.4028508337
 30
0.0
 10
-48.9512216561
 20
10.4478045963
 30
0.0
 10
-49.0091138107
 20
10.4615757853
 30
0.0
 10
-49.0463137567
 20
10.4612841475
 30
0.0
  0
SPLINE
  5
62A
100
AcDbEntity
  8
IMPORT_IGES
100
AcDbSpline
 62
250
  6
CONTINUOUS
 70
0
 71
3
 72
9
 73
5
 74
0
 42
0.0000001
 43
0.0000001
 44
0.0000000001
 40
0.0
 40
0.0
 40
0.0
 40
0.0
 40
0.2440536613
 40
1.0
 40
1.0
 40
1.0
 40
1.0
 10
-49.024631496
 20
10.9084331482
 30
0.0
 10
-49.0184828222
 20
10.9077595364
 30
0.0
 10
-48.9934109332
 20
10.9040106512
 30
0.0
 10
-48.9689504795
 20
10.8959598424
 30
0.0
 10
-48.9517363455
 20
10.8875485846
 30
0.0
  0
SPLINE
  5
62B
100
AcDbEntity
  8
IMPORT_IGES
100
AcDbSpline
 62
250
  6
CONTINUOUS
 70
0
 71
3
 72
9
 73
5
 74
0
 42
0.0000001
 43
0.0000001
 44
0.0000000001
 40
0.0
 40
0.0
 40
0.0
 40
0.0
 40
0.2537282825
 40
1.0
 40
1.0
 40
1.0
 40
1.0
 10
-48.9517363455
 20
10.8875485846
 30
0.0
 10
-48.9462219095
 20
10.8848540928
 30
0.0
 10
-48.9249522892
 20
10.8733281252
 30
0.0
 10
-48.9056974516
 20
10.8579477499
 30
0.0
 10
-48.8935012777
 20
10.8446390012
 30
0.0
  0
SPLINE
  5
62C
100
AcDbEntity
  8
IMPORT_IGES
100
AcDbSpline
 62
250
  6
CONTINUOUS
 70
0
 71
3
 72
9
 73
5
 74
0
 42
0.0000001
 43
0.0000001
 44
0.0000000001
 40
0.0
 40
0.0
 40
0.0
 40
0.0
 40
0.527235252
 40
1.0
 40
1.0
 40
1.0
 40
1.0
 10
-48.8935012777
 20
10.8446390012
 30
0.0
 10
-48.8795332527
 20
10.8293967674
 30
0.0
 10
-48.857658258
 20
10.7955964153
 30
0.0
 10
-48.8500412966
 20
10.7560867477
 30
0.0
 10
-48.8499536466
 20
10.7375484859
 30
0.0
  0
SPLINE
  5
62D
100
AcDbEntity
  8
IMPORT_IGES
100
AcDbSpline
 62
7
  6
CONTINUOUS
 70
0
 71
3
 72
18
 73
14
 74
0
 42
0.0000001
 43
0.0000001
 44
0.0000000001
 40
0.0
 40
0.0
 40
0.0
 40
0.0
 40
0.0049629492
 40
0.0194671028
 40
0.0433500457
 40
0.0764266431
 40
0.1184515896
 40
0.1689435126
 40
0.293160885
 40
0.4444835005
 40
0.6172848021
 40
0.8052022594
 40
1.0
 40
1.0
 40
1.0
 40
1.0
 10
-45.1846428782
 20
8.0830940279
 30
0.0
 10
-45.18446818
 20
8.0829197493
 30
0.0
 10
-45.1835530605
 20
8.084147351
 30
0.0
 10
-45.1819775188
 20
8.0848471232
 30
0.0
 10
-45.1791450645
 20
8.0874332389
 30
0.0
 10
-45.1753785293
 20
8.0904116845
 30
0.0
 10
-45.1705776284
 20
8.0944772745
 30
0.0
 10
-45.1623515021
 20
8.1014054556
 30
0.0
 10
-45.1500268854
 20
8.111956893
 30
0.0
 10
-45.1331593582
 20
8.1265232855
 30
0.0
 10
-45.1139550314
 20
8.1432405549
 30
0.0
 10
-45.0931756605
 20
8.1614368912
 30
0.0
 10
-45.0788986329
 20
8.17401779
 30
0.0
 10
-45.0716432342
 20
8.180434159
 30
0.0
  0
SPLINE
  5
62E
100
AcDbEntity
  8
IMPORT_IGES
100
AcDbSpline
 62
250
  6
CONTINUOUS
 70
0
 71
3
 72
18
 73
14
 74
0
 42
0.0000001
 43
0.0000001
 44
0.0000000001
 40
0.0
 40
0.0
 40
0.0
 40
0.0
 40
0.0041703895
 40
0.0168688181
 40
0.0387000735
 40
0.0702374625
 40
0.1118577847
 40
0.1631652834
 40
0.2924854248
 40
0.4521992586
 40
0.631169623
 40
0.8173258605
 40
1.0
 40
1.0
 40
1.0
 40
1.0
 10
-43.405383374
 20
6.3038255343
 30
0.0
 10
-43.40523691
 20
6.3036795439
 30
0.0
 10
-43.4044744321
 20
6.3047810989
 30
0.0
 10
-43.4031612324
 20
6.3055021952
 30
0.0
 10
-43.4007009662
 20
6.30807175
 30
0.0
 10
-43.3973220882
 20
6.3111685089
 30
0.0
 10
-43.3928673057
 20
6.3155141882
 30
0.0
 10
-43.3849697225
 20
6.3231650326
 30
0.0
 10
-43.3729132663
 20
6.3349972684
 30
0.0
 10
-43.3563956666
 20
6.3512890368
 30
0.0
 10
-43.3379118922
 20
6.3696131892
 30
0.0
 10
-43.3186575719
 20
6.3887732336
 30
0.0
 10
-43.3057142389
 20
6.401694882
 30
0.0
 10
-43.2993086474
 20
6.4080995878
 30
0.0
  0
SPLINE
  5
62F
100
AcDbEntity
  8
IMPORT_IGES
100
AcDbSpline
 62
250
  6
CONTINUOUS
 70
0
 71
3
 72
18
 73
14
 74
0
 42
0.0000001
 43
0.0000001
 44
0.0000000001
 40
0.0
 40
0.0
 40
0.0
 40
0.0
 40
0.0048883113
 40
0.0192970391
 40
0.0430748525
 40
0.076047282
 40
0.1179872864
 40
0.1684199975
 40
0.2925577545
 40
0.4438577414
 40
0.6167308672
 40
0.8048503329
 40
1.0
 40
1.0
 40
1.0
 40
1.0
 10
-43.5067729662
 20
7.6224132288
 30
0.0
 10
-43.5070309023
 20
7.6226073954
 30
0.0
 10
-43.5078874413
 20
7.6207136822
 30
0.0
 10
-43.5096807334
 20
7.6194094501
 30
0.0
 10
-43.5126164727
 20
7.6152301166
 30
0.0
 10
-43.5166374074
 20
7.6103222824
 30
0.0
 10
-43.5217190461
 20
7.6037023002
 30
0.0
 10
-43.5304594604
 20
7.5924241081
 30
0.0
 10
-43.5435572424
 20
7.5753216963
 30
0.0
 10
-43.5615133828
 20
7.5517890594
 30
0.0
 10
-43.5819788916
 20
7.5248425981
 30
0.0
 10
-43.6041481362
 20
7.49555787
 30
0.0
 10
-43.6193975784
 20
7.4753535068
 30
0.0
 10
-43.6271548871
 20
7.4650606693
 30
0.0
  0
SPLINE
  5
630
100
AcDbEntity
  8
IMPORT_IGES
100
AcDbSpline
 62
7
  6
CONTINUOUS
 70
0
 71
3
 72
9
 73
5
 74
0
 42
0.0000001
 43
0.0000001
 44
0.0000000001
 40
0.0
 40
0.0
 40
0.0
 40
0.0
 40
0.5000096742
 40
1.0
 40
1.0
 40
1.0
 40
1.0
 10
-61.7574105253
 20
9.6552344442
 30
0.0
 10
-61.7833873171
 20
9.654785923
 30
0.0
 10
-61.835740993
 20
9.6443513204
 30
0.0
 10
-61.8801612665
 20
9.6147223029
 30
0.0
 10
-61.8988306822
 20
9.5966558819
 30
0.0
  0
SPLINE
  5
631
100
AcDbEntity
  8
IMPORT_IGES
100
AcDbSpline
 62
250
  6
CONTINUOUS
 70
0
 71
3
 72
21
 73
17
 74
0
 42
0.0000001
 43
0.0000001
 44
0.0000000001
 40
0.0
 40
0.0
 40
0.0
 40
0.0
 40
0.1938475841
 40
0.3814814592
 40
0.5544096002
 40
0.7060650261
 40
0.7720498443
 40
0.8306430305
 40
0.8812903324
 40
0.9234377092
 40
0.9565955007
 40
0.9805196609
 40
0.9889621772
 40
0.995029257
 40
0.9987032945
 40
1.0
 40
1.0
 40
1.0
 40
1.0
 10
-63.1145173042
 20
3.8000928356
 30
0.0
 10
-63.124644029
 20
3.7832201017
 30
0.0
 10
-63.1445431478
 20
3.749997645
 30
0.0
 10
-63.1733772055
 20
3.7016640761
 30
0.0
 10
-63.1999250789
 20
3.6569543454
 30
0.0
 10
-63.2200858802
 20
3.6228138351
 30
0.0
 10
-63.2342797208
 20
3.5986302039
 30
0.0
 10
-63.2432521237
 20
3.5832693805
 30
0.0
 10
-63.2509630362
 20
3.569980258
 30
0.0
 10
-63.2573499415
 20
3.5588908154
 30
0.0
 10
-63.262297832
 20
3.550149576
 30
0.0
 10
-63.2655842268
 20
3.5442968588
 30
0.0
 10
-63.2673533264
 20
3.5409103103
 30
0.0
 10
-63.2683138231
 20
3.5391779396
 30
0.0
 10
-63.2685770263
 20
3.5383234699
 30
0.0
 10
-63.2689789068
 20
3.5376769616
 30
0.0
 10
-63.2688660309
 20
3.537609236
 30
0.0
  0
SPLINE
  5
632
100
AcDbEntity
  8
IMPORT_IGES
100
AcDbSpline
 62
250
  6
CONTINUOUS
 70
0
 71
3
 72
20
 73
16
 74
0
 42
0.0000001
 43
0.0000001
 44
0.0000000001
 40
0.0
 40
0.0
 40
0.0
 40
0.0
 40
0.0014839211
 40
0.0052132729
 40
0.0197290973
 40
0.0435914649
 40
0.0766397921
 40
0.1186412183
 40
0.1691195734
 40
0.2275346856
 40
0.2933455761
 40
0.4447211748
 40
0.6175650982
 40
0.8054407911
 40
1.0
 40
1.0
 40
1.0
 40
1.0
 10
-63.4145173042
 20
3.7948571137
 30
0.0
 10
-63.4145173042
 20
3.7950056051
 30
0.0
 10
-63.4138442038
 20
3.7952088784
 30
0.0
 10
-63.412153065
 20
3.795575458
 30
0.0
 10
-63.4077037353
 20
3.7959842642
 30
0.0
 10
-63.400718147
 20
3.796455828
 30
0.0
 10
-63.3907667749
 20
3.796918291
 30
0.0
 10
-63.3782381074
 20
3.7973704667
 30
0.0
 10
-63.3631359003
 20
3.7978014741
 30
0.0
 10
-63.3456613069
 20
3.7982075678
 30
0.0
 10
-63.3180864644
 20
3.7987328127
 30
0.0
 10
-63.2790614993
 20
3.7992730998
 30
0.0
 10
-63.2278194495
 20
3.7997410445
 30
0.0
 10
-63.1722550946
 20
3.8000270127
 30
0.0
 10
-63.1339859631
 20
3.8000928359
 30
0.0
 10
-63.1145170215
 20
3.8000928356
 30
0.0
  0
SPLINE
  5
633
100
AcDbEntity
  8
IMPORT_IGES
100
AcDbSpline
 62
250
  6
CONTINUOUS
 70
0
 71
3
 72
20
 73
16
 74
0
 42
0.0000001
 43
0.0000001
 44
0.0000000001
 40
0.0
 40
0.0
 40
0.0
 40
0.0
 40
0.0014835222
 40
0.0052112526
 40
0.019720609
 40
0.0435725964
 40
0.076607024
 40
0.1185819727
 40
0.1690220842
 40
0.2274011504
 40
0.293192037
 40
0.4445552352
 40
0.6174499833
 40
0.8054091975
 40
1.0
 40
1.0
 40
1.0
 40
1.0
 10
-42.9645173043
 20
0.2710817554
 30
0.0
 10
-42.9645173043
 20
0.2712302064
 30
0.0
 10
-42.965189989
 20
0.2714336151
 30
0.0
 10
-42.9668805342
 20
0.2718000934
 30
0.0
 10
-42.9713277114
 20
0.2722090279
 30
0.0
 10
-42.9783103578
 20
0.2726804527
 30
0.0
 10
-42.9882565489
 20
0.2731427255
 30
0.0
 10
-43.0007773386
 20
0.2735947523
 30
0.0
 10
-43.0158693955
 20
0.2740256963
 30
0.0
 10
-43.0333344963
 20
0.274431732
 30
0.0
 10
-43.0609023949
 20
0.2749568585
 30
0.0
 10
-43.0999290647
 20
0.2754975305
 30
0.0
 10
-43.1511831415
 20
0.2759656762
 30
0.0
 10
-43.206763911
 20
0.2762517183
 30
0.0
 10
-43.2450444306
 20
0.2763177055
 30
0.0
 10
-43.2645164672
 20
0.276317705
 30
0.0
  0
SPLINE
  5
634
100
AcDbEntity
  8
IMPORT_IGES
100
AcDbSpline
 62
7
  6
CONTINUOUS
 70
0
 71
3
 72
21
 73
17
 74
0
 42
0.0000001
 43
0.0000001
 44
0.0000000001
 40
0.0
 40
0.0
 40
0.0
 40
0.0
 40
0.1812209228
 40
0.3585989015
 40
0.5264003802
 40
0.6786474298
 40
0.7470318527
 40
0.8091619725
 40
0.8640784658
 40
0.9108122227
 40
0.948402448
 40
0.9761063514
 40
0.9860965317
 40
0.9934349496
 40
0.9980709455
 40
1.0
 40
1.0
 40
1.0
 40
1.0
 10
-61.4145172924
 20
2.7800928553
 30
0.0
 10
-61.4327810802
 20
2.7697544596
 30
0.0
 10
-61.4689050128
 20
2.749268013
 30
0.0
 10
-61.5218593095
 20
2.7190660777
 30
0.0
 10
-61.5717883424
 20
2.6903334998
 30
0.0
 10
-61.6106879876
 20
2.667742023
 30
0.0
 10
-61.6389533079
 20
2.6512082691
 30
0.0
 10
-61.6574651502
 20
2.640323004
 30
0.0
 10
-61.6737821726
 20
2.6306566518
 30
0.0
 10
-61.6876262514
 20
2.6223779741
 30
0.0
 10
-61.6986944315
 20
2.6156362941
 30
0.0
 10
-61.7061305862
 20
2.6110264489
 30
0.0
 10
-61.7104473282
 20
2.6081732209
 30
0.0
 10
-61.7126354608
 20
2.6067426676
 30
0.0
 10
-61.7137564041
 20
2.6057656598
 30
0.0
 10
-61.7145184529
 20
2.6052629618
 30
0.0
 10
-61.7145192998
 20
2.6050395631
 30
0.0
  0
SPLINE
  5
635
100
AcDbEntity
  8
IMPORT_IGES
100
AcDbSpline
 62
250
  6
CONTINUOUS
 70
0
 71
3
 72
20
 73
16
 74
0
 42
0.0000001
 43
0.0000001
 44
0.0000000001
 40
0.0
 40
0.0
 40
0.0
 40
0.0
 40
0.0014407303
 40
0.0051456807
 40
0.019612576
 40
0.0434136883
 40
0.0763872279
 40
0.1182927957
 40
0.1686593956
 40
0.2269658635
 40
0.2926902443
 40
0.4439631737
 40
0.6168709765
 40
0.8050055892
 40
1.0
 40
1.0
 40
1.0
 40
1.0
 10
-43.1414615817
 20
1.0919872869
 30
0.0
 10
-43.1415205394
 20
1.0921176964
 30
0.0
 10
-43.1422097518
 20
1.0919920181
 30
0.0
 10
-43.1438585245
 20
1.0916320553
 30
0.0
 10
-43.1480387807
 20
1.0901277849
 30
0.0
 10
-43.1545121061
 20
1.0876829591
 30
0.0
 10
-43.1636702317
 20
1.0839976244
 30
0.0
 10
-43.1751465951
 20
1.0792616516
 30
0.0
 10
-43.1889413471
 20
1.0734539403
 30
0.0
 10
-43.2048729017
 20
1.0666565856
 30
0.0
 10
-43.2299865622
 20
1.0558270059
 30
0.0
 10
-43.2654790346
 20
1.0403219285
 30
0.0
 10
-43.3120271272
 20
1.0197478826
 30
0.0
 10
-43.3624658715
 20
0.9972348535
 30
0.0
 10
-43.3971715574
 20
0.981614424
 30
0.0
 10
-43.4148226125
 20
0.9736368005
 30
0.0
  0
SPLINE
  5
636
100
AcDbEntity
  8
IMPORT_IGES
100
AcDbSpline
 62
250
  6
CONTINUOUS
 70
0
 71
3
 72
19
 73
15
 74
0
 42
0.0000001
 43
0.0000001
 44
0.0000000001
 40
0.0
 40
0.0
 40
0.0
 40
0.0
 40
0.0043323776
 40
0.0170638891
 40
0.0388906626
 40
0.0704031319
 40
0.1119866717
 40
0.1632522131
 40
0.2236163711
 40
0.2924950887
 40
0.4521667129
 40
0.6311314889
 40
0.8173071658
 40
1.0
 40
1.0
 40
1.0
 40
1.0
 10
-44.5325239697
 20
4.168882204
 30
0.0
 10
-44.5327012562
 20
4.1692743352
 30
0.0
 10
-44.5350094327
 20
4.1681713177
 30
0.0
 10
-44.5380342685
 20
4.167609741
 30
0.0
 10
-44.5445467945
 20
4.1648910118
 30
0.0
 10
-44.5531330305
 20
4.161579563
 30
0.0
 10
-44.5646245272
 20
4.1568012913
 30
0.0
 10
-44.5786302558
 20
4.1509332969
 30
0.0
 10
-44.5951335503
 20
4.1438937766
 30
0.0
 10
-44.6214844016
 20
4.1325373966
 30
0.0
 10
-44.6585768287
 20
4.1163205509
 30
0.0
 10
-44.706253227
 20
4.0952376175
 30
0.0
 10
-44.7559406503
 20
4.0730456973
 30
0.0
 10
-44.7893513436
 20
4.0580037977
 30
0.0
 10
-44.8058881069
 20
4.0505297885
 30
0.0
  0
SPLINE
  5
637
100
AcDbEntity
  8
IMPORT_IGES
100
AcDbSpline
 62
250
  6
CONTINUOUS
 70
0
 71
3
 72
19
 73
15
 74
0
 42
0.0000001
 43
0.0000001
 44
0.0000000001
 40
0.0
 40
0.0
 40
0.0
 40
0.0
 40
0.0043836597
 40
0.0171585776
 40
0.039043537
 40
0.0706339869
 40
0.1123161288
 40
0.163693032
 40
0.224171149
 40
0.2931561397
 40
0.4529737338
 40
0.6319166359
 40
0.8178248441
 40
1.0
 40
1.0
 40
1.0
 40
1.0
 10
-44.693604117
 20
4.7388352752
 30
0.0
 10
-44.6936592311
 20
4.7392694596
 30
0.0
 10
-44.6961994778
 20
4.7389653223
 30
0.0
 10
-44.6993024898
 20
4.7393045877
 30
0.0
 10
-44.7063731211
 20
4.7386784257
 30
0.0
 10
-44.715631061
 20
4.7380547991
 30
0.0
 10
-44.7281129035
 20
4.7368968877
 30
0.0
 10
-44.7433383158
 20
4.7354262276
 30
0.0
 10
-44.7613091384
 20
4.7335683958
 30
0.0
 10
-44.7900209473
 20
4.7304804609
 30
0.0
 10
-44.8304748426
 20
4.7258972687
 30
0.0
 10
-44.8824968684
 20
4.7197626238
 30
0.0
 10
-44.936710919
 20
4.7131486854
 30
0.0
 10
-44.9731755692
 20
4.7085798389
 30
0.0
 10
-44.9912193727
 20
4.7062899451
 30
0.0
  0
SPLINE
  5
638
100
AcDbEntity
  8
IMPORT_IGES
100
AcDbSpline
 62
7
  6
CONTINUOUS
 70
0
 71
3
 72
9
 73
5
 74
0
 42
0.0000001
 43
0.0000001
 44
0.0000000001
 40
0.0
 40
0.0
 40
0.0
 40
0.0
 40
0.4999873119
 40
1.0
 40
1.0
 40
1.0
 40
1.0
 10
-45.3855549854
 20
7.8126088588
 30
0.0
 10
-45.3893506301
 20
7.8387479906
 30
0.0
 10
-45.4067715545
 20
7.8902029081
 30
0.0
 10
-45.4427821966
 20
7.9308870745
 30
0.0
 10
-45.463597957
 20
7.9471485648
 30
0.0
  0
SPLINE
  5
639
100
AcDbEntity
  8
IMPORT_IGES
100
AcDbSpline
 62
250
  6
CONTINUOUS
 70
0
 71
3
 72
21
 73
17
 74
0
 42
0.0000001
 43
0.0000001
 44
0.0000000001
 40
0.0
 40
0.0
 40
0.0
 40
0.0
 40
0.1953607811
 40
0.3835581794
 40
0.5564042462
 40
0.7076085355
 40
0.7733123216
 40
0.8316237849
 40
0.8819959489
 40
0.9238822621
 40
0.9568226114
 40
0.9805937572
 40
0.9889850826
 40
0.9950189967
 40
0.9986804293
 40
1.0
 40
1.0
 40
1.0
 40
1.0
 10
-45.4635977965
 20
7.9471487778
 30
0.0
 10
-45.4519993123
 20
7.9625357218
 30
0.0
 10
-45.429196708
 20
7.9927221036
 30
0.0
 10
-45.3960284207
 20
8.0364435928
 30
0.0
 10
-45.365396128
 20
8.0766219575
 30
0.0
 10
-45.3420019834
 20
8.1071265242
 30
0.0
 10
-45.3254150193
 20
8.1286140544
 30
0.0
 10
-45.3148702345
 20
8.1422041675
 30
0.0
 10
-45.3057290521
 20
8.153903935
 30
0.0
 10
-45.2980807445
 20
8.1636115571
 30
0.0
 10
-45.2920164679
 20
8.1711808912
 30
0.0
 10
-45.287935241
 20
8.1762086127
 30
0.0
 10
-45.2855219448
 20
8.1790063304
 30
0.0
 10
-45.2842945012
 20
8.1804631799
 30
0.0
 10
-45.2836190837
 20
8.1810263372
 30
0.0
 10
-45.2831568109
 20
8.1815818027
 30
0.0
 10
-45.2830525955
 20
8.1815038383
 30
0.0
  0
SPLINE
  5
63A
100
AcDbEntity
  8
IMPORT_IGES
100
AcDbSpline
 62
250
  6
CONTINUOUS
 70
0
 71
3
 72
20
 73
16
 74
0
 42
0.0000001
 43
0.0000001
 44
0.0000000001
 40
0.0
 40
0.0
 40
0.0
 40
0.0
 40
0.0014790946
 40
0.005202512
 40
0.0196998411
 40
0.0435358308
 40
0.0765520851
 40
0.1185064489
 40
0.1689239896
 40
0.2272808132
 40
0.2930521062
 40
0.4443904247
 40
0.6172872242
 40
0.8052925152
 40
1.0
 40
1.0
 40
1.0
 40
1.0
 10
-45.0879412685
 20
7.8451540964
 30
0.0
 10
-45.0879598669
 20
7.8453006029
 30
0.0
 10
-45.088651426
 20
7.8454147959
 30
0.0
 10
-45.0903675753
 20
7.8455641894
 30
0.0
 10
-45.0948190882
 20
7.8454060016
 30
0.0
 10
-45.1017845136
 20
7.8449933143
 30
0.0
 10
-45.1116825703
 20
7.8441980877
 30
0.0
 10
-45.1241266429
 20
7.8430700182
 30
0.0
 10
-45.1391130458
 20
7.841598076
 30
0.0
 10
-45.1564453329
 20
7.8398036067
 30
0.0
 10
-45.1837926198
 20
7.8368569319
 30
0.0
 10
-45.2224867901
 20
7.8324856587
 30
0.0
 10
-45.2732818309
 20
7.8265062699
 30
0.0
 10
-45.3283510002
 20
7.819802783
 30
0.0
 10
-45.3662677069
 20
7.8150565831
 30
0.0
 10
-45.3855538632
 20
7.8126090012
 30
0.0
  0
SPLINE
  5
63B
100
AcDbEntity
  8
IMPORT_IGES
100
AcDbSpline
 62
250
  6
CONTINUOUS
 70
0
 71
3
 72
10
 73
6
 74
0
 42
0.0000001
 43
0.0000001
 44
0.0000000001
 40
0.0
 40
0.0
 40
0.0
 40
0.0
 40
0.5255948042
 40
0.7668708499
 40
1.0
 40
1.0
 40
1.0
 40
1.0
 10
-47.7303048644
 20
9.9098076211
 30
0.0
 10
-47.6990362112
 20
9.9201813472
 30
0.0
 10
-47.6494404141
 20
9.9274696413
 30
0.0
 10
-47.587860029
 20
9.91293362
 30
0.0
 10
-47.5614057887
 20
9.8983629035
 30
0.0
 10
-47.5497340653
 20
9.8895708374
 30
0.0
  0
SPLINE
  5
63C
100
AcDbEntity
  8
IMPORT_IGES
100
AcDbSpline
 62
250
  6
CONTINUOUS
 70
0
 71
3
 72
21
 73
17
 74
0
 42
0.0000001
 43
0.0000001
 44
0.0000000001
 40
0.0
 40
0.0
 40
0.0
 40
0.0
 40
0.0013148618
 40
0.0049660162
 40
0.0109859221
 40
0.0193611724
 40
0.0431005487
 40
0.0760205719
 40
0.1178824165
 40
0.1682119467
 40
0.2264847017
 40
0.2921759214
 40
0.4434178429
 40
0.6163436123
 40
0.804614886
 40
1.0
 40
1.0
 40
1.0
 40
1.0
 10
-47.5497603575
 20
9.889590653
 30
0.0
 10
-47.5498639297
 20
9.8896687003
 30
0.0
 10
-47.5503259909
 20
9.8891150859
 30
0.0
 10
-47.550998886
 20
9.8885536611
 30
0.0
 10
-47.5522242744
 20
9.8871001404
 30
0.0
 10
-47.5546335134
 20
9.8843071506
 30
0.0
 10
-47.5587107497
 20
9.8792846935
 30
0.0
 10
-47.5647700577
 20
9.871721166
 30
0.0
 10
-47.5724130575
 20
9.8620203168
 30
0.0
 10
-47.5815479936
 20
9.8503289438
 30
0.0
 10
-47.592087287
 20
9.8367463093
 30
0.0
 10
-47.608673534
 20
9.8152599602
 30
0.0
 10
-47.6320740611
 20
9.7847473103
 30
0.0
 10
-47.6627178623
 20
9.7445540653
 30
0.0
 10
-47.6958966642
 20
9.7008185923
 30
0.0
 10
-47.7187050613
 20
9.6706244921
 30
0.0
 10
-47.7303049424
 20
9.6552356185
 30
0.0
  0
SPLINE
  5
63D
100
AcDbEntity
  8
IMPORT_IGES
100
AcDbSpline
 62
250
  6
CONTINUOUS
 70
0
 71
3
 72
14
 73
10
 74
0
 42
0.0000001
 43
0.0000001
 44
0.0000000001
 40
0.0
 40
0.0
 40
0.0
 40
0.0
 40
0.018777556
 40
0.0686128727
 40
0.1496177147
 40
0.2613875681
 40
0.4032292935
 40
0.5743856668
 40
1.0
 40
1.0
 40
1.0
 40
1.0
 10
-57.078034976
 20
10.9499999999
 30
0.0
 10
-57.0783073792
 20
10.9499994695
 30
0.0
 10
-57.0786981619
 20
10.9487363962
 30
0.0
 10
-57.0797180709
 20
10.9471293958
 30
0.0
 10
-57.081064077
 20
10.9437031167
 30
0.0
 10
-57.0829444083
 20
10.9393032293
 30
0.0
 10
-57.085244187
 20
10.9335574951
 30
0.0
 10
-57.0892069857
 20
10.9236159343
 30
0.0
 10
-57.0923750215
 20
10.9155529828
 30
0.0
 10
-57.0946444968
 20
10.9098108667
 30
0.0
  0
SPLINE
  5
63E
100
AcDbEntity
  8
IMPORT_IGES
100
AcDbSpline
 62
250
  6
CONTINUOUS
 70
0
 71
3
 72
8
 73
4
 74
0
 42
0.0000001
 43
0.0000001
 44
0.0000000001
 40
0.0
 40
0.0
 40
0.0
 40
0.0
 40
1.0
 40
1.0
 40
1.0
 40
1.0
 10
-57.0946444968
 20
10.9098140555
 30
0.0
 10
-57.1034423026
 20
10.91118574
 30
0.0
 10
-57.112458327
 20
10.911572042
 30
0.0
 10
-57.1213354991
 20
10.9108801449
 30
0.0
  0
SPLINE
  5
63F
100
AcDbEntity
  8
IMPORT_IGES
100
AcDbSpline
 62
250
  6
CONTINUOUS
 70
0
 71
3
 72
9
 73
5
 74
0
 42
0.0000001
 43
0.0000001
 44
0.0000000001
 40
0.0
 40
0.0
 40
0.0
 40
0.0
 40
0.2592860801
 40
1.0
 40
1.0
 40
1.0
 40
1.0
 10
-57.1213354991
 20
10.9108801449
 30
0.0
 10
-57.125681904
 20
10.910541381
 30
0.0
 10
-57.142344581
 20
10.9082594396
 30
0.0
 10
-57.1584909518
 20
10.9016511874
 30
0.0
 10
-57.1687037915
 20
10.8945233847
 30
0.0
  0
SPLINE
  5
640
100
AcDbEntity
  8
IMPORT_IGES
100
AcDbSpline
 62
250
  6
CONTINUOUS
 70
0
 71
3
 72
8
 73
4
 74
0
 42
0.0000001
 43
0.0000001
 44
0.0000000001
 40
0.0
 40
0.0
 40
0.0
 40
0.0
 40
1.0
 40
1.0
 40
1.0
 40
1.0
 10
-57.1687037915
 20
10.8945233847
 30
0.0
 10
-57.1753159777
 20
10.8899085705
 30
0.0
 10
-57.1813277184
 20
10.8842819941
 30
0.0
 10
-57.1863363959
 20
10.8779629226
 30
0.0
  0
SPLINE
  5
641
100
AcDbEntity
  8
IMPORT_IGES
100
AcDbSpline
 62
250
  6
CONTINUOUS
 70
0
 71
3
 72
14
 73
10
 74
0
 42
0.0000001
 43
0.0000001
 44
0.0000000001
 40
0.0
 40
0.0
 40
0.0
 40
0.0
 40
0.1249701373
 40
0.2500230733
 40
0.3749848068
 40
0.500011945
 40
0.6250910973
 40
0.7501185045
 40
1.0
 40
1.0
 40
1.0
 40
1.0
 10
-48.6500465869
 20
10.7520245567
 30
0.0
 10
-48.5992868418
 20
10.7545402553
 30
0.0
 10
-48.497391832
 20
10.7527108521
 30
0.0
 10
-48.3455367129
 20
10.7375708295
 30
0.0
 10
-48.1952690125
 20
10.7103262664
 30
0.0
 10
-48.0479971336
 20
10.66994425
 30
0.0
 10
-47.9043664571
 20
10.6180462798
 30
0.0
 10
-47.719291504
 20
10.5332806019
 30
0.0
 10
-47.5901511315
 20
10.4505134274
 30
0.0
 10
-47.5085533566
 20
10.3899455634
 30
0.0
  0
LINE
  5
642
100
AcDbEntity
  8
IMPORT_IGES
100
AcDbLine
 62
7
  6
CONTINUOUS
 10
-43.2645171429
 20
0.055
 30
0.0
 11
-42.9645171127
 21
0.0549943906
 31
0.0
  0
SPLINE
  5
643
100
AcDbEntity
  8
IMPORT_IGES
100
AcDbSpline
 62
7
  6
CONTINUOUS
 70
0
 71
3
 72
11
 73
7
 74
0
 42
0.0000001
 43
0.0000001
 44
0.0000000001
 40
0.0
 40
0.0
 40
0.0
 40
0.0
 40
0.2494409586
 40
0.4994061693
 40
0.749647873
 40
1.0
 40
1.0
 40
1.0
 40
1.0
 10
-40.1645173042
 20
0.3769544457
 30
0.0
 10
-40.1645173042
 20
0.2877761491
 30
0.0
 10
-40.1986984345
 20
0.1085182334
 30
0.0
 10
-40.3206374215
 20
-0.1324195918
 30
0.0
 10
-40.4834826415
 20
-0.3467197439
 30
0.0
 10
-40.6041736855
 20
-0.4788968776
 30
0.0
 10
-40.6645173042
 20
-0.545
 30
0.0
  0
SPLINE
  5
644
100
AcDbEntity
  8
IMPORT_IGES
100
AcDbSpline
 62
250
  6
CONTINUOUS
 70
0
 71
3
 72
11
 73
7
 74
0
 42
0.0000001
 43
0.0000001
 44
0.0000000001
 40
0.0
 40
0.0
 40
0.0
 40
0.0
 40
0.2499322331
 40
0.5000056657
 40
0.7500784195
 40
1.0
 40
1.0
 40
1.0
 40
1.0
 10
-43.6271350077
 20
7.4650870464
 30
0.0
 10
-43.579515702
 20
7.428746423
 30
0.0
 10
-43.4915611159
 20
7.3457339549
 30
0.0
 10
-43.3907261657
 20
7.1950430742
 30
0.0
 10
-43.3270494914
 20
7.0252824133
 30
0.0
 10
-43.3108218468
 20
6.9054386438
 30
0.0
 10
-43.3090267954
 20
6.8455661868
 30
0.0
  0
SPLINE
  5
645
100
AcDbEntity
  8
IMPORT_IGES
100
AcDbSpline
 62
250
  6
CONTINUOUS
 70
0
 71
3
 72
8
 73
4
 74
0
 42
0.0000001
 43
0.0000001
 44
0.0000000001
 40
0.0
 40
0.0
 40
0.0
 40
0.0
 40
1.0
 40
1.0
 40
1.0
 40
1.0
 10
-45.0716477221
 20
8.1804296718
 30
0.0
 10
-45.1063813923
 20
8.2251418178
 30
0.0
 10
-45.1476469429
 20
8.265314208
 30
0.0
 10
-45.1927819038
 20
8.2994966472
 30
0.0
  0
SPLINE
  5
646
100
AcDbEntity
  8
IMPORT_IGES
100
AcDbSpline
 62
250
  6
CONTINUOUS
 70
0
 71
3
 72
11
 73
7
 74
0
 42
0.0000001
 43
0.0000001
 44
0.0000000001
 40
0.0
 40
0.0
 40
0.0
 40
0.0
 40
0.1952514639
 40
0.4273210711
 40
0.701577324
 40
1.0
 40
1.0
 40
1.0
 40
1.0
 10
-43.1753872327
 20
6.0738184713
 30
0.0
 10
-43.1804206873
 20
6.0788547506
 30
0.0
 10
-43.1877686906
 20
6.0935609897
 30
0.0
 10
-43.1883409852
 20
6.1196367251
 30
0.0
 10
-43.1803538192
 20
6.1481556016
 30
0.0
 10
-43.1711710906
 20
6.1670123812
 30
0.0
 10
-43.1657032218
 20
6.1764218278
 30
0.0
  0
SPLINE
  5
647
100
AcDbEntity
  8
IMPORT_IGES
100
AcDbSpline
 62
250
  6
CONTINUOUS
 70
0
 71
3
 72
9
 73
5
 74
0
 42
0.0000001
 43
0.0000001
 44
0.0000000001
 40
0.0
 40
0.0
 40
0.0
 40
0.0
 40
0.4927691889
 40
1.0
 40
1.0
 40
1.0
 40
1.0
 10
-42.7402779278
 20
0.0585564573
 30
0.0
 10
-42.7702329134
 20
0.066123326
 30
0.0
 10
-42.8289012047
 20
0.0912075528
 30
0.0
 10
-42.8771850127
 20
0.133108584
 30
0.0
 10
-42.8974572891
 20
0.1576125376
 30
0.0
  0
SPLINE
  5
648
100
AcDbEntity
  8
IMPORT_IGES
100
AcDbSpline
 62
250
  6
CONTINUOUS
 70
0
 71
3
 72
18
 73
14
 74
0
 42
0.0000001
 43
0.0000001
 44
0.0000000001
 40
0.0
 40
0.0
 40
0.0
 40
0.0
 40
0.1946251264
 40
0.3825663393
 40
0.5554703393
 40
0.7068913785
 40
0.8311335342
 40
0.8816094329
 40
0.9236030059
 40
0.956637549
 40
0.9804777849
 40
0.9949575827
 40
1.0
 40
1.0
 40
1.0
 40
1.0
 10
-43.3088307257
 20
6.8455708167
 30
0.0
 10
-43.2958524623
 20
6.8454920164
 30
0.0
 10
-43.270341091
 20
6.8453942408
 30
0.0
 10
-43.233300368
 20
6.8454149155
 30
0.0
 10
-43.1991381127
 20
6.8456128681
 30
0.0
 10
-43.1692341365
 20
6.845877822
 30
0.0
 10
-43.1474687481
 20
6.8461058268
 30
0.0
 10
-43.1330463237
 20
6.8461800124
 30
0.0
 10
-43.1246148935
 20
6.8462199684
 30
0.0
 10
-43.1181851934
 20
6.8460698384
 30
0.0
 10
-43.1130537891
 20
6.8461456214
 30
0.0
 10
-43.1108340919
 20
6.8456281947
 30
0.0
 10
-43.1088303678
 20
6.8458382111
 30
0.0
 10
-43.1088230426
 20
6.8455020392
 30
0.0
  0
LINE
  5
649
100
AcDbEntity
  8
IMPORT_IGES
100
AcDbLine
 62
250
  6
CONTINUOUS
 10
-43.1657111633
 20
6.1764325242
 30
0.0
 11
-43.2993210325
 21
6.4081110785
 31
0.0
  0
SPLINE
  5
64A
100
AcDbEntity
  8
IMPORT_IGES
100
AcDbSpline
 62
250
  6
CONTINUOUS
 70
0
 71
3
 72
9
 73
5
 74
0
 42
0.0000001
 43
0.0000001
 44
0.0000000001
 40
0.0
 40
0.0
 40
0.0
 40
0.0
 40
0.5161792177
 40
1.0
 40
1.0
 40
1.0
 40
1.0
 10
-42.8961091131
 20
0.1381200327
 30
0.0
 10
-42.8676155194
 20
0.1059559509
 30
0.0
 10
-42.7984515181
 20
0.0548188071
 30
0.0
 10
-42.7152080739
 20
0.0348602424
 30
0.0
 10
-42.6749618377
 20
0.0333070696
 30
0.0
  0
SPLINE
  5
64B
100
AcDbEntity
  8
IMPORT_IGES
100
AcDbSpline
 62
250
  6
CONTINUOUS
 70
0
 71
3
 72
11
 73
7
 74
0
 42
0.0000001
 43
0.0000001
 44
0.0000000001
 40
0.0
 40
0.0
 40
0.0
 40
0.0
 40
0.2621717462
 40
0.5255680916
 40
0.7740921668
 40
1.0
 40
1.0
 40
1.0
 40
1.0
 10
-42.682491145
 20
-0.0460537241
 30
0.0
 10
-42.7116009031
 20
-0.0485068876
 30
0.0
 10
-42.7708594001
 20
-0.0462656548
 30
0.0
 10
-42.8541660667
 20
-0.019531418
 30
0.0
 10
-42.9220890664
 20
0.029439382
 30
0.0
 10
-42.9523855384
 20
0.0743771233
 30
0.0
 10
-42.9623384154
 20
0.097498078
 30
0.0
  0
SPLINE
  5
64C
100
AcDbEntity
  8
IMPORT_IGES
100
AcDbSpline
 62
250
  6
CONTINUOUS
 70
0
 71
3
 72
18
 73
14
 74
0
 42
0.0000001
 43
0.0000001
 44
0.0000000001
 40
0.0
 40
0.0
 40
0.0
 40
0.0
 40
0.0059499058
 40
0.0208380974
 40
0.0450847593
 40
0.0786201191
 40
0.1212442671
 40
0.1725301458
 40
0.2989839371
 40
0.450686801
 40
0.6242328767
 40
0.8102855449
 40
1.0
 40
1.0
 40
1.0
 40
1.0
 10
-48.5918670817
 20
10.95
 30
0.0
 10
-48.5922945831
 20
10.9500000015
 30
0.0
 10
-48.5928352706
 20
10.9480195743
 30
0.0
 10
-48.5930736152
 20
10.9452495333
 30
0.0
 10
-48.5930757831
 20
10.939769411
 30
0.0
 10
-48.5924953281
 20
10.9326831188
 30
0.0
 10
-48.5914067028
 20
10.9235495645
 30
0.0
 10
-48.5895448885
 20
10.907845906
 30
0.0
 10
-48.5872268333
 20
10.8842674621
 30
0.0
 10
-48.5895870193
 20
10.8515194813
 30
0.0
 10
-48.6032606084
 20
10.8169516758
 30
0.0
 10
-48.6238558913
 20
10.7831816792
 30
0.0
 10
-48.6409356976
 20
10.7621633891
 30
0.0
 10
-48.6500465869
 20
10.7520245536
 30
0.0
  0
SPLINE
  5
64D
100
AcDbEntity
  8
IMPORT_IGES
100
AcDbSpline
 62
250
  6
CONTINUOUS
 70
0
 71
3
 72
11
 73
7
 74
0
 42
0.0000001
 43
0.0000001
 44
0.0000000001
 40
0.0
 40
0.0
 40
0.0
 40
0.0
 40
0.2144212872
 40
0.4352561977
 40
0.6909326209
 40
1.0
 40
1.0
 40
1.0
 40
1.0
 10
-42.6750632048
 20
0.0331757882
 30
0.0
 10
-42.6797383657
 20
0.0292367547
 30
0.0
 10
-42.6880504151
 20
0.0193006573
 30
0.0
 10
-42.6920688107
 20
-0.0003217553
 30
0.0
 10
-42.6931948782
 20
-0.0230405335
 30
0.0
 10
-42.6863651845
 20
-0.0381887568
 30
0.0
 10
-42.6823722031
 20
-0.0460439474
 30
0.0
  0
SPLINE
  5
64E
100
AcDbEntity
  8
IMPORT_IGES
100
AcDbSpline
 62
250
  6
CONTINUOUS
 70
0
 71
3
 72
9
 73
5
 74
0
 42
0.0000001
 43
0.0000001
 44
0.0000000001
 40
0.0
 40
0.0
 40
0.0
 40
0.0
 40
0.2562891664
 40
1.0
 40
1.0
 40
1.0
 40
1.0
 10
-42.6645173046
 20
-0.1342855411
 30
0.0
 10
-42.6887157203
 20
-0.1342849009
 30
0.0
 10
-42.7822650036
 20
-0.1268134562
 30
0.0
 10
-42.8787316858
 20
-0.0853073283
 30
0.0
 10
-42.9241208515
 20
-0.0317286824
 30
0.0
  0
SPLINE
  5
64F
100
AcDbEntity
  8
IMPORT_IGES
100
AcDbSpline
 62
250
  6
CONTINUOUS
 70
0
 71
3
 72
9
 73
5
 74
0
 42
0.0000001
 43
0.0000001
 44
0.0000000001
 40
0.0
 40
0.0
 40
0.0
 40
0.0
 40
0.5297509075
 40
1.0
 40
1.0
 40
1.0
 40
1.0
 10
-42.9241208515
 20
-0.0317286824
 30
0.0
 10
-42.9351303921
 20
-0.0187327115
 30
0.0
 10
-42.9530507864
 20
0.0085645352
 30
0.0
 10
-42.961869189
 20
0.0400871737
 30
0.0
 10
-42.963594722
 20
0.0551077681
 30
0.0
  0
SPLINE
  5
650
100
AcDbEntity
  8
IMPORT_IGES
100
AcDbSpline
 62
250
  6
CONTINUOUS
 70
0
 71
3
 72
9
 73
5
 74
0
 42
0.0000001
 43
0.0000001
 44
0.0000000001
 40
0.0
 40
0.0
 40
0.0
 40
0.0
 40
0.2305626395
 40
1.0
 40
1.0
 40
1.0
 40
1.0
 10
-42.6823722031
 20
-0.0460439474
 30
0.0
 10
-42.6796716796
 20
-0.0524395037
 30
0.0
 10
-42.6693703335
 20
-0.0807489759
 30
0.0
 10
-42.6646055229
 20
-0.1111107852
 30
0.0
 10
-42.6645173042
 20
-0.134278678
 30
0.0
  0
SPLINE
  5
651
100
AcDbEntity
  8
IMPORT_IGES
100
AcDbSpline
 62
250
  6
CONTINUOUS
 70
0
 71
3
 72
14
 73
10
 74
0
 42
0.0000001
 43
0.0000001
 44
0.0000000001
 40
0.0
 40
0.0
 40
0.0
 40
0.0
 40
0.0170241003
 40
0.0657519929
 40
0.1460946376
 40
0.257606482
 40
0.3997997073
 40
0.5718929059
 40
1.0
 40
1.0
 40
1.0
 40
1.0
 10
-48.8500143039
 20
10.750882232
 30
0.0
 10
-48.8500143878
 20
10.7511174692
 30
0.0
 10
-48.8486206472
 20
10.7510277251
 30
0.0
 10
-48.8470723282
 20
10.751406066
 30
0.0
 10
-48.8434910331
 20
10.7514455793
 30
0.0
 10
-48.8389915578
 20
10.7516526616
 30
0.0
 10
-48.8330659157
 20
10.7517737929
 30
0.0
 10
-48.8228300234
 20
10.7519693004
 30
0.0
 10
-48.8145277915
 20
10.7520674353
 30
0.0
 10
-48.8086126275
 20
10.7521338133
 30
0.0
  0
SPLINE
  5
652
100
AcDbEntity
  8
IMPORT_IGES
100
AcDbSpline
 62
250
  6
CONTINUOUS
 70
0
 71
3
 72
9
 73
5
 74
0
 42
0.0000001
 43
0.0000001
 44
0.0000000001
 40
0.0
 40
0.0
 40
0.0
 40
0.0
 40
0.2002961783
 40
1.0
 40
1.0
 40
1.0
 40
1.0
 10
-48.8086126275
 20
10.7521338133
 30
0.0
 10
-48.7980243733
 20
10.7522526312
 30
0.0
 10
-48.7451611996
 20
10.752804467
 30
0.0
 10
-48.6922857317
 20
10.7524025545
 30
0.0
 10
-48.6500188748
 20
10.7514586912
 30
0.0
  0
SPLINE
  5
653
100
AcDbEntity
  8
RACCORDO
100
AcDbSpline
 62
250
  6
CONTINUOUS
 70
0
 71
3
 72
26
 73
22
 74
0
 42
0.0000001
 43
0.0000001
 44
0.0000000001
 40
0.0
 40
0.0
 40
0.0
 40
0.0
 40
0.1950812131
 40
0.3826499456
 40
0.5555245119
 40
0.6343402047
 40
0.7070490478
 40
0.7729468713
 40
0.8314025054
 40
0.881852257
 40
0.9238084245
 40
0.9414741935
 40
0.956871577
 40
0.9699629139
 40
0.9807201421
 40
0.9891160416
 40
0.9951290477
 40
0.9972391968
 40
0.998751184
 40
0.9996663718
 40
1.0
 40
1.0
 40
1.0
 40
1.0
 10
-71.6659717371
 20
24.2369056521
 30
0.0
 10
-71.6660663166
 20
24.2531630359
 30
0.0
 10
-71.6662339227
 20
24.2850518473
 30
0.0
 10
-71.6664231624
 20
24.3313477175
 30
0.0
 10
-71.6665251529
 20
24.3679545131
 30
0.0
 10
-71.6665666916
 20
24.3949892244
 30
0.0
 10
-71.6665773895
 20
24.4131087486
 30
0.0
 10
-71.6665686068
 20
24.4295315059
 30
0.0
 10
-71.6665406235
 20
24.4440992271
 30
0.0
 10
-71.6664938018
 20
24.4566716056
 30
0.0
 10
-71.6664373363
 20
24.4658446582
 30
0.0
 10
-71.6663803177
 20
24.4720962472
 30
0.0
 10
-71.6663358516
 20
24.4759426689
 30
0.0
 10
-71.6662870101
 20
24.4792122353
 30
0.0
 10
-71.6662353568
 20
24.4819010268
 30
0.0
 10
-71.6661781966
 20
24.4839921979
 30
0.0
 10
-71.6661292126
 20
24.4853791703
 30
0.0
 10
-71.6660781588
 20
24.4861657167
 30
0.0
 10
-71.666053213
 20
24.4865675339
 30
0.0
 10
-71.6660127513
 20
24.4867510864
 30
0.0
 10
-71.6659995405
 20
24.4869012595
 30
0.0
 10
-71.6659717371
 20
24.4869014213
 30
0.0
  0
LINE
  5
654
100
AcDbEntity
  8
RACCORDO
100
AcDbLine
 62
7
  6
CONTINUOUS
 10
-69.4145173042
 20
24.2500042308
 30
0.0
 11
-69.4145173042
 21
24.5
 31
0.0
  0
SPLINE
  5
655
100
AcDbEntity
  8
RACCORDO
100
AcDbSpline
 62
250
  6
CONTINUOUS
 70
0
 71
3
 72
26
 73
22
 74
0
 42
0.0000001
 43
0.0000001
 44
0.0000000001
 40
0.0
 40
0.0
 40
0.0
 40
0.0
 40
0.1950812131
 40
0.3826499456
 40
0.5555245119
 40
0.6343402047
 40
0.7070490478
 40
0.7729468713
 40
0.8314025054
 40
0.881852257
 40
0.9238084245
 40
0.9414741935
 40
0.956871577
 40
0.9699629139
 40
0.9807201421
 40
0.9891160416
 40
0.9951290477
 40
0.9972391968
 40
0.998751184
 40
0.9996663718
 40
1.0
 40
1.0
 40
1.0
 40
1.0
 10
-68.6630628714
 20
24.2456323968
 30
0.0
 10
-68.6629682919
 20
24.2618897806
 30
0.0
 10
-68.6628006858
 20
24.293778592
 30
0.0
 10
-68.6626114461
 20
24.3400744622
 30
0.0
 10
-68.6625094556
 20
24.3766812578
 30
0.0
 10
-68.6624679169
 20
24.4037159692
 30
0.0
 10
-68.662457219
 20
24.4218354933
 30
0.0
 10
-68.6624660017
 20
24.4382582506
 30
0.0
 10
-68.662493985
 20
24.4528259718
 30
0.0
 10
-68.6625408067
 20
24.4653983503
 30
0.0
 10
-68.6625972722
 20
24.474571403
 30
0.0
 10
-68.6626542908
 20
24.4808229919
 30
0.0
 10
-68.6626987569
 20
24.4846694136
 30
0.0
 10
-68.6627475984
 20
24.4879389801
 30
0.0
 10
-68.6627992517
 20
24.4906277716
 30
0.0
 10
-68.6628564119
 20
24.4927189426
 30
0.0
 10
-68.6629053959
 20
24.494105915
 30
0.0
 10
-68.6629564497
 20
24.4948924614
 30
0.0
 10
-68.6629813955
 20
24.4952942786
 30
0.0
 10
-68.6630218572
 20
24.4954778311
 30
0.0
 10
-68.663035068
 20
24.4956280042
 30
0.0
 10
-68.6630628714
 20
24.495628166
 30
0.0
  0
SPLINE
  5
656
100
AcDbEntity
  8
RACCORDO
100
AcDbSpline
 62
250
  6
CONTINUOUS
 70
0
 71
3
 72
26
 73
22
 74
0
 42
0.0000001
 43
0.0000001
 44
0.0000000001
 40
0.0
 40
0.0
 40
0.0
 40
0.0
 40
0.1952381202
 40
0.3828749837
 40
0.5557520914
 40
0.6345520338
 40
0.7072376715
 40
0.7731076099
 40
0.8315332255
 40
0.8819531408
 40
0.9238816554
 40
0.9415349362
 40
0.956920956
 40
0.9700021908
 40
0.9807506497
 40
0.9891391341
 40
0.9951459668
 40
0.9972533322
 40
0.9987625092
 40
0.9996742481
 40
1.0
 40
1.0
 40
1.0
 40
1.0
 10
-68.6630628714
 20
23.8443375673
 30
0.0
 10
-68.6549512754
 20
23.8302873953
 30
0.0
 10
-68.6390572678
 20
23.8027263462
 30
0.0
 10
-68.6160271982
 20
23.7626975296
 30
0.0
 10
-68.5978579365
 20
23.7310348314
 30
0.0
 10
-68.5844681851
 20
23.707642512
 30
0.0
 10
-68.5755085652
 20
23.6919599588
 30
0.0
 10
-68.5674026662
 20
23.6777395348
 30
0.0
 10
-68.5602281722
 20
23.665117869
 30
0.0
 10
-68.5540538691
 20
23.654216121
 30
0.0
 10
-68.5495659456
 20
23.6462528618
 30
0.0
 10
-68.5465214292
 20
23.6408180688
 30
0.0
 10
-68.5446553007
 20
23.6374703242
 30
0.0
 10
-68.5430775244
 20
23.6346199763
 30
0.0
 10
-68.5417882338
 20
23.6322711012
 30
0.0
 10
-68.5407994183
 20
23.630437018
 30
0.0
 10
-68.5401495429
 20
23.629215972
 30
0.0
 10
-68.5398019105
 20
23.6285133592
 30
0.0
 10
-68.5396183057
 20
23.628155318
 30
0.0
 10
-68.5395652776
 20
23.6279791452
 30
0.0
 10
-68.5394938619
 20
23.6278447508
 30
0.0
 10
-68.5395173042
 20
23.6278312164
 30
0.0
  0
LINE
  5
657
100
AcDbEntity
  8
0
100
AcDbLine
 62
250
  6
CONTINUOUS
 10
-58.4145173042
 20
20.0275513222
 30
0.0
 11
-68.4145173042
 21
18.3232986254
 31
0.0
  0
SPLINE
  5
658
100
AcDbEntity
  8
RACCORDO
100
AcDbSpline
 62
7
  6
CONTINUOUS
 70
0
 71
3
 72
13
 73
9
 74
0
 42
0.0000001
 43
0.0000001
 44
0.0000000001
 40
0.0
 40
0.0
 40
0.0
 40
0.0
 40
0.3611707034
 40
0.6821065924
 40
0.8126146064
 40
0.9136705937
 40
0.9780274868
 40
1.0
 40
1.0
 40
1.0
 40
1.0
 10
-70.6659717371
 20
23.2669872981
 30
0.0
 10
-70.6959380953
 20
23.249685774
 30
0.0
 10
-70.7525205618
 20
23.2169892193
 30
0.0
 10
-70.81987926
 20
23.1779516232
 30
0.0
 10
-70.8656615474
 20
23.1513824348
 30
0.0
 10
-70.8901290021
 20
23.1370615698
 30
0.0
 10
-70.9056672315
 20
23.1280662994
 30
0.0
 10
-70.9127286974
 20
23.1237601829
 30
0.0
 10
-70.9145173042
 20
23.1226497308
 30
0.0
  0
SPLINE
  5
659
100
AcDbEntity
  8
RACCORDO
100
AcDbSpline
 62
250
  6
CONTINUOUS
 70
0
 71
3
 72
26
 73
22
 74
0
 42
0.0000001
 43
0.0000001
 44
0.0000000001
 40
0.0
 40
0.0
 40
0.0
 40
0.0
 40
0.1952383918
 40
0.3828751996
 40
0.5557522696
 40
0.6345521823
 40
0.7072377922
 40
0.7731077036
 40
0.8315332971
 40
0.8819531884
 40
0.9238816869
 40
0.9415349589
 40
0.9569209738
 40
0.9700022033
 40
0.980750657
 40
0.9891391387
 40
0.9951459694
 40
0.9972533339
 40
0.99876251
 40
0.9996742483
 40
1.0
 40
1.0
 40
1.0
 40
1.0
 10
-71.6659717371
 20
23.8443375673
 30
0.0
 10
-71.6740833444
 20
23.8302873757
 30
0.0
 10
-71.6899773609
 20
23.8027263111
 30
0.0
 10
-71.7130074379
 20
23.7626974817
 30
0.0
 10
-71.7311766944
 20
23.7310347923
 30
0.0
 10
-71.7445664419
 20
23.7076424797
 30
0.0
 10
-71.7535260583
 20
23.6919599326
 30
0.0
 10
-71.7616319541
 20
23.6777395142
 30
0.0
 10
-71.7688064451
 20
23.6651178536
 30
0.0
 10
-71.7749807456
 20
23.6542161101
 30
0.0
 10
-71.7794686671
 20
23.6462528545
 30
0.0
 10
-71.7825131822
 20
23.6408180636
 30
0.0
 10
-71.7843793099
 20
23.6374703203
 30
0.0
 10
-71.7859570856
 20
23.6346199735
 30
0.0
 10
-71.7872463757
 20
23.6322710994
 30
0.0
 10
-71.7882351907
 20
23.6304370169
 30
0.0
 10
-71.788885066
 20
23.6292159714
 30
0.0
 10
-71.7892326982
 20
23.6285133588
 30
0.0
 10
-71.7894163029
 20
23.6281553178
 30
0.0
 10
-71.789469331
 20
23.6279791451
 30
0.0
 10
-71.7895407465
 20
23.6278447508
 30
0.0
 10
-71.7895173042
 20
23.6278312164
 30
0.0
  0
LINE
  5
65A
100
AcDbEntity
  8
RACCORDO
100
AcDbLine
 62
250
  6
CONTINUOUS
 10
-58.4145173042
 20
-20.0275513222
 30
0.0
 11
-68.4145173042
 21
-18.3232986254
 31
0.0
  0
LINE
  5
65B
100
AcDbEntity
  8
RACCORDO
100
AcDbLine
 62
7
  6
CONTINUOUS
 10
-70.6659717371
 20
22.3334109614
 30
0.0
 11
-69.4145173042
 21
22.3997080771
 31
0.0
  0
SPLINE
  5
65C
100
AcDbEntity
  8
RACCORDO
100
AcDbSpline
 62
250
  6
CONTINUOUS
 70
0
 71
3
 72
25
 73
21
 74
0
 42
0.0000001
 43
0.0000001
 44
0.0000000001
 40
0.0
 40
0.0
 40
0.0
 40
0.0
 40
0.1950126391
 40
0.3824957336
 40
0.4711548314
 40
0.5552736862
 40
0.6340445001
 40
0.7067096428
 40
0.7725721391
 40
0.8309983177
 40
0.8814267904
 40
0.9233766883
 40
0.9410430149
 40
0.956447656
 40
0.9695519407
 40
0.9803282389
 40
0.9887549055
 40
0.9948165377
 40
0.998523322
 40
1.0
 40
1.0
 40
1.0
 40
1.0
 10
-77.0538544182
 20
21.4994104546
 30
0.0
 10
-77.0555545264
 20
21.5318603333
 30
0.0
 10
-77.0587818832
 20
21.5955128493
 30
0.0
 10
-77.0624838556
 20
21.6739328607
 30
0.0
 10
-77.0651335347
 20
21.7339036349
 30
0.0
 10
-77.0668920615
 20
21.7757816014
 30
0.0
 10
-77.0684426342
 20
21.8150008101
 30
0.0
 10
-77.0697706541
 20
21.8511843196
 30
0.0
 10
-77.0708638263
 20
21.8839839825
 30
0.0
 10
-77.0717126887
 20
21.9130844307
 30
0.0
 10
-77.072309684
 20
21.9382052754
 30
0.0
 10
-77.0726118283
 20
21.9565402795
 30
0.0
 10
-77.0727070701
 20
21.9690392541
 30
0.0
 10
-77.0727088354
 20
21.9767363485
 30
0.0
 10
-77.0726466225
 20
21.9832734519
 30
0.0
 10
-77.0725201319
 20
21.9886797825
 30
0.0
 10
-77.0723368906
 20
21.9928231347
 30
0.0
 10
-77.0720925108
 20
21.995990051
 30
0.0
 10
-77.0718272703
 20
21.9975846231
 30
0.0
 10
-77.0715419105
 20
21.9987123445
 30
0.0
 10
-77.0712961931
 20
21.998725222
 30
0.0
  0
SPLINE
  5
65D
100
AcDbEntity
  8
RACCORDO
100
AcDbSpline
 62
250
  6
CONTINUOUS
 70
0
 71
3
 72
25
 73
21
 74
0
 42
0.0000001
 43
0.0000001
 44
0.0000000001
 40
0.0
 40
0.0
 40
0.0
 40
0.0
 40
0.1950126392
 40
0.3824957337
 40
0.4711548316
 40
0.5552736864
 40
0.6340445003
 40
0.7067096429
 40
0.7725721393
 40
0.8309983179
 40
0.8814267906
 40
0.9233766885
 40
0.9410430151
 40
0.9564476561
 40
0.9695519408
 40
0.980328239
 40
0.9887549056
 40
0.9948165378
 40
0.998523322
 40
1.0
 40
1.0
 40
1.0
 40
1.0
 10
-77.0538544182
 20
-21.4994104546
 30
0.0
 10
-77.0555545263
 20
-21.5318603333
 30
0.0
 10
-77.0587818831
 20
-21.5955128493
 30
0.0
 10
-77.0624838553
 20
-21.6739328608
 30
0.0
 10
-77.0651335345
 20
-21.7339036349
 30
0.0
 10
-77.0668920611
 20
-21.7757816014
 30
0.0
 10
-77.0684426338
 20
-21.8150008101
 30
0.0
 10
-77.0697706537
 20
-21.8511843197
 30
0.0
 10
-77.070863826
 20
-21.8839839826
 30
0.0
 10
-77.0717126884
 20
-21.9130844307
 30
0.0
 10
-77.0723096837
 20
-21.9382052754
 30
0.0
 10
-77.072611828
 20
-21.9565402795
 30
0.0
 10
-77.0727070698
 20
-21.9690392541
 30
0.0
 10
-77.0727088352
 20
-21.9767363485
 30
0.0
 10
-77.0726466223
 20
-21.9832734519
 30
0.0
 10
-77.0725201318
 20
-21.9886797825
 30
0.0
 10
-77.0723368904
 20
-21.9928231347
 30
0.0
 10
-77.0720925107
 20
-21.995990051
 30
0.0
 10
-77.0718272702
 20
-21.997584623
 30
0.0
 10
-77.0715419104
 20
-21.9987123445
 30
0.0
 10
-77.0712961931
 20
-21.998725222
 30
0.0
  0
LINE
  5
65E
100
AcDbEntity
  8
RACCORDO
100
AcDbLine
 62
7
  6
CONTINUOUS
 10
-69.4145173042
 20
-22.3997080771
 30
0.0
 11
-70.6659717371
 21
-22.3334109614
 31
0.0
  0
SPLINE
  5
65F
100
AcDbEntity
  8
RACCORDO
100
AcDbSpline
 62
7
  6
CONTINUOUS
 70
0
 71
3
 72
23
 73
19
 74
0
 42
0.0000001
 43
0.0000001
 44
0.0000000001
 40
0.0
 40
0.0
 40
0.0
 40
0.0
 40
0.0029790642
 40
0.0081751116
 40
0.0156250895
 40
0.0253283264
 40
0.0372679701
 40
0.0514218611
 40
0.0862385412
 40
0.1294624024
 40
0.1806967365
 40
0.2394707692
 40
0.3052443416
 40
0.3774115779
 40
0.4553067591
 40
0.6253653726
 40
0.8091744664
 40
1.0
 40
1.0
 40
1.0
 40
1.0
 10
-69.4146652771
 20
22.3996911987
 30
0.0
 10
-69.414912462
 20
22.3992605945
 30
0.0
 10
-69.415224512
 20
22.397904566
 30
0.0
 10
-69.4156179648
 20
22.3953465467
 30
0.0
 10
-69.4159471952
 20
22.3916264645
 30
0.0
 10
-69.4162440539
 20
22.3867900147
 30
0.0
 10
-69.4165019388
 20
22.3808279998
 30
0.0
 10
-69.4168403433
 20
22.3706824916
 30
0.0
 10
-69.4171770583
 20
22.3553196836
 30
0.0
 10
-69.4174353801
 20
22.3337755035
 30
0.0
 10
-69.4175724579
 20
22.3082371013
 30
0.0
 10
-69.4175860314
 20
22.2789401961
 30
0.0
 10
-69.4174726193
 20
22.2461546808
 30
0.0
 10
-69.4172338401
 20
22.2101829449
 30
0.0
 10
-69.4167349829
 20
22.156831996
 30
0.0
 10
-69.4158040441
 20
22.0848776565
 30
0.0
 10
-69.4142804407
 20
21.9941085514
 30
0.0
 10
-69.413029595
 20
21.9316821458
 30
0.0
 10
-69.4123309752
 20
21.8998857286
 30
0.0
  0
SPLINE
  5
660
100
AcDbEntity
  8
RACCORDO
100
AcDbSpline
 62
7
  6
CONTINUOUS
 70
0
 71
3
 72
23
 73
19
 74
0
 42
0.0000001
 43
0.0000001
 44
0.0000000001
 40
0.0
 40
0.0
 40
0.0
 40
0.0
 40
0.1908255336
 40
0.3746346274
 40
0.5446932409
 40
0.6225884221
 40
0.6947556584
 40
0.7605292308
 40
0.8193032635
 40
0.8705375976
 40
0.9137614588
 40
0.9485781389
 40
0.9627320299
 40
0.9746716736
 40
0.9843749105
 40
0.9918248884
 40
0.9970209358
 40
1.0
 40
1.0
 40
1.0
 40
1.0
 10
-69.4123309752
 20
-21.8998857286
 30
0.0
 10
-69.413029595
 20
-21.9316821458
 30
0.0
 10
-69.4142804407
 20
-21.9941085514
 30
0.0
 10
-69.4158040441
 20
-22.0848776565
 30
0.0
 10
-69.4167349829
 20
-22.156831996
 30
0.0
 10
-69.4172338401
 20
-22.2101829449
 30
0.0
 10
-69.4174726193
 20
-22.2461546808
 30
0.0
 10
-69.4175860314
 20
-22.2789401961
 30
0.0
 10
-69.4175724579
 20
-22.3082371013
 30
0.0
 10
-69.4174353801
 20
-22.3337755035
 30
0.0
 10
-69.4171770583
 20
-22.3553196836
 30
0.0
 10
-69.4168403433
 20
-22.3706824916
 30
0.0
 10
-69.4165019388
 20
-22.3808279998
 30
0.0
 10
-69.4162440539
 20
-22.3867900147
 30
0.0
 10
-69.4159471952
 20
-22.3916264645
 30
0.0
 10
-69.4156179648
 20
-22.3953465467
 30
0.0
 10
-69.415224512
 20
-22.397904566
 30
0.0
 10
-69.414912462
 20
-22.3992605945
 30
0.0
 10
-69.4146652771
 20
-22.3996911987
 30
0.0
  0
SPLINE
  5
661
100
AcDbEntity
  8
RACCORDO
100
AcDbSpline
 62
250
  6
CONTINUOUS
 70
0
 71
3
 72
26
 73
22
 74
0
 42
0.0000001
 43
0.0000001
 44
0.0000000001
 40
0.0
 40
0.0
 40
0.0
 40
0.0
 40
0.1952381202
 40
0.3828749837
 40
0.5557520914
 40
0.6345520338
 40
0.7072376715
 40
0.7731076099
 40
0.8315332255
 40
0.8819531408
 40
0.9238816554
 40
0.9415349362
 40
0.956920956
 40
0.9700021908
 40
0.9807506497
 40
0.9891391341
 40
0.9951459668
 40
0.9972533322
 40
0.9987625092
 40
0.9996742481
 40
1.0
 40
1.0
 40
1.0
 40
1.0
 10
-68.6630628714
 20
-23.8443375673
 30
0.0
 10
-68.6549512754
 20
-23.8302873953
 30
0.0
 10
-68.6390572678
 20
-23.8027263462
 30
0.0
 10
-68.6160271982
 20
-23.7626975296
 30
0.0
 10
-68.5978579365
 20
-23.7310348314
 30
0.0
 10
-68.5844681851
 20
-23.707642512
 30
0.0
 10
-68.5755085652
 20
-23.6919599588
 30
0.0
 10
-68.5674026662
 20
-23.6777395348
 30
0.0
 10
-68.5602281722
 20
-23.665117869
 30
0.0
 10
-68.5540538691
 20
-23.654216121
 30
0.0
 10
-68.5495659456
 20
-23.6462528618
 30
0.0
 10
-68.5465214292
 20
-23.6408180688
 30
0.0
 10
-68.5446553007
 20
-23.6374703242
 30
0.0
 10
-68.5430775244
 20
-23.6346199763
 30
0.0
 10
-68.5417882338
 20
-23.6322711012
 30
0.0
 10
-68.5407994183
 20
-23.630437018
 30
0.0
 10
-68.5401495429
 20
-23.629215972
 30
0.0
 10
-68.5398019105
 20
-23.6285133592
 30
0.0
 10
-68.5396183057
 20
-23.628155318
 30
0.0
 10
-68.5395652776
 20
-23.6279791452
 30
0.0
 10
-68.5394938619
 20
-23.6278447508
 30
0.0
 10
-68.5395173042
 20
-23.6278312164
 30
0.0
  0
SPLINE
  5
662
100
AcDbEntity
  8
RACCORDO
100
AcDbSpline
 62
250
  6
CONTINUOUS
 70
0
 71
3
 72
26
 73
22
 74
0
 42
0.0000001
 43
0.0000001
 44
0.0000000001
 40
0.0
 40
0.0
 40
0.0
 40
0.0
 40
0.1952381202
 40
0.3828749837
 40
0.5557520914
 40
0.6345520338
 40
0.7072376715
 40
0.7731076099
 40
0.8315332255
 40
0.8819531408
 40
0.9238816554
 40
0.9415349362
 40
0.956920956
 40
0.9700021908
 40
0.9807506497
 40
0.9891391341
 40
0.9951459668
 40
0.9972533322
 40
0.9987625092
 40
0.9996742481
 40
1.0
 40
1.0
 40
1.0
 40
1.0
 10
-71.6659717371
 20
-23.8443375673
 30
0.0
 10
-71.6740833331
 20
-23.8302873953
 30
0.0
 10
-71.6899773407
 20
-23.8027263462
 30
0.0
 10
-71.7130074103
 20
-23.7626975296
 30
0.0
 10
-71.731176672
 20
-23.7310348314
 30
0.0
 10
-71.7445664234
 20
-23.707642512
 30
0.0
 10
-71.7535260433
 20
-23.6919599588
 30
0.0
 10
-71.7616319423
 20
-23.6777395348
 30
0.0
 10
-71.7688064363
 20
-23.665117869
 30
0.0
 10
-71.7749807394
 20
-23.654216121
 30
0.0
 10
-71.7794686629
 20
-23.6462528618
 30
0.0
 10
-71.7825131793
 20
-23.6408180688
 30
0.0
 10
-71.7843793078
 20
-23.6374703242
 30
0.0
 10
-71.7859570841
 20
-23.6346199763
 30
0.0
 10
-71.7872463747
 20
-23.6322711012
 30
0.0
 10
-71.7882351902
 20
-23.630437018
 30
0.0
 10
-71.7888850656
 20
-23.629215972
 30
0.0
 10
-71.789232698
 20
-23.6285133592
 30
0.0
 10
-71.7894163028
 20
-23.628155318
 30
0.0
 10
-71.7894693309
 20
-23.6279791452
 30
0.0
 10
-71.7895407466
 20
-23.6278447508
 30
0.0
 10
-71.7895173042
 20
-23.6278312164
 30
0.0
  0
SPLINE
  5
663
100
AcDbEntity
  8
RACCORDO
100
AcDbSpline
 62
7
  6
CONTINUOUS
 70
0
 71
3
 72
13
 73
9
 74
0
 42
0.0000001
 43
0.0000001
 44
0.0000000001
 40
0.0
 40
0.0
 40
0.0
 40
0.0
 40
0.0225227418
 40
0.0871911485
 40
0.1883898844
 40
0.3188730435
 40
0.6394257438
 40
1.0
 40
1.0
 40
1.0
 40
1.0
 10
-70.9145173042
 20
-23.1226497308
 30
0.0
 10
-70.9126836312
 20
-23.1237875441
 30
0.0
 10
-70.9055504235
 20
-23.1281345861
 30
0.0
 10
-70.8899293562
 20
-23.1371787658
 30
0.0
 10
-70.8654257242
 20
-23.1515193067
 30
0.0
 10
-70.8196654729
 20
-23.1780757967
 30
0.0
 10
-70.752389784
 20
-23.2170647138
 30
0.0
 10
-70.6958886073
 20
-23.2497143466
 30
0.0
 10
-70.6659717371
 20
-23.2669872981
 30
0.0
  0
SPLINE
  5
664
100
AcDbEntity
  8
RACCORDO
100
AcDbSpline
 62
250
  6
CONTINUOUS
 70
0
 71
3
 72
26
 73
22
 74
0
 42
0.0000001
 43
0.0000001
 44
0.0000000001
 40
0.0
 40
0.0
 40
0.0
 40
0.0
 40
0.0003336228
 40
0.0012487957
 40
0.0027607629
 40
0.0048708913
 40
0.0108838711
 40
0.0192797588
 40
0.0300369534
 40
0.0431282632
 40
0.0585256394
 40
0.076191382
 40
0.1181475232
 40
0.1685972475
 40
0.2270528812
 40
0.2929506998
 40
0.3656595516
 40
0.4444752648
 40
0.6173498903
 40
0.804918698
 40
1.0
 40
1.0
 40
1.0
 40
1.0
 10
-68.6630628714
 20
-24.495628166
 30
0.0
 10
-68.6630350685
 20
-24.4956280042
 30
0.0
 10
-68.6630218566
 20
-24.4954778342
 30
0.0
 10
-68.6629813959
 20
-24.4952942839
 30
0.0
 10
-68.6629564496
 20
-24.4948924719
 30
0.0
 10
-68.6629053962
 20
-24.4941059308
 30
0.0
 10
-68.6628564124
 20
-24.4927189634
 30
0.0
 10
-68.6627992525
 20
-24.4906277983
 30
0.0
 10
-68.662747599
 20
-24.4879390129
 30
0.0
 10
-68.6626987575
 20
-24.4846694521
 30
0.0
 10
-68.6626542913
 20
-24.4808230354
 30
0.0
 10
-68.6625972724
 20
-24.4745714515
 30
0.0
 10
-68.6625408071
 20
-24.4653984055
 30
0.0
 10
-68.6624939851
 20
-24.4528260315
 30
0.0
 10
-68.6624660018
 20
-24.438258313
 30
0.0
 10
-68.662457219
 20
-24.4218355554
 30
0.0
 10
-68.6624679169
 20
-24.4037160292
 30
0.0
 10
-68.6625094555
 20
-24.3766813105
 30
0.0
 10
-68.662611446
 20
-24.340074502
 30
0.0
 10
-68.6628006857
 20
-24.2937786131
 30
0.0
 10
-68.6629682919
 20
-24.261889788
 30
0.0
 10
-68.6630628714
 20
-24.2456323968
 30
0.0
  0
SPLINE
  5
665
100
AcDbEntity
  8
RACCORDO
100
AcDbSpline
 62
7
  6
CONTINUOUS
 70
0
 71
3
 72
9
 73
5
 74
0
 42
0.0000001
 43
0.0000001
 44
0.0000000001
 40
0.0
 40
0.0
 40
0.0
 40
0.0
 40
0.482213368
 40
1.0
 40
1.0
 40
1.0
 40
1.0
 10
-70.7900604462
 20
-22.3279108386
 30
0.0
 10
-70.770122458
 20
-22.3289557443
 30
0.0
 10
-70.7287437536
 20
-22.3304456948
 30
0.0
 10
-70.6873797343
 20
-22.332273202
 30
0.0
 10
-70.6659717371
 20
-22.3334109614
 30
0.0
  0
LINE
  5
666
100
AcDbEntity
  8
RACCORDO
100
AcDbLine
 62
7
  6
CONTINUOUS
 10
-69.4145173042
 20
-24.5
 30
0.0
 11
-69.4145173042
 21
-24.2500042308
 31
0.0
  0
SPLINE
  5
667
100
AcDbEntity
  8
RACCORDO
100
AcDbSpline
 62
250
  6
CONTINUOUS
 70
0
 71
3
 72
26
 73
22
 74
0
 42
0.0000001
 43
0.0000001
 44
0.0000000001
 40
0.0
 40
0.0
 40
0.0
 40
0.0
 40
0.0003336287
 40
0.0012488178
 40
0.0027608069
 40
0.0048709582
 40
0.0108839688
 40
0.0192798748
 40
0.0300371153
 40
0.0431284644
 40
0.0585258581
 40
0.0761916461
 40
0.1181478473
 40
0.168597649
 40
0.2270533274
 40
0.2929512052
 40
0.3656601029
 40
0.4444758533
 40
0.6173505017
 40
0.8049193806
 40
1.0
 40
1.0
 40
1.0
 40
1.0
 10
-71.6659717371
 20
-24.4869014213
 30
0.0
 10
-71.6659995405
 20
-24.4869012595
 30
0.0
 10
-71.6660127513
 20
-24.4867510862
 30
0.0
 10
-71.666053213
 20
-24.4865675335
 30
0.0
 10
-71.6660781588
 20
-24.4861657157
 30
0.0
 10
-71.6661292126
 20
-24.4853791686
 30
0.0
 10
-71.6661781966
 20
-24.4839921951
 30
0.0
 10
-71.666235357
 20
-24.4819010221
 30
0.0
 10
-71.6662870103
 20
-24.479212228
 30
0.0
 10
-71.6663358517
 20
-24.4759426587
 30
0.0
 10
-71.6663803179
 20
-24.4720962335
 30
0.0
 10
-71.6664373364
 20
-24.4658446393
 30
0.0
 10
-71.666493802
 20
-24.4566715781
 30
0.0
 10
-71.6665406236
 20
-24.444099189
 30
0.0
 10
-71.6665686069
 20
-24.4295314554
 30
0.0
 10
-71.6665773895
 20
-24.4131086853
 30
0.0
 10
-71.6665666915
 20
-24.3949891473
 30
0.0
 10
-71.6665251527
 20
-24.3679544198
 30
0.0
 10
-71.666423162
 20
-24.3313476003
 30
0.0
 10
-71.6662339222
 20
-24.2850517606
 30
0.0
 10
-71.6660663163
 20
-24.2531629864
 30
0.0
 10
-71.6659717371
 20
-24.2369056521
 30
0.0
  0
SPLINE
  5
668
100
AcDbEntity
  8
RACCORDO
100
AcDbSpline
 62
7
  6
CONTINUOUS
 70
0
 71
3
 72
9
 73
5
 74
0
 42
0.0000001
 43
0.0000001
 44
0.0000000001
 40
0.0
 40
0.0
 40
0.0
 40
0.0
 40
0.517786632
 40
1.0
 40
1.0
 40
1.0
 40
1.0
 10
-70.6659717371
 20
22.3334109614
 30
0.0
 10
-70.6873797343
 20
22.332273202
 30
0.0
 10
-70.7287437536
 20
22.3304456948
 30
0.0
 10
-70.770122458
 20
22.3289557443
 30
0.0
 10
-70.7900604462
 20
22.3279108386
 30
0.0
  0
ELLIPSE
  5
669
100
AcDbEntity
  8
RACCORDO
100
AcDbEllipse
 62
7
  6
CONTINUOUS
 10
-9.875
 20
21.9496569135
 30
0.0
 11
0.0
 21
0.2503430865
 31
0.0
 40
0.9986295348
 41
0.0
 42
1.5707963268
  0
ELLIPSE
  5
66A
100
AcDbEntity
  8
RACCORDO
100
AcDbEllipse
 62
7
  6
CONTINUOUS
 10
8.525
 20
21.9496569135
 30
0.0
 11
-0.0
 21
0.2503430865
 31
0.0
 40
0.9986295348
 41
-1.5707963268
 42
0.0
  0
ELLIPSE
  5
66B
100
AcDbEntity
  8
IMPORT_IGES
100
AcDbEllipse
 62
7
  6
CONTINUOUS
 10
-3.0
 20
-7.4287187079
 30
0.0
 11
0.3
 21
0.0
 31
0.0
 40
0.2679491924
 41
-0.2680195878
 42
-0.0
  0
ELLIPSE
  5
66C
100
AcDbEntity
  8
IMPORT_IGES
100
AcDbEllipse
 62
7
  6
CONTINUOUS
 10
1.65
 20
-7.4287187079
 30
0.0
 11
0.3
 21
-0.0
 31
0.0
 40
0.2679491924
 41
-3.1415926536
 42
-2.8736031011
  0
ELLIPSE
  5
66D
100
AcDbEntity
  8
RACCORDO
100
AcDbEllipse
 62
7
  6
CONTINUOUS
 10
9.974923836
 20
21.891254093
 30
0.0
 11
0.4473055582
 21
-0.2236357461
 31
0.0
 40
0.9998096356
 41
0.4635410001
 42
1.5708581097
  0
ELLIPSE
  5
66E
100
AcDbEntity
  8
RACCORDO
100
AcDbEllipse
 62
7
  6
CONTINUOUS
 10
-11.324923836
 20
-21.891254093
 30
0.0
 11
0.4473055582
 21
-0.2236357461
 31
0.0
 40
0.9998096356
 41
-2.6780516535
 42
-1.5707345439
  0
ELLIPSE
  5
66F
100
AcDbEntity
  8
RACCORDO
100
AcDbEllipse
 62
7
  6
CONTINUOUS
 10
-11.324923836
 20
21.891254093
 30
0.0
 11
0.4473055582
 21
0.2236357461
 31
0.0
 40
0.9998096356
 41
1.5707345439
 42
2.6780516535
  0
ELLIPSE
  5
670
100
AcDbEntity
  8
RACCORDO
100
AcDbEllipse
 62
7
  6
CONTINUOUS
 10
9.974923836
 20
-21.891254093
 30
0.0
 11
0.4473055582
 21
0.2236357461
 31
0.0
 40
0.9998096356
 41
-1.5708581097
 42
-0.4635410001
  0
ELLIPSE
  5
671
100
AcDbEntity
  8
RACCORDO
100
AcDbEllipse
 62
7
  6
CONTINUOUS
 10
5.7844660369
 20
3.9094850761
 30
0.0
 11
-0.0
 21
0.5
 31
0.0
 40
0.0087268678
 41
-3.1328660073
 42
-3.1255397368
  0
ELLIPSE
  5
672
100
AcDbEntity
  8
RACCORDO
100
AcDbEllipse
 62
7
  6
CONTINUOUS
 10
5.7843803371
 20
-5.0093993763
 30
0.0
 11
-0.0
 21
0.5
 31
0.0
 40
0.0087268678
 41
-0.0182549165
 42
-0.0087266463
  0
ELLIPSE
  5
673
100
AcDbEntity
  8
RACCORDO
100
AcDbEllipse
 62
7
  6
CONTINUOUS
 10
2.9843803371
 20
-5.0093993763
 30
0.0
 11
-0.0
 21
0.5
 31
0.0
 40
0.0087268678
 41
-0.0182548059
 42
-0.0087266463
  0
ELLIPSE
  5
674
100
AcDbEntity
  8
RACCORDO
100
AcDbEllipse
 62
7
  6
CONTINUOUS
 10
2.9842179491
 20
-6.6092369883
 30
0.0
 11
-0.0
 21
0.5
 31
0.0
 40
0.0087268678
 41
-0.0214576456
 42
-0.0087266463
  0
ELLIPSE
  5
675
100
AcDbEntity
  8
RACCORDO
100
AcDbEllipse
 62
7
  6
CONTINUOUS
 10
9.7177234819
 20
-22.3344902759
 30
0.0
 11
0.25
 21
0.0
 31
0.0
 40
0.0524077793
 41
0.5261092631
 42
1.5707963268
  0
ELLIPSE
  5
676
100
AcDbEntity
  8
RACCORDO
100
AcDbEllipse
 62
7
  6
CONTINUOUS
 10
-11.0677234819
 20
-22.3344902759
 30
0.0
 11
0.25
 21
0.0
 31
0.0
 40
0.0524077793
 41
1.5707963268
 42
2.6154833905
  0
ELLIPSE
  5
677
100
AcDbEntity
  8
RACCORDO
100
AcDbEllipse
 62
7
  6
CONTINUOUS
 10
9.7177234819
 20
22.3344902759
 30
0.0
 11
0.25
 21
0.0
 31
0.0
 40
0.0524077793
 41
-1.5707963268
 42
-0.5261092631
  0
ELLIPSE
  5
678
100
AcDbEntity
  8
RACCORDO
100
AcDbEllipse
 62
7
  6
CONTINUOUS
 10
-11.0677234819
 20
22.3344902759
 30
0.0
 11
0.25
 21
-0.0
 31
0.0
 40
0.0524077793
 41
-2.6154833905
 42
-1.5707963268
  0
ELLIPSE
  5
679
100
AcDbEntity
  8
RACCORDO
100
AcDbEllipse
 62
7
  6
CONTINUOUS
 10
3.2220826234
 20
22.3737961104
 30
0.0
 11
0.5
 21
-0.0
 31
0.0
 40
0.0524077793
 41
-1.5707963268
 42
-0.0058177642
  0
ELLIPSE
  5
67A
100
AcDbEntity
  8
RACCORDO
100
AcDbEllipse
 62
7
  6
CONTINUOUS
 10
3.2220826234
 20
23.7970910851
 30
0.0
 11
0.5
 21
0.0
 31
0.0
 40
0.0058178298
 41
-0.6464131586
 42
-0.0058177642
  0
ELLIPSE
  5
67B
100
AcDbEntity
  8
RACCORDO
100
AcDbEllipse
 62
7
  6
CONTINUOUS
 10
-4.5720826234
 20
23.7970910851
 30
0.0
 11
0.5
 21
0.0
 31
0.0
 40
0.0058178298
 41
-3.1357748894
 42
-2.495179495
  0
ELLIPSE
  5
67C
100
AcDbEntity
  8
RACCORDO
100
AcDbEllipse
 62
7
  6
CONTINUOUS
 10
-4.5720826234
 20
22.3737961104
 30
0.0
 11
0.5
 21
0.0
 31
0.0
 40
0.0524077793
 41
-3.1357748894
 42
-1.5707963268
  0
ELLIPSE
  5
67D
100
AcDbEntity
  8
RACCORDO
100
AcDbEllipse
 62
7
  6
CONTINUOUS
 10
3.2220826234
 20
-23.7970910851
 30
0.0
 11
0.5
 21
0.0
 31
0.0
 40
0.0058178298
 41
0.0058177642
 42
0.6464131586
  0
ELLIPSE
  5
67E
100
AcDbEntity
  8
RACCORDO
100
AcDbEllipse
 62
7
  6
CONTINUOUS
 10
3.2220826234
 20
-22.3737961104
 30
0.0
 11
0.5
 21
0.0
 31
0.0
 40
0.0524077793
 41
0.0058177642
 42
1.5707963268
  0
ELLIPSE
  5
67F
100
AcDbEntity
  8
RACCORDO
100
AcDbEllipse
 62
7
  6
CONTINUOUS
 10
1.8342179491
 20
-6.6092369883
 30
0.0
 11
-0.0
 21
0.5
 31
0.0
 40
0.0087268678
 41
-0.0214576049
 42
-0.0087266463
  0
ELLIPSE
  5
680
100
AcDbEntity
  8
RACCORDO
100
AcDbEllipse
 62
7
  6
CONTINUOUS
 10
1.8340461476
 20
-7.9590651868
 30
0.0
 11
0.0
 21
0.5
 31
0.0
 40
0.0087268678
 41
-0.024159982
 42
-0.0087266463
  0
ELLIPSE
  5
681
100
AcDbEntity
  8
RACCORDO
100
AcDbEllipse
 62
7
  6
CONTINUOUS
 10
-3.1840461476
 20
-7.9590651868
 30
0.0
 11
-0.0
 21
0.5
 31
0.0
 40
0.0087268678
 41
0.0087266463
 42
0.0241599888
  0
ELLIPSE
  5
682
100
AcDbEntity
  8
RACCORDO
100
AcDbEllipse
 62
7
  6
CONTINUOUS
 10
-3.1842179491
 20
-6.6092369883
 30
0.0
 11
-0.0
 21
0.5
 31
0.0
 40
0.0087268678
 41
0.0087266463
 42
0.0214576049
  0
ELLIPSE
  5
683
100
AcDbEntity
  8
RACCORDO
100
AcDbEllipse
 62
7
  6
CONTINUOUS
 10
-4.3342179491
 20
-6.6092369883
 30
0.0
 11
-0.0
 21
0.5
 31
0.0
 40
0.0087268678
 41
0.0087266463
 42
0.021457651
  0
ELLIPSE
  5
684
100
AcDbEntity
  8
RACCORDO
100
AcDbEllipse
 62
7
  6
CONTINUOUS
 10
-4.3343803371
 20
-5.0093993763
 30
0.0
 11
0.0
 21
0.5
 31
0.0
 40
0.0087268678
 41
0.0087266463
 42
0.0182548059
  0
ELLIPSE
  5
685
100
AcDbEntity
  8
RACCORDO
100
AcDbEllipse
 62
7
  6
CONTINUOUS
 10
-4.5720826234
 20
-22.3737961104
 30
0.0
 11
0.5
 21
-0.0
 31
0.0
 40
0.0524077793
 41
1.5707963268
 42
3.1357748894
  0
ELLIPSE
  5
686
100
AcDbEntity
  8
RACCORDO
100
AcDbEllipse
 62
7
  6
CONTINUOUS
 10
-4.5720826234
 20
-23.7970910851
 30
0.0
 11
0.5
 21
0.0
 31
0.0
 40
0.0058178298
 41
2.495179495
 42
3.1357748894
  0
ELLIPSE
  5
687
100
AcDbEntity
  8
RACCORDO
100
AcDbEllipse
 62
7
  6
CONTINUOUS
 10
-7.1344660369
 20
3.9094850761
 30
0.0
 11
0.0
 21
0.5
 31
0.0
 40
0.0087268678
 41
-3.1576455584
 42
-3.1503192998
  0
ELLIPSE
  5
688
100
AcDbEntity
  8
RACCORDO
100
AcDbEllipse
 62
7
  6
CONTINUOUS
 10
-7.1343803371
 20
-5.0093993763
 30
0.0
 11
-0.0
 21
0.5
 31
0.0
 40
0.0087268678
 41
0.0087266463
 42
0.0182549368
  0
ELLIPSE
  5
689
100
AcDbEntity
  8
RACCORDO
100
AcDbEllipse
 62
7
  6
CONTINUOUS
 10
-9.1822765181
 20
22.3344902759
 30
0.0
 11
0.25
 21
0.0
 31
0.0
 40
0.0524077793
 41
-1.5707963268
 42
-0.0058177642
  0
ELLIPSE
  5
68A
100
AcDbEntity
  8
RACCORDO
100
AcDbEllipse
 62
7
  6
CONTINUOUS
 10
7.8322765181
 20
-22.3344902759
 30
0.0
 11
0.25
 21
-0.0
 31
0.0
 40
0.0524077793
 41
1.5707963268
 42
3.1357748894
  0
ELLIPSE
  5
68B
100
AcDbEntity
  8
RACCORDO
100
AcDbEllipse
 62
7
  6
CONTINUOUS
 10
7.8322765181
 20
22.3344902759
 30
0.0
 11
0.25
 21
0.0
 31
0.0
 40
0.0524077793
 41
-3.1357748894
 42
-1.5707963268
  0
ELLIPSE
  5
68C
100
AcDbEntity
  8
RACCORDO
100
AcDbEllipse
 62
7
  6
CONTINUOUS
 10
-9.1822765181
 20
-22.3344902759
 30
0.0
 11
0.25
 21
0.0
 31
0.0
 40
0.0524077793
 41
0.0058177642
 42
1.5707963268
  0
ELLIPSE
  5
68D
100
AcDbEntity
  8
RACCORDO
100
AcDbEllipse
 62
7
  6
CONTINUOUS
 10
-58.9145173042
 20
-22.0658992808
 30
0.0
 11
-0.0
 21
0.5
 31
0.0
 40
1.0
 41
-0.9102282757
 42
-0.0174532925
  0
ELLIPSE
  5
68E
100
AcDbEntity
  8
RACCORDO
100
AcDbEllipse
 62
7
  6
CONTINUOUS
 10
-58.9145173042
 20
22.0658992808
 30
0.0
 11
0.5
 21
-0.0
 31
0.0
 40
1.0
 41
-1.5533430343
 42
-0.6605680511
  0
ENDSEC
  0
SECTION
  2
OBJECTS
  0
DICTIONARY
  5
C
100
AcDbDictionary
280
0
281
1
  3
ACAD_GROUP
350
D
  3
ACAD_MLINESTYLE
350
17
  3
ACAD_LAYOUT
350
1A
  3
ACAD_PLOTSETTINGS
350
19
  3
ACAD_PLOTSTYLENAME
350
E
  0
DICTIONARY
  5
D
102
{ACAD_REACTORS
330
C
102
}
100
AcDbDictionary
280
0
281
1
  0
ACDBDICTIONARYWDFLT
  5
E
102
{ACAD_REACTORS
330
C
102
}
100
AcDbDictionary
281
1
  3
Normal
350
F
100
AcDbDictionaryWithDefault
340
F
  0
DICTIONARY
  5
17
102
{ACAD_REACTORS
330
C
102
}
100
AcDbDictionary
280
0
281
1
  3
Standard
350
18
  0
DICTIONARY
  5
19
102
{ACAD_REACTORS
330
C
102
}
100
AcDbDictionary
281
1
  0
DICTIONARY
  5
1A
102
{ACAD_REACTORS
330
C
102
}
100
AcDbDictionary
281
1
  3
Model
350
68F
  3
Layout1
350
690
  0
ACDBPLACEHOLDER
  5
F
102
{ACAD_REACTORS
330
E
102
}
  0
MLINESTYLE
  5
18
102
{ACAD_REACTORS
330
17
102
}
100
AcDbMlineStyle
  2
STANDARD
 70
0
  3

 62
256
 51
90.0
 52
90.0
 71
2
 49
0.5
 62
256
  6
BYLAYER
 49
-0.5
 62
256
  6
BYLAYER
  0
LAYOUT
  5
68F
102
{ACAD_REACTORS
330
1A
102
}
100
AcDbPlotSettings
  1

  2
none_device
  4
ISO_A4_(297.00_x_210.00_MM)
  6

 40
0.0
 41
0.0
 42
0.0
 43
0.0
 44
297.0
 45
210.0
 46
0.0
 47
0.0
 48
0.0
 49
0.0
140
0.0
141
0.0
142
1.0
143
1.0
 70
1024
 72
1
 73
0
 74
0
  7

 75
0
147
1.0
148
0.0
149
0.0
100
AcDbLayout
  1
Model
 70
0
 71
0
 10
0.0
 20
0.0
 11
297.0
 21
210.0
 12
0.0
 22
0.0
 32
0.0
 14
0.0
 24
0.0
 34
0.0
 15
0.0
 25
0.0
 35
0.0
146
0.0
 13
0.0
 23
0.0
 33
0.0
 16
1.0
 26
0.0
 36
0.0
 17
0.0
 27
1.0
 37
0.0
 76
0
330
21D
345
0
346
0
  0
LAYOUT
  5
690
102
{ACAD_REACTORS
330
1A
102
}
100
AcDbPlotSettings
  1

  2
none_device
  4
ISO_A4_(297.00_x_210.00_MM)
  6

 40
0.0
 41
0.0
 42
0.0
 43
0.0
 44
297.0
 45
210.0
 46
0.0
 47
0.0
 48
0.0
 49
0.0
140
0.0
141
0.0
142
1.0
143
1.0
 70
0
 72
1
 73
0
 74
0
  7

 75
0
147
1.0
148
0.0
149
0.0
100
AcDbLayout
  1
Layout1
 70
0
 71
1
 10
0.0
 20
0.0
 11
297.0
 21
210.0
 12
0.0
 22
0.0
 32
0.0
 14
0.0
 24
0.0
 34
0.0
 15
0.0
 25
0.0
 35
0.0
146
0.0
 13
0.0
 23
0.0
 33
0.0
 16
1.0
 26
0.0
 36
0.0
 17
0.0
 27
1.0
 37
0.0
 76
0
330
21E
345
0
346
0
  0
ENDSEC
  0
EOF
