  0
SECTION
  2
HEADER
  9
$ACADVER
  1
AC1024
  9
$DWGCODEPAGE
  3
ANSI_1252
  9
$EXTMAX
 10
297.0
 20
210.0
 30
0.0
  9
$EXTMIN
 10
0.0
 20
0.0
 30
0.0
  9
$LIMMIN
 10
0.0
 20
0.0
  9
$LIMMAX
 10
297.0
 20
210.0
  9
$VIEWCTR
 10
148.5
 20
105.0
  9
$VIEWSIZE
 40
210.0
  9
$CLAYER
  8
0
  9
$LTSCALE
 40
16.335
  9
$CELTYPE
  6
BYLAYER
  9
$DIMSCALE
 40
1.0
  9
$DIMASZ
 40
3.0
  9
$DIMEXO
 40
0.5
  9
$DIMDLI
 40
11.286
  9
$DIMEXE
 40
1.5
  9
$DIMCEN
 40
2.673
  9
$DIMLFAC
 40
1.0
  9
$DIMBLK
  1
_FILLED
  9
$DIMALT
 70
0
  9
$DIMALTF
 40
0.0393700787
  9
$DIMTXT
 40
3.0
  9
$DIMTOL
 70
1
  9
$DIMLIM
 70
0
  9
$DIMTFAC
 40
1.0
  9
$DIMTP
 40
0.01
  9
$DIMTM
 40
0.01
  9
$DIMGAP
 40
0.625
  9
$DIMDSEP
 70
44
  9
$AUNITS
 70
0
  9
$PDMODE
 70
3
  9
$PDSIZE
 40
3.0
  9
$HANDSEED
  5
694
  9
$TILEMODE
 70
1
  9
$MEASUREMENT
 70
1
  9
$INSUNITS
 70
4
  0
ENDSEC
  0
SECTION
  2
CLASSES
  0
CLASS
  1
ACDBDICTIONARYWDFLT
  2
AcDbDictionaryWithDefault
  3
AutoCAD 2000
 90
0
 91
1
280
0
281
0
  0
CLASS
  1
ACDBPLACEHOLDER
  2
AcDbPlaceHolder
  3
AutoCAD 2000
 90
0
 91
1
280
0
281
0
  0
CLASS
  1
LAYOUT
  2
AcDbLayout
  3
AutoCAD 2000
 90
0
 91
0
280
0
281
0
  0
ENDSEC
  0
SECTION
  2
TABLES
  0
TABLE
  2
VPORT
  5
8
100
AcDbSymbolTable
 70
2
  0
VPORT
  5
1F4
100
AcDbSymbolTableRecord
100
AcDbViewportTableRecord
  2
*ACTIVE
 70
0
 10
0.0
 20
0.0
 11
1.0
 21
1.0
 12
148.5
 22
105.0
 13
0.0
 23
0.0
 14
1.0
 24
1.0
 15
0.0
 25
0.0
 16
0.0
 26
0.0
 36
1.0
 17
0.0
 27
0.0
 37
0.0
 40
210.0
 41
1.4142857143
 42
50.0
 43
0.0
 44
0.0
 50
0.0
 51
0.0
 71
0
 72
100
 73
1
 74
1
 75
0
 76
0
 77
0
 78
0
  0
ENDTAB
  0
TABLE
  2
LTYPE
  5
5
100
AcDbSymbolTable
 70
6
  0
LTYPE
  5
14
100
AcDbSymbolTableRecord
100
AcDbLinetypeTableRecord
  2
BYBLOCK
 70
0
  3

 72
65
 73
0
 40
0.0
  0
LTYPE
  5
15
100
AcDbSymbolTableRecord
100
AcDbLinetypeTableRecord
  2
BYLAYER
 70
0
  3

 72
65
 73
0
 40
0.0
  0
LTYPE
  5
16
100
AcDbSymbolTableRecord
100
AcDbLinetypeTableRecord
  2
CONTINUOUS
 70
64
  3
Solid line
 72
65
 73
0
 40
0.0
  0
LTYPE
  5
1F5
100
AcDbSymbolTableRecord
100
AcDbLinetypeTableRecord
  2
CENTER
 70
64
  3
____ _ ____ _ ____ _ ____ _ ____ _ ____ _ ____
 72
65
 73
4
 40
0.6
 49
0.375
 74
0
 49
-0.075
 74
0
 49
0.075
 74
0
 49
-0.075
 74
0
  0
LTYPE
  5
1F6
100
AcDbSymbolTableRecord
100
AcDbLinetypeTableRecord
  2
HIDDEN
 70
64
  3
- - - - - - - - - - - - - - - - - - - -
 72
65
 73
2
 40
0.2
 49
0.1
 74
0
 49
-0.1
 74
0
  0
LTYPE
  5
1F7
100
AcDbSymbolTableRecord
100
AcDbLinetypeTableRecord
  2
PHANTOM
 70
64
  3
_____ _ _ _____ _ _ _____ _ _ _____
 72
65
 73
6
 40
0.8
 49
0.45
 74
0
 49
-0.05
 74
0
 49
0.1
 74
0
 49
-0.05
 74
0
 49
0.1
 74
0
 49
-0.05
 74
0
  0
LTYPE
  5
1F8
100
AcDbSymbolTableRecord
100
AcDbLinetypeTableRecord
  2
DOT
 70
64
  3
. . . . . . . . . . . . . . . . . . . .
 72
65
 73
2
 40
0.2
 49
0.1
 74
0
 49
-0.1
 74
0
  0
LTYPE
  5
1F9
100
AcDbSymbolTableRecord
100
AcDbLinetypeTableRecord
  2
DASHED
 70
64
  3
- - - - - - - - - - - - - - - - - - - -
 72
65
 73
2
 40
0.2
 49
0.1
 74
0
 49
-0.1
 74
0
  0
ENDTAB
  0
TABLE
  2
LAYER
  5
2
100
AcDbSymbolTable
 70
36
  0
LAYER
  5
10
100
AcDbSymbolTableRecord
100
AcDbLayerTableRecord
  2
0
 70
0
 62
7
  6
CONTINUOUS
370
-3
390
F
  0
LAYER
  5
1FA
100
AcDbSymbolTableRecord
100
AcDbLayerTableRecord
  2
DEFAULT_1
 70
0
 62
7
  6
CENTER
370
-3
390
F
  0
LAYER
  5
1FB
100
AcDbSymbolTableRecord
100
AcDbLayerTableRecord
  2
DEFAULT_2
 70
0
 62
7
  6
HIDDEN
370
-3
390
F
  0
LAYER
  5
1FC
100
AcDbSymbolTableRecord
100
AcDbLayerTableRecord
  2
DEFAULT_3
 70
0
 62
7
  6
PHANTOM
370
-3
390
F
  0
LAYER
  5
1FD
100
AcDbSymbolTableRecord
100
AcDbLayerTableRecord
  2
06___PRT_ALL_SURFS
 70
0
 62
7
  6
CONTINUOUS
370
-3
390
F
  0
LAYER
  5
1FE
100
AcDbSymbolTableRecord
100
AcDbLayerTableRecord
  2
ASSI
 70
0
 62
7
  6
CONTINUOUS
370
-3
390
F
  0
LAYER
  5
1FF
100
AcDbSymbolTableRecord
100
AcDbLayerTableRecord
  2
COLOR3
 70
0
 62
7
  6
CONTINUOUS
370
-3
390
F
  0
LAYER
  5
200
100
AcDbSymbolTableRecord
100
AcDbLayerTableRecord
  2
COLOR4
 70
0
 62
7
  6
CONTINUOUS
370
-3
390
F
  0
LAYER
  5
201
100
AcDbSymbolTableRecord
100
AcDbLayerTableRecord
  2
COLOR5
 70
0
 62
7
  6
CONTINUOUS
370
-3
390
F
  0
LAYER
  5
202
100
AcDbSymbolTableRecord
100
AcDbLayerTableRecord
  2
COORDINATE
 70
0
 62
7
  6
CONTINUOUS
370
-3
390
F
  0
LAYER
  5
203
100
AcDbSymbolTableRecord
100
AcDbLayerTableRecord
  2
COORD_ORIGINE
 70
0
 62
7
  6
CONTINUOUS
370
-3
390
F
  0
LAYER
  5
204
100
AcDbSymbolTableRecord
100
AcDbLayerTableRecord
  2
COPY_PUBLISH
 70
0
 62
7
  6
CONTINUOUS
370
-3
390
F
  0
LAYER
  5
205
100
AcDbSymbolTableRecord
100
AcDbLayerTableRecord
  2
COSMETICI
 70
0
 62
7
  6
CONTINUOUS
370
-3
390
F
  0
LAYER
  5
206
100
AcDbSymbolTableRecord
100
AcDbLayerTableRecord
  2
CURVE
 70
0
 62
7
  6
CONTINUOUS
370
-3
390
F
  0
LAYER
  5
207
100
AcDbSymbolTableRecord
100
AcDbLayerTableRecord
  2
DRAFT
 70
0
 62
7
  6
CONTINUOUS
370
-3
390
F
  0
LAYER
  5
208
100
AcDbSymbolTableRecord
100
AcDbLayerTableRecord
  2
IMPORT
 70
0
 62
7
  6
CONTINUOUS
370
-3
390
F
  0
LAYER
  5
209
100
AcDbSymbolTableRecord
100
AcDbLayerTableRecord
  2
IMPORT_IGES
 70
0
 62
7
  6
CONTINUOUS
370
-3
390
F
  0
LAYER
  5
20A
100
AcDbSymbolTableRecord
100
AcDbLayerTableRecord
  2
INCISIONI_LASER
 70
0
 62
7
  6
CONTINUOUS
370
-3
390
F
  0
LAYER
  5
20B
100
AcDbSymbolTableRecord
100
AcDbLayerTableRecord
  2
INTF_1
 70
0
 62
7
  6
CONTINUOUS
370
-3
390
F
  0
LAYER
  5
20C
100
AcDbSymbolTableRecord
100
AcDbLayerTableRecord
  2
INTF_11
 70
0
 62
7
  6
CONTINUOUS
370
-3
390
F
  0
LAYER
  5
20D
100
AcDbSymbolTableRecord
100
AcDbLayerTableRecord
  2
INTF_12
 70
0
 62
7
  6
CONTINUOUS
370
-3
390
F
  0
LAYER
  5
20E
100
AcDbSymbolTableRecord
100
AcDbLayerTableRecord
  2
INTF_BLANK
 70
0
 62
7
  6
CONTINUOUS
370
-3
390
F
  0
LAYER
  5
20F
100
AcDbSymbolTableRecord
100
AcDbLayerTableRecord
  2
LAY0001
 70
0
 62
7
  6
CONTINUOUS
370
-3
390
F
  0
LAYER
  5
210
100
AcDbSymbolTableRecord
100
AcDbLayerTableRecord
  2
NOTE
 70
0
 62
7
  6
CONTINUOUS
370
-3
390
F
  0
LAYER
  5
211
100
AcDbSymbolTableRecord
100
AcDbLayerTableRecord
  2
PIANI
 70
0
 62
7
  6
CONTINUOUS
370
-3
390
F
  0
LAYER
  5
212
100
AcDbSymbolTableRecord
100
AcDbLayerTableRecord
  2
PIANI_ORIGINE
 70
0
 62
7
  6
CONTINUOUS
370
-3
390
F
  0
LAYER
  5
213
100
AcDbSymbolTableRecord
100
AcDbLayerTableRecord
  2
PIANI_RIFERIMENTO
 70
0
 62
7
  6
CONTINUOUS
370
-3
390
F
  0
LAYER
  5
214
100
AcDbSymbolTableRecord
100
AcDbLayerTableRecord
  2
PUNTI
 70
0
 62
7
  6
CONTINUOUS
370
-3
390
F
  0
LAYER
  5
215
100
AcDbSymbolTableRecord
100
AcDbLayerTableRecord
  2
RACCORDO
 70
0
 62
7
  6
CONTINUOUS
370
-3
390
F
  0
LAYER
  5
216
100
AcDbSymbolTableRecord
100
AcDbLayerTableRecord
  2
SIMBOLI
 70
0
 62
7
  6
CONTINUOUS
370
-3
390
F
  0
LAYER
  5
217
100
AcDbSymbolTableRecord
100
AcDbLayerTableRecord
  2
SMUSSO
 70
0
 62
7
  6
CONTINUOUS
370
-3
390
F
  0
LAYER
  5
218
100
AcDbSymbolTableRecord
100
AcDbLayerTableRecord
  2
SNAPLINE
 70
0
 62
7
  6
CONTINUOUS
370
-3
390
F
  0
LAYER
  5
219
100
AcDbSymbolTableRecord
100
AcDbLayerTableRecord
  2
SUPERFICI
 70
0
 62
7
  6
CONTINUOUS
370
-3
390
F
  0
LAYER
  5
21A
100
AcDbSymbolTableRecord
100
AcDbLayerTableRecord
  2
TRASH
 70
0
 62
7
  6
CONTINUOUS
370
-3
390
F
  0
LAYER
  5
21B
100
AcDbSymbolTableRecord
100
AcDbLayerTableRecord
  2
XSEC_DATUMS
 70
0
 62
7
  6
CONTINUOUS
370
-3
390
F
  0
LAYER
  5
21C
100
AcDbSymbolTableRecord
100
AcDbLayerTableRecord
  2
_BLACK_HOLE
 70
0
 62
7
  6
CONTINUOUS
370
-3
390
F
  0
LAYER
  5
21D
100
AcDbSymbolTableRecord
100
AcDbLayerTableRecord
  2
___SHELL
 70
0
 62
7
  6
CONTINUOUS
370
-3
390
F
  0
ENDTAB
  0
TABLE
  2
STYLE
  5
3
100
AcDbSymbolTable
 70
1
  0
STYLE
  5
11
100
AcDbSymbolTableRecord
100
AcDbTextStyleTableRecord
  2
STANDARD
 70
0
 40
0.0
 41
0.8
 50
0.0
 71
0
 42
0.2
  3
txt
  4

  0
STYLE
  5
21E
100
AcDbSymbolTableRecord
100
AcDbTextStyleTableRecord
  2
TEXTSTYLE_1
 70
0
 40
0.0
 41
0.8
 50
0.0
 71
0
 42
0.2
  3
gdt
  4

  0
ENDTAB
  0
TABLE
  2
VIEW
  5
6
100
AcDbSymbolTable
 70
0
  0
ENDTAB
  0
TABLE
  2
UCS
  5
7
100
AcDbSymbolTable
 70
0
  0
ENDTAB
  0
TABLE
  2
APPID
  5
9
100
AcDbSymbolTable
 70
1
  0
APPID
  5
21F
100
AcDbSymbolTableRecord
100
AcDbRegAppTableRecord
  2
ACAD
 70
0
  0
ENDTAB
  0
TABLE
  2
BLOCK_RECORD
  5
1
100
AcDbSymbolTable
 70
0
  0
BLOCK_RECORD
  5
220
100
AcDbSymbolTableRecord
100
AcDbBlockTableRecord
  2
*Model_Space
  0
BLOCK_RECORD
  5
221
100
AcDbSymbolTableRecord
100
AcDbBlockTableRecord
  2
*Paper_Space
  0
BLOCK_RECORD
  5
222
100
AcDbSymbolTableRecord
100
AcDbBlockTableRecord
  2
_FILLED
  0
BLOCK_RECORD
  5
223
100
AcDbSymbolTableRecord
100
AcDbBlockTableRecord
  2
*D0
  0
BLOCK_RECORD
  5
224
100
AcDbSymbolTableRecord
100
AcDbBlockTableRecord
  2
*D1
  0
BLOCK_RECORD
  5
225
100
AcDbSymbolTableRecord
100
AcDbBlockTableRecord
  2
*D2
  0
BLOCK_RECORD
  5
226
100
AcDbSymbolTableRecord
100
AcDbBlockTableRecord
  2
*D3
  0
ENDTAB
  0
TABLE
  2
DIMSTYLE
  5
A
100
AcDbSymbolTable
 70
1
100
AcDbDimStyleTable
 71
0
  0
DIMSTYLE
105
227
100
AcDbSymbolTableRecord
100
AcDbDimStyleTableRecord
  2
STANDARD
 70
0
  3

  4

 40
1.0
 41
3.0
 42
0.5
 43
0.38
 44
1.5
 45
0.0
 46
0.0
 47
0.01
 48
0.01
140
3.0
141
0.0
142
0.0
143
25.4
144
1.0
145
0.0
146
1.0
147
0.625
 71
1
 72
0
 73
0
 74
0
 75
0
 76
0
 77
1
 78
8
 79
2
170
0
171
1
172
0
173
0
174
0
175
0
176
0
177
0
178
0
270
2
179
1
271
2
272
2
273
2
274
2
275
0
280
0
281
0
282
0
283
1
284
8
285
0
286
0
287
3
288
0
340
11
278
44
341
222
342
222
343
222
344
222
  0
DIMSTYLE
105
228
100
AcDbSymbolTableRecord
100
AcDbDimStyleTableRecord
  2
DIMSTYLE_1
 70
0
  3

  4

 40
1.0
 41
3.0
 42
0.5
 43
0.38
 44
1.5
 45
0.0
 46
0.0
 47
0.0
 48
0.0
140
3.0
141
0.0
142
0.0
143
25.4
144
1.0
145
0.0
146
1.0
147
0.75
 71
0
 72
0
 73
0
 74
0
 75
0
 76
0
 77
1
 78
8
 79
2
170
0
171
1
172
0
173
0
174
0
175
0
176
0
177
0
178
0
270
2
179
1
271
1
272
2
273
2
274
2
275
0
280
0
281
0
282
0
283
1
284
8
285
0
286
0
287
3
288
0
340
11
278
44
341
222
342
222
343
222
344
222
  0
DIMSTYLE
105
229
100
AcDbSymbolTableRecord
100
AcDbDimStyleTableRecord
  2
DIMSTYLE_2
 70
0
  3

  4

 40
1.0
 41
3.0
 42
0.5
 43
0.38
 44
1.5
 45
0.0
 46
0.0
 47
0.0
 48
0.0
140
3.0
141
0.0
142
0.0
143
25.4
144
1.0
145
0.0
146
1.0
147
0.75
 71
0
 72
0
 73
0
 74
0
 75
0
 76
0
 77
1
 78
8
 79
2
170
0
171
1
172
0
173
0
174
0
175
0
176
0
177
0
178
0
270
2
179
2
271
2
272
2
273
2
274
2
275
0
280
0
281
0
282
0
283
1
284
8
285
0
286
0
287
3
288
0
340
11
278
44
341
222
342
222
343
222
344
222
  0
ENDTAB
  0
ENDSEC
  0
SECTION
  2
BLOCKS
  0
BLOCK
  5
20
100
AcDbEntity
  8
0
100
AcDbBlockBegin
  2
*Model_Space
 70
0
 10
0.0
 20
0.0
 30
0.0
  3
*Model_Space
  1

  0
ENDBLK
  5
21
100
AcDbEntity
  8
0
100
AcDbBlockEnd
  0
BLOCK
  5
1C
100
AcDbEntity
  8
0
100
AcDbBlockBegin
  2
*Paper_Space
 70
0
 10
0.0
 20
0.0
 30
0.0
  3
*Paper_Space
  1

  0
ENDBLK
  5
1D
100
AcDbEntity
  8
0
100
AcDbBlockEnd
  0
BLOCK
  5
22A
100
AcDbEntity
  8
0
100
AcDbBlockBegin
  2
_FILLED
 70
64
 10
0.0
 20
0.0
 30
0.0
  3
_FILLED
  1

  0
SOLID
  5
22B
100
AcDbEntity
  8
0
  6
BYBLOCK
 62
0
100
AcDbTrace
 10
0.0
 20
0.0
 30
0.0
 11
-1.0
 21
0.3166666667
 31
0.0
 12
-1.0
 22
-0.3166666667
 32
0.0
 13
-1.0
 23
-0.3166666667
 33
0.0
  0
ENDBLK
  5
22C
100
AcDbEntity
  8
0
  6
BYBLOCK
 62
0
100
AcDbBlockEnd
  0
BLOCK
  5
22D
100
AcDbEntity
  8
0
100
AcDbBlockBegin
 62
7
  6
CONTINUOUS
  2
*D0
 70
65
 10
0.0
 20
0.0
 30
0.0
  3
*D0
  1

  0
MTEXT
  5
22E
100
AcDbEntity
  8
0
100
AcDbMText
 62
7
  6
CONTINUOUS
  7
STANDARD
 71
2
 72
1
 10
-0.675
 20
36.25
 30
0.0
 11
1.0
 21
0.0
 31
0.0
 73
2
 44
0.9
  1
{\ftxt;\W0.0001;\H0.0001;\~}{\ftxt;\W2.8571428571;\H3.0; }{\ftxt;\W0.0001;\H0.0001;\~}
 40
3.0
 41
12.8571428571
  0
LINE
  5
22F
100
AcDbEntity
  8
0
100
AcDbLine
 62
7
  6
CONTINUOUS
 10
-11.825
 20
25.0124279158
 30
0.0
 11
-11.825
 21
34.0
 31
0.0
  0
LINE
  5
230
100
AcDbEntity
  8
0
100
AcDbLine
 62
7
  6
CONTINUOUS
 10
10.475
 20
25.0124279158
 30
0.0
 11
10.475
 21
34.0
 31
0.0
  0
LINE
  5
231
100
AcDbEntity
  8
0
100
AcDbLine
 62
7
  6
CONTINUOUS
 10
-11.825
 20
32.5
 30
0.0
 11
-0.675
 21
32.5
 31
0.0
  0
LINE
  5
232
100
AcDbEntity
  8
0
100
AcDbLine
 62
7
  6
CONTINUOUS
 10
10.475
 20
32.5
 30
0.0
 11
-0.675
 21
32.5
 31
0.0
  0
INSERT
  5
233
100
AcDbEntity
  8
0
100
AcDbBlockReference
 62
7
  6
CONTINUOUS
  2
_FILLED
 10
-11.825
 20
32.5
 30
0.0
 41
3.0
 42
3.0
 43
3.0
 50
180.0
  0
INSERT
  5
234
100
AcDbEntity
  8
0
100
AcDbBlockReference
 62
7
  6
CONTINUOUS
  2
_FILLED
 10
10.475
 20
32.5
 30
0.0
 41
3.0
 42
3.0
 43
3.0
  0
ENDBLK
  5
235
100
AcDbEntity
  8
0
  6
BYBLOCK
 62
0
100
AcDbBlockEnd
  0
BLOCK
  5
236
100
AcDbEntity
  8
0
100
AcDbBlockBegin
 62
7
  6
CONTINUOUS
  2
*D1
 70
65
 10
0.0
 20
0.0
 30
0.0
  3
*D1
  1

  0
MTEXT
  5
237
100
AcDbEntity
  8
0
100
AcDbMText
 62
7
  6
CONTINUOUS
  7
STANDARD
 71
2
 72
1
 10
-59.0145173042
 20
46.25
 30
0.0
 11
1.0
 21
0.0
 31
0.0
 73
2
 44
0.9
  1
{\ftxt;\W0.0001;\H0.0001;\~}{\ftxt;\W2.8571428571;\H3.0; }{\ftxt;\W0.0001;\H0.0001;\~}
 40
3.0
 41
12.8571428571
  0
LINE
  5
238
100
AcDbEntity
  8
0
100
AcDbLine
 62
7
  6
CONTINUOUS
 10
-39.1145173042
 20
-5.9502977476
 30
0.0
 11
-39.1145173042
 21
44.0
 31
0.0
  0
LINE
  5
239
100
AcDbEntity
  8
0
100
AcDbLine
 62
7
  6
CONTINUOUS
 10
-78.9145173042
 20
0.5
 30
0.0
 11
-78.9145173042
 21
44.0
 31
0.0
  0
LINE
  5
23A
100
AcDbEntity
  8
0
100
AcDbLine
 62
7
  6
CONTINUOUS
 10
-39.1145173042
 20
42.5
 30
0.0
 11
-59.0145173042
 21
42.5
 31
0.0
  0
LINE
  5
23B
100
AcDbEntity
  8
0
100
AcDbLine
 62
7
  6
CONTINUOUS
 10
-78.9145173042
 20
42.5
 30
0.0
 11
-59.0145173042
 21
42.5
 31
0.0
  0
INSERT
  5
23C
100
AcDbEntity
  8
0
100
AcDbBlockReference
 62
7
  6
CONTINUOUS
  2
_FILLED
 10
-39.1145173042
 20
42.5
 30
0.0
 41
3.0
 42
3.0
 43
3.0
  0
INSERT
  5
23D
100
AcDbEntity
  8
0
100
AcDbBlockReference
 62
7
  6
CONTINUOUS
  2
_FILLED
 10
-78.9145173042
 20
42.5
 30
0.0
 41
3.0
 42
3.0
 43
3.0
 50
180.0
  0
ENDBLK
  5
23E
100
AcDbEntity
  8
0
  6
BYBLOCK
 62
0
100
AcDbBlockEnd
  0
BLOCK
  5
23F
100
AcDbEntity
  8
0
100
AcDbBlockBegin
 62
7
  6
CONTINUOUS
  2
*D2
 70
65
 10
0.0
 20
0.0
 30
0.0
  3
*D2
  1

  0
MTEXT
  5
240
100
AcDbEntity
  8
0
100
AcDbMText
 62
7
  6
CONTINUOUS
  7
STANDARD
 71
2
 72
1
 10
-53.7770173042
 20
36.25
 30
0.0
 11
1.0
 21
0.0
 31
0.0
 73
2
 44
0.9
  1
{\ftxt;\W0.0001;\H0.0001;\~}{\ftxt;\W2.8571428571;\H3.0; }{\ftxt;\W0.0001;\H0.0001;\~}
 40
3.0
 41
12.8571428571
  0
LINE
  5
241
100
AcDbEntity
  8
0
100
AcDbLine
 62
7
  6
CONTINUOUS
 10
-68.4145173042
 20
24.7456323968
 30
0.0
 11
-68.4145173042
 21
34.0
 31
0.0
  0
LINE
  5
242
100
AcDbEntity
  8
0
100
AcDbLine
 62
7
  6
CONTINUOUS
 10
-39.1395173042
 20
2.2061812323
 30
0.0
 11
-39.1395173042
 21
34.0
 31
0.0
  0
LINE
  5
243
100
AcDbEntity
  8
0
100
AcDbLine
 62
7
  6
CONTINUOUS
 10
-68.4145173042
 20
32.5
 30
0.0
 11
-53.7770173042
 21
32.5
 31
0.0
  0
LINE
  5
244
100
AcDbEntity
  8
0
100
AcDbLine
 62
7
  6
CONTINUOUS
 10
-39.1395173042
 20
32.5
 30
0.0
 11
-53.7770173042
 21
32.5
 31
0.0
  0
INSERT
  5
245
100
AcDbEntity
  8
0
100
AcDbBlockReference
 62
7
  6
CONTINUOUS
  2
_FILLED
 10
-68.4145173042
 20
32.5
 30
0.0
 41
3.0
 42
3.0
 43
3.0
 50
180.0
  0
INSERT
  5
246
100
AcDbEntity
  8
0
100
AcDbBlockReference
 62
7
  6
CONTINUOUS
  2
_FILLED
 10
-39.1395173042
 20
32.5
 30
0.0
 41
3.0
 42
3.0
 43
3.0
  0
ENDBLK
  5
247
100
AcDbEntity
  8
0
  6
BYBLOCK
 62
0
100
AcDbBlockEnd
  0
BLOCK
  5
248
100
AcDbEntity
  8
0
100
AcDbBlockBegin
 62
7
  6
CONTINUOUS
  2
*D3
 70
65
 10
0.0
 20
0.0
 30
0.0
  3
*D3
  1

  0
MTEXT
  5
249
100
AcDbEntity
  8
0
100
AcDbMText
 62
7
  6
CONTINUOUS
  7
STANDARD
 71
2
 72
1
 10
16.075
 20
0.0
 30
0.0
 11
0.0
 21
1.0
 31
0.0
 73
2
 44
0.9
  1
{\ftxt;\W0.0001;\H0.0001;\~}{\ftxt;\W1.5714285714;\H3.0; }{\ftxt;\W0.0001;\H0.0001;\~}
 40
3.0
 41
7.0714285714
  0
LINE
  5
24A
100
AcDbEntity
  8
0
100
AcDbLine
 62
7
  6
CONTINUOUS
 10
10.2250042308
 20
-24.5
 30
0.0
 11
21.325
 21
-24.5
 31
0.0
  0
LINE
  5
24B
100
AcDbEntity
  8
0
100
AcDbLine
 62
7
  6
CONTINUOUS
 10
8.3249957692
 20
24.5
 30
0.0
 11
21.325
 21
24.5
 31
0.0
  0
LINE
  5
24C
100
AcDbEntity
  8
0
100
AcDbLine
 62
7
  6
CONTINUOUS
 10
19.825
 20
-24.5
 30
0.0
 11
19.825
 21
0.0
 31
0.0
  0
LINE
  5
24D
100
AcDbEntity
  8
0
100
AcDbLine
 62
7
  6
CONTINUOUS
 10
19.825
 20
24.5
 30
0.0
 11
19.825
 21
0.0
 31
0.0
  0
INSERT
  5
24E
100
AcDbEntity
  8
0
100
AcDbBlockReference
 62
7
  6
CONTINUOUS
  2
_FILLED
 10
19.825
 20
-24.5
 30
0.0
 41
3.0
 42
3.0
 43
3.0
 50
270.0
  0
INSERT
  5
24F
100
AcDbEntity
  8
0
100
AcDbBlockReference
 62
7
  6
CONTINUOUS
  2
_FILLED
 10
19.825
 20
24.5
 30
0.0
 41
3.0
 42
3.0
 43
3.0
 50
90.0
  0
ENDBLK
  5
250
100
AcDbEntity
  8
0
  6
BYBLOCK
 62
0
100
AcDbBlockEnd
  0
ENDSEC
  0
SECTION
  2
ENTITIES
  0
DIMENSION
  5
251
100
AcDbEntity
  8
0
100
AcDbDimension
 62
7
  6
CONTINUOUS
  2
*D0
 10
10.475
 20
32.5
 30
0.0
 11
-1.1035714417
 21
32.5
 31
0.0
 70
160
 71
2
 72
2
 41
0.9
 42
22.3
  1
{\ftxt;\W0.0001;\H0.0001;\~}{\ftxt;\W2.8571428571;\H3.0; }{\ftxt;\W0.0001;\H0.0001;\~}
  3
DIMSTYLE_1
100
AcDbAlignedDimension
 13
-11.825
 23
24.5124279158
 33
0.0
 14
10.475
 24
24.5124279158
 34
0.0
100
AcDbRotatedDimension
  0
DIMENSION
  5
252
100
AcDbEntity
  8
0
100
AcDbDimension
 62
7
  6
CONTINUOUS
  2
*D1
 10
-78.9145173042
 20
42.5
 30
0.0
 11
-59.4430889282
 21
42.5
 31
0.0
 70
160
 71
2
 72
2
 41
0.9
 42
39.8
  1
{\ftxt;\W0.0001;\H0.0001;\~}{\ftxt;\W2.8571428571;\H3.0; }{\ftxt;\W0.0001;\H0.0001;\~}
  3
DIMSTYLE_2
100
AcDbAlignedDimension
 13
-39.1145173042
 23
-6.4502977476
 33
0.0
 14
-78.9145173042
 24
0.0
 34
0.0
 50
180.0
100
AcDbRotatedDimension
  0
DIMENSION
  5
253
100
AcDbEntity
  8
0
100
AcDbDimension
 62
7
  6
CONTINUOUS
  2
*D2
 10
-39.1395173042
 20
32.5
 30
0.0
 11
-54.2055884628
 21
32.5
 31
0.0
 70
160
 71
2
 72
2
 41
0.9
 42
29.275
  1
{\ftxt;\W0.0001;\H0.0001;\~}{\ftxt;\W2.8571428571;\H3.0; }{\ftxt;\W0.0001;\H0.0001;\~}
  3
DIMSTYLE_1
100
AcDbAlignedDimension
 13
-68.4145173042
 23
24.2456323968
 33
0.0
 14
-39.1395173042
 24
1.7061812323
 34
0.0
100
AcDbRotatedDimension
  0
DIMENSION
  5
254
100
AcDbEntity
  8
0
100
AcDbDimension
 62
7
  6
CONTINUOUS
  2
*D3
 10
19.825
 20
24.5
 30
0.0
 11
19.825
 21
-0.4285721403
 31
0.0
 70
160
 71
2
 72
2
 41
0.9
 42
49.0
  1
{\ftxt;\W0.0001;\H0.0001;\~}{\ftxt;\W1.5714285714;\H3.0; }{\ftxt;\W0.0001;\H0.0001;\~}
  3
DIMSTYLE_2
100
AcDbAlignedDimension
 13
9.7250042308
 23
-24.5
 33
0.0
 14
7.8249957692
 24
24.5
 34
0.0
 50
90.0
100
AcDbRotatedDimension
  0
LWPOLYLINE
  5
255
100
AcDbEntity
  8
0
100
AcDbPolyline
 62
7
  6
CONTINUOUS
 90
5
 70
0
 43
0.3500000006
 10
2.3250000014
 20
34.9642857056
 10
2.682142745
 20
35.1785701904
 10
2.682142745
 20
35.8214281769
 10
2.3250000014
 20
36.2500016785
 10
1.4678571053
 20
36.2500016785
  0
LINE
  5
256
100
AcDbEntity
  8
RACCORDO
100
AcDbLine
 62
250
  6
CONTINUOUS
 10
-9.1749957692
 20
24.5
 30
0.0
 11
-9.1880943479
 21
24.4869014213
 31
0.0
  0
LINE
  5
257
100
AcDbEntity
  8
RACCORDO
100
AcDbLine
 62
250
  6
CONTINUOUS
 10
-8.925
 20
24.2500042308
 30
0.0
 11
-8.9380985787
 21
24.2369056521
 31
0.0
  0
LINE
  5
258
100
AcDbEntity
  8
RACCORDO
100
AcDbLine
 62
7
  6
CONTINUOUS
 10
-11.5310144094
 20
22.3472251339
 30
0.0
 11
-11.548517002
 21
22.3384745041
 31
0.0
  0
LINE
  5
259
100
AcDbEntity
  8
RACCORDO
100
AcDbLine
 62
250
  6
CONTINUOUS
 10
-11.8075830976
 20
21.8998857286
 30
0.0
 11
-11.825
 21
21.8911779406
 31
0.0
  0
LINE
  5
25A
100
AcDbEntity
  8
RACCORDO
100
AcDbLine
 62
7
  6
CONTINUOUS
 10
9.7250042308
 20
-24.5
 30
0.0
 11
7.8249957692
 21
-24.5
 31
0.0
  0
LINE
  5
25B
100
AcDbEntity
  8
RACCORDO
100
AcDbLine
 62
7
  6
CONTINUOUS
 10
-9.1749957692
 20
-24.5
 30
0.0
 11
-11.0750042308
 21
-24.5
 31
0.0
  0
LINE
  5
25C
100
AcDbEntity
  8
RACCORDO
100
AcDbLine
 62
250
  6
CONTINUOUS
 10
-11.0619056521
 20
-24.4869014213
 30
0.0
 11
-9.1880943479
 21
-24.4869014213
 31
0.0
  0
LINE
  5
25D
100
AcDbEntity
  8
RACCORDO
100
AcDbLine
 62
250
  6
CONTINUOUS
 10
7.8380943479
 20
-24.4869014213
 30
0.0
 11
9.7119056521
 21
-24.4869014213
 31
0.0
  0
LINE
  5
25E
100
AcDbEntity
  8
RACCORDO
100
AcDbLine
 62
250
  6
CONTINUOUS
 10
7.5880985787
 20
-24.2369056521
 30
0.0
 11
9.9619014213
 21
-24.2369056521
 31
0.0
  0
LINE
  5
25F
100
AcDbEntity
  8
RACCORDO
100
AcDbLine
 62
250
  6
CONTINUOUS
 10
-8.9380985787
 20
-24.2369056521
 30
0.0
 11
-11.3119014213
 21
-24.2369056521
 31
0.0
  0
LINE
  5
260
100
AcDbEntity
  8
RACCORDO
100
AcDbLine
 62
250
  6
CONTINUOUS
 10
7.5880985787
 20
-23.8443375673
 30
0.0
 11
9.9619014213
 21
-23.8443375673
 31
0.0
  0
LINE
  5
261
100
AcDbEntity
  8
RACCORDO
100
AcDbLine
 62
250
  6
CONTINUOUS
 10
-8.9380985787
 20
-23.8443375673
 30
0.0
 11
-11.3119014213
 21
-23.8443375673
 31
0.0
  0
LINE
  5
262
100
AcDbEntity
  8
DRAFT
100
AcDbLine
 62
7
  6
CONTINUOUS
 10
3.725
 20
-23.8
 30
0.0
 11
-5.075
 21
-23.8
 31
0.0
  0
LINE
  5
263
100
AcDbEntity
  8
RACCORDO
100
AcDbLine
 62
250
  6
CONTINUOUS
 10
-4.9712073137
 20
-23.7953389668
 30
0.0
 11
3.6212073137
 21
-23.7953389668
 31
0.0
  0
LINE
  5
264
100
AcDbEntity
  8
RACCORDO
100
AcDbLine
 62
250
  6
CONTINUOUS
 10
9.7119056521
 20
-23.6278312164
 30
0.0
 11
7.8380943479
 21
-23.6278312164
 31
0.0
  0
LINE
  5
265
100
AcDbEntity
  8
RACCORDO
100
AcDbLine
 62
250
  6
CONTINUOUS
 10
-9.1880943479
 20
-23.6278312164
 30
0.0
 11
-11.0619056521
 21
-23.6278312164
 31
0.0
  0
LINE
  5
266
100
AcDbEntity
  8
RACCORDO
100
AcDbLine
 62
250
  6
CONTINUOUS
 10
-4.5720826234
 20
-23.5953423515
 30
0.0
 11
3.2220826234
 21
-23.5953423515
 31
0.0
  0
LINE
  5
267
100
AcDbEntity
  8
RACCORDO
100
AcDbLine
 62
7
  6
CONTINUOUS
 10
-11.548517002
 20
-22.3384745041
 30
0.0
 11
-11.5310144094
 21
-22.3472251339
 31
0.0
  0
LINE
  5
268
100
AcDbEntity
  8
RACCORDO
100
AcDbLine
 62
250
  6
CONTINUOUS
 10
-11.825
 20
-21.8911779406
 30
0.0
 11
-11.8075830976
 21
-21.8998857286
 31
0.0
  0
LINE
  5
269
100
AcDbEntity
  8
RACCORDO
100
AcDbLine
 62
250
  6
CONTINUOUS
 10
-9.1749957692
 20
-24.5
 30
0.0
 11
-9.1880943479
 21
-24.4869014213
 31
0.0
  0
LINE
  5
26A
100
AcDbEntity
  8
RACCORDO
100
AcDbLine
 62
250
  6
CONTINUOUS
 10
-8.925
 20
-24.2500042308
 30
0.0
 11
-8.9380985787
 21
-24.2369056521
 31
0.0
  0
LINE
  5
26B
100
AcDbEntity
  8
RACCORDO
100
AcDbLine
 62
7
  6
CONTINUOUS
 10
-11.0669962532
 20
-23.1226497308
 30
0.0
 11
-9.1830037468
 21
-23.1226497308
 31
0.0
  0
LINE
  5
26C
100
AcDbEntity
  8
RACCORDO
100
AcDbLine
 62
7
  6
CONTINUOUS
 10
7.8330037468
 20
-23.1226497308
 30
0.0
 11
9.7169962532
 21
-23.1226497308
 31
0.0
  0
LINE
  5
26D
100
AcDbEntity
  8
DRAFT
100
AcDbLine
 62
7
  6
CONTINUOUS
 10
7.575
 20
-22.4
 30
0.0
 11
3.725
 21
-22.4
 31
0.0
  0
LINE
  5
26E
100
AcDbEntity
  8
DRAFT
100
AcDbLine
 62
7
  6
CONTINUOUS
 10
-5.075
 20
-22.4
 30
0.0
 11
-8.925
 21
-22.4
 31
0.0
  0
LINE
  5
26F
100
AcDbEntity
  8
RACCORDO
100
AcDbLine
 62
7
  6
CONTINUOUS
 10
3.2220826234
 20
-22.3475922207
 30
0.0
 11
-4.5720826234
 21
-22.3475922207
 31
0.0
  0
LINE
  5
270
100
AcDbEntity
  8
RACCORDO
100
AcDbLine
 62
7
  6
CONTINUOUS
 10
-11.0677234819
 20
-22.3213883311
 30
0.0
 11
-9.1822765181
 21
-22.3213883311
 31
0.0
  0
LINE
  5
271
100
AcDbEntity
  8
RACCORDO
100
AcDbLine
 62
7
  6
CONTINUOUS
 10
7.8322765181
 20
-22.3213883311
 30
0.0
 11
9.7177234819
 21
-22.3213883311
 31
0.0
  0
LINE
  5
272
100
AcDbEntity
  8
RACCORDO
100
AcDbLine
 62
250
  6
CONTINUOUS
 10
-11.1742759622
 20
-21.998725222
 30
0.0
 11
9.8242759622
 21
-21.998725222
 31
0.0
  0
LINE
  5
273
100
AcDbEntity
  8
RACCORDO
100
AcDbLine
 62
250
  6
CONTINUOUS
 10
-11.1577491915
 20
-20.5624683248
 30
0.0
 11
9.8077491915
 21
-20.5624683248
 31
0.0
  0
LINE
  5
274
100
AcDbEntity
  8
RACCORDO
100
AcDbLine
 62
7
  6
CONTINUOUS
 10
3.7220741618
 20
23.7970741618
 30
0.0
 11
3.725
 21
23.8
 31
0.0
  0
LINE
  5
275
100
AcDbEntity
  8
RACCORDO
100
AcDbLine
 62
7
  6
CONTINUOUS
 10
3.7220741618
 20
-23.7970741618
 30
0.0
 11
3.725
 21
-23.8
 31
0.0
  0
LINE
  5
276
100
AcDbEntity
  8
RACCORDO
100
AcDbLine
 62
250
  6
CONTINUOUS
 10
-11.3119014213
 20
-23.8443375673
 30
0.0
 11
-11.3177192511
 21
-23.2669872981
 31
0.0
  0
LINE
  5
277
100
AcDbEntity
  8
RACCORDO
100
AcDbLine
 62
250
  6
CONTINUOUS
 10
-11.0619056521
 20
-23.6278312164
 30
0.0
 11
-11.0669962532
 21
-23.1226497308
 31
0.0
  0
LINE
  5
278
100
AcDbEntity
  8
RACCORDO
100
AcDbLine
 62
7
  6
CONTINUOUS
 10
-11.825
 20
21.8911779406
 30
0.0
 11
-11.825
 21
-21.8911779406
 31
0.0
  0
LINE
  5
279
100
AcDbEntity
  8
RACCORDO
100
AcDbLine
 62
7
  6
CONTINUOUS
 10
-11.325
 20
-22.399689968
 30
0.0
 11
-11.325
 21
-24.2500042308
 31
0.0
  0
LINE
  5
27A
100
AcDbEntity
  8
RACCORDO
100
AcDbLine
 62
7
  6
CONTINUOUS
 10
-11.325
 20
22.399689968
 30
0.0
 11
-11.325
 21
24.2500042308
 31
0.0
  0
LINE
  5
27B
100
AcDbEntity
  8
RACCORDO
100
AcDbLine
 62
250
  6
CONTINUOUS
 10
-11.3177192511
 20
23.2669872981
 30
0.0
 11
-11.3177192511
 21
22.3334109614
 31
0.0
  0
LINE
  5
27C
100
AcDbEntity
  8
RACCORDO
100
AcDbLine
 62
250
  6
CONTINUOUS
 10
-11.3177192511
 20
-22.3334109614
 30
0.0
 11
-11.3177192511
 21
-23.2669872981
 31
0.0
  0
LINE
  5
27D
100
AcDbEntity
  8
RACCORDO
100
AcDbLine
 62
250
  6
CONTINUOUS
 10
-11.3119014213
 20
24.2369056521
 30
0.0
 11
-11.3119014213
 21
23.8443375673
 31
0.0
  0
LINE
  5
27E
100
AcDbEntity
  8
RACCORDO
100
AcDbLine
 62
250
  6
CONTINUOUS
 10
-11.3119014213
 20
-23.8443375673
 30
0.0
 11
-11.3119014213
 21
-24.2369056521
 31
0.0
  0
LINE
  5
27F
100
AcDbEntity
  8
RACCORDO
100
AcDbLine
 62
250
  6
CONTINUOUS
 10
-11.0677234819
 20
23.1226497308
 30
0.0
 11
-11.0677234819
 21
22.3213883311
 31
0.0
  0
LINE
  5
280
100
AcDbEntity
  8
RACCORDO
100
AcDbLine
 62
250
  6
CONTINUOUS
 10
-11.0677234819
 20
-22.3213883311
 30
0.0
 11
-11.0677234819
 21
-23.1226497308
 31
0.0
  0
LINE
  5
281
100
AcDbEntity
  8
RACCORDO
100
AcDbLine
 62
250
  6
CONTINUOUS
 10
-11.0619056521
 20
-23.6278312164
 30
0.0
 11
-11.0619056521
 21
-24.4869014213
 31
0.0
  0
LINE
  5
282
100
AcDbEntity
  8
RACCORDO
100
AcDbLine
 62
250
  6
CONTINUOUS
 10
-11.0619056521
 20
23.6278312164
 30
0.0
 11
-11.0619056521
 21
24.4869014213
 31
0.0
  0
LINE
  5
283
100
AcDbEntity
  8
RACCORDO
100
AcDbLine
 62
250
  6
CONTINUOUS
 10
-11.3177192511
 20
23.2669872981
 30
0.0
 11
-11.3119014213
 21
23.8443375673
 31
0.0
  0
LINE
  5
284
100
AcDbEntity
  8
RACCORDO
100
AcDbLine
 62
250
  6
CONTINUOUS
 10
-11.0669962532
 20
23.1226497308
 30
0.0
 11
-11.0619056521
 21
23.6278312164
 31
0.0
  0
LINE
  5
285
100
AcDbEntity
  8
RACCORDO
100
AcDbLine
 62
7
  6
CONTINUOUS
 10
-8.925
 20
22.4
 30
0.0
 11
-8.9322807489
 21
22.3344140523
 31
0.0
  0
LINE
  5
286
100
AcDbEntity
  8
RACCORDO
100
AcDbLine
 62
7
  6
CONTINUOUS
 10
-8.925
 20
-22.4
 30
0.0
 11
-8.9322807489
 21
-22.3344140523
 31
0.0
  0
LINE
  5
287
100
AcDbEntity
  8
RACCORDO
100
AcDbLine
 62
250
  6
CONTINUOUS
 10
-9.1880943479
 20
23.6278312164
 30
0.0
 11
-9.1830037468
 21
23.1226497308
 31
0.0
  0
LINE
  5
288
100
AcDbEntity
  8
ASSI
100
AcDbLine
 62
7
  6
CONTINUOUS
 10
-10.175
 20
15.6
 30
0.0
 11
-10.175
 21
22.1379611036
 31
0.0
  0
LINE
  5
289
100
AcDbEntity
  8
RACCORDO
100
AcDbLine
 62
7
  6
CONTINUOUS
 10
-10.125
 20
15.85
 30
0.0
 11
-10.125
 21
21.9496569135
 31
0.0
  0
LINE
  5
28A
100
AcDbEntity
  8
RACCORDO
100
AcDbLine
 62
250
  6
CONTINUOUS
 10
-9.875
 20
15.7031206241
 30
0.0
 11
-9.875
 21
22.2
 31
0.0
  0
LINE
  5
28B
100
AcDbEntity
  8
RACCORDO
100
AcDbLine
 62
250
  6
CONTINUOUS
 10
-9.1880943479
 20
-23.6278312164
 30
0.0
 11
-9.1880943479
 21
-24.4869014213
 31
0.0
  0
LINE
  5
28C
100
AcDbEntity
  8
RACCORDO
100
AcDbLine
 62
250
  6
CONTINUOUS
 10
-9.1880943479
 20
23.6278312164
 30
0.0
 11
-9.1880943479
 21
24.4869014213
 31
0.0
  0
LINE
  5
28D
100
AcDbEntity
  8
RACCORDO
100
AcDbLine
 62
250
  6
CONTINUOUS
 10
-9.1822765181
 20
23.1226497308
 30
0.0
 11
-9.1822765181
 21
22.3213883311
 31
0.0
  0
LINE
  5
28E
100
AcDbEntity
  8
RACCORDO
100
AcDbLine
 62
250
  6
CONTINUOUS
 10
-9.1822765181
 20
-22.3213883311
 30
0.0
 11
-9.1822765181
 21
-23.1226497308
 31
0.0
  0
LINE
  5
28F
100
AcDbEntity
  8
RACCORDO
100
AcDbLine
 62
250
  6
CONTINUOUS
 10
-8.9380985787
 20
-24.2369056521
 30
0.0
 11
-8.9380985787
 21
-23.8443375673
 31
0.0
  0
LINE
  5
290
100
AcDbEntity
  8
RACCORDO
100
AcDbLine
 62
250
  6
CONTINUOUS
 10
-8.9380985787
 20
23.8443375673
 30
0.0
 11
-8.9380985787
 21
24.2369056521
 31
0.0
  0
LINE
  5
291
100
AcDbEntity
  8
RACCORDO
100
AcDbLine
 62
250
  6
CONTINUOUS
 10
-8.9322807489
 20
23.2669872981
 30
0.0
 11
-8.9322807489
 21
22.3344140523
 31
0.0
  0
LINE
  5
292
100
AcDbEntity
  8
RACCORDO
100
AcDbLine
 62
250
  6
CONTINUOUS
 10
-8.9322807489
 20
-22.3344140523
 30
0.0
 11
-8.9322807489
 21
-23.2669872981
 31
0.0
  0
LINE
  5
293
100
AcDbEntity
  8
RACCORDO
100
AcDbLine
 62
7
  6
CONTINUOUS
 10
-8.925
 20
-22.4
 30
0.0
 11
-8.925
 21
-24.2500042308
 31
0.0
  0
LINE
  5
294
100
AcDbEntity
  8
RACCORDO
100
AcDbLine
 62
7
  6
CONTINUOUS
 10
-8.925
 20
22.4
 30
0.0
 11
-8.925
 21
24.2500042308
 31
0.0
  0
LINE
  5
295
100
AcDbEntity
  8
RACCORDO
100
AcDbLine
 62
250
  6
CONTINUOUS
 10
-9.1830037468
 20
-23.1226497308
 30
0.0
 11
-9.1880943479
 21
-23.6278312164
 31
0.0
  0
LWPOLYLINE
  5
296
100
AcDbEntity
  8
0
100
AcDbPolyline
 62
7
  6
CONTINUOUS
 90
3
 70
0
 43
0.3500000006
 10
0.4678571541
 20
33.5357164307
 10
0.3964285558
 20
33.3214274139
 10
0.2535714301
 20
33.0357162781
  0
LINE
  5
297
100
AcDbEntity
  8
RACCORDO
100
AcDbLine
 62
250
  6
CONTINUOUS
 10
9.7250042308
 20
24.5
 30
0.0
 11
9.7119056521
 21
24.4869014213
 31
0.0
  0
LINE
  5
298
100
AcDbEntity
  8
RACCORDO
100
AcDbLine
 62
250
  6
CONTINUOUS
 10
9.975
 20
24.2500042308
 30
0.0
 11
9.9619014213
 21
24.2369056521
 31
0.0
  0
LINE
  5
299
100
AcDbEntity
  8
RACCORDO
100
AcDbLine
 62
250
  6
CONTINUOUS
 10
9.7250042308
 20
-24.5
 30
0.0
 11
9.7119056521
 21
-24.4869014213
 31
0.0
  0
LINE
  5
29A
100
AcDbEntity
  8
RACCORDO
100
AcDbLine
 62
250
  6
CONTINUOUS
 10
9.975
 20
-24.2500042308
 30
0.0
 11
9.9619014213
 21
-24.2369056521
 31
0.0
  0
LINE
  5
29B
100
AcDbEntity
  8
RACCORDO
100
AcDbLine
 62
250
  6
CONTINUOUS
 10
-8.9380985787
 20
23.8443375673
 30
0.0
 11
-8.9322807489
 21
23.2669872981
 31
0.0
  0
LINE
  5
29C
100
AcDbEntity
  8
RACCORDO
100
AcDbLine
 62
250
  6
CONTINUOUS
 10
-7.6344850761
 20
3.9133984746
 30
0.0
 11
-7.6343993763
 21
-5.0144137901
 31
0.0
  0
LINE
  5
29D
100
AcDbEntity
  8
DRAFT
100
AcDbLine
 62
7
  6
CONTINUOUS
 10
-7.125
 20
3.4
 30
0.0
 11
-7.125
 21
-4.5
 31
0.0
  0
LINE
  5
29E
100
AcDbEntity
  8
RACCORDO
100
AcDbLine
 62
250
  6
CONTINUOUS
 10
-8.9322807489
 20
-23.2669872981
 30
0.0
 11
-8.9380985787
 21
-23.8443375673
 31
0.0
  0
LINE
  5
29F
100
AcDbEntity
  8
RACCORDO
100
AcDbLine
 62
250
  6
CONTINUOUS
 10
-3.6840651868
 20
-7.967032219
 30
0.0
 11
2.3340651868
 21
-7.967032219
 31
0.0
  0
LINE
  5
2A0
100
AcDbEntity
  8
RACCORDO
100
AcDbLine
 62
250
  6
CONTINUOUS
 10
-3.1840842253
 20
-7.4590842253
 30
0.0
 11
1.8340842253
 21
-7.4590842253
 31
0.0
  0
LINE
  5
2A1
100
AcDbEntity
  8
DRAFT
100
AcDbLine
 62
7
  6
CONTINUOUS
 10
-3.175
 20
-7.45
 30
0.0
 11
1.825
 21
-7.45
 31
0.0
  0
LINE
  5
2A2
100
AcDbEntity
  8
IMPORT_IGES
100
AcDbLine
 62
250
  6
CONTINUOUS
 10
-6.925
 20
-4.5
 30
0.0
 11
-6.925
 21
3.2565560385
 31
0.0
  0
LINE
  5
2A3
100
AcDbEntity
  8
IMPORT_IGES
100
AcDbLine
 62
7
  6
CONTINUOUS
 10
-6.625
 20
2.798298469
 30
0.0
 11
-6.625
 21
-4.2
 31
0.0
  0
LINE
  5
2A4
100
AcDbEntity
  8
IMPORT_IGES
100
AcDbLine
 62
7
  6
CONTINUOUS
 10
-5.775
 20
2.7
 30
0.0
 11
-5.775
 21
2.7528839596
 31
0.0
  0
LINE
  5
2A5
100
AcDbEntity
  8
IMPORT_IGES
100
AcDbLine
 62
7
  6
CONTINUOUS
 10
-2.7
 20
-7.0
 30
0.0
 11
1.35
 21
-7.0
 31
0.0
  0
LINE
  5
2A6
100
AcDbEntity
  8
0
100
AcDbLine
 62
7
  6
CONTINUOUS
 10
-2.7
 20
-6.8
 30
0.0
 11
1.35
 21
-6.8
 31
0.0
  0
LINE
  5
2A7
100
AcDbEntity
  8
RACCORDO
100
AcDbLine
 62
250
  6
CONTINUOUS
 10
-4.8342369883
 20
-6.6158528412
 30
0.0
 11
-3.6842369883
 21
-6.6158528412
 31
0.0
  0
LINE
  5
2A8
100
AcDbEntity
  8
RACCORDO
100
AcDbLine
 62
250
  6
CONTINUOUS
 10
2.3342369883
 20
-6.6158528412
 30
0.0
 11
3.4842369883
 21
-6.6158528412
 31
0.0
  0
LINE
  5
2A9
100
AcDbEntity
  8
RACCORDO
100
AcDbLine
 62
250
  6
CONTINUOUS
 10
-4.3342560268
 20
-6.1092560268
 30
0.0
 11
-3.1842560268
 21
-6.1092560268
 31
0.0
  0
LINE
  5
2AA
100
AcDbEntity
  8
RACCORDO
100
AcDbLine
 62
250
  6
CONTINUOUS
 10
1.8342560268
 20
-6.1092560268
 30
0.0
 11
2.9842560268
 21
-6.1092560268
 31
0.0
  0
LINE
  5
2AB
100
AcDbEntity
  8
DRAFT
100
AcDbLine
 62
7
  6
CONTINUOUS
 10
-4.325
 20
-6.1
 30
0.0
 11
-3.175
 21
-6.1
 31
0.0
  0
LINE
  5
2AC
100
AcDbEntity
  8
DRAFT
100
AcDbLine
 62
7
  6
CONTINUOUS
 10
1.825
 20
-6.1
 30
0.0
 11
2.975
 21
-6.1
 31
0.0
  0
LINE
  5
2AD
100
AcDbEntity
  8
IMPORT_IGES
100
AcDbLine
 62
250
  6
CONTINUOUS
 10
1.65
 20
-6.05
 30
0.0
 11
2.775
 21
-6.05
 31
0.0
  0
LINE
  5
2AE
100
AcDbEntity
  8
IMPORT_IGES
100
AcDbLine
 62
250
  6
CONTINUOUS
 10
-3.0
 20
-6.05
 30
0.0
 11
-4.125
 21
-6.05
 31
0.0
  0
LINE
  5
2AF
100
AcDbEntity
  8
IMPORT_IGES
100
AcDbLine
 62
7
  6
CONTINUOUS
 10
-3.825
 20
-5.75
 30
0.0
 11
-2.7
 21
-5.75
 31
0.0
  0
LINE
  5
2B0
100
AcDbEntity
  8
IMPORT_IGES
100
AcDbLine
 62
7
  6
CONTINUOUS
 10
-2.1
 20
-5.75
 30
0.0
 11
0.75
 21
-5.75
 31
0.0
  0
LINE
  5
2B1
100
AcDbEntity
  8
IMPORT_IGES
100
AcDbLine
 62
7
  6
CONTINUOUS
 10
1.35
 20
-5.75
 30
0.0
 11
2.475
 21
-5.75
 31
0.0
  0
LINE
  5
2B2
100
AcDbEntity
  8
IMPORT_IGES
100
AcDbLine
 62
7
  6
CONTINUOUS
 10
-2.2188509601
 20
-6.8
 30
0.0
 11
-2.017079372
 21
-7.0
 31
0.0
  0
LINE
  5
2B3
100
AcDbEntity
  8
IMPORT_IGES
100
AcDbLine
 62
7
  6
CONTINUOUS
 10
-1.9581643884
 20
-7.0
 30
0.0
 11
-2.1605123953
 21
-6.7994286422
 31
0.0
  0
LINE
  5
2B4
100
AcDbEntity
  8
IMPORT_IGES
100
AcDbLine
 62
7
  6
CONTINUOUS
 10
-5.1286037012
 20
2.7
 30
0.0
 11
-5.075
 21
2.1639629885
 31
0.0
  0
LINE
  5
2B5
100
AcDbEntity
  8
DRAFT
100
AcDbLine
 62
7
  6
CONTINUOUS
 10
-5.075
 20
-23.8
 30
0.0
 11
-5.075
 21
-22.4
 31
0.0
  0
LINE
  5
2B6
100
AcDbEntity
  8
IMPORT_IGES
100
AcDbLine
 62
7
  6
CONTINUOUS
 10
-5.075
 20
0.8539629885
 30
0.0
 11
-5.075
 21
2.1639629885
 31
0.0
  0
LINE
  5
2B7
100
AcDbEntity
  8
DRAFT
100
AcDbLine
 62
7
  6
CONTINUOUS
 10
-5.075
 20
22.4
 30
0.0
 11
-5.075
 21
23.8
 31
0.0
  0
LINE
  5
2B8
100
AcDbEntity
  8
RACCORDO
100
AcDbLine
 62
250
  6
CONTINUOUS
 10
-5.0720741618
 20
23.7970741618
 30
0.0
 11
-5.0720741618
 21
22.3736436632
 31
0.0
  0
LINE
  5
2B9
100
AcDbEntity
  8
RACCORDO
100
AcDbLine
 62
250
  6
CONTINUOUS
 10
-5.0720741618
 20
-22.3736436632
 30
0.0
 11
-5.0720741618
 21
-23.7970741618
 31
0.0
  0
LINE
  5
2BA
100
AcDbEntity
  8
RACCORDO
100
AcDbLine
 62
250
  6
CONTINUOUS
 10
-4.8343993763
 20
-5.0144137901
 30
0.0
 11
-4.8342369883
 21
-6.6158528412
 31
0.0
  0
LINE
  5
2BB
100
AcDbEntity
  8
RACCORDO
100
AcDbLine
 62
250
  6
CONTINUOUS
 10
-4.5720826234
 20
23.5953423515
 30
0.0
 11
-4.5720826234
 21
22.3475922207
 31
0.0
  0
LINE
  5
2BC
100
AcDbEntity
  8
RACCORDO
100
AcDbLine
 62
250
  6
CONTINUOUS
 10
-4.5720826234
 20
-22.3475922207
 30
0.0
 11
-4.5720826234
 21
-23.5953423515
 31
0.0
  0
LINE
  5
2BD
100
AcDbEntity
  8
IMPORT_IGES
100
AcDbLine
 62
7
  6
CONTINUOUS
 10
-4.4993282525
 20
-0.0760370115
 30
0.0
 11
-4.4993282525
 21
0.6539629885
 31
0.0
  0
LINE
  5
2BE
100
AcDbEntity
  8
0
100
AcDbLine
 62
7
  6
CONTINUOUS
 10
-4.375
 20
2.7528839596
 30
0.0
 11
-4.375
 21
-0.3
 31
0.0
  0
LINE
  5
2BF
100
AcDbEntity
  8
DRAFT
100
AcDbLine
 62
7
  6
CONTINUOUS
 10
-4.325
 20
-4.5
 30
0.0
 11
-4.325
 21
-6.1
 31
0.0
  0
LINE
  5
2C0
100
AcDbEntity
  8
IMPORT_IGES
100
AcDbLine
 62
250
  6
CONTINUOUS
 10
-4.125
 20
-6.05
 30
0.0
 11
-4.125
 21
-4.5
 31
0.0
  0
LINE
  5
2C1
100
AcDbEntity
  8
0
100
AcDbLine
 62
7
  6
CONTINUOUS
 10
-3.875
 20
2.7528839596
 30
0.0
 11
-3.875
 21
-0.3
 31
0.0
  0
LINE
  5
2C2
100
AcDbEntity
  8
IMPORT_IGES
100
AcDbLine
 62
7
  6
CONTINUOUS
 10
-3.825
 20
-5.75
 30
0.0
 11
-3.825
 21
-2.1791287848
 31
0.0
  0
LINE
  5
2C3
100
AcDbEntity
  8
RACCORDO
100
AcDbLine
 62
250
  6
CONTINUOUS
 10
-3.6842369883
 20
-6.6158528412
 30
0.0
 11
-3.6840651868
 21
-7.967032219
 31
0.0
  0
LINE
  5
2C4
100
AcDbEntity
  8
IMPORT_IGES
100
AcDbLine
 62
7
  6
CONTINUOUS
 10
-3.6298535023
 20
-0.7
 30
0.0
 11
-3.6298535023
 21
-0.0760370115
 31
0.0
  0
LINE
  5
2C5
100
AcDbEntity
  8
RACCORDO
100
AcDbLine
 62
250
  6
CONTINUOUS
 10
-11.8075830976
 20
-21.8998857286
 30
0.0
 11
-11.6741998097
 21
-21.4994104546
 31
0.0
  0
LINE
  5
2C6
100
AcDbEntity
  8
RACCORDO
100
AcDbLine
 62
250
  6
CONTINUOUS
 10
-11.1742759622
 20
-21.998725222
 30
0.0
 11
-11.28391534
 21
-22.3279108386
 31
0.0
  0
LINE
  5
2C7
100
AcDbEntity
  8
RACCORDO
100
AcDbLine
 62
250
  6
CONTINUOUS
 10
-7.6343993763
 20
-5.0144137901
 30
0.0
 11
-4.8343993763
 21
-5.0144137901
 31
0.0
  0
LINE
  5
2C8
100
AcDbEntity
  8
RACCORDO
100
AcDbLine
 62
250
  6
CONTINUOUS
 10
3.4843993763
 20
-5.0144137901
 30
0.0
 11
6.2843993763
 21
-5.0144137901
 31
0.0
  0
LINE
  5
2C9
100
AcDbEntity
  8
IMPORT_IGES
100
AcDbLine
 62
7
  6
CONTINUOUS
 10
-3.825
 20
-4.95
 30
0.0
 11
-2.1
 21
-4.95
 31
0.0
  0
LINE
  5
2CA
100
AcDbEntity
  8
IMPORT_IGES
100
AcDbLine
 62
7
  6
CONTINUOUS
 10
0.75
 20
-4.95
 30
0.0
 11
2.475
 21
-4.95
 31
0.0
  0
LINE
  5
2CB
100
AcDbEntity
  8
RACCORDO
100
AcDbLine
 62
250
  6
CONTINUOUS
 10
-7.1344184148
 20
-4.5094184148
 30
0.0
 11
-4.3344184148
 21
-4.5094184148
 31
0.0
  0
LINE
  5
2CC
100
AcDbEntity
  8
RACCORDO
100
AcDbLine
 62
250
  6
CONTINUOUS
 10
2.9844184148
 20
-4.5094184148
 30
0.0
 11
5.7844184148
 21
-4.5094184148
 31
0.0
  0
LINE
  5
2CD
100
AcDbEntity
  8
DRAFT
100
AcDbLine
 62
7
  6
CONTINUOUS
 10
-7.125
 20
-4.5
 30
0.0
 11
-4.325
 21
-4.5
 31
0.0
  0
LINE
  5
2CE
100
AcDbEntity
  8
IMPORT_IGES
100
AcDbLine
 62
250
  6
CONTINUOUS
 10
2.975
 20
-4.5
 30
0.0
 11
2.775
 21
-4.5
 31
0.0
  0
LINE
  5
2CF
100
AcDbEntity
  8
DRAFT
100
AcDbLine
 62
7
  6
CONTINUOUS
 10
2.975
 20
-4.5
 30
0.0
 11
5.775
 21
-4.5
 31
0.0
  0
LINE
  5
2D0
100
AcDbEntity
  8
IMPORT_IGES
100
AcDbLine
 62
250
  6
CONTINUOUS
 10
-4.125
 20
-4.5
 30
0.0
 11
-4.325
 21
-4.5
 31
0.0
  0
LINE
  5
2D1
100
AcDbEntity
  8
IMPORT_IGES
100
AcDbLine
 62
7
  6
CONTINUOUS
 10
2.475
 20
-4.2
 30
0.0
 11
5.275
 21
-4.2
 31
0.0
  0
LINE
  5
2D2
100
AcDbEntity
  8
IMPORT_IGES
100
AcDbLine
 62
7
  6
CONTINUOUS
 10
-3.825
 20
-4.2
 30
0.0
 11
-6.625
 21
-4.2
 31
0.0
  0
LINE
  5
2D3
100
AcDbEntity
  8
RACCORDO
100
AcDbLine
 62
7
  6
CONTINUOUS
 10
1.825
 20
-7.45
 30
0.0
 11
1.8340842253
 21
-7.4590842253
 31
0.0
  0
LINE
  5
2D4
100
AcDbEntity
  8
IMPORT_IGES
100
AcDbLine
 62
7
  6
CONTINUOUS
 10
0.388673116
 20
-6.8
 30
0.0
 11
0.5869170827
 21
-7.0
 31
0.0
  0
LINE
  5
2D5
100
AcDbEntity
  8
IMPORT_IGES
100
AcDbLine
 62
7
  6
CONTINUOUS
 10
-4.5993282525
 20
0.8539629885
 30
0.0
 11
-4.4993282525
 21
0.6539629885
 31
0.0
  0
LINE
  5
2D6
100
AcDbEntity
  8
RACCORDO
100
AcDbLine
 62
250
  6
CONTINUOUS
 10
-11.6741998097
 20
21.4994104546
 30
0.0
 11
-11.8075830976
 21
21.8998857286
 31
0.0
  0
LINE
  5
2D7
100
AcDbEntity
  8
RACCORDO
100
AcDbLine
 62
250
  6
CONTINUOUS
 10
-11.28391534
 20
22.3279108386
 30
0.0
 11
-11.1742759622
 21
21.998725222
 31
0.0
  0
LINE
  5
2D8
100
AcDbEntity
  8
0
100
AcDbLine
 62
7
  6
CONTINUOUS
 10
-3.375
 20
2.7528839596
 30
0.0
 11
-3.375
 21
-0.3
 31
0.0
  0
LINE
  5
2D9
100
AcDbEntity
  8
DRAFT
100
AcDbLine
 62
7
  6
CONTINUOUS
 10
-3.175
 20
-6.1
 30
0.0
 11
-3.175
 21
-7.45
 31
0.0
  0
LINE
  5
2DA
100
AcDbEntity
  8
IMPORT_IGES
100
AcDbLine
 62
250
  6
CONTINUOUS
 10
-3.0
 20
-7.45
 30
0.0
 11
-3.0
 21
-6.05
 31
0.0
  0
LINE
  5
2DB
100
AcDbEntity
  8
0
100
AcDbLine
 62
7
  6
CONTINUOUS
 10
-2.875
 20
2.7528839596
 30
0.0
 11
-2.875
 21
-0.3
 31
0.0
  0
LINE
  5
2DC
100
AcDbEntity
  8
IMPORT_IGES
100
AcDbLine
 62
7
  6
CONTINUOUS
 10
-2.8298535023
 20
-0.0760370115
 30
0.0
 11
-2.8298535023
 21
-0.7
 31
0.0
  0
LINE
  5
2DD
100
AcDbEntity
  8
IMPORT_IGES
100
AcDbLine
 62
7
  6
CONTINUOUS
 10
-2.7
 20
-5.75
 30
0.0
 11
-2.7
 21
-7.4287187079
 31
0.0
  0
LINE
  5
2DE
100
AcDbEntity
  8
0
100
AcDbLine
 62
7
  6
CONTINUOUS
 10
-2.375
 20
2.7528839596
 30
0.0
 11
-2.375
 21
-0.3
 31
0.0
  0
LINE
  5
2DF
100
AcDbEntity
  8
IMPORT_IGES
100
AcDbLine
 62
7
  6
CONTINUOUS
 10
-2.1
 20
-4.95
 30
0.0
 11
-2.1
 21
-5.75
 31
0.0
  0
LINE
  5
2E0
100
AcDbEntity
  8
0
100
AcDbLine
 62
7
  6
CONTINUOUS
 10
-1.875
 20
2.7528839596
 30
0.0
 11
-1.875
 21
-0.3
 31
0.0
  0
LINE
  5
2E1
100
AcDbEntity
  8
RACCORDO
100
AcDbLine
 62
7
  6
CONTINUOUS
 10
-5.075
 20
-22.4
 30
0.0
 11
-5.0720741618
 21
-22.3736436632
 31
0.0
  0
LINE
  5
2E2
100
AcDbEntity
  8
IMPORT_IGES
100
AcDbLine
 62
7
  6
CONTINUOUS
 10
-1.875
 20
1.0710050598
 30
0.0
 11
-1.8593282525
 21
1.1023485547
 31
0.0
  0
LINE
  5
2E3
100
AcDbEntity
  8
RACCORDO
100
AcDbLine
 62
7
  6
CONTINUOUS
 10
-7.125
 20
-4.5
 30
0.0
 11
-7.1344184148
 21
-4.5094184148
 31
0.0
  0
LINE
  5
2E4
100
AcDbEntity
  8
IMPORT_IGES
100
AcDbLine
 62
7
  6
CONTINUOUS
 10
5.275
 20
-2.95
 30
0.0
 11
2.475
 21
-2.95
 31
0.0
  0
LINE
  5
2E5
100
AcDbEntity
  8
IMPORT_IGES
100
AcDbLine
 62
7
  6
CONTINUOUS
 10
-3.825
 20
-2.95
 30
0.0
 11
-6.625
 21
-2.95
 31
0.0
  0
LINE
  5
2E6
100
AcDbEntity
  8
IMPORT_IGES
100
AcDbLine
 62
7
  6
CONTINUOUS
 10
5.275
 20
-2.1791287848
 30
0.0
 11
-6.625
 21
-2.1791287848
 31
0.0
  0
LINE
  5
2E7
100
AcDbEntity
  8
RACCORDO
100
AcDbLine
 62
7
  6
CONTINUOUS
 10
1.825
 20
-6.1
 30
0.0
 11
1.8342560268
 21
-6.1092560268
 31
0.0
  0
LINE
  5
2E8
100
AcDbEntity
  8
RACCORDO
100
AcDbLine
 62
7
  6
CONTINUOUS
 10
-7.125
 20
3.4
 30
0.0
 11
-7.1345041146
 21
3.4095041146
 31
0.0
  0
LINE
  5
2E9
100
AcDbEntity
  8
RACCORDO
100
AcDbLine
 62
7
  6
CONTINUOUS
 10
2.975
 20
-6.1
 30
0.0
 11
2.9842560268
 21
-6.1092560268
 31
0.0
  0
LINE
  5
2EA
100
AcDbEntity
  8
RACCORDO
100
AcDbLine
 62
7
  6
CONTINUOUS
 10
-5.075
 20
22.4
 30
0.0
 11
-5.0720741618
 21
22.3736436632
 31
0.0
  0
LINE
  5
2EB
100
AcDbEntity
  8
IMPORT_IGES
100
AcDbLine
 62
7
  6
CONTINUOUS
 10
-1.4393282525
 20
-0.7
 30
0.0
 11
-1.4393282525
 21
0.9023485547
 31
0.0
  0
LINE
  5
2EC
100
AcDbEntity
  8
0
100
AcDbLine
 62
7
  6
CONTINUOUS
 10
-1.375
 20
2.7528839596
 30
0.0
 11
-1.375
 21
-0.3
 31
0.0
  0
LINE
  5
2ED
100
AcDbEntity
  8
0
100
AcDbLine
 62
7
  6
CONTINUOUS
 10
-0.875
 20
2.7528839596
 30
0.0
 11
-0.875
 21
-0.3
 31
0.0
  0
LINE
  5
2EE
100
AcDbEntity
  8
0
100
AcDbLine
 62
7
  6
CONTINUOUS
 10
-0.375
 20
2.7528839596
 30
0.0
 11
-0.375
 21
-0.3
 31
0.0
  0
LINE
  5
2EF
100
AcDbEntity
  8
0
100
AcDbLine
 62
7
  6
CONTINUOUS
 10
0.125
 20
2.7528839596
 30
0.0
 11
0.125
 21
-0.3
 31
0.0
  0
LINE
  5
2F0
100
AcDbEntity
  8
RACCORDO
100
AcDbLine
 62
7
  6
CONTINUOUS
 10
-4.325
 20
-4.5
 30
0.0
 11
-4.3344184148
 21
-4.5094184148
 31
0.0
  0
LWPOLYLINE
  5
2F1
100
AcDbEntity
  8
0
100
AcDbPolyline
 62
7
  6
CONTINUOUS
 90
2
 70
0
 43
0.3500000006
 10
19.0749990234
 20
-1.3571429443
 10
17.5749996986
 20
-1.3571429443
  0
LINE
  5
2F2
100
AcDbEntity
  8
IMPORT_IGES
100
AcDbLine
 62
7
  6
CONTINUOUS
 10
-3.6298535023
 20
-0.7
 30
0.0
 11
-2.8298535023
 21
-0.7
 31
0.0
  0
LINE
  5
2F3
100
AcDbEntity
  8
IMPORT_IGES
100
AcDbLine
 62
7
  6
CONTINUOUS
 10
-1.4393282525
 20
-0.7
 30
0.0
 11
1.1001464977
 21
-0.7
 31
0.0
  0
LINE
  5
2F4
100
AcDbEntity
  8
0
100
AcDbLine
 62
7
  6
CONTINUOUS
 10
-4.375
 20
-0.3
 30
0.0
 11
-3.875
 21
-0.3
 31
0.0
  0
LINE
  5
2F5
100
AcDbEntity
  8
0
100
AcDbLine
 62
7
  6
CONTINUOUS
 10
-3.375
 20
-0.3
 30
0.0
 11
-2.875
 21
-0.3
 31
0.0
  0
LINE
  5
2F6
100
AcDbEntity
  8
0
100
AcDbLine
 62
7
  6
CONTINUOUS
 10
-2.375
 20
-0.3
 30
0.0
 11
-1.875
 21
-0.3
 31
0.0
  0
LINE
  5
2F7
100
AcDbEntity
  8
0
100
AcDbLine
 62
7
  6
CONTINUOUS
 10
-1.375
 20
-0.3
 30
0.0
 11
-0.875
 21
-0.3
 31
0.0
  0
LINE
  5
2F8
100
AcDbEntity
  8
0
100
AcDbLine
 62
7
  6
CONTINUOUS
 10
-0.375
 20
-0.3
 30
0.0
 11
0.125
 21
-0.3
 31
0.0
  0
LINE
  5
2F9
100
AcDbEntity
  8
0
100
AcDbLine
 62
7
  6
CONTINUOUS
 10
0.625
 20
-0.3
 30
0.0
 11
1.125
 21
-0.3
 31
0.0
  0
LINE
  5
2FA
100
AcDbEntity
  8
0
100
AcDbLine
 62
7
  6
CONTINUOUS
 10
1.625
 20
-0.3
 30
0.0
 11
2.125
 21
-0.3
 31
0.0
  0
LINE
  5
2FB
100
AcDbEntity
  8
0
100
AcDbLine
 62
7
  6
CONTINUOUS
 10
2.625
 20
-0.3
 30
0.0
 11
3.125
 21
-0.3
 31
0.0
  0
LINE
  5
2FC
100
AcDbEntity
  8
IMPORT_IGES
100
AcDbLine
 62
7
  6
CONTINUOUS
 10
3.1406717475
 20
-0.0760370115
 30
0.0
 11
3.125
 21
-0.0760370115
 31
0.0
  0
LINE
  5
2FD
100
AcDbEntity
  8
IMPORT_IGES
100
AcDbLine
 62
7
  6
CONTINUOUS
 10
-2.375
 20
-0.0760370115
 30
0.0
 11
-2.8298535023
 21
-0.0760370115
 31
0.0
  0
LINE
  5
2FE
100
AcDbEntity
  8
IMPORT_IGES
100
AcDbLine
 62
7
  6
CONTINUOUS
 10
-3.6298535023
 20
-0.0760370115
 30
0.0
 11
-3.875
 21
-0.0760370115
 31
0.0
  0
LINE
  5
2FF
100
AcDbEntity
  8
IMPORT_IGES
100
AcDbLine
 62
7
  6
CONTINUOUS
 10
-4.375
 20
-0.0760370115
 30
0.0
 11
-4.4993282525
 21
-0.0760370115
 31
0.0
  0
LINE
  5
300
100
AcDbEntity
  8
RACCORDO
100
AcDbLine
 62
7
  6
CONTINUOUS
 10
2.975
 20
-4.5
 30
0.0
 11
2.9844184148
 21
-4.5094184148
 31
0.0
  0
LINE
  5
301
100
AcDbEntity
  8
IMPORT_IGES
100
AcDbLine
 62
7
  6
CONTINUOUS
 10
-1.5393282525
 20
1.1023485547
 30
0.0
 11
-1.4393282525
 21
0.9023485547
 31
0.0
  0
LINE
  5
302
100
AcDbEntity
  8
0
100
AcDbLine
 62
7
  6
CONTINUOUS
 10
0.625
 20
2.7528839596
 30
0.0
 11
0.625
 21
-0.3
 31
0.0
  0
LINE
  5
303
100
AcDbEntity
  8
IMPORT_IGES
100
AcDbLine
 62
7
  6
CONTINUOUS
 10
0.75
 20
-5.75
 30
0.0
 11
0.75
 21
-4.95
 31
0.0
  0
LINE
  5
304
100
AcDbEntity
  8
IMPORT_IGES
100
AcDbLine
 62
7
  6
CONTINUOUS
 10
1.1001464977
 20
-0.3
 30
0.0
 11
1.1001464977
 21
-0.7
 31
0.0
  0
LINE
  5
305
100
AcDbEntity
  8
0
100
AcDbLine
 62
7
  6
CONTINUOUS
 10
1.125
 20
2.7528839596
 30
0.0
 11
1.125
 21
-0.3
 31
0.0
  0
LINE
  5
306
100
AcDbEntity
  8
IMPORT_IGES
100
AcDbLine
 62
7
  6
CONTINUOUS
 10
1.35
 20
-7.4287187079
 30
0.0
 11
1.35
 21
-5.75
 31
0.0
  0
LINE
  5
307
100
AcDbEntity
  8
0
100
AcDbLine
 62
7
  6
CONTINUOUS
 10
1.625
 20
2.7528839596
 30
0.0
 11
1.625
 21
-0.3
 31
0.0
  0
LINE
  5
308
100
AcDbEntity
  8
IMPORT_IGES
100
AcDbLine
 62
250
  6
CONTINUOUS
 10
1.65
 20
-7.45
 30
0.0
 11
1.65
 21
-6.05
 31
0.0
  0
LINE
  5
309
100
AcDbEntity
  8
DRAFT
100
AcDbLine
 62
7
  6
CONTINUOUS
 10
1.825
 20
-7.45
 30
0.0
 11
1.825
 21
-6.1
 31
0.0
  0
LINE
  5
30A
100
AcDbEntity
  8
RACCORDO
100
AcDbLine
 62
7
  6
CONTINUOUS
 10
3.725
 20
22.4
 30
0.0
 11
3.7220741618
 21
22.3736436632
 31
0.0
  0
LINE
  5
30B
100
AcDbEntity
  8
IMPORT_IGES
100
AcDbLine
 62
7
  6
CONTINUOUS
 10
1.125
 20
0.9520555593
 30
0.0
 11
1.2001464977
 21
1.1023485547
 31
0.0
  0
LINE
  5
30C
100
AcDbEntity
  8
IMPORT_IGES
100
AcDbLine
 62
7
  6
CONTINUOUS
 10
2.125
 20
0.9110050598
 30
0.0
 11
2.2206717475
 21
1.1023485547
 31
0.0
  0
LINE
  5
30D
100
AcDbEntity
  8
RACCORDO
100
AcDbLine
 62
7
  6
CONTINUOUS
 10
-4.325
 20
-6.1
 30
0.0
 11
-4.3342560268
 21
-6.1092560268
 31
0.0
  0
LINE
  5
30E
100
AcDbEntity
  8
RACCORDO
100
AcDbLine
 62
7
  6
CONTINUOUS
 10
5.775
 20
3.4
 30
0.0
 11
5.7845041146
 21
3.4095041146
 31
0.0
  0
LINE
  5
30F
100
AcDbEntity
  8
IMPORT_IGES
100
AcDbLine
 62
7
  6
CONTINUOUS
 10
3.725
 20
0.8539629885
 30
0.0
 11
3.2406717475
 21
0.8539629885
 31
0.0
  0
LINE
  5
310
100
AcDbEntity
  8
IMPORT_IGES
100
AcDbLine
 62
7
  6
CONTINUOUS
 10
-4.5993282525
 20
0.8539629885
 30
0.0
 11
-5.075
 21
0.8539629885
 31
0.0
  0
LINE
  5
311
100
AcDbEntity
  8
IMPORT_IGES
100
AcDbLine
 62
7
  6
CONTINUOUS
 10
2.5401464977
 20
1.1023485547
 30
0.0
 11
2.2206717475
 21
1.1023485547
 31
0.0
  0
LINE
  5
312
100
AcDbEntity
  8
IMPORT_IGES
100
AcDbLine
 62
7
  6
CONTINUOUS
 10
1.5206717475
 20
1.1023485547
 30
0.0
 11
1.2001464977
 21
1.1023485547
 31
0.0
  0
LINE
  5
313
100
AcDbEntity
  8
IMPORT_IGES
100
AcDbLine
 62
7
  6
CONTINUOUS
 10
-1.5393282525
 20
1.1023485547
 30
0.0
 11
-1.8593282525
 21
1.1023485547
 31
0.0
  0
LINE
  5
314
100
AcDbEntity
  8
RACCORDO
100
AcDbLine
 62
7
  6
CONTINUOUS
 10
5.775
 20
-4.5
 30
0.0
 11
5.7844184148
 21
-4.5094184148
 31
0.0
  0
LINE
  5
315
100
AcDbEntity
  8
IMPORT_IGES
100
AcDbLine
 62
7
  6
CONTINUOUS
 10
1.5206717475
 20
1.1023485547
 30
0.0
 11
1.6206717475
 21
0.9023485547
 31
0.0
  0
LINE
  5
316
100
AcDbEntity
  8
RACCORDO
100
AcDbLine
 62
7
  6
CONTINUOUS
 10
3.725
 20
-22.4
 30
0.0
 11
3.7220741618
 21
-22.3736436632
 31
0.0
  0
LINE
  5
317
100
AcDbEntity
  8
0
100
AcDbLine
 62
7
  6
CONTINUOUS
 10
2.125
 20
2.7528839596
 30
0.0
 11
2.125
 21
-0.3
 31
0.0
  0
LINE
  5
318
100
AcDbEntity
  8
IMPORT_IGES
100
AcDbLine
 62
7
  6
CONTINUOUS
 10
2.475
 20
-5.75
 30
0.0
 11
2.475
 21
-2.1791287848
 31
0.0
  0
LINE
  5
319
100
AcDbEntity
  8
0
100
AcDbLine
 62
7
  6
CONTINUOUS
 10
2.625
 20
2.7528839596
 30
0.0
 11
2.625
 21
-0.3
 31
0.0
  0
LINE
  5
31A
100
AcDbEntity
  8
IMPORT_IGES
100
AcDbLine
 62
250
  6
CONTINUOUS
 10
2.775
 20
-4.5
 30
0.0
 11
2.775
 21
-6.05
 31
0.0
  0
LINE
  5
31B
100
AcDbEntity
  8
DRAFT
100
AcDbLine
 62
7
  6
CONTINUOUS
 10
2.975
 20
-6.1
 30
0.0
 11
2.975
 21
-4.5
 31
0.0
  0
LINE
  5
31C
100
AcDbEntity
  8
0
100
AcDbLine
 62
7
  6
CONTINUOUS
 10
3.125
 20
2.7528839596
 30
0.0
 11
3.125
 21
-0.3
 31
0.0
  0
LINE
  5
31D
100
AcDbEntity
  8
IMPORT_IGES
100
AcDbLine
 62
7
  6
CONTINUOUS
 10
3.1406717475
 20
0.6539629885
 30
0.0
 11
3.1406717475
 21
-0.0760370115
 31
0.0
  0
LINE
  5
31E
100
AcDbEntity
  8
RACCORDO
100
AcDbLine
 62
250
  6
CONTINUOUS
 10
3.2220826234
 20
-23.5953423515
 30
0.0
 11
3.2220826234
 21
-22.3475922207
 31
0.0
  0
LINE
  5
31F
100
AcDbEntity
  8
RACCORDO
100
AcDbLine
 62
250
  6
CONTINUOUS
 10
3.2220826234
 20
22.3475922207
 30
0.0
 11
3.2220826234
 21
23.5953423515
 31
0.0
  0
LINE
  5
320
100
AcDbEntity
  8
RACCORDO
100
AcDbLine
 62
250
  6
CONTINUOUS
 10
3.7220741618
 20
-23.7970741618
 30
0.0
 11
3.7220741618
 21
-22.3736436632
 31
0.0
  0
LINE
  5
321
100
AcDbEntity
  8
RACCORDO
100
AcDbLine
 62
250
  6
CONTINUOUS
 10
3.7220741618
 20
22.3736436632
 30
0.0
 11
3.7220741618
 21
23.7970741618
 31
0.0
  0
LINE
  5
322
100
AcDbEntity
  8
DRAFT
100
AcDbLine
 62
7
  6
CONTINUOUS
 10
3.725
 20
23.8
 30
0.0
 11
3.725
 21
22.4
 31
0.0
  0
LINE
  5
323
100
AcDbEntity
  8
IMPORT_IGES
100
AcDbLine
 62
7
  6
CONTINUOUS
 10
3.725
 20
2.1639629885
 30
0.0
 11
3.725
 21
0.8539629885
 31
0.0
  0
LINE
  5
324
100
AcDbEntity
  8
DRAFT
100
AcDbLine
 62
7
  6
CONTINUOUS
 10
3.725
 20
-22.4
 30
0.0
 11
3.725
 21
-23.8
 31
0.0
  0
LINE
  5
325
100
AcDbEntity
  8
RACCORDO
100
AcDbLine
 62
250
  6
CONTINUOUS
 10
2.3340651868
 20
-7.967032219
 30
0.0
 11
2.3342369883
 21
-6.6158528412
 31
0.0
  0
LINE
  5
326
100
AcDbEntity
  8
RACCORDO
100
AcDbLine
 62
250
  6
CONTINUOUS
 10
3.4842369883
 20
-6.6158528412
 30
0.0
 11
3.4843993763
 21
-5.0144137901
 31
0.0
  0
LINE
  5
327
100
AcDbEntity
  8
IMPORT_IGES
100
AcDbLine
 62
7
  6
CONTINUOUS
 10
3.725
 20
2.1639629885
 30
0.0
 11
3.7786037012
 21
2.7
 31
0.0
  0
LINE
  5
328
100
AcDbEntity
  8
RACCORDO
100
AcDbLine
 62
250
  6
CONTINUOUS
 10
9.8242759622
 20
21.998725222
 30
0.0
 11
9.93391534
 21
22.3279108386
 31
0.0
  0
LINE
  5
329
100
AcDbEntity
  8
RACCORDO
100
AcDbLine
 62
250
  6
CONTINUOUS
 10
10.4575830976
 20
21.8998857286
 30
0.0
 11
10.3241998097
 21
21.4994104546
 31
0.0
  0
LINE
  5
32A
100
AcDbEntity
  8
IMPORT_IGES
100
AcDbLine
 62
7
  6
CONTINUOUS
 10
3.1406717475
 20
0.6539629885
 30
0.0
 11
3.2406717474
 21
0.8539629885
 31
0.0
  0
LINE
  5
32B
100
AcDbEntity
  8
IMPORT_IGES
100
AcDbLine
 62
7
  6
CONTINUOUS
 10
-1.9369170827
 20
-7.0
 30
0.0
 11
-1.738673116
 21
-6.8
 31
0.0
  0
LINE
  5
32C
100
AcDbEntity
  8
RACCORDO
100
AcDbLine
 62
7
  6
CONTINUOUS
 10
-3.175
 20
-6.1
 30
0.0
 11
-3.1842560268
 21
-6.1092560268
 31
0.0
  0
LINE
  5
32D
100
AcDbEntity
  8
RACCORDO
100
AcDbLine
 62
7
  6
CONTINUOUS
 10
-3.175
 20
-7.45
 30
0.0
 11
-3.1840842253
 21
-7.4590842253
 31
0.0
  0
LINE
  5
32E
100
AcDbEntity
  8
IMPORT_IGES
100
AcDbLine
 62
7
  6
CONTINUOUS
 10
5.275
 20
2.7
 30
0.0
 11
3.7786037012
 21
2.7
 31
0.0
  0
LINE
  5
32F
100
AcDbEntity
  8
IMPORT_IGES
100
AcDbLine
 62
7
  6
CONTINUOUS
 10
-5.1286037012
 20
2.7
 30
0.0
 11
-6.625
 21
2.7
 31
0.0
  0
LINE
  5
330
100
AcDbEntity
  8
IMPORT_IGES
100
AcDbLine
 62
7
  6
CONTINUOUS
 10
5.275
 20
2.7565628924
 30
0.0
 11
-6.625
 21
2.7565628924
 31
0.0
  0
LINE
  5
331
100
AcDbEntity
  8
IMPORT_IGES
100
AcDbLine
 62
250
  6
CONTINUOUS
 10
-6.925
 20
3.2565560385
 30
0.0
 11
5.575
 21
3.2565560385
 31
0.0
  0
LINE
  5
332
100
AcDbEntity
  8
DRAFT
100
AcDbLine
 62
7
  6
CONTINUOUS
 10
5.775
 20
3.4
 30
0.0
 11
-7.125
 21
3.4
 31
0.0
  0
LINE
  5
333
100
AcDbEntity
  8
RACCORDO
100
AcDbLine
 62
250
  6
CONTINUOUS
 10
5.7845041146
 20
3.4095041146
 30
0.0
 11
-7.1345041146
 21
3.4095041146
 31
0.0
  0
LINE
  5
334
100
AcDbEntity
  8
IMPORT_IGES
100
AcDbLine
 62
7
  6
CONTINUOUS
 10
2.5401464977
 20
1.1023485547
 30
0.0
 11
2.625
 21
0.93264155
 31
0.0
  0
LINE
  5
335
100
AcDbEntity
  8
RACCORDO
100
AcDbLine
 62
250
  6
CONTINUOUS
 10
9.93391534
 20
-22.3279108386
 30
0.0
 11
9.8242759622
 21
-21.998725222
 31
0.0
  0
LINE
  5
336
100
AcDbEntity
  8
RACCORDO
100
AcDbLine
 62
250
  6
CONTINUOUS
 10
10.3241998097
 20
-21.4994104546
 30
0.0
 11
10.4575830976
 21
-21.8998857286
 31
0.0
  0
LINE
  5
337
100
AcDbEntity
  8
IMPORT_IGES
100
AcDbLine
 62
7
  6
CONTINUOUS
 10
4.425
 20
2.7528839596
 30
0.0
 11
4.425
 21
2.7
 31
0.0
  0
LINE
  5
338
100
AcDbEntity
  8
IMPORT_IGES
100
AcDbLine
 62
7
  6
CONTINUOUS
 10
5.275
 20
-4.2
 30
0.0
 11
5.275
 21
2.798298469
 31
0.0
  0
LINE
  5
339
100
AcDbEntity
  8
IMPORT_IGES
100
AcDbLine
 62
250
  6
CONTINUOUS
 10
5.575
 20
3.2565560385
 30
0.0
 11
5.575
 21
-4.5
 31
0.0
  0
LINE
  5
33A
100
AcDbEntity
  8
IMPORT_IGES
100
AcDbLine
 62
7
  6
CONTINUOUS
 10
0.8105123953
 20
-6.7994286422
 30
0.0
 11
0.6081643884
 21
-7.0
 31
0.0
  0
LINE
  5
33B
100
AcDbEntity
  8
IMPORT_IGES
100
AcDbLine
 62
7
  6
CONTINUOUS
 10
0.667079372
 20
-7.0
 30
0.0
 11
0.8688509601
 21
-6.8
 31
0.0
  0
LINE
  5
33C
100
AcDbEntity
  8
RACCORDO
100
AcDbLine
 62
250
  6
CONTINUOUS
 10
6.2844850761
 20
3.9133984746
 30
0.0
 11
-7.6344850761
 21
3.9133984746
 31
0.0
  0
LINE
  5
33D
100
AcDbEntity
  8
RACCORDO
100
AcDbLine
 62
250
  6
CONTINUOUS
 10
7.5880985787
 20
-23.8443375673
 30
0.0
 11
7.5822807489
 21
-23.2669872981
 31
0.0
  0
LINE
  5
33E
100
AcDbEntity
  8
DRAFT
100
AcDbLine
 62
7
  6
CONTINUOUS
 10
5.775
 20
-4.5
 30
0.0
 11
5.775
 21
3.4
 31
0.0
  0
LINE
  5
33F
100
AcDbEntity
  8
RACCORDO
100
AcDbLine
 62
250
  6
CONTINUOUS
 10
6.2843993763
 20
-5.0144137901
 30
0.0
 11
6.2844850761
 21
3.9133984746
 31
0.0
  0
LINE
  5
340
100
AcDbEntity
  8
RACCORDO
100
AcDbLine
 62
250
  6
CONTINUOUS
 10
7.5822807489
 20
23.2669872981
 30
0.0
 11
7.5880985787
 21
23.8443375673
 31
0.0
  0
LINE
  5
341
100
AcDbEntity
  8
RACCORDO
100
AcDbLine
 62
250
  6
CONTINUOUS
 10
7.8380943479
 20
-23.6278312164
 30
0.0
 11
7.8330037468
 21
-23.1226497308
 31
0.0
  0
LINE
  5
342
100
AcDbEntity
  8
RACCORDO
100
AcDbLine
 62
7
  6
CONTINUOUS
 10
7.575
 20
-22.4
 30
0.0
 11
7.575
 21
-24.2500042308
 31
0.0
  0
LINE
  5
343
100
AcDbEntity
  8
RACCORDO
100
AcDbLine
 62
7
  6
CONTINUOUS
 10
7.575
 20
22.4
 30
0.0
 11
7.575
 21
24.2500042308
 31
0.0
  0
LINE
  5
344
100
AcDbEntity
  8
RACCORDO
100
AcDbLine
 62
250
  6
CONTINUOUS
 10
7.5822807489
 20
-23.2669872981
 30
0.0
 11
7.5822807489
 21
-22.3344140523
 31
0.0
  0
LINE
  5
345
100
AcDbEntity
  8
RACCORDO
100
AcDbLine
 62
250
  6
CONTINUOUS
 10
7.5822807489
 20
22.3344140523
 30
0.0
 11
7.5822807489
 21
23.2669872981
 31
0.0
  0
LINE
  5
346
100
AcDbEntity
  8
RACCORDO
100
AcDbLine
 62
250
  6
CONTINUOUS
 10
7.5880985787
 20
24.2369056521
 30
0.0
 11
7.5880985787
 21
23.8443375673
 31
0.0
  0
LINE
  5
347
100
AcDbEntity
  8
RACCORDO
100
AcDbLine
 62
250
  6
CONTINUOUS
 10
7.5880985787
 20
-23.8443375673
 30
0.0
 11
7.5880985787
 21
-24.2369056521
 31
0.0
  0
LINE
  5
348
100
AcDbEntity
  8
RACCORDO
100
AcDbLine
 62
250
  6
CONTINUOUS
 10
7.8322765181
 20
-23.1226497308
 30
0.0
 11
7.8322765181
 21
-22.3213883311
 31
0.0
  0
LINE
  5
349
100
AcDbEntity
  8
RACCORDO
100
AcDbLine
 62
250
  6
CONTINUOUS
 10
7.8322765181
 20
22.3213883311
 30
0.0
 11
7.8322765181
 21
23.1226497308
 31
0.0
  0
LINE
  5
34A
100
AcDbEntity
  8
RACCORDO
100
AcDbLine
 62
250
  6
CONTINUOUS
 10
7.8380943479
 20
-23.6278312164
 30
0.0
 11
7.8380943479
 21
-24.4869014213
 31
0.0
  0
LINE
  5
34B
100
AcDbEntity
  8
RACCORDO
100
AcDbLine
 62
250
  6
CONTINUOUS
 10
7.8380943479
 20
23.6278312164
 30
0.0
 11
7.8380943479
 21
24.4869014213
 31
0.0
  0
LINE
  5
34C
100
AcDbEntity
  8
RACCORDO
100
AcDbLine
 62
250
  6
CONTINUOUS
 10
8.525
 20
22.2
 30
0.0
 11
8.525
 21
15.7031206241
 31
0.0
  0
LINE
  5
34D
100
AcDbEntity
  8
RACCORDO
100
AcDbLine
 62
7
  6
CONTINUOUS
 10
8.775
 20
21.9496569135
 30
0.0
 11
8.775
 21
15.85
 31
0.0
  0
LINE
  5
34E
100
AcDbEntity
  8
ASSI
100
AcDbLine
 62
7
  6
CONTINUOUS
 10
8.825
 20
15.6
 30
0.0
 11
8.825
 21
22.1379611036
 31
0.0
  0
LINE
  5
34F
100
AcDbEntity
  8
RACCORDO
100
AcDbLine
 62
250
  6
CONTINUOUS
 10
7.8330037468
 20
23.1226497308
 30
0.0
 11
7.8380943479
 21
23.6278312164
 31
0.0
  0
LINE
  5
350
100
AcDbEntity
  8
RACCORDO
100
AcDbLine
 62
250
  6
CONTINUOUS
 10
-11.325
 20
-24.2500042308
 30
0.0
 11
-11.3119014213
 21
-24.2369056521
 31
0.0
  0
LINE
  5
351
100
AcDbEntity
  8
RACCORDO
100
AcDbLine
 62
250
  6
CONTINUOUS
 10
-11.325
 20
24.2500042308
 30
0.0
 11
-11.3119014213
 21
24.2369056521
 31
0.0
  0
LINE
  5
352
100
AcDbEntity
  8
RACCORDO
100
AcDbLine
 62
250
  6
CONTINUOUS
 10
9.7119056521
 20
23.6278312164
 30
0.0
 11
9.7169962532
 21
23.1226497308
 31
0.0
  0
LINE
  5
353
100
AcDbEntity
  8
RACCORDO
100
AcDbLine
 62
250
  6
CONTINUOUS
 10
9.9619014213
 20
23.8443375673
 30
0.0
 11
9.9677192511
 21
23.2669872981
 31
0.0
  0
LINE
  5
354
100
AcDbEntity
  8
RACCORDO
100
AcDbLine
 62
250
  6
CONTINUOUS
 10
9.7119056521
 20
-23.6278312164
 30
0.0
 11
9.7119056521
 21
-24.4869014213
 31
0.0
  0
LINE
  5
355
100
AcDbEntity
  8
RACCORDO
100
AcDbLine
 62
250
  6
CONTINUOUS
 10
9.7119056521
 20
23.6278312164
 30
0.0
 11
9.7119056521
 21
24.4869014213
 31
0.0
  0
LINE
  5
356
100
AcDbEntity
  8
RACCORDO
100
AcDbLine
 62
250
  6
CONTINUOUS
 10
9.7177234819
 20
-23.1226497308
 30
0.0
 11
9.7177234819
 21
-22.3213883311
 31
0.0
  0
LINE
  5
357
100
AcDbEntity
  8
RACCORDO
100
AcDbLine
 62
250
  6
CONTINUOUS
 10
9.7177234819
 20
22.3213883311
 30
0.0
 11
9.7177234819
 21
23.1226497308
 31
0.0
  0
LINE
  5
358
100
AcDbEntity
  8
RACCORDO
100
AcDbLine
 62
250
  6
CONTINUOUS
 10
9.9619014213
 20
-24.2369056521
 30
0.0
 11
9.9619014213
 21
-23.8443375673
 31
0.0
  0
LINE
  5
359
100
AcDbEntity
  8
RACCORDO
100
AcDbLine
 62
250
  6
CONTINUOUS
 10
9.9619014213
 20
23.8443375673
 30
0.0
 11
9.9619014213
 21
24.2369056521
 31
0.0
  0
LINE
  5
35A
100
AcDbEntity
  8
RACCORDO
100
AcDbLine
 62
250
  6
CONTINUOUS
 10
9.9677192511
 20
-23.2669872981
 30
0.0
 11
9.9677192511
 21
-22.3334109614
 31
0.0
  0
LINE
  5
35B
100
AcDbEntity
  8
RACCORDO
100
AcDbLine
 62
250
  6
CONTINUOUS
 10
9.9677192511
 20
22.3334109614
 30
0.0
 11
9.9677192511
 21
23.2669872981
 31
0.0
  0
LINE
  5
35C
100
AcDbEntity
  8
RACCORDO
100
AcDbLine
 62
7
  6
CONTINUOUS
 10
9.975
 20
-22.399689968
 30
0.0
 11
9.975
 21
-24.2500042308
 31
0.0
  0
LINE
  5
35D
100
AcDbEntity
  8
RACCORDO
100
AcDbLine
 62
7
  6
CONTINUOUS
 10
9.975
 20
22.399689968
 30
0.0
 11
9.975
 21
24.2500042308
 31
0.0
  0
LINE
  5
35E
100
AcDbEntity
  8
RACCORDO
100
AcDbLine
 62
7
  6
CONTINUOUS
 10
10.475
 20
21.8911779406
 30
0.0
 11
10.475
 21
-21.8911779406
 31
0.0
  0
LINE
  5
35F
100
AcDbEntity
  8
RACCORDO
100
AcDbLine
 62
250
  6
CONTINUOUS
 10
9.7169962532
 20
-23.1226497308
 30
0.0
 11
9.7119056521
 21
-23.6278312164
 31
0.0
  0
LINE
  5
360
100
AcDbEntity
  8
RACCORDO
100
AcDbLine
 62
250
  6
CONTINUOUS
 10
9.9677192511
 20
-23.2669872981
 30
0.0
 11
9.9619014213
 21
-23.8443375673
 31
0.0
  0
LINE
  5
361
100
AcDbEntity
  8
RACCORDO
100
AcDbLine
 62
7
  6
CONTINUOUS
 10
7.575
 20
-22.4
 30
0.0
 11
7.5822807489
 21
-22.3344140523
 31
0.0
  0
LINE
  5
362
100
AcDbEntity
  8
RACCORDO
100
AcDbLine
 62
250
  6
CONTINUOUS
 10
-11.0750042308
 20
-24.5
 30
0.0
 11
-11.0619056521
 21
-24.4869014213
 31
0.0
  0
LINE
  5
363
100
AcDbEntity
  8
RACCORDO
100
AcDbLine
 62
250
  6
CONTINUOUS
 10
-11.0750042308
 20
24.5
 30
0.0
 11
-11.0619056521
 21
24.4869014213
 31
0.0
  0
LINE
  5
364
100
AcDbEntity
  8
RACCORDO
100
AcDbLine
 62
7
  6
CONTINUOUS
 10
7.575
 20
22.4
 30
0.0
 11
7.5822807489
 21
22.3344140523
 31
0.0
  0
LINE
  5
365
100
AcDbEntity
  8
RACCORDO
100
AcDbLine
 62
7
  6
CONTINUOUS
 10
-5.0720741618
 20
-23.7970741618
 30
0.0
 11
-5.075
 21
-23.8
 31
0.0
  0
LINE
  5
366
100
AcDbEntity
  8
RACCORDO
100
AcDbLine
 62
7
  6
CONTINUOUS
 10
-5.0720741618
 20
23.7970741618
 30
0.0
 11
-5.075
 21
23.8
 31
0.0
  0
LWPOLYLINE
  5
367
100
AcDbEntity
  8
0
100
AcDbPolyline
 62
7
  6
CONTINUOUS
 90
10
 70
0
 43
0.3500000006
 10
19.0749990234
 20
0.4285709152
 10
18.2178576851
 20
1.2857133865
 10
17.3607140808
 20
1.5000001373
 10
16.5035716095
 20
1.5000001373
 10
16.0750003738
 20
1.0714289017
 10
16.0750003738
 20
0.4285709152
 10
16.5035716095
 20
-0.0000003204
 10
17.3607140808
 20
-0.0000003204
 10
17.7892853165
 20
0.4285709152
 10
17.7892853165
 20
1.3571423035
  0
LINE
  5
368
100
AcDbEntity
  8
ASSI
100
AcDbLine
 62
7
  6
CONTINUOUS
 10
8.825
 20
15.6
 30
0.0
 11
-10.175
 21
15.6
 31
0.0
  0
LINE
  5
369
100
AcDbEntity
  8
RACCORDO
100
AcDbLine
 62
250
  6
CONTINUOUS
 10
8.525
 20
15.7031206241
 30
0.0
 11
-9.875
 21
15.7031206241
 31
0.0
  0
LWPOLYLINE
  5
36A
100
AcDbEntity
  8
0
100
AcDbPolyline
 62
7
  6
CONTINUOUS
 90
10
 70
0
 43
0.3500000006
 10
0.3964285558
 20
33.7500009155
 10
0.4678571541
 20
33.6071430817
 10
0.4678571541
 20
33.5357164307
 10
0.324999993
 20
33.3928585968
 10
0.2535714301
 20
33.3928585968
 10
0.1821428495
 20
33.4642852478
 10
0.1821428495
 20
33.5357164307
 10
0.2535714301
 20
33.6785697327
 10
0.324999993
 20
33.7500009155
 10
0.3964285558
 20
33.7500009155
  0
LWPOLYLINE
  5
36B
100
AcDbEntity
  8
0
100
AcDbPolyline
 62
7
  6
CONTINUOUS
 90
3
 70
0
 43
0.3500000006
 10
18.4321433029
 20
-0.8571427917
 10
18.4321433029
 20
-2.3571432495
 10
16.0750003738
 20
-1.7142852631
  0
LINE
  5
36C
100
AcDbEntity
  8
RACCORDO
100
AcDbLine
 62
250
  6
CONTINUOUS
 10
8.825
 20
19.9
 30
0.0
 11
8.775
 21
19.9
 31
0.0
  0
LINE
  5
36D
100
AcDbEntity
  8
RACCORDO
100
AcDbLine
 62
250
  6
CONTINUOUS
 10
-10.125
 20
19.9
 30
0.0
 11
-10.175
 21
19.9
 31
0.0
  0
LINE
  5
36E
100
AcDbEntity
  8
RACCORDO
100
AcDbLine
 62
7
  6
CONTINUOUS
 10
8.825
 20
20.4
 30
0.0
 11
8.775
 21
20.4
 31
0.0
  0
LINE
  5
36F
100
AcDbEntity
  8
RACCORDO
100
AcDbLine
 62
7
  6
CONTINUOUS
 10
-10.125
 20
20.4
 30
0.0
 11
-10.175
 21
20.4
 31
0.0
  0
LINE
  5
370
100
AcDbEntity
  8
ASSI
100
AcDbLine
 62
250
  6
CONTINUOUS
 10
-11.1577491915
 20
20.5624683248
 30
0.0
 11
-10.175
 21
20.5624683248
 31
0.0
  0
LINE
  5
371
100
AcDbEntity
  8
ASSI
100
AcDbLine
 62
250
  6
CONTINUOUS
 10
8.825
 20
20.5624683248
 30
0.0
 11
9.8077491915
 21
20.5624683248
 31
0.0
  0
LINE
  5
372
100
AcDbEntity
  8
RACCORDO
100
AcDbLine
 62
250
  6
CONTINUOUS
 10
8.525
 20
20.6248213396
 30
0.0
 11
-9.875
 21
20.6248213396
 31
0.0
  0
LINE
  5
373
100
AcDbEntity
  8
SMUSSO
100
AcDbLine
 62
7
  6
CONTINUOUS
 10
-10.175
 20
21.3
 30
0.0
 11
-10.125
 21
21.3
 31
0.0
  0
LINE
  5
374
100
AcDbEntity
  8
SMUSSO
100
AcDbLine
 62
7
  6
CONTINUOUS
 10
8.825
 20
21.3
 30
0.0
 11
8.775
 21
21.3
 31
0.0
  0
LINE
  5
375
100
AcDbEntity
  8
SMUSSO
100
AcDbLine
 62
7
  6
CONTINUOUS
 10
-10.175
 20
21.7
 30
0.0
 11
-10.125
 21
21.7
 31
0.0
  0
LINE
  5
376
100
AcDbEntity
  8
SMUSSO
100
AcDbLine
 62
7
  6
CONTINUOUS
 10
8.825
 20
21.7
 30
0.0
 11
8.775
 21
21.7
 31
0.0
  0
LINE
  5
377
100
AcDbEntity
  8
ASSI
100
AcDbLine
 62
250
  6
CONTINUOUS
 10
-11.1742759622
 20
21.998725222
 30
0.0
 11
-10.175
 21
21.998725222
 31
0.0
  0
LINE
  5
378
100
AcDbEntity
  8
ASSI
100
AcDbLine
 62
250
  6
CONTINUOUS
 10
8.825
 20
21.998725222
 30
0.0
 11
9.8242759622
 21
21.998725222
 31
0.0
  0
LINE
  5
379
100
AcDbEntity
  8
RACCORDO
100
AcDbLine
 62
250
  6
CONTINUOUS
 10
7.575
 20
-24.2500042308
 30
0.0
 11
7.5880985787
 21
-24.2369056521
 31
0.0
  0
LINE
  5
37A
100
AcDbEntity
  8
RACCORDO
100
AcDbLine
 62
250
  6
CONTINUOUS
 10
7.8249957692
 20
-24.5
 30
0.0
 11
7.8380943479
 21
-24.4869014213
 31
0.0
  0
LINE
  5
37B
100
AcDbEntity
  8
RACCORDO
100
AcDbLine
 62
250
  6
CONTINUOUS
 10
8.525
 20
22.0611911777
 30
0.0
 11
-9.875
 21
22.0611911777
 31
0.0
  0
LINE
  5
37C
100
AcDbEntity
  8
0
100
AcDbLine
 62
7
  6
CONTINUOUS
 10
8.825
 20
22.1379611036
 30
0.0
 11
8.6897145093
 21
22.1379611036
 31
0.0
  0
LINE
  5
37D
100
AcDbEntity
  8
0
100
AcDbLine
 62
7
  6
CONTINUOUS
 10
-10.039714702
 20
22.1379611036
 30
0.0
 11
-10.175
 21
22.1379611036
 31
0.0
  0
LINE
  5
37E
100
AcDbEntity
  8
RACCORDO
100
AcDbLine
 62
7
  6
CONTINUOUS
 10
-9.875
 20
22.2
 30
0.0
 11
8.525
 21
22.2
 31
0.0
  0
LINE
  5
37F
100
AcDbEntity
  8
RACCORDO
100
AcDbLine
 62
7
  6
CONTINUOUS
 10
-11.0677234819
 20
22.3213883311
 30
0.0
 11
-9.1822765181
 21
22.3213883311
 31
0.0
  0
LINE
  5
380
100
AcDbEntity
  8
RACCORDO
100
AcDbLine
 62
7
  6
CONTINUOUS
 10
7.8322765181
 20
22.3213883311
 30
0.0
 11
9.7177234819
 21
22.3213883311
 31
0.0
  0
LINE
  5
381
100
AcDbEntity
  8
RACCORDO
100
AcDbLine
 62
7
  6
CONTINUOUS
 10
3.2220826234
 20
22.3475922207
 30
0.0
 11
-4.5720826234
 21
22.3475922207
 31
0.0
  0
LINE
  5
382
100
AcDbEntity
  8
DRAFT
100
AcDbLine
 62
7
  6
CONTINUOUS
 10
7.575
 20
22.4
 30
0.0
 11
3.725
 21
22.4
 31
0.0
  0
LINE
  5
383
100
AcDbEntity
  8
DRAFT
100
AcDbLine
 62
7
  6
CONTINUOUS
 10
-5.075
 20
22.4
 30
0.0
 11
-8.925
 21
22.4
 31
0.0
  0
LINE
  5
384
100
AcDbEntity
  8
RACCORDO
100
AcDbLine
 62
7
  6
CONTINUOUS
 10
-11.0677234819
 20
23.1226497308
 30
0.0
 11
-9.1822765181
 21
23.1226497308
 31
0.0
  0
LINE
  5
385
100
AcDbEntity
  8
RACCORDO
100
AcDbLine
 62
7
  6
CONTINUOUS
 10
7.8322765181
 20
23.1226497308
 30
0.0
 11
9.7177234819
 21
23.1226497308
 31
0.0
  0
LINE
  5
386
100
AcDbEntity
  8
RACCORDO
100
AcDbLine
 62
250
  6
CONTINUOUS
 10
3.2220826234
 20
23.5953423515
 30
0.0
 11
-4.5720826234
 21
23.5953423515
 31
0.0
  0
LINE
  5
387
100
AcDbEntity
  8
RACCORDO
100
AcDbLine
 62
250
  6
CONTINUOUS
 10
-11.0619056521
 20
23.6278312164
 30
0.0
 11
-9.1880943479
 21
23.6278312164
 31
0.0
  0
LINE
  5
388
100
AcDbEntity
  8
RACCORDO
100
AcDbLine
 62
250
  6
CONTINUOUS
 10
7.8380943479
 20
23.6278312164
 30
0.0
 11
9.7119056521
 21
23.6278312164
 31
0.0
  0
LINE
  5
389
100
AcDbEntity
  8
RACCORDO
100
AcDbLine
 62
250
  6
CONTINUOUS
 10
3.6212073137
 20
23.7953389668
 30
0.0
 11
-4.9712073137
 21
23.7953389668
 31
0.0
  0
LINE
  5
38A
100
AcDbEntity
  8
DRAFT
100
AcDbLine
 62
7
  6
CONTINUOUS
 10
-5.075
 20
23.8
 30
0.0
 11
3.725
 21
23.8
 31
0.0
  0
LINE
  5
38B
100
AcDbEntity
  8
RACCORDO
100
AcDbLine
 62
250
  6
CONTINUOUS
 10
7.575
 20
24.2500042308
 30
0.0
 11
7.5880985787
 21
24.2369056521
 31
0.0
  0
LINE
  5
38C
100
AcDbEntity
  8
RACCORDO
100
AcDbLine
 62
250
  6
CONTINUOUS
 10
7.8249957692
 20
24.5
 30
0.0
 11
7.8380943479
 21
24.4869014213
 31
0.0
  0
LINE
  5
38D
100
AcDbEntity
  8
RACCORDO
100
AcDbLine
 62
250
  6
CONTINUOUS
 10
10.4575830976
 20
-21.8998857286
 30
0.0
 11
10.475
 21
-21.8911779406
 31
0.0
  0
LINE
  5
38E
100
AcDbEntity
  8
RACCORDO
100
AcDbLine
 62
7
  6
CONTINUOUS
 10
10.1810144094
 20
-22.3472251339
 30
0.0
 11
10.198517002
 21
-22.3384745041
 31
0.0
  0
LINE
  5
38F
100
AcDbEntity
  8
RACCORDO
100
AcDbLine
 62
250
  6
CONTINUOUS
 10
7.5880985787
 20
23.8443375673
 30
0.0
 11
9.9619014213
 21
23.8443375673
 31
0.0
  0
LINE
  5
390
100
AcDbEntity
  8
RACCORDO
100
AcDbLine
 62
250
  6
CONTINUOUS
 10
-8.9380985787
 20
23.8443375673
 30
0.0
 11
-11.3119014213
 21
23.8443375673
 31
0.0
  0
LINE
  5
391
100
AcDbEntity
  8
RACCORDO
100
AcDbLine
 62
250
  6
CONTINUOUS
 10
7.5880985787
 20
24.2369056521
 30
0.0
 11
9.9619014213
 21
24.2369056521
 31
0.0
  0
LINE
  5
392
100
AcDbEntity
  8
RACCORDO
100
AcDbLine
 62
250
  6
CONTINUOUS
 10
-8.9380985787
 20
24.2369056521
 30
0.0
 11
-11.3119014213
 21
24.2369056521
 31
0.0
  0
LINE
  5
393
100
AcDbEntity
  8
RACCORDO
100
AcDbLine
 62
250
  6
CONTINUOUS
 10
9.7119056521
 20
24.4869014213
 30
0.0
 11
7.8380943479
 21
24.4869014213
 31
0.0
  0
LINE
  5
394
100
AcDbEntity
  8
RACCORDO
100
AcDbLine
 62
250
  6
CONTINUOUS
 10
-9.1880943479
 20
24.4869014213
 30
0.0
 11
-11.0619056521
 21
24.4869014213
 31
0.0
  0
LINE
  5
395
100
AcDbEntity
  8
RACCORDO
100
AcDbLine
 62
7
  6
CONTINUOUS
 10
-11.0750042308
 20
24.5
 30
0.0
 11
-9.1749957692
 21
24.5
 31
0.0
  0
LINE
  5
396
100
AcDbEntity
  8
RACCORDO
100
AcDbLine
 62
7
  6
CONTINUOUS
 10
7.8249957692
 20
24.5
 30
0.0
 11
9.7250042308
 21
24.5
 31
0.0
  0
LWPOLYLINE
  5
397
100
AcDbEntity
  8
0
100
AcDbPolyline
 62
7
  6
CONTINUOUS
 90
6
 70
0
 43
0.3500000006
 10
1.4678571053
 20
33.2500007629
 10
2.5392857609
 20
33.2500007629
 10
2.7535713787
 20
33.4642852478
 10
2.7535713787
 20
34.535712204
 10
2.3250000014
 20
34.9642857056
 10
1.8964286242
 20
34.9642857056
  0
LWPOLYLINE
  5
398
100
AcDbEntity
  8
0
100
AcDbPolyline
 62
7
  6
CONTINUOUS
 90
7
 70
0
 43
0.3500000006
 10
-1.1035714417
 20
33.2500007629
 10
-2.6035713329
 20
33.2500007629
 10
-1.1035714417
 20
35.3928592072
 10
-1.1035714417
 20
35.8214281769
 10
-1.5321428189
 20
36.2500016785
 10
-2.1749999557
 20
36.2500016785
 10
-2.6035713329
 20
35.607143692
  0
LWPOLYLINE
  5
399
100
AcDbEntity
  8
0
100
AcDbPolyline
 62
7
  6
CONTINUOUS
 90
7
 70
0
 43
0.3500000006
 10
-3.4607143707
 20
33.2500007629
 10
-4.960714262
 20
33.2500007629
 10
-3.4607143707
 20
35.3928592072
 10
-3.4607143707
 20
35.8214281769
 10
-3.8892856064
 20
36.2500016785
 10
-4.5321427431
 20
36.2500016785
 10
-4.960714262
 20
35.607143692
  0
LINE
  5
39A
100
AcDbEntity
  8
RACCORDO
100
AcDbLine
 62
250
  6
CONTINUOUS
 10
10.475
 20
21.8911779406
 30
0.0
 11
10.4575830976
 21
21.8998857286
 31
0.0
  0
LINE
  5
39B
100
AcDbEntity
  8
RACCORDO
100
AcDbLine
 62
7
  6
CONTINUOUS
 10
10.198517002
 20
22.3384745041
 30
0.0
 11
10.1810144094
 21
22.3472251339
 31
0.0
  0
LWPOLYLINE
  5
39C
100
AcDbEntity
  8
0
100
AcDbPolyline
 62
7
  6
CONTINUOUS
 90
10
 70
0
 43
0.3500000006
 10
-60.7288049011
 20
43.2499992828
 10
-59.8716578979
 20
44.1071417542
 10
-59.6573734131
 20
44.9642842255
 10
-59.6573734131
 20
45.8214266968
 10
-60.0859469147
 20
46.2500001984
 10
-60.7288049011
 20
46.2500001984
 10
-61.1573738708
 20
45.8214266968
 10
-61.1573738708
 20
44.9642842255
 10
-60.7288049011
 20
44.5357152557
 10
-59.8002312469
 20
44.5357152557
  0
LWPOLYLINE
  5
39D
100
AcDbEntity
  8
0
100
AcDbPolyline
 62
7
  6
CONTINUOUS
 90
5
 70
0
 43
0.3500000006
 10
-62.4430898438
 20
44.9642842255
 10
-62.085947525
 20
45.1785732422
 10
-62.085947525
 20
45.8214266968
 10
-62.4430898438
 20
46.2500001984
 10
-63.3002323151
 20
46.2500001984
  0
LWPOLYLINE
  5
39E
100
AcDbEntity
  8
0
100
AcDbPolyline
 62
7
  6
CONTINUOUS
 90
5
 70
0
 43
0.3500000006
 10
-50.7770163116
 20
34.9642857056
 10
-50.4198739929
 20
35.1785701904
 10
-50.4198739929
 20
35.8214281769
 10
-50.7770163116
 20
36.2500016785
 10
-51.634158783
 20
36.2500016785
  0
LINE
  5
39F
100
AcDbEntity
  8
RACCORDO
100
AcDbLine
 62
250
  6
CONTINUOUS
 10
-69.4145173042
 20
23.4104851482
 30
0.0
 11
-68.6630628714
 21
23.8443375673
 31
0.0
  0
LINE
  5
3A0
100
AcDbEntity
  8
RACCORDO
100
AcDbLine
 62
7
  6
CONTINUOUS
 10
-69.4145173042
 20
23.1226497308
 30
0.0
 11
-68.5395173042
 21
23.6278312164
 31
0.0
  0
LINE
  5
3A1
100
AcDbEntity
  8
RACCORDO
100
AcDbLine
 62
250
  6
CONTINUOUS
 10
-68.6630628714
 20
-23.8443375673
 30
0.0
 11
-69.4145173042
 21
-23.4104851482
 31
0.0
  0
LINE
  5
3A2
100
AcDbEntity
  8
RACCORDO
100
AcDbLine
 62
7
  6
CONTINUOUS
 10
-68.5395173042
 20
-23.6278312164
 30
0.0
 11
-69.4145173042
 21
-23.1226497308
 31
0.0
  0
LINE
  5
3A3
100
AcDbEntity
  8
RACCORDO
100
AcDbLine
 62
7
  6
CONTINUOUS
 10
-68.6630628714
 20
-24.495628166
 30
0.0
 11
-69.4145173042
 21
-24.5
 31
0.0
  0
LINE
  5
3A4
100
AcDbEntity
  8
RACCORDO
100
AcDbLine
 62
250
  6
CONTINUOUS
 10
-68.6630628714
 20
-24.2456323968
 30
0.0
 11
-69.4145173042
 21
-24.2500042308
 31
0.0
  0
LINE
  5
3A5
100
AcDbEntity
  8
ASSI
100
AcDbLine
 62
7
  6
CONTINUOUS
 10
-68.4196083959
 20
-23.7942117893
 30
0.0
 11
-61.9116084386
 21
-23.7563493531
 31
0.0
  0
LINE
  5
3A6
100
AcDbEntity
  8
RACCORDO
100
AcDbLine
 62
250
  6
CONTINUOUS
 10
-68.4145173042
 20
-24.2456323968
 30
0.0
 11
-68.6630628714
 21
-24.2456323968
 31
0.0
  0
LINE
  5
3A7
100
AcDbEntity
  8
RACCORDO
100
AcDbLine
 62
250
  6
CONTINUOUS
 10
-71.9145173042
 20
-24.2369056521
 30
0.0
 11
-71.6659717371
 21
-24.2369056521
 31
0.0
  0
LINE
  5
3A8
100
AcDbEntity
  8
RACCORDO
100
AcDbLine
 62
250
  6
CONTINUOUS
 10
-71.9145173042
 20
-23.8443375673
 30
0.0
 11
-71.6659717371
 21
-23.8443375673
 31
0.0
  0
LINE
  5
3A9
100
AcDbEntity
  8
RACCORDO
100
AcDbLine
 62
250
  6
CONTINUOUS
 10
-68.4145173042
 20
-23.8443375673
 30
0.0
 11
-68.6630628714
 21
-23.8443375673
 31
0.0
  0
LINE
  5
3AA
100
AcDbEntity
  8
RACCORDO
100
AcDbLine
 62
7
  6
CONTINUOUS
 10
-69.4145173042
 20
-24.5
 30
0.0
 11
-71.6659717371
 21
-24.4869014213
 31
0.0
  0
LINE
  5
3AB
100
AcDbEntity
  8
RACCORDO
100
AcDbLine
 62
250
  6
CONTINUOUS
 10
-69.4145173042
 20
-24.2500042308
 30
0.0
 11
-71.6659717371
 21
-24.2369056521
 31
0.0
  0
LINE
  5
3AC
100
AcDbEntity
  8
RACCORDO
100
AcDbLine
 62
7
  6
CONTINUOUS
 10
-70.7900604462
 20
-22.3279108386
 30
0.0
 11
-77.0712961931
 21
-21.998725222
 31
0.0
  0
LWPOLYLINE
  5
3AD
100
AcDbEntity
  8
0
100
AcDbPolyline
 62
7
  6
CONTINUOUS
 90
10
 70
0
 43
0.3500000006
 10
-55.2770176849
 20
33.2500007629
 10
-54.4198752136
 20
34.1071432343
 10
-54.2055907288
 20
34.9642857056
 10
-54.2055907288
 20
35.8214281769
 10
-54.6341596985
 20
36.2500016785
 10
-55.2770176849
 20
36.2500016785
 10
-55.7055866547
 20
35.8214281769
 10
-55.7055866547
 20
34.9642857056
 10
-55.2770176849
 20
34.535712204
 10
-54.3484440308
 20
34.535712204
  0
LINE
  5
3AE
100
AcDbEntity
  8
RACCORDO
100
AcDbLine
 62
7
  6
CONTINUOUS
 10
-59.4057907688
 20
-22.3126551668
 30
0.0
 11
-69.4145173042
 21
-22.4
 31
0.0
  0
LINE
  5
3AF
100
AcDbEntity
  8
RACCORDO
100
AcDbLine
 62
250
  6
CONTINUOUS
 10
-69.4123309752
 20
-21.8998857286
 30
0.0
 11
-68.4145173042
 21
-21.8911779406
 31
0.0
  0
LINE
  5
3B0
100
AcDbEntity
  8
RACCORDO
100
AcDbLine
 62
7
  6
CONTINUOUS
 10
-58.4145173042
 20
-20.9959955457
 30
0.0
 11
-68.214730544
 21
-20.9104703804
 31
0.0
  0
LINE
  5
3B1
100
AcDbEntity
  8
RACCORDO
100
AcDbLine
 62
7
  6
CONTINUOUS
 10
-58.905791101
 20
-21.5659754333
 30
0.0
 11
-68.4145173042
 21
-21.4
 31
0.0
  0
LINE
  5
3B2
100
AcDbEntity
  8
RACCORDO
100
AcDbLine
 62
250
  6
CONTINUOUS
 10
-77.0538544182
 20
-21.4994104546
 30
0.0
 11
-69.4123309752
 21
-21.8998857286
 31
0.0
  0
LINE
  5
3B3
100
AcDbEntity
  8
DRAFT
100
AcDbLine
 62
7
  6
CONTINUOUS
 10
-68.214730544
 20
-20.9104703804
 30
0.0
 11
-68.4145173042
 21
-20.9
 31
0.0
  0
LINE
  5
3B4
100
AcDbEntity
  8
RACCORDO
100
AcDbLine
 62
250
  6
CONTINUOUS
 10
-78.0006724739
 20
-20.5419058565
 30
0.0
 11
-78.491523112
 21
-20.562468318
 31
0.0
  0
LINE
  5
3B5
100
AcDbEntity
  8
RACCORDO
100
AcDbLine
 62
7
  6
CONTINUOUS
 10
-58.4145173042
 20
-19.6808012501
 30
0.0
 11
-68.4145173042
 21
-17.917531443
 31
0.0
  0
LINE
  5
3B6
100
AcDbEntity
  8
RACCORDO
100
AcDbLine
 62
250
  6
CONTINUOUS
 10
-77.0599050034
 20
21.9993222089
 30
0.0
 11
-77.0631474161
 21
22.0611911777
 31
0.0
  0
LINE
  5
3B7
100
AcDbEntity
  8
RACCORDO
100
AcDbLine
 62
7
  6
CONTINUOUS
 10
-74.4145173042
 20
22.2
 30
0.0
 11
-74.4145173042
 21
22.1379611036
 31
0.0
  0
LINE
  5
3B8
100
AcDbEntity
  8
RACCORDO
100
AcDbLine
 62
7
  6
CONTINUOUS
 10
-71.9145173042
 20
-24.2369056521
 30
0.0
 11
-71.9145173042
 21
-23.8443375673
 31
0.0
  0
LINE
  5
3B9
100
AcDbEntity
  8
RACCORDO
100
AcDbLine
 62
7
  6
CONTINUOUS
 10
-71.9145173042
 20
23.8443375673
 30
0.0
 11
-71.9145173042
 21
24.2369056521
 31
0.0
  0
LINE
  5
3BA
100
AcDbEntity
  8
RACCORDO
100
AcDbLine
 62
250
  6
CONTINUOUS
 10
-71.6659717371
 20
-24.2369056521
 30
0.0
 11
-71.6659717371
 21
-23.8443375673
 31
0.0
  0
LINE
  5
3BB
100
AcDbEntity
  8
RACCORDO
100
AcDbLine
 62
250
  6
CONTINUOUS
 10
-71.6659717371
 20
23.8443375673
 30
0.0
 11
-71.6659717371
 21
24.2369056521
 31
0.0
  0
LWPOLYLINE
  5
3BC
100
AcDbEntity
  8
0
100
AcDbPolyline
 62
7
  6
CONTINUOUS
 90
3
 70
0
 43
0.3500000006
 10
-58.0859463043
 20
43.5357149506
 10
-58.1573729553
 20
43.3214304657
 10
-58.3002307892
 20
43.035714798
  0
LINE
  5
3BD
100
AcDbEntity
  8
RACCORDO
100
AcDbLine
 62
7
  6
CONTINUOUS
 10
-67.7308821876
 20
11.5836351166
 30
0.0
 11
-68.0266493386
 21
11.2878679656
 31
0.0
  0
LINE
  5
3BE
100
AcDbEntity
  8
RACCORDO
100
AcDbLine
 62
7
  6
CONTINUOUS
 10
-70.9145173042
 20
-23.1226497308
 30
0.0
 11
-70.9145173042
 21
-22.3213883311
 31
0.0
  0
LINE
  5
3BF
100
AcDbEntity
  8
RACCORDO
100
AcDbLine
 62
7
  6
CONTINUOUS
 10
-70.9145173042
 20
22.3213883311
 30
0.0
 11
-70.9145173042
 21
23.1226497308
 31
0.0
  0
LINE
  5
3C0
100
AcDbEntity
  8
RACCORDO
100
AcDbLine
 62
250
  6
CONTINUOUS
 10
-70.6659717371
 20
-23.2669872981
 30
0.0
 11
-70.6659717371
 21
-22.3334109614
 31
0.0
  0
LINE
  5
3C1
100
AcDbEntity
  8
RACCORDO
100
AcDbLine
 62
250
  6
CONTINUOUS
 10
-70.6659717371
 20
22.3334109614
 30
0.0
 11
-70.6659717371
 21
23.2669872981
 31
0.0
  0
LINE
  5
3C2
100
AcDbEntity
  8
RACCORDO
100
AcDbLine
 62
7
  6
CONTINUOUS
 10
-69.4145173042
 20
-22.399689968
 30
0.0
 11
-69.4145173042
 21
-24.2500042308
 31
0.0
  0
LINE
  5
3C3
100
AcDbEntity
  8
RACCORDO
100
AcDbLine
 62
7
  6
CONTINUOUS
 10
-69.4145173042
 20
22.399689968
 30
0.0
 11
-69.4145173042
 21
24.2500042308
 31
0.0
  0
LINE
  5
3C4
100
AcDbEntity
  8
IMPORT_IGES
100
AcDbLine
 62
7
  6
CONTINUOUS
 10
-47.6577386333
 20
-10.3687150013
 30
0.0
 11
-47.6168536085
 21
-10.3621906047
 31
0.0
  0
LINE
  5
3C5
100
AcDbEntity
  8
IMPORT_IGES
100
AcDbLine
 62
7
  6
CONTINUOUS
 10
-47.6883309137
 20
-10.3702378001
 30
0.0
 11
-47.6577386333
 21
-10.3687150013
 31
0.0
  0
LINE
  5
3C6
100
AcDbEntity
  8
RACCORDO
100
AcDbLine
 62
7
  6
CONTINUOUS
 10
-67.0145173042
 20
-10.8101132618
 30
0.0
 11
-68.4145173042
 21
-10.8223308767
 31
0.0
  0
LINE
  5
3C7
100
AcDbEntity
  8
RACCORDO
100
AcDbLine
 62
250
  6
CONTINUOUS
 10
-67.0145173042
 20
-10.3101323002
 30
0.0
 11
-68.4145173042
 21
-10.3223499151
 31
0.0
  0
LINE
  5
3C8
100
AcDbEntity
  8
IMPORT_IGES
100
AcDbLine
 62
7
  6
CONTINUOUS
 10
-60.0076690954
 20
-10.6516997999
 30
0.0
 11
-60.4476547823
 21
-10.6523799383
 31
0.0
  0
LINE
  5
3C9
100
AcDbEntity
  8
IMPORT_IGES
100
AcDbLine
 62
7
  6
CONTINUOUS
 10
-57.8645173042
 20
-11.15
 30
0.0
 11
-57.3645173042
 21
-11.15
 31
0.0
  0
LINE
  5
3CA
100
AcDbEntity
  8
IMPORT_IGES
100
AcDbLine
 62
7
  6
CONTINUOUS
 10
-51.1645173042
 20
-11.15
 30
0.0
 11
-50.6645173042
 21
-11.15
 31
0.0
  0
LINE
  5
3CB
100
AcDbEntity
  8
IMPORT_IGES
100
AcDbLine
 62
7
  6
CONTINUOUS
 10
-52.7776559721
 20
-11.15
 30
0.0
 11
-55.8136810038
 21
-11.15
 31
0.0
  0
LINE
  5
3CC
100
AcDbEntity
  8
IMPORT_IGES
100
AcDbLine
 62
250
  6
CONTINUOUS
 10
-50.5645173042
 20
-11.05
 30
0.0
 11
-51.2645173042
 21
-11.05
 31
0.0
  0
LINE
  5
3CD
100
AcDbEntity
  8
IMPORT_IGES
100
AcDbLine
 62
250
  6
CONTINUOUS
 10
-57.2645173042
 20
-11.05
 30
0.0
 11
-57.9645173042
 21
-11.05
 31
0.0
  0
LINE
  5
3CE
100
AcDbEntity
  8
IMPORT_IGES
100
AcDbLine
 62
7
  6
CONTINUOUS
 10
-48.3216240857
 20
-10.95
 30
0.0
 11
-59.3083842867
 21
-10.95
 31
0.0
  0
LINE
  5
3CF
100
AcDbEntity
  8
IMPORT_IGES
100
AcDbLine
 62
250
  6
CONTINUOUS
 10
-59.5134095398
 20
-10.8621320344
 30
0.0
 11
-49.0721187697
 21
-10.8621320344
 31
0.0
  0
LINE
  5
3D0
100
AcDbEntity
  8
IMPORT_IGES
100
AcDbLine
 62
250
  6
CONTINUOUS
 10
-48.3216240854
 20
-10.75
 30
0.0
 11
-48.672322189
 21
-10.7500000284
 31
0.0
  0
LINE
  5
3D1
100
AcDbEntity
  8
IMPORT_IGES
100
AcDbLine
 62
7
  6
CONTINUOUS
 10
-48.6645639139
 20
-10.3702173642
 30
0.0
 11
-47.6883295816
 21
-10.3702173642
 31
0.0
  0
LINE
  5
3D2
100
AcDbEntity
  8
IMPORT_IGES
100
AcDbLine
 62
250
  6
CONTINUOUS
 10
-47.688288058
 20
-10.3116387202
 30
0.0
 11
-48.6645639201
 21
-10.3116387201
 31
0.0
  0
LINE
  5
3D3
100
AcDbEntity
  8
RACCORDO
100
AcDbLine
 62
250
  6
CONTINUOUS
 10
-68.6630628714
 20
24.2456323968
 30
0.0
 11
-68.6630628714
 21
23.8443375673
 31
0.0
  0
LINE
  5
3D4
100
AcDbEntity
  8
RACCORDO
100
AcDbLine
 62
250
  6
CONTINUOUS
 10
-68.6630628714
 20
-23.8443375673
 30
0.0
 11
-68.6630628714
 21
-24.2456323968
 31
0.0
  0
LINE
  5
3D5
100
AcDbEntity
  8
RACCORDO
100
AcDbLine
 62
7
  6
CONTINUOUS
 10
-68.4145173042
 20
24.2456323968
 30
0.0
 11
-68.4145173042
 21
23.8443375673
 31
0.0
  0
LINE
  5
3D6
100
AcDbEntity
  8
RACCORDO
100
AcDbLine
 62
7
  6
CONTINUOUS
 10
-68.4145173042
 20
22.3912731322
 30
0.0
 11
-68.4145173042
 21
-22.3912731322
 31
0.0
  0
LINE
  5
3D7
100
AcDbEntity
  8
RACCORDO
100
AcDbLine
 62
7
  6
CONTINUOUS
 10
-68.4145173042
 20
-23.7941821702
 30
0.0
 11
-68.4145173042
 21
-24.2456323968
 31
0.0
  0
LINE
  5
3D8
100
AcDbEntity
  8
0
100
AcDbLine
 62
7
  6
CONTINUOUS
 10
-67.9352292985
 20
11.2500290004
 30
0.0
 11
-67.9352292985
 21
11.3500290004
 31
0.0
  0
LINE
  5
3D9
100
AcDbEntity
  8
0
100
AcDbLine
 62
7
  6
CONTINUOUS
 10
-67.9115468567
 20
11.2500290004
 30
0.0
 11
-67.9115468567
 21
11.3500290004
 31
0.0
  0
LINE
  5
3DA
100
AcDbEntity
  8
0
100
AcDbLine
 62
7
  6
CONTINUOUS
 10
-67.9027461902
 20
11.2500290004
 30
0.0
 11
-67.9027461902
 21
11.3500290004
 31
0.0
  0
LINE
  5
3DB
100
AcDbEntity
  8
0
100
AcDbLine
 62
7
  6
CONTINUOUS
 10
-67.8497793105
 20
11.2500290004
 30
0.0
 11
-67.8497793105
 21
11.3500290004
 31
0.0
  0
LINE
  5
3DC
100
AcDbEntity
  8
0
100
AcDbLine
 62
7
  6
CONTINUOUS
 10
-67.8260570201
 20
11.2500290004
 30
0.0
 11
-67.8260570201
 21
11.3500290004
 31
0.0
  0
LINE
  5
3DD
100
AcDbEntity
  8
0
100
AcDbLine
 62
250
  6
CONTINUOUS
 10
-67.8164315581
 20
11.2500290004
 30
0.0
 11
-67.8164315581
 21
11.3500290004
 31
0.0
  0
LINE
  5
3DE
100
AcDbEntity
  8
0
100
AcDbLine
 62
250
  6
CONTINUOUS
 10
-67.7408424688
 20
11.2500290004
 30
0.0
 11
-67.7408424688
 21
11.3500290004
 31
0.0
  0
LINE
  5
3DF
100
AcDbEntity
  8
0
100
AcDbLine
 62
7
  6
CONTINUOUS
 10
-67.612512633
 20
11.2500290004
 30
0.0
 11
-67.612512633
 21
11.3500290004
 31
0.0
  0
LINE
  5
3E0
100
AcDbEntity
  8
0
100
AcDbLine
 62
7
  6
CONTINUOUS
 10
-67.4502677854
 20
11.2500290004
 30
0.0
 11
-67.4502677854
 21
11.3500290004
 31
0.0
  0
LINE
  5
3E1
100
AcDbEntity
  8
0
100
AcDbLine
 62
7
  6
CONTINUOUS
 10
-67.4295624311
 20
11.2500290004
 30
0.0
 11
-67.4295624311
 21
11.3500290004
 31
0.0
  0
LINE
  5
3E2
100
AcDbEntity
  8
0
100
AcDbLine
 62
250
  6
CONTINUOUS
 10
-67.3913639287
 20
11.2500290004
 30
0.0
 11
-67.3913639287
 21
11.3500290004
 31
0.0
  0
LINE
  5
3E3
100
AcDbEntity
  8
0
100
AcDbLine
 62
7
  6
CONTINUOUS
 10
-67.253593693
 20
11.2500290004
 30
0.0
 11
-67.253593693
 21
11.3500290004
 31
0.0
  0
LINE
  5
3E4
100
AcDbEntity
  8
RACCORDO
100
AcDbLine
 62
250
  6
CONTINUOUS
 10
-67.2119112613
 20
12.4118358927
 30
0.0
 11
-67.2119112613
 21
11.5881641073
 31
0.0
  0
LINE
  5
3E5
100
AcDbEntity
  8
RACCORDO
100
AcDbLine
 62
250
  6
CONTINUOUS
 10
-67.2119112613
 20
8.35
 30
0.0
 11
-67.2119112613
 21
7.2881641073
 31
0.0
  0
LINE
  5
3E6
100
AcDbEntity
  8
RACCORDO
100
AcDbLine
 62
250
  6
CONTINUOUS
 10
-67.2119112613
 20
0.4118358927
 30
0.0
 11
-67.2119112613
 21
-0.4118358927
 31
0.0
  0
LINE
  5
3E7
100
AcDbEntity
  8
RACCORDO
100
AcDbLine
 62
250
  6
CONTINUOUS
 10
-67.2119112613
 20
-7.9881641073
 30
0.0
 11
-67.2119112613
 21
-8.8118358927
 31
0.0
  0
LINE
  5
3E8
100
AcDbEntity
  8
IMPORT_IGES
100
AcDbLine
 62
7
  6
CONTINUOUS
 10
-63.7250260047
 20
8.1894912995
 30
0.0
 11
-62.0523852699
 21
9.8621320344
 31
0.0
  0
LINE
  5
3E9
100
AcDbEntity
  8
IMPORT_IGES
100
AcDbLine
 62
250
  6
CONTINUOUS
 10
-63.6013756809
 20
7.88992475
 30
0.0
 11
-63.4145173042
 21
8.0767831267
 31
0.0
  0
LINE
  5
3EA
100
AcDbEntity
  8
IMPORT_IGES
100
AcDbLine
 62
250
  6
CONTINUOUS
 10
-63.1145173042
 20
8.3757359313
 30
0.0
 11
-61.8402532355
 21
9.65
 31
0.0
  0
LINE
  5
3EB
100
AcDbEntity
  8
IMPORT_IGES
100
AcDbLine
 62
7
  6
CONTINUOUS
 10
-65.7534066342
 20
5.9569269492
 30
0.0
 11
-66.8885089678
 21
5.0600559696
 31
0.0
  0
LINE
  5
3EC
100
AcDbEntity
  8
IMPORT_IGES
100
AcDbLine
 62
250
  6
CONTINUOUS
 10
-66.7645173042
 20
4.9031290204
 30
0.0
 11
-65.6294149707
 21
5.8
 31
0.0
  0
LWPOLYLINE
  5
3ED
100
AcDbEntity
  8
IMPORT_IGES
100
AcDbPolyline
 62
7
  6
CONTINUOUS
 90
8
 70
0
 10
-57.1190346864
 20
10.9372100348
 10
-57.1267503859
 20
10.9324160129
 10
-57.1340570722
 20
10.9269006816
 10
-57.140568672
 20
10.9210128209
 10
-57.1456840023
 20
10.9155952512
 10
-57.149405574
 20
10.9111274679
 10
-57.1523299233
 20
10.9072714644
 10
-57.1540088629
 20
10.9048998132
  0
LWPOLYLINE
  5
3EE
100
AcDbEntity
  8
IMPORT_IGES
100
AcDbPolyline
 62
7
  6
CONTINUOUS
 90
3
 70
0
 10
-57.1180738306
 20
10.9377350237
 10
-57.1260303803
 20
10.9328971971
 10
-57.1333082472
 20
10.9275055062
  0
LINE
  5
3EF
100
AcDbEntity
  8
RACCORDO
100
AcDbLine
 62
7
  6
CONTINUOUS
 10
-67.0145173042
 20
-8.8101132618
 30
0.0
 11
-68.4145173042
 21
-8.8223308767
 31
0.0
  0
LINE
  5
3F0
100
AcDbEntity
  8
IMPORT_IGES
100
AcDbLine
 62
250
  6
CONTINUOUS
 10
-61.4050091881
 20
-10.0409280323
 30
0.0
 11
-47.4175773754
 21
-10.0409280368
 31
0.0
  0
LINE
  5
3F1
100
AcDbEntity
  8
IMPORT_IGES
100
AcDbLine
 62
250
  6
CONTINUOUS
 10
-61.4050092039
 20
-9.8287960079
 30
0.0
 11
-47.4175773809
 21
-9.8287960079
 31
0.0
  0
LINE
  5
3F2
100
AcDbEntity
  8
IMPORT_IGES
100
AcDbLine
 62
250
  6
CONTINUOUS
 10
-63.4145173042
 20
-8.7357372121
 30
0.0
 11
-63.1145173042
 21
-8.7357372121
 31
0.0
  0
LINE
  5
3F3
100
AcDbEntity
  8
IMPORT_IGES
100
AcDbLine
 62
7
  6
CONTINUOUS
 10
-43.9645173042
 20
-8.2454966127
 30
0.0
 11
-43.2645173042
 21
-8.2454966127
 31
0.0
  0
LINE
  5
3F4
100
AcDbEntity
  8
IMPORT_IGES
100
AcDbLine
 62
7
  6
CONTINUOUS
 10
-60.0073031234
 20
-10.6504633557
 30
0.0
 11
-59.3083842867
 21
-10.95
 31
0.0
  0
LINE
  5
3F5
100
AcDbEntity
  8
IMPORT_IGES
100
AcDbLine
 62
7
  6
CONTINUOUS
 10
-65.1899725183
 20
-7.8843776508
 30
0.0
 11
-63.3311537626
 21
-8.9429338024
 31
0.0
  0
LINE
  5
3F6
100
AcDbEntity
  8
IMPORT_IGES
100
AcDbLine
 62
250
  6
CONTINUOUS
 10
-63.4145173042
 20
-8.5508211038
 30
0.0
 11
-65.1111000035
 21
-7.5846547966
 31
0.0
  0
LINE
  5
3F7
100
AcDbEntity
  8
IMPORT_IGES
100
AcDbLine
 62
250
  6
CONTINUOUS
 10
-60.4476547823
 20
-10.6523799383
 30
0.0
 11
-61.4050091881
 21
-10.0409280323
 31
0.0
  0
LINE
  5
3F8
100
AcDbEntity
  8
IMPORT_IGES
100
AcDbLine
 62
7
  6
CONTINUOUS
 10
-60.941030764
 20
-10.4815463048
 30
0.0
 11
-63.2761257432
 21
-8.9884875088
 31
0.0
  0
LINE
  5
3F9
100
AcDbEntity
  8
IMPORT_IGES
100
AcDbLine
 62
250
  6
CONTINUOUS
 10
-61.4050092039
 20
-9.8287960079
 30
0.0
 11
-63.1145173042
 21
-8.7357372121
 31
0.0
  0
LINE
  5
3FA
100
AcDbEntity
  8
IMPORT_IGES
100
AcDbLine
 62
7
  6
CONTINUOUS
 10
-66.8885089678
 20
-4.7600559695
 30
0.0
 11
-65.7534066342
 21
-5.6569269492
 31
0.0
  0
LINE
  5
3FB
100
AcDbEntity
  8
IMPORT_IGES
100
AcDbLine
 62
250
  6
CONTINUOUS
 10
-65.6294149707
 20
-5.5
 30
0.0
 11
-66.7645173042
 21
-4.6031290204
 31
0.0
  0
LINE
  5
3FC
100
AcDbEntity
  8
RACCORDO
100
AcDbLine
 62
7
  6
CONTINUOUS
 10
-67.0145173042
 20
13.8101132618
 30
0.0
 11
-67.0145173042
 21
11.5898867382
 31
0.0
  0
LINE
  5
3FD
100
AcDbEntity
  8
RACCORDO
100
AcDbLine
 62
7
  6
CONTINUOUS
 10
-67.0145173042
 20
8.35
 30
0.0
 11
-67.0145173042
 21
7.2898867382
 31
0.0
  0
LINE
  5
3FE
100
AcDbEntity
  8
RACCORDO
100
AcDbLine
 62
7
  6
CONTINUOUS
 10
-67.0145173042
 20
0.4101132618
 30
0.0
 11
-67.0145173042
 21
-0.4101132618
 31
0.0
  0
LINE
  5
3FF
100
AcDbEntity
  8
RACCORDO
100
AcDbLine
 62
7
  6
CONTINUOUS
 10
-67.0145173042
 20
-10.8101132618
 30
0.0
 11
-67.0145173042
 21
-6.2872801014
 31
0.0
  0
LINE
  5
400
100
AcDbEntity
  8
IMPORT_IGES
100
AcDbLine
 62
7
  6
CONTINUOUS
 10
-66.9645173042
 20
4.9031290204
 30
0.0
 11
-66.9645173042
 21
-4.6031290204
 31
0.0
  0
LINE
  5
401
100
AcDbEntity
  8
ASSI
100
AcDbLine
 62
7
  6
CONTINUOUS
 10
-66.9645173042
 20
4.9031290204
 30
0.0
 11
-66.9645173042
 21
-4.6031290204
 31
0.0
  0
LINE
  5
402
100
AcDbEntity
  8
0
100
AcDbLine
 62
250
  6
CONTINUOUS
 10
-66.957181509
 20
11.2500290004
 30
0.0
 11
-66.957181509
 21
11.3500290004
 31
0.0
  0
LINE
  5
403
100
AcDbEntity
  8
0
100
AcDbLine
 62
250
  6
CONTINUOUS
 10
-66.8746084093
 20
11.2500290004
 30
0.0
 11
-66.8746084093
 21
11.3500290004
 31
0.0
  0
LINE
  5
404
100
AcDbEntity
  8
0
100
AcDbLine
 62
7
  6
CONTINUOUS
 10
-66.8069451576
 20
11.2500290004
 30
0.0
 11
-66.8069451576
 21
11.3500290004
 31
0.0
  0
LINE
  5
405
100
AcDbEntity
  8
0
100
AcDbLine
 62
7
  6
CONTINUOUS
 10
-66.7862398074
 20
11.2500290004
 30
0.0
 11
-66.7862398074
 21
11.3500290004
 31
0.0
  0
LINE
  5
406
100
AcDbEntity
  8
ASSI
100
AcDbLine
 62
250
  6
CONTINUOUS
 10
-66.7645173042
 20
-4.6031290204
 30
0.0
 11
-66.7645173042
 21
4.9031290204
 31
0.0
  0
LINE
  5
407
100
AcDbEntity
  8
0
100
AcDbLine
 62
250
  6
CONTINUOUS
 10
-66.6813335522
 20
11.2500290004
 30
0.0
 11
-66.6813335522
 21
11.3500290004
 31
0.0
  0
LINE
  5
408
100
AcDbEntity
  8
0
100
AcDbLine
 62
7
  6
CONTINUOUS
 10
-66.658309983
 20
11.2500290004
 30
0.0
 11
-66.658309983
 21
11.3500290004
 31
0.0
  0
LINE
  5
409
100
AcDbEntity
  8
0
100
AcDbLine
 62
7
  6
CONTINUOUS
 10
-66.3810255736
 20
11.2500290004
 30
0.0
 11
-66.3810255736
 21
11.3500290004
 31
0.0
  0
LINE
  5
40A
100
AcDbEntity
  8
0
100
AcDbLine
 62
7
  6
CONTINUOUS
 10
-66.3691707439
 20
11.2500290004
 30
0.0
 11
-66.3691707439
 21
11.3500290004
 31
0.0
  0
LINE
  5
40B
100
AcDbEntity
  8
0
100
AcDbLine
 62
7
  6
CONTINUOUS
 10
-66.1727210679
 20
11.2500290004
 30
0.0
 11
-66.1727210679
 21
11.3500290004
 31
0.0
  0
LINE
  5
40C
100
AcDbEntity
  8
0
100
AcDbLine
 62
250
  6
CONTINUOUS
 10
-66.1224813681
 20
11.2500290004
 30
0.0
 11
-66.1224813681
 21
11.3500290004
 31
0.0
  0
LINE
  5
40D
100
AcDbEntity
  8
0
100
AcDbLine
 62
7
  6
CONTINUOUS
 10
-66.0282844968
 20
11.2500290004
 30
0.0
 11
-66.0282844968
 21
11.3500290004
 31
0.0
  0
LINE
  5
40E
100
AcDbEntity
  8
0
100
AcDbLine
 62
7
  6
CONTINUOUS
 10
-66.0036478392
 20
11.2500290004
 30
0.0
 11
-66.0036478392
 21
11.3500290004
 31
0.0
  0
LINE
  5
40F
100
AcDbEntity
  8
0
100
AcDbLine
 62
7
  6
CONTINUOUS
 10
-65.9606260996
 20
11.2500290004
 30
0.0
 11
-65.9606260996
 21
11.3500290004
 31
0.0
  0
LINE
  5
410
100
AcDbEntity
  8
IMPORT_IGES
100
AcDbLine
 62
250
  6
CONTINUOUS
 10
-65.6294149707
 20
6.0
 30
0.0
 11
-65.6294149707
 21
5.8
 31
0.0
  0
LINE
  5
411
100
AcDbEntity
  8
IMPORT_IGES
100
AcDbLine
 62
250
  6
CONTINUOUS
 10
-65.6294149707
 20
-5.5
 30
0.0
 11
-65.6294149707
 21
-5.7
 31
0.0
  0
LINE
  5
412
100
AcDbEntity
  8
0
100
AcDbLine
 62
7
  6
CONTINUOUS
 10
-65.3621889955
 20
11.2500290004
 30
0.0
 11
-65.3621889955
 21
11.3500290004
 31
0.0
  0
LINE
  5
413
100
AcDbEntity
  8
0
100
AcDbLine
 62
7
  6
CONTINUOUS
 10
-65.2787569797
 20
11.2500290004
 30
0.0
 11
-65.2787569797
 21
11.3500290004
 31
0.0
  0
LINE
  5
414
100
AcDbEntity
  8
0
100
AcDbLine
 62
7
  6
CONTINUOUS
 10
-65.260666315
 20
11.2500290004
 30
0.0
 11
-65.260666315
 21
11.3500290004
 31
0.0
  0
LINE
  5
415
100
AcDbEntity
  8
0
100
AcDbLine
 62
7
  6
CONTINUOUS
 10
-65.1894283503
 20
11.2500290004
 30
0.0
 11
-65.1894283503
 21
11.3500290004
 31
0.0
  0
LINE
  5
416
100
AcDbEntity
  8
0
100
AcDbLine
 62
7
  6
CONTINUOUS
 10
-65.1282183736
 20
11.2500290004
 30
0.0
 11
-65.1282183736
 21
11.3500290004
 31
0.0
  0
LINE
  5
417
100
AcDbEntity
  8
0
100
AcDbLine
 62
7
  6
CONTINUOUS
 10
-65.0735682057
 20
11.3500290004
 30
0.0
 11
-65.0735682057
 21
11.2500290004
 31
0.0
  0
LINE
  5
418
100
AcDbEntity
  8
0
100
AcDbLine
 62
250
  6
CONTINUOUS
 10
-65.0721668363
 20
11.2500290004
 30
0.0
 11
-65.0721668363
 21
11.3500290004
 31
0.0
  0
LINE
  5
419
100
AcDbEntity
  8
0
100
AcDbLine
 62
7
  6
CONTINUOUS
 10
-65.0648457804
 20
11.2500290004
 30
0.0
 11
-65.0648457804
 21
11.3500290004
 31
0.0
  0
LWPOLYLINE
  5
41A
100
AcDbEntity
  8
IMPORT_IGES
100
AcDbPolyline
 62
7
  6
CONTINUOUS
 90
14
 70
0
 10
-57.1333082472
 20
10.9275055062
 10
-57.1397082111
 20
10.9218398682
 10
-57.1447417231
 20
10.9166402635
 10
-57.1484014328
 20
10.9123673065
 10
-57.1512089734
 20
10.9087725701
 10
-57.1535557148
 20
10.9055529654
 10
-57.1554948733
 20
10.902757928
 10
-57.1571523942
 20
10.9002901665
 10
-57.1588859606
 20
10.897647717
 10
-57.1607955251
 20
10.894681553
 10
-57.1628307486
 20
10.8914720426
 10
-57.1650704487
 20
10.8878965428
 10
-57.1675500657
 20
10.8838974951
 10
-57.1728720932
 20
10.8752118854
  0
LINE
  5
41B
100
AcDbEntity
  8
IMPORT_IGES
100
AcDbLine
 62
250
  6
CONTINUOUS
 10
-45.1145173042
 20
-7.7428932184
 30
0.0
 11
-45.4145173042
 21
-7.7428932188
 31
0.0
  0
LINE
  5
41C
100
AcDbEntity
  8
IMPORT_IGES
100
AcDbLine
 62
7
  6
CONTINUOUS
 10
-39.9145173042
 20
-6.6502977476
 30
0.0
 11
-39.3145173042
 21
-6.6502977476
 31
0.0
  0
LINE
  5
41D
100
AcDbEntity
  8
IMPORT_IGES
100
AcDbLine
 62
7
  6
CONTINUOUS
 10
-45.1145173042
 20
-6.2955
 30
0.0
 11
-45.0345173042
 21
-6.2955
 31
0.0
  0
LINE
  5
41E
100
AcDbEntity
  8
IMPORT_IGES
100
AcDbLine
 62
250
  6
CONTINUOUS
 10
-44.7859964092
 20
-6.8855045028
 30
0.0
 11
-42.9645173042
 21
-6.8855626484
 31
0.0
  0
LINE
  5
41F
100
AcDbEntity
  8
IMPORT_IGES
100
AcDbLine
 62
7
  6
CONTINUOUS
 10
-67.0145173042
 20
-7.8780087621
 30
0.0
 11
-65.1899725183
 21
-7.8843776507
 31
0.0
  0
LINE
  5
420
100
AcDbEntity
  8
IMPORT_IGES
100
AcDbLine
 62
250
  6
CONTINUOUS
 10
-65.1111000035
 20
-7.5846547966
 30
0.0
 11
-67.0145173042
 21
-7.5780105898
 31
0.0
  0
LINE
  5
421
100
AcDbEntity
  8
RACCORDO
100
AcDbLine
 62
7
  6
CONTINUOUS
 10
-68.4145173042
 20
-7.9776691233
 30
0.0
 11
-67.0145173042
 21
-7.9898867382
 31
0.0
  0
LINE
  5
422
100
AcDbEntity
  8
RACCORDO
100
AcDbLine
 62
7
  6
CONTINUOUS
 10
-68.4145173042
 20
-5.9776691233
 30
0.0
 11
-67.3118993436
 21
-5.9872915245
 31
0.0
  0
LINE
  5
423
100
AcDbEntity
  8
0
100
AcDbLine
 62
7
  6
CONTINUOUS
 10
-65.0027959705
 20
11.2500290004
 30
0.0
 11
-65.0027959705
 21
11.3500290004
 31
0.0
  0
LINE
  5
424
100
AcDbEntity
  8
0
100
AcDbLine
 62
7
  6
CONTINUOUS
 10
-64.9747545249
 20
11.2500290004
 30
0.0
 11
-64.9747545249
 21
11.3500290004
 31
0.0
  0
LINE
  5
425
100
AcDbEntity
  8
0
100
AcDbLine
 62
250
  6
CONTINUOUS
 10
-64.9660991091
 20
11.2500290004
 30
0.0
 11
-64.9660991091
 21
11.3500290004
 31
0.0
  0
LINE
  5
426
100
AcDbEntity
  8
0
100
AcDbLine
 62
250
  6
CONTINUOUS
 10
-64.9464309172
 20
11.2500290004
 30
0.0
 11
-64.9464309172
 21
11.3500290004
 31
0.0
  0
LINE
  5
427
100
AcDbEntity
  8
0
100
AcDbLine
 62
250
  6
CONTINUOUS
 10
-64.8846830569
 20
11.2500290004
 30
0.0
 11
-64.8846830569
 21
11.3500290004
 31
0.0
  0
LINE
  5
428
100
AcDbEntity
  8
0
100
AcDbLine
 62
250
  6
CONTINUOUS
 10
-64.7751645892
 20
11.2500290004
 30
0.0
 11
-64.7751645892
 21
11.3500290004
 31
0.0
  0
LINE
  5
429
100
AcDbEntity
  8
0
100
AcDbLine
 62
250
  6
CONTINUOUS
 10
-64.6073868777
 20
11.2500290004
 30
0.0
 11
-64.6073868777
 21
11.3500290004
 31
0.0
  0
LINE
  5
42A
100
AcDbEntity
  8
0
100
AcDbLine
 62
7
  6
CONTINUOUS
 10
-64.5525234012
 20
11.2500290004
 30
0.0
 11
-64.5525234012
 21
11.3500290004
 31
0.0
  0
LINE
  5
42B
100
AcDbEntity
  8
0
100
AcDbLine
 62
7
  6
CONTINUOUS
 10
-64.5223459605
 20
11.2500290004
 30
0.0
 11
-64.5223459605
 21
11.3500290004
 31
0.0
  0
LINE
  5
42C
100
AcDbEntity
  8
0
100
AcDbLine
 62
7
  6
CONTINUOUS
 10
-64.4600329186
 20
11.2500290004
 30
0.0
 11
-64.4600329186
 21
11.3500290004
 31
0.0
  0
LINE
  5
42D
100
AcDbEntity
  8
0
100
AcDbLine
 62
7
  6
CONTINUOUS
 10
-64.4345765115
 20
11.2500290004
 30
0.0
 11
-64.4345765115
 21
11.3500290004
 31
0.0
  0
LINE
  5
42E
100
AcDbEntity
  8
0
100
AcDbLine
 62
250
  6
CONTINUOUS
 10
-64.3423961768
 20
11.2500290004
 30
0.0
 11
-64.3423961768
 21
11.3500290004
 31
0.0
  0
LINE
  5
42F
100
AcDbEntity
  8
0
100
AcDbLine
 62
7
  6
CONTINUOUS
 10
-64.2765086119
 20
11.2500290004
 30
0.0
 11
-64.2765086119
 21
11.3500290004
 31
0.0
  0
LINE
  5
430
100
AcDbEntity
  8
IMPORT_IGES
100
AcDbLine
 62
7
  6
CONTINUOUS
 10
-64.2145173042
 20
-2.2
 30
0.0
 11
-64.2145173042
 21
2.5
 31
0.0
  0
LINE
  5
431
100
AcDbEntity
  8
0
100
AcDbLine
 62
7
  6
CONTINUOUS
 10
-64.1145423214
 20
11.2500290004
 30
0.0
 11
-64.1145423214
 21
11.3500290004
 31
0.0
  0
LINE
  5
432
100
AcDbEntity
  8
0
100
AcDbLine
 62
7
  6
CONTINUOUS
 10
-64.1040118454
 20
11.2500290004
 30
0.0
 11
-64.1040118454
 21
11.3500290004
 31
0.0
  0
LINE
  5
433
100
AcDbEntity
  8
IMPORT_IGES
100
AcDbLine
 62
7
  6
CONTINUOUS
 10
-64.0645173042
 20
2.4406817792
 30
0.0
 11
-64.0645173042
 21
-2.1406237792
 31
0.0
  0
LINE
  5
434
100
AcDbEntity
  8
IMPORT_IGES
100
AcDbLine
 62
250
  6
CONTINUOUS
 10
-63.9045173042
 20
-2.1434165896
 30
0.0
 11
-63.9045173042
 21
2.4434745896
 31
0.0
  0
LINE
  5
435
100
AcDbEntity
  8
0
100
AcDbLine
 62
7
  6
CONTINUOUS
 10
-63.8175005247
 20
11.2500290004
 30
0.0
 11
-63.8175005247
 21
11.3500290004
 31
0.0
  0
LINE
  5
436
100
AcDbEntity
  8
0
100
AcDbLine
 62
250
  6
CONTINUOUS
 10
-63.7446421347
 20
11.2500290004
 30
0.0
 11
-63.7446421347
 21
11.3500290004
 31
0.0
  0
LINE
  5
437
100
AcDbEntity
  8
0
100
AcDbLine
 62
7
  6
CONTINUOUS
 10
-63.4998166265
 20
11.2500290004
 30
0.0
 11
-63.4998166265
 21
11.3500290004
 31
0.0
  0
LINE
  5
438
100
AcDbEntity
  8
0
100
AcDbLine
 62
7
  6
CONTINUOUS
 10
-63.4840626655
 20
11.2500290004
 30
0.0
 11
-63.4840626655
 21
11.3500290004
 31
0.0
  0
LINE
  5
439
100
AcDbEntity
  8
IMPORT_IGES
100
AcDbLine
 62
7
  6
CONTINUOUS
 10
-63.4645173042
 20
-5.7
 30
0.0
 11
-63.4645173042
 21
-3.2759794687
 31
0.0
  0
LINE
  5
43A
100
AcDbEntity
  8
IMPORT_IGES
100
AcDbLine
 62
7
  6
CONTINUOUS
 10
-63.4645173042
 20
3.5759794687
 30
0.0
 11
-63.4645173042
 21
6.0
 31
0.0
  0
LINE
  5
43B
100
AcDbEntity
  8
IMPORT_IGES
100
AcDbLine
 62
7
  6
CONTINUOUS
 10
-63.4145173042
 20
-8.7357372124
 30
0.0
 11
-63.4145173042
 21
-3.454027901
 31
0.0
  0
LINE
  5
43C
100
AcDbEntity
  8
IMPORT_IGES
100
AcDbLine
 62
7
  6
CONTINUOUS
 10
-63.4145173042
 20
3.7540279004
 30
0.0
 11
-63.4145173042
 21
8.3757359313
 31
0.0
  0
LINE
  5
43D
100
AcDbEntity
  8
IMPORT_IGES
100
AcDbLine
 62
7
  6
CONTINUOUS
 10
-63.3145173042
 20
-2.1537150779
 30
0.0
 11
-63.3145173042
 21
2.4537730779
 31
0.0
  0
LINE
  5
43E
100
AcDbEntity
  8
0
100
AcDbLine
 62
7
  6
CONTINUOUS
 10
-63.2432343499
 20
11.2500290004
 30
0.0
 11
-63.2432343499
 21
11.3500290004
 31
0.0
  0
LINE
  5
43F
100
AcDbEntity
  8
IMPORT_IGES
100
AcDbLine
 62
250
  6
CONTINUOUS
 10
-63.1145173042
 20
8.3757359313
 30
0.0
 11
-63.1145173042
 21
3.7540279011
 31
0.0
  0
LINE
  5
440
100
AcDbEntity
  8
IMPORT_IGES
100
AcDbLine
 62
250
  6
CONTINUOUS
 10
-63.1145173042
 20
-3.4540279011
 30
0.0
 11
-63.1145173042
 21
-8.7357372121
 31
0.0
  0
LINE
  5
441
100
AcDbEntity
  8
0
100
AcDbLine
 62
250
  6
CONTINUOUS
 10
-63.1028146072
 20
11.2500290004
 30
0.0
 11
-63.1028146072
 21
11.3500290004
 31
0.0
  0
LINE
  5
442
100
AcDbEntity
  8
0
100
AcDbLine
 62
7
  6
CONTINUOUS
 10
-63.0690073785
 20
11.2500290004
 30
0.0
 11
-63.0690073785
 21
11.3500290004
 31
0.0
  0
LINE
  5
443
100
AcDbEntity
  8
0
100
AcDbLine
 62
7
  6
CONTINUOUS
 10
-63.0487003072
 20
11.2500290004
 30
0.0
 11
-63.0487003072
 21
11.3500290004
 31
0.0
  0
LWPOLYLINE
  5
444
100
AcDbEntity
  8
0
100
AcDbPolyline
 62
7
  6
CONTINUOUS
 90
3
 70
0
 43
0.3500000006
 10
-52.6341590881
 20
33.5357164307
 10
-52.705590271
 20
33.3214274139
 10
-52.8484481049
 20
33.0357162781
  0
LINE
  5
445
100
AcDbEntity
  8
IMPORT_IGES
100
AcDbLine
 62
250
  6
CONTINUOUS
 10
-63.1145173042
 20
3.7540279011
 30
0.0
 11
-63.2699428214
 21
3.4974291704
 31
0.0
  0
LINE
  5
446
100
AcDbEntity
  8
IMPORT_IGES
100
AcDbLine
 62
7
  6
CONTINUOUS
 10
-57.6916189827
 20
10.022388085
 30
0.0
 11
-57.1729226772
 21
10.8751820653
 31
0.0
  0
LINE
  5
447
100
AcDbEntity
  8
IMPORT_IGES
100
AcDbLine
 62
250
  6
CONTINUOUS
 10
-57.6060806027
 20
10.057142667
 30
0.0
 11
-57.0874592674
 21
10.909808329
 31
0.0
  0
LINE
  5
448
100
AcDbEntity
  8
IMPORT_IGES
100
AcDbLine
 62
7
  6
CONTINUOUS
 10
-65.6294149707
 20
-5.7
 30
0.0
 11
-63.4645173042
 21
-5.7
 31
0.0
  0
LINE
  5
449
100
AcDbEntity
  8
IMPORT_IGES
100
AcDbLine
 62
7
  6
CONTINUOUS
 10
-42.9645173042
 20
-5.6502977476
 30
0.0
 11
-40.2145173042
 21
-5.6502977476
 31
0.0
  0
LINE
  5
44A
100
AcDbEntity
  8
IMPORT_IGES
100
AcDbLine
 62
250
  6
CONTINUOUS
 10
-63.4645173042
 20
-5.5
 30
0.0
 11
-65.6294149707
 21
-5.5
 31
0.0
  0
LINE
  5
44B
100
AcDbEntity
  8
IMPORT_IGES
100
AcDbLine
 62
250
  6
CONTINUOUS
 10
-66.9645173042
 20
-4.6031290204
 30
0.0
 11
-66.7645173042
 21
-4.6031290204
 31
0.0
  0
LINE
  5
44C
100
AcDbEntity
  8
IMPORT_IGES
100
AcDbLine
 62
250
  6
CONTINUOUS
 10
-63.2699428212
 20
-3.1974291702
 30
0.0
 11
-63.1145173042
 21
-3.4540279011
 31
0.0
  0
LINE
  5
44D
100
AcDbEntity
  8
IMPORT_IGES
100
AcDbLine
 62
7
  6
CONTINUOUS
 10
-62.9145173042
 20
2.5656164976
 30
0.0
 11
-62.9145173042
 21
-2.2656164976
 31
0.0
  0
LINE
  5
44E
100
AcDbEntity
  8
0
100
AcDbLine
 62
7
  6
CONTINUOUS
 10
-62.9120802703
 20
11.2500290004
 30
0.0
 11
-62.9120802703
 21
11.3500290004
 31
0.0
  0
LINE
  5
44F
100
AcDbEntity
  8
0
100
AcDbLine
 62
7
  6
CONTINUOUS
 10
-62.695434001
 20
11.2500290004
 30
0.0
 11
-62.695434001
 21
11.3500290004
 31
0.0
  0
LINE
  5
450
100
AcDbEntity
  8
0
100
AcDbLine
 62
7
  6
CONTINUOUS
 10
-62.6823375251
 20
11.2500290004
 30
0.0
 11
-62.6823375251
 21
11.3500290004
 31
0.0
  0
LINE
  5
451
100
AcDbEntity
  8
0
100
AcDbLine
 62
250
  6
CONTINUOUS
 10
-62.5708246809
 20
11.2500290004
 30
0.0
 11
-62.5708246809
 21
11.3500290004
 31
0.0
  0
LINE
  5
452
100
AcDbEntity
  8
0
100
AcDbLine
 62
250
  6
CONTINUOUS
 10
-62.439289575
 20
11.2500290004
 30
0.0
 11
-62.439289575
 21
11.3500290004
 31
0.0
  0
LINE
  5
453
100
AcDbEntity
  8
0
100
AcDbLine
 62
7
  6
CONTINUOUS
 10
-62.4293593478
 20
11.2500290004
 30
0.0
 11
-62.4293593478
 21
11.3500290004
 31
0.0
  0
LINE
  5
454
100
AcDbEntity
  8
IMPORT_IGES
100
AcDbLine
 62
250
  6
CONTINUOUS
 10
-61.8402532355
 20
9.95
 30
0.0
 11
-61.8402532355
 21
9.65
 31
0.0
  0
LINE
  5
455
100
AcDbEntity
  8
ASSI
100
AcDbLine
 62
250
  6
CONTINUOUS
 10
-61.8399974775
 20
-22.3338981669
 30
0.0
 11
-61.8399974775
 21
-23.7507734247
 31
0.0
  0
LINE
  5
456
100
AcDbEntity
  8
ASSI
100
AcDbLine
 62
250
  6
CONTINUOUS
 10
-61.8399974775
 20
22.3338981669
 30
0.0
 11
-61.8399974775
 21
23.7507734247
 31
0.0
  0
LINE
  5
457
100
AcDbEntity
  8
IMPORT_IGES
100
AcDbLine
 62
7
  6
CONTINUOUS
 10
-61.7145173042
 20
2.5656164976
 30
0.0
 11
-61.7145173042
 21
-2.2656164976
 31
0.0
  0
LINE
  5
458
100
AcDbEntity
  8
IMPORT_IGES
100
AcDbLine
 62
7
  6
CONTINUOUS
 10
-61.6645173042
 20
-2.225
 30
0.0
 11
-61.6645173042
 21
2.525
 31
0.0
  0
LINE
  5
459
100
AcDbEntity
  8
RACCORDO
100
AcDbLine
 62
7
  6
CONTINUOUS
 10
-61.4145173042
 20
-22.330195412
 30
0.0
 11
-61.4145173042
 21
-23.2563578147
 31
0.0
  0
LINE
  5
45A
100
AcDbEntity
  8
RACCORDO
100
AcDbLine
 62
7
  6
CONTINUOUS
 10
-61.4145173042
 20
22.330195412
 30
0.0
 11
-61.4145173042
 21
23.2563578147
 31
0.0
  0
LINE
  5
45B
100
AcDbEntity
  8
IMPORT_IGES
100
AcDbLine
 62
250
  6
CONTINUOUS
 10
-61.4050092039
 20
-9.8287960079
 30
0.0
 11
-61.4050091881
 21
-10.0409280368
 31
0.0
  0
LINE
  5
45C
100
AcDbEntity
  8
IMPORT_IGES
100
AcDbLine
 62
250
  6
CONTINUOUS
 10
-61.3645173042
 20
2.6940279011
 30
0.0
 11
-61.3645173042
 21
0.055
 31
0.0
  0
LINE
  5
45D
100
AcDbEntity
  8
IMPORT_IGES
100
AcDbLine
 62
250
  6
CONTINUOUS
 10
-61.3645173042
 20
-0.045
 30
0.0
 11
-61.3645173042
 21
-2.3940279011
 31
0.0
  0
LINE
  5
45E
100
AcDbEntity
  8
0
100
AcDbLine
 62
7
  6
CONTINUOUS
 10
-61.3645173042
 20
11.2500290004
 30
0.0
 11
-61.3645173042
 21
11.3500290004
 31
0.0
  0
LINE
  5
45F
100
AcDbEntity
  8
0
100
AcDbLine
 62
250
  6
CONTINUOUS
 10
-61.2423820842
 20
11.2500290004
 30
0.0
 11
-61.2423820842
 21
11.3500290004
 31
0.0
  0
LINE
  5
460
100
AcDbEntity
  8
0
100
AcDbLine
 62
250
  6
CONTINUOUS
 10
-60.9468660324
 20
11.2500290004
 30
0.0
 11
-60.9468660324
 21
11.3500290004
 31
0.0
  0
LINE
  5
461
100
AcDbEntity
  8
IMPORT_IGES
100
AcDbLine
 62
250
  6
CONTINUOUS
 10
-66.7645173042
 20
-4.6031290204
 30
0.0
 11
-66.8885089678
 21
-4.7600559695
 31
0.0
  0
LINE
  5
462
100
AcDbEntity
  8
IMPORT_IGES
100
AcDbLine
 62
250
  6
CONTINUOUS
 10
-63.1145173042
 20
-3.4540279011
 30
0.0
 11
-63.4145173042
 21
-3.454027901
 31
0.0
  0
LINE
  5
463
100
AcDbEntity
  8
IMPORT_IGES
100
AcDbLine
 62
250
  6
CONTINUOUS
 10
-39.3145173042
 20
-3.3447563529
 30
0.0
 11
-39.9145173042
 21
-3.3447563525
 31
0.0
  0
LINE
  5
464
100
AcDbEntity
  8
IMPORT_IGES
100
AcDbLine
 62
250
  6
CONTINUOUS
 10
-40.2145173042
 20
-3.2423514472
 30
0.0
 11
-42.9645173042
 21
-3.2423514469
 31
0.0
  0
LINE
  5
465
100
AcDbEntity
  8
IMPORT_IGES
100
AcDbLine
 62
7
  6
CONTINUOUS
 10
-39.3145173042
 20
-2.9299131308
 30
0.0
 11
-42.9645173042
 21
-2.9299131308
 31
0.0
  0
LINE
  5
466
100
AcDbEntity
  8
IMPORT_IGES
100
AcDbLine
 62
7
  6
CONTINUOUS
 10
-62.9145173042
 20
-2.2656164976
 30
0.0
 11
-63.4645173042
 21
-2.2656164976
 31
0.0
  0
LINE
  5
467
100
AcDbEntity
  8
IMPORT_IGES
100
AcDbLine
 62
7
  6
CONTINUOUS
 10
-64.0645173042
 20
-1.8876514453
 30
0.0
 11
-64.2145173042
 21
-1.8876514453
 31
0.0
  0
LINE
  5
468
100
AcDbEntity
  8
IMPORT_IGES
100
AcDbLine
 62
7
  6
CONTINUOUS
 10
-40.2145173042
 20
-3.1298769965
 30
0.0
 11
-40.1145173042
 21
-3.1306916122
 31
0.0
  0
LINE
  5
469
100
AcDbEntity
  8
IMPORT_IGES
100
AcDbLine
 62
7
  6
CONTINUOUS
 10
-62.9145173042
 20
-2.1606971039
 30
0.0
 11
-64.0645173042
 21
-2.1406237792
 31
0.0
  0
LINE
  5
46A
100
AcDbEntity
  8
IMPORT_IGES
100
AcDbLine
 62
7
  6
CONTINUOUS
 10
-64.2145173042
 20
-2.2
 30
0.0
 11
-63.4645173042
 21
-2.2656164976
 31
0.0
  0
LINE
  5
46B
100
AcDbEntity
  8
IMPORT_IGES
100
AcDbLine
 62
7
  6
CONTINUOUS
 10
-64.2145173042
 20
-1.3855933529
 30
0.0
 11
-64.0645173042
 21
-1.4590497836
 31
0.0
  0
LINE
  5
46C
100
AcDbEntity
  8
IMPORT_IGES
100
AcDbLine
 62
250
  6
CONTINUOUS
 10
-66.8885089678
 20
5.0600559695
 30
0.0
 11
-66.7645173042
 21
4.9031290204
 31
0.0
  0
LINE
  5
46D
100
AcDbEntity
  8
0
100
AcDbLine
 62
250
  6
CONTINUOUS
 10
-60.6870276746
 20
11.2500290004
 30
0.0
 11
-60.6870276746
 21
11.3500290004
 31
0.0
  0
LINE
  5
46E
100
AcDbEntity
  8
0
100
AcDbLine
 62
7
  6
CONTINUOUS
 10
-60.5890013068
 20
11.2500290004
 30
0.0
 11
-60.5890013068
 21
11.3500290004
 31
0.0
  0
LINE
  5
46F
100
AcDbEntity
  8
0
100
AcDbLine
 62
250
  6
CONTINUOUS
 10
-60.3532717555
 20
11.2500290004
 30
0.0
 11
-60.3532717555
 21
11.3500290004
 31
0.0
  0
LINE
  5
470
100
AcDbEntity
  8
0
100
AcDbLine
 62
7
  6
CONTINUOUS
 10
-60.184161432
 20
11.2500290004
 30
0.0
 11
-60.184161432
 21
11.3500290004
 31
0.0
  0
LINE
  5
471
100
AcDbEntity
  8
0
100
AcDbLine
 62
7
  6
CONTINUOUS
 10
-60.1457272678
 20
11.2500290004
 30
0.0
 11
-60.1457272678
 21
11.3500290004
 31
0.0
  0
LINE
  5
472
100
AcDbEntity
  8
RACCORDO
100
AcDbLine
 62
250
  6
CONTINUOUS
 10
-58.905791101
 20
21.5659754333
 30
0.0
 11
-58.905791101
 21
20.9917082642
 31
0.0
  0
LINE
  5
473
100
AcDbEntity
  8
RACCORDO
100
AcDbLine
 62
250
  6
CONTINUOUS
 10
-58.905791101
 20
-20.9917082642
 30
0.0
 11
-58.905791101
 21
-21.5659754333
 31
0.0
  0
LINE
  5
474
100
AcDbEntity
  8
IMPORT_IGES
100
AcDbLine
 62
250
  6
CONTINUOUS
 10
-65.7534066342
 20
-5.6569269492
 30
0.0
 11
-65.6294149707
 21
-5.5
 31
0.0
  0
LINE
  5
475
100
AcDbEntity
  8
RACCORDO
100
AcDbLine
 62
7
  6
CONTINUOUS
 10
-67.0145173042
 20
-0.4101132618
 30
0.0
 11
-68.4145173042
 21
-0.4223308767
 31
0.0
  0
LINE
  5
476
100
AcDbEntity
  8
0
100
AcDbLine
 62
7
  6
CONTINUOUS
 10
-64.2145173042
 20
-0.3
 30
0.0
 11
-64.0645173042
 21
-0.3
 31
0.0
  0
LINE
  5
477
100
AcDbEntity
  8
IMPORT_IGES
100
AcDbLine
 62
7
  6
CONTINUOUS
 10
-46.8145173042
 20
-0.245
 30
0.0
 11
-46.9545173042
 21
-0.245
 31
0.0
  0
LINE
  5
478
100
AcDbEntity
  8
IMPORT_IGES
100
AcDbLine
 62
7
  6
CONTINUOUS
 10
-47.1545173042
 20
-0.045
 30
0.0
 11
-61.6645173042
 21
-0.045
 31
0.0
  0
LINE
  5
479
100
AcDbEntity
  8
IMPORT_IGES
100
AcDbLine
 62
7
  6
CONTINUOUS
 10
-47.1145173042
 20
0.055
 30
0.0
 11
-61.6645173042
 21
0.055
 31
0.0
  0
LINE
  5
47A
100
AcDbEntity
  8
0
100
AcDbLine
 62
7
  6
CONTINUOUS
 10
-64.0645173042
 20
0.2
 30
0.0
 11
-64.2145173042
 21
0.2
 31
0.0
  0
LINE
  5
47B
100
AcDbEntity
  8
IMPORT_IGES
100
AcDbLine
 62
250
  6
CONTINUOUS
 10
-43.2645173042
 20
0.2710819832
 30
0.0
 11
-42.9645173042
 21
0.2710819831
 31
0.0
  0
LINE
  5
47C
100
AcDbEntity
  8
IMPORT_IGES
100
AcDbLine
 62
250
  6
CONTINUOUS
 10
-48.1094920511
 20
-10.6621320344
 30
0.0
 11
-47.9680706946
 21
-10.8035533904
 31
0.0
  0
LINE
  5
47D
100
AcDbEntity
  8
IMPORT_IGES
100
AcDbLine
 62
250
  6
CONTINUOUS
 10
-65.6294149707
 20
5.8
 30
0.0
 11
-65.7534066342
 21
5.9569269492
 31
0.0
  0
LINE
  5
47E
100
AcDbEntity
  8
RACCORDO
100
AcDbLine
 62
7
  6
CONTINUOUS
 10
-58.4145173042
 20
-19.6808012501
 30
0.0
 11
-58.4145173042
 21
-21.3126932437
 31
0.0
  0
LINE
  5
47F
100
AcDbEntity
  8
RACCORDO
100
AcDbLine
 62
7
  6
CONTINUOUS
 10
-58.4145173042
 20
19.6808012501
 30
0.0
 11
-58.4145173042
 21
21.3126932437
 31
0.0
  0
LINE
  5
480
100
AcDbEntity
  8
IMPORT_IGES
100
AcDbLine
 62
7
  6
CONTINUOUS
 10
-57.723095948
 20
9.9425689389
 30
0.0
 11
-57.723095948
 21
9.8136691388
 31
0.0
  0
LINE
  5
481
100
AcDbEntity
  8
IMPORT_IGES
100
AcDbLine
 62
250
  6
CONTINUOUS
 10
-57.673095948
 20
9.65
 30
0.0
 11
-57.673095931
 21
9.8919698424
 31
0.0
  0
LWPOLYLINE
  5
482
100
AcDbEntity
  8
0
100
AcDbPolyline
 62
7
  6
CONTINUOUS
 90
4
 70
0
 43
0.3500000006
 10
-57.0859459991
 20
43.6785727844
 10
-57.0859459991
 20
44.5357152557
 10
-56.6573724976
 20
44.9642842255
 10
-56.014519043
 20
44.9642842255
  0
LINE
  5
483
100
AcDbEntity
  8
IMPORT_IGES
100
AcDbLine
 62
250
  6
CONTINUOUS
 10
-63.1145173042
 20
-8.7357372121
 30
0.0
 11
-63.2761257432
 21
-8.9884875088
 31
0.0
  0
LINE
  5
484
100
AcDbEntity
  8
IMPORT_IGES
100
AcDbLine
 62
250
  6
CONTINUOUS
 10
-46.0009501139
 20
10.4182430924
 30
0.0
 11
-46.1070161311
 21
10.3121770752
 31
0.0
  0
LINE
  5
485
100
AcDbEntity
  8
IMPORT_IGES
100
AcDbLine
 62
7
  6
CONTINUOUS
 10
-61.6645173042
 20
-2.225
 30
0.0
 11
-61.7145173042
 21
-2.2552857143
 31
0.0
  0
LINE
  5
486
100
AcDbEntity
  8
IMPORT_IGES
100
AcDbLine
 62
7
  6
CONTINUOUS
 10
-62.0787387588
 20
-2.4758998525
 30
0.0
 11
-63.2699428219
 21
-3.1974291707
 31
0.0
  0
LINE
  5
487
100
AcDbEntity
  8
IMPORT_IGES
100
AcDbLine
 62
250
  6
CONTINUOUS
 10
-63.1145173042
 20
-3.4540279011
 30
0.0
 11
-61.3645173042
 21
-2.3940279011
 31
0.0
  0
LINE
  5
488
100
AcDbEntity
  8
IMPORT_IGES
100
AcDbLine
 62
7
  6
CONTINUOUS
 10
-61.7145173042
 20
-2.2656164976
 30
0.0
 11
-63.4645173042
 21
-3.2759794687
 31
0.0
  0
LINE
  5
489
100
AcDbEntity
  8
IMPORT_IGES
100
AcDbLine
 62
250
  6
CONTINUOUS
 10
-44.4414068882
 20
4.2100763026
 30
0.0
 11
-44.805888406
 21
4.0452939517
 31
0.0
  0
LINE
  5
48A
100
AcDbEntity
  8
IMPORT_IGES
100
AcDbLine
 62
7
  6
CONTINUOUS
 10
-39.3395173042
 20
1.05
 30
0.0
 11
-42.9645173042
 21
1.05
 31
0.0
  0
LINE
  5
48B
100
AcDbEntity
  8
IMPORT_IGES
100
AcDbLine
 62
250
  6
CONTINUOUS
 10
-39.3395173042
 20
1.0602689168
 30
0.0
 11
-39.7021989381
 21
1.0602687
 31
0.0
  0
LINE
  5
48C
100
AcDbEntity
  8
IMPORT_IGES
100
AcDbLine
 62
250
  6
CONTINUOUS
 10
-42.9645173042
 20
1.2751337748
 30
0.0
 11
-43.1145173042
 21
1.2751337748
 31
0.0
  0
LINE
  5
48D
100
AcDbEntity
  8
IMPORT_IGES
100
AcDbLine
 62
250
  6
CONTINUOUS
 10
-39.9395172845
 20
1.3612007857
 30
0.0
 11
-42.9645173042
 21
1.3612007857
 31
0.0
  0
LINE
  5
48E
100
AcDbEntity
  8
IMPORT_IGES
100
AcDbLine
 62
250
  6
CONTINUOUS
 10
-39.3395173042
 20
1.3642013385
 30
0.0
 11
-39.6395173042
 21
1.3642013384
 31
0.0
  0
LINE
  5
48F
100
AcDbEntity
  8
IMPORT_IGES
100
AcDbLine
 62
250
  6
CONTINUOUS
 10
-42.9645173042
 20
1.4255813757
 30
0.0
 11
-39.9395173042
 21
1.4255811473
 31
0.0
  0
LINE
  5
490
100
AcDbEntity
  8
IMPORT_IGES
100
AcDbLine
 62
250
  6
CONTINUOUS
 10
-39.3395173042
 20
1.8209477701
 30
0.0
 11
-39.6395173042
 21
1.8209477703
 31
0.0
  0
LINE
  5
491
100
AcDbEntity
  8
RACCORDO
100
AcDbLine
 62
7
  6
CONTINUOUS
 10
-68.4145173042
 20
0.4223308767
 30
0.0
 11
-67.0145173042
 21
0.4101132618
 31
0.0
  0
LINE
  5
492
100
AcDbEntity
  8
IMPORT_IGES
100
AcDbLine
 62
7
  6
CONTINUOUS
 10
-63.4645173042
 20
3.5759794687
 30
0.0
 11
-61.7145173042
 21
2.5656164976
 31
0.0
  0
LINE
  5
493
100
AcDbEntity
  8
IMPORT_IGES
100
AcDbLine
 62
7
  6
CONTINUOUS
 10
-63.2699428214
 20
3.4974291704
 30
0.0
 11
-62.0787387589
 21
2.7758998525
 31
0.0
  0
LINE
  5
494
100
AcDbEntity
  8
IMPORT_IGES
100
AcDbLine
 62
7
  6
CONTINUOUS
 10
-61.7145173042
 20
2.5552857143
 30
0.0
 11
-61.6645173042
 21
2.525
 31
0.0
  0
LINE
  5
495
100
AcDbEntity
  8
IMPORT_IGES
100
AcDbLine
 62
250
  6
CONTINUOUS
 10
-61.3645173042
 20
2.6940279011
 30
0.0
 11
-63.1145173042
 21
3.7540279011
 31
0.0
  0
LINE
  5
496
100
AcDbEntity
  8
IMPORT_IGES
100
AcDbLine
 62
250
  6
CONTINUOUS
 10
-47.4175773809
 20
-9.8287960079
 30
0.0
 11
-47.2054453468
 21
-10.0409280425
 31
0.0
  0
LINE
  5
497
100
AcDbEntity
  8
IMPORT_IGES
100
AcDbLine
 62
7
  6
CONTINUOUS
 10
-55.8130129649
 20
-10.95
 30
0.0
 11
-55.8130129649
 21
-11.15
 31
0.0
  0
LINE
  5
498
100
AcDbEntity
  8
IMPORT_IGES
100
AcDbLine
 62
250
  6
CONTINUOUS
 10
-55.7107222744
 20
-10.95
 30
0.0
 11
-55.7107222446
 21
-11.15
 31
0.0
  0
LINE
  5
499
100
AcDbEntity
  8
IMPORT_IGES
100
AcDbLine
 62
7
  6
CONTINUOUS
 10
-54.8130129649
 20
11.15
 30
0.0
 11
-54.8130129649
 21
10.95
 31
0.0
  0
LINE
  5
49A
100
AcDbEntity
  8
IMPORT_IGES
100
AcDbLine
 62
7
  6
CONTINUOUS
 10
-54.7772973042
 20
10.95
 30
0.0
 11
-54.7772973042
 21
11.15
 31
0.0
  0
LINE
  5
49B
100
AcDbEntity
  8
IMPORT_IGES
100
AcDbLine
 62
250
  6
CONTINUOUS
 10
-61.5666176426
 20
-10.0815463048
 30
0.0
 11
-61.4050092039
 21
-9.8287960079
 31
0.0
  0
LINE
  5
49C
100
AcDbEntity
  8
IMPORT_IGES
100
AcDbLine
 62
250
  6
CONTINUOUS
 10
-47.7452824543
 20
10.036927121
 30
0.0
 11
-47.9258269611
 21
9.7973364678
 31
0.0
  0
LINE
  5
49D
100
AcDbEntity
  8
IMPORT_IGES
100
AcDbLine
 62
250
  6
CONTINUOUS
 10
-44.594402917
 20
4.7514284601
 30
0.0
 11
-44.9912183037
 21
4.7010543707
 31
0.0
  0
LINE
  5
49E
100
AcDbEntity
  8
IMPORT_IGES
100
AcDbLine
 62
7
  6
CONTINUOUS
 10
-63.4645173042
 20
2.5656164976
 30
0.0
 11
-64.2145173042
 21
2.5
 31
0.0
  0
LINE
  5
49F
100
AcDbEntity
  8
IMPORT_IGES
100
AcDbLine
 62
7
  6
CONTINUOUS
 10
-64.0645173042
 20
2.4406817792
 30
0.0
 11
-62.9145173042
 21
2.4607551039
 31
0.0
  0
LINE
  5
4A0
100
AcDbEntity
  8
IMPORT_IGES
100
AcDbLine
 62
7
  6
CONTINUOUS
 10
-63.4645173042
 20
2.5656164976
 30
0.0
 11
-62.9145173042
 21
2.5656164976
 31
0.0
  0
LINE
  5
4A1
100
AcDbEntity
  8
IMPORT_IGES
100
AcDbLine
 62
250
  6
CONTINUOUS
 10
-39.9395173042
 20
2.5675145105
 30
0.0
 11
-42.9645173042
 21
2.5675145105
 31
0.0
  0
LINE
  5
4A2
100
AcDbEntity
  8
IMPORT_IGES
100
AcDbLine
 62
7
  6
CONTINUOUS
 10
-42.9645173042
 20
3.6045886382
 30
0.0
 11
-39.9395173042
 21
3.6045886382
 31
0.0
  0
LINE
  5
4A3
100
AcDbEntity
  8
IMPORT_IGES
100
AcDbLine
 62
250
  6
CONTINUOUS
 10
-63.4145173042
 20
3.7540279011
 30
0.0
 11
-63.1145173042
 21
3.7540279011
 31
0.0
  0
LINE
  5
4A4
100
AcDbEntity
  8
IMPORT_IGES
100
AcDbLine
 62
7
  6
CONTINUOUS
 10
-39.6395173042
 20
4.4472893676
 30
0.0
 11
-39.3395173042
 21
4.4472893676
 31
0.0
  0
LINE
  5
4A5
100
AcDbEntity
  8
IMPORT_IGES
100
AcDbLine
 62
250
  6
CONTINUOUS
 10
-63.3266493386
 20
8.5878679656
 30
0.0
 11
-63.1145173042
 21
8.3757359313
 31
0.0
  0
LINE
  5
4A6
100
AcDbEntity
  8
IMPORT_IGES
100
AcDbLine
 62
250
  6
CONTINUOUS
 10
-45.473095948
 20
-7.8843145751
 30
0.0
 11
-45.2609639137
 21
-8.0964466094
 31
0.0
  0
LINE
  5
4A7
100
AcDbEntity
  8
IMPORT_IGES
100
AcDbLine
 62
7
  6
CONTINUOUS
 10
-54.1955880314
 20
-11.15
 30
0.0
 11
-54.1955880314
 21
-10.95
 31
0.0
  0
LINE
  5
4A8
100
AcDbEntity
  8
IMPORT_IGES
100
AcDbLine
 62
7
  6
CONTINUOUS
 10
-54.177824653
 20
-11.15
 30
0.0
 11
-54.1778246232
 21
-10.95
 31
0.0
  0
LINE
  5
4A9
100
AcDbEntity
  8
IMPORT_IGES
100
AcDbLine
 62
250
  6
CONTINUOUS
 10
-53.5895311201
 20
-11.15
 30
0.0
 11
-53.5895311201
 21
-10.95
 31
0.0
  0
LINE
  5
4AA
100
AcDbEntity
  8
IMPORT_IGES
100
AcDbLine
 62
7
  6
CONTINUOUS
 10
-52.7776578509
 20
-11.15
 30
0.0
 11
-52.7776578509
 21
-10.95
 31
0.0
  0
LINE
  5
4AB
100
AcDbEntity
  8
IMPORT_IGES
100
AcDbLine
 62
250
  6
CONTINUOUS
 10
-45.4635974827
 20
7.9419134721
 30
0.0
 11
-45.2228714735
 21
8.2613676761
 31
0.0
  0
LINE
  5
4AC
100
AcDbEntity
  8
IMPORT_IGES
100
AcDbLine
 62
250
  6
CONTINUOUS
 10
-43.2574105232
 20
7.6747035017
 30
0.0
 11
-43.3634765402
 21
7.5686374844
 31
0.0
  0
LINE
  5
4AD
100
AcDbEntity
  8
IMPORT_IGES
100
AcDbLine
 62
250
  6
CONTINUOUS
 10
-43.4148229101
 20
0.9684009441
 30
0.0
 11
-43.0760107861
 21
1.1215739204
 31
0.0
  0
LINE
  5
4AE
100
AcDbEntity
  8
IMPORT_IGES
100
AcDbLine
 62
250
  6
CONTINUOUS
 10
-45.385552794
 20
7.8073734148
 30
0.0
 11
-44.9887374073
 21
7.8577475042
 31
0.0
  0
LINE
  5
4AF
100
AcDbEntity
  8
IMPORT_IGES
100
AcDbLine
 62
250
  6
CONTINUOUS
 10
-66.7645173042
 20
4.9031290204
 30
0.0
 11
-66.9645173042
 21
4.9031290204
 31
0.0
  0
LINE
  5
4B0
100
AcDbEntity
  8
IMPORT_IGES
100
AcDbLine
 62
250
  6
CONTINUOUS
 10
-63.4645173042
 20
5.8
 30
0.0
 11
-65.6294149707
 21
5.8
 31
0.0
  0
LINE
  5
4B1
100
AcDbEntity
  8
IMPORT_IGES
100
AcDbLine
 62
7
  6
CONTINUOUS
 10
-63.4645173042
 20
6.0
 30
0.0
 11
-65.6294149707
 21
6.0
 31
0.0
  0
LINE
  5
4B2
100
AcDbEntity
  8
IMPORT_IGES
100
AcDbLine
 62
250
  6
CONTINUOUS
 10
-61.8402532355
 20
9.65
 30
0.0
 11
-62.0523852699
 21
9.8621320344
 31
0.0
  0
LINE
  5
4B3
100
AcDbEntity
  8
IMPORT_IGES
100
AcDbLine
 62
7
  6
CONTINUOUS
 10
-58.9422850935
 20
9.95
 30
0.0
 11
-59.0930108017
 21
10.2213085737
 31
0.0
  0
LINE
  5
4B4
100
AcDbEntity
  8
IMPORT_IGES
100
AcDbLine
 62
7
  6
CONTINUOUS
 10
-51.7776583042
 20
11.15
 30
0.0
 11
-51.7776583042
 21
10.95
 31
0.0
  0
LINE
  5
4B5
100
AcDbEntity
  8
DRAFT
100
AcDbLine
 62
7
  6
CONTINUOUS
 10
-68.1958809252
 20
-10.8204228659
 30
0.0
 11
-68.4145173042
 21
-10.9
 31
0.0
  0
LINE
  5
4B6
100
AcDbEntity
  8
RACCORDO
100
AcDbLine
 62
7
  6
CONTINUOUS
 10
-67.0145173042
 20
7.2898867382
 30
0.0
 11
-68.4145173042
 21
7.2776691233
 31
0.0
  0
LINE
  5
4B7
100
AcDbEntity
  8
IMPORT_IGES
100
AcDbLine
 62
250
  6
CONTINUOUS
 10
-67.0145173042
 20
7.8780105898
 30
0.0
 11
-63.6013756809
 21
7.88992475
 31
0.0
  0
LINE
  5
4B8
100
AcDbEntity
  8
IMPORT_IGES
100
AcDbLine
 62
7
  6
CONTINUOUS
 10
-63.7250260047
 20
8.1894912995
 30
0.0
 11
-67.0145173042
 21
8.1780087621
 31
0.0
  0
LINE
  5
4B9
100
AcDbEntity
  8
IMPORT_IGES
100
AcDbLine
 62
250
  6
CONTINUOUS
 10
-43.1145173042
 20
6.9675967204
 30
0.0
 11
-42.9645173042
 21
6.9675967204
 31
0.0
  0
LINE
  5
4BA
100
AcDbEntity
  8
RACCORDO
100
AcDbLine
 62
7
  6
CONTINUOUS
 10
-68.4145173042
 20
8.35
 30
0.0
 11
-67.0145173042
 21
8.35
 31
0.0
  0
LINE
  5
4BB
100
AcDbEntity
  8
IMPORT_IGES
100
AcDbLine
 62
250
  6
CONTINUOUS
 10
-63.1145173042
 20
8.3757359313
 30
0.0
 11
-63.4145173042
 21
8.3757359313
 31
0.0
  0
LINE
  5
4BC
100
AcDbEntity
  8
IMPORT_IGES
100
AcDbLine
 62
7
  6
CONTINUOUS
 10
-45.1145173042
 20
-2.085
 30
0.0
 11
-47.1545173042
 21
-0.045
 31
0.0
  0
LINE
  5
4BD
100
AcDbEntity
  8
IMPORT_IGES
100
AcDbLine
 62
7
  6
CONTINUOUS
 10
-45.0345173042
 20
-2.025
 30
0.0
 11
-47.1145173042
 21
0.055
 31
0.0
  0
LINE
  5
4BE
100
AcDbEntity
  8
IMPORT_IGES
100
AcDbLine
 62
7
  6
CONTINUOUS
 10
-45.1145173042
 20
-4.8955
 30
0.0
 11
-45.0345173042
 21
-4.9975961225
 31
0.0
  0
LINE
  5
4BF
100
AcDbEntity
  8
IMPORT_IGES
100
AcDbLine
 62
7
  6
CONTINUOUS
 10
-43.9645173043
 20
-8.2454966127
 30
0.0
 11
-45.0345173042
 21
-6.4740680413
 31
0.0
  0
LINE
  5
4C0
100
AcDbEntity
  8
IMPORT_IGES
100
AcDbLine
 62
250
  6
CONTINUOUS
 10
-49.0019932641
 20
10.9098079751
 30
0.0
 11
-48.9917345828
 21
10.4757230341
 31
0.0
  0
LINE
  5
4C1
100
AcDbEntity
  8
IMPORT_IGES
100
AcDbLine
 62
7
  6
CONTINUOUS
 10
-48.8419223244
 20
10.3555355199
 30
0.0
 11
-48.8525609961
 21
10.803556403
 31
0.0
  0
LINE
  5
4C2
100
AcDbEntity
  8
IMPORT_IGES
100
AcDbLine
 62
250
  6
CONTINUOUS
 10
-48.6404042508
 20
10.2936628989
 30
0.0
 11
-48.6522749405
 21
10.7959578105
 31
0.0
  0
LINE
  5
4C3
100
AcDbEntity
  8
IMPORT_IGES
100
AcDbLine
 62
250
  6
CONTINUOUS
 10
-48.6723036268
 20
-10.95
 30
0.0
 11
-48.6723037352
 21
-10.75
 31
0.0
  0
LINE
  5
4C4
100
AcDbEntity
  8
IMPORT_IGES
100
AcDbLine
 62
250
  6
CONTINUOUS
 10
-48.6645639201
 20
-10.3116387204
 30
0.0
 11
-48.6645639136
 21
-10.3702173602
 31
0.0
  0
LINE
  5
4C5
100
AcDbEntity
  8
IMPORT_IGES
100
AcDbLine
 62
250
  6
CONTINUOUS
 10
-48.6368612933
 20
10.2736504399
 30
0.0
 11
-48.6368612933
 21
10.2937465654
 31
0.0
  0
LINE
  5
4C6
100
AcDbEntity
  8
IMPORT_IGES
100
AcDbLine
 62
250
  6
CONTINUOUS
 10
-48.3216240854
 20
-10.7500000284
 30
0.0
 11
-48.3216240857
 21
-10.95
 31
0.0
  0
LINE
  5
4C7
100
AcDbEntity
  8
IMPORT_IGES
100
AcDbLine
 62
250
  6
CONTINUOUS
 10
-48.2131501493
 20
10.2937465634
 30
0.0
 11
-48.2131482695
 21
10.2736504396
 31
0.0
  0
LINE
  5
4C8
100
AcDbEntity
  8
IMPORT_IGES
100
AcDbLine
 62
7
  6
CONTINUOUS
 10
-48.8708133761
 20
-10.5723299421
 30
0.0
 11
-48.8708073506
 21
-10.5717776437
 31
0.0
  0
LWPOLYLINE
  5
4C9
100
AcDbEntity
  8
IMPORT_IGES
100
AcDbPolyline
 62
7
  6
CONTINUOUS
 90
23
 70
0
 10
-48.8708089386
 20
-10.5717813653
 10
-48.8703328687
 20
-10.5605163039
 10
-48.8688590907
 20
-10.5466542179
 10
-48.8664234182
 20
-10.5329694339
 10
-48.8631264226
 20
-10.5197979498
 10
-48.8590325864
 20
-10.5071262898
 10
-48.8541164298
 20
-10.4947601671
 10
-48.8484677142
 20
-10.4828676872
 10
-48.8421442602
 20
-10.471493217
 10
-48.8351087552
 20
-10.4605350616
 10
-48.8273396925
 20
-10.4499726965
 10
-48.8188930953
 20
-10.4398894385
 10
-48.8097373738
 20
-10.4302658175
 10
-48.7996890519
 20
-10.4209876075
 10
-48.7888000598
 20
-10.4121969714
 10
-48.7770499266
 20
-10.4039469887
 10
-48.7640966103
 20
-10.3961436102
 10
-48.7500423345
 20
-10.3890434085
 10
-48.7349185351
 20
-10.3828093302
 10
-48.7185039845
 20
-10.3775393847
 10
-48.7008522696
 20
-10.3735104829
 10
-48.6824740773
 20
-10.3710222871
 10
-48.664564175
 20
-10.3701912647
  0
LINE
  5
4CA
100
AcDbEntity
  8
IMPORT_IGES
100
AcDbLine
 62
250
  6
CONTINUOUS
 10
-48.6423645613
 20
10.9456300671
 30
0.0
 11
-48.6522749405
 21
10.7959578105
 31
0.0
  0
LINE
  5
4CB
100
AcDbEntity
  8
IMPORT_IGES
100
AcDbLine
 62
250
  6
CONTINUOUS
 10
-48.5558843438
 20
10.7870372261
 30
0.0
 11
-48.5381584858
 21
10.9359861903
 31
0.0
  0
LINE
  5
4CC
100
AcDbEntity
  8
IMPORT_IGES
100
AcDbLine
 62
250
  6
CONTINUOUS
 10
-61.8402532355
 20
9.65
 30
0.0
 11
-57.673095948
 21
9.65
 31
0.0
  0
LINE
  5
4CD
100
AcDbEntity
  8
IMPORT_IGES
100
AcDbLine
 62
250
  6
CONTINUOUS
 10
-57.721795968
 20
9.7973364678
 30
0.0
 11
-47.9258269611
 21
9.7973364678
 31
0.0
  0
LINE
  5
4CE
100
AcDbEntity
  8
IMPORT_IGES
100
AcDbLine
 62
7
  6
CONTINUOUS
 10
-68.4145173042
 20
9.9000289997
 30
0.0
 11
-62.0048879766
 21
9.9000289998
 31
0.0
  0
LINE
  5
4CF
100
AcDbEntity
  8
IMPORT_IGES
100
AcDbLine
 62
7
  6
CONTINUOUS
 10
-61.8402532355
 20
9.95
 30
0.0
 11
-57.7227998099
 21
9.95
 31
0.0
  0
LINE
  5
4D0
100
AcDbEntity
  8
IMPORT_IGES
100
AcDbLine
 62
250
  6
CONTINUOUS
 10
-47.9258269606
 20
10.0571440889
 30
0.0
 11
-57.6060806027
 21
10.057142667
 31
0.0
  0
LINE
  5
4D1
100
AcDbEntity
  8
IMPORT_IGES
100
AcDbLine
 62
250
  6
CONTINUOUS
 10
-48.6368612933
 20
10.2736504399
 30
0.0
 11
-48.2131405927
 21
10.2736504399
 31
0.0
  0
LINE
  5
4D2
100
AcDbEntity
  8
IMPORT_IGES
100
AcDbLine
 62
7
  6
CONTINUOUS
 10
-48.6368612933
 20
10.2937466293
 30
0.0
 11
-48.2131499248
 21
10.2937466293
 31
0.0
  0
LWPOLYLINE
  5
4D3
100
AcDbEntity
  8
IMPORT_IGES
100
AcDbPolyline
 62
7
  6
CONTINUOUS
 90
3
 70
0
 10
-48.6368613402
 20
10.2937469938
 10
-48.6434057658
 20
10.2937961858
 10
-48.6717348004
 20
10.2950878525
  0
LINE
  5
4D4
100
AcDbEntity
  8
IMPORT_IGES
100
AcDbLine
 62
250
  6
CONTINUOUS
 10
-47.9258269611
 20
9.7973364678
 30
0.0
 11
-47.9258269606
 21
10.0571440889
 31
0.0
  0
LINE
  5
4D5
100
AcDbEntity
  8
IMPORT_IGES
100
AcDbLine
 62
250
  6
CONTINUOUS
 10
-47.4175773809
 20
-10.0409280403
 30
0.0
 11
-47.4175773809
 21
-9.8287960079
 31
0.0
  0
LINE
  5
4D6
100
AcDbEntity
  8
IMPORT_IGES
100
AcDbLine
 62
250
  6
CONTINUOUS
 10
-47.688288058
 20
-10.3116387204
 30
0.0
 11
-47.688331866
 21
-10.3702173642
 31
0.0
  0
LINE
  5
4D7
100
AcDbEntity
  8
IMPORT_IGES
100
AcDbLine
 62
250
  6
CONTINUOUS
 10
-46.5898845087
 20
10.7041294064
 30
0.0
 11
-46.6076103665
 21
10.5551804421
 31
0.0
  0
LWPOLYLINE
  5
4D8
100
AcDbEntity
  8
IMPORT_IGES
100
AcDbPolyline
 62
7
  6
CONTINUOUS
 90
6
 70
0
 10
-57.070056846
 20
10.9499995048
 10
-57.0794544279
 20
10.9495573747
 10
-57.0898228559
 20
10.9480285421
 10
-57.0997975714
 20
10.9454795571
 10
-57.1092680257
 20
10.9420012601
 10
-57.1180738306
 20
10.9377350237
  0
LINE
  5
4D9
100
AcDbEntity
  8
RACCORDO
100
AcDbLine
 62
7
  6
CONTINUOUS
 10
-67.0145173042
 20
11.5898867382
 30
0.0
 11
-68.4145173042
 21
11.5776691233
 31
0.0
  0
LINE
  5
4DA
100
AcDbEntity
  8
IMPORT_IGES
100
AcDbLine
 62
250
  6
CONTINUOUS
 10
-49.0019932641
 20
10.9098079751
 30
0.0
 11
-57.0874592674
 21
10.909808329
 31
0.0
  0
LINE
  5
4DB
100
AcDbEntity
  8
IMPORT_IGES
100
AcDbLine
 62
7
  6
CONTINUOUS
 10
-48.7745574104
 20
10.95
 30
0.0
 11
-57.0700571806
 21
10.95
 31
0.0
  0
LINE
  5
4DC
100
AcDbEntity
  8
IMPORT_IGES
100
AcDbLine
 62
250
  6
CONTINUOUS
 10
-56.4772973042
 20
11.05
 30
0.0
 11
-55.7772973042
 21
11.05
 31
0.0
  0
LINE
  5
4DD
100
AcDbEntity
  8
IMPORT_IGES
100
AcDbLine
 62
250
  6
CONTINUOUS
 10
-50.7776583042
 20
11.05
 30
0.0
 11
-50.0776583042
 21
11.05
 31
0.0
  0
LINE
  5
4DE
100
AcDbEntity
  8
IMPORT_IGES
100
AcDbLine
 62
7
  6
CONTINUOUS
 10
-56.3772973042
 20
11.15
 30
0.0
 11
-55.8772973042
 21
11.15
 31
0.0
  0
LINE
  5
4DF
100
AcDbEntity
  8
IMPORT_IGES
100
AcDbLine
 62
7
  6
CONTINUOUS
 10
-50.6776583042
 20
11.15
 30
0.0
 11
-50.1776583042
 21
11.15
 31
0.0
  0
LINE
  5
4E0
100
AcDbEntity
  8
IMPORT_IGES
100
AcDbLine
 62
7
  6
CONTINUOUS
 10
-51.7776583042
 20
11.15
 30
0.0
 11
-54.8136711617
 21
11.15
 31
0.0
  0
LINE
  5
4E1
100
AcDbEntity
  8
RACCORDO
100
AcDbLine
 62
7
  6
CONTINUOUS
 10
-68.238781373
 20
11.2
 30
0.0
 11
-68.4145173042
 21
11.2
 31
0.0
  0
LINE
  5
4E2
100
AcDbEntity
  8
0
100
AcDbLine
 62
7
  6
CONTINUOUS
 10
-60.6870276746
 20
11.2500290004
 30
0.0
 11
-60.1457272678
 21
11.2500290004
 31
0.0
  0
LINE
  5
4E3
100
AcDbEntity
  8
IMPORT_IGES
100
AcDbLine
 62
7
  6
CONTINUOUS
 10
-60.8413288478
 20
11.2500290004
 30
0.0
 11
-68.0730439321
 21
11.2500290004
 31
0.0
  0
LINE
  5
4E4
100
AcDbEntity
  8
0
100
AcDbLine
 62
7
  6
CONTINUOUS
 10
-67.9352292985
 20
11.3500290004
 30
0.0
 11
-67.8260570201
 21
11.3500290004
 31
0.0
  0
LINE
  5
4E5
100
AcDbEntity
  8
0
100
AcDbLine
 62
7
  6
CONTINUOUS
 10
-67.8202790039
 20
11.3500290004
 30
0.0
 11
-65.2787569797
 21
11.3500290004
 31
0.0
  0
LINE
  5
4E6
100
AcDbEntity
  8
0
100
AcDbLine
 62
7
  6
CONTINUOUS
 10
-64.4317325578
 20
11.3500290004
 30
0.0
 11
-64.1167810604
 21
11.3500290004
 31
0.0
  0
LINE
  5
4E7
100
AcDbEntity
  8
0
100
AcDbLine
 62
7
  6
CONTINUOUS
 10
-65.2776391544
 20
11.3500290004
 30
0.0
 11
-64.4345765115
 21
11.3500290004
 31
0.0
  0
LINE
  5
4E8
100
AcDbEntity
  8
0
100
AcDbLine
 62
7
  6
CONTINUOUS
 10
-64.1145423214
 20
11.3500290004
 30
0.0
 11
-62.4294046508
 21
11.3500290004
 31
0.0
  0
LINE
  5
4E9
100
AcDbEntity
  8
0
100
AcDbLine
 62
7
  6
CONTINUOUS
 10
-61.3645173042
 20
11.3500290004
 30
0.0
 11
-60.1457272678
 21
11.3500290004
 31
0.0
  0
LINE
  5
4EA
100
AcDbEntity
  8
RACCORDO
100
AcDbLine
 62
7
  6
CONTINUOUS
 10
-68.4145173042
 20
12.4223308767
 30
0.0
 11
-67.0145173042
 21
12.4101132618
 31
0.0
  0
LINE
  5
4EB
100
AcDbEntity
  8
IMPORT_IGES
100
AcDbLine
 62
250
  6
CONTINUOUS
 10
-48.8525100669
 20
10.8035440352
 30
0.0
 11
-48.7221898529
 21
10.8012362906
 31
0.0
  0
LINE
  5
4EC
100
AcDbEntity
  8
IMPORT_IGES
100
AcDbLine
 62
7
  6
CONTINUOUS
 10
-48.6423645363
 20
10.9456300654
 30
0.0
 11
-48.5381584858
 21
10.9359861903
 31
0.0
  0
LWPOLYLINE
  5
4ED
100
AcDbEntity
  8
IMPORT_IGES
100
AcDbPolyline
 62
7
  6
CONTINUOUS
 90
3
 70
0
 10
-48.6717348004
 20
10.2950878525
 10
-48.6994812771
 20
10.2980991469
 10
-48.726340271
 20
10.3027897885
  0
LINE
  5
4EE
100
AcDbEntity
  8
IMPORT_IGES
100
AcDbLine
 62
250
  6
CONTINUOUS
 10
-48.5558843438
 20
10.7870372261
 30
0.0
 11
-46.6076103665
 21
10.5551804421
 31
0.0
  0
LINE
  5
4EF
100
AcDbEntity
  8
IMPORT_IGES
100
AcDbLine
 62
7
  6
CONTINUOUS
 10
-46.5898845088
 20
10.7041294064
 30
0.0
 11
-48.5381584858
 21
10.9359861903
 31
0.0
  0
LWPOLYLINE
  5
4F0
100
AcDbEntity
  8
IMPORT_IGES
100
AcDbPolyline
 62
7
  6
CONTINUOUS
 90
3
 70
0
 10
-48.1335997962
 20
10.2846643992
 10
-48.1793929935
 20
10.2920830282
 10
-48.2131501545
 20
10.293750519
  0
LWPOLYLINE
  5
4F1
100
AcDbEntity
  8
IMPORT_IGES
100
AcDbPolyline
 62
7
  6
CONTINUOUS
 90
7
 70
0
 10
-48.726340271
 20
10.3027897885
 10
-48.7516800512
 20
10.3090105367
 10
-48.7747815265
 20
10.316481576
 10
-48.7951665229
 20
10.3248722523
 10
-48.8125565189
 20
10.333834567
 10
-48.8263646563
 20
10.3427305145
 10
-48.8357967089
 20
10.3503605263
  0
LINE
  5
4F2
100
AcDbEntity
  8
IMPORT_IGES
100
AcDbLine
 62
250
  6
CONTINUOUS
 10
-46.0145173027
 20
8.7327020312
 30
0.0
 11
-46.0145173026
 21
8.8579155969
 31
0.0
  0
LINE
  5
4F3
100
AcDbEntity
  8
IMPORT_IGES
100
AcDbLine
 62
250
  6
CONTINUOUS
 10
-45.4145173042
 20
-7.7428932188
 30
0.0
 11
-45.4145173042
 21
-1.785
 31
0.0
  0
LINE
  5
4F4
100
AcDbEntity
  8
IMPORT_IGES
100
AcDbLine
 62
7
  6
CONTINUOUS
 10
-45.1145173042
 20
-2.085
 30
0.0
 11
-45.1145173042
 21
-7.7428932185
 31
0.0
  0
LINE
  5
4F5
100
AcDbEntity
  8
IMPORT_IGES
100
AcDbLine
 62
7
  6
CONTINUOUS
 10
-45.0345173042
 20
-6.4740680413
 30
0.0
 11
-45.0345173042
 21
-2.025
 31
0.0
  0
LINE
  5
4F6
100
AcDbEntity
  8
RACCORDO
100
AcDbLine
 62
7
  6
CONTINUOUS
 10
-70.9145173042
 20
-23.1226497308
 30
0.0
 11
-71.7895173042
 21
-23.6278312164
 31
0.0
  0
LINE
  5
4F7
100
AcDbEntity
  8
RACCORDO
100
AcDbLine
 62
250
  6
CONTINUOUS
 10
-70.6659717371
 20
-23.2669872981
 30
0.0
 11
-71.6659717371
 21
-23.8443375673
 31
0.0
  0
LWPOLYLINE
  5
4F8
100
AcDbEntity
  8
IMPORT_IGES
100
AcDbPolyline
 62
7
  6
CONTINUOUS
 90
7
 70
0
 10
-47.6168536085
 20
-10.3621906047
 10
-47.576462723
 20
-10.3506091239
 10
-47.5362304163
 20
-10.3341033872
 10
-47.4968493523
 20
-10.3128812595
 10
-47.4593331961
 20
-10.287600233
 10
-47.4238699958
 20
-10.2584380459
 10
-47.4054426151
 20
-10.2409311686
  0
LINE
  5
4F9
100
AcDbEntity
  8
RACCORDO
100
AcDbLine
 62
250
  6
CONTINUOUS
 10
-68.4145173042
 20
13.3223499151
 30
0.0
 11
-67.0145173042
 21
13.3101323002
 31
0.0
  0
LINE
  5
4FA
100
AcDbEntity
  8
RACCORDO
100
AcDbLine
 62
7
  6
CONTINUOUS
 10
-68.4145173042
 20
13.8223308767
 30
0.0
 11
-67.0145173042
 21
13.8101132618
 31
0.0
  0
LINE
  5
4FB
100
AcDbEntity
  8
RACCORDO
100
AcDbLine
 62
7
  6
CONTINUOUS
 10
-71.7895173042
 20
23.6278312164
 30
0.0
 11
-70.9145173042
 21
23.1226497308
 31
0.0
  0
LINE
  5
4FC
100
AcDbEntity
  8
RACCORDO
100
AcDbLine
 62
250
  6
CONTINUOUS
 10
-71.6659717371
 20
23.8443375673
 30
0.0
 11
-70.6659717371
 21
23.2669872981
 31
0.0
  0
LWPOLYLINE
  5
4FD
100
AcDbEntity
  8
IMPORT_IGES
100
AcDbPolyline
 62
7
  6
CONTINUOUS
 90
5
 70
0
 10
-47.9751325742
 20
10.2101332194
 10
-47.999463754
 20
10.2272059238
 10
-48.0428155315
 20
10.2520429286
 10
-48.0877163549
 20
10.2712188507
 10
-48.1335997962
 20
10.2846643992
  0
LINE
  5
4FE
100
AcDbEntity
  8
IMPORT_IGES
100
AcDbLine
 62
250
  6
CONTINUOUS
 10
-47.9258269611
 20
9.7973364678
 30
0.0
 11
-45.4635974827
 21
7.9419134721
 31
0.0
  0
LINE
  5
4FF
100
AcDbEntity
  8
IMPORT_IGES
100
AcDbLine
 62
250
  6
CONTINUOUS
 10
-48.2131405927
 20
10.2736504399
 30
0.0
 11
-47.9258269606
 21
10.0571440889
 31
0.0
  0
LINE
  5
500
100
AcDbEntity
  8
IMPORT_IGES
100
AcDbLine
 62
7
  6
CONTINUOUS
 10
-45.283052976
 20
8.1815041253
 30
0.0
 11
-47.9751333597
 21
10.2101322016
 31
0.0
  0
LINE
  5
501
100
AcDbEntity
  8
IMPORT_IGES
100
AcDbLine
 62
250
  6
CONTINUOUS
 10
-45.2228714735
 20
8.2613676761
 30
0.0
 11
-46.0145173026
 21
8.8579155969
 31
0.0
  0
LINE
  5
502
100
AcDbEntity
  8
IMPORT_IGES
100
AcDbLine
 62
7
  6
CONTINUOUS
 10
-48.8357967089
 20
10.3503605263
 30
0.0
 11
-48.8409252564
 21
10.3555590835
 31
0.0
  0
LINE
  5
503
100
AcDbEntity
  8
IMPORT_IGES
100
AcDbLine
 62
250
  6
CONTINUOUS
 10
-44.805888406
 20
4.0452939517
 30
0.0
 11
-43.4148229101
 21
0.9684009441
 31
0.0
  0
LINE
  5
504
100
AcDbEntity
  8
IMPORT_IGES
100
AcDbLine
 62
7
  6
CONTINUOUS
 10
-44.5325272676
 20
4.1688807149
 30
0.0
 11
-43.1414617718
 21
1.0919877073
 31
0.0
  0
LINE
  5
505
100
AcDbEntity
  8
IMPORT_IGES
100
AcDbLine
 62
250
  6
CONTINUOUS
 10
-45.385552794
 20
7.8073734148
 30
0.0
 11
-44.9912183037
 21
4.7010543707
 31
0.0
  0
LINE
  5
506
100
AcDbEntity
  8
IMPORT_IGES
100
AcDbLine
 62
7
  6
CONTINUOUS
 10
-45.0879412539
 20
7.8451539815
 30
0.0
 11
-44.6936067637
 21
4.7388349378
 31
0.0
  0
LINE
  5
507
100
AcDbEntity
  8
IMPORT_IGES
100
AcDbLine
 62
250
  6
CONTINUOUS
 10
-44.594402917
 20
4.7514284601
 30
0.0
 11
-44.9887374073
 21
7.8577475042
 31
0.0
  0
LINE
  5
508
100
AcDbEntity
  8
IMPORT_IGES
100
AcDbLine
 62
250
  6
CONTINUOUS
 10
-43.2645173042
 20
-8.2454966127
 30
0.0
 11
-43.2645173042
 21
0.2710819832
 31
0.0
  0
LINE
  5
509
100
AcDbEntity
  8
IMPORT_IGES
100
AcDbLine
 62
250
  6
CONTINUOUS
 10
-43.1145173042
 20
1.2751337748
 30
0.0
 11
-43.1145173042
 21
6.9675967204
 31
0.0
  0
LINE
  5
50A
100
AcDbEntity
  8
IMPORT_IGES
100
AcDbLine
 62
7
  6
CONTINUOUS
 10
-42.9645173042
 20
6.9675967199
 30
0.0
 11
-42.9645173042
 21
-7.9454966127
 31
0.0
  0
LINE
  5
50B
100
AcDbEntity
  8
IMPORT_IGES
100
AcDbLine
 62
250
  6
CONTINUOUS
 10
-45.473095948
 20
-7.8843145751
 30
0.0
 11
-47.4175773809
 21
-9.8287960079
 31
0.0
  0
LINE
  5
50C
100
AcDbEntity
  8
IMPORT_IGES
100
AcDbLine
 62
250
  6
CONTINUOUS
 10
-47.8175773807
 20
-10.3702173642
 30
0.0
 11
-48.1094920511
 21
-10.6621320344
 31
0.0
  0
LINE
  5
50D
100
AcDbEntity
  8
IMPORT_IGES
100
AcDbLine
 62
250
  6
CONTINUOUS
 10
-47.4175773754
 20
-10.0409280368
 30
0.0
 11
-47.688288058
 21
-10.3116387202
 31
0.0
  0
LINE
  5
50E
100
AcDbEntity
  8
IMPORT_IGES
100
AcDbLine
 62
7
  6
CONTINUOUS
 10
-45.2609639137
 20
-8.0964466094
 30
0.0
 11
-47.9680706946
 21
-10.8035533904
 31
0.0
  0
LINE
  5
50F
100
AcDbEntity
  8
IMPORT_IGES
100
AcDbLine
 62
250
  6
CONTINUOUS
 10
-46.107016131
 20
10.3121770752
 30
0.0
 11
-43.3634765402
 21
7.5686374844
 31
0.0
  0
LINE
  5
510
100
AcDbEntity
  8
IMPORT_IGES
100
AcDbLine
 62
7
  6
CONTINUOUS
 10
-46.0009501136
 20
10.4182430922
 30
0.0
 11
-43.2574105233
 21
7.6747035018
 31
0.0
  0
LINE
  5
511
100
AcDbEntity
  8
IMPORT_IGES
100
AcDbLine
 62
250
  6
CONTINUOUS
 10
-43.1145173042
 20
1.2751337748
 30
0.0
 11
-44.4414068882
 21
4.2100763026
 31
0.0
  0
LINE
  5
512
100
AcDbEntity
  8
IMPORT_IGES
100
AcDbLine
 62
250
  6
CONTINUOUS
 10
-43.1145173042
 20
1.2751337748
 30
0.0
 11
-43.0760107861
 21
1.1215739204
 31
0.0
  0
LINE
  5
513
100
AcDbEntity
  8
IMPORT_IGES
100
AcDbLine
 62
250
  6
CONTINUOUS
 10
-40.2145173042
 20
-5.6502977476
 30
0.0
 11
-40.2145173042
 21
-3.1298769965
 31
0.0
  0
LINE
  5
514
100
AcDbEntity
  8
IMPORT_IGES
100
AcDbLine
 62
7
  6
CONTINUOUS
 10
-40.1145173042
 20
-3.1306916122
 30
0.0
 11
-40.1145173042
 21
-6.4502977476
 31
0.0
  0
LINE
  5
515
100
AcDbEntity
  8
IMPORT_IGES
100
AcDbLine
 62
250
  6
CONTINUOUS
 10
-39.939517217
 20
1.05
 30
0.0
 11
-39.9395173042
 21
3.6045886382
 31
0.0
  0
LINE
  5
516
100
AcDbEntity
  8
IMPORT_IGES
100
AcDbLine
 62
250
  6
CONTINUOUS
 10
-39.9145173042
 20
-2.9322487622
 30
0.0
 11
-39.9145173042
 21
-6.6502977476
 31
0.0
  0
LINE
  5
517
100
AcDbEntity
  8
IMPORT_IGES
100
AcDbLine
 62
7
  6
CONTINUOUS
 10
-39.8395173042
 20
4.2470018688
 30
0.0
 11
-39.8395173042
 21
1.311143935
 31
0.0
  0
LINE
  5
518
100
AcDbEntity
  8
IMPORT_IGES
100
AcDbLine
 62
250
  6
CONTINUOUS
 10
-39.6395173042
 20
1.1214128494
 30
0.0
 11
-39.6395173042
 21
4.4472893676
 31
0.0
  0
LINE
  5
519
100
AcDbEntity
  8
IMPORT_IGES
100
AcDbLine
 62
250
  6
CONTINUOUS
 10
-39.3395173042
 20
1.05
 30
0.0
 11
-39.3395173042
 21
4.4472893676
 31
0.0
  0
LINE
  5
51A
100
AcDbEntity
  8
IMPORT_IGES
100
AcDbLine
 62
250
  6
CONTINUOUS
 10
-39.3145173042
 20
-6.6502977476
 30
0.0
 11
-39.3145173042
 21
-2.9299131308
 31
0.0
  0
LINE
  5
51B
100
AcDbEntity
  8
IMPORT_IGES
100
AcDbLine
 62
7
  6
CONTINUOUS
 10
-39.1395173042
 20
1.2499986608
 30
0.0
 11
-39.1395173042
 21
4.2470018688
 31
0.0
  0
LINE
  5
51C
100
AcDbEntity
  8
IMPORT_IGES
100
AcDbLine
 62
7
  6
CONTINUOUS
 10
-39.1145173042
 20
-6.4502977476
 30
0.0
 11
-39.1145173042
 21
-3.1299131308
 31
0.0
  0
LINE
  5
51D
100
AcDbEntity
  8
IMPORT_IGES
100
AcDbLine
 62
250
  6
CONTINUOUS
 10
-39.7021985397
 20
1.0602680494
 30
0.0
 11
-39.702199261
 21
1.05
 31
0.0
  0
LINE
  5
51E
100
AcDbEntity
  8
RACCORDO
100
AcDbLine
 62
7
  6
CONTINUOUS
 10
-68.4145173042
 20
17.917531443
 30
0.0
 11
-58.4145173042
 21
19.6808012501
 31
0.0
  0
LINE
  5
51F
100
AcDbEntity
  8
RACCORDO
100
AcDbLine
 62
7
  6
CONTINUOUS
 10
-58.4145173042
 20
20.9959955457
 30
0.0
 11
-68.214730544
 21
20.9104703804
 31
0.0
  0
LINE
  5
520
100
AcDbEntity
  8
RACCORDO
100
AcDbLine
 62
250
  6
CONTINUOUS
 10
-78.0006724739
 20
20.5419058565
 30
0.0
 11
-78.4915232765
 21
20.5624683248
 31
0.0
  0
LWPOLYLINE
  5
521
100
AcDbEntity
  8
0
100
AcDbPolyline
 62
7
  6
CONTINUOUS
 90
10
 70
0
 43
0.3500000006
 10
-58.1573729553
 20
43.7499994354
 10
-58.0859463043
 20
43.6071416016
 10
-58.0859463043
 20
43.5357149506
 10
-58.2288041382
 20
43.3928571167
 10
-58.3002307892
 20
43.3928571167
 10
-58.371661972
 20
43.4642837677
 10
-58.371661972
 20
43.5357149506
 10
-58.3002307892
 20
43.6785727844
 10
-58.2288041382
 20
43.7499994354
 10
-58.1573729553
 20
43.7499994354
  0
LWPOLYLINE
  5
522
100
AcDbEntity
  8
0
100
AcDbPolyline
 62
7
  6
CONTINUOUS
 90
10
 70
0
 43
0.3500000006
 10
-52.705590271
 20
33.7500009155
 10
-52.6341590881
 20
33.6071430817
 10
-52.6341590881
 20
33.5357164307
 10
-52.777016922
 20
33.3928585968
 10
-52.8484481049
 20
33.3928585968
 10
-52.9198747559
 20
33.4642852478
 10
-52.9198747559
 20
33.5357164307
 10
-52.8484481049
 20
33.6785697327
 10
-52.777016922
 20
33.7500009155
 10
-52.705590271
 20
33.7500009155
  0
LINE
  5
523
100
AcDbEntity
  8
DRAFT
100
AcDbLine
 62
7
  6
CONTINUOUS
 10
-68.4145173042
 20
20.9
 30
0.0
 11
-68.214730544
 21
20.9104703804
 31
0.0
  0
LINE
  5
524
100
AcDbEntity
  8
RACCORDO
100
AcDbLine
 62
250
  6
CONTINUOUS
 10
-69.4123309752
 20
21.8998857286
 30
0.0
 11
-77.0538544182
 21
21.4994104546
 31
0.0
  0
LINE
  5
525
100
AcDbEntity
  8
RACCORDO
100
AcDbLine
 62
7
  6
CONTINUOUS
 10
-77.0712961931
 20
21.998725222
 30
0.0
 11
-70.7900604462
 21
22.3279108386
 31
0.0
  0
LINE
  5
526
100
AcDbEntity
  8
RACCORDO
100
AcDbLine
 62
7
  6
CONTINUOUS
 10
-74.4145173042
 20
22.2
 30
0.0
 11
-77.0631474165
 21
22.0611911777
 31
0.0
  0
LINE
  5
527
100
AcDbEntity
  8
RACCORDO
100
AcDbLine
 62
7
  6
CONTINUOUS
 10
-58.905791101
 20
21.5659754333
 30
0.0
 11
-68.4145173042
 21
21.4
 31
0.0
  0
LINE
  5
528
100
AcDbEntity
  8
RACCORDO
100
AcDbLine
 62
250
  6
CONTINUOUS
 10
-68.4145173042
 20
21.8911779406
 30
0.0
 11
-69.4123309752
 21
21.8998857286
 31
0.0
  0
LINE
  5
529
100
AcDbEntity
  8
RACCORDO
100
AcDbLine
 62
7
  6
CONTINUOUS
 10
-59.4057907688
 20
22.3126551668
 30
0.0
 11
-69.4145173042
 21
22.4
 31
0.0
  0
LINE
  5
52A
100
AcDbEntity
  8
RACCORDO
100
AcDbLine
 62
250
  6
CONTINUOUS
 10
-69.4145173042
 20
24.2500042308
 30
0.0
 11
-71.6659717371
 21
24.2369056521
 31
0.0
  0
LINE
  5
52B
100
AcDbEntity
  8
RACCORDO
100
AcDbLine
 62
7
  6
CONTINUOUS
 10
-69.4145173042
 20
24.5
 30
0.0
 11
-71.6659717371
 21
24.4869014213
 31
0.0
  0
LINE
  5
52C
100
AcDbEntity
  8
RACCORDO
100
AcDbLine
 62
250
  6
CONTINUOUS
 10
-71.9145173042
 20
23.8443375673
 30
0.0
 11
-71.6659717371
 21
23.8443375673
 31
0.0
  0
LINE
  5
52D
100
AcDbEntity
  8
RACCORDO
100
AcDbLine
 62
250
  6
CONTINUOUS
 10
-68.4145173042
 20
23.8443375673
 30
0.0
 11
-68.6630628714
 21
23.8443375673
 31
0.0
  0
LINE
  5
52E
100
AcDbEntity
  8
RACCORDO
100
AcDbLine
 62
250
  6
CONTINUOUS
 10
-71.9145173042
 20
24.2369056521
 30
0.0
 11
-71.6659717371
 21
24.2369056521
 31
0.0
  0
LINE
  5
52F
100
AcDbEntity
  8
RACCORDO
100
AcDbLine
 62
250
  6
CONTINUOUS
 10
-68.4145173042
 20
24.2456323968
 30
0.0
 11
-68.6630628714
 21
24.2456323968
 31
0.0
  0
LINE
  5
530
100
AcDbEntity
  8
ASSI
100
AcDbLine
 62
7
  6
CONTINUOUS
 10
-68.419609962
 20
23.7942117984
 30
0.0
 11
-61.9116084386
 21
23.7563493531
 31
0.0
  0
LINE
  5
531
100
AcDbEntity
  8
RACCORDO
100
AcDbLine
 62
250
  6
CONTINUOUS
 10
-68.6630628714
 20
24.2456323968
 30
0.0
 11
-69.4145173042
 21
24.2500042308
 31
0.0
  0
LINE
  5
532
100
AcDbEntity
  8
RACCORDO
100
AcDbLine
 62
7
  6
CONTINUOUS
 10
-68.6630628714
 20
24.495628166
 30
0.0
 11
-69.4145173042
 21
24.5
 31
0.0
  0
LWPOLYLINE
  5
533
100
AcDbEntity
  8
0
100
AcDbPolyline
 62
7
  6
CONTINUOUS
 90
6
 70
0
 43
0.3500000006
 10
-51.634158783
 20
33.2500007629
 10
-50.5627318268
 20
33.2500007629
 10
-50.3484473419
 20
33.4642852478
 10
-50.3484473419
 20
34.535712204
 10
-50.7770163116
 20
34.9642857056
 10
-51.2055898132
 20
34.9642857056
  0
LWPOLYLINE
  5
534
100
AcDbEntity
  8
0
100
AcDbPolyline
 62
7
  6
CONTINUOUS
 90
7
 70
0
 43
0.3500000006
 10
-56.5627336578
 20
33.2500007629
 10
-58.0627295837
 20
33.2500007629
 10
-56.5627336578
 20
35.3928592072
 10
-56.5627336578
 20
35.8214281769
 10
-56.9913026276
 20
36.2500016785
 10
-57.634160614
 20
36.2500016785
 10
-58.0627295837
 20
35.607143692
  0
LWPOLYLINE
  5
535
100
AcDbEntity
  8
0
100
AcDbPolyline
 62
7
  6
CONTINUOUS
 90
6
 70
0
 43
0.3500000006
 10
-63.3002323151
 20
43.2499992828
 10
-62.228800827
 20
43.2499992828
 10
-62.0145163422
 20
43.4642837677
 10
-62.0145163422
 20
44.5357152557
 10
-62.4430898438
 20
44.9642842255
 10
-62.8716588135
 20
44.9642842255
  0
LWPOLYLINE
  5
536
100
AcDbEntity
  8
0
100
AcDbPolyline
 62
7
  6
CONTINUOUS
 90
13
 70
0
 43
0.3500000006
 10
-56.6573724976
 20
44.9642842255
 10
-56.9430881653
 20
45.1785732422
 10
-56.9430881653
 20
45.8214266968
 10
-56.6573724976
 20
46.2500001984
 10
-56.014519043
 20
46.2500001984
 10
-55.7288033752
 20
45.8214266968
 10
-55.7288033752
 20
45.1785732422
 10
-56.014519043
 20
44.9642842255
 10
-55.5859455414
 20
44.5357152557
 10
-55.5859455414
 20
43.6785727844
 10
-56.014519043
 20
43.2499992828
 10
-56.6573724976
 20
43.2499992828
 10
-57.0859459991
 20
43.6785727844
  0
ARC
  5
537
100
AcDbEntity
  8
RACCORDO
100
AcDbCircle
 62
7
  6
CONTINUOUS
 10
9.957216904
 20
21.8996996272
 30
0.0
 40
0.5003655864
100
AcDbArc
 50
0.0213100439
 51
63.4284881755
  0
ARC
  5
538
100
AcDbEntity
  8
RACCORDO
100
AcDbCircle
 62
7
  6
CONTINUOUS
 10
-11.3072168946
 20
21.8996996209
 30
0.0
 40
0.5003655864
100
AcDbArc
 50
116.5715124707
 51
179.978689244
  0
ARC
  5
539
100
AcDbEntity
  8
RACCORDO
100
AcDbCircle
 62
7
  6
CONTINUOUS
 10
9.9572169042
 20
-21.8996996269
 30
0.0
 40
0.5003655864
100
AcDbArc
 50
296.5715117915
 51
359.9786899232
  0
ARC
  5
53A
100
AcDbEntity
  8
RACCORDO
100
AcDbCircle
 62
7
  6
CONTINUOUS
 10
-11.3072168944
 20
-21.8996996212
 30
0.0
 40
0.5003655864
100
AcDbArc
 50
180.0213107224
 51
243.4284874969
  0
ARC
  5
53B
100
AcDbEntity
  8
RACCORDO
100
AcDbCircle
 62
250
  6
CONTINUOUS
 10
-11.1740666028
 20
21.4985215997
 30
0.0
 40
0.5001723744
100
AcDbArc
 50
90.0239810492
 51
179.8981719682
  0
ARC
  5
53C
100
AcDbEntity
  8
RACCORDO
100
AcDbCircle
 62
250
  6
CONTINUOUS
 10
-11.174066664
 20
-21.498521661
 30
0.0
 40
0.5001723744
100
AcDbArc
 50
180.1018210216
 51
269.976025956
  0
ARC
  5
53D
100
AcDbEntity
  8
RACCORDO
100
AcDbCircle
 62
250
  6
CONTINUOUS
 10
9.8240666558
 20
21.4985216786
 30
0.0
 40
0.5001723744
100
AcDbArc
 50
0.1018189988
 51
89.9760250166
  0
ARC
  5
53E
100
AcDbEntity
  8
RACCORDO
100
AcDbCircle
 62
250
  6
CONTINUOUS
 10
9.824066664
 20
-21.4985216611
 30
0.0
 40
0.5001723744
100
AcDbArc
 50
270.0239740427
 51
359.8981789894
  0
ARC
  5
53F
100
AcDbEntity
  8
RACCORDO
100
AcDbCircle
 62
7
  6
CONTINUOUS
 10
-11.3074618824
 20
21.9001237906
 30
0.0
 40
0.499875135
100
AcDbArc
 50
92.0105361646
 51
116.5681456001
  0
ARC
  5
540
100
AcDbEntity
  8
RACCORDO
100
AcDbCircle
 62
7
  6
CONTINUOUS
 10
9.9574618824
 20
-21.9001237906
 30
0.0
 40
0.499875135
100
AcDbArc
 50
272.0105361646
 51
296.5681456001
  0
ARC
  5
541
100
AcDbEntity
  8
RACCORDO
100
AcDbCircle
 62
7
  6
CONTINUOUS
 10
9.9574618824
 20
21.9001237906
 30
0.0
 40
0.499875135
100
AcDbArc
 50
63.4318543999
 51
87.9894638354
  0
ARC
  5
542
100
AcDbEntity
  8
RACCORDO
100
AcDbCircle
 62
7
  6
CONTINUOUS
 10
-11.3074618824
 20
-21.9001237906
 30
0.0
 40
0.499875135
100
AcDbArc
 50
243.4318543999
 51
267.9894638354
  0
ARC
  5
543
100
AcDbEntity
  8
RACCORDO
100
AcDbCircle
 62
250
  6
CONTINUOUS
 10
-9.8750869385
 20
21.8111720897
 30
0.0
 40
0.2500136588
100
AcDbArc
 50
89.9800766812
 51
155.9453455016
  0
ARC
  5
544
100
AcDbEntity
  8
RACCORDO
100
AcDbCircle
 62
250
  6
CONTINUOUS
 10
8.52508694
 20
21.8111720898
 30
0.0
 40
0.2500136579
100
AcDbArc
 50
24.0545126979
 51
90.0199236525
  0
ARC
  5
545
100
AcDbEntity
  8
RACCORDO
100
AcDbCircle
 62
250
  6
CONTINUOUS
 10
-9.188104562
 20
24.236895438
 30
0.0
 40
0.2500059834
100
AcDbArc
 50
0.0023408263
 51
89.9976591737
  0
ARC
  5
546
100
AcDbEntity
  8
RACCORDO
100
AcDbCircle
 62
250
  6
CONTINUOUS
 10
-11.0618954381
 20
24.2368954381
 30
0.0
 40
0.2500059834
100
AcDbArc
 50
90.0023408215
 51
179.9976591785
  0
ARC
  5
547
100
AcDbEntity
  8
RACCORDO
100
AcDbCircle
 62
250
  6
CONTINUOUS
 10
9.711895438
 20
-24.236895438
 30
0.0
 40
0.2500059834
100
AcDbArc
 50
270.0023408263
 51
359.9976591737
  0
ARC
  5
548
100
AcDbEntity
  8
RACCORDO
100
AcDbCircle
 62
250
  6
CONTINUOUS
 10
7.838104562
 20
-24.236895438
 30
0.0
 40
0.2500059834
100
AcDbArc
 50
180.0023408263
 51
269.9976591737
  0
ARC
  5
549
100
AcDbEntity
  8
RACCORDO
100
AcDbCircle
 62
250
  6
CONTINUOUS
 10
7.838104562
 20
24.236895438
 30
0.0
 40
0.2500059834
100
AcDbArc
 50
90.0023408263
 51
179.9976591737
  0
ARC
  5
54A
100
AcDbEntity
  8
RACCORDO
100
AcDbCircle
 62
250
  6
CONTINUOUS
 10
9.7118954381
 20
24.2368954381
 30
0.0
 40
0.2500059834
100
AcDbArc
 50
0.0023408215
 51
89.9976591785
  0
ARC
  5
54B
100
AcDbEntity
  8
RACCORDO
100
AcDbCircle
 62
250
  6
CONTINUOUS
 10
-11.0618954381
 20
-24.2368954381
 30
0.0
 40
0.2500059834
100
AcDbArc
 50
180.0023408215
 51
269.9976591785
  0
ARC
  5
54C
100
AcDbEntity
  8
RACCORDO
100
AcDbCircle
 62
250
  6
CONTINUOUS
 10
-9.188104562
 20
-24.236895438
 30
0.0
 40
0.2500059834
100
AcDbArc
 50
270.0023408263
 51
359.9976591737
  0
ARC
  5
54D
100
AcDbEntity
  8
RACCORDO
100
AcDbCircle
 62
7
  6
CONTINUOUS
 10
-9.875
 20
15.85
 30
0.0
 40
0.25
100
AcDbArc
 50
180.0
 51
270.0
  0
ARC
  5
54E
100
AcDbEntity
  8
RACCORDO
100
AcDbCircle
 62
7
  6
CONTINUOUS
 10
8.525
 20
15.85
 30
0.0
 40
0.25
100
AcDbArc
 50
270.0
 51
360.0
  0
ARC
  5
54F
100
AcDbEntity
  8
RACCORDO
100
AcDbCircle
 62
7
  6
CONTINUOUS
 10
-9.1749946513
 20
24.2500053487
 30
0.0
 40
0.2499946513
100
AcDbArc
 50
359.9997437926
 51
90.0002562074
  0
ARC
  5
550
100
AcDbEntity
  8
RACCORDO
100
AcDbCircle
 62
7
  6
CONTINUOUS
 10
-11.0750053487
 20
24.2500053487
 30
0.0
 40
0.2499946513
100
AcDbArc
 50
89.9997437926
 51
180.0002562074
  0
ARC
  5
551
100
AcDbEntity
  8
RACCORDO
100
AcDbCircle
 62
7
  6
CONTINUOUS
 10
9.7250053487
 20
-24.2500053487
 30
0.0
 40
0.2499946513
100
AcDbArc
 50
269.9997437926
 51
0.0002562074
  0
ARC
  5
552
100
AcDbEntity
  8
RACCORDO
100
AcDbCircle
 62
7
  6
CONTINUOUS
 10
7.8249946513
 20
-24.2500053487
 30
0.0
 40
0.2499946513
100
AcDbArc
 50
179.9997437926
 51
270.0002562074
  0
ARC
  5
553
100
AcDbEntity
  8
RACCORDO
100
AcDbCircle
 62
7
  6
CONTINUOUS
 10
7.8249946513
 20
24.2500053487
 30
0.0
 40
0.2499946513
100
AcDbArc
 50
89.9997437926
 51
180.0002562074
  0
ARC
  5
554
100
AcDbEntity
  8
RACCORDO
100
AcDbCircle
 62
7
  6
CONTINUOUS
 10
9.7250053487
 20
24.2500053487
 30
0.0
 40
0.2499946513
100
AcDbArc
 50
359.9997437926
 51
90.0002562074
  0
ARC
  5
555
100
AcDbEntity
  8
RACCORDO
100
AcDbCircle
 62
7
  6
CONTINUOUS
 10
-11.0750053487
 20
-24.2500053487
 30
0.0
 40
0.2499946513
100
AcDbArc
 50
179.9997437926
 51
270.0002562074
  0
ARC
  5
556
100
AcDbEntity
  8
RACCORDO
100
AcDbCircle
 62
7
  6
CONTINUOUS
 10
-9.1749946513
 20
-24.2500053487
 30
0.0
 40
0.2499946513
100
AcDbArc
 50
269.9997437926
 51
0.0002562074
  0
ARC
  5
557
100
AcDbEntity
  8
RACCORDO
100
AcDbCircle
 62
250
  6
CONTINUOUS
 10
-9.8755578689
 20
21.811516317
 30
0.0
 40
0.2494421317
100
AcDbArc
 50
155.9734553544
 51
179.9959856129
  0
ARC
  5
558
100
AcDbEntity
  8
RACCORDO
100
AcDbCircle
 62
250
  6
CONTINUOUS
 10
8.5255578746
 20
21.811516318
 30
0.0
 40
0.249442126
100
AcDbArc
 50
0.0040141642
 51
24.026402741
  0
ARC
  5
559
100
AcDbEntity
  8
RACCORDO
100
AcDbCircle
 62
7
  6
CONTINUOUS
 10
-76.9927922588
 20
-20.5007809198
 30
0.0
 40
1.5
100
AcDbArc
 50
182.3569499908
 51
267.0
  0
ARC
  5
55A
100
AcDbEntity
  8
RACCORDO
100
AcDbCircle
 62
250
  6
CONTINUOUS
 10
-77.0015184562
 20
-20.5007809141
 30
0.0
 40
1.0000000061
100
AcDbArc
 50
182.3569503068
 51
266.999999684
  0
ARC
  5
55B
100
AcDbEntity
  8
RACCORDO
100
AcDbCircle
 62
7
  6
CONTINUOUS
 10
-68.6645173042
 20
-23.8443375673
 30
0.0
 40
0.25
100
AcDbArc
 50
0.0
 51
60.0
  0
ARC
  5
55C
100
AcDbEntity
  8
RACCORDO
100
AcDbCircle
 62
7
  6
CONTINUOUS
 10
-71.6645173042
 20
-23.8443375673
 30
0.0
 40
0.25
100
AcDbArc
 50
120.0
 51
180.0
  0
ARC
  5
55D
100
AcDbEntity
  8
RACCORDO
100
AcDbCircle
 62
7
  6
CONTINUOUS
 10
-71.6645173042
 20
-24.2369056521
 30
0.0
 40
0.25
100
AcDbArc
 50
180.0
 51
269.6666666667
  0
ARC
  5
55E
100
AcDbEntity
  8
RACCORDO
100
AcDbCircle
 62
7
  6
CONTINUOUS
 10
-68.6645173042
 20
-24.2456323968
 30
0.0
 40
0.25
100
AcDbArc
 50
270.3333333333
 51
360.0
  0
ARC
  5
55F
100
AcDbEntity
  8
RACCORDO
100
AcDbCircle
 62
7
  6
CONTINUOUS
 10
-59.4145173042
 20
-21.3126932437
 30
0.0
 40
1.0
100
AcDbArc
 50
270.5
 51
360.0
  0
ARC
  5
560
100
AcDbEntity
  8
ASSI
100
AcDbCircle
 62
7
  6
CONTINUOUS
 10
-61.9145173042
 20
-23.2563578147
 30
0.0
 40
0.5
100
AcDbArc
 50
270.3333333333
 51
360.0
  0
ARC
  5
561
100
AcDbEntity
  8
IMPORT_IGES
100
AcDbCircle
 62
7
  6
CONTINUOUS
 10
-48.3216240854
 20
-10.45
 30
0.0
 40
0.5
100
AcDbArc
 50
270.0
 51
315.0
  0
ARC
  5
562
100
AcDbEntity
  8
IMPORT_IGES
100
AcDbCircle
 62
250
  6
CONTINUOUS
 10
-48.3216240854
 20
-10.45
 30
0.0
 40
0.3
100
AcDbArc
 50
270.0
 51
315.0
  0
ARC
  5
563
100
AcDbEntity
  8
IMPORT_IGES
100
AcDbCircle
 62
7
  6
CONTINUOUS
 10
-49.0723114535
 20
-10.75
 30
0.0
 40
0.2
100
AcDbArc
 50
270.0
 51
359.6418935168
  0
ARC
  5
564
100
AcDbEntity
  8
IMPORT_IGES
100
AcDbCircle
 62
7
  6
CONTINUOUS
 10
-51.3645173042
 20
-11.05
 30
0.0
 40
0.1
100
AcDbArc
 50
0.0
 51
89.9999999998
  0
ARC
  5
565
100
AcDbEntity
  8
IMPORT_IGES
100
AcDbCircle
 62
7
  6
CONTINUOUS
 10
-50.4645173042
 20
-11.05
 30
0.0
 40
0.1
100
AcDbArc
 50
89.9999999999
 51
180.0
  0
ARC
  5
566
100
AcDbEntity
  8
IMPORT_IGES
100
AcDbCircle
 62
7
  6
CONTINUOUS
 10
-57.1645173042
 20
-11.05
 30
0.0
 40
0.1
100
AcDbArc
 50
90.0
 51
180.0
  0
ARC
  5
567
100
AcDbEntity
  8
IMPORT_IGES
100
AcDbCircle
 62
7
  6
CONTINUOUS
 10
-57.3645173042
 20
-11.05
 30
0.0
 40
0.1
100
AcDbArc
 50
270.0000000001
 51
360.0
  0
ARC
  5
568
100
AcDbEntity
  8
IMPORT_IGES
100
AcDbCircle
 62
7
  6
CONTINUOUS
 10
-57.8645173042
 20
-11.05
 30
0.0
 40
0.1
100
AcDbArc
 50
180.0
 51
270.0
  0
ARC
  5
569
100
AcDbEntity
  8
IMPORT_IGES
100
AcDbCircle
 62
7
  6
CONTINUOUS
 10
-58.0645173042
 20
-11.05
 30
0.0
 40
0.1
100
AcDbArc
 50
0.0
 51
90.0
  0
ARC
  5
56A
100
AcDbEntity
  8
IMPORT_IGES
100
AcDbCircle
 62
7
  6
CONTINUOUS
 10
-51.1645173042
 20
-11.05
 30
0.0
 40
0.1
100
AcDbArc
 50
180.0
 51
270.0
  0
ARC
  5
56B
100
AcDbEntity
  8
IMPORT_IGES
100
AcDbCircle
 62
7
  6
CONTINUOUS
 10
-50.6645173042
 20
-11.05
 30
0.0
 40
0.1
100
AcDbArc
 50
270.0000000005
 51
360.0
  0
ARC
  5
56C
100
AcDbEntity
  8
IMPORT_IGES
100
AcDbCircle
 62
7
  6
CONTINUOUS
 10
-63.1145173042
 20
-3.4540279011
 30
0.0
 40
0.3
100
AcDbArc
 50
121.2038883177
 51
180.0
  0
ARC
  5
56D
100
AcDbEntity
  8
IMPORT_IGES
100
AcDbCircle
 62
7
  6
CONTINUOUS
 10
-63.1145173042
 20
-8.7357372121
 30
0.0
 40
0.3
100
AcDbArc
 50
180.0
 51
237.4051679366
  0
ARC
  5
56E
100
AcDbEntity
  8
RACCORDO
100
AcDbCircle
 62
7
  6
CONTINUOUS
 10
-67.3145173042
 20
-6.2872801014
 30
0.0
 40
0.3
100
AcDbArc
 50
0.0
 51
89.5
  0
ARC
  5
56F
100
AcDbEntity
  8
IMPORT_IGES
100
AcDbCircle
 62
7
  6
CONTINUOUS
 10
-65.6294149707
 20
-5.5
 30
0.0
 40
0.2
100
AcDbArc
 50
231.6869093262
 51
270.0
  0
ARC
  5
570
100
AcDbEntity
  8
IMPORT_IGES
100
AcDbCircle
 62
7
  6
CONTINUOUS
 10
-66.7645173042
 20
-4.6031290204
 30
0.0
 40
0.2
100
AcDbArc
 50
180.0
 51
231.6869093257
  0
ARC
  5
571
100
AcDbEntity
  8
IMPORT_IGES
100
AcDbCircle
 62
7
  6
CONTINUOUS
 10
-63.1145173042
 20
3.7540279011
 30
0.0
 40
0.3
100
AcDbArc
 50
180.0
 51
238.7961116824
  0
ARC
  5
572
100
AcDbEntity
  8
IMPORT_IGES
100
AcDbCircle
 62
7
  6
CONTINUOUS
 10
-45.6145173042
 20
-7.7428932188
 30
0.0
 40
0.5
100
AcDbArc
 50
314.9999999914
 51
360.0
  0
ARC
  5
573
100
AcDbEntity
  8
IMPORT_IGES
100
AcDbCircle
 62
250
  6
CONTINUOUS
 10
-47.6032108023
 20
-10.0082086229
 30
0.0
 40
0.3151316603
100
AcDbArc
 50
254.3372989136
 51
260.324993004
  0
ARC
  5
574
100
AcDbEntity
  8
IMPORT_IGES
100
AcDbCircle
 62
7
  6
CONTINUOUS
 10
-43.2645173042
 20
-7.9454966127
 30
0.0
 40
0.3
100
AcDbArc
 50
270.0
 51
359.9999999998
  0
ARC
  5
575
100
AcDbEntity
  8
IMPORT_IGES
100
AcDbCircle
 62
250
  6
CONTINUOUS
 10
-45.6145173042
 20
-7.7428932188
 30
0.0
 40
0.2
100
AcDbArc
 50
315.0
 51
360.0
  0
ARC
  5
576
100
AcDbEntity
  8
IMPORT_IGES
100
AcDbCircle
 62
7
  6
CONTINUOUS
 10
-44.9572203323
 20
0.2710819832
 30
0.0
 40
1.992703028
100
AcDbArc
 50
0.0
 51
24.3277593093
  0
ARC
  5
577
100
AcDbEntity
  8
IMPORT_IGES
100
AcDbCircle
 62
250
  6
CONTINUOUS
 10
-44.9572203323
 20
0.2710819832
 30
0.0
 40
1.692703028
100
AcDbArc
 50
0.0
 51
24.3277593094
  0
ARC
  5
578
100
AcDbEntity
  8
IMPORT_IGES
100
AcDbCircle
 62
7
  6
CONTINUOUS
 10
-44.8145173042
 20
-2.6299131308
 30
0.0
 40
0.3
100
AcDbArc
 50
180.0
 51
222.7193392624
  0
ARC
  5
579
100
AcDbEntity
  8
IMPORT_IGES
100
AcDbCircle
 62
7
  6
CONTINUOUS
 10
-7.6185036309
 20
-11.0080978493
 30
0.0
 40
41.2546112935
100
AcDbArc
 50
179.3947797479
 51
179.6432713594
  0
ARC
  5
57A
100
AcDbEntity
  8
IMPORT_IGES
100
AcDbCircle
 62
250
  6
CONTINUOUS
 10
-7.6185036309
 20
-11.0080978493
 30
0.0
 40
41.0546112935
100
AcDbArc
 50
179.1096608803
 51
179.6397966976
  0
ARC
  5
57B
100
AcDbEntity
  8
IMPORT_IGES
100
AcDbCircle
 62
250
  6
CONTINUOUS
 10
-39.6496428461
 20
1.2525925617
 30
0.0
 40
0.222469944
100
AcDbArc
 50
161.3339492457
 51
163.0814761892
  0
ARC
  5
57C
100
AcDbEntity
  8
IMPORT_IGES
100
AcDbCircle
 62
250
  6
CONTINUOUS
 10
-39.3397162435
 20
1.268368652
 30
0.0
 40
0.2080998303
100
AcDbArc
 50
270.0547736323
 51
279.6553049916
  0
ARC
  5
57D
100
AcDbEntity
  8
IMPORT_IGES
100
AcDbCircle
 62
7
  6
CONTINUOUS
 10
-39.3395173042
 20
1.25
 30
0.0
 40
0.2
100
AcDbArc
 50
269.9999993662
 51
360.0
  0
ARC
  5
57E
100
AcDbEntity
  8
IMPORT_IGES
100
AcDbCircle
 62
7
  6
CONTINUOUS
 10
-39.9145173042
 20
-6.4502977476
 30
0.0
 40
0.2
100
AcDbArc
 50
180.0000000002
 51
270.0
  0
ARC
  5
57F
100
AcDbEntity
  8
IMPORT_IGES
100
AcDbCircle
 62
7
  6
CONTINUOUS
 10
-39.3145173042
 20
-6.4502977476
 30
0.0
 40
0.2
100
AcDbArc
 50
270.0
 51
359.9999999998
  0
ARC
  5
580
100
AcDbEntity
  8
IMPORT_IGES
100
AcDbCircle
 62
7
  6
CONTINUOUS
 10
-39.3145173042
 20
-3.1299131308
 30
0.0
 40
0.2
100
AcDbArc
 50
0.0000000038
 51
90.0
  0
ARC
  5
581
100
AcDbEntity
  8
IMPORT_IGES
100
AcDbCircle
 62
250
  6
CONTINUOUS
 10
-39.9146953953
 20
-3.1298080579
 30
0.0
 40
0.1999103575
100
AcDbArc
 50
90.0231913131
 51
180.0199587179
  0
ARC
  5
582
100
AcDbEntity
  8
IMPORT_IGES
100
AcDbCircle
 62
250
  6
CONTINUOUS
 10
-39.9298248105
 20
1.4718282987
 30
0.0
 40
0.1207493859
100
AcDbArc
 50
288.6175253869
 51
293.7181149894
  0
ARC
  5
583
100
AcDbEntity
  8
IMPORT_IGES
100
AcDbCircle
 62
250
  6
CONTINUOUS
 10
-39.9501750916
 20
1.2747018095
 30
0.0
 40
0.1015275334
100
AcDbArc
 50
51.5610484952
 51
54.5396735566
  0
ARC
  5
584
100
AcDbEntity
  8
IMPORT_IGES
100
AcDbCircle
 62
7
  6
CONTINUOUS
 10
-39.9395173042
 20
3.7045886382
 30
0.0
 40
0.1
100
AcDbArc
 50
270.0
 51
359.9999999999
  0
ARC
  5
585
100
AcDbEntity
  8
IMPORT_IGES
100
AcDbCircle
 62
7
  6
CONTINUOUS
 10
-40.2145173042
 20
-5.7502977476
 30
0.0
 40
0.1
100
AcDbArc
 50
0.0
 51
90.0
  0
ARC
  5
586
100
AcDbEntity
  8
IMPORT_IGES
100
AcDbCircle
 62
7
  6
CONTINUOUS
 10
-65.6294149707
 20
5.8
 30
0.0
 40
0.2
100
AcDbArc
 50
90.0
 51
128.3130906738
  0
ARC
  5
587
100
AcDbEntity
  8
IMPORT_IGES
100
AcDbCircle
 62
7
  6
CONTINUOUS
 10
-66.7645173042
 20
4.9031290204
 30
0.0
 40
0.2
100
AcDbArc
 50
128.3130906738
 51
180.0
  0
ARC
  5
588
100
AcDbEntity
  8
IMPORT_IGES
100
AcDbCircle
 62
7
  6
CONTINUOUS
 10
-63.1145173042
 20
8.3757359313
 30
0.0
 40
0.3
100
AcDbArc
 50
135.0
 51
180.0
  0
ARC
  5
589
100
AcDbEntity
  8
IMPORT_IGES
100
AcDbCircle
 62
250
  6
CONTINUOUS
 10
-63.3462196627
 20
12.2263601421
 30
0.0
 40
6.1346320955
100
AcDbArc
 50
337.6336986942
 51
337.871613482
  0
ARC
  5
58A
100
AcDbEntity
  8
IMPORT_IGES
100
AcDbCircle
 62
7
  6
CONTINUOUS
 10
-60.8413288478
 20
9.2500290004
 30
0.0
 40
2.0
100
AcDbArc
 50
29.0543979959
 51
90.0
  0
ARC
  5
58B
100
AcDbEntity
  8
IMPORT_IGES
100
AcDbCircle
 62
7
  6
CONTINUOUS
 10
-61.8402532355
 20
9.65
 30
0.0
 40
0.3
100
AcDbArc
 50
90.0
 51
135.0
  0
ARC
  5
58C
100
AcDbEntity
  8
RACCORDO
100
AcDbCircle
 62
7
  6
CONTINUOUS
 10
-68.238781373
 20
11.5
 30
0.0
 40
0.3
100
AcDbArc
 50
270.0
 51
315.0
  0
ARC
  5
58D
100
AcDbEntity
  8
IMPORT_IGES
100
AcDbCircle
 62
250
  6
CONTINUOUS
 10
-58.3667720403
 20
9.7040985363
 30
0.0
 40
0.7186970608
100
AcDbArc
 50
16.1697719055
 51
17.1528352471
  0
ARC
  5
58E
100
AcDbEntity
  8
IMPORT_IGES
100
AcDbCircle
 62
250
  6
CONTINUOUS
 10
-58.2216918223
 20
9.7461669619
 30
0.0
 40
0.5676407068
100
AcDbArc
 50
14.8837043026
 51
16.169605636
  0
ARC
  5
58F
100
AcDbEntity
  8
IMPORT_IGES
100
AcDbCircle
 62
250
  6
CONTINUOUS
 10
-57.8408103531
 20
9.9004333409
 30
0.0
 40
0.1572132843
100
AcDbArc
 50
26.4497722781
 51
28.6716575955
  0
ARC
  5
590
100
AcDbEntity
  8
IMPORT_IGES
100
AcDbCircle
 62
7
  6
CONTINUOUS
 10
-57.5710447265
 20
9.8172044694
 30
0.0
 40
0.1520548398
100
AcDbArc
 50
181.2907953415
 51
187.5079290286
  0
ARC
  5
591
100
AcDbEntity
  8
IMPORT_IGES
100
AcDbCircle
 62
7
  6
CONTINUOUS
 10
-57.5757203162
 20
9.816989366
 30
0.0
 40
0.1473756319
100
AcDbArc
 50
179.9989603118
 51
181.2481379095
  0
ARC
  5
592
100
AcDbEntity
  8
IMPORT_IGES
100
AcDbCircle
 62
7
  6
CONTINUOUS
 10
-57.623095948
 20
9.9425356135
 30
0.0
 40
0.1000043576
100
AcDbArc
 50
148.7634778437
 51
179.9809062853
  0
ARC
  5
593
100
AcDbEntity
  8
IMPORT_IGES
100
AcDbCircle
 62
7
  6
CONTINUOUS
 10
-55.8772973042
 20
11.05
 30
0.0
 40
0.1
100
AcDbArc
 50
0.0
 51
89.9999999999
  0
ARC
  5
594
100
AcDbEntity
  8
IMPORT_IGES
100
AcDbCircle
 62
7
  6
CONTINUOUS
 10
-55.6772973042
 20
11.05
 30
0.0
 40
0.1
100
AcDbArc
 50
180.0
 51
270.0
  0
ARC
  5
595
100
AcDbEntity
  8
IMPORT_IGES
100
AcDbCircle
 62
7
  6
CONTINUOUS
 10
-56.3772973042
 20
11.05
 30
0.0
 40
0.1
100
AcDbArc
 50
90.0000000001
 51
180.0
  0
ARC
  5
596
100
AcDbEntity
  8
IMPORT_IGES
100
AcDbCircle
 62
7
  6
CONTINUOUS
 10
-56.5772973042
 20
11.05
 30
0.0
 40
0.1
100
AcDbArc
 50
270.0
 51
360.0
  0
ARC
  5
597
100
AcDbEntity
  8
IMPORT_IGES
100
AcDbCircle
 62
7
  6
CONTINUOUS
 10
-48.7745032589
 20
8.95
 30
0.0
 40
2.0
100
AcDbArc
 50
83.2133624709
 51
90.0015513311
  0
ARC
  5
598
100
AcDbEntity
  8
IMPORT_IGES
100
AcDbCircle
 62
250
  6
CONTINUOUS
 10
-48.7745032589
 20
8.95
 30
0.0
 40
1.85
100
AcDbArc
 50
83.2133624709
 51
86.2117449684
  0
ARC
  5
599
100
AcDbEntity
  8
IMPORT_IGES
100
AcDbCircle
 62
250
  6
CONTINUOUS
 10
-48.7333243885
 20
10.1877735821
 30
0.0
 40
0.6135603694
100
AcDbArc
 50
82.4092241464
 51
88.9600120163
  0
ARC
  5
59A
100
AcDbEntity
  8
IMPORT_IGES
100
AcDbCircle
 62
250
  6
CONTINUOUS
 10
-48.6360126617
 20
10.8868330188
 30
0.0
 40
0.6131831661
100
AcDbArc
 50
266.6247626145
 51
269.9207039185
  0
ARC
  5
59B
100
AcDbEntity
  8
IMPORT_IGES
100
AcDbCircle
 62
250
  6
CONTINUOUS
 10
-48.636371057
 20
10.8831116918
 30
0.0
 40
0.6094472096
100
AcDbArc
 50
263.3884470343
 51
266.6378003606
  0
ARC
  5
59C
100
AcDbEntity
  8
IMPORT_IGES
100
AcDbCircle
 62
7
  6
CONTINUOUS
 10
-49.0024686619
 20
10.8000465534
 30
0.0
 40
0.1499487497
100
AcDbArc
 50
1.3412958142
 51
89.9998217942
  0
ARC
  5
59D
100
AcDbEntity
  8
IMPORT_IGES
100
AcDbCircle
 62
250
  6
CONTINUOUS
 10
-48.9541817947
 20
10.3467004806
 30
0.0
 40
0.1124402804
100
AcDbArc
 50
1.3567250424
 51
4.4567736836
  0
ARC
  5
59E
100
AcDbEntity
  8
IMPORT_IGES
100
AcDbCircle
 62
7
  6
CONTINUOUS
 10
-50.1776583042
 20
11.05
 30
0.0
 40
0.1
100
AcDbArc
 50
0.0
 51
89.9999999999
  0
ARC
  5
59F
100
AcDbEntity
  8
IMPORT_IGES
100
AcDbCircle
 62
7
  6
CONTINUOUS
 10
-49.9776583042
 20
11.05
 30
0.0
 40
0.1
100
AcDbArc
 50
180.0
 51
270.0
  0
ARC
  5
5A0
100
AcDbEntity
  8
IMPORT_IGES
100
AcDbCircle
 62
7
  6
CONTINUOUS
 10
-50.6776583042
 20
11.05
 30
0.0
 40
0.1
100
AcDbArc
 50
90.0000000001
 51
180.0
  0
ARC
  5
5A1
100
AcDbEntity
  8
IMPORT_IGES
100
AcDbCircle
 62
7
  6
CONTINUOUS
 10
-50.8776583042
 20
11.05
 30
0.0
 40
0.1
100
AcDbArc
 50
270.0
 51
360.0
  0
ARC
  5
5A2
100
AcDbEntity
  8
RACCORDO
100
AcDbCircle
 62
7
  6
CONTINUOUS
 10
-76.9846434821
 20
20.5632468755
 30
0.0
 40
1.5
100
AcDbArc
 50
93.0
 51
173.5114051664
  0
ARC
  5
5A3
100
AcDbEntity
  8
RACCORDO
100
AcDbCircle
 62
7
  6
CONTINUOUS
 10
-76.9927922588
 20
20.5007809198
 30
0.0
 40
1.5
100
AcDbArc
 50
93.0
 51
177.6430500092
  0
ARC
  5
5A4
100
AcDbEntity
  8
RACCORDO
100
AcDbCircle
 62
250
  6
CONTINUOUS
 10
-77.0015184562
 20
20.5007809141
 30
0.0
 40
1.000000006
100
AcDbArc
 50
93.0000003145
 51
177.6430496947
  0
ARC
  5
5A5
100
AcDbEntity
  8
RACCORDO
100
AcDbCircle
 62
7
  6
CONTINUOUS
 10
-59.4145173042
 20
21.3126932437
 30
0.0
 40
1.0
100
AcDbArc
 50
0.0
 51
89.5
  0
ARC
  5
5A6
100
AcDbEntity
  8
ASSI
100
AcDbCircle
 62
7
  6
CONTINUOUS
 10
-61.9145173042
 20
23.2563578147
 30
0.0
 40
0.5
100
AcDbArc
 50
0.0
 51
89.6666666667
  0
ARC
  5
5A7
100
AcDbEntity
  8
RACCORDO
100
AcDbCircle
 62
7
  6
CONTINUOUS
 10
-68.6645173042
 20
23.8443375673
 30
0.0
 40
0.25
100
AcDbArc
 50
300.0
 51
360.0
  0
ARC
  5
5A8
100
AcDbEntity
  8
RACCORDO
100
AcDbCircle
 62
7
  6
CONTINUOUS
 10
-68.6645173042
 20
24.2456323968
 30
0.0
 40
0.25
100
AcDbArc
 50
0.0
 51
89.6666666667
  0
ARC
  5
5A9
100
AcDbEntity
  8
RACCORDO
100
AcDbCircle
 62
7
  6
CONTINUOUS
 10
-71.6645173042
 20
24.2369056521
 30
0.0
 40
0.25
100
AcDbArc
 50
90.3333333333
 51
180.0
  0
ARC
  5
5AA
100
AcDbEntity
  8
RACCORDO
100
AcDbCircle
 62
7
  6
CONTINUOUS
 10
-71.6645173042
 20
23.8443375673
 30
0.0
 40
0.25
100
AcDbArc
 50
180.0
 51
240.0
  0
ARC
  5
5AB
100
AcDbEntity
  8
IMPORT_IGES
100
AcDbCircle
 62
250
  6
CONTINUOUS
 10
-42.7167687071
 20
4.989786439
 30
0.0
 40
2.292703028
100
AcDbArc
 50
187.234766955
 51
204.3277593093
  0
ARC
  5
5AC
100
AcDbEntity
  8
IMPORT_IGES
100
AcDbCircle
 62
7
  6
CONTINUOUS
 10
-42.7167687071
 20
4.989786439
 30
0.0
 40
1.992703028
100
AcDbArc
 50
187.234766955
 51
204.3277593093
  0
ARC
  5
5AD
100
AcDbEntity
  8
IMPORT_IGES
100
AcDbCircle
 62
250
  6
CONTINUOUS
 10
-42.7167687071
 20
4.989786439
 30
0.0
 40
1.892703028
100
AcDbArc
 50
187.234766955
 51
204.3277593093
  0
ARC
  5
5AE
100
AcDbEntity
  8
IMPORT_IGES
100
AcDbCircle
 62
7
  6
CONTINUOUS
 10
-43.9645173042
 20
6.9675967204
 30
0.0
 40
1.0
100
AcDbArc
 50
0.0
 51
44.9999999999
  0
ARC
  5
5AF
100
AcDbEntity
  8
IMPORT_IGES
100
AcDbCircle
 62
7
  6
CONTINUOUS
 10
-46.7080568951
 20
9.7111363112
 30
0.0
 40
1.0
100
AcDbArc
 50
44.9999999868
 51
83.2133624709
  0
ARC
  5
5B0
100
AcDbEntity
  8
IMPORT_IGES
100
AcDbCircle
 62
250
  6
CONTINUOUS
 10
-46.7080568951
 20
9.7111363112
 30
0.0
 40
0.85
100
AcDbArc
 50
45.0
 51
83.2133624708
  0
ARC
  5
5B1
100
AcDbEntity
  8
IMPORT_IGES
100
AcDbCircle
 62
250
  6
CONTINUOUS
 10
-43.9645173042
 20
6.9675967204
 30
0.0
 40
0.85
100
AcDbArc
 50
0.0
 51
44.9999999999
  0
ARC
  5
5B2
100
AcDbEntity
  8
IMPORT_IGES
100
AcDbCircle
 62
250
  6
CONTINUOUS
 10
-45.5839604873
 20
7.7821863701
 30
0.0
 40
0.6
100
AcDbArc
 50
7.234766955
 51
53.0
  0
ARC
  5
5B3
100
AcDbEntity
  8
IMPORT_IGES
100
AcDbCircle
 62
7
  6
CONTINUOUS
 10
-45.5839604873
 20
7.7821863701
 30
0.0
 40
0.5
100
AcDbArc
 50
7.2347669552
 51
53.0
  0
ARC
  5
5B4
100
AcDbEntity
  8
IMPORT_IGES
100
AcDbCircle
 62
7
  6
CONTINUOUS
 10
-39.3395173042
 20
4.2472893676
 30
0.0
 40
0.2
100
AcDbArc
 50
0.0000000007
 51
90.0
  0
ARC
  5
5B5
100
AcDbEntity
  8
IMPORT_IGES
100
AcDbCircle
 62
7
  6
CONTINUOUS
 10
-39.6395173042
 20
4.2472893676
 30
0.0
 40
0.2
100
AcDbArc
 50
90.0
 51
179.9999999998
  0
ARC
  5
5B6
100
AcDbEntity
  8
IMPORT_IGES
100
AcDbCircle
 62
250
  6
CONTINUOUS
 10
-45.5839604873
 20
7.7821863701
 30
0.0
 40
0.2
100
AcDbArc
 50
7.234766955
 51
53.0
  0
ARC
  5
5B7
100
AcDbEntity
  8
IMPORT_IGES
100
AcDbCircle
 62
250
  6
CONTINUOUS
 10
-20.1351591353
 20
32.6949097447
 30
0.0
 40
35.1841618955
100
AcDbArc
 50
222.9067161427
 51
223.0436051728
  0
ARC
  5
5B8
100
AcDbEntity
  8
RACCORDO
100
AcDbCircle
 62
7
  6
CONTINUOUS
 10
421.0951749479
 20
0.1
 30
0.0
 40
500.0
100
AcDbArc
 50
177.647367682
 51
177.6545447484
  0
ARC
  5
5B9
100
AcDbEntity
  8
ASSI
100
AcDbCircle
 62
7
  6
CONTINUOUS
 10
421.0854826958
 20
0.0
 30
0.0
 40
500.0
100
AcDbArc
 50
177.8718070179
 51
178.2120815273
  0
ARC
  5
5BA
100
AcDbEntity
  8
RACCORDO
100
AcDbCircle
 62
7
  6
CONTINUOUS
 10
421.0854826958
 20
-0.0
 30
0.0
 40
500.0
100
AcDbArc
 50
177.6430500092
 51
182.3569499908
  0
ARC
  5
5BB
100
AcDbEntity
  8
RACCORDO
100
AcDbCircle
 62
250
  6
CONTINUOUS
 10
421.0767753368
 20
-0.0
 30
0.0
 40
499.5000188283
100
AcDbArc
 50
177.6430500981
 51
182.3569499019
  0
SPLINE
  5
5BC
100
AcDbEntity
  8
RACCORDO
100
AcDbSpline
 62
7
  6
CONTINUOUS
 70
0
 71
3
 72
9
 73
5
 74
0
 42
0.0000001
 43
0.0000001
 44
0.0000000001
 40
0.0
 40
0.0
 40
0.0
 40
0.0
 40
0.4886661288
 40
1.0
 40
1.0
 40
1.0
 40
1.0
 10
-9.9944793325
 20
15.6303987953
 30
0.0
 10
-9.9744644259
 20
15.6412891461
 30
0.0
 10
-9.9344954923
 20
15.6653644482
 30
0.0
 10
-9.895153111
 20
15.6903796111
 30
0.0
 10
-9.875
 20
15.7031206241
 30
0.0
  0
SPLINE
  5
5BD
100
AcDbEntity
  8
RACCORDO
100
AcDbSpline
 62
250
  6
CONTINUOUS
 70
0
 71
3
 72
18
 73
14
 74
0
 42
0.0000001
 43
0.0000001
 44
0.0000000001
 40
0.0
 40
0.0
 40
0.0
 40
0.0
 40
0.0062647454
 40
0.0211639136
 40
0.0452318538
 40
0.0784153494
 40
0.1204091133
 40
0.1708066743
 40
0.2949697286
 40
0.4460784149
 40
0.6184399353
 40
0.8056756247
 40
1.0
 40
1.0
 40
1.0
 40
1.0
 10
8.775
 20
20.6145589289
 30
0.0
 10
8.775
 20
20.6150826108
 30
0.0
 10
8.7728688966
 20
20.6159725285
 30
0.0
 10
8.7696075586
 20
20.616731805
 30
0.0
 10
8.7634143981
 20
20.6177078975
 30
0.0
 10
8.7552657099
 20
20.6185908777
 30
0.0
 10
8.7447679632
 20
20.6194864532
 30
0.0
 10
8.7267231053
 20
20.6206958412
 30
0.0
 10
8.6995176053
 20
20.6219921974
 30
0.0
 10
8.6621228969
 20
20.6232167356
 30
0.0
 10
8.6194395077
 20
20.624130432
 30
0.0
 10
8.5731395316
 20
20.6246938887
 30
0.0
 10
8.5412439405
 20
20.6248213395
 30
0.0
 10
8.525
 20
20.6248213396
 30
0.0
  0
SPLINE
  5
5BE
100
AcDbEntity
  8
RACCORDO
100
AcDbSpline
 62
250
  6
CONTINUOUS
 70
0
 71
3
 72
18
 73
14
 74
0
 42
0.0000001
 43
0.0000001
 44
0.0000000001
 40
0.0
 40
0.0
 40
0.0
 40
0.0
 40
0.006264746
 40
0.0211639132
 40
0.0452318522
 40
0.0784153465
 40
0.1204091079
 40
0.1708066669
 40
0.2949697191
 40
0.4460784038
 40
0.6184399264
 40
0.8056756222
 40
1.0
 40
1.0
 40
1.0
 40
1.0
 10
-10.125
 20
20.6145589289
 30
0.0
 10
-10.125
 20
20.6150826108
 30
0.0
 10
-10.1228688972
 20
20.6159725293
 30
0.0
 10
-10.119607559
 20
20.6167318058
 30
0.0
 10
-10.1134143991
 20
20.6177078987
 30
0.0
 10
-10.1052657111
 20
20.6185908791
 30
0.0
 10
-10.094767965
 20
20.619486455
 30
0.0
 10
-10.0767231076
 20
20.6206958433
 30
0.0
 10
-10.0495176081
 20
20.6219921997
 30
0.0
 10
-10.0121228997
 20
20.6232167379
 30
0.0
 10
-9.9694395098
 20
20.6241304339
 30
0.0
 10
-9.9231395327
 20
20.6246938898
 30
0.0
 10
-9.8912439407
 20
20.6248213398
 30
0.0
 10
-9.875
 20
20.6248213394
 30
0.0
  0
SPLINE
  5
5BF
100
AcDbEntity
  8
RACCORDO
100
AcDbSpline
 62
7
  6
CONTINUOUS
 70
0
 71
3
 72
9
 73
5
 74
0
 42
0.0000001
 43
0.0000001
 44
0.0000000001
 40
0.0
 40
0.0
 40
0.0
 40
0.0
 40
0.4886661288
 40
1.0
 40
1.0
 40
1.0
 40
1.0
 10
8.6444793325
 20
15.6303987953
 30
0.0
 10
8.6244644259
 20
15.6412891461
 30
0.0
 10
8.5844954923
 20
15.6653644482
 30
0.0
 10
8.545153111
 20
15.6903796111
 30
0.0
 10
8.525
 20
15.7031206241
 30
0.0
  0
LINE
  5
5C0
100
AcDbEntity
  8
IMPORT_IGES
100
AcDbLine
 62
7
  6
CONTINUOUS
 10
-3.825
 20
-5.75
 30
0.0
 11
-4.125
 21
-6.05
 31
0.0
  0
LINE
  5
5C1
100
AcDbEntity
  8
IMPORT_IGES
100
AcDbLine
 62
7
  6
CONTINUOUS
 10
-4.125
 20
-4.5
 30
0.0
 11
-3.825
 21
-4.2
 31
0.0
  0
LINE
  5
5C2
100
AcDbEntity
  8
IMPORT_IGES
100
AcDbLine
 62
7
  6
CONTINUOUS
 10
1.65
 20
-6.05
 30
0.0
 11
1.35
 21
-5.75
 31
0.0
  0
LINE
  5
5C3
100
AcDbEntity
  8
IMPORT_IGES
100
AcDbLine
 62
7
  6
CONTINUOUS
 10
-3.0
 20
-6.05
 30
0.0
 11
-2.7
 21
-5.75
 31
0.0
  0
LINE
  5
5C4
100
AcDbEntity
  8
IMPORT_IGES
100
AcDbLine
 62
7
  6
CONTINUOUS
 10
2.475
 20
-4.2
 30
0.0
 11
2.775
 21
-4.5
 31
0.0
  0
LINE
  5
5C5
100
AcDbEntity
  8
IMPORT_IGES
100
AcDbLine
 62
7
  6
CONTINUOUS
 10
2.775
 20
-6.05
 30
0.0
 11
2.475
 21
-5.75
 31
0.0
  0
SPLINE
  5
5C6
100
AcDbEntity
  8
IMPORT_IGES
100
AcDbSpline
 62
7
  6
CONTINUOUS
 70
0
 71
3
 72
13
 73
9
 74
0
 42
0.0000001
 43
0.0000001
 44
0.0000000001
 40
0.0
 40
0.0
 40
0.0
 40
0.0
 40
0.0725858035
 40
0.170210022
 40
0.287017984
 40
0.4171653119
 40
0.7012589502
 40
1.0
 40
1.0
 40
1.0
 40
1.0
 10
5.275
 20
2.798298469
 30
0.0
 10
5.275
 20
2.8116410937
 30
0.0
 10
5.2844030903
 20
2.8423931271
 30
0.0
 10
5.3082921844
 20
2.889224288
 30
0.0
 10
5.3418426533
 20
2.9431154098
 30
0.0
 10
5.397207294
 20
3.0234846094
 30
0.0
 10
5.4757783631
 20
3.1284478368
 30
0.0
 10
5.5413720712
 20
3.2131425691
 30
0.0
 10
5.575
 20
3.2565560385
 30
0.0
  0
LINE
  5
5C7
100
AcDbEntity
  8
IMPORT_IGES
100
AcDbLine
 62
7
  6
CONTINUOUS
 10
5.275
 20
-4.2
 30
0.0
 11
5.575
 21
-4.5
 31
0.0
  0
LINE
  5
5C8
100
AcDbEntity
  8
IMPORT_IGES
100
AcDbLine
 62
7
  6
CONTINUOUS
 10
-6.925
 20
-4.5
 30
0.0
 11
-6.625
 21
-4.2
 31
0.0
  0
SPLINE
  5
5C9
100
AcDbEntity
  8
IMPORT_IGES
100
AcDbSpline
 62
7
  6
CONTINUOUS
 70
0
 71
3
 72
13
 73
9
 74
0
 42
0.0000001
 43
0.0000001
 44
0.0000000001
 40
0.0
 40
0.0
 40
0.0
 40
0.0
 40
0.2987408962
 40
0.582834497
 40
0.7129818611
 40
0.8297899091
 40
0.9274141419
 40
1.0
 40
1.0
 40
1.0
 40
1.0
 10
-6.925
 20
3.2565560385
 30
0.0
 10
-6.8913720885
 20
3.2131425915
 30
0.0
 10
-6.8257784012
 20
3.1284478876
 30
0.0
 10
-6.7472073514
 20
3.0234846814
 30
0.0
 10
-6.6918426961
 20
2.9431154733
 30
0.0
 10
-6.6582922093
 20
2.8892243328
 30
0.0
 10
-6.6344030991
 20
2.8423931489
 30
0.0
 10
-6.625
 20
2.8116411038
 30
0.0
 10
-6.625
 20
2.798298469
 30
0.0
  0
SPLINE
  5
5CA
100
AcDbEntity
  8
RACCORDO
100
AcDbSpline
 62
7
  6
CONTINUOUS
 70
0
 71
3
 72
26
 73
22
 74
0
 42
0.0000001
 43
0.0000001
 44
0.0000000001
 40
0.0
 40
0.0
 40
0.0
 40
0.0
 40
0.0008510653
 40
0.0025716542
 40
0.0051572082
 40
0.0086000001
 40
0.0179987509
 40
0.0306167699
 40
0.0462705002
 40
0.0647480229
 40
0.0858262035
 40
0.1092783295
 40
0.1624324164
 40
0.2225886454
 40
0.2883652133
 40
0.3586265728
 40
0.4324525713
 40
0.5090980165
 40
0.6685161213
 40
0.8331018021
 40
1.0
 40
1.0
 40
1.0
 40
1.0
 10
-7.1344599863
 20
-4.5094826834
 30
0.0
 10
-7.1345469231
 20
-4.5096645573
 30
0.0
 10
-7.1349479902
 20
-4.5101346262
 30
0.0
 10
-7.1357263379
 20
-4.5110677628
 30
0.0
 10
-7.1369651445
 20
-4.5124269312
 30
0.0
 10
-7.1394404363
 20
-4.515112244
 30
0.0
 10
-7.1435900056
 20
-4.519490131
 30
0.0
 10
-7.1497648249
 20
-4.5259301158
 30
0.0
 10
-7.1574652085
 20
-4.5338877167
 30
0.0
 10
-7.1665844963
 20
-4.5432601795
 30
0.0
 10
-7.1770141023
 20
-4.5539350443
 30
0.0
 10
-7.193209053
 20
-4.5704599327
 30
0.0
 10
-7.2159253825
 20
-4.5935536451
 30
0.0
 10
-7.2457187465
 20
-4.6237479943
 30
0.0
 10
-7.2783963735
 20
-4.6567888728
 30
0.0
 10
-7.3133825379
 20
-4.6921004445
 30
0.0
 10
-7.3502079539
 20
-4.729213723
 30
0.0
 10
-7.4019402608
 20
-4.7812851058
 30
0.0
 10
-7.4688795583
 20
-4.8485516009
 30
0.0
 10
-7.5509730309
 20
-4.9308962415
 30
0.0
 10
-7.6064537997
 20
-4.9864531906
 30
0.0
 10
-7.6343993763
 20
-5.0144137901
 30
0.0
  0
SPLINE
  5
5CB
100
AcDbEntity
  8
RACCORDO
100
AcDbSpline
 62
7
  6
CONTINUOUS
 70
0
 71
3
 72
26
 73
22
 74
0
 42
0.0000001
 43
0.0000001
 44
0.0000000001
 40
0.0
 40
0.0
 40
0.0
 40
0.0
 40
0.0008149399
 40
0.0025026447
 40
0.0050571636
 40
0.0084704532
 40
0.0178144268
 40
0.0303830596
 40
0.0459927165
 40
0.0644314224
 40
0.0854759452
 40
0.1088994395
 40
0.1620106534
 40
0.2221418926
 40
0.2879097415
 40
0.3581771234
 40
0.4320225157
 40
0.5086995377
 40
0.6682134517
 40
0.8329334432
 40
1.0
 40
1.0
 40
1.0
 40
1.0
 10
-7.1345360794
 20
3.4095494981
 30
0.0
 10
-7.1346281668
 20
3.4097189049
 30
0.0
 10
-7.1350281346
 20
3.4101646578
 30
0.0
 10
-7.1358062369
 20
3.4110670947
 30
0.0
 10
-7.1370434911
 20
3.4123938605
 30
0.0
 10
-7.1395211685
 20
3.4150348338
 30
0.0
 10
-7.1436710706
 20
3.4193591584
 30
0.0
 10
-7.1498451508
 20
3.4257379079
 30
0.0
 10
-7.1575449301
 20
3.4336356261
 30
0.0
 10
-7.1666639866
 20
3.44294998
 30
0.0
 10
-7.1770934919
 20
3.4535687785
 30
0.0
 10
-7.193290889
 20
3.470021202
 30
0.0
 10
-7.2160090857
 20
3.4930316656
 30
0.0
 10
-7.2458021218
 20
3.5231361653
 30
0.0
 10
-7.2784797193
 20
3.5560969025
 30
0.0
 10
-7.3134660677
 20
3.5913379037
 30
0.0
 10
-7.3502918017
 20
3.6283899344
 30
0.0
 10
-7.4020280092
 20
3.6803941256
 30
0.0
 10
-7.4689713032
 20
3.7475987329
 30
0.0
 10
-7.5510653953
 20
3.8298977571
 30
0.0
 10
-7.6065416626
 20
3.8854400265
 30
0.0
 10
-7.6344850761
 20
3.9133984746
 30
0.0
  0
SPLINE
  5
5CC
100
AcDbEntity
  8
RACCORDO
100
AcDbSpline
 62
7
  6
CONTINUOUS
 70
0
 71
3
 72
26
 73
22
 74
0
 42
0.0000001
 43
0.0000001
 44
0.0000000001
 40
0.0
 40
0.0
 40
0.0
 40
0.0
 40
0.0008149398
 40
0.0025026446
 40
0.0050571635
 40
0.008470453
 40
0.0178144266
 40
0.0303830592
 40
0.0459927162
 40
0.064431422
 40
0.0854759447
 40
0.108899439
 40
0.1620106529
 40
0.2221418921
 40
0.287909741
 40
0.3581771229
 40
0.4320225153
 40
0.5086995373
 40
0.6682134514
 40
0.832933443
 40
1.0
 40
1.0
 40
1.0
 40
1.0
 10
5.7845360794
 20
3.4095494981
 30
0.0
 10
5.7846281668
 20
3.4097189049
 30
0.0
 10
5.7850281346
 20
3.4101646577
 30
0.0
 10
5.7858062369
 20
3.4110670945
 30
0.0
 10
5.7870434911
 20
3.4123938604
 30
0.0
 10
5.7895211685
 20
3.4150348336
 30
0.0
 10
5.7936710706
 20
3.4193591581
 30
0.0
 10
5.7998451508
 20
3.4257379075
 30
0.0
 10
5.8075449302
 20
3.4336356256
 30
0.0
 10
5.8166639867
 20
3.4429499795
 30
0.0
 10
5.827093492
 20
3.4535687779
 30
0.0
 10
5.8432908892
 20
3.4700212013
 30
0.0
 10
5.866009086
 20
3.4930316648
 30
0.0
 10
5.8958021221
 20
3.5231361644
 30
0.0
 10
5.9284797198
 20
3.5560969015
 30
0.0
 10
5.9634660683
 20
3.5913379026
 30
0.0
 10
6.0002918024
 20
3.6283899332
 30
0.0
 10
6.0520280103
 20
3.6803941241
 30
0.0
 10
6.1189713043
 20
3.7475987315
 30
0.0
 10
6.2010654
 20
3.8298977523
 30
0.0
 10
6.2565416625
 20
3.8854400265
 30
0.0
 10
6.2844850761
 20
3.9133984746
 30
0.0
  0
SPLINE
  5
5CD
100
AcDbEntity
  8
RACCORDO
100
AcDbSpline
 62
7
  6
CONTINUOUS
 70
0
 71
3
 72
26
 73
22
 74
0
 42
0.0000001
 43
0.0000001
 44
0.0000000001
 40
0.0
 40
0.0
 40
0.0
 40
0.0
 40
0.0008510653
 40
0.0025716543
 40
0.0051572083
 40
0.0086000003
 40
0.0179987511
 40
0.0306167702
 40
0.0462705005
 40
0.0647480233
 40
0.0858262039
 40
0.10927833
 40
0.1624324169
 40
0.2225886459
 40
0.2883652137
 40
0.3586265732
 40
0.4324525717
 40
0.5090980168
 40
0.6685161216
 40
0.8331018023
 40
1.0
 40
1.0
 40
1.0
 40
1.0
 10
5.7844599863
 20
-4.5094826835
 30
0.0
 10
5.7845469231
 20
-4.5096645574
 30
0.0
 10
5.7849479902
 20
-4.5101346262
 30
0.0
 10
5.7857263379
 20
-4.5110677629
 30
0.0
 10
5.7869651445
 20
-4.5124269313
 30
0.0
 10
5.7894404363
 20
-4.5151122442
 30
0.0
 10
5.7935900056
 20
-4.5194901312
 30
0.0
 10
5.7997648249
 20
-4.5259301161
 30
0.0
 10
5.8074652085
 20
-4.533887717
 30
0.0
 10
5.8165844962
 20
-4.5432601799
 30
0.0
 10
5.8270141022
 20
-4.5539350448
 30
0.0
 10
5.8432090529
 20
-4.5704599333
 30
0.0
 10
5.8659253823
 20
-4.5935536457
 30
0.0
 10
5.8957187463
 20
-4.623747995
 30
0.0
 10
5.9283963731
 20
-4.6567888736
 30
0.0
 10
5.9633825374
 20
-4.6921004454
 30
0.0
 10
6.0002079534
 20
-4.729213724
 30
0.0
 10
6.05194026
 20
-4.781285107
 30
0.0
 10
6.1188795575
 20
-4.848551602
 30
0.0
 10
6.2009730277
 20
-4.9308962448
 30
0.0
 10
6.2564537997
 20
-4.9864531906
 30
0.0
 10
6.2843993763
 20
-5.0144137901
 30
0.0
  0
SPLINE
  5
5CE
100
AcDbEntity
  8
RACCORDO
100
AcDbSpline
 62
7
  6
CONTINUOUS
 70
0
 71
3
 72
26
 73
22
 74
0
 42
0.0000001
 43
0.0000001
 44
0.0000000001
 40
0.0
 40
0.0
 40
0.0
 40
0.0
 40
0.0008510654
 40
0.0025716543
 40
0.0051572083
 40
0.0086000004
 40
0.0179987512
 40
0.0306167703
 40
0.0462705007
 40
0.0647480234
 40
0.0858262041
 40
0.1092783302
 40
0.1624324171
 40
0.2225886461
 40
0.2883652139
 40
0.3586265734
 40
0.4324525718
 40
0.509098017
 40
0.6685161217
 40
0.8331018023
 40
1.0
 40
1.0
 40
1.0
 40
1.0
 10
2.9844599863
 20
-4.5094826835
 30
0.0
 10
2.9845469231
 20
-4.5096645574
 30
0.0
 10
2.9849479902
 20
-4.5101346263
 30
0.0
 10
2.9857263379
 20
-4.511067763
 30
0.0
 10
2.9869651445
 20
-4.5124269314
 30
0.0
 10
2.9894404363
 20
-4.5151122443
 30
0.0
 10
2.9935900056
 20
-4.5194901314
 30
0.0
 10
2.9997648248
 20
-4.5259301163
 30
0.0
 10
3.0074652085
 20
-4.5338877172
 30
0.0
 10
3.0165844962
 20
-4.5432601801
 30
0.0
 10
3.0270141022
 20
-4.5539350451
 30
0.0
 10
3.0432090528
 20
-4.5704599336
 30
0.0
 10
3.0659253822
 20
-4.593553646
 30
0.0
 10
3.0957187461
 20
-4.6237479954
 30
0.0
 10
3.1283963729
 20
-4.6567888741
 30
0.0
 10
3.1633825371
 20
-4.6921004459
 30
0.0
 10
3.2002079529
 20
-4.7292137246
 30
0.0
 10
3.2519402593
 20
-4.7812851079
 30
0.0
 10
3.3188795568
 20
-4.8485516028
 30
0.0
 10
3.4009730245
 20
-4.9308962481
 30
0.0
 10
3.4564537998
 20
-4.9864531906
 30
0.0
 10
3.4843993763
 20
-5.0144137901
 30
0.0
  0
SPLINE
  5
5CF
100
AcDbEntity
  8
RACCORDO
100
AcDbSpline
 62
7
  6
CONTINUOUS
 70
0
 71
3
 72
26
 73
22
 74
0
 42
0.0000001
 43
0.0000001
 44
0.0000000001
 40
0.0
 40
0.0
 40
0.0
 40
0.0
 40
0.0009049298
 40
0.002674114
 40
0.005305308
 40
0.0087913609
 40
0.0182702214
 40
0.030960311
 40
0.0466782643
 40
0.0652122844
 40
0.086339402
 40
0.1098331126
 40
0.1630493508
 40
0.2232416466
 40
0.2890305735
 40
0.3592828285
 40
0.4330802646
 40
0.5096794276
 40
0.6689574955
 40
0.8333472041
 40
1.0
 40
1.0
 40
1.0
 40
1.0
 10
2.9843115708
 20
-6.1093520911
 30
0.0
 10
2.9843924385
 20
-6.109550959
 30
0.0
 10
2.9847926721
 20
-6.1100573295
 30
0.0
 10
2.9855730314
 20
-6.111034838
 30
0.0
 10
2.9868132109
 20
-6.1124415169
 30
0.0
 10
2.9892855236
 20
-6.1151910878
 30
0.0
 10
2.9934342407
 20
-6.1196470005
 30
0.0
 10
2.9996102946
 20
-6.1261760084
 30
0.0
 10
3.0073114929
 20
-6.1342206999
 30
0.0
 10
3.0164311362
 20
-6.1436776159
 30
0.0
 10
3.0268608805
 20
-6.1544339543
 30
0.0
 10
3.0430522763
 20
-6.1710640765
 30
0.0
 10
3.0657658854
 20
-6.1942786773
 30
0.0
 10
3.0955597267
 20
-6.2246034766
 30
0.0
 10
3.1282373961
 20
-6.2577606533
 30
0.0
 10
3.1632232932
 20
-6.2931745777
 30
0.0
 10
3.2000482474
 20
-6.3303766309
 30
0.0
 10
3.2517748824
 20
-6.3825452903
 30
0.0
 10
3.3187083681
 20
-6.4499012275
 30
0.0
 10
3.4008009343
 20
-6.5323115317
 30
0.0
 10
3.4562882641
 20
-6.5878893528
 30
0.0
 10
3.4842369883
 20
-6.6158528412
 30
0.0
  0
SPLINE
  5
5D0
100
AcDbEntity
  8
RACCORDO
100
AcDbSpline
 62
7
  6
CONTINUOUS
 70
0
 71
3
 72
26
 73
22
 74
0
 42
0.0000001
 43
0.0000001
 44
0.0000000001
 40
0.0
 40
0.0
 40
0.0
 40
0.0
 40
0.0009049298
 40
0.002674114
 40
0.005305308
 40
0.0087913609
 40
0.0182702214
 40
0.030960311
 40
0.0466782643
 40
0.0652122844
 40
0.086339402
 40
0.1098331126
 40
0.1630493508
 40
0.2232416466
 40
0.2890305735
 40
0.3592828285
 40
0.4330802646
 40
0.5096794276
 40
0.6689574955
 40
0.8333472041
 40
1.0
 40
1.0
 40
1.0
 40
1.0
 10
1.8343115708
 20
-6.1093520911
 30
0.0
 10
1.8343924385
 20
-6.109550959
 30
0.0
 10
1.8347926721
 20
-6.1100573295
 30
0.0
 10
1.8355730314
 20
-6.111034838
 30
0.0
 10
1.8368132109
 20
-6.1124415169
 30
0.0
 10
1.8392855236
 20
-6.1151910878
 30
0.0
 10
1.8434342407
 20
-6.1196470005
 30
0.0
 10
1.8496102946
 20
-6.1261760084
 30
0.0
 10
1.8573114929
 20
-6.1342206999
 30
0.0
 10
1.8664311362
 20
-6.1436776159
 30
0.0
 10
1.8768608805
 20
-6.1544339543
 30
0.0
 10
1.8930522763
 20
-6.1710640765
 30
0.0
 10
1.9157658854
 20
-6.1942786773
 30
0.0
 10
1.9455597267
 20
-6.2246034766
 30
0.0
 10
1.9782373961
 20
-6.2577606533
 30
0.0
 10
2.0132232932
 20
-6.2931745777
 30
0.0
 10
2.0500482474
 20
-6.3303766309
 30
0.0
 10
2.1017748824
 20
-6.3825452903
 30
0.0
 10
2.1687083681
 20
-6.4499012275
 30
0.0
 10
2.2508009343
 20
-6.5323115317
 30
0.0
 10
2.3062882641
 20
-6.5878893528
 30
0.0
 10
2.3342369883
 20
-6.6158528412
 30
0.0
  0
SPLINE
  5
5D1
100
AcDbEntity
  8
RACCORDO
100
AcDbSpline
 62
7
  6
CONTINUOUS
 70
0
 71
3
 72
26
 73
22
 74
0
 42
0.0000001
 43
0.0000001
 44
0.0000000001
 40
0.0
 40
0.0
 40
0.0
 40
0.0
 40
0.0009513896
 40
0.0027622175
 40
0.0054323498
 40
0.0089552087
 40
0.0185020454
 40
0.0312531556
 40
0.0470254029
 40
0.065607128
 40
0.0867755218
 40
0.1103042687
 40
0.1635727697
 40
0.2237952571
 40
0.2895943371
 40
0.3598386178
 40
0.433611656
 40
0.510171472
 40
0.6693308183
 40
0.8335546743
 40
1.0
 40
1.0
 40
1.0
 40
1.0
 10
1.8341515576
 20
-7.4592111053
 30
0.0
 10
1.8342283245
 20
-7.4594236722
 30
0.0
 10
1.8346263149
 20
-7.459960862
 30
0.0
 10
1.835409279
 20
-7.460975993
 30
0.0
 10
1.8366501066
 20
-7.4624228589
 30
0.0
 10
1.8391201778
 20
-7.4652265647
 30
0.0
 10
1.8432679649
 20
-7.4697483201
 30
0.0
 10
1.8494451458
 20
-7.4763524408
 30
0.0
 10
1.857146994
 20
-7.484470587
 30
0.0
 10
1.866266947
 20
-7.4939987021
 30
0.0
 10
1.8766968029
 20
-7.50482371
 30
0.0
 10
1.8928852018
 20
-7.5215424676
 30
0.0
 10
1.9155965122
 20
-7.5448588822
 30
0.0
 10
1.9453907564
 20
-7.5752935269
 30
0.0
 10
1.9780684616
 20
-7.6085485799
 30
0.0
 10
2.013054134
 20
-7.6440485918
 30
0.0
 10
2.0498786996
 20
-7.6813252596
 30
0.0
 10
2.1016005518
 20
-7.7335755742
 30
0.0
 10
2.1685291349
 20
-7.8010064473
 30
0.0
 10
2.2506209433
 20
-7.8834715096
 30
0.0
 10
2.3061138053
 20
-7.9390665151
 30
0.0
 10
2.3340651868
 20
-7.967032219
 30
0.0
  0
SPLINE
  5
5D2
100
AcDbEntity
  8
RACCORDO
100
AcDbSpline
 62
7
  6
CONTINUOUS
 70
0
 71
3
 72
26
 73
22
 74
0
 42
0.0000001
 43
0.0000001
 44
0.0000000001
 40
0.0
 40
0.0
 40
0.0
 40
0.0
 40
0.0009513896
 40
0.0027622175
 40
0.0054323498
 40
0.0089552087
 40
0.0185020454
 40
0.0312531556
 40
0.0470254029
 40
0.065607128
 40
0.0867755218
 40
0.1103042687
 40
0.1635727697
 40
0.2237952571
 40
0.2895943371
 40
0.3598386178
 40
0.433611656
 40
0.510171472
 40
0.6693308183
 40
0.8335546743
 40
1.0
 40
1.0
 40
1.0
 40
1.0
 10
-3.1841515576
 20
-7.4592111053
 30
0.0
 10
-3.1842283245
 20
-7.4594236722
 30
0.0
 10
-3.1846263149
 20
-7.459960862
 30
0.0
 10
-3.185409279
 20
-7.460975993
 30
0.0
 10
-3.1866501066
 20
-7.4624228589
 30
0.0
 10
-3.1891201778
 20
-7.4652265647
 30
0.0
 10
-3.1932679649
 20
-7.4697483201
 30
0.0
 10
-3.1994451458
 20
-7.4763524408
 30
0.0
 10
-3.207146994
 20
-7.484470587
 30
0.0
 10
-3.216266947
 20
-7.4939987021
 30
0.0
 10
-3.2266968029
 20
-7.50482371
 30
0.0
 10
-3.2428852018
 20
-7.5215424676
 30
0.0
 10
-3.2655965122
 20
-7.5448588822
 30
0.0
 10
-3.2953907564
 20
-7.5752935269
 30
0.0
 10
-3.3280684616
 20
-7.6085485799
 30
0.0
 10
-3.363054134
 20
-7.6440485918
 30
0.0
 10
-3.3998786996
 20
-7.6813252596
 30
0.0
 10
-3.4516005518
 20
-7.7335755742
 30
0.0
 10
-3.5185291349
 20
-7.8010064473
 30
0.0
 10
-3.6006209433
 20
-7.8834715096
 30
0.0
 10
-3.6561138053
 20
-7.9390665151
 30
0.0
 10
-3.6840651868
 20
-7.967032219
 30
0.0
  0
SPLINE
  5
5D3
100
AcDbEntity
  8
RACCORDO
100
AcDbSpline
 62
7
  6
CONTINUOUS
 70
0
 71
3
 72
26
 73
22
 74
0
 42
0.0000001
 43
0.0000001
 44
0.0000000001
 40
0.0
 40
0.0
 40
0.0
 40
0.0
 40
0.0009049298
 40
0.002674114
 40
0.005305308
 40
0.0087913609
 40
0.0182702214
 40
0.030960311
 40
0.0466782643
 40
0.0652122844
 40
0.086339402
 40
0.1098331126
 40
0.1630493508
 40
0.2232416466
 40
0.2890305735
 40
0.3592828285
 40
0.4330802646
 40
0.5096794276
 40
0.6689574955
 40
0.8333472041
 40
1.0
 40
1.0
 40
1.0
 40
1.0
 10
-3.1843115708
 20
-6.1093520911
 30
0.0
 10
-3.1843924385
 20
-6.109550959
 30
0.0
 10
-3.1847926721
 20
-6.1100573295
 30
0.0
 10
-3.1855730314
 20
-6.111034838
 30
0.0
 10
-3.1868132109
 20
-6.1124415169
 30
0.0
 10
-3.1892855236
 20
-6.1151910878
 30
0.0
 10
-3.1934342407
 20
-6.1196470005
 30
0.0
 10
-3.1996102946
 20
-6.1261760084
 30
0.0
 10
-3.2073114929
 20
-6.1342206999
 30
0.0
 10
-3.2164311362
 20
-6.1436776159
 30
0.0
 10
-3.2268608805
 20
-6.1544339543
 30
0.0
 10
-3.2430522763
 20
-6.1710640765
 30
0.0
 10
-3.2657658854
 20
-6.1942786773
 30
0.0
 10
-3.2955597267
 20
-6.2246034766
 30
0.0
 10
-3.3282373961
 20
-6.2577606533
 30
0.0
 10
-3.3632232932
 20
-6.2931745777
 30
0.0
 10
-3.4000482474
 20
-6.3303766309
 30
0.0
 10
-3.4517748824
 20
-6.3825452903
 30
0.0
 10
-3.5187083681
 20
-6.4499012275
 30
0.0
 10
-3.6008009343
 20
-6.5323115317
 30
0.0
 10
-3.6562882641
 20
-6.5878893528
 30
0.0
 10
-3.6842369883
 20
-6.6158528412
 30
0.0
  0
SPLINE
  5
5D4
100
AcDbEntity
  8
RACCORDO
100
AcDbSpline
 62
7
  6
CONTINUOUS
 70
0
 71
3
 72
26
 73
22
 74
0
 42
0.0000001
 43
0.0000001
 44
0.0000000001
 40
0.0
 40
0.0
 40
0.0
 40
0.0
 40
0.0009049298
 40
0.002674114
 40
0.005305308
 40
0.0087913609
 40
0.0182702214
 40
0.030960311
 40
0.0466782643
 40
0.0652122844
 40
0.086339402
 40
0.1098331126
 40
0.1630493508
 40
0.2232416466
 40
0.2890305735
 40
0.3592828285
 40
0.4330802646
 40
0.5096794276
 40
0.6689574955
 40
0.8333472041
 40
1.0
 40
1.0
 40
1.0
 40
1.0
 10
-4.3343115708
 20
-6.1093520911
 30
0.0
 10
-4.3343924385
 20
-6.109550959
 30
0.0
 10
-4.3347926721
 20
-6.1100573295
 30
0.0
 10
-4.3355730314
 20
-6.111034838
 30
0.0
 10
-4.3368132109
 20
-6.1124415169
 30
0.0
 10
-4.3392855236
 20
-6.1151910878
 30
0.0
 10
-4.3434342407
 20
-6.1196470005
 30
0.0
 10
-4.3496102946
 20
-6.1261760084
 30
0.0
 10
-4.3573114929
 20
-6.1342206999
 30
0.0
 10
-4.3664311362
 20
-6.1436776159
 30
0.0
 10
-4.3768608805
 20
-6.1544339543
 30
0.0
 10
-4.3930522763
 20
-6.1710640765
 30
0.0
 10
-4.4157658854
 20
-6.1942786773
 30
0.0
 10
-4.4455597267
 20
-6.2246034766
 30
0.0
 10
-4.4782373961
 20
-6.2577606533
 30
0.0
 10
-4.5132232932
 20
-6.2931745777
 30
0.0
 10
-4.5500482474
 20
-6.3303766309
 30
0.0
 10
-4.6017748824
 20
-6.3825452903
 30
0.0
 10
-4.6687083681
 20
-6.4499012275
 30
0.0
 10
-4.7508009343
 20
-6.5323115317
 30
0.0
 10
-4.8062882641
 20
-6.5878893528
 30
0.0
 10
-4.8342369883
 20
-6.6158528412
 30
0.0
  0
SPLINE
  5
5D5
100
AcDbEntity
  8
RACCORDO
100
AcDbSpline
 62
7
  6
CONTINUOUS
 70
0
 71
3
 72
26
 73
22
 74
0
 42
0.0000001
 43
0.0000001
 44
0.0000000001
 40
0.0
 40
0.0
 40
0.0
 40
0.0
 40
0.0008510654
 40
0.0025716543
 40
0.0051572083
 40
0.0086000004
 40
0.0179987512
 40
0.0306167703
 40
0.0462705007
 40
0.0647480234
 40
0.0858262041
 40
0.1092783302
 40
0.1624324171
 40
0.2225886461
 40
0.2883652139
 40
0.3586265734
 40
0.4324525718
 40
0.509098017
 40
0.6685161217
 40
0.8331018023
 40
1.0
 40
1.0
 40
1.0
 40
1.0
 10
-4.3344599863
 20
-4.5094826835
 30
0.0
 10
-4.3345469231
 20
-4.5096645574
 30
0.0
 10
-4.3349479902
 20
-4.5101346263
 30
0.0
 10
-4.3357263379
 20
-4.511067763
 30
0.0
 10
-4.3369651445
 20
-4.5124269314
 30
0.0
 10
-4.3394404363
 20
-4.5151122443
 30
0.0
 10
-4.3435900056
 20
-4.5194901314
 30
0.0
 10
-4.3497648248
 20
-4.5259301163
 30
0.0
 10
-4.3574652085
 20
-4.5338877172
 30
0.0
 10
-4.3665844962
 20
-4.5432601801
 30
0.0
 10
-4.3770141022
 20
-4.5539350451
 30
0.0
 10
-4.3932090528
 20
-4.5704599336
 30
0.0
 10
-4.4159253822
 20
-4.593553646
 30
0.0
 10
-4.4457187461
 20
-4.6237479954
 30
0.0
 10
-4.4783963729
 20
-4.6567888741
 30
0.0
 10
-4.5133825371
 20
-4.6921004459
 30
0.0
 10
-4.5502079529
 20
-4.7292137246
 30
0.0
 10
-4.6019402593
 20
-4.7812851079
 30
0.0
 10
-4.6688795568
 20
-4.8485516028
 30
0.0
 10
-4.7509730245
 20
-4.9308962481
 30
0.0
 10
-4.8064537998
 20
-4.9864531906
 30
0.0
 10
-4.8343993763
 20
-5.0144137901
 30
0.0
  0
SPLINE
  5
5D6
100
AcDbEntity
  8
RACCORDO
100
AcDbSpline
 62
250
  6
CONTINUOUS
 70
0
 71
3
 72
8
 73
4
 74
0
 42
0.0000001
 43
0.0000001
 44
0.0000000001
 40
0.0
 40
0.0
 40
0.0
 40
0.0
 40
1.0
 40
1.0
 40
1.0
 40
1.0
 10
5.7844599868
 20
-4.5094826844
 30
0.0
 10
5.7846679652
 20
-1.8698052981
 30
0.0
 10
5.7846933262
 20
0.7698721089
 30
0.0
 10
5.7845360798
 20
3.4095494987
 30
0.0
  0
LINE
  5
5D7
100
AcDbEntity
  8
RACCORDO
100
AcDbLine
 62
250
  6
CONTINUOUS
 10
2.984311571
 20
-6.1093520915
 30
0.0
 11
2.9844599863
 21
-4.5094826835
 31
0.0
  0
SPLINE
  5
5D8
100
AcDbEntity
  8
RACCORDO
100
AcDbSpline
 62
7
  6
CONTINUOUS
 70
0
 71
3
 72
15
 73
11
 74
0
 42
0.0000001
 43
0.0000001
 44
0.0000000001
 40
0.0
 40
0.0
 40
0.0
 40
0.0
 40
0.1666545511
 40
0.3262779792
 40
0.4735916211
 40
0.6057108254
 40
0.7221085607
 40
0.8242207343
 40
0.9152394685
 40
1.0
 40
1.0
 40
1.0
 40
1.0
 10
9.7177234819
 20
-23.1226497308
 30
0.0
 10
9.735182792
 20
-23.1226497308
 30
0.0
 10
9.7693945583
 20
-23.1249197959
 30
0.0
 10
9.8182789333
 20
-23.1340781896
 30
0.0
 10
9.8621199981
 20
-23.1484841847
 30
0.0
 10
9.8993602838
 20
-23.1671098288
 30
0.0
 10
9.9291080599
 20
-23.1890199577
 30
0.0
 10
9.9508995457
 20
-23.2134179792
 30
0.0
 10
9.9643998674
 20
-23.2396149959
 30
0.0
 10
9.9676297781
 20
-23.2581079409
 30
0.0
 10
9.9677192511
 20
-23.2669872981
 30
0.0
  0
SPLINE
  5
5D9
100
AcDbEntity
  8
RACCORDO
100
AcDbSpline
 62
7
  6
CONTINUOUS
 70
0
 71
3
 72
12
 73
8
 74
0
 42
0.0000001
 43
0.0000001
 44
0.0000000001
 40
0.0
 40
0.0
 40
0.0
 40
0.0
 40
0.4189758554
 40
0.7258150368
 40
0.9169374284
 40
0.970078621
 40
1.0
 40
1.0
 40
1.0
 40
1.0
 10
9.93391534
 20
-22.3279108386
 30
0.0
 10
9.9387355339
 20
-22.328345856
 30
0.0
 10
9.9471021029
 20
-22.3290818085
 30
0.0
 10
9.9575917423
 20
-22.3301849672
 30
0.0
 10
9.9639546858
 20
-22.3312764657
 30
0.0
 10
9.9668861623
 20
-22.3323145409
 30
0.0
 10
9.9676816398
 20
-22.3330673782
 30
0.0
 10
9.9677192511
 20
-22.3334109614
 30
0.0
  0
SPLINE
  5
5DA
100
AcDbEntity
  8
RACCORDO
100
AcDbSpline
 62
7
  6
CONTINUOUS
 70
0
 71
3
 72
12
 73
8
 74
0
 42
0.0000001
 43
0.0000001
 44
0.0000000001
 40
0.0
 40
0.0
 40
0.0
 40
0.0
 40
0.029921379
 40
0.0830625716
 40
0.2741849632
 40
0.5810241446
 40
1.0
 40
1.0
 40
1.0
 40
1.0
 10
-11.3177192511
 20
-22.3334109614
 30
0.0
 10
-11.3176816398
 20
-22.3330673782
 30
0.0
 10
-11.3168861623
 20
-22.3323145409
 30
0.0
 10
-11.3139546858
 20
-22.3312764657
 30
0.0
 10
-11.3075917423
 20
-22.3301849672
 30
0.0
 10
-11.2971021029
 20
-22.3290818085
 30
0.0
 10
-11.2887355339
 20
-22.328345856
 30
0.0
 10
-11.28391534
 20
-22.3279108386
 30
0.0
  0
SPLINE
  5
5DB
100
AcDbEntity
  8
RACCORDO
100
AcDbSpline
 62
7
  6
CONTINUOUS
 70
0
 71
3
 72
15
 73
11
 74
0
 42
0.0000001
 43
0.0000001
 44
0.0000000001
 40
0.0
 40
0.0
 40
0.0
 40
0.0
 40
0.1666545511
 40
0.3262779792
 40
0.4735916211
 40
0.6057108254
 40
0.7221085607
 40
0.8242207343
 40
0.9152394685
 40
1.0
 40
1.0
 40
1.0
 40
1.0
 10
-11.0677234819
 20
-23.1226497308
 30
0.0
 10
-11.085182792
 20
-23.1226497308
 30
0.0
 10
-11.1193945583
 20
-23.1249197959
 30
0.0
 10
-11.1682789333
 20
-23.1340781896
 30
0.0
 10
-11.2121199981
 20
-23.1484841847
 30
0.0
 10
-11.2493602838
 20
-23.1671098288
 30
0.0
 10
-11.2791080599
 20
-23.1890199577
 30
0.0
 10
-11.3008995457
 20
-23.2134179792
 30
0.0
 10
-11.3143998674
 20
-23.2396149959
 30
0.0
 10
-11.3176297781
 20
-23.2581079409
 30
0.0
 10
-11.3177192511
 20
-23.2669872981
 30
0.0
  0
SPLINE
  5
5DC
100
AcDbEntity
  8
RACCORDO
100
AcDbSpline
 62
7
  6
CONTINUOUS
 70
0
 71
3
 72
12
 73
8
 74
0
 42
0.0000001
 43
0.0000001
 44
0.0000000001
 40
0.0
 40
0.0
 40
0.0
 40
0.0
 40
0.029921379
 40
0.0830625716
 40
0.2741849632
 40
0.5810241446
 40
1.0
 40
1.0
 40
1.0
 40
1.0
 10
9.9677192511
 20
22.3334109614
 30
0.0
 10
9.9676816398
 20
22.3330673782
 30
0.0
 10
9.9668861623
 20
22.3323145409
 30
0.0
 10
9.9639546858
 20
22.3312764657
 30
0.0
 10
9.9575917423
 20
22.3301849672
 30
0.0
 10
9.9471021029
 20
22.3290818085
 30
0.0
 10
9.9387355339
 20
22.328345856
 30
0.0
 10
9.93391534
 20
22.3279108386
 30
0.0
  0
SPLINE
  5
5DD
100
AcDbEntity
  8
RACCORDO
100
AcDbSpline
 62
7
  6
CONTINUOUS
 70
0
 71
3
 72
12
 73
8
 74
0
 42
0.0000001
 43
0.0000001
 44
0.0000000001
 40
0.0
 40
0.0
 40
0.0
 40
0.0
 40
0.4189758554
 40
0.7258150368
 40
0.9169374284
 40
0.970078621
 40
1.0
 40
1.0
 40
1.0
 40
1.0
 10
-11.28391534
 20
22.3279108386
 30
0.0
 10
-11.2887355339
 20
22.328345856
 30
0.0
 10
-11.2971021029
 20
22.3290818085
 30
0.0
 10
-11.3075917423
 20
22.3301849672
 30
0.0
 10
-11.3139546858
 20
22.3312764657
 30
0.0
 10
-11.3168861623
 20
22.3323145409
 30
0.0
 10
-11.3176816398
 20
22.3330673782
 30
0.0
 10
-11.3177192511
 20
22.3334109614
 30
0.0
  0
SPLINE
  5
5DE
100
AcDbEntity
  8
RACCORDO
100
AcDbSpline
 62
7
  6
CONTINUOUS
 70
0
 71
3
 72
13
 73
9
 74
0
 42
0.0000001
 43
0.0000001
 44
0.0000000001
 40
0.0
 40
0.0
 40
0.0
 40
0.0
 40
0.0927966287
 40
0.2002447148
 40
0.3193571807
 40
0.4469985052
 40
0.7183509509
 40
1.0
 40
1.0
 40
1.0
 40
1.0
 10
-4.9712073137
 20
-23.7953389668
 30
0.0
 10
-4.9572924006
 20
-23.7952316797
 30
0.0
 10
-4.927382272
 20
-23.789799767
 30
0.0
 10
-4.8822472469
 20
-23.7736730732
 30
0.0
 10
-4.8340026256
 20
-23.7513098509
 30
0.0
 10
-4.7654209279
 20
-23.714769798
 30
0.0
 10
-4.6778591526
 20
-23.6622363788
 30
0.0
 10
-4.6077774665
 20
-23.6179177525
 30
0.0
 10
-4.5720826234
 20
-23.5953423515
 30
0.0
  0
SPLINE
  5
5DF
100
AcDbEntity
  8
RACCORDO
100
AcDbSpline
 62
7
  6
CONTINUOUS
 70
0
 71
3
 72
13
 73
9
 74
0
 42
0.0000001
 43
0.0000001
 44
0.0000000001
 40
0.0
 40
0.0
 40
0.0
 40
0.0
 40
0.0927966287
 40
0.2002447148
 40
0.3193571807
 40
0.4469985052
 40
0.7183509509
 40
1.0
 40
1.0
 40
1.0
 40
1.0
 10
3.6212073137
 20
-23.7953389668
 30
0.0
 10
3.6072924006
 20
-23.7952316797
 30
0.0
 10
3.577382272
 20
-23.789799767
 30
0.0
 10
3.5322472469
 20
-23.7736730732
 30
0.0
 10
3.4840026256
 20
-23.7513098509
 30
0.0
 10
3.4154209279
 20
-23.714769798
 30
0.0
 10
3.3278591526
 20
-23.6622363788
 30
0.0
 10
3.2577774665
 20
-23.6179177525
 30
0.0
 10
3.2220826234
 20
-23.5953423515
 30
0.0
  0
SPLINE
  5
5E0
100
AcDbEntity
  8
RACCORDO
100
AcDbSpline
 62
7
  6
CONTINUOUS
 70
0
 71
3
 72
13
 73
9
 74
0
 42
0.0000001
 43
0.0000001
 44
0.0000000001
 40
0.0
 40
0.0
 40
0.0
 40
0.0
 40
0.0927966287
 40
0.2002447148
 40
0.3193571807
 40
0.4469985052
 40
0.7183509509
 40
1.0
 40
1.0
 40
1.0
 40
1.0
 10
3.6212073137
 20
23.7953389668
 30
0.0
 10
3.6072924006
 20
23.7952316797
 30
0.0
 10
3.577382272
 20
23.789799767
 30
0.0
 10
3.5322472469
 20
23.7736730732
 30
0.0
 10
3.4840026256
 20
23.7513098509
 30
0.0
 10
3.4154209279
 20
23.714769798
 30
0.0
 10
3.3278591526
 20
23.6622363788
 30
0.0
 10
3.2577774665
 20
23.6179177525
 30
0.0
 10
3.2220826234
 20
23.5953423515
 30
0.0
  0
SPLINE
  5
5E1
100
AcDbEntity
  8
RACCORDO
100
AcDbSpline
 62
7
  6
CONTINUOUS
 70
0
 71
3
 72
13
 73
9
 74
0
 42
0.0000001
 43
0.0000001
 44
0.0000000001
 40
0.0
 40
0.0
 40
0.0
 40
0.0
 40
0.0927966287
 40
0.2002447148
 40
0.3193571807
 40
0.4469985052
 40
0.7183509509
 40
1.0
 40
1.0
 40
1.0
 40
1.0
 10
-4.9712073137
 20
23.7953389668
 30
0.0
 10
-4.9572924006
 20
23.7952316797
 30
0.0
 10
-4.927382272
 20
23.789799767
 30
0.0
 10
-4.8822472469
 20
23.7736730732
 30
0.0
 10
-4.8340026256
 20
23.7513098509
 30
0.0
 10
-4.7654209279
 20
23.714769798
 30
0.0
 10
-4.6778591526
 20
23.6622363788
 30
0.0
 10
-4.6077774665
 20
23.6179177525
 30
0.0
 10
-4.5720826234
 20
23.5953423515
 30
0.0
  0
LINE
  5
5E2
100
AcDbEntity
  8
RACCORDO
100
AcDbLine
 62
250
  6
CONTINUOUS
 10
1.8341515579
 20
-7.4592111058
 30
0.0
 11
1.8343115708
 21
-6.1093520911
 31
0.0
  0
LINE
  5
5E3
100
AcDbEntity
  8
RACCORDO
100
AcDbLine
 62
250
  6
CONTINUOUS
 10
-3.1843115708
 20
-6.1093520911
 30
0.0
 11
-3.1841515579
 21
-7.4592111059
 31
0.0
  0
LINE
  5
5E4
100
AcDbEntity
  8
RACCORDO
100
AcDbLine
 62
250
  6
CONTINUOUS
 10
-4.3344599863
 20
-4.5094826835
 30
0.0
 11
-4.334311571
 21
-6.1093520915
 31
0.0
  0
LINE
  5
5E5
100
AcDbEntity
  8
RACCORDO
100
AcDbLine
 62
7
  6
CONTINUOUS
 10
-11.325
 20
22.3997080771
 30
0.0
 11
-11.3177192511
 21
22.3334109614
 31
0.0
  0
SPLINE
  5
5E6
100
AcDbEntity
  8
RACCORDO
100
AcDbSpline
 62
250
  6
CONTINUOUS
 70
0
 71
3
 72
22
 73
18
 74
0
 42
0.0000001
 43
0.0000001
 44
0.0000000001
 40
0.0
 40
0.0
 40
0.0
 40
0.0
 40
0.0028346579
 40
0.0076285154
 40
0.0146109708
 40
0.0238387332
 40
0.0490322391
 40
0.083085504
 40
0.1257141835
 40
0.1765347129
 40
0.2350813812
 40
0.3008091681
 40
0.3731030181
 40
0.4512870321
 40
0.62234189
 40
0.8075559708
 40
1.0
 40
1.0
 40
1.0
 40
1.0
 10
-11.6576730391
 20
20.5419058565
 30
0.0
 10
-11.6574881362
 20
20.5423419868
 30
0.0
 10
-11.656386386
 20
20.5431620604
 30
0.0
 10
-11.6541580438
 20
20.5440657673
 30
0.0
 10
-11.6507568319
 20
20.545027701
 30
0.0
 10
-11.6439931579
 20
20.5464467566
 30
0.0
 10
-11.6326529662
 20
20.5480899793
 30
0.0
 10
-11.6157285504
 20
20.5499068746
 30
0.0
 10
-11.5944907289
 20
20.5516673754
 30
0.0
 10
-11.5691461976
 20
20.5533530248
 30
0.0
 10
-11.5399278428
 20
20.5549394919
 30
0.0
 10
-11.5071113937
 20
20.5564100015
 30
0.0
 10
-11.4710051639
 20
20.5577488989
 30
0.0
 10
-11.4172976994
 20
20.5593891923
 30
0.0
 10
-11.3447110236
 20
20.5609777063
 30
0.0
 10
-11.253020648
 20
20.562152046
 30
0.0
 10
-11.1899090317
 20
20.5624452475
 30
0.0
 10
-11.1577491915
 20
20.5624683135
 30
0.0
  0
SPLINE
  5
5E7
100
AcDbEntity
  8
RACCORDO
100
AcDbSpline
 62
250
  6
CONTINUOUS
 70
0
 71
3
 72
21
 73
17
 74
0
 42
0.0000001
 43
0.0000001
 44
0.0000000001
 40
0.0
 40
0.0
 40
0.0
 40
0.0
 40
0.1908437011
 40
0.3737353397
 40
0.5424594456
 40
0.6912793369
 40
0.7566131107
 40
0.8151368364
 40
0.866352673
 40
0.9098252737
 40
0.9451857809
 40
0.9721353771
 40
0.9823830754
 40
0.9904509897
 40
0.9963243625
 40
1.0
 40
1.0
 40
1.0
 40
1.0
 10
-11.1577491915
 20
20.5624683248
 30
0.0
 10
-11.1577929896
 20
20.6538519851
 30
0.0
 10
-11.1580678774
 20
20.8328115089
 30
0.0
 10
-11.1590446999
 20
21.0925614005
 30
0.0
 10
-11.1605464024
 20
21.3321857412
 30
0.0
 10
-11.1622476451
 20
21.5155156452
 30
0.0
 10
-11.1638795482
 20
21.6460744895
 30
0.0
 10
-11.1651415728
 20
21.7298973175
 30
0.0
 10
-11.1664832667
 20
21.8032492868
 30
0.0
 10
-11.1678866318
 20
21.8655066834
 30
0.0
 10
-11.1693421816
 20
21.9161385378
 30
0.0
 10
-11.1706523544
 20
21.9508596947
 30
0.0
 10
-11.171787404
 20
21.9725038686
 30
0.0
 10
-11.1725468052
 20
21.9840646806
 30
0.0
 10
-11.1733152648
 20
21.9924610508
 30
0.0
 10
-11.1738945494
 20
21.9970070026
 30
0.0
 10
-11.1742759622
 20
21.998725222
 30
0.0
  0
SPLINE
  5
5E8
100
AcDbEntity
  8
RACCORDO
100
AcDbSpline
 62
250
  6
CONTINUOUS
 70
0
 71
3
 72
21
 73
17
 74
0
 42
0.0000001
 43
0.0000001
 44
0.0000000001
 40
0.0
 40
0.0
 40
0.0
 40
0.0
 40
0.1908078103
 40
0.3736647908
 40
0.5423568974
 40
0.691150141
 40
0.7564738747
 40
0.8149906153
 40
0.8662033914
 40
0.9096780747
 40
0.9450474638
 40
0.9720159805
 40
0.9822790167
 40
0.9903681185
 40
0.9962724717
 40
1.0
 40
1.0
 40
1.0
 40
1.0
 10
-11.6576730391
 20
20.5419058565
 30
0.0
 10
-11.657716832
 20
20.6028307761
 30
0.0
 10
-11.6579917577
 20
20.7221418732
 30
0.0
 10
-11.6589686413
 20
20.8953140395
 30
0.0
 10
-11.6604704335
 20
21.0550666738
 30
0.0
 10
-11.6621717526
 20
21.1772864646
 30
0.0
 10
-11.6638036666
 20
21.2643232618
 30
0.0
 10
-11.665065726
 20
21.3202037297
 30
0.0
 10
-11.6664073939
 20
21.369103542
 30
0.0
 10
-11.6678109074
 20
21.4106077292
 30
0.0
 10
-11.6692662994
 20
21.4443620165
 30
0.0
 10
-11.6705771102
 20
21.4675096392
 30
0.0
 10
-11.6717113852
 20
21.4819348742
 30
0.0
 10
-11.672472542
 20
21.4896466903
 30
0.0
 10
-11.6732393404
 20
21.4952471883
 30
0.0
 10
-11.6738238286
 20
21.4982812009
 30
0.0
 10
-11.6741998097
 20
21.4994104546
 30
0.0
  0
SPLINE
  5
5E9
100
AcDbEntity
  8
RACCORDO
100
AcDbSpline
 62
250
  6
CONTINUOUS
 70
0
 71
3
 72
22
 73
18
 74
0
 42
0.0000001
 43
0.0000001
 44
0.0000000001
 40
0.0
 40
0.0
 40
0.0
 40
0.0
 40
0.0028346435
 40
0.0076284833
 40
0.014610921
 40
0.0238386666
 40
0.0490321422
 40
0.0830853821
 40
0.1257140422
 40
0.1765345581
 40
0.2350812188
 40
0.3008090043
 40
0.3731028589
 40
0.4512868833
 40
0.6223417772
 40
0.80755591
 40
1.0
 40
1.0
 40
1.0
 40
1.0
 10
-11.6576730391
 20
-20.5419058565
 30
0.0
 10
-11.6574881411
 20
-20.5423419863
 30
0.0
 10
-11.6563863975
 20
-20.5431620622
 30
0.0
 10
-11.6541580644
 20
-20.5440657681
 30
0.0
 10
-11.6507568614
 20
-20.5450277025
 30
0.0
 10
-11.6439931986
 20
-20.5464467585
 30
0.0
 10
-11.6326530189
 20
-20.5480899819
 30
0.0
 10
-11.6157286156
 20
-20.5499068778
 30
0.0
 10
-11.5944908036
 20
-20.5516673795
 30
0.0
 10
-11.5691462789
 20
-20.5533530297
 30
0.0
 10
-11.5399279275
 20
-20.5549394978
 30
0.0
 10
-11.5071114788
 20
-20.5564100082
 30
0.0
 10
-11.4710052463
 20
-20.5577489064
 30
0.0
 10
-11.4172977727
 20
-20.559389201
 30
0.0
 10
-11.3447110796
 20
-20.5609777163
 30
0.0
 10
-11.2530206781
 20
-20.5621520569
 30
0.0
 10
-11.1899090423
 20
-20.5624452588
 30
0.0
 10
-11.1577491915
 20
-20.5624683248
 30
0.0
  0
SPLINE
  5
5EA
100
AcDbEntity
  8
RACCORDO
100
AcDbSpline
 62
250
  6
CONTINUOUS
 70
0
 71
3
 72
9
 73
5
 74
0
 42
0.0000001
 43
0.0000001
 44
0.0000000001
 40
0.0
 40
0.0
 40
0.0
 40
0.0
 40
0.2499471355
 40
1.0
 40
1.0
 40
1.0
 40
1.0
 10
-11.1577491915
 20
-20.5624683248
 30
0.0
 10
-11.1552900036
 20
-17.1361156711
 30
0.0
 10
-11.1479150376
 20
-3.4278046669
 30
0.0
 10
-11.1503695474
 20
10.2805116313
 30
0.0
 10
-11.1577491915
 20
20.5624683248
 30
0.0
  0
SPLINE
  5
5EB
100
AcDbEntity
  8
RACCORDO
100
AcDbSpline
 62
250
  6
CONTINUOUS
 70
0
 71
3
 72
9
 73
5
 74
0
 42
0.0000001
 43
0.0000001
 44
0.0000000001
 40
0.0
 40
0.0
 40
0.0
 40
0.0
 40
0.2499471355
 40
1.0
 40
1.0
 40
1.0
 40
1.0
 10
-11.6576730391
 20
-20.5419058565
 30
0.0
 10
-11.6552138512
 20
-17.1189795567
 30
0.0
 10
-11.6478388852
 20
-3.4243768659
 30
0.0
 10
-11.650293395
 20
10.2702311241
 30
0.0
 10
-11.6576730391
 20
20.5419058565
 30
0.0
  0
SPLINE
  5
5EC
100
AcDbEntity
  8
RACCORDO
100
AcDbSpline
 62
250
  6
CONTINUOUS
 70
0
 71
3
 72
21
 73
17
 74
0
 42
0.0000001
 43
0.0000001
 44
0.0000000001
 40
0.0
 40
0.0
 40
0.0
 40
0.0
 40
0.0036756612
 40
0.0095490156
 40
0.0176169182
 40
0.0278646196
 40
0.0548142201
 40
0.0901747256
 40
0.1336473269
 40
0.1848631633
 40
0.243386889
 40
0.3087206628
 40
0.457540554
 40
0.62626466
 40
0.8091562986
 40
1.0
 40
1.0
 40
1.0
 40
1.0
 10
-11.1742759622
 20
-21.998725222
 30
0.0
 10
-11.1738945381
 20
-21.9970069934
 30
0.0
 10
-11.173315254
 20
-21.9924610378
 30
0.0
 10
-11.1725468135
 20
-21.9840646695
 30
0.0
 10
-11.1717874176
 20
-21.9725038701
 30
0.0
 10
-11.170652358
 20
-21.9508596989
 30
0.0
 10
-11.1693421877
 20
-21.916138539
 30
0.0
 10
-11.1678866414
 20
-21.865506683
 30
0.0
 10
-11.1664832737
 20
-21.8032492872
 30
0.0
 10
-11.165141582
 20
-21.7298973176
 30
0.0
 10
-11.1638795566
 20
-21.6460744898
 30
0.0
 10
-11.1622476531
 20
-21.5155156455
 30
0.0
 10
-11.1605464075
 20
-21.3321857415
 30
0.0
 10
-11.1590447024
 20
-21.0925614008
 30
0.0
 10
-11.1580678799
 20
-20.8328115091
 30
0.0
 10
-11.1577929824
 20
-20.6538519852
 30
0.0
 10
-11.1577491915
 20
-20.5624683248
 30
0.0
  0
SPLINE
  5
5ED
100
AcDbEntity
  8
RACCORDO
100
AcDbSpline
 62
250
  6
CONTINUOUS
 70
0
 71
3
 72
21
 73
17
 74
0
 42
0.0000001
 43
0.0000001
 44
0.0000000001
 40
0.0
 40
0.0
 40
0.0
 40
0.0
 40
0.0037275565
 40
0.0096318743
 40
0.0177209763
 40
0.0279840482
 40
0.0549525649
 40
0.0903219332
 40
0.1337966227
 40
0.1850093878
 40
0.2435261249
 40
0.3088498528
 40
0.4576430892
 40
0.6263351923
 40
0.8091921639
 40
1.0
 40
1.0
 40
1.0
 40
1.0
 10
-11.6741998097
 20
-21.4994104546
 30
0.0
 10
-11.673823839
 20
-21.498281188
 30
0.0
 10
-11.6732393397
 20
-21.4952471827
 30
0.0
 10
-11.6724725406
 20
-21.4896466849
 30
0.0
 10
-11.671711384
 20
-21.4819348695
 30
0.0
 10
-11.6705771142
 20
-21.4675096222
 30
0.0
 10
-11.669266299
 20
-21.4443619953
 30
0.0
 10
-11.6678109074
 20
-21.4106077125
 30
0.0
 10
-11.6664073945
 20
-21.3691035336
 30
0.0
 10
-11.665065726
 20
-21.3202037239
 30
0.0
 10
-11.6638036669
 20
-21.2643232625
 30
0.0
 10
-11.6621717525
 20
-21.1772864706
 30
0.0
 10
-11.6604704334
 20
-21.0550666852
 30
0.0
 10
-11.6589686411
 20
-20.8953140572
 30
0.0
 10
-11.6579917578
 20
-20.7221418867
 30
0.0
 10
-11.6577168298
 20
-20.6028307843
 30
0.0
 10
-11.6576730391
 20
-20.5419058565
 30
0.0
  0
LINE
  5
5EE
100
AcDbEntity
  8
RACCORDO
100
AcDbLine
 62
7
  6
CONTINUOUS
 10
-11.3177192511
 20
-22.3334109614
 30
0.0
 11
-11.325
 21
-22.3997080771
 31
0.0
  0
LINE
  5
5EF
100
AcDbEntity
  8
RACCORDO
100
AcDbLine
 62
7
  6
CONTINUOUS
 10
9.9677192511
 20
22.3334109614
 30
0.0
 11
9.975
 21
22.3997080771
 31
0.0
  0
SPLINE
  5
5F0
100
AcDbEntity
  8
RACCORDO
100
AcDbSpline
 62
250
  6
CONTINUOUS
 70
0
 71
3
 72
21
 73
17
 74
0
 42
0.0000001
 43
0.0000001
 44
0.0000000001
 40
0.0
 40
0.0
 40
0.0
 40
0.0
 40
0.0036756375
 40
0.0095490103
 40
0.0176169246
 40
0.0278646229
 40
0.0548142191
 40
0.0901747263
 40
0.133647327
 40
0.1848631636
 40
0.2433868893
 40
0.3087206631
 40
0.4575405544
 40
0.6262646603
 40
0.8091562989
 40
1.0
 40
1.0
 40
1.0
 40
1.0
 10
9.8242759622
 20
21.998725222
 30
0.0
 10
9.8238945494
 20
21.9970070026
 30
0.0
 10
9.8233152648
 20
21.9924610508
 30
0.0
 10
9.8225468052
 20
21.9840646806
 30
0.0
 10
9.821787404
 20
21.9725038686
 30
0.0
 10
9.8206523544
 20
21.9508596947
 30
0.0
 10
9.8193421816
 20
21.9161385378
 30
0.0
 10
9.8178866318
 20
21.8655066834
 30
0.0
 10
9.8164832667
 20
21.8032492868
 30
0.0
 10
9.8151415728
 20
21.7298973175
 30
0.0
 10
9.8138795482
 20
21.6460744895
 30
0.0
 10
9.8122476451
 20
21.5155156452
 30
0.0
 10
9.8105464024
 20
21.3321857412
 30
0.0
 10
9.8090446999
 20
21.0925614005
 30
0.0
 10
9.8080678774
 20
20.8328115089
 30
0.0
 10
9.8077929896
 20
20.6538519851
 30
0.0
 10
9.8077491915
 20
20.5624683248
 30
0.0
  0
SPLINE
  5
5F1
100
AcDbEntity
  8
RACCORDO
100
AcDbSpline
 62
250
  6
CONTINUOUS
 70
0
 71
3
 72
21
 73
17
 74
0
 42
0.0000001
 43
0.0000001
 44
0.0000000001
 40
0.0
 40
0.0
 40
0.0
 40
0.0
 40
0.0037275284
 40
0.0096318815
 40
0.0177209833
 40
0.0279840195
 40
0.0549525362
 40
0.0903219253
 40
0.1337966086
 40
0.1850093847
 40
0.2435261253
 40
0.308849859
 40
0.4576431026
 40
0.6263352092
 40
0.8091921897
 40
1.0
 40
1.0
 40
1.0
 40
1.0
 10
10.3241998097
 20
21.4994104546
 30
0.0
 10
10.3238238286
 20
21.4982812009
 30
0.0
 10
10.3232393404
 20
21.4952471883
 30
0.0
 10
10.322472542
 20
21.4896466903
 30
0.0
 10
10.3217113852
 20
21.4819348742
 30
0.0
 10
10.3205771102
 20
21.4675096392
 30
0.0
 10
10.3192662994
 20
21.4443620165
 30
0.0
 10
10.3178109074
 20
21.4106077292
 30
0.0
 10
10.3164073939
 20
21.369103542
 30
0.0
 10
10.315065726
 20
21.3202037297
 30
0.0
 10
10.3138036666
 20
21.2643232618
 30
0.0
 10
10.3121717526
 20
21.1772864646
 30
0.0
 10
10.3104704335
 20
21.0550666738
 30
0.0
 10
10.3089686413
 20
20.8953140395
 30
0.0
 10
10.3079917577
 20
20.7221418732
 30
0.0
 10
10.307716832
 20
20.6028307761
 30
0.0
 10
10.3076730391
 20
20.5419058565
 30
0.0
  0
SPLINE
  5
5F2
100
AcDbEntity
  8
RACCORDO
100
AcDbSpline
 62
250
  6
CONTINUOUS
 70
0
 71
3
 72
22
 73
18
 74
0
 42
0.0000001
 43
0.0000001
 44
0.0000000001
 40
0.0
 40
0.0
 40
0.0
 40
0.0
 40
0.0028346435
 40
0.0076284833
 40
0.014610921
 40
0.0238386666
 40
0.0490321423
 40
0.0830853821
 40
0.1257140422
 40
0.1765345581
 40
0.2350812189
 40
0.3008090044
 40
0.373102859
 40
0.4512868834
 40
0.6223417772
 40
0.80755591
 40
1.0
 40
1.0
 40
1.0
 40
1.0
 10
10.3076730391
 20
20.5419058565
 30
0.0
 10
10.3074881411
 20
20.5423419863
 30
0.0
 10
10.3063863975
 20
20.5431620622
 30
0.0
 10
10.3041580644
 20
20.5440657681
 30
0.0
 10
10.3007568614
 20
20.5450277025
 30
0.0
 10
10.2939931986
 20
20.5464467585
 30
0.0
 10
10.2826530189
 20
20.5480899819
 30
0.0
 10
10.2657286155
 20
20.5499068778
 30
0.0
 10
10.2444908036
 20
20.5516673795
 30
0.0
 10
10.2191462788
 20
20.5533530297
 30
0.0
 10
10.1899279275
 20
20.5549394978
 30
0.0
 10
10.1571114788
 20
20.5564100082
 30
0.0
 10
10.1210052463
 20
20.5577489064
 30
0.0
 10
10.0672977727
 20
20.559389201
 30
0.0
 10
9.9947110796
 20
20.5609777162
 30
0.0
 10
9.9030206781
 20
20.5621520569
 30
0.0
 10
9.8399090423
 20
20.5624452588
 30
0.0
 10
9.8077491915
 20
20.5624683248
 30
0.0
  0
SPLINE
  5
5F3
100
AcDbEntity
  8
RACCORDO
100
AcDbSpline
 62
250
  6
CONTINUOUS
 70
0
 71
3
 72
9
 73
5
 74
0
 42
0.0000001
 43
0.0000001
 44
0.0000000001
 40
0.0
 40
0.0
 40
0.0
 40
0.0
 40
0.2499471355
 40
1.0
 40
1.0
 40
1.0
 40
1.0
 10
9.8077491915
 20
20.5624683248
 30
0.0
 10
9.8052900037
 20
17.1361156711
 30
0.0
 10
9.7979150376
 20
3.4278046669
 30
0.0
 10
9.8003695474
 20
-10.2805116313
 30
0.0
 10
9.8077491915
 20
-20.5624683248
 30
0.0
  0
SPLINE
  5
5F4
100
AcDbEntity
  8
RACCORDO
100
AcDbSpline
 62
250
  6
CONTINUOUS
 70
0
 71
3
 72
9
 73
5
 74
0
 42
0.0000001
 43
0.0000001
 44
0.0000000001
 40
0.0
 40
0.0
 40
0.0
 40
0.0
 40
0.2499471355
 40
1.0
 40
1.0
 40
1.0
 40
1.0
 10
10.3076730391
 20
20.5419058565
 30
0.0
 10
10.3052138512
 20
17.1189795567
 30
0.0
 10
10.2978388852
 20
3.4243768659
 30
0.0
 10
10.300293395
 20
-10.2702311241
 30
0.0
 10
10.3076730391
 20
-20.5419058565
 30
0.0
  0
SPLINE
  5
5F5
100
AcDbEntity
  8
RACCORDO
100
AcDbSpline
 62
250
  6
CONTINUOUS
 70
0
 71
3
 72
22
 73
18
 74
0
 42
0.0000001
 43
0.0000001
 44
0.0000000001
 40
0.0
 40
0.0
 40
0.0
 40
0.0
 40
0.0028346526
 40
0.0076285035
 40
0.0146109522
 40
0.0238387082
 40
0.0490322025
 40
0.0830854577
 40
0.1257141296
 40
0.1765346534
 40
0.2350813185
 40
0.3008091045
 40
0.373102956
 40
0.4512869739
 40
0.6223418455
 40
0.8075559467
 40
1.0
 40
1.0
 40
1.0
 40
1.0
 10
10.3076730391
 20
-20.5419058565
 30
0.0
 10
10.307488138
 20
-20.5423419866
 30
0.0
 10
10.3063863903
 20
-20.5431620611
 30
0.0
 10
10.3041580515
 20
-20.5440657676
 30
0.0
 10
10.300756843
 20
-20.5450277016
 30
0.0
 10
10.2939931732
 20
-20.5464467574
 30
0.0
 10
10.2826529861
 20
-20.5480899804
 30
0.0
 10
10.2657285751
 20
-20.5499068759
 30
0.0
 10
10.2444907575
 20
-20.5516673771
 30
0.0
 10
10.2191462288
 20
-20.5533530268
 30
0.0
 10
10.1899278755
 20
-20.5549394944
 30
0.0
 10
10.1571114267
 20
-20.5564100043
 30
0.0
 10
10.121005196
 20
-20.557748902
 30
0.0
 10
10.0672977281
 20
-20.5593891959
 30
0.0
 10
9.9947110456
 20
-20.5609777104
 30
0.0
 10
9.9030206599
 20
-20.5621520504
 30
0.0
 10
9.8399090359
 20
-20.5624452521
 30
0.0
 10
9.8077491915
 20
-20.562468318
 30
0.0
  0
SPLINE
  5
5F6
100
AcDbEntity
  8
RACCORDO
100
AcDbSpline
 62
250
  6
CONTINUOUS
 70
0
 71
3
 72
21
 73
17
 74
0
 42
0.0000001
 43
0.0000001
 44
0.0000000001
 40
0.0
 40
0.0
 40
0.0
 40
0.0
 40
0.1908437014
 40
0.37373534
 40
0.542459446
 40
0.6912793372
 40
0.756613111
 40
0.8151368367
 40
0.8663526731
 40
0.9098252744
 40
0.9451857799
 40
0.9721353804
 40
0.9823830818
 40
0.9904509844
 40
0.9963243388
 40
1.0
 40
1.0
 40
1.0
 40
1.0
 10
9.8077491915
 20
-20.5624683248
 30
0.0
 10
9.8077929824
 20
-20.6538519852
 30
0.0
 10
9.8080678799
 20
-20.8328115091
 30
0.0
 10
9.8090447024
 20
-21.0925614008
 30
0.0
 10
9.8105464075
 20
-21.3321857415
 30
0.0
 10
9.8122476531
 20
-21.5155156455
 30
0.0
 10
9.8138795566
 20
-21.6460744898
 30
0.0
 10
9.815141582
 20
-21.7298973176
 30
0.0
 10
9.8164832737
 20
-21.8032492872
 30
0.0
 10
9.8178866414
 20
-21.865506683
 30
0.0
 10
9.8193421877
 20
-21.916138539
 30
0.0
 10
9.820652358
 20
-21.9508596989
 30
0.0
 10
9.8217874176
 20
-21.9725038701
 30
0.0
 10
9.8225468135
 20
-21.9840646695
 30
0.0
 10
9.823315254
 20
-21.9924610378
 30
0.0
 10
9.8238945381
 20
-21.9970069934
 30
0.0
 10
9.8242759622
 20
-21.998725222
 30
0.0
  0
SPLINE
  5
5F7
100
AcDbEntity
  8
RACCORDO
100
AcDbSpline
 62
250
  6
CONTINUOUS
 70
0
 71
3
 72
21
 73
17
 74
0
 42
0.0000001
 43
0.0000001
 44
0.0000000001
 40
0.0
 40
0.0
 40
0.0
 40
0.0
 40
0.1908078361
 40
0.3736648077
 40
0.5423569108
 40
0.6911501472
 40
0.7564738751
 40
0.8149906122
 40
0.8662033773
 40
0.9096780668
 40
0.9450474351
 40
0.9720159518
 40
0.9822790237
 40
0.9903681257
 40
0.9962724435
 40
1.0
 40
1.0
 40
1.0
 40
1.0
 10
10.3076730391
 20
-20.5419058565
 30
0.0
 10
10.3077168298
 20
-20.6028307843
 30
0.0
 10
10.3079917578
 20
-20.7221418867
 30
0.0
 10
10.3089686411
 20
-20.8953140572
 30
0.0
 10
10.3104704334
 20
-21.0550666852
 30
0.0
 10
10.3121717525
 20
-21.1772864706
 30
0.0
 10
10.3138036669
 20
-21.2643232625
 30
0.0
 10
10.315065726
 20
-21.3202037239
 30
0.0
 10
10.3164073945
 20
-21.3691035336
 30
0.0
 10
10.3178109074
 20
-21.4106077125
 30
0.0
 10
10.319266299
 20
-21.4443619953
 30
0.0
 10
10.3205771142
 20
-21.4675096222
 30
0.0
 10
10.321711384
 20
-21.4819348695
 30
0.0
 10
10.3224725406
 20
-21.4896466849
 30
0.0
 10
10.3232393397
 20
-21.4952471827
 30
0.0
 10
10.323823839
 20
-21.498281188
 30
0.0
 10
10.3241998097
 20
-21.4994104546
 30
0.0
  0
LINE
  5
5F8
100
AcDbEntity
  8
RACCORDO
100
AcDbLine
 62
7
  6
CONTINUOUS
 10
9.975
 20
-22.3997080771
 30
0.0
 11
9.9677192511
 21
-22.3334109614
 31
0.0
  0
SPLINE
  5
5F9
100
AcDbEntity
  8
RACCORDO
100
AcDbSpline
 62
250
  6
CONTINUOUS
 70
0
 71
3
 72
8
 73
4
 74
0
 42
0.0000001
 43
0.0000001
 44
0.0000000001
 40
0.0
 40
0.0
 40
0.0
 40
0.0
 40
1.0
 40
1.0
 40
1.0
 40
1.0
 10
-7.1345360797
 20
3.4095494986
 30
0.0
 10
-7.1346933262
 20
0.7698721088
 30
0.0
 10
-7.1346679653
 20
-1.8698052982
 30
0.0
 10
-7.1344599869
 20
-4.5094826846
 30
0.0
  0
SPLINE
  5
5FA
100
AcDbEntity
  8
RACCORDO
100
AcDbSpline
 62
250
  6
CONTINUOUS
 70
0
 71
3
 72
13
 73
9
 74
0
 42
0.0000001
 43
0.0000001
 44
0.0000000001
 40
0.0
 40
0.0
 40
0.0
 40
0.0
 40
0.1162399782
 40
0.2339778175
 40
0.3543713311
 40
0.4780980184
 40
0.7345386243
 40
1.0
 40
1.0
 40
1.0
 40
1.0
 10
9.9619014213
 20
-23.8443375673
 30
0.0
 10
9.9618538949
 20
-23.8301877969
 30
0.0
 10
9.9584956104
 20
-23.8016148029
 30
0.0
 10
9.9439382831
 20
-23.7606547352
 30
0.0
 10
9.9204678694
 20
-23.7229828841
 30
0.0
 10
9.8781654793
 20
-23.6786204872
 30
0.0
 10
9.8082385508
 20
-23.6387874753
 30
0.0
 10
9.7442200662
 20
-23.6279126226
 30
0.0
 10
9.7119056521
 20
-23.6278312164
 30
0.0
  0
SPLINE
  5
5FB
100
AcDbEntity
  8
RACCORDO
100
AcDbSpline
 62
250
  6
CONTINUOUS
 70
0
 71
3
 72
13
 73
9
 74
0
 42
0.0000001
 43
0.0000001
 44
0.0000000001
 40
0.0
 40
0.0
 40
0.0
 40
0.0
 40
0.1162401412
 40
0.2339779602
 40
0.3543714643
 40
0.4780981267
 40
0.7345386771
 40
1.0
 40
1.0
 40
1.0
 40
1.0
 10
-11.3119014213
 20
23.8443375673
 30
0.0
 10
-11.3118538948
 20
23.830187777
 30
0.0
 10
-11.3084956075
 20
23.8016147644
 30
0.0
 10
-11.2939382568
 20
23.7606546878
 30
0.0
 10
-11.2704678401
 20
23.722982847
 30
0.0
 10
-11.2281654486
 20
23.6786204663
 30
0.0
 10
-11.1582385313
 20
23.6387874704
 30
0.0
 10
-11.0942200598
 20
23.6279126226
 30
0.0
 10
-11.0619056521
 20
23.6278312164
 30
0.0
  0
SPLINE
  5
5FC
100
AcDbEntity
  8
RACCORDO
100
AcDbSpline
 62
7
  6
CONTINUOUS
 70
0
 71
3
 72
15
 73
11
 74
0
 42
0.0000001
 43
0.0000001
 44
0.0000000001
 40
0.0
 40
0.0
 40
0.0
 40
0.0
 40
0.0847129374
 40
0.1757006909
 40
0.2778081862
 40
0.3942292046
 40
0.5263924491
 40
0.6737522819
 40
0.8333934372
 40
1.0
 40
1.0
 40
1.0
 40
1.0
 10
-11.3177192511
 20
23.2669872981
 30
0.0
 10
-11.3176296219
 20
23.258092445
 30
0.0
 10
-11.3143880304
 20
23.2395648789
 30
0.0
 10
-11.3008400686
 20
23.2133248236
 30
0.0
 10
-11.2789737644
 20
23.1888935038
 30
0.0
 10
-11.2491263724
 20
23.1669636521
 30
0.0
 10
-11.2117662434
 20
23.1483344332
 30
0.0
 10
-11.1677934721
 20
23.1339562437
 30
0.0
 10
-11.1187829097
 20
23.1248200479
 30
0.0
 10
-11.0844908199
 20
23.1226497308
 30
0.0
 10
-11.0669962532
 20
23.1226497308
 30
0.0
  0
SPLINE
  5
5FD
100
AcDbEntity
  8
RACCORDO
100
AcDbSpline
 62
7
  6
CONTINUOUS
 70
0
 71
3
 72
15
 73
11
 74
0
 42
0.0000001
 43
0.0000001
 44
0.0000000001
 40
0.0
 40
0.0
 40
0.0
 40
0.0
 40
0.0847129374
 40
0.1757006909
 40
0.2778081862
 40
0.3942292046
 40
0.5263924491
 40
0.6737522819
 40
0.8333934372
 40
1.0
 40
1.0
 40
1.0
 40
1.0
 10
-8.9322807489
 20
23.2669872981
 30
0.0
 10
-8.9323703781
 20
23.258092445
 30
0.0
 10
-8.9356119696
 20
23.2395648789
 30
0.0
 10
-8.9491599314
 20
23.2133248236
 30
0.0
 10
-8.9710262356
 20
23.1888935038
 30
0.0
 10
-9.0008736276
 20
23.1669636521
 30
0.0
 10
-9.0382337566
 20
23.1483344332
 30
0.0
 10
-9.0822065279
 20
23.1339562437
 30
0.0
 10
-9.1312170903
 20
23.1248200479
 30
0.0
 10
-9.1655091801
 20
23.1226497308
 30
0.0
 10
-9.1830037468
 20
23.1226497308
 30
0.0
  0
SPLINE
  5
5FE
100
AcDbEntity
  8
RACCORDO
100
AcDbSpline
 62
250
  6
CONTINUOUS
 70
0
 71
3
 72
13
 73
9
 74
0
 42
0.0000001
 43
0.0000001
 44
0.0000000001
 40
0.0
 40
0.0
 40
0.0
 40
0.0
 40
0.1162401412
 40
0.2339779602
 40
0.3543714643
 40
0.4780981267
 40
0.7345386771
 40
1.0
 40
1.0
 40
1.0
 40
1.0
 10
-8.9380985787
 20
23.8443375673
 30
0.0
 10
-8.9381461052
 20
23.830187777
 30
0.0
 10
-8.9415043925
 20
23.8016147644
 30
0.0
 10
-8.9560617432
 20
23.7606546878
 30
0.0
 10
-8.9795321599
 20
23.722982847
 30
0.0
 10
-9.0218345514
 20
23.6786204663
 30
0.0
 10
-9.0917614687
 20
23.6387874704
 30
0.0
 10
-9.1557799402
 20
23.6279126226
 30
0.0
 10
-9.1880943479
 20
23.6278312164
 30
0.0
  0
SPLINE
  5
5FF
100
AcDbEntity
  8
RACCORDO
100
AcDbSpline
 62
250
  6
CONTINUOUS
 70
0
 71
3
 72
13
 73
9
 74
0
 42
0.0000001
 43
0.0000001
 44
0.0000000001
 40
0.0
 40
0.0
 40
0.0
 40
0.0
 40
0.1162399782
 40
0.2339778175
 40
0.3543713311
 40
0.4780980184
 40
0.7345386243
 40
1.0
 40
1.0
 40
1.0
 40
1.0
 10
7.5880985787
 20
-23.8443375673
 30
0.0
 10
7.5881461051
 20
-23.8301877969
 30
0.0
 10
7.5915043896
 20
-23.8016148029
 30
0.0
 10
7.6060617169
 20
-23.7606547352
 30
0.0
 10
7.6295321306
 20
-23.7229828841
 30
0.0
 10
7.6718345207
 20
-23.6786204872
 30
0.0
 10
7.7417614492
 20
-23.6387874753
 30
0.0
 10
7.8057799338
 20
-23.6279126226
 30
0.0
 10
7.8380943479
 20
-23.6278312164
 30
0.0
  0
SPLINE
  5
600
100
AcDbEntity
  8
RACCORDO
100
AcDbSpline
 62
7
  6
CONTINUOUS
 70
0
 71
3
 72
15
 73
11
 74
0
 42
0.0000001
 43
0.0000001
 44
0.0000000001
 40
0.0
 40
0.0
 40
0.0
 40
0.0
 40
0.0847129374
 40
0.1757006909
 40
0.2778081862
 40
0.3942292046
 40
0.5263924491
 40
0.6737522819
 40
0.8333934372
 40
1.0
 40
1.0
 40
1.0
 40
1.0
 10
7.5822807489
 20
-23.2669872981
 30
0.0
 10
7.5823703781
 20
-23.258092445
 30
0.0
 10
7.5856119696
 20
-23.2395648789
 30
0.0
 10
7.5991599314
 20
-23.2133248236
 30
0.0
 10
7.6210262356
 20
-23.1888935038
 30
0.0
 10
7.6508736276
 20
-23.1669636521
 30
0.0
 10
7.6882337566
 20
-23.1483344332
 30
0.0
 10
7.7322065279
 20
-23.1339562437
 30
0.0
 10
7.7812170903
 20
-23.1248200479
 30
0.0
 10
7.8155091801
 20
-23.1226497308
 30
0.0
 10
7.8330037468
 20
-23.1226497308
 30
0.0
  0
SPLINE
  5
601
100
AcDbEntity
  8
RACCORDO
100
AcDbSpline
 62
250
  6
CONTINUOUS
 70
0
 71
3
 72
13
 73
9
 74
0
 42
0.0000001
 43
0.0000001
 44
0.0000000001
 40
0.0
 40
0.0
 40
0.0
 40
0.0
 40
0.1162401412
 40
0.2339779602
 40
0.3543714643
 40
0.4780981267
 40
0.7345386771
 40
1.0
 40
1.0
 40
1.0
 40
1.0
 10
7.5880985787
 20
23.8443375673
 30
0.0
 10
7.5881461052
 20
23.830187777
 30
0.0
 10
7.5915043925
 20
23.8016147644
 30
0.0
 10
7.6060617432
 20
23.7606546878
 30
0.0
 10
7.6295321599
 20
23.722982847
 30
0.0
 10
7.6718345514
 20
23.6786204663
 30
0.0
 10
7.7417614687
 20
23.6387874704
 30
0.0
 10
7.8057799402
 20
23.6279126226
 30
0.0
 10
7.8380943479
 20
23.6278312164
 30
0.0
  0
SPLINE
  5
602
100
AcDbEntity
  8
RACCORDO
100
AcDbSpline
 62
7
  6
CONTINUOUS
 70
0
 71
3
 72
15
 73
11
 74
0
 42
0.0000001
 43
0.0000001
 44
0.0000000001
 40
0.0
 40
0.0
 40
0.0
 40
0.0
 40
0.0847129374
 40
0.1757006909
 40
0.2778081862
 40
0.3942292046
 40
0.5263924491
 40
0.6737522819
 40
0.8333934372
 40
1.0
 40
1.0
 40
1.0
 40
1.0
 10
7.5822807489
 20
23.2669872981
 30
0.0
 10
7.5823703781
 20
23.258092445
 30
0.0
 10
7.5856119696
 20
23.2395648789
 30
0.0
 10
7.5991599314
 20
23.2133248236
 30
0.0
 10
7.6210262356
 20
23.1888935038
 30
0.0
 10
7.6508736276
 20
23.1669636521
 30
0.0
 10
7.6882337566
 20
23.1483344332
 30
0.0
 10
7.7322065279
 20
23.1339562437
 30
0.0
 10
7.7812170903
 20
23.1248200479
 30
0.0
 10
7.8155091801
 20
23.1226497308
 30
0.0
 10
7.8330037468
 20
23.1226497308
 30
0.0
  0
SPLINE
  5
603
100
AcDbEntity
  8
RACCORDO
100
AcDbSpline
 62
7
  6
CONTINUOUS
 70
0
 71
3
 72
15
 73
11
 74
0
 42
0.0000001
 43
0.0000001
 44
0.0000000001
 40
0.0
 40
0.0
 40
0.0
 40
0.0
 40
0.0847129374
 40
0.1757006909
 40
0.2778081862
 40
0.3942292046
 40
0.5263924491
 40
0.6737522819
 40
0.8333934372
 40
1.0
 40
1.0
 40
1.0
 40
1.0
 10
-8.9322807489
 20
-23.2669872981
 30
0.0
 10
-8.9323703781
 20
-23.258092445
 30
0.0
 10
-8.9356119696
 20
-23.2395648789
 30
0.0
 10
-8.9491599314
 20
-23.2133248236
 30
0.0
 10
-8.9710262356
 20
-23.1888935038
 30
0.0
 10
-9.0008736276
 20
-23.1669636521
 30
0.0
 10
-9.0382337566
 20
-23.1483344332
 30
0.0
 10
-9.0822065279
 20
-23.1339562437
 30
0.0
 10
-9.1312170903
 20
-23.1248200479
 30
0.0
 10
-9.1655091801
 20
-23.1226497308
 30
0.0
 10
-9.1830037468
 20
-23.1226497308
 30
0.0
  0
SPLINE
  5
604
100
AcDbEntity
  8
RACCORDO
100
AcDbSpline
 62
250
  6
CONTINUOUS
 70
0
 71
3
 72
13
 73
9
 74
0
 42
0.0000001
 43
0.0000001
 44
0.0000000001
 40
0.0
 40
0.0
 40
0.0
 40
0.0
 40
0.1162399782
 40
0.2339778175
 40
0.3543713311
 40
0.4780980184
 40
0.7345386243
 40
1.0
 40
1.0
 40
1.0
 40
1.0
 10
-8.9380985787
 20
-23.8443375673
 30
0.0
 10
-8.9381461051
 20
-23.8301877969
 30
0.0
 10
-8.9415043896
 20
-23.8016148029
 30
0.0
 10
-8.9560617169
 20
-23.7606547352
 30
0.0
 10
-8.9795321306
 20
-23.7229828841
 30
0.0
 10
-9.0218345207
 20
-23.6786204872
 30
0.0
 10
-9.0917614492
 20
-23.6387874753
 30
0.0
 10
-9.1557799338
 20
-23.6279126226
 30
0.0
 10
-9.1880943479
 20
-23.6278312164
 30
0.0
  0
SPLINE
  5
605
100
AcDbEntity
  8
RACCORDO
100
AcDbSpline
 62
7
  6
CONTINUOUS
 70
0
 71
3
 72
15
 73
11
 74
0
 42
0.0000001
 43
0.0000001
 44
0.0000000001
 40
0.0
 40
0.0
 40
0.0
 40
0.0
 40
0.0847129374
 40
0.1757006909
 40
0.2778081862
 40
0.3942292046
 40
0.5263924491
 40
0.6737522819
 40
0.8333934372
 40
1.0
 40
1.0
 40
1.0
 40
1.0
 10
9.9677192511
 20
23.2669872981
 30
0.0
 10
9.9676296219
 20
23.258092445
 30
0.0
 10
9.9643880304
 20
23.2395648789
 30
0.0
 10
9.9508400686
 20
23.2133248236
 30
0.0
 10
9.9289737644
 20
23.1888935038
 30
0.0
 10
9.8991263724
 20
23.1669636521
 30
0.0
 10
9.8617662434
 20
23.1483344332
 30
0.0
 10
9.8177934721
 20
23.1339562437
 30
0.0
 10
9.7687829097
 20
23.1248200479
 30
0.0
 10
9.7344908199
 20
23.1226497308
 30
0.0
 10
9.7169962532
 20
23.1226497308
 30
0.0
  0
SPLINE
  5
606
100
AcDbEntity
  8
RACCORDO
100
AcDbSpline
 62
250
  6
CONTINUOUS
 70
0
 71
3
 72
13
 73
9
 74
0
 42
0.0000001
 43
0.0000001
 44
0.0000000001
 40
0.0
 40
0.0
 40
0.0
 40
0.0
 40
0.1162401412
 40
0.2339779602
 40
0.3543714643
 40
0.4780981267
 40
0.7345386771
 40
1.0
 40
1.0
 40
1.0
 40
1.0
 10
9.9619014213
 20
23.8443375673
 30
0.0
 10
9.9618538948
 20
23.830187777
 30
0.0
 10
9.9584956075
 20
23.8016147644
 30
0.0
 10
9.9439382568
 20
23.7606546878
 30
0.0
 10
9.9204678401
 20
23.722982847
 30
0.0
 10
9.8781654486
 20
23.6786204663
 30
0.0
 10
9.8082385313
 20
23.6387874704
 30
0.0
 10
9.7442200598
 20
23.6279126226
 30
0.0
 10
9.7119056521
 20
23.6278312164
 30
0.0
  0
SPLINE
  5
607
100
AcDbEntity
  8
RACCORDO
100
AcDbSpline
 62
250
  6
CONTINUOUS
 70
0
 71
3
 72
13
 73
9
 74
0
 42
0.0000001
 43
0.0000001
 44
0.0000000001
 40
0.0
 40
0.0
 40
0.0
 40
0.0
 40
0.1162399782
 40
0.2339778175
 40
0.3543713311
 40
0.4780980184
 40
0.7345386243
 40
1.0
 40
1.0
 40
1.0
 40
1.0
 10
-11.3119014213
 20
-23.8443375673
 30
0.0
 10
-11.3118538949
 20
-23.8301877969
 30
0.0
 10
-11.3084956104
 20
-23.8016148029
 30
0.0
 10
-11.2939382831
 20
-23.7606547352
 30
0.0
 10
-11.2704678694
 20
-23.7229828841
 30
0.0
 10
-11.2281654793
 20
-23.6786204872
 30
0.0
 10
-11.1582385508
 20
-23.6387874753
 30
0.0
 10
-11.0942200662
 20
-23.6279126226
 30
0.0
 10
-11.0619056521
 20
-23.6278312164
 30
0.0
  0
SPLINE
  5
608
100
AcDbEntity
  8
IMPORT_IGES
100
AcDbSpline
 62
250
  6
CONTINUOUS
 70
0
 71
3
 72
9
 73
5
 74
0
 42
0.0000001
 43
0.0000001
 44
0.0000000001
 40
0.0
 40
0.0
 40
0.0
 40
0.0
 40
0.2305243623
 40
1.0
 40
1.0
 40
1.0
 40
1.0
 10
-39.8912758327
 20
1.357397267
 30
0.0
 10
-39.8949345027
 20
1.3580780315
 30
0.0
 10
-39.9109094663
 20
1.3604667274
 30
0.0
 10
-39.927095289
 20
1.3612005245
 30
0.0
 10
-39.9395173042
 20
1.3611997035
 30
0.0
  0
SPLINE
  5
609
100
AcDbEntity
  8
IMPORT_IGES
100
AcDbSpline
 62
250
  6
CONTINUOUS
 70
0
 71
3
 72
11
 73
7
 74
0
 42
0.0000001
 43
0.0000001
 44
0.0000000001
 40
0.0
 40
0.0
 40
0.0
 40
0.0
 40
0.2563926254
 40
0.5082294917
 40
0.7560029792
 40
1.0
 40
1.0
 40
1.0
 40
1.0
 10
-39.3048136556
 20
1.0632166383
 30
0.0
 10
-39.2820755739
 20
1.0670696168
 30
0.0
 10
-39.2378462524
 20
1.0820675579
 30
0.0
 10
-39.1834526931
 20
1.1251265394
 30
0.0
 10
-39.1479815676
 20
1.1834508348
 30
0.0
 10
-39.1395173042
 20
1.2280527542
 30
0.0
 10
-39.1395173042
 20
1.25
 30
0.0
  0
SPLINE
  5
60A
100
AcDbEntity
  8
IMPORT_IGES
100
AcDbSpline
 62
250
  6
CONTINUOUS
 70
0
 71
3
 72
9
 73
5
 74
0
 42
0.0000001
 43
0.0000001
 44
0.0000000001
 40
0.0
 40
0.0
 40
0.0
 40
0.0
 40
0.4687422269
 40
1.0
 40
1.0
 40
1.0
 40
1.0
 10
-39.7021966095
 20
1.0499959273
 30
0.0
 10
-39.719809817
 20
1.0499954243
 30
0.0
 10
-39.7576908077
 20
1.0569728933
 30
0.0
 10
-39.7903178163
 20
1.0775916195
 30
0.0
 10
-39.8051561213
 20
1.0909451382
 30
0.0
  0
SPLINE
  5
60B
100
AcDbEntity
  8
IMPORT_IGES
100
AcDbSpline
 62
250
  6
CONTINUOUS
 70
0
 71
3
 72
11
 73
7
 74
0
 42
0.0000001
 43
0.0000001
 44
0.0000000001
 40
0.0
 40
0.0
 40
0.0
 40
0.0
 40
0.2580803403
 40
0.5231561947
 40
0.7757778802
 40
1.0
 40
1.0
 40
1.0
 40
1.0
 10
-39.8051561213
 20
1.0909451382
 30
0.0
 10
-39.8208404732
 20
1.1050600445
 30
0.0
 10
-39.848029911
 20
1.1392972302
 30
0.0
 10
-39.8697375811
 20
1.1998539273
 30
0.0
 10
-39.8747375995
 20
1.260970009
 30
0.0
 10
-39.867819999
 20
1.2997953459
 30
0.0
 10
-39.8624841908
 20
1.3173338777
 30
0.0
  0
SPLINE
  5
60C
100
AcDbEntity
  8
IMPORT_IGES
100
AcDbSpline
 62
250
  6
CONTINUOUS
 70
0
 71
3
 72
9
 73
5
 74
0
 42
0.0000001
 43
0.0000001
 44
0.0000000001
 40
0.0
 40
0.0
 40
0.0
 40
0.0
 40
0.233555859
 40
1.0
 40
1.0
 40
1.0
 40
1.0
 10
-39.8604125476
 20
1.3237956836
 30
0.0
 10
-39.8611705573
 20
1.3195039665
 30
0.0
 10
-39.8637856892
 20
1.3010209392
 30
0.0
 10
-39.8639093223
 20
1.2822000089
 30
0.0
 10
-39.8627071034
 20
1.2679488095
 30
0.0
  0
SPLINE
  5
60D
100
AcDbEntity
  8
IMPORT_IGES
100
AcDbSpline
 62
250
  6
CONTINUOUS
 70
0
 71
3
 72
10
 73
6
 74
0
 42
0.0000001
 43
0.0000001
 44
0.0000000001
 40
0.0
 40
0.0
 40
0.0
 40
0.0
 40
0.2556713983
 40
0.5250024292
 40
1.0
 40
1.0
 40
1.0
 40
1.0
 10
-39.8627071034
 20
1.2679488095
 30
0.0
 10
-39.8608993323
 20
1.2465193455
 30
0.0
 10
-39.8508873733
 20
1.202840432
 30
0.0
 10
-39.8127904576
 20
1.1274862984
 30
0.0
 10
-39.762724543
 20
1.0827414064
 30
0.0
 10
-39.7256887631
 20
1.0677522735
 30
0.0
  0
SPLINE
  5
60E
100
AcDbEntity
  8
IMPORT_IGES
100
AcDbSpline
 62
250
  6
CONTINUOUS
 70
0
 71
3
 72
9
 73
5
 74
0
 42
0.0000001
 43
0.0000001
 44
0.0000000001
 40
0.0
 40
0.0
 40
0.0
 40
0.0
 40
0.2597190057
 40
1.0
 40
1.0
 40
1.0
 40
1.0
 10
-39.7256887631
 20
1.0677522735
 30
0.0
 10
-39.7237090847
 20
1.0669510574
 30
0.0
 10
-39.7160291778
 20
1.0640110806
 30
0.0
 10
-39.7081254878
 20
1.0616487245
 30
0.0
 10
-39.7021952712
 20
1.0602746626
 30
0.0
  0
SPLINE
  5
60F
100
AcDbEntity
  8
IMPORT_IGES
100
AcDbSpline
 62
250
  6
CONTINUOUS
 70
0
 71
3
 72
9
 73
5
 74
0
 42
0.0000001
 43
0.0000001
 44
0.0000000001
 40
0.0
 40
0.0
 40
0.0
 40
0.0
 40
0.2932202831
 40
1.0
 40
1.0
 40
1.0
 40
1.0
 10
-39.7021989381
 20
1.0602687
 30
0.0
 10
-39.6968602422
 20
1.062571938
 30
0.0
 10
-39.6789910091
 20
1.0710253505
 30
0.0
 10
-39.6618434823
 20
1.0820771129
 30
0.0
 10
-39.6524115733
 20
1.092443266
 30
0.0
  0
SPLINE
  5
610
100
AcDbEntity
  8
IMPORT_IGES
100
AcDbSpline
 62
250
  6
CONTINUOUS
 70
0
 71
3
 72
8
 73
4
 74
0
 42
0.0000001
 43
0.0000001
 44
0.0000000001
 40
0.0
 40
0.0
 40
0.0
 40
0.0
 40
1.0
 40
1.0
 40
1.0
 40
1.0
 10
-39.6524115733
 20
1.092443266
 30
0.0
 10
-39.6503840908
 20
1.0946715735
 30
0.0
 10
-39.6484897196
 20
1.0970351201
 30
0.0
 10
-39.6468103904
 20
1.0995362984
 30
0.0
  0
SPLINE
  5
611
100
AcDbEntity
  8
IMPORT_IGES
100
AcDbSpline
 62
250
  6
CONTINUOUS
 70
0
 71
3
 72
9
 73
5
 74
0
 42
0.0000001
 43
0.0000001
 44
0.0000000001
 40
0.0
 40
0.0
 40
0.0
 40
0.0
 40
0.2700043338
 40
1.0
 40
1.0
 40
1.0
 40
1.0
 10
-39.6468103904
 20
1.0995362984
 30
0.0
 10
-39.6456443119
 20
1.1012730456
 30
0.0
 10
-39.6416962361
 20
1.1079357991
 30
0.0
 10
-39.6395744068
 20
1.1157573945
 30
0.0
 10
-39.6395173042
 20
1.1214128494
 30
0.0
  0
SPLINE
  5
612
100
AcDbEntity
  8
IMPORT_IGES
100
AcDbSpline
 62
250
  6
CONTINUOUS
 70
0
 71
3
 72
12
 73
8
 74
0
 42
0.0000001
 43
0.0000001
 44
0.0000000001
 40
0.0
 40
0.0
 40
0.0
 40
0.0
 40
0.361238125
 40
0.6718106232
 40
0.7938637131
 40
0.8889842106
 40
1.0
 40
1.0
 40
1.0
 40
1.0
 10
-39.9395173042
 20
1.425581565
 30
0.0
 10
-39.9267638892
 20
1.425581565
 30
0.0
 10
-39.9029945511
 20
1.4266741132
 30
0.0
 10
-39.8753025499
 20
1.4304626669
 30
0.0
 10
-39.8570615519
 20
1.4355224639
 30
0.0
 10
-39.8468465025
 20
1.4396364102
 30
0.0
 10
-39.8395173042
 20
1.4450716605
 30
0.0
 10
-39.8395173042
 20
1.4489910432
 30
0.0
  0
SPLINE
  5
613
100
AcDbEntity
  8
IMPORT_IGES
100
AcDbSpline
 62
250
  6
CONTINUOUS
 70
0
 71
3
 72
14
 73
10
 74
0
 42
0.0000001
 43
0.0000001
 44
0.0000000001
 40
0.0
 40
0.0
 40
0.0
 40
0.0
 40
0.075257539
 40
0.167611636
 40
0.285407524
 40
0.4259444707
 40
0.5814792346
 40
0.737680283
 40
1.0
 40
1.0
 40
1.0
 40
1.0
 10
-39.7947881154
 20
1.0499950555
 30
0.0
 10
-39.8038129068
 20
1.049994801
 30
0.0
 10
-39.8240847141
 20
1.0543393648
 30
0.0
 10
-39.8526769892
 20
1.0745290331
 30
0.0
 10
-39.8776792462
 20
1.1089945426
 30
0.0
 10
-39.8973873757
 20
1.1549335933
 30
0.0
 10
-39.9079297876
 20
1.2084836615
 30
0.0
 10
-39.9109696212
 20
1.2773806216
 30
0.0
 10
-39.9020354331
 20
1.3278355179
 30
0.0
 10
-39.8912762735
 20
1.3573954052
 30
0.0
  0
SPLINE
  5
614
100
AcDbEntity
  8
IMPORT_IGES
100
AcDbSpline
 62
250
  6
CONTINUOUS
 70
0
 71
3
 72
8
 73
4
 74
0
 42
0.0000001
 43
0.0000001
 44
0.0000000001
 40
0.0
 40
0.0
 40
0.0
 40
0.0
 40
1.0
 40
1.0
 40
1.0
 40
1.0
 10
-39.8604108412
 20
1.3237944362
 30
0.0
 10
-39.8674986462
 20
1.3352639582
 30
0.0
 10
-39.8764956283
 20
1.345844712
 30
0.0
 10
-39.8870574124
 20
1.3542253821
 30
0.0
  0
SPLINE
  5
615
100
AcDbEntity
  8
IMPORT_IGES
100
AcDbSpline
 62
250
  6
CONTINUOUS
 70
0
 71
3
 72
9
 73
5
 74
0
 42
0.0000001
 43
0.0000001
 44
0.0000000001
 40
0.0
 40
0.0
 40
0.0
 40
0.0
 40
0.5506720357
 40
1.0
 40
1.0
 40
1.0
 40
1.0
 10
-39.8812549086
 20
1.3612779535
 30
0.0
 10
-39.8710364645
 20
1.3657761233
 30
0.0
 10
-39.8532469684
 20
1.3764870816
 30
0.0
 10
-39.8419761893
 20
1.3949029257
 30
0.0
 10
-39.8402275173
 20
1.4038434873
 30
0.0
  0
SPLINE
  5
616
100
AcDbEntity
  8
IMPORT_IGES
100
AcDbSpline
 62
250
  6
CONTINUOUS
 70
0
 71
3
 72
11
 73
7
 74
0
 42
0.0000001
 43
0.0000001
 44
0.0000000001
 40
0.0
 40
0.0
 40
0.0
 40
0.0
 40
0.2538557766
 40
0.5192315198
 40
0.7732178356
 40
1.0
 40
1.0
 40
1.0
 40
1.0
 10
-39.6395173043
 20
1.1214136517
 30
0.0
 10
-39.6652562697
 20
1.1214135353
 30
0.0
 10
-39.7184081409
 20
1.1312161087
 30
0.0
 10
-39.7862809653
 20
1.1745253856
 30
0.0
 10
-39.829928468
 20
1.2389264717
 30
0.0
 10
-39.8395175977
 20
1.2881500506
 30
0.0
 10
-39.839517596
 20
1.3111439662
 30
0.0
  0
SPLINE
  5
617
100
AcDbEntity
  8
IMPORT_IGES
100
AcDbSpline
 62
250
  6
CONTINUOUS
 70
0
 71
3
 72
11
 73
7
 74
0
 42
0.0000001
 43
0.0000001
 44
0.0000000001
 40
0.0
 40
0.0
 40
0.0
 40
0.0
 40
0.255788843
 40
0.5086139802
 40
0.7563605679
 40
1.0
 40
1.0
 40
1.0
 40
1.0
 10
-39.6395173042
 20
1.3642013386
 30
0.0
 10
-39.6654491976
 20
1.3642013386
 30
0.0
 10
-39.7174857988
 20
1.3740233788
 30
0.0
 10
-39.7840823874
 20
1.4156544945
 30
0.0
 10
-39.8287873165
 20
1.4788859539
 30
0.0
 10
-39.8395173042
 20
1.5292322366
 30
0.0
 10
-39.8395173042
 20
1.5539324218
 30
0.0
  0
SPLINE
  5
618
100
AcDbEntity
  8
IMPORT_IGES
100
AcDbSpline
 62
250
  6
CONTINUOUS
 70
0
 71
3
 72
11
 73
7
 74
0
 42
0.0000001
 43
0.0000001
 44
0.0000000001
 40
0.0
 40
0.0
 40
0.0
 40
0.0
 40
0.307601237
 40
0.5858275773
 40
0.8143264456
 40
1.0
 40
1.0
 40
1.0
 40
1.0
 10
-39.6395173042
 20
1.8209477701
 30
0.0
 10
-39.6651629574
 20
1.8209477701
 30
0.0
 10
-39.714212556
 20
1.8155793442
 30
0.0
 10
-39.7787753658
 20
1.7923937988
 30
0.0
 10
-39.8256891478
 20
1.7562084329
 30
0.0
 10
-39.8395173042
 20
1.7216614027
 30
0.0
 10
-39.8395173042
 20
1.7061812323
 30
0.0
  0
SPLINE
  5
619
100
AcDbEntity
  8
IMPORT_IGES
100
AcDbSpline
 62
250
  6
CONTINUOUS
 70
0
 71
3
 72
11
 73
7
 74
0
 42
0.0000001
 43
0.0000001
 44
0.0000000001
 40
0.0
 40
0.0
 40
0.0
 40
0.0
 40
0.1856735544
 40
0.4141724228
 40
0.692398763
 40
1.0
 40
1.0
 40
1.0
 40
1.0
 10
-39.1395173042
 20
1.7061812323
 30
0.0
 10
-39.1395173042
 20
1.7216614027
 30
0.0
 10
-39.1533454607
 20
1.7562084329
 30
0.0
 10
-39.2002592427
 20
1.7923937988
 30
0.0
 10
-39.2648220525
 20
1.8155793442
 30
0.0
 10
-39.3138716511
 20
1.8209477701
 30
0.0
 10
-39.3395173042
 20
1.8209477701
 30
0.0
  0
SPLINE
  5
61A
100
AcDbEntity
  8
IMPORT_IGES
100
AcDbSpline
 62
250
  6
CONTINUOUS
 70
0
 71
3
 72
11
 73
7
 74
0
 42
0.0000001
 43
0.0000001
 44
0.0000000001
 40
0.0
 40
0.0
 40
0.0
 40
0.0
 40
0.2436394321
 40
0.4913860198
 40
0.744211157
 40
1.0
 40
1.0
 40
1.0
 40
1.0
 10
-39.1395173042
 20
1.5539324218
 30
0.0
 10
-39.1395173042
 20
1.5292322366
 30
0.0
 10
-39.150247292
 20
1.4788859539
 30
0.0
 10
-39.1949522211
 20
1.4156544945
 30
0.0
 10
-39.2615488097
 20
1.3740233788
 30
0.0
 10
-39.3135854108
 20
1.3642013385
 30
0.0
 10
-39.3395173042
 20
1.3642013385
 30
0.0
  0
SPLINE
  5
61B
100
AcDbEntity
  8
IMPORT_IGES
100
AcDbSpline
 62
250
  6
CONTINUOUS
 70
0
 71
3
 72
9
 73
5
 74
0
 42
0.0000001
 43
0.0000001
 44
0.0000000001
 40
0.0
 40
0.0
 40
0.0
 40
0.0
 40
0.331662701
 40
1.0
 40
1.0
 40
1.0
 40
1.0
 10
-39.8395175961
 20
1.3111449935
 30
0.0
 10
-39.8395143749
 20
1.3139194799
 30
0.0
 10
-39.8477032328
 20
1.320008462
 30
0.0
 10
-39.8550443605
 20
1.3222345647
 30
0.0
 10
-39.8604129547
 20
1.32379546
 30
0.0
  0
SPLINE
  5
61C
100
AcDbEntity
  8
IMPORT_IGES
100
AcDbSpline
 62
250
  6
CONTINUOUS
 70
0
 71
3
 72
11
 73
7
 74
0
 42
0.0000001
 43
0.0000001
 44
0.0000000001
 40
0.0
 40
0.0
 40
0.0
 40
0.0
 40
0.2244243465
 40
0.4648588818
 40
0.7259555558
 40
1.0
 40
1.0
 40
1.0
 40
1.0
 10
-39.8395173042
 20
2.6480206359
 30
0.0
 10
-39.8395173042
 20
2.6374539404
 30
0.0
 10
-39.8452662972
 20
2.6153082416
 30
0.0
 10
-39.8681709651
 20
2.588639763
 30
0.0
 10
-39.9012437159
 20
2.5715070654
 30
0.0
 10
-39.9266143182
 20
2.5675145105
 30
0.0
 10
-39.9395173042
 20
2.5675145105
 30
0.0
  0
SPLINE
  5
61D
100
AcDbEntity
  8
IMPORT_IGES
100
AcDbSpline
 62
250
  6
CONTINUOUS
 70
0
 71
3
 72
9
 73
5
 74
0
 42
0.0000001
 43
0.0000001
 44
0.0000000001
 40
0.0
 40
0.0
 40
0.0
 40
0.0
 40
0.4387041563
 40
1.0
 40
1.0
 40
1.0
 40
1.0
 10
-40.1145173042
 20
-3.2985706053
 30
0.0
 10
-40.1145173042
 20
-3.2900607082
 30
0.0
 10
-40.1234592835
 20
-3.2708204666
 30
0.0
 10
-40.1403829099
 20
-3.2601437024
 30
0.0
 10
-40.1502302584
 20
-3.2554986794
 30
0.0
  0
SPLINE
  5
61E
100
AcDbEntity
  8
IMPORT_IGES
100
AcDbSpline
 62
250
  6
CONTINUOUS
 70
0
 71
3
 72
9
 73
5
 74
0
 42
0.0000001
 43
0.0000001
 44
0.0000000001
 40
0.0
 40
0.0
 40
0.0
 40
0.0
 40
0.2329497296
 40
1.0
 40
1.0
 40
1.0
 40
1.0
 10
-40.1502302584
 20
-3.2554986794
 30
0.0
 10
-40.1548594034
 20
-3.2533150983
 30
0.0
 10
-40.1753952889
 20
-3.2453737513
 30
0.0
 10
-40.1976639062
 20
-3.2423514472
 30
0.0
 10
-40.2145173042
 20
-3.2423514472
 30
0.0
  0
LINE
  5
61F
100
AcDbEntity
  8
IMPORT_IGES
100
AcDbLine
 62
7
  6
CONTINUOUS
 10
-61.6645173043
 20
-2.225
 30
0.0
 11
-61.3645173042
 21
-2.3940279011
 31
0.0
  0
LINE
  5
620
100
AcDbEntity
  8
IMPORT_IGES
100
AcDbLine
 62
250
  6
CONTINUOUS
 10
-48.6723221943
 20
-10.7499996097
 30
0.0
 11
-48.8722124606
 21
-10.7512440711
 31
0.0
  0
SPLINE
  5
621
100
AcDbEntity
  8
IMPORT_IGES
100
AcDbSpline
 62
250
  6
CONTINUOUS
 70
0
 71
3
 72
11
 73
7
 74
0
 42
0.0000001
 43
0.0000001
 44
0.0000000001
 40
0.0
 40
0.0
 40
0.0
 40
0.0
 40
0.2895873451
 40
0.5488031422
 40
0.7823546156
 40
1.0
 40
1.0
 40
1.0
 40
1.0
 10
-45.0349155699
 20
-3.2965872248
 30
0.0
 10
-45.0468922862
 20
-3.3038820246
 30
0.0
 10
-45.0685850697
 20
-3.3195169822
 30
0.0
 10
-45.0944613947
 20
-3.3476444121
 30
0.0
 10
-45.110666549
 20
-3.3784940408
 30
0.0
 10
-45.1145173042
 20
-3.4004693417
 30
0.0
 10
-45.1145173042
 20
-3.4110089217
 30
0.0
  0
SPLINE
  5
622
100
AcDbEntity
  8
IMPORT_IGES
100
AcDbSpline
 62
7
  6
CONTINUOUS
 70
0
 71
3
 72
17
 73
13
 74
0
 42
0.0000001
 43
0.0000001
 44
0.0000000001
 40
0.0
 40
0.0
 40
0.0
 40
0.0
 40
0.3822549543
 40
0.5550774809
 40
0.7063187083
 40
0.8304946565
 40
0.8810725852
 40
0.923160856
 40
0.9561879109
 40
0.9799522588
 40
0.9944261149
 40
1.0
 40
1.0
 40
1.0
 40
1.0
 10
-40.2145173042
 20
-3.1298769965
 30
0.0
 10
-40.2147223762
 20
-3.104358086
 30
0.0
 10
-40.2151894505
 20
-3.067290593
 30
0.0
 10
-40.2137942586
 20
-3.020158124
 30
0.0
 10
-40.2130802435
 20
-2.9902304614
 30
0.0
 10
-40.2143935472
 20
-2.9684703531
 30
0.0
 10
-40.2158583318
 20
-2.9540889177
 30
0.0
 10
-40.2167356589
 20
-2.9456993237
 30
0.0
 10
-40.2172024031
 20
-2.9392269286
 30
0.0
 10
-40.2172563318
 20
-2.9342028322
 30
0.0
 10
-40.2170585586
 20
-2.9317559464
 30
0.0
 10
-40.216692329
 20
-2.9299133552
 30
0.0
 10
-40.2163202107
 20
-2.9299131309
 30
0.0
  0
SPLINE
  5
623
100
AcDbEntity
  8
IMPORT_IGES
100
AcDbSpline
 62
250
  6
CONTINUOUS
 70
0
 71
3
 72
9
 73
5
 74
0
 42
0.0000001
 43
0.0000001
 44
0.0000000001
 40
0.0
 40
0.0
 40
0.0
 40
0.0
 40
0.7397516921
 40
1.0
 40
1.0
 40
1.0
 40
1.0
 10
-39.9145173042
 20
-2.9322487622
 30
0.0
 10
-39.9145165836
 20
-2.9316646507
 30
0.0
 10
-39.9146053955
 20
-2.9311229256
 30
0.0
 10
-39.9145714508
 20
-2.9299131308
 30
0.0
 10
-39.9147769443
 20
-2.9299131308
 30
0.0
  0
SPLINE
  5
624
100
AcDbEntity
  8
IMPORT_IGES
100
AcDbSpline
 62
250
  6
CONTINUOUS
 70
0
 71
3
 72
13
 73
9
 74
0
 42
0.0000001
 43
0.0000001
 44
0.0000000001
 40
0.0
 40
0.0
 40
0.0
 40
0.0
 40
0.0676305771
 40
0.1482035446
 40
0.2481354181
 40
0.3686218937
 40
0.6628202501
 40
1.0
 40
1.0
 40
1.0
 40
1.0
 10
-39.1145173042
 20
-3.2681942048
 30
0.0
 10
-39.1145173042
 20
-3.2733261905
 30
0.0
 10
-39.1177892022
 20
-3.2846298597
 30
0.0
 10
-39.1302484976
 20
-3.2991907596
 30
0.0
 10
-39.1492528019
 20
-3.3121543524
 30
0.0
 10
-39.1849776564
 20
-3.3282538253
 30
0.0
 10
-39.2409829633
 20
-3.3413044811
 30
0.0
 10
-39.2889312201
 20
-3.3447563529
 30
0.0
 10
-39.3145173042
 20
-3.3447563529
 30
0.0
  0
SPLINE
  5
625
100
AcDbEntity
  8
IMPORT_IGES
100
AcDbSpline
 62
250
  6
CONTINUOUS
 70
0
 71
3
 72
11
 73
7
 74
0
 42
0.0000001
 43
0.0000001
 44
0.0000000001
 40
0.0
 40
0.0
 40
0.0
 40
0.0
 40
0.2490966627
 40
0.4987234857
 40
0.7490980492
 40
1.0
 40
1.0
 40
1.0
 40
1.0
 10
-40.1145173042
 20
-3.1306916491
 30
0.0
 10
-40.1145173042
 20
-3.1048743915
 30
0.0
 10
-40.1040809742
 20
-3.0526132277
 30
0.0
 10
-40.0595117594
 20
-2.986651336
 30
0.0
 10
-39.9930383835
 20
-2.9425475995
 30
0.0
 10
-39.9405216683
 20
-2.9322487553
 30
0.0
 10
-39.9145173042
 20
-2.9322487553
 30
0.0
  0
SPLINE
  5
626
100
AcDbEntity
  8
IMPORT_IGES
100
AcDbSpline
 62
250
  6
CONTINUOUS
 70
0
 71
3
 72
13
 73
9
 74
0
 42
0.0000001
 43
0.0000001
 44
0.0000000001
 40
0.0
 40
0.0
 40
0.0
 40
0.0
 40
0.3371797499
 40
0.6313781063
 40
0.7518645819
 40
0.8517964554
 40
0.9323694229
 40
1.0
 40
1.0
 40
1.0
 40
1.0
 10
-39.9145173042
 20
-3.3447563529
 30
0.0
 10
-39.9401033884
 20
-3.3447563529
 30
0.0
 10
-39.9880516452
 20
-3.3413044811
 30
0.0
 10
-40.0440569521
 20
-3.3282538253
 30
0.0
 10
-40.0797818066
 20
-3.3121543524
 30
0.0
 10
-40.0987861109
 20
-3.2991907596
 30
0.0
 10
-40.1112454063
 20
-3.2846298597
 30
0.0
 10
-40.1145173042
 20
-3.2733261905
 30
0.0
 10
-40.1145173042
 20
-3.2681942048
 30
0.0
  0
SPLINE
  5
627
100
AcDbEntity
  8
IMPORT_IGES
100
AcDbSpline
 62
250
  6
CONTINUOUS
 70
0
 71
3
 72
11
 73
7
 74
0
 42
0.0000001
 43
0.0000001
 44
0.0000000001
 40
0.0
 40
0.0
 40
0.0
 40
0.0
 40
0.3018409828
 40
0.5671989326
 40
0.7957438035
 40
1.0
 40
1.0
 40
1.0
 40
1.0
 10
-47.4175773784
 20
-10.0409280398
 30
0.0
 10
-47.3973290029
 20
-10.0510522289
 30
0.0
 10
-47.3575167007
 20
-10.0669022984
 30
0.0
 10
-47.2979886197
 20
-10.0765150085
 30
0.0
 10
-47.2450956109
 20
-10.0692454459
 30
0.0
 10
-47.2162778102
 20
-10.051760506
 30
0.0
 10
-47.2054453466
 20
-10.0409280423
 30
0.0
  0
SPLINE
  5
628
100
AcDbEntity
  8
IMPORT_IGES
100
AcDbSpline
 62
250
  6
CONTINUOUS
 70
0
 71
3
 72
9
 73
5
 74
0
 42
0.0000001
 43
0.0000001
 44
0.0000000001
 40
0.0
 40
0.0
 40
0.0
 40
0.0
 40
0.2529455453
 40
1.0
 40
1.0
 40
1.0
 40
1.0
 10
-47.6561716368
 20
-10.3188581253
 30
0.0
 10
-47.6506560372
 20
-10.3197973323
 30
0.0
 10
-47.6287558782
 20
-10.3229233188
 30
0.0
 10
-47.6065066798
 20
-10.3236723271
 30
0.0
 10
-47.5900060663
 20
-10.3227866653
 30
0.0
  0
SPLINE
  5
629
100
AcDbEntity
  8
IMPORT_IGES
100
AcDbSpline
 62
250
  6
CONTINUOUS
 70
0
 71
3
 72
9
 73
5
 74
0
 42
0.0000001
 43
0.0000001
 44
0.0000000001
 40
0.0
 40
0.0
 40
0.0
 40
0.0
 40
0.5074876017
 40
1.0
 40
1.0
 40
1.0
 40
1.0
 10
-47.5900060663
 20
-10.3227866653
 30
0.0
 10
-47.5553243585
 20
-10.320925143
 30
0.0
 10
-47.487069703
 20
-10.3045021788
 30
0.0
 10
-47.4292747681
 20
-10.2647582291
 30
0.0
 10
-47.4054408784
 20
-10.240923574
 30
0.0
  0
SPLINE
  5
62A
100
AcDbEntity
  8
IMPORT_IGES
100
AcDbSpline
 62
250
  6
CONTINUOUS
 70
0
 71
3
 72
11
 73
7
 74
0
 42
0.0000001
 43
0.0000001
 44
0.0000000001
 40
0.0
 40
0.0
 40
0.0
 40
0.0
 40
0.1754935466
 40
0.4019141687
 40
0.6865692517
 40
1.0
 40
1.0
 40
1.0
 40
1.0
 10
-48.8708149736
 20
-10.5723306183
 30
0.0
 10
-48.8709800367
 20
-10.5879481233
 30
0.0
 10
-48.8802762867
 20
-10.6240002013
 30
0.0
 10
-48.9220409467
 20
-10.6712709055
 30
0.0
 10
-48.9892582363
 20
-10.7042672101
 30
0.0
 10
-49.0429082478
 20
-10.7117939122
 30
0.0
 10
-49.070802218
 20
-10.7116470064
 30
0.0
  0
SPLINE
  5
62B
100
AcDbEntity
  8
IMPORT_IGES
100
AcDbSpline
 62
250
  6
CONTINUOUS
 70
0
 71
3
 72
11
 73
7
 74
0
 42
0.0000001
 43
0.0000001
 44
0.0000000001
 40
0.0
 40
0.0
 40
0.0
 40
0.0
 40
0.2216323475
 40
0.4539830081
 40
0.7099954209
 40
1.0
 40
1.0
 40
1.0
 40
1.0
 10
-49.0708022182
 20
-10.7116387193
 30
0.0
 10
-49.0683758303
 20
-10.6709064363
 30
0.0
 10
-49.0568905626
 20
-10.5869228275
 30
0.0
 10
-48.9948576779
 20
-10.4688605585
 30
0.0
 10
-48.8891423774
 20
-10.36832166
 30
0.0
 10
-48.793155089
 20
-10.3291491966
 30
0.0
 10
-48.7407775145
 20
-10.3187886627
 30
0.0
  0
SPLINE
  5
62C
100
AcDbEntity
  8
IMPORT_IGES
100
AcDbSpline
 62
250
  6
CONTINUOUS
 70
0
 71
3
 72
8
 73
4
 74
0
 42
0.0000001
 43
0.0000001
 44
0.0000000001
 40
0.0
 40
0.0
 40
0.0
 40
0.0
 40
1.0
 40
1.0
 40
1.0
 40
1.0
 10
-48.7407775145
 20
-10.3187886627
 30
0.0
 10
-48.7157464269
 20
-10.3138373943
 30
0.0
 10
-48.6900767225
 20
-10.3112296762
 30
0.0
 10
-48.6645639201
 20
-10.3116387201
 30
0.0
  0
LINE
  5
62D
100
AcDbEntity
  8
IMPORT_IGES
100
AcDbLine
 62
250
  6
CONTINUOUS
 10
-49.0718013506
 20
-10.8621324151
 30
0.0
 11
-49.0709982318
 21
-10.7116379505
 31
0.0
  0
SPLINE
  5
62E
100
AcDbEntity
  8
IMPORT_IGES
100
AcDbSpline
 62
250
  6
CONTINUOUS
 70
0
 71
3
 72
9
 73
5
 74
0
 42
0.0000001
 43
0.0000001
 44
0.0000000001
 40
0.0
 40
0.0
 40
0.0
 40
0.0
 40
0.4686337555
 40
1.0
 40
1.0
 40
1.0
 40
1.0
 10
-48.8721235497
 20
-10.7220968469
 30
0.0
 10
-48.8722048664
 20
-10.7338305549
 30
0.0
 10
-48.8769292296
 20
-10.7590069634
 30
0.0
 10
-48.8900179238
 20
-10.7809707404
 30
0.0
 10
-48.8983948448
 20
-10.7913072323
 30
0.0
  0
SPLINE
  5
62F
100
AcDbEntity
  8
IMPORT_IGES
100
AcDbSpline
 62
250
  6
CONTINUOUS
 70
0
 71
3
 72
9
 73
5
 74
0
 42
0.0000001
 43
0.0000001
 44
0.0000000001
 40
0.0
 40
0.0
 40
0.0
 40
0.0
 40
0.233650721
 40
1.0
 40
1.0
 40
1.0
 40
1.0
 10
-48.8983948448
 20
-10.7913072323
 30
0.0
 10
-48.9027330499
 20
-10.7966602519
 30
0.0
 10
-48.9229465144
 20
-10.8182427861
 30
0.0
 10
-48.9490110431
 20
-10.8338402629
 30
0.0
 10
-48.9698615024
 20
-10.8425568136
 30
0.0
  0
SPLINE
  5
630
100
AcDbEntity
  8
IMPORT_IGES
100
AcDbSpline
 62
250
  6
CONTINUOUS
 70
0
 71
3
 72
9
 73
5
 74
0
 42
0.0000001
 43
0.0000001
 44
0.0000000001
 40
0.0
 40
0.0
 40
0.0
 40
0.0
 40
0.2551178661
 40
1.0
 40
1.0
 40
1.0
 40
1.0
 10
-48.9698615024
 20
-10.8425568136
 30
0.0
 10
-48.9780621971
 20
-10.8459851204
 30
0.0
 10
-49.0109587266
 20
-10.8576024092
 30
0.0
 10
-49.0461667895
 20
-10.862221906
 30
0.0
 10
-49.072118769
 20
-10.8621319446
 30
0.0
  0
LINE
  5
631
100
AcDbEntity
  8
IMPORT_IGES
100
AcDbLine
 62
250
  6
CONTINUOUS
 10
-49.0723102902
 20
-10.95
 30
0.0
 11
-49.0721187697
 21
-10.8621320344
 31
0.0
  0
SPLINE
  5
632
100
AcDbEntity
  8
IMPORT_IGES
100
AcDbSpline
 62
250
  6
CONTINUOUS
 70
0
 71
3
 72
11
 73
7
 74
0
 42
0.0000001
 43
0.0000001
 44
0.0000000001
 40
0.0
 40
0.0
 40
0.0
 40
0.0
 40
0.3160003673
 40
0.5849334764
 40
0.8077494891
 40
1.0
 40
1.0
 40
1.0
 40
1.0
 10
-61.4050092039
 20
-10.0409280423
 30
0.0
 10
-61.4196181806
 20
-10.0523520225
 30
0.0
 10
-61.4482205934
 20
-10.0716712506
 30
0.0
 10
-61.492243803
 20
-10.0902861801
 30
0.0
 10
-61.5328538566
 20
-10.0952435908
 30
0.0
 10
-61.5571119215
 20
-10.087624259
 30
0.0
 10
-61.5666176426
 20
-10.0815463048
 30
0.0
  0
SPLINE
  5
633
100
AcDbEntity
  8
IMPORT_IGES
100
AcDbSpline
 62
7
  6
CONTINUOUS
 70
0
 71
3
 72
22
 73
18
 74
0
 42
0.0000001
 43
0.0000001
 44
0.0000000001
 40
0.0
 40
0.0
 40
0.0
 40
0.0
 40
0.0012687718
 40
0.0050444125
 40
0.011296368
 40
0.0199929311
 40
0.0311022798
 40
0.0445925716
 40
0.0785884791
 40
0.1216356075
 40
0.1731419266
 40
0.2324733854
 40
0.2989957165
 40
0.450866489
 40
0.6228219329
 40
0.808427886
 40
1.0
 40
1.0
 40
1.0
 40
1.0
 10
-65.1899728438
 20
-7.8843774337
 30
0.0
 10
-65.1900994957
 20
-7.8843436625
 30
0.0
 10
-65.1896455589
 20
-7.8835995968
 30
0.0
 10
-65.1897114462
 20
-7.8826880208
 30
0.0
 10
-65.1890717724
 20
-7.8806799828
 30
0.0
 10
-65.1885120112
 20
-7.8781213507
 30
0.0
 10
-65.1876497508
 20
-7.8747619086
 30
0.0
 10
-65.1861870575
 20
-7.8689015598
 30
0.0
 10
-65.1838611494
 20
-7.8598333346
 30
0.0
 10
-65.1805304925
 20
-7.8469811518
 30
0.0
 10
-65.176507803
 20
-7.8315992529
 30
0.0
 10
-65.1718531292
 20
-7.8138776598
 30
0.0
 10
-65.1645466404
 20
-7.7861315881
 30
0.0
 10
-65.1542577331
 20
-7.7471393051
 30
0.0
 10
-65.1407906318
 20
-7.6962618712
 30
0.0
 10
-65.1262271273
 20
-7.6414319152
 30
0.0
 10
-65.1161990644
 20
-7.6037780201
 30
0.0
 10
-65.1111000035
 20
-7.5846547966
 30
0.0
  0
SPLINE
  5
634
100
AcDbEntity
  8
IMPORT_IGES
100
AcDbSpline
 62
7
  6
CONTINUOUS
 70
0
 71
3
 72
22
 73
18
 74
0
 42
0.0000001
 43
0.0000001
 44
0.0000000001
 40
0.0
 40
0.0
 40
0.0
 40
0.0
 40
0.0013539602
 40
0.0053184344
 40
0.0118552878
 40
0.0209254548
 40
0.0324897741
 40
0.0465090666
 40
0.0817539516
 40
0.1261850941
 40
0.1790489703
 40
0.239563962
 40
0.3069485838
 40
0.4592422231
 40
0.6298137438
 40
0.8123501613
 40
1.0
 40
1.0
 40
1.0
 40
1.0
 10
-63.7250256102
 20
8.1894910748
 30
0.0
 10
-63.7251285461
 20
8.1893871612
 30
0.0
 10
-63.7245897267
 20
8.1887580875
 30
0.0
 10
-63.7244548684
 20
8.1876475764
 30
0.0
 10
-63.7235020029
 20
8.1856308081
 30
0.0
 10
-63.7225010165
 20
8.1829225924
 30
0.0
 10
-63.7210824774
 20
8.1794378207
 30
0.0
 10
-63.71864629
 20
8.173344375
 30
0.0
 10
-63.7148319285
 20
8.1639626262
 30
0.0
 10
-63.7094147265
 20
8.150711515
 30
0.0
 10
-63.7029335888
 20
8.1349426251
 30
0.0
 10
-63.6954933439
 20
8.1168882712
 30
0.0
 10
-63.683943042
 20
8.0889096776
 30
0.0
 10
-63.6678313248
 20
8.0499518265
 30
0.0
 10
-63.6469279075
 20
7.9995140498
 30
0.0
 10
-63.6245240508
 20
7.9455636601
 30
0.0
 10
-63.609165869
 20
7.9086396697
 30
0.0
 10
-63.6013756809
 20
7.88992475
 30
0.0
  0
LINE
  5
635
100
AcDbEntity
  8
IMPORT_IGES
100
AcDbLine
 62
7
  6
CONTINUOUS
 10
-57.691596335
 20
10.0223758596
 30
0.0
 11
-57.7085773236
 21
9.9944256221
 31
0.0
  0
SPLINE
  5
636
100
AcDbEntity
  8
IMPORT_IGES
100
AcDbSpline
 62
250
  6
CONTINUOUS
 70
0
 71
3
 72
9
 73
5
 74
0
 42
0.0000001
 43
0.0000001
 44
0.0000000001
 40
0.0
 40
0.0
 40
0.0
 40
0.0
 40
0.2473750261
 40
1.0
 40
1.0
 40
1.0
 40
1.0
 10
-48.8520354658
 20
10.7834617101
 30
0.0
 10
-48.8521654177
 20
10.7889310487
 30
0.0
 10
-48.8543141193
 20
10.8109865775
 30
0.0
 10
-48.863079095
 20
10.8322800234
 30
0.0
 10
-48.8724000192
 20
10.8460703001
 30
0.0
  0
SPLINE
  5
637
100
AcDbEntity
  8
IMPORT_IGES
100
AcDbSpline
 62
250
  6
CONTINUOUS
 70
0
 71
3
 72
9
 73
5
 74
0
 42
0.0000001
 43
0.0000001
 44
0.0000000001
 40
0.0
 40
0.0
 40
0.0
 40
0.0
 40
0.2455790915
 40
1.0
 40
1.0
 40
1.0
 40
1.0
 10
-48.8724000192
 20
10.8460703001
 30
0.0
 10
-48.8748182203
 20
10.8496480208
 30
0.0
 10
-48.8854042424
 20
10.8637100698
 30
0.0
 10
-48.8988268484
 20
10.875578604
 30
0.0
 10
-48.9098571673
 20
10.8829485103
 30
0.0
  0
SPLINE
  5
638
100
AcDbEntity
  8
IMPORT_IGES
100
AcDbSpline
 62
250
  6
CONTINUOUS
 70
0
 71
3
 72
8
 73
4
 74
0
 42
0.0000001
 43
0.0000001
 44
0.0000000001
 40
0.0
 40
0.0
 40
0.0
 40
0.0
 40
1.0
 40
1.0
 40
1.0
 40
1.0
 10
-48.9098571673
 20
10.8829485103
 30
0.0
 10
-48.9203456574
 20
10.8899563938
 30
0.0
 10
-48.9318029962
 20
10.8956686789
 30
0.0
 10
-48.9436753321
 20
10.899930896
 30
0.0
  0
SPLINE
  5
639
100
AcDbEntity
  8
IMPORT_IGES
100
AcDbSpline
 62
250
  6
CONTINUOUS
 70
0
 71
3
 72
8
 73
4
 74
0
 42
0.0000001
 43
0.0000001
 44
0.0000000001
 40
0.0
 40
0.0
 40
0.0
 40
0.0
 40
1.0
 40
1.0
 40
1.0
 40
1.0
 10
-48.9436753321
 20
10.899930896
 30
0.0
 10
-48.9622318701
 20
10.906592769
 30
0.0
 10
-48.9822774814
 20
10.9099241065
 30
0.0
 10
-49.0019932641
 20
10.9098076212
 30
0.0
  0
SPLINE
  5
63A
100
AcDbEntity
  8
IMPORT_IGES
100
AcDbSpline
 62
250
  6
CONTINUOUS
 70
0
 71
3
 72
10
 73
6
 74
0
 42
0.0000001
 43
0.0000001
 44
0.0000000001
 40
0.0
 40
0.0
 40
0.0
 40
0.0
 40
0.1369124225
 40
0.3488727852
 40
1.0
 40
1.0
 40
1.0
 40
1.0
 10
-57.7230959465
 20
9.876194602
 30
0.0
 10
-57.7230958003
 20
9.8786937293
 30
0.0
 10
-57.7180085719
 20
9.8841474358
 30
0.0
 10
-57.7011395421
 20
9.890230524
 30
0.0
 10
-57.6849812814
 20
9.8919665085
 30
0.0
 10
-57.673095948
 20
9.8919666008
 30
0.0
  0
SPLINE
  5
63B
100
AcDbEntity
  8
IMPORT_IGES
100
AcDbSpline
 62
250
  6
CONTINUOUS
 70
0
 71
3
 72
9
 73
5
 74
0
 42
0.0000001
 43
0.0000001
 44
0.0000000001
 40
0.0
 40
0.0
 40
0.0
 40
0.0
 40
0.4969345897
 40
1.0
 40
1.0
 40
1.0
 40
1.0
 10
-47.9751333596
 20
10.2101322017
 30
0.0
 10
-48.0083487723
 20
10.2351618104
 30
0.0
 10
-48.0853557854
 20
10.2733948419
 30
0.0
 10
-48.1714055503
 20
10.2792069812
 30
0.0
 10
-48.2131405929
 20
10.2736504398
 30
0.0
  0
LINE
  5
63C
100
AcDbEntity
  8
IMPORT_IGES
100
AcDbLine
 62
250
  6
CONTINUOUS
 10
-45.9748797593
 20
8.7336437076
 30
0.0
 11
-46.0145173026
 21
8.8579155969
 31
0.0
  0
SPLINE
  5
63D
100
AcDbEntity
  8
IMPORT_IGES
100
AcDbSpline
 62
250
  6
CONTINUOUS
 70
0
 71
3
 72
12
 73
8
 74
0
 42
0.0000001
 43
0.0000001
 44
0.0000000001
 40
0.0
 40
0.0
 40
0.0
 40
0.0
 40
0.1312940182
 40
0.2316275109
 40
0.3578057585
 40
0.6690388533
 40
1.0
 40
1.0
 40
1.0
 40
1.0
 10
-48.7745035021
 20
10.9499893717
 30
0.0
 10
-48.7672297595
 20
10.9499925095
 30
0.0
 10
-48.7552102341
 20
10.9414246596
 30
0.0
 10
-48.7449603536
 20
10.9247516747
 30
0.0
 10
-48.7332438871
 20
10.8971035005
 30
0.0
 10
-48.7246332624
 20
10.8551585229
 30
0.0
 10
-48.7222380452
 20
10.8195712607
 30
0.0
 10
-48.7221853097
 20
10.8012359513
 30
0.0
  0
SPLINE
  5
63E
100
AcDbEntity
  8
IMPORT_IGES
100
AcDbSpline
 62
250
  6
CONTINUOUS
 70
0
 71
3
 72
9
 73
5
 74
0
 42
0.0000001
 43
0.0000001
 44
0.0000000001
 40
0.0
 40
0.0
 40
0.0
 40
0.0
 40
0.5043208852
 40
1.0
 40
1.0
 40
1.0
 40
1.0
 10
-57.7230959465
 20
9.9425686207
 30
0.0
 10
-57.723095602
 20
9.949337465
 30
0.0
 10
-57.7188067848
 20
9.9629745295
 30
0.0
 10
-57.7085430784
 20
9.9723775681
 30
0.0
 10
-57.7028754629
 20
9.9758616235
 30
0.0
  0
SPLINE
  5
63F
100
AcDbEntity
  8
IMPORT_IGES
100
AcDbSpline
 62
250
  6
CONTINUOUS
 70
0
 71
3
 72
9
 73
5
 74
0
 42
0.0000001
 43
0.0000001
 44
0.0000000001
 40
0.0
 40
0.0
 40
0.0
 40
0.0
 40
0.2554205947
 40
1.0
 40
1.0
 40
1.0
 40
1.0
 10
-48.7065412541
 20
10.2777175684
 30
0.0
 10
-48.7122831263
 20
10.2783839919
 30
0.0
 10
-48.7347239013
 20
10.2813172691
 30
0.0
 10
-48.7569943435
 20
10.2855826597
 30
0.0
 10
-48.7733710965
 20
10.2895504327
 30
0.0
  0
SPLINE
  5
640
100
AcDbEntity
  8
IMPORT_IGES
100
AcDbSpline
 62
250
  6
CONTINUOUS
 70
0
 71
3
 72
9
 73
5
 74
0
 42
0.0000001
 43
0.0000001
 44
0.0000000001
 40
0.0
 40
0.0
 40
0.0
 40
0.0
 40
0.2701462613
 40
1.0
 40
1.0
 40
1.0
 40
1.0
 10
-48.7733710965
 20
10.2895504327
 30
0.0
 10
-48.7845121909
 20
10.2922497061
 30
0.0
 10
-48.8253937761
 20
10.3035854014
 30
0.0
 10
-48.8649362838
 20
10.3203443341
 30
0.0
 10
-48.8915451054
 20
10.3361922229
 30
0.0
  0
SPLINE
  5
641
100
AcDbEntity
  8
IMPORT_IGES
100
AcDbSpline
 62
250
  6
CONTINUOUS
 70
0
 71
3
 72
11
 73
7
 74
0
 42
0.0000001
 43
0.0000001
 44
0.0000000001
 40
0.0
 40
0.0
 40
0.0
 40
0.0
 40
0.2967247884
 40
0.5562018944
 40
0.7857467959
 40
1.0
 40
1.0
 40
1.0
 40
1.0
 10
-48.8915451054
 20
10.3361922229
 30
0.0
 10
-48.9067298501
 20
10.3452360712
 30
0.0
 10
-48.9339417366
 20
10.3644767492
 30
0.0
 10
-48.9662494887
 20
10.3989621848
 30
0.0
 10
-48.985736518
 20
10.436695082
 30
0.0
 10
-48.9908092442
 20
10.462994985
 30
0.0
 10
-48.9917345828
 20
10.4757230341
 30
0.0
  0
SPLINE
  5
642
100
AcDbEntity
  8
IMPORT_IGES
100
AcDbSpline
 62
250
  6
CONTINUOUS
 70
0
 71
3
 72
11
 73
7
 74
0
 42
0.0000001
 43
0.0000001
 44
0.0000000001
 40
0.0
 40
0.0
 40
0.0
 40
0.0
 40
0.276295636
 40
0.5482913449
 40
0.7920728827
 40
1.0
 40
1.0
 40
1.0
 40
1.0
 10
-48.9917345653
 20
10.4757237135
 30
0.0
 10
-48.9724190298
 20
10.4758384791
 30
0.0
 10
-48.9337205695
 20
10.4696091513
 30
0.0
 10
-48.8843483441
 20
10.4418212298
 30
0.0
 10
-48.8519885668
 20
10.401204545
 30
0.0
 10
-48.8432105233
 20
10.3699301828
 30
0.0
 10
-48.8420815064
 20
10.3554378727
 30
0.0
  0
LINE
  5
643
100
AcDbEntity
  8
IMPORT_IGES
100
AcDbLine
 62
250
  6
CONTINUOUS
 10
-57.6060806027
 20
10.057141245
 30
0.0
 11
-57.637925997
 21
9.9785246254
 31
0.0
  0
LINE
  5
644
100
AcDbEntity
  8
IMPORT_IGES
100
AcDbLine
 62
250
  6
CONTINUOUS
 10
-57.637925997
 20
9.9785246254
 30
0.0
 11
-57.6458471412
 21
9.9590034838
 31
0.0
  0
LINE
  5
645
100
AcDbEntity
  8
IMPORT_IGES
100
AcDbLine
 62
250
  6
CONTINUOUS
 10
-57.6458471412
 20
9.9590034838
 30
0.0
 11
-57.6634515541
 21
9.9155469584
 31
0.0
  0
SPLINE
  5
646
100
AcDbEntity
  8
IMPORT_IGES
100
AcDbSpline
 62
250
  6
CONTINUOUS
 70
0
 71
3
 72
9
 73
5
 74
0
 42
0.0000001
 43
0.0000001
 44
0.0000000001
 40
0.0
 40
0.0
 40
0.0
 40
0.0
 40
0.2930026029
 40
1.0
 40
1.0
 40
1.0
 40
1.0
 10
-57.6800415758
 20
9.9160578116
 30
0.0
 10
-57.6817097842
 20
9.9214701603
 30
0.0
 10
-57.6875617295
 20
9.9398755845
 30
0.0
 10
-57.6939588773
 20
9.9582264642
 30
0.0
 10
-57.7000533422
 20
9.9704581984
 30
0.0
  0
SPLINE
  5
647
100
AcDbEntity
  8
IMPORT_IGES
100
AcDbSpline
 62
250
  6
CONTINUOUS
 70
0
 71
3
 72
12
 73
8
 74
0
 42
0.0000001
 43
0.0000001
 44
0.0000000001
 40
0.0
 40
0.0
 40
0.0
 40
0.0
 40
0.380967672
 40
0.7046882882
 40
0.912903101
 40
0.9700051375
 40
1.0
 40
1.0
 40
1.0
 40
1.0
 10
-43.0760092423
 20
1.1215717031
 30
0.0
 10
-43.0614770169
 20
1.1211081655
 30
0.0
 10
-43.0345515302
 20
1.1196443125
 30
0.0
 10
-43.0000710986
 20
1.1163328802
 30
0.0
 10
-42.977539375
 20
1.111893299
 30
0.0
 10
-42.9673561734
 20
1.1079879331
 30
0.0
 10
-42.9645172862
 20
1.1053075392
 30
0.0
 10
-42.9645172725
 20
1.1041627864
 30
0.0
  0
SPLINE
  5
648
100
AcDbEntity
  8
IMPORT_IGES
100
AcDbSpline
 62
250
  6
CONTINUOUS
 70
0
 71
3
 72
9
 73
5
 74
0
 42
0.0000001
 43
0.0000001
 44
0.0000000001
 40
0.0
 40
0.0
 40
0.0
 40
0.0
 40
0.4940505958
 40
1.0
 40
1.0
 40
1.0
 40
1.0
 10
-43.0760107331
 20
1.1215739328
 30
0.0
 10
-43.0410917359
 20
0.984407581
 30
0.0
 10
-42.9844820468
 20
0.7028679536
 30
0.0
 10
-42.964516938
 20
0.4160321992
 30
0.0
 10
-42.9645173043
 20
0.2710819742
 30
0.0
  0
SPLINE
  5
649
100
AcDbEntity
  8
IMPORT_IGES
100
AcDbSpline
 62
250
  6
CONTINUOUS
 70
0
 71
3
 72
9
 73
5
 74
0
 42
0.0000001
 43
0.0000001
 44
0.0000000001
 40
0.0
 40
0.0
 40
0.0
 40
0.0
 40
0.6237389951
 40
1.0
 40
1.0
 40
1.0
 40
1.0
 10
-57.7028739945
 20
9.9758626307
 30
0.0
 10
-57.7047285843
 20
9.9789968658
 30
0.0
 10
-57.7073856506
 20
9.9841573964
 30
0.0
 10
-57.7091853518
 20
9.9898967608
 30
0.0
 10
-57.7091403773
 20
9.9920931792
 30
0.0
  0
SPLINE
  5
64A
100
AcDbEntity
  8
IMPORT_IGES
100
AcDbSpline
 62
250
  6
CONTINUOUS
 70
0
 71
3
 72
8
 73
4
 74
0
 42
0.0000001
 43
0.0000001
 44
0.0000000001
 40
0.0
 40
0.0
 40
0.0
 40
0.0
 40
1.0
 40
1.0
 40
1.0
 40
1.0
 10
-57.7091403773
 20
9.9920931792
 30
0.0
 10
-57.7091239651
 20
9.992894703
 30
0.0
 10
-57.7089921334
 20
9.9937465068
 30
0.0
 10
-57.7085742567
 20
9.994430677
 30
0.0
  0
SPLINE
  5
64B
100
AcDbEntity
  8
IMPORT_IGES
100
AcDbSpline
 62
250
  6
CONTINUOUS
 70
0
 71
3
 72
9
 73
5
 74
0
 42
0.0000001
 43
0.0000001
 44
0.0000000001
 40
0.0
 40
0.0
 40
0.0
 40
0.0
 40
0.5339076012
 40
1.0
 40
1.0
 40
1.0
 40
1.0
 10
-57.6059798571
 20
10.0571290674
 30
0.0
 10
-57.6229541207
 20
10.0597254802
 30
0.0
 10
-57.6569227471
 20
10.0572298872
 30
0.0
 10
-57.6837424226
 20
10.0352915144
 30
0.0
 10
-57.691531206
 20
10.0224832001
 30
0.0
  0
SPLINE
  5
64C
100
AcDbEntity
  8
IMPORT_IGES
100
AcDbSpline
 62
250
  6
CONTINUOUS
 70
0
 71
3
 72
9
 73
5
 74
0
 42
0.0000001
 43
0.0000001
 44
0.0000000001
 40
0.0
 40
0.0
 40
0.0
 40
0.0
 40
0.5224886116
 40
1.0
 40
1.0
 40
1.0
 40
1.0
 10
-57.0874596179
 20
10.9098076226
 30
0.0
 10
-57.1040333601
 20
10.9123304628
 30
0.0
 10
-57.1378206034
 20
10.9100499886
 30
0.0
 10
-57.1648192601
 20
10.8883144754
 30
0.0
 10
-57.1728383662
 20
10.8752591102
 30
0.0
  0
SPLINE
  5
64D
100
AcDbEntity
  8
IMPORT_IGES
100
AcDbSpline
 62
7
  6
CONTINUOUS
 70
0
 71
3
 72
9
 73
5
 74
0
 42
0.0000001
 43
0.0000001
 44
0.0000000001
 40
0.0
 40
0.0
 40
0.0
 40
0.0
 40
0.516269142
 40
1.0
 40
1.0
 40
1.0
 40
1.0
 10
-57.673095948
 20
9.65
 30
0.0
 10
-57.6832049615
 20
9.6747619248
 30
0.0
 10
-57.7026919116
 20
9.7226190193
 30
0.0
 10
-57.7185375545
 20
9.7724889542
 30
0.0
 10
-57.721795968
 20
9.7973364678
 30
0.0
  0
SPLINE
  5
64E
100
AcDbEntity
  8
IMPORT_IGES
100
AcDbSpline
 62
250
  6
CONTINUOUS
 70
0
 71
3
 72
10
 73
6
 74
0
 42
0.0000001
 43
0.0000001
 44
0.0000000001
 40
0.0
 40
0.0
 40
0.0
 40
0.0
 40
0.2329385648
 40
0.4742162324
 40
1.0
 40
1.0
 40
1.0
 40
1.0
 10
-47.7452824542
 20
10.036927121
 30
0.0
 10
-47.7569410556
 20
10.0457125072
 30
0.0
 10
-47.7833837569
 20
10.0602692587
 30
0.0
 10
-47.8449514831
 20
10.074804196
 30
0.0
 10
-47.8945525376
 20
10.0675197294
 30
0.0
 10
-47.9258269611
 20
10.0571440889
 30
0.0
  0
LINE
  5
64F
100
AcDbEntity
  8
IMPORT_IGES
100
AcDbLine
 62
7
  6
CONTINUOUS
 10
-61.3645173042
 20
2.6940279011
 30
0.0
 11
-61.6645173042
 21
2.525
 31
0.0
  0
SPLINE
  5
650
100
AcDbEntity
  8
IMPORT_IGES
100
AcDbSpline
 62
250
  6
CONTINUOUS
 70
0
 71
3
 72
14
 73
10
 74
0
 42
0.0000001
 43
0.0000001
 44
0.0000000001
 40
0.0
 40
0.0
 40
0.0
 40
0.0
 40
0.4244289193
 40
0.5956460943
 40
0.7376486444
 40
0.8495187835
 40
0.9304552324
 40
0.9803255895
 40
1.0
 40
1.0
 40
1.0
 40
1.0
 10
-57.0874592674
 20
10.9098076211
 30
0.0
 10
-57.0851518994
 20
10.9155657104
 30
0.0
 10
-57.081856859
 20
10.9236295892
 30
0.0
 10
-57.0776697867
 20
10.9335520388
 30
0.0
 10
-57.0752284864
 20
10.9392912033
 30
0.0
 10
-57.0732592429
 20
10.9437027301
 30
0.0
 10
-57.0718274895
 20
10.9471049373
 30
0.0
 10
-57.0708372
 20
10.94878301
 30
0.0
 10
-57.0703447295
 20
10.9499999976
 30
0.0
 10
-57.0700571806
 20
10.95
 30
0.0
  0
LINE
  5
651
100
AcDbEntity
  8
IMPORT_IGES
100
AcDbLine
 62
250
  6
CONTINUOUS
 10
-45.6289349126
 20
8.4490121906
 30
0.0
 11
-45.6598447587
 21
8.4800305268
 31
0.0
  0
SPLINE
  5
652
100
AcDbEntity
  8
IMPORT_IGES
100
AcDbSpline
 62
250
  6
CONTINUOUS
 70
0
 71
3
 72
9
 73
5
 74
0
 42
0.0000001
 43
0.0000001
 44
0.0000000001
 40
0.0
 40
0.0
 40
0.0
 40
0.0
 40
0.4964979605
 40
1.0
 40
1.0
 40
1.0
 40
1.0
 10
-45.6598447587
 20
8.4800305268
 30
0.0
 10
-45.6918924868
 20
8.51236546
 30
0.0
 10
-45.7546726329
 20
8.5792195396
 30
0.0
 10
-45.8174450718
 20
8.6460507869
 30
0.0
 10
-45.8489568274
 20
8.6797924944
 30
0.0
  0
LINE
  5
653
100
AcDbEntity
  8
IMPORT_IGES
100
AcDbLine
 62
250
  6
CONTINUOUS
 10
-45.9062594447
 20
8.7412954635
 30
0.0
 11
-46.0145173026
 21
8.8579155969
 31
0.0
  0
LINE
  5
654
100
AcDbEntity
  8
IMPORT_IGES
100
AcDbLine
 62
7
  6
CONTINUOUS
 10
-49.0019932641
 20
10.9098076211
 30
0.0
 11
-49.0024681955
 21
10.95
 31
0.0
  0
SPLINE
  5
655
100
AcDbEntity
  8
RACCORDO
100
AcDbSpline
 62
250
  6
CONTINUOUS
 70
0
 71
3
 72
26
 73
22
 74
0
 42
0.0000001
 43
0.0000001
 44
0.0000000001
 40
0.0
 40
0.0
 40
0.0
 40
0.0
 40
0.1950812131
 40
0.3826499456
 40
0.5555245119
 40
0.6343402047
 40
0.7070490478
 40
0.7729468713
 40
0.8314025054
 40
0.881852257
 40
0.9238084245
 40
0.9414741935
 40
0.956871577
 40
0.9699629139
 40
0.9807201421
 40
0.9891160416
 40
0.9951290477
 40
0.9972391968
 40
0.998751184
 40
0.9996663718
 40
1.0
 40
1.0
 40
1.0
 40
1.0
 10
-71.6659717371
 20
24.2369056521
 30
0.0
 10
-71.6660663166
 20
24.2531630359
 30
0.0
 10
-71.6662339227
 20
24.2850518473
 30
0.0
 10
-71.6664231624
 20
24.3313477175
 30
0.0
 10
-71.6665251529
 20
24.3679545131
 30
0.0
 10
-71.6665666916
 20
24.3949892244
 30
0.0
 10
-71.6665773895
 20
24.4131087486
 30
0.0
 10
-71.6665686068
 20
24.4295315059
 30
0.0
 10
-71.6665406235
 20
24.4440992271
 30
0.0
 10
-71.6664938018
 20
24.4566716056
 30
0.0
 10
-71.6664373363
 20
24.4658446582
 30
0.0
 10
-71.6663803177
 20
24.4720962472
 30
0.0
 10
-71.6663358516
 20
24.4759426689
 30
0.0
 10
-71.6662870101
 20
24.4792122353
 30
0.0
 10
-71.6662353568
 20
24.4819010268
 30
0.0
 10
-71.6661781966
 20
24.4839921979
 30
0.0
 10
-71.6661292126
 20
24.4853791703
 30
0.0
 10
-71.6660781588
 20
24.4861657167
 30
0.0
 10
-71.666053213
 20
24.4865675339
 30
0.0
 10
-71.6660127513
 20
24.4867510864
 30
0.0
 10
-71.6659995405
 20
24.4869012595
 30
0.0
 10
-71.6659717371
 20
24.4869014213
 30
0.0
  0
LINE
  5
656
100
AcDbEntity
  8
RACCORDO
100
AcDbLine
 62
7
  6
CONTINUOUS
 10
-69.4145173042
 20
24.2500042308
 30
0.0
 11
-69.4145173042
 21
24.5
 31
0.0
  0
SPLINE
  5
657
100
AcDbEntity
  8
RACCORDO
100
AcDbSpline
 62
250
  6
CONTINUOUS
 70
0
 71
3
 72
26
 73
22
 74
0
 42
0.0000001
 43
0.0000001
 44
0.0000000001
 40
0.0
 40
0.0
 40
0.0
 40
0.0
 40
0.1950812131
 40
0.3826499456
 40
0.5555245119
 40
0.6343402047
 40
0.7070490478
 40
0.7729468713
 40
0.8314025054
 40
0.881852257
 40
0.9238084245
 40
0.9414741935
 40
0.956871577
 40
0.9699629139
 40
0.9807201421
 40
0.9891160416
 40
0.9951290477
 40
0.9972391968
 40
0.998751184
 40
0.9996663718
 40
1.0
 40
1.0
 40
1.0
 40
1.0
 10
-68.6630628714
 20
24.2456323968
 30
0.0
 10
-68.6629682919
 20
24.2618897806
 30
0.0
 10
-68.6628006858
 20
24.293778592
 30
0.0
 10
-68.6626114461
 20
24.3400744622
 30
0.0
 10
-68.6625094556
 20
24.3766812578
 30
0.0
 10
-68.6624679169
 20
24.4037159692
 30
0.0
 10
-68.662457219
 20
24.4218354933
 30
0.0
 10
-68.6624660017
 20
24.4382582506
 30
0.0
 10
-68.662493985
 20
24.4528259718
 30
0.0
 10
-68.6625408067
 20
24.4653983503
 30
0.0
 10
-68.6625972722
 20
24.474571403
 30
0.0
 10
-68.6626542908
 20
24.4808229919
 30
0.0
 10
-68.6626987569
 20
24.4846694136
 30
0.0
 10
-68.6627475984
 20
24.4879389801
 30
0.0
 10
-68.6627992517
 20
24.4906277716
 30
0.0
 10
-68.6628564119
 20
24.4927189426
 30
0.0
 10
-68.6629053959
 20
24.494105915
 30
0.0
 10
-68.6629564497
 20
24.4948924614
 30
0.0
 10
-68.6629813955
 20
24.4952942786
 30
0.0
 10
-68.6630218572
 20
24.4954778311
 30
0.0
 10
-68.663035068
 20
24.4956280042
 30
0.0
 10
-68.6630628714
 20
24.495628166
 30
0.0
  0
SPLINE
  5
658
100
AcDbEntity
  8
RACCORDO
100
AcDbSpline
 62
250
  6
CONTINUOUS
 70
0
 71
3
 72
26
 73
22
 74
0
 42
0.0000001
 43
0.0000001
 44
0.0000000001
 40
0.0
 40
0.0
 40
0.0
 40
0.0
 40
0.1952381202
 40
0.3828749837
 40
0.5557520914
 40
0.6345520338
 40
0.7072376715
 40
0.7731076099
 40
0.8315332255
 40
0.8819531408
 40
0.9238816554
 40
0.9415349362
 40
0.956920956
 40
0.9700021908
 40
0.9807506497
 40
0.9891391341
 40
0.9951459668
 40
0.9972533322
 40
0.9987625092
 40
0.9996742481
 40
1.0
 40
1.0
 40
1.0
 40
1.0
 10
-68.6630628714
 20
23.8443375673
 30
0.0
 10
-68.6549512754
 20
23.8302873953
 30
0.0
 10
-68.6390572678
 20
23.8027263462
 30
0.0
 10
-68.6160271982
 20
23.7626975296
 30
0.0
 10
-68.5978579365
 20
23.7310348314
 30
0.0
 10
-68.5844681851
 20
23.707642512
 30
0.0
 10
-68.5755085652
 20
23.6919599588
 30
0.0
 10
-68.5674026662
 20
23.6777395348
 30
0.0
 10
-68.5602281722
 20
23.665117869
 30
0.0
 10
-68.5540538691
 20
23.654216121
 30
0.0
 10
-68.5495659456
 20
23.6462528618
 30
0.0
 10
-68.5465214292
 20
23.6408180688
 30
0.0
 10
-68.5446553007
 20
23.6374703242
 30
0.0
 10
-68.5430775244
 20
23.6346199763
 30
0.0
 10
-68.5417882338
 20
23.6322711012
 30
0.0
 10
-68.5407994183
 20
23.630437018
 30
0.0
 10
-68.5401495429
 20
23.629215972
 30
0.0
 10
-68.5398019105
 20
23.6285133592
 30
0.0
 10
-68.5396183057
 20
23.628155318
 30
0.0
 10
-68.5395652776
 20
23.6279791452
 30
0.0
 10
-68.5394938619
 20
23.6278447508
 30
0.0
 10
-68.5395173042
 20
23.6278312164
 30
0.0
  0
LINE
  5
659
100
AcDbEntity
  8
0
100
AcDbLine
 62
250
  6
CONTINUOUS
 10
-58.4145173042
 20
20.0275513222
 30
0.0
 11
-68.4145173042
 21
18.3232986254
 31
0.0
  0
SPLINE
  5
65A
100
AcDbEntity
  8
RACCORDO
100
AcDbSpline
 62
7
  6
CONTINUOUS
 70
0
 71
3
 72
13
 73
9
 74
0
 42
0.0000001
 43
0.0000001
 44
0.0000000001
 40
0.0
 40
0.0
 40
0.0
 40
0.0
 40
0.3611707034
 40
0.6821065924
 40
0.8126146064
 40
0.9136705937
 40
0.9780274868
 40
1.0
 40
1.0
 40
1.0
 40
1.0
 10
-70.6659717371
 20
23.2669872981
 30
0.0
 10
-70.6959380953
 20
23.249685774
 30
0.0
 10
-70.7525205618
 20
23.2169892193
 30
0.0
 10
-70.81987926
 20
23.1779516232
 30
0.0
 10
-70.8656615474
 20
23.1513824348
 30
0.0
 10
-70.8901290021
 20
23.1370615698
 30
0.0
 10
-70.9056672315
 20
23.1280662994
 30
0.0
 10
-70.9127286974
 20
23.1237601829
 30
0.0
 10
-70.9145173042
 20
23.1226497308
 30
0.0
  0
SPLINE
  5
65B
100
AcDbEntity
  8
RACCORDO
100
AcDbSpline
 62
250
  6
CONTINUOUS
 70
0
 71
3
 72
26
 73
22
 74
0
 42
0.0000001
 43
0.0000001
 44
0.0000000001
 40
0.0
 40
0.0
 40
0.0
 40
0.0
 40
0.1952383918
 40
0.3828751996
 40
0.5557522696
 40
0.6345521823
 40
0.7072377922
 40
0.7731077036
 40
0.8315332971
 40
0.8819531884
 40
0.9238816869
 40
0.9415349589
 40
0.9569209738
 40
0.9700022033
 40
0.980750657
 40
0.9891391387
 40
0.9951459694
 40
0.9972533339
 40
0.99876251
 40
0.9996742483
 40
1.0
 40
1.0
 40
1.0
 40
1.0
 10
-71.6659717371
 20
23.8443375673
 30
0.0
 10
-71.6740833444
 20
23.8302873757
 30
0.0
 10
-71.6899773609
 20
23.8027263111
 30
0.0
 10
-71.7130074379
 20
23.7626974817
 30
0.0
 10
-71.7311766944
 20
23.7310347923
 30
0.0
 10
-71.7445664419
 20
23.7076424797
 30
0.0
 10
-71.7535260583
 20
23.6919599326
 30
0.0
 10
-71.7616319541
 20
23.6777395142
 30
0.0
 10
-71.7688064451
 20
23.6651178536
 30
0.0
 10
-71.7749807456
 20
23.6542161101
 30
0.0
 10
-71.7794686671
 20
23.6462528545
 30
0.0
 10
-71.7825131822
 20
23.6408180636
 30
0.0
 10
-71.7843793099
 20
23.6374703203
 30
0.0
 10
-71.7859570856
 20
23.6346199735
 30
0.0
 10
-71.7872463757
 20
23.6322710994
 30
0.0
 10
-71.7882351907
 20
23.6304370169
 30
0.0
 10
-71.788885066
 20
23.6292159714
 30
0.0
 10
-71.7892326982
 20
23.6285133588
 30
0.0
 10
-71.7894163029
 20
23.6281553178
 30
0.0
 10
-71.789469331
 20
23.6279791451
 30
0.0
 10
-71.7895407465
 20
23.6278447508
 30
0.0
 10
-71.7895173042
 20
23.6278312164
 30
0.0
  0
LINE
  5
65C
100
AcDbEntity
  8
RACCORDO
100
AcDbLine
 62
250
  6
CONTINUOUS
 10
-58.4145173042
 20
-20.0275513222
 30
0.0
 11
-68.4145173042
 21
-18.3232986254
 31
0.0
  0
LINE
  5
65D
100
AcDbEntity
  8
RACCORDO
100
AcDbLine
 62
7
  6
CONTINUOUS
 10
-70.6659717371
 20
22.3334109614
 30
0.0
 11
-69.4145173042
 21
22.3997080771
 31
0.0
  0
SPLINE
  5
65E
100
AcDbEntity
  8
RACCORDO
100
AcDbSpline
 62
250
  6
CONTINUOUS
 70
0
 71
3
 72
25
 73
21
 74
0
 42
0.0000001
 43
0.0000001
 44
0.0000000001
 40
0.0
 40
0.0
 40
0.0
 40
0.0
 40
0.1950126391
 40
0.3824957336
 40
0.4711548314
 40
0.5552736862
 40
0.6340445001
 40
0.7067096428
 40
0.7725721391
 40
0.8309983177
 40
0.8814267904
 40
0.9233766883
 40
0.9410430149
 40
0.956447656
 40
0.9695519407
 40
0.9803282389
 40
0.9887549055
 40
0.9948165377
 40
0.998523322
 40
1.0
 40
1.0
 40
1.0
 40
1.0
 10
-77.0538544182
 20
21.4994104546
 30
0.0
 10
-77.0555545264
 20
21.5318603333
 30
0.0
 10
-77.0587818832
 20
21.5955128493
 30
0.0
 10
-77.0624838556
 20
21.6739328607
 30
0.0
 10
-77.0651335347
 20
21.7339036349
 30
0.0
 10
-77.0668920615
 20
21.7757816014
 30
0.0
 10
-77.0684426342
 20
21.8150008101
 30
0.0
 10
-77.0697706541
 20
21.8511843196
 30
0.0
 10
-77.0708638263
 20
21.8839839825
 30
0.0
 10
-77.0717126887
 20
21.9130844307
 30
0.0
 10
-77.072309684
 20
21.9382052754
 30
0.0
 10
-77.0726118283
 20
21.9565402795
 30
0.0
 10
-77.0727070701
 20
21.9690392541
 30
0.0
 10
-77.0727088354
 20
21.9767363485
 30
0.0
 10
-77.0726466225
 20
21.9832734519
 30
0.0
 10
-77.0725201319
 20
21.9886797825
 30
0.0
 10
-77.0723368906
 20
21.9928231347
 30
0.0
 10
-77.0720925108
 20
21.995990051
 30
0.0
 10
-77.0718272703
 20
21.9975846231
 30
0.0
 10
-77.0715419105
 20
21.9987123445
 30
0.0
 10
-77.0712961931
 20
21.998725222
 30
0.0
  0
SPLINE
  5
65F
100
AcDbEntity
  8
RACCORDO
100
AcDbSpline
 62
250
  6
CONTINUOUS
 70
0
 71
3
 72
25
 73
21
 74
0
 42
0.0000001
 43
0.0000001
 44
0.0000000001
 40
0.0
 40
0.0
 40
0.0
 40
0.0
 40
0.1950126392
 40
0.3824957337
 40
0.4711548316
 40
0.5552736864
 40
0.6340445003
 40
0.7067096429
 40
0.7725721393
 40
0.8309983179
 40
0.8814267906
 40
0.9233766885
 40
0.9410430151
 40
0.9564476561
 40
0.9695519408
 40
0.980328239
 40
0.9887549056
 40
0.9948165378
 40
0.998523322
 40
1.0
 40
1.0
 40
1.0
 40
1.0
 10
-77.0538544182
 20
-21.4994104546
 30
0.0
 10
-77.0555545263
 20
-21.5318603333
 30
0.0
 10
-77.0587818831
 20
-21.5955128493
 30
0.0
 10
-77.0624838553
 20
-21.6739328608
 30
0.0
 10
-77.0651335345
 20
-21.7339036349
 30
0.0
 10
-77.0668920611
 20
-21.7757816014
 30
0.0
 10
-77.0684426338
 20
-21.8150008101
 30
0.0
 10
-77.0697706537
 20
-21.8511843197
 30
0.0
 10
-77.070863826
 20
-21.8839839826
 30
0.0
 10
-77.0717126884
 20
-21.9130844307
 30
0.0
 10
-77.0723096837
 20
-21.9382052754
 30
0.0
 10
-77.072611828
 20
-21.9565402795
 30
0.0
 10
-77.0727070698
 20
-21.9690392541
 30
0.0
 10
-77.0727088352
 20
-21.9767363485
 30
0.0
 10
-77.0726466223
 20
-21.9832734519
 30
0.0
 10
-77.0725201318
 20
-21.9886797825
 30
0.0
 10
-77.0723368904
 20
-21.9928231347
 30
0.0
 10
-77.0720925107
 20
-21.995990051
 30
0.0
 10
-77.0718272702
 20
-21.997584623
 30
0.0
 10
-77.0715419104
 20
-21.9987123445
 30
0.0
 10
-77.0712961931
 20
-21.998725222
 30
0.0
  0
LINE
  5
660
100
AcDbEntity
  8
RACCORDO
100
AcDbLine
 62
7
  6
CONTINUOUS
 10
-69.4145173042
 20
-22.3997080771
 30
0.0
 11
-70.6659717371
 21
-22.3334109614
 31
0.0
  0
SPLINE
  5
661
100
AcDbEntity
  8
RACCORDO
100
AcDbSpline
 62
7
  6
CONTINUOUS
 70
0
 71
3
 72
23
 73
19
 74
0
 42
0.0000001
 43
0.0000001
 44
0.0000000001
 40
0.0
 40
0.0
 40
0.0
 40
0.0
 40
0.0029790642
 40
0.0081751116
 40
0.0156250895
 40
0.0253283264
 40
0.0372679701
 40
0.0514218611
 40
0.0862385412
 40
0.1294624024
 40
0.1806967365
 40
0.2394707692
 40
0.3052443416
 40
0.3774115779
 40
0.4553067591
 40
0.6253653726
 40
0.8091744664
 40
1.0
 40
1.0
 40
1.0
 40
1.0
 10
-69.4146652771
 20
22.3996911987
 30
0.0
 10
-69.414912462
 20
22.3992605945
 30
0.0
 10
-69.415224512
 20
22.397904566
 30
0.0
 10
-69.4156179648
 20
22.3953465467
 30
0.0
 10
-69.4159471952
 20
22.3916264645
 30
0.0
 10
-69.4162440539
 20
22.3867900147
 30
0.0
 10
-69.4165019388
 20
22.3808279998
 30
0.0
 10
-69.4168403433
 20
22.3706824916
 30
0.0
 10
-69.4171770583
 20
22.3553196836
 30
0.0
 10
-69.4174353801
 20
22.3337755035
 30
0.0
 10
-69.4175724579
 20
22.3082371013
 30
0.0
 10
-69.4175860314
 20
22.2789401961
 30
0.0
 10
-69.4174726193
 20
22.2461546808
 30
0.0
 10
-69.4172338401
 20
22.2101829449
 30
0.0
 10
-69.4167349829
 20
22.156831996
 30
0.0
 10
-69.4158040441
 20
22.0848776565
 30
0.0
 10
-69.4142804407
 20
21.9941085514
 30
0.0
 10
-69.413029595
 20
21.9316821458
 30
0.0
 10
-69.4123309752
 20
21.8998857286
 30
0.0
  0
SPLINE
  5
662
100
AcDbEntity
  8
RACCORDO
100
AcDbSpline
 62
7
  6
CONTINUOUS
 70
0
 71
3
 72
23
 73
19
 74
0
 42
0.0000001
 43
0.0000001
 44
0.0000000001
 40
0.0
 40
0.0
 40
0.0
 40
0.0
 40
0.1908255336
 40
0.3746346274
 40
0.5446932409
 40
0.6225884221
 40
0.6947556584
 40
0.7605292308
 40
0.8193032635
 40
0.8705375976
 40
0.9137614588
 40
0.9485781389
 40
0.9627320299
 40
0.9746716736
 40
0.9843749105
 40
0.9918248884
 40
0.9970209358
 40
1.0
 40
1.0
 40
1.0
 40
1.0
 10
-69.4123309752
 20
-21.8998857286
 30
0.0
 10
-69.413029595
 20
-21.9316821458
 30
0.0
 10
-69.4142804407
 20
-21.9941085514
 30
0.0
 10
-69.4158040441
 20
-22.0848776565
 30
0.0
 10
-69.4167349829
 20
-22.156831996
 30
0.0
 10
-69.4172338401
 20
-22.2101829449
 30
0.0
 10
-69.4174726193
 20
-22.2461546808
 30
0.0
 10
-69.4175860314
 20
-22.2789401961
 30
0.0
 10
-69.4175724579
 20
-22.3082371013
 30
0.0
 10
-69.4174353801
 20
-22.3337755035
 30
0.0
 10
-69.4171770583
 20
-22.3553196836
 30
0.0
 10
-69.4168403433
 20
-22.3706824916
 30
0.0
 10
-69.4165019388
 20
-22.3808279998
 30
0.0
 10
-69.4162440539
 20
-22.3867900147
 30
0.0
 10
-69.4159471952
 20
-22.3916264645
 30
0.0
 10
-69.4156179648
 20
-22.3953465467
 30
0.0
 10
-69.415224512
 20
-22.397904566
 30
0.0
 10
-69.414912462
 20
-22.3992605945
 30
0.0
 10
-69.4146652771
 20
-22.3996911987
 30
0.0
  0
SPLINE
  5
663
100
AcDbEntity
  8
RACCORDO
100
AcDbSpline
 62
250
  6
CONTINUOUS
 70
0
 71
3
 72
26
 73
22
 74
0
 42
0.0000001
 43
0.0000001
 44
0.0000000001
 40
0.0
 40
0.0
 40
0.0
 40
0.0
 40
0.1952381202
 40
0.3828749837
 40
0.5557520914
 40
0.6345520338
 40
0.7072376715
 40
0.7731076099
 40
0.8315332255
 40
0.8819531408
 40
0.9238816554
 40
0.9415349362
 40
0.956920956
 40
0.9700021908
 40
0.9807506497
 40
0.9891391341
 40
0.9951459668
 40
0.9972533322
 40
0.9987625092
 40
0.9996742481
 40
1.0
 40
1.0
 40
1.0
 40
1.0
 10
-68.6630628714
 20
-23.8443375673
 30
0.0
 10
-68.6549512754
 20
-23.8302873953
 30
0.0
 10
-68.6390572678
 20
-23.8027263462
 30
0.0
 10
-68.6160271982
 20
-23.7626975296
 30
0.0
 10
-68.5978579365
 20
-23.7310348314
 30
0.0
 10
-68.5844681851
 20
-23.707642512
 30
0.0
 10
-68.5755085652
 20
-23.6919599588
 30
0.0
 10
-68.5674026662
 20
-23.6777395348
 30
0.0
 10
-68.5602281722
 20
-23.665117869
 30
0.0
 10
-68.5540538691
 20
-23.654216121
 30
0.0
 10
-68.5495659456
 20
-23.6462528618
 30
0.0
 10
-68.5465214292
 20
-23.6408180688
 30
0.0
 10
-68.5446553007
 20
-23.6374703242
 30
0.0
 10
-68.5430775244
 20
-23.6346199763
 30
0.0
 10
-68.5417882338
 20
-23.6322711012
 30
0.0
 10
-68.5407994183
 20
-23.630437018
 30
0.0
 10
-68.5401495429
 20
-23.629215972
 30
0.0
 10
-68.5398019105
 20
-23.6285133592
 30
0.0
 10
-68.5396183057
 20
-23.628155318
 30
0.0
 10
-68.5395652776
 20
-23.6279791452
 30
0.0
 10
-68.5394938619
 20
-23.6278447508
 30
0.0
 10
-68.5395173042
 20
-23.6278312164
 30
0.0
  0
SPLINE
  5
664
100
AcDbEntity
  8
RACCORDO
100
AcDbSpline
 62
250
  6
CONTINUOUS
 70
0
 71
3
 72
26
 73
22
 74
0
 42
0.0000001
 43
0.0000001
 44
0.0000000001
 40
0.0
 40
0.0
 40
0.0
 40
0.0
 40
0.1952381202
 40
0.3828749837
 40
0.5557520914
 40
0.6345520338
 40
0.7072376715
 40
0.7731076099
 40
0.8315332255
 40
0.8819531408
 40
0.9238816554
 40
0.9415349362
 40
0.956920956
 40
0.9700021908
 40
0.9807506497
 40
0.9891391341
 40
0.9951459668
 40
0.9972533322
 40
0.9987625092
 40
0.9996742481
 40
1.0
 40
1.0
 40
1.0
 40
1.0
 10
-71.6659717371
 20
-23.8443375673
 30
0.0
 10
-71.6740833331
 20
-23.8302873953
 30
0.0
 10
-71.6899773407
 20
-23.8027263462
 30
0.0
 10
-71.7130074103
 20
-23.7626975296
 30
0.0
 10
-71.731176672
 20
-23.7310348314
 30
0.0
 10
-71.7445664234
 20
-23.707642512
 30
0.0
 10
-71.7535260433
 20
-23.6919599588
 30
0.0
 10
-71.7616319423
 20
-23.6777395348
 30
0.0
 10
-71.7688064363
 20
-23.665117869
 30
0.0
 10
-71.7749807394
 20
-23.654216121
 30
0.0
 10
-71.7794686629
 20
-23.6462528618
 30
0.0
 10
-71.7825131793
 20
-23.6408180688
 30
0.0
 10
-71.7843793078
 20
-23.6374703242
 30
0.0
 10
-71.7859570841
 20
-23.6346199763
 30
0.0
 10
-71.7872463747
 20
-23.6322711012
 30
0.0
 10
-71.7882351902
 20
-23.630437018
 30
0.0
 10
-71.7888850656
 20
-23.629215972
 30
0.0
 10
-71.789232698
 20
-23.6285133592
 30
0.0
 10
-71.7894163028
 20
-23.628155318
 30
0.0
 10
-71.7894693309
 20
-23.6279791452
 30
0.0
 10
-71.7895407466
 20
-23.6278447508
 30
0.0
 10
-71.7895173042
 20
-23.6278312164
 30
0.0
  0
SPLINE
  5
665
100
AcDbEntity
  8
RACCORDO
100
AcDbSpline
 62
7
  6
CONTINUOUS
 70
0
 71
3
 72
13
 73
9
 74
0
 42
0.0000001
 43
0.0000001
 44
0.0000000001
 40
0.0
 40
0.0
 40
0.0
 40
0.0
 40
0.0225227418
 40
0.0871911485
 40
0.1883898844
 40
0.3188730435
 40
0.6394257438
 40
1.0
 40
1.0
 40
1.0
 40
1.0
 10
-70.9145173042
 20
-23.1226497308
 30
0.0
 10
-70.9126836312
 20
-23.1237875441
 30
0.0
 10
-70.9055504235
 20
-23.1281345861
 30
0.0
 10
-70.8899293562
 20
-23.1371787658
 30
0.0
 10
-70.8654257242
 20
-23.1515193067
 30
0.0
 10
-70.8196654729
 20
-23.1780757967
 30
0.0
 10
-70.752389784
 20
-23.2170647138
 30
0.0
 10
-70.6958886073
 20
-23.2497143466
 30
0.0
 10
-70.6659717371
 20
-23.2669872981
 30
0.0
  0
SPLINE
  5
666
100
AcDbEntity
  8
RACCORDO
100
AcDbSpline
 62
250
  6
CONTINUOUS
 70
0
 71
3
 72
26
 73
22
 74
0
 42
0.0000001
 43
0.0000001
 44
0.0000000001
 40
0.0
 40
0.0
 40
0.0
 40
0.0
 40
0.0003336228
 40
0.0012487957
 40
0.0027607629
 40
0.0048708913
 40
0.0108838711
 40
0.0192797588
 40
0.0300369534
 40
0.0431282632
 40
0.0585256394
 40
0.076191382
 40
0.1181475232
 40
0.1685972475
 40
0.2270528812
 40
0.2929506998
 40
0.3656595516
 40
0.4444752648
 40
0.6173498903
 40
0.804918698
 40
1.0
 40
1.0
 40
1.0
 40
1.0
 10
-68.6630628714
 20
-24.495628166
 30
0.0
 10
-68.6630350685
 20
-24.4956280042
 30
0.0
 10
-68.6630218566
 20
-24.4954778342
 30
0.0
 10
-68.6629813959
 20
-24.4952942839
 30
0.0
 10
-68.6629564496
 20
-24.4948924719
 30
0.0
 10
-68.6629053962
 20
-24.4941059308
 30
0.0
 10
-68.6628564124
 20
-24.4927189634
 30
0.0
 10
-68.6627992525
 20
-24.4906277983
 30
0.0
 10
-68.662747599
 20
-24.4879390129
 30
0.0
 10
-68.6626987575
 20
-24.4846694521
 30
0.0
 10
-68.6626542913
 20
-24.4808230354
 30
0.0
 10
-68.6625972724
 20
-24.4745714515
 30
0.0
 10
-68.6625408071
 20
-24.4653984055
 30
0.0
 10
-68.6624939851
 20
-24.4528260315
 30
0.0
 10
-68.6624660018
 20
-24.438258313
 30
0.0
 10
-68.662457219
 20
-24.4218355554
 30
0.0
 10
-68.6624679169
 20
-24.4037160292
 30
0.0
 10
-68.6625094555
 20
-24.3766813105
 30
0.0
 10
-68.662611446
 20
-24.340074502
 30
0.0
 10
-68.6628006857
 20
-24.2937786131
 30
0.0
 10
-68.6629682919
 20
-24.261889788
 30
0.0
 10
-68.6630628714
 20
-24.2456323968
 30
0.0
  0
SPLINE
  5
667
100
AcDbEntity
  8
RACCORDO
100
AcDbSpline
 62
7
  6
CONTINUOUS
 70
0
 71
3
 72
9
 73
5
 74
0
 42
0.0000001
 43
0.0000001
 44
0.0000000001
 40
0.0
 40
0.0
 40
0.0
 40
0.0
 40
0.482213368
 40
1.0
 40
1.0
 40
1.0
 40
1.0
 10
-70.7900604462
 20
-22.3279108386
 30
0.0
 10
-70.770122458
 20
-22.3289557443
 30
0.0
 10
-70.7287437536
 20
-22.3304456948
 30
0.0
 10
-70.6873797343
 20
-22.332273202
 30
0.0
 10
-70.6659717371
 20
-22.3334109614
 30
0.0
  0
LINE
  5
668
100
AcDbEntity
  8
RACCORDO
100
AcDbLine
 62
7
  6
CONTINUOUS
 10
-69.4145173042
 20
-24.5
 30
0.0
 11
-69.4145173042
 21
-24.2500042308
 31
0.0
  0
SPLINE
  5
669
100
AcDbEntity
  8
RACCORDO
100
AcDbSpline
 62
250
  6
CONTINUOUS
 70
0
 71
3
 72
26
 73
22
 74
0
 42
0.0000001
 43
0.0000001
 44
0.0000000001
 40
0.0
 40
0.0
 40
0.0
 40
0.0
 40
0.0003336287
 40
0.0012488178
 40
0.0027608069
 40
0.0048709582
 40
0.0108839688
 40
0.0192798748
 40
0.0300371153
 40
0.0431284644
 40
0.0585258581
 40
0.0761916461
 40
0.1181478473
 40
0.168597649
 40
0.2270533274
 40
0.2929512052
 40
0.3656601029
 40
0.4444758533
 40
0.6173505017
 40
0.8049193806
 40
1.0
 40
1.0
 40
1.0
 40
1.0
 10
-71.6659717371
 20
-24.4869014213
 30
0.0
 10
-71.6659995405
 20
-24.4869012595
 30
0.0
 10
-71.6660127513
 20
-24.4867510862
 30
0.0
 10
-71.666053213
 20
-24.4865675335
 30
0.0
 10
-71.6660781588
 20
-24.4861657157
 30
0.0
 10
-71.6661292126
 20
-24.4853791686
 30
0.0
 10
-71.6661781966
 20
-24.4839921951
 30
0.0
 10
-71.666235357
 20
-24.4819010221
 30
0.0
 10
-71.6662870103
 20
-24.479212228
 30
0.0
 10
-71.6663358517
 20
-24.4759426587
 30
0.0
 10
-71.6663803179
 20
-24.4720962335
 30
0.0
 10
-71.6664373364
 20
-24.4658446393
 30
0.0
 10
-71.666493802
 20
-24.4566715781
 30
0.0
 10
-71.6665406236
 20
-24.444099189
 30
0.0
 10
-71.6665686069
 20
-24.4295314554
 30
0.0
 10
-71.6665773895
 20
-24.4131086853
 30
0.0
 10
-71.6665666915
 20
-24.3949891473
 30
0.0
 10
-71.6665251527
 20
-24.3679544198
 30
0.0
 10
-71.666423162
 20
-24.3313476003
 30
0.0
 10
-71.6662339222
 20
-24.2850517606
 30
0.0
 10
-71.6660663163
 20
-24.2531629864
 30
0.0
 10
-71.6659717371
 20
-24.2369056521
 30
0.0
  0
SPLINE
  5
66A
100
AcDbEntity
  8
RACCORDO
100
AcDbSpline
 62
7
  6
CONTINUOUS
 70
0
 71
3
 72
9
 73
5
 74
0
 42
0.0000001
 43
0.0000001
 44
0.0000000001
 40
0.0
 40
0.0
 40
0.0
 40
0.0
 40
0.517786632
 40
1.0
 40
1.0
 40
1.0
 40
1.0
 10
-70.6659717371
 20
22.3334109614
 30
0.0
 10
-70.6873797343
 20
22.332273202
 30
0.0
 10
-70.7287437536
 20
22.3304456948
 30
0.0
 10
-70.770122458
 20
22.3289557443
 30
0.0
 10
-70.7900604462
 20
22.3279108386
 30
0.0
  0
ELLIPSE
  5
66B
100
AcDbEntity
  8
RACCORDO
100
AcDbEllipse
 62
7
  6
CONTINUOUS
 10
-9.875
 20
21.9496569135
 30
0.0
 11
0.0
 21
0.2503430865
 31
0.0
 40
0.9986295348
 41
0.0
 42
1.5707963268
  0
ELLIPSE
  5
66C
100
AcDbEntity
  8
RACCORDO
100
AcDbEllipse
 62
7
  6
CONTINUOUS
 10
8.525
 20
21.9496569135
 30
0.0
 11
-0.0
 21
0.2503430865
 31
0.0
 40
0.9986295348
 41
-1.5707963268
 42
0.0
  0
ELLIPSE
  5
66D
100
AcDbEntity
  8
IMPORT_IGES
100
AcDbEllipse
 62
7
  6
CONTINUOUS
 10
-3.0
 20
-7.4287187079
 30
0.0
 11
0.3
 21
0.0
 31
0.0
 40
0.2679491924
 41
-0.2680195878
 42
-0.0
  0
ELLIPSE
  5
66E
100
AcDbEntity
  8
IMPORT_IGES
100
AcDbEllipse
 62
7
  6
CONTINUOUS
 10
1.65
 20
-7.4287187079
 30
0.0
 11
0.3
 21
-0.0
 31
0.0
 40
0.2679491924
 41
-3.1415926536
 42
-2.8736031011
  0
ELLIPSE
  5
66F
100
AcDbEntity
  8
RACCORDO
100
AcDbEllipse
 62
7
  6
CONTINUOUS
 10
9.974923836
 20
21.891254093
 30
0.0
 11
0.4473055582
 21
-0.2236357461
 31
0.0
 40
0.9998096356
 41
0.4635410001
 42
1.5708581097
  0
ELLIPSE
  5
670
100
AcDbEntity
  8
RACCORDO
100
AcDbEllipse
 62
7
  6
CONTINUOUS
 10
-11.324923836
 20
-21.891254093
 30
0.0
 11
0.4473055582
 21
-0.2236357461
 31
0.0
 40
0.9998096356
 41
-2.6780516535
 42
-1.5707345439
  0
ELLIPSE
  5
671
100
AcDbEntity
  8
RACCORDO
100
AcDbEllipse
 62
7
  6
CONTINUOUS
 10
-11.324923836
 20
21.891254093
 30
0.0
 11
0.4473055582
 21
0.2236357461
 31
0.0
 40
0.9998096356
 41
1.5707345439
 42
2.6780516535
  0
ELLIPSE
  5
672
100
AcDbEntity
  8
RACCORDO
100
AcDbEllipse
 62
7
  6
CONTINUOUS
 10
9.974923836
 20
-21.891254093
 30
0.0
 11
0.4473055582
 21
0.2236357461
 31
0.0
 40
0.9998096356
 41
-1.5708581097
 42
-0.4635410001
  0
ELLIPSE
  5
673
100
AcDbEntity
  8
RACCORDO
100
AcDbEllipse
 62
7
  6
CONTINUOUS
 10
5.7844660369
 20
3.9094850761
 30
0.0
 11
0.0
 21
0.5
 31
0.0
 40
0.0087268678
 41
-3.1328660073
 42
-3.1255397368
  0
ELLIPSE
  5
674
100
AcDbEntity
  8
RACCORDO
100
AcDbEllipse
 62
7
  6
CONTINUOUS
 10
5.7843803371
 20
-5.0093993763
 30
0.0
 11
-0.0
 21
0.5
 31
0.0
 40
0.0087268678
 41
-0.0182549165
 42
-0.0087266463
  0
ELLIPSE
  5
675
100
AcDbEntity
  8
RACCORDO
100
AcDbEllipse
 62
7
  6
CONTINUOUS
 10
2.9843803371
 20
-5.0093993763
 30
0.0
 11
-0.0
 21
0.5
 31
0.0
 40
0.0087268678
 41
-0.0182548059
 42
-0.0087266463
  0
ELLIPSE
  5
676
100
AcDbEntity
  8
RACCORDO
100
AcDbEllipse
 62
7
  6
CONTINUOUS
 10
2.9842179491
 20
-6.6092369883
 30
0.0
 11
-0.0
 21
0.5
 31
0.0
 40
0.0087268678
 41
-0.0214576456
 42
-0.0087266463
  0
ELLIPSE
  5
677
100
AcDbEntity
  8
RACCORDO
100
AcDbEllipse
 62
7
  6
CONTINUOUS
 10
9.7177234819
 20
-22.3344902759
 30
0.0
 11
0.25
 21
0.0
 31
0.0
 40
0.0524077793
 41
0.5261092631
 42
1.5707963268
  0
ELLIPSE
  5
678
100
AcDbEntity
  8
RACCORDO
100
AcDbEllipse
 62
7
  6
CONTINUOUS
 10
-11.0677234819
 20
-22.3344902759
 30
0.0
 11
0.25
 21
0.0
 31
0.0
 40
0.0524077793
 41
1.5707963268
 42
2.6154833905
  0
ELLIPSE
  5
679
100
AcDbEntity
  8
RACCORDO
100
AcDbEllipse
 62
7
  6
CONTINUOUS
 10
9.7177234819
 20
22.3344902759
 30
0.0
 11
0.25
 21
0.0
 31
0.0
 40
0.0524077793
 41
-1.5707963268
 42
-0.5261092631
  0
ELLIPSE
  5
67A
100
AcDbEntity
  8
RACCORDO
100
AcDbEllipse
 62
7
  6
CONTINUOUS
 10
-11.0677234819
 20
22.3344902759
 30
0.0
 11
0.25
 21
-0.0
 31
0.0
 40
0.0524077793
 41
-2.6154833905
 42
-1.5707963268
  0
ELLIPSE
  5
67B
100
AcDbEntity
  8
RACCORDO
100
AcDbEllipse
 62
7
  6
CONTINUOUS
 10
3.2220826234
 20
22.3737961104
 30
0.0
 11
0.5
 21
-0.0
 31
0.0
 40
0.0524077793
 41
-1.5707963268
 42
-0.0058177642
  0
ELLIPSE
  5
67C
100
AcDbEntity
  8
RACCORDO
100
AcDbEllipse
 62
7
  6
CONTINUOUS
 10
3.2220826234
 20
23.7970910851
 30
0.0
 11
0.5
 21
0.0
 31
0.0
 40
0.0058178298
 41
-0.6464131586
 42
-0.0058177642
  0
ELLIPSE
  5
67D
100
AcDbEntity
  8
RACCORDO
100
AcDbEllipse
 62
7
  6
CONTINUOUS
 10
-4.5720826234
 20
23.7970910851
 30
0.0
 11
0.5
 21
-0.0
 31
0.0
 40
0.0058178298
 41
-3.1357748894
 42
-2.495179495
  0
ELLIPSE
  5
67E
100
AcDbEntity
  8
RACCORDO
100
AcDbEllipse
 62
7
  6
CONTINUOUS
 10
-4.5720826234
 20
22.3737961104
 30
0.0
 11
0.5
 21
0.0
 31
0.0
 40
0.0524077793
 41
-3.1357748894
 42
-1.5707963268
  0
ELLIPSE
  5
67F
100
AcDbEntity
  8
RACCORDO
100
AcDbEllipse
 62
7
  6
CONTINUOUS
 10
3.2220826234
 20
-23.7970910851
 30
0.0
 11
0.5
 21
0.0
 31
0.0
 40
0.0058178298
 41
0.0058177642
 42
0.6464131586
  0
ELLIPSE
  5
680
100
AcDbEntity
  8
RACCORDO
100
AcDbEllipse
 62
7
  6
CONTINUOUS
 10
3.2220826234
 20
-22.3737961104
 30
0.0
 11
0.5
 21
0.0
 31
0.0
 40
0.0524077793
 41
0.0058177642
 42
1.5707963268
  0
ELLIPSE
  5
681
100
AcDbEntity
  8
RACCORDO
100
AcDbEllipse
 62
7
  6
CONTINUOUS
 10
1.8342179491
 20
-6.6092369883
 30
0.0
 11
0.0
 21
0.5
 31
0.0
 40
0.0087268678
 41
-0.0214576049
 42
-0.0087266463
  0
ELLIPSE
  5
682
100
AcDbEntity
  8
RACCORDO
100
AcDbEllipse
 62
7
  6
CONTINUOUS
 10
1.8340461476
 20
-7.9590651868
 30
0.0
 11
0.0
 21
0.5
 31
0.0
 40
0.0087268678
 41
-0.024159982
 42
-0.0087266463
  0
ELLIPSE
  5
683
100
AcDbEntity
  8
RACCORDO
100
AcDbEllipse
 62
7
  6
CONTINUOUS
 10
-3.1840461476
 20
-7.9590651868
 30
0.0
 11
-0.0
 21
0.5
 31
0.0
 40
0.0087268678
 41
0.0087266463
 42
0.0241599888
  0
ELLIPSE
  5
684
100
AcDbEntity
  8
RACCORDO
100
AcDbEllipse
 62
7
  6
CONTINUOUS
 10
-3.1842179491
 20
-6.6092369883
 30
0.0
 11
-0.0
 21
0.5
 31
0.0
 40
0.0087268678
 41
0.0087266463
 42
0.0214576049
  0
ELLIPSE
  5
685
100
AcDbEntity
  8
RACCORDO
100
AcDbEllipse
 62
7
  6
CONTINUOUS
 10
-4.3342179491
 20
-6.6092369883
 30
0.0
 11
-0.0
 21
0.5
 31
0.0
 40
0.0087268678
 41
0.0087266463
 42
0.021457651
  0
ELLIPSE
  5
686
100
AcDbEntity
  8
RACCORDO
100
AcDbEllipse
 62
7
  6
CONTINUOUS
 10
-4.3343803371
 20
-5.0093993763
 30
0.0
 11
0.0
 21
0.5
 31
0.0
 40
0.0087268678
 41
0.0087266463
 42
0.0182548059
  0
ELLIPSE
  5
687
100
AcDbEntity
  8
RACCORDO
100
AcDbEllipse
 62
7
  6
CONTINUOUS
 10
-4.5720826234
 20
-22.3737961104
 30
0.0
 11
0.5
 21
-0.0
 31
0.0
 40
0.0524077793
 41
1.5707963268
 42
3.1357748894
  0
ELLIPSE
  5
688
100
AcDbEntity
  8
RACCORDO
100
AcDbEllipse
 62
7
  6
CONTINUOUS
 10
-4.5720826234
 20
-23.7970910851
 30
0.0
 11
0.5
 21
-0.0
 31
0.0
 40
0.0058178298
 41
2.495179495
 42
3.1357748894
  0
ELLIPSE
  5
689
100
AcDbEntity
  8
RACCORDO
100
AcDbEllipse
 62
7
  6
CONTINUOUS
 10
-7.1344660369
 20
3.9094850761
 30
0.0
 11
0.0
 21
0.5
 31
0.0
 40
0.0087268678
 41
-3.1576455584
 42
-3.1503192998
  0
ELLIPSE
  5
68A
100
AcDbEntity
  8
RACCORDO
100
AcDbEllipse
 62
7
  6
CONTINUOUS
 10
-7.1343803371
 20
-5.0093993763
 30
0.0
 11
-0.0
 21
0.5
 31
0.0
 40
0.0087268678
 41
0.0087266463
 42
0.0182549368
  0
ELLIPSE
  5
68B
100
AcDbEntity
  8
RACCORDO
100
AcDbEllipse
 62
7
  6
CONTINUOUS
 10
-9.1822765181
 20
22.3344902759
 30
0.0
 11
0.25
 21
0.0
 31
0.0
 40
0.0524077793
 41
-1.5707963268
 42
-0.0058177642
  0
ELLIPSE
  5
68C
100
AcDbEntity
  8
RACCORDO
100
AcDbEllipse
 62
7
  6
CONTINUOUS
 10
7.8322765181
 20
-22.3344902759
 30
0.0
 11
0.25
 21
-0.0
 31
0.0
 40
0.0524077793
 41
1.5707963268
 42
3.1357748894
  0
ELLIPSE
  5
68D
100
AcDbEntity
  8
RACCORDO
100
AcDbEllipse
 62
7
  6
CONTINUOUS
 10
7.8322765181
 20
22.3344902759
 30
0.0
 11
0.25
 21
0.0
 31
0.0
 40
0.0524077793
 41
-3.1357748894
 42
-1.5707963268
  0
ELLIPSE
  5
68E
100
AcDbEntity
  8
RACCORDO
100
AcDbEllipse
 62
7
  6
CONTINUOUS
 10
-9.1822765181
 20
-22.3344902759
 30
0.0
 11
0.25
 21
0.0
 31
0.0
 40
0.0524077793
 41
0.0058177642
 42
1.5707963268
  0
ELLIPSE
  5
68F
100
AcDbEntity
  8
IMPORT_IGES
100
AcDbEllipse
 62
7
  6
CONTINUOUS
 10
-60.7794223253
 20
-10.228796008
 30
0.0
 11
0.532937255
 21
-0.3407598677
 31
0.0
 40
0.4742590135
 41
-1.5707963268
 42
-0.6381843874
  0
ELLIPSE
  5
690
100
AcDbEntity
  8
RACCORDO
100
AcDbEllipse
 62
7
  6
CONTINUOUS
 10
-58.9145173042
 20
-22.0658992808
 30
0.0
 11
-0.0
 21
0.5
 31
0.0
 40
1.0
 41
-0.9102282757
 42
-0.0174532925
  0
ELLIPSE
  5
691
100
AcDbEntity
  8
RACCORDO
100
AcDbEllipse
 62
7
  6
CONTINUOUS
 10
-58.9145173042
 20
22.0658992808
 30
0.0
 11
0.5
 21
-0.0
 31
0.0
 40
1.0
 41
-1.5533430343
 42
-0.6605680511
  0
ENDSEC
  0
SECTION
  2
OBJECTS
  0
DICTIONARY
  5
C
100
AcDbDictionary
280
0
281
1
  3
ACAD_GROUP
350
D
  3
ACAD_MLINESTYLE
350
17
  3
ACAD_LAYOUT
350
1A
  3
ACAD_PLOTSETTINGS
350
19
  3
ACAD_PLOTSTYLENAME
350
E
  0
DICTIONARY
  5
D
102
{ACAD_REACTORS
330
C
102
}
100
AcDbDictionary
280
0
281
1
  0
ACDBDICTIONARYWDFLT
  5
E
102
{ACAD_REACTORS
330
C
102
}
100
AcDbDictionary
281
1
  3
Normal
350
F
100
AcDbDictionaryWithDefault
340
F
  0
DICTIONARY
  5
17
102
{ACAD_REACTORS
330
C
102
}
100
AcDbDictionary
280
0
281
1
  3
Standard
350
18
  0
DICTIONARY
  5
19
102
{ACAD_REACTORS
330
C
102
}
100
AcDbDictionary
281
1
  0
DICTIONARY
  5
1A
102
{ACAD_REACTORS
330
C
102
}
100
AcDbDictionary
281
1
  3
Model
350
692
  3
Layout1
350
693
  0
ACDBPLACEHOLDER
  5
F
102
{ACAD_REACTORS
330
E
102
}
  0
MLINESTYLE
  5
18
102
{ACAD_REACTORS
330
17
102
}
100
AcDbMlineStyle
  2
STANDARD
 70
0
  3

 62
256
 51
90.0
 52
90.0
 71
2
 49
0.5
 62
256
  6
BYLAYER
 49
-0.5
 62
256
  6
BYLAYER
  0
LAYOUT
  5
692
102
{ACAD_REACTORS
330
1A
102
}
100
AcDbPlotSettings
  1

  2
none_device
  4
ISO_A4_(297.00_x_210.00_MM)
  6

 40
0.0
 41
0.0
 42
0.0
 43
0.0
 44
297.0
 45
210.0
 46
0.0
 47
0.0
 48
0.0
 49
0.0
140
0.0
141
0.0
142
1.0
143
1.0
 70
1024
 72
1
 73
0
 74
0
  7

 75
0
147
1.0
148
0.0
149
0.0
100
AcDbLayout
  1
Model
 70
0
 71
0
 10
0.0
 20
0.0
 11
297.0
 21
210.0
 12
0.0
 22
0.0
 32
0.0
 14
0.0
 24
0.0
 34
0.0
 15
0.0
 25
0.0
 35
0.0
146
0.0
 13
0.0
 23
0.0
 33
0.0
 16
1.0
 26
0.0
 36
0.0
 17
0.0
 27
1.0
 37
0.0
 76
0
330
220
345
0
346
0
  0
LAYOUT
  5
693
102
{ACAD_REACTORS
330
1A
102
}
100
AcDbPlotSettings
  1

  2
none_device
  4
ISO_A4_(297.00_x_210.00_MM)
  6

 40
0.0
 41
0.0
 42
0.0
 43
0.0
 44
297.0
 45
210.0
 46
0.0
 47
0.0
 48
0.0
 49
0.0
140
0.0
141
0.0
142
1.0
143
1.0
 70
0
 72
1
 73
0
 74
0
  7

 75
0
147
1.0
148
0.0
149
0.0
100
AcDbLayout
  1
Layout1
 70
0
 71
1
 10
0.0
 20
0.0
 11
297.0
 21
210.0
 12
0.0
 22
0.0
 32
0.0
 14
0.0
 24
0.0
 34
0.0
 15
0.0
 25
0.0
 35
0.0
146
0.0
 13
0.0
 23
0.0
 33
0.0
 16
1.0
 26
0.0
 36
0.0
 17
0.0
 27
1.0
 37
0.0
 76
0
330
221
345
0
346
0
  0
ENDSEC
  0
EOF
