  0
SECTION
  2
HEADER
  9
$ACADVER
  1
AC1024
  9
$DWGCODEPAGE
  3
ANSI_1252
  9
$EXTMAX
 10
210.0
 20
297.0
 30
0.0
  9
$EXTMIN
 10
0.0
 20
0.0
 30
0.0
  9
$LIMMIN
 10
0.0
 20
0.0
  9
$LIMMAX
 10
210.0
 20
297.0
  9
$VIEWCTR
 10
105.0
 20
148.5
  9
$VIEWSIZE
 40
297.0
  9
$CLAYER
  8
0
  9
$LTSCALE
 40
19.36
  9
$CELTYPE
  6
BYLAYER
  9
$DIMSCALE
 40
1.0
  9
$DIMASZ
 40
3.0
  9
$DIMEXO
 40
0.5
  9
$DIMDLI
 40
13.376
  9
$DIMEXE
 40
1.5
  9
$DIMCEN
 40
3.168
  9
$DIMLFAC
 40
1.0
  9
$DIMBLK
  1
_FILLED
  9
$DIMALT
 70
0
  9
$DIMALTF
 40
0.0393700787
  9
$DIMTXT
 40
3.0
  9
$DIMTOL
 70
1
  9
$DIMLIM
 70
0
  9
$DIMTFAC
 40
1.0
  9
$DIMTP
 40
0.01
  9
$DIMTM
 40
0.01
  9
$DIMGAP
 40
0.625
  9
$DIMDSEP
 70
44
  9
$AUNITS
 70
0
  9
$PDMODE
 70
3
  9
$PDSIZE
 40
3.0
  9
$HANDSEED
  5
695
  9
$TILEMODE
 70
1
  9
$MEASUREMENT
 70
1
  9
$INSUNITS
 70
4
  0
ENDSEC
  0
SECTION
  2
CLASSES
  0
CLASS
  1
ACDBDICTIONARYWDFLT
  2
AcDbDictionaryWithDefault
  3
AutoCAD 2000
 90
0
 91
1
280
0
281
0
  0
CLASS
  1
ACDBPLACEHOLDER
  2
AcDbPlaceHolder
  3
AutoCAD 2000
 90
0
 91
1
280
0
281
0
  0
CLASS
  1
LAYOUT
  2
AcDbLayout
  3
AutoCAD 2000
 90
0
 91
0
280
0
281
0
  0
ENDSEC
  0
SECTION
  2
TABLES
  0
TABLE
  2
VPORT
  5
8
100
AcDbSymbolTable
 70
2
  0
VPORT
  5
1F4
100
AcDbSymbolTableRecord
100
AcDbViewportTableRecord
  2
*ACTIVE
 70
0
 10
0.0
 20
0.0
 11
1.0
 21
1.0
 12
105.0
 22
148.5
 13
0.0
 23
0.0
 14
1.0
 24
1.0
 15
0.0
 25
0.0
 16
0.0
 26
0.0
 36
1.0
 17
0.0
 27
0.0
 37
0.0
 40
297.0
 41
0.7070707071
 42
50.0
 43
0.0
 44
0.0
 50
0.0
 51
0.0
 71
0
 72
100
 73
1
 74
1
 75
0
 76
0
 77
0
 78
0
  0
ENDTAB
  0
TABLE
  2
LTYPE
  5
5
100
AcDbSymbolTable
 70
6
  0
LTYPE
  5
14
100
AcDbSymbolTableRecord
100
AcDbLinetypeTableRecord
  2
BYBLOCK
 70
0
  3

 72
65
 73
0
 40
0.0
  0
LTYPE
  5
15
100
AcDbSymbolTableRecord
100
AcDbLinetypeTableRecord
  2
BYLAYER
 70
0
  3

 72
65
 73
0
 40
0.0
  0
LTYPE
  5
16
100
AcDbSymbolTableRecord
100
AcDbLinetypeTableRecord
  2
CONTINUOUS
 70
64
  3
Solid line
 72
65
 73
0
 40
0.0
  0
LTYPE
  5
1F5
100
AcDbSymbolTableRecord
100
AcDbLinetypeTableRecord
  2
CENTER
 70
64
  3
____ _ ____ _ ____ _ ____ _ ____ _ ____ _ ____
 72
65
 73
4
 40
0.6
 49
0.375
 74
0
 49
-0.075
 74
0
 49
0.075
 74
0
 49
-0.075
 74
0
  0
LTYPE
  5
1F6
100
AcDbSymbolTableRecord
100
AcDbLinetypeTableRecord
  2
HIDDEN
 70
64
  3
- - - - - - - - - - - - - - - - - - - -
 72
65
 73
2
 40
0.2
 49
0.1
 74
0
 49
-0.1
 74
0
  0
LTYPE
  5
1F7
100
AcDbSymbolTableRecord
100
AcDbLinetypeTableRecord
  2
PHANTOM
 70
64
  3
_____ _ _ _____ _ _ _____ _ _ _____
 72
65
 73
6
 40
0.8
 49
0.45
 74
0
 49
-0.05
 74
0
 49
0.1
 74
0
 49
-0.05
 74
0
 49
0.1
 74
0
 49
-0.05
 74
0
  0
LTYPE
  5
1F8
100
AcDbSymbolTableRecord
100
AcDbLinetypeTableRecord
  2
DOT
 70
64
  3
. . . . . . . . . . . . . . . . . . . .
 72
65
 73
2
 40
0.2
 49
0.1
 74
0
 49
-0.1
 74
0
  0
LTYPE
  5
1F9
100
AcDbSymbolTableRecord
100
AcDbLinetypeTableRecord
  2
DASHED
 70
64
  3
- - - - - - - - - - - - - - - - - - - -
 72
65
 73
2
 40
0.2
 49
0.1
 74
0
 49
-0.1
 74
0
  0
ENDTAB
  0
TABLE
  2
LAYER
  5
2
100
AcDbSymbolTable
 70
36
  0
LAYER
  5
10
100
AcDbSymbolTableRecord
100
AcDbLayerTableRecord
  2
0
 70
0
 62
7
  6
CONTINUOUS
370
-3
390
F
  0
LAYER
  5
1FA
100
AcDbSymbolTableRecord
100
AcDbLayerTableRecord
  2
DEFAULT_1
 70
0
 62
7
  6
CENTER
370
-3
390
F
  0
LAYER
  5
1FB
100
AcDbSymbolTableRecord
100
AcDbLayerTableRecord
  2
DEFAULT_2
 70
0
 62
7
  6
HIDDEN
370
-3
390
F
  0
LAYER
  5
1FC
100
AcDbSymbolTableRecord
100
AcDbLayerTableRecord
  2
DEFAULT_3
 70
0
 62
7
  6
PHANTOM
370
-3
390
F
  0
LAYER
  5
1FD
100
AcDbSymbolTableRecord
100
AcDbLayerTableRecord
  2
ASSI
 70
0
 62
7
  6
CONTINUOUS
370
-3
390
F
  0
LAYER
  5
1FE
100
AcDbSymbolTableRecord
100
AcDbLayerTableRecord
  2
COLOR17
 70
0
 62
7
  6
CONTINUOUS
370
-3
390
F
  0
LAYER
  5
1FF
100
AcDbSymbolTableRecord
100
AcDbLayerTableRecord
  2
COLOR3
 70
0
 62
7
  6
CONTINUOUS
370
-3
390
F
  0
LAYER
  5
200
100
AcDbSymbolTableRecord
100
AcDbLayerTableRecord
  2
COLOR5
 70
0
 62
7
  6
CONTINUOUS
370
-3
390
F
  0
LAYER
  5
201
100
AcDbSymbolTableRecord
100
AcDbLayerTableRecord
  2
COORDINATE
 70
0
 62
7
  6
CONTINUOUS
370
-3
390
F
  0
LAYER
  5
202
100
AcDbSymbolTableRecord
100
AcDbLayerTableRecord
  2
COORD_ORIGINE
 70
0
 62
7
  6
CONTINUOUS
370
-3
390
F
  0
LAYER
  5
203
100
AcDbSymbolTableRecord
100
AcDbLayerTableRecord
  2
COPY_PUBLISH
 70
0
 62
7
  6
CONTINUOUS
370
-3
390
F
  0
LAYER
  5
204
100
AcDbSymbolTableRecord
100
AcDbLayerTableRecord
  2
COSMETICI
 70
0
 62
7
  6
CONTINUOUS
370
-3
390
F
  0
LAYER
  5
205
100
AcDbSymbolTableRecord
100
AcDbLayerTableRecord
  2
CURVE
 70
0
 62
7
  6
CONTINUOUS
370
-3
390
F
  0
LAYER
  5
206
100
AcDbSymbolTableRecord
100
AcDbLayerTableRecord
  2
DRAFT
 70
0
 62
7
  6
CONTINUOUS
370
-3
390
F
  0
LAYER
  5
207
100
AcDbSymbolTableRecord
100
AcDbLayerTableRecord
  2
IMPORT
 70
0
 62
7
  6
CONTINUOUS
370
-3
390
F
  0
LAYER
  5
208
100
AcDbSymbolTableRecord
100
AcDbLayerTableRecord
  2
IMPORT_IGES
 70
0
 62
7
  6
CONTINUOUS
370
-3
390
F
  0
LAYER
  5
209
100
AcDbSymbolTableRecord
100
AcDbLayerTableRecord
  2
INCISIONI_LASER
 70
0
 62
7
  6
CONTINUOUS
370
-3
390
F
  0
LAYER
  5
20A
100
AcDbSymbolTableRecord
100
AcDbLayerTableRecord
  2
INTF_1
 70
0
 62
7
  6
CONTINUOUS
370
-3
390
F
  0
LAYER
  5
20B
100
AcDbSymbolTableRecord
100
AcDbLayerTableRecord
  2
INTF_11
 70
0
 62
7
  6
CONTINUOUS
370
-3
390
F
  0
LAYER
  5
20C
100
AcDbSymbolTableRecord
100
AcDbLayerTableRecord
  2
INTF_12
 70
0
 62
7
  6
CONTINUOUS
370
-3
390
F
  0
LAYER
  5
20D
100
AcDbSymbolTableRecord
100
AcDbLayerTableRecord
  2
LAY0001
 70
0
 62
7
  6
CONTINUOUS
370
-3
390
F
  0
LAYER
  5
20E
100
AcDbSymbolTableRecord
100
AcDbLayerTableRecord
  2
NOTE
 70
0
 62
7
  6
CONTINUOUS
370
-3
390
F
  0
LAYER
  5
20F
100
AcDbSymbolTableRecord
100
AcDbLayerTableRecord
  2
PIANI
 70
0
 62
7
  6
CONTINUOUS
370
-3
390
F
  0
LAYER
  5
210
100
AcDbSymbolTableRecord
100
AcDbLayerTableRecord
  2
PIANI_ORIGINE
 70
0
 62
7
  6
CONTINUOUS
370
-3
390
F
  0
LAYER
  5
211
100
AcDbSymbolTableRecord
100
AcDbLayerTableRecord
  2
PIANI_RIFERIMENTO
 70
0
 62
7
  6
CONTINUOUS
370
-3
390
F
  0
LAYER
  5
212
100
AcDbSymbolTableRecord
100
AcDbLayerTableRecord
  2
PUNTI
 70
0
 62
7
  6
CONTINUOUS
370
-3
390
F
  0
LAYER
  5
213
100
AcDbSymbolTableRecord
100
AcDbLayerTableRecord
  2
RACCORDO
 70
0
 62
7
  6
CONTINUOUS
370
-3
390
F
  0
LAYER
  5
214
100
AcDbSymbolTableRecord
100
AcDbLayerTableRecord
  2
SIMBOLI
 70
0
 62
7
  6
CONTINUOUS
370
-3
390
F
  0
LAYER
  5
215
100
AcDbSymbolTableRecord
100
AcDbLayerTableRecord
  2
SMUSSO
 70
0
 62
7
  6
CONTINUOUS
370
-3
390
F
  0
LAYER
  5
216
100
AcDbSymbolTableRecord
100
AcDbLayerTableRecord
  2
SNAPLINE
 70
0
 62
7
  6
CONTINUOUS
370
-3
390
F
  0
LAYER
  5
217
100
AcDbSymbolTableRecord
100
AcDbLayerTableRecord
  2
SUPERFICI
 70
0
 62
7
  6
CONTINUOUS
370
-3
390
F
  0
LAYER
  5
218
100
AcDbSymbolTableRecord
100
AcDbLayerTableRecord
  2
TRASH
 70
0
 62
7
  6
CONTINUOUS
370
-3
390
F
  0
LAYER
  5
219
100
AcDbSymbolTableRecord
100
AcDbLayerTableRecord
  2
XSEC_DATUMS
 70
0
 62
7
  6
CONTINUOUS
370
-3
390
F
  0
LAYER
  5
21A
100
AcDbSymbolTableRecord
100
AcDbLayerTableRecord
  2
___SHELL
 70
0
 62
7
  6
CONTINUOUS
370
-3
390
F
  0
ENDTAB
  0
TABLE
  2
STYLE
  5
3
100
AcDbSymbolTable
 70
1
  0
STYLE
  5
11
100
AcDbSymbolTableRecord
100
AcDbTextStyleTableRecord
  2
STANDARD
 70
0
 40
0.0
 41
0.8
 50
0.0
 71
0
 42
0.2
  3
txt
  4

  0
STYLE
  5
21B
100
AcDbSymbolTableRecord
100
AcDbTextStyleTableRecord
  2
TEXTSTYLE_1
 70
0
 40
0.0
 41
0.8
 50
0.0
 71
0
 42
0.2
  3
gdt
  4

  0
ENDTAB
  0
TABLE
  2
VIEW
  5
6
100
AcDbSymbolTable
 70
0
  0
ENDTAB
  0
TABLE
  2
UCS
  5
7
100
AcDbSymbolTable
 70
0
  0
ENDTAB
  0
TABLE
  2
APPID
  5
9
100
AcDbSymbolTable
 70
1
  0
APPID
  5
21C
100
AcDbSymbolTableRecord
100
AcDbRegAppTableRecord
  2
ACAD
 70
0
  0
ENDTAB
  0
TABLE
  2
BLOCK_RECORD
  5
1
100
AcDbSymbolTable
 70
0
  0
BLOCK_RECORD
  5
21D
100
AcDbSymbolTableRecord
100
AcDbBlockTableRecord
  2
*Model_Space
  0
BLOCK_RECORD
  5
21E
100
AcDbSymbolTableRecord
100
AcDbBlockTableRecord
  2
*Paper_Space
  0
BLOCK_RECORD
  5
21F
100
AcDbSymbolTableRecord
100
AcDbBlockTableRecord
  2
_FILLED
  0
BLOCK_RECORD
  5
220
100
AcDbSymbolTableRecord
100
AcDbBlockTableRecord
  2
*D0
  0
BLOCK_RECORD
  5
221
100
AcDbSymbolTableRecord
100
AcDbBlockTableRecord
  2
*D1
  0
BLOCK_RECORD
  5
222
100
AcDbSymbolTableRecord
100
AcDbBlockTableRecord
  2
*D2
  0
BLOCK_RECORD
  5
223
100
AcDbSymbolTableRecord
100
AcDbBlockTableRecord
  2
*D3
  0
ENDTAB
  0
TABLE
  2
DIMSTYLE
  5
A
100
AcDbSymbolTable
 70
1
100
AcDbDimStyleTable
 71
0
  0
DIMSTYLE
105
224
100
AcDbSymbolTableRecord
100
AcDbDimStyleTableRecord
  2
STANDARD
 70
0
  3

  4

 40
1.0
 41
3.0
 42
0.5
 43
0.38
 44
1.5
 45
0.0
 46
0.0
 47
0.01
 48
0.01
140
3.0
141
0.0
142
0.0
143
25.4
144
1.0
145
0.0
146
1.0
147
0.625
 71
1
 72
0
 73
0
 74
0
 75
0
 76
0
 77
1
 78
8
 79
2
170
0
171
1
172
0
173
0
174
0
175
0
176
0
177
0
178
0
270
2
179
1
271
2
272
2
273
2
274
2
275
0
280
0
281
0
282
0
283
1
284
8
285
0
286
0
287
3
288
0
340
11
278
44
341
21F
342
21F
343
21F
344
21F
  0
DIMSTYLE
105
225
100
AcDbSymbolTableRecord
100
AcDbDimStyleTableRecord
  2
DIMSTYLE_1
 70
0
  3

  4

 40
1.0
 41
3.0
 42
0.5
 43
0.38
 44
1.5
 45
0.0
 46
0.0
 47
0.0
 48
0.0
140
3.0
141
0.0
142
0.0
143
25.4
144
1.0
145
0.0
146
1.0
147
0.75
 71
0
 72
0
 73
0
 74
0
 75
0
 76
0
 77
1
 78
8
 79
2
170
0
171
1
172
0
173
0
174
0
175
0
176
0
177
0
178
0
270
2
179
1
271
1
272
1
273
2
274
2
275
0
280
0
281
0
282
0
283
1
284
8
285
0
286
0
287
3
288
0
340
11
278
44
341
21F
342
21F
343
21F
344
21F
  0
ENDTAB
  0
ENDSEC
  0
SECTION
  2
BLOCKS
  0
BLOCK
  5
20
100
AcDbEntity
  8
0
100
AcDbBlockBegin
  2
*Model_Space
 70
0
 10
0.0
 20
0.0
 30
0.0
  3
*Model_Space
  1

  0
ENDBLK
  5
21
100
AcDbEntity
  8
0
100
AcDbBlockEnd
  0
BLOCK
  5
1C
100
AcDbEntity
  8
0
100
AcDbBlockBegin
  2
*Paper_Space
 70
0
 10
0.0
 20
0.0
 30
0.0
  3
*Paper_Space
  1

  0
ENDBLK
  5
1D
100
AcDbEntity
  8
0
100
AcDbBlockEnd
  0
BLOCK
  5
226
100
AcDbEntity
  8
0
100
AcDbBlockBegin
  2
_FILLED
 70
64
 10
0.0
 20
0.0
 30
0.0
  3
_FILLED
  1

  0
SOLID
  5
227
100
AcDbEntity
  8
0
  6
BYBLOCK
 62
0
100
AcDbTrace
 10
0.0
 20
0.0
 30
0.0
 11
-1.0
 21
0.3166666667
 31
0.0
 12
-1.0
 22
-0.3166666667
 32
0.0
 13
-1.0
 23
-0.3166666667
 33
0.0
  0
ENDBLK
  5
228
100
AcDbEntity
  8
0
  6
BYBLOCK
 62
0
100
AcDbBlockEnd
  0
BLOCK
  5
229
100
AcDbEntity
  8
0
100
AcDbBlockBegin
 62
7
  6
CONTINUOUS
  2
*D0
 70
65
 10
0.0
 20
0.0
 30
0.0
  3
*D0
  1

  0
MTEXT
  5
22A
100
AcDbEntity
  8
0
100
AcDbMText
 62
7
  6
CONTINUOUS
  7
STANDARD
 71
2
 72
1
 10
-41.2242194855
 20
46.25
 30
0.0
 11
1.0
 21
0.0
 31
0.0
 73
2
 44
0.9
  1
{\ftxt;\W0.0001;\H0.0001;\~}{\ftxt;\W2.8571428571;\H3.0; }{\ftxt;\W0.0001;\H0.0001;\~}
 40
3.0
 41
12.8571428571
  0
LINE
  5
22B
100
AcDbEntity
  8
0
100
AcDbLine
 62
7
  6
CONTINUOUS
 10
-21.3242194855
 20
0.5
 30
0.0
 11
-21.3242194855
 21
44.0
 31
0.0
  0
LINE
  5
22C
100
AcDbEntity
  8
0
100
AcDbLine
 62
7
  6
CONTINUOUS
 10
-61.1242194855
 20
6.6342446924
 30
0.0
 11
-61.1242194855
 21
44.0
 31
0.0
  0
LINE
  5
22D
100
AcDbEntity
  8
0
100
AcDbLine
 62
7
  6
CONTINUOUS
 10
-21.3242194855
 20
42.5
 30
0.0
 11
-41.2242194855
 21
42.5
 31
0.0
  0
LINE
  5
22E
100
AcDbEntity
  8
0
100
AcDbLine
 62
7
  6
CONTINUOUS
 10
-61.1242194855
 20
42.5
 30
0.0
 11
-41.2242194855
 21
42.5
 31
0.0
  0
INSERT
  5
22F
100
AcDbEntity
  8
0
100
AcDbBlockReference
 62
7
  6
CONTINUOUS
  2
_FILLED
 10
-21.3242194855
 20
42.5
 30
0.0
 41
3.0
 42
3.0
 43
3.0
  0
INSERT
  5
230
100
AcDbEntity
  8
0
100
AcDbBlockReference
 62
7
  6
CONTINUOUS
  2
_FILLED
 10
-61.1242194855
 20
42.5
 30
0.0
 41
3.0
 42
3.0
 43
3.0
 50
180.0
  0
ENDBLK
  5
231
100
AcDbEntity
  8
0
  6
BYBLOCK
 62
0
100
AcDbBlockEnd
  0
BLOCK
  5
232
100
AcDbEntity
  8
0
100
AcDbBlockBegin
 62
7
  6
CONTINUOUS
  2
*D1
 70
65
 10
0.0
 20
0.0
 30
0.0
  3
*D1
  1

  0
MTEXT
  5
233
100
AcDbEntity
  8
0
100
AcDbMText
 62
7
  6
CONTINUOUS
  7
STANDARD
 71
2
 72
1
 10
-26.5742194855
 20
36.25
 30
0.0
 11
1.0
 21
0.0
 31
0.0
 73
2
 44
0.9
  1
{\ftxt;\W0.0001;\H0.0001;\~}{\ftxt;\W2.6428571429;\H3.0; }{\ftxt;\W0.0001;\H0.0001;\~}
 40
3.0
 41
11.8928571429
  0
LINE
  5
234
100
AcDbEntity
  8
0
100
AcDbLine
 62
7
  6
CONTINUOUS
 10
-21.3242194855
 20
0.5
 30
0.0
 11
-21.3242194855
 21
34.0
 31
0.0
  0
LINE
  5
235
100
AcDbEntity
  8
0
100
AcDbLine
 62
7
  6
CONTINUOUS
 10
-31.8242194855
 20
22.8912731322
 30
0.0
 11
-31.8242194855
 21
34.0
 31
0.0
  0
LINE
  5
236
100
AcDbEntity
  8
0
100
AcDbLine
 62
7
  6
CONTINUOUS
 10
-21.3242194855
 20
32.5
 30
0.0
 11
-17.3242194855
 21
32.5
 31
0.0
  0
LINE
  5
237
100
AcDbEntity
  8
0
100
AcDbLine
 62
7
  6
CONTINUOUS
 10
-17.3242194855
 20
32.5
 30
0.0
 11
-26.5742194855
 21
32.5
 31
0.0
  0
LINE
  5
238
100
AcDbEntity
  8
0
100
AcDbLine
 62
7
  6
CONTINUOUS
 10
-31.8242194855
 20
32.5
 30
0.0
 11
-35.8242194855
 21
32.5
 31
0.0
  0
LINE
  5
239
100
AcDbEntity
  8
0
100
AcDbLine
 62
7
  6
CONTINUOUS
 10
-35.8242194855
 20
32.5
 30
0.0
 11
-26.5742194855
 21
32.5
 31
0.0
  0
INSERT
  5
23A
100
AcDbEntity
  8
0
100
AcDbBlockReference
 62
7
  6
CONTINUOUS
  2
_FILLED
 10
-21.3242194855
 20
32.5
 30
0.0
 41
3.0
 42
3.0
 43
3.0
 50
180.0
  0
INSERT
  5
23B
100
AcDbEntity
  8
0
100
AcDbBlockReference
 62
7
  6
CONTINUOUS
  2
_FILLED
 10
-31.8242194855
 20
32.5
 30
0.0
 41
3.0
 42
3.0
 43
3.0
  0
ENDBLK
  5
23C
100
AcDbEntity
  8
0
  6
BYBLOCK
 62
0
100
AcDbBlockEnd
  0
BLOCK
  5
23D
100
AcDbEntity
  8
0
100
AcDbBlockBegin
 62
7
  6
CONTINUOUS
  2
*D2
 70
65
 10
0.0
 20
0.0
 30
0.0
  3
*D2
  1

  0
MTEXT
  5
23E
100
AcDbEntity
  8
0
100
AcDbMText
 62
7
  6
CONTINUOUS
  7
STANDARD
 71
2
 72
1
 10
0.675
 20
36.25
 30
0.0
 11
1.0
 21
0.0
 31
0.0
 73
2
 44
0.9
  1
{\ftxt;\W0.0001;\H0.0001;\~}{\ftxt;\W2.8571428571;\H3.0; }{\ftxt;\W0.0001;\H0.0001;\~}
 40
3.0
 41
12.8571428571
  0
LINE
  5
23F
100
AcDbEntity
  8
0
100
AcDbLine
 62
7
  6
CONTINUOUS
 10
11.825
 20
22.3911779406
 30
0.0
 11
11.825
 21
34.0
 31
0.0
  0
LINE
  5
240
100
AcDbEntity
  8
0
100
AcDbLine
 62
7
  6
CONTINUOUS
 10
-10.475
 20
22.3911779406
 30
0.0
 11
-10.475
 21
34.0
 31
0.0
  0
LINE
  5
241
100
AcDbEntity
  8
0
100
AcDbLine
 62
7
  6
CONTINUOUS
 10
11.825
 20
32.5
 30
0.0
 11
0.675
 21
32.5
 31
0.0
  0
LINE
  5
242
100
AcDbEntity
  8
0
100
AcDbLine
 62
7
  6
CONTINUOUS
 10
-10.475
 20
32.5
 30
0.0
 11
0.675
 21
32.5
 31
0.0
  0
INSERT
  5
243
100
AcDbEntity
  8
0
100
AcDbBlockReference
 62
7
  6
CONTINUOUS
  2
_FILLED
 10
11.825
 20
32.5
 30
0.0
 41
3.0
 42
3.0
 43
3.0
  0
INSERT
  5
244
100
AcDbEntity
  8
0
100
AcDbBlockReference
 62
7
  6
CONTINUOUS
  2
_FILLED
 10
-10.475
 20
32.5
 30
0.0
 41
3.0
 42
3.0
 43
3.0
 50
180.0
  0
ENDBLK
  5
245
100
AcDbEntity
  8
0
  6
BYBLOCK
 62
0
100
AcDbBlockEnd
  0
BLOCK
  5
246
100
AcDbEntity
  8
0
100
AcDbBlockBegin
 62
7
  6
CONTINUOUS
  2
*D3
 70
65
 10
0.0
 20
0.0
 30
0.0
  3
*D3
  1

  0
MTEXT
  5
247
100
AcDbEntity
  8
0
100
AcDbMText
 62
7
  6
CONTINUOUS
  7
STANDARD
 71
2
 72
1
 10
15.7843193205
 20
0.0
 30
0.0
 11
0.0
 21
1.0
 31
0.0
 73
2
 44
0.9
  1
{\ftxt;\W0.0001;\H0.0001;\~}{\ftxt;\W1.5714285714;\H3.0; }{\ftxt;\W0.0001;\H0.0001;\~}
 40
3.0
 41
7.0714285714
  0
LINE
  5
248
100
AcDbEntity
  8
0
100
AcDbLine
 62
7
  6
CONTINUOUS
 10
11.5750042308
 20
24.5
 30
0.0
 11
21.0343193205
 21
24.5
 31
0.0
  0
LINE
  5
249
100
AcDbEntity
  8
0
100
AcDbLine
 62
7
  6
CONTINUOUS
 10
11.5750042308
 20
-24.5
 30
0.0
 11
21.0343193205
 21
-24.5
 31
0.0
  0
LINE
  5
24A
100
AcDbEntity
  8
0
100
AcDbLine
 62
7
  6
CONTINUOUS
 10
19.5343193205
 20
24.5
 30
0.0
 11
19.5343193205
 21
0.0
 31
0.0
  0
LINE
  5
24B
100
AcDbEntity
  8
0
100
AcDbLine
 62
7
  6
CONTINUOUS
 10
19.5343193205
 20
-24.5
 30
0.0
 11
19.5343193205
 21
0.0
 31
0.0
  0
INSERT
  5
24C
100
AcDbEntity
  8
0
100
AcDbBlockReference
 62
7
  6
CONTINUOUS
  2
_FILLED
 10
19.5343193205
 20
24.5
 30
0.0
 41
3.0
 42
3.0
 43
3.0
 50
90.0
  0
INSERT
  5
24D
100
AcDbEntity
  8
0
100
AcDbBlockReference
 62
7
  6
CONTINUOUS
  2
_FILLED
 10
19.5343193205
 20
-24.5
 30
0.0
 41
3.0
 42
3.0
 43
3.0
 50
270.0
  0
ENDBLK
  5
24E
100
AcDbEntity
  8
0
  6
BYBLOCK
 62
0
100
AcDbBlockEnd
  0
ENDSEC
  0
SECTION
  2
ENTITIES
  0
DIMENSION
  5
24F
100
AcDbEntity
  8
0
100
AcDbDimension
 62
7
  6
CONTINUOUS
  2
*D0
 10
-61.1242194855
 20
42.5
 30
0.0
 11
-41.6527908936
 21
42.5
 31
0.0
 70
160
 71
2
 72
2
 41
0.9
 42
39.8
  1
{\ftxt;\W0.0001;\H0.0001;\~}{\ftxt;\W2.8571428571;\H3.0; }{\ftxt;\W0.0001;\H0.0001;\~}
  3
DIMSTYLE_1
100
AcDbAlignedDimension
 13
-21.3242194855
 23
0.0
 33
0.0
 14
-61.1242194855
 24
6.1342446924
 34
0.0
 50
180.0
100
AcDbRotatedDimension
  0
DIMENSION
  5
250
100
AcDbEntity
  8
0
100
AcDbDimension
 62
7
  6
CONTINUOUS
  2
*D1
 10
-31.8242194855
 20
32.5
 30
0.0
 11
-27.002791626
 21
32.5
 31
0.0
 70
160
 71
2
 72
2
 41
0.9
 42
10.5
  1
{\ftxt;\W0.0001;\H0.0001;\~}{\ftxt;\W2.6428571429;\H3.0; }{\ftxt;\W0.0001;\H0.0001;\~}
  3
DIMSTYLE_1
100
AcDbAlignedDimension
 13
-21.3242194855
 23
0.0
 33
0.0
 14
-31.8242194855
 24
22.3912731322
 34
0.0
 50
180.0
100
AcDbRotatedDimension
  0
DIMENSION
  5
251
100
AcDbEntity
  8
0
100
AcDbDimension
 62
7
  6
CONTINUOUS
  2
*D2
 10
-10.475
 20
32.5
 30
0.0
 11
0.2464279785
 21
32.5
 31
0.0
 70
160
 71
2
 72
2
 41
0.9
 42
22.3
  1
{\ftxt;\W0.0001;\H0.0001;\~}{\ftxt;\W2.8571428571;\H3.0; }{\ftxt;\W0.0001;\H0.0001;\~}
  3
DIMSTYLE_1
100
AcDbAlignedDimension
 13
11.825
 23
21.8911779406
 33
0.0
 14
-10.475
 24
21.8911779406
 34
0.0
 50
180.0
100
AcDbRotatedDimension
  0
DIMENSION
  5
252
100
AcDbEntity
  8
0
100
AcDbDimension
 62
7
  6
CONTINUOUS
  2
*D3
 10
19.5343193205
 20
-24.5
 30
0.0
 11
19.5343193205
 21
-0.4285700878
 31
0.0
 70
160
 71
2
 72
2
 41
0.9
 42
49.0
  1
{\ftxt;\W0.0001;\H0.0001;\~}{\ftxt;\W1.5714285714;\H3.0; }{\ftxt;\W0.0001;\H0.0001;\~}
  3
DIMSTYLE_1
100
AcDbAlignedDimension
 13
11.0750042308
 23
24.5
 33
0.0
 14
11.0750042308
 24
-24.5
 34
0.0
 50
270.0
100
AcDbRotatedDimension
  0
LWPOLYLINE
  5
253
100
AcDbEntity
  8
0
100
AcDbPolyline
 62
7
  6
CONTINUOUS
 90
5
 70
0
 43
0.3500000019
 10
3.6749985352
 20
34.9642868652
 10
4.032144043
 20
35.1785720215
 10
4.032144043
 20
35.8214274902
 10
3.6749985352
 20
36.2500004883
 10
2.8178579102
 20
36.2500004883
  0
LINE
  5
254
100
AcDbEntity
  8
RACCORDO
100
AcDbLine
 62
7
  6
CONTINUOUS
 10
-10.1810139878
 20
22.3472253447
 30
0.0
 11
-10.1985170098
 21
22.3384745002
 31
0.0
  0
LINE
  5
255
100
AcDbEntity
  8
RACCORDO
100
AcDbLine
 62
250
  6
CONTINUOUS
 10
-10.4575830976
 20
21.8998857286
 30
0.0
 11
-10.475
 21
21.8911779406
 31
0.0
  0
LINE
  5
256
100
AcDbEntity
  8
RACCORDO
100
AcDbLine
 62
7
  6
CONTINUOUS
 10
11.0750042308
 20
-24.5
 30
0.0
 11
9.1749957692
 21
-24.5
 31
0.0
  0
LINE
  5
257
100
AcDbEntity
  8
RACCORDO
100
AcDbLine
 62
7
  6
CONTINUOUS
 10
-7.8249957692
 20
-24.5
 30
0.0
 11
-9.7250042308
 21
-24.5
 31
0.0
  0
LINE
  5
258
100
AcDbEntity
  8
RACCORDO
100
AcDbLine
 62
250
  6
CONTINUOUS
 10
-9.7119056521
 20
-24.4869014213
 30
0.0
 11
-7.8380943479
 21
-24.4869014213
 31
0.0
  0
LINE
  5
259
100
AcDbEntity
  8
RACCORDO
100
AcDbLine
 62
250
  6
CONTINUOUS
 10
9.1880943479
 20
-24.4869014213
 30
0.0
 11
11.0619056521
 21
-24.4869014213
 31
0.0
  0
LINE
  5
25A
100
AcDbEntity
  8
RACCORDO
100
AcDbLine
 62
250
  6
CONTINUOUS
 10
-9.9619014213
 20
-24.2369056521
 30
0.0
 11
-7.5880985787
 21
-24.2369056521
 31
0.0
  0
LINE
  5
25B
100
AcDbEntity
  8
RACCORDO
100
AcDbLine
 62
250
  6
CONTINUOUS
 10
8.9380985787
 20
-24.2369056521
 30
0.0
 11
11.3119014213
 21
-24.2369056521
 31
0.0
  0
LINE
  5
25C
100
AcDbEntity
  8
RACCORDO
100
AcDbLine
 62
250
  6
CONTINUOUS
 10
-9.9619014213
 20
-23.8443375673
 30
0.0
 11
-7.5880985787
 21
-23.8443375673
 31
0.0
  0
LINE
  5
25D
100
AcDbEntity
  8
RACCORDO
100
AcDbLine
 62
250
  6
CONTINUOUS
 10
8.9380985787
 20
-23.8443375673
 30
0.0
 11
11.3119014213
 21
-23.8443375673
 31
0.0
  0
LINE
  5
25E
100
AcDbEntity
  8
DRAFT
100
AcDbLine
 62
7
  6
CONTINUOUS
 10
5.075
 20
-23.8
 30
0.0
 11
-3.725
 21
-23.8
 31
0.0
  0
LINE
  5
25F
100
AcDbEntity
  8
RACCORDO
100
AcDbLine
 62
250
  6
CONTINUOUS
 10
-3.6212073137
 20
-23.7953389668
 30
0.0
 11
4.9712073137
 21
-23.7953389668
 31
0.0
  0
LINE
  5
260
100
AcDbEntity
  8
RACCORDO
100
AcDbLine
 62
250
  6
CONTINUOUS
 10
11.0619056521
 20
-23.6278312164
 30
0.0
 11
9.1880943479
 21
-23.6278312164
 31
0.0
  0
LINE
  5
261
100
AcDbEntity
  8
RACCORDO
100
AcDbLine
 62
250
  6
CONTINUOUS
 10
-7.8380943479
 20
-23.6278312164
 30
0.0
 11
-9.7119056521
 21
-23.6278312164
 31
0.0
  0
LINE
  5
262
100
AcDbEntity
  8
RACCORDO
100
AcDbLine
 62
250
  6
CONTINUOUS
 10
-3.2220826234
 20
-23.5953423515
 30
0.0
 11
4.5720826234
 21
-23.5953423515
 31
0.0
  0
LINE
  5
263
100
AcDbEntity
  8
RACCORDO
100
AcDbLine
 62
7
  6
CONTINUOUS
 10
-10.1985170098
 20
-22.3384745002
 30
0.0
 11
-10.1810139878
 21
-22.3472253447
 31
0.0
  0
LINE
  5
264
100
AcDbEntity
  8
RACCORDO
100
AcDbLine
 62
250
  6
CONTINUOUS
 10
-10.475
 20
-21.8911779406
 30
0.0
 11
-10.4575830976
 21
-21.8998857286
 31
0.0
  0
LINE
  5
265
100
AcDbEntity
  8
RACCORDO
100
AcDbLine
 62
250
  6
CONTINUOUS
 10
-7.8249957692
 20
24.5
 30
0.0
 11
-7.8380943479
 21
24.4869014213
 31
0.0
  0
LINE
  5
266
100
AcDbEntity
  8
RACCORDO
100
AcDbLine
 62
250
  6
CONTINUOUS
 10
-7.575
 20
24.2500042308
 30
0.0
 11
-7.5880985787
 21
24.2369056521
 31
0.0
  0
LINE
  5
267
100
AcDbEntity
  8
RACCORDO
100
AcDbLine
 62
7
  6
CONTINUOUS
 10
11.0677234819
 20
-23.1226497308
 30
0.0
 11
9.1822765181
 21
-23.1226497308
 31
0.0
  0
LINE
  5
268
100
AcDbEntity
  8
RACCORDO
100
AcDbLine
 62
7
  6
CONTINUOUS
 10
-7.8322765181
 20
-23.1226497308
 30
0.0
 11
-9.7177234819
 21
-23.1226497308
 31
0.0
  0
LINE
  5
269
100
AcDbEntity
  8
DRAFT
100
AcDbLine
 62
7
  6
CONTINUOUS
 10
-7.575
 20
-22.4
 30
0.0
 11
-3.725
 21
-22.4
 31
0.0
  0
LINE
  5
26A
100
AcDbEntity
  8
DRAFT
100
AcDbLine
 62
7
  6
CONTINUOUS
 10
5.075
 20
-22.4
 30
0.0
 11
8.925
 21
-22.4
 31
0.0
  0
LINE
  5
26B
100
AcDbEntity
  8
RACCORDO
100
AcDbLine
 62
7
  6
CONTINUOUS
 10
-3.2220826234
 20
-22.3475922207
 30
0.0
 11
4.5720826234
 21
-22.3475922207
 31
0.0
  0
LINE
  5
26C
100
AcDbEntity
  8
RACCORDO
100
AcDbLine
 62
7
  6
CONTINUOUS
 10
11.0677234819
 20
-22.3213883311
 30
0.0
 11
9.1822765181
 21
-22.3213883311
 31
0.0
  0
LINE
  5
26D
100
AcDbEntity
  8
RACCORDO
100
AcDbLine
 62
7
  6
CONTINUOUS
 10
-7.8322765181
 20
-22.3213883311
 30
0.0
 11
-9.7177234819
 21
-22.3213883311
 31
0.0
  0
LINE
  5
26E
100
AcDbEntity
  8
RACCORDO
100
AcDbLine
 62
7
  6
CONTINUOUS
 10
9.875
 20
-22.2
 30
0.0
 11
-8.525
 21
-22.2
 31
0.0
  0
LINE
  5
26F
100
AcDbEntity
  8
0
100
AcDbLine
 62
7
  6
CONTINUOUS
 10
-8.825
 20
-22.1379611036
 30
0.0
 11
-8.6897145093
 21
-22.1379611036
 31
0.0
  0
LINE
  5
270
100
AcDbEntity
  8
0
100
AcDbLine
 62
7
  6
CONTINUOUS
 10
10.039714702
 20
-22.1379611036
 30
0.0
 11
10.175
 21
-22.1379611036
 31
0.0
  0
LINE
  5
271
100
AcDbEntity
  8
RACCORDO
100
AcDbLine
 62
250
  6
CONTINUOUS
 10
-8.525
 20
-22.0611911777
 30
0.0
 11
9.875
 21
-22.0611911777
 31
0.0
  0
LINE
  5
272
100
AcDbEntity
  8
ASSI
100
AcDbLine
 62
250
  6
CONTINUOUS
 10
11.1742759622
 20
-21.998725222
 30
0.0
 11
10.175
 21
-21.998725222
 31
0.0
  0
LINE
  5
273
100
AcDbEntity
  8
ASSI
100
AcDbLine
 62
250
  6
CONTINUOUS
 10
-8.825
 20
-21.998725222
 30
0.0
 11
-9.8242759622
 21
-21.998725222
 31
0.0
  0
LINE
  5
274
100
AcDbEntity
  8
SMUSSO
100
AcDbLine
 62
7
  6
CONTINUOUS
 10
10.175
 20
-21.7
 30
0.0
 11
10.125
 21
-21.7
 31
0.0
  0
LINE
  5
275
100
AcDbEntity
  8
SMUSSO
100
AcDbLine
 62
7
  6
CONTINUOUS
 10
-8.825
 20
-21.7
 30
0.0
 11
-8.775
 21
-21.7
 31
0.0
  0
LINE
  5
276
100
AcDbEntity
  8
RACCORDO
100
AcDbLine
 62
250
  6
CONTINUOUS
 10
-7.8249957692
 20
-24.5
 30
0.0
 11
-7.8380943479
 21
-24.4869014213
 31
0.0
  0
LINE
  5
277
100
AcDbEntity
  8
RACCORDO
100
AcDbLine
 62
250
  6
CONTINUOUS
 10
-7.575
 20
-24.2500042308
 30
0.0
 11
-7.5880985787
 21
-24.2369056521
 31
0.0
  0
LINE
  5
278
100
AcDbEntity
  8
SMUSSO
100
AcDbLine
 62
7
  6
CONTINUOUS
 10
10.175
 20
-21.3
 30
0.0
 11
10.125
 21
-21.3
 31
0.0
  0
LINE
  5
279
100
AcDbEntity
  8
SMUSSO
100
AcDbLine
 62
7
  6
CONTINUOUS
 10
-8.825
 20
-21.3
 30
0.0
 11
-8.775
 21
-21.3
 31
0.0
  0
LINE
  5
27A
100
AcDbEntity
  8
RACCORDO
100
AcDbLine
 62
250
  6
CONTINUOUS
 10
-8.525
 20
-20.6248213396
 30
0.0
 11
9.875
 21
-20.6248213396
 31
0.0
  0
LINE
  5
27B
100
AcDbEntity
  8
ASSI
100
AcDbLine
 62
250
  6
CONTINUOUS
 10
11.1577491915
 20
-20.5624683248
 30
0.0
 11
10.175
 21
-20.5624683248
 31
0.0
  0
LINE
  5
27C
100
AcDbEntity
  8
ASSI
100
AcDbLine
 62
250
  6
CONTINUOUS
 10
-8.825
 20
-20.5624683248
 30
0.0
 11
-9.8077491915
 21
-20.5624683248
 31
0.0
  0
LINE
  5
27D
100
AcDbEntity
  8
RACCORDO
100
AcDbLine
 62
7
  6
CONTINUOUS
 10
-8.825
 20
-20.4
 30
0.0
 11
-8.775
 21
-20.4
 31
0.0
  0
LINE
  5
27E
100
AcDbEntity
  8
RACCORDO
100
AcDbLine
 62
7
  6
CONTINUOUS
 10
10.125
 20
-20.4
 30
0.0
 11
10.175
 21
-20.4
 31
0.0
  0
LINE
  5
27F
100
AcDbEntity
  8
RACCORDO
100
AcDbLine
 62
250
  6
CONTINUOUS
 10
-8.825
 20
-19.9
 30
0.0
 11
-8.775
 21
-19.9
 31
0.0
  0
LINE
  5
280
100
AcDbEntity
  8
RACCORDO
100
AcDbLine
 62
250
  6
CONTINUOUS
 10
10.125
 20
-19.9
 30
0.0
 11
10.175
 21
-19.9
 31
0.0
  0
LINE
  5
281
100
AcDbEntity
  8
RACCORDO
100
AcDbLine
 62
250
  6
CONTINUOUS
 10
-8.525
 20
-15.7031206241
 30
0.0
 11
9.875
 21
-15.7031206241
 31
0.0
  0
LINE
  5
282
100
AcDbEntity
  8
ASSI
100
AcDbLine
 62
7
  6
CONTINUOUS
 10
-8.825
 20
-15.6
 30
0.0
 11
10.175
 21
-15.6
 31
0.0
  0
LINE
  5
283
100
AcDbEntity
  8
RACCORDO
100
AcDbLine
 62
7
  6
CONTINUOUS
 10
5.0720741618
 20
23.7970741618
 30
0.0
 11
5.075
 21
23.8
 31
0.0
  0
LINE
  5
284
100
AcDbEntity
  8
RACCORDO
100
AcDbLine
 62
7
  6
CONTINUOUS
 10
5.0720741618
 20
-23.7970741618
 30
0.0
 11
5.075
 21
-23.8
 31
0.0
  0
LINE
  5
285
100
AcDbEntity
  8
RACCORDO
100
AcDbLine
 62
250
  6
CONTINUOUS
 10
-9.9619014213
 20
-23.8443375673
 30
0.0
 11
-9.9677192511
 21
-23.2669872981
 31
0.0
  0
LINE
  5
286
100
AcDbEntity
  8
RACCORDO
100
AcDbLine
 62
250
  6
CONTINUOUS
 10
-9.7119056521
 20
-23.6278312164
 30
0.0
 11
-9.7169962532
 21
-23.1226497308
 31
0.0
  0
LINE
  5
287
100
AcDbEntity
  8
RACCORDO
100
AcDbLine
 62
7
  6
CONTINUOUS
 10
-10.475
 20
-21.8911779406
 30
0.0
 11
-10.475
 21
21.8911779406
 31
0.0
  0
LINE
  5
288
100
AcDbEntity
  8
RACCORDO
100
AcDbLine
 62
7
  6
CONTINUOUS
 10
-9.975
 20
-22.399689968
 30
0.0
 11
-9.975
 21
-24.2500042308
 31
0.0
  0
LINE
  5
289
100
AcDbEntity
  8
RACCORDO
100
AcDbLine
 62
7
  6
CONTINUOUS
 10
-9.975
 20
22.399689968
 30
0.0
 11
-9.975
 21
24.2500042308
 31
0.0
  0
LINE
  5
28A
100
AcDbEntity
  8
RACCORDO
100
AcDbLine
 62
250
  6
CONTINUOUS
 10
-9.9677192511
 20
23.2669872981
 30
0.0
 11
-9.9677192511
 21
22.3334109614
 31
0.0
  0
LINE
  5
28B
100
AcDbEntity
  8
RACCORDO
100
AcDbLine
 62
250
  6
CONTINUOUS
 10
-9.9677192511
 20
-22.3334109614
 30
0.0
 11
-9.9677192511
 21
-23.2669872981
 31
0.0
  0
LINE
  5
28C
100
AcDbEntity
  8
RACCORDO
100
AcDbLine
 62
250
  6
CONTINUOUS
 10
-9.9619014213
 20
24.2369056521
 30
0.0
 11
-9.9619014213
 21
23.8443375673
 31
0.0
  0
LINE
  5
28D
100
AcDbEntity
  8
RACCORDO
100
AcDbLine
 62
250
  6
CONTINUOUS
 10
-9.9619014213
 20
-23.8443375673
 30
0.0
 11
-9.9619014213
 21
-24.2369056521
 31
0.0
  0
LINE
  5
28E
100
AcDbEntity
  8
RACCORDO
100
AcDbLine
 62
250
  6
CONTINUOUS
 10
-9.7177234819
 20
23.1226497308
 30
0.0
 11
-9.7177234819
 21
22.3213883311
 31
0.0
  0
LINE
  5
28F
100
AcDbEntity
  8
RACCORDO
100
AcDbLine
 62
250
  6
CONTINUOUS
 10
-9.7177234819
 20
-22.3213883311
 30
0.0
 11
-9.7177234819
 21
-23.1226497308
 31
0.0
  0
LINE
  5
290
100
AcDbEntity
  8
RACCORDO
100
AcDbLine
 62
250
  6
CONTINUOUS
 10
-9.7119056521
 20
-23.6278312164
 30
0.0
 11
-9.7119056521
 21
-24.4869014213
 31
0.0
  0
LINE
  5
291
100
AcDbEntity
  8
RACCORDO
100
AcDbLine
 62
250
  6
CONTINUOUS
 10
-9.7119056521
 20
23.6278312164
 30
0.0
 11
-9.7119056521
 21
24.4869014213
 31
0.0
  0
LINE
  5
292
100
AcDbEntity
  8
ASSI
100
AcDbLine
 62
7
  6
CONTINUOUS
 10
-8.825
 20
-15.6
 30
0.0
 11
-8.825
 21
-22.1379611036
 31
0.0
  0
LINE
  5
293
100
AcDbEntity
  8
RACCORDO
100
AcDbLine
 62
250
  6
CONTINUOUS
 10
-9.9677192511
 20
23.2669872981
 30
0.0
 11
-9.9619014213
 21
23.8443375673
 31
0.0
  0
LINE
  5
294
100
AcDbEntity
  8
RACCORDO
100
AcDbLine
 62
250
  6
CONTINUOUS
 10
-9.7169962532
 20
23.1226497308
 30
0.0
 11
-9.7119056521
 21
23.6278312164
 31
0.0
  0
LINE
  5
295
100
AcDbEntity
  8
RACCORDO
100
AcDbLine
 62
7
  6
CONTINUOUS
 10
-7.575
 20
22.4
 30
0.0
 11
-7.5822807489
 21
22.3344140523
 31
0.0
  0
LWPOLYLINE
  5
296
100
AcDbEntity
  8
0
100
AcDbPolyline
 62
7
  6
CONTINUOUS
 90
3
 70
0
 43
0.3500000019
 10
1.8178569336
 20
33.5357155762
 10
1.7464267578
 20
33.3214277344
 10
1.6035717773
 20
33.0357150879
  0
LINE
  5
297
100
AcDbEntity
  8
RACCORDO
100
AcDbLine
 62
250
  6
CONTINUOUS
 10
11.0750042308
 20
24.5
 30
0.0
 11
11.0619056521
 21
24.4869014213
 31
0.0
  0
LINE
  5
298
100
AcDbEntity
  8
RACCORDO
100
AcDbLine
 62
250
  6
CONTINUOUS
 10
11.325
 20
24.2500042308
 30
0.0
 11
11.3119014213
 21
24.2369056521
 31
0.0
  0
LINE
  5
299
100
AcDbEntity
  8
RACCORDO
100
AcDbLine
 62
250
  6
CONTINUOUS
 10
11.0750042308
 20
-24.5
 30
0.0
 11
11.0619056521
 21
-24.4869014213
 31
0.0
  0
LINE
  5
29A
100
AcDbEntity
  8
RACCORDO
100
AcDbLine
 62
250
  6
CONTINUOUS
 10
11.325
 20
-24.2500042308
 30
0.0
 11
11.3119014213
 21
-24.2369056521
 31
0.0
  0
LINE
  5
29B
100
AcDbEntity
  8
RACCORDO
100
AcDbLine
 62
7
  6
CONTINUOUS
 10
-7.575
 20
-22.4
 30
0.0
 11
-7.5822807489
 21
-22.3344140523
 31
0.0
  0
LINE
  5
29C
100
AcDbEntity
  8
RACCORDO
100
AcDbLine
 62
250
  6
CONTINUOUS
 10
-7.8380943479
 20
23.6278312164
 30
0.0
 11
-7.8330037468
 21
23.1226497308
 31
0.0
  0
LINE
  5
29D
100
AcDbEntity
  8
RACCORDO
100
AcDbLine
 62
250
  6
CONTINUOUS
 10
-7.5880985787
 20
23.8443375673
 30
0.0
 11
-7.5822807489
 21
23.2669872981
 31
0.0
  0
LINE
  5
29E
100
AcDbEntity
  8
RACCORDO
100
AcDbLine
 62
7
  6
CONTINUOUS
 10
-8.775
 20
-21.9496569135
 30
0.0
 11
-8.775
 21
-15.85
 31
0.0
  0
LINE
  5
29F
100
AcDbEntity
  8
RACCORDO
100
AcDbLine
 62
250
  6
CONTINUOUS
 10
-8.525
 20
-22.2
 30
0.0
 11
-8.525
 21
-15.7031206241
 31
0.0
  0
LINE
  5
2A0
100
AcDbEntity
  8
RACCORDO
100
AcDbLine
 62
250
  6
CONTINUOUS
 10
-7.8380943479
 20
-23.6278312164
 30
0.0
 11
-7.8380943479
 21
-24.4869014213
 31
0.0
  0
LINE
  5
2A1
100
AcDbEntity
  8
RACCORDO
100
AcDbLine
 62
250
  6
CONTINUOUS
 10
-7.8380943479
 20
23.6278312164
 30
0.0
 11
-7.8380943479
 21
24.4869014213
 31
0.0
  0
LINE
  5
2A2
100
AcDbEntity
  8
RACCORDO
100
AcDbLine
 62
250
  6
CONTINUOUS
 10
-7.8322765181
 20
23.1226497308
 30
0.0
 11
-7.8322765181
 21
22.3213883311
 31
0.0
  0
LINE
  5
2A3
100
AcDbEntity
  8
RACCORDO
100
AcDbLine
 62
250
  6
CONTINUOUS
 10
-7.8322765181
 20
-22.3213883311
 30
0.0
 11
-7.8322765181
 21
-23.1226497308
 31
0.0
  0
LINE
  5
2A4
100
AcDbEntity
  8
RACCORDO
100
AcDbLine
 62
250
  6
CONTINUOUS
 10
-7.5880985787
 20
-24.2369056521
 30
0.0
 11
-7.5880985787
 21
-23.8443375673
 31
0.0
  0
LINE
  5
2A5
100
AcDbEntity
  8
RACCORDO
100
AcDbLine
 62
250
  6
CONTINUOUS
 10
-7.5880985787
 20
23.8443375673
 30
0.0
 11
-7.5880985787
 21
24.2369056521
 31
0.0
  0
LINE
  5
2A6
100
AcDbEntity
  8
RACCORDO
100
AcDbLine
 62
250
  6
CONTINUOUS
 10
-7.5822807489
 20
23.2669872981
 30
0.0
 11
-7.5822807489
 21
22.3344140523
 31
0.0
  0
LINE
  5
2A7
100
AcDbEntity
  8
RACCORDO
100
AcDbLine
 62
250
  6
CONTINUOUS
 10
-7.5822807489
 20
-22.3344140523
 30
0.0
 11
-7.5822807489
 21
-23.2669872981
 31
0.0
  0
LINE
  5
2A8
100
AcDbEntity
  8
RACCORDO
100
AcDbLine
 62
7
  6
CONTINUOUS
 10
-7.575
 20
22.4
 30
0.0
 11
-7.575
 21
24.2500042308
 31
0.0
  0
LINE
  5
2A9
100
AcDbEntity
  8
RACCORDO
100
AcDbLine
 62
7
  6
CONTINUOUS
 10
-7.575
 20
-22.4
 30
0.0
 11
-7.575
 21
-24.2500042308
 31
0.0
  0
LINE
  5
2AA
100
AcDbEntity
  8
RACCORDO
100
AcDbLine
 62
250
  6
CONTINUOUS
 10
-7.8330037468
 20
-23.1226497308
 30
0.0
 11
-7.8380943479
 21
-23.6278312164
 31
0.0
  0
LINE
  5
2AB
100
AcDbEntity
  8
RACCORDO
100
AcDbLine
 62
250
  6
CONTINUOUS
 10
-7.5822807489
 20
-23.2669872981
 30
0.0
 11
-7.5880985787
 21
-23.8443375673
 31
0.0
  0
LINE
  5
2AC
100
AcDbEntity
  8
RACCORDO
100
AcDbLine
 62
250
  6
CONTINUOUS
 10
-6.2843993763
 20
5.0144137901
 30
0.0
 11
-6.2844850761
 21
-3.9133984746
 31
0.0
  0
LINE
  5
2AD
100
AcDbEntity
  8
DRAFT
100
AcDbLine
 62
7
  6
CONTINUOUS
 10
-5.775
 20
4.5
 30
0.0
 11
-5.775
 21
-3.4
 31
0.0
  0
LINE
  5
2AE
100
AcDbEntity
  8
IMPORT_IGES
100
AcDbLine
 62
250
  6
CONTINUOUS
 10
-5.575
 20
-3.4
 30
0.0
 11
-5.575
 21
4.2
 31
0.0
  0
LINE
  5
2AF
100
AcDbEntity
  8
IMPORT_IGES
100
AcDbLine
 62
7
  6
CONTINUOUS
 10
-5.275
 20
3.9
 30
0.0
 11
-5.275
 21
-3.098298469
 31
0.0
  0
LINE
  5
2B0
100
AcDbEntity
  8
IMPORT_IGES
100
AcDbLine
 62
7
  6
CONTINUOUS
 10
-0.7057239609
 20
6.7
 30
0.0
 11
-0.907495549
 21
6.5
 31
0.0
  0
LINE
  5
2B1
100
AcDbEntity
  8
IMPORT_IGES
100
AcDbLine
 62
7
  6
CONTINUOUS
 10
-0.8105123953
 20
6.5377339252
 30
0.0
 11
-0.6468089773
 21
6.7
 31
0.0
  0
LINE
  5
2B2
100
AcDbEntity
  8
IMPORT_IGES
100
AcDbLine
 62
7
  6
CONTINUOUS
 10
-4.425
 20
-3.0528839596
 30
0.0
 11
-4.425
 21
-3.0
 31
0.0
  0
LINE
  5
2B3
100
AcDbEntity
  8
DRAFT
100
AcDbLine
 62
7
  6
CONTINUOUS
 10
-3.725
 20
-23.8
 30
0.0
 11
-3.725
 21
-22.4
 31
0.0
  0
LINE
  5
2B4
100
AcDbEntity
  8
IMPORT_IGES
100
AcDbLine
 62
7
  6
CONTINUOUS
 10
-3.725
 20
-2.4639629885
 30
0.0
 11
-3.725
 21
-1.1539629885
 31
0.0
  0
LINE
  5
2B5
100
AcDbEntity
  8
DRAFT
100
AcDbLine
 62
7
  6
CONTINUOUS
 10
-3.725
 20
22.4
 30
0.0
 11
-3.725
 21
23.8
 31
0.0
  0
LINE
  5
2B6
100
AcDbEntity
  8
RACCORDO
100
AcDbLine
 62
250
  6
CONTINUOUS
 10
-3.7220741618
 20
23.7970741618
 30
0.0
 11
-3.7220741618
 21
22.3736436632
 31
0.0
  0
LINE
  5
2B7
100
AcDbEntity
  8
RACCORDO
100
AcDbLine
 62
250
  6
CONTINUOUS
 10
-3.7220741618
 20
-22.3736436632
 30
0.0
 11
-3.7220741618
 21
-23.7970741618
 31
0.0
  0
LINE
  5
2B8
100
AcDbEntity
  8
RACCORDO
100
AcDbLine
 62
250
  6
CONTINUOUS
 10
-3.4842369883
 20
6.6158528412
 30
0.0
 11
-3.4843993763
 21
5.0144137901
 31
0.0
  0
LINE
  5
2B9
100
AcDbEntity
  8
IMPORT_IGES
100
AcDbLine
 62
7
  6
CONTINUOUS
 10
-3.725
 20
-2.4639629885
 30
0.0
 11
-3.7786037012
 21
-3.0
 31
0.0
  0
LINE
  5
2BA
100
AcDbEntity
  8
RACCORDO
100
AcDbLine
 62
250
  6
CONTINUOUS
 10
-6.2844850761
 20
-3.9133984746
 30
0.0
 11
7.6344850761
 21
-3.9133984746
 31
0.0
  0
LINE
  5
2BB
100
AcDbEntity
  8
RACCORDO
100
AcDbLine
 62
250
  6
CONTINUOUS
 10
-5.7845041146
 20
-3.4095041146
 30
0.0
 11
7.1345041146
 21
-3.4095041146
 31
0.0
  0
LINE
  5
2BC
100
AcDbEntity
  8
DRAFT
100
AcDbLine
 62
7
  6
CONTINUOUS
 10
-5.775
 20
-3.4
 30
0.0
 11
7.125
 21
-3.4
 31
0.0
  0
LINE
  5
2BD
100
AcDbEntity
  8
RACCORDO
100
AcDbLine
 62
250
  6
CONTINUOUS
 10
-3.2220826234
 20
23.5953423515
 30
0.0
 11
-3.2220826234
 21
22.3475922207
 31
0.0
  0
LINE
  5
2BE
100
AcDbEntity
  8
RACCORDO
100
AcDbLine
 62
250
  6
CONTINUOUS
 10
-3.2220826234
 20
-22.3475922207
 30
0.0
 11
-3.2220826234
 21
-23.5953423515
 31
0.0
  0
LINE
  5
2BF
100
AcDbEntity
  8
IMPORT_IGES
100
AcDbLine
 62
7
  6
CONTINUOUS
 10
-3.1406717474
 20
-0.9539629885
 30
0.0
 11
-3.1406717474
 21
-0.2239629885
 31
0.0
  0
LINE
  5
2C0
100
AcDbEntity
  8
0
100
AcDbLine
 62
7
  6
CONTINUOUS
 10
-3.125
 20
-3.0528839596
 30
0.0
 11
-3.125
 21
0.0
 31
0.0
  0
LINE
  5
2C1
100
AcDbEntity
  8
DRAFT
100
AcDbLine
 62
7
  6
CONTINUOUS
 10
-2.975
 20
6.1
 30
0.0
 11
-2.975
 21
4.5
 31
0.0
  0
LINE
  5
2C2
100
AcDbEntity
  8
IMPORT_IGES
100
AcDbLine
 62
250
  6
CONTINUOUS
 10
-2.775
 20
4.2
 30
0.0
 11
-2.775
 21
5.75
 31
0.0
  0
LINE
  5
2C3
100
AcDbEntity
  8
0
100
AcDbLine
 62
7
  6
CONTINUOUS
 10
-2.625
 20
-3.0528839596
 30
0.0
 11
-2.625
 21
0.0
 31
0.0
  0
LINE
  5
2C4
100
AcDbEntity
  8
IMPORT_IGES
100
AcDbLine
 62
7
  6
CONTINUOUS
 10
-2.475
 20
1.8791287847
 30
0.0
 11
-2.475
 21
5.45
 31
0.0
  0
LINE
  5
2C5
100
AcDbEntity
  8
0
100
AcDbLine
 62
7
  6
CONTINUOUS
 10
-2.125
 20
-3.0528839596
 30
0.0
 11
-2.125
 21
0.0
 31
0.0
  0
LINE
  5
2C6
100
AcDbEntity
  8
DRAFT
100
AcDbLine
 62
7
  6
CONTINUOUS
 10
-1.825
 20
7.45
 30
0.0
 11
-1.825
 21
6.1
 31
0.0
  0
LINE
  5
2C7
100
AcDbEntity
  8
IMPORT_IGES
100
AcDbLine
 62
250
  6
CONTINUOUS
 10
-1.65
 20
7.2091034656
 30
0.0
 11
-1.65
 21
5.75
 31
0.0
  0
LINE
  5
2C8
100
AcDbEntity
  8
0
100
AcDbLine
 62
7
  6
CONTINUOUS
 10
-1.625
 20
-3.0528839596
 30
0.0
 11
-1.625
 21
0.0
 31
0.0
  0
LINE
  5
2C9
100
AcDbEntity
  8
RACCORDO
100
AcDbLine
 62
250
  6
CONTINUOUS
 10
-2.3340651868
 20
7.967032219
 30
0.0
 11
-2.3342369883
 21
6.6158528412
 31
0.0
  0
LINE
  5
2CA
100
AcDbEntity
  8
IMPORT_IGES
100
AcDbLine
 62
7
  6
CONTINUOUS
 10
-0.8105301809
 20
6.5
 30
0.0
 11
-0.8028777456
 21
6.5300316482
 31
0.0
  0
LINE
  5
2CB
100
AcDbEntity
  8
RACCORDO
100
AcDbLine
 62
250
  6
CONTINUOUS
 10
-10.4575830976
 20
-21.8998857286
 30
0.0
 11
-10.3241998097
 21
-21.4994104546
 31
0.0
  0
LINE
  5
2CC
100
AcDbEntity
  8
RACCORDO
100
AcDbLine
 62
250
  6
CONTINUOUS
 10
-9.8242759622
 20
-21.998725222
 30
0.0
 11
-9.93391534
 21
-22.3279108386
 31
0.0
  0
LINE
  5
2CD
100
AcDbEntity
  8
IMPORT_IGES
100
AcDbLine
 62
7
  6
CONTINUOUS
 10
-3.1406717474
 20
-0.9539629885
 30
0.0
 11
-3.2406717474
 21
-1.1539629885
 31
0.0
  0
LINE
  5
2CE
100
AcDbEntity
  8
IMPORT_IGES
100
AcDbLine
 62
7
  6
CONTINUOUS
 10
2.7015995572
 20
5.4517836252
 30
0.0
 11
2.7
 21
5.45
 31
0.0
  0
LWPOLYLINE
  5
2CF
100
AcDbEntity
  8
IMPORT_IGES
100
AcDbPolyline
 62
7
  6
CONTINUOUS
 90
4
 70
0
 10
3.0
 20
5.75
 10
2.9665167584
 20
5.7159631916
 10
2.933891779
 20
5.6834612345
 10
2.9024972729
 20
5.6524941289
  0
LINE
  5
2D0
100
AcDbEntity
  8
IMPORT_IGES
100
AcDbLine
 62
7
  6
CONTINUOUS
 10
1.8989481265
 20
6.7
 30
0.0
 11
1.7007041597
 21
6.5
 31
0.0
  0
LINE
  5
2D1
100
AcDbEntity
  8
IMPORT_IGES
100
AcDbLine
 62
7
  6
CONTINUOUS
 10
2.1605123953
 20
6.5377339252
 30
0.0
 11
2.1231097803
 21
6.5
 31
0.0
  0
LINE
  5
2D2
100
AcDbEntity
  8
RACCORDO
100
AcDbLine
 62
7
  6
CONTINUOUS
 10
3.175
 20
7.45
 30
0.0
 11
3.1840842253
 21
7.4590842253
 31
0.0
  0
LINE
  5
2D3
100
AcDbEntity
  8
RACCORDO
100
AcDbLine
 62
7
  6
CONTINUOUS
 10
3.175
 20
6.1
 30
0.0
 11
3.1842560268
 21
6.1092560268
 31
0.0
  0
LINE
  5
2D4
100
AcDbEntity
  8
IMPORT_IGES
100
AcDbLine
 62
7
  6
CONTINUOUS
 10
3.0
 20
5.75
 30
0.0
 11
2.7
 21
5.45
 31
0.0
  0
LINE
  5
2D5
100
AcDbEntity
  8
RACCORDO
100
AcDbLine
 62
7
  6
CONTINUOUS
 10
-5.775
 20
-3.4
 30
0.0
 11
-5.7845041146
 21
-3.4095041146
 31
0.0
  0
LINE
  5
2D6
100
AcDbEntity
  8
IMPORT_IGES
100
AcDbLine
 62
7
  6
CONTINUOUS
 10
2.7141901061
 20
5.4641759775
 30
0.0
 11
2.7063578895
 21
5.456508951
 31
0.0
  0
LINE
  5
2D7
100
AcDbEntity
  8
IMPORT_IGES
100
AcDbLine
 62
7
  6
CONTINUOUS
 10
-5.275
 20
-3.0565628924
 30
0.0
 11
6.625
 21
-3.0565628924
 31
0.0
  0
LINE
  5
2D8
100
AcDbEntity
  8
IMPORT_IGES
100
AcDbLine
 62
7
  6
CONTINUOUS
 10
-5.275
 20
-3.0
 30
0.0
 11
-3.7786037012
 21
-3.0
 31
0.0
  0
LINE
  5
2D9
100
AcDbEntity
  8
IMPORT_IGES
100
AcDbLine
 62
7
  6
CONTINUOUS
 10
5.1286037012
 20
-3.0
 30
0.0
 11
6.625
 21
-3.0
 31
0.0
  0
LINE
  5
2DA
100
AcDbEntity
  8
IMPORT_IGES
100
AcDbLine
 62
7
  6
CONTINUOUS
 10
-2.5401464977
 20
-1.4023485547
 30
0.0
 11
-2.625
 21
-1.23264155
 31
0.0
  0
LINE
  5
2DB
100
AcDbEntity
  8
IMPORT_IGES
100
AcDbLine
 62
7
  6
CONTINUOUS
 10
-1.5206717474
 20
-1.4023485547
 30
0.0
 11
-1.6206717474
 21
-1.2023485547
 31
0.0
  0
LINE
  5
2DC
100
AcDbEntity
  8
RACCORDO
100
AcDbLine
 62
250
  6
CONTINUOUS
 10
-10.3241998097
 20
21.4994104546
 30
0.0
 11
-10.4575830976
 21
21.8998857286
 31
0.0
  0
LINE
  5
2DD
100
AcDbEntity
  8
RACCORDO
100
AcDbLine
 62
250
  6
CONTINUOUS
 10
-9.93391534
 20
22.3279108386
 30
0.0
 11
-9.8242759622
 21
21.998725222
 31
0.0
  0
LINE
  5
2DE
100
AcDbEntity
  8
IMPORT_IGES
100
AcDbLine
 62
7
  6
CONTINUOUS
 10
-1.35
 20
7.1287187079
 30
0.0
 11
-1.35
 21
5.45
 31
0.0
  0
LINE
  5
2DF
100
AcDbEntity
  8
0
100
AcDbLine
 62
7
  6
CONTINUOUS
 10
-1.125
 20
-3.0528839596
 30
0.0
 11
-1.125
 21
0.0
 31
0.0
  0
LINE
  5
2E0
100
AcDbEntity
  8
IMPORT_IGES
100
AcDbLine
 62
7
  6
CONTINUOUS
 10
-1.1001464977
 20
0.0
 30
0.0
 11
-1.1001464977
 21
0.4
 31
0.0
  0
LINE
  5
2E1
100
AcDbEntity
  8
IMPORT_IGES
100
AcDbLine
 62
7
  6
CONTINUOUS
 10
-0.75
 20
5.45
 30
0.0
 11
-0.75
 21
4.65
 31
0.0
  0
LINE
  5
2E2
100
AcDbEntity
  8
0
100
AcDbLine
 62
7
  6
CONTINUOUS
 10
-0.625
 20
-3.0528839596
 30
0.0
 11
-0.625
 21
0.0
 31
0.0
  0
LINE
  5
2E3
100
AcDbEntity
  8
0
100
AcDbLine
 62
7
  6
CONTINUOUS
 10
-0.125
 20
-3.0528839596
 30
0.0
 11
-0.125
 21
0.0
 31
0.0
  0
LINE
  5
2E4
100
AcDbEntity
  8
RACCORDO
100
AcDbLine
 62
7
  6
CONTINUOUS
 10
-3.725
 20
-22.4
 30
0.0
 11
-3.7220741618
 21
-22.3736436632
 31
0.0
  0
LINE
  5
2E5
100
AcDbEntity
  8
IMPORT_IGES
100
AcDbLine
 62
7
  6
CONTINUOUS
 10
-2.125
 20
-1.2110050598
 30
0.0
 11
-2.2206717475
 21
-1.4023485547
 31
0.0
  0
LINE
  5
2E6
100
AcDbEntity
  8
IMPORT_IGES
100
AcDbLine
 62
7
  6
CONTINUOUS
 10
-1.125
 20
-1.2520555593
 30
0.0
 11
-1.2001464977
 21
-1.4023485547
 31
0.0
  0
LWPOLYLINE
  5
2E7
100
AcDbEntity
  8
IMPORT_IGES
100
AcDbPolyline
 62
7
  6
CONTINUOUS
 90
4
 70
0
 10
4.125
 20
4.2
 10
4.0915167584
 20
4.1659631916
 10
4.058891779
 20
4.1334612345
 10
4.0274972729
 20
4.1024941289
  0
LINE
  5
2E8
100
AcDbEntity
  8
RACCORDO
100
AcDbLine
 62
7
  6
CONTINUOUS
 10
4.325
 20
6.1
 30
0.0
 11
4.3342560268
 21
6.1092560268
 31
0.0
  0
LINE
  5
2E9
100
AcDbEntity
  8
IMPORT_IGES
100
AcDbLine
 62
7
  6
CONTINUOUS
 10
3.825
 20
5.45
 30
0.0
 11
4.125
 21
5.75
 31
0.0
  0
LINE
  5
2EA
100
AcDbEntity
  8
RACCORDO
100
AcDbLine
 62
7
  6
CONTINUOUS
 10
4.325
 20
4.5
 30
0.0
 11
4.3344184148
 21
4.5094184148
 31
0.0
  0
LINE
  5
2EB
100
AcDbEntity
  8
IMPORT_IGES
100
AcDbLine
 62
7
  6
CONTINUOUS
 10
4.125
 20
4.2
 30
0.0
 11
3.825
 21
3.9
 31
0.0
  0
LINE
  5
2EC
100
AcDbEntity
  8
IMPORT_IGES
100
AcDbLine
 62
7
  6
CONTINUOUS
 10
3.8391901061
 20
3.9141759775
 30
0.0
 11
3.8313578895
 21
3.906508951
 31
0.0
  0
LWPOLYLINE
  5
2ED
100
AcDbEntity
  8
IMPORT_IGES
100
AcDbPolyline
 62
7
  6
CONTINUOUS
 90
3
 70
0
 10
3.825
 20
5.45
 10
3.8254311943
 20
5.4503979652
 10
3.8289525633
 20
5.4539525633
  0
LINE
  5
2EE
100
AcDbEntity
  8
IMPORT_IGES
100
AcDbLine
 62
7
  6
CONTINUOUS
 10
-2.5401464977
 20
-1.4023485547
 30
0.0
 11
-2.2206717474
 21
-1.4023485547
 31
0.0
  0
LINE
  5
2EF
100
AcDbEntity
  8
IMPORT_IGES
100
AcDbLine
 62
7
  6
CONTINUOUS
 10
-1.5206717474
 20
-1.4023485547
 30
0.0
 11
-1.2001464977
 21
-1.4023485547
 31
0.0
  0
LINE
  5
2F0
100
AcDbEntity
  8
IMPORT_IGES
100
AcDbLine
 62
7
  6
CONTINUOUS
 10
1.5393282525
 20
-1.4023485547
 30
0.0
 11
1.8593282526
 21
-1.4023485547
 31
0.0
  0
LWPOLYLINE
  5
2F1
100
AcDbEntity
  8
0
100
AcDbPolyline
 62
7
  6
CONTINUOUS
 90
2
 70
0
 43
0.3500000019
 10
18.7843203125
 20
-1.3571428757
 10
17.2843188477
 20
-1.3571428757
  0
LINE
  5
2F2
100
AcDbEntity
  8
IMPORT_IGES
100
AcDbLine
 62
7
  6
CONTINUOUS
 10
-3.725
 20
-1.1539629885
 30
0.0
 11
-3.2406717474
 21
-1.1539629885
 31
0.0
  0
LINE
  5
2F3
100
AcDbEntity
  8
IMPORT_IGES
100
AcDbLine
 62
7
  6
CONTINUOUS
 10
4.5993282526
 20
-1.1539629885
 30
0.0
 11
5.075
 21
-1.1539629885
 31
0.0
  0
LINE
  5
2F4
100
AcDbEntity
  8
IMPORT_IGES
100
AcDbLine
 62
7
  6
CONTINUOUS
 10
-3.1406717474
 20
-0.2239629885
 30
0.0
 11
-3.125
 21
-0.2239629885
 31
0.0
  0
LINE
  5
2F5
100
AcDbEntity
  8
IMPORT_IGES
100
AcDbLine
 62
7
  6
CONTINUOUS
 10
2.375
 20
-0.2239629885
 30
0.0
 11
2.8298535023
 21
-0.2239629885
 31
0.0
  0
LINE
  5
2F6
100
AcDbEntity
  8
IMPORT_IGES
100
AcDbLine
 62
7
  6
CONTINUOUS
 10
3.6298535023
 20
-0.2239629885
 30
0.0
 11
3.875
 21
-0.2239629885
 31
0.0
  0
LINE
  5
2F7
100
AcDbEntity
  8
IMPORT_IGES
100
AcDbLine
 62
7
  6
CONTINUOUS
 10
4.375
 20
-0.2239629885
 30
0.0
 11
4.4993282526
 21
-0.2239629885
 31
0.0
  0
LINE
  5
2F8
100
AcDbEntity
  8
0
100
AcDbLine
 62
7
  6
CONTINUOUS
 10
4.375
 20
0.0
 30
0.0
 11
3.875
 21
0.0
 31
0.0
  0
LINE
  5
2F9
100
AcDbEntity
  8
0
100
AcDbLine
 62
7
  6
CONTINUOUS
 10
3.375
 20
0.0
 30
0.0
 11
2.875
 21
0.0
 31
0.0
  0
LINE
  5
2FA
100
AcDbEntity
  8
0
100
AcDbLine
 62
7
  6
CONTINUOUS
 10
2.375
 20
0.0
 30
0.0
 11
1.875
 21
0.0
 31
0.0
  0
LINE
  5
2FB
100
AcDbEntity
  8
0
100
AcDbLine
 62
7
  6
CONTINUOUS
 10
1.375
 20
0.0
 30
0.0
 11
0.875
 21
0.0
 31
0.0
  0
LINE
  5
2FC
100
AcDbEntity
  8
0
100
AcDbLine
 62
7
  6
CONTINUOUS
 10
0.375
 20
0.0
 30
0.0
 11
-0.125
 21
0.0
 31
0.0
  0
LINE
  5
2FD
100
AcDbEntity
  8
0
100
AcDbLine
 62
7
  6
CONTINUOUS
 10
-0.625
 20
0.0
 30
0.0
 11
-1.125
 21
0.0
 31
0.0
  0
LINE
  5
2FE
100
AcDbEntity
  8
0
100
AcDbLine
 62
7
  6
CONTINUOUS
 10
-1.625
 20
0.0
 30
0.0
 11
-2.125
 21
0.0
 31
0.0
  0
LINE
  5
2FF
100
AcDbEntity
  8
0
100
AcDbLine
 62
7
  6
CONTINUOUS
 10
-2.625
 20
0.0
 30
0.0
 11
-3.125
 21
0.0
 31
0.0
  0
LINE
  5
300
100
AcDbEntity
  8
IMPORT_IGES
100
AcDbLine
 62
7
  6
CONTINUOUS
 10
-5.275
 20
3.9
 30
0.0
 11
-5.2767389319
 21
3.9015792026
 31
0.0
  0
LINE
  5
301
100
AcDbEntity
  8
IMPORT_IGES
100
AcDbLine
 62
7
  6
CONTINUOUS
 10
-5.275
 20
3.9
 30
0.0
 11
-5.575
 21
4.2
 31
0.0
  0
LINE
  5
302
100
AcDbEntity
  8
RACCORDO
100
AcDbLine
 62
7
  6
CONTINUOUS
 10
-5.775
 20
4.5
 30
0.0
 11
-5.7844184148
 21
4.5094184148
 31
0.0
  0
LWPOLYLINE
  5
303
100
AcDbEntity
  8
IMPORT_IGES
100
AcDbPolyline
 62
7
  6
CONTINUOUS
 90
4
 70
0
 10
-5.477316752
 20
4.1023199554
 10
-5.5083377088
 20
4.1337710804
 10
-5.5408987914
 20
4.1664559013
 10
-5.575
 20
4.2
  0
LINE
  5
304
100
AcDbEntity
  8
IMPORT_IGES
100
AcDbLine
 62
7
  6
CONTINUOUS
 10
-5.2814176673
 20
3.9062861475
 30
0.0
 11
-5.2890362063
 21
3.914050665
 31
0.0
  0
LINE
  5
305
100
AcDbEntity
  8
RACCORDO
100
AcDbLine
 62
7
  6
CONTINUOUS
 10
-3.725
 20
22.4
 30
0.0
 11
-3.7220741618
 21
22.3736436632
 31
0.0
  0
LINE
  5
306
100
AcDbEntity
  8
0
100
AcDbLine
 62
7
  6
CONTINUOUS
 10
0.375
 20
-3.0528839596
 30
0.0
 11
0.375
 21
0.0
 31
0.0
  0
LINE
  5
307
100
AcDbEntity
  8
0
100
AcDbLine
 62
7
  6
CONTINUOUS
 10
0.875
 20
-3.0528839596
 30
0.0
 11
0.875
 21
0.0
 31
0.0
  0
LINE
  5
308
100
AcDbEntity
  8
0
100
AcDbLine
 62
7
  6
CONTINUOUS
 10
1.375
 20
-3.0528839596
 30
0.0
 11
1.375
 21
0.0
 31
0.0
  0
LINE
  5
309
100
AcDbEntity
  8
IMPORT_IGES
100
AcDbLine
 62
7
  6
CONTINUOUS
 10
1.4393282525
 20
0.4
 30
0.0
 11
1.4393282525
 21
-1.2023485547
 31
0.0
  0
LINE
  5
30A
100
AcDbEntity
  8
0
100
AcDbLine
 62
7
  6
CONTINUOUS
 10
1.875
 20
-3.0528839596
 30
0.0
 11
1.875
 21
0.0
 31
0.0
  0
LINE
  5
30B
100
AcDbEntity
  8
IMPORT_IGES
100
AcDbLine
 62
7
  6
CONTINUOUS
 10
3.8265995572
 20
3.9017836252
 30
0.0
 11
3.825
 21
3.9
 31
0.0
  0
LINE
  5
30C
100
AcDbEntity
  8
IMPORT_IGES
100
AcDbLine
 62
7
  6
CONTINUOUS
 10
6.6391759775
 20
3.9141901061
 30
0.0
 11
6.631508951
 21
3.9063578895
 31
0.0
  0
LINE
  5
30D
100
AcDbEntity
  8
RACCORDO
100
AcDbLine
 62
7
  6
CONTINUOUS
 10
7.125
 20
4.5
 30
0.0
 11
7.1344184148
 21
4.5094184148
 31
0.0
  0
LINE
  5
30E
100
AcDbEntity
  8
IMPORT_IGES
100
AcDbLine
 62
7
  6
CONTINUOUS
 10
6.925
 20
4.2
 30
0.0
 11
6.625
 21
3.9
 31
0.0
  0
LWPOLYLINE
  5
30F
100
AcDbEntity
  8
IMPORT_IGES
100
AcDbPolyline
 62
7
  6
CONTINUOUS
 90
4
 70
0
 10
6.925
 20
4.2
 10
6.8909631916
 20
4.1665167584
 10
6.8584612345
 20
4.133891779
 10
6.8274941289
 20
4.1024972729
  0
LINE
  5
310
100
AcDbEntity
  8
IMPORT_IGES
100
AcDbLine
 62
7
  6
CONTINUOUS
 10
6.6267836252
 20
3.9015995572
 30
0.0
 11
6.625
 21
3.9
 31
0.0
  0
LINE
  5
311
100
AcDbEntity
  8
IMPORT_IGES
100
AcDbLine
 62
7
  6
CONTINUOUS
 10
3.6298535023
 20
0.4
 30
0.0
 11
2.8298535023
 21
0.4
 31
0.0
  0
LINE
  5
312
100
AcDbEntity
  8
IMPORT_IGES
100
AcDbLine
 62
7
  6
CONTINUOUS
 10
1.4393282525
 20
0.4
 30
0.0
 11
-1.1001464977
 21
0.4
 31
0.0
  0
LINE
  5
313
100
AcDbEntity
  8
IMPORT_IGES
100
AcDbLine
 62
7
  6
CONTINUOUS
 10
-5.275
 20
1.8791287847
 30
0.0
 11
6.625
 21
1.8791287847
 31
0.0
  0
LINE
  5
314
100
AcDbEntity
  8
IMPORT_IGES
100
AcDbLine
 62
7
  6
CONTINUOUS
 10
-2.4812861475
 20
3.9064176673
 30
0.0
 11
-2.489050665
 21
3.9140362063
 31
0.0
  0
LWPOLYLINE
  5
315
100
AcDbEntity
  8
IMPORT_IGES
100
AcDbPolyline
 62
7
  6
CONTINUOUS
 90
4
 70
0
 10
-2.6773199554
 20
4.102316752
 10
-2.7087710804
 20
4.1333377088
 10
-2.7414559013
 20
4.1658987914
 10
-2.775
 20
4.2
  0
LINE
  5
316
100
AcDbEntity
  8
IMPORT_IGES
100
AcDbLine
 62
7
  6
CONTINUOUS
 10
-2.475
 20
3.9
 30
0.0
 11
-2.775
 21
4.2
 31
0.0
  0
LINE
  5
317
100
AcDbEntity
  8
RACCORDO
100
AcDbLine
 62
7
  6
CONTINUOUS
 10
-2.975
 20
4.5
 30
0.0
 11
-2.9844184148
 21
4.5094184148
 31
0.0
  0
LINE
  5
318
100
AcDbEntity
  8
IMPORT_IGES
100
AcDbLine
 62
7
  6
CONTINUOUS
 10
-2.475
 20
3.9
 30
0.0
 11
-2.4765792026
 21
3.9017389319
 31
0.0
  0
LINE
  5
319
100
AcDbEntity
  8
IMPORT_IGES
100
AcDbLine
 62
7
  6
CONTINUOUS
 10
1.5393282525
 20
-1.4023485547
 30
0.0
 11
1.4393282525
 21
-1.2023485547
 31
0.0
  0
LINE
  5
31A
100
AcDbEntity
  8
IMPORT_IGES
100
AcDbLine
 62
7
  6
CONTINUOUS
 10
2.1
 20
4.65
 30
0.0
 11
2.1
 21
5.45
 31
0.0
  0
LINE
  5
31B
100
AcDbEntity
  8
0
100
AcDbLine
 62
7
  6
CONTINUOUS
 10
2.375
 20
-3.0528839596
 30
0.0
 11
2.375
 21
0.0
 31
0.0
  0
LINE
  5
31C
100
AcDbEntity
  8
IMPORT_IGES
100
AcDbLine
 62
7
  6
CONTINUOUS
 10
2.7
 20
5.45
 30
0.0
 11
2.7
 21
7.1287187079
 31
0.0
  0
LINE
  5
31D
100
AcDbEntity
  8
IMPORT_IGES
100
AcDbLine
 62
7
  6
CONTINUOUS
 10
2.8298535023
 20
-0.2239629885
 30
0.0
 11
2.8298535023
 21
0.4
 31
0.0
  0
LINE
  5
31E
100
AcDbEntity
  8
0
100
AcDbLine
 62
7
  6
CONTINUOUS
 10
2.875
 20
-3.0528839596
 30
0.0
 11
2.875
 21
0.0
 31
0.0
  0
LINE
  5
31F
100
AcDbEntity
  8
IMPORT_IGES
100
AcDbLine
 62
250
  6
CONTINUOUS
 10
3.0
 20
7.2091034656
 30
0.0
 11
3.0
 21
5.75
 31
0.0
  0
LINE
  5
320
100
AcDbEntity
  8
DRAFT
100
AcDbLine
 62
7
  6
CONTINUOUS
 10
3.175
 20
6.1
 30
0.0
 11
3.175
 21
7.45
 31
0.0
  0
LINE
  5
321
100
AcDbEntity
  8
0
100
AcDbLine
 62
7
  6
CONTINUOUS
 10
3.375
 20
-3.0528839596
 30
0.0
 11
3.375
 21
0.0
 31
0.0
  0
LINE
  5
322
100
AcDbEntity
  8
IMPORT_IGES
100
AcDbLine
 62
7
  6
CONTINUOUS
 10
3.6298535023
 20
0.4
 30
0.0
 11
3.6298535023
 21
-0.2239629885
 31
0.0
  0
LINE
  5
323
100
AcDbEntity
  8
RACCORDO
100
AcDbLine
 62
250
  6
CONTINUOUS
 10
3.6842369883
 20
6.6158528412
 30
0.0
 11
3.6840651868
 21
7.967032219
 31
0.0
  0
LINE
  5
324
100
AcDbEntity
  8
IMPORT_IGES
100
AcDbLine
 62
7
  6
CONTINUOUS
 10
3.825
 20
1.8791287848
 30
0.0
 11
3.825
 21
5.45
 31
0.0
  0
LINE
  5
325
100
AcDbEntity
  8
RACCORDO
100
AcDbLine
 62
7
  6
CONTINUOUS
 10
5.075
 20
22.4
 30
0.0
 11
5.0720741618
 21
22.3736436632
 31
0.0
  0
LINE
  5
326
100
AcDbEntity
  8
RACCORDO
100
AcDbLine
 62
250
  6
CONTINUOUS
 10
11.1742759622
 20
21.998725222
 30
0.0
 11
11.28391534
 21
22.3279108386
 31
0.0
  0
LINE
  5
327
100
AcDbEntity
  8
IMPORT_IGES
100
AcDbLine
 62
7
  6
CONTINUOUS
 10
1.875
 20
-1.3710050598
 30
0.0
 11
1.8593282526
 21
-1.4023485547
 31
0.0
  0
LINE
  5
328
100
AcDbEntity
  8
IMPORT_IGES
100
AcDbLine
 62
7
  6
CONTINUOUS
 10
-5.275
 20
2.65
 30
0.0
 11
-2.475
 21
2.65
 31
0.0
  0
LINE
  5
329
100
AcDbEntity
  8
IMPORT_IGES
100
AcDbLine
 62
7
  6
CONTINUOUS
 10
3.825
 20
2.65
 30
0.0
 11
6.625
 21
2.65
 31
0.0
  0
LINE
  5
32A
100
AcDbEntity
  8
IMPORT_IGES
100
AcDbLine
 62
7
  6
CONTINUOUS
 10
-1.3517836252
 20
5.4515995572
 30
0.0
 11
-1.35
 21
5.45
 31
0.0
  0
LINE
  5
32B
100
AcDbEntity
  8
IMPORT_IGES
100
AcDbLine
 62
7
  6
CONTINUOUS
 10
-2.4754290236
 20
5.450395119
 30
0.0
 11
-2.475
 21
5.45
 31
0.0
  0
LWPOLYLINE
  5
32C
100
AcDbEntity
  8
IMPORT_IGES
100
AcDbPolyline
 62
7
  6
CONTINUOUS
 90
4
 70
0
 10
-1.65
 20
5.75
 10
-1.6159631916
 20
5.7165167584
 10
-1.5834612345
 20
5.683891779
 10
-1.5524941289
 20
5.6524972729
  0
LINE
  5
32D
100
AcDbEntity
  8
IMPORT_IGES
100
AcDbLine
 62
7
  6
CONTINUOUS
 10
-2.775
 20
5.75
 30
0.0
 11
-2.475
 21
5.45
 31
0.0
  0
LINE
  5
32E
100
AcDbEntity
  8
RACCORDO
100
AcDbLine
 62
7
  6
CONTINUOUS
 10
-2.975
 20
6.1
 30
0.0
 11
-2.9842560268
 21
6.1092560268
 31
0.0
  0
LINE
  5
32F
100
AcDbEntity
  8
RACCORDO
100
AcDbLine
 62
7
  6
CONTINUOUS
 10
7.125
 20
-3.4
 30
0.0
 11
7.1345041146
 21
-3.4095041146
 31
0.0
  0
LINE
  5
330
100
AcDbEntity
  8
IMPORT_IGES
100
AcDbLine
 62
7
  6
CONTINUOUS
 10
-1.65
 20
5.75
 30
0.0
 11
-1.35
 21
5.45
 31
0.0
  0
LINE
  5
331
100
AcDbEntity
  8
RACCORDO
100
AcDbLine
 62
7
  6
CONTINUOUS
 10
-1.825
 20
6.1
 30
0.0
 11
-1.8342560268
 21
6.1092560268
 31
0.0
  0
LINE
  5
332
100
AcDbEntity
  8
IMPORT_IGES
100
AcDbLine
 62
7
  6
CONTINUOUS
 10
-2.4789341129
 20
5.4539341129
 30
0.0
 11
-2.4767326999
 21
5.45170649
 31
0.0
  0
LINE
  5
333
100
AcDbEntity
  8
IMPORT_IGES
100
AcDbLine
 62
7
  6
CONTINUOUS
 10
-1.3641759775
 20
5.4641901061
 30
0.0
 11
-1.356508951
 21
5.4563578895
 31
0.0
  0
LINE
  5
334
100
AcDbEntity
  8
IMPORT_IGES
100
AcDbLine
 62
7
  6
CONTINUOUS
 10
4.5993282526
 20
-1.1539629885
 30
0.0
 11
4.4993282526
 21
-0.9539629885
 31
0.0
  0
LINE
  5
335
100
AcDbEntity
  8
RACCORDO
100
AcDbLine
 62
250
  6
CONTINUOUS
 10
11.28391534
 20
-22.3279108386
 30
0.0
 11
11.1742759622
 21
-21.998725222
 31
0.0
  0
LINE
  5
336
100
AcDbEntity
  8
IMPORT_IGES
100
AcDbLine
 62
7
  6
CONTINUOUS
 10
2.1528777456
 20
6.5300316482
 30
0.0
 11
2.1605301809
 21
6.5
 31
0.0
  0
LINE
  5
337
100
AcDbEntity
  8
RACCORDO
100
AcDbLine
 62
7
  6
CONTINUOUS
 10
5.075
 20
-22.4
 30
0.0
 11
5.0720741618
 21
-22.3736436632
 31
0.0
  0
LINE
  5
338
100
AcDbEntity
  8
IMPORT_IGES
100
AcDbLine
 62
7
  6
CONTINUOUS
 10
5.1286037012
 20
-3.0
 30
0.0
 11
5.075
 21
-2.4639629885
 31
0.0
  0
LINE
  5
339
100
AcDbEntity
  8
0
100
AcDbLine
 62
7
  6
CONTINUOUS
 10
3.875
 20
-3.0528839596
 30
0.0
 11
3.875
 21
0.0
 31
0.0
  0
LINE
  5
33A
100
AcDbEntity
  8
IMPORT_IGES
100
AcDbLine
 62
250
  6
CONTINUOUS
 10
4.125
 20
5.75
 30
0.0
 11
4.125
 21
4.2
 31
0.0
  0
LINE
  5
33B
100
AcDbEntity
  8
DRAFT
100
AcDbLine
 62
7
  6
CONTINUOUS
 10
4.325
 20
4.5
 30
0.0
 11
4.325
 21
6.1
 31
0.0
  0
LINE
  5
33C
100
AcDbEntity
  8
0
100
AcDbLine
 62
7
  6
CONTINUOUS
 10
4.375
 20
-3.0528839596
 30
0.0
 11
4.375
 21
0.0
 31
0.0
  0
LINE
  5
33D
100
AcDbEntity
  8
IMPORT_IGES
100
AcDbLine
 62
7
  6
CONTINUOUS
 10
4.4993282526
 20
-0.2239629885
 30
0.0
 11
4.4993282526
 21
-0.9539629885
 31
0.0
  0
LINE
  5
33E
100
AcDbEntity
  8
RACCORDO
100
AcDbLine
 62
250
  6
CONTINUOUS
 10
4.5720826234
 20
-23.5953423515
 30
0.0
 11
4.5720826234
 21
-22.3475922207
 31
0.0
  0
LINE
  5
33F
100
AcDbEntity
  8
RACCORDO
100
AcDbLine
 62
250
  6
CONTINUOUS
 10
4.5720826234
 20
22.3475922207
 30
0.0
 11
4.5720826234
 21
23.5953423515
 31
0.0
  0
LINE
  5
340
100
AcDbEntity
  8
RACCORDO
100
AcDbLine
 62
250
  6
CONTINUOUS
 10
4.8343993763
 20
5.0144137901
 30
0.0
 11
4.8342369883
 21
6.6158528412
 31
0.0
  0
LINE
  5
341
100
AcDbEntity
  8
RACCORDO
100
AcDbLine
 62
250
  6
CONTINUOUS
 10
5.0720741618
 20
-23.7970741618
 30
0.0
 11
5.0720741618
 21
-22.3736436632
 31
0.0
  0
LINE
  5
342
100
AcDbEntity
  8
RACCORDO
100
AcDbLine
 62
250
  6
CONTINUOUS
 10
5.0720741618
 20
22.3736436632
 30
0.0
 11
5.0720741618
 21
23.7970741618
 31
0.0
  0
LINE
  5
343
100
AcDbEntity
  8
DRAFT
100
AcDbLine
 62
7
  6
CONTINUOUS
 10
5.075
 20
23.8
 30
0.0
 11
5.075
 21
22.4
 31
0.0
  0
LINE
  5
344
100
AcDbEntity
  8
IMPORT_IGES
100
AcDbLine
 62
7
  6
CONTINUOUS
 10
5.075
 20
-1.1539629885
 30
0.0
 11
5.075
 21
-2.4639629885
 31
0.0
  0
LINE
  5
345
100
AcDbEntity
  8
DRAFT
100
AcDbLine
 62
7
  6
CONTINUOUS
 10
5.075
 20
-22.4
 30
0.0
 11
5.075
 21
-23.8
 31
0.0
  0
LINE
  5
346
100
AcDbEntity
  8
RACCORDO
100
AcDbLine
 62
250
  6
CONTINUOUS
 10
11.8075830976
 20
21.8998857286
 30
0.0
 11
11.6741998097
 21
21.4994104546
 31
0.0
  0
LINE
  5
347
100
AcDbEntity
  8
IMPORT_IGES
100
AcDbLine
 62
7
  6
CONTINUOUS
 10
-2.475
 20
3.9
 30
0.0
 11
-5.275
 21
3.9
 31
0.0
  0
LINE
  5
348
100
AcDbEntity
  8
IMPORT_IGES
100
AcDbLine
 62
7
  6
CONTINUOUS
 10
3.825
 20
3.9
 30
0.0
 11
6.625
 21
3.9
 31
0.0
  0
LINE
  5
349
100
AcDbEntity
  8
IMPORT_IGES
100
AcDbLine
 62
250
  6
CONTINUOUS
 10
-5.575
 20
4.2
 30
0.0
 11
-2.775
 21
4.2
 31
0.0
  0
LINE
  5
34A
100
AcDbEntity
  8
IMPORT_IGES
100
AcDbLine
 62
250
  6
CONTINUOUS
 10
4.125
 20
4.2
 30
0.0
 11
6.925
 21
4.2
 31
0.0
  0
LINE
  5
34B
100
AcDbEntity
  8
DRAFT
100
AcDbLine
 62
7
  6
CONTINUOUS
 10
7.125
 20
4.5
 30
0.0
 11
4.325
 21
4.5
 31
0.0
  0
LINE
  5
34C
100
AcDbEntity
  8
DRAFT
100
AcDbLine
 62
7
  6
CONTINUOUS
 10
-2.975
 20
4.5
 30
0.0
 11
-5.775
 21
4.5
 31
0.0
  0
LINE
  5
34D
100
AcDbEntity
  8
RACCORDO
100
AcDbLine
 62
250
  6
CONTINUOUS
 10
7.1344184148
 20
4.5094184148
 30
0.0
 11
4.3344184148
 21
4.5094184148
 31
0.0
  0
LINE
  5
34E
100
AcDbEntity
  8
RACCORDO
100
AcDbLine
 62
250
  6
CONTINUOUS
 10
-2.9844184148
 20
4.5094184148
 30
0.0
 11
-5.7844184148
 21
4.5094184148
 31
0.0
  0
LINE
  5
34F
100
AcDbEntity
  8
IMPORT_IGES
100
AcDbLine
 62
7
  6
CONTINUOUS
 10
3.825
 20
4.65
 30
0.0
 11
2.1
 21
4.65
 31
0.0
  0
LINE
  5
350
100
AcDbEntity
  8
IMPORT_IGES
100
AcDbLine
 62
7
  6
CONTINUOUS
 10
-0.75
 20
4.65
 30
0.0
 11
-2.475
 21
4.65
 31
0.0
  0
LINE
  5
351
100
AcDbEntity
  8
RACCORDO
100
AcDbLine
 62
250
  6
CONTINUOUS
 10
7.6343993763
 20
5.0144137901
 30
0.0
 11
4.8343993763
 21
5.0144137901
 31
0.0
  0
LINE
  5
352
100
AcDbEntity
  8
RACCORDO
100
AcDbLine
 62
250
  6
CONTINUOUS
 10
-3.4843993763
 20
5.0144137901
 30
0.0
 11
-6.2843993763
 21
5.0144137901
 31
0.0
  0
LINE
  5
353
100
AcDbEntity
  8
IMPORT_IGES
100
AcDbLine
 62
7
  6
CONTINUOUS
 10
3.825
 20
5.45
 30
0.0
 11
2.7
 21
5.45
 31
0.0
  0
LINE
  5
354
100
AcDbEntity
  8
IMPORT_IGES
100
AcDbLine
 62
7
  6
CONTINUOUS
 10
2.1
 20
5.45
 30
0.0
 11
-0.75
 21
5.45
 31
0.0
  0
LINE
  5
355
100
AcDbEntity
  8
IMPORT_IGES
100
AcDbLine
 62
7
  6
CONTINUOUS
 10
-1.35
 20
5.45
 30
0.0
 11
-2.475
 21
5.45
 31
0.0
  0
LINE
  5
356
100
AcDbEntity
  8
RACCORDO
100
AcDbLine
 62
7
  6
CONTINUOUS
 10
-1.825
 20
7.45
 30
0.0
 11
-1.8340842253
 21
7.4590842253
 31
0.0
  0
LINE
  5
357
100
AcDbEntity
  8
IMPORT_IGES
100
AcDbLine
 62
7
  6
CONTINUOUS
 10
-0.7731097803
 20
6.5
 30
0.0
 11
-0.8105123953
 21
6.5377339252
 31
0.0
  0
LINE
  5
358
100
AcDbEntity
  8
IMPORT_IGES
100
AcDbLine
 62
7
  6
CONTINUOUS
 10
-0.3507041597
 20
6.5
 30
0.0
 11
-0.5489481265
 21
6.7
 31
0.0
  0
LINE
  5
359
100
AcDbEntity
  8
RACCORDO
100
AcDbLine
 62
250
  6
CONTINUOUS
 10
11.6741998097
 20
-21.4994104546
 30
0.0
 11
11.8075830976
 21
-21.8998857286
 31
0.0
  0
LINE
  5
35A
100
AcDbEntity
  8
IMPORT_IGES
100
AcDbLine
 62
7
  6
CONTINUOUS
 10
5.775
 20
-3.0
 30
0.0
 11
5.775
 21
-3.0528839596
 31
0.0
  0
LINE
  5
35B
100
AcDbEntity
  8
IMPORT_IGES
100
AcDbLine
 62
7
  6
CONTINUOUS
 10
6.625
 20
-3.098298469
 30
0.0
 11
6.625
 21
3.9
 31
0.0
  0
LINE
  5
35C
100
AcDbEntity
  8
IMPORT_IGES
100
AcDbLine
 62
250
  6
CONTINUOUS
 10
6.925
 20
4.2
 30
0.0
 11
6.925
 21
-3.4
 31
0.0
  0
LINE
  5
35D
100
AcDbEntity
  8
DRAFT
100
AcDbLine
 62
7
  6
CONTINUOUS
 10
7.125
 20
-3.4
 30
0.0
 11
7.125
 21
4.5
 31
0.0
  0
LINE
  5
35E
100
AcDbEntity
  8
IMPORT_IGES
100
AcDbLine
 62
250
  6
CONTINUOUS
 10
-1.65
 20
5.75
 30
0.0
 11
-2.775
 21
5.75
 31
0.0
  0
LINE
  5
35F
100
AcDbEntity
  8
IMPORT_IGES
100
AcDbLine
 62
250
  6
CONTINUOUS
 10
3.0
 20
5.75
 30
0.0
 11
4.125
 21
5.75
 31
0.0
  0
LINE
  5
360
100
AcDbEntity
  8
DRAFT
100
AcDbLine
 62
7
  6
CONTINUOUS
 10
4.325
 20
6.1
 30
0.0
 11
3.175
 21
6.1
 31
0.0
  0
LINE
  5
361
100
AcDbEntity
  8
DRAFT
100
AcDbLine
 62
7
  6
CONTINUOUS
 10
-1.825
 20
6.1
 30
0.0
 11
-2.975
 21
6.1
 31
0.0
  0
LINE
  5
362
100
AcDbEntity
  8
RACCORDO
100
AcDbLine
 62
250
  6
CONTINUOUS
 10
4.3342560268
 20
6.1092560268
 30
0.0
 11
3.1842560268
 21
6.1092560268
 31
0.0
  0
LINE
  5
363
100
AcDbEntity
  8
RACCORDO
100
AcDbLine
 62
250
  6
CONTINUOUS
 10
-1.8342560268
 20
6.1092560268
 30
0.0
 11
-2.9842560268
 21
6.1092560268
 31
0.0
  0
LINE
  5
364
100
AcDbEntity
  8
0
100
AcDbLine
 62
7
  6
CONTINUOUS
 10
2.7
 20
6.5
 30
0.0
 11
-1.35
 21
6.5
 31
0.0
  0
LINE
  5
365
100
AcDbEntity
  8
RACCORDO
100
AcDbLine
 62
250
  6
CONTINUOUS
 10
4.8342369883
 20
6.6158528412
 30
0.0
 11
3.6842369883
 21
6.6158528412
 31
0.0
  0
LINE
  5
366
100
AcDbEntity
  8
RACCORDO
100
AcDbLine
 62
250
  6
CONTINUOUS
 10
-2.3342369883
 20
6.6158528412
 30
0.0
 11
-3.4842369883
 21
6.6158528412
 31
0.0
  0
LINE
  5
367
100
AcDbEntity
  8
IMPORT_IGES
100
AcDbLine
 62
7
  6
CONTINUOUS
 10
2.7
 20
6.7
 30
0.0
 11
-1.35
 21
6.7
 31
0.0
  0
LINE
  5
368
100
AcDbEntity
  8
IMPORT_IGES
100
AcDbLine
 62
7
  6
CONTINUOUS
 10
-1.65
 20
7.2091034656
 30
0.0
 11
3.0
 21
7.2091034656
 31
0.0
  0
LINE
  5
369
100
AcDbEntity
  8
IMPORT_IGES
100
AcDbLine
 62
250
  6
CONTINUOUS
 10
3.175
 20
7.2444964766
 30
0.0
 11
-1.825
 21
7.2444964766
 31
0.0
  0
LINE
  5
36A
100
AcDbEntity
  8
DRAFT
100
AcDbLine
 62
7
  6
CONTINUOUS
 10
3.175
 20
7.45
 30
0.0
 11
-1.825
 21
7.45
 31
0.0
  0
LINE
  5
36B
100
AcDbEntity
  8
RACCORDO
100
AcDbLine
 62
250
  6
CONTINUOUS
 10
3.1840842253
 20
7.4590842253
 30
0.0
 11
-1.8340842253
 21
7.4590842253
 31
0.0
  0
LINE
  5
36C
100
AcDbEntity
  8
IMPORT_IGES
100
AcDbLine
 62
7
  6
CONTINUOUS
 10
1.9968089773
 20
6.7
 30
0.0
 11
2.1605123953
 21
6.5377339252
 31
0.0
  0
LINE
  5
36D
100
AcDbEntity
  8
IMPORT_IGES
100
AcDbLine
 62
7
  6
CONTINUOUS
 10
2.257495549
 20
6.5
 30
0.0
 11
2.0557239609
 21
6.7
 31
0.0
  0
LINE
  5
36E
100
AcDbEntity
  8
RACCORDO
100
AcDbLine
 62
250
  6
CONTINUOUS
 10
8.9380985787
 20
-23.8443375673
 30
0.0
 11
8.9322807489
 21
-23.2669872981
 31
0.0
  0
LINE
  5
36F
100
AcDbEntity
  8
RACCORDO
100
AcDbLine
 62
250
  6
CONTINUOUS
 10
9.1880943479
 20
-23.6278312164
 30
0.0
 11
9.1830037468
 21
-23.1226497308
 31
0.0
  0
LINE
  5
370
100
AcDbEntity
  8
RACCORDO
100
AcDbLine
 62
250
  6
CONTINUOUS
 10
7.6344850761
 20
-3.9133984746
 30
0.0
 11
7.6343993763
 21
5.0144137901
 31
0.0
  0
LINE
  5
371
100
AcDbEntity
  8
RACCORDO
100
AcDbLine
 62
7
  6
CONTINUOUS
 10
8.925
 20
-22.4
 30
0.0
 11
8.925
 21
-24.2500042308
 31
0.0
  0
LINE
  5
372
100
AcDbEntity
  8
RACCORDO
100
AcDbLine
 62
7
  6
CONTINUOUS
 10
8.925
 20
22.4
 30
0.0
 11
8.925
 21
24.2500042308
 31
0.0
  0
LINE
  5
373
100
AcDbEntity
  8
RACCORDO
100
AcDbLine
 62
250
  6
CONTINUOUS
 10
8.9322807489
 20
-23.2669872981
 30
0.0
 11
8.9322807489
 21
-22.3344140523
 31
0.0
  0
LINE
  5
374
100
AcDbEntity
  8
RACCORDO
100
AcDbLine
 62
250
  6
CONTINUOUS
 10
8.9322807489
 20
22.3344140523
 30
0.0
 11
8.9322807489
 21
23.2669872981
 31
0.0
  0
LINE
  5
375
100
AcDbEntity
  8
RACCORDO
100
AcDbLine
 62
250
  6
CONTINUOUS
 10
8.9380985787
 20
24.2369056521
 30
0.0
 11
8.9380985787
 21
23.8443375673
 31
0.0
  0
LINE
  5
376
100
AcDbEntity
  8
RACCORDO
100
AcDbLine
 62
250
  6
CONTINUOUS
 10
8.9380985787
 20
-23.8443375673
 30
0.0
 11
8.9380985787
 21
-24.2369056521
 31
0.0
  0
LINE
  5
377
100
AcDbEntity
  8
RACCORDO
100
AcDbLine
 62
250
  6
CONTINUOUS
 10
9.1822765181
 20
-23.1226497308
 30
0.0
 11
9.1822765181
 21
-22.3213883311
 31
0.0
  0
LINE
  5
378
100
AcDbEntity
  8
RACCORDO
100
AcDbLine
 62
250
  6
CONTINUOUS
 10
9.1822765181
 20
22.3213883311
 30
0.0
 11
9.1822765181
 21
23.1226497308
 31
0.0
  0
LINE
  5
379
100
AcDbEntity
  8
RACCORDO
100
AcDbLine
 62
250
  6
CONTINUOUS
 10
9.1880943479
 20
-23.6278312164
 30
0.0
 11
9.1880943479
 21
-24.4869014213
 31
0.0
  0
LINE
  5
37A
100
AcDbEntity
  8
RACCORDO
100
AcDbLine
 62
250
  6
CONTINUOUS
 10
9.1880943479
 20
23.6278312164
 30
0.0
 11
9.1880943479
 21
24.4869014213
 31
0.0
  0
LINE
  5
37B
100
AcDbEntity
  8
RACCORDO
100
AcDbLine
 62
250
  6
CONTINUOUS
 10
8.9322807489
 20
23.2669872981
 30
0.0
 11
8.9380985787
 21
23.8443375673
 31
0.0
  0
LINE
  5
37C
100
AcDbEntity
  8
RACCORDO
100
AcDbLine
 62
250
  6
CONTINUOUS
 10
9.1830037468
 20
23.1226497308
 30
0.0
 11
9.1880943479
 21
23.6278312164
 31
0.0
  0
LINE
  5
37D
100
AcDbEntity
  8
RACCORDO
100
AcDbLine
 62
250
  6
CONTINUOUS
 10
3.6840651868
 20
7.967032219
 30
0.0
 11
-2.3340651868
 21
7.967032219
 31
0.0
  0
LINE
  5
37E
100
AcDbEntity
  8
RACCORDO
100
AcDbLine
 62
250
  6
CONTINUOUS
 10
9.875
 20
-15.7031206241
 30
0.0
 11
9.875
 21
-22.2
 31
0.0
  0
LINE
  5
37F
100
AcDbEntity
  8
RACCORDO
100
AcDbLine
 62
7
  6
CONTINUOUS
 10
10.125
 20
-15.85
 30
0.0
 11
10.125
 21
-21.9496569135
 31
0.0
  0
LINE
  5
380
100
AcDbEntity
  8
ASSI
100
AcDbLine
 62
7
  6
CONTINUOUS
 10
10.175
 20
-15.6
 30
0.0
 11
10.175
 21
-22.1379611036
 31
0.0
  0
LINE
  5
381
100
AcDbEntity
  8
RACCORDO
100
AcDbLine
 62
250
  6
CONTINUOUS
 10
11.0619056521
 20
-23.6278312164
 30
0.0
 11
11.0619056521
 21
-24.4869014213
 31
0.0
  0
LINE
  5
382
100
AcDbEntity
  8
RACCORDO
100
AcDbLine
 62
250
  6
CONTINUOUS
 10
11.0619056521
 20
23.6278312164
 30
0.0
 11
11.0619056521
 21
24.4869014213
 31
0.0
  0
LINE
  5
383
100
AcDbEntity
  8
RACCORDO
100
AcDbLine
 62
250
  6
CONTINUOUS
 10
11.0677234819
 20
-23.1226497308
 30
0.0
 11
11.0677234819
 21
-22.3213883311
 31
0.0
  0
LINE
  5
384
100
AcDbEntity
  8
RACCORDO
100
AcDbLine
 62
250
  6
CONTINUOUS
 10
11.0677234819
 20
22.3213883311
 30
0.0
 11
11.0677234819
 21
23.1226497308
 31
0.0
  0
LINE
  5
385
100
AcDbEntity
  8
RACCORDO
100
AcDbLine
 62
250
  6
CONTINUOUS
 10
-9.975
 20
-24.2500042308
 30
0.0
 11
-9.9619014213
 21
-24.2369056521
 31
0.0
  0
LINE
  5
386
100
AcDbEntity
  8
RACCORDO
100
AcDbLine
 62
250
  6
CONTINUOUS
 10
-9.7250042308
 20
-24.5
 30
0.0
 11
-9.7119056521
 21
-24.4869014213
 31
0.0
  0
LINE
  5
387
100
AcDbEntity
  8
RACCORDO
100
AcDbLine
 62
250
  6
CONTINUOUS
 10
-9.975
 20
24.2500042308
 30
0.0
 11
-9.9619014213
 21
24.2369056521
 31
0.0
  0
LINE
  5
388
100
AcDbEntity
  8
RACCORDO
100
AcDbLine
 62
250
  6
CONTINUOUS
 10
-9.7250042308
 20
24.5
 30
0.0
 11
-9.7119056521
 21
24.4869014213
 31
0.0
  0
LINE
  5
389
100
AcDbEntity
  8
RACCORDO
100
AcDbLine
 62
250
  6
CONTINUOUS
 10
11.0619056521
 20
23.6278312164
 30
0.0
 11
11.0669962532
 21
23.1226497308
 31
0.0
  0
LINE
  5
38A
100
AcDbEntity
  8
RACCORDO
100
AcDbLine
 62
250
  6
CONTINUOUS
 10
11.3119014213
 20
23.8443375673
 30
0.0
 11
11.3177192511
 21
23.2669872981
 31
0.0
  0
LINE
  5
38B
100
AcDbEntity
  8
RACCORDO
100
AcDbLine
 62
250
  6
CONTINUOUS
 10
11.3119014213
 20
-24.2369056521
 30
0.0
 11
11.3119014213
 21
-23.8443375673
 31
0.0
  0
LINE
  5
38C
100
AcDbEntity
  8
RACCORDO
100
AcDbLine
 62
250
  6
CONTINUOUS
 10
11.3119014213
 20
23.8443375673
 30
0.0
 11
11.3119014213
 21
24.2369056521
 31
0.0
  0
LINE
  5
38D
100
AcDbEntity
  8
RACCORDO
100
AcDbLine
 62
250
  6
CONTINUOUS
 10
11.3177192511
 20
-23.2669872981
 30
0.0
 11
11.3177192511
 21
-22.3334109614
 31
0.0
  0
LINE
  5
38E
100
AcDbEntity
  8
RACCORDO
100
AcDbLine
 62
250
  6
CONTINUOUS
 10
11.3177192511
 20
22.3334109614
 30
0.0
 11
11.3177192511
 21
23.2669872981
 31
0.0
  0
LINE
  5
38F
100
AcDbEntity
  8
RACCORDO
100
AcDbLine
 62
7
  6
CONTINUOUS
 10
11.325
 20
22.399689968
 30
0.0
 11
11.325
 21
24.2500042308
 31
0.0
  0
LINE
  5
390
100
AcDbEntity
  8
RACCORDO
100
AcDbLine
 62
7
  6
CONTINUOUS
 10
11.325
 20
-22.399689968
 30
0.0
 11
11.325
 21
-24.2500042308
 31
0.0
  0
LINE
  5
391
100
AcDbEntity
  8
RACCORDO
100
AcDbLine
 62
7
  6
CONTINUOUS
 10
11.825
 20
-21.8911779406
 30
0.0
 11
11.825
 21
21.8911779406
 31
0.0
  0
LINE
  5
392
100
AcDbEntity
  8
RACCORDO
100
AcDbLine
 62
250
  6
CONTINUOUS
 10
11.0669962532
 20
-23.1226497308
 30
0.0
 11
11.0619056521
 21
-23.6278312164
 31
0.0
  0
LINE
  5
393
100
AcDbEntity
  8
RACCORDO
100
AcDbLine
 62
250
  6
CONTINUOUS
 10
11.3177192511
 20
-23.2669872981
 30
0.0
 11
11.3119014213
 21
-23.8443375673
 31
0.0
  0
LINE
  5
394
100
AcDbEntity
  8
RACCORDO
100
AcDbLine
 62
7
  6
CONTINUOUS
 10
8.925
 20
-22.4
 30
0.0
 11
8.9322807489
 21
-22.3344140523
 31
0.0
  0
LINE
  5
395
100
AcDbEntity
  8
RACCORDO
100
AcDbLine
 62
7
  6
CONTINUOUS
 10
8.925
 20
22.4
 30
0.0
 11
8.9322807489
 21
22.3344140523
 31
0.0
  0
LINE
  5
396
100
AcDbEntity
  8
RACCORDO
100
AcDbLine
 62
7
  6
CONTINUOUS
 10
-3.7220741618
 20
-23.7970741618
 30
0.0
 11
-3.725
 21
-23.8
 31
0.0
  0
LWPOLYLINE
  5
397
100
AcDbEntity
  8
0
100
AcDbPolyline
 62
7
  6
CONTINUOUS
 90
10
 70
0
 43
0.3500000019
 10
18.7843203125
 20
0.4285714455
 10
17.9271743164
 20
1.2857142944
 10
17.0700336914
 20
1.4999999542
 10
16.2128930664
 20
1.4999999542
 10
15.7843173828
 20
1.0714285507
 10
15.7843173828
 20
0.4285714455
 10
16.2128930664
 20
0.0
 10
17.0700336914
 20
0.0
 10
17.4986040039
 20
0.4285714455
 10
17.4986040039
 20
1.3571428757
  0
LINE
  5
398
100
AcDbEntity
  8
RACCORDO
100
AcDbLine
 62
7
  6
CONTINUOUS
 10
-3.7220741618
 20
23.7970741618
 30
0.0
 11
-3.725
 21
23.8
 31
0.0
  0
LWPOLYLINE
  5
399
100
AcDbEntity
  8
0
100
AcDbPolyline
 62
7
  6
CONTINUOUS
 90
3
 70
0
 43
0.3500000019
 10
18.1414648438
 20
-0.8571428909
 10
18.1414648438
 20
-2.3571429291
 10
15.7843173828
 20
-1.7142857819
  0
LWPOLYLINE
  5
39A
100
AcDbEntity
  8
0
100
AcDbPolyline
 62
7
  6
CONTINUOUS
 90
10
 70
0
 43
0.3500000019
 10
1.7464267578
 20
33.7500007324
 10
1.8178569336
 20
33.6071430664
 10
1.8178569336
 20
33.5357155762
 10
1.6750019531
 20
33.3928579102
 10
1.6035717773
 20
33.3928579102
 10
1.5321416016
 20
33.4642854004
 10
1.5321416016
 20
33.5357155762
 10
1.6035717773
 20
33.6785705566
 10
1.6750019531
 20
33.7500007324
 10
1.7464267578
 20
33.7500007324
  0
LINE
  5
39B
100
AcDbEntity
  8
RACCORDO
100
AcDbLine
 62
250
  6
CONTINUOUS
 10
11.1577491915
 20
20.5624683248
 30
0.0
 11
-9.8077491915
 21
20.5624683248
 31
0.0
  0
LINE
  5
39C
100
AcDbEntity
  8
RACCORDO
100
AcDbLine
 62
250
  6
CONTINUOUS
 10
11.1742759622
 20
21.998725222
 30
0.0
 11
-9.8242759622
 21
21.998725222
 31
0.0
  0
LINE
  5
39D
100
AcDbEntity
  8
RACCORDO
100
AcDbLine
 62
250
  6
CONTINUOUS
 10
8.925
 20
-24.2500042308
 30
0.0
 11
8.9380985787
 21
-24.2369056521
 31
0.0
  0
LINE
  5
39E
100
AcDbEntity
  8
RACCORDO
100
AcDbLine
 62
250
  6
CONTINUOUS
 10
9.1749957692
 20
-24.5
 30
0.0
 11
9.1880943479
 21
-24.4869014213
 31
0.0
  0
LINE
  5
39F
100
AcDbEntity
  8
RACCORDO
100
AcDbLine
 62
7
  6
CONTINUOUS
 10
11.0677234819
 20
22.3213883311
 30
0.0
 11
9.1822765181
 21
22.3213883311
 31
0.0
  0
LINE
  5
3A0
100
AcDbEntity
  8
RACCORDO
100
AcDbLine
 62
7
  6
CONTINUOUS
 10
-7.8322765181
 20
22.3213883311
 30
0.0
 11
-9.7177234819
 21
22.3213883311
 31
0.0
  0
LINE
  5
3A1
100
AcDbEntity
  8
RACCORDO
100
AcDbLine
 62
7
  6
CONTINUOUS
 10
-3.2220826234
 20
22.3475922207
 30
0.0
 11
4.5720826234
 21
22.3475922207
 31
0.0
  0
LINE
  5
3A2
100
AcDbEntity
  8
DRAFT
100
AcDbLine
 62
7
  6
CONTINUOUS
 10
-7.575
 20
22.4
 30
0.0
 11
-3.725
 21
22.4
 31
0.0
  0
LINE
  5
3A3
100
AcDbEntity
  8
DRAFT
100
AcDbLine
 62
7
  6
CONTINUOUS
 10
5.075
 20
22.4
 30
0.0
 11
8.925
 21
22.4
 31
0.0
  0
LINE
  5
3A4
100
AcDbEntity
  8
RACCORDO
100
AcDbLine
 62
7
  6
CONTINUOUS
 10
11.0669962532
 20
23.1226497308
 30
0.0
 11
9.1830037468
 21
23.1226497308
 31
0.0
  0
LINE
  5
3A5
100
AcDbEntity
  8
RACCORDO
100
AcDbLine
 62
7
  6
CONTINUOUS
 10
-7.8330037468
 20
23.1226497308
 30
0.0
 11
-9.7169962532
 21
23.1226497308
 31
0.0
  0
LINE
  5
3A6
100
AcDbEntity
  8
RACCORDO
100
AcDbLine
 62
250
  6
CONTINUOUS
 10
4.5720826234
 20
23.5953423515
 30
0.0
 11
-3.2220826234
 21
23.5953423515
 31
0.0
  0
LINE
  5
3A7
100
AcDbEntity
  8
RACCORDO
100
AcDbLine
 62
250
  6
CONTINUOUS
 10
-9.7119056521
 20
23.6278312164
 30
0.0
 11
-7.8380943479
 21
23.6278312164
 31
0.0
  0
LINE
  5
3A8
100
AcDbEntity
  8
RACCORDO
100
AcDbLine
 62
250
  6
CONTINUOUS
 10
9.1880943479
 20
23.6278312164
 30
0.0
 11
11.0619056521
 21
23.6278312164
 31
0.0
  0
LINE
  5
3A9
100
AcDbEntity
  8
RACCORDO
100
AcDbLine
 62
250
  6
CONTINUOUS
 10
4.9712073137
 20
23.7953389668
 30
0.0
 11
-3.6212073137
 21
23.7953389668
 31
0.0
  0
LINE
  5
3AA
100
AcDbEntity
  8
DRAFT
100
AcDbLine
 62
7
  6
CONTINUOUS
 10
-3.725
 20
23.8
 30
0.0
 11
5.075
 21
23.8
 31
0.0
  0
LINE
  5
3AB
100
AcDbEntity
  8
RACCORDO
100
AcDbLine
 62
250
  6
CONTINUOUS
 10
8.925
 20
24.2500042308
 30
0.0
 11
8.9380985787
 21
24.2369056521
 31
0.0
  0
LINE
  5
3AC
100
AcDbEntity
  8
RACCORDO
100
AcDbLine
 62
250
  6
CONTINUOUS
 10
9.1749957692
 20
24.5
 30
0.0
 11
9.1880943479
 21
24.4869014213
 31
0.0
  0
LINE
  5
3AD
100
AcDbEntity
  8
RACCORDO
100
AcDbLine
 62
250
  6
CONTINUOUS
 10
11.8075830976
 20
-21.8998857286
 30
0.0
 11
11.825
 21
-21.8911779406
 31
0.0
  0
LINE
  5
3AE
100
AcDbEntity
  8
RACCORDO
100
AcDbLine
 62
7
  6
CONTINUOUS
 10
11.5310139878
 20
-22.3472253447
 30
0.0
 11
11.5485170098
 21
-22.3384745002
 31
0.0
  0
LINE
  5
3AF
100
AcDbEntity
  8
RACCORDO
100
AcDbLine
 62
250
  6
CONTINUOUS
 10
-9.9619014213
 20
23.8443375673
 30
0.0
 11
-7.5880985787
 21
23.8443375673
 31
0.0
  0
LINE
  5
3B0
100
AcDbEntity
  8
RACCORDO
100
AcDbLine
 62
250
  6
CONTINUOUS
 10
8.9380985787
 20
23.8443375673
 30
0.0
 11
11.3119014213
 21
23.8443375673
 31
0.0
  0
LINE
  5
3B1
100
AcDbEntity
  8
RACCORDO
100
AcDbLine
 62
250
  6
CONTINUOUS
 10
-9.9619014213
 20
24.2369056521
 30
0.0
 11
-7.5880985787
 21
24.2369056521
 31
0.0
  0
LINE
  5
3B2
100
AcDbEntity
  8
RACCORDO
100
AcDbLine
 62
250
  6
CONTINUOUS
 10
8.9380985787
 20
24.2369056521
 30
0.0
 11
11.3119014213
 21
24.2369056521
 31
0.0
  0
LINE
  5
3B3
100
AcDbEntity
  8
RACCORDO
100
AcDbLine
 62
250
  6
CONTINUOUS
 10
11.0619056521
 20
24.4869014213
 30
0.0
 11
9.1880943479
 21
24.4869014213
 31
0.0
  0
LINE
  5
3B4
100
AcDbEntity
  8
RACCORDO
100
AcDbLine
 62
250
  6
CONTINUOUS
 10
-7.8380943479
 20
24.4869014213
 30
0.0
 11
-9.7119056521
 21
24.4869014213
 31
0.0
  0
LINE
  5
3B5
100
AcDbEntity
  8
RACCORDO
100
AcDbLine
 62
7
  6
CONTINUOUS
 10
-9.7250042308
 20
24.5
 30
0.0
 11
-7.8249957692
 21
24.5
 31
0.0
  0
LINE
  5
3B6
100
AcDbEntity
  8
RACCORDO
100
AcDbLine
 62
7
  6
CONTINUOUS
 10
9.1749957692
 20
24.5
 30
0.0
 11
11.0750042308
 21
24.5
 31
0.0
  0
LWPOLYLINE
  5
3B7
100
AcDbEntity
  8
0
100
AcDbPolyline
 62
7
  6
CONTINUOUS
 90
7
 70
0
 43
0.3500000019
 10
0.2464306641
 20
33.2500002441
 10
-1.2535708008
 20
33.2500002441
 10
0.2464306641
 20
35.3928571777
 10
0.2464306641
 20
35.8214274902
 10
-0.1821450195
 20
36.2500004883
 10
-0.8250004883
 20
36.2500004883
 10
-1.2535708008
 20
35.607142334
  0
LWPOLYLINE
  5
3B8
100
AcDbEntity
  8
0
100
AcDbPolyline
 62
7
  6
CONTINUOUS
 90
7
 70
0
 43
0.3500000019
 10
-2.1107167969
 20
33.2500002441
 10
-3.6107128906
 20
33.2500002441
 10
-2.1107167969
 20
35.3928571777
 10
-2.1107167969
 20
35.8214274902
 10
-2.5392871094
 20
36.2500004883
 10
-3.1821425781
 20
36.2500004883
 10
-3.6107128906
 20
35.607142334
  0
LWPOLYLINE
  5
3B9
100
AcDbEntity
  8
0
100
AcDbPolyline
 62
7
  6
CONTINUOUS
 90
6
 70
0
 43
0.3500000019
 10
2.8178579102
 20
33.2500002441
 10
3.8892836914
 20
33.2500002441
 10
4.1035688477
 20
33.4642854004
 10
4.1035688477
 20
34.5357138672
 10
3.6749985352
 20
34.9642868652
 10
3.2464282227
 20
34.9642868652
  0
LINE
  5
3BA
100
AcDbEntity
  8
RACCORDO
100
AcDbLine
 62
250
  6
CONTINUOUS
 10
11.825
 20
21.8911779406
 30
0.0
 11
11.8075830976
 21
21.8998857286
 31
0.0
  0
LINE
  5
3BB
100
AcDbEntity
  8
RACCORDO
100
AcDbLine
 62
7
  6
CONTINUOUS
 10
11.5485170098
 20
22.3384745002
 30
0.0
 11
11.5310139878
 21
22.3472253447
 31
0.0
  0
LWPOLYLINE
  5
3BC
100
AcDbEntity
  8
0
100
AcDbPolyline
 62
7
  6
CONTINUOUS
 90
10
 70
0
 43
0.3500000019
 10
-42.9385058594
 20
43.2499992676
 10
-42.0813625488
 20
44.1071425781
 10
-41.8670773926
 20
44.9642858887
 10
-41.8670773926
 20
45.8214291992
 10
-42.2956477051
 20
46.2499995117
 10
-42.9385058594
 20
46.2499995117
 10
-43.3670761719
 20
45.8214291992
 10
-43.3670761719
 20
44.9642858887
 10
-42.9385058594
 20
44.5357155762
 10
-42.0099350586
 20
44.5357155762
  0
LWPOLYLINE
  5
3BD
100
AcDbEntity
  8
0
100
AcDbPolyline
 62
7
  6
CONTINUOUS
 90
5
 70
0
 43
0.3500000019
 10
-44.6527897949
 20
44.9642858887
 10
-44.2956469727
 20
45.1785737305
 10
-44.2956469727
 20
45.8214291992
 10
-44.6527897949
 20
46.2499995117
 10
-45.5099331055
 20
46.2499995117
  0
LINE
  5
3BE
100
AcDbEntity
  8
RACCORDO
100
AcDbLine
 62
7
  6
CONTINUOUS
 10
-25.8242194855
 20
-22.2
 30
0.0
 11
-23.1755893733
 21
-22.0611911777
 31
0.0
  0
LINE
  5
3BF
100
AcDbEntity
  8
RACCORDO
100
AcDbLine
 62
7
  6
CONTINUOUS
 10
-23.1674405966
 20
-21.998725222
 30
0.0
 11
-29.4486763435
 21
-22.3279108386
 31
0.0
  0
LINE
  5
3C0
100
AcDbEntity
  8
RACCORDO
100
AcDbLine
 62
7
  6
CONTINUOUS
 10
-30.8242194855
 20
-24.5
 30
0.0
 11
-28.5727650527
 21
-24.4869014213
 31
0.0
  0
LINE
  5
3C1
100
AcDbEntity
  8
RACCORDO
100
AcDbLine
 62
250
  6
CONTINUOUS
 10
-30.8242194855
 20
-24.2500042308
 30
0.0
 11
-28.5727650527
 21
-24.2369056521
 31
0.0
  0
LINE
  5
3C2
100
AcDbEntity
  8
RACCORDO
100
AcDbLine
 62
250
  6
CONTINUOUS
 10
-31.8242194855
 20
-24.2456323968
 30
0.0
 11
-31.5756739183
 21
-24.2456323968
 31
0.0
  0
LINE
  5
3C3
100
AcDbEntity
  8
RACCORDO
100
AcDbLine
 62
250
  6
CONTINUOUS
 10
-28.3242194855
 20
-24.2369056521
 30
0.0
 11
-28.5727650527
 21
-24.2369056521
 31
0.0
  0
LINE
  5
3C4
100
AcDbEntity
  8
RACCORDO
100
AcDbLine
 62
250
  6
CONTINUOUS
 10
-28.3242194855
 20
-23.8443375673
 30
0.0
 11
-28.5727650527
 21
-23.8443375673
 31
0.0
  0
LINE
  5
3C5
100
AcDbEntity
  8
RACCORDO
100
AcDbLine
 62
250
  6
CONTINUOUS
 10
-31.8242194855
 20
-23.8443375673
 30
0.0
 11
-31.5756739183
 21
-23.8443375673
 31
0.0
  0
LINE
  5
3C6
100
AcDbEntity
  8
RACCORDO
100
AcDbLine
 62
7
  6
CONTINUOUS
 10
-31.5756739183
 20
-24.495628166
 30
0.0
 11
-30.8242194855
 21
-24.5
 31
0.0
  0
LINE
  5
3C7
100
AcDbEntity
  8
RACCORDO
100
AcDbLine
 62
250
  6
CONTINUOUS
 10
-31.5756739183
 20
-24.2456323968
 30
0.0
 11
-30.8242194855
 21
-24.2500042308
 31
0.0
  0
LINE
  5
3C8
100
AcDbEntity
  8
ASSI
100
AcDbLine
 62
7
  6
CONTINUOUS
 10
-31.8191268278
 20
-23.7942117984
 30
0.0
 11
-38.3271283512
 21
-23.7563493531
 31
0.0
  0
LINE
  5
3C9
100
AcDbEntity
  8
RACCORDO
100
AcDbLine
 62
250
  6
CONTINUOUS
 10
-30.8264058145
 20
-21.8998857286
 30
0.0
 11
-23.1848823715
 21
-21.4994104546
 31
0.0
  0
LINE
  5
3CA
100
AcDbEntity
  8
DRAFT
100
AcDbLine
 62
7
  6
CONTINUOUS
 10
-31.8242194855
 20
-20.9
 30
0.0
 11
-32.0240062457
 21
-20.9104703804
 31
0.0
  0
LINE
  5
3CB
100
AcDbEntity
  8
RACCORDO
100
AcDbLine
 62
7
  6
CONTINUOUS
 10
-41.3329456887
 20
-21.5659754333
 30
0.0
 11
-31.8242194855
 21
-21.4
 31
0.0
  0
LINE
  5
3CC
100
AcDbEntity
  8
RACCORDO
100
AcDbLine
 62
7
  6
CONTINUOUS
 10
-41.8242194855
 20
-20.9959955457
 30
0.0
 11
-32.0240062457
 21
-20.9104703804
 31
0.0
  0
LINE
  5
3CD
100
AcDbEntity
  8
RACCORDO
100
AcDbLine
 62
7
  6
CONTINUOUS
 10
-40.832946021
 20
-22.3126551668
 30
0.0
 11
-30.8242194855
 21
-22.4
 31
0.0
  0
LINE
  5
3CE
100
AcDbEntity
  8
RACCORDO
100
AcDbLine
 62
250
  6
CONTINUOUS
 10
-31.8242194855
 20
-21.8911779406
 30
0.0
 11
-30.8264058145
 21
-21.8998857286
 31
0.0
  0
LINE
  5
3CF
100
AcDbEntity
  8
IMPORT_IGES
100
AcDbLine
 62
7
  6
CONTINUOUS
 10
-61.1242194855
 20
6.9810435682
 30
0.0
 11
-61.1242194855
 21
3.0132052805
 31
0.0
  0
LINE
  5
3D0
100
AcDbEntity
  8
IMPORT_IGES
100
AcDbLine
 62
7
  6
CONTINUOUS
 10
-61.1242194855
 20
2.345
 30
0.0
 11
-61.1242194855
 21
-1.055
 31
0.0
  0
LINE
  5
3D1
100
AcDbEntity
  8
IMPORT_IGES
100
AcDbLine
 62
250
  6
CONTINUOUS
 10
-60.9242194855
 20
2.8132052805
 30
0.0
 11
-60.9242194855
 21
7.181099574
 31
0.0
  0
LINE
  5
3D2
100
AcDbEntity
  8
IMPORT_IGES
100
AcDbLine
 62
250
  6
CONTINUOUS
 10
-60.8242194855
 20
-1.355
 30
0.0
 11
-60.8242194855
 21
2.645
 31
0.0
  0
LINE
  5
3D3
100
AcDbEntity
  8
IMPORT_IGES
100
AcDbLine
 62
250
  6
CONTINUOUS
 10
-60.3242194706
 20
2.8373143479
 30
0.0
 11
-60.3242194855
 21
7.181099574
 31
0.0
  0
LINE
  5
3D4
100
AcDbEntity
  8
IMPORT_IGES
100
AcDbLine
 62
7
  6
CONTINUOUS
 10
-60.1242194855
 20
3.0292802284
 30
0.0
 11
-60.1242194855
 21
6.981099574
 31
0.0
  0
LINE
  5
3D5
100
AcDbEntity
  8
IMPORT_IGES
100
AcDbLine
 62
7
  6
CONTINUOUS
 10
-60.0742194855
 20
-1.355
 30
0.0
 11
-60.0742194855
 21
-0.6769544457
 31
0.0
  0
LINE
  5
3D6
100
AcDbEntity
  8
IMPORT_IGES
100
AcDbLine
 62
250
  6
CONTINUOUS
 10
-59.9242194855
 20
2.8132052805
 30
0.0
 11
-59.9242194855
 21
5.8502977476
 31
0.0
  0
LINE
  5
3D7
100
AcDbEntity
  8
RACCORDO
100
AcDbLine
 62
7
  6
CONTINUOUS
 10
-31.8242194855
 20
-17.917531443
 30
0.0
 11
-41.8242194855
 21
-19.6808012501
 31
0.0
  0
LINE
  5
3D8
100
AcDbEntity
  8
0
100
AcDbLine
 62
250
  6
CONTINUOUS
 10
-41.8242194855
 20
-20.0275513222
 30
0.0
 11
-31.8242194855
 21
-18.3232986254
 31
0.0
  0
LINE
  5
3D9
100
AcDbEntity
  8
RACCORDO
100
AcDbLine
 62
250
  6
CONTINUOUS
 10
-22.2380643158
 20
-20.5419058565
 30
0.0
 11
-21.7472135133
 21
-20.5624683248
 31
0.0
  0
LINE
  5
3DA
100
AcDbEntity
  8
IMPORT_IGES
100
AcDbLine
 62
250
  6
CONTINUOUS
 10
-59.5742194855
 20
0.245
 30
0.0
 11
-59.5742194855
 21
-0.355
 31
0.0
  0
LWPOLYLINE
  5
3DB
100
AcDbEntity
  8
0
100
AcDbPolyline
 62
7
  6
CONTINUOUS
 90
3
 70
0
 43
0.3500000019
 10
-30.5385061035
 20
35.3928571777
 10
-29.681362793
 20
36.2500004883
 10
-29.681362793
 20
33.2500002441
  0
LINE
  5
3DC
100
AcDbEntity
  8
IMPORT_IGES
100
AcDbLine
 62
250
  6
CONTINUOUS
 10
-57.572980366
 20
-0.3492836016
 30
0.0
 11
-57.5726831018
 21
-0.355
 31
0.0
  0
LINE
  5
3DD
100
AcDbEntity
  8
IMPORT_IGES
100
AcDbLine
 62
7
  6
CONTINUOUS
 10
-57.271099774
 20
-0.7016172304
 30
0.0
 11
-57.2583262067
 21
-1.2360899655
 31
0.0
  0
LINE
  5
3DE
100
AcDbEntity
  8
IMPORT_IGES
100
AcDbLine
 62
250
  6
CONTINUOUS
 10
-56.939416297
 20
-6.7081076972
 30
0.0
 11
-56.9297099943
 21
-7.1455661868
 31
0.0
  0
LINE
  5
3DF
100
AcDbEntity
  8
IMPORT_IGES
100
AcDbLine
 62
7
  6
CONTINUOUS
 10
-57.2583262067
 20
-1.2360899655
 30
0.0
 11
-57.1299137473
 21
-7.1455020228
 31
0.0
  0
LINE
  5
3E0
100
AcDbEntity
  8
IMPORT_IGES
100
AcDbLine
 62
250
  6
CONTINUOUS
 10
-56.9511974362
 20
-6.1638753356
 30
0.0
 11
-57.0527512824
 21
-1.4904696055
 31
0.0
  0
LINE
  5
3E1
100
AcDbEntity
  8
IMPORT_IGES
100
AcDbLine
 62
250
  6
CONTINUOUS
 10
-57.5742194855
 20
-0.165721322
 30
0.0
 11
-57.5742194855
 21
2.645
 31
0.0
  0
LINE
  5
3E2
100
AcDbEntity
  8
IMPORT_IGES
100
AcDbLine
 62
7
  6
CONTINUOUS
 10
-57.2742194855
 20
-0.5710821499
 30
0.0
 11
-57.2742194855
 21
7.6454698507
 31
0.0
  0
LINE
  5
3E3
100
AcDbEntity
  8
IMPORT_IGES
100
AcDbLine
 62
250
  6
CONTINUOUS
 10
-56.9742165117
 20
-0.5763176961
 30
0.0
 11
-56.9742194855
 21
7.9455021716
 31
0.0
  0
LINE
  5
3E4
100
AcDbEntity
  8
IMPORT_IGES
100
AcDbLine
 62
7
  6
CONTINUOUS
 10
-52.2706660948
 20
10.5035533907
 30
0.0
 11
-54.9777728763
 21
7.7964466092
 31
0.0
  0
LINE
  5
3E5
100
AcDbEntity
  8
IMPORT_IGES
100
AcDbLine
 62
250
  6
CONTINUOUS
 10
-52.9362742244
 20
9.4843758577
 30
0.0
 11
-52.1120273749
 21
10.3086387202
 31
0.0
  0
LINE
  5
3E6
100
AcDbEntity
  8
IMPORT_IGES
100
AcDbLine
 62
250
  6
CONTINUOUS
 10
-54.7656408417
 20
7.589550297
 30
0.0
 11
-53.2216446124
 21
9.1335465263
 31
0.0
  0
LWPOLYLINE
  5
3E7
100
AcDbEntity
  8
IMPORT_IGES
100
AcDbPolyline
 62
7
  6
CONTINUOUS
 90
5
 70
0
 10
-51.2897038114
 20
10.6140066509
 10
-51.309758882
 20
10.5985217678
 10
-51.3269187192
 20
10.5818664534
 10
-51.3413578863
 20
10.5646844907
 10
-51.3534197018
 20
10.5474345637
  0
LWPOLYLINE
  5
3E8
100
AcDbEntity
  8
IMPORT_IGES
100
AcDbPolyline
 62
7
  6
CONTINUOUS
 90
7
 70
0
 10
-52.301913125
 20
-10.4812658645
 10
-52.2840182534
 20
-10.4939801085
 10
-52.2432754004
 20
-10.5178104949
 10
-52.2003686628
 20
-10.536281964
 10
-52.155740456
 20
-10.5491702466
 10
-52.1105866442
 20
-10.5559865027
 10
-52.0830380578
 20
-10.5571510402
  0
LINE
  5
3E9
100
AcDbEntity
  8
IMPORT_IGES
100
AcDbLine
 62
7
  6
CONTINUOUS
 10
-56.7319638223
 20
-7.9224132299
 30
0.0
 11
-52.8410620618
 21
-10.854374058
 31
0.0
  0
LINE
  5
3EA
100
AcDbEntity
  8
IMPORT_IGES
100
AcDbLine
 62
250
  6
CONTINUOUS
 10
-52.7301834331
 20
-10.6899455634
 30
0.0
 11
-56.6116017821
 21
-7.7650870464
 31
0.0
  0
LINE
  5
3EB
100
AcDbEntity
  8
IMPORT_IGES
100
AcDbLine
 62
250
  6
CONTINUOUS
 10
-55.045954886
 20
-8.5994966472
 30
0.0
 11
-54.830577152
 21
-8.7617830117
 31
0.0
  0
LINE
  5
3EC
100
AcDbEntity
  8
IMPORT_IGES
100
AcDbLine
 62
7
  6
CONTINUOUS
 10
-54.9556847192
 20
-8.481503443
 30
0.0
 11
-52.3019119645
 21
-10.4812646504
 31
0.0
  0
LINE
  5
3ED
100
AcDbEntity
  8
IMPORT_IGES
100
AcDbLine
 62
250
  6
CONTINUOUS
 10
-52.0830514571
 20
-10.5303488012
 30
0.0
 11
-52.5084319253
 21
-10.2098076211
 31
0.0
  0
LINE
  5
3EE
100
AcDbEntity
  8
IMPORT_IGES
100
AcDbLine
 62
250
  6
CONTINUOUS
 10
-52.5084319226
 20
-9.9552357183
 30
0.0
 11
-54.7751388327
 21
-8.2471485648
 31
0.0
  0
LINE
  5
3EF
100
AcDbEntity
  8
IMPORT_IGES
100
AcDbLine
 62
250
  6
CONTINUOUS
 10
-56.939416297
 20
-6.7081076972
 30
0.0
 11
-55.1670890677
 21
-8.4804296718
 31
0.0
  0
LINE
  5
3F0
100
AcDbEntity
  8
IMPORT_IGES
100
AcDbLine
 62
7
  6
CONTINUOUS
 10
-55.0540939176
 20
-8.3830940215
 30
0.0
 11
-57.0633530721
 21
-6.373834867
 31
0.0
  0
LINE
  5
3F1
100
AcDbEntity
  8
IMPORT_IGES
100
AcDbLine
 62
250
  6
CONTINUOUS
 10
-55.1713854229
 20
-7.9829598037
 30
0.0
 11
-56.9219317159
 21
-6.2324135107
 31
0.0
  0
LINE
  5
3F2
100
AcDbEntity
  8
IMPORT_IGES
100
AcDbLine
 62
7
  6
CONTINUOUS
 10
-57.0972752076
 20
-1.391987288
 30
0.0
 11
-55.7062099401
 21
-4.4688797904
 31
0.0
  0
LINE
  5
3F3
100
AcDbEntity
  8
IMPORT_IGES
100
AcDbLine
 62
250
  6
CONTINUOUS
 10
-55.4328491579
 20
-4.3505300207
 30
0.0
 11
-56.8239137017
 21
-1.2736365856
 31
0.0
  0
LINE
  5
3F4
100
AcDbEntity
  8
IMPORT_IGES
100
AcDbLine
 62
7
  6
CONTINUOUS
 10
-55.5451290709
 20
-5.0388424615
 30
0.0
 11
-55.1507955379
 21
-8.1451539653
 31
0.0
  0
LINE
  5
3F5
100
AcDbEntity
  8
IMPORT_IGES
100
AcDbLine
 62
250
  6
CONTINUOUS
 10
-54.8531818043
 20
-8.1126088588
 30
0.0
 11
-55.2475185393
 21
-5.0062900986
 31
0.0
  0
LINE
  5
3F6
100
AcDbEntity
  8
IMPORT_IGES
100
AcDbLine
 62
7
  6
CONTINUOUS
 10
-55.1242194855
 20
1.645
 30
0.0
 11
-55.1242194855
 21
7.4428932182
 31
0.0
  0
LINE
  5
3F7
100
AcDbEntity
  8
IMPORT_IGES
100
AcDbLine
 62
250
  6
CONTINUOUS
 10
-54.8242194855
 20
7.4481289407
 30
0.0
 11
-54.8242194855
 21
1.485
 31
0.0
  0
LWPOLYLINE
  5
3F8
100
AcDbEntity
  8
0
100
AcDbPolyline
 62
7
  6
CONTINUOUS
 90
3
 70
0
 43
0.3500000019
 10
-40.2956484375
 20
43.5357145996
 10
-40.3670759277
 20
43.3214294434
 10
-40.5099335937
 20
43.0357141113
  0
LINE
  5
3F9
100
AcDbEntity
  8
IMPORT_IGES
100
AcDbLine
 62
7
  6
CONTINUOUS
 10
-51.3801095809
 20
10.4949949611
 30
0.0
 11
-51.3802038641
 21
10.49475797
 31
0.0
  0
LWPOLYLINE
  5
3FA
100
AcDbEntity
  8
IMPORT_IGES
100
AcDbPolyline
 62
7
  6
CONTINUOUS
 90
17
 70
0
 10
-51.3800929181
 20
10.4950283453
 10
-51.3823697525
 20
10.489583347
 10
-51.3885743951
 20
10.4766285834
 10
-51.3957310194
 20
10.4640819551
 10
-51.4038438965
 20
10.4519682004
 10
-51.4128658358
 20
10.4403917165
 10
-51.422880724
 20
10.4293107312
 10
-51.4340959164
 20
10.4186226735
 10
-51.4464896195
 20
10.4084951091
 10
-51.460070086
 20
10.3990883243
 10
-51.474989469
 20
10.390481428
 10
-51.4910038861
 20
10.3829600669
 10
-51.5079049429
 20
10.3767549039
 10
-51.5256542942
 20
10.3719915302
 10
-51.5438651
 20
10.3688133235
 10
-51.5620543658
 20
10.3673164815
 10
-51.5691784308
 20
10.3671955369
  0
LWPOLYLINE
  5
3FB
100
AcDbEntity
  8
IMPORT_IGES
100
AcDbPolyline
 62
7
  6
CONTINUOUS
 90
4
 70
0
 10
-51.3534197018
 20
10.5474345637
 10
-51.3638689963
 20
10.5297228481
 10
-51.3734099037
 20
10.5106182845
 10
-51.3802038641
 20
10.49475797
  0
LINE
  5
3FC
100
AcDbEntity
  8
RACCORDO
100
AcDbLine
 62
250
  6
CONTINUOUS
 10
-29.5727650527
 20
23.2669872981
 30
0.0
 11
-28.5727650527
 21
23.8443375673
 31
0.0
  0
LINE
  5
3FD
100
AcDbEntity
  8
RACCORDO
100
AcDbLine
 62
7
  6
CONTINUOUS
 10
-29.3242194855
 20
23.1226497308
 30
0.0
 11
-28.4492194855
 21
23.6278312164
 31
0.0
  0
LWPOLYLINE
  5
3FE
100
AcDbEntity
  8
IMPORT_IGES
100
AcDbPolyline
 62
7
  6
CONTINUOUS
 90
3
 70
0
 10
-51.2408426628
 20
10.6386376134
 10
-51.2666935362
 20
10.6276272905
 10
-51.2897038114
 20
10.6140066509
  0
LINE
  5
3FF
100
AcDbEntity
  8
RACCORDO
100
AcDbLine
 62
7
  6
CONTINUOUS
 10
-31.8242194855
 20
-13.8223308767
 30
0.0
 11
-33.2242194855
 21
-13.8101132618
 31
0.0
  0
LINE
  5
400
100
AcDbEntity
  8
RACCORDO
100
AcDbLine
 62
250
  6
CONTINUOUS
 10
-31.8242194855
 20
-13.3223499151
 30
0.0
 11
-33.2242194855
 21
-13.3101323002
 31
0.0
  0
LWPOLYLINE
  5
401
100
AcDbEntity
  8
IMPORT_IGES
100
AcDbPolyline
 62
7
  6
CONTINUOUS
 90
8
 70
0
 10
-51.5020683006
 20
-10.5667114014
 10
-51.4795558475
 20
-10.5720543293
 10
-51.4586164239
 20
-10.5783526327
 10
-51.4395384662
 20
-10.5854407009
 10
-51.4228667485
 20
-10.5929754535
 10
-51.4092273061
 20
-10.6004084809
 10
-51.3986491413
 20
-10.6073511371
 10
-51.3975368461
 20
-10.6081670599
  0
LINE
  5
402
100
AcDbEntity
  8
RACCORDO
100
AcDbLine
 62
250
  6
CONTINUOUS
 10
-28.5727650527
 20
-23.8443375673
 30
0.0
 11
-29.5727650527
 21
-23.2669872981
 31
0.0
  0
LINE
  5
403
100
AcDbEntity
  8
RACCORDO
100
AcDbLine
 62
7
  6
CONTINUOUS
 10
-28.4492194855
 20
-23.6278312164
 30
0.0
 11
-29.3242194855
 21
-23.1226497308
 31
0.0
  0
LINE
  5
404
100
AcDbEntity
  8
IMPORT_IGES
100
AcDbLine
 62
250
  6
CONTINUOUS
 10
-52.5084319253
 20
-10.2098235028
 30
0.0
 11
-52.5084319253
 21
-9.9552357219
 31
0.0
  0
LINE
  5
405
100
AcDbEntity
  8
IMPORT_IGES
100
AcDbLine
 62
250
  6
CONTINUOUS
 10
-52.1120273749
 20
10.3086387199
 30
0.0
 11
-52.1120273745
 21
10.3672173642
 31
0.0
  0
LINE
  5
406
100
AcDbEntity
  8
IMPORT_IGES
100
AcDbLine
 62
250
  6
CONTINUOUS
 10
-52.0830452749
 20
-10.5571439655
 30
0.0
 11
-52.0830452749
 21
-10.5303491692
 31
0.0
  0
LINE
  5
407
100
AcDbEntity
  8
IMPORT_IGES
100
AcDbLine
 62
250
  6
CONTINUOUS
 10
-51.9171127043
 20
10.65
 30
0.0
 11
-51.9171127043
 21
10.45
 31
0.0
  0
LINE
  5
408
100
AcDbEntity
  8
IMPORT_IGES
100
AcDbLine
 62
250
  6
CONTINUOUS
 10
-51.5976615454
 20
-10.5303488012
 30
0.0
 11
-51.5976614851
 21
-10.5571439828
 31
0.0
  0
LINE
  5
409
100
AcDbEntity
  8
IMPORT_IGES
100
AcDbLine
 62
250
  6
CONTINUOUS
 10
-51.5664331639
 20
10.65
 30
0.0
 11
-51.5664112041
 21
10.45
 31
0.0
  0
LINE
  5
40A
100
AcDbEntity
  8
IMPORT_IGES
100
AcDbLine
 62
250
  6
CONTINUOUS
 10
-52.9362895274
 20
9.2774802551
 30
0.0
 11
-52.9362760677
 21
9.4843765541
 31
0.0
  0
LINE
  5
40B
100
AcDbEntity
  8
IMPORT_IGES
100
AcDbLine
 62
250
  6
CONTINUOUS
 10
-51.588706418
 20
-11.25
 30
0.0
 11
-51.5886902029
 21
-11.0520245536
 31
0.0
  0
LINE
  5
40C
100
AcDbEntity
  8
IMPORT_IGES
100
AcDbLine
 62
250
  6
CONTINUOUS
 10
-51.5691889136
 20
10.30863872
 30
0.0
 11
-51.5691766567
 21
10.3672173642
 31
0.0
  0
LINE
  5
40D
100
AcDbEntity
  8
RACCORDO
100
AcDbLine
 62
7
  6
CONTINUOUS
 10
-33.2242194855
 20
-11.5898867382
 30
0.0
 11
-31.8242194855
 21
-11.5776691233
 31
0.0
  0
LINE
  5
40E
100
AcDbEntity
  8
0
100
AcDbLine
 62
7
  6
CONTINUOUS
 10
-33.2242194855
 20
-11.6117237174
 30
0.0
 11
-34.95997981
 21
-11.6117237174
 31
0.0
  0
LINE
  5
40F
100
AcDbEntity
  8
0
100
AcDbLine
 62
7
  6
CONTINUOUS
 10
-35.807004232
 20
-11.6117237174
 30
0.0
 11
-36.1219557294
 21
-11.6117237174
 31
0.0
  0
LINE
  5
410
100
AcDbEntity
  8
0
100
AcDbLine
 62
7
  6
CONTINUOUS
 10
-34.9610976354
 20
-11.6117237174
 30
0.0
 11
-35.8041602783
 21
-11.6117237174
 31
0.0
  0
LINE
  5
411
100
AcDbEntity
  8
0
100
AcDbLine
 62
7
  6
CONTINUOUS
 10
-36.1241944683
 20
-11.6117237174
 30
0.0
 11
-37.809332139
 21
-11.6117237174
 31
0.0
  0
LINE
  5
412
100
AcDbEntity
  8
0
100
AcDbLine
 62
7
  6
CONTINUOUS
 10
-38.8742194855
 20
-11.6117237174
 30
0.0
 11
-40.0930095219
 21
-11.6117237174
 31
0.0
  0
LINE
  5
413
100
AcDbEntity
  8
0
100
AcDbLine
 62
7
  6
CONTINUOUS
 10
-39.5517091152
 20
-11.5117237174
 30
0.0
 11
-40.0930095219
 21
-11.5117237174
 31
0.0
  0
LINE
  5
414
100
AcDbEntity
  8
IMPORT_IGES
100
AcDbLine
 62
7
  6
CONTINUOUS
 10
-39.3974079419
 20
-11.5117237174
 30
0.0
 11
-32.4359432029
 21
-11.5117237174
 31
0.0
  0
LINE
  5
415
100
AcDbEntity
  8
IMPORT_IGES
100
AcDbLine
 62
7
  6
CONTINUOUS
 10
-50.0610755156
 20
-11.45
 30
0.0
 11
-49.5610814554
 21
-11.45
 31
0.0
  0
LINE
  5
416
100
AcDbEntity
  8
IMPORT_IGES
100
AcDbLine
 62
7
  6
CONTINUOUS
 10
-48.4610784855
 20
-11.45
 30
0.0
 11
-45.4167332335
 21
-11.45
 31
0.0
  0
LINE
  5
417
100
AcDbEntity
  8
IMPORT_IGES
100
AcDbLine
 62
7
  6
CONTINUOUS
 10
-44.3614378477
 20
-11.45
 30
0.0
 11
-43.8614424554
 21
-11.45
 31
0.0
  0
LINE
  5
418
100
AcDbEntity
  8
IMPORT_IGES
100
AcDbLine
 62
250
  6
CONTINUOUS
 10
-44.4614394849
 20
-11.35
 30
0.0
 11
-43.7614394862
 21
-11.35
 31
0.0
  0
LINE
  5
419
100
AcDbEntity
  8
IMPORT_IGES
100
AcDbLine
 62
250
  6
CONTINUOUS
 10
-49.4610784855
 20
-11.3499982165
 30
0.0
 11
-50.1610784855
 21
-11.35
 31
0.0
  0
LINE
  5
41A
100
AcDbEntity
  8
IMPORT_IGES
100
AcDbLine
 62
7
  6
CONTINUOUS
 10
-51.6468930484
 20
-11.25
 30
0.0
 11
-43.1607018137
 21
-11.25
 31
0.0
  0
LINE
  5
41B
100
AcDbEntity
  8
IMPORT_IGES
100
AcDbLine
 62
250
  6
CONTINUOUS
 10
-51.1887623134
 20
-11.2098108667
 30
0.0
 11
-43.144092293
 21
-11.2098140625
 31
0.0
  0
LINE
  5
41C
100
AcDbEntity
  8
RACCORDO
100
AcDbLine
 62
7
  6
CONTINUOUS
 10
-31.9999554168
 20
-11.2
 30
0.0
 11
-31.8242194855
 21
-11.2
 31
0.0
  0
LINE
  5
41D
100
AcDbEntity
  8
IMPORT_IGES
100
AcDbLine
 62
7
  6
CONTINUOUS
 10
-51.5976614851
 20
-10.557144089
 30
0.0
 11
-52.0830452749
 21
-10.557144089
 31
0.0
  0
LINE
  5
41E
100
AcDbEntity
  8
IMPORT_IGES
100
AcDbLine
 62
250
  6
CONTINUOUS
 10
-51.5976615454
 20
-10.5303488012
 30
0.0
 11
-52.0830514571
 21
-10.5303488012
 31
0.0
  0
LINE
  5
41F
100
AcDbEntity
  8
IMPORT_IGES
100
AcDbLine
 62
7
  6
CONTINUOUS
 10
-42.5194749722
 20
-10.25
 30
0.0
 11
-38.4813262444
 21
-10.25
 31
0.0
  0
LINE
  5
420
100
AcDbEntity
  8
RACCORDO
100
AcDbLine
 62
7
  6
CONTINUOUS
 10
-31.8242194855
 20
-12.4223308767
 30
0.0
 11
-33.2242194855
 21
-12.4101132618
 31
0.0
  0
LWPOLYLINE
  5
421
100
AcDbEntity
  8
IMPORT_IGES
100
AcDbPolyline
 62
7
  6
CONTINUOUS
 90
3
 70
0
 10
-51.5976614606
 20
-10.5571444635
 10
-51.575297752
 20
-10.557658473
 10
-51.5503952892
 20
-10.5594276302
  0
LWPOLYLINE
  5
422
100
AcDbEntity
  8
IMPORT_IGES
100
AcDbPolyline
 62
7
  6
CONTINUOUS
 90
3
 70
0
 10
-51.5503952892
 20
-10.5594276302
 10
-51.5258591836
 20
-10.5624584076
 10
-51.5020683006
 20
-10.5667114014
  0
LINE
  5
423
100
AcDbEntity
  8
IMPORT_IGES
100
AcDbLine
 62
250
  6
CONTINUOUS
 10
-51.1887392456
 20
-11.2098077379
 30
0.0
 11
-51.1887392456
 21
-11.25
 31
0.0
  0
LINE
  5
424
100
AcDbEntity
  8
IMPORT_IGES
100
AcDbLine
 62
7
  6
CONTINUOUS
 10
-36.513710785
 20
-8.4894912995
 30
0.0
 11
-31.8242194855
 21
-8.4731218204
 31
0.0
  0
LINE
  5
425
100
AcDbEntity
  8
IMPORT_IGES
100
AcDbLine
 62
250
  6
CONTINUOUS
 10
-33.2242194855
 20
-8.1780105898
 30
0.0
 11
-36.6373611088
 21
-8.18992475
 31
0.0
  0
LINE
  5
426
100
AcDbEntity
  8
IMPORT_IGES
100
AcDbLine
 62
250
  6
CONTINUOUS
 10
-52.5084319253
 20
-10.2098076211
 30
0.0
 11
-42.5233933424
 21
-10.2098235042
 31
0.0
  0
LINE
  5
427
100
AcDbEntity
  8
IMPORT_IGES
100
AcDbLine
 62
7
  6
CONTINUOUS
 10
-31.8242194855
 20
-10.1617237167
 30
0.0
 11
-38.1979078868
 21
-10.1617237168
 31
0.0
  0
LINE
  5
428
100
AcDbEntity
  8
IMPORT_IGES
100
AcDbLine
 62
250
  6
CONTINUOUS
 10
-52.5084319226
 20
-9.9552357183
 30
0.0
 11
-38.4813262645
 21
-9.9552344442
 31
0.0
  0
LINE
  5
429
100
AcDbEntity
  8
RACCORDO
100
AcDbLine
 62
7
  6
CONTINUOUS
 10
-31.8242194855
 20
-8.35
 30
0.0
 11
-33.2242194855
 21
-8.35
 31
0.0
  0
LINE
  5
42A
100
AcDbEntity
  8
IMPORT_IGES
100
AcDbLine
 62
7
  6
CONTINUOUS
 10
-53.1242194855
 20
-0.355
 30
0.0
 11
-55.124219515
 21
1.6450000295
 31
0.0
  0
LINE
  5
42B
100
AcDbEntity
  8
IMPORT_IGES
100
AcDbLine
 62
7
  6
CONTINUOUS
 10
-55.1242194855
 20
1.785
 30
0.0
 11
-53.0842194855
 21
-0.255
 31
0.0
  0
LINE
  5
42C
100
AcDbEntity
  8
IMPORT_IGES
100
AcDbLine
 62
7
  6
CONTINUOUS
 10
-56.1991806139
 20
7.9454278766
 30
0.0
 11
-55.3185450276
 21
6.388214071
 31
0.0
  0
LINE
  5
42D
100
AcDbEntity
  8
IMPORT_IGES
100
AcDbLine
 62
7
  6
CONTINUOUS
 10
-48.4610784855
 20
-11.25
 30
0.0
 11
-48.4610784855
 21
-11.45
 31
0.0
  0
LINE
  5
42E
100
AcDbEntity
  8
IMPORT_IGES
100
AcDbLine
 62
7
  6
CONTINUOUS
 10
-47.4610789388
 20
10.85
 30
0.0
 11
-47.4610789388
 21
10.65
 31
0.0
  0
LINE
  5
42F
100
AcDbEntity
  8
IMPORT_IGES
100
AcDbLine
 62
250
  6
CONTINUOUS
 10
-56.9219317159
 20
-6.2324135107
 30
0.0
 11
-57.0633530721
 21
-6.373834867
 31
0.0
  0
LINE
  5
430
100
AcDbEntity
  8
DRAFT
100
AcDbLine
 62
7
  6
CONTINUOUS
 10
-32.0428558646
 20
10.8204228659
 30
0.0
 11
-31.8242194855
 21
10.9
 31
0.0
  0
LINE
  5
431
100
AcDbEntity
  8
RACCORDO
100
AcDbLine
 62
7
  6
CONTINUOUS
 10
-33.2242194855
 20
-7.2898867382
 30
0.0
 11
-31.8242194855
 21
-7.2776691233
 31
0.0
  0
LINE
  5
432
100
AcDbEntity
  8
IMPORT_IGES
100
AcDbLine
 62
7
  6
CONTINUOUS
 10
-36.7742194855
 20
-6.3
 30
0.0
 11
-34.6093218191
 21
-6.3
 31
0.0
  0
LINE
  5
433
100
AcDbEntity
  8
IMPORT_IGES
100
AcDbLine
 62
250
  6
CONTINUOUS
 10
-36.7742194855
 20
-6.1
 30
0.0
 11
-34.6093218191
 21
-6.1
 31
0.0
  0
LINE
  5
434
100
AcDbEntity
  8
IMPORT_IGES
100
AcDbLine
 62
250
  6
CONTINUOUS
 10
-46.6492056697
 20
10.85
 30
0.0
 11
-46.6492056697
 21
10.65
 31
0.0
  0
LINE
  5
435
100
AcDbEntity
  8
IMPORT_IGES
100
AcDbLine
 62
7
  6
CONTINUOUS
 10
-46.0609053517
 20
10.85
 30
0.0
 11
-46.0609121666
 21
10.65
 31
0.0
  0
LINE
  5
436
100
AcDbEntity
  8
IMPORT_IGES
100
AcDbLine
 62
7
  6
CONTINUOUS
 10
-46.0431487584
 20
10.85
 30
0.0
 11
-46.0431487584
 21
10.65
 31
0.0
  0
LINE
  5
437
100
AcDbEntity
  8
IMPORT_IGES
100
AcDbLine
 62
7
  6
CONTINUOUS
 10
-45.4614394855
 20
-11.45
 30
0.0
 11
-45.4614394855
 21
-11.25
 31
0.0
  0
LINE
  5
438
100
AcDbEntity
  8
IMPORT_IGES
100
AcDbLine
 62
7
  6
CONTINUOUS
 10
-45.4159472898
 20
-11.45
 30
0.0
 11
-45.4159472898
 21
-11.25
 31
0.0
  0
LINE
  5
439
100
AcDbEntity
  8
IMPORT_IGES
100
AcDbLine
 62
250
  6
CONTINUOUS
 10
-56.9511974362
 20
-6.1638753356
 30
0.0
 11
-57.1511502329
 21
-6.1682203415
 31
0.0
  0
LINE
  5
43A
100
AcDbEntity
  8
IMPORT_IGES
100
AcDbLine
 62
250
  6
CONTINUOUS
 10
-33.4742194855
 20
-5.2031290204
 30
0.0
 11
-33.2742194855
 21
-5.2031290204
 31
0.0
  0
LINE
  5
43B
100
AcDbEntity
  8
IMPORT_IGES
100
AcDbLine
 62
7
  6
CONTINUOUS
 10
-41.2751711638
 20
-10.25
 30
0.0
 11
-41.145725988
 21
-10.4830032908
 31
0.0
  0
LINE
  5
43C
100
AcDbEntity
  8
IMPORT_IGES
100
AcDbLine
 62
250
  6
CONTINUOUS
 10
-44.5280497525
 20
10.85
 30
0.0
 11
-44.5280496705
 21
10.65
 31
0.0
  0
LINE
  5
43D
100
AcDbEntity
  8
IMPORT_IGES
100
AcDbLine
 62
7
  6
CONTINUOUS
 10
-44.4257238248
 20
10.65
 30
0.0
 11
-44.4257238248
 21
10.85
 31
0.0
  0
LINE
  5
43E
100
AcDbEntity
  8
IMPORT_IGES
100
AcDbLine
 62
7
  6
CONTINUOUS
 10
-36.7742194855
 20
-2.8656164976
 30
0.0
 11
-36.0242194855
 21
-2.8
 31
0.0
  0
LINE
  5
43F
100
AcDbEntity
  8
IMPORT_IGES
100
AcDbLine
 62
7
  6
CONTINUOUS
 10
-36.1742194855
 20
-2.7023764963
 30
0.0
 11
-37.3242194855
 21
-2.7224498209
 31
0.0
  0
LINE
  5
440
100
AcDbEntity
  8
IMPORT_IGES
100
AcDbLine
 62
7
  6
CONTINUOUS
 10
-36.7742194855
 20
-2.8656164976
 30
0.0
 11
-37.3242194855
 21
-2.8656164976
 31
0.0
  0
LINE
  5
441
100
AcDbEntity
  8
RACCORDO
100
AcDbLine
 62
7
  6
CONTINUOUS
 10
-41.8242194855
 20
-19.6808012501
 30
0.0
 11
-41.8242194855
 21
-21.3126932437
 31
0.0
  0
LINE
  5
442
100
AcDbEntity
  8
RACCORDO
100
AcDbLine
 62
7
  6
CONTINUOUS
 10
-41.8242194855
 20
19.6808012501
 30
0.0
 11
-41.8242194855
 21
21.3126932437
 31
0.0
  0
LINE
  5
443
100
AcDbEntity
  8
RACCORDO
100
AcDbLine
 62
250
  6
CONTINUOUS
 10
-41.3329456887
 20
-21.5659754333
 30
0.0
 11
-41.3329456887
 21
-20.9917082642
 31
0.0
  0
LINE
  5
444
100
AcDbEntity
  8
RACCORDO
100
AcDbLine
 62
250
  6
CONTINUOUS
 10
-41.3329456887
 20
20.9917082642
 30
0.0
 11
-41.3329456887
 21
21.5659754333
 31
0.0
  0
LINE
  5
445
100
AcDbEntity
  8
IMPORT_IGES
100
AcDbLine
 62
7
  6
CONTINUOUS
 10
-38.5242194855
 20
1.9656164976
 30
0.0
 11
-36.7742194855
 21
2.9759794687
 31
0.0
  0
LINE
  5
446
100
AcDbEntity
  8
IMPORT_IGES
100
AcDbLine
 62
250
  6
CONTINUOUS
 10
-37.1242194855
 20
3.1735728303
 30
0.0
 11
-38.8242194855
 21
2.1935728303
 31
0.0
  0
LINE
  5
447
100
AcDbEntity
  8
IMPORT_IGES
100
AcDbLine
 62
7
  6
CONTINUOUS
 10
-38.5242194855
 20
2.015
 30
0.0
 11
-36.9743909939
 21
2.9084305422
 31
0.0
  0
LINE
  5
448
100
AcDbEntity
  8
IMPORT_IGES
100
AcDbLine
 62
7
  6
CONTINUOUS
 10
-60.8242194855
 20
-1.355
 30
0.0
 11
-60.0742194855
 21
-1.355
 31
0.0
  0
LINE
  5
449
100
AcDbEntity
  8
IMPORT_IGES
100
AcDbLine
 62
250
  6
CONTINUOUS
 10
-61.1242194855
 20
-0.755
 30
0.0
 11
-60.0742194855
 21
-0.7550000001
 31
0.0
  0
LINE
  5
44A
100
AcDbEntity
  8
0
100
AcDbLine
 62
7
  6
CONTINUOUS
 10
-36.1742194855
 20
-0.5
 30
0.0
 11
-36.0242194855
 21
-0.5
 31
0.0
  0
LINE
  5
44B
100
AcDbEntity
  8
IMPORT_IGES
100
AcDbLine
 62
7
  6
CONTINUOUS
 10
-38.5242194855
 20
-0.355
 30
0.0
 11
-57.274219677
 21
-0.3549943906
 31
0.0
  0
LINE
  5
44C
100
AcDbEntity
  8
IMPORT_IGES
100
AcDbLine
 62
7
  6
CONTINUOUS
 10
-59.5742194855
 20
-0.355
 30
0.0
 11
-57.5726825321
 21
-0.355
 31
0.0
  0
LINE
  5
44D
100
AcDbEntity
  8
IMPORT_IGES
100
AcDbLine
 62
7
  6
CONTINUOUS
 10
-53.0842194855
 20
-0.255
 30
0.0
 11
-38.5242194855
 21
-0.255
 31
0.0
  0
LINE
  5
44E
100
AcDbEntity
  8
0
100
AcDbLine
 62
7
  6
CONTINUOUS
 10
-36.0242194855
 20
0.0
 30
0.0
 11
-36.1742194855
 21
0.0
 31
0.0
  0
LINE
  5
44F
100
AcDbEntity
  8
IMPORT_IGES
100
AcDbLine
 62
7
  6
CONTINUOUS
 10
-53.5242194855
 20
0.045
 30
0.0
 11
-53.3842194855
 21
0.045
 31
0.0
  0
LINE
  5
450
100
AcDbEntity
  8
IMPORT_IGES
100
AcDbLine
 62
250
  6
CONTINUOUS
 10
-57.2742194855
 20
0.245
 30
0.0
 11
-59.5742194855
 21
0.245
 31
0.0
  0
LINE
  5
451
100
AcDbEntity
  8
RACCORDO
100
AcDbLine
 62
7
  6
CONTINUOUS
 10
-31.8242194855
 20
-0.4223308767
 30
0.0
 11
-33.2242194855
 21
-0.4101132618
 31
0.0
  0
LINE
  5
452
100
AcDbEntity
  8
IMPORT_IGES
100
AcDbLine
 62
7
  6
CONTINUOUS
 10
-36.7742194855
 20
-3.8759794687
 30
0.0
 11
-38.5242194855
 21
-2.8656164976
 31
0.0
  0
LINE
  5
453
100
AcDbEntity
  8
IMPORT_IGES
100
AcDbLine
 62
250
  6
CONTINUOUS
 10
-38.8242194855
 20
-3.0800928356
 30
0.0
 11
-37.1242195748
 21
-4.1000928356
 31
0.0
  0
LINE
  5
454
100
AcDbEntity
  8
IMPORT_IGES
100
AcDbLine
 62
7
  6
CONTINUOUS
 10
-36.9698707589
 20
-3.837609236
 30
0.0
 11
-38.5242181765
 21
-2.9050007854
 31
0.0
  0
LINE
  5
455
100
AcDbEntity
  8
IMPORT_IGES
100
AcDbLine
 62
250
  6
CONTINUOUS
 10
-52.1337849362
 20
10.3666722318
 30
0.0
 11
-52.2706660948
 21
10.5035533907
 31
0.0
  0
LINE
  5
456
100
AcDbEntity
  8
0
100
AcDbLine
 62
7
  6
CONTINUOUS
 10
-40.0930095219
 20
-11.5117237174
 30
0.0
 11
-40.0930095219
 21
-11.6117237174
 31
0.0
  0
LINE
  5
457
100
AcDbEntity
  8
0
100
AcDbLine
 62
7
  6
CONTINUOUS
 10
-40.0545753577
 20
-11.5117237174
 30
0.0
 11
-40.0545753577
 21
-11.6117237174
 31
0.0
  0
LINE
  5
458
100
AcDbEntity
  8
0
100
AcDbLine
 62
250
  6
CONTINUOUS
 10
-39.8854650342
 20
-11.5117237174
 30
0.0
 11
-39.8854650342
 21
-11.6117237174
 31
0.0
  0
LINE
  5
459
100
AcDbEntity
  8
0
100
AcDbLine
 62
7
  6
CONTINUOUS
 10
-39.6497354829
 20
-11.5117237174
 30
0.0
 11
-39.6497354829
 21
-11.6117237174
 31
0.0
  0
LINE
  5
45A
100
AcDbEntity
  8
0
100
AcDbLine
 62
250
  6
CONTINUOUS
 10
-39.5517091152
 20
-11.5117237174
 30
0.0
 11
-39.5517091152
 21
-11.6117237174
 31
0.0
  0
LWPOLYLINE
  5
45B
100
AcDbEntity
  8
0
100
AcDbPolyline
 62
7
  6
CONTINUOUS
 90
4
 70
0
 43
0.3500000019
 10
-39.2956474609
 20
43.6785722656
 10
-39.2956474609
 20
44.5357155762
 10
-38.8670771484
 20
44.9642858887
 10
-38.2242189941
 20
44.9642858887
  0
LINE
  5
45C
100
AcDbEntity
  8
0
100
AcDbLine
 62
250
  6
CONTINUOUS
 10
-39.2918707573
 20
-11.5117237174
 30
0.0
 11
-39.2918707573
 21
-11.6117237174
 31
0.0
  0
LINE
  5
45D
100
AcDbEntity
  8
0
100
AcDbLine
 62
250
  6
CONTINUOUS
 10
-38.9963547056
 20
-11.5117237174
 30
0.0
 11
-38.9963547056
 21
-11.6117237174
 31
0.0
  0
LINE
  5
45E
100
AcDbEntity
  8
0
100
AcDbLine
 62
7
  6
CONTINUOUS
 10
-38.8742194855
 20
-11.5117237174
 30
0.0
 11
-38.8742194855
 21
-11.6117237174
 31
0.0
  0
LINE
  5
45F
100
AcDbEntity
  8
IMPORT_IGES
100
AcDbLine
 62
250
  6
CONTINUOUS
 10
-34.4853301555
 20
5.3569269492
 30
0.0
 11
-34.6093218191
 21
5.2
 31
0.0
  0
LINE
  5
460
100
AcDbEntity
  8
RACCORDO
100
AcDbLine
 62
7
  6
CONTINUOUS
 10
-33.2242194855
 20
0.4101132618
 30
0.0
 11
-31.8242194855
 21
0.4223308767
 31
0.0
  0
LINE
  5
461
100
AcDbEntity
  8
IMPORT_IGES
100
AcDbLine
 62
7
  6
CONTINUOUS
 10
-36.1742194855
 20
1.5876514453
 30
0.0
 11
-36.0242194855
 21
1.5876514453
 31
0.0
  0
LINE
  5
462
100
AcDbEntity
  8
IMPORT_IGES
100
AcDbLine
 62
250
  6
CONTINUOUS
 10
-57.2742194855
 20
1.645
 30
0.0
 11
-61.1242194855
 21
1.645
 31
0.0
  0
LINE
  5
463
100
AcDbEntity
  8
IMPORT_IGES
100
AcDbLine
 62
7
  6
CONTINUOUS
 10
-37.3242194855
 20
1.9656164976
 30
0.0
 11
-36.7742194855
 21
1.9656164976
 31
0.0
  0
LINE
  5
464
100
AcDbEntity
  8
IMPORT_IGES
100
AcDbLine
 62
7
  6
CONTINUOUS
 10
-37.3242194855
 20
1.8990023869
 30
0.0
 11
-36.1742194855
 21
1.8789290622
 31
0.0
  0
LINE
  5
465
100
AcDbEntity
  8
IMPORT_IGES
100
AcDbLine
 62
7
  6
CONTINUOUS
 10
-36.0242194855
 20
1.9
 30
0.0
 11
-36.7742194855
 21
1.9656164976
 31
0.0
  0
LINE
  5
466
100
AcDbEntity
  8
IMPORT_IGES
100
AcDbLine
 62
250
  6
CONTINUOUS
 10
-34.6093218191
 20
-6.1
 30
0.0
 11
-34.4853301555
 21
-6.2569269492
 31
0.0
  0
LINE
  5
467
100
AcDbEntity
  8
IMPORT_IGES
100
AcDbLine
 62
250
  6
CONTINUOUS
 10
-38.8242194855
 20
-3.0800928356
 30
0.0
 11
-38.8242194855
 21
-0.355
 31
0.0
  0
LINE
  5
468
100
AcDbEntity
  8
IMPORT_IGES
100
AcDbLine
 62
250
  6
CONTINUOUS
 10
-38.8242194855
 20
-0.255
 30
0.0
 11
-38.8242194855
 21
2.1935728303
 31
0.0
  0
LINE
  5
469
100
AcDbEntity
  8
RACCORDO
100
AcDbLine
 62
7
  6
CONTINUOUS
 10
-38.8242194855
 20
-22.3301850577
 30
0.0
 11
-38.8242194855
 21
-23.2563578147
 31
0.0
  0
LINE
  5
46A
100
AcDbEntity
  8
RACCORDO
100
AcDbLine
 62
7
  6
CONTINUOUS
 10
-38.8242194855
 20
22.3301850577
 30
0.0
 11
-38.8242194855
 21
23.2563578147
 31
0.0
  0
LINE
  5
46B
100
AcDbEntity
  8
IMPORT_IGES
100
AcDbLine
 62
250
  6
CONTINUOUS
 10
-38.5825788726
 20
9.4843758577
 30
0.0
 11
-38.5825788743
 21
9.2774802551
 31
0.0
  0
LINE
  5
46C
100
AcDbEntity
  8
IMPORT_IGES
100
AcDbLine
 62
7
  6
CONTINUOUS
 10
-38.5242194855
 20
-2.9050072414
 30
0.0
 11
-38.5242194855
 21
2.0150004114
 31
0.0
  0
LINE
  5
46D
100
AcDbEntity
  8
IMPORT_IGES
100
AcDbLine
 62
250
  6
CONTINUOUS
 10
-38.4813261802
 20
-10.25
 30
0.0
 11
-38.4813262645
 21
-9.9552348775
 31
0.0
  0
LINE
  5
46E
100
AcDbEntity
  8
ASSI
100
AcDbLine
 62
250
  6
CONTINUOUS
 10
-38.3987393123
 20
-22.3338981669
 30
0.0
 11
-38.3987393123
 21
-23.7507734247
 31
0.0
  0
LINE
  5
46F
100
AcDbEntity
  8
ASSI
100
AcDbLine
 62
250
  6
CONTINUOUS
 10
-38.3987393123
 20
22.3338981669
 30
0.0
 11
-38.3987393123
 21
23.7507734247
 31
0.0
  0
LINE
  5
470
100
AcDbEntity
  8
0
100
AcDbLine
 62
7
  6
CONTINUOUS
 10
-37.809377442
 20
-11.5117237174
 30
0.0
 11
-37.809377442
 21
-11.6117237174
 31
0.0
  0
LINE
  5
471
100
AcDbEntity
  8
0
100
AcDbLine
 62
250
  6
CONTINUOUS
 10
-37.7994472148
 20
-11.5117237174
 30
0.0
 11
-37.7994472148
 21
-11.6117237174
 31
0.0
  0
LINE
  5
472
100
AcDbEntity
  8
0
100
AcDbLine
 62
250
  6
CONTINUOUS
 10
-37.6679121088
 20
-11.5117237174
 30
0.0
 11
-37.6679121088
 21
-11.6117237174
 31
0.0
  0
LINE
  5
473
100
AcDbEntity
  8
0
100
AcDbLine
 62
7
  6
CONTINUOUS
 10
-37.5563992646
 20
-11.5117237174
 30
0.0
 11
-37.5563992646
 21
-11.6117237174
 31
0.0
  0
LINE
  5
474
100
AcDbEntity
  8
0
100
AcDbLine
 62
7
  6
CONTINUOUS
 10
-37.5433027888
 20
-11.5117237174
 30
0.0
 11
-37.5433027888
 21
-11.6117237174
 31
0.0
  0
LINE
  5
475
100
AcDbEntity
  8
0
100
AcDbLine
 62
7
  6
CONTINUOUS
 10
-37.3266565194
 20
-11.5117237174
 30
0.0
 11
-37.3266565194
 21
-11.6117237174
 31
0.0
  0
LINE
  5
476
100
AcDbEntity
  8
IMPORT_IGES
100
AcDbLine
 62
7
  6
CONTINUOUS
 10
-37.3242194855
 20
-2.8656164976
 30
0.0
 11
-37.3242194855
 21
1.9656164976
 31
0.0
  0
LINE
  5
477
100
AcDbEntity
  8
0
100
AcDbLine
 62
7
  6
CONTINUOUS
 10
-37.1900364825
 20
-11.5117237174
 30
0.0
 11
-37.1900364825
 21
-11.6117237174
 31
0.0
  0
LINE
  5
478
100
AcDbEntity
  8
0
100
AcDbLine
 62
7
  6
CONTINUOUS
 10
-37.1697294113
 20
-11.5117237174
 30
0.0
 11
-37.1697294113
 21
-11.6117237174
 31
0.0
  0
LINE
  5
479
100
AcDbEntity
  8
0
100
AcDbLine
 62
250
  6
CONTINUOUS
 10
-37.1359221825
 20
-11.5117237174
 30
0.0
 11
-37.1359221825
 21
-11.6117237174
 31
0.0
  0
LINE
  5
47A
100
AcDbEntity
  8
IMPORT_IGES
100
AcDbLine
 62
250
  6
CONTINUOUS
 10
-37.1242195748
 20
-4.1000928356
 30
0.0
 11
-37.1242197683
 21
-8.5981289408
 31
0.0
  0
LINE
  5
47B
100
AcDbEntity
  8
IMPORT_IGES
100
AcDbLine
 62
250
  6
CONTINUOUS
 10
-37.1242194855
 20
3.1735728303
 30
0.0
 11
-37.1242194855
 21
8.4409729341
 31
0.0
  0
LINE
  5
47C
100
AcDbEntity
  8
0
100
AcDbLine
 62
7
  6
CONTINUOUS
 10
-36.9955024398
 20
-11.5117237174
 30
0.0
 11
-36.9955024398
 21
-11.6117237174
 31
0.0
  0
LINE
  5
47D
100
AcDbEntity
  8
IMPORT_IGES
100
AcDbLine
 62
7
  6
CONTINUOUS
 10
-36.9242194855
 20
1.8920203609
 30
0.0
 11
-36.9242194855
 21
-2.715467795
 31
0.0
  0
LINE
  5
47E
100
AcDbEntity
  8
IMPORT_IGES
100
AcDbLine
 62
7
  6
CONTINUOUS
 10
-36.8242194855
 20
-8.5928937005
 30
0.0
 11
-36.8242194855
 21
-4.0948571136
 31
0.0
  0
LINE
  5
47F
100
AcDbEntity
  8
IMPORT_IGES
100
AcDbLine
 62
7
  6
CONTINUOUS
 10
-36.8242194855
 20
3.1683371079
 30
0.0
 11
-36.8242194855
 21
8.4357372127
 31
0.0
  0
LINE
  5
480
100
AcDbEntity
  8
IMPORT_IGES
100
AcDbLine
 62
7
  6
CONTINUOUS
 10
-36.7742194855
 20
2.9759794687
 30
0.0
 11
-36.7742194855
 21
5.4
 31
0.0
  0
LINE
  5
481
100
AcDbEntity
  8
IMPORT_IGES
100
AcDbLine
 62
7
  6
CONTINUOUS
 10
-36.7742194855
 20
-3.8759794687
 30
0.0
 11
-36.7742194855
 21
-6.3
 31
0.0
  0
LINE
  5
482
100
AcDbEntity
  8
0
100
AcDbLine
 62
7
  6
CONTINUOUS
 10
-36.7546741243
 20
-11.5117237174
 30
0.0
 11
-36.7546741243
 21
-11.6117237174
 31
0.0
  0
LINE
  5
483
100
AcDbEntity
  8
0
100
AcDbLine
 62
7
  6
CONTINUOUS
 10
-36.7389201633
 20
-11.5117237174
 30
0.0
 11
-36.7389201633
 21
-11.6117237174
 31
0.0
  0
LWPOLYLINE
  5
484
100
AcDbEntity
  8
0
100
AcDbPolyline
 62
7
  6
CONTINUOUS
 90
3
 70
0
 43
0.3500000019
 10
-25.7527890625
 20
33.5357155762
 10
-25.8242192383
 20
33.3214277344
 10
-25.9670769043
 20
33.0357150879
  0
LINE
  5
485
100
AcDbEntity
  8
IMPORT_IGES
100
AcDbLine
 62
7
  6
CONTINUOUS
 10
-43.05915522
 20
-11.1913945178
 30
0.0
 11
-42.5151092575
 21
-10.2490802462
 31
0.0
  0
LINE
  5
486
100
AcDbEntity
  8
IMPORT_IGES
100
AcDbLine
 62
250
  6
CONTINUOUS
 10
-42.7917262074
 20
-10.6419627457
 30
0.0
 11
-42.8602723652
 21
-10.7531161537
 31
0.0
  0
LINE
  5
487
100
AcDbEntity
  8
IMPORT_IGES
100
AcDbLine
 62
250
  6
CONTINUOUS
 10
-42.5233933424
 20
-10.2098235042
 30
0.0
 11
-42.5895777741
 21
-10.3159893234
 31
0.0
  0
LINE
  5
488
100
AcDbEntity
  8
IMPORT_IGES
100
AcDbLine
 62
250
  6
CONTINUOUS
 10
-43.0717130362
 20
-11.0938247764
 30
0.0
 11
-43.144092293
 21
-11.2098140625
 31
0.0
  0
LINE
  5
489
100
AcDbEntity
  8
IMPORT_IGES
100
AcDbLine
 62
250
  6
CONTINUOUS
 10
-33.4742194855
 20
4.3031290204
 30
0.0
 11
-33.350227822
 21
4.4600559695
 31
0.0
  0
LINE
  5
48A
100
AcDbEntity
  8
IMPORT_IGES
100
AcDbLine
 62
7
  6
CONTINUOUS
 10
-57.5742194855
 20
2.645
 30
0.0
 11
-60.8242194855
 21
2.645
 31
0.0
  0
LINE
  5
48B
100
AcDbEntity
  8
IMPORT_IGES
100
AcDbLine
 62
7
  6
CONTINUOUS
 10
-60.9242194855
 20
2.8132052805
 30
0.0
 11
-57.3053936201
 21
2.8132052805
 31
0.0
  0
LINE
  5
48C
100
AcDbEntity
  8
IMPORT_IGES
100
AcDbLine
 62
250
  6
CONTINUOUS
 10
-60.1161831785
 20
3.0132052805
 30
0.0
 11
-57.2742194855
 21
3.0132052804
 31
0.0
  0
LINE
  5
48D
100
AcDbEntity
  8
IMPORT_IGES
100
AcDbLine
 62
250
  6
CONTINUOUS
 10
-60.3242194855
 20
3.4922589292
 30
0.0
 11
-60.9242194855
 21
3.4922589293
 31
0.0
  0
LINE
  5
48E
100
AcDbEntity
  8
IMPORT_IGES
100
AcDbLine
 62
250
  6
CONTINUOUS
 10
-57.2742194855
 20
3.5919551343
 30
0.0
 11
-60.1242194855
 21
3.5919551344
 31
0.0
  0
LINE
  5
48F
100
AcDbEntity
  8
IMPORT_IGES
100
AcDbLine
 62
250
  6
CONTINUOUS
 10
-33.2742194855
 20
4.3031290204
 30
0.0
 11
-33.4742194855
 21
4.3031290204
 31
0.0
  0
LINE
  5
490
100
AcDbEntity
  8
IMPORT_IGES
100
AcDbLine
 62
7
  6
CONTINUOUS
 10
-36.0242194855
 20
1.0855933529
 30
0.0
 11
-36.1742194855
 21
1.1590497836
 31
0.0
  0
LINE
  5
491
100
AcDbEntity
  8
IMPORT_IGES
100
AcDbLine
 62
250
  6
CONTINUOUS
 10
-33.350227822
 20
-5.3600559695
 30
0.0
 11
-33.4742194855
 21
-5.2031290204
 31
0.0
  0
LINE
  5
492
100
AcDbEntity
  8
0
100
AcDbLine
 62
250
  6
CONTINUOUS
 10
-36.4940946551
 20
-11.5117237174
 30
0.0
 11
-36.4940946551
 21
-11.6117237174
 31
0.0
  0
LINE
  5
493
100
AcDbEntity
  8
0
100
AcDbLine
 62
7
  6
CONTINUOUS
 10
-36.4212362651
 20
-11.5117237174
 30
0.0
 11
-36.4212362651
 21
-11.6117237174
 31
0.0
  0
LINE
  5
494
100
AcDbEntity
  8
IMPORT_IGES
100
AcDbLine
 62
250
  6
CONTINUOUS
 10
-36.3342194855
 20
1.8817218726
 30
0.0
 11
-36.3342194855
 21
-2.7051693067
 31
0.0
  0
LINE
  5
495
100
AcDbEntity
  8
IMPORT_IGES
100
AcDbLine
 62
7
  6
CONTINUOUS
 10
-36.1742194855
 20
-2.7023764963
 30
0.0
 11
-36.1742194855
 21
1.8789290622
 31
0.0
  0
LINE
  5
496
100
AcDbEntity
  8
0
100
AcDbLine
 62
7
  6
CONTINUOUS
 10
-36.1347249444
 20
-11.5117237174
 30
0.0
 11
-36.1347249444
 21
-11.6117237174
 31
0.0
  0
LINE
  5
497
100
AcDbEntity
  8
0
100
AcDbLine
 62
7
  6
CONTINUOUS
 10
-36.1241944683
 20
-11.5117237174
 30
0.0
 11
-36.1241944683
 21
-11.6117237174
 31
0.0
  0
LINE
  5
498
100
AcDbEntity
  8
IMPORT_IGES
100
AcDbLine
 62
7
  6
CONTINUOUS
 10
-36.0242194855
 20
1.9
 30
0.0
 11
-36.0242194855
 21
-2.8
 31
0.0
  0
LINE
  5
499
100
AcDbEntity
  8
0
100
AcDbLine
 62
7
  6
CONTINUOUS
 10
-35.9622281778
 20
-11.5117237174
 30
0.0
 11
-35.9622281778
 21
-11.6117237174
 31
0.0
  0
LINE
  5
49A
100
AcDbEntity
  8
0
100
AcDbLine
 62
250
  6
CONTINUOUS
 10
-35.896340613
 20
-11.5117237174
 30
0.0
 11
-35.896340613
 21
-11.6117237174
 31
0.0
  0
LINE
  5
49B
100
AcDbEntity
  8
0
100
AcDbLine
 62
7
  6
CONTINUOUS
 10
-35.8041602783
 20
-11.5117237174
 30
0.0
 11
-35.8041602783
 21
-11.6117237174
 31
0.0
  0
LINE
  5
49C
100
AcDbEntity
  8
0
100
AcDbLine
 62
7
  6
CONTINUOUS
 10
-35.7787038711
 20
-11.5117237174
 30
0.0
 11
-35.7787038711
 21
-11.6117237174
 31
0.0
  0
LINE
  5
49D
100
AcDbEntity
  8
0
100
AcDbLine
 62
7
  6
CONTINUOUS
 10
-35.7163908293
 20
-11.5117237174
 30
0.0
 11
-35.7163908293
 21
-11.6117237174
 31
0.0
  0
LINE
  5
49E
100
AcDbEntity
  8
0
100
AcDbLine
 62
7
  6
CONTINUOUS
 10
-35.6862133886
 20
-11.5117237174
 30
0.0
 11
-35.6862133886
 21
-11.6117237174
 31
0.0
  0
LINE
  5
49F
100
AcDbEntity
  8
0
100
AcDbLine
 62
250
  6
CONTINUOUS
 10
-35.6313499121
 20
-11.5117237174
 30
0.0
 11
-35.6313499121
 21
-11.6117237174
 31
0.0
  0
LINE
  5
4A0
100
AcDbEntity
  8
0
100
AcDbLine
 62
250
  6
CONTINUOUS
 10
-35.4635722006
 20
-11.5117237174
 30
0.0
 11
-35.4635722006
 21
-11.6117237174
 31
0.0
  0
LINE
  5
4A1
100
AcDbEntity
  8
0
100
AcDbLine
 62
250
  6
CONTINUOUS
 10
-35.3540537329
 20
-11.5117237174
 30
0.0
 11
-35.3540537329
 21
-11.6117237174
 31
0.0
  0
LINE
  5
4A2
100
AcDbEntity
  8
0
100
AcDbLine
 62
250
  6
CONTINUOUS
 10
-35.2923058725
 20
-11.5117237174
 30
0.0
 11
-35.2923058725
 21
-11.6117237174
 31
0.0
  0
LINE
  5
4A3
100
AcDbEntity
  8
0
100
AcDbLine
 62
250
  6
CONTINUOUS
 10
-35.2726376806
 20
-11.5117237174
 30
0.0
 11
-35.2726376806
 21
-11.6117237174
 31
0.0
  0
LINE
  5
4A4
100
AcDbEntity
  8
0
100
AcDbLine
 62
7
  6
CONTINUOUS
 10
-35.2639822648
 20
-11.5117237174
 30
0.0
 11
-35.2639822648
 21
-11.6117237174
 31
0.0
  0
LINE
  5
4A5
100
AcDbEntity
  8
0
100
AcDbLine
 62
7
  6
CONTINUOUS
 10
-35.2359408193
 20
-11.5117237174
 30
0.0
 11
-35.2359408193
 21
-11.6117237174
 31
0.0
  0
LINE
  5
4A6
100
AcDbEntity
  8
0
100
AcDbLine
 62
7
  6
CONTINUOUS
 10
-35.1738910094
 20
-11.5117237174
 30
0.0
 11
-35.1738910094
 21
-11.6117237174
 31
0.0
  0
LINE
  5
4A7
100
AcDbEntity
  8
0
100
AcDbLine
 62
250
  6
CONTINUOUS
 10
-35.1665699535
 20
-11.5117237174
 30
0.0
 11
-35.1665699535
 21
-11.6117237174
 31
0.0
  0
LINE
  5
4A8
100
AcDbEntity
  8
0
100
AcDbLine
 62
7
  6
CONTINUOUS
 10
-35.165168584
 20
-11.6117237174
 30
0.0
 11
-35.165168584
 21
-11.5117237174
 31
0.0
  0
LINE
  5
4A9
100
AcDbEntity
  8
0
100
AcDbLine
 62
7
  6
CONTINUOUS
 10
-35.1105184162
 20
-11.5117237174
 30
0.0
 11
-35.1105184162
 21
-11.6117237174
 31
0.0
  0
LINE
  5
4AA
100
AcDbEntity
  8
0
100
AcDbLine
 62
7
  6
CONTINUOUS
 10
-35.0493084395
 20
-11.5117237174
 30
0.0
 11
-35.0493084395
 21
-11.6117237174
 31
0.0
  0
LINE
  5
4AB
100
AcDbEntity
  8
0
100
AcDbLine
 62
7
  6
CONTINUOUS
 10
-34.9780704748
 20
-11.5117237174
 30
0.0
 11
-34.9780704748
 21
-11.6117237174
 31
0.0
  0
LINE
  5
4AC
100
AcDbEntity
  8
0
100
AcDbLine
 62
7
  6
CONTINUOUS
 10
-34.95997981
 20
-11.5117237174
 30
0.0
 11
-34.95997981
 21
-11.6117237174
 31
0.0
  0
LINE
  5
4AD
100
AcDbEntity
  8
0
100
AcDbLine
 62
7
  6
CONTINUOUS
 10
-34.8765477943
 20
-11.5117237174
 30
0.0
 11
-34.8765477943
 21
-11.6117237174
 31
0.0
  0
LINE
  5
4AE
100
AcDbEntity
  8
IMPORT_IGES
100
AcDbLine
 62
250
  6
CONTINUOUS
 10
-59.9242194855
 20
4.8391742633
 30
0.0
 11
-57.2742194855
 21
4.8391742738
 31
0.0
  0
LINE
  5
4AF
100
AcDbEntity
  8
IMPORT_IGES
100
AcDbLine
 62
250
  6
CONTINUOUS
 10
-36.7742194855
 20
5.2
 30
0.0
 11
-34.6093218191
 21
5.2
 31
0.0
  0
LINE
  5
4B0
100
AcDbEntity
  8
IMPORT_IGES
100
AcDbLine
 62
7
  6
CONTINUOUS
 10
-34.6093218191
 20
5.4
 30
0.0
 11
-36.7742194855
 21
5.4
 31
0.0
  0
LINE
  5
4B1
100
AcDbEntity
  8
IMPORT_IGES
100
AcDbLine
 62
7
  6
CONTINUOUS
 10
-57.2742194855
 20
5.8502977476
 30
0.0
 11
-59.9242194855
 21
5.8502977476
 31
0.0
  0
LINE
  5
4B2
100
AcDbEntity
  8
IMPORT_IGES
100
AcDbLine
 62
7
  6
CONTINUOUS
 10
-55.1939613391
 20
6.1018989274
 30
0.0
 11
-56.9742196468
 21
6.1019021835
 31
0.0
  0
LINE
  5
4B3
100
AcDbEntity
  8
IMPORT_IGES
100
AcDbLine
 62
250
  6
CONTINUOUS
 10
-60.9242194855
 20
6.301034697
 30
0.0
 11
-60.3242194855
 21
6.301034697
 31
0.0
  0
LINE
  5
4B4
100
AcDbEntity
  8
RACCORDO
100
AcDbLine
 62
7
  6
CONTINUOUS
 10
-31.8242194855
 20
5.9776691233
 30
0.0
 11
-32.9268374462
 21
5.9872915245
 31
0.0
  0
LINE
  5
4B5
100
AcDbEntity
  8
IMPORT_IGES
100
AcDbLine
 62
250
  6
CONTINUOUS
 10
-34.6093218191
 20
-6.3
 30
0.0
 11
-34.6093218191
 21
-6.1
 31
0.0
  0
LINE
  5
4B6
100
AcDbEntity
  8
IMPORT_IGES
100
AcDbLine
 62
250
  6
CONTINUOUS
 10
-34.6093218191
 20
5.2
 30
0.0
 11
-34.6093218191
 21
5.4
 31
0.0
  0
LINE
  5
4B7
100
AcDbEntity
  8
0
100
AcDbLine
 62
7
  6
CONTINUOUS
 10
-34.2781106902
 20
-11.5117237174
 30
0.0
 11
-34.2781106902
 21
-11.6117237174
 31
0.0
  0
LINE
  5
4B8
100
AcDbEntity
  8
0
100
AcDbLine
 62
7
  6
CONTINUOUS
 10
-34.2350889506
 20
-11.5117237174
 30
0.0
 11
-34.2350889506
 21
-11.6117237174
 31
0.0
  0
LINE
  5
4B9
100
AcDbEntity
  8
0
100
AcDbLine
 62
7
  6
CONTINUOUS
 10
-34.210452293
 20
-11.5117237174
 30
0.0
 11
-34.210452293
 21
-11.6117237174
 31
0.0
  0
LINE
  5
4BA
100
AcDbEntity
  8
0
100
AcDbLine
 62
250
  6
CONTINUOUS
 10
-34.1162554216
 20
-11.5117237174
 30
0.0
 11
-34.1162554216
 21
-11.6117237174
 31
0.0
  0
LINE
  5
4BB
100
AcDbEntity
  8
0
100
AcDbLine
 62
7
  6
CONTINUOUS
 10
-34.0660157219
 20
-11.5117237174
 30
0.0
 11
-34.0660157219
 21
-11.6117237174
 31
0.0
  0
LINE
  5
4BC
100
AcDbEntity
  8
0
100
AcDbLine
 62
7
  6
CONTINUOUS
 10
-33.8695660459
 20
-11.5117237174
 30
0.0
 11
-33.8695660459
 21
-11.6117237174
 31
0.0
  0
LINE
  5
4BD
100
AcDbEntity
  8
0
100
AcDbLine
 62
7
  6
CONTINUOUS
 10
-33.8577112162
 20
-11.5117237174
 30
0.0
 11
-33.8577112162
 21
-11.6117237174
 31
0.0
  0
LINE
  5
4BE
100
AcDbEntity
  8
0
100
AcDbLine
 62
7
  6
CONTINUOUS
 10
-33.5804268068
 20
-11.5117237174
 30
0.0
 11
-33.5804268068
 21
-11.6117237174
 31
0.0
  0
LINE
  5
4BF
100
AcDbEntity
  8
0
100
AcDbLine
 62
250
  6
CONTINUOUS
 10
-33.5574032376
 20
-11.5117237174
 30
0.0
 11
-33.5574032376
 21
-11.6117237174
 31
0.0
  0
LINE
  5
4C0
100
AcDbEntity
  8
ASSI
100
AcDbLine
 62
250
  6
CONTINUOUS
 10
-33.4742194855
 20
-5.2031290204
 30
0.0
 11
-33.4742194855
 21
4.3031290204
 31
0.0
  0
LINE
  5
4C1
100
AcDbEntity
  8
0
100
AcDbLine
 62
7
  6
CONTINUOUS
 10
-33.4524969823
 20
-11.5117237174
 30
0.0
 11
-33.4524969823
 21
-11.6117237174
 31
0.0
  0
LINE
  5
4C2
100
AcDbEntity
  8
0
100
AcDbLine
 62
7
  6
CONTINUOUS
 10
-33.4317916322
 20
-11.5117237174
 30
0.0
 11
-33.4317916322
 21
-11.6117237174
 31
0.0
  0
LINE
  5
4C3
100
AcDbEntity
  8
0
100
AcDbLine
 62
250
  6
CONTINUOUS
 10
-33.3641283804
 20
-11.5117237174
 30
0.0
 11
-33.3641283804
 21
-11.6117237174
 31
0.0
  0
LINE
  5
4C4
100
AcDbEntity
  8
0
100
AcDbLine
 62
250
  6
CONTINUOUS
 10
-33.2815552807
 20
-11.5117237174
 30
0.0
 11
-33.2815552807
 21
-11.6117237174
 31
0.0
  0
LINE
  5
4C5
100
AcDbEntity
  8
ASSI
100
AcDbLine
 62
7
  6
CONTINUOUS
 10
-33.2742194855
 20
-5.2031290204
 30
0.0
 11
-33.2742194855
 21
4.3031290204
 31
0.0
  0
LINE
  5
4C6
100
AcDbEntity
  8
RACCORDO
100
AcDbLine
 62
7
  6
CONTINUOUS
 10
-33.2242194855
 20
-13.8101132618
 30
0.0
 11
-33.2242194855
 21
-11.5898867382
 31
0.0
  0
LINE
  5
4C7
100
AcDbEntity
  8
RACCORDO
100
AcDbLine
 62
7
  6
CONTINUOUS
 10
-33.2242194855
 20
-8.35
 30
0.0
 11
-33.2242194855
 21
-7.2898867382
 31
0.0
  0
LINE
  5
4C8
100
AcDbEntity
  8
RACCORDO
100
AcDbLine
 62
7
  6
CONTINUOUS
 10
-33.2242194855
 20
-0.4101132618
 30
0.0
 11
-33.2242194855
 21
0.4101132618
 31
0.0
  0
LINE
  5
4C9
100
AcDbEntity
  8
RACCORDO
100
AcDbLine
 62
7
  6
CONTINUOUS
 10
-33.2242194855
 20
6.2872801014
 30
0.0
 11
-33.2242194855
 21
10.8101132618
 31
0.0
  0
LINE
  5
4CA
100
AcDbEntity
  8
RACCORDO
100
AcDbLine
 62
250
  6
CONTINUOUS
 10
-33.0268255285
 20
-12.4118358927
 30
0.0
 11
-33.0268255285
 21
-11.5881641073
 31
0.0
  0
LINE
  5
4CB
100
AcDbEntity
  8
RACCORDO
100
AcDbLine
 62
250
  6
CONTINUOUS
 10
-33.0268255285
 20
-8.35
 30
0.0
 11
-33.0268255285
 21
-7.2881641073
 31
0.0
  0
LINE
  5
4CC
100
AcDbEntity
  8
RACCORDO
100
AcDbLine
 62
250
  6
CONTINUOUS
 10
-33.0268255285
 20
-0.4118358927
 30
0.0
 11
-33.0268255285
 21
0.4118358927
 31
0.0
  0
LINE
  5
4CD
100
AcDbEntity
  8
RACCORDO
100
AcDbLine
 62
250
  6
CONTINUOUS
 10
-33.0268255285
 20
7.9881641073
 30
0.0
 11
-33.0268255285
 21
8.8118358927
 31
0.0
  0
LINE
  5
4CE
100
AcDbEntity
  8
0
100
AcDbLine
 62
7
  6
CONTINUOUS
 10
-32.9851430967
 20
-11.5117237174
 30
0.0
 11
-32.9851430967
 21
-11.5881641073
 31
0.0
  0
LINE
  5
4CF
100
AcDbEntity
  8
0
100
AcDbLine
 62
250
  6
CONTINUOUS
 10
-32.8473728611
 20
-11.5117237174
 30
0.0
 11
-32.8473728611
 21
-11.5865980476
 31
0.0
  0
LINE
  5
4D0
100
AcDbEntity
  8
0
100
AcDbLine
 62
7
  6
CONTINUOUS
 10
-32.8091743587
 20
-11.5117237174
 30
0.0
 11
-32.8091743587
 21
-11.5862646943
 31
0.0
  0
LINE
  5
4D1
100
AcDbEntity
  8
0
100
AcDbLine
 62
7
  6
CONTINUOUS
 10
-32.7884690043
 20
-11.5117237174
 30
0.0
 11
-32.7884690043
 21
-11.5860840014
 31
0.0
  0
LINE
  5
4D2
100
AcDbEntity
  8
0
100
AcDbLine
 62
7
  6
CONTINUOUS
 10
-32.6262241567
 20
-11.5117237174
 30
0.0
 11
-32.6262241567
 21
-11.5846681121
 31
0.0
  0
LINE
  5
4D3
100
AcDbEntity
  8
IMPORT_IGES
100
AcDbLine
 62
7
  6
CONTINUOUS
 10
-60.3242194855
 20
7.181099574
 30
0.0
 11
-60.9242194855
 21
7.181099574
 31
0.0
  0
LINE
  5
4D4
100
AcDbEntity
  8
IMPORT_IGES
100
AcDbLine
 62
7
  6
CONTINUOUS
 10
-56.9742194855
 20
7.9455021716
 30
0.0
 11
-56.1992226292
 21
7.9455021716
 31
0.0
  0
LINE
  5
4D5
100
AcDbEntity
  8
IMPORT_IGES
100
AcDbLine
 62
250
  6
CONTINUOUS
 10
-35.1276367862
 20
7.2846547966
 30
0.0
 11
-33.2242194855
 21
7.2780105898
 31
0.0
  0
LINE
  5
4D6
100
AcDbEntity
  8
IMPORT_IGES
100
AcDbLine
 62
7
  6
CONTINUOUS
 10
-33.2242194855
 20
7.5780087621
 30
0.0
 11
-35.0487642714
 21
7.5843776507
 31
0.0
  0
LINE
  5
4D7
100
AcDbEntity
  8
RACCORDO
100
AcDbLine
 62
7
  6
CONTINUOUS
 10
-31.8242194855
 20
7.9776691233
 30
0.0
 11
-33.2242194855
 21
7.9898867382
 31
0.0
  0
LINE
  5
4D8
100
AcDbEntity
  8
IMPORT_IGES
100
AcDbLine
 62
250
  6
CONTINUOUS
 10
-34.6093218191
 20
5.2
 30
0.0
 11
-33.4742194855
 21
4.3031290204
 31
0.0
  0
LINE
  5
4D9
100
AcDbEntity
  8
IMPORT_IGES
100
AcDbLine
 62
7
  6
CONTINUOUS
 10
-33.350227822
 20
4.4600559695
 30
0.0
 11
-34.4853301555
 21
5.3569269492
 31
0.0
  0
LINE
  5
4DA
100
AcDbEntity
  8
0
100
AcDbLine
 62
250
  6
CONTINUOUS
 10
-32.497894321
 20
-11.5117237174
 30
0.0
 11
-32.497894321
 21
-11.5736748355
 31
0.0
  0
LINE
  5
4DB
100
AcDbEntity
  8
RACCORDO
100
AcDbLine
 62
7
  6
CONTINUOUS
 10
-31.8242194855
 20
-24.2456323968
 30
0.0
 11
-31.8242194855
 21
-23.8443375673
 31
0.0
  0
LINE
  5
4DC
100
AcDbEntity
  8
RACCORDO
100
AcDbLine
 62
7
  6
CONTINUOUS
 10
-31.8242194855
 20
-22.3912731322
 30
0.0
 11
-31.8242194855
 21
22.3912731322
 31
0.0
  0
LINE
  5
4DD
100
AcDbEntity
  8
RACCORDO
100
AcDbLine
 62
7
  6
CONTINUOUS
 10
-31.8242194855
 20
23.7941821702
 30
0.0
 11
-31.8242194855
 21
24.2456323968
 31
0.0
  0
LINE
  5
4DE
100
AcDbEntity
  8
RACCORDO
100
AcDbLine
 62
250
  6
CONTINUOUS
 10
-31.5756739183
 20
-24.2456323968
 30
0.0
 11
-31.5756739183
 21
-23.8443375673
 31
0.0
  0
LINE
  5
4DF
100
AcDbEntity
  8
RACCORDO
100
AcDbLine
 62
250
  6
CONTINUOUS
 10
-31.5756739183
 20
23.8443375673
 30
0.0
 11
-31.5756739183
 21
24.2456323968
 31
0.0
  0
LINE
  5
4E0
100
AcDbEntity
  8
RACCORDO
100
AcDbLine
 62
7
  6
CONTINUOUS
 10
-30.8242194855
 20
-22.399689968
 30
0.0
 11
-30.8242194855
 21
-24.5
 31
0.0
  0
LINE
  5
4E1
100
AcDbEntity
  8
RACCORDO
100
AcDbLine
 62
7
  6
CONTINUOUS
 10
-30.8242194855
 20
22.399689968
 30
0.0
 11
-30.8242194855
 21
24.5
 31
0.0
  0
LINE
  5
4E2
100
AcDbEntity
  8
IMPORT_IGES
100
AcDbLine
 62
250
  6
CONTINUOUS
 10
-36.6373611088
 20
-8.18992475
 30
0.0
 11
-36.8242194855
 21
-8.3767831267
 31
0.0
  0
LINE
  5
4E3
100
AcDbEntity
  8
IMPORT_IGES
100
AcDbLine
 62
250
  6
CONTINUOUS
 10
-37.182800331
 20
-8.7395480957
 30
0.0
 11
-38.3399061076
 21
-9.8966558819
 31
0.0
  0
LINE
  5
4E4
100
AcDbEntity
  8
IMPORT_IGES
100
AcDbLine
 62
7
  6
CONTINUOUS
 10
-38.1277883911
 20
-10.1035689056
 30
0.0
 11
-36.513710785
 21
-8.4894912995
 31
0.0
  0
LINE
  5
4E5
100
AcDbEntity
  8
IMPORT_IGES
100
AcDbLine
 62
250
  6
CONTINUOUS
 10
-33.4742194855
 20
-5.2031290204
 30
0.0
 11
-34.6093218191
 21
-6.1
 31
0.0
  0
LINE
  5
4E6
100
AcDbEntity
  8
IMPORT_IGES
100
AcDbLine
 62
7
  6
CONTINUOUS
 10
-34.4853301555
 20
-6.2569269492
 30
0.0
 11
-33.350227822
 21
-5.3600559696
 31
0.0
  0
LINE
  5
4E7
100
AcDbEntity
  8
IMPORT_IGES
100
AcDbLine
 62
7
  6
CONTINUOUS
 10
-52.1120210018
 20
10.3672422846
 30
0.0
 11
-52.1389654069
 21
10.3665365421
 31
0.0
  0
LINE
  5
4E8
100
AcDbEntity
  8
RACCORDO
100
AcDbLine
 62
7
  6
CONTINUOUS
 10
-33.2242194855
 20
8.8101132618
 30
0.0
 11
-31.8242194855
 21
8.8223308767
 31
0.0
  0
LINE
  5
4E9
100
AcDbEntity
  8
RACCORDO
100
AcDbLine
 62
250
  6
CONTINUOUS
 10
-33.2242194855
 20
10.3101323002
 30
0.0
 11
-31.8242194855
 21
10.3223499151
 31
0.0
  0
LINE
  5
4EA
100
AcDbEntity
  8
RACCORDO
100
AcDbLine
 62
7
  6
CONTINUOUS
 10
-33.2242194855
 20
10.8101132618
 30
0.0
 11
-31.8242194855
 21
10.8223308767
 31
0.0
  0
LINE
  5
4EB
100
AcDbEntity
  8
IMPORT_IGES
100
AcDbLine
 62
250
  6
CONTINUOUS
 10
-51.566411206
 20
10.4500005699
 30
0.0
 11
-51.4045916021
 21
10.4510087834
 31
0.0
  0
LINE
  5
4EC
100
AcDbEntity
  8
IMPORT_IGES
100
AcDbLine
 62
7
  6
CONTINUOUS
 10
-51.1736724047
 20
10.6499974091
 30
0.0
 11
-51.1758275564
 21
10.6499853878
 31
0.0
  0
LINE
  5
4ED
100
AcDbEntity
  8
IMPORT_IGES
100
AcDbLine
 62
7
  6
CONTINUOUS
 10
-40.2311185024
 20
10.3517099561
 30
0.0
 11
-39.9411713867
 21
10.3523850164
 31
0.0
  0
LINE
  5
4EE
100
AcDbEntity
  8
IMPORT_IGES
100
AcDbLine
 62
250
  6
CONTINUOUS
 10
-38.5825788743
 20
9.2774802551
 30
0.0
 11
-52.9362895274
 21
9.2774802551
 31
0.0
  0
LINE
  5
4EF
100
AcDbEntity
  8
IMPORT_IGES
100
AcDbLine
 62
250
  6
CONTINUOUS
 10
-52.9362742244
 20
9.4843758577
 30
0.0
 11
-38.5825788726
 21
9.4843765612
 31
0.0
  0
LINE
  5
4F0
100
AcDbEntity
  8
IMPORT_IGES
100
AcDbLine
 62
250
  6
CONTINUOUS
 10
-52.1120273749
 20
10.3086387202
 30
0.0
 11
-51.5691849906
 21
10.3086387199
 31
0.0
  0
LINE
  5
4F1
100
AcDbEntity
  8
IMPORT_IGES
100
AcDbLine
 62
7
  6
CONTINUOUS
 10
-52.1120273745
 20
10.3672173642
 30
0.0
 11
-51.5691766567
 21
10.3672173642
 31
0.0
  0
LINE
  5
4F2
100
AcDbEntity
  8
IMPORT_IGES
100
AcDbLine
 62
250
  6
CONTINUOUS
 10
-51.9171127043
 20
10.45
 30
0.0
 11
-51.5664112041
 21
10.4500000336
 31
0.0
  0
LINE
  5
4F3
100
AcDbEntity
  8
IMPORT_IGES
100
AcDbLine
 62
250
  6
CONTINUOUS
 10
-51.1944191405
 20
10.5621318567
 30
0.0
 11
-40.725326985
 21
10.5621318567
 31
0.0
  0
LINE
  5
4F4
100
AcDbEntity
  8
IMPORT_IGES
100
AcDbLine
 62
7
  6
CONTINUOUS
 10
-51.9171127035
 20
10.65
 30
0.0
 11
-40.9303522381
 21
10.65
 31
0.0
  0
LINE
  5
4F5
100
AcDbEntity
  8
IMPORT_IGES
100
AcDbLine
 62
250
  6
CONTINUOUS
 10
-42.2742194855
 20
10.75
 30
0.0
 11
-42.9742194855
 21
10.75
 31
0.0
  0
LINE
  5
4F6
100
AcDbEntity
  8
IMPORT_IGES
100
AcDbLine
 62
250
  6
CONTINUOUS
 10
-48.9742194855
 20
10.75
 30
0.0
 11
-49.6742194855
 21
10.75
 31
0.0
  0
LINE
  5
4F7
100
AcDbEntity
  8
IMPORT_IGES
100
AcDbLine
 62
7
  6
CONTINUOUS
 10
-40.725326985
 20
10.5621320344
 30
0.0
 11
-40.9303522381
 21
10.65
 31
0.0
  0
LINE
  5
4F8
100
AcDbEntity
  8
IMPORT_IGES
100
AcDbLine
 62
250
  6
CONTINUOUS
 10
-36.8242194855
 20
8.2508211038
 30
0.0
 11
-35.1276367862
 21
7.2846547966
 31
0.0
  0
LINE
  5
4F9
100
AcDbEntity
  8
IMPORT_IGES
100
AcDbLine
 62
7
  6
CONTINUOUS
 10
-35.0487642714
 20
7.5843776508
 30
0.0
 11
-36.9075830272
 21
8.6429338024
 31
0.0
  0
LINE
  5
4FA
100
AcDbEntity
  8
IMPORT_IGES
100
AcDbLine
 62
250
  6
CONTINUOUS
 10
-39.9411713867
 20
10.3523850164
 30
0.0
 11
-38.5825788726
 21
9.4843765612
 31
0.0
  0
LINE
  5
4FB
100
AcDbEntity
  8
IMPORT_IGES
100
AcDbLine
 62
250
  6
CONTINUOUS
 10
-38.2504846467
 20
9.1611064278
 30
0.0
 11
-37.1242194855
 21
8.4409729341
 31
0.0
  0
LINE
  5
4FC
100
AcDbEntity
  8
IMPORT_IGES
100
AcDbLine
 62
7
  6
CONTINUOUS
 10
-36.9626110466
 20
8.6884875088
 30
0.0
 11
-39.1188780838
 21
10.0672037902
 31
0.0
  0
LINE
  5
4FD
100
AcDbEntity
  8
RACCORDO
100
AcDbLine
 62
250
  6
CONTINUOUS
 10
-29.5727650527
 20
23.2669872981
 30
0.0
 11
-29.5727650527
 21
22.3334109614
 31
0.0
  0
LINE
  5
4FE
100
AcDbEntity
  8
RACCORDO
100
AcDbLine
 62
250
  6
CONTINUOUS
 10
-29.5727650527
 20
-22.3334109614
 30
0.0
 11
-29.5727650527
 21
-23.2669872981
 31
0.0
  0
LINE
  5
4FF
100
AcDbEntity
  8
RACCORDO
100
AcDbLine
 62
7
  6
CONTINUOUS
 10
-29.3242194855
 20
23.1226497308
 30
0.0
 11
-29.3242194855
 21
22.3213883311
 31
0.0
  0
LINE
  5
500
100
AcDbEntity
  8
RACCORDO
100
AcDbLine
 62
7
  6
CONTINUOUS
 10
-29.3242194855
 20
-22.3213883311
 30
0.0
 11
-29.3242194855
 21
-23.1226497308
 31
0.0
  0
LWPOLYLINE
  5
501
100
AcDbEntity
  8
0
100
AcDbPolyline
 62
7
  6
CONTINUOUS
 90
13
 70
0
 43
0.3500000019
 10
-28.8242194824
 20
34.1071435547
 10
-28.8242194824
 20
35.3928571777
 10
-28.6099343262
 20
35.8214274902
 10
-28.1813613281
 20
36.2500004883
 10
-27.9670761719
 20
36.2500004883
 10
-27.5385058594
 20
35.8214274902
 10
-27.3242207031
 20
35.3928571777
 10
-27.3242207031
 20
34.1071435547
 10
-27.5385058594
 20
33.6785705566
 10
-27.9670761719
 20
33.2500002441
 10
-28.1813613281
 20
33.2500002441
 10
-28.6099343262
 20
33.6785705566
 10
-28.8242194824
 20
34.1071435547
  0
LINE
  5
502
100
AcDbEntity
  8
RACCORDO
100
AcDbLine
 62
250
  6
CONTINUOUS
 10
-28.5727650527
 20
24.2369056521
 30
0.0
 11
-28.5727650527
 21
23.8443375673
 31
0.0
  0
LINE
  5
503
100
AcDbEntity
  8
RACCORDO
100
AcDbLine
 62
250
  6
CONTINUOUS
 10
-28.5727650527
 20
-23.8443375673
 30
0.0
 11
-28.5727650527
 21
-24.2369056521
 31
0.0
  0
LINE
  5
504
100
AcDbEntity
  8
RACCORDO
100
AcDbLine
 62
7
  6
CONTINUOUS
 10
-28.3242194855
 20
24.2369056521
 30
0.0
 11
-28.3242194855
 21
23.8443375673
 31
0.0
  0
LINE
  5
505
100
AcDbEntity
  8
RACCORDO
100
AcDbLine
 62
7
  6
CONTINUOUS
 10
-28.3242194855
 20
-23.8443375673
 30
0.0
 11
-28.3242194855
 21
-24.2369056521
 31
0.0
  0
LINE
  5
506
100
AcDbEntity
  8
IMPORT_IGES
100
AcDbLine
 62
7
  6
CONTINUOUS
 10
-51.2128165513
 20
10.6462084977
 30
0.0
 11
-51.2408426628
 21
10.6386376134
 31
0.0
  0
LWPOLYLINE
  5
507
100
AcDbEntity
  8
IMPORT_IGES
100
AcDbPolyline
 62
7
  6
CONTINUOUS
 90
10
 70
0
 10
-52.1389654069
 20
10.3665365421
 10
-52.2009019036
 20
10.3599742715
 10
-52.2633115317
 20
10.3467420875
 10
-52.3257607534
 20
10.327129073
 10
-52.3875634951
 20
10.3017615872
 10
-52.4486884067
 20
10.2707409962
 10
-52.5089873317
 20
10.2342576342
 10
-52.5676342867
 20
10.1927502002
 10
-52.6243604195
 20
10.1464288765
 10
-52.6777199751
 20
10.0965138662
  0
LWPOLYLINE
  5
508
100
AcDbEntity
  8
IMPORT_IGES
100
AcDbPolyline
 62
7
  6
CONTINUOUS
 90
3
 70
0
 10
-51.1758317314
 20
10.6499878621
 10
-51.1834828982
 20
10.6497631817
 10
-51.2128165513
 20
10.6462084977
  0
LINE
  5
509
100
AcDbEntity
  8
IMPORT_IGES
100
AcDbLine
 62
7
  6
CONTINUOUS
 10
-42.3742197772
 20
10.85
 30
0.0
 11
-42.8742169315
 21
10.85
 31
0.0
  0
LINE
  5
50A
100
AcDbEntity
  8
IMPORT_IGES
100
AcDbLine
 62
7
  6
CONTINUOUS
 10
-49.0742197772
 20
10.85
 30
0.0
 11
-49.5742169315
 21
10.85
 31
0.0
  0
LINE
  5
50B
100
AcDbEntity
  8
IMPORT_IGES
100
AcDbLine
 62
7
  6
CONTINUOUS
 10
-47.4610808176
 20
10.85
 30
0.0
 11
-44.425059222
 21
10.85
 31
0.0
  0
LINE
  5
50C
100
AcDbEntity
  8
RACCORDO
100
AcDbLine
 62
7
  6
CONTINUOUS
 10
-32.5078546021
 20
-11.5836351166
 30
0.0
 11
-32.2120874512
 21
-11.2878679656
 31
0.0
  0
LINE
  5
50D
100
AcDbEntity
  8
RACCORDO
100
AcDbLine
 62
250
  6
CONTINUOUS
 10
-23.1788317864
 20
-21.9993222089
 30
0.0
 11
-23.1755893736
 21
-22.0611911777
 31
0.0
  0
LINE
  5
50E
100
AcDbEntity
  8
RACCORDO
100
AcDbLine
 62
7
  6
CONTINUOUS
 10
-25.8242194855
 20
-22.2
 30
0.0
 11
-25.8242194855
 21
-22.1379611036
 31
0.0
  0
LINE
  5
50F
100
AcDbEntity
  8
RACCORDO
100
AcDbLine
 62
250
  6
CONTINUOUS
 10
-22.2380643158
 20
20.5419058565
 30
0.0
 11
-21.7472136778
 21
20.562468318
 31
0.0
  0
LINE
  5
510
100
AcDbEntity
  8
RACCORDO
100
AcDbLine
 62
7
  6
CONTINUOUS
 10
-41.8242194855
 20
20.9959955457
 30
0.0
 11
-32.0240062457
 21
20.9104703804
 31
0.0
  0
LINE
  5
511
100
AcDbEntity
  8
RACCORDO
100
AcDbLine
 62
250
  6
CONTINUOUS
 10
-41.8242194855
 20
20.0275513222
 30
0.0
 11
-31.8242194855
 21
18.3232986254
 31
0.0
  0
LINE
  5
512
100
AcDbEntity
  8
RACCORDO
100
AcDbLine
 62
7
  6
CONTINUOUS
 10
-41.8242194855
 20
19.6808012501
 30
0.0
 11
-31.8242194855
 21
17.917531443
 31
0.0
  0
LWPOLYLINE
  5
513
100
AcDbEntity
  8
0
100
AcDbPolyline
 62
7
  6
CONTINUOUS
 90
10
 70
0
 43
0.3500000019
 10
-40.3670759277
 20
43.7499997559
 10
-40.2956484375
 20
43.6071420898
 10
-40.2956484375
 20
43.5357145996
 10
-40.4385061035
 20
43.3928569336
 10
-40.5099335937
 20
43.3928569336
 10
-40.581361084
 20
43.4642844238
 10
-40.581361084
 20
43.5357145996
 10
-40.5099335937
 20
43.6785722656
 10
-40.4385061035
 20
43.7499997559
 10
-40.3670759277
 20
43.7499997559
  0
LINE
  5
514
100
AcDbEntity
  8
RACCORDO
100
AcDbLine
 62
250
  6
CONTINUOUS
 10
-30.8264058145
 20
21.8998857286
 30
0.0
 11
-31.8242194855
 21
21.8911779406
 31
0.0
  0
LINE
  5
515
100
AcDbEntity
  8
RACCORDO
100
AcDbLine
 62
7
  6
CONTINUOUS
 10
-40.832946021
 20
22.3126551668
 30
0.0
 11
-30.8242194855
 21
22.4
 31
0.0
  0
LINE
  5
516
100
AcDbEntity
  8
RACCORDO
100
AcDbLine
 62
7
  6
CONTINUOUS
 10
-41.3329456887
 20
21.5659754333
 30
0.0
 11
-31.8242194855
 21
21.4
 31
0.0
  0
LINE
  5
517
100
AcDbEntity
  8
DRAFT
100
AcDbLine
 62
7
  6
CONTINUOUS
 10
-32.0240062457
 20
20.9104703804
 30
0.0
 11
-31.8242194855
 21
20.9
 31
0.0
  0
LINE
  5
518
100
AcDbEntity
  8
RACCORDO
100
AcDbLine
 62
250
  6
CONTINUOUS
 10
-23.1848823715
 20
21.4994104546
 30
0.0
 11
-30.8264058145
 21
21.8998857286
 31
0.0
  0
LINE
  5
519
100
AcDbEntity
  8
RACCORDO
100
AcDbLine
 62
7
  6
CONTINUOUS
 10
-29.4486763435
 20
22.3279108386
 30
0.0
 11
-23.1674405966
 21
21.998725222
 31
0.0
  0
LINE
  5
51A
100
AcDbEntity
  8
RACCORDO
100
AcDbLine
 62
7
  6
CONTINUOUS
 10
-30.8242194855
 20
-23.1226497308
 30
0.0
 11
-31.6992194855
 21
-23.6278312164
 31
0.0
  0
LINE
  5
51B
100
AcDbEntity
  8
RACCORDO
100
AcDbLine
 62
250
  6
CONTINUOUS
 10
-30.8242194855
 20
-23.4104851482
 30
0.0
 11
-31.5756739183
 21
-23.8443375673
 31
0.0
  0
LINE
  5
51C
100
AcDbEntity
  8
ASSI
100
AcDbLine
 62
7
  6
CONTINUOUS
 10
-31.8191283938
 20
23.7942117893
 30
0.0
 11
-38.3271283512
 21
23.7563493531
 31
0.0
  0
LINE
  5
51D
100
AcDbEntity
  8
RACCORDO
100
AcDbLine
 62
250
  6
CONTINUOUS
 10
-31.5756739183
 20
24.2456323968
 30
0.0
 11
-30.8242194855
 21
24.2500042308
 31
0.0
  0
LINE
  5
51E
100
AcDbEntity
  8
RACCORDO
100
AcDbLine
 62
7
  6
CONTINUOUS
 10
-31.5756739183
 20
24.495628166
 30
0.0
 11
-30.8242194855
 21
24.5
 31
0.0
  0
LINE
  5
51F
100
AcDbEntity
  8
RACCORDO
100
AcDbLine
 62
250
  6
CONTINUOUS
 10
-28.3242194855
 20
23.8443375673
 30
0.0
 11
-28.5727650527
 21
23.8443375673
 31
0.0
  0
LINE
  5
520
100
AcDbEntity
  8
RACCORDO
100
AcDbLine
 62
250
  6
CONTINUOUS
 10
-31.8242194855
 20
23.8443375673
 30
0.0
 11
-31.5756739183
 21
23.8443375673
 31
0.0
  0
LINE
  5
521
100
AcDbEntity
  8
RACCORDO
100
AcDbLine
 62
250
  6
CONTINUOUS
 10
-28.3242194855
 20
24.2369056521
 30
0.0
 11
-28.5727650527
 21
24.2369056521
 31
0.0
  0
LINE
  5
522
100
AcDbEntity
  8
RACCORDO
100
AcDbLine
 62
250
  6
CONTINUOUS
 10
-31.8242194855
 20
24.2456323968
 30
0.0
 11
-31.5756739183
 21
24.2456323968
 31
0.0
  0
LINE
  5
523
100
AcDbEntity
  8
RACCORDO
100
AcDbLine
 62
250
  6
CONTINUOUS
 10
-30.8242194855
 20
24.2500042308
 30
0.0
 11
-28.5727650527
 21
24.2369056521
 31
0.0
  0
LINE
  5
524
100
AcDbEntity
  8
RACCORDO
100
AcDbLine
 62
7
  6
CONTINUOUS
 10
-30.8242194855
 20
24.5
 30
0.0
 11
-28.5727650527
 21
24.4869014213
 31
0.0
  0
LINE
  5
525
100
AcDbEntity
  8
RACCORDO
100
AcDbLine
 62
7
  6
CONTINUOUS
 10
-31.6992194855
 20
23.6278312164
 30
0.0
 11
-30.8242194855
 21
23.1226497308
 31
0.0
  0
LINE
  5
526
100
AcDbEntity
  8
RACCORDO
100
AcDbLine
 62
250
  6
CONTINUOUS
 10
-31.5756739183
 20
23.8443375673
 30
0.0
 11
-30.8242194855
 21
23.4104851482
 31
0.0
  0
LWPOLYLINE
  5
527
100
AcDbEntity
  8
0
100
AcDbPolyline
 62
7
  6
CONTINUOUS
 90
8
 70
0
 43
0.3500000019
 10
-24.752793457
 20
33.2500002441
 10
-23.8956474609
 20
33.2500002441
 10
-23.4670771484
 20
33.6785705566
 10
-23.4670771484
 20
34.5357138672
 10
-23.8956474609
 20
34.9642868652
 10
-24.752793457
 20
34.9642868652
 10
-24.752793457
 20
36.2500004883
 10
-23.4670771484
 20
36.2500004883
  0
LWPOLYLINE
  5
528
100
AcDbEntity
  8
0
100
AcDbPolyline
 62
7
  6
CONTINUOUS
 90
6
 70
0
 43
0.3500000019
 10
-45.5099331055
 20
43.2499992676
 10
-44.4385046387
 20
43.2499992676
 10
-44.2242194824
 20
43.4642844238
 10
-44.2242194824
 20
44.5357155762
 10
-44.6527897949
 20
44.9642858887
 10
-45.081362793
 20
44.9642858887
  0
LWPOLYLINE
  5
529
100
AcDbEntity
  8
0
100
AcDbPolyline
 62
7
  6
CONTINUOUS
 90
13
 70
0
 43
0.3500000019
 10
-38.8670771484
 20
44.9642858887
 10
-39.1527897949
 20
45.1785737305
 10
-39.1527897949
 20
45.8214291992
 10
-38.8670771484
 20
46.2499995117
 10
-38.2242189941
 20
46.2499995117
 10
-37.9385063477
 20
45.8214291992
 10
-37.9385063477
 20
45.1785737305
 10
-38.2242189941
 20
44.9642858887
 10
-37.7956486816
 20
44.5357155762
 10
-37.7956486816
 20
43.6785722656
 10
-38.2242189941
 20
43.2499992676
 10
-38.8670771484
 20
43.2499992676
 10
-39.2956474609
 20
43.6785722656
  0
LWPOLYLINE
  5
52A
100
AcDbEntity
  8
0
100
AcDbPolyline
 62
7
  6
CONTINUOUS
 90
10
 70
0
 43
0.3500000019
 10
-25.8242192383
 20
33.7500007324
 10
-25.7527890625
 20
33.6071430664
 10
-25.7527890625
 20
33.5357155762
 10
-25.8956494141
 20
33.3928579102
 10
-25.9670769043
 20
33.3928579102
 10
-26.0385043945
 20
33.4642854004
 10
-26.0385043945
 20
33.5357155762
 10
-25.9670769043
 20
33.6785705566
 10
-25.8956494141
 20
33.7500007324
 10
-25.8242192383
 20
33.7500007324
  0
ARC
  5
52B
100
AcDbEntity
  8
RACCORDO
100
AcDbCircle
 62
7
  6
CONTINUOUS
 10
-9.9572169022
 20
-21.899699624
 30
0.0
 40
0.5003655785
100
AcDbArc
 50
180.0213104057
 51
243.4314437488
  0
ARC
  5
52C
100
AcDbEntity
  8
RACCORDO
100
AcDbCircle
 62
7
  6
CONTINUOUS
 10
11.307216912
 20
-21.8996996297
 30
0.0
 40
0.5003655785
100
AcDbArc
 50
296.5685555374
 51
359.9786902422
  0
ARC
  5
52D
100
AcDbEntity
  8
RACCORDO
100
AcDbCircle
 62
7
  6
CONTINUOUS
 10
-9.9572169024
 20
21.8996996237
 30
0.0
 40
0.5003655785
100
AcDbArc
 50
116.5685562188
 51
179.9786895607
  0
ARC
  5
52E
100
AcDbEntity
  8
RACCORDO
100
AcDbCircle
 62
7
  6
CONTINUOUS
 10
11.3072169119
 20
21.8996996299
 30
0.0
 40
0.5003655785
100
AcDbArc
 50
0.0213097249
 51
63.4314444296
  0
ARC
  5
52F
100
AcDbEntity
  8
RACCORDO
100
AcDbCircle
 62
250
  6
CONTINUOUS
 10
11.174066664
 20
-21.4985216611
 30
0.0
 40
0.5001723744
100
AcDbArc
 50
270.0239740404
 51
359.8981789871
  0
ARC
  5
530
100
AcDbEntity
  8
RACCORDO
100
AcDbCircle
 62
250
  6
CONTINUOUS
 10
11.1740666558
 20
21.4985216786
 30
0.0
 40
0.5001723744
100
AcDbArc
 50
0.1018189994
 51
89.9760250161
  0
ARC
  5
531
100
AcDbEntity
  8
RACCORDO
100
AcDbCircle
 62
250
  6
CONTINUOUS
 10
-9.8240666639
 20
-21.498521661
 30
0.0
 40
0.5001723744
100
AcDbArc
 50
180.1018210179
 51
269.9760259534
  0
ARC
  5
532
100
AcDbEntity
  8
RACCORDO
100
AcDbCircle
 62
250
  6
CONTINUOUS
 10
-9.8240666028
 20
21.4985215997
 30
0.0
 40
0.5001723744
100
AcDbArc
 50
90.0239810492
 51
179.8981719682
  0
ARC
  5
533
100
AcDbEntity
  8
RACCORDO
100
AcDbCircle
 62
7
  6
CONTINUOUS
 10
11.3074618861
 20
-21.9001238099
 30
0.0
 40
0.4998751156
100
AcDbArc
 50
272.0105358189
 51
296.5651877244
  0
ARC
  5
534
100
AcDbEntity
  8
RACCORDO
100
AcDbCircle
 62
7
  6
CONTINUOUS
 10
-9.9574618861
 20
21.9001238099
 30
0.0
 40
0.4998751156
100
AcDbArc
 50
92.0105358189
 51
116.5651877244
  0
ARC
  5
535
100
AcDbEntity
  8
RACCORDO
100
AcDbCircle
 62
7
  6
CONTINUOUS
 10
-9.9574618861
 20
-21.9001238099
 30
0.0
 40
0.4998751156
100
AcDbArc
 50
243.4348122756
 51
267.9894641811
  0
ARC
  5
536
100
AcDbEntity
  8
RACCORDO
100
AcDbCircle
 62
7
  6
CONTINUOUS
 10
11.3074618861
 20
21.9001238099
 30
0.0
 40
0.4998751156
100
AcDbArc
 50
63.4348122756
 51
87.9894641811
  0
ARC
  5
537
100
AcDbEntity
  8
RACCORDO
100
AcDbCircle
 62
250
  6
CONTINUOUS
 10
9.188104562
 20
-24.236895438
 30
0.0
 40
0.2500059834
100
AcDbArc
 50
180.0023408263
 51
269.9976591737
  0
ARC
  5
538
100
AcDbEntity
  8
RACCORDO
100
AcDbCircle
 62
250
  6
CONTINUOUS
 10
11.0618954381
 20
-24.2368954381
 30
0.0
 40
0.2500059834
100
AcDbArc
 50
270.0023408215
 51
359.9976591785
  0
ARC
  5
539
100
AcDbEntity
  8
RACCORDO
100
AcDbCircle
 62
250
  6
CONTINUOUS
 10
-9.711895438
 20
24.236895438
 30
0.0
 40
0.2500059834
100
AcDbArc
 50
90.0023408263
 51
179.9976591737
  0
ARC
  5
53A
100
AcDbEntity
  8
RACCORDO
100
AcDbCircle
 62
250
  6
CONTINUOUS
 10
-7.838104562
 20
24.236895438
 30
0.0
 40
0.2500059834
100
AcDbArc
 50
0.0023408263
 51
89.9976591737
  0
ARC
  5
53B
100
AcDbEntity
  8
RACCORDO
100
AcDbCircle
 62
250
  6
CONTINUOUS
 10
-7.838104562
 20
-24.236895438
 30
0.0
 40
0.2500059834
100
AcDbArc
 50
270.0023408263
 51
359.9976591737
  0
ARC
  5
53C
100
AcDbEntity
  8
RACCORDO
100
AcDbCircle
 62
250
  6
CONTINUOUS
 10
-9.7118954381
 20
-24.2368954381
 30
0.0
 40
0.2500059834
100
AcDbArc
 50
180.0023408215
 51
269.9976591785
  0
ARC
  5
53D
100
AcDbEntity
  8
RACCORDO
100
AcDbCircle
 62
250
  6
CONTINUOUS
 10
11.0618954381
 20
24.2368954381
 30
0.0
 40
0.2500059834
100
AcDbArc
 50
0.0023408215
 51
89.9976591785
  0
ARC
  5
53E
100
AcDbEntity
  8
RACCORDO
100
AcDbCircle
 62
250
  6
CONTINUOUS
 10
9.188104562
 20
24.236895438
 30
0.0
 40
0.2500059834
100
AcDbArc
 50
90.0023408263
 51
179.9976591737
  0
ARC
  5
53F
100
AcDbEntity
  8
RACCORDO
100
AcDbCircle
 62
7
  6
CONTINUOUS
 10
9.875
 20
-15.85
 30
0.0
 40
0.25
100
AcDbArc
 50
0.0
 51
90.0
  0
ARC
  5
540
100
AcDbEntity
  8
RACCORDO
100
AcDbCircle
 62
7
  6
CONTINUOUS
 10
-8.525
 20
-15.85
 30
0.0
 40
0.25
100
AcDbArc
 50
90.0
 51
180.0
  0
ARC
  5
541
100
AcDbEntity
  8
RACCORDO
100
AcDbCircle
 62
7
  6
CONTINUOUS
 10
9.1749946513
 20
-24.2500053487
 30
0.0
 40
0.2499946513
100
AcDbArc
 50
179.9997437926
 51
270.0002562074
  0
ARC
  5
542
100
AcDbEntity
  8
RACCORDO
100
AcDbCircle
 62
7
  6
CONTINUOUS
 10
11.0750053487
 20
-24.2500053487
 30
0.0
 40
0.2499946513
100
AcDbArc
 50
269.9997437926
 51
0.0002562074
  0
ARC
  5
543
100
AcDbEntity
  8
RACCORDO
100
AcDbCircle
 62
7
  6
CONTINUOUS
 10
-9.7250053487
 20
24.2500053487
 30
0.0
 40
0.2499946513
100
AcDbArc
 50
89.9997437926
 51
180.0002562074
  0
ARC
  5
544
100
AcDbEntity
  8
RACCORDO
100
AcDbCircle
 62
7
  6
CONTINUOUS
 10
-7.8249946513
 20
24.2500053487
 30
0.0
 40
0.2499946513
100
AcDbArc
 50
359.9997437926
 51
90.0002562074
  0
ARC
  5
545
100
AcDbEntity
  8
RACCORDO
100
AcDbCircle
 62
7
  6
CONTINUOUS
 10
-7.8249946513
 20
-24.2500053487
 30
0.0
 40
0.2499946513
100
AcDbArc
 50
269.9997437926
 51
0.0002562074
  0
ARC
  5
546
100
AcDbEntity
  8
RACCORDO
100
AcDbCircle
 62
7
  6
CONTINUOUS
 10
-9.7250053487
 20
-24.2500053487
 30
0.0
 40
0.2499946513
100
AcDbArc
 50
179.9997437926
 51
270.0002562074
  0
ARC
  5
547
100
AcDbEntity
  8
RACCORDO
100
AcDbCircle
 62
7
  6
CONTINUOUS
 10
11.0750053487
 20
24.2500053487
 30
0.0
 40
0.2499946513
100
AcDbArc
 50
359.9997437926
 51
90.0002562074
  0
ARC
  5
548
100
AcDbEntity
  8
RACCORDO
100
AcDbCircle
 62
7
  6
CONTINUOUS
 10
9.1749946513
 20
24.2500053487
 30
0.0
 40
0.2499946513
100
AcDbArc
 50
89.9997437926
 51
180.0002562074
  0
ARC
  5
549
100
AcDbEntity
  8
RACCORDO
100
AcDbCircle
 62
250
  6
CONTINUOUS
 10
-8.5251692371
 20
-21.8113366076
 30
0.0
 40
0.249843983
100
AcDbArc
 50
180.0452223939
 51
270.0388088452
  0
ARC
  5
54A
100
AcDbEntity
  8
RACCORDO
100
AcDbCircle
 62
250
  6
CONTINUOUS
 10
9.8751692389
 20
-21.8113366064
 30
0.0
 40
0.2498439827
100
AcDbArc
 50
269.9611907237
 51
359.9547773341
  0
ARC
  5
54B
100
AcDbEntity
  8
RACCORDO
100
AcDbCircle
 62
7
  6
CONTINUOUS
 10
-521.3339117377
 20
-0.1
 30
0.0
 40
500.0
100
AcDbArc
 50
357.647367682
 51
357.6545447484
  0
ARC
  5
54C
100
AcDbEntity
  8
ASSI
100
AcDbCircle
 62
7
  6
CONTINUOUS
 10
-521.3242194855
 20
-0.0
 30
0.0
 40
500.0
100
AcDbArc
 50
357.8718070179
 51
358.2120815273
  0
ARC
  5
54D
100
AcDbEntity
  8
RACCORDO
100
AcDbCircle
 62
7
  6
CONTINUOUS
 10
-521.3242194855
 20
0.0
 30
0.0
 40
500.0
100
AcDbArc
 50
357.6430500092
 51
2.3569499908
  0
ARC
  5
54E
100
AcDbEntity
  8
RACCORDO
100
AcDbCircle
 62
250
  6
CONTINUOUS
 10
-521.3155121266
 20
0.0
 30
0.0
 40
499.5000188283
100
AcDbArc
 50
357.6430500981
 51
2.3569499019
  0
ARC
  5
54F
100
AcDbEntity
  8
IMPORT_IGES
100
AcDbCircle
 62
250
  6
CONTINUOUS
 10
37.8691958208
 20
-60.3786159236
 30
0.0
 40
94.7622956735
100
AcDbArc
 50
148.1095375459
 51
148.3413999646
  0
ARC
  5
550
100
AcDbEntity
  8
IMPORT_IGES
100
AcDbCircle
 62
250
  6
CONTINUOUS
 10
-41.080269502
 20
-19.1200318268
 30
0.0
 40
17.2152327427
100
AcDbArc
 50
142.7552103633
 51
143.0089078246
  0
ARC
  5
551
100
AcDbEntity
  8
RACCORDO
100
AcDbCircle
 62
7
  6
CONTINUOUS
 10
-23.2540933076
 20
-20.5632468755
 30
0.0
 40
1.5
100
AcDbArc
 50
273.0
 51
353.5114051664
  0
ARC
  5
552
100
AcDbEntity
  8
RACCORDO
100
AcDbCircle
 62
7
  6
CONTINUOUS
 10
-23.245944531
 20
-20.5007809198
 30
0.0
 40
1.5
100
AcDbArc
 50
273.0
 51
357.6430500092
  0
ARC
  5
553
100
AcDbEntity
  8
RACCORDO
100
AcDbCircle
 62
250
  6
CONTINUOUS
 10
-23.2372183336
 20
-20.5007809141
 30
0.0
 40
1.000000006
100
AcDbArc
 50
273.0000003145
 51
357.6430496947
  0
ARC
  5
554
100
AcDbEntity
  8
RACCORDO
100
AcDbCircle
 62
7
  6
CONTINUOUS
 10
-40.8242194855
 20
-21.3126932437
 30
0.0
 40
1.0
100
AcDbArc
 50
180.0
 51
269.5
  0
ARC
  5
555
100
AcDbEntity
  8
ASSI
100
AcDbCircle
 62
7
  6
CONTINUOUS
 10
-38.3242194855
 20
-23.2563578147
 30
0.0
 40
0.5
100
AcDbArc
 50
180.0
 51
269.6666666667
  0
ARC
  5
556
100
AcDbEntity
  8
RACCORDO
100
AcDbCircle
 62
7
  6
CONTINUOUS
 10
-31.5742194855
 20
-23.8443375673
 30
0.0
 40
0.25
100
AcDbArc
 50
120.0
 51
180.0
  0
ARC
  5
557
100
AcDbEntity
  8
RACCORDO
100
AcDbCircle
 62
7
  6
CONTINUOUS
 10
-31.5742194855
 20
-24.2456323968
 30
0.0
 40
0.25
100
AcDbArc
 50
180.0
 51
269.6666666667
  0
ARC
  5
558
100
AcDbEntity
  8
RACCORDO
100
AcDbCircle
 62
7
  6
CONTINUOUS
 10
-28.5742194855
 20
-24.2369056521
 30
0.0
 40
0.25
100
AcDbArc
 50
270.3333333333
 51
360.0
  0
ARC
  5
559
100
AcDbEntity
  8
RACCORDO
100
AcDbCircle
 62
7
  6
CONTINUOUS
 10
-28.5742194855
 20
-23.8443375673
 30
0.0
 40
0.25
100
AcDbArc
 50
0.0
 51
60.0
  0
ARC
  5
55A
100
AcDbEntity
  8
IMPORT_IGES
100
AcDbCircle
 62
250
  6
CONTINUOUS
 10
-92.6430469988
 20
-11.2328554406
 30
0.0
 40
41.4537987573
100
AcDbArc
 50
0.0318518527
 51
0.6518024103
  0
ARC
  5
55B
100
AcDbEntity
  8
IMPORT_IGES
100
AcDbCircle
 62
7
  6
CONTINUOUS
 10
-92.6429321364
 20
-11.2328529191
 30
0.0
 40
41.2546112934
100
AcDbArc
 50
0.2527278577
 51
0.8911979751
  0
ARC
  5
55C
100
AcDbEntity
  8
IMPORT_IGES
100
AcDbCircle
 62
7
  6
CONTINUOUS
 10
-92.7719273108
 20
-11.2332057267
 30
0.0
 40
41.1836356494
100
AcDbArc
 50
0.2520649206
 51
0.9406696752
  0
ARC
  5
55D
100
AcDbEntity
  8
IMPORT_IGES
100
AcDbCircle
 62
250
  6
CONTINUOUS
 10
-92.620233159
 20
10.7080978493
 30
0.0
 40
41.0546112937
100
AcDbArc
 50
359.524200648
 51
359.6397967347
  0
ARC
  5
55E
100
AcDbEntity
  8
IMPORT_IGES
100
AcDbCircle
 62
250
  6
CONTINUOUS
 10
-116.3699076117
 20
34.5736594361
 30
0.0
 40
86.3608553311
100
AcDbArc
 50
328.0756549024
 51
328.3416247571
  0
ARC
  5
55F
100
AcDbEntity
  8
IMPORT_IGES
100
AcDbCircle
 62
7
  6
CONTINUOUS
 10
-56.1301497636
 20
-7.1237769931
 30
0.0
 40
1.0
100
AcDbArc
 50
181.2448503125
 51
233.000289763
  0
ARC
  5
560
100
AcDbEntity
  8
IMPORT_IGES
100
AcDbCircle
 62
250
  6
CONTINUOUS
 10
-56.3807548989
 20
-6.1515848504
 30
0.0
 40
0.7705749219
100
AcDbArc
 50
181.2370152329
 51
189.7633341625
  0
ARC
  5
561
100
AcDbEntity
  8
IMPORT_IGES
100
AcDbCircle
 62
250
  6
CONTINUOUS
 10
-56.5950479349
 20
-6.20648489
 30
0.0
 40
0.5489492685
100
AcDbArc
 50
202.6272139423
 51
206.078048389
  0
ARC
  5
562
100
AcDbEntity
  8
IMPORT_IGES
100
AcDbCircle
 62
250
  6
CONTINUOUS
 10
-56.6016660308
 20
-6.2096884812
 30
0.0
 40
0.5415966388
100
AcDbArc
 50
206.0814156391
 51
209.5055422743
  0
ARC
  5
563
100
AcDbEntity
  8
IMPORT_IGES
100
AcDbCircle
 62
7
  6
CONTINUOUS
 10
-56.8512210378
 20
-6.1617028326
 30
0.0
 40
0.3
100
AcDbArc
 50
181.2448504427
 51
225.0000000017
  0
ARC
  5
564
100
AcDbEntity
  8
IMPORT_IGES
100
AcDbCircle
 62
250
  6
CONTINUOUS
 10
-56.8481860825
 20
-6.1604069103
 30
0.0
 40
0.1030697286
100
AcDbArc
 50
181.9284387393
 51
224.3164117168
  0
ARC
  5
565
100
AcDbEntity
  8
IMPORT_IGES
100
AcDbCircle
 62
7
  6
CONTINUOUS
 10
-59.5742194855
 20
-0.855
 30
0.0
 40
0.5
100
AcDbArc
 50
90.0000000002
 51
167.9756218146
  0
ARC
  5
566
100
AcDbEntity
  8
IMPORT_IGES
100
AcDbCircle
 62
7
  6
CONTINUOUS
 10
-60.8242194855
 20
-1.055
 30
0.0
 40
0.3
100
AcDbArc
 50
180.0
 51
270.0000000003
  0
ARC
  5
567
100
AcDbEntity
  8
IMPORT_IGES
100
AcDbCircle
 62
250
  6
CONTINUOUS
 10
-57.5215868747
 20
-5.2949172031
 30
0.0
 40
2.2923115843
100
AcDbArc
 50
7.2333644028
 51
24.3292941278
  0
ARC
  5
568
100
AcDbEntity
  8
IMPORT_IGES
100
AcDbCircle
 62
7
  6
CONTINUOUS
 10
-57.5219680826
 20
-5.289786439
 30
0.0
 40
1.992703028
100
AcDbArc
 50
7.2345488903
 51
24.3277884814
  0
ARC
  5
569
100
AcDbEntity
  8
IMPORT_IGES
100
AcDbCircle
 62
7
  6
CONTINUOUS
 10
-55.2815164574
 20
-0.5710819832
 30
0.0
 40
1.9927030281
100
AcDbArc
 50
180.0000047949
 51
204.3276976851
  0
ARC
  5
56A
100
AcDbEntity
  8
IMPORT_IGES
100
AcDbCircle
 62
250
  6
CONTINUOUS
 10
-55.2655917536
 20
-0.5728919777
 30
0.0
 40
1.7086281923
100
AcDbArc
 50
180.1148753948
 51
204.2124472725
  0
ARC
  5
56B
100
AcDbEntity
  8
IMPORT_IGES
100
AcDbCircle
 62
250
  6
CONTINUOUS
 10
-57.5770587587
 20
-0.6458068454
 30
0.0
 40
0.313196016
100
AcDbArc
 50
35.2711674381
 51
41.5383241918
  0
ARC
  5
56C
100
AcDbEntity
  8
IMPORT_IGES
100
AcDbCircle
 62
250
  6
CONTINUOUS
 10
-57.5731348521
 20
-0.6544213533
 30
0.0
 40
0.3051434748
100
AcDbArc
 50
75.8344651005
 51
82.9582833625
  0
ARC
  5
56D
100
AcDbEntity
  8
IMPORT_IGES
100
AcDbCircle
 62
250
  6
CONTINUOUS
 10
-57.569341964
 20
-0.6404879756
 30
0.0
 40
0.3038244631
100
AcDbArc
 50
28.7816715269
 51
35.2925833913
  0
ARC
  5
56E
100
AcDbEntity
  8
IMPORT_IGES
100
AcDbCircle
 62
250
  6
CONTINUOUS
 10
-57.5748815533
 20
-0.6507948723
 30
0.0
 40
0.3031325344
100
AcDbArc
 50
32.4618084941
 51
39.5897923421
  0
ARC
  5
56F
100
AcDbEntity
  8
IMPORT_IGES
100
AcDbCircle
 62
250
  6
CONTINUOUS
 10
-57.5729165449
 20
-0.6517491839
 30
0.0
 40
0.3024647187
100
AcDbArc
 50
82.9372706924
 51
90.006615168
  0
ARC
  5
570
100
AcDbEntity
  8
IMPORT_IGES
100
AcDbCircle
 62
7
  6
CONTINUOUS
 10
-57.572683178
 20
-0.655
 30
0.0
 40
0.3
100
AcDbArc
 50
2.0976211818
 51
89.9998766406
  0
ARC
  5
571
100
AcDbEntity
  8
IMPORT_IGES
100
AcDbCircle
 62
250
  6
CONTINUOUS
 10
-57.5714135733
 20
-0.6487523666
 30
0.0
 40
0.2991101712
100
AcDbArc
 50
25.0883015713
 51
32.4882489655
  0
ARC
  5
572
100
AcDbEntity
  8
IMPORT_IGES
100
AcDbCircle
 62
250
  6
CONTINUOUS
 10
-57.56986918
 20
-0.6466936735
 30
0.0
 40
0.2969068416
100
AcDbArc
 50
9.5527149784
 51
17.211629743
  0
ARC
  5
573
100
AcDbEntity
  8
IMPORT_IGES
100
AcDbCircle
 62
250
  6
CONTINUOUS
 10
-57.5681063404
 20
-0.6464610309
 30
0.0
 40
0.2951298453
100
AcDbArc
 50
1.9241184974
 51
9.5649719152
  0
ARC
  5
574
100
AcDbEntity
  8
IMPORT_IGES
100
AcDbCircle
 62
250
  6
CONTINUOUS
 10
-57.561742812
 20
-0.6360560517
 30
0.0
 40
0.2950303379
100
AcDbArc
 50
21.9629791938
 51
28.7378557466
  0
ARC
  5
575
100
AcDbEntity
  8
IMPORT_IGES
100
AcDbCircle
 62
250
  6
CONTINUOUS
 10
-57.5632652416
 20
-0.6446709535
 30
0.0
 40
0.2900001127
100
AcDbArc
 50
17.2159721653
 51
25.0406190752
  0
ARC
  5
576
100
AcDbEntity
  8
IMPORT_IGES
100
AcDbCircle
 62
7
  6
CONTINUOUS
 10
-51.6469163915
 20
-9.25
 30
0.0
 40
2.0
100
AcDbArc
 50
233.0000001029
 51
270.0006687305
  0
ARC
  5
577
100
AcDbEntity
  8
IMPORT_IGES
100
AcDbCircle
 62
250
  6
CONTINUOUS
 10
-51.611949973
 20
-11.4044634467
 30
0.0
 40
0.8742314182
100
AcDbArc
 50
86.1839283476
 51
89.0635167819
  0
ARC
  5
578
100
AcDbEntity
  8
IMPORT_IGES
100
AcDbCircle
 62
250
  6
CONTINUOUS
 10
-51.6049599755
 20
-11.3023131613
 30
0.0
 40
0.7718424258
100
AcDbArc
 50
83.0753037066
 51
86.196994122
  0
ARC
  5
579
100
AcDbEntity
  8
IMPORT_IGES
100
AcDbCircle
 62
250
  6
CONTINUOUS
 10
-51.5905578388
 20
-11.1852112222
 30
0.0
 40
0.6538583252
100
AcDbArc
 50
79.5608424821
 51
83.0909640269
  0
ARC
  5
57A
100
AcDbEntity
  8
IMPORT_IGES
100
AcDbCircle
 62
7
  6
CONTINUOUS
 10
-54.6547763024
 20
-8.0821863701
 30
0.0
 40
0.5
100
AcDbArc
 50
187.2347655619
 51
232.999663288
  0
ARC
  5
57B
100
AcDbEntity
  8
IMPORT_IGES
100
AcDbCircle
 62
250
  6
CONTINUOUS
 10
-51.1889871771
 20
-10.979627272
 30
0.0
 40
0.2301804701
100
AcDbArc
 50
263.7352037812
 51
270.0559723781
  0
ARC
  5
57C
100
AcDbEntity
  8
IMPORT_IGES
100
AcDbCircle
 62
7
  6
CONTINUOUS
 10
-51.1887241196
 20
-11.05
 30
0.0
 40
0.2
100
AcDbArc
 50
180.2527618433
 51
269.9988817169
  0
ARC
  5
57D
100
AcDbEntity
  8
IMPORT_IGES
100
AcDbCircle
 62
7
  6
CONTINUOUS
 10
-49.5610784855
 20
-11.35
 30
0.0
 40
0.1
100
AcDbArc
 50
269.9990218829
 51
360.0
  0
ARC
  5
57E
100
AcDbEntity
  8
IMPORT_IGES
100
AcDbCircle
 62
7
  6
CONTINUOUS
 10
-49.3610784855
 20
-11.35
 30
0.0
 40
0.1
100
AcDbArc
 50
90.0000000035
 51
179.9999998321
  0
ARC
  5
57F
100
AcDbEntity
  8
IMPORT_IGES
100
AcDbCircle
 62
7
  6
CONTINUOUS
 10
-50.2610784855
 20
-11.35
 30
0.0
 40
0.1
100
AcDbArc
 50
0.0000001669
 51
89.9989146326
  0
ARC
  5
580
100
AcDbEntity
  8
IMPORT_IGES
100
AcDbCircle
 62
7
  6
CONTINUOUS
 10
-50.0610784855
 20
-11.35
 30
0.0
 40
0.1
100
AcDbArc
 50
179.9999998329
 51
270.0011663339
  0
ARC
  5
581
100
AcDbEntity
  8
IMPORT_IGES
100
AcDbCircle
 62
250
  6
CONTINUOUS
 10
-62.1803476573
 20
7.2215027472
 30
0.0
 40
7.0741096212
100
AcDbArc
 50
350.91087175
 51
351.1608175135
  0
ARC
  5
582
100
AcDbEntity
  8
IMPORT_IGES
100
AcDbCircle
 62
250
  6
CONTINUOUS
 10
-59.8802814388
 20
6.9441652745
 30
0.0
 40
4.7566331152
100
AcDbArc
 50
355.5519620997
 51
356.9409384138
  0
ARC
  5
583
100
AcDbEntity
  8
IMPORT_IGES
100
AcDbCircle
 62
250
  6
CONTINUOUS
 10
-57.5402025646
 20
6.9585686439
 30
0.0
 40
2.4185256281
100
AcDbArc
 50
342.2567460543
 51
351.2651823566
  0
ARC
  5
584
100
AcDbEntity
  8
IMPORT_IGES
100
AcDbCircle
 62
250
  6
CONTINUOUS
 10
-57.428226645
 20
6.9383987122
 30
0.0
 40
2.3047872574
100
AcDbArc
 50
351.3380496302
 51
352.4828180328
  0
ARC
  5
585
100
AcDbEntity
  8
IMPORT_IGES
100
AcDbCircle
 62
250
  6
CONTINUOUS
 10
-57.3713436464
 20
6.9312112396
 30
0.0
 40
2.2474528617
100
AcDbArc
 50
352.4747637736
 51
355.4270026212
  0
ARC
  5
586
100
AcDbEntity
  8
IMPORT_IGES
100
AcDbCircle
 62
7
  6
CONTINUOUS
 10
-56.6242194855
 20
7.3502977476
 30
0.0
 40
1.5
100
AcDbArc
 50
325.7316915939
 51
359.9988821068
  0
ARC
  5
587
100
AcDbEntity
  8
IMPORT_IGES
100
AcDbCircle
 62
7
  6
CONTINUOUS
 10
-56.6242194855
 20
5.6498278509
 30
0.0
 40
1.5
100
AcDbArc
 50
0.0
 51
29.489067492
  0
ARC
  5
588
100
AcDbEntity
  8
IMPORT_IGES
100
AcDbCircle
 62
7
  6
CONTINUOUS
 10
-54.6242194855
 20
7.4428932188
 30
0.0
 40
0.5
100
AcDbArc
 50
135.0
 51
180.0
  0
ARC
  5
589
100
AcDbEntity
  8
IMPORT_IGES
100
AcDbCircle
 62
7
  6
CONTINUOUS
 10
-51.9171127043
 20
10.15
 30
0.0
 40
0.5
100
AcDbArc
 50
90.0
 51
134.9999999775
  0
ARC
  5
58A
100
AcDbEntity
  8
IMPORT_IGES
100
AcDbCircle
 62
250
  6
CONTINUOUS
 10
-51.5719330522
 20
10.7291243604
 30
0.0
 40
0.4204946202
100
AcDbArc
 50
270.3744482014
 51
281.0486714639
  0
ARC
  5
58B
100
AcDbEntity
  8
IMPORT_IGES
100
AcDbCircle
 62
250
  6
CONTINUOUS
 10
-51.9171127043
 20
10.15
 30
0.0
 40
0.3
100
AcDbArc
 50
90.0
 51
133.6309534759
  0
ARC
  5
58C
100
AcDbEntity
  8
IMPORT_IGES
100
AcDbCircle
 62
7
  6
CONTINUOUS
 10
-56.9742194855
 20
7.6455021716
 30
0.0
 40
0.3
100
AcDbArc
 50
90.0000000003
 51
180.0030062104
  0
ARC
  5
58D
100
AcDbEntity
  8
IMPORT_IGES
100
AcDbCircle
 62
7
  6
CONTINUOUS
 10
-57.5742194855
 20
2.945
 30
0.0
 40
0.3
100
AcDbArc
 50
269.9999999995
 51
359.9999999983
  0
ARC
  5
58E
100
AcDbEntity
  8
IMPORT_IGES
100
AcDbCircle
 62
7
  6
CONTINUOUS
 10
-60.8242194855
 20
2.345
 30
0.0
 40
0.3
100
AcDbArc
 50
89.9999999996
 51
180.0000000001
  0
ARC
  5
58F
100
AcDbEntity
  8
IMPORT_IGES
100
AcDbCircle
 62
7
  6
CONTINUOUS
 10
-59.9242194855
 20
6.0502977476
 30
0.0
 40
0.2
100
AcDbArc
 50
180.0005279882
 51
270.0000000006
  0
ARC
  5
590
100
AcDbEntity
  8
IMPORT_IGES
100
AcDbCircle
 62
7
  6
CONTINUOUS
 10
-60.3242194855
 20
6.981099574
 30
0.0
 40
0.2
100
AcDbArc
 50
359.9839555172
 51
89.9999999999
  0
ARC
  5
591
100
AcDbEntity
  8
IMPORT_IGES
100
AcDbCircle
 62
7
  6
CONTINUOUS
 10
-60.9242194855
 20
6.981099574
 30
0.0
 40
0.2
100
AcDbArc
 50
89.9999999991
 51
180.0160444831
  0
ARC
  5
592
100
AcDbEntity
  8
IMPORT_IGES
100
AcDbCircle
 62
7
  6
CONTINUOUS
 10
-60.9242194855
 20
3.0132052805
 30
0.0
 40
0.2
100
AcDbArc
 50
179.999999999
 51
270.0000000001
  0
ARC
  5
593
100
AcDbEntity
  8
IMPORT_IGES
100
AcDbCircle
 62
7
  6
CONTINUOUS
 10
-49.5742194855
 20
10.75
 30
0.0
 40
0.1
100
AcDbArc
 50
89.9998328994
 51
180.0000000002
  0
ARC
  5
594
100
AcDbEntity
  8
IMPORT_IGES
100
AcDbCircle
 62
7
  6
CONTINUOUS
 10
-49.0742194855
 20
10.75
 30
0.0
 40
0.1
100
AcDbArc
 50
359.9999995539
 51
89.9999999999
  0
ARC
  5
595
100
AcDbEntity
  8
IMPORT_IGES
100
AcDbCircle
 62
7
  6
CONTINUOUS
 10
-49.7742194855
 20
10.75
 30
0.0
 40
0.1
100
AcDbArc
 50
270.0000007302
 51
360.0
  0
ARC
  5
596
100
AcDbEntity
  8
IMPORT_IGES
100
AcDbCircle
 62
7
  6
CONTINUOUS
 10
-48.8742194855
 20
10.75
 30
0.0
 40
0.1
100
AcDbArc
 50
180.0000000008
 51
270.0000488725
  0
ARC
  5
597
100
AcDbEntity
  8
IMPORT_IGES
100
AcDbCircle
 62
7
  6
CONTINUOUS
 10
-39.3974079419
 20
-9.5117237174
 30
0.0
 40
2.0
100
AcDbArc
 50
209.0543979959
 51
270.0
  0
ARC
  5
598
100
AcDbEntity
  8
IMPORT_IGES
100
AcDbCircle
 62
7
  6
CONTINUOUS
 10
-37.3242194855
 20
-8.5928932188
 30
0.0
 40
0.5
100
AcDbArc
 50
315.0026207296
 51
359.9999449478
  0
ARC
  5
599
100
AcDbEntity
  8
IMPORT_IGES
100
AcDbCircle
 62
7
  6
CONTINUOUS
 10
-38.4813262667
 20
-9.75
 30
0.0
 40
0.5
100
AcDbArc
 50
270.0000025555
 51
314.9974856792
  0
ARC
  5
59A
100
AcDbEntity
  8
IMPORT_IGES
100
AcDbCircle
 62
7
  6
CONTINUOUS
 10
-37.1242194855
 20
-4.0948571137
 30
0.0
 40
0.3
100
AcDbArc
 50
0.0
 51
59.036243468
  0
ARC
  5
59B
100
AcDbEntity
  8
RACCORDO
100
AcDbCircle
 62
7
  6
CONTINUOUS
 10
-31.9999554168
 20
-11.5
 30
0.0
 40
0.3
100
AcDbArc
 50
90.0
 51
135.0
  0
ARC
  5
59C
100
AcDbEntity
  8
IMPORT_IGES
100
AcDbCircle
 62
7
  6
CONTINUOUS
 10
-34.6093218191
 20
-6.1
 30
0.0
 40
0.2
100
AcDbArc
 50
270.0
 51
308.3130906738
  0
ARC
  5
59D
100
AcDbEntity
  8
IMPORT_IGES
100
AcDbCircle
 62
7
  6
CONTINUOUS
 10
-33.4742194855
 20
-5.2031290204
 30
0.0
 40
0.2
100
AcDbArc
 50
308.3130906738
 51
360.0
  0
ARC
  5
59E
100
AcDbEntity
  8
IMPORT_IGES
100
AcDbCircle
 62
7
  6
CONTINUOUS
 10
-43.1609542582
 20
-11.1314349363
 30
0.0
 40
0.1185765694
100
AcDbArc
 50
276.700938551
 51
283.3450187372
  0
ARC
  5
59F
100
AcDbEntity
  8
IMPORT_IGES
100
AcDbCircle
 62
7
  6
CONTINUOUS
 10
-43.1611624703
 20
-11.1323146546
 30
0.0
 40
0.117880905
100
AcDbArc
 50
316.6911729188
 51
329.9217281628
  0
ARC
  5
5A0
100
AcDbEntity
  8
IMPORT_IGES
100
AcDbCircle
 62
7
  6
CONTINUOUS
 10
-43.1607413587
 20
-11.1333880539
 30
0.0
 40
0.1166119526
100
AcDbArc
 50
270.0194299189
 51
276.7090251387
  0
ARC
  5
5A1
100
AcDbEntity
  8
IMPORT_IGES
100
AcDbCircle
 62
7
  6
CONTINUOUS
 10
-43.6614394855
 20
-11.35
 30
0.0
 40
0.1
100
AcDbArc
 50
90.0000000035
 51
179.9999998323
  0
ARC
  5
5A2
100
AcDbEntity
  8
IMPORT_IGES
100
AcDbCircle
 62
7
  6
CONTINUOUS
 10
-43.8614394855
 20
-11.35
 30
0.0
 40
0.1
100
AcDbArc
 50
269.998833666
 51
360.0
  0
ARC
  5
5A3
100
AcDbEntity
  8
IMPORT_IGES
100
AcDbCircle
 62
7
  6
CONTINUOUS
 10
-44.3614394851
 20
-11.35
 30
0.0
 40
0.1
100
AcDbArc
 50
179.9999998326
 51
270.0009381638
  0
ARC
  5
5A4
100
AcDbEntity
  8
IMPORT_IGES
100
AcDbCircle
 62
7
  6
CONTINUOUS
 10
-44.5614394855
 20
-11.35
 30
0.0
 40
0.1
100
AcDbArc
 50
0.0000001679
 51
89.9989146356
  0
ARC
  5
5A5
100
AcDbEntity
  8
IMPORT_IGES
100
AcDbCircle
 62
250
  6
CONTINUOUS
 10
-43.1153612304
 20
-11.1280270685
 30
0.0
 40
0.0803595449
100
AcDbArc
 50
321.5811639842
 51
330.0032157245
  0
ARC
  5
5A6
100
AcDbEntity
  8
IMPORT_IGES
100
AcDbCircle
 62
7
  6
CONTINUOUS
 10
-37.1242194855
 20
3.1683371083
 30
0.0
 40
0.3
100
AcDbArc
 50
299.9621840985
 51
360.0
  0
ARC
  5
5A7
100
AcDbEntity
  8
IMPORT_IGES
100
AcDbCircle
 62
7
  6
CONTINUOUS
 10
-37.1242194855
 20
8.4357372121
 30
0.0
 40
0.3
100
AcDbArc
 50
0.0
 51
57.4051679367
  0
ARC
  5
5A8
100
AcDbEntity
  8
RACCORDO
100
AcDbCircle
 62
7
  6
CONTINUOUS
 10
-32.9242194855
 20
6.2872801014
 30
0.0
 40
0.3
100
AcDbArc
 50
180.0
 51
269.5
  0
ARC
  5
5A9
100
AcDbEntity
  8
IMPORT_IGES
100
AcDbCircle
 62
7
  6
CONTINUOUS
 10
-34.6093218191
 20
5.2
 30
0.0
 40
0.2
100
AcDbArc
 50
51.6869093262
 51
90.0
  0
ARC
  5
5AA
100
AcDbEntity
  8
IMPORT_IGES
100
AcDbCircle
 62
7
  6
CONTINUOUS
 10
-33.4742194855
 20
4.3031290204
 30
0.0
 40
0.2
100
AcDbArc
 50
0.0
 51
51.6869093257
  0
ARC
  5
5AB
100
AcDbEntity
  8
IMPORT_IGES
100
AcDbCircle
 62
7
  6
CONTINUOUS
 10
-42.8742194855
 20
10.75
 30
0.0
 40
0.1
100
AcDbArc
 50
89.9998328994
 51
180.0000000002
  0
ARC
  5
5AC
100
AcDbEntity
  8
IMPORT_IGES
100
AcDbCircle
 62
7
  6
CONTINUOUS
 10
-42.3742194855
 20
10.75
 30
0.0
 40
0.1
100
AcDbArc
 50
359.9999995539
 51
89.9999999999
  0
ARC
  5
5AD
100
AcDbEntity
  8
IMPORT_IGES
100
AcDbCircle
 62
7
  6
CONTINUOUS
 10
-43.0742194855
 20
10.75
 30
0.0
 40
0.1
100
AcDbArc
 50
270.0000007302
 51
360.0
  0
ARC
  5
5AE
100
AcDbEntity
  8
IMPORT_IGES
100
AcDbCircle
 62
7
  6
CONTINUOUS
 10
-42.1742194855
 20
10.75
 30
0.0
 40
0.1
100
AcDbArc
 50
180.0000000008
 51
270.0000489297
  0
ARC
  5
5AF
100
AcDbEntity
  8
RACCORDO
100
AcDbCircle
 62
7
  6
CONTINUOUS
 10
-23.245944531
 20
20.5007809198
 30
0.0
 40
1.5
100
AcDbArc
 50
2.3569499908
 51
87.0
  0
ARC
  5
5B0
100
AcDbEntity
  8
RACCORDO
100
AcDbCircle
 62
250
  6
CONTINUOUS
 10
-23.2372183336
 20
20.5007809141
 30
0.0
 40
1.0000000061
100
AcDbArc
 50
2.3569503068
 51
86.999999684
  0
ARC
  5
5B1
100
AcDbEntity
  8
RACCORDO
100
AcDbCircle
 62
7
  6
CONTINUOUS
 10
-40.8242194855
 20
21.3126932437
 30
0.0
 40
1.0
100
AcDbArc
 50
90.5
 51
180.0
  0
ARC
  5
5B2
100
AcDbEntity
  8
ASSI
100
AcDbCircle
 62
7
  6
CONTINUOUS
 10
-38.3242194855
 20
23.2563578147
 30
0.0
 40
0.5
100
AcDbArc
 50
90.3333333333
 51
180.0
  0
ARC
  5
5B3
100
AcDbEntity
  8
RACCORDO
100
AcDbCircle
 62
7
  6
CONTINUOUS
 10
-31.5742194855
 20
23.8443375673
 30
0.0
 40
0.25
100
AcDbArc
 50
180.0
 51
240.0
  0
ARC
  5
5B4
100
AcDbEntity
  8
RACCORDO
100
AcDbCircle
 62
7
  6
CONTINUOUS
 10
-28.5742194855
 20
23.8443375673
 30
0.0
 40
0.25
100
AcDbArc
 50
300.0
 51
360.0
  0
ARC
  5
5B5
100
AcDbEntity
  8
RACCORDO
100
AcDbCircle
 62
7
  6
CONTINUOUS
 10
-31.5742194855
 20
24.2456323968
 30
0.0
 40
0.25
100
AcDbArc
 50
90.3333333333
 51
180.0
  0
ARC
  5
5B6
100
AcDbEntity
  8
RACCORDO
100
AcDbCircle
 62
7
  6
CONTINUOUS
 10
-28.5742194855
 20
24.2369056521
 30
0.0
 40
0.25
100
AcDbArc
 50
0.0
 51
89.6666666667
  0
SPLINE
  5
5B7
100
AcDbEntity
  8
RACCORDO
100
AcDbSpline
 62
250
  6
CONTINUOUS
 70
0
 71
3
 72
18
 73
14
 74
0
 42
0.0000001
 43
0.0000001
 44
0.0000000001
 40
0.0
 40
0.0
 40
0.0
 40
0.0
 40
0.006264746
 40
0.0211639132
 40
0.0452318522
 40
0.0784153465
 40
0.1204091079
 40
0.1708066669
 40
0.2949697191
 40
0.4460784038
 40
0.6184399264
 40
0.8056756222
 40
1.0
 40
1.0
 40
1.0
 40
1.0
 10
10.125
 20
-20.6145589289
 30
0.0
 10
10.125
 20
-20.6150826108
 30
0.0
 10
10.1228688972
 20
-20.6159725293
 30
0.0
 10
10.119607559
 20
-20.6167318058
 30
0.0
 10
10.1134143991
 20
-20.6177078987
 30
0.0
 10
10.1052657111
 20
-20.6185908791
 30
0.0
 10
10.094767965
 20
-20.619486455
 30
0.0
 10
10.0767231076
 20
-20.6206958433
 30
0.0
 10
10.0495176081
 20
-20.6219921997
 30
0.0
 10
10.0121228997
 20
-20.6232167379
 30
0.0
 10
9.9694395098
 20
-20.6241304339
 30
0.0
 10
9.9231395327
 20
-20.6246938898
 30
0.0
 10
9.8912439407
 20
-20.6248213398
 30
0.0
 10
9.875
 20
-20.6248213394
 30
0.0
  0
SPLINE
  5
5B8
100
AcDbEntity
  8
RACCORDO
100
AcDbSpline
 62
250
  6
CONTINUOUS
 70
0
 71
3
 72
18
 73
14
 74
0
 42
0.0000001
 43
0.0000001
 44
0.0000000001
 40
0.0
 40
0.0
 40
0.0
 40
0.0
 40
0.0062647454
 40
0.0211639136
 40
0.0452318538
 40
0.0784153494
 40
0.1204091133
 40
0.1708066743
 40
0.2949697286
 40
0.4460784149
 40
0.6184399353
 40
0.8056756247
 40
1.0
 40
1.0
 40
1.0
 40
1.0
 10
-8.775
 20
-20.6145589289
 30
0.0
 10
-8.775
 20
-20.6150826108
 30
0.0
 10
-8.7728688966
 20
-20.6159725285
 30
0.0
 10
-8.7696075586
 20
-20.616731805
 30
0.0
 10
-8.7634143981
 20
-20.6177078975
 30
0.0
 10
-8.7552657099
 20
-20.6185908777
 30
0.0
 10
-8.7447679632
 20
-20.6194864532
 30
0.0
 10
-8.7267231053
 20
-20.6206958412
 30
0.0
 10
-8.6995176053
 20
-20.6219921974
 30
0.0
 10
-8.6621228969
 20
-20.6232167356
 30
0.0
 10
-8.6194395077
 20
-20.624130432
 30
0.0
 10
-8.5731395316
 20
-20.6246938887
 30
0.0
 10
-8.5412439405
 20
-20.6248213395
 30
0.0
 10
-8.525
 20
-20.6248213396
 30
0.0
  0
SPLINE
  5
5B9
100
AcDbEntity
  8
RACCORDO
100
AcDbSpline
 62
7
  6
CONTINUOUS
 70
0
 71
3
 72
9
 73
5
 74
0
 42
0.0000001
 43
0.0000001
 44
0.0000000001
 40
0.0
 40
0.0
 40
0.0
 40
0.0
 40
0.4886661288
 40
1.0
 40
1.0
 40
1.0
 40
1.0
 10
-8.6444793325
 20
-15.6303987953
 30
0.0
 10
-8.6244644259
 20
-15.6412891461
 30
0.0
 10
-8.5844954923
 20
-15.6653644482
 30
0.0
 10
-8.545153111
 20
-15.6903796111
 30
0.0
 10
-8.525
 20
-15.7031206241
 30
0.0
  0
SPLINE
  5
5BA
100
AcDbEntity
  8
RACCORDO
100
AcDbSpline
 62
7
  6
CONTINUOUS
 70
0
 71
3
 72
9
 73
5
 74
0
 42
0.0000001
 43
0.0000001
 44
0.0000000001
 40
0.0
 40
0.0
 40
0.0
 40
0.0
 40
0.4886661288
 40
1.0
 40
1.0
 40
1.0
 40
1.0
 10
9.9944793325
 20
-15.6303987953
 30
0.0
 10
9.9744644259
 20
-15.6412891461
 30
0.0
 10
9.9344954923
 20
-15.6653644482
 30
0.0
 10
9.895153111
 20
-15.6903796111
 30
0.0
 10
9.875
 20
-15.7031206241
 30
0.0
  0
SPLINE
  5
5BB
100
AcDbEntity
  8
IMPORT_IGES
100
AcDbSpline
 62
7
  6
CONTINUOUS
 70
0
 71
3
 72
12
 73
8
 74
0
 42
0.0000001
 43
0.0000001
 44
0.0000000001
 40
0.0
 40
0.0
 40
0.0
 40
0.0
 40
0.0749176941
 40
0.1697514124
 40
0.4084476425
 40
0.6914552993
 40
1.0
 40
1.0
 40
1.0
 40
1.0
 10
-5.275
 20
-3.098298469
 30
0.0
 10
-5.275
 20
-3.1071418795
 30
0.0
 10
-5.2793068043
 20
-3.1270639134
 30
0.0
 10
-5.2978737475
 20
-3.1715848926
 30
0.0
 10
-5.3355337607
 20
-3.2342099837
 30
0.0
 10
-5.3911989906
 20
-3.314803268
 30
0.0
 10
-5.4328391987
 20
-3.3708927223
 30
0.0
 10
-5.4547610547
 20
-3.3999776203
 30
0.0
  0
SPLINE
  5
5BC
100
AcDbEntity
  8
IMPORT_IGES
100
AcDbSpline
 62
7
  6
CONTINUOUS
 70
0
 71
3
 72
12
 73
8
 74
0
 42
0.0000001
 43
0.0000001
 44
0.0000000001
 40
0.0
 40
0.0
 40
0.0
 40
0.0
 40
0.3085445961
 40
0.5915522489
 40
0.8302485569
 40
0.9250822672
 40
1.0
 40
1.0
 40
1.0
 40
1.0
 10
6.8047611927
 20
-3.3999778
 30
0.0
 10
6.78283933
 20
-3.3708928933
 30
0.0
 10
6.7411990985
 20
-3.3148034166
 30
0.0
 10
6.6855338338
 20
-3.2342100862
 30
0.0
 10
6.6478737718
 20
-3.1715849587
 30
0.0
 10
6.6293068171
 20
-3.1270639384
 30
0.0
 10
6.625
 20
-3.1071418897
 30
0.0
 10
6.625
 20
-3.098298469
 30
0.0
  0
SPLINE
  5
5BD
100
AcDbEntity
  8
RACCORDO
100
AcDbSpline
 62
7
  6
CONTINUOUS
 70
0
 71
3
 72
26
 73
22
 74
0
 42
0.0000001
 43
0.0000001
 44
0.0000000001
 40
0.0
 40
0.0
 40
0.0
 40
0.0
 40
0.0009049298
 40
0.002674114
 40
0.005305308
 40
0.0087913609
 40
0.0182702214
 40
0.030960311
 40
0.0466782643
 40
0.0652122844
 40
0.086339402
 40
0.1098331126
 40
0.1630493508
 40
0.2232416466
 40
0.2890305735
 40
0.3592828285
 40
0.4330802646
 40
0.5096794276
 40
0.6689574955
 40
0.8333472041
 40
1.0
 40
1.0
 40
1.0
 40
1.0
 10
3.1843115708
 20
6.1093520911
 30
0.0
 10
3.1843924385
 20
6.109550959
 30
0.0
 10
3.1847926721
 20
6.1100573295
 30
0.0
 10
3.1855730314
 20
6.111034838
 30
0.0
 10
3.1868132109
 20
6.1124415169
 30
0.0
 10
3.1892855236
 20
6.1151910878
 30
0.0
 10
3.1934342407
 20
6.1196470005
 30
0.0
 10
3.1996102946
 20
6.1261760084
 30
0.0
 10
3.2073114929
 20
6.1342206999
 30
0.0
 10
3.2164311362
 20
6.1436776159
 30
0.0
 10
3.2268608805
 20
6.1544339543
 30
0.0
 10
3.2430522763
 20
6.1710640765
 30
0.0
 10
3.2657658854
 20
6.1942786773
 30
0.0
 10
3.2955597267
 20
6.2246034766
 30
0.0
 10
3.3282373961
 20
6.2577606533
 30
0.0
 10
3.3632232932
 20
6.2931745777
 30
0.0
 10
3.4000482474
 20
6.3303766309
 30
0.0
 10
3.4517748824
 20
6.3825452903
 30
0.0
 10
3.5187083681
 20
6.4499012275
 30
0.0
 10
3.6008009343
 20
6.5323115317
 30
0.0
 10
3.6562882641
 20
6.5878893528
 30
0.0
 10
3.6842369883
 20
6.6158528412
 30
0.0
  0
SPLINE
  5
5BE
100
AcDbEntity
  8
RACCORDO
100
AcDbSpline
 62
7
  6
CONTINUOUS
 70
0
 71
3
 72
26
 73
22
 74
0
 42
0.0000001
 43
0.0000001
 44
0.0000000001
 40
0.0
 40
0.0
 40
0.0
 40
0.0
 40
0.0009049298
 40
0.002674114
 40
0.005305308
 40
0.0087913609
 40
0.0182702214
 40
0.030960311
 40
0.0466782643
 40
0.0652122844
 40
0.086339402
 40
0.1098331126
 40
0.1630493508
 40
0.2232416466
 40
0.2890305735
 40
0.3592828285
 40
0.4330802646
 40
0.5096794276
 40
0.6689574955
 40
0.8333472041
 40
1.0
 40
1.0
 40
1.0
 40
1.0
 10
4.3343115708
 20
6.1093520911
 30
0.0
 10
4.3343924385
 20
6.109550959
 30
0.0
 10
4.3347926721
 20
6.1100573295
 30
0.0
 10
4.3355730314
 20
6.111034838
 30
0.0
 10
4.3368132109
 20
6.1124415169
 30
0.0
 10
4.3392855236
 20
6.1151910878
 30
0.0
 10
4.3434342407
 20
6.1196470005
 30
0.0
 10
4.3496102946
 20
6.1261760084
 30
0.0
 10
4.3573114929
 20
6.1342206999
 30
0.0
 10
4.3664311362
 20
6.1436776159
 30
0.0
 10
4.3768608805
 20
6.1544339543
 30
0.0
 10
4.3930522763
 20
6.1710640765
 30
0.0
 10
4.4157658854
 20
6.1942786773
 30
0.0
 10
4.4455597267
 20
6.2246034766
 30
0.0
 10
4.4782373961
 20
6.2577606533
 30
0.0
 10
4.5132232932
 20
6.2931745777
 30
0.0
 10
4.5500482474
 20
6.3303766309
 30
0.0
 10
4.6017748824
 20
6.3825452903
 30
0.0
 10
4.6687083681
 20
6.4499012275
 30
0.0
 10
4.7508009343
 20
6.5323115317
 30
0.0
 10
4.8062882641
 20
6.5878893528
 30
0.0
 10
4.8342369883
 20
6.6158528412
 30
0.0
  0
SPLINE
  5
5BF
100
AcDbEntity
  8
RACCORDO
100
AcDbSpline
 62
7
  6
CONTINUOUS
 70
0
 71
3
 72
26
 73
22
 74
0
 42
0.0000001
 43
0.0000001
 44
0.0000000001
 40
0.0
 40
0.0
 40
0.0
 40
0.0
 40
0.0008510654
 40
0.0025716543
 40
0.0051572083
 40
0.0086000004
 40
0.0179987512
 40
0.0306167703
 40
0.0462705007
 40
0.0647480234
 40
0.0858262041
 40
0.1092783302
 40
0.1624324171
 40
0.2225886461
 40
0.2883652139
 40
0.3586265734
 40
0.4324525718
 40
0.509098017
 40
0.6685161217
 40
0.8331018023
 40
1.0
 40
1.0
 40
1.0
 40
1.0
 10
4.3344599863
 20
4.5094826835
 30
0.0
 10
4.3345469231
 20
4.5096645574
 30
0.0
 10
4.3349479902
 20
4.5101346263
 30
0.0
 10
4.3357263379
 20
4.511067763
 30
0.0
 10
4.3369651445
 20
4.5124269314
 30
0.0
 10
4.3394404363
 20
4.5151122443
 30
0.0
 10
4.3435900056
 20
4.5194901314
 30
0.0
 10
4.3497648248
 20
4.5259301163
 30
0.0
 10
4.3574652085
 20
4.5338877172
 30
0.0
 10
4.3665844962
 20
4.5432601801
 30
0.0
 10
4.3770141022
 20
4.5539350451
 30
0.0
 10
4.3932090528
 20
4.5704599336
 30
0.0
 10
4.4159253822
 20
4.593553646
 30
0.0
 10
4.4457187461
 20
4.6237479954
 30
0.0
 10
4.4783963729
 20
4.6567888741
 30
0.0
 10
4.5133825371
 20
4.6921004459
 30
0.0
 10
4.5502079529
 20
4.7292137246
 30
0.0
 10
4.6019402593
 20
4.7812851079
 30
0.0
 10
4.6688795568
 20
4.8485516028
 30
0.0
 10
4.7509730245
 20
4.9308962481
 30
0.0
 10
4.8064537998
 20
4.9864531906
 30
0.0
 10
4.8343993763
 20
5.0144137901
 30
0.0
  0
SPLINE
  5
5C0
100
AcDbEntity
  8
RACCORDO
100
AcDbSpline
 62
250
  6
CONTINUOUS
 70
0
 71
3
 72
8
 73
4
 74
0
 42
0.0000001
 43
0.0000001
 44
0.0000000001
 40
0.0
 40
0.0
 40
0.0
 40
0.0
 40
1.0
 40
1.0
 40
1.0
 40
1.0
 10
-5.7844599868
 20
4.5094826844
 30
0.0
 10
-5.7846679652
 20
1.8698052981
 30
0.0
 10
-5.7846933262
 20
-0.7698721089
 30
0.0
 10
-5.7845360798
 20
-3.4095494987
 30
0.0
  0
LINE
  5
5C1
100
AcDbEntity
  8
RACCORDO
100
AcDbLine
 62
250
  6
CONTINUOUS
 10
-2.984311571
 20
6.1093520915
 30
0.0
 11
-2.9844599863
 21
4.5094826835
 31
0.0
  0
LINE
  5
5C2
100
AcDbEntity
  8
RACCORDO
100
AcDbLine
 62
250
  6
CONTINUOUS
 10
-1.8341515579
 20
7.4592111058
 30
0.0
 11
-1.8343115708
 21
6.1093520911
 31
0.0
  0
LINE
  5
5C3
100
AcDbEntity
  8
RACCORDO
100
AcDbLine
 62
250
  6
CONTINUOUS
 10
3.1843115708
 20
6.1093520911
 30
0.0
 11
3.1841515579
 21
7.4592111059
 31
0.0
  0
SPLINE
  5
5C4
100
AcDbEntity
  8
RACCORDO
100
AcDbSpline
 62
7
  6
CONTINUOUS
 70
0
 71
3
 72
15
 73
11
 74
0
 42
0.0000001
 43
0.0000001
 44
0.0000000001
 40
0.0
 40
0.0
 40
0.0
 40
0.0
 40
0.1666545511
 40
0.3262779792
 40
0.4735916211
 40
0.6057108254
 40
0.7221085607
 40
0.8242207343
 40
0.9152394685
 40
1.0
 40
1.0
 40
1.0
 40
1.0
 10
-9.7177234819
 20
23.1226497308
 30
0.0
 10
-9.735182792
 20
23.1226497308
 30
0.0
 10
-9.7693945583
 20
23.1249197959
 30
0.0
 10
-9.8182789333
 20
23.1340781896
 30
0.0
 10
-9.8621199981
 20
23.1484841847
 30
0.0
 10
-9.8993602838
 20
23.1671098288
 30
0.0
 10
-9.9291080599
 20
23.1890199577
 30
0.0
 10
-9.9508995457
 20
23.2134179792
 30
0.0
 10
-9.9643998674
 20
23.2396149959
 30
0.0
 10
-9.9676297781
 20
23.2581079409
 30
0.0
 10
-9.9677192511
 20
23.2669872981
 30
0.0
  0
SPLINE
  5
5C5
100
AcDbEntity
  8
RACCORDO
100
AcDbSpline
 62
7
  6
CONTINUOUS
 70
0
 71
3
 72
12
 73
8
 74
0
 42
0.0000001
 43
0.0000001
 44
0.0000000001
 40
0.0
 40
0.0
 40
0.0
 40
0.0
 40
0.4189758554
 40
0.7258150368
 40
0.9169374284
 40
0.970078621
 40
1.0
 40
1.0
 40
1.0
 40
1.0
 10
-9.93391534
 20
22.3279108386
 30
0.0
 10
-9.9387355339
 20
22.328345856
 30
0.0
 10
-9.9471021029
 20
22.3290818085
 30
0.0
 10
-9.9575917423
 20
22.3301849672
 30
0.0
 10
-9.9639546858
 20
22.3312764657
 30
0.0
 10
-9.9668861623
 20
22.3323145409
 30
0.0
 10
-9.9676816398
 20
22.3330673782
 30
0.0
 10
-9.9677192511
 20
22.3334109614
 30
0.0
  0
SPLINE
  5
5C6
100
AcDbEntity
  8
RACCORDO
100
AcDbSpline
 62
7
  6
CONTINUOUS
 70
0
 71
3
 72
12
 73
8
 74
0
 42
0.0000001
 43
0.0000001
 44
0.0000000001
 40
0.0
 40
0.0
 40
0.0
 40
0.0
 40
0.029921379
 40
0.0830625716
 40
0.2741849632
 40
0.5810241446
 40
1.0
 40
1.0
 40
1.0
 40
1.0
 10
11.3177192511
 20
22.3334109614
 30
0.0
 10
11.3176816398
 20
22.3330673782
 30
0.0
 10
11.3168861623
 20
22.3323145409
 30
0.0
 10
11.3139546858
 20
22.3312764657
 30
0.0
 10
11.3075917423
 20
22.3301849672
 30
0.0
 10
11.2971021029
 20
22.3290818085
 30
0.0
 10
11.2887355339
 20
22.328345856
 30
0.0
 10
11.28391534
 20
22.3279108386
 30
0.0
  0
SPLINE
  5
5C7
100
AcDbEntity
  8
RACCORDO
100
AcDbSpline
 62
7
  6
CONTINUOUS
 70
0
 71
3
 72
15
 73
11
 74
0
 42
0.0000001
 43
0.0000001
 44
0.0000000001
 40
0.0
 40
0.0
 40
0.0
 40
0.0
 40
0.1666545511
 40
0.3262779792
 40
0.4735916211
 40
0.6057108254
 40
0.7221085607
 40
0.8242207343
 40
0.9152394685
 40
1.0
 40
1.0
 40
1.0
 40
1.0
 10
11.0677234819
 20
23.1226497308
 30
0.0
 10
11.085182792
 20
23.1226497308
 30
0.0
 10
11.1193945583
 20
23.1249197959
 30
0.0
 10
11.1682789333
 20
23.1340781896
 30
0.0
 10
11.2121199981
 20
23.1484841847
 30
0.0
 10
11.2493602838
 20
23.1671098288
 30
0.0
 10
11.2791080599
 20
23.1890199577
 30
0.0
 10
11.3008995457
 20
23.2134179792
 30
0.0
 10
11.3143998674
 20
23.2396149959
 30
0.0
 10
11.3176297781
 20
23.2581079409
 30
0.0
 10
11.3177192511
 20
23.2669872981
 30
0.0
  0
SPLINE
  5
5C8
100
AcDbEntity
  8
RACCORDO
100
AcDbSpline
 62
7
  6
CONTINUOUS
 70
0
 71
3
 72
12
 73
8
 74
0
 42
0.0000001
 43
0.0000001
 44
0.0000000001
 40
0.0
 40
0.0
 40
0.0
 40
0.0
 40
0.029921379
 40
0.0830625716
 40
0.2741849632
 40
0.5810241446
 40
1.0
 40
1.0
 40
1.0
 40
1.0
 10
-9.9677192511
 20
-22.3334109614
 30
0.0
 10
-9.9676816398
 20
-22.3330673782
 30
0.0
 10
-9.9668861623
 20
-22.3323145409
 30
0.0
 10
-9.9639546858
 20
-22.3312764657
 30
0.0
 10
-9.9575917423
 20
-22.3301849672
 30
0.0
 10
-9.9471021029
 20
-22.3290818085
 30
0.0
 10
-9.9387355339
 20
-22.328345856
 30
0.0
 10
-9.93391534
 20
-22.3279108386
 30
0.0
  0
SPLINE
  5
5C9
100
AcDbEntity
  8
RACCORDO
100
AcDbSpline
 62
7
  6
CONTINUOUS
 70
0
 71
3
 72
12
 73
8
 74
0
 42
0.0000001
 43
0.0000001
 44
0.0000000001
 40
0.0
 40
0.0
 40
0.0
 40
0.0
 40
0.4189758554
 40
0.7258150368
 40
0.9169374284
 40
0.970078621
 40
1.0
 40
1.0
 40
1.0
 40
1.0
 10
11.28391534
 20
-22.3279108386
 30
0.0
 10
11.2887355339
 20
-22.328345856
 30
0.0
 10
11.2971021029
 20
-22.3290818085
 30
0.0
 10
11.3075917423
 20
-22.3301849672
 30
0.0
 10
11.3139546858
 20
-22.3312764657
 30
0.0
 10
11.3168861623
 20
-22.3323145409
 30
0.0
 10
11.3176816398
 20
-22.3330673782
 30
0.0
 10
11.3177192511
 20
-22.3334109614
 30
0.0
  0
SPLINE
  5
5CA
100
AcDbEntity
  8
RACCORDO
100
AcDbSpline
 62
7
  6
CONTINUOUS
 70
0
 71
3
 72
13
 73
9
 74
0
 42
0.0000001
 43
0.0000001
 44
0.0000000001
 40
0.0
 40
0.0
 40
0.0
 40
0.0
 40
0.0927966287
 40
0.2002447148
 40
0.3193571807
 40
0.4469985052
 40
0.7183509509
 40
1.0
 40
1.0
 40
1.0
 40
1.0
 10
4.9712073137
 20
23.7953389668
 30
0.0
 10
4.9572924006
 20
23.7952316797
 30
0.0
 10
4.927382272
 20
23.789799767
 30
0.0
 10
4.8822472469
 20
23.7736730732
 30
0.0
 10
4.8340026256
 20
23.7513098509
 30
0.0
 10
4.7654209279
 20
23.714769798
 30
0.0
 10
4.6778591526
 20
23.6622363788
 30
0.0
 10
4.6077774665
 20
23.6179177525
 30
0.0
 10
4.5720826234
 20
23.5953423515
 30
0.0
  0
SPLINE
  5
5CB
100
AcDbEntity
  8
RACCORDO
100
AcDbSpline
 62
7
  6
CONTINUOUS
 70
0
 71
3
 72
13
 73
9
 74
0
 42
0.0000001
 43
0.0000001
 44
0.0000000001
 40
0.0
 40
0.0
 40
0.0
 40
0.0
 40
0.0927966287
 40
0.2002447148
 40
0.3193571807
 40
0.4469985052
 40
0.7183509509
 40
1.0
 40
1.0
 40
1.0
 40
1.0
 10
-3.6212073137
 20
23.7953389668
 30
0.0
 10
-3.6072924006
 20
23.7952316797
 30
0.0
 10
-3.577382272
 20
23.789799767
 30
0.0
 10
-3.5322472469
 20
23.7736730732
 30
0.0
 10
-3.4840026256
 20
23.7513098509
 30
0.0
 10
-3.4154209279
 20
23.714769798
 30
0.0
 10
-3.3278591526
 20
23.6622363788
 30
0.0
 10
-3.2577774665
 20
23.6179177525
 30
0.0
 10
-3.2220826234
 20
23.5953423515
 30
0.0
  0
SPLINE
  5
5CC
100
AcDbEntity
  8
RACCORDO
100
AcDbSpline
 62
7
  6
CONTINUOUS
 70
0
 71
3
 72
13
 73
9
 74
0
 42
0.0000001
 43
0.0000001
 44
0.0000000001
 40
0.0
 40
0.0
 40
0.0
 40
0.0
 40
0.0927966287
 40
0.2002447148
 40
0.3193571807
 40
0.4469985052
 40
0.7183509509
 40
1.0
 40
1.0
 40
1.0
 40
1.0
 10
-3.6212073137
 20
-23.7953389668
 30
0.0
 10
-3.6072924006
 20
-23.7952316797
 30
0.0
 10
-3.577382272
 20
-23.789799767
 30
0.0
 10
-3.5322472469
 20
-23.7736730732
 30
0.0
 10
-3.4840026256
 20
-23.7513098509
 30
0.0
 10
-3.4154209279
 20
-23.714769798
 30
0.0
 10
-3.3278591526
 20
-23.6622363788
 30
0.0
 10
-3.2577774665
 20
-23.6179177525
 30
0.0
 10
-3.2220826234
 20
-23.5953423515
 30
0.0
  0
SPLINE
  5
5CD
100
AcDbEntity
  8
RACCORDO
100
AcDbSpline
 62
7
  6
CONTINUOUS
 70
0
 71
3
 72
13
 73
9
 74
0
 42
0.0000001
 43
0.0000001
 44
0.0000000001
 40
0.0
 40
0.0
 40
0.0
 40
0.0
 40
0.0927966287
 40
0.2002447148
 40
0.3193571807
 40
0.4469985052
 40
0.7183509509
 40
1.0
 40
1.0
 40
1.0
 40
1.0
 10
4.9712073137
 20
-23.7953389668
 30
0.0
 10
4.9572924006
 20
-23.7952316797
 30
0.0
 10
4.927382272
 20
-23.789799767
 30
0.0
 10
4.8822472469
 20
-23.7736730732
 30
0.0
 10
4.8340026256
 20
-23.7513098509
 30
0.0
 10
4.7654209279
 20
-23.714769798
 30
0.0
 10
4.6778591526
 20
-23.6622363788
 30
0.0
 10
4.6077774665
 20
-23.6179177525
 30
0.0
 10
4.5720826234
 20
-23.5953423515
 30
0.0
  0
LINE
  5
5CE
100
AcDbEntity
  8
RACCORDO
100
AcDbLine
 62
250
  6
CONTINUOUS
 10
4.3344599863
 20
4.5094826835
 30
0.0
 11
4.334311571
 21
6.1093520915
 31
0.0
  0
SPLINE
  5
5CF
100
AcDbEntity
  8
RACCORDO
100
AcDbSpline
 62
250
  6
CONTINUOUS
 70
0
 71
3
 72
8
 73
4
 74
0
 42
0.0000001
 43
0.0000001
 44
0.0000000001
 40
0.0
 40
0.0
 40
0.0
 40
0.0
 40
1.0
 40
1.0
 40
1.0
 40
1.0
 10
7.1345360797
 20
-3.4095494986
 30
0.0
 10
7.1346933262
 20
-0.7698721088
 30
0.0
 10
7.1346679653
 20
1.8698052982
 30
0.0
 10
7.1344599869
 20
4.5094826846
 30
0.0
  0
SPLINE
  5
5D0
100
AcDbEntity
  8
RACCORDO
100
AcDbSpline
 62
7
  6
CONTINUOUS
 70
0
 71
3
 72
26
 73
22
 74
0
 42
0.0000001
 43
0.0000001
 44
0.0000000001
 40
0.0
 40
0.0
 40
0.0
 40
0.0
 40
0.0008510653
 40
0.0025716542
 40
0.0051572082
 40
0.0086000001
 40
0.0179987509
 40
0.0306167699
 40
0.0462705002
 40
0.0647480229
 40
0.0858262035
 40
0.1092783295
 40
0.1624324164
 40
0.2225886454
 40
0.2883652133
 40
0.3586265728
 40
0.4324525713
 40
0.5090980165
 40
0.6685161213
 40
0.8331018021
 40
1.0
 40
1.0
 40
1.0
 40
1.0
 10
7.1344599863
 20
4.5094826834
 30
0.0
 10
7.1345469231
 20
4.5096645573
 30
0.0
 10
7.1349479902
 20
4.5101346262
 30
0.0
 10
7.1357263379
 20
4.5110677628
 30
0.0
 10
7.1369651445
 20
4.5124269312
 30
0.0
 10
7.1394404363
 20
4.515112244
 30
0.0
 10
7.1435900056
 20
4.519490131
 30
0.0
 10
7.1497648249
 20
4.5259301158
 30
0.0
 10
7.1574652085
 20
4.5338877167
 30
0.0
 10
7.1665844963
 20
4.5432601795
 30
0.0
 10
7.1770141023
 20
4.5539350443
 30
0.0
 10
7.193209053
 20
4.5704599327
 30
0.0
 10
7.2159253825
 20
4.5935536451
 30
0.0
 10
7.2457187465
 20
4.6237479943
 30
0.0
 10
7.2783963735
 20
4.6567888728
 30
0.0
 10
7.3133825379
 20
4.6921004445
 30
0.0
 10
7.3502079539
 20
4.729213723
 30
0.0
 10
7.4019402608
 20
4.7812851058
 30
0.0
 10
7.4688795583
 20
4.8485516009
 30
0.0
 10
7.5509730309
 20
4.9308962415
 30
0.0
 10
7.6064537997
 20
4.9864531906
 30
0.0
 10
7.6343993763
 20
5.0144137901
 30
0.0
  0
LINE
  5
5D1
100
AcDbEntity
  8
RACCORDO
100
AcDbLine
 62
7
  6
CONTINUOUS
 10
11.325
 20
-22.3997080771
 30
0.0
 11
11.3177192511
 21
-22.3334109614
 31
0.0
  0
SPLINE
  5
5D2
100
AcDbEntity
  8
RACCORDO
100
AcDbSpline
 62
250
  6
CONTINUOUS
 70
0
 71
3
 72
22
 73
18
 74
0
 42
0.0000001
 43
0.0000001
 44
0.0000000001
 40
0.0
 40
0.0
 40
0.0
 40
0.0
 40
0.0028346579
 40
0.0076285154
 40
0.0146109708
 40
0.0238387332
 40
0.0490322391
 40
0.083085504
 40
0.1257141835
 40
0.1765347129
 40
0.2350813812
 40
0.3008091681
 40
0.3731030181
 40
0.4512870321
 40
0.62234189
 40
0.8075559708
 40
1.0
 40
1.0
 40
1.0
 40
1.0
 10
11.6576730391
 20
-20.5419058565
 30
0.0
 10
11.6574881362
 20
-20.5423419868
 30
0.0
 10
11.656386386
 20
-20.5431620604
 30
0.0
 10
11.6541580438
 20
-20.5440657673
 30
0.0
 10
11.6507568319
 20
-20.545027701
 30
0.0
 10
11.6439931579
 20
-20.5464467566
 30
0.0
 10
11.6326529662
 20
-20.5480899793
 30
0.0
 10
11.6157285504
 20
-20.5499068746
 30
0.0
 10
11.5944907289
 20
-20.5516673754
 30
0.0
 10
11.5691461976
 20
-20.5533530248
 30
0.0
 10
11.5399278428
 20
-20.5549394919
 30
0.0
 10
11.5071113937
 20
-20.5564100015
 30
0.0
 10
11.4710051639
 20
-20.5577488989
 30
0.0
 10
11.4172976994
 20
-20.5593891923
 30
0.0
 10
11.3447110236
 20
-20.5609777063
 30
0.0
 10
11.253020648
 20
-20.562152046
 30
0.0
 10
11.1899090317
 20
-20.5624452475
 30
0.0
 10
11.1577491915
 20
-20.5624683135
 30
0.0
  0
SPLINE
  5
5D3
100
AcDbEntity
  8
RACCORDO
100
AcDbSpline
 62
250
  6
CONTINUOUS
 70
0
 71
3
 72
21
 73
17
 74
0
 42
0.0000001
 43
0.0000001
 44
0.0000000001
 40
0.0
 40
0.0
 40
0.0
 40
0.0
 40
0.1908437011
 40
0.3737353397
 40
0.5424594456
 40
0.6912793369
 40
0.7566131107
 40
0.8151368364
 40
0.866352673
 40
0.9098252737
 40
0.9451857809
 40
0.9721353771
 40
0.9823830754
 40
0.9904509897
 40
0.9963243625
 40
1.0
 40
1.0
 40
1.0
 40
1.0
 10
11.1577491915
 20
-20.5624683248
 30
0.0
 10
11.1577929896
 20
-20.6538519851
 30
0.0
 10
11.1580678774
 20
-20.8328115089
 30
0.0
 10
11.1590446999
 20
-21.0925614005
 30
0.0
 10
11.1605464024
 20
-21.3321857412
 30
0.0
 10
11.1622476451
 20
-21.5155156452
 30
0.0
 10
11.1638795482
 20
-21.6460744895
 30
0.0
 10
11.1651415728
 20
-21.7298973175
 30
0.0
 10
11.1664832667
 20
-21.8032492868
 30
0.0
 10
11.1678866318
 20
-21.8655066834
 30
0.0
 10
11.1693421816
 20
-21.9161385378
 30
0.0
 10
11.1706523544
 20
-21.9508596947
 30
0.0
 10
11.171787404
 20
-21.9725038686
 30
0.0
 10
11.1725468052
 20
-21.9840646806
 30
0.0
 10
11.1733152648
 20
-21.9924610508
 30
0.0
 10
11.1738945494
 20
-21.9970070026
 30
0.0
 10
11.1742759622
 20
-21.998725222
 30
0.0
  0
SPLINE
  5
5D4
100
AcDbEntity
  8
RACCORDO
100
AcDbSpline
 62
250
  6
CONTINUOUS
 70
0
 71
3
 72
21
 73
17
 74
0
 42
0.0000001
 43
0.0000001
 44
0.0000000001
 40
0.0
 40
0.0
 40
0.0
 40
0.0
 40
0.1908078103
 40
0.3736647908
 40
0.5423568974
 40
0.691150141
 40
0.7564738747
 40
0.8149906153
 40
0.8662033914
 40
0.9096780747
 40
0.9450474638
 40
0.9720159805
 40
0.9822790167
 40
0.9903681185
 40
0.9962724717
 40
1.0
 40
1.0
 40
1.0
 40
1.0
 10
11.6576730391
 20
-20.5419058565
 30
0.0
 10
11.657716832
 20
-20.6028307761
 30
0.0
 10
11.6579917577
 20
-20.7221418732
 30
0.0
 10
11.6589686413
 20
-20.8953140395
 30
0.0
 10
11.6604704335
 20
-21.0550666738
 30
0.0
 10
11.6621717526
 20
-21.1772864646
 30
0.0
 10
11.6638036666
 20
-21.2643232618
 30
0.0
 10
11.665065726
 20
-21.3202037297
 30
0.0
 10
11.6664073939
 20
-21.369103542
 30
0.0
 10
11.6678109074
 20
-21.4106077292
 30
0.0
 10
11.6692662994
 20
-21.4443620165
 30
0.0
 10
11.6705771102
 20
-21.4675096392
 30
0.0
 10
11.6717113852
 20
-21.4819348742
 30
0.0
 10
11.672472542
 20
-21.4896466903
 30
0.0
 10
11.6732393404
 20
-21.4952471883
 30
0.0
 10
11.6738238286
 20
-21.4982812009
 30
0.0
 10
11.6741998097
 20
-21.4994104546
 30
0.0
  0
SPLINE
  5
5D5
100
AcDbEntity
  8
RACCORDO
100
AcDbSpline
 62
250
  6
CONTINUOUS
 70
0
 71
3
 72
22
 73
18
 74
0
 42
0.0000001
 43
0.0000001
 44
0.0000000001
 40
0.0
 40
0.0
 40
0.0
 40
0.0
 40
0.0028346435
 40
0.0076284833
 40
0.014610921
 40
0.0238386666
 40
0.0490321422
 40
0.0830853821
 40
0.1257140422
 40
0.1765345581
 40
0.2350812188
 40
0.3008090043
 40
0.3731028589
 40
0.4512868833
 40
0.6223417772
 40
0.80755591
 40
1.0
 40
1.0
 40
1.0
 40
1.0
 10
11.6576730391
 20
20.5419058565
 30
0.0
 10
11.6574881411
 20
20.5423419863
 30
0.0
 10
11.6563863975
 20
20.5431620622
 30
0.0
 10
11.6541580644
 20
20.5440657681
 30
0.0
 10
11.6507568614
 20
20.5450277025
 30
0.0
 10
11.6439931986
 20
20.5464467585
 30
0.0
 10
11.6326530189
 20
20.5480899819
 30
0.0
 10
11.6157286156
 20
20.5499068778
 30
0.0
 10
11.5944908036
 20
20.5516673795
 30
0.0
 10
11.5691462789
 20
20.5533530297
 30
0.0
 10
11.5399279275
 20
20.5549394978
 30
0.0
 10
11.5071114788
 20
20.5564100082
 30
0.0
 10
11.4710052463
 20
20.5577489064
 30
0.0
 10
11.4172977727
 20
20.559389201
 30
0.0
 10
11.3447110796
 20
20.5609777163
 30
0.0
 10
11.2530206781
 20
20.5621520569
 30
0.0
 10
11.1899090423
 20
20.5624452588
 30
0.0
 10
11.1577491915
 20
20.5624683248
 30
0.0
  0
SPLINE
  5
5D6
100
AcDbEntity
  8
RACCORDO
100
AcDbSpline
 62
250
  6
CONTINUOUS
 70
0
 71
3
 72
9
 73
5
 74
0
 42
0.0000001
 43
0.0000001
 44
0.0000000001
 40
0.0
 40
0.0
 40
0.0
 40
0.0
 40
0.2499471355
 40
1.0
 40
1.0
 40
1.0
 40
1.0
 10
11.1577491915
 20
20.5624683248
 30
0.0
 10
11.1552900036
 20
17.1361156711
 30
0.0
 10
11.1479150376
 20
3.4278046669
 30
0.0
 10
11.1503695474
 20
-10.2805116313
 30
0.0
 10
11.1577491915
 20
-20.5624683248
 30
0.0
  0
SPLINE
  5
5D7
100
AcDbEntity
  8
RACCORDO
100
AcDbSpline
 62
250
  6
CONTINUOUS
 70
0
 71
3
 72
9
 73
5
 74
0
 42
0.0000001
 43
0.0000001
 44
0.0000000001
 40
0.0
 40
0.0
 40
0.0
 40
0.0
 40
0.2499471355
 40
1.0
 40
1.0
 40
1.0
 40
1.0
 10
11.6576730391
 20
20.5419058565
 30
0.0
 10
11.6552138512
 20
17.1189795567
 30
0.0
 10
11.6478388852
 20
3.4243768659
 30
0.0
 10
11.650293395
 20
-10.2702311241
 30
0.0
 10
11.6576730391
 20
-20.5419058565
 30
0.0
  0
SPLINE
  5
5D8
100
AcDbEntity
  8
RACCORDO
100
AcDbSpline
 62
250
  6
CONTINUOUS
 70
0
 71
3
 72
21
 73
17
 74
0
 42
0.0000001
 43
0.0000001
 44
0.0000000001
 40
0.0
 40
0.0
 40
0.0
 40
0.0
 40
0.0036756612
 40
0.0095490156
 40
0.0176169182
 40
0.0278646196
 40
0.0548142201
 40
0.0901747256
 40
0.1336473269
 40
0.1848631633
 40
0.243386889
 40
0.3087206628
 40
0.457540554
 40
0.62626466
 40
0.8091562986
 40
1.0
 40
1.0
 40
1.0
 40
1.0
 10
11.1742759622
 20
21.998725222
 30
0.0
 10
11.1738945381
 20
21.9970069934
 30
0.0
 10
11.173315254
 20
21.9924610378
 30
0.0
 10
11.1725468135
 20
21.9840646695
 30
0.0
 10
11.1717874176
 20
21.9725038701
 30
0.0
 10
11.170652358
 20
21.9508596989
 30
0.0
 10
11.1693421877
 20
21.916138539
 30
0.0
 10
11.1678866414
 20
21.865506683
 30
0.0
 10
11.1664832737
 20
21.8032492872
 30
0.0
 10
11.165141582
 20
21.7298973176
 30
0.0
 10
11.1638795566
 20
21.6460744898
 30
0.0
 10
11.1622476531
 20
21.5155156455
 30
0.0
 10
11.1605464075
 20
21.3321857415
 30
0.0
 10
11.1590447024
 20
21.0925614008
 30
0.0
 10
11.1580678799
 20
20.8328115091
 30
0.0
 10
11.1577929824
 20
20.6538519852
 30
0.0
 10
11.1577491915
 20
20.5624683248
 30
0.0
  0
SPLINE
  5
5D9
100
AcDbEntity
  8
RACCORDO
100
AcDbSpline
 62
250
  6
CONTINUOUS
 70
0
 71
3
 72
21
 73
17
 74
0
 42
0.0000001
 43
0.0000001
 44
0.0000000001
 40
0.0
 40
0.0
 40
0.0
 40
0.0
 40
0.0037275565
 40
0.0096318743
 40
0.0177209763
 40
0.0279840482
 40
0.0549525649
 40
0.0903219332
 40
0.1337966227
 40
0.1850093878
 40
0.2435261249
 40
0.3088498528
 40
0.4576430892
 40
0.6263351923
 40
0.8091921639
 40
1.0
 40
1.0
 40
1.0
 40
1.0
 10
11.6741998097
 20
21.4994104546
 30
0.0
 10
11.673823839
 20
21.498281188
 30
0.0
 10
11.6732393397
 20
21.4952471827
 30
0.0
 10
11.6724725406
 20
21.4896466849
 30
0.0
 10
11.671711384
 20
21.4819348695
 30
0.0
 10
11.6705771142
 20
21.4675096222
 30
0.0
 10
11.669266299
 20
21.4443619953
 30
0.0
 10
11.6678109074
 20
21.4106077125
 30
0.0
 10
11.6664073945
 20
21.3691035336
 30
0.0
 10
11.665065726
 20
21.3202037239
 30
0.0
 10
11.6638036669
 20
21.2643232625
 30
0.0
 10
11.6621717525
 20
21.1772864706
 30
0.0
 10
11.6604704334
 20
21.0550666852
 30
0.0
 10
11.6589686411
 20
20.8953140572
 30
0.0
 10
11.6579917578
 20
20.7221418867
 30
0.0
 10
11.6577168298
 20
20.6028307843
 30
0.0
 10
11.6576730391
 20
20.5419058565
 30
0.0
  0
LINE
  5
5DA
100
AcDbEntity
  8
RACCORDO
100
AcDbLine
 62
7
  6
CONTINUOUS
 10
11.3177192511
 20
22.3334109614
 30
0.0
 11
11.325
 21
22.3997080771
 31
0.0
  0
LINE
  5
5DB
100
AcDbEntity
  8
RACCORDO
100
AcDbLine
 62
7
  6
CONTINUOUS
 10
-9.9677192511
 20
-22.3334109614
 30
0.0
 11
-9.975
 21
-22.3997080771
 31
0.0
  0
SPLINE
  5
5DC
100
AcDbEntity
  8
RACCORDO
100
AcDbSpline
 62
250
  6
CONTINUOUS
 70
0
 71
3
 72
21
 73
17
 74
0
 42
0.0000001
 43
0.0000001
 44
0.0000000001
 40
0.0
 40
0.0
 40
0.0
 40
0.0
 40
0.0036756375
 40
0.0095490103
 40
0.0176169246
 40
0.0278646229
 40
0.0548142191
 40
0.0901747263
 40
0.133647327
 40
0.1848631636
 40
0.2433868893
 40
0.3087206631
 40
0.4575405544
 40
0.6262646603
 40
0.8091562989
 40
1.0
 40
1.0
 40
1.0
 40
1.0
 10
-9.8242759622
 20
-21.998725222
 30
0.0
 10
-9.8238945494
 20
-21.9970070026
 30
0.0
 10
-9.8233152648
 20
-21.9924610508
 30
0.0
 10
-9.8225468052
 20
-21.9840646806
 30
0.0
 10
-9.821787404
 20
-21.9725038686
 30
0.0
 10
-9.8206523544
 20
-21.9508596947
 30
0.0
 10
-9.8193421816
 20
-21.9161385378
 30
0.0
 10
-9.8178866318
 20
-21.8655066834
 30
0.0
 10
-9.8164832667
 20
-21.8032492868
 30
0.0
 10
-9.8151415728
 20
-21.7298973175
 30
0.0
 10
-9.8138795482
 20
-21.6460744895
 30
0.0
 10
-9.8122476451
 20
-21.5155156452
 30
0.0
 10
-9.8105464024
 20
-21.3321857412
 30
0.0
 10
-9.8090446999
 20
-21.0925614005
 30
0.0
 10
-9.8080678774
 20
-20.8328115089
 30
0.0
 10
-9.8077929896
 20
-20.6538519851
 30
0.0
 10
-9.8077491915
 20
-20.5624683248
 30
0.0
  0
SPLINE
  5
5DD
100
AcDbEntity
  8
RACCORDO
100
AcDbSpline
 62
250
  6
CONTINUOUS
 70
0
 71
3
 72
21
 73
17
 74
0
 42
0.0000001
 43
0.0000001
 44
0.0000000001
 40
0.0
 40
0.0
 40
0.0
 40
0.0
 40
0.0037275284
 40
0.0096318815
 40
0.0177209833
 40
0.0279840195
 40
0.0549525362
 40
0.0903219253
 40
0.1337966086
 40
0.1850093847
 40
0.2435261253
 40
0.308849859
 40
0.4576431026
 40
0.6263352092
 40
0.8091921897
 40
1.0
 40
1.0
 40
1.0
 40
1.0
 10
-10.3241998097
 20
-21.4994104546
 30
0.0
 10
-10.3238238286
 20
-21.4982812009
 30
0.0
 10
-10.3232393404
 20
-21.4952471883
 30
0.0
 10
-10.322472542
 20
-21.4896466903
 30
0.0
 10
-10.3217113852
 20
-21.4819348742
 30
0.0
 10
-10.3205771102
 20
-21.4675096392
 30
0.0
 10
-10.3192662994
 20
-21.4443620165
 30
0.0
 10
-10.3178109074
 20
-21.4106077292
 30
0.0
 10
-10.3164073939
 20
-21.369103542
 30
0.0
 10
-10.315065726
 20
-21.3202037297
 30
0.0
 10
-10.3138036666
 20
-21.2643232618
 30
0.0
 10
-10.3121717526
 20
-21.1772864646
 30
0.0
 10
-10.3104704335
 20
-21.0550666738
 30
0.0
 10
-10.3089686413
 20
-20.8953140395
 30
0.0
 10
-10.3079917577
 20
-20.7221418732
 30
0.0
 10
-10.307716832
 20
-20.6028307761
 30
0.0
 10
-10.3076730391
 20
-20.5419058565
 30
0.0
  0
SPLINE
  5
5DE
100
AcDbEntity
  8
RACCORDO
100
AcDbSpline
 62
250
  6
CONTINUOUS
 70
0
 71
3
 72
22
 73
18
 74
0
 42
0.0000001
 43
0.0000001
 44
0.0000000001
 40
0.0
 40
0.0
 40
0.0
 40
0.0
 40
0.0028346435
 40
0.0076284833
 40
0.014610921
 40
0.0238386666
 40
0.0490321423
 40
0.0830853821
 40
0.1257140422
 40
0.1765345581
 40
0.2350812189
 40
0.3008090044
 40
0.373102859
 40
0.4512868834
 40
0.6223417772
 40
0.80755591
 40
1.0
 40
1.0
 40
1.0
 40
1.0
 10
-10.3076730391
 20
-20.5419058565
 30
0.0
 10
-10.3074881411
 20
-20.5423419863
 30
0.0
 10
-10.3063863975
 20
-20.5431620622
 30
0.0
 10
-10.3041580644
 20
-20.5440657681
 30
0.0
 10
-10.3007568614
 20
-20.5450277025
 30
0.0
 10
-10.2939931986
 20
-20.5464467585
 30
0.0
 10
-10.2826530189
 20
-20.5480899819
 30
0.0
 10
-10.2657286155
 20
-20.5499068778
 30
0.0
 10
-10.2444908036
 20
-20.5516673795
 30
0.0
 10
-10.2191462788
 20
-20.5533530297
 30
0.0
 10
-10.1899279275
 20
-20.5549394978
 30
0.0
 10
-10.1571114788
 20
-20.5564100082
 30
0.0
 10
-10.1210052463
 20
-20.5577489064
 30
0.0
 10
-10.0672977727
 20
-20.559389201
 30
0.0
 10
-9.9947110796
 20
-20.5609777162
 30
0.0
 10
-9.9030206781
 20
-20.5621520569
 30
0.0
 10
-9.8399090423
 20
-20.5624452588
 30
0.0
 10
-9.8077491915
 20
-20.5624683248
 30
0.0
  0
SPLINE
  5
5DF
100
AcDbEntity
  8
RACCORDO
100
AcDbSpline
 62
250
  6
CONTINUOUS
 70
0
 71
3
 72
9
 73
5
 74
0
 42
0.0000001
 43
0.0000001
 44
0.0000000001
 40
0.0
 40
0.0
 40
0.0
 40
0.0
 40
0.2499471355
 40
1.0
 40
1.0
 40
1.0
 40
1.0
 10
-9.8077491915
 20
-20.5624683248
 30
0.0
 10
-9.8052900037
 20
-17.1361156711
 30
0.0
 10
-9.7979150376
 20
-3.4278046669
 30
0.0
 10
-9.8003695474
 20
10.2805116313
 30
0.0
 10
-9.8077491915
 20
20.5624683248
 30
0.0
  0
SPLINE
  5
5E0
100
AcDbEntity
  8
RACCORDO
100
AcDbSpline
 62
250
  6
CONTINUOUS
 70
0
 71
3
 72
9
 73
5
 74
0
 42
0.0000001
 43
0.0000001
 44
0.0000000001
 40
0.0
 40
0.0
 40
0.0
 40
0.0
 40
0.2499471355
 40
1.0
 40
1.0
 40
1.0
 40
1.0
 10
-10.3076730391
 20
-20.5419058565
 30
0.0
 10
-10.3052138512
 20
-17.1189795567
 30
0.0
 10
-10.2978388852
 20
-3.4243768659
 30
0.0
 10
-10.300293395
 20
10.2702311241
 30
0.0
 10
-10.3076730391
 20
20.5419058565
 30
0.0
  0
SPLINE
  5
5E1
100
AcDbEntity
  8
RACCORDO
100
AcDbSpline
 62
7
  6
CONTINUOUS
 70
0
 71
3
 72
26
 73
22
 74
0
 42
0.0000001
 43
0.0000001
 44
0.0000000001
 40
0.0
 40
0.0
 40
0.0
 40
0.0
 40
0.0008149399
 40
0.0025026447
 40
0.0050571636
 40
0.0084704532
 40
0.0178144268
 40
0.0303830596
 40
0.0459927165
 40
0.0644314224
 40
0.0854759452
 40
0.1088994395
 40
0.1620106534
 40
0.2221418926
 40
0.2879097415
 40
0.3581771234
 40
0.4320225157
 40
0.5086995377
 40
0.6682134517
 40
0.8329334432
 40
1.0
 40
1.0
 40
1.0
 40
1.0
 10
7.1345360794
 20
-3.4095494981
 30
0.0
 10
7.1346281668
 20
-3.4097189049
 30
0.0
 10
7.1350281346
 20
-3.4101646578
 30
0.0
 10
7.1358062369
 20
-3.4110670947
 30
0.0
 10
7.1370434911
 20
-3.4123938605
 30
0.0
 10
7.1395211685
 20
-3.4150348338
 30
0.0
 10
7.1436710706
 20
-3.4193591584
 30
0.0
 10
7.1498451508
 20
-3.4257379079
 30
0.0
 10
7.1575449301
 20
-3.4336356261
 30
0.0
 10
7.1666639866
 20
-3.44294998
 30
0.0
 10
7.1770934919
 20
-3.4535687785
 30
0.0
 10
7.193290889
 20
-3.470021202
 30
0.0
 10
7.2160090857
 20
-3.4930316656
 30
0.0
 10
7.2458021218
 20
-3.5231361653
 30
0.0
 10
7.2784797193
 20
-3.5560969025
 30
0.0
 10
7.3134660677
 20
-3.5913379037
 30
0.0
 10
7.3502918017
 20
-3.6283899344
 30
0.0
 10
7.4020280092
 20
-3.6803941256
 30
0.0
 10
7.4689713032
 20
-3.7475987329
 30
0.0
 10
7.5510653953
 20
-3.8298977571
 30
0.0
 10
7.6065416626
 20
-3.8854400265
 30
0.0
 10
7.6344850761
 20
-3.9133984746
 30
0.0
  0
SPLINE
  5
5E2
100
AcDbEntity
  8
RACCORDO
100
AcDbSpline
 62
250
  6
CONTINUOUS
 70
0
 71
3
 72
22
 73
18
 74
0
 42
0.0000001
 43
0.0000001
 44
0.0000000001
 40
0.0
 40
0.0
 40
0.0
 40
0.0
 40
0.0028346526
 40
0.0076285035
 40
0.0146109522
 40
0.0238387082
 40
0.0490322025
 40
0.0830854577
 40
0.1257141296
 40
0.1765346534
 40
0.2350813185
 40
0.3008091045
 40
0.373102956
 40
0.4512869739
 40
0.6223418455
 40
0.8075559467
 40
1.0
 40
1.0
 40
1.0
 40
1.0
 10
-10.3076730391
 20
20.5419058565
 30
0.0
 10
-10.307488138
 20
20.5423419866
 30
0.0
 10
-10.3063863903
 20
20.5431620611
 30
0.0
 10
-10.3041580515
 20
20.5440657676
 30
0.0
 10
-10.300756843
 20
20.5450277016
 30
0.0
 10
-10.2939931732
 20
20.5464467574
 30
0.0
 10
-10.2826529861
 20
20.5480899804
 30
0.0
 10
-10.2657285751
 20
20.5499068759
 30
0.0
 10
-10.2444907575
 20
20.5516673771
 30
0.0
 10
-10.2191462288
 20
20.5533530268
 30
0.0
 10
-10.1899278755
 20
20.5549394944
 30
0.0
 10
-10.1571114267
 20
20.5564100043
 30
0.0
 10
-10.121005196
 20
20.557748902
 30
0.0
 10
-10.0672977281
 20
20.5593891959
 30
0.0
 10
-9.9947110456
 20
20.5609777104
 30
0.0
 10
-9.9030206599
 20
20.5621520504
 30
0.0
 10
-9.8399090359
 20
20.5624452521
 30
0.0
 10
-9.8077491915
 20
20.562468318
 30
0.0
  0
SPLINE
  5
5E3
100
AcDbEntity
  8
RACCORDO
100
AcDbSpline
 62
250
  6
CONTINUOUS
 70
0
 71
3
 72
21
 73
17
 74
0
 42
0.0000001
 43
0.0000001
 44
0.0000000001
 40
0.0
 40
0.0
 40
0.0
 40
0.0
 40
0.1908437014
 40
0.37373534
 40
0.542459446
 40
0.6912793372
 40
0.756613111
 40
0.8151368367
 40
0.8663526731
 40
0.9098252744
 40
0.9451857799
 40
0.9721353804
 40
0.9823830818
 40
0.9904509844
 40
0.9963243388
 40
1.0
 40
1.0
 40
1.0
 40
1.0
 10
-9.8077491915
 20
20.5624683248
 30
0.0
 10
-9.8077929824
 20
20.6538519852
 30
0.0
 10
-9.8080678799
 20
20.8328115091
 30
0.0
 10
-9.8090447024
 20
21.0925614008
 30
0.0
 10
-9.8105464075
 20
21.3321857415
 30
0.0
 10
-9.8122476531
 20
21.5155156455
 30
0.0
 10
-9.8138795566
 20
21.6460744898
 30
0.0
 10
-9.815141582
 20
21.7298973176
 30
0.0
 10
-9.8164832737
 20
21.8032492872
 30
0.0
 10
-9.8178866414
 20
21.865506683
 30
0.0
 10
-9.8193421877
 20
21.916138539
 30
0.0
 10
-9.820652358
 20
21.9508596989
 30
0.0
 10
-9.8217874176
 20
21.9725038701
 30
0.0
 10
-9.8225468135
 20
21.9840646695
 30
0.0
 10
-9.823315254
 20
21.9924610378
 30
0.0
 10
-9.8238945381
 20
21.9970069934
 30
0.0
 10
-9.8242759622
 20
21.998725222
 30
0.0
  0
SPLINE
  5
5E4
100
AcDbEntity
  8
RACCORDO
100
AcDbSpline
 62
250
  6
CONTINUOUS
 70
0
 71
3
 72
21
 73
17
 74
0
 42
0.0000001
 43
0.0000001
 44
0.0000000001
 40
0.0
 40
0.0
 40
0.0
 40
0.0
 40
0.1908078361
 40
0.3736648077
 40
0.5423569108
 40
0.6911501472
 40
0.7564738751
 40
0.8149906122
 40
0.8662033773
 40
0.9096780668
 40
0.9450474351
 40
0.9720159518
 40
0.9822790237
 40
0.9903681257
 40
0.9962724435
 40
1.0
 40
1.0
 40
1.0
 40
1.0
 10
-10.3076730391
 20
20.5419058565
 30
0.0
 10
-10.3077168298
 20
20.6028307843
 30
0.0
 10
-10.3079917578
 20
20.7221418867
 30
0.0
 10
-10.3089686411
 20
20.8953140572
 30
0.0
 10
-10.3104704334
 20
21.0550666852
 30
0.0
 10
-10.3121717525
 20
21.1772864706
 30
0.0
 10
-10.3138036669
 20
21.2643232625
 30
0.0
 10
-10.315065726
 20
21.3202037239
 30
0.0
 10
-10.3164073945
 20
21.3691035336
 30
0.0
 10
-10.3178109074
 20
21.4106077125
 30
0.0
 10
-10.319266299
 20
21.4443619953
 30
0.0
 10
-10.3205771142
 20
21.4675096222
 30
0.0
 10
-10.321711384
 20
21.4819348695
 30
0.0
 10
-10.3224725406
 20
21.4896466849
 30
0.0
 10
-10.3232393397
 20
21.4952471827
 30
0.0
 10
-10.323823839
 20
21.498281188
 30
0.0
 10
-10.3241998097
 20
21.4994104546
 30
0.0
  0
LINE
  5
5E5
100
AcDbEntity
  8
RACCORDO
100
AcDbLine
 62
7
  6
CONTINUOUS
 10
-9.975
 20
22.3997080771
 30
0.0
 11
-9.9677192511
 21
22.3334109614
 31
0.0
  0
SPLINE
  5
5E6
100
AcDbEntity
  8
RACCORDO
100
AcDbSpline
 62
7
  6
CONTINUOUS
 70
0
 71
3
 72
26
 73
22
 74
0
 42
0.0000001
 43
0.0000001
 44
0.0000000001
 40
0.0
 40
0.0
 40
0.0
 40
0.0
 40
0.0008149398
 40
0.0025026446
 40
0.0050571635
 40
0.008470453
 40
0.0178144266
 40
0.0303830592
 40
0.0459927162
 40
0.064431422
 40
0.0854759447
 40
0.108899439
 40
0.1620106529
 40
0.2221418921
 40
0.287909741
 40
0.3581771229
 40
0.4320225153
 40
0.5086995373
 40
0.6682134514
 40
0.832933443
 40
1.0
 40
1.0
 40
1.0
 40
1.0
 10
-5.7845360794
 20
-3.4095494981
 30
0.0
 10
-5.7846281668
 20
-3.4097189049
 30
0.0
 10
-5.7850281346
 20
-3.4101646577
 30
0.0
 10
-5.7858062369
 20
-3.4110670945
 30
0.0
 10
-5.7870434911
 20
-3.4123938604
 30
0.0
 10
-5.7895211685
 20
-3.4150348336
 30
0.0
 10
-5.7936710706
 20
-3.4193591581
 30
0.0
 10
-5.7998451508
 20
-3.4257379075
 30
0.0
 10
-5.8075449302
 20
-3.4336356256
 30
0.0
 10
-5.8166639867
 20
-3.4429499795
 30
0.0
 10
-5.827093492
 20
-3.4535687779
 30
0.0
 10
-5.8432908892
 20
-3.4700212013
 30
0.0
 10
-5.866009086
 20
-3.4930316648
 30
0.0
 10
-5.8958021221
 20
-3.5231361644
 30
0.0
 10
-5.9284797198
 20
-3.5560969015
 30
0.0
 10
-5.9634660683
 20
-3.5913379026
 30
0.0
 10
-6.0002918024
 20
-3.6283899332
 30
0.0
 10
-6.0520280103
 20
-3.6803941241
 30
0.0
 10
-6.1189713043
 20
-3.7475987315
 30
0.0
 10
-6.2010654
 20
-3.8298977523
 30
0.0
 10
-6.2565416625
 20
-3.8854400265
 30
0.0
 10
-6.2844850761
 20
-3.9133984746
 30
0.0
  0
SPLINE
  5
5E7
100
AcDbEntity
  8
RACCORDO
100
AcDbSpline
 62
7
  6
CONTINUOUS
 70
0
 71
3
 72
26
 73
22
 74
0
 42
0.0000001
 43
0.0000001
 44
0.0000000001
 40
0.0
 40
0.0
 40
0.0
 40
0.0
 40
0.0008510653
 40
0.0025716543
 40
0.0051572083
 40
0.0086000003
 40
0.0179987511
 40
0.0306167702
 40
0.0462705005
 40
0.0647480233
 40
0.0858262039
 40
0.10927833
 40
0.1624324169
 40
0.2225886459
 40
0.2883652137
 40
0.3586265732
 40
0.4324525717
 40
0.5090980168
 40
0.6685161216
 40
0.8331018023
 40
1.0
 40
1.0
 40
1.0
 40
1.0
 10
-5.7844599863
 20
4.5094826835
 30
0.0
 10
-5.7845469231
 20
4.5096645574
 30
0.0
 10
-5.7849479902
 20
4.5101346262
 30
0.0
 10
-5.7857263379
 20
4.5110677629
 30
0.0
 10
-5.7869651445
 20
4.5124269313
 30
0.0
 10
-5.7894404363
 20
4.5151122442
 30
0.0
 10
-5.7935900056
 20
4.5194901312
 30
0.0
 10
-5.7997648249
 20
4.5259301161
 30
0.0
 10
-5.8074652085
 20
4.533887717
 30
0.0
 10
-5.8165844962
 20
4.5432601799
 30
0.0
 10
-5.8270141022
 20
4.5539350448
 30
0.0
 10
-5.8432090529
 20
4.5704599333
 30
0.0
 10
-5.8659253823
 20
4.5935536457
 30
0.0
 10
-5.8957187463
 20
4.623747995
 30
0.0
 10
-5.9283963731
 20
4.6567888736
 30
0.0
 10
-5.9633825374
 20
4.6921004454
 30
0.0
 10
-6.0002079534
 20
4.729213724
 30
0.0
 10
-6.05194026
 20
4.781285107
 30
0.0
 10
-6.1188795575
 20
4.848551602
 30
0.0
 10
-6.2009730277
 20
4.9308962448
 30
0.0
 10
-6.2564537997
 20
4.9864531906
 30
0.0
 10
-6.2843993763
 20
5.0144137901
 30
0.0
  0
SPLINE
  5
5E8
100
AcDbEntity
  8
RACCORDO
100
AcDbSpline
 62
7
  6
CONTINUOUS
 70
0
 71
3
 72
26
 73
22
 74
0
 42
0.0000001
 43
0.0000001
 44
0.0000000001
 40
0.0
 40
0.0
 40
0.0
 40
0.0
 40
0.0008510654
 40
0.0025716543
 40
0.0051572083
 40
0.0086000004
 40
0.0179987512
 40
0.0306167703
 40
0.0462705007
 40
0.0647480234
 40
0.0858262041
 40
0.1092783302
 40
0.1624324171
 40
0.2225886461
 40
0.2883652139
 40
0.3586265734
 40
0.4324525718
 40
0.509098017
 40
0.6685161217
 40
0.8331018023
 40
1.0
 40
1.0
 40
1.0
 40
1.0
 10
-2.9844599863
 20
4.5094826835
 30
0.0
 10
-2.9845469231
 20
4.5096645574
 30
0.0
 10
-2.9849479902
 20
4.5101346263
 30
0.0
 10
-2.9857263379
 20
4.511067763
 30
0.0
 10
-2.9869651445
 20
4.5124269314
 30
0.0
 10
-2.9894404363
 20
4.5151122443
 30
0.0
 10
-2.9935900056
 20
4.5194901314
 30
0.0
 10
-2.9997648248
 20
4.5259301163
 30
0.0
 10
-3.0074652085
 20
4.5338877172
 30
0.0
 10
-3.0165844962
 20
4.5432601801
 30
0.0
 10
-3.0270141022
 20
4.5539350451
 30
0.0
 10
-3.0432090528
 20
4.5704599336
 30
0.0
 10
-3.0659253822
 20
4.593553646
 30
0.0
 10
-3.0957187461
 20
4.6237479954
 30
0.0
 10
-3.1283963729
 20
4.6567888741
 30
0.0
 10
-3.1633825371
 20
4.6921004459
 30
0.0
 10
-3.2002079529
 20
4.7292137246
 30
0.0
 10
-3.2519402593
 20
4.7812851079
 30
0.0
 10
-3.3188795568
 20
4.8485516028
 30
0.0
 10
-3.4009730245
 20
4.9308962481
 30
0.0
 10
-3.4564537998
 20
4.9864531906
 30
0.0
 10
-3.4843993763
 20
5.0144137901
 30
0.0
  0
SPLINE
  5
5E9
100
AcDbEntity
  8
RACCORDO
100
AcDbSpline
 62
250
  6
CONTINUOUS
 70
0
 71
3
 72
13
 73
9
 74
0
 42
0.0000001
 43
0.0000001
 44
0.0000000001
 40
0.0
 40
0.0
 40
0.0
 40
0.0
 40
0.1162399782
 40
0.2339778175
 40
0.3543713311
 40
0.4780980184
 40
0.7345386243
 40
1.0
 40
1.0
 40
1.0
 40
1.0
 10
-9.9619014213
 20
23.8443375673
 30
0.0
 10
-9.9618538949
 20
23.8301877969
 30
0.0
 10
-9.9584956104
 20
23.8016148029
 30
0.0
 10
-9.9439382831
 20
23.7606547352
 30
0.0
 10
-9.9204678694
 20
23.7229828841
 30
0.0
 10
-9.8781654793
 20
23.6786204872
 30
0.0
 10
-9.8082385508
 20
23.6387874753
 30
0.0
 10
-9.7442200662
 20
23.6279126226
 30
0.0
 10
-9.7119056521
 20
23.6278312164
 30
0.0
  0
SPLINE
  5
5EA
100
AcDbEntity
  8
RACCORDO
100
AcDbSpline
 62
250
  6
CONTINUOUS
 70
0
 71
3
 72
13
 73
9
 74
0
 42
0.0000001
 43
0.0000001
 44
0.0000000001
 40
0.0
 40
0.0
 40
0.0
 40
0.0
 40
0.1162401412
 40
0.2339779602
 40
0.3543714643
 40
0.4780981267
 40
0.7345386771
 40
1.0
 40
1.0
 40
1.0
 40
1.0
 10
11.3119014213
 20
-23.8443375673
 30
0.0
 10
11.3118538948
 20
-23.830187777
 30
0.0
 10
11.3084956075
 20
-23.8016147644
 30
0.0
 10
11.2939382568
 20
-23.7606546878
 30
0.0
 10
11.2704678401
 20
-23.722982847
 30
0.0
 10
11.2281654486
 20
-23.6786204663
 30
0.0
 10
11.1582385313
 20
-23.6387874704
 30
0.0
 10
11.0942200598
 20
-23.6279126226
 30
0.0
 10
11.0619056521
 20
-23.6278312164
 30
0.0
  0
SPLINE
  5
5EB
100
AcDbEntity
  8
RACCORDO
100
AcDbSpline
 62
7
  6
CONTINUOUS
 70
0
 71
3
 72
15
 73
11
 74
0
 42
0.0000001
 43
0.0000001
 44
0.0000000001
 40
0.0
 40
0.0
 40
0.0
 40
0.0
 40
0.0847129374
 40
0.1757006909
 40
0.2778081862
 40
0.3942292046
 40
0.5263924491
 40
0.6737522819
 40
0.8333934372
 40
1.0
 40
1.0
 40
1.0
 40
1.0
 10
11.3177192511
 20
-23.2669872981
 30
0.0
 10
11.3176296219
 20
-23.258092445
 30
0.0
 10
11.3143880304
 20
-23.2395648789
 30
0.0
 10
11.3008400686
 20
-23.2133248236
 30
0.0
 10
11.2789737644
 20
-23.1888935038
 30
0.0
 10
11.2491263724
 20
-23.1669636521
 30
0.0
 10
11.2117662434
 20
-23.1483344332
 30
0.0
 10
11.1677934721
 20
-23.1339562437
 30
0.0
 10
11.1187829097
 20
-23.1248200479
 30
0.0
 10
11.0844908199
 20
-23.1226497308
 30
0.0
 10
11.0669962532
 20
-23.1226497308
 30
0.0
  0
SPLINE
  5
5EC
100
AcDbEntity
  8
RACCORDO
100
AcDbSpline
 62
7
  6
CONTINUOUS
 70
0
 71
3
 72
15
 73
11
 74
0
 42
0.0000001
 43
0.0000001
 44
0.0000000001
 40
0.0
 40
0.0
 40
0.0
 40
0.0
 40
0.0847129374
 40
0.1757006909
 40
0.2778081862
 40
0.3942292046
 40
0.5263924491
 40
0.6737522819
 40
0.8333934372
 40
1.0
 40
1.0
 40
1.0
 40
1.0
 10
8.9322807489
 20
-23.2669872981
 30
0.0
 10
8.9323703781
 20
-23.258092445
 30
0.0
 10
8.9356119696
 20
-23.2395648789
 30
0.0
 10
8.9491599314
 20
-23.2133248236
 30
0.0
 10
8.9710262356
 20
-23.1888935038
 30
0.0
 10
9.0008736276
 20
-23.1669636521
 30
0.0
 10
9.0382337566
 20
-23.1483344332
 30
0.0
 10
9.0822065279
 20
-23.1339562437
 30
0.0
 10
9.1312170903
 20
-23.1248200479
 30
0.0
 10
9.1655091801
 20
-23.1226497308
 30
0.0
 10
9.1830037468
 20
-23.1226497308
 30
0.0
  0
SPLINE
  5
5ED
100
AcDbEntity
  8
RACCORDO
100
AcDbSpline
 62
250
  6
CONTINUOUS
 70
0
 71
3
 72
13
 73
9
 74
0
 42
0.0000001
 43
0.0000001
 44
0.0000000001
 40
0.0
 40
0.0
 40
0.0
 40
0.0
 40
0.1162401412
 40
0.2339779602
 40
0.3543714643
 40
0.4780981267
 40
0.7345386771
 40
1.0
 40
1.0
 40
1.0
 40
1.0
 10
8.9380985787
 20
-23.8443375673
 30
0.0
 10
8.9381461052
 20
-23.830187777
 30
0.0
 10
8.9415043925
 20
-23.8016147644
 30
0.0
 10
8.9560617432
 20
-23.7606546878
 30
0.0
 10
8.9795321599
 20
-23.722982847
 30
0.0
 10
9.0218345514
 20
-23.6786204663
 30
0.0
 10
9.0917614687
 20
-23.6387874704
 30
0.0
 10
9.1557799402
 20
-23.6279126226
 30
0.0
 10
9.1880943479
 20
-23.6278312164
 30
0.0
  0
SPLINE
  5
5EE
100
AcDbEntity
  8
RACCORDO
100
AcDbSpline
 62
7
  6
CONTINUOUS
 70
0
 71
3
 72
26
 73
22
 74
0
 42
0.0000001
 43
0.0000001
 44
0.0000000001
 40
0.0
 40
0.0
 40
0.0
 40
0.0
 40
0.0009049298
 40
0.002674114
 40
0.005305308
 40
0.0087913609
 40
0.0182702214
 40
0.030960311
 40
0.0466782643
 40
0.0652122844
 40
0.086339402
 40
0.1098331126
 40
0.1630493508
 40
0.2232416466
 40
0.2890305735
 40
0.3592828285
 40
0.4330802646
 40
0.5096794276
 40
0.6689574955
 40
0.8333472041
 40
1.0
 40
1.0
 40
1.0
 40
1.0
 10
-2.9843115708
 20
6.1093520911
 30
0.0
 10
-2.9843924385
 20
6.109550959
 30
0.0
 10
-2.9847926721
 20
6.1100573295
 30
0.0
 10
-2.9855730314
 20
6.111034838
 30
0.0
 10
-2.9868132109
 20
6.1124415169
 30
0.0
 10
-2.9892855236
 20
6.1151910878
 30
0.0
 10
-2.9934342407
 20
6.1196470005
 30
0.0
 10
-2.9996102946
 20
6.1261760084
 30
0.0
 10
-3.0073114929
 20
6.1342206999
 30
0.0
 10
-3.0164311362
 20
6.1436776159
 30
0.0
 10
-3.0268608805
 20
6.1544339543
 30
0.0
 10
-3.0430522763
 20
6.1710640765
 30
0.0
 10
-3.0657658854
 20
6.1942786773
 30
0.0
 10
-3.0955597267
 20
6.2246034766
 30
0.0
 10
-3.1282373961
 20
6.2577606533
 30
0.0
 10
-3.1632232932
 20
6.2931745777
 30
0.0
 10
-3.2000482474
 20
6.3303766309
 30
0.0
 10
-3.2517748824
 20
6.3825452903
 30
0.0
 10
-3.3187083681
 20
6.4499012275
 30
0.0
 10
-3.4008009343
 20
6.5323115317
 30
0.0
 10
-3.4562882641
 20
6.5878893528
 30
0.0
 10
-3.4842369883
 20
6.6158528412
 30
0.0
  0
SPLINE
  5
5EF
100
AcDbEntity
  8
RACCORDO
100
AcDbSpline
 62
250
  6
CONTINUOUS
 70
0
 71
3
 72
13
 73
9
 74
0
 42
0.0000001
 43
0.0000001
 44
0.0000000001
 40
0.0
 40
0.0
 40
0.0
 40
0.0
 40
0.1162399782
 40
0.2339778175
 40
0.3543713311
 40
0.4780980184
 40
0.7345386243
 40
1.0
 40
1.0
 40
1.0
 40
1.0
 10
-7.5880985787
 20
23.8443375673
 30
0.0
 10
-7.5881461051
 20
23.8301877969
 30
0.0
 10
-7.5915043896
 20
23.8016148029
 30
0.0
 10
-7.6060617169
 20
23.7606547352
 30
0.0
 10
-7.6295321306
 20
23.7229828841
 30
0.0
 10
-7.6718345207
 20
23.6786204872
 30
0.0
 10
-7.7417614492
 20
23.6387874753
 30
0.0
 10
-7.8057799338
 20
23.6279126226
 30
0.0
 10
-7.8380943479
 20
23.6278312164
 30
0.0
  0
SPLINE
  5
5F0
100
AcDbEntity
  8
RACCORDO
100
AcDbSpline
 62
7
  6
CONTINUOUS
 70
0
 71
3
 72
15
 73
11
 74
0
 42
0.0000001
 43
0.0000001
 44
0.0000000001
 40
0.0
 40
0.0
 40
0.0
 40
0.0
 40
0.0847129374
 40
0.1757006909
 40
0.2778081862
 40
0.3942292046
 40
0.5263924491
 40
0.6737522819
 40
0.8333934372
 40
1.0
 40
1.0
 40
1.0
 40
1.0
 10
-7.5822807489
 20
23.2669872981
 30
0.0
 10
-7.5823703781
 20
23.258092445
 30
0.0
 10
-7.5856119696
 20
23.2395648789
 30
0.0
 10
-7.5991599314
 20
23.2133248236
 30
0.0
 10
-7.6210262356
 20
23.1888935038
 30
0.0
 10
-7.6508736276
 20
23.1669636521
 30
0.0
 10
-7.6882337566
 20
23.1483344332
 30
0.0
 10
-7.7322065279
 20
23.1339562437
 30
0.0
 10
-7.7812170903
 20
23.1248200479
 30
0.0
 10
-7.8155091801
 20
23.1226497308
 30
0.0
 10
-7.8330037468
 20
23.1226497308
 30
0.0
  0
SPLINE
  5
5F1
100
AcDbEntity
  8
RACCORDO
100
AcDbSpline
 62
7
  6
CONTINUOUS
 70
0
 71
3
 72
26
 73
22
 74
0
 42
0.0000001
 43
0.0000001
 44
0.0000000001
 40
0.0
 40
0.0
 40
0.0
 40
0.0
 40
0.0009049298
 40
0.002674114
 40
0.005305308
 40
0.0087913609
 40
0.0182702214
 40
0.030960311
 40
0.0466782643
 40
0.0652122844
 40
0.086339402
 40
0.1098331126
 40
0.1630493508
 40
0.2232416466
 40
0.2890305735
 40
0.3592828285
 40
0.4330802646
 40
0.5096794276
 40
0.6689574955
 40
0.8333472041
 40
1.0
 40
1.0
 40
1.0
 40
1.0
 10
-1.8343115708
 20
6.1093520911
 30
0.0
 10
-1.8343924385
 20
6.109550959
 30
0.0
 10
-1.8347926721
 20
6.1100573295
 30
0.0
 10
-1.8355730314
 20
6.111034838
 30
0.0
 10
-1.8368132109
 20
6.1124415169
 30
0.0
 10
-1.8392855236
 20
6.1151910878
 30
0.0
 10
-1.8434342407
 20
6.1196470005
 30
0.0
 10
-1.8496102946
 20
6.1261760084
 30
0.0
 10
-1.8573114929
 20
6.1342206999
 30
0.0
 10
-1.8664311362
 20
6.1436776159
 30
0.0
 10
-1.8768608805
 20
6.1544339543
 30
0.0
 10
-1.8930522763
 20
6.1710640765
 30
0.0
 10
-1.9157658854
 20
6.1942786773
 30
0.0
 10
-1.9455597267
 20
6.2246034766
 30
0.0
 10
-1.9782373961
 20
6.2577606533
 30
0.0
 10
-2.0132232932
 20
6.2931745777
 30
0.0
 10
-2.0500482474
 20
6.3303766309
 30
0.0
 10
-2.1017748824
 20
6.3825452903
 30
0.0
 10
-2.1687083681
 20
6.4499012275
 30
0.0
 10
-2.2508009343
 20
6.5323115317
 30
0.0
 10
-2.3062882641
 20
6.5878893528
 30
0.0
 10
-2.3342369883
 20
6.6158528412
 30
0.0
  0
SPLINE
  5
5F2
100
AcDbEntity
  8
RACCORDO
100
AcDbSpline
 62
250
  6
CONTINUOUS
 70
0
 71
3
 72
13
 73
9
 74
0
 42
0.0000001
 43
0.0000001
 44
0.0000000001
 40
0.0
 40
0.0
 40
0.0
 40
0.0
 40
0.1162401412
 40
0.2339779602
 40
0.3543714643
 40
0.4780981267
 40
0.7345386771
 40
1.0
 40
1.0
 40
1.0
 40
1.0
 10
-7.5880985787
 20
-23.8443375673
 30
0.0
 10
-7.5881461052
 20
-23.830187777
 30
0.0
 10
-7.5915043925
 20
-23.8016147644
 30
0.0
 10
-7.6060617432
 20
-23.7606546878
 30
0.0
 10
-7.6295321599
 20
-23.722982847
 30
0.0
 10
-7.6718345514
 20
-23.6786204663
 30
0.0
 10
-7.7417614687
 20
-23.6387874704
 30
0.0
 10
-7.8057799402
 20
-23.6279126226
 30
0.0
 10
-7.8380943479
 20
-23.6278312164
 30
0.0
  0
SPLINE
  5
5F3
100
AcDbEntity
  8
RACCORDO
100
AcDbSpline
 62
7
  6
CONTINUOUS
 70
0
 71
3
 72
15
 73
11
 74
0
 42
0.0000001
 43
0.0000001
 44
0.0000000001
 40
0.0
 40
0.0
 40
0.0
 40
0.0
 40
0.0847129374
 40
0.1757006909
 40
0.2778081862
 40
0.3942292046
 40
0.5263924491
 40
0.6737522819
 40
0.8333934372
 40
1.0
 40
1.0
 40
1.0
 40
1.0
 10
-7.5822807489
 20
-23.2669872981
 30
0.0
 10
-7.5823703781
 20
-23.258092445
 30
0.0
 10
-7.5856119696
 20
-23.2395648789
 30
0.0
 10
-7.5991599314
 20
-23.2133248236
 30
0.0
 10
-7.6210262356
 20
-23.1888935038
 30
0.0
 10
-7.6508736276
 20
-23.1669636521
 30
0.0
 10
-7.6882337566
 20
-23.1483344332
 30
0.0
 10
-7.7322065279
 20
-23.1339562437
 30
0.0
 10
-7.7812170903
 20
-23.1248200479
 30
0.0
 10
-7.8155091801
 20
-23.1226497308
 30
0.0
 10
-7.8330037468
 20
-23.1226497308
 30
0.0
  0
SPLINE
  5
5F4
100
AcDbEntity
  8
RACCORDO
100
AcDbSpline
 62
7
  6
CONTINUOUS
 70
0
 71
3
 72
15
 73
11
 74
0
 42
0.0000001
 43
0.0000001
 44
0.0000000001
 40
0.0
 40
0.0
 40
0.0
 40
0.0
 40
0.0847129374
 40
0.1757006909
 40
0.2778081862
 40
0.3942292046
 40
0.5263924491
 40
0.6737522819
 40
0.8333934372
 40
1.0
 40
1.0
 40
1.0
 40
1.0
 10
8.9322807489
 20
23.2669872981
 30
0.0
 10
8.9323703781
 20
23.258092445
 30
0.0
 10
8.9356119696
 20
23.2395648789
 30
0.0
 10
8.9491599314
 20
23.2133248236
 30
0.0
 10
8.9710262356
 20
23.1888935038
 30
0.0
 10
9.0008736276
 20
23.1669636521
 30
0.0
 10
9.0382337566
 20
23.1483344332
 30
0.0
 10
9.0822065279
 20
23.1339562437
 30
0.0
 10
9.1312170903
 20
23.1248200479
 30
0.0
 10
9.1655091801
 20
23.1226497308
 30
0.0
 10
9.1830037468
 20
23.1226497308
 30
0.0
  0
SPLINE
  5
5F5
100
AcDbEntity
  8
RACCORDO
100
AcDbSpline
 62
250
  6
CONTINUOUS
 70
0
 71
3
 72
13
 73
9
 74
0
 42
0.0000001
 43
0.0000001
 44
0.0000000001
 40
0.0
 40
0.0
 40
0.0
 40
0.0
 40
0.1162399782
 40
0.2339778175
 40
0.3543713311
 40
0.4780980184
 40
0.7345386243
 40
1.0
 40
1.0
 40
1.0
 40
1.0
 10
8.9380985787
 20
23.8443375673
 30
0.0
 10
8.9381461051
 20
23.8301877969
 30
0.0
 10
8.9415043896
 20
23.8016148029
 30
0.0
 10
8.9560617169
 20
23.7606547352
 30
0.0
 10
8.9795321306
 20
23.7229828841
 30
0.0
 10
9.0218345207
 20
23.6786204872
 30
0.0
 10
9.0917614492
 20
23.6387874753
 30
0.0
 10
9.1557799338
 20
23.6279126226
 30
0.0
 10
9.1880943479
 20
23.6278312164
 30
0.0
  0
SPLINE
  5
5F6
100
AcDbEntity
  8
RACCORDO
100
AcDbSpline
 62
7
  6
CONTINUOUS
 70
0
 71
3
 72
15
 73
11
 74
0
 42
0.0000001
 43
0.0000001
 44
0.0000000001
 40
0.0
 40
0.0
 40
0.0
 40
0.0
 40
0.0847129374
 40
0.1757006909
 40
0.2778081862
 40
0.3942292046
 40
0.5263924491
 40
0.6737522819
 40
0.8333934372
 40
1.0
 40
1.0
 40
1.0
 40
1.0
 10
-9.9677192511
 20
-23.2669872981
 30
0.0
 10
-9.9676296219
 20
-23.258092445
 30
0.0
 10
-9.9643880304
 20
-23.2395648789
 30
0.0
 10
-9.9508400686
 20
-23.2133248236
 30
0.0
 10
-9.9289737644
 20
-23.1888935038
 30
0.0
 10
-9.8991263724
 20
-23.1669636521
 30
0.0
 10
-9.8617662434
 20
-23.1483344332
 30
0.0
 10
-9.8177934721
 20
-23.1339562437
 30
0.0
 10
-9.7687829097
 20
-23.1248200479
 30
0.0
 10
-9.7344908199
 20
-23.1226497308
 30
0.0
 10
-9.7169962532
 20
-23.1226497308
 30
0.0
  0
SPLINE
  5
5F7
100
AcDbEntity
  8
RACCORDO
100
AcDbSpline
 62
250
  6
CONTINUOUS
 70
0
 71
3
 72
13
 73
9
 74
0
 42
0.0000001
 43
0.0000001
 44
0.0000000001
 40
0.0
 40
0.0
 40
0.0
 40
0.0
 40
0.1162401412
 40
0.2339779602
 40
0.3543714643
 40
0.4780981267
 40
0.7345386771
 40
1.0
 40
1.0
 40
1.0
 40
1.0
 10
-9.9619014213
 20
-23.8443375673
 30
0.0
 10
-9.9618538948
 20
-23.830187777
 30
0.0
 10
-9.9584956075
 20
-23.8016147644
 30
0.0
 10
-9.9439382568
 20
-23.7606546878
 30
0.0
 10
-9.9204678401
 20
-23.722982847
 30
0.0
 10
-9.8781654486
 20
-23.6786204663
 30
0.0
 10
-9.8082385313
 20
-23.6387874704
 30
0.0
 10
-9.7442200598
 20
-23.6279126226
 30
0.0
 10
-9.7119056521
 20
-23.6278312164
 30
0.0
  0
SPLINE
  5
5F8
100
AcDbEntity
  8
RACCORDO
100
AcDbSpline
 62
250
  6
CONTINUOUS
 70
0
 71
3
 72
13
 73
9
 74
0
 42
0.0000001
 43
0.0000001
 44
0.0000000001
 40
0.0
 40
0.0
 40
0.0
 40
0.0
 40
0.1162399782
 40
0.2339778175
 40
0.3543713311
 40
0.4780980184
 40
0.7345386243
 40
1.0
 40
1.0
 40
1.0
 40
1.0
 10
11.3119014213
 20
23.8443375673
 30
0.0
 10
11.3118538949
 20
23.8301877969
 30
0.0
 10
11.3084956104
 20
23.8016148029
 30
0.0
 10
11.2939382831
 20
23.7606547352
 30
0.0
 10
11.2704678694
 20
23.7229828841
 30
0.0
 10
11.2281654793
 20
23.6786204872
 30
0.0
 10
11.1582385508
 20
23.6387874753
 30
0.0
 10
11.0942200662
 20
23.6279126226
 30
0.0
 10
11.0619056521
 20
23.6278312164
 30
0.0
  0
SPLINE
  5
5F9
100
AcDbEntity
  8
RACCORDO
100
AcDbSpline
 62
7
  6
CONTINUOUS
 70
0
 71
3
 72
26
 73
22
 74
0
 42
0.0000001
 43
0.0000001
 44
0.0000000001
 40
0.0
 40
0.0
 40
0.0
 40
0.0
 40
0.0009513896
 40
0.0027622175
 40
0.0054323498
 40
0.0089552087
 40
0.0185020454
 40
0.0312531556
 40
0.0470254029
 40
0.065607128
 40
0.0867755218
 40
0.1103042687
 40
0.1635727697
 40
0.2237952571
 40
0.2895943371
 40
0.3598386178
 40
0.433611656
 40
0.510171472
 40
0.6693308183
 40
0.8335546743
 40
1.0
 40
1.0
 40
1.0
 40
1.0
 10
-1.8341515576
 20
7.4592111053
 30
0.0
 10
-1.8342283245
 20
7.4594236722
 30
0.0
 10
-1.8346263149
 20
7.459960862
 30
0.0
 10
-1.835409279
 20
7.460975993
 30
0.0
 10
-1.8366501066
 20
7.4624228589
 30
0.0
 10
-1.8391201778
 20
7.4652265647
 30
0.0
 10
-1.8432679649
 20
7.4697483201
 30
0.0
 10
-1.8494451458
 20
7.4763524408
 30
0.0
 10
-1.857146994
 20
7.484470587
 30
0.0
 10
-1.866266947
 20
7.4939987021
 30
0.0
 10
-1.8766968029
 20
7.50482371
 30
0.0
 10
-1.8928852018
 20
7.5215424676
 30
0.0
 10
-1.9155965122
 20
7.5448588822
 30
0.0
 10
-1.9453907564
 20
7.5752935269
 30
0.0
 10
-1.9780684616
 20
7.6085485799
 30
0.0
 10
-2.013054134
 20
7.6440485918
 30
0.0
 10
-2.0498786996
 20
7.6813252596
 30
0.0
 10
-2.1016005518
 20
7.7335755742
 30
0.0
 10
-2.1685291349
 20
7.8010064473
 30
0.0
 10
-2.2506209433
 20
7.8834715096
 30
0.0
 10
-2.3061138053
 20
7.9390665151
 30
0.0
 10
-2.3340651868
 20
7.967032219
 30
0.0
  0
SPLINE
  5
5FA
100
AcDbEntity
  8
RACCORDO
100
AcDbSpline
 62
7
  6
CONTINUOUS
 70
0
 71
3
 72
26
 73
22
 74
0
 42
0.0000001
 43
0.0000001
 44
0.0000000001
 40
0.0
 40
0.0
 40
0.0
 40
0.0
 40
0.0009513896
 40
0.0027622175
 40
0.0054323498
 40
0.0089552087
 40
0.0185020454
 40
0.0312531556
 40
0.0470254029
 40
0.065607128
 40
0.0867755218
 40
0.1103042687
 40
0.1635727697
 40
0.2237952571
 40
0.2895943371
 40
0.3598386178
 40
0.433611656
 40
0.510171472
 40
0.6693308183
 40
0.8335546743
 40
1.0
 40
1.0
 40
1.0
 40
1.0
 10
3.1841515576
 20
7.4592111053
 30
0.0
 10
3.1842283245
 20
7.4594236722
 30
0.0
 10
3.1846263149
 20
7.459960862
 30
0.0
 10
3.185409279
 20
7.460975993
 30
0.0
 10
3.1866501066
 20
7.4624228589
 30
0.0
 10
3.1891201778
 20
7.4652265647
 30
0.0
 10
3.1932679649
 20
7.4697483201
 30
0.0
 10
3.1994451458
 20
7.4763524408
 30
0.0
 10
3.207146994
 20
7.484470587
 30
0.0
 10
3.216266947
 20
7.4939987021
 30
0.0
 10
3.2266968029
 20
7.50482371
 30
0.0
 10
3.2428852018
 20
7.5215424676
 30
0.0
 10
3.2655965122
 20
7.5448588822
 30
0.0
 10
3.2953907564
 20
7.5752935269
 30
0.0
 10
3.3280684616
 20
7.6085485799
 30
0.0
 10
3.363054134
 20
7.6440485918
 30
0.0
 10
3.3998786996
 20
7.6813252596
 30
0.0
 10
3.4516005518
 20
7.7335755742
 30
0.0
 10
3.5185291349
 20
7.8010064473
 30
0.0
 10
3.6006209433
 20
7.8834715096
 30
0.0
 10
3.6561138053
 20
7.9390665151
 30
0.0
 10
3.6840651868
 20
7.967032219
 30
0.0
  0
SPLINE
  5
5FB
100
AcDbEntity
  8
IMPORT_IGES
100
AcDbSpline
 62
7
  6
CONTINUOUS
 70
0
 71
3
 72
8
 73
4
 74
0
 42
0.0000001
 43
0.0000001
 44
0.0000000001
 40
0.0
 40
0.0
 40
0.0
 40
0.0
 40
1.0
 40
1.0
 40
1.0
 40
1.0
 10
-40.725326985
 20
10.5621318567
 30
0.0
 10
-40.5607571252
 20
10.4916019168
 30
0.0
 10
-40.3956883621
 20
10.422239896
 30
0.0
 10
-40.2311185024
 20
10.3517099561
 30
0.0
  0
SPLINE
  5
5FC
100
AcDbEntity
  8
IMPORT_IGES
100
AcDbSpline
 62
7
  6
CONTINUOUS
 70
0
 71
3
 72
10
 73
6
 74
0
 42
0.0000001
 43
0.0000001
 44
0.0000000001
 40
0.0
 40
0.0
 40
0.0
 40
0.0
 40
0.2500009989
 40
0.5001796269
 40
1.0
 40
1.0
 40
1.0
 40
1.0
 10
-39.9411713867
 20
10.3530600767
 30
0.0
 10
-39.8678527915
 20
10.353060077
 30
0.0
 10
-39.7210997793
 20
10.3333020954
 30
0.0
 10
-39.4400970265
 20
10.2476311241
 30
0.0
 10
-39.2423751854
 20
10.1461677876
 30
0.0
 10
-39.1188780838
 20
10.0672037902
 30
0.0
  0
SPLINE
  5
5FD
100
AcDbEntity
  8
IMPORT_IGES
100
AcDbSpline
 62
250
  6
CONTINUOUS
 70
0
 71
3
 72
11
 73
7
 74
0
 42
0.0000001
 43
0.0000001
 44
0.0000000001
 40
0.0
 40
0.0
 40
0.0
 40
0.0
 40
0.1908240689
 40
0.3936953013
 40
0.659093392
 40
1.0
 40
1.0
 40
1.0
 40
1.0
 10
-60.1161831785
 20
3.0132052805
 30
0.0
 10
-60.1174490412
 20
3.013190862
 30
0.0
 10
-60.1201858673
 20
3.0139392535
 30
0.0
 10
-60.1228192419
 20
3.0177126388
 30
0.0
 10
-60.1240244718
 20
3.022986683
 30
0.0
 10
-60.1242196231
 20
3.0270186219
 30
0.0
 10
-60.1242194854
 20
3.0292802284
 30
0.0
  0
SPLINE
  5
5FE
100
AcDbEntity
  8
IMPORT_IGES
100
AcDbSpline
 62
250
  6
CONTINUOUS
 70
0
 71
3
 72
11
 73
7
 74
0
 42
0.0000001
 43
0.0000001
 44
0.0000000001
 40
0.0
 40
0.0
 40
0.0
 40
0.0
 40
0.2287820514
 40
0.4705284561
 40
0.7295036757
 40
1.0
 40
1.0
 40
1.0
 40
1.0
 10
-61.1242194855
 20
6.1342446924
 30
0.0
 10
-61.1242194855
 20
6.1561174493
 30
0.0
 10
-61.1130189785
 20
6.201683664
 30
0.0
 10
-61.0672434151
 20
6.2568803911
 30
0.0
 10
-61.0011173606
 20
6.2928082221
 30
0.0
 10
-60.9500803443
 20
6.301034697
 30
0.0
 10
-60.9242194855
 20
6.301034697
 30
0.0
  0
SPLINE
  5
5FF
100
AcDbEntity
  8
IMPORT_IGES
100
AcDbSpline
 62
250
  6
CONTINUOUS
 70
0
 71
3
 72
13
 73
9
 74
0
 42
0.0000001
 43
0.0000001
 44
0.0000000001
 40
0.0
 40
0.0
 40
0.0
 40
0.0
 40
0.3739455391
 40
0.6920781578
 40
0.8150357436
 40
0.908085612
 40
0.9686589833
 40
1.0
 40
1.0
 40
1.0
 40
1.0
 10
-60.9242194855
 20
3.4922589292
 30
0.0
 10
-60.9497404744
 20
3.4922589292
 30
0.0
 10
-60.9969512298
 20
3.4911171619
 30
0.0
 10
-61.052540018
 20
3.4866583586
 30
0.0
 10
-61.0884795736
 20
3.4812924515
 30
0.0
 10
-61.1071101977
 20
3.4767652454
 30
0.0
 10
-61.1185769368
 20
3.472944227
 30
0.0
 10
-61.1242194855
 20
3.4680466708
 30
0.0
 10
-61.1242194855
 20
3.465907713
 30
0.0
  0
SPLINE
  5
600
100
AcDbEntity
  8
IMPORT_IGES
100
AcDbSpline
 62
250
  6
CONTINUOUS
 70
0
 71
3
 72
13
 73
9
 74
0
 42
0.0000001
 43
0.0000001
 44
0.0000000001
 40
0.0
 40
0.0
 40
0.0
 40
0.0
 40
0.0313410167
 40
0.091914388
 40
0.1849642564
 40
0.3079218422
 40
0.6260544609
 40
1.0
 40
1.0
 40
1.0
 40
1.0
 10
-60.1242194855
 20
3.465907713
 30
0.0
 10
-60.1242194855
 20
3.4680466708
 30
0.0
 10
-60.1298620342
 20
3.472944227
 30
0.0
 10
-60.1413287733
 20
3.4767652454
 30
0.0
 10
-60.1599593974
 20
3.4812924515
 30
0.0
 10
-60.195898953
 20
3.4866583586
 30
0.0
 10
-60.2514877412
 20
3.4911171619
 30
0.0
 10
-60.2986984966
 20
3.4922589292
 30
0.0
 10
-60.3242194855
 20
3.4922589292
 30
0.0
  0
SPLINE
  5
601
100
AcDbEntity
  8
IMPORT_IGES
100
AcDbSpline
 62
250
  6
CONTINUOUS
 70
0
 71
3
 72
11
 73
7
 74
0
 42
0.0000001
 43
0.0000001
 44
0.0000000001
 40
0.0
 40
0.0
 40
0.0
 40
0.0
 40
0.2704963243
 40
0.5294715439
 40
0.7712179486
 40
1.0
 40
1.0
 40
1.0
 40
1.0
 10
-60.3242194855
 20
6.301034697
 30
0.0
 10
-60.2983586267
 20
6.301034697
 30
0.0
 10
-60.2473216104
 20
6.2928082221
 30
0.0
 10
-60.1811955559
 20
6.2568803911
 30
0.0
 10
-60.1354199925
 20
6.201683664
 30
0.0
 10
-60.1242194855
 20
6.1561174493
 30
0.0
 10
-60.1242194855
 20
6.1342446924
 30
0.0
  0
SPLINE
  5
602
100
AcDbEntity
  8
IMPORT_IGES
100
AcDbSpline
 62
250
  6
CONTINUOUS
 70
0
 71
3
 72
11
 73
7
 74
0
 42
0.0000001
 43
0.0000001
 44
0.0000000001
 40
0.0
 40
0.0
 40
0.0
 40
0.0
 40
0.2355076672
 40
0.4932981199
 40
0.7553261715
 40
1.0
 40
1.0
 40
1.0
 40
1.0
 10
-60.1242185613
 20
3.0292784197
 30
0.0
 10
-60.1242178162
 20
3.0052652895
 30
0.0
 10
-60.1343177914
 20
2.9544471019
 30
0.0
 10
-60.1793260699
 20
2.8892514521
 30
0.0
 10
-60.2471371911
 20
2.8467576944
 30
0.0
 10
-60.2992717429
 20
2.8373274587
 30
0.0
 10
-60.3242194848
 20
2.8373286562
 30
0.0
  0
SPLINE
  5
603
100
AcDbEntity
  8
IMPORT_IGES
100
AcDbSpline
 62
250
  6
CONTINUOUS
 70
0
 71
3
 72
11
 73
7
 74
0
 42
0.0000001
 43
0.0000001
 44
0.0000000001
 40
0.0
 40
0.0
 40
0.0
 40
0.0
 40
0.2484937578
 40
0.4976055518
 40
0.7478076724
 40
1.0
 40
1.0
 40
1.0
 40
1.0
 10
-52.6777127303
 20
10.0965067553
 30
0.0
 10
-52.6411309145
 20
10.1330885621
 30
0.0
 10
-52.5605836213
 20
10.1994234879
 30
0.0
 10
-52.4224911006
 20
10.2736053627
 30
0.0
 10
-52.2702372009
 20
10.3156769675
 30
0.0
 10
-52.1640198096
 20
10.3159537768
 30
0.0
 10
-52.1120273749
 20
10.3086387202
 30
0.0
  0
SPLINE
  5
604
100
AcDbEntity
  8
IMPORT_IGES
100
AcDbSpline
 62
250
  6
CONTINUOUS
 70
0
 71
3
 72
11
 73
7
 74
0
 42
0.0000001
 43
0.0000001
 44
0.0000000001
 40
0.0
 40
0.0
 40
0.0
 40
0.0
 40
0.222668144
 40
0.4287410513
 40
0.6762661627
 40
1.0
 40
1.0
 40
1.0
 40
1.0
 10
-60.30814687
 20
2.8132052805
 30
0.0
 10
-60.3105774577
 20
2.8132052805
 30
0.0
 10
-60.3154364767
 20
2.8139652373
 30
0.0
 10
-60.3211112138
 20
2.8192734022
 30
0.0
 10
-60.3238173892
 20
2.8275333501
 30
0.0
 10
-60.3242319451
 20
2.8337805754
 30
0.0
 10
-60.3242194706
 20
2.8373143479
 30
0.0
  0
SPLINE
  5
605
100
AcDbEntity
  8
IMPORT_IGES
100
AcDbSpline
 62
250
  6
CONTINUOUS
 70
0
 71
3
 72
12
 73
8
 74
0
 42
0.0000001
 43
0.0000001
 44
0.0000000001
 40
0.0
 40
0.0
 40
0.0
 40
0.0
 40
0.3972430335
 40
0.7019909252
 40
0.9038603379
 40
0.9646575991
 40
1.0
 40
1.0
 40
1.0
 40
1.0
 10
-51.1944191405
 20
10.5621318567
 30
0.0
 10
-51.1927541466
 20
10.5739834958
 30
0.0
 10
-51.1896828555
 20
10.5949367989
 30
0.0
 10
-51.1846058836
 20
10.6216213333
 30
0.0
 10
-51.1803718368
 20
10.6383525657
 30
0.0
 10
-51.177047905
 20
10.6465690368
 30
0.0
 10
-51.1754427402
 20
10.6491738977
 30
0.0
 10
-51.1745349705
 20
10.6497304247
 30
0.0
  0
LINE
  5
606
100
AcDbEntity
  8
IMPORT_IGES
100
AcDbLine
 62
250
  6
CONTINUOUS
 10
-51.1745349705
 20
10.6497304247
 30
0.0
 11
-51.1736727372
 21
10.65
 31
0.0
  0
SPLINE
  5
607
100
AcDbEntity
  8
IMPORT_IGES
100
AcDbSpline
 62
250
  6
CONTINUOUS
 70
0
 71
3
 72
9
 73
5
 74
0
 42
0.0000001
 43
0.0000001
 44
0.0000000001
 40
0.0
 40
0.0
 40
0.0
 40
0.0
 40
0.5191985576
 40
1.0
 40
1.0
 40
1.0
 40
1.0
 10
-51.4913482873
 20
10.3164237167
 30
0.0
 10
-51.4582433291
 20
10.3228795809
 30
0.0
 10
-51.395784726
 20
10.3434922436
 30
0.0
 10
-51.3403137587
 20
10.3785047224
 30
0.0
 10
-51.3159468328
 20
10.3980451266
 30
0.0
  0
SPLINE
  5
608
100
AcDbEntity
  8
IMPORT_IGES
100
AcDbSpline
 62
250
  6
CONTINUOUS
 70
0
 71
3
 72
9
 73
5
 74
0
 42
0.0000001
 43
0.0000001
 44
0.0000000001
 40
0.0
 40
0.0
 40
0.0
 40
0.0
 40
0.517964488
 40
1.0
 40
1.0
 40
1.0
 40
1.0
 10
-51.3159468328
 20
10.3980451266
 30
0.0
 10
-51.2882237529
 20
10.4202769086
 30
0.0
 10
-51.2402163127
 20
10.4707647715
 30
0.0
 10
-51.2074346875
 20
10.5317295538
 30
0.0
 10
-51.1944191405
 20
10.5621318567
 30
0.0
  0
SPLINE
  5
609
100
AcDbEntity
  8
IMPORT_IGES
100
AcDbSpline
 62
250
  6
CONTINUOUS
 70
0
 71
3
 72
10
 73
6
 74
0
 42
0.0000001
 43
0.0000001
 44
0.0000000001
 40
0.0
 40
0.0
 40
0.0
 40
0.0
 40
0.2563773645
 40
0.5076104123
 40
1.0
 40
1.0
 40
1.0
 40
1.0
 10
-38.5825788726
 20
9.4843765612
 30
0.0
 10
-38.5405768455
 20
9.4969684161
 30
0.0
 10
-38.4542002527
 20
9.5129648338
 30
0.0
 10
-38.2823716366
 20
9.5022610808
 30
0.0
 10
-38.1599076905
 20
9.4540289687
 30
0.0
 10
-38.0889524176
 20
9.4086697274
 30
0.0
  0
SPLINE
  5
60A
100
AcDbEntity
  8
IMPORT_IGES
100
AcDbSpline
 62
250
  6
CONTINUOUS
 70
0
 71
3
 72
9
 73
5
 74
0
 42
0.0000001
 43
0.0000001
 44
0.0000000001
 40
0.0
 40
0.0
 40
0.0
 40
0.0
 40
0.4999896853
 40
1.0
 40
1.0
 40
1.0
 40
1.0
 10
-54.8242194855
 20
7.4481289407
 30
0.0
 10
-54.8241077517
 20
7.4741414221
 30
0.0
 10
-54.8139940304
 20
7.5267356225
 30
0.0
 10
-54.783955621
 20
7.5710763593
 30
0.0
 10
-54.7656408417
 20
7.589550297
 30
0.0
  0
SPLINE
  5
60B
100
AcDbEntity
  8
IMPORT_IGES
100
AcDbSpline
 62
250
  6
CONTINUOUS
 70
0
 71
3
 72
10
 73
6
 74
0
 42
0.0000001
 43
0.0000001
 44
0.0000000001
 40
0.0
 40
0.0
 40
0.0
 40
0.0
 40
0.5183224905
 40
0.7676113605
 40
1.0
 40
1.0
 40
1.0
 40
1.0
 10
-53.221624267
 20
9.1335261866
 30
0.0
 10
-53.1817868927
 20
9.1733628275
 30
0.0
 10
-53.1143138457
 20
9.2252625138
 30
0.0
 10
-53.0139553204
 20
9.2681272248
 30
0.0
 10
-52.9615485438
 20
9.2774320466
 30
0.0
 10
-52.9362895212
 20
9.277435516
 30
0.0
  0
SPLINE
  5
60C
100
AcDbEntity
  8
IMPORT_IGES
100
AcDbSpline
 62
250
  6
CONTINUOUS
 70
0
 71
3
 72
9
 73
5
 74
0
 42
0.0000001
 43
0.0000001
 44
0.0000000001
 40
0.0
 40
0.0
 40
0.0
 40
0.0
 40
0.4852610378
 40
1.0
 40
1.0
 40
1.0
 40
1.0
 10
-38.5825788747
 20
9.2774753263
 30
0.0
 10
-38.5251601549
 20
9.277471411
 30
0.0
 10
-38.4075229382
 20
9.2479705482
 30
0.0
 10
-38.3017993758
 20
9.1939153546
 30
0.0
 10
-38.2504854438
 20
9.1611051816
 30
0.0
  0
SPLINE
  5
60D
100
AcDbEntity
  8
IMPORT_IGES
100
AcDbSpline
 62
7
  6
CONTINUOUS
 70
0
 71
3
 72
9
 73
5
 74
0
 42
0.0000001
 43
0.0000001
 44
0.0000000001
 40
0.0
 40
0.0
 40
0.0
 40
0.0
 40
0.0646766616
 40
1.0
 40
1.0
 40
1.0
 40
1.0
 10
-38.5242194854
 20
2.0149999997
 30
0.0
 10
-38.5249623694
 20
2.0155432708
 30
0.0
 10
-38.536491224
 20
2.0238823996
 30
0.0
 10
-38.5486377038
 20
2.0313413692
 30
0.0
 10
-38.5599938024
 20
2.0382805803
 30
0.0
  0
SPLINE
  5
60E
100
AcDbEntity
  8
IMPORT_IGES
100
AcDbSpline
 62
7
  6
CONTINUOUS
 70
0
 71
3
 72
9
 73
5
 74
0
 42
0.0000001
 43
0.0000001
 44
0.0000000001
 40
0.0
 40
0.0
 40
0.0
 40
0.0
 40
0.4344875594
 40
1.0
 40
1.0
 40
1.0
 40
1.0
 10
-38.5599938024
 20
2.0382805803
 30
0.0
 10
-38.5978701235
 20
2.06142513
 30
0.0
 10
-38.6859774784
 20
2.1131520169
 30
0.0
 10
-38.7741927555
 20
2.1646744688
 30
0.0
 10
-38.8242194855
 20
2.1935728303
 30
0.0
  0
SPLINE
  5
60F
100
AcDbEntity
  8
IMPORT_IGES
100
AcDbSpline
 62
250
  6
CONTINUOUS
 70
0
 71
3
 72
21
 73
17
 74
0
 42
0.0000001
 43
0.0000001
 44
0.0000000001
 40
0.0
 40
0.0
 40
0.0
 40
0.0
 40
0.0012920889
 40
0.0049636248
 40
0.0110284392
 40
0.0194688548
 40
0.0433899742
 40
0.0765477592
 40
0.1186965133
 40
0.1693445166
 40
0.2279391945
 40
0.2939277735
 40
0.4455954093
 40
0.618530784
 40
0.8061610791
 40
1.0
 40
1.0
 40
1.0
 40
1.0
 10
-36.9743909942
 20
2.9084305417
 30
0.0
 10
-36.9742773415
 20
2.9084960591
 30
0.0
 10
-36.9746752923
 20
2.9091471662
 30
0.0
 10
-36.974921117
 20
2.9100044258
 30
0.0
 10
-36.9758571217
 20
2.9117511579
 30
0.0
 10
-36.9775698788
 20
2.9151654669
 30
0.0
 10
-36.9807606039
 20
2.9210720175
 30
0.0
 10
-36.9855611994
 20
2.9298961221
 30
0.0
 10
-36.9917605126
 20
2.9410939528
 30
0.0
 10
-36.9992448354
 20
2.9545148655
 30
0.0
 10
-37.0079542903
 20
2.9700298961
 30
0.0
 10
-37.0217329899
 20
2.9944590422
 30
0.0
 10
-37.0413050051
 20
3.0289496524
 30
0.0
 10
-37.0670778657
 20
3.0741209371
 30
0.0
 10
-37.0950700537
 20
3.122955526
 30
0.0
 10
-37.1143883272
 20
3.1565239746
 30
0.0
 10
-37.1242194855
 20
3.1735728302
 30
0.0
  0
SPLINE
  5
610
100
AcDbEntity
  8
IMPORT_IGES
100
AcDbSpline
 62
250
  6
CONTINUOUS
 70
0
 71
3
 72
18
 73
14
 74
0
 42
0.0000001
 43
0.0000001
 44
0.0000000001
 40
0.0
 40
0.0
 40
0.0
 40
0.0
 40
0.1945713875
 40
0.3824581233
 40
0.5553200467
 40
0.706716021
 40
0.8309531656
 40
0.8814347047
 40
0.9234394494
 40
0.9564894871
 40
0.9803506673
 40
0.9948643671
 40
1.0
 40
1.0
 40
1.0
 40
1.0
 10
-37.1242194855
 20
3.1735728303
 30
0.0
 10
-37.1047508385
 20
3.1735728303
 30
0.0
 10
-37.0664821195
 20
3.1735071854
 30
0.0
 10
-37.0109189735
 20
3.1732205159
 30
0.0
 10
-36.9596726911
 20
3.1727547949
 30
0.0
 10
-36.9148114077
 20
3.172126749
 30
0.0
 10
-36.8821610189
 20
3.1714763412
 30
0.0
 10
-36.8605257606
 20
3.1708405259
 30
0.0
 10
-36.8478832348
 20
3.1704263656
 30
0.0
 10
-36.8382311925
 20
3.1698639175
 30
0.0
 10
-36.830559905
 20
3.1696221465
 30
0.0
 10
-36.82719137
 20
3.1687883988
 30
0.0
 10
-36.8242194855
 20
3.1688509749
 30
0.0
 10
-36.8242194855
 20
3.1683371079
 30
0.0
  0
SPLINE
  5
611
100
AcDbEntity
  8
IMPORT_IGES
100
AcDbSpline
 62
250
  6
CONTINUOUS
 70
0
 71
3
 72
18
 73
14
 74
0
 42
0.0000001
 43
0.0000001
 44
0.0000000001
 40
0.0
 40
0.0
 40
0.0
 40
0.0
 40
0.0051356959
 40
0.0196495237
 40
0.0435107881
 40
0.0765607592
 40
0.1185652795
 40
0.1690465066
 40
0.2932828083
 40
0.444677613
 40
0.6175395856
 40
0.8054278344
 40
1.0
 40
1.0
 40
1.0
 40
1.0
 10
-36.8242194855
 20
8.4357372121
 30
0.0
 10
-36.8242194855
 20
8.4362510855
 30
0.0
 10
-36.8271914044
 20
8.4361884949
 30
0.0
 10
-36.8305599567
 20
8.4370222547
 30
0.0
 10
-36.8382312611
 20
8.4372640211
 30
0.0
 10
-36.8478832831
 20
8.4378264717
 30
0.0
 10
-36.8605257479
 20
8.4382406308
 30
0.0
 10
-36.8821608686
 20
8.4388764427
 30
0.0
 10
-36.9148110245
 20
8.4395268446
 30
0.0
 10
-36.9596721112
 20
8.4401548951
 30
0.0
 10
-37.0109184327
 20
8.4406206152
 30
0.0
 10
-37.0664818127
 20
8.440907285
 30
0.0
 10
-37.1047507607
 20
8.4409729341
 30
0.0
 10
-37.1242194855
 20
8.4409729341
 30
0.0
  0
SPLINE
  5
612
100
AcDbEntity
  8
IMPORT_IGES
100
AcDbSpline
 62
250
  6
CONTINUOUS
 70
0
 71
3
 72
21
 73
17
 74
0
 42
0.0000001
 43
0.0000001
 44
0.0000000001
 40
0.0
 40
0.0
 40
0.0
 40
0.0
 40
0.1954268666
 40
0.3837033066
 40
0.5566183633
 40
0.7078486401
 40
0.7735367358
 40
0.8318110702
 40
0.8821425255
 40
0.9240022217
 40
0.956919817
 40
0.9806610767
 40
0.9890371314
 40
0.9950564471
 40
0.9987034826
 40
1.0
 40
1.0
 40
1.0
 40
1.0
 10
-37.1242194855
 20
8.4409729341
 30
0.0
 10
-37.1138423734
 20
8.4571974537
 30
0.0
 10
-37.093438631
 20
8.489034179
 30
0.0
 10
-37.0637550748
 20
8.535163583
 30
0.0
 10
-37.0363373848
 20
8.5775713196
 30
0.0
 10
-37.0153967847
 20
8.609780963
 30
0.0
 10
-37.0005503832
 20
8.632475937
 30
0.0
 10
-36.9911145621
 20
8.6468301853
 30
0.0
 10
-36.982933665
 20
8.6591931802
 30
0.0
 10
-36.976087962
 20
8.6694601273
 30
0.0
 10
-36.9706550621
 20
8.6774740712
 30
0.0
 10
-36.9670026796
 20
8.6828098217
 30
0.0
 10
-36.9648321614
 20
8.6857846685
 30
0.0
 10
-36.9637406457
 20
8.6873454422
 30
0.0
 10
-36.9631153922
 20
8.6879455712
 30
0.0
 10
-36.9627189305
 20
8.6885560961
 30
0.0
 10
-36.9626111046
 20
8.6884875458
 30
0.0
  0
SPLINE
  5
613
100
AcDbEntity
  8
IMPORT_IGES
100
AcDbSpline
 62
250
  6
CONTINUOUS
 70
0
 71
3
 72
19
 73
15
 74
0
 42
0.0000001
 43
0.0000001
 44
0.0000000001
 40
0.0
 40
0.0
 40
0.0
 40
0.0
 40
0.183086617
 40
0.3694048556
 40
0.5483250354
 40
0.7078731526
 40
0.7766949789
 40
0.8370129524
 40
0.8882442105
 40
0.9298061283
 40
0.9613071394
 40
0.9831206091
 40
0.9958156281
 40
1.0
 40
1.0
 40
1.0
 40
1.0
 10
-38.2504846429
 20
9.1611064253
 30
0.0
 10
-38.2407630284
 20
9.1763060817
 30
0.0
 10
-38.2211219793
 20
9.2069568244
 30
0.0
 10
-38.1918877834
 20
9.252402306
 30
0.0
 10
-38.1638140799
 20
9.295834235
 30
0.0
 10
-38.1419414231
 20
9.3294921024
 30
0.0
 10
-38.1263655927
 20
9.3532925686
 30
0.0
 10
-38.1165977719
 20
9.3681585592
 30
0.0
 10
-38.1082680535
 20
9.3806949518
 30
0.0
 10
-38.1014624303
 20
9.3910014075
 30
0.0
 10
-38.096219118
 20
9.3984394588
 30
0.0
 10
-38.0925076178
 20
9.4044412269
 30
0.0
 10
-38.0902765077
 20
9.4064166142
 30
0.0
 10
-38.0892236814
 20
9.4088430549
 30
0.0
 10
-38.0888762174
 20
9.4086209993
 30
0.0
  0
SPLINE
  5
614
100
AcDbEntity
  8
IMPORT_IGES
100
AcDbSpline
 62
250
  6
CONTINUOUS
 70
0
 71
3
 72
19
 73
15
 74
0
 42
0.0000001
 43
0.0000001
 44
0.0000000001
 40
0.0
 40
0.0
 40
0.0
 40
0.0
 40
0.1829062881
 40
0.3691387569
 40
0.5480552783
 40
0.7076473925
 40
0.776497476
 40
0.8368440159
 40
0.8881019362
 40
0.9296865687
 40
0.9612058866
 40
0.9830365109
 40
0.995754141
 40
1.0
 40
1.0
 40
1.0
 40
1.0
 10
-53.2216446803
 20
9.1335464584
 30
0.0
 10
-53.2344245238
 20
9.1463224227
 30
0.0
 10
-53.2602455772
 20
9.1720776255
 30
0.0
 10
-53.2986702068
 20
9.2102277594
 30
0.0
 10
-53.3355638735
 20
9.246648327
 30
0.0
 10
-53.3642987454
 20
9.27483168
 30
0.0
 10
-53.3847468782
 20
9.2947222861
 30
0.0
 10
-53.3975688358
 20
9.3071275101
 30
0.0
 10
-53.4084799996
 20
9.317564118
 30
0.0
 10
-53.4174271191
 20
9.3261270722
 30
0.0
 10
-53.4242055411
 20
9.3322574059
 30
0.0
 10
-53.429220185
 20
9.3372189865
 30
0.0
 10
-53.4318280481
 20
9.3387329532
 30
0.0
 10
-53.4334823849
 20
9.3407418825
 30
0.0
 10
-53.4337789456
 20
9.3404452085
 30
0.0
  0
SPLINE
  5
615
100
AcDbEntity
  8
IMPORT_IGES
100
AcDbSpline
 62
250
  6
CONTINUOUS
 70
0
 71
3
 72
11
 73
7
 74
0
 42
0.0000001
 43
0.0000001
 44
0.0000000001
 40
0.0
 40
0.0
 40
0.0
 40
0.0
 40
0.2573487241
 40
0.5088230862
 40
0.7554308586
 40
1.0
 40
1.0
 40
1.0
 40
1.0
 10
-52.9362797966
 20
9.4843779403
 30
0.0
 10
-52.981211453
 20
9.4956221905
 30
0.0
 10
-53.0737223434
 20
9.5051859115
 30
0.0
 10
-53.2092281142
 20
9.4821245826
 30
0.0
 10
-53.3323702414
 20
9.4268201864
 30
0.0
 10
-53.4026551479
 20
9.3715643376
 30
0.0
 10
-53.4337800026
 20
9.3404394829
 30
0.0
  0
SPLINE
  5
616
100
AcDbEntity
  8
IMPORT_IGES
100
AcDbSpline
 62
250
  6
CONTINUOUS
 70
0
 71
3
 72
11
 73
7
 74
0
 42
0.0000001
 43
0.0000001
 44
0.0000000001
 40
0.0
 40
0.0
 40
0.0
 40
0.0
 40
0.2284332448
 40
0.4700530404
 40
0.7291784083
 40
1.0
 40
1.0
 40
1.0
 40
1.0
 10
-60.1242194855
 20
5.0054701472
 30
0.0
 10
-60.1242194855
 20
4.9836586962
 30
0.0
 10
-60.1130036829
 20
4.9381962124
 30
0.0
 10
-60.0672100597
 20
4.8831724321
 30
0.0
 10
-60.0010936633
 20
4.8473703973
 30
0.0
 10
-59.9500782956
 20
4.8391742633
 30
0.0
 10
-59.9242194855
 20
4.8391742633
 30
0.0
  0
SPLINE
  5
617
100
AcDbEntity
  8
IMPORT_IGES
100
AcDbSpline
 62
250
  6
CONTINUOUS
 70
0
 71
3
 72
9
 73
5
 74
0
 42
0.0000001
 43
0.0000001
 44
0.0000000001
 40
0.0
 40
0.0
 40
0.0
 40
0.0
 40
0.2507823313
 40
1.0
 40
1.0
 40
1.0
 40
1.0
 10
-55.1379749264
 20
6.5752648331
 30
0.0
 10
-55.1408475355
 20
6.5382657822
 30
0.0
 10
-55.1539650253
 20
6.3908609471
 30
0.0
 10
-55.1732186297
 20
6.2440352509
 30
0.0
 10
-55.1902534941
 20
6.1344836475
 30
0.0
  0
SPLINE
  5
618
100
AcDbEntity
  8
IMPORT_IGES
100
AcDbSpline
 62
250
  6
CONTINUOUS
 70
0
 71
3
 72
11
 73
7
 74
0
 42
0.0000001
 43
0.0000001
 44
0.0000000001
 40
0.0
 40
0.0
 40
0.0
 40
0.0
 40
0.2656566437
 40
0.5329099743
 40
0.7797251781
 40
1.0
 40
1.0
 40
1.0
 40
1.0
 10
-51.1944204743
 20
10.5621296153
 30
0.0
 10
-51.2128609788
 20
10.5658230158
 30
0.0
 10
-51.2507626776
 20
10.5696015221
 30
0.0
 10
-51.3059859671
 20
10.5612361425
 30
0.0
 10
-51.3536355942
 20
10.5372605845
 30
0.0
 10
-51.3741779431
 20
10.5094183817
 30
0.0
 10
-51.3800455727
 20
10.4949704093
 30
0.0
  0
SPLINE
  5
619
100
AcDbEntity
  8
IMPORT_IGES
100
AcDbSpline
 62
250
  6
CONTINUOUS
 70
0
 71
3
 72
20
 73
16
 74
0
 42
0.0000001
 43
0.0000001
 44
0.0000000001
 40
0.0
 40
0.0
 40
0.0
 40
0.0
 40
0.1952776782
 40
0.3834803063
 40
0.5563745952
 40
0.7076197238
 40
0.7733241099
 40
0.8316183238
 40
0.8819714404
 40
0.9238529429
 40
0.9567920798
 40
0.9805557013
 40
0.9949770994
 40
0.9986460815
 40
1.0
 40
1.0
 40
1.0
 40
1.0
 10
-54.7656408417
 20
7.589550297
 30
0.0
 10
-54.7792854454
 20
7.6031907622
 30
0.0
 10
-54.8061126108
 20
7.6299452218
 30
0.0
 10
-54.8451285536
 20
7.6686678089
 30
0.0
 10
-54.8811572678
 20
7.7042248291
 30
0.0
 10
-54.90866136
 20
7.7311876816
 30
0.0
 10
-54.9281516027
 20
7.7501543625
 30
0.0
 10
-54.9405307856
 20
7.7621277701
 30
0.0
 10
-54.9512653285
 20
7.7724374316
 30
0.0
 10
-54.9602150767
 20
7.7809267323
 30
0.0
 10
-54.9673726825
 20
7.7876539301
 30
0.0
 10
-54.9724684749
 20
7.7922158113
 30
0.0
 10
-54.9757642475
 20
7.7952203995
 30
0.0
 10
-54.977119472
 20
7.7961015413
 30
0.0
 10
-54.9776782531
 20
7.7965412324
 30
0.0
 10
-54.9777728409
 20
7.7964466446
 30
0.0
  0
SPLINE
  5
61A
100
AcDbEntity
  8
IMPORT_IGES
100
AcDbSpline
 62
250
  6
CONTINUOUS
 70
0
 71
3
 72
18
 73
14
 74
0
 42
0.0000001
 43
0.0000001
 44
0.0000000001
 40
0.0
 40
0.0
 40
0.0
 40
0.0
 40
0.1945611084
 40
0.382403339
 40
0.555204437
 40
0.706564772
 40
0.8308407212
 40
0.8813555175
 40
0.9233796014
 40
0.9564441212
 40
0.9803254615
 40
0.9948570137
 40
1.0
 40
1.0
 40
1.0
 40
1.0
 10
-54.8242194855
 20
7.4481289397
 30
0.0
 10
-54.8436870949
 20
7.4481289397
 30
0.0
 10
-54.8819503144
 20
7.4480633355
 30
0.0
 10
-54.937501867
 20
7.4477767152
 30
0.0
 10
-54.988734021
 20
7.4473113537
 30
0.0
 10
-55.0335895185
 20
7.4466834587
 30
0.0
 10
-55.0662435467
 20
7.4460332175
 30
0.0
 10
-55.0878879211
 20
7.4453975418
 30
0.0
 10
-55.1005372081
 20
7.444983262
 30
0.0
 10
-55.1101944779
 20
7.4444201515
 30
0.0
 10
-55.1178715956
 20
7.4441788955
 30
0.0
 10
-55.1212431981
 20
7.4433436013
 30
0.0
 10
-55.1242194855
 20
7.443407821
 30
0.0
 10
-55.1242194855
 20
7.4428932184
 30
0.0
  0
SPLINE
  5
61B
100
AcDbEntity
  8
IMPORT_IGES
100
AcDbSpline
 62
250
  6
CONTINUOUS
 70
0
 71
3
 72
11
 73
7
 74
0
 42
0.0000001
 43
0.0000001
 44
0.0000000001
 40
0.0
 40
0.0
 40
0.0
 40
0.0
 40
0.2355198116
 40
0.4933167353
 40
0.7553391844
 40
1.0
 40
1.0
 40
1.0
 40
1.0
 10
-60.308146948
 20
2.8132384537
 30
0.0
 10
-60.2841335808
 20
2.8132364094
 30
0.0
 10
-60.2333151984
 20
2.8233318045
 30
0.0
 10
-60.1681149183
 20
2.8683292906
 30
0.0
 10
-60.1256130868
 20
2.9361301389
 30
0.0
 10
-60.1161776316
 20
2.988259905
 30
0.0
 10
-60.1161767345
 20
3.0132052801
 30
0.0
  0
SPLINE
  5
61C
100
AcDbEntity
  8
IMPORT_IGES
100
AcDbSpline
 62
7
  6
CONTINUOUS
 70
0
 71
3
 72
21
 73
17
 74
0
 42
0.0000001
 43
0.0000001
 44
0.0000000001
 40
0.0
 40
0.0
 40
0.0
 40
0.0
 40
0.0013234341
 40
0.0052597516
 40
0.0117708141
 40
0.0208175146
 40
0.0463609735
 40
0.0815745807
 40
0.125984289
 40
0.1788362754
 40
0.2393480433
 40
0.3067372239
 40
0.4590597172
 40
0.6296806647
 40
0.8122804047
 40
1.0
 40
1.0
 40
1.0
 40
1.0
 10
-36.5137114282
 20
-8.4894912452
 30
0.0
 10
-36.513579438
 20
-8.4894363033
 30
0.0
 10
-36.514186283
 20
-8.4887009883
 30
0.0
 10
-36.5142474994
 20
-8.4877071828
 30
0.0
 10
-36.5152362005
 20
-8.4856375269
 30
0.0
 10
-36.5167380475
 20
-8.4815743405
 30
0.0
 10
-36.5196431042
 20
-8.4745279055
 30
0.0
 10
-36.5238673269
 20
-8.4640225804
 30
0.0
 10
-36.5293033849
 20
-8.4507683412
 30
0.0
 10
-36.5357754161
 20
-8.4350063902
 30
0.0
 10
-36.5432176401
 20
-8.4169519796
 30
0.0
 10
-36.5547681655
 20
-8.3889707831
 30
0.0
 10
-36.570883828
 20
-8.3500043902
 30
0.0
 10
-36.5917928663
 20
-8.2995525464
 30
0.0
 10
-36.6142043342
 20
-8.2455838998
 30
0.0
 10
-36.629568023
 20
-8.2086466313
 30
0.0
 10
-36.6373611088
 20
-8.18992475
 30
0.0
  0
SPLINE
  5
61D
100
AcDbEntity
  8
IMPORT_IGES
100
AcDbSpline
 62
7
  6
CONTINUOUS
 70
0
 71
3
 72
21
 73
17
 74
0
 42
0.0000001
 43
0.0000001
 44
0.0000000001
 40
0.0
 40
0.0
 40
0.0
 40
0.0
 40
0.0012687718
 40
0.0050444127
 40
0.0112963683
 40
0.0199929316
 40
0.0445925502
 40
0.0785884584
 40
0.1216355878
 40
0.1731419081
 40
0.2324733682
 40
0.2989957008
 40
0.4508664767
 40
0.6228219245
 40
0.8084278817
 40
1.0
 40
1.0
 40
1.0
 40
1.0
 10
-35.048763946
 20
7.5843774337
 30
0.0
 10
-35.048637294
 20
7.5843436625
 30
0.0
 10
-35.0490912192
 20
7.5835996046
 30
0.0
 10
-35.0490255126
 20
7.5826879073
 30
0.0
 10
-35.0496637807
 20
7.5806808128
 30
0.0
 10
-35.0505262914
 20
7.5767888683
 30
0.0
 10
-35.0523004537
 20
7.5699900629
 30
0.0
 10
-35.0548615083
 20
7.5598428218
 30
0.0
 10
-35.0582113394
 20
7.5469777669
 30
0.0
 10
-35.0622272981
 20
7.5316003865
 30
0.0
 10
-35.0668841911
 20
7.5138773037
 30
0.0
 10
-35.0741897806
 20
7.4861318357
 30
0.0
 10
-35.0844792046
 20
7.4471392058
 30
0.0
 10
-35.0979461124
 20
7.3962619018
 30
0.0
 10
-35.1125096763
 20
7.3414319059
 30
0.0
 10
-35.1225377254
 20
7.3037780201
 30
0.0
 10
-35.1276367862
 20
7.2846547966
 30
0.0
  0
SPLINE
  5
61E
100
AcDbEntity
  8
IMPORT_IGES
100
AcDbSpline
 62
7
  6
CONTINUOUS
 70
0
 71
3
 72
8
 73
4
 74
0
 42
0.0000001
 43
0.0000001
 44
0.0000000001
 40
0.0
 40
0.0
 40
0.0
 40
0.0
 40
1.0
 40
1.0
 40
1.0
 40
1.0
 10
-43.0754039931
 20
-11.2131933197
 30
0.0
 10
-43.0846019849
 20
-11.222951283
 30
0.0
 10
-43.0956541306
 20
-11.2312289606
 30
0.0
 10
-43.1076117183
 20
-11.2372983097
 30
0.0
  0
SPLINE
  5
61F
100
AcDbEntity
  8
IMPORT_IGES
100
AcDbSpline
 62
7
  6
CONTINUOUS
 70
0
 71
3
 72
8
 73
4
 74
0
 42
0.0000001
 43
0.0000001
 44
0.0000000001
 40
0.0
 40
0.0
 40
0.0
 40
0.0
 40
1.0
 40
1.0
 40
1.0
 40
1.0
 10
-43.0753844151
 20
-11.2131727588
 30
0.0
 10
-43.0907501191
 20
-11.229481642
 30
0.0
 10
-43.1117829277
 20
-11.2416376077
 30
0.0
 10
-43.1335850883
 20
-11.2468096794
 30
0.0
  0
SPLINE
  5
620
100
AcDbEntity
  8
IMPORT_IGES
100
AcDbSpline
 62
250
  6
CONTINUOUS
 70
0
 71
3
 72
20
 73
16
 74
0
 42
0.0000001
 43
0.0000001
 44
0.0000000001
 40
0.0
 40
0.0
 40
0.0
 40
0.0
 40
0.0013534138
 40
0.0050207843
 40
0.0194359602
 40
0.0431897805
 40
0.0761160075
 40
0.1179726312
 40
0.168289802
 40
0.2265501458
 40
0.2922357582
 40
0.4434683296
 40
0.6164101808
 40
0.8046925357
 40
1.0
 40
1.0
 40
1.0
 40
1.0
 10
-36.9706658383
 20
-8.9464463528
 30
0.0
 10
-36.9707603916
 20
-8.9465409061
 30
0.0
 10
-36.9713189888
 20
-8.9461015385
 30
0.0
 10
-36.972673683
 20
-8.9452207017
 30
0.0
 10
-36.9759681657
 20
-8.9422175548
 30
0.0
 10
-36.9810619567
 20
-8.9376574576
 30
0.0
 10
-36.9882161634
 20
-8.9309334739
 30
0.0
 10
-36.9971607778
 20
-8.9224491588
 30
0.0
 10
-37.0078887588
 20
-8.9121460123
 30
0.0
 10
-37.0202618313
 20
-8.9001786692
 30
0.0
 10
-37.0397476174
 20
-8.8812163268
 30
0.0
 10
-37.067253222
 20
-8.8542522756
 30
0.0
 10
-37.1032903505
 20
-8.8186870526
 30
0.0
 10
-37.1423177296
 20
-8.7799533187
 30
0.0
 10
-37.1691529631
 20
-8.7531911869
 30
0.0
 10
-37.1827998285
 20
-8.739548598
 30
0.0
  0
SPLINE
  5
621
100
AcDbEntity
  8
IMPORT_IGES
100
AcDbSpline
 62
250
  6
CONTINUOUS
 70
0
 71
3
 72
18
 73
14
 74
0
 42
0.0000001
 43
0.0000001
 44
0.0000000001
 40
0.0
 40
0.0
 40
0.0
 40
0.0
 40
0.1945543039
 40
0.3823851559
 40
0.5551830857
 40
0.7065471359
 40
0.8308271893
 40
0.8813437222
 40
0.9233686097
 40
0.9564349204
 40
0.980319544
 40
0.9948546237
 40
1.0
 40
1.0
 40
1.0
 40
1.0
 10
-37.1242197683
 20
-8.5981289408
 30
0.0
 10
-37.1047528271
 20
-8.5981289651
 30
0.0
 10
-37.0664914024
 20
-8.5980634286
 30
0.0
 10
-37.0109419487
 20
-8.5977768522
 30
0.0
 10
-36.9597108492
 20
-8.5973115108
 30
0.0
 10
-36.9148548454
 20
-8.5966836423
 30
0.0
 10
-36.8821998669
 20
-8.5960334272
 30
0.0
 10
-36.8605547689
 20
-8.5953977571
 30
0.0
 10
-36.8479051357
 20
-8.5949835125
 30
0.0
 10
-36.8382470316
 20
-8.594420282
 30
0.0
 10
-36.8305695406
 20
-8.5941793428
 30
0.0
 10
-36.82719625
 20
-8.5933435028
 30
0.0
 10
-36.824220007
 20
-8.5934084498
 30
0.0
 10
-36.8242194856
 20
-8.592893608
 30
0.0
  0
SPLINE
  5
622
100
AcDbEntity
  8
IMPORT_IGES
100
AcDbSpline
 62
250
  6
CONTINUOUS
 70
0
 71
3
 72
14
 73
10
 74
0
 42
0.0000001
 43
0.0000001
 44
0.0000000001
 40
0.0
 40
0.0
 40
0.0
 40
0.0
 40
0.018777556
 40
0.0686128727
 40
0.1496177147
 40
0.2613875681
 40
0.4032292935
 40
0.5743856668
 40
1.0
 40
1.0
 40
1.0
 40
1.0
 10
-43.1607018137
 20
-11.2499999999
 30
0.0
 10
-43.1604294105
 20
-11.2499994695
 30
0.0
 10
-43.1600386279
 20
-11.2487363962
 30
0.0
 10
-43.1590187189
 20
-11.2471293958
 30
0.0
 10
-43.1576727127
 20
-11.2437031167
 30
0.0
 10
-43.1557923815
 20
-11.2393032293
 30
0.0
 10
-43.1534926028
 20
-11.2335574951
 30
0.0
 10
-43.1495298041
 20
-11.2236159343
 30
0.0
 10
-43.1463617682
 20
-11.2155529828
 30
0.0
 10
-43.144092293
 20
-11.2098108667
 30
0.0
  0
SPLINE
  5
623
100
AcDbEntity
  8
IMPORT_IGES
100
AcDbSpline
 62
250
  6
CONTINUOUS
 70
0
 71
3
 72
8
 73
4
 74
0
 42
0.0000001
 43
0.0000001
 44
0.0000000001
 40
0.0
 40
0.0
 40
0.0
 40
0.0
 40
1.0
 40
1.0
 40
1.0
 40
1.0
 10
-43.144092293
 20
-11.2098140555
 30
0.0
 10
-43.1352944872
 20
-11.21118574
 30
0.0
 10
-43.1262784627
 20
-11.211572042
 30
0.0
 10
-43.1174012906
 20
-11.2108801449
 30
0.0
  0
SPLINE
  5
624
100
AcDbEntity
  8
IMPORT_IGES
100
AcDbSpline
 62
250
  6
CONTINUOUS
 70
0
 71
3
 72
9
 73
5
 74
0
 42
0.0000001
 43
0.0000001
 44
0.0000000001
 40
0.0
 40
0.0
 40
0.0
 40
0.0
 40
0.2592860801
 40
1.0
 40
1.0
 40
1.0
 40
1.0
 10
-43.1174012906
 20
-11.2108801449
 30
0.0
 10
-43.1130548857
 20
-11.210541381
 30
0.0
 10
-43.0963922088
 20
-11.2082594396
 30
0.0
 10
-43.0802458379
 20
-11.2016511874
 30
0.0
 10
-43.0700329982
 20
-11.1945233847
 30
0.0
  0
SPLINE
  5
625
100
AcDbEntity
  8
IMPORT_IGES
100
AcDbSpline
 62
250
  6
CONTINUOUS
 70
0
 71
3
 72
8
 73
4
 74
0
 42
0.0000001
 43
0.0000001
 44
0.0000000001
 40
0.0
 40
0.0
 40
0.0
 40
0.0
 40
1.0
 40
1.0
 40
1.0
 40
1.0
 10
-43.0700329982
 20
-11.1945233847
 30
0.0
 10
-43.0634208121
 20
-11.1899085705
 30
0.0
 10
-43.0574090714
 20
-11.1842819941
 30
0.0
 10
-43.0524003939
 20
-11.1779629226
 30
0.0
  0
SPLINE
  5
626
100
AcDbEntity
  8
IMPORT_IGES
100
AcDbSpline
 62
7
  6
CONTINUOUS
 70
0
 71
3
 72
9
 73
5
 74
0
 42
0.0000001
 43
0.0000001
 44
0.0000000001
 40
0.0
 40
0.0
 40
0.0
 40
0.0
 40
0.5000097291
 40
1.0
 40
1.0
 40
1.0
 40
1.0
 10
-37.182800331
 20
-8.7395480957
 30
0.0
 10
-37.1647446603
 20
-8.7208668596
 30
0.0
 10
-37.1351049544
 20
-8.6764641379
 30
0.0
 10
-37.1246517086
 20
-8.6241050205
 30
0.0
 10
-37.1242197683
 20
-8.5981289408
 30
0.0
  0
SPLINE
  5
627
100
AcDbEntity
  8
IMPORT_IGES
100
AcDbSpline
 62
250
  6
CONTINUOUS
 70
0
 71
3
 72
9
 73
5
 74
0
 42
0.0000001
 43
0.0000001
 44
0.0000000001
 40
0.0
 40
0.0
 40
0.0
 40
0.0
 40
0.492443804
 40
1.0
 40
1.0
 40
1.0
 40
1.0
 10
-52.3019119645
 20
-10.4812646504
 30
0.0
 10
-52.2718490927
 20
-10.5039186603
 30
0.0
 10
-52.2000835018
 20
-10.5371768397
 30
0.0
 10
-52.1211669571
 20
-10.5375936929
 30
0.0
 10
-52.0830514572
 20
-10.5303484345
 30
0.0
  0
SPLINE
  5
628
100
AcDbEntity
  8
IMPORT_IGES
100
AcDbSpline
 62
250
  6
CONTINUOUS
 70
0
 71
3
 72
21
 73
17
 74
0
 42
0.0000001
 43
0.0000001
 44
0.0000000001
 40
0.0
 40
0.0
 40
0.0
 40
0.0
 40
0.0013477562
 40
0.0050139282
 40
0.0110456198
 40
0.0194311707
 40
0.043186457
 40
0.076112863
 40
0.1179691981
 40
0.1682865652
 40
0.2265467939
 40
0.2922312256
 40
0.4434594915
 40
0.6164011315
 40
0.8046885566
 40
1.0
 40
1.0
 40
1.0
 40
1.0
 10
-38.1277883907
 20
-10.1035689052
 30
0.0
 10
-38.1278825471
 20
-10.103663063
 30
0.0
 10
-38.128438731
 20
-10.1032154248
 30
0.0
 10
-38.1291954694
 20
-10.1027380743
 30
0.0
 10
-38.1306332587
 20
-10.1014960221
 30
0.0
 10
-38.1334360684
 20
-10.0990752355
 30
0.0
 10
-38.1382113035
 20
-10.0946952487
 30
0.0
 10
-38.1453083371
 20
-10.0880662947
 30
0.0
 10
-38.1542734191
 20
-10.0795441321
 30
0.0
 10
-38.1649939199
 20
-10.0692543945
 30
0.0
 10
-38.1773698532
 20
-10.057283462
 30
0.0
 10
-38.1968547995
 20
-10.0383242633
 30
0.0
 10
-38.2243602979
 20
-10.0113597939
 30
0.0
 10
-38.260396486
 20
-9.9757948582
 30
0.0
 10
-38.2994241034
 20
-9.9370606866
 30
0.0
 10
-38.3262596597
 20
-9.9102981759
 30
0.0
 10
-38.3399066101
 20
-9.8966553796
 30
0.0
  0
SPLINE
  5
629
100
AcDbEntity
  8
IMPORT_IGES
100
AcDbSpline
 62
250
  6
CONTINUOUS
 70
0
 71
3
 72
14
 73
10
 74
0
 42
0.0000001
 43
0.0000001
 44
0.0000000001
 40
0.0
 40
0.0
 40
0.0
 40
0.0
 40
0.1249701373
 40
0.2500230733
 40
0.3749848068
 40
0.500011945
 40
0.6250910973
 40
0.7501185045
 40
1.0
 40
1.0
 40
1.0
 40
1.0
 10
-51.5886902029
 20
-11.0520245567
 30
0.0
 10
-51.639449948
 20
-11.0545402553
 30
0.0
 10
-51.7413449577
 20
-11.0527108521
 30
0.0
 10
-51.8932000769
 20
-11.0375708295
 30
0.0
 10
-52.0434677773
 20
-11.0103262664
 30
0.0
 10
-52.1907396562
 20
-10.96994425
 30
0.0
 10
-52.3343703327
 20
-10.9180462798
 30
0.0
 10
-52.5194452858
 20
-10.8332806019
 30
0.0
 10
-52.6485856583
 20
-10.7505134274
 30
0.0
 10
-52.7301834331
 20
-10.6899455634
 30
0.0
  0
SPLINE
  5
62A
100
AcDbEntity
  8
IMPORT_IGES
100
AcDbSpline
 62
250
  6
CONTINUOUS
 70
0
 71
3
 72
11
 73
7
 74
0
 42
0.0000001
 43
0.0000001
 44
0.0000000001
 40
0.0
 40
0.0
 40
0.0
 40
0.0
 40
0.2499322331
 40
0.5000056657
 40
0.7500784195
 40
1.0
 40
1.0
 40
1.0
 40
1.0
 10
-56.6116017821
 20
-7.7650870464
 30
0.0
 10
-56.6592210877
 20
-7.728746423
 30
0.0
 10
-56.7471756739
 20
-7.6457339549
 30
0.0
 10
-56.8480106241
 20
-7.4950430742
 30
0.0
 10
-56.9116872983
 20
-7.3252824133
 30
0.0
 10
-56.927914943
 20
-7.2054386438
 30
0.0
 10
-56.9297099943
 20
-7.1455661868
 30
0.0
  0
SPLINE
  5
62B
100
AcDbEntity
  8
IMPORT_IGES
100
AcDbSpline
 62
250
  6
CONTINUOUS
 70
0
 71
3
 72
8
 73
4
 74
0
 42
0.0000001
 43
0.0000001
 44
0.0000000001
 40
0.0
 40
0.0
 40
0.0
 40
0.0
 40
1.0
 40
1.0
 40
1.0
 40
1.0
 10
-55.1670890677
 20
-8.4804296718
 30
0.0
 10
-55.1323553975
 20
-8.5251418178
 30
0.0
 10
-55.0910898469
 20
-8.565314208
 30
0.0
 10
-55.045954886
 20
-8.5994966472
 30
0.0
  0
SPLINE
  5
62C
100
AcDbEntity
  8
IMPORT_IGES
100
AcDbSpline
 62
250
  6
CONTINUOUS
 70
0
 71
3
 72
17
 73
13
 74
0
 42
0.0000001
 43
0.0000001
 44
0.0000000001
 40
0.0
 40
0.0
 40
0.0
 40
0.0
 40
0.0059499071
 40
0.0208381022
 40
0.0450847697
 40
0.0786201372
 40
0.1725299557
 40
0.2989837761
 40
0.4506866749
 40
0.6242327904
 40
0.8102855013
 40
1.0
 40
1.0
 40
1.0
 40
1.0
 10
-51.646869708
 20
-11.25
 30
0.0
 10
-51.6464422066
 20
-11.2500000015
 30
0.0
 10
-51.6459014973
 20
-11.2480195907
 30
0.0
 10
-51.6456634364
 20
-11.2452493366
 30
0.0
 10
-51.6456591214
 20
-11.2397708266
 30
0.0
 10
-51.6465555959
 20
-11.2290503171
 30
0.0
 10
-51.6489450062
 20
-11.2108566776
 30
0.0
 10
-51.6514905612
 20
-11.1842820411
 30
0.0
 10
-51.6491562447
 20
-11.1515146148
 30
0.0
 10
-51.6354741944
 20
-11.1169531694
 30
0.0
 10
-51.6148814953
 20
-11.0831812305
 30
0.0
 10
-51.5978010922
 20
-11.0621633891
 30
0.0
 10
-51.5886902029
 20
-11.0520245536
 30
0.0
  0
SPLINE
  5
62D
100
AcDbEntity
  8
IMPORT_IGES
100
AcDbSpline
 62
250
  6
CONTINUOUS
 70
0
 71
3
 72
14
 73
10
 74
0
 42
0.0000001
 43
0.0000001
 44
0.0000000001
 40
0.0
 40
0.0
 40
0.0
 40
0.0
 40
0.0170241003
 40
0.0657519929
 40
0.1460946376
 40
0.257606482
 40
0.3997997073
 40
0.5718929059
 40
1.0
 40
1.0
 40
1.0
 40
1.0
 10
-51.3887224858
 20
-11.050882232
 30
0.0
 10
-51.388722402
 20
-11.0511174692
 30
0.0
 10
-51.3901161426
 20
-11.0510277251
 30
0.0
 10
-51.3916644615
 20
-11.051406066
 30
0.0
 10
-51.3952457567
 20
-11.0514455793
 30
0.0
 10
-51.399745232
 20
-11.0516526616
 30
0.0
 10
-51.4056708741
 20
-11.0517737929
 30
0.0
 10
-51.4159067664
 20
-11.0519693004
 30
0.0
 10
-51.4242089983
 20
-11.0520674353
 30
0.0
 10
-51.4301241622
 20
-11.0521338133
 30
0.0
  0
SPLINE
  5
62E
100
AcDbEntity
  8
IMPORT_IGES
100
AcDbSpline
 62
250
  6
CONTINUOUS
 70
0
 71
3
 72
9
 73
5
 74
0
 42
0.0000001
 43
0.0000001
 44
0.0000000001
 40
0.0
 40
0.0
 40
0.0
 40
0.0
 40
0.2002961783
 40
1.0
 40
1.0
 40
1.0
 40
1.0
 10
-51.4301241622
 20
-11.0521338133
 30
0.0
 10
-51.4407124165
 20
-11.0522526312
 30
0.0
 10
-51.4935755901
 20
-11.052804467
 30
0.0
 10
-51.5464510581
 20
-11.0524025545
 30
0.0
 10
-51.588717915
 20
-11.0514586912
 30
0.0
  0
SPLINE
  5
62F
100
AcDbEntity
  8
IMPORT_IGES
100
AcDbSpline
 62
250
  6
CONTINUOUS
 70
0
 71
3
 72
11
 73
7
 74
0
 42
0.0000001
 43
0.0000001
 44
0.0000000001
 40
0.0
 40
0.0
 40
0.0
 40
0.0
 40
0.2498036939
 40
0.5000635503
 40
0.7496273245
 40
1.0
 40
1.0
 40
1.0
 40
1.0
 10
-54.488424966
 20
-8.8337023095
 30
0.0
 10
-54.5180489676
 20
-8.8369924268
 30
0.0
 10
-54.5776719151
 20
-8.8410384394
 30
0.0
 10
-54.6674500362
 20
-8.835112724
 30
0.0
 10
-54.7538826775
 20
-8.8086800032
 30
0.0
 10
-54.8059508622
 20
-8.7786946609
 30
0.0
 10
-54.830577152
 20
-8.7617830117
 30
0.0
  0
SPLINE
  5
630
100
AcDbEntity
  8
IMPORT_IGES
100
AcDbSpline
 62
250
  6
CONTINUOUS
 70
0
 71
3
 72
14
 73
10
 74
0
 42
0.0000001
 43
0.0000001
 44
0.0000000001
 40
0.0
 40
0.0
 40
0.0
 40
0.0
 40
0.016594006
 40
0.0662987439
 40
0.1484863415
 40
0.2624141344
 40
0.4066237815
 40
0.5790506154
 40
1.0
 40
1.0
 40
1.0
 40
1.0
 10
-54.7402928369
 20
-8.643813051
 30
0.0
 10
-54.7405041254
 20
-8.6435851796
 30
0.0
 10
-54.7414199954
 20
-8.6455362877
 30
0.0
 10
-54.7430834452
 20
-8.6467131028
 30
0.0
 10
-54.7459963894
 20
-8.650873292
 30
0.0
 10
-54.7498954719
 20
-8.6556557966
 30
0.0
 10
-54.7548388165
 20
-8.6621241001
 30
0.0
 10
-54.7632567105
 20
-8.6730296725
 30
0.0
 10
-54.7700063125
 20
-8.6818772179
 30
0.0
 10
-54.7747868306
 20
-8.6881453548
 30
0.0
  0
LINE
  5
631
100
AcDbEntity
  8
IMPORT_IGES
100
AcDbLine
 62
250
  6
CONTINUOUS
 10
-54.7747868306
 20
-8.6881453548
 30
0.0
 11
-54.7845767817
 21
-8.701001144
 31
0.0
  0
SPLINE
  5
632
100
AcDbEntity
  8
IMPORT_IGES
100
AcDbSpline
 62
7
  6
CONTINUOUS
 70
0
 71
3
 72
9
 73
5
 74
0
 42
0.0000001
 43
0.0000001
 44
0.0000000001
 40
0.0
 40
0.0
 40
0.0
 40
0.0
 40
0.5000096742
 40
1.0
 40
1.0
 40
1.0
 40
1.0
 10
-38.4813262645
 20
-9.9552344442
 30
0.0
 10
-38.4553494726
 20
-9.954785923
 30
0.0
 10
-38.4029957968
 20
-9.9443513204
 30
0.0
 10
-38.3585755232
 20
-9.9147223029
 30
0.0
 10
-38.3399061076
 20
-9.8966558819
 30
0.0
  0
SPLINE
  5
633
100
AcDbEntity
  8
IMPORT_IGES
100
AcDbSpline
 62
7
  6
CONTINUOUS
 70
0
 71
3
 72
11
 73
7
 74
0
 42
0.0000001
 43
0.0000001
 44
0.0000000001
 40
0.0
 40
0.0
 40
0.0
 40
0.0
 40
0.3826010081
 40
0.6814010799
 40
0.8887211361
 40
1.0
 40
1.0
 40
1.0
 40
1.0
 10
-42.5233933424
 20
-10.2098393815
 30
0.0
 10
-42.5223595613
 20
-10.2148678137
 30
0.0
 10
-42.5203039907
 20
-10.2237335537
 30
0.0
 10
-42.5170544586
 20
-10.2353714422
 30
0.0
 10
-42.5154355342
 20
-10.2431660446
 30
0.0
 10
-42.5141106683
 20
-10.2477263653
 30
0.0
 10
-42.514741773
 20
-10.2490795283
 30
0.0
  0
SPLINE
  5
634
100
AcDbEntity
  8
IMPORT_IGES
100
AcDbSpline
 62
7
  6
CONTINUOUS
 70
0
 71
3
 72
18
 73
14
 74
0
 42
0.0000001
 43
0.0000001
 44
0.0000000001
 40
0.0
 40
0.0
 40
0.0
 40
0.0
 40
0.0056221015
 40
0.0202470529
 40
0.0441348572
 40
0.0771731457
 40
0.1191463993
 40
0.1695867327
 40
0.2937202303
 40
0.4449959484
 40
0.6177433403
 40
0.8055295601
 40
1.0
 40
1.0
 40
1.0
 40
1.0
 10
-57.2742193324
 20
6.0924587123
 30
0.0
 10
-57.2742376454
 20
6.093021646
 30
0.0
 10
-57.2714836678
 20
6.0936788669
 30
0.0
 10
-57.2678534432
 20
6.0944512195
 30
0.0
 10
-57.2603289164
 20
6.0952636648
 30
0.0
 10
-57.250627961
 20
6.0960810565
 30
0.0
 10
-57.2380186791
 20
6.0968799201
 30
0.0
 10
-57.2163829077
 20
6.0979846005
 30
0.0
 10
-57.1837400661
 20
6.0991795791
 30
0.0
 10
-57.1388647935
 20
6.1003191015
 30
0.0
 10
-57.0875950977
 20
6.1011873935
 30
0.0
 10
-57.0319970569
 20
6.1017384502
 30
0.0
 10
-56.9937018432
 20
6.1018952493
 30
0.0
 10
-56.9742194882
 20
6.1019208396
 30
0.0
  0
SPLINE
  5
635
100
AcDbEntity
  8
IMPORT_IGES
100
AcDbSpline
 62
250
  6
CONTINUOUS
 70
0
 71
3
 72
9
 73
5
 74
0
 42
0.0000001
 43
0.0000001
 44
0.0000000001
 40
0.0
 40
0.0
 40
0.0
 40
0.0
 40
0.2617029579
 40
1.0
 40
1.0
 40
1.0
 40
1.0
 10
-51.4720843969
 20
-10.5421756454
 30
0.0
 10
-51.4625010054
 20
-10.5439507732
 30
0.0
 10
-51.4260572283
 20
-10.5516338046
 30
0.0
 10
-51.3903256311
 20
-10.5628084158
 30
0.0
 10
-51.3648435568
 20
-10.5731372803
 30
0.0
  0
SPLINE
  5
636
100
AcDbEntity
  8
IMPORT_IGES
100
AcDbSpline
 62
250
  6
CONTINUOUS
 70
0
 71
3
 72
11
 73
7
 74
0
 42
0.0000001
 43
0.0000001
 44
0.0000000001
 40
0.0
 40
0.0
 40
0.0
 40
0.0
 40
0.3103176296
 40
0.5724069938
 40
0.7960597084
 40
1.0
 40
1.0
 40
1.0
 40
1.0
 10
-51.3648435568
 20
-10.5731372803
 30
0.0
 10
-51.3391715445
 20
-10.583543134
 30
0.0
 10
-51.2931558641
 20
-10.6066332815
 30
0.0
 10
-51.2380631188
 20
-10.6528803338
 30
0.0
 10
-51.2044336285
 20
-10.7057248969
 30
0.0
 10
-51.1949381138
 20
-10.74325846
 30
0.0
 10
-51.1924229778
 20
-10.7612888026
 30
0.0
  0
SPLINE
  5
637
100
AcDbEntity
  8
IMPORT_IGES
100
AcDbSpline
 62
250
  6
CONTINUOUS
 70
0
 71
3
 72
9
 73
5
 74
0
 42
0.0000001
 43
0.0000001
 44
0.0000000001
 40
0.0
 40
0.0
 40
0.0
 40
0.0
 40
0.6154029738
 40
1.0
 40
1.0
 40
1.0
 40
1.0
 10
-57.563673585
 20
-0.3331757882
 30
0.0
 10
-57.5661510527
 20
-0.3361320593
 30
0.0
 10
-57.5699615158
 20
-0.3409134035
 30
0.0
 10
-57.5730694069
 20
-0.3468747328
 30
0.0
 10
-57.572980366
 20
-0.3492836016
 30
0.0
  0
SPLINE
  5
638
100
AcDbEntity
  8
IMPORT_IGES
100
AcDbSpline
 62
250
  6
CONTINUOUS
 70
0
 71
3
 72
9
 73
5
 74
0
 42
0.0000001
 43
0.0000001
 44
0.0000000001
 40
0.0
 40
0.0
 40
0.0
 40
0.0
 40
0.2378259769
 40
1.0
 40
1.0
 40
1.0
 40
1.0
 10
-51.3933112035
 20
-10.5911942331
 30
0.0
 10
-51.3932290049
 20
-10.5964805054
 30
0.0
 10
-51.3916921016
 20
-10.6186738999
 30
0.0
 10
-51.3851987133
 20
-10.6405205042
 30
0.0
 10
-51.3777810522
 20
-10.6557537651
 30
0.0
  0
SPLINE
  5
639
100
AcDbEntity
  8
IMPORT_IGES
100
AcDbSpline
 62
250
  6
CONTINUOUS
 70
0
 71
3
 72
10
 73
6
 74
0
 42
0.0000001
 43
0.0000001
 44
0.0000000001
 40
0.0
 40
0.0
 40
0.0
 40
0.0
 40
0.2428228559
 40
0.4997528776
 40
1.0
 40
1.0
 40
1.0
 40
1.0
 10
-51.3777810522
 20
-10.6557537651
 30
0.0
 10
-51.3698755271
 20
-10.6719889269
 30
0.0
 10
-51.3477979235
 20
-10.7028508337
 30
0.0
 10
-51.2875151336
 20
-10.7478045963
 30
0.0
 10
-51.2296229791
 20
-10.7615757853
 30
0.0
 10
-51.192423033
 20
-10.7612841475
 30
0.0
  0
SPLINE
  5
63A
100
AcDbEntity
  8
IMPORT_IGES
100
AcDbSpline
 62
250
  6
CONTINUOUS
 70
0
 71
3
 72
9
 73
5
 74
0
 42
0.0000001
 43
0.0000001
 44
0.0000000001
 40
0.0
 40
0.0
 40
0.0
 40
0.0
 40
0.2440536613
 40
1.0
 40
1.0
 40
1.0
 40
1.0
 10
-51.2141052938
 20
-11.2084331482
 30
0.0
 10
-51.2202539676
 20
-11.2077595364
 30
0.0
 10
-51.2453258566
 20
-11.2040106512
 30
0.0
 10
-51.2697863103
 20
-11.1959598424
 30
0.0
 10
-51.2870004443
 20
-11.1875485846
 30
0.0
  0
SPLINE
  5
63B
100
AcDbEntity
  8
IMPORT_IGES
100
AcDbSpline
 62
250
  6
CONTINUOUS
 70
0
 71
3
 72
9
 73
5
 74
0
 42
0.0000001
 43
0.0000001
 44
0.0000000001
 40
0.0
 40
0.0
 40
0.0
 40
0.0
 40
0.2537282825
 40
1.0
 40
1.0
 40
1.0
 40
1.0
 10
-51.2870004443
 20
-11.1875485846
 30
0.0
 10
-51.2925148803
 20
-11.1848540928
 30
0.0
 10
-51.3137845005
 20
-11.1733281252
 30
0.0
 10
-51.3330393382
 20
-11.1579477499
 30
0.0
 10
-51.3452355121
 20
-11.1446390012
 30
0.0
  0
SPLINE
  5
63C
100
AcDbEntity
  8
IMPORT_IGES
100
AcDbSpline
 62
250
  6
CONTINUOUS
 70
0
 71
3
 72
9
 73
5
 74
0
 42
0.0000001
 43
0.0000001
 44
0.0000000001
 40
0.0
 40
0.0
 40
0.0
 40
0.0
 40
0.527235252
 40
1.0
 40
1.0
 40
1.0
 40
1.0
 10
-51.3452355121
 20
-11.1446390012
 30
0.0
 10
-51.359203537
 20
-11.1293967674
 30
0.0
 10
-51.3810785318
 20
-11.0955964153
 30
0.0
 10
-51.3886954932
 20
-11.0560867477
 30
0.0
 10
-51.3887831432
 20
-11.0375484859
 30
0.0
  0
SPLINE
  5
63D
100
AcDbEntity
  8
IMPORT_IGES
100
AcDbSpline
 62
250
  6
CONTINUOUS
 70
0
 71
3
 72
9
 73
5
 74
0
 42
0.0000001
 43
0.0000001
 44
0.0000000001
 40
0.0
 40
0.0
 40
0.0
 40
0.0
 40
0.5278496457
 40
1.0
 40
1.0
 40
1.0
 40
1.0
 10
-52.5084319253
 20
-10.2098076211
 30
0.0
 10
-52.5397005785
 20
-10.2201813472
 30
0.0
 10
-52.6035552381
 20
-10.2300505356
 30
0.0
 10
-52.6654652667
 20
-10.2073011141
 30
0.0
 10
-52.6890027245
 20
-10.1895708374
 30
0.0
  0
SPLINE
  5
63E
100
AcDbEntity
  8
IMPORT_IGES
100
AcDbSpline
 62
250
  6
CONTINUOUS
 70
0
 71
3
 72
21
 73
17
 74
0
 42
0.0000001
 43
0.0000001
 44
0.0000000001
 40
0.0
 40
0.0
 40
0.0
 40
0.0
 40
0.0013148618
 40
0.0049660162
 40
0.0109859221
 40
0.0193611724
 40
0.0431005487
 40
0.0760205719
 40
0.1178824165
 40
0.1682119467
 40
0.2264847017
 40
0.2921759214
 40
0.4434178429
 40
0.6163436123
 40
0.804614886
 40
1.0
 40
1.0
 40
1.0
 40
1.0
 10
-52.6889764323
 20
-10.189590653
 30
0.0
 10
-52.68887286
 20
-10.1896687003
 30
0.0
 10
-52.6884107988
 20
-10.1891150859
 30
0.0
 10
-52.6877379038
 20
-10.1885536611
 30
0.0
 10
-52.6865125154
 20
-10.1871001404
 30
0.0
 10
-52.6841032763
 20
-10.1843071506
 30
0.0
 10
-52.6800260401
 20
-10.1792846935
 30
0.0
 10
-52.6739667321
 20
-10.171721166
 30
0.0
 10
-52.6663237323
 20
-10.1620203168
 30
0.0
 10
-52.6571887962
 20
-10.1503289438
 30
0.0
 10
-52.6466495027
 20
-10.1367463093
 30
0.0
 10
-52.6300632557
 20
-10.1152599602
 30
0.0
 10
-52.6066627287
 20
-10.0847473103
 30
0.0
 10
-52.5760189274
 20
-10.0445540653
 30
0.0
 10
-52.5428401256
 20
-10.0008185923
 30
0.0
 10
-52.5200317285
 20
-9.9706244921
 30
0.0
 10
-52.5084318474
 20
-9.9552356185
 30
0.0
  0
SPLINE
  5
63F
100
AcDbEntity
  8
IMPORT_IGES
100
AcDbSpline
 62
250
  6
CONTINUOUS
 70
0
 71
3
 72
10
 73
6
 74
0
 42
0.0000001
 43
0.0000001
 44
0.0000000001
 40
0.0
 40
0.0
 40
0.0
 40
0.0
 40
0.4213050073
 40
0.6984423565
 40
1.0
 40
1.0
 40
1.0
 40
1.0
 10
-57.063349557
 20
-6.3738184713
 30
0.0
 10
-57.0526015001
 20
-6.3845725598
 30
0.0
 10
-57.0483305904
 20
-6.4138040685
 30
0.0
 10
-57.0584420132
 20
-6.4479716205
 30
0.0
 10
-57.0675656992
 20
-6.4670123812
 30
0.0
 10
-57.0730335679
 20
-6.4764218278
 30
0.0
  0
SPLINE
  5
640
100
AcDbEntity
  8
IMPORT_IGES
100
AcDbSpline
 62
250
  6
CONTINUOUS
 70
0
 71
3
 72
18
 73
14
 74
0
 42
0.0000001
 43
0.0000001
 44
0.0000000001
 40
0.0
 40
0.0
 40
0.0
 40
0.0
 40
0.1946291987
 40
0.3825740123
 40
0.5554806704
 40
0.7069030751
 40
0.8311450112
 40
0.8816201396
 40
0.9236124564
 40
0.9566452738
 40
0.9804833459
 40
0.9949605374
 40
1.0
 40
1.0
 40
1.0
 40
1.0
 10
-56.9299060641
 20
-7.1455708167
 30
0.0
 10
-56.9428846011
 20
-7.1454920148
 30
0.0
 10
-56.9683964886
 20
-7.1453942381
 30
0.0
 10
-57.0054379044
 20
-7.1454149192
 30
0.0
 10
-57.0396006801
 20
-7.1456128824
 30
0.0
 10
-57.069504895
 20
-7.1458778462
 30
0.0
 10
-57.0912703598
 20
-7.1461058437
 30
0.0
 10
-57.105692561
 20
-7.1461800273
 30
0.0
 10
-57.1141239052
 20
-7.1462199445
 30
0.0
 10
-57.1205528409
 20
-7.1460698596
 30
0.0
 10
-57.1256847596
 20
-7.1461454671
 30
0.0
 10
-57.1279023357
 20
-7.1456283606
 30
0.0
 10
-57.1299072209
 20
-7.1458379345
 30
0.0
 10
-57.1299137491
 20
-7.1455019433
 30
0.0
  0
LINE
  5
641
100
AcDbEntity
  8
IMPORT_IGES
100
AcDbLine
 62
250
  6
CONTINUOUS
 10
-57.0730256265
 20
-6.4764325242
 30
0.0
 11
-56.9394157572
 21
-6.7081110785
 31
0.0
  0
SPLINE
  5
642
100
AcDbEntity
  8
IMPORT_IGES
100
AcDbSpline
 62
250
  6
CONTINUOUS
 70
0
 71
3
 72
9
 73
5
 74
0
 42
0.0000001
 43
0.0000001
 44
0.0000000001
 40
0.0
 40
0.0
 40
0.0
 40
0.0
 40
0.2488276355
 40
1.0
 40
1.0
 40
1.0
 40
1.0
 10
-57.1401692918
 20
-6.2822580694
 30
0.0
 10
-57.1381833155
 20
-6.29377715
 30
0.0
 10
-57.1291595205
 20
-6.3398741529
 30
0.0
 10
-57.1153222077
 20
-6.3851141308
 30
0.0
 10
-57.1017432514
 20
-6.4176842166
 30
0.0
  0
SPLINE
  5
643
100
AcDbEntity
  8
IMPORT_IGES
100
AcDbSpline
 62
250
  6
CONTINUOUS
 70
0
 71
3
 72
18
 73
14
 74
0
 42
0.0000001
 43
0.0000001
 44
0.0000000001
 40
0.0
 40
0.0
 40
0.0
 40
0.0
 40
0.0041678017
 40
0.0168637839
 40
0.0386928077
 40
0.0702282187
 40
0.1118469878
 40
0.1631534803
 40
0.2924731009
 40
0.4521883984
 40
0.6311618305
 40
0.8173219286
 40
1.0
 40
1.0
 40
1.0
 40
1.0
 10
-56.8333533889
 20
-6.6038255611
 30
0.0
 10
-56.8334992357
 20
-6.6036791352
 30
0.0
 10
-56.8342628713
 20
-6.6047814745
 30
0.0
 10
-56.8355744667
 20
-6.6055012341
 30
0.0
 10
-56.8380353039
 20
-6.6080712375
 30
0.0
 10
-56.8414136098
 20
-6.61116747
 30
0.0
 10
-56.8458683845
 20
-6.61551312
 30
0.0
 10
-56.8537657917
 20
-6.6231637886
 30
0.0
 10
-56.8658222972
 20
-6.6349960603
 30
0.0
 10
-56.8823400234
 20
-6.6512879487
 30
0.0
 10
-56.9008241025
 20
-6.6696123989
 30
0.0
 10
-56.9200788048
 20
-6.6887728215
 30
0.0
 10
-56.9330224126
 20
-6.7016947438
 30
0.0
 10
-56.9394281423
 20
-6.7080995878
 30
0.0
  0
SPLINE
  5
644
100
AcDbEntity
  8
IMPORT_IGES
100
AcDbSpline
 62
7
  6
CONTINUOUS
 70
0
 71
3
 72
18
 73
14
 74
0
 42
0.0000001
 43
0.0000001
 44
0.0000000001
 40
0.0
 40
0.0
 40
0.0
 40
0.0
 40
0.0049345845
 40
0.019414437
 40
0.0432772872
 40
0.0763379045
 40
0.1183512534
 40
0.1688361019
 40
0.2930516129
 40
0.4443870692
 40
0.6172131879
 40
0.8051642334
 40
1.0
 40
1.0
 40
1.0
 40
1.0
 10
-55.0540936782
 20
-8.3830942709
 30
0.0
 10
-55.0542597324
 20
-8.3829136484
 30
0.0
 10
-55.0551914622
 20
-8.384153912
 30
0.0
 10
-55.0567462247
 20
-8.3848362218
 30
0.0
 10
-55.0595866279
 20
-8.3874292929
 30
0.0
 10
-55.0633469335
 20
-8.3904021836
 30
0.0
 10
-55.0681482711
 20
-8.3944681394
 30
0.0
 10
-55.0763728945
 20
-8.4013948837
 30
0.0
 10
-55.0886982123
 20
-8.4119468404
 30
0.0
 10
-55.1055669356
 20
-8.4265141712
 30
0.0
 10
-55.1247740366
 20
-8.443233807
 30
0.0
 10
-55.1455570207
 20
-8.4614332748
 30
0.0
 10
-55.1598367367
 20
-8.4740165341
 30
0.0
 10
-55.1670935556
 20
-8.480434159
 30
0.0
  0
SPLINE
  5
645
100
AcDbEntity
  8
IMPORT_IGES
100
AcDbSpline
 62
250
  6
CONTINUOUS
 70
0
 71
3
 72
18
 73
14
 74
0
 42
0.0000001
 43
0.0000001
 44
0.0000000001
 40
0.0
 40
0.0
 40
0.0
 40
0.0
 40
0.0048731375
 40
0.0192688479
 40
0.0430358838
 40
0.0759997277
 40
0.1179334718
 40
0.1683623646
 40
0.2924991146
 40
0.443805963
 40
0.6166924006
 40
0.8048298908
 40
1.0
 40
1.0
 40
1.0
 40
1.0
 10
-56.7319640113
 20
-7.922413084
 30
0.0
 10
-56.7317114794
 20
-7.9226126166
 30
0.0
 10
-56.7308443392
 20
-7.9207083263
 30
0.0
 10
-56.7290638423
 20
-7.9194188007
 30
0.0
 10
-56.7261230507
 20
-7.9152337161
 30
0.0
 10
-56.722105887
 20
-7.9103305626
 30
0.0
 10
-56.7170239202
 20
-7.9037102948
 30
0.0
 10
-56.7082844069
 20
-7.8924332998
 30
0.0
 10
-56.6951862104
 20
-7.8753304206
 30
0.0
 10
-56.6772294046
 20
-7.8517969414
 30
0.0
 10
-56.6567623126
 20
-7.8248484241
 30
0.0
 10
-56.6345910056
 20
-7.7955609846
 30
0.0
 10
-56.6193400255
 20
-7.775354587
 30
0.0
 10
-56.6115819027
 20
-7.7650606693
 30
0.0
  0
SPLINE
  5
646
100
AcDbEntity
  8
IMPORT_IGES
100
AcDbSpline
 62
250
  6
CONTINUOUS
 70
0
 71
3
 72
11
 73
7
 74
0
 42
0.0000001
 43
0.0000001
 44
0.0000000001
 40
0.0
 40
0.0
 40
0.0
 40
0.0
 40
0.3604090548
 40
0.672627095
 40
0.8953967261
 40
1.0
 40
1.0
 40
1.0
 40
1.0
 10
-52.7301635537
 20
-10.6899191862
 30
0.0
 10
-52.7444055065
 20
-10.7088162394
 30
0.0
 10
-52.7710524016
 20
-10.7440303818
 30
0.0
 10
-52.8065399132
 20
-10.7909075728
 30
0.0
 10
-52.8322716098
 20
-10.8240765256
 30
0.0
 10
-52.8452376438
 20
-10.8412425992
 30
0.0
 10
-52.8497270226
 20
-10.8464399112
 30
0.0
  0
LINE
  5
647
100
AcDbEntity
  8
IMPORT_IGES
100
AcDbLine
 62
250
  6
CONTINUOUS
 10
-52.8497270226
 20
-10.8464399112
 30
0.0
 11
-52.8505466034
 21
-10.8472708919
 31
0.0
  0
SPLINE
  5
648
100
AcDbEntity
  8
IMPORT_IGES
100
AcDbSpline
 62
250
  6
CONTINUOUS
 70
0
 71
3
 72
18
 73
14
 74
0
 42
0.0000001
 43
0.0000001
 44
0.0000000001
 40
0.0
 40
0.0
 40
0.0
 40
0.0
 40
0.0042906493
 40
0.0171088328
 40
0.0390425639
 40
0.070658267
 40
0.112328193
 40
0.163656973
 40
0.2929409998
 40
0.4525336558
 40
0.6313529547
 40
0.817385482
 40
1.0
 40
1.0
 40
1.0
 40
1.0
 10
-54.9556839655
 20
-8.4815011685
 30
0.0
 10
-54.9558781237
 20
-8.4814148272
 30
0.0
 10
-54.9563961196
 20
-8.4825637055
 30
0.0
 10
-54.9576727501
 20
-8.4835514418
 30
0.0
 10
-54.9596982862
 20
-8.4864142876
 30
0.0
 10
-54.962624659
 20
-8.489986267
 30
0.0
 10
-54.9664091769
 20
-8.4949114419
 30
0.0
 10
-54.9731430452
 20
-8.5035957496
 30
0.0
 10
-54.9833956328
 20
-8.516981238
 30
0.0
 10
-54.9974408028
 20
-8.5353927752
 30
0.0
 10
-55.0131488822
 20
-8.5560790139
 30
0.0
 10
-55.0295109089
 20
-8.5776975408
 30
0.0
 10
-55.0405087886
 20
-8.5922703057
 30
0.0
 10
-55.0459519968
 20
-8.59949264
 30
0.0
  0
SPLINE
  5
649
100
AcDbEntity
  8
IMPORT_IGES
100
AcDbSpline
 62
250
  6
CONTINUOUS
 70
0
 71
3
 72
21
 73
17
 74
0
 42
0.0000001
 43
0.0000001
 44
0.0000000001
 40
0.0
 40
0.0
 40
0.0
 40
0.0
 40
0.1938475841
 40
0.3814814592
 40
0.5544096002
 40
0.7060650261
 40
0.7720498443
 40
0.8306430305
 40
0.8812903324
 40
0.9234377092
 40
0.9565955007
 40
0.9805196609
 40
0.9889621772
 40
0.995029257
 40
0.9987032945
 40
1.0
 40
1.0
 40
1.0
 40
1.0
 10
-37.1242194855
 20
-4.1000928356
 30
0.0
 10
-37.1140927607
 20
-4.0832201017
 30
0.0
 10
-37.094193642
 20
-4.049997645
 30
0.0
 10
-37.0653595843
 20
-4.0016640761
 30
0.0
 10
-37.0388117108
 20
-3.9569543454
 30
0.0
 10
-37.0186509096
 20
-3.9228138351
 30
0.0
 10
-37.0044570689
 20
-3.8986302039
 30
0.0
 10
-36.9954846661
 20
-3.8832693805
 30
0.0
 10
-36.9877737536
 20
-3.869980258
 30
0.0
 10
-36.9813868482
 20
-3.8588908154
 30
0.0
 10
-36.9764389578
 20
-3.850149576
 30
0.0
 10
-36.973152563
 20
-3.8442968588
 30
0.0
 10
-36.9713834633
 20
-3.8409103103
 30
0.0
 10
-36.9704229666
 20
-3.8391779396
 30
0.0
 10
-36.9701597634
 20
-3.8383234699
 30
0.0
 10
-36.9697578829
 20
-3.8376769616
 30
0.0
 10
-36.9698707589
 20
-3.837609236
 30
0.0
  0
SPLINE
  5
64A
100
AcDbEntity
  8
IMPORT_IGES
100
AcDbSpline
 62
250
  6
CONTINUOUS
 70
0
 71
3
 72
18
 73
14
 74
0
 42
0.0000001
 43
0.0000001
 44
0.0000000001
 40
0.0
 40
0.0
 40
0.0
 40
0.0
 40
0.005137078
 40
0.0196540184
 40
0.0435182204
 40
0.0765690882
 40
0.1185737434
 40
0.1690559791
 40
0.2932912504
 40
0.4446784864
 40
0.6175356976
 40
0.8054258339
 40
1.0
 40
1.0
 40
1.0
 40
1.0
 10
-36.8242194855
 20
-4.0948571137
 30
0.0
 10
-36.8242194855
 20
-4.0953711258
 30
0.0
 10
-36.8271922007
 20
-4.0953082257
 30
0.0
 10
-36.8305612476
 20
-4.0961422645
 30
0.0
 10
-36.8382333371
 20
-4.0963839347
 30
0.0
 10
-36.8478857509
 20
-4.0969464828
 30
0.0
 10
-36.8605284313
 20
-4.0973606448
 30
0.0
 10
-36.8821635827
 20
-4.0979964213
 30
0.0
 10
-36.9148130073
 20
-4.0986467668
 30
0.0
 10
-36.959672796
 20
-4.0992748168
 30
0.0
 10
-37.0109181166
 20
-4.0997405101
 30
0.0
 10
-37.0664814568
 20
-4.1000271768
 30
0.0
 10
-37.1047508266
 20
-4.1000928359
 30
0.0
 10
-37.1242197683
 20
-4.1000928356
 30
0.0
  0
SPLINE
  5
64B
100
AcDbEntity
  8
IMPORT_IGES
100
AcDbSpline
 62
250
  6
CONTINUOUS
 70
0
 71
3
 72
18
 73
14
 74
0
 42
0.0000001
 43
0.0000001
 44
0.0000000001
 40
0.0
 40
0.0
 40
0.0
 40
0.0
 40
0.0051350164
 40
0.0196454887
 40
0.0434993108
 40
0.0765362795
 40
0.1185144568
 40
0.1689584481
 40
0.2931376697
 40
0.4445125108
 40
0.6174205578
 40
0.8053942297
 40
1.0
 40
1.0
 40
1.0
 40
1.0
 10
-57.2742194855
 20
-0.5710817554
 30
0.0
 10
-57.2742194855
 20
-0.5715955594
 30
0.0
 10
-57.2712482808
 20
-0.5715332835
 30
0.0
 10
-57.2678805411
 20
-0.5723667618
 30
0.0
 10
-57.2602118889
 20
-0.5726086788
 30
0.0
 10
-57.2505644267
 20
-0.5731708645
 30
0.0
 10
-57.2379297366
 20
-0.5735849497
 30
0.0
 10
-57.2163067104
 20
-0.5742206822
 30
0.0
 10
-57.1836680878
 20
-0.5748708431
 30
0.0
 10
-57.1388102201
 20
-0.5754992369
 30
0.0
 10
-57.0875528715
 20
-0.5759651449
 30
0.0
 10
-57.0319731172
 20
-0.5762518815
 30
0.0
 10
-56.9936923591
 20
-0.5763177055
 30
0.0
 10
-56.9742203226
 20
-0.576317705
 30
0.0
  0
SPLINE
  5
64C
100
AcDbEntity
  8
IMPORT_IGES
100
AcDbSpline
 62
250
  6
CONTINUOUS
 70
0
 71
3
 72
18
 73
14
 74
0
 42
0.0000001
 43
0.0000001
 44
0.0000000001
 40
0.0
 40
0.0
 40
0.0
 40
0.0
 40
0.0050794425
 40
0.0195473044
 40
0.0433500071
 40
0.0763257499
 40
0.1182341177
 40
0.168604083
 40
0.2926429836
 40
0.4439260207
 40
0.6168453767
 40
0.8049925601
 40
1.0
 40
1.0
 40
1.0
 40
1.0
 10
-57.097275208
 20
-1.3919872869
 30
0.0
 10
-57.0970673605
 20
-1.3924470284
 30
0.0
 10
-57.0944274588
 20
-1.391092529
 30
0.0
 10
-57.0910650556
 20
-1.3904955245
 30
0.0
 10
-57.0840575627
 20
-1.3875155279
 30
0.0
 10
-57.075132166
 20
-1.3840633233
 30
0.0
 10
-57.0635669753
 20
-1.379238561
 30
0.0
 10
-57.0437934192
 20
-1.3709368378
 30
0.0
 10
-57.0140530776
 20
-1.3581377031
 30
0.0
 10
-56.9732593241
 20
-1.3403245863
 30
0.0
 10
-56.9267091735
 20
-1.3197470541
 30
0.0
 10
-56.8762710686
 20
-1.2972351083
 30
0.0
 10
-56.8415652324
 20
-1.281614424
 30
0.0
 10
-56.8239141773
 20
-1.2736368005
 30
0.0
  0
SPLINE
  5
64D
100
AcDbEntity
  8
IMPORT_IGES
100
AcDbSpline
 62
250
  6
CONTINUOUS
 70
0
 71
3
 72
9
 73
5
 74
0
 42
0.0000001
 43
0.0000001
 44
0.0000000001
 40
0.0
 40
0.0
 40
0.0
 40
0.0
 40
0.5161792177
 40
1.0
 40
1.0
 40
1.0
 40
1.0
 10
-57.3426276766
 20
-0.4381200327
 30
0.0
 10
-57.3711212703
 20
-0.4059559509
 30
0.0
 10
-57.4402852717
 20
-0.3548188071
 30
0.0
 10
-57.5235287158
 20
-0.3348602424
 30
0.0
 10
-57.563774952
 20
-0.3333070696
 30
0.0
  0
SPLINE
  5
64E
100
AcDbEntity
  8
IMPORT_IGES
100
AcDbSpline
 62
250
  6
CONTINUOUS
 70
0
 71
3
 72
11
 73
7
 74
0
 42
0.0000001
 43
0.0000001
 44
0.0000000001
 40
0.0
 40
0.0
 40
0.0
 40
0.0
 40
0.2621717462
 40
0.5255680916
 40
0.7740921668
 40
1.0
 40
1.0
 40
1.0
 40
1.0
 10
-57.5562456448
 20
-0.2539462759
 30
0.0
 10
-57.5271358867
 20
-0.2514931124
 30
0.0
 10
-57.4678773897
 20
-0.2537343452
 30
0.0
 10
-57.3845707231
 20
-0.280468582
 30
0.0
 10
-57.3166477234
 20
-0.329439382
 30
0.0
 10
-57.2863512514
 20
-0.3743771233
 30
0.0
 10
-57.2763983744
 20
-0.397498078
 30
0.0
  0
SPLINE
  5
64F
100
AcDbEntity
  8
IMPORT_IGES
100
AcDbSpline
 62
250
  6
CONTINUOUS
 70
0
 71
3
 72
19
 73
15
 74
0
 42
0.0000001
 43
0.0000001
 44
0.0000000001
 40
0.0
 40
0.0
 40
0.0
 40
0.0
 40
0.0043323776
 40
0.0170638891
 40
0.0388906626
 40
0.0704031319
 40
0.1119866717
 40
0.1632522131
 40
0.2236163711
 40
0.2924950887
 40
0.4521667129
 40
0.6311314889
 40
0.8173071658
 40
1.0
 40
1.0
 40
1.0
 40
1.0
 10
-55.70621282
 20
-4.468882204
 30
0.0
 10
-55.7060355336
 20
-4.4692743352
 30
0.0
 10
-55.7037273571
 20
-4.4681713177
 30
0.0
 10
-55.7007025212
 20
-4.467609741
 30
0.0
 10
-55.6941899953
 20
-4.4648910118
 30
0.0
 10
-55.6856037593
 20
-4.461579563
 30
0.0
 10
-55.6741122625
 20
-4.4568012913
 30
0.0
 10
-55.660106534
 20
-4.4509332969
 30
0.0
 10
-55.6436032394
 20
-4.4438937766
 30
0.0
 10
-55.6172523882
 20
-4.4325373966
 30
0.0
 10
-55.5801599611
 20
-4.4163205509
 30
0.0
 10
-55.5324835628
 20
-4.3952376175
 30
0.0
 10
-55.4827961395
 20
-4.3730456973
 30
0.0
 10
-55.4493854461
 20
-4.3580037977
 30
0.0
 10
-55.4328486829
 20
-4.3505297885
 30
0.0
  0
SPLINE
  5
650
100
AcDbEntity
  8
IMPORT_IGES
100
AcDbSpline
 62
250
  6
CONTINUOUS
 70
0
 71
3
 72
11
 73
7
 74
0
 42
0.0000001
 43
0.0000001
 44
0.0000000001
 40
0.0
 40
0.0
 40
0.0
 40
0.0
 40
0.2144212872
 40
0.4352561977
 40
0.6909326209
 40
1.0
 40
1.0
 40
1.0
 40
1.0
 10
-57.563673585
 20
-0.3331757882
 30
0.0
 10
-57.5589984241
 20
-0.3292367547
 30
0.0
 10
-57.5506863746
 20
-0.3193006573
 30
0.0
 10
-57.5466679791
 20
-0.2996782447
 30
0.0
 10
-57.5455419116
 20
-0.2769594665
 30
0.0
 10
-57.5523716052
 20
-0.2618112432
 30
0.0
 10
-57.5563645866
 20
-0.2539560526
 30
0.0
  0
SPLINE
  5
651
100
AcDbEntity
  8
IMPORT_IGES
100
AcDbSpline
 62
250
  6
CONTINUOUS
 70
0
 71
3
 72
9
 73
5
 74
0
 42
0.0000001
 43
0.0000001
 44
0.0000000001
 40
0.0
 40
0.0
 40
0.0
 40
0.0
 40
0.2562891664
 40
1.0
 40
1.0
 40
1.0
 40
1.0
 10
-57.5742194851
 20
-0.1657144589
 30
0.0
 10
-57.5500210695
 20
-0.1657150991
 30
0.0
 10
-57.4564717862
 20
-0.1731865438
 30
0.0
 10
-57.3600051039
 20
-0.2146926717
 30
0.0
 10
-57.3146159383
 20
-0.2682713176
 30
0.0
  0
SPLINE
  5
652
100
AcDbEntity
  8
IMPORT_IGES
100
AcDbSpline
 62
250
  6
CONTINUOUS
 70
0
 71
3
 72
9
 73
5
 74
0
 42
0.0000001
 43
0.0000001
 44
0.0000000001
 40
0.0
 40
0.0
 40
0.0
 40
0.0
 40
0.5297509075
 40
1.0
 40
1.0
 40
1.0
 40
1.0
 10
-57.3146159383
 20
-0.2682713176
 30
0.0
 10
-57.3036063977
 20
-0.2812672885
 30
0.0
 10
-57.2856860034
 20
-0.3085645352
 30
0.0
 10
-57.2768676007
 20
-0.3400871737
 30
0.0
 10
-57.2751420678
 20
-0.3551077681
 30
0.0
  0
SPLINE
  5
653
100
AcDbEntity
  8
IMPORT_IGES
100
AcDbSpline
 62
250
  6
CONTINUOUS
 70
0
 71
3
 72
9
 73
5
 74
0
 42
0.0000001
 43
0.0000001
 44
0.0000000001
 40
0.0
 40
0.0
 40
0.0
 40
0.0
 40
0.2305626395
 40
1.0
 40
1.0
 40
1.0
 40
1.0
 10
-57.5563645866
 20
-0.2539560526
 30
0.0
 10
-57.5590651102
 20
-0.2475604963
 30
0.0
 10
-57.5693664563
 20
-0.2192510241
 30
0.0
 10
-57.5741312669
 20
-0.1888892148
 30
0.0
 10
-57.5742194855
 20
-0.165721322
 30
0.0
  0
SPLINE
  5
654
100
AcDbEntity
  8
IMPORT_IGES
100
AcDbSpline
 62
250
  6
CONTINUOUS
 70
0
 71
3
 72
18
 73
14
 74
0
 42
0.0000001
 43
0.0000001
 44
0.0000000001
 40
0.0
 40
0.0
 40
0.0
 40
0.0
 40
0.0043836611
 40
0.0171585833
 40
0.0390435499
 40
0.0706340102
 40
0.1123161659
 40
0.163693086
 40
0.2931559063
 40
0.4529735531
 40
0.6319165144
 40
0.817824784
 40
1.0
 40
1.0
 40
1.0
 40
1.0
 10
-55.5451326727
 20
-5.0388352752
 30
0.0
 10
-55.5450775587
 20
-5.0392694596
 30
0.0
 10
-55.5425373121
 20
-5.0389653224
 30
0.0
 10
-55.539434298
 20
-5.0393045863
 30
0.0
 10
-55.5323636834
 20
-5.0386784367
 30
0.0
 10
-55.5231056363
 20
-5.038054731
 30
0.0
 10
-55.5106243955
 20
-5.0368972628
 30
0.0
 10
-55.4885537269
 20
-5.0347625629
 30
0.0
 10
-55.4547056658
 20
-5.0311526485
 30
0.0
 10
-55.4082653755
 20
-5.0258997759
 30
0.0
 10
-55.3562389123
 20
-5.0197618858
 30
0.0
 10
-55.3020261575
 20
-5.0131488951
 30
0.0
 10
-55.2655612205
 20
-5.0085798389
 30
0.0
 10
-55.247517417
 20
-5.0062899451
 30
0.0
  0
SPLINE
  5
655
100
AcDbEntity
  8
IMPORT_IGES
100
AcDbSpline
 62
7
  6
CONTINUOUS
 70
0
 71
3
 72
9
 73
5
 74
0
 42
0.0000001
 43
0.0000001
 44
0.0000000001
 40
0.0
 40
0.0
 40
0.0
 40
0.0
 40
0.4999873119
 40
1.0
 40
1.0
 40
1.0
 40
1.0
 10
-54.8531818043
 20
-8.1126088588
 30
0.0
 10
-54.8493861596
 20
-8.1387479906
 30
0.0
 10
-54.8319652352
 20
-8.1902029081
 30
0.0
 10
-54.7959545932
 20
-8.2308870745
 30
0.0
 10
-54.7751388327
 20
-8.2471485648
 30
0.0
  0
SPLINE
  5
656
100
AcDbEntity
  8
IMPORT_IGES
100
AcDbSpline
 62
250
  6
CONTINUOUS
 70
0
 71
3
 72
21
 73
17
 74
0
 42
0.0000001
 43
0.0000001
 44
0.0000000001
 40
0.0
 40
0.0
 40
0.0
 40
0.0
 40
0.1953607811
 40
0.3835581794
 40
0.5564042462
 40
0.7076085355
 40
0.7733123216
 40
0.8316237849
 40
0.8819959489
 40
0.9238822621
 40
0.9568226114
 40
0.9805937572
 40
0.9889850826
 40
0.9950189967
 40
0.9986804293
 40
1.0
 40
1.0
 40
1.0
 40
1.0
 10
-54.7751389933
 20
-8.2471487778
 30
0.0
 10
-54.7867374775
 20
-8.2625357218
 30
0.0
 10
-54.8095400817
 20
-8.2927221036
 30
0.0
 10
-54.8427083691
 20
-8.3364435928
 30
0.0
 10
-54.8733406618
 20
-8.3766219575
 30
0.0
 10
-54.8967348063
 20
-8.4071265242
 30
0.0
 10
-54.9133217705
 20
-8.4286140544
 30
0.0
 10
-54.9238665552
 20
-8.4422041675
 30
0.0
 10
-54.9330077377
 20
-8.453903935
 30
0.0
 10
-54.9406560453
 20
-8.4636115571
 30
0.0
 10
-54.9467203219
 20
-8.4711808912
 30
0.0
 10
-54.9508015488
 20
-8.4762086127
 30
0.0
 10
-54.9532148449
 20
-8.4790063304
 30
0.0
 10
-54.9544422886
 20
-8.4804631799
 30
0.0
 10
-54.9551177061
 20
-8.4810263372
 30
0.0
 10
-54.9555799788
 20
-8.4815818027
 30
0.0
 10
-54.9556841942
 20
-8.4815038383
 30
0.0
  0
SPLINE
  5
657
100
AcDbEntity
  8
IMPORT_IGES
100
AcDbSpline
 62
250
  6
CONTINUOUS
 70
0
 71
3
 72
18
 73
14
 74
0
 42
0.0000001
 43
0.0000001
 44
0.0000000001
 40
0.0
 40
0.0
 40
0.0
 40
0.0
 40
0.005127096
 40
0.0196255282
 40
0.0434633316
 40
0.0764820981
 40
0.1184396542
 40
0.1688610311
 40
0.2929983144
 40
0.4443481483
 40
0.6172581035
 40
0.8052776998
 40
1.0
 40
1.0
 40
1.0
 40
1.0
 10
-55.1507955212
 20
-8.1451540964
 30
0.0
 10
-55.1507310571
 20
-8.1456619043
 30
0.0
 10
-55.1477993611
 20
-8.1452205846
 30
0.0
 10
-55.1443654706
 20
-8.1456234597
 30
0.0
 10
-55.1367484784
 20
-8.1448943448
 30
0.0
 10
-55.1271342004
 20
-8.1442369025
 30
0.0
 10
-55.1145818979
 20
-8.1430564443
 30
0.0
 10
-55.0931072098
 20
-8.1409658057
 30
0.0
 10
-55.0607272277
 20
-8.1375050102
 30
0.0
 10
-55.0162522585
 20
-8.1324876677
 30
0.0
 10
-54.9654542554
 20
-8.1265056442
 30
0.0
 10
-54.9103860056
 20
-8.1198029752
 30
0.0
 10
-54.8724690828
 20
-8.1150565831
 30
0.0
 10
-54.8531829266
 20
-8.1126090012
 30
0.0
  0
SPLINE
  5
658
100
AcDbEntity
  8
IMPORT_IGES
100
AcDbSpline
 62
250
  6
CONTINUOUS
 70
0
 71
3
 72
9
 73
5
 74
0
 42
0.0000001
 43
0.0000001
 44
0.0000000001
 40
0.0
 40
0.0
 40
0.0
 40
0.0
 40
0.4927691889
 40
1.0
 40
1.0
 40
1.0
 40
1.0
 10
-57.4984588619
 20
-0.3585564573
 30
0.0
 10
-57.4685038764
 20
-0.366123326
 30
0.0
 10
-57.4098355851
 20
-0.3912075528
 30
0.0
 10
-57.3615517771
 20
-0.433108584
 30
0.0
 10
-57.3412795007
 20
-0.4576125376
 30
0.0
  0
SPLINE
  5
659
100
AcDbEntity
  8
IMPORT_IGES
100
AcDbSpline
 62
7
  6
CONTINUOUS
 70
0
 71
3
 72
21
 73
17
 74
0
 42
0.0000001
 43
0.0000001
 44
0.0000000001
 40
0.0
 40
0.0
 40
0.0
 40
0.0
 40
0.1818897187
 40
0.3598859991
 40
0.5281894953
 40
0.6807524926
 40
0.749203122
 40
0.8113207852
 40
0.8661338871
 40
0.9126623928
 40
0.9499373058
 40
0.9772248198
 40
0.9869685582
 40
0.9940345746
 40
0.9983732707
 40
1.0
 40
1.0
 40
1.0
 40
1.0
 10
-38.8242194973
 20
-3.0800928553
 30
0.0
 10
-38.8058871726
 20
-3.0697156636
 30
0.0
 10
-38.7696313994
 20
-3.049154314
 30
0.0
 10
-38.7164943066
 20
-3.0188469932
 30
0.0
 10
-38.666419175
 20
-2.9900277449
 30
0.0
 10
-38.6274295877
 20
-2.9673814126
 30
0.0
 10
-38.5991268608
 20
-2.9508232902
 30
0.0
 10
-38.5806193198
 20
-2.9399381687
 30
0.0
 10
-38.5643363627
 20
-2.9302888557
 30
0.0
 10
-38.5505505113
 20
-2.9220404644
 30
0.0
 10
-38.5395899775
 20
-2.9153584646
 30
0.0
 10
-38.5322258998
 20
-2.9107848025
 30
0.0
 10
-38.5280410396
 20
-2.9080078452
 30
0.0
 10
-38.525875724
 20
-2.9065815376
 30
0.0
 10
-38.5249445876
 20
-2.9057342196
 30
0.0
 10
-38.524142632
 20
-2.9051799934
 30
0.0
 10
-38.5242236463
 20
-2.9050099013
 30
0.0
  0
SPLINE
  5
65A
100
AcDbEntity
  8
IMPORT_IGES
100
AcDbSpline
 62
7
  6
CONTINUOUS
 70
0
 71
3
 72
11
 73
7
 74
0
 42
0.0000001
 43
0.0000001
 44
0.0000000001
 40
0.0
 40
0.0
 40
0.0
 40
0.0
 40
0.2494409586
 40
0.4994061693
 40
0.749647873
 40
1.0
 40
1.0
 40
1.0
 40
1.0
 10
-60.0742194855
 20
-0.6769544457
 30
0.0
 10
-60.0742194855
 20
-0.5877761491
 30
0.0
 10
-60.0400383552
 20
-0.4085182334
 30
0.0
 10
-59.9180993682
 20
-0.1675804082
 30
0.0
 10
-59.7552541482
 20
0.0467197439
 30
0.0
 10
-59.6345631043
 20
0.1788968776
 30
0.0
 10
-59.5742194855
 20
0.245
 30
0.0
  0
SPLINE
  5
65B
100
AcDbEntity
  8
RACCORDO
100
AcDbSpline
 62
7
  6
CONTINUOUS
 70
0
 71
3
 72
9
 73
5
 74
0
 42
0.0000001
 43
0.0000001
 44
0.0000000001
 40
0.0
 40
0.0
 40
0.0
 40
0.0
 40
0.517786632
 40
1.0
 40
1.0
 40
1.0
 40
1.0
 10
-29.5727650527
 20
-22.3334109614
 30
0.0
 10
-29.5513570554
 20
-22.332273202
 30
0.0
 10
-29.5099930361
 20
-22.3304456948
 30
0.0
 10
-29.4686143318
 20
-22.3289557443
 30
0.0
 10
-29.4486763435
 20
-22.3279108386
 30
0.0
  0
SPLINE
  5
65C
100
AcDbEntity
  8
RACCORDO
100
AcDbSpline
 62
250
  6
CONTINUOUS
 70
0
 71
3
 72
24
 73
20
 74
0
 42
0.0000001
 43
0.0000001
 44
0.0000000001
 40
0.0
 40
0.0
 40
0.0
 40
0.0
 40
0.1950126596
 40
0.3824957738
 40
0.5552736398
 40
0.634044462
 40
0.7067096122
 40
0.7725721154
 40
0.8309983002
 40
0.8814267782
 40
0.9233766804
 40
0.9410430089
 40
0.9564476515
 40
0.9695519376
 40
0.980328237
 40
0.9887549044
 40
0.9948165372
 40
0.9985233219
 40
1.0
 40
1.0
 40
1.0
 40
1.0
 10
-23.1848823715
 20
21.4994104546
 30
0.0
 10
-23.1831822634
 20
21.5318603333
 30
0.0
 10
-23.1799547254
 20
21.5955128526
 30
0.0
 10
-23.1755925819
 20
21.6879337536
 30
0.0
 10
-23.172428607
 20
21.7610201441
 30
0.0
 10
-23.1702941123
 20
21.8150008079
 30
0.0
 10
-23.1689661462
 20
21.8511843202
 30
0.0
 10
-23.1678729615
 20
21.8839839825
 30
0.0
 10
-23.1670241019
 20
21.9130844308
 30
0.0
 10
-23.1664271059
 20
21.9382052754
 30
0.0
 10
-23.1661249617
 20
21.9565402795
 30
0.0
 10
-23.1660297199
 20
21.9690392541
 30
0.0
 10
-23.1660279546
 20
21.9767363485
 30
0.0
 10
-23.1660901674
 20
21.9832734519
 30
0.0
 10
-23.166216658
 20
21.9886797825
 30
0.0
 10
-23.1663998993
 20
21.9928231347
 30
0.0
 10
-23.166644279
 20
21.995990051
 30
0.0
 10
-23.1669095195
 20
21.997584623
 30
0.0
 10
-23.1671948793
 20
21.9987123445
 30
0.0
 10
-23.1674405966
 20
21.998725222
 30
0.0
  0
LINE
  5
65D
100
AcDbEntity
  8
RACCORDO
100
AcDbLine
 62
7
  6
CONTINUOUS
 10
-30.8242194855
 20
22.3997080771
 30
0.0
 11
-29.5727650527
 21
22.3334109614
 31
0.0
  0
SPLINE
  5
65E
100
AcDbEntity
  8
RACCORDO
100
AcDbSpline
 62
250
  6
CONTINUOUS
 70
0
 71
3
 72
26
 73
22
 74
0
 42
0.0000001
 43
0.0000001
 44
0.0000000001
 40
0.0
 40
0.0
 40
0.0
 40
0.0
 40
0.1952381202
 40
0.3828749837
 40
0.5557520914
 40
0.6345520338
 40
0.7072376715
 40
0.7731076099
 40
0.8315332255
 40
0.8819531408
 40
0.9238816554
 40
0.9415349362
 40
0.956920956
 40
0.9700021908
 40
0.9807506497
 40
0.9891391341
 40
0.9951459668
 40
0.9972533322
 40
0.9987625092
 40
0.9996742481
 40
1.0
 40
1.0
 40
1.0
 40
1.0
 10
-31.5756739183
 20
23.8443375673
 30
0.0
 10
-31.5837855144
 20
23.8302873953
 30
0.0
 10
-31.599679522
 20
23.8027263462
 30
0.0
 10
-31.6227095916
 20
23.7626975296
 30
0.0
 10
-31.6408788532
 20
23.7310348314
 30
0.0
 10
-31.6542686047
 20
23.707642512
 30
0.0
 10
-31.6632282246
 20
23.6919599588
 30
0.0
 10
-31.6713341236
 20
23.6777395348
 30
0.0
 10
-31.6785086176
 20
23.665117869
 30
0.0
 10
-31.6846829207
 20
23.654216121
 30
0.0
 10
-31.6891708442
 20
23.6462528618
 30
0.0
 10
-31.6922153605
 20
23.6408180688
 30
0.0
 10
-31.6940814891
 20
23.6374703242
 30
0.0
 10
-31.6956592654
 20
23.6346199763
 30
0.0
 10
-31.696948556
 20
23.6322711012
 30
0.0
 10
-31.6979373714
 20
23.630437018
 30
0.0
 10
-31.6985872469
 20
23.629215972
 30
0.0
 10
-31.6989348792
 20
23.6285133592
 30
0.0
 10
-31.6991184841
 20
23.628155318
 30
0.0
 10
-31.6991715122
 20
23.6279791452
 30
0.0
 10
-31.6992429278
 20
23.6278447508
 30
0.0
 10
-31.6992194855
 20
23.6278312164
 30
0.0
  0
SPLINE
  5
65F
100
AcDbEntity
  8
RACCORDO
100
AcDbSpline
 62
250
  6
CONTINUOUS
 70
0
 71
3
 72
26
 73
22
 74
0
 42
0.0000001
 43
0.0000001
 44
0.0000000001
 40
0.0
 40
0.0
 40
0.0
 40
0.0
 40
0.1952381202
 40
0.3828749837
 40
0.5557520914
 40
0.6345520338
 40
0.7072376715
 40
0.7731076099
 40
0.8315332255
 40
0.8819531408
 40
0.9238816554
 40
0.9415349362
 40
0.956920956
 40
0.9700021908
 40
0.9807506497
 40
0.9891391341
 40
0.9951459668
 40
0.9972533322
 40
0.9987625092
 40
0.9996742481
 40
1.0
 40
1.0
 40
1.0
 40
1.0
 10
-28.5727650527
 20
23.8443375673
 30
0.0
 10
-28.5646534566
 20
23.8302873953
 30
0.0
 10
-28.5487594491
 20
23.8027263462
 30
0.0
 10
-28.5257293794
 20
23.7626975296
 30
0.0
 10
-28.5075601178
 20
23.7310348314
 30
0.0
 10
-28.4941703663
 20
23.707642512
 30
0.0
 10
-28.4852107465
 20
23.6919599588
 30
0.0
 10
-28.4771048474
 20
23.6777395348
 30
0.0
 10
-28.4699303534
 20
23.665117869
 30
0.0
 10
-28.4637560503
 20
23.654216121
 30
0.0
 10
-28.4592681268
 20
23.6462528618
 30
0.0
 10
-28.4562236105
 20
23.6408180688
 30
0.0
 10
-28.454357482
 20
23.6374703242
 30
0.0
 10
-28.4527797057
 20
23.6346199763
 30
0.0
 10
-28.451490415
 20
23.6322711012
 30
0.0
 10
-28.4505015996
 20
23.630437018
 30
0.0
 10
-28.4498517242
 20
23.629215972
 30
0.0
 10
-28.4495040918
 20
23.6285133592
 30
0.0
 10
-28.4493204869
 20
23.628155318
 30
0.0
 10
-28.4492674588
 20
23.6279791452
 30
0.0
 10
-28.4491960432
 20
23.6278447508
 30
0.0
 10
-28.4492194855
 20
23.6278312164
 30
0.0
  0
SPLINE
  5
660
100
AcDbEntity
  8
RACCORDO
100
AcDbSpline
 62
250
  6
CONTINUOUS
 70
0
 71
3
 72
26
 73
22
 74
0
 42
0.0000001
 43
0.0000001
 44
0.0000000001
 40
0.0
 40
0.0
 40
0.0
 40
0.0
 40
0.0003336228
 40
0.0012487957
 40
0.0027607629
 40
0.0048708913
 40
0.0108838711
 40
0.0192797588
 40
0.0300369534
 40
0.0431282632
 40
0.0585256394
 40
0.076191382
 40
0.1181475232
 40
0.1685972475
 40
0.2270528812
 40
0.2929506998
 40
0.3656595516
 40
0.4444752648
 40
0.6173498903
 40
0.804918698
 40
1.0
 40
1.0
 40
1.0
 40
1.0
 10
-31.5756739183
 20
24.495628166
 30
0.0
 10
-31.5757017213
 20
24.4956280042
 30
0.0
 10
-31.5757149331
 20
24.4954778342
 30
0.0
 10
-31.5757553939
 20
24.4952942839
 30
0.0
 10
-31.5757803401
 20
24.4948924719
 30
0.0
 10
-31.5758313936
 20
24.4941059308
 30
0.0
 10
-31.5758803774
 20
24.4927189634
 30
0.0
 10
-31.5759375372
 20
24.4906277983
 30
0.0
 10
-31.5759891908
 20
24.4879390129
 30
0.0
 10
-31.5760380323
 20
24.4846694521
 30
0.0
 10
-31.5760824985
 20
24.4808230354
 30
0.0
 10
-31.5761395173
 20
24.4745714515
 30
0.0
 10
-31.5761959827
 20
24.4653984055
 30
0.0
 10
-31.5762428046
 20
24.4528260315
 30
0.0
 10
-31.576270788
 20
24.438258313
 30
0.0
 10
-31.5762795707
 20
24.4218355554
 30
0.0
 10
-31.5762688729
 20
24.4037160292
 30
0.0
 10
-31.5762273343
 20
24.3766813105
 30
0.0
 10
-31.5761253438
 20
24.340074502
 30
0.0
 10
-31.575936104
 20
24.2937786131
 30
0.0
 10
-31.5757684979
 20
24.261889788
 30
0.0
 10
-31.5756739183
 20
24.2456323968
 30
0.0
  0
SPLINE
  5
661
100
AcDbEntity
  8
RACCORDO
100
AcDbSpline
 62
250
  6
CONTINUOUS
 70
0
 71
3
 72
26
 73
22
 74
0
 42
0.0000001
 43
0.0000001
 44
0.0000000001
 40
0.0
 40
0.0
 40
0.0
 40
0.0
 40
0.1950812131
 40
0.3826499456
 40
0.5555245119
 40
0.6343402047
 40
0.7070490478
 40
0.7729468713
 40
0.8314025054
 40
0.881852257
 40
0.9238084245
 40
0.9414741935
 40
0.956871577
 40
0.9699629139
 40
0.9807201421
 40
0.9891160416
 40
0.9951290477
 40
0.9972391968
 40
0.998751184
 40
0.9996663718
 40
1.0
 40
1.0
 40
1.0
 40
1.0
 10
-28.5727650527
 20
-24.2369056521
 30
0.0
 10
-28.5726704732
 20
-24.2531630359
 30
0.0
 10
-28.5725028671
 20
-24.2850518473
 30
0.0
 10
-28.5723136274
 20
-24.3313477175
 30
0.0
 10
-28.5722116369
 20
-24.3679545131
 30
0.0
 10
-28.5721700982
 20
-24.3949892244
 30
0.0
 10
-28.5721594003
 20
-24.4131087486
 30
0.0
 10
-28.5721681829
 20
-24.4295315059
 30
0.0
 10
-28.5721961663
 20
-24.4440992271
 30
0.0
 10
-28.572242988
 20
-24.4566716056
 30
0.0
 10
-28.5722994534
 20
-24.4658446582
 30
0.0
 10
-28.572356472
 20
-24.4720962472
 30
0.0
 10
-28.5724009382
 20
-24.4759426689
 30
0.0
 10
-28.5724497796
 20
-24.4792122353
 30
0.0
 10
-28.5725014329
 20
-24.4819010268
 30
0.0
 10
-28.5725585932
 20
-24.4839921979
 30
0.0
 10
-28.5726075772
 20
-24.4853791703
 30
0.0
 10
-28.5726586309
 20
-24.4861657167
 30
0.0
 10
-28.5726835768
 20
-24.4865675339
 30
0.0
 10
-28.5727240385
 20
-24.4867510864
 30
0.0
 10
-28.5727372493
 20
-24.4869012595
 30
0.0
 10
-28.5727650527
 20
-24.4869014213
 30
0.0
  0
SPLINE
  5
662
100
AcDbEntity
  8
RACCORDO
100
AcDbSpline
 62
7
  6
CONTINUOUS
 70
0
 71
3
 72
21
 73
17
 74
0
 42
0.0000001
 43
0.0000001
 44
0.0000000001
 40
0.0
 40
0.0
 40
0.0
 40
0.0
 40
0.0029790658
 40
0.008175116
 40
0.0156250978
 40
0.0253283399
 40
0.0514214958
 40
0.0862381945
 40
0.1294620787
 40
0.1806964401
 40
0.2394705042
 40
0.3052441117
 40
0.4553064688
 40
0.6253651728
 40
0.8091743646
 40
1.0
 40
1.0
 40
1.0
 40
1.0
 10
-30.8240715126
 20
-22.3996911987
 30
0.0
 10
-30.8238243278
 20
-22.3992605945
 30
0.0
 10
-30.8235122716
 20
-22.3979045676
 30
0.0
 10
-30.8231188715
 20
-22.3953465347
 30
0.0
 10
-30.8227893083
 20
-22.3916265377
 30
0.0
 10
-30.8223507629
 20
-22.3844364857
 30
0.0
 10
-30.8219471545
 20
-22.3726699905
 30
0.0
 10
-30.8215570454
 20
-22.3553204389
 30
0.0
 10
-30.8213023487
 20
-22.3337752387
 30
0.0
 10
-30.8211640335
 20
-22.3082371894
 30
0.0
 10
-30.82115079
 20
-22.2789401678
 30
0.0
 10
-30.8213094431
 20
-22.2331723136
 30
0.0
 10
-30.8218472278
 20
-22.1688587659
 30
0.0
 10
-30.8229324302
 20
-22.0848776728
 30
0.0
 10
-30.824456446
 20
-21.9941085464
 30
0.0
 10
-30.8257071948
 20
-21.9316821458
 30
0.0
 10
-30.8264058145
 20
-21.8998857286
 30
0.0
  0
SPLINE
  5
663
100
AcDbEntity
  8
RACCORDO
100
AcDbSpline
 62
250
  6
CONTINUOUS
 70
0
 71
3
 72
26
 73
22
 74
0
 42
0.0000001
 43
0.0000001
 44
0.0000000001
 40
0.0
 40
0.0
 40
0.0
 40
0.0
 40
0.1950812131
 40
0.3826499456
 40
0.5555245119
 40
0.6343402047
 40
0.7070490478
 40
0.7729468713
 40
0.8314025054
 40
0.881852257
 40
0.9238084245
 40
0.9414741935
 40
0.956871577
 40
0.9699629139
 40
0.9807201421
 40
0.9891160416
 40
0.9951290477
 40
0.9972391968
 40
0.998751184
 40
0.9996663718
 40
1.0
 40
1.0
 40
1.0
 40
1.0
 10
-31.5756739183
 20
-24.2456323968
 30
0.0
 10
-31.5757684978
 20
-24.2618897806
 30
0.0
 10
-31.5759361039
 20
-24.293778592
 30
0.0
 10
-31.5761253436
 20
-24.3400744622
 30
0.0
 10
-31.5762273342
 20
-24.3766812578
 30
0.0
 10
-31.5762688728
 20
-24.4037159692
 30
0.0
 10
-31.5762795707
 20
-24.4218354933
 30
0.0
 10
-31.5762707881
 20
-24.4382582506
 30
0.0
 10
-31.5762428047
 20
-24.4528259718
 30
0.0
 10
-31.576195983
 20
-24.4653983503
 30
0.0
 10
-31.5761395176
 20
-24.474571403
 30
0.0
 10
-31.576082499
 20
-24.4808229919
 30
0.0
 10
-31.5760380328
 20
-24.4846694136
 30
0.0
 10
-31.5759891914
 20
-24.4879389801
 30
0.0
 10
-31.5759375381
 20
-24.4906277716
 30
0.0
 10
-31.5758803778
 20
-24.4927189426
 30
0.0
 10
-31.5758313939
 20
-24.494105915
 30
0.0
 10
-31.5757803401
 20
-24.4948924614
 30
0.0
 10
-31.5757553943
 20
-24.4952942786
 30
0.0
 10
-31.5757149326
 20
-24.4954778311
 30
0.0
 10
-31.5757017218
 20
-24.4956280042
 30
0.0
 10
-31.5756739183
 20
-24.495628166
 30
0.0
  0
SPLINE
  5
664
100
AcDbEntity
  8
RACCORDO
100
AcDbSpline
 62
250
  6
CONTINUOUS
 70
0
 71
3
 72
26
 73
22
 74
0
 42
0.0000001
 43
0.0000001
 44
0.0000000001
 40
0.0
 40
0.0
 40
0.0
 40
0.0
 40
0.1952381202
 40
0.3828749837
 40
0.5557520914
 40
0.6345520338
 40
0.7072376715
 40
0.7731076099
 40
0.8315332255
 40
0.8819531408
 40
0.9238816554
 40
0.9415349362
 40
0.956920956
 40
0.9700021908
 40
0.9807506497
 40
0.9891391341
 40
0.9951459668
 40
0.9972533322
 40
0.9987625092
 40
0.9996742481
 40
1.0
 40
1.0
 40
1.0
 40
1.0
 10
-31.5756739183
 20
-23.8443375673
 30
0.0
 10
-31.5837855144
 20
-23.8302873953
 30
0.0
 10
-31.599679522
 20
-23.8027263462
 30
0.0
 10
-31.6227095916
 20
-23.7626975296
 30
0.0
 10
-31.6408788532
 20
-23.7310348314
 30
0.0
 10
-31.6542686047
 20
-23.707642512
 30
0.0
 10
-31.6632282246
 20
-23.6919599588
 30
0.0
 10
-31.6713341236
 20
-23.6777395348
 30
0.0
 10
-31.6785086176
 20
-23.665117869
 30
0.0
 10
-31.6846829207
 20
-23.654216121
 30
0.0
 10
-31.6891708442
 20
-23.6462528618
 30
0.0
 10
-31.6922153605
 20
-23.6408180688
 30
0.0
 10
-31.6940814891
 20
-23.6374703242
 30
0.0
 10
-31.6956592654
 20
-23.6346199763
 30
0.0
 10
-31.696948556
 20
-23.6322711012
 30
0.0
 10
-31.6979373714
 20
-23.630437018
 30
0.0
 10
-31.6985872469
 20
-23.629215972
 30
0.0
 10
-31.6989348792
 20
-23.6285133592
 30
0.0
 10
-31.6991184841
 20
-23.628155318
 30
0.0
 10
-31.6991715122
 20
-23.6279791452
 30
0.0
 10
-31.6992429278
 20
-23.6278447508
 30
0.0
 10
-31.6992194855
 20
-23.6278312164
 30
0.0
  0
SPLINE
  5
665
100
AcDbEntity
  8
RACCORDO
100
AcDbSpline
 62
7
  6
CONTINUOUS
 70
0
 71
3
 72
12
 73
8
 74
0
 42
0.0000001
 43
0.0000001
 44
0.0000000001
 40
0.0
 40
0.0
 40
0.0
 40
0.0
 40
0.6821065592
 40
0.8126145869
 40
0.9136705847
 40
0.9780274845
 40
1.0
 40
1.0
 40
1.0
 40
1.0
 10
-29.5727650527
 20
-23.2669872981
 30
0.0
 10
-29.5161706303
 20
-23.2343116637
 30
0.0
 10
-29.4487847969
 20
-23.1953211383
 30
0.0
 10
-29.3730752953
 20
-23.1513823503
 30
0.0
 10
-29.34860778
 20
-23.137061582
 30
0.0
 10
-29.3330695583
 20
-23.1280662994
 30
0.0
 10
-29.3260080928
 20
-23.1237601823
 30
0.0
 10
-29.3242194855
 20
-23.1226497308
 30
0.0
  0
SPLINE
  5
666
100
AcDbEntity
  8
RACCORDO
100
AcDbSpline
 62
250
  6
CONTINUOUS
 70
0
 71
3
 72
26
 73
22
 74
0
 42
0.0000001
 43
0.0000001
 44
0.0000000001
 40
0.0
 40
0.0
 40
0.0
 40
0.0
 40
0.1952383918
 40
0.3828751996
 40
0.5557522696
 40
0.6345521823
 40
0.7072377922
 40
0.7731077036
 40
0.8315332971
 40
0.8819531884
 40
0.9238816869
 40
0.9415349589
 40
0.9569209738
 40
0.9700022033
 40
0.980750657
 40
0.9891391387
 40
0.9951459694
 40
0.9972533339
 40
0.99876251
 40
0.9996742483
 40
1.0
 40
1.0
 40
1.0
 40
1.0
 10
-28.5727650527
 20
-23.8443375673
 30
0.0
 10
-28.5646534453
 20
-23.8302873757
 30
0.0
 10
-28.5487594288
 20
-23.8027263111
 30
0.0
 10
-28.5257293519
 20
-23.7626974817
 30
0.0
 10
-28.5075600954
 20
-23.7310347923
 30
0.0
 10
-28.4941703478
 20
-23.7076424797
 30
0.0
 10
-28.4852107315
 20
-23.6919599326
 30
0.0
 10
-28.4771048357
 20
-23.6777395142
 30
0.0
 10
-28.4699303447
 20
-23.6651178536
 30
0.0
 10
-28.4637560442
 20
-23.6542161101
 30
0.0
 10
-28.4592681227
 20
-23.6462528545
 30
0.0
 10
-28.4562236076
 20
-23.6408180636
 30
0.0
 10
-28.4543574798
 20
-23.6374703203
 30
0.0
 10
-28.4527797041
 20
-23.6346199735
 30
0.0
 10
-28.4514904141
 20
-23.6322710994
 30
0.0
 10
-28.450501599
 20
-23.6304370169
 30
0.0
 10
-28.4498517238
 20
-23.6292159714
 30
0.0
 10
-28.4495040916
 20
-23.6285133588
 30
0.0
 10
-28.4493204868
 20
-23.6281553178
 30
0.0
 10
-28.4492674587
 20
-23.6279791451
 30
0.0
 10
-28.4491960432
 20
-23.6278447508
 30
0.0
 10
-28.4492194855
 20
-23.6278312164
 30
0.0
  0
SPLINE
  5
667
100
AcDbEntity
  8
RACCORDO
100
AcDbSpline
 62
250
  6
CONTINUOUS
 70
0
 71
3
 72
26
 73
22
 74
0
 42
0.0000001
 43
0.0000001
 44
0.0000000001
 40
0.0
 40
0.0
 40
0.0
 40
0.0
 40
0.0003336287
 40
0.0012488178
 40
0.0027608069
 40
0.0048709582
 40
0.0108839688
 40
0.0192798748
 40
0.0300371153
 40
0.0431284644
 40
0.0585258581
 40
0.0761916461
 40
0.1181478473
 40
0.168597649
 40
0.2270533274
 40
0.2929512052
 40
0.3656601029
 40
0.4444758533
 40
0.6173505017
 40
0.8049193806
 40
1.0
 40
1.0
 40
1.0
 40
1.0
 10
-28.5727650527
 20
24.4869014213
 30
0.0
 10
-28.5727372492
 20
24.4869012595
 30
0.0
 10
-28.5727240385
 20
24.4867510862
 30
0.0
 10
-28.5726835767
 20
24.4865675335
 30
0.0
 10
-28.5726586309
 20
24.4861657157
 30
0.0
 10
-28.5726075771
 20
24.4853791686
 30
0.0
 10
-28.5725585931
 20
24.4839921951
 30
0.0
 10
-28.5725014328
 20
24.4819010221
 30
0.0
 10
-28.5724497795
 20
24.479212228
 30
0.0
 10
-28.5724009381
 20
24.4759426587
 30
0.0
 10
-28.5723564719
 20
24.4720962335
 30
0.0
 10
-28.5722994533
 20
24.4658446393
 30
0.0
 10
-28.5722429878
 20
24.4566715781
 30
0.0
 10
-28.5721961662
 20
24.444099189
 30
0.0
 10
-28.5721681828
 20
24.4295314554
 30
0.0
 10
-28.5721594003
 20
24.4131086853
 30
0.0
 10
-28.5721700983
 20
24.3949891473
 30
0.0
 10
-28.5722116371
 20
24.3679544198
 30
0.0
 10
-28.5723136278
 20
24.3313476003
 30
0.0
 10
-28.5725028676
 20
24.2850517606
 30
0.0
 10
-28.5726704735
 20
24.2531629864
 30
0.0
 10
-28.5727650527
 20
24.2369056521
 30
0.0
  0
SPLINE
  5
668
100
AcDbEntity
  8
RACCORDO
100
AcDbSpline
 62
7
  6
CONTINUOUS
 70
0
 71
3
 72
21
 73
17
 74
0
 42
0.0000001
 43
0.0000001
 44
0.0000000001
 40
0.0
 40
0.0
 40
0.0
 40
0.0
 40
0.1908256354
 40
0.3746348272
 40
0.5446935312
 40
0.6947558883
 40
0.7605294958
 40
0.8193035599
 40
0.8705379213
 40
0.9137618055
 40
0.9485785042
 40
0.9746716601
 40
0.9843749022
 40
0.991824884
 40
0.9970209342
 40
1.0
 40
1.0
 40
1.0
 40
1.0
 10
-30.8264058145
 20
21.8998857286
 30
0.0
 10
-30.8257071948
 20
21.9316821458
 30
0.0
 10
-30.824456446
 20
21.9941085464
 30
0.0
 10
-30.8229324302
 20
22.0848776728
 30
0.0
 10
-30.8218472278
 20
22.1688587659
 30
0.0
 10
-30.8213094431
 20
22.2331723136
 30
0.0
 10
-30.82115079
 20
22.2789401678
 30
0.0
 10
-30.8211640335
 20
22.3082371894
 30
0.0
 10
-30.8213023487
 20
22.3337752387
 30
0.0
 10
-30.8215570454
 20
22.3553204389
 30
0.0
 10
-30.8219471545
 20
22.3726699905
 30
0.0
 10
-30.8223507629
 20
22.3844364857
 30
0.0
 10
-30.8227893083
 20
22.3916265377
 30
0.0
 10
-30.8231188715
 20
22.3953465347
 30
0.0
 10
-30.8235122716
 20
22.3979045676
 30
0.0
 10
-30.8238243278
 20
22.3992605945
 30
0.0
 10
-30.8240715126
 20
22.3996911987
 30
0.0
  0
SPLINE
  5
669
100
AcDbEntity
  8
RACCORDO
100
AcDbSpline
 62
7
  6
CONTINUOUS
 70
0
 71
3
 72
12
 73
8
 74
0
 42
0.0000001
 43
0.0000001
 44
0.0000000001
 40
0.0
 40
0.0
 40
0.0
 40
0.0
 40
0.0225227441
 40
0.0871911575
 40
0.1883899039
 40
0.3188730765
 40
1.0
 40
1.0
 40
1.0
 40
1.0
 10
-29.3242194855
 20
23.1226497308
 30
0.0
 10
-29.326053159
 20
23.1237875435
 30
0.0
 10
-29.3331863663
 20
23.1281345861
 30
0.0
 10
-29.3488074261
 20
23.1371787777
 30
0.0
 10
-29.3733111171
 20
23.1515192245
 30
0.0
 10
-29.4489491477
 20
23.1954166332
 30
0.0
 10
-29.5162519121
 20
23.2343585929
 30
0.0
 10
-29.5727650527
 20
23.2669872981
 30
0.0
  0
LINE
  5
66A
100
AcDbEntity
  8
RACCORDO
100
AcDbLine
 62
7
  6
CONTINUOUS
 10
-29.5727650527
 20
-22.3334109614
 30
0.0
 11
-30.8242194855
 21
-22.3997080771
 31
0.0
  0
SPLINE
  5
66B
100
AcDbEntity
  8
RACCORDO
100
AcDbSpline
 62
250
  6
CONTINUOUS
 70
0
 71
3
 72
24
 73
20
 74
0
 42
0.0000001
 43
0.0000001
 44
0.0000000001
 40
0.0
 40
0.0
 40
0.0
 40
0.0
 40
0.1950126595
 40
0.3824957736
 40
0.5552736396
 40
0.6340444618
 40
0.706709612
 40
0.7725721153
 40
0.8309983
 40
0.881426778
 40
0.9233766803
 40
0.9410430088
 40
0.9564476514
 40
0.9695519375
 40
0.9803282369
 40
0.9887549043
 40
0.9948165371
 40
0.9985233218
 40
1.0
 40
1.0
 40
1.0
 40
1.0
 10
-23.1848823715
 20
-21.4994104546
 30
0.0
 10
-23.1831822634
 20
-21.5318603333
 30
0.0
 10
-23.1799547253
 20
-21.5955128526
 30
0.0
 10
-23.1755925816
 20
-21.6879337535
 30
0.0
 10
-23.1724286067
 20
-21.761020144
 30
0.0
 10
-23.1702941119
 20
-21.8150008078
 30
0.0
 10
-23.1689661459
 20
-21.8511843202
 30
0.0
 10
-23.1678729612
 20
-21.8839839824
 30
0.0
 10
-23.1670241015
 20
-21.9130844307
 30
0.0
 10
-23.1664271056
 20
-21.9382052754
 30
0.0
 10
-23.1661249615
 20
-21.9565402795
 30
0.0
 10
-23.1660297197
 20
-21.9690392541
 30
0.0
 10
-23.1660279544
 20
-21.9767363485
 30
0.0
 10
-23.1660901672
 20
-21.9832734519
 30
0.0
 10
-23.1662166578
 20
-21.9886797825
 30
0.0
 10
-23.1663998992
 20
-21.9928231347
 30
0.0
 10
-23.166644279
 20
-21.995990051
 30
0.0
 10
-23.1669095195
 20
-21.9975846231
 30
0.0
 10
-23.1671948793
 20
-21.9987123445
 30
0.0
 10
-23.1674405966
 20
-21.998725222
 30
0.0
  0
SPLINE
  5
66C
100
AcDbEntity
  8
RACCORDO
100
AcDbSpline
 62
7
  6
CONTINUOUS
 70
0
 71
3
 72
9
 73
5
 74
0
 42
0.0000001
 43
0.0000001
 44
0.0000000001
 40
0.0
 40
0.0
 40
0.0
 40
0.0
 40
0.482213368
 40
1.0
 40
1.0
 40
1.0
 40
1.0
 10
-29.4486763435
 20
22.3279108386
 30
0.0
 10
-29.4686143318
 20
22.3289557443
 30
0.0
 10
-29.5099930361
 20
22.3304456948
 30
0.0
 10
-29.5513570554
 20
22.332273202
 30
0.0
 10
-29.5727650527
 20
22.3334109614
 30
0.0
  0
ELLIPSE
  5
66D
100
AcDbEntity
  8
RACCORDO
100
AcDbEllipse
 62
7
  6
CONTINUOUS
 10
9.875
 20
-21.9496569135
 30
0.0
 11
0.0
 21
0.2503430865
 31
0.0
 40
0.9986295348
 41
-3.1415926536
 42
-1.5707963268
  0
ELLIPSE
  5
66E
100
AcDbEntity
  8
RACCORDO
100
AcDbEllipse
 62
7
  6
CONTINUOUS
 10
-8.525
 20
-21.9496569135
 30
0.0
 11
-0.0
 21
0.2503430865
 31
0.0
 40
0.9986295348
 41
-4.7123889804
 42
-3.1415926536
  0
ELLIPSE
  5
66F
100
AcDbEntity
  8
IMPORT_IGES
100
AcDbEllipse
 62
7
  6
CONTINUOUS
 10
-1.65
 20
7.1287187079
 30
0.0
 11
0.3
 21
-0.0
 31
0.0
 40
0.2679491924
 41
0.0
 42
1.5707963268
  0
ELLIPSE
  5
670
100
AcDbEntity
  8
IMPORT_IGES
100
AcDbEllipse
 62
7
  6
CONTINUOUS
 10
3.0
 20
7.1287187079
 30
0.0
 11
0.3
 21
-0.0
 31
0.0
 40
0.2679491924
 41
1.5707963268
 42
3.1415926536
  0
ELLIPSE
  5
671
100
AcDbEntity
  8
RACCORDO
100
AcDbEllipse
 62
7
  6
CONTINUOUS
 10
-9.974923836
 20
-21.891254093
 30
0.0
 11
0.4473055582
 21
-0.2236357461
 31
0.0
 40
0.9998096356
 41
-2.6780516535
 42
-1.5707963219
  0
ELLIPSE
  5
672
100
AcDbEntity
  8
RACCORDO
100
AcDbEllipse
 62
7
  6
CONTINUOUS
 10
11.324923836
 20
21.891254093
 30
0.0
 11
0.4473055582
 21
-0.2236357461
 31
0.0
 40
0.9998096356
 41
0.4635410001
 42
1.5707963317
  0
ELLIPSE
  5
673
100
AcDbEntity
  8
RACCORDO
100
AcDbEllipse
 62
7
  6
CONTINUOUS
 10
11.324923836
 20
-21.891254093
 30
0.0
 11
0.4473055582
 21
0.2236357461
 31
0.0
 40
0.9998096356
 41
-1.5707963317
 42
-0.4635410001
  0
ELLIPSE
  5
674
100
AcDbEntity
  8
RACCORDO
100
AcDbEllipse
 62
7
  6
CONTINUOUS
 10
-9.974923836
 20
21.891254093
 30
0.0
 11
0.4473055582
 21
0.2236357461
 31
0.0
 40
0.9998096356
 41
1.5707963219
 42
2.6780516535
  0
ELLIPSE
  5
675
100
AcDbEntity
  8
RACCORDO
100
AcDbEllipse
 62
7
  6
CONTINUOUS
 10
-5.7844660369
 20
-3.9094850761
 30
0.0
 11
-0.0
 21
0.5
 31
0.0
 40
0.0087268678
 41
0.0087266463
 42
0.0160529168
  0
ELLIPSE
  5
676
100
AcDbEntity
  8
RACCORDO
100
AcDbEllipse
 62
7
  6
CONTINUOUS
 10
-5.7843803371
 20
5.0093993763
 30
0.0
 11
-0.0
 21
0.5
 31
0.0
 40
0.0087268678
 41
-3.1598475701
 42
-3.1503192998
  0
ELLIPSE
  5
677
100
AcDbEntity
  8
RACCORDO
100
AcDbEllipse
 62
7
  6
CONTINUOUS
 10
-2.9843803371
 20
5.0093993763
 30
0.0
 11
-0.0
 21
0.5
 31
0.0
 40
0.0087268678
 41
-3.1598474595
 42
-3.1503192999
  0
ELLIPSE
  5
678
100
AcDbEntity
  8
RACCORDO
100
AcDbEllipse
 62
7
  6
CONTINUOUS
 10
-2.9842179491
 20
6.6092369883
 30
0.0
 11
0.0
 21
0.5
 31
0.0
 40
0.0087268678
 41
-3.1630502992
 42
-3.1503192998
  0
ELLIPSE
  5
679
100
AcDbEntity
  8
RACCORDO
100
AcDbEllipse
 62
7
  6
CONTINUOUS
 10
-1.8342179491
 20
6.6092369883
 30
0.0
 11
0.0
 21
0.5
 31
0.0
 40
0.0087268678
 41
-3.1630502585
 42
-3.1503192998
  0
ELLIPSE
  5
67A
100
AcDbEntity
  8
RACCORDO
100
AcDbEllipse
 62
7
  6
CONTINUOUS
 10
-1.8340461476
 20
7.9590651868
 30
0.0
 11
0.0
 21
0.5
 31
0.0
 40
0.0087268678
 41
-3.1657526356
 42
-3.1503192998
  0
ELLIPSE
  5
67B
100
AcDbEntity
  8
RACCORDO
100
AcDbEllipse
 62
7
  6
CONTINUOUS
 10
3.1840461476
 20
7.9590651868
 30
0.0
 11
0.0
 21
0.5
 31
0.0
 40
0.0087268678
 41
-3.1328660073
 42
-3.1174326648
  0
ELLIPSE
  5
67C
100
AcDbEntity
  8
RACCORDO
100
AcDbEllipse
 62
7
  6
CONTINUOUS
 10
-9.7177234819
 20
22.3344902759
 30
0.0
 11
0.25
 21
0.0
 31
0.0
 40
0.0524077793
 41
-2.6154833905
 42
-1.5707963268
  0
ELLIPSE
  5
67D
100
AcDbEntity
  8
RACCORDO
100
AcDbEllipse
 62
7
  6
CONTINUOUS
 10
11.0677234819
 20
22.3344902759
 30
0.0
 11
0.25
 21
0.0
 31
0.0
 40
0.0524077793
 41
-1.5707963268
 42
-0.5261092631
  0
ELLIPSE
  5
67E
100
AcDbEntity
  8
RACCORDO
100
AcDbEllipse
 62
7
  6
CONTINUOUS
 10
-9.7177234819
 20
-22.3344902759
 30
0.0
 11
0.25
 21
-0.0
 31
0.0
 40
0.0524077793
 41
1.5707963268
 42
2.6154833905
  0
ELLIPSE
  5
67F
100
AcDbEntity
  8
RACCORDO
100
AcDbEllipse
 62
7
  6
CONTINUOUS
 10
11.0677234819
 20
-22.3344902759
 30
0.0
 11
0.25
 21
0.0
 31
0.0
 40
0.0524077793
 41
0.5261092631
 42
1.5707963268
  0
ELLIPSE
  5
680
100
AcDbEntity
  8
RACCORDO
100
AcDbEllipse
 62
7
  6
CONTINUOUS
 10
-3.2220826234
 20
-22.3737961104
 30
0.0
 11
0.5
 21
-0.0
 31
0.0
 40
0.0524077793
 41
1.5707963268
 42
3.1357748894
  0
ELLIPSE
  5
681
100
AcDbEntity
  8
RACCORDO
100
AcDbEllipse
 62
7
  6
CONTINUOUS
 10
-3.2220826234
 20
-23.7970910851
 30
0.0
 11
0.5
 21
0.0
 31
0.0
 40
0.0058178298
 41
2.495179495
 42
3.1357748894
  0
ELLIPSE
  5
682
100
AcDbEntity
  8
RACCORDO
100
AcDbEllipse
 62
7
  6
CONTINUOUS
 10
4.5720826234
 20
-23.7970910851
 30
0.0
 11
0.5
 21
0.0
 31
0.0
 40
0.0058178298
 41
0.0058177642
 42
0.6464131586
  0
ELLIPSE
  5
683
100
AcDbEntity
  8
RACCORDO
100
AcDbEllipse
 62
7
  6
CONTINUOUS
 10
4.5720826234
 20
-22.3737961104
 30
0.0
 11
0.5
 21
-0.0
 31
0.0
 40
0.0524077793
 41
0.0058177642
 42
1.5707963268
  0
ELLIPSE
  5
684
100
AcDbEntity
  8
RACCORDO
100
AcDbEllipse
 62
7
  6
CONTINUOUS
 10
-3.2220826234
 20
23.7970910851
 30
0.0
 11
0.5
 21
0.0
 31
0.0
 40
0.0058178298
 41
-3.1357748894
 42
-2.495179495
  0
ELLIPSE
  5
685
100
AcDbEntity
  8
RACCORDO
100
AcDbEllipse
 62
7
  6
CONTINUOUS
 10
-3.2220826234
 20
22.3737961104
 30
0.0
 11
0.5
 21
-0.0
 31
0.0
 40
0.0524077793
 41
-3.1357748894
 42
-1.5707963268
  0
ELLIPSE
  5
686
100
AcDbEntity
  8
RACCORDO
100
AcDbEllipse
 62
7
  6
CONTINUOUS
 10
4.5720826234
 20
22.3737961104
 30
0.0
 11
0.5
 21
0.0
 31
0.0
 40
0.0524077793
 41
-1.5707963268
 42
-0.0058177642
  0
ELLIPSE
  5
687
100
AcDbEntity
  8
RACCORDO
100
AcDbEllipse
 62
7
  6
CONTINUOUS
 10
3.1842179491
 20
6.6092369883
 30
0.0
 11
0.0
 21
0.5
 31
0.0
 40
0.0087268678
 41
-3.1328660073
 42
-3.1201350487
  0
ELLIPSE
  5
688
100
AcDbEntity
  8
RACCORDO
100
AcDbEllipse
 62
7
  6
CONTINUOUS
 10
4.3342179491
 20
6.6092369883
 30
0.0
 11
0.0
 21
0.5
 31
0.0
 40
0.0087268678
 41
-3.1328660073
 42
-3.1201350026
  0
ELLIPSE
  5
689
100
AcDbEntity
  8
RACCORDO
100
AcDbEllipse
 62
7
  6
CONTINUOUS
 10
4.3343803371
 20
5.0093993763
 30
0.0
 11
-0.0
 21
0.5
 31
0.0
 40
0.0087268678
 41
-3.1328660073
 42
-3.1233378477
  0
ELLIPSE
  5
68A
100
AcDbEntity
  8
RACCORDO
100
AcDbEllipse
 62
7
  6
CONTINUOUS
 10
7.1344660369
 20
-3.9094850761
 30
0.0
 11
0.0
 21
0.5
 31
0.0
 40
0.0087268678
 41
-0.0160529048
 42
-0.0087266463
  0
ELLIPSE
  5
68B
100
AcDbEntity
  8
RACCORDO
100
AcDbEllipse
 62
7
  6
CONTINUOUS
 10
7.1343803371
 20
5.0093993763
 30
0.0
 11
-0.0
 21
0.5
 31
0.0
 40
0.0087268678
 41
-3.1328660073
 42
-3.1233377168
  0
ELLIPSE
  5
68C
100
AcDbEntity
  8
RACCORDO
100
AcDbEllipse
 62
7
  6
CONTINUOUS
 10
4.5720826234
 20
23.7970910851
 30
0.0
 11
0.5
 21
0.0
 31
0.0
 40
0.0058178298
 41
-0.6464131586
 42
-0.0058177642
  0
ELLIPSE
  5
68D
100
AcDbEntity
  8
RACCORDO
100
AcDbEllipse
 62
7
  6
CONTINUOUS
 10
9.1822765181
 20
-22.3344902759
 30
0.0
 11
0.25
 21
0.0
 31
0.0
 40
0.0524077793
 41
1.5707963268
 42
3.1357748894
  0
ELLIPSE
  5
68E
100
AcDbEntity
  8
RACCORDO
100
AcDbEllipse
 62
7
  6
CONTINUOUS
 10
-7.8322765181
 20
22.3344902759
 30
0.0
 11
0.25
 21
0.0
 31
0.0
 40
0.0524077793
 41
-1.5707963268
 42
-0.0058177642
  0
ELLIPSE
  5
68F
100
AcDbEntity
  8
RACCORDO
100
AcDbEllipse
 62
7
  6
CONTINUOUS
 10
-7.8322765181
 20
-22.3344902759
 30
0.0
 11
0.25
 21
0.0
 31
0.0
 40
0.0524077793
 41
0.0058177642
 42
1.5707963268
  0
ELLIPSE
  5
690
100
AcDbEntity
  8
RACCORDO
100
AcDbEllipse
 62
7
  6
CONTINUOUS
 10
9.1822765181
 20
22.3344902759
 30
0.0
 11
0.25
 21
0.0
 31
0.0
 40
0.0524077793
 41
-3.1357748894
 42
-1.5707963268
  0
ELLIPSE
  5
691
100
AcDbEntity
  8
RACCORDO
100
AcDbEllipse
 62
7
  6
CONTINUOUS
 10
-41.3242194855
 20
22.0658992808
 30
0.0
 11
0.0
 21
0.5
 31
0.0
 40
1.0
 41
-4.0518209293
 42
-3.1590459461
  0
ELLIPSE
  5
692
100
AcDbEntity
  8
RACCORDO
100
AcDbEllipse
 62
7
  6
CONTINUOUS
 10
-41.3242194855
 20
-22.0658992808
 30
0.0
 11
0.5
 21
0.0
 31
0.0
 40
1.0
 41
1.5882496193
 42
2.4810246025
  0
ENDSEC
  0
SECTION
  2
OBJECTS
  0
DICTIONARY
  5
C
100
AcDbDictionary
280
0
281
1
  3
ACAD_GROUP
350
D
  3
ACAD_MLINESTYLE
350
17
  3
ACAD_LAYOUT
350
1A
  3
ACAD_PLOTSETTINGS
350
19
  3
ACAD_PLOTSTYLENAME
350
E
  0
DICTIONARY
  5
D
102
{ACAD_REACTORS
330
C
102
}
100
AcDbDictionary
280
0
281
1
  0
ACDBDICTIONARYWDFLT
  5
E
102
{ACAD_REACTORS
330
C
102
}
100
AcDbDictionary
281
1
  3
Normal
350
F
100
AcDbDictionaryWithDefault
340
F
  0
DICTIONARY
  5
17
102
{ACAD_REACTORS
330
C
102
}
100
AcDbDictionary
280
0
281
1
  3
Standard
350
18
  0
DICTIONARY
  5
19
102
{ACAD_REACTORS
330
C
102
}
100
AcDbDictionary
281
1
  0
DICTIONARY
  5
1A
102
{ACAD_REACTORS
330
C
102
}
100
AcDbDictionary
281
1
  3
Model
350
693
  3
Layout1
350
694
  0
ACDBPLACEHOLDER
  5
F
102
{ACAD_REACTORS
330
E
102
}
  0
MLINESTYLE
  5
18
102
{ACAD_REACTORS
330
17
102
}
100
AcDbMlineStyle
  2
STANDARD
 70
0
  3

 62
256
 51
90.0
 52
90.0
 71
2
 49
0.5
 62
256
  6
BYLAYER
 49
-0.5
 62
256
  6
BYLAYER
  0
LAYOUT
  5
693
102
{ACAD_REACTORS
330
1A
102
}
100
AcDbPlotSettings
  1

  2
none_device
  4

  6

 40
0.0
 41
0.0
 42
0.0
 43
0.0
 44
210.0
 45
297.0
 46
0.0
 47
0.0
 48
0.0
 49
0.0
140
0.0
141
0.0
142
1.0
143
1.0
 70
1024
 72
1
 73
0
 74
0
  7

 75
0
147
1.0
148
0.0
149
0.0
100
AcDbLayout
  1
Model
 70
0
 71
0
 10
0.0
 20
0.0
 11
210.0
 21
297.0
 12
0.0
 22
0.0
 32
0.0
 14
0.0
 24
0.0
 34
0.0
 15
0.0
 25
0.0
 35
0.0
146
0.0
 13
0.0
 23
0.0
 33
0.0
 16
1.0
 26
0.0
 36
0.0
 17
0.0
 27
1.0
 37
0.0
 76
0
330
21D
345
0
346
0
  0
LAYOUT
  5
694
102
{ACAD_REACTORS
330
1A
102
}
100
AcDbPlotSettings
  1

  2
none_device
  4

  6

 40
0.0
 41
0.0
 42
0.0
 43
0.0
 44
210.0
 45
297.0
 46
0.0
 47
0.0
 48
0.0
 49
0.0
140
0.0
141
0.0
142
1.0
143
1.0
 70
0
 72
1
 73
0
 74
0
  7

 75
0
147
1.0
148
0.0
149
0.0
100
AcDbLayout
  1
Layout1
 70
0
 71
1
 10
0.0
 20
0.0
 11
210.0
 21
297.0
 12
0.0
 22
0.0
 32
0.0
 14
0.0
 24
0.0
 34
0.0
 15
0.0
 25
0.0
 35
0.0
146
0.0
 13
0.0
 23
0.0
 33
0.0
 16
1.0
 26
0.0
 36
0.0
 17
0.0
 27
1.0
 37
0.0
 76
0
330
21E
345
0
346
0
  0
ENDSEC
  0
EOF
