  0
SECTION
  2
HEADER
  9
$ACADVER
  1
AC1024
  9
$DWGCODEPAGE
  3
ANSI_1252
  9
$EXTMAX
 10
297.0
 20
210.0
 30
0.0
  9
$EXTMIN
 10
0.0
 20
0.0
 30
0.0
  9
$LIMMIN
 10
0.0
 20
0.0
  9
$LIMMAX
 10
297.0
 20
210.0
  9
$VIEWCTR
 10
148.5
 20
105.0
  9
$VIEWSIZE
 40
210.0
  9
$CLAYER
  8
0
  9
$LTSCALE
 40
16.335
  9
$CELTYPE
  6
BYLAYER
  9
$DIMSCALE
 40
1.0
  9
$DIMASZ
 40
3.0
  9
$DIMEXO
 40
0.5
  9
$DIMDLI
 40
11.286
  9
$DIMEXE
 40
1.5
  9
$DIMCEN
 40
2.673
  9
$DIMLFAC
 40
1.0
  9
$DIMBLK
  1
_FILLED
  9
$DIMALT
 70
0
  9
$DIMALTF
 40
0.0393700787
  9
$DIMTXT
 40
3.0
  9
$DIMTOL
 70
1
  9
$DIMLIM
 70
0
  9
$DIMTFAC
 40
1.0
  9
$DIMTP
 40
0.01
  9
$DIMTM
 40
0.01
  9
$DIMGAP
 40
0.625
  9
$DIMDSEP
 70
44
  9
$AUNITS
 70
0
  9
$PDMODE
 70
3
  9
$PDSIZE
 40
3.0
  9
$HANDSEED
  5
4E8
  9
$TILEMODE
 70
1
  9
$MEASUREMENT
 70
1
  9
$INSUNITS
 70
4
  0
ENDSEC
  0
SECTION
  2
CLASSES
  0
CLASS
  1
ACDBDICTIONARYWDFLT
  2
AcDbDictionaryWithDefault
  3
AutoCAD 2000
 90
0
 91
1
280
0
281
0
  0
CLASS
  1
ACDBPLACEHOLDER
  2
AcDbPlaceHolder
  3
AutoCAD 2000
 90
0
 91
1
280
0
281
0
  0
CLASS
  1
LAYOUT
  2
AcDbLayout
  3
AutoCAD 2000
 90
0
 91
0
280
0
281
0
  0
ENDSEC
  0
SECTION
  2
TABLES
  0
TABLE
  2
VPORT
  5
8
100
AcDbSymbolTable
 70
2
  0
VPORT
  5
1F4
100
AcDbSymbolTableRecord
100
AcDbViewportTableRecord
  2
*ACTIVE
 70
0
 10
0.0
 20
0.0
 11
1.0
 21
1.0
 12
148.5
 22
105.0
 13
0.0
 23
0.0
 14
1.0
 24
1.0
 15
0.0
 25
0.0
 16
0.0
 26
0.0
 36
1.0
 17
0.0
 27
0.0
 37
0.0
 40
210.0
 41
1.4142857143
 42
50.0
 43
0.0
 44
0.0
 50
0.0
 51
0.0
 71
0
 72
100
 73
1
 74
1
 75
0
 76
0
 77
0
 78
0
  0
ENDTAB
  0
TABLE
  2
LTYPE
  5
5
100
AcDbSymbolTable
 70
6
  0
LTYPE
  5
14
100
AcDbSymbolTableRecord
100
AcDbLinetypeTableRecord
  2
BYBLOCK
 70
0
  3

 72
65
 73
0
 40
0.0
  0
LTYPE
  5
15
100
AcDbSymbolTableRecord
100
AcDbLinetypeTableRecord
  2
BYLAYER
 70
0
  3

 72
65
 73
0
 40
0.0
  0
LTYPE
  5
16
100
AcDbSymbolTableRecord
100
AcDbLinetypeTableRecord
  2
CONTINUOUS
 70
64
  3
Solid line
 72
65
 73
0
 40
0.0
  0
LTYPE
  5
1F5
100
AcDbSymbolTableRecord
100
AcDbLinetypeTableRecord
  2
CENTER
 70
64
  3
____ _ ____ _ ____ _ ____ _ ____ _ ____ _ ____
 72
65
 73
4
 40
0.6
 49
0.375
 74
0
 49
-0.075
 74
0
 49
0.075
 74
0
 49
-0.075
 74
0
  0
LTYPE
  5
1F6
100
AcDbSymbolTableRecord
100
AcDbLinetypeTableRecord
  2
HIDDEN
 70
64
  3
- - - - - - - - - - - - - - - - - - - -
 72
65
 73
2
 40
0.2
 49
0.1
 74
0
 49
-0.1
 74
0
  0
LTYPE
  5
1F7
100
AcDbSymbolTableRecord
100
AcDbLinetypeTableRecord
  2
PHANTOM
 70
64
  3
_____ _ _ _____ _ _ _____ _ _ _____
 72
65
 73
6
 40
0.8
 49
0.45
 74
0
 49
-0.05
 74
0
 49
0.1
 74
0
 49
-0.05
 74
0
 49
0.1
 74
0
 49
-0.05
 74
0
  0
LTYPE
  5
1F8
100
AcDbSymbolTableRecord
100
AcDbLinetypeTableRecord
  2
DOT
 70
64
  3
. . . . . . . . . . . . . . . . . . . .
 72
65
 73
2
 40
0.2
 49
0.1
 74
0
 49
-0.1
 74
0
  0
LTYPE
  5
1F9
100
AcDbSymbolTableRecord
100
AcDbLinetypeTableRecord
  2
DASHED
 70
64
  3
- - - - - - - - - - - - - - - - - - - -
 72
65
 73
2
 40
0.2
 49
0.1
 74
0
 49
-0.1
 74
0
  0
ENDTAB
  0
TABLE
  2
LAYER
  5
2
100
AcDbSymbolTable
 70
36
  0
LAYER
  5
10
100
AcDbSymbolTableRecord
100
AcDbLayerTableRecord
  2
0
 70
0
 62
7
  6
CONTINUOUS
370
-3
390
F
  0
LAYER
  5
1FA
100
AcDbSymbolTableRecord
100
AcDbLayerTableRecord
  2
DEFAULT_1
 70
0
 62
7
  6
CENTER
370
-3
390
F
  0
LAYER
  5
1FB
100
AcDbSymbolTableRecord
100
AcDbLayerTableRecord
  2
DEFAULT_2
 70
0
 62
7
  6
HIDDEN
370
-3
390
F
  0
LAYER
  5
1FC
100
AcDbSymbolTableRecord
100
AcDbLayerTableRecord
  2
DEFAULT_3
 70
0
 62
7
  6
PHANTOM
370
-3
390
F
  0
LAYER
  5
1FD
100
AcDbSymbolTableRecord
100
AcDbLayerTableRecord
  2
ASSI
 70
0
 62
7
  6
CONTINUOUS
370
-3
390
F
  0
LAYER
  5
1FE
100
AcDbSymbolTableRecord
100
AcDbLayerTableRecord
  2
COORDINATE
 70
0
 62
7
  6
CONTINUOUS
370
-3
390
F
  0
LAYER
  5
1FF
100
AcDbSymbolTableRecord
100
AcDbLayerTableRecord
  2
COORD_ORIGINE
 70
0
 62
7
  6
CONTINUOUS
370
-3
390
F
  0
LAYER
  5
200
100
AcDbSymbolTableRecord
100
AcDbLayerTableRecord
  2
CURVE
 70
0
 62
7
  6
CONTINUOUS
370
-3
390
F
  0
LAYER
  5
201
100
AcDbSymbolTableRecord
100
AcDbLayerTableRecord
  2
DRAFT
 70
0
 62
7
  6
CONTINUOUS
370
-3
390
F
  0
LAYER
  5
202
100
AcDbSymbolTableRecord
100
AcDbLayerTableRecord
  2
IMPORT
 70
0
 62
7
  6
CONTINUOUS
370
-3
390
F
  0
LAYER
  5
203
100
AcDbSymbolTableRecord
100
AcDbLayerTableRecord
  2
INCISIONI_LASER
 70
0
 62
7
  6
CONTINUOUS
370
-3
390
F
  0
LAYER
  5
204
100
AcDbSymbolTableRecord
100
AcDbLayerTableRecord
  2
INTF_1
 70
0
 62
7
  6
CONTINUOUS
370
-3
390
F
  0
LAYER
  5
205
100
AcDbSymbolTableRecord
100
AcDbLayerTableRecord
  2
INTF_11
 70
0
 62
7
  6
CONTINUOUS
370
-3
390
F
  0
LAYER
  5
206
100
AcDbSymbolTableRecord
100
AcDbLayerTableRecord
  2
INTF_12
 70
0
 62
7
  6
CONTINUOUS
370
-3
390
F
  0
LAYER
  5
207
100
AcDbSymbolTableRecord
100
AcDbLayerTableRecord
  2
LAY0001
 70
0
 62
7
  6
CONTINUOUS
370
-3
390
F
  0
LAYER
  5
208
100
AcDbSymbolTableRecord
100
AcDbLayerTableRecord
  2
NOTE
 70
0
 62
7
  6
CONTINUOUS
370
-3
390
F
  0
LAYER
  5
209
100
AcDbSymbolTableRecord
100
AcDbLayerTableRecord
  2
PIANI
 70
0
 62
7
  6
CONTINUOUS
370
-3
390
F
  0
LAYER
  5
20A
100
AcDbSymbolTableRecord
100
AcDbLayerTableRecord
  2
PIANI_ORIGINE
 70
0
 62
7
  6
CONTINUOUS
370
-3
390
F
  0
LAYER
  5
20B
100
AcDbSymbolTableRecord
100
AcDbLayerTableRecord
  2
PIANI_RIFERIMENTO
 70
0
 62
7
  6
CONTINUOUS
370
-3
390
F
  0
LAYER
  5
20C
100
AcDbSymbolTableRecord
100
AcDbLayerTableRecord
  2
PUNTI
 70
0
 62
7
  6
CONTINUOUS
370
-3
390
F
  0
LAYER
  5
20D
100
AcDbSymbolTableRecord
100
AcDbLayerTableRecord
  2
RACCORDO
 70
0
 62
7
  6
CONTINUOUS
370
-3
390
F
  0
LAYER
  5
20E
100
AcDbSymbolTableRecord
100
AcDbLayerTableRecord
  2
SMUSSO
 70
0
 62
7
  6
CONTINUOUS
370
-3
390
F
  0
LAYER
  5
20F
100
AcDbSymbolTableRecord
100
AcDbLayerTableRecord
  2
SNAPLINE
 70
0
 62
7
  6
CONTINUOUS
370
-3
390
F
  0
LAYER
  5
210
100
AcDbSymbolTableRecord
100
AcDbLayerTableRecord
  2
SUPERFICI
 70
0
 62
7
  6
CONTINUOUS
370
-3
390
F
  0
LAYER
  5
211
100
AcDbSymbolTableRecord
100
AcDbLayerTableRecord
  2
TRASH
 70
0
 62
7
  6
CONTINUOUS
370
-3
390
F
  0
LAYER
  5
212
100
AcDbSymbolTableRecord
100
AcDbLayerTableRecord
  2
XSEC_DATUMS
 70
0
 62
7
  6
CONTINUOUS
370
-3
390
F
  0
LAYER
  5
213
100
AcDbSymbolTableRecord
100
AcDbLayerTableRecord
  2
Z030100_COP
 70
0
 62
7
  6
CONTINUOUS
370
-3
390
F
  0
ENDTAB
  0
TABLE
  2
STYLE
  5
3
100
AcDbSymbolTable
 70
1
  0
STYLE
  5
11
100
AcDbSymbolTableRecord
100
AcDbTextStyleTableRecord
  2
STANDARD
 70
0
 40
0.0
 41
0.8
 50
0.0
 71
0
 42
0.2
  3
txt
  4

  0
STYLE
  5
214
100
AcDbSymbolTableRecord
100
AcDbTextStyleTableRecord
  2
TEXTSTYLE_1
 70
0
 40
0.0
 41
0.8
 50
0.0
 71
0
 42
0.2
  3
gdt
  4

  0
ENDTAB
  0
TABLE
  2
VIEW
  5
6
100
AcDbSymbolTable
 70
0
  0
ENDTAB
  0
TABLE
  2
UCS
  5
7
100
AcDbSymbolTable
 70
0
  0
ENDTAB
  0
TABLE
  2
APPID
  5
9
100
AcDbSymbolTable
 70
1
  0
APPID
  5
215
100
AcDbSymbolTableRecord
100
AcDbRegAppTableRecord
  2
ACAD
 70
0
  0
ENDTAB
  0
TABLE
  2
BLOCK_RECORD
  5
1
100
AcDbSymbolTable
 70
0
  0
BLOCK_RECORD
  5
216
100
AcDbSymbolTableRecord
100
AcDbBlockTableRecord
  2
*Model_Space
  0
BLOCK_RECORD
  5
217
100
AcDbSymbolTableRecord
100
AcDbBlockTableRecord
  2
*Paper_Space
  0
BLOCK_RECORD
  5
218
100
AcDbSymbolTableRecord
100
AcDbBlockTableRecord
  2
_FILLED
  0
BLOCK_RECORD
  5
219
100
AcDbSymbolTableRecord
100
AcDbBlockTableRecord
  2
*D0
  0
BLOCK_RECORD
  5
21A
100
AcDbSymbolTableRecord
100
AcDbBlockTableRecord
  2
*D1
  0
BLOCK_RECORD
  5
21B
100
AcDbSymbolTableRecord
100
AcDbBlockTableRecord
  2
*D2
  0
BLOCK_RECORD
  5
21C
100
AcDbSymbolTableRecord
100
AcDbBlockTableRecord
  2
*D3
  0
ENDTAB
  0
TABLE
  2
DIMSTYLE
  5
A
100
AcDbSymbolTable
 70
1
100
AcDbDimStyleTable
 71
0
  0
DIMSTYLE
105
21D
100
AcDbSymbolTableRecord
100
AcDbDimStyleTableRecord
  2
STANDARD
 70
0
  3

  4

 40
1.0
 41
3.0
 42
0.5
 43
0.38
 44
1.5
 45
0.0
 46
0.0
 47
0.01
 48
0.01
140
3.0
141
0.0
142
0.0
143
25.4
144
1.0
145
0.0
146
1.0
147
0.625
 71
1
 72
0
 73
0
 74
0
 75
0
 76
0
 77
1
 78
8
 79
2
170
0
171
1
172
0
173
0
174
0
175
0
176
0
177
0
178
0
270
2
179
1
271
2
272
2
273
2
274
2
275
0
280
0
281
0
282
0
283
1
284
8
285
0
286
0
287
3
288
0
340
11
278
44
341
218
342
218
343
218
344
218
  0
DIMSTYLE
105
21E
100
AcDbSymbolTableRecord
100
AcDbDimStyleTableRecord
  2
DIMSTYLE_1
 70
0
  3

  4

 40
1.0
 41
3.0
 42
0.5
 43
0.38
 44
1.5
 45
0.0
 46
0.0
 47
0.0
 48
0.0
140
3.0
141
0.0
142
0.0
143
25.4
144
1.0
145
0.0
146
1.0
147
0.75
 71
0
 72
0
 73
0
 74
0
 75
0
 76
0
 77
1
 78
8
 79
2
170
0
171
1
172
0
173
0
174
0
175
0
176
0
177
0
178
0
270
2
179
2
271
2
272
2
273
2
274
2
275
0
280
0
281
0
282
0
283
1
284
8
285
0
286
0
287
3
288
0
340
11
278
44
341
218
342
218
343
218
344
218
  0
DIMSTYLE
105
21F
100
AcDbSymbolTableRecord
100
AcDbDimStyleTableRecord
  2
DIMSTYLE_2
 70
0
  3

  4

 40
1.0
 41
3.0
 42
0.5
 43
0.38
 44
1.5
 45
0.0
 46
0.0
 47
0.0
 48
0.0
140
3.0
141
0.0
142
0.0
143
25.4
144
1.0
145
0.0
146
1.0
147
0.75
 71
0
 72
0
 73
0
 74
0
 75
0
 76
0
 77
1
 78
8
 79
2
170
0
171
1
172
0
173
0
174
0
175
0
176
0
177
0
178
0
270
2
179
1
271
1
272
1
273
2
274
2
275
0
280
0
281
0
282
0
283
1
284
8
285
0
286
0
287
3
288
0
340
11
278
44
341
218
342
218
343
218
344
218
  0
ENDTAB
  0
ENDSEC
  0
SECTION
  2
BLOCKS
  0
BLOCK
  5
20
100
AcDbEntity
  8
0
100
AcDbBlockBegin
  2
*Model_Space
 70
0
 10
0.0
 20
0.0
 30
0.0
  3
*Model_Space
  1

  0
ENDBLK
  5
21
100
AcDbEntity
  8
0
100
AcDbBlockEnd
  0
BLOCK
  5
1C
100
AcDbEntity
  8
0
100
AcDbBlockBegin
  2
*Paper_Space
 70
0
 10
0.0
 20
0.0
 30
0.0
  3
*Paper_Space
  1

  0
ENDBLK
  5
1D
100
AcDbEntity
  8
0
100
AcDbBlockEnd
  0
BLOCK
  5
220
100
AcDbEntity
  8
0
100
AcDbBlockBegin
  2
_FILLED
 70
64
 10
0.0
 20
0.0
 30
0.0
  3
_FILLED
  1

  0
SOLID
  5
221
100
AcDbEntity
  8
0
  6
BYBLOCK
 62
0
100
AcDbTrace
 10
0.0
 20
0.0
 30
0.0
 11
-1.0
 21
0.3166666667
 31
0.0
 12
-1.0
 22
-0.3166666667
 32
0.0
 13
-1.0
 23
-0.3166666667
 33
0.0
  0
ENDBLK
  5
222
100
AcDbEntity
  8
0
  6
BYBLOCK
 62
0
100
AcDbBlockEnd
  0
BLOCK
  5
223
100
AcDbEntity
  8
0
100
AcDbBlockBegin
 62
7
  6
CONTINUOUS
  2
*D0
 70
65
 10
0.0
 20
0.0
 30
0.0
  3
*D0
  1

  0
MTEXT
  5
224
100
AcDbEntity
  8
0
100
AcDbMText
 62
7
  6
CONTINUOUS
  7
STANDARD
 71
2
 72
1
 10
-0.675
 20
36.25
 30
0.0
 11
1.0
 21
0.0
 31
0.0
 73
2
 44
0.9
  1
{\ftxt;\W0.0001;\H0.0001;\~}{\ftxt;\W2.8571428571;\H3.0; }{\ftxt;\W0.0001;\H0.0001;\~}
 40
3.0
 41
12.8571428571
  0
LINE
  5
225
100
AcDbEntity
  8
0
100
AcDbLine
 62
7
  6
CONTINUOUS
 10
-11.825
 20
22.3911779406
 30
0.0
 11
-11.825
 21
34.0
 31
0.0
  0
LINE
  5
226
100
AcDbEntity
  8
0
100
AcDbLine
 62
7
  6
CONTINUOUS
 10
10.475
 20
22.3911779406
 30
0.0
 11
10.475
 21
34.0
 31
0.0
  0
LINE
  5
227
100
AcDbEntity
  8
0
100
AcDbLine
 62
7
  6
CONTINUOUS
 10
-11.825
 20
32.5
 30
0.0
 11
-0.675
 21
32.5
 31
0.0
  0
LINE
  5
228
100
AcDbEntity
  8
0
100
AcDbLine
 62
7
  6
CONTINUOUS
 10
10.475
 20
32.5
 30
0.0
 11
-0.675
 21
32.5
 31
0.0
  0
INSERT
  5
229
100
AcDbEntity
  8
0
100
AcDbBlockReference
 62
7
  6
CONTINUOUS
  2
_FILLED
 10
-11.825
 20
32.5
 30
0.0
 41
3.0
 42
3.0
 43
3.0
 50
180.0
  0
INSERT
  5
22A
100
AcDbEntity
  8
0
100
AcDbBlockReference
 62
7
  6
CONTINUOUS
  2
_FILLED
 10
10.475
 20
32.5
 30
0.0
 41
3.0
 42
3.0
 43
3.0
  0
ENDBLK
  5
22B
100
AcDbEntity
  8
0
  6
BYBLOCK
 62
0
100
AcDbBlockEnd
  0
BLOCK
  5
22C
100
AcDbEntity
  8
0
100
AcDbBlockBegin
 62
7
  6
CONTINUOUS
  2
*D1
 70
65
 10
0.0
 20
0.0
 30
0.0
  3
*D1
  1

  0
MTEXT
  5
22D
100
AcDbEntity
  8
0
100
AcDbMText
 62
7
  6
CONTINUOUS
  7
STANDARD
 71
2
 72
1
 10
-39.1377095121
 20
46.25
 30
0.0
 11
1.0
 21
0.0
 31
0.0
 73
2
 44
0.9
  1
{\ftxt;\W0.0001;\H0.0001;\~}{\ftxt;\W2.6428571429;\H3.0; }{\ftxt;\W0.0001;\H0.0001;\~}
 40
3.0
 41
11.8928571429
  0
LINE
  5
22E
100
AcDbEntity
  8
0
100
AcDbLine
 62
7
  6
CONTINUOUS
 10
-22.0877095121
 20
2.324948937
 30
0.0
 11
-22.0877095121
 21
44.0
 31
0.0
  0
LINE
  5
22F
100
AcDbEntity
  8
0
100
AcDbLine
 62
7
  6
CONTINUOUS
 10
-56.1877095121
 20
0.5
 30
0.0
 11
-56.1877095121
 21
44.0
 31
0.0
  0
LINE
  5
230
100
AcDbEntity
  8
0
100
AcDbLine
 62
7
  6
CONTINUOUS
 10
-22.0877095121
 20
42.5
 30
0.0
 11
-39.1377095121
 21
42.5
 31
0.0
  0
LINE
  5
231
100
AcDbEntity
  8
0
100
AcDbLine
 62
7
  6
CONTINUOUS
 10
-56.1877095121
 20
42.5
 30
0.0
 11
-39.1377095121
 21
42.5
 31
0.0
  0
INSERT
  5
232
100
AcDbEntity
  8
0
100
AcDbBlockReference
 62
7
  6
CONTINUOUS
  2
_FILLED
 10
-22.0877095121
 20
42.5
 30
0.0
 41
3.0
 42
3.0
 43
3.0
  0
INSERT
  5
233
100
AcDbEntity
  8
0
100
AcDbBlockReference
 62
7
  6
CONTINUOUS
  2
_FILLED
 10
-56.1877095121
 20
42.5
 30
0.0
 41
3.0
 42
3.0
 43
3.0
 50
180.0
  0
ENDBLK
  5
234
100
AcDbEntity
  8
0
  6
BYBLOCK
 62
0
100
AcDbBlockEnd
  0
BLOCK
  5
235
100
AcDbEntity
  8
0
100
AcDbBlockBegin
 62
7
  6
CONTINUOUS
  2
*D2
 70
65
 10
0.0
 20
0.0
 30
0.0
  3
*D2
  1

  0
MTEXT
  5
236
100
AcDbEntity
  8
0
100
AcDbMText
 62
7
  6
CONTINUOUS
  7
STANDARD
 71
2
 72
1
 10
-67.9376524831
 20
0.0
 30
0.0
 11
0.0
 21
1.0
 31
0.0
 73
2
 44
0.9
  1
{\ftxt;\W0.0001;\H0.0001;\~}{\ftxt;\W1.5714285714;\H3.0; }{\ftxt;\W0.0001;\H0.0001;\~}
 40
3.0
 41
7.0714285714
  0
LINE
  5
237
100
AcDbEntity
  8
0
100
AcDbLine
 62
7
  6
CONTINUOUS
 10
-49.439163945
 20
24.4869014213
 30
0.0
 11
-65.6876524831
 21
24.4869014213
 31
0.0
  0
LINE
  5
238
100
AcDbEntity
  8
0
100
AcDbLine
 62
7
  6
CONTINUOUS
 10
-49.439163945
 20
-24.4869014213
 30
0.0
 11
-65.6876524831
 21
-24.4869014213
 31
0.0
  0
LINE
  5
239
100
AcDbEntity
  8
0
100
AcDbLine
 62
7
  6
CONTINUOUS
 10
-64.1876524831
 20
24.4869014213
 30
0.0
 11
-64.1876524831
 21
0.0
 31
0.0
  0
LINE
  5
23A
100
AcDbEntity
  8
0
100
AcDbLine
 62
7
  6
CONTINUOUS
 10
-64.1876524831
 20
-24.4869014213
 30
0.0
 11
-64.1876524831
 21
0.0
 31
0.0
  0
INSERT
  5
23B
100
AcDbEntity
  8
0
100
AcDbBlockReference
 62
7
  6
CONTINUOUS
  2
_FILLED
 10
-64.1876524831
 20
24.4869014213
 30
0.0
 41
3.0
 42
3.0
 43
3.0
 50
90.0
  0
INSERT
  5
23C
100
AcDbEntity
  8
0
100
AcDbBlockReference
 62
7
  6
CONTINUOUS
  2
_FILLED
 10
-64.1876524831
 20
-24.4869014213
 30
0.0
 41
3.0
 42
3.0
 43
3.0
 50
270.0
  0
ENDBLK
  5
23D
100
AcDbEntity
  8
0
  6
BYBLOCK
 62
0
100
AcDbBlockEnd
  0
BLOCK
  5
23E
100
AcDbEntity
  8
0
100
AcDbBlockBegin
 62
7
  6
CONTINUOUS
  2
*D3
 70
65
 10
0.0
 20
0.0
 30
0.0
  3
*D3
  1

  0
MTEXT
  5
23F
100
AcDbEntity
  8
0
100
AcDbMText
 62
7
  6
CONTINUOUS
  7
STANDARD
 71
2
 72
1
 10
-33.8877095121
 20
36.25
 30
0.0
 11
1.0
 21
0.0
 31
0.0
 73
2
 44
0.9
  1
{\ftxt;\W0.0001;\H0.0001;\~}{\ftxt;\W2.8571428571;\H3.0; }{\ftxt;\W0.0001;\H0.0001;\~}
 40
3.0
 41
12.8571428571
  0
LINE
  5
240
100
AcDbEntity
  8
0
100
AcDbLine
 62
7
  6
CONTINUOUS
 10
-22.0877095121
 20
2.324948937
 30
0.0
 11
-22.0877095121
 21
34.0
 31
0.0
  0
LINE
  5
241
100
AcDbEntity
  8
0
100
AcDbLine
 62
7
  6
CONTINUOUS
 10
-45.6877095121
 20
22.3911779406
 30
0.0
 11
-45.6877095121
 21
34.0
 31
0.0
  0
LINE
  5
242
100
AcDbEntity
  8
0
100
AcDbLine
 62
7
  6
CONTINUOUS
 10
-22.0877095121
 20
32.5
 30
0.0
 11
-33.8877095121
 21
32.5
 31
0.0
  0
LINE
  5
243
100
AcDbEntity
  8
0
100
AcDbLine
 62
7
  6
CONTINUOUS
 10
-45.6877095121
 20
32.5
 30
0.0
 11
-33.8877095121
 21
32.5
 31
0.0
  0
INSERT
  5
244
100
AcDbEntity
  8
0
100
AcDbBlockReference
 62
7
  6
CONTINUOUS
  2
_FILLED
 10
-22.0877095121
 20
32.5
 30
0.0
 41
3.0
 42
3.0
 43
3.0
  0
INSERT
  5
245
100
AcDbEntity
  8
0
100
AcDbBlockReference
 62
7
  6
CONTINUOUS
  2
_FILLED
 10
-45.6877095121
 20
32.5
 30
0.0
 41
3.0
 42
3.0
 43
3.0
 50
180.0
  0
ENDBLK
  5
246
100
AcDbEntity
  8
0
  6
BYBLOCK
 62
0
100
AcDbBlockEnd
  0
ENDSEC
  0
SECTION
  2
ENTITIES
  0
DIMENSION
  5
247
100
AcDbEntity
  8
0
100
AcDbDimension
 62
7
  6
CONTINUOUS
  2
*D0
 10
10.475
 20
32.5
 30
0.0
 11
-1.1035714417
 21
32.5
 31
0.0
 70
160
 71
2
 72
2
 41
0.9
 42
22.3
  1
{\ftxt;\W0.0001;\H0.0001;\~}{\ftxt;\W2.8571428571;\H3.0; }{\ftxt;\W0.0001;\H0.0001;\~}
  3
DIMSTYLE_1
100
AcDbAlignedDimension
 13
-11.825
 23
21.8911779406
 33
0.0
 14
10.475
 24
21.8911779406
 34
0.0
100
AcDbRotatedDimension
  0
DIMENSION
  5
248
100
AcDbEntity
  8
0
100
AcDbDimension
 62
7
  6
CONTINUOUS
  2
*D1
 10
-56.1877095121
 20
42.5
 30
0.0
 11
-39.5662803154
 21
42.5
 31
0.0
 70
160
 71
2
 72
2
 41
0.9
 42
34.1
  1
{\ftxt;\W0.0001;\H0.0001;\~}{\ftxt;\W2.6428571429;\H3.0; }{\ftxt;\W0.0001;\H0.0001;\~}
  3
DIMSTYLE_1
100
AcDbAlignedDimension
 13
-22.0877095121
 23
1.824948937
 33
0.0
 14
-56.1877095121
 24
0.0
 34
0.0
 50
180.0
100
AcDbRotatedDimension
  0
DIMENSION
  5
249
100
AcDbEntity
  8
0
100
AcDbDimension
 62
7
  6
CONTINUOUS
  2
*D2
 10
-64.1876524831
 20
-24.4869014213
 30
0.0
 11
-64.1876524831
 21
-0.4285710549
 31
0.0
 70
160
 71
2
 72
2
 41
0.9
 42
48.9738028426
  1
{\ftxt;\W0.0001;\H0.0001;\~}{\ftxt;\W1.5714285714;\H3.0; }{\ftxt;\W0.0001;\H0.0001;\~}
  3
DIMSTYLE_2
100
AcDbAlignedDimension
 13
-48.939163945
 23
24.4869014213
 33
0.0
 14
-48.939163945
 24
-24.4869014213
 34
0.0
 50
270.0
100
AcDbRotatedDimension
  0
DIMENSION
  5
24A
100
AcDbEntity
  8
0
100
AcDbDimension
 62
7
  6
CONTINUOUS
  2
*D3
 10
-45.6877095121
 20
32.5
 30
0.0
 11
-34.3162809792
 21
32.5
 31
0.0
 70
160
 71
2
 72
2
 41
0.9
 42
23.6
  1
{\ftxt;\W0.0001;\H0.0001;\~}{\ftxt;\W2.8571428571;\H3.0; }{\ftxt;\W0.0001;\H0.0001;\~}
  3
DIMSTYLE_1
100
AcDbAlignedDimension
 13
-22.0877095121
 23
1.824948937
 33
0.0
 14
-45.6877095121
 24
21.8911779406
 34
0.0
 50
180.0
100
AcDbRotatedDimension
  0
LWPOLYLINE
  5
24B
100
AcDbEntity
  8
0
100
AcDbPolyline
 62
7
  6
CONTINUOUS
 90
5
 70
0
 43
0.3500000006
 10
2.3250000014
 20
34.9642857056
 10
2.682142745
 20
35.1785701904
 10
2.682142745
 20
35.8214281769
 10
2.3250000014
 20
36.2500016785
 10
1.4678571053
 20
36.2500016785
  0
LINE
  5
24C
100
AcDbEntity
  8
RACCORDO
100
AcDbLine
 62
250
  6
CONTINUOUS
 10
-9.1749957692
 20
24.5
 30
0.0
 11
-9.1880943479
 21
24.4869014213
 31
0.0
  0
LINE
  5
24D
100
AcDbEntity
  8
RACCORDO
100
AcDbLine
 62
250
  6
CONTINUOUS
 10
-8.925
 20
24.2500042308
 30
0.0
 11
-8.9380985787
 21
24.2369056521
 31
0.0
  0
LINE
  5
24E
100
AcDbEntity
  8
RACCORDO
100
AcDbLine
 62
7
  6
CONTINUOUS
 10
-11.5310139878
 20
22.3472253447
 30
0.0
 11
-11.5485170098
 21
22.3384745002
 31
0.0
  0
LINE
  5
24F
100
AcDbEntity
  8
RACCORDO
100
AcDbLine
 62
250
  6
CONTINUOUS
 10
-11.8075830976
 20
21.8998857286
 30
0.0
 11
-11.825
 21
21.8911779406
 31
0.0
  0
LINE
  5
250
100
AcDbEntity
  8
RACCORDO
100
AcDbLine
 62
7
  6
CONTINUOUS
 10
9.7250042308
 20
-24.5
 30
0.0
 11
7.8249957692
 21
-24.5
 31
0.0
  0
LINE
  5
251
100
AcDbEntity
  8
RACCORDO
100
AcDbLine
 62
7
  6
CONTINUOUS
 10
-9.1749957692
 20
-24.5
 30
0.0
 11
-11.0750042308
 21
-24.5
 31
0.0
  0
LINE
  5
252
100
AcDbEntity
  8
RACCORDO
100
AcDbLine
 62
250
  6
CONTINUOUS
 10
-11.0619056521
 20
-24.4869014213
 30
0.0
 11
-9.1880943479
 21
-24.4869014213
 31
0.0
  0
LINE
  5
253
100
AcDbEntity
  8
RACCORDO
100
AcDbLine
 62
250
  6
CONTINUOUS
 10
7.8380943479
 20
-24.4869014213
 30
0.0
 11
9.7119056521
 21
-24.4869014213
 31
0.0
  0
LINE
  5
254
100
AcDbEntity
  8
RACCORDO
100
AcDbLine
 62
250
  6
CONTINUOUS
 10
7.5880985787
 20
-24.2369056521
 30
0.0
 11
9.9619014213
 21
-24.2369056521
 31
0.0
  0
LINE
  5
255
100
AcDbEntity
  8
RACCORDO
100
AcDbLine
 62
250
  6
CONTINUOUS
 10
-8.9380985787
 20
-24.2369056521
 30
0.0
 11
-11.3119014213
 21
-24.2369056521
 31
0.0
  0
LINE
  5
256
100
AcDbEntity
  8
RACCORDO
100
AcDbLine
 62
250
  6
CONTINUOUS
 10
7.5880985787
 20
-23.8443375673
 30
0.0
 11
9.9619014213
 21
-23.8443375673
 31
0.0
  0
LINE
  5
257
100
AcDbEntity
  8
RACCORDO
100
AcDbLine
 62
250
  6
CONTINUOUS
 10
-8.9380985787
 20
-23.8443375673
 30
0.0
 11
-11.3119014213
 21
-23.8443375673
 31
0.0
  0
LINE
  5
258
100
AcDbEntity
  8
DRAFT
100
AcDbLine
 62
7
  6
CONTINUOUS
 10
3.725
 20
-23.8
 30
0.0
 11
-5.075
 21
-23.8
 31
0.0
  0
LINE
  5
259
100
AcDbEntity
  8
RACCORDO
100
AcDbLine
 62
250
  6
CONTINUOUS
 10
-4.9712073137
 20
-23.7953389668
 30
0.0
 11
3.6212073137
 21
-23.7953389668
 31
0.0
  0
LINE
  5
25A
100
AcDbEntity
  8
RACCORDO
100
AcDbLine
 62
250
  6
CONTINUOUS
 10
9.7119056521
 20
-23.6278312164
 30
0.0
 11
7.8380943479
 21
-23.6278312164
 31
0.0
  0
LINE
  5
25B
100
AcDbEntity
  8
RACCORDO
100
AcDbLine
 62
250
  6
CONTINUOUS
 10
-9.1880943479
 20
-23.6278312164
 30
0.0
 11
-11.0619056521
 21
-23.6278312164
 31
0.0
  0
LINE
  5
25C
100
AcDbEntity
  8
RACCORDO
100
AcDbLine
 62
250
  6
CONTINUOUS
 10
-4.5720826234
 20
-23.5953423515
 30
0.0
 11
3.2220826234
 21
-23.5953423515
 31
0.0
  0
LINE
  5
25D
100
AcDbEntity
  8
RACCORDO
100
AcDbLine
 62
7
  6
CONTINUOUS
 10
-11.5485170098
 20
-22.3384745002
 30
0.0
 11
-11.5310139878
 21
-22.3472253447
 31
0.0
  0
LINE
  5
25E
100
AcDbEntity
  8
RACCORDO
100
AcDbLine
 62
250
  6
CONTINUOUS
 10
-11.825
 20
-21.8911779406
 30
0.0
 11
-11.8075830976
 21
-21.8998857286
 31
0.0
  0
LINE
  5
25F
100
AcDbEntity
  8
RACCORDO
100
AcDbLine
 62
250
  6
CONTINUOUS
 10
-9.1749957692
 20
-24.5
 30
0.0
 11
-9.1880943479
 21
-24.4869014213
 31
0.0
  0
LINE
  5
260
100
AcDbEntity
  8
RACCORDO
100
AcDbLine
 62
250
  6
CONTINUOUS
 10
-8.925
 20
-24.2500042308
 30
0.0
 11
-8.9380985787
 21
-24.2369056521
 31
0.0
  0
LINE
  5
261
100
AcDbEntity
  8
RACCORDO
100
AcDbLine
 62
7
  6
CONTINUOUS
 10
-11.0669962532
 20
-23.1226497308
 30
0.0
 11
-9.1830037468
 21
-23.1226497308
 31
0.0
  0
LINE
  5
262
100
AcDbEntity
  8
RACCORDO
100
AcDbLine
 62
7
  6
CONTINUOUS
 10
7.8330037468
 20
-23.1226497308
 30
0.0
 11
9.7169962532
 21
-23.1226497308
 31
0.0
  0
LINE
  5
263
100
AcDbEntity
  8
DRAFT
100
AcDbLine
 62
7
  6
CONTINUOUS
 10
7.575
 20
-22.4
 30
0.0
 11
3.725
 21
-22.4
 31
0.0
  0
LINE
  5
264
100
AcDbEntity
  8
DRAFT
100
AcDbLine
 62
7
  6
CONTINUOUS
 10
-5.075
 20
-22.4
 30
0.0
 11
-8.925
 21
-22.4
 31
0.0
  0
LINE
  5
265
100
AcDbEntity
  8
RACCORDO
100
AcDbLine
 62
7
  6
CONTINUOUS
 10
3.2220826234
 20
-22.3475922207
 30
0.0
 11
-4.5720826234
 21
-22.3475922207
 31
0.0
  0
LINE
  5
266
100
AcDbEntity
  8
RACCORDO
100
AcDbLine
 62
7
  6
CONTINUOUS
 10
-11.0677234819
 20
-22.3213883311
 30
0.0
 11
-9.1822765181
 21
-22.3213883311
 31
0.0
  0
LINE
  5
267
100
AcDbEntity
  8
RACCORDO
100
AcDbLine
 62
7
  6
CONTINUOUS
 10
7.8322765181
 20
-22.3213883311
 30
0.0
 11
9.7177234819
 21
-22.3213883311
 31
0.0
  0
LINE
  5
268
100
AcDbEntity
  8
RACCORDO
100
AcDbLine
 62
250
  6
CONTINUOUS
 10
-11.1742759622
 20
-21.998725222
 30
0.0
 11
9.8242759622
 21
-21.998725222
 31
0.0
  0
LINE
  5
269
100
AcDbEntity
  8
RACCORDO
100
AcDbLine
 62
250
  6
CONTINUOUS
 10
-11.1577491915
 20
-20.5624683248
 30
0.0
 11
9.8077491915
 21
-20.5624683248
 31
0.0
  0
LINE
  5
26A
100
AcDbEntity
  8
RACCORDO
100
AcDbLine
 62
7
  6
CONTINUOUS
 10
3.7220741618
 20
23.7970741618
 30
0.0
 11
3.725
 21
23.8
 31
0.0
  0
LINE
  5
26B
100
AcDbEntity
  8
RACCORDO
100
AcDbLine
 62
7
  6
CONTINUOUS
 10
3.7220741618
 20
-23.7970741618
 30
0.0
 11
3.725
 21
-23.8
 31
0.0
  0
LINE
  5
26C
100
AcDbEntity
  8
RACCORDO
100
AcDbLine
 62
250
  6
CONTINUOUS
 10
-11.3119014213
 20
-23.8443375673
 30
0.0
 11
-11.3177192511
 21
-23.2669872981
 31
0.0
  0
LINE
  5
26D
100
AcDbEntity
  8
RACCORDO
100
AcDbLine
 62
250
  6
CONTINUOUS
 10
-11.0619056521
 20
-23.6278312164
 30
0.0
 11
-11.0669962532
 21
-23.1226497308
 31
0.0
  0
LINE
  5
26E
100
AcDbEntity
  8
RACCORDO
100
AcDbLine
 62
7
  6
CONTINUOUS
 10
-11.825
 20
21.8911779406
 30
0.0
 11
-11.825
 21
-21.8911779406
 31
0.0
  0
LINE
  5
26F
100
AcDbEntity
  8
RACCORDO
100
AcDbLine
 62
7
  6
CONTINUOUS
 10
-11.325
 20
-22.399689968
 30
0.0
 11
-11.325
 21
-24.2500042308
 31
0.0
  0
LINE
  5
270
100
AcDbEntity
  8
RACCORDO
100
AcDbLine
 62
7
  6
CONTINUOUS
 10
-11.325
 20
22.399689968
 30
0.0
 11
-11.325
 21
24.2500042308
 31
0.0
  0
LINE
  5
271
100
AcDbEntity
  8
RACCORDO
100
AcDbLine
 62
250
  6
CONTINUOUS
 10
-11.3177192511
 20
23.2669872981
 30
0.0
 11
-11.3177192511
 21
22.3334109614
 31
0.0
  0
LINE
  5
272
100
AcDbEntity
  8
RACCORDO
100
AcDbLine
 62
250
  6
CONTINUOUS
 10
-11.3177192511
 20
-22.3334109614
 30
0.0
 11
-11.3177192511
 21
-23.2669872981
 31
0.0
  0
LINE
  5
273
100
AcDbEntity
  8
RACCORDO
100
AcDbLine
 62
250
  6
CONTINUOUS
 10
-11.3119014213
 20
24.2369056521
 30
0.0
 11
-11.3119014213
 21
23.8443375673
 31
0.0
  0
LINE
  5
274
100
AcDbEntity
  8
RACCORDO
100
AcDbLine
 62
250
  6
CONTINUOUS
 10
-11.3119014213
 20
-23.8443375673
 30
0.0
 11
-11.3119014213
 21
-24.2369056521
 31
0.0
  0
LINE
  5
275
100
AcDbEntity
  8
RACCORDO
100
AcDbLine
 62
250
  6
CONTINUOUS
 10
-11.0677234819
 20
23.1226497308
 30
0.0
 11
-11.0677234819
 21
22.3213883311
 31
0.0
  0
LINE
  5
276
100
AcDbEntity
  8
RACCORDO
100
AcDbLine
 62
250
  6
CONTINUOUS
 10
-11.0677234819
 20
-22.3213883311
 30
0.0
 11
-11.0677234819
 21
-23.1226497308
 31
0.0
  0
LINE
  5
277
100
AcDbEntity
  8
RACCORDO
100
AcDbLine
 62
250
  6
CONTINUOUS
 10
-11.0619056521
 20
-23.6278312164
 30
0.0
 11
-11.0619056521
 21
-24.4869014213
 31
0.0
  0
LINE
  5
278
100
AcDbEntity
  8
RACCORDO
100
AcDbLine
 62
250
  6
CONTINUOUS
 10
-11.0619056521
 20
23.6278312164
 30
0.0
 11
-11.0619056521
 21
24.4869014213
 31
0.0
  0
LINE
  5
279
100
AcDbEntity
  8
RACCORDO
100
AcDbLine
 62
250
  6
CONTINUOUS
 10
-11.3177192511
 20
23.2669872981
 30
0.0
 11
-11.3119014213
 21
23.8443375673
 31
0.0
  0
LINE
  5
27A
100
AcDbEntity
  8
RACCORDO
100
AcDbLine
 62
250
  6
CONTINUOUS
 10
-11.0669962532
 20
23.1226497308
 30
0.0
 11
-11.0619056521
 21
23.6278312164
 31
0.0
  0
LINE
  5
27B
100
AcDbEntity
  8
RACCORDO
100
AcDbLine
 62
7
  6
CONTINUOUS
 10
-8.925
 20
22.4
 30
0.0
 11
-8.9322807489
 21
22.3344140523
 31
0.0
  0
LINE
  5
27C
100
AcDbEntity
  8
RACCORDO
100
AcDbLine
 62
7
  6
CONTINUOUS
 10
-8.925
 20
-22.4
 30
0.0
 11
-8.9322807489
 21
-22.3344140523
 31
0.0
  0
LINE
  5
27D
100
AcDbEntity
  8
RACCORDO
100
AcDbLine
 62
250
  6
CONTINUOUS
 10
-9.1880943479
 20
23.6278312164
 30
0.0
 11
-9.1830037468
 21
23.1226497308
 31
0.0
  0
LINE
  5
27E
100
AcDbEntity
  8
ASSI
100
AcDbLine
 62
7
  6
CONTINUOUS
 10
-10.175
 20
15.6
 30
0.0
 11
-10.175
 21
22.1379611036
 31
0.0
  0
LINE
  5
27F
100
AcDbEntity
  8
RACCORDO
100
AcDbLine
 62
7
  6
CONTINUOUS
 10
-10.125
 20
15.75
 30
0.0
 11
-10.125
 21
21.8496569135
 31
0.0
  0
LINE
  5
280
100
AcDbEntity
  8
RACCORDO
100
AcDbLine
 62
250
  6
CONTINUOUS
 10
-9.875
 20
15.6031206241
 30
0.0
 11
-9.875
 21
22.1
 31
0.0
  0
LINE
  5
281
100
AcDbEntity
  8
RACCORDO
100
AcDbLine
 62
250
  6
CONTINUOUS
 10
-9.1880943479
 20
-23.6278312164
 30
0.0
 11
-9.1880943479
 21
-24.4869014213
 31
0.0
  0
LINE
  5
282
100
AcDbEntity
  8
RACCORDO
100
AcDbLine
 62
250
  6
CONTINUOUS
 10
-9.1880943479
 20
23.6278312164
 30
0.0
 11
-9.1880943479
 21
24.4869014213
 31
0.0
  0
LINE
  5
283
100
AcDbEntity
  8
RACCORDO
100
AcDbLine
 62
250
  6
CONTINUOUS
 10
-9.1822765181
 20
23.1226497308
 30
0.0
 11
-9.1822765181
 21
22.3213883311
 31
0.0
  0
LINE
  5
284
100
AcDbEntity
  8
RACCORDO
100
AcDbLine
 62
250
  6
CONTINUOUS
 10
-9.1822765181
 20
-22.3213883311
 30
0.0
 11
-9.1822765181
 21
-23.1226497308
 31
0.0
  0
LINE
  5
285
100
AcDbEntity
  8
RACCORDO
100
AcDbLine
 62
250
  6
CONTINUOUS
 10
-8.9380985787
 20
-24.2369056521
 30
0.0
 11
-8.9380985787
 21
-23.8443375673
 31
0.0
  0
LINE
  5
286
100
AcDbEntity
  8
RACCORDO
100
AcDbLine
 62
250
  6
CONTINUOUS
 10
-8.9380985787
 20
23.8443375673
 30
0.0
 11
-8.9380985787
 21
24.2369056521
 31
0.0
  0
LINE
  5
287
100
AcDbEntity
  8
RACCORDO
100
AcDbLine
 62
250
  6
CONTINUOUS
 10
-8.9322807489
 20
23.2669872981
 30
0.0
 11
-8.9322807489
 21
22.3344140523
 31
0.0
  0
LINE
  5
288
100
AcDbEntity
  8
RACCORDO
100
AcDbLine
 62
250
  6
CONTINUOUS
 10
-8.9322807489
 20
-22.3344140523
 30
0.0
 11
-8.9322807489
 21
-23.2669872981
 31
0.0
  0
LINE
  5
289
100
AcDbEntity
  8
RACCORDO
100
AcDbLine
 62
7
  6
CONTINUOUS
 10
-8.925
 20
-22.4
 30
0.0
 11
-8.925
 21
-24.2500042308
 31
0.0
  0
LINE
  5
28A
100
AcDbEntity
  8
RACCORDO
100
AcDbLine
 62
7
  6
CONTINUOUS
 10
-8.925
 20
22.4
 30
0.0
 11
-8.925
 21
24.2500042308
 31
0.0
  0
LINE
  5
28B
100
AcDbEntity
  8
RACCORDO
100
AcDbLine
 62
250
  6
CONTINUOUS
 10
-9.1830037468
 20
-23.1226497308
 30
0.0
 11
-9.1880943479
 21
-23.6278312164
 31
0.0
  0
LWPOLYLINE
  5
28C
100
AcDbEntity
  8
0
100
AcDbPolyline
 62
7
  6
CONTINUOUS
 90
3
 70
0
 43
0.3500000006
 10
0.4678571541
 20
33.5357164307
 10
0.3964285558
 20
33.3214274139
 10
0.2535714301
 20
33.0357162781
  0
LINE
  5
28D
100
AcDbEntity
  8
RACCORDO
100
AcDbLine
 62
250
  6
CONTINUOUS
 10
9.7250042308
 20
24.5
 30
0.0
 11
9.7119056521
 21
24.4869014213
 31
0.0
  0
LINE
  5
28E
100
AcDbEntity
  8
RACCORDO
100
AcDbLine
 62
250
  6
CONTINUOUS
 10
9.975
 20
24.2500042308
 30
0.0
 11
9.9619014213
 21
24.2369056521
 31
0.0
  0
LINE
  5
28F
100
AcDbEntity
  8
RACCORDO
100
AcDbLine
 62
250
  6
CONTINUOUS
 10
9.7250042308
 20
-24.5
 30
0.0
 11
9.7119056521
 21
-24.4869014213
 31
0.0
  0
LINE
  5
290
100
AcDbEntity
  8
RACCORDO
100
AcDbLine
 62
250
  6
CONTINUOUS
 10
9.975
 20
-24.2500042308
 30
0.0
 11
9.9619014213
 21
-24.2369056521
 31
0.0
  0
LINE
  5
291
100
AcDbEntity
  8
RACCORDO
100
AcDbLine
 62
250
  6
CONTINUOUS
 10
-8.9380985787
 20
23.8443375673
 30
0.0
 11
-8.9322807489
 21
23.2669872981
 31
0.0
  0
LINE
  5
292
100
AcDbEntity
  8
RACCORDO
100
AcDbLine
 62
250
  6
CONTINUOUS
 10
-7.6344850761
 20
3.9133984746
 30
0.0
 11
-7.6343993763
 21
-5.0144137901
 31
0.0
  0
LINE
  5
293
100
AcDbEntity
  8
DRAFT
100
AcDbLine
 62
7
  6
CONTINUOUS
 10
-7.125
 20
3.4
 30
0.0
 11
-7.125
 21
-4.5
 31
0.0
  0
LINE
  5
294
100
AcDbEntity
  8
RACCORDO
100
AcDbLine
 62
250
  6
CONTINUOUS
 10
-8.9322807489
 20
-23.2669872981
 30
0.0
 11
-8.9380985787
 21
-23.8443375673
 31
0.0
  0
LINE
  5
295
100
AcDbEntity
  8
RACCORDO
100
AcDbLine
 62
250
  6
CONTINUOUS
 10
-3.6840651868
 20
-7.967032219
 30
0.0
 11
2.3340651868
 21
-7.967032219
 31
0.0
  0
LINE
  5
296
100
AcDbEntity
  8
RACCORDO
100
AcDbLine
 62
250
  6
CONTINUOUS
 10
-3.1840842253
 20
-7.4590842253
 30
0.0
 11
1.8340842253
 21
-7.4590842253
 31
0.0
  0
LINE
  5
297
100
AcDbEntity
  8
DRAFT
100
AcDbLine
 62
7
  6
CONTINUOUS
 10
-3.175
 20
-7.45
 30
0.0
 11
1.825
 21
-7.45
 31
0.0
  0
LINE
  5
298
100
AcDbEntity
  8
SMUSSO
100
AcDbLine
 62
7
  6
CONTINUOUS
 10
1.375
 20
-7.425051063
 30
0.0
 11
-2.725
 21
-7.425051063
 31
0.0
  0
LINE
  5
299
100
AcDbEntity
  8
0
100
AcDbLine
 62
7
  6
CONTINUOUS
 10
-6.675
 20
3.074948937
 30
0.0
 11
-6.675
 21
-3.925051063
 31
0.0
  0
LINE
  5
29A
100
AcDbEntity
  8
SMUSSO
100
AcDbLine
 62
7
  6
CONTINUOUS
 10
1.375
 20
-6.925051063
 30
0.0
 11
-2.725
 21
-6.925051063
 31
0.0
  0
LINE
  5
29B
100
AcDbEntity
  8
RACCORDO
100
AcDbLine
 62
250
  6
CONTINUOUS
 10
-4.8342369883
 20
-6.6158528412
 30
0.0
 11
-3.6842369883
 21
-6.6158528412
 31
0.0
  0
LINE
  5
29C
100
AcDbEntity
  8
RACCORDO
100
AcDbLine
 62
250
  6
CONTINUOUS
 10
2.3342369883
 20
-6.6158528412
 30
0.0
 11
3.4842369883
 21
-6.6158528412
 31
0.0
  0
LINE
  5
29D
100
AcDbEntity
  8
RACCORDO
100
AcDbLine
 62
250
  6
CONTINUOUS
 10
-4.3342560268
 20
-6.1092560268
 30
0.0
 11
-3.1842560268
 21
-6.1092560268
 31
0.0
  0
LINE
  5
29E
100
AcDbEntity
  8
RACCORDO
100
AcDbLine
 62
250
  6
CONTINUOUS
 10
1.8342560268
 20
-6.1092560268
 30
0.0
 11
2.9842560268
 21
-6.1092560268
 31
0.0
  0
LINE
  5
29F
100
AcDbEntity
  8
DRAFT
100
AcDbLine
 62
7
  6
CONTINUOUS
 10
-4.325
 20
-6.1
 30
0.0
 11
-3.175
 21
-6.1
 31
0.0
  0
LINE
  5
2A0
100
AcDbEntity
  8
DRAFT
100
AcDbLine
 62
7
  6
CONTINUOUS
 10
1.825
 20
-6.1
 30
0.0
 11
2.975
 21
-6.1
 31
0.0
  0
LINE
  5
2A1
100
AcDbEntity
  8
0
100
AcDbLine
 62
7
  6
CONTINUOUS
 10
-4.025
 20
-5.525051063
 30
0.0
 11
-2.725
 21
-5.525051063
 31
0.0
  0
LINE
  5
2A2
100
AcDbEntity
  8
0
100
AcDbLine
 62
7
  6
CONTINUOUS
 10
1.375
 20
-5.525051063
 30
0.0
 11
2.675
 21
-5.525051063
 31
0.0
  0
LINE
  5
2A3
100
AcDbEntity
  8
DRAFT
100
AcDbLine
 62
7
  6
CONTINUOUS
 10
-5.075
 20
-23.8
 30
0.0
 11
-5.075
 21
-22.4
 31
0.0
  0
LINE
  5
2A4
100
AcDbEntity
  8
DRAFT
100
AcDbLine
 62
7
  6
CONTINUOUS
 10
-5.075
 20
22.4
 30
0.0
 11
-5.075
 21
23.8
 31
0.0
  0
LINE
  5
2A5
100
AcDbEntity
  8
RACCORDO
100
AcDbLine
 62
250
  6
CONTINUOUS
 10
-5.0720741618
 20
23.7970741618
 30
0.0
 11
-5.0720741618
 21
22.3736436632
 31
0.0
  0
LINE
  5
2A6
100
AcDbEntity
  8
RACCORDO
100
AcDbLine
 62
250
  6
CONTINUOUS
 10
-5.0720741618
 20
-22.3736436632
 30
0.0
 11
-5.0720741618
 21
-23.7970741618
 31
0.0
  0
LINE
  5
2A7
100
AcDbEntity
  8
RACCORDO
100
AcDbLine
 62
250
  6
CONTINUOUS
 10
-4.8343993763
 20
-5.0144137901
 30
0.0
 11
-4.8342369883
 21
-6.6158528412
 31
0.0
  0
LINE
  5
2A8
100
AcDbEntity
  8
RACCORDO
100
AcDbLine
 62
250
  6
CONTINUOUS
 10
-4.5720826234
 20
23.5953423515
 30
0.0
 11
-4.5720826234
 21
22.3475922207
 31
0.0
  0
LINE
  5
2A9
100
AcDbEntity
  8
RACCORDO
100
AcDbLine
 62
250
  6
CONTINUOUS
 10
-4.5720826234
 20
-22.3475922207
 30
0.0
 11
-4.5720826234
 21
-23.5953423515
 31
0.0
  0
LINE
  5
2AA
100
AcDbEntity
  8
0
100
AcDbLine
 62
7
  6
CONTINUOUS
 10
-4.375
 20
3.074948937
 30
0.0
 11
-4.375
 21
0.074948937
 31
0.0
  0
LINE
  5
2AB
100
AcDbEntity
  8
DRAFT
100
AcDbLine
 62
7
  6
CONTINUOUS
 10
-4.325
 20
-4.5
 30
0.0
 11
-4.325
 21
-6.1
 31
0.0
  0
LINE
  5
2AC
100
AcDbEntity
  8
0
100
AcDbLine
 62
7
  6
CONTINUOUS
 10
-4.025
 20
-5.525051063
 30
0.0
 11
-4.025
 21
-3.225051063
 31
0.0
  0
LINE
  5
2AD
100
AcDbEntity
  8
0
100
AcDbLine
 62
7
  6
CONTINUOUS
 10
-3.975
 20
3.074948937
 30
0.0
 11
-3.975
 21
0.074948937
 31
0.0
  0
LINE
  5
2AE
100
AcDbEntity
  8
RACCORDO
100
AcDbLine
 62
250
  6
CONTINUOUS
 10
-3.6842369883
 20
-6.6158528412
 30
0.0
 11
-3.6840651868
 21
-7.967032219
 31
0.0
  0
LINE
  5
2AF
100
AcDbEntity
  8
0
100
AcDbLine
 62
7
  6
CONTINUOUS
 10
-3.675
 20
22.1956096608
 30
0.0
 11
-3.675
 21
22.1379611036
 31
0.0
  0
LINE
  5
2B0
100
AcDbEntity
  8
SMUSSO
100
AcDbLine
 62
7
  6
CONTINUOUS
 10
-3.675
 20
22.1379611036
 30
0.0
 11
-3.675
 21
22.1
 31
0.0
  0
LINE
  5
2B1
100
AcDbEntity
  8
0
100
AcDbLine
 62
7
  6
CONTINUOUS
 10
-3.525
 20
-4.275051063
 30
0.0
 11
-3.525
 21
-3.225051063
 31
0.0
  0
LINE
  5
2B2
100
AcDbEntity
  8
RACCORDO
100
AcDbLine
 62
250
  6
CONTINUOUS
 10
-11.8075830976
 20
-21.8998857286
 30
0.0
 11
-11.6741998097
 21
-21.4994104546
 31
0.0
  0
LINE
  5
2B3
100
AcDbEntity
  8
RACCORDO
100
AcDbLine
 62
250
  6
CONTINUOUS
 10
-11.1742759622
 20
-21.998725222
 30
0.0
 11
-11.28391534
 21
-22.3279108386
 31
0.0
  0
LINE
  5
2B4
100
AcDbEntity
  8
RACCORDO
100
AcDbLine
 62
250
  6
CONTINUOUS
 10
-7.6343993763
 20
-5.0144137901
 30
0.0
 11
-4.8343993763
 21
-5.0144137901
 31
0.0
  0
LINE
  5
2B5
100
AcDbEntity
  8
RACCORDO
100
AcDbLine
 62
250
  6
CONTINUOUS
 10
3.4843993763
 20
-5.0144137901
 30
0.0
 11
6.2843993763
 21
-5.0144137901
 31
0.0
  0
LINE
  5
2B6
100
AcDbEntity
  8
RACCORDO
100
AcDbLine
 62
250
  6
CONTINUOUS
 10
-7.1344184148
 20
-4.5094184148
 30
0.0
 11
-4.3344184148
 21
-4.5094184148
 31
0.0
  0
LINE
  5
2B7
100
AcDbEntity
  8
RACCORDO
100
AcDbLine
 62
250
  6
CONTINUOUS
 10
2.9844184148
 20
-4.5094184148
 30
0.0
 11
5.7844184148
 21
-4.5094184148
 31
0.0
  0
LINE
  5
2B8
100
AcDbEntity
  8
DRAFT
100
AcDbLine
 62
7
  6
CONTINUOUS
 10
-7.125
 20
-4.5
 30
0.0
 11
-4.325
 21
-4.5
 31
0.0
  0
LINE
  5
2B9
100
AcDbEntity
  8
DRAFT
100
AcDbLine
 62
7
  6
CONTINUOUS
 10
2.975
 20
-4.5
 30
0.0
 11
5.775
 21
-4.5
 31
0.0
  0
LINE
  5
2BA
100
AcDbEntity
  8
0
100
AcDbLine
 62
7
  6
CONTINUOUS
 10
-4.025
 20
-4.275051063
 30
0.0
 11
-3.525
 21
-4.275051063
 31
0.0
  0
LINE
  5
2BB
100
AcDbEntity
  8
0
100
AcDbLine
 62
7
  6
CONTINUOUS
 10
2.175
 20
-4.275051063
 30
0.0
 11
2.675
 21
-4.275051063
 31
0.0
  0
LINE
  5
2BC
100
AcDbEntity
  8
0
100
AcDbLine
 62
7
  6
CONTINUOUS
 10
-6.675
 20
-3.925051063
 30
0.0
 11
-4.025
 21
-3.925051063
 31
0.0
  0
LINE
  5
2BD
100
AcDbEntity
  8
0
100
AcDbLine
 62
7
  6
CONTINUOUS
 10
2.675
 20
-3.925051063
 30
0.0
 11
5.325
 21
-3.925051063
 31
0.0
  0
LINE
  5
2BE
100
AcDbEntity
  8
RACCORDO
100
AcDbLine
 62
7
  6
CONTINUOUS
 10
1.825
 20
-7.45
 30
0.0
 11
1.8340842253
 21
-7.4590842253
 31
0.0
  0
LINE
  5
2BF
100
AcDbEntity
  8
RACCORDO
100
AcDbLine
 62
250
  6
CONTINUOUS
 10
-11.6741998097
 20
21.4994104546
 30
0.0
 11
-11.8075830976
 21
21.8998857286
 31
0.0
  0
LINE
  5
2C0
100
AcDbEntity
  8
RACCORDO
100
AcDbLine
 62
250
  6
CONTINUOUS
 10
-11.28391534
 20
22.3279108386
 30
0.0
 11
-11.1742759622
 21
21.998725222
 31
0.0
  0
LINE
  5
2C1
100
AcDbEntity
  8
0
100
AcDbLine
 62
7
  6
CONTINUOUS
 10
-3.375
 20
3.074948937
 30
0.0
 11
-3.375
 21
0.074948937
 31
0.0
  0
LINE
  5
2C2
100
AcDbEntity
  8
DRAFT
100
AcDbLine
 62
7
  6
CONTINUOUS
 10
-3.175
 20
-6.1
 30
0.0
 11
-3.175
 21
-7.45
 31
0.0
  0
LINE
  5
2C3
100
AcDbEntity
  8
0
100
AcDbLine
 62
7
  6
CONTINUOUS
 10
-2.975
 20
3.074948937
 30
0.0
 11
-2.975
 21
0.074948937
 31
0.0
  0
LINE
  5
2C4
100
AcDbEntity
  8
SMUSSO
100
AcDbLine
 62
7
  6
CONTINUOUS
 10
-2.725
 20
-7.425051063
 30
0.0
 11
-2.725
 21
-5.525051063
 31
0.0
  0
LINE
  5
2C5
100
AcDbEntity
  8
0
100
AcDbLine
 62
7
  6
CONTINUOUS
 10
-2.375
 20
3.074948937
 30
0.0
 11
-2.375
 21
0.074948937
 31
0.0
  0
LINE
  5
2C6
100
AcDbEntity
  8
0
100
AcDbLine
 62
7
  6
CONTINUOUS
 10
-1.975
 20
3.074948937
 30
0.0
 11
-1.975
 21
0.074948937
 31
0.0
  0
LINE
  5
2C7
100
AcDbEntity
  8
RACCORDO
100
AcDbLine
 62
7
  6
CONTINUOUS
 10
-5.075
 20
-22.4
 30
0.0
 11
-5.0720741618
 21
-22.3736436632
 31
0.0
  0
LINE
  5
2C8
100
AcDbEntity
  8
RACCORDO
100
AcDbLine
 62
7
  6
CONTINUOUS
 10
-7.125
 20
-4.5
 30
0.0
 11
-7.1344184148
 21
-4.5094184148
 31
0.0
  0
LINE
  5
2C9
100
AcDbEntity
  8
0
100
AcDbLine
 62
7
  6
CONTINUOUS
 10
-4.025
 20
-3.225051063
 30
0.0
 11
2.675
 21
-3.225051063
 31
0.0
  0
LINE
  5
2CA
100
AcDbEntity
  8
RACCORDO
100
AcDbLine
 62
7
  6
CONTINUOUS
 10
1.825
 20
-6.1
 30
0.0
 11
1.8342560268
 21
-6.1092560268
 31
0.0
  0
LINE
  5
2CB
100
AcDbEntity
  8
RACCORDO
100
AcDbLine
 62
7
  6
CONTINUOUS
 10
-7.125
 20
3.4
 30
0.0
 11
-7.1345041146
 21
3.4095041146
 31
0.0
  0
LINE
  5
2CC
100
AcDbEntity
  8
RACCORDO
100
AcDbLine
 62
7
  6
CONTINUOUS
 10
2.975
 20
-6.1
 30
0.0
 11
2.9842560268
 21
-6.1092560268
 31
0.0
  0
LINE
  5
2CD
100
AcDbEntity
  8
RACCORDO
100
AcDbLine
 62
7
  6
CONTINUOUS
 10
-5.075
 20
22.4
 30
0.0
 11
-5.0720741618
 21
22.3736436632
 31
0.0
  0
LINE
  5
2CE
100
AcDbEntity
  8
0
100
AcDbLine
 62
7
  6
CONTINUOUS
 10
-1.375
 20
3.074948937
 30
0.0
 11
-1.375
 21
0.074948937
 31
0.0
  0
LINE
  5
2CF
100
AcDbEntity
  8
0
100
AcDbLine
 62
7
  6
CONTINUOUS
 10
-0.975
 20
3.074948937
 30
0.0
 11
-0.975
 21
0.074948937
 31
0.0
  0
LINE
  5
2D0
100
AcDbEntity
  8
0
100
AcDbLine
 62
7
  6
CONTINUOUS
 10
-0.375
 20
3.074948937
 30
0.0
 11
-0.375
 21
0.074948937
 31
0.0
  0
LINE
  5
2D1
100
AcDbEntity
  8
0
100
AcDbLine
 62
7
  6
CONTINUOUS
 10
0.025
 20
3.074948937
 30
0.0
 11
0.025
 21
0.074948937
 31
0.0
  0
LINE
  5
2D2
100
AcDbEntity
  8
RACCORDO
100
AcDbLine
 62
7
  6
CONTINUOUS
 10
-4.325
 20
-4.5
 30
0.0
 11
-4.3344184148
 21
-4.5094184148
 31
0.0
  0
LINE
  5
2D3
100
AcDbEntity
  8
0
100
AcDbLine
 62
7
  6
CONTINUOUS
 10
3.025
 20
0.074948937
 30
0.0
 11
2.625
 21
0.074948937
 31
0.0
  0
LINE
  5
2D4
100
AcDbEntity
  8
0
100
AcDbLine
 62
7
  6
CONTINUOUS
 10
2.025
 20
0.074948937
 30
0.0
 11
1.625
 21
0.074948937
 31
0.0
  0
LINE
  5
2D5
100
AcDbEntity
  8
0
100
AcDbLine
 62
7
  6
CONTINUOUS
 10
1.025
 20
0.074948937
 30
0.0
 11
0.625
 21
0.074948937
 31
0.0
  0
LINE
  5
2D6
100
AcDbEntity
  8
0
100
AcDbLine
 62
7
  6
CONTINUOUS
 10
0.025
 20
0.074948937
 30
0.0
 11
-0.375
 21
0.074948937
 31
0.0
  0
LINE
  5
2D7
100
AcDbEntity
  8
0
100
AcDbLine
 62
7
  6
CONTINUOUS
 10
-0.975
 20
0.074948937
 30
0.0
 11
-1.375
 21
0.074948937
 31
0.0
  0
LINE
  5
2D8
100
AcDbEntity
  8
0
100
AcDbLine
 62
7
  6
CONTINUOUS
 10
-1.975
 20
0.074948937
 30
0.0
 11
-2.375
 21
0.074948937
 31
0.0
  0
LINE
  5
2D9
100
AcDbEntity
  8
0
100
AcDbLine
 62
7
  6
CONTINUOUS
 10
-2.975
 20
0.074948937
 30
0.0
 11
-3.375
 21
0.074948937
 31
0.0
  0
LINE
  5
2DA
100
AcDbEntity
  8
0
100
AcDbLine
 62
7
  6
CONTINUOUS
 10
-3.975
 20
0.074948937
 30
0.0
 11
-4.375
 21
0.074948937
 31
0.0
  0
LINE
  5
2DB
100
AcDbEntity
  8
RACCORDO
100
AcDbLine
 62
7
  6
CONTINUOUS
 10
2.975
 20
-4.5
 30
0.0
 11
2.9844184148
 21
-4.5094184148
 31
0.0
  0
LINE
  5
2DC
100
AcDbEntity
  8
0
100
AcDbLine
 62
7
  6
CONTINUOUS
 10
0.625
 20
3.074948937
 30
0.0
 11
0.625
 21
0.074948937
 31
0.0
  0
LINE
  5
2DD
100
AcDbEntity
  8
0
100
AcDbLine
 62
7
  6
CONTINUOUS
 10
1.025
 20
3.074948937
 30
0.0
 11
1.025
 21
0.074948937
 31
0.0
  0
LINE
  5
2DE
100
AcDbEntity
  8
SMUSSO
100
AcDbLine
 62
7
  6
CONTINUOUS
 10
1.375
 20
-5.525051063
 30
0.0
 11
1.375
 21
-7.425051063
 31
0.0
  0
LINE
  5
2DF
100
AcDbEntity
  8
0
100
AcDbLine
 62
7
  6
CONTINUOUS
 10
1.625
 20
3.074948937
 30
0.0
 11
1.625
 21
0.074948937
 31
0.0
  0
LINE
  5
2E0
100
AcDbEntity
  8
DRAFT
100
AcDbLine
 62
7
  6
CONTINUOUS
 10
1.825
 20
-7.45
 30
0.0
 11
1.825
 21
-6.1
 31
0.0
  0
LINE
  5
2E1
100
AcDbEntity
  8
0
100
AcDbLine
 62
7
  6
CONTINUOUS
 10
2.025
 20
3.074948937
 30
0.0
 11
2.025
 21
0.074948937
 31
0.0
  0
LINE
  5
2E2
100
AcDbEntity
  8
RACCORDO
100
AcDbLine
 62
7
  6
CONTINUOUS
 10
3.725
 20
22.4
 30
0.0
 11
3.7220741618
 21
22.3736436632
 31
0.0
  0
LINE
  5
2E3
100
AcDbEntity
  8
RACCORDO
100
AcDbLine
 62
7
  6
CONTINUOUS
 10
-4.325
 20
-6.1
 30
0.0
 11
-4.3342560268
 21
-6.1092560268
 31
0.0
  0
LINE
  5
2E4
100
AcDbEntity
  8
RACCORDO
100
AcDbLine
 62
7
  6
CONTINUOUS
 10
5.775
 20
3.4
 30
0.0
 11
5.7845041146
 21
3.4095041146
 31
0.0
  0
LINE
  5
2E5
100
AcDbEntity
  8
RACCORDO
100
AcDbLine
 62
7
  6
CONTINUOUS
 10
5.775
 20
-4.5
 30
0.0
 11
5.7844184148
 21
-4.5094184148
 31
0.0
  0
LINE
  5
2E6
100
AcDbEntity
  8
RACCORDO
100
AcDbLine
 62
7
  6
CONTINUOUS
 10
3.725
 20
-22.4
 30
0.0
 11
3.7220741618
 21
-22.3736436632
 31
0.0
  0
LINE
  5
2E7
100
AcDbEntity
  8
0
100
AcDbLine
 62
7
  6
CONTINUOUS
 10
2.175
 20
-3.225051063
 30
0.0
 11
2.175
 21
-4.275051063
 31
0.0
  0
LINE
  5
2E8
100
AcDbEntity
  8
0
100
AcDbLine
 62
7
  6
CONTINUOUS
 10
2.325
 20
22.1956096608
 30
0.0
 11
2.325
 21
22.1379611036
 31
0.0
  0
LINE
  5
2E9
100
AcDbEntity
  8
SMUSSO
100
AcDbLine
 62
7
  6
CONTINUOUS
 10
2.325
 20
22.1379611036
 30
0.0
 11
2.325
 21
22.1
 31
0.0
  0
LINE
  5
2EA
100
AcDbEntity
  8
0
100
AcDbLine
 62
7
  6
CONTINUOUS
 10
2.625
 20
3.074948937
 30
0.0
 11
2.625
 21
0.074948937
 31
0.0
  0
LINE
  5
2EB
100
AcDbEntity
  8
0
100
AcDbLine
 62
7
  6
CONTINUOUS
 10
2.675
 20
-5.525051063
 30
0.0
 11
2.675
 21
-3.225051063
 31
0.0
  0
LINE
  5
2EC
100
AcDbEntity
  8
DRAFT
100
AcDbLine
 62
7
  6
CONTINUOUS
 10
2.975
 20
-6.1
 30
0.0
 11
2.975
 21
-4.5
 31
0.0
  0
LINE
  5
2ED
100
AcDbEntity
  8
0
100
AcDbLine
 62
7
  6
CONTINUOUS
 10
3.025
 20
3.074948937
 30
0.0
 11
3.025
 21
0.074948937
 31
0.0
  0
LINE
  5
2EE
100
AcDbEntity
  8
RACCORDO
100
AcDbLine
 62
250
  6
CONTINUOUS
 10
3.2220826234
 20
-23.5953423515
 30
0.0
 11
3.2220826234
 21
-22.3475922207
 31
0.0
  0
LINE
  5
2EF
100
AcDbEntity
  8
RACCORDO
100
AcDbLine
 62
250
  6
CONTINUOUS
 10
3.2220826234
 20
22.3475922207
 30
0.0
 11
3.2220826234
 21
23.5953423515
 31
0.0
  0
LINE
  5
2F0
100
AcDbEntity
  8
RACCORDO
100
AcDbLine
 62
250
  6
CONTINUOUS
 10
3.7220741618
 20
-23.7970741618
 30
0.0
 11
3.7220741618
 21
-22.3736436632
 31
0.0
  0
LINE
  5
2F1
100
AcDbEntity
  8
RACCORDO
100
AcDbLine
 62
250
  6
CONTINUOUS
 10
3.7220741618
 20
22.3736436632
 30
0.0
 11
3.7220741618
 21
23.7970741618
 31
0.0
  0
LINE
  5
2F2
100
AcDbEntity
  8
DRAFT
100
AcDbLine
 62
7
  6
CONTINUOUS
 10
3.725
 20
23.8
 30
0.0
 11
3.725
 21
22.4
 31
0.0
  0
LINE
  5
2F3
100
AcDbEntity
  8
DRAFT
100
AcDbLine
 62
7
  6
CONTINUOUS
 10
3.725
 20
-22.4
 30
0.0
 11
3.725
 21
-23.8
 31
0.0
  0
LINE
  5
2F4
100
AcDbEntity
  8
RACCORDO
100
AcDbLine
 62
250
  6
CONTINUOUS
 10
2.3340651868
 20
-7.967032219
 30
0.0
 11
2.3342369883
 21
-6.6158528412
 31
0.0
  0
LINE
  5
2F5
100
AcDbEntity
  8
RACCORDO
100
AcDbLine
 62
250
  6
CONTINUOUS
 10
3.4842369883
 20
-6.6158528412
 30
0.0
 11
3.4843993763
 21
-5.0144137901
 31
0.0
  0
LINE
  5
2F6
100
AcDbEntity
  8
RACCORDO
100
AcDbLine
 62
250
  6
CONTINUOUS
 10
9.8242759622
 20
21.998725222
 30
0.0
 11
9.93391534
 21
22.3279108386
 31
0.0
  0
LINE
  5
2F7
100
AcDbEntity
  8
RACCORDO
100
AcDbLine
 62
250
  6
CONTINUOUS
 10
10.4575830976
 20
21.8998857286
 30
0.0
 11
10.3241998097
 21
21.4994104546
 31
0.0
  0
LINE
  5
2F8
100
AcDbEntity
  8
RACCORDO
100
AcDbLine
 62
7
  6
CONTINUOUS
 10
-3.175
 20
-6.1
 30
0.0
 11
-3.1842560268
 21
-6.1092560268
 31
0.0
  0
LINE
  5
2F9
100
AcDbEntity
  8
RACCORDO
100
AcDbLine
 62
7
  6
CONTINUOUS
 10
-3.175
 20
-7.45
 30
0.0
 11
-3.1840842253
 21
-7.4590842253
 31
0.0
  0
LINE
  5
2FA
100
AcDbEntity
  8
0
100
AcDbLine
 62
7
  6
CONTINUOUS
 10
5.325
 20
3.074948937
 30
0.0
 11
-6.675
 21
3.074948937
 31
0.0
  0
LINE
  5
2FB
100
AcDbEntity
  8
DRAFT
100
AcDbLine
 62
7
  6
CONTINUOUS
 10
5.775
 20
3.4
 30
0.0
 11
-7.125
 21
3.4
 31
0.0
  0
LINE
  5
2FC
100
AcDbEntity
  8
RACCORDO
100
AcDbLine
 62
250
  6
CONTINUOUS
 10
5.7845041146
 20
3.4095041146
 30
0.0
 11
-7.1345041146
 21
3.4095041146
 31
0.0
  0
LINE
  5
2FD
100
AcDbEntity
  8
RACCORDO
100
AcDbLine
 62
250
  6
CONTINUOUS
 10
9.93391534
 20
-22.3279108386
 30
0.0
 11
9.8242759622
 21
-21.998725222
 31
0.0
  0
LINE
  5
2FE
100
AcDbEntity
  8
RACCORDO
100
AcDbLine
 62
250
  6
CONTINUOUS
 10
10.3241998097
 20
-21.4994104546
 30
0.0
 11
10.4575830976
 21
-21.8998857286
 31
0.0
  0
LINE
  5
2FF
100
AcDbEntity
  8
0
100
AcDbLine
 62
7
  6
CONTINUOUS
 10
5.325
 20
-3.925051063
 30
0.0
 11
5.325
 21
3.074948937
 31
0.0
  0
LINE
  5
300
100
AcDbEntity
  8
RACCORDO
100
AcDbLine
 62
250
  6
CONTINUOUS
 10
6.2844850761
 20
3.9133984746
 30
0.0
 11
-7.6344850761
 21
3.9133984746
 31
0.0
  0
LINE
  5
301
100
AcDbEntity
  8
RACCORDO
100
AcDbLine
 62
250
  6
CONTINUOUS
 10
7.5880985787
 20
-23.8443375673
 30
0.0
 11
7.5822807489
 21
-23.2669872981
 31
0.0
  0
LINE
  5
302
100
AcDbEntity
  8
DRAFT
100
AcDbLine
 62
7
  6
CONTINUOUS
 10
5.775
 20
-4.5
 30
0.0
 11
5.775
 21
3.4
 31
0.0
  0
LINE
  5
303
100
AcDbEntity
  8
RACCORDO
100
AcDbLine
 62
250
  6
CONTINUOUS
 10
6.2843993763
 20
-5.0144137901
 30
0.0
 11
6.2844850761
 21
3.9133984746
 31
0.0
  0
LINE
  5
304
100
AcDbEntity
  8
RACCORDO
100
AcDbLine
 62
250
  6
CONTINUOUS
 10
7.5822807489
 20
23.2669872981
 30
0.0
 11
7.5880985787
 21
23.8443375673
 31
0.0
  0
LINE
  5
305
100
AcDbEntity
  8
RACCORDO
100
AcDbLine
 62
250
  6
CONTINUOUS
 10
7.8380943479
 20
-23.6278312164
 30
0.0
 11
7.8330037468
 21
-23.1226497308
 31
0.0
  0
LINE
  5
306
100
AcDbEntity
  8
RACCORDO
100
AcDbLine
 62
7
  6
CONTINUOUS
 10
7.575
 20
-22.4
 30
0.0
 11
7.575
 21
-24.2500042308
 31
0.0
  0
LINE
  5
307
100
AcDbEntity
  8
RACCORDO
100
AcDbLine
 62
7
  6
CONTINUOUS
 10
7.575
 20
22.4
 30
0.0
 11
7.575
 21
24.2500042308
 31
0.0
  0
LINE
  5
308
100
AcDbEntity
  8
RACCORDO
100
AcDbLine
 62
250
  6
CONTINUOUS
 10
7.5822807489
 20
-23.2669872981
 30
0.0
 11
7.5822807489
 21
-22.3344140523
 31
0.0
  0
LINE
  5
309
100
AcDbEntity
  8
RACCORDO
100
AcDbLine
 62
250
  6
CONTINUOUS
 10
7.5822807489
 20
22.3344140523
 30
0.0
 11
7.5822807489
 21
23.2669872981
 31
0.0
  0
LINE
  5
30A
100
AcDbEntity
  8
RACCORDO
100
AcDbLine
 62
250
  6
CONTINUOUS
 10
7.5880985787
 20
24.2369056521
 30
0.0
 11
7.5880985787
 21
23.8443375673
 31
0.0
  0
LINE
  5
30B
100
AcDbEntity
  8
RACCORDO
100
AcDbLine
 62
250
  6
CONTINUOUS
 10
7.5880985787
 20
-23.8443375673
 30
0.0
 11
7.5880985787
 21
-24.2369056521
 31
0.0
  0
LINE
  5
30C
100
AcDbEntity
  8
RACCORDO
100
AcDbLine
 62
250
  6
CONTINUOUS
 10
7.8322765181
 20
-23.1226497308
 30
0.0
 11
7.8322765181
 21
-22.3213883311
 31
0.0
  0
LINE
  5
30D
100
AcDbEntity
  8
RACCORDO
100
AcDbLine
 62
250
  6
CONTINUOUS
 10
7.8322765181
 20
22.3213883311
 30
0.0
 11
7.8322765181
 21
23.1226497308
 31
0.0
  0
LINE
  5
30E
100
AcDbEntity
  8
RACCORDO
100
AcDbLine
 62
250
  6
CONTINUOUS
 10
7.8380943479
 20
-23.6278312164
 30
0.0
 11
7.8380943479
 21
-24.4869014213
 31
0.0
  0
LINE
  5
30F
100
AcDbEntity
  8
RACCORDO
100
AcDbLine
 62
250
  6
CONTINUOUS
 10
7.8380943479
 20
23.6278312164
 30
0.0
 11
7.8380943479
 21
24.4869014213
 31
0.0
  0
LINE
  5
310
100
AcDbEntity
  8
RACCORDO
100
AcDbLine
 62
250
  6
CONTINUOUS
 10
8.525
 20
22.1
 30
0.0
 11
8.525
 21
15.6031206241
 31
0.0
  0
LINE
  5
311
100
AcDbEntity
  8
RACCORDO
100
AcDbLine
 62
7
  6
CONTINUOUS
 10
8.775
 20
21.8496569135
 30
0.0
 11
8.775
 21
15.75
 31
0.0
  0
LINE
  5
312
100
AcDbEntity
  8
ASSI
100
AcDbLine
 62
7
  6
CONTINUOUS
 10
8.825
 20
15.6
 30
0.0
 11
8.825
 21
22.1379611036
 31
0.0
  0
LINE
  5
313
100
AcDbEntity
  8
RACCORDO
100
AcDbLine
 62
250
  6
CONTINUOUS
 10
7.8330037468
 20
23.1226497308
 30
0.0
 11
7.8380943479
 21
23.6278312164
 31
0.0
  0
LINE
  5
314
100
AcDbEntity
  8
RACCORDO
100
AcDbLine
 62
250
  6
CONTINUOUS
 10
-11.325
 20
-24.2500042308
 30
0.0
 11
-11.3119014213
 21
-24.2369056521
 31
0.0
  0
LINE
  5
315
100
AcDbEntity
  8
RACCORDO
100
AcDbLine
 62
250
  6
CONTINUOUS
 10
-11.325
 20
24.2500042308
 30
0.0
 11
-11.3119014213
 21
24.2369056521
 31
0.0
  0
LINE
  5
316
100
AcDbEntity
  8
RACCORDO
100
AcDbLine
 62
250
  6
CONTINUOUS
 10
9.7119056521
 20
23.6278312164
 30
0.0
 11
9.7169962532
 21
23.1226497308
 31
0.0
  0
LINE
  5
317
100
AcDbEntity
  8
RACCORDO
100
AcDbLine
 62
250
  6
CONTINUOUS
 10
9.9619014213
 20
23.8443375673
 30
0.0
 11
9.9677192511
 21
23.2669872981
 31
0.0
  0
LINE
  5
318
100
AcDbEntity
  8
RACCORDO
100
AcDbLine
 62
250
  6
CONTINUOUS
 10
9.7119056521
 20
-23.6278312164
 30
0.0
 11
9.7119056521
 21
-24.4869014213
 31
0.0
  0
LINE
  5
319
100
AcDbEntity
  8
RACCORDO
100
AcDbLine
 62
250
  6
CONTINUOUS
 10
9.7119056521
 20
23.6278312164
 30
0.0
 11
9.7119056521
 21
24.4869014213
 31
0.0
  0
LINE
  5
31A
100
AcDbEntity
  8
RACCORDO
100
AcDbLine
 62
250
  6
CONTINUOUS
 10
9.7177234819
 20
-23.1226497308
 30
0.0
 11
9.7177234819
 21
-22.3213883311
 31
0.0
  0
LINE
  5
31B
100
AcDbEntity
  8
RACCORDO
100
AcDbLine
 62
250
  6
CONTINUOUS
 10
9.7177234819
 20
22.3213883311
 30
0.0
 11
9.7177234819
 21
23.1226497308
 31
0.0
  0
LINE
  5
31C
100
AcDbEntity
  8
RACCORDO
100
AcDbLine
 62
250
  6
CONTINUOUS
 10
9.9619014213
 20
-24.2369056521
 30
0.0
 11
9.9619014213
 21
-23.8443375673
 31
0.0
  0
LINE
  5
31D
100
AcDbEntity
  8
RACCORDO
100
AcDbLine
 62
250
  6
CONTINUOUS
 10
9.9619014213
 20
23.8443375673
 30
0.0
 11
9.9619014213
 21
24.2369056521
 31
0.0
  0
LINE
  5
31E
100
AcDbEntity
  8
RACCORDO
100
AcDbLine
 62
250
  6
CONTINUOUS
 10
9.9677192511
 20
-23.2669872981
 30
0.0
 11
9.9677192511
 21
-22.3334109614
 31
0.0
  0
LINE
  5
31F
100
AcDbEntity
  8
RACCORDO
100
AcDbLine
 62
250
  6
CONTINUOUS
 10
9.9677192511
 20
22.3334109614
 30
0.0
 11
9.9677192511
 21
23.2669872981
 31
0.0
  0
LINE
  5
320
100
AcDbEntity
  8
RACCORDO
100
AcDbLine
 62
7
  6
CONTINUOUS
 10
9.975
 20
-22.399689968
 30
0.0
 11
9.975
 21
-24.2500042308
 31
0.0
  0
LINE
  5
321
100
AcDbEntity
  8
RACCORDO
100
AcDbLine
 62
7
  6
CONTINUOUS
 10
9.975
 20
22.399689968
 30
0.0
 11
9.975
 21
24.2500042308
 31
0.0
  0
LINE
  5
322
100
AcDbEntity
  8
RACCORDO
100
AcDbLine
 62
7
  6
CONTINUOUS
 10
10.475
 20
21.8911779406
 30
0.0
 11
10.475
 21
-21.8911779406
 31
0.0
  0
LINE
  5
323
100
AcDbEntity
  8
RACCORDO
100
AcDbLine
 62
250
  6
CONTINUOUS
 10
9.7169962532
 20
-23.1226497308
 30
0.0
 11
9.7119056521
 21
-23.6278312164
 31
0.0
  0
LINE
  5
324
100
AcDbEntity
  8
RACCORDO
100
AcDbLine
 62
250
  6
CONTINUOUS
 10
9.9677192511
 20
-23.2669872981
 30
0.0
 11
9.9619014213
 21
-23.8443375673
 31
0.0
  0
LINE
  5
325
100
AcDbEntity
  8
RACCORDO
100
AcDbLine
 62
7
  6
CONTINUOUS
 10
7.575
 20
-22.4
 30
0.0
 11
7.5822807489
 21
-22.3344140523
 31
0.0
  0
LINE
  5
326
100
AcDbEntity
  8
RACCORDO
100
AcDbLine
 62
250
  6
CONTINUOUS
 10
-11.0750042308
 20
-24.5
 30
0.0
 11
-11.0619056521
 21
-24.4869014213
 31
0.0
  0
LINE
  5
327
100
AcDbEntity
  8
RACCORDO
100
AcDbLine
 62
250
  6
CONTINUOUS
 10
-11.0750042308
 20
24.5
 30
0.0
 11
-11.0619056521
 21
24.4869014213
 31
0.0
  0
LINE
  5
328
100
AcDbEntity
  8
RACCORDO
100
AcDbLine
 62
7
  6
CONTINUOUS
 10
7.575
 20
22.4
 30
0.0
 11
7.5822807489
 21
22.3344140523
 31
0.0
  0
LINE
  5
329
100
AcDbEntity
  8
RACCORDO
100
AcDbLine
 62
7
  6
CONTINUOUS
 10
-5.0720741618
 20
-23.7970741618
 30
0.0
 11
-5.075
 21
-23.8
 31
0.0
  0
LINE
  5
32A
100
AcDbEntity
  8
RACCORDO
100
AcDbLine
 62
7
  6
CONTINUOUS
 10
-5.0720741618
 20
23.7970741618
 30
0.0
 11
-5.075
 21
23.8
 31
0.0
  0
LINE
  5
32B
100
AcDbEntity
  8
ASSI
100
AcDbLine
 62
7
  6
CONTINUOUS
 10
8.825
 20
15.6
 30
0.0
 11
8.7247022716
 21
15.6
 31
0.0
  0
LINE
  5
32C
100
AcDbEntity
  8
ASSI
100
AcDbLine
 62
7
  6
CONTINUOUS
 10
-10.0747022716
 20
15.6
 30
0.0
 11
-10.175
 21
15.6
 31
0.0
  0
LINE
  5
32D
100
AcDbEntity
  8
RACCORDO
100
AcDbLine
 62
250
  6
CONTINUOUS
 10
8.525
 20
15.6031206241
 30
0.0
 11
-9.875
 21
15.6031206241
 31
0.0
  0
LWPOLYLINE
  5
32E
100
AcDbEntity
  8
0
100
AcDbPolyline
 62
7
  6
CONTINUOUS
 90
10
 70
0
 43
0.3500000006
 10
0.3964285558
 20
33.7500009155
 10
0.4678571541
 20
33.6071430817
 10
0.4678571541
 20
33.5357164307
 10
0.324999993
 20
33.3928585968
 10
0.2535714301
 20
33.3928585968
 10
0.1821428495
 20
33.4642852478
 10
0.1821428495
 20
33.5357164307
 10
0.2535714301
 20
33.6785697327
 10
0.324999993
 20
33.7500009155
 10
0.3964285558
 20
33.7500009155
  0
LINE
  5
32F
100
AcDbEntity
  8
RACCORDO
100
AcDbLine
 62
250
  6
CONTINUOUS
 10
8.825
 20
19.9
 30
0.0
 11
8.775
 21
19.9
 31
0.0
  0
LINE
  5
330
100
AcDbEntity
  8
RACCORDO
100
AcDbLine
 62
250
  6
CONTINUOUS
 10
-10.125
 20
19.9
 30
0.0
 11
-10.175
 21
19.9
 31
0.0
  0
LINE
  5
331
100
AcDbEntity
  8
RACCORDO
100
AcDbLine
 62
7
  6
CONTINUOUS
 10
8.825
 20
20.4
 30
0.0
 11
8.775
 21
20.4
 31
0.0
  0
LINE
  5
332
100
AcDbEntity
  8
RACCORDO
100
AcDbLine
 62
7
  6
CONTINUOUS
 10
-10.125
 20
20.4
 30
0.0
 11
-10.175
 21
20.4
 31
0.0
  0
LINE
  5
333
100
AcDbEntity
  8
RACCORDO
100
AcDbLine
 62
250
  6
CONTINUOUS
 10
8.525
 20
20.5248213396
 30
0.0
 11
-9.875
 21
20.5248213396
 31
0.0
  0
LINE
  5
334
100
AcDbEntity
  8
ASSI
100
AcDbLine
 62
250
  6
CONTINUOUS
 10
-11.1577491915
 20
20.5624683248
 30
0.0
 11
-10.175
 21
20.5624683248
 31
0.0
  0
LINE
  5
335
100
AcDbEntity
  8
ASSI
100
AcDbLine
 62
250
  6
CONTINUOUS
 10
8.825
 20
20.5624683248
 30
0.0
 11
9.8077491915
 21
20.5624683248
 31
0.0
  0
LINE
  5
336
100
AcDbEntity
  8
SMUSSO
100
AcDbLine
 62
7
  6
CONTINUOUS
 10
-10.175
 20
21.3
 30
0.0
 11
-10.125
 21
21.3
 31
0.0
  0
LINE
  5
337
100
AcDbEntity
  8
SMUSSO
100
AcDbLine
 62
7
  6
CONTINUOUS
 10
8.825
 20
21.3
 30
0.0
 11
8.775
 21
21.3
 31
0.0
  0
LINE
  5
338
100
AcDbEntity
  8
SMUSSO
100
AcDbLine
 62
7
  6
CONTINUOUS
 10
-10.175
 20
21.7
 30
0.0
 11
-10.125
 21
21.7
 31
0.0
  0
LINE
  5
339
100
AcDbEntity
  8
SMUSSO
100
AcDbLine
 62
7
  6
CONTINUOUS
 10
8.825
 20
21.7
 30
0.0
 11
8.775
 21
21.7
 31
0.0
  0
LINE
  5
33A
100
AcDbEntity
  8
RACCORDO
100
AcDbLine
 62
250
  6
CONTINUOUS
 10
8.525
 20
21.9611911777
 30
0.0
 11
-9.875
 21
21.9611911777
 31
0.0
  0
LINE
  5
33B
100
AcDbEntity
  8
ASSI
100
AcDbLine
 62
250
  6
CONTINUOUS
 10
-11.1742759622
 20
21.998725222
 30
0.0
 11
-10.175
 21
21.998725222
 31
0.0
  0
LINE
  5
33C
100
AcDbEntity
  8
ASSI
100
AcDbLine
 62
250
  6
CONTINUOUS
 10
8.825
 20
21.998725222
 30
0.0
 11
9.8242759622
 21
21.998725222
 31
0.0
  0
LINE
  5
33D
100
AcDbEntity
  8
RACCORDO
100
AcDbLine
 62
250
  6
CONTINUOUS
 10
7.575
 20
-24.2500042308
 30
0.0
 11
7.5880985787
 21
-24.2369056521
 31
0.0
  0
LINE
  5
33E
100
AcDbEntity
  8
RACCORDO
100
AcDbLine
 62
250
  6
CONTINUOUS
 10
7.8249957692
 20
-24.5
 30
0.0
 11
7.8380943479
 21
-24.4869014213
 31
0.0
  0
LINE
  5
33F
100
AcDbEntity
  8
RACCORDO
100
AcDbLine
 62
7
  6
CONTINUOUS
 10
-9.875
 20
22.1
 30
0.0
 11
8.525
 21
22.1
 31
0.0
  0
LINE
  5
340
100
AcDbEntity
  8
0
100
AcDbLine
 62
7
  6
CONTINUOUS
 10
8.825
 20
22.1379611036
 30
0.0
 11
2.325
 21
22.1379611036
 31
0.0
  0
LINE
  5
341
100
AcDbEntity
  8
0
100
AcDbLine
 62
7
  6
CONTINUOUS
 10
-3.675
 20
22.1379611036
 30
0.0
 11
-10.175
 21
22.1379611036
 31
0.0
  0
LINE
  5
342
100
AcDbEntity
  8
0
100
AcDbLine
 62
7
  6
CONTINUOUS
 10
-3.675
 20
22.1956096608
 30
0.0
 11
2.325
 21
22.1956096608
 31
0.0
  0
LINE
  5
343
100
AcDbEntity
  8
RACCORDO
100
AcDbLine
 62
7
  6
CONTINUOUS
 10
-11.0677234819
 20
22.3213883311
 30
0.0
 11
-9.1822765181
 21
22.3213883311
 31
0.0
  0
LINE
  5
344
100
AcDbEntity
  8
RACCORDO
100
AcDbLine
 62
7
  6
CONTINUOUS
 10
7.8322765181
 20
22.3213883311
 30
0.0
 11
9.7177234819
 21
22.3213883311
 31
0.0
  0
LINE
  5
345
100
AcDbEntity
  8
RACCORDO
100
AcDbLine
 62
7
  6
CONTINUOUS
 10
3.2220826234
 20
22.3475922207
 30
0.0
 11
-4.5720826234
 21
22.3475922207
 31
0.0
  0
LINE
  5
346
100
AcDbEntity
  8
DRAFT
100
AcDbLine
 62
7
  6
CONTINUOUS
 10
7.575
 20
22.4
 30
0.0
 11
3.725
 21
22.4
 31
0.0
  0
LINE
  5
347
100
AcDbEntity
  8
DRAFT
100
AcDbLine
 62
7
  6
CONTINUOUS
 10
-5.075
 20
22.4
 30
0.0
 11
-8.925
 21
22.4
 31
0.0
  0
LINE
  5
348
100
AcDbEntity
  8
RACCORDO
100
AcDbLine
 62
7
  6
CONTINUOUS
 10
-11.0677234819
 20
23.1226497308
 30
0.0
 11
-9.1822765181
 21
23.1226497308
 31
0.0
  0
LINE
  5
349
100
AcDbEntity
  8
RACCORDO
100
AcDbLine
 62
7
  6
CONTINUOUS
 10
7.8322765181
 20
23.1226497308
 30
0.0
 11
9.7177234819
 21
23.1226497308
 31
0.0
  0
LINE
  5
34A
100
AcDbEntity
  8
RACCORDO
100
AcDbLine
 62
250
  6
CONTINUOUS
 10
3.2220826234
 20
23.5953423515
 30
0.0
 11
-4.5720826234
 21
23.5953423515
 31
0.0
  0
LINE
  5
34B
100
AcDbEntity
  8
RACCORDO
100
AcDbLine
 62
250
  6
CONTINUOUS
 10
-11.0619056521
 20
23.6278312164
 30
0.0
 11
-9.1880943479
 21
23.6278312164
 31
0.0
  0
LINE
  5
34C
100
AcDbEntity
  8
RACCORDO
100
AcDbLine
 62
250
  6
CONTINUOUS
 10
7.8380943479
 20
23.6278312164
 30
0.0
 11
9.7119056521
 21
23.6278312164
 31
0.0
  0
LINE
  5
34D
100
AcDbEntity
  8
RACCORDO
100
AcDbLine
 62
250
  6
CONTINUOUS
 10
3.6212073137
 20
23.7953389668
 30
0.0
 11
-4.9712073137
 21
23.7953389668
 31
0.0
  0
LINE
  5
34E
100
AcDbEntity
  8
DRAFT
100
AcDbLine
 62
7
  6
CONTINUOUS
 10
-5.075
 20
23.8
 30
0.0
 11
3.725
 21
23.8
 31
0.0
  0
LINE
  5
34F
100
AcDbEntity
  8
RACCORDO
100
AcDbLine
 62
250
  6
CONTINUOUS
 10
7.575
 20
24.2500042308
 30
0.0
 11
7.5880985787
 21
24.2369056521
 31
0.0
  0
LINE
  5
350
100
AcDbEntity
  8
RACCORDO
100
AcDbLine
 62
250
  6
CONTINUOUS
 10
7.8249957692
 20
24.5
 30
0.0
 11
7.8380943479
 21
24.4869014213
 31
0.0
  0
LINE
  5
351
100
AcDbEntity
  8
RACCORDO
100
AcDbLine
 62
250
  6
CONTINUOUS
 10
10.4575830976
 20
-21.8998857286
 30
0.0
 11
10.475
 21
-21.8911779406
 31
0.0
  0
LINE
  5
352
100
AcDbEntity
  8
RACCORDO
100
AcDbLine
 62
7
  6
CONTINUOUS
 10
10.1810139878
 20
-22.3472253447
 30
0.0
 11
10.1985170098
 21
-22.3384745002
 31
0.0
  0
LINE
  5
353
100
AcDbEntity
  8
RACCORDO
100
AcDbLine
 62
250
  6
CONTINUOUS
 10
7.5880985787
 20
23.8443375673
 30
0.0
 11
9.9619014213
 21
23.8443375673
 31
0.0
  0
LINE
  5
354
100
AcDbEntity
  8
RACCORDO
100
AcDbLine
 62
250
  6
CONTINUOUS
 10
-8.9380985787
 20
23.8443375673
 30
0.0
 11
-11.3119014213
 21
23.8443375673
 31
0.0
  0
LINE
  5
355
100
AcDbEntity
  8
RACCORDO
100
AcDbLine
 62
250
  6
CONTINUOUS
 10
7.5880985787
 20
24.2369056521
 30
0.0
 11
9.9619014213
 21
24.2369056521
 31
0.0
  0
LINE
  5
356
100
AcDbEntity
  8
RACCORDO
100
AcDbLine
 62
250
  6
CONTINUOUS
 10
-8.9380985787
 20
24.2369056521
 30
0.0
 11
-11.3119014213
 21
24.2369056521
 31
0.0
  0
LINE
  5
357
100
AcDbEntity
  8
RACCORDO
100
AcDbLine
 62
250
  6
CONTINUOUS
 10
9.7119056521
 20
24.4869014213
 30
0.0
 11
7.8380943479
 21
24.4869014213
 31
0.0
  0
LINE
  5
358
100
AcDbEntity
  8
RACCORDO
100
AcDbLine
 62
250
  6
CONTINUOUS
 10
-9.1880943479
 20
24.4869014213
 30
0.0
 11
-11.0619056521
 21
24.4869014213
 31
0.0
  0
LINE
  5
359
100
AcDbEntity
  8
RACCORDO
100
AcDbLine
 62
7
  6
CONTINUOUS
 10
-11.0750042308
 20
24.5
 30
0.0
 11
-9.1749957692
 21
24.5
 31
0.0
  0
LINE
  5
35A
100
AcDbEntity
  8
RACCORDO
100
AcDbLine
 62
7
  6
CONTINUOUS
 10
7.8249957692
 20
24.5
 30
0.0
 11
9.7250042308
 21
24.5
 31
0.0
  0
LWPOLYLINE
  5
35B
100
AcDbEntity
  8
0
100
AcDbPolyline
 62
7
  6
CONTINUOUS
 90
6
 70
0
 43
0.3500000006
 10
1.4678571053
 20
33.2500007629
 10
2.5392857609
 20
33.2500007629
 10
2.7535713787
 20
33.4642852478
 10
2.7535713787
 20
34.535712204
 10
2.3250000014
 20
34.9642857056
 10
1.8964286242
 20
34.9642857056
  0
LWPOLYLINE
  5
35C
100
AcDbEntity
  8
0
100
AcDbPolyline
 62
7
  6
CONTINUOUS
 90
7
 70
0
 43
0.3500000006
 10
-1.1035714417
 20
33.2500007629
 10
-2.6035713329
 20
33.2500007629
 10
-1.1035714417
 20
35.3928592072
 10
-1.1035714417
 20
35.8214281769
 10
-1.5321428189
 20
36.2500016785
 10
-2.1749999557
 20
36.2500016785
 10
-2.6035713329
 20
35.607143692
  0
LWPOLYLINE
  5
35D
100
AcDbEntity
  8
0
100
AcDbPolyline
 62
7
  6
CONTINUOUS
 90
7
 70
0
 43
0.3500000006
 10
-3.4607143707
 20
33.2500007629
 10
-4.960714262
 20
33.2500007629
 10
-3.4607143707
 20
35.3928592072
 10
-3.4607143707
 20
35.8214281769
 10
-3.8892856064
 20
36.2500016785
 10
-4.5321427431
 20
36.2500016785
 10
-4.960714262
 20
35.607143692
  0
LINE
  5
35E
100
AcDbEntity
  8
RACCORDO
100
AcDbLine
 62
250
  6
CONTINUOUS
 10
10.475
 20
21.8911779406
 30
0.0
 11
10.4575830976
 21
21.8998857286
 31
0.0
  0
LINE
  5
35F
100
AcDbEntity
  8
RACCORDO
100
AcDbLine
 62
7
  6
CONTINUOUS
 10
10.1985170098
 20
22.3384745002
 30
0.0
 11
10.1810139878
 21
22.3472253447
 31
0.0
  0
LWPOLYLINE
  5
360
100
AcDbEntity
  8
0
100
AcDbPolyline
 62
7
  6
CONTINUOUS
 90
3
 70
0
 43
0.3500000006
 10
-36.8877095261
 20
45.3928577271
 10
-36.0305670547
 20
46.2500001984
 10
-36.0305670547
 20
43.2499992828
  0
LWPOLYLINE
  5
361
100
AcDbEntity
  8
0
100
AcDbPolyline
 62
7
  6
CONTINUOUS
 90
5
 70
0
 43
0.3500000006
 10
-42.2448511047
 20
44.9642842255
 10
-41.887708786
 20
45.1785732422
 10
-41.887708786
 20
45.8214266968
 10
-42.2448511047
 20
46.2500001984
 10
-43.101993576
 20
46.2500001984
  0
LWPOLYLINE
  5
362
100
AcDbEntity
  8
0
100
AcDbPolyline
 62
7
  6
CONTINUOUS
 90
5
 70
0
 43
0.3500000006
 10
-34.9591378326
 20
34.9642857056
 10
-34.6019955139
 20
35.1785701904
 10
-34.6019955139
 20
35.8214281769
 10
-34.9591378326
 20
36.2500016785
 10
-35.816280304
 20
36.2500016785
  0
LWPOLYLINE
  5
363
100
AcDbEntity
  8
0
100
AcDbPolyline
 62
7
  6
CONTINUOUS
 90
3
 70
0
 43
0.3500000006
 10
-65.5805103607
 20
-0.8571427917
 10
-65.5805103607
 20
-2.3571432495
 10
-67.9376532898
 20
-1.7142852631
  0
LINE
  5
364
100
AcDbEntity
  8
RACCORDO
100
AcDbLine
 62
250
  6
CONTINUOUS
 10
-46.6877095121
 20
23.4104851482
 30
0.0
 11
-45.9362550793
 21
23.8443375673
 31
0.0
  0
LINE
  5
365
100
AcDbEntity
  8
RACCORDO
100
AcDbLine
 62
7
  6
CONTINUOUS
 10
-46.6877095121
 20
23.1226497308
 30
0.0
 11
-45.8127095121
 21
23.6278312164
 31
0.0
  0
LINE
  5
366
100
AcDbEntity
  8
RACCORDO
100
AcDbLine
 62
7
  6
CONTINUOUS
 10
-45.9362550793
 20
-24.495628166
 30
0.0
 11
-46.6877095121
 21
-24.5
 31
0.0
  0
LINE
  5
367
100
AcDbEntity
  8
RACCORDO
100
AcDbLine
 62
250
  6
CONTINUOUS
 10
-45.9362550793
 20
-24.2456323968
 30
0.0
 11
-46.6877095121
 21
-24.2500042308
 31
0.0
  0
LINE
  5
368
100
AcDbEntity
  8
ASSI
100
AcDbLine
 62
7
  6
CONTINUOUS
 10
-45.6928006038
 20
-23.7942117893
 30
0.0
 11
-39.1848006464
 21
-23.7563493531
 31
0.0
  0
LINE
  5
369
100
AcDbEntity
  8
RACCORDO
100
AcDbLine
 62
250
  6
CONTINUOUS
 10
-45.6877095121
 20
-24.2456323968
 30
0.0
 11
-45.9362550793
 21
-24.2456323968
 31
0.0
  0
LINE
  5
36A
100
AcDbEntity
  8
RACCORDO
100
AcDbLine
 62
250
  6
CONTINUOUS
 10
-49.1877095121
 20
-24.2369056521
 30
0.0
 11
-48.939163945
 21
-24.2369056521
 31
0.0
  0
LINE
  5
36B
100
AcDbEntity
  8
RACCORDO
100
AcDbLine
 62
250
  6
CONTINUOUS
 10
-49.1877095121
 20
-23.8443375673
 30
0.0
 11
-48.939163945
 21
-23.8443375673
 31
0.0
  0
LINE
  5
36C
100
AcDbEntity
  8
RACCORDO
100
AcDbLine
 62
250
  6
CONTINUOUS
 10
-45.6877095121
 20
-23.8443375673
 30
0.0
 11
-45.9362550793
 21
-23.8443375673
 31
0.0
  0
LINE
  5
36D
100
AcDbEntity
  8
RACCORDO
100
AcDbLine
 62
7
  6
CONTINUOUS
 10
-46.6877095121
 20
-24.5
 30
0.0
 11
-48.939163945
 21
-24.4869014213
 31
0.0
  0
LINE
  5
36E
100
AcDbEntity
  8
RACCORDO
100
AcDbLine
 62
250
  6
CONTINUOUS
 10
-46.6877095121
 20
-24.2500042308
 30
0.0
 11
-48.939163945
 21
-24.2369056521
 31
0.0
  0
LINE
  5
36F
100
AcDbEntity
  8
RACCORDO
100
AcDbLine
 62
250
  6
CONTINUOUS
 10
-45.9362550793
 20
-23.8443375673
 30
0.0
 11
-46.6877095121
 21
-23.4104851482
 31
0.0
  0
LINE
  5
370
100
AcDbEntity
  8
RACCORDO
100
AcDbLine
 62
7
  6
CONTINUOUS
 10
-45.8127095121
 20
-23.6278312164
 30
0.0
 11
-46.6877095121
 21
-23.1226497308
 31
0.0
  0
LINE
  5
371
100
AcDbEntity
  8
RACCORDO
100
AcDbLine
 62
7
  6
CONTINUOUS
 10
-55.9456750469
 20
15.5407492644
 30
0.0
 11
-55.9563523001
 21
15.5303987953
 31
0.0
  0
LINE
  5
372
100
AcDbEntity
  8
RACCORDO
100
AcDbLine
 62
7
  6
CONTINUOUS
 10
-55.9451913253
 20
15.540797367
 30
0.0
 11
-55.9563523001
 21
15.5303987953
 31
0.0
  0
LINE
  5
373
100
AcDbEntity
  8
RACCORDO
100
AcDbLine
 62
7
  6
CONTINUOUS
 10
-36.6789829766
 20
-22.3126551668
 30
0.0
 11
-46.6877095121
 21
-22.4
 31
0.0
  0
LINE
  5
374
100
AcDbEntity
  8
RACCORDO
100
AcDbLine
 62
250
  6
CONTINUOUS
 10
-46.6855231831
 20
-21.8998857286
 30
0.0
 11
-45.6877095121
 21
-21.8911779406
 31
0.0
  0
LINE
  5
375
100
AcDbEntity
  8
RACCORDO
100
AcDbLine
 62
7
  6
CONTINUOUS
 10
-48.0632526541
 20
-22.3279108386
 30
0.0
 11
-54.344488401
 21
-21.998725222
 31
0.0
  0
LINE
  5
376
100
AcDbEntity
  8
RACCORDO
100
AcDbLine
 62
250
  6
CONTINUOUS
 10
-54.3270466261
 20
-21.4994104546
 30
0.0
 11
-46.6855231831
 21
-21.8998857286
 31
0.0
  0
LWPOLYLINE
  5
377
100
AcDbEntity
  8
0
100
AcDbPolyline
 62
7
  6
CONTINUOUS
 90
10
 70
0
 43
0.3500000006
 10
-30.8877099609
 20
36.2500016785
 10
-31.5305656815
 20
35.607143692
 10
-31.959139183
 20
34.7500012207
 10
-31.959139183
 20
33.6785697327
 10
-31.5305656815
 20
33.2500007629
 10
-30.8877099609
 20
33.2500007629
 10
-30.4591387253
 20
33.6785697327
 10
-30.4591387253
 20
34.535712204
 10
-30.8877099609
 20
34.9642857056
 10
-31.8162813492
 20
34.9642857056
  0
LINE
  5
378
100
AcDbEntity
  8
RACCORDO
100
AcDbLine
 62
250
  6
CONTINUOUS
 10
-55.2738646818
 20
-20.5419058565
 30
0.0
 11
-55.7647153199
 21
-20.562468318
 31
0.0
  0
LINE
  5
379
100
AcDbEntity
  8
RACCORDO
100
AcDbLine
 62
7
  6
CONTINUOUS
 10
-35.6877095121
 20
-20.9959955457
 30
0.0
 11
-45.4879227519
 21
-20.9104703804
 31
0.0
  0
LINE
  5
37A
100
AcDbEntity
  8
RACCORDO
100
AcDbLine
 62
7
  6
CONTINUOUS
 10
-36.1789833089
 20
-21.5659754333
 30
0.0
 11
-45.6877095121
 21
-21.4
 31
0.0
  0
LINE
  5
37B
100
AcDbEntity
  8
DRAFT
100
AcDbLine
 62
7
  6
CONTINUOUS
 10
-45.4879227519
 20
-20.9104703804
 30
0.0
 11
-45.6877095121
 21
-20.9
 31
0.0
  0
LINE
  5
37C
100
AcDbEntity
  8
RACCORDO
100
AcDbLine
 62
250
  6
CONTINUOUS
 10
-35.6877095121
 20
-20.0275513222
 30
0.0
 11
-45.6877095121
 21
-18.3232986254
 31
0.0
  0
LINE
  5
37D
100
AcDbEntity
  8
RACCORDO
100
AcDbLine
 62
7
  6
CONTINUOUS
 10
-35.6877095121
 20
-19.6808012501
 30
0.0
 11
-45.6877095121
 21
-17.917531443
 31
0.0
  0
LWPOLYLINE
  5
37E
100
AcDbEntity
  8
0
100
AcDbPolyline
 62
7
  6
CONTINUOUS
 90
10
 70
0
 43
0.3500000006
 10
-64.9376523743
 20
0.4285709152
 10
-65.7947948456
 20
1.2857133865
 10
-66.6519373169
 20
1.5000001373
 10
-67.5090797882
 20
1.5000001373
 10
-67.9376532898
 20
1.0714289017
 10
-67.9376532898
 20
0.4285709152
 10
-67.5090797882
 20
-0.0000003204
 10
-66.6519373169
 20
-0.0000003204
 10
-66.2233683472
 20
0.4285709152
 10
-66.2233683472
 20
1.3571423035
  0
LWPOLYLINE
  5
37F
100
AcDbEntity
  8
0
100
AcDbPolyline
 62
7
  6
CONTINUOUS
 90
3
 70
0
 43
0.3500000006
 10
-37.8877098312
 20
43.5357149506
 10
-37.9591387482
 20
43.3214304657
 10
-38.101996582
 20
43.035714798
  0
LINE
  5
380
100
AcDbEntity
  8
RACCORDO
100
AcDbLine
 62
7
  6
CONTINUOUS
 10
-45.0040743955
 20
11.5836351166
 30
0.0
 11
-45.2998415465
 21
11.2878679656
 31
0.0
  0
LINE
  5
381
100
AcDbEntity
  8
RACCORDO
100
AcDbLine
 62
7
  6
CONTINUOUS
 10
-49.1877095121
 20
-24.2369056521
 30
0.0
 11
-49.1877095121
 21
-23.8443375673
 31
0.0
  0
LINE
  5
382
100
AcDbEntity
  8
RACCORDO
100
AcDbLine
 62
7
  6
CONTINUOUS
 10
-49.1877095121
 20
23.8443375673
 30
0.0
 11
-49.1877095121
 21
24.2369056521
 31
0.0
  0
LINE
  5
383
100
AcDbEntity
  8
RACCORDO
100
AcDbLine
 62
250
  6
CONTINUOUS
 10
-48.939163945
 20
-24.2369056521
 30
0.0
 11
-48.939163945
 21
-23.8443375673
 31
0.0
  0
LINE
  5
384
100
AcDbEntity
  8
RACCORDO
100
AcDbLine
 62
250
  6
CONTINUOUS
 10
-48.939163945
 20
23.8443375673
 30
0.0
 11
-48.939163945
 21
24.2369056521
 31
0.0
  0
LINE
  5
385
100
AcDbEntity
  8
RACCORDO
100
AcDbLine
 62
7
  6
CONTINUOUS
 10
-44.2877095121
 20
-10.8101132618
 30
0.0
 11
-45.6877095121
 21
-10.8223308767
 31
0.0
  0
LINE
  5
386
100
AcDbEntity
  8
RACCORDO
100
AcDbLine
 62
250
  6
CONTINUOUS
 10
-44.2877095121
 20
-10.3101323002
 30
0.0
 11
-45.6877095121
 21
-10.3223499151
 31
0.0
  0
LINE
  5
387
100
AcDbEntity
  8
Z030100_COP
100
AcDbLine
 62
7
  6
CONTINUOUS
 10
-27.8877095121
 20
-11.575051063
 30
0.0
 11
-34.6877095121
 21
-11.575051063
 31
0.0
  0
LINE
  5
388
100
AcDbEntity
  8
Z030100_COP
100
AcDbLine
 62
7
  6
CONTINUOUS
 10
-35.4877095121
 20
-11.575051063
 30
0.0
 11
-42.2877095121
 21
-11.575051063
 31
0.0
  0
LINE
  5
389
100
AcDbEntity
  8
Z030100_COP
100
AcDbLine
 62
250
  6
CONTINUOUS
 10
-27.5877095121
 20
-11.275051063
 30
0.0
 11
-34.9877095121
 21
-11.275051063
 31
0.0
  0
LINE
  5
38A
100
AcDbEntity
  8
Z030100_COP
100
AcDbLine
 62
250
  6
CONTINUOUS
 10
-35.1877095121
 20
-11.275051063
 30
0.0
 11
-42.5877095121
 21
-11.275051063
 31
0.0
  0
LINE
  5
38B
100
AcDbEntity
  8
0
100
AcDbLine
 62
7
  6
CONTINUOUS
 10
-27.4877095121
 20
-9.875051063
 30
0.0
 11
-27.5877095121
 21
-9.875051063
 31
0.0
  0
LINE
  5
38C
100
AcDbEntity
  8
0
100
AcDbLine
 62
7
  6
CONTINUOUS
 10
-34.9877095121
 20
-9.875051063
 30
0.0
 11
-35.1877095121
 21
-9.875051063
 31
0.0
  0
LINE
  5
38D
100
AcDbEntity
  8
0
100
AcDbLine
 62
7
  6
CONTINUOUS
 10
-42.5877095121
 20
-9.875051063
 30
0.0
 11
-42.6877095121
 21
-9.875051063
 31
0.0
  0
LINE
  5
38E
100
AcDbEntity
  8
RACCORDO
100
AcDbLine
 62
7
  6
CONTINUOUS
 10
-48.1877095121
 20
-23.1226497308
 30
0.0
 11
-48.1877095121
 21
-22.3213883311
 31
0.0
  0
LINE
  5
38F
100
AcDbEntity
  8
RACCORDO
100
AcDbLine
 62
7
  6
CONTINUOUS
 10
-48.1877095121
 20
22.3213883311
 30
0.0
 11
-48.1877095121
 21
23.1226497308
 31
0.0
  0
LINE
  5
390
100
AcDbEntity
  8
RACCORDO
100
AcDbLine
 62
250
  6
CONTINUOUS
 10
-47.939163945
 20
-23.2669872981
 30
0.0
 11
-47.939163945
 21
-22.3334109614
 31
0.0
  0
LINE
  5
391
100
AcDbEntity
  8
RACCORDO
100
AcDbLine
 62
250
  6
CONTINUOUS
 10
-47.939163945
 20
22.3334109614
 30
0.0
 11
-47.939163945
 21
23.2669872981
 31
0.0
  0
LINE
  5
392
100
AcDbEntity
  8
RACCORDO
100
AcDbLine
 62
7
  6
CONTINUOUS
 10
-44.2877095121
 20
-8.8101132618
 30
0.0
 11
-45.6877095121
 21
-8.8223308767
 31
0.0
  0
LINE
  5
393
100
AcDbEntity
  8
0
100
AcDbLine
 62
7
  6
CONTINUOUS
 10
-27.4877095121
 20
-9.175051063
 30
0.0
 11
-27.5877095121
 21
-9.175051063
 31
0.0
  0
LINE
  5
394
100
AcDbEntity
  8
0
100
AcDbLine
 62
7
  6
CONTINUOUS
 10
-34.9877095121
 20
-9.175051063
 30
0.0
 11
-35.1877095121
 21
-9.175051063
 31
0.0
  0
LINE
  5
395
100
AcDbEntity
  8
0
100
AcDbLine
 62
7
  6
CONTINUOUS
 10
-42.5877095121
 20
-9.175051063
 30
0.0
 11
-42.6877095121
 21
-9.175051063
 31
0.0
  0
LINE
  5
396
100
AcDbEntity
  8
0
100
AcDbLine
 62
7
  6
CONTINUOUS
 10
-44.2877095121
 20
-7.975051063
 30
0.0
 11
-42.8877095121
 21
-7.975051063
 31
0.0
  0
LINE
  5
397
100
AcDbEntity
  8
RACCORDO
100
AcDbLine
 62
7
  6
CONTINUOUS
 10
-45.6877095121
 20
-7.9776691233
 30
0.0
 11
-44.2877095121
 21
-7.9898867382
 31
0.0
  0
LINE
  5
398
100
AcDbEntity
  8
RACCORDO
100
AcDbLine
 62
7
  6
CONTINUOUS
 10
-46.6877095121
 20
-22.399689968
 30
0.0
 11
-46.6877095121
 21
-24.5
 31
0.0
  0
LINE
  5
399
100
AcDbEntity
  8
RACCORDO
100
AcDbLine
 62
7
  6
CONTINUOUS
 10
-46.6877095121
 20
22.399689968
 30
0.0
 11
-46.6877095121
 21
24.5
 31
0.0
  0
LINE
  5
39A
100
AcDbEntity
  8
RACCORDO
100
AcDbLine
 62
250
  6
CONTINUOUS
 10
-45.9362550793
 20
24.2456323968
 30
0.0
 11
-45.9362550793
 21
23.8443375673
 31
0.0
  0
LINE
  5
39B
100
AcDbEntity
  8
RACCORDO
100
AcDbLine
 62
250
  6
CONTINUOUS
 10
-45.9362550793
 20
-23.8443375673
 30
0.0
 11
-45.9362550793
 21
-24.2456323968
 31
0.0
  0
LINE
  5
39C
100
AcDbEntity
  8
RACCORDO
100
AcDbLine
 62
7
  6
CONTINUOUS
 10
-45.6877095121
 20
24.2456323968
 30
0.0
 11
-45.6877095121
 21
23.8443375673
 31
0.0
  0
LINE
  5
39D
100
AcDbEntity
  8
RACCORDO
100
AcDbLine
 62
7
  6
CONTINUOUS
 10
-45.6877095121
 20
22.3912731322
 30
0.0
 11
-45.6877095121
 21
-22.3912731322
 31
0.0
  0
LINE
  5
39E
100
AcDbEntity
  8
RACCORDO
100
AcDbLine
 62
7
  6
CONTINUOUS
 10
-45.6877095121
 20
-23.7941821702
 30
0.0
 11
-45.6877095121
 21
-24.2456323968
 31
0.0
  0
LINE
  5
39F
100
AcDbEntity
  8
0
100
AcDbLine
 62
7
  6
CONTINUOUS
 10
-44.2877095121
 20
-6.475051063
 30
0.0
 11
-43.8877095121
 21
-6.475051063
 31
0.0
  0
LINE
  5
3A0
100
AcDbEntity
  8
RACCORDO
100
AcDbLine
 62
7
  6
CONTINUOUS
 10
-45.6877095121
 20
-5.9776691233
 30
0.0
 11
-44.5850915515
 21
-5.9872915245
 31
0.0
  0
LINE
  5
3A1
100
AcDbEntity
  8
RACCORDO
100
AcDbLine
 62
250
  6
CONTINUOUS
 10
-44.4851034691
 20
12.4118358927
 30
0.0
 11
-44.4851034691
 21
11.5881641073
 31
0.0
  0
LINE
  5
3A2
100
AcDbEntity
  8
RACCORDO
100
AcDbLine
 62
250
  6
CONTINUOUS
 10
-44.4851034691
 20
8.35
 30
0.0
 11
-44.4851034691
 21
7.2881641073
 31
0.0
  0
LINE
  5
3A3
100
AcDbEntity
  8
RACCORDO
100
AcDbLine
 62
250
  6
CONTINUOUS
 10
-44.4851034691
 20
0.4118358927
 30
0.0
 11
-44.4851034691
 21
-0.4118358927
 31
0.0
  0
LINE
  5
3A4
100
AcDbEntity
  8
RACCORDO
100
AcDbLine
 62
250
  6
CONTINUOUS
 10
-44.4851034691
 20
-7.9881641073
 30
0.0
 11
-44.4851034691
 21
-8.8118358927
 31
0.0
  0
LINE
  5
3A5
100
AcDbEntity
  8
RACCORDO
100
AcDbLine
 62
7
  6
CONTINUOUS
 10
-44.2877095121
 20
13.8101132618
 30
0.0
 11
-44.2877095121
 21
11.5898867382
 31
0.0
  0
LINE
  5
3A6
100
AcDbEntity
  8
RACCORDO
100
AcDbLine
 62
7
  6
CONTINUOUS
 10
-44.2877095121
 20
8.35
 30
0.0
 11
-44.2877095121
 21
8.124948937
 31
0.0
  0
LINE
  5
3A7
100
AcDbEntity
  8
RACCORDO
100
AcDbLine
 62
7
  6
CONTINUOUS
 10
-44.2877095121
 20
0.4101132618
 30
0.0
 11
-44.2877095121
 21
-0.4101132618
 31
0.0
  0
LINE
  5
3A8
100
AcDbEntity
  8
RACCORDO
100
AcDbLine
 62
7
  6
CONTINUOUS
 10
-44.2877095121
 20
-6.2872801014
 30
0.0
 11
-44.2877095121
 21
-6.475051063
 31
0.0
  0
LINE
  5
3A9
100
AcDbEntity
  8
RACCORDO
100
AcDbLine
 62
7
  6
CONTINUOUS
 10
-44.2877095121
 20
-10.8101132618
 30
0.0
 11
-44.2877095121
 21
-7.975051063
 31
0.0
  0
LINE
  5
3AA
100
AcDbEntity
  8
0
100
AcDbLine
 62
7
  6
CONTINUOUS
 10
-44.2877095121
 20
-7.975051063
 30
0.0
 11
-44.2877095121
 21
-6.475051063
 31
0.0
  0
LINE
  5
3AB
100
AcDbEntity
  8
0
100
AcDbLine
 62
7
  6
CONTINUOUS
 10
-44.2877095121
 20
6.624948937
 30
0.0
 11
-44.2877095121
 21
8.124948937
 31
0.0
  0
LINE
  5
3AC
100
AcDbEntity
  8
0
100
AcDbLine
 62
7
  6
CONTINUOUS
 10
-43.8877095121
 20
-6.475051063
 30
0.0
 11
-43.8877095121
 21
6.624948937
 31
0.0
  0
LINE
  5
3AD
100
AcDbEntity
  8
0
100
AcDbLine
 62
7
  6
CONTINUOUS
 10
-42.8877095121
 20
6.724948937
 30
0.0
 11
-42.8877095121
 21
-7.975051063
 31
0.0
  0
LWPOLYLINE
  5
3AE
100
AcDbEntity
  8
0
100
AcDbPolyline
 62
7
  6
CONTINUOUS
 90
3
 70
0
 43
0.3500000006
 10
-32.9591372223
 20
33.5357164307
 10
-33.0305661392
 20
33.3214274139
 10
-33.1734239731
 20
33.0357162781
  0
LINE
  5
3AF
100
AcDbEntity
  8
0
100
AcDbLine
 62
7
  6
CONTINUOUS
 10
-40.8377095121
 20
-4.375051063
 30
0.0
 11
-40.1377095121
 21
-4.375051063
 31
0.0
  0
LINE
  5
3B0
100
AcDbEntity
  8
0
100
AcDbLine
 62
7
  6
CONTINUOUS
 10
-37.2377095121
 20
-4.375051063
 30
0.0
 11
-36.5377095121
 21
-4.375051063
 31
0.0
  0
LINE
  5
3B1
100
AcDbEntity
  8
0
100
AcDbLine
 62
7
  6
CONTINUOUS
 10
-33.6377095121
 20
-4.375051063
 30
0.0
 11
-32.9377095121
 21
-4.375051063
 31
0.0
  0
LINE
  5
3B2
100
AcDbEntity
  8
0
100
AcDbLine
 62
7
  6
CONTINUOUS
 10
-30.0377095121
 20
-4.375051063
 30
0.0
 11
-29.3377095121
 21
-4.375051063
 31
0.0
  0
LINE
  5
3B3
100
AcDbEntity
  8
Z030100_COP
100
AcDbLine
 62
7
  6
CONTINUOUS
 10
-27.6048667996
 20
-4.375051063
 30
0.0
 11
-28.6127095121
 21
-4.375051063
 31
0.0
  0
LINE
  5
3B4
100
AcDbEntity
  8
Z030100_COP
100
AcDbLine
 62
7
  6
CONTINUOUS
 10
-30.1127095121
 20
-4.375051063
 30
0.0
 11
-32.4627095121
 21
-4.375051063
 31
0.0
  0
LINE
  5
3B5
100
AcDbEntity
  8
Z030100_COP
100
AcDbLine
 62
7
  6
CONTINUOUS
 10
-33.9627095121
 20
-4.375051063
 30
0.0
 11
-34.9705522246
 21
-4.375051063
 31
0.0
  0
LINE
  5
3B6
100
AcDbEntity
  8
Z030100_COP
100
AcDbLine
 62
7
  6
CONTINUOUS
 10
-35.2048667996
 20
-4.375051063
 30
0.0
 11
-36.2127095121
 21
-4.375051063
 31
0.0
  0
LINE
  5
3B7
100
AcDbEntity
  8
Z030100_COP
100
AcDbLine
 62
7
  6
CONTINUOUS
 10
-37.7127095121
 20
-4.375051063
 30
0.0
 11
-40.0627095121
 21
-4.375051063
 31
0.0
  0
LINE
  5
3B8
100
AcDbEntity
  8
Z030100_COP
100
AcDbLine
 62
7
  6
CONTINUOUS
 10
-41.5627095121
 20
-4.375051063
 30
0.0
 11
-42.5705522246
 21
-4.375051063
 31
0.0
  0
LINE
  5
3B9
100
AcDbEntity
  8
0
100
AcDbLine
 62
7
  6
CONTINUOUS
 10
-27.4877095121
 20
-4.275051063
 30
0.0
 11
-42.6877095121
 21
-4.275051063
 31
0.0
  0
LINE
  5
3BA
100
AcDbEntity
  8
0
100
AcDbLine
 62
7
  6
CONTINUOUS
 10
-42.6877095121
 20
-9.875051063
 30
0.0
 11
-42.6877095121
 21
6.724948937
 31
0.0
  0
LINE
  5
3BB
100
AcDbEntity
  8
Z030100_COP
100
AcDbLine
 62
7
  6
CONTINUOUS
 10
-42.5877095121
 20
-11.275051063
 30
0.0
 11
-42.5877095121
 21
-4.675051063
 31
0.0
  0
LINE
  5
3BC
100
AcDbEntity
  8
Z030100_COP
100
AcDbLine
 62
250
  6
CONTINUOUS
 10
-42.2877095121
 20
-11.575051063
 30
0.0
 11
-42.2877095121
 21
-4.375051063
 31
0.0
  0
LINE
  5
3BD
100
AcDbEntity
  8
Z030100_COP
100
AcDbLine
 62
7
  6
CONTINUOUS
 10
-41.5627095121
 20
-4.375051063
 30
0.0
 11
-41.3043024801
 21
-5.7663546984
 31
0.0
  0
LINE
  5
3BE
100
AcDbEntity
  8
0
100
AcDbLine
 62
7
  6
CONTINUOUS
 10
-40.8377095121
 20
-6.1742432049
 30
0.0
 11
-40.8377095121
 21
-4.375051063
 31
0.0
  0
LINE
  5
3BF
100
AcDbEntity
  8
SMUSSO
100
AcDbLine
 62
7
  6
CONTINUOUS
 10
-40.6277095121
 20
-4.375051063
 30
0.0
 11
-40.6277095121
 21
-6.1395508171
 31
0.0
  0
LINE
  5
3C0
100
AcDbEntity
  8
SMUSSO
100
AcDbLine
 62
7
  6
CONTINUOUS
 10
-40.5577095121
 20
-4.375051063
 30
0.0
 11
-40.5577095121
 21
-6.1048566961
 31
0.0
  0
LINE
  5
3C1
100
AcDbEntity
  8
0
100
AcDbLine
 62
7
  6
CONTINUOUS
 10
-40.1377095121
 20
-4.7788627234
 30
0.0
 11
-40.1377095121
 21
-4.375051063
 31
0.0
  0
LWPOLYLINE
  5
3C2
100
AcDbEntity
  8
0
100
AcDbPolyline
 62
7
  6
CONTINUOUS
 90
2
 70
0
 43
0.3500000006
 10
-39.9591393585
 20
43.2499992828
 10
-39.9591393585
 20
44.7499997406
  0
LINE
  5
3C3
100
AcDbEntity
  8
ASSI
100
AcDbLine
 62
250
  6
CONTINUOUS
 10
-39.1131896854
 20
-22.3338981669
 30
0.0
 11
-39.1131896854
 21
-23.7507734247
 31
0.0
  0
LINE
  5
3C4
100
AcDbEntity
  8
ASSI
100
AcDbLine
 62
250
  6
CONTINUOUS
 10
-39.1131896854
 20
22.3338981669
 30
0.0
 11
-39.1131896854
 21
23.7507734247
 31
0.0
  0
LINE
  5
3C5
100
AcDbEntity
  8
Z030100_COP
100
AcDbLine
 62
7
  6
CONTINUOUS
 10
-40.3211165441
 20
-5.7663546984
 30
0.0
 11
-40.0627095121
 21
-4.375051063
 31
0.0
  0
LINE
  5
3C6
100
AcDbEntity
  8
RACCORDO
100
AcDbLine
 62
7
  6
CONTINUOUS
 10
-44.2877095121
 20
-0.4101132618
 30
0.0
 11
-45.6877095121
 21
-0.4223308767
 31
0.0
  0
LWPOLYLINE
  5
3C7
100
AcDbEntity
  8
0
100
AcDbPolyline
 62
7
  6
CONTINUOUS
 90
2
 70
0
 43
0.3500000006
 10
-64.9376523743
 20
-1.3571429443
 10
-66.437652832
 20
-1.3571429443
  0
LINE
  5
3C8
100
AcDbEntity
  8
0
100
AcDbLine
 62
7
  6
CONTINUOUS
 10
-27.4877095121
 20
-0.675051063
 30
0.0
 11
-42.6877095121
 21
-0.675051063
 31
0.0
  0
LINE
  5
3C9
100
AcDbEntity
  8
0
100
AcDbLine
 62
7
  6
CONTINUOUS
 10
-22.0877095121
 20
-0.575051063
 30
0.0
 11
-27.4877095121
 21
-0.575051063
 31
0.0
  0
LINE
  5
3CA
100
AcDbEntity
  8
0
100
AcDbLine
 62
7
  6
CONTINUOUS
 10
-42.6877095121
 20
-0.575051063
 30
0.0
 11
-42.8877095121
 21
-0.575051063
 31
0.0
  0
LINE
  5
3CB
100
AcDbEntity
  8
0
100
AcDbLine
 62
7
  6
CONTINUOUS
 10
-27.4877095121
 20
-0.175051063
 30
0.0
 11
-42.6877095121
 21
-0.175051063
 31
0.0
  0
LINE
  5
3CC
100
AcDbEntity
  8
RACCORDO
100
AcDbLine
 62
7
  6
CONTINUOUS
 10
-38.6877095121
 20
-22.3301850577
 30
0.0
 11
-38.6877095121
 21
-23.2563578147
 31
0.0
  0
LINE
  5
3CD
100
AcDbEntity
  8
RACCORDO
100
AcDbLine
 62
7
  6
CONTINUOUS
 10
-38.6877095121
 20
22.3301850577
 30
0.0
 11
-38.6877095121
 21
23.2563578147
 31
0.0
  0
LINE
  5
3CE
100
AcDbEntity
  8
RACCORDO
100
AcDbLine
 62
7
  6
CONTINUOUS
 10
-38.4019046652
 20
10.024948937
 30
0.0
 11
-38.4019046652
 21
8.124948937
 31
0.0
  0
LINE
  5
3CF
100
AcDbEntity
  8
0
100
AcDbLine
 62
7
  6
CONTINUOUS
 10
-37.2377095121
 20
-6.0920911511
 30
0.0
 11
-37.2377095121
 21
-4.375051063
 31
0.0
  0
LINE
  5
3D0
100
AcDbEntity
  8
SMUSSO
100
AcDbLine
 62
7
  6
CONTINUOUS
 10
-37.0277095121
 20
-4.375051063
 30
0.0
 11
-37.0277095121
 21
-6.1707200848
 31
0.0
  0
LINE
  5
3D1
100
AcDbEntity
  8
SMUSSO
100
AcDbLine
 62
7
  6
CONTINUOUS
 10
-36.9577095121
 20
-4.375051063
 30
0.0
 11
-36.9577095121
 21
-6.1745679847
 31
0.0
  0
LINE
  5
3D2
100
AcDbEntity
  8
0
100
AcDbLine
 62
7
  6
CONTINUOUS
 10
-27.4877095121
 20
0.324948937
 30
0.0
 11
-42.6877095121
 21
0.324948937
 31
0.0
  0
LINE
  5
3D3
100
AcDbEntity
  8
0
100
AcDbLine
 62
7
  6
CONTINUOUS
 10
-22.0877095121
 20
1.824948937
 30
0.0
 11
-25.7877095121
 21
1.824948937
 31
0.0
  0
LINE
  5
3D4
100
AcDbEntity
  8
RACCORDO
100
AcDbLine
 62
7
  6
CONTINUOUS
 10
-45.6877095121
 20
0.4223308767
 30
0.0
 11
-44.2877095121
 21
0.4101132618
 31
0.0
  0
LINE
  5
3D5
100
AcDbEntity
  8
Z030100_COP
100
AcDbLine
 62
7
  6
CONTINUOUS
 10
-37.7127095121
 20
-4.375051063
 30
0.0
 11
-37.4543024801
 21
-5.7663546984
 31
0.0
  0
LINE
  5
3D6
100
AcDbEntity
  8
RACCORDO
100
AcDbLine
 62
7
  6
CONTINUOUS
 10
-36.4614725682
 20
11.2526839468
 30
0.0
 11
-36.2877095121
 21
8.124948937
 31
0.0
  0
LINE
  5
3D7
100
AcDbEntity
  8
0
100
AcDbLine
 62
7
  6
CONTINUOUS
 10
-36.5377095121
 20
-5.9375597335
 30
0.0
 11
-36.5377095121
 21
-4.375051063
 31
0.0
  0
LINE
  5
3D8
100
AcDbEntity
  8
RACCORDO
100
AcDbLine
 62
250
  6
CONTINUOUS
 10
-36.1789833089
 20
21.5659754333
 30
0.0
 11
-36.1789833089
 21
20.9917082642
 31
0.0
  0
LINE
  5
3D9
100
AcDbEntity
  8
RACCORDO
100
AcDbLine
 62
250
  6
CONTINUOUS
 10
-36.1789833089
 20
-20.9917082642
 30
0.0
 11
-36.1789833089
 21
-21.5659754333
 31
0.0
  0
LINE
  5
3DA
100
AcDbEntity
  8
RACCORDO
100
AcDbLine
 62
7
  6
CONTINUOUS
 10
-35.6877095121
 20
-19.6808012501
 30
0.0
 11
-35.6877095121
 21
-21.3126932437
 31
0.0
  0
LINE
  5
3DB
100
AcDbEntity
  8
RACCORDO
100
AcDbLine
 62
7
  6
CONTINUOUS
 10
-35.6877095121
 20
19.6808012501
 30
0.0
 11
-35.6877095121
 21
21.3126932437
 31
0.0
  0
LINE
  5
3DC
100
AcDbEntity
  8
Z030100_COP
100
AcDbLine
 62
250
  6
CONTINUOUS
 10
-35.4877095121
 20
-11.575051063
 30
0.0
 11
-35.4877095121
 21
-4.375051063
 31
0.0
  0
LINE
  5
3DD
100
AcDbEntity
  8
Z030100_COP
100
AcDbLine
 62
7
  6
CONTINUOUS
 10
-35.1877095121
 20
-11.275051063
 30
0.0
 11
-35.1877095121
 21
-4.675051063
 31
0.0
  0
LINE
  5
3DE
100
AcDbEntity
  8
Z030100_COP
100
AcDbLine
 62
7
  6
CONTINUOUS
 10
-34.9877095121
 20
-11.275051063
 30
0.0
 11
-34.9877095121
 21
-4.675051063
 31
0.0
  0
LINE
  5
3DF
100
AcDbEntity
  8
Z030100_COP
100
AcDbLine
 62
7
  6
CONTINUOUS
 10
-36.4711165441
 20
-5.7663546984
 30
0.0
 11
-36.2127095121
 21
-4.375051063
 31
0.0
  0
LINE
  5
3E0
100
AcDbEntity
  8
Z030100_COP
100
AcDbLine
 62
250
  6
CONTINUOUS
 10
-34.6877095121
 20
-11.575051063
 30
0.0
 11
-34.6877095121
 21
-4.375051063
 31
0.0
  0
LINE
  5
3E1
100
AcDbEntity
  8
0
100
AcDbLine
 62
7
  6
CONTINUOUS
 10
-33.6377095121
 20
-5.9375597335
 30
0.0
 11
-33.6377095121
 21
-4.375051063
 31
0.0
  0
LINE
  5
3E2
100
AcDbEntity
  8
SMUSSO
100
AcDbLine
 62
7
  6
CONTINUOUS
 10
-33.4277095121
 20
-4.375051063
 30
0.0
 11
-33.4277095121
 21
-6.1261126276
 31
0.0
  0
LINE
  5
3E3
100
AcDbEntity
  8
SMUSSO
100
AcDbLine
 62
7
  6
CONTINUOUS
 10
-33.3577095121
 20
-4.375051063
 30
0.0
 11
-33.3577095121
 21
-6.1535212164
 31
0.0
  0
LINE
  5
3E4
100
AcDbEntity
  8
0
100
AcDbLine
 62
7
  6
CONTINUOUS
 10
-32.9377095121
 20
-6.0920911511
 30
0.0
 11
-32.9377095121
 21
-4.375051063
 31
0.0
  0
LINE
  5
3E5
100
AcDbEntity
  8
Z030100_COP
100
AcDbLine
 62
7
  6
CONTINUOUS
 10
-33.9627095121
 20
-4.375051063
 30
0.0
 11
-33.7043024801
 21
-5.7663546984
 31
0.0
  0
LINE
  5
3E6
100
AcDbEntity
  8
RACCORDO
100
AcDbLine
 62
7
  6
CONTINUOUS
 10
-32.5877095121
 20
10.174948937
 30
0.0
 11
-32.5877095121
 21
9.924948937
 31
0.0
  0
LINE
  5
3E7
100
AcDbEntity
  8
0
100
AcDbLine
 62
7
  6
CONTINUOUS
 10
-32.5877095121
 20
8.124948937
 30
0.0
 11
-32.5877095121
 21
9.924948937
 31
0.0
  0
LINE
  5
3E8
100
AcDbEntity
  8
Z030100_COP
100
AcDbLine
 62
7
  6
CONTINUOUS
 10
-32.7211165441
 20
-5.7663546984
 30
0.0
 11
-32.4627095121
 21
-4.375051063
 31
0.0
  0
LINE
  5
3E9
100
AcDbEntity
  8
DRAFT
100
AcDbLine
 62
7
  6
CONTINUOUS
 10
-45.469073133
 20
-10.8204228659
 30
0.0
 11
-45.6877095121
 21
-10.9
 31
0.0
  0
LINE
  5
3EA
100
AcDbEntity
  8
RACCORDO
100
AcDbLine
 62
7
  6
CONTINUOUS
 10
-44.2877095121
 20
7.2898867382
 30
0.0
 11
-45.6877095121
 21
7.2776691233
 31
0.0
  0
LINE
  5
3EB
100
AcDbEntity
  8
0
100
AcDbLine
 62
7
  6
CONTINUOUS
 10
-43.8877095121
 20
6.624948937
 30
0.0
 11
-44.2877095121
 21
6.624948937
 31
0.0
  0
LINE
  5
3EC
100
AcDbEntity
  8
0
100
AcDbLine
 62
7
  6
CONTINUOUS
 10
-42.8877095121
 20
6.724948937
 30
0.0
 11
-27.2877095121
 21
6.724948937
 31
0.0
  0
LINE
  5
3ED
100
AcDbEntity
  8
0
100
AcDbLine
 62
7
  6
CONTINUOUS
 10
-44.2877095121
 20
8.124948937
 30
0.0
 11
-27.2877095121
 21
8.124948937
 31
0.0
  0
LINE
  5
3EE
100
AcDbEntity
  8
Z030100_COP
100
AcDbLine
 62
7
  6
CONTINUOUS
 10
-30.1127095121
 20
-4.375051063
 30
0.0
 11
-29.8543024801
 21
-5.7663546984
 31
0.0
  0
LINE
  5
3EF
100
AcDbEntity
  8
0
100
AcDbLine
 62
7
  6
CONTINUOUS
 10
-30.0377095121
 20
-4.7788627234
 30
0.0
 11
-30.0377095121
 21
-4.375051063
 31
0.0
  0
LINE
  5
3F0
100
AcDbEntity
  8
SMUSSO
100
AcDbLine
 62
7
  6
CONTINUOUS
 10
-29.8277095121
 20
-4.375051063
 30
0.0
 11
-29.8277095121
 21
-5.8578618086
 31
0.0
  0
LINE
  5
3F1
100
AcDbEntity
  8
SMUSSO
100
AcDbLine
 62
7
  6
CONTINUOUS
 10
-29.7577095121
 20
-4.375051063
 30
0.0
 11
-29.7577095121
 21
-5.9809327271
 31
0.0
  0
LINE
  5
3F2
100
AcDbEntity
  8
0
100
AcDbLine
 62
7
  6
CONTINUOUS
 10
-29.3377095121
 20
-6.1742432049
 30
0.0
 11
-29.3377095121
 21
-4.375051063
 31
0.0
  0
LINE
  5
3F3
100
AcDbEntity
  8
RACCORDO
100
AcDbLine
 62
7
  6
CONTINUOUS
 10
-45.4003551304
 20
8.35
 30
0.0
 11
-38.411515475
 21
10.1225114408
 31
0.0
  0
LINE
  5
3F4
100
AcDbEntity
  8
RACCORDO
100
AcDbLine
 62
7
  6
CONTINUOUS
 10
-45.6877095121
 20
8.35
 30
0.0
 11
-44.2877095121
 21
8.35
 31
0.0
  0
LINE
  5
3F5
100
AcDbEntity
  8
0
100
AcDbLine
 62
7
  6
CONTINUOUS
 10
-32.5877095121
 20
9.924948937
 30
0.0
 11
-25.7877095121
 21
9.924948937
 31
0.0
  0
LINE
  5
3F6
100
AcDbEntity
  8
Z030100_COP
100
AcDbLine
 62
250
  6
CONTINUOUS
 10
-27.8877095121
 20
-11.575051063
 30
0.0
 11
-27.8877095121
 21
-4.375051063
 31
0.0
  0
LINE
  5
3F7
100
AcDbEntity
  8
Z030100_COP
100
AcDbLine
 62
7
  6
CONTINUOUS
 10
-27.5877095121
 20
-11.275051063
 30
0.0
 11
-27.5877095121
 21
-4.675051063
 31
0.0
  0
LINE
  5
3F8
100
AcDbEntity
  8
0
100
AcDbLine
 62
7
  6
CONTINUOUS
 10
-27.4877095121
 20
-9.875051063
 30
0.0
 11
-27.4877095121
 21
6.724948937
 31
0.0
  0
LINE
  5
3F9
100
AcDbEntity
  8
0
100
AcDbLine
 62
7
  6
CONTINUOUS
 10
-27.2877095121
 20
6.724948937
 30
0.0
 11
-27.2877095121
 21
-0.575051063
 31
0.0
  0
LINE
  5
3FA
100
AcDbEntity
  8
0
100
AcDbLine
 62
7
  6
CONTINUOUS
 10
-27.2877095121
 20
8.124948937
 30
0.0
 11
-27.2877095121
 21
9.924948937
 31
0.0
  0
LINE
  5
3FB
100
AcDbEntity
  8
Z030100_COP
100
AcDbLine
 62
7
  6
CONTINUOUS
 10
-28.8711165441
 20
-5.7663546984
 30
0.0
 11
-28.6127095121
 21
-4.375051063
 31
0.0
  0
LINE
  5
3FC
100
AcDbEntity
  8
RACCORDO
100
AcDbLine
 62
7
  6
CONTINUOUS
 10
-44.2877095121
 20
11.5898867382
 30
0.0
 11
-45.6877095121
 21
11.5776691233
 31
0.0
  0
LINE
  5
3FD
100
AcDbEntity
  8
RACCORDO
100
AcDbLine
 62
7
  6
CONTINUOUS
 10
-38.9019046652
 20
10.524948937
 30
0.0
 11
-45.6877095121
 21
10.524948937
 31
0.0
  0
LINE
  5
3FE
100
AcDbEntity
  8
RACCORDO
100
AcDbLine
 62
7
  6
CONTINUOUS
 10
-26.7877095121
 20
10.974948937
 30
0.0
 11
-31.7877095121
 21
10.974948937
 31
0.0
  0
LINE
  5
3FF
100
AcDbEntity
  8
RACCORDO
100
AcDbLine
 62
7
  6
CONTINUOUS
 10
-45.5119735808
 20
11.2
 30
0.0
 11
-45.6877095121
 21
11.2
 31
0.0
  0
LINE
  5
400
100
AcDbEntity
  8
RACCORDO
100
AcDbLine
 62
7
  6
CONTINUOUS
 10
-44.2877095121
 20
11.724948937
 30
0.0
 11
-36.9607027448
 21
11.724948937
 31
0.0
  0
LINE
  5
401
100
AcDbEntity
  8
0
100
AcDbLine
 62
7
  6
CONTINUOUS
 10
-25.7877095121
 20
9.924948937
 30
0.0
 11
-25.7877095121
 21
-0.575051063
 31
0.0
  0
LINE
  5
402
100
AcDbEntity
  8
RACCORDO
100
AcDbLine
 62
7
  6
CONTINUOUS
 10
-25.7877095121
 20
9.974948937
 30
0.0
 11
-25.7877095121
 21
9.924948937
 31
0.0
  0
LINE
  5
403
100
AcDbEntity
  8
RACCORDO
100
AcDbLine
 62
7
  6
CONTINUOUS
 10
-45.6877095121
 20
12.4223308767
 30
0.0
 11
-44.2877095121
 21
12.4101132618
 31
0.0
  0
LINE
  5
404
100
AcDbEntity
  8
RACCORDO
100
AcDbLine
 62
250
  6
CONTINUOUS
 10
-45.6877095121
 20
13.3223499151
 30
0.0
 11
-44.2877095121
 21
13.3101323002
 31
0.0
  0
LINE
  5
405
100
AcDbEntity
  8
RACCORDO
100
AcDbLine
 62
7
  6
CONTINUOUS
 10
-45.6877095121
 20
13.8223308767
 30
0.0
 11
-44.2877095121
 21
13.8101132618
 31
0.0
  0
LINE
  5
406
100
AcDbEntity
  8
RACCORDO
100
AcDbLine
 62
7
  6
CONTINUOUS
 10
-48.1877095121
 20
-23.1226497308
 30
0.0
 11
-49.0627095121
 21
-23.6278312164
 31
0.0
  0
LINE
  5
407
100
AcDbEntity
  8
RACCORDO
100
AcDbLine
 62
250
  6
CONTINUOUS
 10
-47.939163945
 20
-23.2669872981
 30
0.0
 11
-48.939163945
 21
-23.8443375673
 31
0.0
  0
LINE
  5
408
100
AcDbEntity
  8
RACCORDO
100
AcDbLine
 62
7
  6
CONTINUOUS
 10
-49.0627095121
 20
23.6278312164
 30
0.0
 11
-48.1877095121
 21
23.1226497308
 31
0.0
  0
LINE
  5
409
100
AcDbEntity
  8
RACCORDO
100
AcDbLine
 62
250
  6
CONTINUOUS
 10
-48.939163945
 20
23.8443375673
 30
0.0
 11
-47.939163945
 21
23.2669872981
 31
0.0
  0
LINE
  5
40A
100
AcDbEntity
  8
0
100
AcDbLine
 62
7
  6
CONTINUOUS
 10
-22.0877095121
 20
-0.575051063
 30
0.0
 11
-22.0877095121
 21
1.824948937
 31
0.0
  0
LINE
  5
40B
100
AcDbEntity
  8
RACCORDO
100
AcDbLine
 62
7
  6
CONTINUOUS
 10
-45.6877095121
 20
17.917531443
 30
0.0
 11
-35.6877095121
 21
19.6808012501
 31
0.0
  0
LINE
  5
40C
100
AcDbEntity
  8
0
100
AcDbLine
 62
250
  6
CONTINUOUS
 10
-35.6877095121
 20
20.0275513222
 30
0.0
 11
-45.6877095121
 21
18.3232986254
 31
0.0
  0
LINE
  5
40D
100
AcDbEntity
  8
RACCORDO
100
AcDbLine
 62
250
  6
CONTINUOUS
 10
-55.7662560843
 20
20.523165016
 30
0.0
 11
-55.8065713523
 21
20.5248213396
 31
0.0
  0
LINE
  5
40E
100
AcDbEntity
  8
RACCORDO
100
AcDbLine
 62
250
  6
CONTINUOUS
 10
-55.2738646818
 20
20.5419058565
 30
0.0
 11
-55.7647154843
 21
20.5624683248
 31
0.0
  0
LINE
  5
40F
100
AcDbEntity
  8
DRAFT
100
AcDbLine
 62
7
  6
CONTINUOUS
 10
-45.6877095121
 20
20.9
 30
0.0
 11
-45.4879227519
 21
20.9104703804
 31
0.0
  0
LINE
  5
410
100
AcDbEntity
  8
RACCORDO
100
AcDbLine
 62
7
  6
CONTINUOUS
 10
-36.1789833089
 20
21.5659754333
 30
0.0
 11
-45.6877095121
 21
21.4
 31
0.0
  0
LINE
  5
411
100
AcDbEntity
  8
RACCORDO
100
AcDbLine
 62
7
  6
CONTINUOUS
 10
-35.6877095121
 20
20.9959955457
 30
0.0
 11
-45.4879227519
 21
20.9104703804
 31
0.0
  0
LINE
  5
412
100
AcDbEntity
  8
RACCORDO
100
AcDbLine
 62
250
  6
CONTINUOUS
 10
-45.6877095121
 20
21.8911779406
 30
0.0
 11
-46.6855231831
 21
21.8998857286
 31
0.0
  0
LWPOLYLINE
  5
413
100
AcDbEntity
  8
0
100
AcDbPolyline
 62
7
  6
CONTINUOUS
 90
10
 70
0
 43
0.3500000006
 10
-33.0305661392
 20
33.7500009155
 10
-32.9591372223
 20
33.6071430817
 10
-32.9591372223
 20
33.5357164307
 10
-33.1019950562
 20
33.3928585968
 10
-33.1734239731
 20
33.3928585968
 10
-33.24485289
 20
33.4642852478
 10
-33.24485289
 20
33.5357164307
 10
-33.1734239731
 20
33.6785697327
 10
-33.1019950562
 20
33.7500009155
 10
-33.0305661392
 20
33.7500009155
  0
LWPOLYLINE
  5
414
100
AcDbEntity
  8
0
100
AcDbPolyline
 62
7
  6
CONTINUOUS
 90
10
 70
0
 43
0.3500000006
 10
-37.9591387482
 20
43.7499994354
 10
-37.8877098312
 20
43.6071416016
 10
-37.8877098312
 20
43.5357149506
 10
-38.0305653992
 20
43.3928571167
 10
-38.101996582
 20
43.3928571167
 10
-38.173423233
 20
43.4642837677
 10
-38.173423233
 20
43.5357149506
 10
-38.101996582
 20
43.6785727844
 10
-38.0305653992
 20
43.7499994354
 10
-37.9591387482
 20
43.7499994354
  0
LINE
  5
415
100
AcDbEntity
  8
RACCORDO
100
AcDbLine
 62
250
  6
CONTINUOUS
 10
-46.6855231831
 20
21.8998857286
 30
0.0
 11
-54.3270466261
 21
21.4994104546
 31
0.0
  0
LINE
  5
416
100
AcDbEntity
  8
RACCORDO
100
AcDbLine
 62
7
  6
CONTINUOUS
 10
-54.344488401
 20
21.998725222
 30
0.0
 11
-48.0632526541
 21
22.3279108386
 31
0.0
  0
LINE
  5
417
100
AcDbEntity
  8
RACCORDO
100
AcDbLine
 62
250
  6
CONTINUOUS
 10
-49.1877095121
 20
23.8443375673
 30
0.0
 11
-48.939163945
 21
23.8443375673
 31
0.0
  0
LINE
  5
418
100
AcDbEntity
  8
RACCORDO
100
AcDbLine
 62
250
  6
CONTINUOUS
 10
-45.6877095121
 20
23.8443375673
 30
0.0
 11
-45.9362550793
 21
23.8443375673
 31
0.0
  0
LINE
  5
419
100
AcDbEntity
  8
ASSI
100
AcDbLine
 62
7
  6
CONTINUOUS
 10
-45.6928021698
 20
23.7942117984
 30
0.0
 11
-39.1848006464
 21
23.7563493531
 31
0.0
  0
LINE
  5
41A
100
AcDbEntity
  8
RACCORDO
100
AcDbLine
 62
7
  6
CONTINUOUS
 10
-36.6789829766
 20
22.3126551668
 30
0.0
 11
-46.6877095121
 21
22.4
 31
0.0
  0
LINE
  5
41B
100
AcDbEntity
  8
RACCORDO
100
AcDbLine
 62
250
  6
CONTINUOUS
 10
-46.6877095121
 20
24.2500042308
 30
0.0
 11
-48.939163945
 21
24.2369056521
 31
0.0
  0
LINE
  5
41C
100
AcDbEntity
  8
RACCORDO
100
AcDbLine
 62
7
  6
CONTINUOUS
 10
-46.6877095121
 20
24.5
 30
0.0
 11
-48.939163945
 21
24.4869014213
 31
0.0
  0
LINE
  5
41D
100
AcDbEntity
  8
RACCORDO
100
AcDbLine
 62
250
  6
CONTINUOUS
 10
-49.1877095121
 20
24.2369056521
 30
0.0
 11
-48.939163945
 21
24.2369056521
 31
0.0
  0
LINE
  5
41E
100
AcDbEntity
  8
RACCORDO
100
AcDbLine
 62
250
  6
CONTINUOUS
 10
-45.6877095121
 20
24.2456323968
 30
0.0
 11
-45.9362550793
 21
24.2456323968
 31
0.0
  0
LINE
  5
41F
100
AcDbEntity
  8
RACCORDO
100
AcDbLine
 62
250
  6
CONTINUOUS
 10
-45.9362550793
 20
24.2456323968
 30
0.0
 11
-46.6877095121
 21
24.2500042308
 31
0.0
  0
LINE
  5
420
100
AcDbEntity
  8
RACCORDO
100
AcDbLine
 62
7
  6
CONTINUOUS
 10
-45.9362550793
 20
24.495628166
 30
0.0
 11
-46.6877095121
 21
24.5
 31
0.0
  0
LWPOLYLINE
  5
421
100
AcDbEntity
  8
0
100
AcDbPolyline
 62
7
  6
CONTINUOUS
 90
6
 70
0
 43
0.3500000006
 10
-35.816280304
 20
33.2500007629
 10
-34.7448533478
 20
33.2500007629
 10
-34.530566597
 20
33.4642852478
 10
-34.530566597
 20
34.535712204
 10
-34.9591378326
 20
34.9642857056
 10
-35.3877090683
 20
34.9642857056
  0
LWPOLYLINE
  5
422
100
AcDbEntity
  8
0
100
AcDbPolyline
 62
7
  6
CONTINUOUS
 90
7
 70
0
 43
0.3500000006
 10
-36.6734227753
 20
33.2500007629
 10
-38.173423233
 20
33.2500007629
 10
-36.6734227753
 20
35.3928592072
 10
-36.6734227753
 20
35.8214281769
 10
-37.1019962769
 20
36.2500016785
 10
-37.7448519974
 20
36.2500016785
 10
-38.173423233
 20
35.607143692
  0
LWPOLYLINE
  5
423
100
AcDbEntity
  8
0
100
AcDbPolyline
 62
7
  6
CONTINUOUS
 90
6
 70
0
 43
0.3500000006
 10
-43.101993576
 20
43.2499992828
 10
-42.0305666199
 20
43.2499992828
 10
-41.816282135
 20
43.4642837677
 10
-41.816282135
 20
44.5357152557
 10
-42.2448511047
 20
44.9642842255
 10
-42.6734246063
 20
44.9642842255
  0
LWPOLYLINE
  5
424
100
AcDbEntity
  8
0
100
AcDbPolyline
 62
7
  6
CONTINUOUS
 90
3
 70
0
 43
0.3500000006
 10
-39.4591392059
 20
43.8928572693
 10
-40.9591396637
 20
43.8928572693
 10
-40.3162816772
 20
46.2500001984
  0
ARC
  5
425
100
AcDbEntity
  8
RACCORDO
100
AcDbCircle
 62
7
  6
CONTINUOUS
 10
9.9572169119
 20
21.8996996299
 30
0.0
 40
0.5003655785
100
AcDbArc
 50
0.0213097249
 51
63.4314444296
  0
ARC
  5
426
100
AcDbEntity
  8
RACCORDO
100
AcDbCircle
 62
7
  6
CONTINUOUS
 10
-11.3072169024
 20
21.8996996237
 30
0.0
 40
0.5003655785
100
AcDbArc
 50
116.5685562188
 51
179.9786895607
  0
ARC
  5
427
100
AcDbEntity
  8
RACCORDO
100
AcDbCircle
 62
7
  6
CONTINUOUS
 10
9.957216912
 20
-21.8996996297
 30
0.0
 40
0.5003655785
100
AcDbArc
 50
296.5685555374
 51
359.9786902422
  0
ARC
  5
428
100
AcDbEntity
  8
RACCORDO
100
AcDbCircle
 62
7
  6
CONTINUOUS
 10
-11.3072169022
 20
-21.899699624
 30
0.0
 40
0.5003655785
100
AcDbArc
 50
180.0213104057
 51
243.4314437488
  0
ARC
  5
429
100
AcDbEntity
  8
RACCORDO
100
AcDbCircle
 62
250
  6
CONTINUOUS
 10
-11.1740666028
 20
21.4985215997
 30
0.0
 40
0.5001723744
100
AcDbArc
 50
90.0239810469
 51
179.8981719658
  0
ARC
  5
42A
100
AcDbEntity
  8
RACCORDO
100
AcDbCircle
 62
250
  6
CONTINUOUS
 10
-11.1740666639
 20
-21.498521661
 30
0.0
 40
0.5001723744
100
AcDbArc
 50
180.1018210185
 51
269.9760259529
  0
ARC
  5
42B
100
AcDbEntity
  8
RACCORDO
100
AcDbCircle
 62
250
  6
CONTINUOUS
 10
9.8240666558
 20
21.4985216786
 30
0.0
 40
0.5001723744
100
AcDbArc
 50
0.1018189988
 51
89.9760250166
  0
ARC
  5
42C
100
AcDbEntity
  8
RACCORDO
100
AcDbCircle
 62
250
  6
CONTINUOUS
 10
9.824066664
 20
-21.4985216611
 30
0.0
 40
0.5001723744
100
AcDbArc
 50
270.023974041
 51
359.8981789877
  0
ARC
  5
42D
100
AcDbEntity
  8
RACCORDO
100
AcDbCircle
 62
7
  6
CONTINUOUS
 10
-11.3074618861
 20
21.9001238099
 30
0.0
 40
0.4998751156
100
AcDbArc
 50
92.0105358189
 51
116.5651877244
  0
ARC
  5
42E
100
AcDbEntity
  8
RACCORDO
100
AcDbCircle
 62
7
  6
CONTINUOUS
 10
9.9574618861
 20
-21.9001238099
 30
0.0
 40
0.4998751156
100
AcDbArc
 50
272.0105358189
 51
296.5651877244
  0
ARC
  5
42F
100
AcDbEntity
  8
RACCORDO
100
AcDbCircle
 62
7
  6
CONTINUOUS
 10
9.9574618861
 20
21.9001238099
 30
0.0
 40
0.4998751156
100
AcDbArc
 50
63.4348122756
 51
87.9894641811
  0
ARC
  5
430
100
AcDbEntity
  8
RACCORDO
100
AcDbCircle
 62
7
  6
CONTINUOUS
 10
-11.3074618861
 20
-21.9001238099
 30
0.0
 40
0.4998751156
100
AcDbArc
 50
243.4348122756
 51
267.9894641811
  0
ARC
  5
431
100
AcDbEntity
  8
RACCORDO
100
AcDbCircle
 62
250
  6
CONTINUOUS
 10
-9.188104562
 20
24.236895438
 30
0.0
 40
0.2500059834
100
AcDbArc
 50
0.0023408263
 51
89.9976591737
  0
ARC
  5
432
100
AcDbEntity
  8
RACCORDO
100
AcDbCircle
 62
250
  6
CONTINUOUS
 10
-11.0618954381
 20
24.2368954381
 30
0.0
 40
0.2500059834
100
AcDbArc
 50
90.0023408215
 51
179.9976591785
  0
ARC
  5
433
100
AcDbEntity
  8
RACCORDO
100
AcDbCircle
 62
250
  6
CONTINUOUS
 10
9.711895438
 20
-24.236895438
 30
0.0
 40
0.2500059834
100
AcDbArc
 50
270.0023408263
 51
359.9976591737
  0
ARC
  5
434
100
AcDbEntity
  8
RACCORDO
100
AcDbCircle
 62
250
  6
CONTINUOUS
 10
7.838104562
 20
-24.236895438
 30
0.0
 40
0.2500059834
100
AcDbArc
 50
180.0023408263
 51
269.9976591737
  0
ARC
  5
435
100
AcDbEntity
  8
RACCORDO
100
AcDbCircle
 62
250
  6
CONTINUOUS
 10
7.838104562
 20
24.236895438
 30
0.0
 40
0.2500059834
100
AcDbArc
 50
90.0023408263
 51
179.9976591737
  0
ARC
  5
436
100
AcDbEntity
  8
RACCORDO
100
AcDbCircle
 62
250
  6
CONTINUOUS
 10
9.7118954381
 20
24.2368954381
 30
0.0
 40
0.2500059834
100
AcDbArc
 50
0.0023408215
 51
89.9976591785
  0
ARC
  5
437
100
AcDbEntity
  8
RACCORDO
100
AcDbCircle
 62
250
  6
CONTINUOUS
 10
-11.0618954381
 20
-24.2368954381
 30
0.0
 40
0.2500059834
100
AcDbArc
 50
180.0023408215
 51
269.9976591785
  0
ARC
  5
438
100
AcDbEntity
  8
RACCORDO
100
AcDbCircle
 62
250
  6
CONTINUOUS
 10
-9.188104562
 20
-24.236895438
 30
0.0
 40
0.2500059834
100
AcDbArc
 50
270.0023408263
 51
359.9976591737
  0
ARC
  5
439
100
AcDbEntity
  8
RACCORDO
100
AcDbCircle
 62
7
  6
CONTINUOUS
 10
-9.875
 20
15.75
 30
0.0
 40
0.25
100
AcDbArc
 50
180.0
 51
216.8927235659
  0
ARC
  5
43A
100
AcDbEntity
  8
RACCORDO
100
AcDbCircle
 62
7
  6
CONTINUOUS
 10
8.525
 20
15.75
 30
0.0
 40
0.25
100
AcDbArc
 50
323.1072764341
 51
360.0
  0
ARC
  5
43B
100
AcDbEntity
  8
RACCORDO
100
AcDbCircle
 62
7
  6
CONTINUOUS
 10
-9.1749946513
 20
24.2500053487
 30
0.0
 40
0.2499946513
100
AcDbArc
 50
359.9997437926
 51
90.0002562074
  0
ARC
  5
43C
100
AcDbEntity
  8
RACCORDO
100
AcDbCircle
 62
7
  6
CONTINUOUS
 10
-11.0750053487
 20
24.2500053487
 30
0.0
 40
0.2499946513
100
AcDbArc
 50
89.9997437926
 51
180.0002562074
  0
ARC
  5
43D
100
AcDbEntity
  8
RACCORDO
100
AcDbCircle
 62
7
  6
CONTINUOUS
 10
9.7250053487
 20
-24.2500053487
 30
0.0
 40
0.2499946513
100
AcDbArc
 50
269.9997437926
 51
0.0002562074
  0
ARC
  5
43E
100
AcDbEntity
  8
RACCORDO
100
AcDbCircle
 62
7
  6
CONTINUOUS
 10
7.8249946513
 20
-24.2500053487
 30
0.0
 40
0.2499946513
100
AcDbArc
 50
179.9997437926
 51
270.0002562074
  0
ARC
  5
43F
100
AcDbEntity
  8
RACCORDO
100
AcDbCircle
 62
7
  6
CONTINUOUS
 10
7.8249946513
 20
24.2500053487
 30
0.0
 40
0.2499946513
100
AcDbArc
 50
89.9997437926
 51
180.0002562074
  0
ARC
  5
440
100
AcDbEntity
  8
RACCORDO
100
AcDbCircle
 62
7
  6
CONTINUOUS
 10
9.7250053487
 20
24.2500053487
 30
0.0
 40
0.2499946513
100
AcDbArc
 50
359.9997437926
 51
90.0002562074
  0
ARC
  5
441
100
AcDbEntity
  8
RACCORDO
100
AcDbCircle
 62
7
  6
CONTINUOUS
 10
-11.0750053487
 20
-24.2500053487
 30
0.0
 40
0.2499946513
100
AcDbArc
 50
179.9997437926
 51
270.0002562074
  0
ARC
  5
442
100
AcDbEntity
  8
RACCORDO
100
AcDbCircle
 62
7
  6
CONTINUOUS
 10
-9.1749946513
 20
-24.2500053487
 30
0.0
 40
0.2499946513
100
AcDbArc
 50
269.9997437926
 51
0.0002562074
  0
ARC
  5
443
100
AcDbEntity
  8
RACCORDO
100
AcDbCircle
 62
250
  6
CONTINUOUS
 10
8.5251692386
 20
21.7113366062
 30
0.0
 40
0.2498439829
100
AcDbArc
 50
0.0452227157
 51
90.0388092083
  0
ARC
  5
444
100
AcDbEntity
  8
RACCORDO
100
AcDbCircle
 62
250
  6
CONTINUOUS
 10
-9.8751692374
 20
21.7113366079
 30
0.0
 40
0.2498439827
100
AcDbArc
 50
89.9611910773
 51
179.9547776654
  0
ARC
  5
445
100
AcDbEntity
  8
RACCORDO
100
AcDbCircle
 62
7
  6
CONTINUOUS
 10
-54.2659844666
 20
-20.5007809198
 30
0.0
 40
1.5
100
AcDbArc
 50
182.3569499908
 51
267.0
  0
ARC
  5
446
100
AcDbEntity
  8
RACCORDO
100
AcDbCircle
 62
250
  6
CONTINUOUS
 10
-54.274710664
 20
-20.5007809141
 30
0.0
 40
1.0000000061
100
AcDbArc
 50
182.3569503068
 51
266.999999684
  0
ARC
  5
447
100
AcDbEntity
  8
RACCORDO
100
AcDbCircle
 62
7
  6
CONTINUOUS
 10
-36.6877095121
 20
-21.3126932437
 30
0.0
 40
1.0
100
AcDbArc
 50
270.5
 51
360.0
  0
ARC
  5
448
100
AcDbEntity
  8
Z030100_COP
100
AcDbCircle
 62
7
  6
CONTINUOUS
 10
-40.8127095121
 20
-5.675051063
 30
0.0
 40
0.5
100
AcDbArc
 50
190.5216629287
 51
349.4783370713
  0
ARC
  5
449
100
AcDbEntity
  8
Z030100_COP
100
AcDbCircle
 62
7
  6
CONTINUOUS
 10
-36.9627095121
 20
-5.675051063
 30
0.0
 40
0.5
100
AcDbArc
 50
190.5216629287
 51
349.4783370713
  0
ARC
  5
44A
100
AcDbEntity
  8
Z030100_COP
100
AcDbCircle
 62
7
  6
CONTINUOUS
 10
-33.2127095121
 20
-5.675051063
 30
0.0
 40
0.5
100
AcDbArc
 50
190.5216629287
 51
349.4783370713
  0
ARC
  5
44B
100
AcDbEntity
  8
Z030100_COP
100
AcDbCircle
 62
7
  6
CONTINUOUS
 10
-29.3627095121
 20
-5.675051063
 30
0.0
 40
0.5
100
AcDbArc
 50
190.5216629287
 51
349.4783370713
  0
ARC
  5
44C
100
AcDbEntity
  8
ASSI
100
AcDbCircle
 62
7
  6
CONTINUOUS
 10
-39.1877095121
 20
-23.2563578147
 30
0.0
 40
0.5
100
AcDbArc
 50
270.3333333333
 51
360.0
  0
ARC
  5
44D
100
AcDbEntity
  8
Z030100_COP
100
AcDbCircle
 62
7
  6
CONTINUOUS
 10
-35.4877095121
 20
-11.275051063
 30
0.0
 40
0.3
100
AcDbArc
 50
270.0
 51
360.0
  0
ARC
  5
44E
100
AcDbEntity
  8
Z030100_COP
100
AcDbCircle
 62
7
  6
CONTINUOUS
 10
-42.2877095121
 20
-11.275051063
 30
0.0
 40
0.3
100
AcDbArc
 50
180.0
 51
270.0
  0
ARC
  5
44F
100
AcDbEntity
  8
Z030100_COP
100
AcDbCircle
 62
7
  6
CONTINUOUS
 10
-27.8877095121
 20
-11.275051063
 30
0.0
 40
0.3
100
AcDbArc
 50
270.0
 51
360.0
  0
ARC
  5
450
100
AcDbEntity
  8
Z030100_COP
100
AcDbCircle
 62
7
  6
CONTINUOUS
 10
-34.6877095121
 20
-11.275051063
 30
0.0
 40
0.3
100
AcDbArc
 50
180.0
 51
270.0
  0
ARC
  5
451
100
AcDbEntity
  8
RACCORDO
100
AcDbCircle
 62
7
  6
CONTINUOUS
 10
-44.5877095121
 20
-6.2872801014
 30
0.0
 40
0.3
100
AcDbArc
 50
0.0
 51
89.5
  0
ARC
  5
452
100
AcDbEntity
  8
RACCORDO
100
AcDbCircle
 62
7
  6
CONTINUOUS
 10
-45.9377095121
 20
-23.8443375673
 30
0.0
 40
0.25
100
AcDbArc
 50
0.0
 51
60.0
  0
ARC
  5
453
100
AcDbEntity
  8
RACCORDO
100
AcDbCircle
 62
7
  6
CONTINUOUS
 10
-45.9377095121
 20
-24.2456323968
 30
0.0
 40
0.25
100
AcDbArc
 50
270.3333333333
 51
360.0
  0
ARC
  5
454
100
AcDbEntity
  8
RACCORDO
100
AcDbCircle
 62
7
  6
CONTINUOUS
 10
-48.9377095121
 20
-24.2369056521
 30
0.0
 40
0.25
100
AcDbArc
 50
180.0
 51
269.6666666667
  0
ARC
  5
455
100
AcDbEntity
  8
RACCORDO
100
AcDbCircle
 62
7
  6
CONTINUOUS
 10
-48.9377095121
 20
-23.8443375673
 30
0.0
 40
0.25
100
AcDbArc
 50
120.0
 51
180.0
  0
ARC
  5
456
100
AcDbEntity
  8
RACCORDO
100
AcDbCircle
 62
7
  6
CONTINUOUS
 10
-54.30783569
 20
20.4632468755
 30
0.0
 40
1.5
100
AcDbArc
 50
131.187746306
 51
177.647367682
  0
ARC
  5
457
100
AcDbEntity
  8
RACCORDO
100
AcDbCircle
 62
7
  6
CONTINUOUS
 10
-54.2659844666
 20
20.5007809198
 30
0.0
 40
1.5
100
AcDbArc
 50
93.0
 51
177.6430500092
  0
ARC
  5
458
100
AcDbEntity
  8
RACCORDO
100
AcDbCircle
 62
250
  6
CONTINUOUS
 10
-54.2747106641
 20
20.5007809141
 30
0.0
 40
1.000000006
100
AcDbArc
 50
93.0000003145
 51
177.6430496947
  0
ARC
  5
459
100
AcDbEntity
  8
RACCORDO
100
AcDbCircle
 62
7
  6
CONTINUOUS
 10
-26.7877095121
 20
9.974948937
 30
0.0
 40
1.0
100
AcDbArc
 50
0.0
 51
90.0
  0
ARC
  5
45A
100
AcDbEntity
  8
RACCORDO
100
AcDbCircle
 62
7
  6
CONTINUOUS
 10
-36.6877095121
 20
21.3126932437
 30
0.0
 40
1.0
100
AcDbArc
 50
0.0
 51
89.5
  0
ARC
  5
45B
100
AcDbEntity
  8
RACCORDO
100
AcDbCircle
 62
7
  6
CONTINUOUS
 10
-31.7877095121
 20
10.174948937
 30
0.0
 40
0.8
100
AcDbArc
 50
90.0
 51
180.0
  0
ARC
  5
45C
100
AcDbEntity
  8
RACCORDO
100
AcDbCircle
 62
7
  6
CONTINUOUS
 10
-38.9019046652
 20
10.024948937
 30
0.0
 40
0.5
100
AcDbArc
 50
0.0
 51
90.0
  0
ARC
  5
45D
100
AcDbEntity
  8
RACCORDO
100
AcDbCircle
 62
7
  6
CONTINUOUS
 10
-36.9607027448
 20
11.224948937
 30
0.0
 40
0.5
100
AcDbArc
 50
3.1798301199
 51
90.0
  0
ARC
  5
45E
100
AcDbEntity
  8
ASSI
100
AcDbCircle
 62
7
  6
CONTINUOUS
 10
-39.1877095121
 20
23.2563578147
 30
0.0
 40
0.5
100
AcDbArc
 50
0.0
 51
89.6666666667
  0
ARC
  5
45F
100
AcDbEntity
  8
RACCORDO
100
AcDbCircle
 62
7
  6
CONTINUOUS
 10
-45.5119735808
 20
11.5
 30
0.0
 40
0.3
100
AcDbArc
 50
270.0
 51
315.0
  0
ARC
  5
460
100
AcDbEntity
  8
RACCORDO
100
AcDbCircle
 62
7
  6
CONTINUOUS
 10
-45.9377095121
 20
23.8443375673
 30
0.0
 40
0.25
100
AcDbArc
 50
300.0
 51
360.0
  0
ARC
  5
461
100
AcDbEntity
  8
RACCORDO
100
AcDbCircle
 62
7
  6
CONTINUOUS
 10
-45.9377095121
 20
24.2456323968
 30
0.0
 40
0.25
100
AcDbArc
 50
0.0
 51
89.6666666667
  0
ARC
  5
462
100
AcDbEntity
  8
RACCORDO
100
AcDbCircle
 62
7
  6
CONTINUOUS
 10
-48.9377095121
 20
24.2369056521
 30
0.0
 40
0.25
100
AcDbArc
 50
90.3333333333
 51
180.0
  0
ARC
  5
463
100
AcDbEntity
  8
RACCORDO
100
AcDbCircle
 62
7
  6
CONTINUOUS
 10
-48.9377095121
 20
23.8443375673
 30
0.0
 40
0.25
100
AcDbArc
 50
180.0
 51
240.0
  0
ARC
  5
464
100
AcDbEntity
  8
RACCORDO
100
AcDbCircle
 62
7
  6
CONTINUOUS
 10
-55.8845492897
 20
15.6
 30
0.0
 40
0.1
100
AcDbArc
 50
178.2117237558
 51
232.1862350849
  0
ARC
  5
465
100
AcDbEntity
  8
RACCORDO
100
AcDbCircle
 62
7
  6
CONTINUOUS
 10
443.7719827401
 20
0.0
 30
0.0
 40
500.0
100
AcDbArc
 50
177.647367682
 51
178.2117237559
  0
ARC
  5
466
100
AcDbEntity
  8
RACCORDO
100
AcDbCircle
 62
7
  6
CONTINUOUS
 10
443.8122904879
 20
0.0
 30
0.0
 40
500.0
100
AcDbArc
 50
177.6430500092
 51
182.3569499908
  0
ARC
  5
467
100
AcDbEntity
  8
RACCORDO
100
AcDbCircle
 62
250
  6
CONTINUOUS
 10
443.8035831289
 20
0.0
 30
0.0
 40
499.5000188283
100
AcDbArc
 50
177.6430500981
 51
182.3569499019
  0
SPLINE
  5
468
100
AcDbEntity
  8
RACCORDO
100
AcDbSpline
 62
250
  6
CONTINUOUS
 70
0
 71
3
 72
18
 73
14
 74
0
 42
0.0000001
 43
0.0000001
 44
0.0000000001
 40
0.0
 40
0.0
 40
0.0
 40
0.0
 40
0.006264746
 40
0.0211639132
 40
0.0452318522
 40
0.0784153465
 40
0.1204091079
 40
0.1708066669
 40
0.2949697191
 40
0.4460784038
 40
0.6184399264
 40
0.8056756222
 40
1.0
 40
1.0
 40
1.0
 40
1.0
 10
-10.125
 20
20.5145589289
 30
0.0
 10
-10.125
 20
20.5150826108
 30
0.0
 10
-10.1228688972
 20
20.5159725293
 30
0.0
 10
-10.119607559
 20
20.5167318058
 30
0.0
 10
-10.1134143991
 20
20.5177078987
 30
0.0
 10
-10.1052657111
 20
20.5185908791
 30
0.0
 10
-10.094767965
 20
20.519486455
 30
0.0
 10
-10.0767231076
 20
20.5206958433
 30
0.0
 10
-10.0495176081
 20
20.5219921997
 30
0.0
 10
-10.0121228997
 20
20.5232167379
 30
0.0
 10
-9.9694395098
 20
20.5241304339
 30
0.0
 10
-9.9231395327
 20
20.5246938898
 30
0.0
 10
-9.8912439407
 20
20.5248213398
 30
0.0
 10
-9.875
 20
20.5248213394
 30
0.0
  0
SPLINE
  5
469
100
AcDbEntity
  8
RACCORDO
100
AcDbSpline
 62
250
  6
CONTINUOUS
 70
0
 71
3
 72
18
 73
14
 74
0
 42
0.0000001
 43
0.0000001
 44
0.0000000001
 40
0.0
 40
0.0
 40
0.0
 40
0.0
 40
0.0062647454
 40
0.0211639136
 40
0.0452318538
 40
0.0784153494
 40
0.1204091133
 40
0.1708066743
 40
0.2949697286
 40
0.4460784149
 40
0.6184399353
 40
0.8056756247
 40
1.0
 40
1.0
 40
1.0
 40
1.0
 10
8.775
 20
20.5145589289
 30
0.0
 10
8.775
 20
20.5150826108
 30
0.0
 10
8.7728688966
 20
20.5159725285
 30
0.0
 10
8.7696075586
 20
20.516731805
 30
0.0
 10
8.7634143981
 20
20.5177078975
 30
0.0
 10
8.7552657099
 20
20.5185908777
 30
0.0
 10
8.7447679632
 20
20.5194864532
 30
0.0
 10
8.7267231053
 20
20.5206958412
 30
0.0
 10
8.6995176053
 20
20.5219921974
 30
0.0
 10
8.6621228969
 20
20.5232167356
 30
0.0
 10
8.6194395077
 20
20.524130432
 30
0.0
 10
8.5731395316
 20
20.5246938887
 30
0.0
 10
8.5412439405
 20
20.5248213395
 30
0.0
 10
8.525
 20
20.5248213396
 30
0.0
  0
SPLINE
  5
46A
100
AcDbEntity
  8
RACCORDO
100
AcDbSpline
 62
7
  6
CONTINUOUS
 70
0
 71
3
 72
9
 73
5
 74
0
 42
0.0000001
 43
0.0000001
 44
0.0000000001
 40
0.0
 40
0.0
 40
0.0
 40
0.0
 40
0.4885870948
 40
1.0
 40
1.0
 40
1.0
 40
1.0
 10
8.6444793325
 20
15.5303987953
 30
0.0
 10
8.6253068364
 20
15.5408307805
 30
0.0
 10
8.5869786998
 20
15.5638350731
 30
0.0
 10
8.5492649327
 20
15.5877694249
 30
0.0
 10
8.5299581584
 20
15.599984707
 30
0.0
  0
LINE
  5
46B
100
AcDbEntity
  8
RACCORDO
100
AcDbLine
 62
7
  6
CONTINUOUS
 10
8.5299581584
 20
15.599984707
 30
0.0
 11
8.525
 21
15.6031206241
 31
0.0
  0
SPLINE
  5
46C
100
AcDbEntity
  8
RACCORDO
100
AcDbSpline
 62
7
  6
CONTINUOUS
 70
0
 71
3
 72
9
 73
5
 74
0
 42
0.0000001
 43
0.0000001
 44
0.0000000001
 40
0.0
 40
0.0
 40
0.0
 40
0.0
 40
0.4885870948
 40
1.0
 40
1.0
 40
1.0
 40
1.0
 10
-9.9944793325
 20
15.5303987953
 30
0.0
 10
-9.9753068364
 20
15.5408307805
 30
0.0
 10
-9.9369786998
 20
15.5638350731
 30
0.0
 10
-9.8992649327
 20
15.5877694249
 30
0.0
 10
-9.8799581584
 20
15.599984707
 30
0.0
  0
LINE
  5
46D
100
AcDbEntity
  8
RACCORDO
100
AcDbLine
 62
7
  6
CONTINUOUS
 10
-9.8799581584
 20
15.599984707
 30
0.0
 11
-9.875
 21
15.6031206241
 31
0.0
  0
SPLINE
  5
46E
100
AcDbEntity
  8
RACCORDO
100
AcDbSpline
 62
7
  6
CONTINUOUS
 70
0
 71
3
 72
26
 73
22
 74
0
 42
0.0000001
 43
0.0000001
 44
0.0000000001
 40
0.0
 40
0.0
 40
0.0
 40
0.0
 40
0.0009049298
 40
0.002674114
 40
0.005305308
 40
0.0087913609
 40
0.0182702214
 40
0.030960311
 40
0.0466782643
 40
0.0652122844
 40
0.086339402
 40
0.1098331126
 40
0.1630493508
 40
0.2232416466
 40
0.2890305735
 40
0.3592828285
 40
0.4330802646
 40
0.5096794276
 40
0.6689574955
 40
0.8333472041
 40
1.0
 40
1.0
 40
1.0
 40
1.0
 10
-3.1843115708
 20
-6.1093520911
 30
0.0
 10
-3.1843924385
 20
-6.109550959
 30
0.0
 10
-3.1847926721
 20
-6.1100573295
 30
0.0
 10
-3.1855730314
 20
-6.111034838
 30
0.0
 10
-3.1868132109
 20
-6.1124415169
 30
0.0
 10
-3.1892855236
 20
-6.1151910878
 30
0.0
 10
-3.1934342407
 20
-6.1196470005
 30
0.0
 10
-3.1996102946
 20
-6.1261760084
 30
0.0
 10
-3.2073114929
 20
-6.1342206999
 30
0.0
 10
-3.2164311362
 20
-6.1436776159
 30
0.0
 10
-3.2268608805
 20
-6.1544339543
 30
0.0
 10
-3.2430522763
 20
-6.1710640765
 30
0.0
 10
-3.2657658854
 20
-6.1942786773
 30
0.0
 10
-3.2955597267
 20
-6.2246034766
 30
0.0
 10
-3.3282373961
 20
-6.2577606533
 30
0.0
 10
-3.3632232932
 20
-6.2931745777
 30
0.0
 10
-3.4000482474
 20
-6.3303766309
 30
0.0
 10
-3.4517748824
 20
-6.3825452903
 30
0.0
 10
-3.5187083681
 20
-6.4499012275
 30
0.0
 10
-3.6008009343
 20
-6.5323115317
 30
0.0
 10
-3.6562882641
 20
-6.5878893528
 30
0.0
 10
-3.6842369883
 20
-6.6158528412
 30
0.0
  0
SPLINE
  5
46F
100
AcDbEntity
  8
RACCORDO
100
AcDbSpline
 62
7
  6
CONTINUOUS
 70
0
 71
3
 72
26
 73
22
 74
0
 42
0.0000001
 43
0.0000001
 44
0.0000000001
 40
0.0
 40
0.0
 40
0.0
 40
0.0
 40
0.0009049298
 40
0.002674114
 40
0.005305308
 40
0.0087913609
 40
0.0182702214
 40
0.030960311
 40
0.0466782643
 40
0.0652122844
 40
0.086339402
 40
0.1098331126
 40
0.1630493508
 40
0.2232416466
 40
0.2890305735
 40
0.3592828285
 40
0.4330802646
 40
0.5096794276
 40
0.6689574955
 40
0.8333472041
 40
1.0
 40
1.0
 40
1.0
 40
1.0
 10
-4.3343115708
 20
-6.1093520911
 30
0.0
 10
-4.3343924385
 20
-6.109550959
 30
0.0
 10
-4.3347926721
 20
-6.1100573295
 30
0.0
 10
-4.3355730314
 20
-6.111034838
 30
0.0
 10
-4.3368132109
 20
-6.1124415169
 30
0.0
 10
-4.3392855236
 20
-6.1151910878
 30
0.0
 10
-4.3434342407
 20
-6.1196470005
 30
0.0
 10
-4.3496102946
 20
-6.1261760084
 30
0.0
 10
-4.3573114929
 20
-6.1342206999
 30
0.0
 10
-4.3664311362
 20
-6.1436776159
 30
0.0
 10
-4.3768608805
 20
-6.1544339543
 30
0.0
 10
-4.3930522763
 20
-6.1710640765
 30
0.0
 10
-4.4157658854
 20
-6.1942786773
 30
0.0
 10
-4.4455597267
 20
-6.2246034766
 30
0.0
 10
-4.4782373961
 20
-6.2577606533
 30
0.0
 10
-4.5132232932
 20
-6.2931745777
 30
0.0
 10
-4.5500482474
 20
-6.3303766309
 30
0.0
 10
-4.6017748824
 20
-6.3825452903
 30
0.0
 10
-4.6687083681
 20
-6.4499012275
 30
0.0
 10
-4.7508009343
 20
-6.5323115317
 30
0.0
 10
-4.8062882641
 20
-6.5878893528
 30
0.0
 10
-4.8342369883
 20
-6.6158528412
 30
0.0
  0
SPLINE
  5
470
100
AcDbEntity
  8
RACCORDO
100
AcDbSpline
 62
7
  6
CONTINUOUS
 70
0
 71
3
 72
26
 73
22
 74
0
 42
0.0000001
 43
0.0000001
 44
0.0000000001
 40
0.0
 40
0.0
 40
0.0
 40
0.0
 40
0.0008510654
 40
0.0025716543
 40
0.0051572083
 40
0.0086000004
 40
0.0179987512
 40
0.0306167703
 40
0.0462705007
 40
0.0647480234
 40
0.0858262041
 40
0.1092783302
 40
0.1624324171
 40
0.2225886461
 40
0.2883652139
 40
0.3586265734
 40
0.4324525718
 40
0.509098017
 40
0.6685161217
 40
0.8331018023
 40
1.0
 40
1.0
 40
1.0
 40
1.0
 10
-4.3344599863
 20
-4.5094826835
 30
0.0
 10
-4.3345469231
 20
-4.5096645574
 30
0.0
 10
-4.3349479902
 20
-4.5101346263
 30
0.0
 10
-4.3357263379
 20
-4.511067763
 30
0.0
 10
-4.3369651445
 20
-4.5124269314
 30
0.0
 10
-4.3394404363
 20
-4.5151122443
 30
0.0
 10
-4.3435900056
 20
-4.5194901314
 30
0.0
 10
-4.3497648248
 20
-4.5259301163
 30
0.0
 10
-4.3574652085
 20
-4.5338877172
 30
0.0
 10
-4.3665844962
 20
-4.5432601801
 30
0.0
 10
-4.3770141022
 20
-4.5539350451
 30
0.0
 10
-4.3932090528
 20
-4.5704599336
 30
0.0
 10
-4.4159253822
 20
-4.593553646
 30
0.0
 10
-4.4457187461
 20
-4.6237479954
 30
0.0
 10
-4.4783963729
 20
-4.6567888741
 30
0.0
 10
-4.5133825371
 20
-4.6921004459
 30
0.0
 10
-4.5502079529
 20
-4.7292137246
 30
0.0
 10
-4.6019402593
 20
-4.7812851079
 30
0.0
 10
-4.6688795568
 20
-4.8485516028
 30
0.0
 10
-4.7509730245
 20
-4.9308962481
 30
0.0
 10
-4.8064537998
 20
-4.9864531906
 30
0.0
 10
-4.8343993763
 20
-5.0144137901
 30
0.0
  0
SPLINE
  5
471
100
AcDbEntity
  8
RACCORDO
100
AcDbSpline
 62
250
  6
CONTINUOUS
 70
0
 71
3
 72
8
 73
4
 74
0
 42
0.0000001
 43
0.0000001
 44
0.0000000001
 40
0.0
 40
0.0
 40
0.0
 40
0.0
 40
1.0
 40
1.0
 40
1.0
 40
1.0
 10
5.7844599868
 20
-4.5094826844
 30
0.0
 10
5.7846679652
 20
-1.8698052981
 30
0.0
 10
5.7846933262
 20
0.7698721089
 30
0.0
 10
5.7845360798
 20
3.4095494987
 30
0.0
  0
LINE
  5
472
100
AcDbEntity
  8
RACCORDO
100
AcDbLine
 62
250
  6
CONTINUOUS
 10
2.984311571
 20
-6.1093520915
 30
0.0
 11
2.9844599863
 21
-4.5094826835
 31
0.0
  0
LINE
  5
473
100
AcDbEntity
  8
RACCORDO
100
AcDbLine
 62
250
  6
CONTINUOUS
 10
1.8341515579
 20
-7.4592111058
 30
0.0
 11
1.8343115708
 21
-6.1093520911
 31
0.0
  0
LINE
  5
474
100
AcDbEntity
  8
RACCORDO
100
AcDbLine
 62
250
  6
CONTINUOUS
 10
-3.1843115708
 20
-6.1093520911
 30
0.0
 11
-3.1841515579
 21
-7.4592111059
 31
0.0
  0
SPLINE
  5
475
100
AcDbEntity
  8
RACCORDO
100
AcDbSpline
 62
7
  6
CONTINUOUS
 70
0
 71
3
 72
15
 73
11
 74
0
 42
0.0000001
 43
0.0000001
 44
0.0000000001
 40
0.0
 40
0.0
 40
0.0
 40
0.0
 40
0.1666545511
 40
0.3262779792
 40
0.4735916211
 40
0.6057108254
 40
0.7221085607
 40
0.8242207343
 40
0.9152394685
 40
1.0
 40
1.0
 40
1.0
 40
1.0
 10
9.7177234819
 20
-23.1226497308
 30
0.0
 10
9.735182792
 20
-23.1226497308
 30
0.0
 10
9.7693945583
 20
-23.1249197959
 30
0.0
 10
9.8182789333
 20
-23.1340781896
 30
0.0
 10
9.8621199981
 20
-23.1484841847
 30
0.0
 10
9.8993602838
 20
-23.1671098288
 30
0.0
 10
9.9291080599
 20
-23.1890199577
 30
0.0
 10
9.9508995457
 20
-23.2134179792
 30
0.0
 10
9.9643998674
 20
-23.2396149959
 30
0.0
 10
9.9676297781
 20
-23.2581079409
 30
0.0
 10
9.9677192511
 20
-23.2669872981
 30
0.0
  0
SPLINE
  5
476
100
AcDbEntity
  8
RACCORDO
100
AcDbSpline
 62
7
  6
CONTINUOUS
 70
0
 71
3
 72
12
 73
8
 74
0
 42
0.0000001
 43
0.0000001
 44
0.0000000001
 40
0.0
 40
0.0
 40
0.0
 40
0.0
 40
0.4189758554
 40
0.7258150368
 40
0.9169374284
 40
0.970078621
 40
1.0
 40
1.0
 40
1.0
 40
1.0
 10
9.93391534
 20
-22.3279108386
 30
0.0
 10
9.9387355339
 20
-22.328345856
 30
0.0
 10
9.9471021029
 20
-22.3290818085
 30
0.0
 10
9.9575917423
 20
-22.3301849672
 30
0.0
 10
9.9639546858
 20
-22.3312764657
 30
0.0
 10
9.9668861623
 20
-22.3323145409
 30
0.0
 10
9.9676816398
 20
-22.3330673782
 30
0.0
 10
9.9677192511
 20
-22.3334109614
 30
0.0
  0
SPLINE
  5
477
100
AcDbEntity
  8
RACCORDO
100
AcDbSpline
 62
7
  6
CONTINUOUS
 70
0
 71
3
 72
12
 73
8
 74
0
 42
0.0000001
 43
0.0000001
 44
0.0000000001
 40
0.0
 40
0.0
 40
0.0
 40
0.0
 40
0.029921379
 40
0.0830625716
 40
0.2741849632
 40
0.5810241446
 40
1.0
 40
1.0
 40
1.0
 40
1.0
 10
-11.3177192511
 20
-22.3334109614
 30
0.0
 10
-11.3176816398
 20
-22.3330673782
 30
0.0
 10
-11.3168861623
 20
-22.3323145409
 30
0.0
 10
-11.3139546858
 20
-22.3312764657
 30
0.0
 10
-11.3075917423
 20
-22.3301849672
 30
0.0
 10
-11.2971021029
 20
-22.3290818085
 30
0.0
 10
-11.2887355339
 20
-22.328345856
 30
0.0
 10
-11.28391534
 20
-22.3279108386
 30
0.0
  0
SPLINE
  5
478
100
AcDbEntity
  8
RACCORDO
100
AcDbSpline
 62
7
  6
CONTINUOUS
 70
0
 71
3
 72
15
 73
11
 74
0
 42
0.0000001
 43
0.0000001
 44
0.0000000001
 40
0.0
 40
0.0
 40
0.0
 40
0.0
 40
0.1666545511
 40
0.3262779792
 40
0.4735916211
 40
0.6057108254
 40
0.7221085607
 40
0.8242207343
 40
0.9152394685
 40
1.0
 40
1.0
 40
1.0
 40
1.0
 10
-11.0677234819
 20
-23.1226497308
 30
0.0
 10
-11.085182792
 20
-23.1226497308
 30
0.0
 10
-11.1193945583
 20
-23.1249197959
 30
0.0
 10
-11.1682789333
 20
-23.1340781896
 30
0.0
 10
-11.2121199981
 20
-23.1484841847
 30
0.0
 10
-11.2493602838
 20
-23.1671098288
 30
0.0
 10
-11.2791080599
 20
-23.1890199577
 30
0.0
 10
-11.3008995457
 20
-23.2134179792
 30
0.0
 10
-11.3143998674
 20
-23.2396149959
 30
0.0
 10
-11.3176297781
 20
-23.2581079409
 30
0.0
 10
-11.3177192511
 20
-23.2669872981
 30
0.0
  0
SPLINE
  5
479
100
AcDbEntity
  8
RACCORDO
100
AcDbSpline
 62
7
  6
CONTINUOUS
 70
0
 71
3
 72
12
 73
8
 74
0
 42
0.0000001
 43
0.0000001
 44
0.0000000001
 40
0.0
 40
0.0
 40
0.0
 40
0.0
 40
0.029921379
 40
0.0830625716
 40
0.2741849632
 40
0.5810241446
 40
1.0
 40
1.0
 40
1.0
 40
1.0
 10
9.9677192511
 20
22.3334109614
 30
0.0
 10
9.9676816398
 20
22.3330673782
 30
0.0
 10
9.9668861623
 20
22.3323145409
 30
0.0
 10
9.9639546858
 20
22.3312764657
 30
0.0
 10
9.9575917423
 20
22.3301849672
 30
0.0
 10
9.9471021029
 20
22.3290818085
 30
0.0
 10
9.9387355339
 20
22.328345856
 30
0.0
 10
9.93391534
 20
22.3279108386
 30
0.0
  0
SPLINE
  5
47A
100
AcDbEntity
  8
RACCORDO
100
AcDbSpline
 62
7
  6
CONTINUOUS
 70
0
 71
3
 72
12
 73
8
 74
0
 42
0.0000001
 43
0.0000001
 44
0.0000000001
 40
0.0
 40
0.0
 40
0.0
 40
0.0
 40
0.4189758554
 40
0.7258150368
 40
0.9169374284
 40
0.970078621
 40
1.0
 40
1.0
 40
1.0
 40
1.0
 10
-11.28391534
 20
22.3279108386
 30
0.0
 10
-11.2887355339
 20
22.328345856
 30
0.0
 10
-11.2971021029
 20
22.3290818085
 30
0.0
 10
-11.3075917423
 20
22.3301849672
 30
0.0
 10
-11.3139546858
 20
22.3312764657
 30
0.0
 10
-11.3168861623
 20
22.3323145409
 30
0.0
 10
-11.3176816398
 20
22.3330673782
 30
0.0
 10
-11.3177192511
 20
22.3334109614
 30
0.0
  0
SPLINE
  5
47B
100
AcDbEntity
  8
RACCORDO
100
AcDbSpline
 62
7
  6
CONTINUOUS
 70
0
 71
3
 72
13
 73
9
 74
0
 42
0.0000001
 43
0.0000001
 44
0.0000000001
 40
0.0
 40
0.0
 40
0.0
 40
0.0
 40
0.0927966287
 40
0.2002447148
 40
0.3193571807
 40
0.4469985052
 40
0.7183509509
 40
1.0
 40
1.0
 40
1.0
 40
1.0
 10
-4.9712073137
 20
-23.7953389668
 30
0.0
 10
-4.9572924006
 20
-23.7952316797
 30
0.0
 10
-4.927382272
 20
-23.789799767
 30
0.0
 10
-4.8822472469
 20
-23.7736730732
 30
0.0
 10
-4.8340026256
 20
-23.7513098509
 30
0.0
 10
-4.7654209279
 20
-23.714769798
 30
0.0
 10
-4.6778591526
 20
-23.6622363788
 30
0.0
 10
-4.6077774665
 20
-23.6179177525
 30
0.0
 10
-4.5720826234
 20
-23.5953423515
 30
0.0
  0
SPLINE
  5
47C
100
AcDbEntity
  8
RACCORDO
100
AcDbSpline
 62
7
  6
CONTINUOUS
 70
0
 71
3
 72
13
 73
9
 74
0
 42
0.0000001
 43
0.0000001
 44
0.0000000001
 40
0.0
 40
0.0
 40
0.0
 40
0.0
 40
0.0927966287
 40
0.2002447148
 40
0.3193571807
 40
0.4469985052
 40
0.7183509509
 40
1.0
 40
1.0
 40
1.0
 40
1.0
 10
3.6212073137
 20
-23.7953389668
 30
0.0
 10
3.6072924006
 20
-23.7952316797
 30
0.0
 10
3.577382272
 20
-23.789799767
 30
0.0
 10
3.5322472469
 20
-23.7736730732
 30
0.0
 10
3.4840026256
 20
-23.7513098509
 30
0.0
 10
3.4154209279
 20
-23.714769798
 30
0.0
 10
3.3278591526
 20
-23.6622363788
 30
0.0
 10
3.2577774665
 20
-23.6179177525
 30
0.0
 10
3.2220826234
 20
-23.5953423515
 30
0.0
  0
SPLINE
  5
47D
100
AcDbEntity
  8
RACCORDO
100
AcDbSpline
 62
7
  6
CONTINUOUS
 70
0
 71
3
 72
13
 73
9
 74
0
 42
0.0000001
 43
0.0000001
 44
0.0000000001
 40
0.0
 40
0.0
 40
0.0
 40
0.0
 40
0.0927966287
 40
0.2002447148
 40
0.3193571807
 40
0.4469985052
 40
0.7183509509
 40
1.0
 40
1.0
 40
1.0
 40
1.0
 10
3.6212073137
 20
23.7953389668
 30
0.0
 10
3.6072924006
 20
23.7952316797
 30
0.0
 10
3.577382272
 20
23.789799767
 30
0.0
 10
3.5322472469
 20
23.7736730732
 30
0.0
 10
3.4840026256
 20
23.7513098509
 30
0.0
 10
3.4154209279
 20
23.714769798
 30
0.0
 10
3.3278591526
 20
23.6622363788
 30
0.0
 10
3.2577774665
 20
23.6179177525
 30
0.0
 10
3.2220826234
 20
23.5953423515
 30
0.0
  0
SPLINE
  5
47E
100
AcDbEntity
  8
RACCORDO
100
AcDbSpline
 62
7
  6
CONTINUOUS
 70
0
 71
3
 72
13
 73
9
 74
0
 42
0.0000001
 43
0.0000001
 44
0.0000000001
 40
0.0
 40
0.0
 40
0.0
 40
0.0
 40
0.0927966287
 40
0.2002447148
 40
0.3193571807
 40
0.4469985052
 40
0.7183509509
 40
1.0
 40
1.0
 40
1.0
 40
1.0
 10
-4.9712073137
 20
23.7953389668
 30
0.0
 10
-4.9572924006
 20
23.7952316797
 30
0.0
 10
-4.927382272
 20
23.789799767
 30
0.0
 10
-4.8822472469
 20
23.7736730732
 30
0.0
 10
-4.8340026256
 20
23.7513098509
 30
0.0
 10
-4.7654209279
 20
23.714769798
 30
0.0
 10
-4.6778591526
 20
23.6622363788
 30
0.0
 10
-4.6077774665
 20
23.6179177525
 30
0.0
 10
-4.5720826234
 20
23.5953423515
 30
0.0
  0
LINE
  5
47F
100
AcDbEntity
  8
RACCORDO
100
AcDbLine
 62
250
  6
CONTINUOUS
 10
-4.3344599863
 20
-4.5094826835
 30
0.0
 11
-4.334311571
 21
-6.1093520915
 31
0.0
  0
SPLINE
  5
480
100
AcDbEntity
  8
RACCORDO
100
AcDbSpline
 62
250
  6
CONTINUOUS
 70
0
 71
3
 72
8
 73
4
 74
0
 42
0.0000001
 43
0.0000001
 44
0.0000000001
 40
0.0
 40
0.0
 40
0.0
 40
0.0
 40
1.0
 40
1.0
 40
1.0
 40
1.0
 10
-7.1345360797
 20
3.4095494986
 30
0.0
 10
-7.1346933262
 20
0.7698721088
 30
0.0
 10
-7.1346679653
 20
-1.8698052982
 30
0.0
 10
-7.1344599869
 20
-4.5094826846
 30
0.0
  0
SPLINE
  5
481
100
AcDbEntity
  8
RACCORDO
100
AcDbSpline
 62
7
  6
CONTINUOUS
 70
0
 71
3
 72
26
 73
22
 74
0
 42
0.0000001
 43
0.0000001
 44
0.0000000001
 40
0.0
 40
0.0
 40
0.0
 40
0.0
 40
0.0008510653
 40
0.0025716542
 40
0.0051572082
 40
0.0086000001
 40
0.0179987509
 40
0.0306167699
 40
0.0462705002
 40
0.0647480229
 40
0.0858262035
 40
0.1092783295
 40
0.1624324164
 40
0.2225886454
 40
0.2883652133
 40
0.3586265728
 40
0.4324525713
 40
0.5090980165
 40
0.6685161213
 40
0.8331018021
 40
1.0
 40
1.0
 40
1.0
 40
1.0
 10
-7.1344599863
 20
-4.5094826834
 30
0.0
 10
-7.1345469231
 20
-4.5096645573
 30
0.0
 10
-7.1349479902
 20
-4.5101346262
 30
0.0
 10
-7.1357263379
 20
-4.5110677628
 30
0.0
 10
-7.1369651445
 20
-4.5124269312
 30
0.0
 10
-7.1394404363
 20
-4.515112244
 30
0.0
 10
-7.1435900056
 20
-4.519490131
 30
0.0
 10
-7.1497648249
 20
-4.5259301158
 30
0.0
 10
-7.1574652085
 20
-4.5338877167
 30
0.0
 10
-7.1665844963
 20
-4.5432601795
 30
0.0
 10
-7.1770141023
 20
-4.5539350443
 30
0.0
 10
-7.193209053
 20
-4.5704599327
 30
0.0
 10
-7.2159253825
 20
-4.5935536451
 30
0.0
 10
-7.2457187465
 20
-4.6237479943
 30
0.0
 10
-7.2783963735
 20
-4.6567888728
 30
0.0
 10
-7.3133825379
 20
-4.6921004445
 30
0.0
 10
-7.3502079539
 20
-4.729213723
 30
0.0
 10
-7.4019402608
 20
-4.7812851058
 30
0.0
 10
-7.4688795583
 20
-4.8485516009
 30
0.0
 10
-7.5509730309
 20
-4.9308962415
 30
0.0
 10
-7.6064537997
 20
-4.9864531906
 30
0.0
 10
-7.6343993763
 20
-5.0144137901
 30
0.0
  0
LINE
  5
482
100
AcDbEntity
  8
RACCORDO
100
AcDbLine
 62
7
  6
CONTINUOUS
 10
-11.325
 20
22.3997080771
 30
0.0
 11
-11.3177192511
 21
22.3334109614
 31
0.0
  0
SPLINE
  5
483
100
AcDbEntity
  8
RACCORDO
100
AcDbSpline
 62
250
  6
CONTINUOUS
 70
0
 71
3
 72
22
 73
18
 74
0
 42
0.0000001
 43
0.0000001
 44
0.0000000001
 40
0.0
 40
0.0
 40
0.0
 40
0.0
 40
0.0028346579
 40
0.0076285154
 40
0.0146109708
 40
0.0238387332
 40
0.0490322391
 40
0.083085504
 40
0.1257141835
 40
0.1765347129
 40
0.2350813812
 40
0.3008091681
 40
0.3731030181
 40
0.4512870321
 40
0.62234189
 40
0.8075559708
 40
1.0
 40
1.0
 40
1.0
 40
1.0
 10
-11.6576730391
 20
20.5419058565
 30
0.0
 10
-11.6574881362
 20
20.5423419868
 30
0.0
 10
-11.656386386
 20
20.5431620604
 30
0.0
 10
-11.6541580438
 20
20.5440657673
 30
0.0
 10
-11.6507568319
 20
20.545027701
 30
0.0
 10
-11.6439931579
 20
20.5464467566
 30
0.0
 10
-11.6326529662
 20
20.5480899793
 30
0.0
 10
-11.6157285504
 20
20.5499068746
 30
0.0
 10
-11.5944907289
 20
20.5516673754
 30
0.0
 10
-11.5691461976
 20
20.5533530248
 30
0.0
 10
-11.5399278428
 20
20.5549394919
 30
0.0
 10
-11.5071113937
 20
20.5564100015
 30
0.0
 10
-11.4710051639
 20
20.5577488989
 30
0.0
 10
-11.4172976994
 20
20.5593891923
 30
0.0
 10
-11.3447110236
 20
20.5609777063
 30
0.0
 10
-11.253020648
 20
20.562152046
 30
0.0
 10
-11.1899090317
 20
20.5624452475
 30
0.0
 10
-11.1577491915
 20
20.5624683135
 30
0.0
  0
SPLINE
  5
484
100
AcDbEntity
  8
RACCORDO
100
AcDbSpline
 62
250
  6
CONTINUOUS
 70
0
 71
3
 72
21
 73
17
 74
0
 42
0.0000001
 43
0.0000001
 44
0.0000000001
 40
0.0
 40
0.0
 40
0.0
 40
0.0
 40
0.1908437011
 40
0.3737353397
 40
0.5424594456
 40
0.6912793369
 40
0.7566131107
 40
0.8151368364
 40
0.866352673
 40
0.9098252737
 40
0.9451857809
 40
0.9721353771
 40
0.9823830754
 40
0.9904509897
 40
0.9963243625
 40
1.0
 40
1.0
 40
1.0
 40
1.0
 10
-11.1577491915
 20
20.5624683248
 30
0.0
 10
-11.1577929896
 20
20.6538519851
 30
0.0
 10
-11.1580678774
 20
20.8328115089
 30
0.0
 10
-11.1590446999
 20
21.0925614005
 30
0.0
 10
-11.1605464024
 20
21.3321857412
 30
0.0
 10
-11.1622476451
 20
21.5155156452
 30
0.0
 10
-11.1638795482
 20
21.6460744895
 30
0.0
 10
-11.1651415728
 20
21.7298973175
 30
0.0
 10
-11.1664832667
 20
21.8032492868
 30
0.0
 10
-11.1678866318
 20
21.8655066834
 30
0.0
 10
-11.1693421816
 20
21.9161385378
 30
0.0
 10
-11.1706523544
 20
21.9508596947
 30
0.0
 10
-11.171787404
 20
21.9725038686
 30
0.0
 10
-11.1725468052
 20
21.9840646806
 30
0.0
 10
-11.1733152648
 20
21.9924610508
 30
0.0
 10
-11.1738945494
 20
21.9970070026
 30
0.0
 10
-11.1742759622
 20
21.998725222
 30
0.0
  0
SPLINE
  5
485
100
AcDbEntity
  8
RACCORDO
100
AcDbSpline
 62
250
  6
CONTINUOUS
 70
0
 71
3
 72
21
 73
17
 74
0
 42
0.0000001
 43
0.0000001
 44
0.0000000001
 40
0.0
 40
0.0
 40
0.0
 40
0.0
 40
0.1908078103
 40
0.3736647908
 40
0.5423568974
 40
0.691150141
 40
0.7564738747
 40
0.8149906153
 40
0.8662033914
 40
0.9096780747
 40
0.9450474638
 40
0.9720159805
 40
0.9822790167
 40
0.9903681185
 40
0.9962724717
 40
1.0
 40
1.0
 40
1.0
 40
1.0
 10
-11.6576730391
 20
20.5419058565
 30
0.0
 10
-11.657716832
 20
20.6028307761
 30
0.0
 10
-11.6579917577
 20
20.7221418732
 30
0.0
 10
-11.6589686413
 20
20.8953140395
 30
0.0
 10
-11.6604704335
 20
21.0550666738
 30
0.0
 10
-11.6621717526
 20
21.1772864646
 30
0.0
 10
-11.6638036666
 20
21.2643232618
 30
0.0
 10
-11.665065726
 20
21.3202037297
 30
0.0
 10
-11.6664073939
 20
21.369103542
 30
0.0
 10
-11.6678109074
 20
21.4106077292
 30
0.0
 10
-11.6692662994
 20
21.4443620165
 30
0.0
 10
-11.6705771102
 20
21.4675096392
 30
0.0
 10
-11.6717113852
 20
21.4819348742
 30
0.0
 10
-11.672472542
 20
21.4896466903
 30
0.0
 10
-11.6732393404
 20
21.4952471883
 30
0.0
 10
-11.6738238286
 20
21.4982812009
 30
0.0
 10
-11.6741998097
 20
21.4994104546
 30
0.0
  0
SPLINE
  5
486
100
AcDbEntity
  8
RACCORDO
100
AcDbSpline
 62
250
  6
CONTINUOUS
 70
0
 71
3
 72
22
 73
18
 74
0
 42
0.0000001
 43
0.0000001
 44
0.0000000001
 40
0.0
 40
0.0
 40
0.0
 40
0.0
 40
0.0028346435
 40
0.0076284833
 40
0.014610921
 40
0.0238386666
 40
0.0490321422
 40
0.0830853821
 40
0.1257140422
 40
0.1765345581
 40
0.2350812188
 40
0.3008090043
 40
0.3731028589
 40
0.4512868833
 40
0.6223417772
 40
0.80755591
 40
1.0
 40
1.0
 40
1.0
 40
1.0
 10
-11.6576730391
 20
-20.5419058565
 30
0.0
 10
-11.6574881411
 20
-20.5423419863
 30
0.0
 10
-11.6563863975
 20
-20.5431620622
 30
0.0
 10
-11.6541580644
 20
-20.5440657681
 30
0.0
 10
-11.6507568614
 20
-20.5450277025
 30
0.0
 10
-11.6439931986
 20
-20.5464467585
 30
0.0
 10
-11.6326530189
 20
-20.5480899819
 30
0.0
 10
-11.6157286156
 20
-20.5499068778
 30
0.0
 10
-11.5944908036
 20
-20.5516673795
 30
0.0
 10
-11.5691462789
 20
-20.5533530297
 30
0.0
 10
-11.5399279275
 20
-20.5549394978
 30
0.0
 10
-11.5071114788
 20
-20.5564100082
 30
0.0
 10
-11.4710052463
 20
-20.5577489064
 30
0.0
 10
-11.4172977727
 20
-20.559389201
 30
0.0
 10
-11.3447110796
 20
-20.5609777163
 30
0.0
 10
-11.2530206781
 20
-20.5621520569
 30
0.0
 10
-11.1899090423
 20
-20.5624452588
 30
0.0
 10
-11.1577491915
 20
-20.5624683248
 30
0.0
  0
SPLINE
  5
487
100
AcDbEntity
  8
RACCORDO
100
AcDbSpline
 62
250
  6
CONTINUOUS
 70
0
 71
3
 72
9
 73
5
 74
0
 42
0.0000001
 43
0.0000001
 44
0.0000000001
 40
0.0
 40
0.0
 40
0.0
 40
0.0
 40
0.2499471355
 40
1.0
 40
1.0
 40
1.0
 40
1.0
 10
-11.1577491915
 20
-20.5624683248
 30
0.0
 10
-11.1552900036
 20
-17.1361156711
 30
0.0
 10
-11.1479150376
 20
-3.4278046669
 30
0.0
 10
-11.1503695474
 20
10.2805116313
 30
0.0
 10
-11.1577491915
 20
20.5624683248
 30
0.0
  0
SPLINE
  5
488
100
AcDbEntity
  8
RACCORDO
100
AcDbSpline
 62
250
  6
CONTINUOUS
 70
0
 71
3
 72
9
 73
5
 74
0
 42
0.0000001
 43
0.0000001
 44
0.0000000001
 40
0.0
 40
0.0
 40
0.0
 40
0.0
 40
0.2499471355
 40
1.0
 40
1.0
 40
1.0
 40
1.0
 10
-11.6576730391
 20
-20.5419058565
 30
0.0
 10
-11.6552138512
 20
-17.1189795567
 30
0.0
 10
-11.6478388852
 20
-3.4243768659
 30
0.0
 10
-11.650293395
 20
10.2702311241
 30
0.0
 10
-11.6576730391
 20
20.5419058565
 30
0.0
  0
SPLINE
  5
489
100
AcDbEntity
  8
RACCORDO
100
AcDbSpline
 62
250
  6
CONTINUOUS
 70
0
 71
3
 72
21
 73
17
 74
0
 42
0.0000001
 43
0.0000001
 44
0.0000000001
 40
0.0
 40
0.0
 40
0.0
 40
0.0
 40
0.0036756612
 40
0.0095490156
 40
0.0176169182
 40
0.0278646196
 40
0.0548142201
 40
0.0901747256
 40
0.1336473269
 40
0.1848631633
 40
0.243386889
 40
0.3087206628
 40
0.457540554
 40
0.62626466
 40
0.8091562986
 40
1.0
 40
1.0
 40
1.0
 40
1.0
 10
-11.1742759622
 20
-21.998725222
 30
0.0
 10
-11.1738945381
 20
-21.9970069934
 30
0.0
 10
-11.173315254
 20
-21.9924610378
 30
0.0
 10
-11.1725468135
 20
-21.9840646695
 30
0.0
 10
-11.1717874176
 20
-21.9725038701
 30
0.0
 10
-11.170652358
 20
-21.9508596989
 30
0.0
 10
-11.1693421877
 20
-21.916138539
 30
0.0
 10
-11.1678866414
 20
-21.865506683
 30
0.0
 10
-11.1664832737
 20
-21.8032492872
 30
0.0
 10
-11.165141582
 20
-21.7298973176
 30
0.0
 10
-11.1638795566
 20
-21.6460744898
 30
0.0
 10
-11.1622476531
 20
-21.5155156455
 30
0.0
 10
-11.1605464075
 20
-21.3321857415
 30
0.0
 10
-11.1590447024
 20
-21.0925614008
 30
0.0
 10
-11.1580678799
 20
-20.8328115091
 30
0.0
 10
-11.1577929824
 20
-20.6538519852
 30
0.0
 10
-11.1577491915
 20
-20.5624683248
 30
0.0
  0
SPLINE
  5
48A
100
AcDbEntity
  8
RACCORDO
100
AcDbSpline
 62
250
  6
CONTINUOUS
 70
0
 71
3
 72
21
 73
17
 74
0
 42
0.0000001
 43
0.0000001
 44
0.0000000001
 40
0.0
 40
0.0
 40
0.0
 40
0.0
 40
0.0037275565
 40
0.0096318743
 40
0.0177209763
 40
0.0279840482
 40
0.0549525649
 40
0.0903219332
 40
0.1337966227
 40
0.1850093878
 40
0.2435261249
 40
0.3088498528
 40
0.4576430892
 40
0.6263351923
 40
0.8091921639
 40
1.0
 40
1.0
 40
1.0
 40
1.0
 10
-11.6741998097
 20
-21.4994104546
 30
0.0
 10
-11.673823839
 20
-21.498281188
 30
0.0
 10
-11.6732393397
 20
-21.4952471827
 30
0.0
 10
-11.6724725406
 20
-21.4896466849
 30
0.0
 10
-11.671711384
 20
-21.4819348695
 30
0.0
 10
-11.6705771142
 20
-21.4675096222
 30
0.0
 10
-11.669266299
 20
-21.4443619953
 30
0.0
 10
-11.6678109074
 20
-21.4106077125
 30
0.0
 10
-11.6664073945
 20
-21.3691035336
 30
0.0
 10
-11.665065726
 20
-21.3202037239
 30
0.0
 10
-11.6638036669
 20
-21.2643232625
 30
0.0
 10
-11.6621717525
 20
-21.1772864706
 30
0.0
 10
-11.6604704334
 20
-21.0550666852
 30
0.0
 10
-11.6589686411
 20
-20.8953140572
 30
0.0
 10
-11.6579917578
 20
-20.7221418867
 30
0.0
 10
-11.6577168298
 20
-20.6028307843
 30
0.0
 10
-11.6576730391
 20
-20.5419058565
 30
0.0
  0
LINE
  5
48B
100
AcDbEntity
  8
RACCORDO
100
AcDbLine
 62
7
  6
CONTINUOUS
 10
-11.3177192511
 20
-22.3334109614
 30
0.0
 11
-11.325
 21
-22.3997080771
 31
0.0
  0
LINE
  5
48C
100
AcDbEntity
  8
RACCORDO
100
AcDbLine
 62
7
  6
CONTINUOUS
 10
9.9677192511
 20
22.3334109614
 30
0.0
 11
9.975
 21
22.3997080771
 31
0.0
  0
SPLINE
  5
48D
100
AcDbEntity
  8
RACCORDO
100
AcDbSpline
 62
250
  6
CONTINUOUS
 70
0
 71
3
 72
21
 73
17
 74
0
 42
0.0000001
 43
0.0000001
 44
0.0000000001
 40
0.0
 40
0.0
 40
0.0
 40
0.0
 40
0.0036756375
 40
0.0095490103
 40
0.0176169246
 40
0.0278646229
 40
0.0548142191
 40
0.0901747263
 40
0.133647327
 40
0.1848631636
 40
0.2433868893
 40
0.3087206631
 40
0.4575405544
 40
0.6262646603
 40
0.8091562989
 40
1.0
 40
1.0
 40
1.0
 40
1.0
 10
9.8242759622
 20
21.998725222
 30
0.0
 10
9.8238945494
 20
21.9970070026
 30
0.0
 10
9.8233152648
 20
21.9924610508
 30
0.0
 10
9.8225468052
 20
21.9840646806
 30
0.0
 10
9.821787404
 20
21.9725038686
 30
0.0
 10
9.8206523544
 20
21.9508596947
 30
0.0
 10
9.8193421816
 20
21.9161385378
 30
0.0
 10
9.8178866318
 20
21.8655066834
 30
0.0
 10
9.8164832667
 20
21.8032492868
 30
0.0
 10
9.8151415728
 20
21.7298973175
 30
0.0
 10
9.8138795482
 20
21.6460744895
 30
0.0
 10
9.8122476451
 20
21.5155156452
 30
0.0
 10
9.8105464024
 20
21.3321857412
 30
0.0
 10
9.8090446999
 20
21.0925614005
 30
0.0
 10
9.8080678774
 20
20.8328115089
 30
0.0
 10
9.8077929896
 20
20.6538519851
 30
0.0
 10
9.8077491915
 20
20.5624683248
 30
0.0
  0
SPLINE
  5
48E
100
AcDbEntity
  8
RACCORDO
100
AcDbSpline
 62
250
  6
CONTINUOUS
 70
0
 71
3
 72
21
 73
17
 74
0
 42
0.0000001
 43
0.0000001
 44
0.0000000001
 40
0.0
 40
0.0
 40
0.0
 40
0.0
 40
0.0037275284
 40
0.0096318815
 40
0.0177209833
 40
0.0279840195
 40
0.0549525362
 40
0.0903219253
 40
0.1337966086
 40
0.1850093847
 40
0.2435261253
 40
0.308849859
 40
0.4576431026
 40
0.6263352092
 40
0.8091921897
 40
1.0
 40
1.0
 40
1.0
 40
1.0
 10
10.3241998097
 20
21.4994104546
 30
0.0
 10
10.3238238286
 20
21.4982812009
 30
0.0
 10
10.3232393404
 20
21.4952471883
 30
0.0
 10
10.322472542
 20
21.4896466903
 30
0.0
 10
10.3217113852
 20
21.4819348742
 30
0.0
 10
10.3205771102
 20
21.4675096392
 30
0.0
 10
10.3192662994
 20
21.4443620165
 30
0.0
 10
10.3178109074
 20
21.4106077292
 30
0.0
 10
10.3164073939
 20
21.369103542
 30
0.0
 10
10.315065726
 20
21.3202037297
 30
0.0
 10
10.3138036666
 20
21.2643232618
 30
0.0
 10
10.3121717526
 20
21.1772864646
 30
0.0
 10
10.3104704335
 20
21.0550666738
 30
0.0
 10
10.3089686413
 20
20.8953140395
 30
0.0
 10
10.3079917577
 20
20.7221418732
 30
0.0
 10
10.307716832
 20
20.6028307761
 30
0.0
 10
10.3076730391
 20
20.5419058565
 30
0.0
  0
SPLINE
  5
48F
100
AcDbEntity
  8
RACCORDO
100
AcDbSpline
 62
250
  6
CONTINUOUS
 70
0
 71
3
 72
22
 73
18
 74
0
 42
0.0000001
 43
0.0000001
 44
0.0000000001
 40
0.0
 40
0.0
 40
0.0
 40
0.0
 40
0.0028346435
 40
0.0076284833
 40
0.014610921
 40
0.0238386666
 40
0.0490321423
 40
0.0830853821
 40
0.1257140422
 40
0.1765345581
 40
0.2350812189
 40
0.3008090044
 40
0.373102859
 40
0.4512868834
 40
0.6223417772
 40
0.80755591
 40
1.0
 40
1.0
 40
1.0
 40
1.0
 10
10.3076730391
 20
20.5419058565
 30
0.0
 10
10.3074881411
 20
20.5423419863
 30
0.0
 10
10.3063863975
 20
20.5431620622
 30
0.0
 10
10.3041580644
 20
20.5440657681
 30
0.0
 10
10.3007568614
 20
20.5450277025
 30
0.0
 10
10.2939931986
 20
20.5464467585
 30
0.0
 10
10.2826530189
 20
20.5480899819
 30
0.0
 10
10.2657286155
 20
20.5499068778
 30
0.0
 10
10.2444908036
 20
20.5516673795
 30
0.0
 10
10.2191462788
 20
20.5533530297
 30
0.0
 10
10.1899279275
 20
20.5549394978
 30
0.0
 10
10.1571114788
 20
20.5564100082
 30
0.0
 10
10.1210052463
 20
20.5577489064
 30
0.0
 10
10.0672977727
 20
20.559389201
 30
0.0
 10
9.9947110796
 20
20.5609777162
 30
0.0
 10
9.9030206781
 20
20.5621520569
 30
0.0
 10
9.8399090423
 20
20.5624452588
 30
0.0
 10
9.8077491915
 20
20.5624683248
 30
0.0
  0
SPLINE
  5
490
100
AcDbEntity
  8
RACCORDO
100
AcDbSpline
 62
250
  6
CONTINUOUS
 70
0
 71
3
 72
9
 73
5
 74
0
 42
0.0000001
 43
0.0000001
 44
0.0000000001
 40
0.0
 40
0.0
 40
0.0
 40
0.0
 40
0.2499471355
 40
1.0
 40
1.0
 40
1.0
 40
1.0
 10
9.8077491915
 20
20.5624683248
 30
0.0
 10
9.8052900037
 20
17.1361156711
 30
0.0
 10
9.7979150376
 20
3.4278046669
 30
0.0
 10
9.8003695474
 20
-10.2805116313
 30
0.0
 10
9.8077491915
 20
-20.5624683248
 30
0.0
  0
SPLINE
  5
491
100
AcDbEntity
  8
RACCORDO
100
AcDbSpline
 62
250
  6
CONTINUOUS
 70
0
 71
3
 72
9
 73
5
 74
0
 42
0.0000001
 43
0.0000001
 44
0.0000000001
 40
0.0
 40
0.0
 40
0.0
 40
0.0
 40
0.2499471355
 40
1.0
 40
1.0
 40
1.0
 40
1.0
 10
10.3076730391
 20
20.5419058565
 30
0.0
 10
10.3052138512
 20
17.1189795567
 30
0.0
 10
10.2978388852
 20
3.4243768659
 30
0.0
 10
10.300293395
 20
-10.2702311241
 30
0.0
 10
10.3076730391
 20
-20.5419058565
 30
0.0
  0
SPLINE
  5
492
100
AcDbEntity
  8
RACCORDO
100
AcDbSpline
 62
7
  6
CONTINUOUS
 70
0
 71
3
 72
26
 73
22
 74
0
 42
0.0000001
 43
0.0000001
 44
0.0000000001
 40
0.0
 40
0.0
 40
0.0
 40
0.0
 40
0.0008149399
 40
0.0025026447
 40
0.0050571636
 40
0.0084704532
 40
0.0178144268
 40
0.0303830596
 40
0.0459927165
 40
0.0644314224
 40
0.0854759452
 40
0.1088994395
 40
0.1620106534
 40
0.2221418926
 40
0.2879097415
 40
0.3581771234
 40
0.4320225157
 40
0.5086995377
 40
0.6682134517
 40
0.8329334432
 40
1.0
 40
1.0
 40
1.0
 40
1.0
 10
-7.1345360794
 20
3.4095494981
 30
0.0
 10
-7.1346281668
 20
3.4097189049
 30
0.0
 10
-7.1350281346
 20
3.4101646578
 30
0.0
 10
-7.1358062369
 20
3.4110670947
 30
0.0
 10
-7.1370434911
 20
3.4123938605
 30
0.0
 10
-7.1395211685
 20
3.4150348338
 30
0.0
 10
-7.1436710706
 20
3.4193591584
 30
0.0
 10
-7.1498451508
 20
3.4257379079
 30
0.0
 10
-7.1575449301
 20
3.4336356261
 30
0.0
 10
-7.1666639866
 20
3.44294998
 30
0.0
 10
-7.1770934919
 20
3.4535687785
 30
0.0
 10
-7.193290889
 20
3.470021202
 30
0.0
 10
-7.2160090857
 20
3.4930316656
 30
0.0
 10
-7.2458021218
 20
3.5231361653
 30
0.0
 10
-7.2784797193
 20
3.5560969025
 30
0.0
 10
-7.3134660677
 20
3.5913379037
 30
0.0
 10
-7.3502918017
 20
3.6283899344
 30
0.0
 10
-7.4020280092
 20
3.6803941256
 30
0.0
 10
-7.4689713032
 20
3.7475987329
 30
0.0
 10
-7.5510653953
 20
3.8298977571
 30
0.0
 10
-7.6065416626
 20
3.8854400265
 30
0.0
 10
-7.6344850761
 20
3.9133984746
 30
0.0
  0
SPLINE
  5
493
100
AcDbEntity
  8
RACCORDO
100
AcDbSpline
 62
250
  6
CONTINUOUS
 70
0
 71
3
 72
22
 73
18
 74
0
 42
0.0000001
 43
0.0000001
 44
0.0000000001
 40
0.0
 40
0.0
 40
0.0
 40
0.0
 40
0.0028346526
 40
0.0076285035
 40
0.0146109522
 40
0.0238387082
 40
0.0490322025
 40
0.0830854577
 40
0.1257141296
 40
0.1765346534
 40
0.2350813185
 40
0.3008091045
 40
0.373102956
 40
0.4512869739
 40
0.6223418455
 40
0.8075559467
 40
1.0
 40
1.0
 40
1.0
 40
1.0
 10
10.3076730391
 20
-20.5419058565
 30
0.0
 10
10.307488138
 20
-20.5423419866
 30
0.0
 10
10.3063863903
 20
-20.5431620611
 30
0.0
 10
10.3041580515
 20
-20.5440657676
 30
0.0
 10
10.300756843
 20
-20.5450277016
 30
0.0
 10
10.2939931732
 20
-20.5464467574
 30
0.0
 10
10.2826529861
 20
-20.5480899804
 30
0.0
 10
10.2657285751
 20
-20.5499068759
 30
0.0
 10
10.2444907575
 20
-20.5516673771
 30
0.0
 10
10.2191462288
 20
-20.5533530268
 30
0.0
 10
10.1899278755
 20
-20.5549394944
 30
0.0
 10
10.1571114267
 20
-20.5564100043
 30
0.0
 10
10.121005196
 20
-20.557748902
 30
0.0
 10
10.0672977281
 20
-20.5593891959
 30
0.0
 10
9.9947110456
 20
-20.5609777104
 30
0.0
 10
9.9030206599
 20
-20.5621520504
 30
0.0
 10
9.8399090359
 20
-20.5624452521
 30
0.0
 10
9.8077491915
 20
-20.562468318
 30
0.0
  0
SPLINE
  5
494
100
AcDbEntity
  8
RACCORDO
100
AcDbSpline
 62
250
  6
CONTINUOUS
 70
0
 71
3
 72
21
 73
17
 74
0
 42
0.0000001
 43
0.0000001
 44
0.0000000001
 40
0.0
 40
0.0
 40
0.0
 40
0.0
 40
0.1908437014
 40
0.37373534
 40
0.542459446
 40
0.6912793372
 40
0.756613111
 40
0.8151368367
 40
0.8663526731
 40
0.9098252744
 40
0.9451857799
 40
0.9721353804
 40
0.9823830818
 40
0.9904509844
 40
0.9963243388
 40
1.0
 40
1.0
 40
1.0
 40
1.0
 10
9.8077491915
 20
-20.5624683248
 30
0.0
 10
9.8077929824
 20
-20.6538519852
 30
0.0
 10
9.8080678799
 20
-20.8328115091
 30
0.0
 10
9.8090447024
 20
-21.0925614008
 30
0.0
 10
9.8105464075
 20
-21.3321857415
 30
0.0
 10
9.8122476531
 20
-21.5155156455
 30
0.0
 10
9.8138795566
 20
-21.6460744898
 30
0.0
 10
9.815141582
 20
-21.7298973176
 30
0.0
 10
9.8164832737
 20
-21.8032492872
 30
0.0
 10
9.8178866414
 20
-21.865506683
 30
0.0
 10
9.8193421877
 20
-21.916138539
 30
0.0
 10
9.820652358
 20
-21.9508596989
 30
0.0
 10
9.8217874176
 20
-21.9725038701
 30
0.0
 10
9.8225468135
 20
-21.9840646695
 30
0.0
 10
9.823315254
 20
-21.9924610378
 30
0.0
 10
9.8238945381
 20
-21.9970069934
 30
0.0
 10
9.8242759622
 20
-21.998725222
 30
0.0
  0
SPLINE
  5
495
100
AcDbEntity
  8
RACCORDO
100
AcDbSpline
 62
250
  6
CONTINUOUS
 70
0
 71
3
 72
21
 73
17
 74
0
 42
0.0000001
 43
0.0000001
 44
0.0000000001
 40
0.0
 40
0.0
 40
0.0
 40
0.0
 40
0.1908078361
 40
0.3736648077
 40
0.5423569108
 40
0.6911501472
 40
0.7564738751
 40
0.8149906122
 40
0.8662033773
 40
0.9096780668
 40
0.9450474351
 40
0.9720159518
 40
0.9822790237
 40
0.9903681257
 40
0.9962724435
 40
1.0
 40
1.0
 40
1.0
 40
1.0
 10
10.3076730391
 20
-20.5419058565
 30
0.0
 10
10.3077168298
 20
-20.6028307843
 30
0.0
 10
10.3079917578
 20
-20.7221418867
 30
0.0
 10
10.3089686411
 20
-20.8953140572
 30
0.0
 10
10.3104704334
 20
-21.0550666852
 30
0.0
 10
10.3121717525
 20
-21.1772864706
 30
0.0
 10
10.3138036669
 20
-21.2643232625
 30
0.0
 10
10.315065726
 20
-21.3202037239
 30
0.0
 10
10.3164073945
 20
-21.3691035336
 30
0.0
 10
10.3178109074
 20
-21.4106077125
 30
0.0
 10
10.319266299
 20
-21.4443619953
 30
0.0
 10
10.3205771142
 20
-21.4675096222
 30
0.0
 10
10.321711384
 20
-21.4819348695
 30
0.0
 10
10.3224725406
 20
-21.4896466849
 30
0.0
 10
10.3232393397
 20
-21.4952471827
 30
0.0
 10
10.323823839
 20
-21.498281188
 30
0.0
 10
10.3241998097
 20
-21.4994104546
 30
0.0
  0
LINE
  5
496
100
AcDbEntity
  8
RACCORDO
100
AcDbLine
 62
7
  6
CONTINUOUS
 10
9.975
 20
-22.3997080771
 30
0.0
 11
9.9677192511
 21
-22.3334109614
 31
0.0
  0
SPLINE
  5
497
100
AcDbEntity
  8
RACCORDO
100
AcDbSpline
 62
7
  6
CONTINUOUS
 70
0
 71
3
 72
26
 73
22
 74
0
 42
0.0000001
 43
0.0000001
 44
0.0000000001
 40
0.0
 40
0.0
 40
0.0
 40
0.0
 40
0.0008149398
 40
0.0025026446
 40
0.0050571635
 40
0.008470453
 40
0.0178144266
 40
0.0303830592
 40
0.0459927162
 40
0.064431422
 40
0.0854759447
 40
0.108899439
 40
0.1620106529
 40
0.2221418921
 40
0.287909741
 40
0.3581771229
 40
0.4320225153
 40
0.5086995373
 40
0.6682134514
 40
0.832933443
 40
1.0
 40
1.0
 40
1.0
 40
1.0
 10
5.7845360794
 20
3.4095494981
 30
0.0
 10
5.7846281668
 20
3.4097189049
 30
0.0
 10
5.7850281346
 20
3.4101646577
 30
0.0
 10
5.7858062369
 20
3.4110670945
 30
0.0
 10
5.7870434911
 20
3.4123938604
 30
0.0
 10
5.7895211685
 20
3.4150348336
 30
0.0
 10
5.7936710706
 20
3.4193591581
 30
0.0
 10
5.7998451508
 20
3.4257379075
 30
0.0
 10
5.8075449302
 20
3.4336356256
 30
0.0
 10
5.8166639867
 20
3.4429499795
 30
0.0
 10
5.827093492
 20
3.4535687779
 30
0.0
 10
5.8432908892
 20
3.4700212013
 30
0.0
 10
5.866009086
 20
3.4930316648
 30
0.0
 10
5.8958021221
 20
3.5231361644
 30
0.0
 10
5.9284797198
 20
3.5560969015
 30
0.0
 10
5.9634660683
 20
3.5913379026
 30
0.0
 10
6.0002918024
 20
3.6283899332
 30
0.0
 10
6.0520280103
 20
3.6803941241
 30
0.0
 10
6.1189713043
 20
3.7475987315
 30
0.0
 10
6.2010654
 20
3.8298977523
 30
0.0
 10
6.2565416625
 20
3.8854400265
 30
0.0
 10
6.2844850761
 20
3.9133984746
 30
0.0
  0
SPLINE
  5
498
100
AcDbEntity
  8
RACCORDO
100
AcDbSpline
 62
7
  6
CONTINUOUS
 70
0
 71
3
 72
26
 73
22
 74
0
 42
0.0000001
 43
0.0000001
 44
0.0000000001
 40
0.0
 40
0.0
 40
0.0
 40
0.0
 40
0.0008510653
 40
0.0025716543
 40
0.0051572083
 40
0.0086000003
 40
0.0179987511
 40
0.0306167702
 40
0.0462705005
 40
0.0647480233
 40
0.0858262039
 40
0.10927833
 40
0.1624324169
 40
0.2225886459
 40
0.2883652137
 40
0.3586265732
 40
0.4324525717
 40
0.5090980168
 40
0.6685161216
 40
0.8331018023
 40
1.0
 40
1.0
 40
1.0
 40
1.0
 10
5.7844599863
 20
-4.5094826835
 30
0.0
 10
5.7845469231
 20
-4.5096645574
 30
0.0
 10
5.7849479902
 20
-4.5101346262
 30
0.0
 10
5.7857263379
 20
-4.5110677629
 30
0.0
 10
5.7869651445
 20
-4.5124269313
 30
0.0
 10
5.7894404363
 20
-4.5151122442
 30
0.0
 10
5.7935900056
 20
-4.5194901312
 30
0.0
 10
5.7997648249
 20
-4.5259301161
 30
0.0
 10
5.8074652085
 20
-4.533887717
 30
0.0
 10
5.8165844962
 20
-4.5432601799
 30
0.0
 10
5.8270141022
 20
-4.5539350448
 30
0.0
 10
5.8432090529
 20
-4.5704599333
 30
0.0
 10
5.8659253823
 20
-4.5935536457
 30
0.0
 10
5.8957187463
 20
-4.623747995
 30
0.0
 10
5.9283963731
 20
-4.6567888736
 30
0.0
 10
5.9633825374
 20
-4.6921004454
 30
0.0
 10
6.0002079534
 20
-4.729213724
 30
0.0
 10
6.05194026
 20
-4.781285107
 30
0.0
 10
6.1188795575
 20
-4.848551602
 30
0.0
 10
6.2009730277
 20
-4.9308962448
 30
0.0
 10
6.2564537997
 20
-4.9864531906
 30
0.0
 10
6.2843993763
 20
-5.0144137901
 30
0.0
  0
SPLINE
  5
499
100
AcDbEntity
  8
RACCORDO
100
AcDbSpline
 62
7
  6
CONTINUOUS
 70
0
 71
3
 72
26
 73
22
 74
0
 42
0.0000001
 43
0.0000001
 44
0.0000000001
 40
0.0
 40
0.0
 40
0.0
 40
0.0
 40
0.0008510654
 40
0.0025716543
 40
0.0051572083
 40
0.0086000004
 40
0.0179987512
 40
0.0306167703
 40
0.0462705007
 40
0.0647480234
 40
0.0858262041
 40
0.1092783302
 40
0.1624324171
 40
0.2225886461
 40
0.2883652139
 40
0.3586265734
 40
0.4324525718
 40
0.509098017
 40
0.6685161217
 40
0.8331018023
 40
1.0
 40
1.0
 40
1.0
 40
1.0
 10
2.9844599863
 20
-4.5094826835
 30
0.0
 10
2.9845469231
 20
-4.5096645574
 30
0.0
 10
2.9849479902
 20
-4.5101346263
 30
0.0
 10
2.9857263379
 20
-4.511067763
 30
0.0
 10
2.9869651445
 20
-4.5124269314
 30
0.0
 10
2.9894404363
 20
-4.5151122443
 30
0.0
 10
2.9935900056
 20
-4.5194901314
 30
0.0
 10
2.9997648248
 20
-4.5259301163
 30
0.0
 10
3.0074652085
 20
-4.5338877172
 30
0.0
 10
3.0165844962
 20
-4.5432601801
 30
0.0
 10
3.0270141022
 20
-4.5539350451
 30
0.0
 10
3.0432090528
 20
-4.5704599336
 30
0.0
 10
3.0659253822
 20
-4.593553646
 30
0.0
 10
3.0957187461
 20
-4.6237479954
 30
0.0
 10
3.1283963729
 20
-4.6567888741
 30
0.0
 10
3.1633825371
 20
-4.6921004459
 30
0.0
 10
3.2002079529
 20
-4.7292137246
 30
0.0
 10
3.2519402593
 20
-4.7812851079
 30
0.0
 10
3.3188795568
 20
-4.8485516028
 30
0.0
 10
3.4009730245
 20
-4.9308962481
 30
0.0
 10
3.4564537998
 20
-4.9864531906
 30
0.0
 10
3.4843993763
 20
-5.0144137901
 30
0.0
  0
SPLINE
  5
49A
100
AcDbEntity
  8
RACCORDO
100
AcDbSpline
 62
250
  6
CONTINUOUS
 70
0
 71
3
 72
13
 73
9
 74
0
 42
0.0000001
 43
0.0000001
 44
0.0000000001
 40
0.0
 40
0.0
 40
0.0
 40
0.0
 40
0.1162399782
 40
0.2339778175
 40
0.3543713311
 40
0.4780980184
 40
0.7345386243
 40
1.0
 40
1.0
 40
1.0
 40
1.0
 10
9.9619014213
 20
-23.8443375673
 30
0.0
 10
9.9618538949
 20
-23.8301877969
 30
0.0
 10
9.9584956104
 20
-23.8016148029
 30
0.0
 10
9.9439382831
 20
-23.7606547352
 30
0.0
 10
9.9204678694
 20
-23.7229828841
 30
0.0
 10
9.8781654793
 20
-23.6786204872
 30
0.0
 10
9.8082385508
 20
-23.6387874753
 30
0.0
 10
9.7442200662
 20
-23.6279126226
 30
0.0
 10
9.7119056521
 20
-23.6278312164
 30
0.0
  0
SPLINE
  5
49B
100
AcDbEntity
  8
RACCORDO
100
AcDbSpline
 62
250
  6
CONTINUOUS
 70
0
 71
3
 72
13
 73
9
 74
0
 42
0.0000001
 43
0.0000001
 44
0.0000000001
 40
0.0
 40
0.0
 40
0.0
 40
0.0
 40
0.1162401412
 40
0.2339779602
 40
0.3543714643
 40
0.4780981267
 40
0.7345386771
 40
1.0
 40
1.0
 40
1.0
 40
1.0
 10
-11.3119014213
 20
23.8443375673
 30
0.0
 10
-11.3118538948
 20
23.830187777
 30
0.0
 10
-11.3084956075
 20
23.8016147644
 30
0.0
 10
-11.2939382568
 20
23.7606546878
 30
0.0
 10
-11.2704678401
 20
23.722982847
 30
0.0
 10
-11.2281654486
 20
23.6786204663
 30
0.0
 10
-11.1582385313
 20
23.6387874704
 30
0.0
 10
-11.0942200598
 20
23.6279126226
 30
0.0
 10
-11.0619056521
 20
23.6278312164
 30
0.0
  0
SPLINE
  5
49C
100
AcDbEntity
  8
RACCORDO
100
AcDbSpline
 62
7
  6
CONTINUOUS
 70
0
 71
3
 72
15
 73
11
 74
0
 42
0.0000001
 43
0.0000001
 44
0.0000000001
 40
0.0
 40
0.0
 40
0.0
 40
0.0
 40
0.0847129374
 40
0.1757006909
 40
0.2778081862
 40
0.3942292046
 40
0.5263924491
 40
0.6737522819
 40
0.8333934372
 40
1.0
 40
1.0
 40
1.0
 40
1.0
 10
-11.3177192511
 20
23.2669872981
 30
0.0
 10
-11.3176296219
 20
23.258092445
 30
0.0
 10
-11.3143880304
 20
23.2395648789
 30
0.0
 10
-11.3008400686
 20
23.2133248236
 30
0.0
 10
-11.2789737644
 20
23.1888935038
 30
0.0
 10
-11.2491263724
 20
23.1669636521
 30
0.0
 10
-11.2117662434
 20
23.1483344332
 30
0.0
 10
-11.1677934721
 20
23.1339562437
 30
0.0
 10
-11.1187829097
 20
23.1248200479
 30
0.0
 10
-11.0844908199
 20
23.1226497308
 30
0.0
 10
-11.0669962532
 20
23.1226497308
 30
0.0
  0
SPLINE
  5
49D
100
AcDbEntity
  8
RACCORDO
100
AcDbSpline
 62
7
  6
CONTINUOUS
 70
0
 71
3
 72
15
 73
11
 74
0
 42
0.0000001
 43
0.0000001
 44
0.0000000001
 40
0.0
 40
0.0
 40
0.0
 40
0.0
 40
0.0847129374
 40
0.1757006909
 40
0.2778081862
 40
0.3942292046
 40
0.5263924491
 40
0.6737522819
 40
0.8333934372
 40
1.0
 40
1.0
 40
1.0
 40
1.0
 10
-8.9322807489
 20
23.2669872981
 30
0.0
 10
-8.9323703781
 20
23.258092445
 30
0.0
 10
-8.9356119696
 20
23.2395648789
 30
0.0
 10
-8.9491599314
 20
23.2133248236
 30
0.0
 10
-8.9710262356
 20
23.1888935038
 30
0.0
 10
-9.0008736276
 20
23.1669636521
 30
0.0
 10
-9.0382337566
 20
23.1483344332
 30
0.0
 10
-9.0822065279
 20
23.1339562437
 30
0.0
 10
-9.1312170903
 20
23.1248200479
 30
0.0
 10
-9.1655091801
 20
23.1226497308
 30
0.0
 10
-9.1830037468
 20
23.1226497308
 30
0.0
  0
SPLINE
  5
49E
100
AcDbEntity
  8
RACCORDO
100
AcDbSpline
 62
250
  6
CONTINUOUS
 70
0
 71
3
 72
13
 73
9
 74
0
 42
0.0000001
 43
0.0000001
 44
0.0000000001
 40
0.0
 40
0.0
 40
0.0
 40
0.0
 40
0.1162401412
 40
0.2339779602
 40
0.3543714643
 40
0.4780981267
 40
0.7345386771
 40
1.0
 40
1.0
 40
1.0
 40
1.0
 10
-8.9380985787
 20
23.8443375673
 30
0.0
 10
-8.9381461052
 20
23.830187777
 30
0.0
 10
-8.9415043925
 20
23.8016147644
 30
0.0
 10
-8.9560617432
 20
23.7606546878
 30
0.0
 10
-8.9795321599
 20
23.722982847
 30
0.0
 10
-9.0218345514
 20
23.6786204663
 30
0.0
 10
-9.0917614687
 20
23.6387874704
 30
0.0
 10
-9.1557799402
 20
23.6279126226
 30
0.0
 10
-9.1880943479
 20
23.6278312164
 30
0.0
  0
SPLINE
  5
49F
100
AcDbEntity
  8
RACCORDO
100
AcDbSpline
 62
7
  6
CONTINUOUS
 70
0
 71
3
 72
26
 73
22
 74
0
 42
0.0000001
 43
0.0000001
 44
0.0000000001
 40
0.0
 40
0.0
 40
0.0
 40
0.0
 40
0.0009049298
 40
0.002674114
 40
0.005305308
 40
0.0087913609
 40
0.0182702214
 40
0.030960311
 40
0.0466782643
 40
0.0652122844
 40
0.086339402
 40
0.1098331126
 40
0.1630493508
 40
0.2232416466
 40
0.2890305735
 40
0.3592828285
 40
0.4330802646
 40
0.5096794276
 40
0.6689574955
 40
0.8333472041
 40
1.0
 40
1.0
 40
1.0
 40
1.0
 10
2.9843115708
 20
-6.1093520911
 30
0.0
 10
2.9843924385
 20
-6.109550959
 30
0.0
 10
2.9847926721
 20
-6.1100573295
 30
0.0
 10
2.9855730314
 20
-6.111034838
 30
0.0
 10
2.9868132109
 20
-6.1124415169
 30
0.0
 10
2.9892855236
 20
-6.1151910878
 30
0.0
 10
2.9934342407
 20
-6.1196470005
 30
0.0
 10
2.9996102946
 20
-6.1261760084
 30
0.0
 10
3.0073114929
 20
-6.1342206999
 30
0.0
 10
3.0164311362
 20
-6.1436776159
 30
0.0
 10
3.0268608805
 20
-6.1544339543
 30
0.0
 10
3.0430522763
 20
-6.1710640765
 30
0.0
 10
3.0657658854
 20
-6.1942786773
 30
0.0
 10
3.0955597267
 20
-6.2246034766
 30
0.0
 10
3.1282373961
 20
-6.2577606533
 30
0.0
 10
3.1632232932
 20
-6.2931745777
 30
0.0
 10
3.2000482474
 20
-6.3303766309
 30
0.0
 10
3.2517748824
 20
-6.3825452903
 30
0.0
 10
3.3187083681
 20
-6.4499012275
 30
0.0
 10
3.4008009343
 20
-6.5323115317
 30
0.0
 10
3.4562882641
 20
-6.5878893528
 30
0.0
 10
3.4842369883
 20
-6.6158528412
 30
0.0
  0
SPLINE
  5
4A0
100
AcDbEntity
  8
RACCORDO
100
AcDbSpline
 62
250
  6
CONTINUOUS
 70
0
 71
3
 72
13
 73
9
 74
0
 42
0.0000001
 43
0.0000001
 44
0.0000000001
 40
0.0
 40
0.0
 40
0.0
 40
0.0
 40
0.1162399782
 40
0.2339778175
 40
0.3543713311
 40
0.4780980184
 40
0.7345386243
 40
1.0
 40
1.0
 40
1.0
 40
1.0
 10
7.5880985787
 20
-23.8443375673
 30
0.0
 10
7.5881461051
 20
-23.8301877969
 30
0.0
 10
7.5915043896
 20
-23.8016148029
 30
0.0
 10
7.6060617169
 20
-23.7606547352
 30
0.0
 10
7.6295321306
 20
-23.7229828841
 30
0.0
 10
7.6718345207
 20
-23.6786204872
 30
0.0
 10
7.7417614492
 20
-23.6387874753
 30
0.0
 10
7.8057799338
 20
-23.6279126226
 30
0.0
 10
7.8380943479
 20
-23.6278312164
 30
0.0
  0
SPLINE
  5
4A1
100
AcDbEntity
  8
RACCORDO
100
AcDbSpline
 62
7
  6
CONTINUOUS
 70
0
 71
3
 72
15
 73
11
 74
0
 42
0.0000001
 43
0.0000001
 44
0.0000000001
 40
0.0
 40
0.0
 40
0.0
 40
0.0
 40
0.0847129374
 40
0.1757006909
 40
0.2778081862
 40
0.3942292046
 40
0.5263924491
 40
0.6737522819
 40
0.8333934372
 40
1.0
 40
1.0
 40
1.0
 40
1.0
 10
7.5822807489
 20
-23.2669872981
 30
0.0
 10
7.5823703781
 20
-23.258092445
 30
0.0
 10
7.5856119696
 20
-23.2395648789
 30
0.0
 10
7.5991599314
 20
-23.2133248236
 30
0.0
 10
7.6210262356
 20
-23.1888935038
 30
0.0
 10
7.6508736276
 20
-23.1669636521
 30
0.0
 10
7.6882337566
 20
-23.1483344332
 30
0.0
 10
7.7322065279
 20
-23.1339562437
 30
0.0
 10
7.7812170903
 20
-23.1248200479
 30
0.0
 10
7.8155091801
 20
-23.1226497308
 30
0.0
 10
7.8330037468
 20
-23.1226497308
 30
0.0
  0
SPLINE
  5
4A2
100
AcDbEntity
  8
RACCORDO
100
AcDbSpline
 62
7
  6
CONTINUOUS
 70
0
 71
3
 72
26
 73
22
 74
0
 42
0.0000001
 43
0.0000001
 44
0.0000000001
 40
0.0
 40
0.0
 40
0.0
 40
0.0
 40
0.0009049298
 40
0.002674114
 40
0.005305308
 40
0.0087913609
 40
0.0182702214
 40
0.030960311
 40
0.0466782643
 40
0.0652122844
 40
0.086339402
 40
0.1098331126
 40
0.1630493508
 40
0.2232416466
 40
0.2890305735
 40
0.3592828285
 40
0.4330802646
 40
0.5096794276
 40
0.6689574955
 40
0.8333472041
 40
1.0
 40
1.0
 40
1.0
 40
1.0
 10
1.8343115708
 20
-6.1093520911
 30
0.0
 10
1.8343924385
 20
-6.109550959
 30
0.0
 10
1.8347926721
 20
-6.1100573295
 30
0.0
 10
1.8355730314
 20
-6.111034838
 30
0.0
 10
1.8368132109
 20
-6.1124415169
 30
0.0
 10
1.8392855236
 20
-6.1151910878
 30
0.0
 10
1.8434342407
 20
-6.1196470005
 30
0.0
 10
1.8496102946
 20
-6.1261760084
 30
0.0
 10
1.8573114929
 20
-6.1342206999
 30
0.0
 10
1.8664311362
 20
-6.1436776159
 30
0.0
 10
1.8768608805
 20
-6.1544339543
 30
0.0
 10
1.8930522763
 20
-6.1710640765
 30
0.0
 10
1.9157658854
 20
-6.1942786773
 30
0.0
 10
1.9455597267
 20
-6.2246034766
 30
0.0
 10
1.9782373961
 20
-6.2577606533
 30
0.0
 10
2.0132232932
 20
-6.2931745777
 30
0.0
 10
2.0500482474
 20
-6.3303766309
 30
0.0
 10
2.1017748824
 20
-6.3825452903
 30
0.0
 10
2.1687083681
 20
-6.4499012275
 30
0.0
 10
2.2508009343
 20
-6.5323115317
 30
0.0
 10
2.3062882641
 20
-6.5878893528
 30
0.0
 10
2.3342369883
 20
-6.6158528412
 30
0.0
  0
SPLINE
  5
4A3
100
AcDbEntity
  8
RACCORDO
100
AcDbSpline
 62
250
  6
CONTINUOUS
 70
0
 71
3
 72
13
 73
9
 74
0
 42
0.0000001
 43
0.0000001
 44
0.0000000001
 40
0.0
 40
0.0
 40
0.0
 40
0.0
 40
0.1162401412
 40
0.2339779602
 40
0.3543714643
 40
0.4780981267
 40
0.7345386771
 40
1.0
 40
1.0
 40
1.0
 40
1.0
 10
7.5880985787
 20
23.8443375673
 30
0.0
 10
7.5881461052
 20
23.830187777
 30
0.0
 10
7.5915043925
 20
23.8016147644
 30
0.0
 10
7.6060617432
 20
23.7606546878
 30
0.0
 10
7.6295321599
 20
23.722982847
 30
0.0
 10
7.6718345514
 20
23.6786204663
 30
0.0
 10
7.7417614687
 20
23.6387874704
 30
0.0
 10
7.8057799402
 20
23.6279126226
 30
0.0
 10
7.8380943479
 20
23.6278312164
 30
0.0
  0
SPLINE
  5
4A4
100
AcDbEntity
  8
RACCORDO
100
AcDbSpline
 62
7
  6
CONTINUOUS
 70
0
 71
3
 72
15
 73
11
 74
0
 42
0.0000001
 43
0.0000001
 44
0.0000000001
 40
0.0
 40
0.0
 40
0.0
 40
0.0
 40
0.0847129374
 40
0.1757006909
 40
0.2778081862
 40
0.3942292046
 40
0.5263924491
 40
0.6737522819
 40
0.8333934372
 40
1.0
 40
1.0
 40
1.0
 40
1.0
 10
7.5822807489
 20
23.2669872981
 30
0.0
 10
7.5823703781
 20
23.258092445
 30
0.0
 10
7.5856119696
 20
23.2395648789
 30
0.0
 10
7.5991599314
 20
23.2133248236
 30
0.0
 10
7.6210262356
 20
23.1888935038
 30
0.0
 10
7.6508736276
 20
23.1669636521
 30
0.0
 10
7.6882337566
 20
23.1483344332
 30
0.0
 10
7.7322065279
 20
23.1339562437
 30
0.0
 10
7.7812170903
 20
23.1248200479
 30
0.0
 10
7.8155091801
 20
23.1226497308
 30
0.0
 10
7.8330037468
 20
23.1226497308
 30
0.0
  0
SPLINE
  5
4A5
100
AcDbEntity
  8
RACCORDO
100
AcDbSpline
 62
7
  6
CONTINUOUS
 70
0
 71
3
 72
15
 73
11
 74
0
 42
0.0000001
 43
0.0000001
 44
0.0000000001
 40
0.0
 40
0.0
 40
0.0
 40
0.0
 40
0.0847129374
 40
0.1757006909
 40
0.2778081862
 40
0.3942292046
 40
0.5263924491
 40
0.6737522819
 40
0.8333934372
 40
1.0
 40
1.0
 40
1.0
 40
1.0
 10
-8.9322807489
 20
-23.2669872981
 30
0.0
 10
-8.9323703781
 20
-23.258092445
 30
0.0
 10
-8.9356119696
 20
-23.2395648789
 30
0.0
 10
-8.9491599314
 20
-23.2133248236
 30
0.0
 10
-8.9710262356
 20
-23.1888935038
 30
0.0
 10
-9.0008736276
 20
-23.1669636521
 30
0.0
 10
-9.0382337566
 20
-23.1483344332
 30
0.0
 10
-9.0822065279
 20
-23.1339562437
 30
0.0
 10
-9.1312170903
 20
-23.1248200479
 30
0.0
 10
-9.1655091801
 20
-23.1226497308
 30
0.0
 10
-9.1830037468
 20
-23.1226497308
 30
0.0
  0
SPLINE
  5
4A6
100
AcDbEntity
  8
RACCORDO
100
AcDbSpline
 62
250
  6
CONTINUOUS
 70
0
 71
3
 72
13
 73
9
 74
0
 42
0.0000001
 43
0.0000001
 44
0.0000000001
 40
0.0
 40
0.0
 40
0.0
 40
0.0
 40
0.1162399782
 40
0.2339778175
 40
0.3543713311
 40
0.4780980184
 40
0.7345386243
 40
1.0
 40
1.0
 40
1.0
 40
1.0
 10
-8.9380985787
 20
-23.8443375673
 30
0.0
 10
-8.9381461051
 20
-23.8301877969
 30
0.0
 10
-8.9415043896
 20
-23.8016148029
 30
0.0
 10
-8.9560617169
 20
-23.7606547352
 30
0.0
 10
-8.9795321306
 20
-23.7229828841
 30
0.0
 10
-9.0218345207
 20
-23.6786204872
 30
0.0
 10
-9.0917614492
 20
-23.6387874753
 30
0.0
 10
-9.1557799338
 20
-23.6279126226
 30
0.0
 10
-9.1880943479
 20
-23.6278312164
 30
0.0
  0
SPLINE
  5
4A7
100
AcDbEntity
  8
RACCORDO
100
AcDbSpline
 62
7
  6
CONTINUOUS
 70
0
 71
3
 72
15
 73
11
 74
0
 42
0.0000001
 43
0.0000001
 44
0.0000000001
 40
0.0
 40
0.0
 40
0.0
 40
0.0
 40
0.0847129374
 40
0.1757006909
 40
0.2778081862
 40
0.3942292046
 40
0.5263924491
 40
0.6737522819
 40
0.8333934372
 40
1.0
 40
1.0
 40
1.0
 40
1.0
 10
9.9677192511
 20
23.2669872981
 30
0.0
 10
9.9676296219
 20
23.258092445
 30
0.0
 10
9.9643880304
 20
23.2395648789
 30
0.0
 10
9.9508400686
 20
23.2133248236
 30
0.0
 10
9.9289737644
 20
23.1888935038
 30
0.0
 10
9.8991263724
 20
23.1669636521
 30
0.0
 10
9.8617662434
 20
23.1483344332
 30
0.0
 10
9.8177934721
 20
23.1339562437
 30
0.0
 10
9.7687829097
 20
23.1248200479
 30
0.0
 10
9.7344908199
 20
23.1226497308
 30
0.0
 10
9.7169962532
 20
23.1226497308
 30
0.0
  0
SPLINE
  5
4A8
100
AcDbEntity
  8
RACCORDO
100
AcDbSpline
 62
250
  6
CONTINUOUS
 70
0
 71
3
 72
13
 73
9
 74
0
 42
0.0000001
 43
0.0000001
 44
0.0000000001
 40
0.0
 40
0.0
 40
0.0
 40
0.0
 40
0.1162401412
 40
0.2339779602
 40
0.3543714643
 40
0.4780981267
 40
0.7345386771
 40
1.0
 40
1.0
 40
1.0
 40
1.0
 10
9.9619014213
 20
23.8443375673
 30
0.0
 10
9.9618538948
 20
23.830187777
 30
0.0
 10
9.9584956075
 20
23.8016147644
 30
0.0
 10
9.9439382568
 20
23.7606546878
 30
0.0
 10
9.9204678401
 20
23.722982847
 30
0.0
 10
9.8781654486
 20
23.6786204663
 30
0.0
 10
9.8082385313
 20
23.6387874704
 30
0.0
 10
9.7442200598
 20
23.6279126226
 30
0.0
 10
9.7119056521
 20
23.6278312164
 30
0.0
  0
SPLINE
  5
4A9
100
AcDbEntity
  8
RACCORDO
100
AcDbSpline
 62
250
  6
CONTINUOUS
 70
0
 71
3
 72
13
 73
9
 74
0
 42
0.0000001
 43
0.0000001
 44
0.0000000001
 40
0.0
 40
0.0
 40
0.0
 40
0.0
 40
0.1162399782
 40
0.2339778175
 40
0.3543713311
 40
0.4780980184
 40
0.7345386243
 40
1.0
 40
1.0
 40
1.0
 40
1.0
 10
-11.3119014213
 20
-23.8443375673
 30
0.0
 10
-11.3118538949
 20
-23.8301877969
 30
0.0
 10
-11.3084956104
 20
-23.8016148029
 30
0.0
 10
-11.2939382831
 20
-23.7606547352
 30
0.0
 10
-11.2704678694
 20
-23.7229828841
 30
0.0
 10
-11.2281654793
 20
-23.6786204872
 30
0.0
 10
-11.1582385508
 20
-23.6387874753
 30
0.0
 10
-11.0942200662
 20
-23.6279126226
 30
0.0
 10
-11.0619056521
 20
-23.6278312164
 30
0.0
  0
SPLINE
  5
4AA
100
AcDbEntity
  8
RACCORDO
100
AcDbSpline
 62
7
  6
CONTINUOUS
 70
0
 71
3
 72
26
 73
22
 74
0
 42
0.0000001
 43
0.0000001
 44
0.0000000001
 40
0.0
 40
0.0
 40
0.0
 40
0.0
 40
0.0009513896
 40
0.0027622175
 40
0.0054323498
 40
0.0089552087
 40
0.0185020454
 40
0.0312531556
 40
0.0470254029
 40
0.065607128
 40
0.0867755218
 40
0.1103042687
 40
0.1635727697
 40
0.2237952571
 40
0.2895943371
 40
0.3598386178
 40
0.433611656
 40
0.510171472
 40
0.6693308183
 40
0.8335546743
 40
1.0
 40
1.0
 40
1.0
 40
1.0
 10
1.8341515576
 20
-7.4592111053
 30
0.0
 10
1.8342283245
 20
-7.4594236722
 30
0.0
 10
1.8346263149
 20
-7.459960862
 30
0.0
 10
1.835409279
 20
-7.460975993
 30
0.0
 10
1.8366501066
 20
-7.4624228589
 30
0.0
 10
1.8391201778
 20
-7.4652265647
 30
0.0
 10
1.8432679649
 20
-7.4697483201
 30
0.0
 10
1.8494451458
 20
-7.4763524408
 30
0.0
 10
1.857146994
 20
-7.484470587
 30
0.0
 10
1.866266947
 20
-7.4939987021
 30
0.0
 10
1.8766968029
 20
-7.50482371
 30
0.0
 10
1.8928852018
 20
-7.5215424676
 30
0.0
 10
1.9155965122
 20
-7.5448588822
 30
0.0
 10
1.9453907564
 20
-7.5752935269
 30
0.0
 10
1.9780684616
 20
-7.6085485799
 30
0.0
 10
2.013054134
 20
-7.6440485918
 30
0.0
 10
2.0498786996
 20
-7.6813252596
 30
0.0
 10
2.1016005518
 20
-7.7335755742
 30
0.0
 10
2.1685291349
 20
-7.8010064473
 30
0.0
 10
2.2506209433
 20
-7.8834715096
 30
0.0
 10
2.3061138053
 20
-7.9390665151
 30
0.0
 10
2.3340651868
 20
-7.967032219
 30
0.0
  0
SPLINE
  5
4AB
100
AcDbEntity
  8
RACCORDO
100
AcDbSpline
 62
7
  6
CONTINUOUS
 70
0
 71
3
 72
26
 73
22
 74
0
 42
0.0000001
 43
0.0000001
 44
0.0000000001
 40
0.0
 40
0.0
 40
0.0
 40
0.0
 40
0.0009513896
 40
0.0027622175
 40
0.0054323498
 40
0.0089552087
 40
0.0185020454
 40
0.0312531556
 40
0.0470254029
 40
0.065607128
 40
0.0867755218
 40
0.1103042687
 40
0.1635727697
 40
0.2237952571
 40
0.2895943371
 40
0.3598386178
 40
0.433611656
 40
0.510171472
 40
0.6693308183
 40
0.8335546743
 40
1.0
 40
1.0
 40
1.0
 40
1.0
 10
-3.1841515576
 20
-7.4592111053
 30
0.0
 10
-3.1842283245
 20
-7.4594236722
 30
0.0
 10
-3.1846263149
 20
-7.459960862
 30
0.0
 10
-3.185409279
 20
-7.460975993
 30
0.0
 10
-3.1866501066
 20
-7.4624228589
 30
0.0
 10
-3.1891201778
 20
-7.4652265647
 30
0.0
 10
-3.1932679649
 20
-7.4697483201
 30
0.0
 10
-3.1994451458
 20
-7.4763524408
 30
0.0
 10
-3.207146994
 20
-7.484470587
 30
0.0
 10
-3.216266947
 20
-7.4939987021
 30
0.0
 10
-3.2266968029
 20
-7.50482371
 30
0.0
 10
-3.2428852018
 20
-7.5215424676
 30
0.0
 10
-3.2655965122
 20
-7.5448588822
 30
0.0
 10
-3.2953907564
 20
-7.5752935269
 30
0.0
 10
-3.3280684616
 20
-7.6085485799
 30
0.0
 10
-3.363054134
 20
-7.6440485918
 30
0.0
 10
-3.3998786996
 20
-7.6813252596
 30
0.0
 10
-3.4516005518
 20
-7.7335755742
 30
0.0
 10
-3.5185291349
 20
-7.8010064473
 30
0.0
 10
-3.6006209433
 20
-7.8834715096
 30
0.0
 10
-3.6561138053
 20
-7.9390665151
 30
0.0
 10
-3.6840651868
 20
-7.967032219
 30
0.0
  0
SPLINE
  5
4AC
100
AcDbEntity
  8
RACCORDO
100
AcDbSpline
 62
7
  6
CONTINUOUS
 70
0
 71
3
 72
9
 73
5
 74
0
 42
0.0000001
 43
0.0000001
 44
0.0000000001
 40
0.0
 40
0.0
 40
0.0
 40
0.0
 40
0.517786632
 40
1.0
 40
1.0
 40
1.0
 40
1.0
 10
-47.939163945
 20
22.3334109614
 30
0.0
 10
-47.9605719422
 20
22.332273202
 30
0.0
 10
-48.0019359615
 20
22.3304456948
 30
0.0
 10
-48.0433146659
 20
22.3289557443
 30
0.0
 10
-48.0632526541
 20
22.3279108386
 30
0.0
  0
SPLINE
  5
4AD
100
AcDbEntity
  8
RACCORDO
100
AcDbSpline
 62
250
  6
CONTINUOUS
 70
0
 71
3
 72
25
 73
21
 74
0
 42
0.0000001
 43
0.0000001
 44
0.0000000001
 40
0.0
 40
0.0
 40
0.0
 40
0.0
 40
0.1950126392
 40
0.3824957337
 40
0.4711548316
 40
0.5552736864
 40
0.6340445003
 40
0.7067096429
 40
0.7725721393
 40
0.8309983179
 40
0.8814267906
 40
0.9233766885
 40
0.9410430151
 40
0.9564476561
 40
0.9695519408
 40
0.980328239
 40
0.9887549056
 40
0.9948165378
 40
0.998523322
 40
1.0
 40
1.0
 40
1.0
 40
1.0
 10
-54.3270466261
 20
-21.4994104546
 30
0.0
 10
-54.3287467342
 20
-21.5318603333
 30
0.0
 10
-54.331974091
 20
-21.5955128493
 30
0.0
 10
-54.3356760632
 20
-21.6739328608
 30
0.0
 10
-54.3383257423
 20
-21.7339036349
 30
0.0
 10
-54.340084269
 20
-21.7757816014
 30
0.0
 10
-54.3416348417
 20
-21.8150008101
 30
0.0
 10
-54.3429628616
 20
-21.8511843197
 30
0.0
 10
-54.3440560338
 20
-21.8839839826
 30
0.0
 10
-54.3449048963
 20
-21.9130844307
 30
0.0
 10
-54.3455018916
 20
-21.9382052754
 30
0.0
 10
-54.3458040359
 20
-21.9565402795
 30
0.0
 10
-54.3458992777
 20
-21.9690392541
 30
0.0
 10
-54.345901043
 20
-21.9767363485
 30
0.0
 10
-54.3458388302
 20
-21.9832734519
 30
0.0
 10
-54.3457123396
 20
-21.9886797825
 30
0.0
 10
-54.3455290983
 20
-21.9928231347
 30
0.0
 10
-54.3452847186
 20
-21.995990051
 30
0.0
 10
-54.3450194781
 20
-21.997584623
 30
0.0
 10
-54.3447341183
 20
-21.9987123445
 30
0.0
 10
-54.344488401
 20
-21.998725222
 30
0.0
  0
LINE
  5
4AE
100
AcDbEntity
  8
RACCORDO
100
AcDbLine
 62
7
  6
CONTINUOUS
 10
-46.6877095121
 20
-22.3997080771
 30
0.0
 11
-47.939163945
 21
-22.3334109614
 31
0.0
  0
SPLINE
  5
4AF
100
AcDbEntity
  8
RACCORDO
100
AcDbSpline
 62
250
  6
CONTINUOUS
 70
0
 71
3
 72
26
 73
22
 74
0
 42
0.0000001
 43
0.0000001
 44
0.0000000001
 40
0.0
 40
0.0
 40
0.0
 40
0.0
 40
0.1952381202
 40
0.3828749837
 40
0.5557520914
 40
0.6345520338
 40
0.7072376715
 40
0.7731076099
 40
0.8315332255
 40
0.8819531408
 40
0.9238816554
 40
0.9415349362
 40
0.956920956
 40
0.9700021908
 40
0.9807506497
 40
0.9891391341
 40
0.9951459668
 40
0.9972533322
 40
0.9987625092
 40
0.9996742481
 40
1.0
 40
1.0
 40
1.0
 40
1.0
 10
-45.9362550793
 20
-23.8443375673
 30
0.0
 10
-45.9281434832
 20
-23.8302873953
 30
0.0
 10
-45.9122494757
 20
-23.8027263462
 30
0.0
 10
-45.889219406
 20
-23.7626975296
 30
0.0
 10
-45.8710501444
 20
-23.7310348314
 30
0.0
 10
-45.8576603929
 20
-23.707642512
 30
0.0
 10
-45.8487007731
 20
-23.6919599588
 30
0.0
 10
-45.840594874
 20
-23.6777395348
 30
0.0
 10
-45.83342038
 20
-23.665117869
 30
0.0
 10
-45.8272460769
 20
-23.654216121
 30
0.0
 10
-45.8227581534
 20
-23.6462528618
 30
0.0
 10
-45.8197136371
 20
-23.6408180688
 30
0.0
 10
-45.8178475086
 20
-23.6374703242
 30
0.0
 10
-45.8162697323
 20
-23.6346199763
 30
0.0
 10
-45.8149804416
 20
-23.6322711012
 30
0.0
 10
-45.8139916262
 20
-23.630437018
 30
0.0
 10
-45.8133417508
 20
-23.629215972
 30
0.0
 10
-45.8129941184
 20
-23.6285133592
 30
0.0
 10
-45.8128105135
 20
-23.628155318
 30
0.0
 10
-45.8127574854
 20
-23.6279791452
 30
0.0
 10
-45.8126860698
 20
-23.6278447508
 30
0.0
 10
-45.8127095121
 20
-23.6278312164
 30
0.0
  0
SPLINE
  5
4B0
100
AcDbEntity
  8
RACCORDO
100
AcDbSpline
 62
250
  6
CONTINUOUS
 70
0
 71
3
 72
26
 73
22
 74
0
 42
0.0000001
 43
0.0000001
 44
0.0000000001
 40
0.0
 40
0.0
 40
0.0
 40
0.0
 40
0.1952381202
 40
0.3828749837
 40
0.5557520914
 40
0.6345520338
 40
0.7072376715
 40
0.7731076099
 40
0.8315332255
 40
0.8819531408
 40
0.9238816554
 40
0.9415349362
 40
0.956920956
 40
0.9700021908
 40
0.9807506497
 40
0.9891391341
 40
0.9951459668
 40
0.9972533322
 40
0.9987625092
 40
0.9996742481
 40
1.0
 40
1.0
 40
1.0
 40
1.0
 10
-48.939163945
 20
-23.8443375673
 30
0.0
 10
-48.947275541
 20
-23.8302873953
 30
0.0
 10
-48.9631695486
 20
-23.8027263462
 30
0.0
 10
-48.9861996182
 20
-23.7626975296
 30
0.0
 10
-49.0043688798
 20
-23.7310348314
 30
0.0
 10
-49.0177586313
 20
-23.707642512
 30
0.0
 10
-49.0267182512
 20
-23.6919599588
 30
0.0
 10
-49.0348241502
 20
-23.6777395348
 30
0.0
 10
-49.0419986442
 20
-23.665117869
 30
0.0
 10
-49.0481729473
 20
-23.654216121
 30
0.0
 10
-49.0526608708
 20
-23.6462528618
 30
0.0
 10
-49.0557053871
 20
-23.6408180688
 30
0.0
 10
-49.0575715157
 20
-23.6374703242
 30
0.0
 10
-49.059149292
 20
-23.6346199763
 30
0.0
 10
-49.0604385826
 20
-23.6322711012
 30
0.0
 10
-49.061427398
 20
-23.630437018
 30
0.0
 10
-49.0620772735
 20
-23.629215972
 30
0.0
 10
-49.0624249058
 20
-23.6285133592
 30
0.0
 10
-49.0626085107
 20
-23.628155318
 30
0.0
 10
-49.0626615388
 20
-23.6279791452
 30
0.0
 10
-49.0627329544
 20
-23.6278447508
 30
0.0
 10
-49.0627095121
 20
-23.6278312164
 30
0.0
  0
SPLINE
  5
4B1
100
AcDbEntity
  8
RACCORDO
100
AcDbSpline
 62
250
  6
CONTINUOUS
 70
0
 71
3
 72
26
 73
22
 74
0
 42
0.0000001
 43
0.0000001
 44
0.0000000001
 40
0.0
 40
0.0
 40
0.0
 40
0.0
 40
0.0003336228
 40
0.0012487957
 40
0.0027607629
 40
0.0048708913
 40
0.0108838711
 40
0.0192797588
 40
0.0300369534
 40
0.0431282632
 40
0.0585256394
 40
0.076191382
 40
0.1181475232
 40
0.1685972475
 40
0.2270528812
 40
0.2929506998
 40
0.3656595516
 40
0.4444752648
 40
0.6173498903
 40
0.804918698
 40
1.0
 40
1.0
 40
1.0
 40
1.0
 10
-45.9362550793
 20
-24.495628166
 30
0.0
 10
-45.9362272763
 20
-24.4956280042
 30
0.0
 10
-45.9362140645
 20
-24.4954778342
 30
0.0
 10
-45.9361736037
 20
-24.4952942839
 30
0.0
 10
-45.9361486575
 20
-24.4948924719
 30
0.0
 10
-45.936097604
 20
-24.4941059308
 30
0.0
 10
-45.9360486203
 20
-24.4927189634
 30
0.0
 10
-45.9359914604
 20
-24.4906277983
 30
0.0
 10
-45.9359398069
 20
-24.4879390129
 30
0.0
 10
-45.9358909653
 20
-24.4846694521
 30
0.0
 10
-45.9358464991
 20
-24.4808230354
 30
0.0
 10
-45.9357894803
 20
-24.4745714515
 30
0.0
 10
-45.9357330149
 20
-24.4653984055
 30
0.0
 10
-45.935686193
 20
-24.4528260315
 30
0.0
 10
-45.9356582096
 20
-24.438258313
 30
0.0
 10
-45.9356494269
 20
-24.4218355554
 30
0.0
 10
-45.9356601247
 20
-24.4037160292
 30
0.0
 10
-45.9357016634
 20
-24.3766813105
 30
0.0
 10
-45.9358036538
 20
-24.340074502
 30
0.0
 10
-45.9359928936
 20
-24.2937786131
 30
0.0
 10
-45.9361604997
 20
-24.261889788
 30
0.0
 10
-45.9362550793
 20
-24.2456323968
 30
0.0
  0
SPLINE
  5
4B2
100
AcDbEntity
  8
RACCORDO
100
AcDbSpline
 62
250
  6
CONTINUOUS
 70
0
 71
3
 72
26
 73
22
 74
0
 42
0.0000001
 43
0.0000001
 44
0.0000000001
 40
0.0
 40
0.0
 40
0.0
 40
0.0
 40
0.1950812131
 40
0.3826499456
 40
0.5555245119
 40
0.6343402047
 40
0.7070490478
 40
0.7729468713
 40
0.8314025054
 40
0.881852257
 40
0.9238084245
 40
0.9414741935
 40
0.956871577
 40
0.9699629139
 40
0.9807201421
 40
0.9891160416
 40
0.9951290477
 40
0.9972391968
 40
0.998751184
 40
0.9996663718
 40
1.0
 40
1.0
 40
1.0
 40
1.0
 10
-48.939163945
 20
24.2369056521
 30
0.0
 10
-48.9392585244
 20
24.2531630359
 30
0.0
 10
-48.9394261305
 20
24.2850518473
 30
0.0
 10
-48.9396153702
 20
24.3313477175
 30
0.0
 10
-48.9397173608
 20
24.3679545131
 30
0.0
 10
-48.9397588994
 20
24.3949892244
 30
0.0
 10
-48.9397695973
 20
24.4131087486
 30
0.0
 10
-48.9397608147
 20
24.4295315059
 30
0.0
 10
-48.9397328313
 20
24.4440992271
 30
0.0
 10
-48.9396860097
 20
24.4566716056
 30
0.0
 10
-48.9396295442
 20
24.4658446582
 30
0.0
 10
-48.9395725256
 20
24.4720962472
 30
0.0
 10
-48.9395280594
 20
24.4759426689
 30
0.0
 10
-48.939479218
 20
24.4792122353
 30
0.0
 10
-48.9394275647
 20
24.4819010268
 30
0.0
 10
-48.9393704044
 20
24.4839921979
 30
0.0
 10
-48.9393214205
 20
24.4853791703
 30
0.0
 10
-48.9392703667
 20
24.4861657167
 30
0.0
 10
-48.9392454209
 20
24.4865675339
 30
0.0
 10
-48.9392049592
 20
24.4867510864
 30
0.0
 10
-48.9391917484
 20
24.4869012595
 30
0.0
 10
-48.939163945
 20
24.4869014213
 30
0.0
  0
SPLINE
  5
4B3
100
AcDbEntity
  8
RACCORDO
100
AcDbSpline
 62
7
  6
CONTINUOUS
 70
0
 71
3
 72
23
 73
19
 74
0
 42
0.0000001
 43
0.0000001
 44
0.0000000001
 40
0.0
 40
0.0
 40
0.0
 40
0.0
 40
0.0029790642
 40
0.0081751116
 40
0.0156250895
 40
0.0253283264
 40
0.0372679701
 40
0.0514218611
 40
0.0862385412
 40
0.1294624024
 40
0.1806967365
 40
0.2394707692
 40
0.3052443416
 40
0.3774115779
 40
0.4553067591
 40
0.6253653726
 40
0.8091744664
 40
1.0
 40
1.0
 40
1.0
 40
1.0
 10
-46.687857485
 20
22.3996911987
 30
0.0
 10
-46.6881046698
 20
22.3992605945
 30
0.0
 10
-46.6884167199
 20
22.397904566
 30
0.0
 10
-46.6888101727
 20
22.3953465467
 30
0.0
 10
-46.6891394031
 20
22.3916264645
 30
0.0
 10
-46.6894362618
 20
22.3867900147
 30
0.0
 10
-46.6896941467
 20
22.3808279998
 30
0.0
 10
-46.6900325511
 20
22.3706824916
 30
0.0
 10
-46.6903692661
 20
22.3553196836
 30
0.0
 10
-46.6906275879
 20
22.3337755035
 30
0.0
 10
-46.6907646658
 20
22.3082371013
 30
0.0
 10
-46.6907782393
 20
22.2789401961
 30
0.0
 10
-46.6906648272
 20
22.2461546808
 30
0.0
 10
-46.690426048
 20
22.2101829449
 30
0.0
 10
-46.6899271908
 20
22.156831996
 30
0.0
 10
-46.688996252
 20
22.0848776565
 30
0.0
 10
-46.6874726486
 20
21.9941085514
 30
0.0
 10
-46.6862218028
 20
21.9316821458
 30
0.0
 10
-46.6855231831
 20
21.8998857286
 30
0.0
  0
SPLINE
  5
4B4
100
AcDbEntity
  8
RACCORDO
100
AcDbSpline
 62
250
  6
CONTINUOUS
 70
0
 71
3
 72
26
 73
22
 74
0
 42
0.0000001
 43
0.0000001
 44
0.0000000001
 40
0.0
 40
0.0
 40
0.0
 40
0.0
 40
0.1950812131
 40
0.3826499456
 40
0.5555245119
 40
0.6343402047
 40
0.7070490478
 40
0.7729468713
 40
0.8314025054
 40
0.881852257
 40
0.9238084245
 40
0.9414741935
 40
0.956871577
 40
0.9699629139
 40
0.9807201421
 40
0.9891160416
 40
0.9951290477
 40
0.9972391968
 40
0.998751184
 40
0.9996663718
 40
1.0
 40
1.0
 40
1.0
 40
1.0
 10
-45.9362550793
 20
24.2456323968
 30
0.0
 10
-45.9361604998
 20
24.2618897806
 30
0.0
 10
-45.9359928937
 20
24.293778592
 30
0.0
 10
-45.935803654
 20
24.3400744622
 30
0.0
 10
-45.9357016635
 20
24.3766812578
 30
0.0
 10
-45.9356601248
 20
24.4037159692
 30
0.0
 10
-45.9356494269
 20
24.4218354933
 30
0.0
 10
-45.9356582095
 20
24.4382582506
 30
0.0
 10
-45.9356861929
 20
24.4528259718
 30
0.0
 10
-45.9357330146
 20
24.4653983503
 30
0.0
 10
-45.93578948
 20
24.474571403
 30
0.0
 10
-45.9358464987
 20
24.4808229919
 30
0.0
 10
-45.9358909648
 20
24.4846694136
 30
0.0
 10
-45.9359398062
 20
24.4879389801
 30
0.0
 10
-45.9359914595
 20
24.4906277716
 30
0.0
 10
-45.9360486198
 20
24.4927189426
 30
0.0
 10
-45.9360976038
 20
24.494105915
 30
0.0
 10
-45.9361486575
 20
24.4948924614
 30
0.0
 10
-45.9361736034
 20
24.4952942786
 30
0.0
 10
-45.9362140651
 20
24.4954778311
 30
0.0
 10
-45.9362272759
 20
24.4956280042
 30
0.0
 10
-45.9362550793
 20
24.495628166
 30
0.0
  0
SPLINE
  5
4B5
100
AcDbEntity
  8
RACCORDO
100
AcDbSpline
 62
250
  6
CONTINUOUS
 70
0
 71
3
 72
26
 73
22
 74
0
 42
0.0000001
 43
0.0000001
 44
0.0000000001
 40
0.0
 40
0.0
 40
0.0
 40
0.0
 40
0.1952381202
 40
0.3828749837
 40
0.5557520914
 40
0.6345520338
 40
0.7072376715
 40
0.7731076099
 40
0.8315332255
 40
0.8819531408
 40
0.9238816554
 40
0.9415349362
 40
0.956920956
 40
0.9700021908
 40
0.9807506497
 40
0.9891391341
 40
0.9951459668
 40
0.9972533322
 40
0.9987625092
 40
0.9996742481
 40
1.0
 40
1.0
 40
1.0
 40
1.0
 10
-45.9362550793
 20
23.8443375673
 30
0.0
 10
-45.9281434832
 20
23.8302873953
 30
0.0
 10
-45.9122494757
 20
23.8027263462
 30
0.0
 10
-45.889219406
 20
23.7626975296
 30
0.0
 10
-45.8710501444
 20
23.7310348314
 30
0.0
 10
-45.8576603929
 20
23.707642512
 30
0.0
 10
-45.8487007731
 20
23.6919599588
 30
0.0
 10
-45.840594874
 20
23.6777395348
 30
0.0
 10
-45.83342038
 20
23.665117869
 30
0.0
 10
-45.8272460769
 20
23.654216121
 30
0.0
 10
-45.8227581534
 20
23.6462528618
 30
0.0
 10
-45.8197136371
 20
23.6408180688
 30
0.0
 10
-45.8178475086
 20
23.6374703242
 30
0.0
 10
-45.8162697323
 20
23.6346199763
 30
0.0
 10
-45.8149804416
 20
23.6322711012
 30
0.0
 10
-45.8139916262
 20
23.630437018
 30
0.0
 10
-45.8133417508
 20
23.629215972
 30
0.0
 10
-45.8129941184
 20
23.6285133592
 30
0.0
 10
-45.8128105135
 20
23.628155318
 30
0.0
 10
-45.8127574854
 20
23.6279791452
 30
0.0
 10
-45.8126860698
 20
23.6278447508
 30
0.0
 10
-45.8127095121
 20
23.6278312164
 30
0.0
  0
SPLINE
  5
4B6
100
AcDbEntity
  8
RACCORDO
100
AcDbSpline
 62
7
  6
CONTINUOUS
 70
0
 71
3
 72
13
 73
9
 74
0
 42
0.0000001
 43
0.0000001
 44
0.0000000001
 40
0.0
 40
0.0
 40
0.0
 40
0.0
 40
0.3611707034
 40
0.6821065924
 40
0.8126146064
 40
0.9136705937
 40
0.9780274868
 40
1.0
 40
1.0
 40
1.0
 40
1.0
 10
-47.939163945
 20
23.2669872981
 30
0.0
 10
-47.9691303031
 20
23.249685774
 30
0.0
 10
-48.0257127696
 20
23.2169892193
 30
0.0
 10
-48.0930714679
 20
23.1779516232
 30
0.0
 10
-48.1388537553
 20
23.1513824348
 30
0.0
 10
-48.16332121
 20
23.1370615698
 30
0.0
 10
-48.1788594393
 20
23.1280662994
 30
0.0
 10
-48.1859209053
 20
23.1237601829
 30
0.0
 10
-48.1877095121
 20
23.1226497308
 30
0.0
  0
SPLINE
  5
4B7
100
AcDbEntity
  8
RACCORDO
100
AcDbSpline
 62
250
  6
CONTINUOUS
 70
0
 71
3
 72
26
 73
22
 74
0
 42
0.0000001
 43
0.0000001
 44
0.0000000001
 40
0.0
 40
0.0
 40
0.0
 40
0.0
 40
0.1952383918
 40
0.3828751996
 40
0.5557522696
 40
0.6345521823
 40
0.7072377922
 40
0.7731077036
 40
0.8315332971
 40
0.8819531884
 40
0.9238816869
 40
0.9415349589
 40
0.9569209738
 40
0.9700022033
 40
0.980750657
 40
0.9891391387
 40
0.9951459694
 40
0.9972533339
 40
0.99876251
 40
0.9996742483
 40
1.0
 40
1.0
 40
1.0
 40
1.0
 10
-48.939163945
 20
23.8443375673
 30
0.0
 10
-48.9472755523
 20
23.8302873757
 30
0.0
 10
-48.9631695688
 20
23.8027263111
 30
0.0
 10
-48.9861996457
 20
23.7626974817
 30
0.0
 10
-49.0043689022
 20
23.7310347923
 30
0.0
 10
-49.0177586498
 20
23.7076424797
 30
0.0
 10
-49.0267182661
 20
23.6919599326
 30
0.0
 10
-49.034824162
 20
23.6777395142
 30
0.0
 10
-49.041998653
 20
23.6651178536
 30
0.0
 10
-49.0481729535
 20
23.6542161101
 30
0.0
 10
-49.0526608749
 20
23.6462528545
 30
0.0
 10
-49.0557053901
 20
23.6408180636
 30
0.0
 10
-49.0575715178
 20
23.6374703203
 30
0.0
 10
-49.0591492935
 20
23.6346199735
 30
0.0
 10
-49.0604385836
 20
23.6322710994
 30
0.0
 10
-49.0614273986
 20
23.6304370169
 30
0.0
 10
-49.0620772738
 20
23.6292159714
 30
0.0
 10
-49.062424906
 20
23.6285133588
 30
0.0
 10
-49.0626085108
 20
23.6281553178
 30
0.0
 10
-49.0626615389
 20
23.6279791451
 30
0.0
 10
-49.0627329544
 20
23.6278447508
 30
0.0
 10
-49.0627095121
 20
23.6278312164
 30
0.0
  0
SPLINE
  5
4B8
100
AcDbEntity
  8
RACCORDO
100
AcDbSpline
 62
250
  6
CONTINUOUS
 70
0
 71
3
 72
26
 73
22
 74
0
 42
0.0000001
 43
0.0000001
 44
0.0000000001
 40
0.0
 40
0.0
 40
0.0
 40
0.0
 40
0.0003336287
 40
0.0012488178
 40
0.0027608069
 40
0.0048709582
 40
0.0108839688
 40
0.0192798748
 40
0.0300371153
 40
0.0431284644
 40
0.0585258581
 40
0.0761916461
 40
0.1181478473
 40
0.168597649
 40
0.2270533274
 40
0.2929512052
 40
0.3656601029
 40
0.4444758533
 40
0.6173505017
 40
0.8049193806
 40
1.0
 40
1.0
 40
1.0
 40
1.0
 10
-48.939163945
 20
-24.4869014213
 30
0.0
 10
-48.9391917484
 20
-24.4869012595
 30
0.0
 10
-48.9392049591
 20
-24.4867510862
 30
0.0
 10
-48.9392454209
 20
-24.4865675335
 30
0.0
 10
-48.9392703667
 20
-24.4861657157
 30
0.0
 10
-48.9393214205
 20
-24.4853791686
 30
0.0
 10
-48.9393704045
 20
-24.4839921951
 30
0.0
 10
-48.9394275648
 20
-24.4819010221
 30
0.0
 10
-48.9394792181
 20
-24.479212228
 30
0.0
 10
-48.9395280596
 20
-24.4759426587
 30
0.0
 10
-48.9395725257
 20
-24.4720962335
 30
0.0
 10
-48.9396295443
 20
-24.4658446393
 30
0.0
 10
-48.9396860098
 20
-24.4566715781
 30
0.0
 10
-48.9397328314
 20
-24.444099189
 30
0.0
 10
-48.9397608148
 20
-24.4295314554
 30
0.0
 10
-48.9397695973
 20
-24.4131086853
 30
0.0
 10
-48.9397588993
 20
-24.3949891473
 30
0.0
 10
-48.9397173606
 20
-24.3679544198
 30
0.0
 10
-48.9396153699
 20
-24.3313476003
 30
0.0
 10
-48.9394261301
 20
-24.2850517606
 30
0.0
 10
-48.9392585242
 20
-24.2531629864
 30
0.0
 10
-48.939163945
 20
-24.2369056521
 30
0.0
  0
SPLINE
  5
4B9
100
AcDbEntity
  8
RACCORDO
100
AcDbSpline
 62
7
  6
CONTINUOUS
 70
0
 71
3
 72
23
 73
19
 74
0
 42
0.0000001
 43
0.0000001
 44
0.0000000001
 40
0.0
 40
0.0
 40
0.0
 40
0.0
 40
0.1908255336
 40
0.3746346274
 40
0.5446932409
 40
0.6225884221
 40
0.6947556584
 40
0.7605292308
 40
0.8193032635
 40
0.8705375976
 40
0.9137614588
 40
0.9485781389
 40
0.9627320299
 40
0.9746716736
 40
0.9843749105
 40
0.9918248884
 40
0.9970209358
 40
1.0
 40
1.0
 40
1.0
 40
1.0
 10
-46.6855231831
 20
-21.8998857286
 30
0.0
 10
-46.6862218028
 20
-21.9316821458
 30
0.0
 10
-46.6874726486
 20
-21.9941085514
 30
0.0
 10
-46.688996252
 20
-22.0848776565
 30
0.0
 10
-46.6899271908
 20
-22.156831996
 30
0.0
 10
-46.690426048
 20
-22.2101829449
 30
0.0
 10
-46.6906648272
 20
-22.2461546808
 30
0.0
 10
-46.6907782393
 20
-22.2789401961
 30
0.0
 10
-46.6907646658
 20
-22.3082371013
 30
0.0
 10
-46.6906275879
 20
-22.3337755035
 30
0.0
 10
-46.6903692661
 20
-22.3553196836
 30
0.0
 10
-46.6900325511
 20
-22.3706824916
 30
0.0
 10
-46.6896941467
 20
-22.3808279998
 30
0.0
 10
-46.6894362618
 20
-22.3867900147
 30
0.0
 10
-46.6891394031
 20
-22.3916264645
 30
0.0
 10
-46.6888101727
 20
-22.3953465467
 30
0.0
 10
-46.6884167199
 20
-22.397904566
 30
0.0
 10
-46.6881046698
 20
-22.3992605945
 30
0.0
 10
-46.687857485
 20
-22.3996911987
 30
0.0
  0
SPLINE
  5
4BA
100
AcDbEntity
  8
RACCORDO
100
AcDbSpline
 62
7
  6
CONTINUOUS
 70
0
 71
3
 72
13
 73
9
 74
0
 42
0.0000001
 43
0.0000001
 44
0.0000000001
 40
0.0
 40
0.0
 40
0.0
 40
0.0
 40
0.0225227418
 40
0.0871911485
 40
0.1883898844
 40
0.3188730435
 40
0.6394257438
 40
1.0
 40
1.0
 40
1.0
 40
1.0
 10
-48.1877095121
 20
-23.1226497308
 30
0.0
 10
-48.1858758391
 20
-23.1237875441
 30
0.0
 10
-48.1787426313
 20
-23.1281345861
 30
0.0
 10
-48.1631215641
 20
-23.1371787658
 30
0.0
 10
-48.138617932
 20
-23.1515193067
 30
0.0
 10
-48.0928576808
 20
-23.1780757967
 30
0.0
 10
-48.0255819919
 20
-23.2170647138
 30
0.0
 10
-47.9690808151
 20
-23.2497143466
 30
0.0
 10
-47.939163945
 20
-23.2669872981
 30
0.0
  0
LINE
  5
4BB
100
AcDbEntity
  8
RACCORDO
100
AcDbLine
 62
7
  6
CONTINUOUS
 10
-47.939163945
 20
22.3334109614
 30
0.0
 11
-46.6877095121
 21
22.3997080771
 31
0.0
  0
SPLINE
  5
4BC
100
AcDbEntity
  8
RACCORDO
100
AcDbSpline
 62
250
  6
CONTINUOUS
 70
0
 71
3
 72
25
 73
21
 74
0
 42
0.0000001
 43
0.0000001
 44
0.0000000001
 40
0.0
 40
0.0
 40
0.0
 40
0.0
 40
0.1950126391
 40
0.3824957336
 40
0.4711548314
 40
0.5552736862
 40
0.6340445001
 40
0.7067096428
 40
0.7725721391
 40
0.8309983177
 40
0.8814267904
 40
0.9233766883
 40
0.9410430149
 40
0.956447656
 40
0.9695519407
 40
0.9803282389
 40
0.9887549055
 40
0.9948165377
 40
0.998523322
 40
1.0
 40
1.0
 40
1.0
 40
1.0
 10
-54.3270466261
 20
21.4994104546
 30
0.0
 10
-54.3287467342
 20
21.5318603333
 30
0.0
 10
-54.3319740911
 20
21.5955128493
 30
0.0
 10
-54.3356760634
 20
21.6739328607
 30
0.0
 10
-54.3383257426
 20
21.7339036349
 30
0.0
 10
-54.3400842693
 20
21.7757816014
 30
0.0
 10
-54.341634842
 20
21.8150008101
 30
0.0
 10
-54.3429628619
 20
21.8511843196
 30
0.0
 10
-54.3440560342
 20
21.8839839825
 30
0.0
 10
-54.3449048966
 20
21.9130844307
 30
0.0
 10
-54.3455018919
 20
21.9382052754
 30
0.0
 10
-54.3458040362
 20
21.9565402795
 30
0.0
 10
-54.3458992779
 20
21.9690392541
 30
0.0
 10
-54.3459010432
 20
21.9767363485
 30
0.0
 10
-54.3458388304
 20
21.9832734519
 30
0.0
 10
-54.3457123398
 20
21.9886797825
 30
0.0
 10
-54.3455290984
 20
21.9928231347
 30
0.0
 10
-54.3452847187
 20
21.995990051
 30
0.0
 10
-54.3450194782
 20
21.9975846231
 30
0.0
 10
-54.3447341183
 20
21.9987123445
 30
0.0
 10
-54.344488401
 20
21.998725222
 30
0.0
  0
SPLINE
  5
4BD
100
AcDbEntity
  8
RACCORDO
100
AcDbSpline
 62
7
  6
CONTINUOUS
 70
0
 71
3
 72
9
 73
5
 74
0
 42
0.0000001
 43
0.0000001
 44
0.0000000001
 40
0.0
 40
0.0
 40
0.0
 40
0.0
 40
0.482213368
 40
1.0
 40
1.0
 40
1.0
 40
1.0
 10
-48.0632526541
 20
-22.3279108386
 30
0.0
 10
-48.0433146659
 20
-22.3289557443
 30
0.0
 10
-48.0019359615
 20
-22.3304456948
 30
0.0
 10
-47.9605719422
 20
-22.332273202
 30
0.0
 10
-47.939163945
 20
-22.3334109614
 30
0.0
  0
ELLIPSE
  5
4BE
100
AcDbEntity
  8
RACCORDO
100
AcDbEllipse
 62
7
  6
CONTINUOUS
 10
-9.875
 20
21.8496569135
 30
0.0
 11
0.0
 21
0.2503430865
 31
0.0
 40
0.9986295348
 41
0.0
 42
1.5707963268
  0
ELLIPSE
  5
4BF
100
AcDbEntity
  8
RACCORDO
100
AcDbEllipse
 62
7
  6
CONTINUOUS
 10
8.525
 20
21.8496569135
 30
0.0
 11
0.0
 21
0.2503430865
 31
0.0
 40
0.9986295348
 41
-1.5707963268
 42
0.0
  0
ELLIPSE
  5
4C0
100
AcDbEntity
  8
RACCORDO
100
AcDbEllipse
 62
7
  6
CONTINUOUS
 10
9.974923836
 20
21.891254093
 30
0.0
 11
0.4473055582
 21
-0.2236357461
 31
0.0
 40
0.9998096356
 41
0.4635410001
 42
1.5707963317
  0
ELLIPSE
  5
4C1
100
AcDbEntity
  8
RACCORDO
100
AcDbEllipse
 62
7
  6
CONTINUOUS
 10
-11.324923836
 20
-21.891254093
 30
0.0
 11
0.4473055582
 21
-0.2236357461
 31
0.0
 40
0.9998096356
 41
-2.6780516535
 42
-1.5707963219
  0
ELLIPSE
  5
4C2
100
AcDbEntity
  8
RACCORDO
100
AcDbEllipse
 62
7
  6
CONTINUOUS
 10
-11.324923836
 20
21.891254093
 30
0.0
 11
0.4473055582
 21
0.2236357461
 31
0.0
 40
0.9998096356
 41
1.5707963219
 42
2.6780516535
  0
ELLIPSE
  5
4C3
100
AcDbEntity
  8
RACCORDO
100
AcDbEllipse
 62
7
  6
CONTINUOUS
 10
9.974923836
 20
-21.891254093
 30
0.0
 11
0.4473055582
 21
0.2236357461
 31
0.0
 40
0.9998096356
 41
-1.5707963317
 42
-0.4635410001
  0
ELLIPSE
  5
4C4
100
AcDbEntity
  8
RACCORDO
100
AcDbEllipse
 62
7
  6
CONTINUOUS
 10
5.7844660369
 20
3.9094850761
 30
0.0
 11
0.0
 21
0.5
 31
0.0
 40
0.0087268678
 41
-3.1328660073
 42
-3.1255397368
  0
ELLIPSE
  5
4C5
100
AcDbEntity
  8
RACCORDO
100
AcDbEllipse
 62
7
  6
CONTINUOUS
 10
5.7843803371
 20
-5.0093993763
 30
0.0
 11
0.0
 21
0.5
 31
0.0
 40
0.0087268678
 41
-0.0182549165
 42
-0.0087266463
  0
ELLIPSE
  5
4C6
100
AcDbEntity
  8
RACCORDO
100
AcDbEllipse
 62
7
  6
CONTINUOUS
 10
2.9843803371
 20
-5.0093993763
 30
0.0
 11
-0.0
 21
0.5
 31
0.0
 40
0.0087268678
 41
-0.0182548059
 42
-0.0087266463
  0
ELLIPSE
  5
4C7
100
AcDbEntity
  8
RACCORDO
100
AcDbEllipse
 62
7
  6
CONTINUOUS
 10
2.9842179491
 20
-6.6092369883
 30
0.0
 11
0.0
 21
0.5
 31
0.0
 40
0.0087268678
 41
-0.0214576456
 42
-0.0087266463
  0
ELLIPSE
  5
4C8
100
AcDbEntity
  8
RACCORDO
100
AcDbEllipse
 62
7
  6
CONTINUOUS
 10
1.8342179491
 20
-6.6092369883
 30
0.0
 11
0.0
 21
0.5
 31
0.0
 40
0.0087268678
 41
-0.0214576049
 42
-0.0087266463
  0
ELLIPSE
  5
4C9
100
AcDbEntity
  8
RACCORDO
100
AcDbEllipse
 62
7
  6
CONTINUOUS
 10
1.8340461476
 20
-7.9590651868
 30
0.0
 11
0.0
 21
0.5
 31
0.0
 40
0.0087268678
 41
-0.024159982
 42
-0.0087266463
  0
ELLIPSE
  5
4CA
100
AcDbEntity
  8
RACCORDO
100
AcDbEllipse
 62
7
  6
CONTINUOUS
 10
-3.1840461476
 20
-7.9590651868
 30
0.0
 11
0.0
 21
0.5
 31
0.0
 40
0.0087268678
 41
0.0087266463
 42
0.0241599888
  0
ELLIPSE
  5
4CB
100
AcDbEntity
  8
RACCORDO
100
AcDbEllipse
 62
7
  6
CONTINUOUS
 10
9.7177234819
 20
-22.3344902759
 30
0.0
 11
0.25
 21
0.0
 31
0.0
 40
0.0524077793
 41
0.5261092631
 42
1.5707963268
  0
ELLIPSE
  5
4CC
100
AcDbEntity
  8
RACCORDO
100
AcDbEllipse
 62
7
  6
CONTINUOUS
 10
-11.0677234819
 20
-22.3344902759
 30
0.0
 11
0.25
 21
-0.0
 31
0.0
 40
0.0524077793
 41
1.5707963268
 42
2.6154833905
  0
ELLIPSE
  5
4CD
100
AcDbEntity
  8
RACCORDO
100
AcDbEllipse
 62
7
  6
CONTINUOUS
 10
9.7177234819
 20
22.3344902759
 30
0.0
 11
0.25
 21
0.0
 31
0.0
 40
0.0524077793
 41
-1.5707963268
 42
-0.5261092631
  0
ELLIPSE
  5
4CE
100
AcDbEntity
  8
RACCORDO
100
AcDbEllipse
 62
7
  6
CONTINUOUS
 10
-11.0677234819
 20
22.3344902759
 30
0.0
 11
0.25
 21
-0.0
 31
0.0
 40
0.0524077793
 41
-2.6154833905
 42
-1.5707963268
  0
ELLIPSE
  5
4CF
100
AcDbEntity
  8
RACCORDO
100
AcDbEllipse
 62
7
  6
CONTINUOUS
 10
3.2220826234
 20
22.3737961104
 30
0.0
 11
0.5
 21
0.0
 31
0.0
 40
0.0524077793
 41
-1.5707963268
 42
-0.0058177642
  0
ELLIPSE
  5
4D0
100
AcDbEntity
  8
RACCORDO
100
AcDbEllipse
 62
7
  6
CONTINUOUS
 10
3.2220826234
 20
23.7970910851
 30
0.0
 11
0.5
 21
0.0
 31
0.0
 40
0.0058178298
 41
-0.6464131586
 42
-0.0058177642
  0
ELLIPSE
  5
4D1
100
AcDbEntity
  8
RACCORDO
100
AcDbEllipse
 62
7
  6
CONTINUOUS
 10
-4.5720826234
 20
23.7970910851
 30
0.0
 11
0.5
 21
0.0
 31
0.0
 40
0.0058178298
 41
-3.1357748894
 42
-2.495179495
  0
ELLIPSE
  5
4D2
100
AcDbEntity
  8
RACCORDO
100
AcDbEllipse
 62
7
  6
CONTINUOUS
 10
-4.5720826234
 20
22.3737961104
 30
0.0
 11
0.5
 21
0.0
 31
0.0
 40
0.0524077793
 41
-3.1357748894
 42
-1.5707963268
  0
ELLIPSE
  5
4D3
100
AcDbEntity
  8
RACCORDO
100
AcDbEllipse
 62
7
  6
CONTINUOUS
 10
3.2220826234
 20
-23.7970910851
 30
0.0
 11
0.5
 21
0.0
 31
0.0
 40
0.0058178298
 41
0.0058177642
 42
0.6464131586
  0
ELLIPSE
  5
4D4
100
AcDbEntity
  8
RACCORDO
100
AcDbEllipse
 62
7
  6
CONTINUOUS
 10
3.2220826234
 20
-22.3737961104
 30
0.0
 11
0.5
 21
-0.0
 31
0.0
 40
0.0524077793
 41
0.0058177642
 42
1.5707963268
  0
ELLIPSE
  5
4D5
100
AcDbEntity
  8
RACCORDO
100
AcDbEllipse
 62
7
  6
CONTINUOUS
 10
-4.5720826234
 20
-22.3737961104
 30
0.0
 11
0.5
 21
-0.0
 31
0.0
 40
0.0524077793
 41
1.5707963268
 42
3.1357748894
  0
ELLIPSE
  5
4D6
100
AcDbEntity
  8
RACCORDO
100
AcDbEllipse
 62
7
  6
CONTINUOUS
 10
-3.1842179491
 20
-6.6092369883
 30
0.0
 11
-0.0
 21
0.5
 31
0.0
 40
0.0087268678
 41
0.0087266463
 42
0.0214576049
  0
ELLIPSE
  5
4D7
100
AcDbEntity
  8
RACCORDO
100
AcDbEllipse
 62
7
  6
CONTINUOUS
 10
-4.3342179491
 20
-6.6092369883
 30
0.0
 11
0.0
 21
0.5
 31
0.0
 40
0.0087268678
 41
0.0087266463
 42
0.021457651
  0
ELLIPSE
  5
4D8
100
AcDbEntity
  8
RACCORDO
100
AcDbEllipse
 62
7
  6
CONTINUOUS
 10
-4.3343803371
 20
-5.0093993763
 30
0.0
 11
0.0
 21
0.5
 31
0.0
 40
0.0087268678
 41
0.0087266463
 42
0.0182548059
  0
ELLIPSE
  5
4D9
100
AcDbEntity
  8
RACCORDO
100
AcDbEllipse
 62
7
  6
CONTINUOUS
 10
-7.1344660369
 20
3.9094850761
 30
0.0
 11
0.0
 21
0.5
 31
0.0
 40
0.0087268678
 41
-3.1576455584
 42
-3.1503192998
  0
ELLIPSE
  5
4DA
100
AcDbEntity
  8
RACCORDO
100
AcDbEllipse
 62
7
  6
CONTINUOUS
 10
-7.1343803371
 20
-5.0093993763
 30
0.0
 11
0.0
 21
0.5
 31
0.0
 40
0.0087268678
 41
0.0087266463
 42
0.0182549368
  0
ELLIPSE
  5
4DB
100
AcDbEntity
  8
RACCORDO
100
AcDbEllipse
 62
7
  6
CONTINUOUS
 10
-4.5720826234
 20
-23.7970910851
 30
0.0
 11
0.5
 21
-0.0
 31
0.0
 40
0.0058178298
 41
2.495179495
 42
3.1357748894
  0
ELLIPSE
  5
4DC
100
AcDbEntity
  8
RACCORDO
100
AcDbEllipse
 62
7
  6
CONTINUOUS
 10
-9.1822765181
 20
22.3344902759
 30
0.0
 11
0.25
 21
-0.0
 31
0.0
 40
0.0524077793
 41
-1.5707963268
 42
-0.0058177642
  0
ELLIPSE
  5
4DD
100
AcDbEntity
  8
RACCORDO
100
AcDbEllipse
 62
7
  6
CONTINUOUS
 10
7.8322765181
 20
-22.3344902759
 30
0.0
 11
0.25
 21
-0.0
 31
0.0
 40
0.0524077793
 41
1.5707963268
 42
3.1357748894
  0
ELLIPSE
  5
4DE
100
AcDbEntity
  8
RACCORDO
100
AcDbEllipse
 62
7
  6
CONTINUOUS
 10
7.8322765181
 20
22.3344902759
 30
0.0
 11
0.25
 21
0.0
 31
0.0
 40
0.0524077793
 41
-3.1357748894
 42
-1.5707963268
  0
ELLIPSE
  5
4DF
100
AcDbEntity
  8
RACCORDO
100
AcDbEllipse
 62
7
  6
CONTINUOUS
 10
-9.1822765181
 20
-22.3344902759
 30
0.0
 11
0.25
 21
-0.0
 31
0.0
 40
0.0524077793
 41
0.0058177642
 42
1.5707963268
  0
ELLIPSE
  5
4E0
100
AcDbEntity
  8
Z030100_COP
100
AcDbEllipse
 62
7
  6
CONTINUOUS
 10
-42.2877095121
 20
-4.675051063
 30
0.0
 11
-0.0
 21
0.9
 31
0.0
 40
0.3333333333
 41
1.2309594173
 42
1.5707963268
  0
ELLIPSE
  5
4E1
100
AcDbEntity
  8
Z030100_COP
100
AcDbEllipse
 62
7
  6
CONTINUOUS
 10
-35.4877095121
 20
-4.675051063
 30
0.0
 11
0.0
 21
0.9
 31
0.0
 40
0.3333333333
 41
-1.5707963268
 42
-1.2309594173
  0
ELLIPSE
  5
4E2
100
AcDbEntity
  8
Z030100_COP
100
AcDbEllipse
 62
7
  6
CONTINUOUS
 10
-34.6877095121
 20
-4.675051063
 30
0.0
 11
-0.0
 21
0.9
 31
0.0
 40
0.3333333333
 41
1.2309594173
 42
1.5707963268
  0
ELLIPSE
  5
4E3
100
AcDbEntity
  8
Z030100_COP
100
AcDbEllipse
 62
7
  6
CONTINUOUS
 10
-27.8877095121
 20
-4.675051063
 30
0.0
 11
-0.0
 21
0.9
 31
0.0
 40
0.3333333333
 41
-1.5707963268
 42
-1.2309594173
  0
ELLIPSE
  5
4E4
100
AcDbEntity
  8
RACCORDO
100
AcDbEllipse
 62
7
  6
CONTINUOUS
 10
-36.1877095121
 20
-22.0658992808
 30
0.0
 11
0.5
 21
0.0
 31
0.0
 40
1.0
 41
0.6605680511
 42
1.5533430343
  0
ELLIPSE
  5
4E5
100
AcDbEntity
  8
RACCORDO
100
AcDbEllipse
 62
7
  6
CONTINUOUS
 10
-36.1877095121
 20
22.0658992808
 30
0.0
 11
0.5
 21
0.0
 31
0.0
 40
1.0
 41
-1.5533430343
 42
-0.6605680511
  0
ENDSEC
  0
SECTION
  2
OBJECTS
  0
DICTIONARY
  5
C
100
AcDbDictionary
280
0
281
1
  3
ACAD_GROUP
350
D
  3
ACAD_MLINESTYLE
350
17
  3
ACAD_LAYOUT
350
1A
  3
ACAD_PLOTSETTINGS
350
19
  3
ACAD_PLOTSTYLENAME
350
E
  0
DICTIONARY
  5
D
102
{ACAD_REACTORS
330
C
102
}
100
AcDbDictionary
280
0
281
1
  0
ACDBDICTIONARYWDFLT
  5
E
102
{ACAD_REACTORS
330
C
102
}
100
AcDbDictionary
281
1
  3
Normal
350
F
100
AcDbDictionaryWithDefault
340
F
  0
DICTIONARY
  5
17
102
{ACAD_REACTORS
330
C
102
}
100
AcDbDictionary
280
0
281
1
  3
Standard
350
18
  0
DICTIONARY
  5
19
102
{ACAD_REACTORS
330
C
102
}
100
AcDbDictionary
281
1
  0
DICTIONARY
  5
1A
102
{ACAD_REACTORS
330
C
102
}
100
AcDbDictionary
281
1
  3
Model
350
4E6
  3
Layout1
350
4E7
  0
ACDBPLACEHOLDER
  5
F
102
{ACAD_REACTORS
330
E
102
}
  0
MLINESTYLE
  5
18
102
{ACAD_REACTORS
330
17
102
}
100
AcDbMlineStyle
  2
STANDARD
 70
0
  3

 62
256
 51
90.0
 52
90.0
 71
2
 49
0.5
 62
256
  6
BYLAYER
 49
-0.5
 62
256
  6
BYLAYER
  0
LAYOUT
  5
4E6
102
{ACAD_REACTORS
330
1A
102
}
100
AcDbPlotSettings
  1

  2
none_device
  4
ISO_A4_(297.00_x_210.00_MM)
  6

 40
0.0
 41
0.0
 42
0.0
 43
0.0
 44
297.0
 45
210.0
 46
0.0
 47
0.0
 48
0.0
 49
0.0
140
0.0
141
0.0
142
1.0
143
1.0
 70
1024
 72
1
 73
0
 74
0
  7

 75
0
147
1.0
148
0.0
149
0.0
100
AcDbLayout
  1
Model
 70
0
 71
0
 10
0.0
 20
0.0
 11
297.0
 21
210.0
 12
0.0
 22
0.0
 32
0.0
 14
0.0
 24
0.0
 34
0.0
 15
0.0
 25
0.0
 35
0.0
146
0.0
 13
0.0
 23
0.0
 33
0.0
 16
1.0
 26
0.0
 36
0.0
 17
0.0
 27
1.0
 37
0.0
 76
0
330
216
345
0
346
0
  0
LAYOUT
  5
4E7
102
{ACAD_REACTORS
330
1A
102
}
100
AcDbPlotSettings
  1

  2
none_device
  4
ISO_A4_(297.00_x_210.00_MM)
  6

 40
0.0
 41
0.0
 42
0.0
 43
0.0
 44
297.0
 45
210.0
 46
0.0
 47
0.0
 48
0.0
 49
0.0
140
0.0
141
0.0
142
1.0
143
1.0
 70
0
 72
1
 73
0
 74
0
  7

 75
0
147
1.0
148
0.0
149
0.0
100
AcDbLayout
  1
Layout1
 70
0
 71
1
 10
0.0
 20
0.0
 11
297.0
 21
210.0
 12
0.0
 22
0.0
 32
0.0
 14
0.0
 24
0.0
 34
0.0
 15
0.0
 25
0.0
 35
0.0
146
0.0
 13
0.0
 23
0.0
 33
0.0
 16
1.0
 26
0.0
 36
0.0
 17
0.0
 27
1.0
 37
0.0
 76
0
330
217
345
0
346
0
  0
ENDSEC
  0
EOF
