  0
SECTION
  2
HEADER
  9
$ACADVER
  1
AC1024
  9
$DWGCODEPAGE
  3
ANSI_1252
  9
$EXTMAX
 10
297.0
 20
210.0
 30
0.0
  9
$EXTMIN
 10
0.0
 20
0.0
 30
0.0
  9
$LIMMIN
 10
0.0
 20
0.0
  9
$LIMMAX
 10
297.0
 20
210.0
  9
$VIEWCTR
 10
148.5
 20
105.0
  9
$VIEWSIZE
 40
210.0
  9
$CLAYER
  8
0
  9
$LTSCALE
 40
16.335
  9
$CELTYPE
  6
BYLAYER
  9
$DIMSCALE
 40
1.0
  9
$DIMASZ
 40
3.0
  9
$DIMEXO
 40
0.5
  9
$DIMDLI
 40
11.286
  9
$DIMEXE
 40
1.5
  9
$DIMCEN
 40
2.673
  9
$DIMLFAC
 40
1.0
  9
$DIMBLK
  1
_FILLED
  9
$DIMALT
 70
0
  9
$DIMALTF
 40
0.0393700787
  9
$DIMTXT
 40
3.0
  9
$DIMTOL
 70
1
  9
$DIMLIM
 70
0
  9
$DIMTFAC
 40
1.0
  9
$DIMTP
 40
0.01
  9
$DIMTM
 40
0.01
  9
$DIMGAP
 40
0.625
  9
$DIMDSEP
 70
44
  9
$AUNITS
 70
0
  9
$PDMODE
 70
3
  9
$PDSIZE
 40
3.0
  9
$HANDSEED
  5
629
  9
$TILEMODE
 70
1
  9
$MEASUREMENT
 70
1
  9
$INSUNITS
 70
4
  0
ENDSEC
  0
SECTION
  2
CLASSES
  0
CLASS
  1
ACDBDICTIONARYWDFLT
  2
AcDbDictionaryWithDefault
  3
AutoCAD 2000
 90
0
 91
1
280
0
281
0
  0
CLASS
  1
ACDBPLACEHOLDER
  2
AcDbPlaceHolder
  3
AutoCAD 2000
 90
0
 91
1
280
0
281
0
  0
CLASS
  1
LAYOUT
  2
AcDbLayout
  3
AutoCAD 2000
 90
0
 91
0
280
0
281
0
  0
ENDSEC
  0
SECTION
  2
TABLES
  0
TABLE
  2
VPORT
  5
8
100
AcDbSymbolTable
 70
2
  0
VPORT
  5
1F4
100
AcDbSymbolTableRecord
100
AcDbViewportTableRecord
  2
*ACTIVE
 70
0
 10
0.0
 20
0.0
 11
1.0
 21
1.0
 12
148.5
 22
105.0
 13
0.0
 23
0.0
 14
1.0
 24
1.0
 15
0.0
 25
0.0
 16
0.0
 26
0.0
 36
1.0
 17
0.0
 27
0.0
 37
0.0
 40
210.0
 41
1.4142857143
 42
50.0
 43
0.0
 44
0.0
 50
0.0
 51
0.0
 71
0
 72
100
 73
1
 74
1
 75
0
 76
0
 77
0
 78
0
  0
ENDTAB
  0
TABLE
  2
LTYPE
  5
5
100
AcDbSymbolTable
 70
6
  0
LTYPE
  5
14
100
AcDbSymbolTableRecord
100
AcDbLinetypeTableRecord
  2
BYBLOCK
 70
0
  3

 72
65
 73
0
 40
0.0
  0
LTYPE
  5
15
100
AcDbSymbolTableRecord
100
AcDbLinetypeTableRecord
  2
BYLAYER
 70
0
  3

 72
65
 73
0
 40
0.0
  0
LTYPE
  5
16
100
AcDbSymbolTableRecord
100
AcDbLinetypeTableRecord
  2
CONTINUOUS
 70
64
  3
Solid line
 72
65
 73
0
 40
0.0
  0
LTYPE
  5
1F5
100
AcDbSymbolTableRecord
100
AcDbLinetypeTableRecord
  2
CENTER
 70
64
  3
____ _ ____ _ ____ _ ____ _ ____ _ ____ _ ____
 72
65
 73
4
 40
0.6
 49
0.375
 74
0
 49
-0.075
 74
0
 49
0.075
 74
0
 49
-0.075
 74
0
  0
LTYPE
  5
1F6
100
AcDbSymbolTableRecord
100
AcDbLinetypeTableRecord
  2
HIDDEN
 70
64
  3
- - - - - - - - - - - - - - - - - - - -
 72
65
 73
2
 40
0.2
 49
0.1
 74
0
 49
-0.1
 74
0
  0
LTYPE
  5
1F7
100
AcDbSymbolTableRecord
100
AcDbLinetypeTableRecord
  2
PHANTOM
 70
64
  3
_____ _ _ _____ _ _ _____ _ _ _____
 72
65
 73
6
 40
0.8
 49
0.45
 74
0
 49
-0.05
 74
0
 49
0.1
 74
0
 49
-0.05
 74
0
 49
0.1
 74
0
 49
-0.05
 74
0
  0
LTYPE
  5
1F8
100
AcDbSymbolTableRecord
100
AcDbLinetypeTableRecord
  2
DOT
 70
64
  3
. . . . . . . . . . . . . . . . . . . .
 72
65
 73
2
 40
0.2
 49
0.1
 74
0
 49
-0.1
 74
0
  0
LTYPE
  5
1F9
100
AcDbSymbolTableRecord
100
AcDbLinetypeTableRecord
  2
DASHED
 70
64
  3
- - - - - - - - - - - - - - - - - - - -
 72
65
 73
2
 40
0.2
 49
0.1
 74
0
 49
-0.1
 74
0
  0
ENDTAB
  0
TABLE
  2
LAYER
  5
2
100
AcDbSymbolTable
 70
36
  0
LAYER
  5
10
100
AcDbSymbolTableRecord
100
AcDbLayerTableRecord
  2
0
 70
0
 62
7
  6
CONTINUOUS
370
-3
390
F
  0
LAYER
  5
1FA
100
AcDbSymbolTableRecord
100
AcDbLayerTableRecord
  2
DEFAULT_1
 70
0
 62
7
  6
CENTER
370
-3
390
F
  0
LAYER
  5
1FB
100
AcDbSymbolTableRecord
100
AcDbLayerTableRecord
  2
DEFAULT_2
 70
0
 62
7
  6
HIDDEN
370
-3
390
F
  0
LAYER
  5
1FC
100
AcDbSymbolTableRecord
100
AcDbLayerTableRecord
  2
DEFAULT_3
 70
0
 62
7
  6
PHANTOM
370
-3
390
F
  0
LAYER
  5
1FD
100
AcDbSymbolTableRecord
100
AcDbLayerTableRecord
  2
ASSI
 70
0
 62
7
  6
CONTINUOUS
370
-3
390
F
  0
LAYER
  5
1FE
100
AcDbSymbolTableRecord
100
AcDbLayerTableRecord
  2
COORDINATE
 70
0
 62
7
  6
CONTINUOUS
370
-3
390
F
  0
LAYER
  5
1FF
100
AcDbSymbolTableRecord
100
AcDbLayerTableRecord
  2
COORD_ORIGINE
 70
0
 62
7
  6
CONTINUOUS
370
-3
390
F
  0
LAYER
  5
200
100
AcDbSymbolTableRecord
100
AcDbLayerTableRecord
  2
COSMETICHE
 70
0
 62
7
  6
CONTINUOUS
370
-3
390
F
  0
LAYER
  5
201
100
AcDbSymbolTableRecord
100
AcDbLayerTableRecord
  2
CURVE
 70
0
 62
7
  6
CONTINUOUS
370
-3
390
F
  0
LAYER
  5
202
100
AcDbSymbolTableRecord
100
AcDbLayerTableRecord
  2
DRAFT
 70
0
 62
7
  6
CONTINUOUS
370
-3
390
F
  0
LAYER
  5
203
100
AcDbSymbolTableRecord
100
AcDbLayerTableRecord
  2
IMPORT
 70
0
 62
7
  6
CONTINUOUS
370
-3
390
F
  0
LAYER
  5
204
100
AcDbSymbolTableRecord
100
AcDbLayerTableRecord
  2
INTF_1
 70
0
 62
7
  6
CONTINUOUS
370
-3
390
F
  0
LAYER
  5
205
100
AcDbSymbolTableRecord
100
AcDbLayerTableRecord
  2
NOTE
 70
0
 62
7
  6
CONTINUOUS
370
-3
390
F
  0
LAYER
  5
206
100
AcDbSymbolTableRecord
100
AcDbLayerTableRecord
  2
PIANI
 70
0
 62
7
  6
CONTINUOUS
370
-3
390
F
  0
LAYER
  5
207
100
AcDbSymbolTableRecord
100
AcDbLayerTableRecord
  2
PIANI_ORIGINE
 70
0
 62
7
  6
CONTINUOUS
370
-3
390
F
  0
LAYER
  5
208
100
AcDbSymbolTableRecord
100
AcDbLayerTableRecord
  2
PIANI_SFORMI
 70
0
 62
7
  6
CONTINUOUS
370
-3
390
F
  0
LAYER
  5
209
100
AcDbSymbolTableRecord
100
AcDbLayerTableRecord
  2
PUNTI
 70
0
 62
7
  6
CONTINUOUS
370
-3
390
F
  0
LAYER
  5
20A
100
AcDbSymbolTableRecord
100
AcDbLayerTableRecord
  2
RACCORDO
 70
0
 62
7
  6
CONTINUOUS
370
-3
390
F
  0
LAYER
  5
20B
100
AcDbSymbolTableRecord
100
AcDbLayerTableRecord
  2
SMUSSO
 70
0
 62
7
  6
CONTINUOUS
370
-3
390
F
  0
LAYER
  5
20C
100
AcDbSymbolTableRecord
100
AcDbLayerTableRecord
  2
SNAPLINE
 70
0
 62
7
  6
CONTINUOUS
370
-3
390
F
  0
LAYER
  5
20D
100
AcDbSymbolTableRecord
100
AcDbLayerTableRecord
  2
SUPERFICI
 70
0
 62
7
  6
CONTINUOUS
370
-3
390
F
  0
LAYER
  5
20E
100
AcDbSymbolTableRecord
100
AcDbLayerTableRecord
  2
TRASH
 70
0
 62
7
  6
CONTINUOUS
370
-3
390
F
  0
LAYER
  5
20F
100
AcDbSymbolTableRecord
100
AcDbLayerTableRecord
  2
XSEC_DATUMS
 70
0
 62
7
  6
CONTINUOUS
370
-3
390
F
  0
ENDTAB
  0
TABLE
  2
STYLE
  5
3
100
AcDbSymbolTable
 70
1
  0
STYLE
  5
11
100
AcDbSymbolTableRecord
100
AcDbTextStyleTableRecord
  2
STANDARD
 70
0
 40
0.0
 41
0.8
 50
0.0
 71
0
 42
0.2
  3
txt
  4

  0
STYLE
  5
210
100
AcDbSymbolTableRecord
100
AcDbTextStyleTableRecord
  2
TEXTSTYLE_1
 70
0
 40
0.0
 41
0.8
 50
0.0
 71
0
 42
0.2
  3
gdt
  4

  0
ENDTAB
  0
TABLE
  2
VIEW
  5
6
100
AcDbSymbolTable
 70
0
  0
ENDTAB
  0
TABLE
  2
UCS
  5
7
100
AcDbSymbolTable
 70
0
  0
ENDTAB
  0
TABLE
  2
APPID
  5
9
100
AcDbSymbolTable
 70
1
  0
APPID
  5
211
100
AcDbSymbolTableRecord
100
AcDbRegAppTableRecord
  2
ACAD
 70
0
  0
ENDTAB
  0
TABLE
  2
BLOCK_RECORD
  5
1
100
AcDbSymbolTable
 70
0
  0
BLOCK_RECORD
  5
212
100
AcDbSymbolTableRecord
100
AcDbBlockTableRecord
  2
*Model_Space
  0
BLOCK_RECORD
  5
213
100
AcDbSymbolTableRecord
100
AcDbBlockTableRecord
  2
*Paper_Space
  0
BLOCK_RECORD
  5
214
100
AcDbSymbolTableRecord
100
AcDbBlockTableRecord
  2
_FILLED
  0
BLOCK_RECORD
  5
215
100
AcDbSymbolTableRecord
100
AcDbBlockTableRecord
  2
*D0
  0
BLOCK_RECORD
  5
216
100
AcDbSymbolTableRecord
100
AcDbBlockTableRecord
  2
*D1
  0
BLOCK_RECORD
  5
217
100
AcDbSymbolTableRecord
100
AcDbBlockTableRecord
  2
*D2
  0
BLOCK_RECORD
  5
218
100
AcDbSymbolTableRecord
100
AcDbBlockTableRecord
  2
*D3
  0
ENDTAB
  0
TABLE
  2
DIMSTYLE
  5
A
100
AcDbSymbolTable
 70
1
100
AcDbDimStyleTable
 71
0
  0
DIMSTYLE
105
219
100
AcDbSymbolTableRecord
100
AcDbDimStyleTableRecord
  2
STANDARD
 70
0
  3

  4

 40
1.0
 41
3.0
 42
0.5
 43
0.38
 44
1.5
 45
0.0
 46
0.0
 47
0.01
 48
0.01
140
3.0
141
0.09
142
0.0
143
25.4
144
1.0
145
0.0
146
1.0
147
0.625
 71
1
 72
0
 73
0
 74
0
 75
0
 76
0
 77
1
 78
8
 79
2
170
0
171
1
172
0
173
0
174
0
175
0
176
0
177
0
178
0
270
2
179
2
271
2
272
2
273
2
274
2
275
0
280
0
281
0
282
0
283
1
284
8
285
0
286
0
287
3
288
0
340
11
278
44
341
214
342
214
343
214
344
214
  0
DIMSTYLE
105
21A
100
AcDbSymbolTableRecord
100
AcDbDimStyleTableRecord
  2
DIMSTYLE_1
 70
0
  3

  4

 40
1.0
 41
3.0
 42
0.5
 43
0.38
 44
1.5
 45
0.0
 46
0.0
 47
0.0
 48
0.0
140
3.0
141
0.09
142
0.0
143
25.4
144
1.0
145
0.0
146
1.0
147
0.75
 71
0
 72
0
 73
0
 74
0
 75
0
 76
0
 77
1
 78
8
 79
2
170
0
171
1
172
0
173
0
174
0
175
0
176
0
177
0
178
0
270
2
179
2
271
2
272
2
273
2
274
2
275
0
280
0
281
0
282
0
283
1
284
8
285
0
286
0
287
3
288
0
340
11
278
44
341
214
342
214
343
214
344
214
  0
DIMSTYLE
105
21B
100
AcDbSymbolTableRecord
100
AcDbDimStyleTableRecord
  2
DIMSTYLE_2
 70
0
  3

  4

 40
1.0
 41
3.0
 42
0.5
 43
0.38
 44
1.5
 45
0.0
 46
0.0
 47
0.0
 48
0.0
140
3.0
141
0.09
142
0.0
143
25.4
144
1.0
145
0.0
146
1.0
147
0.75
 71
0
 72
0
 73
0
 74
0
 75
0
 76
0
 77
1
 78
8
 79
2
170
0
171
1
172
0
173
0
174
0
175
0
176
0
177
0
178
0
270
2
179
2
271
1
272
1
273
2
274
2
275
0
280
0
281
0
282
0
283
1
284
8
285
0
286
0
287
3
288
0
340
11
278
44
341
214
342
214
343
214
344
214
  0
ENDTAB
  0
ENDSEC
  0
SECTION
  2
BLOCKS
  0
BLOCK
  5
20
100
AcDbEntity
  8
0
100
AcDbBlockBegin
  2
*Model_Space
 70
0
 10
0.0
 20
0.0
 30
0.0
  3
*Model_Space
  1

  0
ENDBLK
  5
21
100
AcDbEntity
  8
0
100
AcDbBlockEnd
  0
BLOCK
  5
1C
100
AcDbEntity
  8
0
100
AcDbBlockBegin
  2
*Paper_Space
 70
0
 10
0.0
 20
0.0
 30
0.0
  3
*Paper_Space
  1

  0
ENDBLK
  5
1D
100
AcDbEntity
  8
0
100
AcDbBlockEnd
  0
BLOCK
  5
21C
100
AcDbEntity
  8
0
100
AcDbBlockBegin
  2
_FILLED
 70
64
 10
0.0
 20
0.0
  3
_FILLED
  1

  0
SOLID
  5
21D
100
AcDbEntity
  8
0
  6
BYBLOCK
 62
0
100
AcDbTrace
 10
0.0
 20
0.0
 11
-1.0
 21
0.3166666667
 12
-1.0
 22
-0.3166666667
 13
-1.0
 23
-0.3166666667
  0
ENDBLK
  5
21E
100
AcDbEntity
  8
0
  6
BYBLOCK
 62
0
100
AcDbBlockEnd
  0
BLOCK
  5
21F
100
AcDbEntity
  8
0
100
AcDbBlockBegin
 62
7
  6
CONTINUOUS
  2
*D0
 70
65
 10
0.0
 20
0.0
  3
*D0
  1

  0
LINE
  5
220
100
AcDbEntity
  8
0
100
AcDbLine
 62
7
  6
CONTINUOUS
 10
-11.2600277979
 20
22.3911779406
 11
-11.2600277979
 21
34.0
  0
LINE
  5
221
100
AcDbEntity
  8
0
100
AcDbLine
 62
7
  6
CONTINUOUS
 10
11.0399722021
 20
22.3911779406
 11
11.0399722021
 21
34.0
  0
LINE
  5
222
100
AcDbEntity
  8
0
100
AcDbLine
 62
7
  6
CONTINUOUS
 10
-11.2600277979
 20
32.5
 11
-0.1100277979
 21
32.5
  0
LINE
  5
223
100
AcDbEntity
  8
0
100
AcDbLine
 62
7
  6
CONTINUOUS
 10
11.0399722021
 20
32.5
 11
-0.1100277979
 21
32.5
  0
INSERT
  5
224
100
AcDbEntity
  8
0
100
AcDbBlockReference
 62
7
  6
CONTINUOUS
  2
_FILLED
 10
-11.2600277979
 20
32.5
 41
3.0
 42
3.0
 43
3.0
 50
180.0
  0
INSERT
  5
225
100
AcDbEntity
  8
0
100
AcDbBlockReference
 62
7
  6
CONTINUOUS
  2
_FILLED
 10
11.0399722021
 20
32.5
 41
3.0
 42
3.0
 43
3.0
  0
ENDBLK
  5
226
100
AcDbEntity
  8
0
  6
BYBLOCK
 62
0
100
AcDbBlockEnd
  0
BLOCK
  5
227
100
AcDbEntity
  8
0
100
AcDbBlockBegin
 62
7
  6
CONTINUOUS
  2
*D1
 70
65
 10
0.0
 20
0.0
  3
*D1
  1

  0
LINE
  5
228
100
AcDbEntity
  8
0
100
AcDbLine
 62
7
  6
CONTINUOUS
 10
-23.1562970303
 20
9.25012332
 11
-23.1562970303
 21
44.0
  0
LINE
  5
229
100
AcDbEntity
  8
0
100
AcDbLine
 62
7
  6
CONTINUOUS
 10
-55.7562970303
 20
2.25
 11
-55.7562970303
 21
44.0
  0
LINE
  5
22A
100
AcDbEntity
  8
0
100
AcDbLine
 62
7
  6
CONTINUOUS
 10
-23.1562970303
 20
42.5
 11
-39.4562970303
 21
42.5
  0
LINE
  5
22B
100
AcDbEntity
  8
0
100
AcDbLine
 62
7
  6
CONTINUOUS
 10
-55.7562970303
 20
42.5
 11
-39.4562970303
 21
42.5
  0
INSERT
  5
22C
100
AcDbEntity
  8
0
100
AcDbBlockReference
 62
7
  6
CONTINUOUS
  2
_FILLED
 10
-23.1562970303
 20
42.5
 41
3.0
 42
3.0
 43
3.0
  0
INSERT
  5
22D
100
AcDbEntity
  8
0
100
AcDbBlockReference
 62
7
  6
CONTINUOUS
  2
_FILLED
 10
-55.7562970303
 20
42.5
 41
3.0
 42
3.0
 43
3.0
 50
180.0
  0
ENDBLK
  5
22E
100
AcDbEntity
  8
0
  6
BYBLOCK
 62
0
100
AcDbBlockEnd
  0
BLOCK
  5
22F
100
AcDbEntity
  8
0
100
AcDbBlockBegin
 62
7
  6
CONTINUOUS
  2
*D2
 70
65
 10
0.0
 20
0.0
  3
*D2
  1

  0
LINE
  5
230
100
AcDbEntity
  8
0
100
AcDbLine
 62
7
  6
CONTINUOUS
 10
-23.1562970303
 20
9.0451635406
 11
-23.1562970303
 21
34.0
  0
LINE
  5
231
100
AcDbEntity
  8
0
100
AcDbLine
 62
7
  6
CONTINUOUS
 10
-45.1562970303
 20
22.8912731322
 11
-45.1562970303
 21
34.0
  0
LINE
  5
232
100
AcDbEntity
  8
0
100
AcDbLine
 62
7
  6
CONTINUOUS
 10
-23.1562970303
 20
32.5
 11
-34.1562970303
 21
32.5
  0
LINE
  5
233
100
AcDbEntity
  8
0
100
AcDbLine
 62
7
  6
CONTINUOUS
 10
-45.1562970303
 20
32.5
 11
-34.1562970303
 21
32.5
  0
INSERT
  5
234
100
AcDbEntity
  8
0
100
AcDbBlockReference
 62
7
  6
CONTINUOUS
  2
_FILLED
 10
-23.1562970303
 20
32.5
 41
3.0
 42
3.0
 43
3.0
  0
INSERT
  5
235
100
AcDbEntity
  8
0
100
AcDbBlockReference
 62
7
  6
CONTINUOUS
  2
_FILLED
 10
-45.1562970303
 20
32.5
 41
3.0
 42
3.0
 43
3.0
 50
180.0
  0
ENDBLK
  5
236
100
AcDbEntity
  8
0
  6
BYBLOCK
 62
0
100
AcDbBlockEnd
  0
BLOCK
  5
237
100
AcDbEntity
  8
0
100
AcDbBlockBegin
 62
7
  6
CONTINUOUS
  2
*D3
 70
65
 10
0.0
 20
0.0
  3
*D3
  1

  0
LINE
  5
238
100
AcDbEntity
  8
0
100
AcDbLine
 62
7
  6
CONTINUOUS
 10
-48.9106601319
 20
24.4606499457
 11
-65.2562970303
 21
24.4606499457
  0
LINE
  5
239
100
AcDbEntity
  8
0
100
AcDbLine
 62
7
  6
CONTINUOUS
 10
-48.9106601319
 20
-24.4606499457
 11
-65.2562970303
 21
-24.4606499457
  0
LINE
  5
23A
100
AcDbEntity
  8
0
100
AcDbLine
 62
7
  6
CONTINUOUS
 10
-63.7562970303
 20
24.4606499457
 11
-63.7562970303
 21
0.0
  0
LINE
  5
23B
100
AcDbEntity
  8
0
100
AcDbLine
 62
7
  6
CONTINUOUS
 10
-63.7562970303
 20
-24.4606499457
 11
-63.7562970303
 21
0.0
  0
INSERT
  5
23C
100
AcDbEntity
  8
0
100
AcDbBlockReference
 62
7
  6
CONTINUOUS
  2
_FILLED
 10
-63.7562970303
 20
24.4606499457
 41
3.0
 42
3.0
 43
3.0
 50
90.0
  0
INSERT
  5
23D
100
AcDbEntity
  8
0
100
AcDbBlockReference
 62
7
  6
CONTINUOUS
  2
_FILLED
 10
-63.7562970303
 20
-24.4606499457
 41
3.0
 42
3.0
 43
3.0
 50
270.0
  0
ENDBLK
  5
23E
100
AcDbEntity
  8
0
  6
BYBLOCK
 62
0
100
AcDbBlockEnd
  0
ENDSEC
  0
SECTION
  2
ENTITIES
  0
DIMENSION
  5
23F
100
AcDbEntity
  8
0
100
AcDbDimension
 62
7
  6
CONTINUOUS
  2
*D0
 10
11.0399722021
 20
32.5
 11
-4.3957420836
 21
32.5
 70
160
 71
2
 72
2
 41
0.9
 42
22.3
  3
DIMSTYLE_1
100
AcDbAlignedDimension
 13
-11.2600277979
 23
21.8911779406
 14
11.0399722021
 24
21.8911779406
100
AcDbRotatedDimension
  0
DIMENSION
  5
240
100
AcDbEntity
  8
0
100
AcDbDimension
 62
7
  6
CONTINUOUS
  2
*D1
 10
-55.7562970303
 20
42.5
 11
-43.742011316
 21
42.5
 70
160
 71
2
 72
2
 41
0.9
 42
32.6
  3
DIMSTYLE_1
100
AcDbAlignedDimension
 13
-23.1562970303
 23
8.75012332
 14
-55.7562970303
 24
1.75
 50
180.0
100
AcDbRotatedDimension
  0
DIMENSION
  5
241
100
AcDbEntity
  8
0
100
AcDbDimension
 62
7
  6
CONTINUOUS
  2
*D2
 10
-45.1562970303
 20
32.5
 11
-36.5134398875
 21
32.5
 70
160
 71
2
 72
2
 41
0.9
 42
22.0
  3
DIMSTYLE_1
100
AcDbAlignedDimension
 13
-23.1562970303
 23
8.5451635406
 14
-45.1562970303
 24
22.3912731322
 50
180.0
100
AcDbRotatedDimension
  0
DIMENSION
  5
242
100
AcDbEntity
  8
0
100
AcDbDimension
 62
7
  6
CONTINUOUS
  2
*D3
 10
-63.7562970303
 20
-24.4606499457
 11
-63.7562970303
 21
-4.3928571429
 70
160
 71
2
 72
2
 41
0.9
 42
48.9212998914
  3
DIMSTYLE_2
100
AcDbAlignedDimension
 13
-48.4106601319
 23
24.4606499457
 14
-48.4106601319
 24
-24.4606499457
 50
270.0
100
AcDbRotatedDimension
  0
LWPOLYLINE
  5
243
100
AcDbEntity
  8
0
100
AcDbPolyline
 62
7
  6
CONTINUOUS
 90
5
 70
0
 43
0.3500000006
 10
2.8899721613
 20
34.9642857056
 10
3.2471150465
 20
35.1785701904
 10
3.2471150465
 20
35.8214281769
 10
2.8899721613
 20
36.2500016785
 10
2.0328294067
 20
36.2500016785
  0
LINE
  5
244
100
AcDbEntity
  8
RACCORDO
100
AcDbLine
 62
250
  6
CONTINUOUS
 10
-11.2163901356
 20
21.9129951101
 11
-11.2600277979
 21
21.8911779406
  0
LINE
  5
245
100
AcDbEntity
  8
RACCORDO
100
AcDbLine
 62
7
  6
CONTINUOUS
 10
-10.9105133344
 20
22.3738174026
 11
-10.9398542206
 21
22.3601861527
  0
LINE
  5
246
100
AcDbEntity
  8
RACCORDO
100
AcDbLine
 62
7
  6
CONTINUOUS
 10
-10.9398542206
 20
-22.3601861527
 11
-10.9105133344
 21
-22.3738174026
  0
LINE
  5
247
100
AcDbEntity
  8
RACCORDO
100
AcDbLine
 62
250
  6
CONTINUOUS
 10
-11.2163901356
 20
-21.9129951101
 11
-11.2600277979
 21
-21.8911779406
  0
LINE
  5
248
100
AcDbEntity
  8
RACCORDO
100
AcDbLine
 62
250
  6
CONTINUOUS
 10
-8.6099897217
 20
24.5
 11
-8.649339776
 21
24.4606499457
  0
LINE
  5
249
100
AcDbEntity
  8
RACCORDO
100
AcDbLine
 62
250
  6
CONTINUOUS
 10
-8.3600277979
 20
24.2500380762
 11
-8.3993778522
 21
24.2106880219
  0
LWPOLYLINE
  5
24A
100
AcDbEntity
  8
RACCORDO
100
AcDbPolyline
 62
250
  6
CONTINUOUS
 90
15
 70
0
 10
-11.1113050707
 20
20.4953241026
 10
-11.107724344
 20
20.4974451375
 10
-11.0988257187
 20
20.4995434415
 10
-11.084704536
 20
20.501596533
 10
-11.0655120926
 20
20.5035824148
 10
-11.0414540195
 20
20.5054798098
 10
-11.0127880787
 20
20.5072683891
 10
-10.9798214019
 20
20.5089289895
 10
-10.9429071994
 20
20.5104438191
 10
-10.9024409759
 20
20.5117966477
 10
-10.8588562932
 20
20.5129729809
 10
-10.8126201247
 20
20.5139602153
 10
-10.7642278522
 20
20.5147477737
 10
-10.7141979584
 20
20.515327218
 10
-10.6630664717
 20
20.51569234
  0
LINE
  5
24B
100
AcDbEntity
  8
RACCORDO
100
AcDbLine
 62
7
  6
CONTINUOUS
 10
8.3899626829
 20
-24.5
 11
10.2899817213
 21
-24.5
  0
LINE
  5
24C
100
AcDbEntity
  8
RACCORDO
100
AcDbLine
 62
7
  6
CONTINUOUS
 10
-8.6100182787
 20
-24.5
 11
-10.5100373171
 21
-24.5
  0
LINE
  5
24D
100
AcDbEntity
  8
RACCORDO
100
AcDbLine
 62
250
  6
CONTINUOUS
 10
10.250660224
 20
-24.4606499457
 11
8.4292841802
 21
-24.4606499457
  0
LINE
  5
24E
100
AcDbEntity
  8
RACCORDO
100
AcDbLine
 62
250
  6
CONTINUOUS
 10
-8.649339776
 20
-24.4606499457
 11
-10.4707158198
 21
-24.4606499457
  0
LINE
  5
24F
100
AcDbEntity
  8
RACCORDO
100
AcDbLine
 62
250
  6
CONTINUOUS
 10
8.1793222564
 20
-24.2106880219
 11
10.5006221478
 21
-24.2106880219
  0
LINE
  5
250
100
AcDbEntity
  8
RACCORDO
100
AcDbLine
 62
250
  6
CONTINUOUS
 10
-8.3993778522
 20
-24.2106880219
 11
-10.7206777436
 21
-24.2106880219
  0
LINE
  5
251
100
AcDbEntity
  8
RACCORDO
100
AcDbLine
 62
250
  6
CONTINUOUS
 10
8.1793222564
 20
-23.8443375673
 11
10.5006221478
 21
-23.8443375673
  0
LINE
  5
252
100
AcDbEntity
  8
RACCORDO
100
AcDbLine
 62
250
  6
CONTINUOUS
 10
-8.3993778522
 20
-23.8443375673
 11
-10.7206777436
 21
-23.8443375673
  0
LINE
  5
253
100
AcDbEntity
  8
DRAFT
100
AcDbLine
 62
7
  6
CONTINUOUS
 10
-4.5100277979
 20
-23.8
 11
4.2899722021
 21
-23.8
  0
LINE
  5
254
100
AcDbEntity
  8
RACCORDO
100
AcDbLine
 62
7
  6
CONTINUOUS
 10
-4.0012241014
 20
-23.7825449351
 11
3.7811685056
 21
-23.7825449351
  0
LINE
  5
255
100
AcDbEntity
  8
RACCORDO
100
AcDbLine
 62
250
  6
CONTINUOUS
 10
10.250660224
 20
-23.6278312164
 11
8.4292841802
 21
-23.6278312164
  0
LINE
  5
256
100
AcDbEntity
  8
RACCORDO
100
AcDbLine
 62
250
  6
CONTINUOUS
 10
-8.649339776
 20
-23.6278312164
 11
-10.4707158198
 21
-23.6278312164
  0
LINE
  5
257
100
AcDbEntity
  8
RACCORDO
100
AcDbLine
 62
250
  6
CONTINUOUS
 10
-10.4838071185
 20
-23.1948185145
 11
-8.6362484773
 21
-23.1948185145
  0
LINE
  5
258
100
AcDbEntity
  8
RACCORDO
100
AcDbLine
 62
250
  6
CONTINUOUS
 10
8.4161928815
 20
-23.1948185145
 11
10.2637515227
 21
-23.1948185145
  0
LINE
  5
259
100
AcDbEntity
  8
RACCORDO
100
AcDbLine
 62
250
  6
CONTINUOUS
 10
8.1618671915
 20
-22.9783121636
 11
10.5180772127
 21
-22.9783121636
  0
LINE
  5
25A
100
AcDbEntity
  8
RACCORDO
100
AcDbLine
 62
250
  6
CONTINUOUS
 10
-8.3819227873
 20
-22.9783121636
 11
-10.7381328085
 21
-22.9783121636
  0
LWPOLYLINE
  5
25B
100
AcDbEntity
  8
RACCORDO
100
AcDbPolyline
 62
250
  6
CONTINUOUS
 90
16
 70
0
 10
-11.1113050708
 20
-20.4953241026
 10
-11.1077255642
 20
-20.4974451924
 10
-11.0988279715
 20
-20.4995435557
 10
-11.0847076259
 20
-20.5015967096
 10
-11.0655158201
 20
-20.5035826556
 10
-11.0414581849
 20
-20.5054801152
 10
-11.0127924859
 20
-20.5072687581
 10
-10.9798258622
 20
-20.5089294199
 10
-10.942911535
 20
-20.5104443073
 10
-10.902445023
 20
-20.5117971892
 10
-10.8588599052
 20
-20.51297357
 10
-10.8126231748
 20
-20.5139608454
 10
-10.7642302355
 20
-20.5147484374
 10
-10.714199594
 20
-20.5153279073
 10
-10.6630673041
 20
-20.5156930464
 10
-10.6113812233
 20
-20.5158399424
  0
LINE
  5
25C
100
AcDbEntity
  8
RACCORDO
100
AcDbLine
 62
250
  6
CONTINUOUS
 10
-8.649339776
 20
-24.4606499457
 11
-8.6099897217
 21
-24.5
  0
LINE
  5
25D
100
AcDbEntity
  8
RACCORDO
100
AcDbLine
 62
250
  6
CONTINUOUS
 10
-8.3993778522
 20
-24.2106880219
 11
-8.3600277979
 21
-24.2500380762
  0
LINE
  5
25E
100
AcDbEntity
  8
RACCORDO
100
AcDbLine
 62
7
  6
CONTINUOUS
 10
-8.3819227873
 20
22.3781050106
 11
-8.3600277979
 21
22.4
  0
LINE
  5
25F
100
AcDbEntity
  8
RACCORDO
100
AcDbLine
 62
7
  6
CONTINUOUS
 10
8.1444121266
 20
-22.4
 11
4.2899722021
 21
-22.4
  0
LINE
  5
260
100
AcDbEntity
  8
DRAFT
100
AcDbLine
 62
7
  6
CONTINUOUS
 10
-4.5100277979
 20
-22.4
 11
-8.3600277979
 21
-22.4
  0
LINE
  5
261
100
AcDbEntity
  8
RACCORDO
100
AcDbLine
 62
7
  6
CONTINUOUS
 10
3.7811685056
 20
-22.3825449351
 11
-4.0012241014
 21
-22.3825449351
  0
LINE
  5
262
100
AcDbEntity
  8
RACCORDO
100
AcDbLine
 62
7
  6
CONTINUOUS
 10
-10.9105133344
 20
-22.3738174026
 11
-10.4881708847
 21
-22.3738174026
  0
LINE
  5
263
100
AcDbEntity
  8
RACCORDO
100
AcDbLine
 62
7
  6
CONTINUOUS
 10
-8.6318847111
 20
-22.3738174026
 11
8.4118291153
 21
-22.3738174026
  0
LINE
  5
264
100
AcDbEntity
  8
RACCORDO
100
AcDbLine
 62
7
  6
CONTINUOUS
 10
10.2681152889
 20
-22.3738174026
 11
10.6904577386
 21
-22.3738174026
  0
LINE
  5
265
100
AcDbEntity
  8
RACCORDO
100
AcDbLine
 62
7
  6
CONTINUOUS
 10
10.5153528018
 20
-22.275
 11
-10.7354083976
 21
-22.275
  0
LINE
  5
266
100
AcDbEntity
  8
RACCORDO
100
AcDbLine
 62
250
  6
CONTINUOUS
 10
-10.6279080608
 20
-21.9522367248
 11
10.407852465
 21
-21.9522367248
  0
LINE
  5
267
100
AcDbEntity
  8
RACCORDO
100
AcDbLine
 62
7
  6
CONTINUOUS
 10
-8.3819227873
 20
-22.3781050106
 11
-8.3600277979
 21
-22.4
  0
LINE
  5
268
100
AcDbEntity
  8
RACCORDO
100
AcDbLine
 62
250
  6
CONTINUOUS
 10
-10.6113812233
 20
-20.5158399425
 11
10.4430111366
 21
-20.515692579
  0
LINE
  5
269
100
AcDbEntity
  8
RACCORDO
100
AcDbLine
 62
7
  6
CONTINUOUS
 10
4.2899722021
 20
23.8
 11
4.2810923532
 21
23.7911201511
  0
LINE
  5
26A
100
AcDbEntity
  8
DRAFT
100
AcDbLine
 62
7
  6
CONTINUOUS
 10
11.0399722021
 20
-13.5
 11
11.0149722021
 21
-13.5
  0
LINE
  5
26B
100
AcDbEntity
  8
DRAFT
100
AcDbLine
 62
7
  6
CONTINUOUS
 10
-11.2600277979
 20
-13.5
 11
-11.2350277979
 21
-13.5
  0
LINE
  5
26C
100
AcDbEntity
  8
RACCORDO
100
AcDbLine
 62
7
  6
CONTINUOUS
 10
4.2899722021
 20
-23.8
 11
4.2810923532
 21
-23.7911201511
  0
LWPOLYLINE
  5
26D
100
AcDbEntity
  8
RACCORDO
100
AcDbPolyline
 62
7
  6
CONTINUOUS
 90
13
 70
0
 10
-10.7600277979
 20
-24.2500380762
 10
-10.7578880236
 20
-24.2826601662
 10
-10.7515092739
 20
-24.3147254041
 10
-10.7409999099
 20
-24.3456854016
 10
-10.7265386368
 20
-24.3750111262
 10
-10.7083722816
 20
-24.4021999127
 10
-10.6868123782
 20
-24.4267845804
 10
-10.6622277106
 20
-24.4483444837
 10
-10.6350389241
 20
-24.4665108389
 10
-10.6057131995
 20
-24.480972112
 10
-10.574753202
 20
-24.491481476
 10
-10.5426879641
 20
-24.4978602257
 10
-10.5100658741
 20
-24.5
  0
LWPOLYLINE
  5
26E
100
AcDbEntity
  8
RACCORDO
100
AcDbPolyline
 62
250
  6
CONTINUOUS
 90
13
 70
0
 10
-10.7206777436
 20
-24.2106880219
 10
-10.7186196992
 20
-24.2426224441
 10
-10.7124441002
 20
-24.2742414897
 10
-10.7021723792
 20
-24.3050041189
 10
-10.6878629332
 20
-24.3344285813
 10
-10.6697036744
 20
-24.3619046442
 10
-10.6480911714
 20
-24.3867559732
 10
-10.6234552737
 20
-24.4085091945
 10
-10.5961800711
 20
-24.426843439
 10
-10.5667447669
 20
-24.4414387665
 10
-10.5356620165
 20
-24.4520454455
 10
-10.5034670098
 20
-24.4584850741
 10
-10.4707158198
 20
-24.4606499457
  0
LWPOLYLINE
  5
26F
100
AcDbEntity
  8
RACCORDO
100
AcDbPolyline
 62
250
  6
CONTINUOUS
 90
7
 70
0
 10
-10.4838071185
 20
-23.1948185145
 10
-10.4846718737
 20
-23.1788019821
 10
-10.4854466147
 20
-23.1600762537
 10
-10.4861313416
 20
-23.1389011512
 10
-10.4867326662
 20
-23.115573723
 10
-10.4872439767
 20
-23.0904097394
 10
-10.4876454373
 20
-23.0637357311
  0
LWPOLYLINE
  5
270
100
AcDbEntity
  8
RACCORDO
100
AcDbPolyline
 62
250
  6
CONTINUOUS
 90
16
 70
0
 10
-11.1278319084
 20
-21.4529219575
 10
-11.1250488574
 20
-21.5050833495
 10
-11.1168255291
 20
-21.5566740958
 10
-11.1032518618
 20
-21.607129624
 10
-11.0844763434
 20
-21.655897781
 10
-11.0607043929
 20
-21.7024448599
 10
-11.0321961191
 20
-21.7462614439
 10
-10.9992634576
 20
-21.7868680092
 10
-10.9622667725
 20
-21.8238201461
 10
-10.9216109306
 20
-21.8567134176
 10
-10.8777408259
 20
-21.8851878274
 10
-10.8311365394
 20
-21.9089317294
 10
-10.7823081167
 20
-21.9276852327
 10
-10.7317899273
 20
-21.9412430802
 10
-10.6801348095
 20
-21.9494568818
 10
-10.6279080609
 20
-21.952236725
  0
LWPOLYLINE
  5
271
100
AcDbEntity
  8
RACCORDO
100
AcDbPolyline
 62
250
  6
CONTINUOUS
 90
3
 70
0
 10
-10.73502369
 20
-23.360850477
 10
-10.7344201548
 20
-23.3873978104
 10
-10.7206777436
 20
-23.8443375673
  0
LINE
  5
272
100
AcDbEntity
  8
DRAFT
100
AcDbLine
 62
7
  6
CONTINUOUS
 10
-11.2600277979
 20
8.5
 11
-11.2600277979
 21
-8.5
  0
LINE
  5
273
100
AcDbEntity
  8
RACCORDO
100
AcDbLine
 62
7
  6
CONTINUOUS
 10
-11.2600277979
 20
-21.8911779406
 11
-11.2600277979
 21
21.8911779406
  0
LINE
  5
274
100
AcDbEntity
  8
ASSI
100
AcDbLine
 62
7
  6
CONTINUOUS
 10
-11.2600277979
 20
-17.6716990487
 11
-11.2600277979
 21
17.6716990487
  0
LINE
  5
275
100
AcDbEntity
  8
RACCORDO
100
AcDbLine
 62
7
  6
CONTINUOUS
 10
-11.2350277979
 20
21.7747711479
 11
-11.2350277979
 21
-21.7747711479
  0
LWPOLYLINE
  5
276
100
AcDbEntity
  8
RACCORDO
100
AcDbPolyline
 62
250
  6
CONTINUOUS
 90
3
 70
0
 10
-10.7344214195
 20
23.3873424083
 10
-10.7350259205
 20
23.3607412978
 10
-10.7360943545
 20
23.2994334023
  0
LINE
  5
277
100
AcDbEntity
  8
RACCORDO
100
AcDbLine
 62
250
  6
CONTINUOUS
 10
-10.7344214195
 20
23.3873424083
 11
-10.7206777436
 21
23.8443375673
  0
LWPOLYLINE
  5
278
100
AcDbEntity
  8
RACCORDO
100
AcDbPolyline
 62
250
  6
CONTINUOUS
 90
16
 70
0
 10
-11.1278319084
 20
21.4529219575
 10
-11.1250487517
 20
21.5050843464
 10
-11.1168251444
 20
21.5566758972
 10
-11.1032510813
 20
21.6071320185
 10
-11.0844751099
 20
21.6559005446
 10
-11.0607027049
 20
21.702447778
 10
-11.032194019
 20
21.7462643299
 10
-10.9992610367
 20
21.7868706945
 10
-10.9622641594
 20
21.8238224968
 10
-10.9216082618
 20
21.8567153554
 10
-10.8777382611
 20
21.8851893079
 10
-10.8311342479
 20
21.9089327499
 10
-10.7823062323
 20
21.9276858457
 10
-10.731788563
 20
21.9412433709
 10
-10.6801340792
 20
21.949456959
 10
-10.6279080608
 20
21.9522367248
  0
LWPOLYLINE
  5
279
100
AcDbEntity
  8
RACCORDO
100
AcDbPolyline
 62
7
  6
CONTINUOUS
 90
13
 70
0
 10
-10.7600277979
 20
24.2500380762
 10
-10.7578880236
 20
24.2826601662
 10
-10.7515092739
 20
24.3147254041
 10
-10.7409999099
 20
24.3456854016
 10
-10.7265386368
 20
24.3750111262
 10
-10.7083722816
 20
24.4021999127
 10
-10.6868123782
 20
24.4267845804
 10
-10.6622277106
 20
24.4483444837
 10
-10.6350389241
 20
24.4665108389
 10
-10.6057131995
 20
24.480972112
 10
-10.574753202
 20
24.491481476
 10
-10.5426879641
 20
24.4978602257
 10
-10.5100658741
 20
24.5
  0
LWPOLYLINE
  5
27A
100
AcDbEntity
  8
RACCORDO
100
AcDbPolyline
 62
250
  6
CONTINUOUS
 90
13
 70
0
 10
-10.7206777436
 20
24.2106880219
 10
-10.718512872
 20
24.2434392119
 10
-10.7120732434
 20
24.2756342186
 10
-10.7014665644
 20
24.306716969
 10
-10.6868712369
 20
24.3361522732
 10
-10.6685369924
 20
24.3634274759
 10
-10.6467837711
 20
24.3880633735
 10
-10.6219324421
 20
24.4096758765
 10
-10.5944563792
 20
24.4278351353
 10
-10.5650319168
 20
24.4421445813
 10
-10.5342692876
 20
24.4524163023
 10
-10.502650242
 20
24.4585919013
 10
-10.4707158198
 20
24.4606499457
  0
LINE
  5
27B
100
AcDbEntity
  8
RACCORDO
100
AcDbLine
 62
7
  6
CONTINUOUS
 10
4.2899722021
 20
22.4
 11
4.2810923532
 21
22.3911201511
  0
LINE
  5
27C
100
AcDbEntity
  8
RACCORDO
100
AcDbLine
 62
7
  6
CONTINUOUS
 10
4.2899722021
 20
-22.4
 11
4.2810923532
 21
-22.3911201511
  0
LWPOLYLINE
  5
27D
100
AcDbEntity
  8
RACCORDO
100
AcDbPolyline
 62
250
  6
CONTINUOUS
 90
13
 70
0
 10
-8.3993778522
 20
-23.8443375673
 10
-8.4017853952
 20
-23.8161733604
 10
-8.4083980803
 20
-23.7884926018
 10
-8.41910137
 20
-23.7617651234
 10
-8.4337099508
 20
-23.7364462824
 10
-8.4519746262
 20
-23.7129625587
 10
-8.4735896927
 20
-23.6917060761
 10
-8.4982114002
 20
-23.6730233303
 10
-8.5254047126
 20
-23.6572518488
 10
-8.5546381399
 20
-23.6446857775
 10
-8.5853802049
 20
-23.635521734
 10
-8.6171264846
 20
-23.6298799725
 10
-8.649339776
 20
-23.6278312164
  0
LWPOLYLINE
  5
27E
100
AcDbEntity
  8
RACCORDO
100
AcDbPolyline
 62
250
  6
CONTINUOUS
 90
13
 70
0
 10
-8.3862865535
 20
-23.4113248654
 10
-8.3886844943
 20
-23.3832201611
 10
-8.3952714541
 20
-23.3555910112
 10
-8.4059359772
 20
-23.3289049277
 10
-8.4204976121
 20
-23.3036134639
 10
-8.438709963
 20
-23.2801445779
 10
-8.4602648575
 20
-23.2588953899
 10
-8.4847975645
 20
-23.2402254574
 10
-8.5118929678
 20
-23.2244506929
 10
-8.541092587
 20
-23.2118380207
 10
-8.5719023361
 20
-23.2026008593
 10
-8.6038008843
 20
-23.1968955105
 10
-8.6362484773
 20
-23.1948185144
  0
LWPOLYLINE
  5
27F
100
AcDbEntity
  8
RACCORDO
100
AcDbPolyline
 62
250
  6
CONTINUOUS
 90
8
 70
0
 10
-11.1197041545
 20
21.3096387631
 10
-11.1207756944
 20
21.3439701519
 10
-11.1218873176
 20
21.3738243085
 10
-11.1230381394
 20
21.3992731996
 10
-11.1242098412
 20
21.4199446296
 10
-11.1253963169
 20
21.4357145333
 10
-11.1266036726
 20
21.4467069759
 10
-11.1278319084
 20
21.4529219575
  0
LINE
  5
280
100
AcDbEntity
  8
RACCORDO
100
AcDbLine
 62
250
  6
CONTINUOUS
 10
-10.4707158198
 20
-23.6278312164
 11
-10.4838071185
 21
-23.1948185145
  0
LWPOLYLINE
  5
281
100
AcDbEntity
  8
RACCORDO
100
AcDbPolyline
 62
250
  6
CONTINUOUS
 90
7
 70
0
 10
-10.6208468679
 20
21.7885788612
 10
-10.621956294
 20
21.8334510126
 10
-10.6231048735
 20
21.8714971343
 10
-10.6242760004
 20
21.9025363698
 10
-10.6254641397
 20
21.9264145481
 10
-10.6266748265
 20
21.9430093688
 10
-10.6279080608
 20
21.9522367248
  0
LINE
  5
282
100
AcDbEntity
  8
RACCORDO
100
AcDbLine
 62
250
  6
CONTINUOUS
 10
-11.117694334
 20
21.2283482841
 11
-11.1197041545
 21
21.3096387631
  0
LINE
  5
283
100
AcDbEntity
  8
RACCORDO
100
AcDbLine
 62
250
  6
CONTINUOUS
 10
-10.6187461656
 20
21.6792486065
 11
-10.6208468679
 21
21.7885788612
  0
LINE
  5
284
100
AcDbEntity
  8
RACCORDO
100
AcDbLine
 62
250
  6
CONTINUOUS
 10
-11.1159060873
 20
21.1316964589
 11
-11.117694334
 21
21.2283482841
  0
LINE
  5
285
100
AcDbEntity
  8
RACCORDO
100
AcDbLine
 62
250
  6
CONTINUOUS
 10
-10.7360911029
 20
-23.2996532607
 11
-10.73502369
 21
-23.360850477
  0
LINE
  5
286
100
AcDbEntity
  8
RACCORDO
100
AcDbLine
 62
250
  6
CONTINUOUS
 10
-10.6168498623
 20
21.5457505504
 11
-10.6187461656
 21
21.6792486065
  0
LINE
  5
287
100
AcDbEntity
  8
RACCORDO
100
AcDbLine
 62
250
  6
CONTINUOUS
 10
-11.1143755751
 20
21.0219011412
 11
-11.1159060873
 21
21.1316964589
  0
LINE
  5
288
100
AcDbEntity
  8
RACCORDO
100
AcDbLine
 62
250
  6
CONTINUOUS
 10
-10.6151858818
 20
21.3907417588
 11
-10.6168498623
 21
21.5457505504
  0
LINE
  5
289
100
AcDbEntity
  8
RACCORDO
100
AcDbLine
 62
250
  6
CONTINUOUS
 10
-11.113125197
 20
20.9005847925
 11
-11.1143755751
 21
21.0219011412
  0
LINE
  5
28A
100
AcDbEntity
  8
RACCORDO
100
AcDbLine
 62
250
  6
CONTINUOUS
 10
-10.7373115013
 20
-23.1899831991
 11
-10.7360911029
 21
-23.2996532607
  0
LINE
  5
28B
100
AcDbEntity
  8
RACCORDO
100
AcDbLine
 62
250
  6
CONTINUOUS
 10
-10.6137917955
 20
21.2171292264
 11
-10.6151858818
 21
21.3907417588
  0
LINE
  5
28C
100
AcDbEntity
  8
RACCORDO
100
AcDbLine
 62
250
  6
CONTINUOUS
 10
-11.1121862698
 20
20.7703775855
 11
-11.113125197
 21
20.9005847925
  0
LINE
  5
28D
100
AcDbEntity
  8
RACCORDO
100
AcDbLine
 62
250
  6
CONTINUOUS
 10
-10.4876454373
 20
-23.0637357311
 11
-10.4881055854
 21
-23.0073030986
  0
LINE
  5
28E
100
AcDbEntity
  8
RACCORDO
100
AcDbLine
 62
250
  6
CONTINUOUS
 10
-10.612697175
 20
21.0284561483
 11
-10.6137917955
 21
21.2171292264
  0
LINE
  5
28F
100
AcDbEntity
  8
RACCORDO
100
AcDbLine
 62
250
  6
CONTINUOUS
 10
-11.1115774548
 20
20.634936221
 11
-11.1121862698
 21
20.7703775855
  0
LINE
  5
290
100
AcDbEntity
  8
RACCORDO
100
AcDbLine
 62
250
  6
CONTINUOUS
 10
-10.737996634
 20
-23.0659541168
 11
-10.7373115013
 21
-23.1899831991
  0
LINE
  5
291
100
AcDbEntity
  8
RACCORDO
100
AcDbLine
 62
250
  6
CONTINUOUS
 10
-10.6119182777
 20
20.8284697962
 11
-10.612697175
 21
21.0284561483
  0
LINE
  5
292
100
AcDbEntity
  8
RACCORDO
100
AcDbLine
 62
250
  6
CONTINUOUS
 10
-11.1113050708
 20
20.4953241026
 11
-11.1115774548
 21
20.634936221
  0
LINE
  5
293
100
AcDbEntity
  8
RACCORDO
100
AcDbLine
 62
250
  6
CONTINUOUS
 10
-10.6113812233
 20
20.5158399425
 11
-10.6119182777
 21
20.8284697962
  0
LINE
  5
294
100
AcDbEntity
  8
RACCORDO
100
AcDbLine
 62
7
  6
CONTINUOUS
 10
-10.7600277979
 20
-22.399689968
 11
-10.7600277979
 21
-24.2500095192
  0
LINE
  5
295
100
AcDbEntity
  8
RACCORDO
100
AcDbLine
 62
7
  6
CONTINUOUS
 10
-10.7600277979
 20
22.399689968
 11
-10.7600277979
 21
24.2500095192
  0
LINE
  5
296
100
AcDbEntity
  8
RACCORDO
100
AcDbLine
 62
250
  6
CONTINUOUS
 10
-10.737996634
 20
-23.0659541168
 11
-10.7381328085
 21
-22.3781050106
  0
LINE
  5
297
100
AcDbEntity
  8
RACCORDO
100
AcDbLine
 62
250
  6
CONTINUOUS
 10
-10.7206777436
 20
-24.2106880219
 11
-10.7206777436
 21
-23.8443375673
  0
LINE
  5
298
100
AcDbEntity
  8
RACCORDO
100
AcDbLine
 62
250
  6
CONTINUOUS
 10
-10.7206777436
 20
23.8443375673
 11
-10.7206777436
 21
24.2106880219
  0
LINE
  5
299
100
AcDbEntity
  8
RACCORDO
100
AcDbLine
 62
250
  6
CONTINUOUS
 10
-10.4881055854
 20
-23.0073030986
 11
-10.4881708847
 21
-22.3738174026
  0
LINE
  5
29A
100
AcDbEntity
  8
RACCORDO
100
AcDbLine
 62
250
  6
CONTINUOUS
 10
-10.4707158198
 20
-24.4606499457
 11
-10.4707158198
 21
-23.6278312164
  0
LINE
  5
29B
100
AcDbEntity
  8
RACCORDO
100
AcDbLine
 62
250
  6
CONTINUOUS
 10
-10.4707158198
 20
23.6278312164
 11
-10.4707158198
 21
24.4606499457
  0
LWPOLYLINE
  5
29C
100
AcDbEntity
  8
RACCORDO
100
AcDbPolyline
 62
250
  6
CONTINUOUS
 90
9
 70
0
 10
-11.1084043454
 20
-15.9419494533
 10
-11.1062288016
 20
-11.388003224
 10
-11.1047784393
 20
-6.8334854149
 10
-11.104053259
 20
-2.2780145254
 10
-11.1040532602
 20
2.278027944
 10
-11.1047784421
 20
6.8334974917
 10
-11.1062288043
 20
11.3880126171
 10
-11.1084043472
 20
15.9419548207
 10
-11.1113050708
 20
20.4953241026
  0
LWPOLYLINE
  5
29D
100
AcDbEntity
  8
RACCORDO
100
AcDbPolyline
 62
250
  6
CONTINUOUS
 90
9
 70
0
 10
-10.6084804976
 20
-15.9585343909
 10
-10.6063049533
 20
-11.3999013674
 10
-10.6048545904
 20
-6.8403200903
 10
-10.6041294089
 20
-2.2801699017
 10
-10.6041294089
 20
2.2801698992
 10
-10.6048545903
 20
6.840320088
 10
-10.6063049531
 20
11.3999013657
 10
-10.6084804975
 20
15.9585343899
 10
-10.6113812233
 20
20.5158399425
  0
LINE
  5
29E
100
AcDbEntity
  8
RACCORDO
100
AcDbLine
 62
250
  6
CONTINUOUS
 10
-10.6116559583
 20
-20.7254461334
 11
-10.6084804976
 21
-15.9585343909
  0
LINE
  5
29F
100
AcDbEntity
  8
RACCORDO
100
AcDbLine
 62
250
  6
CONTINUOUS
 10
-10.4881708847
 20
22.3738174026
 11
-10.4881048589
 21
23.0073881269
  0
LINE
  5
2A0
100
AcDbEntity
  8
RACCORDO
100
AcDbLine
 62
250
  6
CONTINUOUS
 10
-11.1115778079
 20
-20.6350336794
 11
-11.1084043454
 21
-15.9419494533
  0
LINE
  5
2A1
100
AcDbEntity
  8
RACCORDO
100
AcDbLine
 62
250
  6
CONTINUOUS
 10
-10.6122660671
 20
-20.9296515378
 11
-10.6116559583
 21
-20.7254461334
  0
LINE
  5
2A2
100
AcDbEntity
  8
RACCORDO
100
AcDbLine
 62
250
  6
CONTINUOUS
 10
-10.7378342567
 20
23.1079535198
 11
-10.7381328085
 21
22.3781050106
  0
LINE
  5
2A3
100
AcDbEntity
  8
RACCORDO
100
AcDbLine
 62
250
  6
CONTINUOUS
 10
-11.1121870905
 20
-20.7705287919
 11
-11.1115778079
 21
-20.6350336794
  0
LINE
  5
2A4
100
AcDbEntity
  8
RACCORDO
100
AcDbLine
 62
250
  6
CONTINUOUS
 10
-10.6132053156
 20
-21.124443096
 11
-10.6122660671
 21
-20.9296515378
  0
LINE
  5
2A5
100
AcDbEntity
  8
RACCORDO
100
AcDbLine
 62
250
  6
CONTINUOUS
 10
-10.6144554583
 20
-21.3060608716
 11
-10.6132053156
 21
-21.124443096
  0
LINE
  5
2A6
100
AcDbEntity
  8
RACCORDO
100
AcDbLine
 62
250
  6
CONTINUOUS
 10
-11.1131266382
 20
-20.9007560705
 11
-11.1121870905
 21
-20.7705287919
  0
LINE
  5
2A7
100
AcDbEntity
  8
RACCORDO
100
AcDbLine
 62
250
  6
CONTINUOUS
 10
-10.7369651624
 20
23.2281503222
 11
-10.7378342567
 21
23.1079535198
  0
LINE
  5
2A8
100
AcDbEntity
  8
RACCORDO
100
AcDbLine
 62
250
  6
CONTINUOUS
 10
-10.6159846278
 20
-21.4707776821
 11
-10.6144554583
 21
-21.3060608716
  0
LWPOLYLINE
  5
2A9
100
AcDbEntity
  8
RACCORDO
100
AcDbPolyline
 62
250
  6
CONTINUOUS
 90
8
 70
0
 10
-10.4881048589
 20
23.0073881269
 10
-10.4876433363
 20
23.0639167563
 10
-10.4872410204
 20
23.0906010594
 10
-10.4867288808
 20
23.1157526497
 10
-10.486127375
 20
23.139048837
 10
-10.4854433223
 20
23.1601791652
 10
-10.4846699035
 20
23.1788531564
 10
-10.4838071185
 20
23.1948185145
  0
LINE
  5
2AA
100
AcDbEntity
  8
RACCORDO
100
AcDbLine
 62
250
  6
CONTINUOUS
 10
-11.1143780499
 20
-21.0221048229
 11
-11.1131266382
 21
-20.9007560705
  0
LINE
  5
2AB
100
AcDbEntity
  8
RACCORDO
100
AcDbLine
 62
250
  6
CONTINUOUS
 10
-10.617770432
 20
-21.6153654414
 11
-10.6159846278
 21
-21.4707776821
  0
LINE
  5
2AC
100
AcDbEntity
  8
RACCORDO
100
AcDbLine
 62
250
  6
CONTINUOUS
 10
-10.7360943545
 20
23.2994334023
 11
-10.7369651624
 21
23.2281503222
  0
LINE
  5
2AD
100
AcDbEntity
  8
RACCORDO
100
AcDbLine
 62
250
  6
CONTINUOUS
 10
-11.1159093735
 20
-21.1319016898
 11
-11.1143780499
 21
-21.0221048229
  0
LINE
  5
2AE
100
AcDbEntity
  8
RACCORDO
100
AcDbLine
 62
250
  6
CONTINUOUS
 10
-11.1176979848
 20
-21.2285191432
 11
-11.1159093735
 21
-21.1319016898
  0
LINE
  5
2AF
100
AcDbEntity
  8
RACCORDO
100
AcDbLine
 62
250
  6
CONTINUOUS
 10
-10.4838071185
 20
23.1948185145
 11
-10.4707158198
 21
23.6278312164
  0
LWPOLYLINE
  5
2B0
100
AcDbEntity
  8
RACCORDO
100
AcDbPolyline
 62
250
  6
CONTINUOUS
 90
13
 70
0
 10
-8.3862865535
 20
23.4113248654
 10
-8.3886844799
 20
23.3832202505
 10
-8.3952714067
 20
23.3555911608
 10
-8.4059358904
 20
23.3289051068
 10
-8.4204974956
 20
23.3036136376
 10
-8.4387098352
 20
23.280144722
 10
-8.4602647289
 20
23.2588955016
 10
-8.4847974417
 20
23.2402255398
 10
-8.5118928616
 20
23.2244507468
 10
-8.5410925033
 20
23.2118380514
 10
-8.5719022778
 20
23.2026008734
 10
-8.6038008544
 20
23.1968955143
 10
-8.6362484773
 20
23.1948185144
  0
LWPOLYLINE
  5
2B1
100
AcDbEntity
  8
RACCORDO
100
AcDbPolyline
 62
250
  6
CONTINUOUS
 90
13
 70
0
 10
-8.3993778522
 20
23.8443375673
 10
-8.4017853952
 20
23.8161733604
 10
-8.4083980803
 20
23.7884926018
 10
-8.41910137
 20
23.7617651234
 10
-8.4337099508
 20
23.7364462824
 10
-8.4519746262
 20
23.7129625587
 10
-8.4735896927
 20
23.6917060761
 10
-8.4982114002
 20
23.6730233303
 10
-8.5254047126
 20
23.6572518488
 10
-8.5546381399
 20
23.6446857775
 10
-8.5853802049
 20
23.635521734
 10
-8.6171264846
 20
23.6298799725
 10
-8.649339776
 20
23.6278312164
  0
LWPOLYLINE
  5
2B2
100
AcDbEntity
  8
0
100
AcDbPolyline
 62
7
  6
CONTINUOUS
 90
3
 70
0
 43
0.3500000006
 10
1.032829314
 20
33.5357164307
 10
0.9614007511
 20
33.3214274139
 10
0.8185436254
 20
33.0357162781
  0
LINE
  5
2B3
100
AcDbEntity
  8
RACCORDO
100
AcDbLine
 62
250
  6
CONTINUOUS
 10
10.2900102783
 20
24.5
 11
10.250660224
 21
24.4606499457
  0
LINE
  5
2B4
100
AcDbEntity
  8
RACCORDO
100
AcDbLine
 62
250
  6
CONTINUOUS
 10
10.5399722021
 20
24.2500380762
 11
10.5006221478
 21
24.2106880219
  0
LINE
  5
2B5
100
AcDbEntity
  8
RACCORDO
100
AcDbLine
 62
250
  6
CONTINUOUS
 10
10.250660224
 20
-24.4606499457
 11
10.2900102783
 21
-24.5
  0
LINE
  5
2B6
100
AcDbEntity
  8
RACCORDO
100
AcDbLine
 62
250
  6
CONTINUOUS
 10
10.5006221478
 20
-24.2106880219
 11
10.5399722021
 21
-24.2500380762
  0
LWPOLYLINE
  5
2B7
100
AcDbEntity
  8
RACCORDO
100
AcDbPolyline
 62
250
  6
CONTINUOUS
 90
13
 70
0
 10
-10.7206777436
 20
23.8443375673
 10
-10.7182702006
 20
23.8161733604
 10
-10.7116575155
 20
23.7884926018
 10
-10.7009542258
 20
23.7617651234
 10
-10.686345645
 20
23.7364462824
 10
-10.6680809696
 20
23.7129625587
 10
-10.646465903
 20
23.6917060761
 10
-10.6218441956
 20
23.6730233303
 10
-10.5946508832
 20
23.6572518488
 10
-10.5654174559
 20
23.6446857775
 10
-10.5346753909
 20
23.635521734
 10
-10.5029291112
 20
23.6298799725
 10
-10.4707158198
 20
23.6278312164
  0
LWPOLYLINE
  5
2B8
100
AcDbEntity
  8
RACCORDO
100
AcDbPolyline
 62
250
  6
CONTINUOUS
 90
13
 70
0
 10
-10.7337690423
 20
23.4113248654
 10
-10.7313711156
 20
23.3832202483
 10
-10.7247841879
 20
23.355591157
 10
-10.7141197032
 20
23.3289051021
 10
-10.6995580971
 20
23.3036136327
 10
-10.6813457568
 20
23.2801447175
 10
-10.6597908628
 20
23.2588954978
 10
-10.6352581502
 20
23.2402255369
 10
-10.6081627308
 20
23.2244507449
 10
-10.5789630898
 20
23.2118380503
 10
-10.5481533161
 20
23.2026008728
 10
-10.5162547404
 20
23.1968955141
 10
-10.4838071185
 20
23.1948185144
  0
LINE
  5
2B9
100
AcDbEntity
  8
RACCORDO
100
AcDbLine
 62
250
  6
CONTINUOUS
 10
-8.649339776
 20
23.6278312164
 11
-8.6362484773
 21
23.1948185145
  0
LINE
  5
2BA
100
AcDbEntity
  8
RACCORDO
100
AcDbLine
 62
250
  6
CONTINUOUS
 10
-8.3856341763
 20
23.3873424069
 11
-8.3993778522
 21
23.8443375673
  0
LINE
  5
2BB
100
AcDbEntity
  8
RACCORDO
100
AcDbLine
 62
250
  6
CONTINUOUS
 10
-8.3844730505
 20
23.3315215311
 11
-8.3856341763
 21
23.3873424069
  0
LWPOLYLINE
  5
2BC
100
AcDbEntity
  8
RACCORDO
100
AcDbPolyline
 62
250
  6
CONTINUOUS
 90
7
 70
0
 10
-8.6324122595
 20
23.0639167973
 10
-8.632814576
 20
23.0906011013
 10
-8.6333267163
 20
23.1157526871
 10
-8.6339282224
 20
23.1390488667
 10
-8.6346122749
 20
23.1601791856
 10
-8.6353856932
 20
23.1788531664
 10
-8.6362484773
 20
23.1948185145
  0
LINE
  5
2BD
100
AcDbEntity
  8
RACCORDO
100
AcDbLine
 62
250
  6
CONTINUOUS
 10
-8.3834973084
 20
23.2647266149
 11
-8.3844730505
 21
23.3315215311
  0
LINE
  5
2BE
100
AcDbEntity
  8
RACCORDO
100
AcDbLine
 62
250
  6
CONTINUOUS
 10
-8.3824497553
 20
23.149341889
 11
-8.3834973084
 21
23.2647266149
  0
LINE
  5
2BF
100
AcDbEntity
  8
RACCORDO
100
AcDbLine
 62
250
  6
CONTINUOUS
 10
-8.6319507367
 20
23.0073881466
 11
-8.6324122595
 21
23.0639167973
  0
LINE
  5
2C0
100
AcDbEntity
  8
RACCORDO
100
AcDbLine
 62
250
  6
CONTINUOUS
 10
-8.3819589108
 20
23.0225753456
 11
-8.3824497553
 21
23.149341889
  0
LINE
  5
2C1
100
AcDbEntity
  8
RACCORDO
100
AcDbLine
 62
250
  6
CONTINUOUS
 10
-8.649339776
 20
-23.6278312164
 11
-8.649339776
 21
-24.4606499457
  0
LINE
  5
2C2
100
AcDbEntity
  8
RACCORDO
100
AcDbLine
 62
250
  6
CONTINUOUS
 10
-8.649339776
 20
23.6278312164
 11
-8.649339776
 21
24.4606499457
  0
LINE
  5
2C3
100
AcDbEntity
  8
RACCORDO
100
AcDbLine
 62
250
  6
CONTINUOUS
 10
-8.6319507367
 20
23.0073881466
 11
-8.6318847111
 21
22.3738174026
  0
LINE
  5
2C4
100
AcDbEntity
  8
RACCORDO
100
AcDbLine
 62
250
  6
CONTINUOUS
 10
-8.3993778522
 20
24.2106880219
 11
-8.3993778522
 21
23.8443375673
  0
LINE
  5
2C5
100
AcDbEntity
  8
RACCORDO
100
AcDbLine
 62
250
  6
CONTINUOUS
 10
-8.3993778522
 20
-23.8443375673
 11
-8.3993778522
 21
-24.2106880219
  0
LINE
  5
2C6
100
AcDbEntity
  8
RACCORDO
100
AcDbLine
 62
250
  6
CONTINUOUS
 10
-8.3819589108
 20
23.0225753456
 11
-8.3819227873
 21
22.3781050106
  0
LINE
  5
2C7
100
AcDbEntity
  8
RACCORDO
100
AcDbLine
 62
7
  6
CONTINUOUS
 10
-8.3600277979
 20
-24.2500095192
 11
-8.3600277979
 21
-22.4
  0
LINE
  5
2C8
100
AcDbEntity
  8
RACCORDO
100
AcDbLine
 62
7
  6
CONTINUOUS
 10
-8.3600277979
 20
22.4
 11
-8.3600277979
 21
24.2500095192
  0
LINE
  5
2C9
100
AcDbEntity
  8
RACCORDO
100
AcDbLine
 62
250
  6
CONTINUOUS
 10
-8.6319500105
 20
-23.0073030817
 11
-8.6318847111
 21
-22.3738174026
  0
LINE
  5
2CA
100
AcDbEntity
  8
RACCORDO
100
AcDbLine
 62
250
  6
CONTINUOUS
 10
-8.3822223275
 20
-23.1081776344
 11
-8.3819227873
 21
-22.3781050106
  0
LINE
  5
2CB
100
AcDbEntity
  8
RACCORDO
100
AcDbLine
 62
250
  6
CONTINUOUS
 10
-8.3830935376
 20
-23.2284583579
 11
-8.3822223275
 21
-23.1081776344
  0
LINE
  5
2CC
100
AcDbEntity
  8
RACCORDO
100
AcDbLine
 62
250
  6
CONTINUOUS
 10
-8.3839644928
 20
-23.2996532663
 11
-8.3830935376
 21
-23.2284583579
  0
LWPOLYLINE
  5
2CD
100
AcDbEntity
  8
RACCORDO
100
AcDbPolyline
 62
250
  6
CONTINUOUS
 90
3
 70
0
 10
-8.3856354409
 20
-23.3873978149
 10
-8.3850319056
 20
-23.3608504841
 10
-8.3839644928
 20
-23.2996532663
  0
LINE
  5
2CE
100
AcDbEntity
  8
RACCORDO
100
AcDbLine
 62
250
  6
CONTINUOUS
 10
-8.6362484773
 20
-23.1948185145
 11
-8.649339776
 21
-23.6278312164
  0
LINE
  5
2CF
100
AcDbEntity
  8
RACCORDO
100
AcDbLine
 62
250
  6
CONTINUOUS
 10
-8.3856354409
 20
-23.3873978149
 11
-8.3993778522
 21
-23.8443375673
  0
LWPOLYLINE
  5
2D0
100
AcDbEntity
  8
RACCORDO
100
AcDbPolyline
 62
250
  6
CONTINUOUS
 90
13
 70
0
 10
-10.7337690423
 20
-23.4113248654
 10
-10.7313711019
 20
-23.3832201637
 10
-10.7247841429
 20
-23.3555910155
 10
-10.7141196209
 20
-23.3289049328
 10
-10.6995579867
 20
-23.3036134687
 10
-10.6813456358
 20
-23.2801445817
 10
-10.6597907412
 20
-23.2588953927
 10
-10.6352580339
 20
-23.2402254596
 10
-10.6081626303
 20
-23.2244506944
 10
-10.5789630106
 20
-23.2118380216
 10
-10.548153261
 20
-23.2026008598
 10
-10.5162547121
 20
-23.1968955107
 10
-10.4838071185
 20
-23.1948185144
  0
LWPOLYLINE
  5
2D1
100
AcDbEntity
  8
RACCORDO
100
AcDbPolyline
 62
250
  6
CONTINUOUS
 90
13
 70
0
 10
-10.7206777436
 20
-23.8443375673
 10
-10.7182702006
 20
-23.8161733604
 10
-10.7116575155
 20
-23.7884926018
 10
-10.7009542258
 20
-23.7617651234
 10
-10.686345645
 20
-23.7364462824
 10
-10.6680809696
 20
-23.7129625587
 10
-10.646465903
 20
-23.6917060761
 10
-10.6218441956
 20
-23.6730233303
 10
-10.5946508832
 20
-23.6572518488
 10
-10.5654174559
 20
-23.6446857775
 10
-10.5346753909
 20
-23.635521734
 10
-10.5029291112
 20
-23.6298799725
 10
-10.4707158198
 20
-23.6278312164
  0
LWPOLYLINE
  5
2D2
100
AcDbEntity
  8
RACCORDO
100
AcDbPolyline
 62
250
  6
CONTINUOUS
 90
9
 70
0
 10
-10.6279080608
 20
-21.9522367248
 10
-10.6266749399
 20
-21.9430101759
 10
-10.625464331
 20
-21.9264166273
 10
-10.6242762341
 20
-21.9025396838
 10
-10.6231050927
 20
-21.8715006621
 10
-10.6219564632
 20
-21.8334535519
 10
-10.6208470154
 20
-21.7885808213
 10
-10.6197771339
 20
-21.737095003
 10
-10.617770432
 20
-21.6153654414
  0
LINE
  5
2D3
100
AcDbEntity
  8
RACCORDO
100
AcDbLine
 62
7
  6
CONTINUOUS
 10
10.5180772127
 20
22.3781050106
 11
10.5397655088
 21
22.3997933067
  0
LINE
  5
2D4
100
AcDbEntity
  8
DRAFT
100
AcDbLine
 62
7
  6
CONTINUOUS
 10
11.0399722021
 20
-8.5
 11
11.0149722021
 21
-8.5
  0
LINE
  5
2D5
100
AcDbEntity
  8
DRAFT
100
AcDbLine
 62
7
  6
CONTINUOUS
 10
-11.2600277979
 20
-8.5
 11
-11.2350277979
 21
-8.5
  0
LINE
  5
2D6
100
AcDbEntity
  8
RACCORDO
100
AcDbLine
 62
7
  6
CONTINUOUS
 10
10.5180772127
 20
-22.3781050106
 11
10.5397655088
 21
-22.3997933067
  0
LWPOLYLINE
  5
2D7
100
AcDbEntity
  8
RACCORDO
100
AcDbPolyline
 62
7
  6
CONTINUOUS
 90
13
 70
0
 10
-8.3600277979
 20
24.2500380762
 10
-8.3621675722
 20
24.2826601662
 10
-8.3685463219
 20
24.3147254041
 10
-8.3790556859
 20
24.3456854016
 10
-8.393516959
 20
24.3750111262
 10
-8.4116833142
 20
24.4021999127
 10
-8.4332432175
 20
24.4267845804
 10
-8.4578278852
 20
24.4483444837
 10
-8.4850166717
 20
24.4665108389
 10
-8.5143423963
 20
24.480972112
 10
-8.5453023938
 20
24.491481476
 10
-8.5773676317
 20
24.4978602257
 10
-8.6099897217
 20
24.5
  0
LWPOLYLINE
  5
2D8
100
AcDbEntity
  8
RACCORDO
100
AcDbPolyline
 62
250
  6
CONTINUOUS
 90
13
 70
0
 10
-8.3993778522
 20
24.2106880219
 10
-8.4014358966
 20
24.2426224441
 10
-8.4076114956
 20
24.2742414897
 10
-8.4178832166
 20
24.3050041189
 10
-8.4321926626
 20
24.3344285813
 10
-8.4503519213
 20
24.3619046442
 10
-8.4719644244
 20
24.3867559732
 10
-8.496600322
 20
24.4085091945
 10
-8.5238755247
 20
24.426843439
 10
-8.5533108289
 20
24.4414387665
 10
-8.5843935793
 20
24.4520454455
 10
-8.616588586
 20
24.4584850741
 10
-8.649339776
 20
24.4606499457
  0
LINE
  5
2D9
100
AcDbEntity
  8
RACCORDO
100
AcDbLine
 62
7
  6
CONTINUOUS
 10
-6.1100277979
 20
-1.75
 11
-6.1100277979
 21
1.75
  0
LINE
  5
2DA
100
AcDbEntity
  8
RACCORDO
100
AcDbLine
 62
250
  6
CONTINUOUS
 10
-5.9100277979
 20
1.75
 11
-5.9100277979
 21
-1.75
  0
LINE
  5
2DB
100
AcDbEntity
  8
RACCORDO
100
AcDbLine
 62
250
  6
CONTINUOUS
 10
-5.6100277979
 20
-2.05
 11
-5.6100277979
 21
-2.25
  0
LINE
  5
2DC
100
AcDbEntity
  8
RACCORDO
100
AcDbLine
 62
250
  6
CONTINUOUS
 10
-5.6100277979
 20
2.05
 11
-5.610027797
 21
2.25
  0
LWPOLYLINE
  5
2DD
100
AcDbEntity
  8
RACCORDO
100
AcDbPolyline
 62
250
  6
CONTINUOUS
 90
8
 70
0
 10
-8.6362484773
 20
-23.1948185145
 10
-8.6353837213
 20
-23.1788019702
 10
-8.6346089797
 20
-23.1600762301
 10
-8.6339242526
 20
-23.1389011178
 10
-8.6333229283
 20
-23.1155736837
 10
-8.6328116185
 20
-23.090409699
 10
-8.6324101583
 20
-23.063735694
 10
-8.6319500105
 20
-23.0073030817
  0
LWPOLYLINE
  5
2DE
100
AcDbEntity
  8
RACCORDO
100
AcDbPolyline
 62
250
  6
CONTINUOUS
 90
13
 70
0
 10
-8.3993778522
 20
-24.2106880219
 10
-8.4014358966
 20
-24.2426224441
 10
-8.4076114956
 20
-24.2742414897
 10
-8.4178832166
 20
-24.3050041189
 10
-8.4321926626
 20
-24.3344285813
 10
-8.4503519213
 20
-24.3619046442
 10
-8.4719644244
 20
-24.3867559732
 10
-8.496600322
 20
-24.4085091945
 10
-8.5238755247
 20
-24.426843439
 10
-8.5533108289
 20
-24.4414387665
 10
-8.5843935793
 20
-24.4520454455
 10
-8.616588586
 20
-24.4584850741
 10
-8.649339776
 20
-24.4606499457
  0
LWPOLYLINE
  5
2DF
100
AcDbEntity
  8
RACCORDO
100
AcDbPolyline
 62
7
  6
CONTINUOUS
 90
13
 70
0
 10
-8.3600277979
 20
-24.2500380762
 10
-8.3621675722
 20
-24.2826601662
 10
-8.3685463219
 20
-24.3147254041
 10
-8.3790556859
 20
-24.3456854016
 10
-8.393516959
 20
-24.3750111262
 10
-8.4116833142
 20
-24.4021999127
 10
-8.4332432175
 20
-24.4267845804
 10
-8.4578278852
 20
-24.4483444837
 10
-8.4850166717
 20
-24.4665108389
 10
-8.5143423963
 20
-24.480972112
 10
-8.5453023938
 20
-24.491481476
 10
-8.5773676317
 20
-24.4978602257
 10
-8.6099897217
 20
-24.5
  0
LWPOLYLINE
  5
2E0
100
AcDbEntity
  8
RACCORDO
100
AcDbPolyline
 62
250
  6
CONTINUOUS
 90
9
 70
0
 10
-11.1278319084
 20
-21.4529219575
 10
-11.1266046107
 20
-21.4467168064
 10
-11.1253980163
 20
-21.4357359029
 10
-11.1242121251
 20
-21.419979247
 10
-11.1230407729
 20
-21.3993220005
 10
-11.1218901239
 20
-21.3738890017
 10
-11.1207786713
 20
-21.344054765
 10
-11.1197074087
 20
-21.3097511478
 10
-11.1176979848
 20
-21.2285191432
  0
LINE
  5
2E1
100
AcDbEntity
  8
DRAFT
100
AcDbLine
 62
7
  6
CONTINUOUS
 10
-4.5100277979
 20
23.8
 11
-4.5100277979
 21
22.4
  0
LINE
  5
2E2
100
AcDbEntity
  8
DRAFT
100
AcDbLine
 62
7
  6
CONTINUOUS
 10
-4.5100277979
 20
-22.4
 11
-4.5100277979
 21
-23.8
  0
LINE
  5
2E3
100
AcDbEntity
  8
RACCORDO
100
AcDbLine
 62
250
  6
CONTINUOUS
 10
-4.501147949
 20
23.7911201511
 11
-4.501147949
 21
22.3911201511
  0
LINE
  5
2E4
100
AcDbEntity
  8
RACCORDO
100
AcDbLine
 62
250
  6
CONTINUOUS
 10
-4.501147949
 20
-22.3911201511
 11
-4.501147949
 21
-23.7911201511
  0
LINE
  5
2E5
100
AcDbEntity
  8
RACCORDO
100
AcDbLine
 62
250
  6
CONTINUOUS
 10
-4.0012241014
 20
23.7825449351
 11
-4.0012241014
 21
22.3825449351
  0
LINE
  5
2E6
100
AcDbEntity
  8
RACCORDO
100
AcDbLine
 62
250
  6
CONTINUOUS
 10
-4.0012241014
 20
-22.3825449351
 11
-4.0012241014
 21
-23.7825449351
  0
LINE
  5
2E7
100
AcDbEntity
  8
RACCORDO
100
AcDbLine
 62
250
  6
CONTINUOUS
 10
-11.2350277979
 20
-21.7747711479
 11
-11.1278319084
 21
-21.4529219575
  0
LINE
  5
2E8
100
AcDbEntity
  8
RACCORDO
100
AcDbLine
 62
250
  6
CONTINUOUS
 10
-11.1278319084
 20
21.4529219575
 11
-11.2350277979
 21
21.7747711479
  0
LINE
  5
2E9
100
AcDbEntity
  8
RACCORDO
100
AcDbLine
 62
250
  6
CONTINUOUS
 10
-10.7354083976
 20
-22.275
 11
-10.6279080608
 21
-21.9522367248
  0
LINE
  5
2EA
100
AcDbEntity
  8
RACCORDO
100
AcDbLine
 62
7
  6
CONTINUOUS
 10
5.3899722021
 20
-2.25
 11
-5.6100277979
 21
-2.25
  0
LINE
  5
2EB
100
AcDbEntity
  8
RACCORDO
100
AcDbLine
 62
250
  6
CONTINUOUS
 10
-5.6100277979
 20
-2.05
 11
5.3899722021
 21
-2.05
  0
LINE
  5
2EC
100
AcDbEntity
  8
RACCORDO
100
AcDbLine
 62
250
  6
CONTINUOUS
 10
5.6899722021
 20
-1.75
 11
5.8899722021
 21
-1.75
  0
LINE
  5
2ED
100
AcDbEntity
  8
RACCORDO
100
AcDbLine
 62
250
  6
CONTINUOUS
 10
-5.9100277979
 20
-1.75
 11
-6.1100277979
 21
-1.7499999991
  0
LINE
  5
2EE
100
AcDbEntity
  8
RACCORDO
100
AcDbLine
 62
250
  6
CONTINUOUS
 10
-10.6279080608
 20
21.9522367248
 11
-10.7354083976
 21
22.275
  0
LINE
  5
2EF
100
AcDbEntity
  8
RACCORDO
100
AcDbLine
 62
250
  6
CONTINUOUS
 10
5.6899722021
 20
1.75
 11
5.8899722021
 21
1.7499999991
  0
LINE
  5
2F0
100
AcDbEntity
  8
RACCORDO
100
AcDbLine
 62
250
  6
CONTINUOUS
 10
-5.9100277979
 20
1.75
 11
-6.1100277979
 21
1.75
  0
LINE
  5
2F1
100
AcDbEntity
  8
RACCORDO
100
AcDbLine
 62
250
  6
CONTINUOUS
 10
5.3899722021
 20
2.05
 11
-5.6100277979
 21
2.05
  0
LINE
  5
2F2
100
AcDbEntity
  8
RACCORDO
100
AcDbLine
 62
250
  6
CONTINUOUS
 10
3.7811685056
 20
-23.7825449351
 11
3.7811685056
 21
-22.3825449351
  0
LINE
  5
2F3
100
AcDbEntity
  8
RACCORDO
100
AcDbLine
 62
250
  6
CONTINUOUS
 10
3.7811685056
 20
22.3825449351
 11
3.7811685056
 21
23.7825449351
  0
LINE
  5
2F4
100
AcDbEntity
  8
RACCORDO
100
AcDbLine
 62
250
  6
CONTINUOUS
 10
10.5153528018
 20
22.275
 11
10.407852465
 21
21.9522367248
  0
LINE
  5
2F5
100
AcDbEntity
  8
RACCORDO
100
AcDbLine
 62
250
  6
CONTINUOUS
 10
11.0149722021
 20
21.7747711479
 11
10.9077763126
 21
21.4529219575
  0
LINE
  5
2F6
100
AcDbEntity
  8
RACCORDO
100
AcDbLine
 62
7
  6
CONTINUOUS
 10
5.3899722021
 20
2.25
 11
-5.6100277979
 21
2.25
  0
LINE
  5
2F7
100
AcDbEntity
  8
RACCORDO
100
AcDbLine
 62
250
  6
CONTINUOUS
 10
10.407852465
 20
-21.9522367248
 11
10.5153528018
 21
-22.275
  0
LINE
  5
2F8
100
AcDbEntity
  8
RACCORDO
100
AcDbLine
 62
250
  6
CONTINUOUS
 10
10.9077763126
 20
-21.4529219575
 11
11.0149722021
 21
-21.7747711479
  0
LINE
  5
2F9
100
AcDbEntity
  8
RACCORDO
100
AcDbLine
 62
250
  6
CONTINUOUS
 10
4.2810923532
 20
-23.7911201511
 11
4.2810923532
 21
-22.3911201511
  0
LINE
  5
2FA
100
AcDbEntity
  8
RACCORDO
100
AcDbLine
 62
250
  6
CONTINUOUS
 10
4.2810923532
 20
22.3911201511
 11
4.2810923532
 21
23.7911201511
  0
LINE
  5
2FB
100
AcDbEntity
  8
DRAFT
100
AcDbLine
 62
7
  6
CONTINUOUS
 10
4.2899722021
 20
-23.8
 11
4.2899722021
 21
-22.4
  0
LINE
  5
2FC
100
AcDbEntity
  8
DRAFT
100
AcDbLine
 62
7
  6
CONTINUOUS
 10
4.2899722021
 20
22.4
 11
4.2899722021
 21
23.8
  0
LINE
  5
2FD
100
AcDbEntity
  8
RACCORDO
100
AcDbLine
 62
250
  6
CONTINUOUS
 10
5.3899722021
 20
-2.05
 11
5.3899722012
 21
-2.25
  0
LINE
  5
2FE
100
AcDbEntity
  8
RACCORDO
100
AcDbLine
 62
250
  6
CONTINUOUS
 10
5.3899722021
 20
2.05
 11
5.3899722021
 21
2.25
  0
LINE
  5
2FF
100
AcDbEntity
  8
RACCORDO
100
AcDbLine
 62
250
  6
CONTINUOUS
 10
5.6899722021
 20
-1.75
 11
5.6899722021
 21
1.75
  0
LINE
  5
300
100
AcDbEntity
  8
RACCORDO
100
AcDbLine
 62
7
  6
CONTINUOUS
 10
5.8899722021
 20
-1.75
 11
5.8899722021
 21
1.75
  0
LWPOLYLINE
  5
301
100
AcDbEntity
  8
RACCORDO
100
AcDbPolyline
 62
250
  6
CONTINUOUS
 90
13
 70
0
 10
8.1793222564
 20
-24.2106880219
 10
8.181487128
 20
-24.2434392119
 10
8.1879267566
 20
-24.2756342186
 10
8.1985334356
 20
-24.306716969
 10
8.2131287631
 20
-24.3361522732
 10
8.2314630076
 20
-24.3634274759
 10
8.2532162289
 20
-24.3880633735
 10
8.2780675579
 20
-24.4096758765
 10
8.3055436208
 20
-24.4278351353
 10
8.3349680832
 20
-24.4421445813
 10
8.3657307124
 20
-24.4524163023
 10
8.397349758
 20
-24.4585919013
 10
8.4292841802
 20
-24.4606499457
  0
LWPOLYLINE
  5
302
100
AcDbEntity
  8
RACCORDO
100
AcDbPolyline
 62
7
  6
CONTINUOUS
 90
13
 70
0
 10
8.1399722021
 20
-24.2500380762
 10
8.1421119764
 20
-24.2826601662
 10
8.1484907261
 20
-24.3147254041
 10
8.1590000901
 20
-24.3456854016
 10
8.1734613632
 20
-24.3750111262
 10
8.1916277184
 20
-24.4021999127
 10
8.2131876218
 20
-24.4267845804
 10
8.2377722894
 20
-24.4483444837
 10
8.2649610759
 20
-24.4665108389
 10
8.2942868005
 20
-24.480972112
 10
8.325246798
 20
-24.491481476
 10
8.3573120359
 20
-24.4978602257
 10
8.3899341259
 20
-24.5
  0
LWPOLYLINE
  5
303
100
AcDbEntity
  8
RACCORDO
100
AcDbPolyline
 62
250
  6
CONTINUOUS
 90
7
 70
0
 10
8.4161928815
 20
-23.1948185145
 10
8.4153281263
 20
-23.1788019821
 10
8.4145533853
 20
-23.1600762537
 10
8.4138686584
 20
-23.1389011512
 10
8.4132673338
 20
-23.115573723
 10
8.4127560233
 20
-23.0904097394
 10
8.4123545627
 20
-23.0637357311
  0
LINE
  5
304
100
AcDbEntity
  8
RACCORDO
100
AcDbLine
 62
250
  6
CONTINUOUS
 10
8.4292841802
 20
-23.6278312164
 11
8.4161928815
 21
-23.1948185145
  0
LINE
  5
305
100
AcDbEntity
  8
RACCORDO
100
AcDbLine
 62
250
  6
CONTINUOUS
 10
8.1655798452
 20
-23.3873978104
 11
8.1793222564
 21
-23.8443375673
  0
LINE
  5
306
100
AcDbEntity
  8
RACCORDO
100
AcDbLine
 62
250
  6
CONTINUOUS
 10
8.164420352
 20
-23.3316828652
 11
8.1655798452
 21
-23.3873978104
  0
LINE
  5
307
100
AcDbEntity
  8
RACCORDO
100
AcDbLine
 62
250
  6
CONTINUOUS
 10
8.1634450194
 20
-23.2650033778
 11
8.164420352
 21
-23.3316828652
  0
LINE
  5
308
100
AcDbEntity
  8
RACCORDO
100
AcDbLine
 62
250
  6
CONTINUOUS
 10
8.1644174547
 20
23.3315215339
 11
8.1634417125
 21
23.2647266173
  0
LINE
  5
309
100
AcDbEntity
  8
RACCORDO
100
AcDbLine
 62
250
  6
CONTINUOUS
 10
8.1655785805
 20
23.3873424083
 11
8.1644174547
 21
23.3315215339
  0
LINE
  5
30A
100
AcDbEntity
  8
RACCORDO
100
AcDbLine
 62
250
  6
CONTINUOUS
 10
8.1655785805
 20
23.3873424083
 11
8.1793222564
 21
23.8443375673
  0
LINE
  5
30B
100
AcDbEntity
  8
RACCORDO
100
AcDbLine
 62
250
  6
CONTINUOUS
 10
8.4161928815
 20
23.1948185145
 11
8.4292841802
 21
23.6278312164
  0
LWPOLYLINE
  5
30C
100
AcDbEntity
  8
RACCORDO
100
AcDbPolyline
 62
7
  6
CONTINUOUS
 90
13
 70
0
 10
8.1399722021
 20
24.2500380762
 10
8.1421119764
 20
24.2826601662
 10
8.1484907261
 20
24.3147254041
 10
8.1590000901
 20
24.3456854016
 10
8.1734613632
 20
24.3750111262
 10
8.1916277184
 20
24.4021999127
 10
8.2131876218
 20
24.4267845804
 10
8.2377722894
 20
24.4483444837
 10
8.2649610759
 20
24.4665108389
 10
8.2942868005
 20
24.480972112
 10
8.325246798
 20
24.491481476
 10
8.3573120359
 20
24.4978602257
 10
8.3899341259
 20
24.5
  0
LWPOLYLINE
  5
30D
100
AcDbEntity
  8
RACCORDO
100
AcDbPolyline
 62
250
  6
CONTINUOUS
 90
13
 70
0
 10
8.1793222564
 20
24.2106880219
 10
8.181487128
 20
24.2434392119
 10
8.1879267566
 20
24.2756342186
 10
8.1985334356
 20
24.306716969
 10
8.2131287631
 20
24.3361522732
 10
8.2314630076
 20
24.3634274759
 10
8.2532162289
 20
24.3880633735
 10
8.2780675579
 20
24.4096758765
 10
8.3055436208
 20
24.4278351353
 10
8.3349680832
 20
24.4421445813
 10
8.3657307124
 20
24.4524163023
 10
8.397349758
 20
24.4585919013
 10
8.4292841802
 20
24.4606499457
  0
LWPOLYLINE
  5
30E
100
AcDbEntity
  8
RACCORDO
100
AcDbPolyline
 62
250
  6
CONTINUOUS
 90
9
 70
0
 10
10.407852465
 20
21.9522367248
 10
10.4066192307
 20
21.9430093688
 10
10.4054085439
 20
21.9264145481
 10
10.4042204047
 20
21.9025363698
 10
10.4030492777
 20
21.8714971343
 10
10.4019006982
 20
21.8334510126
 10
10.4007912721
 20
21.7885788612
 10
10.3997213443
 20
21.7370914353
 10
10.3977145196
 20
21.6153558595
  0
LWPOLYLINE
  5
30F
100
AcDbEntity
  8
RACCORDO
100
AcDbPolyline
 62
250
  6
CONTINUOUS
 90
9
 70
0
 10
10.9077763126
 20
21.4529219575
 10
10.9065480768
 20
21.4467069759
 10
10.9053407211
 20
21.4357145333
 10
10.9041542454
 20
21.4199446296
 10
10.9029825436
 20
21.3992731996
 10
10.9018317218
 20
21.3738243086
 10
10.9007200986
 20
21.3439701519
 10
10.8996485587
 20
21.3096387631
 10
10.8976387382
 20
21.2283482841
  0
LWPOLYLINE
  5
310
100
AcDbEntity
  8
RACCORDO
100
AcDbPolyline
 62
250
  6
CONTINUOUS
 90
13
 70
0
 10
10.5006221478
 20
-23.8443375673
 10
10.4982242049
 20
-23.81623285
 10
10.4916372403
 20
-23.7886036918
 10
10.4809727117
 20
-23.7619176045
 10
10.4664110734
 20
-23.7366261426
 10
10.4481987222
 20
-23.7131572621
 10
10.4266438288
 20
-23.6919080791
 10
10.4021111228
 20
-23.6732381504
 10
10.3750157212
 20
-23.657463389
 10
10.3458161045
 20
-23.6448507193
 10
10.3150063584
 20
-23.6356135598
 10
10.2831078135
 20
-23.6299082121
 10
10.250660224
 20
-23.6278312164
  0
LWPOLYLINE
  5
311
100
AcDbEntity
  8
RACCORDO
100
AcDbPolyline
 62
250
  6
CONTINUOUS
 90
13
 70
0
 10
10.5137134465
 20
-23.4113248654
 10
10.5113155057
 20
-23.3832201611
 10
10.5047285459
 20
-23.3555910112
 10
10.4940640228
 20
-23.3289049277
 10
10.4795023879
 20
-23.3036134639
 10
10.461290037
 20
-23.2801445779
 10
10.4397351425
 20
-23.2588953899
 10
10.4152024355
 20
-23.2402254574
 10
10.3881070322
 20
-23.2244506929
 10
10.358907413
 20
-23.2118380207
 10
10.3280976639
 20
-23.2026008593
 10
10.2961991157
 20
-23.1968955105
 10
10.2637515227
 20
-23.1948185144
  0
LINE
  5
312
100
AcDbEntity
  8
RACCORDO
100
AcDbLine
 62
250
  6
CONTINUOUS
 10
8.1623958557
 20
-23.1496129033
 11
8.1634450194
 21
-23.2650033778
  0
LINE
  5
313
100
AcDbEntity
  8
RACCORDO
100
AcDbLine
 62
250
  6
CONTINUOUS
 10
8.4123545627
 20
-23.0637357311
 11
8.4118944146
 21
-23.0073030986
  0
LINE
  5
314
100
AcDbEntity
  8
RACCORDO
100
AcDbLine
 62
250
  6
CONTINUOUS
 10
8.1619035193
 20
-23.0226656262
 11
8.1623958557
 21
-23.1496129033
  0
LINE
  5
315
100
AcDbEntity
  8
RACCORDO
100
AcDbLine
 62
7
  6
CONTINUOUS
 10
8.1399722021
 20
-24.2500095192
 11
8.1399722021
 21
-23.1226497308
  0
LINE
  5
316
100
AcDbEntity
  8
RACCORDO
100
AcDbLine
 62
7
  6
CONTINUOUS
 10
8.1399722021
 20
22.4
 11
8.1399722021
 21
24.2500095192
  0
LINE
  5
317
100
AcDbEntity
  8
RACCORDO
100
AcDbLine
 62
7
  6
CONTINUOUS
 10
8.1444121266
 20
-22.3955600755
 11
8.1444121266
 21
-22.9757931256
  0
LINE
  5
318
100
AcDbEntity
  8
RACCORDO
100
AcDbLine
 62
250
  6
CONTINUOUS
 10
8.1619035193
 20
-23.0226656262
 11
8.1618671915
 21
-22.3781050106
  0
LINE
  5
319
100
AcDbEntity
  8
RACCORDO
100
AcDbLine
 62
250
  6
CONTINUOUS
 10
8.1793222564
 20
-24.2106880219
 11
8.1793222564
 21
-23.8443375673
  0
LINE
  5
31A
100
AcDbEntity
  8
RACCORDO
100
AcDbLine
 62
250
  6
CONTINUOUS
 10
8.1793222564
 20
23.8443375673
 11
8.1793222564
 21
24.2106880219
  0
LINE
  5
31B
100
AcDbEntity
  8
RACCORDO
100
AcDbLine
 62
250
  6
CONTINUOUS
 10
8.4118944146
 20
-23.0073030986
 11
8.4118291153
 21
-22.3738174026
  0
LINE
  5
31C
100
AcDbEntity
  8
RACCORDO
100
AcDbLine
 62
250
  6
CONTINUOUS
 10
8.4292841802
 20
-24.4606499457
 11
8.4292841802
 21
-23.6278312164
  0
LINE
  5
31D
100
AcDbEntity
  8
RACCORDO
100
AcDbLine
 62
250
  6
CONTINUOUS
 10
8.4292841802
 20
23.6278312164
 11
8.4292841802
 21
24.4606499457
  0
LINE
  5
31E
100
AcDbEntity
  8
RACCORDO
100
AcDbLine
 62
250
  6
CONTINUOUS
 10
8.4118291153
 20
22.3738174026
 11
8.4118951411
 21
23.0073881269
  0
LINE
  5
31F
100
AcDbEntity
  8
RACCORDO
100
AcDbLine
 62
250
  6
CONTINUOUS
 10
8.1621657433
 20
23.1079535198
 11
8.1618671915
 21
22.3781050106
  0
LWPOLYLINE
  5
320
100
AcDbEntity
  8
RACCORDO
100
AcDbPolyline
 62
250
  6
CONTINUOUS
 90
8
 70
0
 10
8.4118951411
 20
23.0073881269
 10
8.4123566637
 20
23.0639167563
 10
8.4127589796
 20
23.0906010594
 10
8.4132711192
 20
23.1157526497
 10
8.413872625
 20
23.139048837
 10
8.4145566777
 20
23.1601791652
 10
8.4153300965
 20
23.1788531564
 10
8.4161928815
 20
23.1948185145
  0
LWPOLYLINE
  5
321
100
AcDbEntity
  8
RACCORDO
100
AcDbPolyline
 62
250
  6
CONTINUOUS
 90
3
 70
0
 10
8.1634417125
 20
23.2647266173
 10
8.1630348376
 20
23.2281503222
 10
8.1621657433
 20
23.1079535198
  0
LINE
  5
322
100
AcDbEntity
  8
RACCORDO
100
AcDbLine
 62
7
  6
CONTINUOUS
 10
8.1444121266
 20
-22.9757931256
 11
8.1399722021
 21
-23.1226497308
  0
LWPOLYLINE
  5
323
100
AcDbEntity
  8
RACCORDO
100
AcDbPolyline
 62
250
  6
CONTINUOUS
 90
13
 70
0
 10
10.5006221478
 20
23.8443375673
 10
10.4982545628
 20
23.8164217673
 10
10.4917358373
 20
23.7889150195
 10
10.4811495146
 20
23.7622828261
 10
10.4666374876
 20
23.7369636878
 10
10.4484277956
 20
23.7134152498
 10
10.4268563757
 20
23.692092397
 10
10.4023076953
 20
23.6733694306
 10
10.375184847
 20
23.6575487486
 10
10.3459493283
 20
23.6448992659
 10
10.3150979633
 20
23.6356354041
 10
10.2831541923
 20
23.6299138253
 10
10.250660224
 20
23.6278312164
  0
LWPOLYLINE
  5
324
100
AcDbEntity
  8
RACCORDO
100
AcDbPolyline
 62
250
  6
CONTINUOUS
 90
13
 70
0
 10
10.5137134465
 20
23.4113248654
 10
10.5113155201
 20
23.3832202505
 10
10.5047285933
 20
23.3555911608
 10
10.4940641096
 20
23.3289051068
 10
10.4795025044
 20
23.3036136376
 10
10.4612901648
 20
23.280144722
 10
10.4397352711
 20
23.2588955016
 10
10.4152025583
 20
23.2402255398
 10
10.3881071384
 20
23.2244507468
 10
10.3589074967
 20
23.2118380514
 10
10.3280977222
 20
23.2026008734
 10
10.2961991456
 20
23.1968955143
 10
10.2637515227
 20
23.1948185144
  0
LINE
  5
325
100
AcDbEntity
  8
RACCORDO
100
AcDbLine
 62
7
  6
CONTINUOUS
 10
-10.7381328085
 20
-22.3781050106
 11
-10.7598211046
 21
-22.3997933067
  0
LINE
  5
326
100
AcDbEntity
  8
RACCORDO
100
AcDbLine
 62
250
  6
CONTINUOUS
 10
-10.7600277979
 20
-24.2500380762
 11
-10.7206777436
 21
-24.2106880219
  0
LINE
  5
327
100
AcDbEntity
  8
DRAFT
100
AcDbLine
 62
7
  6
CONTINUOUS
 10
11.0399722021
 20
8.5
 11
11.0149722021
 21
8.5
  0
LINE
  5
328
100
AcDbEntity
  8
DRAFT
100
AcDbLine
 62
7
  6
CONTINUOUS
 10
-11.2600277979
 20
8.5
 11
-11.2350277979
 21
8.5
  0
LINE
  5
329
100
AcDbEntity
  8
RACCORDO
100
AcDbLine
 62
7
  6
CONTINUOUS
 10
-10.7381328085
 20
22.3781050106
 11
-10.7598211046
 21
22.3997933067
  0
LINE
  5
32A
100
AcDbEntity
  8
RACCORDO
100
AcDbLine
 62
250
  6
CONTINUOUS
 10
-10.7206777436
 20
24.2106880219
 11
-10.7600277979
 21
24.2500380762
  0
LWPOLYLINE
  5
32B
100
AcDbEntity
  8
RACCORDO
100
AcDbPolyline
 62
250
  6
CONTINUOUS
 90
13
 70
0
 10
8.1793222564
 20
23.8443375673
 10
8.1817297994
 20
23.8161733604
 10
8.1883424845
 20
23.7884926018
 10
8.1990457742
 20
23.7617651234
 10
8.213654355
 20
23.7364462824
 10
8.2319190304
 20
23.7129625587
 10
8.253534097
 20
23.6917060761
 10
8.2781558044
 20
23.6730233303
 10
8.3053491168
 20
23.6572518488
 10
8.3345825441
 20
23.6446857775
 10
8.3653246091
 20
23.635521734
 10
8.3970708888
 20
23.6298799725
 10
8.4292841802
 20
23.6278312164
  0
LWPOLYLINE
  5
32C
100
AcDbEntity
  8
RACCORDO
100
AcDbPolyline
 62
250
  6
CONTINUOUS
 90
13
 70
0
 10
8.1662309577
 20
23.4113248654
 10
8.1686288844
 20
23.3832202483
 10
8.1752158121
 20
23.355591157
 10
8.1858802968
 20
23.3289051021
 10
8.2004419029
 20
23.3036136327
 10
8.2186542432
 20
23.2801447175
 10
8.2402091372
 20
23.2588954978
 10
8.2647418498
 20
23.2402255369
 10
8.2918372692
 20
23.2244507449
 10
8.3210369102
 20
23.2118380503
 10
8.3518466839
 20
23.2026008728
 10
8.3837452596
 20
23.1968955141
 10
8.4161928815
 20
23.1948185144
  0
LWPOLYLINE
  5
32D
100
AcDbEntity
  8
RACCORDO
100
AcDbPolyline
 62
250
  6
CONTINUOUS
 90
8
 70
0
 10
10.8996518129
 20
-21.3097511478
 10
10.9007230755
 20
-21.3440547649
 10
10.9018345281
 20
-21.3738890016
 10
10.9029851771
 20
-21.3993220005
 10
10.9041565294
 20
-21.419979247
 10
10.9053424205
 20
-21.4357359029
 10
10.9065490149
 20
-21.4467168064
 10
10.9077763126
 20
-21.4529219575
  0
LINE
  5
32E
100
AcDbEntity
  8
RACCORDO
100
AcDbLine
 62
250
  6
CONTINUOUS
 10
10.250660224
 20
23.6278312164
 11
10.2637515227
 21
23.1948185145
  0
LINE
  5
32F
100
AcDbEntity
  8
RACCORDO
100
AcDbLine
 62
250
  6
CONTINUOUS
 10
10.5143658237
 20
23.3873424069
 11
10.5006221478
 21
23.8443375673
  0
LWPOLYLINE
  5
330
100
AcDbEntity
  8
RACCORDO
100
AcDbPolyline
 62
250
  6
CONTINUOUS
 90
7
 70
0
 10
10.4007914197
 20
-21.7885808213
 10
10.4019008674
 20
-21.8334535519
 10
10.4030494969
 20
-21.8715006621
 10
10.4042206383
 20
-21.9025396838
 10
10.4054087352
 20
-21.9264166273
 10
10.4066193441
 20
-21.9430101759
 10
10.407852465
 20
-21.9522367248
  0
LINE
  5
331
100
AcDbEntity
  8
RACCORDO
100
AcDbLine
 62
250
  6
CONTINUOUS
 10
10.897642389
 20
-21.2285191432
 11
10.8996518129
 21
-21.3097511478
  0
LINE
  5
332
100
AcDbEntity
  8
RACCORDO
100
AcDbLine
 62
250
  6
CONTINUOUS
 10
10.5155269495
 20
23.3315215311
 11
10.5143658237
 21
23.3873424069
  0
LINE
  5
333
100
AcDbEntity
  8
RACCORDO
100
AcDbLine
 62
250
  6
CONTINUOUS
 10
10.3986908382
 20
-21.6792553125
 11
10.4007914197
 21
-21.7885808213
  0
LINE
  5
334
100
AcDbEntity
  8
RACCORDO
100
AcDbLine
 62
250
  6
CONTINUOUS
 10
10.8958537777
 20
-21.1319016898
 11
10.897642389
 21
-21.2285191432
  0
LWPOLYLINE
  5
335
100
AcDbEntity
  8
RACCORDO
100
AcDbPolyline
 62
250
  6
CONTINUOUS
 90
7
 70
0
 10
10.2675877405
 20
23.0639167973
 10
10.267185424
 20
23.0906011013
 10
10.2666732837
 20
23.1157526871
 10
10.2660717776
 20
23.1390488667
 10
10.2653877251
 20
23.1601791856
 10
10.2646143068
 20
23.1788531664
 10
10.2637515227
 20
23.1948185145
  0
LINE
  5
336
100
AcDbEntity
  8
RACCORDO
100
AcDbLine
 62
250
  6
CONTINUOUS
 10
10.3967945852
 20
-21.5457617335
 11
10.3986908382
 21
-21.6792553125
  0
LINE
  5
337
100
AcDbEntity
  8
RACCORDO
100
AcDbLine
 62
250
  6
CONTINUOUS
 10
10.5165026916
 20
23.2647266149
 11
10.5155269495
 21
23.3315215311
  0
LINE
  5
338
100
AcDbEntity
  8
RACCORDO
100
AcDbLine
 62
250
  6
CONTINUOUS
 10
10.8943224541
 20
-21.0221048229
 11
10.8958537777
 21
-21.1319016898
  0
LINE
  5
339
100
AcDbEntity
  8
RACCORDO
100
AcDbLine
 62
250
  6
CONTINUOUS
 10
10.3951305332
 20
-21.3907534703
 11
10.3967945852
 21
-21.5457617335
  0
LINE
  5
33A
100
AcDbEntity
  8
RACCORDO
100
AcDbLine
 62
250
  6
CONTINUOUS
 10
10.8930710424
 20
-20.9007560705
 11
10.8943224541
 21
-21.0221048229
  0
LINE
  5
33B
100
AcDbEntity
  8
RACCORDO
100
AcDbLine
 62
250
  6
CONTINUOUS
 10
10.3937362462
 20
-21.2171349204
 11
10.3951305332
 21
-21.3907534703
  0
LINE
  5
33C
100
AcDbEntity
  8
RACCORDO
100
AcDbLine
 62
250
  6
CONTINUOUS
 10
10.5175502447
 20
23.149341889
 11
10.5165026916
 21
23.2647266149
  0
LINE
  5
33D
100
AcDbEntity
  8
RACCORDO
100
AcDbLine
 62
250
  6
CONTINUOUS
 10
10.8921314947
 20
-20.7705287919
 11
10.8930710424
 21
-20.9007560705
  0
LINE
  5
33E
100
AcDbEntity
  8
RACCORDO
100
AcDbLine
 62
250
  6
CONTINUOUS
 10
10.2680492633
 20
23.0073881466
 11
10.2675877405
 21
23.0639167973
  0
LINE
  5
33F
100
AcDbEntity
  8
RACCORDO
100
AcDbLine
 62
250
  6
CONTINUOUS
 10
10.3926415506
 20
-21.0284618408
 11
10.3937362462
 21
-21.2171349204
  0
LINE
  5
340
100
AcDbEntity
  8
RACCORDO
100
AcDbLine
 62
250
  6
CONTINUOUS
 10
10.8915222121
 20
-20.6350336794
 11
10.8921314947
 21
-20.7705287919
  0
LINE
  5
341
100
AcDbEntity
  8
RACCORDO
100
AcDbLine
 62
250
  6
CONTINUOUS
 10
10.391862716
 20
-20.8284819094
 11
10.3926415506
 21
-21.0284618408
  0
LINE
  5
342
100
AcDbEntity
  8
RACCORDO
100
AcDbLine
 62
250
  6
CONTINUOUS
 10
10.5180410892
 20
23.0225753456
 11
10.5175502447
 21
23.149341889
  0
LINE
  5
343
100
AcDbEntity
  8
RACCORDO
100
AcDbLine
 62
250
  6
CONTINUOUS
 10
10.891249475
 20
-20.4953241026
 11
10.8915222121
 21
-20.6350336794
  0
LINE
  5
344
100
AcDbEntity
  8
RACCORDO
100
AcDbLine
 62
250
  6
CONTINUOUS
 10
10.3913256275
 20
-20.5158399425
 11
10.391862716
 21
-20.8284819094
  0
LINE
  5
345
100
AcDbEntity
  8
RACCORDO
100
AcDbLine
 62
250
  6
CONTINUOUS
 10
10.250660224
 20
-23.6278312164
 11
10.250660224
 21
-24.4606499457
  0
LINE
  5
346
100
AcDbEntity
  8
RACCORDO
100
AcDbLine
 62
250
  6
CONTINUOUS
 10
10.250660224
 20
23.6278312164
 11
10.250660224
 21
24.4606499457
  0
LINE
  5
347
100
AcDbEntity
  8
RACCORDO
100
AcDbLine
 62
250
  6
CONTINUOUS
 10
10.2680492633
 20
23.0073881466
 11
10.2681152889
 21
22.3738174026
  0
LINE
  5
348
100
AcDbEntity
  8
RACCORDO
100
AcDbLine
 62
250
  6
CONTINUOUS
 10
10.5006221478
 20
24.2106880219
 11
10.5006221478
 21
23.8443375673
  0
LINE
  5
349
100
AcDbEntity
  8
RACCORDO
100
AcDbLine
 62
250
  6
CONTINUOUS
 10
10.5006221478
 20
-23.8443375673
 11
10.5006221478
 21
-24.2106880219
  0
LINE
  5
34A
100
AcDbEntity
  8
RACCORDO
100
AcDbLine
 62
250
  6
CONTINUOUS
 10
10.5180410892
 20
23.0225753456
 11
10.5180772127
 21
22.3781050106
  0
LINE
  5
34B
100
AcDbEntity
  8
RACCORDO
100
AcDbLine
 62
7
  6
CONTINUOUS
 10
10.5399722021
 20
-24.2500095192
 11
10.5399722021
 21
-22.399689968
  0
LINE
  5
34C
100
AcDbEntity
  8
RACCORDO
100
AcDbLine
 62
7
  6
CONTINUOUS
 10
10.5399722021
 20
22.399689968
 11
10.5399722021
 21
24.2500095192
  0
LINE
  5
34D
100
AcDbEntity
  8
RACCORDO
100
AcDbLine
 62
7
  6
CONTINUOUS
 10
11.0149722021
 20
21.7747711479
 11
11.0149722021
 21
-21.7747711479
  0
LINE
  5
34E
100
AcDbEntity
  8
ASSI
100
AcDbLine
 62
7
  6
CONTINUOUS
 10
11.0399722021
 20
17.6716990487
 11
11.0399722021
 21
-17.6716990487
  0
LINE
  5
34F
100
AcDbEntity
  8
DRAFT
100
AcDbLine
 62
7
  6
CONTINUOUS
 10
11.0399722021
 20
-8.5
 11
11.0399722021
 21
8.5
  0
LINE
  5
350
100
AcDbEntity
  8
RACCORDO
100
AcDbLine
 62
7
  6
CONTINUOUS
 10
11.0399722021
 20
-21.8911779406
 11
11.0399722021
 21
21.8911779406
  0
LWPOLYLINE
  5
351
100
AcDbEntity
  8
RACCORDO
100
AcDbPolyline
 62
250
  6
CONTINUOUS
 90
9
 70
0
 10
10.3884249017
 20
15.9585343899
 10
10.3862493573
 20
11.3999013657
 10
10.3847989945
 20
6.840320088
 10
10.3840738131
 20
2.2801698992
 10
10.3840738131
 20
-2.2801699017
 10
10.3847989946
 20
-6.8403200903
 10
10.3862493575
 20
-11.3999013674
 10
10.3884249018
 20
-15.9585343909
 10
10.3913256275
 20
-20.5158399425
  0
LWPOLYLINE
  5
352
100
AcDbEntity
  8
RACCORDO
100
AcDbPolyline
 62
250
  6
CONTINUOUS
 90
9
 70
0
 10
10.8883487515
 20
15.9419548207
 10
10.8861732085
 20
11.3880126171
 10
10.8847228463
 20
6.8334974917
 10
10.8839976644
 20
2.278027944
 10
10.8839976632
 20
-2.2780145254
 10
10.8847228436
 20
-6.8334854149
 10
10.8861732058
 20
-11.388003224
 10
10.8883487496
 20
-15.9419494533
 10
10.891249475
 20
-20.4953241026
  0
LINE
  5
353
100
AcDbEntity
  8
RACCORDO
100
AcDbLine
 62
250
  6
CONTINUOUS
 10
10.3916003292
 20
20.7254356338
 11
10.3884249017
 21
15.9585343899
  0
LINE
  5
354
100
AcDbEntity
  8
RACCORDO
100
AcDbLine
 62
250
  6
CONTINUOUS
 10
10.2680499895
 20
-23.0073030817
 11
10.2681152889
 21
-22.3738174026
  0
LINE
  5
355
100
AcDbEntity
  8
RACCORDO
100
AcDbLine
 62
250
  6
CONTINUOUS
 10
10.891521859
 20
20.634936221
 11
10.8883487515
 21
15.9419548207
  0
LINE
  5
356
100
AcDbEntity
  8
RACCORDO
100
AcDbLine
 62
250
  6
CONTINUOUS
 10
10.3922104633
 20
20.9296415757
 11
10.3916003292
 21
20.7254356338
  0
LINE
  5
357
100
AcDbEntity
  8
RACCORDO
100
AcDbLine
 62
250
  6
CONTINUOUS
 10
10.5177776725
 20
-23.1081776344
 11
10.5180772127
 21
-22.3781050106
  0
LINE
  5
358
100
AcDbEntity
  8
RACCORDO
100
AcDbLine
 62
250
  6
CONTINUOUS
 10
10.892130674
 20
20.7703775854
 11
10.891521859
 21
20.634936221
  0
LINE
  5
359
100
AcDbEntity
  8
RACCORDO
100
AcDbLine
 62
250
  6
CONTINUOUS
 10
10.3931497477
 20
21.1244395269
 11
10.3922104633
 21
20.9296415757
  0
LINE
  5
35A
100
AcDbEntity
  8
RACCORDO
100
AcDbLine
 62
250
  6
CONTINUOUS
 10
10.3943997042
 20
21.3060514829
 11
10.3931497477
 21
21.1244395269
  0
LINE
  5
35B
100
AcDbEntity
  8
RACCORDO
100
AcDbLine
 62
250
  6
CONTINUOUS
 10
10.8930696012
 20
20.9005847925
 11
10.892130674
 21
20.7703775854
  0
LINE
  5
35C
100
AcDbEntity
  8
RACCORDO
100
AcDbLine
 62
250
  6
CONTINUOUS
 10
10.5169064624
 20
-23.2284583579
 11
10.5177776725
 21
-23.1081776344
  0
LINE
  5
35D
100
AcDbEntity
  8
RACCORDO
100
AcDbLine
 62
250
  6
CONTINUOUS
 10
10.3959287376
 20
21.4707657316
 11
10.3943997042
 21
21.3060514829
  0
LINE
  5
35E
100
AcDbEntity
  8
RACCORDO
100
AcDbLine
 62
250
  6
CONTINUOUS
 10
10.8943199793
 20
21.0219011412
 11
10.8930696012
 21
20.9005847925
  0
LINE
  5
35F
100
AcDbEntity
  8
RACCORDO
100
AcDbLine
 62
250
  6
CONTINUOUS
 10
10.3977145196
 20
21.6153558595
 11
10.3959287376
 21
21.4707657316
  0
LINE
  5
360
100
AcDbEntity
  8
RACCORDO
100
AcDbLine
 62
250
  6
CONTINUOUS
 10
10.5160355072
 20
-23.2996532663
 11
10.5169064624
 21
-23.2284583579
  0
LINE
  5
361
100
AcDbEntity
  8
RACCORDO
100
AcDbLine
 62
250
  6
CONTINUOUS
 10
10.8958504916
 20
21.1316964589
 11
10.8943199793
 21
21.0219011412
  0
LINE
  5
362
100
AcDbEntity
  8
RACCORDO
100
AcDbLine
 62
250
  6
CONTINUOUS
 10
10.8976387382
 20
21.2283482841
 11
10.8958504916
 21
21.1316964589
  0
LWPOLYLINE
  5
363
100
AcDbEntity
  8
RACCORDO
100
AcDbPolyline
 62
250
  6
CONTINUOUS
 90
3
 70
0
 10
10.5143645591
 20
-23.3873978149
 10
10.5149680944
 20
-23.3608504841
 10
10.5160355072
 20
-23.2996532663
  0
LINE
  5
364
100
AcDbEntity
  8
RACCORDO
100
AcDbLine
 62
250
  6
CONTINUOUS
 10
10.2637515227
 20
-23.1948185145
 11
10.250660224
 21
-23.6278312164
  0
LINE
  5
365
100
AcDbEntity
  8
RACCORDO
100
AcDbLine
 62
250
  6
CONTINUOUS
 10
10.5143645591
 20
-23.3873978149
 11
10.5006221478
 21
-23.8443375673
  0
LWPOLYLINE
  5
366
100
AcDbEntity
  8
RACCORDO
100
AcDbPolyline
 62
250
  6
CONTINUOUS
 90
8
 70
0
 10
10.2637515227
 20
-23.1948185145
 10
10.2646162787
 20
-23.1788019702
 10
10.2653910203
 20
-23.1600762301
 10
10.2660757474
 20
-23.1389011178
 10
10.2666770717
 20
-23.1155736837
 10
10.2671883815
 20
-23.090409699
 10
10.2675898417
 20
-23.063735694
 10
10.2680499895
 20
-23.0073030817
  0
LWPOLYLINE
  5
367
100
AcDbEntity
  8
RACCORDO
100
AcDbPolyline
 62
250
  6
CONTINUOUS
 90
13
 70
0
 10
8.1662309577
 20
-23.4113248654
 10
8.1686288981
 20
-23.3832201637
 10
8.1752158571
 20
-23.3555910155
 10
8.1858803791
 20
-23.3289049328
 10
8.2004420133
 20
-23.3036134687
 10
8.2186543642
 20
-23.2801445817
 10
8.2402092588
 20
-23.2588953927
 10
8.2647419661
 20
-23.2402254596
 10
8.2918373697
 20
-23.2244506944
 10
8.3210369894
 20
-23.2118380216
 10
8.351846739
 20
-23.2026008598
 10
8.3837452879
 20
-23.1968955107
 10
8.4161928815
 20
-23.1948185144
  0
LWPOLYLINE
  5
368
100
AcDbEntity
  8
RACCORDO
100
AcDbPolyline
 62
250
  6
CONTINUOUS
 90
13
 70
0
 10
8.1793222564
 20
-23.8443375673
 10
8.1817297994
 20
-23.8161733604
 10
8.1883424845
 20
-23.7884926018
 10
8.1990457742
 20
-23.7617651234
 10
8.213654355
 20
-23.7364462824
 10
8.2319190304
 20
-23.7129625587
 10
8.253534097
 20
-23.6917060761
 10
8.2781558044
 20
-23.6730233303
 10
8.3053491168
 20
-23.6572518488
 10
8.3345825441
 20
-23.6446857775
 10
8.3653246091
 20
-23.635521734
 10
8.3970708888
 20
-23.6298799725
 10
8.4292841802
 20
-23.6278312164
  0
LINE
  5
369
100
AcDbEntity
  8
RACCORDO
100
AcDbLine
 62
250
  6
CONTINUOUS
 10
-10.5100658741
 20
-24.5
 11
-10.4707158198
 21
-24.4606499457
  0
LINE
  5
36A
100
AcDbEntity
  8
RACCORDO
100
AcDbLine
 62
250
  6
CONTINUOUS
 10
-10.4707158198
 20
24.4606499457
 11
-10.5100658741
 21
24.5
  0
LWPOLYLINE
  5
36B
100
AcDbEntity
  8
RACCORDO
100
AcDbPolyline
 62
250
  6
CONTINUOUS
 90
13
 70
0
 10
10.5006221478
 20
24.2106880219
 10
10.4984572762
 20
24.2434392119
 10
10.4920176476
 20
24.2756342186
 10
10.4814109686
 20
24.306716969
 10
10.4668156411
 20
24.3361522732
 10
10.4484813966
 20
24.3634274759
 10
10.4267281753
 20
24.3880633735
 10
10.4018768463
 20
24.4096758765
 10
10.3744007834
 20
24.4278351353
 10
10.344976321
 20
24.4421445813
 10
10.3142136918
 20
24.4524163023
 10
10.2825946462
 20
24.4585919013
 10
10.250660224
 20
24.4606499457
  0
LWPOLYLINE
  5
36C
100
AcDbEntity
  8
RACCORDO
100
AcDbPolyline
 62
7
  6
CONTINUOUS
 90
13
 70
0
 10
10.5399722021
 20
24.2500380762
 10
10.5378324278
 20
24.2826601662
 10
10.5314536781
 20
24.3147254041
 10
10.5209443141
 20
24.3456854016
 10
10.506483041
 20
24.3750111262
 10
10.4883166858
 20
24.4021999127
 10
10.4667567825
 20
24.4267845804
 10
10.4421721148
 20
24.4483444837
 10
10.4149833283
 20
24.4665108389
 10
10.3856576037
 20
24.480972112
 10
10.3546976062
 20
24.491481476
 10
10.3226323683
 20
24.4978602257
 10
10.2900102783
 20
24.5
  0
LWPOLYLINE
  5
36D
100
AcDbEntity
  8
RACCORDO
100
AcDbPolyline
 62
250
  6
CONTINUOUS
 90
16
 70
0
 10
10.9077763126
 20
21.4529219575
 10
10.9049932265
 20
21.5050836805
 10
10.8967698053
 20
21.5566746943
 10
10.8831960062
 20
21.6071304203
 10
10.8644203365
 20
21.6558987012
 10
10.8406482337
 20
21.7024458331
 10
10.8121398213
 20
21.7462624078
 10
10.7792070514
 20
21.7868689073
 10
10.7422103004
 20
21.8238209337
 10
10.7015544383
 20
21.8567140679
 10
10.6576843669
 20
21.885188325
 10
10.6110801707
 20
21.9089320731
 10
10.5622518841
 20
21.9276854395
 10
10.5117338697
 20
21.9412431783
 10
10.4600789661
 20
21.9494569079
 10
10.4078524651
 20
21.952236725
  0
LWPOLYLINE
  5
36E
100
AcDbEntity
  8
RACCORDO
100
AcDbPolyline
 62
250
  6
CONTINUOUS
 90
16
 70
0
 10
10.9077763126
 20
-21.4529219575
 10
10.9049931559
 20
-21.5050843464
 10
10.8967695486
 20
-21.5566758972
 10
10.8831954855
 20
-21.6071320185
 10
10.8644195141
 20
-21.6559005446
 10
10.8406471091
 20
-21.702447778
 10
10.8121384233
 20
-21.7462643299
 10
10.7792054409
 20
-21.7868706945
 10
10.7422085636
 20
-21.8238224968
 10
10.7015526661
 20
-21.8567153554
 10
10.6576826654
 20
-21.8851893079
 10
10.6110786522
 20
-21.9089327499
 10
10.5622506366
 20
-21.9276858457
 10
10.5117329673
 20
-21.9412433709
 10
10.4600784834
 20
-21.949456959
 10
10.407852465
 20
-21.9522367248
  0
LWPOLYLINE
  5
36F
100
AcDbEntity
  8
RACCORDO
100
AcDbPolyline
 62
7
  6
CONTINUOUS
 90
13
 70
0
 10
10.5399722021
 20
-24.2500380762
 10
10.5378324278
 20
-24.2826601662
 10
10.5314536781
 20
-24.3147254041
 10
10.5209443141
 20
-24.3456854016
 10
10.506483041
 20
-24.3750111262
 10
10.4883166858
 20
-24.4021999127
 10
10.4667567825
 20
-24.4267845804
 10
10.4421721148
 20
-24.4483444837
 10
10.4149833283
 20
-24.4665108389
 10
10.3856576037
 20
-24.480972112
 10
10.3546976062
 20
-24.491481476
 10
10.3226323683
 20
-24.4978602257
 10
10.2900102783
 20
-24.5
  0
LWPOLYLINE
  5
370
100
AcDbEntity
  8
RACCORDO
100
AcDbPolyline
 62
250
  6
CONTINUOUS
 90
13
 70
0
 10
10.5006221478
 20
-24.2106880219
 10
10.4984572762
 20
-24.2434392119
 10
10.4920176476
 20
-24.2756342186
 10
10.4814109686
 20
-24.306716969
 10
10.4668156411
 20
-24.3361522732
 10
10.4484813966
 20
-24.3634274759
 10
10.4267281753
 20
-24.3880633735
 10
10.4018768463
 20
-24.4096758765
 10
10.3744007834
 20
-24.4278351353
 10
10.344976321
 20
-24.4421445813
 10
10.3142136918
 20
-24.4524163023
 10
10.2825946462
 20
-24.4585919013
 10
10.250660224
 20
-24.4606499457
  0
LINE
  5
371
100
AcDbEntity
  8
RACCORDO
100
AcDbLine
 62
7
  6
CONTINUOUS
 10
-4.5100277979
 20
-22.4
 11
-4.501147949
 21
-22.3911201511
  0
LINE
  5
372
100
AcDbEntity
  8
DRAFT
100
AcDbLine
 62
7
  6
CONTINUOUS
 10
11.0399722021
 20
13.5
 11
11.0149722021
 21
13.5
  0
LINE
  5
373
100
AcDbEntity
  8
DRAFT
100
AcDbLine
 62
7
  6
CONTINUOUS
 10
-11.2600277979
 20
13.5
 11
-11.2350277979
 21
13.5
  0
LINE
  5
374
100
AcDbEntity
  8
RACCORDO
100
AcDbLine
 62
7
  6
CONTINUOUS
 10
-4.5100277979
 20
22.4
 11
-4.501147949
 21
22.3911201511
  0
LINE
  5
375
100
AcDbEntity
  8
RACCORDO
100
AcDbLine
 62
7
  6
CONTINUOUS
 10
-4.5100277979
 20
-23.8
 11
-4.501147949
 21
-23.7911201511
  0
LINE
  5
376
100
AcDbEntity
  8
RACCORDO
100
AcDbLine
 62
7
  6
CONTINUOUS
 10
-4.5100277979
 20
23.8
 11
-4.501147949
 21
23.7911201511
  0
LWPOLYLINE
  5
377
100
AcDbEntity
  8
0
100
AcDbPolyline
 62
7
  6
CONTINUOUS
 90
10
 70
0
 43
0.3500000006
 10
0.9614007511
 20
33.7500009155
 10
1.032829314
 20
33.6071430817
 10
1.032829314
 20
33.5357164307
 10
0.8899721882
 20
33.3928585968
 10
0.8185436254
 20
33.3928585968
 10
0.7471150625
 20
33.4642852478
 10
0.7471150625
 20
33.5357164307
 10
0.8185436254
 20
33.6785697327
 10
0.8899721882
 20
33.7500009155
 10
0.9614007511
 20
33.7500009155
  0
LINE
  5
378
100
AcDbEntity
  8
RACCORDO
100
AcDbLine
 62
250
  6
CONTINUOUS
 10
-10.6630664717
 20
20.51569234
 11
10.3913256275
 21
20.5158399425
  0
LINE
  5
379
100
AcDbEntity
  8
RACCORDO
100
AcDbLine
 62
7
  6
CONTINUOUS
 10
8.1618671915
 20
-22.3781050106
 11
8.1444121266
 21
-22.3955600755
  0
LINE
  5
37A
100
AcDbEntity
  8
RACCORDO
100
AcDbLine
 62
250
  6
CONTINUOUS
 10
8.1399722021
 20
-24.2500380762
 11
8.1793222564
 21
-24.2106880219
  0
LWPOLYLINE
  5
37B
100
AcDbEntity
  8
RACCORDO
100
AcDbPolyline
 62
250
  6
CONTINUOUS
 90
15
 70
0
 10
10.891249475
 20
-20.4953241026
 10
10.8876691304
 20
-20.4974451586
 10
10.8787708285
 20
-20.4995434848
 10
10.864649908
 20
-20.5015965992
 10
10.8454576643
 20
-20.5035825041
 10
10.8213997283
 20
-20.505479922
 10
10.7927338632
 20
-20.5072685234
 10
10.7597672031
 20
-20.5089291448
 10
10.7228529615
 20
-20.5104439937
 10
10.6823866476
 20
-20.5117968397
 10
10.6388018287
 20
-20.512973188
 10
10.5925654841
 20
-20.5139604348
 10
10.5441730028
 20
-20.5147480028
 10
10.4941428748
 20
-20.5153274537
 10
10.4430111366
 20
-20.515692579
  0
LINE
  5
37C
100
AcDbEntity
  8
RACCORDO
100
AcDbLine
 62
250
  6
CONTINUOUS
 10
-10.6279080608
 20
21.9522367248
 11
10.407852465
 21
21.9522367248
  0
LINE
  5
37D
100
AcDbEntity
  8
RACCORDO
100
AcDbLine
 62
7
  6
CONTINUOUS
 10
10.5153528018
 20
22.275
 11
-10.7354083976
 21
22.275
  0
LINE
  5
37E
100
AcDbEntity
  8
RACCORDO
100
AcDbLine
 62
7
  6
CONTINUOUS
 10
10.6904577386
 20
22.3738174026
 11
10.2681152889
 21
22.3738174026
  0
LINE
  5
37F
100
AcDbEntity
  8
RACCORDO
100
AcDbLine
 62
7
  6
CONTINUOUS
 10
8.4118291153
 20
22.3738174026
 11
-8.6318847111
 21
22.3738174026
  0
LINE
  5
380
100
AcDbEntity
  8
RACCORDO
100
AcDbLine
 62
7
  6
CONTINUOUS
 10
-10.4881708847
 20
22.3738174026
 11
-10.9105133344
 21
22.3738174026
  0
LINE
  5
381
100
AcDbEntity
  8
RACCORDO
100
AcDbLine
 62
7
  6
CONTINUOUS
 10
3.7811685056
 20
22.3825449351
 11
-4.0012241014
 21
22.3825449351
  0
LINE
  5
382
100
AcDbEntity
  8
DRAFT
100
AcDbLine
 62
7
  6
CONTINUOUS
 10
8.1399722021
 20
22.4
 11
4.2899722021
 21
22.4
  0
LINE
  5
383
100
AcDbEntity
  8
DRAFT
100
AcDbLine
 62
7
  6
CONTINUOUS
 10
-4.5100277979
 20
22.4
 11
-8.3600277979
 21
22.4
  0
LINE
  5
384
100
AcDbEntity
  8
RACCORDO
100
AcDbLine
 62
250
  6
CONTINUOUS
 10
8.1618671915
 20
22.9783121636
 11
10.5180772127
 21
22.9783121636
  0
LINE
  5
385
100
AcDbEntity
  8
RACCORDO
100
AcDbLine
 62
250
  6
CONTINUOUS
 10
-8.3819227873
 20
22.9783121636
 11
-10.7381328085
 21
22.9783121636
  0
LWPOLYLINE
  5
386
100
AcDbEntity
  8
RACCORDO
100
AcDbPolyline
 62
250
  6
CONTINUOUS
 90
16
 70
0
 10
10.891249475
 20
20.4953241026
 10
10.8876699682
 20
20.4974451924
 10
10.8787723753
 20
20.4995435557
 10
10.8646520296
 20
20.5015967096
 10
10.8454602237
 20
20.5035826555
 10
10.8214025884
 20
20.5054801151
 10
10.7927368895
 20
20.507268758
 10
10.7597702658
 20
20.5089294197
 10
10.7228559386
 20
20.5104443071
 10
10.6823894267
 20
20.511797189
 10
10.638804309
 20
20.5129735697
 10
10.5925675786
 20
20.5139608451
 10
10.5441746394
 20
20.5147484371
 10
10.494143998
 20
20.515327907
 10
10.4430117083
 20
20.5156930462
 10
10.3913256275
 20
20.5158399423
  0
LINE
  5
387
100
AcDbEntity
  8
RACCORDO
100
AcDbLine
 62
7
  6
CONTINUOUS
 10
8.1618671915
 20
22.3781050106
 11
8.1399722021
 21
22.4
  0
LINE
  5
388
100
AcDbEntity
  8
RACCORDO
100
AcDbLine
 62
250
  6
CONTINUOUS
 10
8.1793222564
 20
24.2106880219
 11
8.1399722021
 21
24.2500380762
  0
LINE
  5
389
100
AcDbEntity
  8
RACCORDO
100
AcDbLine
 62
250
  6
CONTINUOUS
 10
8.3899341259
 20
-24.5
 11
8.4292841802
 21
-24.4606499457
  0
LINE
  5
38A
100
AcDbEntity
  8
RACCORDO
100
AcDbLine
 62
250
  6
CONTINUOUS
 10
10.9963345398
 20
-21.9129951101
 11
11.0399722021
 21
-21.8911779406
  0
LINE
  5
38B
100
AcDbEntity
  8
RACCORDO
100
AcDbLine
 62
7
  6
CONTINUOUS
 10
10.6904577386
 20
-22.3738174026
 11
10.7197986248
 21
-22.3601861527
  0
LINE
  5
38C
100
AcDbEntity
  8
RACCORDO
100
AcDbLine
 62
250
  6
CONTINUOUS
 10
-10.4838071185
 20
23.1948185145
 11
-8.6362484773
 21
23.1948185145
  0
LINE
  5
38D
100
AcDbEntity
  8
RACCORDO
100
AcDbLine
 62
250
  6
CONTINUOUS
 10
8.4161928815
 20
23.1948185145
 11
10.2637515227
 21
23.1948185145
  0
LINE
  5
38E
100
AcDbEntity
  8
RACCORDO
100
AcDbLine
 62
250
  6
CONTINUOUS
 10
10.250660224
 20
23.6278312164
 11
8.4292841802
 21
23.6278312164
  0
LINE
  5
38F
100
AcDbEntity
  8
RACCORDO
100
AcDbLine
 62
250
  6
CONTINUOUS
 10
-8.649339776
 20
23.6278312164
 11
-10.4707158198
 21
23.6278312164
  0
LINE
  5
390
100
AcDbEntity
  8
RACCORDO
100
AcDbLine
 62
7
  6
CONTINUOUS
 10
3.7811685056
 20
23.7825449351
 11
-4.0012241014
 21
23.7825449351
  0
LINE
  5
391
100
AcDbEntity
  8
DRAFT
100
AcDbLine
 62
7
  6
CONTINUOUS
 10
4.2899722021
 20
23.8
 11
-4.5100277979
 21
23.8
  0
LINE
  5
392
100
AcDbEntity
  8
RACCORDO
100
AcDbLine
 62
250
  6
CONTINUOUS
 10
8.1793222564
 20
23.8443375673
 11
10.5006221478
 21
23.8443375673
  0
LINE
  5
393
100
AcDbEntity
  8
RACCORDO
100
AcDbLine
 62
250
  6
CONTINUOUS
 10
-8.3993778522
 20
23.8443375673
 11
-10.7206777436
 21
23.8443375673
  0
LINE
  5
394
100
AcDbEntity
  8
RACCORDO
100
AcDbLine
 62
250
  6
CONTINUOUS
 10
8.1793222564
 20
24.2106880219
 11
10.5006221478
 21
24.2106880219
  0
LINE
  5
395
100
AcDbEntity
  8
RACCORDO
100
AcDbLine
 62
250
  6
CONTINUOUS
 10
-8.3993778522
 20
24.2106880219
 11
-10.7206777436
 21
24.2106880219
  0
LINE
  5
396
100
AcDbEntity
  8
RACCORDO
100
AcDbLine
 62
250
  6
CONTINUOUS
 10
10.250660224
 20
24.4606499457
 11
8.4292841802
 21
24.4606499457
  0
LINE
  5
397
100
AcDbEntity
  8
RACCORDO
100
AcDbLine
 62
250
  6
CONTINUOUS
 10
-8.649339776
 20
24.4606499457
 11
-10.4707158198
 21
24.4606499457
  0
LINE
  5
398
100
AcDbEntity
  8
RACCORDO
100
AcDbLine
 62
7
  6
CONTINUOUS
 10
8.3899626829
 20
24.5
 11
10.2899817213
 21
24.5
  0
LINE
  5
399
100
AcDbEntity
  8
RACCORDO
100
AcDbLine
 62
7
  6
CONTINUOUS
 10
-8.6100182787
 20
24.5
 11
-10.5100373171
 21
24.5
  0
LINE
  5
39A
100
AcDbEntity
  8
RACCORDO
100
AcDbLine
 62
7
  6
CONTINUOUS
 10
10.7197986248
 20
22.3601861527
 11
10.6904577386
 21
22.3738174026
  0
LINE
  5
39B
100
AcDbEntity
  8
RACCORDO
100
AcDbLine
 62
250
  6
CONTINUOUS
 10
10.9963345398
 20
21.9129951101
 11
11.0399722021
 21
21.8911779406
  0
LINE
  5
39C
100
AcDbEntity
  8
RACCORDO
100
AcDbLine
 62
250
  6
CONTINUOUS
 10
8.4292841802
 20
24.4606499457
 11
8.3899341259
 21
24.5
  0
LWPOLYLINE
  5
39D
100
AcDbEntity
  8
0
100
AcDbPolyline
 62
7
  6
CONTINUOUS
 90
7
 70
0
 43
0.3500000006
 10
-0.538599211
 20
33.2500007629
 10
-2.0385991731
 20
33.2500007629
 10
-0.538599211
 20
35.3928592072
 10
-0.538599211
 20
35.8214281769
 10
-0.9671706591
 20
36.2500016785
 10
-1.6100277958
 20
36.2500016785
 10
-2.0385991731
 20
35.607143692
  0
LWPOLYLINE
  5
39E
100
AcDbEntity
  8
0
100
AcDbPolyline
 62
7
  6
CONTINUOUS
 90
6
 70
0
 43
0.3500000006
 10
2.0328294067
 20
33.2500007629
 10
3.1042577791
 20
33.2500007629
 10
3.3185436802
 20
33.4642852478
 10
3.3185436802
 20
34.535712204
 10
2.8899721613
 20
34.9642857056
 10
2.4614006424
 20
34.9642857056
  0
LWPOLYLINE
  5
39F
100
AcDbEntity
  8
0
100
AcDbPolyline
 62
7
  6
CONTINUOUS
 90
7
 70
0
 43
0.3500000006
 10
-2.8957420692
 20
33.2500007629
 10
-4.3957419605
 20
33.2500007629
 10
-2.8957420692
 20
35.3928592072
 10
-2.8957420692
 20
35.8214281769
 10
-3.3243135881
 20
36.2500016785
 10
-3.9671707249
 20
36.2500016785
 10
-4.3957419605
 20
35.607143692
  0
LWPOLYLINE
  5
3A0
100
AcDbEntity
  8
0
100
AcDbPolyline
 62
7
  6
CONTINUOUS
 90
10
 70
0
 43
0.3500000006
 10
-36.456296814
 20
46.2500001984
 10
-37.0991548004
 20
45.6071422119
 10
-37.5277260361
 20
44.7499997406
 10
-37.5277260361
 20
43.6785727844
 10
-37.0991548004
 20
43.2499992828
 10
-36.456296814
 20
43.2499992828
 10
-36.0277255783
 20
43.6785727844
 10
-36.0277255783
 20
44.5357152557
 10
-36.456296814
 20
44.9642842255
 10
-37.3848682022
 20
44.9642842255
  0
LWPOLYLINE
  5
3A1
100
AcDbEntity
  8
0
100
AcDbPolyline
 62
7
  6
CONTINUOUS
 90
5
 70
0
 43
0.3500000006
 10
-42.8848676147
 20
44.9642842255
 10
-42.527725296
 20
45.1785732422
 10
-42.527725296
 20
45.8214266968
 10
-42.8848676147
 20
46.2500001984
 10
-43.7420100861
 20
46.2500001984
  0
LWPOLYLINE
  5
3A2
100
AcDbEntity
  8
0
100
AcDbPolyline
 62
7
  6
CONTINUOUS
 90
3
 70
0
 43
0.3500000006
 10
-65.1491542969
 20
-2.8928567276
 10
-65.1491542969
 20
-4.3928571854
 10
-67.506297226
 20
-3.7500003319
  0
LINE
  5
3A3
100
AcDbEntity
  8
RACCORDO
100
AcDbLine
 62
250
  6
CONTINUOUS
 10
-46.1562970303
 20
23.4100652985
 11
-45.1562970303
 21
23.9874155677
  0
LINE
  5
3A4
100
AcDbEntity
  8
RACCORDO
100
AcDbLine
 62
7
  6
CONTINUOUS
 10
-46.1562970303
 20
23.1226497308
 11
-45.2812970303
 21
23.6278312164
  0
LINE
  5
3A5
100
AcDbEntity
  8
RACCORDO
100
AcDbLine
 62
7
  6
CONTINUOUS
 10
-46.1562970303
 20
-24.5
 11
-45.4041153964
 21
-24.4934358103
  0
LINE
  5
3A6
100
AcDbEntity
  8
RACCORDO
100
AcDbLine
 62
250
  6
CONTINUOUS
 10
-46.1562970303
 20
-24.2500095192
 11
-45.4041153964
 21
-24.2434453296
  0
LINE
  5
3A7
100
AcDbEntity
  8
RACCORDO
100
AcDbLine
 62
250
  6
CONTINUOUS
 10
-45.4041153964
 20
-24.2434453296
 11
-45.1562970303
 21
-24.2434453296
  0
LINE
  5
3A8
100
AcDbEntity
  8
RACCORDO
100
AcDbLine
 62
250
  6
CONTINUOUS
 10
-48.4106601319
 20
-24.2106880219
 11
-48.6562970303
 21
-24.2106880219
  0
LINE
  5
3A9
100
AcDbEntity
  8
RACCORDO
100
AcDbLine
 62
250
  6
CONTINUOUS
 10
-45.4041153964
 20
-23.8443375673
 11
-45.1562970303
 21
-23.8443375673
  0
LINE
  5
3AA
100
AcDbEntity
  8
RACCORDO
100
AcDbLine
 62
250
  6
CONTINUOUS
 10
-48.4106601319
 20
-23.8443375673
 11
-48.6562970303
 21
-23.8443375673
  0
LINE
  5
3AB
100
AcDbEntity
  8
RACCORDO
100
AcDbLine
 62
7
  6
CONTINUOUS
 10
-48.4106601319
 20
-24.4606499457
 11
-46.1562970303
 21
-24.5
  0
LINE
  5
3AC
100
AcDbEntity
  8
RACCORDO
100
AcDbLine
 62
250
  6
CONTINUOUS
 10
-48.4106601319
 20
-24.2106880219
 11
-46.1562970303
 21
-24.2500380762
  0
LINE
  5
3AD
100
AcDbEntity
  8
RACCORDO
100
AcDbLine
 62
250
  6
CONTINUOUS
 10
-45.4041153964
 20
-23.8443375673
 11
-46.1562970303
 21
-23.4100652985
  0
LINE
  5
3AE
100
AcDbEntity
  8
RACCORDO
100
AcDbLine
 62
7
  6
CONTINUOUS
 10
-45.2812970303
 20
-23.6278312164
 11
-46.1562970303
 21
-23.1226497308
  0
LINE
  5
3AF
100
AcDbEntity
  8
RACCORDO
100
AcDbLine
 62
7
  6
CONTINUOUS
 10
-38.6519337626
 20
-23.7345104139
 11
-45.1567600814
 21
-23.7912771732
  0
LINE
  5
3B0
100
AcDbEntity
  8
RACCORDO
100
AcDbLine
 62
7
  6
CONTINUOUS
 10
-46.1562970303
 20
-22.4
 11
-36.1475704948
 21
-22.3126551668
  0
LINE
  5
3B1
100
AcDbEntity
  8
RACCORDO
100
AcDbLine
 62
7
  6
CONTINUOUS
 10
-46.1562970303
 20
-22.399689968
 11
-46.1681384793
 21
-22.3997933067
  0
LINE
  5
3B2
100
AcDbEntity
  8
RACCORDO
100
AcDbLine
 62
250
  6
CONTINUOUS
 10
-47.6562970303
 20
-21.9129951101
 11
-45.1562970303
 21
-21.8911779406
  0
LINE
  5
3B3
100
AcDbEntity
  8
RACCORDO
100
AcDbLine
 62
250
  6
CONTINUOUS
 10
-47.4106601319
 20
-22.9783121636
 11
-47.6562970303
 21
-22.9783121635
  0
LINE
  5
3B4
100
AcDbEntity
  8
RACCORDO
100
AcDbLine
 62
7
  6
CONTINUOUS
 10
-46.1681384793
 20
-22.3997933067
 11
-47.6562970303
 21
-22.3738174026
  0
LINE
  5
3B5
100
AcDbEntity
  8
RACCORDO
100
AcDbLine
 62
7
  6
CONTINUOUS
 10
-53.8149872013
 20
-21.9522367248
 11
-47.6562970303
 21
-22.275
  0
LINE
  5
3B6
100
AcDbEntity
  8
RACCORDO
100
AcDbLine
 62
250
  6
CONTINUOUS
 10
-53.7975454264
 20
-21.4529219575
 11
-47.6562970303
 21
-21.7747711479
  0
LWPOLYLINE
  5
3B7
100
AcDbEntity
  8
RACCORDO
100
AcDbPolyline
 62
250
  6
CONTINUOUS
 90
6
 70
0
 10
-48.5076525465
 20
23.6733694306
 10
-48.5163131904
 20
23.6575487486
 10
-48.5231060648
 20
23.6448992659
 10
-48.5279160454
 20
23.6356354041
 10
-48.5306618198
 20
23.6299138253
 10
-48.5312970303
 20
23.6278312164
  0
LINE
  5
3B8
100
AcDbEntity
  8
RACCORDO
100
AcDbLine
 62
250
  6
CONTINUOUS
 10
-48.4853371114
 20
23.7134152498
 11
-48.5076525465
 21
23.6733694306
  0
LINE
  5
3B9
100
AcDbEntity
  8
RACCORDO
100
AcDbLine
 62
250
  6
CONTINUOUS
 10
-48.4576945628
 20
23.7622828261
 11
-48.4853371114
 21
23.7134152498
  0
LINE
  5
3BA
100
AcDbEntity
  8
RACCORDO
100
AcDbLine
 62
250
  6
CONTINUOUS
 10
-48.4106601319
 20
23.8443375673
 11
-48.4576945628
 21
23.7622828261
  0
LWPOLYLINE
  5
3BB
100
AcDbEntity
  8
0
100
AcDbPolyline
 62
7
  6
CONTINUOUS
 90
13
 70
0
 43
0.3500000006
 10
-66.2205812531
 20
-1.6071430206
 10
-66.4348702698
 20
-1.8928575554
 10
-67.0777237244
 20
-1.8928575554
 10
-67.506297226
 20
-1.6071430206
 10
-67.506297226
 20
-0.9642850342
 10
-67.0777237244
 20
-0.6785716324
 10
-66.4348702698
 20
-0.6785716324
 10
-66.2205812531
 20
-0.9642850342
 10
-65.7920122833
 20
-0.5357137985
 10
-64.934869812
 20
-0.5357137985
 10
-64.5062963104
 20
-0.9642850342
 10
-64.5062963104
 20
-1.6071430206
 10
-64.934869812
 20
-2.0357142563
  0
LINE
  5
3BC
100
AcDbEntity
  8
RACCORDO
100
AcDbLine
 62
250
  6
CONTINUOUS
 10
-54.8468950611
 20
-20.4995434848
 11
-55.2112981351
 21
-20.5147480028
  0
LINE
  5
3BD
100
AcDbEntity
  8
RACCORDO
100
AcDbLine
 62
250
  6
CONTINUOUS
 10
-54.7443673161
 20
-20.4953241026
 11
-54.8468950611
 21
-20.4995434848
  0
LINE
  5
3BE
100
AcDbEntity
  8
DRAFT
100
AcDbLine
 62
7
  6
CONTINUOUS
 10
-45.1562970303
 20
-20.85
 11
-35.1562970303
 21
-20.6754493507
  0
LINE
  5
3BF
100
AcDbEntity
  8
ASSI
100
AcDbLine
 62
7
  6
CONTINUOUS
 10
-45.1562970303
 20
-20.85
 11
-35.1562970303
 21
-20.6754493507
  0
LINE
  5
3C0
100
AcDbEntity
  8
RACCORDO
100
AcDbLine
 62
7
  6
CONTINUOUS
 10
-45.1562970303
 20
-21.3912350654
 11
-35.6475708271
 21
-21.308253669
  0
LINE
  5
3C1
100
AcDbEntity
  8
RACCORDO
100
AcDbLine
 62
7
  6
CONTINUOUS
 10
-45.1562970303
 20
-20.9
 11
-35.1562970303
 21
-20.9872686779
  0
LINE
  5
3C2
100
AcDbEntity
  8
RACCORDO
100
AcDbLine
 62
250
  6
CONTINUOUS
 10
-48.4106601319
 20
-23.8443375673
 11
-48.4426812678
 21
-23.7886036918
  0
LINE
  5
3C3
100
AcDbEntity
  8
RACCORDO
100
AcDbLine
 62
250
  6
CONTINUOUS
 10
-48.4426812678
 20
-23.7886036918
 11
-48.4722501954
 21
-23.7366261426
  0
LWPOLYLINE
  5
3C4
100
AcDbEntity
  8
RACCORDO
100
AcDbPolyline
 62
250
  6
CONTINUOUS
 90
8
 70
0
 10
-48.4722501954
 20
-23.7366261426
 10
-48.4973740416
 20
-23.6919080791
 10
-48.50772491
 20
-23.6732381504
 10
-48.5163595207
 20
-23.657463389
 10
-48.5231317678
 20
-23.6448507193
 10
-48.5279270582
 20
-23.6356135598
 10
-48.530664251
 20
-23.6299082121
 10
-48.5312970303
 20
-23.6278312164
  0
LWPOLYLINE
  5
3C5
100
AcDbEntity
  8
RACCORDO
100
AcDbPolyline
 62
250
  6
CONTINUOUS
 90
22
 70
0
 10
-54.7443673161
 20
-20.4953241026
 10
-54.73894986
 20
-20.5657495894
 10
-54.7287422181
 20
-20.6350336794
 10
-54.7137443905
 20
-20.7031763725
 10
-54.6938364445
 20
-20.7705287919
 10
-54.6691383128
 20
-20.8367398145
 10
-54.6400097935
 20
-20.9007560705
 10
-54.6063783235
 20
-20.96252783
 10
-54.5683164659
 20
-21.0221048229
 10
-54.5264017081
 20
-21.0785828687
 10
-54.4805869947
 20
-21.1319016898
 10
-54.430919381
 20
-21.1821215639
 10
-54.3781175203
 20
-21.2285191432
 10
-54.3221247342
 20
-21.2710462929
 10
-54.2629977011
 20
-21.3097511478
 10
-54.2016251094
 20
-21.3440547649
 10
-54.1379500318
 20
-21.3738890016
 10
-54.0720293956
 20
-21.3993220005
 10
-54.00492267
 20
-21.419979247
 10
-53.9369830115
 20
-21.4357359029
 10
-53.8678572636
 20
-21.4467168064
 10
-53.7975454264
 20
-21.4529219575
  0
LWPOLYLINE
  5
3C6
100
AcDbEntity
  8
RACCORDO
100
AcDbPolyline
 62
250
  6
CONTINUOUS
 90
6
 70
0
 10
-47.7577248597
 20
23.2402255398
 10
-47.7663594883
 20
23.2244507468
 10
-47.7731317497
 20
23.2118380514
 10
-47.7779270503
 20
23.2026008734
 10
-47.7806642492
 20
23.1968955143
 10
-47.7812970303
 20
23.1948185144
  0
LINE
  5
3C7
100
AcDbEntity
  8
RACCORDO
100
AcDbLine
 62
250
  6
CONTINUOUS
 10
-47.7354819712
 20
23.280144722
 11
-47.7577248597
 21
23.2402255398
  0
LINE
  5
3C8
100
AcDbEntity
  8
RACCORDO
100
AcDbLine
 62
250
  6
CONTINUOUS
 10
-47.7079022212
 20
23.3289051068
 11
-47.7354819712
 21
23.280144722
  0
LINE
  5
3C9
100
AcDbEntity
  8
RACCORDO
100
AcDbLine
 62
250
  6
CONTINUOUS
 10
-47.6606601319
 20
23.4113248654
 11
-47.7079022212
 21
23.3289051068
  0
LINE
  5
3CA
100
AcDbEntity
  8
RACCORDO
100
AcDbLine
 62
250
  6
CONTINUOUS
 10
-55.2325337532
 20
-20.515692579
 11
-55.2352085064
 21
-20.5158394669
  0
LINE
  5
3CB
100
AcDbEntity
  8
RACCORDO
100
AcDbLine
 62
250
  6
CONTINUOUS
 10
-55.2112981351
 20
-20.5147480028
 11
-55.2325337532
 21
-20.515692579
  0
LWPOLYLINE
  5
3CC
100
AcDbEntity
  8
RACCORDO
100
AcDbPolyline
 62
250
  6
CONTINUOUS
 90
45
 70
0
 10
-26.1388446239
 20
-18.9481986686
 10
-26.1116069947
 20
-18.9475998948
 10
-26.0844025526
 20
-18.9464765444
 10
-26.0572514997
 20
-18.9448294514
 10
-26.0301739985
 20
-18.9426598389
 10
-26.0031901571
 20
-18.9399693182
 10
-25.9763200136
 20
-18.9367598873
 10
-25.9495835221
 20
-18.9330339295
 10
-25.9230005371
 20
-18.9287942116
 10
-25.8965907994
 20
-18.9240438822
 10
-25.870373921
 20
-18.9187864689
 10
-25.8443693707
 20
-18.9130258759
 10
-25.8185964596
 20
-18.9067663809
 10
-25.7930743268
 20
-18.9000126323
 10
-25.7678219251
 20
-18.8927696456
 10
-25.7428580072
 20
-18.8850427994
 10
-25.7182011114
 20
-18.8768378316
 10
-25.6938695481
 20
-18.8681608354
 10
-25.6698813859
 20
-18.8590182543
 10
-25.6462544387
 20
-18.8494168777
 10
-25.623006252
 20
-18.8393638355
 10
-25.6001540899
 20
-18.8288665933
 10
-25.5777149226
 20
-18.8179329464
 10
-25.5557054135
 20
-18.8065710141
 10
-25.5341419071
 20
-18.7947892338
 10
-25.5130404166
 20
-18.7825963549
 10
-25.4924166119
 20
-18.7700014317
 10
-25.4722858085
 20
-18.7570138173
 10
-25.4526629556
 20
-18.7436431565
 10
-25.4335626252
 20
-18.7298993783
 10
-25.4149990014
 20
-18.715792689
 10
-25.3969858695
 20
-18.7013335642
 10
-25.3795366064
 20
-18.6865327414
 10
-25.3626641697
 20
-18.6714012118
 10
-25.3463810892
 20
-18.6559502121
 10
-25.3306994568
 20
-18.6401912162
 10
-25.3156309176
 20
-18.624135927
 10
-25.3011866617
 20
-18.6077962672
 10
-25.2873774155
 20
-18.5911843707
 10
-25.2742134338
 20
-18.5743125735
 10
-25.2617044922
 20
-18.5571934048
 10
-25.2498598799
 20
-18.5398395774
 10
-25.2386883928
 20
-18.5222639783
 10
-25.228198327
 20
-18.5044796592
 10
-25.2183974723
 20
-18.4864998269
  0
LWPOLYLINE
  5
3CD
100
AcDbEntity
  8
ASSI
100
AcDbPolyline
 62
250
  6
CONTINUOUS
 90
40
 70
0
 10
-26.1388446239
 20
-18.9481986686
 10
-26.1116069947
 20
-18.9475998948
 10
-26.0844025526
 20
-18.9464765444
 10
-26.0572514997
 20
-18.9448294514
 10
-26.0301739985
 20
-18.9426598389
 10
-26.0031901571
 20
-18.9399693182
 10
-25.9763200136
 20
-18.9367598873
 10
-25.9495835221
 20
-18.9330339295
 10
-25.9230005371
 20
-18.9287942116
 10
-25.8965907994
 20
-18.9240438822
 10
-25.870373921
 20
-18.9187864689
 10
-25.8443693707
 20
-18.9130258759
 10
-25.8185964596
 20
-18.9067663809
 10
-25.7930743268
 20
-18.9000126323
 10
-25.7678219251
 20
-18.8927696456
 10
-25.7428580072
 20
-18.8850427994
 10
-25.7182011114
 20
-18.8768378316
 10
-25.6938695481
 20
-18.8681608354
 10
-25.6698813859
 20
-18.8590182543
 10
-25.6462544387
 20
-18.8494168777
 10
-25.623006252
 20
-18.8393638355
 10
-25.6001540899
 20
-18.8288665933
 10
-25.5777149226
 20
-18.8179329464
 10
-25.5557054135
 20
-18.8065710141
 10
-25.5341419071
 20
-18.7947892338
 10
-25.5130404166
 20
-18.7825963549
 10
-25.4924166119
 20
-18.7700014317
 10
-25.4722858085
 20
-18.7570138173
 10
-25.4526629556
 20
-18.7436431565
 10
-25.4335626252
 20
-18.7298993783
 10
-25.4149990014
 20
-18.715792689
 10
-25.3969858695
 20
-18.7013335642
 10
-25.3795366064
 20
-18.6865327414
 10
-25.3626641697
 20
-18.6714012118
 10
-25.3463810892
 20
-18.6559502121
 10
-25.3306994568
 20
-18.6401912162
 10
-25.3156309176
 20
-18.624135927
 10
-25.3011866617
 20
-18.6077962672
 10
-25.2873774155
 20
-18.5911843707
 10
-25.2742134338
 20
-18.5743125735
  0
LINE
  5
3CE
100
AcDbEntity
  8
RACCORDO
100
AcDbLine
 62
7
  6
CONTINUOUS
 10
-26.1388446239
 20
-19.4535789516
 11
-35.1562970303
 21
-19.6109791689
  0
LINE
  5
3CF
100
AcDbEntity
  8
ASSI
100
AcDbLine
 62
7
  6
CONTINUOUS
 10
-26.1388446239
 20
-19.4535789516
 11
-35.1562970303
 21
-19.6109791689
  0
LINE
  5
3D0
100
AcDbEntity
  8
RACCORDO
100
AcDbLine
 62
250
  6
CONTINUOUS
 10
-45.1562970303
 20
-19.0856972195
 11
-26.1388446239
 21
-18.9481986686
  0
LINE
  5
3D1
100
AcDbEntity
  8
ASSI
100
AcDbLine
 62
250
  6
CONTINUOUS
 10
-45.1562970303
 20
-19.0856972195
 11
-26.1388446239
 21
-18.9481986686
  0
LINE
  5
3D2
100
AcDbEntity
  8
RACCORDO
100
AcDbLine
 62
250
  6
CONTINUOUS
 10
-47.6606601319
 20
-23.4113248654
 11
-47.692681255
 21
-23.3555910112
  0
LINE
  5
3D3
100
AcDbEntity
  8
RACCORDO
100
AcDbLine
 62
250
  6
CONTINUOUS
 10
-47.692681255
 20
-23.3555910112
 11
-47.7222501815
 21
-23.3036134639
  0
LWPOLYLINE
  5
3D4
100
AcDbEntity
  8
RACCORDO
100
AcDbPolyline
 62
250
  6
CONTINUOUS
 90
8
 70
0
 10
-47.7222501815
 20
-23.3036134639
 10
-47.7473740337
 20
-23.2588953899
 10
-47.7577249042
 20
-23.2402254574
 10
-47.7663595168
 20
-23.2244506929
 10
-47.7731317654
 20
-23.2118380207
 10
-47.777927057
 20
-23.2026008593
 10
-47.7806642506
 20
-23.1968955105
 10
-47.7812970303
 20
-23.1948185144
  0
LINE
  5
3D5
100
AcDbEntity
  8
RACCORDO
100
AcDbLine
 62
7
  6
CONTINUOUS
 10
-55.7562970303
 20
-2.05
 11
-55.7562970303
 21
2.05
  0
LWPOLYLINE
  5
3D6
100
AcDbEntity
  8
RACCORDO
100
AcDbPolyline
 62
250
  6
CONTINUOUS
 90
10
 70
0
 10
-54.7443673161
 20
20.4953241026
 10
-54.9105496596
 20
15.9419548207
 10
-55.0351864302
 20
11.3880126171
 10
-55.1182776279
 20
6.8334974917
 10
-55.1598232702
 20
2.278027944
 10
-55.1598233397
 20
-2.2780145254
 10
-55.1182777842
 20
-6.8334854149
 10
-55.0351865864
 20
-11.388003224
 10
-54.9105497637
 20
-15.9419494533
 10
-54.7443673161
 20
-20.4953241026
  0
LINE
  5
3D7
100
AcDbEntity
  8
RACCORDO
100
AcDbLine
 62
250
  6
CONTINUOUS
 10
-45.1562970303
 20
-17.6716990487
 11
-26.1388446239
 21
-17.5342004978
  0
LINE
  5
3D8
100
AcDbEntity
  8
ASSI
100
AcDbLine
 62
250
  6
CONTINUOUS
 10
-45.1562970303
 20
-17.6716990487
 11
-26.1388446239
 21
-17.5342004978
  0
LINE
  5
3D9
100
AcDbEntity
  8
RACCORDO
100
AcDbLine
 62
250
  6
CONTINUOUS
 10
-26.1388446239
 20
-17.5342004978
 11
-25.1562970303
 21
-17.5342004978
  0
LINE
  5
3DA
100
AcDbEntity
  8
ASSI
100
AcDbLine
 62
250
  6
CONTINUOUS
 10
-26.1388446239
 20
-17.5342004978
 11
-25.1562970303
 21
-17.5342004978
  0
LWPOLYLINE
  5
3DB
100
AcDbEntity
  8
0
100
AcDbPolyline
 62
7
  6
CONTINUOUS
 90
10
 70
0
 43
0.3500000006
 10
-64.5062963104
 20
2.4642848511
 10
-65.3634387817
 20
3.3214295883
 10
-66.2205812531
 20
3.5357140732
 10
-67.0777237244
 20
3.5357140732
 10
-67.506297226
 20
3.1071428375
 10
-67.506297226
 20
2.4642848511
 10
-67.0777237244
 20
2.0357136154
 10
-66.2205812531
 20
2.0357136154
 10
-65.7920122833
 20
2.4642848511
 10
-65.7920122833
 20
3.3928562393
  0
LINE
  5
3DC
100
AcDbEntity
  8
RACCORDO
100
AcDbLine
 62
250
  6
CONTINUOUS
 10
-53.7975454264
 20
21.4529219575
 11
-53.8027907643
 21
21.5566746943
  0
LINE
  5
3DD
100
AcDbEntity
  8
RACCORDO
100
AcDbLine
 62
250
  6
CONTINUOUS
 10
-53.8027907643
 20
21.5566746943
 11
-53.8074262166
 21
21.6558987012
  0
LINE
  5
3DE
100
AcDbEntity
  8
RACCORDO
100
AcDbLine
 62
250
  6
CONTINUOUS
 10
-53.8074262166
 20
21.6558987012
 11
-53.8112494203
 21
21.7462624078
  0
LWPOLYLINE
  5
3DF
100
AcDbEntity
  8
RACCORDO
100
AcDbPolyline
 62
250
  6
CONTINUOUS
 90
9
 70
0
 10
-53.8112494203
 20
21.7462624078
 10
-53.8140934661
 20
21.8238209337
 10
-53.8151076707
 20
21.8567140679
 10
-53.8158341869
 20
21.885188325
 10
-53.8162650627
 20
21.9089320731
 10
-53.8163955817
 20
21.9276854395
 10
-53.8162243148
 20
21.9412431783
 10
-53.8157531354
 20
21.9494569079
 10
-53.8149871991
 20
21.952236725
  0
LWPOLYLINE
  5
3E0
100
AcDbEntity
  8
RACCORDO
100
AcDbPolyline
 62
250
  6
CONTINUOUS
 90
7
 70
0
 10
-53.8151076937
 20
-21.8567153554
 10
-53.8158341964
 20
-21.8851893079
 10
-53.8162650612
 20
-21.9089327499
 10
-53.8163955731
 20
-21.9276858457
 10
-53.8162243039
 20
-21.9412433709
 10
-53.8157531279
 20
-21.949456959
 10
-53.8149872013
 20
-21.9522367248
  0
LINE
  5
3E1
100
AcDbEntity
  8
RACCORDO
100
AcDbLine
 62
250
  6
CONTINUOUS
 10
-53.8128027246
 20
-21.7868706945
 11
-53.8151076937
 21
-21.8567153554
  0
LINE
  5
3E2
100
AcDbEntity
  8
RACCORDO
100
AcDbLine
 62
250
  6
CONTINUOUS
 10
-53.8094507756
 20
-21.702447778
 11
-53.8128027246
 21
-21.7868706945
  0
LINE
  5
3E3
100
AcDbEntity
  8
RACCORDO
100
AcDbLine
 62
250
  6
CONTINUOUS
 10
-53.8051981732
 20
-21.6071320185
 11
-53.8094507756
 21
-21.702447778
  0
LWPOLYLINE
  5
3E4
100
AcDbEntity
  8
RACCORDO
100
AcDbPolyline
 62
250
  6
CONTINUOUS
 90
3
 70
0
 10
-53.7975454264
 20
-21.4529219575
 10
-53.8002305611
 20
-21.5050843464
 10
-53.8051981732
 20
-21.6071320185
  0
LWPOLYLINE
  5
3E5
100
AcDbEntity
  8
0
100
AcDbPolyline
 62
7
  6
CONTINUOUS
 90
3
 70
0
 43
0.3500000006
 10
-38.5277240753
 20
43.5357149506
 10
-38.5991552582
 20
43.3214304657
 10
-38.742013092
 20
43.035714798
  0
LINE
  5
3E6
100
AcDbEntity
  8
0
100
AcDbLine
 62
250
  6
CONTINUOUS
 10
-39.7251537872
 20
16.0
 11
-42.624271486
 21
14.991935
  0
LINE
  5
3E7
100
AcDbEntity
  8
0
100
AcDbLine
 62
250
  6
CONTINUOUS
 10
-40.3396055764
 20
15.164584
 11
-39.7251537872
 21
15.373574
  0
LINE
  5
3E8
100
AcDbEntity
  8
0
100
AcDbLine
 62
250
  6
CONTINUOUS
 10
-42.0701163256
 20
14.606449
 11
-40.8213917861
 21
15.007869
  0
LINE
  5
3E9
100
AcDbEntity
  8
0
100
AcDbLine
 62
250
  6
CONTINUOUS
 10
-42.6244084443
 20
-14.137714
 11
-40.6281196722
 21
-14.778839
  0
LINE
  5
3EA
100
AcDbEntity
  8
0
100
AcDbLine
 62
250
  6
CONTINUOUS
 10
-39.725160785
 20
-14.488824
 11
-42.6244084443
 21
-13.557685
  0
LWPOLYLINE
  5
3EB
100
AcDbEntity
  8
0
100
AcDbPolyline
 62
7
  6
CONTINUOUS
 90
10
 70
0
 43
0.3500000006
 10
-65.006296463
 20
0.9642866592
 10
-64.8634386292
 20
1.0357133102
 10
-64.7920119781
 20
1.0357133102
 10
-64.6491541443
 20
0.8928577423
 10
-64.6491541443
 20
0.8214288254
 10
-64.7205807953
 20
0.7499999084
 10
-64.7920119781
 20
0.7499999084
 10
-64.934869812
 20
0.8214288254
 10
-65.006296463
 20
0.8928577423
 10
-65.006296463
 20
0.9642866592
  0
LINE
  5
3EC
100
AcDbEntity
  8
0
100
AcDbLine
 62
250
  6
CONTINUOUS
 10
-42.624271486
 20
11.216139
 11
-40.3268574605
 21
12.328754
  0
LINE
  5
3ED
100
AcDbEntity
  8
DRAFT
100
AcDbLine
 62
7
  6
CONTINUOUS
 10
-45.1562970303
 20
-13.5
 11
-47.6562970303
 21
-13.5
  0
LINE
  5
3EE
100
AcDbEntity
  8
0
100
AcDbLine
 62
250
  6
CONTINUOUS
 10
-42.6244084443
 20
-13.171006
 11
-39.7251537872
 21
-13.171014
  0
LINE
  5
3EF
100
AcDbEntity
  8
0
100
AcDbLine
 62
250
  6
CONTINUOUS
 10
-39.725160785
 20
-12.590992
 11
-42.6244084443
 21
-12.590985
  0
LINE
  5
3F0
100
AcDbEntity
  8
0
100
AcDbLine
 62
250
  6
CONTINUOUS
 10
-42.6244084443
 20
-12.010985
 11
-39.725160785
 21
-12.010985
  0
LINE
  5
3F1
100
AcDbEntity
  8
RACCORDO
100
AcDbLine
 62
250
  6
CONTINUOUS
 10
-48.4116435799
 20
24.2756342186
 11
-48.4122600238
 21
24.3361522732
  0
LWPOLYLINE
  5
3F2
100
AcDbEntity
  8
RACCORDO
100
AcDbPolyline
 62
250
  6
CONTINUOUS
 90
7
 70
0
 10
-48.4124664061
 20
-24.3880633735
 10
-48.4124098722
 20
-24.4096758765
 10
-48.4122472468
 20
-24.4278351353
 10
-48.4119834132
 20
-24.4421445813
 10
-48.4116257431
 20
-24.4524163023
 10
-48.411181626
 20
-24.4585919013
 10
-48.4106601319
 20
-24.4606499457
  0
LWPOLYLINE
  5
3F3
100
AcDbEntity
  8
RACCORDO
100
AcDbPolyline
 62
250
  6
CONTINUOUS
 90
8
 70
0
 10
-48.4122600238
 20
24.3361522732
 10
-48.4124664061
 20
24.3880633735
 10
-48.4124098722
 20
24.4096758765
 10
-48.4122472468
 20
24.4278351353
 10
-48.4119834132
 20
24.4421445813
 10
-48.4116257431
 20
24.4524163023
 10
-48.411181626
 20
24.4585919013
 10
-48.4106601319
 20
24.4606499457
  0
LINE
  5
3F4
100
AcDbEntity
  8
RACCORDO
100
AcDbLine
 62
7
  6
CONTINUOUS
 10
-48.6562970303
 20
24.2106880219
 11
-48.6562970303
 21
23.8443375673
  0
LINE
  5
3F5
100
AcDbEntity
  8
RACCORDO
100
AcDbLine
 62
7
  6
CONTINUOUS
 10
-48.6562970303
 20
-23.8443375673
 11
-48.6562970303
 21
-24.2106880219
  0
LINE
  5
3F6
100
AcDbEntity
  8
RACCORDO
100
AcDbLine
 62
250
  6
CONTINUOUS
 10
-48.4106601319
 20
24.2106880219
 11
-48.4106601319
 21
23.8443375673
  0
LINE
  5
3F7
100
AcDbEntity
  8
RACCORDO
100
AcDbLine
 62
250
  6
CONTINUOUS
 10
-48.4106601319
 20
-23.8443375673
 11
-48.4106601319
 21
-24.2106880219
  0
LINE
  5
3F8
100
AcDbEntity
  8
RACCORDO
100
AcDbLine
 62
250
  6
CONTINUOUS
 10
-48.4122600238
 20
-24.3361522732
 11
-48.4124664061
 21
-24.3880633735
  0
LINE
  5
3F9
100
AcDbEntity
  8
RACCORDO
100
AcDbLine
 62
250
  6
CONTINUOUS
 10
-48.4116435799
 20
-24.2756342186
 11
-48.4122600238
 21
-24.3361522732
  0
LINE
  5
3FA
100
AcDbEntity
  8
0
100
AcDbLine
 62
7
  6
CONTINUOUS
 10
-42.5378989599
 20
10.292325
 11
-41.9554539599
 21
10.87477
  0
LINE
  5
3FB
100
AcDbEntity
  8
0
100
AcDbLine
 62
7
  6
CONTINUOUS
 10
-41.777988097
 20
11.0522358628
 11
-40.6654441713
 21
12.1647797885
  0
LINE
  5
3FC
100
AcDbEntity
  8
0
100
AcDbLine
 62
7
  6
CONTINUOUS
 10
-40.5014699599
 20
12.328754
 11
-39.9190259599
 21
12.911198
  0
LINE
  5
3FD
100
AcDbEntity
  8
0
100
AcDbLine
 62
250
  6
CONTINUOUS
 10
-38.225900002
 20
13.8257143569
 11
-37.9545127867
 21
14.0247617149
  0
LINE
  5
3FE
100
AcDbEntity
  8
0
100
AcDbLine
 62
250
  6
CONTINUOUS
 10
-39.7251537872
 20
12.027546
 11
-42.1515185241
 21
10.87477
  0
LINE
  5
3FF
100
AcDbEntity
  8
0
100
AcDbLine
 62
250
  6
CONTINUOUS
 10
-39.7251537872
 20
9.975074
 11
-42.624271486
 21
8.9669
  0
LINE
  5
400
100
AcDbEntity
  8
0
100
AcDbLine
 62
250
  6
CONTINUOUS
 10
-28.528763122
 20
13.6102374458
 11
-27.2289611183
 21
14.0188100433
  0
LINE
  5
401
100
AcDbEntity
  8
0
100
AcDbLine
 62
250
  6
CONTINUOUS
 10
-39.725160785
 20
-11.430963
 11
-41.637020281
 21
-11.430963
  0
LINE
  5
402
100
AcDbEntity
  8
0
100
AcDbLine
 62
250
  6
CONTINUOUS
 10
-41.637020281
 20
-9.754205
 11
-39.725160785
 21
-9.754197
  0
LINE
  5
403
100
AcDbEntity
  8
0
100
AcDbLine
 62
250
  6
CONTINUOUS
 10
-42.6244084443
 20
-10.051012
 11
-40.7363147074
 21
-10.59258
  0
LINE
  5
404
100
AcDbEntity
  8
0
100
AcDbLine
 62
250
  6
CONTINUOUS
 10
-39.7251687826
 20
-10.30258
 11
-41.637020281
 21
-9.754205
  0
LWPOLYLINE
  5
405
100
AcDbEntity
  8
RACCORDO
100
AcDbPolyline
 62
250
  6
CONTINUOUS
 90
13
 70
0
 10
-47.4106601319
 20
22.9783121635
 10
-47.4127296473
 20
23.0225753456
 10
-47.4184309835
 20
23.0657891319
 10
-47.4277641407
 20
23.1079535226
 10
-47.4408501079
 20
23.149341889
 10
-47.4575678961
 20
23.1896808596
 10
-47.4775545378
 20
23.2281503206
 10
-47.5008643863
 20
23.2647266149
 10
-47.5274430884
 20
23.2994333995
 10
-47.5567646168
 20
23.3315215311
 10
-47.5886536289
 20
23.3607412955
 10
-47.6232854673
 20
23.3873424069
 10
-47.6606601319
 20
23.4113248654
  0
LWPOLYLINE
  5
406
100
AcDbEntity
  8
RACCORDO
100
AcDbPolyline
 62
7
  6
CONTINUOUS
 90
3
 70
0
 10
-46.15653644
 20
-24.491481476
 10
-46.156422439
 20
-24.4978602257
 10
-46.1562970303
 20
-24.5
  0
LINE
  5
407
100
AcDbEntity
  8
RACCORDO
100
AcDbLine
 62
250
  6
CONTINUOUS
 10
-48.4106601319
 20
24.2106880219
 11
-48.4116435799
 21
24.2756342186
  0
LINE
  5
408
100
AcDbEntity
  8
RACCORDO
100
AcDbLine
 62
7
  6
CONTINUOUS
 10
-46.1566990644
 20
-24.4665108389
 11
-46.15653644
 21
-24.491481476
  0
LINE
  5
409
100
AcDbEntity
  8
RACCORDO
100
AcDbLine
 62
7
  6
CONTINUOUS
 10
-47.6562970303
 20
-22.9783121635
 11
-47.6562970303
 21
22.9783121635
  0
LINE
  5
40A
100
AcDbEntity
  8
RACCORDO
100
AcDbLine
 62
250
  6
CONTINUOUS
 10
-47.4106601319
 20
22.9783121635
 11
-47.4106601319
 21
22.3781050106
  0
LINE
  5
40B
100
AcDbEntity
  8
RACCORDO
100
AcDbLine
 62
250
  6
CONTINUOUS
 10
-47.4106601319
 20
-22.3781050106
 11
-47.4106601319
 21
-22.9783121635
  0
LINE
  5
40C
100
AcDbEntity
  8
RACCORDO
100
AcDbLine
 62
7
  6
CONTINUOUS
 10
-46.1562970303
 20
-24.2500095192
 11
-46.1562970303
 21
-22.399689968
  0
LINE
  5
40D
100
AcDbEntity
  8
RACCORDO
100
AcDbLine
 62
7
  6
CONTINUOUS
 10
-46.1562970303
 20
22.399689968
 11
-46.1562970303
 21
24.2500095192
  0
LINE
  5
40E
100
AcDbEntity
  8
RACCORDO
100
AcDbLine
 62
7
  6
CONTINUOUS
 10
-46.1566990644
 20
-24.3750111262
 11
-46.1566990644
 21
-24.4665108389
  0
LINE
  5
40F
100
AcDbEntity
  8
RACCORDO
100
AcDbLine
 62
7
  6
CONTINUOUS
 10
-46.1566990644
 20
24.3750111262
 11
-46.1566990644
 21
24.4665108389
  0
LWPOLYLINE
  5
410
100
AcDbEntity
  8
RACCORDO
100
AcDbPolyline
 62
7
  6
CONTINUOUS
 90
4
 70
0
 10
-46.1566990644
 20
24.4665108389
 10
-46.15653644
 20
24.491481476
 10
-46.156422439
 20
24.4978602257
 10
-46.1562970303
 20
24.5
  0
LINE
  5
411
100
AcDbEntity
  8
RACCORDO
100
AcDbLine
 62
250
  6
CONTINUOUS
 10
-48.4106601319
 20
-24.2106880219
 11
-48.4116435799
 21
-24.2756342186
  0
LINE
  5
412
100
AcDbEntity
  8
0
100
AcDbLine
 62
250
  6
CONTINUOUS
 10
-37.1403510839
 20
15.7664287138
 11
-37.4117383559
 21
15.4678569293
  0
LINE
  5
413
100
AcDbEntity
  8
0
100
AcDbLine
 62
250
  6
CONTINUOUS
 10
-37.4117383559
 20
13.8257143569
 11
-37.1403510839
 21
14.1242856431
  0
LINE
  5
414
100
AcDbEntity
  8
0
100
AcDbLine
 62
250
  6
CONTINUOUS
 10
-36.5975766249
 20
14.7214287138
 11
-36.3261893812
 21
15.02
  0
LINE
  5
415
100
AcDbEntity
  8
0
100
AcDbLine
 62
250
  6
CONTINUOUS
 10
-37.9545127867
 20
12.4323808575
 11
-38.225900002
 21
12.1835715353
  0
LINE
  5
416
100
AcDbEntity
  8
0
100
AcDbLine
 62
250
  6
CONTINUOUS
 10
-40.3396055764
 20
9.139549
 11
-39.7251537872
 21
9.348431
  0
LINE
  5
417
100
AcDbEntity
  8
0
100
AcDbLine
 62
250
  6
CONTINUOUS
 10
-42.0702802757
 20
8.581471
 11
-40.8213917861
 21
8.982943
  0
LINE
  5
418
100
AcDbEntity
  8
0
100
AcDbLine
 62
250
  6
CONTINUOUS
 10
-39.725160785
 20
-9.174176
 11
-42.6244084443
 21
-9.174176
  0
LINE
  5
419
100
AcDbEntity
  8
DRAFT
100
AcDbLine
 62
7
  6
CONTINUOUS
 10
-45.1562970303
 20
-8.5
 11
-47.6562970303
 21
-8.5
  0
LINE
  5
41A
100
AcDbEntity
  8
0
100
AcDbLine
 62
250
  6
CONTINUOUS
 10
-39.725160785
 20
-8.787497
 11
-42.6244154422
 21
-7.856372
  0
LINE
  5
41B
100
AcDbEntity
  8
0
100
AcDbLine
 62
250
  6
CONTINUOUS
 10
-40.2953230684
 20
-8.024362
 11
-39.7251687826
 21
-8.207475
  0
LINE
  5
41C
100
AcDbEntity
  8
0
100
AcDbLine
 62
250
  6
CONTINUOUS
 10
-41.7214495572
 20
-7.56635
 11
-40.8461772345
 21
-7.84744
  0
LINE
  5
41D
100
AcDbEntity
  8
RACCORDO
100
AcDbLine
 62
250
  6
CONTINUOUS
 10
-45.4041153964
 20
-24.2434453296
 11
-45.4034446607
 21
-24.3395027526
  0
LINE
  5
41E
100
AcDbEntity
  8
RACCORDO
100
AcDbLine
 62
7
  6
CONTINUOUS
 10
-46.1562970303
 20
24.2500380762
 11
-46.1566990644
 21
24.3750111262
  0
LINE
  5
41F
100
AcDbEntity
  8
RACCORDO
100
AcDbLine
 62
250
  6
CONTINUOUS
 10
-45.4034446607
 20
-24.3395027526
 11
-45.4032118737
 21
-24.4208769432
  0
LINE
  5
420
100
AcDbEntity
  8
RACCORDO
100
AcDbLine
 62
250
  6
CONTINUOUS
 10
-45.4041153964
 20
-24.2434453296
 11
-45.4041153964
 21
-23.8443375673
  0
LINE
  5
421
100
AcDbEntity
  8
ASSI
100
AcDbLine
 62
7
  6
CONTINUOUS
 10
-45.1562970303
 20
17.6716990487
 11
-45.1562970303
 21
-17.6716990487
  0
LINE
  5
422
100
AcDbEntity
  8
RACCORDO
100
AcDbLine
 62
7
  6
CONTINUOUS
 10
-45.1562970303
 20
-24.2434453296
 11
-45.1562970303
 21
-23.8443375673
  0
LINE
  5
423
100
AcDbEntity
  8
DRAFT
100
AcDbLine
 62
7
  6
CONTINUOUS
 10
-45.1562970303
 20
-8.5
 11
-45.1562970303
 21
8.5
  0
LINE
  5
424
100
AcDbEntity
  8
RACCORDO
100
AcDbLine
 62
7
  6
CONTINUOUS
 10
-45.1562970303
 20
-22.3912731322
 11
-45.1562970303
 21
22.3912731322
  0
LINE
  5
425
100
AcDbEntity
  8
RACCORDO
100
AcDbLine
 62
7
  6
CONTINUOUS
 10
-45.1562970303
 20
23.8443375673
 11
-45.1562970303
 21
24.2412826514
  0
LINE
  5
426
100
AcDbEntity
  8
RACCORDO
100
AcDbLine
 62
7
  6
CONTINUOUS
 10
-46.1562970303
 20
-24.2500380762
 11
-46.1566990644
 21
-24.3750111262
  0
LWPOLYLINE
  5
427
100
AcDbEntity
  8
RACCORDO
100
AcDbPolyline
 62
250
  6
CONTINUOUS
 90
6
 70
0
 10
-45.4032118737
 20
-24.4208769432
 10
-45.4033216269
 20
-24.460655352
 10
-45.4034536685
 20
-24.4749597986
 10
-45.4036325953
 20
-24.4852218569
 10
-45.4038546909
 20
-24.4913867782
 10
-45.4041153964
 20
-24.4934358103
  0
LINE
  5
428
100
AcDbEntity
  8
0
100
AcDbLine
 62
250
  6
CONTINUOUS
 10
-37.4117383559
 20
13.3778569293
 11
-37.547431907
 21
13.1788095713
  0
LINE
  5
429
100
AcDbEntity
  8
0
100
AcDbLine
 62
250
  6
CONTINUOUS
 10
-36.3261893812
 20
13.3778569293
 11
-36.5975766249
 21
13.0792856431
  0
LINE
  5
42A
100
AcDbEntity
  8
0
100
AcDbLine
 62
250
  6
CONTINUOUS
 10
-37.1403510839
 20
12.4821428216
 11
-37.4117383559
 21
12.1835715353
  0
LINE
  5
42B
100
AcDbEntity
  8
0
100
AcDbLine
 62
250
  6
CONTINUOUS
 10
-28.528763122
 20
15.3466662121
 11
-27.9717051536
 21
15.7552374458
  0
LINE
  5
42C
100
AcDbEntity
  8
0
100
AcDbLine
 62
250
  6
CONTINUOUS
 10
-39.7251687826
 20
-5.958503
 11
-42.6244154422
 21
-5.958503
  0
LWPOLYLINE
  5
42D
100
AcDbEntity
  8
0
100
AcDbPolyline
 62
7
  6
CONTINUOUS
 90
3
 70
0
 43
0.3500000006
 10
-64.7920119781
 20
1.0357133102
 10
-64.5777274933
 20
0.9642866592
 10
-64.2920118256
 20
0.8214288254
  0
LINE
  5
42E
100
AcDbEntity
  8
0
100
AcDbLine
 62
250
  6
CONTINUOUS
 10
-42.6244154422
 20
-7.856372
 11
-42.6244154422
 21
-7.276321
  0
LINE
  5
42F
100
AcDbEntity
  8
0
100
AcDbLine
 62
250
  6
CONTINUOUS
 10
-42.6244154422
 20
-5.958503
 11
-42.6244154422
 21
-4.600288
  0
LINE
  5
430
100
AcDbEntity
  8
0
100
AcDbLine
 62
250
  6
CONTINUOUS
 10
-42.6244084443
 20
-9.174176
 11
-42.6244084443
 21
-10.051012
  0
LINE
  5
431
100
AcDbEntity
  8
0
100
AcDbLine
 62
250
  6
CONTINUOUS
 10
-42.6244084443
 20
-11.134148
 11
-42.6244084443
 21
-12.010985
  0
LINE
  5
432
100
AcDbEntity
  8
0
100
AcDbLine
 62
250
  6
CONTINUOUS
 10
-42.6244084443
 20
-12.590985
 11
-42.6244084443
 21
-13.171006
  0
LINE
  5
433
100
AcDbEntity
  8
0
100
AcDbLine
 62
250
  6
CONTINUOUS
 10
-42.6244084443
 20
-13.557685
 11
-42.6244084443
 21
-14.137714
  0
LINE
  5
434
100
AcDbEntity
  8
0
100
AcDbLine
 62
250
  6
CONTINUOUS
 10
-42.6244084443
 20
-15.419971
 11
-42.6244084443
 21
-16.0
  0
LINE
  5
435
100
AcDbEntity
  8
0
100
AcDbLine
 62
250
  6
CONTINUOUS
 10
-42.624271486
 20
14.991935
 11
-42.624271486
 21
14.252884
  0
LINE
  5
436
100
AcDbEntity
  8
0
100
AcDbLine
 62
250
  6
CONTINUOUS
 10
-42.624271486
 20
8.9669
 11
-42.624271486
 21
8.227849
  0
LINE
  5
437
100
AcDbEntity
  8
0
100
AcDbLine
 62
250
  6
CONTINUOUS
 10
-42.624271486
 20
3.58822
 11
-42.624271486
 21
2.70079
  0
LINE
  5
438
100
AcDbEntity
  8
0
100
AcDbLine
 62
250
  6
CONTINUOUS
 10
-42.624271486
 20
5.171133
 11
-42.624271486
 21
5.793739
  0
LINE
  5
439
100
AcDbEntity
  8
0
100
AcDbLine
 62
250
  6
CONTINUOUS
 10
-42.624271486
 20
10.292325
 11
-42.624271486
 21
11.216139
  0
LINE
  5
43A
100
AcDbEntity
  8
0
100
AcDbLine
 62
250
  6
CONTINUOUS
 10
-42.624271486
 20
12.328754
 11
-42.624271486
 21
12.911198
  0
LINE
  5
43B
100
AcDbEntity
  8
0
100
AcDbLine
 62
250
  6
CONTINUOUS
 10
-42.1424852763
 20
3.323396
 11
-42.1424852763
 21
3.686612
  0
LINE
  5
43C
100
AcDbEntity
  8
0
100
AcDbLine
 62
250
  6
CONTINUOUS
 10
-42.6206920471
 20
3.6948258614
 11
-42.6242713454
 21
3.5882200575
  0
LWPOLYLINE
  5
43D
100
AcDbEntity
  8
0
100
AcDbPolyline
 62
250
  6
CONTINUOUS
 90
54
 70
0
 10
-42.138927088
 20
3.7174608972
 10
-42.1340667086
 20
3.763813985
 10
-42.1323456081
 20
3.7792495632
 10
-42.1304789709
 20
3.794662096
 10
-42.1284097672
 20
3.8100423913
 10
-42.1260809672
 20
3.8253812571
 10
-42.1234355411
 20
3.8406695016
 10
-42.120416459
 20
3.8558979327
 10
-42.1180833167
 20
3.8663734222
 10
-42.1155253432
 20
3.8768018468
 10
-42.112723126
 20
3.8871690543
 10
-42.1096572526
 20
3.8974608925
 10
-42.1063083107
 20
3.907663209
 10
-42.1026568877
 20
3.9177618517
 10
-42.0986835711
 20
3.9277426683
 10
-42.0943689486
 20
3.9375915065
 10
-42.0902672373
 20
3.9461556907
 10
-42.0858854786
 20
3.9545891942
 10
-42.0812242068
 20
3.9628750024
 10
-42.076283956
 20
3.9709961011
 10
-42.0710652605
 20
3.9789354759
 10
-42.0655686546
 20
3.9866761124
 10
-42.0597946725
 20
3.9942009963
 10
-42.0537438486
 20
4.001493113
 10
-42.0474167169
 20
4.0085354483
 10
-42.0407638577
 20
4.0153674044
 10
-42.0338500346
 20
4.0219361053
 10
-42.0266944149
 20
4.0282493076
 10
-42.0193161658
 20
4.0343147679
 10
-42.0117344546
 20
4.0401402428
 10
-42.0039684487
 20
4.0457334888
 10
-41.9960373153
 20
4.0511022627
 10
-41.9879602216
 20
4.0562543208
 10
-41.979756335
 20
4.0611974199
 10
-41.9690535002
 20
4.0672512393
 10
-41.9581810863
 20
4.0729664611
 10
-41.9471472312
 20
4.0783367237
 10
-41.9359600727
 20
4.0833556651
 10
-41.9246277488
 20
4.0880169238
 10
-41.9131583972
 20
4.0923141379
 10
-41.901560156
 20
4.0962409458
 10
-41.8890275231
 20
4.1000267408
 10
-41.8763707503
 20
4.103400823
 10
-41.8636037201
 20
4.1063821336
 10
-41.8507403145
 20
4.1089896139
 10
-41.8377944158
 20
4.1112422052
 10
-41.8247799063
 20
4.1131588488
 10
-41.8117106681
 20
4.1147584859
 10
-41.7986005836
 20
4.1160600579
 10
-41.785463535
 20
4.1170825061
 10
-41.7723134044
 20
4.1178447717
 10
-41.7591640742
 20
4.118365796
 10
-41.7460294265
 20
4.1186645203
 10
-41.7329233436
 20
4.1187598859
  0
LWPOLYLINE
  5
43E
100
AcDbEntity
  8
0
100
AcDbPolyline
 62
250
  6
CONTINUOUS
 90
3
 70
0
 10
-42.1424852039
 20
3.6866121309
 10
-42.1406363398
 20
3.7020250568
 10
-42.138927088
 20
3.7174608972
  0
LINE
  5
43F
100
AcDbEntity
  8
0
100
AcDbLine
 62
7
  6
CONTINUOUS
 10
-41.7290053994
 20
2.70079
 11
-40.8415756365
 21
3.5882197628
  0
LINE
  5
440
100
AcDbEntity
  8
0
100
AcDbLine
 62
250
  6
CONTINUOUS
 10
-42.0880568595
 20
-5.386478
 11
-41.382542815
 21
-5.386471
  0
LINE
  5
441
100
AcDbEntity
  8
0
100
AcDbLine
 62
250
  6
CONTINUOUS
 10
-40.8461842324
 20
-5.378409
 11
-39.7251687826
 21
-5.378474
  0
LWPOLYLINE
  5
442
100
AcDbEntity
  8
0
100
AcDbPolyline
 62
250
  6
CONTINUOUS
 90
73
 70
0
 10
-40.9159099884
 20
-4.255024
 10
-40.9296024796
 20
-4.2241841821
 10
-40.9444901125
 20
-4.1938422761
 10
-40.9605427931
 20
-4.1640480313
 10
-40.9777304275
 20
-4.1348511972
 10
-40.9960229219
 20
-4.1063015231
 10
-41.0153901824
 20
-4.0784487582
 10
-41.035802115
 20
-4.051342652
 10
-41.0572286258
 20
-4.0250329538
 10
-41.079639621
 20
-3.9995694128
 10
-41.1030036605
 20
-3.9749981577
 10
-41.1272839191
 20
-3.9513508336
 10
-41.1524422258
 20
-3.9286554648
 10
-41.1784404092
 20
-3.9069400756
 10
-41.2052402981
 20
-3.8862326905
 10
-41.2328037214
 20
-3.8665613336
 10
-41.2610925078
 20
-3.8479540295
 10
-41.290068486
 20
-3.8304388024
 10
-41.3196934849
 20
-3.8140436766
 10
-41.3499278258
 20
-3.7987946565
 10
-41.3807258006
 20
-3.7847096666
 10
-41.4120401939
 20
-3.7718046114
 10
-41.4438237903
 20
-3.7600953953
 10
-41.4760293741
 20
-3.7495979229
 10
-41.5086097301
 20
-3.7403280986
 10
-41.5415176427
 20
-3.7323018269
 10
-41.5747058964
 20
-3.7255350123
 10
-41.6081272758
 20
-3.7200435593
 10
-41.6417342157
 20
-3.715840458
 10
-41.675477752
 20
-3.7129270416
 10
-41.7093085712
 20
-3.7113017286
 10
-41.7431773594
 20
-3.7109629379
 10
-41.777034803
 20
-3.711909088
 10
-41.8108315881
 20
-3.7141385976
 10
-41.8445184012
 20
-3.7176498856
 10
-41.8780459284
 20
-3.7224413705
 10
-41.911364856
 20
-3.7285114712
 10
-41.9444264127
 20
-3.735855921
 10
-41.9771839962
 20
-3.7444597129
 10
-42.0095915467
 20
-3.7543051544
 10
-42.0416030042
 20
-3.7653745533
 10
-42.0731723089
 20
-3.7776502172
 10
-42.1042534008
 20
-3.7911144537
 10
-42.1348002202
 20
-3.8057495705
 10
-42.164766707
 20
-3.8215378752
 10
-42.1941068014
 20
-3.8384616756
 10
-42.2227758968
 20
-3.8565007292
 10
-42.2507351998
 20
-3.8756245941
 10
-42.27794737
 20
-3.8958002783
 10
-42.3043750673
 20
-3.9169947897
 10
-42.3299809515
 20
-3.9391751365
 10
-42.3547276825
 20
-3.9623083266
 10
-42.3785779199
 20
-3.986361368
 10
-42.4014943235
 20
-4.0113012687
 10
-42.4234395533
 20
-4.0370950369
 10
-42.444378442
 20
-4.0637084042
 10
-42.4642845149
 20
-4.0911019976
 10
-42.4831334702
 20
-4.119235168
 10
-42.5009010062
 20
-4.1480672661
 10
-42.5175628211
 20
-4.1775576426
 10
-42.5330946133
 20
-4.2076656483
 10
-42.5474720809
 20
-4.238350634
 10
-42.5606709224
 20
-4.2695719505
 10
-42.5726668359
 20
-4.3012889485
 10
-42.5834381655
 20
-4.3334581646
 10
-42.5929738387
 20
-4.3660248793
 10
-42.6012654289
 20
-4.3989315587
 10
-42.6083045092
 20
-4.4321206689
 10
-42.614082653
 20
-4.4655346762
 10
-42.6185914335
 20
-4.4991160468
 10
-42.6218224242
 20
-4.5328072468
 10
-42.6237671981
 20
-4.5665507425
 10
-42.6244173287
 20
-4.600289
  0
LINE
  5
443
100
AcDbEntity
  8
0
100
AcDbLine
 62
250
  6
CONTINUOUS
 10
-41.3317799787
 20
3.763813985
 11
-41.3269195993
 21
3.7174608972
  0
LWPOLYLINE
  5
444
100
AcDbEntity
  8
0
100
AcDbPolyline
 62
250
  6
CONTINUOUS
 90
53
 70
0
 10
-40.8415753419
 20
3.5882200575
 10
-40.8451546402
 20
3.6948258614
 10
-40.847181258
 20
3.7481210085
 10
-40.849823303
 20
3.8013969153
 10
-40.8525968751
 20
3.8439758624
 10
-40.856083976
 20
3.8865062021
 10
-40.8603851699
 20
3.9289583793
 10
-40.865601021
 20
3.9713028391
 10
-40.8718320937
 20
4.0135100265
 10
-40.87787555
 20
4.0485966381
 10
-40.884724827
 20
4.0835398425
 10
-40.8924090403
 20
4.1183123618
 10
-40.9009573054
 20
4.1528869186
 10
-40.9103987378
 20
4.1872362349
 10
-40.9207624533
 20
4.2213330331
 10
-40.9304034694
 20
4.2503226951
 10
-40.940790557
 20
4.2790577062
 10
-40.9519712438
 20
4.3074888493
 10
-40.9639930579
 20
4.3355669076
 10
-40.976903527
 20
4.363242664
 10
-40.9907501792
 20
4.3904669015
 10
-41.0055805422
 20
4.4171904032
 10
-41.0194093284
 20
4.4401425663
 10
-41.0340272647
 20
4.4626213833
 10
-41.0494324551
 20
4.484575368
 10
-41.0656230036
 20
4.5059530338
 10
-41.0825970142
 20
4.5267028944
 10
-41.1003525908
 20
4.5467734634
 10
-41.1188878376
 20
4.5661132544
 10
-41.1382008584
 20
4.584670781
 10
-41.1582616621
 20
4.6023841097
 10
-41.1790487966
 20
4.6192547416
 10
-41.2005142606
 20
4.6352720693
 10
-41.2226100528
 20
4.6504254852
 10
-41.2452881718
 20
4.6647043821
 10
-41.2685006164
 20
4.6780981526
 10
-41.2921993852
 20
4.6905961892
 10
-41.316336477
 20
4.7021878845
 10
-41.3408673464
 20
4.7128694219
 10
-41.3657531409
 20
4.7226606687
 10
-41.390958421
 20
4.7315883841
 10
-41.4164477469
 20
4.7396793272
 10
-41.4421856793
 20
4.7469602571
 10
-41.4681367784
 20
4.753457933
 10
-41.4942656048
 20
4.7591991139
 10
-41.5205367188
 20
4.7642105591
 10
-41.5506494728
 20
4.7690729355
 10
-41.5808777142
 20
4.7730645828
 10
-41.611197789
 20
4.776230213
 10
-41.6415860433
 20
4.7786145378
 10
-41.6720188232
 20
4.7802622694
 10
-41.7024724746
 20
4.7812181196
 10
-41.7329233436
 20
4.7815268003
  0
LINE
  5
445
100
AcDbEntity
  8
0
100
AcDbLine
 62
250
  6
CONTINUOUS
 10
-42.0880568595
 20
-4.680792
 11
-42.0880568595
 21
-5.386478
  0
LINE
  5
446
100
AcDbEntity
  8
0
100
AcDbLine
 62
250
  6
CONTINUOUS
 10
-41.382542815
 20
-5.386471
 11
-41.382542815
 21
-4.680792
  0
LINE
  5
447
100
AcDbEntity
  8
0
100
AcDbLine
 62
250
  6
CONTINUOUS
 10
-41.3233618463
 20
3.323396
 11
-41.3233618463
 21
3.686612
  0
LINE
  5
448
100
AcDbEntity
  8
0
100
AcDbLine
 62
250
  6
CONTINUOUS
 10
-40.8461772345
 20
-7.84744
 11
-40.8461772345
 21
-7.285246
  0
LINE
  5
449
100
AcDbEntity
  8
0
100
AcDbLine
 62
250
  6
CONTINUOUS
 10
-40.8461772345
 20
-4.872178
 11
-40.8461842324
 21
-5.378409
  0
LINE
  5
44A
100
AcDbEntity
  8
0
100
AcDbLine
 62
250
  6
CONTINUOUS
 10
-40.8415756365
 20
3.58822
 11
-40.8415756365
 21
3.323396
  0
LINE
  5
44B
100
AcDbEntity
  8
0
100
AcDbLine
 62
250
  6
CONTINUOUS
 10
-40.8213917861
 20
15.007869
 11
-40.8213917861
 21
14.176491
  0
LINE
  5
44C
100
AcDbEntity
  8
0
100
AcDbLine
 62
250
  6
CONTINUOUS
 10
-40.8213917861
 20
8.982943
 11
-40.8213917861
 21
8.151456
  0
LINE
  5
44D
100
AcDbEntity
  8
0
100
AcDbLine
 62
250
  6
CONTINUOUS
 10
-40.3396055764
 20
7.990812
 11
-40.3396055764
 21
9.139549
  0
LINE
  5
44E
100
AcDbEntity
  8
0
100
AcDbLine
 62
250
  6
CONTINUOUS
 10
-40.3396055764
 20
14.015846
 11
-40.3396055764
 21
15.164584
  0
LINE
  5
44F
100
AcDbEntity
  8
0
100
AcDbLine
 62
250
  6
CONTINUOUS
 10
-40.2953230684
 20
-7.108317
 11
-40.2953230684
 21
-8.024362
  0
LINE
  5
450
100
AcDbEntity
  8
0
100
AcDbLine
 62
250
  6
CONTINUOUS
 10
-40.2069399969
 20
5.793739
 11
-40.2069399969
 21
6.866738
  0
LWPOLYLINE
  5
451
100
AcDbEntity
  8
0
100
AcDbPolyline
 62
250
  6
CONTINUOUS
 90
36
 70
0
 10
-36.5002182633
 20
6.103542891
 10
-36.5133601032
 20
6.0901079138
 10
-36.5261005006
 20
6.0762969087
 10
-36.5384451528
 20
6.062124287
 10
-36.5503997569
 20
6.0476044602
 10
-36.5619700101
 20
6.0327518397
 10
-36.5731616097
 20
6.017580837
 10
-36.5839802527
 20
6.0021058634
 10
-36.5944316365
 20
5.9863413305
 10
-36.6045214581
 20
5.9703016496
 10
-36.6142554148
 20
5.9540012322
 10
-36.6236392038
 20
5.9374544897
 10
-36.6326785223
 20
5.9206758336
 10
-36.6413790675
 20
5.9036796753
 10
-36.6497465366
 20
5.8864804262
 10
-36.6577866267
 20
5.8690924979
 10
-36.665505035
 20
5.8515303016
 10
-36.6729074589
 20
5.8338082489
 10
-36.6799995953
 20
5.8159407511
 10
-36.6867871416
 20
5.7979422198
 10
-36.693275795
 20
5.7798270664
 10
-36.6994712526
 20
5.7616097022
 10
-36.7053792116
 20
5.7433045388
 10
-36.7110053692
 20
5.7249259875
 10
-36.7163554226
 20
5.7064884599
 10
-36.7214350691
 20
5.6880063672
 10
-36.7262500057
 20
5.6694941211
 10
-36.7308059298
 20
5.6509661329
 10
-36.7351085384
 20
5.632436814
 10
-36.7409529222
 20
5.6054102254
 10
-36.746331595
 20
5.5784004564
 10
-36.7513063533
 20
5.5513964603
 10
-36.7559389937
 20
5.5243871904
 10
-36.7602913126
 20
5.4973615999
 10
-36.7644251066
 20
5.4703086422
 10
-36.7722843061
 20
5.4160764381
  0
LINE
  5
452
100
AcDbEntity
  8
0
100
AcDbLine
 62
250
  6
CONTINUOUS
 10
-28.528763122
 20
8.8095237446
 11
-27.2289611183
 21
9.5245237446
  0
LWPOLYLINE
  5
453
100
AcDbEntity
  8
RACCORDO
100
AcDbPolyline
 62
250
  6
CONTINUOUS
 90
37
 70
0
 10
-24.9872829588
 20
11.0761499917
 10
-24.9820752732
 20
11.0789001557
 10
-24.9770495398
 20
11.082007219
 10
-24.972212473
 20
11.0854670307
 10
-24.9675705351
 20
11.0892749684
 10
-24.9631299275
 20
11.0934259448
 10
-24.9588965829
 20
11.0979144144
 10
-24.9548761568
 20
11.1027343805
 10
-24.9510740205
 20
11.1078794039
 10
-24.9474952536
 20
11.1133426108
 10
-24.9441446373
 20
11.1191167026
 10
-24.9410266478
 20
11.1251939651
 10
-24.9381454508
 20
11.1315662793
 10
-24.9355048954
 20
11.1382251317
 10
-24.9331085095
 20
11.1451616264
 10
-24.9309594944
 20
11.1523664963
 10
-24.9290607213
 20
11.1598301159
 10
-24.9274147269
 20
11.1675425138
 10
-24.9260237101
 20
11.1754933864
 10
-24.9248895294
 20
11.1836721116
 10
-24.9240136999
 20
11.1920677627
 10
-24.9233973918
 20
11.2006691232
 10
-24.9230414284
 20
11.209464702
 10
-24.9229462852
 20
11.2184427482
 10
-24.9231120895
 20
11.2275912673
 10
-24.9235386195
 20
11.2368980372
 10
-24.9242253056
 20
11.2463506241
 10
-24.9251712302
 20
11.2559363995
 10
-24.9263751297
 20
11.2656425571
 10
-24.9278353956
 20
11.2754561295
 10
-24.929550077
 20
11.285364006
 10
-24.9315168832
 20
11.2953529499
 10
-24.9337331865
 20
11.3054096162
 10
-24.9361960259
 20
11.3155205692
 10
-24.9389021111
 20
11.325672301
 10
-24.9418478269
 20
11.335851249
 10
-24.9450292378
 20
11.3460438143
  0
LWPOLYLINE
  5
454
100
AcDbEntity
  8
ASSI
100
AcDbPolyline
 62
250
  6
CONTINUOUS
 90
37
 70
0
 10
-24.9872829588
 20
11.0761499917
 10
-24.9820752732
 20
11.0789001557
 10
-24.9770495398
 20
11.082007219
 10
-24.972212473
 20
11.0854670307
 10
-24.9675705351
 20
11.0892749684
 10
-24.9631299275
 20
11.0934259448
 10
-24.9588965829
 20
11.0979144144
 10
-24.9548761568
 20
11.1027343805
 10
-24.9510740205
 20
11.1078794039
 10
-24.9474952536
 20
11.1133426108
 10
-24.9441446373
 20
11.1191167026
 10
-24.9410266478
 20
11.1251939651
 10
-24.9381454508
 20
11.1315662793
 10
-24.9355048954
 20
11.1382251317
 10
-24.9331085095
 20
11.1451616264
 10
-24.9309594944
 20
11.1523664963
 10
-24.9290607213
 20
11.1598301159
 10
-24.9274147269
 20
11.1675425138
 10
-24.9260237101
 20
11.1754933864
 10
-24.9248895294
 20
11.1836721116
 10
-24.9240136999
 20
11.1920677627
 10
-24.9233973918
 20
11.2006691232
 10
-24.9230414284
 20
11.209464702
 10
-24.9229462852
 20
11.2184427482
 10
-24.9231120895
 20
11.2275912673
 10
-24.9235386195
 20
11.2368980372
 10
-24.9242253056
 20
11.2463506241
 10
-24.9251712302
 20
11.2559363995
 10
-24.9263751297
 20
11.2656425571
 10
-24.9278353956
 20
11.2754561295
 10
-24.929550077
 20
11.285364006
 10
-24.9315168832
 20
11.2953529499
 10
-24.9337331865
 20
11.3054096162
 10
-24.9361960259
 20
11.3155205692
 10
-24.9389021111
 20
11.325672301
 10
-24.9418478269
 20
11.335851249
 10
-24.9450292378
 20
11.3460438143
  0
LWPOLYLINE
  5
455
100
AcDbEntity
  8
0
100
AcDbPolyline
 62
7
  6
CONTINUOUS
 90
2
 70
0
 43
0.3500000006
 10
-64.5062963104
 20
-3.3928568802
 10
-66.0062967682
 20
-3.3928568802
  0
LWPOLYLINE
  5
456
100
AcDbEntity
  8
0
100
AcDbPolyline
 62
7
  6
CONTINUOUS
 90
4
 70
0
 43
0.3500000006
 10
-64.934869812
 20
-2.0357142563
 10
-65.7920122833
 20
-2.0357142563
 10
-66.2205812531
 20
-1.6071430206
 10
-66.2205812531
 20
-0.9642850342
  0
LINE
  5
457
100
AcDbEntity
  8
RACCORDO
100
AcDbLine
 62
250
  6
CONTINUOUS
 10
-55.7562970303
 20
-1.75
 11
-55.6510978285
 21
-1.75
  0
LWPOLYLINE
  5
458
100
AcDbEntity
  8
RACCORDO
100
AcDbPolyline
 62
250
  6
CONTINUOUS
 90
37
 70
0
 10
-24.987282968
 20
-11.0761500106
 10
-24.9820752847
 20
-11.0789001725
 10
-24.9770495537
 20
-11.0820072339
 10
-24.9722124893
 20
-11.0854670438
 10
-24.9675705538
 20
-11.08927498
 10
-24.9631299488
 20
-11.0934259551
 10
-24.9588966067
 20
-11.0979144234
 10
-24.9548761832
 20
-11.1027343886
 10
-24.9510740496
 20
-11.1078794111
 10
-24.9474952855
 20
-11.1133426173
 10
-24.9441446721
 20
-11.1191167085
 10
-24.9410266856
 20
-11.1251939706
 10
-24.9381454917
 20
-11.1315662844
 10
-24.9355049396
 20
-11.1382251366
 10
-24.933108557
 20
-11.1451616312
 10
-24.9309595455
 20
-11.152366501
 10
-24.9290607761
 20
-11.1598301206
 10
-24.9274147856
 20
-11.1675425186
 10
-24.9260237728
 20
-11.1754933913
 10
-24.9248895963
 20
-11.1836721167
 10
-24.9240137713
 20
-11.1920677679
 10
-24.9233974678
 20
-11.2006691286
 10
-24.9230415092
 20
-11.2094647075
 10
-24.9229463711
 20
-11.2184427539
 10
-24.9231121805
 20
-11.2275912732
 10
-24.9235387161
 20
-11.2368980431
 10
-24.9242254078
 20
-11.2463506301
 10
-24.9251713383
 20
-11.2559364054
 10
-24.9263752439
 20
-11.2656425629
 10
-24.9278355162
 20
-11.275456135
 10
-24.9295502042
 20
-11.2853640112
 10
-24.9315170171
 20
-11.2953529547
 10
-24.9337333274
 20
-11.3054096203
 10
-24.9361961741
 20
-11.3155205725
 10
-24.9389022669
 20
-11.3256723034
 10
-24.9418479904
 20
-11.3358512503
 10
-24.9450294092
 20
-11.3460438143
  0
LWPOLYLINE
  5
459
100
AcDbEntity
  8
ASSI
100
AcDbPolyline
 62
250
  6
CONTINUOUS
 90
37
 70
0
 10
-24.987282968
 20
-11.0761500106
 10
-24.9820752847
 20
-11.0789001725
 10
-24.9770495537
 20
-11.0820072339
 10
-24.9722124893
 20
-11.0854670438
 10
-24.9675705538
 20
-11.08927498
 10
-24.9631299488
 20
-11.0934259551
 10
-24.9588966067
 20
-11.0979144234
 10
-24.9548761832
 20
-11.1027343886
 10
-24.9510740496
 20
-11.1078794111
 10
-24.9474952855
 20
-11.1133426173
 10
-24.9441446721
 20
-11.1191167085
 10
-24.9410266856
 20
-11.1251939706
 10
-24.9381454917
 20
-11.1315662844
 10
-24.9355049396
 20
-11.1382251366
 10
-24.933108557
 20
-11.1451616312
 10
-24.9309595455
 20
-11.152366501
 10
-24.9290607761
 20
-11.1598301206
 10
-24.9274147856
 20
-11.1675425186
 10
-24.9260237728
 20
-11.1754933913
 10
-24.9248895963
 20
-11.1836721167
 10
-24.9240137713
 20
-11.1920677679
 10
-24.9233974678
 20
-11.2006691286
 10
-24.9230415092
 20
-11.2094647075
 10
-24.9229463711
 20
-11.2184427539
 10
-24.9231121805
 20
-11.2275912732
 10
-24.9235387161
 20
-11.2368980431
 10
-24.9242254078
 20
-11.2463506301
 10
-24.9251713383
 20
-11.2559364054
 10
-24.9263752439
 20
-11.2656425629
 10
-24.9278355162
 20
-11.275456135
 10
-24.9295502042
 20
-11.2853640112
 10
-24.9315170171
 20
-11.2953529547
 10
-24.9337333274
 20
-11.3054096203
 10
-24.9361961741
 20
-11.3155205725
 10
-24.9389022669
 20
-11.3256723034
 10
-24.9418479904
 20
-11.3358512503
 10
-24.9450294092
 20
-11.3460438143
  0
LWPOLYLINE
  5
45A
100
AcDbEntity
  8
0
100
AcDbPolyline
 62
250
  6
CONTINUOUS
 90
3
 70
0
 10
-41.3269195993
 20
3.7174608972
 10
-41.3252103475
 20
3.7020250568
 10
-41.3233614833
 20
3.6866121309
  0
LINE
  5
45B
100
AcDbEntity
  8
0
100
AcDbLine
 62
250
  6
CONTINUOUS
 10
-39.7251537872
 20
-15.068868
 11
-39.725160785
 21
-14.488824
  0
LINE
  5
45C
100
AcDbEntity
  8
0
100
AcDbLine
 62
250
  6
CONTINUOUS
 10
-39.7251537872
 20
-13.171014
 11
-39.725160785
 21
-12.590992
  0
LINE
  5
45D
100
AcDbEntity
  8
0
100
AcDbLine
 62
250
  6
CONTINUOUS
 10
-39.725160785
 20
-10.882587
 11
-39.7251687826
 21
-10.30258
  0
LINE
  5
45E
100
AcDbEntity
  8
0
100
AcDbLine
 62
250
  6
CONTINUOUS
 10
-39.7251687826
 20
-8.207475
 11
-39.725160785
 21
-8.787497
  0
LINE
  5
45F
100
AcDbEntity
  8
0
100
AcDbLine
 62
250
  6
CONTINUOUS
 10
-39.7251757805
 20
-3.637619
 11
-39.7251687826
 21
-4.290924
  0
LINE
  5
460
100
AcDbEntity
  8
0
100
AcDbLine
 62
250
  6
CONTINUOUS
 10
-39.7251687826
 20
-5.378474
 11
-39.7251687826
 21
-5.958503
  0
LINE
  5
461
100
AcDbEntity
  8
0
100
AcDbLine
 62
250
  6
CONTINUOUS
 10
-39.725160785
 20
-12.010985
 11
-39.725160785
 21
-11.430963
  0
LINE
  5
462
100
AcDbEntity
  8
0
100
AcDbLine
 62
250
  6
CONTINUOUS
 10
-39.725160785
 20
-9.754197
 11
-39.725160785
 21
-9.174176
  0
LINE
  5
463
100
AcDbEntity
  8
0
100
AcDbLine
 62
250
  6
CONTINUOUS
 10
-39.7251537872
 20
12.911198
 11
-39.7251537872
 21
12.027546
  0
LINE
  5
464
100
AcDbEntity
  8
0
100
AcDbLine
 62
250
  6
CONTINUOUS
 10
-39.7251537872
 20
10.87477
 11
-39.7251537872
 21
10.292325
  0
LINE
  5
465
100
AcDbEntity
  8
0
100
AcDbLine
 62
250
  6
CONTINUOUS
 10
-39.7251537872
 20
6.866738
 11
-39.7251537872
 21
5.171133
  0
LINE
  5
466
100
AcDbEntity
  8
0
100
AcDbLine
 62
250
  6
CONTINUOUS
 10
-39.7251537872
 20
2.70079
 11
-39.7251537872
 21
3.323396
  0
LINE
  5
467
100
AcDbEntity
  8
0
100
AcDbLine
 62
250
  6
CONTINUOUS
 10
-39.7251537872
 20
7.179514
 11
-39.7251537872
 21
7.773964
  0
LINE
  5
468
100
AcDbEntity
  8
0
100
AcDbLine
 62
250
  6
CONTINUOUS
 10
-39.7251537872
 20
9.348431
 11
-39.7251537872
 21
9.975074
  0
LINE
  5
469
100
AcDbEntity
  8
0
100
AcDbLine
 62
250
  6
CONTINUOUS
 10
-39.7251537872
 20
13.20444
 11
-39.7251537872
 21
13.798889
  0
LINE
  5
46A
100
AcDbEntity
  8
0
100
AcDbLine
 62
250
  6
CONTINUOUS
 10
-39.7251537872
 20
15.373574
 11
-39.7251537872
 21
16.0
  0
LINE
  5
46B
100
AcDbEntity
  8
0
100
AcDbLine
 62
250
  6
CONTINUOUS
 10
-39.725160785
 20
-6.345182
 11
-39.7251687826
 21
-6.925211
  0
LINE
  5
46C
100
AcDbEntity
  8
RACCORDO
100
AcDbLine
 62
250
  6
CONTINUOUS
 10
-38.5695626283
 20
23.7269432826
 11
-38.5695626283
 21
22.3337915719
  0
LINE
  5
46D
100
AcDbEntity
  8
RACCORDO
100
AcDbLine
 62
250
  6
CONTINUOUS
 10
-38.5695626283
 20
-23.7269432831
 11
-38.5695626283
 21
-22.3337915719
  0
LINE
  5
46E
100
AcDbEntity
  8
0
100
AcDbLine
 62
250
  6
CONTINUOUS
 10
-38.225900002
 20
12.1835715353
 11
-38.225900002
 21
11.5864284647
  0
LINE
  5
46F
100
AcDbEntity
  8
0
100
AcDbLine
 62
250
  6
CONTINUOUS
 10
-38.225900002
 20
13.3778569293
 11
-38.225900002
 21
13.8257143569
  0
LINE
  5
470
100
AcDbEntity
  8
RACCORDO
100
AcDbLine
 62
7
  6
CONTINUOUS
 10
-38.1562970303
 20
23.2345294524
 11
-38.1562970303
 21
22.3301850577
  0
LINE
  5
471
100
AcDbEntity
  8
RACCORDO
100
AcDbLine
 62
7
  6
CONTINUOUS
 10
-38.1562970303
 20
-23.2345294524
 11
-38.1562970303
 21
-22.3301850577
  0
LINE
  5
472
100
AcDbEntity
  8
0
100
AcDbLine
 62
7
  6
CONTINUOUS
 10
-31.1751538299
 20
6.882351286
 11
-30.9651431158
 21
7.092362
  0
LINE
  5
473
100
AcDbEntity
  8
0
100
AcDbLine
 62
250
  6
CONTINUOUS
 10
-37.2315442717
 20
2.49987
 11
-32.2550163365
 21
7.231556
  0
LWPOLYLINE
  5
474
100
AcDbEntity
  8
RACCORDO
100
AcDbPolyline
 62
250
  6
CONTINUOUS
 90
31
 70
0
 10
-24.9450294247
 20
11.3460438143
 10
-24.954307054
 20
11.3386195377
 10
-24.9636601283
 20
11.3305600483
 10
-24.9730709294
 20
11.3218653462
 10
-24.9825175642
 20
11.3125582229
 10
-24.9919835864
 20
11.3026158868
 10
-25.0014572808
 20
11.2919699632
 10
-25.0109109283
 20
11.2806263218
 10
-25.0203263129
 20
11.2685790929
 10
-25.0297016222
 20
11.2557422924
 10
-25.0390105565
 20
11.2421119637
 10
-25.0482215579
 20
11.2276920634
 10
-25.057319121
 20
11.212408478
 10
-25.0662799854
 20
11.1962338825
 10
-25.0750565321
 20
11.1791956018
 10
-25.0835951633
 20
11.1613014966
 10
-25.0918570448
 20
11.1425462841
 10
-25.0998080424
 20
11.122935247
 10
-25.107403543
 20
11.1024920947
 10
-25.1146120549
 20
11.0811825824
 10
-25.121386905
 20
11.0590409548
 10
-25.1276668881
 20
11.0361936556
 10
-25.1334175189
 20
11.0126277654
 10
-25.1386052743
 20
10.9883562036
 10
-25.1431825078
 20
10.9635441712
 10
-25.1471253458
 20
10.9381503032
 10
-25.1504007412
 20
10.9122159646
 10
-25.1529676588
 20
10.8860304509
 10
-25.1548104507
 20
10.8596901939
 10
-25.1559237568
 20
10.8330987619
 10
-25.1562970303
 20
10.8062561548
  0
LWPOLYLINE
  5
475
100
AcDbEntity
  8
ASSI
100
AcDbPolyline
 62
250
  6
CONTINUOUS
 90
31
 70
0
 10
-24.9450294247
 20
11.3460438143
 10
-24.954307054
 20
11.3386195377
 10
-24.9636601283
 20
11.3305600483
 10
-24.9730709294
 20
11.3218653462
 10
-24.9825175642
 20
11.3125582229
 10
-24.9919835864
 20
11.3026158868
 10
-25.0014572808
 20
11.2919699632
 10
-25.0109109283
 20
11.2806263218
 10
-25.0203263129
 20
11.2685790929
 10
-25.0297016222
 20
11.2557422924
 10
-25.0390105565
 20
11.2421119637
 10
-25.0482215579
 20
11.2276920634
 10
-25.057319121
 20
11.212408478
 10
-25.0662799854
 20
11.1962338825
 10
-25.0750565321
 20
11.1791956018
 10
-25.0835951633
 20
11.1613014966
 10
-25.0918570448
 20
11.1425462841
 10
-25.0998080424
 20
11.122935247
 10
-25.107403543
 20
11.1024920947
 10
-25.1146120549
 20
11.0811825824
 10
-25.121386905
 20
11.0590409548
 10
-25.1276668881
 20
11.0361936556
 10
-25.1334175189
 20
11.0126277654
 10
-25.1386052743
 20
10.9883562036
 10
-25.1431825078
 20
10.9635441712
 10
-25.1471253458
 20
10.9381503032
 10
-25.1504007412
 20
10.9122159646
 10
-25.1529676588
 20
10.8860304509
 10
-25.1548104507
 20
10.8596901939
 10
-25.1559237568
 20
10.8330987619
 10
-25.1562970303
 20
10.8062561548
  0
LWPOLYLINE
  5
476
100
AcDbEntity
  8
RACCORDO
100
AcDbPolyline
 62
250
  6
CONTINUOUS
 90
91
 70
0
 10
-26.1388446239
 20
4.8032523966
 10
-26.1316941427
 20
4.8057952123
 10
-26.124496104
 20
4.8080814849
 10
-26.1172509107
 20
4.8101112143
 10
-26.1099662124
 20
4.8118909865
 10
-26.1026352067
 20
4.8134142156
 10
-26.0952366666
 20
4.8146611435
 10
-26.08776772
 20
4.8156343197
 10
-26.0802322594
 20
4.8163311947
 10
-26.0726192839
 20
4.8167243634
 10
-26.0649264756
 20
4.8168143452
 10
-26.0571573761
 20
4.8166006206
 10
-26.0493098439
 20
4.8160542256
 10
-26.0413818384
 20
4.815173686
 10
-26.0333768311
 20
4.813960476
 10
-26.02530099
 20
4.8123900539
 10
-26.017157893
 20
4.8104615061
 10
-26.0089455531
 20
4.8081757462
 10
-26.0006618369
 20
4.8055109738
 10
-25.9923221706
 20
4.8024747713
 10
-25.9839129152
 20
4.7990595563
 10
-25.9753886086
 20
4.7952207805
 10
-25.9667603838
 20
4.7909715468
 10
-25.9580196094
 20
4.7862987522
 10
-25.9490918821
 20
4.7811185402
 10
-25.9399698061
 20
4.7754333228
 10
-25.9306647289
 20
4.7692406879
 10
-25.9211312674
 20
4.7624495427
 10
-25.9113601098
 20
4.7550527049
 10
-25.901366123
 20
4.7470573568
 10
-25.8911408804
 20
4.7383939524
 10
-25.8806827729
 20
4.72905434
 10
-25.8700003973
 20
4.7190466714
 10
-25.8591010434
 20
4.7083258554
 10
-25.8479937555
 20
4.6968923009
 10
-25.8366778147
 20
4.684745599
 10
-25.8251463552
 20
4.6718394318
 10
-25.8134100185
 20
4.6581775217
 10
-25.8014684321
 20
4.6437561464
 10
-25.7892992073
 20
4.6285178208
 10
-25.7769028209
 20
4.6124514801
 10
-25.764292066
 20
4.5955681893
 10
-25.7514641891
 20
4.577843658
 10
-25.7384263849
 20
4.5592718149
 10
-25.7251875598
 20
4.5398587313
 10
-25.711748547
 20
4.5195983312
 10
-25.698138799
 20
4.4985193012
 10
-25.6843478803
 20
4.4765929547
 10
-25.6703193986
 20
4.4537271554
 10
-25.6560835425
 20
4.4299522182
 10
-25.6416362096
 20
4.4052378283
 10
-25.6268758627
 20
4.3794009048
 10
-25.6118101695
 20
4.3524190875
 10
-25.5964710893
 20
4.3243147367
 10
-25.5808018328
 20
4.2949718527
 10
-25.5648158066
 20
4.2643571527
 10
-25.5485543308
 20
4.2325039195
 10
-25.5320098448
 20
4.1993960014
 10
-25.5152840458
 20
4.1651627183
 10
-25.4983425367
 20
4.1296747503
 10
-25.4809923104
 20
4.0925279858
 10
-25.4632270783
 20
4.0535663226
 10
-25.4451721139
 20
4.0129458628
 10
-25.4268547651
 20
3.9707308018
 10
-25.4082121554
 20
3.9265803669
 10
-25.3894667778
 20
3.8808353308
 10
-25.3710483723
 20
3.8345822068
 10
-25.3530036638
 20
3.7878316005
 10
-25.3353861796
 20
3.7405729064
 10
-25.3185599842
 20
3.6938608211
 10
-25.3025963897
 20
3.6479106446
 10
-25.2874358837
 20
3.6025070769
 10
-25.2731865561
 20
3.5580589145
 10
-25.2598761486
 20
3.5147124617
 10
-25.2474507474
 20
3.4723214143
 10
-25.2358810835
 20
3.4308556557
 10
-25.2251518116
 20
3.3903022903
 10
-25.2152578563
 20
3.3506742138
 10
-25.2061873325
 20
3.3119799961
 10
-25.1979286716
 20
3.2742312127
 10
-25.1904670774
 20
3.2374162882
 10
-25.1837856367
 20
3.2015090663
 10
-25.1778722148
 20
3.1665230262
 10
-25.1727102077
 20
3.1324446887
 10
-25.1682789321
 20
3.0992074606
 10
-25.1645654903
 20
3.0668092002
 10
-25.1615571334
 20
3.0352520493
 10
-25.1592379402
 20
3.0044758396
 10
-25.1575957603
 20
2.9744605152
 10
-25.1566195978
 20
2.9452261322
 10
-25.1562970303
 20
2.9167726904
  0
LWPOLYLINE
  5
477
100
AcDbEntity
  8
ASSI
100
AcDbPolyline
 62
250
  6
CONTINUOUS
 90
91
 70
0
 10
-26.1388446239
 20
4.8032523966
 10
-26.1316941427
 20
4.8057952123
 10
-26.124496104
 20
4.8080814849
 10
-26.1172509107
 20
4.8101112143
 10
-26.1099662124
 20
4.8118909865
 10
-26.1026352067
 20
4.8134142156
 10
-26.0952366666
 20
4.8146611435
 10
-26.08776772
 20
4.8156343197
 10
-26.0802322594
 20
4.8163311947
 10
-26.0726192839
 20
4.8167243634
 10
-26.0649264756
 20
4.8168143452
 10
-26.0571573761
 20
4.8166006206
 10
-26.0493098439
 20
4.8160542256
 10
-26.0413818384
 20
4.815173686
 10
-26.0333768311
 20
4.813960476
 10
-26.02530099
 20
4.8123900539
 10
-26.017157893
 20
4.8104615061
 10
-26.0089455531
 20
4.8081757462
 10
-26.0006618369
 20
4.8055109738
 10
-25.9923221706
 20
4.8024747713
 10
-25.9839129152
 20
4.7990595563
 10
-25.9753886086
 20
4.7952207805
 10
-25.9667603838
 20
4.7909715468
 10
-25.9580196094
 20
4.7862987522
 10
-25.9490918821
 20
4.7811185402
 10
-25.9399698061
 20
4.7754333228
 10
-25.9306647289
 20
4.7692406879
 10
-25.9211312674
 20
4.7624495427
 10
-25.9113601098
 20
4.7550527049
 10
-25.901366123
 20
4.7470573568
 10
-25.8911408804
 20
4.7383939524
 10
-25.8806827729
 20
4.72905434
 10
-25.8700003973
 20
4.7190466714
 10
-25.8591010434
 20
4.7083258554
 10
-25.8479937555
 20
4.6968923009
 10
-25.8366778147
 20
4.684745599
 10
-25.8251463552
 20
4.6718394318
 10
-25.8134100185
 20
4.6581775217
 10
-25.8014684321
 20
4.6437561464
 10
-25.7892992073
 20
4.6285178208
 10
-25.7769028209
 20
4.6124514801
 10
-25.764292066
 20
4.5955681893
 10
-25.7514641891
 20
4.577843658
 10
-25.7384263849
 20
4.5592718149
 10
-25.7251875598
 20
4.5398587313
 10
-25.711748547
 20
4.5195983312
 10
-25.698138799
 20
4.4985193012
 10
-25.6843478803
 20
4.4765929547
 10
-25.6703193986
 20
4.4537271554
 10
-25.6560835425
 20
4.4299522182
 10
-25.6416362096
 20
4.4052378283
 10
-25.6268758627
 20
4.3794009048
 10
-25.6118101695
 20
4.3524190875
 10
-25.5964710893
 20
4.3243147367
 10
-25.5808018328
 20
4.2949718527
 10
-25.5648158066
 20
4.2643571527
 10
-25.5485543308
 20
4.2325039195
 10
-25.5320098448
 20
4.1993960014
 10
-25.5152840458
 20
4.1651627183
 10
-25.4983425367
 20
4.1296747503
 10
-25.4809923104
 20
4.0925279858
 10
-25.4632270783
 20
4.0535663226
 10
-25.4451721139
 20
4.0129458628
 10
-25.4268547651
 20
3.9707308018
 10
-25.4082121554
 20
3.9265803669
 10
-25.3894667778
 20
3.8808353308
 10
-25.3710483723
 20
3.8345822068
 10
-25.3530036638
 20
3.7878316005
 10
-25.3353861796
 20
3.7405729064
 10
-25.3185599842
 20
3.6938608211
 10
-25.3025963897
 20
3.6479106446
 10
-25.2874358837
 20
3.6025070769
 10
-25.2731865561
 20
3.5580589145
 10
-25.2598761486
 20
3.5147124617
 10
-25.2474507474
 20
3.4723214143
 10
-25.2358810835
 20
3.4308556557
 10
-25.2251518116
 20
3.3903022903
 10
-25.2152578563
 20
3.3506742138
 10
-25.2061873325
 20
3.3119799961
 10
-25.1979286716
 20
3.2742312127
 10
-25.1904670774
 20
3.2374162882
 10
-25.1837856367
 20
3.2015090663
 10
-25.1778722148
 20
3.1665230262
 10
-25.1727102077
 20
3.1324446887
 10
-25.1682789321
 20
3.0992074606
 10
-25.1645654903
 20
3.0668092002
 10
-25.1615571334
 20
3.0352520493
 10
-25.1592379402
 20
3.0044758396
 10
-25.1575957603
 20
2.9744605152
 10
-25.1566195978
 20
2.9452261322
 10
-25.1562970303
 20
2.9167726904
  0
LINE
  5
478
100
AcDbEntity
  8
0
100
AcDbLine
 62
250
  6
CONTINUOUS
 10
-28.528763122
 20
3.6342857873
 11
-27.2289611183
 21
4.0428571916
  0
LWPOLYLINE
  5
479
100
AcDbEntity
  8
RACCORDO
100
AcDbPolyline
 62
7
  6
CONTINUOUS
 90
121
 70
0
 10
-25.9997841139
 20
4.8835920749
 10
-25.9278887232
 20
4.9044819
 10
-25.8583962197
 20
4.9251019799
 10
-25.7913066034
 20
4.9454523146
 10
-25.7266901206
 20
4.9655264411
 10
-25.6644765251
 20
4.9853308225
 10
-25.6044550779
 20
5.0048848471
 10
-25.5466162622
 20
5.0241899826
 10
-25.4909695949
 20
5.0432447614
 10
-25.4373328881
 20
5.0620641701
 10
-25.3857005556
 20
5.0806486983
 10
-25.3360781836
 20
5.0989978563
 10
-25.2883003422
 20
5.1171251613
 10
-25.2423619303
 20
5.135031121
 10
-25.1982680489
 20
5.1527152276
 10
-25.1558685716
 20
5.1701894752
 10
-25.1151587913
 20
5.1874544427
 10
-25.0761434151
 20
5.2045095512
 10
-25.0386864385
 20
5.2213650577
 10
-25.0027834814
 20
5.2380216886
 10
-24.968438924
 20
5.2544787174
 10
-24.9355299018
 20
5.2707442229
 10
-24.9040524992
 20
5.2868190824
 10
-24.8740106318
 20
5.3027024184
 10
-24.8452931823
 20
5.3183996768
 10
-24.8178967427
 20
5.3339119456
 10
-24.791824721
 20
5.3492381368
 10
-24.7669762244
 20
5.3643804318
 10
-24.7433484098
 20
5.3793402175
 10
-24.7209441202
 20
5.3941161071
 10
-24.6996709914
 20
5.408706122
 10
-24.6795269551
 20
5.4231119611
 10
-24.6605140796
 20
5.4373319255
 10
-24.6425462054
 20
5.451358939
 10
-24.6256222134
 20
5.4651950235
 10
-24.6097432227
 20
5.478838157
 10
-24.5948264309
 20
5.4922751977
 10
-24.5808721702
 20
5.5055079934
 10
-24.5678801083
 20
5.5185346961
 10
-24.5557664471
 20
5.5313366208
 10
-24.5445318327
 20
5.5439166186
 10
-24.5341756188
 20
5.5562718384
 10
-24.5246120683
 20
5.5683750407
 10
-24.5158474873
 20
5.5802200886
 10
-24.5078755697
 20
5.591813119
 10
-24.5005916596
 20
5.6031453045
 10
-24.4940007806
 20
5.6142005333
 10
-24.4880979091
 20
5.6249949172
 10
-24.4827633183
 20
5.6355679638
 10
-24.4779900724
 20
5.6459121398
 10
-24.4737851072
 20
5.6560349785
 10
-24.4700495033
 20
5.6659985871
 10
-24.4667717982
 20
5.6758046435
 10
-24.4639634545
 20
5.6854514698
 10
-24.461559941
 20
5.69499614
 10
-24.4595517384
 20
5.7044401674
 10
-24.457948366
 20
5.7137820387
 10
-24.4567138509
 20
5.7230742879
 10
-24.4558399515
 20
5.7323174573
 10
-24.4553349093
 20
5.7415110046
 10
-24.4551874767
 20
5.7507058377
 10
-24.4553897475
 20
5.7599019321
 10
-24.4559496279
 20
5.7690993122
 10
-24.4568795882
 20
5.7783489584
 10
-24.4581713584
 20
5.7876503372
 10
-24.4598332085
 20
5.7970039821
 10
-24.4619024181
 20
5.8064624738
 10
-24.4643692738
 20
5.8160240071
 10
-24.4672434891
 20
5.8256903871
 10
-24.470591484
 20
5.8355196104
 10
-24.4744023319
 20
5.8455112296
 10
-24.4786869594
 20
5.8556656921
 10
-24.483544566
 20
5.8660423355
 10
-24.4889696046
 20
5.876649838
 10
-24.4949676222
 20
5.8874795214
 10
-24.5016544594
 20
5.8985646888
 10
-24.5090341206
 20
5.9099188633
 10
-24.5171026012
 20
5.9215285217
 10
-24.5259637283
 20
5.9333863975
 10
-24.5356229928
 20
5.9454980577
 10
-24.5460749037
 20
5.9578579353
 10
-24.5574068151
 20
5.9704420627
 10
-24.5696202749
 20
5.9832488612
 10
-24.5827137352
 20
5.9962799095
 10
-24.5967699057
 20
6.0095159762
 10
-24.611788681
 20
6.0229548218
 10
-24.6277701664
 20
6.0365986857
 10
-24.6447973876
 20
6.0504350546
 10
-24.6628693063
 20
6.0644620509
 10
-24.6819869608
 20
6.0786815523
 10
-24.7022364916
 20
6.0930866783
 10
-24.7236156694
 20
6.107675671
 10
-24.7461267235
 20
6.1224502883
 10
-24.7698624822
 20
6.1374089241
 10
-24.794820465
 20
6.1525504239
 10
-24.8210031525
 20
6.1678759423
 10
-24.8485108145
 20
6.1833873365
 10
-24.8773384509
 20
6.1990827574
 10
-24.9074910618
 20
6.2149640542
 10
-24.9390839181
 20
6.231038632
 10
-24.9721181238
 20
6.2473079283
 10
-25.0065925748
 20
6.2637705055
 10
-25.0426192291
 20
6.2804294561
 10
-25.0802019615
 20
6.2972866978
 10
-25.1193368973
 20
6.3143403129
 10
-25.1601243694
 20
6.3315876399
 10
-25.2025493522
 20
6.3490231284
 10
-25.2466268714
 20
6.3666523289
 10
-25.2925023378
 20
6.3844892318
 10
-25.3401665547
 20
6.4025321191
 10
-25.3896287188
 20
6.4207827088
 10
-25.4410618315
 20
6.4392601458
 10
-25.4944650098
 20
6.4579658532
 10
-25.5498391368
 20
6.4768984078
 10
-25.6073598627
 20
6.4960726855
 10
-25.6670164787
 20
6.5154868437
 10
-25.7288196936
 20
6.5351427248
 10
-25.7929772845
 20
6.5550607325
 10
-25.8595585103
 20
6.5752476679
 10
-25.9284941121
 20
6.5956967297
 10
-25.9997840897
 20
6.6164079181
  0
LWPOLYLINE
  5
47A
100
AcDbEntity
  8
ASSI
100
AcDbPolyline
 62
7
  6
CONTINUOUS
 90
121
 70
0
 10
-25.9997841139
 20
4.8835920749
 10
-25.9278887232
 20
4.9044819
 10
-25.8583962197
 20
4.9251019799
 10
-25.7913066034
 20
4.9454523146
 10
-25.7266901206
 20
4.9655264411
 10
-25.6644765251
 20
4.9853308225
 10
-25.6044550779
 20
5.0048848471
 10
-25.5466162622
 20
5.0241899826
 10
-25.4909695949
 20
5.0432447614
 10
-25.4373328881
 20
5.0620641701
 10
-25.3857005556
 20
5.0806486983
 10
-25.3360781836
 20
5.0989978563
 10
-25.2883003422
 20
5.1171251613
 10
-25.2423619303
 20
5.135031121
 10
-25.1982680489
 20
5.1527152276
 10
-25.1558685716
 20
5.1701894752
 10
-25.1151587913
 20
5.1874544427
 10
-25.0761434151
 20
5.2045095512
 10
-25.0386864385
 20
5.2213650577
 10
-25.0027834814
 20
5.2380216886
 10
-24.968438924
 20
5.2544787174
 10
-24.9355299018
 20
5.2707442229
 10
-24.9040524992
 20
5.2868190824
 10
-24.8740106318
 20
5.3027024184
 10
-24.8452931823
 20
5.3183996768
 10
-24.8178967427
 20
5.3339119456
 10
-24.791824721
 20
5.3492381368
 10
-24.7669762244
 20
5.3643804318
 10
-24.7433484098
 20
5.3793402175
 10
-24.7209441202
 20
5.3941161071
 10
-24.6996709914
 20
5.408706122
 10
-24.6795269551
 20
5.4231119611
 10
-24.6605140796
 20
5.4373319255
 10
-24.6425462054
 20
5.451358939
 10
-24.6256222134
 20
5.4651950235
 10
-24.6097432227
 20
5.478838157
 10
-24.5948264309
 20
5.4922751977
 10
-24.5808721702
 20
5.5055079934
 10
-24.5678801083
 20
5.5185346961
 10
-24.5557664471
 20
5.5313366208
 10
-24.5445318327
 20
5.5439166186
 10
-24.5341756188
 20
5.5562718384
 10
-24.5246120683
 20
5.5683750407
 10
-24.5158474873
 20
5.5802200886
 10
-24.5078755697
 20
5.591813119
 10
-24.5005916596
 20
5.6031453045
 10
-24.4940007806
 20
5.6142005333
 10
-24.4880979091
 20
5.6249949172
 10
-24.4827633183
 20
5.6355679638
 10
-24.4779900724
 20
5.6459121398
 10
-24.4737851072
 20
5.6560349785
 10
-24.4700495033
 20
5.6659985871
 10
-24.4667717982
 20
5.6758046435
 10
-24.4639634545
 20
5.6854514698
 10
-24.461559941
 20
5.69499614
 10
-24.4595517384
 20
5.7044401674
 10
-24.457948366
 20
5.7137820387
 10
-24.4567138509
 20
5.7230742879
 10
-24.4558399515
 20
5.7323174573
 10
-24.4553349093
 20
5.7415110046
 10
-24.4551874767
 20
5.7507058377
 10
-24.4553897475
 20
5.7599019321
 10
-24.4559496279
 20
5.7690993122
 10
-24.4568795882
 20
5.7783489584
 10
-24.4581713584
 20
5.7876503372
 10
-24.4598332085
 20
5.7970039821
 10
-24.4619024181
 20
5.8064624738
 10
-24.4643692738
 20
5.8160240071
 10
-24.4672434891
 20
5.8256903871
 10
-24.470591484
 20
5.8355196104
 10
-24.4744023319
 20
5.8455112296
 10
-24.4786869594
 20
5.8556656921
 10
-24.483544566
 20
5.8660423355
 10
-24.4889696046
 20
5.876649838
 10
-24.4949676222
 20
5.8874795214
 10
-24.5016544594
 20
5.8985646888
 10
-24.5090341206
 20
5.9099188633
 10
-24.5171026012
 20
5.9215285217
 10
-24.5259637283
 20
5.9333863975
 10
-24.5356229928
 20
5.9454980577
 10
-24.5460749037
 20
5.9578579353
 10
-24.5574068151
 20
5.9704420627
 10
-24.5696202749
 20
5.9832488612
 10
-24.5827137352
 20
5.9962799095
 10
-24.5967699057
 20
6.0095159762
 10
-24.611788681
 20
6.0229548218
 10
-24.6277701664
 20
6.0365986857
 10
-24.6447973876
 20
6.0504350546
 10
-24.6628693063
 20
6.0644620509
 10
-24.6819869608
 20
6.0786815523
 10
-24.7022364916
 20
6.0930866783
 10
-24.7236156694
 20
6.107675671
 10
-24.7461267235
 20
6.1224502883
 10
-24.7698624822
 20
6.1374089241
 10
-24.794820465
 20
6.1525504239
 10
-24.8210031525
 20
6.1678759423
 10
-24.8485108145
 20
6.1833873365
 10
-24.8773384509
 20
6.1990827574
 10
-24.9074910618
 20
6.2149640542
 10
-24.9390839181
 20
6.231038632
 10
-24.9721181238
 20
6.2473079283
 10
-25.0065925748
 20
6.2637705055
 10
-25.0426192291
 20
6.2804294561
 10
-25.0802019615
 20
6.2972866978
 10
-25.1193368973
 20
6.3143403129
 10
-25.1601243694
 20
6.3315876399
 10
-25.2025493522
 20
6.3490231284
 10
-25.2466268714
 20
6.3666523289
 10
-25.2925023378
 20
6.3844892318
 10
-25.3401665547
 20
6.4025321191
 10
-25.3896287188
 20
6.4207827088
 10
-25.4410618315
 20
6.4392601458
 10
-25.4944650098
 20
6.4579658532
 10
-25.5498391368
 20
6.4768984078
 10
-25.6073598627
 20
6.4960726855
 10
-25.6670164787
 20
6.5154868437
 10
-25.7288196936
 20
6.5351427248
 10
-25.7929772845
 20
6.5550607325
 10
-25.8595585103
 20
6.5752476679
 10
-25.9284941121
 20
6.5956967297
 10
-25.9997840897
 20
6.6164079181
  0
LWPOLYLINE
  5
47B
100
AcDbEntity
  8
RACCORDO
100
AcDbPolyline
 62
250
  6
CONTINUOUS
 90
94
 70
0
 10
-24.6606602981
 20
-11.6200030332
 10
-24.6129475743
 20
-11.6556930199
 10
-24.5660001648
 20
-11.6923096452
 10
-24.5198180693
 20
-11.7298529091
 10
-24.4743822748
 20
-11.7683394888
 10
-24.4297117945
 20
-11.8077527072
 10
-24.3858636678
 20
-11.8480425324
 10
-24.3428394875
 20
-11.8892097127
 10
-24.3006376608
 20
-11.9312534999
 10
-24.2593104489
 20
-11.9741216175
 10
-24.2188593599
 20
-12.0178146373
 10
-24.1792828856
 20
-12.0623319876
 10
-24.1406287622
 20
-12.1076196765
 10
-24.1028981529
 20
-12.1536784859
 10
-24.0660898945
 20
-12.200507634
 10
-24.030248234
 20
-12.2480507827
 10
-23.9953740899
 20
-12.296309086
 10
-23.9614665437
 20
-12.3452813899
 10
-23.928567087
 20
-12.3949078952
 10
-23.8966768696
 20
-12.4451895726
 10
-23.8657947416
 20
-12.4961254512
 10
-23.8359587455
 20
-12.5476528203
 10
-23.807170275
 20
-12.5997722464
 10
-23.7794279364
 20
-12.6524831628
 10
-23.7527655904
 20
-12.7057211582
 10
-23.7271845769
 20
-12.7594868203
 10
-23.702683556
 20
-12.8137795612
 10
-23.6792923697
 20
-12.8685332064
 10
-23.6570123529
 20
-12.9237483435
 10
-23.6358421706
 20
-12.9794243849
 10
-23.6158076593
 20
-13.0354933921
 10
-23.5969101875
 20
-13.0919559061
 10
-23.5791483867
 20
-13.1488113859
 10
-23.5625439888
 20
-13.2059902707
 10
-23.5470984242
 20
-13.2634929102
 10
-23.5328102626
 20
-13.3213189545
 10
-23.5196969443
 20
-13.3793977931
 10
-23.5077599011
 20
-13.4377297507
 10
-23.4969977012
 20
-13.4963145025
 10
-23.4874234901
 20
-13.5550804635
 10
-23.4790387216
 20
-13.6140278293
 10
-23.4718419417
 20
-13.6731564043
 10
-23.4658419338
 20
-13.732394016
 10
-23.4610401564
 20
-13.791740833
 10
-23.457435151
 20
-13.8511966867
 10
-23.4550313241
 20
-13.9106888998
 10
-23.4538301447
 20
-13.9702174859
 10
-23.4538301439
 20
-14.0297824312
 10
-23.4550313216
 20
-14.0893110173
 10
-23.4574351468
 20
-14.1488032305
 10
-23.4610401506
 20
-14.2082590845
 10
-23.4658419263
 20
-14.2676059016
 10
-23.4718419326
 20
-14.3268435136
 10
-23.4790387108
 20
-14.3859720889
 10
-23.4874234776
 20
-14.4449194549
 10
-23.4969976871
 20
-14.5036854159
 10
-23.5077598852
 20
-14.5622701676
 10
-23.5196969267
 20
-14.6206021253
 10
-23.5328102433
 20
-14.6786809642
 10
-23.5470984034
 20
-14.736507009
 10
-23.5625439664
 20
-14.7940096491
 10
-23.5791483628
 20
-14.8511885348
 10
-23.5969101622
 20
-14.9080440157
 10
-23.6158076326
 20
-14.9645065307
 10
-23.6358421426
 20
-15.0205755391
 10
-23.6570123236
 20
-15.0762515817
 10
-23.6792923389
 20
-15.1314667194
 10
-23.702683523
 20
-15.1862203637
 10
-23.7271845413
 20
-15.2405131032
 10
-23.7527655525
 20
-15.2942787641
 10
-23.779427896
 20
-15.3475167586
 10
-23.8071702324
 20
-15.4002276747
 10
-23.8359587015
 20
-15.452347102
 10
-23.8657946979
 20
-15.5038744747
 10
-23.8966768271
 20
-15.5548103588
 10
-23.9285670459
 20
-15.6050920413
 10
-23.9614665048
 20
-15.6547185524
 10
-23.9953740534
 20
-15.703690862
 10
-24.0302481968
 20
-15.7519491669
 10
-24.0660898516
 20
-15.7994923108
 10
-24.1028981013
 20
-15.8463214501
 10
-24.1406287014
 20
-15.8923802508
 10
-24.1792828139
 20
-15.9376679305
 10
-24.2188592767
 20
-15.9821852717
 10
-24.2593103599
 20
-16.0258782883
 10
-24.3006375742
 20
-16.0687464117
 10
-24.3428394089
 20
-16.1107902105
 10
-24.3858636008
 20
-16.1519574048
 10
-24.4297117448
 20
-16.1922472475
 10
-24.4743822461
 20
-16.2316604856
 10
-24.5198180568
 20
-16.2701470805
 10
-24.5660001611
 20
-16.3076903526
 10
-24.6129475749
 20
-16.3443069813
 10
-24.6606602981
 20
-16.3799969668
  0
LWPOLYLINE
  5
47C
100
AcDbEntity
  8
ASSI
100
AcDbPolyline
 62
250
  6
CONTINUOUS
 90
94
 70
0
 10
-24.6606602981
 20
-11.6200030332
 10
-24.6129475743
 20
-11.6556930199
 10
-24.5660001648
 20
-11.6923096452
 10
-24.5198180693
 20
-11.7298529091
 10
-24.4743822748
 20
-11.7683394888
 10
-24.4297117945
 20
-11.8077527072
 10
-24.3858636678
 20
-11.8480425324
 10
-24.3428394875
 20
-11.8892097127
 10
-24.3006376608
 20
-11.9312534999
 10
-24.2593104489
 20
-11.9741216175
 10
-24.2188593599
 20
-12.0178146373
 10
-24.1792828856
 20
-12.0623319876
 10
-24.1406287622
 20
-12.1076196765
 10
-24.1028981529
 20
-12.1536784859
 10
-24.0660898945
 20
-12.200507634
 10
-24.030248234
 20
-12.2480507827
 10
-23.9953740899
 20
-12.296309086
 10
-23.9614665437
 20
-12.3452813899
 10
-23.928567087
 20
-12.3949078952
 10
-23.8966768696
 20
-12.4451895726
 10
-23.8657947416
 20
-12.4961254512
 10
-23.8359587455
 20
-12.5476528203
 10
-23.807170275
 20
-12.5997722464
 10
-23.7794279364
 20
-12.6524831628
 10
-23.7527655904
 20
-12.7057211582
 10
-23.7271845769
 20
-12.7594868203
 10
-23.702683556
 20
-12.8137795612
 10
-23.6792923697
 20
-12.8685332064
 10
-23.6570123529
 20
-12.9237483435
 10
-23.6358421706
 20
-12.9794243849
 10
-23.6158076593
 20
-13.0354933921
 10
-23.5969101875
 20
-13.0919559061
 10
-23.5791483867
 20
-13.1488113859
 10
-23.5625439888
 20
-13.2059902707
 10
-23.5470984242
 20
-13.2634929102
 10
-23.5328102626
 20
-13.3213189545
 10
-23.5196969443
 20
-13.3793977931
 10
-23.5077599011
 20
-13.4377297507
 10
-23.4969977012
 20
-13.4963145025
 10
-23.4874234901
 20
-13.5550804635
 10
-23.4790387216
 20
-13.6140278293
 10
-23.4718419417
 20
-13.6731564043
 10
-23.4658419338
 20
-13.732394016
 10
-23.4610401564
 20
-13.791740833
 10
-23.457435151
 20
-13.8511966867
 10
-23.4550313241
 20
-13.9106888998
 10
-23.4538301447
 20
-13.9702174859
 10
-23.4538301439
 20
-14.0297824312
 10
-23.4550313216
 20
-14.0893110173
 10
-23.4574351468
 20
-14.1488032305
 10
-23.4610401506
 20
-14.2082590845
 10
-23.4658419263
 20
-14.2676059016
 10
-23.4718419326
 20
-14.3268435136
 10
-23.4790387108
 20
-14.3859720889
 10
-23.4874234776
 20
-14.4449194549
 10
-23.4969976871
 20
-14.5036854159
 10
-23.5077598852
 20
-14.5622701676
 10
-23.5196969267
 20
-14.6206021253
 10
-23.5328102433
 20
-14.6786809642
 10
-23.5470984034
 20
-14.736507009
 10
-23.5625439664
 20
-14.7940096491
 10
-23.5791483628
 20
-14.8511885348
 10
-23.5969101622
 20
-14.9080440157
 10
-23.6158076326
 20
-14.9645065307
 10
-23.6358421426
 20
-15.0205755391
 10
-23.6570123236
 20
-15.0762515817
 10
-23.6792923389
 20
-15.1314667194
 10
-23.702683523
 20
-15.1862203637
 10
-23.7271845413
 20
-15.2405131032
 10
-23.7527655525
 20
-15.2942787641
 10
-23.779427896
 20
-15.3475167586
 10
-23.8071702324
 20
-15.4002276747
 10
-23.8359587015
 20
-15.452347102
 10
-23.8657946979
 20
-15.5038744747
 10
-23.8966768271
 20
-15.5548103588
 10
-23.9285670459
 20
-15.6050920413
 10
-23.9614665048
 20
-15.6547185524
 10
-23.9953740534
 20
-15.703690862
 10
-24.0302481968
 20
-15.7519491669
 10
-24.0660898516
 20
-15.7994923108
 10
-24.1028981013
 20
-15.8463214501
 10
-24.1406287014
 20
-15.8923802508
 10
-24.1792828139
 20
-15.9376679305
 10
-24.2188592767
 20
-15.9821852717
 10
-24.2593103599
 20
-16.0258782883
 10
-24.3006375742
 20
-16.0687464117
 10
-24.3428394089
 20
-16.1107902105
 10
-24.3858636008
 20
-16.1519574048
 10
-24.4297117448
 20
-16.1922472475
 10
-24.4743822461
 20
-16.2316604856
 10
-24.5198180568
 20
-16.2701470805
 10
-24.5660001611
 20
-16.3076903526
 10
-24.6129475749
 20
-16.3443069813
 10
-24.6606602981
 20
-16.3799969668
  0
LWPOLYLINE
  5
47D
100
AcDbEntity
  8
RACCORDO
100
AcDbPolyline
 62
250
  6
CONTINUOUS
 90
25
 70
0
 10
-24.9450294247
 20
-11.3460438143
 10
-24.9351737611
 20
-11.3537455433
 10
-24.9251104434
 20
-11.3617416388
 10
-24.9148430553
 20
-11.3700321007
 10
-24.9043751085
 20
-11.3786116748
 10
-24.8937109947
 20
-11.3874856153
 10
-24.8828560315
 20
-11.3966696848
 10
-24.8718142955
 20
-11.4061649814
 10
-24.8605912002
 20
-11.415970407
 10
-24.8491945793
 20
-11.4260984302
 10
-24.8376326584
 20
-11.4365470242
 10
-24.8259084571
 20
-11.4473182158
 10
-24.814022306
 20
-11.4584305537
 10
-24.8019807393
 20
-11.4698838156
 10
-24.789789652
 20
-11.4816782237
 10
-24.7774485064
 20
-11.4938329938
 10
-24.7649632795
 20
-11.5063493947
 10
-24.7523417915
 20
-11.5192261575
 10
-24.7395864793
 20
-11.5324786917
 10
-24.72670406
 20
-11.5461089071
 10
-24.713703303
 20
-11.5601148938
 10
-24.7005900955
 20
-11.5745063318
 10
-24.6873721825
 20
-11.5892864477
 10
-24.6740591917
 20
-11.6044520148
 10
-24.6606602981
 20
-11.6200030332
  0
LWPOLYLINE
  5
47E
100
AcDbEntity
  8
ASSI
100
AcDbPolyline
 62
250
  6
CONTINUOUS
 90
25
 70
0
 10
-24.9450294247
 20
-11.3460438143
 10
-24.9351737611
 20
-11.3537455433
 10
-24.9251104434
 20
-11.3617416388
 10
-24.9148430553
 20
-11.3700321007
 10
-24.9043751085
 20
-11.3786116748
 10
-24.8937109947
 20
-11.3874856153
 10
-24.8828560315
 20
-11.3966696848
 10
-24.8718142955
 20
-11.4061649814
 10
-24.8605912002
 20
-11.415970407
 10
-24.8491945793
 20
-11.4260984302
 10
-24.8376326584
 20
-11.4365470242
 10
-24.8259084571
 20
-11.4473182158
 10
-24.814022306
 20
-11.4584305537
 10
-24.8019807393
 20
-11.4698838156
 10
-24.789789652
 20
-11.4816782237
 10
-24.7774485064
 20
-11.4938329938
 10
-24.7649632795
 20
-11.5063493947
 10
-24.7523417915
 20
-11.5192261575
 10
-24.7395864793
 20
-11.5324786917
 10
-24.72670406
 20
-11.5461089071
 10
-24.713703303
 20
-11.5601148938
 10
-24.7005900955
 20
-11.5745063318
 10
-24.6873721825
 20
-11.5892864477
 10
-24.6740591917
 20
-11.6044520148
 10
-24.6606602981
 20
-11.6200030332
  0
LWPOLYLINE
  5
47F
100
AcDbEntity
  8
0
100
AcDbPolyline
 62
250
  6
CONTINUOUS
 90
57
 70
0
 10
-36.7824040205
 20
4.8430726704
 10
-36.780728962
 20
4.8056019211
 10
-36.7783950634
 20
4.7680536133
 10
-36.7754153045
 20
4.7304820334
 10
-36.7718026649
 20
4.6929414676
 10
-36.7675701244
 20
4.655486202
 10
-36.7627306628
 20
4.6181705228
 10
-36.7572972597
 20
4.5810487164
 10
-36.7512828949
 20
4.5441750688
 10
-36.7447005481
 20
4.5076038664
 10
-36.7375631991
 20
4.4713893953
 10
-36.7326860868
 20
4.4483427971
 10
-36.727542039
 20
4.4254360402
 10
-36.7220875767
 20
4.4026395177
 10
-36.7162792211
 20
4.3799236227
 10
-36.7100734935
 20
4.3572587486
 10
-36.7034269149
 20
4.3346152884
 10
-36.6962960065
 20
4.3119636353
 10
-36.6886372895
 20
4.2892741825
 10
-36.6804072851
 20
4.2665173232
 10
-36.6715625144
 20
4.2436634507
 10
-36.6620594986
 20
4.220682958
 10
-36.6518547588
 20
4.1975462383
 10
-36.6409048163
 20
4.1742236849
 10
-36.6351170096
 20
4.1624465914
 10
-36.629130968
 20
4.1506401302
 10
-36.6229470251
 20
4.1388291758
 10
-36.6165655144
 20
4.1270386026
 10
-36.6099867694
 20
4.1152932849
 10
-36.6032111236
 20
4.1036180971
 10
-36.5962389105
 20
4.0920379136
 10
-36.5890704636
 20
4.0805776088
 10
-36.5817061165
 20
4.0692620572
 10
-36.5741462027
 20
4.058116133
 10
-36.5663910556
 20
4.0471647107
 10
-36.5584410088
 20
4.0364326646
 10
-36.5502963959
 20
4.0259448692
 10
-36.5419575502
 20
4.0157261988
 10
-36.5334248054
 20
4.0058015279
 10
-36.5246984949
 20
3.9961957308
 10
-36.5157789523
 20
3.9869336819
 10
-36.5066665111
 20
3.9780402556
 10
-36.4973615047
 20
3.9695403262
 10
-36.4878642668
 20
3.9614587683
 10
-36.4781751308
 20
3.9538204561
 10
-36.4682944302
 20
3.946650264
 10
-36.4582224985
 20
3.9399730665
 10
-36.4479596694
 20
3.933813738
 10
-36.4375062762
 20
3.9281971527
 10
-36.4268626524
 20
3.9231481852
 10
-36.4160291317
 20
3.9186917098
 10
-36.4050060475
 20
3.9148526008
 10
-36.3937937333
 20
3.9116557327
 10
-36.3823925227
 20
3.9091259799
 10
-36.3708027491
 20
3.9072882168
 10
-36.3590247461
 20
3.9061673176
 10
-36.3470588472
 20
3.905788157
  0
LINE
  5
480
100
AcDbEntity
  8
0
100
AcDbLine
 62
250
  6
CONTINUOUS
 10
-37.4117383559
 20
15.4678569293
 11
-37.4117383559
 21
14.8209521437
  0
LINE
  5
481
100
AcDbEntity
  8
0
100
AcDbLine
 62
250
  6
CONTINUOUS
 10
-37.4117383559
 20
12.1835715353
 11
-37.4117383559
 21
11.885
  0
LINE
  5
482
100
AcDbEntity
  8
0
100
AcDbLine
 62
250
  6
CONTINUOUS
 10
-37.4117383559
 20
13.3778569293
 11
-37.4117383559
 21
13.8257143569
  0
LINE
  5
483
100
AcDbEntity
  8
0
100
AcDbLine
 62
250
  6
CONTINUOUS
 10
-36.7416169014
 20
4.218216
 11
-36.7416169014
 21
4.31759
  0
LINE
  5
484
100
AcDbEntity
  8
0
100
AcDbLine
 62
250
  6
CONTINUOUS
 10
-36.7332702326
 20
10.9892856431
 11
-36.7332702326
 21
9.9442857677
  0
LINE
  5
485
100
AcDbEntity
  8
0
100
AcDbLine
 62
250
  6
CONTINUOUS
 10
-36.3470590037
 20
3.690027
 11
-36.3470590037
 21
6.127934
  0
LINE
  5
486
100
AcDbEntity
  8
0
100
AcDbLine
 62
250
  6
CONTINUOUS
 10
-36.3261893812
 20
13.8257143569
 11
-36.3261893812
 21
13.3778569293
  0
LINE
  5
487
100
AcDbEntity
  8
0
100
AcDbLine
 62
250
  6
CONTINUOUS
 10
-36.3261893812
 20
11.5864284647
 11
-36.3261893812
 21
12.3328571784
  0
LINE
  5
488
100
AcDbEntity
  8
0
100
AcDbLine
 62
250
  6
CONTINUOUS
 10
-36.3261893812
 20
15.02
 11
-36.3261893812
 21
15.4678569293
  0
LINE
  5
489
100
AcDbEntity
  8
0
100
AcDbLine
 62
250
  6
CONTINUOUS
 10
-36.834576741
 20
4.843073
 11
-36.834018826
 21
5.416076
  0
LINE
  5
48A
100
AcDbEntity
  8
0
100
AcDbLine
 62
250
  6
CONTINUOUS
 10
-36.6165579514
 20
5.416076
 11
-36.6171158664
 21
4.843073
  0
LINE
  5
48B
100
AcDbEntity
  8
RACCORDO
100
AcDbLine
 62
250
  6
CONTINUOUS
 10
-24.4900593388
 20
16.6157250595
 11
-24.4933452117
 21
16.6109809497
  0
LINE
  5
48C
100
AcDbEntity
  8
ASSI
100
AcDbLine
 62
250
  6
CONTINUOUS
 10
-24.4900593388
 20
16.6157250595
 11
-24.4933452117
 21
16.6109809497
  0
LINE
  5
48D
100
AcDbEntity
  8
RACCORDO
100
AcDbLine
 62
250
  6
CONTINUOUS
 10
-24.4933452117
 20
16.6109809497
 11
-24.4975751932
 21
16.6049535463
  0
LINE
  5
48E
100
AcDbEntity
  8
ASSI
100
AcDbLine
 62
250
  6
CONTINUOUS
 10
-24.4933452117
 20
16.6109809497
 11
-24.4975751932
 21
16.6049535463
  0
LINE
  5
48F
100
AcDbEntity
  8
RACCORDO
100
AcDbLine
 62
250
  6
CONTINUOUS
 10
-24.4975751932
 20
16.6049535463
 11
-24.5087683645
 21
16.5891897499
  0
LINE
  5
490
100
AcDbEntity
  8
ASSI
100
AcDbLine
 62
250
  6
CONTINUOUS
 10
-24.4975751932
 20
16.6049535463
 11
-24.5087683645
 21
16.5891897499
  0
LINE
  5
491
100
AcDbEntity
  8
RACCORDO
100
AcDbLine
 62
250
  6
CONTINUOUS
 10
-24.5087683645
 20
16.5891897499
 11
-24.5318887199
 21
16.556977216
  0
LINE
  5
492
100
AcDbEntity
  8
ASSI
100
AcDbLine
 62
250
  6
CONTINUOUS
 10
-24.5087683645
 20
16.5891897499
 11
-24.5318887199
 21
16.556977216
  0
LINE
  5
493
100
AcDbEntity
  8
RACCORDO
100
AcDbLine
 62
250
  6
CONTINUOUS
 10
-24.5318887199
 20
16.556977216
 11
-24.5842495044
 21
16.4846914299
  0
LINE
  5
494
100
AcDbEntity
  8
ASSI
100
AcDbLine
 62
250
  6
CONTINUOUS
 10
-24.5318887199
 20
16.556977216
 11
-24.5842495044
 21
16.4846914299
  0
LWPOLYLINE
  5
495
100
AcDbEntity
  8
RACCORDO
100
AcDbPolyline
 62
250
  6
CONTINUOUS
 90
3
 70
0
 10
-24.5842495044
 20
16.4846914299
 10
-24.654056459
 20
16.3890173188
 10
-24.6606602981
 20
16.3799969668
  0
LWPOLYLINE
  5
496
100
AcDbEntity
  8
ASSI
100
AcDbPolyline
 62
250
  6
CONTINUOUS
 90
3
 70
0
 10
-24.5842495044
 20
16.4846914299
 10
-24.654056459
 20
16.3890173188
 10
-24.6606602981
 20
16.3799969668
  0
LINE
  5
497
100
AcDbEntity
  8
0
100
AcDbLine
 62
7
  6
CONTINUOUS
 10
-31.1751538299
 20
6.672340572
 11
-30.7551324018
 21
7.092362
  0
LINE
  5
498
100
AcDbEntity
  8
0
100
AcDbLine
 62
7
  6
CONTINUOUS
 10
-31.1751538299
 20
6.462329858
 11
-30.5451216878
 21
7.092362
  0
LINE
  5
499
100
AcDbEntity
  8
0
100
AcDbLine
 62
7
  6
CONTINUOUS
 10
-31.1751538299
 20
6.252319144
 11
-30.3351109738
 21
7.092362
  0
LINE
  5
49A
100
AcDbEntity
  8
0
100
AcDbLine
 62
7
  6
CONTINUOUS
 10
-31.1751538299
 20
6.0423084299
 11
-30.1562970303
 21
7.0611652295
  0
LINE
  5
49B
100
AcDbEntity
  8
0
100
AcDbLine
 62
7
  6
CONTINUOUS
 10
-31.1751538299
 20
5.8322977159
 11
-30.1562970303
 21
6.8511545155
  0
LINE
  5
49C
100
AcDbEntity
  8
0
100
AcDbLine
 62
7
  6
CONTINUOUS
 10
-31.1751538299
 20
5.6222870019
 11
-30.1562970303
 21
6.6411438014
  0
LINE
  5
49D
100
AcDbEntity
  8
0
100
AcDbLine
 62
7
  6
CONTINUOUS
 10
-31.1751538299
 20
5.4122762879
 11
-30.1562970303
 21
6.4311330874
  0
LINE
  5
49E
100
AcDbEntity
  8
0
100
AcDbLine
 62
7
  6
CONTINUOUS
 10
-31.1751538299
 20
5.2022655739
 11
-30.1562970303
 21
6.2211223734
  0
LINE
  5
49F
100
AcDbEntity
  8
0
100
AcDbLine
 62
7
  6
CONTINUOUS
 10
-31.1751538299
 20
4.9922548599
 11
-30.1562970303
 21
6.0111116594
  0
LINE
  5
4A0
100
AcDbEntity
  8
0
100
AcDbLine
 62
7
  6
CONTINUOUS
 10
-31.1751538299
 20
4.7822441459
 11
-30.1562970303
 21
5.8011009454
  0
LINE
  5
4A1
100
AcDbEntity
  8
0
100
AcDbLine
 62
7
  6
CONTINUOUS
 10
-31.1751538299
 20
4.5722334319
 11
-30.1562970303
 21
5.5910902314
  0
LINE
  5
4A2
100
AcDbEntity
  8
0
100
AcDbLine
 62
7
  6
CONTINUOUS
 10
-31.1751538299
 20
4.3622227178
 11
-30.1562970303
 21
5.3810795174
  0
LINE
  5
4A3
100
AcDbEntity
  8
0
100
AcDbLine
 62
7
  6
CONTINUOUS
 10
-31.1751538299
 20
4.1522120038
 11
-30.1562970303
 21
5.1710688034
  0
LINE
  5
4A4
100
AcDbEntity
  8
RACCORDO
100
AcDbLine
 62
7
  6
CONTINUOUS
 10
-24.8824437531
 20
2.3239590572
 11
-23.4301503075
 21
2.4510182698
  0
LINE
  5
4A5
100
AcDbEntity
  8
ASSI
100
AcDbLine
 62
7
  6
CONTINUOUS
 10
-24.8824437531
 20
2.3239590572
 11
-23.4301503075
 21
2.4510182698
  0
LINE
  5
4A6
100
AcDbEntity
  8
RACCORDO
100
AcDbLine
 62
250
  6
CONTINUOUS
 10
-55.7562970303
 20
1.75
 11
-55.6510978285
 21
1.7500000068
  0
LINE
  5
4A7
100
AcDbEntity
  8
0
100
AcDbLine
 62
250
  6
CONTINUOUS
 10
-27.2289611183
 20
2.0
 11
-28.528763122
 21
2.0
  0
LINE
  5
4A8
100
AcDbEntity
  8
RACCORDO
100
AcDbLine
 62
250
  6
CONTINUOUS
 10
-24.5670355205
 20
-16.5083907019
 11
-24.6606602979
 21
-16.3799969668
  0
LINE
  5
4A9
100
AcDbEntity
  8
ASSI
100
AcDbLine
 62
250
  6
CONTINUOUS
 10
-24.5670355205
 20
-16.5083907019
 11
-24.6606602979
 21
-16.3799969668
  0
LINE
  5
4AA
100
AcDbEntity
  8
RACCORDO
100
AcDbLine
 62
250
  6
CONTINUOUS
 10
-24.5233904715
 20
-16.5687835016
 11
-24.5670355205
 21
-16.5083907019
  0
LINE
  5
4AB
100
AcDbEntity
  8
ASSI
100
AcDbLine
 62
250
  6
CONTINUOUS
 10
-24.5233904715
 20
-16.5687835016
 11
-24.5670355205
 21
-16.5083907019
  0
LINE
  5
4AC
100
AcDbEntity
  8
RACCORDO
100
AcDbLine
 62
250
  6
CONTINUOUS
 10
-24.5056375811
 20
-16.5935814156
 11
-24.5233904715
 21
-16.5687835016
  0
LINE
  5
4AD
100
AcDbEntity
  8
ASSI
100
AcDbLine
 62
250
  6
CONTINUOUS
 10
-24.5056375811
 20
-16.5935814156
 11
-24.5233904715
 21
-16.5687835016
  0
LINE
  5
4AE
100
AcDbEntity
  8
RACCORDO
100
AcDbLine
 62
250
  6
CONTINUOUS
 10
-24.4975752163
 20
-16.6049535353
 11
-24.5056375811
 21
-16.5935814156
  0
LINE
  5
4AF
100
AcDbEntity
  8
ASSI
100
AcDbLine
 62
250
  6
CONTINUOUS
 10
-24.4975752163
 20
-16.6049535353
 11
-24.5056375811
 21
-16.5935814156
  0
LINE
  5
4B0
100
AcDbEntity
  8
RACCORDO
100
AcDbLine
 62
250
  6
CONTINUOUS
 10
-24.4933452348
 20
-16.6109809359
 11
-24.4975752163
 21
-16.6049535353
  0
LINE
  5
4B1
100
AcDbEntity
  8
ASSI
100
AcDbLine
 62
250
  6
CONTINUOUS
 10
-24.4933452348
 20
-16.6109809359
 11
-24.4975752163
 21
-16.6049535353
  0
LWPOLYLINE
  5
4B2
100
AcDbEntity
  8
0
100
AcDbPolyline
 62
250
  6
CONTINUOUS
 90
11
 70
0
 10
-34.3743634758
 20
11.4757811813
 10
-34.3746168076
 20
11.4897098595
 10
-34.3747624727
 20
11.5036372154
 10
-34.3748004127
 20
11.5175622618
 10
-34.3747305689
 20
11.5314840116
 10
-34.3745528828
 20
11.5454014776
 10
-34.3742672959
 20
11.5593136727
 10
-34.3738737495
 20
11.5732196096
 10
-34.3733721853
 20
11.5871183012
 10
-34.3727625445
 20
11.6010087604
 10
-34.3720447686
 20
11.61489
  0
LINE
  5
4B3
100
AcDbEntity
  8
0
100
AcDbLine
 62
250
  6
CONTINUOUS
 10
-35.9842042766
 20
6.067887
 11
-35.9842042766
 21
6.417947
  0
LINE
  5
4B4
100
AcDbEntity
  8
RACCORDO
100
AcDbLine
 62
250
  6
CONTINUOUS
 10
-35.6475708271
 20
21.308253669
 11
-35.6475708271
 21
20.9829813964
  0
LINE
  5
4B5
100
AcDbEntity
  8
RACCORDO
100
AcDbLine
 62
250
  6
CONTINUOUS
 10
-35.6475708271
 20
-20.9829813964
 11
-35.6475708271
 21
-21.308253669
  0
LINE
  5
4B6
100
AcDbEntity
  8
0
100
AcDbLine
 62
250
  6
CONTINUOUS
 10
-35.6117970047
 20
6.417947
 11
-35.6117970047
 21
6.067887
  0
LINE
  5
4B7
100
AcDbEntity
  8
0
100
AcDbLine
 62
250
  6
CONTINUOUS
 10
-35.5193950801
 20
4.78807
 11
-35.5193950801
 21
5.61141
  0
LINE
  5
4B8
100
AcDbEntity
  8
RACCORDO
100
AcDbLine
 62
250
  6
CONTINUOUS
 10
-35.4536790697
 20
20.9846734642
 11
-35.4536790697
 21
20.6806401735
  0
LINE
  5
4B9
100
AcDbEntity
  8
RACCORDO
100
AcDbLine
 62
250
  6
CONTINUOUS
 10
-35.4536790697
 20
-20.6806401735
 11
-35.4536790697
 21
-20.9846734642
  0
LINE
  5
4BA
100
AcDbEntity
  8
0
100
AcDbLine
 62
250
  6
CONTINUOUS
 10
-35.3037919225
 20
5.61141
 11
-35.3037919225
 21
4.78807
  0
LINE
  5
4BB
100
AcDbEntity
  8
RACCORDO
100
AcDbLine
 62
7
  6
CONTINUOUS
 10
-35.1562970303
 20
21.3126932437
 11
-35.1562970303
 21
20.6754493507
  0
LINE
  5
4BC
100
AcDbEntity
  8
DRAFT
100
AcDbLine
 62
7
  6
CONTINUOUS
 10
-35.1562970303
 20
-19.6109791689
 11
-35.1562970303
 21
-20.6754493507
  0
LINE
  5
4BD
100
AcDbEntity
  8
ASSI
100
AcDbLine
 62
7
  6
CONTINUOUS
 10
-35.1562970303
 20
-19.6109791689
 11
-35.1562970303
 21
-20.6754493507
  0
LINE
  5
4BE
100
AcDbEntity
  8
RACCORDO
100
AcDbLine
 62
7
  6
CONTINUOUS
 10
-35.1562970303
 20
-20.6754493507
 11
-35.1562970303
 21
-21.3126932437
  0
LINE
  5
4BF
100
AcDbEntity
  8
DRAFT
100
AcDbLine
 62
7
  6
CONTINUOUS
 10
-35.1562970303
 20
19.6109791689
 11
-35.1562970303
 21
20.6754493507
  0
LINE
  5
4C0
100
AcDbEntity
  8
ASSI
100
AcDbLine
 62
7
  6
CONTINUOUS
 10
-35.1562970303
 20
19.6109791689
 11
-35.1562970303
 21
20.6754493507
  0
LWPOLYLINE
  5
4C1
100
AcDbEntity
  8
0
100
AcDbPolyline
 62
250
  6
CONTINUOUS
 90
78
 70
0
 10
-35.1226330799
 20
16.000003
 10
-35.1245732934
 20
15.8949547349
 10
-35.1221700409
 20
15.7897930481
 10
-35.1154372443
 20
15.6847296759
 10
-35.1043888258
 20
15.5799763543
 10
-35.0890387074
 20
15.4757448197
 10
-35.0694008112
 20
15.3722468082
 10
-35.0454965724
 20
15.2696856524
 10
-35.0173774804
 20
15.1682310701
 10
-34.9851025376
 20
15.0680443753
 10
-34.9487307465
 20
14.9692868821
 10
-34.9083211097
 20
14.8721199046
 10
-34.8639326297
 20
14.776704757
 10
-34.8156308839
 20
14.6832013316
 10
-34.7635077489
 20
14.5917638349
 10
-34.7076616761
 20
14.5025450516
 10
-34.6481911172
 20
14.4156977665
 10
-34.5851945236
 20
14.3313747643
 10
-34.5187703467
 20
14.2497288297
 10
-34.449022702
 20
14.1709074612
 10
-34.3760783605
 20
14.0950370113
 10
-34.300069757
 20
14.0222385462
 10
-34.2211293265
 20
13.9526331323
 10
-34.1393895039
 20
13.8863418357
 10
-34.054982724
 20
13.8234857226
 10
-33.9680457141
 20
13.7641799601
 10
-33.8787323706
 20
13.7085161185
 10
-33.7872008821
 20
13.656579869
 10
-33.6936094372
 20
13.6084568826
 10
-33.5981162248
 20
13.5642328306
 10
-33.5008794333
 20
13.5239933841
 10
-33.4020599411
 20
13.4878172784
 10
-33.3018293844
 20
13.4557555058
 10
-33.2003620891
 20
13.4278521227
 10
-33.0978323809
 20
13.4041511856
 10
-32.9944145858
 20
13.3846967509
 10
-32.8902830295
 20
13.3695328751
 10
-32.7856129521
 20
13.358696272
 10
-32.6805832502
 20
13.3521942843
 10
-32.5753737347
 20
13.3500269121
 10
-32.4701642167
 20
13.3521941557
 10
-32.3651345068
 20
13.358696015
 10
-32.2604644162
 20
13.3695324903
 10
-32.1563328413
 20
13.3846962388
 10
-32.0529150224
 20
13.4041505471
 10
-31.9503852853
 20
13.4278513589
 10
-31.8489179559
 20
13.455754618
 10
-31.7486873601
 20
13.4878162681
 10
-31.6498678237
 20
13.523992253
 10
-31.5526309831
 20
13.5642315807
 10
-31.4571377166
 20
13.608455516
 10
-31.363546213
 20
13.656578388
 10
-31.2720146611
 20
13.7085145257
 10
-31.1827012495
 20
13.7641782581
 10
-31.0957641672
 20
13.8234839144
 10
-31.0113573106
 20
13.8863399243
 10
-30.929617407
 20
13.952631121
 10
-30.8506768915
 20
14.0222364385
 10
-30.7746681991
 20
14.0950348107
 10
-30.7017237649
 20
14.1709051714
 10
-30.6319760239
 20
14.2497264547
 10
-30.5655517473
 20
14.3313723081
 10
-30.5025550507
 20
14.4156952334
 10
-30.4430843857
 20
14.5025424458
 10
-30.3872382041
 20
14.5917611609
 10
-30.3351149574
 20
14.6831985939
 10
-30.2868130973
 20
14.7767019602
 10
-30.2424245008
 20
14.8721170536
 10
-30.2020147453
 20
14.9692839817
 10
-30.1656428336
 20
15.0680414304
 10
-30.1333677684
 20
15.1682280858
 10
-30.1052485525
 20
15.2696826338
 10
-30.0813441885
 20
15.3722437603
 10
-30.0617061658
 20
15.4757417478
 10
-30.0463559201
 20
15.5799732637
 10
-30.0353073737
 20
15.6847265717
 10
-30.0285744489
 20
15.7897899358
 10
-30.0261710679
 20
15.8949516196
  0
LWPOLYLINE
  5
4C2
100
AcDbEntity
  8
0
100
AcDbPolyline
 62
250
  6
CONTINUOUS
 90
78
 70
0
 10
-35.1226330799
 20
11.61489
 10
-35.12457317
 20
11.5098417757
 10
-35.1221697972
 20
11.4046801349
 10
-35.1154368839
 20
11.2996168135
 10
-35.1043883524
 20
11.1948635475
 10
-35.0890381249
 20
11.0906320728
 10
-35.0694001236
 20
10.9871341254
 10
-35.0454957842
 20
10.8845730376
 10
-35.017376596
 20
10.7831185268
 10
-34.9851015615
 20
10.682931907
 10
-34.9487296835
 20
10.584174492
 10
-34.9083199645
 20
10.4870075956
 10
-34.8639314071
 20
10.3915925317
 10
-34.8156295889
 20
10.2980891924
 10
-34.7635063864
 20
10.206651784
 10
-34.7076602513
 20
10.1174330909
 10
-34.6481896351
 20
10.0305858975
 10
-34.5851929892
 20
9.9462629883
 10
-34.5187687652
 20
9.8646171479
 10
-34.4490210785
 20
9.7857958743
 10
-34.3760767001
 20
9.70992552
 10
-34.3000680648
 20
9.6371271507
 10
-34.2211276075
 20
9.5675218327
 10
-34.1393877631
 20
9.5012306317
 10
-34.0549809663
 20
9.4383746138
 10
-33.9680439443
 20
9.3790689458
 10
-33.8787305935
 20
9.3234051978
 10
-33.7871991023
 20
9.2714690407
 10
-33.6936076594
 20
9.2233461454
 10
-33.5981144532
 20
9.1791221828
 10
-33.5008776723
 20
9.138882824
 10
-33.4020581948
 20
9.1027068039
 10
-33.3018276569
 20
9.0706451147
 10
-33.2003603841
 20
9.0427418127
 10
-33.0978307023
 20
9.0190409541
 10
-32.9944129369
 20
8.9995865953
 10
-32.8902814137
 20
8.9844227925
 10
-32.7856113725
 20
8.9735862593
 10
-32.6805817098
 20
8.9670843383
 10
-32.5753722364
 20
8.9649170298
 10
-32.4701627628
 20
8.9670843335
 10
-32.3651330998
 20
8.9735862495
 10
-32.2604630581
 20
8.9844227779
 10
-32.1563315343
 20
8.9995865759
 10
-32.052913768
 20
9.01904093
 10
-31.950384085
 20
9.0427417838
 10
-31.848916811
 20
9.0706450812
 10
-31.7486862716
 20
9.1027067657
 10
-31.6498667924
 20
9.1388827812
 10
-31.5526300097
 20
9.1791221356
 10
-31.4571368015
 20
9.2233460938
 10
-31.3635453563
 20
9.2714689848
 10
-31.2720138627
 20
9.3234051377
 10
-31.1827005093
 20
9.3790688816
 10
-31.0957634846
 20
9.4383745456
 10
-31.0113566849
 20
9.5012305595
 10
-30.9296168374
 20
9.5675217567
 10
-30.8506763769
 20
9.6371270712
 10
-30.7746677382
 20
9.7099254369
 10
-30.7017233563
 20
9.7857957879
 10
-30.631975666
 20
9.8646170582
 10
-30.5655514383
 20
9.9462628956
 10
-30.5025547885
 20
10.0305858018
 10
-30.4430841682
 20
10.1174329924
 10
-30.387238029
 20
10.206651683
 10
-30.3351148224
 20
10.298089089
 10
-30.2868129998
 20
10.391592426
 10
-30.2424244381
 20
10.4870074879
 10
-30.2020147146
 20
10.5841743825
 10
-30.165642832
 20
10.6829317958
 10
-30.1333677929
 20
10.7831184141
 10
-30.1052486
 20
10.8845729236
 10
-30.0813442559
 20
10.9871340103
 10
-30.0617062498
 20
11.0906319568
 10
-30.0463560175
 20
11.1948634307
 10
-30.0353074811
 20
11.2996166963
 10
-30.028574563
 20
11.4046800173
 10
-30.0261711854
 20
11.5098416581
  0
LWPOLYLINE
  5
4C3
100
AcDbEntity
  8
RACCORDO
100
AcDbPolyline
 62
250
  6
CONTINUOUS
 90
25
 70
0
 10
-24.6606602981
 20
11.6200030332
 10
-24.6741834155
 20
11.6043121472
 10
-24.6875943411
 20
11.5890381613
 10
-24.7008837959
 20
11.5741810756
 10
-24.7140369613
 20
11.5597509754
 10
-24.7270514501
 20
11.5457377754
 10
-24.7399371008
 20
11.5321112191
 10
-24.7526885449
 20
11.518868775
 10
-24.7652959087
 20
11.5060129746
 10
-24.7777624558
 20
11.4935211567
 10
-24.7900814997
 20
11.4813931834
 10
-24.8022461661
 20
11.4696291926
 10
-24.8142595252
 20
11.4582069357
 10
-24.8261155128
 20
11.4471261652
 10
-24.837807973
 20
11.4363871287
 10
-24.8493397959
 20
11.4259683203
 10
-24.8607085245
 20
11.4158669958
 10
-24.8719053855
 20
11.4060858993
 10
-24.8829239548
 20
11.3966117577
 10
-24.8937589153
 20
11.3874454277
 10
-24.904405971
 20
11.3785860526
 10
-24.9148606387
 20
11.370017788
 10
-24.9251187018
 20
11.3617353528
 10
-24.9351762068
 20
11.3537440282
 10
-24.9450294247
 20
11.3460438143
  0
LWPOLYLINE
  5
4C4
100
AcDbEntity
  8
ASSI
100
AcDbPolyline
 62
250
  6
CONTINUOUS
 90
25
 70
0
 10
-24.6606602981
 20
11.6200030332
 10
-24.6741834155
 20
11.6043121472
 10
-24.6875943411
 20
11.5890381613
 10
-24.7008837959
 20
11.5741810756
 10
-24.7140369613
 20
11.5597509754
 10
-24.7270514501
 20
11.5457377754
 10
-24.7399371008
 20
11.5321112191
 10
-24.7526885449
 20
11.518868775
 10
-24.7652959087
 20
11.5060129746
 10
-24.7777624558
 20
11.4935211567
 10
-24.7900814997
 20
11.4813931834
 10
-24.8022461661
 20
11.4696291926
 10
-24.8142595252
 20
11.4582069357
 10
-24.8261155128
 20
11.4471261652
 10
-24.837807973
 20
11.4363871287
 10
-24.8493397959
 20
11.4259683203
 10
-24.8607085245
 20
11.4158669958
 10
-24.8719053855
 20
11.4060858993
 10
-24.8829239548
 20
11.3966117577
 10
-24.8937589153
 20
11.3874454277
 10
-24.904405971
 20
11.3785860526
 10
-24.9148606387
 20
11.370017788
 10
-24.9251187018
 20
11.3617353528
 10
-24.9351762068
 20
11.3537440282
 10
-24.9450294247
 20
11.3460438143
  0
LINE
  5
4C5
100
AcDbEntity
  8
0
100
AcDbLine
 62
250
  6
CONTINUOUS
 10
-28.528763122
 20
4.9621428084
 11
-28.3430771325
 21
5.1664284253
  0
LINE
  5
4C6
100
AcDbEntity
  8
0
100
AcDbLine
 62
7
  6
CONTINUOUS
 10
-31.1751538299
 20
3.9422012898
 11
-30.1562970303
 21
4.9610580894
  0
LINE
  5
4C7
100
AcDbEntity
  8
0
100
AcDbLine
 62
7
  6
CONTINUOUS
 10
-31.1751538299
 20
3.7321905758
 11
-30.1562970303
 21
4.7510473753
  0
LINE
  5
4C8
100
AcDbEntity
  8
0
100
AcDbLine
 62
7
  6
CONTINUOUS
 10
-31.1751538299
 20
3.5221798618
 11
-30.1562970303
 21
4.5410366613
  0
LINE
  5
4C9
100
AcDbEntity
  8
0
100
AcDbLine
 62
7
  6
CONTINUOUS
 10
-31.1751538299
 20
3.3121691478
 11
-30.1562970303
 21
4.3310259473
  0
LINE
  5
4CA
100
AcDbEntity
  8
0
100
AcDbLine
 62
7
  6
CONTINUOUS
 10
-31.1751538299
 20
3.1021584338
 11
-30.1562970303
 21
4.1210152333
  0
LINE
  5
4CB
100
AcDbEntity
  8
0
100
AcDbLine
 62
7
  6
CONTINUOUS
 10
-31.1596635496
 20
2.907638
 11
-30.1562970303
 21
3.9110045193
  0
LINE
  5
4CC
100
AcDbEntity
  8
0
100
AcDbLine
 62
7
  6
CONTINUOUS
 10
-30.9496528356
 20
2.907638
 11
-30.1562970303
 21
3.7009938053
  0
LINE
  5
4CD
100
AcDbEntity
  8
0
100
AcDbLine
 62
7
  6
CONTINUOUS
 10
-30.7396421216
 20
2.907638
 11
-30.1562970303
 21
3.4909830913
  0
LINE
  5
4CE
100
AcDbEntity
  8
0
100
AcDbLine
 62
7
  6
CONTINUOUS
 10
-30.5296314076
 20
2.907638
 11
-30.1562970303
 21
3.2809723773
  0
LINE
  5
4CF
100
AcDbEntity
  8
0
100
AcDbLine
 62
7
  6
CONTINUOUS
 10
-30.3196206936
 20
2.907638
 11
-30.1562970303
 21
3.0709616632
  0
LINE
  5
4D0
100
AcDbEntity
  8
0
100
AcDbLine
 62
250
  6
CONTINUOUS
 10
-28.528763122
 20
2.0
 11
-27.7860191254
 21
2.4085714468
  0
LINE
  5
4D1
100
AcDbEntity
  8
0
100
AcDbLine
 62
250
  6
CONTINUOUS
 10
-40.915907989
 20
-4.255022
 11
-39.7251757805
 21
-3.637619
  0
LINE
  5
4D2
100
AcDbEntity
  8
0
100
AcDbLine
 62
250
  6
CONTINUOUS
 10
-39.7251687826
 20
-4.290924
 11
-40.8461772345
 21
-4.872178
  0
LINE
  5
4D3
100
AcDbEntity
  8
0
100
AcDbLine
 62
250
  6
CONTINUOUS
 10
-36.3470590037
 20
3.931124
 11
-32.9853500862
 21
4.225174
  0
LINE
  5
4D4
100
AcDbEntity
  8
0
100
AcDbLine
 62
250
  6
CONTINUOUS
 10
-42.624271486
 20
2.70079
 11
-39.7251537872
 21
2.70079
  0
LINE
  5
4D5
100
AcDbEntity
  8
0
100
AcDbLine
 62
250
  6
CONTINUOUS
 10
-28.528763122
 20
2.8171428937
 11
-27.2289611183
 21
2.8171428937
  0
LINE
  5
4D6
100
AcDbEntity
  8
0
100
AcDbLine
 62
250
  6
CONTINUOUS
 10
-30.1562970303
 20
2.907638
 11
-31.1751538299
 21
2.907638
  0
LINE
  5
4D7
100
AcDbEntity
  8
0
100
AcDbLine
 62
250
  6
CONTINUOUS
 10
-39.7251537872
 20
3.323396
 11
-40.8415756365
 21
3.323396
  0
LINE
  5
4D8
100
AcDbEntity
  8
0
100
AcDbLine
 62
250
  6
CONTINUOUS
 10
-41.3233618463
 20
3.323396
 11
-42.1424852763
 21
3.323396
  0
LINE
  5
4D9
100
AcDbEntity
  8
0
100
AcDbLine
 62
250
  6
CONTINUOUS
 10
-36.3470590037
 20
4.218216
 11
-36.7416169014
 21
4.218216
  0
LWPOLYLINE
  5
4DA
100
AcDbEntity
  8
0
100
AcDbPolyline
 62
250
  6
CONTINUOUS
 90
53
 70
0
 10
-41.7329233436
 20
4.1187598859
 10
-41.7198172608
 20
4.1186645203
 10
-41.7066826131
 20
4.118365796
 10
-41.6935332829
 20
4.1178447717
 10
-41.6803831523
 20
4.1170825061
 10
-41.6672461036
 20
4.1160600579
 10
-41.6541360191
 20
4.1147584859
 10
-41.641066781
 20
4.1131588488
 10
-41.6280522715
 20
4.1112422052
 10
-41.6151063728
 20
4.1089896139
 10
-41.6022429672
 20
4.1063821336
 10
-41.5894759369
 20
4.103400823
 10
-41.5768191642
 20
4.1000267408
 10
-41.5642865313
 20
4.0962409458
 10
-41.55268829
 20
4.0923141379
 10
-41.5412189385
 20
4.0880169238
 10
-41.5298866146
 20
4.0833556651
 10
-41.5186994561
 20
4.0783367237
 10
-41.507665601
 20
4.0729664611
 10
-41.4967931871
 20
4.0672512393
 10
-41.4860903522
 20
4.0611974199
 10
-41.4778864657
 20
4.0562543208
 10
-41.469809372
 20
4.0511022627
 10
-41.4618782386
 20
4.0457334888
 10
-41.4541122326
 20
4.0401402428
 10
-41.4465305215
 20
4.0343147679
 10
-41.4391522724
 20
4.0282493076
 10
-41.4319966527
 20
4.0219361053
 10
-41.4250828296
 20
4.0153674044
 10
-41.4184299704
 20
4.0085354483
 10
-41.4121028387
 20
4.001493113
 10
-41.4060520147
 20
3.9942009963
 10
-41.4002780327
 20
3.9866761124
 10
-41.3947814268
 20
3.9789354759
 10
-41.3895627313
 20
3.9709961011
 10
-41.3846224805
 20
3.9628750024
 10
-41.3799612086
 20
3.9545891942
 10
-41.3755794499
 20
3.9461556907
 10
-41.3714777387
 20
3.9375915065
 10
-41.3671631161
 20
3.9277426683
 10
-41.3631897996
 20
3.9177618517
 10
-41.3595383766
 20
3.907663209
 10
-41.3561894346
 20
3.8974608925
 10
-41.3531235613
 20
3.8871690543
 10
-41.3503213441
 20
3.8768018468
 10
-41.3477633706
 20
3.8663734222
 10
-41.3454302283
 20
3.8558979327
 10
-41.3424111462
 20
3.8406695016
 10
-41.3397657201
 20
3.8253812571
 10
-41.3374369201
 20
3.8100423913
 10
-41.3353677164
 20
3.794662096
 10
-41.3335010792
 20
3.7792495632
 10
-41.3317799787
 20
3.763813985
  0
LINE
  5
4DB
100
AcDbEntity
  8
0
100
AcDbLine
 62
250
  6
CONTINUOUS
 10
-32.9853500862
 20
4.225174
 11
-32.9853500862
 21
5.571041
  0
LINE
  5
4DC
100
AcDbEntity
  8
0
100
AcDbLine
 62
250
  6
CONTINUOUS
 10
-32.9502579576
 20
14.1395
 11
-32.9502579576
 21
15.6
  0
LINE
  5
4DD
100
AcDbEntity
  8
0
100
AcDbLine
 62
250
  6
CONTINUOUS
 10
-32.7889320062
 20
4.399503
 11
-32.7889320062
 21
4.281883
  0
LINE
  5
4DE
100
AcDbEntity
  8
0
100
AcDbLine
 62
250
  6
CONTINUOUS
 10
-32.2004863975
 20
15.6
 11
-32.2004863975
 21
14.1395
  0
LWPOLYLINE
  5
4DF
100
AcDbEntity
  8
RACCORDO
100
AcDbPolyline
 62
250
  6
CONTINUOUS
 90
4
 70
0
 10
-45.2900440017
 20
-23.644416731
 10
-45.2850609974
 20
-23.6353200472
 10
-45.282133572
 20
-23.6297684298
 10
-45.2812970303
 20
-23.6278312164
  0
LINE
  5
4E0
100
AcDbEntity
  8
RACCORDO
100
AcDbLine
 62
250
  6
CONTINUOUS
 10
-45.3058742412
 20
-23.6726901837
 11
-45.2900440017
 21
-23.644416731
  0
LINE
  5
4E1
100
AcDbEntity
  8
RACCORDO
100
AcDbLine
 62
250
  6
CONTINUOUS
 10
-45.3419645774
 20
-23.7361756335
 11
-45.3058742412
 21
-23.6726901837
  0
LINE
  5
4E2
100
AcDbEntity
  8
RACCORDO
100
AcDbLine
 62
250
  6
CONTINUOUS
 10
-45.4041153964
 20
-23.8443375673
 11
-45.3419645774
 21
-23.7361756335
  0
LWPOLYLINE
  5
4E3
100
AcDbEntity
  8
RACCORDO
100
AcDbPolyline
 62
7
  6
CONTINUOUS
 90
16
 70
0
 10
-26.1388446239
 20
4.8032522472
 10
-26.1311730443
 20
4.8103658909
 10
-26.123265998
 20
4.8172639496
 10
-26.1151234848
 20
4.8239464232
 10
-26.1067460382
 20
4.8304283665
 10
-26.0981331247
 20
4.8366947247
 10
-26.0892831447
 20
4.8427003336
 10
-26.080189282
 20
4.8484431586
 10
-26.0708583528
 20
4.8539252343
 10
-26.0613092058
 20
4.8591074997
 10
-26.0515364693
 20
4.8639856337
 10
-26.0415455149
 20
4.8685639575
 10
-26.0313713058
 20
4.8728163733
 10
-26.0210254965
 20
4.8767341818
 10
-26.0104964325
 20
4.8803260824
 10
-25.9997841139
 20
4.8835920749
  0
LWPOLYLINE
  5
4E4
100
AcDbEntity
  8
ASSI
100
AcDbPolyline
 62
7
  6
CONTINUOUS
 90
16
 70
0
 10
-26.1388446239
 20
4.8032522472
 10
-26.1311730443
 20
4.8103658909
 10
-26.123265998
 20
4.8172639496
 10
-26.1151234848
 20
4.8239464232
 10
-26.1067460382
 20
4.8304283665
 10
-26.0981331247
 20
4.8366947247
 10
-26.0892831447
 20
4.8427003336
 10
-26.080189282
 20
4.8484431586
 10
-26.0708583528
 20
4.8539252343
 10
-26.0613092058
 20
4.8591074997
 10
-26.0515364693
 20
4.8639856337
 10
-26.0415455149
 20
4.8685639575
 10
-26.0313713058
 20
4.8728163733
 10
-26.0210254965
 20
4.8767341818
 10
-26.0104964325
 20
4.8803260824
 10
-25.9997841139
 20
4.8835920749
  0
LINE
  5
4E5
100
AcDbEntity
  8
0
100
AcDbLine
 62
250
  6
CONTINUOUS
 10
-42.6244154422
 20
-7.276321
 11
-39.725160785
 21
-6.345182
  0
LINE
  5
4E6
100
AcDbEntity
  8
0
100
AcDbLine
 62
250
  6
CONTINUOUS
 10
-40.8461772345
 20
-7.285246
 11
-41.7214495572
 21
-7.56635
  0
LINE
  5
4E7
100
AcDbEntity
  8
0
100
AcDbLine
 62
250
  6
CONTINUOUS
 10
-39.7251687826
 20
-6.925211
 11
-40.2953230684
 21
-7.108317
  0
LWPOLYLINE
  5
4E8
100
AcDbEntity
  8
0
100
AcDbPolyline
 62
250
  6
CONTINUOUS
 90
17
 70
0
 10
-33.1064756354
 20
5.547108
 10
-33.0447977546
 20
5.5531564903
 10
-32.9854691651
 20
5.5710715761
 10
-32.9307496745
 20
5.6001708773
 10
-32.8819383818
 20
5.6401285431
 10
-32.8426018112
 20
5.6880249629
 10
-32.8133161125
 20
5.7426508799
 10
-32.795196769
 20
5.80192561
 10
-32.7889320062
 20
5.8647
 10
-32.7949795753
 20
5.9263872761
 10
-32.8128919325
 20
5.985724903
 10
-32.8419868018
 20
6.0404527289
 10
-32.8819383818
 20
6.0892714569
 10
-32.9298275067
 20
6.1286140196
 10
-32.9844451039
 20
6.1579041793
 10
-33.0437108062
 20
6.1760262829
 10
-33.1064756631
 20
6.182292
  0
LWPOLYLINE
  5
4E9
100
AcDbEntity
  8
0
100
AcDbPolyline
 62
250
  6
CONTINUOUS
 90
17
 70
0
 10
-33.1064756354
 20
5.72419
 10
-33.0791879234
 20
5.7268659911
 10
-33.0529395918
 20
5.7347920368
 10
-33.0287304316
 20
5.7476662365
 10
-33.0071351939
 20
5.7653444262
 10
-32.989731791
 20
5.7865349031
 10
-32.9767751248
 20
5.8107026642
 10
-32.9687587108
 20
5.8369271671
 10
-32.9659870357
 20
5.8647
 10
-32.9686626193
 20
5.8919918687
 10
-32.9765874578
 20
5.9182441986
 10
-32.9894596967
 20
5.9424570466
 10
-33.0071351939
 20
5.9640555738
 10
-33.0283224434
 20
5.9814616278
 10
-33.0524865236
 20
5.9944202676
 10
-33.0787070324
 20
6.0024379027
 10
-33.1064756477
 20
6.00521
  0
LWPOLYLINE
  5
4EA
100
AcDbEntity
  8
0
100
AcDbPolyline
 62
250
  6
CONTINUOUS
 90
17
 70
0
 10
-33.1064756354
 20
6.00521
 10
-33.1337633474
 20
6.0025340089
 10
-33.1600116789
 20
5.9946079632
 10
-33.1842208392
 20
5.9817337635
 10
-33.2058160769
 20
5.9640555738
 10
-33.2232194798
 20
5.9428650969
 10
-33.236176146
 20
5.9186973358
 10
-33.24419256
 20
5.8924728329
 10
-33.246964235
 20
5.8647
 10
-33.2442886515
 20
5.8374081313
 10
-33.2363638129
 20
5.8111558014
 10
-33.2234915741
 20
5.7869429534
 10
-33.2058160769
 20
5.7653444262
 10
-33.1846288274
 20
5.7479383722
 10
-33.1604647471
 20
5.7349797324
 10
-33.1342442383
 20
5.7269620973
 10
-33.1064756231
 20
5.72419
  0
LWPOLYLINE
  5
4EB
100
AcDbEntity
  8
0
100
AcDbPolyline
 62
250
  6
CONTINUOUS
 90
17
 70
0
 10
-33.1064756354
 20
6.182292
 10
-33.1681535162
 20
6.1762435097
 10
-33.2274821057
 20
6.1583284239
 10
-33.2822015963
 20
6.1292291227
 10
-33.3310128889
 20
6.0892714569
 10
-33.3703494596
 20
6.0413750371
 10
-33.3996351582
 20
5.9867491201
 10
-33.4177545018
 20
5.92747439
 10
-33.4240192646
 20
5.8647
 10
-33.4179716955
 20
5.8030127239
 10
-33.4000593383
 20
5.743675097
 10
-33.370964469
 20
5.6889472711
 10
-33.3310128889
 20
5.6401285431
 10
-33.283123764
 20
5.6007859804
 10
-33.2285061668
 20
5.5714958207
 10
-33.1692404646
 20
5.5533737171
 10
-33.1064756076
 20
5.547108
  0
LWPOLYLINE
  5
4EC
100
AcDbEntity
  8
0
100
AcDbPolyline
 62
250
  6
CONTINUOUS
 90
17
 70
0
 10
-36.4515200913
 20
6.097331
 10
-36.4141197486
 20
6.1009986943
 10
-36.3781439733
 20
6.1118620758
 10
-36.3449630716
 20
6.1295073616
 10
-36.3153647934
 20
6.1537369619
 10
-36.291511814
 20
6.1827804778
 10
-36.2737535001
 20
6.2159046382
 10
-36.2627662604
 20
6.2518477541
 10
-36.2589674225
 20
6.289913
 10
-36.2626345581
 20
6.3273190398
 10
-36.2734962851
 20
6.3633002952
 10
-36.2911388835
 20
6.3964862513
 10
-36.3153647934
 20
6.4260890381
 10
-36.3444038859
 20
6.4499456511
 10
-36.3775230013
 20
6.46770667
 10
-36.4134606429
 20
6.4786955834
 10
-36.4515201081
 20
6.482495
  0
LWPOLYLINE
  5
4ED
100
AcDbEntity
  8
0
100
AcDbPolyline
 62
250
  6
CONTINUOUS
 90
17
 70
0
 10
-36.4515200913
 20
6.482495
 10
-36.488920434
 20
6.4788273057
 10
-36.5248962093
 20
6.4679639242
 10
-36.558077111
 20
6.4503186384
 10
-36.5876753892
 20
6.4260890381
 10
-36.6115283686
 20
6.3970455222
 10
-36.6292866825
 20
6.3639213618
 10
-36.6402739221
 20
6.3279782459
 10
-36.6440727601
 20
6.289913
 10
-36.6404056245
 20
6.2525069602
 10
-36.6295438975
 20
6.2165257048
 10
-36.6119012991
 20
6.1833397487
 10
-36.5876753892
 20
6.1537369619
 10
-36.5586362967
 20
6.1298803489
 10
-36.5255171813
 20
6.11211933
 10
-36.4895795397
 20
6.1011304166
 10
-36.4515200745
 20
6.097331
  0
LWPOLYLINE
  5
4EE
100
AcDbEntity
  8
0
100
AcDbPolyline
 62
250
  6
CONTINUOUS
 90
52
 70
0
 10
-41.7329233436
 20
4.7815268003
 10
-41.7633742127
 20
4.7812181196
 10
-41.7938278641
 20
4.7802622694
 10
-41.824260644
 20
4.7786145378
 10
-41.8546488983
 20
4.776230213
 10
-41.8849689731
 20
4.7730645828
 10
-41.9151972145
 20
4.7690729355
 10
-41.9453099685
 20
4.7642105591
 10
-41.9715810825
 20
4.7591991139
 10
-41.9977099088
 20
4.753457933
 10
-42.023661008
 20
4.7469602571
 10
-42.0493989403
 20
4.7396793272
 10
-42.0748882663
 20
4.7315883841
 10
-42.1000935463
 20
4.7226606687
 10
-42.1249793408
 20
4.7128694219
 10
-42.1495102103
 20
4.7021878845
 10
-42.1736473021
 20
4.6905961892
 10
-42.1973460709
 20
4.6780981526
 10
-42.2205585155
 20
4.6647043821
 10
-42.2432366345
 20
4.6504254852
 10
-42.2653324267
 20
4.6352720693
 10
-42.2867978906
 20
4.6192547416
 10
-42.3075850252
 20
4.6023841097
 10
-42.3276458289
 20
4.584670781
 10
-42.3469588497
 20
4.5661132544
 10
-42.3654940964
 20
4.5467734634
 10
-42.3832496731
 20
4.5267028944
 10
-42.4002236837
 20
4.5059530338
 10
-42.4164142321
 20
4.484575368
 10
-42.4318194225
 20
4.4626213833
 10
-42.4464373588
 20
4.4401425663
 10
-42.4602661451
 20
4.4171904032
 10
-42.4750965081
 20
4.3904669015
 10
-42.4889431602
 20
4.363242664
 10
-42.5018536294
 20
4.3355669076
 10
-42.5138754435
 20
4.3074888493
 10
-42.5250561303
 20
4.2790577062
 10
-42.5354432178
 20
4.2503226951
 10
-42.545084234
 20
4.2213330331
 10
-42.5554479494
 20
4.1872362349
 10
-42.5648893819
 20
4.1528869186
 10
-42.573437647
 20
4.1183123618
 10
-42.5811218603
 20
4.0835398425
 10
-42.5879711373
 20
4.0485966381
 10
-42.5940145936
 20
4.0135100265
 10
-42.6002456663
 20
3.9713028391
 10
-42.6054615174
 20
3.9289583793
 10
-42.6097627113
 20
3.8865062021
 10
-42.6132498122
 20
3.8439758624
 10
-42.6160233843
 20
3.8013969153
 10
-42.6186654293
 20
3.7481210085
 10
-42.6206920471
 20
3.6948258614
  0
LINE
  5
4EF
100
AcDbEntity
  8
0
100
AcDbLine
 62
250
  6
CONTINUOUS
 10
-32.7889320062
 20
4.281883
 11
-32.9853500862
 21
4.281883
  0
LINE
  5
4F0
100
AcDbEntity
  8
0
100
AcDbLine
 62
250
  6
CONTINUOUS
 10
-36.7416169014
 20
4.31759
 11
-36.3470590037
 21
4.31759
  0
LINE
  5
4F1
100
AcDbEntity
  8
0
100
AcDbLine
 62
250
  6
CONTINUOUS
 10
-32.9853500862
 20
4.399503
 11
-32.7889320062
 21
4.399503
  0
LINE
  5
4F2
100
AcDbEntity
  8
0
100
AcDbLine
 62
250
  6
CONTINUOUS
 10
-27.2289611183
 20
4.4514285958
 11
-28.528763122
 21
4.4514285958
  0
LINE
  5
4F3
100
AcDbEntity
  8
0
100
AcDbLine
 62
250
  6
CONTINUOUS
 10
-35.3037919225
 20
4.78807
 11
-35.5193950801
 21
4.78807
  0
LINE
  5
4F4
100
AcDbEntity
  8
0
100
AcDbLine
 62
250
  6
CONTINUOUS
 10
-36.6171158664
 20
4.843073
 11
-36.834576741
 21
4.843073
  0
LINE
  5
4F5
100
AcDbEntity
  8
0
100
AcDbLine
 62
250
  6
CONTINUOUS
 10
-28.3430771325
 20
5.1664284253
 11
-27.4146471271
 21
5.1664284253
  0
LINE
  5
4F6
100
AcDbEntity
  8
0
100
AcDbLine
 62
250
  6
CONTINUOUS
 10
-39.7251537872
 20
5.171133
 11
-42.624271486
 21
5.171133
  0
LINE
  5
4F7
100
AcDbEntity
  8
0
100
AcDbLine
 62
250
  6
CONTINUOUS
 10
-36.834018826
 20
5.416076
 11
-36.6165579514
 21
5.416076
  0
LINE
  5
4F8
100
AcDbEntity
  8
0
100
AcDbLine
 62
250
  6
CONTINUOUS
 10
-35.5193950801
 20
5.61141
 11
-35.3037919225
 21
5.61141
  0
LINE
  5
4F9
100
AcDbEntity
  8
0
100
AcDbLine
 62
250
  6
CONTINUOUS
 10
-27.2289611183
 20
5.7452381277
 11
-28.528763122
 21
5.7452381277
  0
LINE
  5
4FA
100
AcDbEntity
  8
0
100
AcDbLine
 62
250
  6
CONTINUOUS
 10
-42.624271486
 20
5.793739
 11
-40.2069399969
 21
5.793739
  0
LINE
  5
4FB
100
AcDbEntity
  8
0
100
AcDbLine
 62
250
  6
CONTINUOUS
 10
-35.6117970047
 20
6.067887
 11
-35.9842042766
 21
6.067887
  0
LINE
  5
4FC
100
AcDbEntity
  8
0
100
AcDbLine
 62
250
  6
CONTINUOUS
 10
-32.2457007555
 20
2.624378
 11
-37.2552156659
 21
7.56101
  0
LWPOLYLINE
  5
4FD
100
AcDbEntity
  8
0
100
AcDbPolyline
 62
250
  6
CONTINUOUS
 90
46
 70
0
 10
-30.7787027879
 20
16.0000027662
 10
-30.7764598413
 20
15.9435440968
 10
-30.7760009425
 20
15.8869799463
 10
-30.7773217497
 20
15.8303765884
 10
-30.7804179213
 20
15.7738002971
 10
-30.7852851158
 20
15.7173173459
 10
-30.7919189916
 20
15.6609940088
 10
-30.800315207
 20
15.6048965594
 10
-30.8104694205
 20
15.5490912715
 10
-30.8223772905
 20
15.4936444189
 10
-30.8360318178
 20
15.4386195253
 10
-30.851415373
 20
15.384069114
 10
-30.868507669
 20
15.330042958
 10
-30.8872884188
 20
15.2765908306
 10
-30.9077373354
 20
15.2237625049
 10
-30.9298341318
 20
15.171607754
 10
-30.953558521
 20
15.1201763511
 10
-30.9788902159
 20
15.0695180694
 10
-31.0058089295
 20
15.0196826821
 10
-31.0342919438
 20
14.9707192722
 10
-31.064306817
 20
14.9226741634
 10
-31.0958186762
 20
14.8755929893
 10
-31.1287926485
 20
14.8295213833
 10
-31.1631938611
 20
14.7845049792
 10
-31.1989874411
 20
14.7405894104
 10
-31.2361385157
 20
14.6978203106
 10
-31.2746122121
 20
14.6562433132
 10
-31.3143736573
 20
14.615904052
 10
-31.3553866752
 20
14.576845995
 10
-31.3976098763
 20
14.539103948
 10
-31.4410005678
 20
14.5027105514
 10
-31.4855160569
 20
14.4676984456
 10
-31.5311136508
 20
14.4341002711
 10
-31.5777506566
 20
14.4019486681
 10
-31.6253843817
 20
14.371276277
 10
-31.673972133
 20
14.3421157383
 10
-31.723471218
 20
14.3144996923
 10
-31.7738355935
 20
14.2884589356
 10
-31.8250058158
 20
14.2640168897
 10
-31.8769190911
 20
14.2411951323
 10
-31.9295126255
 20
14.2200152412
 10
-31.9827236251
 20
14.2004987941
 10
-32.0364892959
 20
14.1826673687
 10
-32.0907468442
 20
14.1665425427
 10
-32.145433476
 20
14.1521458939
 10
-32.2004863975
 20
14.139499
  0
LWPOLYLINE
  5
4FE
100
AcDbEntity
  8
0
100
AcDbPolyline
 62
250
  6
CONTINUOUS
 90
83
 70
0
 10
-30.7786995803
 20
11.6148898891
 10
-30.7761914704
 20
11.5454013666
 10
-30.7763808817
 20
11.4757810702
 10
-30.7792604948
 20
11.4061523953
 10
-30.7848229907
 20
11.3366387371
 10
-30.7930610502
 20
11.267363491
 10
-30.803967354
 20
11.1984500522
 10
-30.817534583
 20
11.1300218162
 10
-30.8337505847
 20
11.0621971761
 10
-30.8525838736
 20
10.9950745172
 10
-30.8739981309
 20
10.9287472227
 10
-30.8979570377
 20
10.8633086759
 10
-30.9244242752
 20
10.79885226
 10
-30.9533635246
 20
10.7354713581
 10
-30.9847384671
 20
10.6732593535
 10
-31.0185086708
 20
10.6123084914
 10
-31.0546172515
 20
10.5527064652
 10
-31.0930032118
 20
10.49453983
 10
-31.1336055545
 20
10.4378951411
 10
-31.1763632822
 20
10.3828589538
 10
-31.2212153977
 20
10.3295178234
 10
-31.2681009036
 20
10.2779583051
 10
-31.3169553575
 20
10.2282634228
 10
-31.367700536
 20
10.1805020742
 10
-31.4202547707
 20
10.1347396256
 10
-31.4745363929
 20
10.0910414434
 10
-31.5304637344
 20
10.0494728938
 10
-31.5879551264
 20
10.0100993432
 10
-31.6469289006
 20
9.9729861578
 10
-31.7073009571
 20
9.9381947365
 10
-31.7689774712
 20
9.9057706077
 10
-31.8318621867
 20
9.8757553325
 10
-31.8958588476
 20
9.8481904718
 10
-31.9608711979
 20
9.8231175866
 10
-32.0268029814
 20
9.800578238
 10
-32.0935579421
 20
9.7806139868
 10
-32.1610385588
 20
9.7632618227
 10
-32.2291422508
 20
9.7485404494
 10
-32.2977651722
 20
9.7364639992
 10
-32.3668034769
 20
9.7270466044
 10
-32.4361533193
 20
9.7203023973
 10
-32.5057108533
 20
9.7162455102
 10
-32.5753722331
 20
9.7148900754
 10
-32.6450336128
 20
9.7162455145
 10
-32.7145911466
 20
9.7203024059
 10
-32.7839409885
 20
9.7270466173
 10
-32.8529792927
 20
9.7364640164
 10
-32.9216022133
 20
9.7485404708
 10
-32.9897059044
 20
9.7632618483
 10
-33.0571865201
 20
9.7806140166
 10
-33.1239414795
 20
9.8005782719
 10
-33.1898732616
 20
9.8231176246
 10
-33.2548856103
 20
9.8481905138
 10
-33.3188822696
 20
9.8757553784
 10
-33.3817669832
 20
9.9057706575
 10
-33.4434434953
 20
9.9381947901
 10
-33.5038155497
 20
9.9729862152
 10
-33.5627893216
 20
10.0100994042
 10
-33.6202807112
 20
10.0494729583
 10
-33.67620805
 20
10.0910415114
 10
-33.7304896696
 20
10.134739697
 10
-33.7830439015
 20
10.1805021488
 10
-33.833789077
 20
10.2282635005
 10
-33.8826435278
 20
10.2779583859
 10
-33.9295290306
 20
10.329517907
 10
-33.9743811428
 20
10.3828590402
 10
-34.0171388671
 20
10.4378952301
 10
-34.0577412063
 20
10.4945399215
 10
-34.096127163
 20
10.5527065591
 10
-34.13223574
 20
10.6123085876
 10
-34.1660059399
 20
10.6732594517
 10
-34.1973808786
 20
10.7354714582
 10
-34.2263201241
 20
10.7988523619
 10
-34.2527873577
 20
10.8633087795
 10
-34.2767462604
 20
10.9287473278
 10
-34.2981605136
 20
10.9950746236
 10
-34.3169937983
 20
11.0621972836
 10
-34.3332097959
 20
11.1300219247
 10
-34.3467770206
 20
11.1984501616
 10
-34.3576833202
 20
11.267363601
 10
-34.3659213754
 20
11.3366388476
 10
-34.371483867
 20
11.4061525062
 10
-34.3743634758
 20
11.4757811813
  0
LINE
  5
4FF
100
AcDbEntity
  8
0
100
AcDbLine
 62
250
  6
CONTINUOUS
 10
-31.1751538299
 20
2.907638
 11
-31.1751538299
 21
7.092362
  0
LINE
  5
500
100
AcDbEntity
  8
0
100
AcDbLine
 62
250
  6
CONTINUOUS
 10
-30.1562970303
 20
7.092362
 11
-30.1562970303
 21
2.907638
  0
LINE
  5
501
100
AcDbEntity
  8
0
100
AcDbLine
 62
250
  6
CONTINUOUS
 10
-35.9842042766
 20
6.417947
 11
-35.6117970047
 21
6.417947
  0
LINE
  5
502
100
AcDbEntity
  8
0
100
AcDbLine
 62
250
  6
CONTINUOUS
 10
-40.2069399969
 20
6.866738
 11
-39.7251537872
 21
6.866738
  0
LINE
  5
503
100
AcDbEntity
  8
0
100
AcDbLine
 62
250
  6
CONTINUOUS
 10
-31.1751538299
 20
7.092362
 11
-30.1562970303
 21
7.092362
  0
LINE
  5
504
100
AcDbEntity
  8
0
100
AcDbLine
 62
250
  6
CONTINUOUS
 10
-27.2289611183
 20
8.1626187229
 11
-28.528763122
 21
8.1626187229
  0
LINE
  5
505
100
AcDbEntity
  8
0
100
AcDbLine
 62
250
  6
CONTINUOUS
 10
-33.4234273547
 20
5.880593
 11
-36.3195112
 21
6.149839
  0
LWPOLYLINE
  5
506
100
AcDbEntity
  8
RACCORDO
100
AcDbPolyline
 62
250
  6
CONTINUOUS
 90
76
 70
0
 10
-25.9997841139
 20
4.8835920749
 10
-25.9892835924
 20
4.8814935825
 10
-25.9786822402
 20
4.8790459611
 10
-25.9679800573
 20
4.8762497226
 10
-25.9572032221
 20
4.8731243043
 10
-25.9463255562
 20
4.86965137
 10
-25.935268524
 20
4.8657749427
 10
-25.9240317733
 20
4.8615043121
 10
-25.9126156562
 20
4.8568317996
 10
-25.9009426937
 20
4.8516763688
 10
-25.8889977658
 20
4.8460383841
 10
-25.8767959925
 20
4.8399199053
 10
-25.8643052544
 20
4.8332429698
 10
-25.8515119118
 20
4.8260022873
 10
-25.8384296044
 20
4.8182066044
 10
-25.8250671311
 20
4.8097995663
 10
-25.8114221481
 20
4.8007791196
 10
-25.7974969992
 20
4.7911518963
 10
-25.783307515
 20
4.7808751062
 10
-25.7688611004
 20
4.7699553783
 10
-25.7541503505
 20
4.7583919194
 10
-25.7391688813
 20
4.7461314718
 10
-25.7239164863
 20
4.7331777235
 10
-25.7083933719
 20
4.7195345578
 10
-25.6925937732
 20
4.7051498914
 10
-25.6765080782
 20
4.6900186517
 10
-25.6601458989
 20
4.6741556719
 10
-25.6435303052
 20
4.6575395824
 10
-25.6266660398
 20
4.6401803055
 10
-25.60954836
 20
4.622079772
 10
-25.5921861084
 20
4.6032055276
 10
-25.5746015658
 20
4.5835953382
 10
-25.5567724513
 20
4.5632259115
 10
-25.5386407658
 20
4.5419752667
 10
-25.5202121476
 20
4.5198740765
 10
-25.5014809583
 20
4.4969115516
 10
-25.4823722836
 20
4.4729076201
 10
-25.4628565459
 20
4.4478530315
 10
-25.4429633228
 20
4.4217858501
 10
-25.4227064326
 20
4.3946017665
 10
-25.4020805683
 20
4.3663260507
 10
-25.3810910369
 20
4.3369711955
 10
-25.3597675785
 20
4.3064188511
 10
-25.3381517244
 20
4.2747891737
 10
-25.3162019433
 20
4.242011053
 10
-25.2938233808
 20
4.2076911789
 10
-25.2708929387
 20
4.1717125979
 10
-25.2475337153
 20
4.13427349
 10
-25.2240201503
 20
4.0954631945
 10
-25.2002118518
 20
4.0550461524
 10
-25.1762492118
 20
4.0133567068
 10
-25.1528278458
 20
3.9713156185
 10
-25.1300173987
 20
3.9289544676
 10
-25.1077482257
 20
3.8862962498
 10
-25.086507008
 20
3.8441967154
 10
-25.0664215379
 20
3.8028203073
 10
-25.0473640231
 20
3.7620009351
 10
-25.0294377687
 20
3.7220596588
 10
-25.0127004636
 20
3.6830948313
 10
-24.9970944187
 20
3.6449838604
 10
-24.9825498717
 20
3.6077055223
 10
-24.9690581569
 20
3.5712310038
 10
-24.95662794
 20
3.5355674441
 10
-24.9452154554
 20
3.5007464729
 10
-24.9348245123
 20
3.466764026
 10
-24.9254513015
 20
3.433597643
 10
-24.9170406297
 20
3.4012493764
 10
-24.909593829
 20
3.3697167298
 10
-24.9031095672
 20
3.338973854
 10
-24.8975286547
 20
3.3089882076
 10
-24.8928480794
 20
3.2797443879
 10
-24.8890708533
 20
3.2512309773
 10
-24.886146823
 20
3.2234229226
 10
-24.8840592707
 20
3.1963034938
 10
-24.882824914
 20
3.1698635311
 10
-24.8824437531
 20
3.1440899216
  0
LWPOLYLINE
  5
507
100
AcDbEntity
  8
ASSI
100
AcDbPolyline
 62
250
  6
CONTINUOUS
 90
76
 70
0
 10
-25.9997841139
 20
4.8835920749
 10
-25.9892835924
 20
4.8814935825
 10
-25.9786822402
 20
4.8790459611
 10
-25.9679800573
 20
4.8762497226
 10
-25.9572032221
 20
4.8731243043
 10
-25.9463255562
 20
4.86965137
 10
-25.935268524
 20
4.8657749427
 10
-25.9240317733
 20
4.8615043121
 10
-25.9126156562
 20
4.8568317996
 10
-25.9009426937
 20
4.8516763688
 10
-25.8889977658
 20
4.8460383841
 10
-25.8767959925
 20
4.8399199053
 10
-25.8643052544
 20
4.8332429698
 10
-25.8515119118
 20
4.8260022873
 10
-25.8384296044
 20
4.8182066044
 10
-25.8250671311
 20
4.8097995663
 10
-25.8114221481
 20
4.8007791196
 10
-25.7974969992
 20
4.7911518963
 10
-25.783307515
 20
4.7808751062
 10
-25.7688611004
 20
4.7699553783
 10
-25.7541503505
 20
4.7583919194
 10
-25.7391688813
 20
4.7461314718
 10
-25.7239164863
 20
4.7331777235
 10
-25.7083933719
 20
4.7195345578
 10
-25.6925937732
 20
4.7051498914
 10
-25.6765080782
 20
4.6900186517
 10
-25.6601458989
 20
4.6741556719
 10
-25.6435303052
 20
4.6575395824
 10
-25.6266660398
 20
4.6401803055
 10
-25.60954836
 20
4.622079772
 10
-25.5921861084
 20
4.6032055276
 10
-25.5746015658
 20
4.5835953382
 10
-25.5567724513
 20
4.5632259115
 10
-25.5386407658
 20
4.5419752667
 10
-25.5202121476
 20
4.5198740765
 10
-25.5014809583
 20
4.4969115516
 10
-25.4823722836
 20
4.4729076201
 10
-25.4628565459
 20
4.4478530315
 10
-25.4429633228
 20
4.4217858501
 10
-25.4227064326
 20
4.3946017665
 10
-25.4020805683
 20
4.3663260507
 10
-25.3810910369
 20
4.3369711955
 10
-25.3597675785
 20
4.3064188511
 10
-25.3381517244
 20
4.2747891737
 10
-25.3162019433
 20
4.242011053
 10
-25.2938233808
 20
4.2076911789
 10
-25.2708929387
 20
4.1717125979
 10
-25.2475337153
 20
4.13427349
 10
-25.2240201503
 20
4.0954631945
 10
-25.2002118518
 20
4.0550461524
 10
-25.1762492118
 20
4.0133567068
 10
-25.1528278458
 20
3.9713156185
 10
-25.1300173987
 20
3.9289544676
 10
-25.1077482257
 20
3.8862962498
 10
-25.086507008
 20
3.8441967154
 10
-25.0664215379
 20
3.8028203073
 10
-25.0473640231
 20
3.7620009351
 10
-25.0294377687
 20
3.7220596588
 10
-25.0127004636
 20
3.6830948313
 10
-24.9970944187
 20
3.6449838604
 10
-24.9825498717
 20
3.6077055223
 10
-24.9690581569
 20
3.5712310038
 10
-24.95662794
 20
3.5355674441
 10
-24.9452154554
 20
3.5007464729
 10
-24.9348245123
 20
3.466764026
 10
-24.9254513015
 20
3.433597643
 10
-24.9170406297
 20
3.4012493764
 10
-24.909593829
 20
3.3697167298
 10
-24.9031095672
 20
3.338973854
 10
-24.8975286547
 20
3.3089882076
 10
-24.8928480794
 20
3.2797443879
 10
-24.8890708533
 20
3.2512309773
 10
-24.886146823
 20
3.2234229226
 10
-24.8840592707
 20
3.1963034938
 10
-24.882824914
 20
3.1698635311
 10
-24.8824437531
 20
3.1440899216
  0
LINE
  5
508
100
AcDbEntity
  8
0
100
AcDbLine
 62
250
  6
CONTINUOUS
 10
-27.2289611183
 20
3.2257142979
 11
-28.528763122
 21
3.6342857873
  0
LINE
  5
509
100
AcDbEntity
  8
0
100
AcDbLine
 62
250
  6
CONTINUOUS
 10
-40.8213917861
 20
8.151456
 11
-42.0702802757
 21
8.581471
  0
LINE
  5
50A
100
AcDbEntity
  8
0
100
AcDbLine
 62
250
  6
CONTINUOUS
 10
-39.7251537872
 20
7.773964
 11
-40.3396055764
 21
7.990812
  0
LINE
  5
50B
100
AcDbEntity
  8
0
100
AcDbLine
 62
250
  6
CONTINUOUS
 10
-42.624271486
 20
8.227849
 11
-39.7251537872
 21
7.179514
  0
LINE
  5
50C
100
AcDbEntity
  8
0
100
AcDbLine
 62
250
  6
CONTINUOUS
 10
-27.7860191254
 20
2.4085714468
 11
-28.528763122
 21
2.8171428937
  0
LINE
  5
50D
100
AcDbEntity
  8
0
100
AcDbLine
 62
250
  6
CONTINUOUS
 10
-37.6831255713
 20
8.75
 11
-38.225900002
 21
9.3471428838
  0
LINE
  5
50E
100
AcDbEntity
  8
0
100
AcDbLine
 62
250
  6
CONTINUOUS
 10
-37.4117383559
 20
12.1835715353
 11
-37.547431907
 21
12.4323808575
  0
LWPOLYLINE
  5
50F
100
AcDbEntity
  8
0
100
AcDbPolyline
 62
250
  6
CONTINUOUS
 90
9
 70
0
 10
-30.0261711854
 20
11.5098416581
 10
-30.0261758774
 20
11.5229832308
 10
-30.0262484632
 20
11.5361226179
 10
-30.02638897
 20
11.5492594057
 10
-30.026597425
 20
11.5623931808
 10
-30.0268738554
 20
11.5755235295
 10
-30.0272182883
 20
11.5886500384
 10
-30.027630751
 20
11.6017722939
 10
-30.0281112706
 20
11.6148898824
  0
LWPOLYLINE
  5
510
100
AcDbEntity
  8
0
100
AcDbPolyline
 62
250
  6
CONTINUOUS
 90
9
 70
0
 10
-30.0261710679
 20
15.8949516196
 10
-30.0261757597
 20
15.9080931977
 10
-30.0262483454
 20
15.9212325902
 10
-30.0263888521
 20
15.9343693834
 10
-30.0265973071
 20
15.9475031639
 10
-30.0268737374
 20
15.960633518
 10
-30.0272181704
 20
15.9737600323
 10
-30.0276306333
 20
15.9868822932
 10
-30.0281111531
 20
15.9999998871
  0
LINE
  5
511
100
AcDbEntity
  8
0
100
AcDbLine
 62
250
  6
CONTINUOUS
 10
-28.528763122
 20
4.4514285958
 11
-28.528763122
 21
4.9621428084
  0
LINE
  5
512
100
AcDbEntity
  8
0
100
AcDbLine
 62
250
  6
CONTINUOUS
 10
-28.528763122
 20
5.7452381277
 11
-28.528763122
 21
6.3580953193
  0
LINE
  5
513
100
AcDbEntity
  8
0
100
AcDbLine
 62
250
  6
CONTINUOUS
 10
-28.528763122
 20
11.9759525108
 11
-28.528763122
 21
12.7930949783
  0
LWPOLYLINE
  5
514
100
AcDbEntity
  8
RACCORDO
100
AcDbPolyline
 62
250
  6
CONTINUOUS
 90
7
 70
0
 10
-24.486022123
 20
16.6220305422
 10
-24.4860817583
 20
16.6218158886
 10
-24.4863875948
 20
16.6212652458
 10
-24.4869392076
 20
16.6203793788
 10
-24.4877358303
 20
16.6191595185
 10
-24.4887763559
 20
16.6176073599
 10
-24.4900593388
 20
16.6157250595
  0
LWPOLYLINE
  5
515
100
AcDbEntity
  8
ASSI
100
AcDbPolyline
 62
250
  6
CONTINUOUS
 90
7
 70
0
 10
-24.486022123
 20
16.6220305422
 10
-24.4860817583
 20
16.6218158886
 10
-24.4863875948
 20
16.6212652458
 10
-24.4869392076
 20
16.6203793788
 10
-24.4877358303
 20
16.6191595185
 10
-24.4887763559
 20
16.6176073599
 10
-24.4900593388
 20
16.6157250595
  0
LINE
  5
516
100
AcDbEntity
  8
0
100
AcDbLine
 62
250
  6
CONTINUOUS
 10
-40.7363147074
 20
-10.59258
 11
-42.6244084443
 21
-11.134148
  0
LINE
  5
517
100
AcDbEntity
  8
0
100
AcDbLine
 62
250
  6
CONTINUOUS
 10
-41.637020281
 20
-11.430963
 11
-39.725160785
 21
-10.882587
  0
LINE
  5
518
100
AcDbEntity
  8
DRAFT
100
AcDbLine
 62
7
  6
CONTINUOUS
 10
-45.1562970303
 20
8.5
 11
-47.6562970303
 21
8.5
  0
LINE
  5
519
100
AcDbEntity
  8
0
100
AcDbLine
 62
250
  6
CONTINUOUS
 10
-27.2289611183
 20
8.8095237446
 11
-28.528763122
 21
8.8095237446
  0
LINE
  5
51A
100
AcDbEntity
  8
0
100
AcDbLine
 62
250
  6
CONTINUOUS
 10
-38.225900002
 20
9.3471428838
 11
-36.3261893812
 21
9.3471428838
  0
LINE
  5
51B
100
AcDbEntity
  8
0
100
AcDbLine
 62
250
  6
CONTINUOUS
 10
-27.2289611183
 20
9.5245237446
 11
-28.528763122
 21
9.5245237446
  0
LINE
  5
51C
100
AcDbEntity
  8
0
100
AcDbLine
 62
250
  6
CONTINUOUS
 10
-36.7332702326
 20
9.9442857677
 11
-38.225900002
 21
10.3921428216
  0
LWPOLYLINE
  5
51D
100
AcDbEntity
  8
RACCORDO
100
AcDbPolyline
 62
7
  6
CONTINUOUS
 90
16
 70
0
 10
-25.9997840897
 20
6.6164079181
 10
-26.01049641
 20
6.61967391
 10
-26.0210254757
 20
6.6232658101
 10
-26.0313712868
 20
6.6271836184
 10
-26.0415454976
 20
6.6314360343
 10
-26.0515364538
 20
6.6360143585
 10
-26.0613091921
 20
6.640892493
 10
-26.0708583409
 20
6.6460747589
 10
-26.0801892718
 20
6.6515568352
 10
-26.0892831361
 20
6.657299661
 10
-26.0981331176
 20
6.6633052706
 10
-26.1067460325
 20
6.6695716296
 10
-26.1151234805
 20
6.6760535738
 10
-26.1232659951
 20
6.6827360483
 10
-26.1311730429
 20
6.6896341079
 10
-26.1388446239
 20
6.6967477526
  0
LWPOLYLINE
  5
51E
100
AcDbEntity
  8
ASSI
100
AcDbPolyline
 62
7
  6
CONTINUOUS
 90
16
 70
0
 10
-25.9997840897
 20
6.6164079181
 10
-26.01049641
 20
6.61967391
 10
-26.0210254757
 20
6.6232658101
 10
-26.0313712868
 20
6.6271836184
 10
-26.0415454976
 20
6.6314360343
 10
-26.0515364538
 20
6.6360143585
 10
-26.0613091921
 20
6.640892493
 10
-26.0708583409
 20
6.6460747589
 10
-26.0801892718
 20
6.6515568352
 10
-26.0892831361
 20
6.657299661
 10
-26.0981331176
 20
6.6633052706
 10
-26.1067460325
 20
6.6695716296
 10
-26.1151234805
 20
6.6760535738
 10
-26.1232659951
 20
6.6827360483
 10
-26.1311730429
 20
6.6896341079
 10
-26.1388446239
 20
6.6967477526
  0
LINE
  5
51F
100
AcDbEntity
  8
0
100
AcDbLine
 62
250
  6
CONTINUOUS
 10
-37.1403510839
 20
13.0792856431
 11
-37.4117383559
 21
13.3778569293
  0
LINE
  5
520
100
AcDbEntity
  8
0
100
AcDbLine
 62
250
  6
CONTINUOUS
 10
-36.3261893812
 20
12.3328571784
 11
-36.4618830031
 21
12.4821428216
  0
LINE
  5
521
100
AcDbEntity
  8
0
100
AcDbLine
 62
250
  6
CONTINUOUS
 10
-37.547431907
 20
14.0247617149
 11
-37.4117383559
 21
13.8257143569
  0
LWPOLYLINE
  5
522
100
AcDbEntity
  8
RACCORDO
100
AcDbPolyline
 62
250
  6
CONTINUOUS
 90
8
 70
0
 10
-24.4860221425
 20
-16.6220305156
 10
-24.4860817786
 20
-16.6218158637
 10
-24.4863876158
 20
-16.6212652226
 10
-24.4869392292
 20
-16.6203793573
 10
-24.4877358524
 20
-16.6191594986
 10
-24.4887763784
 20
-16.6176073416
 10
-24.4900593616
 20
-16.6157250427
 10
-24.4933452348
 20
-16.6109809359
  0
LWPOLYLINE
  5
523
100
AcDbEntity
  8
ASSI
100
AcDbPolyline
 62
250
  6
CONTINUOUS
 90
8
 70
0
 10
-24.4860221425
 20
-16.6220305156
 10
-24.4860817786
 20
-16.6218158637
 10
-24.4863876158
 20
-16.6212652226
 10
-24.4869392292
 20
-16.6203793573
 10
-24.4877358524
 20
-16.6191594986
 10
-24.4887763784
 20
-16.6176073416
 10
-24.4900593616
 20
-16.6157250427
 10
-24.4933452348
 20
-16.6109809359
  0
LINE
  5
524
100
AcDbEntity
  8
0
100
AcDbLine
 62
250
  6
CONTINUOUS
 10
-27.9717051536
 20
6.1538093615
 11
-27.9717051536
 21
5.7452381277
  0
LINE
  5
525
100
AcDbEntity
  8
0
100
AcDbLine
 62
250
  6
CONTINUOUS
 10
-27.600333136
 20
3.361904766
 11
-27.600333136
 21
3.9066667235
  0
LINE
  5
526
100
AcDbEntity
  8
0
100
AcDbLine
 62
250
  6
CONTINUOUS
 10
-27.600333136
 20
13.3378568506
 11
-27.600333136
 21
13.8826187229
  0
LINE
  5
527
100
AcDbEntity
  8
0
100
AcDbLine
 62
250
  6
CONTINUOUS
 10
-27.2289611183
 20
4.9621428084
 11
-27.2289611183
 21
4.4514285958
  0
LINE
  5
528
100
AcDbEntity
  8
0
100
AcDbLine
 62
250
  6
CONTINUOUS
 10
-27.2289611183
 20
5.7452381277
 11
-27.2289611183
 21
6.3580953193
  0
LINE
  5
529
100
AcDbEntity
  8
0
100
AcDbLine
 62
250
  6
CONTINUOUS
 10
-27.2289611183
 20
14.4273812771
 11
-27.2289611183
 21
14.9380949783
  0
LINE
  5
52A
100
AcDbEntity
  8
RACCORDO
100
AcDbLine
 62
250
  6
CONTINUOUS
 10
-26.1388446239
 20
-19.4535789516
 11
-26.1388446239
 21
-18.9481986686
  0
LINE
  5
52B
100
AcDbEntity
  8
ASSI
100
AcDbLine
 62
250
  6
CONTINUOUS
 10
-26.1388446239
 20
-19.4535789516
 11
-26.1388446239
 21
-18.9481986686
  0
LINE
  5
52C
100
AcDbEntity
  8
RACCORDO
100
AcDbLine
 62
250
  6
CONTINUOUS
 10
-26.1388446239
 20
-17.5342004978
 11
-26.1388446239
 21
4.8032522472
  0
LINE
  5
52D
100
AcDbEntity
  8
ASSI
100
AcDbLine
 62
250
  6
CONTINUOUS
 10
-26.1388446239
 20
-17.5342004978
 11
-26.1388446239
 21
4.8032522472
  0
LINE
  5
52E
100
AcDbEntity
  8
RACCORDO
100
AcDbLine
 62
250
  6
CONTINUOUS
 10
-26.1388446239
 20
18.9481986686
 11
-26.1388446239
 21
19.4535789516
  0
LINE
  5
52F
100
AcDbEntity
  8
ASSI
100
AcDbLine
 62
250
  6
CONTINUOUS
 10
-26.1388446239
 20
18.9481986686
 11
-26.1388446239
 21
19.4535789516
  0
LINE
  5
530
100
AcDbEntity
  8
RACCORDO
100
AcDbLine
 62
250
  6
CONTINUOUS
 10
-26.1374476067
 20
18.1769732794
 11
-26.1382811497
 21
18.8195735698
  0
LINE
  5
531
100
AcDbEntity
  8
ASSI
100
AcDbLine
 62
250
  6
CONTINUOUS
 10
-26.1374476067
 20
18.1769732794
 11
-26.1382811497
 21
18.8195735698
  0
LINE
  5
532
100
AcDbEntity
  8
RACCORDO
100
AcDbLine
 62
250
  6
CONTINUOUS
 10
-26.1374790326
 20
-18.4575464538
 11
-26.1388446239
 21
-17.5342004978
  0
LINE
  5
533
100
AcDbEntity
  8
ASSI
100
AcDbLine
 62
250
  6
CONTINUOUS
 10
-26.1374790326
 20
-18.4575464538
 11
-26.1388446239
 21
-17.5342004978
  0
LWPOLYLINE
  5
534
100
AcDbEntity
  8
RACCORDO
100
AcDbPolyline
 62
250
  6
CONTINUOUS
 90
3
 70
0
 10
-26.1388446239
 20
6.6967477526
 10
-26.1386912381
 20
17.5778237559
 10
-26.1374476067
 20
18.1769732794
  0
LWPOLYLINE
  5
535
100
AcDbEntity
  8
ASSI
100
AcDbPolyline
 62
250
  6
CONTINUOUS
 90
3
 70
0
 10
-26.1388446239
 20
6.6967477526
 10
-26.1386912381
 20
17.5778237559
 10
-26.1374476067
 20
18.1769732794
  0
LINE
  5
536
100
AcDbEntity
  8
RACCORDO
100
AcDbLine
 62
250
  6
CONTINUOUS
 10
-26.1382811497
 20
-18.8195735698
 11
-26.1374790326
 21
-18.4575464538
  0
LINE
  5
537
100
AcDbEntity
  8
ASSI
100
AcDbLine
 62
250
  6
CONTINUOUS
 10
-26.1382811497
 20
-18.8195735698
 11
-26.1374790326
 21
-18.4575464538
  0
LINE
  5
538
100
AcDbEntity
  8
0
100
AcDbLine
 62
250
  6
CONTINUOUS
 10
-39.7251537872
 20
10.292325
 11
-42.624271486
 21
10.292325
  0
LINE
  5
539
100
AcDbEntity
  8
0
100
AcDbLine
 62
250
  6
CONTINUOUS
 10
-36.3261893812
 20
10.6409523928
 11
-37.2760446916
 21
10.6409523928
  0
LINE
  5
53A
100
AcDbEntity
  8
0
100
AcDbLine
 62
250
  6
CONTINUOUS
 10
-42.1515185241
 20
10.87477
 11
-39.7251537872
 21
10.87477
  0
LINE
  5
53B
100
AcDbEntity
  8
0
100
AcDbLine
 62
250
  6
CONTINUOUS
 10
-27.2289611183
 20
11.3290474892
 11
-28.528763122
 21
11.3290474892
  0
LINE
  5
53C
100
AcDbEntity
  8
0
100
AcDbLine
 62
250
  6
CONTINUOUS
 10
-35.122636079
 20
11.61489
 11
-34.3720447686
 21
11.61489
  0
LINE
  5
53D
100
AcDbEntity
  8
0
100
AcDbLine
 62
250
  6
CONTINUOUS
 10
-30.7786995865
 20
11.61489
 11
-30.0281082761
 21
11.61489
  0
LINE
  5
53E
100
AcDbEntity
  8
RACCORDO
100
AcDbLine
 62
7
  6
CONTINUOUS
 10
-24.8824437531
 20
9.1760409428
 11
-23.4301503075
 21
9.0489817302
  0
LINE
  5
53F
100
AcDbEntity
  8
ASSI
100
AcDbLine
 62
7
  6
CONTINUOUS
 10
-24.8824437531
 20
9.1760409428
 11
-23.4301503075
 21
9.0489817302
  0
LINE
  5
540
100
AcDbEntity
  8
0
100
AcDbLine
 62
250
  6
CONTINUOUS
 10
-42.624271486
 20
14.252884
 11
-39.7251537872
 21
13.20444
  0
LINE
  5
541
100
AcDbEntity
  8
0
100
AcDbLine
 62
250
  6
CONTINUOUS
 10
-37.9545127867
 20
13.1788095713
 11
-38.225900002
 21
13.3778569293
  0
LINE
  5
542
100
AcDbEntity
  8
0
100
AcDbLine
 62
250
  6
CONTINUOUS
 10
-38.225900002
 20
15.4678569293
 11
-37.8188191224
 21
15.02
  0
LINE
  5
543
100
AcDbEntity
  8
0
100
AcDbLine
 62
250
  6
CONTINUOUS
 10
-36.5975766249
 20
14.1242856431
 11
-36.3261893812
 21
13.8257143569
  0
LINE
  5
544
100
AcDbEntity
  8
0
100
AcDbLine
 62
250
  6
CONTINUOUS
 10
-27.4146471271
 20
5.1664284253
 11
-27.2289611183
 21
4.9621428084
  0
LINE
  5
545
100
AcDbEntity
  8
0
100
AcDbLine
 62
250
  6
CONTINUOUS
 10
-36.3261893812
 20
15.4678569293
 11
-36.5975766249
 21
15.7664287138
  0
LWPOLYLINE
  5
546
100
AcDbEntity
  8
RACCORDO
100
AcDbPolyline
 62
250
  6
CONTINUOUS
 90
40
 70
0
 10
-25.1562970303
 20
8.5832273096
 10
-25.156080009
 20
8.5745494001
 10
-25.1554292592
 20
8.5658840459
 10
-25.1543457223
 20
8.5572437842
 10
-25.152830966
 20
8.5486411157
 10
-25.1508871819
 20
8.5400884869
 10
-25.1485171823
 20
8.5315982717
 10
-25.1457243961
 20
8.5231827539
 10
-25.142512864
 20
8.5148541091
 10
-25.1388872324
 20
8.5066243872
 10
-25.134852747
 20
8.4985054952
 10
-25.1304152448
 20
8.4905091795
 10
-25.1255811461
 20
8.4826470091
 10
-25.1203574449
 20
8.4749303593
 10
-25.1147516989
 20
8.4673703944
 10
-25.1087720185
 20
8.4599780522
 10
-25.1024270552
 20
8.4527640282
 10
-25.095725989
 20
8.4457387596
 10
-25.088678515
 20
8.4389124106
 10
-25.0812948296
 20
8.4322948576
 10
-25.0735856155
 20
8.4258956749
 10
-25.0655620265
 20
8.419724121
 10
-25.0572356711
 20
8.4137891249
 10
-25.0486185961
 20
8.4080992734
 10
-25.0397232687
 20
8.4026627986
 10
-25.0305625587
 20
8.3974875661
 10
-25.0211497199
 20
8.3925810634
 10
-25.0114983709
 20
8.3879503892
 10
-25.0016224754
 20
8.3836022433
 10
-24.9915363217
 20
8.3795429167
 10
-24.9812545028
 20
8.3757782823
 10
-24.9707918944
 20
8.3723137869
 10
-24.9601636339
 20
8.3691544429
 10
-24.9493850983
 20
8.3663048213
 10
-24.9384718821
 20
8.363769045
 10
-24.9274397747
 20
8.3615507827
 10
-24.9163047374
 20
8.3596532439
 10
-24.9050828804
 20
8.3580791738
 10
-24.8937904397
 20
8.35683085
 10
-24.8824437531
 20
8.3559100784
  0
LWPOLYLINE
  5
547
100
AcDbEntity
  8
ASSI
100
AcDbPolyline
 62
250
  6
CONTINUOUS
 90
40
 70
0
 10
-25.1562970303
 20
8.5832273096
 10
-25.156080009
 20
8.5745494001
 10
-25.1554292592
 20
8.5658840459
 10
-25.1543457223
 20
8.5572437842
 10
-25.152830966
 20
8.5486411157
 10
-25.1508871819
 20
8.5400884869
 10
-25.1485171823
 20
8.5315982717
 10
-25.1457243961
 20
8.5231827539
 10
-25.142512864
 20
8.5148541091
 10
-25.1388872324
 20
8.5066243872
 10
-25.134852747
 20
8.4985054952
 10
-25.1304152448
 20
8.4905091795
 10
-25.1255811461
 20
8.4826470091
 10
-25.1203574449
 20
8.4749303593
 10
-25.1147516989
 20
8.4673703944
 10
-25.1087720185
 20
8.4599780522
 10
-25.1024270552
 20
8.4527640282
 10
-25.095725989
 20
8.4457387596
 10
-25.088678515
 20
8.4389124106
 10
-25.0812948296
 20
8.4322948576
 10
-25.0735856155
 20
8.4258956749
 10
-25.0655620265
 20
8.419724121
 10
-25.0572356711
 20
8.4137891249
 10
-25.0486185961
 20
8.4080992734
 10
-25.0397232687
 20
8.4026627986
 10
-25.0305625587
 20
8.3974875661
 10
-25.0211497199
 20
8.3925810634
 10
-25.0114983709
 20
8.3879503892
 10
-25.0016224754
 20
8.3836022433
 10
-24.9915363217
 20
8.3795429167
 10
-24.9812545028
 20
8.3757782823
 10
-24.9707918944
 20
8.3723137869
 10
-24.9601636339
 20
8.3691544429
 10
-24.9493850983
 20
8.3663048213
 10
-24.9384718821
 20
8.363769045
 10
-24.9274397747
 20
8.3615507827
 10
-24.9163047374
 20
8.3596532439
 10
-24.9050828804
 20
8.3580791738
 10
-24.8937904397
 20
8.35683085
 10
-24.8824437531
 20
8.3559100784
  0
LWPOLYLINE
  5
548
100
AcDbEntity
  8
RACCORDO
100
AcDbPolyline
 62
250
  6
CONTINUOUS
 90
31
 70
0
 10
-25.1562970303
 20
-10.8062561541
 10
-25.1559237576
 20
-10.8330987291
 10
-25.1548104536
 20
-10.8596901381
 10
-25.1529676642
 20
-10.8860303809
 10
-25.1504007488
 20
-10.9122158925
 10
-25.1471253546
 20
-10.938150238
 10
-25.1431825176
 20
-10.9635441128
 10
-25.1386052852
 20
-10.9883561492
 10
-25.1334175306
 20
-11.0126277149
 10
-25.1276669004
 20
-11.0361936088
 10
-25.1213869177
 20
-11.0590409116
 10
-25.1146120677
 20
-11.0811825426
 10
-25.1074035558
 20
-11.1024920584
 10
-25.0998080552
 20
-11.122935214
 10
-25.0918570573
 20
-11.1425462544
 10
-25.0835951754
 20
-11.1613014701
 10
-25.0750565439
 20
-11.1791955783
 10
-25.0662799966
 20
-11.1962338618
 10
-25.0573191316
 20
-11.2124084599
 10
-25.0482215676
 20
-11.2276920475
 10
-25.0390105652
 20
-11.2421119497
 10
-25.02970163
 20
-11.2557422805
 10
-25.0203263203
 20
-11.2685790835
 10
-25.0109109354
 20
-11.2806263151
 10
-25.0014572872
 20
-11.2919699583
 10
-24.9919835911
 20
-11.3026158819
 10
-24.9825175668
 20
-11.3125582171
 10
-24.9730709303
 20
-11.3218653403
 10
-24.9636601283
 20
-11.3305600437
 10
-24.9543070537
 20
-11.338619535
 10
-24.9450294247
 20
-11.3460438143
  0
LWPOLYLINE
  5
549
100
AcDbEntity
  8
ASSI
100
AcDbPolyline
 62
250
  6
CONTINUOUS
 90
31
 70
0
 10
-25.1562970303
 20
-10.8062561541
 10
-25.1559237576
 20
-10.8330987291
 10
-25.1548104536
 20
-10.8596901381
 10
-25.1529676642
 20
-10.8860303809
 10
-25.1504007488
 20
-10.9122158925
 10
-25.1471253546
 20
-10.938150238
 10
-25.1431825176
 20
-10.9635441128
 10
-25.1386052852
 20
-10.9883561492
 10
-25.1334175306
 20
-11.0126277149
 10
-25.1276669004
 20
-11.0361936088
 10
-25.1213869177
 20
-11.0590409116
 10
-25.1146120677
 20
-11.0811825426
 10
-25.1074035558
 20
-11.1024920584
 10
-25.0998080552
 20
-11.122935214
 10
-25.0918570573
 20
-11.1425462544
 10
-25.0835951754
 20
-11.1613014701
 10
-25.0750565439
 20
-11.1791955783
 10
-25.0662799966
 20
-11.1962338618
 10
-25.0573191316
 20
-11.2124084599
 10
-25.0482215676
 20
-11.2276920475
 10
-25.0390105652
 20
-11.2421119497
 10
-25.02970163
 20
-11.2557422805
 10
-25.0203263203
 20
-11.2685790835
 10
-25.0109109354
 20
-11.2806263151
 10
-25.0014572872
 20
-11.2919699583
 10
-24.9919835911
 20
-11.3026158819
 10
-24.9825175668
 20
-11.3125582171
 10
-24.9730709303
 20
-11.3218653403
 10
-24.9636601283
 20
-11.3305600437
 10
-24.9543070537
 20
-11.338619535
 10
-24.9450294247
 20
-11.3460438143
  0
LWPOLYLINE
  5
54A
100
AcDbEntity
  8
RACCORDO
100
AcDbPolyline
 62
250
  6
CONTINUOUS
 90
31
 70
0
 10
-25.1562970303
 20
17.1937438459
 10
-25.1559237576
 20
17.1669012709
 10
-25.1548104536
 20
17.1403098619
 10
-25.1529676642
 20
17.1139696191
 10
-25.1504007488
 20
17.0877841075
 10
-25.1471253546
 20
17.061849762
 10
-25.1431825176
 20
17.0364558872
 10
-25.1386052852
 20
17.0116438508
 10
-25.1334175306
 20
16.9873722851
 10
-25.1276669004
 20
16.9638063912
 10
-25.1213869177
 20
16.9409590884
 10
-25.1146120677
 20
16.9188174574
 10
-25.1074035558
 20
16.8975079416
 10
-25.0998080552
 20
16.877064786
 10
-25.0918570573
 20
16.8574537456
 10
-25.0835951754
 20
16.8386985299
 10
-25.0750565439
 20
16.8208044217
 10
-25.0662799966
 20
16.8037661382
 10
-25.0573191316
 20
16.7875915401
 10
-25.0482215676
 20
16.7723079525
 10
-25.0390105652
 20
16.7578880503
 10
-25.02970163
 20
16.7442577195
 10
-25.0203263203
 20
16.7314209165
 10
-25.0109109354
 20
16.7193736849
 10
-25.0014572872
 20
16.7080300417
 10
-24.9919835911
 20
16.6973841181
 10
-24.9825175668
 20
16.6874417829
 10
-24.9730709303
 20
16.6781346597
 10
-24.9636601283
 20
16.6694399563
 10
-24.9543070537
 20
16.661380465
 10
-24.9450294247
 20
16.6539561857
  0
LWPOLYLINE
  5
54B
100
AcDbEntity
  8
ASSI
100
AcDbPolyline
 62
250
  6
CONTINUOUS
 90
31
 70
0
 10
-25.1562970303
 20
17.1937438459
 10
-25.1559237576
 20
17.1669012709
 10
-25.1548104536
 20
17.1403098619
 10
-25.1529676642
 20
17.1139696191
 10
-25.1504007488
 20
17.0877841075
 10
-25.1471253546
 20
17.061849762
 10
-25.1431825176
 20
17.0364558872
 10
-25.1386052852
 20
17.0116438508
 10
-25.1334175306
 20
16.9873722851
 10
-25.1276669004
 20
16.9638063912
 10
-25.1213869177
 20
16.9409590884
 10
-25.1146120677
 20
16.9188174574
 10
-25.1074035558
 20
16.8975079416
 10
-25.0998080552
 20
16.877064786
 10
-25.0918570573
 20
16.8574537456
 10
-25.0835951754
 20
16.8386985299
 10
-25.0750565439
 20
16.8208044217
 10
-25.0662799966
 20
16.8037661382
 10
-25.0573191316
 20
16.7875915401
 10
-25.0482215676
 20
16.7723079525
 10
-25.0390105652
 20
16.7578880503
 10
-25.02970163
 20
16.7442577195
 10
-25.0203263203
 20
16.7314209165
 10
-25.0109109354
 20
16.7193736849
 10
-25.0014572872
 20
16.7080300417
 10
-24.9919835911
 20
16.6973841181
 10
-24.9825175668
 20
16.6874417829
 10
-24.9730709303
 20
16.6781346597
 10
-24.9636601283
 20
16.6694399563
 10
-24.9543070537
 20
16.661380465
 10
-24.9450294247
 20
16.6539561857
  0
LINE
  5
54C
100
AcDbEntity
  8
RACCORDO
100
AcDbLine
 62
250
  6
CONTINUOUS
 10
-26.1382811497
 20
18.8195735698
 11
-26.1388446239
 21
18.9481986686
  0
LINE
  5
54D
100
AcDbEntity
  8
ASSI
100
AcDbLine
 62
250
  6
CONTINUOUS
 10
-26.1382811497
 20
18.8195735698
 11
-26.1388446239
 21
18.9481986686
  0
LINE
  5
54E
100
AcDbEntity
  8
RACCORDO
100
AcDbLine
 62
7
  6
CONTINUOUS
 10
-25.1562970303
 20
-18.4537312565
 11
-25.1562970303
 21
2.9167726904
  0
LINE
  5
54F
100
AcDbEntity
  8
ASSI
100
AcDbLine
 62
7
  6
CONTINUOUS
 10
-25.1562970303
 20
-18.4537312565
 11
-25.1562970303
 21
2.9167726904
  0
LINE
  5
550
100
AcDbEntity
  8
RACCORDO
100
AcDbLine
 62
7
  6
CONTINUOUS
 10
-25.1562970303
 20
8.5832273096
 11
-25.1562970303
 21
18.4537312565
  0
LINE
  5
551
100
AcDbEntity
  8
ASSI
100
AcDbLine
 62
7
  6
CONTINUOUS
 10
-25.1562970303
 20
8.5832273096
 11
-25.1562970303
 21
18.4537312565
  0
LINE
  5
552
100
AcDbEntity
  8
RACCORDO
100
AcDbLine
 62
250
  6
CONTINUOUS
 10
-24.8824437531
 20
9.1760409428
 11
-24.8824437531
 21
8.3559100784
  0
LINE
  5
553
100
AcDbEntity
  8
ASSI
100
AcDbLine
 62
250
  6
CONTINUOUS
 10
-24.8824437531
 20
9.1760409428
 11
-24.8824437531
 21
8.3559100784
  0
LINE
  5
554
100
AcDbEntity
  8
RACCORDO
100
AcDbLine
 62
250
  6
CONTINUOUS
 10
-24.8824437531
 20
3.1440899216
 11
-24.8824437531
 21
2.3239590572
  0
LINE
  5
555
100
AcDbEntity
  8
ASSI
100
AcDbLine
 62
250
  6
CONTINUOUS
 10
-24.8824437531
 20
3.1440899216
 11
-24.8824437531
 21
2.3239590572
  0
LINE
  5
556
100
AcDbEntity
  8
RACCORDO
100
AcDbLine
 62
250
  6
CONTINUOUS
 10
-24.6606602981
 20
16.3799969668
 11
-24.6606602981
 21
11.6200030332
  0
LINE
  5
557
100
AcDbEntity
  8
ASSI
100
AcDbLine
 62
250
  6
CONTINUOUS
 10
-24.6606602981
 20
16.3799969668
 11
-24.6606602981
 21
11.6200030332
  0
LINE
  5
558
100
AcDbEntity
  8
RACCORDO
100
AcDbLine
 62
250
  6
CONTINUOUS
 10
-24.6606602981
 20
-11.6200030332
 11
-24.6606602981
 21
-16.3799969668
  0
LINE
  5
559
100
AcDbEntity
  8
ASSI
100
AcDbLine
 62
250
  6
CONTINUOUS
 10
-24.6606602981
 20
-11.6200030332
 11
-24.6606602981
 21
-16.3799969668
  0
LINE
  5
55A
100
AcDbEntity
  8
RACCORDO
100
AcDbLine
 62
250
  6
CONTINUOUS
 10
-26.1388446239
 20
-18.9481986686
 11
-26.1382811497
 21
-18.8195735698
  0
LINE
  5
55B
100
AcDbEntity
  8
ASSI
100
AcDbLine
 62
250
  6
CONTINUOUS
 10
-26.1388446239
 20
-18.9481986686
 11
-26.1382811497
 21
-18.8195735698
  0
LWPOLYLINE
  5
55C
100
AcDbEntity
  8
RACCORDO
100
AcDbPolyline
 62
250
  6
CONTINUOUS
 90
91
 70
0
 10
-25.1562970303
 20
8.5832273096
 10
-25.1566195338
 20
8.5547767099
 10
-25.1575954993
 20
8.5255453909
 10
-25.1592373416
 20
8.4955333527
 10
-25.1615560516
 20
8.4647606164
 10
-25.1645637714
 20
8.4332071608
 10
-25.168276404
 20
8.400812922
 10
-25.1727066832
 20
8.367580058
 10
-25.177867496
 20
8.3335064107
 10
-25.183779508
 20
8.2985254421
 10
-25.1904592814
 20
8.2626238259
 10
-25.1979189592
 20
8.2258148884
 10
-25.2061755325
 20
8.1880720707
 10
-25.2152438793
 20
8.1493835077
 10
-25.2251355183
 20
8.1097610645
 10
-25.2358622118
 20
8.0692137767
 10
-25.2474289541
 20
8.0277547656
 10
-25.259851133
 20
7.9853709099
 10
-25.2731580634
 20
7.9420318814
 10
-25.2874035877
 20
7.8975916
 10
-25.3025600225
 20
7.8521961458
 10
-25.3185195721
 20
7.8062534299
 10
-25.3353413087
 20
7.7595495
 10
-25.3529543978
 20
7.7122983084
 10
-25.3709967094
 20
7.6655496241
 10
-25.3894156079
 20
7.6192912057
 10
-25.4081639894
 20
7.5735352946
 10
-25.4268123225
 20
7.5293683837
 10
-25.4451392921
 20
7.4871288564
 10
-25.4632069481
 20
7.4464783294
 10
-25.4809848666
 20
7.4074881457
 10
-25.4983465644
 20
7.3703167631
 10
-25.515299291
 20
7.3348057237
 10
-25.5320360287
 20
7.3005509977
 10
-25.5485913677
 20
7.2674228096
 10
-25.5648632982
 20
7.2355509348
 10
-25.5808585852
 20
7.2049206692
 10
-25.5965356683
 20
7.1755656738
 10
-25.6118812237
 20
7.1474522875
 10
-25.6269517006
 20
7.1204648238
 10
-25.6417148321
 20
7.0946261046
 10
-25.6561631278
 20
7.0699133079
 10
-25.6703985257
 20
7.0461422813
 10
-25.6844249714
 20
7.0232828843
 10
-25.6982123645
 20
7.0013652574
 10
-25.7118179027
 20
6.9802956699
 10
-25.7252517638
 20
6.9600456856
 10
-25.7384847367
 20
6.9406437408
 10
-25.7515175957
 20
6.9220814131
 10
-25.7643419615
 20
6.904363945
 10
-25.7769501674
 20
6.8874860941
 10
-25.7893451078
 20
6.8714237108
 10
-25.8015145319
 20
6.8561872804
 10
-25.8134574646
 20
6.8417663175
 10
-25.825194853
 20
6.828105217
 10
-25.8367267293
 20
6.8152007895
 10
-25.8480427819
 20
6.8030562242
 10
-25.8591494147
 20
6.7916254836
 10
-25.8700469915
 20
6.7809085018
 10
-25.8807268068
 20
6.7709053446
 10
-25.8911821512
 20
6.7615701719
 10
-25.9014044699
 20
6.7529110073
 10
-25.9113953312
 20
6.7449198272
 10
-25.9211636262
 20
6.7375267205
 10
-25.9306946468
 20
6.7307387117
 10
-25.9399975541
 20
6.7245487763
 10
-25.9491177354
 20
6.7188659289
 10
-25.9580439016
 20
6.7136877364
 10
-25.9667833954
 20
6.709016632
 10
-25.9754104554
 20
6.7047689299
 10
-25.9839337049
 20
6.7009315587
 10
-25.992342021
 20
6.6975175898
 10
-26.0006807263
 20
6.6944825524
 10
-26.0089634203
 20
6.691818892
 10
-26.0171747167
 20
6.6895341631
 10
-26.0253167292
 20
6.6876065579
 10
-26.0333914274
 20
6.6860369922
 10
-26.0413952514
 20
6.6848245503
 10
-26.0493220656
 20
6.6839446771
 10
-26.0571684
 20
6.6833988405
 10
-26.0649362946
 20
6.6831855728
 10
-26.0726279207
 20
6.6832759152
 10
-26.0802397387
 20
6.6836693436
 10
-26.0877740651
 20
6.6843663821
 10
-26.095241926
 20
6.6853396452
 10
-26.1026394307
 20
6.6865865807
 10
-26.1099694499
 20
6.6881097406
 10
-26.1172532304
 20
6.6898893958
 10
-26.1244975813
 20
6.6919189698
 10
-26.1316948468
 20
6.694205039
 10
-26.1388446239
 20
6.6967476034
  0
LWPOLYLINE
  5
55D
100
AcDbEntity
  8
ASSI
100
AcDbPolyline
 62
250
  6
CONTINUOUS
 90
91
 70
0
 10
-25.1562970303
 20
8.5832273096
 10
-25.1566195338
 20
8.5547767099
 10
-25.1575954993
 20
8.5255453909
 10
-25.1592373416
 20
8.4955333527
 10
-25.1615560516
 20
8.4647606164
 10
-25.1645637714
 20
8.4332071608
 10
-25.168276404
 20
8.400812922
 10
-25.1727066832
 20
8.367580058
 10
-25.177867496
 20
8.3335064107
 10
-25.183779508
 20
8.2985254421
 10
-25.1904592814
 20
8.2626238259
 10
-25.1979189592
 20
8.2258148884
 10
-25.2061755325
 20
8.1880720707
 10
-25.2152438793
 20
8.1493835077
 10
-25.2251355183
 20
8.1097610645
 10
-25.2358622118
 20
8.0692137767
 10
-25.2474289541
 20
8.0277547656
 10
-25.259851133
 20
7.9853709099
 10
-25.2731580634
 20
7.9420318814
 10
-25.2874035877
 20
7.8975916
 10
-25.3025600225
 20
7.8521961458
 10
-25.3185195721
 20
7.8062534299
 10
-25.3353413087
 20
7.7595495
 10
-25.3529543978
 20
7.7122983084
 10
-25.3709967094
 20
7.6655496241
 10
-25.3894156079
 20
7.6192912057
 10
-25.4081639894
 20
7.5735352946
 10
-25.4268123225
 20
7.5293683837
 10
-25.4451392921
 20
7.4871288564
 10
-25.4632069481
 20
7.4464783294
 10
-25.4809848666
 20
7.4074881457
 10
-25.4983465644
 20
7.3703167631
 10
-25.515299291
 20
7.3348057237
 10
-25.5320360287
 20
7.3005509977
 10
-25.5485913677
 20
7.2674228096
 10
-25.5648632982
 20
7.2355509348
 10
-25.5808585852
 20
7.2049206692
 10
-25.5965356683
 20
7.1755656738
 10
-25.6118812237
 20
7.1474522875
 10
-25.6269517006
 20
7.1204648238
 10
-25.6417148321
 20
7.0946261046
 10
-25.6561631278
 20
7.0699133079
 10
-25.6703985257
 20
7.0461422813
 10
-25.6844249714
 20
7.0232828843
 10
-25.6982123645
 20
7.0013652574
 10
-25.7118179027
 20
6.9802956699
 10
-25.7252517638
 20
6.9600456856
 10
-25.7384847367
 20
6.9406437408
 10
-25.7515175957
 20
6.9220814131
 10
-25.7643419615
 20
6.904363945
 10
-25.7769501674
 20
6.8874860941
 10
-25.7893451078
 20
6.8714237108
 10
-25.8015145319
 20
6.8561872804
 10
-25.8134574646
 20
6.8417663175
 10
-25.825194853
 20
6.828105217
 10
-25.8367267293
 20
6.8152007895
 10
-25.8480427819
 20
6.8030562242
 10
-25.8591494147
 20
6.7916254836
 10
-25.8700469915
 20
6.7809085018
 10
-25.8807268068
 20
6.7709053446
 10
-25.8911821512
 20
6.7615701719
 10
-25.9014044699
 20
6.7529110073
 10
-25.9113953312
 20
6.7449198272
 10
-25.9211636262
 20
6.7375267205
 10
-25.9306946468
 20
6.7307387117
 10
-25.9399975541
 20
6.7245487763
 10
-25.9491177354
 20
6.7188659289
 10
-25.9580439016
 20
6.7136877364
 10
-25.9667833954
 20
6.709016632
 10
-25.9754104554
 20
6.7047689299
 10
-25.9839337049
 20
6.7009315587
 10
-25.992342021
 20
6.6975175898
 10
-26.0006807263
 20
6.6944825524
 10
-26.0089634203
 20
6.691818892
 10
-26.0171747167
 20
6.6895341631
 10
-26.0253167292
 20
6.6876065579
 10
-26.0333914274
 20
6.6860369922
 10
-26.0413952514
 20
6.6848245503
 10
-26.0493220656
 20
6.6839446771
 10
-26.0571684
 20
6.6833988405
 10
-26.0649362946
 20
6.6831855728
 10
-26.0726279207
 20
6.6832759152
 10
-26.0802397387
 20
6.6836693436
 10
-26.0877740651
 20
6.6843663821
 10
-26.095241926
 20
6.6853396452
 10
-26.1026394307
 20
6.6865865807
 10
-26.1099694499
 20
6.6881097406
 10
-26.1172532304
 20
6.6898893958
 10
-26.1244975813
 20
6.6919189698
 10
-26.1316948468
 20
6.694205039
 10
-26.1388446239
 20
6.6967476034
  0
LWPOLYLINE
  5
55E
100
AcDbEntity
  8
RACCORDO
100
AcDbPolyline
 62
250
  6
CONTINUOUS
 90
76
 70
0
 10
-24.8824437531
 20
8.3559100784
 10
-24.8828248277
 20
8.3301397863
 10
-24.8840588631
 20
8.3037033629
 10
-24.8861458591
 20
8.2765877027
 10
-24.889069115
 20
8.2487836294
 10
-24.8928453316
 20
8.2202744428
 10
-24.8975246114
 20
8.1910351689
 10
-24.9031039467
 20
8.1610544128
 10
-24.9095863451
 20
8.1303167696
 10
-24.9170309318
 20
8.0987897433
 10
-24.9254389861
 20
8.0664476384
 10
-24.9348092287
 20
8.033287832
 10
-24.945196947
 20
7.9993119887
 10
-24.9566060356
 20
7.9644973756
 10
-24.9690325999
 20
7.9288401873
 10
-24.9825202438
 20
7.8923724627
 10
-24.9970602433
 20
7.8551015501
 10
-25.0126613224
 20
7.8169984536
 10
-25.0293932567
 20
7.7780417803
 10
-25.0473136228
 20
7.7381091047
 10
-25.0663648441
 20
7.6972986256
 10
-25.0864439659
 20
7.6559307227
 10
-25.107677982
 20
7.6138404383
 10
-25.1299398987
 20
7.5711910678
 10
-25.1527457796
 20
7.5288340959
 10
-25.1761657851
 20
7.4867910566
 10
-25.2001297548
 20
7.4450946744
 10
-25.2239432707
 20
7.4046652211
 10
-25.2474675055
 20
7.3658347451
 10
-25.2708412865
 20
7.3283697221
 10
-25.2937866774
 20
7.2923656581
 10
-25.3161797074
 20
7.2580225777
 10
-25.3381443473
 20
7.22522181
 10
-25.3597745738
 20
7.193571023
 10
-25.381111901
 20
7.1629992451
 10
-25.4021148147
 20
7.1336265939
 10
-25.4227527495
 20
7.1053354492
 10
-25.4430204015
 20
7.0781384178
 10
-25.4629230745
 20
7.0520607506
 10
-25.4824461146
 20
7.02699868
 10
-25.5015596177
 20
7.0029907405
 10
-25.5202934879
 20
6.9800272967
 10
-25.5387227831
 20
6.9579275288
 10
-25.5568529034
 20
6.9366808793
 10
-25.5746784489
 20
6.916317836
 10
-25.5922582775
 20
6.8967150205
 10
-25.6096143489
 20
6.8778493343
 10
-25.6267247036
 20
6.8597583612
 10
-25.6435823209
 20
6.8424076547
 10
-25.6601922467
 20
6.8257986526
 10
-25.6765494352
 20
6.8099417457
 10
-25.6926317286
 20
6.7948149948
 10
-25.7084302615
 20
6.7804325545
 10
-25.7239538993
 20
6.7667900033
 10
-25.7392070812
 20
6.7538366885
 10
-25.7541895735
 20
6.7415766832
 10
-25.7689016099
 20
6.7300134837
 10
-25.7833483304
 20
6.7190947042
 10
-25.797536584
 20
6.7088200208
 10
-25.8114595217
 20
6.699195601
 10
-25.8251017365
 20
6.6901781324
 10
-25.8384607678
 20
6.6817742417
 10
-25.8515390762
 20
6.6739818812
 10
-25.8643286369
 20
6.6667441846
 10
-25.8768160116
 20
6.6600697238
 10
-25.8890146387
 20
6.6539533797
 10
-25.9009568089
 20
6.6483171955
 10
-25.9126275319
 20
6.6431631746
 10
-25.9240417979
 20
6.638491735
 10
-25.9352768693
 20
6.6342220133
 10
-25.9463323757
 20
6.6303463617
 10
-25.9572086874
 20
6.6268740381
 10
-25.9679841774
 20
6.6237491435
 10
-25.9786849699
 20
6.6209533679
 10
-25.9892849407
 20
6.6185061223
 10
-25.9997840897
 20
6.6164079181
  0
LWPOLYLINE
  5
55F
100
AcDbEntity
  8
ASSI
100
AcDbPolyline
 62
250
  6
CONTINUOUS
 90
76
 70
0
 10
-24.8824437531
 20
8.3559100784
 10
-24.8828248277
 20
8.3301397863
 10
-24.8840588631
 20
8.3037033629
 10
-24.8861458591
 20
8.2765877027
 10
-24.889069115
 20
8.2487836294
 10
-24.8928453316
 20
8.2202744428
 10
-24.8975246114
 20
8.1910351689
 10
-24.9031039467
 20
8.1610544128
 10
-24.9095863451
 20
8.1303167696
 10
-24.9170309318
 20
8.0987897433
 10
-24.9254389861
 20
8.0664476384
 10
-24.9348092287
 20
8.033287832
 10
-24.945196947
 20
7.9993119887
 10
-24.9566060356
 20
7.9644973756
 10
-24.9690325999
 20
7.9288401873
 10
-24.9825202438
 20
7.8923724627
 10
-24.9970602433
 20
7.8551015501
 10
-25.0126613224
 20
7.8169984536
 10
-25.0293932567
 20
7.7780417803
 10
-25.0473136228
 20
7.7381091047
 10
-25.0663648441
 20
7.6972986256
 10
-25.0864439659
 20
7.6559307227
 10
-25.107677982
 20
7.6138404383
 10
-25.1299398987
 20
7.5711910678
 10
-25.1527457796
 20
7.5288340959
 10
-25.1761657851
 20
7.4867910566
 10
-25.2001297548
 20
7.4450946744
 10
-25.2239432707
 20
7.4046652211
 10
-25.2474675055
 20
7.3658347451
 10
-25.2708412865
 20
7.3283697221
 10
-25.2937866774
 20
7.2923656581
 10
-25.3161797074
 20
7.2580225777
 10
-25.3381443473
 20
7.22522181
 10
-25.3597745738
 20
7.193571023
 10
-25.381111901
 20
7.1629992451
 10
-25.4021148147
 20
7.1336265939
 10
-25.4227527495
 20
7.1053354492
 10
-25.4430204015
 20
7.0781384178
 10
-25.4629230745
 20
7.0520607506
 10
-25.4824461146
 20
7.02699868
 10
-25.5015596177
 20
7.0029907405
 10
-25.5202934879
 20
6.9800272967
 10
-25.5387227831
 20
6.9579275288
 10
-25.5568529034
 20
6.9366808793
 10
-25.5746784489
 20
6.916317836
 10
-25.5922582775
 20
6.8967150205
 10
-25.6096143489
 20
6.8778493343
 10
-25.6267247036
 20
6.8597583612
 10
-25.6435823209
 20
6.8424076547
 10
-25.6601922467
 20
6.8257986526
 10
-25.6765494352
 20
6.8099417457
 10
-25.6926317286
 20
6.7948149948
 10
-25.7084302615
 20
6.7804325545
 10
-25.7239538993
 20
6.7667900033
 10
-25.7392070812
 20
6.7538366885
 10
-25.7541895735
 20
6.7415766832
 10
-25.7689016099
 20
6.7300134837
 10
-25.7833483304
 20
6.7190947042
 10
-25.797536584
 20
6.7088200208
 10
-25.8114595217
 20
6.699195601
 10
-25.8251017365
 20
6.6901781324
 10
-25.8384607678
 20
6.6817742417
 10
-25.8515390762
 20
6.6739818812
 10
-25.8643286369
 20
6.6667441846
 10
-25.8768160116
 20
6.6600697238
 10
-25.8890146387
 20
6.6539533797
 10
-25.9009568089
 20
6.6483171955
 10
-25.9126275319
 20
6.6431631746
 10
-25.9240417979
 20
6.638491735
 10
-25.9352768693
 20
6.6342220133
 10
-25.9463323757
 20
6.6303463617
 10
-25.9572086874
 20
6.6268740381
 10
-25.9679841774
 20
6.6237491435
 10
-25.9786849699
 20
6.6209533679
 10
-25.9892849407
 20
6.6185061223
 10
-25.9997840897
 20
6.6164079181
  0
LWPOLYLINE
  5
560
100
AcDbEntity
  8
RACCORDO
100
AcDbPolyline
 62
250
  6
CONTINUOUS
 90
40
 70
0
 10
-25.1562970303
 20
2.9167726904
 10
-25.156080009
 20
2.9254505995
 10
-25.1554292592
 20
2.9341159532
 10
-25.1543457224
 20
2.9427562146
 10
-25.1528309662
 20
2.9513588828
 10
-25.1508871822
 20
2.9599115113
 10
-25.1485171826
 20
2.9684017262
 10
-25.1457243966
 20
2.9768172438
 10
-25.1425128645
 20
2.9851458884
 10
-25.138887233
 20
2.99337561
 10
-25.1348527477
 20
3.0014945019
 10
-25.1304152456
 20
3.0094908175
 10
-25.125581147
 20
3.0173529877
 10
-25.1203574458
 20
3.0250696376
 10
-25.1147516999
 20
3.0326296024
 10
-25.1087720196
 20
3.0400219445
 10
-25.1024270564
 20
3.0472359685
 10
-25.0957259902
 20
3.0542612372
 10
-25.0886785163
 20
3.0610875862
 10
-25.0812948308
 20
3.0677051393
 10
-25.0735856167
 20
3.074104322
 10
-25.0655620277
 20
3.080275876
 10
-25.0572356724
 20
3.0862108722
 10
-25.0486185973
 20
3.0919007238
 10
-25.0397232699
 20
3.0973371988
 10
-25.0305625598
 20
3.1025124314
 10
-25.021149721
 20
3.1074189343
 10
-25.0114983719
 20
3.1120496086
 10
-25.0016224762
 20
3.1163977546
 10
-24.9915363225
 20
3.1204570815
 10
-24.9812545035
 20
3.124221716
 10
-24.970791895
 20
3.1276862116
 10
-24.9601636344
 20
3.1308455558
 10
-24.9493850987
 20
3.1336951775
 10
-24.9384718825
 20
3.136230954
 10
-24.927439775
 20
3.1384492165
 10
-24.9163047376
 20
3.1403467556
 10
-24.9050828805
 20
3.1419208258
 10
-24.8937904397
 20
3.1431691498
 10
-24.8824437531
 20
3.1440899216
  0
LWPOLYLINE
  5
561
100
AcDbEntity
  8
ASSI
100
AcDbPolyline
 62
250
  6
CONTINUOUS
 90
40
 70
0
 10
-25.1562970303
 20
2.9167726904
 10
-25.156080009
 20
2.9254505995
 10
-25.1554292592
 20
2.9341159532
 10
-25.1543457224
 20
2.9427562146
 10
-25.1528309662
 20
2.9513588828
 10
-25.1508871822
 20
2.9599115113
 10
-25.1485171826
 20
2.9684017262
 10
-25.1457243966
 20
2.9768172438
 10
-25.1425128645
 20
2.9851458884
 10
-25.138887233
 20
2.99337561
 10
-25.1348527477
 20
3.0014945019
 10
-25.1304152456
 20
3.0094908175
 10
-25.125581147
 20
3.0173529877
 10
-25.1203574458
 20
3.0250696376
 10
-25.1147516999
 20
3.0326296024
 10
-25.1087720196
 20
3.0400219445
 10
-25.1024270564
 20
3.0472359685
 10
-25.0957259902
 20
3.0542612372
 10
-25.0886785163
 20
3.0610875862
 10
-25.0812948308
 20
3.0677051393
 10
-25.0735856167
 20
3.074104322
 10
-25.0655620277
 20
3.080275876
 10
-25.0572356724
 20
3.0862108722
 10
-25.0486185973
 20
3.0919007238
 10
-25.0397232699
 20
3.0973371988
 10
-25.0305625598
 20
3.1025124314
 10
-25.021149721
 20
3.1074189343
 10
-25.0114983719
 20
3.1120496086
 10
-25.0016224762
 20
3.1163977546
 10
-24.9915363225
 20
3.1204570815
 10
-24.9812545035
 20
3.124221716
 10
-24.970791895
 20
3.1276862116
 10
-24.9601636344
 20
3.1308455558
 10
-24.9493850987
 20
3.1336951775
 10
-24.9384718825
 20
3.136230954
 10
-24.927439775
 20
3.1384492165
 10
-24.9163047376
 20
3.1403467556
 10
-24.9050828805
 20
3.1419208258
 10
-24.8937904397
 20
3.1431691498
 10
-24.8824437531
 20
3.1440899216
  0
LINE
  5
562
100
AcDbEntity
  8
0
100
AcDbLine
 62
250
  6
CONTINUOUS
 10
-40.6281196722
 20
-14.778839
 11
-42.6244084443
 21
-15.419971
  0
LINE
  5
563
100
AcDbEntity
  8
0
100
AcDbLine
 62
250
  6
CONTINUOUS
 10
-42.6244084443
 20
-16.0
 11
-39.7251537872
 21
-15.068868
  0
LINE
  5
564
100
AcDbEntity
  8
0
100
AcDbLine
 62
250
  6
CONTINUOUS
 10
-40.3268574605
 20
12.328754
 11
-42.624271486
 21
12.328754
  0
LINE
  5
565
100
AcDbEntity
  8
0
100
AcDbLine
 62
250
  6
CONTINUOUS
 10
-27.2289611183
 20
12.3845237446
 11
-28.528763122
 21
12.3845237446
  0
LINE
  5
566
100
AcDbEntity
  8
0
100
AcDbLine
 62
250
  6
CONTINUOUS
 10
-37.547431907
 20
12.4323808575
 11
-37.9545127867
 21
12.4323808575
  0
LINE
  5
567
100
AcDbEntity
  8
0
100
AcDbLine
 62
250
  6
CONTINUOUS
 10
-36.4618830031
 20
12.4821428216
 11
-37.1403510839
 21
12.4821428216
  0
LINE
  5
568
100
AcDbEntity
  8
0
100
AcDbLine
 62
250
  6
CONTINUOUS
 10
-42.624271486
 20
12.911198
 11
-39.7251537872
 21
12.911198
  0
LINE
  5
569
100
AcDbEntity
  8
0
100
AcDbLine
 62
250
  6
CONTINUOUS
 10
-36.5975766249
 20
13.0792856431
 11
-37.1403510839
 21
13.0792856431
  0
LINE
  5
56A
100
AcDbEntity
  8
0
100
AcDbLine
 62
250
  6
CONTINUOUS
 10
-37.547431907
 20
13.1788095713
 11
-37.9545127867
 21
13.1788095713
  0
LINE
  5
56B
100
AcDbEntity
  8
DRAFT
100
AcDbLine
 62
7
  6
CONTINUOUS
 10
-45.1562970303
 20
13.5
 11
-47.6562970303
 21
13.5
  0
LINE
  5
56C
100
AcDbEntity
  8
0
100
AcDbLine
 62
250
  6
CONTINUOUS
 10
-37.9545127867
 20
14.0247617149
 11
-37.547431907
 21
14.0247617149
  0
LINE
  5
56D
100
AcDbEntity
  8
0
100
AcDbLine
 62
250
  6
CONTINUOUS
 10
-37.1403510839
 20
14.1242856431
 11
-36.5975766249
 21
14.1242856431
  0
LINE
  5
56E
100
AcDbEntity
  8
0
100
AcDbLine
 62
250
  6
CONTINUOUS
 10
-40.8213917861
 20
14.176491
 11
-42.0701163256
 21
14.606449
  0
LINE
  5
56F
100
AcDbEntity
  8
0
100
AcDbLine
 62
250
  6
CONTINUOUS
 10
-39.7251537872
 20
13.798889
 11
-40.3396055764
 21
14.015846
  0
LINE
  5
570
100
AcDbEntity
  8
0
100
AcDbLine
 62
250
  6
CONTINUOUS
 10
-37.8188191224
 20
15.02
 11
-37.2760446916
 21
14.7214287138
  0
LWPOLYLINE
  5
571
100
AcDbEntity
  8
RACCORDO
100
AcDbPolyline
 62
7
  6
CONTINUOUS
 90
9
 70
0
 10
-25.1618848423
 20
18.3158467546
 10
-25.1606276689
 20
18.2976577418
 10
-25.1595368861
 20
18.2796309797
 10
-25.1586124941
 20
18.2617664682
 10
-25.1578642452
 20
18.2440756146
 10
-25.157282387
 20
18.2265470115
 10
-25.1568376622
 20
18.2091464377
 10
-25.1565203182
 20
18.1918624859
 10
-25.1563401076
 20
18.1747065634
  0
LWPOLYLINE
  5
572
100
AcDbEntity
  8
ASSI
100
AcDbPolyline
 62
7
  6
CONTINUOUS
 90
9
 70
0
 10
-25.1618848423
 20
18.3158467546
 10
-25.1606276689
 20
18.2976577418
 10
-25.1595368861
 20
18.2796309797
 10
-25.1586124941
 20
18.2617664682
 10
-25.1578642452
 20
18.2440756146
 10
-25.157282387
 20
18.2265470115
 10
-25.1568376622
 20
18.2091464377
 10
-25.1565203182
 20
18.1918624859
 10
-25.1563401076
 20
18.1747065634
  0
LINE
  5
573
100
AcDbEntity
  8
RACCORDO
100
AcDbLine
 62
250
  6
CONTINUOUS
 10
-23.4301503075
 20
9.0489817302
 11
-23.4301503075
 21
2.4510182698
  0
LINE
  5
574
100
AcDbEntity
  8
ASSI
100
AcDbLine
 62
250
  6
CONTINUOUS
 10
-23.4301503075
 20
9.0489817302
 11
-23.4301503075
 21
2.4510182698
  0
LINE
  5
575
100
AcDbEntity
  8
RACCORDO
100
AcDbLine
 62
7
  6
CONTINUOUS
 10
-23.1562970303
 20
8.7501233207
 11
-23.1562970303
 21
2.7498766793
  0
LINE
  5
576
100
AcDbEntity
  8
ASSI
100
AcDbLine
 62
7
  6
CONTINUOUS
 10
-23.1562970303
 20
8.7501233207
 11
-23.1562970303
 21
2.7498766793
  0
LWPOLYLINE
  5
577
100
AcDbEntity
  8
RACCORDO
100
AcDbPolyline
 62
250
  6
CONTINUOUS
 90
13
 70
0
 10
-47.6606601319
 20
-23.4113248654
 10
-47.6233579159
 20
-23.3873978149
 10
-47.5887814024
 20
-23.3608504841
 10
-47.5569305914
 20
-23.331682873
 10
-47.5276293607
 20
-23.2996532663
 10
-47.5010538325
 20
-23.2650033792
 10
-47.4777323734
 20
-23.2284583579
 10
-47.4577127974
 20
-23.1899831969
 10
-47.4409472906
 20
-23.1496129017
 10
-47.4278207782
 20
-23.1081776344
 10
-47.4184615684
 20
-23.0659541161
 10
-47.412741353
 20
-23.0226656258
 10
-47.4106601319
 20
-22.9783121635
  0
LINE
  5
578
100
AcDbEntity
  8
RACCORDO
100
AcDbLine
 62
7
  6
CONTINUOUS
 10
-47.7812970303
 20
-23.1948185145
 11
-48.5312970303
 21
-23.6278312164
  0
LINE
  5
579
100
AcDbEntity
  8
RACCORDO
100
AcDbLine
 62
250
  6
CONTINUOUS
 10
-47.6606601319
 20
-23.4113248654
 11
-48.4106601319
 21
-23.8443375673
  0
LINE
  5
57A
100
AcDbEntity
  8
0
100
AcDbLine
 62
250
  6
CONTINUOUS
 10
-28.528763122
 20
14.4273812771
 11
-27.2289611183
 21
14.4273812771
  0
LINE
  5
57B
100
AcDbEntity
  8
0
100
AcDbLine
 62
250
  6
CONTINUOUS
 10
-37.2760446916
 20
14.7214287138
 11
-36.5975766249
 21
14.7214287138
  0
LINE
  5
57C
100
AcDbEntity
  8
0
100
AcDbLine
 62
250
  6
CONTINUOUS
 10
-32.9502579576
 20
15.6
 11
-32.2004863975
 21
15.6
  0
LINE
  5
57D
100
AcDbEntity
  8
0
100
AcDbLine
 62
250
  6
CONTINUOUS
 10
-27.9717051536
 20
15.7552374458
 11
-27.2289611183
 21
15.7552374458
  0
LINE
  5
57E
100
AcDbEntity
  8
0
100
AcDbLine
 62
250
  6
CONTINUOUS
 10
-36.5975766249
 20
15.7664287138
 11
-37.1403510839
 21
15.7664287138
  0
LINE
  5
57F
100
AcDbEntity
  8
0
100
AcDbLine
 62
250
  6
CONTINUOUS
 10
-35.122636079
 20
16.0
 11
-34.3720447686
 21
16.0
  0
LINE
  5
580
100
AcDbEntity
  8
0
100
AcDbLine
 62
250
  6
CONTINUOUS
 10
-30.7786995865
 20
16.0
 11
-30.0281082761
 21
16.0
  0
LWPOLYLINE
  5
581
100
AcDbEntity
  8
0
100
AcDbPolyline
 62
250
  6
CONTINUOUS
 90
46
 70
0
 10
-32.9502576352
 20
14.1394958193
 10
-33.0053106147
 20
14.1521426943
 10
-33.0599973054
 20
14.1665393247
 10
-33.1142549135
 20
14.1826641327
 10
-33.1680206451
 20
14.2004955408
 10
-33.2212317064
 20
14.2200119711
 10
-33.2738253035
 20
14.2411918462
 10
-33.3257386425
 20
14.2640135882
 10
-33.3769089296
 20
14.2884556195
 10
-33.4272733709
 20
14.3144963625
 10
-33.4767725228
 20
14.3421123957
 10
-33.5253603422
 20
14.3712729225
 10
-33.5729941363
 20
14.4019453026
 10
-33.6196312124
 20
14.4340968958
 10
-33.6652288775
 20
14.4676950616
 10
-33.709744439
 20
14.5027071598
 10
-33.7531352039
 20
14.53910055
 10
-33.7953584795
 20
14.576842592
 10
-33.836371573
 20
14.6159006454
 10
-33.8761330949
 20
14.6562399043
 10
-33.9146068689
 20
14.6978169009
 10
-33.9517580222
 20
14.7405860014
 10
-33.987551682
 20
14.7845015726
 10
-34.0219529752
 20
14.8295179808
 10
-34.0549270292
 20
14.8755895925
 10
-34.0864389709
 20
14.9226707742
 10
-34.1164539274
 20
14.9707158925
 10
-34.144937026
 20
15.0196793137
 10
-34.1718558247
 20
15.0695147145
 10
-34.1971876054
 20
15.1201730116
 10
-34.2209120811
 20
15.171604432
 10
-34.2430089647
 20
15.2237592027
 10
-34.2634579692
 20
15.2765875504
 10
-34.2822388074
 20
15.3300397021
 10
-34.2993311923
 20
15.3840658846
 10
-34.3147148368
 20
15.438616325
 10
-34.3283694539
 20
15.4936412501
 10
-34.340277414
 20
15.5490881367
 10
-34.3504317179
 20
15.6048934611
 10
-34.3588280239
 20
15.6609909497
 10
-34.3654619903
 20
15.7173143288
 10
-34.3703292754
 20
15.7737973245
 10
-34.3734255374
 20
15.8303736632
 10
-34.3747464348
 20
15.8869770712
 10
-34.3742876257
 20
15.9435412747
 10
-34.3720447686
 20
16.0
  0
LINE
  5
582
100
AcDbEntity
  8
0
100
AcDbLine
 62
250
  6
CONTINUOUS
 10
-27.2289611183
 20
13.201666894
 11
-28.528763122
 21
13.6102374458
  0
LINE
  5
583
100
AcDbEntity
  8
RACCORDO
100
AcDbLine
 62
7
  6
CONTINUOUS
 10
-48.5312970303
 20
23.6278312164
 11
-47.7812970303
 21
23.1948185145
  0
LINE
  5
584
100
AcDbEntity
  8
RACCORDO
100
AcDbLine
 62
250
  6
CONTINUOUS
 10
-48.4106601319
 20
23.8443375673
 11
-47.6606601319
 21
23.4113248654
  0
LWPOLYLINE
  5
585
100
AcDbEntity
  8
RACCORDO
100
AcDbPolyline
 62
250
  6
CONTINUOUS
 90
7
 70
0
 10
-24.486022123
 20
-11.3779694578
 10
-24.4860817583
 20
-11.3781841114
 10
-24.4863875948
 20
-11.3787347542
 10
-24.4869392076
 20
-11.3796206212
 10
-24.4877358303
 20
-11.3808404815
 10
-24.4887763559
 20
-11.3823926401
 10
-24.4900593388
 20
-11.3842749405
  0
LWPOLYLINE
  5
586
100
AcDbEntity
  8
ASSI
100
AcDbPolyline
 62
250
  6
CONTINUOUS
 90
7
 70
0
 10
-24.486022123
 20
-11.3779694578
 10
-24.4860817583
 20
-11.3781841114
 10
-24.4863875948
 20
-11.3787347542
 10
-24.4869392076
 20
-11.3796206212
 10
-24.4877358303
 20
-11.3808404815
 10
-24.4887763559
 20
-11.3823926401
 10
-24.4900593388
 20
-11.3842749405
  0
LWPOLYLINE
  5
587
100
AcDbEntity
  8
RACCORDO
100
AcDbPolyline
 62
250
  6
CONTINUOUS
 90
9
 70
0
 10
-25.1799678976
 20
-18.3941398079
 10
-25.1744368815
 20
-18.3752716687
 10
-25.1696350002
 20
-18.3563039669
 10
-25.1655658195
 20
-18.337250788
 10
-25.1622323612
 20
-18.3181262809
 10
-25.1596371008
 20
-18.2989446476
 10
-25.1577819656
 20
-18.2797201325
 10
-25.1566683331
 20
-18.2604670119
 10
-25.1562970303
 20
-18.2411995832
  0
LINE
  5
588
100
AcDbEntity
  8
RACCORDO
100
AcDbLine
 62
250
  6
CONTINUOUS
 10
-24.4900593388
 20
-11.3842749405
 11
-24.4933452117
 21
-11.3890190503
  0
LINE
  5
589
100
AcDbEntity
  8
ASSI
100
AcDbLine
 62
250
  6
CONTINUOUS
 10
-24.4900593388
 20
-11.3842749405
 11
-24.4933452117
 21
-11.3890190503
  0
LINE
  5
58A
100
AcDbEntity
  8
RACCORDO
100
AcDbLine
 62
250
  6
CONTINUOUS
 10
-24.4933452117
 20
-11.3890190503
 11
-24.4975751932
 21
-11.3950464537
  0
LINE
  5
58B
100
AcDbEntity
  8
ASSI
100
AcDbLine
 62
250
  6
CONTINUOUS
 10
-24.4933452117
 20
-11.3890190503
 11
-24.4975751932
 21
-11.3950464537
  0
LINE
  5
58C
100
AcDbEntity
  8
RACCORDO
100
AcDbLine
 62
250
  6
CONTINUOUS
 10
-24.4975751932
 20
-11.3950464537
 11
-24.5087683645
 21
-11.4108102501
  0
LINE
  5
58D
100
AcDbEntity
  8
ASSI
100
AcDbLine
 62
250
  6
CONTINUOUS
 10
-24.4975751932
 20
-11.3950464537
 11
-24.5087683645
 21
-11.4108102501
  0
LINE
  5
58E
100
AcDbEntity
  8
RACCORDO
100
AcDbLine
 62
250
  6
CONTINUOUS
 10
-24.5087683645
 20
-11.4108102501
 11
-24.5318887199
 21
-11.443022784
  0
LINE
  5
58F
100
AcDbEntity
  8
ASSI
100
AcDbLine
 62
250
  6
CONTINUOUS
 10
-24.5087683645
 20
-11.4108102501
 11
-24.5318887199
 21
-11.443022784
  0
LINE
  5
590
100
AcDbEntity
  8
RACCORDO
100
AcDbLine
 62
250
  6
CONTINUOUS
 10
-24.5318887199
 20
-11.443022784
 11
-24.5842495044
 21
-11.5153085701
  0
LINE
  5
591
100
AcDbEntity
  8
ASSI
100
AcDbLine
 62
250
  6
CONTINUOUS
 10
-24.5318887199
 20
-11.443022784
 11
-24.5842495044
 21
-11.5153085701
  0
LWPOLYLINE
  5
592
100
AcDbEntity
  8
RACCORDO
100
AcDbPolyline
 62
250
  6
CONTINUOUS
 90
3
 70
0
 10
-24.5842495044
 20
-11.5153085701
 10
-24.654056459
 20
-11.6109826812
 10
-24.6606602981
 20
-11.6200030332
  0
LWPOLYLINE
  5
593
100
AcDbEntity
  8
ASSI
100
AcDbPolyline
 62
250
  6
CONTINUOUS
 90
3
 70
0
 10
-24.5842495044
 20
-11.5153085701
 10
-24.654056459
 20
-11.6109826812
 10
-24.6606602981
 20
-11.6200030332
  0
LINE
  5
594
100
AcDbEntity
  8
RACCORDO
100
AcDbLine
 62
250
  6
CONTINUOUS
 10
-26.1388446239
 20
17.5342004978
 11
-25.1562970303
 21
17.5342004978
  0
LINE
  5
595
100
AcDbEntity
  8
ASSI
100
AcDbLine
 62
250
  6
CONTINUOUS
 10
-26.1388446239
 20
17.5342004978
 11
-25.1562970303
 21
17.5342004978
  0
LINE
  5
596
100
AcDbEntity
  8
RACCORDO
100
AcDbLine
 62
250
  6
CONTINUOUS
 10
-26.1388446239
 20
17.5342004978
 11
-45.1562970303
 21
17.6716990487
  0
LINE
  5
597
100
AcDbEntity
  8
ASSI
100
AcDbLine
 62
250
  6
CONTINUOUS
 10
-26.1388446239
 20
17.5342004978
 11
-45.1562970303
 21
17.6716990487
  0
LINE
  5
598
100
AcDbEntity
  8
RACCORDO
100
AcDbLine
 62
250
  6
CONTINUOUS
 10
-24.5670355205
 20
11.4916092981
 11
-24.6606602979
 21
11.6200030332
  0
LINE
  5
599
100
AcDbEntity
  8
ASSI
100
AcDbLine
 62
250
  6
CONTINUOUS
 10
-24.5670355205
 20
11.4916092981
 11
-24.6606602979
 21
11.6200030332
  0
LINE
  5
59A
100
AcDbEntity
  8
RACCORDO
100
AcDbLine
 62
250
  6
CONTINUOUS
 10
-24.5233904715
 20
11.4312164984
 11
-24.5670355205
 21
11.4916092981
  0
LINE
  5
59B
100
AcDbEntity
  8
ASSI
100
AcDbLine
 62
250
  6
CONTINUOUS
 10
-24.5233904715
 20
11.4312164984
 11
-24.5670355205
 21
11.4916092981
  0
LINE
  5
59C
100
AcDbEntity
  8
RACCORDO
100
AcDbLine
 62
250
  6
CONTINUOUS
 10
-24.5056375811
 20
11.4064185844
 11
-24.5233904715
 21
11.4312164984
  0
LINE
  5
59D
100
AcDbEntity
  8
ASSI
100
AcDbLine
 62
250
  6
CONTINUOUS
 10
-24.5056375811
 20
11.4064185844
 11
-24.5233904715
 21
11.4312164984
  0
LINE
  5
59E
100
AcDbEntity
  8
RACCORDO
100
AcDbLine
 62
250
  6
CONTINUOUS
 10
-24.4975752163
 20
11.3950464647
 11
-24.5056375811
 21
11.4064185844
  0
LINE
  5
59F
100
AcDbEntity
  8
ASSI
100
AcDbLine
 62
250
  6
CONTINUOUS
 10
-24.4975752163
 20
11.3950464647
 11
-24.5056375811
 21
11.4064185844
  0
LINE
  5
5A0
100
AcDbEntity
  8
RACCORDO
100
AcDbLine
 62
250
  6
CONTINUOUS
 10
-24.4933452348
 20
11.3890190641
 11
-24.4975752163
 21
11.3950464647
  0
LINE
  5
5A1
100
AcDbEntity
  8
ASSI
100
AcDbLine
 62
250
  6
CONTINUOUS
 10
-24.4933452348
 20
11.3890190641
 11
-24.4975752163
 21
11.3950464647
  0
LWPOLYLINE
  5
5A2
100
AcDbEntity
  8
RACCORDO
100
AcDbPolyline
 62
250
  6
CONTINUOUS
 90
8
 70
0
 10
-24.4860221425
 20
11.3779694844
 10
-24.4860817786
 20
11.3781841363
 10
-24.4863876158
 20
11.3787347774
 10
-24.4869392292
 20
11.3796206427
 10
-24.4877358524
 20
11.3808405014
 10
-24.4887763784
 20
11.3823926584
 10
-24.4900593616
 20
11.3842749573
 10
-24.4933452348
 20
11.3890190641
  0
LWPOLYLINE
  5
5A3
100
AcDbEntity
  8
ASSI
100
AcDbPolyline
 62
250
  6
CONTINUOUS
 90
8
 70
0
 10
-24.4860221425
 20
11.3779694844
 10
-24.4860817786
 20
11.3781841363
 10
-24.4863876158
 20
11.3787347774
 10
-24.4869392292
 20
11.3796206427
 10
-24.4877358524
 20
11.3808405014
 10
-24.4887763784
 20
11.3823926584
 10
-24.4900593616
 20
11.3842749573
 10
-24.4933452348
 20
11.3890190641
  0
LWPOLYLINE
  5
5A4
100
AcDbEntity
  8
RACCORDO
100
AcDbPolyline
 62
250
  6
CONTINUOUS
 90
6
 70
0
 10
-25.2183974723
 20
-18.4864998269
 10
-25.2092931071
 20
-18.4683378333
 10
-25.2008919921
 20
-18.4500071656
 10
-25.1932003662
 20
-18.4315214362
 10
-25.1862239411
 20
-18.4128943728
 10
-25.1799678976
 20
-18.3941398079
  0
LWPOLYLINE
  5
5A5
100
AcDbEntity
  8
ASSI
100
AcDbPolyline
 62
250
  6
CONTINUOUS
 90
14
 70
0
 10
-25.2183974723
 20
-18.4864998269
 10
-25.2092931071
 20
-18.4683378333
 10
-25.2008919921
 20
-18.4500071656
 10
-25.1932003662
 20
-18.4315214362
 10
-25.1862239411
 20
-18.4128943728
 10
-25.1799678976
 20
-18.3941398079
 10
-25.1744368815
 20
-18.3752716687
 10
-25.1696350002
 20
-18.3563039669
 10
-25.1655658195
 20
-18.337250788
 10
-25.1622323612
 20
-18.3181262809
 10
-25.1596371008
 20
-18.2989446476
 10
-25.1577819656
 20
-18.2797201325
 10
-25.1566683331
 20
-18.2604670119
 10
-25.1562970303
 20
-18.2411995832
  0
LINE
  5
5A6
100
AcDbEntity
  8
RACCORDO
100
AcDbLine
 62
7
  6
CONTINUOUS
 10
-25.1938565258
 20
18.55
 11
-25.1609416521
 21
18.55
  0
LINE
  5
5A7
100
AcDbEntity
  8
ASSI
100
AcDbLine
 62
7
  6
CONTINUOUS
 10
-25.1938565258
 20
18.55
 11
-25.1609416521
 21
18.55
  0
LINE
  5
5A8
100
AcDbEntity
  8
RACCORDO
100
AcDbLine
 62
250
  6
CONTINUOUS
 10
-26.1388446239
 20
18.9481986686
 11
-45.1562970303
 21
19.0856972195
  0
LINE
  5
5A9
100
AcDbEntity
  8
ASSI
100
AcDbLine
 62
250
  6
CONTINUOUS
 10
-26.1388446239
 20
18.9481986686
 11
-45.1562970303
 21
19.0856972195
  0
LINE
  5
5AA
100
AcDbEntity
  8
RACCORDO
100
AcDbLine
 62
7
  6
CONTINUOUS
 10
-25.7309508365
 20
19.4464591391
 11
-35.1562970303
 21
19.6109791689
  0
LINE
  5
5AB
100
AcDbEntity
  8
ASSI
100
AcDbLine
 62
7
  6
CONTINUOUS
 10
-25.7309508365
 20
19.4464591391
 11
-35.1562970303
 21
19.6109791689
  0
LWPOLYLINE
  5
5AC
100
AcDbEntity
  8
RACCORDO
100
AcDbPolyline
 62
250
  6
CONTINUOUS
 90
55
 70
0
 10
-26.1388446239
 20
18.9481986686
 10
-26.1120511701
 20
18.9476138751
 10
-26.0852895102
 20
18.9465214714
 10
-26.0585788744
 20
18.9449222423
 10
-26.0319384563
 20
18.942817337
 10
-26.0053873988
 20
18.940208268
 10
-25.978944781
 20
18.9370969102
 10
-25.9526296038
 20
18.9334854993
 10
-25.9264607765
 20
18.9293766303
 10
-25.9004571033
 20
18.9247732557
 10
-25.8746372698
 20
18.9196786835
 10
-25.8490198295
 20
18.9140965745
 10
-25.8236231903
 20
18.9080309397
 10
-25.7984656016
 20
18.9014861378
 10
-25.773565141
 20
18.8944668718
 10
-25.7489397012
 20
18.8869781854
 10
-25.7246069774
 20
18.8790254599
 10
-25.7005844545
 20
18.8706144099
 10
-25.6768893945
 20
18.8617510793
 10
-25.6535388238
 20
18.852441837
 10
-25.6305495218
 20
18.8426933725
 10
-25.6079380077
 20
18.8325126907
 10
-25.5857205297
 20
18.8219071072
 10
-25.5639130527
 20
18.8108842428
 10
-25.5425312468
 20
18.7994520184
 10
-25.5215904766
 20
18.7876186488
 10
-25.5011057894
 20
18.7753926371
 10
-25.4810919051
 20
18.7627827686
 10
-25.461563205
 20
18.7497981045
 10
-25.442533722
 20
18.7364479752
 10
-25.4240171301
 20
18.7227419736
 10
-25.4060267349
 20
18.7086899487
 10
-25.3885754637
 20
18.6943019977
 10
-25.3716758567
 20
18.6795884595
 10
-25.3553400573
 20
18.6645599068
 10
-25.3395798041
 20
18.6492271388
 10
-25.324406422
 20
18.6336011732
 10
-25.3098308141
 20
18.6176932383
 10
-25.295863454
 20
18.6015147652
 10
-25.2825143785
 20
18.5850773792
 10
-25.2697931796
 20
18.568392892
 10
-25.2577089986
 20
18.5514732924
 10
-25.2462705189
 20
18.5343307385
 10
-25.2354859597
 20
18.5169775483
 10
-25.2253630706
 20
18.4994261916
 10
-25.2159091256
 20
18.4816892802
 10
-25.2071309182
 20
18.4637795593
 10
-25.199034756
 20
18.4457098984
 10
-25.1916264567
 20
18.4274932819
 10
-25.1849113438
 20
18.4091427998
 10
-25.1788942425
 20
18.3906716382
 10
-25.1735794767
 20
18.3720930699
 10
-25.1689708652
 20
18.3534204452
 10
-25.1650717198
 20
18.3346671815
 10
-25.1618848423
 20
18.3158467546
  0
LWPOLYLINE
  5
5AD
100
AcDbEntity
  8
ASSI
100
AcDbPolyline
 62
250
  6
CONTINUOUS
 90
55
 70
0
 10
-26.1388446239
 20
18.9481986686
 10
-26.1120511701
 20
18.9476138751
 10
-26.0852895102
 20
18.9465214714
 10
-26.0585788744
 20
18.9449222423
 10
-26.0319384563
 20
18.942817337
 10
-26.0053873988
 20
18.940208268
 10
-25.978944781
 20
18.9370969102
 10
-25.9526296038
 20
18.9334854993
 10
-25.9264607765
 20
18.9293766303
 10
-25.9004571033
 20
18.9247732557
 10
-25.8746372698
 20
18.9196786835
 10
-25.8490198295
 20
18.9140965745
 10
-25.8236231903
 20
18.9080309397
 10
-25.7984656016
 20
18.9014861378
 10
-25.773565141
 20
18.8944668718
 10
-25.7489397012
 20
18.8869781854
 10
-25.7246069774
 20
18.8790254599
 10
-25.7005844545
 20
18.8706144099
 10
-25.6768893945
 20
18.8617510793
 10
-25.6535388238
 20
18.852441837
 10
-25.6305495218
 20
18.8426933725
 10
-25.6079380077
 20
18.8325126907
 10
-25.5857205297
 20
18.8219071072
 10
-25.5639130527
 20
18.8108842428
 10
-25.5425312468
 20
18.7994520184
 10
-25.5215904766
 20
18.7876186488
 10
-25.5011057894
 20
18.7753926371
 10
-25.4810919051
 20
18.7627827686
 10
-25.461563205
 20
18.7497981045
 10
-25.442533722
 20
18.7364479752
 10
-25.4240171301
 20
18.7227419736
 10
-25.4060267349
 20
18.7086899487
 10
-25.3885754637
 20
18.6943019977
 10
-25.3716758567
 20
18.6795884595
 10
-25.3553400573
 20
18.6645599068
 10
-25.3395798041
 20
18.6492271388
 10
-25.324406422
 20
18.6336011732
 10
-25.3098308141
 20
18.6176932383
 10
-25.295863454
 20
18.6015147652
 10
-25.2825143785
 20
18.5850773792
 10
-25.2697931796
 20
18.568392892
 10
-25.2577089986
 20
18.5514732924
 10
-25.2462705189
 20
18.5343307385
 10
-25.2354859597
 20
18.5169775483
 10
-25.2253630706
 20
18.4994261916
 10
-25.2159091256
 20
18.4816892802
 10
-25.2071309182
 20
18.4637795593
 10
-25.199034756
 20
18.4457098984
 10
-25.1916264567
 20
18.4274932819
 10
-25.1849113438
 20
18.4091427998
 10
-25.1788942425
 20
18.3906716382
 10
-25.1735794767
 20
18.3720930699
 10
-25.1689708652
 20
18.3534204452
 10
-25.1650717198
 20
18.3346671815
 10
-25.1618848423
 20
18.3158467546
  0
LINE
  5
5AE
100
AcDbEntity
  8
RACCORDO
100
AcDbLine
 62
250
  6
CONTINUOUS
 10
-54.7443673161
 20
20.4953241026
 11
-55.169741094
 21
20.5129735697
  0
LWPOLYLINE
  5
5AF
100
AcDbEntity
  8
RACCORDO
100
AcDbPolyline
 62
250
  6
CONTINUOUS
 90
3
 70
0
 10
-55.169741094
 20
20.5129735697
 10
-55.2325451776
 20
20.5156930462
 10
-55.2352200301
 20
20.5158399423
  0
LINE
  5
5B0
100
AcDbEntity
  8
0
100
AcDbLine
 62
250
  6
CONTINUOUS
 10
-27.9717051536
 20
15.7552374458
 11
-28.528763122
 21
16.1638100433
  0
LWPOLYLINE
  5
5B1
100
AcDbEntity
  8
0
100
AcDbPolyline
 62
7
  6
CONTINUOUS
 90
10
 70
0
 43
0.3500000006
 10
-38.5991552582
 20
43.7499994354
 10
-38.5277240753
 20
43.6071416016
 10
-38.5277240753
 20
43.5357149506
 10
-38.6705819092
 20
43.3928571167
 10
-38.742013092
 20
43.3928571167
 10
-38.813439743
 20
43.4642837677
 10
-38.813439743
 20
43.5357149506
 10
-38.742013092
 20
43.6785727844
 10
-38.6705819092
 20
43.7499994354
 10
-38.5991552582
 20
43.7499994354
  0
LWPOLYLINE
  5
5B2
100
AcDbEntity
  8
ASSI
100
AcDbPolyline
 62
250
  6
CONTINUOUS
 90
6
 70
0
 10
-25.2742134338
 20
-18.5743125735
 10
-25.2617044922
 20
-18.5571934048
 10
-25.2498598799
 20
-18.5398395774
 10
-25.2386883928
 20
-18.5222639783
 10
-25.228198327
 20
-18.5044796592
 10
-25.2183974723
 20
-18.4864998269
  0
LWPOLYLINE
  5
5B3
100
AcDbEntity
  8
RACCORDO
100
AcDbPolyline
 62
250
  6
CONTINUOUS
 90
25
 70
0
 10
-24.6606602981
 20
-16.3799969668
 10
-24.6741834155
 20
-16.3956878527
 10
-24.6875943409
 20
-16.4109618385
 10
-24.7008837957
 20
-16.4258189242
 10
-24.7140369611
 20
-16.4402490244
 10
-24.7270514499
 20
-16.4542622244
 10
-24.7399371006
 20
-16.4678887807
 10
-24.7526885447
 20
-16.4811312248
 10
-24.7652959086
 20
-16.4939870252
 10
-24.7777624556
 20
-16.5064788432
 10
-24.7900814996
 20
-16.5186068164
 10
-24.802246166
 20
-16.5303708073
 10
-24.8142595251
 20
-16.5417930642
 10
-24.8261155127
 20
-16.5528738347
 10
-24.8378079729
 20
-16.5636128712
 10
-24.8493397958
 20
-16.5740316796
 10
-24.8607085244
 20
-16.5841330042
 10
-24.8719053855
 20
-16.5939141006
 10
-24.8829239548
 20
-16.6033882423
 10
-24.8937589152
 20
-16.6125545722
 10
-24.904405971
 20
-16.6214139474
 10
-24.9148606387
 20
-16.6299822119
 10
-24.9251187018
 20
-16.6382646472
 10
-24.9351762068
 20
-16.6462559718
 10
-24.9450294247
 20
-16.6539561857
  0
LWPOLYLINE
  5
5B4
100
AcDbEntity
  8
ASSI
100
AcDbPolyline
 62
250
  6
CONTINUOUS
 90
25
 70
0
 10
-24.6606602981
 20
-16.3799969668
 10
-24.6741834155
 20
-16.3956878527
 10
-24.6875943409
 20
-16.4109618385
 10
-24.7008837957
 20
-16.4258189242
 10
-24.7140369611
 20
-16.4402490244
 10
-24.7270514499
 20
-16.4542622244
 10
-24.7399371006
 20
-16.4678887807
 10
-24.7526885447
 20
-16.4811312248
 10
-24.7652959086
 20
-16.4939870252
 10
-24.7777624556
 20
-16.5064788432
 10
-24.7900814996
 20
-16.5186068164
 10
-24.802246166
 20
-16.5303708073
 10
-24.8142595251
 20
-16.5417930642
 10
-24.8261155127
 20
-16.5528738347
 10
-24.8378079729
 20
-16.5636128712
 10
-24.8493397958
 20
-16.5740316796
 10
-24.8607085244
 20
-16.5841330042
 10
-24.8719053855
 20
-16.5939141006
 10
-24.8829239548
 20
-16.6033882423
 10
-24.8937589152
 20
-16.6125545722
 10
-24.904405971
 20
-16.6214139474
 10
-24.9148606387
 20
-16.6299822119
 10
-24.9251187018
 20
-16.6382646472
 10
-24.9351762068
 20
-16.6462559718
 10
-24.9450294247
 20
-16.6539561857
  0
LWPOLYLINE
  5
5B5
100
AcDbEntity
  8
RACCORDO
100
AcDbPolyline
 62
250
  6
CONTINUOUS
 90
31
 70
0
 10
-24.9450294247
 20
-16.6539561857
 10
-24.954307054
 20
-16.6613804623
 10
-24.9636601283
 20
-16.6694399517
 10
-24.9730709294
 20
-16.6781346538
 10
-24.9825175642
 20
-16.6874417771
 10
-24.9919835864
 20
-16.6973841132
 10
-25.0014572808
 20
-16.7080300368
 10
-25.0109109283
 20
-16.7193736782
 10
-25.0203263129
 20
-16.7314209071
 10
-25.0297016222
 20
-16.7442577076
 10
-25.0390105565
 20
-16.7578880363
 10
-25.0482215579
 20
-16.7723079366
 10
-25.057319121
 20
-16.787591522
 10
-25.0662799854
 20
-16.8037661175
 10
-25.0750565321
 20
-16.8208043982
 10
-25.0835951633
 20
-16.8386985034
 10
-25.0918570448
 20
-16.8574537159
 10
-25.0998080424
 20
-16.877064753
 10
-25.107403543
 20
-16.8975079053
 10
-25.1146120549
 20
-16.9188174176
 10
-25.121386905
 20
-16.9409590452
 10
-25.1276668881
 20
-16.9638063444
 10
-25.1334175189
 20
-16.9873722346
 10
-25.1386052743
 20
-17.0116437964
 10
-25.1431825078
 20
-17.0364558288
 10
-25.1471253458
 20
-17.0618496968
 10
-25.1504007412
 20
-17.0877840354
 10
-25.1529676588
 20
-17.1139695491
 10
-25.1548104507
 20
-17.1403098061
 10
-25.1559237568
 20
-17.1669012381
 10
-25.1562970303
 20
-17.1937438452
  0
LWPOLYLINE
  5
5B6
100
AcDbEntity
  8
ASSI
100
AcDbPolyline
 62
250
  6
CONTINUOUS
 90
31
 70
0
 10
-24.9450294247
 20
-16.6539561857
 10
-24.954307054
 20
-16.6613804623
 10
-24.9636601283
 20
-16.6694399517
 10
-24.9730709294
 20
-16.6781346538
 10
-24.9825175642
 20
-16.6874417771
 10
-24.9919835864
 20
-16.6973841132
 10
-25.0014572808
 20
-16.7080300368
 10
-25.0109109283
 20
-16.7193736782
 10
-25.0203263129
 20
-16.7314209071
 10
-25.0297016222
 20
-16.7442577076
 10
-25.0390105565
 20
-16.7578880363
 10
-25.0482215579
 20
-16.7723079366
 10
-25.057319121
 20
-16.787591522
 10
-25.0662799854
 20
-16.8037661175
 10
-25.0750565321
 20
-16.8208043982
 10
-25.0835951633
 20
-16.8386985034
 10
-25.0918570448
 20
-16.8574537159
 10
-25.0998080424
 20
-16.877064753
 10
-25.107403543
 20
-16.8975079053
 10
-25.1146120549
 20
-16.9188174176
 10
-25.121386905
 20
-16.9409590452
 10
-25.1276668881
 20
-16.9638063444
 10
-25.1334175189
 20
-16.9873722346
 10
-25.1386052743
 20
-17.0116437964
 10
-25.1431825078
 20
-17.0364558288
 10
-25.1471253458
 20
-17.0618496968
 10
-25.1504007412
 20
-17.0877840354
 10
-25.1529676588
 20
-17.1139695491
 10
-25.1548104507
 20
-17.1403098061
 10
-25.1559237568
 20
-17.1669012381
 10
-25.1562970303
 20
-17.1937438452
  0
LWPOLYLINE
  5
5B7
100
AcDbEntity
  8
RACCORDO
100
AcDbPolyline
 62
250
  6
CONTINUOUS
 90
37
 70
0
 10
-24.9872829588
 20
-16.9238500083
 10
-24.9820752732
 20
-16.9210998443
 10
-24.9770495398
 20
-16.917992781
 10
-24.972212473
 20
-16.9145329693
 10
-24.9675705351
 20
-16.9107250316
 10
-24.9631299275
 20
-16.9065740552
 10
-24.9588965829
 20
-16.9020855856
 10
-24.9548761568
 20
-16.8972656195
 10
-24.9510740205
 20
-16.8921205961
 10
-24.9474952536
 20
-16.8866573892
 10
-24.9441446373
 20
-16.8808832974
 10
-24.9410266478
 20
-16.8748060349
 10
-24.9381454508
 20
-16.8684337207
 10
-24.9355048954
 20
-16.8617748683
 10
-24.9331085095
 20
-16.8548383736
 10
-24.9309594944
 20
-16.8476335037
 10
-24.9290607213
 20
-16.8401698841
 10
-24.9274147269
 20
-16.8324574862
 10
-24.9260237101
 20
-16.8245066136
 10
-24.9248895294
 20
-16.8163278884
 10
-24.9240136999
 20
-16.8079322373
 10
-24.9233973918
 20
-16.7993308768
 10
-24.9230414284
 20
-16.790535298
 10
-24.9229462852
 20
-16.7815572518
 10
-24.9231120895
 20
-16.7724087327
 10
-24.9235386195
 20
-16.7631019628
 10
-24.9242253056
 20
-16.7536493759
 10
-24.9251712302
 20
-16.7440636005
 10
-24.9263751297
 20
-16.7343574429
 10
-24.9278353956
 20
-16.7245438705
 10
-24.929550077
 20
-16.714635994
 10
-24.9315168832
 20
-16.7046470501
 10
-24.9337331865
 20
-16.6945903838
 10
-24.9361960259
 20
-16.6844794308
 10
-24.9389021111
 20
-16.674327699
 10
-24.9418478269
 20
-16.664148751
 10
-24.9450292378
 20
-16.6539561857
  0
LWPOLYLINE
  5
5B8
100
AcDbEntity
  8
ASSI
100
AcDbPolyline
 62
250
  6
CONTINUOUS
 90
37
 70
0
 10
-24.9872829588
 20
-16.9238500083
 10
-24.9820752732
 20
-16.9210998443
 10
-24.9770495398
 20
-16.917992781
 10
-24.972212473
 20
-16.9145329693
 10
-24.9675705351
 20
-16.9107250316
 10
-24.9631299275
 20
-16.9065740552
 10
-24.9588965829
 20
-16.9020855856
 10
-24.9548761568
 20
-16.8972656195
 10
-24.9510740205
 20
-16.8921205961
 10
-24.9474952536
 20
-16.8866573892
 10
-24.9441446373
 20
-16.8808832974
 10
-24.9410266478
 20
-16.8748060349
 10
-24.9381454508
 20
-16.8684337207
 10
-24.9355048954
 20
-16.8617748683
 10
-24.9331085095
 20
-16.8548383736
 10
-24.9309594944
 20
-16.8476335037
 10
-24.9290607213
 20
-16.8401698841
 10
-24.9274147269
 20
-16.8324574862
 10
-24.9260237101
 20
-16.8245066136
 10
-24.9248895294
 20
-16.8163278884
 10
-24.9240136999
 20
-16.8079322373
 10
-24.9233973918
 20
-16.7993308768
 10
-24.9230414284
 20
-16.790535298
 10
-24.9229462852
 20
-16.7815572518
 10
-24.9231120895
 20
-16.7724087327
 10
-24.9235386195
 20
-16.7631019628
 10
-24.9242253056
 20
-16.7536493759
 10
-24.9251712302
 20
-16.7440636005
 10
-24.9263751297
 20
-16.7343574429
 10
-24.9278353956
 20
-16.7245438705
 10
-24.929550077
 20
-16.714635994
 10
-24.9315168832
 20
-16.7046470501
 10
-24.9337331865
 20
-16.6945903838
 10
-24.9361960259
 20
-16.6844794308
 10
-24.9389021111
 20
-16.674327699
 10
-24.9418478269
 20
-16.664148751
 10
-24.9450292378
 20
-16.6539561857
  0
LINE
  5
5B9
100
AcDbEntity
  8
RACCORDO
100
AcDbLine
 62
250
  6
CONTINUOUS
 10
-47.6562970303
 20
21.7747711479
 11
-53.7975454264
 21
21.4529219575
  0
LINE
  5
5BA
100
AcDbEntity
  8
RACCORDO
100
AcDbLine
 62
7
  6
CONTINUOUS
 10
-35.1562970303
 20
20.9872686779
 11
-45.1562970303
 21
20.9
  0
LINE
  5
5BB
100
AcDbEntity
  8
RACCORDO
100
AcDbLine
 62
7
  6
CONTINUOUS
 10
-45.1562970303
 20
21.3912350654
 11
-35.6475708271
 21
21.308253669
  0
LINE
  5
5BC
100
AcDbEntity
  8
RACCORDO
100
AcDbLine
 62
250
  6
CONTINUOUS
 10
-47.6562970303
 20
21.9129951101
 11
-45.1562970303
 21
21.8911779406
  0
LINE
  5
5BD
100
AcDbEntity
  8
DRAFT
100
AcDbLine
 62
7
  6
CONTINUOUS
 10
-45.1562970303
 20
20.85
 11
-35.1562970303
 21
20.6754493507
  0
LINE
  5
5BE
100
AcDbEntity
  8
ASSI
100
AcDbLine
 62
7
  6
CONTINUOUS
 10
-45.1562970303
 20
20.85
 11
-35.1562970303
 21
20.6754493507
  0
LWPOLYLINE
  5
5BF
100
AcDbEntity
  8
RACCORDO
100
AcDbPolyline
 62
250
  6
CONTINUOUS
 90
37
 70
0
 10
-24.987282968
 20
16.9238499894
 10
-24.9820752847
 20
16.9210998275
 10
-24.9770495537
 20
16.9179927661
 10
-24.9722124893
 20
16.9145329562
 10
-24.9675705538
 20
16.91072502
 10
-24.9631299488
 20
16.9065740449
 10
-24.9588966067
 20
16.9020855766
 10
-24.9548761832
 20
16.8972656114
 10
-24.9510740496
 20
16.8921205889
 10
-24.9474952855
 20
16.8866573827
 10
-24.9441446721
 20
16.8808832915
 10
-24.9410266856
 20
16.8748060294
 10
-24.9381454917
 20
16.8684337156
 10
-24.9355049396
 20
16.8617748634
 10
-24.933108557
 20
16.8548383688
 10
-24.9309595455
 20
16.847633499
 10
-24.9290607761
 20
16.8401698794
 10
-24.9274147856
 20
16.8324574814
 10
-24.9260237728
 20
16.8245066087
 10
-24.9248895963
 20
16.8163278833
 10
-24.9240137713
 20
16.8079322321
 10
-24.9233974678
 20
16.7993308714
 10
-24.9230415092
 20
16.7905352925
 10
-24.9229463711
 20
16.7815572461
 10
-24.9231121805
 20
16.7724087268
 10
-24.9235387161
 20
16.7631019569
 10
-24.9242254078
 20
16.7536493699
 10
-24.9251713383
 20
16.7440635946
 10
-24.9263752439
 20
16.7343574371
 10
-24.9278355162
 20
16.724543865
 10
-24.9295502042
 20
16.7146359888
 10
-24.9315170171
 20
16.7046470453
 10
-24.9337333274
 20
16.6945903797
 10
-24.9361961741
 20
16.6844794275
 10
-24.9389022669
 20
16.6743276966
 10
-24.9418479904
 20
16.6641487497
 10
-24.9450294092
 20
16.6539561857
  0
LWPOLYLINE
  5
5C0
100
AcDbEntity
  8
ASSI
100
AcDbPolyline
 62
250
  6
CONTINUOUS
 90
37
 70
0
 10
-24.987282968
 20
16.9238499894
 10
-24.9820752847
 20
16.9210998275
 10
-24.9770495537
 20
16.9179927661
 10
-24.9722124893
 20
16.9145329562
 10
-24.9675705538
 20
16.91072502
 10
-24.9631299488
 20
16.9065740449
 10
-24.9588966067
 20
16.9020855766
 10
-24.9548761832
 20
16.8972656114
 10
-24.9510740496
 20
16.8921205889
 10
-24.9474952855
 20
16.8866573827
 10
-24.9441446721
 20
16.8808832915
 10
-24.9410266856
 20
16.8748060294
 10
-24.9381454917
 20
16.8684337156
 10
-24.9355049396
 20
16.8617748634
 10
-24.933108557
 20
16.8548383688
 10
-24.9309595455
 20
16.847633499
 10
-24.9290607761
 20
16.8401698794
 10
-24.9274147856
 20
16.8324574814
 10
-24.9260237728
 20
16.8245066087
 10
-24.9248895963
 20
16.8163278833
 10
-24.9240137713
 20
16.8079322321
 10
-24.9233974678
 20
16.7993308714
 10
-24.9230415092
 20
16.7905352925
 10
-24.9229463711
 20
16.7815572461
 10
-24.9231121805
 20
16.7724087268
 10
-24.9235387161
 20
16.7631019569
 10
-24.9242254078
 20
16.7536493699
 10
-24.9251713383
 20
16.7440635946
 10
-24.9263752439
 20
16.7343574371
 10
-24.9278355162
 20
16.724543865
 10
-24.9295502042
 20
16.7146359888
 10
-24.9315170171
 20
16.7046470453
 10
-24.9337333274
 20
16.6945903797
 10
-24.9361961741
 20
16.6844794275
 10
-24.9389022669
 20
16.6743276966
 10
-24.9418479904
 20
16.6641487497
 10
-24.9450294092
 20
16.6539561857
  0
LWPOLYLINE
  5
5C1
100
AcDbEntity
  8
RACCORDO
100
AcDbPolyline
 62
250
  6
CONTINUOUS
 90
94
 70
0
 10
-24.6606602981
 20
16.3799969668
 10
-24.6129475743
 20
16.3443069801
 10
-24.5660001648
 20
16.3076903548
 10
-24.5198180693
 20
16.2701470909
 10
-24.4743822748
 20
16.2316605112
 10
-24.4297117945
 20
16.1922472928
 10
-24.3858636678
 20
16.1519574676
 10
-24.3428394875
 20
16.1107902873
 10
-24.3006376608
 20
16.0687465001
 10
-24.2593104489
 20
16.0258783825
 10
-24.2188593599
 20
15.9821853627
 10
-24.1792828856
 20
15.9376680124
 10
-24.1406287622
 20
15.8923803235
 10
-24.1028981529
 20
15.8463215141
 10
-24.0660898945
 20
15.799492366
 10
-24.030248234
 20
15.7519492173
 10
-23.9953740899
 20
15.703690914
 10
-23.9614665437
 20
15.6547186101
 10
-23.928567087
 20
15.6050921048
 10
-23.8966768696
 20
15.5548104274
 10
-23.8657947416
 20
15.5038745488
 10
-23.8359587455
 20
15.4523471797
 10
-23.807170275
 20
15.4002277536
 10
-23.7794279364
 20
15.3475168372
 10
-23.7527655904
 20
15.2942788418
 10
-23.7271845769
 20
15.2405131797
 10
-23.702683556
 20
15.1862204388
 10
-23.6792923697
 20
15.1314667936
 10
-23.6570123529
 20
15.0762516565
 10
-23.6358421706
 20
15.0205756151
 10
-23.6158076593
 20
14.9645066079
 10
-23.5969101875
 20
14.9080440939
 10
-23.5791483867
 20
14.8511886141
 10
-23.5625439888
 20
14.7940097293
 10
-23.5470984242
 20
14.7365070898
 10
-23.5328102626
 20
14.6786810455
 10
-23.5196969443
 20
14.6206022069
 10
-23.5077599011
 20
14.5622702493
 10
-23.4969977012
 20
14.5036854975
 10
-23.4874234901
 20
14.4449195365
 10
-23.4790387216
 20
14.3859721707
 10
-23.4718419417
 20
14.3268435957
 10
-23.4658419338
 20
14.267605984
 10
-23.4610401564
 20
14.208259167
 10
-23.457435151
 20
14.1488033133
 10
-23.4550313241
 20
14.0893111002
 10
-23.4538301447
 20
14.0297825141
 10
-23.4538301439
 20
13.9702175688
 10
-23.4550313216
 20
13.9106889827
 10
-23.4574351468
 20
13.8511967695
 10
-23.4610401506
 20
13.7917409155
 10
-23.4658419263
 20
13.7323940984
 10
-23.4718419326
 20
13.6731564864
 10
-23.4790387108
 20
13.6140279111
 10
-23.4874234776
 20
13.5550805451
 10
-23.4969976871
 20
13.4963145841
 10
-23.5077598852
 20
13.4377298324
 10
-23.5196969267
 20
13.3793978747
 10
-23.5328102433
 20
13.3213190358
 10
-23.5470984034
 20
13.263492991
 10
-23.5625439664
 20
13.2059903509
 10
-23.5791483628
 20
13.1488114652
 10
-23.5969101622
 20
13.0919559843
 10
-23.6158076326
 20
13.0354934693
 10
-23.6358421426
 20
12.9794244609
 10
-23.6570123236
 20
12.9237484183
 10
-23.6792923389
 20
12.8685332806
 10
-23.702683523
 20
12.8137796363
 10
-23.7271845413
 20
12.7594868968
 10
-23.7527655525
 20
12.7057212359
 10
-23.779427896
 20
12.6524832414
 10
-23.8071702324
 20
12.5997723253
 10
-23.8359587015
 20
12.547652898
 10
-23.8657946979
 20
12.4961255253
 10
-23.8966768271
 20
12.4451896412
 10
-23.9285670459
 20
12.3949079587
 10
-23.9614665048
 20
12.3452814476
 10
-23.9953740534
 20
12.296309138
 10
-24.0302481968
 20
12.2480508331
 10
-24.0660898516
 20
12.2005076892
 10
-24.1028981013
 20
12.1536785499
 10
-24.1406287014
 20
12.1076197492
 10
-24.1792828139
 20
12.0623320695
 10
-24.2188592767
 20
12.0178147283
 10
-24.2593103599
 20
11.9741217117
 10
-24.3006375742
 20
11.9312535883
 10
-24.3428394089
 20
11.8892097895
 10
-24.3858636008
 20
11.8480425952
 10
-24.4297117448
 20
11.8077527525
 10
-24.4743822461
 20
11.7683395144
 10
-24.5198180568
 20
11.7298529195
 10
-24.5660001611
 20
11.6923096474
 10
-24.6129475749
 20
11.6556930187
 10
-24.6606602981
 20
11.6200030332
  0
LWPOLYLINE
  5
5C2
100
AcDbEntity
  8
ASSI
100
AcDbPolyline
 62
250
  6
CONTINUOUS
 90
94
 70
0
 10
-24.6606602981
 20
16.3799969668
 10
-24.6129475743
 20
16.3443069801
 10
-24.5660001648
 20
16.3076903548
 10
-24.5198180693
 20
16.2701470909
 10
-24.4743822748
 20
16.2316605112
 10
-24.4297117945
 20
16.1922472928
 10
-24.3858636678
 20
16.1519574676
 10
-24.3428394875
 20
16.1107902873
 10
-24.3006376608
 20
16.0687465001
 10
-24.2593104489
 20
16.0258783825
 10
-24.2188593599
 20
15.9821853627
 10
-24.1792828856
 20
15.9376680124
 10
-24.1406287622
 20
15.8923803235
 10
-24.1028981529
 20
15.8463215141
 10
-24.0660898945
 20
15.799492366
 10
-24.030248234
 20
15.7519492173
 10
-23.9953740899
 20
15.703690914
 10
-23.9614665437
 20
15.6547186101
 10
-23.928567087
 20
15.6050921048
 10
-23.8966768696
 20
15.5548104274
 10
-23.8657947416
 20
15.5038745488
 10
-23.8359587455
 20
15.4523471797
 10
-23.807170275
 20
15.4002277536
 10
-23.7794279364
 20
15.3475168372
 10
-23.7527655904
 20
15.2942788418
 10
-23.7271845769
 20
15.2405131797
 10
-23.702683556
 20
15.1862204388
 10
-23.6792923697
 20
15.1314667936
 10
-23.6570123529
 20
15.0762516565
 10
-23.6358421706
 20
15.0205756151
 10
-23.6158076593
 20
14.9645066079
 10
-23.5969101875
 20
14.9080440939
 10
-23.5791483867
 20
14.8511886141
 10
-23.5625439888
 20
14.7940097293
 10
-23.5470984242
 20
14.7365070898
 10
-23.5328102626
 20
14.6786810455
 10
-23.5196969443
 20
14.6206022069
 10
-23.5077599011
 20
14.5622702493
 10
-23.4969977012
 20
14.5036854975
 10
-23.4874234901
 20
14.4449195365
 10
-23.4790387216
 20
14.3859721707
 10
-23.4718419417
 20
14.3268435957
 10
-23.4658419338
 20
14.267605984
 10
-23.4610401564
 20
14.208259167
 10
-23.457435151
 20
14.1488033133
 10
-23.4550313241
 20
14.0893111002
 10
-23.4538301447
 20
14.0297825141
 10
-23.4538301439
 20
13.9702175688
 10
-23.4550313216
 20
13.9106889827
 10
-23.4574351468
 20
13.8511967695
 10
-23.4610401506
 20
13.7917409155
 10
-23.4658419263
 20
13.7323940984
 10
-23.4718419326
 20
13.6731564864
 10
-23.4790387108
 20
13.6140279111
 10
-23.4874234776
 20
13.5550805451
 10
-23.4969976871
 20
13.4963145841
 10
-23.5077598852
 20
13.4377298324
 10
-23.5196969267
 20
13.3793978747
 10
-23.5328102433
 20
13.3213190358
 10
-23.5470984034
 20
13.263492991
 10
-23.5625439664
 20
13.2059903509
 10
-23.5791483628
 20
13.1488114652
 10
-23.5969101622
 20
13.0919559843
 10
-23.6158076326
 20
13.0354934693
 10
-23.6358421426
 20
12.9794244609
 10
-23.6570123236
 20
12.9237484183
 10
-23.6792923389
 20
12.8685332806
 10
-23.702683523
 20
12.8137796363
 10
-23.7271845413
 20
12.7594868968
 10
-23.7527655525
 20
12.7057212359
 10
-23.779427896
 20
12.6524832414
 10
-23.8071702324
 20
12.5997723253
 10
-23.8359587015
 20
12.547652898
 10
-23.8657946979
 20
12.4961255253
 10
-23.8966768271
 20
12.4451896412
 10
-23.9285670459
 20
12.3949079587
 10
-23.9614665048
 20
12.3452814476
 10
-23.9953740534
 20
12.296309138
 10
-24.0302481968
 20
12.2480508331
 10
-24.0660898516
 20
12.2005076892
 10
-24.1028981013
 20
12.1536785499
 10
-24.1406287014
 20
12.1076197492
 10
-24.1792828139
 20
12.0623320695
 10
-24.2188592767
 20
12.0178147283
 10
-24.2593103599
 20
11.9741217117
 10
-24.3006375742
 20
11.9312535883
 10
-24.3428394089
 20
11.8892097895
 10
-24.3858636008
 20
11.8480425952
 10
-24.4297117448
 20
11.8077527525
 10
-24.4743822461
 20
11.7683395144
 10
-24.5198180568
 20
11.7298529195
 10
-24.5660001611
 20
11.6923096474
 10
-24.6129475749
 20
11.6556930187
 10
-24.6606602981
 20
11.6200030332
  0
LWPOLYLINE
  5
5C3
100
AcDbEntity
  8
RACCORDO
100
AcDbPolyline
 62
250
  6
CONTINUOUS
 90
25
 70
0
 10
-24.9450294247
 20
16.6539561857
 10
-24.9351737611
 20
16.6462544567
 10
-24.9251104434
 20
16.6382583612
 10
-24.9148430553
 20
16.6299678993
 10
-24.9043751085
 20
16.6213883252
 10
-24.8937109947
 20
16.6125143847
 10
-24.8828560315
 20
16.6033303152
 10
-24.8718142955
 20
16.5938350186
 10
-24.8605912002
 20
16.584029593
 10
-24.8491945793
 20
16.5739015698
 10
-24.8376326584
 20
16.5634529758
 10
-24.8259084571
 20
16.5526817842
 10
-24.814022306
 20
16.5415694463
 10
-24.8019807393
 20
16.5301161844
 10
-24.789789652
 20
16.5183217763
 10
-24.7774485064
 20
16.5061670062
 10
-24.7649632795
 20
16.4936506053
 10
-24.7523417915
 20
16.4807738425
 10
-24.7395864793
 20
16.4675213083
 10
-24.72670406
 20
16.4538910929
 10
-24.713703303
 20
16.4398851062
 10
-24.7005900955
 20
16.4254936682
 10
-24.6873721825
 20
16.4107135523
 10
-24.6740591917
 20
16.3955479852
 10
-24.6606602981
 20
16.3799969668
  0
LWPOLYLINE
  5
5C4
100
AcDbEntity
  8
ASSI
100
AcDbPolyline
 62
250
  6
CONTINUOUS
 90
25
 70
0
 10
-24.9450294247
 20
16.6539561857
 10
-24.9351737611
 20
16.6462544567
 10
-24.9251104434
 20
16.6382583612
 10
-24.9148430553
 20
16.6299678993
 10
-24.9043751085
 20
16.6213883252
 10
-24.8937109947
 20
16.6125143847
 10
-24.8828560315
 20
16.6033303152
 10
-24.8718142955
 20
16.5938350186
 10
-24.8605912002
 20
16.584029593
 10
-24.8491945793
 20
16.5739015698
 10
-24.8376326584
 20
16.5634529758
 10
-24.8259084571
 20
16.5526817842
 10
-24.814022306
 20
16.5415694463
 10
-24.8019807393
 20
16.5301161844
 10
-24.789789652
 20
16.5183217763
 10
-24.7774485064
 20
16.5061670062
 10
-24.7649632795
 20
16.4936506053
 10
-24.7523417915
 20
16.4807738425
 10
-24.7395864793
 20
16.4675213083
 10
-24.72670406
 20
16.4538910929
 10
-24.713703303
 20
16.4398851062
 10
-24.7005900955
 20
16.4254936682
 10
-24.6873721825
 20
16.4107135523
 10
-24.6740591917
 20
16.3955479852
 10
-24.6606602981
 20
16.3799969668
  0
LWPOLYLINE
  5
5C5
100
AcDbEntity
  8
RACCORDO
100
AcDbPolyline
 62
250
  6
CONTINUOUS
 90
22
 70
0
 10
-53.7975454264
 20
21.4529219575
 10
-53.8679110079
 20
21.4467069759
 10
-53.9370803722
 20
21.4357145333
 10
-54.0050535193
 20
21.4199446296
 10
-54.0721802698
 20
21.3992731996
 10
-54.1381108031
 20
21.3738243086
 10
-54.2017956567
 20
21.3439701519
 10
-54.2631841384
 20
21.3096387631
 10
-54.3223269403
 20
21.2709021087
 10
-54.3783266765
 20
21.2283482841
 10
-54.4311224996
 20
21.1819309566
 10
-54.4807752569
 20
21.1316964589
 10
-54.5265701056
 20
21.0783718843
 10
-54.5684582444
 20
21.0219011412
 10
-54.6064884745
 20
20.9623403212
 10
-54.6400923563
 20
20.9005847925
 10
-54.669201082
 20
20.8365785433
 10
-54.6938834594
 20
20.7703775854
 10
-54.7137774731
 20
20.7030453221
 10
-54.7287624512
 20
20.634936221
 10
-54.7389590655
 20
20.5656958145
 10
-54.7443673161
 20
20.4953241026
  0
LINE
  5
5C6
100
AcDbEntity
  8
RACCORDO
100
AcDbLine
 62
7
  6
CONTINUOUS
 10
-47.6562970303
 20
22.275
 11
-53.8149872013
 21
21.9522367248
  0
LINE
  5
5C7
100
AcDbEntity
  8
RACCORDO
100
AcDbLine
 62
7
  6
CONTINUOUS
 10
-47.6562970303
 20
22.3738174026
 11
-46.1681384793
 21
22.3997933067
  0
LINE
  5
5C8
100
AcDbEntity
  8
RACCORDO
100
AcDbLine
 62
250
  6
CONTINUOUS
 10
-47.4106601319
 20
22.9783121636
 11
-47.6562970303
 21
22.9783121636
  0
LINE
  5
5C9
100
AcDbEntity
  8
RACCORDO
100
AcDbLine
 62
250
  6
CONTINUOUS
 10
-48.4106601319
 20
23.8443375673
 11
-48.6562970303
 21
23.8443375673
  0
LINE
  5
5CA
100
AcDbEntity
  8
RACCORDO
100
AcDbLine
 62
250
  6
CONTINUOUS
 10
-48.4106601319
 20
24.2106880219
 11
-48.6562970303
 21
24.2106880219
  0
LINE
  5
5CB
100
AcDbEntity
  8
RACCORDO
100
AcDbLine
 62
7
  6
CONTINUOUS
 10
-46.1681384793
 20
22.3997933067
 11
-46.1562970303
 21
22.399689968
  0
LINE
  5
5CC
100
AcDbEntity
  8
RACCORDO
100
AcDbLine
 62
7
  6
CONTINUOUS
 10
-46.1562970303
 20
22.4
 11
-36.1475704948
 21
22.3126551668
  0
LINE
  5
5CD
100
AcDbEntity
  8
RACCORDO
100
AcDbLine
 62
7
  6
CONTINUOUS
 10
-38.6519337626
 20
23.7345104139
 11
-45.1567600814
 21
23.7912771732
  0
LINE
  5
5CE
100
AcDbEntity
  8
RACCORDO
100
AcDbLine
 62
250
  6
CONTINUOUS
 10
-45.1562970303
 20
24.2412826514
 11
-46.1562970303
 21
24.2500095192
  0
LINE
  5
5CF
100
AcDbEntity
  8
RACCORDO
100
AcDbLine
 62
250
  6
CONTINUOUS
 10
-46.1562970303
 20
24.2500380762
 11
-48.4106601319
 21
24.2106880219
  0
LINE
  5
5D0
100
AcDbEntity
  8
RACCORDO
100
AcDbLine
 62
7
  6
CONTINUOUS
 10
-46.1562970303
 20
24.5
 11
-48.4106601319
 21
24.4606499457
  0
LINE
  5
5D1
100
AcDbEntity
  8
RACCORDO
100
AcDbLine
 62
7
  6
CONTINUOUS
 10
-45.4041153964
 20
24.4934358103
 11
-46.1562970303
 21
24.5
  0
LWPOLYLINE
  5
5D2
100
AcDbEntity
  8
0
100
AcDbPolyline
 62
7
  6
CONTINUOUS
 90
7
 70
0
 43
0.3500000006
 10
-32.6562979202
 20
33.2500007629
 10
-34.1562961121
 20
33.2500007629
 10
-32.6562979202
 20
35.3928592072
 10
-32.6562979202
 20
35.8214281769
 10
-33.0848691559
 20
36.2500016785
 10
-33.7277248764
 20
36.2500016785
 10
-34.1562961121
 20
35.607143692
  0
LWPOLYLINE
  5
5D3
100
AcDbEntity
  8
0
100
AcDbPolyline
 62
7
  6
CONTINUOUS
 90
7
 70
0
 43
0.3500000006
 10
-35.0134408493
 20
33.2500007629
 10
-36.5134390411
 20
33.2500007629
 10
-35.0134408493
 20
35.3928592072
 10
-35.0134408493
 20
35.8214281769
 10
-35.442012085
 20
36.2500016785
 10
-36.0848678055
 20
36.2500016785
 10
-36.5134390411
 20
35.607143692
  0
LWPOLYLINE
  5
5D4
100
AcDbEntity
  8
0
100
AcDbPolyline
 62
7
  6
CONTINUOUS
 90
6
 70
0
 43
0.3500000006
 10
-43.7420100861
 20
43.2499992828
 10
-42.6705831299
 20
43.2499992828
 10
-42.456298645
 20
43.4642837677
 10
-42.456298645
 20
44.5357152557
 10
-42.8848676147
 20
44.9642842255
 10
-43.3134411163
 20
44.9642842255
  0
LWPOLYLINE
  5
5D5
100
AcDbEntity
  8
0
100
AcDbPolyline
 62
7
  6
CONTINUOUS
 90
7
 70
0
 43
0.3500000006
 10
-40.0991557159
 20
43.2499992828
 10
-41.5991561737
 20
43.2499992828
 10
-40.0991557159
 20
45.3928577271
 10
-40.0991557159
 20
45.8214266968
 10
-40.5277246857
 20
46.2500001984
 10
-41.1705826721
 20
46.2500001984
 10
-41.5991561737
 20
45.6071422119
  0
ARC
  5
5D6
100
AcDbEntity
  8
RACCORDO
100
AcDbCircle
 62
7
  6
CONTINUOUS
 10
5.3899722021
 20
1.75
 40
0.5
100
AcDbArc
 50
0.0
 51
90.0
  0
ARC
  5
5D7
100
AcDbEntity
  8
RACCORDO
100
AcDbCircle
 62
7
  6
CONTINUOUS
 10
-5.6100277979
 20
1.75
 40
0.5
100
AcDbArc
 50
90.0
 51
180.0
  0
ARC
  5
5D8
100
AcDbEntity
  8
RACCORDO
100
AcDbCircle
 62
7
  6
CONTINUOUS
 10
-5.6100277979
 20
-1.75
 40
0.5
100
AcDbArc
 50
180.0
 51
270.0
  0
ARC
  5
5D9
100
AcDbEntity
  8
RACCORDO
100
AcDbCircle
 62
7
  6
CONTINUOUS
 10
5.3899722021
 20
-1.75
 40
0.5
100
AcDbArc
 50
270.0
 51
360.0
  0
ARC
  5
5DA
100
AcDbEntity
  8
RACCORDO
100
AcDbCircle
 62
250
  6
CONTINUOUS
 10
5.3899722021
 20
-1.75
 40
0.2999998665
100
AcDbArc
 50
270.0
 51
360.0
  0
ARC
  5
5DB
100
AcDbEntity
  8
RACCORDO
100
AcDbCircle
 62
250
  6
CONTINUOUS
 10
-5.6100277979
 20
1.75
 40
0.2999998665
100
AcDbArc
 50
90.0
 51
180.0
  0
ARC
  5
5DC
100
AcDbEntity
  8
RACCORDO
100
AcDbCircle
 62
250
  6
CONTINUOUS
 10
5.3899722021
 20
1.75
 40
0.2999998665
100
AcDbArc
 50
0.0
 51
90.0
  0
ARC
  5
5DD
100
AcDbEntity
  8
RACCORDO
100
AcDbCircle
 62
250
  6
CONTINUOUS
 10
-5.6100277979
 20
-1.75
 40
0.2999998665
100
AcDbArc
 50
180.0
 51
270.0
  0
ARC
  5
5DE
100
AcDbEntity
  8
RACCORDO
100
AcDbCircle
 62
7
  6
CONTINUOUS
 10
-53.7364832669
 20
-20.4542924227
 40
1.5
100
AcDbArc
 50
182.3516022579
 51
267.0
  0
ARC
  5
5DF
100
AcDbEntity
  8
RACCORDO
100
AcDbCircle
 62
7
  6
CONTINUOUS
 10
-45.4062970303
 20
-24.2434453296
 40
0.25
100
AcDbArc
 50
270.5
 51
360.0
  0
ARC
  5
5E0
100
AcDbEntity
  8
RACCORDO
100
AcDbCircle
 62
7
  6
CONTINUOUS
 10
-48.4062970303
 20
-24.2106880219
 40
0.25
100
AcDbArc
 50
180.0
 51
269.0
  0
ARC
  5
5E1
100
AcDbEntity
  8
RACCORDO
100
AcDbCircle
 62
7
  6
CONTINUOUS
 10
-48.4062970303
 20
-23.8443375673
 40
0.25
100
AcDbArc
 50
120.0
 51
180.0
  0
ARC
  5
5E2
100
AcDbEntity
  8
RACCORDO
100
AcDbCircle
 62
7
  6
CONTINUOUS
 10
-45.4062970303
 20
-23.8443375673
 40
0.25
100
AcDbArc
 50
0.0
 51
60.0
  0
ARC
  5
5E3
100
AcDbEntity
  8
RACCORDO
100
AcDbCircle
 62
7
  6
CONTINUOUS
 10
-47.9062970303
 20
-22.9783121635
 40
0.25
100
AcDbArc
 50
300.0
 51
360.0
  0
ARC
  5
5E4
100
AcDbEntity
  8
RACCORDO
100
AcDbCircle
 62
7
  6
CONTINUOUS
 10
-55.5562970303
 20
-2.05
 40
0.2
100
AcDbArc
 50
180.0
 51
241.6724223855
  0
ARC
  5
5E5
100
AcDbEntity
  8
RACCORDO
100
AcDbCircle
 62
7
  6
CONTINUOUS
 10
-26.4062970303
 20
-14.0
 40
3.25
100
AcDbArc
 50
295.8884039318
 51
64.1115960682
  0
ARC
  5
5E6
100
AcDbEntity
  8
ASSI
100
AcDbCircle
 62
7
  6
CONTINUOUS
 10
-26.4062970303
 20
-14.0
 40
3.25
100
AcDbArc
 50
295.8884039318
 51
64.1115960682
  0
ARC
  5
5E7
100
AcDbEntity
  8
RACCORDO
100
AcDbCircle
 62
7
  6
CONTINUOUS
 10
-26.1562970303
 20
-18.4537312565
 40
1.0
100
AcDbArc
 50
271.0
 51
360.0
  0
ARC
  5
5E8
100
AcDbEntity
  8
ASSI
100
AcDbCircle
 62
7
  6
CONTINUOUS
 10
-26.1562970303
 20
-18.4537312565
 40
1.0
100
AcDbArc
 50
271.0
 51
360.0
  0
ARC
  5
5E9
100
AcDbEntity
  8
RACCORDO
100
AcDbCircle
 62
7
  6
CONTINUOUS
 10
-36.1562970303
 20
-21.3126932437
 40
1.0
100
AcDbArc
 50
270.5
 51
360.0
  0
ARC
  5
5EA
100
AcDbEntity
  8
RACCORDO
100
AcDbCircle
 62
7
  6
CONTINUOUS
 10
-38.6562970303
 20
-23.2345294524
 40
0.5
100
AcDbArc
 50
270.5
 51
360.0
  0
ARC
  5
5EB
100
AcDbEntity
  8
RACCORDO
100
AcDbCircle
 62
7
  6
CONTINUOUS
 10
-24.8562970303
 20
-17.1937438845
 40
0.3
100
AcDbArc
 50
115.8884039318
 51
180.0
  0
ARC
  5
5EC
100
AcDbEntity
  8
ASSI
100
AcDbCircle
 62
7
  6
CONTINUOUS
 10
-24.8562970303
 20
-17.1937438845
 40
0.3
100
AcDbArc
 50
115.8884039318
 51
180.0
  0
ARC
  5
5ED
100
AcDbEntity
  8
RACCORDO
100
AcDbCircle
 62
7
  6
CONTINUOUS
 10
-24.8562970303
 20
-10.8062561155
 40
0.3
100
AcDbArc
 50
180.0
 51
244.1115960682
  0
ARC
  5
5EE
100
AcDbEntity
  8
ASSI
100
AcDbCircle
 62
7
  6
CONTINUOUS
 10
-24.8562970303
 20
-10.8062561155
 40
0.3
100
AcDbArc
 50
180.0
 51
244.1115960682
  0
ARC
  5
5EF
100
AcDbEntity
  8
RACCORDO
100
AcDbCircle
 62
7
  6
CONTINUOUS
 10
-55.5562970303
 20
2.05
 40
0.2
100
AcDbArc
 50
118.3275740958
 51
180.0
  0
ARC
  5
5F0
100
AcDbEntity
  8
RACCORDO
100
AcDbCircle
 62
7
  6
CONTINUOUS
 10
-53.7364832669
 20
20.4542924227
 40
1.5
100
AcDbArc
 50
93.0
 51
177.6483977421
  0
ARC
  5
5F1
100
AcDbEntity
  8
RACCORDO
100
AcDbCircle
 62
7
  6
CONTINUOUS
 10
-48.4062970303
 20
24.2106880219
 40
0.25
100
AcDbArc
 50
91.0
 51
180.0
  0
ARC
  5
5F2
100
AcDbEntity
  8
RACCORDO
100
AcDbCircle
 62
7
  6
CONTINUOUS
 10
-48.4062970303
 20
23.8443375673
 40
0.25
100
AcDbArc
 50
180.0
 51
240.0
  0
ARC
  5
5F3
100
AcDbEntity
  8
RACCORDO
100
AcDbCircle
 62
7
  6
CONTINUOUS
 10
-45.4062970303
 20
24.2434453296
 40
0.25
100
AcDbArc
 50
0.0
 51
89.5
  0
ARC
  5
5F4
100
AcDbEntity
  8
RACCORDO
100
AcDbCircle
 62
7
  6
CONTINUOUS
 10
-45.4062970303
 20
23.8443375673
 40
0.25
100
AcDbArc
 50
300.0
 51
360.0
  0
ARC
  5
5F5
100
AcDbEntity
  8
RACCORDO
100
AcDbCircle
 62
7
  6
CONTINUOUS
 10
-47.9062970303
 20
22.9783121635
 40
0.25
100
AcDbArc
 50
0.0
 51
60.0
  0
ARC
  5
5F6
100
AcDbEntity
  8
RACCORDO
100
AcDbCircle
 62
7
  6
CONTINUOUS
 10
-24.8562970303
 20
9.4748993522
 40
0.3
100
AcDbArc
 50
180.0
 51
265.0
  0
ARC
  5
5F7
100
AcDbEntity
  8
RACCORDO
100
AcDbCircle
 62
7
  6
CONTINUOUS
 10
-24.8562970303
 20
2.0251006478
 40
0.3
100
AcDbArc
 50
95.0
 51
172.7722892236
  0
ARC
  5
5F8
100
AcDbEntity
  8
RACCORDO
100
AcDbCircle
 62
7
  6
CONTINUOUS
 10
-24.8562970303
 20
10.8062561155
 40
0.3
100
AcDbArc
 50
115.8884039318
 51
180.0
  0
ARC
  5
5F9
100
AcDbEntity
  8
RACCORDO
100
AcDbCircle
 62
7
  6
CONTINUOUS
 10
-23.4562970303
 20
8.7501233207
 40
0.3
100
AcDbArc
 50
0.0
 51
85.0
  0
ARC
  5
5FA
100
AcDbEntity
  8
RACCORDO
100
AcDbCircle
 62
7
  6
CONTINUOUS
 10
-23.4562970303
 20
2.7498766793
 40
0.3
100
AcDbArc
 50
275.0
 51
360.0
  0
ARC
  5
5FB
100
AcDbEntity
  8
ASSI
100
AcDbCircle
 62
7
  6
CONTINUOUS
 10
-23.4562970303
 20
2.7498766793
 40
0.3
100
AcDbArc
 50
275.0
 51
360.0
  0
ARC
  5
5FC
100
AcDbEntity
  8
ASSI
100
AcDbCircle
 62
7
  6
CONTINUOUS
 10
-23.4562970303
 20
8.7501233207
 40
0.3
100
AcDbArc
 50
0.0
 51
85.0
  0
ARC
  5
5FD
100
AcDbEntity
  8
ASSI
100
AcDbCircle
 62
7
  6
CONTINUOUS
 10
-24.8562970303
 20
10.8062561155
 40
0.3
100
AcDbArc
 50
115.8884039318
 51
180.0
  0
ARC
  5
5FE
100
AcDbEntity
  8
ASSI
100
AcDbCircle
 62
7
  6
CONTINUOUS
 10
-24.8562970303
 20
9.4748993522
 40
0.3
100
AcDbArc
 50
180.0
 51
265.0
  0
ARC
  5
5FF
100
AcDbEntity
  8
ASSI
100
AcDbCircle
 62
7
  6
CONTINUOUS
 10
-24.8562970303
 20
2.0251006478
 40
0.3
100
AcDbArc
 50
95.0
 51
180.0
  0
ARC
  5
600
100
AcDbEntity
  8
RACCORDO
100
AcDbCircle
 62
7
  6
CONTINUOUS
 10
-26.4062970303
 20
14.0
 40
3.25
100
AcDbArc
 50
295.8884039318
 51
64.1115960682
  0
ARC
  5
601
100
AcDbEntity
  8
ASSI
100
AcDbCircle
 62
7
  6
CONTINUOUS
 10
-26.4062970303
 20
14.0
 40
3.25
100
AcDbArc
 50
295.8884039318
 51
64.1115960682
  0
ARC
  5
602
100
AcDbEntity
  8
RACCORDO
100
AcDbCircle
 62
7
  6
CONTINUOUS
 10
-26.1562970303
 20
18.4537312565
 40
1.0
100
AcDbArc
 50
0.0
 51
43.8949556767
  0
ARC
  5
603
100
AcDbEntity
  8
ASSI
100
AcDbCircle
 62
7
  6
CONTINUOUS
 10
-26.1562970303
 20
18.4537312565
 40
1.0
100
AcDbArc
 50
0.0
 51
43.8949556767
  0
ARC
  5
604
100
AcDbEntity
  8
RACCORDO
100
AcDbCircle
 62
7
  6
CONTINUOUS
 10
-36.1562970303
 20
21.3126932437
 40
1.0
100
AcDbArc
 50
0.0
 51
89.5
  0
ARC
  5
605
100
AcDbEntity
  8
RACCORDO
100
AcDbCircle
 62
7
  6
CONTINUOUS
 10
-38.6562970303
 20
23.2345294524
 40
0.5
100
AcDbArc
 50
0.0
 51
89.5
  0
ARC
  5
606
100
AcDbEntity
  8
RACCORDO
100
AcDbCircle
 62
7
  6
CONTINUOUS
 10
-24.8562970303
 20
17.1937438845
 40
0.3
100
AcDbArc
 50
180.0
 51
244.1115960682
  0
ARC
  5
607
100
AcDbEntity
  8
ASSI
100
AcDbCircle
 62
7
  6
CONTINUOUS
 10
-24.8562970303
 20
17.1937438845
 40
0.3
100
AcDbArc
 50
180.0
 51
244.1115960682
  0
ARC
  5
608
100
AcDbEntity
  8
RACCORDO
100
AcDbCircle
 62
7
  6
CONTINUOUS
 10
444.3437029697
 20
0.0
 40
500.0
100
AcDbArc
 50
177.6483977421
 51
182.3516022579
  0
ELLIPSE
  5
609
100
AcDbEntity
  8
RACCORDO
100
AcDbEllipse
 62
7
  6
CONTINUOUS
 10
10.5148960381
 20
21.774313827
 30
0.0
 11
0.1582391023
 21
0.4751033573
 31
0.0
 40
0.9984778551
 41
-1.2488325878
 42
0.3210503505
  0
ELLIPSE
  5
60A
100
AcDbEntity
  8
RACCORDO
100
AcDbEllipse
 62
7
  6
CONTINUOUS
 10
10.5148960381
 20
-21.774313827
 30
0.0
 11
-0.1582391023
 21
0.4751033573
 31
0.0
 40
0.9984778551
 41
-3.4626430041
 42
-1.8927600658
  0
ELLIPSE
  5
60B
100
AcDbEntity
  8
RACCORDO
100
AcDbEllipse
 62
7
  6
CONTINUOUS
 10
-10.7349516339
 20
21.774313827
 30
0.0
 11
-0.1582391023
 21
0.4751033573
 31
0.0
 40
0.9984778551
 41
-0.3210503505
 42
1.2488325878
  0
ELLIPSE
  5
60C
100
AcDbEntity
  8
RACCORDO
100
AcDbEllipse
 62
7
  6
CONTINUOUS
 10
-10.7349516339
 20
-21.774313827
 30
0.0
 11
0.1582391023
 21
0.4751033573
 31
0.0
 40
0.9984778551
 41
-4.3904252414
 42
-2.8205423031
  0
ELLIPSE
  5
60D
100
AcDbEntity
  8
RACCORDO
100
AcDbEllipse
 62
7
  6
CONTINUOUS
 10
-10.7599516339
 20
-21.891254093
 30
0.0
 11
0.4473055582
 21
-0.2236357461
 31
0.0
 40
0.9998096356
 41
-2.6780516535
 42
-1.5707963161
  0
ELLIPSE
  5
60E
100
AcDbEntity
  8
RACCORDO
100
AcDbEllipse
 62
7
  6
CONTINUOUS
 10
10.5398960381
 20
21.891254093
 30
0.0
 11
0.4473055582
 21
-0.2236357461
 31
0.0
 40
0.9998096356
 41
0.4635410001
 42
1.5707963374
  0
ELLIPSE
  5
60F
100
AcDbEntity
  8
RACCORDO
100
AcDbEllipse
 62
7
  6
CONTINUOUS
 10
-10.4091420803
 20
-22.0666455113
 30
0.0
 11
0.5936768768
 21
0.2256812786
 31
0.0
 40
0.4132601168
 41
-2.6368505384
 42
-2.3496928811
  0
ELLIPSE
  5
610
100
AcDbEntity
  8
RACCORDO
100
AcDbEllipse
 62
7
  6
CONTINUOUS
 10
10.1890864845
 20
-22.0666455113
 30
0.0
 11
0.5936768768
 21
-0.2256812786
 31
0.0
 40
0.4132601168
 41
-0.7918997725
 42
-0.4281350127
  0
ELLIPSE
  5
611
100
AcDbEntity
  8
RACCORDO
100
AcDbEllipse
 62
7
  6
CONTINUOUS
 10
10.5398960381
 20
-21.891254093
 30
0.0
 11
0.4473055582
 21
0.2236357461
 31
0.0
 40
0.9998096356
 41
-1.5707963374
 42
-0.4635410001
  0
ELLIPSE
  5
612
100
AcDbEntity
  8
RACCORDO
100
AcDbEllipse
 62
7
  6
CONTINUOUS
 10
10.1890864845
 20
22.0666455113
 30
0.0
 11
0.5936768768
 21
0.2256812786
 31
0.0
 40
0.4132601168
 41
0.5047421152
 42
0.7918997725
  0
ELLIPSE
  5
613
100
AcDbEntity
  8
RACCORDO
100
AcDbEllipse
 62
7
  6
CONTINUOUS
 10
-10.4091420803
 20
22.0666455113
 30
0.0
 11
0.5936768768
 21
-0.2256812786
 31
0.0
 40
0.4132601168
 41
2.3496928811
 42
2.7134576409
  0
ELLIPSE
  5
614
100
AcDbEntity
  8
RACCORDO
100
AcDbEllipse
 62
7
  6
CONTINUOUS
 10
-10.7599516339
 20
21.891254093
 30
0.0
 11
0.4473055582
 21
0.2236357461
 31
0.0
 40
0.9998096356
 41
1.5707963161
 42
2.6780516535
  0
ELLIPSE
  5
615
100
AcDbEntity
  8
RACCORDO
100
AcDbEllipse
 62
7
  6
CONTINUOUS
 10
3.7811685056
 20
22.3912724675
 30
0.0
 11
0.5
 21
0.0
 31
0.0
 40
0.0174550649
 41
-1.5707963268
 42
-0.0174532925
  0
ELLIPSE
  5
616
100
AcDbEntity
  8
RACCORDO
100
AcDbEllipse
 62
7
  6
CONTINUOUS
 10
3.7811685056
 20
23.7912724675
 30
0.0
 11
0.5
 21
-0.0
 31
0.0
 40
0.0174550649
 41
-1.5707963268
 42
-0.0174532925
  0
ELLIPSE
  5
617
100
AcDbEntity
  8
RACCORDO
100
AcDbEllipse
 62
7
  6
CONTINUOUS
 10
-4.0012241014
 20
23.7912724675
 30
0.0
 11
0.5
 21
0.0
 31
0.0
 40
0.0174550649
 41
-3.1241393611
 42
-1.5707963268
  0
ELLIPSE
  5
618
100
AcDbEntity
  8
RACCORDO
100
AcDbEllipse
 62
7
  6
CONTINUOUS
 10
-4.0012241014
 20
22.3912724675
 30
0.0
 11
0.5
 21
-0.0
 31
0.0
 40
0.0174550649
 41
-3.1241393611
 42
-1.5707963268
  0
ELLIPSE
  5
619
100
AcDbEntity
  8
RACCORDO
100
AcDbEllipse
 62
7
  6
CONTINUOUS
 10
3.7811685056
 20
-23.7912724675
 30
0.0
 11
0.5
 21
-0.0
 31
0.0
 40
0.0174550649
 41
0.0174532925
 42
1.5707963268
  0
ELLIPSE
  5
61A
100
AcDbEntity
  8
RACCORDO
100
AcDbEllipse
 62
7
  6
CONTINUOUS
 10
3.7811685056
 20
-22.3912724675
 30
0.0
 11
0.5
 21
0.0
 31
0.0
 40
0.0174550649
 41
0.0174532925
 42
1.5707963268
  0
ELLIPSE
  5
61B
100
AcDbEntity
  8
RACCORDO
100
AcDbEllipse
 62
7
  6
CONTINUOUS
 10
-4.0012241014
 20
-22.3912724675
 30
0.0
 11
0.5
 21
0.0
 31
0.0
 40
0.0174550649
 41
1.5707963268
 42
3.1241393611
  0
ELLIPSE
  5
61C
100
AcDbEntity
  8
RACCORDO
100
AcDbEllipse
 62
7
  6
CONTINUOUS
 10
-4.0012241014
 20
-23.7912724675
 30
0.0
 11
0.5
 21
-0.0
 31
0.0
 40
0.0174550649
 41
1.5707963268
 42
3.1241393611
  0
ELLIPSE
  5
61D
100
AcDbEntity
  8
RACCORDO
100
AcDbEllipse
 62
7
  6
CONTINUOUS
 10
-10.7163139716
 20
-21.9130712625
 30
0.0
 11
-0.4473055582
 21
0.2236357461
 31
0.0
 40
0.9998096356
 41
0.4635410001
 42
1.5707966315
  0
ELLIPSE
  5
61E
100
AcDbEntity
  8
RACCORDO
100
AcDbEllipse
 62
7
  6
CONTINUOUS
 10
10.4962583758
 20
21.9130712625
 30
0.0
 11
0.4473055582
 21
-0.2236357461
 31
0.0
 40
0.9998096356
 41
0.4635410001
 42
1.5707966315
  0
ELLIPSE
  5
61F
100
AcDbEntity
  8
RACCORDO
100
AcDbEllipse
 62
7
  6
CONTINUOUS
 10
-8.6318847111
 20
-22.3781811688
 30
0.0
 11
0.25
 21
0.0
 31
0.0
 40
0.0174550649
 41
0.0174532925
 42
1.5707963268
  0
ELLIPSE
  5
620
100
AcDbEntity
  8
RACCORDO
100
AcDbEllipse
 62
7
  6
CONTINUOUS
 10
-10.7163139716
 20
21.9130712625
 30
0.0
 11
-0.4473055582
 21
-0.2236357461
 31
0.0
 40
0.9998096356
 41
4.7123886757
 42
5.8196443071
  0
ELLIPSE
  5
621
100
AcDbEntity
  8
RACCORDO
100
AcDbEllipse
 62
7
  6
CONTINUOUS
 10
10.4962583758
 20
-21.9130712625
 30
0.0
 11
0.4473055582
 21
0.2236357461
 31
0.0
 40
0.9998096356
 41
4.7123886757
 42
5.8196443071
  0
ELLIPSE
  5
622
100
AcDbEntity
  8
RACCORDO
100
AcDbEllipse
 62
7
  6
CONTINUOUS
 10
-26.1562970303
 20
18.1665524117
 30
0.0
 11
-0.0
 21
1.4142135624
 31
0.0
 40
0.7071067812
 41
-1.4650322144
 42
-0.4393443729
  0
ELLIPSE
  5
623
100
AcDbEntity
  8
ASSI
100
AcDbEllipse
 62
7
  6
CONTINUOUS
 10
-26.1562970303
 20
18.1665524117
 30
0.0
 11
-0.0
 21
1.4142135624
 31
0.0
 40
0.7071067812
 41
-1.4650322144
 42
-0.4393443729
  0
ELLIPSE
  5
624
100
AcDbEntity
  8
0
100
AcDbEllipse
 62
250
  6
CONTINUOUS
 10
-41.7352983377
 20
-4.680795
 30
0.0
 11
0.0
 21
0.352865
 31
0.0
 40
0.9996954135
 41
-1.5707963268
 42
1.5707963268
  0
ELLIPSE
  5
625
100
AcDbEntity
  8
RACCORDO
100
AcDbEllipse
 62
7
  6
CONTINUOUS
 10
-35.6562970303
 20
21.8083488606
 30
0.0
 11
-0.3566252246
 21
0.3597510255
 31
0.0
 40
0.9741588135
 41
-3.9182641707
 42
-2.7744578643
  0
ELLIPSE
  5
626
100
AcDbEntity
  8
RACCORDO
100
AcDbEllipse
 62
7
  6
CONTINUOUS
 10
-35.6562970303
 20
-21.8083488606
 30
0.0
 11
0.3566252246
 21
0.3597510255
 31
0.0
 40
0.9741588135
 41
-0.3671347893
 42
0.7766715171
  0
ENDSEC
  0
SECTION
  2
OBJECTS
  0
DICTIONARY
  5
C
100
AcDbDictionary
280
0
281
1
  3
ACAD_GROUP
350
D
  3
ACAD_MLINESTYLE
350
17
  3
ACAD_LAYOUT
350
1A
  3
ACAD_PLOTSETTINGS
350
19
  3
ACAD_PLOTSTYLENAME
350
E
  0
DICTIONARY
  5
D
102
{ACAD_REACTORS
330
C
102
}
100
AcDbDictionary
280
0
281
1
  0
ACDBDICTIONARYWDFLT
  5
E
102
{ACAD_REACTORS
330
C
102
}
100
AcDbDictionary
281
1
  3
Normal
350
F
100
AcDbDictionaryWithDefault
340
F
  0
DICTIONARY
  5
17
102
{ACAD_REACTORS
330
C
102
}
100
AcDbDictionary
280
0
281
1
  3
Standard
350
18
  0
DICTIONARY
  5
19
102
{ACAD_REACTORS
330
C
102
}
100
AcDbDictionary
281
1
  0
DICTIONARY
  5
1A
102
{ACAD_REACTORS
330
C
102
}
100
AcDbDictionary
281
1
  3
Model
350
627
  3
Layout1
350
628
  0
ACDBPLACEHOLDER
  5
F
102
{ACAD_REACTORS
330
E
102
}
  0
MLINESTYLE
  5
18
102
{ACAD_REACTORS
330
17
102
}
100
AcDbMlineStyle
  2
STANDARD
 70
0
  3

 62
256
 51
90.0
 52
90.0
 71
2
 49
0.5
 62
256
  6
BYLAYER
 49
-0.5
 62
256
  6
BYLAYER
  0
LAYOUT
  5
627
102
{ACAD_REACTORS
330
1A
102
}
100
AcDbPlotSettings
  1

  2
none_device
  4
ISO_A4_(297.00_x_210.00_MM)
  6

 40
0.0
 41
0.0
 42
0.0
 43
0.0
 44
297.0
 45
210.0
 46
0.0
 47
0.0
 48
0.0
 49
0.0
140
0.0
141
0.0
142
1.0
143
1.0
 70
1024
 72
1
 73
0
 74
0
  7

 75
0
147
1.0
148
0.0
149
0.0
100
AcDbLayout
  1
Model
 70
0
 71
0
 10
0.0
 20
0.0
 11
297.0
 21
210.0
 12
0.0
 22
0.0
 32
0.0
 14
0.0
 24
0.0
 34
0.0
 15
0.0
 25
0.0
 35
0.0
146
0.0
 13
0.0
 23
0.0
 33
0.0
 16
1.0
 26
0.0
 36
0.0
 17
0.0
 27
1.0
 37
0.0
 76
0
330
212
345
0
346
0
  0
LAYOUT
  5
628
102
{ACAD_REACTORS
330
1A
102
}
100
AcDbPlotSettings
  1

  2
none_device
  4
ISO_A4_(297.00_x_210.00_MM)
  6

 40
0.0
 41
0.0
 42
0.0
 43
0.0
 44
297.0
 45
210.0
 46
0.0
 47
0.0
 48
0.0
 49
0.0
140
0.0
141
0.0
142
1.0
143
1.0
 70
0
 72
1
 73
0
 74
0
  7

 75
0
147
1.0
148
0.0
149
0.0
100
AcDbLayout
  1
Layout1
 70
0
 71
1
 10
0.0
 20
0.0
 11
297.0
 21
210.0
 12
0.0
 22
0.0
 32
0.0
 14
0.0
 24
0.0
 34
0.0
 15
0.0
 25
0.0
 35
0.0
146
0.0
 13
0.0
 23
0.0
 33
0.0
 16
1.0
 26
0.0
 36
0.0
 17
0.0
 27
1.0
 37
0.0
 76
0
330
213
345
0
346
0
  0
ENDSEC
  0
EOF
