  0
SECTION
  2
HEADER
  9
$ACADVER
  1
AC1021
  9
$DWGCODEPAGE
  3
ANSI_1252
  9
$EXTMAX
 10
558.8
 20
431.8
 30
0.0
  9
$EXTMIN
 10
0.0
 20
0.0
 30
0.0
  9
$LIMMIN
 10
0.0
 20
0.0
  9
$LIMMAX
 10
558.8
 20
431.8
  9
$VIEWCTR
 10
279.4
 20
215.9
  9
$VIEWSIZE
 40
431.8
  9
$CLAYER
  8
0
  9
$LTSCALE
 40
30.734
  9
$CELTYPE
  6
BYLAYER
  9
$DIMSCALE
 40
1.0
  9
$DIMASZ
 40
3.0
  9
$DIMEXO
 40
0.5
  9
$DIMDLI
 40
21.2344
  9
$DIMEXE
 40
1.5
  9
$DIMCEN
 40
5.0292
  9
$DIMLFAC
 40
1.0
  9
$DIMBLK
  1
_FILLED
  9
$DIMALT
 70
0
  9
$DIMALTF
 40
0.0393700787
  9
$DIMTXT
 40
3.0
  9
$DIMTOL
 70
1
  9
$DIMLIM
 70
0
  9
$DIMTFAC
 40
1.0
  9
$DIMTP
 40
0.01
  9
$DIMTM
 40
0.01
  9
$DIMGAP
 40
0.625
  9
$DIMDSEP
 70
44
  9
$AUNITS
 70
0
  9
$PDMODE
 70
3
  9
$PDSIZE
 40
3.0
  9
$HANDSEED
  5
717
  9
$TILEMODE
 70
1
  9
$MEASUREMENT
 70
1
  9
$INSUNITS
 70
4
  0
ENDSEC
  0
SECTION
  2
CLASSES
  0
CLASS
  1
ACDBDICTIONARYWDFLT
  2
AcDbDictionaryWithDefault
  3
AutoCAD 2000
 90
0
 91
1
280
0
281
0
  0
CLASS
  1
ACDBPLACEHOLDER
  2
AcDbPlaceHolder
  3
AutoCAD 2000
 90
0
 91
1
280
0
281
0
  0
CLASS
  1
LAYOUT
  2
AcDbLayout
  3
AutoCAD 2000
 90
0
 91
0
280
0
281
0
  0
ENDSEC
  0
SECTION
  2
TABLES
  0
TABLE
  2
VPORT
  5
8
100
AcDbSymbolTable
 70
2
  0
VPORT
  5
1F4
100
AcDbSymbolTableRecord
100
AcDbViewportTableRecord
  2
*ACTIVE
 70
0
 10
0.0
 20
0.0
 11
1.0
 21
1.0
 12
279.4
 22
215.9
 13
0.0
 23
0.0
 14
1.0
 24
1.0
 15
0.0
 25
0.0
 16
0.0
 26
0.0
 36
1.0
 17
0.0
 27
0.0
 37
0.0
 40
431.8
 41
1.2941176471
 42
50.0
 43
0.0
 44
0.0
 50
0.0
 51
0.0
 71
0
 72
100
 73
1
 74
1
 75
0
 76
0
 77
0
 78
0
  0
ENDTAB
  0
TABLE
  2
LTYPE
  5
5
100
AcDbSymbolTable
 70
6
  0
LTYPE
  5
14
100
AcDbSymbolTableRecord
100
AcDbLinetypeTableRecord
  2
BYBLOCK
 70
0
  3

 72
65
 73
0
 40
0.0
  0
LTYPE
  5
15
100
AcDbSymbolTableRecord
100
AcDbLinetypeTableRecord
  2
BYLAYER
 70
0
  3

 72
65
 73
0
 40
0.0
  0
LTYPE
  5
16
100
AcDbSymbolTableRecord
100
AcDbLinetypeTableRecord
  2
CONTINUOUS
 70
64
  3
Solid line
 72
65
 73
0
 40
0.0
  0
LTYPE
  5
1F5
100
AcDbSymbolTableRecord
100
AcDbLinetypeTableRecord
  2
CENTER
 70
64
  3
____ _ ____ _ ____ _ ____ _ ____ _ ____ _ ____
 72
65
 73
4
 40
0.6
 49
0.375
 74
0
 49
-0.075
 74
0
 49
0.075
 74
0
 49
-0.075
 74
0
  0
LTYPE
  5
1F6
100
AcDbSymbolTableRecord
100
AcDbLinetypeTableRecord
  2
HIDDEN
 70
64
  3
- - - - - - - - - - - - - - - - - - - -
 72
65
 73
2
 40
0.2
 49
0.1
 74
0
 49
-0.1
 74
0
  0
LTYPE
  5
1F7
100
AcDbSymbolTableRecord
100
AcDbLinetypeTableRecord
  2
PHANTOM
 70
64
  3
_____ _ _ _____ _ _ _____ _ _ _____
 72
65
 73
6
 40
0.8
 49
0.45
 74
0
 49
-0.05
 74
0
 49
0.1
 74
0
 49
-0.05
 74
0
 49
0.1
 74
0
 49
-0.05
 74
0
  0
LTYPE
  5
1F8
100
AcDbSymbolTableRecord
100
AcDbLinetypeTableRecord
  2
DOT
 70
64
  3
. . . . . . . . . . . . . . . . . . . .
 72
65
 73
2
 40
0.2
 49
0.1
 74
0
 49
-0.1
 74
0
  0
LTYPE
  5
1F9
100
AcDbSymbolTableRecord
100
AcDbLinetypeTableRecord
  2
DASHED
 70
64
  3
- - - - - - - - - - - - - - - - - - - -
 72
65
 73
2
 40
0.2
 49
0.1
 74
0
 49
-0.1
 74
0
  0
ENDTAB
  0
TABLE
  2
LAYER
  5
2
100
AcDbSymbolTable
 70
36
  0
LAYER
  5
10
100
AcDbSymbolTableRecord
100
AcDbLayerTableRecord
  2
0
 70
0
 62
7
  6
CONTINUOUS
370
-3
390
F
  0
LAYER
  5
1FA
100
AcDbSymbolTableRecord
100
AcDbLayerTableRecord
  2
DEFAULT_1
 70
0
 62
7
  6
CENTER
370
-3
390
F
  0
LAYER
  5
1FB
100
AcDbSymbolTableRecord
100
AcDbLayerTableRecord
  2
DEFAULT_2
 70
0
 62
7
  6
HIDDEN
370
-3
390
F
  0
LAYER
  5
1FC
100
AcDbSymbolTableRecord
100
AcDbLayerTableRecord
  2
DEFAULT_3
 70
0
 62
7
  6
PHANTOM
370
-3
390
F
  0
LAYER
  5
1FD
100
AcDbSymbolTableRecord
100
AcDbLayerTableRecord
  2
ASSI
 70
0
 62
7
  6
CONTINUOUS
370
-3
390
F
  0
LAYER
  5
1FE
100
AcDbSymbolTableRecord
100
AcDbLayerTableRecord
  2
COORDINATE
 70
0
 62
7
  6
CONTINUOUS
370
-3
390
F
  0
LAYER
  5
1FF
100
AcDbSymbolTableRecord
100
AcDbLayerTableRecord
  2
COORD_ORIGINE
 70
0
 62
7
  6
CONTINUOUS
370
-3
390
F
  0
LAYER
  5
200
100
AcDbSymbolTableRecord
100
AcDbLayerTableRecord
  2
COSMETICHE
 70
0
 62
7
  6
CONTINUOUS
370
-3
390
F
  0
LAYER
  5
201
100
AcDbSymbolTableRecord
100
AcDbLayerTableRecord
  2
CURVE
 70
0
 62
7
  6
CONTINUOUS
370
-3
390
F
  0
LAYER
  5
202
100
AcDbSymbolTableRecord
100
AcDbLayerTableRecord
  2
DRAFT
 70
0
 62
7
  6
CONTINUOUS
370
-3
390
F
  0
LAYER
  5
203
100
AcDbSymbolTableRecord
100
AcDbLayerTableRecord
  2
IMPORT
 70
0
 62
7
  6
CONTINUOUS
370
-3
390
F
  0
LAYER
  5
204
100
AcDbSymbolTableRecord
100
AcDbLayerTableRecord
  2
INTF_1
 70
0
 62
7
  6
CONTINUOUS
370
-3
390
F
  0
LAYER
  5
205
100
AcDbSymbolTableRecord
100
AcDbLayerTableRecord
  2
LAY0001
 70
0
 62
7
  6
CONTINUOUS
370
-3
390
F
  0
LAYER
  5
206
100
AcDbSymbolTableRecord
100
AcDbLayerTableRecord
  2
NOTE
 70
0
 62
7
  6
CONTINUOUS
370
-3
390
F
  0
LAYER
  5
207
100
AcDbSymbolTableRecord
100
AcDbLayerTableRecord
  2
PIANI
 70
0
 62
7
  6
CONTINUOUS
370
-3
390
F
  0
LAYER
  5
208
100
AcDbSymbolTableRecord
100
AcDbLayerTableRecord
  2
PIANI_DI_RIFERIMENTO
 70
0
 62
7
  6
CONTINUOUS
370
-3
390
F
  0
LAYER
  5
209
100
AcDbSymbolTableRecord
100
AcDbLayerTableRecord
  2
PIANI_ORIGINE
 70
0
 62
7
  6
CONTINUOUS
370
-3
390
F
  0
LAYER
  5
20A
100
AcDbSymbolTableRecord
100
AcDbLayerTableRecord
  2
PIANI_RIFERIMENTO
 70
0
 62
7
  6
CONTINUOUS
370
-3
390
F
  0
LAYER
  5
20B
100
AcDbSymbolTableRecord
100
AcDbLayerTableRecord
  2
PIANI_SFORMO
 70
0
 62
7
  6
CONTINUOUS
370
-3
390
F
  0
LAYER
  5
20C
100
AcDbSymbolTableRecord
100
AcDbLayerTableRecord
  2
PUNTI
 70
0
 62
7
  6
CONTINUOUS
370
-3
390
F
  0
LAYER
  5
20D
100
AcDbSymbolTableRecord
100
AcDbLayerTableRecord
  2
RACCORDO
 70
0
 62
7
  6
CONTINUOUS
370
-3
390
F
  0
LAYER
  5
20E
100
AcDbSymbolTableRecord
100
AcDbLayerTableRecord
  2
SMUSSO
 70
0
 62
7
  6
CONTINUOUS
370
-3
390
F
  0
LAYER
  5
20F
100
AcDbSymbolTableRecord
100
AcDbLayerTableRecord
  2
SNAPLINE
 70
0
 62
7
  6
CONTINUOUS
370
-3
390
F
  0
LAYER
  5
210
100
AcDbSymbolTableRecord
100
AcDbLayerTableRecord
  2
SUPERFICI
 70
0
 62
7
  6
CONTINUOUS
370
-3
390
F
  0
LAYER
  5
211
100
AcDbSymbolTableRecord
100
AcDbLayerTableRecord
  2
TASSELLO
 70
0
 62
7
  6
CONTINUOUS
370
-3
390
F
  0
LAYER
  5
212
100
AcDbSymbolTableRecord
100
AcDbLayerTableRecord
  2
TRASH
 70
0
 62
7
  6
CONTINUOUS
370
-3
390
F
  0
LAYER
  5
213
100
AcDbSymbolTableRecord
100
AcDbLayerTableRecord
  2
XSEC_DATUMS
 70
0
 62
7
  6
CONTINUOUS
370
-3
390
F
  0
ENDTAB
  0
TABLE
  2
STYLE
  5
3
100
AcDbSymbolTable
 70
1
  0
STYLE
  5
11
100
AcDbSymbolTableRecord
100
AcDbTextStyleTableRecord
  2
STANDARD
 70
0
 40
0.0
 41
0.8
 50
0.0
 71
0
 42
0.2
  3
txt
  4

  0
STYLE
  5
214
100
AcDbSymbolTableRecord
100
AcDbTextStyleTableRecord
  2
TEXTSTYLE_1
 70
0
 40
0.0
 41
0.8
 50
0.0
 71
0
 42
0.2
  3
gdt
  4

  0
ENDTAB
  0
TABLE
  2
VIEW
  5
6
100
AcDbSymbolTable
 70
0
  0
ENDTAB
  0
TABLE
  2
UCS
  5
7
100
AcDbSymbolTable
 70
0
  0
ENDTAB
  0
TABLE
  2
APPID
  5
9
100
AcDbSymbolTable
 70
1
  0
APPID
  5
215
100
AcDbSymbolTableRecord
100
AcDbRegAppTableRecord
  2
ACAD
 70
0
  0
ENDTAB
  0
TABLE
  2
BLOCK_RECORD
  5
1
100
AcDbSymbolTable
 70
0
  0
BLOCK_RECORD
  5
216
100
AcDbSymbolTableRecord
100
AcDbBlockTableRecord
  2
*Model_Space
  0
BLOCK_RECORD
  5
217
100
AcDbSymbolTableRecord
100
AcDbBlockTableRecord
  2
*Paper_Space
  0
BLOCK_RECORD
  5
218
100
AcDbSymbolTableRecord
100
AcDbBlockTableRecord
  2
_FILLED
  0
BLOCK_RECORD
  5
219
100
AcDbSymbolTableRecord
100
AcDbBlockTableRecord
  2
*D0
  0
BLOCK_RECORD
  5
21A
100
AcDbSymbolTableRecord
100
AcDbBlockTableRecord
  2
*D1
  0
BLOCK_RECORD
  5
21B
100
AcDbSymbolTableRecord
100
AcDbBlockTableRecord
  2
*D2
  0
BLOCK_RECORD
  5
21C
100
AcDbSymbolTableRecord
100
AcDbBlockTableRecord
  2
*D3
  0
ENDTAB
  0
TABLE
  2
DIMSTYLE
  5
A
100
AcDbSymbolTable
 70
1
100
AcDbDimStyleTable
 71
0
  0
DIMSTYLE
105
21D
100
AcDbSymbolTableRecord
100
AcDbDimStyleTableRecord
  2
STANDARD
 70
0
  3

  4

 40
1.0
 41
3.0
 42
0.5
 43
0.38
 44
1.5
 45
0.0
 46
0.0
 47
0.01
 48
0.01
140
3.0
141
0.09
142
0.0
143
25.4
144
1.0
145
0.0
146
1.0
147
0.625
 71
1.0
 72
0.0
 73
0
 74
0
 75
0
 76
0
 77
1
 78
8
 79
2
170
0
171
1
172
0
173
0
174
0
175
0
176
0
177
0
178
0
270
2
179
2
271
2
272
2
273
2
274
2
275
0
280
0
281
0
282
0
283
1
284
8
285
0
286
0
287
3
288
0
340
11
278
44
341
218
342
218
343
218
344
218
  0
DIMSTYLE
105
21E
100
AcDbSymbolTableRecord
100
AcDbDimStyleTableRecord
  2
DIMSTYLE_1
 70
0
  3

  4

 40
1.0
 41
3.0
 42
0.5
 43
0.38
 44
1.5
 45
0.0
 46
0.0
 47
0.0
 48
0.0
140
3.0
141
0.09
142
0.0
143
25.4
144
1.0
145
0.0
146
1.0
147
0.75
 71
0.0
 72
0.0
 73
0
 74
0
 75
0
 76
0
 77
1
 78
8
 79
2
170
0
171
1
172
0
173
0
174
0
175
0
176
0
177
0
178
0
270
2
179
2
271
2
272
2
273
2
274
2
275
0
280
0
281
0
282
0
283
1
284
8
285
0
286
0
287
3
288
0
340
11
278
44
341
218
342
218
343
218
344
218
  0
ENDTAB
  0
ENDSEC
  0
SECTION
  2
BLOCKS
  0
BLOCK
  5
20
100
AcDbEntity
  8
0
100
AcDbBlockBegin
  2
*Model_Space
 70
0
 10
0.0
 20
0.0
 30
0.0
  3
*Model_Space
  1

  0
ENDBLK
  5
21
100
AcDbEntity
  8
0
100
AcDbBlockEnd
  0
BLOCK
  5
1C
100
AcDbEntity
  8
0
100
AcDbBlockBegin
  2
*Paper_Space
 70
0
 10
0.0
 20
0.0
 30
0.0
  3
*Paper_Space
  1

  0
ENDBLK
  5
1D
100
AcDbEntity
  8
0
100
AcDbBlockEnd
  0
BLOCK
  5
21F
100
AcDbEntity
  8
0
100
AcDbBlockBegin
  2
_FILLED
 70
64
 10
0.0
 20
0.0
  3
_FILLED
  1

  0
SOLID
  5
220
100
AcDbEntity
  8
0
  6
BYBLOCK
 62
0
100
AcDbTrace
 10
0.0
 20
0.0
 11
-1.0
 21
0.3166666667
 12
-1.0
 22
-0.3166666667
 13
-1.0
 23
-0.3166666667
  0
ENDBLK
  5
221
100
AcDbEntity
  8
0
  6
BYBLOCK
 62
0
100
AcDbBlockEnd
  0
BLOCK
  5
222
100
AcDbEntity
  8
0
100
AcDbBlockBegin
 62
7
  6
CONTINUOUS
  2
*D0
 70
65
 10
0.0
 20
0.0
  3
*D0
  1

  0
LINE
  5
223
100
AcDbEntity
  8
0
100
AcDbLine
 62
7
  6
CONTINUOUS
 10
-63.1443540412
 20
0.5
 11
-63.1443540412
 21
44.0
  0
LINE
  5
224
100
AcDbEntity
  8
0
100
AcDbLine
 62
7
  6
CONTINUOUS
 10
-24.6443540412
 20
14.4245670425
 11
-24.6443540412
 21
44.0
  0
LINE
  5
225
100
AcDbEntity
  8
0
100
AcDbLine
 62
7
  6
CONTINUOUS
 10
-63.1443540412
 20
42.5
 11
-43.8943540412
 21
42.5
  0
LINE
  5
226
100
AcDbEntity
  8
0
100
AcDbLine
 62
7
  6
CONTINUOUS
 10
-24.6443540412
 20
42.5
 11
-43.8943540412
 21
42.5
  0
INSERT
  5
227
100
AcDbEntity
  8
0
100
AcDbBlockReference
 62
7
  6
CONTINUOUS
  2
_FILLED
 10
-63.1443540412
 20
42.5
 41
3.0
 42
3.0
 43
3.0
 50
180.0
  0
INSERT
  5
228
100
AcDbEntity
  8
0
100
AcDbBlockReference
 62
7
  6
CONTINUOUS
  2
_FILLED
 10
-24.6443540412
 20
42.5
 41
3.0
 42
3.0
 43
3.0
  0
ENDBLK
  5
229
100
AcDbEntity
  8
0
  6
BYBLOCK
 62
0
100
AcDbBlockEnd
  0
BLOCK
  5
22A
100
AcDbEntity
  8
0
100
AcDbBlockBegin
 62
7
  6
CONTINUOUS
  2
*D1
 70
65
 10
0.0
 20
0.0
  3
*D1
  1

  0
LINE
  5
22B
100
AcDbEntity
  8
0
100
AcDbLine
 62
7
  6
CONTINUOUS
 10
-52.6443540412
 20
22.4411874598
 11
-52.6443540412
 21
34.0
  0
LINE
  5
22C
100
AcDbEntity
  8
0
100
AcDbLine
 62
7
  6
CONTINUOUS
 10
-24.6443540412
 20
14.4245670425
 11
-24.6443540412
 21
34.0
  0
LINE
  5
22D
100
AcDbEntity
  8
0
100
AcDbLine
 62
7
  6
CONTINUOUS
 10
-52.6443540412
 20
32.5
 11
-38.6443540412
 21
32.5
  0
LINE
  5
22E
100
AcDbEntity
  8
0
100
AcDbLine
 62
7
  6
CONTINUOUS
 10
-24.6443540412
 20
32.5
 11
-38.6443540412
 21
32.5
  0
INSERT
  5
22F
100
AcDbEntity
  8
0
100
AcDbBlockReference
 62
7
  6
CONTINUOUS
  2
_FILLED
 10
-52.6443540412
 20
32.5
 41
3.0
 42
3.0
 43
3.0
 50
180.0
  0
INSERT
  5
230
100
AcDbEntity
  8
0
100
AcDbBlockReference
 62
7
  6
CONTINUOUS
  2
_FILLED
 10
-24.6443540412
 20
32.5
 41
3.0
 42
3.0
 43
3.0
  0
ENDBLK
  5
231
100
AcDbEntity
  8
0
  6
BYBLOCK
 62
0
100
AcDbBlockEnd
  0
BLOCK
  5
232
100
AcDbEntity
  8
0
100
AcDbBlockBegin
 62
7
  6
CONTINUOUS
  2
*D2
 70
65
 10
0.0
 20
0.0
  3
*D2
  1

  0
LINE
  5
233
100
AcDbEntity
  8
0
100
AcDbLine
 62
7
  6
CONTINUOUS
 10
-13.075
 20
22.4411874598
 11
-13.075
 21
34.0
  0
LINE
  5
234
100
AcDbEntity
  8
0
100
AcDbLine
 62
7
  6
CONTINUOUS
 10
9.225
 20
22.4411874598
 11
9.225
 21
34.0
  0
LINE
  5
235
100
AcDbEntity
  8
0
100
AcDbLine
 62
7
  6
CONTINUOUS
 10
-13.075
 20
32.5
 11
-1.925
 21
32.5
  0
LINE
  5
236
100
AcDbEntity
  8
0
100
AcDbLine
 62
7
  6
CONTINUOUS
 10
9.225
 20
32.5
 11
-1.925
 21
32.5
  0
INSERT
  5
237
100
AcDbEntity
  8
0
100
AcDbBlockReference
 62
7
  6
CONTINUOUS
  2
_FILLED
 10
-13.075
 20
32.5
 41
3.0
 42
3.0
 43
3.0
 50
180.0
  0
INSERT
  5
238
100
AcDbEntity
  8
0
100
AcDbBlockReference
 62
7
  6
CONTINUOUS
  2
_FILLED
 10
9.225
 20
32.5
 41
3.0
 42
3.0
 43
3.0
  0
ENDBLK
  5
239
100
AcDbEntity
  8
0
  6
BYBLOCK
 62
0
100
AcDbBlockEnd
  0
BLOCK
  5
23A
100
AcDbEntity
  8
0
100
AcDbBlockBegin
 62
7
  6
CONTINUOUS
  2
*D3
 70
65
 10
0.0
 20
0.0
  3
*D3
  1

  0
LINE
  5
23B
100
AcDbEntity
  8
0
100
AcDbLine
 62
7
  6
CONTINUOUS
 10
7.0749957692
 20
24.5
 11
22.575
 21
24.5
  0
LINE
  5
23C
100
AcDbEntity
  8
0
100
AcDbLine
 62
7
  6
CONTINUOUS
 10
8.9750042308
 20
-24.5
 11
22.575
 21
-24.5
  0
LINE
  5
23D
100
AcDbEntity
  8
0
100
AcDbLine
 62
7
  6
CONTINUOUS
 10
21.075
 20
24.5
 11
21.075
 21
0.0
  0
LINE
  5
23E
100
AcDbEntity
  8
0
100
AcDbLine
 62
7
  6
CONTINUOUS
 10
21.075
 20
-24.5
 11
21.075
 21
0.0
  0
INSERT
  5
23F
100
AcDbEntity
  8
0
100
AcDbBlockReference
 62
7
  6
CONTINUOUS
  2
_FILLED
 10
21.075
 20
24.5
 41
3.0
 42
3.0
 43
3.0
 50
90.0
  0
INSERT
  5
240
100
AcDbEntity
  8
0
100
AcDbBlockReference
 62
7
  6
CONTINUOUS
  2
_FILLED
 10
21.075
 20
-24.5
 41
3.0
 42
3.0
 43
3.0
 50
270.0
  0
ENDBLK
  5
241
100
AcDbEntity
  8
0
  6
BYBLOCK
 62
0
100
AcDbBlockEnd
  0
ENDSEC
  0
SECTION
  2
ENTITIES
  0
DIMENSION
  5
242
100
AcDbEntity
  8
0
100
AcDbDimension
 62
7
  6
CONTINUOUS
  2
*D0
 10
-24.6443540412
 20
42.5
 11
-48.652390662
 21
42.5
 70
160
 71
2
 72
2
 41
0.9
 42
38.5
  3
DIMSTYLE_1
100
AcDbAlignedDimension
 13
-63.1443540412
 23
0.0
 14
-24.6443540412
 24
13.9245670425
100
AcDbRotatedDimension
  0
DIMENSION
  5
243
100
AcDbEntity
  8
0
100
AcDbDimension
 62
7
  6
CONTINUOUS
  2
*D1
 10
-24.6443540412
 20
32.5
 11
-40.228384711
 21
32.5
 70
160
 71
2
 72
2
 41
0.9
 42
28.0
  3
DIMSTYLE_1
100
AcDbAlignedDimension
 13
-52.6443540412
 23
21.9411874598
 14
-24.6443540412
 24
13.9245670425
100
AcDbRotatedDimension
  0
DIMENSION
  5
244
100
AcDbEntity
  8
0
100
AcDbDimension
 62
7
  6
CONTINUOUS
  2
*D2
 10
9.225
 20
32.5
 11
-6.373500338
 21
32.5
 70
160
 71
2
 72
2
 41
0.9
 42
22.3
  3
DIMSTYLE_1
100
AcDbAlignedDimension
 13
-13.075
 23
21.9411874598
 14
9.225
 24
21.9411874598
100
AcDbRotatedDimension
  0
DIMENSION
  5
245
100
AcDbEntity
  8
0
100
AcDbDimension
 62
7
  6
CONTINUOUS
  2
*D3
 10
21.075
 20
-24.5
 11
21.075
 21
-1.541528623
 70
160
 71
2
 72
2
 41
0.9
 42
49.0
  3
DIMSTYLE_1
100
AcDbAlignedDimension
 13
6.5749957692
 23
24.5
 14
8.4750042308
 24
-24.5
 50
270.0
100
AcDbRotatedDimension
  0
LWPOLYLINE
  5
246
100
AcDbEntity
  8
0
100
AcDbPolyline
 62
7
  6
CONTINUOUS
 90
5
 70
0
 43
0.3500000087
 10
0.9122139174
 20
34.9642844238
 10
1.2693567616
 20
35.1785709564
 10
1.2693567616
 20
35.8214305542
 10
0.9122139174
 20
36.2499993561
 10
0.0550710885
 20
36.2499993561
  0
LINE
  5
247
100
AcDbEntity
  8
RACCORDO
100
AcDbLine
 62
7
  6
CONTINUOUS
 10
-12.8086674391
 20
22.352502632
 11
-12.8261653018
 21
22.3437543669
  0
LWPOLYLINE
  5
248
100
AcDbEntity
  8
RACCORDO
100
AcDbPolyline
 62
7
  6
CONTINUOUS
 90
11
 70
0
 10
-12.8086922242
 20
22.3524902394
 10
-12.796845394
 20
22.3581993164
 10
-12.777026485
 20
22.3668236603
 10
-12.7567565242
 20
22.3745074735
 10
-12.7361130342
 20
22.3812142134
 10
-12.7151454397
 20
22.3869236637
 10
-12.6938989292
 20
22.3916194179
 10
-12.6724489306
 20
22.3952825341
 10
-12.6508544969
 20
22.3979033185
 10
-12.629157253
 20
22.3994771119
 10
-12.607407897
 20
22.3999999727
  0
LINE
  5
249
100
AcDbEntity
  8
RACCORDO
100
AcDbLine
 62
7
  6
CONTINUOUS
 10
-12.8261653018
 20
-22.3437543669
 11
-12.8086674391
 21
-22.352502632
  0
LWPOLYLINE
  5
24A
100
AcDbEntity
  8
RACCORDO
100
AcDbPolyline
 62
7
  6
CONTINUOUS
 90
25
 70
0
 10
-12.8086922242
 20
-22.3524902394
 10
-12.8161239551
 20
-22.3486875146
 10
-12.8348716514
 20
-22.3382980563
 10
-12.8531549511
 20
-22.3269943548
 10
-12.8709680761
 20
-22.3147655192
 10
-12.8882219144
 20
-22.3016577512
 10
-12.9048523406
 20
-22.2877109985
 10
-12.9208300719
 20
-22.2729413932
 10
-12.9361004302
 20
-22.2573906673
 10
-12.9505733173
 20
-22.2411512162
 10
-12.9642162796
 20
-22.2242692499
 10
-12.9770059964
 20
-22.2067839662
 10
-12.9888847298
 20
-22.1887921534
 10
-12.9998269012
 20
-22.1703626509
 10
-13.0098331822
 20
-22.1515266393
 10
-13.0188959063
 20
-22.1323294161
 10
-13.0270033068
 20
-22.1128310764
 10
-13.0341560209
 20
-22.0930690103
 10
-13.0403627836
 20
-22.0730517019
 10
-13.0456198278
 20
-22.0528173664
 10
-13.0499213131
 20
-22.0324191121
 10
-13.0532684081
 20
-22.0118850626
 10
-13.0556601858
 20
-21.9912541992
 10
-13.0570962423
 20
-21.9705768201
 10
-13.0575792813
 20
-21.9498971557
  0
LINE
  5
24B
100
AcDbEntity
  8
RACCORDO
100
AcDbLine
 62
250
  6
CONTINUOUS
 10
-10.4249957692
 20
24.5
 11
-10.4380943479
 21
24.4869014213
  0
LINE
  5
24C
100
AcDbEntity
  8
RACCORDO
100
AcDbLine
 62
250
  6
CONTINUOUS
 10
-10.175
 20
24.2500042308
 11
-10.1880985787
 21
24.2369056521
  0
LINE
  5
24D
100
AcDbEntity
  8
RACCORDO
100
AcDbLine
 62
250
  6
CONTINUOUS
 10
-13.0575792813
 20
21.9498971557
 11
-13.075
 21
21.9411874598
  0
LWPOLYLINE
  5
24E
100
AcDbEntity
  8
RACCORDO
100
AcDbPolyline
 62
250
  6
CONTINUOUS
 90
31
 70
0
 10
8.4619056521
 20
-24.4869014213
 10
8.4749891381
 20
-24.4865583827
 10
8.4880367647
 20
-24.4855310928
 10
8.5010127708
 20
-24.4838223673
 10
8.5138815916
 20
-24.4814368893
 10
8.5266079562
 20
-24.4783811971
 10
8.5391569839
 20
-24.4746636657
 10
8.5514942801
 20
-24.4702944842
 10
8.5635860308
 20
-24.4652856277
 10
8.5753990946
 20
-24.4596508246
 10
8.5869010942
 20
-24.4534055187
 10
8.5980605047
 20
-24.4465668272
 10
8.6088467403
 20
-24.4391534939
 10
8.6192302379
 20
-24.4311858371
 10
8.6291825384
 20
-24.4226856948
 10
8.6386763643
 20
-24.4136763643
 10
8.6476856948
 20
-24.4041825384
 10
8.6561858371
 20
-24.3942302379
 10
8.6641534939
 20
-24.3838467403
 10
8.6715668272
 20
-24.3730605047
 10
8.6784055187
 20
-24.3619010942
 10
8.6846508246
 20
-24.3503990946
 10
8.6902856277
 20
-24.3385860308
 10
8.6952944842
 20
-24.3264942801
 10
8.6996636657
 20
-24.3141569839
 10
8.7033811971
 20
-24.3016079562
 10
8.7064368893
 20
-24.2888815916
 10
8.7088223673
 20
-24.2760127708
 10
8.7105310928
 20
-24.2630367647
 10
8.7115583827
 20
-24.2499891381
 10
8.7119014213
 20
-24.2369056521
  0
LWPOLYLINE
  5
24F
100
AcDbEntity
  8
RACCORDO
100
AcDbPolyline
 62
250
  6
CONTINUOUS
 90
31
 70
0
 10
-10.4380943479
 20
-24.4869014213
 10
-10.4250079938
 20
-24.4865582323
 10
-10.4119574955
 20
-24.4855304893
 10
-10.3989786381
 20
-24.4838210061
 10
-10.3861069984
 20
-24.4814344634
 10
-10.3733778845
 20
-24.4783774023
 10
-10.360826237
 20
-24.4746582128
 10
-10.3484864809
 20
-24.4702870977
 10
-10.3363924437
 20
-24.4652760422
 10
-10.3245772981
 20
-24.4596387939
 10
-10.3130734423
 20
-24.4533908148
 10
-10.3019124163
 20
-24.446549239
 10
-10.291124826
 20
-24.4391328321
 10
-10.2807402367
 20
-24.4311619239
 10
-10.2707871333
 20
-24.4226583824
 10
-10.2612928401
 20
-24.4136455633
 10
-10.2522834183
 20
-24.4041482289
 10
-10.2437835214
 20
-24.3941923917
 10
-10.2358163791
 20
-24.3838052658
 10
-10.2284037491
 20
-24.3730151866
 10
-10.2215660673
 20
-24.3618518682
 10
-10.2153222656
 20
-24.3503462678
 10
-10.209689517
 20
-24.3385301896
 10
-10.2046830871
 20
-24.3264358334
 10
-10.200316536
 20
-24.3140960295
 10
-10.1966010963
 20
-24.3015418449
 10
-10.1935479829
 20
-24.2888103798
 10
-10.1911668528
 20
-24.275944661
 10
-10.1894632485
 20
-24.2629828864
 10
-10.1884399859
 20
-24.249957992
 10
-10.1880985787
 20
-24.2369056521
  0
LWPOLYLINE
  5
250
100
AcDbEntity
  8
RACCORDO
100
AcDbPolyline
 62
7
  6
CONTINUOUS
 90
34
 70
0
 10
8.4750042308
 20
-24.5
 10
8.486899516
 20
-24.4997168498
 10
8.4987678556
 20
-24.4988680342
 10
8.5105823661
 20
-24.4974554741
 10
8.5223162875
 20
-24.4954823677
 10
8.5339430388
 20
-24.4929531817
 10
8.545436279
 20
-24.4898736417
 10
8.5567699738
 20
-24.4862507213
 10
8.5679184493
 20
-24.4820926258
 10
8.5788564463
 20
-24.4774087722
 10
8.5895591876
 20
-24.4722097688
 10
8.6000024283
 20
-24.4665073916
 10
8.6101625059
 20
-24.4603145581
 10
8.6200164051
 20
-24.4536452955
 10
8.6295418038
 20
-24.4465147107
 10
8.6387171191
 20
-24.4389389589
 10
8.6475215661
 20
-24.4309352005
 10
8.6559352005
 20
-24.4225215661
 10
8.6639389589
 20
-24.4137171191
 10
8.6715147107
 20
-24.4045418038
 10
8.6786452955
 20
-24.3950164051
 10
8.6853145581
 20
-24.3851625059
 10
8.6915073916
 20
-24.3750024283
 10
8.6972097688
 20
-24.3645591876
 10
8.7024087722
 20
-24.3538564463
 10
8.7070926258
 20
-24.3429184493
 10
8.7112507213
 20
-24.3317699738
 10
8.7148736417
 20
-24.320436279
 10
8.7179531817
 20
-24.3089430388
 10
8.7204823677
 20
-24.2973162875
 10
8.7224554741
 20
-24.2855823661
 10
8.7238680342
 20
-24.2737678556
 10
8.7247168498
 20
-24.261899516
 10
8.725
 20
-24.2500042308
  0
LWPOLYLINE
  5
251
100
AcDbEntity
  8
RACCORDO
100
AcDbPolyline
 62
7
  6
CONTINUOUS
 90
34
 70
0
 10
-10.4249957692
 20
-24.5
 10
-10.413100484
 20
-24.4997168498
 10
-10.4012321444
 20
-24.4988680342
 10
-10.3894176339
 20
-24.4974554741
 10
-10.3776837125
 20
-24.4954823677
 10
-10.3660569612
 20
-24.4929531817
 10
-10.354563721
 20
-24.4898736417
 10
-10.3432300262
 20
-24.4862507213
 10
-10.3320815507
 20
-24.4820926258
 10
-10.3211435537
 20
-24.4774087722
 10
-10.3104408124
 20
-24.4722097688
 10
-10.2999975717
 20
-24.4665073916
 10
-10.2898374941
 20
-24.4603145581
 10
-10.2799835949
 20
-24.4536452955
 10
-10.2704581962
 20
-24.4465147107
 10
-10.2612828809
 20
-24.4389389589
 10
-10.2524784339
 20
-24.4309352005
 10
-10.2440647995
 20
-24.4225215661
 10
-10.2360610411
 20
-24.4137171191
 10
-10.2284852893
 20
-24.4045418038
 10
-10.2213547045
 20
-24.3950164051
 10
-10.2146854419
 20
-24.3851625059
 10
-10.2084926084
 20
-24.3750024283
 10
-10.2027902312
 20
-24.3645591876
 10
-10.1975912278
 20
-24.3538564463
 10
-10.1929073742
 20
-24.3429184493
 10
-10.1887492787
 20
-24.3317699738
 10
-10.1851263583
 20
-24.320436279
 10
-10.1820468183
 20
-24.3089430388
 10
-10.1795176323
 20
-24.2973162875
 10
-10.1775445259
 20
-24.2855823661
 10
-10.1761319658
 20
-24.2737678556
 10
-10.1752831502
 20
-24.261899516
 10
-10.175
 20
-24.2500042308
  0
LINE
  5
252
100
AcDbEntity
  8
RACCORDO
100
AcDbLine
 62
7
  6
CONTINUOUS
 10
8.4750042308
 20
-24.5
 11
6.5749957692
 21
-24.5
  0
LINE
  5
253
100
AcDbEntity
  8
RACCORDO
100
AcDbLine
 62
7
  6
CONTINUOUS
 10
-10.4249957692
 20
-24.5
 11
-12.3250042308
 21
-24.5
  0
LINE
  5
254
100
AcDbEntity
  8
RACCORDO
100
AcDbLine
 62
250
  6
CONTINUOUS
 10
-12.3119056521
 20
-24.4869014213
 11
-10.4380943479
 21
-24.4869014213
  0
LINE
  5
255
100
AcDbEntity
  8
RACCORDO
100
AcDbLine
 62
250
  6
CONTINUOUS
 10
6.5880943479
 20
-24.4869014213
 11
8.4619056521
 21
-24.4869014213
  0
LINE
  5
256
100
AcDbEntity
  8
RACCORDO
100
AcDbLine
 62
250
  6
CONTINUOUS
 10
6.3380985787
 20
-24.2369056521
 11
8.7119014213
 21
-24.2369056521
  0
LINE
  5
257
100
AcDbEntity
  8
RACCORDO
100
AcDbLine
 62
250
  6
CONTINUOUS
 10
-10.1880985787
 20
-24.2369056521
 11
-12.5619014213
 21
-24.2369056521
  0
LINE
  5
258
100
AcDbEntity
  8
RACCORDO
100
AcDbLine
 62
250
  6
CONTINUOUS
 10
6.3380985787
 20
-23.8443375673
 11
8.7119014213
 21
-23.8443375673
  0
LINE
  5
259
100
AcDbEntity
  8
RACCORDO
100
AcDbLine
 62
250
  6
CONTINUOUS
 10
-10.1880985787
 20
-23.8443375673
 11
-12.5619014213
 21
-23.8443375673
  0
LINE
  5
25A
100
AcDbEntity
  8
RACCORDO
100
AcDbLine
 62
250
  6
CONTINUOUS
 10
-13.075
 20
-21.9411874598
 11
-13.0575792813
 21
-21.9498971557
  0
LINE
  5
25B
100
AcDbEntity
  8
RACCORDO
100
AcDbLine
 62
250
  6
CONTINUOUS
 10
-10.4249957692
 20
-24.5
 11
-10.4380943479
 21
-24.4869014213
  0
LINE
  5
25C
100
AcDbEntity
  8
RACCORDO
100
AcDbLine
 62
250
  6
CONTINUOUS
 10
-10.175
 20
-24.2500042308
 11
-10.1880985787
 21
-24.2369056521
  0
LWPOLYLINE
  5
25D
100
AcDbEntity
  8
ASSI
100
AcDbPolyline
 62
250
  6
CONTINUOUS
 90
16
 70
0
 10
-12.9074274394
 20
20.5413250388
 10
-12.9038483033
 20
20.5448704838
 10
-12.8949510234
 20
20.5483779336
 10
-12.8808309307
 20
20.551809807
 10
-12.8616393166
 20
20.555129333
 10
-12.8375818121
 20
20.558300944
 10
-12.8089161841
 20
20.5612906573
 10
-12.775949574
 20
20.5640664394
 10
-12.7390352065
 20
20.5665985488
 10
-12.6985686052
 20
20.5688598548
 10
-12.6549833542
 20
20.5708261284
 10
-12.6087464531
 20
20.5724763018
 10
-12.5603533127
 20
20.5737926941
 10
-12.5103224472
 20
20.5747612007
 10
-12.4591899184
 20
20.5753714444
 10
-12.4075035919
 20
20.5756168866
  0
LWPOLYLINE
  5
25E
100
AcDbEntity
  8
RACCORDO
100
AcDbPolyline
 62
250
  6
CONTINUOUS
 90
16
 70
0
 10
-12.9074274394
 20
20.5413250388
 10
-12.9038484033
 20
20.5448704921
 10
-12.8949512081
 20
20.5483779507
 10
-12.8808311841
 20
20.5518098334
 10
-12.8616396223
 20
20.5551293687
 10
-12.8375821537
 20
20.5583009891
 10
-12.8089165455
 20
20.5612907116
 10
-12.7759499398
 20
20.5640665025
 10
-12.7390355621
 20
20.56659862
 10
-12.6985689371
 20
20.5688599335
 10
-12.6549836504
 20
20.5708262138
 10
-12.6087467032
 20
20.5724763928
 10
-12.5603535082
 20
20.5737927896
 10
-12.5103225813
 20
20.5747612995
 10
-12.4591899866
 20
20.5753715452
 10
-12.4075035919
 20
20.5756169881
  0
LWPOLYLINE
  5
25F
100
AcDbEntity
  8
RACCORDO
100
AcDbPolyline
 62
7
  6
CONTINUOUS
 90
23
 70
0
 10
-6.2212073137
 20
-23.7953389668
 10
-6.2104181903
 20
-23.7947915649
 10
-6.1993307281
 20
-23.793363895
 10
-6.1879449272
 20
-23.7911364879
 10
-6.1762361469
 20
-23.7881978965
 10
-6.164229028
 20
-23.7846238716
 10
-6.151997492
 20
-23.7804595132
 10
-6.1395487518
 20
-23.7757643703
 10
-6.1268755946
 20
-23.7706018097
 10
-6.1140303044
 20
-23.7649953104
 10
-6.1010171723
 20
-23.758990232
 10
-6.0878319072
 20
-23.7526365647
 10
-6.0745139203
 20
-23.7459460582
 10
-6.0610654333
 20
-23.7389542831
 10
-6.0474842244
 20
-23.7317013921
 10
-6.0338030396
 20
-23.724193673
 10
-6.0200229279
 20
-23.7164601879
 10
-6.0061428402
 20
-23.708533951
 10
-5.9921923756
 20
-23.7004191901
 10
-5.978171775
 20
-23.6921405291
 10
-5.9640807976
 20
-23.6837259593
 10
-5.9499483201
 20
-23.6751796798
 10
-5.9215581838
 20
-23.6577812011
  0
LWPOLYLINE
  5
260
100
AcDbEntity
  8
RACCORDO
100
AcDbPolyline
 62
250
  6
CONTINUOUS
 90
37
 70
0
 10
8.7104847413
 20
-22.2576761526
 10
8.7301003891
 20
-22.2572366526
 10
8.749678236
 20
-22.2559428275
 10
8.7691810659
 20
-22.2537971777
 10
8.7885716611
 20
-22.2508038516
 10
8.8078133132
 20
-22.2469685596
 10
8.8268698808
 20
-22.2422984988
 10
8.8457053713
 20
-22.2368024432
 10
8.8642837222
 20
-22.2304908764
 10
8.882569315
 20
-22.2233758917
 10
8.9005272396
 20
-22.2154710916
 10
8.9181235163
 20
-22.2067914619
 10
8.9353248584
 20
-22.1973534354
 10
8.9520985679
 20
-22.1871749276
 10
8.9684127369
 20
-22.176275284
 10
8.9842364593
 20
-22.1646751536
 10
8.9995396863
 20
-22.1523965055
 10
9.0142932425
 20
-22.1394626968
 10
9.0284690088
 20
-22.1258983846
 10
9.0420400174
 20
-22.111729324
 10
9.0549804461
 20
-22.0969824337
 10
9.0672656315
 20
-22.0816858541
 10
9.0788721634
 20
-22.0658687011
 10
9.08977801
 20
-22.0495609754
 10
9.0999625051
 20
-22.0327936255
 10
9.1094062548
 20
-22.0155985031
 10
9.1180912828
 20
-21.9980082662
 10
9.1260011276
 20
-21.9800562739
 10
9.1331207627
 20
-21.9617764548
 10
9.1394365339
 20
-21.9432036881
 10
9.1449363177
 20
-21.9243737033
 10
9.1496095923
 20
-21.9053225683
 10
9.1534475615
 20
-21.8860862023
 10
9.1564430249
 20
-21.866700743
 10
9.1585902463
 20
-21.8472028756
 10
9.1598850374
 20
-21.8276297776
 10
9.1603248699
 20
-21.8080186365
  0
LINE
  5
261
100
AcDbEntity
  8
DRAFT
100
AcDbLine
 62
7
  6
CONTINUOUS
 10
2.475
 20
-23.8
 11
-6.325
 21
-23.8
  0
LINE
  5
262
100
AcDbEntity
  8
RACCORDO
100
AcDbLine
 62
250
  6
CONTINUOUS
 10
-6.2212073137
 20
-23.7953389668
 11
2.3712073137
 21
-23.7953389668
  0
LINE
  5
263
100
AcDbEntity
  8
RACCORDO
100
AcDbLine
 62
250
  6
CONTINUOUS
 10
8.4619056521
 20
-23.6278312164
 11
6.5880943479
 21
-23.6278312164
  0
LINE
  5
264
100
AcDbEntity
  8
RACCORDO
100
AcDbLine
 62
250
  6
CONTINUOUS
 10
-10.4380943479
 20
-23.6278312164
 11
-12.3119056521
 21
-23.6278312164
  0
LINE
  5
265
100
AcDbEntity
  8
RACCORDO
100
AcDbLine
 62
250
  6
CONTINUOUS
 10
-5.8220826234
 20
-23.5953423515
 11
1.9720826234
 21
-23.5953423515
  0
LINE
  5
266
100
AcDbEntity
  8
RACCORDO
100
AcDbLine
 62
7
  6
CONTINUOUS
 10
8.4677071958
 20
-23.1242659097
 11
6.5822928042
 21
-23.1242659097
  0
LINE
  5
267
100
AcDbEntity
  8
RACCORDO
100
AcDbLine
 62
7
  6
CONTINUOUS
 10
-10.4322928042
 20
-23.1242659097
 11
-12.3177071958
 21
-23.1242659097
  0
LINE
  5
268
100
AcDbEntity
  8
RACCORDO
100
AcDbLine
 62
7
  6
CONTINUOUS
 10
-12.6074078424
 20
-22.4
 11
-12.575
 21
-22.4
  0
LINE
  5
269
100
AcDbEntity
  8
DRAFT
100
AcDbLine
 62
7
  6
CONTINUOUS
 10
-10.175
 20
-22.4
 11
-6.325
 21
-22.4
  0
LINE
  5
26A
100
AcDbEntity
  8
DRAFT
100
AcDbLine
 62
7
  6
CONTINUOUS
 10
2.475
 20
-22.4
 11
6.325
 21
-22.4
  0
LINE
  5
26B
100
AcDbEntity
  8
RACCORDO
100
AcDbLine
 62
7
  6
CONTINUOUS
 10
8.725
 20
-22.4
 11
8.7574078424
 21
-22.4
  0
LINE
  5
26C
100
AcDbEntity
  8
RACCORDO
100
AcDbLine
 62
7
  6
CONTINUOUS
 10
-5.8220826234
 20
-22.3475922207
 11
1.9720826234
 21
-22.3475922207
  0
LINE
  5
26D
100
AcDbEntity
  8
RACCORDO
100
AcDbLine
 62
7
  6
CONTINUOUS
 10
8.4677047869
 20
-22.3212199262
 11
6.5822952131
 21
-22.3212199262
  0
LINE
  5
26E
100
AcDbEntity
  8
RACCORDO
100
AcDbLine
 62
7
  6
CONTINUOUS
 10
-10.4322952131
 20
-22.3212199262
 11
-12.3177047869
 21
-22.3212199262
  0
LINE
  5
26F
100
AcDbEntity
  8
RACCORDO
100
AcDbLine
 62
250
  6
CONTINUOUS
 10
-12.5604847413
 20
-22.2576761526
 11
8.7104847413
 21
-22.2576761526
  0
LINE
  5
270
100
AcDbEntity
  8
RACCORDO
100
AcDbLine
 62
7
  6
CONTINUOUS
 10
-12.5003805997
 20
-22.2
 11
-4.925
 21
-22.2
  0
LINE
  5
271
100
AcDbEntity
  8
ASSI
100
AcDbLine
 62
7
  6
CONTINUOUS
 10
-12.5003805997
 20
-22.2
 11
-4.925
 21
-22.2
  0
LINE
  5
272
100
AcDbEntity
  8
RACCORDO
100
AcDbLine
 62
7
  6
CONTINUOUS
 10
1.075
 20
-22.2
 11
8.6503805997
 21
-22.2
  0
LINE
  5
273
100
AcDbEntity
  8
ASSI
100
AcDbLine
 62
7
  6
CONTINUOUS
 10
1.075
 20
-22.2
 11
8.6503805997
 21
-22.2
  0
LINE
  5
274
100
AcDbEntity
  8
DRAFT
100
AcDbLine
 62
7
  6
CONTINUOUS
 10
-4.925
 20
-22.0951844414
 11
1.075
 21
-22.0951844414
  0
LINE
  5
275
100
AcDbEntity
  8
ASSI
100
AcDbLine
 62
7
  6
CONTINUOUS
 10
-4.925
 20
-22.0951844414
 11
1.075
 21
-22.0951844414
  0
LINE
  5
276
100
AcDbEntity
  8
RACCORDO
100
AcDbLine
 62
250
  6
CONTINUOUS
 10
8.574004027
 20
-21.9706839485
 11
-12.424004027
 21
-21.9706839485
  0
LINE
  5
277
100
AcDbEntity
  8
ASSI
100
AcDbLine
 62
250
  6
CONTINUOUS
 10
8.574004027
 20
-21.9706839485
 11
-12.424004027
 21
-21.9706839485
  0
LWPOLYLINE
  5
278
100
AcDbEntity
  8
RACCORDO
100
AcDbPolyline
 62
7
  6
CONTINUOUS
 90
11
 70
0
 10
-12.607407897
 20
-22.3999999727
 10
-12.629157253
 20
-22.3994771119
 10
-12.6508544969
 20
-22.3979033185
 10
-12.6724489306
 20
-22.3952825341
 10
-12.6938989292
 20
-22.3916194179
 10
-12.7151454397
 20
-22.3869236637
 10
-12.7361130342
 20
-22.3812142134
 10
-12.7567565242
 20
-22.3745074735
 10
-12.777026485
 20
-22.3668236603
 10
-12.796845394
 20
-22.3581993164
 10
-12.8086922242
 20
-22.3524902394
  0
LWPOLYLINE
  5
279
100
AcDbEntity
  8
RACCORDO
100
AcDbPolyline
 62
7
  6
CONTINUOUS
 90
22
 70
0
 10
2.3712073137
 20
-23.7953389668
 10
2.3604181903
 20
-23.7947915649
 10
2.3493307281
 20
-23.793363895
 10
2.3379449272
 20
-23.7911364879
 10
2.3262361469
 20
-23.7881978965
 10
2.314229028
 20
-23.7846238716
 10
2.301997492
 20
-23.7804595132
 10
2.2895487518
 20
-23.7757643703
 10
2.2768755946
 20
-23.7706018097
 10
2.2640303044
 20
-23.7649953104
 10
2.2510171723
 20
-23.758990232
 10
2.2378319072
 20
-23.7526365647
 10
2.2245139203
 20
-23.7459460582
 10
2.2110654333
 20
-23.7389542831
 10
2.1974842244
 20
-23.7317013921
 10
2.1838030396
 20
-23.724193673
 10
2.1700229279
 20
-23.7164601879
 10
2.1561428402
 20
-23.708533951
 10
2.1421923756
 20
-23.7004191901
 10
2.128171775
 20
-23.6921405291
 10
2.1140807976
 20
-23.6837259593
 10
2.0999483201
 20
-23.6751796798
  0
LWPOLYLINE
  5
27A
100
AcDbEntity
  8
RACCORDO
100
AcDbPolyline
 62
250
  6
CONTINUOUS
 90
16
 70
0
 10
-12.9074274394
 20
-20.5413250388
 10
-12.9038491879
 20
-20.5448705471
 10
-12.8949526567
 20
-20.5483780658
 10
-12.8808331709
 20
-20.5518100121
 10
-12.8616420191
 20
-20.5551296132
 10
-12.8375848321
 20
-20.5583012999
 10
-12.8089193794
 20
-20.5612910882
 10
-12.7759528079
 20
-20.5640669428
 10
-12.73903835
 20
-20.5665991207
 10
-12.6985715395
 20
-20.56886049
 10
-12.6549859731
 20
-20.5708268204
 10
-12.6087486645
 20
-20.5724770429
 10
-12.5603550407
 20
-20.5737934758
 10
-12.5103236331
 20
-20.5747620137
 10
-12.4591905219
 20
-20.5753722788
 10
-12.4075035919
 20
-20.5756177322
  0
LWPOLYLINE
  5
27B
100
AcDbEntity
  8
ASSI
100
AcDbPolyline
 62
250
  6
CONTINUOUS
 90
16
 70
0
 10
-12.9074274394
 20
-20.5413250388
 10
-12.9038491875
 20
-20.5448705471
 10
-12.894952656
 20
-20.5483780657
 10
-12.8808331699
 20
-20.551810012
 10
-12.861642018
 20
-20.5551296131
 10
-12.8375848308
 20
-20.5583012998
 10
-12.8089193781
 20
-20.5612910881
 10
-12.7759528065
 20
-20.5640669426
 10
-12.7390383487
 20
-20.5665991205
 10
-12.6985715382
 20
-20.5688604898
 10
-12.654985972
 20
-20.5708268201
 10
-12.6087486636
 20
-20.5724770427
 10
-12.56035504
 20
-20.5737934755
 10
-12.5103236326
 20
-20.5747620134
 10
-12.4591905217
 20
-20.5753722785
 10
-12.4075035919
 20
-20.5756177319
  0
LINE
  5
27C
100
AcDbEntity
  8
RACCORDO
100
AcDbLine
 62
250
  6
CONTINUOUS
 10
9.1379773812
 20
-21.8080186365
 11
9.1603248699
 21
-21.8080186365
  0
LINE
  5
27D
100
AcDbEntity
  8
RACCORDO
100
AcDbLine
 62
250
  6
CONTINUOUS
 10
-12.9879773809
 20
-21.8080186378
 11
-13.0103248699
 21
-21.8080186365
  0
LINE
  5
27E
100
AcDbEntity
  8
RACCORDO
100
AcDbLine
 62
250
  6
CONTINUOUS
 10
8.5575035919
 20
-20.575617735
 11
-12.4075035919
 21
-20.575617735
  0
LINE
  5
27F
100
AcDbEntity
  8
ASSI
100
AcDbLine
 62
250
  6
CONTINUOUS
 10
8.5575035919
 20
-20.575617735
 11
-12.4075035919
 21
-20.575617735
  0
LINE
  5
280
100
AcDbEntity
  8
RACCORDO
100
AcDbLine
 62
7
  6
CONTINUOUS
 10
2.0430905905
 20
23.6400757416
 11
1.9720826234
 21
23.5953423515
  0
LINE
  5
281
100
AcDbEntity
  8
RACCORDO
100
AcDbLine
 62
7
  6
CONTINUOUS
 10
2.0715581838
 20
23.6577812011
 11
2.0430905905
 21
23.6400757416
  0
LINE
  5
282
100
AcDbEntity
  8
RACCORDO
100
AcDbLine
 62
7
  6
CONTINUOUS
 10
2.0999483201
 20
-23.6751796798
 11
2.0715581838
 21
-23.6577812011
  0
LINE
  5
283
100
AcDbEntity
  8
RACCORDO
100
AcDbLine
 62
7
  6
CONTINUOUS
 10
2.0715581838
 20
-23.6577812011
 11
2.0288388153
 21
-23.6311538461
  0
LINE
  5
284
100
AcDbEntity
  8
RACCORDO
100
AcDbLine
 62
7
  6
CONTINUOUS
 10
2.0288388153
 20
-23.6311538461
 11
1.9720826234
 21
-23.5953423515
  0
LINE
  5
285
100
AcDbEntity
  8
RACCORDO
100
AcDbLine
 62
7
  6
CONTINUOUS
 10
2.4720741618
 20
23.7970741618
 11
2.475
 21
23.8
  0
LINE
  5
286
100
AcDbEntity
  8
RACCORDO
100
AcDbLine
 62
7
  6
CONTINUOUS
 10
2.4720741618
 20
-23.7970741618
 11
2.475
 21
-23.8
  0
LWPOLYLINE
  5
287
100
AcDbEntity
  8
RACCORDO
100
AcDbPolyline
 62
250
  6
CONTINUOUS
 90
16
 70
0
 10
-12.9239278745
 20
-21.4713691811
 10
-12.9211447843
 20
-21.5235309433
 10
-12.9129213522
 20
-21.5751219887
 10
-12.8993475375
 20
-21.6255777379
 10
-12.8805718501
 20
-21.6743460333
 10
-12.8567997295
 20
-21.7208931711
 10
-12.8282913011
 20
-21.7647097444
 10
-12.7953585187
 20
-21.805316236
 10
-12.7583617603
 20
-21.8422682492
 10
-12.7177058962
 20
-21.8751613671
 10
-12.673835829
 20
-21.9036356063
 10
-12.6272316436
 20
-21.9273793364
 10
-12.5784033729
 20
-21.9461326869
 10
-12.5278853787
 20
-21.9596904132
 10
-12.4762304998
 20
-21.9679041345
 10
-12.424004027
 20
-21.9706839486
  0
LWPOLYLINE
  5
288
100
AcDbEntity
  8
ASSI
100
AcDbPolyline
 62
250
  6
CONTINUOUS
 90
16
 70
0
 10
-12.9239278745
 20
-21.4713691811
 10
-12.9211447932
 20
-21.5235308589
 10
-12.9129213847
 20
-21.5751218362
 10
-12.8993476037
 20
-21.6255775351
 10
-12.8805719547
 20
-21.674345799
 10
-12.8567998728
 20
-21.7208929235
 10
-12.8282914795
 20
-21.7647094993
 10
-12.7953587245
 20
-21.8053160078
 10
-12.7583619827
 20
-21.8422680492
 10
-12.7177061235
 20
-21.8751612021
 10
-12.6738360477
 20
-21.9036354802
 10
-12.6272318392
 20
-21.9273792494
 10
-12.5784035339
 20
-21.9461326346
 10
-12.5278854954
 20
-21.9596903884
 10
-12.4762305623
 20
-21.9679041279
 10
-12.424004027
 20
-21.9706839486
  0
LWPOLYLINE
  5
289
100
AcDbEntity
  8
RACCORDO
100
AcDbPolyline
 62
250
  6
CONTINUOUS
 90
31
 70
0
 10
-12.5619014213
 20
-24.2369056521
 10
-12.5615583827
 20
-24.2499891381
 10
-12.5605310928
 20
-24.2630367647
 10
-12.5588223673
 20
-24.2760127708
 10
-12.5564368893
 20
-24.2888815916
 10
-12.5533811971
 20
-24.3016079562
 10
-12.5496636657
 20
-24.3141569839
 10
-12.5452944842
 20
-24.3264942801
 10
-12.5402856277
 20
-24.3385860308
 10
-12.5346508246
 20
-24.3503990946
 10
-12.5284055187
 20
-24.3619010942
 10
-12.5215668272
 20
-24.3730605047
 10
-12.5141534939
 20
-24.3838467403
 10
-12.5061858371
 20
-24.3942302379
 10
-12.4976856948
 20
-24.4041825384
 10
-12.4886763643
 20
-24.4136763643
 10
-12.4791825384
 20
-24.4226856948
 10
-12.4692302379
 20
-24.4311858371
 10
-12.4588467403
 20
-24.4391534939
 10
-12.4480605047
 20
-24.4465668272
 10
-12.4369010942
 20
-24.4534055187
 10
-12.4253990946
 20
-24.4596508246
 10
-12.4135860308
 20
-24.4652856277
 10
-12.4014942801
 20
-24.4702944842
 10
-12.3891569839
 20
-24.4746636657
 10
-12.3766079562
 20
-24.4783811971
 10
-12.3638815916
 20
-24.4814368893
 10
-12.3510127708
 20
-24.4838223673
 10
-12.3380367647
 20
-24.4855310928
 10
-12.3249891381
 20
-24.4865583827
 10
-12.3119056521
 20
-24.4869014213
  0
LWPOLYLINE
  5
28A
100
AcDbEntity
  8
RACCORDO
100
AcDbPolyline
 62
7
  6
CONTINUOUS
 90
34
 70
0
 10
-12.575
 20
-24.2500042308
 10
-12.5747168498
 20
-24.261899516
 10
-12.5738680342
 20
-24.2737678556
 10
-12.5724554741
 20
-24.2855823661
 10
-12.5704823677
 20
-24.2973162875
 10
-12.5679531817
 20
-24.3089430388
 10
-12.5648736417
 20
-24.320436279
 10
-12.5612507213
 20
-24.3317699738
 10
-12.5570926258
 20
-24.3429184493
 10
-12.5524087722
 20
-24.3538564463
 10
-12.5472097688
 20
-24.3645591876
 10
-12.5415073916
 20
-24.3750024283
 10
-12.5353145581
 20
-24.3851625059
 10
-12.5286452955
 20
-24.3950164051
 10
-12.5215147107
 20
-24.4045418038
 10
-12.5139389589
 20
-24.4137171191
 10
-12.5059352005
 20
-24.4225215661
 10
-12.4975215661
 20
-24.4309352005
 10
-12.4887171191
 20
-24.4389389589
 10
-12.4795418038
 20
-24.4465147107
 10
-12.4700164051
 20
-24.4536452955
 10
-12.4601625059
 20
-24.4603145581
 10
-12.4500024283
 20
-24.4665073916
 10
-12.4395591876
 20
-24.4722097688
 10
-12.4288564463
 20
-24.4774087722
 10
-12.4179184493
 20
-24.4820926258
 10
-12.4067699738
 20
-24.4862507213
 10
-12.395436279
 20
-24.4898736417
 10
-12.3839430388
 20
-24.4929531817
 10
-12.3723162875
 20
-24.4954823677
 10
-12.3605823661
 20
-24.4974554741
 10
-12.3487678556
 20
-24.4988680342
 10
-12.336899516
 20
-24.4997168498
 10
-12.3250042308
 20
-24.5
  0
LWPOLYLINE
  5
28B
100
AcDbEntity
  8
RACCORDO
100
AcDbPolyline
 62
250
  6
CONTINUOUS
 90
37
 70
0
 10
-13.0103248699
 20
-21.8080186365
 10
-13.0098850374
 20
-21.8276297776
 10
-13.0085902463
 20
-21.8472028756
 10
-13.0064430249
 20
-21.866700743
 10
-13.0034475615
 20
-21.8860862023
 10
-12.9996095923
 20
-21.9053225683
 10
-12.9949363177
 20
-21.9243737033
 10
-12.9894365339
 20
-21.9432036881
 10
-12.9831207627
 20
-21.9617764548
 10
-12.9760011276
 20
-21.9800562739
 10
-12.9680912828
 20
-21.9980082662
 10
-12.9594062548
 20
-22.0155985031
 10
-12.9499625051
 20
-22.0327936255
 10
-12.93977801
 20
-22.0495609754
 10
-12.9288721634
 20
-22.0658687011
 10
-12.9172656315
 20
-22.0816858541
 10
-12.9049804461
 20
-22.0969824337
 10
-12.8920400174
 20
-22.111729324
 10
-12.8784690088
 20
-22.1258983846
 10
-12.8642932425
 20
-22.1394626968
 10
-12.8495396863
 20
-22.1523965055
 10
-12.8342364593
 20
-22.1646751536
 10
-12.8184127369
 20
-22.176275284
 10
-12.8020985679
 20
-22.1871749276
 10
-12.7853248584
 20
-22.1973534354
 10
-12.7681235163
 20
-22.2067914619
 10
-12.7505272396
 20
-22.2154710916
 10
-12.732569315
 20
-22.2233758917
 10
-12.7142837222
 20
-22.2304908764
 10
-12.6957053713
 20
-22.2368024432
 10
-12.6768698808
 20
-22.2422984988
 10
-12.6578133132
 20
-22.2469685596
 10
-12.6385716611
 20
-22.2508038516
 10
-12.6191810659
 20
-22.2537971777
 10
-12.599678236
 20
-22.2559428275
 10
-12.5801003891
 20
-22.2572366526
 10
-12.5604847413
 20
-22.2576761526
  0
LINE
  5
28C
100
AcDbEntity
  8
RACCORDO
100
AcDbLine
 62
250
  6
CONTINUOUS
 10
-12.5619014213
 20
-23.8443375673
 11
-12.5677033983
 21
-23.2685605037
  0
LINE
  5
28D
100
AcDbEntity
  8
ASSI
100
AcDbLine
 62
250
  6
CONTINUOUS
 10
-12.9077576984
 20
20.6779373843
 11
-12.9093791208
 21
20.9367399035
  0
LINE
  5
28E
100
AcDbEntity
  8
RACCORDO
100
AcDbLine
 62
250
  6
CONTINUOUS
 10
-12.9077578339
 20
20.6779671246
 11
-12.9093793445
 21
20.9367647231
  0
LINE
  5
28F
100
AcDbEntity
  8
ASSI
100
AcDbLine
 62
7
  6
CONTINUOUS
 10
-13.075
 20
-17.6716990487
 11
-13.075
 21
17.6716990487
  0
LINE
  5
290
100
AcDbEntity
  8
RACCORDO
100
AcDbLine
 62
7
  6
CONTINUOUS
 10
-13.075
 20
-21.9411874598
 11
-13.075
 21
21.9411874598
  0
LINE
  5
291
100
AcDbEntity
  8
RACCORDO
100
AcDbLine
 62
250
  6
CONTINUOUS
 10
-13.0103248699
 20
21.8080186365
 11
-13.0103248699
 21
-21.8080186365
  0
LINE
  5
292
100
AcDbEntity
  8
RACCORDO
100
AcDbLine
 62
7
  6
CONTINUOUS
 10
-13.0
 20
-21.6997711479
 11
-13.0
 21
21.6997711479
  0
LINE
  5
293
100
AcDbEntity
  8
ASSI
100
AcDbLine
 62
7
  6
CONTINUOUS
 10
-13.0
 20
-21.6997711479
 11
-13.0
 21
21.6997711479
  0
LWPOLYLINE
  5
294
100
AcDbEntity
  8
RACCORDO
100
AcDbPolyline
 62
250
  6
CONTINUOUS
 90
12
 70
0
 10
-12.9036666485
 20
-17.121363997
 10
-12.9005894976
 20
-13.699966209
 10
-12.8981959866
 20
-10.2771316747
 10
-12.8964859448
 20
-6.8523814404
 10
-12.895459543
 20
-3.4261944598
 10
-12.895117294
 20
-0.0000075945
 10
-12.8954595391
 20
3.426178439
 10
-12.896485937
 20
6.8523643573
 10
-12.8981959771
 20
10.2771154477
 10
-12.9005894891
 20
13.6999534726
 10
-12.9036666432
 20
17.1213566697
 10
-12.9077578339
 20
20.6779671246
  0
LWPOLYLINE
  5
295
100
AcDbEntity
  8
ASSI
100
AcDbPolyline
 62
250
  6
CONTINUOUS
 90
12
 70
0
 10
-12.9036666502
 20
-17.1213668163
 10
-12.9005895003
 20
-13.699970764
 10
-12.8981959897
 20
-10.2771368817
 10
-12.8964859471
 20
-6.8523858512
 10
-12.8954595438
 20
-3.4261969908
 10
-12.895117294
 20
-0.0000082552
 10
-12.8954595396
 20
3.4261795778
 10
-12.8964859387
 20
6.852367286
 10
-12.8981959794
 20
10.2771192484
 10
-12.9005894911
 20
13.6999569244
 10
-12.9036666444
 20
17.1213588546
 10
-12.9077576984
 20
20.6779373843
  0
LINE
  5
296
100
AcDbEntity
  8
ASSI
100
AcDbLine
 62
250
  6
CONTINUOUS
 10
-12.9080424493
 20
-20.7443383497
 11
-12.9036666502
 21
-17.1213668163
  0
LINE
  5
297
100
AcDbEntity
  8
RACCORDO
100
AcDbLine
 62
250
  6
CONTINUOUS
 10
-12.9080425458
 20
-20.744358522
 11
-12.9036666485
 21
-17.121363997
  0
LINE
  5
298
100
AcDbEntity
  8
ASSI
100
AcDbLine
 62
250
  6
CONTINUOUS
 10
-12.9093777946
 20
-20.9365889219
 11
-12.9080424493
 21
-20.7443383497
  0
LINE
  5
299
100
AcDbEntity
  8
RACCORDO
100
AcDbLine
 62
250
  6
CONTINUOUS
 10
-12.9093779414
 20
-20.9366060262
 11
-12.9080425458
 21
-20.744358522
  0
LINE
  5
29A
100
AcDbEntity
  8
RACCORDO
100
AcDbLine
 62
250
  6
CONTINUOUS
 10
-12.5677033983
 20
23.2685605037
 11
-12.5619014213
 21
23.8443375673
  0
LWPOLYLINE
  5
29B
100
AcDbEntity
  8
RACCORDO
100
AcDbPolyline
 62
7
  6
CONTINUOUS
 90
25
 70
0
 10
-13.0575792813
 20
21.9498971557
 10
-13.0570962423
 20
21.9705768201
 10
-13.0556601858
 20
21.9912541992
 10
-13.0532684081
 20
22.0118850626
 10
-13.0499213131
 20
22.0324191121
 10
-13.0456198278
 20
22.0528173664
 10
-13.0403627836
 20
22.0730517019
 10
-13.0341560209
 20
22.0930690103
 10
-13.0270033068
 20
22.1128310764
 10
-13.0188959063
 20
22.1323294161
 10
-13.0098331822
 20
22.1515266393
 10
-12.9998269012
 20
22.1703626509
 10
-12.9888847298
 20
22.1887921534
 10
-12.9770059964
 20
22.2067839662
 10
-12.9642162796
 20
22.2242692499
 10
-12.9505733173
 20
22.2411512162
 10
-12.9361004302
 20
22.2573906673
 10
-12.9208300719
 20
22.2729413932
 10
-12.9048523406
 20
22.2877109985
 10
-12.8882219144
 20
22.3016577512
 10
-12.8709680761
 20
22.3147655192
 10
-12.8531549511
 20
22.3269943548
 10
-12.8348716514
 20
22.3382980563
 10
-12.8161239551
 20
22.3486875146
 10
-12.8086922242
 20
22.3524902394
  0
LWPOLYLINE
  5
29C
100
AcDbEntity
  8
RACCORDO
100
AcDbPolyline
 62
250
  6
CONTINUOUS
 90
16
 70
0
 10
-12.9239278745
 20
21.4713691811
 10
-12.9211447179
 20
21.5235315701
 10
-12.9129211105
 20
21.5751231208
 10
-12.8993470474
 20
21.6255792421
 10
-12.8805710761
 20
21.6743477682
 10
-12.856798671
 20
21.7208950016
 10
-12.8282899852
 20
21.7647115535
 10
-12.7953570028
 20
21.8053179181
 10
-12.7583601256
 20
21.8422697204
 10
-12.717704228
 20
21.875162579
 10
-12.6738342273
 20
21.9036365315
 10
-12.6272302141
 20
21.9273799735
 10
-12.5784021985
 20
21.9461330693
 10
-12.5278845292
 20
21.9596905945
 10
-12.4762300453
 20
21.9679041827
 10
-12.424004027
 20
21.9706839485
  0
LWPOLYLINE
  5
29D
100
AcDbEntity
  8
ASSI
100
AcDbPolyline
 62
250
  6
CONTINUOUS
 90
16
 70
0
 10
-12.9239278745
 20
21.4713691811
 10
-12.9211447179
 20
21.5235315701
 10
-12.9129211105
 20
21.5751231208
 10
-12.8993470474
 20
21.6255792421
 10
-12.8805710761
 20
21.6743477682
 10
-12.856798671
 20
21.7208950016
 10
-12.8282899852
 20
21.7647115535
 10
-12.7953570029
 20
21.8053179181
 10
-12.7583601256
 20
21.8422697204
 10
-12.717704228
 20
21.875162579
 10
-12.6738342273
 20
21.9036365315
 10
-12.6272302141
 20
21.9273799735
 10
-12.5784021985
 20
21.9461330693
 10
-12.5278845292
 20
21.9596905945
 10
-12.4762300454
 20
21.9679041827
 10
-12.424004027
 20
21.9706839485
  0
LWPOLYLINE
  5
29E
100
AcDbEntity
  8
RACCORDO
100
AcDbPolyline
 62
7
  6
CONTINUOUS
 90
34
 70
0
 10
-10.1822966017
 20
-23.2685605037
 10
-10.1825943001
 20
-23.2623213387
 10
-10.183365445
 20
-23.2560506146
 10
-10.1846156281
 20
-23.2497665541
 10
-10.1863494287
 20
-23.2434948449
 10
-10.1885705636
 20
-23.2372475907
 10
-10.1912822208
 20
-23.2310233419
 10
-10.1944863056
 20
-23.2248425893
 10
-10.198183776
 20
-23.2187250901
 10
-10.2023755382
 20
-23.2126689974
 10
-10.2070605058
 20
-23.2066958176
 10
-10.2122366111
 20
-23.2008263377
 10
-10.2179024354
 20
-23.1950583591
 10
-10.2240536702
 20
-23.1894141392
 10
-10.2306849097
 20
-23.1839153247
 10
-10.2377921899
 20
-23.1785595672
 10
-10.2453676911
 20
-23.1733695978
 10
-10.2534023162
 20
-23.1683676789
 10
-10.2618891403
 20
-23.1635515428
 10
-10.2708165123
 20
-23.1589440234
 10
-10.2801712262
 20
-23.1545676904
 10
-10.2899427294
 20
-23.1504206011
 10
-10.3001151706
 20
-23.1465251955
 10
-10.3106707964
 20
-23.1429039103
 10
-10.3215945654
 20
-23.1395553184
 10
-10.3328659273
 20
-23.1365008316
 10
-10.3444622958
 20
-23.1337620879
 10
-10.3563635922
 20
-23.1313381705
 10
-10.3685311766
 20
-23.1292516537
 10
-10.3809501439
 20
-23.1275184165
 10
-10.393635211
 20
-23.1261324424
 10
-10.4065711535
 20
-23.1251094431
 10
-10.4197110362
 20
-23.1244803027
 10
-10.4330200327
 20
-23.1242659097
  0
LWPOLYLINE
  5
29F
100
AcDbEntity
  8
RACCORDO
100
AcDbPolyline
 62
7
  6
CONTINUOUS
 90
34
 70
0
 10
-12.5677033983
 20
23.2685605037
 10
-12.5674040041
 20
23.2622690404
 10
-12.566628407
 20
23.2559868557
 10
-12.5653718494
 20
23.2497139387
 10
-12.5636307351
 20
23.2434379966
 10
-12.5614020981
 20
23.2371712996
 10
-12.5586830955
 20
23.230950681
 10
-12.5554725317
 20
23.2247755831
 10
-12.5517701365
 20
23.2186465398
 10
-12.5475750007
 20
23.2126020217
 10
-12.5428887392
 20
23.206641552
 10
-12.5377139182
 20
23.2007655826
 10
-12.5320515827
 20
23.195013977
 10
-12.5259063864
 20
23.1893863152
 10
-12.5192840184
 20
23.1838829914
 10
-12.5121876467
 20
23.1785450899
 10
-12.5046252354
 20
23.1733722596
 10
-12.4966059577
 20
23.168364825
 10
-12.4881355139
 20
23.1635648829
 10
-12.479225515
 20
23.1589722122
 10
-12.4698890629
 20
23.1545870069
 10
-12.4601350912
 20
23.150451986
 10
-12.4499792668
 20
23.146567179
 10
-12.4394391226
 20
23.1429325294
 10
-12.4285277815
 20
23.1395906262
 10
-12.4172654921
 20
23.1365419319
 10
-12.4056746495
 20
23.1337859579
 10
-12.3937734292
 20
23.1313638659
 10
-12.3815741599
 20
23.1292767261
 10
-12.3691170983
 20
23.1275234432
 10
-12.3564659693
 20
23.1261419346
 10
-12.3436641406
 20
23.1251448353
 10
-12.3307331893
 20
23.1245194958
 10
-12.3177071958
 20
23.1242659097
  0
LWPOLYLINE
  5
2A0
100
AcDbEntity
  8
RACCORDO
100
AcDbPolyline
 62
250
  6
CONTINUOUS
 90
31
 70
0
 10
-12.5619014213
 20
23.8443375673
 10
-12.5615228657
 20
23.833039595
 10
-12.5604637381
 20
23.821769291
 10
-12.5587263616
 20
23.8105574212
 10
-12.5563146602
 20
23.7994336121
 10
-12.5532347899
 20
23.78842936
 10
-12.5494957389
 20
23.7775778202
 10
-12.5451081945
 20
23.7669096972
 10
-12.5400837955
 20
23.7564530239
 10
-12.5344361149
 20
23.746236105
 10
-12.5281804223
 20
23.7362866999
 10
-12.5213338477
 20
23.7266321754
 10
-12.5139152395
 20
23.7172991519
 10
-12.5059449354
 20
23.7083132018
 10
-12.4974446406
 20
23.6996987826
 10
-12.4884375501
 20
23.6914794042
 10
-12.4789482465
 20
23.6836775075
 10
-12.4690026594
 20
23.6763144193
 10
-12.4586279765
 20
23.6694102704
 10
-12.4478525441
 20
23.6629839239
 10
-12.4367057861
 20
23.6570529269
 10
-12.425218149
 20
23.6516334796
 10
-12.4134209923
 20
23.6467403776
 10
-12.4013465559
 20
23.6423869945
 10
-12.3890278763
 20
23.6385852371
 10
-12.3764986409
 20
23.6353454907
 10
-12.3637930381
 20
23.6326765842
 10
-12.3509457173
 20
23.6305857918
 10
-12.33799175
 20
23.6290788219
 10
-12.3249665362
 20
23.6281597935
 10
-12.3119056521
 20
23.6278312164
  0
LWPOLYLINE
  5
2A1
100
AcDbEntity
  8
RACCORDO
100
AcDbPolyline
 62
250
  6
CONTINUOUS
 90
31
 70
0
 10
-10.1880985787
 20
-23.8443375673
 10
-10.1884779104
 20
-23.8330274168
 10
-10.1895388924
 20
-23.8217481519
 10
-10.1912786273
 20
-23.810530574
 10
-10.1936923642
 20
-23.7994053159
 10
-10.1967735118
 20
-23.7884027584
 10
-10.200513656
 20
-23.7775529472
 10
-10.2049025834
 20
-23.7668855107
 10
-10.2099283087
 20
-23.7564295797
 10
-10.2155771077
 20
-23.7462137069
 10
-10.2218335547
 20
-23.7362657898
 10
-10.2286805646
 20
-23.7266129942
 10
-10.2360994397
 20
-23.7172816797
 10
-10.2440699206
 20
-23.7082973282
 10
-10.2525702417
 20
-23.6996844742
 10
-10.2615771902
 20
-23.6914666374
 10
-10.2710661701
 20
-23.6836662592
 10
-10.281011269
 20
-23.6763046407
 10
-10.2913853289
 20
-23.6694018849
 10
-10.3021600204
 20
-23.6629768418
 10
-10.3133059201
 20
-23.6570470569
 10
-10.3247925909
 20
-23.6516287232
 10
-10.3365886651
 20
-23.646736637
 10
-10.34866193
 20
-23.6423841576
 10
-10.3609794162
 20
-23.6385831707
 10
-10.373507487
 20
-23.6353440559
 10
-10.3862119311
 20
-23.6326756587
 10
-10.3990580552
 20
-23.6305852658
 10
-10.4120107793
 20
-23.6290785857
 10
-10.4250347321
 20
-23.6281597328
 10
-10.4380943479
 20
-23.6278312164
  0
LWPOLYLINE
  5
2A2
100
AcDbEntity
  8
RACCORDO
100
AcDbPolyline
 62
250
  6
CONTINUOUS
 90
8
 70
0
 10
-12.9159407395
 20
21.3329169803
 10
-12.9169969576
 20
21.3660622302
 10
-12.9180913351
 20
21.3948911794
 10
-12.9192229068
 20
21.4194655613
 10
-12.9203741035
 20
21.4394355363
 10
-12.9215390688
 20
21.4546844914
 10
-12.9227236592
 20
21.4653290397
 10
-12.9239278745
 20
21.4713691811
  0
LWPOLYLINE
  5
2A3
100
AcDbEntity
  8
ASSI
100
AcDbPolyline
 62
250
  6
CONTINUOUS
 90
8
 70
0
 10
-12.9159409995
 20
21.3329253151
 10
-12.9169972602
 20
21.3660704079
 10
-12.9180916779
 20
21.3948987923
 10
-12.9192232782
 20
21.4194721009
 10
-12.9203744583
 20
21.4394407522
 10
-12.9215393506
 20
21.4546882191
 10
-12.9227238227
 20
21.4653310288
 10
-12.9239278745
 20
21.4713691811
  0
LWPOLYLINE
  5
2A4
100
AcDbEntity
  8
RACCORDO
100
AcDbPolyline
 62
250
  6
CONTINUOUS
 90
6
 70
0
 10
-12.4181581433
 20
21.8557484884
 10
-12.4192878084
 20
21.8925148216
 10
-12.4204388136
 20
21.9225188546
 10
-12.4216058779
 20
21.9456173491
 10
-12.4227942824
 20
21.9616982402
 10
-12.424004027
 20
21.9706839485
  0
LWPOLYLINE
  5
2A5
100
AcDbEntity
  8
ASSI
100
AcDbPolyline
 62
250
  6
CONTINUOUS
 90
6
 70
0
 10
-12.4181581624
 20
21.8557486687
 10
-12.4192878309
 20
21.8925151017
 10
-12.4204388363
 20
21.9225191238
 10
-12.4216058964
 20
21.9456175234
 10
-12.4227942932
 20
21.9616983094
 10
-12.424004027
 20
21.9706839485
  0
LINE
  5
2A6
100
AcDbEntity
  8
RACCORDO
100
AcDbLine
 62
250
  6
CONTINUOUS
 10
-12.91395456
 20
21.2543978177
 11
-12.9159407395
 21
21.3329169803
  0
LINE
  5
2A7
100
AcDbEntity
  8
ASSI
100
AcDbLine
 62
250
  6
CONTINUOUS
 10
-12.9139547057
 20
21.2544043805
 11
-12.9159409995
 21
21.3329253151
  0
LINE
  5
2A8
100
AcDbEntity
  8
RACCORDO
100
AcDbLine
 62
250
  6
CONTINUOUS
 10
-12.4160107504
 20
21.7626442994
 11
-12.4181581433
 21
21.8557484884
  0
LINE
  5
2A9
100
AcDbEntity
  8
ASSI
100
AcDbLine
 62
250
  6
CONTINUOUS
 10
-12.416010763
 20
21.7626441871
 11
-12.4181581624
 21
21.8557486687
  0
LINE
  5
2AA
100
AcDbEntity
  8
RACCORDO
100
AcDbLine
 62
250
  6
CONTINUOUS
 10
-12.9121775529
 20
21.16090368
 11
-12.91395456
 21
21.2543978177
  0
LINE
  5
2AB
100
AcDbEntity
  8
ASSI
100
AcDbLine
 62
250
  6
CONTINUOUS
 10
-12.9121775546
 20
21.1609037692
 11
-12.9139547057
 21
21.2544043805
  0
LINE
  5
2AC
100
AcDbEntity
  8
RACCORDO
100
AcDbLine
 62
250
  6
CONTINUOUS
 10
-12.4140271588
 20
21.6449768379
 11
-12.4160107504
 21
21.7626442994
  0
LINE
  5
2AD
100
AcDbEntity
  8
ASSI
100
AcDbLine
 62
250
  6
CONTINUOUS
 10
-12.414027167
 20
21.6449765425
 11
-12.416010763
 21
21.7626441871
  0
LINE
  5
2AE
100
AcDbEntity
  8
RACCORDO
100
AcDbLine
 62
250
  6
CONTINUOUS
 10
-12.4114554311
 20
21.4275413638
 11
-12.4140271588
 21
21.6449768379
  0
LINE
  5
2AF
100
AcDbEntity
  8
ASSI
100
AcDbLine
 62
250
  6
CONTINUOUS
 10
-12.4114554469
 20
21.4275427294
 11
-12.414027167
 21
21.6449765425
  0
LINE
  5
2B0
100
AcDbEntity
  8
RACCORDO
100
AcDbLine
 62
250
  6
CONTINUOUS
 10
-12.3119056521
 20
-23.6278312164
 11
-12.3169799673
 21
-23.1242659097
  0
LWPOLYLINE
  5
2B1
100
AcDbEntity
  8
ASSI
100
AcDbPolyline
 62
250
  6
CONTINUOUS
 90
3
 70
0
 10
-12.9093791208
 20
20.9367399035
 10
-12.9099752276
 20
20.9967232901
 10
-12.9121775546
 20
21.1609037692
  0
LWPOLYLINE
  5
2B2
100
AcDbEntity
  8
RACCORDO
100
AcDbPolyline
 62
250
  6
CONTINUOUS
 90
3
 70
0
 10
-12.9093793445
 20
20.9367647231
 10
-12.909975416
 20
20.9967416866
 10
-12.9121775529
 20
21.16090368
  0
LINE
  5
2B3
100
AcDbEntity
  8
RACCORDO
100
AcDbLine
 62
250
  6
CONTINUOUS
 10
-12.4089370778
 20
21.0759106615
 11
-12.4114554311
 21
21.4275413638
  0
LINE
  5
2B4
100
AcDbEntity
  8
ASSI
100
AcDbLine
 62
250
  6
CONTINUOUS
 10
-12.4089370744
 20
21.0759105545
 11
-12.4114554469
 21
21.4275427294
  0
LINE
  5
2B5
100
AcDbEntity
  8
RACCORDO
100
AcDbLine
 62
250
  6
CONTINUOUS
 10
-12.4076299632
 20
20.6786148824
 11
-12.4089370778
 21
21.0759106615
  0
LINE
  5
2B6
100
AcDbEntity
  8
ASSI
100
AcDbLine
 62
250
  6
CONTINUOUS
 10
-12.4076299613
 20
20.6786149271
 11
-12.4089370744
 21
21.0759105545
  0
LINE
  5
2B7
100
AcDbEntity
  8
RACCORDO
100
AcDbLine
 62
7
  6
CONTINUOUS
 10
-12.575
 20
-22.4
 11
-12.575
 21
-24.2500042308
  0
LINE
  5
2B8
100
AcDbEntity
  8
RACCORDO
100
AcDbLine
 62
7
  6
CONTINUOUS
 10
-12.575
 20
22.4
 11
-12.575
 21
24.2500042308
  0
LINE
  5
2B9
100
AcDbEntity
  8
RACCORDO
100
AcDbLine
 62
250
  6
CONTINUOUS
 10
-12.5677033983
 20
-23.2685605037
 11
-12.5677005956
 21
-22.3342460012
  0
LINE
  5
2BA
100
AcDbEntity
  8
RACCORDO
100
AcDbLine
 62
250
  6
CONTINUOUS
 10
-12.5677005956
 20
22.3342460012
 11
-12.5677033983
 21
23.2685605037
  0
LINE
  5
2BB
100
AcDbEntity
  8
RACCORDO
100
AcDbLine
 62
250
  6
CONTINUOUS
 10
-12.5619014213
 20
24.2369056521
 11
-12.5619014213
 21
23.8443375673
  0
LINE
  5
2BC
100
AcDbEntity
  8
RACCORDO
100
AcDbLine
 62
250
  6
CONTINUOUS
 10
-12.5619014213
 20
-23.8443375673
 11
-12.5619014213
 21
-24.2369056521
  0
LINE
  5
2BD
100
AcDbEntity
  8
RACCORDO
100
AcDbLine
 62
250
  6
CONTINUOUS
 10
-12.5604847413
 20
-22.196014029
 11
-12.5604847413
 21
-22.2576761526
  0
LINE
  5
2BE
100
AcDbEntity
  8
RACCORDO
100
AcDbLine
 62
250
  6
CONTINUOUS
 10
-12.5604847428
 20
22.1960140287
 11
-12.5604847413
 21
22.2576761526
  0
LINE
  5
2BF
100
AcDbEntity
  8
RACCORDO
100
AcDbLine
 62
250
  6
CONTINUOUS
 10
-12.3177071958
 20
-23.1242659097
 11
-12.3177047869
 21
-22.3212199262
  0
LINE
  5
2C0
100
AcDbEntity
  8
RACCORDO
100
AcDbLine
 62
250
  6
CONTINUOUS
 10
-12.3177047869
 20
22.3212199262
 11
-12.3177071958
 21
23.1242659097
  0
LINE
  5
2C1
100
AcDbEntity
  8
RACCORDO
100
AcDbLine
 62
250
  6
CONTINUOUS
 10
-12.3119056521
 20
-23.6278312164
 11
-12.3119056521
 21
-24.4869014213
  0
LINE
  5
2C2
100
AcDbEntity
  8
RACCORDO
100
AcDbLine
 62
250
  6
CONTINUOUS
 10
-12.3119056521
 20
23.6278312164
 11
-12.3119056521
 21
24.4869014213
  0
LWPOLYLINE
  5
2C3
100
AcDbEntity
  8
RACCORDO
100
AcDbPolyline
 62
250
  6
CONTINUOUS
 90
13
 70
0
 10
-12.4075035919
 20
-20.575617735
 10
-12.4037427888
 20
-17.1506756746
 10
-12.4006656305
 20
-13.7234044019
 10
-12.3982721172
 20
-10.2942522582
 10
-12.3965620806
 20
-6.8636394901
 10
-12.3955356889
 20
-3.4320433695
 10
-12.3951934464
 20
0.0000018091
 10
-12.3955356895
 20
3.4320468125
 10
-12.3965620819
 20
6.8636424927
 10
-12.3982721188
 20
10.2942546831
 10
-12.400665632
 20
13.7234061547
 10
-12.4037427897
 20
17.150676619
 10
-12.4076299632
 20
20.6786148824
  0
LWPOLYLINE
  5
2C4
100
AcDbEntity
  8
ASSI
100
AcDbPolyline
 62
250
  6
CONTINUOUS
 90
13
 70
0
 10
-12.4075035919
 20
-20.575617735
 10
-12.4037427894
 20
-17.1506767859
 10
-12.4006656315
 20
-13.7234061695
 10
-12.3982721183
 20
-10.2942542262
 10
-12.3965620814
 20
-6.8636410452
 10
-12.3955356892
 20
-3.4320440546
 10
-12.3951934464
 20
0.0000019819
 10
-12.3955356899
 20
3.4320478267
 10
-12.3965620829
 20
6.8636443354
 10
-12.3982721201
 20
10.2942568839
 10
-12.4006656331
 20
13.7234080909
 10
-12.4037427904
 20
17.1506778212
 10
-12.4076299613
 20
20.6786149271
  0
LINE
  5
2C5
100
AcDbEntity
  8
RACCORDO
100
AcDbLine
 62
250
  6
CONTINUOUS
 10
-12.4089371086
 20
-21.0759071168
 11
-12.4075035919
 21
-20.575617735
  0
LINE
  5
2C6
100
AcDbEntity
  8
ASSI
100
AcDbLine
 62
250
  6
CONTINUOUS
 10
-12.4089371179
 20
-21.0759068098
 11
-12.4075035919
 21
-20.575617735
  0
LINE
  5
2C7
100
AcDbEntity
  8
ASSI
100
AcDbLine
 62
250
  6
CONTINUOUS
 10
-12.4114552229
 20
-21.4275343853
 11
-12.4089371179
 21
-21.0759068098
  0
LINE
  5
2C8
100
AcDbEntity
  8
RACCORDO
100
AcDbLine
 62
250
  6
CONTINUOUS
 10
-12.4114552249
 20
-21.42753389
 11
-12.4089371086
 21
-21.0759071168
  0
LINE
  5
2C9
100
AcDbEntity
  8
RACCORDO
100
AcDbLine
 62
250
  6
CONTINUOUS
 10
-12.3169799673
 20
23.1242659097
 11
-12.3119056521
 21
23.6278312164
  0
LINE
  5
2CA
100
AcDbEntity
  8
ASSI
100
AcDbLine
 62
250
  6
CONTINUOUS
 10
-12.9113760568
 20
-21.1090545052
 11
-12.9093777946
 21
-20.9365889219
  0
LINE
  5
2CB
100
AcDbEntity
  8
RACCORDO
100
AcDbLine
 62
250
  6
CONTINUOUS
 10
-12.9113761724
 20
-21.1090626527
 11
-12.9093779414
 21
-20.9366060262
  0
LINE
  5
2CC
100
AcDbEntity
  8
RACCORDO
100
AcDbLine
 62
250
  6
CONTINUOUS
 10
-12.4140268958
 20
-21.6449707085
 11
-12.4114552249
 21
-21.42753389
  0
LINE
  5
2CD
100
AcDbEntity
  8
ASSI
100
AcDbLine
 62
250
  6
CONTINUOUS
 10
-12.4140268782
 20
-21.6449697019
 11
-12.4114552229
 21
-21.4275343853
  0
LINE
  5
2CE
100
AcDbEntity
  8
ASSI
100
AcDbLine
 62
250
  6
CONTINUOUS
 10
-12.9130367623
 20
-21.2093345561
 11
-12.9113760568
 21
-21.1090545052
  0
LINE
  5
2CF
100
AcDbEntity
  8
RACCORDO
100
AcDbLine
 62
250
  6
CONTINUOUS
 10
-12.9130367625
 20
-21.2093345786
 11
-12.9113761724
 21
-21.1090626527
  0
LINE
  5
2D0
100
AcDbEntity
  8
RACCORDO
100
AcDbLine
 62
250
  6
CONTINUOUS
 10
-12.4160105864
 20
-21.7626420316
 11
-12.4140268958
 21
-21.6449707085
  0
LINE
  5
2D1
100
AcDbEntity
  8
ASSI
100
AcDbLine
 62
250
  6
CONTINUOUS
 10
-12.4160105919
 20
-21.7626417991
 11
-12.4140268782
 21
-21.6449697019
  0
LWPOLYLINE
  5
2D2
100
AcDbEntity
  8
RACCORDO
100
AcDbPolyline
 62
250
  6
CONTINUOUS
 90
31
 70
0
 10
-12.5619014213
 20
-23.8443375673
 10
-12.5615220896
 20
-23.8330274168
 10
-12.5604611076
 20
-23.8217481519
 10
-12.5587213727
 20
-23.810530574
 10
-12.5563076358
 20
-23.7994053159
 10
-12.5532264882
 20
-23.7884027584
 10
-12.549486344
 20
-23.7775529472
 10
-12.5450974166
 20
-23.7668855107
 10
-12.5400716913
 20
-23.7564295797
 10
-12.5344228923
 20
-23.7462137069
 10
-12.5281664453
 20
-23.7362657898
 10
-12.5213194354
 20
-23.7266129942
 10
-12.5139005603
 20
-23.7172816797
 10
-12.5059300794
 20
-23.7082973282
 10
-12.4974297583
 20
-23.6996844742
 10
-12.4884228098
 20
-23.6914666374
 10
-12.4789338299
 20
-23.6836662592
 10
-12.468988731
 20
-23.6763046407
 10
-12.4586146711
 20
-23.6694018849
 10
-12.4478399796
 20
-23.6629768418
 10
-12.4366940799
 20
-23.6570470569
 10
-12.4252074091
 20
-23.6516287232
 10
-12.4134113349
 20
-23.646736637
 10
-12.40133807
 20
-23.6423841576
 10
-12.3890205838
 20
-23.6385831707
 10
-12.376492513
 20
-23.6353440559
 10
-12.3637880689
 20
-23.6326756587
 10
-12.3509419448
 20
-23.6305852658
 10
-12.3379892207
 20
-23.6290785857
 10
-12.3249652679
 20
-23.6281597328
 10
-12.3119056521
 20
-23.6278312164
  0
LWPOLYLINE
  5
2D3
100
AcDbEntity
  8
RACCORDO
100
AcDbPolyline
 62
250
  6
CONTINUOUS
 90
31
 70
0
 10
-10.1880985787
 20
23.8443375673
 10
-10.1884771343
 20
23.833039595
 10
-10.1895362619
 20
23.821769291
 10
-10.1912736384
 20
23.8105574212
 10
-10.1936853398
 20
23.7994336121
 10
-10.1967652101
 20
23.78842936
 10
-10.2005042611
 20
23.7775778202
 10
-10.2048918055
 20
23.7669096972
 10
-10.2099162045
 20
23.7564530239
 10
-10.2155638851
 20
23.746236105
 10
-10.2218195777
 20
23.7362866999
 10
-10.2286661523
 20
23.7266321754
 10
-10.2360847605
 20
23.7172991519
 10
-10.2440550646
 20
23.7083132018
 10
-10.2525553594
 20
23.6996987826
 10
-10.2615624499
 20
23.6914794042
 10
-10.2710517535
 20
23.6836775075
 10
-10.2809973406
 20
23.6763144193
 10
-10.2913720235
 20
23.6694102704
 10
-10.3021474559
 20
23.6629839239
 10
-10.3132942139
 20
23.6570529269
 10
-10.324781851
 20
23.6516334796
 10
-10.3365790077
 20
23.6467403776
 10
-10.3486534441
 20
23.6423869945
 10
-10.3609721237
 20
23.6385852371
 10
-10.3735013591
 20
23.6353454907
 10
-10.3862069619
 20
23.6326765842
 10
-10.3990542827
 20
23.6305857918
 10
-10.41200825
 20
23.6290788219
 10
-10.4250334638
 20
23.6281597935
 10
-10.4380943479
 20
23.6278312164
  0
LWPOLYLINE
  5
2D4
100
AcDbEntity
  8
RACCORDO
100
AcDbPolyline
 62
7
  6
CONTINUOUS
 90
34
 70
0
 10
-12.5677033983
 20
-23.2685605037
 10
-12.5674056999
 20
-23.2623213387
 10
-12.566634555
 20
-23.2560506146
 10
-12.5653843719
 20
-23.2497665541
 10
-12.5636505713
 20
-23.2434948449
 10
-12.5614294364
 20
-23.2372475907
 10
-12.5587177792
 20
-23.2310233419
 10
-12.5555136944
 20
-23.2248425893
 10
-12.551816224
 20
-23.2187250901
 10
-12.5476244618
 20
-23.2126689974
 10
-12.5429394942
 20
-23.2066958176
 10
-12.5377633889
 20
-23.2008263377
 10
-12.5320975646
 20
-23.1950583591
 10
-12.5259463298
 20
-23.1894141392
 10
-12.5193150903
 20
-23.1839153247
 10
-12.5122078101
 20
-23.1785595672
 10
-12.5046323089
 20
-23.1733695978
 10
-12.4965976838
 20
-23.1683676789
 10
-12.4881108597
 20
-23.1635515428
 10
-12.4791834877
 20
-23.1589440234
 10
-12.4698287738
 20
-23.1545676904
 10
-12.4600572706
 20
-23.1504206011
 10
-12.4498848294
 20
-23.1465251955
 10
-12.4393292036
 20
-23.1429039103
 10
-12.4284054346
 20
-23.1395553184
 10
-12.4171340727
 20
-23.1365008316
 10
-12.4055377042
 20
-23.1337620879
 10
-12.3936364078
 20
-23.1313381705
 10
-12.3814688234
 20
-23.1292516537
 10
-12.3690498561
 20
-23.1275184165
 10
-12.356364789
 20
-23.1261324424
 10
-12.3434288465
 20
-23.1251094431
 10
-12.3302889638
 20
-23.1244803027
 10
-12.3169799673
 20
-23.1242659097
  0
LWPOLYLINE
  5
2D5
100
AcDbEntity
  8
RACCORDO
100
AcDbPolyline
 62
7
  6
CONTINUOUS
 90
34
 70
0
 10
-10.1822966017
 20
23.2685605037
 10
-10.1825943001
 20
23.2623213387
 10
-10.183365445
 20
23.2560506146
 10
-10.1846156281
 20
23.2497665541
 10
-10.1863494287
 20
23.2434948449
 10
-10.1885705636
 20
23.2372475907
 10
-10.1912822208
 20
23.2310233419
 10
-10.1944863056
 20
23.2248425893
 10
-10.198183776
 20
23.2187250901
 10
-10.2023755382
 20
23.2126689974
 10
-10.2070605058
 20
23.2066958176
 10
-10.2122366111
 20
23.2008263377
 10
-10.2179024354
 20
23.1950583591
 10
-10.2240536702
 20
23.1894141392
 10
-10.2306849097
 20
23.1839153247
 10
-10.2377921899
 20
23.1785595672
 10
-10.2453676911
 20
23.1733695978
 10
-10.2534023162
 20
23.1683676789
 10
-10.2618891403
 20
23.1635515428
 10
-10.2708165123
 20
23.1589440234
 10
-10.2801712262
 20
23.1545676904
 10
-10.2899427294
 20
23.1504206011
 10
-10.3001151706
 20
23.1465251955
 10
-10.3106707964
 20
23.1429039103
 10
-10.3215945654
 20
23.1395553184
 10
-10.3328659273
 20
23.1365008316
 10
-10.3444622958
 20
23.1337620879
 10
-10.3563635922
 20
23.1313381705
 10
-10.3685311766
 20
23.1292516537
 10
-10.3809501439
 20
23.1275184165
 10
-10.393635211
 20
23.1261324424
 10
-10.4065711535
 20
23.1251094431
 10
-10.4197110362
 20
23.1244803027
 10
-10.4330200327
 20
23.1242659097
  0
LINE
  5
2D6
100
AcDbEntity
  8
RACCORDO
100
AcDbLine
 62
7
  6
CONTINUOUS
 10
-10.175
 20
22.4
 11
-10.1822994044
 21
22.3342460012
  0
LWPOLYLINE
  5
2D7
100
AcDbEntity
  8
0
100
AcDbPolyline
 62
7
  6
CONTINUOUS
 90
3
 70
0
 43
0.3500000087
 10
-0.9449289263
 20
33.5357146454
 10
-1.0163574818
 20
33.3214281128
 10
-1.1592146595
 20
33.0357141571
  0
LINE
  5
2D8
100
AcDbEntity
  8
RACCORDO
100
AcDbLine
 62
250
  6
CONTINUOUS
 10
8.4750042308
 20
24.5
 11
8.4619056521
 21
24.4869014213
  0
LINE
  5
2D9
100
AcDbEntity
  8
RACCORDO
100
AcDbLine
 62
250
  6
CONTINUOUS
 10
8.725
 20
24.2500042308
 11
8.7119014213
 21
24.2369056521
  0
LINE
  5
2DA
100
AcDbEntity
  8
RACCORDO
100
AcDbLine
 62
250
  6
CONTINUOUS
 10
8.4750042308
 20
-24.5
 11
8.4619056521
 21
-24.4869014213
  0
LINE
  5
2DB
100
AcDbEntity
  8
RACCORDO
100
AcDbLine
 62
250
  6
CONTINUOUS
 10
8.725
 20
-24.2500042308
 11
8.7119014213
 21
-24.2369056521
  0
LINE
  5
2DC
100
AcDbEntity
  8
RACCORDO
100
AcDbLine
 62
7
  6
CONTINUOUS
 10
-10.175
 20
-22.4
 11
-10.1822994044
 21
-22.3342460012
  0
LWPOLYLINE
  5
2DD
100
AcDbEntity
  8
RACCORDO
100
AcDbPolyline
 62
250
  6
CONTINUOUS
 90
31
 70
0
 10
-10.1880985787
 20
24.2369056521
 10
-10.1884399859
 20
24.249957992
 10
-10.1894632485
 20
24.2629828864
 10
-10.1911668528
 20
24.275944661
 10
-10.1935479829
 20
24.2888103798
 10
-10.1966010963
 20
24.3015418449
 10
-10.200316536
 20
24.3140960295
 10
-10.2046830871
 20
24.3264358334
 10
-10.209689517
 20
24.3385301896
 10
-10.2153222656
 20
24.3503462678
 10
-10.2215660673
 20
24.3618518682
 10
-10.2284037491
 20
24.3730151866
 10
-10.2358163791
 20
24.3838052658
 10
-10.2437835214
 20
24.3941923917
 10
-10.2522834183
 20
24.4041482289
 10
-10.2612928401
 20
24.4136455633
 10
-10.2707871333
 20
24.4226583824
 10
-10.2807402367
 20
24.4311619239
 10
-10.291124826
 20
24.4391328321
 10
-10.3019124163
 20
24.446549239
 10
-10.3130734423
 20
24.4533908148
 10
-10.3245772981
 20
24.4596387939
 10
-10.3363924437
 20
24.4652760422
 10
-10.3484864809
 20
24.4702870977
 10
-10.360826237
 20
24.4746582128
 10
-10.3733778845
 20
24.4783774023
 10
-10.3861069984
 20
24.4814344634
 10
-10.3989786381
 20
24.4838210061
 10
-10.4119574955
 20
24.4855304893
 10
-10.4250079938
 20
24.4865582323
 10
-10.4380943479
 20
24.4869014213
  0
LWPOLYLINE
  5
2DE
100
AcDbEntity
  8
RACCORDO
100
AcDbPolyline
 62
7
  6
CONTINUOUS
 90
34
 70
0
 10
-10.175
 20
24.2500042308
 10
-10.1752831502
 20
24.261899516
 10
-10.1761319658
 20
24.2737678556
 10
-10.1775445259
 20
24.2855823661
 10
-10.1795176323
 20
24.2973162875
 10
-10.1820468183
 20
24.3089430388
 10
-10.1851263583
 20
24.320436279
 10
-10.1887492787
 20
24.3317699738
 10
-10.1929073742
 20
24.3429184493
 10
-10.1975912278
 20
24.3538564463
 10
-10.2027902312
 20
24.3645591876
 10
-10.2084926084
 20
24.3750024283
 10
-10.2146854419
 20
24.3851625059
 10
-10.2213547045
 20
24.3950164051
 10
-10.2284852893
 20
24.4045418038
 10
-10.2360610411
 20
24.4137171191
 10
-10.2440647995
 20
24.4225215661
 10
-10.2524784339
 20
24.4309352005
 10
-10.2612828809
 20
24.4389389589
 10
-10.2704581962
 20
24.4465147107
 10
-10.2799835949
 20
24.4536452955
 10
-10.2898374941
 20
24.4603145581
 10
-10.2999975717
 20
24.4665073916
 10
-10.3104408124
 20
24.4722097688
 10
-10.3211435537
 20
24.4774087722
 10
-10.3320815507
 20
24.4820926258
 10
-10.3432300262
 20
24.4862507213
 10
-10.354563721
 20
24.4898736417
 10
-10.3660569612
 20
24.4929531817
 10
-10.3776837125
 20
24.4954823677
 10
-10.3894176339
 20
24.4974554741
 10
-10.4012321444
 20
24.4988680342
 10
-10.413100484
 20
24.4997168498
 10
-10.4249957692
 20
24.5
  0
LINE
  5
2DF
100
AcDbEntity
  8
RACCORDO
100
AcDbLine
 62
250
  6
CONTINUOUS
 10
-10.4380943479
 20
23.6278312164
 11
-10.4330200327
 21
23.1242659097
  0
LINE
  5
2E0
100
AcDbEntity
  8
RACCORDO
100
AcDbLine
 62
250
  6
CONTINUOUS
 10
-10.1880985787
 20
23.8443375673
 11
-10.1822966017
 21
23.2685605037
  0
LINE
  5
2E1
100
AcDbEntity
  8
RACCORDO
100
AcDbLine
 62
250
  6
CONTINUOUS
 10
-10.4380943479
 20
-23.6278312164
 11
-10.4380943479
 21
-24.4869014213
  0
LINE
  5
2E2
100
AcDbEntity
  8
RACCORDO
100
AcDbLine
 62
250
  6
CONTINUOUS
 10
-10.4380943479
 20
23.6278312164
 11
-10.4380943479
 21
24.4869014213
  0
LINE
  5
2E3
100
AcDbEntity
  8
RACCORDO
100
AcDbLine
 62
250
  6
CONTINUOUS
 10
-10.4322928042
 20
23.1242659097
 11
-10.4322952131
 21
22.3212199262
  0
LINE
  5
2E4
100
AcDbEntity
  8
RACCORDO
100
AcDbLine
 62
250
  6
CONTINUOUS
 10
-10.4322952131
 20
-22.3212199262
 11
-10.4322928042
 21
-23.1242659097
  0
LINE
  5
2E5
100
AcDbEntity
  8
RACCORDO
100
AcDbLine
 62
250
  6
CONTINUOUS
 10
-10.1880985787
 20
-24.2369056521
 11
-10.1880985787
 21
-23.8443375673
  0
LINE
  5
2E6
100
AcDbEntity
  8
RACCORDO
100
AcDbLine
 62
250
  6
CONTINUOUS
 10
-10.1880985787
 20
23.8443375673
 11
-10.1880985787
 21
24.2369056521
  0
LINE
  5
2E7
100
AcDbEntity
  8
RACCORDO
100
AcDbLine
 62
250
  6
CONTINUOUS
 10
-10.1822966017
 20
23.2685605037
 11
-10.1822994044
 21
22.3342460012
  0
LINE
  5
2E8
100
AcDbEntity
  8
RACCORDO
100
AcDbLine
 62
250
  6
CONTINUOUS
 10
-10.1822994044
 20
-22.3342460012
 11
-10.1822966017
 21
-23.2685605037
  0
LINE
  5
2E9
100
AcDbEntity
  8
RACCORDO
100
AcDbLine
 62
7
  6
CONTINUOUS
 10
-10.175
 20
-22.4
 11
-10.175
 21
-24.2500042308
  0
LINE
  5
2EA
100
AcDbEntity
  8
RACCORDO
100
AcDbLine
 62
7
  6
CONTINUOUS
 10
-10.175
 20
22.4
 11
-10.175
 21
24.2500042308
  0
LINE
  5
2EB
100
AcDbEntity
  8
0
100
AcDbLine
 62
250
  6
CONTINUOUS
 10
-9.525
 20
14.15
 11
-9.525
 21
17.8499999035
  0
LINE
  5
2EC
100
AcDbEntity
  8
RACCORDO
100
AcDbLine
 62
250
  6
CONTINUOUS
 10
-10.4330200327
 20
-23.1242659097
 11
-10.4380943479
 21
-23.6278312164
  0
LINE
  5
2ED
100
AcDbEntity
  8
RACCORDO
100
AcDbLine
 62
250
  6
CONTINUOUS
 10
-10.1822966017
 20
-23.2685605037
 11
-10.1880985787
 21
-23.8443375673
  0
LINE
  5
2EE
100
AcDbEntity
  8
RACCORDO
100
AcDbLine
 62
7
  6
CONTINUOUS
 10
-12.575
 20
-22.4
 11
-12.5677005956
 21
-22.3342460012
  0
LWPOLYLINE
  5
2EF
100
AcDbEntity
  8
ASSI
100
AcDbPolyline
 62
250
  6
CONTINUOUS
 90
7
 70
0
 10
-12.424004027
 20
-21.9706839485
 10
-12.4227942045
 20
-21.9616977175
 10
-12.4216057461
 20
-21.9456160089
 10
-12.4204386517
 20
-21.922516727
 10
-12.4192876566
 20
-21.8925125959
 10
-12.4181580254
 20
-21.8557469581
 10
-12.4160105919
 20
-21.7626417991
  0
LWPOLYLINE
  5
2F0
100
AcDbEntity
  8
RACCORDO
100
AcDbPolyline
 62
250
  6
CONTINUOUS
 90
7
 70
0
 10
-12.424004027
 20
-21.9706839485
 10
-12.4227941972
 20
-21.9616977194
 10
-12.4216057334
 20
-21.9456160119
 10
-12.4204386354
 20
-21.9225167272
 10
-12.4192876378
 20
-21.8925125622
 10
-12.4181580061
 20
-21.855746871
 10
-12.4160105864
 20
-21.7626420316
  0
LINE
  5
2F1
100
AcDbEntity
  8
RACCORDO
100
AcDbLine
 62
7
  6
CONTINUOUS
 10
-12.575
 20
22.4
 11
-12.5677005956
 21
22.3342460012
  0
LINE
  5
2F2
100
AcDbEntity
  8
0
100
AcDbLine
 62
250
  6
CONTINUOUS
 10
-8.525
 20
13.5
 11
-8.525
 21
18.499999735
  0
LINE
  5
2F3
100
AcDbEntity
  8
0
100
AcDbLine
 62
250
  6
CONTINUOUS
 10
-7.525
 20
17.85
 11
-7.525
 21
14.1500000966
  0
LWPOLYLINE
  5
2F4
100
AcDbEntity
  8
RACCORDO
100
AcDbPolyline
 62
250
  6
CONTINUOUS
 90
10
 70
0
 10
-12.9239278745
 20
-21.4713691811
 10
-12.9227228106
 20
-21.4653204192
 10
-12.9215375247
 20
-21.4546655053
 10
-12.9203720168
 20
-21.4394044396
 10
-12.9192204795
 20
-21.4194212458
 10
-12.9180887202
 20
-21.3948319001
 10
-12.9169941614
 20
-21.3659843309
 10
-12.9159376729
 20
-21.3328133822
 10
-12.9149183849
 20
-21.29538421
 10
-12.9130367625
 20
-21.2093345786
  0
LWPOLYLINE
  5
2F5
100
AcDbEntity
  8
ASSI
100
AcDbPolyline
 62
250
  6
CONTINUOUS
 90
10
 70
0
 10
-12.9239278745
 20
-21.4713691811
 10
-12.9227231186
 20
-21.465324455
 10
-12.9215380467
 20
-21.4546727924
 10
-12.9203726588
 20
-21.4394141934
 10
-12.9192211217
 20
-21.419432839
 10
-12.9180892687
 20
-21.3948445482
 10
-12.9169945994
 20
-21.3659967777
 10
-12.9159379984
 20
-21.3328239202
 10
-12.914918581
 20
-21.295391583
 10
-12.9130367623
 20
-21.2093345561
  0
LINE
  5
2F6
100
AcDbEntity
  8
DRAFT
100
AcDbLine
 62
7
  6
CONTINUOUS
 10
-6.325
 20
-23.8
 11
-6.325
 21
-22.4
  0
LINE
  5
2F7
100
AcDbEntity
  8
DRAFT
100
AcDbLine
 62
7
  6
CONTINUOUS
 10
-6.325
 20
22.4
 11
-6.325
 21
23.8
  0
LINE
  5
2F8
100
AcDbEntity
  8
RACCORDO
100
AcDbLine
 62
250
  6
CONTINUOUS
 10
-6.3220741618
 20
23.7970741618
 11
-6.3220741618
 21
22.3736436632
  0
LINE
  5
2F9
100
AcDbEntity
  8
RACCORDO
100
AcDbLine
 62
250
  6
CONTINUOUS
 10
-6.3220741618
 20
-22.3736436632
 11
-6.3220741618
 21
-23.7970741618
  0
LINE
  5
2FA
100
AcDbEntity
  8
RACCORDO
100
AcDbLine
 62
250
  6
CONTINUOUS
 10
-5.8220826234
 20
23.5953423515
 11
-5.8220826234
 21
22.3475922207
  0
LINE
  5
2FB
100
AcDbEntity
  8
RACCORDO
100
AcDbLine
 62
250
  6
CONTINUOUS
 10
-5.8220826234
 20
-22.3475922207
 11
-5.8220826234
 21
-23.5953423515
  0
LINE
  5
2FC
100
AcDbEntity
  8
RACCORDO
100
AcDbLine
 62
250
  6
CONTINUOUS
 10
-13.0
 20
-21.6997711479
 11
-12.9239278745
 21
-21.4713691811
  0
LINE
  5
2FD
100
AcDbEntity
  8
ASSI
100
AcDbLine
 62
250
  6
CONTINUOUS
 10
-13.0
 20
-21.6997711479
 11
-12.9239278745
 21
-21.4713691811
  0
LINE
  5
2FE
100
AcDbEntity
  8
RACCORDO
100
AcDbLine
 62
250
  6
CONTINUOUS
 10
-13.0575792813
 20
-21.9498971557
 11
-13.0103248699
 21
-21.8080186365
  0
LINE
  5
2FF
100
AcDbEntity
  8
RACCORDO
100
AcDbLine
 62
250
  6
CONTINUOUS
 10
-12.9239278745
 20
21.4713691811
 11
-13.0
 21
21.6997711479
  0
LINE
  5
300
100
AcDbEntity
  8
ASSI
100
AcDbLine
 62
250
  6
CONTINUOUS
 10
-12.9239278745
 20
21.4713691811
 11
-13.0
 21
21.6997711479
  0
LINE
  5
301
100
AcDbEntity
  8
RACCORDO
100
AcDbLine
 62
250
  6
CONTINUOUS
 10
-13.0103248699
 20
21.8080186365
 11
-13.0575792813
 21
21.9498971557
  0
LINE
  5
302
100
AcDbEntity
  8
DRAFT
100
AcDbLine
 62
7
  6
CONTINUOUS
 10
-4.925
 20
22.2
 11
-4.925
 21
22.0951844414
  0
LINE
  5
303
100
AcDbEntity
  8
ASSI
100
AcDbLine
 62
7
  6
CONTINUOUS
 10
-4.925
 20
22.2
 11
-4.925
 21
22.0951844414
  0
LINE
  5
304
100
AcDbEntity
  8
DRAFT
100
AcDbLine
 62
7
  6
CONTINUOUS
 10
-4.925
 20
-22.2
 11
-4.925
 21
-22.0951844414
  0
LINE
  5
305
100
AcDbEntity
  8
ASSI
100
AcDbLine
 62
7
  6
CONTINUOUS
 10
-4.925
 20
-22.2
 11
-4.925
 21
-22.0951844414
  0
LINE
  5
306
100
AcDbEntity
  8
RACCORDO
100
AcDbLine
 62
7
  6
CONTINUOUS
 10
-6.325
 20
-22.4
 11
-6.3220741618
 21
-22.3736436632
  0
LINE
  5
307
100
AcDbEntity
  8
RACCORDO
100
AcDbLine
 62
250
  6
CONTINUOUS
 10
-12.6078874748
 20
-22.4
 11
-12.5604847413
 21
-22.2576761526
  0
LINE
  5
308
100
AcDbEntity
  8
RACCORDO
100
AcDbLine
 62
250
  6
CONTINUOUS
 10
-12.5003805997
 20
-22.2
 11
-12.424004027
 21
-21.9706839485
  0
LINE
  5
309
100
AcDbEntity
  8
ASSI
100
AcDbLine
 62
250
  6
CONTINUOUS
 10
-12.5003805997
 20
-22.2
 11
-12.424004027
 21
-21.9706839485
  0
LINE
  5
30A
100
AcDbEntity
  8
RACCORDO
100
AcDbLine
 62
250
  6
CONTINUOUS
 10
-12.5604847413
 20
22.2576761526
 11
-12.6078874748
 21
22.4
  0
LINE
  5
30B
100
AcDbEntity
  8
RACCORDO
100
AcDbLine
 62
250
  6
CONTINUOUS
 10
-12.424004027
 20
21.9706839485
 11
-12.5003805997
 21
22.2
  0
LINE
  5
30C
100
AcDbEntity
  8
ASSI
100
AcDbLine
 62
250
  6
CONTINUOUS
 10
-12.424004027
 20
21.9706839485
 11
-12.5003805997
 21
22.2
  0
LINE
  5
30D
100
AcDbEntity
  8
RACCORDO
100
AcDbLine
 62
7
  6
CONTINUOUS
 10
-6.325
 20
22.4
 11
-6.3220741618
 21
22.3736436632
  0
LINE
  5
30E
100
AcDbEntity
  8
RACCORDO
100
AcDbLine
 62
7
  6
CONTINUOUS
 10
2.475
 20
22.4
 11
2.4720741618
 21
22.3736436632
  0
LWPOLYLINE
  5
30F
100
AcDbEntity
  8
0
100
AcDbPolyline
 62
7
  6
CONTINUOUS
 90
2
 70
0
 43
0.3500000087
 10
20.3250006638
 20
-0.541529155
 10
18.8249991989
 20
-0.541529155
  0
LINE
  5
310
100
AcDbEntity
  8
RACCORDO
100
AcDbLine
 62
7
  6
CONTINUOUS
 10
2.475
 20
-22.4
 11
2.4720741618
 21
-22.3736436632
  0
LINE
  5
311
100
AcDbEntity
  8
DRAFT
100
AcDbLine
 62
7
  6
CONTINUOUS
 10
1.075
 20
22.2
 11
1.075
 21
22.0951844414
  0
LINE
  5
312
100
AcDbEntity
  8
ASSI
100
AcDbLine
 62
7
  6
CONTINUOUS
 10
1.075
 20
22.2
 11
1.075
 21
22.0951844414
  0
LINE
  5
313
100
AcDbEntity
  8
DRAFT
100
AcDbLine
 62
7
  6
CONTINUOUS
 10
1.075
 20
-22.2
 11
1.075
 21
-22.0951844414
  0
LINE
  5
314
100
AcDbEntity
  8
ASSI
100
AcDbLine
 62
7
  6
CONTINUOUS
 10
1.075
 20
-22.2
 11
1.075
 21
-22.0951844414
  0
LINE
  5
315
100
AcDbEntity
  8
RACCORDO
100
AcDbLine
 62
250
  6
CONTINUOUS
 10
1.9720826234
 20
-23.5953423515
 11
1.9720826234
 21
-22.3475922207
  0
LINE
  5
316
100
AcDbEntity
  8
RACCORDO
100
AcDbLine
 62
250
  6
CONTINUOUS
 10
1.9720826234
 20
22.3475922207
 11
1.9720826234
 21
23.5953423515
  0
LINE
  5
317
100
AcDbEntity
  8
RACCORDO
100
AcDbLine
 62
250
  6
CONTINUOUS
 10
8.6503805997
 20
22.2
 11
8.574004027
 21
21.9706839485
  0
LINE
  5
318
100
AcDbEntity
  8
ASSI
100
AcDbLine
 62
250
  6
CONTINUOUS
 10
8.6503805997
 20
22.2
 11
8.574004027
 21
21.9706839485
  0
LINE
  5
319
100
AcDbEntity
  8
RACCORDO
100
AcDbLine
 62
250
  6
CONTINUOUS
 10
8.7578874748
 20
22.4
 11
8.7104847413
 21
22.2576761526
  0
LINE
  5
31A
100
AcDbEntity
  8
RACCORDO
100
AcDbLine
 62
250
  6
CONTINUOUS
 10
9.2075792813
 20
21.9498971557
 11
9.1603248699
 21
21.8080186365
  0
LINE
  5
31B
100
AcDbEntity
  8
RACCORDO
100
AcDbLine
 62
250
  6
CONTINUOUS
 10
9.15
 20
21.6997711479
 11
9.0739278745
 21
21.4713691811
  0
LINE
  5
31C
100
AcDbEntity
  8
ASSI
100
AcDbLine
 62
250
  6
CONTINUOUS
 10
9.15
 20
21.6997711479
 11
9.0739278745
 21
21.4713691811
  0
LINE
  5
31D
100
AcDbEntity
  8
RACCORDO
100
AcDbLine
 62
250
  6
CONTINUOUS
 10
8.574004027
 20
-21.9706839485
 11
8.6503805997
 21
-22.2
  0
LINE
  5
31E
100
AcDbEntity
  8
ASSI
100
AcDbLine
 62
250
  6
CONTINUOUS
 10
8.574004027
 20
-21.9706839485
 11
8.6503805997
 21
-22.2
  0
LINE
  5
31F
100
AcDbEntity
  8
RACCORDO
100
AcDbLine
 62
250
  6
CONTINUOUS
 10
8.7104847413
 20
-22.2576761526
 11
8.7578874748
 21
-22.4
  0
LINE
  5
320
100
AcDbEntity
  8
RACCORDO
100
AcDbLine
 62
250
  6
CONTINUOUS
 10
9.1603248699
 20
-21.8080186365
 11
9.2075792813
 21
-21.9498971557
  0
LINE
  5
321
100
AcDbEntity
  8
RACCORDO
100
AcDbLine
 62
250
  6
CONTINUOUS
 10
9.0739278745
 20
-21.4713691811
 11
9.15
 21
-21.6997711479
  0
LINE
  5
322
100
AcDbEntity
  8
ASSI
100
AcDbLine
 62
250
  6
CONTINUOUS
 10
9.0739278745
 20
-21.4713691811
 11
9.15
 21
-21.6997711479
  0
LINE
  5
323
100
AcDbEntity
  8
RACCORDO
100
AcDbLine
 62
250
  6
CONTINUOUS
 10
2.4720741618
 20
-23.7970741618
 11
2.4720741618
 21
-22.3736436632
  0
LINE
  5
324
100
AcDbEntity
  8
RACCORDO
100
AcDbLine
 62
250
  6
CONTINUOUS
 10
2.4720741618
 20
22.3736436632
 11
2.4720741618
 21
23.7970741618
  0
LINE
  5
325
100
AcDbEntity
  8
DRAFT
100
AcDbLine
 62
7
  6
CONTINUOUS
 10
2.475
 20
23.8
 11
2.475
 21
22.4
  0
LINE
  5
326
100
AcDbEntity
  8
DRAFT
100
AcDbLine
 62
7
  6
CONTINUOUS
 10
2.475
 20
-22.4
 11
2.475
 21
-23.8
  0
LWPOLYLINE
  5
327
100
AcDbEntity
  8
RACCORDO
100
AcDbPolyline
 62
250
  6
CONTINUOUS
 90
31
 70
0
 10
6.3380985787
 20
-24.2369056521
 10
6.3384417677
 20
-24.2499920062
 10
6.3394695107
 20
-24.2630425045
 10
6.3411789939
 20
-24.2760213619
 10
6.3435655366
 20
-24.2888930016
 10
6.3466225977
 20
-24.3016221155
 10
6.3503417872
 20
-24.314173763
 10
6.3547129023
 20
-24.3265135191
 10
6.3597239578
 20
-24.3386075563
 10
6.3653612061
 20
-24.3504227019
 10
6.3716091852
 20
-24.3619265577
 10
6.378450761
 20
-24.3730875837
 10
6.3858671679
 20
-24.383875174
 10
6.3938380761
 20
-24.3942597633
 10
6.4023416176
 20
-24.4042128667
 10
6.4113544367
 20
-24.4137071599
 10
6.4208517711
 20
-24.4227165817
 10
6.4308076083
 20
-24.4312164786
 10
6.4411947342
 20
-24.4391836209
 10
6.4519848134
 20
-24.4465962509
 10
6.4631481318
 20
-24.4534339327
 10
6.4746537322
 20
-24.4596777344
 10
6.4864698104
 20
-24.465310483
 10
6.4985641666
 20
-24.4703169129
 10
6.5109039705
 20
-24.474683464
 10
6.5234581551
 20
-24.4783989037
 10
6.5361896202
 20
-24.4814520171
 10
6.549055339
 20
-24.4838331472
 10
6.5620171136
 20
-24.4855367515
 10
6.575042008
 20
-24.4865600141
 10
6.5880943479
 20
-24.4869014213
  0
LWPOLYLINE
  5
328
100
AcDbEntity
  8
RACCORDO
100
AcDbPolyline
 62
7
  6
CONTINUOUS
 90
34
 70
0
 10
6.325
 20
-24.2500042308
 10
6.3252831502
 20
-24.261899516
 10
6.3261319658
 20
-24.2737678556
 10
6.3275445259
 20
-24.2855823661
 10
6.3295176323
 20
-24.2973162875
 10
6.3320468183
 20
-24.3089430388
 10
6.3351263583
 20
-24.320436279
 10
6.3387492787
 20
-24.3317699738
 10
6.3429073742
 20
-24.3429184493
 10
6.3475912278
 20
-24.3538564463
 10
6.3527902312
 20
-24.3645591876
 10
6.3584926084
 20
-24.3750024283
 10
6.3646854419
 20
-24.3851625059
 10
6.3713547045
 20
-24.3950164051
 10
6.3784852893
 20
-24.4045418038
 10
6.3860610411
 20
-24.4137171191
 10
6.3940647995
 20
-24.4225215661
 10
6.4024784339
 20
-24.4309352005
 10
6.4112828809
 20
-24.4389389589
 10
6.4204581962
 20
-24.4465147107
 10
6.4299835949
 20
-24.4536452955
 10
6.4398374941
 20
-24.4603145581
 10
6.4499975717
 20
-24.4665073916
 10
6.4604408124
 20
-24.4722097688
 10
6.4711435537
 20
-24.4774087722
 10
6.4820815507
 20
-24.4820926258
 10
6.4932300262
 20
-24.4862507213
 10
6.504563721
 20
-24.4898736417
 10
6.5160569612
 20
-24.4929531817
 10
6.5276837125
 20
-24.4954823677
 10
6.5394176339
 20
-24.4974554741
 10
6.5512321444
 20
-24.4988680342
 10
6.563100484
 20
-24.4997168498
 10
6.5749957692
 20
-24.5
  0
LWPOLYLINE
  5
329
100
AcDbEntity
  8
RACCORDO
100
AcDbPolyline
 62
250
  6
CONTINUOUS
 90
8
 70
0
 10
8.574004027
 20
21.9706839485
 10
8.5727942824
 20
21.9616982402
 10
8.571605878
 20
21.9456173491
 10
8.5704388136
 20
21.9225188546
 10
8.5692878084
 20
21.8925148216
 10
8.5681581433
 20
21.8557484884
 10
8.5670656614
 20
21.8123914394
 10
8.5649930226
 20
21.7067469445
  0
LWPOLYLINE
  5
32A
100
AcDbEntity
  8
ASSI
100
AcDbPolyline
 62
250
  6
CONTINUOUS
 90
8
 70
0
 10
8.574004027
 20
21.9706839485
 10
8.5727942933
 20
21.9616983094
 10
8.5716058964
 20
21.9456175234
 10
8.5704388363
 20
21.9225191238
 10
8.5692878309
 20
21.8925151017
 10
8.5681581624
 20
21.8557486687
 10
8.567065677
 20
21.8123914862
 10
8.5649930322
 20
21.7067466582
  0
LWPOLYLINE
  5
32B
100
AcDbEntity
  8
ASSI
100
AcDbPolyline
 62
250
  6
CONTINUOUS
 90
9
 70
0
 10
9.0739278745
 20
21.4713691811
 10
9.0727238227
 20
21.4653310287
 10
9.0715393506
 20
21.4546882191
 10
9.0703744583
 20
21.4394407522
 10
9.0692232782
 20
21.4194721009
 10
9.0680916779
 20
21.3948987924
 10
9.0669972602
 20
21.3660704079
 10
9.0659409995
 20
21.3329253151
 10
9.0639547057
 20
21.2544043805
  0
LWPOLYLINE
  5
32C
100
AcDbEntity
  8
RACCORDO
100
AcDbPolyline
 62
250
  6
CONTINUOUS
 90
9
 70
0
 10
9.0739278745
 20
21.4713691811
 10
9.0727236592
 20
21.4653290397
 10
9.0715390688
 20
21.4546844914
 10
9.0703741035
 20
21.4394355363
 10
9.0692229068
 20
21.4194655613
 10
9.0680913351
 20
21.3948911795
 10
9.0669969576
 20
21.3660622302
 10
9.0659407395
 20
21.3329169804
 10
9.06395456
 20
21.2543978177
  0
LWPOLYLINE
  5
32D
100
AcDbEntity
  8
RACCORDO
100
AcDbPolyline
 62
7
  6
CONTINUOUS
 90
34
 70
0
 10
6.3322966017
 20
23.2685605037
 10
6.3325943001
 20
23.2623213387
 10
6.333365445
 20
23.2560506146
 10
6.3346156281
 20
23.2497665541
 10
6.3363494287
 20
23.2434948449
 10
6.3385705636
 20
23.2372475907
 10
6.3412822208
 20
23.2310233419
 10
6.3444863056
 20
23.2248425893
 10
6.348183776
 20
23.2187250901
 10
6.3523755382
 20
23.2126689974
 10
6.3570605058
 20
23.2066958176
 10
6.3622366111
 20
23.2008263377
 10
6.3679024354
 20
23.1950583591
 10
6.3740536702
 20
23.1894141392
 10
6.3806849097
 20
23.1839153247
 10
6.3877921899
 20
23.1785595672
 10
6.3953676911
 20
23.1733695978
 10
6.4034023162
 20
23.1683676789
 10
6.4118891403
 20
23.1635515428
 10
6.4208165123
 20
23.1589440234
 10
6.4301712262
 20
23.1545676904
 10
6.4399427294
 20
23.1504206011
 10
6.4501151706
 20
23.1465251955
 10
6.4606707964
 20
23.1429039103
 10
6.4715945654
 20
23.1395553184
 10
6.4828659273
 20
23.1365008316
 10
6.4944622958
 20
23.1337620879
 10
6.5063635922
 20
23.1313381705
 10
6.5185311766
 20
23.1292516537
 10
6.5309501439
 20
23.1275184165
 10
6.543635211
 20
23.1261324424
 10
6.5565711535
 20
23.1251094431
 10
6.5697110362
 20
23.1244803027
 10
6.5830200327
 20
23.1242659097
  0
LWPOLYLINE
  5
32E
100
AcDbEntity
  8
RACCORDO
100
AcDbPolyline
 62
7
  6
CONTINUOUS
 90
34
 70
0
 10
8.7177033983
 20
-23.2685605037
 10
8.7174056999
 20
-23.2623213387
 10
8.716634555
 20
-23.2560506146
 10
8.7153843719
 20
-23.2497665541
 10
8.7136505713
 20
-23.2434948449
 10
8.7114294364
 20
-23.2372475907
 10
8.7087177792
 20
-23.2310233419
 10
8.7055136944
 20
-23.2248425893
 10
8.701816224
 20
-23.2187250901
 10
8.6976244618
 20
-23.2126689974
 10
8.6929394942
 20
-23.2066958176
 10
8.6877633889
 20
-23.2008263377
 10
8.6820975646
 20
-23.1950583591
 10
8.6759463298
 20
-23.1894141392
 10
8.6693150903
 20
-23.1839153247
 10
8.6622078101
 20
-23.1785595672
 10
8.6546323089
 20
-23.1733695978
 10
8.6465976838
 20
-23.1683676789
 10
8.6381108597
 20
-23.1635515428
 10
8.6291834877
 20
-23.1589440234
 10
8.6198287738
 20
-23.1545676904
 10
8.6100572706
 20
-23.1504206011
 10
8.5998848294
 20
-23.1465251955
 10
8.5893292036
 20
-23.1429039103
 10
8.5784054346
 20
-23.1395553184
 10
8.5671340727
 20
-23.1365008316
 10
8.5555377042
 20
-23.1337620879
 10
8.5436364078
 20
-23.1313381705
 10
8.5314688234
 20
-23.1292516537
 10
8.5190498561
 20
-23.1275184165
 10
8.506364789
 20
-23.1261324424
 10
8.4934288465
 20
-23.1251094431
 10
8.4802889638
 20
-23.1244803027
 10
8.4669799673
 20
-23.1242659097
  0
LWPOLYLINE
  5
32F
100
AcDbEntity
  8
RACCORDO
100
AcDbPolyline
 62
250
  6
CONTINUOUS
 90
31
 70
0
 10
6.3380985787
 20
23.8443375673
 10
6.3384771343
 20
23.833039595
 10
6.3395362619
 20
23.821769291
 10
6.3412736384
 20
23.8105574212
 10
6.3436853398
 20
23.7994336121
 10
6.3467652101
 20
23.78842936
 10
6.3505042611
 20
23.7775778202
 10
6.3548918055
 20
23.7669096972
 10
6.3599162045
 20
23.7564530239
 10
6.3655638851
 20
23.746236105
 10
6.3718195777
 20
23.7362866999
 10
6.3786661523
 20
23.7266321754
 10
6.3860847605
 20
23.7172991519
 10
6.3940550646
 20
23.7083132018
 10
6.4025553594
 20
23.6996987826
 10
6.4115624499
 20
23.6914794042
 10
6.4210517535
 20
23.6836775075
 10
6.4309973406
 20
23.6763144193
 10
6.4413720235
 20
23.6694102704
 10
6.4521474559
 20
23.6629839239
 10
6.4632942139
 20
23.6570529269
 10
6.474781851
 20
23.6516334796
 10
6.4865790077
 20
23.6467403776
 10
6.4986534441
 20
23.6423869945
 10
6.5109721237
 20
23.6385852371
 10
6.5235013591
 20
23.6353454907
 10
6.5362069619
 20
23.6326765842
 10
6.5490542827
 20
23.6305857918
 10
6.56200825
 20
23.6290788219
 10
6.5750334638
 20
23.6281597935
 10
6.5880943479
 20
23.6278312164
  0
LINE
  5
330
100
AcDbEntity
  8
RACCORDO
100
AcDbLine
 62
250
  6
CONTINUOUS
 10
6.3380985787
 20
-23.8443375673
 11
6.3322966017
 21
-23.2685605037
  0
LINE
  5
331
100
AcDbEntity
  8
RACCORDO
100
AcDbLine
 62
250
  6
CONTINUOUS
 10
6.5880943479
 20
-23.6278312164
 11
6.5830200327
 21
-23.1242659097
  0
LINE
  5
332
100
AcDbEntity
  8
RACCORDO
100
AcDbLine
 62
7
  6
CONTINUOUS
 10
6.325
 20
-22.4
 11
6.325
 21
-24.2500042308
  0
LINE
  5
333
100
AcDbEntity
  8
RACCORDO
100
AcDbLine
 62
7
  6
CONTINUOUS
 10
6.325
 20
22.4
 11
6.325
 21
24.2500042308
  0
LINE
  5
334
100
AcDbEntity
  8
RACCORDO
100
AcDbLine
 62
250
  6
CONTINUOUS
 10
6.3322966017
 20
-23.2685605037
 11
6.3322994044
 21
-22.3342460012
  0
LINE
  5
335
100
AcDbEntity
  8
RACCORDO
100
AcDbLine
 62
250
  6
CONTINUOUS
 10
6.3322994044
 20
22.3342460012
 11
6.3322966017
 21
23.2685605037
  0
LINE
  5
336
100
AcDbEntity
  8
RACCORDO
100
AcDbLine
 62
250
  6
CONTINUOUS
 10
6.3380985787
 20
24.2369056521
 11
6.3380985787
 21
23.8443375673
  0
LINE
  5
337
100
AcDbEntity
  8
RACCORDO
100
AcDbLine
 62
250
  6
CONTINUOUS
 10
6.3380985787
 20
-23.8443375673
 11
6.3380985787
 21
-24.2369056521
  0
LINE
  5
338
100
AcDbEntity
  8
RACCORDO
100
AcDbLine
 62
250
  6
CONTINUOUS
 10
6.5822928042
 20
-23.1242659097
 11
6.5822952131
 21
-22.3212199262
  0
LINE
  5
339
100
AcDbEntity
  8
RACCORDO
100
AcDbLine
 62
250
  6
CONTINUOUS
 10
6.5822952131
 20
22.3212199262
 11
6.5822928042
 21
23.1242659097
  0
LINE
  5
33A
100
AcDbEntity
  8
RACCORDO
100
AcDbLine
 62
250
  6
CONTINUOUS
 10
6.5880943479
 20
-23.6278312164
 11
6.5880943479
 21
-24.4869014213
  0
LINE
  5
33B
100
AcDbEntity
  8
RACCORDO
100
AcDbLine
 62
250
  6
CONTINUOUS
 10
6.5880943479
 20
23.6278312164
 11
6.5880943479
 21
24.4869014213
  0
LINE
  5
33C
100
AcDbEntity
  8
RACCORDO
100
AcDbLine
 62
250
  6
CONTINUOUS
 10
6.3322966017
 20
23.2685605037
 11
6.3380985787
 21
23.8443375673
  0
LINE
  5
33D
100
AcDbEntity
  8
RACCORDO
100
AcDbLine
 62
250
  6
CONTINUOUS
 10
6.5830200327
 20
23.1242659097
 11
6.5880943479
 21
23.6278312164
  0
LWPOLYLINE
  5
33E
100
AcDbEntity
  8
RACCORDO
100
AcDbPolyline
 62
250
  6
CONTINUOUS
 90
31
 70
0
 10
6.3380985787
 20
-23.8443375673
 10
6.3384779104
 20
-23.8330274168
 10
6.3395388924
 20
-23.8217481519
 10
6.3412786273
 20
-23.810530574
 10
6.3436923642
 20
-23.7994053159
 10
6.3467735118
 20
-23.7884027584
 10
6.350513656
 20
-23.7775529472
 10
6.3549025834
 20
-23.7668855107
 10
6.3599283087
 20
-23.7564295797
 10
6.3655771077
 20
-23.7462137069
 10
6.3718335547
 20
-23.7362657898
 10
6.3786805646
 20
-23.7266129942
 10
6.3860994397
 20
-23.7172816797
 10
6.3940699206
 20
-23.7082973282
 10
6.4025702417
 20
-23.6996844742
 10
6.4115771902
 20
-23.6914666374
 10
6.4210661701
 20
-23.6836662592
 10
6.431011269
 20
-23.6763046407
 10
6.4413853289
 20
-23.6694018849
 10
6.4521600204
 20
-23.6629768418
 10
6.4633059201
 20
-23.6570470569
 10
6.4747925909
 20
-23.6516287232
 10
6.4865886651
 20
-23.646736637
 10
6.49866193
 20
-23.6423841576
 10
6.5109794162
 20
-23.6385831707
 10
6.523507487
 20
-23.6353440559
 10
6.5362119311
 20
-23.6326756587
 10
6.5490580552
 20
-23.6305852658
 10
6.5620107793
 20
-23.6290785857
 10
6.5750347321
 20
-23.6281597328
 10
6.5880943479
 20
-23.6278312164
  0
LWPOLYLINE
  5
33F
100
AcDbEntity
  8
RACCORDO
100
AcDbPolyline
 62
7
  6
CONTINUOUS
 90
34
 70
0
 10
6.3322966017
 20
-23.2685605037
 10
6.3325943001
 20
-23.2623213387
 10
6.333365445
 20
-23.2560506146
 10
6.3346156281
 20
-23.2497665541
 10
6.3363494287
 20
-23.2434948449
 10
6.3385705636
 20
-23.2372475907
 10
6.3412822208
 20
-23.2310233419
 10
6.3444863056
 20
-23.2248425893
 10
6.348183776
 20
-23.2187250901
 10
6.3523755382
 20
-23.2126689974
 10
6.3570605058
 20
-23.2066958176
 10
6.3622366111
 20
-23.2008263377
 10
6.3679024354
 20
-23.1950583591
 10
6.3740536702
 20
-23.1894141392
 10
6.3806849097
 20
-23.1839153247
 10
6.3877921899
 20
-23.1785595672
 10
6.3953676911
 20
-23.1733695978
 10
6.4034023162
 20
-23.1683676789
 10
6.4118891403
 20
-23.1635515428
 10
6.4208165123
 20
-23.1589440234
 10
6.4301712262
 20
-23.1545676904
 10
6.4399427294
 20
-23.1504206011
 10
6.4501151706
 20
-23.1465251955
 10
6.4606707964
 20
-23.1429039103
 10
6.4715945654
 20
-23.1395553184
 10
6.4828659273
 20
-23.1365008316
 10
6.4944622958
 20
-23.1337620879
 10
6.5063635922
 20
-23.1313381705
 10
6.5185311766
 20
-23.1292516537
 10
6.5309501439
 20
-23.1275184165
 10
6.543635211
 20
-23.1261324424
 10
6.5565711535
 20
-23.1251094431
 10
6.5697110362
 20
-23.1244803027
 10
6.5830200327
 20
-23.1242659097
  0
LWPOLYLINE
  5
340
100
AcDbEntity
  8
RACCORDO
100
AcDbPolyline
 62
7
  6
CONTINUOUS
 90
34
 70
0
 10
8.7177033983
 20
23.2685605037
 10
8.7174040041
 20
23.2622690404
 10
8.716628407
 20
23.2559868557
 10
8.7153718494
 20
23.2497139387
 10
8.7136307351
 20
23.2434379966
 10
8.7114020981
 20
23.2371712996
 10
8.7086830955
 20
23.230950681
 10
8.7054725317
 20
23.2247755831
 10
8.7017701365
 20
23.2186465398
 10
8.6975750007
 20
23.2126020217
 10
8.6928887392
 20
23.206641552
 10
8.6877139182
 20
23.2007655826
 10
8.6820515827
 20
23.195013977
 10
8.6759063864
 20
23.1893863152
 10
8.6692840184
 20
23.1838829914
 10
8.6621876467
 20
23.1785450899
 10
8.6546252354
 20
23.1733722596
 10
8.6466059577
 20
23.168364825
 10
8.6381355139
 20
23.1635648829
 10
8.629225515
 20
23.1589722122
 10
8.6198890629
 20
23.1545870069
 10
8.6101350912
 20
23.150451986
 10
8.5999792668
 20
23.146567179
 10
8.5894391226
 20
23.1429325294
 10
8.5785277815
 20
23.1395906262
 10
8.5672654921
 20
23.1365419319
 10
8.5556746495
 20
23.1337859579
 10
8.5437734292
 20
23.1313638659
 10
8.5315741599
 20
23.1292767261
 10
8.5191170983
 20
23.1275234432
 10
8.5064659693
 20
23.1261419346
 10
8.4936641406
 20
23.1251448353
 10
8.4807331893
 20
23.1245194958
 10
8.4677071958
 20
23.1242659097
  0
LINE
  5
341
100
AcDbEntity
  8
RACCORDO
100
AcDbLine
 62
7
  6
CONTINUOUS
 10
8.725
 20
22.4
 11
8.7177005956
 21
22.3342460012
  0
LINE
  5
342
100
AcDbEntity
  8
RACCORDO
100
AcDbLine
 62
7
  6
CONTINUOUS
 10
8.725
 20
-22.4
 11
8.7177005956
 21
-22.3342460012
  0
LWPOLYLINE
  5
343
100
AcDbEntity
  8
RACCORDO
100
AcDbPolyline
 62
250
  6
CONTINUOUS
 90
31
 70
0
 10
8.7119014213
 20
-23.8443375673
 10
8.7115220896
 20
-23.8330274168
 10
8.7104611076
 20
-23.8217481519
 10
8.7087213727
 20
-23.810530574
 10
8.7063076358
 20
-23.7994053159
 10
8.7032264882
 20
-23.7884027584
 10
8.699486344
 20
-23.7775529472
 10
8.6950974166
 20
-23.7668855107
 10
8.6900716913
 20
-23.7564295797
 10
8.6844228923
 20
-23.7462137069
 10
8.6781664453
 20
-23.7362657898
 10
8.6713194354
 20
-23.7266129942
 10
8.6639005603
 20
-23.7172816797
 10
8.6559300794
 20
-23.7082973282
 10
8.6474297583
 20
-23.6996844742
 10
8.6384228098
 20
-23.6914666374
 10
8.6289338299
 20
-23.6836662592
 10
8.618988731
 20
-23.6763046407
 10
8.6086146711
 20
-23.6694018849
 10
8.5978399796
 20
-23.6629768418
 10
8.5866940799
 20
-23.6570470569
 10
8.5752074091
 20
-23.6516287232
 10
8.5634113349
 20
-23.646736637
 10
8.55133807
 20
-23.6423841576
 10
8.5390205838
 20
-23.6385831707
 10
8.526492513
 20
-23.6353440559
 10
8.5137880689
 20
-23.6326756587
 10
8.5009419448
 20
-23.6305852658
 10
8.4879892207
 20
-23.6290785857
 10
8.4749652679
 20
-23.6281597328
 10
8.4619056521
 20
-23.6278312164
  0
LWPOLYLINE
  5
344
100
AcDbEntity
  8
ASSI
100
AcDbPolyline
 62
250
  6
CONTINUOUS
 90
8
 70
0
 10
9.0659379984
 20
-21.3328239201
 10
9.0669945994
 20
-21.3659967777
 10
9.0680892687
 20
-21.3948445481
 10
9.0692211217
 20
-21.419432839
 10
9.0703726588
 20
-21.4394141934
 10
9.0715380467
 20
-21.4546727924
 10
9.0727231186
 20
-21.465324455
 10
9.0739278745
 20
-21.4713691811
  0
LWPOLYLINE
  5
345
100
AcDbEntity
  8
RACCORDO
100
AcDbPolyline
 62
250
  6
CONTINUOUS
 90
8
 70
0
 10
9.0659376729
 20
-21.3328133822
 10
9.0669941614
 20
-21.3659843309
 10
9.0680887202
 20
-21.3948319001
 10
9.0692204795
 20
-21.4194212458
 10
9.0703720168
 20
-21.4394044396
 10
9.0715375247
 20
-21.4546655053
 10
9.0727228106
 20
-21.4653204192
 10
9.0739278745
 20
-21.4713691811
  0
LWPOLYLINE
  5
346
100
AcDbEntity
  8
ASSI
100
AcDbPolyline
 62
250
  6
CONTINUOUS
 90
6
 70
0
 10
8.5681580254
 20
-21.8557469581
 10
8.5692876566
 20
-21.8925125959
 10
8.5704386517
 20
-21.922516727
 10
8.5716057461
 20
-21.9456160089
 10
8.5727942045
 20
-21.9616977175
 10
8.574004027
 20
-21.9706839485
  0
LWPOLYLINE
  5
347
100
AcDbEntity
  8
RACCORDO
100
AcDbPolyline
 62
250
  6
CONTINUOUS
 90
6
 70
0
 10
8.5681580061
 20
-21.855746871
 10
8.5692876378
 20
-21.8925125622
 10
8.5704386353
 20
-21.9225167272
 10
8.5716057334
 20
-21.9456160119
 10
8.5727941972
 20
-21.9616977194
 10
8.574004027
 20
-21.9706839485
  0
LWPOLYLINE
  5
348
100
AcDbEntity
  8
RACCORDO
100
AcDbPolyline
 62
250
  6
CONTINUOUS
 90
31
 70
0
 10
8.7119014213
 20
24.2369056521
 10
8.7115583827
 20
24.2499891381
 10
8.7105310928
 20
24.2630367647
 10
8.7088223673
 20
24.2760127708
 10
8.7064368893
 20
24.2888815916
 10
8.7033811971
 20
24.3016079562
 10
8.6996636657
 20
24.3141569839
 10
8.6952944842
 20
24.3264942801
 10
8.6902856277
 20
24.3385860308
 10
8.6846508246
 20
24.3503990946
 10
8.6784055187
 20
24.3619010942
 10
8.6715668272
 20
24.3730605047
 10
8.6641534939
 20
24.3838467403
 10
8.6561858371
 20
24.3942302379
 10
8.6476856948
 20
24.4041825384
 10
8.6386763643
 20
24.4136763643
 10
8.6291825384
 20
24.4226856948
 10
8.6192302379
 20
24.4311858371
 10
8.6088467403
 20
24.4391534939
 10
8.5980605047
 20
24.4465668272
 10
8.5869010942
 20
24.4534055187
 10
8.5753990946
 20
24.4596508246
 10
8.5635860308
 20
24.4652856277
 10
8.5514942801
 20
24.4702944842
 10
8.5391569839
 20
24.4746636657
 10
8.5266079562
 20
24.4783811971
 10
8.5138815916
 20
24.4814368893
 10
8.5010127708
 20
24.4838223673
 10
8.4880367647
 20
24.4855310928
 10
8.4749891381
 20
24.4865583827
 10
8.4619056521
 20
24.4869014213
  0
LWPOLYLINE
  5
349
100
AcDbEntity
  8
RACCORDO
100
AcDbPolyline
 62
7
  6
CONTINUOUS
 90
34
 70
0
 10
8.725
 20
24.2500042308
 10
8.7247168498
 20
24.261899516
 10
8.7238680342
 20
24.2737678556
 10
8.7224554741
 20
24.2855823661
 10
8.7204823677
 20
24.2973162875
 10
8.7179531817
 20
24.3089430388
 10
8.7148736417
 20
24.320436279
 10
8.7112507213
 20
24.3317699738
 10
8.7070926258
 20
24.3429184493
 10
8.7024087722
 20
24.3538564463
 10
8.6972097688
 20
24.3645591876
 10
8.6915073916
 20
24.3750024283
 10
8.6853145581
 20
24.3851625059
 10
8.6786452955
 20
24.3950164051
 10
8.6715147107
 20
24.4045418038
 10
8.6639389589
 20
24.4137171191
 10
8.6559352005
 20
24.4225215661
 10
8.6475215661
 20
24.4309352005
 10
8.6387171191
 20
24.4389389589
 10
8.6295418038
 20
24.4465147107
 10
8.6200164051
 20
24.4536452955
 10
8.6101625059
 20
24.4603145581
 10
8.6000024283
 20
24.4665073916
 10
8.5895591876
 20
24.4722097688
 10
8.5788564463
 20
24.4774087722
 10
8.5679184493
 20
24.4820926258
 10
8.5567699738
 20
24.4862507213
 10
8.545436279
 20
24.4898736417
 10
8.5339430388
 20
24.4929531817
 10
8.5223162875
 20
24.4954823677
 10
8.5105823661
 20
24.4974554741
 10
8.4987678556
 20
24.4988680342
 10
8.486899516
 20
24.4997168498
 10
8.4750042308
 20
24.5
  0
LINE
  5
34A
100
AcDbEntity
  8
ASSI
100
AcDbLine
 62
250
  6
CONTINUOUS
 10
9.0639511936
 20
-21.254244045
 11
9.0659379984
 21
-21.3328239201
  0
LINE
  5
34B
100
AcDbEntity
  8
RACCORDO
100
AcDbLine
 62
250
  6
CONTINUOUS
 10
9.0639511096
 20
-21.2542402113
 11
9.0659376729
 21
-21.3328133822
  0
LINE
  5
34C
100
AcDbEntity
  8
ASSI
100
AcDbLine
 62
250
  6
CONTINUOUS
 10
8.5660105919
 20
-21.7626417991
 11
8.5681580254
 21
-21.8557469581
  0
LINE
  5
34D
100
AcDbEntity
  8
RACCORDO
100
AcDbLine
 62
250
  6
CONTINUOUS
 10
8.5660105864
 20
-21.7626420316
 11
8.5681580061
 21
-21.855746871
  0
LINE
  5
34E
100
AcDbEntity
  8
RACCORDO
100
AcDbLine
 62
250
  6
CONTINUOUS
 10
9.0621744283
 20
-21.1607141194
 11
9.0639511096
 21
-21.2542402113
  0
LINE
  5
34F
100
AcDbEntity
  8
ASSI
100
AcDbLine
 62
250
  6
CONTINUOUS
 10
9.062174361
 20
-21.1607098664
 11
9.0639511936
 21
-21.254244045
  0
LINE
  5
350
100
AcDbEntity
  8
ASSI
100
AcDbLine
 62
250
  6
CONTINUOUS
 10
8.5640268782
 20
-21.6449697019
 11
8.5660105919
 21
-21.7626417991
  0
LINE
  5
351
100
AcDbEntity
  8
RACCORDO
100
AcDbLine
 62
250
  6
CONTINUOUS
 10
8.5640268958
 20
-21.6449707085
 11
8.5660105864
 21
-21.7626420316
  0
LINE
  5
352
100
AcDbEntity
  8
RACCORDO
100
AcDbLine
 62
250
  6
CONTINUOUS
 10
9.05997356
 20
-20.9965678952
 11
9.0621744283
 21
-21.1607141194
  0
LINE
  5
353
100
AcDbEntity
  8
ASSI
100
AcDbLine
 62
250
  6
CONTINUOUS
 10
9.0599734114
 20
-20.9965532283
 11
9.062174361
 21
-21.1607098664
  0
LINE
  5
354
100
AcDbEntity
  8
RACCORDO
100
AcDbLine
 62
250
  6
CONTINUOUS
 10
8.5614552249
 20
-21.42753389
 11
8.5640268958
 21
-21.6449707085
  0
LINE
  5
355
100
AcDbEntity
  8
ASSI
100
AcDbLine
 62
250
  6
CONTINUOUS
 10
8.5614552229
 20
-21.4275343853
 11
8.5640268782
 21
-21.6449697019
  0
LINE
  5
356
100
AcDbEntity
  8
RACCORDO
100
AcDbLine
 62
250
  6
CONTINUOUS
 10
8.4619056521
 20
23.6278312164
 11
8.4669799673
 21
23.1242659097
  0
LINE
  5
357
100
AcDbEntity
  8
RACCORDO
100
AcDbLine
 62
250
  6
CONTINUOUS
 10
8.7119014213
 20
23.8443375673
 11
8.7177033983
 21
23.2685605037
  0
LINE
  5
358
100
AcDbEntity
  8
RACCORDO
100
AcDbLine
 62
250
  6
CONTINUOUS
 10
8.5589371086
 20
-21.0759071168
 11
8.5614552249
 21
-21.42753389
  0
LINE
  5
359
100
AcDbEntity
  8
ASSI
100
AcDbLine
 62
250
  6
CONTINUOUS
 10
8.5589371179
 20
-21.0759068098
 11
8.5614552229
 21
-21.4275343853
  0
LINE
  5
35A
100
AcDbEntity
  8
RACCORDO
100
AcDbLine
 62
250
  6
CONTINUOUS
 10
9.0580425458
 20
-20.744358522
 11
9.05997356
 21
-20.9965678952
  0
LINE
  5
35B
100
AcDbEntity
  8
ASSI
100
AcDbLine
 62
250
  6
CONTINUOUS
 10
9.0580424493
 20
-20.7443383497
 11
9.0599734114
 21
-20.9965532283
  0
LINE
  5
35C
100
AcDbEntity
  8
RACCORDO
100
AcDbLine
 62
250
  6
CONTINUOUS
 10
8.557629946
 20
-20.6786107281
 11
8.5589371086
 21
-21.0759071168
  0
LINE
  5
35D
100
AcDbEntity
  8
ASSI
100
AcDbLine
 62
250
  6
CONTINUOUS
 10
8.5576299452
 20
-20.6786101957
 11
8.5589371179
 21
-21.0759068098
  0
LINE
  5
35E
100
AcDbEntity
  8
RACCORDO
100
AcDbLine
 62
250
  6
CONTINUOUS
 10
9.0574274394
 20
-20.5413250388
 11
9.0580425458
 21
-20.744358522
  0
LINE
  5
35F
100
AcDbEntity
  8
ASSI
100
AcDbLine
 62
250
  6
CONTINUOUS
 10
9.0574274394
 20
-20.5413250388
 11
9.0580424493
 21
-20.7443383497
  0
LINE
  5
360
100
AcDbEntity
  8
RACCORDO
100
AcDbLine
 62
250
  6
CONTINUOUS
 10
8.4619056521
 20
-23.6278312164
 11
8.4619056521
 21
-24.4869014213
  0
LINE
  5
361
100
AcDbEntity
  8
RACCORDO
100
AcDbLine
 62
250
  6
CONTINUOUS
 10
8.4619056521
 20
23.6278312164
 11
8.4619056521
 21
24.4869014213
  0
LINE
  5
362
100
AcDbEntity
  8
RACCORDO
100
AcDbLine
 62
250
  6
CONTINUOUS
 10
8.4677071958
 20
23.1242659097
 11
8.4677047869
 21
22.3212199262
  0
LINE
  5
363
100
AcDbEntity
  8
RACCORDO
100
AcDbLine
 62
250
  6
CONTINUOUS
 10
8.4677047869
 20
-22.3212199262
 11
8.4677071958
 21
-23.1242659097
  0
LINE
  5
364
100
AcDbEntity
  8
RACCORDO
100
AcDbLine
 62
250
  6
CONTINUOUS
 10
8.7104847413
 20
22.196014029
 11
8.7104847413
 21
22.2576761526
  0
LINE
  5
365
100
AcDbEntity
  8
RACCORDO
100
AcDbLine
 62
250
  6
CONTINUOUS
 10
8.7104847428
 20
-22.1960140287
 11
8.7104847413
 21
-22.2576761526
  0
LINE
  5
366
100
AcDbEntity
  8
RACCORDO
100
AcDbLine
 62
250
  6
CONTINUOUS
 10
8.7119014213
 20
-24.2369056521
 11
8.7119014213
 21
-23.8443375673
  0
LINE
  5
367
100
AcDbEntity
  8
RACCORDO
100
AcDbLine
 62
250
  6
CONTINUOUS
 10
8.7119014213
 20
23.8443375673
 11
8.7119014213
 21
24.2369056521
  0
LINE
  5
368
100
AcDbEntity
  8
RACCORDO
100
AcDbLine
 62
250
  6
CONTINUOUS
 10
8.7177033983
 20
23.2685605037
 11
8.7177005956
 21
22.3342460012
  0
LINE
  5
369
100
AcDbEntity
  8
RACCORDO
100
AcDbLine
 62
250
  6
CONTINUOUS
 10
8.7177005956
 20
-22.3342460012
 11
8.7177033983
 21
-23.2685605037
  0
LINE
  5
36A
100
AcDbEntity
  8
RACCORDO
100
AcDbLine
 62
7
  6
CONTINUOUS
 10
8.725
 20
-22.4
 11
8.725
 21
-24.2500042308
  0
LINE
  5
36B
100
AcDbEntity
  8
RACCORDO
100
AcDbLine
 62
7
  6
CONTINUOUS
 10
8.725
 20
22.4
 11
8.725
 21
24.2500042308
  0
LINE
  5
36C
100
AcDbEntity
  8
RACCORDO
100
AcDbLine
 62
7
  6
CONTINUOUS
 10
9.15
 20
-21.6997711479
 11
9.15
 21
21.6997711479
  0
LINE
  5
36D
100
AcDbEntity
  8
ASSI
100
AcDbLine
 62
7
  6
CONTINUOUS
 10
9.15
 20
-21.6997711479
 11
9.15
 21
21.6997711479
  0
LINE
  5
36E
100
AcDbEntity
  8
RACCORDO
100
AcDbLine
 62
250
  6
CONTINUOUS
 10
9.1603248699
 20
-21.8080186365
 11
9.1603248699
 21
21.8080186365
  0
LINE
  5
36F
100
AcDbEntity
  8
ASSI
100
AcDbLine
 62
7
  6
CONTINUOUS
 10
9.225
 20
17.6716990487
 11
9.225
 21
-17.6716990487
  0
LINE
  5
370
100
AcDbEntity
  8
RACCORDO
100
AcDbLine
 62
7
  6
CONTINUOUS
 10
9.225
 20
-21.9411874598
 11
9.225
 21
21.9411874598
  0
LWPOLYLINE
  5
371
100
AcDbEntity
  8
RACCORDO
100
AcDbPolyline
 62
250
  6
CONTINUOUS
 90
12
 70
0
 10
8.5537427897
 20
17.150676619
 10
8.550665632
 20
13.7234061547
 10
8.5482721188
 20
10.2942546831
 10
8.5465620819
 20
6.8636424927
 10
8.5455356895
 20
3.4320468125
 10
8.5451934464
 20
0.0000018091
 10
8.5455356889
 20
-3.4320433695
 10
8.5465620806
 20
-6.8636394901
 10
8.5482721172
 20
-10.2942522582
 10
8.5506656305
 20
-13.7234044019
 10
8.5537427888
 20
-17.1506756746
 10
8.557629946
 20
-20.6786107281
  0
LWPOLYLINE
  5
372
100
AcDbEntity
  8
ASSI
100
AcDbPolyline
 62
250
  6
CONTINUOUS
 90
12
 70
0
 10
8.5537427904
 20
17.1506778212
 10
8.5506656331
 20
13.7234080909
 10
8.5482721201
 20
10.2942568839
 10
8.5465620829
 20
6.8636443354
 10
8.5455356899
 20
3.4320478267
 10
8.5451934464
 20
0.0000019819
 10
8.5455356892
 20
-3.4320440546
 10
8.5465620814
 20
-6.8636410452
 10
8.5482721183
 20
-10.2942542262
 10
8.5506656315
 20
-13.7234061695
 10
8.5537427894
 20
-17.1506767859
 10
8.5576299452
 20
-20.6786101957
  0
LWPOLYLINE
  5
373
100
AcDbEntity
  8
RACCORDO
100
AcDbPolyline
 62
250
  6
CONTINUOUS
 90
12
 70
0
 10
9.0536666432
 20
17.1213566697
 10
9.0505894891
 20
13.6999534726
 10
9.0481959771
 20
10.2771154477
 10
9.046485937
 20
6.8523643573
 10
9.0454595391
 20
3.426178439
 10
9.045117294
 20
-0.0000075945
 10
9.045459543
 20
-3.4261944598
 10
9.0464859448
 20
-6.8523814404
 10
9.0481959866
 20
-10.2771316747
 10
9.0505894976
 20
-13.699966209
 10
9.0536666485
 20
-17.121363997
 10
9.0574274394
 20
-20.5413250388
  0
LWPOLYLINE
  5
374
100
AcDbEntity
  8
ASSI
100
AcDbPolyline
 62
250
  6
CONTINUOUS
 90
12
 70
0
 10
9.0536666444
 20
17.1213588546
 10
9.0505894911
 20
13.6999569244
 10
9.0481959794
 20
10.2771192484
 10
9.0464859387
 20
6.852367286
 10
9.0454595396
 20
3.4261795778
 10
9.045117294
 20
-0.0000082552
 10
9.0454595438
 20
-3.4261969908
 10
9.0464859471
 20
-6.8523858512
 10
9.0481959897
 20
-10.2771368817
 10
9.0505895003
 20
-13.699970764
 10
9.0536666502
 20
-17.1213668163
 10
9.0574274394
 20
-20.5413250388
  0
LINE
  5
375
100
AcDbEntity
  8
RACCORDO
100
AcDbLine
 62
250
  6
CONTINUOUS
 10
8.5584896374
 20
20.9797474288
 11
8.5537427897
 21
17.150676619
  0
LINE
  5
376
100
AcDbEntity
  8
ASSI
100
AcDbLine
 62
250
  6
CONTINUOUS
 10
8.5584896336
 20
20.9797474195
 11
8.5537427904
 21
17.1506778212
  0
LINE
  5
377
100
AcDbEntity
  8
RACCORDO
100
AcDbLine
 62
250
  6
CONTINUOUS
 10
9.0580431214
 20
20.7444773458
 11
9.0536666432
 21
17.1213566697
  0
LINE
  5
378
100
AcDbEntity
  8
ASSI
100
AcDbLine
 62
250
  6
CONTINUOUS
 10
9.058042941
 20
20.7444407856
 11
9.0536666444
 21
17.1213588546
  0
LINE
  5
379
100
AcDbEntity
  8
ASSI
100
AcDbLine
 62
250
  6
CONTINUOUS
 10
8.5607225975
 20
21.3454585919
 11
8.5584896336
 21
20.9797474195
  0
LINE
  5
37A
100
AcDbEntity
  8
RACCORDO
100
AcDbLine
 62
250
  6
CONTINUOUS
 10
8.560722586
 20
21.3454574497
 11
8.5584896374
 21
20.9797474288
  0
LINE
  5
37B
100
AcDbEntity
  8
RACCORDO
100
AcDbLine
 62
250
  6
CONTINUOUS
 10
9.059975416
 20
20.9967416866
 11
9.0580431214
 21
20.7444773458
  0
LINE
  5
37C
100
AcDbEntity
  8
ASSI
100
AcDbLine
 62
250
  6
CONTINUOUS
 10
9.0599752276
 20
20.9967232901
 11
9.058042941
 21
20.7444407856
  0
LINE
  5
37D
100
AcDbEntity
  8
RACCORDO
100
AcDbLine
 62
250
  6
CONTINUOUS
 10
8.4669799673
 20
-23.1242659097
 11
8.4619056521
 21
-23.6278312164
  0
LINE
  5
37E
100
AcDbEntity
  8
RACCORDO
100
AcDbLine
 62
250
  6
CONTINUOUS
 10
8.7177033983
 20
-23.2685605037
 11
8.7119014213
 21
-23.8443375673
  0
LINE
  5
37F
100
AcDbEntity
  8
ASSI
100
AcDbLine
 62
250
  6
CONTINUOUS
 10
8.5631140805
 20
21.5776413185
 11
8.5607225975
 21
21.3454585919
  0
LINE
  5
380
100
AcDbEntity
  8
RACCORDO
100
AcDbLine
 62
250
  6
CONTINUOUS
 10
8.5631140699
 20
21.5776411733
 11
8.560722586
 21
21.3454574497
  0
LINE
  5
381
100
AcDbEntity
  8
RACCORDO
100
AcDbLine
 62
250
  6
CONTINUOUS
 10
9.0621775529
 20
21.16090368
 11
9.059975416
 21
20.9967416866
  0
LINE
  5
382
100
AcDbEntity
  8
ASSI
100
AcDbLine
 62
250
  6
CONTINUOUS
 10
9.0621775546
 20
21.1609037692
 11
9.0599752276
 21
20.9967232901
  0
LINE
  5
383
100
AcDbEntity
  8
ASSI
100
AcDbLine
 62
250
  6
CONTINUOUS
 10
8.5649930322
 20
21.7067466582
 11
8.5631140805
 21
21.5776413185
  0
LINE
  5
384
100
AcDbEntity
  8
RACCORDO
100
AcDbLine
 62
250
  6
CONTINUOUS
 10
8.5649930226
 20
21.7067469445
 11
8.5631140699
 21
21.5776411733
  0
LINE
  5
385
100
AcDbEntity
  8
ASSI
100
AcDbLine
 62
250
  6
CONTINUOUS
 10
9.0639547057
 20
21.2544043805
 11
9.0621775546
 21
21.1609037692
  0
LINE
  5
386
100
AcDbEntity
  8
RACCORDO
100
AcDbLine
 62
250
  6
CONTINUOUS
 10
9.06395456
 20
21.2543978177
 11
9.0621775529
 21
21.16090368
  0
LWPOLYLINE
  5
387
100
AcDbEntity
  8
RACCORDO
100
AcDbPolyline
 62
250
  6
CONTINUOUS
 90
31
 70
0
 10
8.7119014213
 20
23.8443375673
 10
8.7115228657
 20
23.833039595
 10
8.7104637381
 20
23.821769291
 10
8.7087263616
 20
23.8105574212
 10
8.7063146602
 20
23.7994336121
 10
8.7032347899
 20
23.78842936
 10
8.6994957389
 20
23.7775778202
 10
8.6951081945
 20
23.7669096972
 10
8.6900837955
 20
23.7564530239
 10
8.6844361149
 20
23.746236105
 10
8.6781804223
 20
23.7362866999
 10
8.6713338477
 20
23.7266321754
 10
8.6639152395
 20
23.7172991519
 10
8.6559449354
 20
23.7083132018
 10
8.6474446406
 20
23.6996987826
 10
8.6384375501
 20
23.6914794042
 10
8.6289482465
 20
23.6836775075
 10
8.6190026594
 20
23.6763144193
 10
8.6086279765
 20
23.6694102704
 10
8.5978525441
 20
23.6629839239
 10
8.5867057861
 20
23.6570529269
 10
8.575218149
 20
23.6516334796
 10
8.5634209923
 20
23.6467403776
 10
8.5513465559
 20
23.6423869945
 10
8.5390278763
 20
23.6385852371
 10
8.5264986409
 20
23.6353454907
 10
8.5137930381
 20
23.6326765842
 10
8.5009457173
 20
23.6305857918
 10
8.48799175
 20
23.6290788219
 10
8.4749665362
 20
23.6281597935
 10
8.4619056521
 20
23.6278312164
  0
LINE
  5
388
100
AcDbEntity
  8
RACCORDO
100
AcDbLine
 62
7
  6
CONTINUOUS
 10
6.325
 20
-22.4
 11
6.3322994044
 21
-22.3342460012
  0
LINE
  5
389
100
AcDbEntity
  8
RACCORDO
100
AcDbLine
 62
250
  6
CONTINUOUS
 10
-12.575
 20
-24.2500042308
 11
-12.5619014213
 21
-24.2369056521
  0
LINE
  5
38A
100
AcDbEntity
  8
RACCORDO
100
AcDbLine
 62
250
  6
CONTINUOUS
 10
-12.3250042308
 20
-24.5
 11
-12.3119056521
 21
-24.4869014213
  0
LINE
  5
38B
100
AcDbEntity
  8
RACCORDO
100
AcDbLine
 62
250
  6
CONTINUOUS
 10
-12.575
 20
24.2500042308
 11
-12.5619014213
 21
24.2369056521
  0
LINE
  5
38C
100
AcDbEntity
  8
RACCORDO
100
AcDbLine
 62
250
  6
CONTINUOUS
 10
-12.3250042308
 20
24.5
 11
-12.3119056521
 21
24.4869014213
  0
LINE
  5
38D
100
AcDbEntity
  8
RACCORDO
100
AcDbLine
 62
7
  6
CONTINUOUS
 10
6.325
 20
22.4
 11
6.3322994044
 21
22.3342460012
  0
LWPOLYLINE
  5
38E
100
AcDbEntity
  8
ASSI
100
AcDbPolyline
 62
250
  6
CONTINUOUS
 90
16
 70
0
 10
9.0739278745
 20
21.4713691811
 10
9.0711448277
 20
21.523530534
 10
9.0629215104
 20
21.5751212486
 10
9.0493478588
 20
21.6255767532
 10
9.0305723585
 20
21.6743448952
 10
9.0068004263
 20
21.7208919676
 10
8.9782921692
 20
21.7647085524
 10
8.9453595209
 20
21.8053151252
 10
8.9083628441
 20
21.8422672751
 10
8.8677070049
 20
21.8751605628
 10
8.8238368965
 20
21.9036349909
 10
8.7772325994
 20
21.9273789113
 10
8.7284041605
 20
21.9461324312
 10
8.6778859499
 20
21.9596902918
 10
8.6262308059
 20
21.9679041022
 10
8.574004027
 20
21.9706839486
  0
LWPOLYLINE
  5
38F
100
AcDbEntity
  8
RACCORDO
100
AcDbPolyline
 62
250
  6
CONTINUOUS
 90
16
 70
0
 10
9.0739278745
 20
21.4713691811
 10
9.0711448171
 20
21.5235306344
 10
9.0629214716
 20
21.57512143
 10
9.04934778
 20
21.6255769946
 10
9.0305722338
 20
21.6743451742
 10
9.0068002555
 20
21.7208922626
 10
8.9782919564
 20
21.7647088446
 10
8.9453592753
 20
21.8053153975
 10
8.9083625785
 20
21.8422675138
 10
8.8677067332
 20
21.87516076
 10
8.8238366349
 20
21.9036351417
 10
8.7772323651
 20
21.9273790155
 10
8.7284039675
 20
21.9461324939
 10
8.6778858099
 20
21.9596903216
 10
8.6262307309
 20
21.9679041101
 10
8.574004027
 20
21.9706839486
  0
LWPOLYLINE
  5
390
100
AcDbEntity
  8
RACCORDO
100
AcDbPolyline
 62
250
  6
CONTINUOUS
 90
37
 70
0
 10
9.1603248699
 20
21.8080186365
 10
9.1598850374
 20
21.8276297776
 10
9.1585902463
 20
21.8472028756
 10
9.1564430249
 20
21.866700743
 10
9.1534475615
 20
21.8860862023
 10
9.1496095923
 20
21.9053225683
 10
9.1449363177
 20
21.9243737033
 10
9.1394365339
 20
21.9432036881
 10
9.1331207627
 20
21.9617764548
 10
9.1260011276
 20
21.9800562739
 10
9.1180912828
 20
21.9980082662
 10
9.1094062548
 20
22.0155985031
 10
9.0999625051
 20
22.0327936255
 10
9.08977801
 20
22.0495609754
 10
9.0788721634
 20
22.0658687011
 10
9.0672656315
 20
22.0816858541
 10
9.0549804461
 20
22.0969824337
 10
9.0420400174
 20
22.111729324
 10
9.0284690088
 20
22.1258983846
 10
9.0142932425
 20
22.1394626968
 10
8.9995396863
 20
22.1523965055
 10
8.9842364593
 20
22.1646751536
 10
8.9684127369
 20
22.176275284
 10
8.9520985679
 20
22.1871749276
 10
8.9353248584
 20
22.1973534354
 10
8.9181235163
 20
22.2067914619
 10
8.9005272396
 20
22.2154710916
 10
8.882569315
 20
22.2233758917
 10
8.8642837222
 20
22.2304908764
 10
8.8457053713
 20
22.2368024432
 10
8.8268698808
 20
22.2422984988
 10
8.8078133132
 20
22.2469685596
 10
8.7885716611
 20
22.2508038516
 10
8.7691810659
 20
22.2537971777
 10
8.749678236
 20
22.2559428275
 10
8.7301003891
 20
22.2572366526
 10
8.7104847413
 20
22.2576761526
  0
LWPOLYLINE
  5
391
100
AcDbEntity
  8
RACCORDO
100
AcDbPolyline
 62
7
  6
CONTINUOUS
 90
25
 70
0
 10
9.2075792813
 20
-21.9498971557
 10
9.2070962423
 20
-21.9705768201
 10
9.2056601858
 20
-21.9912541992
 10
9.2032684081
 20
-22.0118850626
 10
9.1999213131
 20
-22.0324191121
 10
9.1956198278
 20
-22.0528173664
 10
9.1903627836
 20
-22.0730517019
 10
9.1841560209
 20
-22.0930690103
 10
9.1770033068
 20
-22.1128310764
 10
9.1688959063
 20
-22.1323294161
 10
9.1598331822
 20
-22.1515266393
 10
9.1498269012
 20
-22.1703626509
 10
9.1388847298
 20
-22.1887921534
 10
9.1270059964
 20
-22.2067839662
 10
9.1142162796
 20
-22.2242692499
 10
9.1005733173
 20
-22.2411512162
 10
9.0861004302
 20
-22.2573906673
 10
9.0708300719
 20
-22.2729413932
 10
9.0548523406
 20
-22.2877109985
 10
9.0382219144
 20
-22.3016577512
 10
9.0209680761
 20
-22.3147655192
 10
9.0031549511
 20
-22.3269943548
 10
8.9848716514
 20
-22.3382980563
 10
8.9661239551
 20
-22.3486875146
 10
8.9586922242
 20
-22.3524902394
  0
LWPOLYLINE
  5
392
100
AcDbEntity
  8
RACCORDO
100
AcDbPolyline
 62
250
  6
CONTINUOUS
 90
16
 70
0
 10
9.0739278745
 20
-21.4713691811
 10
9.0711447178
 20
-21.5235315701
 10
9.0629211105
 20
-21.5751231208
 10
9.0493470474
 20
-21.6255792421
 10
9.030571076
 20
-21.6743477683
 10
9.006798671
 20
-21.7208950017
 10
8.9782899851
 20
-21.7647115535
 10
8.9453570028
 20
-21.8053179182
 10
8.9083601255
 20
-21.8422697205
 10
8.8677042279
 20
-21.8751625791
 10
8.8238342272
 20
-21.9036365315
 10
8.777230214
 20
-21.9273799736
 10
8.7284021985
 20
-21.9461330693
 10
8.6778845291
 20
-21.9596905945
 10
8.6262300453
 20
-21.9679041827
 10
8.574004027
 20
-21.9706839485
  0
LWPOLYLINE
  5
393
100
AcDbEntity
  8
ASSI
100
AcDbPolyline
 62
250
  6
CONTINUOUS
 90
16
 70
0
 10
9.0739278745
 20
-21.4713691811
 10
9.0711447178
 20
-21.5235315701
 10
9.0629211105
 20
-21.5751231208
 10
9.0493470474
 20
-21.6255792421
 10
9.030571076
 20
-21.6743477682
 10
9.006798671
 20
-21.7208950017
 10
8.9782899851
 20
-21.7647115535
 10
8.9453570028
 20
-21.8053179181
 10
8.9083601255
 20
-21.8422697205
 10
8.867704228
 20
-21.8751625791
 10
8.8238342273
 20
-21.9036365315
 10
8.777230214
 20
-21.9273799736
 10
8.7284021985
 20
-21.9461330693
 10
8.6778845292
 20
-21.9596905945
 10
8.6262300453
 20
-21.9679041827
 10
8.574004027
 20
-21.9706839485
  0
LINE
  5
394
100
AcDbEntity
  8
RACCORDO
100
AcDbLine
 62
7
  6
CONTINUOUS
 10
-6.3220741618
 20
-23.7970741618
 11
-6.325
 21
-23.8
  0
LINE
  5
395
100
AcDbEntity
  8
RACCORDO
100
AcDbLine
 62
7
  6
CONTINUOUS
 10
-6.3220741618
 20
23.7970741618
 11
-6.325
 21
23.8
  0
LINE
  5
396
100
AcDbEntity
  8
0
100
AcDbLine
 62
250
  6
CONTINUOUS
 10
-7.525
 20
14.15
 11
-9.525
 21
14.15
  0
LWPOLYLINE
  5
397
100
AcDbEntity
  8
0
100
AcDbPolyline
 62
7
  6
CONTINUOUS
 90
10
 70
0
 43
0.3500000087
 10
-1.0163574818
 20
33.750001178
 10
-0.9449289263
 20
33.6071420685
 10
-0.9449289263
 20
33.5357146454
 10
-1.0877860373
 20
33.3928555359
 10
-1.1592146595
 20
33.3928555359
 10
-1.2306431484
 20
33.4642872223
 10
-1.2306431484
 20
33.5357146454
 10
-1.1592146595
 20
33.6785694916
 10
-1.0877860373
 20
33.750001178
 10
-1.0163574818
 20
33.750001178
  0
LINE
  5
398
100
AcDbEntity
  8
RACCORDO
100
AcDbLine
 62
7
  6
CONTINUOUS
 10
-5.8930905905
 20
-23.6400757416
 11
-5.8220826234
 21
-23.5953423515
  0
LINE
  5
399
100
AcDbEntity
  8
RACCORDO
100
AcDbLine
 62
7
  6
CONTINUOUS
 10
-5.8930905905
 20
23.6400757416
 11
-5.8220826234
 21
23.5953423515
  0
LWPOLYLINE
  5
39A
100
AcDbEntity
  8
0
100
AcDbPolyline
 62
7
  6
CONTINUOUS
 90
10
 70
0
 43
0.3500000087
 10
20.3250006638
 20
1.2441862656
 10
19.467856665
 20
2.1013281326
 10
18.610714798
 20
2.3156146652
 10
17.7535718651
 20
2.3156146652
 10
17.3249998657
 20
1.8870437317
 10
17.3249998657
 20
1.2441862656
 10
17.7535718651
 20
0.8156132004
 10
18.610714798
 20
0.8156132004
 10
19.0392857315
 20
1.2441862656
 10
19.0392857315
 20
2.1727576874
  0
LINE
  5
39B
100
AcDbEntity
  8
RACCORDO
100
AcDbLine
 62
7
  6
CONTINUOUS
 10
-5.9215581838
 20
-23.6577812011
 11
-5.8930905905
 21
-23.6400757416
  0
LINE
  5
39C
100
AcDbEntity
  8
0
100
AcDbLine
 62
250
  6
CONTINUOUS
 10
-9.525
 20
17.85
 11
-7.525
 21
17.85
  0
LINE
  5
39D
100
AcDbEntity
  8
RACCORDO
100
AcDbLine
 62
7
  6
CONTINUOUS
 10
-5.9499483201
 20
23.6751796798
 11
-5.9215581838
 21
23.6577812011
  0
LINE
  5
39E
100
AcDbEntity
  8
RACCORDO
100
AcDbLine
 62
7
  6
CONTINUOUS
 10
-5.9215581838
 20
23.6577812011
 11
-5.8930905905
 21
23.6400757416
  0
LWPOLYLINE
  5
39F
100
AcDbEntity
  8
0
100
AcDbPolyline
 62
7
  6
CONTINUOUS
 90
3
 70
0
 43
0.3500000087
 10
19.6821431976
 20
-0.0415286667
 10
19.6821431976
 20
-1.5415279999
 10
17.3249998657
 20
-0.8986705338
  0
LINE
  5
3A0
100
AcDbEntity
  8
RACCORDO
100
AcDbLine
 62
250
  6
CONTINUOUS
 10
8.5575035919
 20
20.575617735
 11
-12.4075035919
 21
20.575617735
  0
LINE
  5
3A1
100
AcDbEntity
  8
ASSI
100
AcDbLine
 62
250
  6
CONTINUOUS
 10
8.5575035919
 20
20.575617735
 11
-12.4075035919
 21
20.575617735
  0
LINE
  5
3A2
100
AcDbEntity
  8
RACCORDO
100
AcDbLine
 62
250
  6
CONTINUOUS
 10
6.325
 20
-24.2500042308
 11
6.3380985787
 21
-24.2369056521
  0
LINE
  5
3A3
100
AcDbEntity
  8
RACCORDO
100
AcDbLine
 62
250
  6
CONTINUOUS
 10
6.5749957692
 20
-24.5
 11
6.5880943479
 21
-24.4869014213
  0
LWPOLYLINE
  5
3A4
100
AcDbEntity
  8
RACCORDO
100
AcDbPolyline
 62
250
  6
CONTINUOUS
 90
16
 70
0
 10
9.0574274393
 20
-20.5413250388
 10
9.0538480468
 20
-20.5448704604
 10
9.04495055
 20
-20.5483778853
 10
9.0308302814
 20
-20.5518097332
 10
9.0116385333
 20
-20.5551292333
 10
8.9875809368
 20
-20.5583008187
 10
8.958915258
 20
-20.5612905072
 10
8.9259486367
 20
-20.5640662657
 10
8.8890342955
 20
-20.5665983532
 10
8.8485677547
 20
-20.5688596395
 10
8.8049825952
 20
-20.5708258959
 10
8.7587458122
 20
-20.5724760549
 10
8.7103528119
 20
-20.5737924359
 10
8.6603221035
 20
-20.5747609347
 10
8.6091897435
 20
-20.575371174
 10
8.5575035919
 20
-20.5756166154
  0
LWPOLYLINE
  5
3A5
100
AcDbEntity
  8
ASSI
100
AcDbPolyline
 62
250
  6
CONTINUOUS
 90
16
 70
0
 10
9.0574274393
 20
-20.5413250388
 10
9.0538479308
 20
-20.5448704501
 10
9.0449503358
 20
-20.5483778641
 10
9.0308299877
 20
-20.5518097007
 10
9.011638179
 20
-20.5551291894
 10
8.9875805409
 20
-20.5583007634
 10
8.9589148391
 20
-20.5612904409
 10
8.9259482128
 20
-20.5640661889
 10
8.8890338834
 20
-20.5665982666
 10
8.8485673701
 20
-20.5688595441
 10
8.8049822519
 20
-20.5708257928
 10
8.7587455223
 20
-20.5724759453
 10
8.7103525854
 20
-20.5737923213
 10
8.6603219481
 20
-20.5747608163
 10
8.6091896643
 20
-20.5753710536
 10
8.5575035919
 20
-20.5756164945
  0
LINE
  5
3A6
100
AcDbEntity
  8
RACCORDO
100
AcDbLine
 62
250
  6
CONTINUOUS
 10
9.1379773809
 20
21.8080186378
 11
9.1603248699
 21
21.8080186365
  0
LINE
  5
3A7
100
AcDbEntity
  8
RACCORDO
100
AcDbLine
 62
250
  6
CONTINUOUS
 10
-12.9879773812
 20
21.8080186365
 11
-13.0103248699
 21
21.8080186365
  0
LINE
  5
3A8
100
AcDbEntity
  8
RACCORDO
100
AcDbLine
 62
250
  6
CONTINUOUS
 10
8.574004027
 20
21.9706839485
 11
-12.424004027
 21
21.9706839485
  0
LINE
  5
3A9
100
AcDbEntity
  8
ASSI
100
AcDbLine
 62
250
  6
CONTINUOUS
 10
8.574004027
 20
21.9706839485
 11
-12.424004027
 21
21.9706839485
  0
LINE
  5
3AA
100
AcDbEntity
  8
DRAFT
100
AcDbLine
 62
7
  6
CONTINUOUS
 10
-4.925
 20
22.0951844414
 11
1.075
 21
22.0951844414
  0
LINE
  5
3AB
100
AcDbEntity
  8
ASSI
100
AcDbLine
 62
7
  6
CONTINUOUS
 10
-4.925
 20
22.0951844414
 11
1.075
 21
22.0951844414
  0
LINE
  5
3AC
100
AcDbEntity
  8
RACCORDO
100
AcDbLine
 62
7
  6
CONTINUOUS
 10
-12.5003805997
 20
22.2
 11
-4.925
 21
22.2
  0
LINE
  5
3AD
100
AcDbEntity
  8
ASSI
100
AcDbLine
 62
7
  6
CONTINUOUS
 10
-12.5003805997
 20
22.2
 11
-4.925
 21
22.2
  0
LINE
  5
3AE
100
AcDbEntity
  8
RACCORDO
100
AcDbLine
 62
7
  6
CONTINUOUS
 10
1.075
 20
22.2
 11
8.6503805997
 21
22.2
  0
LINE
  5
3AF
100
AcDbEntity
  8
ASSI
100
AcDbLine
 62
7
  6
CONTINUOUS
 10
1.075
 20
22.2
 11
8.6503805997
 21
22.2
  0
LINE
  5
3B0
100
AcDbEntity
  8
RACCORDO
100
AcDbLine
 62
250
  6
CONTINUOUS
 10
8.7104847413
 20
22.2576761526
 11
-12.5604847413
 21
22.2576761526
  0
LINE
  5
3B1
100
AcDbEntity
  8
RACCORDO
100
AcDbLine
 62
7
  6
CONTINUOUS
 10
8.4677047869
 20
22.3212199262
 11
6.5822952131
 21
22.3212199262
  0
LINE
  5
3B2
100
AcDbEntity
  8
RACCORDO
100
AcDbLine
 62
7
  6
CONTINUOUS
 10
-10.4322952131
 20
22.3212199262
 11
-12.3177047869
 21
22.3212199262
  0
LINE
  5
3B3
100
AcDbEntity
  8
RACCORDO
100
AcDbLine
 62
7
  6
CONTINUOUS
 10
-5.8220826234
 20
22.3475922207
 11
1.9720826234
 21
22.3475922207
  0
LINE
  5
3B4
100
AcDbEntity
  8
RACCORDO
100
AcDbLine
 62
7
  6
CONTINUOUS
 10
-12.6078874748
 20
22.4
 11
-12.575
 21
22.4
  0
LINE
  5
3B5
100
AcDbEntity
  8
DRAFT
100
AcDbLine
 62
7
  6
CONTINUOUS
 10
-10.175
 20
22.4
 11
-6.325
 21
22.4
  0
LINE
  5
3B6
100
AcDbEntity
  8
DRAFT
100
AcDbLine
 62
7
  6
CONTINUOUS
 10
2.475
 20
22.4
 11
6.325
 21
22.4
  0
LINE
  5
3B7
100
AcDbEntity
  8
RACCORDO
100
AcDbLine
 62
7
  6
CONTINUOUS
 10
8.725
 20
22.4
 11
8.7578874748
 21
22.4
  0
LWPOLYLINE
  5
3B8
100
AcDbEntity
  8
RACCORDO
100
AcDbPolyline
 62
250
  6
CONTINUOUS
 90
16
 70
0
 10
9.0574274394
 20
20.5413250388
 10
9.0538491891
 20
20.5448705472
 10
9.0449526589
 20
20.5483780659
 10
9.030833174
 20
20.5518100123
 10
9.0116420228
 20
20.5551296135
 10
8.9875848362
 20
20.5583013003
 10
8.9589193838
 20
20.5612910887
 10
8.9259528123
 20
20.5640669434
 10
8.8890383542
 20
20.5665991214
 10
8.8485715434
 20
20.5688604908
 10
8.8049859766
 20
20.5708268213
 10
8.7587486675
 20
20.5724770439
 10
8.710355043
 20
20.5737934768
 10
8.6603236347
 20
20.5747620147
 10
8.6091905227
 20
20.5753722798
 10
8.5575035919
 20
20.5756177331
  0
LWPOLYLINE
  5
3B9
100
AcDbEntity
  8
ASSI
100
AcDbPolyline
 62
250
  6
CONTINUOUS
 90
16
 70
0
 10
9.0574274394
 20
20.5413250388
 10
9.0538491889
 20
20.5448705472
 10
9.0449526584
 20
20.5483780659
 10
9.0308331733
 20
20.5518100122
 10
9.011642022
 20
20.5551296134
 10
8.9875848353
 20
20.5583013002
 10
8.9589193829
 20
20.5612910886
 10
8.9259528113
 20
20.5640669432
 10
8.8890383533
 20
20.5665991212
 10
8.8485715426
 20
20.5688604906
 10
8.8049859758
 20
20.570826821
 10
8.7587486669
 20
20.5724770436
 10
8.7103550425
 20
20.5737934765
 10
8.6603236344
 20
20.5747620144
 10
8.6091905226
 20
20.5753722795
 10
8.5575035919
 20
20.5756177329
  0
LINE
  5
3BA
100
AcDbEntity
  8
RACCORDO
100
AcDbLine
 62
250
  6
CONTINUOUS
 10
6.325
 20
24.2500042308
 11
6.3380985787
 21
24.2369056521
  0
LINE
  5
3BB
100
AcDbEntity
  8
RACCORDO
100
AcDbLine
 62
250
  6
CONTINUOUS
 10
6.5749957692
 20
24.5
 11
6.5880943479
 21
24.4869014213
  0
LINE
  5
3BC
100
AcDbEntity
  8
RACCORDO
100
AcDbLine
 62
250
  6
CONTINUOUS
 10
9.2075792813
 20
-21.9498971557
 11
9.225
 21
-21.9411874598
  0
LINE
  5
3BD
100
AcDbEntity
  8
RACCORDO
100
AcDbLine
 62
7
  6
CONTINUOUS
 10
8.9586674391
 20
-22.352502632
 11
8.9761653018
 21
-22.3437543669
  0
LWPOLYLINE
  5
3BE
100
AcDbEntity
  8
RACCORDO
100
AcDbPolyline
 62
7
  6
CONTINUOUS
 90
11
 70
0
 10
8.9586922242
 20
-22.3524902394
 10
8.946845394
 20
-22.3581993164
 10
8.927026485
 20
-22.3668236603
 10
8.9067565242
 20
-22.3745074735
 10
8.8861130342
 20
-22.3812142134
 10
8.8651454397
 20
-22.3869236637
 10
8.8438989292
 20
-22.3916194179
 10
8.8224489306
 20
-22.3952825341
 10
8.8008544969
 20
-22.3979033185
 10
8.779157253
 20
-22.3994771119
 10
8.757407897
 20
-22.3999999727
  0
LWPOLYLINE
  5
3BF
100
AcDbEntity
  8
RACCORDO
100
AcDbPolyline
 62
7
  6
CONTINUOUS
 90
23
 70
0
 10
2.3712073137
 20
23.7953389668
 10
2.3604181903
 20
23.7947915649
 10
2.3493307281
 20
23.793363895
 10
2.3379449272
 20
23.7911364879
 10
2.3262361469
 20
23.7881978965
 10
2.314229028
 20
23.7846238716
 10
2.301997492
 20
23.7804595132
 10
2.2895487518
 20
23.7757643703
 10
2.2768755946
 20
23.7706018097
 10
2.2640303044
 20
23.7649953104
 10
2.2510171723
 20
23.758990232
 10
2.2378319072
 20
23.7526365647
 10
2.2245139203
 20
23.7459460582
 10
2.2110654333
 20
23.7389542831
 10
2.1974842244
 20
23.7317013921
 10
2.1838030396
 20
23.724193673
 10
2.1700229279
 20
23.7164601879
 10
2.1561428402
 20
23.708533951
 10
2.1421923756
 20
23.7004191901
 10
2.128171775
 20
23.6921405291
 10
2.1140807976
 20
23.6837259593
 10
2.0999483201
 20
23.6751796798
 10
2.0715581838
 20
23.6577812011
  0
LWPOLYLINE
  5
3C0
100
AcDbEntity
  8
RACCORDO
100
AcDbPolyline
 62
250
  6
CONTINUOUS
 90
31
 70
0
 10
6.5880943479
 20
24.4869014213
 10
6.575042008
 20
24.4865600141
 10
6.5620171136
 20
24.4855367515
 10
6.549055339
 20
24.4838331472
 10
6.5361896202
 20
24.4814520171
 10
6.5234581551
 20
24.4783989037
 10
6.5109039705
 20
24.474683464
 10
6.4985641666
 20
24.4703169129
 10
6.4864698104
 20
24.465310483
 10
6.4746537322
 20
24.4596777344
 10
6.4631481318
 20
24.4534339327
 10
6.4519848134
 20
24.4465962509
 10
6.4411947342
 20
24.4391836209
 10
6.4308076083
 20
24.4312164786
 10
6.4208517711
 20
24.4227165817
 10
6.4113544367
 20
24.4137071599
 10
6.4023416176
 20
24.4042128667
 10
6.3938380761
 20
24.3942597633
 10
6.3858671679
 20
24.383875174
 10
6.378450761
 20
24.3730875837
 10
6.3716091852
 20
24.3619265577
 10
6.3653612061
 20
24.3504227019
 10
6.3597239578
 20
24.3386075563
 10
6.3547129023
 20
24.3265135191
 10
6.3503417872
 20
24.314173763
 10
6.3466225977
 20
24.3016221155
 10
6.3435655366
 20
24.2888930016
 10
6.3411789939
 20
24.2760213619
 10
6.3394695107
 20
24.2630425045
 10
6.3384417677
 20
24.2499920062
 10
6.3380985787
 20
24.2369056521
  0
LWPOLYLINE
  5
3C1
100
AcDbEntity
  8
RACCORDO
100
AcDbPolyline
 62
250
  6
CONTINUOUS
 90
37
 70
0
 10
-12.5604847413
 20
22.2576761526
 10
-12.5801003891
 20
22.2572366526
 10
-12.599678236
 20
22.2559428275
 10
-12.6191810659
 20
22.2537971777
 10
-12.6385716611
 20
22.2508038516
 10
-12.6578133132
 20
22.2469685596
 10
-12.6768698808
 20
22.2422984988
 10
-12.6957053713
 20
22.2368024432
 10
-12.7142837222
 20
22.2304908764
 10
-12.732569315
 20
22.2233758917
 10
-12.7505272396
 20
22.2154710916
 10
-12.7681235163
 20
22.2067914619
 10
-12.7853248584
 20
22.1973534354
 10
-12.8020985679
 20
22.1871749276
 10
-12.8184127369
 20
22.176275284
 10
-12.8342364593
 20
22.1646751536
 10
-12.8495396863
 20
22.1523965055
 10
-12.8642932425
 20
22.1394626968
 10
-12.8784690088
 20
22.1258983846
 10
-12.8920400174
 20
22.111729324
 10
-12.9049804461
 20
22.0969824337
 10
-12.9172656315
 20
22.0816858541
 10
-12.9288721634
 20
22.0658687011
 10
-12.93977801
 20
22.0495609754
 10
-12.9499625051
 20
22.0327936255
 10
-12.9594062548
 20
22.0155985031
 10
-12.9680912828
 20
21.9980082662
 10
-12.9760011276
 20
21.9800562739
 10
-12.9831207627
 20
21.9617764548
 10
-12.9894365339
 20
21.9432036881
 10
-12.9949363177
 20
21.9243737033
 10
-12.9996095923
 20
21.9053225683
 10
-13.0034475615
 20
21.8860862023
 10
-13.0064430249
 20
21.866700743
 10
-13.0085902463
 20
21.8472028756
 10
-13.0098850374
 20
21.8276297776
 10
-13.0103248699
 20
21.8080186365
  0
LINE
  5
3C2
100
AcDbEntity
  8
RACCORDO
100
AcDbLine
 62
7
  6
CONTINUOUS
 10
8.4669799673
 20
23.1242659097
 11
6.5830200327
 21
23.1242659097
  0
LINE
  5
3C3
100
AcDbEntity
  8
RACCORDO
100
AcDbLine
 62
7
  6
CONTINUOUS
 10
-10.4330200327
 20
23.1242659097
 11
-12.3169799673
 21
23.1242659097
  0
LINE
  5
3C4
100
AcDbEntity
  8
RACCORDO
100
AcDbLine
 62
250
  6
CONTINUOUS
 10
1.9720826234
 20
23.5953423515
 11
-5.8220826234
 21
23.5953423515
  0
LINE
  5
3C5
100
AcDbEntity
  8
RACCORDO
100
AcDbLine
 62
250
  6
CONTINUOUS
 10
-12.3119056521
 20
23.6278312164
 11
-10.4380943479
 21
23.6278312164
  0
LINE
  5
3C6
100
AcDbEntity
  8
RACCORDO
100
AcDbLine
 62
250
  6
CONTINUOUS
 10
6.5880943479
 20
23.6278312164
 11
8.4619056521
 21
23.6278312164
  0
LINE
  5
3C7
100
AcDbEntity
  8
RACCORDO
100
AcDbLine
 62
250
  6
CONTINUOUS
 10
2.3712073137
 20
23.7953389668
 11
-6.2212073137
 21
23.7953389668
  0
LINE
  5
3C8
100
AcDbEntity
  8
DRAFT
100
AcDbLine
 62
7
  6
CONTINUOUS
 10
-6.325
 20
23.8
 11
2.475
 21
23.8
  0
LINE
  5
3C9
100
AcDbEntity
  8
RACCORDO
100
AcDbLine
 62
250
  6
CONTINUOUS
 10
6.3380985787
 20
23.8443375673
 11
8.7119014213
 21
23.8443375673
  0
LINE
  5
3CA
100
AcDbEntity
  8
RACCORDO
100
AcDbLine
 62
250
  6
CONTINUOUS
 10
-10.1880985787
 20
23.8443375673
 11
-12.5619014213
 21
23.8443375673
  0
LINE
  5
3CB
100
AcDbEntity
  8
RACCORDO
100
AcDbLine
 62
250
  6
CONTINUOUS
 10
6.3380985787
 20
24.2369056521
 11
8.7119014213
 21
24.2369056521
  0
LINE
  5
3CC
100
AcDbEntity
  8
RACCORDO
100
AcDbLine
 62
250
  6
CONTINUOUS
 10
-10.1880985787
 20
24.2369056521
 11
-12.5619014213
 21
24.2369056521
  0
LWPOLYLINE
  5
3CD
100
AcDbEntity
  8
RACCORDO
100
AcDbPolyline
 62
7
  6
CONTINUOUS
 90
11
 70
0
 10
8.757407897
 20
22.3999999727
 10
8.779157253
 20
22.3994771119
 10
8.8008544969
 20
22.3979033185
 10
8.8224489306
 20
22.3952825341
 10
8.8438989292
 20
22.3916194179
 10
8.8651454397
 20
22.3869236637
 10
8.8861130342
 20
22.3812142134
 10
8.9067565242
 20
22.3745074735
 10
8.927026485
 20
22.3668236603
 10
8.946845394
 20
22.3581993164
 10
8.9586922242
 20
22.3524902394
  0
LWPOLYLINE
  5
3CE
100
AcDbEntity
  8
RACCORDO
100
AcDbPolyline
 62
7
  6
CONTINUOUS
 90
22
 70
0
 10
-6.2212073137
 20
23.7953389668
 10
-6.2104181903
 20
23.7947915649
 10
-6.1993307281
 20
23.793363895
 10
-6.1879449272
 20
23.7911364879
 10
-6.1762361469
 20
23.7881978965
 10
-6.164229028
 20
23.7846238716
 10
-6.151997492
 20
23.7804595132
 10
-6.1395487518
 20
23.7757643703
 10
-6.1268755946
 20
23.7706018097
 10
-6.1140303044
 20
23.7649953104
 10
-6.1010171723
 20
23.758990232
 10
-6.0878319072
 20
23.7526365647
 10
-6.0745139203
 20
23.7459460582
 10
-6.0610654333
 20
23.7389542831
 10
-6.0474842244
 20
23.7317013921
 10
-6.0338030396
 20
23.724193673
 10
-6.0200229279
 20
23.7164601879
 10
-6.0061428402
 20
23.708533951
 10
-5.9921923756
 20
23.7004191901
 10
-5.978171775
 20
23.6921405291
 10
-5.9640807976
 20
23.6837259593
 10
-5.9499483201
 20
23.6751796798
  0
LINE
  5
3CF
100
AcDbEntity
  8
RACCORDO
100
AcDbLine
 62
250
  6
CONTINUOUS
 10
9.225
 20
21.9411874598
 11
9.2075792813
 21
21.9498971557
  0
LINE
  5
3D0
100
AcDbEntity
  8
RACCORDO
100
AcDbLine
 62
7
  6
CONTINUOUS
 10
8.9761653018
 20
22.3437543669
 11
8.9586674391
 21
22.352502632
  0
LWPOLYLINE
  5
3D1
100
AcDbEntity
  8
RACCORDO
100
AcDbPolyline
 62
7
  6
CONTINUOUS
 90
25
 70
0
 10
8.9586922242
 20
22.3524902394
 10
8.9661239551
 20
22.3486875146
 10
8.9848716514
 20
22.3382980563
 10
9.0031549511
 20
22.3269943548
 10
9.0209680761
 20
22.3147655192
 10
9.0382219144
 20
22.3016577512
 10
9.0548523406
 20
22.2877109985
 10
9.0708300719
 20
22.2729413932
 10
9.0861004302
 20
22.2573906673
 10
9.1005733173
 20
22.2411512162
 10
9.1142162796
 20
22.2242692499
 10
9.1270059964
 20
22.2067839662
 10
9.1388847298
 20
22.1887921534
 10
9.1498269012
 20
22.1703626509
 10
9.1598331822
 20
22.1515266393
 10
9.1688959063
 20
22.1323294161
 10
9.1770033068
 20
22.1128310764
 10
9.1841560209
 20
22.0930690103
 10
9.1903627836
 20
22.0730517019
 10
9.1956198278
 20
22.0528173664
 10
9.1999213131
 20
22.0324191121
 10
9.2032684081
 20
22.0118850626
 10
9.2056601858
 20
21.9912541992
 10
9.2070962423
 20
21.9705768201
 10
9.2075792813
 20
21.9498971557
  0
LWPOLYLINE
  5
3D2
100
AcDbEntity
  8
RACCORDO
100
AcDbPolyline
 62
250
  6
CONTINUOUS
 90
31
 70
0
 10
-12.3119056521
 20
24.4869014213
 10
-12.3249920062
 20
24.4865582323
 10
-12.3380425045
 20
24.4855304893
 10
-12.3510213619
 20
24.4838210061
 10
-12.3638930016
 20
24.4814344634
 10
-12.3766221155
 20
24.4783774023
 10
-12.389173763
 20
24.4746582128
 10
-12.4015135191
 20
24.4702870977
 10
-12.4136075563
 20
24.4652760422
 10
-12.4254227019
 20
24.4596387939
 10
-12.4369265577
 20
24.4533908148
 10
-12.4480875837
 20
24.446549239
 10
-12.458875174
 20
24.4391328321
 10
-12.4692597633
 20
24.4311619239
 10
-12.4792128667
 20
24.4226583824
 10
-12.4887071599
 20
24.4136455633
 10
-12.4977165817
 20
24.4041482289
 10
-12.5062164786
 20
24.3941923917
 10
-12.5141836209
 20
24.3838052658
 10
-12.5215962509
 20
24.3730151866
 10
-12.5284339327
 20
24.3618518682
 10
-12.5346777344
 20
24.3503462678
 10
-12.540310483
 20
24.3385301896
 10
-12.5453169129
 20
24.3264358334
 10
-12.549683464
 20
24.3140960295
 10
-12.5533989037
 20
24.3015418449
 10
-12.5564520171
 20
24.2888103798
 10
-12.5588331472
 20
24.275944661
 10
-12.5605367515
 20
24.2629828864
 10
-12.5615600141
 20
24.249957992
 10
-12.5619014213
 20
24.2369056521
  0
LWPOLYLINE
  5
3D3
100
AcDbEntity
  8
RACCORDO
100
AcDbPolyline
 62
7
  6
CONTINUOUS
 90
34
 70
0
 10
6.5749957692
 20
24.5
 10
6.563100484
 20
24.4997168498
 10
6.5512321444
 20
24.4988680342
 10
6.5394176339
 20
24.4974554741
 10
6.5276837125
 20
24.4954823677
 10
6.5160569612
 20
24.4929531817
 10
6.504563721
 20
24.4898736417
 10
6.4932300262
 20
24.4862507213
 10
6.4820815507
 20
24.4820926258
 10
6.4711435537
 20
24.4774087722
 10
6.4604408124
 20
24.4722097688
 10
6.4499975717
 20
24.4665073916
 10
6.4398374941
 20
24.4603145581
 10
6.4299835949
 20
24.4536452955
 10
6.4204581962
 20
24.4465147107
 10
6.4112828809
 20
24.4389389589
 10
6.4024784339
 20
24.4309352005
 10
6.3940647995
 20
24.4225215661
 10
6.3860610411
 20
24.4137171191
 10
6.3784852893
 20
24.4045418038
 10
6.3713547045
 20
24.3950164051
 10
6.3646854419
 20
24.3851625059
 10
6.3584926084
 20
24.3750024283
 10
6.3527902312
 20
24.3645591876
 10
6.3475912278
 20
24.3538564463
 10
6.3429073742
 20
24.3429184493
 10
6.3387492787
 20
24.3317699738
 10
6.3351263583
 20
24.320436279
 10
6.3320468183
 20
24.3089430388
 10
6.3295176323
 20
24.2973162875
 10
6.3275445259
 20
24.2855823661
 10
6.3261319658
 20
24.2737678556
 10
6.3252831502
 20
24.261899516
 10
6.325
 20
24.2500042308
  0
LWPOLYLINE
  5
3D4
100
AcDbEntity
  8
RACCORDO
100
AcDbPolyline
 62
7
  6
CONTINUOUS
 90
34
 70
0
 10
-12.3250042308
 20
24.5
 10
-12.336899516
 20
24.4997168498
 10
-12.3487678556
 20
24.4988680342
 10
-12.3605823661
 20
24.4974554741
 10
-12.3723162875
 20
24.4954823677
 10
-12.3839430388
 20
24.4929531817
 10
-12.395436279
 20
24.4898736417
 10
-12.4067699738
 20
24.4862507213
 10
-12.4179184493
 20
24.4820926258
 10
-12.4288564463
 20
24.4774087722
 10
-12.4395591876
 20
24.4722097688
 10
-12.4500024283
 20
24.4665073916
 10
-12.4601625059
 20
24.4603145581
 10
-12.4700164051
 20
24.4536452955
 10
-12.4795418038
 20
24.4465147107
 10
-12.4887171191
 20
24.4389389589
 10
-12.4975215661
 20
24.4309352005
 10
-12.5059352005
 20
24.4225215661
 10
-12.5139389589
 20
24.4137171191
 10
-12.5215147107
 20
24.4045418038
 10
-12.5286452955
 20
24.3950164051
 10
-12.5353145581
 20
24.3851625059
 10
-12.5415073916
 20
24.3750024283
 10
-12.5472097688
 20
24.3645591876
 10
-12.5524087722
 20
24.3538564463
 10
-12.5570926258
 20
24.3429184493
 10
-12.5612507213
 20
24.3317699738
 10
-12.5648736417
 20
24.320436279
 10
-12.5679531817
 20
24.3089430388
 10
-12.5704823677
 20
24.2973162875
 10
-12.5724554741
 20
24.2855823661
 10
-12.5738680342
 20
24.2737678556
 10
-12.5747168498
 20
24.261899516
 10
-12.575
 20
24.2500042308
  0
LINE
  5
3D5
100
AcDbEntity
  8
RACCORDO
100
AcDbLine
 62
250
  6
CONTINUOUS
 10
8.4619056521
 20
24.4869014213
 11
6.5880943479
 21
24.4869014213
  0
LINE
  5
3D6
100
AcDbEntity
  8
RACCORDO
100
AcDbLine
 62
250
  6
CONTINUOUS
 10
-10.4380943479
 20
24.4869014213
 11
-12.3119056521
 21
24.4869014213
  0
LINE
  5
3D7
100
AcDbEntity
  8
RACCORDO
100
AcDbLine
 62
7
  6
CONTINUOUS
 10
-12.3250042308
 20
24.5
 11
-10.4249957692
 21
24.5
  0
LINE
  5
3D8
100
AcDbEntity
  8
RACCORDO
100
AcDbLine
 62
7
  6
CONTINUOUS
 10
6.5749957692
 20
24.5
 11
8.4750042308
 21
24.5
  0
LWPOLYLINE
  5
3D9
100
AcDbEntity
  8
0
100
AcDbPolyline
 62
7
  6
CONTINUOUS
 90
6
 70
0
 43
0.3500000087
 10
0.0550710885
 20
33.2500006897
 10
1.1264996506
 20
33.2500006897
 10
1.3407853838
 20
33.4642872223
 10
1.3407853838
 20
34.5357156219
 10
0.9122139174
 20
34.9642844238
 10
0.4836425175
 20
34.9642844238
  0
LWPOLYLINE
  5
3DA
100
AcDbEntity
  8
0
100
AcDbPolyline
 62
7
  6
CONTINUOUS
 90
7
 70
0
 43
0.3500000087
 10
-2.5163575478
 20
33.2500006897
 10
-4.0163574139
 20
33.2500006897
 10
-2.5163575478
 20
35.392857489
 10
-2.5163575478
 20
35.8214305542
 10
-2.9449290142
 20
36.2499993561
 10
-3.5877859474
 20
36.2499993561
 10
-4.0163574139
 20
35.6071440216
  0
LWPOLYLINE
  5
3DB
100
AcDbEntity
  8
0
100
AcDbPolyline
 62
7
  6
CONTINUOUS
 90
7
 70
0
 43
0.3500000087
 10
-4.8735003468
 20
33.2500006897
 10
-6.3735002129
 20
33.2500006897
 10
-4.8735003468
 20
35.392857489
 10
-4.8735003468
 20
35.8214305542
 10
-5.3020718132
 20
36.2499993561
 10
-5.9449287464
 20
36.2499993561
 10
-6.3735002129
 20
35.6071440216
  0
LWPOLYLINE
  5
3DC
100
AcDbEntity
  8
0
100
AcDbPolyline
 62
7
  6
CONTINUOUS
 90
5
 70
0
 43
0.3500000087
 10
-47.7952461975
 20
44.9642856628
 10
-47.4381048187
 20
45.1785721954
 10
-47.4381048187
 20
45.8214275299
 10
-47.7952461975
 20
46.2500005951
 10
-48.6523923279
 20
46.2500005951
  0
LWPOLYLINE
  5
3DD
100
AcDbEntity
  8
RACCORDO
100
AcDbPolyline
 62
7
  6
CONTINUOUS
 90
3
 70
0
 10
-55.1458017147
 20
23.1251448353
 10
-55.1468136307
 20
23.1245194958
 10
-55.1471533451
 20
23.1242659097
  0
LINE
  5
3DE
100
AcDbEntity
  8
RACCORDO
100
AcDbLine
 62
7
  6
CONTINUOUS
 10
-55.1388551518
 20
23.1292767261
 11
-55.1458017147
 21
23.1251448353
  0
LINE
  5
3DF
100
AcDbEntity
  8
RACCORDO
100
AcDbLine
 62
7
  6
CONTINUOUS
 10
-55.0879543783
 20
23.1589722122
 11
-55.1388551518
 21
23.1292767261
  0
LINE
  5
3E0
100
AcDbEntity
  8
RACCORDO
100
AcDbLine
 62
7
  6
CONTINUOUS
 10
-54.8985333461
 20
23.2685605037
 11
-55.0879543783
 21
23.1589722122
  0
LINE
  5
3E1
100
AcDbEntity
  8
RACCORDO
100
AcDbLine
 62
250
  6
CONTINUOUS
 10
-53.6443540412
 20
23.4119018676
 11
-52.8928996083
 21
23.8445398019
  0
LINE
  5
3E2
100
AcDbEntity
  8
RACCORDO
100
AcDbLine
 62
7
  6
CONTINUOUS
 10
-53.6443540412
 20
23.1242659097
 11
-52.7696167515
 21
23.6278819874
  0
LINE
  5
3E3
100
AcDbEntity
  8
RACCORDO
100
AcDbLine
 62
250
  6
CONTINUOUS
 10
-52.8928996083
 20
-23.8445398019
 11
-53.6443540412
 21
-23.4119018676
  0
LINE
  5
3E4
100
AcDbEntity
  8
RACCORDO
100
AcDbLine
 62
7
  6
CONTINUOUS
 10
-52.7696167515
 20
-23.6278819874
 11
-53.6443540412
 21
-23.1242659097
  0
LINE
  5
3E5
100
AcDbEntity
  8
RACCORDO
100
AcDbLine
 62
7
  6
CONTINUOUS
 10
-54.8985333461
 20
-23.2685605037
 11
-55.1026550078
 21
-23.1504206011
  0
LINE
  5
3E6
100
AcDbEntity
  8
RACCORDO
100
AcDbLine
 62
7
  6
CONTINUOUS
 10
-55.1026550078
 20
-23.1504206011
 11
-55.1312155963
 21
-23.1337620879
  0
LINE
  5
3E7
100
AcDbEntity
  8
RACCORDO
100
AcDbLine
 62
7
  6
CONTINUOUS
 10
-55.1312155963
 20
-23.1337620879
 11
-55.1418282069
 21
-23.1275184165
  0
LWPOLYLINE
  5
3E8
100
AcDbEntity
  8
RACCORDO
100
AcDbPolyline
 62
7
  6
CONTINUOUS
 90
5
 70
0
 10
-55.1418282069
 20
-23.1275184165
 10
-55.1441454812
 20
-23.1261324424
 10
-55.1458092082
 20
-23.1251094431
 10
-55.1468157819
 20
-23.1244803027
 10
-55.1471533451
 20
-23.1242659097
  0
LINE
  5
3E9
100
AcDbEntity
  8
RACCORDO
100
AcDbLine
 62
7
  6
CONTINUOUS
 10
-52.8928996083
 20
-24.495628166
 11
-53.6443540412
 21
-24.5
  0
LINE
  5
3EA
100
AcDbEntity
  8
RACCORDO
100
AcDbLine
 62
250
  6
CONTINUOUS
 10
-52.8928996083
 20
-24.2456323968
 11
-53.6443540412
 21
-24.2500042308
  0
LINE
  5
3EB
100
AcDbEntity
  8
ASSI
100
AcDbLine
 62
7
  6
CONTINUOUS
 10
-52.6494902394
 20
-23.7942120517
 11
-46.1414451755
 21
-23.7563493531
  0
LINE
  5
3EC
100
AcDbEntity
  8
RACCORDO
100
AcDbLine
 62
250
  6
CONTINUOUS
 10
-52.6443540412
 20
-24.2456323968
 11
-52.8928996083
 21
-24.2456323968
  0
LINE
  5
3ED
100
AcDbEntity
  8
RACCORDO
100
AcDbLine
 62
250
  6
CONTINUOUS
 10
-56.1443540412
 20
-24.2369056521
 11
-55.895808474
 21
-24.2369056521
  0
LINE
  5
3EE
100
AcDbEntity
  8
RACCORDO
100
AcDbLine
 62
250
  6
CONTINUOUS
 10
-52.6443540412
 20
-23.8445398019
 11
-52.8928996083
 21
-23.8445398019
  0
LINE
  5
3EF
100
AcDbEntity
  8
RACCORDO
100
AcDbLine
 62
250
  6
CONTINUOUS
 10
-56.1443540412
 20
-23.8443375673
 11
-55.895808474
 21
-23.8443375673
  0
LINE
  5
3F0
100
AcDbEntity
  8
RACCORDO
100
AcDbLine
 62
7
  6
CONTINUOUS
 10
-53.6443540412
 20
-24.5
 11
-55.895808474
 21
-24.4869014213
  0
LINE
  5
3F1
100
AcDbEntity
  8
RACCORDO
100
AcDbLine
 62
250
  6
CONTINUOUS
 10
-53.6443540412
 20
-24.2500042308
 11
-55.895808474
 21
-24.2369056521
  0
LINE
  5
3F2
100
AcDbEntity
  8
RACCORDO
100
AcDbLine
 62
7
  6
CONTINUOUS
 10
-56.360054828
 20
-22.2576761526
 11
-53.6443540412
 21
-22.4
  0
LINE
  5
3F3
100
AcDbEntity
  8
RACCORDO
100
AcDbLine
 62
7
  6
CONTINUOUS
 10
-61.0199649651
 20
-21.9706839485
 11
-56.6443540412
 21
-22.2
  0
LINE
  5
3F4
100
AcDbEntity
  8
ASSI
100
AcDbLine
 62
7
  6
CONTINUOUS
 10
-61.0199649651
 20
-21.9706839485
 11
-56.6443540412
 21
-22.2
  0
LWPOLYLINE
  5
3F5
100
AcDbEntity
  8
RACCORDO
100
AcDbPolyline
 62
250
  6
CONTINUOUS
 90
5
 70
0
 10
-56.0168584387
 20
23.6326765842
 10
-56.0179908148
 20
23.6305857918
 10
-56.0187855003
 20
23.6290788219
 10
-56.0192403231
 20
23.6281597935
 10
-56.0193540412
 20
23.6278312164
  0
LINE
  5
3F6
100
AcDbEntity
  8
RACCORDO
100
AcDbLine
 62
250
  6
CONTINUOUS
 10
-56.0135938884
 20
23.6385852371
 11
-56.0168584387
 21
23.6326765842
  0
LINE
  5
3F7
100
AcDbEntity
  8
RACCORDO
100
AcDbLine
 62
250
  6
CONTINUOUS
 10
-56.0062710309
 20
23.6516334796
 11
-56.0135938884
 21
23.6385852371
  0
LINE
  5
3F8
100
AcDbEntity
  8
RACCORDO
100
AcDbLine
 62
250
  6
CONTINUOUS
 10
-55.9836337753
 20
23.6914794042
 11
-56.0062710309
 21
23.6516334796
  0
LINE
  5
3F9
100
AcDbEntity
  8
RACCORDO
100
AcDbLine
 62
250
  6
CONTINUOUS
 10
-55.9088299102
 20
23.821769291
 11
-55.9836337753
 21
23.6914794042
  0
LINE
  5
3FA
100
AcDbEntity
  8
RACCORDO
100
AcDbLine
 62
250
  6
CONTINUOUS
 10
-55.895808474
 20
23.8443375673
 11
-55.9088299102
 21
23.821769291
  0
LWPOLYLINE
  5
3FB
100
AcDbEntity
  8
RACCORDO
100
AcDbPolyline
 62
7
  6
CONTINUOUS
 90
11
 70
0
 10
-53.6443509161
 20
22.3999999727
 10
-53.6447183475
 20
22.3994771119
 10
-53.6450624206
 20
22.3979033185
 10
-53.6453822161
 20
22.3952825341
 10
-53.6456765485
 20
22.3916194179
 10
-53.6459447207
 20
22.3869236637
 10
-53.6461865052
 20
22.3812142134
 10
-53.6464005322
 20
22.3745074735
 10
-53.6465862005
 20
22.3668236603
 10
-53.6467444055
 20
22.3581993164
 10
-53.6469738996
 20
22.3382980563
  0
LINE
  5
3FC
100
AcDbEntity
  8
DRAFT
100
AcDbLine
 62
7
  6
CONTINUOUS
 10
-52.6443540412
 20
-20.85
 11
-42.6443540412
 21
-20.6754493507
  0
LINE
  5
3FD
100
AcDbEntity
  8
ASSI
100
AcDbLine
 62
7
  6
CONTINUOUS
 10
-52.6443540412
 20
-20.85
 11
-42.6443540412
 21
-20.6754493507
  0
LINE
  5
3FE
100
AcDbEntity
  8
RACCORDO
100
AcDbLine
 62
7
  6
CONTINUOUS
 10
-43.6356275057
 20
-22.3126551668
 11
-53.6443509161
 21
-22.3999999727
  0
LINE
  5
3FF
100
AcDbEntity
  8
RACCORDO
100
AcDbLine
 62
250
  6
CONTINUOUS
 10
-53.6423863451
 20
-21.9498971557
 11
-52.6443540412
 21
-21.9411874598
  0
LINE
  5
400
100
AcDbEntity
  8
RACCORDO
100
AcDbLine
 62
250
  6
CONTINUOUS
 10
-56.6443540412
 20
-21.8080186365
 11
-56.3495897631
 21
-21.8080186365
  0
LINE
  5
401
100
AcDbEntity
  8
RACCORDO
100
AcDbLine
 62
7
  6
CONTINUOUS
 10
-42.6443540412
 20
-20.9959955457
 11
-52.6443540412
 21
-20.9087268678
  0
LINE
  5
402
100
AcDbEntity
  8
RACCORDO
100
AcDbLine
 62
7
  6
CONTINUOUS
 10
-43.135627838
 20
-21.5659754333
 11
-52.6443540412
 21
-21.4
  0
LINE
  5
403
100
AcDbEntity
  8
RACCORDO
100
AcDbLine
 62
250
  6
CONTINUOUS
 10
-56.3495897631
 20
-21.8080186365
 11
-53.6423863451
 21
-21.9498971557
  0
LINE
  5
404
100
AcDbEntity
  8
RACCORDO
100
AcDbLine
 62
250
  6
CONTINUOUS
 10
-61.0025231902
 20
-21.4713691811
 11
-56.6443540412
 21
-21.6997711479
  0
LINE
  5
405
100
AcDbEntity
  8
ASSI
100
AcDbLine
 62
250
  6
CONTINUOUS
 10
-61.0025231902
 20
-21.4713691811
 11
-56.6443540412
 21
-21.6997711479
  0
LINE
  5
406
100
AcDbEntity
  8
RACCORDO
100
AcDbLine
 62
250
  6
CONTINUOUS
 10
-55.895808474
 20
-23.8443375673
 11
-55.9789488911
 21
-23.6996844742
  0
LINE
  5
407
100
AcDbEntity
  8
RACCORDO
100
AcDbLine
 62
250
  6
CONTINUOUS
 10
-55.9789488911
 20
-23.6996844742
 11
-56.0032122656
 21
-23.6570470569
  0
LINE
  5
408
100
AcDbEntity
  8
RACCORDO
100
AcDbLine
 62
250
  6
CONTINUOUS
 10
-56.0032122656
 20
-23.6570470569
 11
-56.0114721992
 21
-23.6423841576
  0
LWPOLYLINE
  5
409
100
AcDbEntity
  8
RACCORDO
100
AcDbPolyline
 62
250
  6
CONTINUOUS
 90
7
 70
0
 10
-56.0114721992
 20
-23.6423841576
 10
-56.0153922566
 20
-23.6353440559
 10
-56.0168589442
 20
-23.6326756587
 10
-56.0179910965
 20
-23.6305852658
 10
-56.0187856219
 20
-23.6290785857
 10
-56.0192403507
 20
-23.6281597328
 10
-56.0193540412
 20
-23.6278312164
  0
LWPOLYLINE
  5
40A
100
AcDbEntity
  8
RACCORDO
100
AcDbPolyline
 62
250
  6
CONTINUOUS
 90
8
 70
0
 10
-56.360054828
 20
-22.2576761526
 10
-56.3602672866
 20
-22.2572366526
 10
-56.3604497848
 20
-22.2559428275
 10
-56.3606018039
 20
-22.2537971777
 10
-56.3607228295
 20
-22.2508038516
 10
-56.3608126024
 20
-22.2469685596
 10
-56.3608711158
 20
-22.2422984988
 10
-56.3608982838
 20
-22.2368024432
  0
LWPOLYLINE
  5
40B
100
AcDbEntity
  8
RACCORDO
100
AcDbPolyline
 62
250
  6
CONTINUOUS
 90
22
 70
0
 10
-61.9478324835
 20
-20.5413250388
 10
-61.9406710499
 20
-20.6102013086
 10
-61.9289245775
 20
-20.6778791363
 10
-61.9125930662
 20
-20.744358522
 10
-61.8915546073
 20
-20.8099729803
 10
-61.8659311096
 20
-20.8743889965
 10
-61.8360882996
 20
-20.9366060262
 10
-61.8019653329
 20
-20.9965678952
 10
-61.7636230539
 20
-21.0543307777
 10
-61.7216097224
 20
-21.1090626527
 10
-61.6758776768
 20
-21.1607141194
 10
-61.6264745786
 20
-21.2093345786
 10
-61.5740916726
 20
-21.2542402113
 10
-61.5186765077
 20
-21.29538421
 10
-61.4602815349
 20
-21.3328133822
 10
-61.3997553523
 20
-21.3659843309
 10
-61.337048117
 20
-21.3948319001
 10
-61.2722096719
 20
-21.4194212458
 10
-61.2062381439
 20
-21.4394044396
 10
-61.1394662422
 20
-21.4546655053
 10
-61.0715612576
 20
-21.4653204192
 10
-61.0025231902
 20
-21.4713691811
  0
LWPOLYLINE
  5
40C
100
AcDbEntity
  8
ASSI
100
AcDbPolyline
 62
250
  6
CONTINUOUS
 90
22
 70
0
 10
-61.9478324835
 20
-20.5413250388
 10
-61.9406731853
 20
-20.6101920023
 10
-61.9289285547
 20
-20.6778631059
 10
-61.9125985917
 20
-20.7443383497
 10
-61.8915614626
 20
-20.8099518911
 10
-61.8659390012
 20
-20.8743695726
 10
-61.8360967087
 20
-20.9365889219
 10
-61.8019738504
 20
-20.9965532283
 10
-61.7636311611
 20
-21.0543192025
 10
-61.7216163466
 20
-21.1090545052
 10
-61.6758815309
 20
-21.1607098664
 10
-61.6264745899
 20
-21.2093345561
 10
-61.5740868584
 20
-21.254244045
 10
-61.5186652687
 20
-21.295391583
 10
-61.4602628884
 20
-21.3328239201
 10
-61.3997302542
 20
-21.3659967777
 10
-61.337016693
 20
-21.3948445481
 10
-61.2721728779
 20
-21.419432839
 10
-61.2062013645
 20
-21.4394141934
 10
-61.1394363381
 20
-21.4546727924
 10
-61.0715436133
 20
-21.465324455
 10
-61.0025231902
 20
-21.4713691811
  0
LWPOLYLINE
  5
40D
100
AcDbEntity
  8
RACCORDO
100
AcDbPolyline
 62
250
  6
CONTINUOUS
 90
13
 70
0
 10
-61.9478324835
 20
20.5413250388
 10
-62.1632883565
 20
17.1213566697
 10
-62.3395783977
 20
13.6999534726
 10
-62.4767026071
 20
10.2771154477
 10
-62.5746707378
 20
6.8523643573
 10
-62.6334730367
 20
3.426178439
 10
-62.6530802444
 20
-0.0000075945
 10
-62.6334728141
 20
-3.4261944598
 10
-62.5746702926
 20
-6.8523814404
 10
-62.4767020607
 20
-10.2771316747
 10
-62.339577912
 20
-13.699966209
 10
-62.163288053
 20
-17.121363997
 10
-61.9478324835
 20
-20.5413250388
  0
LWPOLYLINE
  5
40E
100
AcDbEntity
  8
ASSI
100
AcDbPolyline
 62
250
  6
CONTINUOUS
 90
13
 70
0
 10
-61.9478324835
 20
20.5413250388
 10
-62.1632882846
 20
17.1213588546
 10
-62.3395782826
 20
13.6999569244
 10
-62.4767024776
 20
10.2771192484
 10
-62.5746706436
 20
6.852367286
 10
-62.6334730066
 20
3.4261795778
 10
-62.6530802444
 20
-0.0000082552
 10
-62.6334727647
 20
-3.4261969908
 10
-62.5746701598
 20
-6.8523858512
 10
-62.4767018838
 20
-10.2771368817
 10
-62.3395777547
 20
-13.699970764
 10
-62.1632879547
 20
-17.1213668163
 10
-61.9478324835
 20
-20.5413250388
  0
LINE
  5
40F
100
AcDbEntity
  8
RACCORDO
100
AcDbLine
 62
250
  6
CONTINUOUS
 10
-62.4352446283
 20
-20.575371174
 11
-62.4379126547
 21
-20.5756166154
  0
LINE
  5
410
100
AcDbEntity
  8
ASSI
100
AcDbLine
 62
250
  6
CONTINUOUS
 10
-62.4352428856
 20
-20.5753710536
 11
-62.4379108968
 21
-20.5756164945
  0
LINE
  5
411
100
AcDbEntity
  8
RACCORDO
100
AcDbLine
 62
250
  6
CONTINUOUS
 10
-62.4140460386
 20
-20.5737924359
 11
-62.4352446283
 21
-20.575371174
  0
LINE
  5
412
100
AcDbEntity
  8
ASSI
100
AcDbLine
 62
250
  6
CONTINUOUS
 10
-62.4140443915
 20
-20.5737923213
 11
-62.4352428856
 21
-20.5753710536
  0
LWPOLYLINE
  5
413
100
AcDbEntity
  8
RACCORDO
100
AcDbPolyline
 62
250
  6
CONTINUOUS
 90
3
 70
0
 10
-61.9478324835
 20
-20.5413250388
 10
-61.9993418031
 20
-20.5448704604
 10
-62.4140460386
 20
-20.5737924359
  0
LWPOLYLINE
  5
414
100
AcDbEntity
  8
ASSI
100
AcDbPolyline
 62
250
  6
CONTINUOUS
 90
3
 70
0
 10
-61.9478324835
 20
-20.5413250388
 10
-61.9993416601
 20
-20.5448704501
 10
-62.4140443915
 20
-20.5737923213
  0
LWPOLYLINE
  5
415
100
AcDbEntity
  8
RACCORDO
100
AcDbPolyline
 62
250
  6
CONTINUOUS
 90
12
 70
0
 10
-27.6269016347
 20
-18.9048179208
 10
-27.5236391565
 20
-18.8997547008
 10
-27.4216701208
 20
-18.8871706593
 10
-27.3220870618
 20
-18.8672006386
 10
-27.225956939
 20
-18.8400586144
 10
-27.1343097288
 20
-18.806035409
 10
-27.0481273848
 20
-18.765495581
 10
-26.9683332832
 20
-18.7188735038
 10
-26.8957823469
 20
-18.6666687145
 10
-26.831251902
 20
-18.6094405737
 10
-26.7754333252
 20
-18.5478022557
 10
-26.7289246453
 20
-18.4824141803
  0
LWPOLYLINE
  5
416
100
AcDbEntity
  8
ASSI
100
AcDbPolyline
 62
250
  6
CONTINUOUS
 90
12
 70
0
 10
-27.6269016347
 20
-18.9048179208
 10
-27.5236391565
 20
-18.8997547008
 10
-27.4216701208
 20
-18.8871706593
 10
-27.3220870618
 20
-18.8672006386
 10
-27.225956939
 20
-18.8400586144
 10
-27.1343097288
 20
-18.806035409
 10
-27.0481273848
 20
-18.765495581
 10
-26.9683332832
 20
-18.7188735038
 10
-26.8957823469
 20
-18.6666687145
 10
-26.831251902
 20
-18.6094405737
 10
-26.7754333252
 20
-18.5478022557
 10
-26.7289246453
 20
-18.4824141803
  0
LINE
  5
417
100
AcDbEntity
  8
RACCORDO
100
AcDbLine
 62
7
  6
CONTINUOUS
 10
-27.6269016347
 20
-19.3488485621
 11
-42.6443540412
 21
-19.6109791689
  0
LINE
  5
418
100
AcDbEntity
  8
ASSI
100
AcDbLine
 62
7
  6
CONTINUOUS
 10
-27.6269016347
 20
-19.3488485621
 11
-42.6443540412
 21
-19.6109791689
  0
LINE
  5
419
100
AcDbEntity
  8
RACCORDO
100
AcDbLine
 62
250
  6
CONTINUOUS
 10
-52.6443540412
 20
-19.0856972195
 11
-27.6269016347
 21
-18.9048179208
  0
LINE
  5
41A
100
AcDbEntity
  8
ASSI
100
AcDbLine
 62
250
  6
CONTINUOUS
 10
-52.6443540412
 20
-19.0856972195
 11
-27.6269016347
 21
-18.9048179208
  0
LWPOLYLINE
  5
41B
100
AcDbEntity
  8
RACCORDO
100
AcDbPolyline
 62
250
  6
CONTINUOUS
 90
8
 70
0
 10
-61.0177804007
 20
21.8053153975
 10
-61.02008541
 20
21.87516076
 10
-61.0208119329
 20
21.9036351417
 10
-61.0212428151
 20
21.9273790155
 10
-61.0213733394
 20
21.9461324939
 10
-61.0212020764
 20
21.9596903216
 10
-61.0207308991
 20
21.9679041101
 10
-61.0199649627
 20
21.9706839486
  0
LWPOLYLINE
  5
41C
100
AcDbEntity
  8
ASSI
100
AcDbPolyline
 62
250
  6
CONTINUOUS
 90
8
 70
0
 10
-61.0177803879
 20
21.8053151252
 10
-61.0200854018
 20
21.8751605628
 10
-61.0208119272
 20
21.9036349909
 10
-61.0212428116
 20
21.9273789113
 10
-61.0213733378
 20
21.9461324312
 10
-61.021202076
 20
21.9596902918
 10
-61.0207308993
 20
21.9679041022
 10
-61.0199649627
 20
21.9706839486
  0
LWPOLYLINE
  5
41D
100
AcDbEntity
  8
RACCORDO
100
AcDbPolyline
 62
250
  6
CONTINUOUS
 90
7
 70
0
 10
-61.0200854577
 20
-21.8751625791
 10
-61.0208119605
 20
-21.9036365315
 10
-61.0212428254
 20
-21.9273799736
 10
-61.0213733373
 20
-21.9461330693
 10
-61.0212020681
 20
-21.9596905945
 10
-61.0207308919
 20
-21.9679041827
 10
-61.0199649651
 20
-21.9706839485
  0
LWPOLYLINE
  5
41E
100
AcDbEntity
  8
ASSI
100
AcDbPolyline
 62
250
  6
CONTINUOUS
 90
7
 70
0
 10
-61.0200854577
 20
-21.8751625791
 10
-61.0208119604
 20
-21.9036365315
 10
-61.0212428253
 20
-21.9273799736
 10
-61.0213733372
 20
-21.9461330693
 10
-61.021202068
 20
-21.9596905945
 10
-61.0207308918
 20
-21.9679041827
 10
-61.0199649651
 20
-21.9706839485
  0
LINE
  5
41F
100
AcDbEntity
  8
RACCORDO
100
AcDbLine
 62
250
  6
CONTINUOUS
 10
-61.0177804886
 20
-21.8053179182
 11
-61.0200854577
 21
-21.8751625791
  0
LINE
  5
420
100
AcDbEntity
  8
ASSI
100
AcDbLine
 62
250
  6
CONTINUOUS
 10
-61.0177804886
 20
-21.8053179181
 11
-61.0200854577
 21
-21.8751625791
  0
LINE
  5
421
100
AcDbEntity
  8
DRAFT
100
AcDbLine
 62
7
  6
CONTINUOUS
 10
-26.3704997256
 20
-15.1760408519
 11
-24.9182067704
 21
-15.0489816822
  0
LINE
  5
422
100
AcDbEntity
  8
ASSI
100
AcDbLine
 62
7
  6
CONTINUOUS
 10
-26.3704997256
 20
-15.1760408519
 11
-24.9182067704
 21
-15.0489816822
  0
LINE
  5
423
100
AcDbEntity
  8
RACCORDO
100
AcDbLine
 62
250
  6
CONTINUOUS
 10
-52.6443540412
 20
-17.6716990487
 11
-27.6269016347
 21
-17.49081975
  0
LINE
  5
424
100
AcDbEntity
  8
ASSI
100
AcDbLine
 62
250
  6
CONTINUOUS
 10
-52.6443540412
 20
-17.6716990487
 11
-27.6269016347
 21
-17.49081975
  0
LINE
  5
425
100
AcDbEntity
  8
RACCORDO
100
AcDbLine
 62
250
  6
CONTINUOUS
 10
-27.6269016347
 20
-17.49081975
 11
-26.6443540412
 21
-17.49081975
  0
LINE
  5
426
100
AcDbEntity
  8
ASSI
100
AcDbLine
 62
250
  6
CONTINUOUS
 10
-27.6269016347
 20
-17.49081975
 11
-26.6443540412
 21
-17.49081975
  0
LWPOLYLINE
  5
427
100
AcDbEntity
  8
RACCORDO
100
AcDbPolyline
 62
250
  6
CONTINUOUS
 90
6
 70
0
 10
-55.895808474
 20
-24.4869014213
 10
-55.8958825958
 20
-24.4865583827
 10
-55.895952528
 20
-24.4855310928
 10
-55.8960180792
 20
-24.4838223673
 10
-55.8960790695
 20
-24.4814368893
 10
-55.8961353318
 20
-24.4783811971
  0
LINE
  5
428
100
AcDbEntity
  8
RACCORDO
100
AcDbLine
 62
250
  6
CONTINUOUS
 10
-61.0025231902
 20
21.4713691811
 11
-61.0101758352
 21
21.6255769946
  0
LINE
  5
429
100
AcDbEntity
  8
ASSI
100
AcDbLine
 62
250
  6
CONTINUOUS
 10
-61.0025231902
 20
21.4713691811
 11
-61.0101758222
 21
21.6255767532
  0
LINE
  5
42A
100
AcDbEntity
  8
RACCORDO
100
AcDbLine
 62
250
  6
CONTINUOUS
 10
-61.0101758352
 20
21.6255769946
 11
-61.0144284279
 21
21.7208922626
  0
LINE
  5
42B
100
AcDbEntity
  8
ASSI
100
AcDbLine
 62
250
  6
CONTINUOUS
 10
-61.0101758222
 20
21.6255767532
 11
-61.014428413
 21
21.7208919676
  0
LINE
  5
42C
100
AcDbEntity
  8
RACCORDO
100
AcDbLine
 62
250
  6
CONTINUOUS
 10
-61.0144284279
 20
21.7208922626
 11
-61.0177804007
 21
21.8053153975
  0
LINE
  5
42D
100
AcDbEntity
  8
ASSI
100
AcDbLine
 62
250
  6
CONTINUOUS
 10
-61.014428413
 20
21.7208919676
 11
-61.0177803879
 21
21.8053151252
  0
LINE
  5
42E
100
AcDbEntity
  8
RACCORDO
100
AcDbLine
 62
250
  6
CONTINUOUS
 10
-61.0144285395
 20
-21.7208950017
 11
-61.0177804886
 21
-21.8053179182
  0
LINE
  5
42F
100
AcDbEntity
  8
ASSI
100
AcDbLine
 62
250
  6
CONTINUOUS
 10
-61.0144285395
 20
-21.7208950017
 11
-61.0177804886
 21
-21.8053179181
  0
LINE
  5
430
100
AcDbEntity
  8
RACCORDO
100
AcDbLine
 62
250
  6
CONTINUOUS
 10
-61.00776858
 20
-21.5751231208
 11
-61.0144285395
 21
-21.7208950017
  0
LINE
  5
431
100
AcDbEntity
  8
ASSI
100
AcDbLine
 62
250
  6
CONTINUOUS
 10
-61.00776858
 20
-21.5751231208
 11
-61.0144285395
 21
-21.7208950017
  0
LINE
  5
432
100
AcDbEntity
  8
RACCORDO
100
AcDbLine
 62
250
  6
CONTINUOUS
 10
-61.0025231902
 20
-21.4713691811
 11
-61.00776858
 21
-21.5751231208
  0
LINE
  5
433
100
AcDbEntity
  8
ASSI
100
AcDbLine
 62
250
  6
CONTINUOUS
 10
-61.0025231902
 20
-21.4713691811
 11
-61.00776858
 21
-21.5751231208
  0
LINE
  5
434
100
AcDbEntity
  8
0
100
AcDbLine
 62
7
  6
CONTINUOUS
 10
-50.1123284969
 20
14.8967352455
 11
-49.9663805318
 21
15.0426832106
  0
LINE
  5
435
100
AcDbEntity
  8
0
100
AcDbLine
 62
7
  6
CONTINUOUS
 10
-50.1123284969
 20
14.6846032111
 11
-49.6411671014
 21
15.1557646066
  0
LINE
  5
436
100
AcDbEntity
  8
0
100
AcDbLine
 62
7
  6
CONTINUOUS
 10
-50.1123284969
 20
14.4724711768
 11
-49.315953671
 21
15.2688460027
  0
LINE
  5
437
100
AcDbEntity
  8
0
100
AcDbLine
 62
7
  6
CONTINUOUS
 10
-50.1123284969
 20
14.2603391424
 11
-48.9907402406
 21
15.3819273987
  0
LINE
  5
438
100
AcDbEntity
  8
0
100
AcDbLine
 62
7
  6
CONTINUOUS
 10
-49.9620123156
 20
14.1985232893
 11
-49.5551333323
 21
14.6054022727
  0
LINE
  5
439
100
AcDbEntity
  8
0
100
AcDbLine
 62
7
  6
CONTINUOUS
 10
-49.5521504702
 20
14.6083851348
 11
-48.6655268102
 21
15.4950087948
  0
LINE
  5
43A
100
AcDbEntity
  8
0
100
AcDbLine
 62
250
  6
CONTINUOUS
 10
-47.213210798
 20
16.0
 11
-50.1123284969
 21
14.991935
  0
LINE
  5
43B
100
AcDbEntity
  8
0
100
AcDbLine
 62
250
  6
CONTINUOUS
 10
-47.8276625873
 20
15.164584
 11
-47.213210798
 21
15.373574
  0
LINE
  5
43C
100
AcDbEntity
  8
0
100
AcDbLine
 62
250
  6
CONTINUOUS
 10
-49.5581733365
 20
14.606449
 11
-48.309448797
 21
15.007869
  0
LINE
  5
43D
100
AcDbEntity
  8
0
100
AcDbLine
 62
250
  6
CONTINUOUS
 10
-50.1124654552
 20
-14.137714
 11
-48.116176683
 21
-14.778839
  0
LINE
  5
43E
100
AcDbEntity
  8
0
100
AcDbLine
 62
250
  6
CONTINUOUS
 10
-47.2132177959
 20
-14.488824
 11
-50.1124654552
 21
-13.557685
  0
LWPOLYLINE
  5
43F
100
AcDbEntity
  8
RACCORDO
100
AcDbPolyline
 62
250
  6
CONTINUOUS
 90
3
 70
0
 10
-55.8961353318
 20
-24.4783811971
 10
-55.8962330691
 20
-24.4702944842
 10
-55.8962742761
 20
-24.4652856277
  0
LINE
  5
440
100
AcDbEntity
  8
RACCORDO
100
AcDbLine
 62
250
  6
CONTINUOUS
 10
-56.3606926302
 20
22.2067914619
 11
-56.3608581066
 21
22.2233758917
  0
LWPOLYLINE
  5
441
100
AcDbEntity
  8
RACCORDO
100
AcDbPolyline
 62
250
  6
CONTINUOUS
 90
9
 70
0
 10
-56.3608581066
 20
22.2233758917
 10
-56.3608982838
 20
22.2368024432
 10
-56.3608711158
 20
22.2422984988
 10
-56.3608126024
 20
22.2469685596
 10
-56.3607228295
 20
22.2508038516
 10
-56.3606018039
 20
22.2537971777
 10
-56.3604497848
 20
22.2559428275
 10
-56.3602672866
 20
22.2572366526
 10
-56.360054828
 20
22.2576761526
  0
LINE
  5
442
100
AcDbEntity
  8
RACCORDO
100
AcDbLine
 62
7
  6
CONTINUOUS
 10
-56.6443540412
 20
-22.2
 11
-56.6443540412
 21
22.2
  0
LINE
  5
443
100
AcDbEntity
  8
ASSI
100
AcDbLine
 62
7
  6
CONTINUOUS
 10
-56.6443540412
 20
-22.2
 11
-56.6443540412
 21
22.2
  0
LINE
  5
444
100
AcDbEntity
  8
RACCORDO
100
AcDbLine
 62
250
  6
CONTINUOUS
 10
-56.3495897631
 20
-21.8080186365
 11
-56.3495897631
 21
21.8080186365
  0
LINE
  5
445
100
AcDbEntity
  8
RACCORDO
100
AcDbLine
 62
7
  6
CONTINUOUS
 10
-56.1443540412
 20
-24.2369056521
 11
-56.1443540412
 21
-23.8443375673
  0
LINE
  5
446
100
AcDbEntity
  8
RACCORDO
100
AcDbLine
 62
7
  6
CONTINUOUS
 10
-56.1443540412
 20
23.8443375673
 11
-56.1443540412
 21
24.2369056521
  0
LINE
  5
447
100
AcDbEntity
  8
RACCORDO
100
AcDbLine
 62
250
  6
CONTINUOUS
 10
-56.3608982838
 20
-22.2368024432
 11
-56.3608581066
 21
-22.2233758917
  0
LWPOLYLINE
  5
448
100
AcDbEntity
  8
RACCORDO
100
AcDbPolyline
 62
250
  6
CONTINUOUS
 90
8
 70
0
 10
-55.8962742761
 20
24.4652856277
 10
-55.8961867119
 20
24.4746636657
 10
-55.8961353318
 20
24.4783811971
 10
-55.8960790695
 20
24.4814368893
 10
-55.8960180792
 20
24.4838223673
 10
-55.895952528
 20
24.4855310928
 10
-55.8958825958
 20
24.4865583827
 10
-55.895808474
 20
24.4869014213
  0
LINE
  5
449
100
AcDbEntity
  8
RACCORDO
100
AcDbLine
 62
250
  6
CONTINUOUS
 10
-56.3608581066
 20
-22.2233758917
 11
-56.3606926302
 21
-22.2067914619
  0
LWPOLYLINE
  5
44A
100
AcDbEntity
  8
0
100
AcDbPolyline
 62
7
  6
CONTINUOUS
 90
3
 70
0
 43
0.3500000087
 10
-43.4381051758
 20
43.5357158844
 10
-43.5095325989
 20
43.3214293518
 10
-43.6523917084
 20
43.0357153961
  0
LINE
  5
44B
100
AcDbEntity
  8
0
100
AcDbLine
 62
7
  6
CONTINUOUS
 10
-49.8062210241
 20
14.1421825465
 11
-49.397334302
 21
14.5510692686
  0
LINE
  5
44C
100
AcDbEntity
  8
0
100
AcDbLine
 62
7
  6
CONTINUOUS
 10
-49.2395185125
 20
14.7088850581
 11
-48.3403133797
 21
15.6080901909
  0
LINE
  5
44D
100
AcDbEntity
  8
0
100
AcDbLine
 62
7
  6
CONTINUOUS
 10
-49.6504297326
 20
14.0858418036
 11
-49.2395352717
 21
14.4967362645
  0
LINE
  5
44E
100
AcDbEntity
  8
0
100
AcDbLine
 62
7
  6
CONTINUOUS
 10
-48.9268865549
 20
14.8093849814
 11
-48.0150999493
 21
15.7211715869
  0
LINE
  5
44F
100
AcDbEntity
  8
0
100
AcDbLine
 62
7
  6
CONTINUOUS
 10
-49.4946384411
 20
14.0295010607
 11
-49.0817362414
 21
14.4424032605
  0
LINE
  5
450
100
AcDbEntity
  8
0
100
AcDbLine
 62
7
  6
CONTINUOUS
 10
-48.6142545972
 20
14.9098849047
 11
-47.6898865189
 21
15.834252983
  0
LINE
  5
451
100
AcDbEntity
  8
0
100
AcDbLine
 62
7
  6
CONTINUOUS
 10
-49.3388471497
 20
13.9731603179
 11
-48.9239372111
 21
14.3880702564
  0
LINE
  5
452
100
AcDbEntity
  8
0
100
AcDbLine
 62
7
  6
CONTINUOUS
 10
-48.309448797
 20
15.0025586705
 11
-47.3646730885
 21
15.947334379
  0
LINE
  5
453
100
AcDbEntity
  8
0
100
AcDbLine
 62
7
  6
CONTINUOUS
 10
-49.1830558582
 20
13.916819575
 11
-48.7661381808
 21
14.3337372524
  0
LINE
  5
454
100
AcDbEntity
  8
0
100
AcDbLine
 62
7
  6
CONTINUOUS
 10
-48.309448797
 20
14.7904266362
 11
-47.213210798
 21
15.8866646352
  0
LINE
  5
455
100
AcDbEntity
  8
0
100
AcDbLine
 62
7
  6
CONTINUOUS
 10
-50.1123284969
 20
12.7754149019
 11
-49.9765453988
 21
12.911198
  0
LINE
  5
456
100
AcDbEntity
  8
0
100
AcDbLine
 62
7
  6
CONTINUOUS
 10
-49.0272645667
 20
13.8604788321
 11
-48.6083391505
 21
14.2794042483
  0
LINE
  5
457
100
AcDbEntity
  8
0
100
AcDbLine
 62
7
  6
CONTINUOUS
 10
-48.309448797
 20
14.5782946018
 11
-47.8276625873
 21
15.0600808115
  0
LINE
  5
458
100
AcDbEntity
  8
0
100
AcDbLine
 62
7
  6
CONTINUOUS
 10
-47.669294591
 20
15.2184488078
 11
-47.213210798
 21
15.6745326008
  0
LINE
  5
459
100
AcDbEntity
  8
0
100
AcDbLine
 62
7
  6
CONTINUOUS
 10
-50.1123284969
 20
12.5632828676
 11
-49.7644133645
 21
12.911198
  0
LINE
  5
45A
100
AcDbEntity
  8
0
100
AcDbLine
 62
7
  6
CONTINUOUS
 10
-48.8714732752
 20
13.8041380893
 11
-48.4505401202
 21
14.2250712443
  0
LINE
  5
45B
100
AcDbEntity
  8
0
100
AcDbLine
 62
7
  6
CONTINUOUS
 10
-48.309448797
 20
14.3661625675
 11
-47.8276625873
 21
14.8479487772
  0
LINE
  5
45C
100
AcDbEntity
  8
0
100
AcDbLine
 62
7
  6
CONTINUOUS
 10
-47.3478218616
 20
15.3277895029
 11
-47.213210798
 21
15.4624005664
  0
LINE
  5
45D
100
AcDbEntity
  8
0
100
AcDbLine
 62
7
  6
CONTINUOUS
 10
-50.1123284969
 20
12.3511508332
 11
-49.5522813301
 21
12.911198
  0
LINE
  5
45E
100
AcDbEntity
  8
0
100
AcDbLine
 62
7
  6
CONTINUOUS
 10
-48.7156819837
 20
13.7477973464
 11
-47.8276625873
 21
14.6358167428
  0
LINE
  5
45F
100
AcDbEntity
  8
0
100
AcDbLine
 62
7
  6
CONTINUOUS
 10
-49.9225932958
 20
12.328754
 11
-49.3401492958
 21
12.911198
  0
LINE
  5
460
100
AcDbEntity
  8
0
100
AcDbLine
 62
7
  6
CONTINUOUS
 10
-48.5598906922
 20
13.6914566035
 11
-47.8276625873
 21
14.4236847085
  0
LINE
  5
461
100
AcDbEntity
  8
0
100
AcDbLine
 62
7
  6
CONTINUOUS
 10
-49.7104612614
 20
12.328754
 11
-49.1280172614
 21
12.911198
  0
LINE
  5
462
100
AcDbEntity
  8
0
100
AcDbLine
 62
7
  6
CONTINUOUS
 10
-48.4040994007
 20
13.6351158607
 11
-47.8276625873
 21
14.2115526741
  0
LINE
  5
463
100
AcDbEntity
  8
0
100
AcDbLine
 62
7
  6
CONTINUOUS
 10
-49.498329227
 20
12.328754
 11
-48.915885227
 21
12.911198
  0
LINE
  5
464
100
AcDbEntity
  8
0
100
AcDbLine
 62
7
  6
CONTINUOUS
 10
-48.2483081092
 20
13.5787751178
 11
-47.8155234421
 21
14.0115597849
  0
LINE
  5
465
100
AcDbEntity
  8
0
100
AcDbLine
 62
7
  6
CONTINUOUS
 10
-49.2861971927
 20
12.328754
 11
-48.7037531927
 21
12.911198
  0
LINE
  5
466
100
AcDbEntity
  8
0
100
AcDbLine
 62
7
  6
CONTINUOUS
 10
-48.0925168177
 20
13.5224343749
 11
-47.6587474857
 21
13.9562037069
  0
LINE
  5
467
100
AcDbEntity
  8
0
100
AcDbLine
 62
7
  6
CONTINUOUS
 10
-49.0740651583
 20
12.328754
 11
-48.4916211583
 21
12.911198
  0
LINE
  5
468
100
AcDbEntity
  8
0
100
AcDbLine
 62
7
  6
CONTINUOUS
 10
-47.9367255263
 20
13.4660936321
 11
-47.5019715294
 21
13.900847629
  0
LINE
  5
469
100
AcDbEntity
  8
0
100
AcDbLine
 62
7
  6
CONTINUOUS
 10
-50.1123284969
 20
11.0783586271
 11
-49.8451620371
 21
11.3455250868
  0
LINE
  5
46A
100
AcDbEntity
  8
0
100
AcDbLine
 62
7
  6
CONTINUOUS
 10
-48.861933124
 20
12.328754
 11
-48.279489124
 21
12.911198
  0
LINE
  5
46B
100
AcDbEntity
  8
0
100
AcDbLine
 62
7
  6
CONTINUOUS
 10
-47.7809342348
 20
13.4097528892
 11
-47.345195573
 21
13.845491551
  0
LINE
  5
46C
100
AcDbEntity
  8
0
100
AcDbLine
 62
250
  6
CONTINUOUS
 10
-50.1123284969
 20
11.216139
 11
-47.8149144714
 21
12.328754
  0
LINE
  5
46D
100
AcDbEntity
  8
0
100
AcDbLine
 62
250
  6
CONTINUOUS
 10
-47.213210798
 20
12.027546
 11
-49.6395755349
 21
10.87477
  0
LINE
  5
46E
100
AcDbEntity
  8
0
100
AcDbLine
 62
250
  6
CONTINUOUS
 10
-50.1124654552
 20
-13.171006
 11
-47.213210798
 21
-13.171014
  0
LINE
  5
46F
100
AcDbEntity
  8
0
100
AcDbLine
 62
250
  6
CONTINUOUS
 10
-47.2132177959
 20
-12.590992
 11
-50.1124654552
 21
-12.590985
  0
LINE
  5
470
100
AcDbEntity
  8
RACCORDO
100
AcDbLine
 62
250
  6
CONTINUOUS
 10
-56.3495897631
 20
21.8080186365
 11
-56.3546401366
 21
21.9617764548
  0
LINE
  5
471
100
AcDbEntity
  8
RACCORDO
100
AcDbLine
 62
250
  6
CONTINUOUS
 10
-56.3546401366
 20
21.9617764548
 11
-56.3580597675
 21
22.0816858541
  0
LINE
  5
472
100
AcDbEntity
  8
RACCORDO
100
AcDbLine
 62
250
  6
CONTINUOUS
 10
-56.3580597675
 20
22.0816858541
 11
-56.3597403854
 21
22.1523965055
  0
LWPOLYLINE
  5
473
100
AcDbEntity
  8
RACCORDO
100
AcDbPolyline
 62
7
  6
CONTINUOUS
 90
10
 70
0
 10
-53.6467444055
 20
-22.3581993164
 10
-53.6465862005
 20
-22.3668236603
 10
-53.6464005322
 20
-22.3745074735
 10
-53.6461865052
 20
-22.3812142134
 10
-53.6459447207
 20
-22.3869236637
 10
-53.6456765485
 20
-22.3916194179
 10
-53.6453822161
 20
-22.3952825341
 10
-53.6450624206
 20
-22.3979033185
 10
-53.6447183475
 20
-22.3994771119
 10
-53.6443509161
 20
-22.3999999727
  0
LINE
  5
474
100
AcDbEntity
  8
RACCORDO
100
AcDbLine
 62
250
  6
CONTINUOUS
 10
-56.3597403854
 20
22.1523965055
 11
-56.3604028005
 21
22.1871749276
  0
LINE
  5
475
100
AcDbEntity
  8
RACCORDO
100
AcDbLine
 62
250
  6
CONTINUOUS
 10
-56.3604028005
 20
22.1871749276
 11
-56.3606926302
 21
22.2067914619
  0
LINE
  5
476
100
AcDbEntity
  8
RACCORDO
100
AcDbLine
 62
250
  6
CONTINUOUS
 10
-55.8962742761
 20
-24.4652856277
 11
-55.8963855629
 21
-24.4391534939
  0
LINE
  5
477
100
AcDbEntity
  8
RACCORDO
100
AcDbLine
 62
250
  6
CONTINUOUS
 10
-55.895808474
 20
24.2369056521
 11
-55.8963996179
 21
24.3942302379
  0
LINE
  5
478
100
AcDbEntity
  8
RACCORDO
100
AcDbLine
 62
7
  6
CONTINUOUS
 10
-55.1475673976
 20
-22.3212199262
 11
-55.1471533451
 21
-23.1242659097
  0
LINE
  5
479
100
AcDbEntity
  8
RACCORDO
100
AcDbLine
 62
250
  6
CONTINUOUS
 10
-54.8990150809
 20
-22.3342460012
 11
-54.8985333461
 21
-23.2685605037
  0
LINE
  5
47A
100
AcDbEntity
  8
RACCORDO
100
AcDbLine
 62
250
  6
CONTINUOUS
 10
-55.895808474
 20
-24.2369056521
 11
-55.895808474
 21
-23.8443375673
  0
LINE
  5
47B
100
AcDbEntity
  8
RACCORDO
100
AcDbLine
 62
250
  6
CONTINUOUS
 10
-55.895808474
 20
23.8443375673
 11
-55.895808474
 21
24.2369056521
  0
LINE
  5
47C
100
AcDbEntity
  8
RACCORDO
100
AcDbLine
 62
7
  6
CONTINUOUS
 10
-55.1471533451
 20
23.1242659097
 11
-55.1475673976
 21
22.3212199262
  0
LINE
  5
47D
100
AcDbEntity
  8
RACCORDO
100
AcDbLine
 62
250
  6
CONTINUOUS
 10
-54.8985333461
 20
23.2685605037
 11
-54.8990150809
 21
22.3342460012
  0
LINE
  5
47E
100
AcDbEntity
  8
RACCORDO
100
AcDbLine
 62
250
  6
CONTINUOUS
 10
-55.8963855629
 20
-24.4391534939
 11
-55.8963408028
 21
-24.3619010942
  0
LINE
  5
47F
100
AcDbEntity
  8
RACCORDO
100
AcDbLine
 62
250
  6
CONTINUOUS
 10
-55.8963996179
 20
24.3942302379
 11
-55.89636594
 21
24.4465668272
  0
LINE
  5
480
100
AcDbEntity
  8
RACCORDO
100
AcDbLine
 62
250
  6
CONTINUOUS
 10
-55.8963408028
 20
-24.3619010942
 11
-55.895808474
 21
-24.2369056521
  0
LINE
  5
481
100
AcDbEntity
  8
RACCORDO
100
AcDbLine
 62
250
  6
CONTINUOUS
 10
-55.89636594
 20
24.4465668272
 11
-55.8962742761
 21
24.4652856277
  0
LINE
  5
482
100
AcDbEntity
  8
RACCORDO
100
AcDbLine
 62
250
  6
CONTINUOUS
 10
-56.3606926302
 20
-22.2067914619
 11
-56.3602121348
 21
-22.176275284
  0
LINE
  5
483
100
AcDbEntity
  8
RACCORDO
100
AcDbLine
 62
250
  6
CONTINUOUS
 10
-56.3602121348
 20
-22.176275284
 11
-56.3591518706
 21
-22.1258983846
  0
LINE
  5
484
100
AcDbEntity
  8
RACCORDO
100
AcDbLine
 62
250
  6
CONTINUOUS
 10
-56.3591518706
 20
-22.1258983846
 11
-56.3567334616
 21
-22.0327936255
  0
LINE
  5
485
100
AcDbEntity
  8
RACCORDO
100
AcDbLine
 62
250
  6
CONTINUOUS
 10
-56.3567334616
 20
-22.0327936255
 11
-56.3522349694
 21
-21.8860862023
  0
LINE
  5
486
100
AcDbEntity
  8
RACCORDO
100
AcDbLine
 62
250
  6
CONTINUOUS
 10
-56.3522349694
 20
-21.8860862023
 11
-56.3495897631
 21
-21.8080186365
  0
LINE
  5
487
100
AcDbEntity
  8
0
100
AcDbLine
 62
250
  6
CONTINUOUS
 10
-44.6284080948
 20
15.9789283559
 11
-44.8997953668
 21
15.6776427853
  0
LINE
  5
488
100
AcDbEntity
  8
0
100
AcDbLine
 62
250
  6
CONTINUOUS
 10
-44.0856336358
 20
14.9244283559
 11
-43.8142463921
 21
15.2257144294
  0
LINE
  5
489
100
AcDbEntity
  8
0
100
AcDbLine
 62
7
  6
CONTINUOUS
 10
-50.1123284969
 20
10.8662265927
 11
-49.4338221386
 21
11.5447329511
  0
LINE
  5
48A
100
AcDbEntity
  8
0
100
AcDbLine
 62
7
  6
CONTINUOUS
 10
-48.6498010896
 20
12.328754
 11
-48.0673570896
 21
12.911198
  0
LINE
  5
48B
100
AcDbEntity
  8
0
100
AcDbLine
 62
7
  6
CONTINUOUS
 10
-47.6251429433
 20
13.3534121463
 11
-47.213210798
 21
13.7653442916
  0
LINE
  5
48C
100
AcDbEntity
  8
0
100
AcDbLine
 62
7
  6
CONTINUOUS
 10
-50.1123284969
 20
10.6540945584
 11
-49.02248224
 21
11.7439408153
  0
LINE
  5
48D
100
AcDbEntity
  8
0
100
AcDbLine
 62
7
  6
CONTINUOUS
 10
-48.4376690553
 20
12.328754
 11
-47.8552250553
 21
12.911198
  0
LINE
  5
48E
100
AcDbEntity
  8
0
100
AcDbLine
 62
7
  6
CONTINUOUS
 10
-47.4693516518
 20
13.2970714035
 11
-47.213210798
 21
13.5532122572
  0
LINE
  5
48F
100
AcDbEntity
  8
0
100
AcDbLine
 62
7
  6
CONTINUOUS
 10
-50.1123284969
 20
10.441962524
 11
-48.6111423414
 21
11.9431486795
  0
LINE
  5
490
100
AcDbEntity
  8
0
100
AcDbLine
 62
7
  6
CONTINUOUS
 10
-48.2255370209
 20
12.328754
 11
-47.6430930209
 21
12.911198
  0
LINE
  5
491
100
AcDbEntity
  8
0
100
AcDbLine
 62
7
  6
CONTINUOUS
 10
-47.3135603603
 20
13.2407306606
 11
-47.213210798
 21
13.3410802229
  0
LINE
  5
492
100
AcDbEntity
  8
0
100
AcDbLine
 62
7
  6
CONTINUOUS
 10
-50.0498339866
 20
10.292325
 11
-49.4673889866
 21
10.87477
  0
LINE
  5
493
100
AcDbEntity
  8
0
100
AcDbLine
 62
7
  6
CONTINUOUS
 10
-49.3115360689
 20
11.0306229176
 11
-48.1998024428
 21
12.1423565437
  0
LINE
  5
494
100
AcDbEntity
  8
0
100
AcDbLine
 62
7
  6
CONTINUOUS
 10
-48.0134049866
 20
12.328754
 11
-47.4309609866
 21
12.911198
  0
LINE
  5
495
100
AcDbEntity
  8
0
100
AcDbLine
 62
7
  6
CONTINUOUS
 10
-49.8377019522
 20
10.292325
 11
-49.2552569522
 21
10.87477
  0
LINE
  5
496
100
AcDbEntity
  8
0
100
AcDbLine
 62
7
  6
CONTINUOUS
 10
-48.9073948632
 20
11.222632089
 11
-47.2188289522
 21
12.911198
  0
LINE
  5
497
100
AcDbEntity
  8
0
100
AcDbLine
 62
7
  6
CONTINUOUS
 10
-49.6255699178
 20
10.292325
 11
-49.0431249178
 21
10.87477
  0
LINE
  5
498
100
AcDbEntity
  8
0
100
AcDbLine
 62
7
  6
CONTINUOUS
 10
-48.5032536575
 20
11.4146412604
 11
-47.213210798
 21
12.7046841198
  0
LINE
  5
499
100
AcDbEntity
  8
0
100
AcDbLine
 62
7
  6
CONTINUOUS
 10
-49.4134378835
 20
10.292325
 11
-48.8309928835
 21
10.87477
  0
LINE
  5
49A
100
AcDbEntity
  8
0
100
AcDbLine
 62
7
  6
CONTINUOUS
 10
-48.0991124518
 20
11.6066504317
 11
-47.213210798
 21
12.4925520855
  0
LINE
  5
49B
100
AcDbEntity
  8
0
100
AcDbLine
 62
7
  6
CONTINUOUS
 10
-49.2013058491
 20
10.292325
 11
-48.6188608491
 21
10.87477
  0
LINE
  5
49C
100
AcDbEntity
  8
0
100
AcDbLine
 62
7
  6
CONTINUOUS
 10
-47.694971246
 20
11.7986596031
 11
-47.213210798
 21
12.2804200511
  0
LINE
  5
49D
100
AcDbEntity
  8
0
100
AcDbLine
 62
7
  6
CONTINUOUS
 10
-48.9891738148
 20
10.292325
 11
-48.4067288148
 21
10.87477
  0
LINE
  5
49E
100
AcDbEntity
  8
0
100
AcDbLine
 62
7
  6
CONTINUOUS
 10
-47.2908300403
 20
11.9906687745
 11
-47.213210798
 21
12.0682880168
  0
LINE
  5
49F
100
AcDbEntity
  8
0
100
AcDbLine
 62
7
  6
CONTINUOUS
 10
-50.1123284969
 20
8.9570382835
 11
-50.0972089157
 21
8.9721578647
  0
LINE
  5
4A0
100
AcDbEntity
  8
0
100
AcDbLine
 62
7
  6
CONTINUOUS
 10
-48.7770417804
 20
10.292325
 11
-48.1945967804
 21
10.87477
  0
LINE
  5
4A1
100
AcDbEntity
  8
0
100
AcDbLine
 62
7
  6
CONTINUOUS
 10
-50.1123284969
 20
8.7449062492
 11
-49.771976739
 21
9.0852580071
  0
LINE
  5
4A2
100
AcDbEntity
  8
0
100
AcDbLine
 62
7
  6
CONTINUOUS
 10
-48.5649097461
 20
10.292325
 11
-47.9824647461
 21
10.87477
  0
LINE
  5
4A3
100
AcDbEntity
  8
0
100
AcDbLine
 62
7
  6
CONTINUOUS
 10
-50.1123284969
 20
8.5327742148
 11
-49.4467445622
 21
9.1983581495
  0
LINE
  5
4A4
100
AcDbEntity
  8
0
100
AcDbLine
 62
7
  6
CONTINUOUS
 10
-48.3527777117
 20
10.292325
 11
-47.7703327117
 21
10.87477
  0
LINE
  5
4A5
100
AcDbEntity
  8
0
100
AcDbLine
 62
7
  6
CONTINUOUS
 10
-50.1123284969
 20
8.3206421805
 11
-49.1215123855
 21
9.3114582919
  0
LINE
  5
4A6
100
AcDbEntity
  8
0
100
AcDbLine
 62
7
  6
CONTINUOUS
 10
-48.1406456774
 20
10.292325
 11
-47.5582006774
 21
10.87477
  0
LINE
  5
4A7
100
AcDbEntity
  8
0
100
AcDbLine
 62
7
  6
CONTINUOUS
 10
-50.0246827643
 20
8.1961558787
 11
-48.7962802087
 21
9.4245584343
  0
LINE
  5
4A8
100
AcDbEntity
  8
0
100
AcDbLine
 62
7
  6
CONTINUOUS
 10
-47.928513643
 20
10.292325
 11
-47.346068643
 21
10.87477
  0
LINE
  5
4A9
100
AcDbEntity
  8
0
100
AcDbLine
 62
250
  6
CONTINUOUS
 10
-47.213210798
 20
9.975074
 11
-50.1123284969
 21
8.9669
  0
LINE
  5
4AA
100
AcDbEntity
  8
0
100
AcDbLine
 62
250
  6
CONTINUOUS
 10
-50.1124654552
 20
-12.010985
 11
-47.2132177959
 21
-12.010985
  0
LINE
  5
4AB
100
AcDbEntity
  8
0
100
AcDbLine
 62
250
  6
CONTINUOUS
 10
-47.2132177959
 20
-11.430963
 11
-49.1250772919
 21
-11.430963
  0
LINE
  5
4AC
100
AcDbEntity
  8
0
100
AcDbLine
 62
250
  6
CONTINUOUS
 10
-50.1124654552
 20
-10.051012
 11
-48.2243717182
 21
-10.59258
  0
LINE
  5
4AD
100
AcDbEntity
  8
0
100
AcDbLine
 62
250
  6
CONTINUOUS
 10
-47.2132257935
 20
-10.30258
 11
-49.1250772919
 21
-9.754205
  0
LWPOLYLINE
  5
4AE
100
AcDbEntity
  8
RACCORDO
100
AcDbPolyline
 62
250
  6
CONTINUOUS
 90
6
 70
0
 10
-52.8925726903
 20
24.487104147
 10
-52.8926289606
 20
24.4901612081
 10
-52.8926899611
 20
24.4925477509
 10
-52.8927555244
 20
24.494257234
 10
-52.8928254708
 20
24.495284977
 10
-52.8928996083
 20
24.495628166
  0
LINE
  5
4AF
100
AcDbEntity
  8
RACCORDO
100
AcDbLine
 62
7
  6
CONTINUOUS
 10
-53.6447730725
 20
22.0730517019
 11
-53.6423863451
 21
21.9498971557
  0
LINE
  5
4B0
100
AcDbEntity
  8
RACCORDO
100
AcDbLine
 62
7
  6
CONTINUOUS
 10
-53.646189363
 20
22.1703626509
 11
-53.6447730725
 21
22.0730517019
  0
LINE
  5
4B1
100
AcDbEntity
  8
RACCORDO
100
AcDbLine
 62
250
  6
CONTINUOUS
 10
-52.8924749443
 20
24.4790138424
 11
-52.8925726903
 21
24.487104147
  0
LINE
  5
4B2
100
AcDbEntity
  8
RACCORDO
100
AcDbLine
 62
7
  6
CONTINUOUS
 10
-53.6469738996
 20
-22.3382980563
 11
-53.6467444055
 21
-22.3581993164
  0
LINE
  5
4B3
100
AcDbEntity
  8
RACCORDO
100
AcDbLine
 62
7
  6
CONTINUOUS
 10
-53.646873737
 20
22.2411512162
 11
-53.646189363
 21
22.1703626509
  0
LINE
  5
4B4
100
AcDbEntity
  8
RACCORDO
100
AcDbLine
 62
250
  6
CONTINUOUS
 10
-52.892367217
 20
24.4621175595
 11
-52.8924749443
 21
24.4790138424
  0
LINE
  5
4B5
100
AcDbEntity
  8
RACCORDO
100
AcDbLine
 62
7
  6
CONTINUOUS
 10
-53.6470905623
 20
-22.3147655192
 11
-53.6469738996
 21
-22.3382980563
  0
LINE
  5
4B6
100
AcDbEntity
  8
RACCORDO
100
AcDbLine
 62
7
  6
CONTINUOUS
 10
-53.6470916128
 20
22.2877109985
 11
-53.646873737
 21
22.2411512162
  0
LINE
  5
4B7
100
AcDbEntity
  8
RACCORDO
100
AcDbLine
 62
250
  6
CONTINUOUS
 10
-52.8923084318
 20
-24.402986508
 11
-52.8928996083
 21
-24.2456323968
  0
LINE
  5
4B8
100
AcDbEntity
  8
RACCORDO
100
AcDbLine
 62
7
  6
CONTINUOUS
 10
-53.6443540412
 20
-22.4
 11
-53.6443540412
 21
-24.5
  0
LINE
  5
4B9
100
AcDbEntity
  8
RACCORDO
100
AcDbLine
 62
7
  6
CONTINUOUS
 10
-53.6443540412
 20
22.4
 11
-53.6443540412
 21
24.5
  0
LINE
  5
4BA
100
AcDbEntity
  8
RACCORDO
100
AcDbLine
 62
250
  6
CONTINUOUS
 10
-52.8928996083
 20
24.2456323968
 11
-52.8928996083
 21
23.8445398019
  0
LINE
  5
4BB
100
AcDbEntity
  8
RACCORDO
100
AcDbLine
 62
250
  6
CONTINUOUS
 10
-52.8928996083
 20
-23.8445398019
 11
-52.8928996083
 21
-24.2456323968
  0
LINE
  5
4BC
100
AcDbEntity
  8
RACCORDO
100
AcDbLine
 62
7
  6
CONTINUOUS
 10
-52.6443540412
 20
24.2456323968
 11
-52.6443540412
 21
23.8445398019
  0
LINE
  5
4BD
100
AcDbEntity
  8
ASSI
100
AcDbLine
 62
7
  6
CONTINUOUS
 10
-52.6443540412
 20
17.6716990487
 11
-52.6443540412
 21
-17.6716990487
  0
LINE
  5
4BE
100
AcDbEntity
  8
RACCORDO
100
AcDbLine
 62
7
  6
CONTINUOUS
 10
-52.6443540412
 20
-23.8445398019
 11
-52.6443540412
 21
-24.2456323968
  0
LINE
  5
4BF
100
AcDbEntity
  8
RACCORDO
100
AcDbLine
 62
7
  6
CONTINUOUS
 10
-52.6443540412
 20
-22.3912731322
 11
-52.6443540412
 21
22.3912731322
  0
LINE
  5
4C0
100
AcDbEntity
  8
RACCORDO
100
AcDbLine
 62
250
  6
CONTINUOUS
 10
-52.892300036
 20
24.4128749736
 11
-52.892367217
 21
24.4621175595
  0
LINE
  5
4C1
100
AcDbEntity
  8
RACCORDO
100
AcDbLine
 62
7
  6
CONTINUOUS
 10
-53.6470905623
 20
22.3147655192
 11
-53.6470916128
 21
22.2877109985
  0
LINE
  5
4C2
100
AcDbEntity
  8
RACCORDO
100
AcDbLine
 62
250
  6
CONTINUOUS
 10
-52.8923422348
 20
-24.4553229956
 11
-52.8923084318
 21
-24.402986508
  0
LINE
  5
4C3
100
AcDbEntity
  8
RACCORDO
100
AcDbLine
 62
7
  6
CONTINUOUS
 10
-53.6470483368
 20
-22.2729413932
 11
-53.6470905623
 21
-22.3147655192
  0
LINE
  5
4C4
100
AcDbEntity
  8
RACCORDO
100
AcDbLine
 62
250
  6
CONTINUOUS
 10
-52.8927558348
 20
24.2717096311
 11
-52.892300036
 21
24.4128749736
  0
LINE
  5
4C5
100
AcDbEntity
  8
RACCORDO
100
AcDbLine
 62
250
  6
CONTINUOUS
 10
-52.8928996083
 20
24.2456323968
 11
-52.8927558348
 21
24.2717096311
  0
LINE
  5
4C6
100
AcDbEntity
  8
RACCORDO
100
AcDbLine
 62
7
  6
CONTINUOUS
 10
-53.6469738996
 20
22.3382980563
 11
-53.6470905623
 21
22.3147655192
  0
LINE
  5
4C7
100
AcDbEntity
  8
RACCORDO
100
AcDbLine
 62
250
  6
CONTINUOUS
 10
-52.8924339865
 20
-24.4740372277
 11
-52.8923422348
 21
-24.4553229956
  0
LINE
  5
4C8
100
AcDbEntity
  8
RACCORDO
100
AcDbLine
 62
7
  6
CONTINUOUS
 10
-53.6467438309
 20
-22.2242692499
 11
-53.6470483368
 21
-22.2729413932
  0
LINE
  5
4C9
100
AcDbEntity
  8
RACCORDO
100
AcDbLine
 62
7
  6
CONTINUOUS
 10
-53.6459520232
 20
-22.1515266393
 11
-53.6467438309
 21
-22.2242692499
  0
LINE
  5
4CA
100
AcDbEntity
  8
RACCORDO
100
AcDbLine
 62
7
  6
CONTINUOUS
 10
-53.6444238021
 20
-22.0528173664
 11
-53.6459520232
 21
-22.1515266393
  0
LINE
  5
4CB
100
AcDbEntity
  8
RACCORDO
100
AcDbLine
 62
7
  6
CONTINUOUS
 10
-53.6423863451
 20
-21.9498971557
 11
-53.6444238021
 21
-22.0528173664
  0
LINE
  5
4CC
100
AcDbEntity
  8
0
100
AcDbLine
 62
7
  6
CONTINUOUS
 10
-49.868887171
 20
8.1398194376
 11
-49.4608144822
 21
8.5478921264
  0
LINE
  5
4CD
100
AcDbEntity
  8
0
100
AcDbLine
 62
7
  6
CONTINUOUS
 10
-49.3651248833
 20
8.6435817253
 11
-48.4710480319
 21
9.5376585767
  0
LINE
  5
4CE
100
AcDbEntity
  8
0
100
AcDbLine
 62
7
  6
CONTINUOUS
 10
-47.7163816086
 20
10.292325
 11
-47.213210798
 21
10.7954958106
  0
LINE
  5
4CF
100
AcDbEntity
  8
0
100
AcDbLine
 62
7
  6
CONTINUOUS
 10
-49.7130915777
 20
8.0834829966
 11
-49.3030155035
 21
8.4935590708
  0
LINE
  5
4D0
100
AcDbEntity
  8
0
100
AcDbLine
 62
7
  6
CONTINUOUS
 10
-49.0524931854
 20
8.7440813889
 11
-48.1458158552
 21
9.6507587191
  0
LINE
  5
4D1
100
AcDbEntity
  8
0
100
AcDbLine
 62
7
  6
CONTINUOUS
 10
-47.5042495743
 20
10.292325
 11
-47.213210798
 21
10.5833637763
  0
LINE
  5
4D2
100
AcDbEntity
  8
0
100
AcDbLine
 62
7
  6
CONTINUOUS
 10
-49.5572959844
 20
8.0271465555
 11
-49.1452165248
 21
8.4392260151
  0
LINE
  5
4D3
100
AcDbEntity
  8
0
100
AcDbLine
 62
7
  6
CONTINUOUS
 10
-48.7398614875
 20
8.8445810525
 11
-47.8205836784
 21
9.7638588615
  0
LINE
  5
4D4
100
AcDbEntity
  8
0
100
AcDbLine
 62
7
  6
CONTINUOUS
 10
-47.2921175399
 20
10.292325
 11
-47.213210798
 21
10.3712317419
  0
LINE
  5
4D5
100
AcDbEntity
  8
0
100
AcDbLine
 62
7
  6
CONTINUOUS
 10
-49.4015003911
 20
7.9708101145
 11
-48.9874175461
 21
8.3848929594
  0
LINE
  5
4D6
100
AcDbEntity
  8
0
100
AcDbLine
 62
7
  6
CONTINUOUS
 10
-48.4272297895
 20
8.945080716
 11
-47.4953515017
 21
9.8769590039
  0
LINE
  5
4D7
100
AcDbEntity
  8
0
100
AcDbLine
 62
7
  6
CONTINUOUS
 10
-49.2457047978
 20
7.9144736734
 11
-48.8296185675
 21
8.3305599038
  0
LINE
  5
4D8
100
AcDbEntity
  8
0
100
AcDbLine
 62
7
  6
CONTINUOUS
 10
-48.309448797
 20
8.8507296742
 11
-47.213210798
 21
9.9469676732
  0
LINE
  5
4D9
100
AcDbEntity
  8
0
100
AcDbLine
 62
7
  6
CONTINUOUS
 10
-49.0899092045
 20
7.8581372324
 11
-48.6718195888
 21
8.2762268481
  0
LINE
  5
4DA
100
AcDbEntity
  8
0
100
AcDbLine
 62
7
  6
CONTINUOUS
 10
-48.309448797
 20
8.6385976399
 11
-47.8276625873
 21
9.1203838496
  0
LINE
  5
4DB
100
AcDbEntity
  8
0
100
AcDbLine
 62
7
  6
CONTINUOUS
 10
-47.7986267437
 20
9.1494196932
 11
-47.213210798
 21
9.7348356388
  0
LINE
  5
4DC
100
AcDbEntity
  8
0
100
AcDbLine
 62
7
  6
CONTINUOUS
 10
-48.9341136111
 20
7.8018007914
 11
-48.5140206101
 21
8.2218937924
  0
LINE
  5
4DD
100
AcDbEntity
  8
0
100
AcDbLine
 62
7
  6
CONTINUOUS
 10
-48.309448797
 20
8.4264656055
 11
-47.8276625873
 21
8.9082518152
  0
LINE
  5
4DE
100
AcDbEntity
  8
0
100
AcDbLine
 62
7
  6
CONTINUOUS
 10
-47.4772396199
 20
9.2586747826
 11
-47.213210798
 21
9.5227036045
  0
LINE
  5
4DF
100
AcDbEntity
  8
0
100
AcDbLine
 62
7
  6
CONTINUOUS
 10
-40.8059239183
 20
15.9299904842
 11
-40.7359117036
 21
16.0000026989
  0
LINE
  5
4E0
100
AcDbEntity
  8
0
100
AcDbLine
 62
7
  6
CONTINUOUS
 10
-48.7783180178
 20
7.7454643503
 11
-48.3562216314
 21
8.1675607368
  0
LINE
  5
4E1
100
AcDbEntity
  8
0
100
AcDbLine
 62
7
  6
CONTINUOUS
 10
-48.309448797
 20
8.2143335711
 11
-47.8276625873
 21
8.6961197809
  0
LINE
  5
4E2
100
AcDbEntity
  8
0
100
AcDbLine
 62
7
  6
CONTINUOUS
 10
-40.790957687
 20
15.7328246812
 11
-40.5237805171
 21
16.0000018511
  0
LINE
  5
4E3
100
AcDbEntity
  8
0
100
AcDbLine
 62
7
  6
CONTINUOUS
 10
-48.6225224245
 20
7.6891279093
 11
-47.8276625873
 21
8.4839877465
  0
LINE
  5
4E4
100
AcDbEntity
  8
0
100
AcDbLine
 62
7
  6
CONTINUOUS
 10
-40.7759914557
 20
15.5356588781
 11
-40.3116493306
 21
16.0000010032
  0
LINE
  5
4E5
100
AcDbEntity
  8
0
100
AcDbLine
 62
7
  6
CONTINUOUS
 10
-48.4667268312
 20
7.6327914682
 11
-47.8276625873
 21
8.2718557121
  0
LINE
  5
4E6
100
AcDbEntity
  8
0
100
AcDbLine
 62
7
  6
CONTINUOUS
 10
-40.7468150533
 20
15.3527032461
 11
-40.0995181441
 21
16.0000001554
  0
LINE
  5
4E7
100
AcDbEntity
  8
0
100
AcDbLine
 62
7
  6
CONTINUOUS
 10
-50.1123284969
 20
5.7750577682
 11
-50.0936472651
 21
5.793739
  0
LINE
  5
4E8
100
AcDbEntity
  8
0
100
AcDbLine
 62
7
  6
CONTINUOUS
 10
-48.3109312379
 20
7.5764550272
 11
-47.8276625873
 21
8.0597236778
  0
LINE
  5
4E9
100
AcDbEntity
  8
0
100
AcDbLine
 62
7
  6
CONTINUOUS
 10
-40.6959318748
 20
15.1914543903
 11
-40.0504471265
 21
15.8369391385
  0
LINE
  5
4EA
100
AcDbEntity
  8
0
100
AcDbLine
 62
7
  6
CONTINUOUS
 10
-50.1123284969
 20
5.5629257338
 11
-49.8815152307
 21
5.793739
  0
LINE
  5
4EB
100
AcDbEntity
  8
0
100
AcDbLine
 62
7
  6
CONTINUOUS
 10
-48.1551356446
 20
7.5201185861
 11
-47.7218018551
 21
7.9534523756
  0
LINE
  5
4EC
100
AcDbEntity
  8
0
100
AcDbLine
 62
7
  6
CONTINUOUS
 10
-40.6450486962
 20
15.0302055345
 11
-40.0379553993
 21
15.6372988314
  0
LINE
  5
4ED
100
AcDbEntity
  8
0
100
AcDbLine
 62
7
  6
CONTINUOUS
 10
-50.1123284969
 20
5.3507936995
 11
-49.6693831964
 21
5.793739
  0
LINE
  5
4EE
100
AcDbEntity
  8
0
100
AcDbLine
 62
7
  6
CONTINUOUS
 10
-47.9993400513
 20
7.4637821451
 11
-47.5650053423
 21
7.8981168541
  0
LINE
  5
4EF
100
AcDbEntity
  8
0
100
AcDbLine
 62
7
  6
CONTINUOUS
 10
-40.5941655177
 20
14.8689566787
 11
-39.9993668439
 21
15.4637553525
  0
LINE
  5
4F0
100
AcDbEntity
  8
0
100
AcDbLine
 62
7
  6
CONTINUOUS
 10
-50.079857162
 20
5.171133
 11
-49.457251162
 21
5.793739
  0
LINE
  5
4F1
100
AcDbEntity
  8
0
100
AcDbLine
 62
7
  6
CONTINUOUS
 10
-47.8435444579
 20
7.4074457041
 11
-47.4082088295
 21
7.8427813326
  0
LINE
  5
4F2
100
AcDbEntity
  8
0
100
AcDbLine
 62
7
  6
CONTINUOUS
 10
-40.5169959671
 20
14.7339941949
 11
-39.9494717244
 21
15.3015184376
  0
LINE
  5
4F3
100
AcDbEntity
  8
0
100
AcDbLine
 62
250
  6
CONTINUOUS
 10
-47.8276625873
 20
9.139549
 11
-47.213210798
 21
9.348431
  0
LINE
  5
4F4
100
AcDbEntity
  8
0
100
AcDbLine
 62
250
  6
CONTINUOUS
 10
-49.5583372865
 20
8.581471
 11
-48.309448797
 21
8.982943
  0
LINE
  5
4F5
100
AcDbEntity
  8
0
100
AcDbLine
 62
250
  6
CONTINUOUS
 10
-34.0174293058
 20
13.415785059
 11
-32.7176273021
 21
13.8280719528
  0
LINE
  5
4F6
100
AcDbEntity
  8
0
100
AcDbLine
 62
250
  6
CONTINUOUS
 10
-49.1250772919
 20
-9.754205
 11
-47.2132177959
 21
-9.754197
  0
LINE
  5
4F7
100
AcDbEntity
  8
0
100
AcDbLine
 62
250
  6
CONTINUOUS
 10
-47.2132177959
 20
-9.174176
 11
-50.1124654552
 21
-9.174176
  0
LINE
  5
4F8
100
AcDbEntity
  8
0
100
AcDbLine
 62
250
  6
CONTINUOUS
 10
-47.2132177959
 20
-8.787497
 11
-50.112472453
 21
-7.856372
  0
LINE
  5
4F9
100
AcDbEntity
  8
0
100
AcDbLine
 62
250
  6
CONTINUOUS
 10
-47.7833800792
 20
-8.024362
 11
-47.2132257935
 21
-8.207475
  0
LINE
  5
4FA
100
AcDbEntity
  8
0
100
AcDbLine
 62
250
  6
CONTINUOUS
 10
-49.209506568
 20
-7.56635
 11
-48.3342342454
 21
-7.84744
  0
LINE
  5
4FB
100
AcDbEntity
  8
0
100
AcDbLine
 62
250
  6
CONTINUOUS
 10
-50.112472453
 20
-7.856372
 11
-50.112472453
 21
-7.276321
  0
LINE
  5
4FC
100
AcDbEntity
  8
0
100
AcDbLine
 62
250
  6
CONTINUOUS
 10
-50.112472453
 20
-5.958503
 11
-50.112472453
 21
-4.600288
  0
LINE
  5
4FD
100
AcDbEntity
  8
0
100
AcDbLine
 62
250
  6
CONTINUOUS
 10
-50.1124654552
 20
-9.174176
 11
-50.1124654552
 21
-10.051012
  0
LINE
  5
4FE
100
AcDbEntity
  8
0
100
AcDbLine
 62
250
  6
CONTINUOUS
 10
-50.1124654552
 20
-11.134148
 11
-50.1124654552
 21
-12.010985
  0
LINE
  5
4FF
100
AcDbEntity
  8
0
100
AcDbLine
 62
250
  6
CONTINUOUS
 10
-50.1124654552
 20
-12.590985
 11
-50.1124654552
 21
-13.171006
  0
LINE
  5
500
100
AcDbEntity
  8
0
100
AcDbLine
 62
250
  6
CONTINUOUS
 10
-50.1124654552
 20
-13.557685
 11
-50.1124654552
 21
-14.137714
  0
LINE
  5
501
100
AcDbEntity
  8
0
100
AcDbLine
 62
250
  6
CONTINUOUS
 10
-50.1124654552
 20
-15.419971
 11
-50.1124654552
 21
-16.0
  0
LINE
  5
502
100
AcDbEntity
  8
0
100
AcDbLine
 62
250
  6
CONTINUOUS
 10
-50.1123284969
 20
14.991935
 11
-50.1123284969
 21
14.252884
  0
LINE
  5
503
100
AcDbEntity
  8
0
100
AcDbLine
 62
250
  6
CONTINUOUS
 10
-50.1123284969
 20
8.9669
 11
-50.1123284969
 21
8.227849
  0
LINE
  5
504
100
AcDbEntity
  8
0
100
AcDbLine
 62
250
  6
CONTINUOUS
 10
-50.1123284969
 20
3.58822
 11
-50.1123284969
 21
2.70079
  0
LINE
  5
505
100
AcDbEntity
  8
0
100
AcDbLine
 62
250
  6
CONTINUOUS
 10
-50.1123284969
 20
5.171133
 11
-50.1123284969
 21
5.793739
  0
LINE
  5
506
100
AcDbEntity
  8
0
100
AcDbLine
 62
250
  6
CONTINUOUS
 10
-50.1123284969
 20
10.292325
 11
-50.1123284969
 21
11.216139
  0
LINE
  5
507
100
AcDbEntity
  8
0
100
AcDbLine
 62
250
  6
CONTINUOUS
 10
-50.1123284969
 20
12.328754
 11
-50.1123284969
 21
12.911198
  0
LINE
  5
508
100
AcDbEntity
  8
0
100
AcDbLine
 62
250
  6
CONTINUOUS
 10
-50.1087490579
 20
3.6948258614
 11
-50.1123283563
 21
3.5882200575
  0
LWPOLYLINE
  5
509
100
AcDbEntity
  8
0
100
AcDbPolyline
 62
250
  6
CONTINUOUS
 90
54
 70
0
 10
-49.6269840989
 20
3.7174608972
 10
-49.6221237194
 20
3.763813985
 10
-49.6204026189
 20
3.7792495632
 10
-49.6185359817
 20
3.794662096
 10
-49.616466778
 20
3.8100423913
 10
-49.614137978
 20
3.8253812571
 10
-49.6114925519
 20
3.8406695016
 10
-49.6084734699
 20
3.8558979327
 10
-49.6061403276
 20
3.8663734222
 10
-49.603582354
 20
3.8768018468
 10
-49.6007801368
 20
3.8871690543
 10
-49.5977142635
 20
3.8974608925
 10
-49.5943653216
 20
3.907663209
 10
-49.5907138985
 20
3.9177618517
 10
-49.586740582
 20
3.9277426683
 10
-49.5824259595
 20
3.9375915065
 10
-49.5783242482
 20
3.9461556907
 10
-49.5739424895
 20
3.9545891942
 10
-49.5692812176
 20
3.9628750024
 10
-49.5643409668
 20
3.9709961011
 10
-49.5591222714
 20
3.9789354759
 10
-49.5536256655
 20
3.9866761124
 10
-49.5478516834
 20
3.9942009963
 10
-49.5418008594
 20
4.001493113
 10
-49.5354737277
 20
4.0085354483
 10
-49.5288208686
 20
4.0153674044
 10
-49.5219070455
 20
4.0219361053
 10
-49.5147514257
 20
4.0282493076
 10
-49.5073731767
 20
4.0343147679
 10
-49.4997914655
 20
4.0401402428
 10
-49.4920254596
 20
4.0457334888
 10
-49.4840943261
 20
4.0511022627
 10
-49.4760172325
 20
4.0562543208
 10
-49.4678133459
 20
4.0611974199
 10
-49.4571105111
 20
4.0672512393
 10
-49.4462380972
 20
4.0729664611
 10
-49.435204242
 20
4.0783367237
 10
-49.4240170836
 20
4.0833556651
 10
-49.4126847596
 20
4.0880169238
 10
-49.4012154081
 20
4.0923141379
 10
-49.3896171669
 20
4.0962409458
 10
-49.3770845339
 20
4.1000267408
 10
-49.3644277612
 20
4.103400823
 10
-49.3516607309
 20
4.1063821336
 10
-49.3387973253
 20
4.1089896139
 10
-49.3258514267
 20
4.1112422052
 10
-49.3128369171
 20
4.1131588488
 10
-49.299767679
 20
4.1147584859
 10
-49.2866575945
 20
4.1160600579
 10
-49.2735205458
 20
4.1170825061
 10
-49.2603704153
 20
4.1178447717
 10
-49.247221085
 20
4.118365796
 10
-49.2340864374
 20
4.1186645203
 10
-49.2209803545
 20
4.1187598859
  0
LWPOLYLINE
  5
50A
100
AcDbEntity
  8
0
100
AcDbPolyline
 62
250
  6
CONTINUOUS
 90
3
 70
0
 10
-49.6305422148
 20
3.6866121309
 10
-49.6286933507
 20
3.7020250568
 10
-49.6269840989
 20
3.7174608972
  0
LINE
  5
50B
100
AcDbEntity
  8
0
100
AcDbLine
 62
7
  6
CONTINUOUS
 10
-49.8677251277
 20
5.171133
 11
-49.2451191277
 21
5.793739
  0
LINE
  5
50C
100
AcDbEntity
  8
0
100
AcDbLine
 62
7
  6
CONTINUOUS
 10
-47.6877488646
 20
7.351109263
 11
-47.2514123166
 21
7.787445811
  0
LINE
  5
50D
100
AcDbEntity
  8
0
100
AcDbLine
 62
7
  6
CONTINUOUS
 10
-40.4379808567
 20
14.6008772709
 11
-39.8937983029
 21
15.1450598248
  0
LINE
  5
50E
100
AcDbEntity
  8
0
100
AcDbLine
 62
7
  6
CONTINUOUS
 10
-49.6555930933
 20
5.171133
 11
-49.0329870933
 21
5.793739
  0
LINE
  5
50F
100
AcDbEntity
  8
0
100
AcDbLine
 62
7
  6
CONTINUOUS
 10
-47.5319532713
 20
7.294772822
 11
-47.213210798
 21
7.6135152953
  0
LINE
  5
510
100
AcDbEntity
  8
0
100
AcDbLine
 62
7
  6
CONTINUOUS
 10
-40.3589657464
 20
14.4677603469
 11
-39.8149004133
 21
15.01182568
  0
LINE
  5
511
100
AcDbEntity
  8
0
100
AcDbLine
 62
7
  6
CONTINUOUS
 10
-49.4434610589
 20
5.171133
 11
-48.8208550589
 21
5.793739
  0
LINE
  5
512
100
AcDbEntity
  8
0
100
AcDbLine
 62
7
  6
CONTINUOUS
 10
-47.376157678
 20
7.2384363809
 11
-47.213210798
 21
7.4013832609
  0
LINE
  5
513
100
AcDbEntity
  8
0
100
AcDbLine
 62
7
  6
CONTINUOUS
 10
-40.2760970529
 20
14.3384970061
 11
-39.7360025238
 21
14.8785915352
  0
LINE
  5
514
100
AcDbEntity
  8
0
100
AcDbLine
 62
7
  6
CONTINUOUS
 10
-49.2313290246
 20
5.171133
 11
-48.6087230246
 21
5.793739
  0
LINE
  5
515
100
AcDbEntity
  8
0
100
AcDbLine
 62
7
  6
CONTINUOUS
 10
-47.6949970077
 20
6.7074650168
 11
-47.5357240246
 21
6.866738
  0
LINE
  5
516
100
AcDbEntity
  8
0
100
AcDbLine
 62
7
  6
CONTINUOUS
 10
-47.2203620847
 20
7.1820999399
 11
-47.213210798
 21
7.1892512266
  0
LINE
  5
517
100
AcDbEntity
  8
0
100
AcDbLine
 62
7
  6
CONTINUOUS
 10
-40.1721282202
 20
14.2303338044
 11
-39.645294478
 21
14.7571675466
  0
LINE
  5
518
100
AcDbEntity
  8
0
100
AcDbLine
 62
7
  6
CONTINUOUS
 10
-50.0528963554
 20
4.1374336348
 11
-49.4255029884
 21
4.7648270018
  0
LINE
  5
519
100
AcDbEntity
  8
0
100
AcDbLine
 62
7
  6
CONTINUOUS
 10
-49.0191969902
 20
5.171133
 11
-48.3965909902
 21
5.793739
  0
LINE
  5
51A
100
AcDbEntity
  8
0
100
AcDbLine
 62
7
  6
CONTINUOUS
 10
-47.6949970077
 20
6.4953329825
 11
-47.3235919902
 21
6.866738
  0
LINE
  5
51B
100
AcDbEntity
  8
0
100
AcDbLine
 62
7
  6
CONTINUOUS
 10
-40.0681593876
 20
14.1221706026
 11
-39.5408182954
 21
14.6495116948
  0
LINE
  5
51C
100
AcDbEntity
  8
0
100
AcDbLine
 62
7
  6
CONTINUOUS
 10
-38.6388632135
 20
15.5514667768
 11
-38.5903299902
 21
15.6
  0
LINE
  5
51D
100
AcDbEntity
  8
0
100
AcDbLine
 62
7
  6
CONTINUOUS
 10
-50.0956583697
 20
3.8825395862
 11
-49.1985062259
 21
4.77969173
  0
LINE
  5
51E
100
AcDbEntity
  8
0
100
AcDbLine
 62
7
  6
CONTINUOUS
 10
-48.8070649559
 20
5.171133
 11
-48.1844589559
 21
5.793739
  0
LINE
  5
51F
100
AcDbEntity
  8
0
100
AcDbLine
 62
7
  6
CONTINUOUS
 10
-47.6949970077
 20
6.2832009481
 11
-47.213210798
 21
6.7649871579
  0
LINE
  5
520
100
AcDbEntity
  8
0
100
AcDbLine
 62
7
  6
CONTINUOUS
 10
-39.964190555
 20
14.0140074009
 11
-39.4363421129
 21
14.541855843
  0
LINE
  5
521
100
AcDbEntity
  8
0
100
AcDbLine
 62
7
  6
CONTINUOUS
 10
-38.6388631666
 20
15.3393347892
 11
-38.3781979559
 21
15.6
  0
LINE
  5
522
100
AcDbEntity
  8
0
100
AcDbLine
 62
7
  6
CONTINUOUS
 10
-50.1096910365
 20
3.6563748851
 11
-49.0034002454
 21
4.7626656761
  0
LINE
  5
523
100
AcDbEntity
  8
0
100
AcDbLine
 62
7
  6
CONTINUOUS
 10
-48.5949329215
 20
5.171133
 11
-47.9723269215
 21
5.793739
  0
LINE
  5
524
100
AcDbEntity
  8
0
100
AcDbLine
 62
7
  6
CONTINUOUS
 10
-47.6949970077
 20
6.0710689138
 11
-47.213210798
 21
6.5528551235
  0
LINE
  5
525
100
AcDbEntity
  8
0
100
AcDbLine
 62
7
  6
CONTINUOUS
 10
-39.8539321282
 20
13.9121337934
 11
-39.3156647935
 21
14.450401128
  0
LINE
  5
526
100
AcDbEntity
  8
0
100
AcDbLine
 62
7
  6
CONTINUOUS
 10
-38.6388631198
 20
15.1272028017
 11
-38.1660659215
 21
15.6
  0
LINE
  5
527
100
AcDbEntity
  8
0
100
AcDbLine
 62
7
  6
CONTINUOUS
 10
-50.1123283795
 20
3.4416055077
 11
-48.8407296403
 21
4.7132042469
  0
LINE
  5
528
100
AcDbEntity
  8
0
100
AcDbLine
 62
7
  6
CONTINUOUS
 10
-48.3828008872
 20
5.171133
 11
-47.7601948872
 21
5.793739
  0
LINE
  5
529
100
AcDbEntity
  8
0
100
AcDbLine
 62
7
  6
CONTINUOUS
 10
-47.6949970077
 20
5.8589368794
 11
-47.213210798
 21
6.3407230891
  0
LINE
  5
52A
100
AcDbEntity
  8
0
100
AcDbLine
 62
7
  6
CONTINUOUS
 10
-39.7252295981
 20
13.828704289
 11
-39.1857292727
 21
14.3682046145
  0
LINE
  5
52B
100
AcDbEntity
  8
0
100
AcDbLine
 62
7
  6
CONTINUOUS
 10
-38.638863073
 20
14.9150708142
 11
-37.9539338872
 21
15.6
  0
LINE
  5
52C
100
AcDbEntity
  8
0
100
AcDbLine
 62
7
  6
CONTINUOUS
 10
-50.1123284131
 20
3.2294734397
 11
-49.6274348165
 21
3.7143670363
  0
LINE
  5
52D
100
AcDbEntity
  8
0
100
AcDbLine
 62
7
  6
CONTINUOUS
 10
-49.2232199787
 20
4.1185818741
 11
-48.7051125067
 21
4.6366893461
  0
LINE
  5
52E
100
AcDbEntity
  8
0
100
AcDbLine
 62
7
  6
CONTINUOUS
 10
-48.1706688528
 20
5.171133
 11
-47.213210798
 21
6.1285910548
  0
LINE
  5
52F
100
AcDbEntity
  8
0
100
AcDbLine
 62
7
  6
CONTINUOUS
 10
-39.5965270681
 20
13.7452747847
 11
-39.0557937519
 21
14.2860081009
  0
LINE
  5
530
100
AcDbEntity
  8
0
100
AcDbLine
 62
7
  6
CONTINUOUS
 10
-38.6388630262
 20
14.7029388267
 11
-37.889091664
 21
15.4527101888
  0
LINE
  5
531
100
AcDbEntity
  8
0
100
AcDbLine
 62
7
  6
CONTINUOUS
 10
-50.1123284467
 20
3.0173413717
 11
-49.6305422872
 21
3.4991275313
  0
LINE
  5
532
100
AcDbEntity
  8
0
100
AcDbLine
 62
7
  6
CONTINUOUS
 10
-49.0413178851
 20
4.0883519334
 11
-48.5903307638
 21
4.5393390546
  0
LINE
  5
533
100
AcDbEntity
  8
0
100
AcDbLine
 62
7
  6
CONTINUOUS
 10
-47.9585368185
 20
5.171133
 11
-47.213210798
 21
5.9164590204
  0
LINE
  5
534
100
AcDbEntity
  8
0
100
AcDbLine
 62
7
  6
CONTINUOUS
 10
-39.4678245381
 20
13.6618452804
 11
-38.9009660326
 21
14.2287037859
  0
LINE
  5
535
100
AcDbEntity
  8
0
100
AcDbLine
 62
7
  6
CONTINUOUS
 10
-38.6388629793
 20
14.4908068391
 11
-37.889091664
 21
15.2405781544
  0
LINE
  5
536
100
AcDbEntity
  8
0
100
AcDbLine
 62
7
  6
CONTINUOUS
 10
-50.1123284803
 20
2.8052093037
 11
-49.5941417841
 21
3.323396
  0
LINE
  5
537
100
AcDbEntity
  8
0
100
AcDbLine
 62
7
  6
CONTINUOUS
 10
-48.9079499368
 20
4.0095878473
 11
-48.4965971464
 21
4.4209406377
  0
LINE
  5
538
100
AcDbEntity
  8
0
100
AcDbLine
 62
7
  6
CONTINUOUS
 10
-47.7464047841
 20
5.171133
 11
-47.213210798
 21
5.7043269861
  0
LINE
  5
539
100
AcDbEntity
  8
0
100
AcDbLine
 62
7
  6
CONTINUOUS
 10
-39.3271039348
 20
13.5904338493
 11
-38.7427004077
 21
14.1748373764
  0
LINE
  5
53A
100
AcDbEntity
  8
0
100
AcDbLine
 62
7
  6
CONTINUOUS
 10
-38.6388629325
 20
14.2786748516
 11
-37.889091664
 21
15.0284461201
  0
LINE
  5
53B
100
AcDbEntity
  8
0
100
AcDbLine
 62
7
  6
CONTINUOUS
 10
-50.0046157497
 20
2.70079
 11
-49.3820097497
 21
3.323396
  0
LINE
  5
53C
100
AcDbEntity
  8
0
100
AcDbLine
 62
7
  6
CONTINUOUS
 10
-48.8388837269
 20
3.8665220228
 11
-48.4315564426
 21
4.2738493071
  0
LINE
  5
53D
100
AcDbEntity
  8
0
100
AcDbLine
 62
7
  6
CONTINUOUS
 10
-47.5342727497
 20
5.171133
 11
-47.213210798
 21
5.4921949517
  0
LINE
  5
53E
100
AcDbEntity
  8
0
100
AcDbLine
 62
7
  6
CONTINUOUS
 10
-39.1710653547
 20
13.534340395
 11
-37.889091664
 21
14.8163140857
  0
LINE
  5
53F
100
AcDbEntity
  8
0
100
AcDbLine
 62
7
  6
CONTINUOUS
 10
-49.7924837154
 20
2.70079
 11
-49.1698777154
 21
3.323396
  0
LINE
  5
540
100
AcDbEntity
  8
0
100
AcDbLine
 62
7
  6
CONTINUOUS
 10
-48.811418499
 20
3.6818552164
 11
-48.3827303253
 21
4.1105433901
  0
LINE
  5
541
100
AcDbEntity
  8
0
100
AcDbLine
 62
7
  6
CONTINUOUS
 10
-47.3221407154
 20
5.171133
 11
-47.213210798
 21
5.2800629174
  0
LINE
  5
542
100
AcDbEntity
  8
0
100
AcDbLine
 62
7
  6
CONTINUOUS
 10
-39.0150267747
 20
13.4782469407
 11
-37.889091664
 21
14.6041820513
  0
LINE
  5
543
100
AcDbEntity
  8
0
100
AcDbLine
 62
250
  6
CONTINUOUS
 10
-34.0174293058
 20
15.1679995413
 11
-33.4603713375
 21
15.580285059
  0
LINE
  5
544
100
AcDbEntity
  8
0
100
AcDbLine
 62
250
  6
CONTINUOUS
 10
-47.2132257935
 20
-5.958503
 11
-50.112472453
 21
-5.958503
  0
LINE
  5
545
100
AcDbEntity
  8
DRAFT
100
AcDbLine
 62
7
  6
CONTINUOUS
 10
-26.3705000076
 20
-9.0239591234
 11
-24.9182070644
 21
-9.1510182921
  0
LINE
  5
546
100
AcDbEntity
  8
ASSI
100
AcDbLine
 62
7
  6
CONTINUOUS
 10
-26.3705000076
 20
-9.0239591234
 11
-24.9182070644
 21
-9.1510182921
  0
LINE
  5
547
100
AcDbEntity
  8
0
100
AcDbLine
 62
250
  6
CONTINUOUS
 10
-48.8198369895
 20
3.763813985
 11
-48.8149766101
 21
3.7174608972
  0
LWPOLYLINE
  5
548
100
AcDbEntity
  8
0
100
AcDbPolyline
 62
250
  6
CONTINUOUS
 90
53
 70
0
 10
-48.3296323527
 20
3.5882200575
 10
-48.3332116511
 20
3.6948258614
 10
-48.3352382688
 20
3.7481210085
 10
-48.3378803139
 20
3.8013969153
 10
-48.340653886
 20
3.8439758624
 10
-48.3441409869
 20
3.8865062021
 10
-48.3484421807
 20
3.9289583793
 10
-48.3536580319
 20
3.9713028391
 10
-48.3598891045
 20
4.0135100265
 10
-48.3659325609
 20
4.0485966381
 10
-48.3727818379
 20
4.0835398425
 10
-48.3804660511
 20
4.1183123618
 10
-48.3890143162
 20
4.1528869186
 10
-48.3984557487
 20
4.1872362349
 10
-48.4088194642
 20
4.2213330331
 10
-48.4184604803
 20
4.2503226951
 10
-48.4288475678
 20
4.2790577062
 10
-48.4400282547
 20
4.3074888493
 10
-48.4520500687
 20
4.3355669076
 10
-48.4649605379
 20
4.363242664
 10
-48.47880719
 20
4.3904669015
 10
-48.4936375531
 20
4.4171904032
 10
-48.5074663393
 20
4.4401425663
 10
-48.5220842756
 20
4.4626213833
 10
-48.537489466
 20
4.484575368
 10
-48.5536800145
 20
4.5059530338
 10
-48.5706540251
 20
4.5267028944
 10
-48.5884096017
 20
4.5467734634
 10
-48.6069448484
 20
4.5661132544
 10
-48.6262578692
 20
4.584670781
 10
-48.646318673
 20
4.6023841097
 10
-48.6671058075
 20
4.6192547416
 10
-48.6885712715
 20
4.6352720693
 10
-48.7106670636
 20
4.6504254852
 10
-48.7333451826
 20
4.6647043821
 10
-48.7565576272
 20
4.6780981526
 10
-48.7802563961
 20
4.6905961892
 10
-48.8043934879
 20
4.7021878845
 10
-48.8289243573
 20
4.7128694219
 10
-48.8538101518
 20
4.7226606687
 10
-48.8790154318
 20
4.7315883841
 10
-48.9045047578
 20
4.7396793271
 10
-48.9302426901
 20
4.7469602571
 10
-48.9561937893
 20
4.753457933
 10
-48.9823226157
 20
4.7591991139
 10
-49.0085937297
 20
4.7642105591
 10
-49.0387064837
 20
4.7690729355
 10
-49.068934725
 20
4.7730645828
 10
-49.0992547999
 20
4.776230213
 10
-49.1296430542
 20
4.7786145378
 10
-49.160075834
 20
4.7802622694
 10
-49.1905294854
 20
4.7812181196
 10
-49.2209803545
 20
4.7815268003
  0
LINE
  5
549
100
AcDbEntity
  8
0
100
AcDbLine
 62
250
  6
CONTINUOUS
 10
-49.6305422872
 20
3.323396
 11
-49.6305422872
 21
3.686612
  0
LINE
  5
54A
100
AcDbEntity
  8
0
100
AcDbLine
 62
250
  6
CONTINUOUS
 10
-49.5761138704
 20
-4.680792
 11
-49.5761138704
 21
-5.386478
  0
LINE
  5
54B
100
AcDbEntity
  8
0
100
AcDbLine
 62
250
  6
CONTINUOUS
 10
-48.8705998259
 20
-5.386471
 11
-48.8705998259
 21
-4.680792
  0
LINE
  5
54C
100
AcDbEntity
  8
0
100
AcDbLine
 62
250
  6
CONTINUOUS
 10
-48.8114188571
 20
3.323396
 11
-48.8114188571
 21
3.686612
  0
LINE
  5
54D
100
AcDbEntity
  8
0
100
AcDbLine
 62
250
  6
CONTINUOUS
 10
-48.3342342454
 20
-7.84744
 11
-48.3342342454
 21
-7.285246
  0
LINE
  5
54E
100
AcDbEntity
  8
0
100
AcDbLine
 62
250
  6
CONTINUOUS
 10
-48.3342342454
 20
-4.872178
 11
-48.3342412433
 21
-5.378409
  0
LINE
  5
54F
100
AcDbEntity
  8
0
100
AcDbLine
 62
250
  6
CONTINUOUS
 10
-48.3296326474
 20
3.58822
 11
-48.3296326474
 21
3.323396
  0
LINE
  5
550
100
AcDbEntity
  8
0
100
AcDbLine
 62
250
  6
CONTINUOUS
 10
-48.309448797
 20
15.007869
 11
-48.309448797
 21
14.176491
  0
LINE
  5
551
100
AcDbEntity
  8
0
100
AcDbLine
 62
250
  6
CONTINUOUS
 10
-48.309448797
 20
8.982943
 11
-48.309448797
 21
8.151456
  0
LINE
  5
552
100
AcDbEntity
  8
0
100
AcDbLine
 62
250
  6
CONTINUOUS
 10
-47.8276625873
 20
7.990812
 11
-47.8276625873
 21
9.139549
  0
LINE
  5
553
100
AcDbEntity
  8
0
100
AcDbLine
 62
250
  6
CONTINUOUS
 10
-47.8276625873
 20
14.015846
 11
-47.8276625873
 21
15.164584
  0
LINE
  5
554
100
AcDbEntity
  8
0
100
AcDbLine
 62
250
  6
CONTINUOUS
 10
-47.7833800792
 20
-7.108317
 11
-47.7833800792
 21
-8.024362
  0
LINE
  5
555
100
AcDbEntity
  8
0
100
AcDbLine
 62
7
  6
CONTINUOUS
 10
-49.580351681
 20
2.70079
 11
-48.957745681
 21
3.323396
  0
LINE
  5
556
100
AcDbEntity
  8
0
100
AcDbLine
 62
7
  6
CONTINUOUS
 10
-48.8114187109
 20
3.4697229701
 11
-48.3512217071
 21
3.929919974
  0
LINE
  5
557
100
AcDbEntity
  8
0
100
AcDbLine
 62
7
  6
CONTINUOUS
 10
-40.8010091783
 20
11.4801325027
 11
-40.666251681
 21
11.61489
  0
LINE
  5
558
100
AcDbEntity
  8
0
100
AcDbLine
 62
7
  6
CONTINUOUS
 10
-38.8589881946
 20
13.4221534864
 11
-37.889091664
 21
14.392050017
  0
LINE
  5
559
100
AcDbEntity
  8
0
100
AcDbLine
 62
7
  6
CONTINUOUS
 10
-36.4797340784
 20
15.8014076026
 11
-36.2811396009
 21
16.0000020801
  0
LINE
  5
55A
100
AcDbEntity
  8
0
100
AcDbLine
 62
7
  6
CONTINUOUS
 10
-49.3682196467
 20
2.70079
 11
-48.3352636266
 21
3.73374602
  0
LINE
  5
55B
100
AcDbEntity
  8
0
100
AcDbLine
 62
7
  6
CONTINUOUS
 10
-40.7860427382
 20
11.2829669085
 11
-40.4541196467
 21
11.61489
  0
LINE
  5
55C
100
AcDbEntity
  8
0
100
AcDbLine
 62
7
  6
CONTINUOUS
 10
-38.6718550014
 20
13.3971546453
 11
-37.889091664
 21
14.1799179826
  0
LINE
  5
55D
100
AcDbEntity
  8
0
100
AcDbLine
 62
7
  6
CONTINUOUS
 10
-36.4945427705
 20
15.5744668762
 11
-36.0690083484
 21
16.0000012983
  0
LINE
  5
55E
100
AcDbEntity
  8
0
100
AcDbLine
 62
7
  6
CONTINUOUS
 10
-49.1560876123
 20
2.70079
 11
-48.3296326474
 21
3.5272449649
  0
LINE
  5
55F
100
AcDbEntity
  8
0
100
AcDbLine
 62
7
  6
CONTINUOUS
 10
-40.771076298
 20
11.0858013143
 11
-40.2419876123
 21
11.61489
  0
LINE
  5
560
100
AcDbEntity
  8
0
100
AcDbLine
 62
7
  6
CONTINUOUS
 10
-38.4816948789
 20
13.3751827335
 11
-37.6287802958
 21
14.2280973165
  0
LINE
  5
561
100
AcDbEntity
  8
0
100
AcDbLine
 62
7
  6
CONTINUOUS
 10
-36.588757743
 20
15.2681198693
 11
-35.8568770958
 21
16.0000005165
  0
LINE
  5
562
100
AcDbEntity
  8
0
100
AcDbLine
 62
7
  6
CONTINUOUS
 10
-48.943955578
 20
2.70079
 11
-48.321349578
 21
3.323396
  0
LINE
  5
563
100
AcDbEntity
  8
0
100
AcDbLine
 62
7
  6
CONTINUOUS
 10
-40.7301054215
 20
10.9146401564
 11
-40.0586454694
 21
11.5861001086
  0
LINE
  5
564
100
AcDbEntity
  8
0
100
AcDbLine
 62
7
  6
CONTINUOUS
 10
-38.2915347563
 20
13.3532108216
 11
-37.1634355824
 21
14.4813099956
  0
LINE
  5
565
100
AcDbEntity
  8
0
100
AcDbLine
 62
7
  6
CONTINUOUS
 10
-36.8294202976
 20
14.8153252803
 11
-35.7226256507
 21
15.9221199273
  0
LINE
  5
566
100
AcDbEntity
  8
0
100
AcDbLine
 62
7
  6
CONTINUOUS
 10
-48.7318235436
 20
2.70079
 11
-48.1092175436
 21
3.323396
  0
LINE
  5
567
100
AcDbEntity
  8
0
100
AcDbLine
 62
7
  6
CONTINUOUS
 10
-40.6792221016
 20
10.753391442
 11
-40.0448367307
 21
11.3877768129
  0
LINE
  5
568
100
AcDbEntity
  8
0
100
AcDbLine
 62
7
  6
CONTINUOUS
 10
-38.0588900308
 20
13.3737235128
 11
-35.7400521196
 21
15.692561424
  0
LINE
  5
569
100
AcDbEntity
  8
0
100
AcDbLine
 62
7
  6
CONTINUOUS
 10
-48.5196915092
 20
2.70079
 11
-47.8970855092
 21
3.323396
  0
LINE
  5
56A
100
AcDbEntity
  8
0
100
AcDbLine
 62
7
  6
CONTINUOUS
 10
-40.6283387816
 20
10.5921427276
 11
-40.0310279919
 21
11.1894535173
  0
LINE
  5
56B
100
AcDbEntity
  8
0
100
AcDbLine
 62
7
  6
CONTINUOUS
 10
-37.8190456506
 20
13.4014358586
 11
-35.7574785886
 21
15.4630029207
  0
LINE
  5
56C
100
AcDbEntity
  8
0
100
AcDbLine
 62
7
  6
CONTINUOUS
 10
-48.3075594749
 20
2.70079
 11
-47.6849534749
 21
3.323396
  0
LINE
  5
56D
100
AcDbEntity
  8
0
100
AcDbLine
 62
7
  6
CONTINUOUS
 10
-40.5700631523
 20
10.4382863226
 11
-39.9827268464
 21
11.0256226285
  0
LINE
  5
56E
100
AcDbEntity
  8
0
100
AcDbLine
 62
7
  6
CONTINUOUS
 10
-37.5397412645
 20
13.4686082104
 11
-35.8389975568
 21
15.1693519181
  0
LINE
  5
56F
100
AcDbEntity
  8
0
100
AcDbLine
 62
7
  6
CONTINUOUS
 10
-48.0954274405
 20
2.70079
 11
-47.4728214405
 21
3.323396
  0
LINE
  5
570
100
AcDbEntity
  8
0
100
AcDbLine
 62
7
  6
CONTINUOUS
 10
-40.4910479329
 20
10.3051695077
 11
-39.9299777588
 21
10.8662396818
  0
LINE
  5
571
100
AcDbEntity
  8
0
100
AcDbLine
 62
7
  6
CONTINUOUS
 10
-37.2085524259
 20
13.5876650146
 11
-35.9367998769
 21
14.8594175637
  0
LINE
  5
572
100
AcDbEntity
  8
0
100
AcDbLine
 62
7
  6
CONTINUOUS
 10
-47.8832954062
 20
2.70079
 11
-47.2606894062
 21
3.323396
  0
LINE
  5
573
100
AcDbEntity
  8
0
100
AcDbLine
 62
7
  6
CONTINUOUS
 10
-40.4120327135
 20
10.1720526927
 11
-39.8709126382
 21
10.7131727679
  0
LINE
  5
574
100
AcDbEntity
  8
0
100
AcDbLine
 62
7
  6
CONTINUOUS
 10
-36.6681359643
 20
13.9159494418
 11
-36.4072608468
 21
14.1768245594
  0
LINE
  5
575
100
AcDbEntity
  8
0
100
AcDbLine
 62
7
  6
CONTINUOUS
 10
-47.6711633718
 20
2.70079
 11
-47.213210798
 21
3.1587425738
  0
LINE
  5
576
100
AcDbEntity
  8
0
100
AcDbLine
 62
7
  6
CONTINUOUS
 10
-40.333017494
 20
10.0389358778
 11
-39.7880687254
 21
10.5838846464
  0
LINE
  5
577
100
AcDbEntity
  8
0
100
AcDbLine
 62
7
  6
CONTINUOUS
 10
-47.4590313375
 20
2.70079
 11
-47.213210798
 21
2.9466105394
  0
LINE
  5
578
100
AcDbEntity
  8
0
100
AcDbLine
 62
7
  6
CONTINUOUS
 10
-40.2419544566
 20
9.9178668808
 11
-39.7052248126
 21
10.4545965249
  0
LINE
  5
579
100
AcDbEntity
  8
0
100
AcDbLine
 62
7
  6
CONTINUOUS
 10
-47.2468993031
 20
2.70079
 11
-47.213210798
 21
2.7344785051
  0
LINE
  5
57A
100
AcDbEntity
  8
0
100
AcDbLine
 62
7
  6
CONTINUOUS
 10
-40.1379855304
 20
9.8097037727
 11
-39.6147198203
 21
10.3329694828
  0
LINE
  5
57B
100
AcDbEntity
  8
0
100
AcDbLine
 62
7
  6
CONTINUOUS
 10
-40.0340166043
 20
9.7015406645
 11
-39.5049820634
 21
10.2305752053
  0
LINE
  5
57C
100
AcDbEntity
  8
0
100
AcDbLine
 62
7
  6
CONTINUOUS
 10
-39.9300476781
 20
9.5933775563
 11
-39.3952443065
 21
10.1281809279
  0
LINE
  5
57D
100
AcDbEntity
  8
0
100
AcDbLine
 62
250
  6
CONTINUOUS
 10
-49.5761138704
 20
-5.386478
 11
-48.8705998259
 21
-5.386471
  0
LINE
  5
57E
100
AcDbEntity
  8
0
100
AcDbLine
 62
250
  6
CONTINUOUS
 10
-48.3342412433
 20
-5.378409
 11
-47.2132257935
 21
-5.378474
  0
LWPOLYLINE
  5
57F
100
AcDbEntity
  8
0
100
AcDbPolyline
 62
250
  6
CONTINUOUS
 90
73
 70
0
 10
-48.4039669993
 20
-4.255024
 10
-48.4176594905
 20
-4.2241841821
 10
-48.4325471233
 20
-4.1938422761
 10
-48.4485998039
 20
-4.1640480313
 10
-48.4657874384
 20
-4.1348511972
 10
-48.4840799328
 20
-4.1063015231
 10
-48.5034471932
 20
-4.0784487582
 10
-48.5238591258
 20
-4.051342652
 10
-48.5452856367
 20
-4.0250329538
 10
-48.5676966319
 20
-3.9995694128
 10
-48.5910606713
 20
-3.9749981577
 10
-48.61534093
 20
-3.9513508336
 10
-48.6404992366
 20
-3.9286554648
 10
-48.66649742
 20
-3.9069400756
 10
-48.693297309
 20
-3.8862326905
 10
-48.7208607323
 20
-3.8665613336
 10
-48.7491495186
 20
-3.8479540295
 10
-48.7781254969
 20
-3.8304388024
 10
-48.8077504957
 20
-3.8140436766
 10
-48.8379848366
 20
-3.7987946565
 10
-48.8687828115
 20
-3.7847096666
 10
-48.9000972048
 20
-3.7718046114
 10
-48.9318808011
 20
-3.7600953953
 10
-48.964086385
 20
-3.7495979229
 10
-48.996666741
 20
-3.7403280986
 10
-49.0295746535
 20
-3.7323018269
 10
-49.0627629072
 20
-3.7255350123
 10
-49.0961842866
 20
-3.7200435593
 10
-49.1297912265
 20
-3.715840458
 10
-49.1635347629
 20
-3.7129270416
 10
-49.1973655821
 20
-3.7113017286
 10
-49.2312343703
 20
-3.7109629379
 10
-49.2650918138
 20
-3.711909088
 10
-49.298888599
 20
-3.7141385976
 10
-49.332575412
 20
-3.7176498856
 10
-49.3661029392
 20
-3.7224413705
 10
-49.3994218669
 20
-3.7285114712
 10
-49.4324834236
 20
-3.735855921
 10
-49.4652410071
 20
-3.7444597129
 10
-49.4976485575
 20
-3.7543051544
 10
-49.529660015
 20
-3.7653745533
 10
-49.5612293197
 20
-3.7776502172
 10
-49.5923104117
 20
-3.7911144537
 10
-49.622857231
 20
-3.8057495705
 10
-49.6528237178
 20
-3.8215378752
 10
-49.6821638123
 20
-3.8384616756
 10
-49.7108329077
 20
-3.8565007292
 10
-49.7387922106
 20
-3.8756245941
 10
-49.7660043808
 20
-3.8958002783
 10
-49.7924320782
 20
-3.9169947897
 10
-49.8180379624
 20
-3.9391751365
 10
-49.8427846933
 20
-3.9623083266
 10
-49.8666349307
 20
-3.986361368
 10
-49.8895513344
 20
-4.0113012687
 10
-49.9114965642
 20
-4.0370950369
 10
-49.9324354529
 20
-4.0637084042
 10
-49.9523415258
 20
-4.0911019976
 10
-49.9711904811
 20
-4.119235168
 10
-49.988958017
 20
-4.1480672661
 10
-50.005619832
 20
-4.1775576426
 10
-50.0211516241
 20
-4.2076656483
 10
-50.0355290918
 20
-4.238350634
 10
-50.0487279332
 20
-4.2695719505
 10
-50.0607238467
 20
-4.3012889485
 10
-50.0714951764
 20
-4.3334581646
 10
-50.0810308496
 20
-4.3660248793
 10
-50.0893224397
 20
-4.3989315587
 10
-50.0963615201
 20
-4.4321206689
 10
-50.1021396638
 20
-4.4655346762
 10
-50.1066484444
 20
-4.4991160468
 10
-50.109879435
 20
-4.5328072468
 10
-50.111824209
 20
-4.5665507425
 10
-50.1124743396
 20
-4.600289
  0
LWPOLYLINE
  5
580
100
AcDbEntity
  8
0
100
AcDbPolyline
 62
250
  6
CONTINUOUS
 90
3
 70
0
 10
-48.8149766101
 20
3.7174608972
 10
-48.8132673583
 20
3.7020250568
 10
-48.8114184942
 20
3.6866121309
  0
LINE
  5
581
100
AcDbEntity
  8
0
100
AcDbLine
 62
250
  6
CONTINUOUS
 10
-47.6949970077
 20
5.793739
 11
-47.6949970077
 21
6.866738
  0
LINE
  5
582
100
AcDbEntity
  8
0
100
AcDbLine
 62
250
  6
CONTINUOUS
 10
-47.213210798
 20
-15.068868
 11
-47.2132177959
 21
-14.488824
  0
LINE
  5
583
100
AcDbEntity
  8
0
100
AcDbLine
 62
250
  6
CONTINUOUS
 10
-47.213210798
 20
-13.171014
 11
-47.2132177959
 21
-12.590992
  0
LINE
  5
584
100
AcDbEntity
  8
0
100
AcDbLine
 62
250
  6
CONTINUOUS
 10
-47.2132177959
 20
-10.882587
 11
-47.2132257935
 21
-10.30258
  0
LINE
  5
585
100
AcDbEntity
  8
0
100
AcDbLine
 62
250
  6
CONTINUOUS
 10
-47.2132257935
 20
-8.207475
 11
-47.2132177959
 21
-8.787497
  0
LINE
  5
586
100
AcDbEntity
  8
0
100
AcDbLine
 62
250
  6
CONTINUOUS
 10
-47.2132327913
 20
-3.637619
 11
-47.2132257935
 21
-4.290924
  0
LINE
  5
587
100
AcDbEntity
  8
0
100
AcDbLine
 62
250
  6
CONTINUOUS
 10
-47.2132257935
 20
-5.378474
 11
-47.2132257935
 21
-5.958503
  0
LINE
  5
588
100
AcDbEntity
  8
0
100
AcDbLine
 62
250
  6
CONTINUOUS
 10
-47.2132177959
 20
-12.010985
 11
-47.2132177959
 21
-11.430963
  0
LINE
  5
589
100
AcDbEntity
  8
0
100
AcDbLine
 62
250
  6
CONTINUOUS
 10
-47.2132177959
 20
-9.754197
 11
-47.2132177959
 21
-9.174176
  0
LINE
  5
58A
100
AcDbEntity
  8
0
100
AcDbLine
 62
250
  6
CONTINUOUS
 10
-47.213210798
 20
12.911198
 11
-47.213210798
 21
12.027546
  0
LINE
  5
58B
100
AcDbEntity
  8
0
100
AcDbLine
 62
250
  6
CONTINUOUS
 10
-47.213210798
 20
10.87477
 11
-47.213210798
 21
10.292325
  0
LINE
  5
58C
100
AcDbEntity
  8
0
100
AcDbLine
 62
250
  6
CONTINUOUS
 10
-47.213210798
 20
6.866738
 11
-47.213210798
 21
5.171133
  0
LINE
  5
58D
100
AcDbEntity
  8
0
100
AcDbLine
 62
250
  6
CONTINUOUS
 10
-47.213210798
 20
2.70079
 11
-47.213210798
 21
3.323396
  0
LINE
  5
58E
100
AcDbEntity
  8
0
100
AcDbLine
 62
250
  6
CONTINUOUS
 10
-47.213210798
 20
7.179514
 11
-47.213210798
 21
7.773964
  0
LINE
  5
58F
100
AcDbEntity
  8
0
100
AcDbLine
 62
250
  6
CONTINUOUS
 10
-47.213210798
 20
9.348431
 11
-47.213210798
 21
9.975074
  0
LINE
  5
590
100
AcDbEntity
  8
0
100
AcDbLine
 62
250
  6
CONTINUOUS
 10
-47.213210798
 20
13.20444
 11
-47.213210798
 21
13.798889
  0
LINE
  5
591
100
AcDbEntity
  8
0
100
AcDbLine
 62
250
  6
CONTINUOUS
 10
-47.213210798
 20
15.373574
 11
-47.213210798
 21
16.0
  0
LINE
  5
592
100
AcDbEntity
  8
0
100
AcDbLine
 62
250
  6
CONTINUOUS
 10
-47.2132177959
 20
-6.345182
 11
-47.2132257935
 21
-6.925211
  0
LWPOLYLINE
  5
593
100
AcDbEntity
  8
0
100
AcDbPolyline
 62
7
  6
CONTINUOUS
 90
4
 70
0
 43
0.3500000087
 10
-46.5095355286
 20
43.6785707306
 10
-46.5095355286
 20
44.5357125977
 10
-46.0809624634
 20
44.9642856628
 10
-45.4381028656
 20
44.9642856628
  0
LINE
  5
594
100
AcDbEntity
  8
ASSI
100
AcDbLine
 62
250
  6
CONTINUOUS
 10
-46.0698342144
 20
-23.7507734247
 11
-46.0698342144
 21
-22.3338981669
  0
LINE
  5
595
100
AcDbEntity
  8
ASSI
100
AcDbLine
 62
250
  6
CONTINUOUS
 10
-46.0698342144
 20
22.3338981669
 11
-46.0698342144
 21
23.7507734247
  0
LWPOLYLINE
  5
596
100
AcDbEntity
  8
RACCORDO
100
AcDbPolyline
 62
250
  6
CONTINUOUS
 90
8
 70
0
 10
-52.8928996083
 20
-24.495628166
 10
-52.8928256583
 20
-24.4952867588
 10
-52.8927558348
 20
-24.4942634962
 10
-52.8926903367
 20
-24.492559892
 10
-52.8926293392
 20
-24.4901787618
 10
-52.8925730322
 20
-24.4871256484
 10
-52.8925216099
 20
-24.4834102087
 10
-52.8924339865
 20
-24.4740372277
  0
LWPOLYLINE
  5
597
100
AcDbEntity
  8
0
100
AcDbPolyline
 62
250
  6
CONTINUOUS
 90
36
 70
0
 10
-41.9882752741
 20
5.103542891
 10
-42.001417114
 20
5.0901079138
 10
-42.0141575115
 20
5.0762969087
 10
-42.0265021637
 20
5.062124287
 10
-42.0384567678
 20
5.0476044602
 10
-42.050027021
 20
5.0327518397
 10
-42.0612186205
 20
5.017580837
 10
-42.0720372636
 20
5.0021058634
 10
-42.0824886473
 20
4.9863413305
 10
-42.092578469
 20
4.9703016496
 10
-42.1023124257
 20
4.9540012322
 10
-42.1116962147
 20
4.9374544897
 10
-42.1207355332
 20
4.9206758336
 10
-42.1294360784
 20
4.9036796753
 10
-42.1378035474
 20
4.8864804262
 10
-42.1458436375
 20
4.8690924979
 10
-42.1535620459
 20
4.8515303016
 10
-42.1609644697
 20
4.8338082489
 10
-42.1680566062
 20
4.8159407511
 10
-42.1748441525
 20
4.7979422198
 10
-42.1813328058
 20
4.7798270664
 10
-42.1875282634
 20
4.7616097022
 10
-42.1934362224
 20
4.7433045388
 10
-42.19906238
 20
4.7249259875
 10
-42.2044124335
 20
4.7064884599
 10
-42.2094920799
 20
4.6880063672
 10
-42.2143070166
 20
4.6694941211
 10
-42.2188629406
 20
4.6509661329
 10
-42.2231655493
 20
4.632436814
 10
-42.2290099331
 20
4.6054102254
 10
-42.2343886059
 20
4.5784004564
 10
-42.2393633642
 20
4.5513964603
 10
-42.2439960046
 20
4.5243871904
 10
-42.2483483235
 20
4.4973615999
 10
-42.2524821175
 20
4.4703086422
 10
-42.260341317
 20
4.4160764381
  0
LINE
  5
598
100
AcDbEntity
  8
0
100
AcDbLine
 62
7
  6
CONTINUOUS
 10
-39.8116671317
 20
9.4996260683
 11
-39.2774984574
 21
10.0337947427
  0
LINE
  5
599
100
AcDbEntity
  8
0
100
AcDbLine
 62
7
  6
CONTINUOUS
 10
-39.6829645132
 20
9.4161966524
 11
-39.140373381
 21
9.9587877846
  0
LINE
  5
59A
100
AcDbEntity
  8
0
100
AcDbLine
 62
7
  6
CONTINUOUS
 10
-39.5542618947
 20
9.3327672366
 11
-39.0032483047
 21
9.8837808266
  0
LINE
  5
59B
100
AcDbEntity
  8
0
100
AcDbLine
 62
7
  6
CONTINUOUS
 10
-39.4255592763
 20
9.2493378207
 11
-38.8527887007
 21
9.8221083963
  0
LINE
  5
59C
100
AcDbEntity
  8
0
100
AcDbLine
 62
7
  6
CONTINUOUS
 10
-39.2758619337
 20
9.1869031289
 11
-38.6838457059
 21
9.7789193568
  0
LINE
  5
59D
100
AcDbEntity
  8
0
100
AcDbLine
 62
7
  6
CONTINUOUS
 10
-39.1198232611
 20
9.1308097671
 11
-38.5149027111
 21
9.7357303172
  0
LINE
  5
59E
100
AcDbEntity
  8
0
100
AcDbLine
 62
7
  6
CONTINUOUS
 10
-38.9637845886
 20
9.0747164053
 11
-38.3095178868
 21
9.7289831071
  0
LINE
  5
59F
100
AcDbEntity
  8
0
100
AcDbLine
 62
7
  6
CONTINUOUS
 10
-36.4705748113
 20
11.5679261826
 11
-36.4236110984
 21
11.6148898955
  0
LINE
  5
5A0
100
AcDbEntity
  8
0
100
AcDbLine
 62
7
  6
CONTINUOUS
 10
-38.7995678752
 20
9.0268010844
 11
-38.097385859
 21
9.7289831006
  0
LINE
  5
5A1
100
AcDbEntity
  8
0
100
AcDbLine
 62
7
  6
CONTINUOUS
 10
-36.4864504078
 20
11.3399185518
 11
-36.2114790327
 21
11.6148899269
  0
LINE
  5
5A2
100
AcDbEntity
  8
0
100
AcDbLine
 62
7
  6
CONTINUOUS
 10
-38.6094076438
 20
9.0048292814
 11
-37.8322981686
 21
9.7819387566
  0
LINE
  5
5A3
100
AcDbEntity
  8
0
100
AcDbLine
 62
7
  6
CONTINUOUS
 10
-36.5237659389
 20
11.0904709863
 11
-35.999346967
 21
11.6148899582
  0
LINE
  5
5A4
100
AcDbEntity
  8
0
100
AcDbLine
 62
7
  6
CONTINUOUS
 10
-38.4192474124
 20
8.9828574784
 11
-37.5106172228
 21
9.891487668
  0
LINE
  5
5A5
100
AcDbEntity
  8
0
100
AcDbLine
 62
7
  6
CONTINUOUS
 10
-36.6287023524
 20
10.7734025384
 11
-35.7872149013
 21
11.6148899896
  0
LINE
  5
5A6
100
AcDbEntity
  8
0
100
AcDbLine
 62
7
  6
CONTINUOUS
 10
-38.2199711784
 20
8.9700016781
 11
-35.7283484112
 21
11.4616244453
  0
LINE
  5
5A7
100
AcDbEntity
  8
0
100
AcDbLine
 62
7
  6
CONTINUOUS
 10
-37.9801266481
 20
8.997714174
 11
-35.7457749195
 21
11.2320659026
  0
LINE
  5
5A8
100
AcDbEntity
  8
0
100
AcDbLine
 62
7
  6
CONTINUOUS
 10
-37.7402821179
 20
9.0254266699
 11
-35.7733130641
 21
10.9923957237
  0
LINE
  5
5A9
100
AcDbEntity
  8
0
100
AcDbLine
 62
7
  6
CONTINUOUS
 10
-37.4309809415
 20
9.1225958119
 11
-35.8711153215
 21
10.6824614319
  0
LINE
  5
5AA
100
AcDbEntity
  8
0
100
AcDbLine
 62
250
  6
CONTINUOUS
 10
-34.0174293058
 20
8.5714285059
 11
-32.7176273021
 21
9.2929285059
  0
LINE
  5
5AB
100
AcDbEntity
  8
ASSI
100
AcDbLine
 62
7
  6
CONTINUOUS
 10
-45.6443540412
 20
-23.2563578147
 11
-45.6443540412
 21
-22.3301954119
  0
LINE
  5
5AC
100
AcDbEntity
  8
ASSI
100
AcDbLine
 62
7
  6
CONTINUOUS
 10
-45.6443540412
 20
22.3301954119
 11
-45.6443540412
 21
23.2563578147
  0
LINE
  5
5AD
100
AcDbEntity
  8
0
100
AcDbLine
 62
250
  6
CONTINUOUS
 10
-44.8997953668
 20
15.6776427853
 11
-44.8997953668
 21
15.0248570471
  0
LINE
  5
5AE
100
AcDbEntity
  8
0
100
AcDbLine
 62
250
  6
CONTINUOUS
 10
-44.2213272434
 20
13.116714178
 11
-44.2213272434
 21
12.062214178
  0
LINE
  5
5AF
100
AcDbEntity
  8
0
100
AcDbLine
 62
250
  6
CONTINUOUS
 10
-44.2213272434
 20
11.4596427853
 11
-44.2213272434
 21
10.405142911
  0
LINE
  5
5B0
100
AcDbEntity
  8
0
100
AcDbLine
 62
250
  6
CONTINUOUS
 10
-43.8142463921
 20
15.2257144294
 11
-43.8142463921
 21
15.6776427853
  0
LINE
  5
5B1
100
AcDbEntity
  8
0
100
AcDbLine
 62
7
  6
CONTINUOUS
 10
-37.0731468317
 20
9.2682978874
 11
-36.0378296029
 21
10.3036151162
  0
LINE
  5
5B2
100
AcDbEntity
  8
0
100
AcDbLine
 62
250
  6
CONTINUOUS
 10
-42.7196012826
 20
1.49987
 11
-37.7430733474
 21
6.231556
  0
LINE
  5
5B3
100
AcDbEntity
  8
0
100
AcDbLine
 62
250
  6
CONTINUOUS
 10
-34.0174293058
 20
3.3491429309
 11
-32.7176273021
 21
3.7614286206
  0
LWPOLYLINE
  5
5B4
100
AcDbEntity
  8
0
100
AcDbPolyline
 62
250
  6
CONTINUOUS
 90
60
 70
0
 10
-42.2704610313
 20
3.8430726704
 10
-42.269456201
 20
3.816853434
 10
-42.2683081979
 20
3.7907450224
 10
-42.2669905439
 20
3.7647385253
 10
-42.2654767614
 20
3.7388250323
 10
-42.2637403724
 20
3.7129956331
 10
-42.2617548991
 20
3.6872414173
 10
-42.2594938636
 20
3.6615534746
 10
-42.256930788
 20
3.6359228946
 10
-42.2540391946
 20
3.6103407669
 10
-42.2507926055
 20
3.5847981813
 10
-42.2471645427
 20
3.5592862274
 10
-42.2431285285
 20
3.5337959948
 10
-42.238658085
 20
3.5083185733
 10
-42.2337267343
 20
3.4828450523
 10
-42.2283079986
 20
3.4573665217
 10
-42.2223754
 20
3.431874071
 10
-42.2159024606
 20
3.4063587899
 10
-42.2088627027
 20
3.3808117681
 10
-42.2012296483
 20
3.3552240951
 10
-42.1929768196
 20
3.3295868608
 10
-42.1840777388
 20
3.3038911546
 10
-42.1745059279
 20
3.2781280663
 10
-42.1642349092
 20
3.2522886856
 10
-42.1532382047
 20
3.226364102
 10
-42.1414893367
 20
3.2003454052
 10
-42.1289618271
 20
3.1742236849
 10
-42.1229478194
 20
3.1622085161
 10
-42.1167634101
 20
3.1501932741
 10
-42.1104076074
 20
3.1382014383
 10
-42.1038794195
 20
3.1262564881
 10
-42.0971778543
 20
3.114381903
 10
-42.0903019202
 20
3.1026011623
 10
-42.0832506251
 20
3.0909377455
 10
-42.0760229772
 20
3.0794151319
 10
-42.0686179846
 20
3.0680568011
 10
-42.0610346554
 20
3.0568862324
 10
-42.0532719977
 20
3.0459269053
 10
-42.0453290197
 20
3.035202299
 10
-42.0372047295
 20
3.0247358932
 10
-42.0288981352
 20
3.0145511672
 10
-42.0204082449
 20
3.0046716004
 10
-42.0117340667
 20
2.9951206721
 10
-42.0028746087
 20
2.985921862
 10
-41.9938288791
 20
2.9770986493
 10
-41.984595886
 20
2.9686745134
 10
-41.9751746375
 20
2.9606729339
 10
-41.9655641417
 20
2.9531173901
 10
-41.9557634067
 20
2.9460313613
 10
-41.9457714406
 20
2.9394383272
 10
-41.9355872517
 20
2.933361767
 10
-41.9252098479
 20
2.9278251601
 10
-41.9146382374
 20
2.9228519861
 10
-41.9038714283
 20
2.9184657242
 10
-41.8929084287
 20
2.914689854
 10
-41.8817482468
 20
2.9115478549
 10
-41.8703898907
 20
2.9090632062
 10
-41.8588323684
 20
2.9072593873
 10
-41.8470746882
 20
2.9061598778
 10
-41.835115858
 20
2.905788157
  0
LINE
  5
5B5
100
AcDbEntity
  8
RACCORDO
100
AcDbLine
 62
250
  6
CONTINUOUS
 10
-43.135627838
 20
21.5659754333
 11
-43.135627838
 21
20.9917082642
  0
LINE
  5
5B6
100
AcDbEntity
  8
RACCORDO
100
AcDbLine
 62
250
  6
CONTINUOUS
 10
-43.135627838
 20
-20.9917082642
 11
-43.135627838
 21
-21.5659754333
  0
LINE
  5
5B7
100
AcDbEntity
  8
RACCORDO
100
AcDbLine
 62
250
  6
CONTINUOUS
 10
-42.8431904949
 20
20.9942603263
 11
-42.8431904949
 21
20.6789200539
  0
LINE
  5
5B8
100
AcDbEntity
  8
RACCORDO
100
AcDbLine
 62
250
  6
CONTINUOUS
 10
-42.8431904949
 20
-20.6789200539
 11
-42.8431904949
 21
-20.9942603263
  0
LINE
  5
5B9
100
AcDbEntity
  8
RACCORDO
100
AcDbLine
 62
7
  6
CONTINUOUS
 10
-42.6443540412
 20
21.3126932437
 11
-42.6443540412
 21
20.6754493507
  0
LINE
  5
5BA
100
AcDbEntity
  8
DRAFT
100
AcDbLine
 62
7
  6
CONTINUOUS
 10
-42.6443540412
 20
-19.6109791689
 11
-42.6443540412
 21
-20.6754493507
  0
LINE
  5
5BB
100
AcDbEntity
  8
ASSI
100
AcDbLine
 62
7
  6
CONTINUOUS
 10
-42.6443540412
 20
-19.6109791689
 11
-42.6443540412
 21
-20.6754493507
  0
LINE
  5
5BC
100
AcDbEntity
  8
RACCORDO
100
AcDbLine
 62
7
  6
CONTINUOUS
 10
-42.6443540412
 20
-20.6754493507
 11
-42.6443540412
 21
-21.3126932437
  0
LINE
  5
5BD
100
AcDbEntity
  8
DRAFT
100
AcDbLine
 62
7
  6
CONTINUOUS
 10
-42.6443540412
 20
19.6109791689
 11
-42.6443540412
 21
20.6754493507
  0
LINE
  5
5BE
100
AcDbEntity
  8
ASSI
100
AcDbLine
 62
7
  6
CONTINUOUS
 10
-42.6443540412
 20
19.6109791689
 11
-42.6443540412
 21
20.6754493507
  0
LINE
  5
5BF
100
AcDbEntity
  8
0
100
AcDbLine
 62
250
  6
CONTINUOUS
 10
-42.2296739123
 20
3.218216
 11
-42.2296739123
 21
3.31759
  0
LINE
  5
5C0
100
AcDbEntity
  8
0
100
AcDbLine
 62
250
  6
CONTINUOUS
 10
-41.8351160145
 20
2.690027
 11
-41.8351160145
 21
5.127934
  0
LINE
  5
5C1
100
AcDbEntity
  8
0
100
AcDbLine
 62
250
  6
CONTINUOUS
 10
-42.3226337519
 20
3.843073
 11
-42.3220758369
 21
4.416076
  0
LINE
  5
5C2
100
AcDbEntity
  8
0
100
AcDbLine
 62
250
  6
CONTINUOUS
 10
-42.1046149623
 20
4.416076
 11
-42.1051728773
 21
3.843073
  0
LINE
  5
5C3
100
AcDbEntity
  8
0
100
AcDbLine
 62
7
  6
CONTINUOUS
 10
-36.6632108407
 20
5.923779713
 11
-36.4946285537
 21
6.092362
  0
LINE
  5
5C4
100
AcDbEntity
  8
0
100
AcDbLine
 62
7
  6
CONTINUOUS
 10
-36.6632108407
 20
5.5286484436
 11
-36.0994972843
 21
6.092362
  0
LINE
  5
5C5
100
AcDbEntity
  8
0
100
AcDbLine
 62
7
  6
CONTINUOUS
 10
-36.6632108407
 20
5.1335171743
 11
-35.704366015
 21
6.092362
  0
LINE
  5
5C6
100
AcDbEntity
  8
0
100
AcDbLine
 62
7
  6
CONTINUOUS
 10
-36.6632108407
 20
4.738385905
 11
-35.6443540412
 21
5.7572427045
  0
LINE
  5
5C7
100
AcDbEntity
  8
0
100
AcDbLine
 62
7
  6
CONTINUOUS
 10
-36.6632108407
 20
4.3432546357
 11
-35.6443540412
 21
5.3621114352
  0
LINE
  5
5C8
100
AcDbEntity
  8
0
100
AcDbLine
 62
7
  6
CONTINUOUS
 10
-36.6632108407
 20
3.9481233663
 11
-35.6443540412
 21
4.9669801659
  0
LWPOLYLINE
  5
5C9
100
AcDbEntity
  8
RACCORDO
100
AcDbPolyline
 62
7
  6
CONTINUOUS
 90
10
 70
0
 10
-27.6269016347
 20
10.8720557861
 10
-27.6071565405
 20
10.8877013541
 10
-27.5865020826
 20
10.9022282384
 10
-27.564938261
 20
10.915636439
 10
-27.5424035691
 20
10.9279846753
 10
-27.5189595135
 20
10.9392142279
 10
-27.4947906142
 20
10.9491489386
 10
-27.4699583777
 20
10.9577300882
 10
-27.4444012974
 20
10.965016396
 10
-27.4181193733
 20
10.9710078619
  0
LWPOLYLINE
  5
5CA
100
AcDbEntity
  8
ASSI
100
AcDbPolyline
 62
7
  6
CONTINUOUS
 90
10
 70
0
 10
-27.6269016347
 20
10.8720557861
 10
-27.6071565405
 20
10.8877013541
 10
-27.5865020826
 20
10.9022282384
 10
-27.564938261
 20
10.915636439
 10
-27.5424035691
 20
10.9279846753
 10
-27.5189595135
 20
10.9392142279
 10
-27.4947906142
 20
10.9491489386
 10
-27.4699583777
 20
10.9577300882
 10
-27.4444012974
 20
10.965016396
 10
-27.4181193733
 20
10.9710078619
  0
LINE
  5
5CB
100
AcDbEntity
  8
0
100
AcDbLine
 62
250
  6
CONTINUOUS
 10
-48.4039649999
 20
-4.255022
 11
-47.2132327913
 21
-3.637619
  0
LINE
  5
5CC
100
AcDbEntity
  8
0
100
AcDbLine
 62
250
  6
CONTINUOUS
 10
-47.2132257935
 20
-4.290924
 11
-48.3342342454
 21
-4.872178
  0
LINE
  5
5CD
100
AcDbEntity
  8
0
100
AcDbLine
 62
250
  6
CONTINUOUS
 10
-32.7176273021
 20
1.7
 11
-34.0174293058
 21
1.7
  0
LINE
  5
5CE
100
AcDbEntity
  8
0
100
AcDbLine
 62
250
  6
CONTINUOUS
 10
-35.6443540412
 20
1.907638
 11
-36.6632108407
 21
1.907638
  0
LWPOLYLINE
  5
5CF
100
AcDbEntity
  8
0
100
AcDbPolyline
 62
250
  6
CONTINUOUS
 90
11
 70
0
 10
-40.0629687424
 20
11.4757811813
 10
-40.0632220741
 20
11.4897098595
 10
-40.0633677393
 20
11.5036372154
 10
-40.0634056792
 20
11.5175622618
 10
-40.0633358354
 20
11.5314840116
 10
-40.0631581493
 20
11.5454014776
 10
-40.0628725624
 20
11.5593136727
 10
-40.0624790161
 20
11.5732196096
 10
-40.0619774518
 20
11.5871183012
 10
-40.061367811
 20
11.6010087604
 10
-40.0606500352
 20
11.61489
  0
LINE
  5
5D0
100
AcDbEntity
  8
0
100
AcDbLine
 62
250
  6
CONTINUOUS
 10
-41.4722612875
 20
5.067887
 11
-41.4722612875
 21
5.417947
  0
LINE
  5
5D1
100
AcDbEntity
  8
0
100
AcDbLine
 62
250
  6
CONTINUOUS
 10
-41.0998540155
 20
5.417947
 11
-41.0998540155
 21
5.067887
  0
LINE
  5
5D2
100
AcDbEntity
  8
0
100
AcDbLine
 62
250
  6
CONTINUOUS
 10
-41.0074520909
 20
3.78807
 11
-41.0074520909
 21
4.61141
  0
LINE
  5
5D3
100
AcDbEntity
  8
0
100
AcDbLine
 62
250
  6
CONTINUOUS
 10
-40.7918489333
 20
4.61141
 11
-40.7918489333
 21
3.78807
  0
LWPOLYLINE
  5
5D4
100
AcDbEntity
  8
0
100
AcDbPolyline
 62
250
  6
CONTINUOUS
 90
78
 70
0
 10
-40.8112383465
 20
16.000003
 10
-40.8131785599
 20
15.8949547349
 10
-40.8107753074
 20
15.7897930481
 10
-40.8040425109
 20
15.6847296759
 10
-40.7929940924
 20
15.5799763543
 10
-40.777643974
 20
15.4757448197
 10
-40.7580060777
 20
15.3722468082
 10
-40.734101839
 20
15.2696856524
 10
-40.7059827469
 20
15.1682310701
 10
-40.6737078041
 20
15.0680443753
 10
-40.6373360131
 20
14.9692868821
 10
-40.5969263763
 20
14.8721199046
 10
-40.5525378963
 20
14.776704757
 10
-40.5042361504
 20
14.6832013316
 10
-40.4521130154
 20
14.5917638349
 10
-40.3962669427
 20
14.5025450516
 10
-40.3367963838
 20
14.4156977665
 10
-40.2737997901
 20
14.3313747643
 10
-40.2073756133
 20
14.2497288297
 10
-40.1376279686
 20
14.1709074612
 10
-40.064683627
 20
14.0950370113
 10
-39.9886750236
 20
14.0222385462
 10
-39.909734593
 20
13.9526331323
 10
-39.8279947704
 20
13.8863418357
 10
-39.7435879906
 20
13.8234857226
 10
-39.6566509807
 20
13.7641799601
 10
-39.5673376371
 20
13.7085161185
 10
-39.4758061486
 20
13.656579869
 10
-39.3822147038
 20
13.6084568826
 10
-39.2867214913
 20
13.5642328306
 10
-39.1894846999
 20
13.5239933841
 10
-39.0906652077
 20
13.4878172784
 10
-38.990434651
 20
13.4557555058
 10
-38.8889673556
 20
13.4278521227
 10
-38.7864376475
 20
13.4041511856
 10
-38.6830198523
 20
13.3846967509
 10
-38.578888296
 20
13.3695328751
 10
-38.4742182186
 20
13.358696272
 10
-38.3691885167
 20
13.3521942843
 10
-38.2639790013
 20
13.3500269121
 10
-38.1587694832
 20
13.3521941557
 10
-38.0537397734
 20
13.358696015
 10
-37.9490696827
 20
13.3695324903
 10
-37.8449381079
 20
13.3846962388
 10
-37.741520289
 20
13.4041505471
 10
-37.6389905519
 20
13.4278513589
 10
-37.5375232225
 20
13.455754618
 10
-37.4372926266
 20
13.4878162681
 10
-37.3384730902
 20
13.523992253
 10
-37.2412362496
 20
13.5642315807
 10
-37.1457429832
 20
13.608455516
 10
-37.0521514795
 20
13.656578388
 10
-36.9606199276
 20
13.7085145257
 10
-36.8713065161
 20
13.7641782581
 10
-36.7843694338
 20
13.8234839144
 10
-36.6999625771
 20
13.8863399243
 10
-36.6182226735
 20
13.952631121
 10
-36.539282158
 20
14.0222364385
 10
-36.4632734656
 20
14.0950348107
 10
-36.3903290314
 20
14.1709051714
 10
-36.3205812905
 20
14.2497264547
 10
-36.2541570139
 20
14.3313723081
 10
-36.1911603173
 20
14.4156952334
 10
-36.1316896523
 20
14.5025424458
 10
-36.0758434706
 20
14.5917611609
 10
-36.0237202239
 20
14.6831985939
 10
-35.9754183639
 20
14.7767019602
 10
-35.9310297673
 20
14.8721170536
 10
-35.8906200119
 20
14.9692839817
 10
-35.8542481002
 20
15.0680414304
 10
-35.821973035
 20
15.1682280858
 10
-35.793853819
 20
15.2696826338
 10
-35.7699494551
 20
15.3722437603
 10
-35.7503114324
 20
15.4757417478
 10
-35.7349611867
 20
15.5799732637
 10
-35.7239126402
 20
15.6847265717
 10
-35.7171797154
 20
15.7897899358
 10
-35.7147763344
 20
15.8949516196
  0
LWPOLYLINE
  5
5D5
100
AcDbEntity
  8
0
100
AcDbPolyline
 62
250
  6
CONTINUOUS
 90
78
 70
0
 10
-40.8112383465
 20
11.61489
 10
-40.8131784365
 20
11.5098417757
 10
-40.8107750638
 20
11.4046801349
 10
-40.8040421505
 20
11.2996168135
 10
-40.7929936189
 20
11.1948635475
 10
-40.7776433914
 20
11.0906320728
 10
-40.7580053901
 20
10.9871341254
 10
-40.7341010507
 20
10.8845730376
 10
-40.7059818625
 20
10.7831185268
 10
-40.6737068281
 20
10.682931907
 10
-40.63733495
 20
10.584174492
 10
-40.596925231
 20
10.4870075956
 10
-40.5525366737
 20
10.3915925317
 10
-40.5042348554
 20
10.2980891924
 10
-40.452111653
 20
10.206651784
 10
-40.3962655179
 20
10.1174330909
 10
-40.3367949016
 20
10.0305858975
 10
-40.2737982557
 20
9.9462629883
 10
-40.2073740318
 20
9.8646171479
 10
-40.1376263451
 20
9.7857958743
 10
-40.0646819667
 20
9.70992552
 10
-39.9886733314
 20
9.6371271507
 10
-39.9097328741
 20
9.5675218327
 10
-39.8279930296
 20
9.5012306317
 10
-39.7435862328
 20
9.4383746138
 10
-39.6566492109
 20
9.3790689458
 10
-39.56733586
 20
9.3234051978
 10
-39.4758043689
 20
9.2714690407
 10
-39.3822129259
 20
9.2233461454
 10
-39.2867197197
 20
9.1791221828
 10
-39.1894829388
 20
9.138882824
 10
-39.0906634614
 20
9.1027068039
 10
-38.9904329234
 20
9.0706451147
 10
-38.8889656507
 20
9.0427418127
 10
-38.7864359688
 20
9.0190409541
 10
-38.6830182034
 20
8.9995865953
 10
-38.5788866802
 20
8.9844227925
 10
-38.474216639
 20
8.9735862593
 10
-38.3691869764
 20
8.9670843383
 10
-38.2639775029
 20
8.9649170298
 10
-38.1587680293
 20
8.9670843335
 10
-38.0537383664
 20
8.9735862495
 10
-37.9490683247
 20
8.9844227779
 10
-37.8449368008
 20
8.9995865759
 10
-37.7415190345
 20
9.01904093
 10
-37.6389893515
 20
9.0427417838
 10
-37.5375220775
 20
9.0706450812
 10
-37.4372915381
 20
9.1027067657
 10
-37.338472059
 20
9.1388827812
 10
-37.2412352762
 20
9.1791221356
 10
-37.145742068
 20
9.2233460938
 10
-37.0521506228
 20
9.2714689848
 10
-36.9606191292
 20
9.3234051377
 10
-36.8713057758
 20
9.3790688816
 10
-36.7843687512
 20
9.4383745456
 10
-36.6999619515
 20
9.5012305595
 10
-36.618222104
 20
9.5675217567
 10
-36.5392816434
 20
9.6371270712
 10
-36.4632730048
 20
9.7099254369
 10
-36.3903286229
 20
9.7857957879
 10
-36.3205809326
 20
9.8646170582
 10
-36.2541567048
 20
9.9462628956
 10
-36.191160055
 20
10.0305858018
 10
-36.1316894348
 20
10.1174329924
 10
-36.0758432956
 20
10.206651683
 10
-36.0237200889
 20
10.298089089
 10
-35.9754182664
 20
10.391592426
 10
-35.9310297046
 20
10.4870074879
 10
-35.8906199811
 20
10.5841743825
 10
-35.8542480985
 20
10.6829317958
 10
-35.8219730594
 20
10.7831184141
 10
-35.7938538665
 20
10.8845729236
 10
-35.7699495224
 20
10.9871340103
 10
-35.7503115164
 20
11.0906319568
 10
-35.734961284
 20
11.1948634307
 10
-35.7239127476
 20
11.2996166963
 10
-35.7171798295
 20
11.4046800173
 10
-35.7147764519
 20
11.5098416581
  0
LWPOLYLINE
  5
5D6
100
AcDbEntity
  8
RACCORDO
100
AcDbPolyline
 62
250
  6
CONTINUOUS
 90
5
 70
0
 10
-52.7721063399
 20
-23.6327305135
 10
-52.7709765296
 20
-23.6306383078
 10
-52.7701837047
 20
-23.6291303387
 10
-52.7697300323
 20
-23.6282107281
 10
-52.7696167515
 20
-23.6278819874
  0
LINE
  5
5D7
100
AcDbEntity
  8
RACCORDO
100
AcDbLine
 62
250
  6
CONTINUOUS
 10
-52.7753636729
 20
-23.6386432181
 11
-52.7721063399
 21
-23.6327305135
  0
LINE
  5
5D8
100
AcDbEntity
  8
RACCORDO
100
AcDbLine
 62
250
  6
CONTINUOUS
 10
-52.7826706505
 20
-23.6517005085
 11
-52.7753636729
 21
-23.6386432181
  0
LINE
  5
5D9
100
AcDbEntity
  8
RACCORDO
100
AcDbLine
 62
250
  6
CONTINUOUS
 10
-52.8052595491
 20
-23.6915742967
 11
-52.7826706505
 21
-23.6517005085
  0
LINE
  5
5DA
100
AcDbEntity
  8
RACCORDO
100
AcDbLine
 62
250
  6
CONTINUOUS
 10
-52.8799055563
 20
-23.8219557382
 11
-52.8052595491
 21
-23.6915742967
  0
LINE
  5
5DB
100
AcDbEntity
  8
RACCORDO
100
AcDbLine
 62
250
  6
CONTINUOUS
 10
-52.8928996083
 20
-23.8445398019
 11
-52.8799055563
 21
-23.8219557382
  0
LINE
  5
5DC
100
AcDbEntity
  8
0
100
AcDbLine
 62
250
  6
CONTINUOUS
 10
-34.0174293058
 20
4.6890713794
 11
-33.8317433164
 21
4.8952141383
  0
LINE
  5
5DD
100
AcDbEntity
  8
0
100
AcDbLine
 62
7
  6
CONTINUOUS
 10
-36.6632108407
 20
3.552992097
 11
-35.6443540412
 21
4.5718488965
  0
LINE
  5
5DE
100
AcDbEntity
  8
0
100
AcDbLine
 62
7
  6
CONTINUOUS
 10
-36.6632108407
 20
3.1578608277
 11
-35.6443540412
 21
4.1767176272
  0
LINE
  5
5DF
100
AcDbEntity
  8
0
100
AcDbLine
 62
7
  6
CONTINUOUS
 10
-36.6632108407
 20
2.7627295583
 11
-35.6443540412
 21
3.7815863579
  0
LINE
  5
5E0
100
AcDbEntity
  8
0
100
AcDbLine
 62
7
  6
CONTINUOUS
 10
-36.6632108407
 20
2.367598289
 11
-35.6443540412
 21
3.3864550886
  0
LINE
  5
5E1
100
AcDbEntity
  8
0
100
AcDbLine
 62
7
  6
CONTINUOUS
 10
-36.6632108407
 20
1.9724670197
 11
-35.6443540412
 21
2.9913238192
  0
LINE
  5
5E2
100
AcDbEntity
  8
0
100
AcDbLine
 62
7
  6
CONTINUOUS
 10
-36.3329085911
 20
1.907638
 11
-35.6443540412
 21
2.5961925499
  0
LINE
  5
5E3
100
AcDbEntity
  8
0
100
AcDbLine
 62
7
  6
CONTINUOUS
 10
-35.9377773217
 20
1.907638
 11
-35.6443540412
 21
2.2010612806
  0
LINE
  5
5E4
100
AcDbEntity
  8
0
100
AcDbLine
 62
250
  6
CONTINUOUS
 10
-34.0174293058
 20
1.7
 11
-33.2746853093
 21
2.1122857327
  0
LWPOLYLINE
  5
5E5
100
AcDbEntity
  8
0
100
AcDbPolyline
 62
250
  6
CONTINUOUS
 90
17
 70
0
 10
-38.5945326462
 20
4.547108
 10
-38.5328547654
 20
4.5531564903
 10
-38.4735261759
 20
4.5710715761
 10
-38.4188066853
 20
4.6001708773
 10
-38.3699953927
 20
4.6401285431
 10
-38.3306588221
 20
4.6880249629
 10
-38.3013731234
 20
4.7426508799
 10
-38.2832537798
 20
4.80192561
 10
-38.276989017
 20
4.8647
 10
-38.2830365861
 20
4.9263872761
 10
-38.3009489434
 20
4.985724903
 10
-38.3300438126
 20
5.0404527289
 10
-38.3699953927
 20
5.0892714569
 10
-38.4178845176
 20
5.1286140196
 10
-38.4725021148
 20
5.1579041793
 10
-38.531767817
 20
5.1760262829
 10
-38.594532674
 20
5.182292
  0
LWPOLYLINE
  5
5E6
100
AcDbEntity
  8
0
100
AcDbPolyline
 62
250
  6
CONTINUOUS
 90
17
 70
0
 10
-38.5945326462
 20
4.72419
 10
-38.5672449342
 20
4.7268659911
 10
-38.5409966027
 20
4.7347920368
 10
-38.5167874424
 20
4.7476662365
 10
-38.4951922047
 20
4.7653444262
 10
-38.4777888018
 20
4.7865349031
 10
-38.4648321357
 20
4.8107026642
 10
-38.4568157216
 20
4.8369271671
 10
-38.4540440466
 20
4.8647
 10
-38.4567196301
 20
4.8919918687
 10
-38.4646444687
 20
4.9182441986
 10
-38.4775167075
 20
4.9424570466
 10
-38.4951922047
 20
4.9640555738
 10
-38.5163794542
 20
4.9814616278
 10
-38.5405435345
 20
4.9944202676
 10
-38.5667640433
 20
5.0024379027
 10
-38.5945326585
 20
5.00521
  0
LINE
  5
5E7
100
AcDbEntity
  8
0
100
AcDbLine
 62
250
  6
CONTINUOUS
 10
-41.8351160145
 20
2.931124
 11
-38.4734070971
 21
3.225174
  0
LINE
  5
5E8
100
AcDbEntity
  8
0
100
AcDbLine
 62
250
  6
CONTINUOUS
 10
-34.0174293058
 20
2.5245714654
 11
-32.7176273021
 21
2.5245714654
  0
LINE
  5
5E9
100
AcDbEntity
  8
0
100
AcDbLine
 62
250
  6
CONTINUOUS
 10
-50.1123284969
 20
2.70079
 11
-47.213210798
 21
2.70079
  0
LINE
  5
5EA
100
AcDbEntity
  8
0
100
AcDbLine
 62
250
  6
CONTINUOUS
 10
-41.8351160145
 20
3.218216
 11
-42.2296739123
 21
3.218216
  0
LINE
  5
5EB
100
AcDbEntity
  8
0
100
AcDbLine
 62
250
  6
CONTINUOUS
 10
-38.276989017
 20
3.281883
 11
-38.4734070971
 21
3.281883
  0
LINE
  5
5EC
100
AcDbEntity
  8
0
100
AcDbLine
 62
250
  6
CONTINUOUS
 10
-42.2296739123
 20
3.31759
 11
-41.8351160145
 21
3.31759
  0
LINE
  5
5ED
100
AcDbEntity
  8
0
100
AcDbLine
 62
250
  6
CONTINUOUS
 10
-47.213210798
 20
3.323396
 11
-48.3296326474
 21
3.323396
  0
LINE
  5
5EE
100
AcDbEntity
  8
0
100
AcDbLine
 62
250
  6
CONTINUOUS
 10
-48.8114188571
 20
3.323396
 11
-49.6305422872
 21
3.323396
  0
LINE
  5
5EF
100
AcDbEntity
  8
0
100
AcDbLine
 62
250
  6
CONTINUOUS
 10
-38.4734070971
 20
3.399503
 11
-38.276989017
 21
3.399503
  0
LINE
  5
5F0
100
AcDbEntity
  8
0
100
AcDbLine
 62
250
  6
CONTINUOUS
 10
-40.7918489333
 20
3.78807
 11
-41.0074520909
 21
3.78807
  0
LINE
  5
5F1
100
AcDbEntity
  8
0
100
AcDbLine
 62
250
  6
CONTINUOUS
 10
-42.1051728773
 20
3.843073
 11
-42.3226337519
 21
3.843073
  0
LINE
  5
5F2
100
AcDbEntity
  8
0
100
AcDbLine
 62
250
  6
CONTINUOUS
 10
-32.7176273021
 20
4.1737143103
 11
-34.0174293058
 21
4.1737143103
  0
LINE
  5
5F3
100
AcDbEntity
  8
0
100
AcDbLine
 62
250
  6
CONTINUOUS
 10
-42.3220758369
 20
4.416076
 11
-42.1046149623
 21
4.416076
  0
LWPOLYLINE
  5
5F4
100
AcDbEntity
  8
0
100
AcDbPolyline
 62
250
  6
CONTINUOUS
 90
53
 70
0
 10
-49.2209803545
 20
4.1187598859
 10
-49.2078742716
 20
4.1186645203
 10
-49.194739624
 20
4.118365796
 10
-49.1815902937
 20
4.1178447717
 10
-49.1684401632
 20
4.1170825061
 10
-49.1553031145
 20
4.1160600579
 10
-49.14219303
 20
4.1147584859
 10
-49.1291237919
 20
4.1131588488
 10
-49.1161092823
 20
4.1112422052
 10
-49.1031633837
 20
4.1089896139
 10
-49.0902999781
 20
4.1063821336
 10
-49.0775329478
 20
4.103400823
 10
-49.0648761751
 20
4.1000267408
 10
-49.0523435421
 20
4.0962409458
 10
-49.0407453009
 20
4.0923141379
 10
-49.0292759494
 20
4.0880169238
 10
-49.0179436254
 20
4.0833556651
 10
-49.0067564669
 20
4.0783367237
 10
-48.9957226118
 20
4.0729664611
 10
-48.9848501979
 20
4.0672512393
 10
-48.9741473631
 20
4.0611974199
 10
-48.9659434765
 20
4.0562543208
 10
-48.9578663829
 20
4.0511022627
 10
-48.9499352494
 20
4.0457334888
 10
-48.9421692435
 20
4.0401402428
 10
-48.9345875323
 20
4.0343147679
 10
-48.9272092833
 20
4.0282493076
 10
-48.9200536635
 20
4.0219361053
 10
-48.9131398404
 20
4.0153674044
 10
-48.9064869812
 20
4.0085354483
 10
-48.9001598496
 20
4.001493113
 10
-48.8941090256
 20
3.9942009963
 10
-48.8883350435
 20
3.9866761124
 10
-48.8828384376
 20
3.9789354759
 10
-48.8776197421
 20
3.9709961011
 10
-48.8726794914
 20
3.9628750024
 10
-48.8680182195
 20
3.9545891942
 10
-48.8636364608
 20
3.9461556907
 10
-48.8595347495
 20
3.9375915065
 10
-48.855220127
 20
3.9277426683
 10
-48.8512468104
 20
3.9177618517
 10
-48.8475953874
 20
3.907663209
 10
-48.8442464455
 20
3.8974608925
 10
-48.8411805721
 20
3.8871690543
 10
-48.8383783549
 20
3.8768018468
 10
-48.8358203814
 20
3.8663734222
 10
-48.8334872391
 20
3.8558979327
 10
-48.8304681571
 20
3.8406695016
 10
-48.827822731
 20
3.8253812571
 10
-48.825493931
 20
3.8100423913
 10
-48.8234247273
 20
3.794662096
 10
-48.8215580901
 20
3.7792495632
 10
-48.8198369895
 20
3.763813985
  0
LINE
  5
5F5
100
AcDbEntity
  8
RACCORDO
100
AcDbLine
 62
250
  6
CONTINUOUS
 10
-52.8928996083
 20
23.8445398019
 11
-52.8099344478
 21
23.699785055
  0
LINE
  5
5F6
100
AcDbEntity
  8
RACCORDO
100
AcDbLine
 62
250
  6
CONTINUOUS
 10
-52.8099344478
 20
23.699785055
 11
-52.7857228207
 21
23.6571178272
  0
LINE
  5
5F7
100
AcDbEntity
  8
RACCORDO
100
AcDbLine
 62
250
  6
CONTINUOUS
 10
-52.7857228207
 20
23.6571178272
 11
-52.7774807242
 21
23.6424447472
  0
LWPOLYLINE
  5
5F8
100
AcDbEntity
  8
RACCORDO
100
AcDbPolyline
 62
250
  6
CONTINUOUS
 90
7
 70
0
 10
-52.7774807242
 20
23.6424447472
 10
-52.7735692547
 20
23.6353997983
 10
-52.7721058322
 20
23.6327295811
 10
-52.7709762465
 20
23.6306377778
 10
-52.7701835825
 20
23.6291301007
 10
-52.7697300046
 20
23.628210667
 10
-52.7696167515
 20
23.6278819874
  0
LINE
  5
5F9
100
AcDbEntity
  8
0
100
AcDbLine
 62
250
  6
CONTINUOUS
 10
-38.6388632242
 20
14.1395
 11
-38.6388632242
 21
15.6
  0
LINE
  5
5FA
100
AcDbEntity
  8
0
100
AcDbLine
 62
250
  6
CONTINUOUS
 10
-38.4734070971
 20
3.225174
 11
-38.4734070971
 21
4.571041
  0
LINE
  5
5FB
100
AcDbEntity
  8
0
100
AcDbLine
 62
250
  6
CONTINUOUS
 10
-38.276989017
 20
3.399503
 11
-38.276989017
 21
3.281883
  0
LINE
  5
5FC
100
AcDbEntity
  8
0
100
AcDbLine
 62
250
  6
CONTINUOUS
 10
-37.889091664
 20
15.6
 11
-37.889091664
 21
14.1395
  0
LWPOLYLINE
  5
5FD
100
AcDbEntity
  8
0
100
AcDbPolyline
 62
7
  6
CONTINUOUS
 90
4
 70
0
 43
0.3500000087
 10
-37.8712426453
 20
33.6785694916
 10
-37.8712426453
 20
34.5357156219
 10
-37.4426695801
 20
34.9642844238
 10
-36.7998142456
 20
34.9642844238
  0
LINE
  5
5FE
100
AcDbEntity
  8
0
100
AcDbLine
 62
250
  6
CONTINUOUS
 10
-50.112472453
 20
-7.276321
 11
-47.2132177959
 21
-6.345182
  0
LINE
  5
5FF
100
AcDbEntity
  8
0
100
AcDbLine
 62
250
  6
CONTINUOUS
 10
-48.3342342454
 20
-7.285246
 11
-49.209506568
 21
-7.56635
  0
LINE
  5
600
100
AcDbEntity
  8
0
100
AcDbLine
 62
250
  6
CONTINUOUS
 10
-47.2132257935
 20
-6.925211
 11
-47.7833800792
 21
-7.108317
  0
LWPOLYLINE
  5
601
100
AcDbEntity
  8
0
100
AcDbPolyline
 62
250
  6
CONTINUOUS
 90
17
 70
0
 10
-38.5945326462
 20
5.00521
 10
-38.6218203582
 20
5.0025340089
 10
-38.6480686898
 20
4.9946079632
 10
-38.67227785
 20
4.9817337635
 10
-38.6938730877
 20
4.9640555738
 10
-38.7112764907
 20
4.9428650969
 10
-38.7242331568
 20
4.9186973358
 10
-38.7322495708
 20
4.8924728329
 10
-38.7350212459
 20
4.8647
 10
-38.7323456623
 20
4.8374081313
 10
-38.7244208238
 20
4.8111558014
 10
-38.711548585
 20
4.7869429534
 10
-38.6938730877
 20
4.7653444262
 10
-38.6726858382
 20
4.7479383722
 10
-38.648521758
 20
4.7349797324
 10
-38.6223012492
 20
4.7269620973
 10
-38.594532634
 20
4.72419
  0
LWPOLYLINE
  5
602
100
AcDbEntity
  8
0
100
AcDbPolyline
 62
250
  6
CONTINUOUS
 90
17
 70
0
 10
-38.5945326462
 20
5.182292
 10
-38.656210527
 20
5.1762435097
 10
-38.7155391165
 20
5.1583284239
 10
-38.7702586072
 20
5.1292291227
 10
-38.8190698998
 20
5.0892714569
 10
-38.8584064704
 20
5.0413750371
 10
-38.8876921691
 20
4.9867491201
 10
-38.9058115126
 20
4.92747439
 10
-38.9120762754
 20
4.8647
 10
-38.9060287063
 20
4.8030127239
 10
-38.8881163491
 20
4.743675097
 10
-38.8590214798
 20
4.6889472711
 10
-38.8190698998
 20
4.6401285431
 10
-38.7711807749
 20
4.6007859804
 10
-38.7165631777
 20
4.5714958207
 10
-38.6572974754
 20
4.5533737171
 10
-38.5945326185
 20
4.547108
  0
LWPOLYLINE
  5
603
100
AcDbEntity
  8
0
100
AcDbPolyline
 62
250
  6
CONTINUOUS
 90
17
 70
0
 10
-41.9395771022
 20
5.097331
 10
-41.9021767595
 20
5.1009986943
 10
-41.8662009842
 20
5.1118620758
 10
-41.8330200824
 20
5.1295073616
 10
-41.8034218043
 20
5.1537369619
 10
-41.7795688248
 20
5.1827804778
 10
-41.761810511
 20
5.2159046382
 10
-41.7508232713
 20
5.2518477541
 10
-41.7470244333
 20
5.289913
 10
-41.750691569
 20
5.3273190398
 10
-41.7615532959
 20
5.3633002952
 10
-41.7791958943
 20
5.3964862513
 10
-41.8034218043
 20
5.4260890381
 10
-41.8324608967
 20
5.4499456511
 10
-41.8655800122
 20
5.46770667
 10
-41.9015176538
 20
5.4786955834
 10
-41.939577119
 20
5.482495
  0
LWPOLYLINE
  5
604
100
AcDbEntity
  8
0
100
AcDbPolyline
 62
250
  6
CONTINUOUS
 90
17
 70
0
 10
-41.9395771022
 20
5.482495
 10
-41.9769774449
 20
5.4788273057
 10
-42.0129532201
 20
5.4679639242
 10
-42.0461341219
 20
5.4503186384
 10
-42.0757324
 20
5.4260890381
 10
-42.0995853795
 20
5.3970455222
 10
-42.1173436934
 20
5.3639213618
 10
-42.128330933
 20
5.3279782459
 10
-42.132129771
 20
5.289913
 10
-42.1284626353
 20
5.2525069602
 10
-42.1176009084
 20
5.2165257048
 10
-42.09995831
 20
5.1833397487
 10
-42.0757324
 20
5.1537369619
 10
-42.0466933076
 20
5.1298803489
 10
-42.0135741922
 20
5.11211933
 10
-41.9776365506
 20
5.1011304166
 10
-41.9395770853
 20
5.097331
  0
LWPOLYLINE
  5
605
100
AcDbEntity
  8
0
100
AcDbPolyline
 62
250
  6
CONTINUOUS
 90
52
 70
0
 10
-49.2209803545
 20
4.7815268003
 10
-49.2514312236
 20
4.7812181196
 10
-49.281884875
 20
4.7802622694
 10
-49.3123176548
 20
4.7786145378
 10
-49.3427059091
 20
4.776230213
 10
-49.373025984
 20
4.7730645828
 10
-49.4032542253
 20
4.7690729355
 10
-49.4333669793
 20
4.7642105591
 10
-49.4596380933
 20
4.7591991139
 10
-49.4857669197
 20
4.753457933
 10
-49.5117180188
 20
4.7469602571
 10
-49.5374559512
 20
4.7396793271
 10
-49.5629452772
 20
4.7315883841
 10
-49.5881505572
 20
4.7226606687
 10
-49.6130363517
 20
4.7128694219
 10
-49.6375672211
 20
4.7021878845
 10
-49.6617043129
 20
4.6905961892
 10
-49.6854030818
 20
4.6780981526
 10
-49.7086155263
 20
4.6647043821
 10
-49.7312936454
 20
4.6504254852
 10
-49.7533894375
 20
4.6352720693
 10
-49.7748549015
 20
4.6192547416
 10
-49.795642036
 20
4.6023841097
 10
-49.8157028397
 20
4.584670781
 10
-49.8350158606
 20
4.5661132544
 10
-49.8535511073
 20
4.5467734634
 10
-49.8713066839
 20
4.5267028944
 10
-49.8882806945
 20
4.5059530338
 10
-49.904471243
 20
4.484575368
 10
-49.9198764334
 20
4.4626213833
 10
-49.9344943697
 20
4.4401425663
 10
-49.9483231559
 20
4.4171904032
 10
-49.963153519
 20
4.3904669015
 10
-49.9770001711
 20
4.363242664
 10
-49.9899106403
 20
4.3355669076
 10
-50.0019324543
 20
4.3074888493
 10
-50.0131131412
 20
4.2790577062
 10
-50.0235002287
 20
4.2503226951
 10
-50.0331412448
 20
4.2213330331
 10
-50.0435049603
 20
4.1872362349
 10
-50.0529463928
 20
4.1528869186
 10
-50.0614946579
 20
4.1183123618
 10
-50.0691788711
 20
4.0835398425
 10
-50.0760281481
 20
4.0485966381
 10
-50.0820716045
 20
4.0135100265
 10
-50.0883026771
 20
3.9713028391
 10
-50.0935185283
 20
3.9289583793
 10
-50.0978197221
 20
3.8865062021
 10
-50.101306823
 20
3.8439758624
 10
-50.1040803951
 20
3.8013969153
 10
-50.1067224402
 20
3.7481210085
 10
-50.1087490579
 20
3.6948258614
  0
LINE
  5
606
100
AcDbEntity
  8
0
100
AcDbLine
 62
250
  6
CONTINUOUS
 10
-41.0074520909
 20
4.61141
 11
-40.7918489333
 21
4.61141
  0
LINE
  5
607
100
AcDbEntity
  8
0
100
AcDbLine
 62
250
  6
CONTINUOUS
 10
-33.8317433164
 20
4.8952141383
 11
-32.903313311
 21
4.8952141383
  0
LINE
  5
608
100
AcDbEntity
  8
0
100
AcDbLine
 62
250
  6
CONTINUOUS
 10
-41.0998540155
 20
5.067887
 11
-41.4722612875
 21
5.067887
  0
LINE
  5
609
100
AcDbEntity
  8
0
100
AcDbLine
 62
250
  6
CONTINUOUS
 10
-47.213210798
 20
5.171133
 11
-50.1123284969
 21
5.171133
  0
LINE
  5
60A
100
AcDbEntity
  8
0
100
AcDbLine
 62
250
  6
CONTINUOUS
 10
-41.4722612875
 20
5.417947
 11
-41.0998540155
 21
5.417947
  0
LINE
  5
60B
100
AcDbEntity
  8
0
100
AcDbLine
 62
250
  6
CONTINUOUS
 10
-32.7176273021
 20
5.4792857471
 11
-34.0174293058
 21
5.4792857471
  0
LINE
  5
60C
100
AcDbEntity
  8
0
100
AcDbLine
 62
250
  6
CONTINUOUS
 10
-50.1123284969
 20
5.793739
 11
-47.6949970077
 21
5.793739
  0
LINE
  5
60D
100
AcDbEntity
  8
0
100
AcDbLine
 62
250
  6
CONTINUOUS
 10
-36.6632108407
 20
6.092362
 11
-35.6443540412
 21
6.092362
  0
LINE
  5
60E
100
AcDbEntity
  8
0
100
AcDbLine
 62
250
  6
CONTINUOUS
 10
-38.9114843656
 20
4.880593
 11
-41.8075682108
 21
5.149839
  0
LINE
  5
60F
100
AcDbEntity
  8
0
100
AcDbLine
 62
250
  6
CONTINUOUS
 10
-32.7176273021
 20
2.9368571551
 11
-34.0174293058
 21
3.3491429309
  0
LINE
  5
610
100
AcDbEntity
  8
0
100
AcDbLine
 62
250
  6
CONTINUOUS
 10
-48.309448797
 20
8.151456
 11
-49.5583372865
 21
8.581471
  0
LINE
  5
611
100
AcDbEntity
  8
0
100
AcDbLine
 62
250
  6
CONTINUOUS
 10
-47.213210798
 20
7.773964
 11
-47.8276625873
 21
7.990812
  0
LINE
  5
612
100
AcDbEntity
  8
0
100
AcDbLine
 62
250
  6
CONTINUOUS
 10
-50.1123284969
 20
8.227849
 11
-47.213210798
 21
7.179514
  0
LINE
  5
613
100
AcDbEntity
  8
0
100
AcDbLine
 62
250
  6
CONTINUOUS
 10
-37.7337577664
 20
1.624378
 11
-42.7432726768
 21
6.56101
  0
LINE
  5
614
100
AcDbEntity
  8
0
100
AcDbLine
 62
250
  6
CONTINUOUS
 10
-45.1711825822
 20
9.2
 11
-45.7139570129
 21
9.8025714555
  0
LWPOLYLINE
  5
615
100
AcDbEntity
  8
0
100
AcDbPolyline
 62
250
  6
CONTINUOUS
 90
46
 70
0
 10
-36.4673080544
 20
16.0000027662
 10
-36.4650651079
 20
15.9435440968
 10
-36.464606209
 20
15.8869799463
 10
-36.4659270162
 20
15.8303765884
 10
-36.4690231878
 20
15.7738002971
 10
-36.4738903823
 20
15.7173173459
 10
-36.4805242581
 20
15.6609940088
 10
-36.4889204736
 20
15.6048965594
 10
-36.4990746871
 20
15.5490912715
 10
-36.5109825571
 20
15.4936444189
 10
-36.5246370844
 20
15.4386195253
 10
-36.5400206395
 20
15.384069114
 10
-36.5571129355
 20
15.330042958
 10
-36.5758936854
 20
15.2765908306
 10
-36.596342602
 20
15.2237625049
 10
-36.6184393984
 20
15.171607754
 10
-36.6421637875
 20
15.1201763511
 10
-36.6674954824
 20
15.0695180694
 10
-36.694414196
 20
15.0196826821
 10
-36.7228972104
 20
14.9707192722
 10
-36.7529120836
 20
14.9226741634
 10
-36.7844239427
 20
14.8755929893
 10
-36.8173979151
 20
14.8295213833
 10
-36.8517991276
 20
14.7845049792
 10
-36.8875927077
 20
14.7405894104
 10
-36.9247437823
 20
14.6978203106
 10
-36.9632174786
 20
14.6562433132
 10
-37.0029789238
 20
14.615904052
 10
-37.0439919417
 20
14.576845995
 10
-37.0862151428
 20
14.539103948
 10
-37.1296058343
 20
14.5027105514
 10
-37.1741213234
 20
14.4676984456
 10
-37.2197189173
 20
14.4341002711
 10
-37.2663559232
 20
14.4019486681
 10
-37.3139896482
 20
14.371276277
 10
-37.3625773996
 20
14.3421157383
 10
-37.4120764845
 20
14.3144996923
 10
-37.46244086
 20
14.2884589356
 10
-37.5136110823
 20
14.2640168897
 10
-37.5655243576
 20
14.2411951323
 10
-37.618117892
 20
14.2200152412
 10
-37.6713288916
 20
14.2004987941
 10
-37.7250945625
 20
14.1826673687
 10
-37.7793521108
 20
14.1665425427
 10
-37.8340387426
 20
14.1521458939
 10
-37.889091664
 20
14.139499
  0
LWPOLYLINE
  5
616
100
AcDbEntity
  8
0
100
AcDbPolyline
 62
250
  6
CONTINUOUS
 90
83
 70
0
 10
-36.4673048469
 20
11.6148898891
 10
-36.464796737
 20
11.5454013666
 10
-36.4649861482
 20
11.4757810702
 10
-36.4678657614
 20
11.4061523953
 10
-36.4734282573
 20
11.3366387371
 10
-36.4816663167
 20
11.267363491
 10
-36.4925726205
 20
11.1984500522
 10
-36.5061398495
 20
11.1300218162
 10
-36.5223558513
 20
11.0621971761
 10
-36.5411891402
 20
10.9950745172
 10
-36.5626033974
 20
10.9287472227
 10
-36.5865623042
 20
10.8633086759
 10
-36.6130295417
 20
10.79885226
 10
-36.6419687912
 20
10.7354713581
 10
-36.6733437337
 20
10.6732593535
 10
-36.7071139374
 20
10.6123084914
 10
-36.743222518
 20
10.5527064652
 10
-36.7816084783
 20
10.49453983
 10
-36.822210821
 20
10.4378951411
 10
-36.8649685487
 20
10.3828589538
 10
-36.9098206642
 20
10.3295178234
 10
-36.9567061702
 20
10.2779583051
 10
-37.005560624
 20
10.2282634228
 10
-37.0563058025
 20
10.1805020742
 10
-37.1088600372
 20
10.1347396256
 10
-37.1631416595
 20
10.0910414434
 10
-37.2190690009
 20
10.0494728938
 10
-37.276560393
 20
10.0100993432
 10
-37.3355341671
 20
9.9729861578
 10
-37.3959062237
 20
9.9381947365
 10
-37.4575827377
 20
9.9057706077
 10
-37.5204674533
 20
9.8757553325
 10
-37.5844641142
 20
9.8481904718
 10
-37.6494764644
 20
9.8231175866
 10
-37.7154082479
 20
9.800578238
 10
-37.7821632086
 20
9.7806139868
 10
-37.8496438254
 20
9.7632618227
 10
-37.9177475174
 20
9.7485404494
 10
-37.9863704387
 20
9.7364639992
 10
-38.0554087435
 20
9.7270466044
 10
-38.1247585858
 20
9.7203023973
 10
-38.1943161198
 20
9.7162455102
 10
-38.2639774996
 20
9.7148900754
 10
-38.3336388794
 20
9.7162455145
 10
-38.4031964131
 20
9.7203024059
 10
-38.4725462551
 20
9.7270466173
 10
-38.5415845592
 20
9.7364640164
 10
-38.6102074798
 20
9.7485404708
 10
-38.6783111709
 20
9.7632618483
 10
-38.7457917866
 20
9.7806140166
 10
-38.8125467461
 20
9.8005782719
 10
-38.8784785282
 20
9.8231176246
 10
-38.9434908769
 20
9.8481905138
 10
-39.0074875361
 20
9.8757553784
 10
-39.0703722498
 20
9.9057706575
 10
-39.1320487618
 20
9.9381947901
 10
-39.1924208162
 20
9.9729862152
 10
-39.2513945881
 20
10.0100994042
 10
-39.3088859777
 20
10.0494729583
 10
-39.3648133166
 20
10.0910415114
 10
-39.4190949362
 20
10.134739697
 10
-39.471649168
 20
10.1805021488
 10
-39.5223943436
 20
10.2282635005
 10
-39.5712487944
 20
10.2779583859
 10
-39.6181342971
 20
10.329517907
 10
-39.6629864093
 20
10.3828590402
 10
-39.7057441336
 20
10.4378952301
 10
-39.7463464728
 20
10.4945399215
 10
-39.7847324295
 20
10.5527065591
 10
-39.8208410065
 20
10.6123085876
 10
-39.8546112065
 20
10.6732594517
 10
-39.8859861451
 20
10.7354714582
 10
-39.9149253906
 20
10.7988523619
 10
-39.9413926242
 20
10.8633087795
 10
-39.965351527
 20
10.9287473278
 10
-39.9867657801
 20
10.9950746236
 10
-40.0055990649
 20
11.0621972836
 10
-40.0218150624
 20
11.1300219247
 10
-40.0353822872
 20
11.1984501616
 10
-40.0462885868
 20
11.267363601
 10
-40.0545266419
 20
11.3366388476
 10
-40.0600891335
 20
11.4061525062
 10
-40.0629687424
 20
11.4757811813
  0
LWPOLYLINE
  5
617
100
AcDbEntity
  8
0
100
AcDbPolyline
 62
250
  6
CONTINUOUS
 90
9
 70
0
 10
-35.7147764519
 20
11.5098416581
 10
-35.7147811439
 20
11.5229832308
 10
-35.7148537298
 20
11.5361226179
 10
-35.7149942366
 20
11.5492594057
 10
-35.7152026915
 20
11.5623931808
 10
-35.7154791219
 20
11.5755235295
 10
-35.7158235548
 20
11.5886500384
 10
-35.7162360175
 20
11.6017722939
 10
-35.7167165371
 20
11.6148898824
  0
LWPOLYLINE
  5
618
100
AcDbEntity
  8
0
100
AcDbPolyline
 62
250
  6
CONTINUOUS
 90
9
 70
0
 10
-35.7147763344
 20
15.8949516196
 10
-35.7147810262
 20
15.9080931977
 10
-35.7148536119
 20
15.9212325902
 10
-35.7149941186
 20
15.9343693834
 10
-35.7152025736
 20
15.9475031639
 10
-35.715479004
 20
15.960633518
 10
-35.715823437
 20
15.9737600323
 10
-35.7162358998
 20
15.9868822932
 10
-35.7167164196
 20
15.9999998871
  0
LINE
  5
619
100
AcDbEntity
  8
0
100
AcDbLine
 62
250
  6
CONTINUOUS
 10
-36.6632108407
 20
1.907638
 11
-36.6632108407
 21
6.092362
  0
LINE
  5
61A
100
AcDbEntity
  8
0
100
AcDbLine
 62
250
  6
CONTINUOUS
 10
-35.6443540412
 20
6.092362
 11
-35.6443540412
 21
1.907638
  0
LWPOLYLINE
  5
61B
100
AcDbEntity
  8
RACCORDO
100
AcDbPolyline
 62
250
  6
CONTINUOUS
 90
34
 70
0
 10
-27.6269016347
 20
10.872085165
 10
-27.592555429
 20
10.8795172029
 10
-27.5573706581
 20
10.8822838026
 10
-27.521397763
 20
10.8803849641
 10
-27.4845007668
 20
10.8738220801
 10
-27.4469403969
 20
10.8625937578
 10
-27.4093610822
 20
10.8466958193
 10
-27.3718823945
 20
10.8257452372
 10
-27.3345128319
 20
10.8001250388
 10
-27.2977075467
 20
10.7709801277
 10
-27.2617638306
 20
10.7384597921
 10
-27.2264788427
 20
10.7024147438
 10
-27.1915588134
 20
10.6635420213
 10
-27.1571447491
 20
10.6220530256
 10
-27.1232276818
 20
10.5777363558
 10
-27.0893466655
 20
10.5306548474
 10
-27.0555678227
 20
10.4807872176
 10
-27.0220649028
 20
10.4281547493
 10
-26.9886226774
 20
10.3728841263
 10
-26.955473588
 20
10.3150373707
 10
-26.9227503837
 20
10.2545524605
 10
-26.890210135
 20
10.1913700132
 10
-26.8580890058
 20
10.1252577606
 10
-26.8267754397
 20
10.056447971
 10
-26.7964081041
 20
9.985578067
 10
-26.7671898595
 20
9.912000671
 10
-26.7398552265
 20
9.8363631606
 10
-26.7152731443
 20
9.7612450924
 10
-26.6936608202
 20
9.6864526081
 10
-26.6755285328
 20
9.6121795659
 10
-26.6616224103
 20
9.5415870975
 10
-26.6519499148
 20
9.4757289135
 10
-26.6462320891
 20
9.4135513032
 10
-26.6443540412
 20
9.3550542668
  0
LWPOLYLINE
  5
61C
100
AcDbEntity
  8
ASSI
100
AcDbPolyline
 62
250
  6
CONTINUOUS
 90
34
 70
0
 10
-27.6269016347
 20
10.872085165
 10
-27.592555429
 20
10.8795172029
 10
-27.5573706581
 20
10.8822838026
 10
-27.521397763
 20
10.8803849641
 10
-27.4845007668
 20
10.8738220801
 10
-27.4469403969
 20
10.8625937578
 10
-27.4093610822
 20
10.8466958193
 10
-27.3718823945
 20
10.8257452372
 10
-27.3345128319
 20
10.8001250388
 10
-27.2977075467
 20
10.7709801277
 10
-27.2617638306
 20
10.7384597921
 10
-27.2264788427
 20
10.7024147438
 10
-27.1915588134
 20
10.6635420213
 10
-27.1571447491
 20
10.6220530256
 10
-27.1232276818
 20
10.5777363558
 10
-27.0893466655
 20
10.5306548474
 10
-27.0555678227
 20
10.4807872176
 10
-27.0220649028
 20
10.4281547493
 10
-26.9886226774
 20
10.3728841263
 10
-26.955473588
 20
10.3150373707
 10
-26.9227503837
 20
10.2545524605
 10
-26.890210135
 20
10.1913700132
 10
-26.8580890058
 20
10.1252577606
 10
-26.8267754397
 20
10.056447971
 10
-26.7964081041
 20
9.985578067
 10
-26.7671898595
 20
9.912000671
 10
-26.7398552265
 20
9.8363631606
 10
-26.7152731443
 20
9.7612450924
 10
-26.6936608202
 20
9.6864526081
 10
-26.6755285328
 20
9.6121795659
 10
-26.6616224103
 20
9.5415870975
 10
-26.6519499148
 20
9.4757289135
 10
-26.6462320891
 20
9.4135513032
 10
-26.6443540412
 20
9.3550542668
  0
LWPOLYLINE
  5
61D
100
AcDbEntity
  8
RACCORDO
100
AcDbPolyline
 62
7
  6
CONTINUOUS
 90
21
 70
0
 10
-27.4181193733
 20
10.9710078619
 10
-27.2657382023
 20
11.0017695298
 10
-27.1170150728
 20
11.0325113419
 10
-26.9719499849
 20
11.0632332981
 10
-26.8306092557
 20
11.0939076784
 10
-26.6929265681
 20
11.1245622029
 10
-26.5587029702
 20
11.1552800319
 10
-26.4279292717
 20
11.1860522447
 10
-26.3006146629
 20
11.2168877621
 10
-26.1765877631
 20
11.2478965068
 10
-26.0558238308
 20
11.2790672355
 10
-25.9383476074
 20
11.3104111916
 10
-25.8240619374
 20
11.3420720278
 10
-25.7129427081
 20
11.3740260821
 10
-25.605014032
 20
11.4062970164
 10
-25.5002510911
 20
11.43909947
 10
-25.3986080547
 20
11.4723869997
 10
-25.3001307534
 20
11.5062060486
 10
-25.2049318618
 20
11.5409105854
 10
-25.113048938
 20
11.5766185995
 10
-25.0244444238
 20
11.6132121014
  0
LWPOLYLINE
  5
61E
100
AcDbEntity
  8
ASSI
100
AcDbPolyline
 62
7
  6
CONTINUOUS
 90
21
 70
0
 10
-27.4181193733
 20
10.9710078619
 10
-27.2657382023
 20
11.0017695298
 10
-27.1170150728
 20
11.0325113419
 10
-26.9719499849
 20
11.0632332981
 10
-26.8306092557
 20
11.0939076784
 10
-26.6929265681
 20
11.1245622029
 10
-26.5587029702
 20
11.1552800319
 10
-26.4279292717
 20
11.1860522447
 10
-26.3006146629
 20
11.2168877621
 10
-26.1765877631
 20
11.2478965068
 10
-26.0558238308
 20
11.2790672355
 10
-25.9383476074
 20
11.3104111916
 10
-25.8240619374
 20
11.3420720278
 10
-25.7129427081
 20
11.3740260821
 10
-25.605014032
 20
11.4062970164
 10
-25.5002510911
 20
11.43909947
 10
-25.3986080547
 20
11.4723869997
 10
-25.3001307534
 20
11.5062060486
 10
-25.2049318618
 20
11.5409105854
 10
-25.113048938
 20
11.5766185995
 10
-25.0244444238
 20
11.6132121014
  0
LINE
  5
61F
100
AcDbEntity
  8
DRAFT
100
AcDbLine
 62
7
  6
CONTINUOUS
 10
-26.3705006132
 20
9.0239590704
 11
-24.9182073183
 21
9.1510182698
  0
LINE
  5
620
100
AcDbEntity
  8
ASSI
100
AcDbLine
 62
7
  6
CONTINUOUS
 10
-26.3705006132
 20
9.0239590704
 11
-24.9182073183
 21
9.1510182698
  0
LINE
  5
621
100
AcDbEntity
  8
0
100
AcDbLine
 62
250
  6
CONTINUOUS
 10
-47.6949970077
 20
6.866738
 11
-47.213210798
 21
6.866738
  0
LINE
  5
622
100
AcDbEntity
  8
0
100
AcDbLine
 62
250
  6
CONTINUOUS
 10
-32.7176273021
 20
7.9186425295
 11
-34.0174293058
 21
7.9186425295
  0
LINE
  5
623
100
AcDbEntity
  8
0
100
AcDbLine
 62
250
  6
CONTINUOUS
 10
-32.7176273021
 20
8.5714285059
 11
-34.0174293058
 21
8.5714285059
  0
LINE
  5
624
100
AcDbEntity
  8
0
100
AcDbLine
 62
250
  6
CONTINUOUS
 10
-33.2746853093
 20
2.1122857327
 11
-34.0174293058
 21
2.5245714654
  0
LINE
  5
625
100
AcDbEntity
  8
0
100
AcDbLine
 62
250
  6
CONTINUOUS
 10
-45.1711825822
 20
13.7192855706
 11
-45.7139570129
 21
14.3218572147
  0
LINE
  5
626
100
AcDbEntity
  8
0
100
AcDbLine
 62
250
  6
CONTINUOUS
 10
-34.0174293058
 20
4.1737143103
 11
-34.0174293058
 21
4.6890713794
  0
LINE
  5
627
100
AcDbEntity
  8
0
100
AcDbLine
 62
250
  6
CONTINUOUS
 10
-34.0174293058
 20
5.4792857471
 11
-34.0174293058
 21
6.0977143676
  0
LINE
  5
628
100
AcDbEntity
  8
0
100
AcDbLine
 62
250
  6
CONTINUOUS
 10
-34.0174293058
 20
11.7666429882
 11
-34.0174293058
 21
12.5912140236
  0
LINE
  5
629
100
AcDbEntity
  8
0
100
AcDbLine
 62
250
  6
CONTINUOUS
 10
-33.4603713375
 20
5.8915712647
 11
-33.4603713375
 21
5.4792857471
  0
LINE
  5
62A
100
AcDbEntity
  8
0
100
AcDbLine
 62
250
  6
CONTINUOUS
 10
-48.2243717182
 20
-10.59258
 11
-50.1124654552
 21
-11.134148
  0
LINE
  5
62B
100
AcDbEntity
  8
0
100
AcDbLine
 62
250
  6
CONTINUOUS
 10
-49.1250772919
 20
-11.430963
 11
-47.2132177959
 21
-10.882587
  0
LINE
  5
62C
100
AcDbEntity
  8
0
100
AcDbLine
 62
250
  6
CONTINUOUS
 10
-32.7176273021
 20
9.2929285059
 11
-34.0174293058
 21
9.2929285059
  0
LINE
  5
62D
100
AcDbEntity
  8
0
100
AcDbLine
 62
250
  6
CONTINUOUS
 10
-45.7139570129
 20
9.8025714555
 11
-43.8142463921
 21
9.8025714555
  0
LINE
  5
62E
100
AcDbEntity
  8
0
100
AcDbLine
 62
250
  6
CONTINUOUS
 10
-47.213210798
 20
10.292325
 11
-50.1123284969
 21
10.292325
  0
LINE
  5
62F
100
AcDbEntity
  8
0
100
AcDbLine
 62
250
  6
CONTINUOUS
 10
-44.2213272434
 20
10.405142911
 11
-45.7139570129
 21
10.8570713927
  0
LINE
  5
630
100
AcDbEntity
  8
0
100
AcDbLine
 62
250
  6
CONTINUOUS
 10
-45.7139570129
 20
15.6776427853
 11
-45.3068761332
 21
15.2257144294
  0
LINE
  5
631
100
AcDbEntity
  8
0
100
AcDbLine
 62
250
  6
CONTINUOUS
 10
-43.8142463921
 20
15.6776427853
 11
-44.0856336358
 21
15.9789283559
  0
LINE
  5
632
100
AcDbEntity
  8
0
100
AcDbLine
 62
250
  6
CONTINUOUS
 10
-33.0889993198
 20
3.0742857184
 11
-33.0889993198
 21
3.6240000573
  0
LINE
  5
633
100
AcDbEntity
  8
0
100
AcDbLine
 62
250
  6
CONTINUOUS
 10
-33.0889993198
 20
13.1409282765
 11
-33.0889993198
 21
13.6906425295
  0
LINE
  5
634
100
AcDbEntity
  8
0
100
AcDbLine
 62
250
  6
CONTINUOUS
 10
-32.7176273021
 20
4.6890713794
 11
-32.7176273021
 21
4.1737143103
  0
LINE
  5
635
100
AcDbEntity
  8
0
100
AcDbLine
 62
250
  6
CONTINUOUS
 10
-32.7176273021
 20
5.4792857471
 11
-32.7176273021
 21
6.0977143676
  0
LINE
  5
636
100
AcDbEntity
  8
0
100
AcDbLine
 62
250
  6
CONTINUOUS
 10
-32.7176273021
 20
14.2403574705
 11
-32.7176273021
 21
14.7557140236
  0
LWPOLYLINE
  5
637
100
AcDbEntity
  8
RACCORDO
100
AcDbPolyline
 62
7
  6
CONTINUOUS
 90
10
 70
0
 10
-24.9182073183
 20
11.6556173547
 10
-24.9205108727
 20
11.6555449079
 10
-24.9228232289
 20
11.6553526021
 10
-24.9251442618
 20
11.655040437
 10
-24.9274785404
 20
11.6546069059
 10
-24.929821241
 20
11.6540535156
 10
-24.9321581281
 20
11.653384787
 10
-24.9344843509
 20
11.6526022268
 10
-24.9368044624
 20
11.6517043281
 10
-25.0244444238
 20
11.6132121014
  0
LWPOLYLINE
  5
638
100
AcDbEntity
  8
ASSI
100
AcDbPolyline
 62
7
  6
CONTINUOUS
 90
10
 70
0
 10
-24.9182073183
 20
11.6556173547
 10
-24.9205108727
 20
11.6555449079
 10
-24.9228232289
 20
11.6553526021
 10
-24.9251442618
 20
11.655040437
 10
-24.9274785404
 20
11.6546069059
 10
-24.929821241
 20
11.6540535156
 10
-24.9321581281
 20
11.653384787
 10
-24.9344843509
 20
11.6526022268
 10
-24.9368044624
 20
11.6517043281
 10
-25.0244444238
 20
11.6132121014
  0
LWPOLYLINE
  5
639
100
AcDbEntity
  8
RACCORDO
100
AcDbPolyline
 62
7
  6
CONTINUOUS
 90
13
 70
0
 10
-24.9182073183
 20
11.6556173547
 10
-24.8814827768
 20
11.656060208
 10
-24.8457338738
 20
11.6568167826
 10
-24.8115067618
 20
11.6578870782
 10
-24.779323093
 20
11.659293971
 10
-24.7496729763
 20
11.6610145849
 10
-24.7230073279
 20
11.6629802917
 10
-24.6997301294
 20
11.6652019767
 10
-24.6801921071
 20
11.6676687546
 10
-24.664686508
 20
11.6702793412
 10
-24.6534451351
 20
11.6729999749
 10
-24.6466346843
 20
11.6758644173
 10
-24.6443540412
 20
11.6788726684
  0
LWPOLYLINE
  5
63A
100
AcDbEntity
  8
ASSI
100
AcDbPolyline
 62
7
  6
CONTINUOUS
 90
13
 70
0
 10
-24.9182073183
 20
11.6556173547
 10
-24.8814827768
 20
11.656060208
 10
-24.8457338738
 20
11.6568167826
 10
-24.8115067618
 20
11.6578870782
 10
-24.779323093
 20
11.659293971
 10
-24.7496729763
 20
11.6610145849
 10
-24.7230073279
 20
11.6629802917
 10
-24.6997301294
 20
11.6652019767
 10
-24.6801921071
 20
11.6676687546
 10
-24.664686508
 20
11.6702793412
 10
-24.6534451351
 20
11.6729999749
 10
-24.6466346843
 20
11.6758644173
 10
-24.6443540412
 20
11.6788726684
  0
LINE
  5
63B
100
AcDbEntity
  8
0
100
AcDbLine
 62
250
  6
CONTINUOUS
 10
-49.6395755349
 20
10.87477
 11
-47.213210798
 21
10.87477
  0
LINE
  5
63C
100
AcDbEntity
  8
0
100
AcDbLine
 62
250
  6
CONTINUOUS
 10
-43.8142463921
 20
11.1081428691
 11
-44.7641017025
 21
11.1081428691
  0
LINE
  5
63D
100
AcDbEntity
  8
0
100
AcDbLine
 62
250
  6
CONTINUOUS
 10
-32.7176273021
 20
11.1138570118
 11
-34.0174293058
 21
11.1138570118
  0
LINE
  5
63E
100
AcDbEntity
  8
0
100
AcDbLine
 62
250
  6
CONTINUOUS
 10
-40.8112413455
 20
11.61489
 11
-40.0606500352
 21
11.61489
  0
LINE
  5
63F
100
AcDbEntity
  8
0
100
AcDbLine
 62
250
  6
CONTINUOUS
 10
-36.467304853
 20
11.61489
 11
-35.7167135427
 21
11.61489
  0
LINE
  5
640
100
AcDbEntity
  8
0
100
AcDbLine
 62
250
  6
CONTINUOUS
 10
-32.7176273021
 20
12.1789285059
 11
-34.0174293058
 21
12.1789285059
  0
LINE
  5
641
100
AcDbEntity
  8
0
100
AcDbLine
 62
250
  6
CONTINUOUS
 10
-47.8149144714
 20
12.328754
 11
-50.1123284969
 21
12.328754
  0
LINE
  5
642
100
AcDbEntity
  8
0
100
AcDbLine
 62
250
  6
CONTINUOUS
 10
-44.2213272434
 20
12.062214178
 11
-45.7139570129
 21
12.5141427853
  0
LINE
  5
643
100
AcDbEntity
  8
0
100
AcDbLine
 62
250
  6
CONTINUOUS
 10
-48.309448797
 20
14.176491
 11
-49.5581733365
 21
14.606449
  0
LINE
  5
644
100
AcDbEntity
  8
0
100
AcDbLine
 62
250
  6
CONTINUOUS
 10
-47.213210798
 20
13.798889
 11
-47.8276625873
 21
14.015846
  0
LINE
  5
645
100
AcDbEntity
  8
0
100
AcDbLine
 62
250
  6
CONTINUOUS
 10
-50.1123284969
 20
14.252884
 11
-47.213210798
 21
13.20444
  0
LINE
  5
646
100
AcDbEntity
  8
0
100
AcDbLine
 62
250
  6
CONTINUOUS
 10
-45.3068761332
 20
15.2257144294
 11
-44.7641017025
 21
14.9244283559
  0
LINE
  5
647
100
AcDbEntity
  8
0
100
AcDbLine
 62
250
  6
CONTINUOUS
 10
-32.903313311
 20
4.8952141383
 11
-32.7176273021
 21
4.6890713794
  0
LINE
  5
648
100
AcDbEntity
  8
RACCORDO
100
AcDbLine
 62
7
  6
CONTINUOUS
 10
-55.1471533451
 20
-23.1242659097
 11
-56.0193540412
 21
-23.6278312164
  0
LINE
  5
649
100
AcDbEntity
  8
RACCORDO
100
AcDbLine
 62
250
  6
CONTINUOUS
 10
-54.8985333461
 20
-23.2685605037
 11
-55.895808474
 21
-23.8443375673
  0
LINE
  5
64A
100
AcDbEntity
  8
0
100
AcDbLine
 62
250
  6
CONTINUOUS
 10
-48.116176683
 20
-14.778839
 11
-50.1124654552
 21
-15.419971
  0
LINE
  5
64B
100
AcDbEntity
  8
0
100
AcDbLine
 62
250
  6
CONTINUOUS
 10
-50.1124654552
 20
-16.0
 11
-47.213210798
 21
-15.068868
  0
LINE
  5
64C
100
AcDbEntity
  8
0
100
AcDbLine
 62
250
  6
CONTINUOUS
 10
-43.8142463921
 20
12.7652142618
 11
-44.7641017025
 21
12.7652142618
  0
LINE
  5
64D
100
AcDbEntity
  8
0
100
AcDbLine
 62
250
  6
CONTINUOUS
 10
-50.1123284969
 20
12.911198
 11
-47.213210798
 21
12.911198
  0
LINE
  5
64E
100
AcDbEntity
  8
0
100
AcDbLine
 62
250
  6
CONTINUOUS
 10
-34.0174293058
 20
14.2403574705
 11
-32.7176273021
 21
14.2403574705
  0
LINE
  5
64F
100
AcDbEntity
  8
0
100
AcDbLine
 62
250
  6
CONTINUOUS
 10
-45.7139570129
 20
14.3218572147
 11
-43.8142463921
 21
14.3218572147
  0
LWPOLYLINE
  5
650
100
AcDbEntity
  8
RACCORDO
100
AcDbPolyline
 62
7
  6
CONTINUOUS
 90
13
 70
0
 10
-24.9182073183
 20
12.5443826453
 10
-24.8814827768
 20
12.543939792
 10
-24.8457338738
 20
12.5431832174
 10
-24.8115067618
 20
12.5421129218
 10
-24.779323093
 20
12.540706029
 10
-24.7496729763
 20
12.5389854151
 10
-24.7230073279
 20
12.5370197083
 10
-24.6997301294
 20
12.5347980233
 10
-24.6801921071
 20
12.5323312454
 10
-24.664686508
 20
12.5297206588
 10
-24.6534451351
 20
12.5270000251
 10
-24.6466346843
 20
12.5241355827
 10
-24.6443540412
 20
12.5211273316
  0
LWPOLYLINE
  5
651
100
AcDbEntity
  8
ASSI
100
AcDbPolyline
 62
7
  6
CONTINUOUS
 90
13
 70
0
 10
-24.9182073183
 20
12.5443826453
 10
-24.8814827768
 20
12.543939792
 10
-24.8457338738
 20
12.5431832174
 10
-24.8115067618
 20
12.5421129218
 10
-24.779323093
 20
12.540706029
 10
-24.7496729763
 20
12.5389854151
 10
-24.7230073279
 20
12.5370197083
 10
-24.6997301294
 20
12.5347980233
 10
-24.6801921071
 20
12.5323312454
 10
-24.664686508
 20
12.5297206588
 10
-24.6534451351
 20
12.5270000251
 10
-24.6466346843
 20
12.5241355827
 10
-24.6443540412
 20
12.5211273316
  0
LWPOLYLINE
  5
652
100
AcDbEntity
  8
RACCORDO
100
AcDbPolyline
 62
7
  6
CONTINUOUS
 90
9
 70
0
 10
-24.9182073183
 20
12.5443826453
 10
-24.9205108727
 20
12.5444550921
 10
-24.9228232289
 20
12.5446473979
 10
-24.9251442618
 20
12.544959563
 10
-24.9274785404
 20
12.5453930941
 10
-24.929821241
 20
12.5459464844
 10
-24.9321581281
 20
12.546615213
 10
-24.9344843509
 20
12.5473977732
 10
-24.9368044624
 20
12.5482956719
  0
LWPOLYLINE
  5
653
100
AcDbEntity
  8
ASSI
100
AcDbPolyline
 62
7
  6
CONTINUOUS
 90
9
 70
0
 10
-24.9182073183
 20
12.5443826453
 10
-24.9205108727
 20
12.5444550921
 10
-24.9228232289
 20
12.5446473979
 10
-24.9251442618
 20
12.544959563
 10
-24.9274785404
 20
12.5453930941
 10
-24.929821241
 20
12.5459464844
 10
-24.9321581281
 20
12.546615213
 10
-24.9344843509
 20
12.5473977732
 10
-24.9368044624
 20
12.5482956719
  0
LINE
  5
654
100
AcDbEntity
  8
RACCORDO
100
AcDbLine
 62
7
  6
CONTINUOUS
 10
-56.0193540412
 20
23.6278312164
 11
-55.1471533451
 21
23.1242659097
  0
LINE
  5
655
100
AcDbEntity
  8
RACCORDO
100
AcDbLine
 62
250
  6
CONTINUOUS
 10
-55.895808474
 20
23.8443375673
 11
-54.8985333461
 21
23.2685605037
  0
LINE
  5
656
100
AcDbEntity
  8
RACCORDO
100
AcDbLine
 62
250
  6
CONTINUOUS
 10
-27.6256249899
 20
18.4906373141
 11
-27.6269016347
 21
18.9048179208
  0
LINE
  5
657
100
AcDbEntity
  8
ASSI
100
AcDbLine
 62
250
  6
CONTINUOUS
 10
-27.6256249899
 20
18.4906373141
 11
-27.6269016347
 21
18.9048179208
  0
LINE
  5
658
100
AcDbEntity
  8
RACCORDO
100
AcDbLine
 62
250
  6
CONTINUOUS
 10
-27.6255042123
 20
-18.1336021637
 11
-27.6269016347
 21
-17.49081975
  0
LINE
  5
659
100
AcDbEntity
  8
ASSI
100
AcDbLine
 62
250
  6
CONTINUOUS
 10
-27.6255042123
 20
-18.1336021637
 11
-27.6269016347
 21
-17.49081975
  0
LINE
  5
65A
100
AcDbEntity
  8
RACCORDO
100
AcDbLine
 62
250
  6
CONTINUOUS
 10
-27.6269016347
 20
-19.3488485621
 11
-27.6269016347
 21
-18.9048179208
  0
LINE
  5
65B
100
AcDbEntity
  8
ASSI
100
AcDbLine
 62
250
  6
CONTINUOUS
 10
-27.6269016347
 20
-19.3488485621
 11
-27.6269016347
 21
-18.9048179208
  0
LINE
  5
65C
100
AcDbEntity
  8
RACCORDO
100
AcDbLine
 62
250
  6
CONTINUOUS
 10
-27.6269016347
 20
-17.49081975
 11
-27.6269016347
 21
10.8720557861
  0
LINE
  5
65D
100
AcDbEntity
  8
ASSI
100
AcDbLine
 62
250
  6
CONTINUOUS
 10
-27.6269016347
 20
-17.49081975
 11
-27.6269016347
 21
10.8720557861
  0
LINE
  5
65E
100
AcDbEntity
  8
RACCORDO
100
AcDbLine
 62
250
  6
CONTINUOUS
 10
-27.6269016347
 20
13.3279196136
 11
-27.6269016347
 21
17.49081975
  0
LINE
  5
65F
100
AcDbEntity
  8
ASSI
100
AcDbLine
 62
250
  6
CONTINUOUS
 10
-27.6269016347
 20
13.3279196136
 11
-27.6269016347
 21
17.49081975
  0
LINE
  5
660
100
AcDbEntity
  8
RACCORDO
100
AcDbLine
 62
250
  6
CONTINUOUS
 10
-27.6269016347
 20
18.9048179208
 11
-27.6269016347
 21
19.3488485621
  0
LINE
  5
661
100
AcDbEntity
  8
ASSI
100
AcDbLine
 62
250
  6
CONTINUOUS
 10
-27.6269016347
 20
18.9048179208
 11
-27.6269016347
 21
19.3488485621
  0
LINE
  5
662
100
AcDbEntity
  8
RACCORDO
100
AcDbLine
 62
250
  6
CONTINUOUS
 10
-27.6256249713
 20
18.0083929954
 11
-27.6256249899
 21
18.4906373141
  0
LINE
  5
663
100
AcDbEntity
  8
ASSI
100
AcDbLine
 62
250
  6
CONTINUOUS
 10
-27.6256249713
 20
18.0083929954
 11
-27.6256249899
 21
18.4906373141
  0
LINE
  5
664
100
AcDbEntity
  8
RACCORDO
100
AcDbLine
 62
250
  6
CONTINUOUS
 10
-27.6261090635
 20
-18.7081301561
 11
-27.6255042123
 21
-18.1336021637
  0
LINE
  5
665
100
AcDbEntity
  8
ASSI
100
AcDbLine
 62
250
  6
CONTINUOUS
 10
-27.6261090635
 20
-18.7081301561
 11
-27.6255042123
 21
-18.1336021637
  0
LINE
  5
666
100
AcDbEntity
  8
RACCORDO
100
AcDbLine
 62
250
  6
CONTINUOUS
 10
-27.6269016347
 20
17.49081975
 11
-27.6256249713
 21
18.0083929954
  0
LINE
  5
667
100
AcDbEntity
  8
ASSI
100
AcDbLine
 62
250
  6
CONTINUOUS
 10
-27.6269016347
 20
17.49081975
 11
-27.6256249713
 21
18.0083929954
  0
LINE
  5
668
100
AcDbEntity
  8
RACCORDO
100
AcDbLine
 62
250
  6
CONTINUOUS
 10
-27.6269016347
 20
-18.9048179208
 11
-27.6261090635
 21
-18.7081301561
  0
LINE
  5
669
100
AcDbEntity
  8
ASSI
100
AcDbLine
 62
250
  6
CONTINUOUS
 10
-27.6269016347
 20
-18.9048179208
 11
-27.6261090635
 21
-18.7081301561
  0
LWPOLYLINE
  5
66A
100
AcDbEntity
  8
RACCORDO
100
AcDbPolyline
 62
250
  6
CONTINUOUS
 90
13
 70
0
 10
-26.6443540412
 20
9.3550542669
 10
-26.6420642956
 20
9.3851435544
 10
-26.6352300528
 20
9.4147733977
 10
-26.6239556971
 20
9.4434915114
 10
-26.6084133916
 20
9.4708595306
 10
-26.5888404363
 20
9.4964597236
 10
-26.5655356338
 20
9.5199013624
 10
-26.5388547615
 20
9.5408266487
 10
-26.5092051115
 20
9.5589162107
 10
-26.4770392401
 20
9.5738939808
 10
-26.4428481254
 20
9.5855313653
 10
-26.4071536855
 20
9.593650747
 10
-26.370500764
 20
9.5981282173
  0
LWPOLYLINE
  5
66B
100
AcDbEntity
  8
ASSI
100
AcDbPolyline
 62
250
  6
CONTINUOUS
 90
13
 70
0
 10
-26.6443540412
 20
9.3550542669
 10
-26.6420642956
 20
9.3851435544
 10
-26.6352300528
 20
9.4147733977
 10
-26.6239556971
 20
9.4434915114
 10
-26.6084133916
 20
9.4708595306
 10
-26.5888404363
 20
9.4964597236
 10
-26.5655356338
 20
9.5199013624
 10
-26.5388547615
 20
9.5408266487
 10
-26.5092051115
 20
9.5589162107
 10
-26.4770392401
 20
9.5738939808
 10
-26.4428481254
 20
9.5855313653
 10
-26.4071536855
 20
9.593650747
 10
-26.370500764
 20
9.5981282173
  0
LINE
  5
66C
100
AcDbEntity
  8
0
100
AcDbLine
 62
250
  6
CONTINUOUS
 10
-44.7641017025
 20
14.9244283559
 11
-44.0856336358
 21
14.9244283559
  0
LINE
  5
66D
100
AcDbEntity
  8
0
100
AcDbLine
 62
250
  6
CONTINUOUS
 10
-33.4603713375
 20
15.580285059
 11
-32.7176273021
 21
15.580285059
  0
LINE
  5
66E
100
AcDbEntity
  8
0
100
AcDbLine
 62
250
  6
CONTINUOUS
 10
-38.6388632242
 20
15.6
 11
-37.889091664
 21
15.6
  0
LINE
  5
66F
100
AcDbEntity
  8
0
100
AcDbLine
 62
250
  6
CONTINUOUS
 10
-44.0856336358
 20
15.9789283559
 11
-44.6284080948
 21
15.9789283559
  0
LINE
  5
670
100
AcDbEntity
  8
0
100
AcDbLine
 62
250
  6
CONTINUOUS
 10
-40.8112413455
 20
16.0
 11
-40.0606500352
 21
16.0
  0
LINE
  5
671
100
AcDbEntity
  8
0
100
AcDbLine
 62
250
  6
CONTINUOUS
 10
-36.467304853
 20
16.0
 11
-35.7167135427
 21
16.0
  0
LINE
  5
672
100
AcDbEntity
  8
DRAFT
100
AcDbLine
 62
7
  6
CONTINUOUS
 10
-26.3705006826
 20
15.1760409357
 11
-24.9182073183
 21
15.0489817302
  0
LINE
  5
673
100
AcDbEntity
  8
ASSI
100
AcDbLine
 62
7
  6
CONTINUOUS
 10
-26.3705006826
 20
15.1760409357
 11
-24.9182073183
 21
15.0489817302
  0
LWPOLYLINE
  5
674
100
AcDbEntity
  8
RACCORDO
100
AcDbPolyline
 62
7
  6
CONTINUOUS
 90
10
 70
0
 10
-27.4192472133
 20
13.2292173658
 10
-27.4453749066
 20
13.235201649
 10
-27.4707828112
 20
13.2424786526
 10
-27.4954709273
 20
13.2510483766
 10
-27.5194978633
 20
13.2609735704
 10
-27.5428050107
 20
13.2721914845
 10
-27.5652165441
 20
13.2845138707
 10
-27.586673855
 20
13.2978779796
 10
-27.6072355519
 20
13.3123465605
 10
-27.6269016347
 20
13.3279196136
  0
LWPOLYLINE
  5
675
100
AcDbEntity
  8
ASSI
100
AcDbPolyline
 62
7
  6
CONTINUOUS
 90
10
 70
0
 10
-27.4192472133
 20
13.2292173658
 10
-27.4453749066
 20
13.235201649
 10
-27.4707828112
 20
13.2424786526
 10
-27.4954709273
 20
13.2510483766
 10
-27.5194978633
 20
13.2609735704
 10
-27.5428050107
 20
13.2721914845
 10
-27.5652165441
 20
13.2845138707
 10
-27.586673855
 20
13.2978779796
 10
-27.6072355519
 20
13.3123465605
 10
-27.6269016347
 20
13.3279196136
  0
LWPOLYLINE
  5
676
100
AcDbEntity
  8
0
100
AcDbPolyline
 62
250
  6
CONTINUOUS
 90
46
 70
0
 10
-38.6388629018
 20
14.1394958193
 10
-38.6939158812
 20
14.1521426943
 10
-38.7486025719
 20
14.1665393247
 10
-38.80286018
 20
14.1826641327
 10
-38.8566259117
 20
14.2004955408
 10
-38.9098369729
 20
14.2200119711
 10
-38.96243057
 20
14.2411918462
 10
-39.0143439091
 20
14.2640135882
 10
-39.0655141962
 20
14.2884556195
 10
-39.1158786375
 20
14.3144963625
 10
-39.1653777893
 20
14.3421123957
 10
-39.2139656087
 20
14.3712729225
 10
-39.2615994029
 20
14.4019453026
 10
-39.3082364789
 20
14.4340968957
 10
-39.353834144
 20
14.4676950616
 10
-39.3983497055
 20
14.5027071598
 10
-39.4417404704
 20
14.53910055
 10
-39.4839637461
 20
14.576842592
 10
-39.5249768395
 20
14.6159006454
 10
-39.5647383614
 20
14.6562399043
 10
-39.6032121354
 20
14.6978169009
 10
-39.6403632888
 20
14.7405860014
 10
-39.6761569485
 20
14.7845015726
 10
-39.7105582418
 20
14.8295179808
 10
-39.7435322957
 20
14.8755895925
 10
-39.7750442374
 20
14.9226707742
 10
-39.805059194
 20
14.9707158925
 10
-39.8335422926
 20
15.0196793137
 10
-39.8604610912
 20
15.0695147145
 10
-39.885792872
 20
15.1201730116
 10
-39.9095173477
 20
15.171604432
 10
-39.9316142313
 20
15.2237592027
 10
-39.9520632357
 20
15.2765875504
 10
-39.9708440739
 20
15.3300397021
 10
-39.9879364589
 20
15.3840658846
 10
-40.0033201034
 20
15.438616325
 10
-40.0169747205
 20
15.4936412501
 10
-40.0288826806
 20
15.5490881367
 10
-40.0390369845
 20
15.6048934611
 10
-40.0474332905
 20
15.6609909497
 10
-40.0540672568
 20
15.7173143288
 10
-40.0589345419
 20
15.7737973245
 10
-40.062030804
 20
15.8303736632
 10
-40.0633517013
 20
15.8869770712
 10
-40.0628928923
 20
15.9435412747
 10
-40.0606500352
 20
16.0
  0
LWPOLYLINE
  5
677
100
AcDbEntity
  8
RACCORDO
100
AcDbPolyline
 62
250
  6
CONTINUOUS
 90
31
 70
0
 10
-27.4181193733
 20
10.9710078619
 10
-27.3717099119
 20
10.9570306664
 10
-27.3258546018
 20
10.9397843097
 10
-27.2805534428
 20
10.9193060168
 10
-27.2357487227
 20
10.8954187383
 10
-27.1914981538
 20
10.868391691
 10
-27.1479748731
 20
10.8389285867
 10
-27.1053856171
 20
10.8072985742
 10
-27.0635236494
 20
10.7733271168
 10
-27.0219418971
 20
10.7370502575
 10
-26.9805266776
 20
10.6985882164
 10
-26.9393916736
 20
10.6579529618
 10
-26.8984308605
 20
10.615034728
 10
-26.8575342919
 20
10.5699239371
 10
-26.8168119142
 20
10.5227166476
 10
-26.7764875421
 20
10.473334692
 10
-26.7365426245
 20
10.4220606141
 10
-26.6969957125
 20
10.368861072
 10
-26.6581262731
 20
10.3132336791
 10
-26.6196040614
 20
10.2550777042
 10
-26.5817593222
 20
10.1949020875
 10
-26.5458622575
 20
10.133149386
 10
-26.5117417721
 20
10.0695674275
 10
-26.4795689611
 20
10.0048916974
 10
-26.4511273118
 20
9.9409016886
 10
-26.4267112468
 20
9.8774150069
 10
-26.4060263436
 20
9.8148686743
 10
-26.3899728217
 20
9.7555905091
 10
-26.3788507544
 20
9.7001691626
 10
-26.3723600685
 20
9.647722704
 10
-26.370500764
 20
9.5981282166
  0
LWPOLYLINE
  5
678
100
AcDbEntity
  8
ASSI
100
AcDbPolyline
 62
250
  6
CONTINUOUS
 90
31
 70
0
 10
-27.4181193733
 20
10.9710078619
 10
-27.3717099119
 20
10.9570306664
 10
-27.3258546018
 20
10.9397843097
 10
-27.2805534428
 20
10.9193060168
 10
-27.2357487227
 20
10.8954187383
 10
-27.1914981538
 20
10.868391691
 10
-27.1479748731
 20
10.8389285867
 10
-27.1053856171
 20
10.8072985742
 10
-27.0635236494
 20
10.7733271168
 10
-27.0219418971
 20
10.7370502575
 10
-26.9805266776
 20
10.6985882164
 10
-26.9393916736
 20
10.6579529618
 10
-26.8984308605
 20
10.615034728
 10
-26.8575342919
 20
10.5699239371
 10
-26.8168119142
 20
10.5227166476
 10
-26.7764875421
 20
10.473334692
 10
-26.7365426245
 20
10.4220606141
 10
-26.6969957125
 20
10.368861072
 10
-26.6581262731
 20
10.3132336791
 10
-26.6196040614
 20
10.2550777042
 10
-26.5817593222
 20
10.1949020875
 10
-26.5458622575
 20
10.133149386
 10
-26.5117417721
 20
10.0695674275
 10
-26.4795689611
 20
10.0048916974
 10
-26.4511273118
 20
9.9409016886
 10
-26.4267112468
 20
9.8774150069
 10
-26.4060263436
 20
9.8148686743
 10
-26.3899728217
 20
9.7555905091
 10
-26.3788507544
 20
9.7001691626
 10
-26.3723600685
 20
9.647722704
 10
-26.370500764
 20
9.5981282166
  0
LINE
  5
679
100
AcDbEntity
  8
0
100
AcDbLine
 62
250
  6
CONTINUOUS
 10
-32.7176273021
 20
13.0035002294
 11
-34.0174293058
 21
13.415785059
  0
LWPOLYLINE
  5
67A
100
AcDbEntity
  8
RACCORDO
100
AcDbPolyline
 62
250
  6
CONTINUOUS
 90
13
 70
0
 10
-26.6443540412
 20
14.8449457331
 10
-26.6420643965
 20
14.8148571063
 10
-26.6352304122
 20
14.785227761
 10
-26.6239564042
 20
14.7565099682
 10
-26.6084144623
 20
14.7291420852
 10
-26.588841823
 20
14.7035418633
 10
-26.5655372489
 20
14.680100072
 10
-26.5388564676
 20
14.6591745338
 10
-26.5092067425
 20
14.6410846625
 10
-26.4770406557
 20
14.6261065876
 10
-26.4428491997
 20
14.6144689389
 10
-26.4071542832
 20
14.6063493573
 10
-26.370500764
 20
14.6018717828
  0
LWPOLYLINE
  5
67B
100
AcDbEntity
  8
ASSI
100
AcDbPolyline
 62
250
  6
CONTINUOUS
 90
13
 70
0
 10
-26.6443540412
 20
14.8449457331
 10
-26.6420643965
 20
14.8148571063
 10
-26.6352304122
 20
14.785227761
 10
-26.6239564042
 20
14.7565099682
 10
-26.6084144623
 20
14.7291420852
 10
-26.588841823
 20
14.7035418633
 10
-26.5655372489
 20
14.680100072
 10
-26.5388564676
 20
14.6591745338
 10
-26.5092067425
 20
14.6410846625
 10
-26.4770406557
 20
14.6261065876
 10
-26.4428491997
 20
14.6144689389
 10
-26.4071542832
 20
14.6063493573
 10
-26.370500764
 20
14.6018717828
  0
LINE
  5
67C
100
AcDbEntity
  8
RACCORDO
100
AcDbLine
 62
250
  6
CONTINUOUS
 10
-26.6497111947
 20
18.2709133218
 11
-26.6443540412
 21
18.1978188354
  0
LINE
  5
67D
100
AcDbEntity
  8
ASSI
100
AcDbLine
 62
250
  6
CONTINUOUS
 10
-26.6497111947
 20
18.2709133218
 11
-26.6443540412
 21
18.1978188354
  0
LINE
  5
67E
100
AcDbEntity
  8
RACCORDO
100
AcDbLine
 62
7
  6
CONTINUOUS
 10
-26.6443540412
 20
-18.3490008669
 11
-26.6443540412
 21
9.3550542668
  0
LINE
  5
67F
100
AcDbEntity
  8
ASSI
100
AcDbLine
 62
7
  6
CONTINUOUS
 10
-26.6443540412
 20
-18.3490008669
 11
-26.6443540412
 21
9.3550542668
  0
LINE
  5
680
100
AcDbEntity
  8
RACCORDO
100
AcDbLine
 62
7
  6
CONTINUOUS
 10
-26.6443540412
 20
14.8449457332
 11
-26.6443540412
 21
18.3490008669
  0
LINE
  5
681
100
AcDbEntity
  8
ASSI
100
AcDbLine
 62
7
  6
CONTINUOUS
 10
-26.6443540412
 20
14.8449457332
 11
-26.6443540412
 21
18.3490008669
  0
LINE
  5
682
100
AcDbEntity
  8
RACCORDO
100
AcDbLine
 62
250
  6
CONTINUOUS
 10
-26.3705006934
 20
15.1760409283
 11
-26.370500764
 21
14.6018717834
  0
LINE
  5
683
100
AcDbEntity
  8
ASSI
100
AcDbLine
 62
250
  6
CONTINUOUS
 10
-26.3705006934
 20
15.1760409283
 11
-26.370500764
 21
14.6018717834
  0
LINE
  5
684
100
AcDbEntity
  8
RACCORDO
100
AcDbLine
 62
250
  6
CONTINUOUS
 10
-26.3705000049
 20
-9.0239591238
 11
-26.3704997215
 21
-15.1760408514
  0
LINE
  5
685
100
AcDbEntity
  8
ASSI
100
AcDbLine
 62
250
  6
CONTINUOUS
 10
-26.3705000049
 20
-9.0239591238
 11
-26.3704997215
 21
-15.1760408514
  0
LINE
  5
686
100
AcDbEntity
  8
RACCORDO
100
AcDbLine
 62
250
  6
CONTINUOUS
 10
-26.370500764
 20
9.5981282166
 11
-26.3705006212
 21
9.0239590794
  0
LINE
  5
687
100
AcDbEntity
  8
ASSI
100
AcDbLine
 62
250
  6
CONTINUOUS
 10
-26.370500764
 20
9.5981282166
 11
-26.3705006212
 21
9.0239590794
  0
LINE
  5
688
100
AcDbEntity
  8
RACCORDO
100
AcDbLine
 62
250
  6
CONTINUOUS
 10
-24.9391183192
 20
12.5493089089
 11
-24.9391183192
 21
11.6506910911
  0
LINE
  5
689
100
AcDbEntity
  8
ASSI
100
AcDbLine
 62
250
  6
CONTINUOUS
 10
-24.9391183192
 20
12.5493089089
 11
-24.9391183192
 21
11.6506910911
  0
LWPOLYLINE
  5
68A
100
AcDbEntity
  8
RACCORDO
100
AcDbPolyline
 62
250
  6
CONTINUOUS
 90
37
 70
0
 10
-26.370500764
 20
14.6018717834
 10
-26.3709795706
 20
14.5717318666
 10
-26.3735570404
 20
14.5395332209
 10
-26.3782331735
 20
14.5051752072
 10
-26.3848877476
 20
14.4683741587
 10
-26.3936409849
 20
14.4291973354
 10
-26.4048535527
 20
14.3881035723
 10
-26.4186162056
 20
14.3450272404
 10
-26.4348381889
 20
14.2998923393
 10
-26.4536079055
 20
14.2532172661
 10
-26.4749986962
 20
14.2049832972
 10
-26.4989372201
 20
14.1551493718
 10
-26.5252918577
 20
14.104277744
 10
-26.5542334417
 20
14.0522401502
 10
-26.5855911393
 20
13.9991780062
 10
-26.6187208325
 20
13.9461588651
 10
-26.6538205995
 20
13.893182348
 10
-26.6906923621
 20
13.8403830247
 10
-26.7280977678
 20
13.7891594684
 10
-26.7658497442
 20
13.740015464
 10
-26.8041353637
 20
13.6926975808
 10
-26.8422774914
 20
13.647536778
 10
-26.8800622418
 20
13.6048405452
 10
-26.9177035004
 20
13.5645113315
 10
-26.9551657889
 20
13.5262602984
 10
-26.992325128
 20
13.4901627787
 10
-27.029305497
 20
13.456281597
 10
-27.0664433552
 20
13.424279908
 10
-27.1037074419
 20
13.3940923445
 10
-27.1411290179
 20
13.3658719521
 10
-27.1791383242
 20
13.3395917305
 10
-27.2179292314
 20
13.3150835458
 10
-27.2573078689
 20
13.2925783262
 10
-27.2971228672
 20
13.2726487041
 10
-27.3373237698
 20
13.2555093737
 10
-27.3779610331
 20
13.2410088984
 10
-27.4190346571
 20
13.2291731565
  0
LWPOLYLINE
  5
68B
100
AcDbEntity
  8
ASSI
100
AcDbPolyline
 62
250
  6
CONTINUOUS
 90
37
 70
0
 10
-26.370500764
 20
14.6018717834
 10
-26.3709795706
 20
14.5717318666
 10
-26.3735570404
 20
14.5395332209
 10
-26.3782331735
 20
14.5051752072
 10
-26.3848877476
 20
14.4683741587
 10
-26.3936409849
 20
14.4291973354
 10
-26.4048535527
 20
14.3881035723
 10
-26.4186162056
 20
14.3450272404
 10
-26.4348381889
 20
14.2998923393
 10
-26.4536079055
 20
14.2532172661
 10
-26.4749986962
 20
14.2049832972
 10
-26.4989372201
 20
14.1551493718
 10
-26.5252918577
 20
14.104277744
 10
-26.5542334417
 20
14.0522401502
 10
-26.5855911393
 20
13.9991780062
 10
-26.6187208325
 20
13.9461588651
 10
-26.6538205995
 20
13.893182348
 10
-26.6906923621
 20
13.8403830247
 10
-26.7280977678
 20
13.7891594684
 10
-26.7658497442
 20
13.740015464
 10
-26.8041353637
 20
13.6926975808
 10
-26.8422774914
 20
13.647536778
 10
-26.8800622418
 20
13.6048405452
 10
-26.9177035004
 20
13.5645113315
 10
-26.9551657889
 20
13.5262602984
 10
-26.992325128
 20
13.4901627787
 10
-27.029305497
 20
13.456281597
 10
-27.0664433552
 20
13.424279908
 10
-27.1037074419
 20
13.3940923445
 10
-27.1411290179
 20
13.3658719521
 10
-27.1791383242
 20
13.3395917305
 10
-27.2179292314
 20
13.3150835458
 10
-27.2573078689
 20
13.2925783262
 10
-27.2971228672
 20
13.2726487041
 10
-27.3373237698
 20
13.2555093737
 10
-27.3779610331
 20
13.2410088984
 10
-27.4190346571
 20
13.2291731565
  0
LWPOLYLINE
  5
68C
100
AcDbEntity
  8
RACCORDO
100
AcDbPolyline
 62
250
  6
CONTINUOUS
 90
43
 70
0
 10
-26.6443540412
 20
14.8449457332
 10
-26.6449667746
 20
14.8120755869
 10
-26.6468995965
 20
14.7767103108
 10
-26.6502969453
 20
14.7388499051
 10
-26.6553296944
 20
14.6983903562
 10
-26.6621361387
 20
14.6554356777
 10
-26.6707571059
 20
14.6102979094
 10
-26.6812747713
 20
14.5629274161
 10
-26.6937831104
 20
14.5133738331
 10
-26.7082312942
 20
14.4620981059
 10
-26.7246387029
 20
14.4090546302
 10
-26.7430432702
 20
14.3542890102
 10
-26.763332757
 20
14.2983990048
 10
-26.7855450667
 20
14.2411639593
 10
-26.809612519
 20
14.1828045284
 10
-26.8351536463
 20
14.1245804348
 10
-26.8621260349
 20
14.0663315349
 10
-26.8903857916
 20
14.0082179723
 10
-26.9192423994
 20
13.9519799007
 10
-26.9483357503
 20
13.897994094
 10
-26.9776750638
 20
13.8458837783
 10
-27.0070450344
 20
13.7962587865
 10
-27.0361736262
 20
13.7493653171
 10
-27.0650444559
 20
13.7049571715
 10
-27.093860584
 20
13.6629055872
 10
-27.122488831
 20
13.6232498329
 10
-27.150883362
 20
13.5859506399
 10
-27.1794399742
 20
13.5507614393
 10
-27.2081229658
 20
13.5175809161
 10
-27.2368705692
 20
13.4865103854
 10
-27.2660892879
 20
13.457607224
 10
-27.2959115917
 20
13.4306664223
 10
-27.3261538572
 20
13.40589299
 10
-27.3567662712
 20
13.3839593332
 10
-27.3878611607
 20
13.3649120876
 10
-27.419267356
 20
13.3487046176
 10
-27.4504974118
 20
13.3358694219
 10
-27.4815139272
 20
13.3266886731
 10
-27.5122761447
 20
13.3208801987
 10
-27.5422778111
 20
13.3181299796
 10
-27.5713247341
 20
13.3183333428
 10
-27.5995416883
 20
13.3215949612
 10
-27.6269016347
 20
13.327914835
  0
LWPOLYLINE
  5
68D
100
AcDbEntity
  8
ASSI
100
AcDbPolyline
 62
250
  6
CONTINUOUS
 90
43
 70
0
 10
-26.6443540412
 20
14.8449457332
 10
-26.6449667746
 20
14.8120755869
 10
-26.6468995965
 20
14.7767103108
 10
-26.6502969453
 20
14.7388499051
 10
-26.6553296944
 20
14.6983903562
 10
-26.6621361387
 20
14.6554356777
 10
-26.6707571059
 20
14.6102979094
 10
-26.6812747713
 20
14.5629274161
 10
-26.6937831104
 20
14.5133738331
 10
-26.7082312942
 20
14.4620981059
 10
-26.7246387029
 20
14.4090546302
 10
-26.7430432702
 20
14.3542890102
 10
-26.763332757
 20
14.2983990048
 10
-26.7855450667
 20
14.2411639593
 10
-26.809612519
 20
14.1828045284
 10
-26.8351536463
 20
14.1245804348
 10
-26.8621260349
 20
14.0663315349
 10
-26.8903857916
 20
14.0082179723
 10
-26.9192423994
 20
13.9519799007
 10
-26.9483357503
 20
13.897994094
 10
-26.9776750638
 20
13.8458837783
 10
-27.0070450344
 20
13.7962587865
 10
-27.0361736262
 20
13.7493653171
 10
-27.0650444559
 20
13.7049571715
 10
-27.093860584
 20
13.6629055872
 10
-27.122488831
 20
13.6232498329
 10
-27.150883362
 20
13.5859506399
 10
-27.1794399742
 20
13.5507614393
 10
-27.2081229658
 20
13.5175809161
 10
-27.2368705692
 20
13.4865103854
 10
-27.2660892879
 20
13.457607224
 10
-27.2959115917
 20
13.4306664223
 10
-27.3261538572
 20
13.40589299
 10
-27.3567662712
 20
13.3839593332
 10
-27.3878611607
 20
13.3649120876
 10
-27.419267356
 20
13.3487046176
 10
-27.4504974118
 20
13.3358694219
 10
-27.4815139272
 20
13.3266886731
 10
-27.5122761447
 20
13.3208801987
 10
-27.5422778111
 20
13.3181299796
 10
-27.5713247341
 20
13.3183333428
 10
-27.5995416883
 20
13.3215949612
 10
-27.6269016347
 20
13.327914835
  0
LINE
  5
68E
100
AcDbEntity
  8
RACCORDO
100
AcDbLine
 62
250
  6
CONTINUOUS
 10
-26.6497111271
 20
-18.2709128617
 11
-26.6443540412
 21
-18.1978188354
  0
LINE
  5
68F
100
AcDbEntity
  8
ASSI
100
AcDbLine
 62
250
  6
CONTINUOUS
 10
-26.6497111271
 20
-18.2709128617
 11
-26.6443540412
 21
-18.1978188354
  0
LINE
  5
690
100
AcDbEntity
  8
RACCORDO
100
AcDbLine
 62
250
  6
CONTINUOUS
 10
-27.6269016347
 20
17.49081975
 11
-26.6443540412
 21
17.49081975
  0
LINE
  5
691
100
AcDbEntity
  8
ASSI
100
AcDbLine
 62
250
  6
CONTINUOUS
 10
-27.6269016347
 20
17.49081975
 11
-26.6443540412
 21
17.49081975
  0
LINE
  5
692
100
AcDbEntity
  8
RACCORDO
100
AcDbLine
 62
250
  6
CONTINUOUS
 10
-27.6269016347
 20
17.49081975
 11
-52.6443540412
 21
17.6716990487
  0
LINE
  5
693
100
AcDbEntity
  8
ASSI
100
AcDbLine
 62
250
  6
CONTINUOUS
 10
-27.6269016347
 20
17.49081975
 11
-52.6443540412
 21
17.6716990487
  0
LINE
  5
694
100
AcDbEntity
  8
0
100
AcDbLine
 62
250
  6
CONTINUOUS
 10
-33.4603713375
 20
15.580285059
 11
-34.0174293058
 21
15.9925719528
  0
LINE
  5
695
100
AcDbEntity
  8
RACCORDO
100
AcDbLine
 62
250
  6
CONTINUOUS
 10
-24.9182073183
 20
15.0489817302
 11
-24.9182073183
 21
12.5443826453
  0
LINE
  5
696
100
AcDbEntity
  8
ASSI
100
AcDbLine
 62
250
  6
CONTINUOUS
 10
-24.9182073183
 20
15.0489817302
 11
-24.9182073183
 21
12.5443826453
  0
LINE
  5
697
100
AcDbEntity
  8
RACCORDO
100
AcDbLine
 62
250
  6
CONTINUOUS
 10
-24.9182073183
 20
11.6556173547
 11
-24.9182073183
 21
9.1510182698
  0
LINE
  5
698
100
AcDbEntity
  8
ASSI
100
AcDbLine
 62
250
  6
CONTINUOUS
 10
-24.9182073183
 20
11.6556173547
 11
-24.9182073183
 21
9.1510182698
  0
LINE
  5
699
100
AcDbEntity
  8
RACCORDO
100
AcDbLine
 62
250
  6
CONTINUOUS
 10
-24.9182070671
 20
-9.1510182927
 11
-24.9182067724
 21
-15.0489816815
  0
LINE
  5
69A
100
AcDbEntity
  8
ASSI
100
AcDbLine
 62
250
  6
CONTINUOUS
 10
-24.9182070671
 20
-9.1510182927
 11
-24.9182067724
 21
-15.0489816815
  0
LINE
  5
69B
100
AcDbEntity
  8
RACCORDO
100
AcDbLine
 62
7
  6
CONTINUOUS
 10
-24.6443540412
 20
14.7501242721
 11
-24.6443540412
 21
9.4499345335
  0
LINE
  5
69C
100
AcDbEntity
  8
ASSI
100
AcDbLine
 62
7
  6
CONTINUOUS
 10
-24.6443540412
 20
14.7501242721
 11
-24.6443540412
 21
9.4499345335
  0
LINE
  5
69D
100
AcDbEntity
  8
RACCORDO
100
AcDbLine
 62
7
  6
CONTINUOUS
 10
-24.6443540412
 20
-9.44997298
 11
-24.6443540412
 21
-14.7500254648
  0
LINE
  5
69E
100
AcDbEntity
  8
ASSI
100
AcDbLine
 62
7
  6
CONTINUOUS
 10
-24.6443540412
 20
-9.44997298
 11
-24.6443540412
 21
-14.7500254648
  0
LINE
  5
69F
100
AcDbEntity
  8
RACCORDO
100
AcDbLine
 62
7
  6
CONTINUOUS
 10
-42.6443540412
 20
20.9959955457
 11
-52.6443540412
 21
20.9087268678
  0
LINE
  5
6A0
100
AcDbEntity
  8
RACCORDO
100
AcDbLine
 62
250
  6
CONTINUOUS
 10
-27.6269016347
 20
18.9048179208
 11
-52.6443540412
 21
19.0856972195
  0
LINE
  5
6A1
100
AcDbEntity
  8
ASSI
100
AcDbLine
 62
250
  6
CONTINUOUS
 10
-27.6269016347
 20
18.9048179208
 11
-52.6443540412
 21
19.0856972195
  0
LINE
  5
6A2
100
AcDbEntity
  8
RACCORDO
100
AcDbLine
 62
7
  6
CONTINUOUS
 10
-27.6269016347
 20
19.3488485621
 11
-42.6443540412
 21
19.6109791689
  0
LINE
  5
6A3
100
AcDbEntity
  8
ASSI
100
AcDbLine
 62
7
  6
CONTINUOUS
 10
-27.6269016347
 20
19.3488485621
 11
-42.6443540412
 21
19.6109791689
  0
LINE
  5
6A4
100
AcDbEntity
  8
DRAFT
100
AcDbLine
 62
7
  6
CONTINUOUS
 10
-52.6443540412
 20
20.85
 11
-42.6443540412
 21
20.6754493507
  0
LINE
  5
6A5
100
AcDbEntity
  8
ASSI
100
AcDbLine
 62
7
  6
CONTINUOUS
 10
-52.6443540412
 20
20.85
 11
-42.6443540412
 21
20.6754493507
  0
LWPOLYLINE
  5
6A6
100
AcDbEntity
  8
RACCORDO
100
AcDbPolyline
 62
250
  6
CONTINUOUS
 90
12
 70
0
 10
-27.6269016347
 20
18.9048179208
 10
-27.5236396599
 20
18.8997547438
 10
-27.421671056
 20
18.8871708099
 10
-27.3220883459
 20
18.8672009472
 10
-27.2259584895
 20
18.840059119
 10
-27.1343114514
 20
18.8060361312
 10
-27.0481291662
 20
18.7654965166
 10
-26.9683350173
 20
18.718874629
 10
-26.8957839438
 20
18.6666699897
 10
-26.8312532801
 20
18.6094419353
 10
-26.7754344276
 20
18.5478036246
 10
-26.7289254465
 20
18.4824154694
  0
LWPOLYLINE
  5
6A7
100
AcDbEntity
  8
ASSI
100
AcDbPolyline
 62
250
  6
CONTINUOUS
 90
12
 70
0
 10
-27.6269016347
 20
18.9048179208
 10
-27.5236396599
 20
18.8997547438
 10
-27.421671056
 20
18.8871708099
 10
-27.3220883459
 20
18.8672009472
 10
-27.2259584895
 20
18.840059119
 10
-27.1343114514
 20
18.8060361312
 10
-27.0481291662
 20
18.7654965166
 10
-26.9683350173
 20
18.718874629
 10
-26.8957839438
 20
18.6666699897
 10
-26.8312532801
 20
18.6094419353
 10
-26.7754344276
 20
18.5478036246
 10
-26.7289254465
 20
18.4824154694
  0
LINE
  5
6A8
100
AcDbEntity
  8
RACCORDO
100
AcDbLine
 62
250
  6
CONTINUOUS
 10
-61.9478324835
 20
20.5413250388
 11
-62.3957570728
 21
20.5724770439
  0
LINE
  5
6A9
100
AcDbEntity
  8
ASSI
100
AcDbLine
 62
250
  6
CONTINUOUS
 10
-61.9478324835
 20
20.5413250388
 11
-62.3957570704
 21
20.5724770436
  0
LWPOLYLINE
  5
6AA
100
AcDbEntity
  8
RACCORDO
100
AcDbPolyline
 62
250
  6
CONTINUOUS
 90
4
 70
0
 10
-62.3957570728
 20
20.5724770439
 10
-62.4272763118
 20
20.5747620147
 10
-62.4352607102
 20
20.5753722798
 10
-62.4379288767
 20
20.5756177331
  0
LWPOLYLINE
  5
6AB
100
AcDbEntity
  8
ASSI
100
AcDbPolyline
 62
250
  6
CONTINUOUS
 90
4
 70
0
 10
-62.3957570704
 20
20.5724770436
 10
-62.4272763092
 20
20.5747620144
 10
-62.4352607075
 20
20.5753722795
 10
-62.437928874
 20
20.5756177329
  0
LWPOLYLINE
  5
6AC
100
AcDbEntity
  8
RACCORDO
100
AcDbPolyline
 62
7
  6
CONTINUOUS
 90
22
 70
0
 10
-24.9368044624
 20
12.5482956719
 10
-25.0244016979
 20
12.5867710506
 10
-25.1129710897
 20
12.6233514093
 10
-25.2048264948
 20
12.6590499852
 10
-25.3000049855
 20
12.6937491328
 10
-25.3984694893
 20
12.7275664976
 10
-25.5001087893
 20
12.7608550151
 10
-25.6048771258
 20
12.7936609469
 10
-25.7128202583
 20
12.8259380314
 10
-25.8239642479
 20
12.8579004201
 10
-25.9382849863
 20
12.8895716941
 10
-26.0558065816
 20
12.9209282723
 10
-26.1766274197
 20
12.9521135621
 10
-26.3007226171
 20
12.9831387386
 10
-26.4281170573
 20
13.0139926268
 10
-26.5589837757
 20
13.0447851085
 10
-26.6933138133
 20
13.0755251392
 10
-26.8311161291
 20
13.1062037635
 10
-26.9725906357
 20
13.1369039967
 10
-27.1178039707
 20
13.1676535108
 10
-27.2666894966
 20
13.1984246338
 10
-27.4192472133
 20
13.2292173658
  0
LWPOLYLINE
  5
6AD
100
AcDbEntity
  8
ASSI
100
AcDbPolyline
 62
7
  6
CONTINUOUS
 90
22
 70
0
 10
-24.9368044624
 20
12.5482956719
 10
-25.0244016979
 20
12.5867710506
 10
-25.1129710897
 20
12.6233514093
 10
-25.2048264948
 20
12.6590499852
 10
-25.3000049855
 20
12.6937491328
 10
-25.3984694893
 20
12.7275664976
 10
-25.5001087893
 20
12.7608550151
 10
-25.6048771258
 20
12.7936609469
 10
-25.7128202583
 20
12.8259380314
 10
-25.8239642479
 20
12.8579004201
 10
-25.9382849863
 20
12.8895716941
 10
-26.0558065816
 20
12.9209282723
 10
-26.1766274197
 20
12.9521135621
 10
-26.3007226171
 20
12.9831387386
 10
-26.4281170573
 20
13.0139926268
 10
-26.5589837757
 20
13.0447851085
 10
-26.6933138133
 20
13.0755251392
 10
-26.8311161291
 20
13.1062037635
 10
-26.9725906357
 20
13.1369039967
 10
-27.1178039707
 20
13.1676535108
 10
-27.2666894966
 20
13.1984246338
 10
-27.4192472133
 20
13.2292173658
  0
LWPOLYLINE
  5
6AE
100
AcDbEntity
  8
0
100
AcDbPolyline
 62
7
  6
CONTINUOUS
 90
10
 70
0
 43
0.3500000087
 10
-43.5095325989
 20
43.7499981537
 10
-43.4381051758
 20
43.6071433075
 10
-43.4381051758
 20
43.5357158844
 10
-43.580960022
 20
43.3928567749
 10
-43.6523917084
 20
43.3928567749
 10
-43.7238191315
 20
43.464284198
 10
-43.7238191315
 20
43.5357158844
 10
-43.6523917084
 20
43.6785707306
 10
-43.580960022
 20
43.7499981537
 10
-43.5095325989
 20
43.7499981537
  0
LWPOLYLINE
  5
6AF
100
AcDbEntity
  8
ASSI
100
AcDbPolyline
 62
250
  6
CONTINUOUS
 90
22
 70
0
 10
-61.0025231902
 20
21.4713691811
 10
-61.0715032745
 20
21.4653310287
 10
-61.1393616339
 20
21.4546882191
 10
-61.2060982683
 20
21.4394407522
 10
-61.2720493334
 20
21.4194721009
 10
-61.3368786736
 20
21.3948987924
 10
-61.3995778222
 20
21.3660704079
 10
-61.4600909537
 20
21.3329253151
 10
-61.5184738937
 20
21.2955251464
 10
-61.5738856519
 20
21.2544043805
 10
-61.6262777008
 20
21.2095143734
 10
-61.675698568
 20
21.1609037692
 10
-61.7214528457
 20
21.109252979
 10
-61.7634946165
 20
21.0545082275
 10
-61.8018697978
 20
20.9967232901
 10
-61.8360207346
 20
20.9367399035
 10
-61.8658826319
 20
20.8745064462
 10
-61.8915202848
 20
20.8100745397
 10
-61.9125704234
 20
20.7444407856
 10
-61.9289119577
 20
20.6779373843
 10
-61.9406659778
 20
20.6102321354
 10
-61.9478324835
 20
20.5413250388
  0
LWPOLYLINE
  5
6B0
100
AcDbEntity
  8
RACCORDO
100
AcDbPolyline
 62
250
  6
CONTINUOUS
 90
22
 70
0
 10
-61.0025231902
 20
21.4713691811
 10
-61.0715126425
 20
21.4653290397
 10
-61.1393777782
 20
21.4546844914
 10
-61.2061185973
 20
21.4394355363
 10
-61.2720706134
 20
21.4194655613
 10
-61.3368983129
 20
21.3948911795
 10
-61.399595155
 20
21.3660622302
 10
-61.4601058528
 20
21.3329169804
 10
-61.5184856932
 20
21.2955171631
 10
-61.573893996
 20
21.2543978177
 10
-61.6262820994
 20
21.2095105129
 10
-61.6756986652
 20
21.16090368
 10
-61.7214489995
 20
21.1092576513
 10
-61.763487118
 20
21.0545192668
 10
-61.8018590051
 20
20.9967416866
 10
-61.8360079199
 20
20.9367647231
 10
-61.865869505
 20
20.874537591
 10
-61.8915081177
 20
20.8101110756
 10
-61.9125600888
 20
20.7444773458
 10
-61.9289041953
 20
20.6779671246
 10
-61.9406616602
 20
20.6102496889
 10
-61.9478324835
 20
20.5413250388
  0
LINE
  5
6B1
100
AcDbEntity
  8
RACCORDO
100
AcDbLine
 62
250
  6
CONTINUOUS
 10
-56.6443540412
 20
21.6997711479
 11
-61.0025231902
 21
21.4713691811
  0
LINE
  5
6B2
100
AcDbEntity
  8
ASSI
100
AcDbLine
 62
250
  6
CONTINUOUS
 10
-56.6443540412
 20
21.6997711479
 11
-61.0025231902
 21
21.4713691811
  0
LINE
  5
6B3
100
AcDbEntity
  8
RACCORDO
100
AcDbLine
 62
250
  6
CONTINUOUS
 10
-53.6423863451
 20
21.9498971557
 11
-56.3495897631
 21
21.8080186365
  0
LINE
  5
6B4
100
AcDbEntity
  8
RACCORDO
100
AcDbLine
 62
7
  6
CONTINUOUS
 10
-56.6443540412
 20
22.2
 11
-61.0199649651
 21
21.9706839485
  0
LINE
  5
6B5
100
AcDbEntity
  8
ASSI
100
AcDbLine
 62
7
  6
CONTINUOUS
 10
-56.6443540412
 20
22.2
 11
-61.0199649651
 21
21.9706839485
  0
LINE
  5
6B6
100
AcDbEntity
  8
RACCORDO
100
AcDbLine
 62
7
  6
CONTINUOUS
 10
-53.6443540412
 20
22.4
 11
-56.360054828
 21
22.2576761526
  0
LINE
  5
6B7
100
AcDbEntity
  8
RACCORDO
100
AcDbLine
 62
7
  6
CONTINUOUS
 10
-43.135627838
 20
21.5659754333
 11
-52.6443540412
 21
21.4
  0
LINE
  5
6B8
100
AcDbEntity
  8
RACCORDO
100
AcDbLine
 62
250
  6
CONTINUOUS
 10
-56.6443540412
 20
21.8080186365
 11
-56.3495897631
 21
21.8080186365
  0
LINE
  5
6B9
100
AcDbEntity
  8
RACCORDO
100
AcDbLine
 62
250
  6
CONTINUOUS
 10
-52.6443540412
 20
21.9411874598
 11
-53.6423863451
 21
21.9498971557
  0
LINE
  5
6BA
100
AcDbEntity
  8
RACCORDO
100
AcDbLine
 62
7
  6
CONTINUOUS
 10
-43.6356275057
 20
22.3126551668
 11
-53.6443509161
 21
22.3999999727
  0
LWPOLYLINE
  5
6BB
100
AcDbEntity
  8
RACCORDO
100
AcDbPolyline
 62
250
  6
CONTINUOUS
 90
4
 70
0
 10
-26.7289246453
 20
-18.4824141803
 10
-26.6922241439
 20
-18.4139769469
 10
-26.6657250093
 20
-18.3432238179
 10
-26.6497111271
 20
-18.2709128617
  0
LWPOLYLINE
  5
6BC
100
AcDbEntity
  8
ASSI
100
AcDbPolyline
 62
250
  6
CONTINUOUS
 90
4
 70
0
 10
-26.7289246453
 20
-18.4824141803
 10
-26.6922241439
 20
-18.4139769469
 10
-26.6657250093
 20
-18.3432238179
 10
-26.6497111271
 20
-18.2709128617
  0
LINE
  5
6BD
100
AcDbEntity
  8
RACCORDO
100
AcDbLine
 62
250
  6
CONTINUOUS
 10
-53.6443540412
 20
24.2500042308
 11
-55.895808474
 21
24.2369056521
  0
LINE
  5
6BE
100
AcDbEntity
  8
RACCORDO
100
AcDbLine
 62
7
  6
CONTINUOUS
 10
-53.6443540412
 20
24.5
 11
-55.895808474
 21
24.4869014213
  0
LINE
  5
6BF
100
AcDbEntity
  8
RACCORDO
100
AcDbLine
 62
250
  6
CONTINUOUS
 10
-56.1443540412
 20
23.8443375673
 11
-55.895808474
 21
23.8443375673
  0
LINE
  5
6C0
100
AcDbEntity
  8
RACCORDO
100
AcDbLine
 62
250
  6
CONTINUOUS
 10
-52.6443540412
 20
23.8445398019
 11
-52.8928996083
 21
23.8445398019
  0
LINE
  5
6C1
100
AcDbEntity
  8
RACCORDO
100
AcDbLine
 62
250
  6
CONTINUOUS
 10
-56.1443540412
 20
24.2369056521
 11
-55.895808474
 21
24.2369056521
  0
LINE
  5
6C2
100
AcDbEntity
  8
RACCORDO
100
AcDbLine
 62
250
  6
CONTINUOUS
 10
-52.6443540412
 20
24.2456323968
 11
-52.8928996083
 21
24.2456323968
  0
LINE
  5
6C3
100
AcDbEntity
  8
ASSI
100
AcDbLine
 62
7
  6
CONTINUOUS
 10
-52.649489969
 20
23.7942120501
 11
-46.1414451755
 21
23.7563493531
  0
LINE
  5
6C4
100
AcDbEntity
  8
RACCORDO
100
AcDbLine
 62
250
  6
CONTINUOUS
 10
-52.8928996083
 20
24.2456323968
 11
-53.6443540412
 21
24.2500042308
  0
LINE
  5
6C5
100
AcDbEntity
  8
RACCORDO
100
AcDbLine
 62
7
  6
CONTINUOUS
 10
-52.8928996083
 20
24.495628166
 11
-53.6443540412
 21
24.5
  0
LWPOLYLINE
  5
6C6
100
AcDbEntity
  8
RACCORDO
100
AcDbPolyline
 62
250
  6
CONTINUOUS
 90
4
 70
0
 10
-26.7289254465
 20
18.4824154694
 10
-26.6922246484
 20
18.4139780586
 10
-26.6657252569
 20
18.3432246515
 10
-26.6497111947
 20
18.2709133218
  0
LWPOLYLINE
  5
6C7
100
AcDbEntity
  8
ASSI
100
AcDbPolyline
 62
250
  6
CONTINUOUS
 90
4
 70
0
 10
-26.7289254465
 20
18.4824154694
 10
-26.6922246484
 20
18.4139780586
 10
-26.6657252569
 20
18.3432246515
 10
-26.6497111947
 20
18.2709133218
  0
LWPOLYLINE
  5
6C8
100
AcDbEntity
  8
0
100
AcDbPolyline
 62
7
  6
CONTINUOUS
 90
7
 70
0
 43
0.3500000087
 10
-38.7283845123
 20
33.2500006897
 10
-40.2283859772
 20
33.2500006897
 10
-38.7283845123
 20
35.392857489
 10
-38.7283845123
 20
35.8214305542
 10
-39.1569575775
 20
36.2499993561
 10
-39.799812912
 20
36.2499993561
 10
-40.2283859772
 20
35.6071440216
  0
LWPOLYLINE
  5
6C9
100
AcDbEntity
  8
0
100
AcDbPolyline
 62
7
  6
CONTINUOUS
 90
6
 70
0
 43
0.3500000087
 10
-48.6523923279
 20
43.2500019287
 10
-47.5809639282
 20
43.2500019287
 10
-47.3666773956
 20
43.464284198
 10
-47.3666773956
 20
44.5357125977
 10
-47.7952461975
 20
44.9642856628
 10
-48.2238192627
 20
44.9642856628
  0
LWPOLYLINE
  5
6CA
100
AcDbEntity
  8
0
100
AcDbPolyline
 62
7
  6
CONTINUOUS
 90
8
 70
0
 43
0.3500000087
 10
-42.4381041992
 20
43.2500019287
 10
-41.5809623322
 20
43.2500019287
 10
-41.152389267
 20
43.6785707306
 10
-41.152389267
 20
44.5357125977
 10
-41.5809623322
 20
44.9642856628
 10
-42.4381041992
 20
44.9642856628
 10
-42.4381041992
 20
46.2500005951
 10
-41.152389267
 20
46.2500005951
  0
LWPOLYLINE
  5
6CB
100
AcDbEntity
  8
0
100
AcDbPolyline
 62
7
  6
CONTINUOUS
 90
13
 70
0
 43
0.3500000087
 10
-37.4426695801
 20
34.9642844238
 10
-37.7283835358
 20
35.1785709564
 10
-37.7283835358
 20
35.8214305542
 10
-37.4426695801
 20
36.2499993561
 10
-36.7998142456
 20
36.2499993561
 10
-36.5141002899
 20
35.8214305542
 10
-36.5141002899
 20
35.1785709564
 10
-36.7998142456
 20
34.9642844238
 10
-36.3712411804
 20
34.5357156219
 10
-36.3712411804
 20
33.6785694916
 10
-36.7998142456
 20
33.2500006897
 10
-37.4426695801
 20
33.2500006897
 10
-37.8712426453
 20
33.6785694916
  0
LWPOLYLINE
  5
6CC
100
AcDbEntity
  8
0
100
AcDbPolyline
 62
7
  6
CONTINUOUS
 90
13
 70
0
 43
0.3500000087
 10
-46.0809624634
 20
44.9642856628
 10
-46.3666764191
 20
45.1785721954
 10
-46.3666764191
 20
45.8214275299
 10
-46.0809624634
 20
46.2500005951
 10
-45.4381028656
 20
46.2500005951
 10
-45.1523889099
 20
45.8214275299
 10
-45.1523889099
 20
45.1785721954
 10
-45.4381028656
 20
44.9642856628
 10
-45.0095340637
 20
44.5357125977
 10
-45.0095340637
 20
43.6785707306
 10
-45.4381028656
 20
43.2500019287
 10
-46.0809624634
 20
43.2500019287
 10
-46.5095355286
 20
43.6785707306
  0
ARC
  5
6CD
100
AcDbEntity
  8
RACCORDO
100
AcDbCircle
 62
7
  6
CONTINUOUS
 10
-60.9414610308
 20
-20.4727396463
 40
1.5
100
AcDbArc
 50
183.932740883
 51
267.0
  0
ARC
  5
6CE
100
AcDbEntity
  8
ASSI
100
AcDbCircle
 62
7
  6
CONTINUOUS
 10
-60.9414610308
 20
-20.4727396463
 40
1.5
100
AcDbArc
 50
183.932740883
 51
267.0
  0
ARC
  5
6CF
100
AcDbEntity
  8
RACCORDO
100
AcDbCircle
 62
7
  6
CONTINUOUS
 10
-43.6443540412
 20
-21.3126932437
 40
1.0
100
AcDbArc
 50
270.5
 51
360.0
  0
ARC
  5
6D0
100
AcDbEntity
  8
ASSI
100
AcDbCircle
 62
7
  6
CONTINUOUS
 10
-46.1443540412
 20
-23.2563578147
 40
0.5
100
AcDbArc
 50
270.3333333333
 51
360.0
  0
ARC
  5
6D1
100
AcDbEntity
  8
RACCORDO
100
AcDbCircle
 62
7
  6
CONTINUOUS
 10
-56.3443540412
 20
-21.9580872921
 40
0.3
100
AcDbArc
 50
180.0
 51
267.0
  0
ARC
  5
6D2
100
AcDbEntity
  8
RACCORDO
100
AcDbCircle
 62
7
  6
CONTINUOUS
 10
-52.8943540412
 20
-24.2456323968
 40
0.25
100
AcDbArc
 50
270.3333333333
 51
360.0
  0
ARC
  5
6D3
100
AcDbEntity
  8
RACCORDO
100
AcDbCircle
 62
7
  6
CONTINUOUS
 10
-52.8943540412
 20
-23.8445398019
 40
0.25
100
AcDbArc
 50
0.0
 51
60.0694987742
  0
ARC
  5
6D4
100
AcDbEntity
  8
RACCORDO
100
AcDbCircle
 62
7
  6
CONTINUOUS
 10
-55.8943540412
 20
-24.2369056521
 40
0.25
100
AcDbArc
 50
180.0
 51
269.6666666667
  0
ARC
  5
6D5
100
AcDbEntity
  8
RACCORDO
100
AcDbCircle
 62
7
  6
CONTINUOUS
 10
-55.8943540412
 20
-23.8443375673
 40
0.25
100
AcDbArc
 50
120.0
 51
180.0
  0
ARC
  5
6D6
100
AcDbEntity
  8
RACCORDO
100
AcDbCircle
 62
7
  6
CONTINUOUS
 10
-27.6443540412
 20
-18.3490008669
 40
1.0
100
AcDbArc
 50
271.0
 51
360.0
  0
ARC
  5
6D7
100
AcDbEntity
  8
ASSI
100
AcDbCircle
 62
7
  6
CONTINUOUS
 10
-27.6443540412
 20
-18.3490008669
 40
1.0
100
AcDbArc
 50
271.0
 51
360.0
  0
ARC
  5
6D8
100
AcDbEntity
  8
RACCORDO
100
AcDbCircle
 62
7
  6
CONTINUOUS
 10
-26.3443540412
 20
-15.4748993522
 40
0.3
100
AcDbArc
 50
94.999800934
 51
179.9977036819
  0
ARC
  5
6D9
100
AcDbEntity
  8
ASSI
100
AcDbCircle
 62
7
  6
CONTINUOUS
 10
-26.3443540412
 20
-15.4748993522
 40
0.3
100
AcDbArc
 50
94.999800934
 51
179.9977036819
  0
ARC
  5
6DA
100
AcDbEntity
  8
RACCORDO
100
AcDbCircle
 62
7
  6
CONTINUOUS
 10
-26.3443540412
 20
-8.7251006478
 40
0.3
100
AcDbArc
 50
180.0016637366
 51
265.0001450161
  0
ARC
  5
6DB
100
AcDbEntity
  8
ASSI
100
AcDbCircle
 62
7
  6
CONTINUOUS
 10
-26.3443540412
 20
-8.7251006478
 40
0.3
100
AcDbArc
 50
180.0016637366
 51
265.0001450161
  0
ARC
  5
6DC
100
AcDbEntity
  8
RACCORDO
100
AcDbCircle
 62
7
  6
CONTINUOUS
 10
-24.9443540412
 20
-14.7501233207
 40
0.3
100
AcDbArc
 50
275.0001050592
 51
0.0009598715
  0
ARC
  5
6DD
100
AcDbEntity
  8
ASSI
100
AcDbCircle
 62
7
  6
CONTINUOUS
 10
-24.9443540412
 20
-14.7501233207
 40
0.3
100
AcDbArc
 50
275.0001050592
 51
0.0009598715
  0
ARC
  5
6DE
100
AcDbEntity
  8
RACCORDO
100
AcDbCircle
 62
7
  6
CONTINUOUS
 10
-24.9443540412
 20
-9.4498766793
 40
0.3
100
AcDbArc
 50
359.9995589157
 51
84.9999513063
  0
ARC
  5
6DF
100
AcDbEntity
  8
ASSI
100
AcDbCircle
 62
7
  6
CONTINUOUS
 10
-24.9443540412
 20
-9.4498766793
 40
0.3
100
AcDbArc
 50
359.9995589157
 51
84.9999513063
  0
ARC
  5
6E0
100
AcDbEntity
  8
RACCORDO
100
AcDbCircle
 62
7
  6
CONTINUOUS
 10
-60.9414610308
 20
20.4727396463
 40
1.5
100
AcDbArc
 50
93.0
 51
176.067259117
  0
ARC
  5
6E1
100
AcDbEntity
  8
ASSI
100
AcDbCircle
 62
7
  6
CONTINUOUS
 10
-60.9414610308
 20
20.4727396463
 40
1.5
100
AcDbArc
 50
93.0
 51
176.067259117
  0
ARC
  5
6E2
100
AcDbEntity
  8
RACCORDO
100
AcDbCircle
 62
7
  6
CONTINUOUS
 10
-43.6443540412
 20
21.3126932437
 40
1.0
100
AcDbArc
 50
0.0
 51
89.5
  0
ARC
  5
6E3
100
AcDbEntity
  8
ASSI
100
AcDbCircle
 62
7
  6
CONTINUOUS
 10
-46.1443540412
 20
23.2563578147
 40
0.5
100
AcDbArc
 50
0.0
 51
89.6666666667
  0
ARC
  5
6E4
100
AcDbEntity
  8
RACCORDO
100
AcDbCircle
 62
7
  6
CONTINUOUS
 10
-56.3443540412
 20
21.958087017
 40
0.3
100
AcDbArc
 50
92.9999972494
 51
179.9999474433
  0
ARC
  5
6E5
100
AcDbEntity
  8
RACCORDO
100
AcDbCircle
 62
7
  6
CONTINUOUS
 10
-52.8943540412
 20
24.2456323968
 40
0.25
100
AcDbArc
 50
0.0
 51
89.6666666667
  0
ARC
  5
6E6
100
AcDbEntity
  8
RACCORDO
100
AcDbCircle
 62
7
  6
CONTINUOUS
 10
-55.8943540412
 20
24.2369056521
 40
0.25
100
AcDbArc
 50
90.3333333333
 51
180.0
  0
ARC
  5
6E7
100
AcDbEntity
  8
RACCORDO
100
AcDbCircle
 62
7
  6
CONTINUOUS
 10
-52.8943540412
 20
23.8445398019
 40
0.25
100
AcDbArc
 50
299.9305012258
 51
360.0
  0
ARC
  5
6E8
100
AcDbEntity
  8
RACCORDO
100
AcDbCircle
 62
7
  6
CONTINUOUS
 10
-55.8943540412
 20
23.8443375673
 40
0.25
100
AcDbArc
 50
180.0
 51
240.0
  0
ARC
  5
6E9
100
AcDbEntity
  8
RACCORDO
100
AcDbCircle
 62
7
  6
CONTINUOUS
 10
-24.9443540412
 20
14.7501233207
 40
0.3
100
AcDbArc
 50
0.0
 51
85.0
  0
ARC
  5
6EA
100
AcDbEntity
  8
RACCORDO
100
AcDbCircle
 62
7
  6
CONTINUOUS
 10
-24.9443540412
 20
9.4498766793
 40
0.3
100
AcDbArc
 50
275.0
 51
360.0
  0
ARC
  5
6EB
100
AcDbEntity
  8
RACCORDO
100
AcDbCircle
 62
7
  6
CONTINUOUS
 10
-26.3443540412
 20
15.4748993522
 40
0.3
100
AcDbArc
 50
180.0001800202
 51
265.0000156135
  0
ARC
  5
6EC
100
AcDbEntity
  8
RACCORDO
100
AcDbCircle
 62
7
  6
CONTINUOUS
 10
-26.3443540412
 20
8.7251006478
 40
0.3
100
AcDbArc
 50
94.9999710821
 51
179.9996659225
  0
ARC
  5
6ED
100
AcDbEntity
  8
ASSI
100
AcDbCircle
 62
7
  6
CONTINUOUS
 10
-24.9443540412
 20
14.7501233207
 40
0.3
100
AcDbArc
 50
0.0
 51
85.0
  0
ARC
  5
6EE
100
AcDbEntity
  8
ASSI
100
AcDbCircle
 62
7
  6
CONTINUOUS
 10
-24.9443540412
 20
9.4498766793
 40
0.3
100
AcDbArc
 50
275.0
 51
360.0
  0
ARC
  5
6EF
100
AcDbEntity
  8
ASSI
100
AcDbCircle
 62
7
  6
CONTINUOUS
 10
-26.3443540412
 20
15.4748993522
 40
0.3
100
AcDbArc
 50
180.0001800202
 51
265.0000156135
  0
ARC
  5
6F0
100
AcDbEntity
  8
ASSI
100
AcDbCircle
 62
7
  6
CONTINUOUS
 10
-26.3443540412
 20
8.7251006478
 40
0.3
100
AcDbArc
 50
94.9999710821
 51
179.9996659225
  0
ARC
  5
6F1
100
AcDbEntity
  8
RACCORDO
100
AcDbCircle
 62
7
  6
CONTINUOUS
 10
-27.6443540412
 20
18.3490008669
 40
1.0
100
AcDbArc
 50
0.0
 51
89.0
  0
ARC
  5
6F2
100
AcDbEntity
  8
ASSI
100
AcDbCircle
 62
7
  6
CONTINUOUS
 10
-27.6443540412
 20
18.3490008669
 40
1.0
100
AcDbArc
 50
0.0
 51
89.0
  0
ARC
  5
6F3
100
AcDbEntity
  8
RACCORDO
100
AcDbCircle
 62
7
  6
CONTINUOUS
 10
236.8556459588
 20
-0.0
 40
300.0
100
AcDbArc
 50
176.067259117
 51
183.932740883
  0
ARC
  5
6F4
100
AcDbEntity
  8
ASSI
100
AcDbCircle
 62
7
  6
CONTINUOUS
 10
236.8556459588
 20
-0.0
 40
300.0
100
AcDbArc
 50
176.067259117
 51
183.932740883
  0
ARC
  5
6F5
100
AcDbEntity
  8
0
100
AcDbCircle
 62
250
  6
CONTINUOUS
 10
236.8556459588
 20
0.0
 40
300.0
100
AcDbArc
 50
176.4645170683
 51
177.4208189484
  0
ELLIPSE
  5
6F6
100
AcDbEntity
  8
RACCORDO
100
AcDbEllipse
 62
7
  6
CONTINUOUS
 10
8.649923836
 20
-21.699313827
 30
0.0
 11
-0.1582391023
 21
0.4751033573
 31
0.0
 40
0.9984778551
 41
-3.4626430041
 42
-1.8927600658
  0
ELLIPSE
  5
6F7
100
AcDbEntity
  8
RACCORDO
100
AcDbEllipse
 62
7
  6
CONTINUOUS
 10
8.649923836
 20
21.699313827
 30
0.0
 11
0.1582391023
 21
0.4751033573
 31
0.0
 40
0.9984778551
 41
-1.2488325878
 42
0.3210503505
  0
ELLIPSE
  5
6F8
100
AcDbEntity
  8
RACCORDO
100
AcDbEllipse
 62
7
  6
CONTINUOUS
 10
-12.499923836
 20
21.699313827
 30
0.0
 11
-0.1582391023
 21
0.4751033573
 31
0.0
 40
0.9984778551
 41
-0.3210503505
 42
1.2488325878
  0
ELLIPSE
  5
6F9
100
AcDbEntity
  8
RACCORDO
100
AcDbEllipse
 62
7
  6
CONTINUOUS
 10
-12.499923836
 20
-21.699313827
 30
0.0
 11
0.1582391023
 21
0.4751033573
 31
0.0
 40
0.9984778551
 41
-4.3904252414
 42
-2.8205423031
  0
ELLIPSE
  5
6FA
100
AcDbEntity
  8
ASSI
100
AcDbEllipse
 62
7
  6
CONTINUOUS
 10
8.649923836
 20
-21.699313827
 30
0.0
 11
-0.1582391023
 21
0.4751033573
 31
0.0
 40
0.9984778551
 41
-3.4626430041
 42
-1.8927600658
  0
ELLIPSE
  5
6FB
100
AcDbEntity
  8
ASSI
100
AcDbEllipse
 62
7
  6
CONTINUOUS
 10
8.649923836
 20
21.699313827
 30
0.0
 11
0.1582391023
 21
0.4751033573
 31
0.0
 40
0.9984778551
 41
-1.2488325878
 42
0.3210503505
  0
ELLIPSE
  5
6FC
100
AcDbEntity
  8
ASSI
100
AcDbEllipse
 62
7
  6
CONTINUOUS
 10
-12.499923836
 20
21.699313827
 30
0.0
 11
-0.1582391023
 21
0.4751033573
 31
0.0
 40
0.9984778551
 41
-0.3210503505
 42
1.2488325878
  0
ELLIPSE
  5
6FD
100
AcDbEntity
  8
ASSI
100
AcDbEllipse
 62
7
  6
CONTINUOUS
 10
-12.499923836
 20
-21.699313827
 30
0.0
 11
0.1582391023
 21
0.4751033573
 31
0.0
 40
0.9984778551
 41
-4.3904252414
 42
-2.8205423031
  0
ELLIPSE
  5
6FE
100
AcDbEntity
  8
RACCORDO
100
AcDbEllipse
 62
7
  6
CONTINUOUS
 10
-12.6249314524
 20
-21.9412559969
 30
0.0
 11
0.4025750024
 21
-0.2012721715
 31
0.0
 40
0.9998096356
 41
-2.6780516535
 42
-1.5707345439
  0
ELLIPSE
  5
6FF
100
AcDbEntity
  8
RACCORDO
100
AcDbEllipse
 62
7
  6
CONTINUOUS
 10
8.7749314524
 20
21.9412559969
 30
0.0
 11
0.4025750024
 21
-0.2012721715
 31
0.0
 40
0.9998096356
 41
0.4635410001
 42
1.5708581097
  0
ELLIPSE
  5
700
100
AcDbEntity
  8
RACCORDO
100
AcDbEllipse
 62
7
  6
CONTINUOUS
 10
8.7749314524
 20
-21.9412559969
 30
0.0
 11
0.4025750024
 21
0.2012721715
 31
0.0
 40
0.9998096356
 41
-1.5708581097
 42
-0.4635410001
  0
ELLIPSE
  5
701
100
AcDbEntity
  8
RACCORDO
100
AcDbEllipse
 62
7
  6
CONTINUOUS
 10
-12.6249314524
 20
21.9412559969
 30
0.0
 11
0.4025750024
 21
0.2012721715
 31
0.0
 40
0.9998096356
 41
1.5707345439
 42
2.6780516535
  0
ELLIPSE
  5
702
100
AcDbEntity
  8
RACCORDO
100
AcDbEllipse
 62
7
  6
CONTINUOUS
 10
-5.8220826234
 20
-22.3737961104
 30
0.0
 11
0.5
 21
0.0
 31
0.0
 40
0.0524077793
 41
1.5707963268
 42
3.1357748894
  0
ELLIPSE
  5
703
100
AcDbEntity
  8
RACCORDO
100
AcDbEllipse
 62
7
  6
CONTINUOUS
 10
-5.8220826234
 20
-23.7970910851
 30
0.0
 11
0.5
 21
0.0
 31
0.0
 40
0.0058178298
 41
2.495179495
 42
3.1357748894
  0
ELLIPSE
  5
704
100
AcDbEntity
  8
RACCORDO
100
AcDbEllipse
 62
7
  6
CONTINUOUS
 10
1.9720826234
 20
-23.7970910851
 30
0.0
 11
0.5
 21
0.0
 31
0.0
 40
0.0058178298
 41
0.0058177642
 42
0.6464131586
  0
ELLIPSE
  5
705
100
AcDbEntity
  8
RACCORDO
100
AcDbEllipse
 62
7
  6
CONTINUOUS
 10
1.9720826234
 20
-22.3737961104
 30
0.0
 11
0.5
 21
0.0
 31
0.0
 40
0.0524077793
 41
0.0058177642
 42
1.5707963268
  0
ELLIPSE
  5
706
100
AcDbEntity
  8
RACCORDO
100
AcDbEllipse
 62
7
  6
CONTINUOUS
 10
-5.8220826234
 20
23.7970910851
 30
0.0
 11
0.5
 21
-0.0
 31
0.0
 40
0.0058178298
 41
-3.1357748894
 42
-2.495179495
  0
ELLIPSE
  5
707
100
AcDbEntity
  8
RACCORDO
100
AcDbEllipse
 62
7
  6
CONTINUOUS
 10
-5.8220826234
 20
22.3737961104
 30
0.0
 11
0.5
 21
-0.0
 31
0.0
 40
0.0524077793
 41
-3.1357748894
 42
-1.5707963268
  0
ELLIPSE
  5
708
100
AcDbEntity
  8
RACCORDO
100
AcDbEllipse
 62
7
  6
CONTINUOUS
 10
1.9720826234
 20
22.3737961104
 30
0.0
 11
0.5
 21
-0.0
 31
0.0
 40
0.0524077793
 41
-1.5707963268
 42
-0.0058177642
  0
ELLIPSE
  5
709
100
AcDbEntity
  8
RACCORDO
100
AcDbEllipse
 62
7
  6
CONTINUOUS
 10
1.9720826234
 20
23.7970910851
 30
0.0
 11
0.5
 21
0.0
 31
0.0
 40
0.0058178298
 41
-0.6464131586
 42
-0.0058177642
  0
ELLIPSE
  5
70A
100
AcDbEntity
  8
RACCORDO
100
AcDbEllipse
 62
7
  6
CONTINUOUS
 10
-12.3177048266
 20
22.3343222268
 30
0.0
 11
0.25
 21
-0.0000000021
 31
0.0
 40
0.0524092024
 41
-3.135774731
 42
-1.5707961676
  0
ELLIPSE
  5
70B
100
AcDbEntity
  8
RACCORDO
100
AcDbEllipse
 62
7
  6
CONTINUOUS
 10
-10.4322951734
 20
22.3343222268
 30
0.0
 11
0.25
 21
0.0000000021
 31
0.0
 40
0.0524092024
 41
-1.570796486
 42
-0.0058179226
  0
ELLIPSE
  5
70C
100
AcDbEntity
  8
RACCORDO
100
AcDbEllipse
 62
7
  6
CONTINUOUS
 10
6.5822951734
 20
22.3343222268
 30
0.0
 11
0.25
 21
-0.0000000021
 31
0.0
 40
0.0524092024
 41
-3.135774731
 42
-1.5707961676
  0
ELLIPSE
  5
70D
100
AcDbEntity
  8
RACCORDO
100
AcDbEllipse
 62
7
  6
CONTINUOUS
 10
8.4677048266
 20
22.3343222268
 30
0.0
 11
0.25
 21
0.0000000021
 31
0.0
 40
0.0524092024
 41
-1.570796486
 42
-0.0058179226
  0
ELLIPSE
  5
70E
100
AcDbEntity
  8
RACCORDO
100
AcDbEllipse
 62
7
  6
CONTINUOUS
 10
-12.3177048266
 20
-22.3343222268
 30
0.0
 11
0.25
 21
0.0000000021
 31
0.0
 40
0.0524092024
 41
1.5707961676
 42
3.135774731
  0
ELLIPSE
  5
70F
100
AcDbEntity
  8
RACCORDO
100
AcDbEllipse
 62
7
  6
CONTINUOUS
 10
-10.4322951734
 20
-22.3343222268
 30
0.0
 11
0.25
 21
-0.0000000021
 31
0.0
 40
0.0524092024
 41
0.0058179226
 42
1.570796486
  0
ELLIPSE
  5
710
100
AcDbEntity
  8
RACCORDO
100
AcDbEllipse
 62
7
  6
CONTINUOUS
 10
6.5822951734
 20
-22.3343222268
 30
0.0
 11
0.25
 21
0.0000000021
 31
0.0
 40
0.0524092024
 41
1.5707961676
 42
3.135774731
  0
ELLIPSE
  5
711
100
AcDbEntity
  8
RACCORDO
100
AcDbEllipse
 62
7
  6
CONTINUOUS
 10
8.4677048266
 20
-22.3343222268
 30
0.0
 11
0.25
 21
-0.0000000021
 31
0.0
 40
0.0524092024
 41
0.0058179226
 42
1.570796486
  0
ELLIPSE
  5
712
100
AcDbEntity
  8
RACCORDO
100
AcDbEllipse
 62
7
  6
CONTINUOUS
 10
-43.1443540412
 20
22.0658992808
 30
0.0
 11
0.5
 21
0.0
 31
0.0
 40
1.0
 41
-1.5533430343
 42
-0.6605680511
  0
ELLIPSE
  5
713
100
AcDbEntity
  8
RACCORDO
100
AcDbEllipse
 62
7
  6
CONTINUOUS
 10
-43.1443540412
 20
-22.0658992808
 30
0.0
 11
0.5
 21
-0.0
 31
0.0
 40
1.0
 41
0.6605680511
 42
1.5533430343
  0
ELLIPSE
  5
714
100
AcDbEntity
  8
0
100
AcDbEllipse
 62
250
  6
CONTINUOUS
 10
-49.2233553486
 20
-4.680795
 30
0.0
 11
0.0
 21
0.352865
 31
0.0
 40
0.9996954135
 41
-1.5707963268
 42
1.5707963268
  0
ENDSEC
  0
SECTION
  2
OBJECTS
  0
DICTIONARY
  5
C
100
AcDbDictionary
280
0
281
1
  3
ACAD_GROUP
350
D
  3
ACAD_MLINESTYLE
350
17
  3
ACAD_LAYOUT
350
1A
  3
ACAD_PLOTSETTINGS
350
19
  3
ACAD_PLOTSTYLENAME
350
E
  0
DICTIONARY
  5
D
102
{ACAD_REACTORS
330
C
102
}
100
AcDbDictionary
280
0
281
1
  0
ACDBDICTIONARYWDFLT
  5
E
102
{ACAD_REACTORS
330
C
102
}
100
AcDbDictionary
281
1
  3
Normal
350
F
100
AcDbDictionaryWithDefault
340
F
  0
DICTIONARY
  5
17
102
{ACAD_REACTORS
330
C
102
}
100
AcDbDictionary
280
0
281
1
  3
Standard
350
18
  0
DICTIONARY
  5
19
102
{ACAD_REACTORS
330
C
102
}
100
AcDbDictionary
281
1
  0
DICTIONARY
  5
1A
102
{ACAD_REACTORS
330
C
102
}
100
AcDbDictionary
281
1
  3
Model
350
715
  3
Layout1
350
716
  0
ACDBPLACEHOLDER
  5
F
102
{ACAD_REACTORS
330
E
102
}
  0
MLINESTYLE
  5
18
102
{ACAD_REACTORS
330
17
102
}
100
AcDbMlineStyle
  2
STANDARD
 70
0
  3

 62
256
 51
90.0
 52
90.0
 71
2
 49
0.5
 62
256
  6
BYLAYER
 49
-0.5
 62
256
  6
BYLAYER
  0
LAYOUT
  5
715
102
{ACAD_REACTORS
330
1A
102
}
100
AcDbPlotSettings
  1

  2
none_device
  4
ANSI_C_(22.00_x_17.00_Inches)
  6

 40
0.0
 41
0.0
 42
0.0
 43
0.0
 44
558.8
 45
431.8
 46
0.0
 47
0.0
 48
0.0
 49
0.0
140
0.0
141
0.0
142
1.0
143
1.0
 70
1024
 72
1
 73
0
 74
0
  7

 75
0
147
1.0
148
0.0
149
0.0
100
AcDbLayout
  1
Model
 70
0
 71
0
 10
0.0
 20
0.0
 11
558.8
 21
431.8
 12
0.0
 22
0.0
 32
0.0
 14
0.0
 24
0.0
 34
0.0
 15
0.0
 25
0.0
 35
0.0
146
0.0
 13
0.0
 23
0.0
 33
0.0
 16
1.0
 26
0.0
 36
0.0
 17
0.0
 27
1.0
 37
0.0
 76
0
330
216
345
0
346
0
  0
LAYOUT
  5
716
102
{ACAD_REACTORS
330
1A
102
}
100
AcDbPlotSettings
  1

  2
none_device
  4
ANSI_C_(22.00_x_17.00_Inches)
  6

 40
0.0
 41
0.0
 42
0.0
 43
0.0
 44
558.8
 45
431.8
 46
0.0
 47
0.0
 48
0.0
 49
0.0
140
0.0
141
0.0
142
1.0
143
1.0
 70
0
 72
1
 73
0
 74
0
  7

 75
0
147
1.0
148
0.0
149
0.0
100
AcDbLayout
  1
Layout1
 70
0
 71
1
 10
0.0
 20
0.0
 11
558.8
 21
431.8
 12
0.0
 22
0.0
 32
0.0
 14
0.0
 24
0.0
 34
0.0
 15
0.0
 25
0.0
 35
0.0
146
0.0
 13
0.0
 23
0.0
 33
0.0
 16
1.0
 26
0.0
 36
0.0
 17
0.0
 27
1.0
 37
0.0
 76
0
330
217
345
0
346
0
  0
ENDSEC
  0
EOF
