  0
SECTION
  2
HEADER
  9
$ACADVER
  1
AC1015
  9
$DWGCODEPAGE
  3
ANSI_1252
  9
$EXTMAX
 10
297.0
 20
210.0
 30
0.0
  9
$EXTMIN
 10
0.0
 20
0.0
 30
0.0
  9
$LIMMIN
 10
0.0
 20
0.0
  9
$LIMMAX
 10
297.0
 20
210.0
  9
$VIEWCTR
 10
148.5
 20
105.0
  9
$VIEWSIZE
 40
210.0
  9
$CLAYER
  8
0
  9
$LTSCALE
 40
16.335
  9
$CELTYPE
  6
BYLAYER
  9
$DIMSCALE
 40
1.0
  9
$DIMASZ
 40
3.0
  9
$DIMEXO
 40
0.5
  9
$DIMDLI
 40
11.286
  9
$DIMEXE
 40
1.5
  9
$DIMCEN
 40
2.673
  9
$DIMLFAC
 40
1.0
  9
$DIMBLK
  1
_FILLED
  9
$DIMTXT
 40
3.0
  9
$DIMTOL
 70
1
  9
$DIMLIM
 70
0
  9
$DIMTFAC
 40
1.0
  9
$DIMTP
 40
0.01
  9
$DIMTM
 40
0.01
  9
$DIMGAP
 40
0.625
  9
$DIMDSEP
 70
44
  9
$PDMODE
 70
3
  9
$PDSIZE
 40
3.0
  9
$HANDSEED
  5
836
  9
$TILEMODE
 70
1
  9
$MEASUREMENT
 70
1
  9
$INSUNITS
 70
4
  0
ENDSEC
  0
SECTION
  2
CLASSES
  0
CLASS
  1
ACDBDICTIONARYWDFLT
  2
AcDbDictionaryWithDefault
  3
AutoCAD 2000
 90
0
280
0
281
0
  0
CLASS
  1
ACDBPLACEHOLDER
  2
AcDbPlaceHolder
  3
AutoCAD 2000
 90
0
280
0
281
0
  0
CLASS
  1
LAYOUT
  2
AcDbLayout
  3
AutoCAD 2000
 90
0
280
0
281
0
  0
ENDSEC
  0
SECTION
  2
TABLES
  0
TABLE
  2
VPORT
  5
8
100
AcDbSymbolTable
 70
2
  0
VPORT
  5
1F4
100
AcDbSymbolTableRecord
100
AcDbViewportTableRecord
  2
*ACTIVE
 70
0
 10
0.0
 20
0.0
 11
1.0
 21
1.0
 12
148.5
 22
105.0
 13
0.0
 23
0.0
 14
1.0
 24
1.0
 15
0.0
 25
0.0
 16
0.0
 26
0.0
 36
1.0
 17
0.0
 27
0.0
 37
0.0
 40
210.0
 41
1.4142857143
 42
50.0
 43
0.0
 44
0.0
 50
0.0
 51
0.0
 71
0
 72
100
 73
1
 74
1
 75
0
 76
0
 77
0
 78
0
  0
ENDTAB
  0
TABLE
  2
LTYPE
  5
5
100
AcDbSymbolTable
 70
6
  0
LTYPE
  5
14
100
AcDbSymbolTableRecord
100
AcDbLinetypeTableRecord
  2
BYBLOCK
 70
0
  3

 72
65
 73
0
 40
0.0
  0
LTYPE
  5
15
100
AcDbSymbolTableRecord
100
AcDbLinetypeTableRecord
  2
BYLAYER
 70
0
  3

 72
65
 73
0
 40
0.0
  0
LTYPE
  5
16
100
AcDbSymbolTableRecord
100
AcDbLinetypeTableRecord
  2
CONTINUOUS
 70
64
  3
Solid line
 72
65
 73
0
 40
0.0
  0
LTYPE
  5
1F5
100
AcDbSymbolTableRecord
100
AcDbLinetypeTableRecord
  2
CENTER
 70
64
  3
____ _ ____ _ ____ _ ____ _ ____ _ ____ _ ____
 72
65
 73
4
 40
0.6
 49
0.375
 74
0
 49
-0.075
 74
0
 49
0.075
 74
0
 49
-0.075
 74
0
  0
LTYPE
  5
1F6
100
AcDbSymbolTableRecord
100
AcDbLinetypeTableRecord
  2
HIDDEN
 70
64
  3
- - - - - - - - - - - - - - - - - - - -
 72
65
 73
2
 40
0.2
 49
0.1
 74
0
 49
-0.1
 74
0
  0
LTYPE
  5
1F7
100
AcDbSymbolTableRecord
100
AcDbLinetypeTableRecord
  2
PHANTOM
 70
64
  3
_____ _ _ _____ _ _ _____ _ _ _____
 72
65
 73
6
 40
0.8
 49
0.45
 74
0
 49
-0.05
 74
0
 49
0.1
 74
0
 49
-0.05
 74
0
 49
0.1
 74
0
 49
-0.05
 74
0
  0
LTYPE
  5
1F8
100
AcDbSymbolTableRecord
100
AcDbLinetypeTableRecord
  2
DOT
 70
64
  3
. . . . . . . . . . . . . . . . . . . .
 72
65
 73
2
 40
0.2
 49
0.1
 74
0
 49
-0.1
 74
0
  0
LTYPE
  5
1F9
100
AcDbSymbolTableRecord
100
AcDbLinetypeTableRecord
  2
DASHED
 70
64
  3
- - - - - - - - - - - - - - - - - - - -
 72
65
 73
2
 40
0.2
 49
0.1
 74
0
 49
-0.1
 74
0
  0
ENDTAB
  0
TABLE
  2
LAYER
  5
2
100
AcDbSymbolTable
 70
36
  0
LAYER
  5
10
100
AcDbSymbolTableRecord
100
AcDbLayerTableRecord
  2
0
 70
0
 62
7
  6
CONTINUOUS
370
-3
390
F
  0
LAYER
  5
1FA
100
AcDbSymbolTableRecord
100
AcDbLayerTableRecord
  2
DEFAULT_1
 70
0
 62
7
  6
CENTER
370
-3
390
F
  0
LAYER
  5
1FB
100
AcDbSymbolTableRecord
100
AcDbLayerTableRecord
  2
DEFAULT_2
 70
0
 62
7
  6
HIDDEN
370
-3
390
F
  0
LAYER
  5
1FC
100
AcDbSymbolTableRecord
100
AcDbLayerTableRecord
  2
DEFAULT_3
 70
0
 62
7
  6
PHANTOM
370
-3
390
F
  0
LAYER
  5
1FD
100
AcDbSymbolTableRecord
100
AcDbLayerTableRecord
  2
200A_170000
 70
0
 62
7
  6
CONTINUOUS
370
-3
390
F
  0
LAYER
  5
1FE
100
AcDbSymbolTableRecord
100
AcDbLayerTableRecord
  2
200A_170000_1
 70
0
 62
7
  6
CONTINUOUS
370
-3
390
F
  0
LAYER
  5
1FF
100
AcDbSymbolTableRecord
100
AcDbLayerTableRecord
  2
2125-CC-RF-VIMAR_65000
 70
0
 62
7
  6
CONTINUOUS
370
-3
390
F
  0
LAYER
  5
200
100
AcDbSymbolTableRecord
100
AcDbLayerTableRecord
  2
2125-CC-RF-VIMAR_65000_1
 70
0
 62
7
  6
CONTINUOUS
370
-3
390
F
  0
LAYER
  5
201
100
AcDbSymbolTableRecord
100
AcDbLayerTableRecord
  2
2125-CC-RF-VIMAR_65000_2
 70
0
 62
7
  6
CONTINUOUS
370
-3
390
F
  0
LAYER
  5
202
100
AcDbSymbolTableRecord
100
AcDbLayerTableRecord
  2
2125-CC-RF-VIMAR_65000_3
 70
0
 62
7
  6
CONTINUOUS
370
-3
390
F
  0
LAYER
  5
203
100
AcDbSymbolTableRecord
100
AcDbLayerTableRecord
  2
2125-R1-RF-VIMAR_60000
 70
0
 62
7
  6
CONTINUOUS
370
-3
390
F
  0
LAYER
  5
204
100
AcDbSymbolTableRecord
100
AcDbLayerTableRecord
  2
2125-R1-RF-VIMAR_60000_1
 70
0
 62
7
  6
CONTINUOUS
370
-3
390
F
  0
LAYER
  5
205
100
AcDbSymbolTableRecord
100
AcDbLayerTableRecord
  2
2125-R1-RF-VIMAR_60000_2
 70
0
 62
7
  6
CONTINUOUS
370
-3
390
F
  0
LAYER
  5
206
100
AcDbSymbolTableRecord
100
AcDbLayerTableRecord
  2
3216-R1-RF-VIMAR_60000
 70
0
 62
7
  6
CONTINUOUS
370
-3
390
F
  0
LAYER
  5
207
100
AcDbSymbolTableRecord
100
AcDbLayerTableRecord
  2
3216-R1-RF-VIMAR_60000_1
 70
0
 62
7
  6
CONTINUOUS
370
-3
390
F
  0
LAYER
  5
208
100
AcDbSymbolTableRecord
100
AcDbLayerTableRecord
  2
3216-R1-RF-VIMAR_60000_2
 70
0
 62
7
  6
CONTINUOUS
370
-3
390
F
  0
LAYER
  5
209
100
AcDbSymbolTableRecord
100
AcDbLayerTableRecord
  2
43000612A0
 70
0
 62
7
  6
CONTINUOUS
370
-3
390
F
  0
LAYER
  5
20A
100
AcDbSymbolTableRecord
100
AcDbLayerTableRecord
  2
43000613A0
 70
0
 62
7
  6
CONTINUOUS
370
-3
390
F
  0
LAYER
  5
20B
100
AcDbSymbolTableRecord
100
AcDbLayerTableRecord
  2
43000626A0
 70
0
 62
7
  6
CONTINUOUS
370
-3
390
F
  0
LAYER
  5
20C
100
AcDbSymbolTableRecord
100
AcDbLayerTableRecord
  2
ASM0001
 70
0
 62
7
  6
CONTINUOUS
370
-3
390
F
  0
LAYER
  5
20D
100
AcDbSymbolTableRecord
100
AcDbLayerTableRecord
  2
ASSI
 70
0
 62
7
  6
CONTINUOUS
370
-3
390
F
  0
LAYER
  5
20E
100
AcDbSymbolTableRecord
100
AcDbLayerTableRecord
  2
AX-D150-2-VIMAR_360000
 70
0
 62
7
  6
CONTINUOUS
370
-3
390
F
  0
LAYER
  5
20F
100
AcDbSymbolTableRecord
100
AcDbLayerTableRecord
  2
CAPC1608N_80000
 70
0
 62
7
  6
CONTINUOUS
370
-3
390
F
  0
LAYER
  5
210
100
AcDbSymbolTableRecord
100
AcDbLayerTableRecord
  2
CAPC1608N_80000_1
 70
0
 62
7
  6
CONTINUOUS
370
-3
390
F
  0
LAYER
  5
211
100
AcDbSymbolTableRecord
100
AcDbLayerTableRecord
  2
CAPC1608N_80000_10
 70
0
 62
7
  6
CONTINUOUS
370
-3
390
F
  0
LAYER
  5
212
100
AcDbSymbolTableRecord
100
AcDbLayerTableRecord
  2
CAPC1608N_80000_2
 70
0
 62
7
  6
CONTINUOUS
370
-3
390
F
  0
LAYER
  5
213
100
AcDbSymbolTableRecord
100
AcDbLayerTableRecord
  2
CAPC1608N_80000_3
 70
0
 62
7
  6
CONTINUOUS
370
-3
390
F
  0
LAYER
  5
214
100
AcDbSymbolTableRecord
100
AcDbLayerTableRecord
  2
CAPC1608N_80000_4
 70
0
 62
7
  6
CONTINUOUS
370
-3
390
F
  0
LAYER
  5
215
100
AcDbSymbolTableRecord
100
AcDbLayerTableRecord
  2
CAPC1608N_80000_5
 70
0
 62
7
  6
CONTINUOUS
370
-3
390
F
  0
LAYER
  5
216
100
AcDbSymbolTableRecord
100
AcDbLayerTableRecord
  2
CAPC1608N_80000_6
 70
0
 62
7
  6
CONTINUOUS
370
-3
390
F
  0
LAYER
  5
217
100
AcDbSymbolTableRecord
100
AcDbLayerTableRecord
  2
CAPC1608N_80000_7
 70
0
 62
7
  6
CONTINUOUS
370
-3
390
F
  0
LAYER
  5
218
100
AcDbSymbolTableRecord
100
AcDbLayerTableRecord
  2
CAPC1608N_80000_8
 70
0
 62
7
  6
CONTINUOUS
370
-3
390
F
  0
LAYER
  5
219
100
AcDbSymbolTableRecord
100
AcDbLayerTableRecord
  2
CAPC1608N_80000_9
 70
0
 62
7
  6
CONTINUOUS
370
-3
390
F
  0
LAYER
  5
21A
100
AcDbSymbolTableRecord
100
AcDbLayerTableRecord
  2
CN-MRT4P5_3SQV01-VIMAR_1600000
 70
0
 62
7
  6
CONTINUOUS
370
-3
390
F
  0
LAYER
  5
21B
100
AcDbSymbolTableRecord
100
AcDbLayerTableRecord
  2
CN1-REF_SQUAREHOLE12_SPEA-VIMAR
 70
0
 62
7
  6
CONTINUOUS
370
-3
390
F
  0
LAYER
  5
21C
100
AcDbSymbolTableRecord
100
AcDbLayerTableRecord
  2
CN1-REF_SQUAREHOLE12_SPEA-VIM_1
 70
0
 62
7
  6
CONTINUOUS
370
-3
390
F
  0
LAYER
  5
21D
100
AcDbSymbolTableRecord
100
AcDbLayerTableRecord
  2
CN1-REF_SQUAREHOLE12_SPEA-VIM_2
 70
0
 62
7
  6
CONTINUOUS
370
-3
390
F
  0
LAYER
  5
21E
100
AcDbSymbolTableRecord
100
AcDbLayerTableRecord
  2
CN1-REF_SQUAREHOLE12_SPEA-VIM_3
 70
0
 62
7
  6
CONTINUOUS
370
-3
390
F
  0
LAYER
  5
21F
100
AcDbSymbolTableRecord
100
AcDbLayerTableRecord
  2
CN2-HEADER-PIH-P2_54-1_254000
 70
0
 62
7
  6
CONTINUOUS
370
-3
390
F
  0
LAYER
  5
220
100
AcDbSymbolTableRecord
100
AcDbLayerTableRecord
  2
CN2-HEADER-PIH-P2_54-1_254000_1
 70
0
 62
7
  6
CONTINUOUS
370
-3
390
F
  0
LAYER
  5
221
100
AcDbSymbolTableRecord
100
AcDbLayerTableRecord
  2
CN3-HEADER-PIH-P2_54_850000
 70
0
 62
7
  6
CONTINUOUS
370
-3
390
F
  0
LAYER
  5
222
100
AcDbSymbolTableRecord
100
AcDbLayerTableRecord
  2
CN4-FSN-1_2540000
 70
0
 62
7
  6
CONTINUOUS
370
-3
390
F
  0
LAYER
  5
223
100
AcDbSymbolTableRecord
100
AcDbLayerTableRecord
  2
COLOR6
 70
0
 62
7
  6
CONTINUOUS
370
-3
390
F
  0
LAYER
  5
224
100
AcDbSymbolTableRecord
100
AcDbLayerTableRecord
  2
COLORE_MATERIALE
 70
0
 62
7
  6
CONTINUOUS
370
-3
390
F
  0
LAYER
  5
225
100
AcDbSymbolTableRecord
100
AcDbLayerTableRecord
  2
COORDINATE
 70
0
 62
7
  6
CONTINUOUS
370
-3
390
F
  0
LAYER
  5
226
100
AcDbSymbolTableRecord
100
AcDbLayerTableRecord
  2
COORD_ORIGINE
 70
0
 62
7
  6
CONTINUOUS
370
-3
390
F
  0
LAYER
  5
227
100
AcDbSymbolTableRecord
100
AcDbLayerTableRecord
  2
CP-CE5-RF_650000
 70
0
 62
7
  6
CONTINUOUS
370
-3
390
F
  0
LAYER
  5
228
100
AcDbSymbolTableRecord
100
AcDbLayerTableRecord
  2
CP-CE5-RF_650000_1
 70
0
 62
7
  6
CONTINUOUS
370
-3
390
F
  0
LAYER
  5
229
100
AcDbSymbolTableRecord
100
AcDbLayerTableRecord
  2
CP-CE7-RF-VIMAR_1050000
 70
0
 62
7
  6
CONTINUOUS
370
-3
390
F
  0
LAYER
  5
22A
100
AcDbSymbolTableRecord
100
AcDbLayerTableRecord
  2
CP-CE7-RF-VIMAR_1050000_1
 70
0
 62
7
  6
CONTINUOUS
370
-3
390
F
  0
LAYER
  5
22B
100
AcDbSymbolTableRecord
100
AcDbLayerTableRecord
  2
CP-DO-214AB-D-VIMAR_260000
 70
0
 62
7
  6
CONTINUOUS
370
-3
390
F
  0
LAYER
  5
22C
100
AcDbSymbolTableRecord
100
AcDbLayerTableRecord
  2
CP-DO-214AB-D-VIMAR_260000_1
 70
0
 62
7
  6
CONTINUOUS
370
-3
390
F
  0
LAYER
  5
22D
100
AcDbSymbolTableRecord
100
AcDbLayerTableRecord
  2
CP-DO-214AC-VIMAR_240000
 70
0
 62
7
  6
CONTINUOUS
370
-3
390
F
  0
LAYER
  5
22E
100
AcDbSymbolTableRecord
100
AcDbLayerTableRecord
  2
CP-DO-214AC-VIMAR_240000_1
 70
0
 62
7
  6
CONTINUOUS
370
-3
390
F
  0
LAYER
  5
22F
100
AcDbSymbolTableRecord
100
AcDbLayerTableRecord
  2
CURVE
 70
0
 62
7
  6
CONTINUOUS
370
-3
390
F
  0
LAYER
  5
230
100
AcDbSymbolTableRecord
100
AcDbLayerTableRecord
  2
CURVE_LED_TASTO
 70
0
 62
7
  6
CONTINUOUS
370
-3
390
F
  0
LAYER
  5
231
100
AcDbSymbolTableRecord
100
AcDbLayerTableRecord
  2
DFN6-SHT21S-VIMAR_110000
 70
0
 62
7
  6
CONTINUOUS
370
-3
390
F
  0
LAYER
  5
232
100
AcDbSymbolTableRecord
100
AcDbLayerTableRecord
  2
DRAFT
 70
0
 62
7
  6
CONTINUOUS
370
-3
390
F
  0
LAYER
  5
233
100
AcDbSymbolTableRecord
100
AcDbLayerTableRecord
  2
E2_MARK_10000
 70
0
 62
7
  6
CONTINUOUS
370
-3
390
F
  0
LAYER
  5
234
100
AcDbSymbolTableRecord
100
AcDbLayerTableRecord
  2
IGES_SCRITTE
 70
0
 62
7
  6
CONTINUOUS
370
-3
390
F
  0
LAYER
  5
235
100
AcDbSymbolTableRecord
100
AcDbLayerTableRecord
  2
IMPORT
 70
0
 62
7
  6
CONTINUOUS
370
-3
390
F
  0
LAYER
  5
236
100
AcDbSymbolTableRecord
100
AcDbLayerTableRecord
  2
INTFCLR_1
 70
0
 62
7
  6
CONTINUOUS
370
-3
390
F
  0
LAYER
  5
237
100
AcDbSymbolTableRecord
100
AcDbLayerTableRecord
  2
INTF_1
 70
0
 62
7
  6
CONTINUOUS
370
-3
390
F
  0
LAYER
  5
238
100
AcDbSymbolTableRecord
100
AcDbLayerTableRecord
  2
INTF_2
 70
0
 62
7
  6
CONTINUOUS
370
-3
390
F
  0
LAYER
  5
239
100
AcDbSymbolTableRecord
100
AcDbLayerTableRecord
  2
INTF_CYAN
 70
0
 62
7
  6
CONTINUOUS
370
-3
390
F
  0
LAYER
  5
23A
100
AcDbSymbolTableRecord
100
AcDbLayerTableRecord
  2
INTF_RED
 70
0
 62
7
  6
CONTINUOUS
370
-3
390
F
  0
LAYER
  5
23B
100
AcDbSymbolTableRecord
100
AcDbLayerTableRecord
  2
INTF_YELLOW
 70
0
 62
7
  6
CONTINUOUS
370
-3
390
F
  0
LAYER
  5
23C
100
AcDbSymbolTableRecord
100
AcDbLayerTableRecord
  2
LAYER_1187
 70
0
 62
7
  6
CONTINUOUS
370
-3
390
F
  0
LAYER
  5
23D
100
AcDbSymbolTableRecord
100
AcDbLayerTableRecord
  2
LOGO_RESIST-RESTYLING_10000
 70
0
 62
7
  6
CONTINUOUS
370
-3
390
F
  0
LAYER
  5
23E
100
AcDbSymbolTableRecord
100
AcDbLayerTableRecord
  2
L_SRR1210-RF-VIMAR_1000000
 70
0
 62
7
  6
CONTINUOUS
370
-3
390
F
  0
LAYER
  5
23F
100
AcDbSymbolTableRecord
100
AcDbLayerTableRecord
  2
MM3-MPAK-RF-VIMAR_120000
 70
0
 62
7
  6
CONTINUOUS
370
-3
390
F
  0
LAYER
  5
240
100
AcDbSymbolTableRecord
100
AcDbLayerTableRecord
  2
MM3-MPAK-RF-VIMAR_120000_1
 70
0
 62
7
  6
CONTINUOUS
370
-3
390
F
  0
LAYER
  5
241
100
AcDbSymbolTableRecord
100
AcDbLayerTableRecord
  2
MM3-MPAK-RF-VIMAR_120000_2
 70
0
 62
7
  6
CONTINUOUS
370
-3
390
F
  0
LAYER
  5
242
100
AcDbSymbolTableRecord
100
AcDbLayerTableRecord
  2
MM3-SOT-223-RF-VIMAR_180000
 70
0
 62
7
  6
CONTINUOUS
370
-3
390
F
  0
LAYER
  5
243
100
AcDbSymbolTableRecord
100
AcDbLayerTableRecord
  2
MM3-SOT-223-RF-VIMAR_180000_1
 70
0
 62
7
  6
CONTINUOUS
370
-3
390
F
  0
LAYER
  5
244
100
AcDbSymbolTableRecord
100
AcDbLayerTableRecord
  2
MM3-SOT-223-RF-VIMAR_180000_2
 70
0
 62
7
  6
CONTINUOUS
370
-3
390
F
  0
LAYER
  5
245
100
AcDbSymbolTableRecord
100
AcDbLayerTableRecord
  2
MM3-SOT-89-RF-VIMAR_150000
 70
0
 62
7
  6
CONTINUOUS
370
-3
390
F
  0
LAYER
  5
246
100
AcDbSymbolTableRecord
100
AcDbLayerTableRecord
  2
MM3-SOT323-RF-VIMAR_100000
 70
0
 62
7
  6
CONTINUOUS
370
-3
390
F
  0
LAYER
  5
247
100
AcDbSymbolTableRecord
100
AcDbLayerTableRecord
  2
MM3-SOT323-RF-VIMAR_100000_1
 70
0
 62
7
  6
CONTINUOUS
370
-3
390
F
  0
LAYER
  5
248
100
AcDbSymbolTableRecord
100
AcDbLayerTableRecord
  2
NO-PB_MARK_10000
 70
0
 62
7
  6
CONTINUOUS
370
-3
390
F
  0
LAYER
  5
249
100
AcDbSymbolTableRecord
100
AcDbLayerTableRecord
  2
NONE
 70
0
 62
7
  6
CONTINUOUS
370
-3
390
F
  0
LAYER
  5
24A
100
AcDbSymbolTableRecord
100
AcDbLayerTableRecord
  2
NOTE
 70
0
 62
7
  6
CONTINUOUS
370
-3
390
F
  0
LAYER
  5
24B
100
AcDbSymbolTableRecord
100
AcDbLayerTableRecord
  2
PIANI
 70
0
 62
7
  6
CONTINUOUS
370
-3
390
F
  0
LAYER
  5
24C
100
AcDbSymbolTableRecord
100
AcDbLayerTableRecord
  2
PIANI_ORIGINE
 70
0
 62
7
  6
CONTINUOUS
370
-3
390
F
  0
LAYER
  5
24D
100
AcDbSymbolTableRecord
100
AcDbLayerTableRecord
  2
PIANI_RIF
 70
0
 62
7
  6
CONTINUOUS
370
-3
390
F
  0
LAYER
  5
24E
100
AcDbSymbolTableRecord
100
AcDbLayerTableRecord
  2
PIANI_RIFERIMENTO
 70
0
 62
7
  6
CONTINUOUS
370
-3
390
F
  0
LAYER
  5
24F
100
AcDbSymbolTableRecord
100
AcDbLayerTableRecord
  2
PL_SU_FRONTALINO_V11
 70
0
 62
7
  6
CONTINUOUS
370
-3
390
F
  0
LAYER
  5
250
100
AcDbSymbolTableRecord
100
AcDbLayerTableRecord
  2
PTC-4X7_5X5_0-VIMAR_750000
 70
0
 62
7
  6
CONTINUOUS
370
-3
390
F
  0
LAYER
  5
251
100
AcDbSymbolTableRecord
100
AcDbLayerTableRecord
  2
PUNTI
 70
0
 62
7
  6
CONTINUOUS
370
-3
390
F
  0
LAYER
  5
252
100
AcDbSymbolTableRecord
100
AcDbLayerTableRecord
  2
RACCORDO
 70
0
 62
7
  6
CONTINUOUS
370
-3
390
F
  0
LAYER
  5
253
100
AcDbSymbolTableRecord
100
AcDbLayerTableRecord
  2
RD-C100-8-VIMAR_1200000
 70
0
 62
7
  6
CONTINUOUS
370
-3
390
F
  0
LAYER
  5
254
100
AcDbSymbolTableRecord
100
AcDbLayerTableRecord
  2
RD-C50-10-VIMAR_650000
 70
0
 62
7
  6
CONTINUOUS
370
-3
390
F
  0
LAYER
  5
255
100
AcDbSymbolTableRecord
100
AcDbLayerTableRecord
  2
RD-CE20-1-VIMAR_1100000
 70
0
 62
7
  6
CONTINUOUS
370
-3
390
F
  0
LAYER
  5
256
100
AcDbSymbolTableRecord
100
AcDbLayerTableRecord
  2
RD-ZNR75-1-VIMAR_1450000
 70
0
 62
7
  6
CONTINUOUS
370
-3
390
F
  0
LAYER
  5
257
100
AcDbSymbolTableRecord
100
AcDbLayerTableRecord
  2
RESC1608N_45000
 70
0
 62
7
  6
CONTINUOUS
370
-3
390
F
  0
LAYER
  5
258
100
AcDbSymbolTableRecord
100
AcDbLayerTableRecord
  2
RESC1608N_45000_1
 70
0
 62
7
  6
CONTINUOUS
370
-3
390
F
  0
LAYER
  5
259
100
AcDbSymbolTableRecord
100
AcDbLayerTableRecord
  2
RESC1608N_45000_10
 70
0
 62
7
  6
CONTINUOUS
370
-3
390
F
  0
LAYER
  5
25A
100
AcDbSymbolTableRecord
100
AcDbLayerTableRecord
  2
RESC1608N_45000_11
 70
0
 62
7
  6
CONTINUOUS
370
-3
390
F
  0
LAYER
  5
25B
100
AcDbSymbolTableRecord
100
AcDbLayerTableRecord
  2
RESC1608N_45000_12
 70
0
 62
7
  6
CONTINUOUS
370
-3
390
F
  0
LAYER
  5
25C
100
AcDbSymbolTableRecord
100
AcDbLayerTableRecord
  2
RESC1608N_45000_13
 70
0
 62
7
  6
CONTINUOUS
370
-3
390
F
  0
LAYER
  5
25D
100
AcDbSymbolTableRecord
100
AcDbLayerTableRecord
  2
RESC1608N_45000_14
 70
0
 62
7
  6
CONTINUOUS
370
-3
390
F
  0
LAYER
  5
25E
100
AcDbSymbolTableRecord
100
AcDbLayerTableRecord
  2
RESC1608N_45000_15
 70
0
 62
7
  6
CONTINUOUS
370
-3
390
F
  0
LAYER
  5
25F
100
AcDbSymbolTableRecord
100
AcDbLayerTableRecord
  2
RESC1608N_45000_16
 70
0
 62
7
  6
CONTINUOUS
370
-3
390
F
  0
LAYER
  5
260
100
AcDbSymbolTableRecord
100
AcDbLayerTableRecord
  2
RESC1608N_45000_17
 70
0
 62
7
  6
CONTINUOUS
370
-3
390
F
  0
LAYER
  5
261
100
AcDbSymbolTableRecord
100
AcDbLayerTableRecord
  2
RESC1608N_45000_18
 70
0
 62
7
  6
CONTINUOUS
370
-3
390
F
  0
LAYER
  5
262
100
AcDbSymbolTableRecord
100
AcDbLayerTableRecord
  2
RESC1608N_45000_19
 70
0
 62
7
  6
CONTINUOUS
370
-3
390
F
  0
LAYER
  5
263
100
AcDbSymbolTableRecord
100
AcDbLayerTableRecord
  2
RESC1608N_45000_2
 70
0
 62
7
  6
CONTINUOUS
370
-3
390
F
  0
LAYER
  5
264
100
AcDbSymbolTableRecord
100
AcDbLayerTableRecord
  2
RESC1608N_45000_20
 70
0
 62
7
  6
CONTINUOUS
370
-3
390
F
  0
LAYER
  5
265
100
AcDbSymbolTableRecord
100
AcDbLayerTableRecord
  2
RESC1608N_45000_21
 70
0
 62
7
  6
CONTINUOUS
370
-3
390
F
  0
LAYER
  5
266
100
AcDbSymbolTableRecord
100
AcDbLayerTableRecord
  2
RESC1608N_45000_3
 70
0
 62
7
  6
CONTINUOUS
370
-3
390
F
  0
LAYER
  5
267
100
AcDbSymbolTableRecord
100
AcDbLayerTableRecord
  2
RESC1608N_45000_4
 70
0
 62
7
  6
CONTINUOUS
370
-3
390
F
  0
LAYER
  5
268
100
AcDbSymbolTableRecord
100
AcDbLayerTableRecord
  2
RESC1608N_45000_5
 70
0
 62
7
  6
CONTINUOUS
370
-3
390
F
  0
LAYER
  5
269
100
AcDbSymbolTableRecord
100
AcDbLayerTableRecord
  2
RESC1608N_45000_6
 70
0
 62
7
  6
CONTINUOUS
370
-3
390
F
  0
LAYER
  5
26A
100
AcDbSymbolTableRecord
100
AcDbLayerTableRecord
  2
RESC1608N_45000_7
 70
0
 62
7
  6
CONTINUOUS
370
-3
390
F
  0
LAYER
  5
26B
100
AcDbSymbolTableRecord
100
AcDbLayerTableRecord
  2
RESC1608N_45000_8
 70
0
 62
7
  6
CONTINUOUS
370
-3
390
F
  0
LAYER
  5
26C
100
AcDbSymbolTableRecord
100
AcDbLayerTableRecord
  2
RESC1608N_45000_9
 70
0
 62
7
  6
CONTINUOUS
370
-3
390
F
  0
LAYER
  5
26D
100
AcDbSymbolTableRecord
100
AcDbLayerTableRecord
  2
RGB____0____0____0__
 70
0
 62
7
  6
CONTINUOUS
370
-3
390
F
  0
LAYER
  5
26E
100
AcDbSymbolTableRecord
100
AcDbLayerTableRecord
  2
SMUSSO
 70
0
 62
7
  6
CONTINUOUS
370
-3
390
F
  0
LAYER
  5
26F
100
AcDbSymbolTableRecord
100
AcDbLayerTableRecord
  2
SOP14-N-RF_180000
 70
0
 62
7
  6
CONTINUOUS
370
-3
390
F
  0
LAYER
  5
270
100
AcDbSymbolTableRecord
100
AcDbLayerTableRecord
  2
SOP8-T1-RF-FINE-VIMAR_150000
 70
0
 62
7
  6
CONTINUOUS
370
-3
390
F
  0
LAYER
  5
271
100
AcDbSymbolTableRecord
100
AcDbLayerTableRecord
  2
SUPERFICI
 70
0
 62
7
  6
CONTINUOUS
370
-3
390
F
  0
LAYER
  5
272
100
AcDbSymbolTableRecord
100
AcDbLayerTableRecord
  2
SUP_PRO
 70
0
 62
7
  6
CONTINUOUS
370
-3
390
F
  0
LAYER
  5
273
100
AcDbSymbolTableRecord
100
AcDbLayerTableRecord
  2
TRASH
 70
0
 62
7
  6
CONTINUOUS
370
-3
390
F
  0
LAYER
  5
274
100
AcDbSymbolTableRecord
100
AcDbLayerTableRecord
  2
XSEC_DATUMS
 70
0
 62
7
  6
CONTINUOUS
370
-3
390
F
  0
LAYER
  5
275
100
AcDbSymbolTableRecord
100
AcDbLayerTableRecord
  2
_10104
 70
0
 62
7
  6
CONTINUOUS
370
-3
390
F
  0
LAYER
  5
276
100
AcDbSymbolTableRecord
100
AcDbLayerTableRecord
  2
_10107
 70
0
 62
7
  6
CONTINUOUS
370
-3
390
F
  0
LAYER
  5
277
100
AcDbSymbolTableRecord
100
AcDbLayerTableRecord
  2
_10109
 70
0
 62
7
  6
CONTINUOUS
370
-3
390
F
  0
LAYER
  5
278
100
AcDbSymbolTableRecord
100
AcDbLayerTableRecord
  2
_1201
 70
0
 62
7
  6
CONTINUOUS
370
-3
390
F
  0
LAYER
  5
279
100
AcDbSymbolTableRecord
100
AcDbLayerTableRecord
  2
_1205
 70
0
 62
7
  6
CONTINUOUS
370
-3
390
F
  0
LAYER
  5
27A
100
AcDbSymbolTableRecord
100
AcDbLayerTableRecord
  2
_1206
 70
0
 62
7
  6
CONTINUOUS
370
-3
390
F
  0
LAYER
  5
27B
100
AcDbSymbolTableRecord
100
AcDbLayerTableRecord
  2
_12169
 70
0
 62
7
  6
CONTINUOUS
370
-3
390
F
  0
LAYER
  5
27C
100
AcDbSymbolTableRecord
100
AcDbLayerTableRecord
  2
_1220
 70
0
 62
7
  6
CONTINUOUS
370
-3
390
F
  0
LAYER
  5
27D
100
AcDbSymbolTableRecord
100
AcDbLayerTableRecord
  2
_1223
 70
0
 62
7
  6
CONTINUOUS
370
-3
390
F
  0
LAYER
  5
27E
100
AcDbSymbolTableRecord
100
AcDbLayerTableRecord
  2
_1226
 70
0
 62
7
  6
CONTINUOUS
370
-3
390
F
  0
LAYER
  5
27F
100
AcDbSymbolTableRecord
100
AcDbLayerTableRecord
  2
_1228
 70
0
 62
7
  6
CONTINUOUS
370
-3
390
F
  0
LAYER
  5
280
100
AcDbSymbolTableRecord
100
AcDbLayerTableRecord
  2
_1232
 70
0
 62
7
  6
CONTINUOUS
370
-3
390
F
  0
LAYER
  5
281
100
AcDbSymbolTableRecord
100
AcDbLayerTableRecord
  2
_1234
 70
0
 62
7
  6
CONTINUOUS
370
-3
390
F
  0
LAYER
  5
282
100
AcDbSymbolTableRecord
100
AcDbLayerTableRecord
  2
_1235
 70
0
 62
7
  6
CONTINUOUS
370
-3
390
F
  0
LAYER
  5
283
100
AcDbSymbolTableRecord
100
AcDbLayerTableRecord
  2
_1237
 70
0
 62
7
  6
CONTINUOUS
370
-3
390
F
  0
LAYER
  5
284
100
AcDbSymbolTableRecord
100
AcDbLayerTableRecord
  2
_1241
 70
0
 62
7
  6
CONTINUOUS
370
-3
390
F
  0
LAYER
  5
285
100
AcDbSymbolTableRecord
100
AcDbLayerTableRecord
  2
_1245
 70
0
 62
7
  6
CONTINUOUS
370
-3
390
F
  0
LAYER
  5
286
100
AcDbSymbolTableRecord
100
AcDbLayerTableRecord
  2
_1248
 70
0
 62
7
  6
CONTINUOUS
370
-3
390
F
  0
LAYER
  5
287
100
AcDbSymbolTableRecord
100
AcDbLayerTableRecord
  2
_1253
 70
0
 62
7
  6
CONTINUOUS
370
-3
390
F
  0
LAYER
  5
288
100
AcDbSymbolTableRecord
100
AcDbLayerTableRecord
  2
_1257
 70
0
 62
7
  6
CONTINUOUS
370
-3
390
F
  0
LAYER
  5
289
100
AcDbSymbolTableRecord
100
AcDbLayerTableRecord
  2
_1259
 70
0
 62
7
  6
CONTINUOUS
370
-3
390
F
  0
LAYER
  5
28A
100
AcDbSymbolTableRecord
100
AcDbLayerTableRecord
  2
_1261
 70
0
 62
7
  6
CONTINUOUS
370
-3
390
F
  0
LAYER
  5
28B
100
AcDbSymbolTableRecord
100
AcDbLayerTableRecord
  2
_1263
 70
0
 62
7
  6
CONTINUOUS
370
-3
390
F
  0
LAYER
  5
28C
100
AcDbSymbolTableRecord
100
AcDbLayerTableRecord
  2
_1270
 70
0
 62
7
  6
CONTINUOUS
370
-3
390
F
  0
LAYER
  5
28D
100
AcDbSymbolTableRecord
100
AcDbLayerTableRecord
  2
_1283
 70
0
 62
7
  6
CONTINUOUS
370
-3
390
F
  0
LAYER
  5
28E
100
AcDbSymbolTableRecord
100
AcDbLayerTableRecord
  2
_1291
 70
0
 62
7
  6
CONTINUOUS
370
-3
390
F
  0
LAYER
  5
28F
100
AcDbSymbolTableRecord
100
AcDbLayerTableRecord
  2
_1295
 70
0
 62
7
  6
CONTINUOUS
370
-3
390
F
  0
LAYER
  5
290
100
AcDbSymbolTableRecord
100
AcDbLayerTableRecord
  2
_1308
 70
0
 62
7
  6
CONTINUOUS
370
-3
390
F
  0
LAYER
  5
291
100
AcDbSymbolTableRecord
100
AcDbLayerTableRecord
  2
_1317
 70
0
 62
7
  6
CONTINUOUS
370
-3
390
F
  0
LAYER
  5
292
100
AcDbSymbolTableRecord
100
AcDbLayerTableRecord
  2
_1323
 70
0
 62
7
  6
CONTINUOUS
370
-3
390
F
  0
LAYER
  5
293
100
AcDbSymbolTableRecord
100
AcDbLayerTableRecord
  2
_1330
 70
0
 62
7
  6
CONTINUOUS
370
-3
390
F
  0
LAYER
  5
294
100
AcDbSymbolTableRecord
100
AcDbLayerTableRecord
  2
_1333
 70
0
 62
7
  6
CONTINUOUS
370
-3
390
F
  0
LAYER
  5
295
100
AcDbSymbolTableRecord
100
AcDbLayerTableRecord
  2
_1336
 70
0
 62
7
  6
CONTINUOUS
370
-3
390
F
  0
LAYER
  5
296
100
AcDbSymbolTableRecord
100
AcDbLayerTableRecord
  2
_1339
 70
0
 62
7
  6
CONTINUOUS
370
-3
390
F
  0
LAYER
  5
297
100
AcDbSymbolTableRecord
100
AcDbLayerTableRecord
  2
_1342
 70
0
 62
7
  6
CONTINUOUS
370
-3
390
F
  0
LAYER
  5
298
100
AcDbSymbolTableRecord
100
AcDbLayerTableRecord
  2
_1345
 70
0
 62
7
  6
CONTINUOUS
370
-3
390
F
  0
LAYER
  5
299
100
AcDbSymbolTableRecord
100
AcDbLayerTableRecord
  2
_1350
 70
0
 62
7
  6
CONTINUOUS
370
-3
390
F
  0
LAYER
  5
29A
100
AcDbSymbolTableRecord
100
AcDbLayerTableRecord
  2
_1351
 70
0
 62
7
  6
CONTINUOUS
370
-3
390
F
  0
LAYER
  5
29B
100
AcDbSymbolTableRecord
100
AcDbLayerTableRecord
  2
_1367
 70
0
 62
7
  6
CONTINUOUS
370
-3
390
F
  0
LAYER
  5
29C
100
AcDbSymbolTableRecord
100
AcDbLayerTableRecord
  2
_1395
 70
0
 62
7
  6
CONTINUOUS
370
-3
390
F
  0
LAYER
  5
29D
100
AcDbSymbolTableRecord
100
AcDbLayerTableRecord
  2
_1397
 70
0
 62
7
  6
CONTINUOUS
370
-3
390
F
  0
LAYER
  5
29E
100
AcDbSymbolTableRecord
100
AcDbLayerTableRecord
  2
_1480
 70
0
 62
7
  6
CONTINUOUS
370
-3
390
F
  0
LAYER
  5
29F
100
AcDbSymbolTableRecord
100
AcDbLayerTableRecord
  2
_1483
 70
0
 62
7
  6
CONTINUOUS
370
-3
390
F
  0
LAYER
  5
2A0
100
AcDbSymbolTableRecord
100
AcDbLayerTableRecord
  2
_1486
 70
0
 62
7
  6
CONTINUOUS
370
-3
390
F
  0
LAYER
  5
2A1
100
AcDbSymbolTableRecord
100
AcDbLayerTableRecord
  2
_1490
 70
0
 62
7
  6
CONTINUOUS
370
-3
390
F
  0
LAYER
  5
2A2
100
AcDbSymbolTableRecord
100
AcDbLayerTableRecord
  2
_1496
 70
0
 62
7
  6
CONTINUOUS
370
-3
390
F
  0
LAYER
  5
2A3
100
AcDbSymbolTableRecord
100
AcDbLayerTableRecord
  2
_1499
 70
0
 62
7
  6
CONTINUOUS
370
-3
390
F
  0
LAYER
  5
2A4
100
AcDbSymbolTableRecord
100
AcDbLayerTableRecord
  2
_1501
 70
0
 62
7
  6
CONTINUOUS
370
-3
390
F
  0
LAYER
  5
2A5
100
AcDbSymbolTableRecord
100
AcDbLayerTableRecord
  2
_1507
 70
0
 62
7
  6
CONTINUOUS
370
-3
390
F
  0
LAYER
  5
2A6
100
AcDbSymbolTableRecord
100
AcDbLayerTableRecord
  2
_1509
 70
0
 62
7
  6
CONTINUOUS
370
-3
390
F
  0
LAYER
  5
2A7
100
AcDbSymbolTableRecord
100
AcDbLayerTableRecord
  2
_1518
 70
0
 62
7
  6
CONTINUOUS
370
-3
390
F
  0
LAYER
  5
2A8
100
AcDbSymbolTableRecord
100
AcDbLayerTableRecord
  2
_1525
 70
0
 62
7
  6
CONTINUOUS
370
-3
390
F
  0
LAYER
  5
2A9
100
AcDbSymbolTableRecord
100
AcDbLayerTableRecord
  2
_1532
 70
0
 62
7
  6
CONTINUOUS
370
-3
390
F
  0
LAYER
  5
2AA
100
AcDbSymbolTableRecord
100
AcDbLayerTableRecord
  2
_1534
 70
0
 62
7
  6
CONTINUOUS
370
-3
390
F
  0
LAYER
  5
2AB
100
AcDbSymbolTableRecord
100
AcDbLayerTableRecord
  2
_1537
 70
0
 62
7
  6
CONTINUOUS
370
-3
390
F
  0
LAYER
  5
2AC
100
AcDbSymbolTableRecord
100
AcDbLayerTableRecord
  2
_1538
 70
0
 62
7
  6
CONTINUOUS
370
-3
390
F
  0
LAYER
  5
2AD
100
AcDbSymbolTableRecord
100
AcDbLayerTableRecord
  2
_1545
 70
0
 62
7
  6
CONTINUOUS
370
-3
390
F
  0
LAYER
  5
2AE
100
AcDbSymbolTableRecord
100
AcDbLayerTableRecord
  2
_1547
 70
0
 62
7
  6
CONTINUOUS
370
-3
390
F
  0
LAYER
  5
2AF
100
AcDbSymbolTableRecord
100
AcDbLayerTableRecord
  2
_1550
 70
0
 62
7
  6
CONTINUOUS
370
-3
390
F
  0
LAYER
  5
2B0
100
AcDbSymbolTableRecord
100
AcDbLayerTableRecord
  2
_1555
 70
0
 62
7
  6
CONTINUOUS
370
-3
390
F
  0
LAYER
  5
2B1
100
AcDbSymbolTableRecord
100
AcDbLayerTableRecord
  2
_1558
 70
0
 62
7
  6
CONTINUOUS
370
-3
390
F
  0
LAYER
  5
2B2
100
AcDbSymbolTableRecord
100
AcDbLayerTableRecord
  2
_1564
 70
0
 62
7
  6
CONTINUOUS
370
-3
390
F
  0
LAYER
  5
2B3
100
AcDbSymbolTableRecord
100
AcDbLayerTableRecord
  2
_15748
 70
0
 62
7
  6
CONTINUOUS
370
-3
390
F
  0
LAYER
  5
2B4
100
AcDbSymbolTableRecord
100
AcDbLayerTableRecord
  2
_15783
 70
0
 62
7
  6
CONTINUOUS
370
-3
390
F
  0
LAYER
  5
2B5
100
AcDbSymbolTableRecord
100
AcDbLayerTableRecord
  2
_15785
 70
0
 62
7
  6
CONTINUOUS
370
-3
390
F
  0
LAYER
  5
2B6
100
AcDbSymbolTableRecord
100
AcDbLayerTableRecord
  2
_1579
 70
0
 62
7
  6
CONTINUOUS
370
-3
390
F
  0
LAYER
  5
2B7
100
AcDbSymbolTableRecord
100
AcDbLayerTableRecord
  2
_1582
 70
0
 62
7
  6
CONTINUOUS
370
-3
390
F
  0
LAYER
  5
2B8
100
AcDbSymbolTableRecord
100
AcDbLayerTableRecord
  2
_1588
 70
0
 62
7
  6
CONTINUOUS
370
-3
390
F
  0
LAYER
  5
2B9
100
AcDbSymbolTableRecord
100
AcDbLayerTableRecord
  2
_1597
 70
0
 62
7
  6
CONTINUOUS
370
-3
390
F
  0
LAYER
  5
2BA
100
AcDbSymbolTableRecord
100
AcDbLayerTableRecord
  2
_1610
 70
0
 62
7
  6
CONTINUOUS
370
-3
390
F
  0
LAYER
  5
2BB
100
AcDbSymbolTableRecord
100
AcDbLayerTableRecord
  2
_1623
 70
0
 62
7
  6
CONTINUOUS
370
-3
390
F
  0
LAYER
  5
2BC
100
AcDbSymbolTableRecord
100
AcDbLayerTableRecord
  2
_1628
 70
0
 62
7
  6
CONTINUOUS
370
-3
390
F
  0
LAYER
  5
2BD
100
AcDbSymbolTableRecord
100
AcDbLayerTableRecord
  2
_1635
 70
0
 62
7
  6
CONTINUOUS
370
-3
390
F
  0
LAYER
  5
2BE
100
AcDbSymbolTableRecord
100
AcDbLayerTableRecord
  2
_1646
 70
0
 62
7
  6
CONTINUOUS
370
-3
390
F
  0
LAYER
  5
2BF
100
AcDbSymbolTableRecord
100
AcDbLayerTableRecord
  2
_1656
 70
0
 62
7
  6
CONTINUOUS
370
-3
390
F
  0
LAYER
  5
2C0
100
AcDbSymbolTableRecord
100
AcDbLayerTableRecord
  2
_1658
 70
0
 62
7
  6
CONTINUOUS
370
-3
390
F
  0
LAYER
  5
2C1
100
AcDbSymbolTableRecord
100
AcDbLayerTableRecord
  2
_1664
 70
0
 62
7
  6
CONTINUOUS
370
-3
390
F
  0
LAYER
  5
2C2
100
AcDbSymbolTableRecord
100
AcDbLayerTableRecord
  2
_1667
 70
0
 62
7
  6
CONTINUOUS
370
-3
390
F
  0
LAYER
  5
2C3
100
AcDbSymbolTableRecord
100
AcDbLayerTableRecord
  2
_1668
 70
0
 62
7
  6
CONTINUOUS
370
-3
390
F
  0
LAYER
  5
2C4
100
AcDbSymbolTableRecord
100
AcDbLayerTableRecord
  2
_1674
 70
0
 62
7
  6
CONTINUOUS
370
-3
390
F
  0
LAYER
  5
2C5
100
AcDbSymbolTableRecord
100
AcDbLayerTableRecord
  2
_1677
 70
0
 62
7
  6
CONTINUOUS
370
-3
390
F
  0
LAYER
  5
2C6
100
AcDbSymbolTableRecord
100
AcDbLayerTableRecord
  2
_1681
 70
0
 62
7
  6
CONTINUOUS
370
-3
390
F
  0
LAYER
  5
2C7
100
AcDbSymbolTableRecord
100
AcDbLayerTableRecord
  2
_1685
 70
0
 62
7
  6
CONTINUOUS
370
-3
390
F
  0
LAYER
  5
2C8
100
AcDbSymbolTableRecord
100
AcDbLayerTableRecord
  2
_1690
 70
0
 62
7
  6
CONTINUOUS
370
-3
390
F
  0
LAYER
  5
2C9
100
AcDbSymbolTableRecord
100
AcDbLayerTableRecord
  2
_1697
 70
0
 62
7
  6
CONTINUOUS
370
-3
390
F
  0
LAYER
  5
2CA
100
AcDbSymbolTableRecord
100
AcDbLayerTableRecord
  2
_1703
 70
0
 62
7
  6
CONTINUOUS
370
-3
390
F
  0
LAYER
  5
2CB
100
AcDbSymbolTableRecord
100
AcDbLayerTableRecord
  2
_1708
 70
0
 62
7
  6
CONTINUOUS
370
-3
390
F
  0
LAYER
  5
2CC
100
AcDbSymbolTableRecord
100
AcDbLayerTableRecord
  2
_1710
 70
0
 62
7
  6
CONTINUOUS
370
-3
390
F
  0
LAYER
  5
2CD
100
AcDbSymbolTableRecord
100
AcDbLayerTableRecord
  2
_1713
 70
0
 62
7
  6
CONTINUOUS
370
-3
390
F
  0
LAYER
  5
2CE
100
AcDbSymbolTableRecord
100
AcDbLayerTableRecord
  2
_1720
 70
0
 62
7
  6
CONTINUOUS
370
-3
390
F
  0
LAYER
  5
2CF
100
AcDbSymbolTableRecord
100
AcDbLayerTableRecord
  2
_1725
 70
0
 62
7
  6
CONTINUOUS
370
-3
390
F
  0
LAYER
  5
2D0
100
AcDbSymbolTableRecord
100
AcDbLayerTableRecord
  2
_1729
 70
0
 62
7
  6
CONTINUOUS
370
-3
390
F
  0
LAYER
  5
2D1
100
AcDbSymbolTableRecord
100
AcDbLayerTableRecord
  2
_1742
 70
0
 62
7
  6
CONTINUOUS
370
-3
390
F
  0
LAYER
  5
2D2
100
AcDbSymbolTableRecord
100
AcDbLayerTableRecord
  2
_1745
 70
0
 62
7
  6
CONTINUOUS
370
-3
390
F
  0
LAYER
  5
2D3
100
AcDbSymbolTableRecord
100
AcDbLayerTableRecord
  2
_1760
 70
0
 62
7
  6
CONTINUOUS
370
-3
390
F
  0
LAYER
  5
2D4
100
AcDbSymbolTableRecord
100
AcDbLayerTableRecord
  2
_1761
 70
0
 62
7
  6
CONTINUOUS
370
-3
390
F
  0
LAYER
  5
2D5
100
AcDbSymbolTableRecord
100
AcDbLayerTableRecord
  2
_1770
 70
0
 62
7
  6
CONTINUOUS
370
-3
390
F
  0
LAYER
  5
2D6
100
AcDbSymbolTableRecord
100
AcDbLayerTableRecord
  2
_1775
 70
0
 62
7
  6
CONTINUOUS
370
-3
390
F
  0
LAYER
  5
2D7
100
AcDbSymbolTableRecord
100
AcDbLayerTableRecord
  2
_1778
 70
0
 62
7
  6
CONTINUOUS
370
-3
390
F
  0
LAYER
  5
2D8
100
AcDbSymbolTableRecord
100
AcDbLayerTableRecord
  2
_1782
 70
0
 62
7
  6
CONTINUOUS
370
-3
390
F
  0
LAYER
  5
2D9
100
AcDbSymbolTableRecord
100
AcDbLayerTableRecord
  2
_1785
 70
0
 62
7
  6
CONTINUOUS
370
-3
390
F
  0
LAYER
  5
2DA
100
AcDbSymbolTableRecord
100
AcDbLayerTableRecord
  2
_1788
 70
0
 62
7
  6
CONTINUOUS
370
-3
390
F
  0
LAYER
  5
2DB
100
AcDbSymbolTableRecord
100
AcDbLayerTableRecord
  2
_1793
 70
0
 62
7
  6
CONTINUOUS
370
-3
390
F
  0
LAYER
  5
2DC
100
AcDbSymbolTableRecord
100
AcDbLayerTableRecord
  2
_1795
 70
0
 62
7
  6
CONTINUOUS
370
-3
390
F
  0
LAYER
  5
2DD
100
AcDbSymbolTableRecord
100
AcDbLayerTableRecord
  2
_1798
 70
0
 62
7
  6
CONTINUOUS
370
-3
390
F
  0
LAYER
  5
2DE
100
AcDbSymbolTableRecord
100
AcDbLayerTableRecord
  2
_1802
 70
0
 62
7
  6
CONTINUOUS
370
-3
390
F
  0
LAYER
  5
2DF
100
AcDbSymbolTableRecord
100
AcDbLayerTableRecord
  2
_1806
 70
0
 62
7
  6
CONTINUOUS
370
-3
390
F
  0
LAYER
  5
2E0
100
AcDbSymbolTableRecord
100
AcDbLayerTableRecord
  2
_1810
 70
0
 62
7
  6
CONTINUOUS
370
-3
390
F
  0
LAYER
  5
2E1
100
AcDbSymbolTableRecord
100
AcDbLayerTableRecord
  2
_1812
 70
0
 62
7
  6
CONTINUOUS
370
-3
390
F
  0
LAYER
  5
2E2
100
AcDbSymbolTableRecord
100
AcDbLayerTableRecord
  2
_1817
 70
0
 62
7
  6
CONTINUOUS
370
-3
390
F
  0
LAYER
  5
2E3
100
AcDbSymbolTableRecord
100
AcDbLayerTableRecord
  2
_1821
 70
0
 62
7
  6
CONTINUOUS
370
-3
390
F
  0
LAYER
  5
2E4
100
AcDbSymbolTableRecord
100
AcDbLayerTableRecord
  2
_1826
 70
0
 62
7
  6
CONTINUOUS
370
-3
390
F
  0
LAYER
  5
2E5
100
AcDbSymbolTableRecord
100
AcDbLayerTableRecord
  2
_1830
 70
0
 62
7
  6
CONTINUOUS
370
-3
390
F
  0
LAYER
  5
2E6
100
AcDbSymbolTableRecord
100
AcDbLayerTableRecord
  2
_1833
 70
0
 62
7
  6
CONTINUOUS
370
-3
390
F
  0
LAYER
  5
2E7
100
AcDbSymbolTableRecord
100
AcDbLayerTableRecord
  2
_1835
 70
0
 62
7
  6
CONTINUOUS
370
-3
390
F
  0
LAYER
  5
2E8
100
AcDbSymbolTableRecord
100
AcDbLayerTableRecord
  2
_1841
 70
0
 62
7
  6
CONTINUOUS
370
-3
390
F
  0
LAYER
  5
2E9
100
AcDbSymbolTableRecord
100
AcDbLayerTableRecord
  2
_1846
 70
0
 62
7
  6
CONTINUOUS
370
-3
390
F
  0
LAYER
  5
2EA
100
AcDbSymbolTableRecord
100
AcDbLayerTableRecord
  2
_1848
 70
0
 62
7
  6
CONTINUOUS
370
-3
390
F
  0
LAYER
  5
2EB
100
AcDbSymbolTableRecord
100
AcDbLayerTableRecord
  2
_1849
 70
0
 62
7
  6
CONTINUOUS
370
-3
390
F
  0
LAYER
  5
2EC
100
AcDbSymbolTableRecord
100
AcDbLayerTableRecord
  2
_1851
 70
0
 62
7
  6
CONTINUOUS
370
-3
390
F
  0
LAYER
  5
2ED
100
AcDbSymbolTableRecord
100
AcDbLayerTableRecord
  2
_1853
 70
0
 62
7
  6
CONTINUOUS
370
-3
390
F
  0
LAYER
  5
2EE
100
AcDbSymbolTableRecord
100
AcDbLayerTableRecord
  2
_2045
 70
0
 62
7
  6
CONTINUOUS
370
-3
390
F
  0
LAYER
  5
2EF
100
AcDbSymbolTableRecord
100
AcDbLayerTableRecord
  2
_2048
 70
0
 62
7
  6
CONTINUOUS
370
-3
390
F
  0
LAYER
  5
2F0
100
AcDbSymbolTableRecord
100
AcDbLayerTableRecord
  2
_3329
 70
0
 62
7
  6
CONTINUOUS
370
-3
390
F
  0
LAYER
  5
2F1
100
AcDbSymbolTableRecord
100
AcDbLayerTableRecord
  2
_3554
 70
0
 62
7
  6
CONTINUOUS
370
-3
390
F
  0
LAYER
  5
2F2
100
AcDbSymbolTableRecord
100
AcDbLayerTableRecord
  2
_3557
 70
0
 62
7
  6
CONTINUOUS
370
-3
390
F
  0
LAYER
  5
2F3
100
AcDbSymbolTableRecord
100
AcDbLayerTableRecord
  2
_3561
 70
0
 62
7
  6
CONTINUOUS
370
-3
390
F
  0
LAYER
  5
2F4
100
AcDbSymbolTableRecord
100
AcDbLayerTableRecord
  2
_3567
 70
0
 62
7
  6
CONTINUOUS
370
-3
390
F
  0
LAYER
  5
2F5
100
AcDbSymbolTableRecord
100
AcDbLayerTableRecord
  2
_3572
 70
0
 62
7
  6
CONTINUOUS
370
-3
390
F
  0
LAYER
  5
2F6
100
AcDbSymbolTableRecord
100
AcDbLayerTableRecord
  2
_3576
 70
0
 62
7
  6
CONTINUOUS
370
-3
390
F
  0
LAYER
  5
2F7
100
AcDbSymbolTableRecord
100
AcDbLayerTableRecord
  2
_3582
 70
0
 62
7
  6
CONTINUOUS
370
-3
390
F
  0
LAYER
  5
2F8
100
AcDbSymbolTableRecord
100
AcDbLayerTableRecord
  2
_3586
 70
0
 62
7
  6
CONTINUOUS
370
-3
390
F
  0
LAYER
  5
2F9
100
AcDbSymbolTableRecord
100
AcDbLayerTableRecord
  2
_3591
 70
0
 62
7
  6
CONTINUOUS
370
-3
390
F
  0
LAYER
  5
2FA
100
AcDbSymbolTableRecord
100
AcDbLayerTableRecord
  2
_3595
 70
0
 62
7
  6
CONTINUOUS
370
-3
390
F
  0
LAYER
  5
2FB
100
AcDbSymbolTableRecord
100
AcDbLayerTableRecord
  2
_3599
 70
0
 62
7
  6
CONTINUOUS
370
-3
390
F
  0
LAYER
  5
2FC
100
AcDbSymbolTableRecord
100
AcDbLayerTableRecord
  2
_3605
 70
0
 62
7
  6
CONTINUOUS
370
-3
390
F
  0
LAYER
  5
2FD
100
AcDbSymbolTableRecord
100
AcDbLayerTableRecord
  2
_3609
 70
0
 62
7
  6
CONTINUOUS
370
-3
390
F
  0
LAYER
  5
2FE
100
AcDbSymbolTableRecord
100
AcDbLayerTableRecord
  2
_3614
 70
0
 62
7
  6
CONTINUOUS
370
-3
390
F
  0
LAYER
  5
2FF
100
AcDbSymbolTableRecord
100
AcDbLayerTableRecord
  2
_3619
 70
0
 62
7
  6
CONTINUOUS
370
-3
390
F
  0
LAYER
  5
300
100
AcDbSymbolTableRecord
100
AcDbLayerTableRecord
  2
_3622
 70
0
 62
7
  6
CONTINUOUS
370
-3
390
F
  0
LAYER
  5
301
100
AcDbSymbolTableRecord
100
AcDbLayerTableRecord
  2
_3626
 70
0
 62
7
  6
CONTINUOUS
370
-3
390
F
  0
LAYER
  5
302
100
AcDbSymbolTableRecord
100
AcDbLayerTableRecord
  2
_3630
 70
0
 62
7
  6
CONTINUOUS
370
-3
390
F
  0
LAYER
  5
303
100
AcDbSymbolTableRecord
100
AcDbLayerTableRecord
  2
_3634
 70
0
 62
7
  6
CONTINUOUS
370
-3
390
F
  0
LAYER
  5
304
100
AcDbSymbolTableRecord
100
AcDbLayerTableRecord
  2
_3640
 70
0
 62
7
  6
CONTINUOUS
370
-3
390
F
  0
LAYER
  5
305
100
AcDbSymbolTableRecord
100
AcDbLayerTableRecord
  2
_3647
 70
0
 62
7
  6
CONTINUOUS
370
-3
390
F
  0
LAYER
  5
306
100
AcDbSymbolTableRecord
100
AcDbLayerTableRecord
  2
_3656
 70
0
 62
7
  6
CONTINUOUS
370
-3
390
F
  0
LAYER
  5
307
100
AcDbSymbolTableRecord
100
AcDbLayerTableRecord
  2
_3660
 70
0
 62
7
  6
CONTINUOUS
370
-3
390
F
  0
LAYER
  5
308
100
AcDbSymbolTableRecord
100
AcDbLayerTableRecord
  2
_3667
 70
0
 62
7
  6
CONTINUOUS
370
-3
390
F
  0
LAYER
  5
309
100
AcDbSymbolTableRecord
100
AcDbLayerTableRecord
  2
_3674
 70
0
 62
7
  6
CONTINUOUS
370
-3
390
F
  0
LAYER
  5
30A
100
AcDbSymbolTableRecord
100
AcDbLayerTableRecord
  2
_3678
 70
0
 62
7
  6
CONTINUOUS
370
-3
390
F
  0
LAYER
  5
30B
100
AcDbSymbolTableRecord
100
AcDbLayerTableRecord
  2
_3682
 70
0
 62
7
  6
CONTINUOUS
370
-3
390
F
  0
LAYER
  5
30C
100
AcDbSymbolTableRecord
100
AcDbLayerTableRecord
  2
_3685
 70
0
 62
7
  6
CONTINUOUS
370
-3
390
F
  0
LAYER
  5
30D
100
AcDbSymbolTableRecord
100
AcDbLayerTableRecord
  2
_3689
 70
0
 62
7
  6
CONTINUOUS
370
-3
390
F
  0
LAYER
  5
30E
100
AcDbSymbolTableRecord
100
AcDbLayerTableRecord
  2
_3693
 70
0
 62
7
  6
CONTINUOUS
370
-3
390
F
  0
LAYER
  5
30F
100
AcDbSymbolTableRecord
100
AcDbLayerTableRecord
  2
_3696
 70
0
 62
7
  6
CONTINUOUS
370
-3
390
F
  0
LAYER
  5
310
100
AcDbSymbolTableRecord
100
AcDbLayerTableRecord
  2
_3698
 70
0
 62
7
  6
CONTINUOUS
370
-3
390
F
  0
LAYER
  5
311
100
AcDbSymbolTableRecord
100
AcDbLayerTableRecord
  2
_3700
 70
0
 62
7
  6
CONTINUOUS
370
-3
390
F
  0
LAYER
  5
312
100
AcDbSymbolTableRecord
100
AcDbLayerTableRecord
  2
_3703
 70
0
 62
7
  6
CONTINUOUS
370
-3
390
F
  0
LAYER
  5
313
100
AcDbSymbolTableRecord
100
AcDbLayerTableRecord
  2
_3709
 70
0
 62
7
  6
CONTINUOUS
370
-3
390
F
  0
LAYER
  5
314
100
AcDbSymbolTableRecord
100
AcDbLayerTableRecord
  2
_3715
 70
0
 62
7
  6
CONTINUOUS
370
-3
390
F
  0
LAYER
  5
315
100
AcDbSymbolTableRecord
100
AcDbLayerTableRecord
  2
_3717
 70
0
 62
7
  6
CONTINUOUS
370
-3
390
F
  0
LAYER
  5
316
100
AcDbSymbolTableRecord
100
AcDbLayerTableRecord
  2
_3720
 70
0
 62
7
  6
CONTINUOUS
370
-3
390
F
  0
LAYER
  5
317
100
AcDbSymbolTableRecord
100
AcDbLayerTableRecord
  2
_3722
 70
0
 62
7
  6
CONTINUOUS
370
-3
390
F
  0
LAYER
  5
318
100
AcDbSymbolTableRecord
100
AcDbLayerTableRecord
  2
_3727
 70
0
 62
7
  6
CONTINUOUS
370
-3
390
F
  0
LAYER
  5
319
100
AcDbSymbolTableRecord
100
AcDbLayerTableRecord
  2
_3731
 70
0
 62
7
  6
CONTINUOUS
370
-3
390
F
  0
LAYER
  5
31A
100
AcDbSymbolTableRecord
100
AcDbLayerTableRecord
  2
_3735
 70
0
 62
7
  6
CONTINUOUS
370
-3
390
F
  0
LAYER
  5
31B
100
AcDbSymbolTableRecord
100
AcDbLayerTableRecord
  2
_3740
 70
0
 62
7
  6
CONTINUOUS
370
-3
390
F
  0
LAYER
  5
31C
100
AcDbSymbolTableRecord
100
AcDbLayerTableRecord
  2
_3742
 70
0
 62
7
  6
CONTINUOUS
370
-3
390
F
  0
LAYER
  5
31D
100
AcDbSymbolTableRecord
100
AcDbLayerTableRecord
  2
_3747
 70
0
 62
7
  6
CONTINUOUS
370
-3
390
F
  0
LAYER
  5
31E
100
AcDbSymbolTableRecord
100
AcDbLayerTableRecord
  2
_3750
 70
0
 62
7
  6
CONTINUOUS
370
-3
390
F
  0
LAYER
  5
31F
100
AcDbSymbolTableRecord
100
AcDbLayerTableRecord
  2
_3756
 70
0
 62
7
  6
CONTINUOUS
370
-3
390
F
  0
LAYER
  5
320
100
AcDbSymbolTableRecord
100
AcDbLayerTableRecord
  2
_3760
 70
0
 62
7
  6
CONTINUOUS
370
-3
390
F
  0
LAYER
  5
321
100
AcDbSymbolTableRecord
100
AcDbLayerTableRecord
  2
_3765
 70
0
 62
7
  6
CONTINUOUS
370
-3
390
F
  0
LAYER
  5
322
100
AcDbSymbolTableRecord
100
AcDbLayerTableRecord
  2
_3768
 70
0
 62
7
  6
CONTINUOUS
370
-3
390
F
  0
LAYER
  5
323
100
AcDbSymbolTableRecord
100
AcDbLayerTableRecord
  2
_3774
 70
0
 62
7
  6
CONTINUOUS
370
-3
390
F
  0
LAYER
  5
324
100
AcDbSymbolTableRecord
100
AcDbLayerTableRecord
  2
_3779
 70
0
 62
7
  6
CONTINUOUS
370
-3
390
F
  0
LAYER
  5
325
100
AcDbSymbolTableRecord
100
AcDbLayerTableRecord
  2
_3783
 70
0
 62
7
  6
CONTINUOUS
370
-3
390
F
  0
LAYER
  5
326
100
AcDbSymbolTableRecord
100
AcDbLayerTableRecord
  2
_3785
 70
0
 62
7
  6
CONTINUOUS
370
-3
390
F
  0
LAYER
  5
327
100
AcDbSymbolTableRecord
100
AcDbLayerTableRecord
  2
_3788
 70
0
 62
7
  6
CONTINUOUS
370
-3
390
F
  0
LAYER
  5
328
100
AcDbSymbolTableRecord
100
AcDbLayerTableRecord
  2
_3793
 70
0
 62
7
  6
CONTINUOUS
370
-3
390
F
  0
LAYER
  5
329
100
AcDbSymbolTableRecord
100
AcDbLayerTableRecord
  2
_3797
 70
0
 62
7
  6
CONTINUOUS
370
-3
390
F
  0
LAYER
  5
32A
100
AcDbSymbolTableRecord
100
AcDbLayerTableRecord
  2
_3803
 70
0
 62
7
  6
CONTINUOUS
370
-3
390
F
  0
LAYER
  5
32B
100
AcDbSymbolTableRecord
100
AcDbLayerTableRecord
  2
_3806
 70
0
 62
7
  6
CONTINUOUS
370
-3
390
F
  0
LAYER
  5
32C
100
AcDbSymbolTableRecord
100
AcDbLayerTableRecord
  2
_3811
 70
0
 62
7
  6
CONTINUOUS
370
-3
390
F
  0
LAYER
  5
32D
100
AcDbSymbolTableRecord
100
AcDbLayerTableRecord
  2
_3814
 70
0
 62
7
  6
CONTINUOUS
370
-3
390
F
  0
LAYER
  5
32E
100
AcDbSymbolTableRecord
100
AcDbLayerTableRecord
  2
_3824
 70
0
 62
7
  6
CONTINUOUS
370
-3
390
F
  0
LAYER
  5
32F
100
AcDbSymbolTableRecord
100
AcDbLayerTableRecord
  2
_3827
 70
0
 62
7
  6
CONTINUOUS
370
-3
390
F
  0
LAYER
  5
330
100
AcDbSymbolTableRecord
100
AcDbLayerTableRecord
  2
_3833
 70
0
 62
7
  6
CONTINUOUS
370
-3
390
F
  0
LAYER
  5
331
100
AcDbSymbolTableRecord
100
AcDbLayerTableRecord
  2
_3840
 70
0
 62
7
  6
CONTINUOUS
370
-3
390
F
  0
LAYER
  5
332
100
AcDbSymbolTableRecord
100
AcDbLayerTableRecord
  2
_3846
 70
0
 62
7
  6
CONTINUOUS
370
-3
390
F
  0
LAYER
  5
333
100
AcDbSymbolTableRecord
100
AcDbLayerTableRecord
  2
_3851
 70
0
 62
7
  6
CONTINUOUS
370
-3
390
F
  0
LAYER
  5
334
100
AcDbSymbolTableRecord
100
AcDbLayerTableRecord
  2
_3855
 70
0
 62
7
  6
CONTINUOUS
370
-3
390
F
  0
LAYER
  5
335
100
AcDbSymbolTableRecord
100
AcDbLayerTableRecord
  2
_3858
 70
0
 62
7
  6
CONTINUOUS
370
-3
390
F
  0
LAYER
  5
336
100
AcDbSymbolTableRecord
100
AcDbLayerTableRecord
  2
_3863
 70
0
 62
7
  6
CONTINUOUS
370
-3
390
F
  0
LAYER
  5
337
100
AcDbSymbolTableRecord
100
AcDbLayerTableRecord
  2
_3866
 70
0
 62
7
  6
CONTINUOUS
370
-3
390
F
  0
LAYER
  5
338
100
AcDbSymbolTableRecord
100
AcDbLayerTableRecord
  2
_3870
 70
0
 62
7
  6
CONTINUOUS
370
-3
390
F
  0
LAYER
  5
339
100
AcDbSymbolTableRecord
100
AcDbLayerTableRecord
  2
_3889
 70
0
 62
7
  6
CONTINUOUS
370
-3
390
F
  0
LAYER
  5
33A
100
AcDbSymbolTableRecord
100
AcDbLayerTableRecord
  2
_3899
 70
0
 62
7
  6
CONTINUOUS
370
-3
390
F
  0
LAYER
  5
33B
100
AcDbSymbolTableRecord
100
AcDbLayerTableRecord
  2
_3907
 70
0
 62
7
  6
CONTINUOUS
370
-3
390
F
  0
LAYER
  5
33C
100
AcDbSymbolTableRecord
100
AcDbLayerTableRecord
  2
_3912
 70
0
 62
7
  6
CONTINUOUS
370
-3
390
F
  0
LAYER
  5
33D
100
AcDbSymbolTableRecord
100
AcDbLayerTableRecord
  2
_3918
 70
0
 62
7
  6
CONTINUOUS
370
-3
390
F
  0
LAYER
  5
33E
100
AcDbSymbolTableRecord
100
AcDbLayerTableRecord
  2
_3923
 70
0
 62
7
  6
CONTINUOUS
370
-3
390
F
  0
LAYER
  5
33F
100
AcDbSymbolTableRecord
100
AcDbLayerTableRecord
  2
_3928
 70
0
 62
7
  6
CONTINUOUS
370
-3
390
F
  0
LAYER
  5
340
100
AcDbSymbolTableRecord
100
AcDbLayerTableRecord
  2
_3932
 70
0
 62
7
  6
CONTINUOUS
370
-3
390
F
  0
LAYER
  5
341
100
AcDbSymbolTableRecord
100
AcDbLayerTableRecord
  2
_3935
 70
0
 62
7
  6
CONTINUOUS
370
-3
390
F
  0
LAYER
  5
342
100
AcDbSymbolTableRecord
100
AcDbLayerTableRecord
  2
_3939
 70
0
 62
7
  6
CONTINUOUS
370
-3
390
F
  0
LAYER
  5
343
100
AcDbSymbolTableRecord
100
AcDbLayerTableRecord
  2
_3944
 70
0
 62
7
  6
CONTINUOUS
370
-3
390
F
  0
LAYER
  5
344
100
AcDbSymbolTableRecord
100
AcDbLayerTableRecord
  2
_3948
 70
0
 62
7
  6
CONTINUOUS
370
-3
390
F
  0
LAYER
  5
345
100
AcDbSymbolTableRecord
100
AcDbLayerTableRecord
  2
_3954
 70
0
 62
7
  6
CONTINUOUS
370
-3
390
F
  0
LAYER
  5
346
100
AcDbSymbolTableRecord
100
AcDbLayerTableRecord
  2
_3959
 70
0
 62
7
  6
CONTINUOUS
370
-3
390
F
  0
LAYER
  5
347
100
AcDbSymbolTableRecord
100
AcDbLayerTableRecord
  2
_3964
 70
0
 62
7
  6
CONTINUOUS
370
-3
390
F
  0
LAYER
  5
348
100
AcDbSymbolTableRecord
100
AcDbLayerTableRecord
  2
_3968
 70
0
 62
7
  6
CONTINUOUS
370
-3
390
F
  0
LAYER
  5
349
100
AcDbSymbolTableRecord
100
AcDbLayerTableRecord
  2
_3973
 70
0
 62
7
  6
CONTINUOUS
370
-3
390
F
  0
LAYER
  5
34A
100
AcDbSymbolTableRecord
100
AcDbLayerTableRecord
  2
_3976
 70
0
 62
7
  6
CONTINUOUS
370
-3
390
F
  0
LAYER
  5
34B
100
AcDbSymbolTableRecord
100
AcDbLayerTableRecord
  2
_3979
 70
0
 62
7
  6
CONTINUOUS
370
-3
390
F
  0
LAYER
  5
34C
100
AcDbSymbolTableRecord
100
AcDbLayerTableRecord
  2
_3982
 70
0
 62
7
  6
CONTINUOUS
370
-3
390
F
  0
LAYER
  5
34D
100
AcDbSymbolTableRecord
100
AcDbLayerTableRecord
  2
_3986
 70
0
 62
7
  6
CONTINUOUS
370
-3
390
F
  0
LAYER
  5
34E
100
AcDbSymbolTableRecord
100
AcDbLayerTableRecord
  2
_3990
 70
0
 62
7
  6
CONTINUOUS
370
-3
390
F
  0
LAYER
  5
34F
100
AcDbSymbolTableRecord
100
AcDbLayerTableRecord
  2
_3994
 70
0
 62
7
  6
CONTINUOUS
370
-3
390
F
  0
LAYER
  5
350
100
AcDbSymbolTableRecord
100
AcDbLayerTableRecord
  2
_3998
 70
0
 62
7
  6
CONTINUOUS
370
-3
390
F
  0
LAYER
  5
351
100
AcDbSymbolTableRecord
100
AcDbLayerTableRecord
  2
_4003
 70
0
 62
7
  6
CONTINUOUS
370
-3
390
F
  0
LAYER
  5
352
100
AcDbSymbolTableRecord
100
AcDbLayerTableRecord
  2
_4008
 70
0
 62
7
  6
CONTINUOUS
370
-3
390
F
  0
LAYER
  5
353
100
AcDbSymbolTableRecord
100
AcDbLayerTableRecord
  2
_4013
 70
0
 62
7
  6
CONTINUOUS
370
-3
390
F
  0
LAYER
  5
354
100
AcDbSymbolTableRecord
100
AcDbLayerTableRecord
  2
_4019
 70
0
 62
7
  6
CONTINUOUS
370
-3
390
F
  0
LAYER
  5
355
100
AcDbSymbolTableRecord
100
AcDbLayerTableRecord
  2
_4025
 70
0
 62
7
  6
CONTINUOUS
370
-3
390
F
  0
LAYER
  5
356
100
AcDbSymbolTableRecord
100
AcDbLayerTableRecord
  2
_4030
 70
0
 62
7
  6
CONTINUOUS
370
-3
390
F
  0
LAYER
  5
357
100
AcDbSymbolTableRecord
100
AcDbLayerTableRecord
  2
_4037
 70
0
 62
7
  6
CONTINUOUS
370
-3
390
F
  0
LAYER
  5
358
100
AcDbSymbolTableRecord
100
AcDbLayerTableRecord
  2
_4043
 70
0
 62
7
  6
CONTINUOUS
370
-3
390
F
  0
LAYER
  5
359
100
AcDbSymbolTableRecord
100
AcDbLayerTableRecord
  2
_4048
 70
0
 62
7
  6
CONTINUOUS
370
-3
390
F
  0
LAYER
  5
35A
100
AcDbSymbolTableRecord
100
AcDbLayerTableRecord
  2
_4053
 70
0
 62
7
  6
CONTINUOUS
370
-3
390
F
  0
LAYER
  5
35B
100
AcDbSymbolTableRecord
100
AcDbLayerTableRecord
  2
_4056
 70
0
 62
7
  6
CONTINUOUS
370
-3
390
F
  0
LAYER
  5
35C
100
AcDbSymbolTableRecord
100
AcDbLayerTableRecord
  2
_4060
 70
0
 62
7
  6
CONTINUOUS
370
-3
390
F
  0
LAYER
  5
35D
100
AcDbSymbolTableRecord
100
AcDbLayerTableRecord
  2
_4064
 70
0
 62
7
  6
CONTINUOUS
370
-3
390
F
  0
LAYER
  5
35E
100
AcDbSymbolTableRecord
100
AcDbLayerTableRecord
  2
_4069
 70
0
 62
7
  6
CONTINUOUS
370
-3
390
F
  0
LAYER
  5
35F
100
AcDbSymbolTableRecord
100
AcDbLayerTableRecord
  2
_4076
 70
0
 62
7
  6
CONTINUOUS
370
-3
390
F
  0
LAYER
  5
360
100
AcDbSymbolTableRecord
100
AcDbLayerTableRecord
  2
_4084
 70
0
 62
7
  6
CONTINUOUS
370
-3
390
F
  0
LAYER
  5
361
100
AcDbSymbolTableRecord
100
AcDbLayerTableRecord
  2
_4092
 70
0
 62
7
  6
CONTINUOUS
370
-3
390
F
  0
LAYER
  5
362
100
AcDbSymbolTableRecord
100
AcDbLayerTableRecord
  2
_4099
 70
0
 62
7
  6
CONTINUOUS
370
-3
390
F
  0
LAYER
  5
363
100
AcDbSymbolTableRecord
100
AcDbLayerTableRecord
  2
_4105
 70
0
 62
7
  6
CONTINUOUS
370
-3
390
F
  0
LAYER
  5
364
100
AcDbSymbolTableRecord
100
AcDbLayerTableRecord
  2
_4111
 70
0
 62
7
  6
CONTINUOUS
370
-3
390
F
  0
LAYER
  5
365
100
AcDbSymbolTableRecord
100
AcDbLayerTableRecord
  2
_4115
 70
0
 62
7
  6
CONTINUOUS
370
-3
390
F
  0
LAYER
  5
366
100
AcDbSymbolTableRecord
100
AcDbLayerTableRecord
  2
_4119
 70
0
 62
7
  6
CONTINUOUS
370
-3
390
F
  0
LAYER
  5
367
100
AcDbSymbolTableRecord
100
AcDbLayerTableRecord
  2
_4124
 70
0
 62
7
  6
CONTINUOUS
370
-3
390
F
  0
LAYER
  5
368
100
AcDbSymbolTableRecord
100
AcDbLayerTableRecord
  2
_4127
 70
0
 62
7
  6
CONTINUOUS
370
-3
390
F
  0
LAYER
  5
369
100
AcDbSymbolTableRecord
100
AcDbLayerTableRecord
  2
_4132
 70
0
 62
7
  6
CONTINUOUS
370
-3
390
F
  0
LAYER
  5
36A
100
AcDbSymbolTableRecord
100
AcDbLayerTableRecord
  2
_4136
 70
0
 62
7
  6
CONTINUOUS
370
-3
390
F
  0
LAYER
  5
36B
100
AcDbSymbolTableRecord
100
AcDbLayerTableRecord
  2
_4140
 70
0
 62
7
  6
CONTINUOUS
370
-3
390
F
  0
LAYER
  5
36C
100
AcDbSymbolTableRecord
100
AcDbLayerTableRecord
  2
_4144
 70
0
 62
7
  6
CONTINUOUS
370
-3
390
F
  0
LAYER
  5
36D
100
AcDbSymbolTableRecord
100
AcDbLayerTableRecord
  2
_4149
 70
0
 62
7
  6
CONTINUOUS
370
-3
390
F
  0
LAYER
  5
36E
100
AcDbSymbolTableRecord
100
AcDbLayerTableRecord
  2
_4152
 70
0
 62
7
  6
CONTINUOUS
370
-3
390
F
  0
LAYER
  5
36F
100
AcDbSymbolTableRecord
100
AcDbLayerTableRecord
  2
_4158
 70
0
 62
7
  6
CONTINUOUS
370
-3
390
F
  0
LAYER
  5
370
100
AcDbSymbolTableRecord
100
AcDbLayerTableRecord
  2
_4162
 70
0
 62
7
  6
CONTINUOUS
370
-3
390
F
  0
LAYER
  5
371
100
AcDbSymbolTableRecord
100
AcDbLayerTableRecord
  2
_4165
 70
0
 62
7
  6
CONTINUOUS
370
-3
390
F
  0
LAYER
  5
372
100
AcDbSymbolTableRecord
100
AcDbLayerTableRecord
  2
_4168
 70
0
 62
7
  6
CONTINUOUS
370
-3
390
F
  0
LAYER
  5
373
100
AcDbSymbolTableRecord
100
AcDbLayerTableRecord
  2
_4171
 70
0
 62
7
  6
CONTINUOUS
370
-3
390
F
  0
LAYER
  5
374
100
AcDbSymbolTableRecord
100
AcDbLayerTableRecord
  2
_4178
 70
0
 62
7
  6
CONTINUOUS
370
-3
390
F
  0
LAYER
  5
375
100
AcDbSymbolTableRecord
100
AcDbLayerTableRecord
  2
_4181
 70
0
 62
7
  6
CONTINUOUS
370
-3
390
F
  0
LAYER
  5
376
100
AcDbSymbolTableRecord
100
AcDbLayerTableRecord
  2
_4187
 70
0
 62
7
  6
CONTINUOUS
370
-3
390
F
  0
LAYER
  5
377
100
AcDbSymbolTableRecord
100
AcDbLayerTableRecord
  2
_4191
 70
0
 62
7
  6
CONTINUOUS
370
-3
390
F
  0
LAYER
  5
378
100
AcDbSymbolTableRecord
100
AcDbLayerTableRecord
  2
_4193
 70
0
 62
7
  6
CONTINUOUS
370
-3
390
F
  0
LAYER
  5
379
100
AcDbSymbolTableRecord
100
AcDbLayerTableRecord
  2
_4197
 70
0
 62
7
  6
CONTINUOUS
370
-3
390
F
  0
LAYER
  5
37A
100
AcDbSymbolTableRecord
100
AcDbLayerTableRecord
  2
_4201
 70
0
 62
7
  6
CONTINUOUS
370
-3
390
F
  0
LAYER
  5
37B
100
AcDbSymbolTableRecord
100
AcDbLayerTableRecord
  2
_4204
 70
0
 62
7
  6
CONTINUOUS
370
-3
390
F
  0
LAYER
  5
37C
100
AcDbSymbolTableRecord
100
AcDbLayerTableRecord
  2
_4208
 70
0
 62
7
  6
CONTINUOUS
370
-3
390
F
  0
LAYER
  5
37D
100
AcDbSymbolTableRecord
100
AcDbLayerTableRecord
  2
_4212
 70
0
 62
7
  6
CONTINUOUS
370
-3
390
F
  0
LAYER
  5
37E
100
AcDbSymbolTableRecord
100
AcDbLayerTableRecord
  2
_4216
 70
0
 62
7
  6
CONTINUOUS
370
-3
390
F
  0
LAYER
  5
37F
100
AcDbSymbolTableRecord
100
AcDbLayerTableRecord
  2
_4220
 70
0
 62
7
  6
CONTINUOUS
370
-3
390
F
  0
LAYER
  5
380
100
AcDbSymbolTableRecord
100
AcDbLayerTableRecord
  2
_4223
 70
0
 62
7
  6
CONTINUOUS
370
-3
390
F
  0
LAYER
  5
381
100
AcDbSymbolTableRecord
100
AcDbLayerTableRecord
  2
_4226
 70
0
 62
7
  6
CONTINUOUS
370
-3
390
F
  0
LAYER
  5
382
100
AcDbSymbolTableRecord
100
AcDbLayerTableRecord
  2
_4229
 70
0
 62
7
  6
CONTINUOUS
370
-3
390
F
  0
LAYER
  5
383
100
AcDbSymbolTableRecord
100
AcDbLayerTableRecord
  2
_4236
 70
0
 62
7
  6
CONTINUOUS
370
-3
390
F
  0
LAYER
  5
384
100
AcDbSymbolTableRecord
100
AcDbLayerTableRecord
  2
_4242
 70
0
 62
7
  6
CONTINUOUS
370
-3
390
F
  0
LAYER
  5
385
100
AcDbSymbolTableRecord
100
AcDbLayerTableRecord
  2
_4247
 70
0
 62
7
  6
CONTINUOUS
370
-3
390
F
  0
LAYER
  5
386
100
AcDbSymbolTableRecord
100
AcDbLayerTableRecord
  2
_4251
 70
0
 62
7
  6
CONTINUOUS
370
-3
390
F
  0
LAYER
  5
387
100
AcDbSymbolTableRecord
100
AcDbLayerTableRecord
  2
_4256
 70
0
 62
7
  6
CONTINUOUS
370
-3
390
F
  0
LAYER
  5
388
100
AcDbSymbolTableRecord
100
AcDbLayerTableRecord
  2
_4263
 70
0
 62
7
  6
CONTINUOUS
370
-3
390
F
  0
LAYER
  5
389
100
AcDbSymbolTableRecord
100
AcDbLayerTableRecord
  2
_4268
 70
0
 62
7
  6
CONTINUOUS
370
-3
390
F
  0
LAYER
  5
38A
100
AcDbSymbolTableRecord
100
AcDbLayerTableRecord
  2
_4275
 70
0
 62
7
  6
CONTINUOUS
370
-3
390
F
  0
LAYER
  5
38B
100
AcDbSymbolTableRecord
100
AcDbLayerTableRecord
  2
_4279
 70
0
 62
7
  6
CONTINUOUS
370
-3
390
F
  0
LAYER
  5
38C
100
AcDbSymbolTableRecord
100
AcDbLayerTableRecord
  2
_4283
 70
0
 62
7
  6
CONTINUOUS
370
-3
390
F
  0
LAYER
  5
38D
100
AcDbSymbolTableRecord
100
AcDbLayerTableRecord
  2
_4286
 70
0
 62
7
  6
CONTINUOUS
370
-3
390
F
  0
LAYER
  5
38E
100
AcDbSymbolTableRecord
100
AcDbLayerTableRecord
  2
_4291
 70
0
 62
7
  6
CONTINUOUS
370
-3
390
F
  0
LAYER
  5
38F
100
AcDbSymbolTableRecord
100
AcDbLayerTableRecord
  2
_4297
 70
0
 62
7
  6
CONTINUOUS
370
-3
390
F
  0
LAYER
  5
390
100
AcDbSymbolTableRecord
100
AcDbLayerTableRecord
  2
_4302
 70
0
 62
7
  6
CONTINUOUS
370
-3
390
F
  0
LAYER
  5
391
100
AcDbSymbolTableRecord
100
AcDbLayerTableRecord
  2
_4319
 70
0
 62
7
  6
CONTINUOUS
370
-3
390
F
  0
LAYER
  5
392
100
AcDbSymbolTableRecord
100
AcDbLayerTableRecord
  2
_4322
 70
0
 62
7
  6
CONTINUOUS
370
-3
390
F
  0
LAYER
  5
393
100
AcDbSymbolTableRecord
100
AcDbLayerTableRecord
  2
_4327
 70
0
 62
7
  6
CONTINUOUS
370
-3
390
F
  0
LAYER
  5
394
100
AcDbSymbolTableRecord
100
AcDbLayerTableRecord
  2
_4332
 70
0
 62
7
  6
CONTINUOUS
370
-3
390
F
  0
LAYER
  5
395
100
AcDbSymbolTableRecord
100
AcDbLayerTableRecord
  2
_4336
 70
0
 62
7
  6
CONTINUOUS
370
-3
390
F
  0
LAYER
  5
396
100
AcDbSymbolTableRecord
100
AcDbLayerTableRecord
  2
_4340
 70
0
 62
7
  6
CONTINUOUS
370
-3
390
F
  0
LAYER
  5
397
100
AcDbSymbolTableRecord
100
AcDbLayerTableRecord
  2
_4343
 70
0
 62
7
  6
CONTINUOUS
370
-3
390
F
  0
LAYER
  5
398
100
AcDbSymbolTableRecord
100
AcDbLayerTableRecord
  2
_4350
 70
0
 62
7
  6
CONTINUOUS
370
-3
390
F
  0
LAYER
  5
399
100
AcDbSymbolTableRecord
100
AcDbLayerTableRecord
  2
_4355
 70
0
 62
7
  6
CONTINUOUS
370
-3
390
F
  0
LAYER
  5
39A
100
AcDbSymbolTableRecord
100
AcDbLayerTableRecord
  2
_4358
 70
0
 62
7
  6
CONTINUOUS
370
-3
390
F
  0
LAYER
  5
39B
100
AcDbSymbolTableRecord
100
AcDbLayerTableRecord
  2
_4360
 70
0
 62
7
  6
CONTINUOUS
370
-3
390
F
  0
LAYER
  5
39C
100
AcDbSymbolTableRecord
100
AcDbLayerTableRecord
  2
_4366
 70
0
 62
7
  6
CONTINUOUS
370
-3
390
F
  0
LAYER
  5
39D
100
AcDbSymbolTableRecord
100
AcDbLayerTableRecord
  2
_4372
 70
0
 62
7
  6
CONTINUOUS
370
-3
390
F
  0
LAYER
  5
39E
100
AcDbSymbolTableRecord
100
AcDbLayerTableRecord
  2
_4377
 70
0
 62
7
  6
CONTINUOUS
370
-3
390
F
  0
LAYER
  5
39F
100
AcDbSymbolTableRecord
100
AcDbLayerTableRecord
  2
_4381
 70
0
 62
7
  6
CONTINUOUS
370
-3
390
F
  0
LAYER
  5
3A0
100
AcDbSymbolTableRecord
100
AcDbLayerTableRecord
  2
_4386
 70
0
 62
7
  6
CONTINUOUS
370
-3
390
F
  0
LAYER
  5
3A1
100
AcDbSymbolTableRecord
100
AcDbLayerTableRecord
  2
_4391
 70
0
 62
7
  6
CONTINUOUS
370
-3
390
F
  0
LAYER
  5
3A2
100
AcDbSymbolTableRecord
100
AcDbLayerTableRecord
  2
_4396
 70
0
 62
7
  6
CONTINUOUS
370
-3
390
F
  0
LAYER
  5
3A3
100
AcDbSymbolTableRecord
100
AcDbLayerTableRecord
  2
_4402
 70
0
 62
7
  6
CONTINUOUS
370
-3
390
F
  0
LAYER
  5
3A4
100
AcDbSymbolTableRecord
100
AcDbLayerTableRecord
  2
_4406
 70
0
 62
7
  6
CONTINUOUS
370
-3
390
F
  0
LAYER
  5
3A5
100
AcDbSymbolTableRecord
100
AcDbLayerTableRecord
  2
_4410
 70
0
 62
7
  6
CONTINUOUS
370
-3
390
F
  0
LAYER
  5
3A6
100
AcDbSymbolTableRecord
100
AcDbLayerTableRecord
  2
_4416
 70
0
 62
7
  6
CONTINUOUS
370
-3
390
F
  0
LAYER
  5
3A7
100
AcDbSymbolTableRecord
100
AcDbLayerTableRecord
  2
_4647
 70
0
 62
7
  6
CONTINUOUS
370
-3
390
F
  0
LAYER
  5
3A8
100
AcDbSymbolTableRecord
100
AcDbLayerTableRecord
  2
_7163
 70
0
 62
7
  6
CONTINUOUS
370
-3
390
F
  0
LAYER
  5
3A9
100
AcDbSymbolTableRecord
100
AcDbLayerTableRecord
  2
_7168
 70
0
 62
7
  6
CONTINUOUS
370
-3
390
F
  0
LAYER
  5
3AA
100
AcDbSymbolTableRecord
100
AcDbLayerTableRecord
  2
___SHELL
 70
0
 62
7
  6
CONTINUOUS
370
-3
390
F
  0
ENDTAB
  0
TABLE
  2
STYLE
  5
3
100
AcDbSymbolTable
 70
1
  0
STYLE
  5
11
100
AcDbSymbolTableRecord
100
AcDbTextStyleTableRecord
  2
STANDARD
 70
0
 40
0.0
 41
0.8
 50
0.0
 71
0
 42
0.2
  3
txt
  4

  0
STYLE
  5
3AB
100
AcDbSymbolTableRecord
100
AcDbTextStyleTableRecord
  2
TEXTSTYLE_1
 70
0
 40
0.0
 41
0.8
 50
0.0
 71
0
 42
0.2
  3
gdt
  4

  0
ENDTAB
  0
TABLE
  2
VIEW
  5
6
100
AcDbSymbolTable
 70
0
  0
ENDTAB
  0
TABLE
  2
UCS
  5
7
100
AcDbSymbolTable
 70
0
  0
ENDTAB
  0
TABLE
  2
APPID
  5
9
100
AcDbSymbolTable
 70
1
  0
APPID
  5
3AC
100
AcDbSymbolTableRecord
100
AcDbRegAppTableRecord
  2
ACAD
 70
0
  0
ENDTAB
  0
TABLE
  2
BLOCK_RECORD
  5
1
100
AcDbSymbolTable
 70
0
  0
BLOCK_RECORD
  5
3AD
100
AcDbSymbolTableRecord
100
AcDbBlockTableRecord
  2
*Model_Space
  0
BLOCK_RECORD
  5
3AE
100
AcDbSymbolTableRecord
100
AcDbBlockTableRecord
  2
*Paper_Space
  0
BLOCK_RECORD
  5
3AF
100
AcDbSymbolTableRecord
100
AcDbBlockTableRecord
  2
_FILLED
  0
BLOCK_RECORD
  5
3B0
100
AcDbSymbolTableRecord
100
AcDbBlockTableRecord
  2
*D0
  0
BLOCK_RECORD
  5
3B1
100
AcDbSymbolTableRecord
100
AcDbBlockTableRecord
  2
*D1
  0
BLOCK_RECORD
  5
3B2
100
AcDbSymbolTableRecord
100
AcDbBlockTableRecord
  2
*D2
  0
BLOCK_RECORD
  5
3B3
100
AcDbSymbolTableRecord
100
AcDbBlockTableRecord
  2
*D3
  0
ENDTAB
  0
TABLE
  2
DIMSTYLE
  5
A
100
AcDbSymbolTable
 70
1
100
AcDbDimStyleTable
 71
0
  0
DIMSTYLE
105
3B4
100
AcDbSymbolTableRecord
100
AcDbDimStyleTableRecord
  2
STANDARD
 70
0
  3

  4

 40
1.0
 41
3.0
 42
0.5
 43
0.38
 44
1.5
 45
0.0
 46
0.0
 47
0.01
 48
0.01
140
3.0
141
0.09
142
0.0
143
25.4
144
1.0
145
0.0
146
1.0
147
0.625
 71
1.0
 72
0.0
 73
0
 74
0
 75
0
 76
0
 77
1
 78
8
170
0
171
2
172
0
173
0
174
0
175
0
176
0
177
0
178
0
270
2
271
2
272
2
273
2
274
2
275
0
280
0
281
0
282
0
283
1
284
8
285
0
286
0
287
3
288
0
340
11
278
44
341
3AF
342
3AF
343
3AF
344
3AF
  0
DIMSTYLE
105
3B5
100
AcDbSymbolTableRecord
100
AcDbDimStyleTableRecord
  2
DIMSTYLE_1
 70
0
  3

  4

 40
1.0
 41
3.0
 42
0.5
 43
0.38
 44
1.5
 45
0.0
 46
0.0
 47
0.0
 48
0.0
140
3.0
141
0.09
142
0.0
143
25.4
144
1.0
145
0.0
146
1.0
147
0.75
 71
0.0
 72
0.0
 73
0
 74
0
 75
0
 76
0
 77
1
 78
8
170
0
171
2
172
0
173
0
174
0
175
0
176
0
177
0
178
0
270
2
271
2
272
2
273
2
274
2
275
0
280
0
281
0
282
0
283
1
284
8
285
0
286
0
287
3
288
0
340
11
278
44
341
3AF
342
3AF
343
3AF
344
3AF
  0
ENDTAB
  0
ENDSEC
  0
SECTION
  2
BLOCKS
  0
BLOCK
  5
20
100
AcDbEntity
  8
0
100
AcDbBlockBegin
  2
*Model_Space
 70
0
 10
0.0
 20
0.0
 30
0.0
  3
*Model_Space
  1

  0
ENDBLK
  5
21
100
AcDbEntity
  8
0
100
AcDbBlockEnd
  0
BLOCK
  5
1C
100
AcDbEntity
  8
0
100
AcDbBlockBegin
  2
*Paper_Space
 70
0
 10
0.0
 20
0.0
 30
0.0
  3
*Paper_Space
  1

  0
ENDBLK
  5
1D
100
AcDbEntity
  8
0
100
AcDbBlockEnd
  0
BLOCK
  5
3B6
100
AcDbEntity
  8
0
100
AcDbBlockBegin
  2
_FILLED
 70
64
 10
0.0
 20
0.0
  3
_FILLED
  1

  0
SOLID
  5
3B7
100
AcDbEntity
  8
0
  6
BYBLOCK
 62
0
100
AcDbTrace
 10
0.0
 20
0.0
 11
-1.0
 21
0.3166666667
 12
-1.0
 22
-0.3166666667
 13
-1.0
 23
-0.3166666667
  0
ENDBLK
  5
3B8
100
AcDbEntity
  8
0
  6
BYBLOCK
 62
0
100
AcDbBlockEnd
  0
BLOCK
  5
3B9
100
AcDbEntity
  8
0
100
AcDbBlockBegin
 62
7
  6
CONTINUOUS
  2
*D0
 70
65
 10
0.0
 20
0.0
  3
*D0
  1

  0
MTEXT
  5
3BA
100
AcDbEntity
  8
0
100
AcDbMText
 62
7
  6
CONTINUOUS
  7
STANDARD
 71
2
 72
1
 10
87.8158799526
 20
148.0517986799
 30
0.0
 11
1.0
 21
0.0
 31
0.0
 44
0.9
  1
12,2
 40
3.0
 41
12.2142857143
  0
LINE
  5
3BB
100
AcDbEntity
  8
0
100
AcDbLine
 62
7
  6
CONTINUOUS
 10
81.7158799526
 20
113.0778064959
 11
81.7158799526
 21
145.8017986799
  0
LINE
  5
3BC
100
AcDbEntity
  8
0
100
AcDbLine
 62
7
  6
CONTINUOUS
 10
93.9158799526
 20
135.0299854231
 11
93.9158799526
 21
145.8017986799
  0
LINE
  5
3BD
100
AcDbEntity
  8
0
100
AcDbLine
 62
7
  6
CONTINUOUS
 10
81.7158799526
 20
144.3017986799
 11
87.8158799526
 21
144.3017986799
  0
LINE
  5
3BE
100
AcDbEntity
  8
0
100
AcDbLine
 62
7
  6
CONTINUOUS
 10
93.9158799526
 20
144.3017986799
 11
87.8158799526
 21
144.3017986799
  0
INSERT
  5
3BF
100
AcDbEntity
  8
0
100
AcDbBlockReference
 62
7
  6
CONTINUOUS
  2
_FILLED
 10
81.7158799526
 20
144.3017986799
 41
3.0
 42
3.0
 43
3.0
 50
180.0
  0
INSERT
  5
3C0
100
AcDbEntity
  8
0
100
AcDbBlockReference
 62
7
  6
CONTINUOUS
  2
_FILLED
 10
93.9158799526
 20
144.3017986799
 41
3.0
 42
3.0
 43
3.0
  0
ENDBLK
  5
3C1
100
AcDbEntity
  8
0
  6
BYBLOCK
 62
0
100
AcDbBlockEnd
  0
BLOCK
  5
3C2
100
AcDbEntity
  8
0
100
AcDbBlockBegin
 62
7
  6
CONTINUOUS
  2
*D1
 70
65
 10
0.0
 20
0.0
  3
*D1
  1

  0
MTEXT
  5
3C3
100
AcDbEntity
  8
0
100
AcDbMText
 62
7
  6
CONTINUOUS
  7
STANDARD
 71
2
 72
1
 10
105.8138837987
 20
155.683434443
 30
0.0
 11
1.0
 21
0.0
 31
0.0
 44
0.9
  1
48,2
 40
3.0
 41
13.1785714286
  0
LINE
  5
3C4
100
AcDbEntity
  8
0
100
AcDbLine
 62
7
  6
CONTINUOUS
 10
129.9118886211
 20
130.9463236421
 11
129.9118882572
 21
153.4334348329
  0
LINE
  5
3C5
100
AcDbEntity
  8
0
100
AcDbLine
 62
7
  6
CONTINUOUS
 10
81.7158799445
 20
113.0778064959
 11
81.7158792916
 21
153.4334340531
  0
LINE
  5
3C6
100
AcDbEntity
  8
0
100
AcDbLine
 62
7
  6
CONTINUOUS
 10
129.9118882815
 20
151.9334348329
 11
105.8138837987
 21
151.933434443
  0
LINE
  5
3C7
100
AcDbEntity
  8
0
100
AcDbLine
 62
7
  6
CONTINUOUS
 10
81.7158793158
 20
151.9334340531
 11
105.8138837987
 21
151.933434443
  0
INSERT
  5
3C8
100
AcDbEntity
  8
0
100
AcDbBlockReference
 62
7
  6
CONTINUOUS
  2
_FILLED
 10
129.9118882815
 20
151.9334348329
 41
3.0
 42
3.0
 43
3.0
 50
0.0000009271
  0
INSERT
  5
3C9
100
AcDbEntity
  8
0
100
AcDbBlockReference
 62
7
  6
CONTINUOUS
  2
_FILLED
 10
81.7158793158
 20
151.9334340531
 41
3.0
 42
3.0
 43
3.0
 50
180.0000009271
  0
ENDBLK
  5
3CA
100
AcDbEntity
  8
0
  6
BYBLOCK
 62
0
100
AcDbBlockEnd
  0
BLOCK
  5
3CB
100
AcDbEntity
  8
0
100
AcDbBlockBegin
 62
7
  6
CONTINUOUS
  2
*D2
 70
65
 10
0.0
 20
0.0
  3
*D2
  1

  0
MTEXT
  5
3CC
100
AcDbEntity
  8
0
100
AcDbMText
 62
7
  6
CONTINUOUS
  7
STANDARD
 71
2
 72
1
 10
184.5360608057
 20
148.5650730563
 30
0.0
 11
1.0
 21
0.0
 31
0.0
 44
0.9
  1
44,8
 40
3.0
 41
13.1785714286
  0
LINE
  5
3CD
100
AcDbEntity
  8
0
100
AcDbLine
 62
7
  6
CONTINUOUS
 10
162.1360608057
 20
135.0299854231
 11
162.1360608057
 21
146.3150730563
  0
LINE
  5
3CE
100
AcDbEntity
  8
0
100
AcDbLine
 62
7
  6
CONTINUOUS
 10
206.9360608057
 20
135.0299854231
 11
206.9360608057
 21
146.3150730563
  0
LINE
  5
3CF
100
AcDbEntity
  8
0
100
AcDbLine
 62
7
  6
CONTINUOUS
 10
162.1360608057
 20
144.8150730563
 11
184.5360608057
 21
144.8150730563
  0
LINE
  5
3D0
100
AcDbEntity
  8
0
100
AcDbLine
 62
7
  6
CONTINUOUS
 10
206.9360608057
 20
144.8150730563
 11
184.5360608057
 21
144.8150730563
  0
INSERT
  5
3D1
100
AcDbEntity
  8
0
100
AcDbBlockReference
 62
7
  6
CONTINUOUS
  2
_FILLED
 10
162.1360608057
 20
144.8150730563
 41
3.0
 42
3.0
 43
3.0
 50
180.0
  0
INSERT
  5
3D2
100
AcDbEntity
  8
0
100
AcDbBlockReference
 62
7
  6
CONTINUOUS
  2
_FILLED
 10
206.9360608057
 20
144.8150730563
 41
3.0
 42
3.0
 43
3.0
  0
ENDBLK
  5
3D3
100
AcDbEntity
  8
0
  6
BYBLOCK
 62
0
100
AcDbBlockEnd
  0
BLOCK
  5
3D4
100
AcDbEntity
  8
0
100
AcDbBlockBegin
 62
7
  6
CONTINUOUS
  2
*D3
 70
65
 10
0.0
 20
0.0
  3
*D3
  1

  0
MTEXT
  5
3D5
100
AcDbEntity
  8
0
100
AcDbMText
 62
7
  6
CONTINUOUS
  7
STANDARD
 71
2
 72
1
 10
214.1136284321
 20
112.5778064959
 30
0.0
 11
0.0
 21
1.0
 31
0.0
 44
0.9
  1
49
 40
3.0
 41
7.0714285714
  0
LINE
  5
3D6
100
AcDbEntity
  8
0
100
AcDbLine
 62
7
  6
CONTINUOUS
 10
206.6860575955
 20
137.0778064959
 11
219.3636284321
 21
137.0778064959
  0
LINE
  5
3D7
100
AcDbEntity
  8
0
100
AcDbLine
 62
7
  6
CONTINUOUS
 10
206.6860575955
 20
88.0778064959
 11
219.3636284321
 21
88.0778064959
  0
LINE
  5
3D8
100
AcDbEntity
  8
0
100
AcDbLine
 62
7
  6
CONTINUOUS
 10
217.8636284321
 20
137.0778064959
 11
217.8636284321
 21
112.5778064959
  0
LINE
  5
3D9
100
AcDbEntity
  8
0
100
AcDbLine
 62
7
  6
CONTINUOUS
 10
217.8636284321
 20
88.0778064959
 11
217.8636284321
 21
112.5778064959
  0
INSERT
  5
3DA
100
AcDbEntity
  8
0
100
AcDbBlockReference
 62
7
  6
CONTINUOUS
  2
_FILLED
 10
217.8636284321
 20
137.0778064959
 41
3.0
 42
3.0
 43
3.0
 50
90.0
  0
INSERT
  5
3DB
100
AcDbEntity
  8
0
100
AcDbBlockReference
 62
7
  6
CONTINUOUS
  2
_FILLED
 10
217.8636284321
 20
88.0778064959
 41
3.0
 42
3.0
 43
3.0
 50
270.0
  0
ENDBLK
  5
3DC
100
AcDbEntity
  8
0
  6
BYBLOCK
 62
0
100
AcDbBlockEnd
  0
ENDSEC
  0
SECTION
  2
ENTITIES
  0
DIMENSION
  5
3DD
100
AcDbEntity
  8
0
100
AcDbDimension
 62
7
  6
CONTINUOUS
  2
*D0
 10
93.9158799526
 20
144.3017986799
 11
87.8158799526
 21
144.3017986799
 70
160
 71
2
 42
12.2
  3
DIMSTYLE_1
100
AcDbAlignedDimension
 13
81.7158799526
 23
112.5778064959
 14
93.9158799526
 24
134.5299854231
100
AcDbRotatedDimension
  0
DIMENSION
  5
3DE
100
AcDbEntity
  8
0
100
AcDbDimension
 62
7
  6
CONTINUOUS
  2
*D1
 10
81.7158793158
 20
151.9334340531
 11
105.8138838351
 21
151.933434443
 70
160
 71
2
 42
48.1960089657
  3
DIMSTYLE_1
100
AcDbAlignedDimension
 13
129.9118886292
 23
130.4463236421
 14
81.7158799526
 24
112.5778064959
 50
180.0000009271
100
AcDbRotatedDimension
  0
DIMENSION
  5
3DF
100
AcDbEntity
  8
0
100
AcDbDimension
 62
7
  6
CONTINUOUS
  2
*D2
 10
206.9360608057
 20
144.8150730563
 11
184.5360608057
 21
144.8150730563
 70
160
 71
2
 42
44.8
  3
DIMSTYLE_1
100
AcDbAlignedDimension
 13
162.1360608057
 23
134.5299854231
 14
206.9360608057
 24
134.5299854231
100
AcDbRotatedDimension
  0
DIMENSION
  5
3E0
100
AcDbEntity
  8
0
100
AcDbDimension
 62
7
  6
CONTINUOUS
  2
*D3
 10
217.8636284321
 20
88.0778064959
 11
217.8636284321
 21
112.5778064959
 70
160
 71
2
 42
49.0
  3
DIMSTYLE_1
100
AcDbAlignedDimension
 13
206.1860575955
 23
137.0778064959
 14
206.1860575955
 24
88.0778064959
 50
270.0
100
AcDbRotatedDimension
  0
LINE
  5
3E1
100
AcDbEntity
  8
0
100
AcDbLine
 62
253
  6
CONTINUOUS
 10
164.7860576201
 20
137.0778064959
 11
164.7664158336
 21
137.0581520045
  0
LINE
  5
3E2
100
AcDbEntity
  8
0
100
AcDbLine
 62
7
  6
CONTINUOUS
 10
162.6347794086
 20
134.9852519665
 11
162.6360608057
 21
134.9865333636
  0
LINE
  5
3E3
100
AcDbEntity
  8
0
100
AcDbLine
 62
7
  6
CONTINUOUS
 10
162.6347794086
 20
90.1703610252
 11
162.6360608057
 21
90.1690796281
  0
LINE
  5
3E4
100
AcDbEntity
  8
0
100
AcDbLine
 62
253
  6
CONTINUOUS
 10
164.7860576201
 20
88.0778064959
 11
164.7664158336
 21
88.0974609872
  0
LINE
  5
3E5
100
AcDbEntity
  8
0
100
AcDbLine
 62
253
  6
CONTINUOUS
 10
165.0360608057
 20
136.8278033102
 11
165.0164063144
 21
136.8081615237
  0
LWPOLYLINE
  5
3E6
100
AcDbEntity
  8
0
100
AcDbPolyline
 62
253
  6
CONTINUOUS
 90
14
 70
0
 10
162.3033877667
 20
133.1197123523
 10
162.3069680974
 20
133.1218382296
 10
162.3158663877
 20
133.1239413255
 10
162.3299872987
 20
133.1259991068
 10
162.3491795352
 20
133.1279895258
 10
162.3732374662
 20
133.1298912567
 10
162.4019033285
 20
133.1316839238
 10
162.4348699881
 20
133.1333483198
 10
162.4717842311
 20
133.1348666121
 10
162.5122505482
 20
133.1362225332
 10
162.5558353721
 20
133.1374015554
 10
162.6020717229
 20
133.1383910463
 10
162.6504642118
 20
133.1391804045
 10
162.7004943483
 20
133.1397611727
  0
LWPOLYLINE
  5
3E7
100
AcDbEntity
  8
0
100
AcDbPolyline
 62
253
  6
CONTINUOUS
 90
16
 70
0
 10
162.3033877666
 20
92.0359006394
 10
162.3069672702
 20
92.0337747287
 10
162.3158648605
 20
92.0316715961
 10
162.329985204
 20
92.0296137757
 10
162.3491770082
 20
92.0276233159
 10
162.3732346424
 20
92.0257215436
 10
162.4019003407
 20
92.0239288353
 10
162.4348669643
 20
92.0222643991
 10
162.4717812919
 20
92.0207460684
 10
162.5122478046
 20
92.0193901116
 10
162.5558329234
 20
92.0182110571
 10
162.6020696553
 20
92.0172215377
 10
162.6504625962
 20
92.0164321557
 10
162.7004932395
 20
92.0158513691
 10
162.7516255313
 20
92.0154854005
 10
206.2688099972
 20
92.015338171
  0
LINE
  5
3E8
100
AcDbEntity
  8
0
100
AcDbLine
 62
253
  6
CONTINUOUS
 10
165.0360608057
 20
88.3278096815
 11
165.0164063144
 21
88.347451468
  0
LWPOLYLINE
  5
3E9
100
AcDbEntity
  8
0
100
AcDbPolyline
 62
7
  6
CONTINUOUS
 90
9
 70
0
 10
162.6445872876
 20
136.8925007279
 10
162.6550995802
 20
136.9234666235
 10
162.6695637567
 20
136.9527957491
 10
162.687732323
 20
136.9799862593
 10
162.7092943999
 20
137.0045729017
 10
162.7338810423
 20
137.0261349786
 10
162.7610715525
 20
137.0443035449
 10
162.7904006781
 20
137.0587677214
 10
162.8213665736
 20
137.069280014
  0
LWPOLYLINE
  5
3EA
100
AcDbEntity
  8
0
100
AcDbPolyline
 62
7
  6
CONTINUOUS
 90
3
 70
0
 10
162.8213665736
 20
88.0863329777
 10
162.8534393868
 20
88.079952443
 10
162.8860703253
 20
88.0778128425
  0
LWPOLYLINE
  5
3EB
100
AcDbEntity
  8
0
100
AcDbPolyline
 62
7
  6
CONTINUOUS
 90
9
 70
0
 10
162.6445872876
 20
88.2631122638
 10
162.6550995802
 20
88.2321463683
 10
162.6695637567
 20
88.2028172426
 10
162.687732323
 20
88.1756267325
 10
162.7092943999
 20
88.15104009
 10
162.7338810423
 20
88.1294780131
 10
162.7610715525
 20
88.1113094468
 10
162.7904006781
 20
88.0968452703
 10
162.8213665736
 20
88.0863329777
  0
LWPOLYLINE
  5
3EC
100
AcDbEntity
  8
0
100
AcDbPolyline
 62
7
  6
CONTINUOUS
 90
3
 70
0
 10
206.1860512861
 20
88.0778128425
 10
206.2186822246
 20
88.079952443
 10
206.2507550378
 20
88.0863329777
  0
LWPOLYLINE
  5
3ED
100
AcDbEntity
  8
0
100
AcDbPolyline
 62
7
  6
CONTINUOUS
 90
3
 70
0
 10
187.2860512861
 20
88.0778128425
 10
187.3186822246
 20
88.079952443
 10
187.3507550378
 20
88.0863329777
  0
LWPOLYLINE
  5
3EE
100
AcDbEntity
  8
0
100
AcDbPolyline
 62
7
  6
CONTINUOUS
 90
3
 70
0
 10
183.6860512861
 20
88.0778128425
 10
183.7186822246
 20
88.079952443
 10
183.7507550378
 20
88.0863329777
  0
LWPOLYLINE
  5
3EF
100
AcDbEntity
  8
0
100
AcDbPolyline
 62
7
  6
CONTINUOUS
 90
16
 70
0
 10
206.1664158336
 20
88.0974609872
 10
206.1919728406
 20
88.0987727357
 10
206.2173967465
 20
88.1027183752
 10
206.24241177
 20
88.1092979427
 10
206.2667550989
 20
88.118489084
 10
206.2901309839
 20
88.1302287503
 10
206.3122221221
 20
88.144396654
 10
206.3327894008
 20
88.160876151
 10
206.3515653693
 20
88.1794926826
 10
206.3682456212
 20
88.1999542026
 10
206.3826249694
 20
88.2219735093
 10
206.3945946853
 20
88.2453431746
 10
206.4040494005
 20
88.2698452853
 10
206.4108862495
 20
88.2952258835
 10
206.4150211304
 20
88.3211902314
 10
206.4164063144
 20
88.347451468
  0
LWPOLYLINE
  5
3F0
100
AcDbEntity
  8
0
100
AcDbPolyline
 62
7
  6
CONTINUOUS
 90
16
 70
0
 10
187.2664158336
 20
88.0974609872
 10
187.2919728406
 20
88.0987727357
 10
187.3173967465
 20
88.1027183752
 10
187.34241177
 20
88.1092979427
 10
187.3667550989
 20
88.118489084
 10
187.3901309839
 20
88.1302287503
 10
187.4122221221
 20
88.144396654
 10
187.4327894008
 20
88.160876151
 10
187.4515653693
 20
88.1794926826
 10
187.4682456212
 20
88.1999542026
 10
187.4826249694
 20
88.2219735093
 10
187.4945946853
 20
88.2453431746
 10
187.5040494005
 20
88.2698452853
 10
187.5108862495
 20
88.2952258835
 10
187.5150211304
 20
88.3211902314
 10
187.5164063144
 20
88.347451468
  0
LWPOLYLINE
  5
3F1
100
AcDbEntity
  8
0
100
AcDbPolyline
 62
7
  6
CONTINUOUS
 90
16
 70
0
 10
183.6664158336
 20
88.0974609872
 10
183.6919728406
 20
88.0987727357
 10
183.7173967465
 20
88.1027183752
 10
183.74241177
 20
88.1092979427
 10
183.7667550989
 20
88.118489084
 10
183.7901309839
 20
88.1302287503
 10
183.8122221221
 20
88.144396654
 10
183.8327894008
 20
88.160876151
 10
183.8515653693
 20
88.1794926826
 10
183.8682456212
 20
88.1999542026
 10
183.8826249694
 20
88.2219735093
 10
183.8945946853
 20
88.2453431746
 10
183.9040494005
 20
88.2698452853
 10
183.9108862495
 20
88.2952258835
 10
183.9150211304
 20
88.3211902314
 10
183.9164063144
 20
88.347451468
  0
LINE
  5
3F2
100
AcDbEntity
  8
0
100
AcDbLine
 62
7
  6
CONTINUOUS
 10
206.1860575955
 20
88.0778064959
 11
204.2860640159
 21
88.0778064959
  0
LINE
  5
3F3
100
AcDbEntity
  8
0
100
AcDbLine
 62
7
  6
CONTINUOUS
 10
187.2860575955
 20
88.0778064959
 11
185.3860640159
 21
88.0778064959
  0
LINE
  5
3F4
100
AcDbEntity
  8
0
100
AcDbLine
 62
7
  6
CONTINUOUS
 10
183.6860575955
 20
88.0778064959
 11
181.7860640159
 21
88.0778064959
  0
LINE
  5
3F5
100
AcDbEntity
  8
0
100
AcDbLine
 62
7
  6
CONTINUOUS
 10
164.7860575955
 20
88.0778064959
 11
162.8860640159
 21
88.0778064959
  0
LINE
  5
3F6
100
AcDbEntity
  8
0
100
AcDbLine
 62
7
  6
CONTINUOUS
 10
162.9057057778
 20
88.0974609872
 11
164.7664158336
 21
88.0974609872
  0
LINE
  5
3F7
100
AcDbEntity
  8
0
100
AcDbLine
 62
7
  6
CONTINUOUS
 10
181.8057057778
 20
88.0974609872
 11
183.6664158336
 21
88.0974609872
  0
LINE
  5
3F8
100
AcDbEntity
  8
0
100
AcDbLine
 62
7
  6
CONTINUOUS
 10
185.4057057778
 20
88.0974609872
 11
187.2664158336
 21
88.0974609872
  0
LINE
  5
3F9
100
AcDbEntity
  8
0
100
AcDbLine
 62
7
  6
CONTINUOUS
 10
204.3057057778
 20
88.0974609872
 11
206.1664158336
 21
88.0974609872
  0
LWPOLYLINE
  5
3FA
100
AcDbEntity
  8
0
100
AcDbPolyline
 62
253
  6
CONTINUOUS
 90
16
 70
0
 10
164.7664158336
 20
88.9499752795
 10
164.7922808887
 20
88.9487156116
 10
164.8179147794
 20
88.945136967
 10
164.8430390741
 20
88.9392653045
 10
164.8673858258
 20
88.9311488811
 10
164.8906773953
 20
88.9208653708
 10
164.9126333494
 20
88.9085279344
 10
164.9330120611
 20
88.8942645519
 10
164.9515838649
 20
88.8782275564
 10
164.9681210739
 20
88.8606109929
 10
164.9824368341
 20
88.8416214052
 10
164.9943879497
 20
88.8214573831
 10
165.0038514635
 20
88.8003273318
 10
165.0107232697
 20
88.778457063
 10
165.0149241837
 20
88.7560894458
 10
165.0164063144
 20
88.7334689286
  0
LWPOLYLINE
  5
3FB
100
AcDbEntity
  8
0
100
AcDbPolyline
 62
7
  6
CONTINUOUS
 90
3
 70
0
 10
181.7213665736
 20
88.0863329777
 10
181.7534393868
 20
88.079952443
 10
181.7860703253
 20
88.0778128425
  0
LWPOLYLINE
  5
3FC
100
AcDbEntity
  8
0
100
AcDbPolyline
 62
7
  6
CONTINUOUS
 90
3
 70
0
 10
162.6360671523
 20
88.3278160155
 10
162.6382067529
 20
88.295185077
 10
162.6445872876
 20
88.2631122638
  0
LWPOLYLINE
  5
3FD
100
AcDbEntity
  8
0
100
AcDbPolyline
 62
253
  6
CONTINUOUS
 90
16
 70
0
 10
162.286860996
 20
91.0783960413
 10
162.2896440663
 20
91.0262344674
 10
162.2978674434
 20
90.9746435847
 10
162.3114411753
 20
90.9241879682
 10
162.3302167576
 20
90.8754197779
 10
162.3539887599
 20
90.8288727099
 10
162.3824970755
 20
90.7850561568
 10
162.4154297665
 20
90.7444496356
 10
162.4524264626
 20
90.7074975557
 10
162.4930823018
 20
90.6746043436
 10
162.5369523933
 20
90.6461299902
 10
162.5835566525
 20
90.6223861418
 10
162.6323850296
 20
90.6036326877
 10
162.6829031542
 20
90.5900748811
 10
162.7345581907
 20
90.5818611069
 10
162.7867848435
 20
90.5790812738
  0
LWPOLYLINE
  5
3FE
100
AcDbEntity
  8
0
100
AcDbPolyline
 62
7
  6
CONTINUOUS
 90
16
 70
0
 10
162.6557152971
 20
88.347451468
 10
162.6571004811
 20
88.3211902314
 10
162.661235362
 20
88.2952258835
 10
162.668072211
 20
88.2698452853
 10
162.6775269262
 20
88.2453431746
 10
162.689496642
 20
88.2219735094
 10
162.7038759902
 20
88.1999542027
 10
162.720556242
 20
88.1794926826
 10
162.7393322106
 20
88.1608761511
 10
162.7598994893
 20
88.144396654
 10
162.7819906276
 20
88.1302287503
 10
162.8053665125
 20
88.118489084
 10
162.8297098415
 20
88.1092979427
 10
162.854724865
 20
88.1027183751
 10
162.8801487708
 20
88.0987727357
 10
162.9057057778
 20
88.0974609872
  0
LINE
  5
3FF
100
AcDbEntity
  8
0
100
AcDbLine
 62
253
  6
CONTINUOUS
 10
162.6557152971
 20
88.7334689286
 11
162.6469884293
 21
89.3108191977
  0
LINE
  5
400
100
AcDbEntity
  8
0
100
AcDbLine
 62
253
  6
CONTINUOUS
 10
162.3032931605
 20
133.1901185454
 11
162.3020742643
 21
133.4610907659
  0
LINE
  5
401
100
AcDbEntity
  8
0
100
AcDbLine
 62
253
  6
CONTINUOUS
 10
162.3099441114
 20
119.4268307975
 11
162.3032931605
 21
133.1901185454
  0
LINE
  5
402
100
AcDbEntity
  8
RACCORDO
100
AcDbLine
 62
7
  6
CONTINUOUS
 10
162.1360608057
 20
94.4561074471
 11
162.1360608057
 21
130.6995055446
  0
LINE
  5
403
100
AcDbEntity
  8
ASSI
100
AcDbLine
 62
7
  6
CONTINUOUS
 10
162.1360608057
 20
94.4561074471
 11
162.1360608057
 21
130.6995055446
  0
LINE
  5
404
100
AcDbEntity
  8
0
100
AcDbLine
 62
7
  6
CONTINUOUS
 10
162.1360608057
 20
90.6256275686
 11
162.1360608057
 21
134.5299854231
  0
LINE
  5
405
100
AcDbEntity
  8
0
100
AcDbLine
 62
253
  6
CONTINUOUS
 10
162.310672592
 20
110.2945976676
 11
162.3099441114
 21
119.4268307975
  0
LINE
  5
406
100
AcDbEntity
  8
0
100
AcDbLine
 62
253
  6
CONTINUOUS
 10
162.3084871435
 20
101.163903534
 11
162.310672592
 21
110.2945976676
  0
LINE
  5
407
100
AcDbEntity
  8
0
100
AcDbLine
 62
253
  6
CONTINUOUS
 10
162.302853628
 20
91.8282151926
 11
162.3084871435
 21
101.163903534
  0
LINE
  5
408
100
AcDbEntity
  8
0
100
AcDbLine
 62
253
  6
CONTINUOUS
 10
162.3020753454
 20
91.6946802898
 11
162.302853628
 21
91.8282151926
  0
LINE
  5
409
100
AcDbEntity
  8
0
100
AcDbLine
 62
253
  6
CONTINUOUS
 10
162.6469884293
 20
135.844793794
 11
162.6557152971
 21
136.4221440632
  0
LWPOLYLINE
  5
40A
100
AcDbEntity
  8
0
100
AcDbPolyline
 62
7
  6
CONTINUOUS
 90
16
 70
0
 10
162.6557152971
 20
136.8081615237
 10
162.6571004808
 20
136.834422758
 10
162.6612353613
 20
136.8603871049
 10
162.66807221
 20
136.8857677036
 10
162.677526926
 20
136.9102698167
 10
162.6894966437
 20
136.9336394852
 10
162.7038759936
 20
136.9556587938
 10
162.7205562461
 20
136.9761203135
 10
162.7393322141
 20
136.9947368438
 10
162.7598994915
 20
137.0112163393
 10
162.781990627
 20
137.0253842411
 10
162.8053665082
 20
137.0371239058
 10
162.8297098349
 20
137.0463150469
 10
162.8547248587
 20
137.0528946153
 10
162.8801487667
 20
137.0568402556
 10
162.9057057778
 20
137.0581520045
  0
LWPOLYLINE
  5
40B
100
AcDbEntity
  8
0
100
AcDbPolyline
 62
253
  6
CONTINUOUS
 90
16
 70
0
 10
162.286860996
 20
134.0772169504
 10
162.2896441527
 20
134.1293793394
 10
162.29786776
 20
134.1809708901
 10
162.3114418231
 20
134.2314270113
 10
162.3302177944
 20
134.2801955374
 10
162.3539901994
 20
134.3267427708
 10
162.3824988852
 20
134.3705593227
 10
162.4154318674
 20
134.4111656873
 10
162.4524287447
 20
134.4481174896
 10
162.4930846422
 20
134.4810103483
 10
162.5369546429
 20
134.5094843008
 10
162.5835586562
 20
134.5332277429
 10
162.6323866717
 20
134.5519808387
 10
162.6829043411
 20
134.5655383639
 10
162.7345588251
 20
134.5737519521
 10
162.7867848436
 20
134.5765317178
  0
LWPOLYLINE
  5
40C
100
AcDbEntity
  8
0
100
AcDbPolyline
 62
7
  6
CONTINUOUS
 90
3
 70
0
 10
162.6360671523
 20
136.8277969763
 10
162.6382067529
 20
136.8604279147
 10
162.6445872876
 20
136.8925007279
  0
LINE
  5
40D
100
AcDbEntity
  8
0
100
AcDbLine
 62
7
  6
CONTINUOUS
 10
165.0373065514
 20
134.985287618
 11
165.0251331821
 21
134.9121824372
  0
LWPOLYLINE
  5
40E
100
AcDbEntity
  8
0
100
AcDbPolyline
 62
7
  6
CONTINUOUS
 90
3
 70
0
 10
164.7860512861
 20
88.0778128425
 10
164.8186822246
 20
88.079952443
 10
164.8507550378
 20
88.0863329777
  0
LWPOLYLINE
  5
40F
100
AcDbEntity
  8
0
100
AcDbPolyline
 62
7
  6
CONTINUOUS
 90
16
 70
0
 10
164.7664158336
 20
88.0974609872
 10
164.7919728406
 20
88.0987727357
 10
164.8173967465
 20
88.1027183752
 10
164.84241177
 20
88.1092979427
 10
164.8667550989
 20
88.118489084
 10
164.8901309839
 20
88.1302287503
 10
164.9122221221
 20
88.144396654
 10
164.9327894008
 20
88.160876151
 10
164.9515653693
 20
88.1794926826
 10
164.9682456212
 20
88.1999542026
 10
164.9826249694
 20
88.2219735093
 10
164.9945946853
 20
88.2453431746
 10
165.0040494005
 20
88.2698452853
 10
165.0108862495
 20
88.2952258835
 10
165.0150211304
 20
88.3211902314
 10
165.0164063144
 20
88.347451468
  0
LINE
  5
410
100
AcDbEntity
  8
0
100
AcDbLine
 62
253
  6
CONTINUOUS
 10
162.6557152971
 20
88.347451468
 11
165.0164063144
 21
88.347451468
  0
LINE
  5
411
100
AcDbEntity
  8
0
100
AcDbLine
 62
253
  6
CONTINUOUS
 10
181.5557152971
 20
88.347451468
 11
183.9164063144
 21
88.347451468
  0
LINE
  5
412
100
AcDbEntity
  8
0
100
AcDbLine
 62
253
  6
CONTINUOUS
 10
185.1557152971
 20
88.347451468
 11
187.5164063144
 21
88.347451468
  0
LINE
  5
413
100
AcDbEntity
  8
0
100
AcDbLine
 62
253
  6
CONTINUOUS
 10
204.0557152971
 20
88.347451468
 11
206.4164063144
 21
88.347451468
  0
LINE
  5
414
100
AcDbEntity
  8
0
100
AcDbLine
 62
253
  6
CONTINUOUS
 10
162.6557152971
 20
88.7334689286
 11
165.0164063144
 21
88.7334689286
  0
LINE
  5
415
100
AcDbEntity
  8
0
100
AcDbLine
 62
253
  6
CONTINUOUS
 10
181.5557152971
 20
88.7334689286
 11
183.9164063144
 21
88.7334689286
  0
LINE
  5
416
100
AcDbEntity
  8
0
100
AcDbLine
 62
253
  6
CONTINUOUS
 10
185.1557152971
 20
88.7334689286
 11
187.5164063144
 21
88.7334689286
  0
LINE
  5
417
100
AcDbEntity
  8
0
100
AcDbLine
 62
253
  6
CONTINUOUS
 10
204.0557152971
 20
88.7334689286
 11
206.4164063144
 21
88.7334689286
  0
LINE
  5
418
100
AcDbEntity
  8
DRAFT
100
AcDbLine
 62
7
  6
CONTINUOUS
 10
200.1860608057
 20
88.7778064959
 11
191.3860608057
 21
88.7778064959
  0
LINE
  5
419
100
AcDbEntity
  8
DRAFT
100
AcDbLine
 62
7
  6
CONTINUOUS
 10
177.6860608057
 20
88.7778064959
 11
168.8860608057
 21
88.7778064959
  0
LINE
  5
41A
100
AcDbEntity
  8
0
100
AcDbLine
 62
7
  6
CONTINUOUS
 10
199.6816783326
 20
88.7865333636
 11
191.8904432788
 21
88.7865333636
  0
LINE
  5
41B
100
AcDbEntity
  8
0
100
AcDbLine
 62
7
  6
CONTINUOUS
 10
177.1816783326
 20
88.7865333636
 11
169.3904432788
 21
88.7865333636
  0
LINE
  5
41C
100
AcDbEntity
  8
0
100
AcDbLine
 62
253
  6
CONTINUOUS
 10
206.1664158336
 20
88.9499752795
 11
204.3057057778
 21
88.9499752795
  0
LINE
  5
41D
100
AcDbEntity
  8
0
100
AcDbLine
 62
253
  6
CONTINUOUS
 10
187.2664158336
 20
88.9499752795
 11
185.4057057778
 21
88.9499752795
  0
LINE
  5
41E
100
AcDbEntity
  8
0
100
AcDbLine
 62
253
  6
CONTINUOUS
 10
183.6664158336
 20
88.9499752795
 11
181.8057057778
 21
88.9499752795
  0
LINE
  5
41F
100
AcDbEntity
  8
0
100
AcDbLine
 62
253
  6
CONTINUOUS
 10
164.7664158336
 20
88.9499752795
 11
162.9057057778
 21
88.9499752795
  0
LINE
  5
420
100
AcDbEntity
  8
0
100
AcDbLine
 62
7
  6
CONTINUOUS
 10
206.1751427014
 20
89.455156765
 11
204.2969789101
 21
89.455156765
  0
LINE
  5
421
100
AcDbEntity
  8
0
100
AcDbLine
 62
7
  6
CONTINUOUS
 10
187.2751427014
 20
89.455156765
 11
185.3969789101
 21
89.455156765
  0
LINE
  5
422
100
AcDbEntity
  8
0
100
AcDbLine
 62
7
  6
CONTINUOUS
 10
183.6751427014
 20
89.455156765
 11
181.7969789101
 21
89.455156765
  0
LINE
  5
423
100
AcDbEntity
  8
0
100
AcDbLine
 62
7
  6
CONTINUOUS
 10
164.7751427014
 20
89.455156765
 11
162.8969789101
 21
89.455156765
  0
LINE
  5
424
100
AcDbEntity
  8
DRAFT
100
AcDbLine
 62
7
  6
CONTINUOUS
 10
165.0373065514
 20
90.1703253737
 11
168.8873065514
 21
90.1703253737
  0
LINE
  5
425
100
AcDbEntity
  8
DRAFT
100
AcDbLine
 62
7
  6
CONTINUOUS
 10
177.6848150601
 20
90.1703253737
 11
181.5348150601
 21
90.1703253737
  0
LINE
  5
426
100
AcDbEntity
  8
DRAFT
100
AcDbLine
 62
7
  6
CONTINUOUS
 10
183.9373065514
 20
90.1703253737
 11
185.1348150601
 21
90.1703253737
  0
LINE
  5
427
100
AcDbEntity
  8
DRAFT
100
AcDbLine
 62
7
  6
CONTINUOUS
 10
187.5373065514
 20
90.1703253737
 11
191.3873065514
 21
90.1703253737
  0
LINE
  5
428
100
AcDbEntity
  8
DRAFT
100
AcDbLine
 62
7
  6
CONTINUOUS
 10
200.1848150601
 20
90.1703253737
 11
204.0348150601
 21
90.1703253737
  0
LINE
  5
429
100
AcDbEntity
  8
0
100
AcDbLine
 62
7
  6
CONTINUOUS
 10
169.3904432788
 20
90.2302142751
 11
177.1816783326
 21
90.2302142751
  0
LINE
  5
42A
100
AcDbEntity
  8
0
100
AcDbLine
 62
7
  6
CONTINUOUS
 10
191.8904432788
 20
90.2302142751
 11
199.6816783326
 21
90.2302142751
  0
LINE
  5
42B
100
AcDbEntity
  8
0
100
AcDbLine
 62
7
  6
CONTINUOUS
 10
206.1751427014
 20
90.2564181648
 11
204.2969789101
 21
90.2564181648
  0
LINE
  5
42C
100
AcDbEntity
  8
0
100
AcDbLine
 62
7
  6
CONTINUOUS
 10
187.2751427014
 20
90.2564181648
 11
185.3969789101
 21
90.2564181648
  0
LINE
  5
42D
100
AcDbEntity
  8
0
100
AcDbLine
 62
7
  6
CONTINUOUS
 10
183.6751427014
 20
90.2564181648
 11
181.7969789101
 21
90.2564181648
  0
LINE
  5
42E
100
AcDbEntity
  8
0
100
AcDbLine
 62
7
  6
CONTINUOUS
 10
164.7751427014
 20
90.2564181648
 11
162.8969789101
 21
90.2564181648
  0
LWPOLYLINE
  5
42F
100
AcDbEntity
  8
0
100
AcDbPolyline
 62
253
  6
CONTINUOUS
 90
16
 70
0
 10
183.6664158336
 20
88.9499752795
 10
183.6922808887
 20
88.9487156116
 10
183.7179147794
 20
88.945136967
 10
183.7430390741
 20
88.9392653045
 10
183.7673858258
 20
88.9311488811
 10
183.7906773953
 20
88.9208653708
 10
183.8126333494
 20
88.9085279344
 10
183.8330120611
 20
88.8942645519
 10
183.8515838649
 20
88.8782275564
 10
183.8681210739
 20
88.8606109929
 10
183.8824368341
 20
88.8416214052
 10
183.8943879497
 20
88.8214573831
 10
183.9038514635
 20
88.8003273318
 10
183.9107232697
 20
88.778457063
 10
183.9149241837
 20
88.7560894458
 10
183.9164063144
 20
88.7334689286
  0
LWPOLYLINE
  5
430
100
AcDbEntity
  8
0
100
AcDbPolyline
 62
253
  6
CONTINUOUS
 90
16
 70
0
 10
187.2664158336
 20
88.9499752795
 10
187.2922808887
 20
88.9487156116
 10
187.3179147794
 20
88.945136967
 10
187.3430390741
 20
88.9392653045
 10
187.3673858258
 20
88.9311488811
 10
187.3906773953
 20
88.9208653708
 10
187.4126333494
 20
88.9085279344
 10
187.4330120611
 20
88.8942645519
 10
187.4515838649
 20
88.8782275564
 10
187.4681210739
 20
88.8606109929
 10
187.4824368341
 20
88.8416214052
 10
187.4943879497
 20
88.8214573831
 10
187.5038514635
 20
88.8003273318
 10
187.5107232697
 20
88.778457063
 10
187.5149241837
 20
88.7560894458
 10
187.5164063144
 20
88.7334689286
  0
LWPOLYLINE
  5
431
100
AcDbEntity
  8
0
100
AcDbPolyline
 62
253
  6
CONTINUOUS
 90
16
 70
0
 10
206.1664158336
 20
88.9499752795
 10
206.1922808887
 20
88.9487156116
 10
206.2179147794
 20
88.945136967
 10
206.2430390741
 20
88.9392653045
 10
206.2673858258
 20
88.9311488811
 10
206.2906773953
 20
88.9208653708
 10
206.3126333494
 20
88.9085279344
 10
206.3330120611
 20
88.8942645519
 10
206.3515838649
 20
88.8782275564
 10
206.3681210739
 20
88.8606109929
 10
206.3824368341
 20
88.8416214052
 10
206.3943879497
 20
88.8214573831
 10
206.4038514635
 20
88.8003273318
 10
206.4107232697
 20
88.778457063
 10
206.4149241837
 20
88.7560894458
 10
206.4164063144
 20
88.7334689286
  0
LWPOLYLINE
  5
432
100
AcDbEntity
  8
0
100
AcDbPolyline
 62
7
  6
CONTINUOUS
 90
3
 70
0
 10
185.3213665736
 20
88.0863329777
 10
185.3534393868
 20
88.079952443
 10
185.3860703253
 20
88.0778128425
  0
LINE
  5
433
100
AcDbEntity
  8
0
100
AcDbLine
 62
7
  6
CONTINUOUS
 10
165.0373065514
 20
90.1703253737
 11
165.0251331821
 21
90.2434305545
  0
LWPOLYLINE
  5
434
100
AcDbEntity
  8
0
100
AcDbPolyline
 62
7
  6
CONTINUOUS
 90
16
 70
0
 10
165.0251331821
 20
89.3108191977
 10
165.0237877706
 20
89.3244459166
 10
165.0201292831
 20
89.3382462397
 10
165.0141109604
 20
89.3520178843
 10
165.0057141113
 20
89.3654657724
 10
164.9949401302
 20
89.3784537809
 10
164.9817999631
 20
89.3910019997
 10
164.9663460796
 20
89.4028692816
 10
164.9486590725
 20
89.4138256041
 10
164.9288170015
 20
89.4238909216
 10
164.9069759986
 20
89.4328169046
 10
164.883301811
 20
89.4403765063
 10
164.8579148519
 20
89.4465964494
 10
164.8310271247
 20
89.4513192076
 10
164.8029608629
 20
89.4542378246
 10
164.7740518429
 20
89.455156765
  0
LWPOLYLINE
  5
435
100
AcDbEntity
  8
0
100
AcDbPolyline
 62
253
  6
CONTINUOUS
 90
16
 70
0
 10
162.6557152971
 20
136.4221440632
 10
162.6571974277
 20
136.3995235463
 10
162.6613983416
 20
136.3771559294
 10
162.6682701475
 20
136.355285661
 10
162.6777336611
 20
136.3341556098
 10
162.6896847765
 20
136.3139915878
 10
162.7040005364
 20
136.2950020001
 10
162.7205377449
 20
136.2773854369
 10
162.7391095481
 20
136.2613484415
 10
162.7594882593
 20
136.247085059
 10
162.7814442133
 20
136.2347476223
 10
162.8047357832
 20
136.2244641115
 10
162.8290825353
 20
136.2163476878
 10
162.8542068306
 20
136.210476025
 10
162.8798407219
 20
136.2068973802
 10
162.9057057778
 20
136.2056377122
  0
LWPOLYLINE
  5
436
100
AcDbEntity
  8
0
100
AcDbPolyline
 62
253
  6
CONTINUOUS
 90
8
 70
0
 10
162.294984843
 20
133.9340719923
 10
162.2939137861
 20
133.9683629695
 10
162.2928023198
 20
133.9981935758
 10
162.2916515767
 20
134.0236264268
 10
162.2904802078
 20
134.0442830381
 10
162.2892944298
 20
134.0600372485
 10
162.2880880258
 20
134.0710152193
 10
162.286860996
 20
134.0772169504
  0
LWPOLYLINE
  5
437
100
AcDbEntity
  8
0
100
AcDbPolyline
 62
253
  6
CONTINUOUS
 90
6
 70
0
 10
162.792735945
 20
134.457766443
 10
162.7915872185
 20
134.4958131052
 10
162.790416062
 20
134.5268487764
 10
162.7892280859
 20
134.5507198636
 10
162.7880176797
 20
134.5673082184
 10
162.7867848436
 20
134.5765317178
  0
LINE
  5
438
100
AcDbEntity
  8
0
100
AcDbLine
 62
253
  6
CONTINUOUS
 10
162.2969938738
 20
133.8528631025
 11
162.294984843
 21
133.9340719923
  0
LINE
  5
439
100
AcDbEntity
  8
0
100
AcDbLine
 62
253
  6
CONTINUOUS
 10
162.7949150909
 20
134.3614269304
 11
162.792735945
 21
134.457766443
  0
LINE
  5
43A
100
AcDbEntity
  8
0
100
AcDbLine
 62
253
  6
CONTINUOUS
 10
162.2987832066
 20
133.7562104377
 11
162.2969938738
 21
133.8528631025
  0
LINE
  5
43B
100
AcDbEntity
  8
0
100
AcDbLine
 62
253
  6
CONTINUOUS
 10
162.7969214115
 20
134.2397349538
 11
162.7949150909
 21
134.3614269304
  0
LINE
  5
43C
100
AcDbEntity
  8
0
100
AcDbLine
 62
253
  6
CONTINUOUS
 10
162.9057057778
 20
88.9499752795
 11
162.8980697685
 21
89.455156765
  0
LINE
  5
43D
100
AcDbEntity
  8
0
100
AcDbLine
 62
7
  6
CONTINUOUS
 10
162.6360894409
 20
135.9859774033
 11
162.6360985686
 21
135.9853735319
  0
LINE
  5
43E
100
AcDbEntity
  8
0
100
AcDbLine
 62
7
  6
CONTINUOUS
 10
165.0360230428
 20
89.1702394587
 11
165.0360417758
 21
89.1690001281
  0
LINE
  5
43F
100
AcDbEntity
  8
0
100
AcDbLine
 62
253
  6
CONTINUOUS
 10
162.3009788994
 20
133.5868607467
 11
162.2987832066
 21
133.7562104377
  0
LINE
  5
440
100
AcDbEntity
  8
0
100
AcDbLine
 62
7
  6
CONTINUOUS
 10
162.6360705535
 20
135.9878316165
 11
162.636089225
 21
135.9859917216
  0
LINE
  5
441
100
AcDbEntity
  8
0
100
AcDbLine
 62
253
  6
CONTINUOUS
 10
162.7995067479
 20
134.0150515786
 11
162.7969214115
 21
134.2397349538
  0
LINE
  5
442
100
AcDbEntity
  8
0
100
AcDbLine
 62
253
  6
CONTINUOUS
 10
162.3020742643
 20
133.4610907659
 11
162.3009788994
 21
133.5868607467
  0
LINE
  5
443
100
AcDbEntity
  8
0
100
AcDbLine
 62
253
  6
CONTINUOUS
 10
162.8024265249
 20
133.5540183831
 11
162.7995067479
 21
134.0150515786
  0
LINE
  5
444
100
AcDbEntity
  8
0
100
AcDbLine
 62
253
  6
CONTINUOUS
 10
162.8098679603
 20
119.4336810508
 11
162.8024265249
 21
133.5540183831
  0
LINE
  5
445
100
AcDbEntity
  8
0
100
AcDbLine
 62
7
  6
CONTINUOUS
 10
162.6360608057
 20
88.327809706
 11
162.6360608057
 21
90.1690796281
  0
LINE
  5
446
100
AcDbEntity
  8
0
100
AcDbLine
 62
7
  6
CONTINUOUS
 10
162.6360608057
 20
134.9865333636
 11
162.6360608057
 21
136.8278032857
  0
LINE
  5
447
100
AcDbEntity
  8
0
100
AcDbLine
 62
7
  6
CONTINUOUS
 10
162.6469884293
 20
89.3108191977
 11
162.6469884293
 21
90.2442162591
  0
LINE
  5
448
100
AcDbEntity
  8
0
100
AcDbLine
 62
7
  6
CONTINUOUS
 10
162.6469884293
 20
134.9113967326
 11
162.6469884293
 21
135.844793794
  0
LINE
  5
449
100
AcDbEntity
  8
0
100
AcDbLine
 62
7
  6
CONTINUOUS
 10
162.6557152971
 20
88.347451468
 11
162.6557152971
 21
88.7334689286
  0
LINE
  5
44A
100
AcDbEntity
  8
0
100
AcDbLine
 62
7
  6
CONTINUOUS
 10
162.6557152971
 20
136.4221440632
 11
162.6557152971
 21
136.8081615237
  0
LINE
  5
44B
100
AcDbEntity
  8
0
100
AcDbLine
 62
253
  6
CONTINUOUS
 10
162.8105964433
 20
110.2924513428
 11
162.8098679603
 21
119.4336810508
  0
LINE
  5
44C
100
AcDbEntity
  8
0
100
AcDbLine
 62
253
  6
CONTINUOUS
 10
162.8969789101
 20
89.455156765
 11
162.8969789101
 21
90.2564181648
  0
LINE
  5
44D
100
AcDbEntity
  8
0
100
AcDbLine
 62
253
  6
CONTINUOUS
 10
162.8969789101
 20
134.8991948269
 11
162.8969789101
 21
135.7004562267
  0
LINE
  5
44E
100
AcDbEntity
  8
0
100
AcDbLine
 62
253
  6
CONTINUOUS
 10
162.9057057778
 20
88.0974609872
 11
162.9057057778
 21
88.9499752795
  0
LINE
  5
44F
100
AcDbEntity
  8
0
100
AcDbLine
 62
253
  6
CONTINUOUS
 10
162.9057057778
 20
136.2056377122
 11
162.9057057778
 21
137.0581520045
  0
LINE
  5
450
100
AcDbEntity
  8
0
100
AcDbLine
 62
253
  6
CONTINUOUS
 10
162.8084109946
 20
101.151985345
 11
162.8105964433
 21
110.2924513428
  0
LINE
  5
451
100
AcDbEntity
  8
0
100
AcDbLine
 62
253
  6
CONTINUOUS
 10
162.8019952878
 20
91.5027754363
 11
162.8084109946
 21
101.151985345
  0
LINE
  5
452
100
AcDbEntity
  8
0
100
AcDbLine
 62
7
  6
CONTINUOUS
 10
162.6360682097
 20
89.1664816331
 11
162.6360810905
 21
89.1683790112
  0
LINE
  5
453
100
AcDbEntity
  8
0
100
AcDbLine
 62
253
  6
CONTINUOUS
 10
162.7995068848
 20
91.1405614061
 11
162.8019952878
 21
91.5027754363
  0
LINE
  5
454
100
AcDbEntity
  8
0
100
AcDbLine
 62
253
  6
CONTINUOUS
 10
162.3003171455
 20
91.5093957845
 11
162.3020753454
 21
91.6946802898
  0
LINE
  5
455
100
AcDbEntity
  8
0
100
AcDbLine
 62
253
  6
CONTINUOUS
 10
162.7969215909
 20
90.9158780602
 11
162.7995068848
 21
91.1405614061
  0
LINE
  5
456
100
AcDbEntity
  8
0
100
AcDbLine
 62
253
  6
CONTINUOUS
 10
162.8980697685
 20
135.7004562267
 11
162.9057057778
 21
136.2056377122
  0
LINE
  5
457
100
AcDbEntity
  8
0
100
AcDbLine
 62
7
  6
CONTINUOUS
 10
162.6360985686
 20
89.1702394598
 11
162.6360890028
 21
89.1696066041
  0
LINE
  5
458
100
AcDbEntity
  8
0
100
AcDbLine
 62
7
  6
CONTINUOUS
 10
165.0360230428
 20
135.9853735319
 11
165.0360326087
 21
135.9860063876
  0
LINE
  5
459
100
AcDbEntity
  8
0
100
AcDbLine
 62
253
  6
CONTINUOUS
 10
162.297919205
 20
91.3493433215
 11
162.3003171455
 21
91.5093957845
  0
LINE
  5
45A
100
AcDbEntity
  8
0
100
AcDbLine
 62
253
  6
CONTINUOUS
 10
162.7949152186
 20
90.7941860533
 11
162.7969215909
 21
90.9158780602
  0
LWPOLYLINE
  5
45B
100
AcDbEntity
  8
0
100
AcDbPolyline
 62
253
  6
CONTINUOUS
 90
16
 70
0
 10
165.0164063144
 20
136.4221440632
 10
165.0149241837
 20
136.3995235459
 10
165.0107232697
 20
136.3771559287
 10
165.0038514635
 20
136.35528566
 10
164.9943879497
 20
136.3341556086
 10
164.9824368341
 20
136.3139915865
 10
164.968121074
 20
136.2950019988
 10
164.9515838649
 20
136.2773854353
 10
164.9330120611
 20
136.2613484398
 10
164.9126333494
 20
136.2470850573
 10
164.8906773953
 20
136.2347476209
 10
164.8673858258
 20
136.2244641106
 10
164.8430390741
 20
136.2163476873
 10
164.8179147794
 20
136.2104760247
 10
164.7922808888
 20
136.2068973801
 10
164.7664158336
 20
136.2056377122
  0
LWPOLYLINE
  5
45C
100
AcDbEntity
  8
0
100
AcDbPolyline
 62
253
  6
CONTINUOUS
 90
16
 70
0
 10
162.6557152971
 20
88.7334689286
 10
162.6571974277
 20
88.7560894458
 10
162.6613983418
 20
88.778457063
 10
162.6682701479
 20
88.8003273317
 10
162.6777336617
 20
88.8214573831
 10
162.6896847773
 20
88.8416214052
 10
162.7040005375
 20
88.8606109929
 10
162.7205377465
 20
88.8782275564
 10
162.7391095504
 20
88.8942645519
 10
162.759488262
 20
88.9085279344
 10
162.7814442161
 20
88.9208653708
 10
162.8047357856
 20
88.9311488811
 10
162.8290825373
 20
88.9392653044
 10
162.8542068321
 20
88.945136967
 10
162.8798407227
 20
88.9487156116
 10
162.9057057778
 20
88.9499752795
  0
LWPOLYLINE
  5
45D
100
AcDbEntity
  8
0
100
AcDbPolyline
 62
7
  6
CONTINUOUS
 90
16
 70
0
 10
165.0251331821
 20
135.844793794
 10
165.0237793134
 20
135.8307595912
 10
165.0200979262
 20
135.81699016
 10
165.0140526862
 20
135.8034855005
 10
165.0056390414
 20
135.7901070394
 10
164.9948661588
 20
135.77699335
 10
164.9817403417
 20
135.7645601518
 10
164.9663190549
 20
135.7527987223
 10
164.9486855731
 20
135.7417177841
 10
164.9288986312
 20
135.7317592248
 10
164.9070786533
 20
135.7229223913
 10
164.8834182934
 20
135.7152079368
 10
164.8581224812
 20
135.7090597083
 10
164.8314412849
 20
135.704625655
 10
164.8036712656
 20
135.7017578278
 10
164.7751427014
 20
135.7004562267
  0
LINE
  5
45E
100
AcDbEntity
  8
0
100
AcDbLine
 62
7
  6
CONTINUOUS
 10
177.6816592942
 20
136.3734049843
 11
177.6860608057
 21
136.3778064959
  0
LINE
  5
45F
100
AcDbEntity
  8
0
100
AcDbLine
 62
253
  6
CONTINUOUS
 10
206.3716267546
 20
92.0158520536
 11
206.2688099973
 21
92.0153388791
  0
LINE
  5
460
100
AcDbEntity
  8
0
100
AcDbLine
 62
253
  6
CONTINUOUS
 10
206.2853367679
 20
90.5790812739
 11
162.7867848436
 21
90.5790812739
  0
LWPOLYLINE
  5
461
100
AcDbEntity
  8
0
100
AcDbPolyline
 62
7
  6
CONTINUOUS
 90
7
 70
0
 10
206.3950932364
 20
90.2495440995
 10
206.4039590978
 20
90.2487445066
 10
206.4113473842
 20
90.2479095615
 10
206.4172011678
 20
90.2470392642
 10
206.4214731441
 20
90.2461336147
 10
206.424126077
 20
90.245192613
 10
206.4251331821
 20
90.2442162591
  0
LWPOLYLINE
  5
462
100
AcDbEntity
  8
0
100
AcDbPolyline
 62
7
  6
CONTINUOUS
 90
3
 70
0
 10
204.2213665736
 20
88.0863329777
 10
204.2534393868
 20
88.079952443
 10
204.2860703253
 20
88.0778128425
  0
LINE
  5
463
100
AcDbEntity
  8
0
100
AcDbLine
 62
7
  6
CONTINUOUS
 10
177.6816592942
 20
88.7822080074
 11
177.6860608057
 21
88.7778064959
  0
LWPOLYLINE
  5
464
100
AcDbEntity
  8
0
100
AcDbPolyline
 62
7
  6
CONTINUOUS
 90
16
 70
0
 10
162.6469884293
 20
135.844793794
 10
162.6483338409
 20
135.8311670751
 10
162.6519923283
 20
135.817366752
 10
162.658010651
 20
135.8035951074
 10
162.6664075001
 20
135.7901472193
 10
162.6771814812
 20
135.7771592109
 10
162.6903216483
 20
135.764610992
 10
162.7057755318
 20
135.7527437101
 10
162.7234625389
 20
135.7417873876
 10
162.74330461
 20
135.7317220701
 10
162.7651456129
 20
135.7227960871
 10
162.7888198005
 20
135.7152364855
 10
162.8142067595
 20
135.7090165423
 10
162.8410944867
 20
135.7042937841
 10
162.8691607485
 20
135.7013751671
 10
162.8980697685
 20
135.7004562267
  0
LWPOLYLINE
  5
465
100
AcDbEntity
  8
0
100
AcDbPolyline
 62
7
  6
CONTINUOUS
 90
3
 70
0
 10
165.0360544591
 20
136.8277969763
 10
165.0339148586
 20
136.8604279147
 10
165.0275343239
 20
136.8925007279
  0
LWPOLYLINE
  5
466
100
AcDbEntity
  8
0
100
AcDbPolyline
 62
7
  6
CONTINUOUS
 90
16
 70
0
 10
165.0164063144
 20
136.8081615237
 10
165.0150211304
 20
136.8344227603
 10
165.0108862495
 20
136.8603871082
 10
165.0040494005
 20
136.8857677064
 10
164.9945946853
 20
136.9102698171
 10
164.9826249695
 20
136.9336394823
 10
164.9682456213
 20
136.955658789
 10
164.9515653694
 20
136.9761203091
 10
164.9327894008
 20
136.9947368406
 10
164.9122221221
 20
137.0112163377
 10
164.8901309839
 20
137.0253842414
 10
164.8667550989
 20
137.0371239077
 10
164.8424117699
 20
137.046315049
 10
164.8173967465
 20
137.0528946166
 10
164.7919728406
 20
137.056840256
 10
164.7664158336
 20
137.0581520045
  0
LINE
  5
467
100
AcDbEntity
  8
0
100
AcDbLine
 62
253
  6
CONTINUOUS
 10
164.7664158336
 20
136.2056377122
 11
164.7740518429
 21
135.7004562267
  0
LINE
  5
468
100
AcDbEntity
  8
0
100
AcDbLine
 62
253
  6
CONTINUOUS
 10
165.0164063144
 20
136.4221440632
 11
165.0251331821
 21
135.844793794
  0
LINE
  5
469
100
AcDbEntity
  8
0
100
AcDbLine
 62
7
  6
CONTINUOUS
 10
165.0360100954
 20
89.1701972097
 11
165.0360534018
 21
89.1664816331
  0
LINE
  5
46A
100
AcDbEntity
  8
0
100
AcDbLine
 62
253
  6
CONTINUOUS
 10
164.7664158336
 20
137.0581520045
 11
164.7664158336
 21
136.2056377122
  0
LINE
  5
46B
100
AcDbEntity
  8
0
100
AcDbLine
 62
253
  6
CONTINUOUS
 10
164.7664158336
 20
88.0974609872
 11
164.7664158336
 21
88.9499752795
  0
LINE
  5
46C
100
AcDbEntity
  8
0
100
AcDbLine
 62
253
  6
CONTINUOUS
 10
164.7751427014
 20
135.7004562267
 11
164.7751427014
 21
134.8991948269
  0
LINE
  5
46D
100
AcDbEntity
  8
0
100
AcDbLine
 62
253
  6
CONTINUOUS
 10
164.7751427014
 20
90.2564181648
 11
164.7751427014
 21
89.455156765
  0
LINE
  5
46E
100
AcDbEntity
  8
0
100
AcDbLine
 62
7
  6
CONTINUOUS
 10
165.0164063144
 20
136.8081615237
 11
165.0164063144
 21
136.4221440632
  0
LINE
  5
46F
100
AcDbEntity
  8
0
100
AcDbLine
 62
7
  6
CONTINUOUS
 10
165.0164063144
 20
88.347451468
 11
165.0164063144
 21
88.7334689286
  0
LINE
  5
470
100
AcDbEntity
  8
0
100
AcDbLine
 62
7
  6
CONTINUOUS
 10
165.0251331821
 20
135.844793794
 11
165.0251331821
 21
134.9121824372
  0
LINE
  5
471
100
AcDbEntity
  8
0
100
AcDbLine
 62
7
  6
CONTINUOUS
 10
165.0251331821
 20
90.2434305545
 11
165.0251331821
 21
89.3108191977
  0
LINE
  5
472
100
AcDbEntity
  8
0
100
AcDbLine
 62
7
  6
CONTINUOUS
 10
165.0360608057
 20
88.327809706
 11
165.0360608057
 21
90.1690796281
  0
LINE
  5
473
100
AcDbEntity
  8
0
100
AcDbLine
 62
7
  6
CONTINUOUS
 10
165.0360608057
 20
134.9865333636
 11
165.0360608057
 21
136.8278032857
  0
LINE
  5
474
100
AcDbEntity
  8
0
100
AcDbLine
 62
7
  6
CONTINUOUS
 10
165.0360534018
 20
135.9891313586
 11
165.036040521
 21
135.9872339805
  0
LINE
  5
475
100
AcDbEntity
  8
0
100
AcDbLine
 62
253
  6
CONTINUOUS
 10
164.7664158336
 20
88.9499752795
 11
164.7740518429
 21
89.455156765
  0
LINE
  5
476
100
AcDbEntity
  8
0
100
AcDbLine
 62
253
  6
CONTINUOUS
 10
165.0164063144
 20
88.7334689286
 11
165.0251331821
 21
89.3108191977
  0
LWPOLYLINE
  5
477
100
AcDbEntity
  8
0
100
AcDbPolyline
 62
7
  6
CONTINUOUS
 90
16
 70
0
 10
162.6469884293
 20
89.3108191977
 10
162.648342298
 20
89.3248534005
 10
162.6520236852
 20
89.3386228317
 10
162.6580689252
 20
89.3521274912
 10
162.6664825701
 20
89.3655059523
 10
162.6772554527
 20
89.3786196417
 10
162.6903812698
 20
89.3910528399
 10
162.7058025565
 20
89.4028142694
 10
162.7234360384
 20
89.4138952076
 10
162.7432229802
 20
89.4238537669
 10
162.7650429582
 20
89.4326906004
 10
162.7887033181
 20
89.4404050549
 10
162.8139991302
 20
89.4465532834
 10
162.8406803265
 20
89.4509873367
 10
162.8684503458
 20
89.4538551639
 10
162.8969789101
 20
89.455156765
  0
LWPOLYLINE
  5
478
100
AcDbEntity
  8
0
100
AcDbPolyline
 62
253
  6
CONTINUOUS
 90
7
 70
0
 10
162.7867848436
 20
90.5790812739
 10
162.7880177198
 20
90.5883047839
 10
162.7892281569
 20
90.6048931545
 10
162.7904161548
 20
90.6287642549
 10
162.7915873182
 20
90.6597999226
 10
162.7927360424
 20
90.6978465612
 10
162.7949152186
 20
90.7941860533
  0
LWPOLYLINE
  5
479
100
AcDbEntity
  8
0
100
AcDbPolyline
 62
253
  6
CONTINUOUS
 90
10
 70
0
 10
162.286860996
 20
91.0783960413
 10
162.2880889033
 20
91.0846067241
 10
162.2892960296
 20
91.0955956357
 10
162.290482375
 20
91.1113627761
 10
162.2916541122
 20
91.132033863
 10
162.2928050684
 20
91.1574831786
 10
162.2939167253
 20
91.1873335694
 10
162.2949880334
 20
91.2216507555
 10
162.2960200423
 20
91.2603690167
 10
162.297919205
 20
91.3493433215
  0
LINE
  5
47A
100
AcDbEntity
  8
0
100
AcDbLine
 62
253
  6
CONTINUOUS
 10
183.6860576201
 20
137.0778064959
 11
183.6664158336
 21
137.0581520045
  0
LINE
  5
47B
100
AcDbEntity
  8
DRAFT
100
AcDbLine
 62
7
  6
CONTINUOUS
 10
181.5348150601
 20
134.985287618
 11
181.5360608057
 21
134.9865333636
  0
LINE
  5
47C
100
AcDbEntity
  8
DRAFT
100
AcDbLine
 62
7
  6
CONTINUOUS
 10
181.5360608057
 20
90.1690796281
 11
181.5348150601
 21
90.1703253737
  0
LINE
  5
47D
100
AcDbEntity
  8
0
100
AcDbLine
 62
253
  6
CONTINUOUS
 10
183.6860576201
 20
88.0778064959
 11
183.6664158336
 21
88.0974609872
  0
LINE
  5
47E
100
AcDbEntity
  8
0
100
AcDbLine
 62
7
  6
CONTINUOUS
 10
168.8904623173
 20
136.3734049843
 11
168.8904623173
 21
134.951373937
  0
LINE
  5
47F
100
AcDbEntity
  8
0
100
AcDbLine
 62
7
  6
CONTINUOUS
 10
168.8904623173
 20
90.2042390547
 11
168.8904623173
 21
88.7822080074
  0
LINE
  5
480
100
AcDbEntity
  8
0
100
AcDbLine
 62
253
  6
CONTINUOUS
 10
187.2860576201
 20
137.0778064959
 11
187.2664158336
 21
137.0581520045
  0
LINE
  5
481
100
AcDbEntity
  8
DRAFT
100
AcDbLine
 62
7
  6
CONTINUOUS
 10
185.1348150601
 20
134.985287618
 11
185.1360608057
 21
134.9865333636
  0
LINE
  5
482
100
AcDbEntity
  8
0
100
AcDbLine
 62
253
  6
CONTINUOUS
 10
183.9360608057
 20
136.8278033102
 11
183.9164063144
 21
136.8081615237
  0
LINE
  5
483
100
AcDbEntity
  8
0
100
AcDbLine
 62
253
  6
CONTINUOUS
 10
183.9360608057
 20
88.3278096815
 11
183.9164063144
 21
88.347451468
  0
LINE
  5
484
100
AcDbEntity
  8
DRAFT
100
AcDbLine
 62
7
  6
CONTINUOUS
 10
185.1360608057
 20
90.1690796281
 11
185.1348150601
 21
90.1703253737
  0
LINE
  5
485
100
AcDbEntity
  8
0
100
AcDbLine
 62
253
  6
CONTINUOUS
 10
187.2860576201
 20
88.0778064959
 11
187.2664158336
 21
88.0974609872
  0
LINE
  5
486
100
AcDbEntity
  8
0
100
AcDbLine
 62
253
  6
CONTINUOUS
 10
169.3904432788
 20
136.3690796281
 11
169.3904432788
 21
134.9253987166
  0
LINE
  5
487
100
AcDbEntity
  8
0
100
AcDbLine
 62
253
  6
CONTINUOUS
 10
169.3904432788
 20
90.2302142751
 11
169.3904432788
 21
88.7865333636
  0
LWPOLYLINE
  5
488
100
AcDbEntity
  8
0
100
AcDbPolyline
 62
253
  6
CONTINUOUS
 90
73
 70
0
 10
170.2981110138
 20
112.5778064959
 10
170.3113873914
 20
113.1843268512
 10
170.351068943
 20
113.7881150743
 10
170.4171556688
 20
114.3891703024
 10
170.5098497621
 20
114.9887759077
 10
170.6289490294
 20
115.5856468473
 10
170.7738468903
 20
116.1759297458
 10
170.9446630631
 20
116.7593811099
 10
171.1412778295
 20
117.336243153
 10
171.3627254539
 20
117.9033913098
 10
171.6091121594
 20
118.460771912
 10
171.880331723
 20
119.0084379031
 10
172.17509974
 20
119.5434249547
 10
172.4935793432
 20
120.0657475723
 10
172.8356073999
 20
120.5753911851
 10
173.1994101064
 20
121.0693482189
 10
173.5851371312
 20
121.5475506143
 10
173.9926388058
 20
122.0100670639
 10
174.4196923214
 20
122.4540955021
 10
174.8663993524
 20
122.8795149709
 10
175.3326582244
 20
123.2864476755
 10
175.8159411047
 20
123.6724566284
 10
176.3163560295
 20
124.0374347366
 10
176.8337949626
 20
124.3814907603
 10
177.3654059639
 20
124.702511737
 10
177.9113162781
 20
125.0003843778
 10
178.4713986604
 20
125.2752238077
 10
179.0424194358
 20
125.5252598242
 10
179.6244706574
 20
125.7503409342
 10
180.217460272
 20
125.9506203546
 10
180.8178784455
 20
126.1247849713
 10
181.4257791756
 20
126.2726642894
 10
182.0411084646
 20
126.3944301381
 10
182.660194484
 20
126.4892828059
 10
183.2830657764
 20
126.5570456511
 10
183.9096937993
 20
126.5978960422
 10
184.5363210968
 20
126.6115651272
 10
185.1629472934
 20
126.5978736057
 10
185.7895727646
 20
126.5570007781
 10
186.4124411813
 20
126.4892155115
 10
187.0315242416
 20
126.3943405462
 10
187.6468502474
 20
126.2725524152
 10
188.2547477761
 20
126.1246505192
 10
188.855163812
 20
125.9504625651
 10
189.4481513708
 20
125.7501595114
 10
190.0301980773
 20
125.525055554
 10
190.6012110984
 20
125.2749974797
 10
191.1612832673
 20
125.0001367777
 10
191.7071807077
 20
124.7022447209
 10
192.2387748253
 20
124.3812073453
 10
192.7561942144
 20
124.0371367788
 10
193.2565907817
 20
123.6721435711
 10
193.7398575861
 20
123.2861188119
 10
194.2061015686
 20
122.8791697444
 10
194.652795459
 20
122.4537313937
 10
195.079838764
 20
122.0096801438
 10
195.4873319768
 20
121.5471383634
 10
195.8730493071
 20
121.0689103881
 10
196.2368405604
 20
120.5749272764
 10
196.578855931
 20
120.0652573366
 10
196.8973202124
 20
119.54291116
 10
197.1920702192
 20
119.0079011927
 10
197.4632691367
 20
118.4602150541
 10
197.7096313141
 20
117.9028264649
 10
197.9310492378
 20
117.3356809311
 10
198.1276304214
 20
116.7588336724
 10
198.2984117545
 20
116.1754232988
 10
198.4432709439
 20
115.5852240539
 10
198.5623302828
 20
114.9884629752
 10
198.6549935407
 20
114.3889581128
 10
198.7210619741
 20
113.7879827338
 10
198.7607343264
 20
113.1842652407
 10
198.7740105976
 20
112.5778064959
  0
LWPOLYLINE
  5
489
100
AcDbEntity
  8
0
100
AcDbPolyline
 62
253
  6
CONTINUOUS
 90
73
 70
0
 10
170.6369478434
 20
112.5778064959
 10
170.6498765626
 20
113.1677870962
 10
170.6886368595
 20
113.7573242491
 10
170.7532403128
 20
114.3452524287
 10
170.8436790502
 20
114.9304610773
 10
170.9598273603
 20
115.5117199223
 10
171.1014170039
 20
116.0876968479
 10
171.2681861528
 20
116.6570809776
 10
171.4598777982
 20
117.2189011276
 10
171.6761718321
 20
117.7723629157
 10
171.9167335746
 20
118.3163369357
 10
172.1811616337
 20
118.8497353503
 10
172.4690479804
 20
119.3718441559
 10
172.7799998625
 20
119.8816577704
 10
173.1134676286
 20
120.3780423953
 10
173.4688000826
 20
120.8601282751
 10
173.8454456874
 20
121.3269303661
 10
174.2427528568
 20
121.7774384558
 10
174.659883391
 20
122.2108147522
 10
175.0961243734
 20
122.6261354909
 10
175.5507351093
 20
123.0225247891
 10
176.0228056269
 20
123.3992977662
 10
176.5115414754
 20
123.7556593358
 10
177.0160790062
 20
124.0908151679
 10
177.5353848123
 20
124.404167433
 10
178.0685985172
 20
124.6950584503
 10
178.6147409846
 20
124.9627983617
 10
179.1725767324
 20
125.2068518399
 10
179.7411383112
 20
125.4266985356
 10
180.3193896162
 20
125.6218117067
 10
180.9059663148
 20
125.7917858884
 10
181.4998192149
 20
125.9362631845
 10
182.0998707696
 20
126.0548898863
 10
182.7046955056
 20
126.1474197184
 10
183.3132014321
 20
126.2136706864
 10
183.9242795247
 20
126.2534642356
 10
184.5364695181
 20
126.2667175198
 10
185.1486580544
 20
126.2534288178
 10
185.7597325173
 20
126.2136000362
 10
186.3682337512
 20
126.1473140213
 10
186.9730529186
 20
126.0547492956
 10
187.5730978453
 20
125.9360878781
 10
188.1669435842
 20
125.7915759114
 10
188.7535135527
 20
125.6215667335
 10
189.3317575116
 20
125.4264183985
 10
189.9003087187
 20
125.2065372891
 10
190.458130568
 20
124.9624506858
 10
191.0042563169
 20
124.69467897
 10
191.5374500541
 20
124.4037580155
 10
192.0567314024
 20
124.0903788846
 10
192.5612416924
 20
123.755198779
 10
193.0499512637
 20
123.3988131131
 10
193.5219970693
 20
123.0220154196
 10
193.9765837847
 20
122.6256011158
 10
194.412802484
 20
122.2102537213
 10
194.8299133205
 20
121.7768475391
 10
195.2272017646
 20
121.3263072099
 10
195.603827124
 20
120.859473031
 10
195.959137686
 20
120.3773554179
 10
196.2925819839
 20
119.8809393494
 10
196.6035072777
 20
119.3710972178
 10
196.8913650761
 20
118.8489613601
 10
197.1557619499
 20
118.3155392551
 10
197.3962869253
 20
117.7715532642
 10
197.6125404976
 20
117.2180905428
 10
197.8041888397
 20
116.6562822258
 10
197.9709099918
 20
116.0869355295
 10
198.1124486198
 20
115.5110280191
 10
198.2285479941
 20
114.9298653171
 10
198.3189441974
 20
114.3447748703
 10
198.3835144175
 20
113.7569850128
 10
198.4222529064
 20
113.1676073046
 10
198.435173768
 20
112.5778064959
  0
LWPOLYLINE
  5
48A
100
AcDbEntity
  8
0
100
AcDbPolyline
 62
7
  6
CONTINUOUS
 90
3
 70
0
 10
165.0275343239
 20
88.2631122638
 10
165.0339148586
 20
88.295185077
 10
165.0360544591
 20
88.3278160155
  0
LINE
  5
48B
100
AcDbEntity
  8
0
100
AcDbLine
 62
253
  6
CONTINUOUS
 10
162.1360608057
 20
90.6256275686
 11
162.286860996
 21
91.0783960413
  0
LINE
  5
48C
100
AcDbEntity
  8
0
100
AcDbLine
 62
253
  6
CONTINUOUS
 10
162.7867848436
 20
90.5790812739
 11
162.6770283751
 21
90.2495440995
  0
LINE
  5
48D
100
AcDbEntity
  8
0
100
AcDbLine
 62
253
  6
CONTINUOUS
 10
187.5360608057
 20
136.8278033102
 11
187.5164063144
 21
136.8081615237
  0
LINE
  5
48E
100
AcDbEntity
  8
0
100
AcDbLine
 62
253
  6
CONTINUOUS
 10
187.5360608057
 20
88.3278096815
 11
187.5164063144
 21
88.347451468
  0
LINE
  5
48F
100
AcDbEntity
  8
0
100
AcDbLine
 62
253
  6
CONTINUOUS
 10
162.286860996
 20
134.0772169504
 11
162.1360608057
 21
134.5299854231
  0
LINE
  5
490
100
AcDbEntity
  8
0
100
AcDbLine
 62
253
  6
CONTINUOUS
 10
162.6770283751
 20
134.9060688922
 11
162.7867848436
 21
134.5765317178
  0
LWPOLYLINE
  5
491
100
AcDbEntity
  8
0
100
AcDbPolyline
 62
7
  6
CONTINUOUS
 90
9
 70
0
 10
181.5445872876
 20
136.8925007279
 10
181.5550995802
 20
136.9234666235
 10
181.5695637567
 20
136.9527957491
 10
181.587732323
 20
136.9799862593
 10
181.6092943999
 20
137.0045729017
 10
181.6338810423
 20
137.0261349786
 10
181.6610715525
 20
137.0443035449
 10
181.6904006781
 20
137.0587677214
 10
181.7213665736
 20
137.069280014
  0
LWPOLYLINE
  5
492
100
AcDbEntity
  8
0
100
AcDbPolyline
 62
7
  6
CONTINUOUS
 90
9
 70
0
 10
165.0275343239
 20
136.8925007279
 10
165.0170220312
 20
136.9234666235
 10
165.0025578547
 20
136.9527957491
 10
164.9843892884
 20
136.9799862593
 10
164.9628272115
 20
137.0045729017
 10
164.9382405691
 20
137.0261349786
 10
164.911050059
 20
137.0443035449
 10
164.8817209333
 20
137.0587677214
 10
164.8507550378
 20
137.069280014
  0
LWPOLYLINE
  5
493
100
AcDbEntity
  8
0
100
AcDbPolyline
 62
7
  6
CONTINUOUS
 90
9
 70
0
 10
181.5445872876
 20
88.2631122638
 10
181.5550995802
 20
88.2321463683
 10
181.5695637567
 20
88.2028172426
 10
181.587732323
 20
88.1756267325
 10
181.6092943999
 20
88.15104009
 10
181.6338810423
 20
88.1294780131
 10
181.6610715525
 20
88.1113094468
 10
181.6904006781
 20
88.0968452703
 10
181.7213665736
 20
88.0863329777
  0
LINE
  5
494
100
AcDbEntity
  8
0
100
AcDbLine
 62
253
  6
CONTINUOUS
 10
177.1816783326
 20
88.7865333636
 11
177.1816783326
 21
90.2302142751
  0
LINE
  5
495
100
AcDbEntity
  8
0
100
AcDbLine
 62
253
  6
CONTINUOUS
 10
177.1816783326
 20
134.9253987166
 11
177.1816783326
 21
136.3690796281
  0
LINE
  5
496
100
AcDbEntity
  8
0
100
AcDbLine
 62
7
  6
CONTINUOUS
 10
177.6816592942
 20
88.7822080074
 11
177.6816592942
 21
90.2042390547
  0
LINE
  5
497
100
AcDbEntity
  8
0
100
AcDbLine
 62
7
  6
CONTINUOUS
 10
177.6816592942
 20
134.951373937
 11
177.6816592942
 21
136.3734049843
  0
LWPOLYLINE
  5
498
100
AcDbEntity
  8
0
100
AcDbPolyline
 62
7
  6
CONTINUOUS
 90
9
 70
0
 10
185.1445872876
 20
136.8925007279
 10
185.1550995802
 20
136.9234666235
 10
185.1695637567
 20
136.9527957491
 10
185.187732323
 20
136.9799862593
 10
185.2092943999
 20
137.0045729017
 10
185.2338810423
 20
137.0261349786
 10
185.2610715525
 20
137.0443035449
 10
185.2904006781
 20
137.0587677214
 10
185.3213665736
 20
137.069280014
  0
LWPOLYLINE
  5
499
100
AcDbEntity
  8
0
100
AcDbPolyline
 62
7
  6
CONTINUOUS
 90
9
 70
0
 10
185.1445872876
 20
88.2631122638
 10
185.1550995802
 20
88.2321463683
 10
185.1695637567
 20
88.2028172426
 10
185.187732323
 20
88.1756267325
 10
185.2092943999
 20
88.15104009
 10
185.2338810423
 20
88.1294780131
 10
185.2610715525
 20
88.1113094468
 10
185.2904006781
 20
88.0968452703
 10
185.3213665736
 20
88.0863329777
  0
LINE
  5
49A
100
AcDbEntity
  8
0
100
AcDbLine
 62
7
  6
CONTINUOUS
 10
179.8588680931
 20
106.0259847394
 11
179.8539085476
 21
106.0867157749
  0
LWPOLYLINE
  5
49B
100
AcDbEntity
  8
0
100
AcDbPolyline
 62
7
  6
CONTINUOUS
 90
3
 70
0
 10
181.5360671523
 20
88.3278160155
 10
181.5382067529
 20
88.295185077
 10
181.5445872876
 20
88.2631122638
  0
LWPOLYLINE
  5
49C
100
AcDbEntity
  8
0
100
AcDbPolyline
 62
7
  6
CONTINUOUS
 90
16
 70
0
 10
181.5557152971
 20
88.347451468
 10
181.5571004811
 20
88.3211902314
 10
181.561235362
 20
88.2952258835
 10
181.568072211
 20
88.2698452853
 10
181.5775269262
 20
88.2453431746
 10
181.589496642
 20
88.2219735094
 10
181.6038759902
 20
88.1999542027
 10
181.620556242
 20
88.1794926826
 10
181.6393322106
 20
88.1608761511
 10
181.6598994893
 20
88.144396654
 10
181.6819906276
 20
88.1302287503
 10
181.7053665125
 20
88.118489084
 10
181.7297098415
 20
88.1092979427
 10
181.754724865
 20
88.1027183751
 10
181.7801487708
 20
88.0987727357
 10
181.8057057778
 20
88.0974609872
  0
LINE
  5
49D
100
AcDbEntity
  8
0
100
AcDbLine
 62
7
  6
CONTINUOUS
 10
179.2360608057
 20
106.5817593128
 11
179.2360608057
 21
105.9667437786
  0
LWPOLYLINE
  5
49E
100
AcDbEntity
  8
0
100
AcDbPolyline
 62
7
  6
CONTINUOUS
 90
16
 70
0
 10
181.5557152971
 20
136.8081615237
 10
181.5571004808
 20
136.834422758
 10
181.5612353613
 20
136.8603871049
 10
181.56807221
 20
136.8857677036
 10
181.577526926
 20
136.9102698167
 10
181.5894966437
 20
136.9336394852
 10
181.6038759936
 20
136.9556587938
 10
181.6205562461
 20
136.9761203135
 10
181.6393322141
 20
136.9947368438
 10
181.6598994915
 20
137.0112163393
 10
181.681990627
 20
137.0253842411
 10
181.7053665082
 20
137.0371239058
 10
181.7297098349
 20
137.0463150469
 10
181.7547248587
 20
137.0528946153
 10
181.7801487667
 20
137.0568402556
 10
181.8057057778
 20
137.0581520045
  0
LWPOLYLINE
  5
49F
100
AcDbEntity
  8
0
100
AcDbPolyline
 62
7
  6
CONTINUOUS
 90
3
 70
0
 10
181.5360671523
 20
136.8277969763
 10
181.5382067529
 20
136.8604279147
 10
181.5445872876
 20
136.8925007279
  0
LINE
  5
4A0
100
AcDbEntity
  8
0
100
AcDbLine
 62
7
  6
CONTINUOUS
 10
179.8588680931
 20
119.1296282523
 11
179.8539085476
 21
119.0688972168
  0
LINE
  5
4A1
100
AcDbEntity
  8
0
100
AcDbLine
 62
7
  6
CONTINUOUS
 10
183.9373065514
 20
134.985287618
 11
183.9251331821
 21
134.9121824372
  0
LINE
  5
4A2
100
AcDbEntity
  8
0
100
AcDbLine
 62
7
  6
CONTINUOUS
 10
183.7614039764
 20
120.5904469344
 11
183.7267433662
 21
120.5403320875
  0
LINE
  5
4A3
100
AcDbEntity
  8
0
100
AcDbLine
 62
7
  6
CONTINUOUS
 10
200.1816592942
 20
136.3734049843
 11
200.1860608057
 21
136.3778064959
  0
LINE
  5
4A4
100
AcDbEntity
  8
0
100
AcDbLine
 62
7
  6
CONTINUOUS
 10
187.8715085316
 20
119.9042850816
 11
187.8164341392
 21
119.8782146562
  0
LINE
  5
4A5
100
AcDbEntity
  8
0
100
AcDbLine
 62
7
  6
CONTINUOUS
 10
191.0878825622
 20
107.9006137832
 11
191.0271515266
 21
107.8956542377
  0
LINE
  5
4A6
100
AcDbEntity
  8
0
100
AcDbLine
 62
7
  6
CONTINUOUS
 10
178.1770314076
 20
106.9778064959
 11
178.8191321417
 21
106.9778064959
  0
LINE
  5
4A7
100
AcDbEntity
  8
0
100
AcDbLine
 62
7
  6
CONTINUOUS
 10
177.9842390492
 20
107.9006137832
 11
178.0449700848
 21
107.8956542377
  0
LINE
  5
4A8
100
AcDbEntity
  8
0
100
AcDbLine
 62
7
  6
CONTINUOUS
 10
187.8715085316
 20
105.2513279101
 11
187.8164341392
 21
105.2773983355
  0
LINE
  5
4A9
100
AcDbEntity
  8
0
100
AcDbLine
 62
7
  6
CONTINUOUS
 10
200.1816592942
 20
88.7822080074
 11
200.1860608057
 21
88.7778064959
  0
LINE
  5
4AA
100
AcDbEntity
  8
0
100
AcDbLine
 62
7
  6
CONTINUOUS
 10
183.7614039764
 20
104.5651660573
 11
183.7267433662
 21
104.6152809042
  0
LINE
  5
4AB
100
AcDbEntity
  8
0
100
AcDbLine
 62
7
  6
CONTINUOUS
 10
183.9373065514
 20
90.1703253737
 11
183.9251331821
 21
90.2434305545
  0
LWPOLYLINE
  5
4AC
100
AcDbEntity
  8
0
100
AcDbPolyline
 62
7
  6
CONTINUOUS
 90
16
 70
0
 10
183.9251331821
 20
89.3108191977
 10
183.9237877706
 20
89.3244459166
 10
183.9201292831
 20
89.3382462397
 10
183.9141109604
 20
89.3520178843
 10
183.9057141113
 20
89.3654657724
 10
183.8949401302
 20
89.3784537809
 10
183.8817999631
 20
89.3910019997
 10
183.8663460796
 20
89.4028692816
 10
183.8486590725
 20
89.4138256041
 10
183.8288170015
 20
89.4238909216
 10
183.8069759986
 20
89.4328169046
 10
183.783301811
 20
89.4403765063
 10
183.7579148519
 20
89.4465964494
 10
183.7310271247
 20
89.4513192076
 10
183.7029608629
 20
89.4542378246
 10
183.6740518429
 20
89.455156765
  0
LINE
  5
4AD
100
AcDbEntity
  8
0
100
AcDbLine
 62
253
  6
CONTINUOUS
 10
181.5557152971
 20
88.7334689286
 11
181.5469884293
 21
89.3108191977
  0
LINE
  5
4AE
100
AcDbEntity
  8
0
100
AcDbLine
 62
253
  6
CONTINUOUS
 10
181.8057057778
 20
88.9499752795
 11
181.7980697685
 21
89.455156765
  0
LINE
  5
4AF
100
AcDbEntity
  8
0
100
AcDbLine
 62
7
  6
CONTINUOUS
 10
181.5360894409
 20
135.9859774033
 11
181.5360985686
 21
135.9853735319
  0
LINE
  5
4B0
100
AcDbEntity
  8
0
100
AcDbLine
 62
7
  6
CONTINUOUS
 10
181.5360705535
 20
135.9878316165
 11
181.536089225
 21
135.9859917216
  0
LINE
  5
4B1
100
AcDbEntity
  8
0
100
AcDbLine
 62
7
  6
CONTINUOUS
 10
181.3860608057
 20
120.4446249176
 11
181.3860608057
 21
120.1646831963
  0
LINE
  5
4B2
100
AcDbEntity
  8
0
100
AcDbLine
 62
7
  6
CONTINUOUS
 10
181.5360608057
 20
88.327809706
 11
181.5360608057
 21
90.1690796281
  0
LINE
  5
4B3
100
AcDbEntity
  8
0
100
AcDbLine
 62
7
  6
CONTINUOUS
 10
181.5360608057
 20
134.9865333636
 11
181.5360608057
 21
136.8278032857
  0
LINE
  5
4B4
100
AcDbEntity
  8
0
100
AcDbLine
 62
7
  6
CONTINUOUS
 10
181.5469884293
 20
89.3108191977
 11
181.5469884293
 21
90.2434305545
  0
LINE
  5
4B5
100
AcDbEntity
  8
0
100
AcDbLine
 62
7
  6
CONTINUOUS
 10
181.5469884293
 20
134.9121824372
 11
181.5469884293
 21
135.844793794
  0
LINE
  5
4B6
100
AcDbEntity
  8
0
100
AcDbLine
 62
7
  6
CONTINUOUS
 10
181.5557152971
 20
88.347451468
 11
181.5557152971
 21
88.7334689286
  0
LINE
  5
4B7
100
AcDbEntity
  8
0
100
AcDbLine
 62
7
  6
CONTINUOUS
 10
181.5557152971
 20
136.4221440632
 11
181.5557152971
 21
136.8081615237
  0
LINE
  5
4B8
100
AcDbEntity
  8
0
100
AcDbLine
 62
7
  6
CONTINUOUS
 10
181.7860608057
 20
120.1646831963
 11
181.7860608057
 21
120.5922884518
  0
LINE
  5
4B9
100
AcDbEntity
  8
0
100
AcDbLine
 62
253
  6
CONTINUOUS
 10
181.7969789101
 20
89.455156765
 11
181.7969789101
 21
90.2564181648
  0
LINE
  5
4BA
100
AcDbEntity
  8
0
100
AcDbLine
 62
253
  6
CONTINUOUS
 10
181.7969789101
 20
134.8991948269
 11
181.7969789101
 21
135.7004562267
  0
LINE
  5
4BB
100
AcDbEntity
  8
0
100
AcDbLine
 62
253
  6
CONTINUOUS
 10
181.8057057778
 20
88.0974609872
 11
181.8057057778
 21
88.9499752795
  0
LINE
  5
4BC
100
AcDbEntity
  8
0
100
AcDbLine
 62
253
  6
CONTINUOUS
 10
181.8057057778
 20
136.2056377122
 11
181.8057057778
 21
137.0581520045
  0
LINE
  5
4BD
100
AcDbEntity
  8
0
100
AcDbLine
 62
7
  6
CONTINUOUS
 10
181.5360682097
 20
89.1664816331
 11
181.5360810905
 21
89.1683790112
  0
LINE
  5
4BE
100
AcDbEntity
  8
0
100
AcDbLine
 62
253
  6
CONTINUOUS
 10
181.5469884293
 20
135.844793794
 11
181.5557152971
 21
136.4221440632
  0
LINE
  5
4BF
100
AcDbEntity
  8
0
100
AcDbLine
 62
253
  6
CONTINUOUS
 10
181.7980697685
 20
135.7004562267
 11
181.8057057778
 21
136.2056377122
  0
LINE
  5
4C0
100
AcDbEntity
  8
0
100
AcDbLine
 62
7
  6
CONTINUOUS
 10
181.5360985686
 20
89.1702394598
 11
181.5360890028
 21
89.1696066041
  0
LWPOLYLINE
  5
4C1
100
AcDbEntity
  8
0
100
AcDbPolyline
 62
253
  6
CONTINUOUS
 90
16
 70
0
 10
183.9164063144
 20
136.4221440632
 10
183.9149241837
 20
136.3995235459
 10
183.9107232697
 20
136.3771559287
 10
183.9038514635
 20
136.35528566
 10
183.8943879497
 20
136.3341556086
 10
183.8824368341
 20
136.3139915865
 10
183.868121074
 20
136.2950019988
 10
183.8515838649
 20
136.2773854353
 10
183.8330120611
 20
136.2613484398
 10
183.8126333494
 20
136.2470850573
 10
183.7906773953
 20
136.2347476209
 10
183.7673858258
 20
136.2244641106
 10
183.7430390741
 20
136.2163476873
 10
183.7179147794
 20
136.2104760247
 10
183.6922808888
 20
136.2068973801
 10
183.6664158336
 20
136.2056377122
  0
LWPOLYLINE
  5
4C2
100
AcDbEntity
  8
0
100
AcDbPolyline
 62
7
  6
CONTINUOUS
 90
16
 70
0
 10
183.9251331821
 20
135.844793794
 10
183.9237793134
 20
135.8307595912
 10
183.9200979262
 20
135.81699016
 10
183.9140526862
 20
135.8034855005
 10
183.9056390414
 20
135.7901070394
 10
183.8948661588
 20
135.77699335
 10
183.8817403417
 20
135.7645601518
 10
183.8663190549
 20
135.7527987223
 10
183.8486855731
 20
135.7417177841
 10
183.8288986312
 20
135.7317592248
 10
183.8070786533
 20
135.7229223913
 10
183.7834182934
 20
135.7152079368
 10
183.7581224812
 20
135.7090597083
 10
183.7314412849
 20
135.704625655
 10
183.7036712656
 20
135.7017578278
 10
183.6751427014
 20
135.7004562267
  0
LINE
  5
4C3
100
AcDbEntity
  8
0
100
AcDbLine
 62
253
  6
CONTINUOUS
 10
206.1860576201
 20
137.0778064959
 11
206.1664158336
 21
137.0581520045
  0
LINE
  5
4C4
100
AcDbEntity
  8
DRAFT
100
AcDbLine
 62
7
  6
CONTINUOUS
 10
204.0348150601
 20
134.985287618
 11
204.0360608057
 21
134.9865333636
  0
LINE
  5
4C5
100
AcDbEntity
  8
DRAFT
100
AcDbLine
 62
7
  6
CONTINUOUS
 10
204.0360608057
 20
90.1690796281
 11
204.0348150601
 21
90.1703253737
  0
LINE
  5
4C6
100
AcDbEntity
  8
0
100
AcDbLine
 62
253
  6
CONTINUOUS
 10
206.1860576201
 20
88.0778064959
 11
206.1664158336
 21
88.0974609872
  0
LWPOLYLINE
  5
4C7
100
AcDbEntity
  8
0
100
AcDbPolyline
 62
7
  6
CONTINUOUS
 90
16
 70
0
 10
181.5469884293
 20
135.844793794
 10
181.5483338409
 20
135.8311670751
 10
181.5519923283
 20
135.817366752
 10
181.558010651
 20
135.8035951074
 10
181.5664075001
 20
135.7901472193
 10
181.5771814812
 20
135.7771592109
 10
181.5903216483
 20
135.764610992
 10
181.6057755318
 20
135.7527437101
 10
181.6234625389
 20
135.7417873876
 10
181.64330461
 20
135.7317220701
 10
181.6651456129
 20
135.7227960871
 10
181.6888198005
 20
135.7152364855
 10
181.7142067595
 20
135.7090165423
 10
181.7410944867
 20
135.7042937841
 10
181.7691607485
 20
135.7013751671
 10
181.7980697685
 20
135.7004562267
  0
LWPOLYLINE
  5
4C8
100
AcDbEntity
  8
0
100
AcDbPolyline
 62
253
  6
CONTINUOUS
 90
16
 70
0
 10
181.5557152971
 20
136.4221440632
 10
181.5571974277
 20
136.3995235463
 10
181.5613983416
 20
136.3771559294
 10
181.5682701475
 20
136.355285661
 10
181.5777336611
 20
136.3341556098
 10
181.5896847765
 20
136.3139915878
 10
181.6040005364
 20
136.2950020001
 10
181.6205377449
 20
136.2773854369
 10
181.6391095481
 20
136.2613484415
 10
181.6594882593
 20
136.247085059
 10
181.6814442133
 20
136.2347476223
 10
181.7047357832
 20
136.2244641115
 10
181.7290825353
 20
136.2163476878
 10
181.7542068306
 20
136.210476025
 10
181.7798407219
 20
136.2068973802
 10
181.8057057778
 20
136.2056377122
  0
LWPOLYLINE
  5
4C9
100
AcDbEntity
  8
0
100
AcDbPolyline
 62
7
  6
CONTINUOUS
 90
3
 70
0
 10
185.1360671523
 20
88.3278160155
 10
185.1382067529
 20
88.295185077
 10
185.1445872876
 20
88.2631122638
  0
LWPOLYLINE
  5
4CA
100
AcDbEntity
  8
0
100
AcDbPolyline
 62
7
  6
CONTINUOUS
 90
16
 70
0
 10
185.1557152971
 20
88.347451468
 10
185.1571004811
 20
88.3211902314
 10
185.161235362
 20
88.2952258835
 10
185.168072211
 20
88.2698452853
 10
185.1775269262
 20
88.2453431746
 10
185.189496642
 20
88.2219735094
 10
185.2038759902
 20
88.1999542027
 10
185.220556242
 20
88.1794926826
 10
185.2393322106
 20
88.1608761511
 10
185.2598994893
 20
88.144396654
 10
185.2819906276
 20
88.1302287503
 10
185.3053665125
 20
88.118489084
 10
185.3297098415
 20
88.1092979427
 10
185.354724865
 20
88.1027183751
 10
185.3801487708
 20
88.0987727357
 10
185.4057057778
 20
88.0974609872
  0
LINE
  5
4CB
100
AcDbEntity
  8
0
100
AcDbLine
 62
253
  6
CONTINUOUS
 10
183.6664158336
 20
136.2056377122
 11
183.6740518429
 21
135.7004562267
  0
LINE
  5
4CC
100
AcDbEntity
  8
0
100
AcDbLine
 62
253
  6
CONTINUOUS
 10
183.9164063144
 20
136.4221440632
 11
183.9251331821
 21
135.844793794
  0
LINE
  5
4CD
100
AcDbEntity
  8
0
100
AcDbLine
 62
253
  6
CONTINUOUS
 10
185.1557152971
 20
88.7334689286
 11
185.1469884293
 21
89.3108191977
  0
LINE
  5
4CE
100
AcDbEntity
  8
0
100
AcDbLine
 62
7
  6
CONTINUOUS
 10
183.9360230428
 20
89.1702394587
 11
183.9360534018
 21
89.1664816331
  0
LINE
  5
4CF
100
AcDbEntity
  8
0
100
AcDbLine
 62
253
  6
CONTINUOUS
 10
183.6664158336
 20
137.0581520045
 11
183.6664158336
 21
136.2056377122
  0
LINE
  5
4D0
100
AcDbEntity
  8
0
100
AcDbLine
 62
253
  6
CONTINUOUS
 10
183.6664158336
 20
88.0974609872
 11
183.6664158336
 21
88.9499752795
  0
LINE
  5
4D1
100
AcDbEntity
  8
0
100
AcDbLine
 62
253
  6
CONTINUOUS
 10
183.6751427014
 20
135.7004562267
 11
183.6751427014
 21
134.8991948269
  0
LINE
  5
4D2
100
AcDbEntity
  8
0
100
AcDbLine
 62
253
  6
CONTINUOUS
 10
183.6751427014
 20
90.2564181648
 11
183.6751427014
 21
89.455156765
  0
LINE
  5
4D3
100
AcDbEntity
  8
0
100
AcDbLine
 62
7
  6
CONTINUOUS
 10
183.7360608057
 20
120.5538039234
 11
183.7360608057
 21
120.685028935
  0
LINE
  5
4D4
100
AcDbEntity
  8
0
100
AcDbLine
 62
7
  6
CONTINUOUS
 10
183.9164063144
 20
136.8081615237
 11
183.9164063144
 21
136.4221440632
  0
LINE
  5
4D5
100
AcDbEntity
  8
0
100
AcDbLine
 62
7
  6
CONTINUOUS
 10
183.9164063144
 20
88.347451468
 11
183.9164063144
 21
88.7334689286
  0
LINE
  5
4D6
100
AcDbEntity
  8
0
100
AcDbLine
 62
7
  6
CONTINUOUS
 10
183.9251331821
 20
135.844793794
 11
183.9251331821
 21
134.9121824372
  0
LINE
  5
4D7
100
AcDbEntity
  8
0
100
AcDbLine
 62
7
  6
CONTINUOUS
 10
183.9251331821
 20
90.2434305545
 11
183.9251331821
 21
89.3108191977
  0
LINE
  5
4D8
100
AcDbEntity
  8
0
100
AcDbLine
 62
7
  6
CONTINUOUS
 10
183.9360608057
 20
88.327809706
 11
183.9360608057
 21
90.1690796281
  0
LINE
  5
4D9
100
AcDbEntity
  8
0
100
AcDbLine
 62
7
  6
CONTINUOUS
 10
183.9360608057
 20
134.9865333636
 11
183.9360608057
 21
136.8278032857
  0
LINE
  5
4DA
100
AcDbEntity
  8
0
100
AcDbLine
 62
7
  6
CONTINUOUS
 10
183.9360534018
 20
135.9891313586
 11
183.936040521
 21
135.9872339805
  0
LINE
  5
4DB
100
AcDbEntity
  8
0
100
AcDbLine
 62
7
  6
CONTINUOUS
 10
183.9360230428
 20
135.9853735319
 11
183.9360326087
 21
135.9860063876
  0
LINE
  5
4DC
100
AcDbEntity
  8
0
100
AcDbLine
 62
253
  6
CONTINUOUS
 10
183.6664158336
 20
88.9499752795
 11
183.6740518429
 21
89.455156765
  0
LINE
  5
4DD
100
AcDbEntity
  8
0
100
AcDbLine
 62
253
  6
CONTINUOUS
 10
183.9164063144
 20
88.7334689286
 11
183.9251331821
 21
89.3108191977
  0
LINE
  5
4DE
100
AcDbEntity
  8
0
100
AcDbLine
 62
253
  6
CONTINUOUS
 10
185.1469884293
 20
135.844793794
 11
185.1557152971
 21
136.4221440632
  0
LWPOLYLINE
  5
4DF
100
AcDbEntity
  8
0
100
AcDbPolyline
 62
7
  6
CONTINUOUS
 90
16
 70
0
 10
185.1557152971
 20
136.8081615237
 10
185.1571004808
 20
136.834422758
 10
185.1612353613
 20
136.8603871049
 10
185.16807221
 20
136.8857677036
 10
185.177526926
 20
136.9102698167
 10
185.1894966437
 20
136.9336394852
 10
185.2038759936
 20
136.9556587938
 10
185.2205562461
 20
136.9761203135
 10
185.2393322141
 20
136.9947368438
 10
185.2598994915
 20
137.0112163393
 10
185.281990627
 20
137.0253842411
 10
185.3053665082
 20
137.0371239058
 10
185.3297098349
 20
137.0463150469
 10
185.3547248587
 20
137.0528946153
 10
185.3801487667
 20
137.0568402556
 10
185.4057057778
 20
137.0581520045
  0
LWPOLYLINE
  5
4E0
100
AcDbEntity
  8
0
100
AcDbPolyline
 62
253
  6
CONTINUOUS
 90
16
 70
0
 10
181.5557152971
 20
88.7334689286
 10
181.5571974277
 20
88.7560894458
 10
181.5613983418
 20
88.778457063
 10
181.5682701479
 20
88.8003273317
 10
181.5777336617
 20
88.8214573831
 10
181.5896847773
 20
88.8416214052
 10
181.6040005375
 20
88.8606109929
 10
181.6205377465
 20
88.8782275564
 10
181.6391095504
 20
88.8942645519
 10
181.659488262
 20
88.9085279344
 10
181.6814442161
 20
88.9208653708
 10
181.7047357856
 20
88.9311488811
 10
181.7290825373
 20
88.9392653044
 10
181.7542068321
 20
88.945136967
 10
181.7798407227
 20
88.9487156116
 10
181.8057057778
 20
88.9499752795
  0
LWPOLYLINE
  5
4E1
100
AcDbEntity
  8
0
100
AcDbPolyline
 62
7
  6
CONTINUOUS
 90
3
 70
0
 10
185.1360671523
 20
136.8277969763
 10
185.1382067529
 20
136.8604279147
 10
185.1445872876
 20
136.8925007279
  0
LWPOLYLINE
  5
4E2
100
AcDbEntity
  8
0
100
AcDbPolyline
 62
7
  6
CONTINUOUS
 90
16
 70
0
 10
181.5469884293
 20
89.3108191977
 10
181.548342298
 20
89.3248534005
 10
181.5520236852
 20
89.3386228317
 10
181.5580689252
 20
89.3521274912
 10
181.5664825701
 20
89.3655059523
 10
181.5772554527
 20
89.3786196417
 10
181.5903812698
 20
89.3910528399
 10
181.6058025565
 20
89.4028142694
 10
181.6234360384
 20
89.4138952076
 10
181.6432229802
 20
89.4238537669
 10
181.6650429582
 20
89.4326906004
 10
181.6887033181
 20
89.4404050549
 10
181.7139991302
 20
89.4465532834
 10
181.7406803265
 20
89.4509873367
 10
181.7684503458
 20
89.4538551639
 10
181.7969789101
 20
89.455156765
  0
LINE
  5
4E3
100
AcDbEntity
  8
0
100
AcDbLine
 62
7
  6
CONTINUOUS
 10
187.5373065514
 20
134.985287618
 11
187.5251331821
 21
134.9121824372
  0
LINE
  5
4E4
100
AcDbEntity
  8
0
100
AcDbLine
 62
7
  6
CONTINUOUS
 10
181.0903525292
 20
104.8355022205
 11
181.1532982507
 21
105.0747465635
  0
LINE
  5
4E5
100
AcDbEntity
  8
0
100
AcDbLine
 62
7
  6
CONTINUOUS
 10
185.3580324642
 20
120.7670282809
 11
185.310717635
 21
120.5904469344
  0
LINE
  5
4E6
100
AcDbEntity
  8
0
100
AcDbLine
 62
7
  6
CONTINUOUS
 10
181.1532982507
 20
105.0747465635
 11
181.2006130799
 21
105.2513279101
  0
LINE
  5
4E7
100
AcDbEntity
  8
0
100
AcDbLine
 62
7
  6
CONTINUOUS
 10
185.3580324642
 20
120.7670282809
 11
185.4231420419
 21
121.0056928204
  0
LINE
  5
4E8
100
AcDbEntity
  8
0
100
AcDbLine
 62
7
  6
CONTINUOUS
 10
177.6808377665
 20
107.5956284478
 11
177.8549725319
 21
107.7713472659
  0
LINE
  5
4E9
100
AcDbEntity
  8
0
100
AcDbLine
 62
7
  6
CONTINUOUS
 10
177.8549725319
 20
107.7713472659
 11
177.9842390492
 21
107.9006137832
  0
LINE
  5
4EA
100
AcDbEntity
  8
0
100
AcDbLine
 62
7
  6
CONTINUOUS
 10
189.2132535184
 20
119.1296282523
 11
189.3425200357
 21
119.2588947697
  0
LINE
  5
4EB
100
AcDbEntity
  8
0
100
AcDbLine
 62
253
  6
CONTINUOUS
 10
206.4360608057
 20
136.8278033102
 11
206.4164063144
 21
136.8081615237
  0
LINE
  5
4EC
100
AcDbEntity
  8
0
100
AcDbLine
 62
7
  6
CONTINUOUS
 10
189.3425200357
 20
119.2588947697
 11
189.5182388538
 21
119.433029535
  0
LWPOLYLINE
  5
4ED
100
AcDbEntity
  8
0
100
AcDbPolyline
 62
7
  6
CONTINUOUS
 90
7
 70
0
 10
206.4251331821
 20
134.9113967326
 10
206.424126077
 20
134.9104203787
 10
206.4214731441
 20
134.909479377
 10
206.4172011678
 20
134.9085737275
 10
206.4113473842
 20
134.9077034302
 10
206.4039590978
 20
134.9068684851
 10
206.3950932364
 20
134.9060688922
  0
LINE
  5
4EE
100
AcDbEntity
  8
0
100
AcDbLine
 62
7
  6
CONTINUOUS
 10
189.5182388538
 20
105.7225834567
 11
189.3425200357
 21
105.896718222
  0
LINE
  5
4EF
100
AcDbEntity
  8
0
100
AcDbLine
 62
253
  6
CONTINUOUS
 10
206.4360608057
 20
88.3278096815
 11
206.4164063144
 21
88.347451468
  0
LINE
  5
4F0
100
AcDbEntity
  8
0
100
AcDbLine
 62
7
  6
CONTINUOUS
 10
189.3425200357
 20
105.896718222
 11
189.2132535184
 21
106.0259847394
  0
LINE
  5
4F1
100
AcDbEntity
  8
0
100
AcDbLine
 62
7
  6
CONTINUOUS
 10
177.9842390492
 20
117.2549992085
 11
177.8549725319
 21
117.3842657258
  0
LINE
  5
4F2
100
AcDbEntity
  8
0
100
AcDbLine
 62
7
  6
CONTINUOUS
 10
177.8549725319
 20
117.3842657258
 11
177.6808377665
 21
117.5599845439
  0
LINE
  5
4F3
100
AcDbEntity
  8
0
100
AcDbLine
 62
7
  6
CONTINUOUS
 10
185.4231420419
 20
104.1499201713
 11
185.3580324642
 21
104.3885847108
  0
LINE
  5
4F4
100
AcDbEntity
  8
0
100
AcDbLine
 62
7
  6
CONTINUOUS
 10
185.3580324642
 20
104.3885847108
 11
185.310717635
 21
104.5651660573
  0
LINE
  5
4F5
100
AcDbEntity
  8
0
100
AcDbLine
 62
7
  6
CONTINUOUS
 10
181.2006130799
 20
119.9042850816
 11
181.1532982507
 21
120.0808664282
  0
LINE
  5
4F6
100
AcDbEntity
  8
0
100
AcDbLine
 62
7
  6
CONTINUOUS
 10
181.1532982507
 20
120.0808664282
 11
181.0903525292
 21
120.3201107712
  0
LINE
  5
4F7
100
AcDbEntity
  8
0
100
AcDbLine
 62
7
  6
CONTINUOUS
 10
187.5373065514
 20
90.1703253737
 11
187.5251331821
 21
90.2434305545
  0
LWPOLYLINE
  5
4F8
100
AcDbEntity
  8
0
100
AcDbPolyline
 62
7
  6
CONTINUOUS
 90
16
 70
0
 10
187.5251331821
 20
89.3108191977
 10
187.5237877706
 20
89.3244459166
 10
187.5201292831
 20
89.3382462397
 10
187.5141109604
 20
89.3520178843
 10
187.5057141113
 20
89.3654657724
 10
187.4949401302
 20
89.3784537809
 10
187.4817999631
 20
89.3910019997
 10
187.4663460796
 20
89.4028692816
 10
187.4486590725
 20
89.4138256041
 10
187.4288170015
 20
89.4238909216
 10
187.4069759986
 20
89.4328169046
 10
187.383301811
 20
89.4403765063
 10
187.3579148519
 20
89.4465964494
 10
187.3310271247
 20
89.4513192076
 10
187.3029608629
 20
89.4542378246
 10
187.2740518429
 20
89.455156765
  0
LWPOLYLINE
  5
4F9
100
AcDbEntity
  8
0
100
AcDbPolyline
 62
7
  6
CONTINUOUS
 90
3
 70
0
 10
183.9360544591
 20
136.8277969763
 10
183.9339148586
 20
136.8604279147
 10
183.9275343239
 20
136.8925007279
  0
LWPOLYLINE
  5
4FA
100
AcDbEntity
  8
0
100
AcDbPolyline
 62
253
  6
CONTINUOUS
 90
16
 70
0
 10
185.1557152971
 20
136.4221440632
 10
185.1571974277
 20
136.3995235463
 10
185.1613983416
 20
136.3771559294
 10
185.1682701475
 20
136.355285661
 10
185.1777336611
 20
136.3341556098
 10
185.1896847765
 20
136.3139915878
 10
185.2040005364
 20
136.2950020001
 10
185.2205377449
 20
136.2773854369
 10
185.2391095481
 20
136.2613484415
 10
185.2594882593
 20
136.247085059
 10
185.2814442133
 20
136.2347476223
 10
185.3047357832
 20
136.2244641115
 10
185.3290825353
 20
136.2163476878
 10
185.3542068306
 20
136.210476025
 10
185.3798407219
 20
136.2068973802
 10
185.4057057778
 20
136.2056377122
  0
LWPOLYLINE
  5
4FB
100
AcDbEntity
  8
0
100
AcDbPolyline
 62
7
  6
CONTINUOUS
 90
16
 70
0
 10
183.9164063144
 20
136.8081615237
 10
183.9150211304
 20
136.8344227603
 10
183.9108862495
 20
136.8603871082
 10
183.9040494005
 20
136.8857677064
 10
183.8945946853
 20
136.9102698171
 10
183.8826249695
 20
136.9336394823
 10
183.8682456213
 20
136.955658789
 10
183.8515653694
 20
136.9761203091
 10
183.8327894008
 20
136.9947368406
 10
183.8122221221
 20
137.0112163377
 10
183.7901309839
 20
137.0253842414
 10
183.7667550989
 20
137.0371239077
 10
183.7424117699
 20
137.046315049
 10
183.7173967465
 20
137.0528946166
 10
183.6919728406
 20
137.056840256
 10
183.6664158336
 20
137.0581520045
  0
LINE
  5
4FC
100
AcDbEntity
  8
0
100
AcDbLine
 62
253
  6
CONTINUOUS
 10
185.4057057778
 20
88.9499752795
 11
185.3980697685
 21
89.455156765
  0
LINE
  5
4FD
100
AcDbEntity
  8
0
100
AcDbLine
 62
7
  6
CONTINUOUS
 10
185.1360894409
 20
135.9859774033
 11
185.1360985686
 21
135.9853735319
  0
LINE
  5
4FE
100
AcDbEntity
  8
0
100
AcDbLine
 62
7
  6
CONTINUOUS
 10
185.1360705535
 20
135.9878316165
 11
185.136089225
 21
135.9859917216
  0
LINE
  5
4FF
100
AcDbEntity
  8
0
100
AcDbLine
 62
7
  6
CONTINUOUS
 10
185.1360608057
 20
88.327809706
 11
185.1360608057
 21
90.1690796281
  0
LINE
  5
500
100
AcDbEntity
  8
0
100
AcDbLine
 62
7
  6
CONTINUOUS
 10
185.1360608057
 20
134.9865333636
 11
185.1360608057
 21
136.8278032857
  0
LINE
  5
501
100
AcDbEntity
  8
0
100
AcDbLine
 62
7
  6
CONTINUOUS
 10
185.1469884293
 20
89.3108191977
 11
185.1469884293
 21
90.2434305545
  0
LINE
  5
502
100
AcDbEntity
  8
0
100
AcDbLine
 62
7
  6
CONTINUOUS
 10
185.1469884293
 20
134.9121824372
 11
185.1469884293
 21
135.844793794
  0
LINE
  5
503
100
AcDbEntity
  8
0
100
AcDbLine
 62
7
  6
CONTINUOUS
 10
185.1557152971
 20
88.347451468
 11
185.1557152971
 21
88.7334689286
  0
LINE
  5
504
100
AcDbEntity
  8
0
100
AcDbLine
 62
7
  6
CONTINUOUS
 10
185.1557152971
 20
136.4221440632
 11
185.1557152971
 21
136.8081615237
  0
LINE
  5
505
100
AcDbEntity
  8
0
100
AcDbLine
 62
253
  6
CONTINUOUS
 10
185.3969789101
 20
89.455156765
 11
185.3969789101
 21
90.2564181648
  0
LINE
  5
506
100
AcDbEntity
  8
0
100
AcDbLine
 62
253
  6
CONTINUOUS
 10
185.3969789101
 20
134.8991948269
 11
185.3969789101
 21
135.7004562267
  0
LINE
  5
507
100
AcDbEntity
  8
0
100
AcDbLine
 62
253
  6
CONTINUOUS
 10
185.4057057778
 20
88.0974609872
 11
185.4057057778
 21
88.9499752795
  0
LINE
  5
508
100
AcDbEntity
  8
0
100
AcDbLine
 62
253
  6
CONTINUOUS
 10
185.4057057778
 20
136.2056377122
 11
185.4057057778
 21
137.0581520045
  0
LINE
  5
509
100
AcDbEntity
  8
0
100
AcDbLine
 62
7
  6
CONTINUOUS
 10
186.8860608057
 20
120.2272482846
 11
186.8860608057
 21
120.7196426602
  0
LINE
  5
50A
100
AcDbEntity
  8
0
100
AcDbLine
 62
7
  6
CONTINUOUS
 10
185.1360682097
 20
89.1664816331
 11
185.1360810905
 21
89.1683790112
  0
LINE
  5
50B
100
AcDbEntity
  8
0
100
AcDbLine
 62
253
  6
CONTINUOUS
 10
185.3980697685
 20
135.7004562267
 11
185.4057057778
 21
136.2056377122
  0
LINE
  5
50C
100
AcDbEntity
  8
0
100
AcDbLine
 62
7
  6
CONTINUOUS
 10
185.1360985686
 20
89.1702394598
 11
185.1360890028
 21
89.1696066041
  0
LWPOLYLINE
  5
50D
100
AcDbEntity
  8
0
100
AcDbPolyline
 62
253
  6
CONTINUOUS
 90
16
 70
0
 10
187.5164063144
 20
136.4221440632
 10
187.5149241837
 20
136.3995235459
 10
187.5107232697
 20
136.3771559287
 10
187.5038514635
 20
136.35528566
 10
187.4943879497
 20
136.3341556086
 10
187.4824368341
 20
136.3139915865
 10
187.468121074
 20
136.2950019988
 10
187.4515838649
 20
136.2773854353
 10
187.4330120611
 20
136.2613484398
 10
187.4126333494
 20
136.2470850573
 10
187.3906773953
 20
136.2347476209
 10
187.3673858258
 20
136.2244641106
 10
187.3430390741
 20
136.2163476873
 10
187.3179147794
 20
136.2104760247
 10
187.2922808888
 20
136.2068973801
 10
187.2664158336
 20
136.2056377122
  0
LWPOLYLINE
  5
50E
100
AcDbEntity
  8
0
100
AcDbPolyline
 62
253
  6
CONTINUOUS
 90
16
 70
0
 10
185.1557152971
 20
88.7334689286
 10
185.1571974277
 20
88.7560894458
 10
185.1613983418
 20
88.778457063
 10
185.1682701479
 20
88.8003273317
 10
185.1777336617
 20
88.8214573831
 10
185.1896847773
 20
88.8416214052
 10
185.2040005375
 20
88.8606109929
 10
185.2205377465
 20
88.8782275564
 10
185.2391095504
 20
88.8942645519
 10
185.259488262
 20
88.9085279344
 10
185.2814442161
 20
88.9208653708
 10
185.3047357856
 20
88.9311488811
 10
185.3290825373
 20
88.9392653044
 10
185.3542068321
 20
88.945136967
 10
185.3798407227
 20
88.9487156116
 10
185.4057057778
 20
88.9499752795
  0
LWPOLYLINE
  5
50F
100
AcDbEntity
  8
0
100
AcDbPolyline
 62
7
  6
CONTINUOUS
 90
16
 70
0
 10
187.5251331821
 20
135.844793794
 10
187.5237793134
 20
135.8307595912
 10
187.5200979262
 20
135.81699016
 10
187.5140526862
 20
135.8034855005
 10
187.5056390414
 20
135.7901070394
 10
187.4948661588
 20
135.77699335
 10
187.4817403417
 20
135.7645601518
 10
187.4663190549
 20
135.7527987223
 10
187.4486855731
 20
135.7417177841
 10
187.4288986312
 20
135.7317592248
 10
187.4070786533
 20
135.7229223913
 10
187.3834182934
 20
135.7152079368
 10
187.3581224812
 20
135.7090597083
 10
187.3314412849
 20
135.704625655
 10
187.3036712656
 20
135.7017578278
 10
187.2751427014
 20
135.7004562267
  0
LINE
  5
510
100
AcDbEntity
  8
0
100
AcDbLine
 62
7
  6
CONTINUOUS
 10
181.5348150601
 20
90.1703253737
 11
181.5469884293
 21
90.2434305545
  0
LINE
  5
511
100
AcDbEntity
  8
0
100
AcDbLine
 62
7
  6
CONTINUOUS
 10
187.9817690822
 20
120.3201107712
 11
187.9188233608
 21
120.0808664282
  0
LINE
  5
512
100
AcDbEntity
  8
0
100
AcDbLine
 62
7
  6
CONTINUOUS
 10
187.9188233608
 20
120.0808664282
 11
187.8715085316
 21
119.9042850816
  0
LINE
  5
513
100
AcDbEntity
  8
0
100
AcDbLine
 62
7
  6
CONTINUOUS
 10
183.7140891472
 20
104.3885847108
 11
183.7614039764
 21
104.5651660573
  0
LINE
  5
514
100
AcDbEntity
  8
0
100
AcDbLine
 62
7
  6
CONTINUOUS
 10
183.7140891472
 20
104.3885847108
 11
183.6489795695
 21
104.1499201713
  0
LINE
  5
515
100
AcDbEntity
  8
0
100
AcDbLine
 62
7
  6
CONTINUOUS
 10
191.3912838449
 20
117.5599845439
 11
191.2171490795
 21
117.3842657258
  0
LINE
  5
516
100
AcDbEntity
  8
0
100
AcDbLine
 62
253
  6
CONTINUOUS
 10
162.8860639913
 20
88.0778064959
 11
162.9057057778
 21
88.0974609872
  0
LINE
  5
517
100
AcDbEntity
  8
0
100
AcDbLine
 62
7
  6
CONTINUOUS
 10
191.2171490795
 20
117.3842657258
 11
191.0878825622
 21
117.2549992085
  0
LINE
  5
518
100
AcDbEntity
  8
0
100
AcDbLine
 62
7
  6
CONTINUOUS
 10
179.8588680931
 20
106.0259847394
 11
179.7296015757
 21
105.896718222
  0
LINE
  5
519
100
AcDbEntity
  8
DRAFT
100
AcDbLine
 62
7
  6
CONTINUOUS
 10
165.0373065514
 20
90.1703253737
 11
165.0360608057
 21
90.1690796281
  0
LINE
  5
51A
100
AcDbEntity
  8
0
100
AcDbLine
 62
253
  6
CONTINUOUS
 10
162.6360608057
 20
88.3278096815
 11
162.6557152971
 21
88.347451468
  0
LINE
  5
51B
100
AcDbEntity
  8
0
100
AcDbLine
 62
7
  6
CONTINUOUS
 10
179.7296015757
 20
105.896718222
 11
179.5538827577
 21
105.7225834567
  0
LWPOLYLINE
  5
51C
100
AcDbEntity
  8
0
100
AcDbPolyline
 62
7
  6
CONTINUOUS
 90
7
 70
0
 10
162.6469884293
 20
90.2442162591
 10
162.6479955344
 20
90.245192613
 10
162.6506484673
 20
90.2461336147
 10
162.6549204436
 20
90.2470392642
 10
162.6607742272
 20
90.2479095615
 10
162.6681625137
 20
90.2487445066
 10
162.6770283751
 20
90.2495440995
  0
LINE
  5
51D
100
AcDbEntity
  8
0
100
AcDbLine
 62
7
  6
CONTINUOUS
 10
179.5538827577
 20
119.433029535
 11
179.7296015757
 21
119.2588947697
  0
LINE
  5
51E
100
AcDbEntity
  8
0
100
AcDbLine
 62
253
  6
CONTINUOUS
 10
162.6557152971
 20
136.8081615237
 11
162.6360608057
 21
136.8278033102
  0
LINE
  5
51F
100
AcDbEntity
  8
0
100
AcDbLine
 62
7
  6
CONTINUOUS
 10
179.7296015757
 20
119.2588947697
 11
179.8588680931
 21
119.1296282523
  0
LINE
  5
520
100
AcDbEntity
  8
0
100
AcDbLine
 62
7
  6
CONTINUOUS
 10
191.0878825622
 20
107.9006137832
 11
191.2171490795
 21
107.7713472659
  0
LINE
  5
521
100
AcDbEntity
  8
DRAFT
100
AcDbLine
 62
7
  6
CONTINUOUS
 10
165.0360608057
 20
134.9865333636
 11
165.0373065514
 21
134.985287618
  0
LINE
  5
522
100
AcDbEntity
  8
0
100
AcDbLine
 62
253
  6
CONTINUOUS
 10
162.9057057778
 20
137.0581520045
 11
162.8860639913
 21
137.0778064959
  0
LINE
  5
523
100
AcDbEntity
  8
0
100
AcDbLine
 62
7
  6
CONTINUOUS
 10
191.2171490795
 20
107.7713472659
 11
191.3912838449
 21
107.5956284478
  0
LINE
  5
524
100
AcDbEntity
  8
0
100
AcDbLine
 62
7
  6
CONTINUOUS
 10
183.6489795695
 20
121.0056928204
 11
183.7140891472
 21
120.7670282809
  0
LINE
  5
525
100
AcDbEntity
  8
0
100
AcDbLine
 62
7
  6
CONTINUOUS
 10
183.7140891472
 20
120.7670282809
 11
183.7614039764
 21
120.5904469344
  0
LINE
  5
526
100
AcDbEntity
  8
0
100
AcDbLine
 62
7
  6
CONTINUOUS
 10
187.8715085316
 20
105.2513279101
 11
187.9188233608
 21
105.0747465635
  0
LINE
  5
527
100
AcDbEntity
  8
0
100
AcDbLine
 62
7
  6
CONTINUOUS
 10
187.9188233608
 20
105.0747465635
 11
187.9817690822
 21
104.8355022205
  0
LINE
  5
528
100
AcDbEntity
  8
0
100
AcDbLine
 62
7
  6
CONTINUOUS
 10
181.5348150601
 20
134.985287618
 11
181.5469884293
 21
134.9121824372
  0
LWPOLYLINE
  5
529
100
AcDbEntity
  8
0
100
AcDbPolyline
 62
7
  6
CONTINUOUS
 90
16
 70
0
 10
185.1469884293
 20
135.844793794
 10
185.1483338409
 20
135.8311670751
 10
185.1519923283
 20
135.817366752
 10
185.158010651
 20
135.8035951074
 10
185.1664075001
 20
135.7901472193
 10
185.1771814812
 20
135.7771592109
 10
185.1903216483
 20
135.764610992
 10
185.2057755318
 20
135.7527437101
 10
185.2234625389
 20
135.7417873876
 10
185.24330461
 20
135.7317220701
 10
185.2651456129
 20
135.7227960871
 10
185.2888198005
 20
135.7152364855
 10
185.3142067595
 20
135.7090165423
 10
185.3410944867
 20
135.7042937841
 10
185.3691607485
 20
135.7013751671
 10
185.3980697685
 20
135.7004562267
  0
LWPOLYLINE
  5
52A
100
AcDbEntity
  8
0
100
AcDbPolyline
 62
7
  6
CONTINUOUS
 90
3
 70
0
 10
187.5360544591
 20
136.8277969763
 10
187.5339148586
 20
136.8604279147
 10
187.5275343239
 20
136.8925007279
  0
LWPOLYLINE
  5
52B
100
AcDbEntity
  8
0
100
AcDbPolyline
 62
7
  6
CONTINUOUS
 90
16
 70
0
 10
187.5164063144
 20
136.8081615237
 10
187.5150211304
 20
136.8344227603
 10
187.5108862495
 20
136.8603871082
 10
187.5040494005
 20
136.8857677064
 10
187.4945946853
 20
136.9102698171
 10
187.4826249695
 20
136.9336394823
 10
187.4682456213
 20
136.955658789
 10
187.4515653694
 20
136.9761203091
 10
187.4327894008
 20
136.9947368406
 10
187.4122221221
 20
137.0112163377
 10
187.3901309839
 20
137.0253842414
 10
187.3667550989
 20
137.0371239077
 10
187.3424117699
 20
137.046315049
 10
187.3173967465
 20
137.0528946166
 10
187.2919728406
 20
137.056840256
 10
187.2664158336
 20
137.0581520045
  0
LINE
  5
52C
100
AcDbEntity
  8
0
100
AcDbLine
 62
253
  6
CONTINUOUS
 10
187.2664158336
 20
136.2056377122
 11
187.2740518429
 21
135.7004562267
  0
LINE
  5
52D
100
AcDbEntity
  8
0
100
AcDbLine
 62
253
  6
CONTINUOUS
 10
187.5164063144
 20
136.4221440632
 11
187.5251331821
 21
135.844793794
  0
LINE
  5
52E
100
AcDbEntity
  8
0
100
AcDbLine
 62
7
  6
CONTINUOUS
 10
187.5360230428
 20
89.1702394587
 11
187.5360534018
 21
89.1664816331
  0
LINE
  5
52F
100
AcDbEntity
  8
0
100
AcDbLine
 62
253
  6
CONTINUOUS
 10
187.2664158336
 20
137.0581520045
 11
187.2664158336
 21
136.2056377122
  0
LINE
  5
530
100
AcDbEntity
  8
0
100
AcDbLine
 62
253
  6
CONTINUOUS
 10
187.2664158336
 20
88.0974609872
 11
187.2664158336
 21
88.9499752795
  0
LINE
  5
531
100
AcDbEntity
  8
0
100
AcDbLine
 62
253
  6
CONTINUOUS
 10
187.2751427014
 20
135.7004562267
 11
187.2751427014
 21
134.8991948269
  0
LINE
  5
532
100
AcDbEntity
  8
0
100
AcDbLine
 62
253
  6
CONTINUOUS
 10
187.2751427014
 20
90.2564181648
 11
187.2751427014
 21
89.455156765
  0
LINE
  5
533
100
AcDbEntity
  8
0
100
AcDbLine
 62
7
  6
CONTINUOUS
 10
187.2860608057
 20
120.1646831963
 11
187.2860608057
 21
120.5922884518
  0
LINE
  5
534
100
AcDbEntity
  8
0
100
AcDbLine
 62
7
  6
CONTINUOUS
 10
187.5164063144
 20
136.8081615237
 11
187.5164063144
 21
136.4221440632
  0
LINE
  5
535
100
AcDbEntity
  8
0
100
AcDbLine
 62
7
  6
CONTINUOUS
 10
187.5164063144
 20
88.347451468
 11
187.5164063144
 21
88.7334689286
  0
LINE
  5
536
100
AcDbEntity
  8
0
100
AcDbLine
 62
7
  6
CONTINUOUS
 10
187.5251331821
 20
135.844793794
 11
187.5251331821
 21
134.9121824372
  0
LINE
  5
537
100
AcDbEntity
  8
0
100
AcDbLine
 62
7
  6
CONTINUOUS
 10
187.5251331821
 20
90.2434305545
 11
187.5251331821
 21
89.3108191977
  0
LINE
  5
538
100
AcDbEntity
  8
0
100
AcDbLine
 62
7
  6
CONTINUOUS
 10
187.5360608057
 20
88.327809706
 11
187.5360608057
 21
90.1690796281
  0
LINE
  5
539
100
AcDbEntity
  8
0
100
AcDbLine
 62
7
  6
CONTINUOUS
 10
187.5360608057
 20
134.9865333636
 11
187.5360608057
 21
136.8278032857
  0
LINE
  5
53A
100
AcDbEntity
  8
0
100
AcDbLine
 62
7
  6
CONTINUOUS
 10
187.5360534018
 20
135.9891313586
 11
187.536040521
 21
135.9872339805
  0
LINE
  5
53B
100
AcDbEntity
  8
0
100
AcDbLine
 62
7
  6
CONTINUOUS
 10
187.5360230428
 20
135.9853735319
 11
187.5360326087
 21
135.9860063876
  0
LINE
  5
53C
100
AcDbEntity
  8
0
100
AcDbLine
 62
253
  6
CONTINUOUS
 10
187.2664158336
 20
88.9499752795
 11
187.2740518429
 21
89.455156765
  0
LINE
  5
53D
100
AcDbEntity
  8
0
100
AcDbLine
 62
253
  6
CONTINUOUS
 10
187.5164063144
 20
88.7334689286
 11
187.5251331821
 21
89.3108191977
  0
LWPOLYLINE
  5
53E
100
AcDbEntity
  8
0
100
AcDbPolyline
 62
7
  6
CONTINUOUS
 90
16
 70
0
 10
185.1469884293
 20
89.3108191977
 10
185.148342298
 20
89.3248534005
 10
185.1520236852
 20
89.3386228317
 10
185.1580689252
 20
89.3521274912
 10
185.1664825701
 20
89.3655059523
 10
185.1772554527
 20
89.3786196417
 10
185.1903812698
 20
89.3910528399
 10
185.2058025565
 20
89.4028142694
 10
185.2234360384
 20
89.4138952076
 10
185.2432229802
 20
89.4238537669
 10
185.2650429582
 20
89.4326906004
 10
185.2887033181
 20
89.4404050549
 10
185.3139991302
 20
89.4465532834
 10
185.3406803265
 20
89.4509873367
 10
185.3684503458
 20
89.4538551639
 10
185.3969789101
 20
89.455156765
  0
LINE
  5
53F
100
AcDbEntity
  8
0
100
AcDbLine
 62
7
  6
CONTINUOUS
 10
185.1348150601
 20
90.1703253737
 11
185.1469884293
 21
90.2434305545
  0
LWPOLYLINE
  5
540
100
AcDbEntity
  8
0
100
AcDbPolyline
 62
7
  6
CONTINUOUS
 90
3
 70
0
 10
183.9275343239
 20
88.2631122638
 10
183.9339148586
 20
88.295185077
 10
183.9360544591
 20
88.3278160155
  0
LINE
  5
541
100
AcDbEntity
  8
0
100
AcDbLine
 62
7
  6
CONTINUOUS
 10
185.1348150601
 20
134.985287618
 11
185.1469884293
 21
134.9121824372
  0
LINE
  5
542
100
AcDbEntity
  8
0
100
AcDbLine
 62
7
  6
CONTINUOUS
 10
189.2132535184
 20
119.1296282523
 11
189.2182130639
 21
119.0688972168
  0
LINE
  5
543
100
AcDbEntity
  8
0
100
AcDbLine
 62
7
  6
CONTINUOUS
 10
189.4832008057
 20
118.8683893243
 11
189.4832008057
 21
119.3983171903
  0
LINE
  5
544
100
AcDbEntity
  8
0
100
AcDbLine
 62
7
  6
CONTINUOUS
 10
191.3904623173
 20
136.3734049843
 11
191.3904623173
 21
134.951373937
  0
LINE
  5
545
100
AcDbEntity
  8
0
100
AcDbLine
 62
7
  6
CONTINUOUS
 10
191.3904623173
 20
90.2042390547
 11
191.3904623173
 21
88.7822080074
  0
LINE
  5
546
100
AcDbEntity
  8
0
100
AcDbLine
 62
7
  6
CONTINUOUS
 10
189.2132535184
 20
106.0259847394
 11
189.2182130639
 21
106.0867157749
  0
LINE
  5
547
100
AcDbEntity
  8
0
100
AcDbLine
 62
7
  6
CONTINUOUS
 10
185.310717635
 20
104.5651660573
 11
185.3453782452
 21
104.6152809042
  0
LINE
  5
548
100
AcDbEntity
  8
0
100
AcDbLine
 62
7
  6
CONTINUOUS
 10
168.8904623173
 20
88.7822080074
 11
168.8860608057
 21
88.7778064959
  0
LINE
  5
549
100
AcDbEntity
  8
0
100
AcDbLine
 62
7
  6
CONTINUOUS
 10
181.2006130799
 20
105.2513279101
 11
181.2556874722
 21
105.2773983355
  0
LINE
  5
54A
100
AcDbEntity
  8
0
100
AcDbLine
 62
7
  6
CONTINUOUS
 10
177.9842390492
 20
117.2549992085
 11
178.0449700848
 21
117.259958754
  0
LINE
  5
54B
100
AcDbEntity
  8
0
100
AcDbLine
 62
7
  6
CONTINUOUS
 10
191.0878825622
 20
117.2549992085
 11
191.0271515266
 21
117.259958754
  0
LINE
  5
54C
100
AcDbEntity
  8
0
100
AcDbLine
 62
7
  6
CONTINUOUS
 10
181.2006130799
 20
119.9042850816
 11
181.2556874722
 21
119.8782146562
  0
LINE
  5
54D
100
AcDbEntity
  8
0
100
AcDbLine
 62
7
  6
CONTINUOUS
 10
168.8904623173
 20
136.3734049843
 11
168.8860608057
 21
136.3778064959
  0
LINE
  5
54E
100
AcDbEntity
  8
0
100
AcDbLine
 62
7
  6
CONTINUOUS
 10
185.310717635
 20
120.5904469344
 11
185.3453782452
 21
120.5403320875
  0
LINE
  5
54F
100
AcDbEntity
  8
0
100
AcDbLine
 62
253
  6
CONTINUOUS
 10
191.8904432788
 20
136.3690796281
 11
191.8904432788
 21
134.9253987166
  0
LINE
  5
550
100
AcDbEntity
  8
0
100
AcDbLine
 62
253
  6
CONTINUOUS
 10
191.8904432788
 20
90.2302142751
 11
191.8904432788
 21
88.7865333636
  0
LWPOLYLINE
  5
551
100
AcDbEntity
  8
0
100
AcDbPolyline
 62
7
  6
CONTINUOUS
 90
3
 70
0
 10
187.5275343239
 20
88.2631122638
 10
187.5339148586
 20
88.295185077
 10
187.5360544591
 20
88.3278160155
  0
LINE
  5
552
100
AcDbEntity
  8
0
100
AcDbLine
 62
7
  6
CONTINUOUS
 10
181.1532982507
 20
120.0990666987
 11
181.8005806423
 21
120.0990666987
  0
LINE
  5
553
100
AcDbEntity
  8
0
100
AcDbLine
 62
7
  6
CONTINUOUS
 10
187.2715409692
 20
120.0990666987
 11
187.9188233608
 21
120.0990666987
  0
LINE
  5
554
100
AcDbEntity
  8
0
100
AcDbLine
 62
7
  6
CONTINUOUS
 10
187.2860608057
 20
120.1646831963
 11
187.0819155109
 21
120.1646831963
  0
LINE
  5
555
100
AcDbEntity
  8
0
100
AcDbLine
 62
7
  6
CONTINUOUS
 10
181.7860608057
 20
120.1646831963
 11
181.3860608057
 21
120.1646831963
  0
LINE
  5
556
100
AcDbEntity
  8
0
100
AcDbLine
 62
7
  6
CONTINUOUS
 10
187.944339411
 20
120.1778064959
 11
187.2860608057
 21
120.1778064959
  0
LINE
  5
557
100
AcDbEntity
  8
0
100
AcDbLine
 62
7
  6
CONTINUOUS
 10
182.0281311922
 20
120.1778064959
 11
181.7860608057
 21
120.1778064959
  0
LINE
  5
558
100
AcDbEntity
  8
0
100
AcDbLine
 62
7
  6
CONTINUOUS
 10
181.3860608057
 20
120.1778064959
 11
181.1277822005
 21
120.1778064959
  0
LINE
  5
559
100
AcDbEntity
  8
0
100
AcDbLine
 62
7
  6
CONTINUOUS
 10
187.2860608057
 20
120.5178064959
 11
186.8860608057
 21
120.5178064959
  0
LINE
  5
55A
100
AcDbEntity
  8
0
100
AcDbLine
 62
7
  6
CONTINUOUS
 10
181.7860608057
 20
120.5178064959
 11
181.5767621773
 21
120.5178064959
  0
LINE
  5
55B
100
AcDbEntity
  8
0
100
AcDbLine
 62
253
  6
CONTINUOUS
 10
186.8860608057
 20
120.6178064959
 11
187.2119350152
 21
120.6178064959
  0
LWPOLYLINE
  5
55C
100
AcDbEntity
  8
0
100
AcDbPolyline
 62
7
  6
CONTINUOUS
 90
9
 70
0
 10
183.9275343239
 20
136.8925007279
 10
183.9170220312
 20
136.9234666235
 10
183.9025578547
 20
136.9527957491
 10
183.8843892884
 20
136.9799862593
 10
183.8628272115
 20
137.0045729017
 10
183.8382405691
 20
137.0261349786
 10
183.811050059
 20
137.0443035449
 10
183.7817209333
 20
137.0587677214
 10
183.7507550378
 20
137.069280014
  0
LWPOLYLINE
  5
55D
100
AcDbEntity
  8
0
100
AcDbPolyline
 62
7
  6
CONTINUOUS
 90
9
 70
0
 10
204.0445872876
 20
136.8925007279
 10
204.0550995802
 20
136.9234666235
 10
204.0695637567
 20
136.9527957491
 10
204.087732323
 20
136.9799862593
 10
204.1092943999
 20
137.0045729017
 10
204.1338810423
 20
137.0261349786
 10
204.1610715525
 20
137.0443035449
 10
204.1904006781
 20
137.0587677214
 10
204.2213665736
 20
137.069280014
  0
LWPOLYLINE
  5
55E
100
AcDbEntity
  8
0
100
AcDbPolyline
 62
7
  6
CONTINUOUS
 90
9
 70
0
 10
187.5275343239
 20
136.8925007279
 10
187.5170220312
 20
136.9234666235
 10
187.5025578547
 20
136.9527957491
 10
187.4843892884
 20
136.9799862593
 10
187.4628272115
 20
137.0045729017
 10
187.4382405691
 20
137.0261349786
 10
187.411050059
 20
137.0443035449
 10
187.3817209333
 20
137.0587677214
 10
187.3507550378
 20
137.069280014
  0
LWPOLYLINE
  5
55F
100
AcDbEntity
  8
0
100
AcDbPolyline
 62
7
  6
CONTINUOUS
 90
9
 70
0
 10
204.0445872876
 20
88.2631122638
 10
204.0550995802
 20
88.2321463683
 10
204.0695637567
 20
88.2028172426
 10
204.087732323
 20
88.1756267325
 10
204.1092943999
 20
88.15104009
 10
204.1338810423
 20
88.1294780131
 10
204.1610715525
 20
88.1113094468
 10
204.1904006781
 20
88.0968452703
 10
204.2213665736
 20
88.0863329777
  0
LINE
  5
560
100
AcDbEntity
  8
0
100
AcDbLine
 62
253
  6
CONTINUOUS
 10
206.2853367679
 20
134.5765317178
 11
206.3950932364
 21
134.9060688922
  0
LINE
  5
561
100
AcDbEntity
  8
0
100
AcDbLine
 62
253
  6
CONTINUOUS
 10
206.3950932364
 20
90.2495440995
 11
206.2853367679
 21
90.5790812739
  0
LINE
  5
562
100
AcDbEntity
  8
0
100
AcDbLine
 62
253
  6
CONTINUOUS
 10
199.6816783326
 20
88.7865333636
 11
199.6816783326
 21
90.2302142751
  0
LINE
  5
563
100
AcDbEntity
  8
0
100
AcDbLine
 62
253
  6
CONTINUOUS
 10
199.6816783326
 20
134.9253987166
 11
199.6816783326
 21
136.3690796281
  0
LINE
  5
564
100
AcDbEntity
  8
0
100
AcDbLine
 62
7
  6
CONTINUOUS
 10
200.1816592942
 20
88.7822080074
 11
200.1816592942
 21
90.2042390547
  0
LINE
  5
565
100
AcDbEntity
  8
0
100
AcDbLine
 62
7
  6
CONTINUOUS
 10
200.1816592942
 20
134.951373937
 11
200.1816592942
 21
136.3734049843
  0
LWPOLYLINE
  5
566
100
AcDbEntity
  8
0
100
AcDbPolyline
 62
253
  6
CONTINUOUS
 90
73
 70
0
 10
198.435173768
 20
112.5778064959
 10
198.4222458537
 20
111.9878440026
 10
198.383487796
 20
111.3983233104
 10
198.3188878133
 20
110.8104098619
 10
198.2284536806
 20
110.2252147082
 10
198.1123108358
 20
109.6439675041
 10
197.9707268329
 20
109.0679986918
 10
197.8039627942
 20
108.4986183092
 10
197.6122755193
 20
107.9367985453
 10
197.3959851055
 20
107.3833349319
 10
197.1554258763
 20
106.8393568044
 10
196.8909990478
 20
106.3059523198
 10
196.6031132517
 20
105.7838371094
 10
196.2921613489
 20
105.27401706
 10
195.9586928216
 20
104.7776257754
 10
195.6033593435
 20
104.2955337354
 10
195.2267126122
 20
103.8287261117
 10
194.8294041702
 20
103.3782129743
 10
194.4122725067
 20
102.9448323364
 10
193.9760308294
 20
102.5295081094
 10
193.52141971
 20
102.1331159113
 10
193.049348768
 20
101.7563402395
 10
192.5606124932
 20
101.3999761851
 10
192.0560745373
 20
101.0648180528
 10
191.5367678105
 20
100.7514633614
 10
191.0035524304
 20
100.4605697249
 10
190.4574077469
 20
100.1928272042
 10
189.8995694285
 20
99.9487712619
 10
189.3310048834
 20
99.7289222649
 10
188.7527502693
 20
99.5338070124
 10
188.1661702757
 20
99.3638310934
 10
187.5723142439
 20
99.2193524179
 10
186.9722596209
 20
99.100724644
 10
186.3674318771
 20
99.0081940285
 10
185.7589230553
 20
98.9419425556
 10
185.1478421648
 20
98.9021487596
 10
184.5356493632
 20
98.888895472
 10
183.9234580238
 20
98.9021844144
 10
183.3123807782
 20
98.9420136793
 10
182.7038766728
 20
99.008300435
 10
182.0990545286
 20
99.1008661794
 10
181.4990065736
 20
99.2195289034
 10
180.9051577543
 20
99.3640424817
 10
180.318584553
 20
99.534053627
 10
179.7403373585
 20
99.7292042702
 10
179.1717832764
 20
99.9490879015
 10
178.6139589691
 20
100.1931771793
 10
178.067831133
 20
100.4609517054
 10
177.5346358585
 20
100.7518754727
 10
177.0153537378
 20
101.0652572145
 10
176.5108431793
 20
101.4004397964
 10
176.0221333351
 20
101.7568281229
 10
175.5500872513
 20
102.1336286911
 10
175.0955002973
 20
102.5300460769
 10
174.659281049
 20
102.9453971429
 10
174.2421692303
 20
103.3788078521
 10
173.8448796632
 20
103.8293534168
 10
173.4682533343
 20
104.2961933137
 10
173.1129419087
 20
104.7783172754
 10
172.7794970182
 20
105.2747401895
 10
172.4685718938
 20
105.7845889163
 10
172.180714845
 20
106.3067313307
 10
171.9163194184
 20
106.8401596288
 10
171.6757972227
 20
107.3841497337
 10
171.4595475812
 20
107.9376141418
 10
171.267903939
 20
108.4994218066
 10
171.1011882345
 20
109.0687643382
 10
170.9596555869
 20
109.6446631063
 10
170.8435619846
 20
110.2258133832
 10
170.7531706194
 20
110.8108895523
 10
170.6886040272
 20
111.3986639547
 10
170.64986787
 20
111.98802449
 10
170.6369478434
 20
112.5778064959
  0
LWPOLYLINE
  5
567
100
AcDbEntity
  8
0
100
AcDbPolyline
 62
253
  6
CONTINUOUS
 90
73
 70
0
 10
198.7740105976
 20
112.5778064959
 10
198.7607353947
 20
111.971304801
 10
198.7210560656
 20
111.3675334164
 10
198.6549726103
 20
110.7664932043
 10
198.5622832834
 20
110.1669013606
 10
198.4431898302
 20
109.5700423602
 10
198.2982974871
 20
108.9797678752
 10
198.127486323
 20
108.396320374
 10
197.9308762689
 20
107.8194586683
 10
197.7094323539
 20
107.252308695
 10
197.4630480169
 20
106.6949239639
 10
197.191829819
 20
106.1472516902
 10
196.8970624727
 20
105.6122580508
 10
196.5785827813
 20
105.0899288898
 10
196.2365539415
 20
104.5802784284
 10
195.8727502554
 20
104.0863150395
 10
195.4870220785
 20
103.6081069914
 10
195.0795190553
 20
103.1455853827
 10
194.6524644217
 20
102.7015524508
 10
194.2057567326
 20
102.2761293618
 10
193.7394974331
 20
101.8691937025
 10
193.2562140949
 20
101.4831820084
 10
192.7557987626
 20
101.1182013113
 10
192.2383593915
 20
100.7741429122
 10
191.7067474186
 20
100.4531195055
 10
191.1608353714
 20
100.1552442128
 10
190.6007507224
 20
99.8804020762
 10
190.0297273266
 20
99.6303635321
 10
189.4476730591
 20
99.4052801019
 10
188.8546800447
 20
99.2049985403
 10
188.2542585129
 20
99.0308321112
 10
187.6463545842
 20
98.8829513744
 10
187.0310221381
 20
98.7611844357
 10
186.4119330419
 20
98.6663309603
 10
185.7890587914
 20
98.5985675844
 10
185.1624278909
 20
98.557716945
 10
184.5357977208
 20
98.5440478646
 10
183.9091686571
 20
98.5577396239
 10
183.2825403238
 20
98.5986129421
 10
182.6596689733
 20
98.6663989809
 10
182.0405828682
 20
98.7612749947
 10
181.425253746
 20
98.8830644559
 10
180.8173530714
 20
99.030968008
 10
180.2169337406
 20
99.2051580104
 10
179.6239428575
 20
99.4054634381
 10
179.0418931976
 20
99.6305699406
 10
178.4708776705
 20
99.8806307571
 10
177.9108033666
 20
100.1554943724
 10
177.364904334
 20
100.45338928
 10
176.8333093955
 20
100.7744292739
 10
176.3158897283
 20
101.1185023963
 10
175.8154929111
 20
101.4834983742
 10
175.3322257989
 20
101.8695260595
 10
174.8659815368
 20
102.2764782677
 10
174.419287138
 20
102.701920426
 10
173.9922428663
 20
103.1459763599
 10
173.584748458
 20
103.6085234913
 10
173.1990301359
 20
104.0867573086
 10
172.8352380689
 20
104.5807469694
 10
172.4932220882
 20
105.0904239491
 10
172.1747579103
 20
105.612776832
 10
171.8800087827
 20
106.1477935453
 10
171.608811458
 20
106.6954860962
 10
171.3624519099
 20
107.2528788187
 10
171.1410380099
 20
107.820026026
 10
170.9444618867
 20
108.396872679
 10
170.7736858995
 20
108.9802787648
 10
170.6288325585
 20
109.5704689502
 10
170.5097793537
 20
110.1672172871
 10
170.4171211138
 20
110.7667075908
 10
170.3510561154
 20
111.367667216
 10
170.3113860821
 20
111.9713671384
 10
170.2981110138
 20
112.5778064959
  0
LINE
  5
568
100
AcDbEntity
  8
0
100
AcDbLine
 62
253
  6
CONTINUOUS
 10
206.9360608057
 20
134.5299854231
 11
206.7852606155
 21
134.0772169504
  0
LINE
  5
569
100
AcDbEntity
  8
0
100
AcDbLine
 62
253
  6
CONTINUOUS
 10
181.7860639913
 20
88.0778064959
 11
181.8057057778
 21
88.0974609872
  0
LINE
  5
56A
100
AcDbEntity
  8
DRAFT
100
AcDbLine
 62
7
  6
CONTINUOUS
 10
183.9373065514
 20
90.1703253737
 11
183.9360608057
 21
90.1690796281
  0
LINE
  5
56B
100
AcDbEntity
  8
0
100
AcDbLine
 62
253
  6
CONTINUOUS
 10
181.5360608057
 20
88.3278096815
 11
181.5557152971
 21
88.347451468
  0
LINE
  5
56C
100
AcDbEntity
  8
0
100
AcDbLine
 62
253
  6
CONTINUOUS
 10
181.5557152971
 20
136.8081615237
 11
181.5360608057
 21
136.8278033102
  0
LINE
  5
56D
100
AcDbEntity
  8
DRAFT
100
AcDbLine
 62
7
  6
CONTINUOUS
 10
183.9360608057
 20
134.9865333636
 11
183.9373065514
 21
134.985287618
  0
LINE
  5
56E
100
AcDbEntity
  8
0
100
AcDbLine
 62
253
  6
CONTINUOUS
 10
181.8057057778
 20
137.0581520045
 11
181.7860639913
 21
137.0778064959
  0
LINE
  5
56F
100
AcDbEntity
  8
0
100
AcDbLine
 62
253
  6
CONTINUOUS
 10
206.7852606155
 20
91.0783960413
 11
206.9360608057
 21
90.6256275686
  0
LWPOLYLINE
  5
570
100
AcDbEntity
  8
0
100
AcDbPolyline
 62
7
  6
CONTINUOUS
 90
3
 70
0
 10
204.0360671523
 20
88.3278160155
 10
204.0382067529
 20
88.295185077
 10
204.0445872876
 20
88.2631122638
  0
LWPOLYLINE
  5
571
100
AcDbEntity
  8
0
100
AcDbPolyline
 62
7
  6
CONTINUOUS
 90
3
 70
0
 10
204.0360671523
 20
136.8277969763
 10
204.0382067529
 20
136.8604279147
 10
204.0445872876
 20
136.8925007279
  0
LWPOLYLINE
  5
572
100
AcDbEntity
  8
0
100
AcDbPolyline
 62
253
  6
CONTINUOUS
 90
9
 70
0
 10
206.7852606155
 20
134.0772169504
 10
206.7840335856
 20
134.0710152193
 10
206.7828271817
 20
134.0600372485
 10
206.7816414037
 20
134.0442830381
 10
206.7804700347
 20
134.0236264267
 10
206.7793192917
 20
133.9981935758
 10
206.7782078253
 20
133.9683629695
 10
206.7771367684
 20
133.9340719923
 10
206.7751277377
 20
133.8528631025
  0
LINE
  5
573
100
AcDbEntity
  8
0
100
AcDbLine
 62
253
  6
CONTINUOUS
 10
185.3860639913
 20
88.0778064959
 11
185.4057057778
 21
88.0974609872
  0
LINE
  5
574
100
AcDbEntity
  8
DRAFT
100
AcDbLine
 62
7
  6
CONTINUOUS
 10
187.5373065514
 20
90.1703253737
 11
187.5360608057
 21
90.1690796281
  0
LINE
  5
575
100
AcDbEntity
  8
0
100
AcDbLine
 62
253
  6
CONTINUOUS
 10
185.1360608057
 20
88.3278096815
 11
185.1557152971
 21
88.347451468
  0
LWPOLYLINE
  5
576
100
AcDbEntity
  8
0
100
AcDbPolyline
 62
7
  6
CONTINUOUS
 90
9
 70
0
 10
164.8507550378
 20
88.0863329777
 10
164.8817209333
 20
88.0968452703
 10
164.911050059
 20
88.1113094468
 10
164.9382405691
 20
88.1294780131
 10
164.9628272115
 20
88.15104009
 10
164.9843892884
 20
88.1756267325
 10
165.0025578547
 20
88.2028172426
 10
165.0170220312
 20
88.2321463683
 10
165.0275343239
 20
88.2631122638
  0
LINE
  5
577
100
AcDbEntity
  8
0
100
AcDbLine
 62
253
  6
CONTINUOUS
 10
185.1557152971
 20
136.8081615237
 11
185.1360608057
 21
136.8278033102
  0
LINE
  5
578
100
AcDbEntity
  8
DRAFT
100
AcDbLine
 62
7
  6
CONTINUOUS
 10
187.5360608057
 20
134.9865333636
 11
187.5373065514
 21
134.985287618
  0
LINE
  5
579
100
AcDbEntity
  8
0
100
AcDbLine
 62
253
  6
CONTINUOUS
 10
185.4057057778
 20
137.0581520045
 11
185.3860639913
 21
137.0778064959
  0
LWPOLYLINE
  5
57A
100
AcDbEntity
  8
0
100
AcDbPolyline
 62
7
  6
CONTINUOUS
 90
16
 70
0
 10
206.4251331821
 20
89.3108191977
 10
206.4237877706
 20
89.3244459166
 10
206.4201292831
 20
89.3382462397
 10
206.4141109604
 20
89.3520178843
 10
206.4057141113
 20
89.3654657724
 10
206.3949401302
 20
89.3784537809
 10
206.3817999631
 20
89.3910019997
 10
206.3663460796
 20
89.4028692816
 10
206.3486590725
 20
89.4138256041
 10
206.3288170015
 20
89.4238909216
 10
206.3069759986
 20
89.4328169046
 10
206.283301811
 20
89.4403765063
 10
206.2579148519
 20
89.4465964494
 10
206.2310271247
 20
89.4513192076
 10
206.2029608629
 20
89.4542378246
 10
206.1740518429
 20
89.455156765
  0
LWPOLYLINE
  5
57B
100
AcDbEntity
  8
0
100
AcDbPolyline
 62
7
  6
CONTINUOUS
 90
16
 70
0
 10
204.0557152971
 20
88.347451468
 10
204.0571004811
 20
88.3211902314
 10
204.061235362
 20
88.2952258835
 10
204.068072211
 20
88.2698452853
 10
204.0775269262
 20
88.2453431746
 10
204.089496642
 20
88.2219735094
 10
204.1038759902
 20
88.1999542027
 10
204.120556242
 20
88.1794926826
 10
204.1393322106
 20
88.1608761511
 10
204.1598994893
 20
88.144396654
 10
204.1819906276
 20
88.1302287503
 10
204.2053665125
 20
88.118489084
 10
204.2297098415
 20
88.1092979427
 10
204.254724865
 20
88.1027183751
 10
204.2801487708
 20
88.0987727357
 10
204.3057057778
 20
88.0974609872
  0
LINE
  5
57C
100
AcDbEntity
  8
0
100
AcDbLine
 62
253
  6
CONTINUOUS
 10
204.0557152971
 20
88.7334689286
 11
204.0469884293
 21
89.3108191977
  0
LINE
  5
57D
100
AcDbEntity
  8
0
100
AcDbLine
 62
253
  6
CONTINUOUS
 10
204.3057057778
 20
88.9499752795
 11
204.2980697685
 21
89.455156765
  0
LINE
  5
57E
100
AcDbEntity
  8
0
100
AcDbLine
 62
7
  6
CONTINUOUS
 10
204.0360894409
 20
135.9859774033
 11
204.0360985686
 21
135.9853735319
  0
LINE
  5
57F
100
AcDbEntity
  8
0
100
AcDbLine
 62
7
  6
CONTINUOUS
 10
204.0360705535
 20
135.9878316165
 11
204.036089225
 21
135.9859917216
  0
LINE
  5
580
100
AcDbEntity
  8
0
100
AcDbLine
 62
7
  6
CONTINUOUS
 10
204.0360608057
 20
88.327809706
 11
204.0360608057
 21
90.1690796281
  0
LINE
  5
581
100
AcDbEntity
  8
0
100
AcDbLine
 62
7
  6
CONTINUOUS
 10
204.0360608057
 20
134.9865333636
 11
204.0360608057
 21
136.8278032857
  0
LINE
  5
582
100
AcDbEntity
  8
0
100
AcDbLine
 62
7
  6
CONTINUOUS
 10
204.0469884293
 20
89.3108191977
 11
204.0469884293
 21
90.2434305545
  0
LINE
  5
583
100
AcDbEntity
  8
0
100
AcDbLine
 62
7
  6
CONTINUOUS
 10
204.0469884293
 20
134.9121824372
 11
204.0469884293
 21
135.844793794
  0
LINE
  5
584
100
AcDbEntity
  8
0
100
AcDbLine
 62
7
  6
CONTINUOUS
 10
204.0557152971
 20
88.347451468
 11
204.0557152971
 21
88.7334689286
  0
LINE
  5
585
100
AcDbEntity
  8
0
100
AcDbLine
 62
7
  6
CONTINUOUS
 10
204.0557152971
 20
136.4221440632
 11
204.0557152971
 21
136.8081615237
  0
LINE
  5
586
100
AcDbEntity
  8
0
100
AcDbLine
 62
253
  6
CONTINUOUS
 10
204.2969789101
 20
89.455156765
 11
204.2969789101
 21
90.2564181648
  0
LINE
  5
587
100
AcDbEntity
  8
0
100
AcDbLine
 62
253
  6
CONTINUOUS
 10
204.2969789101
 20
134.8991948269
 11
204.2969789101
 21
135.7004562267
  0
LINE
  5
588
100
AcDbEntity
  8
0
100
AcDbLine
 62
253
  6
CONTINUOUS
 10
204.3057057778
 20
88.0974609872
 11
204.3057057778
 21
88.9499752795
  0
LINE
  5
589
100
AcDbEntity
  8
0
100
AcDbLine
 62
253
  6
CONTINUOUS
 10
204.3057057778
 20
136.2056377122
 11
204.3057057778
 21
137.0581520045
  0
LINE
  5
58A
100
AcDbEntity
  8
0
100
AcDbLine
 62
7
  6
CONTINUOUS
 10
204.0360682097
 20
89.1664816331
 11
204.0360810905
 21
89.1683790112
  0
LINE
  5
58B
100
AcDbEntity
  8
0
100
AcDbLine
 62
253
  6
CONTINUOUS
 10
204.0469884293
 20
135.844793794
 11
204.0557152971
 21
136.4221440632
  0
LINE
  5
58C
100
AcDbEntity
  8
0
100
AcDbLine
 62
253
  6
CONTINUOUS
 10
204.2980697685
 20
135.7004562267
 11
204.3057057778
 21
136.2056377122
  0
LINE
  5
58D
100
AcDbEntity
  8
0
100
AcDbLine
 62
7
  6
CONTINUOUS
 10
204.0360985686
 20
89.1702394598
 11
204.0360890028
 21
89.1696066041
  0
LWPOLYLINE
  5
58E
100
AcDbEntity
  8
0
100
AcDbPolyline
 62
7
  6
CONTINUOUS
 90
16
 70
0
 10
204.0557152971
 20
136.8081615237
 10
204.0571004808
 20
136.834422758
 10
204.0612353613
 20
136.8603871049
 10
204.06807221
 20
136.8857677036
 10
204.077526926
 20
136.9102698167
 10
204.0894966437
 20
136.9336394852
 10
204.1038759936
 20
136.9556587938
 10
204.1205562461
 20
136.9761203135
 10
204.1393322141
 20
136.9947368438
 10
204.1598994915
 20
137.0112163393
 10
204.181990627
 20
137.0253842411
 10
204.2053665082
 20
137.0371239058
 10
204.2297098349
 20
137.0463150469
 10
204.2547248587
 20
137.0528946153
 10
204.2801487667
 20
137.0568402556
 10
204.3057057778
 20
137.0581520045
  0
LWPOLYLINE
  5
58F
100
AcDbEntity
  8
0
100
AcDbPolyline
 62
253
  6
CONTINUOUS
 90
16
 70
0
 10
206.4164063144
 20
136.4221440632
 10
206.4149241837
 20
136.3995235459
 10
206.4107232697
 20
136.3771559287
 10
206.4038514635
 20
136.35528566
 10
206.3943879497
 20
136.3341556086
 10
206.3824368341
 20
136.3139915865
 10
206.368121074
 20
136.2950019988
 10
206.3515838649
 20
136.2773854353
 10
206.3330120611
 20
136.2613484398
 10
206.3126333494
 20
136.2470850573
 10
206.2906773953
 20
136.2347476209
 10
206.2673858258
 20
136.2244641106
 10
206.2430390741
 20
136.2163476873
 10
206.2179147794
 20
136.2104760247
 10
206.1922808888
 20
136.2068973801
 10
206.1664158336
 20
136.2056377122
  0
LWPOLYLINE
  5
590
100
AcDbEntity
  8
0
100
AcDbPolyline
 62
7
  6
CONTINUOUS
 90
16
 70
0
 10
206.4251331821
 20
135.844793794
 10
206.4237793134
 20
135.8307595912
 10
206.4200979262
 20
135.81699016
 10
206.4140526862
 20
135.8034855005
 10
206.4056390414
 20
135.7901070394
 10
206.3948661588
 20
135.77699335
 10
206.3817403417
 20
135.7645601518
 10
206.3663190549
 20
135.7527987223
 10
206.3486855731
 20
135.7417177841
 10
206.3288986312
 20
135.7317592248
 10
206.3070786533
 20
135.7229223913
 10
206.2834182934
 20
135.7152079368
 10
206.2581224812
 20
135.7090597083
 10
206.2314412849
 20
135.704625655
 10
206.2036712656
 20
135.7017578278
 10
206.1751427014
 20
135.7004562267
  0
LWPOLYLINE
  5
591
100
AcDbEntity
  8
0
100
AcDbPolyline
 62
253
  6
CONTINUOUS
 90
7
 70
0
 10
206.2853367679
 20
134.5765317178
 10
206.2841039317
 20
134.5673082184
 10
206.2828935256
 20
134.5507198636
 10
206.2817055494
 20
134.5268487764
 10
206.2805343929
 20
134.4958131052
 10
206.2793856665
 20
134.457766443
 10
206.2772065205
 20
134.3614269304
  0
LWPOLYLINE
  5
592
100
AcDbEntity
  8
0
100
AcDbPolyline
 62
7
  6
CONTINUOUS
 90
3
 70
0
 10
204.2213665736
 20
137.069280014
 10
204.2534393868
 20
137.0756605487
 10
204.2860703253
 20
137.0778001493
  0
LWPOLYLINE
  5
593
100
AcDbEntity
  8
0
100
AcDbPolyline
 62
7
  6
CONTINUOUS
 90
7
 70
0
 10
162.6770283751
 20
134.9060688922
 10
162.6681625137
 20
134.9068684851
 10
162.6607742272
 20
134.9077034302
 10
162.6549204436
 20
134.9085737275
 10
162.6506484673
 20
134.909479377
 10
162.6479955344
 20
134.9104203787
 10
162.6469884293
 20
134.9113967326
  0
LWPOLYLINE
  5
594
100
AcDbEntity
  8
0
100
AcDbPolyline
 62
7
  6
CONTINUOUS
 90
3
 70
0
 10
164.8507550378
 20
137.069280014
 10
164.8186822246
 20
137.0756605487
 10
164.7860512861
 20
137.0778001493
  0
LWPOLYLINE
  5
595
100
AcDbEntity
  8
0
100
AcDbPolyline
 62
7
  6
CONTINUOUS
 90
16
 70
0
 10
204.0469884293
 20
135.844793794
 10
204.0483338409
 20
135.8311670751
 10
204.0519923283
 20
135.817366752
 10
204.058010651
 20
135.8035951074
 10
204.0664075001
 20
135.7901472193
 10
204.0771814812
 20
135.7771592109
 10
204.0903216483
 20
135.764610992
 10
204.1057755318
 20
135.7527437101
 10
204.1234625389
 20
135.7417873876
 10
204.14330461
 20
135.7317220701
 10
204.1651456129
 20
135.7227960871
 10
204.1888198005
 20
135.7152364855
 10
204.2142067595
 20
135.7090165423
 10
204.2410944867
 20
135.7042937841
 10
204.2691607485
 20
135.7013751671
 10
204.2980697685
 20
135.7004562267
  0
LWPOLYLINE
  5
596
100
AcDbEntity
  8
0
100
AcDbPolyline
 62
253
  6
CONTINUOUS
 90
16
 70
0
 10
204.0557152971
 20
136.4221440632
 10
204.0571974277
 20
136.3995235463
 10
204.0613983416
 20
136.3771559294
 10
204.0682701475
 20
136.355285661
 10
204.0777336611
 20
136.3341556098
 10
204.0896847765
 20
136.3139915878
 10
204.1040005364
 20
136.2950020001
 10
204.1205377449
 20
136.2773854369
 10
204.1391095481
 20
136.2613484415
 10
204.1594882593
 20
136.247085059
 10
204.1814442133
 20
136.2347476223
 10
204.2047357832
 20
136.2244641115
 10
204.2290825353
 20
136.2163476878
 10
204.2542068306
 20
136.210476025
 10
204.2798407219
 20
136.2068973802
 10
204.3057057778
 20
136.2056377122
  0
LWPOLYLINE
  5
597
100
AcDbEntity
  8
0
100
AcDbPolyline
 62
253
  6
CONTINUOUS
 90
8
 70
0
 10
206.777133578
 20
91.2216507555
 10
206.7782048861
 20
91.1873335694
 10
206.7793165431
 20
91.1574831786
 10
206.7804674993
 20
91.132033863
 10
206.7816392364
 20
91.1113627761
 10
206.7828255818
 20
91.0955956357
 10
206.7840327081
 20
91.0846067241
 10
206.7852606155
 20
91.0783960413
  0
LWPOLYLINE
  5
598
100
AcDbEntity
  8
0
100
AcDbPolyline
 62
253
  6
CONTINUOUS
 90
6
 70
0
 10
206.279385569
 20
90.6978465612
 10
206.2805342932
 20
90.6597999226
 10
206.2817054567
 20
90.6287642549
 10
206.2828934546
 20
90.6048931545
 10
206.2841038916
 20
90.5883047839
 10
206.2853367679
 20
90.5790812739
  0
LINE
  5
599
100
AcDbEntity
  8
0
100
AcDbLine
 62
253
  6
CONTINUOUS
 10
206.7751242292
 20
91.3029140397
 11
206.777133578
 21
91.2216507555
  0
LINE
  5
59A
100
AcDbEntity
  8
0
100
AcDbLine
 62
253
  6
CONTINUOUS
 10
206.2772063928
 20
90.7941860533
 11
206.279385569
 21
90.6978465612
  0
LINE
  5
59B
100
AcDbEntity
  8
0
100
AcDbLine
 62
253
  6
CONTINUOUS
 10
206.7733352526
 20
91.399599365
 11
206.7751242292
 21
91.3029140397
  0
LINE
  5
59C
100
AcDbEntity
  8
0
100
AcDbLine
 62
253
  6
CONTINUOUS
 10
206.2752000205
 20
90.9158780602
 11
206.2772063928
 21
90.7941860533
  0
LINE
  5
59D
100
AcDbEntity
  8
0
100
AcDbLine
 62
253
  6
CONTINUOUS
 10
206.1664158336
 20
136.2056377122
 11
206.1740518429
 21
135.7004562267
  0
LINE
  5
59E
100
AcDbEntity
  8
0
100
AcDbLine
 62
253
  6
CONTINUOUS
 10
206.4164063144
 20
136.4221440632
 11
206.4251331821
 21
135.844793794
  0
LINE
  5
59F
100
AcDbEntity
  8
0
100
AcDbLine
 62
7
  6
CONTINUOUS
 10
206.4360230428
 20
89.1702394587
 11
206.4360534018
 21
89.1664816331
  0
LINE
  5
5A0
100
AcDbEntity
  8
0
100
AcDbLine
 62
253
  6
CONTINUOUS
 10
206.7711408332
 20
91.5689361604
 11
206.7733352526
 21
91.399599365
  0
LINE
  5
5A1
100
AcDbEntity
  8
0
100
AcDbLine
 62
253
  6
CONTINUOUS
 10
206.2726147266
 20
91.1405614061
 11
206.2752000205
 21
90.9158780602
  0
LINE
  5
5A2
100
AcDbEntity
  8
0
100
AcDbLine
 62
253
  6
CONTINUOUS
 10
206.7692679834
 20
91.8282151925
 11
206.7711408332
 21
91.5689361604
  0
LINE
  5
5A3
100
AcDbEntity
  8
0
100
AcDbLine
 62
253
  6
CONTINUOUS
 10
206.2696951088
 20
91.601594604
 11
206.2726147266
 21
91.1405614061
  0
LINE
  5
5A4
100
AcDbEntity
  8
0
100
AcDbLine
 62
253
  6
CONTINUOUS
 10
206.2658960655
 20
96.5829934842
 11
206.2696951088
 21
91.601594604
  0
LINE
  5
5A5
100
AcDbEntity
  8
0
100
AcDbLine
 62
253
  6
CONTINUOUS
 10
206.7658199153
 20
96.599613692
 11
206.7692679834
 21
91.8282151925
  0
LINE
  5
5A6
100
AcDbEntity
  8
0
100
AcDbLine
 62
253
  6
CONTINUOUS
 10
206.262253651
 20
105.7219319431
 11
206.2658960655
 21
96.5829934842
  0
LINE
  5
5A7
100
AcDbEntity
  8
0
100
AcDbLine
 62
253
  6
CONTINUOUS
 10
206.7621775028
 20
105.7287701656
 11
206.7658199153
 21
96.599613692
  0
LINE
  5
5A8
100
AcDbEntity
  8
0
100
AcDbLine
 62
253
  6
CONTINUOUS
 10
206.1664158336
 20
137.0581520045
 11
206.1664158336
 21
136.2056377122
  0
LINE
  5
5A9
100
AcDbEntity
  8
0
100
AcDbLine
 62
253
  6
CONTINUOUS
 10
206.1664158336
 20
88.0974609872
 11
206.1664158336
 21
88.9499752795
  0
LINE
  5
5AA
100
AcDbEntity
  8
0
100
AcDbLine
 62
253
  6
CONTINUOUS
 10
206.1751427014
 20
135.7004562267
 11
206.1751427014
 21
134.8991948269
  0
LINE
  5
5AB
100
AcDbEntity
  8
0
100
AcDbLine
 62
253
  6
CONTINUOUS
 10
206.1751427014
 20
90.2564181648
 11
206.1751427014
 21
89.455156765
  0
LINE
  5
5AC
100
AcDbEntity
  8
0
100
AcDbLine
 62
253
  6
CONTINUOUS
 10
206.2615251682
 20
114.8631616514
 11
206.262253651
 21
105.7219319431
  0
LINE
  5
5AD
100
AcDbEntity
  8
0
100
AcDbLine
 62
7
  6
CONTINUOUS
 10
206.4164063144
 20
136.8081615237
 11
206.4164063144
 21
136.4221440632
  0
LINE
  5
5AE
100
AcDbEntity
  8
0
100
AcDbLine
 62
7
  6
CONTINUOUS
 10
206.4164063144
 20
88.347451468
 11
206.4164063144
 21
88.7334689286
  0
LINE
  5
5AF
100
AcDbEntity
  8
0
100
AcDbLine
 62
7
  6
CONTINUOUS
 10
206.4251331821
 20
135.844793794
 11
206.4251331821
 21
134.9113967326
  0
LINE
  5
5B0
100
AcDbEntity
  8
0
100
AcDbLine
 62
7
  6
CONTINUOUS
 10
206.4251331821
 20
90.2442162591
 11
206.4251331821
 21
89.3108191977
  0
LINE
  5
5B1
100
AcDbEntity
  8
0
100
AcDbLine
 62
7
  6
CONTINUOUS
 10
206.4360608057
 20
88.327809706
 11
206.4360608057
 21
90.1690796281
  0
LINE
  5
5B2
100
AcDbEntity
  8
0
100
AcDbLine
 62
7
  6
CONTINUOUS
 10
206.4360608057
 20
134.9865333636
 11
206.4360608057
 21
136.8278032857
  0
LINE
  5
5B3
100
AcDbEntity
  8
0
100
AcDbLine
 62
253
  6
CONTINUOUS
 10
206.7614490182
 20
114.861001959
 11
206.7621775028
 21
105.7287701656
  0
LINE
  5
5B4
100
AcDbEntity
  8
RACCORDO
100
AcDbLine
 62
7
  6
CONTINUOUS
 10
206.9360608057
 20
130.6995055446
 11
206.9360608057
 21
94.4561074471
  0
LINE
  5
5B5
100
AcDbEntity
  8
ASSI
100
AcDbLine
 62
7
  6
CONTINUOUS
 10
206.9360608057
 20
130.6995055446
 11
206.9360608057
 21
94.4561074471
  0
LINE
  5
5B6
100
AcDbEntity
  8
0
100
AcDbLine
 62
7
  6
CONTINUOUS
 10
206.9360608057
 20
90.6256275686
 11
206.9360608057
 21
134.5299854231
  0
LINE
  5
5B7
100
AcDbEntity
  8
0
100
AcDbLine
 62
253
  6
CONTINUOUS
 10
206.2637106169
 20
124.0036276484
 11
206.2615251682
 21
114.8631616514
  0
LINE
  5
5B8
100
AcDbEntity
  8
0
100
AcDbLine
 62
253
  6
CONTINUOUS
 10
206.7636344652
 20
123.9917001021
 11
206.7614490182
 21
114.861001959
  0
LINE
  5
5B9
100
AcDbEntity
  8
0
100
AcDbLine
 62
253
  6
CONTINUOUS
 10
206.7692685314
 20
133.3275222101
 11
206.7636344652
 21
123.9917001021
  0
LINE
  5
5BA
100
AcDbEntity
  8
0
100
AcDbLine
 62
253
  6
CONTINUOUS
 10
206.2701262759
 20
133.6528374853
 11
206.2637106169
 21
124.0036276484
  0
LINE
  5
5BB
100
AcDbEntity
  8
0
100
AcDbLine
 62
7
  6
CONTINUOUS
 10
206.4360534018
 20
135.9891313586
 11
206.436040521
 21
135.9872339805
  0
LINE
  5
5BC
100
AcDbEntity
  8
0
100
AcDbLine
 62
253
  6
CONTINUOUS
 10
206.2726148635
 20
134.0150515786
 11
206.2701262759
 21
133.6528374853
  0
LINE
  5
5BD
100
AcDbEntity
  8
0
100
AcDbLine
 62
253
  6
CONTINUOUS
 10
206.7711427121
 20
133.5868607467
 11
206.7692685314
 21
133.3275222101
  0
LINE
  5
5BE
100
AcDbEntity
  8
0
100
AcDbLine
 62
253
  6
CONTINUOUS
 10
206.2752001999
 20
134.2397349538
 11
206.2726148635
 21
134.0150515786
  0
LINE
  5
5BF
100
AcDbEntity
  8
0
100
AcDbLine
 62
253
  6
CONTINUOUS
 10
206.7733384049
 20
133.7562104377
 11
206.7711427121
 21
133.5868607467
  0
LINE
  5
5C0
100
AcDbEntity
  8
0
100
AcDbLine
 62
7
  6
CONTINUOUS
 10
206.4360230428
 20
135.9853735319
 11
206.4360326087
 21
135.9860063876
  0
LINE
  5
5C1
100
AcDbEntity
  8
0
100
AcDbLine
 62
253
  6
CONTINUOUS
 10
206.1664158336
 20
88.9499752795
 11
206.1740518429
 21
89.455156765
  0
LINE
  5
5C2
100
AcDbEntity
  8
0
100
AcDbLine
 62
253
  6
CONTINUOUS
 10
206.4164063144
 20
88.7334689286
 11
206.4251331821
 21
89.3108191977
  0
LINE
  5
5C3
100
AcDbEntity
  8
0
100
AcDbLine
 62
253
  6
CONTINUOUS
 10
206.2772065205
 20
134.3614269304
 11
206.2752001999
 21
134.2397349538
  0
LINE
  5
5C4
100
AcDbEntity
  8
0
100
AcDbLine
 62
253
  6
CONTINUOUS
 10
206.7751277377
 20
133.8528631025
 11
206.7733384049
 21
133.7562104377
  0
LWPOLYLINE
  5
5C5
100
AcDbEntity
  8
0
100
AcDbPolyline
 62
253
  6
CONTINUOUS
 90
16
 70
0
 10
204.0557152971
 20
88.7334689286
 10
204.0571974277
 20
88.7560894458
 10
204.0613983418
 20
88.778457063
 10
204.0682701479
 20
88.8003273317
 10
204.0777336617
 20
88.8214573831
 10
204.0896847773
 20
88.8416214052
 10
204.1040005375
 20
88.8606109929
 10
204.1205377465
 20
88.8782275564
 10
204.1391095504
 20
88.8942645519
 10
204.159488262
 20
88.9085279344
 10
204.1814442161
 20
88.9208653708
 10
204.2047357856
 20
88.9311488811
 10
204.2290825373
 20
88.9392653044
 10
204.2542068321
 20
88.945136967
 10
204.2798407227
 20
88.9487156116
 10
204.3057057778
 20
88.9499752795
  0
LWPOLYLINE
  5
5C6
100
AcDbEntity
  8
0
100
AcDbPolyline
 62
7
  6
CONTINUOUS
 90
16
 70
0
 10
204.0469884293
 20
89.3108191977
 10
204.048342298
 20
89.3248534005
 10
204.0520236852
 20
89.3386228317
 10
204.0580689252
 20
89.3521274912
 10
204.0664825701
 20
89.3655059523
 10
204.0772554527
 20
89.3786196417
 10
204.0903812698
 20
89.3910528399
 10
204.1058025565
 20
89.4028142694
 10
204.1234360384
 20
89.4138952076
 10
204.1432229802
 20
89.4238537669
 10
204.1650429582
 20
89.4326906004
 10
204.1887033181
 20
89.4404050549
 10
204.2139991302
 20
89.4465532834
 10
204.2406803265
 20
89.4509873367
 10
204.2684503458
 20
89.4538551639
 10
204.2969789101
 20
89.455156765
  0
LINE
  5
5C7
100
AcDbEntity
  8
0
100
AcDbLine
 62
7
  6
CONTINUOUS
 10
191.3904623173
 20
88.7822080074
 11
191.3860608057
 21
88.7778064959
  0
LINE
  5
5C8
100
AcDbEntity
  8
0
100
AcDbLine
 62
253
  6
CONTINUOUS
 10
162.7004943483
 20
133.1397611727
 11
162.8033116142
 21
133.1402743504
  0
LINE
  5
5C9
100
AcDbEntity
  8
0
100
AcDbLine
 62
253
  6
CONTINUOUS
 10
206.2853367679
 20
134.5765317178
 11
162.7867848436
 21
134.5765317178
  0
LINE
  5
5CA
100
AcDbEntity
  8
0
100
AcDbLine
 62
7
  6
CONTINUOUS
 10
206.1751427014
 20
134.8991948269
 11
204.2969789101
 21
134.8991948269
  0
LINE
  5
5CB
100
AcDbEntity
  8
0
100
AcDbLine
 62
7
  6
CONTINUOUS
 10
187.2751427014
 20
134.8991948269
 11
185.3969789101
 21
134.8991948269
  0
LINE
  5
5CC
100
AcDbEntity
  8
0
100
AcDbLine
 62
7
  6
CONTINUOUS
 10
183.6751427014
 20
134.8991948269
 11
181.7969789101
 21
134.8991948269
  0
LINE
  5
5CD
100
AcDbEntity
  8
0
100
AcDbLine
 62
7
  6
CONTINUOUS
 10
164.7751427014
 20
134.8991948269
 11
162.8969789101
 21
134.8991948269
  0
LINE
  5
5CE
100
AcDbEntity
  8
0
100
AcDbLine
 62
7
  6
CONTINUOUS
 10
169.3904432788
 20
134.9253987166
 11
177.1816783326
 21
134.9253987166
  0
LINE
  5
5CF
100
AcDbEntity
  8
0
100
AcDbLine
 62
7
  6
CONTINUOUS
 10
191.8904432788
 20
134.9253987166
 11
199.6816783326
 21
134.9253987166
  0
LINE
  5
5D0
100
AcDbEntity
  8
DRAFT
100
AcDbLine
 62
7
  6
CONTINUOUS
 10
165.0373065514
 20
134.985287618
 11
168.8873065514
 21
134.985287618
  0
LINE
  5
5D1
100
AcDbEntity
  8
DRAFT
100
AcDbLine
 62
7
  6
CONTINUOUS
 10
177.6848150601
 20
134.985287618
 11
181.5348150601
 21
134.985287618
  0
LINE
  5
5D2
100
AcDbEntity
  8
DRAFT
100
AcDbLine
 62
7
  6
CONTINUOUS
 10
183.9373065514
 20
134.985287618
 11
185.1348150601
 21
134.985287618
  0
LINE
  5
5D3
100
AcDbEntity
  8
DRAFT
100
AcDbLine
 62
7
  6
CONTINUOUS
 10
187.5373065514
 20
134.985287618
 11
191.3873065514
 21
134.985287618
  0
LINE
  5
5D4
100
AcDbEntity
  8
DRAFT
100
AcDbLine
 62
7
  6
CONTINUOUS
 10
200.1848150601
 20
134.985287618
 11
204.0348150601
 21
134.985287618
  0
LINE
  5
5D5
100
AcDbEntity
  8
0
100
AcDbLine
 62
7
  6
CONTINUOUS
 10
191.3904623173
 20
136.3734049843
 11
191.3860608057
 21
136.3778064959
  0
LWPOLYLINE
  5
5D6
100
AcDbEntity
  8
0
100
AcDbPolyline
 62
7
  6
CONTINUOUS
 90
3
 70
0
 10
206.4360544591
 20
136.8277969763
 10
206.4339148586
 20
136.8604279147
 10
206.4275343239
 20
136.8925007279
  0
LWPOLYLINE
  5
5D7
100
AcDbEntity
  8
0
100
AcDbPolyline
 62
253
  6
CONTINUOUS
 90
16
 70
0
 10
206.7852606155
 20
134.0772169504
 10
206.7824775911
 20
134.1293780913
 10
206.7742543369
 20
134.1809686169
 10
206.7606807827
 20
134.2314239612
 10
206.741905411
 20
134.2801919663
 10
206.718133629
 20
134.3267389384
 10
206.6896255175
 20
134.3705554869
 10
206.6566929882
 20
134.4111620887
 10
206.619696395
 20
134.4481143157
 10
206.5790405915
 20
134.481007718
 10
206.5351704527
 20
134.5094822895
 10
206.4885660607
 20
134.5332263597
 10
206.4397374864
 20
134.5519800102
 10
206.389219112
 20
134.5655379714
 10
206.3375637712
 20
134.5737518478
 10
206.2853367679
 20
134.576531718
  0
LWPOLYLINE
  5
5D8
100
AcDbEntity
  8
0
100
AcDbPolyline
 62
7
  6
CONTINUOUS
 90
16
 70
0
 10
206.4164063144
 20
136.8081615237
 10
206.4150211304
 20
136.8344227603
 10
206.4108862495
 20
136.8603871082
 10
206.4040494005
 20
136.8857677064
 10
206.3945946853
 20
136.9102698171
 10
206.3826249695
 20
136.9336394823
 10
206.3682456213
 20
136.955658789
 10
206.3515653694
 20
136.9761203091
 10
206.3327894008
 20
136.9947368406
 10
206.3122221221
 20
137.0112163377
 10
206.2901309839
 20
137.0253842414
 10
206.2667550989
 20
137.0371239077
 10
206.2424117699
 20
137.046315049
 10
206.2173967465
 20
137.0528946166
 10
206.1919728406
 20
137.056840256
 10
206.1664158336
 20
137.0581520045
  0
LWPOLYLINE
  5
5D9
100
AcDbEntity
  8
0
100
AcDbPolyline
 62
253
  6
CONTINUOUS
 90
16
 70
0
 10
206.7852606155
 20
91.0783960413
 10
206.7824774588
 20
91.0262336523
 10
206.7742538514
 20
90.9746421016
 10
206.7606797883
 20
90.9241859803
 10
206.741903817
 20
90.8754174542
 10
206.718131412
 20
90.8288702207
 10
206.6896227261
 20
90.7850536689
 10
206.6566897438
 20
90.7444473042
 10
206.6196928665
 20
90.7074955019
 10
206.579036969
 20
90.6746026433
 10
206.5351669683
 20
90.6461286908
 10
206.4885629551
 20
90.6223852487
 10
206.4397349395
 20
90.603632153
 10
206.3892172702
 20
90.5900746278
 10
206.3375627863
 20
90.5818610397
 10
206.2853367679
 20
90.5790812739
  0
LINE
  5
5DA
100
AcDbEntity
  8
0
100
AcDbLine
 62
7
  6
CONTINUOUS
 10
204.0348150601
 20
90.1703253737
 11
204.0469884293
 21
90.2434305545
  0
LWPOLYLINE
  5
5DB
100
AcDbEntity
  8
0
100
AcDbPolyline
 62
7
  6
CONTINUOUS
 90
9
 70
0
 10
183.7507550378
 20
88.0863329777
 10
183.7817209333
 20
88.0968452703
 10
183.811050059
 20
88.1113094468
 10
183.8382405691
 20
88.1294780131
 10
183.8628272115
 20
88.15104009
 10
183.8843892884
 20
88.1756267325
 10
183.9025578547
 20
88.2028172426
 10
183.9170220312
 20
88.2321463683
 10
183.9275343239
 20
88.2631122638
  0
LWPOLYLINE
  5
5DC
100
AcDbEntity
  8
0
100
AcDbPolyline
 62
7
  6
CONTINUOUS
 90
9
 70
0
 10
187.3507550378
 20
88.0863329777
 10
187.3817209333
 20
88.0968452703
 10
187.411050059
 20
88.1113094468
 10
187.4382405691
 20
88.1294780131
 10
187.4628272115
 20
88.15104009
 10
187.4843892884
 20
88.1756267325
 10
187.5025578547
 20
88.2028172426
 10
187.5170220312
 20
88.2321463683
 10
187.5275343239
 20
88.2631122638
  0
LWPOLYLINE
  5
5DD
100
AcDbEntity
  8
0
100
AcDbPolyline
 62
7
  6
CONTINUOUS
 90
3
 70
0
 10
185.3213665736
 20
137.069280014
 10
185.3534393868
 20
137.0756605487
 10
185.3860703253
 20
137.0778001493
  0
LWPOLYLINE
  5
5DE
100
AcDbEntity
  8
0
100
AcDbPolyline
 62
7
  6
CONTINUOUS
 90
3
 70
0
 10
181.7213665736
 20
137.069280014
 10
181.7534393868
 20
137.0756605487
 10
181.7860703253
 20
137.0778001493
  0
LINE
  5
5DF
100
AcDbEntity
  8
0
100
AcDbLine
 62
7
  6
CONTINUOUS
 10
206.1740518429
 20
135.7004562267
 11
204.2980697685
 21
135.7004562267
  0
LINE
  5
5E0
100
AcDbEntity
  8
0
100
AcDbLine
 62
7
  6
CONTINUOUS
 10
187.2740518429
 20
135.7004562267
 11
185.3980697685
 21
135.7004562267
  0
LINE
  5
5E1
100
AcDbEntity
  8
0
100
AcDbLine
 62
7
  6
CONTINUOUS
 10
183.6740518429
 20
135.7004562267
 11
181.7980697685
 21
135.7004562267
  0
LINE
  5
5E2
100
AcDbEntity
  8
0
100
AcDbLine
 62
7
  6
CONTINUOUS
 10
164.7740518429
 20
135.7004562267
 11
162.8980697685
 21
135.7004562267
  0
LINE
  5
5E3
100
AcDbEntity
  8
0
100
AcDbLine
 62
253
  6
CONTINUOUS
 10
162.9057057778
 20
136.2056377122
 11
164.7664158336
 21
136.2056377122
  0
LINE
  5
5E4
100
AcDbEntity
  8
0
100
AcDbLine
 62
253
  6
CONTINUOUS
 10
181.8057057778
 20
136.2056377122
 11
183.6664158336
 21
136.2056377122
  0
LINE
  5
5E5
100
AcDbEntity
  8
0
100
AcDbLine
 62
253
  6
CONTINUOUS
 10
185.4057057778
 20
136.2056377122
 11
187.2664158336
 21
136.2056377122
  0
LINE
  5
5E6
100
AcDbEntity
  8
0
100
AcDbLine
 62
253
  6
CONTINUOUS
 10
204.3057057778
 20
136.2056377122
 11
206.1664158336
 21
136.2056377122
  0
LINE
  5
5E7
100
AcDbEntity
  8
0
100
AcDbLine
 62
7
  6
CONTINUOUS
 10
169.3904432788
 20
136.3690796281
 11
177.1816783326
 21
136.3690796281
  0
LINE
  5
5E8
100
AcDbEntity
  8
0
100
AcDbLine
 62
7
  6
CONTINUOUS
 10
191.8904432788
 20
136.3690796281
 11
199.6816783326
 21
136.3690796281
  0
LINE
  5
5E9
100
AcDbEntity
  8
DRAFT
100
AcDbLine
 62
7
  6
CONTINUOUS
 10
168.8860608057
 20
136.3778064959
 11
177.6860608057
 21
136.3778064959
  0
LINE
  5
5EA
100
AcDbEntity
  8
DRAFT
100
AcDbLine
 62
7
  6
CONTINUOUS
 10
191.3860608057
 20
136.3778064959
 11
200.1860608057
 21
136.3778064959
  0
LINE
  5
5EB
100
AcDbEntity
  8
0
100
AcDbLine
 62
253
  6
CONTINUOUS
 10
162.6557152971
 20
136.4221440632
 11
165.0164063144
 21
136.4221440632
  0
LINE
  5
5EC
100
AcDbEntity
  8
0
100
AcDbLine
 62
253
  6
CONTINUOUS
 10
181.5557152971
 20
136.4221440632
 11
183.9164063144
 21
136.4221440632
  0
LINE
  5
5ED
100
AcDbEntity
  8
0
100
AcDbLine
 62
253
  6
CONTINUOUS
 10
185.1557152971
 20
136.4221440632
 11
187.5164063144
 21
136.4221440632
  0
LINE
  5
5EE
100
AcDbEntity
  8
0
100
AcDbLine
 62
253
  6
CONTINUOUS
 10
204.0557152971
 20
136.4221440632
 11
206.4164063144
 21
136.4221440632
  0
LINE
  5
5EF
100
AcDbEntity
  8
0
100
AcDbLine
 62
253
  6
CONTINUOUS
 10
162.6557152971
 20
136.8081615237
 11
165.0164063144
 21
136.8081615237
  0
LINE
  5
5F0
100
AcDbEntity
  8
0
100
AcDbLine
 62
253
  6
CONTINUOUS
 10
181.5557152971
 20
136.8081615237
 11
183.9164063144
 21
136.8081615237
  0
LINE
  5
5F1
100
AcDbEntity
  8
0
100
AcDbLine
 62
253
  6
CONTINUOUS
 10
185.1557152971
 20
136.8081615237
 11
187.5164063144
 21
136.8081615237
  0
LINE
  5
5F2
100
AcDbEntity
  8
0
100
AcDbLine
 62
253
  6
CONTINUOUS
 10
204.0557152971
 20
136.8081615237
 11
206.4164063144
 21
136.8081615237
  0
LINE
  5
5F3
100
AcDbEntity
  8
0
100
AcDbLine
 62
7
  6
CONTINUOUS
 10
206.1664158336
 20
137.0581520045
 11
204.3057057778
 21
137.0581520045
  0
LINE
  5
5F4
100
AcDbEntity
  8
0
100
AcDbLine
 62
7
  6
CONTINUOUS
 10
187.2664158336
 20
137.0581520045
 11
185.4057057778
 21
137.0581520045
  0
LINE
  5
5F5
100
AcDbEntity
  8
0
100
AcDbLine
 62
7
  6
CONTINUOUS
 10
183.6664158336
 20
137.0581520045
 11
181.8057057778
 21
137.0581520045
  0
LINE
  5
5F6
100
AcDbEntity
  8
0
100
AcDbLine
 62
7
  6
CONTINUOUS
 10
164.7664158336
 20
137.0581520045
 11
162.9057057778
 21
137.0581520045
  0
LINE
  5
5F7
100
AcDbEntity
  8
0
100
AcDbLine
 62
7
  6
CONTINUOUS
 10
162.8860640159
 20
137.0778064959
 11
164.7860575955
 21
137.0778064959
  0
LINE
  5
5F8
100
AcDbEntity
  8
0
100
AcDbLine
 62
7
  6
CONTINUOUS
 10
181.7860640159
 20
137.0778064959
 11
183.6860575955
 21
137.0778064959
  0
LINE
  5
5F9
100
AcDbEntity
  8
0
100
AcDbLine
 62
7
  6
CONTINUOUS
 10
185.3860640159
 20
137.0778064959
 11
187.2860575955
 21
137.0778064959
  0
LINE
  5
5FA
100
AcDbEntity
  8
0
100
AcDbLine
 62
7
  6
CONTINUOUS
 10
204.2860640159
 20
137.0778064959
 11
206.1860575955
 21
137.0778064959
  0
LWPOLYLINE
  5
5FB
100
AcDbEntity
  8
0
100
AcDbPolyline
 62
7
  6
CONTINUOUS
 90
3
 70
0
 10
183.7507550378
 20
137.069280014
 10
183.7186822246
 20
137.0756605487
 10
183.6860512861
 20
137.0778001493
  0
LWPOLYLINE
  5
5FC
100
AcDbEntity
  8
0
100
AcDbPolyline
 62
7
  6
CONTINUOUS
 90
3
 70
0
 10
187.3507550378
 20
137.069280014
 10
187.3186822246
 20
137.0756605487
 10
187.2860512861
 20
137.0778001493
  0
LINE
  5
5FD
100
AcDbEntity
  8
0
100
AcDbLine
 62
7
  6
CONTINUOUS
 10
204.0348150601
 20
134.985287618
 11
204.0469884293
 21
134.9121824372
  0
LWPOLYLINE
  5
5FE
100
AcDbEntity
  8
0
100
AcDbPolyline
 62
7
  6
CONTINUOUS
 90
3
 70
0
 10
206.4275343239
 20
88.2631122638
 10
206.4339148586
 20
88.295185077
 10
206.4360544591
 20
88.3278160155
  0
LWPOLYLINE
  5
5FF
100
AcDbEntity
  8
0
100
AcDbPolyline
 62
253
  6
CONTINUOUS
 90
14
 70
0
 10
206.7687338447
 20
92.0359006394
 10
206.7651531345
 20
92.033774783
 10
206.7562545232
 20
92.0316717093
 10
206.7421333518
 20
92.0296139507
 10
206.7229409171
 20
92.0276235547
 10
206.6988828499
 20
92.0257218465
 10
206.6702169124
 20
92.0239292015
 10
206.6372502364
 20
92.0222648263
 10
206.6003360321
 20
92.0207465532
 10
206.5598698048
 20
92.0193906494
 10
206.5162851162
 20
92.0182116423
 10
206.4700489401
 20
92.0172221639
 10
206.4216566585
 20
92.0164328153
 10
206.3716267546
 20
92.0158520536
  0
LWPOLYLINE
  5
600
100
AcDbEntity
  8
0
100
AcDbPolyline
 62
7
  6
CONTINUOUS
 90
3
 70
0
 10
162.8213665736
 20
137.069280014
 10
162.8534393868
 20
137.0756605487
 10
162.8860703253
 20
137.0778001493
  0
LWPOLYLINE
  5
601
100
AcDbEntity
  8
0
100
AcDbPolyline
 62
7
  6
CONTINUOUS
 90
3
 70
0
 10
206.2507550378
 20
137.069280014
 10
206.2186822246
 20
137.0756605487
 10
206.1860512861
 20
137.0778001493
  0
LWPOLYLINE
  5
602
100
AcDbEntity
  8
0
100
AcDbPolyline
 62
253
  6
CONTINUOUS
 90
16
 70
0
 10
206.7687338448
 20
133.1197123523
 10
206.7651543414
 20
133.121838263
 10
206.7562567513
 20
133.1239413956
 10
206.7421364079
 20
133.1259992161
 10
206.7229446038
 20
133.1279896758
 10
206.6988869697
 20
133.1298914482
 10
206.6702212714
 20
133.1316841564
 10
206.6372546478
 20
133.1333485927
 10
206.6003403202
 20
133.1348669233
 10
206.5598738075
 20
133.1362228801
 10
206.5162886886
 20
133.1374019347
 10
206.4700519566
 20
133.1383914541
 10
206.4216590156
 20
133.139180836
 10
206.3716283722
 20
133.1397616227
 10
206.3204960803
 20
133.1401275913
 10
162.8033116142
 20
133.1402748207
  0
LWPOLYLINE
  5
603
100
AcDbEntity
  8
0
100
AcDbPolyline
 62
7
  6
CONTINUOUS
 90
9
 70
0
 10
206.4275343239
 20
136.8925007279
 10
206.4170220312
 20
136.9234666235
 10
206.4025578547
 20
136.9527957491
 10
206.3843892884
 20
136.9799862593
 10
206.3628272115
 20
137.0045729017
 10
206.3382405691
 20
137.0261349786
 10
206.311050059
 20
137.0443035449
 10
206.2817209333
 20
137.0587677214
 10
206.2507550378
 20
137.069280014
  0
LINE
  5
604
100
AcDbEntity
  8
0
100
AcDbLine
 62
253
  6
CONTINUOUS
 10
204.2860639913
 20
88.0778064959
 11
204.3057057778
 21
88.0974609872
  0
LINE
  5
605
100
AcDbEntity
  8
0
100
AcDbLine
 62
7
  6
CONTINUOUS
 10
206.4373422029
 20
90.1703610252
 11
206.4360608057
 21
90.1690796281
  0
LINE
  5
606
100
AcDbEntity
  8
0
100
AcDbLine
 62
253
  6
CONTINUOUS
 10
204.0360608057
 20
88.3278096815
 11
204.0557152971
 21
88.347451468
  0
LWPOLYLINE
  5
607
100
AcDbEntity
  8
0
100
AcDbPolyline
 62
7
  6
CONTINUOUS
 90
9
 70
0
 10
206.2507550378
 20
88.0863329777
 10
206.2817209333
 20
88.0968452703
 10
206.311050059
 20
88.1113094468
 10
206.3382405691
 20
88.1294780131
 10
206.3628272115
 20
88.15104009
 10
206.3843892884
 20
88.1756267325
 10
206.4025578547
 20
88.2028172426
 10
206.4170220312
 20
88.2321463683
 10
206.4275343239
 20
88.2631122638
  0
LINE
  5
608
100
AcDbEntity
  8
0
100
AcDbLine
 62
253
  6
CONTINUOUS
 10
204.0557152971
 20
136.8081615237
 11
204.0360608057
 21
136.8278033102
  0
LINE
  5
609
100
AcDbEntity
  8
0
100
AcDbLine
 62
7
  6
CONTINUOUS
 10
206.4360608057
 20
134.9865333636
 11
206.4373422029
 21
134.9852519665
  0
LINE
  5
60A
100
AcDbEntity
  8
0
100
AcDbLine
 62
253
  6
CONTINUOUS
 10
204.3057057778
 20
137.0581520045
 11
204.2860639913
 21
137.0778064959
  0
LWPOLYLINE
  5
60B
100
AcDbEntity
  8
0
100
AcDbPolyline
 62
7
  6
CONTINUOUS
 90
6
 70
0
 10
91.4535290529
 20
135.7229223913
 10
91.4405437678
 20
135.7152079368
 10
91.4300529903
 20
135.7090597083
 10
91.4223014858
 20
135.704625655
 10
91.4175130446
 20
135.7017578278
 10
91.4158799526
 20
135.7004562267
  0
LWPOLYLINE
  5
60C
100
AcDbEntity
  8
0
100
AcDbPolyline
 62
7
  6
CONTINUOUS
 90
3
 70
0
 10
91.5047849439
 20
135.7527987223
 10
91.4859275376
 20
135.7417177841
 10
91.4535290529
 20
135.7229223913
  0
LINE
  5
60D
100
AcDbEntity
  8
0
100
AcDbLine
 62
7
  6
CONTINUOUS
 10
91.6636983187
 20
135.844793794
 11
91.6398063039
 21
135.8307595912
  0
LINE
  5
60E
100
AcDbEntity
  8
0
100
AcDbLine
 62
7
  6
CONTINUOUS
 10
92.9158799526
 20
135.7004562267
 11
93.7908799526
 21
136.2056377122
  0
LINE
  5
60F
100
AcDbEntity
  8
0
100
AcDbLine
 62
253
  6
CONTINUOUS
 10
92.9158799526
 20
135.9887139411
 11
93.6680615865
 21
136.4221440632
  0
LWPOLYLINE
  5
610
100
AcDbEntity
  8
0
100
AcDbPolyline
 62
7
  6
CONTINUOUS
 90
5
 70
0
 10
91.6398063039
 20
135.8307595912
 10
91.5922455915
 20
135.8034855005
 10
91.5690737686
 20
135.7901070394
 10
91.5466255931
 20
135.77699335
 10
91.5047849439
 20
135.7527987223
  0
LINE
  5
611
100
AcDbEntity
  8
0
100
AcDbLine
 62
7
  6
CONTINUOUS
 10
91.4176404112
 20
89.4542378246
 11
91.4158799526
 21
89.455156765
  0
LWPOLYLINE
  5
612
100
AcDbEntity
  8
0
100
AcDbPolyline
 62
7
  6
CONTINUOUS
 90
5
 70
0
 10
91.6636983187
 20
89.3108191977
 10
91.6397006977
 20
89.3244459166
 10
91.6159071699
 20
89.3382462397
 10
91.5924349312
 20
89.3520178843
 10
91.5467125475
 20
89.3784537809
  0
LINE
  5
613
100
AcDbEntity
  8
0
100
AcDbLine
 62
253
  6
CONTINUOUS
 10
92.9158799526
 20
89.1668990506
 11
93.6680615865
 21
88.7334689286
  0
LINE
  5
614
100
AcDbEntity
  8
0
100
AcDbLine
 62
7
  6
CONTINUOUS
 10
92.9158799526
 20
89.455156765
 11
93.7908799526
 21
88.9499752795
  0
LWPOLYLINE
  5
615
100
AcDbEntity
  8
0
100
AcDbPolyline
 62
7
  6
CONTINUOUS
 90
3
 70
0
 10
91.5467125475
 20
89.3784537809
 10
91.5048602432
 20
89.4028692816
 10
91.4858548025
 20
89.4138256041
  0
LWPOLYLINE
  5
616
100
AcDbEntity
  8
0
100
AcDbPolyline
 62
7
  6
CONTINUOUS
 90
5
 70
0
 10
91.4858548025
 20
89.4138256041
 10
91.4535109017
 20
89.4328169046
 10
91.4404440915
 20
89.4403765063
 10
91.4299800351
 20
89.4465964494
 10
91.4176404112
 20
89.4542378246
  0
LWPOLYLINE
  5
617
100
AcDbEntity
  8
0
100
AcDbPolyline
 62
253
  6
CONTINUOUS
 90
22
 70
0
 10
84.3297247829
 20
92.0359006394
 10
84.335136391
 20
91.9655447613
 10
84.3453366512
 20
91.896316279
 10
84.3603255632
 20
91.8282151925
 10
84.3802251264
 20
91.7608840433
 10
84.4049133415
 20
91.6946802898
 10
84.4340242115
 20
91.6306763078
 10
84.4676210531
 20
91.5689361604
 10
84.5056405495
 20
91.5093957845
 10
84.5475267532
 20
91.4529353658
 10
84.5933392577
 20
91.399599365
 10
84.6430184695
 20
91.3493433215
 10
84.6958296601
 20
91.3029140397
 10
84.7518214285
 20
91.2603690167
 10
84.8109451758
 20
91.2216507555
 10
84.8723203764
 20
91.1873335694
 10
84.9360071595
 20
91.1574831786
 10
85.0019453961
 20
91.132033863
 10
85.0690741736
 20
91.1113627761
 10
85.1370398544
 20
91.0955956357
 10
85.2061960761
 20
91.0846067241
 10
85.2765428386
 20
91.0783960413
  0
LINE
  5
618
100
AcDbEntity
  8
0
100
AcDbLine
 62
253
  6
CONTINUOUS
 10
82.3944669818
 20
119.9144598187
 11
82.3944669818
 21
105.241153173
  0
LWPOLYLINE
  5
619
100
AcDbEntity
  8
0
100
AcDbPolyline
 62
253
  6
CONTINUOUS
 90
5
 70
0
 10
90.550868227
 20
136.2244641106
 10
90.5463946787
 20
136.2163476873
 10
90.5432239292
 20
136.2104760247
 10
90.5413815013
 20
136.2068973801
 10
90.5408799526
 20
136.2056377122
  0
LINE
  5
61A
100
AcDbEntity
  8
0
100
AcDbLine
 62
253
  6
CONTINUOUS
 10
90.5635335675
 20
136.2470850573
 11
90.550868227
 21
136.2244641106
  0
LINE
  5
61B
100
AcDbEntity
  8
0
100
AcDbLine
 62
253
  6
CONTINUOUS
 10
90.5907141926
 20
136.2950019988
 11
90.5635335675
 21
136.2470850573
  0
LWPOLYLINE
  5
61C
100
AcDbEntity
  8
0
100
AcDbPolyline
 62
253
  6
CONTINUOUS
 90
3
 70
0
 10
90.6636983187
 20
136.4221440632
 10
90.6506512914
 20
136.3995235459
 10
90.5907141926
 20
136.2950019988
  0
LINE
  5
61D
100
AcDbEntity
  8
0
100
AcDbLine
 62
7
  6
CONTINUOUS
 10
93.6680615865
 20
88.0843706855
 11
92.9158799526
 21
88.0778064959
  0
LINE
  5
61E
100
AcDbEntity
  8
0
100
AcDbLine
 62
253
  6
CONTINUOUS
 10
93.6680615865
 20
88.3343611663
 11
92.9158799526
 21
88.327809706
  0
LINE
  5
61F
100
AcDbEntity
  8
ASSI
100
AcDbLine
 62
7
  6
CONTINUOUS
 10
93.909959538
 20
88.786481697
 11
100.4202432204
 21
88.8432960819
  0
LINE
  5
620
100
AcDbEntity
  8
0
100
AcDbLine
 62
253
  6
CONTINUOUS
 10
93.9158799526
 20
88.3343611663
 11
93.6680615865
 21
88.3343611663
  0
LINE
  5
621
100
AcDbEntity
  8
0
100
AcDbLine
 62
253
  6
CONTINUOUS
 10
90.4158799526
 20
88.347451468
 11
90.6636983187
 21
88.347451468
  0
LINE
  5
622
100
AcDbEntity
  8
0
100
AcDbLine
 62
253
  6
CONTINUOUS
 10
93.9158799526
 20
88.7334689286
 11
93.6680615865
 21
88.7334689286
  0
LINE
  5
623
100
AcDbEntity
  8
0
100
AcDbLine
 62
253
  6
CONTINUOUS
 10
90.4158799526
 20
88.7334689286
 11
90.6636983187
 21
88.7334689286
  0
LINE
  5
624
100
AcDbEntity
  8
0
100
AcDbLine
 62
7
  6
CONTINUOUS
 10
92.9151526306
 20
88.0778128431
 11
90.6636983187
 21
88.0974609872
  0
LINE
  5
625
100
AcDbEntity
  8
0
100
AcDbLine
 62
253
  6
CONTINUOUS
 10
92.9158799526
 20
88.3278096815
 11
90.6636983187
 21
88.347451468
  0
LINE
  5
626
100
AcDbEntity
  8
0
100
AcDbLine
 62
7
  6
CONTINUOUS
 10
91.5470449318
 20
90.2495440995
 11
91.6636983187
 21
90.2442162591
  0
LINE
  5
627
100
AcDbEntity
  8
0
100
AcDbLine
 62
7
  6
CONTINUOUS
 10
91.5470449318
 20
90.2495440995
 11
85.2591010637
 21
90.5790812739
  0
LINE
  5
628
100
AcDbEntity
  8
0
100
AcDbLine
 62
253
  6
CONTINUOUS
 10
90.6015529044
 20
88.8416214052
 11
90.6636983187
 21
88.7334689286
  0
LINE
  5
629
100
AcDbEntity
  8
0
100
AcDbLine
 62
253
  6
CONTINUOUS
 10
90.5715906929
 20
88.8942645519
 11
90.6015529044
 21
88.8416214052
  0
LWPOLYLINE
  5
62A
100
AcDbEntity
  8
0
100
AcDbPolyline
 62
253
  6
CONTINUOUS
 90
7
 70
0
 10
90.5408799526
 20
88.9499752795
 10
90.5413815013
 20
88.9487156116
 10
90.5432239292
 20
88.945136967
 10
90.5463946787
 20
88.9392653045
 10
90.550868227
 20
88.9311488811
 10
90.556602152
 20
88.9208653708
 10
90.5715906929
 20
88.8942645519
  0
LINE
  5
62B
100
AcDbEntity
  8
0
100
AcDbLine
 62
253
  6
CONTINUOUS
 10
83.1669333161
 20
120.5676049084
 11
83.1669333161
 21
104.5880080833
  0
LWPOLYLINE
  5
62C
100
AcDbEntity
  8
0
100
AcDbPolyline
 62
253
  6
CONTINUOUS
 90
10
 70
0
 10
84.3297247829
 20
133.1197123523
 10
84.1627857699
 20
128.5559939537
 10
84.037581523
 20
123.9917001021
 10
83.9541120425
 20
119.4268307975
 10
83.9123773456
 20
114.861001959
 10
83.9123774149
 20
110.2945976676
 10
83.9541121985
 20
105.7287701656
 10
84.037581679
 20
101.163903534
 10
84.1627858738
 20
96.599613692
 10
84.3297247829
 20
92.0359006394
  0
LINE
  5
62D
100
AcDbEntity
  8
DRAFT
100
AcDbLine
 62
7
  6
CONTINUOUS
 10
103.3197442419
 20
90.3419515576
 11
103.9158799526
 21
90.3523571451
  0
LINE
  5
62E
100
AcDbEntity
  8
ASSI
100
AcDbLine
 62
7
  6
CONTINUOUS
 10
103.3197442419
 20
90.3419515576
 11
103.9158799526
 21
90.3523571451
  0
LINE
  5
62F
100
AcDbEntity
  8
0
100
AcDbLine
 62
7
  6
CONTINUOUS
 10
102.9246064881
 20
90.2564244613
 11
92.9158799526
 21
90.1690796281
  0
LINE
  5
630
100
AcDbEntity
  8
RACCORDO
100
AcDbLine
 62
7
  6
CONTINUOUS
 10
93.9158799526
 20
91.6778064959
 11
103.9158799526
 21
91.5905378179
  0
LINE
  5
631
100
AcDbEntity
  8
RACCORDO
100
AcDbLine
 62
7
  6
CONTINUOUS
 10
103.4246061558
 20
91.0118310626
 11
93.9158799526
 21
91.1778064959
  0
LINE
  5
632
100
AcDbEntity
  8
0
100
AcDbLine
 62
253
  6
CONTINUOUS
 10
85.2765428386
 20
91.0783960413
 11
93.9158799526
 21
90.6256275686
  0
LINE
  5
633
100
AcDbEntity
  8
0
100
AcDbLine
 62
253
  6
CONTINUOUS
 10
85.2765428386
 20
134.0772169504
 11
85.2688902308
 21
134.2314239612
  0
LINE
  5
634
100
AcDbEntity
  8
0
100
AcDbLine
 62
253
  6
CONTINUOUS
 10
85.2688902308
 20
134.2314239612
 11
85.2646376467
 21
134.3267389384
  0
LINE
  5
635
100
AcDbEntity
  8
0
100
AcDbLine
 62
253
  6
CONTINUOUS
 10
85.2646376467
 20
134.3267389384
 11
85.261285667
 21
134.4111620887
  0
LWPOLYLINE
  5
636
100
AcDbEntity
  8
0
100
AcDbPolyline
 62
253
  6
CONTINUOUS
 90
8
 70
0
 10
85.261285667
 20
134.4111620887
 10
85.2589806412
 20
134.481007718
 10
85.2582541091
 20
134.5094822895
 10
85.2578232189
 20
134.5332263597
 10
85.2576926888
 20
134.5519800102
 10
85.2578639488
 20
134.5655379714
 10
85.2583351263
 20
134.5737518478
 10
85.2591010664
 20
134.576531718
  0
LWPOLYLINE
  5
637
100
AcDbEntity
  8
0
100
AcDbPolyline
 62
253
  6
CONTINUOUS
 90
7
 70
0
 10
85.2589805725
 20
90.6746026433
 10
85.2582540701
 20
90.6461286908
 10
85.2578232055
 20
90.6223852487
 10
85.2576926936
 20
90.603632153
 10
85.2578639624
 20
90.5900746278
 10
85.2583351379
 20
90.5818610397
 10
85.2591010637
 20
90.5790812739
  0
LINE
  5
638
100
AcDbEntity
  8
0
100
AcDbLine
 62
253
  6
CONTINUOUS
 10
85.2612855412
 20
90.7444473042
 11
85.2589805725
 21
90.6746026433
  0
LINE
  5
639
100
AcDbEntity
  8
0
100
AcDbLine
 62
253
  6
CONTINUOUS
 10
85.2646374899
 20
90.8288702207
 11
85.2612855412
 21
90.7444473042
  0
LINE
  5
63A
100
AcDbEntity
  8
0
100
AcDbLine
 62
253
  6
CONTINUOUS
 10
85.271297449
 20
90.9746421016
 11
85.2646374899
 21
90.8288702207
  0
LINE
  5
63B
100
AcDbEntity
  8
0
100
AcDbLine
 62
253
  6
CONTINUOUS
 10
85.2765428386
 20
91.0783960413
 11
85.271297449
 21
90.9746421016
  0
LINE
  5
63C
100
AcDbEntity
  8
0
100
AcDbLine
 62
253
  6
CONTINUOUS
 10
83.8415658047
 20
92.0154861012
 11
83.838891117
 21
92.0153388791
  0
LINE
  5
63D
100
AcDbEntity
  8
0
100
AcDbLine
 62
253
  6
CONTINUOUS
 10
84.3297247829
 20
92.0359006394
 11
83.8415658047
 21
92.0154861012
  0
LINE
  5
63E
100
AcDbEntity
  8
DRAFT
100
AcDbLine
 62
7
  6
CONTINUOUS
 10
103.9158799526
 20
92.4523571451
 11
93.9158799526
 21
92.2778064959
  0
LINE
  5
63F
100
AcDbEntity
  8
ASSI
100
AcDbLine
 62
7
  6
CONTINUOUS
 10
103.9158799526
 20
92.4523571451
 11
93.9158799526
 21
92.2778064959
  0
LINE
  5
640
100
AcDbEntity
  8
RACCORDO
100
AcDbLine
 62
7
  6
CONTINUOUS
 10
128.9333323591
 20
93.4890384012
 11
103.9158799526
 21
93.0523571451
  0
LINE
  5
641
100
AcDbEntity
  8
ASSI
100
AcDbLine
 62
7
  6
CONTINUOUS
 10
128.9333323591
 20
93.4890384012
 11
103.9158799526
 21
93.0523571451
  0
LWPOLYLINE
  5
642
100
AcDbEntity
  8
RACCORDO
100
AcDbPolyline
 62
253
  6
CONTINUOUS
 90
3
 70
0
 10
128.934354798
 20
93.5756609141
 10
103.9537372006
 20
93.1114587165
 10
103.9158799526
 20
93.1109268671
  0
LWPOLYLINE
  5
643
100
AcDbEntity
  8
ASSI
100
AcDbPolyline
 62
253
  6
CONTINUOUS
 90
3
 70
0
 10
128.934354798
 20
93.5756609141
 10
103.9537372006
 20
93.1114587165
 10
103.9158799526
 20
93.1109268671
  0
LINE
  5
644
100
AcDbEntity
  8
RACCORDO
100
AcDbLine
 62
253
  6
CONTINUOUS
 10
93.9158799526
 20
93.0421092763
 11
103.9158799526
 21
93.1144105226
  0
LINE
  5
645
100
AcDbEntity
  8
ASSI
100
AcDbLine
 62
253
  6
CONTINUOUS
 10
93.9158799526
 20
93.0421092763
 11
103.9158799526
 21
93.1144105226
  0
LWPOLYLINE
  5
646
100
AcDbEntity
  8
0
100
AcDbPolyline
 62
253
  6
CONTINUOUS
 90
5
 70
0
 10
90.6636983187
 20
88.0974609872
 10
90.6634867336
 20
88.0987727357
 10
90.6632992956
 20
88.1027183752
 10
90.6631384118
 20
88.1092979427
 10
90.6630061807
 20
88.118489084
  0
LINE
  5
647
100
AcDbEntity
  8
CURVE
100
AcDbLine
 62
253
  6
CONTINUOUS
 10
99.4158799526
 20
128.5778064959
 11
96.5158789526
 21
127.5697414959
  0
LINE
  5
648
100
AcDbEntity
  8
CURVE
100
AcDbLine
 62
253
  6
CONTINUOUS
 10
98.8012409526
 20
127.7423904959
 11
99.4158799526
 21
127.9513804959
  0
LINE
  5
649
100
AcDbEntity
  8
CURVE
100
AcDbLine
 62
253
  6
CONTINUOUS
 10
97.0702029526
 20
127.1842554959
 11
98.3193079526
 21
127.5856754959
  0
LINE
  5
64A
100
AcDbEntity
  8
RACCORDO
100
AcDbLine
 62
253
  6
CONTINUOUS
 10
93.9158799526
 20
94.4561074471
 11
128.9333323591
 21
94.7092879921
  0
LINE
  5
64B
100
AcDbEntity
  8
ASSI
100
AcDbLine
 62
253
  6
CONTINUOUS
 10
93.9158799526
 20
94.4561074471
 11
128.9333323591
 21
94.7092879921
  0
LINE
  5
64C
100
AcDbEntity
  8
RACCORDO
100
AcDbLine
 62
253
  6
CONTINUOUS
 10
129.9158799526
 20
94.7092879921
 11
128.9333323591
 21
94.7092879925
  0
LINE
  5
64D
100
AcDbEntity
  8
ASSI
100
AcDbLine
 62
253
  6
CONTINUOUS
 10
129.9158799526
 20
94.7092879921
 11
128.9333323591
 21
94.7092879925
  0
LINE
  5
64E
100
AcDbEntity
  8
CURVE
100
AcDbLine
 62
253
  6
CONTINUOUS
 10
101.5158799526
 20
96.5778064959
 11
102.8158799526
 21
96.5778064959
  0
LINE
  5
64F
100
AcDbEntity
  8
CURVE
100
AcDbLine
 62
253
  6
CONTINUOUS
 10
96.5157419526
 20
98.4400924959
 11
98.5126389526
 21
97.7989674959
  0
LINE
  5
650
100
AcDbEntity
  8
0
100
AcDbLine
 62
253
  6
CONTINUOUS
 10
90.6630061807
 20
88.118489084
 11
90.6628354879
 21
88.144396654
  0
LINE
  5
651
100
AcDbEntity
  8
0
100
AcDbLine
 62
253
  6
CONTINUOUS
 10
90.6636983187
 20
136.8081615237
 11
90.6628980945
 21
136.9336394823
  0
LINE
  5
652
100
AcDbEntity
  8
0
100
AcDbLine
 62
7
  6
CONTINUOUS
 10
90.4158799526
 20
136.8081615237
 11
90.4158799526
 21
136.4221440632
  0
LINE
  5
653
100
AcDbEntity
  8
0
100
AcDbLine
 62
7
  6
CONTINUOUS
 10
90.4158799526
 20
88.347451468
 11
90.4158799526
 21
88.7334689286
  0
LINE
  5
654
100
AcDbEntity
  8
0
100
AcDbLine
 62
253
  6
CONTINUOUS
 10
90.6636983187
 20
136.8081615237
 11
90.6636983187
 21
136.4221440632
  0
LINE
  5
655
100
AcDbEntity
  8
0
100
AcDbLine
 62
253
  6
CONTINUOUS
 10
90.6636983187
 20
88.347451468
 11
90.6636983187
 21
88.7334689286
  0
LINE
  5
656
100
AcDbEntity
  8
0
100
AcDbLine
 62
7
  6
CONTINUOUS
 10
91.4158799526
 20
135.7004562267
 11
91.4158799526
 21
134.8991948269
  0
LINE
  5
657
100
AcDbEntity
  8
0
100
AcDbLine
 62
7
  6
CONTINUOUS
 10
91.4158799526
 20
90.2564181648
 11
91.4158799526
 21
89.455156765
  0
LINE
  5
658
100
AcDbEntity
  8
0
100
AcDbLine
 62
253
  6
CONTINUOUS
 10
91.6636983187
 20
135.844793794
 11
91.6636983187
 21
134.9113967326
  0
LINE
  5
659
100
AcDbEntity
  8
0
100
AcDbLine
 62
253
  6
CONTINUOUS
 10
91.6636983187
 20
90.2442162591
 11
91.6636983187
 21
89.3108191977
  0
LINE
  5
65A
100
AcDbEntity
  8
0
100
AcDbLine
 62
253
  6
CONTINUOUS
 10
90.6628980945
 20
136.9336394823
 11
90.6627998144
 21
136.9947368406
  0
LINE
  5
65B
100
AcDbEntity
  8
0
100
AcDbLine
 62
253
  6
CONTINUOUS
 10
90.6628354879
 20
88.144396654
 11
90.6628314216
 21
88.1999542026
  0
LWPOLYLINE
  5
65C
100
AcDbEntity
  8
0
100
AcDbPolyline
 62
253
  6
CONTINUOUS
 90
7
 70
0
 10
90.6627998144
 20
136.9947368406
 10
90.6629046329
 20
137.0253842414
 10
90.6630061807
 20
137.0371239077
 10
90.6631384118
 20
137.046315049
 10
90.6632992956
 20
137.0528946166
 10
90.6634867336
 20
137.056840256
 10
90.6636983187
 20
137.0581520045
  0
LWPOLYLINE
  5
65D
100
AcDbEntity
  8
0
100
AcDbPolyline
 62
253
  6
CONTINUOUS
 90
3
 70
0
 10
90.6628314216
 20
88.1999542026
 10
90.6634812287
 20
88.3211902314
 10
90.6636983187
 20
88.347451468
  0
LINE
  5
65E
100
AcDbEntity
  8
CURVE
100
AcDbLine
 62
7
  6
CONTINUOUS
 10
97.1215602524
 20
125.4890044959
 11
97.9461552049
 21
126.3135994483
  0
LINE
  5
65F
100
AcDbEntity
  8
CURVE
100
AcDbLine
 62
7
  6
CONTINUOUS
 10
97.1852393925
 20
123.4525764959
 11
97.3629631328
 21
123.6303002361
  0
LINE
  5
660
100
AcDbEntity
  8
CURVE
100
AcDbLine
 62
7
  6
CONTINUOUS
 10
98.4751985945
 20
124.7425356978
 11
98.6392233925
 21
124.9065604959
  0
LINE
  5
661
100
AcDbEntity
  8
CURVE
100
AcDbLine
 62
253
  6
CONTINUOUS
 10
101.1873085079
 20
128.5191397325
 11
100.9158799526
 21
128.2658063509
  0
LINE
  5
662
100
AcDbEntity
  8
CURVE
100
AcDbLine
 62
253
  6
CONTINUOUS
 10
101.1873085079
 20
126.99913995
 11
100.9158799526
 21
126.7458065683
  0
LINE
  5
663
100
AcDbEntity
  8
CURVE
100
AcDbLine
 62
253
  6
CONTINUOUS
 10
96.5158789526
 20
123.7939454959
 11
98.8139929526
 21
124.9065604959
  0
LINE
  5
664
100
AcDbEntity
  8
CURVE
100
AcDbLine
 62
253
  6
CONTINUOUS
 10
99.4158799526
 20
124.6053524959
 11
96.9887759526
 21
123.4525764959
  0
LINE
  5
665
100
AcDbEntity
  8
CURVE
100
AcDbLine
 62
253
  6
CONTINUOUS
 10
102.8158799526
 20
97.8235424959
 11
101.5158799526
 21
97.8235424959
  0
LINE
  5
666
100
AcDbEntity
  8
CURVE
100
AcDbLine
 62
253
  6
CONTINUOUS
 10
99.4158729526
 20
98.0889824959
 11
96.5157419526
 21
99.0201214959
  0
LINE
  5
667
100
AcDbEntity
  8
CURVE
100
AcDbLine
 62
253
  6
CONTINUOUS
 10
101.5158799526
 20
98.5676964959
 11
102.8158799526
 21
97.9973634959
  0
LINE
  5
668
100
AcDbEntity
  8
CURVE
100
AcDbLine
 62
253
  6
CONTINUOUS
 10
101.5158799526
 20
97.8235424959
 11
102.8158799526
 21
97.2006754959
  0
LWPOLYLINE
  5
669
100
AcDbEntity
  8
0
100
AcDbPolyline
 62
7
  6
CONTINUOUS
 90
5
 70
0
 10
92.9151526306
 20
88.0778128431
 10
92.9148866475
 20
88.079952443
 10
92.9146624343
 20
88.0863329777
 10
92.9144839385
 20
88.0968452703
 10
92.914354214
 20
88.1113094468
  0
LWPOLYLINE
  5
66A
100
AcDbEntity
  8
0
100
AcDbPolyline
 62
253
  6
CONTINUOUS
 90
5
 70
0
 10
93.6687537246
 20
137.0502142075
 10
93.6686214935
 20
137.0594053486
 10
93.6684606097
 20
137.0659849169
 10
93.6682731717
 20
137.0699305573
 10
93.6680615865
 20
137.0712423062
  0
LINE
  5
66B
100
AcDbEntity
  8
0
100
AcDbLine
 62
253
  6
CONTINUOUS
 10
93.6689244173
 20
137.0243066409
 11
93.6687537246
 21
137.0502142075
  0
LINE
  5
66C
100
AcDbEntity
  8
0
100
AcDbLine
 62
7
  6
CONTINUOUS
 10
92.9151527413
 20
136.8277969763
 11
92.914354214
 21
136.9527957491
  0
LINE
  5
66D
100
AcDbEntity
  8
0
100
AcDbLine
 62
253
  6
CONTINUOUS
 10
93.6688618107
 20
88.2088832048
 11
93.6680615865
 21
88.3343611663
  0
LINE
  5
66E
100
AcDbEntity
  8
0
100
AcDbLine
 62
7
  6
CONTINUOUS
 10
92.914354214
 20
88.1113094468
 11
92.9142490857
 21
88.15104009
  0
LINE
  5
66F
100
AcDbEntity
  8
0
100
AcDbLine
 62
7
  6
CONTINUOUS
 10
92.9158799526
 20
88.327809706
 11
92.9158799526
 21
90.1690796281
  0
LINE
  5
670
100
AcDbEntity
  8
0
100
AcDbLine
 62
7
  6
CONTINUOUS
 10
92.9158799526
 20
134.9865333636
 11
92.9158799526
 21
136.8278032857
  0
LINE
  5
671
100
AcDbEntity
  8
0
100
AcDbLine
 62
253
  6
CONTINUOUS
 10
93.6680615865
 20
88.7334689286
 11
93.6680615865
 21
88.3343611663
  0
LINE
  5
672
100
AcDbEntity
  8
0
100
AcDbLine
 62
253
  6
CONTINUOUS
 10
93.6680615865
 20
136.4221440632
 11
93.6680615865
 21
136.8212518254
  0
LINE
  5
673
100
AcDbEntity
  8
RACCORDO
100
AcDbLine
 62
7
  6
CONTINUOUS
 10
93.9158799526
 20
130.6995055446
 11
93.9158799526
 21
94.4561074471
  0
LINE
  5
674
100
AcDbEntity
  8
ASSI
100
AcDbLine
 62
7
  6
CONTINUOUS
 10
93.9158799526
 20
130.6995055446
 11
93.9158799526
 21
94.4561074471
  0
LINE
  5
675
100
AcDbEntity
  8
0
100
AcDbLine
 62
7
  6
CONTINUOUS
 10
93.9158799526
 20
88.7334689286
 11
93.9158799526
 21
88.3343611663
  0
LINE
  5
676
100
AcDbEntity
  8
0
100
AcDbLine
 62
7
  6
CONTINUOUS
 10
93.9158799526
 20
90.1778064959
 11
93.9158799526
 21
134.9778064959
  0
LINE
  5
677
100
AcDbEntity
  8
0
100
AcDbLine
 62
7
  6
CONTINUOUS
 10
93.9158799526
 20
136.4221440632
 11
93.9158799526
 21
136.8212518254
  0
LINE
  5
678
100
AcDbEntity
  8
0
100
AcDbLine
 62
253
  6
CONTINUOUS
 10
93.6689600909
 20
88.1477858462
 11
93.6688618107
 21
88.2088832048
  0
LWPOLYLINE
  5
679
100
AcDbEntity
  8
0
100
AcDbPolyline
 62
7
  6
CONTINUOUS
 90
7
 70
0
 10
92.914354214
 20
136.9527957491
 10
92.9142754807
 20
137.0261349786
 10
92.914354214
 20
137.0443035449
 10
92.9144839385
 20
137.0587677214
 10
92.9146624343
 20
137.069280014
 10
92.9148866475
 20
137.0756605487
 10
92.9151525198
 20
137.0778001473
  0
LINE
  5
67A
100
AcDbEntity
  8
0
100
AcDbLine
 62
253
  6
CONTINUOUS
 10
93.6689284836
 20
136.9687490955
 11
93.6689244173
 21
137.0243066409
  0
LINE
  5
67B
100
AcDbEntity
  8
0
100
AcDbLine
 62
7
  6
CONTINUOUS
 10
92.9142490857
 20
88.15104009
 11
92.9144839385
 21
88.2321463683
  0
LINE
  5
67C
100
AcDbEntity
  8
0
100
AcDbLine
 62
7
  6
CONTINUOUS
 10
92.9144839385
 20
88.2321463683
 11
92.9151527413
 21
88.3278160155
  0
LWPOLYLINE
  5
67D
100
AcDbEntity
  8
0
100
AcDbPolyline
 62
253
  6
CONTINUOUS
 90
3
 70
0
 10
93.6680615865
 20
136.8212518254
 10
93.6682786765
 20
136.8475130597
 10
93.6689284836
 20
136.9687490955
  0
LINE
  5
67E
100
AcDbEntity
  8
CURVE
100
AcDbLine
 62
253
  6
CONTINUOUS
 10
102.0015942302
 20
128.5698067133
 11
101.7301656184
 21
128.2658063509
  0
LINE
  5
67F
100
AcDbEntity
  8
CURVE
100
AcDbLine
 62
253
  6
CONTINUOUS
 10
102.0015942302
 20
127.0498064234
 11
101.7301656184
 21
126.7458065683
  0
LINE
  5
680
100
AcDbEntity
  8
CURVE
100
AcDbLine
 62
7
  6
CONTINUOUS
 10
97.8366307147
 20
122.0038606779
 11
98.7029015327
 21
122.8701314959
  0
LINE
  5
681
100
AcDbEntity
  8
CURVE
100
AcDbLine
 62
253
  6
CONTINUOUS
 10
99.4158799526
 20
122.5528804959
 11
96.5158789526
 21
121.5447064959
  0
LINE
  5
682
100
AcDbEntity
  8
CURVE
100
AcDbLine
 62
253
  6
CONTINUOUS
 10
101.5158799526
 20
99.3082134959
 11
102.8158799526
 21
99.3082134959
  0
LINE
  5
683
100
AcDbEntity
  8
CURVE
100
AcDbLine
 62
253
  6
CONTINUOUS
 10
96.5157419526
 20
99.4068004959
 11
99.4158799526
 21
99.4067924959
  0
LINE
  5
684
100
AcDbEntity
  8
CURVE
100
AcDbLine
 62
253
  6
CONTINUOUS
 10
99.4158729526
 20
99.9868144959
 11
96.5157419526
 21
99.9868214959
  0
LINE
  5
685
100
AcDbEntity
  8
CURVE
100
AcDbLine
 62
253
  6
CONTINUOUS
 10
96.5157419526
 20
100.5668214959
 11
99.4158729526
 21
100.5668214959
  0
LINE
  5
686
100
AcDbEntity
  8
CURVE
100
AcDbLine
 62
253
  6
CONTINUOUS
 10
101.5158799526
 20
100.6245614959
 11
102.8158799526
 21
100.6245614959
  0
LINE
  5
687
100
AcDbEntity
  8
CURVE
100
AcDbLine
 62
253
  6
CONTINUOUS
 10
99.4158729526
 20
101.1468434959
 11
97.5034309526
 21
101.1468434959
  0
LINE
  5
688
100
AcDbEntity
  8
CURVE
100
AcDbLine
 62
253
  6
CONTINUOUS
 10
96.5157419526
 20
102.5267944959
 11
98.4044109526
 21
101.9852264959
  0
LINE
  5
689
100
AcDbEntity
  8
CURVE
100
AcDbLine
 62
253
  6
CONTINUOUS
 10
99.4158649526
 20
102.2752264959
 11
97.5034309526
 21
102.8236014959
  0
LINE
  5
68A
100
AcDbEntity
  8
CURVE
100
AcDbLine
 62
253
  6
CONTINUOUS
 10
96.5157349526
 20
104.7214344959
 11
96.5157349526
 21
105.3014854959
  0
LINE
  5
68B
100
AcDbEntity
  8
CURVE
100
AcDbLine
 62
253
  6
CONTINUOUS
 10
96.5157349526
 20
106.6193034959
 11
96.5157349526
 21
107.9775174959
  0
LINE
  5
68C
100
AcDbEntity
  8
CURVE
100
AcDbLine
 62
253
  6
CONTINUOUS
 10
96.5157419526
 20
103.4036304959
 11
96.5157419526
 21
102.5267944959
  0
LINE
  5
68D
100
AcDbEntity
  8
CURVE
100
AcDbLine
 62
253
  6
CONTINUOUS
 10
96.5157419526
 20
101.4436584959
 11
96.5157419526
 21
100.5668214959
  0
LINE
  5
68E
100
AcDbEntity
  8
CURVE
100
AcDbLine
 62
253
  6
CONTINUOUS
 10
96.5157419526
 20
99.9868214959
 11
96.5157419526
 21
99.4068004959
  0
LINE
  5
68F
100
AcDbEntity
  8
CURVE
100
AcDbLine
 62
253
  6
CONTINUOUS
 10
96.5157419526
 20
99.0201214959
 11
96.5157419526
 21
98.4400924959
  0
LINE
  5
690
100
AcDbEntity
  8
CURVE
100
AcDbLine
 62
253
  6
CONTINUOUS
 10
96.5157419526
 20
97.1578354959
 11
96.5157419526
 21
96.5778064959
  0
LINE
  5
691
100
AcDbEntity
  8
CURVE
100
AcDbLine
 62
253
  6
CONTINUOUS
 10
96.5158789526
 20
127.5697414959
 11
96.5158789526
 21
126.8306904959
  0
LINE
  5
692
100
AcDbEntity
  8
CURVE
100
AcDbLine
 62
253
  6
CONTINUOUS
 10
96.5158789526
 20
121.5447064959
 11
96.5158789526
 21
120.8056554959
  0
LINE
  5
693
100
AcDbEntity
  8
CURVE
100
AcDbLine
 62
253
  6
CONTINUOUS
 10
96.5158789526
 20
116.1660264959
 11
96.5158789526
 21
115.2785964959
  0
LINE
  5
694
100
AcDbEntity
  8
CURVE
100
AcDbLine
 62
253
  6
CONTINUOUS
 10
96.5158789526
 20
117.7489394959
 11
96.5158789526
 21
118.3715454959
  0
LINE
  5
695
100
AcDbEntity
  8
CURVE
100
AcDbLine
 62
253
  6
CONTINUOUS
 10
96.5158789526
 20
122.8701314959
 11
96.5158789526
 21
123.7939454959
  0
LINE
  5
696
100
AcDbEntity
  8
CURVE
100
AcDbLine
 62
253
  6
CONTINUOUS
 10
96.5158789526
 20
124.9065604959
 11
96.5158789526
 21
125.4890044959
  0
LWPOLYLINE
  5
697
100
AcDbEntity
  8
CURVE
100
AcDbPolyline
 62
253
  6
CONTINUOUS
 90
54
 70
0
 10
97.0009397899
 20
116.2913423499
 10
97.0065958519
 20
116.3453091901
 10
97.0081117213
 20
116.3587868994
 10
97.0097460729
 20
116.3722456801
 10
97.0115377768
 20
116.385678868
 10
97.0135257033
 20
116.3990797989
 10
97.0157487226
 20
116.4124418086
 10
97.018245705
 20
116.4257582329
 10
97.0210555207
 20
116.4390224077
 10
97.0242170401
 20
116.4522276687
 10
97.0277691332
 20
116.4653673519
 10
97.0307378614
 20
116.4752544466
 10
97.0339633895
 20
116.4850782737
 10
97.0374568623
 20
116.4948168902
 10
97.0412294248
 20
116.504448353
 10
97.0452922219
 20
116.5139507192
 10
97.0496563986
 20
116.5233020458
 10
97.0543330996
 20
116.5324803897
 10
97.05933347
 20
116.5414638081
 10
97.0646686547
 20
116.5502303579
 10
97.0703497986
 20
116.558758096
 10
97.0763880465
 20
116.5670250796
 10
97.0823680948
 20
116.5745098207
 10
97.0886529035
 20
116.5817493317
 10
97.095224685
 20
116.5887459963
 10
97.1020656516
 20
116.5955021982
 10
97.1091580158
 20
116.6020203211
 10
97.1164839899
 20
116.6083027487
 10
97.1240257863
 20
116.6143518646
 10
97.1317656175
 20
116.6201700527
 10
97.1396856958
 20
116.6257596966
 10
97.1477682336
 20
116.6311231799
 10
97.1559954433
 20
116.6362628865
 10
97.1643495372
 20
116.6411811999
 10
97.1752470312
 20
116.6471795521
 10
97.1863136691
 20
116.6528173223
 10
97.1975384406
 20
116.6580955846
 10
97.2089103353
 20
116.6630154133
 10
97.2204183427
 20
116.6675778828
 10
97.2320514524
 20
116.6717840672
 10
97.2437986541
 20
116.6756350408
 10
97.2556489373
 20
116.6791318778
 10
97.2675912916
 20
116.6822756527
 10
97.2796147067
 20
116.6850674395
 10
97.291708172
 20
116.6875083126
 10
97.3044392143
 20
116.6896941443
 10
97.3172256928
 20
116.6915228409
 10
97.3300582671
 20
116.6930210981
 10
97.342927597
 20
116.6942156118
 10
97.3558243421
 20
116.6951330779
 10
97.3687391623
 20
116.695800192
 10
97.3816627173
 20
116.6962436502
 10
97.3945856667
 20
116.6964901481
 10
97.4074986703
 20
116.6965663817
  0
LWPOLYLINE
  5
698
100
AcDbEntity
  8
CURVE
100
AcDbPolyline
 62
253
  6
CONTINUOUS
 90
3
 70
0
 10
96.997812025
 20
116.2644186268
 10
96.9994332772
 20
116.2778699601
 10
97.0009397899
 20
116.2913423499
  0
LINE
  5
699
100
AcDbEntity
  8
CURVE
100
AcDbLine
 62
7
  6
CONTINUOUS
 10
97.3918420212
 20
117.3588577041
 11
97.7819238129
 21
117.7489394959
  0
LINE
  5
69A
100
AcDbEntity
  8
CURVE
100
AcDbLine
 62
7
  6
CONTINUOUS
 10
98.4045298129
 20
118.3715454959
 11
98.9339469526
 21
118.9009626356
  0
LINE
  5
69B
100
AcDbEntity
  8
CURVE
100
AcDbLine
 62
253
  6
CONTINUOUS
 10
98.8012409526
 20
121.7173554959
 11
99.4158799526
 21
121.9262374959
  0
LINE
  5
69C
100
AcDbEntity
  8
CURVE
100
AcDbLine
 62
253
  6
CONTINUOUS
 10
97.0700389526
 20
121.1592774959
 11
98.3193079526
 21
121.5607494959
  0
LINE
  5
69D
100
AcDbEntity
  8
CURVE
100
AcDbLine
 62
253
  6
CONTINUOUS
 10
101.5158799526
 20
102.4325344959
 11
102.8158799526
 21
102.4325344959
  0
LINE
  5
69E
100
AcDbEntity
  8
CURVE
100
AcDbLine
 62
253
  6
CONTINUOUS
 10
101.5158799526
 20
102.8208624959
 11
102.8158799526
 21
102.8208624959
  0
LINE
  5
69F
100
AcDbEntity
  8
CURVE
100
AcDbLine
 62
253
  6
CONTINUOUS
 10
97.5034309526
 20
102.8236014959
 11
99.4158729526
 21
102.8236094959
  0
LINE
  5
6A0
100
AcDbEntity
  8
CURVE
100
AcDbLine
 62
253
  6
CONTINUOUS
 10
99.4158729526
 20
103.4036304959
 11
96.5157419526
 21
103.4036304959
  0
LINE
  5
6A1
100
AcDbEntity
  8
CURVE
100
AcDbLine
 62
253
  6
CONTINUOUS
 10
99.4158729526
 20
103.7903094959
 11
96.5157349526
 21
104.7214344959
  0
LINE
  5
6A2
100
AcDbEntity
  8
CURVE
100
AcDbLine
 62
253
  6
CONTINUOUS
 10
98.8455369526
 20
104.5534444959
 11
99.4158649526
 21
104.3703314959
  0
LINE
  5
6A3
100
AcDbEntity
  8
CURVE
100
AcDbLine
 62
253
  6
CONTINUOUS
 10
97.4189759526
 20
105.0114564959
 11
98.2945149526
 21
104.7303664959
  0
LINE
  5
6A4
100
AcDbEntity
  8
CURVE
100
AcDbLine
 62
253
  6
CONTINUOUS
 10
97.8084014888
 20
116.3453091901
 11
97.8140575508
 21
116.2913423499
  0
LWPOLYLINE
  5
6A5
100
AcDbEntity
  8
CURVE
100
AcDbPolyline
 62
253
  6
CONTINUOUS
 90
52
 70
0
 10
98.2943915232
 20
116.3029967197
 10
98.2924461533
 20
116.3486371091
 10
98.2899882173
 20
116.394242536
 10
98.2868211142
 20
116.4397969224
 10
98.2827482429
 20
116.4852841906
 10
98.2787984987
 20
116.5209394168
 10
98.2741391394
 20
116.556520565
 10
98.2687401512
 20
116.5920048468
 10
98.2625715204
 20
116.6273694739
 10
98.2556032332
 20
116.662591658
 10
98.2478052757
 20
116.6976486105
 10
98.2391476343
 20
116.7325175432
 10
98.229600295
 20
116.7671756677
 10
98.2211894862
 20
116.7950761444
 10
98.2121357781
 20
116.8227821083
 10
98.2023997997
 20
116.8502523359
 10
98.1919421798
 20
116.8774456041
 10
98.1807235472
 20
116.9043206892
 10
98.1687045308
 20
116.9308363681
 10
98.1558457594
 20
116.9569514174
 10
98.1421078619
 20
116.9826246136
 10
98.1274514671
 20
117.0078147334
 10
98.1141785598
 20
117.0289187137
 10
98.1002141486
 20
117.0495996951
 10
98.085565822
 20
117.0698173349
 10
98.0702411688
 20
117.0895312902
 10
98.0542477777
 20
117.1087012183
 10
98.0375932372
 20
117.1272867763
 10
98.0202851362
 20
117.1452476214
 10
98.0023310631
 20
117.1625434108
 10
97.9837386068
 20
117.1791338017
 10
97.9645153559
 20
117.1949784513
 10
97.9432754312
 20
117.2110610914
 10
97.921373795
 20
117.2262500459
 10
97.8988614539
 20
117.2405506198
 10
97.8757894147
 20
117.2539681184
 10
97.852208684
 20
117.2665078469
 10
97.8281702685
 20
117.2781751103
 10
97.8037251748
 20
117.2889752139
 10
97.7789244096
 20
117.2989134629
 10
97.7538189796
 20
117.3079951625
 10
97.7284598914
 20
117.3162256177
 10
97.6990609337
 20
117.3246482323
 10
97.6694240787
 20
117.3320108082
 10
97.6395790852
 20
117.3383705977
 10
97.6095557118
 20
117.343784853
 10
97.5793837173
 20
117.3483108265
 10
97.5451619153
 20
117.3524216473
 10
97.5108254902
 20
117.3555257803
 10
97.4764114614
 20
117.3576767499
 10
97.4419568483
 20
117.3589280803
 10
97.4074986703
 20
117.3593332962
  0
LINE
  5
6A6
100
AcDbEntity
  8
CURVE
100
AcDbLine
 62
253
  6
CONTINUOUS
 10
98.2991182474
 20
116.1660265533
 11
98.2943915232
 21
116.3029967197
  0
LINE
  5
6A7
100
AcDbEntity
  8
CURVE
100
AcDbLine
 62
253
  6
CONTINUOUS
 10
96.9978119526
 20
115.9012024959
 11
96.9978119526
 21
116.2644184959
  0
LINE
  5
6A8
100
AcDbEntity
  8
CURVE
100
AcDbLine
 62
253
  6
CONTINUOUS
 10
97.0522569526
 20
107.1913284959
 11
97.0522569526
 21
107.8970114959
  0
LINE
  5
6A9
100
AcDbEntity
  8
CURVE
100
AcDbLine
 62
253
  6
CONTINUOUS
 10
97.7579859526
 20
107.8970114959
 11
97.7579859526
 21
107.1913354959
  0
LINE
  5
6AA
100
AcDbEntity
  8
CURVE
100
AcDbLine
 62
253
  6
CONTINUOUS
 10
97.8171849526
 20
115.9012024959
 11
97.8171849526
 21
116.2644184959
  0
LINE
  5
6AB
100
AcDbEntity
  8
CURVE
100
AcDbLine
 62
253
  6
CONTINUOUS
 10
98.2945149526
 20
104.7303664959
 11
98.2945149526
 21
105.2925604959
  0
LINE
  5
6AC
100
AcDbEntity
  8
CURVE
100
AcDbLine
 62
253
  6
CONTINUOUS
 10
98.2945149526
 20
107.7056284959
 11
98.2945079526
 21
107.1993974959
  0
LINE
  5
6AD
100
AcDbEntity
  8
CURVE
100
AcDbLine
 62
253
  6
CONTINUOUS
 10
98.2991179526
 20
116.1660264959
 11
98.2991179526
 21
115.9012024959
  0
LINE
  5
6AE
100
AcDbEntity
  8
CURVE
100
AcDbLine
 62
253
  6
CONTINUOUS
 10
98.3193079526
 20
127.5856754959
 11
98.3193079526
 21
126.7542974959
  0
LINE
  5
6AF
100
AcDbEntity
  8
CURVE
100
AcDbLine
 62
253
  6
CONTINUOUS
 10
98.3193079526
 20
121.5607494959
 11
98.3193079526
 21
120.7292624959
  0
LINE
  5
6B0
100
AcDbEntity
  8
CURVE
100
AcDbLine
 62
253
  6
CONTINUOUS
 10
98.8012409526
 20
120.5686184959
 11
98.8012409526
 21
121.7173554959
  0
LINE
  5
6B1
100
AcDbEntity
  8
CURVE
100
AcDbLine
 62
253
  6
CONTINUOUS
 10
98.8012409526
 20
126.5936524959
 11
98.8012409526
 21
127.7423904959
  0
LINE
  5
6B2
100
AcDbEntity
  8
CURVE
100
AcDbLine
 62
253
  6
CONTINUOUS
 10
98.8455369526
 20
105.4694894959
 11
98.8455369526
 21
104.5534444959
  0
LINE
  5
6B3
100
AcDbEntity
  8
CURVE
100
AcDbLine
 62
253
  6
CONTINUOUS
 10
98.9339469526
 20
118.3715454959
 11
98.9339469526
 21
119.4445444959
  0
LWPOLYLINE
  5
6B4
100
AcDbEntity
  8
0
100
AcDbPolyline
 62
253
  6
CONTINUOUS
 90
7
 70
0
 10
93.6680615865
 20
88.0843706855
 10
93.6682731717
 20
88.0856824344
 10
93.6684606097
 20
88.0896280748
 10
93.6686214935
 20
88.0962076431
 10
93.6687537246
 20
88.1053987842
 10
93.6688552723
 20
88.1171384489
 10
93.6689600909
 20
88.1477858462
  0
LINE
  5
6B5
100
AcDbEntity
  8
CURVE
100
AcDbLine
 62
7
  6
CONTINUOUS
 10
97.411687953
 20
115.2785964959
 11
98.2991179526
 21
116.1660264954
  0
LINE
  5
6B6
100
AcDbEntity
  8
CURVE
100
AcDbLine
 62
253
  6
CONTINUOUS
 10
101.5158799526
 20
103.8529874959
 11
102.8158799526
 21
103.8529874959
  0
LINE
  5
6B7
100
AcDbEntity
  8
CURVE
100
AcDbLine
 62
253
  6
CONTINUOUS
 10
101.5158799526
 20
104.7465184959
 11
102.8158799526
 21
104.7465184959
  0
LINE
  5
6B8
100
AcDbEntity
  8
CURVE
100
AcDbLine
 62
253
  6
CONTINUOUS
 10
102.8158799526
 20
105.5504584959
 11
101.5158799526
 21
105.5504584959
  0
LINE
  5
6B9
100
AcDbEntity
  8
0
100
AcDbLine
 62
7
  6
CONTINUOUS
 10
83.4837200179
 20
104.5824785509
 11
83.1669333161
 21
104.5880080833
  0
LINE
  5
6BA
100
AcDbEntity
  8
CURVE
100
AcDbLine
 62
253
  6
CONTINUOUS
 10
101.5158799526
 20
106.7174194959
 11
102.8158799526
 21
106.1470854959
  0
LWPOLYLINE
  5
6BB
100
AcDbEntity
  8
CURVE
100
AcDbPolyline
 62
253
  6
CONTINUOUS
 90
3
 70
0
 10
97.8140575508
 20
116.2913423499
 10
97.8155640635
 20
116.2778699601
 10
97.8171853157
 20
116.2644186268
  0
LINE
  5
6BC
100
AcDbEntity
  8
CURVE
100
AcDbLine
 62
253
  6
CONTINUOUS
 10
99.4158799526
 20
97.5089384959
 11
99.4158729526
 21
98.0889824959
  0
LINE
  5
6BD
100
AcDbEntity
  8
CURVE
100
AcDbLine
 62
253
  6
CONTINUOUS
 10
99.4158799526
 20
99.4067924959
 11
99.4158729526
 21
99.9868144959
  0
LINE
  5
6BE
100
AcDbEntity
  8
CURVE
100
AcDbLine
 62
253
  6
CONTINUOUS
 10
99.4158729526
 20
101.6952194959
 11
99.4158649526
 21
102.2752264959
  0
LINE
  5
6BF
100
AcDbEntity
  8
CURVE
100
AcDbLine
 62
253
  6
CONTINUOUS
 10
99.4158649526
 20
104.3703314959
 11
99.4158729526
 21
103.7903094959
  0
LINE
  5
6C0
100
AcDbEntity
  8
CURVE
100
AcDbLine
 62
253
  6
CONTINUOUS
 10
99.4158579526
 20
108.9401874959
 11
99.4158649526
 21
108.2868824959
  0
LINE
  5
6C1
100
AcDbEntity
  8
CURVE
100
AcDbLine
 62
253
  6
CONTINUOUS
 10
99.4158649526
 20
107.1993324959
 11
99.4158649526
 21
106.6193034959
  0
LINE
  5
6C2
100
AcDbEntity
  8
CURVE
100
AcDbLine
 62
253
  6
CONTINUOUS
 10
99.4158729526
 20
100.5668214959
 11
99.4158729526
 21
101.1468434959
  0
LINE
  5
6C3
100
AcDbEntity
  8
CURVE
100
AcDbLine
 62
253
  6
CONTINUOUS
 10
99.4158729526
 20
102.8236094959
 11
99.4158729526
 21
103.4036304959
  0
LINE
  5
6C4
100
AcDbEntity
  8
CURVE
100
AcDbLine
 62
253
  6
CONTINUOUS
 10
99.4158799526
 20
125.4890044959
 11
99.4158799526
 21
124.6053524959
  0
LINE
  5
6C5
100
AcDbEntity
  8
CURVE
100
AcDbLine
 62
253
  6
CONTINUOUS
 10
99.4158799526
 20
123.4525764959
 11
99.4158799526
 21
122.8701314959
  0
LINE
  5
6C6
100
AcDbEntity
  8
CURVE
100
AcDbLine
 62
253
  6
CONTINUOUS
 10
99.4158799526
 20
119.4445444959
 11
99.4158799526
 21
117.7489394959
  0
LINE
  5
6C7
100
AcDbEntity
  8
CURVE
100
AcDbLine
 62
253
  6
CONTINUOUS
 10
99.4158799526
 20
115.2785964959
 11
99.4158799526
 21
115.9012024959
  0
LINE
  5
6C8
100
AcDbEntity
  8
CURVE
100
AcDbLine
 62
253
  6
CONTINUOUS
 10
99.4158799526
 20
119.7573204959
 11
99.4158799526
 21
120.3517704959
  0
LINE
  5
6C9
100
AcDbEntity
  8
CURVE
100
AcDbLine
 62
253
  6
CONTINUOUS
 10
99.4158799526
 20
121.9262374959
 11
99.4158799526
 21
122.5528804959
  0
LINE
  5
6CA
100
AcDbEntity
  8
CURVE
100
AcDbLine
 62
253
  6
CONTINUOUS
 10
99.4158799526
 20
125.7822464959
 11
99.4158799526
 21
126.3766954959
  0
LINE
  5
6CB
100
AcDbEntity
  8
CURVE
100
AcDbLine
 62
253
  6
CONTINUOUS
 10
99.4158799526
 20
127.9513804959
 11
99.4158799526
 21
128.5778064959
  0
LINE
  5
6CC
100
AcDbEntity
  8
CURVE
100
AcDbLine
 62
253
  6
CONTINUOUS
 10
99.4158729526
 20
106.2326244959
 11
99.4158649526
 21
105.6525954959
  0
LINE
  5
6CD
100
AcDbEntity
  8
ASSI
100
AcDbLine
 62
253
  6
CONTINUOUS
 10
100.5026143546
 20
88.8508573612
 11
100.5026143546
 21
90.2352880562
  0
LINE
  5
6CE
100
AcDbEntity
  8
ASSI
100
AcDbLine
 62
253
  6
CONTINUOUS
 10
100.5026143546
 20
134.9203249356
 11
100.5026143546
 21
136.3047556305
  0
LINE
  5
6CF
100
AcDbEntity
  8
CURVE
100
AcDbLine
 62
253
  6
CONTINUOUS
 10
100.9158799526
 20
128.2658063509
 11
100.9158799526
 21
127.6578066408
  0
LINE
  5
6D0
100
AcDbEntity
  8
CURVE
100
AcDbLine
 62
253
  6
CONTINUOUS
 10
100.9158799526
 20
126.7458065683
 11
100.9158799526
 21
126.1378063509
  0
LINE
  5
6D1
100
AcDbEntity
  8
0
100
AcDbLine
 62
7
  6
CONTINUOUS
 10
100.9158799526
 20
89.3432770435
 11
100.9158799526
 21
90.2388921376
  0
LINE
  5
6D2
100
AcDbEntity
  8
0
100
AcDbLine
 62
7
  6
CONTINUOUS
 10
100.9158799526
 20
134.9167208541
 11
100.9158799526
 21
135.8123359482
  0
LINE
  5
6D3
100
AcDbEntity
  8
CURVE
100
AcDbLine
 62
253
  6
CONTINUOUS
 10
99.4158649526
 20
106.6193034959
 11
96.5157349526
 21
106.6193034959
  0
LINE
  5
6D4
100
AcDbEntity
  8
CURVE
100
AcDbLine
 62
253
  6
CONTINUOUS
 10
97.7579859526
 20
107.1913354959
 11
97.0522569526
 21
107.1913284959
  0
LINE
  5
6D5
100
AcDbEntity
  8
CURVE
100
AcDbLine
 62
253
  6
CONTINUOUS
 10
101.5158799526
 20
107.5367244959
 11
102.8158799526
 21
107.5367244959
  0
LINE
  5
6D6
100
AcDbEntity
  8
CURVE
100
AcDbLine
 62
253
  6
CONTINUOUS
 10
98.2945079526
 20
107.1993974959
 11
99.4158649526
 21
107.1993324959
  0
LINE
  5
6D7
100
AcDbEntity
  8
CURVE
100
AcDbLine
 62
253
  6
CONTINUOUS
 10
102.3128449526
 20
108.9214104959
 11
101.5158799526
 21
109.3971494959
  0
LINE
  5
6D8
100
AcDbEntity
  8
CURVE
100
AcDbLine
 62
253
  6
CONTINUOUS
 10
101.5158799526
 20
101.5715484959
 11
101.5158799526
 21
100.6245614959
  0
LINE
  5
6D9
100
AcDbEntity
  8
CURVE
100
AcDbLine
 62
253
  6
CONTINUOUS
 10
101.5158799526
 20
99.7380494959
 11
101.5158799526
 21
99.3082134959
  0
LINE
  5
6DA
100
AcDbEntity
  8
CURVE
100
AcDbLine
 62
253
  6
CONTINUOUS
 10
101.5158799526
 20
105.0226614959
 11
101.5158799526
 21
106.0782534959
  0
LINE
  5
6DB
100
AcDbEntity
  8
CURVE
100
AcDbLine
 62
253
  6
CONTINUOUS
 10
101.7301656184
 20
128.2658063509
 11
101.7301656184
 21
127.9618064959
  0
LINE
  5
6DC
100
AcDbEntity
  8
CURVE
100
AcDbLine
 62
253
  6
CONTINUOUS
 10
101.7301656184
 20
126.7458065683
 11
101.7301656184
 21
126.4418067133
  0
LINE
  5
6DD
100
AcDbEntity
  8
CURVE
100
AcDbLine
 62
253
  6
CONTINUOUS
 10
102.1658799526
 20
100.6245614959
 11
102.1658799526
 21
101.5051524959
  0
LINE
  5
6DE
100
AcDbEntity
  8
CURVE
100
AcDbLine
 62
253
  6
CONTINUOUS
 10
102.3440389526
 20
106.3540904959
 11
102.3440389526
 21
107.0807474959
  0
LINE
  5
6DF
100
AcDbEntity
  8
CURVE
100
AcDbLine
 62
253
  6
CONTINUOUS
 10
102.3514799526
 20
98.2011044959
 11
102.3514799526
 21
98.9342894959
  0
LINE
  5
6E0
100
AcDbEntity
  8
CURVE
100
AcDbLine
 62
253
  6
CONTINUOUS
 10
102.4087370914
 20
125.5298063871
 11
102.4087370914
 21
124.4658063871
  0
LINE
  5
6E1
100
AcDbEntity
  8
CURVE
100
AcDbLine
 62
253
  6
CONTINUOUS
 10
102.4087370914
 20
123.8578064234
 11
102.4087370914
 21
122.7938065502
  0
LINE
  5
6E2
100
AcDbEntity
  8
CURVE
100
AcDbLine
 62
253
  6
CONTINUOUS
 10
102.8158799526
 20
99.3082134959
 11
102.8158799526
 21
99.7380494959
  0
LINE
  5
6E3
100
AcDbEntity
  8
CURVE
100
AcDbLine
 62
253
  6
CONTINUOUS
 10
102.8158799526
 20
100.6245614959
 11
102.8158799526
 21
101.5842384959
  0
LINE
  5
6E4
100
AcDbEntity
  8
CURVE
100
AcDbLine
 62
253
  6
CONTINUOUS
 10
102.8158799526
 20
107.5367244959
 11
102.8158799526
 21
108.2836584959
  0
LINE
  5
6E5
100
AcDbEntity
  8
CURVE
100
AcDbLine
 62
253
  6
CONTINUOUS
 10
102.8158799526
 20
126.1378063509
 11
102.8158799526
 21
126.8978064959
  0
LINE
  5
6E6
100
AcDbEntity
  8
CURVE
100
AcDbLine
 62
253
  6
CONTINUOUS
 10
102.8158799526
 20
127.6578066408
 11
102.8158799526
 21
128.4178062784
  0
LINE
  5
6E7
100
AcDbEntity
  8
RACCORDO
100
AcDbLine
 62
253
  6
CONTINUOUS
 10
103.4246061558
 20
134.1437819291
 11
103.4246061558
 21
133.5607878923
  0
LINE
  5
6E8
100
AcDbEntity
  8
RACCORDO
100
AcDbLine
 62
253
  6
CONTINUOUS
 10
103.4246061558
 20
91.5948250994
 11
103.4246061558
 21
91.0118310626
  0
LWPOLYLINE
  5
6E9
100
AcDbEntity
  8
0
100
AcDbPolyline
 62
253
  6
CONTINUOUS
 90
5
 70
0
 10
93.7908799526
 20
88.9499752795
 10
93.7903784041
 20
88.948715612
 10
93.7885359769
 20
88.9451369685
 10
93.785365228
 20
88.9392653071
 10
93.7808916801
 20
88.9311488845
  0
LINE
  5
6EA
100
AcDbEntity
  8
CURVE
100
AcDbLine
 62
253
  6
CONTINUOUS
 10
102.8158799526
 20
108.9214104959
 11
102.3128449526
 21
108.9214104959
  0
LINE
  5
6EB
100
AcDbEntity
  8
RACCORDO
100
AcDbLine
 62
253
  6
CONTINUOUS
 10
104.2568369257
 20
93.08509916
 11
104.2565817466
 21
93.116873839
  0
LINE
  5
6EC
100
AcDbEntity
  8
ASSI
100
AcDbLine
 62
253
  6
CONTINUOUS
 10
104.2568369257
 20
93.08509916
 11
104.2565817466
 21
93.116873839
  0
LINE
  5
6ED
100
AcDbEntity
  8
DRAFT
100
AcDbLine
 62
7
  6
CONTINUOUS
 10
103.9158799526
 20
134.9778064959
 11
103.9158799526
 21
133.8992266074
  0
LINE
  5
6EE
100
AcDbEntity
  8
ASSI
100
AcDbLine
 62
7
  6
CONTINUOUS
 10
103.9158799526
 20
134.9778064959
 11
103.9158799526
 21
133.8992266074
  0
LINE
  5
6EF
100
AcDbEntity
  8
DRAFT
100
AcDbLine
 62
7
  6
CONTINUOUS
 10
103.9158799526
 20
90.3523571451
 11
103.9158799526
 21
91.2563863844
  0
LINE
  5
6F0
100
AcDbEntity
  8
ASSI
100
AcDbLine
 62
7
  6
CONTINUOUS
 10
103.9158799526
 20
90.3523571451
 11
103.9158799526
 21
91.2563863844
  0
LINE
  5
6F1
100
AcDbEntity
  8
0
100
AcDbLine
 62
7
  6
CONTINUOUS
 10
103.9158799526
 20
91.2563863844
 11
103.9158799526
 21
92.4523571451
  0
LINE
  5
6F2
100
AcDbEntity
  8
RACCORDO
100
AcDbLine
 62
7
  6
CONTINUOUS
 10
103.9158799526
 20
92.4523571451
 11
103.9158799526
 21
93.1109268671
  0
LINE
  5
6F3
100
AcDbEntity
  8
ASSI
100
AcDbLine
 62
7
  6
CONTINUOUS
 10
103.9158799526
 20
92.4523571451
 11
103.9158799526
 21
93.1109268671
  0
LINE
  5
6F4
100
AcDbEntity
  8
RACCORDO
100
AcDbLine
 62
7
  6
CONTINUOUS
 10
103.9158799526
 20
132.0446860826
 11
103.9158799526
 21
132.7032558466
  0
LINE
  5
6F5
100
AcDbEntity
  8
ASSI
100
AcDbLine
 62
7
  6
CONTINUOUS
 10
103.9158799526
 20
132.0446860826
 11
103.9158799526
 21
132.7032558466
  0
LINE
  5
6F6
100
AcDbEntity
  8
0
100
AcDbLine
 62
7
  6
CONTINUOUS
 10
103.9158799526
 20
132.7032558466
 11
103.9158799526
 21
133.8992266074
  0
LWPOLYLINE
  5
6F7
100
AcDbEntity
  8
0
100
AcDbPolyline
 62
7
  6
CONTINUOUS
 90
4
 70
0
 10
93.0408799525
 20
89.3829879811
 10
93.0399342506
 20
89.3810671394
 10
93.0368684493
 20
89.3754826017
 10
93.0317333524
 20
89.3663306346
  0
LINE
  5
6F8
100
AcDbEntity
  8
CURVE
100
AcDbLine
 62
253
  6
CONTINUOUS
 10
98.2247606196
 20
108.3227832865
 11
99.4158579526
 21
108.9401874959
  0
LWPOLYLINE
  5
6F9
100
AcDbEntity
  8
RACCORDO
100
AcDbPolyline
 62
253
  6
CONTINUOUS
 90
6
 70
0
 10
104.2565817466
 20
93.0583041171
 10
104.2566944361
 20
93.059067016
 10
104.256779712
 20
93.061345511
 10
104.2568369257
 20
93.0651222669
 10
104.2568656417
 20
93.0703685495
 10
104.2568369257
 20
93.08509916
  0
LWPOLYLINE
  5
6FA
100
AcDbEntity
  8
ASSI
100
AcDbPolyline
 62
253
  6
CONTINUOUS
 90
6
 70
0
 10
104.2565817466
 20
93.0583041171
 10
104.2566944361
 20
93.059067016
 10
104.256779712
 20
93.061345511
 10
104.2568369257
 20
93.0651222669
 10
104.2568656417
 20
93.0703685495
 10
104.2568369257
 20
93.08509916
  0
LINE
  5
6FB
100
AcDbEntity
  8
0
100
AcDbLine
 62
253
  6
CONTINUOUS
 10
93.7808916801
 20
88.9311488845
 11
93.7682263392
 21
88.9085279371
  0
LINE
  5
6FC
100
AcDbEntity
  8
0
100
AcDbLine
 62
253
  6
CONTINUOUS
 10
93.7682263392
 20
88.9085279371
 11
93.7410457111
 21
88.8606109901
  0
LINE
  5
6FD
100
AcDbEntity
  8
0
100
AcDbLine
 62
7
  6
CONTINUOUS
 10
93.0317333524
 20
89.3663306346
 11
93.0049410013
 21
89.3193295645
  0
LWPOLYLINE
  5
6FE
100
AcDbEntity
  8
0
100
AcDbPolyline
 62
253
  6
CONTINUOUS
 90
3
 70
0
 10
93.7410457111
 20
88.8606109901
 10
93.6811086121
 20
88.7560894427
 10
93.6680615865
 20
88.7334689286
  0
LWPOLYLINE
  5
6FF
100
AcDbEntity
  8
0
100
AcDbPolyline
 62
7
  6
CONTINUOUS
 90
3
 70
0
 10
93.0049410013
 20
89.3193295645
 10
92.9329823965
 20
89.1946675255
 10
92.9166071562
 20
89.1664816331
  0
LINE
  5
700
100
AcDbEntity
  8
CURVE
100
AcDbLine
 62
253
  6
CONTINUOUS
 10
101.5158799526
 20
108.4456724959
 11
102.3128449526
 21
108.9214104959
  0
LINE
  5
701
100
AcDbEntity
  8
CURVE
100
AcDbLine
 62
253
  6
CONTINUOUS
 10
99.4158649526
 20
108.2868824959
 11
98.2945149526
 21
107.7056284959
  0
LINE
  5
702
100
AcDbEntity
  8
RACCORDO
100
AcDbLine
 62
253
  6
CONTINUOUS
 10
129.9158799526
 20
114.6821128136
 11
129.8267503204
 21
114.6825017253
  0
LINE
  5
703
100
AcDbEntity
  8
ASSI
100
AcDbLine
 62
253
  6
CONTINUOUS
 10
129.9158799526
 20
114.6821128136
 11
129.8267503204
 21
114.6825017253
  0
LINE
  5
704
100
AcDbEntity
  8
CURVE
100
AcDbLine
 62
7
  6
CONTINUOUS
 10
98.2991182396
 20
116.1660267824
 11
96.5342967604
 21
116.5013124433
  0
LINE
  5
705
100
AcDbEntity
  8
CURVE
100
AcDbLine
 62
7
  6
CONTINUOUS
 10
99.4158799526
 20
119.3828956356
 11
98.1483889546
 21
120.2155117777
  0
LINE
  5
706
100
AcDbEntity
  8
0
100
AcDbLine
 62
7
  6
CONTINUOUS
 10
92.9166071562
 20
135.9891313586
 11
92.9927180307
 21
135.8575701593
  0
LINE
  5
707
100
AcDbEntity
  8
0
100
AcDbLine
 62
253
  6
CONTINUOUS
 10
93.6680615865
 20
136.4221440632
 11
93.7302070054
 21
136.3139915785
  0
LWPOLYLINE
  5
708
100
AcDbEntity
  8
0
100
AcDbPolyline
 62
7
  6
CONTINUOUS
 90
6
 70
0
 10
92.9927180307
 20
135.8575701593
 10
93.0246151019
 20
135.8018445638
 10
93.0317333524
 20
135.7892823571
 10
93.0368684493
 20
135.78013039
 10
93.0399342506
 20
135.7745458523
 10
93.0408799525
 20
135.7726250106
  0
LINE
  5
709
100
AcDbEntity
  8
0
100
AcDbLine
 62
253
  6
CONTINUOUS
 10
93.7302070054
 20
136.3139915785
 11
93.7601692109
 21
136.2613484423
  0
LWPOLYLINE
  5
70A
100
AcDbEntity
  8
0
100
AcDbPolyline
 62
253
  6
CONTINUOUS
 90
7
 70
0
 10
93.7601692109
 20
136.2613484423
 10
93.7751577498
 20
136.234747627
 10
93.7808916748
 20
136.2244641167
 10
93.7853652239
 20
136.2163476921
 10
93.7885359747
 20
136.2104760274
 10
93.7903784036
 20
136.206897381
 10
93.7908799527
 20
136.2056377122
  0
LINE
  5
70B
100
AcDbEntity
  8
CURVE
100
AcDbLine
 62
253
  6
CONTINUOUS
 10
109.4928399526
 20
128.1778064959
 11
109.4928399526
 21
126.7173023838
  0
LINE
  5
70C
100
AcDbEntity
  8
CURVE
100
AcDbLine
 62
253
  6
CONTINUOUS
 10
110.2428399526
 20
126.7173054959
 11
110.2428399526
 21
128.1778064959
  0
LINE
  5
70D
100
AcDbEntity
  8
CURVE
100
AcDbLine
 62
253
  6
CONTINUOUS
 10
102.8158799526
 20
107.2877524959
 11
101.5158799526
 21
106.7174194959
  0
LINE
  5
70E
100
AcDbEntity
  8
CURVE
100
AcDbLine
 62
253
  6
CONTINUOUS
 10
96.5157349526
 20
105.3014854959
 11
99.4158729526
 21
106.2326244959
  0
LINE
  5
70F
100
AcDbEntity
  8
CURVE
100
AcDbLine
 62
253
  6
CONTINUOUS
 10
98.2945149526
 20
105.2925604959
 11
97.4189759526
 21
105.0114564959
  0
LINE
  5
710
100
AcDbEntity
  8
CURVE
100
AcDbLine
 62
253
  6
CONTINUOUS
 10
99.4158649526
 20
105.6525954959
 11
98.8455369526
 21
105.4694894959
  0
LWPOLYLINE
  5
711
100
AcDbEntity
  8
CURVE
100
AcDbPolyline
 62
253
  6
CONTINUOUS
 90
53
 70
0
 10
97.4074986703
 20
117.3593332962
 10
97.3730404924
 20
117.3589280803
 10
97.3385858793
 20
117.3576767499
 10
97.3041718505
 20
117.3555257803
 10
97.2698354254
 20
117.3524216473
 10
97.2356136234
 20
117.3483108265
 10
97.2054416289
 20
117.343784853
 10
97.1754182555
 20
117.3383705977
 10
97.145573262
 20
117.3320108082
 10
97.115936407
 20
117.3246482323
 10
97.0865374493
 20
117.3162256177
 10
97.0611783611
 20
117.3079951625
 10
97.0360729311
 20
117.2989134629
 10
97.0112721659
 20
117.2889752139
 10
96.9868270722
 20
117.2781751103
 10
96.9627886567
 20
117.2665078469
 10
96.939207926
 20
117.2539681184
 10
96.9161358868
 20
117.2405506198
 10
96.8936235457
 20
117.2262500459
 10
96.8717219095
 20
117.2110610914
 10
96.8504819848
 20
117.1949784513
 10
96.8312587338
 20
117.1791338017
 10
96.8126662775
 20
117.1625434108
 10
96.7947122045
 20
117.1452476214
 10
96.7774041034
 20
117.1272867763
 10
96.760749563
 20
117.1087012183
 10
96.7447561718
 20
117.0895312902
 10
96.7294315186
 20
117.0698173349
 10
96.7147831921
 20
117.0495996951
 10
96.7008187808
 20
117.0289187137
 10
96.6875458736
 20
117.0078147334
 10
96.6728894788
 20
116.9826246136
 10
96.6591515813
 20
116.9569514174
 10
96.6462928099
 20
116.9308363681
 10
96.6342737935
 20
116.9043206892
 10
96.6230551609
 20
116.8774456041
 10
96.612597541
 20
116.8502523359
 10
96.6028615626
 20
116.8227821083
 10
96.5938078545
 20
116.7950761444
 10
96.5853970456
 20
116.7671756677
 10
96.5758497064
 20
116.7325175432
 10
96.567192065
 20
116.6976486105
 10
96.5593941075
 20
116.662591658
 10
96.5524258203
 20
116.6273694739
 10
96.5462571894
 20
116.5920048468
 10
96.5408582013
 20
116.556520565
 10
96.536198842
 20
116.5209394168
 10
96.5322490978
 20
116.4852841906
 10
96.5281762265
 20
116.4397969224
 10
96.5250091234
 20
116.394242536
 10
96.5225511874
 20
116.3486371091
 10
96.5206058175
 20
116.3029967197
 10
96.5158790933
 20
116.1660265533
  0
LINE
  5
712
100
AcDbEntity
  8
CURVE
100
AcDbLine
 62
253
  6
CONTINUOUS
 10
96.5158789526
 20
115.2785964959
 11
99.4158799526
 21
115.2785964959
  0
LINE
  5
713
100
AcDbEntity
  8
CURVE
100
AcDbLine
 62
253
  6
CONTINUOUS
 10
99.4158799526
 20
115.9012024959
 11
98.2991179526
 21
115.9012024959
  0
LINE
  5
714
100
AcDbEntity
  8
CURVE
100
AcDbLine
 62
253
  6
CONTINUOUS
 10
97.8171849526
 20
115.9012024959
 11
96.9978119526
 21
115.9012024959
  0
LWPOLYLINE
  5
715
100
AcDbEntity
  8
CURVE
100
AcDbPolyline
 62
253
  6
CONTINUOUS
 90
53
 70
0
 10
97.4074986703
 20
116.6965663817
 10
97.420411674
 20
116.6964901481
 10
97.4333346234
 20
116.6962436502
 10
97.4462581783
 20
116.695800192
 10
97.4591729985
 20
116.6951330779
 10
97.4720697437
 20
116.6942156118
 10
97.4849390736
 20
116.6930210981
 10
97.4977716479
 20
116.6915228409
 10
97.5105581263
 20
116.6896941443
 10
97.5232891687
 20
116.6875083126
 10
97.535382634
 20
116.6850674395
 10
97.5474060491
 20
116.6822756527
 10
97.5593484034
 20
116.6791318778
 10
97.5711986866
 20
116.6756350408
 10
97.5829458883
 20
116.6717840672
 10
97.594578998
 20
116.6675778828
 10
97.6060870054
 20
116.6630154133
 10
97.6174589001
 20
116.6580955846
 10
97.6286836716
 20
116.6528173223
 10
97.6397503095
 20
116.6471795521
 10
97.6506478035
 20
116.6411811999
 10
97.6590018974
 20
116.6362628865
 10
97.6672291071
 20
116.6311231799
 10
97.6753116449
 20
116.6257596966
 10
97.6832317232
 20
116.6201700527
 10
97.6909715543
 20
116.6143518646
 10
97.6985133508
 20
116.6083027487
 10
97.7058393249
 20
116.6020203211
 10
97.7129316891
 20
116.5955021982
 10
97.7197726557
 20
116.5887459963
 10
97.7263444372
 20
116.5817493317
 10
97.7326292459
 20
116.5745098207
 10
97.7386092942
 20
116.5670250796
 10
97.7446475421
 20
116.558758096
 10
97.750328686
 20
116.5502303579
 10
97.7556638706
 20
116.5414638081
 10
97.760664241
 20
116.5324803897
 10
97.7653409421
 20
116.5233020458
 10
97.7697051188
 20
116.5139507192
 10
97.7737679159
 20
116.504448353
 10
97.7775404784
 20
116.4948168902
 10
97.7810339512
 20
116.4850782737
 10
97.7842594793
 20
116.4752544466
 10
97.7872282075
 20
116.4653673519
 10
97.7907803006
 20
116.4522276687
 10
97.7939418199
 20
116.4390224077
 10
97.7967516357
 20
116.4257582329
 10
97.7992486181
 20
116.4124418086
 10
97.8014716374
 20
116.3990797989
 10
97.8034595639
 20
116.385678868
 10
97.8052512678
 20
116.3722456801
 10
97.8068856194
 20
116.3587868994
 10
97.8084014888
 20
116.3453091901
  0
LINE
  5
716
100
AcDbEntity
  8
CURVE
100
AcDbLine
 62
253
  6
CONTINUOUS
 10
96.5158789526
 20
120.8056554959
 11
99.4158799526
 21
119.7573204959
  0
LINE
  5
717
100
AcDbEntity
  8
CURVE
100
AcDbLine
 62
253
  6
CONTINUOUS
 10
101.4587370631
 20
121.5778064959
 11
100.9158799526
 21
122.185806523
  0
LINE
  5
718
100
AcDbEntity
  8
CURVE
100
AcDbLine
 62
253
  6
CONTINUOUS
 10
101.7301656184
 20
126.7458065683
 11
101.5944513974
 21
126.99913995
  0
LINE
  5
719
100
AcDbEntity
  8
CURVE
100
AcDbLine
 62
253
  6
CONTINUOUS
 10
101.7301656184
 20
128.2658063509
 11
101.5944513974
 21
128.5191397325
  0
LINE
  5
71A
100
AcDbEntity
  8
CURVE
100
AcDbLine
 62
253
  6
CONTINUOUS
 10
102.8158799526
 20
103.8529874959
 11
101.5158799526
 21
102.8208624959
  0
LINE
  5
71B
100
AcDbEntity
  8
CURVE
100
AcDbLine
 62
253
  6
CONTINUOUS
 10
99.4158799526
 20
117.7489394959
 11
96.5158789526
 21
117.7489394959
  0
LINE
  5
71C
100
AcDbEntity
  8
CURVE
100
AcDbLine
 62
253
  6
CONTINUOUS
 10
96.5158789526
 20
118.3715454959
 11
98.9339469526
 21
118.3715454959
  0
LINE
  5
71D
100
AcDbEntity
  8
0
100
AcDbLine
 62
7
  6
CONTINUOUS
 10
113.2158799526
 20
118.9078064959
 11
113.3158799526
 21
118.9078064959
  0
LINE
  5
71E
100
AcDbEntity
  8
CURVE
100
AcDbLine
 62
253
  6
CONTINUOUS
 10
98.9339469526
 20
119.4445444959
 11
99.4158799526
 21
119.4445444959
  0
LINE
  5
71F
100
AcDbEntity
  8
RACCORDO
100
AcDbLine
 62
7
  6
CONTINUOUS
 10
113.2158799526
 20
118.1778064959
 11
129.8712330199
 21
116.7206519154
  0
LINE
  5
720
100
AcDbEntity
  8
ASSI
100
AcDbLine
 62
7
  6
CONTINUOUS
 10
113.2158799526
 20
118.1778064959
 11
129.8712330199
 21
116.7206519154
  0
LINE
  5
721
100
AcDbEntity
  8
CURVE
100
AcDbLine
 62
253
  6
CONTINUOUS
 10
98.3193079526
 20
120.7292624959
 11
97.0700389526
 21
121.1592774959
  0
LINE
  5
722
100
AcDbEntity
  8
CURVE
100
AcDbLine
 62
253
  6
CONTINUOUS
 10
99.4158799526
 20
120.3517704959
 11
98.8012409526
 21
120.5686184959
  0
LINE
  5
723
100
AcDbEntity
  8
DRAFT
100
AcDbLine
 62
7
  6
CONTINUOUS
 10
113.2158799526
 20
122.1778064959
 11
113.2158799526
 21
118.1778064959
  0
LINE
  5
724
100
AcDbEntity
  8
ASSI
100
AcDbLine
 62
7
  6
CONTINUOUS
 10
113.2158799526
 20
122.1778064959
 11
113.2158799526
 21
118.1778064959
  0
LINE
  5
725
100
AcDbEntity
  8
RACCORDO
100
AcDbLine
 62
7
  6
CONTINUOUS
 10
113.3158799526
 20
122.1865553622
 11
113.3158799526
 21
118.1690576295
  0
LINE
  5
726
100
AcDbEntity
  8
CURVE
100
AcDbLine
 62
253
  6
CONTINUOUS
 10
98.4044109526
 20
101.9852264959
 11
96.5157419526
 21
101.4436584959
  0
LINE
  5
727
100
AcDbEntity
  8
CURVE
100
AcDbLine
 62
253
  6
CONTINUOUS
 10
97.5034309526
 20
101.1468434959
 11
99.4158729526
 21
101.6952194959
  0
LINE
  5
728
100
AcDbEntity
  8
RACCORDO
100
AcDbLine
 62
7
  6
CONTINUOUS
 10
129.9133046819
 20
123.6386418697
 11
113.2158799526
 21
122.1778064959
  0
LINE
  5
729
100
AcDbEntity
  8
ASSI
100
AcDbLine
 62
7
  6
CONTINUOUS
 10
129.9133046819
 20
123.6386418697
 11
113.2158799526
 21
122.1778064959
  0
LINE
  5
72A
100
AcDbEntity
  8
CURVE
100
AcDbLine
 62
7
  6
CONTINUOUS
 10
98.8012409526
 20
120.8683637757
 11
96.6058878082
 21
120.7731177714
  0
LINE
  5
72B
100
AcDbEntity
  8
0
100
AcDbLine
 62
7
  6
CONTINUOUS
 10
83.4798091622
 20
120.5730661766
 11
83.1669333161
 21
120.5676049084
  0
LINE
  5
72C
100
AcDbEntity
  8
0
100
AcDbLine
 62
7
  6
CONTINUOUS
 10
113.3158799526
 20
121.4478064959
 11
113.2158799526
 21
121.4478064959
  0
LINE
  5
72D
100
AcDbEntity
  8
CURVE
100
AcDbLine
 62
253
  6
CONTINUOUS
 10
102.4087370914
 20
122.7938065502
 11
100.9158799526
 21
123.2498064596
  0
LINE
  5
72E
100
AcDbEntity
  8
CURVE
100
AcDbLine
 62
253
  6
CONTINUOUS
 10
102.8158799526
 20
126.8978064959
 11
102.6801656608
 21
127.0498064234
  0
LINE
  5
72F
100
AcDbEntity
  8
CURVE
100
AcDbLine
 62
253
  6
CONTINUOUS
 10
102.8158799526
 20
128.4178062784
 11
102.6801656608
 21
128.5698067133
  0
LINE
  5
730
100
AcDbEntity
  8
CURVE
100
AcDbLine
 62
253
  6
CONTINUOUS
 10
102.8158799526
 20
99.1380304959
 11
101.5158799526
 21
98.5676964959
  0
LINE
  5
731
100
AcDbEntity
  8
CURVE
100
AcDbLine
 62
253
  6
CONTINUOUS
 10
98.5126389526
 20
97.7989674959
 11
96.5157419526
 21
97.1578354959
  0
LINE
  5
732
100
AcDbEntity
  8
CURVE
100
AcDbLine
 62
253
  6
CONTINUOUS
 10
100.9158799526
 20
122.185806523
 11
102.8158799526
 21
122.185806523
  0
LINE
  5
733
100
AcDbEntity
  8
CURVE
100
AcDbLine
 62
253
  6
CONTINUOUS
 10
99.4158799526
 20
122.8701314959
 11
96.5158789526
 21
122.8701314959
  0
LINE
  5
734
100
AcDbEntity
  8
CURVE
100
AcDbLine
 62
253
  6
CONTINUOUS
 10
96.9887759526
 20
123.4525764959
 11
99.4158799526
 21
123.4525764959
  0
LINE
  5
735
100
AcDbEntity
  8
CURVE
100
AcDbLine
 62
253
  6
CONTINUOUS
 10
102.8158799526
 20
123.5031398413
 11
101.8658799526
 21
123.5031398413
  0
LINE
  5
736
100
AcDbEntity
  8
CURVE
100
AcDbLine
 62
253
  6
CONTINUOUS
 10
112.4158769526
 20
124.1926964959
 11
111.6650599526
 21
124.1926964959
  0
LINE
  5
737
100
AcDbEntity
  8
CURVE
100
AcDbLine
 62
253
  6
CONTINUOUS
 10
108.0706199526
 20
124.1926964959
 11
107.3198029526
 21
124.1926964959
  0
LINE
  5
738
100
AcDbEntity
  8
CURVE
100
AcDbLine
 62
253
  6
CONTINUOUS
 10
102.4087370914
 20
124.4658063871
 11
100.9158799526
 21
124.9218064234
  0
LINE
  5
739
100
AcDbEntity
  8
CURVE
100
AcDbLine
 62
253
  6
CONTINUOUS
 10
98.3193079526
 20
126.7542974959
 11
97.0702029526
 21
127.1842554959
  0
LINE
  5
73A
100
AcDbEntity
  8
CURVE
100
AcDbLine
 62
253
  6
CONTINUOUS
 10
99.4158799526
 20
126.3766954959
 11
98.8012409526
 21
126.5936524959
  0
LINE
  5
73B
100
AcDbEntity
  8
CURVE
100
AcDbLine
 62
253
  6
CONTINUOUS
 10
96.5158789526
 20
126.8306904959
 11
99.4158799526
 21
125.7822464959
  0
LINE
  5
73C
100
AcDbEntity
  8
0
100
AcDbLine
 62
7
  6
CONTINUOUS
 10
90.5408799526
 20
88.9499752795
 11
91.4158799526
 21
89.455156765
  0
LINE
  5
73D
100
AcDbEntity
  8
0
100
AcDbLine
 62
253
  6
CONTINUOUS
 10
90.6636983187
 20
88.7334689286
 11
91.6636983187
 21
89.3108191977
  0
LINE
  5
73E
100
AcDbEntity
  8
CURVE
100
AcDbLine
 62
253
  6
CONTINUOUS
 10
102.8158799526
 20
97.2006754959
 11
101.5158799526
 21
96.5778064959
  0
LINE
  5
73F
100
AcDbEntity
  8
CURVE
100
AcDbLine
 62
253
  6
CONTINUOUS
 10
96.5157419526
 20
96.5778064959
 11
99.4158799526
 21
97.5089384959
  0
LINE
  5
740
100
AcDbEntity
  8
CURVE
100
AcDbLine
 62
7
  6
CONTINUOUS
 10
99.2853465327
 20
123.4525764959
 11
96.6027943925
 21
122.8701314959
  0
LINE
  5
741
100
AcDbEntity
  8
CURVE
100
AcDbLine
 62
7
  6
CONTINUOUS
 10
99.2216673925
 20
125.4890044959
 11
96.5391162524
 21
124.9065604959
  0
LINE
  5
742
100
AcDbEntity
  8
CURVE
100
AcDbLine
 62
253
  6
CONTINUOUS
 10
98.8139929526
 20
124.9065604959
 11
96.5158789526
 21
124.9065604959
  0
LINE
  5
743
100
AcDbEntity
  8
CURVE
100
AcDbLine
 62
253
  6
CONTINUOUS
 10
102.8158799526
 20
125.175139805
 11
101.8658799526
 21
125.175139805
  0
LINE
  5
744
100
AcDbEntity
  8
CURVE
100
AcDbLine
 62
253
  6
CONTINUOUS
 10
96.5158789526
 20
125.4890044959
 11
99.4158799526
 21
125.4890044959
  0
LINE
  5
745
100
AcDbEntity
  8
0
100
AcDbLine
 62
7
  6
CONTINUOUS
 10
90.5408799526
 20
136.2056377122
 11
91.4158799526
 21
135.7004562267
  0
LINE
  5
746
100
AcDbEntity
  8
0
100
AcDbLine
 62
253
  6
CONTINUOUS
 10
90.6636983187
 20
136.4221440632
 11
91.6636983187
 21
135.844793794
  0
LINE
  5
747
100
AcDbEntity
  8
CURVE
100
AcDbLine
 62
7
  6
CONTINUOUS
 10
98.8012409526
 20
127.1686851961
 11
96.5158789526
 21
126.9834303362
  0
LINE
  5
748
100
AcDbEntity
  8
CURVE
100
AcDbLine
 62
253
  6
CONTINUOUS
 10
101.5944513974
 20
126.99913995
 11
101.1873085079
 21
126.99913995
  0
LINE
  5
749
100
AcDbEntity
  8
CURVE
100
AcDbLine
 62
253
  6
CONTINUOUS
 10
102.6801656608
 20
127.0498064234
 11
102.0015942302
 21
127.0498064234
  0
LINE
  5
74A
100
AcDbEntity
  8
CURVE
100
AcDbLine
 62
253
  6
CONTINUOUS
 10
110.2428399526
 20
128.1778064959
 11
109.4928399526
 21
128.1778064959
  0
LINE
  5
74B
100
AcDbEntity
  8
CURVE
100
AcDbLine
 62
253
  6
CONTINUOUS
 10
101.5944513974
 20
128.5191397325
 11
101.1873085079
 21
128.5191397325
  0
LINE
  5
74C
100
AcDbEntity
  8
CURVE
100
AcDbLine
 62
253
  6
CONTINUOUS
 10
102.6801656608
 20
128.5698067133
 11
102.0015942302
 21
128.5698067133
  0
LINE
  5
74D
100
AcDbEntity
  8
CURVE
100
AcDbLine
 62
253
  6
CONTINUOUS
 10
112.4158770704
 20
128.5778064959
 11
111.6650569042
 21
128.5778064959
  0
LINE
  5
74E
100
AcDbEntity
  8
CURVE
100
AcDbLine
 62
253
  6
CONTINUOUS
 10
108.0706199526
 20
128.5778064959
 11
107.3198028349
 21
128.5778064959
  0
LWPOLYLINE
  5
74F
100
AcDbEntity
  8
ASSI
100
AcDbPolyline
 62
253
  6
CONTINUOUS
 90
6
 70
0
 10
129.905895647
 20
130.8009712791
 10
129.9058117237
 20
130.8006603656
 10
129.9051226979
 20
130.8027172544
 10
129.9038020791
 20
130.8079917803
 10
129.90199889
 20
130.8144846608
 10
129.8998998584
 20
130.8204284335
  0
LINE
  5
750
100
AcDbEntity
  8
RACCORDO
100
AcDbLine
 62
253
  6
CONTINUOUS
 10
129.9132856656
 20
130.4463235687
 11
128.9333323591
 21
130.4463249996
  0
LINE
  5
751
100
AcDbEntity
  8
ASSI
100
AcDbLine
 62
253
  6
CONTINUOUS
 10
129.9132856656
 20
130.4463235687
 11
128.9333323591
 21
130.4463249996
  0
LINE
  5
752
100
AcDbEntity
  8
RACCORDO
100
AcDbLine
 62
253
  6
CONTINUOUS
 10
128.9333323591
 20
130.4463249996
 11
93.9158799526
 21
130.6995055446
  0
LINE
  5
753
100
AcDbEntity
  8
ASSI
100
AcDbLine
 62
253
  6
CONTINUOUS
 10
128.9333323591
 20
130.4463249996
 11
93.9158799526
 21
130.6995055446
  0
LWPOLYLINE
  5
754
100
AcDbEntity
  8
RACCORDO
100
AcDbPolyline
 62
253
  6
CONTINUOUS
 90
10
 70
0
 10
129.899888744
 20
130.8204241095
 10
129.9003129785
 20
130.8231654707
 10
129.9006315784
 20
130.8258993175
 10
129.900844373
 20
130.8286241854
 10
129.9009512482
 20
130.8313386152
 10
129.900952147
 20
130.8340411521
 10
129.900847069
 20
130.8367303466
 10
129.9006360706
 20
130.8394047575
 10
129.900319265
 20
130.8420629525
 10
129.8998968218
 20
130.8447035077
  0
LWPOLYLINE
  5
755
100
AcDbEntity
  8
ASSI
100
AcDbPolyline
 62
253
  6
CONTINUOUS
 90
10
 70
0
 10
129.899888744
 20
130.8204241095
 10
129.9003129785
 20
130.8231654707
 10
129.9006315784
 20
130.8258993175
 10
129.900844373
 20
130.8286241854
 10
129.9009512482
 20
130.8313386152
 10
129.900952147
 20
130.8340411521
 10
129.900847069
 20
130.8367303466
 10
129.9006360706
 20
130.8394047575
 10
129.900319265
 20
130.8420629525
 10
129.8998968218
 20
130.8447035077
  0
LWPOLYLINE
  5
756
100
AcDbEntity
  8
RACCORDO
100
AcDbPolyline
 62
253
  6
CONTINUOUS
 90
3
 70
0
 10
129.9119154612
 20
130.6191886581
 10
129.9131834155
 20
130.6255897841
 10
129.9158800005
 20
130.6667268953
  0
LWPOLYLINE
  5
757
100
AcDbEntity
  8
ASSI
100
AcDbPolyline
 62
253
  6
CONTINUOUS
 90
3
 70
0
 10
129.9119154612
 20
130.6191886581
 10
129.9131834155
 20
130.6255897841
 10
129.9158800005
 20
130.6667268953
  0
LINE
  5
758
100
AcDbEntity
  8
RACCORDO
100
AcDbLine
 62
7
  6
CONTINUOUS
 10
103.9158799526
 20
133.5650751738
 11
93.9158799526
 21
133.4778064959
  0
LINE
  5
759
100
AcDbEntity
  8
RACCORDO
100
AcDbLine
 62
253
  6
CONTINUOUS
 10
103.9158799925
 20
132.0412024688
 11
93.9158799526
 21
132.1135037154
  0
LINE
  5
75A
100
AcDbEntity
  8
ASSI
100
AcDbLine
 62
253
  6
CONTINUOUS
 10
103.9158799925
 20
132.0412024688
 11
93.9158799526
 21
132.1135037154
  0
LINE
  5
75B
100
AcDbEntity
  8
RACCORDO
100
AcDbLine
 62
7
  6
CONTINUOUS
 10
128.9333323591
 20
131.6665745905
 11
103.9158799526
 21
132.1032558466
  0
LINE
  5
75C
100
AcDbEntity
  8
ASSI
100
AcDbLine
 62
7
  6
CONTINUOUS
 10
128.9333323591
 20
131.6665745905
 11
103.9158799526
 21
132.1032558466
  0
LINE
  5
75D
100
AcDbEntity
  8
DRAFT
100
AcDbLine
 62
7
  6
CONTINUOUS
 10
103.9158799526
 20
132.7032558466
 11
93.9158799526
 21
132.8778064959
  0
LINE
  5
75E
100
AcDbEntity
  8
ASSI
100
AcDbLine
 62
7
  6
CONTINUOUS
 10
103.9158799526
 20
132.7032558466
 11
93.9158799526
 21
132.8778064959
  0
LINE
  5
75F
100
AcDbEntity
  8
RACCORDO
100
AcDbLine
 62
253
  6
CONTINUOUS
 10
103.915879946
 20
132.0429440025
 11
105.4436129225
 21
132.0166669944
  0
LINE
  5
760
100
AcDbEntity
  8
ASSI
100
AcDbLine
 62
253
  6
CONTINUOUS
 10
103.915879946
 20
132.0429440025
 11
105.4436129225
 21
132.0166669944
  0
LINE
  5
761
100
AcDbEntity
  8
RACCORDO
100
AcDbLine
 62
253
  6
CONTINUOUS
 10
105.4436129225
 20
132.0166669944
 11
128.9343546385
 21
131.5799562443
  0
LINE
  5
762
100
AcDbEntity
  8
ASSI
100
AcDbLine
 62
253
  6
CONTINUOUS
 10
105.4436129225
 20
132.0166669944
 11
128.9343546385
 21
131.5799562443
  0
LWPOLYLINE
  5
763
100
AcDbEntity
  8
0
100
AcDbPolyline
 62
253
  6
CONTINUOUS
 90
3
 70
0
 10
84.3297247829
 20
133.1197123523
 10
83.8415488196
 20
133.1401275913
 10
83.8388739839
 20
133.1402748205
  0
LWPOLYLINE
  5
764
100
AcDbEntity
  8
RACCORDO
100
AcDbPolyline
 62
253
  6
CONTINUOUS
 90
6
 70
0
 10
128.9343609346
 20
131.6383301183
 10
128.9342464468
 20
131.6483356645
 10
128.9340852695
 20
131.6562414742
 10
128.933878215
 20
131.6619562244
 10
128.9336266259
 20
131.6654139067
 10
128.9333323591
 20
131.6665745905
  0
LWPOLYLINE
  5
765
100
AcDbEntity
  8
ASSI
100
AcDbPolyline
 62
253
  6
CONTINUOUS
 90
6
 70
0
 10
128.9343609346
 20
131.6383301183
 10
128.9342464468
 20
131.6483356645
 10
128.9340852695
 20
131.6562414742
 10
128.933878215
 20
131.6619562244
 10
128.9336266259
 20
131.6654139067
 10
128.9333323591
 20
131.6665745905
  0
LINE
  5
766
100
AcDbEntity
  8
RACCORDO
100
AcDbLine
 62
253
  6
CONTINUOUS
 10
128.9344494269
 20
93.5431106079
 11
128.9343547971
 21
93.5756609127
  0
LINE
  5
767
100
AcDbEntity
  8
ASSI
100
AcDbLine
 62
253
  6
CONTINUOUS
 10
128.9344494269
 20
93.5431106079
 11
128.9343547971
 21
93.5756609127
  0
LINE
  5
768
100
AcDbEntity
  8
RACCORDO
100
AcDbLine
 62
253
  6
CONTINUOUS
 10
128.9344492923
 20
131.6125050724
 11
128.9343609346
 21
131.6383301183
  0
LINE
  5
769
100
AcDbEntity
  8
ASSI
100
AcDbLine
 62
253
  6
CONTINUOUS
 10
128.9344492923
 20
131.6125050724
 11
128.9343609346
 21
131.6383301183
  0
LINE
  5
76A
100
AcDbEntity
  8
RACCORDO
100
AcDbLine
 62
253
  6
CONTINUOUS
 10
128.9333323591
 20
94.7092879921
 11
128.934754333
 21
94.0205938458
  0
LINE
  5
76B
100
AcDbEntity
  8
ASSI
100
AcDbLine
 62
253
  6
CONTINUOUS
 10
128.9333323591
 20
94.7092879921
 11
128.934754333
 21
94.0205938458
  0
LINE
  5
76C
100
AcDbEntity
  8
RACCORDO
100
AcDbLine
 62
7
  6
CONTINUOUS
 10
127.9658799526
 20
123.4682642829
 11
127.9658799526
 21
116.8873487088
  0
LINE
  5
76D
100
AcDbEntity
  8
RACCORDO
100
AcDbLine
 62
7
  6
CONTINUOUS
 10
128.7158799526
 20
116.8217322112
 11
128.7158799526
 21
123.5338807805
  0
LINE
  5
76E
100
AcDbEntity
  8
RACCORDO
100
AcDbLine
 62
253
  6
CONTINUOUS
 10
128.9333323591
 20
116.8027075908
 11
128.9333323591
 21
94.7092879921
  0
LINE
  5
76F
100
AcDbEntity
  8
ASSI
100
AcDbLine
 62
253
  6
CONTINUOUS
 10
128.9333323591
 20
116.8027075908
 11
128.9333323591
 21
94.7092879921
  0
LINE
  5
770
100
AcDbEntity
  8
RACCORDO
100
AcDbLine
 62
253
  6
CONTINUOUS
 10
128.9342193416
 20
130.7465253733
 11
128.9343546385
 21
131.5799562443
  0
LINE
  5
771
100
AcDbEntity
  8
ASSI
100
AcDbLine
 62
253
  6
CONTINUOUS
 10
128.9342193416
 20
130.7465253733
 11
128.9343546385
 21
131.5799562443
  0
LINE
  5
772
100
AcDbEntity
  8
RACCORDO
100
AcDbLine
 62
253
  6
CONTINUOUS
 10
128.934754333
 20
94.0205938458
 11
128.934354798
 21
93.5756609141
  0
LINE
  5
773
100
AcDbEntity
  8
ASSI
100
AcDbLine
 62
253
  6
CONTINUOUS
 10
128.934754333
 20
94.0205938458
 11
128.934354798
 21
93.5756609141
  0
LINE
  5
774
100
AcDbEntity
  8
RACCORDO
100
AcDbLine
 62
253
  6
CONTINUOUS
 10
128.9333323591
 20
123.5529054009
 11
128.9342193416
 21
130.7465253733
  0
LINE
  5
775
100
AcDbEntity
  8
ASSI
100
AcDbLine
 62
253
  6
CONTINUOUS
 10
128.9333323591
 20
123.5529054009
 11
128.9342193416
 21
130.7465253733
  0
LINE
  5
776
100
AcDbEntity
  8
RACCORDO
100
AcDbLine
 62
253
  6
CONTINUOUS
 10
128.9343546451
 20
131.5799562436
 11
128.9344492923
 21
131.6125050724
  0
LINE
  5
777
100
AcDbEntity
  8
ASSI
100
AcDbLine
 62
253
  6
CONTINUOUS
 10
128.9343546451
 20
131.5799562436
 11
128.9344492923
 21
131.6125050724
  0
LWPOLYLINE
  5
778
100
AcDbEntity
  8
RACCORDO
100
AcDbPolyline
 62
253
  6
CONTINUOUS
 90
6
 70
0
 10
129.9058742383
 20
130.8016930622
 10
129.9058117237
 20
130.8006603656
 10
129.9051226979
 20
130.8027172544
 10
129.9038020791
 20
130.8079917803
 10
129.90199889
 20
130.8144846608
 10
129.8998998584
 20
130.8204284335
  0
LWPOLYLINE
  5
779
100
AcDbEntity
  8
0
100
AcDbPolyline
 62
253
  6
CONTINUOUS
 90
22
 70
0
 10
85.2765428386
 20
134.0772169504
 10
85.2062463446
 20
134.0710152193
 10
85.1371315099
 20
134.0600372485
 10
85.0691983344
 20
134.0442830381
 10
85.0020906504
 20
134.0236264267
 10
84.9361646258
 20
133.9981935758
 10
84.872488764
 20
133.9683629695
 10
84.8111279526
 20
133.9340719923
 10
84.7520173041
 20
133.8953832597
 10
84.6960306598
 20
133.8528631025
 10
84.643213254
 20
133.8064524825
 10
84.5935198524
 20
133.7562104377
 10
84.5476885932
 20
133.702880413
 10
84.5057775726
 20
133.6464145698
 10
84.4677286945
 20
133.5868607467
 10
84.4341058089
 20
133.5251059031
 10
84.4049752826
 20
133.4610907659
 10
84.3802707487
 20
133.3948746082
 10
84.3603569569
 20
133.3275222101
 10
84.3453554902
 20
133.259388498
 10
84.3351447656
 20
133.1901185454
 10
84.3297247829
 20
133.1197123523
  0
LINE
  5
77A
100
AcDbEntity
  8
0
100
AcDbLine
 62
253
  6
CONTINUOUS
 10
93.9158799526
 20
134.5299854231
 11
85.2765428386
 21
134.0772169504
  0
LINE
  5
77B
100
AcDbEntity
  8
0
100
AcDbLine
 62
7
  6
CONTINUOUS
 10
85.2591010637
 20
134.5765317178
 11
91.5470449318
 21
134.9060688922
  0
LINE
  5
77C
100
AcDbEntity
  8
0
100
AcDbLine
 62
7
  6
CONTINUOUS
 10
91.6636983187
 20
134.9113967326
 11
91.5470449318
 21
134.9060688922
  0
LINE
  5
77D
100
AcDbEntity
  8
RACCORDO
100
AcDbLine
 62
7
  6
CONTINUOUS
 10
103.4246061558
 20
134.1437819291
 11
93.9158799526
 21
133.9778064959
  0
LINE
  5
77E
100
AcDbEntity
  8
DRAFT
100
AcDbLine
 62
7
  6
CONTINUOUS
 10
100.9158799526
 20
134.9778064959
 11
103.9158799526
 21
134.9778064959
  0
LINE
  5
77F
100
AcDbEntity
  8
ASSI
100
AcDbLine
 62
7
  6
CONTINUOUS
 10
100.9158799526
 20
134.9778064959
 11
103.9158799526
 21
134.9778064959
  0
LINE
  5
780
100
AcDbEntity
  8
0
100
AcDbLine
 62
7
  6
CONTINUOUS
 10
92.9158799526
 20
134.9865333636
 11
102.9246064881
 21
134.8991885304
  0
LWPOLYLINE
  5
781
100
AcDbEntity
  8
ASSI
100
AcDbPolyline
 62
7
  6
CONTINUOUS
 90
5
 70
0
 10
129.9021995638
 20
114.293238065
 10
129.8852448654
 20
114.4484954688
 10
129.8780256955
 20
114.5259221715
 10
129.8731872085
 20
114.6015626389
 10
129.8713266334
 20
114.6749900866
  0
LWPOLYLINE
  5
782
100
AcDbEntity
  8
RACCORDO
100
AcDbPolyline
 62
7
  6
CONTINUOUS
 90
3
 70
0
 10
129.9058626978
 20
130.8019317903
 10
129.9041722423
 20
130.8192840585
 10
129.9038643767
 20
130.8213267093
  0
LINE
  5
783
100
AcDbEntity
  8
RACCORDO
100
AcDbLine
 62
253
  6
CONTINUOUS
 10
129.8999156912
 20
130.8204356969
 11
129.9031227589
 21
130.7761691849
  0
LINE
  5
784
100
AcDbEntity
  8
ASSI
100
AcDbLine
 62
253
  6
CONTINUOUS
 10
129.8999156912
 20
130.8204356969
 11
129.9031227589
 21
130.7761691849
  0
LWPOLYLINE
  5
785
100
AcDbEntity
  8
RACCORDO
100
AcDbPolyline
 62
253
  6
CONTINUOUS
 90
3
 70
0
 10
129.8280601434
 20
114.6359453565
 10
129.8307340972
 20
114.5911576197
 10
129.8347109826
 20
114.5481385144
  0
LWPOLYLINE
  5
786
100
AcDbEntity
  8
ASSI
100
AcDbPolyline
 62
253
  6
CONTINUOUS
 90
3
 70
0
 10
129.8280601434
 20
114.6359453565
 10
129.8307340972
 20
114.5911576197
 10
129.8347109826
 20
114.5481385144
  0
LINE
  5
787
100
AcDbEntity
  8
RACCORDO
100
AcDbLine
 62
253
  6
CONTINUOUS
 10
129.9031227589
 20
130.7761691849
 11
129.9056383681
 21
130.7326870388
  0
LINE
  5
788
100
AcDbEntity
  8
ASSI
100
AcDbLine
 62
253
  6
CONTINUOUS
 10
129.9031227589
 20
130.7761691849
 11
129.9056383681
 21
130.7326870388
  0
LINE
  5
789
100
AcDbEntity
  8
ASSI
100
AcDbLine
 62
7
  6
CONTINUOUS
 10
129.905858873
 20
130.8017107227
 11
129.9057319726
 21
130.8040025796
  0
LINE
  5
78A
100
AcDbEntity
  8
RACCORDO
100
AcDbLine
 62
7
  6
CONTINUOUS
 10
129.9078421355
 20
130.7621978141
 11
129.9059210376
 21
130.802741895
  0
LINE
  5
78B
100
AcDbEntity
  8
ASSI
100
AcDbLine
 62
7
  6
CONTINUOUS
 10
129.9080787927
 20
130.756532392
 11
129.9059210391
 21
130.8027418671
  0
LINE
  5
78C
100
AcDbEntity
  8
RACCORDO
100
AcDbLine
 62
253
  6
CONTINUOUS
 10
129.9056383681
 20
130.7326870388
 11
129.9075855601
 21
130.6899703635
  0
LINE
  5
78D
100
AcDbEntity
  8
ASSI
100
AcDbLine
 62
253
  6
CONTINUOUS
 10
129.9056383681
 20
130.7326870388
 11
129.9075855601
 21
130.6899703635
  0
LWPOLYLINE
  5
78E
100
AcDbEntity
  8
RACCORDO
100
AcDbPolyline
 62
253
  6
CONTINUOUS
 90
6
 70
0
 10
129.9075855601
 20
130.6899703635
 10
129.9090770188
 20
130.6480494817
 10
129.9101904811
 20
130.6068307007
 10
129.9109807738
 20
130.5661089011
 10
129.9114981506
 20
130.5257868115
 10
129.911789762
 20
130.4858727706
  0
LINE
  5
78F
100
AcDbEntity
  8
ASSI
100
AcDbLine
 62
253
  6
CONTINUOUS
 10
129.9075855601
 20
130.6899703635
 11
129.9090770188
 21
130.6480494817
  0
LINE
  5
790
100
AcDbEntity
  8
RACCORDO
100
AcDbLine
 62
7
  6
CONTINUOUS
 10
129.9116056535
 20
130.6372497535
 11
129.9078421355
 21
130.7621978141
  0
LINE
  5
791
100
AcDbEntity
  8
ASSI
100
AcDbLine
 62
7
  6
CONTINUOUS
 10
129.9118841387
 20
130.6224196291
 11
129.9080787927
 21
130.756532392
  0
LINE
  5
792
100
AcDbEntity
  8
RACCORDO
100
AcDbLine
 62
253
  6
CONTINUOUS
 10
129.8267503204
 20
114.6825017249
 11
129.8280601434
 21
114.6359453565
  0
LINE
  5
793
100
AcDbEntity
  8
ASSI
100
AcDbLine
 62
253
  6
CONTINUOUS
 10
129.8267503204
 20
114.6825017249
 11
129.8280601434
 21
114.6359453565
  0
LWPOLYLINE
  5
794
100
AcDbEntity
  8
ASSI
100
AcDbPolyline
 62
253
  6
CONTINUOUS
 90
5
 70
0
 10
129.9090770188
 20
130.6480494817
 10
129.9101904811
 20
130.6068307007
 10
129.9109807738
 20
130.5661089011
 10
129.9114981506
 20
130.5257868115
 10
129.911789762
 20
130.4858727706
  0
LWPOLYLINE
  5
795
100
AcDbEntity
  8
ASSI
100
AcDbPolyline
 62
7
  6
CONTINUOUS
 90
4
 70
0
 10
129.915878685
 20
114.0743165363
 10
129.9144652676
 20
114.1372026711
 10
129.9094884414
 20
114.2158482494
 10
129.9021995638
 20
114.293238065
  0
LWPOLYLINE
  5
796
100
AcDbEntity
  8
RACCORDO
100
AcDbPolyline
 62
7
  6
CONTINUOUS
 90
12
 70
0
 10
129.915879734
 20
114.073732794
 10
129.9148053783
 20
114.1287202709
 10
129.9117845276
 20
114.1852176625
 10
129.9073307198
 20
114.2408967259
 10
129.9018943273
 20
114.2961642654
 10
129.8959412571
 20
114.3508594852
 10
129.8898973697
 20
114.4051184794
 10
129.8841302755
 20
114.4593705493
 10
129.8790209789
 20
114.5138798322
 10
129.8749952005
 20
114.5682319521
 10
129.8723815275
 20
114.6214718576
 10
129.87133537
 20
114.6734054818
  0
LINE
  5
797
100
AcDbEntity
  8
RACCORDO
100
AcDbLine
 62
7
  6
CONTINUOUS
 10
129.9131283273
 20
130.5083559951
 11
129.9116056535
 21
130.6372497535
  0
LINE
  5
798
100
AcDbEntity
  8
ASSI
100
AcDbLine
 62
7
  6
CONTINUOUS
 10
129.9132262837
 20
130.483975142
 11
129.9118841387
 21
130.6224196291
  0
LINE
  5
799
100
AcDbEntity
  8
RACCORDO
100
AcDbLine
 62
253
  6
CONTINUOUS
 10
129.4202432204
 20
123.5955045814
 11
129.4202432204
 21
116.7601084103
  0
LINE
  5
79A
100
AcDbEntity
  8
ASSI
100
AcDbLine
 62
253
  6
CONTINUOUS
 10
129.4202432204
 20
123.5955045814
 11
129.4202432204
 21
116.7601084103
  0
LINE
  5
79B
100
AcDbEntity
  8
RACCORDO
100
AcDbLine
 62
253
  6
CONTINUOUS
 10
129.8267503204
 20
116.7245436474
 11
129.8267503204
 21
114.6825017253
  0
LINE
  5
79C
100
AcDbEntity
  8
ASSI
100
AcDbLine
 62
253
  6
CONTINUOUS
 10
129.8267503204
 20
116.7245436474
 11
129.8267503204
 21
114.6825017253
  0
LINE
  5
79D
100
AcDbEntity
  8
RACCORDO
100
AcDbLine
 62
7
  6
CONTINUOUS
 10
129.8713151365
 20
116.7210821664
 11
129.87133537
 21
114.6734054818
  0
LINE
  5
79E
100
AcDbEntity
  8
ASSI
100
AcDbLine
 62
7
  6
CONTINUOUS
 10
129.8713151365
 20
116.7210821664
 11
129.8713266334
 21
114.6749900866
  0
LINE
  5
79F
100
AcDbEntity
  8
RACCORDO
100
AcDbLine
 62
253
  6
CONTINUOUS
 10
129.911789762
 20
130.4858727706
 11
129.9118887393
 21
123.6385179912
  0
LINE
  5
7A0
100
AcDbEntity
  8
ASSI
100
AcDbLine
 62
253
  6
CONTINUOUS
 10
129.911789762
 20
130.4858727706
 11
129.9118887393
 21
123.6385179912
  0
LINE
  5
7A1
100
AcDbEntity
  8
RACCORDO
100
AcDbLine
 62
7
  6
CONTINUOUS
 10
129.9131283273
 20
130.5083559951
 11
129.9132856656
 21
123.6383887916
  0
LINE
  5
7A2
100
AcDbEntity
  8
ASSI
100
AcDbLine
 62
7
  6
CONTINUOUS
 10
129.9132262837
 20
130.483975142
 11
129.9132856656
 21
123.6383887916
  0
LINE
  5
7A3
100
AcDbEntity
  8
RACCORDO
100
AcDbLine
 62
7
  6
CONTINUOUS
 10
129.9158799526
 20
130.6667268953
 11
129.9158799526
 21
130.4463249996
  0
LINE
  5
7A4
100
AcDbEntity
  8
ASSI
100
AcDbLine
 62
7
  6
CONTINUOUS
 10
129.9158799526
 20
130.6667268953
 11
129.9158799526
 21
130.4463249996
  0
LINE
  5
7A5
100
AcDbEntity
  8
0
100
AcDbLine
 62
253
  6
CONTINUOUS
 10
129.9158799526
 20
114.6821128136
 11
129.9158799526
 21
114.0742789654
  0
LINE
  5
7A6
100
AcDbEntity
  8
RACCORDO
100
AcDbLine
 62
7
  6
CONTINUOUS
 10
129.9158799526
 20
123.6386418697
 11
129.9158799526
 21
94.4888860964
  0
LINE
  5
7A7
100
AcDbEntity
  8
ASSI
100
AcDbLine
 62
7
  6
CONTINUOUS
 10
129.9158799526
 20
123.6386418697
 11
129.9158799526
 21
94.4888860964
  0
LWPOLYLINE
  5
7A8
100
AcDbEntity
  8
RACCORDO
100
AcDbPolyline
 62
253
  6
CONTINUOUS
 90
28
 70
0
 10
129.9158799526
 20
94.4888860997
 10
129.9145381443
 20
94.4449360656
 10
129.9103458741
 20
94.3989635034
 10
129.9030088755
 20
94.351064235
 10
129.8923080007
 20
94.3017769438
 10
129.8778956114
 20
94.2508937815
 10
129.8590234286
 20
94.1974376463
 10
129.8344258783
 20
94.1403267419
 10
129.8039356522
 20
94.08151112
 10
129.7689742067
 20
94.0245160116
 10
129.7301916191
 20
93.9702343965
 10
129.6874679562
 20
93.9184664587
 10
129.6422191676
 20
93.870699371
 10
129.5954780243
 20
93.8273940325
 10
129.5473932107
 20
93.7881284161
 10
129.4983236008
 20
93.7528215242
 10
129.4488424125
 20
93.7214407819
 10
129.3993111775
 20
93.6937761848
 10
129.3496599878
 20
93.6695116167
 10
129.3001596578
 20
93.6484779101
 10
129.2511892604
 20
93.6305329938
 10
129.2027448661
 20
93.6154761954
 10
129.1549819452
 20
93.6031048016
 10
129.1082070087
 20
93.5932556864
 10
129.0626015993
 20
93.5858017779
 10
129.018333608
 20
93.5805480458
 10
128.9755458799
 20
93.5772437886
 10
128.9343547498
 20
93.5756632648
  0
LWPOLYLINE
  5
7A9
100
AcDbEntity
  8
ASSI
100
AcDbPolyline
 62
253
  6
CONTINUOUS
 90
28
 70
0
 10
129.9158799526
 20
94.4888860997
 10
129.9145381443
 20
94.4449360656
 10
129.9103458741
 20
94.3989635034
 10
129.9030088755
 20
94.351064235
 10
129.8923080007
 20
94.3017769438
 10
129.8778956114
 20
94.2508937815
 10
129.8590234286
 20
94.1974376463
 10
129.8344258783
 20
94.1403267419
 10
129.8039356522
 20
94.08151112
 10
129.7689742067
 20
94.0245160116
 10
129.7301916191
 20
93.9702343965
 10
129.6874679562
 20
93.9184664587
 10
129.6422191676
 20
93.870699371
 10
129.5954780243
 20
93.8273940325
 10
129.5473932107
 20
93.7881284161
 10
129.4983236008
 20
93.7528215242
 10
129.4488424125
 20
93.7214407819
 10
129.3993111775
 20
93.6937761848
 10
129.3496599878
 20
93.6695116167
 10
129.3001596578
 20
93.6484779101
 10
129.2511892604
 20
93.6305329938
 10
129.2027448661
 20
93.6154761954
 10
129.1549819452
 20
93.6031048016
 10
129.1082070087
 20
93.5932556864
 10
129.0626015993
 20
93.5858017779
 10
129.018333608
 20
93.5805480458
 10
128.9755458799
 20
93.5772437886
 10
128.9343547498
 20
93.5756632648
  0
LINE
  5
7AA
100
AcDbEntity
  8
0
100
AcDbLine
 62
253
  6
CONTINUOUS
 10
92.9158799526
 20
136.8278033102
 11
90.6636983187
 21
136.8081615237
  0
LINE
  5
7AB
100
AcDbEntity
  8
0
100
AcDbLine
 62
7
  6
CONTINUOUS
 10
92.9158799526
 20
137.0778064959
 11
90.6636983187
 21
137.0581520045
  0
LINE
  5
7AC
100
AcDbEntity
  8
0
100
AcDbLine
 62
253
  6
CONTINUOUS
 10
90.6636983187
 20
136.4221440632
 11
90.4158799526
 21
136.4221440584
  0
LINE
  5
7AD
100
AcDbEntity
  8
0
100
AcDbLine
 62
253
  6
CONTINUOUS
 10
93.6680615865
 20
136.4221440632
 11
93.9158799526
 21
136.4221440632
  0
LINE
  5
7AE
100
AcDbEntity
  8
0
100
AcDbLine
 62
253
  6
CONTINUOUS
 10
90.6636983187
 20
136.8081615237
 11
90.4158799526
 21
136.8081615237
  0
LINE
  5
7AF
100
AcDbEntity
  8
0
100
AcDbLine
 62
253
  6
CONTINUOUS
 10
93.6680615865
 20
136.8212518254
 11
93.9158799526
 21
136.8212518254
  0
LINE
  5
7B0
100
AcDbEntity
  8
ASSI
100
AcDbLine
 62
7
  6
CONTINUOUS
 10
93.9099595389
 20
136.3691312947
 11
100.4202432204
 21
136.3123169098
  0
LINE
  5
7B1
100
AcDbEntity
  8
0
100
AcDbLine
 62
253
  6
CONTINUOUS
 10
93.6680615865
 20
136.8212518254
 11
92.9158799526
 21
136.8278032857
  0
LINE
  5
7B2
100
AcDbEntity
  8
0
100
AcDbLine
 62
7
  6
CONTINUOUS
 10
93.6680615865
 20
137.0712423062
 11
92.9151527278
 21
137.0778128422
  0
LWPOLYLINE
  5
7B3
100
AcDbEntity
  8
RACCORDO
100
AcDbPolyline
 62
253
  6
CONTINUOUS
 90
8
 70
0
 10
129.8694080983
 20
114.3530067158
 10
129.8923307514
 20
114.2490272819
 10
129.8986677009
 20
114.2179540819
 10
129.9040881889
 20
114.1888151165
 10
129.9085453577
 20
114.1615689763
 10
129.9118835869
 20
114.1363725845
 10
129.9141487947
 20
114.1132782488
 10
129.9154583414
 20
114.0922336616
  0
LWPOLYLINE
  5
7B4
100
AcDbEntity
  8
ASSI
100
AcDbPolyline
 62
253
  6
CONTINUOUS
 90
8
 70
0
 10
129.8694080983
 20
114.3530067158
 10
129.8923307514
 20
114.2490272819
 10
129.8986677009
 20
114.2179540819
 10
129.9040881889
 20
114.1888151165
 10
129.9085453577
 20
114.1615689763
 10
129.9118835869
 20
114.1363725845
 10
129.9141487947
 20
114.1132782488
 10
129.9154583414
 20
114.0922336616
  0
LWPOLYLINE
  5
7B5
100
AcDbEntity
  8
RACCORDO
100
AcDbPolyline
 62
253
  6
CONTINUOUS
 90
6
 70
0
 10
129.8347109826
 20
114.5481385144
 10
129.8399457741
 20
114.5072804162
 10
129.8462602197
 20
114.4681909495
 10
129.853361703
 20
114.4296929878
 10
129.8611837968
 20
114.3910540994
 10
129.8694080983
 20
114.3530067158
  0
LWPOLYLINE
  5
7B6
100
AcDbEntity
  8
ASSI
100
AcDbPolyline
 62
253
  6
CONTINUOUS
 90
6
 70
0
 10
129.8347109826
 20
114.5481385144
 10
129.8399457741
 20
114.5072804162
 10
129.8462602197
 20
114.4681909495
 10
129.853361703
 20
114.4296929878
 10
129.8611837968
 20
114.3910540994
 10
129.8694080983
 20
114.3530067158
  0
LINE
  5
7B7
100
AcDbEntity
  8
ASSI
100
AcDbLine
 62
7
  6
CONTINUOUS
 10
129.9057319726
 20
130.8040025796
 11
129.9038223342
 21
130.8215579456
  0
LWPOLYLINE
  5
7B8
100
AcDbEntity
  8
RACCORDO
100
AcDbPolyline
 62
253
  6
CONTINUOUS
 90
7
 70
0
 10
128.9333323591
 20
93.4890384012
 10
128.9336266523
 20
93.4901991453
 10
128.9338782656
 20
93.4936570072
 10
128.9340853418
 20
93.4993720519
 10
128.9342465384
 20
93.5072782644
 10
128.9343610429
 20
93.5172843121
 10
128.9344494269
 20
93.5431106079
  0
LWPOLYLINE
  5
7B9
100
AcDbEntity
  8
ASSI
100
AcDbPolyline
 62
253
  6
CONTINUOUS
 90
7
 70
0
 10
128.9333323591
 20
93.4890384012
 10
128.9336266523
 20
93.4901991453
 10
128.9338782656
 20
93.4936570072
 10
128.9340853418
 20
93.4993720519
 10
128.9342465384
 20
93.5072782644
 10
128.9343610429
 20
93.5172843121
 10
128.9344494269
 20
93.5431106079
  0
LINE
  5
7BA
100
AcDbEntity
  8
RACCORDO
100
AcDbLine
 62
253
  6
CONTINUOUS
 10
129.899888744
 20
130.8204241095
 11
129.8845664922
 21
130.8827012683
  0
LINE
  5
7BB
100
AcDbEntity
  8
ASSI
100
AcDbLine
 62
253
  6
CONTINUOUS
 10
129.899888744
 20
130.8204241095
 11
129.8845664922
 21
130.8827012683
  0
LWPOLYLINE
  5
7BC
100
AcDbEntity
  8
RACCORDO
100
AcDbPolyline
 62
253
  6
CONTINUOUS
 90
14
 70
0
 10
129.6481615746
 20
131.2789930415
 10
129.599086383
 20
131.3250798112
 10
129.5472636796
 20
131.3675700091
 10
129.4931431088
 20
131.4062786686
 10
129.4373824862
 20
131.4409105848
 10
129.3804778957
 20
131.4714265213
 10
129.3228184168
 20
131.4979022746
 10
129.2649057454
 20
131.5203364351
 10
129.2070997703
 20
131.5388960111
 10
129.1498045021
 20
131.5537419869
 10
129.0935707549
 20
131.564976416
 10
129.0387826464
 20
131.572853237
 10
128.9856341075
 20
131.5777326221
 10
128.9343545151
 20
131.5799543009
  0
LWPOLYLINE
  5
7BD
100
AcDbEntity
  8
ASSI
100
AcDbPolyline
 62
253
  6
CONTINUOUS
 90
14
 70
0
 10
129.6481615746
 20
131.2789930415
 10
129.599086383
 20
131.3250798112
 10
129.5472636796
 20
131.3675700091
 10
129.4931431088
 20
131.4062786686
 10
129.4373824862
 20
131.4409105848
 10
129.3804778957
 20
131.4714265213
 10
129.3228184168
 20
131.4979022746
 10
129.2649057454
 20
131.5203364351
 10
129.2070997703
 20
131.5388960111
 10
129.1498045021
 20
131.5537419869
 10
129.0935707549
 20
131.564976416
 10
129.0387826464
 20
131.572853237
 10
128.9856341075
 20
131.5777326221
 10
128.9343545151
 20
131.5799543009
  0
LINE
  5
7BE
100
AcDbEntity
  8
ASSI
100
AcDbLine
 62
253
  6
CONTINUOUS
 10
129.694132342
 20
131.2294921157
 11
129.6481615746
 21
131.2789930415
  0
LWPOLYLINE
  5
7BF
100
AcDbEntity
  8
ASSI
100
AcDbPolyline
 62
253
  6
CONTINUOUS
 90
5
 70
0
 10
129.8391118189
 20
131.0051469548
 10
129.8092866329
 20
131.0644425678
 10
129.7750068687
 20
131.1218811092
 10
129.7365313549
 20
131.1770047486
 10
129.694132342
 20
131.2294921157
  0
LWPOLYLINE
  5
7C0
100
AcDbEntity
  8
RACCORDO
100
AcDbPolyline
 62
253
  6
CONTINUOUS
 90
7
 70
0
 10
129.8642665168
 20
130.9444304261
 10
129.8391118189
 20
131.0051469548
 10
129.8092866329
 20
131.0644425678
 10
129.7750068687
 20
131.1218811092
 10
129.7365313549
 20
131.1770047486
 10
129.694132342
 20
131.2294921157
 10
129.6481615746
 20
131.2789930415
  0
LINE
  5
7C1
100
AcDbEntity
  8
ASSI
100
AcDbLine
 62
253
  6
CONTINUOUS
 10
129.8642665168
 20
130.9444304261
 11
129.8391118189
 21
131.0051469548
  0
LINE
  5
7C2
100
AcDbEntity
  8
RACCORDO
100
AcDbLine
 62
253
  6
CONTINUOUS
 10
129.8845664922
 20
130.8827012683
 11
129.8642665168
 21
130.9444304261
  0
LINE
  5
7C3
100
AcDbEntity
  8
ASSI
100
AcDbLine
 62
253
  6
CONTINUOUS
 10
129.8845664922
 20
130.8827012683
 11
129.8642665168
 21
130.9444304261
  0
ARC
  5
7C4
100
AcDbEntity
  8
0
100
AcDbCircle
 62
7
  6
CONTINUOUS
 10
184.5360608057
 20
112.5778064959
 40
8.4744428147
100
AcDbArc
 50
216.0085709729
 51
233.9914290271
  0
ARC
  5
7C5
100
AcDbEntity
  8
0
100
AcDbCircle
 62
7
  6
CONTINUOUS
 10
184.5360608057
 20
112.5778064959
 40
8.4744428147
100
AcDbArc
 50
246.0085709729
 51
263.9914290271
  0
ARC
  5
7C6
100
AcDbEntity
  8
0
100
AcDbCircle
 62
7
  6
CONTINUOUS
 10
184.5360608057
 20
112.5778064959
 40
8.4744428147
100
AcDbArc
 50
276.0085709729
 51
293.9914290271
  0
ARC
  5
7C7
100
AcDbEntity
  8
0
100
AcDbCircle
 62
7
  6
CONTINUOUS
 10
184.5360608057
 20
112.5778064959
 40
8.4744428147
100
AcDbArc
 50
306.0085709729
 51
323.9914290271
  0
ARC
  5
7C8
100
AcDbEntity
  8
0
100
AcDbCircle
 62
7
  6
CONTINUOUS
 10
184.5360608057
 20
112.5778064959
 40
8.4744428147
100
AcDbArc
 50
36.0085709729
 51
53.9914290271
  0
ARC
  5
7C9
100
AcDbEntity
  8
0
100
AcDbCircle
 62
7
  6
CONTINUOUS
 10
184.5360608057
 20
112.5778064959
 40
8.4744428147
100
AcDbArc
 50
66.0085709729
 51
83.9914290271
  0
ARC
  5
7CA
100
AcDbEntity
  8
0
100
AcDbCircle
 62
7
  6
CONTINUOUS
 10
184.5360608057
 20
112.5778064959
 40
8.4744428147
100
AcDbArc
 50
96.0085709729
 51
113.9914290271
  0
ARC
  5
7CB
100
AcDbEntity
  8
0
100
AcDbCircle
 62
7
  6
CONTINUOUS
 10
184.5360608057
 20
112.5778064959
 40
8.4744428147
100
AcDbArc
 50
126.0085709729
 51
143.9914290271
  0
ARC
  5
7CC
100
AcDbEntity
  8
0
100
AcDbCircle
 62
7
  6
CONTINUOUS
 10
184.5360608057
 20
112.5778064959
 40
8.2303700313
100
AcDbArc
 50
234.2682832406
 51
245.7317167594
  0
ARC
  5
7CD
100
AcDbEntity
  8
0
100
AcDbCircle
 62
7
  6
CONTINUOUS
 10
184.5360608057
 20
112.5778064959
 40
8.2303700313
100
AcDbArc
 50
264.2682832406
 51
275.7317167594
  0
ARC
  5
7CE
100
AcDbEntity
  8
0
100
AcDbCircle
 62
7
  6
CONTINUOUS
 10
184.5360608057
 20
112.5778064959
 40
8.2303700313
100
AcDbArc
 50
294.2682832406
 51
305.7317167594
  0
ARC
  5
7CF
100
AcDbEntity
  8
0
100
AcDbCircle
 62
7
  6
CONTINUOUS
 10
184.5360608057
 20
112.5778064959
 40
8.2303700313
100
AcDbArc
 50
324.2682832406
 51
35.7317167594
  0
ARC
  5
7D0
100
AcDbEntity
  8
0
100
AcDbCircle
 62
7
  6
CONTINUOUS
 10
184.5360608057
 20
112.5778064959
 40
8.2303700313
100
AcDbArc
 50
54.2682832406
 51
65.7317167594
  0
ARC
  5
7D1
100
AcDbEntity
  8
0
100
AcDbCircle
 62
7
  6
CONTINUOUS
 10
184.5360608057
 20
112.5778064959
 40
8.2303700313
100
AcDbArc
 50
84.2682832406
 51
95.7317167594
  0
ARC
  5
7D2
100
AcDbEntity
  8
0
100
AcDbCircle
 62
7
  6
CONTINUOUS
 10
184.5360608057
 20
112.5778064959
 40
8.2303700313
100
AcDbArc
 50
114.2682832406
 51
125.7317167594
  0
ARC
  5
7D3
100
AcDbEntity
  8
0
100
AcDbCircle
 62
7
  6
CONTINUOUS
 10
184.5360608057
 20
112.5778064959
 40
8.2303700313
100
AcDbArc
 50
144.2682832406
 51
215.7317167594
  0
ARC
  5
7D4
100
AcDbEntity
  8
0
100
AcDbCircle
 62
7
  6
CONTINUOUS
 10
184.5360608057
 20
112.5778064959
 40
8.05
100
AcDbArc
 50
234.4778438964
 51
245.5221561036
  0
ARC
  5
7D5
100
AcDbEntity
  8
0
100
AcDbCircle
 62
7
  6
CONTINUOUS
 10
184.5360608057
 20
112.5778064959
 40
8.05
100
AcDbArc
 50
264.4778438964
 51
275.5221561036
  0
ARC
  5
7D6
100
AcDbEntity
  8
0
100
AcDbCircle
 62
7
  6
CONTINUOUS
 10
184.5360608057
 20
112.5778064959
 40
8.05
100
AcDbArc
 50
294.4778438964
 51
305.5221561036
  0
ARC
  5
7D7
100
AcDbEntity
  8
0
100
AcDbCircle
 62
7
  6
CONTINUOUS
 10
184.5360608057
 20
112.5778064959
 40
8.05
100
AcDbArc
 50
324.4778438964
 51
35.5221561036
  0
ARC
  5
7D8
100
AcDbEntity
  8
0
100
AcDbCircle
 62
7
  6
CONTINUOUS
 10
184.5360608057
 20
112.5778064959
 40
8.05
100
AcDbArc
 50
54.4778438964
 51
65.5221561036
  0
ARC
  5
7D9
100
AcDbEntity
  8
0
100
AcDbCircle
 62
7
  6
CONTINUOUS
 10
184.5360608057
 20
112.5778064959
 40
8.05
100
AcDbArc
 50
84.4778438964
 51
95.5221561036
  0
ARC
  5
7DA
100
AcDbEntity
  8
0
100
AcDbCircle
 62
7
  6
CONTINUOUS
 10
184.5360608057
 20
112.5778064959
 40
8.05
100
AcDbArc
 50
114.4778438964
 51
125.5221561036
  0
ARC
  5
7DB
100
AcDbEntity
  8
0
100
AcDbCircle
 62
7
  6
CONTINUOUS
 10
184.5360608057
 20
112.5778064959
 40
8.05
100
AcDbArc
 50
144.4778438964
 51
215.5221561036
  0
ARC
  5
7DC
100
AcDbEntity
  8
0
100
AcDbCircle
 62
7
  6
CONTINUOUS
 10
184.5360608057
 20
112.5778064959
 40
8.0035497447
100
AcDbArc
 50
35.803657825
 51
54.196342175
  0
ARC
  5
7DD
100
AcDbEntity
  8
0
100
AcDbCircle
 62
7
  6
CONTINUOUS
 10
184.5360608057
 20
112.5778064959
 40
8.0035497447
100
AcDbArc
 50
65.803657825
 51
84.196342175
  0
ARC
  5
7DE
100
AcDbEntity
  8
0
100
AcDbCircle
 62
7
  6
CONTINUOUS
 10
184.5360608057
 20
112.5778064959
 40
8.0035497447
100
AcDbArc
 50
95.803657825
 51
114.196342175
  0
ARC
  5
7DF
100
AcDbEntity
  8
0
100
AcDbCircle
 62
7
  6
CONTINUOUS
 10
184.5360608057
 20
112.5778064959
 40
8.0035497447
100
AcDbArc
 50
125.803657825
 51
144.196342175
  0
ARC
  5
7E0
100
AcDbEntity
  8
0
100
AcDbCircle
 62
7
  6
CONTINUOUS
 10
184.5360608057
 20
112.5778064959
 40
8.0035497447
100
AcDbArc
 50
215.803657825
 51
234.196342175
  0
ARC
  5
7E1
100
AcDbEntity
  8
0
100
AcDbCircle
 62
7
  6
CONTINUOUS
 10
184.5360608057
 20
112.5778064959
 40
8.0035497447
100
AcDbArc
 50
245.803657825
 51
264.196342175
  0
ARC
  5
7E2
100
AcDbEntity
  8
0
100
AcDbCircle
 62
7
  6
CONTINUOUS
 10
184.5360608057
 20
112.5778064959
 40
8.0035497447
100
AcDbArc
 50
275.803657825
 51
294.196342175
  0
ARC
  5
7E3
100
AcDbEntity
  8
0
100
AcDbCircle
 62
7
  6
CONTINUOUS
 10
184.5360608057
 20
112.5778064959
 40
8.0035497447
100
AcDbArc
 50
305.803657825
 51
324.196342175
  0
CIRCLE
  5
7E4
100
AcDbEntity
  8
0
100
AcDbCircle
 62
253
  6
CONTINUOUS
 10
184.5360608057
 20
112.5778064959
 40
7.9897984125
  0
CIRCLE
  5
7E5
100
AcDbEntity
  8
0
100
AcDbCircle
 62
253
  6
CONTINUOUS
 10
184.5360608057
 20
112.5778064959
 40
7.3366533229
  0
ARC
  5
7E6
100
AcDbEntity
  8
0
100
AcDbCircle
 62
7
  6
CONTINUOUS
 10
90.6658799526
 20
88.347451468
 40
0.25
100
AcDbArc
 50
180.0
 51
269.5
  0
ARC
  5
7E7
100
AcDbEntity
  8
0
100
AcDbCircle
 62
7
  6
CONTINUOUS
 10
90.6658799526
 20
88.7334689286
 40
0.25
100
AcDbArc
 50
120.0
 51
180.0
  0
ARC
  5
7E8
100
AcDbEntity
  8
0
100
AcDbCircle
 62
7
  6
CONTINUOUS
 10
93.6658799526
 20
88.3343611663
 40
0.25
100
AcDbArc
 50
270.5
 51
360.0
  0
ARC
  5
7E9
100
AcDbEntity
  8
0
100
AcDbCircle
 62
7
  6
CONTINUOUS
 10
93.6658799526
 20
88.7334689286
 40
0.25
100
AcDbArc
 50
0.0
 51
60.0
  0
ARC
  5
7EA
100
AcDbEntity
  8
0
100
AcDbCircle
 62
7
  6
CONTINUOUS
 10
85.3376049981
 20
92.077025576
 40
1.5
100
AcDbArc
 50
182.3569499908
 51
267.0
  0
ARC
  5
7EB
100
AcDbEntity
  8
ASSI
100
AcDbCircle
 62
7
  6
CONTINUOUS
 10
100.4158799526
 20
89.3432770435
 40
0.5
100
AcDbArc
 50
270.5
 51
360.0
  0
ARC
  5
7EC
100
AcDbEntity
  8
0
100
AcDbCircle
 62
7
  6
CONTINUOUS
 10
102.9158799526
 20
91.2563863844
 40
1.0
100
AcDbArc
 50
270.5
 51
360.0
  0
ARC
  5
7ED
100
AcDbEntity
  8
0
100
AcDbCircle
 62
7
  6
CONTINUOUS
 10
83.1808952412
 20
105.3878862395
 40
0.8
100
AcDbArc
 50
190.568815154
 51
269.0
  0
ARC
  5
7EE
100
AcDbEntity
  8
RACCORDO
100
AcDbCircle
 62
7
  6
CONTINUOUS
 10
128.9158799526
 20
94.4888860964
 40
1.0
100
AcDbArc
 50
271.0
 51
360.0
  0
ARC
  5
7EF
100
AcDbEntity
  8
ASSI
100
AcDbCircle
 62
7
  6
CONTINUOUS
 10
128.9158799526
 20
94.4888860964
 40
1.0
100
AcDbArc
 50
271.0
 51
360.0
  0
ARC
  5
7F0
100
AcDbEntity
  8
0
100
AcDbCircle
 62
7
  6
CONTINUOUS
 10
83.1808952412
 20
119.7677267523
 40
0.8
100
AcDbArc
 50
91.0
 51
169.431184846
  0
ARC
  5
7F1
100
AcDbEntity
  8
0
100
AcDbCircle
 62
7
  6
CONTINUOUS
 10
85.3376049981
 20
133.0785874157
 40
1.5
100
AcDbArc
 50
93.0
 51
177.6430500092
  0
ARC
  5
7F2
100
AcDbEntity
  8
0
100
AcDbCircle
 62
7
  6
CONTINUOUS
 10
90.6658799526
 20
136.4221440632
 40
0.25
100
AcDbArc
 50
180.0
 51
240.0
  0
ARC
  5
7F3
100
AcDbEntity
  8
0
100
AcDbCircle
 62
7
  6
CONTINUOUS
 10
90.6658799526
 20
136.8081615237
 40
0.25
100
AcDbArc
 50
90.5
 51
180.0
  0
ARC
  5
7F4
100
AcDbEntity
  8
0
100
AcDbCircle
 62
7
  6
CONTINUOUS
 10
93.6658799526
 20
136.4221440632
 40
0.25
100
AcDbArc
 50
300.0
 51
360.0
  0
ARC
  5
7F5
100
AcDbEntity
  8
0
100
AcDbCircle
 62
7
  6
CONTINUOUS
 10
93.6658799526
 20
136.8212518254
 40
0.25
100
AcDbArc
 50
0.0
 51
89.5
  0
ARC
  5
7F6
100
AcDbEntity
  8
0
100
AcDbCircle
 62
7
  6
CONTINUOUS
 10
102.9158799526
 20
133.8992266074
 40
1.0
100
AcDbArc
 50
0.0
 51
89.5
  0
ARC
  5
7F7
100
AcDbEntity
  8
ASSI
100
AcDbCircle
 62
7
  6
CONTINUOUS
 10
100.4158799526
 20
135.8123359482
 40
0.5
100
AcDbArc
 50
0.0
 51
89.5
  0
ARC
  5
7F8
100
AcDbEntity
  8
0
100
AcDbCircle
 62
7
  6
CONTINUOUS
 10
121.7158799526
 20
112.5778064959
 40
40.0
100
AcDbArc
 50
169.431184846
 51
190.568815154
  0
ARC
  5
7F9
100
AcDbEntity
  8
RACCORDO
100
AcDbCircle
 62
7
  6
CONTINUOUS
 10
128.9158799526
 20
130.6667268953
 40
1.0
100
AcDbArc
 50
0.0
 51
89.0
  0
ARC
  5
7FA
100
AcDbEntity
  8
ASSI
100
AcDbCircle
 62
7
  6
CONTINUOUS
 10
128.9158799526
 20
130.6667268953
 40
1.0
100
AcDbArc
 50
0.0
 51
89.0
  0
ARC
  5
7FB
100
AcDbEntity
  8
0
100
AcDbCircle
 62
7
  6
CONTINUOUS
 10
583.4158799526
 20
112.5778064959
 40
500.0
100
AcDbArc
 50
177.6430500092
 51
182.3569499908
  0
ELLIPSE
  5
7FC
100
AcDbEntity
  8
0
100
AcDbEllipse
 62
7
  6
CONTINUOUS
 10
206.4359846417
 20
134.5295281021
 30
0.0
 11
0.1582391023
 21
0.4751033573
 31
0.0
 40
0.9984778551
 41
-1.2488325878
 42
-0.1405787168
  0
ELLIPSE
  5
7FD
100
AcDbEntity
  8
0
100
AcDbEllipse
 62
7
  6
CONTINUOUS
 10
206.4359846417
 20
90.6260848896
 30
0.0
 11
-0.1582391023
 21
0.4751033573
 31
0.0
 40
0.9984778551
 41
-3.0010139368
 42
-1.8927600658
  0
ELLIPSE
  5
7FE
100
AcDbEntity
  8
0
100
AcDbEllipse
 62
7
  6
CONTINUOUS
 10
162.6361369697
 20
134.5295281021
 30
0.0
 11
-0.1582391023
 21
0.4751033573
 31
0.0
 40
0.9984778551
 41
0.1405787168
 42
1.2488325878
  0
ELLIPSE
  5
7FF
100
AcDbEntity
  8
0
100
AcDbEllipse
 62
7
  6
CONTINUOUS
 10
162.6361369697
 20
90.6260848896
 30
0.0
 11
0.1582391023
 21
0.4751033573
 31
0.0
 40
0.9984778551
 41
-4.3904252414
 42
-3.2821713703
  0
ELLIPSE
  5
800
100
AcDbEntity
  8
0
100
AcDbEllipse
 62
7
  6
CONTINUOUS
 10
206.563976359
 20
90.2417974807
 30
0.0
 11
0.5199757819
 21
0.0199341133
 31
0.0
 40
0.1319983532
 41
-1.8218660438
 42
-1.3918236325
  0
ELLIPSE
  5
801
100
AcDbEntity
  8
0
100
AcDbEllipse
 62
7
  6
CONTINUOUS
 10
162.5081452524
 20
90.2417974807
 30
0.0
 11
0.5199757819
 21
-0.0199341133
 31
0.0
 40
0.1319983532
 41
-1.7497690211
 42
-1.3197266098
  0
ELLIPSE
  5
802
100
AcDbEntity
  8
0
100
AcDbEllipse
 62
7
  6
CONTINUOUS
 10
206.563976359
 20
134.913815511
 30
0.0
 11
0.5199757819
 21
-0.0199341133
 31
0.0
 40
0.1319983532
 41
1.3918236325
 42
1.8218660438
  0
ELLIPSE
  5
803
100
AcDbEntity
  8
0
100
AcDbEllipse
 62
7
  6
CONTINUOUS
 10
162.5081452524
 20
134.913815511
 30
0.0
 11
0.5199757819
 21
0.0199341133
 31
0.0
 40
0.1319983532
 41
1.3197266098
 42
1.7497690211
  0
ELLIPSE
  5
804
100
AcDbEntity
  8
0
100
AcDbEllipse
 62
7
  6
CONTINUOUS
 10
204.2969789101
 20
134.9122967718
 30
0.0
 11
0.25
 21
-0.0
 31
0.0
 40
0.0524077793
 41
-3.1328660073
 42
-1.5707963268
  0
ELLIPSE
  5
805
100
AcDbEntity
  8
0
100
AcDbEllipse
 62
7
  6
CONTINUOUS
 10
181.7969789101
 20
134.9122967718
 30
0.0
 11
0.25
 21
0.0
 31
0.0
 40
0.0524077793
 41
-3.1328660073
 42
-1.5707963268
  0
ELLIPSE
  5
806
100
AcDbEntity
  8
0
100
AcDbEllipse
 62
7
  6
CONTINUOUS
 10
199.6816783326
 20
90.2040103855
 30
0.0
 11
0.5
 21
-0.0
 31
0.0
 40
0.0524077793
 41
0.0087266463
 42
1.5707963268
  0
ELLIPSE
  5
807
100
AcDbEntity
  8
0
100
AcDbEllipse
 62
7
  6
CONTINUOUS
 10
164.7751427014
 20
134.9122967718
 30
0.0
 11
0.25
 21
-0.0
 31
0.0
 40
0.0524077793
 41
-1.5707963268
 42
-0.0087266463
  0
ELLIPSE
  5
808
100
AcDbEntity
  8
0
100
AcDbEllipse
 62
7
  6
CONTINUOUS
 10
177.1816783326
 20
88.7821699297
 30
0.0
 11
0.5
 21
0.0
 31
0.0
 40
0.0087268678
 41
0.0087266463
 42
1.5707963268
  0
ELLIPSE
  5
809
100
AcDbEntity
  8
0
100
AcDbEllipse
 62
7
  6
CONTINUOUS
 10
169.3904432788
 20
88.7821699297
 30
0.0
 11
0.5
 21
0.0
 31
0.0
 40
0.0087268678
 41
1.5707963268
 42
3.1328660073
  0
ELLIPSE
  5
80A
100
AcDbEntity
  8
0
100
AcDbEllipse
 62
7
  6
CONTINUOUS
 10
191.8904432788
 20
90.2040103855
 30
0.0
 11
0.5
 21
-0.0
 31
0.0
 40
0.0524077793
 41
1.5707963268
 42
3.1328660073
  0
ELLIPSE
  5
80B
100
AcDbEntity
  8
0
100
AcDbEllipse
 62
7
  6
CONTINUOUS
 10
162.8969789101
 20
134.9122967718
 30
0.0
 11
0.25
 21
0.0
 31
0.0
 40
0.0524077793
 41
-2.6462421172
 42
-1.5707963268
  0
ELLIPSE
  5
80C
100
AcDbEntity
  8
0
100
AcDbEllipse
 62
7
  6
CONTINUOUS
 10
162.6185322469
 20
90.5732277713
 30
0.0
 11
0.4935351889
 21
3.0436472475
 31
0.0
 40
0.0263314775
 41
-1.6992781518
 42
-1.6748350632
  0
ELLIPSE
  5
80D
100
AcDbEntity
  8
0
100
AcDbEllipse
 62
7
  6
CONTINUOUS
 10
177.1816783326
 20
90.2040103855
 30
0.0
 11
0.5
 21
-0.0
 31
0.0
 40
0.0524077793
 41
0.0087266463
 42
1.5707963268
  0
ELLIPSE
  5
80E
100
AcDbEntity
  8
0
100
AcDbEllipse
 62
7
  6
CONTINUOUS
 10
169.3904432788
 20
136.373443062
 30
0.0
 11
0.5
 21
0.0
 31
0.0
 40
0.0087268678
 41
-3.1328660073
 42
-1.5707963268
  0
ELLIPSE
  5
80F
100
AcDbEntity
  8
0
100
AcDbEllipse
 62
7
  6
CONTINUOUS
 10
177.1816783326
 20
136.373443062
 30
0.0
 11
0.5
 21
0.0
 31
0.0
 40
0.0087268678
 41
-1.5707963268
 42
-0.0087266463
  0
ELLIPSE
  5
810
100
AcDbEntity
  8
0
100
AcDbEllipse
 62
7
  6
CONTINUOUS
 10
162.6185322469
 20
134.5823852204
 30
0.0
 11
-0.4935351889
 21
3.0436472475
 31
0.0
 40
0.0263314775
 41
-1.4667575904
 42
-1.4423145018
  0
ELLIPSE
  5
811
100
AcDbEntity
  8
0
100
AcDbEllipse
 62
7
  6
CONTINUOUS
 10
206.1751427014
 20
90.24331622
 30
0.0
 11
0.25
 21
-0.0
 31
0.0
 40
0.0524077793
 41
0.4953505364
 42
1.5707963268
  0
ELLIPSE
  5
812
100
AcDbEntity
  8
0
100
AcDbEllipse
 62
7
  6
CONTINUOUS
 10
169.3904432788
 20
90.2040103855
 30
0.0
 11
0.5
 21
-0.0
 31
0.0
 40
0.0524077793
 41
1.5707963268
 42
3.1328660073
  0
ELLIPSE
  5
813
100
AcDbEntity
  8
0
100
AcDbEllipse
 62
7
  6
CONTINUOUS
 10
169.3904432788
 20
134.9516026062
 30
0.0
 11
0.5
 21
0.0
 31
0.0
 40
0.0524077793
 41
-3.1328660073
 42
-1.5707963268
  0
ELLIPSE
  5
814
100
AcDbEntity
  8
0
100
AcDbEllipse
 62
7
  6
CONTINUOUS
 10
204.2969789101
 20
90.24331622
 30
0.0
 11
0.25
 21
0.0
 31
0.0
 40
0.0524077793
 41
1.5707963268
 42
3.1328660073
  0
ELLIPSE
  5
815
100
AcDbEntity
  8
0
100
AcDbEllipse
 62
7
  6
CONTINUOUS
 10
206.4535893646
 20
90.5732277713
 30
0.0
 11
-0.4935351889
 21
3.0436472475
 31
0.0
 40
0.0263314775
 41
-4.6083502439
 42
-4.5839071553
  0
ELLIPSE
  5
816
100
AcDbEntity
  8
0
100
AcDbEllipse
 62
7
  6
CONTINUOUS
 10
187.2751427014
 20
90.24331622
 30
0.0
 11
0.25
 21
-0.0
 31
0.0
 40
0.0524077793
 41
0.0087266463
 42
1.5707963268
  0
ELLIPSE
  5
817
100
AcDbEntity
  8
0
100
AcDbEllipse
 62
7
  6
CONTINUOUS
 10
183.6751427014
 20
90.24331622
 30
0.0
 11
0.25
 21
-0.0
 31
0.0
 40
0.0524077793
 41
0.0087266463
 42
1.5707963268
  0
ELLIPSE
  5
818
100
AcDbEntity
  8
0
100
AcDbEllipse
 62
7
  6
CONTINUOUS
 10
177.1816783326
 20
134.9516026062
 30
0.0
 11
0.5
 21
-0.0
 31
0.0
 40
0.0524077793
 41
-1.5707963268
 42
-0.0087266463
  0
ELLIPSE
  5
819
100
AcDbEntity
  8
0
100
AcDbEllipse
 62
7
  6
CONTINUOUS
 10
164.7751427014
 20
90.24331622
 30
0.0
 11
0.25
 21
0.0
 31
0.0
 40
0.0524077793
 41
0.0087266463
 42
1.5707963268
  0
ELLIPSE
  5
81A
100
AcDbEntity
  8
0
100
AcDbEllipse
 62
7
  6
CONTINUOUS
 10
162.8969789101
 20
90.24331622
 30
0.0
 11
0.25
 21
0.0
 31
0.0
 40
0.0524077793
 41
1.5707963268
 42
2.6462421172
  0
ELLIPSE
  5
81B
100
AcDbEntity
  8
0
100
AcDbEllipse
 62
7
  6
CONTINUOUS
 10
181.7969789101
 20
90.24331622
 30
0.0
 11
0.25
 21
0.0
 31
0.0
 40
0.0524077793
 41
1.5707963268
 42
3.1328660073
  0
ELLIPSE
  5
81C
100
AcDbEntity
  8
0
100
AcDbEllipse
 62
7
  6
CONTINUOUS
 10
206.4535893646
 20
134.5823852204
 30
0.0
 11
0.4935351889
 21
3.0436472475
 31
0.0
 40
0.0263314775
 41
1.4423145018
 42
1.4667575904
  0
ELLIPSE
  5
81D
100
AcDbEntity
  8
0
100
AcDbEllipse
 62
7
  6
CONTINUOUS
 10
191.8904432788
 20
134.9516026062
 30
0.0
 11
0.5
 21
0.0
 31
0.0
 40
0.0524077793
 41
-3.1328660073
 42
-1.5707963268
  0
ELLIPSE
  5
81E
100
AcDbEntity
  8
0
100
AcDbEllipse
 62
7
  6
CONTINUOUS
 10
199.6816783326
 20
134.9516026062
 30
0.0
 11
0.5
 21
-0.0
 31
0.0
 40
0.0524077793
 41
-1.5707963268
 42
-0.0087266463
  0
ELLIPSE
  5
81F
100
AcDbEntity
  8
0
100
AcDbEllipse
 62
7
  6
CONTINUOUS
 10
187.2751427014
 20
134.9122967718
 30
0.0
 11
0.25
 21
0.0
 31
0.0
 40
0.0524077793
 41
-1.5707963268
 42
-0.0087266463
  0
ELLIPSE
  5
820
100
AcDbEntity
  8
0
100
AcDbEllipse
 62
7
  6
CONTINUOUS
 10
185.3969789101
 20
90.24331622
 30
0.0
 11
0.25
 21
0.0
 31
0.0
 40
0.0524077793
 41
1.5707963268
 42
3.1328660073
  0
ELLIPSE
  5
821
100
AcDbEntity
  8
0
100
AcDbEllipse
 62
7
  6
CONTINUOUS
 10
185.3969789101
 20
134.9122967718
 30
0.0
 11
0.25
 21
0.0
 31
0.0
 40
0.0524077793
 41
-3.1328660073
 42
-1.5707963268
  0
ELLIPSE
  5
822
100
AcDbEntity
  8
0
100
AcDbEllipse
 62
7
  6
CONTINUOUS
 10
191.8904432788
 20
136.373443062
 30
0.0
 11
0.5
 21
0.0
 31
0.0
 40
0.0087268678
 41
-3.1328660073
 42
-1.5707963268
  0
ELLIPSE
  5
823
100
AcDbEntity
  8
0
100
AcDbEllipse
 62
7
  6
CONTINUOUS
 10
199.6816783326
 20
136.373443062
 30
0.0
 11
0.5
 21
0.0
 31
0.0
 40
0.0087268678
 41
-1.5707963268
 42
-0.0087266463
  0
ELLIPSE
  5
824
100
AcDbEntity
  8
0
100
AcDbEllipse
 62
7
  6
CONTINUOUS
 10
199.6816783326
 20
88.7821699297
 30
0.0
 11
0.5
 21
0.0
 31
0.0
 40
0.0087268678
 41
0.0087266463
 42
1.5707963268
  0
ELLIPSE
  5
825
100
AcDbEntity
  8
0
100
AcDbEllipse
 62
7
  6
CONTINUOUS
 10
191.8904432788
 20
88.7821699297
 30
0.0
 11
0.5
 21
0.0
 31
0.0
 40
0.0087268678
 41
1.5707963268
 42
3.1328660073
  0
ELLIPSE
  5
826
100
AcDbEntity
  8
0
100
AcDbEllipse
 62
7
  6
CONTINUOUS
 10
206.1751427014
 20
134.9122967718
 30
0.0
 11
0.25
 21
0.0
 31
0.0
 40
0.0524077793
 41
-1.5707963268
 42
-0.4953505364
  0
ELLIPSE
  5
827
100
AcDbEntity
  8
0
100
AcDbEllipse
 62
7
  6
CONTINUOUS
 10
183.6751427014
 20
134.9122967718
 30
0.0
 11
0.25
 21
0.0
 31
0.0
 40
0.0524077793
 41
-1.5707963268
 42
-0.0087266463
  0
ELLIPSE
  5
828
100
AcDbEntity
  8
0
100
AcDbEllipse
 62
7
  6
CONTINUOUS
 10
94.924453851
 20
90.5732277713
 30
0.0
 11
57.2943190897
 21
-3.0024393685
 31
0.0
 40
0.0087149097
 41
-1.6272827656
 42
-1.602839677
  0
ELLIPSE
  5
829
100
AcDbEntity
  8
0
100
AcDbEllipse
 62
7
  6
CONTINUOUS
 10
94.924453851
 20
134.5823852204
 30
0.0
 11
57.2943190897
 21
3.0024393685
 31
0.0
 40
0.0087149097
 41
1.602839677
 42
1.6272827656
  0
ELLIPSE
  5
82A
100
AcDbEntity
  8
0
100
AcDbEllipse
 62
7
  6
CONTINUOUS
 10
103.4158799526
 20
134.6437057767
 30
0.0
 11
0.5
 21
-0.0
 31
0.0
 40
1.0
 41
-1.5533430343
 42
-0.6519464277
  0
ELLIPSE
  5
82B
100
AcDbEntity
  8
0
100
AcDbEllipse
 62
7
  6
CONTINUOUS
 10
103.4158799526
 20
90.511907215
 30
0.0
 11
0.5
 21
-0.0
 31
0.0
 40
1.0
 41
0.6519464277
 42
1.5533430343
  0
ELLIPSE
  5
82C
100
AcDbEntity
  8
CURVE
100
AcDbEllipse
 62
253
  6
CONTINUOUS
 10
102.1658799526
 20
99.7380494959
 30
0.0
 11
0.0
 21
0.65
 31
0.0
 40
1.0
 41
-1.5707963268
 42
1.5707963268
  0
ELLIPSE
  5
82D
100
AcDbEntity
  8
CURVE
100
AcDbEllipse
 62
253
  6
CONTINUOUS
 10
109.8678399526
 20
128.4778064959
 30
0.0
 11
0.0
 21
1.7999968808
 31
0.0
 40
1.0
 41
-2.9317216922
 42
-1.5152120571
  0
ELLIPSE
  5
82E
100
AcDbEntity
  8
CURVE
100
AcDbEllipse
 62
253
  6
CONTINUOUS
 10
109.8678399526
 20
128.4778064959
 30
0.0
 11
1.7999999246
 21
-0.0
 31
0.0
 40
1.0
 41
3.086008478
 42
4.5025183792
  0
ELLIPSE
  5
82F
100
AcDbEntity
  8
CURVE
100
AcDbEllipse
 62
253
  6
CONTINUOUS
 10
97.4051229526
 20
107.8970114959
 30
0.0
 11
0.352865
 21
-0.0
 31
0.0
 40
1.0
 41
0.0
 42
3.1415926536
  0
ELLIPSE
  5
830
100
AcDbEntity
  8
CURVE
100
AcDbEllipse
 62
253
  6
CONTINUOUS
 10
97.4051229526
 20
107.9775174959
 30
0.0
 11
0.8893898871
 21
-0.0
 31
0.0
 40
1.0
 41
0.3986832664
 42
3.1415926536
  0
ELLIPSE
  5
831
100
AcDbEntity
  8
CURVE
100
AcDbEllipse
 62
253
  6
CONTINUOUS
 10
109.8678399526
 20
128.4778064959
 30
0.0
 11
0.0
 21
2.5499986575
 31
0.0
 40
1.0
 41
1.5315705615
 42
4.7516147457
  0
ELLIPSE
  5
832
100
AcDbEntity
  8
CURVE
100
AcDbEllipse
 62
253
  6
CONTINUOUS
 10
109.8678399526
 20
124.0926964959
 30
0.0
 11
1.7999999246
 21
-0.0
 31
0.0
 40
1.0
 41
3.086008478
 42
6.3387694828
  0
ELLIPSE
  5
833
100
AcDbEntity
  8
CURVE
100
AcDbEllipse
 62
253
  6
CONTINUOUS
 10
109.8678399526
 20
124.0926964959
 30
0.0
 11
0.0
 21
2.5499985399
 31
0.0
 40
1.0
 41
1.5315705596
 42
4.7516147475
  0
ENDSEC
  0
SECTION
  2
OBJECTS
  0
DICTIONARY
  5
C
100
AcDbDictionary
280
0
281
1
  3
ACAD_GROUP
350
D
  3
ACAD_MLINESTYLE
350
17
  3
ACAD_LAYOUT
350
1A
  3
ACAD_PLOTSETTINGS
350
19
  3
ACAD_PLOTSTYLENAME
350
E
  0
DICTIONARY
  5
D
102
{ACAD_REACTORS
330
C
102
}
100
AcDbDictionary
280
0
281
1
  0
ACDBDICTIONARYWDFLT
  5
E
102
{ACAD_REACTORS
330
C
102
}
100
AcDbDictionary
281
1
  3
Normal
350
F
100
AcDbDictionaryWithDefault
340
F
  0
DICTIONARY
  5
17
102
{ACAD_REACTORS
330
C
102
}
100
AcDbDictionary
280
0
281
1
  3
Standard
350
18
  0
DICTIONARY
  5
19
102
{ACAD_REACTORS
330
C
102
}
100
AcDbDictionary
281
1
  0
DICTIONARY
  5
1A
102
{ACAD_REACTORS
330
C
102
}
100
AcDbDictionary
281
1
  3
Model
350
834
  3
Layout1
350
835
  0
ACDBPLACEHOLDER
  5
F
102
{ACAD_REACTORS
330
E
102
}
  0
MLINESTYLE
  5
18
102
{ACAD_REACTORS
330
17
102
}
100
AcDbMlineStyle
  2
STANDARD
 70
0
  3

 62
256
 51
90.0
 52
90.0
 71
2
 49
0.5
 62
256
  6
BYLAYER
 49
-0.5
 62
256
  6
BYLAYER
  0
LAYOUT
  5
834
102
{ACAD_REACTORS
330
1A
102
}
100
AcDbPlotSettings
  1

  2
none_device
  4
ISO_A4_(297.00_x_210.00_MM)
  6

 40
0.0
 41
0.0
 42
0.0
 43
0.0
 44
297.0
 45
210.0
 46
0.0
 47
0.0
 48
0.0
 49
0.0
140
0.0
141
0.0
142
1.0
143
1.0
 70
1024
 72
1
 73
0
 74
0
  7

 75
0
147
1.0
148
0.0
149
0.0
100
AcDbLayout
  1
Model
 70
0
 71
0
 10
0.0
 20
0.0
 11
297.0
 21
210.0
 12
0.0
 22
0.0
 32
0.0
 14
0.0
 24
0.0
 34
0.0
 15
0.0
 25
0.0
 35
0.0
146
0.0
 13
0.0
 23
0.0
 33
0.0
 16
1.0
 26
0.0
 36
0.0
 17
0.0
 27
1.0
 37
0.0
 76
0
330
3AD
345
0
346
0
  0
LAYOUT
  5
835
102
{ACAD_REACTORS
330
1A
102
}
100
AcDbPlotSettings
  1

  2
none_device
  4
ISO_A4_(297.00_x_210.00_MM)
  6

 40
0.0
 41
0.0
 42
0.0
 43
0.0
 44
297.0
 45
210.0
 46
0.0
 47
0.0
 48
0.0
 49
0.0
140
0.0
141
0.0
142
1.0
143
1.0
 70
0
 72
1
 73
0
 74
0
  7

 75
0
147
1.0
148
0.0
149
0.0
100
AcDbLayout
  1
Layout1
 70
0
 71
1
 10
0.0
 20
0.0
 11
297.0
 21
210.0
 12
0.0
 22
0.0
 32
0.0
 14
0.0
 24
0.0
 34
0.0
 15
0.0
 25
0.0
 35
0.0
146
0.0
 13
0.0
 23
0.0
 33
0.0
 16
1.0
 26
0.0
 36
0.0
 17
0.0
 27
1.0
 37
0.0
 76
0
330
3AE
345
0
346
0
  0
ENDSEC
  0
EOF
