  0
SECTION
  2
HEADER
  9
$ACADVER
  1
AC1021
  9
$DWGCODEPAGE
  3
ANSI_1252
  9
$EXTMAX
 10
297.0
 20
210.0
 30
0.0
  9
$EXTMIN
 10
0.0
 20
0.0
 30
0.0
  9
$LIMMIN
 10
0.0
 20
0.0
  9
$LIMMAX
 10
297.0
 20
210.0
  9
$VIEWCTR
 10
148.5
 20
105.0
  9
$VIEWSIZE
 40
210.0
  9
$CLAYER
  8
0
  9
$LTSCALE
 40
16.335
  9
$CELTYPE
  6
BYLAYER
  9
$DIMSCALE
 40
1.0
  9
$DIMASZ
 40
3.0
  9
$DIMEXO
 40
0.5
  9
$DIMDLI
 40
11.286
  9
$DIMEXE
 40
1.5
  9
$DIMCEN
 40
2.673
  9
$DIMLFAC
 40
1.0
  9
$DIMBLK
  1
_FILLED
  9
$DIMALT
 70
0
  9
$DIMALTF
 40
25.4
  9
$DIMTXT
 40
3.0
  9
$DIMTOL
 70
1
  9
$DIMLIM
 70
0
  9
$DIMTFAC
 40
1.0
  9
$DIMTP
 40
0.01
  9
$DIMTM
 40
0.01
  9
$DIMGAP
 40
0.625
  9
$DIMDSEP
 70
44
  9
$AUNITS
 70
0
  9
$PDMODE
 70
3
  9
$PDSIZE
 40
3.0
  9
$HANDSEED
  5
83E
  9
$TILEMODE
 70
1
  9
$MEASUREMENT
 70
1
  9
$INSUNITS
 70
4
  0
ENDSEC
  0
SECTION
  2
CLASSES
  0
CLASS
  1
ACDBDICTIONARYWDFLT
  2
AcDbDictionaryWithDefault
  3
AutoCAD 2000
 90
0
 91
1
280
0
281
0
  0
CLASS
  1
ACDBPLACEHOLDER
  2
AcDbPlaceHolder
  3
AutoCAD 2000
 90
0
 91
1
280
0
281
0
  0
CLASS
  1
LAYOUT
  2
AcDbLayout
  3
AutoCAD 2000
 90
0
 91
0
280
0
281
0
  0
ENDSEC
  0
SECTION
  2
TABLES
  0
TABLE
  2
VPORT
  5
8
100
AcDbSymbolTable
 70
2
  0
VPORT
  5
1F4
100
AcDbSymbolTableRecord
100
AcDbViewportTableRecord
  2
*ACTIVE
 70
0
 10
0.0
 20
0.0
 11
1.0
 21
1.0
 12
148.5
 22
105.0
 13
0.0
 23
0.0
 14
1.0
 24
1.0
 15
0.0
 25
0.0
 16
0.0
 26
0.0
 36
1.0
 17
0.0
 27
0.0
 37
0.0
 40
210.0
 41
1.4142857143
 42
50.0
 43
0.0
 44
0.0
 50
0.0
 51
0.0
 71
0
 72
100
 73
1
 74
1
 75
0
 76
0
 77
0
 78
0
  0
ENDTAB
  0
TABLE
  2
LTYPE
  5
5
100
AcDbSymbolTable
 70
6
  0
LTYPE
  5
14
100
AcDbSymbolTableRecord
100
AcDbLinetypeTableRecord
  2
BYBLOCK
 70
0
  3

 72
65
 73
0
 40
0.0
  0
LTYPE
  5
15
100
AcDbSymbolTableRecord
100
AcDbLinetypeTableRecord
  2
BYLAYER
 70
0
  3

 72
65
 73
0
 40
0.0
  0
LTYPE
  5
16
100
AcDbSymbolTableRecord
100
AcDbLinetypeTableRecord
  2
CONTINUOUS
 70
64
  3
Solid line
 72
65
 73
0
 40
0.0
  0
LTYPE
  5
1F5
100
AcDbSymbolTableRecord
100
AcDbLinetypeTableRecord
  2
CENTER
 70
64
  3
____ _ ____ _ ____ _ ____ _ ____ _ ____ _ ____
 72
65
 73
4
 40
0.6
 49
0.375
 74
0
 49
-0.075
 74
0
 49
0.075
 74
0
 49
-0.075
 74
0
  0
LTYPE
  5
1F6
100
AcDbSymbolTableRecord
100
AcDbLinetypeTableRecord
  2
HIDDEN
 70
64
  3
- - - - - - - - - - - - - - - - - - - -
 72
65
 73
2
 40
0.2
 49
0.1
 74
0
 49
-0.1
 74
0
  0
LTYPE
  5
1F7
100
AcDbSymbolTableRecord
100
AcDbLinetypeTableRecord
  2
PHANTOM
 70
64
  3
_____ _ _ _____ _ _ _____ _ _ _____
 72
65
 73
6
 40
0.8
 49
0.45
 74
0
 49
-0.05
 74
0
 49
0.1
 74
0
 49
-0.05
 74
0
 49
0.1
 74
0
 49
-0.05
 74
0
  0
LTYPE
  5
1F8
100
AcDbSymbolTableRecord
100
AcDbLinetypeTableRecord
  2
DOT
 70
64
  3
. . . . . . . . . . . . . . . . . . . .
 72
65
 73
2
 40
0.2
 49
0.1
 74
0
 49
-0.1
 74
0
  0
LTYPE
  5
1F9
100
AcDbSymbolTableRecord
100
AcDbLinetypeTableRecord
  2
DASHED
 70
64
  3
- - - - - - - - - - - - - - - - - - - -
 72
65
 73
2
 40
0.2
 49
0.1
 74
0
 49
-0.1
 74
0
  0
ENDTAB
  0
TABLE
  2
LAYER
  5
2
100
AcDbSymbolTable
 70
36
  0
LAYER
  5
10
100
AcDbSymbolTableRecord
100
AcDbLayerTableRecord
  2
0
 70
0
 62
7
  6
CONTINUOUS
370
-3
390
F
  0
LAYER
  5
1FA
100
AcDbSymbolTableRecord
100
AcDbLayerTableRecord
  2
DEFAULT_1
 70
0
 62
7
  6
CENTER
370
-3
390
F
  0
LAYER
  5
1FB
100
AcDbSymbolTableRecord
100
AcDbLayerTableRecord
  2
DEFAULT_2
 70
0
 62
7
  6
HIDDEN
370
-3
390
F
  0
LAYER
  5
1FC
100
AcDbSymbolTableRecord
100
AcDbLayerTableRecord
  2
DEFAULT_3
 70
0
 62
7
  6
PHANTOM
370
-3
390
F
  0
LAYER
  5
1FD
100
AcDbSymbolTableRecord
100
AcDbLayerTableRecord
  2
ASSI
 70
0
 62
7
  6
CONTINUOUS
370
-3
390
F
  0
LAYER
  5
1FE
100
AcDbSymbolTableRecord
100
AcDbLayerTableRecord
  2
CIRCUITO_LETTORE_SA
 70
0
 62
7
  6
CONTINUOUS
370
-3
390
F
  0
LAYER
  5
1FF
100
AcDbSymbolTableRecord
100
AcDbLayerTableRecord
  2
COORDINATE
 70
0
 62
7
  6
CONTINUOUS
370
-3
390
F
  0
LAYER
  5
200
100
AcDbSymbolTableRecord
100
AcDbLayerTableRecord
  2
COORD_ORIGINE
 70
0
 62
7
  6
CONTINUOUS
370
-3
390
F
  0
LAYER
  5
201
100
AcDbSymbolTableRecord
100
AcDbLayerTableRecord
  2
CORPO
 70
0
 62
7
  6
CONTINUOUS
370
-3
390
F
  0
LAYER
  5
202
100
AcDbSymbolTableRecord
100
AcDbLayerTableRecord
  2
COSMETICI
 70
0
 62
7
  6
CONTINUOUS
370
-3
390
F
  0
LAYER
  5
203
100
AcDbSymbolTableRecord
100
AcDbLayerTableRecord
  2
CURVE
 70
0
 62
7
  6
CONTINUOUS
370
-3
390
F
  0
LAYER
  5
204
100
AcDbSymbolTableRecord
100
AcDbLayerTableRecord
  2
DRAFT
 70
0
 62
7
  6
CONTINUOUS
370
-3
390
F
  0
LAYER
  5
205
100
AcDbSymbolTableRecord
100
AcDbLayerTableRecord
  2
IGES_SCRITTE
 70
0
 62
7
  6
CONTINUOUS
370
-3
390
F
  0
LAYER
  5
206
100
AcDbSymbolTableRecord
100
AcDbLayerTableRecord
  2
INTF_2
 70
0
 62
7
  6
CONTINUOUS
370
-3
390
F
  0
LAYER
  5
207
100
AcDbSymbolTableRecord
100
AcDbLayerTableRecord
  2
INTF_5
 70
0
 62
7
  6
CONTINUOUS
370
-3
390
F
  0
LAYER
  5
208
100
AcDbSymbolTableRecord
100
AcDbLayerTableRecord
  2
INTF_CYAN
 70
0
 62
7
  6
CONTINUOUS
370
-3
390
F
  0
LAYER
  5
209
100
AcDbSymbolTableRecord
100
AcDbLayerTableRecord
  2
NOTE
 70
0
 62
7
  6
CONTINUOUS
370
-3
390
F
  0
LAYER
  5
20A
100
AcDbSymbolTableRecord
100
AcDbLayerTableRecord
  2
PIANI
 70
0
 62
7
  6
CONTINUOUS
370
-3
390
F
  0
LAYER
  5
20B
100
AcDbSymbolTableRecord
100
AcDbLayerTableRecord
  2
PIANI_DI_RIFERIMENTO
 70
0
 62
7
  6
CONTINUOUS
370
-3
390
F
  0
LAYER
  5
20C
100
AcDbSymbolTableRecord
100
AcDbLayerTableRecord
  2
PIANI_ORIGINE
 70
0
 62
7
  6
CONTINUOUS
370
-3
390
F
  0
LAYER
  5
20D
100
AcDbSymbolTableRecord
100
AcDbLayerTableRecord
  2
PUNTI
 70
0
 62
7
  6
CONTINUOUS
370
-3
390
F
  0
LAYER
  5
20E
100
AcDbSymbolTableRecord
100
AcDbLayerTableRecord
  2
RACCORDO
 70
0
 62
7
  6
CONTINUOUS
370
-3
390
F
  0
LAYER
  5
20F
100
AcDbSymbolTableRecord
100
AcDbLayerTableRecord
  2
RGB__255__255__255__
 70
0
 62
7
  6
CONTINUOUS
370
-3
390
F
  0
LAYER
  5
210
100
AcDbSymbolTableRecord
100
AcDbLayerTableRecord
  2
SMUSSO
 70
0
 62
7
  6
CONTINUOUS
370
-3
390
F
  0
LAYER
  5
211
100
AcDbSymbolTableRecord
100
AcDbLayerTableRecord
  2
SNAPLINE
 70
0
 62
7
  6
CONTINUOUS
370
-3
390
F
  0
LAYER
  5
212
100
AcDbSymbolTableRecord
100
AcDbLayerTableRecord
  2
SUPERFICI
 70
0
 62
7
  6
CONTINUOUS
370
-3
390
F
  0
LAYER
  5
213
100
AcDbSymbolTableRecord
100
AcDbLayerTableRecord
  2
TRASH
 70
0
 62
7
  6
CONTINUOUS
370
-3
390
F
  0
ENDTAB
  0
TABLE
  2
STYLE
  5
3
100
AcDbSymbolTable
 70
1
  0
STYLE
  5
11
100
AcDbSymbolTableRecord
100
AcDbTextStyleTableRecord
  2
STANDARD
 70
0
 40
0.0
 41
0.8
 50
0.0
 71
0
 42
0.2
  3
txt
  4

  0
STYLE
  5
214
100
AcDbSymbolTableRecord
100
AcDbTextStyleTableRecord
  2
TEXTSTYLE_1
 70
0
 40
0.0
 41
0.8
 50
0.0
 71
0
 42
0.2
  3
gdt
  4

  0
ENDTAB
  0
TABLE
  2
VIEW
  5
6
100
AcDbSymbolTable
 70
0
  0
ENDTAB
  0
TABLE
  2
UCS
  5
7
100
AcDbSymbolTable
 70
0
  0
ENDTAB
  0
TABLE
  2
APPID
  5
9
100
AcDbSymbolTable
 70
1
  0
APPID
  5
215
100
AcDbSymbolTableRecord
100
AcDbRegAppTableRecord
  2
ACAD
 70
0
  0
ENDTAB
  0
TABLE
  2
BLOCK_RECORD
  5
1
100
AcDbSymbolTable
 70
0
  0
BLOCK_RECORD
  5
216
100
AcDbSymbolTableRecord
100
AcDbBlockTableRecord
  2
*Model_Space
  0
BLOCK_RECORD
  5
217
100
AcDbSymbolTableRecord
100
AcDbBlockTableRecord
  2
*Paper_Space
  0
BLOCK_RECORD
  5
218
100
AcDbSymbolTableRecord
100
AcDbBlockTableRecord
  2
_FILLED
  0
BLOCK_RECORD
  5
219
100
AcDbSymbolTableRecord
100
AcDbBlockTableRecord
  2
*D0
  0
BLOCK_RECORD
  5
21A
100
AcDbSymbolTableRecord
100
AcDbBlockTableRecord
  2
*D1
  0
BLOCK_RECORD
  5
21B
100
AcDbSymbolTableRecord
100
AcDbBlockTableRecord
  2
*D2
  0
BLOCK_RECORD
  5
21C
100
AcDbSymbolTableRecord
100
AcDbBlockTableRecord
  2
*D3
  0
ENDTAB
  0
TABLE
  2
DIMSTYLE
  5
A
100
AcDbSymbolTable
 70
1
100
AcDbDimStyleTable
 71
0
  0
DIMSTYLE
105
21D
100
AcDbSymbolTableRecord
100
AcDbDimStyleTableRecord
  2
STANDARD
 70
0
  3

  4

 40
1.0
 41
3.0
 42
0.5
 43
0.38
 44
1.5
 45
0.0
 46
0.0
 47
0.01
 48
0.01
140
3.0
141
0.09
142
0.0
143
25.4
144
1.0
145
0.0
146
1.0
147
0.625
 71
1.0
 72
0.0
 73
0
 74
0
 75
0
 76
0
 77
1
 78
8
170
0
171
1
172
0
173
0
174
0
175
0
176
0
177
0
178
0
270
2
271
2
272
2
273
2
274
2
275
0
280
0
281
0
282
0
283
1
284
8
285
0
286
0
287
3
288
0
340
11
278
44
341
218
342
218
343
218
344
218
  0
DIMSTYLE
105
21E
100
AcDbSymbolTableRecord
100
AcDbDimStyleTableRecord
  2
DIMSTYLE_1
 70
0
  3

  4

 40
1.0
 41
3.0
 42
0.5
 43
0.38
 44
1.5
 45
0.0
 46
0.0
 47
0.0
 48
0.0
140
3.0
141
0.09
142
0.0
143
25.4
144
1.0
145
0.0
146
1.0
147
0.75
 71
0.0
 72
0.0
 73
0
 74
0
 75
0
 76
0
 77
1
 78
8
170
0
171
1
172
0
173
0
174
0
175
0
176
0
177
0
178
0
270
2
271
2
272
2
273
2
274
2
275
0
280
0
281
0
282
0
283
1
284
8
285
0
286
0
287
3
288
0
340
11
278
44
341
218
342
218
343
218
344
218
  0
ENDTAB
  0
ENDSEC
  0
SECTION
  2
BLOCKS
  0
BLOCK
  5
20
100
AcDbEntity
  8
0
100
AcDbBlockBegin
  2
*Model_Space
 70
0
 10
0.0
 20
0.0
 30
0.0
  3
*Model_Space
  1

  0
ENDBLK
  5
21
100
AcDbEntity
  8
0
100
AcDbBlockEnd
  0
BLOCK
  5
1C
100
AcDbEntity
  8
0
100
AcDbBlockBegin
  2
*Paper_Space
 70
0
 10
0.0
 20
0.0
 30
0.0
  3
*Paper_Space
  1

  0
ENDBLK
  5
1D
100
AcDbEntity
  8
0
100
AcDbBlockEnd
  0
BLOCK
  5
21F
100
AcDbEntity
  8
0
100
AcDbBlockBegin
  2
_FILLED
 70
64
 10
0.0
 20
0.0
  3
_FILLED
  1

  0
SOLID
  5
220
100
AcDbEntity
  8
0
  6
BYBLOCK
 62
0
100
AcDbTrace
 10
0.0
 20
0.0
 11
-1.0
 21
0.3166666667
 12
-1.0
 22
-0.3166666667
 13
-1.0
 23
-0.3166666667
  0
ENDBLK
  5
221
100
AcDbEntity
  8
0
  6
BYBLOCK
 62
0
100
AcDbBlockEnd
  0
BLOCK
  5
222
100
AcDbEntity
  8
0
100
AcDbBlockBegin
 62
7
  6
CONTINUOUS
  2
*D0
 70
65
 10
0.0
 20
0.0
  3
*D0
  1

  0
MTEXT
  5
223
100
AcDbEntity
  8
0
100
AcDbMText
 62
7
  6
CONTINUOUS
  7
STANDARD
 71
2
 72
1
 10
0.7
 20
46.75
 30
0.0
 11
1.0
 21
0.0
 31
0.0
 44
0.9
  1
46,5
 40
3.0
 41
12.8571428571
  0
LINE
  5
224
100
AcDbEntity
  8
0
100
AcDbLine
 62
7
  6
CONTINUOUS
 10
-22.55
 20
0.5
 11
-22.55
 21
44.5
  0
LINE
  5
225
100
AcDbEntity
  8
0
100
AcDbLine
 62
7
  6
CONTINUOUS
 10
23.95
 20
17.6746025225
 11
23.95
 21
44.5
  0
LINE
  5
226
100
AcDbEntity
  8
0
100
AcDbLine
 62
7
  6
CONTINUOUS
 10
-22.55
 20
43.0
 11
0.7
 21
43.0
  0
LINE
  5
227
100
AcDbEntity
  8
0
100
AcDbLine
 62
7
  6
CONTINUOUS
 10
23.95
 20
43.0
 11
0.7
 21
43.0
  0
INSERT
  5
228
100
AcDbEntity
  8
0
100
AcDbBlockReference
 62
7
  6
CONTINUOUS
  2
_FILLED
 10
-22.55
 20
43.0
 41
3.0
 42
3.0
 43
3.0
 50
180.0
  0
INSERT
  5
229
100
AcDbEntity
  8
0
100
AcDbBlockReference
 62
7
  6
CONTINUOUS
  2
_FILLED
 10
23.95
 20
43.0
 41
3.0
 42
3.0
 43
3.0
  0
ENDBLK
  5
22A
100
AcDbEntity
  8
0
  6
BYBLOCK
 62
0
100
AcDbBlockEnd
  0
BLOCK
  5
22B
100
AcDbEntity
  8
0
100
AcDbBlockBegin
 62
7
  6
CONTINUOUS
  2
*D1
 70
65
 10
0.0
 20
0.0
  3
*D1
  1

  0
MTEXT
  5
22C
100
AcDbEntity
  8
0
100
AcDbMText
 62
7
  6
CONTINUOUS
  7
STANDARD
 71
2
 72
1
 10
5.95
 20
36.75
 30
0.0
 11
1.0
 21
0.0
 31
0.0
 44
0.9
  1
36
 40
3.0
 41
6.75
  0
LINE
  5
22D
100
AcDbEntity
  8
0
100
AcDbLine
 62
7
  6
CONTINUOUS
 10
-12.05
 20
22.4011798444
 11
-12.05
 21
34.5
  0
LINE
  5
22E
100
AcDbEntity
  8
0
100
AcDbLine
 62
7
  6
CONTINUOUS
 10
23.95
 20
17.6746025225
 11
23.95
 21
34.5
  0
LINE
  5
22F
100
AcDbEntity
  8
0
100
AcDbLine
 62
7
  6
CONTINUOUS
 10
-12.05
 20
33.0
 11
5.95
 21
33.0
  0
LINE
  5
230
100
AcDbEntity
  8
0
100
AcDbLine
 62
7
  6
CONTINUOUS
 10
23.95
 20
33.0
 11
5.95
 21
33.0
  0
INSERT
  5
231
100
AcDbEntity
  8
0
100
AcDbBlockReference
 62
7
  6
CONTINUOUS
  2
_FILLED
 10
-12.05
 20
33.0
 41
3.0
 42
3.0
 43
3.0
 50
180.0
  0
INSERT
  5
232
100
AcDbEntity
  8
0
100
AcDbBlockReference
 62
7
  6
CONTINUOUS
  2
_FILLED
 10
23.95
 20
33.0
 41
3.0
 42
3.0
 43
3.0
  0
ENDBLK
  5
233
100
AcDbEntity
  8
0
  6
BYBLOCK
 62
0
100
AcDbBlockEnd
  0
BLOCK
  5
234
100
AcDbEntity
  8
0
100
AcDbBlockBegin
 62
7
  6
CONTINUOUS
  2
*D2
 70
65
 10
0.0
 20
0.0
  3
*D2
  1

  0
MTEXT
  5
235
100
AcDbEntity
  8
0
100
AcDbMText
 62
7
  6
CONTINUOUS
  7
STANDARD
 71
2
 72
1
 10
71.825
 20
36.75
 30
0.0
 11
1.0
 21
0.0
 31
0.0
 44
0.9
  1
67,3
 40
3.0
 41
12.8571428571
  0
LINE
  5
236
100
AcDbEntity
  8
0
100
AcDbLine
 62
7
  6
CONTINUOUS
 10
38.175
 20
18.2858344278
 11
38.175
 21
34.5
  0
LINE
  5
237
100
AcDbEntity
  8
0
100
AcDbLine
 62
7
  6
CONTINUOUS
 10
105.475
 20
18.2858344278
 11
105.475
 21
34.5
  0
LINE
  5
238
100
AcDbEntity
  8
0
100
AcDbLine
 62
7
  6
CONTINUOUS
 10
38.175
 20
33.0
 11
71.825
 21
33.0
  0
LINE
  5
239
100
AcDbEntity
  8
0
100
AcDbLine
 62
7
  6
CONTINUOUS
 10
105.475
 20
33.0
 11
71.825
 21
33.0
  0
INSERT
  5
23A
100
AcDbEntity
  8
0
100
AcDbBlockReference
 62
7
  6
CONTINUOUS
  2
_FILLED
 10
38.175
 20
33.0
 41
3.0
 42
3.0
 43
3.0
 50
180.0
  0
INSERT
  5
23B
100
AcDbEntity
  8
0
100
AcDbBlockReference
 62
7
  6
CONTINUOUS
  2
_FILLED
 10
105.475
 20
33.0
 41
3.0
 42
3.0
 43
3.0
  0
ENDBLK
  5
23C
100
AcDbEntity
  8
0
  6
BYBLOCK
 62
0
100
AcDbBlockEnd
  0
BLOCK
  5
23D
100
AcDbEntity
  8
0
100
AcDbBlockBegin
 62
7
  6
CONTINUOUS
  2
*D3
 70
65
 10
0.0
 20
0.0
  3
*D3
  1

  0
MTEXT
  5
23E
100
AcDbEntity
  8
0
100
AcDbMText
 62
7
  6
CONTINUOUS
  7
STANDARD
 71
2
 72
1
 10
116.075
 20
-0.0
 30
0.0
 11
0.0
 21
1.0
 31
0.0
 44
0.9
  1
49
 40
3.0
 41
7.0714285714
  0
LINE
  5
23F
100
AcDbEntity
  8
0
100
AcDbLine
 62
7
  6
CONTINUOUS
 10
105.2250042308
 20
24.5
 11
121.325
 21
24.5
  0
LINE
  5
240
100
AcDbEntity
  8
0
100
AcDbLine
 62
7
  6
CONTINUOUS
 10
105.2250042308
 20
-24.5
 11
121.325
 21
-24.5
  0
LINE
  5
241
100
AcDbEntity
  8
0
100
AcDbLine
 62
7
  6
CONTINUOUS
 10
119.825
 20
24.5
 11
119.825
 21
-0.0
  0
LINE
  5
242
100
AcDbEntity
  8
0
100
AcDbLine
 62
7
  6
CONTINUOUS
 10
119.825
 20
-24.5
 11
119.825
 21
-0.0
  0
INSERT
  5
243
100
AcDbEntity
  8
0
100
AcDbBlockReference
 62
7
  6
CONTINUOUS
  2
_FILLED
 10
119.825
 20
24.5
 41
3.0
 42
3.0
 43
3.0
 50
90.0
  0
INSERT
  5
244
100
AcDbEntity
  8
0
100
AcDbBlockReference
 62
7
  6
CONTINUOUS
  2
_FILLED
 10
119.825
 20
-24.5
 41
3.0
 42
3.0
 43
3.0
 50
270.0
  0
ENDBLK
  5
245
100
AcDbEntity
  8
0
  6
BYBLOCK
 62
0
100
AcDbBlockEnd
  0
ENDSEC
  0
SECTION
  2
ENTITIES
  0
DIMENSION
  5
246
100
AcDbEntity
  8
0
100
AcDbDimension
 62
7
  6
CONTINUOUS
  2
*D0
 10
23.95
 20
43.0
 11
0.2714285531
 21
43.0
 70
160
 71
2
 42
46.5
  3
DIMSTYLE_1
100
AcDbAlignedDimension
 13
-22.55
 23
0.0
 14
23.95
 24
17.1746025225
100
AcDbRotatedDimension
  0
DIMENSION
  5
247
100
AcDbEntity
  8
0
100
AcDbDimension
 62
7
  6
CONTINUOUS
  2
*D1
 10
23.95
 20
33.0
 11
5.5214285975
 21
33.0
 70
160
 71
2
 42
36.0
  3
DIMSTYLE_1
100
AcDbAlignedDimension
 13
-12.05
 23
21.9011798444
 14
23.95
 24
17.1746025225
100
AcDbRotatedDimension
  0
DIMENSION
  5
248
100
AcDbEntity
  8
0
100
AcDbDimension
 62
7
  6
CONTINUOUS
  2
*D2
 10
105.475
 20
33.0
 11
71.3964280243
 21
33.0
 70
160
 71
2
 42
67.3
  3
DIMSTYLE_1
100
AcDbAlignedDimension
 13
38.175
 23
17.7858344278
 14
105.475
 24
17.7858344278
100
AcDbRotatedDimension
  0
DIMENSION
  5
249
100
AcDbEntity
  8
0
100
AcDbDimension
 62
7
  6
CONTINUOUS
  2
*D3
 10
119.825
 20
-24.5
 11
119.825
 21
-0.4285710798
 70
160
 71
2
 42
49.0
  3
DIMSTYLE_1
100
AcDbAlignedDimension
 13
104.7250042308
 23
24.5
 14
104.7250042308
 24
-24.5
 50
270.0
100
AcDbRotatedDimension
  0
LINE
  5
24A
100
AcDbEntity
  8
RACCORDO
100
AcDbLine
 62
253
  6
CONTINUOUS
 10
-15.3014544328
 20
23.8443375673
 11
-15.3771276283
 21
23.7127445772
  0
LINE
  5
24B
100
AcDbEntity
  8
RACCORDO
100
AcDbLine
 62
253
  6
CONTINUOUS
 10
-13.05
 20
23.4104851482
 11
-12.2985455672
 21
23.8443375673
  0
LINE
  5
24C
100
AcDbEntity
  8
RACCORDO
100
AcDbLine
 62
7
  6
CONTINUOUS
 10
-13.05
 20
23.1226497308
 11
-12.175
 21
23.6278312164
  0
LWPOLYLINE
  5
24D
100
AcDbEntity
  8
RACCORDO
100
AcDbPolyline
 62
7
  6
CONTINUOUS
 90
6
 70
0
 10
-14.4926911403
 20
23.1561677462
 10
-14.5122724173
 20
23.144975649
 10
-14.528126022
 20
23.1356232963
 10
-14.5397372866
 20
23.1284216237
 10
-14.547099962
 20
23.1239714115
 10
-14.55
 20
23.1226497308
  0
LWPOLYLINE
  5
24E
100
AcDbEntity
  8
RACCORDO
100
AcDbPolyline
 62
7
  6
CONTINUOUS
 90
7
 70
0
 10
-14.3014544328
 20
23.2669872981
 10
-14.3316615676
 20
23.2500124376
 10
-14.361370094
 20
23.232751575
 10
-14.3903458437
 20
23.2156095158
 10
-14.4185764284
 20
23.1991814406
 10
-14.4455741408
 20
23.1837387744
 10
-14.4926911403
 20
23.1561677462
  0
LWPOLYLINE
  5
24F
100
AcDbEntity
  8
RACCORDO
100
AcDbPolyline
 62
7
  6
CONTINUOUS
 90
7
 70
0
 10
-14.4455185227
 20
-23.1835400627
 10
-14.4927628248
 20
-23.1563414203
 10
-14.5121540819
 20
-23.1448564488
 10
-14.5280675344
 20
-23.1356575018
 10
-14.5399932455
 20
-23.1290355536
 10
-14.5474402861
 20
-23.1246996299
 10
-14.55
 20
-23.1226497308
  0
LINE
  5
250
100
AcDbEntity
  8
RACCORDO
100
AcDbLine
 62
253
  6
CONTINUOUS
 10
-12.2985455672
 20
-23.8443375673
 11
-13.05
 21
-23.4104851482
  0
LINE
  5
251
100
AcDbEntity
  8
RACCORDO
100
AcDbLine
 62
7
  6
CONTINUOUS
 10
-12.175
 20
-23.6278312164
 11
-13.05
 21
-23.1226497308
  0
LWPOLYLINE
  5
252
100
AcDbEntity
  8
RACCORDO
100
AcDbPolyline
 62
7
  6
CONTINUOUS
 90
6
 70
0
 10
-14.3014544328
 20
-23.2669872981
 10
-14.3313246852
 20
-23.2492660013
 10
-14.3611515023
 20
-23.2321167029
 10
-14.3904670102
 20
-23.215539403
 10
-14.418744145
 20
-23.1992537336
 10
-14.4455185227
 20
-23.1835400627
  0
LWPOLYLINE
  5
253
100
AcDbEntity
  8
RACCORDO
100
AcDbPolyline
 62
253
  6
CONTINUOUS
 90
3
 70
0
 10
-15.3014544328
 20
-23.8443375673
 10
-15.3633660994
 20
-23.7367668404
 10
-15.3769101334
 20
-23.7131246796
  0
LWPOLYLINE
  5
254
100
AcDbEntity
  8
RACCORDO
100
AcDbPolyline
 62
253
  6
CONTINUOUS
 90
19
 70
0
 10
-21.6459721857
 20
-20.5423171059
 10
-21.6391570822
 20
-20.6249068503
 10
-21.6258299195
 20
-20.7058282723
 10
-21.6059906978
 20
-20.7850813717
 10
-21.5794636826
 20
-20.8632058913
 10
-21.5464246083
 20
-20.9396620884
 10
-21.5074006782
 20
-21.0128307347
 10
-21.4621955326
 20
-21.0826928551
 10
-21.4110055313
 20
-21.1492674248
 10
-21.3549469562
 20
-21.2109921413
 10
-21.2938921007
 20
-21.2677058414
 10
-21.2279686714
 20
-21.3195696884
 10
-21.1586760712
 20
-21.3655048695
 10
-21.0859763504
 20
-21.405339173
 10
-21.0099074586
 20
-21.4392448107
 10
-20.9320826475
 20
-21.466659605
 10
-20.8530396675
 20
-21.4873961634
 10
-20.7722407682
 20
-21.5016418784
 10
-20.6896859495
 20
-21.5093967499
  0
LWPOLYLINE
  5
255
100
AcDbEntity
  8
RACCORDO
100
AcDbPolyline
 62
253
  6
CONTINUOUS
 90
4
 70
0
 10
-15.4159364071
 20
23.6444921687
 10
-15.4210382154
 20
23.6353440559
 10
-15.4240766787
 20
23.629758667
 10
-15.425
 20
23.6278312164
  0
LINE
  5
256
100
AcDbEntity
  8
RACCORDO
100
AcDbLine
 62
253
  6
CONTINUOUS
 10
-15.3999243296
 20
23.6727946968
 11
-15.4159364071
 21
23.6444921687
  0
LINE
  5
257
100
AcDbEntity
  8
RACCORDO
100
AcDbLine
 62
253
  6
CONTINUOUS
 10
-15.3771276283
 20
23.7127445772
 11
-15.3999243296
 21
23.6727946968
  0
LINE
  5
258
100
AcDbEntity
  8
RACCORDO
100
AcDbLine
 62
7
  6
CONTINUOUS
 10
-12.2985455672
 20
-24.495628166
 11
-13.05
 21
-24.5
  0
LINE
  5
259
100
AcDbEntity
  8
RACCORDO
100
AcDbLine
 62
253
  6
CONTINUOUS
 10
-12.2985455672
 20
-24.2456323968
 11
-13.05
 21
-24.2500042308
  0
LINE
  5
25A
100
AcDbEntity
  8
RACCORDO
100
AcDbLine
 62
7
  6
CONTINUOUS
 10
-5.0500002069
 20
-23.7534573627
 11
-12.0502917857
 21
-23.7941838677
  0
LINE
  5
25B
100
AcDbEntity
  8
RACCORDO
100
AcDbLine
 62
253
  6
CONTINUOUS
 10
-12.05
 20
-24.2456323968
 11
-12.2985455672
 21
-24.2456323968
  0
LINE
  5
25C
100
AcDbEntity
  8
RACCORDO
100
AcDbLine
 62
253
  6
CONTINUOUS
 10
-15.55
 20
-24.2369056521
 11
-15.3014544328
 21
-24.2369056521
  0
LINE
  5
25D
100
AcDbEntity
  8
RACCORDO
100
AcDbLine
 62
253
  6
CONTINUOUS
 10
-15.55
 20
-23.8443375673
 11
-15.3014544328
 21
-23.8443375673
  0
LINE
  5
25E
100
AcDbEntity
  8
RACCORDO
100
AcDbLine
 62
253
  6
CONTINUOUS
 10
-12.05
 20
-23.8443375673
 11
-12.2985455672
 21
-23.8443375673
  0
LINE
  5
25F
100
AcDbEntity
  8
RACCORDO
100
AcDbLine
 62
7
  6
CONTINUOUS
 10
-13.05
 20
-24.5
 11
-15.3014544328
 21
-24.4869014213
  0
LINE
  5
260
100
AcDbEntity
  8
RACCORDO
100
AcDbLine
 62
253
  6
CONTINUOUS
 10
-13.05
 20
-24.2500042308
 11
-15.3014544328
 21
-24.2369056521
  0
LINE
  5
261
100
AcDbEntity
  8
RACCORDO
100
AcDbLine
 62
7
  6
CONTINUOUS
 10
-14.4057559721
 20
-22.3289478403
 11
-14.3253511903
 21
-22.3327253649
  0
LINE
  5
262
100
AcDbEntity
  8
RACCORDO
100
AcDbLine
 62
7
  6
CONTINUOUS
 10
-14.4057559721
 20
-22.3289478403
 11
-20.7067788889
 21
-21.998725222
  0
LINE
  5
263
100
AcDbEntity
  8
RACCORDO
100
AcDbLine
 62
7
  6
CONTINUOUS
 10
-13.05
 20
-22.3999487714
 11
-14.3253511903
 21
-22.3327253649
  0
LWPOLYLINE
  5
264
100
AcDbEntity
  8
RACCORDO
100
AcDbPolyline
 62
253
  6
CONTINUOUS
 90
6
 70
0
 10
-15.3769101334
 20
-23.7131246796
 10
-15.4087911632
 20
-23.6571655895
 10
-15.4158998422
 20
-23.6445573199
 10
-15.4210225715
 20
-23.6353723694
 10
-15.4240730294
 20
-23.6297655866
 10
-15.425
 20
-23.6278312164
  0
LINE
  5
265
100
AcDbEntity
  8
CURVE
100
AcDbLine
 62
252
  6
CONTINUOUS
 10
-22.5469266202
 20
1.7531330774
 11
-22.54996
 21
0.2
  0
LINE
  5
266
100
AcDbEntity
  8
CURVE
100
AcDbLine
 62
252
  6
CONTINUOUS
 10
-22.5430977133
 20
2.6271892851
 11
-22.5469266202
 21
1.7531330774
  0
LINE
  5
267
100
AcDbEntity
  8
CURVE
100
AcDbLine
 62
252
  6
CONTINUOUS
 10
-22.5386382793
 20
3.3705911365
 11
-22.5430977133
 21
2.6271892851
  0
LINE
  5
268
100
AcDbEntity
  8
CURVE
100
AcDbLine
 62
252
  6
CONTINUOUS
 10
-22.5325452885
 20
4.1777749922
 11
-22.5386382793
 21
3.3705911365
  0
LINE
  5
269
100
AcDbEntity
  8
CURVE
100
AcDbLine
 62
252
  6
CONTINUOUS
 10
-22.5261393316
 20
4.8846636395
 11
-22.5325452885
 21
4.1777749922
  0
LINE
  5
26A
100
AcDbEntity
  8
CURVE
100
AcDbLine
 62
252
  6
CONTINUOUS
 10
-22.5185105664
 20
5.6113550101
 11
-22.5261393316
 21
4.8846636395
  0
LINE
  5
26B
100
AcDbEntity
  8
CURVE
100
AcDbLine
 62
252
  6
CONTINUOUS
 10
-22.5099093584
 20
6.3315760388
 11
-22.5185105664
 21
5.6113550101
  0
LINE
  5
26C
100
AcDbEntity
  8
CURVE
100
AcDbLine
 62
252
  6
CONTINUOUS
 10
-22.499370966
 20
7.115188553
 11
-22.5099093584
 21
6.3315760388
  0
LINE
  5
26D
100
AcDbEntity
  8
CURVE
100
AcDbLine
 62
252
  6
CONTINUOUS
 10
-22.4891486902
 20
7.8004333524
 11
-22.499370966
 21
7.115188553
  0
LINE
  5
26E
100
AcDbEntity
  8
CURVE
100
AcDbLine
 62
252
  6
CONTINUOUS
 10
-22.4778042808
 20
8.4964996869
 11
-22.4891486902
 21
7.8004333524
  0
LINE
  5
26F
100
AcDbEntity
  8
CURVE
100
AcDbLine
 62
252
  6
CONTINUOUS
 10
-22.463776341
 20
9.2852441288
 11
-22.4778042808
 21
8.4964996869
  0
LINE
  5
270
100
AcDbEntity
  8
CURVE
100
AcDbLine
 62
252
  6
CONTINUOUS
 10
-22.4453326399
 20
10.2301583955
 11
-22.463776341
 21
9.2852441288
  0
LINE
  5
271
100
AcDbEntity
  8
CURVE
100
AcDbLine
 62
252
  6
CONTINUOUS
 10
-22.4194238715
 20
11.4262637066
 11
-22.4453326399
 21
10.2301583955
  0
LINE
  5
272
100
AcDbEntity
  8
CURVE
100
AcDbLine
 62
252
  6
CONTINUOUS
 10
-22.4011378401
 20
12.2
 11
-22.4194238715
 21
11.4262637066
  0
LWPOLYLINE
  5
273
100
AcDbEntity
  8
RACCORDO
100
AcDbPolyline
 62
253
  6
CONTINUOUS
 90
10
 70
0
 10
-21.6459721857
 20
20.5423171059
 10
-21.812914319
 20
15.9785230555
 10
-21.9381209447
 20
11.4141476763
 10
-22.0215920629
 20
6.8491909681
 10
-22.0633277078
 20
2.2832662612
 10
-22.0633278451
 20
-2.2832397745
 10
-22.0215923719
 20
-6.8491671301
 10
-21.9381212537
 20
-11.4141291356
 10
-21.812914525
 20
-15.9785124608
 10
-21.6459721857
 20
-20.5423171059
  0
LINE
  5
274
100
AcDbEntity
  8
CORPO
100
AcDbLine
 62
7
  6
CONTINUOUS
 10
-5.0494213785
 20
-22.3633342638
 11
-2.05
 21
-22.3109791689
  0
LINE
  5
275
100
AcDbEntity
  8
ASSI
100
AcDbLine
 62
7
  6
CONTINUOUS
 10
-5.0494213785
 20
-22.3633342638
 11
-2.05
 21
-22.3109791689
  0
LINE
  5
276
100
AcDbEntity
  8
RACCORDO
100
AcDbLine
 62
7
  6
CONTINUOUS
 10
-3.0412734645
 20
-22.3126551668
 11
-13.05
 21
-22.4
  0
LINE
  5
277
100
AcDbEntity
  8
RACCORDO
100
AcDbLine
 62
253
  6
CONTINUOUS
 10
-13.0478573976
 20
-21.909888014
 11
-12.05
 21
-21.9011798444
  0
LINE
  5
278
100
AcDbEntity
  8
RACCORDO
100
AcDbLine
 62
7
  6
CONTINUOUS
 10
-2.05
 20
-20.9959955457
 11
-11.8502132398
 21
-20.9104703804
  0
LINE
  5
279
100
AcDbEntity
  8
RACCORDO
100
AcDbLine
 62
7
  6
CONTINUOUS
 10
-2.5412737968
 20
-21.5659754333
 11
-12.05
 21
-21.4
  0
LINE
  5
27A
100
AcDbEntity
  8
RACCORDO
100
AcDbLine
 62
253
  6
CONTINUOUS
 10
-20.6896859495
 20
-21.5093967499
 11
-13.0478573976
 21
-21.909888014
  0
LINE
  5
27B
100
AcDbEntity
  8
DRAFT
100
AcDbLine
 62
7
  6
CONTINUOUS
 10
-11.8502132398
 20
-20.9104703804
 11
-12.05
 21
-20.9
  0
LINE
  5
27C
100
AcDbEntity
  8
RACCORDO
100
AcDbLine
 62
253
  6
CONTINUOUS
 10
-20.6896859495
 20
21.5093967499
 11
-20.6960260543
 21
21.6359648121
  0
LINE
  5
27D
100
AcDbEntity
  8
RACCORDO
100
AcDbLine
 62
253
  6
CONTINUOUS
 10
-20.6960260543
 20
21.6359648121
 11
-20.7013527279
 21
21.7539213857
  0
LWPOLYLINE
  5
27E
100
AcDbEntity
  8
RACCORDO
100
AcDbPolyline
 62
253
  6
CONTINUOUS
 90
8
 70
0
 10
-20.7013527279
 20
21.7539213857
 10
-20.7053033182
 20
21.8552367901
 10
-20.7066743047
 20
21.8974407743
 10
-20.7076088003
 20
21.9330131813
 10
-20.7080908161
 20
21.9613456482
 10
-20.7081121032
 20
21.9819537236
 10
-20.7076722878
 20
21.9944850423
 10
-20.7067788762
 20
21.9987252226
  0
LWPOLYLINE
  5
27F
100
AcDbEntity
  8
RACCORDO
100
AcDbPolyline
 62
253
  6
CONTINUOUS
 90
7
 70
0
 10
-20.7053036682
 20
-21.8552463157
 10
-20.7066745531
 20
-21.8974485156
 10
-20.707608944
 20
-21.9330187509
 10
-20.708090872
 20
-21.9613491114
 10
-20.7081121008
 20
-21.9819554194
 10
-20.7076722674
 20
-21.9944855044
 10
-20.7067788889
 20
-21.998725222
  0
LINE
  5
280
100
AcDbEntity
  8
RACCORDO
100
AcDbLine
 62
253
  6
CONTINUOUS
 10
-20.7013531917
 20
-21.753932051
 11
-20.7053036682
 21
-21.8552463157
  0
LINE
  5
281
100
AcDbEntity
  8
RACCORDO
100
AcDbLine
 62
253
  6
CONTINUOUS
 10
-20.6960264218
 20
-21.6359723744
 11
-20.7013531917
 21
-21.753932051
  0
LINE
  5
282
100
AcDbEntity
  8
RACCORDO
100
AcDbLine
 62
253
  6
CONTINUOUS
 10
-20.6896859495
 20
-21.5093967499
 11
-20.6960264218
 21
-21.6359723744
  0
LWPOLYLINE
  5
283
100
AcDbEntity
  8
RACCORDO
100
AcDbPolyline
 62
7
  6
CONTINUOUS
 90
8
 70
0
 10
-13.0499954424
 20
22.3999999602
 10
-13.0508721664
 20
22.3968669155
 10
-13.0516162029
 20
22.3876679933
 10
-13.0522133386
 20
22.3727768287
 10
-13.0526353131
 20
22.3526455331
 10
-13.0528844339
 20
22.3277342994
 10
-13.0529936569
 20
22.298449669
 10
-13.0527517139
 20
22.2288134235
  0
LINE
  5
284
100
AcDbEntity
  8
RACCORDO
100
AcDbLine
 62
253
  6
CONTINUOUS
 10
-22.1228645283
 20
-20.5622524057
 11
-22.1269581684
 21
-20.5624663444
  0
LWPOLYLINE
  5
285
100
AcDbEntity
  8
RACCORDO
100
AcDbPolyline
 62
253
  6
CONTINUOUS
 90
4
 70
0
 10
-21.6459721857
 20
-20.5423171059
 10
-21.7090844456
 20
-20.5449185278
 10
-21.7709970683
 20
-20.5474763998
 10
-22.1228645283
 20
-20.5622524057
  0
LINE
  5
286
100
AcDbEntity
  8
CORPO
100
AcDbLine
 62
7
  6
CONTINUOUS
 10
-2.1135520409
 20
-19.8120884739
 11
-2.05
 21
-19.8109791689
  0
LINE
  5
287
100
AcDbEntity
  8
ASSI
100
AcDbLine
 62
7
  6
CONTINUOUS
 10
-2.1135520409
 20
-19.8120884739
 11
-2.05
 21
-19.8109791689
  0
LINE
  5
288
100
AcDbEntity
  8
CORPO
100
AcDbLine
 62
7
  6
CONTINUOUS
 10
-12.05
 20
-19.7855298181
 11
22.9674524064
 21
-19.1742979128
  0
LINE
  5
289
100
AcDbEntity
  8
ASSI
100
AcDbLine
 62
7
  6
CONTINUOUS
 10
-12.05
 20
-19.7855298181
 11
22.9674524064
 21
-19.1742979128
  0
LINE
  5
28A
100
AcDbEntity
  8
RACCORDO
100
AcDbLine
 62
7
  6
CONTINUOUS
 10
-2.2488364537
 20
-19.7570215015
 11
-8.3749170717
 21
-19.721381007
  0
LWPOLYLINE
  5
28B
100
AcDbEntity
  8
RACCORDO
100
AcDbPolyline
 62
253
  6
CONTINUOUS
 90
4
 70
0
 10
-15.3014544328
 20
-24.4869014213
 10
-15.3016325452
 20
-24.4847427507
 10
-15.3017825026
 20
-24.4783046885
 10
-15.3019017001
 20
-24.46769614
  0
LINE
  5
28C
100
AcDbEntity
  8
CURVE
100
AcDbLine
 62
253
  6
CONTINUOUS
 10
-6.55
 20
16.0
 11
-9.450001
 21
14.991935
  0
LINE
  5
28D
100
AcDbEntity
  8
CURVE
100
AcDbLine
 62
253
  6
CONTINUOUS
 10
-7.164639
 20
15.164584
 11
-6.55
 21
15.373574
  0
LINE
  5
28E
100
AcDbEntity
  8
CURVE
100
AcDbLine
 62
253
  6
CONTINUOUS
 10
-8.895677
 20
14.606449
 11
-7.646572
 21
15.007869
  0
LINE
  5
28F
100
AcDbEntity
  8
CORPO
100
AcDbLine
 62
253
  6
CONTINUOUS
 10
-12.05
 20
-17.7858344278
 11
22.9674524064
 21
-17.1746025225
  0
LINE
  5
290
100
AcDbEntity
  8
ASSI
100
AcDbLine
 62
253
  6
CONTINUOUS
 10
-12.05
 20
-17.7858344278
 11
22.9674524064
 21
-17.1746025225
  0
LINE
  5
291
100
AcDbEntity
  8
CORPO
100
AcDbLine
 62
253
  6
CONTINUOUS
 10
23.95
 20
-17.1746025225
 11
22.9674524064
 21
-17.1746025225
  0
LINE
  5
292
100
AcDbEntity
  8
ASSI
100
AcDbLine
 62
253
  6
CONTINUOUS
 10
23.95
 20
-17.1746025225
 11
22.9674524064
 21
-17.1746025225
  0
LINE
  5
293
100
AcDbEntity
  8
0
100
AcDbLine
 62
253
  6
CONTINUOUS
 10
1.65
 20
-16.0
 11
2.95
 21
-16.0
  0
LINE
  5
294
100
AcDbEntity
  8
CURVE
100
AcDbLine
 62
253
  6
CONTINUOUS
 10
-7.461736
 20
-14.790021
 11
-9.457657
 21
-14.22041
  0
LWPOLYLINE
  5
295
100
AcDbEntity
  8
RACCORDO
100
AcDbPolyline
 62
7
  6
CONTINUOUS
 90
3
 70
0
 10
-13.05
 20
-24.5
 10
-13.0502304206
 20
-24.4962006967
 10
-13.0504096566
 20
-24.4849211599
  0
LINE
  5
296
100
AcDbEntity
  8
RACCORDO
100
AcDbLine
 62
253
  6
CONTINUOUS
 10
-15.3014544328
 20
24.2369056521
 11
-15.3019867616
 21
24.3619010942
  0
LINE
  5
297
100
AcDbEntity
  8
RACCORDO
100
AcDbLine
 62
253
  6
CONTINUOUS
 10
-15.3019017001
 20
-24.46769614
 11
-15.3020400796
 21
-24.4347595221
  0
LINE
  5
298
100
AcDbEntity
  8
RACCORDO
100
AcDbLine
 62
7
  6
CONTINUOUS
 10
-15.55
 20
-24.2369056521
 11
-15.55
 21
-23.8443375673
  0
LINE
  5
299
100
AcDbEntity
  8
RACCORDO
100
AcDbLine
 62
7
  6
CONTINUOUS
 10
-15.55
 20
23.8443375673
 11
-15.55
 21
24.2369056521
  0
LINE
  5
29A
100
AcDbEntity
  8
RACCORDO
100
AcDbLine
 62
253
  6
CONTINUOUS
 10
-15.3014544328
 20
-24.2369056521
 11
-15.3014544328
 21
-23.8443375673
  0
LINE
  5
29B
100
AcDbEntity
  8
RACCORDO
100
AcDbLine
 62
253
  6
CONTINUOUS
 10
-15.3014544328
 20
23.8443375673
 11
-15.3014544328
 21
24.2369056521
  0
LINE
  5
29C
100
AcDbEntity
  8
RACCORDO
100
AcDbLine
 62
7
  6
CONTINUOUS
 10
-14.55
 20
23.1226497308
 11
-14.55
 21
22.3213883311
  0
LINE
  5
29D
100
AcDbEntity
  8
RACCORDO
100
AcDbLine
 62
7
  6
CONTINUOUS
 10
-14.55
 20
-22.3213883311
 11
-14.55
 21
-23.1226497308
  0
LINE
  5
29E
100
AcDbEntity
  8
RACCORDO
100
AcDbLine
 62
253
  6
CONTINUOUS
 10
-14.3014544328
 20
23.2669872981
 11
-14.3014544328
 21
22.3339351971
  0
LINE
  5
29F
100
AcDbEntity
  8
RACCORDO
100
AcDbLine
 62
253
  6
CONTINUOUS
 10
-14.3014544328
 20
-22.3339351971
 11
-14.3014544328
 21
-23.2669872981
  0
LINE
  5
2A0
100
AcDbEntity
  8
RACCORDO
100
AcDbLine
 62
253
  6
CONTINUOUS
 10
-15.3019867616
 20
24.3619010942
 11
-15.302039248
 21
24.435237626
  0
LINE
  5
2A1
100
AcDbEntity
  8
RACCORDO
100
AcDbLine
 62
253
  6
CONTINUOUS
 10
-15.3020400796
 20
-24.4347595221
 11
-15.3018955861
 21
-24.3312029127
  0
LINE
  5
2A2
100
AcDbEntity
  8
RACCORDO
100
AcDbLine
 62
253
  6
CONTINUOUS
 10
-15.3018955861
 20
-24.3312029127
 11
-15.3014544328
 21
-24.2369056521
  0
LWPOLYLINE
  5
2A3
100
AcDbEntity
  8
RACCORDO
100
AcDbPolyline
 62
253
  6
CONTINUOUS
 90
5
 70
0
 10
-15.302039248
 20
24.435237626
 10
-15.3019002826
 20
24.467869198
 10
-15.3017812906
 20
24.4783811971
 10
-15.3016318216
 20
24.4847616605
 10
-15.3014544328
 20
24.4869014213
  0
LINE
  5
2A4
100
AcDbEntity
  8
CURVE
100
AcDbLine
 62
253
  6
CONTINUOUS
 10
-9.450001
 20
11.216139
 11
-7.151887
 21
12.328754
  0
LINE
  5
2A5
100
AcDbEntity
  8
CURVE
100
AcDbLine
 62
253
  6
CONTINUOUS
 10
-6.55
 20
12.027546
 11
-8.977104
 21
10.87477
  0
LINE
  5
2A6
100
AcDbEntity
  8
0
100
AcDbLine
 62
253
  6
CONTINUOUS
 10
0.572
 20
-14.194
 11
0.662
 21
-14.176
  0
LINE
  5
2A7
100
AcDbEntity
  8
0
100
AcDbLine
 62
253
  6
CONTINUOUS
 10
0.788
 20
-14.932
 11
0.69
 21
-14.946
  0
LINE
  5
2A8
100
AcDbEntity
  8
0
100
AcDbLine
 62
253
  6
CONTINUOUS
 10
0.704
 20
-15.316
 11
0.604
 21
-15.33
  0
LINE
  5
2A9
100
AcDbEntity
  8
0
100
AcDbLine
 62
253
  6
CONTINUOUS
 10
0.522
 20
-13.85
 11
0.632
 21
-13.838
  0
LINE
  5
2AA
100
AcDbEntity
  8
0
100
AcDbLine
 62
253
  6
CONTINUOUS
 10
0.042
 20
-15.352
 11
-0.05
 21
-15.362
  0
LINE
  5
2AB
100
AcDbEntity
  8
0
100
AcDbLine
 62
253
  6
CONTINUOUS
 10
2.95
 20
-15.116
 11
1.65
 21
-15.116
  0
LINE
  5
2AC
100
AcDbEntity
  8
0
100
AcDbLine
 62
253
  6
CONTINUOUS
 10
-2.152
 20
-14.676
 11
-0.852
 21
-14.676
  0
LINE
  5
2AD
100
AcDbEntity
  8
0
100
AcDbLine
 62
253
  6
CONTINUOUS
 10
-4.066
 20
-14.67
 11
-2.766
 21
-14.67
  0
LINE
  5
2AE
100
AcDbEntity
  8
0
100
AcDbLine
 62
253
  6
CONTINUOUS
 10
-2.766
 20
-14.264
 11
-4.066
 21
-14.264
  0
LINE
  5
2AF
100
AcDbEntity
  8
0
100
AcDbLine
 62
253
  6
CONTINUOUS
 10
0.284
 20
-13.85
 11
0.522
 21
-13.85
  0
LINE
  5
2B0
100
AcDbEntity
  8
0
100
AcDbLine
 62
253
  6
CONTINUOUS
 10
0.69
 20
-14.946
 11
0.562
 21
-14.938
  0
LINE
  5
2B1
100
AcDbEntity
  8
0
100
AcDbLine
 62
253
  6
CONTINUOUS
 10
0.662
 20
-14.176
 11
0.758
 21
-14.184
  0
LINE
  5
2B2
100
AcDbEntity
  8
0
100
AcDbLine
 62
253
  6
CONTINUOUS
 10
0.186
 20
-13.84
 11
0.284
 21
-13.85
  0
LINE
  5
2B3
100
AcDbEntity
  8
0
100
AcDbLine
 62
253
  6
CONTINUOUS
 10
0.81
 20
-15.328
 11
0.704
 21
-15.316
  0
LINE
  5
2B4
100
AcDbEntity
  8
0
100
AcDbLine
 62
253
  6
CONTINUOUS
 10
0.138
 20
-15.37
 11
0.042
 21
-15.352
  0
LINE
  5
2B5
100
AcDbEntity
  8
CURVE
100
AcDbLine
 62
253
  6
CONTINUOUS
 10
-9.457657
 20
-13.615552
 11
-6.558004
 21
-14.547617
  0
LINE
  5
2B6
100
AcDbEntity
  8
0
100
AcDbLine
 62
253
  6
CONTINUOUS
 10
-2.766
 20
-15.536
 11
-4.066
 21
-15.026
  0
LINE
  5
2B7
100
AcDbEntity
  8
0
100
AcDbLine
 62
253
  6
CONTINUOUS
 10
-0.852
 20
-15.542
 11
-2.152
 21
-15.03
  0
LINE
  5
2B8
100
AcDbEntity
  8
0
100
AcDbLine
 62
253
  6
CONTINUOUS
 10
-2.788
 20
-13.64
 11
-4.066
 21
-13.1
  0
LINE
  5
2B9
100
AcDbEntity
  8
RACCORDO
100
AcDbLine
 62
7
  6
CONTINUOUS
 10
-13.0498474187
 20
22.0081737604
 11
-13.0478573976
 21
21.909888014
  0
LINE
  5
2BA
100
AcDbEntity
  8
RACCORDO
100
AcDbLine
 62
7
  6
CONTINUOUS
 10
-13.0519662542
 20
22.1469174645
 11
-13.0498474187
 21
22.0081737604
  0
LWPOLYLINE
  5
2BB
100
AcDbEntity
  8
RACCORDO
100
AcDbPolyline
 62
253
  6
CONTINUOUS
 90
4
 70
0
 10
-12.2980997174
 20
24.4765959427
 10
-12.2982187094
 20
24.4871079418
 10
-12.2983681784
 20
24.4934884052
 10
-12.2985455672
 20
24.495628166
  0
LINE
  5
2BC
100
AcDbEntity
  8
RACCORDO
100
AcDbLine
 62
7
  6
CONTINUOUS
 10
-13.0527517139
 20
22.2288134235
 11
-13.0519662542
 21
22.1469174645
  0
LWPOLYLINE
  5
2BD
100
AcDbEntity
  8
RACCORDO
100
AcDbPolyline
 62
7
  6
CONTINUOUS
 90
7
 70
0
 10
-13.0529936569
 20
-22.298449669
 10
-13.0528844339
 20
-22.3277342994
 10
-13.0526353131
 20
-22.3526455331
 10
-13.0522133386
 20
-22.3727768287
 10
-13.0516162029
 20
-22.3876679933
 10
-13.0508721664
 20
-22.3968669155
 10
-13.0499954424
 20
-22.3999999602
  0
LINE
  5
2BE
100
AcDbEntity
  8
RACCORDO
100
AcDbLine
 62
7
  6
CONTINUOUS
 10
-13.05
 20
24.2500042308
 11
-13.0505322615
 21
24.3749996731
  0
LINE
  5
2BF
100
AcDbEntity
  8
RACCORDO
100
AcDbLine
 62
253
  6
CONTINUOUS
 10
-12.297960752
 20
24.4439643707
 11
-12.2980997174
 21
24.4765959427
  0
LINE
  5
2C0
100
AcDbEntity
  8
RACCORDO
100
AcDbLine
 62
7
  6
CONTINUOUS
 10
-13.0504096566
 20
-24.4849211599
 11
-13.0505945097
 21
-24.4415090796
  0
LINE
  5
2C1
100
AcDbEntity
  8
RACCORDO
100
AcDbLine
 62
253
  6
CONTINUOUS
 10
-12.2979599204
 20
-24.3984384314
 11
-12.2985455672
 21
-24.2456323968
  0
LINE
  5
2C2
100
AcDbEntity
  8
RACCORDO
100
AcDbLine
 62
7
  6
CONTINUOUS
 10
-13.05
 20
-22.4
 11
-13.05
 21
-24.2500042308
  0
LINE
  5
2C3
100
AcDbEntity
  8
RACCORDO
100
AcDbLine
 62
7
  6
CONTINUOUS
 10
-13.05
 20
22.4
 11
-13.05
 21
24.2500042308
  0
LINE
  5
2C4
100
AcDbEntity
  8
RACCORDO
100
AcDbLine
 62
253
  6
CONTINUOUS
 10
-12.2985455672
 20
24.2456323968
 11
-12.2985455672
 21
23.8443375673
  0
LINE
  5
2C5
100
AcDbEntity
  8
RACCORDO
100
AcDbLine
 62
253
  6
CONTINUOUS
 10
-12.2985455672
 20
-23.8443375673
 11
-12.2985455672
 21
-24.2456323968
  0
LINE
  5
2C6
100
AcDbEntity
  8
RACCORDO
100
AcDbLine
 62
7
  6
CONTINUOUS
 10
-12.05
 20
24.2456323968
 11
-12.05
 21
23.8443375673
  0
LINE
  5
2C7
100
AcDbEntity
  8
CORPO
100
AcDbLine
 62
7
  6
CONTINUOUS
 10
-12.05
 20
17.7858344278
 11
-12.05
 21
-17.7858344278
  0
LINE
  5
2C8
100
AcDbEntity
  8
ASSI
100
AcDbLine
 62
7
  6
CONTINUOUS
 10
-12.05
 20
17.7858344278
 11
-12.05
 21
-17.7858344278
  0
LINE
  5
2C9
100
AcDbEntity
  8
RACCORDO
100
AcDbLine
 62
7
  6
CONTINUOUS
 10
-12.05
 20
22.3912731322
 11
-12.05
 21
-22.3912731322
  0
LINE
  5
2CA
100
AcDbEntity
  8
RACCORDO
100
AcDbLine
 62
7
  6
CONTINUOUS
 10
-12.05
 20
-23.7941821702
 11
-12.05
 21
-24.2456323968
  0
LWPOLYLINE
  5
2CB
100
AcDbEntity
  8
RACCORDO
100
AcDbPolyline
 62
7
  6
CONTINUOUS
 90
5
 70
0
 10
-13.0505322615
 20
24.3749996731
 10
-13.0505322615
 20
24.4665040979
 10
-13.0504096566
 20
24.4849211599
 10
-13.0502304206
 20
24.4962006967
 10
-13.05
 20
24.5
  0
LINE
  5
2CC
100
AcDbEntity
  8
RACCORDO
100
AcDbLine
 62
253
  6
CONTINUOUS
 10
-12.2980997174
 20
24.3412996816
 11
-12.297960752
 21
24.4439643707
  0
LINE
  5
2CD
100
AcDbEntity
  8
RACCORDO
100
AcDbLine
 62
7
  6
CONTINUOUS
 10
-13.0505945097
 20
-24.4415090796
 11
-13.0504096566
 21
-24.3355060529
  0
LINE
  5
2CE
100
AcDbEntity
  8
RACCORDO
100
AcDbLine
 62
7
  6
CONTINUOUS
 10
-13.0504096566
 20
-24.3355060529
 11
-13.05
 21
-24.2500042308
  0
LINE
  5
2CF
100
AcDbEntity
  8
RACCORDO
100
AcDbLine
 62
253
  6
CONTINUOUS
 10
-12.2985455672
 20
24.2456323968
 11
-12.2980997174
 21
24.3412996816
  0
LINE
  5
2D0
100
AcDbEntity
  8
RACCORDO
100
AcDbLine
 62
7
  6
CONTINUOUS
 10
-13.0527517139
 20
-22.2288134235
 11
-13.0529936569
 21
-22.298449669
  0
LINE
  5
2D1
100
AcDbEntity
  8
RACCORDO
100
AcDbLine
 62
7
  6
CONTINUOUS
 10
-13.0519662542
 20
-22.1469174645
 11
-13.0527517139
 21
-22.2288134235
  0
LINE
  5
2D2
100
AcDbEntity
  8
RACCORDO
100
AcDbLine
 62
7
  6
CONTINUOUS
 10
-13.0498474187
 20
-22.0081737604
 11
-13.0519662542
 21
-22.1469174645
  0
LINE
  5
2D3
100
AcDbEntity
  8
RACCORDO
100
AcDbLine
 62
7
  6
CONTINUOUS
 10
-13.0478573976
 20
-21.909888014
 11
-13.0498474187
 21
-22.0081737604
  0
LINE
  5
2D4
100
AcDbEntity
  8
0
100
AcDbLine
 62
253
  6
CONTINUOUS
 10
-3.9642857224
 20
14.2737855706
 11
-4.2357143342
 21
13.9725
  0
LINE
  5
2D5
100
AcDbEntity
  8
0
100
AcDbLine
 62
253
  6
CONTINUOUS
 10
-3.4214285836
 20
13.2192855706
 11
-3.15
 21
13.5205716441
  0
LINE
  5
2D6
100
AcDbEntity
  8
CURVE
100
AcDbLine
 62
7
  6
CONTINUOUS
 10
-9.4304405567
 20
8.2207780034
 11
-8.2762785394
 21
9.3749400207
  0
LINE
  5
2D7
100
AcDbEntity
  8
CURVE
100
AcDbLine
 62
7
  6
CONTINUOUS
 10
-7.3588935601
 20
10.292325
 11
-6.7764485601
 21
10.87477
  0
LINE
  5
2D8
100
AcDbEntity
  8
CURVE
100
AcDbLine
 62
253
  6
CONTINUOUS
 10
-6.55
 20
9.975074
 11
-9.450001
 21
8.9669
  0
LINE
  5
2D9
100
AcDbEntity
  8
CURVE
100
AcDbLine
 62
253
  6
CONTINUOUS
 10
-9.457657
 20
-15.342748
 11
-7.461736
 21
-14.790021
  0
LINE
  5
2DA
100
AcDbEntity
  8
0
100
AcDbLine
 62
253
  6
CONTINUOUS
 10
0.178
 20
-13.06
 11
0.05
 21
-13.094
  0
LINE
  5
2DB
100
AcDbEntity
  8
0
100
AcDbLine
 62
253
  6
CONTINUOUS
 10
0.632
 20
-13.838
 11
0.754
 21
-13.806
  0
LINE
  5
2DC
100
AcDbEntity
  8
0
100
AcDbLine
 62
253
  6
CONTINUOUS
 10
0.574
 20
-11.978
 11
0.664
 21
-11.96
  0
LINE
  5
2DD
100
AcDbEntity
  8
0
100
AcDbLine
 62
253
  6
CONTINUOUS
 10
0.79
 20
-12.716
 11
0.692
 21
-12.732
  0
LINE
  5
2DE
100
AcDbEntity
  8
0
100
AcDbLine
 62
253
  6
CONTINUOUS
 10
0.404
 20
-13.048
 11
0.178
 21
-13.06
  0
LINE
  5
2DF
100
AcDbEntity
  8
CURVE
100
AcDbLine
 62
253
  6
CONTINUOUS
 10
-9.457831
 20
-13.390935
 11
-6.558004
 21
-13.390935
  0
LINE
  5
2E0
100
AcDbEntity
  8
0
100
AcDbLine
 62
253
  6
CONTINUOUS
 10
-4.066
 20
-13.004
 11
-2.766
 21
-13.004
  0
LINE
  5
2E1
100
AcDbEntity
  8
0
100
AcDbLine
 62
253
  6
CONTINUOUS
 10
1.65
 20
-12.846
 11
2.95
 21
-12.846
  0
LINE
  5
2E2
100
AcDbEntity
  8
0
100
AcDbLine
 62
253
  6
CONTINUOUS
 10
-2.152
 20
-12.838
 11
-0.852
 21
-12.838
  0
LINE
  5
2E3
100
AcDbEntity
  8
CURVE
100
AcDbLine
 62
253
  6
CONTINUOUS
 10
-6.558004
 20
-12.785664
 11
-9.457831
 21
-12.785664
  0
LINE
  5
2E4
100
AcDbEntity
  8
0
100
AcDbLine
 62
253
  6
CONTINUOUS
 10
-2.152
 20
-11.744
 11
-0.852
 21
-11.744
  0
LINE
  5
2E5
100
AcDbEntity
  8
CURVE
100
AcDbLine
 62
253
  6
CONTINUOUS
 10
-8.451423
 20
-11.750162
 11
-6.558004
 21
-11.880779
  0
LINE
  5
2E6
100
AcDbEntity
  8
0
100
AcDbLine
 62
253
  6
CONTINUOUS
 10
0.692
 20
-12.732
 11
0.564
 21
-12.722
  0
LINE
  5
2E7
100
AcDbEntity
  8
0
100
AcDbLine
 62
253
  6
CONTINUOUS
 10
0.628
 20
-13.068
 11
0.404
 21
-13.048
  0
LINE
  5
2E8
100
AcDbEntity
  8
CURVE
100
AcDbLine
 62
253
  6
CONTINUOUS
 10
-6.558004
 20
-12.459827
 11
-9.457657
 21
-12.198005
  0
LINE
  5
2E9
100
AcDbEntity
  8
0
100
AcDbLine
 62
253
  6
CONTINUOUS
 10
0.664
 20
-11.96
 11
0.76
 21
-11.97
  0
LINE
  5
2EA
100
AcDbEntity
  8
0
100
AcDbLine
 62
253
  6
CONTINUOUS
 10
0.744
 20
-13.092
 11
0.628
 21
-13.068
  0
LINE
  5
2EB
100
AcDbEntity
  8
0
100
AcDbLine
 62
253
  6
CONTINUOUS
 10
0.05
 20
-13.81
 11
0.186
 21
-13.84
  0
LINE
  5
2EC
100
AcDbEntity
  8
CURVE
100
AcDbLine
 62
253
  6
CONTINUOUS
 10
-7.847761
 20
-10.994355
 11
-9.457657
 21
-10.389084
  0
LINE
  5
2ED
100
AcDbEntity
  8
CURVE
100
AcDbLine
 62
253
  6
CONTINUOUS
 10
-8.44353
 20
-10.235548
 11
-6.558004
 21
-10.955216
  0
LINE
  5
2EE
100
AcDbEntity
  8
0
100
AcDbLine
 62
253
  6
CONTINUOUS
 10
0.758
 20
-14.184
 11
0.854
 21
-14.222
  0
LINE
  5
2EF
100
AcDbEntity
  8
0
100
AcDbLine
 62
253
  6
CONTINUOUS
 10
0.564
 20
-12.722
 11
0.492
 21
-12.692
  0
LINE
  5
2F0
100
AcDbEntity
  8
0
100
AcDbLine
 62
253
  6
CONTINUOUS
 10
-2.766
 20
-12.676
 11
-4.066
 21
-12.126
  0
LINE
  5
2F1
100
AcDbEntity
  8
0
100
AcDbLine
 62
253
  6
CONTINUOUS
 10
-0.852
 20
-14.31
 11
-2.152
 21
-13.758
  0
LINE
  5
2F2
100
AcDbEntity
  8
0
100
AcDbLine
 62
253
  6
CONTINUOUS
 10
2.95
 20
-14.318
 11
1.65
 21
-13.766
  0
LINE
  5
2F3
100
AcDbEntity
  8
0
100
AcDbLine
 62
253
  6
CONTINUOUS
 10
0.562
 20
-14.938
 11
0.49
 21
-14.906
  0
LINE
  5
2F4
100
AcDbEntity
  8
0
100
AcDbLine
 62
253
  6
CONTINUOUS
 10
-0.098
 20
-13.742
 11
0.05
 21
-13.81
  0
LINE
  5
2F5
100
AcDbEntity
  8
0
100
AcDbLine
 62
253
  6
CONTINUOUS
 10
0.49
 20
-14.906
 11
0.338
 21
-14.836
  0
LINE
  5
2F6
100
AcDbEntity
  8
0
100
AcDbLine
 62
253
  6
CONTINUOUS
 10
0.492
 20
-12.692
 11
0.34
 21
-12.62
  0
LINE
  5
2F7
100
AcDbEntity
  8
0
100
AcDbLine
 62
253
  6
CONTINUOUS
 10
0.902
 20
-13.17
 11
0.744
 21
-13.092
  0
LINE
  5
2F8
100
AcDbEntity
  8
0
100
AcDbLine
 62
253
  6
CONTINUOUS
 10
0.894
 20
-15.37
 11
0.81
 21
-15.328
  0
LINE
  5
2F9
100
AcDbEntity
  8
0
100
AcDbLine
 62
253
  6
CONTINUOUS
 10
0.214
 20
-15.41
 11
0.138
 21
-15.37
  0
LINE
  5
2FA
100
AcDbEntity
  8
0
100
AcDbLine
 62
253
  6
CONTINUOUS
 10
0.338
 20
-14.836
 11
0.214
 21
-14.77
  0
LINE
  5
2FB
100
AcDbEntity
  8
0
100
AcDbLine
 62
253
  6
CONTINUOUS
 10
0.214
 20
-14.77
 11
-0.252
 21
-14.474
  0
LINE
  5
2FC
100
AcDbEntity
  8
0
100
AcDbLine
 62
253
  6
CONTINUOUS
 10
-0.178
 20
-15.914
 11
-0.12
 21
-15.972
  0
LINE
  5
2FD
100
AcDbEntity
  8
CURVE
100
AcDbLine
 62
253
  6
CONTINUOUS
 10
-9.457831
 20
-12.785664
 11
-9.457831
 21
-13.390935
  0
LINE
  5
2FE
100
AcDbEntity
  8
CURVE
100
AcDbLine
 62
253
  6
CONTINUOUS
 10
-9.457657
 20
-16.00026
 11
-9.457657
 21
-15.342748
  0
LINE
  5
2FF
100
AcDbEntity
  8
CURVE
100
AcDbLine
 62
253
  6
CONTINUOUS
 10
-9.457657
 20
-14.22041
 11
-9.457657
 21
-13.615552
  0
LINE
  5
300
100
AcDbEntity
  8
CURVE
100
AcDbLine
 62
253
  6
CONTINUOUS
 10
-9.457657
 20
-12.198005
 11
-9.457657
 21
-11.593234
  0
LINE
  5
301
100
AcDbEntity
  8
CURVE
100
AcDbLine
 62
253
  6
CONTINUOUS
 10
-9.457657
 20
-10.389084
 11
-9.457657
 21
-9.790227
  0
LINE
  5
302
100
AcDbEntity
  8
CURVE
100
AcDbLine
 62
253
  6
CONTINUOUS
 10
-9.457657
 20
-8.514517
 11
-9.457657
 21
-7.92899
  0
LINE
  5
303
100
AcDbEntity
  8
CURVE
100
AcDbLine
 62
253
  6
CONTINUOUS
 10
-9.450001
 20
14.991935
 11
-9.450001
 21
14.252884
  0
LINE
  5
304
100
AcDbEntity
  8
CURVE
100
AcDbLine
 62
253
  6
CONTINUOUS
 10
-9.450001
 20
8.9669
 11
-9.450001
 21
8.227849
  0
LINE
  5
305
100
AcDbEntity
  8
CURVE
100
AcDbLine
 62
253
  6
CONTINUOUS
 10
-9.450001
 20
2.70079
 11
-9.450001
 21
3.5882162617
  0
LINE
  5
306
100
AcDbEntity
  8
CURVE
100
AcDbLine
 62
253
  6
CONTINUOUS
 10
-9.450001
 20
5.171133
 11
-9.450001
 21
5.793739
  0
LINE
  5
307
100
AcDbEntity
  8
CURVE
100
AcDbLine
 62
253
  6
CONTINUOUS
 10
-9.450001
 20
10.292325
 11
-9.450001
 21
11.216139
  0
LINE
  5
308
100
AcDbEntity
  8
CURVE
100
AcDbLine
 62
253
  6
CONTINUOUS
 10
-9.450001
 20
12.328754
 11
-9.450001
 21
12.911198
  0
LINE
  5
309
100
AcDbEntity
  8
CURVE
100
AcDbLine
 62
253
  6
CONTINUOUS
 10
-8.968068
 20
3.6866115557
 11
-8.968068
 21
3.323396
  0
LINE
  5
30A
100
AcDbEntity
  8
CURVE
100
AcDbLine
 62
253
  6
CONTINUOUS
 10
-9.4456206277
 20
3.7160098789
 11
-9.450001
 21
3.5882162617
  0
LWPOLYLINE
  5
30B
100
AcDbEntity
  8
RACCORDO
100
AcDbPolyline
 62
253
  6
CONTINUOUS
 90
6
 70
0
 10
-12.2985455672
 20
-24.495628166
 10
-12.2983717746
 20
-24.4935809537
 10
-12.2982237093
 20
-24.487418411
 10
-12.2981044139
 20
-24.4771587093
 10
-12.2980163675
 20
-24.4628554777
 10
-12.2979599204
 20
-24.3984384314
  0
LWPOLYLINE
  5
30C
100
AcDbEntity
  8
CURVE
100
AcDbPolyline
 62
253
  6
CONTINUOUS
 90
3
 70
0
 10
-8.9644572477
 20
3.7179677521
 10
-8.9661681049
 20
3.7024576756
 10
-8.968068
 20
3.6866115557
  0
LINE
  5
30D
100
AcDbEntity
  8
CURVE
100
AcDbLine
 62
253
  6
CONTINUOUS
 10
-7.164639
 20
9.139549
 11
-6.55
 21
9.348431
  0
LINE
  5
30E
100
AcDbEntity
  8
CURVE
100
AcDbLine
 62
253
  6
CONTINUOUS
 10
-8.895841
 20
8.581471
 11
-7.646572
 21
8.982943
  0
LINE
  5
30F
100
AcDbEntity
  8
CURVE
100
AcDbLine
 62
253
  6
CONTINUOUS
 10
6.65
 20
13.1213326721
 11
7.95
 21
13.5373338623
  0
LINE
  5
310
100
AcDbEntity
  8
0
100
AcDbLine
 62
253
  6
CONTINUOUS
 10
0.706
 20
-10.886
 11
0.606
 21
-10.9
  0
LINE
  5
311
100
AcDbEntity
  8
0
100
AcDbLine
 62
253
  6
CONTINUOUS
 10
-3.822
 20
-10.354
 11
-3.75
 21
-10.344
  0
LINE
  5
312
100
AcDbEntity
  8
0
100
AcDbLine
 62
253
  6
CONTINUOUS
 10
0.044
 20
-10.922
 11
-0.048
 21
-10.93
  0
LINE
  5
313
100
AcDbEntity
  8
CURVE
100
AcDbLine
 62
253
  6
CONTINUOUS
 10
-6.558004
 20
-10.111193
 11
-8.44353
 21
-10.235548
  0
LINE
  5
314
100
AcDbEntity
  8
0
100
AcDbLine
 62
253
  6
CONTINUOUS
 10
2.95
 20
-11.208
 11
2.38
 21
-11.208
  0
LINE
  5
315
100
AcDbEntity
  8
0
100
AcDbLine
 62
253
  6
CONTINUOUS
 10
-2.766
 20
-11.1
 11
-4.066
 21
-11.1
  0
LINE
  5
316
100
AcDbEntity
  8
0
100
AcDbLine
 62
253
  6
CONTINUOUS
 10
1.05
 20
-9.32
 11
-0.25
 21
-9.32
  0
LINE
  5
317
100
AcDbEntity
  8
0
100
AcDbLine
 62
253
  6
CONTINUOUS
 10
0.812
 20
-10.898
 11
0.706
 21
-10.886
  0
LINE
  5
318
100
AcDbEntity
  8
0
100
AcDbLine
 62
253
  6
CONTINUOUS
 10
-3.846
 20
-8.562
 11
-3.784
 21
-8.572
  0
LINE
  5
319
100
AcDbEntity
  8
0
100
AcDbLine
 62
253
  6
CONTINUOUS
 10
-3.75
 20
-10.344
 11
-3.664
 21
-10.36
  0
LINE
  5
31A
100
AcDbEntity
  8
0
100
AcDbLine
 62
253
  6
CONTINUOUS
 10
0.14
 20
-10.94
 11
0.044
 21
-10.922
  0
LINE
  5
31B
100
AcDbEntity
  8
CURVE
100
AcDbLine
 62
253
  6
CONTINUOUS
 10
-8.660906
 20
-8.233126
 11
-7.584808
 21
-8.5345
  0
LINE
  5
31C
100
AcDbEntity
  8
CURVE
100
AcDbLine
 62
253
  6
CONTINUOUS
 10
-7.136878
 20
-8.658312
 11
-6.558004
 21
-8.825329
  0
LINE
  5
31D
100
AcDbEntity
  8
CURVE
100
AcDbLine
 62
253
  6
CONTINUOUS
 10
-6.558004
 20
-9.424033
 11
-9.457657
 21
-8.514517
  0
LINE
  5
31E
100
AcDbEntity
  8
0
100
AcDbLine
 62
253
  6
CONTINUOUS
 10
-3.664
 20
-10.36
 11
-3.602
 21
-10.382
  0
LINE
  5
31F
100
AcDbEntity
  8
0
100
AcDbLine
 62
253
  6
CONTINUOUS
 10
0.76
 20
-11.97
 11
0.856
 21
-12.006
  0
LINE
  5
320
100
AcDbEntity
  8
0
100
AcDbLine
 62
253
  6
CONTINUOUS
 10
0.896
 20
-10.94
 11
0.812
 21
-10.898
  0
LINE
  5
321
100
AcDbEntity
  8
0
100
AcDbLine
 62
253
  6
CONTINUOUS
 10
-3.936
 20
-8.516
 11
-3.846
 21
-8.562
  0
LINE
  5
322
100
AcDbEntity
  8
0
100
AcDbLine
 62
253
  6
CONTINUOUS
 10
0.34
 20
-12.62
 11
0.216
 21
-12.556
  0
LINE
  5
323
100
AcDbEntity
  8
0
100
AcDbLine
 62
253
  6
CONTINUOUS
 10
0.216
 20
-10.98
 11
0.14
 21
-10.94
  0
LINE
  5
324
100
AcDbEntity
  8
0
100
AcDbLine
 62
253
  6
CONTINUOUS
 10
0.216
 20
-12.556
 11
-0.25
 21
-12.26
  0
LINE
  5
325
100
AcDbEntity
  8
0
100
AcDbLine
 62
253
  6
CONTINUOUS
 10
-3.602
 20
-10.382
 11
-3.574
 21
-10.4
  0
LINE
  5
326
100
AcDbEntity
  8
0
100
AcDbLine
 62
253
  6
CONTINUOUS
 10
0.854
 20
-14.222
 11
0.942
 21
-14.284
  0
LINE
  5
327
100
AcDbEntity
  8
0
100
AcDbLine
 62
253
  6
CONTINUOUS
 10
0.856
 20
-12.006
 11
0.944
 21
-12.068
  0
LINE
  5
328
100
AcDbEntity
  8
0
100
AcDbLine
 62
253
  6
CONTINUOUS
 10
-3.574
 20
-10.4
 11
-3.534
 21
-10.434
  0
LINE
  5
329
100
AcDbEntity
  8
0
100
AcDbLine
 62
253
  6
CONTINUOUS
 10
0.962
 20
-15.428
 11
0.894
 21
-15.37
  0
LINE
  5
32A
100
AcDbEntity
  8
0
100
AcDbLine
 62
253
  6
CONTINUOUS
 10
0.278
 20
-15.474
 11
0.214
 21
-15.41
  0
LINE
  5
32B
100
AcDbEntity
  8
0
100
AcDbLine
 62
253
  6
CONTINUOUS
 10
-0.214
 20
-13.618
 11
-0.098
 21
-13.742
  0
LINE
  5
32C
100
AcDbEntity
  8
0
100
AcDbLine
 62
253
  6
CONTINUOUS
 10
-3.534
 20
-10.434
 11
-3.5
 21
-10.474
  0
LWPOLYLINE
  5
32D
100
AcDbEntity
  8
CURVE
100
AcDbPolyline
 62
253
  6
CONTINUOUS
 90
26
 70
0
 10
-8.9636722583
 20
-6.2788012718
 10
-8.9673165908
 20
-6.2569245626
 10
-8.9707663666
 20
-6.2350904505
 10
-8.9740049141
 20
-6.2133077374
 10
-8.9770165241
 20
-6.1915776136
 10
-8.9797893376
 20
-6.1698708227
 10
-8.9823124576
 20
-6.1481504963
 10
-8.9845735112
 20
-6.1263828094
 10
-8.9865542196
 20
-6.1045461101
 10
-8.9882348278
 20
-6.0826217898
 10
-8.9892866919
 20
-6.0661093101
 10
-8.9901516987
 20
-6.0495259622
 10
-8.9908229096
 20
-6.0328606323
 10
-8.9912933859
 20
-6.0161022061
 10
-8.9915574895
 20
-5.9992401516
 10
-8.9916147852
 20
-5.9822662629
 10
-8.9914661385
 20
-5.965172916
 10
-8.9911124149
 20
-5.9479524868
 10
-8.9905539485
 20
-5.9305969186
 10
-8.989788948
 20
-5.9130964235
 10
-8.9888150908
 20
-5.8954407809
 10
-8.9876300544
 20
-5.8776197705
 10
-8.986231669
 20
-5.8596254848
 10
-8.9846183765
 20
-5.8414592701
 10
-8.9827887715
 20
-5.8231247857
 10
-8.9807414485
 20
-5.804625691
  0
LINE
  5
32E
100
AcDbEntity
  8
CURVE
100
AcDbLine
 62
253
  6
CONTINUOUS
 10
-8.1569318325
 20
3.762420796
 11
-8.1523062897
 21
3.7179769619
  0
LINE
  5
32F
100
AcDbEntity
  8
CURVE
100
AcDbLine
 62
253
  6
CONTINUOUS
 10
-7.6711397481
 20
3.7159511804
 11
-7.666762
 21
3.5882280105
  0
LINE
  5
330
100
AcDbEntity
  8
CURVE
100
AcDbLine
 62
253
  6
CONTINUOUS
 10
-8.1676609012
 20
-5.9328946758
 11
-8.1676609012
 21
-6.2788012718
  0
LINE
  5
331
100
AcDbEntity
  8
CURVE
100
AcDbLine
 62
253
  6
CONTINUOUS
 10
-8.148695
 20
3.323396
 11
-8.148695
 21
3.686615015
  0
LINE
  5
332
100
AcDbEntity
  8
CURVE
100
AcDbLine
 62
253
  6
CONTINUOUS
 10
-7.692767762
 20
-6.2587313832
 11
-7.692767762
 21
-5.9341993273
  0
LINE
  5
333
100
AcDbEntity
  8
CURVE
100
AcDbLine
 62
253
  6
CONTINUOUS
 10
-7.666762
 20
3.5882280105
 11
-7.666762
 21
3.323396
  0
LINE
  5
334
100
AcDbEntity
  8
CURVE
100
AcDbLine
 62
253
  6
CONTINUOUS
 10
-7.646572
 20
15.007869
 11
-7.646572
 21
14.176491
  0
LINE
  5
335
100
AcDbEntity
  8
CURVE
100
AcDbLine
 62
253
  6
CONTINUOUS
 10
-7.646572
 20
8.982943
 11
-7.646572
 21
8.151456
  0
LINE
  5
336
100
AcDbEntity
  8
CURVE
100
AcDbLine
 62
253
  6
CONTINUOUS
 10
-7.584808
 20
-8.5345
 11
-7.584808
 21
-7.954996
  0
LINE
  5
337
100
AcDbEntity
  8
CURVE
100
AcDbLine
 62
253
  6
CONTINUOUS
 10
-7.164639
 20
7.990812
 11
-7.164639
 21
9.139549
  0
LINE
  5
338
100
AcDbEntity
  8
CURVE
100
AcDbLine
 62
253
  6
CONTINUOUS
 10
-7.164639
 20
14.015846
 11
-7.164639
 21
15.164584
  0
LINE
  5
339
100
AcDbEntity
  8
CORPO
100
AcDbLine
 62
7
  6
CONTINUOUS
 10
-7.15
 20
-19.7285073661
 11
-7.15
 21
-19.7
  0
LINE
  5
33A
100
AcDbEntity
  8
ASSI
100
AcDbLine
 62
7
  6
CONTINUOUS
 10
-7.15
 20
-19.7285073661
 11
-7.15
 21
-19.7
  0
LINE
  5
33B
100
AcDbEntity
  8
CORPO
100
AcDbLine
 62
7
  6
CONTINUOUS
 10
-7.15
 20
19.7
 11
-7.15
 21
19.7285073661
  0
LINE
  5
33C
100
AcDbEntity
  8
ASSI
100
AcDbLine
 62
7
  6
CONTINUOUS
 10
-7.15
 20
19.7
 11
-7.15
 21
19.7285073661
  0
LINE
  5
33D
100
AcDbEntity
  8
CURVE
100
AcDbLine
 62
253
  6
CONTINUOUS
 10
-7.136878
 20
-7.834033
 11
-7.136878
 21
-8.658312
  0
LINE
  5
33E
100
AcDbEntity
  8
CURVE
100
AcDbLine
 62
253
  6
CONTINUOUS
 10
-7.031933
 20
5.793739
 11
-7.031933
 21
6.866738
  0
LWPOLYLINE
  5
33F
100
AcDbEntity
  8
CURVE
100
AcDbPolyline
 62
253
  6
CONTINUOUS
 90
49
 70
0
 10
-7.692767762
 20
-5.9341993273
 10
-7.6926583845
 20
-5.9254017461
 10
-7.6923329102
 20
-5.9166684361
 10
-7.6917953262
 20
-5.9079980446
 10
-7.6910496197
 20
-5.899389219
 10
-7.6900997779
 20
-5.8908406066
 10
-7.6886309008
 20
-5.8802392088
 10
-7.6868535779
 20
-5.8697376602
 10
-7.6847720949
 20
-5.8593438401
 10
-7.6823907374
 20
-5.8490656279
 10
-7.6797133383
 20
-5.83891075
 10
-7.6767419197
 20
-5.8288863194
 10
-7.6734780506
 20
-5.8189992958
 10
-7.6699233001
 20
-5.8092566392
 10
-7.6660794664
 20
-5.7996653424
 10
-7.661949263
 20
-5.7902325307
 10
-7.6575356322
 20
-5.7809653624
 10
-7.6528415163
 20
-5.7718709959
 10
-7.6478689045
 20
-5.7629534534
 10
-7.6426159718
 20
-5.7542042129
 10
-7.63707994
 20
-5.7456116167
 10
-7.6312580309
 20
-5.7371640066
 10
-7.6263920446
 20
-5.7305031233
 10
-7.6213353339
 20
-5.7239254943
 10
-7.6160819141
 20
-5.7174290442
 10
-7.6106258005
 20
-5.7110116972
 10
-7.6049610082
 20
-5.7046713777
 10
-7.5990812204
 20
-5.6984066357
 10
-7.5929787918
 20
-5.6922185238
 10
-7.5866457449
 20
-5.6861087205
 10
-7.5800741022
 20
-5.680078904
 10
-7.5732558863
 20
-5.6741307525
 10
-7.5661836951
 20
-5.6682660978
 10
-7.5588524289
 20
-5.6624873845
 10
-7.551257563
 20
-5.6567972105
 10
-7.5433945733
 20
-5.6511981738
 10
-7.5352589351
 20
-5.6456928723
 10
-7.5282672233
 20
-5.6411786061
 10
-7.5210775559
 20
-5.636732786
 10
-7.5136844582
 20
-5.6323569599
 10
-7.5060824556
 20
-5.6280526758
 10
-7.4982660735
 20
-5.6238214819
 10
-7.4902298374
 20
-5.6196649259
 10
-7.4819691274
 20
-5.6155851688
 10
-7.473482742
 20
-5.6115868224
 10
-7.4647703346
 20
-5.6076751112
 10
-7.4558315586
 20
-5.6038552599
 10
-7.4466660671
 20
-5.6001324932
 10
-7.4372735135
 20
-5.5965120355
  0
LWPOLYLINE
  5
340
100
AcDbEntity
  8
CURVE
100
AcDbPolyline
 62
253
  6
CONTINUOUS
 90
49
 70
0
 10
-8.9807414485
 20
-5.804625691
 10
-8.9791965212
 20
-5.7928324619
 10
-8.9772993828
 20
-5.7810518059
 10
-8.9750451745
 20
-5.7692702792
 10
-8.9724290376
 20
-5.7574744382
 10
-8.9694483319
 20
-5.7456599198
 10
-8.966109291
 20
-5.7338586835
 10
-8.9624203674
 20
-5.7221117693
 10
-8.9583900132
 20
-5.7104602172
 10
-8.9540274793
 20
-5.6989423233
 10
-8.9493452117
 20
-5.687585408
 10
-8.9443564547
 20
-5.6764140476
 10
-8.9390744527
 20
-5.6654528187
 10
-8.9335136424
 20
-5.6547259642
 10
-8.9276932278
 20
-5.6442563945
 10
-8.9216336054
 20
-5.6340666865
 10
-8.9153551712
 20
-5.6241794173
 10
-8.908875679
 20
-5.6146126263
 10
-8.902202312
 20
-5.6053662027
 10
-8.8953396107
 20
-5.5964354984
 10
-8.8882921159
 20
-5.5878158651
 10
-8.8810636064
 20
-5.5795027728
 10
-8.8736548147
 20
-5.5714921646
 10
-8.8660657116
 20
-5.563780102
 10
-8.858296268
 20
-5.5563626462
 10
-8.85034621
 20
-5.5492352364
 10
-8.8422142854
 20
-5.5423908226
 10
-8.8338989975
 20
-5.5358217322
 10
-8.8253988494
 20
-5.5295202929
 10
-8.8167113759
 20
-5.5234799876
 10
-8.8078302392
 20
-5.5176989205
 10
-8.7987481328
 20
-5.5121763513
 10
-8.7894577503
 20
-5.5069115394
 10
-8.7799544144
 20
-5.5019055459
 10
-8.7702439619
 20
-5.4971666378
 10
-8.760334859
 20
-5.4927048837
 10
-8.7502355714
 20
-5.488530352
 10
-8.7399550836
 20
-5.4846520886
 10
-8.7295044538
 20
-5.4810750489
 10
-8.718895259
 20
-5.4778031656
 10
-8.7081390759
 20
-5.4748403712
 10
-8.6972480535
 20
-5.4721905542
 10
-8.6862366296
 20
-5.4698574263
 10
-8.675119814
 20
-5.4678446549
 10
-8.6639126168
 20
-5.4661559074
 10
-8.6526266972
 20
-5.4647949374
 10
-8.6412603129
 20
-5.4637658438
 10
-8.629808371
 20
-5.4630728117
 10
-8.6182657786
 20
-5.4627200261
  0
LWPOLYLINE
  5
341
100
AcDbEntity
  8
CURVE
100
AcDbPolyline
 62
253
  6
CONTINUOUS
 90
42
 70
0
 10
-9.3932505027
 20
-5.3678501192
 10
-9.4014297462
 20
-5.3912267484
 10
-9.4093792284
 20
-5.4154971071
 10
-9.4170720051
 20
-5.4406706881
 10
-9.4244811318
 20
-5.4667569841
 10
-9.4315807093
 20
-5.4937653297
 10
-9.438349019
 20
-5.5217044274
 10
-9.4447653873
 20
-5.5505828219
 10
-9.4508091405
 20
-5.5804090575
 10
-9.4564616211
 20
-5.611193578
 10
-9.4617122358
 20
-5.6429544234
 10
-9.4665524072
 20
-5.6757115333
 10
-9.4709735579
 20
-5.7094848469
 10
-9.4749673118
 20
-5.7442915195
 10
-9.4785260968
 20
-5.7801375695
 10
-9.4816425422
 20
-5.8170262312
 10
-9.484309277
 20
-5.8549607389
 10
-9.4861128757
 20
-5.8860653042
 10
-9.4876139026
 20
-5.9178535965
 10
-9.4888023179
 20
-5.9503379314
 10
-9.489668082
 20
-5.9835306245
 10
-9.490201155
 20
-6.0174439914
 10
-9.490393082
 20
-6.0520896351
 10
-9.490241746
 20
-6.0874763081
 10
-9.4897466147
 20
-6.1236120503
 10
-9.4889071558
 20
-6.1605049016
 10
-9.487722837
 20
-6.1981629018
 10
-9.4861918857
 20
-6.2365943755
 10
-9.484307568
 20
-6.275808786
 10
-9.4820619099
 20
-6.3158158812
 10
-9.4794469371
 20
-6.3566254091
 10
-9.4764546754
 20
-6.3982471176
 10
-9.473076737
 20
-6.4406914479
 10
-9.4693030787
 20
-6.4839716139
 10
-9.4651232435
 20
-6.5281015227
 10
-9.4605267746
 20
-6.5730950815
 10
-9.4555032149
 20
-6.6189661973
 10
-9.4500434378
 20
-6.6657255411
 10
-9.4441436377
 20
-6.7133708384
 10
-9.4378013395
 20
-6.7618965784
 10
-9.4310140678
 20
-6.8112972507
 10
-9.4237793474
 20
-6.8615673444
  0
LINE
  5
342
100
AcDbEntity
  8
CURVE
100
AcDbLine
 62
253
  6
CONTINUOUS
 10
6.65
 20
14.8893328705
 11
7.2071428239
 21
15.3053326721
  0
LWPOLYLINE
  5
343
100
AcDbEntity
  8
CURVE
100
AcDbPolyline
 62
253
  6
CONTINUOUS
 90
47
 70
0
 10
-8.9175111898
 20
4.725676616
 10
-8.9359647128
 20
4.7187314556
 10
-8.9597840818
 20
4.708966782
 10
-8.982742535
 20
4.6986465089
 10
-9.0048739118
 20
4.6877924538
 10
-9.0262156559
 20
4.6764197133
 10
-9.0468196272
 20
4.6645164988
 10
-9.0667412895
 20
4.6520643004
 10
-9.0860318139
 20
4.6390428252
 10
-9.1047251994
 20
4.6254246472
 10
-9.1228511525
 20
4.6111805572
 10
-9.1404429095
 20
4.5962802792
 10
-9.1575478269
 20
4.5806892696
 10
-9.1742167911
 20
4.5643719179
 10
-9.1904900657
 20
4.5472978214
 10
-9.2063654228
 20
4.5294574096
 10
-9.2218300114
 20
4.5108463196
 10
-9.2368764173
 20
4.4914478078
 10
-9.2515189724
 20
4.471195607
 10
-9.2657774453
 20
4.450011069
 10
-9.2762322659
 20
4.4334553384
 10
-9.2864972667
 20
4.4162487347
 10
-9.2965875546
 20
4.3983090638
 10
-9.3065182362
 20
4.379554132
 10
-9.3162945141
 20
4.3599199381
 10
-9.3258819754
 20
4.3394152523
 10
-9.335236303
 20
4.3180670377
 10
-9.3443131798
 20
4.2959022573
 10
-9.3530669766
 20
4.2729790177
 10
-9.361446816
 20
4.2494799987
 10
-9.3694005086
 20
4.225619024
 10
-9.376875865
 20
4.201609917
 10
-9.3860366021
 20
4.169677111
 10
-9.3942977415
 20
4.1380090903
 10
-9.4017028426
 20
4.1067538558
 10
-9.4082998597
 20
4.0760225401
 10
-9.4141543271
 20
4.0457788021
 10
-9.4193361743
 20
4.0159494324
 10
-9.4239099831
 20
3.986467215
 10
-9.427918944
 20
3.9572889074
 10
-9.4314009003
 20
3.9283772609
 10
-9.4343963643
 20
3.8996936122
 10
-9.4369565269
 20
3.8711936413
 10
-9.4391352486
 20
3.8428316138
 10
-9.4418044512
 20
3.8004599055
 10
-9.4439093897
 20
3.7582177113
 10
-9.4456206277
 20
3.7160098789
  0
LWPOLYLINE
  5
344
100
AcDbEntity
  8
CURVE
100
AcDbPolyline
 62
253
  6
CONTINUOUS
 90
16
 70
0
 10
-8.9175111898
 20
4.725676616
 10
-8.8985181088
 20
4.7322841279
 10
-8.8789492121
 20
4.73854114
 10
-8.8587682416
 20
4.744434801
 10
-8.8379412506
 20
4.7499522815
 10
-8.8164435377
 20
4.755080839
 10
-8.7942527123
 20
4.7598077529
 10
-8.7713463843
 20
4.7641203024
 10
-8.7476984275
 20
4.7680046721
 10
-8.7232677723
 20
4.7714426673
 10
-8.6980096133
 20
4.7744149984
 10
-8.6718791452
 20
4.7769023759
 10
-8.6448415065
 20
4.7788841077
 10
-8.6169016113
 20
4.7803338919
 10
-8.5880743175
 20
4.7812240242
 10
-8.5583744831
 20
4.7815268003
  0
LWPOLYLINE
  5
345
100
AcDbEntity
  8
CURVE
100
AcDbPolyline
 62
253
  6
CONTINUOUS
 90
44
 70
0
 10
-8.7283982253
 20
4.0958064083
 10
-8.7395765299
 20
4.0919489981
 10
-8.7504721038
 20
4.0878347811
 10
-8.7610812049
 20
4.0834783831
 10
-8.7714003597
 20
4.0788941809
 10
-8.7814271665
 20
4.0740955565
 10
-8.7911594918
 20
4.0690956431
 10
-8.8005952019
 20
4.0639075738
 10
-8.8097279432
 20
4.0585466158
 10
-8.8185344805
 20
4.053036573
 10
-8.8269873586
 20
4.047403383
 10
-8.8350591224
 20
4.0416729835
 10
-8.8427301106
 20
4.0358667958
 10
-8.850011839
 20
4.0299881737
 10
-8.8569236173
 20
4.0240359549
 10
-8.8634847555
 20
4.0180089765
 10
-8.869714274
 20
4.0119029445
 10
-8.875630036
 20
4.0057010379
 10
-8.8812496156
 20
3.9993833043
 10
-8.8865905867
 20
3.9929297911
 10
-8.891671402
 20
3.9863198013
 10
-8.8965140296
 20
3.9795296587
 10
-8.9011413165
 20
3.9725349427
 10
-8.9055761097
 20
3.9653112326
 10
-8.9098385263
 20
3.9578348772
 10
-8.9139377651
 20
3.9500853034
 10
-8.917880295
 20
3.9420427077
 10
-8.9216725851
 20
3.9336872865
 10
-8.925319588
 20
3.9249988135
 10
-8.928820191
 20
3.9159553715
 10
-8.9321717651
 20
3.9065346204
 10
-8.9353716814
 20
3.8967142203
 10
-8.9384163725
 20
3.8864767137
 10
-8.9412985181
 20
3.8758241734
 10
-8.9440098599
 20
3.8647635551
 10
-8.9465421391
 20
3.8533018141
 10
-8.948890514
 20
3.8414459165
 10
-8.9510638099
 20
3.8292028698
 10
-8.9530742688
 20
3.8165796921
 10
-8.9549341326
 20
3.8035834016
 10
-8.9566593604
 20
3.7902200682
 10
-8.9582807781
 20
3.7764919702
 10
-8.9598329287
 20
3.7624004376
 10
-8.9644572477
 20
3.7179677521
  0
LINE
  5
346
100
AcDbEntity
  8
0
100
AcDbLine
 62
253
  6
CONTINUOUS
 10
-1.338
 20
-7.628
 11
-1.5
 21
-7.65
  0
LINE
  5
347
100
AcDbEntity
  8
0
100
AcDbLine
 62
253
  6
CONTINUOUS
 10
-3.17
 20
-7.884
 11
-3.076
 21
-7.874
  0
LINE
  5
348
100
AcDbEntity
  8
CURVE
100
AcDbLine
 62
253
  6
CONTINUOUS
 10
-9.457657
 20
-9.790227
 11
-6.558004
 21
-9.519077
  0
LINE
  5
349
100
AcDbEntity
  8
0
100
AcDbLine
 62
253
  6
CONTINUOUS
 10
-3.7013105843
 20
-8.565607917
 11
-3.66
 21
-8.562
  0
LINE
  5
34A
100
AcDbEntity
  8
0
100
AcDbLine
 62
253
  6
CONTINUOUS
 10
-3.7426435735
 20
-8.5689412226
 11
-3.7013105843
 21
-8.565607917
  0
LINE
  5
34B
100
AcDbEntity
  8
0
100
AcDbLine
 62
253
  6
CONTINUOUS
 10
-3.784
 20
-8.572
 11
-3.7426435735
 21
-8.5689412226
  0
LINE
  5
34C
100
AcDbEntity
  8
0
100
AcDbLine
 62
253
  6
CONTINUOUS
 10
-0.25
 20
-8.06
 11
1.05
 21
-8.06
  0
LINE
  5
34D
100
AcDbEntity
  8
0
100
AcDbLine
 62
253
  6
CONTINUOUS
 10
-2.152
 20
-8.004
 11
-0.852
 21
-8.004
  0
LINE
  5
34E
100
AcDbEntity
  8
0
100
AcDbLine
 62
253
  6
CONTINUOUS
 10
-2.766
 20
-7.296
 11
-4.066
 21
-7.296
  0
LINE
  5
34F
100
AcDbEntity
  8
CURVE
100
AcDbLine
 62
253
  6
CONTINUOUS
 10
-9.4237793474
 20
-6.8615673444
 11
-6.5580036477
 21
-6.8615673444
  0
LINE
  5
350
100
AcDbEntity
  8
0
100
AcDbLine
 62
253
  6
CONTINUOUS
 10
-1.5
 20
-7.65
 11
-1.646
 21
-7.634
  0
LINE
  5
351
100
AcDbEntity
  8
0
100
AcDbLine
 62
253
  6
CONTINUOUS
 10
-3.75
 20
-6.566
 11
-3.678
 21
-6.576
  0
LINE
  5
352
100
AcDbEntity
  8
0
100
AcDbLine
 62
253
  6
CONTINUOUS
 10
-3.678
 20
-6.576
 11
-3.644
 21
-6.582
  0
LINE
  5
353
100
AcDbEntity
  8
0
100
AcDbLine
 62
253
  6
CONTINUOUS
 10
-3.076
 20
-7.874
 11
-3.002
 21
-7.89
  0
LINE
  5
354
100
AcDbEntity
  8
0
100
AcDbLine
 62
253
  6
CONTINUOUS
 10
-1.646
 20
-7.634
 11
-1.77
 21
-7.594
  0
LINE
  5
355
100
AcDbEntity
  8
0
100
AcDbLine
 62
253
  6
CONTINUOUS
 10
-3.002
 20
-7.89
 11
-2.928
 21
-7.918
  0
LINE
  5
356
100
AcDbEntity
  8
0
100
AcDbLine
 62
253
  6
CONTINUOUS
 10
-0.852
 20
-8.87
 11
-2.152
 21
-8.358
  0
LINE
  5
357
100
AcDbEntity
  8
0
100
AcDbLine
 62
253
  6
CONTINUOUS
 10
-2.766
 20
-6.15
 11
-4.066
 21
-5.6
  0
LINE
  5
358
100
AcDbEntity
  8
0
100
AcDbLine
 62
253
  6
CONTINUOUS
 10
1.026
 20
-8.696
 11
-0.25
 21
-8.156
  0
LINE
  5
359
100
AcDbEntity
  8
0
100
AcDbLine
 62
253
  6
CONTINUOUS
 10
1.05
 20
-7.732
 11
-0.25
 21
-7.18
  0
LINE
  5
35A
100
AcDbEntity
  8
0
100
AcDbLine
 62
253
  6
CONTINUOUS
 10
-1.77
 20
-7.594
 11
-1.832
 21
-7.566
  0
LINE
  5
35B
100
AcDbEntity
  8
0
100
AcDbLine
 62
253
  6
CONTINUOUS
 10
-3.644
 20
-6.582
 11
-3.542
 21
-6.632
  0
LINE
  5
35C
100
AcDbEntity
  8
0
100
AcDbLine
 62
253
  6
CONTINUOUS
 10
2.38
 20
-11.208
 11
1.65
 21
-10.73
  0
LINE
  5
35D
100
AcDbEntity
  8
0
100
AcDbLine
 62
253
  6
CONTINUOUS
 10
-1.832
 20
-7.566
 11
-1.956
 21
-7.482
  0
LINE
  5
35E
100
AcDbEntity
  8
0
100
AcDbLine
 62
253
  6
CONTINUOUS
 10
0.964
 20
-10.998
 11
0.896
 21
-10.94
  0
LINE
  5
35F
100
AcDbEntity
  8
0
100
AcDbLine
 62
253
  6
CONTINUOUS
 10
-2.928
 20
-7.918
 11
-2.9077668494
 21
-7.9364183537
  0
LINE
  5
360
100
AcDbEntity
  8
0
100
AcDbLine
 62
253
  6
CONTINUOUS
 10
-2.9077668494
 20
-7.9364183537
 11
-2.8876672148
 21
-7.9549783402
  0
LINE
  5
361
100
AcDbEntity
  8
0
100
AcDbLine
 62
253
  6
CONTINUOUS
 10
-2.8876672148
 20
-7.9549783402
 11
-2.8677008259
 21
-7.9736801942
  0
LWPOLYLINE
  5
362
100
AcDbEntity
  8
0
100
AcDbPolyline
 62
253
  6
CONTINUOUS
 90
3
 70
0
 10
-2.8677008259
 20
-7.9736801942
 10
-2.8478670986
 20
-7.9925244692
 10
-2.838
 20
-8.002
  0
LINE
  5
363
100
AcDbEntity
  8
0
100
AcDbLine
 62
253
  6
CONTINUOUS
 10
-3.964
 20
-8.488
 11
-3.936
 21
-8.516
  0
LINE
  5
364
100
AcDbEntity
  8
0
100
AcDbLine
 62
253
  6
CONTINUOUS
 10
-0.176
 20
-11.484
 11
-0.118
 21
-11.542
  0
LINE
  5
365
100
AcDbEntity
  8
0
100
AcDbLine
 62
253
  6
CONTINUOUS
 10
0.28
 20
-11.044
 11
0.216
 21
-10.98
  0
LINE
  5
366
100
AcDbEntity
  8
0
100
AcDbLine
 62
253
  6
CONTINUOUS
 10
-1.956
 20
-7.482
 11
-1.996
 21
-7.442
  0
LINE
  5
367
100
AcDbEntity
  8
0
100
AcDbLine
 62
253
  6
CONTINUOUS
 10
1.02
 20
-13.292
 11
0.902
 21
-13.17
  0
LINE
  5
368
100
AcDbEntity
  8
0
100
AcDbLine
 62
253
  6
CONTINUOUS
 10
-3.998
 20
-8.448
 11
-3.964
 21
-8.488
  0
LINE
  5
369
100
AcDbEntity
  8
0
100
AcDbLine
 62
253
  6
CONTINUOUS
 10
0.942
 20
-14.284
 11
1.004
 21
-14.364
  0
LINE
  5
36A
100
AcDbEntity
  8
0
100
AcDbLine
 62
253
  6
CONTINUOUS
 10
0.944
 20
-12.068
 11
1.006
 21
-12.148
  0
LINE
  5
36B
100
AcDbEntity
  8
0
100
AcDbLine
 62
253
  6
CONTINUOUS
 10
0.328
 20
-15.55
 11
0.278
 21
-15.474
  0
LINE
  5
36C
100
AcDbEntity
  8
0
100
AcDbLine
 62
253
  6
CONTINUOUS
 10
-0.216
 20
-15.856
 11
-0.178
 21
-15.914
  0
LINE
  5
36D
100
AcDbEntity
  8
0
100
AcDbLine
 62
253
  6
CONTINUOUS
 10
-3.484
 20
-10.512
 11
-3.466
 21
-10.54
  0
LINE
  5
36E
100
AcDbEntity
  8
0
100
AcDbLine
 62
253
  6
CONTINUOUS
 10
1.014
 20
-15.516
 11
0.962
 21
-15.428
  0
LINE
  5
36F
100
AcDbEntity
  8
0
100
AcDbLine
 62
253
  6
CONTINUOUS
 10
0.39
 20
-14.826
 11
0.344
 21
-14.744
  0
LINE
  5
370
100
AcDbEntity
  8
0
100
AcDbLine
 62
253
  6
CONTINUOUS
 10
-4.054
 20
-8.32
 11
-3.998
 21
-8.448
  0
LINE
  5
371
100
AcDbEntity
  8
0
100
AcDbLine
 62
253
  6
CONTINUOUS
 10
-3.5
 20
-10.474
 11
-3.484
 21
-10.512
  0
LWPOLYLINE
  5
372
100
AcDbEntity
  8
CURVE
100
AcDbPolyline
 62
253
  6
CONTINUOUS
 90
98
 70
0
 10
-7.928670494
 20
-5.30544429
 10
-7.9295234698
 20
-5.3006977848
 10
-7.9308846764
 20
-5.2957938744
 10
-7.9327528858
 20
-5.2907260775
 10
-7.9350717744
 20
-5.2855313079
 10
-7.9377732337
 20
-5.2802352864
 10
-7.9407875138
 20
-5.274783494
 10
-7.9440230356
 20
-5.2691335926
 10
-7.9474448586
 20
-5.2632660287
 10
-7.9510648499
 20
-5.2571798813
 10
-7.9549044718
 20
-5.250866677
 10
-7.9589865868
 20
-5.244315218
 10
-7.9633380183
 20
-5.2375157621
 10
-7.967987462
 20
-5.230460115
 10
-7.9729671399
 20
-5.2231448182
 10
-7.9783093456
 20
-5.2155677328
 10
-7.9840431325
 20
-5.2077272635
 10
-7.9901963609
 20
-5.1996209539
 10
-7.9967953574
 20
-5.1912423618
 10
-8.00386631
 20
-5.1825846393
 10
-8.0114363861
 20
-5.1736433048
 10
-8.0195336923
 20
-5.1644131815
 10
-8.028189113
 20
-5.1548839452
 10
-8.0374358665
 20
-5.1450454311
 10
-8.0473137278
 20
-5.1348932592
 10
-8.0578680074
 20
-5.1244250002
 10
-8.0691596003
 20
-5.1136402414
 10
-8.0812543757
 20
-5.1025408018
 10
-8.0942225167
 20
-5.091135409
 10
-8.1081377504
 20
-5.0794362488
 10
-8.1230836663
 20
-5.0674624306
 10
-8.1336629348
 20
-5.0593383847
 10
-8.14476539
 20
-5.0511124792
 10
-8.1564178911
 20
-5.0427956622
 10
-8.1686501091
 20
-5.0343987786
 10
-8.1815029633
 20
-5.0259322597
 10
-8.1950201847
 20
-5.0174064336
 10
-8.2092463082
 20
-5.0088338456
 10
-8.2242290829
 20
-5.0002359108
 10
-8.2400170617
 20
-4.9916362614
 10
-8.2566559345
 20
-4.9830620519
 10
-8.2741799395
 20
-4.9745545259
 10
-8.2926204524
 20
-4.9661584491
 10
-8.3120085888
 20
-4.9579213511
 10
-8.3323744251
 20
-4.9499018167
 10
-8.3537477777
 20
-4.9421611947
 10
-8.3761537181
 20
-4.9347625155
 10
-8.399598337
 20
-4.9277755363
 10
-8.4240829798
 20
-4.9212716959
 10
-8.4431289049
 20
-4.9167541678
 10
-8.4627558737
 20
-4.9125806327
 10
-8.4829591599
 20
-4.9087831336
 10
-8.5037340369
 20
-4.9053937136
 10
-8.5250623381
 20
-4.9024433859
 10
-8.546872137
 20
-4.899959045
 10
-8.5690780671
 20
-4.8979665556
 10
-8.591594762
 20
-4.8964917824
 10
-8.6219513356
 20
-4.8953612967
 10
-8.6524969619
 20
-4.8951735137
 10
-8.6830199853
 20
-4.8959047699
 10
-8.7133270134
 20
-4.8975362264
 10
-8.7432977058
 20
-4.9000683423
 10
-8.7728299848
 20
-4.9035064012
 10
-8.8018230099
 20
-4.9078463438
 10
-8.8301808893
 20
-4.9130467401
 10
-8.8578089679
 20
-4.9190568171
 10
-8.8846393351
 20
-4.9258310466
 10
-8.9107110561
 20
-4.93334488
 10
-8.9360899402
 20
-4.9415790131
 10
-8.9608416218
 20
-4.9505196165
 10
-8.9850310358
 20
-4.9601747575
 10
-9.008722942
 20
-4.9705579781
 10
-9.0319709521
 20
-4.9816803243
 10
-9.0547840847
 20
-4.9935428589
 10
-9.0771602098
 20
-5.006144149
 10
-9.0990967105
 20
-5.0194834694
 10
-9.1205890198
 20
-5.0335629265
 10
-9.1416320837
 20
-5.0483853342
 10
-9.162210446
 20
-5.0639429321
 10
-9.1822670434
 20
-5.0801856617
 10
-9.2017344106
 20
-5.0970528901
 10
-9.2205469154
 20
-5.1144810839
 10
-9.2386462578
 20
-5.1323951082
 10
-9.2559759707
 20
-5.1507169276
 10
-9.2724855129
 20
-5.1693638958
 10
-9.2881480462
 20
-5.1882349216
 10
-9.3029426583
 20
-5.2072243028
 10
-9.3168484576
 20
-5.2262304322
 10
-9.3298446372
 20
-5.245168084
 10
-9.3419104111
 20
-5.2639561275
 10
-9.3503348209
 20
-5.277896596
 10
-9.3582043909
 20
-5.2916515767
 10
-9.3654993264
 20
-5.3051653722
 10
-9.3721998331
 20
-5.3183822854
 10
-9.3782953167
 20
-5.3312572901
 10
-9.3838119844
 20
-5.3437880445
 10
-9.3887852439
 20
-5.3559828778
 10
-9.3932505027
 20
-5.3678501192
  0
LWPOLYLINE
  5
373
100
AcDbEntity
  8
CURVE
100
AcDbPolyline
 62
253
  6
CONTINUOUS
 90
3
 70
0
 10
-8.1523062897
 20
3.7179769619
 10
-8.1505951644
 20
3.702463882
 10
-8.148695
 20
3.686615015
  0
LINE
  5
374
100
AcDbEntity
  8
0
100
AcDbLine
 62
253
  6
CONTINUOUS
 10
-3.438
 20
-10.688
 11
-3.432
 21
-10.744
  0
LINE
  5
375
100
AcDbEntity
  8
CURVE
100
AcDbLine
 62
253
  6
CONTINUOUS
 10
-6.558004
 20
-7.039304
 11
-6.558004
 21
-7.677235
  0
LINE
  5
376
100
AcDbEntity
  8
CURVE
100
AcDbLine
 62
253
  6
CONTINUOUS
 10
-6.558004
 20
-8.825329
 11
-6.558004
 21
-9.424033
  0
LINE
  5
377
100
AcDbEntity
  8
CURVE
100
AcDbLine
 62
253
  6
CONTINUOUS
 10
-6.558004
 20
-9.519077
 11
-6.558004
 21
-10.111193
  0
LINE
  5
378
100
AcDbEntity
  8
CURVE
100
AcDbLine
 62
253
  6
CONTINUOUS
 10
-6.558004
 20
-10.955216
 11
-6.558004
 21
-11.040105
  0
LINE
  5
379
100
AcDbEntity
  8
CURVE
100
AcDbLine
 62
253
  6
CONTINUOUS
 10
-6.558004
 20
-11.880779
 11
-6.558004
 21
-12.459827
  0
LINE
  5
37A
100
AcDbEntity
  8
CURVE
100
AcDbLine
 62
253
  6
CONTINUOUS
 10
-6.558004
 20
-14.547617
 11
-6.558004
 21
-15.081013
  0
LINE
  5
37B
100
AcDbEntity
  8
CURVE
100
AcDbLine
 62
253
  6
CONTINUOUS
 10
-6.558004
 20
-13.390935
 11
-6.558004
 21
-12.785664
  0
LINE
  5
37C
100
AcDbEntity
  8
CURVE
100
AcDbLine
 62
253
  6
CONTINUOUS
 10
-6.5580036477
 20
-6.8615673444
 11
-6.5580036477
 21
-6.2587313832
  0
LINE
  5
37D
100
AcDbEntity
  8
CURVE
100
AcDbLine
 62
253
  6
CONTINUOUS
 10
-6.5580036477
 20
-5.3318417383
 11
-6.5580036477
 21
-4.7496410148
  0
LINE
  5
37E
100
AcDbEntity
  8
CURVE
100
AcDbLine
 62
253
  6
CONTINUOUS
 10
-6.55
 20
12.911198
 11
-6.55
 21
12.027546
  0
LINE
  5
37F
100
AcDbEntity
  8
CURVE
100
AcDbLine
 62
253
  6
CONTINUOUS
 10
-6.55
 20
10.87477
 11
-6.55
 21
10.292325
  0
LINE
  5
380
100
AcDbEntity
  8
CURVE
100
AcDbLine
 62
253
  6
CONTINUOUS
 10
-6.55
 20
6.866738
 11
-6.55
 21
5.171133
  0
LINE
  5
381
100
AcDbEntity
  8
CURVE
100
AcDbLine
 62
253
  6
CONTINUOUS
 10
-6.55
 20
3.323396
 11
-6.55
 21
2.70079
  0
LINE
  5
382
100
AcDbEntity
  8
CURVE
100
AcDbLine
 62
253
  6
CONTINUOUS
 10
-6.55
 20
7.179514
 11
-6.55
 21
7.773964
  0
LINE
  5
383
100
AcDbEntity
  8
CURVE
100
AcDbLine
 62
253
  6
CONTINUOUS
 10
-6.55
 20
9.348431
 11
-6.55
 21
9.975074
  0
LINE
  5
384
100
AcDbEntity
  8
CURVE
100
AcDbLine
 62
253
  6
CONTINUOUS
 10
-6.55
 20
13.20444
 11
-6.55
 21
13.798889
  0
LINE
  5
385
100
AcDbEntity
  8
CURVE
100
AcDbLine
 62
253
  6
CONTINUOUS
 10
-6.55
 20
15.373574
 11
-6.55
 21
16.0
  0
LINE
  5
386
100
AcDbEntity
  8
DRAFT
100
AcDbLine
 62
253
  6
CONTINUOUS
 10
-5.4754801733
 20
-22.3338981669
 11
-5.4754801733
 21
-23.7559327327
  0
LINE
  5
387
100
AcDbEntity
  8
DRAFT
100
AcDbLine
 62
253
  6
CONTINUOUS
 10
-5.4754801733
 20
22.3338981669
 11
-5.4754801733
 21
23.7559327327
  0
LINE
  5
388
100
AcDbEntity
  8
RACCORDO
100
AcDbLine
 62
7
  6
CONTINUOUS
 10
-5.05
 20
-22.3301850577
 11
-5.05
 21
-23.7534573615
  0
LINE
  5
389
100
AcDbEntity
  8
RACCORDO
100
AcDbLine
 62
7
  6
CONTINUOUS
 10
-5.05
 20
22.3301850577
 11
-5.05
 21
23.7534573615
  0
LWPOLYLINE
  5
38A
100
AcDbEntity
  8
CURVE
100
AcDbPolyline
 62
253
  6
CONTINUOUS
 90
14
 70
0
 10
-8.7283982253
 20
4.0958064083
 10
-8.7169409316
 20
4.0993923861
 10
-8.7052078337
 20
4.1026925763
 10
-8.6931998891
 20
4.1056937062
 10
-8.6809174984
 20
4.1083827734
 10
-8.6683610621
 20
4.1107467756
 10
-8.6555316785
 20
4.1127771339
 10
-8.6424332371
 20
4.1144829628
 10
-8.629070325
 20
4.1158777999
 10
-8.6154475293
 20
4.1169751833
 10
-8.6015684011
 20
4.1177901966
 10
-8.5874323465
 20
4.1183441085
 10
-8.5730377355
 20
4.1186597334
 10
-8.5583829382
 20
4.1187598859
  0
LINE
  5
38B
100
AcDbEntity
  8
0
100
AcDbLine
 62
253
  6
CONTINUOUS
 10
-3.868
 20
-6.588
 11
-3.802
 21
-6.57
  0
LINE
  5
38C
100
AcDbEntity
  8
CURVE
100
AcDbLine
 62
253
  6
CONTINUOUS
 10
-6.558004
 20
-7.677235
 11
-7.136878
 21
-7.834033
  0
LINE
  5
38D
100
AcDbEntity
  8
CURVE
100
AcDbLine
 62
253
  6
CONTINUOUS
 10
-7.584808
 20
-7.954996
 11
-8.660906
 21
-8.233126
  0
LINE
  5
38E
100
AcDbEntity
  8
0
100
AcDbLine
 62
253
  6
CONTINUOUS
 10
-0.008
 20
-5.41
 11
0.066
 21
-5.398
  0
LINE
  5
38F
100
AcDbEntity
  8
0
100
AcDbLine
 62
253
  6
CONTINUOUS
 10
0.44
 20
-5.062
 11
0.546
 21
-5.05
  0
LINE
  5
390
100
AcDbEntity
  8
0
100
AcDbLine
 62
253
  6
CONTINUOUS
 10
-3.802
 20
-6.57
 11
-3.75
 21
-6.566
  0
LWPOLYLINE
  5
391
100
AcDbEntity
  8
CURVE
100
AcDbPolyline
 62
253
  6
CONTINUOUS
 90
65
 70
0
 10
-8.6182657786
 20
-5.4627200261
 10
-8.6043543314
 20
-5.4626317338
 10
-8.5907998155
 20
-5.4627957049
 10
-8.5776093028
 20
-5.4632030854
 10
-8.5647898652
 20
-5.4638450213
 10
-8.5523485745
 20
-5.4647126586
 10
-8.5402878597
 20
-5.465797521
 10
-8.5285915783
 20
-5.4670926433
 10
-8.5172389445
 20
-5.4685914379
 10
-8.5062091728
 20
-5.4702873172
 10
-8.4954814776
 20
-5.4721736937
 10
-8.4850368287
 20
-5.4742445128
 10
-8.474863217
 20
-5.476495852
 10
-8.4649503892
 20
-5.4789243217
 10
-8.4552880916
 20
-5.4815265326
 10
-8.4458660706
 20
-5.4842990951
 10
-8.4344095948
 20
-5.4880007823
 10
-8.4232851952
 20
-5.4919662726
 10
-8.4124655369
 20
-5.496198491
 10
-8.4019232849
 20
-5.5007003624
 10
-8.3916353953
 20
-5.5054725587
 10
-8.3815959892
 20
-5.5105067406
 10
-8.3718034783
 20
-5.5157923158
 10
-8.3622562746
 20
-5.5213186919
 10
-8.3529526626
 20
-5.5270762924
 10
-8.3438904164
 20
-5.5330596029
 10
-8.3350671826
 20
-5.5392641246
 10
-8.3264806078
 20
-5.5456853587
 10
-8.3181283139
 20
-5.5523201688
 10
-8.3100078245
 20
-5.5591708672
 10
-8.3021166382
 20
-5.5662411284
 10
-8.2944522539
 20
-5.5735346272
 10
-8.28701299
 20
-5.5810553575
 10
-8.2798004432
 20
-5.5888085914
 10
-8.2728170297
 20
-5.5967999204
 10
-8.2660651659
 20
-5.6050349361
 10
-8.2595437828
 20
-5.6135230046
 10
-8.2532378698
 20
-5.6222885904
 10
-8.2471289313
 20
-5.6313599326
 10
-8.2411984714
 20
-5.6407652704
 10
-8.2365716588
 20
-5.6485494694
 10
-8.2320466444
 20
-5.6565828095
 10
-8.2276228371
 20
-5.6648826015
 10
-8.2232996462
 20
-5.6734661563
 10
-8.2190764805
 20
-5.6823507848
 10
-8.2149542207
 20
-5.6915518945
 10
-8.2109396327
 20
-5.7010772799
 10
-8.2070409538
 20
-5.7109328322
 10
-8.2032664214
 20
-5.7211244425
 10
-8.1996242728
 20
-5.7316580019
 10
-8.1961232027
 20
-5.7425388027
 10
-8.1927737344
 20
-5.7537697408
 10
-8.1895868488
 20
-5.7653531134
 10
-8.1865735265
 20
-5.7772912173
 10
-8.1837447481
 20
-5.7895863496
 10
-8.1811112162
 20
-5.802241137
 10
-8.17868252
 20
-5.8152595248
 10
-8.1764679705
 20
-5.8286457878
 10
-8.1744768787
 20
-5.8424042008
 10
-8.1727185556
 20
-5.8565390388
 10
-8.1712016447
 20
-5.8710536603
 10
-8.1699321186
 20
-5.8859477582
 10
-8.1689152826
 20
-5.901220109
 10
-8.1681564417
 20
-5.9168694894
 10
-8.1676609012
 20
-5.9328946758
  0
LINE
  5
392
100
AcDbEntity
  8
0
100
AcDbLine
 62
253
  6
CONTINUOUS
 10
-2.152
 20
-6.31
 11
-0.852
 21
-6.31
  0
LINE
  5
393
100
AcDbEntity
  8
CURVE
100
AcDbLine
 62
253
  6
CONTINUOUS
 10
-8.1676609012
 20
-6.2788012718
 11
-8.9636722583
 21
-6.2788012718
  0
LINE
  5
394
100
AcDbEntity
  8
CURVE
100
AcDbLine
 62
253
  6
CONTINUOUS
 10
-6.5580036477
 20
-6.2587313832
 11
-7.692767762
 21
-6.2587313832
  0
LINE
  5
395
100
AcDbEntity
  8
0
100
AcDbLine
 62
253
  6
CONTINUOUS
 10
1.05
 20
-6.156
 11
-0.25
 21
-6.156
  0
LINE
  5
396
100
AcDbEntity
  8
CURVE
100
AcDbLine
 62
253
  6
CONTINUOUS
 10
-7.9115360712
 20
-5.30544429
 11
-7.928670494
 21
-5.30544429
  0
LINE
  5
397
100
AcDbEntity
  8
0
100
AcDbLine
 62
253
  6
CONTINUOUS
 10
-0.852
 20
-5.136
 11
-2.152
 21
-5.136
  0
LINE
  5
398
100
AcDbEntity
  8
0
100
AcDbLine
 62
253
  6
CONTINUOUS
 10
0.244
 20
-5.05
 11
0.384
 21
-5.056
  0
LINE
  5
399
100
AcDbEntity
  8
0
100
AcDbLine
 62
253
  6
CONTINUOUS
 10
0.384
 20
-5.056
 11
0.44
 21
-5.062
  0
LINE
  5
39A
100
AcDbEntity
  8
0
100
AcDbLine
 62
253
  6
CONTINUOUS
 10
0.066
 20
-5.398
 11
0.15
 21
-5.416
  0
LINE
  5
39B
100
AcDbEntity
  8
0
100
AcDbLine
 62
253
  6
CONTINUOUS
 10
0.15
 20
-5.416
 11
0.212
 21
-5.438
  0
LINE
  5
39C
100
AcDbEntity
  8
0
100
AcDbLine
 62
253
  6
CONTINUOUS
 10
0.072
 20
-4.978
 11
0.244
 21
-5.05
  0
LINE
  5
39D
100
AcDbEntity
  8
0
100
AcDbLine
 62
253
  6
CONTINUOUS
 10
0.212
 20
-5.438
 11
0.24
 21
-5.456
  0
LINE
  5
39E
100
AcDbEntity
  8
0
100
AcDbLine
 62
253
  6
CONTINUOUS
 10
-1.022
 20
-6.6
 11
-0.972
 21
-6.646
  0
LINE
  5
39F
100
AcDbEntity
  8
0
100
AcDbLine
 62
253
  6
CONTINUOUS
 10
-1.996
 20
-7.442
 11
-2.052
 21
-7.362
  0
LINE
  5
3A0
100
AcDbEntity
  8
0
100
AcDbLine
 62
253
  6
CONTINUOUS
 10
0.33
 20
-11.12
 11
0.28
 21
-11.044
  0
LINE
  5
3A1
100
AcDbEntity
  8
0
100
AcDbLine
 62
253
  6
CONTINUOUS
 10
-0.214
 20
-11.426
 11
-0.176
 21
-11.484
  0
LINE
  5
3A2
100
AcDbEntity
  8
0
100
AcDbLine
 62
253
  6
CONTINUOUS
 10
-3.542
 20
-6.632
 11
-3.474
 21
-6.74
  0
LINE
  5
3A3
100
AcDbEntity
  8
0
100
AcDbLine
 62
253
  6
CONTINUOUS
 10
1.016
 20
-11.086
 11
0.964
 21
-10.998
  0
LINE
  5
3A4
100
AcDbEntity
  8
0
100
AcDbLine
 62
253
  6
CONTINUOUS
 10
0.392
 20
-12.612
 11
0.346
 21
-12.528
  0
LINE
  5
3A5
100
AcDbEntity
  8
0
100
AcDbLine
 62
253
  6
CONTINUOUS
 10
-2.052
 20
-7.362
 11
-2.086
 21
-7.294
  0
LINE
  5
3A6
100
AcDbEntity
  8
0
100
AcDbLine
 62
253
  6
CONTINUOUS
 10
-2.838
 20
-8.002
 11
-2.81
 21
-8.06
  0
LINE
  5
3A7
100
AcDbEntity
  8
0
100
AcDbLine
 62
253
  6
CONTINUOUS
 10
-2.81
 20
-8.06
 11
-2.788
 21
-8.116
  0
LINE
  5
3A8
100
AcDbEntity
  8
0
100
AcDbLine
 62
253
  6
CONTINUOUS
 10
-2.086
 20
-7.294
 11
-2.136
 21
-7.164
  0
LINE
  5
3A9
100
AcDbEntity
  8
0
100
AcDbLine
 62
253
  6
CONTINUOUS
 10
0.364
 20
-15.656
 11
0.328
 21
-15.55
  0
LINE
  5
3AA
100
AcDbEntity
  8
0
100
AcDbLine
 62
253
  6
CONTINUOUS
 10
-0.238
 20
-15.79
 11
-0.216
 21
-15.856
  0
LINE
  5
3AB
100
AcDbEntity
  8
0
100
AcDbLine
 62
253
  6
CONTINUOUS
 10
-2.788
 20
-8.116
 11
-2.766
 21
-8.194
  0
LINE
  5
3AC
100
AcDbEntity
  8
0
100
AcDbLine
 62
253
  6
CONTINUOUS
 10
-3.474
 20
-6.74
 11
-3.442
 21
-6.864
  0
LWPOLYLINE
  5
3AD
100
AcDbEntity
  8
0
100
AcDbPolyline
 62
253
  6
CONTINUOUS
 90
3
 70
0
 10
-3.466
 20
-10.54
 10
-3.4567611807
 20
-10.5893511818
 10
-3.438
 20
-10.688
  0
LINE
  5
3AE
100
AcDbEntity
  8
0
100
AcDbLine
 62
253
  6
CONTINUOUS
 10
-4.066
 20
-8.246
 11
-4.054
 21
-8.32
  0
LINE
  5
3AF
100
AcDbEntity
  8
0
100
AcDbLine
 62
253
  6
CONTINUOUS
 10
-2.136
 20
-7.164
 11
-2.152
 21
-7.006
  0
LINE
  5
3B0
100
AcDbEntity
  8
0
100
AcDbLine
 62
253
  6
CONTINUOUS
 10
-3.442
 20
-6.864
 11
-3.436
 21
-6.97
  0
LINE
  5
3B1
100
AcDbEntity
  8
0
100
AcDbLine
 62
253
  6
CONTINUOUS
 10
-4.2357143342
 20
13.9725
 11
-4.2357143342
 21
13.3197142618
  0
LINE
  5
3B2
100
AcDbEntity
  8
0
100
AcDbLine
 62
253
  6
CONTINUOUS
 10
-4.066
 20
-8.162
 11
-4.066
 21
-8.246
  0
LINE
  5
3B3
100
AcDbEntity
  8
0
100
AcDbLine
 62
253
  6
CONTINUOUS
 10
-4.066
 20
-14.264
 11
-4.066
 21
-14.174
  0
LINE
  5
3B4
100
AcDbEntity
  8
0
100
AcDbLine
 62
253
  6
CONTINUOUS
 10
-4.066
 20
-13.1
 11
-4.066
 21
-13.004
  0
LINE
  5
3B5
100
AcDbEntity
  8
0
100
AcDbLine
 62
253
  6
CONTINUOUS
 10
-4.066
 20
-12.126
 11
-4.066
 21
-12.068
  0
LINE
  5
3B6
100
AcDbEntity
  8
0
100
AcDbLine
 62
253
  6
CONTINUOUS
 10
-4.066
 20
-11.1
 11
-4.066
 21
-10.67
  0
LINE
  5
3B7
100
AcDbEntity
  8
0
100
AcDbLine
 62
253
  6
CONTINUOUS
 10
-4.066
 20
-7.296
 11
-4.066
 21
-6.892
  0
LINE
  5
3B8
100
AcDbEntity
  8
0
100
AcDbLine
 62
253
  6
CONTINUOUS
 10
-4.066
 20
-5.6
 11
-4.066
 21
-5.542
  0
LINE
  5
3B9
100
AcDbEntity
  8
0
100
AcDbLine
 62
253
  6
CONTINUOUS
 10
-3.5571428612
 20
12.616714178
 11
-3.5571428612
 21
11.562214178
  0
LINE
  5
3BA
100
AcDbEntity
  8
0
100
AcDbLine
 62
253
  6
CONTINUOUS
 10
-3.5571428612
 20
10.9596427853
 11
-3.5571428612
 21
9.905142911
  0
LINE
  5
3BB
100
AcDbEntity
  8
0
100
AcDbLine
 62
253
  6
CONTINUOUS
 10
-3.436
 20
-6.97
 11
-3.436
 21
-7.274
  0
LINE
  5
3BC
100
AcDbEntity
  8
0
100
AcDbLine
 62
253
  6
CONTINUOUS
 10
-3.432
 20
-10.744
 11
-3.432
 21
-11.066
  0
LINE
  5
3BD
100
AcDbEntity
  8
0
100
AcDbLine
 62
253
  6
CONTINUOUS
 10
-3.15
 20
13.5205716441
 11
-3.15
 21
13.9725
  0
LINE
  5
3BE
100
AcDbEntity
  8
0
100
AcDbLine
 62
253
  6
CONTINUOUS
 10
-3.144
 20
-12.516
 11
-3.144
 21
-11.678
  0
LINE
  5
3BF
100
AcDbEntity
  8
0
100
AcDbLine
 62
253
  6
CONTINUOUS
 10
-3.144
 20
-5.99
 11
-3.144
 21
-5.152
  0
LINE
  5
3C0
100
AcDbEntity
  8
0
100
AcDbLine
 62
253
  6
CONTINUOUS
 10
-2.766
 20
-8.194
 11
-2.766
 21
-8.308
  0
LINE
  5
3C1
100
AcDbEntity
  8
0
100
AcDbLine
 62
253
  6
CONTINUOUS
 10
-2.766
 20
-15.57
 11
-2.766
 21
-15.536
  0
LINE
  5
3C2
100
AcDbEntity
  8
RACCORDO
100
AcDbLine
 62
253
  6
CONTINUOUS
 10
-2.5412737968
 20
21.5659754333
 11
-2.5412737968
 21
20.9917082642
  0
LINE
  5
3C3
100
AcDbEntity
  8
RACCORDO
100
AcDbLine
 62
253
  6
CONTINUOUS
 10
-2.5412737968
 20
-20.9917082642
 11
-2.5412737968
 21
-21.5659754333
  0
LINE
  5
3C4
100
AcDbEntity
  8
0
100
AcDbLine
 62
253
  6
CONTINUOUS
 10
-2.154
 20
-2.85
 11
-2.154
 21
-3.794
  0
LINE
  5
3C5
100
AcDbEntity
  8
0
100
AcDbLine
 62
253
  6
CONTINUOUS
 10
-2.152
 20
0.572
 11
-2.152
 21
0.54
  0
LINE
  5
3C6
100
AcDbEntity
  8
0
100
AcDbLine
 62
253
  6
CONTINUOUS
 10
-2.152
 20
-5.482
 11
-2.152
 21
-6.31
  0
LINE
  5
3C7
100
AcDbEntity
  8
0
100
AcDbLine
 62
253
  6
CONTINUOUS
 10
-2.152
 20
-10.916
 11
-2.152
 21
-11.744
  0
LINE
  5
3C8
100
AcDbEntity
  8
0
100
AcDbLine
 62
253
  6
CONTINUOUS
 10
-2.152
 20
-13.758
 11
-2.152
 21
-13.7
  0
LINE
  5
3C9
100
AcDbEntity
  8
0
100
AcDbLine
 62
253
  6
CONTINUOUS
 10
-2.152
 20
-5.136
 11
-2.152
 21
-5.07
  0
LINE
  5
3CA
100
AcDbEntity
  8
0
100
AcDbLine
 62
253
  6
CONTINUOUS
 10
-2.152
 20
-1.942
 11
-2.152
 21
-1.884
  0
LINE
  5
3CB
100
AcDbEntity
  8
0
100
AcDbLine
 62
253
  6
CONTINUOUS
 10
-2.152
 20
1.496
 11
-2.152
 21
1.544
  0
LINE
  5
3CC
100
AcDbEntity
  8
CORPO
100
AcDbLine
 62
7
  6
CONTINUOUS
 10
-2.05
 20
-22.3109791689
 11
-2.05
 21
-21.3126932437
  0
LINE
  5
3CD
100
AcDbEntity
  8
ASSI
100
AcDbLine
 62
7
  6
CONTINUOUS
 10
-2.05
 20
-22.3109791689
 11
-2.05
 21
-21.3126932437
  0
LINE
  5
3CE
100
AcDbEntity
  8
RACCORDO
100
AcDbLine
 62
7
  6
CONTINUOUS
 10
-2.05
 20
-19.9570181168
 11
-2.05
 21
-21.3126932437
  0
LINE
  5
3CF
100
AcDbEntity
  8
CORPO
100
AcDbLine
 62
7
  6
CONTINUOUS
 10
-2.05
 20
-19.9570181168
 11
-2.05
 21
-19.6109791689
  0
LINE
  5
3D0
100
AcDbEntity
  8
ASSI
100
AcDbLine
 62
7
  6
CONTINUOUS
 10
-2.05
 20
-19.9570181168
 11
-2.05
 21
-19.6109791689
  0
LINE
  5
3D1
100
AcDbEntity
  8
CORPO
100
AcDbLine
 62
7
  6
CONTINUOUS
 10
-2.05
 20
19.6109791689
 11
-2.05
 21
19.9570181168
  0
LINE
  5
3D2
100
AcDbEntity
  8
ASSI
100
AcDbLine
 62
7
  6
CONTINUOUS
 10
-2.05
 20
19.6109791689
 11
-2.05
 21
19.9570181168
  0
LINE
  5
3D3
100
AcDbEntity
  8
RACCORDO
100
AcDbLine
 62
7
  6
CONTINUOUS
 10
-2.05
 20
19.9570181168
 11
-2.05
 21
21.3126932437
  0
LINE
  5
3D4
100
AcDbEntity
  8
CORPO
100
AcDbLine
 62
7
  6
CONTINUOUS
 10
-2.05
 20
21.3126932437
 11
-2.05
 21
22.3109791689
  0
LINE
  5
3D5
100
AcDbEntity
  8
ASSI
100
AcDbLine
 62
7
  6
CONTINUOUS
 10
-2.05
 20
21.3126932437
 11
-2.05
 21
22.3109791689
  0
LINE
  5
3D6
100
AcDbEntity
  8
0
100
AcDbLine
 62
253
  6
CONTINUOUS
 10
-4.066
 20
-10.67
 11
-4.06
 21
-10.626
  0
LINE
  5
3D7
100
AcDbEntity
  8
0
100
AcDbLine
 62
253
  6
CONTINUOUS
 10
-4.048
 20
-8.054
 11
-4.066
 21
-8.162
  0
LINE
  5
3D8
100
AcDbEntity
  8
0
100
AcDbLine
 62
253
  6
CONTINUOUS
 10
-4.066
 20
-6.892
 11
-4.042
 21
-6.806
  0
LINE
  5
3D9
100
AcDbEntity
  8
CURVE
100
AcDbLine
 62
253
  6
CONTINUOUS
 10
6.65
 20
8.2333332672
 11
7.95
 21
8.9613332672
  0
LINE
  5
3DA
100
AcDbEntity
  8
0
100
AcDbLine
 62
253
  6
CONTINUOUS
 10
-0.25
 20
3.368
 11
1.05
 21
3.874
  0
LWPOLYLINE
  5
3DB
100
AcDbEntity
  8
CURVE
100
AcDbPolyline
 62
253
  6
CONTINUOUS
 90
47
 70
0
 10
-7.4129644639
 20
-4.9758013331
 10
-7.4353881541
 20
-4.9821309887
 10
-7.4529710883
 20
-4.9872105157
 10
-7.4702315222
 20
-4.9923180122
 10
-7.4871636501
 20
-4.9974640207
 10
-7.5037616666
 20
-5.0026590838
 10
-7.5200197664
 20
-5.0079137439
 10
-7.5359322783
 20
-5.0132371483
 10
-7.5514940694
 20
-5.0186328629
 10
-7.5667001408
 20
-5.0241030586
 10
-7.5815454939
 20
-5.0296499061
 10
-7.59602513
 20
-5.0352755763
 10
-7.6101340334
 20
-5.0409807535
 10
-7.623867121
 20
-5.0467601763
 10
-7.6372192923
 20
-5.0526070971
 10
-7.6501854473
 20
-5.0585147682
 10
-7.6627604856
 20
-5.0644764417
 10
-7.6749414861
 20
-5.0704866185
 10
-7.6867342449
 20
-5.0765447922
 10
-7.698146737
 20
-5.0826517052
 10
-7.7091869376
 20
-5.0888080997
 10
-7.7198628218
 20
-5.095014718
 10
-7.7301828708
 20
-5.1012724557
 10
-7.7401575898
 20
-5.1075828232
 10
-7.7497979901
 20
-5.1139474843
 10
-7.759115083
 20
-5.1203681027
 10
-7.7681198797
 20
-5.1268463422
 10
-7.7789533345
 20
-5.1350285474
 10
-7.7893366391
 20
-5.1433116823
 10
-7.799290401
 20
-5.151704044
 10
-7.8088352275
 20
-5.1602139297
 10
-7.8179884052
 20
-5.1688451592
 10
-7.8267539372
 20
-5.1775836443
 10
-7.8351325056
 20
-5.1864108197
 10
-7.8431247925
 20
-5.1953081199
 10
-7.8507333567
 20
-5.2042599907
 10
-7.8579682624
 20
-5.2132629212
 10
-7.8648414504
 20
-5.2223164113
 10
-7.8713648617
 20
-5.2314199613
 10
-7.8775486951
 20
-5.2405718264
 10
-7.8833961818
 20
-5.2497652833
 10
-7.8889088113
 20
-5.258992364
 10
-7.8940880728
 20
-5.2682451003
 10
-7.8989360003
 20
-5.2775169468
 10
-7.9034568052
 20
-5.2868070487
 10
-7.9076552435
 20
-5.2961159738
 10
-7.9115360712
 20
-5.30544429
  0
LINE
  5
3DC
100
AcDbEntity
  8
CURVE
100
AcDbLine
 62
253
  6
CONTINUOUS
 10
-7.3428167463
 20
-4.9565587397
 11
-7.4129644639
 21
-4.9758013331
  0
LINE
  5
3DD
100
AcDbEntity
  8
CURVE
100
AcDbLine
 62
253
  6
CONTINUOUS
 10
-7.2313410876
 20
-4.9264891853
 11
-7.3428167463
 21
-4.9565587397
  0
LINE
  5
3DE
100
AcDbEntity
  8
CURVE
100
AcDbLine
 62
253
  6
CONTINUOUS
 10
-6.5580036477
 20
-4.7496410148
 11
-6.656288575
 21
-4.7759165273
  0
LINE
  5
3DF
100
AcDbEntity
  8
CURVE
100
AcDbLine
 62
253
  6
CONTINUOUS
 10
-7.0682077253
 20
-4.8833322564
 11
-7.2313410876
 21
-4.9264891853
  0
LINE
  5
3E0
100
AcDbEntity
  8
CURVE
100
AcDbLine
 62
253
  6
CONTINUOUS
 10
-6.656288575
 20
-4.7759165273
 11
-7.0682077253
 21
-4.8833322564
  0
LINE
  5
3E1
100
AcDbEntity
  8
0
100
AcDbLine
 62
253
  6
CONTINUOUS
 10
0.29
 20
-3.818
 11
0.212
 21
-3.836
  0
LINE
  5
3E2
100
AcDbEntity
  8
0
100
AcDbLine
 62
253
  6
CONTINUOUS
 10
0.644
 20
-2.758
 11
0.74
 21
-2.746
  0
LINE
  5
3E3
100
AcDbEntity
  8
0
100
AcDbLine
 62
253
  6
CONTINUOUS
 10
0.11
 20
-3.44
 11
0.154
 21
-3.436
  0
LINE
  5
3E4
100
AcDbEntity
  8
0
100
AcDbLine
 62
253
  6
CONTINUOUS
 10
0.406
 20
-3.808
 11
0.29
 21
-3.818
  0
LINE
  5
3E5
100
AcDbEntity
  8
0
100
AcDbLine
 62
253
  6
CONTINUOUS
 10
0.03
 20
-3.446
 11
0.11
 21
-3.44
  0
LINE
  5
3E6
100
AcDbEntity
  8
0
100
AcDbLine
 62
253
  6
CONTINUOUS
 10
-0.852
 20
-4.09
 11
-2.152
 21
-4.09
  0
LINE
  5
3E7
100
AcDbEntity
  8
0
100
AcDbLine
 62
253
  6
CONTINUOUS
 10
-0.852
 20
-3.738
 11
-0.876
 21
-3.738
  0
LINE
  5
3E8
100
AcDbEntity
  8
0
100
AcDbLine
 62
253
  6
CONTINUOUS
 10
-2.124
 20
-2.85
 11
-2.154
 21
-2.85
  0
LINE
  5
3E9
100
AcDbEntity
  8
0
100
AcDbLine
 62
253
  6
CONTINUOUS
 10
0.564
 20
-3.818
 11
0.406
 21
-3.808
  0
LINE
  5
3EA
100
AcDbEntity
  8
0
100
AcDbLine
 62
253
  6
CONTINUOUS
 10
-0.032
 20
-3.436
 11
0.03
 21
-3.446
  0
LINE
  5
3EB
100
AcDbEntity
  8
0
100
AcDbLine
 62
253
  6
CONTINUOUS
 10
0.74
 20
-2.746
 11
0.812
 21
-2.764
  0
LINE
  5
3EC
100
AcDbEntity
  8
0
100
AcDbLine
 62
253
  6
CONTINUOUS
 10
0.73
 20
-3.88
 11
0.618
 21
-3.84
  0
LINE
  5
3ED
100
AcDbEntity
  8
0
100
AcDbLine
 62
253
  6
CONTINUOUS
 10
0.812
 20
-2.764
 11
0.886
 21
-2.792
  0
LINE
  5
3EE
100
AcDbEntity
  8
0
100
AcDbLine
 62
253
  6
CONTINUOUS
 10
0.618
 20
-3.84
 11
0.564
 21
-3.818
  0
LINE
  5
3EF
100
AcDbEntity
  8
0
100
AcDbLine
 62
253
  6
CONTINUOUS
 10
-0.852
 20
-2.492
 11
-2.152
 21
-1.942
  0
LINE
  5
3F0
100
AcDbEntity
  8
0
100
AcDbLine
 62
253
  6
CONTINUOUS
 10
-0.122
 20
-3.39
 11
-0.032
 21
-3.436
  0
LINE
  5
3F1
100
AcDbEntity
  8
0
100
AcDbLine
 62
253
  6
CONTINUOUS
 10
0.798
 20
-3.924
 11
0.73
 21
-3.88
  0
LINE
  5
3F2
100
AcDbEntity
  8
0
100
AcDbLine
 62
253
  6
CONTINUOUS
 10
-0.876
 20
-3.738
 11
-2.124
 21
-2.85
  0
LINE
  5
3F3
100
AcDbEntity
  8
0
100
AcDbLine
 62
253
  6
CONTINUOUS
 10
0.87
 20
-3.976
 11
0.798
 21
-3.924
  0
LINE
  5
3F4
100
AcDbEntity
  8
0
100
AcDbLine
 62
253
  6
CONTINUOUS
 10
-0.046
 20
-4.888
 11
0.072
 21
-4.978
  0
LINE
  5
3F5
100
AcDbEntity
  8
0
100
AcDbLine
 62
253
  6
CONTINUOUS
 10
0.24
 20
-5.456
 11
0.28
 21
-5.49
  0
LINE
  5
3F6
100
AcDbEntity
  8
0
100
AcDbLine
 62
253
  6
CONTINUOUS
 10
-0.15
 20
-3.362
 11
-0.122
 21
-3.39
  0
LINE
  5
3F7
100
AcDbEntity
  8
0
100
AcDbLine
 62
253
  6
CONTINUOUS
 10
0.28
 20
-5.49
 11
0.314
 21
-5.528
  0
LINE
  5
3F8
100
AcDbEntity
  8
0
100
AcDbLine
 62
253
  6
CONTINUOUS
 10
-0.184
 20
-3.322
 11
-0.15
 21
-3.362
  0
LINE
  5
3F9
100
AcDbEntity
  8
0
100
AcDbLine
 62
253
  6
CONTINUOUS
 10
-0.158
 20
-4.754
 11
-0.046
 21
-4.888
  0
LINE
  5
3FA
100
AcDbEntity
  8
0
100
AcDbLine
 62
253
  6
CONTINUOUS
 10
-0.972
 20
-6.646
 11
-0.932
 21
-6.714
  0
LINE
  5
3FB
100
AcDbEntity
  8
0
100
AcDbLine
 62
253
  6
CONTINUOUS
 10
0.332
 20
-5.568
 11
0.348
 21
-5.596
  0
LINE
  5
3FC
100
AcDbEntity
  8
0
100
AcDbLine
 62
253
  6
CONTINUOUS
 10
-0.892
 20
-6.804
 11
-0.876
 21
-6.838
  0
LINE
  5
3FD
100
AcDbEntity
  8
0
100
AcDbLine
 62
253
  6
CONTINUOUS
 10
-0.932
 20
-6.714
 11
-0.892
 21
-6.804
  0
LINE
  5
3FE
100
AcDbEntity
  8
0
100
AcDbLine
 62
253
  6
CONTINUOUS
 10
0.366
 20
-11.226
 11
0.33
 21
-11.12
  0
LINE
  5
3FF
100
AcDbEntity
  8
0
100
AcDbLine
 62
253
  6
CONTINUOUS
 10
-0.236
 20
-11.36
 11
-0.214
 21
-11.426
  0
LINE
  5
400
100
AcDbEntity
  8
0
100
AcDbLine
 62
253
  6
CONTINUOUS
 10
1.004
 20
-14.364
 11
1.034
 21
-14.46
  0
LINE
  5
401
100
AcDbEntity
  8
0
100
AcDbLine
 62
253
  6
CONTINUOUS
 10
1.006
 20
-12.148
 11
1.036
 21
-12.244
  0
LINE
  5
402
100
AcDbEntity
  8
0
100
AcDbLine
 62
253
  6
CONTINUOUS
 10
1.038
 20
-15.598
 11
1.014
 21
-15.516
  0
LINE
  5
403
100
AcDbEntity
  8
0
100
AcDbLine
 62
253
  6
CONTINUOUS
 10
1.04
 20
-11.168
 11
1.016
 21
-11.086
  0
LINE
  5
404
100
AcDbEntity
  8
0
100
AcDbLine
 62
253
  6
CONTINUOUS
 10
0.344
 20
-14.744
 11
0.322
 21
-14.66
  0
LINE
  5
405
100
AcDbEntity
  8
0
100
AcDbLine
 62
253
  6
CONTINUOUS
 10
0.346
 20
-12.528
 11
0.324
 21
-12.444
  0
LINE
  5
406
100
AcDbEntity
  8
0
100
AcDbLine
 62
253
  6
CONTINUOUS
 10
-0.252
 20
-13.454
 11
-0.214
 21
-13.618
  0
LINE
  5
407
100
AcDbEntity
  8
0
100
AcDbLine
 62
253
  6
CONTINUOUS
 10
-0.25
 20
-15.72
 11
-0.238
 21
-15.79
  0
LINE
  5
408
100
AcDbEntity
  8
0
100
AcDbLine
 62
253
  6
CONTINUOUS
 10
-0.248
 20
-11.29
 11
-0.236
 21
-11.36
  0
LINE
  5
409
100
AcDbEntity
  8
0
100
AcDbLine
 62
253
  6
CONTINUOUS
 10
0.376
 20
-5.744
 11
0.382
 21
-5.8
  0
LINE
  5
40A
100
AcDbEntity
  8
0
100
AcDbLine
 62
253
  6
CONTINUOUS
 10
-0.234
 20
-0.08
 11
-0.25
 21
0.078
  0
LINE
  5
40B
100
AcDbEntity
  8
0
100
AcDbLine
 62
253
  6
CONTINUOUS
 10
-0.858
 20
-6.984
 11
-0.852
 21
-7.052
  0
LINE
  5
40C
100
AcDbEntity
  8
0
100
AcDbLine
 62
253
  6
CONTINUOUS
 10
1.046
 20
-15.69
 11
1.038
 21
-15.598
  0
LINE
  5
40D
100
AcDbEntity
  8
0
100
AcDbLine
 62
253
  6
CONTINUOUS
 10
1.048
 20
-11.26
 11
1.04
 21
-11.168
  0
LINE
  5
40E
100
AcDbEntity
  8
0
100
AcDbLine
 62
253
  6
CONTINUOUS
 10
-0.254
 20
-15.626
 11
-0.25
 21
-15.72
  0
LINE
  5
40F
100
AcDbEntity
  8
0
100
AcDbLine
 62
253
  6
CONTINUOUS
 10
-0.252
 20
-11.196
 11
-0.248
 21
-11.29
  0
LINE
  5
410
100
AcDbEntity
  8
0
100
AcDbLine
 62
253
  6
CONTINUOUS
 10
-1.534
 20
-5.544
 11
-1.534
 21
-6.31
  0
LINE
  5
411
100
AcDbEntity
  8
0
100
AcDbLine
 62
253
  6
CONTINUOUS
 10
-1.534
 20
-10.978
 11
-1.534
 21
-11.744
  0
LINE
  5
412
100
AcDbEntity
  8
0
100
AcDbLine
 62
253
  6
CONTINUOUS
 10
-1.23
 20
-14.15
 11
-1.23
 21
-13.31
  0
LINE
  5
413
100
AcDbEntity
  8
0
100
AcDbLine
 62
253
  6
CONTINUOUS
 10
-1.23
 20
-2.332
 11
-1.23
 21
-1.494
  0
LINE
  5
414
100
AcDbEntity
  8
0
100
AcDbLine
 62
253
  6
CONTINUOUS
 10
-1.19
 20
1.758
 11
-1.19
 21
0.922
  0
LINE
  5
415
100
AcDbEntity
  8
0
100
AcDbLine
 62
253
  6
CONTINUOUS
 10
-0.852
 20
-2.754
 11
-0.852
 21
-3.738
  0
LINE
  5
416
100
AcDbEntity
  8
0
100
AcDbLine
 62
253
  6
CONTINUOUS
 10
-0.852
 20
-15.576
 11
-0.852
 21
-15.542
  0
LINE
  5
417
100
AcDbEntity
  8
0
100
AcDbLine
 62
253
  6
CONTINUOUS
 10
-0.852
 20
-12.838
 11
-0.852
 21
-12.094
  0
LINE
  5
418
100
AcDbEntity
  8
0
100
AcDbLine
 62
253
  6
CONTINUOUS
 10
-0.852
 20
-11.744
 11
-0.852
 21
-10.904
  0
LINE
  5
419
100
AcDbEntity
  8
0
100
AcDbLine
 62
253
  6
CONTINUOUS
 10
-0.852
 20
-8.904
 11
-0.852
 21
-8.87
  0
LINE
  5
41A
100
AcDbEntity
  8
0
100
AcDbLine
 62
253
  6
CONTINUOUS
 10
-0.852
 20
-6.31
 11
-0.852
 21
-5.47
  0
LINE
  5
41B
100
AcDbEntity
  8
0
100
AcDbLine
 62
253
  6
CONTINUOUS
 10
-0.852
 20
-4.158
 11
-0.852
 21
-4.09
  0
LINE
  5
41C
100
AcDbEntity
  8
0
100
AcDbLine
 62
253
  6
CONTINUOUS
 10
-0.25
 20
-3.034
 11
-0.25
 21
-3.118
  0
LINE
  5
41D
100
AcDbEntity
  8
0
100
AcDbLine
 62
253
  6
CONTINUOUS
 10
-0.25
 20
-9.32
 11
-0.25
 21
-9.23
  0
LINE
  5
41E
100
AcDbEntity
  8
0
100
AcDbLine
 62
253
  6
CONTINUOUS
 10
-0.25
 20
-8.156
 11
-0.25
 21
-8.06
  0
LINE
  5
41F
100
AcDbEntity
  8
0
100
AcDbLine
 62
253
  6
CONTINUOUS
 10
-0.25
 20
-7.18
 11
-0.25
 21
-7.124
  0
LINE
  5
420
100
AcDbEntity
  8
0
100
AcDbLine
 62
253
  6
CONTINUOUS
 10
-0.25
 20
-6.156
 11
-0.25
 21
-5.726
  0
LINE
  5
421
100
AcDbEntity
  8
0
100
AcDbLine
 62
253
  6
CONTINUOUS
 10
-0.25
 20
-2.366
 11
-0.25
 21
-1.262
  0
LINE
  5
422
100
AcDbEntity
  8
0
100
AcDbLine
 62
253
  6
CONTINUOUS
 10
-0.25
 20
1.3
 11
-0.25
 21
1.358
  0
LINE
  5
423
100
AcDbEntity
  8
0
100
AcDbLine
 62
253
  6
CONTINUOUS
 10
-0.25
 20
-5.726
 11
-0.246
 21
-5.682
  0
LINE
  5
424
100
AcDbEntity
  8
0
100
AcDbLine
 62
253
  6
CONTINUOUS
 10
-2.1370307732
 20
-6.8967076874
 11
-2.13
 21
-6.842
  0
LINE
  5
425
100
AcDbEntity
  8
0
100
AcDbLine
 62
253
  6
CONTINUOUS
 10
-0.25
 20
0.078
 11
-0.228
 21
0.242
  0
LINE
  5
426
100
AcDbEntity
  8
0
100
AcDbLine
 62
253
  6
CONTINUOUS
 10
-2.1443640732
 20
-6.9513741083
 11
-2.1370307732
 21
-6.8967076874
  0
LINE
  5
427
100
AcDbEntity
  8
0
100
AcDbLine
 62
253
  6
CONTINUOUS
 10
-2.152
 20
-7.006
 11
-2.1443640732
 21
-6.9513741083
  0
LINE
  5
428
100
AcDbEntity
  8
0
100
AcDbLine
 62
253
  6
CONTINUOUS
 10
-0.852
 20
-7.052
 11
-0.87
 21
-7.176
  0
LINE
  5
429
100
AcDbEntity
  8
0
100
AcDbLine
 62
253
  6
CONTINUOUS
 10
-0.234
 20
-2.928
 11
-0.25
 21
-3.034
  0
LINE
  5
42A
100
AcDbEntity
  8
0
100
AcDbLine
 62
253
  6
CONTINUOUS
 10
-2.766
 20
-8.308
 11
-2.782
 21
-8.386
  0
LINE
  5
42B
100
AcDbEntity
  8
0
100
AcDbLine
 62
253
  6
CONTINUOUS
 10
-4.06
 20
-10.626
 11
-4.026
 21
-10.518
  0
LINE
  5
42C
100
AcDbEntity
  8
0
100
AcDbLine
 62
253
  6
CONTINUOUS
 10
-4.042
 20
-6.806
 11
-4.01
 21
-6.712
  0
LINE
  5
42D
100
AcDbEntity
  8
0
100
AcDbLine
 62
253
  6
CONTINUOUS
 10
-3.452
 20
-8.32
 11
-3.384
 21
-8.128
  0
LINE
  5
42E
100
AcDbEntity
  8
0
100
AcDbLine
 62
253
  6
CONTINUOUS
 10
-3.334
 20
-8.032
 11
-3.312
 21
-7.974
  0
LINE
  5
42F
100
AcDbEntity
  8
0
100
AcDbLine
 62
253
  6
CONTINUOUS
 10
-0.172
 20
0.348
 11
-0.156
 21
0.388
  0
LINE
  5
430
100
AcDbEntity
  8
0
100
AcDbLine
 62
253
  6
CONTINUOUS
 10
-0.228
 20
0.242
 11
-0.172
 21
0.348
  0
LINE
  5
431
100
AcDbEntity
  8
0
100
AcDbLine
 62
253
  6
CONTINUOUS
 10
-0.156
 20
0.388
 11
-0.11
 21
0.434
  0
LINE
  5
432
100
AcDbEntity
  8
0
100
AcDbLine
 62
253
  6
CONTINUOUS
 10
-0.25
 20
1.358
 11
1.05
 21
1.908
  0
LINE
  5
433
100
AcDbEntity
  8
CURVE
100
AcDbLine
 62
253
  6
CONTINUOUS
 10
6.65
 20
2.9640000744
 11
7.95
 21
3.3800000496
  0
LINE
  5
434
100
AcDbEntity
  8
0
100
AcDbLine
 62
253
  6
CONTINUOUS
 10
0.564
 20
-0.544
 11
0.402
 21
-0.566
  0
LINE
  5
435
100
AcDbEntity
  8
0
100
AcDbLine
 62
253
  6
CONTINUOUS
 10
1.05
 20
-1.808
 11
-0.25
 21
-1.808
  0
LINE
  5
436
100
AcDbEntity
  8
CORPO
100
AcDbLine
 62
7
  6
CONTINUOUS
 10
23.95
 20
-1.0
 11
24.05
 21
-1.0
  0
LINE
  5
437
100
AcDbEntity
  8
ASSI
100
AcDbLine
 62
7
  6
CONTINUOUS
 10
23.95
 20
-1.0
 11
24.05
 21
-1.0
  0
LINE
  5
438
100
AcDbEntity
  8
0
100
AcDbLine
 62
253
  6
CONTINUOUS
 10
-0.25
 20
-0.92
 11
1.05
 21
-0.92
  0
LINE
  5
439
100
AcDbEntity
  8
0
100
AcDbLine
 62
253
  6
CONTINUOUS
 10
0.402
 20
-0.566
 11
0.256
 21
-0.55
  0
LINE
  5
43A
100
AcDbEntity
  8
0
100
AcDbLine
 62
253
  6
CONTINUOUS
 10
0.256
 20
-0.55
 11
0.132
 21
-0.51
  0
LINE
  5
43B
100
AcDbEntity
  8
0
100
AcDbLine
 62
253
  6
CONTINUOUS
 10
0.132
 20
-0.51
 11
0.07
 21
-0.482
  0
LINE
  5
43C
100
AcDbEntity
  8
0
100
AcDbLine
 62
253
  6
CONTINUOUS
 10
-1.238
 20
0.922
 11
-2.152
 21
1.496
  0
LINE
  5
43D
100
AcDbEntity
  8
0
100
AcDbLine
 62
253
  6
CONTINUOUS
 10
0.07
 20
-0.482
 11
-0.054
 21
-0.396
  0
LINE
  5
43E
100
AcDbEntity
  8
0
100
AcDbLine
 62
253
  6
CONTINUOUS
 10
0.886
 20
-2.792
 11
0.936
 21
-2.836
  0
LINE
  5
43F
100
AcDbEntity
  8
0
100
AcDbLine
 62
253
  6
CONTINUOUS
 10
-0.054
 20
-0.396
 11
-0.094
 21
-0.358
  0
LINE
  5
440
100
AcDbEntity
  8
0
100
AcDbLine
 62
253
  6
CONTINUOUS
 10
0.936
 20
-2.836
 11
0.976
 21
-2.876
  0
LINE
  5
441
100
AcDbEntity
  8
0
100
AcDbLine
 62
253
  6
CONTINUOUS
 10
0.966
 20
-4.092
 11
0.9338214468
 21
-4.0534803467
  0
LINE
  5
442
100
AcDbEntity
  8
0
100
AcDbLine
 62
253
  6
CONTINUOUS
 10
0.9338214468
 20
-4.0534803467
 11
0.9018214507
 21
-4.0148136864
  0
LINE
  5
443
100
AcDbEntity
  8
0
100
AcDbLine
 62
253
  6
CONTINUOUS
 10
0.9018214507
 20
-4.0148136864
 11
0.87
 21
-3.976
  0
LINE
  5
444
100
AcDbEntity
  8
0
100
AcDbLine
 62
253
  6
CONTINUOUS
 10
-2.152
 20
0.54
 11
-1.914
 21
0.242
  0
LINE
  5
445
100
AcDbEntity
  8
0
100
AcDbLine
 62
253
  6
CONTINUOUS
 10
-0.094
 20
-0.358
 11
-0.15
 21
-0.278
  0
LINE
  5
446
100
AcDbEntity
  8
0
100
AcDbLine
 62
253
  6
CONTINUOUS
 10
-0.15
 20
-0.278
 11
-0.184
 21
-0.21
  0
LINE
  5
447
100
AcDbEntity
  8
0
100
AcDbLine
 62
253
  6
CONTINUOUS
 10
0.976
 20
-2.876
 11
1.004
 21
-2.934
  0
LINE
  5
448
100
AcDbEntity
  8
0
100
AcDbLine
 62
253
  6
CONTINUOUS
 10
0.314
 20
-5.528
 11
0.332
 21
-5.568
  0
LINE
  5
449
100
AcDbEntity
  8
0
100
AcDbLine
 62
253
  6
CONTINUOUS
 10
-0.24
 20
-3.192
 11
-0.184
 21
-3.322
  0
LINE
  5
44A
100
AcDbEntity
  8
0
100
AcDbLine
 62
253
  6
CONTINUOUS
 10
1.004
 20
-2.934
 11
1.026
 21
-2.99
  0
LINE
  5
44B
100
AcDbEntity
  8
0
100
AcDbLine
 62
253
  6
CONTINUOUS
 10
-0.184
 20
-0.21
 11
-0.234
 21
-0.08
  0
LINE
  5
44C
100
AcDbEntity
  8
0
100
AcDbLine
 62
253
  6
CONTINUOUS
 10
-0.214
 20
-4.608
 11
-0.158
 21
-4.754
  0
LINE
  5
44D
100
AcDbEntity
  8
0
100
AcDbLine
 62
253
  6
CONTINUOUS
 10
1.004
 20
-4.194
 11
0.966
 21
-4.092
  0
LINE
  5
44E
100
AcDbEntity
  8
0
100
AcDbLine
 62
253
  6
CONTINUOUS
 10
1.038
 20
-4.3
 11
1.004
 21
-4.194
  0
LINE
  5
44F
100
AcDbEntity
  8
0
100
AcDbLine
 62
253
  6
CONTINUOUS
 10
1.026
 20
-2.99
 11
1.05
 21
-3.068
  0
LINE
  5
450
100
AcDbEntity
  8
0
100
AcDbLine
 62
253
  6
CONTINUOUS
 10
0.348
 20
-5.596
 11
0.3575714474
 21
-5.6452880913
  0
LINE
  5
451
100
AcDbEntity
  8
0
100
AcDbLine
 62
253
  6
CONTINUOUS
 10
0.3575714474
 20
-5.6452880913
 11
0.3669047467
 21
-5.6946212457
  0
LINE
  5
452
100
AcDbEntity
  8
0
100
AcDbLine
 62
253
  6
CONTINUOUS
 10
0.3669047467
 20
-5.6946212457
 11
0.376
 21
-5.744
  0
LINE
  5
453
100
AcDbEntity
  8
0
100
AcDbLine
 62
253
  6
CONTINUOUS
 10
1.046
 20
-13.456
 11
1.02
 21
-13.292
  0
LINE
  5
454
100
AcDbEntity
  8
0
100
AcDbLine
 62
253
  6
CONTINUOUS
 10
1.034
 20
-14.46
 11
1.048
 21
-14.554
  0
LINE
  5
455
100
AcDbEntity
  8
0
100
AcDbLine
 62
253
  6
CONTINUOUS
 10
1.036
 20
-12.244
 11
1.05
 21
-12.34
  0
LINE
  5
456
100
AcDbEntity
  8
0
100
AcDbLine
 62
253
  6
CONTINUOUS
 10
-0.25
 20
-3.118
 11
-0.24
 21
-3.192
  0
LINE
  5
457
100
AcDbEntity
  8
0
100
AcDbLine
 62
253
  6
CONTINUOUS
 10
-0.236
 20
-4.434
 11
-0.214
 21
-4.608
  0
LINE
  5
458
100
AcDbEntity
  8
0
100
AcDbLine
 62
253
  6
CONTINUOUS
 10
-0.876
 20
-6.838
 11
-0.858
 21
-6.984
  0
LINE
  5
459
100
AcDbEntity
  8
0
100
AcDbLine
 62
253
  6
CONTINUOUS
 10
0.322
 20
-14.66
 11
0.31
 21
-14.558
  0
LINE
  5
45A
100
AcDbEntity
  8
0
100
AcDbLine
 62
253
  6
CONTINUOUS
 10
0.324
 20
-12.444
 11
0.312
 21
-12.342
  0
LINE
  5
45B
100
AcDbEntity
  8
0
100
AcDbLine
 62
253
  6
CONTINUOUS
 10
1.05
 20
-4.428
 11
1.038
 21
-4.3
  0
LINE
  5
45C
100
AcDbEntity
  8
0
100
AcDbLine
 62
253
  6
CONTINUOUS
 10
1.044
 20
0.1
 11
1.05
 21
0.032
  0
LINE
  5
45D
100
AcDbEntity
  8
0
100
AcDbLine
 62
253
  6
CONTINUOUS
 10
0.364
 20
-15.656
 11
0.364
 21
-15.736
  0
LINE
  5
45E
100
AcDbEntity
  8
0
100
AcDbLine
 62
253
  6
CONTINUOUS
 10
0.366
 20
-11.226
 11
0.366
 21
-11.304
  0
LINE
  5
45F
100
AcDbEntity
  8
0
100
AcDbLine
 62
253
  6
CONTINUOUS
 10
0.382
 20
-5.8
 11
0.382
 21
-6.122
  0
LINE
  5
460
100
AcDbEntity
  8
0
100
AcDbLine
 62
253
  6
CONTINUOUS
 10
0.672
 20
-7.572
 11
0.672
 21
-6.732
  0
LINE
  5
461
100
AcDbEntity
  8
0
100
AcDbLine
 62
253
  6
CONTINUOUS
 10
0.672
 20
0.91
 11
0.672
 21
1.748
  0
LINE
  5
462
100
AcDbEntity
  8
0
100
AcDbLine
 62
253
  6
CONTINUOUS
 10
1.05
 20
-3.068
 11
1.05
 21
-3.182
  0
LINE
  5
463
100
AcDbEntity
  8
0
100
AcDbLine
 62
253
  6
CONTINUOUS
 10
1.05
 20
3.874
 11
1.05
 21
3.908
  0
LINE
  5
464
100
AcDbEntity
  8
0
100
AcDbLine
 62
253
  6
CONTINUOUS
 10
1.65
 20
-15.672
 11
1.65
 21
-14.57
  0
LINE
  5
465
100
AcDbEntity
  8
0
100
AcDbLine
 62
253
  6
CONTINUOUS
 10
1.65
 20
-13.766
 11
1.65
 21
-13.71
  0
LINE
  5
466
100
AcDbEntity
  8
CURVE
100
AcDbLine
 62
253
  6
CONTINUOUS
 10
2.02696
 20
15.6
 11
2.02696
 21
14.139495888
  0
LINE
  5
467
100
AcDbEntity
  8
0
100
AcDbLine
 62
253
  6
CONTINUOUS
 10
2.572
 20
-14.158
 11
2.572
 21
-13.318
  0
LINE
  5
468
100
AcDbEntity
  8
0
100
AcDbLine
 62
253
  6
CONTINUOUS
 10
1.044
 20
-4.558
 11
1.05
 21
-4.428
  0
LINE
  5
469
100
AcDbEntity
  8
0
100
AcDbLine
 62
253
  6
CONTINUOUS
 10
0.312
 20
-12.342
 11
0.318
 21
-12.24
  0
LINE
  5
46A
100
AcDbEntity
  8
0
100
AcDbLine
 62
253
  6
CONTINUOUS
 10
0.31
 20
-14.558
 11
0.316
 21
-14.456
  0
LINE
  5
46B
100
AcDbEntity
  8
0
100
AcDbLine
 62
253
  6
CONTINUOUS
 10
1.05
 20
-12.34
 11
1.042
 21
-12.436
  0
LINE
  5
46C
100
AcDbEntity
  8
0
100
AcDbLine
 62
253
  6
CONTINUOUS
 10
1.048
 20
-14.554
 11
1.04
 21
-14.65
  0
LINE
  5
46D
100
AcDbEntity
  8
0
100
AcDbLine
 62
253
  6
CONTINUOUS
 10
1.04
 20
-11.344
 11
1.048
 21
-11.26
  0
LINE
  5
46E
100
AcDbEntity
  8
0
100
AcDbLine
 62
253
  6
CONTINUOUS
 10
1.038
 20
-15.774
 11
1.046
 21
-15.69
  0
LINE
  5
46F
100
AcDbEntity
  8
0
100
AcDbLine
 62
253
  6
CONTINUOUS
 10
-0.214
 20
-4.266
 11
-0.236
 21
-4.434
  0
LINE
  5
470
100
AcDbEntity
  8
0
100
AcDbLine
 62
253
  6
CONTINUOUS
 10
1.05
 20
0.032
 11
1.032
 21
-0.092
  0
LINE
  5
471
100
AcDbEntity
  8
0
100
AcDbLine
 62
253
  6
CONTINUOUS
 10
-0.236
 20
-11.12
 11
-0.252
 21
-11.196
  0
LINE
  5
472
100
AcDbEntity
  8
0
100
AcDbLine
 62
253
  6
CONTINUOUS
 10
1.05
 20
-3.182
 11
1.032
 21
-3.26
  0
LINE
  5
473
100
AcDbEntity
  8
0
100
AcDbLine
 62
253
  6
CONTINUOUS
 10
-0.246
 20
-5.682
 11
-0.212
 21
-5.574
  0
LINE
  5
474
100
AcDbEntity
  8
0
100
AcDbLine
 62
253
  6
CONTINUOUS
 10
0.982
 20
-4.736
 11
1.022
 21
-4.618
  0
LINE
  5
475
100
AcDbEntity
  8
0
100
AcDbLine
 62
253
  6
CONTINUOUS
 10
0.362
 20
-3.192
 11
0.43
 21
-3.0
  0
LINE
  5
476
100
AcDbEntity
  8
0
100
AcDbLine
 62
253
  6
CONTINUOUS
 10
1.022
 20
-4.618
 11
1.044
 21
-4.558
  0
LINE
  5
477
100
AcDbEntity
  8
0
100
AcDbLine
 62
253
  6
CONTINUOUS
 10
-2.074
 20
-6.736
 11
-2.058
 21
-6.696
  0
LINE
  5
478
100
AcDbEntity
  8
0
100
AcDbLine
 62
253
  6
CONTINUOUS
 10
1.032
 20
-0.092
 11
0.964
 21
-0.262
  0
LINE
  5
479
100
AcDbEntity
  8
0
100
AcDbLine
 62
253
  6
CONTINUOUS
 10
-0.158
 20
-4.126
 11
-0.214
 21
-4.266
  0
LINE
  5
47A
100
AcDbEntity
  8
0
100
AcDbLine
 62
253
  6
CONTINUOUS
 10
-0.87
 20
-7.176
 11
-0.938
 21
-7.346
  0
LINE
  5
47B
100
AcDbEntity
  8
0
100
AcDbLine
 62
253
  6
CONTINUOUS
 10
0.48
 20
-2.904
 11
0.504
 21
-2.848
  0
LINE
  5
47C
100
AcDbEntity
  8
0
100
AcDbLine
 62
253
  6
CONTINUOUS
 10
-2.782
 20
-8.386
 11
-2.816
 21
-8.46
  0
LINE
  5
47D
100
AcDbEntity
  8
0
100
AcDbLine
 62
253
  6
CONTINUOUS
 10
1.032
 20
-3.26
 11
0.998
 21
-3.334
  0
LINE
  5
47E
100
AcDbEntity
  8
0
100
AcDbLine
 62
253
  6
CONTINUOUS
 10
0.312
 20
-3.294
 11
0.362
 21
-3.192
  0
LINE
  5
47F
100
AcDbEntity
  8
0
100
AcDbLine
 62
253
  6
CONTINUOUS
 10
-3.502
 20
-8.42
 11
-3.452
 21
-8.32
  0
LINE
  5
480
100
AcDbEntity
  8
0
100
AcDbLine
 62
253
  6
CONTINUOUS
 10
-3.384
 20
-8.128
 11
-3.334
 21
-8.032
  0
LINE
  5
481
100
AcDbEntity
  8
0
100
AcDbLine
 62
253
  6
CONTINUOUS
 10
0.43
 20
-3.0
 11
0.48
 21
-2.904
  0
LINE
  5
482
100
AcDbEntity
  8
0
100
AcDbLine
 62
253
  6
CONTINUOUS
 10
-2.13
 20
-6.842
 11
-2.074
 21
-6.736
  0
LWPOLYLINE
  5
483
100
AcDbEntity
  8
RACCORDO
100
AcDbPolyline
 62
253
  6
CONTINUOUS
 90
4
 70
0
 10
-12.1841001578
 20
-23.6445573199
 10
-12.1789774285
 20
-23.6353723694
 10
-12.1759269706
 20
-23.6297655866
 10
-12.175
 20
-23.6278312164
  0
LINE
  5
484
100
AcDbEntity
  8
RACCORDO
100
AcDbLine
 62
253
  6
CONTINUOUS
 10
-12.2001824068
 20
-23.6729824084
 11
-12.1841001578
 21
-23.6445573199
  0
LINE
  5
485
100
AcDbEntity
  8
RACCORDO
100
AcDbLine
 62
253
  6
CONTINUOUS
 10
-12.2665696477
 20
-23.7888676909
 11
-12.2001824068
 21
-23.6729824084
  0
LINE
  5
486
100
AcDbEntity
  8
0
100
AcDbLine
 62
253
  6
CONTINUOUS
 10
-0.212
 20
-5.574
 11
-0.166
 21
-5.494
  0
LINE
  5
487
100
AcDbEntity
  8
RACCORDO
100
AcDbLine
 62
253
  6
CONTINUOUS
 10
-12.2985455672
 20
-23.8443375673
 11
-12.2665696477
 21
-23.7888676909
  0
LINE
  5
488
100
AcDbEntity
  8
0
100
AcDbLine
 62
253
  6
CONTINUOUS
 10
-4.026
 20
-10.518
 11
-3.98
 21
-10.44
  0
LINE
  5
489
100
AcDbEntity
  8
0
100
AcDbLine
 62
253
  6
CONTINUOUS
 10
-0.124
 20
-4.07
 11
-0.158
 21
-4.126
  0
LINE
  5
48A
100
AcDbEntity
  8
0
100
AcDbLine
 62
253
  6
CONTINUOUS
 10
-2.816
 20
-8.46
 11
-2.866
 21
-8.538
  0
LINE
  5
48B
100
AcDbEntity
  8
0
100
AcDbLine
 62
253
  6
CONTINUOUS
 10
-3.986
 20
-7.958
 11
-4.048
 21
-8.054
  0
LINE
  5
48C
100
AcDbEntity
  8
0
100
AcDbLine
 62
253
  6
CONTINUOUS
 10
-0.172
 20
-2.832
 11
-0.234
 21
-2.928
  0
LINE
  5
48D
100
AcDbEntity
  8
0
100
AcDbLine
 62
253
  6
CONTINUOUS
 10
-3.564
 20
-8.51
 11
-3.502
 21
-8.42
  0
LINE
  5
48E
100
AcDbEntity
  8
0
100
AcDbLine
 62
253
  6
CONTINUOUS
 10
0.25
 20
-3.384
 11
0.312
 21
-3.294
  0
LINE
  5
48F
100
AcDbEntity
  8
0
100
AcDbLine
 62
253
  6
CONTINUOUS
 10
-3.986
 20
-6.684
 11
-3.948
 21
-6.632
  0
LINE
  5
490
100
AcDbEntity
  8
0
100
AcDbLine
 62
253
  6
CONTINUOUS
 10
-0.062
 20
-3.986
 11
-0.124
 21
-4.07
  0
LINE
  5
491
100
AcDbEntity
  8
0
100
AcDbLine
 62
253
  6
CONTINUOUS
 10
0.902
 20
-0.34
 11
0.868
 21
-0.386
  0
LINE
  5
492
100
AcDbEntity
  8
0
100
AcDbLine
 62
253
  6
CONTINUOUS
 10
0.964
 20
-0.262
 11
0.902
 21
-0.34
  0
LINE
  5
493
100
AcDbEntity
  8
0
100
AcDbLine
 62
253
  6
CONTINUOUS
 10
-4.01
 20
-6.712
 11
-3.986
 21
-6.684
  0
LINE
  5
494
100
AcDbEntity
  8
0
100
AcDbLine
 62
253
  6
CONTINUOUS
 10
-3.92
 20
-7.884
 11
-3.986
 21
-7.958
  0
LINE
  5
495
100
AcDbEntity
  8
CURVE
100
AcDbLine
 62
253
  6
CONTINUOUS
 10
6.65
 20
4.3159999504
 11
6.8357142746
 21
4.5239998512
  0
LINE
  5
496
100
AcDbEntity
  8
0
100
AcDbLine
 62
253
  6
CONTINUOUS
 10
-0.104
 20
-2.758
 11
-0.172
 21
-2.832
  0
LINE
  5
497
100
AcDbEntity
  8
0
100
AcDbLine
 62
253
  6
CONTINUOUS
 10
10.095883
 20
9.179373
 11
16.931255
 21
16.012733
  0
LINE
  5
498
100
AcDbEntity
  8
0
100
AcDbLine
 62
253
  6
CONTINUOUS
 10
0.784
 20
-0.442
 11
0.728
 21
-0.488
  0
LINE
  5
499
100
AcDbEntity
  8
0
100
AcDbLine
 62
253
  6
CONTINUOUS
 10
0.504
 20
-2.848
 11
0.576
 21
-2.792
  0
LINE
  5
49A
100
AcDbEntity
  8
0
100
AcDbLine
 62
253
  6
CONTINUOUS
 10
0.868
 20
-0.386
 11
0.784
 21
-0.442
  0
LINE
  5
49B
100
AcDbEntity
  8
CURVE
100
AcDbLine
 62
253
  6
CONTINUOUS
 10
6.65
 20
1.3
 11
7.3928571373
 21
1.7160000186
  0
LINE
  5
49C
100
AcDbEntity
  8
0
100
AcDbLine
 62
253
  6
CONTINUOUS
 10
-2.152
 20
-1.884
 11
-0.852
 21
-1.332
  0
LINE
  5
49D
100
AcDbEntity
  8
0
100
AcDbLine
 62
253
  6
CONTINUOUS
 10
0.728
 20
-0.488
 11
0.564
 21
-0.544
  0
LINE
  5
49E
100
AcDbEntity
  8
0
100
AcDbLine
 62
253
  6
CONTINUOUS
 10
-0.852
 20
0.572
 11
-2.152
 21
0.572
  0
LINE
  5
49F
100
AcDbEntity
  8
0
100
AcDbLine
 62
253
  6
CONTINUOUS
 10
-1.19
 20
0.922
 11
-1.238
 21
0.922
  0
LINE
  5
4A0
100
AcDbEntity
  8
CORPO
100
AcDbLine
 62
7
  6
CONTINUOUS
 10
23.95
 20
1.0
 11
24.05
 21
1.0
  0
LINE
  5
4A1
100
AcDbEntity
  8
ASSI
100
AcDbLine
 62
7
  6
CONTINUOUS
 10
23.95
 20
1.0
 11
24.05
 21
1.0
  0
LINE
  5
4A2
100
AcDbEntity
  8
CURVE
100
AcDbLine
 62
253
  6
CONTINUOUS
 10
7.95
 20
1.3
 11
6.65
 21
1.3
  0
LINE
  5
4A3
100
AcDbEntity
  8
0
100
AcDbLine
 62
253
  6
CONTINUOUS
 10
-2.152
 20
1.544
 11
-0.852
 21
1.544
  0
LINE
  5
4A4
100
AcDbEntity
  8
CURVE
100
AcDbLine
 62
253
  6
CONTINUOUS
 10
6.65
 20
2.1320000372
 11
7.95
 21
2.1320000372
  0
LINE
  5
4A5
100
AcDbEntity
  8
0
100
AcDbLine
 62
253
  6
CONTINUOUS
 10
1.05
 20
0.75
 11
-0.25
 21
1.3
  0
LINE
  5
4A6
100
AcDbEntity
  8
0
100
AcDbLine
 62
253
  6
CONTINUOUS
 10
0.88
 20
0.484
 11
0.93
 21
0.44
  0
LINE
  5
4A7
100
AcDbEntity
  8
0
100
AcDbLine
 62
253
  6
CONTINUOUS
 10
-4.5071428895
 20
8.7
 11
-5.05
 21
9.3025714555
  0
LINE
  5
4A8
100
AcDbEntity
  8
0
100
AcDbLine
 62
253
  6
CONTINUOUS
 10
0.93
 20
0.44
 11
0.97
 21
0.372
  0
LINE
  5
4A9
100
AcDbEntity
  8
RACCORDO
100
AcDbLine
 62
253
  6
CONTINUOUS
 10
-12.2985455672
 20
23.8443375673
 11
-12.2366339006
 21
23.7367668404
  0
LWPOLYLINE
  5
4AA
100
AcDbEntity
  8
RACCORDO
100
AcDbPolyline
 62
253
  6
CONTINUOUS
 90
6
 70
0
 10
-12.2366339006
 20
23.7367668404
 10
-12.1912088368
 20
23.6571655895
 10
-12.1841001578
 20
23.6445573199
 10
-12.1789774285
 20
23.6353723694
 10
-12.1759269706
 20
23.6297655866
 10
-12.175
 20
23.6278312164
  0
LINE
  5
4AB
100
AcDbEntity
  8
0
100
AcDbLine
 62
253
  6
CONTINUOUS
 10
1.01
 20
0.282
 11
1.026
 21
0.248
  0
LINE
  5
4AC
100
AcDbEntity
  8
0
100
AcDbLine
 62
253
  6
CONTINUOUS
 10
0.97
 20
0.372
 11
1.01
 21
0.282
  0
LINE
  5
4AD
100
AcDbEntity
  8
0
100
AcDbLine
 62
253
  6
CONTINUOUS
 10
1.026
 20
0.248
 11
1.044
 21
0.1
  0
LINE
  5
4AE
100
AcDbEntity
  8
CURVE
100
AcDbLine
 62
253
  6
CONTINUOUS
 10
2.77696
 20
14.139499
 11
2.77696
 21
15.6
  0
LINE
  5
4AF
100
AcDbEntity
  8
0
100
AcDbLine
 62
253
  6
CONTINUOUS
 10
2.95
 20
-12.846
 11
2.95
 21
-12.102
  0
LINE
  5
4B0
100
AcDbEntity
  8
0
100
AcDbLine
 62
253
  6
CONTINUOUS
 10
-0.238
 20
-15.55
 11
-0.254
 21
-15.626
  0
LINE
  5
4B1
100
AcDbEntity
  8
0
100
AcDbLine
 62
253
  6
CONTINUOUS
 10
-0.216
 20
-13.292
 11
-0.252
 21
-13.454
  0
LINE
  5
4B2
100
AcDbEntity
  8
0
100
AcDbLine
 62
253
  6
CONTINUOUS
 10
1.01
 20
-13.618
 11
1.046
 21
-13.456
  0
LINE
  5
4B3
100
AcDbEntity
  8
0
100
AcDbLine
 62
253
  6
CONTINUOUS
 10
1.016
 20
-11.432
 11
1.04
 21
-11.344
  0
LINE
  5
4B4
100
AcDbEntity
  8
0
100
AcDbLine
 62
253
  6
CONTINUOUS
 10
0.408
 20
-11.086
 11
0.366
 21
-11.226
  0
LINE
  5
4B5
100
AcDbEntity
  8
0
100
AcDbLine
 62
253
  6
CONTINUOUS
 10
0.406
 20
-15.516
 11
0.364
 21
-15.656
  0
LINE
  5
4B6
100
AcDbEntity
  8
0
100
AcDbLine
 62
253
  6
CONTINUOUS
 10
1.042
 20
-12.436
 11
1.014
 21
-12.522
  0
LINE
  5
4B7
100
AcDbEntity
  8
0
100
AcDbLine
 62
253
  6
CONTINUOUS
 10
0.318
 20
-12.24
 11
0.352
 21
-12.154
  0
LWPOLYLINE
  5
4B8
100
AcDbEntity
  8
0
100
AcDbPolyline
 62
253
  6
CONTINUOUS
 90
39
 70
0
 10
10.5060979956
 20
13.9795664515
 10
10.4768074769
 20
13.9097606888
 10
10.4489917478
 20
13.8406989023
 10
10.422625871
 20
13.7724048476
 10
10.3976849095
 20
13.7049022801
 10
10.3741418024
 20
13.6382071223
 10
10.3519609952
 20
13.5723039645
 10
10.3311048098
 20
13.5071695641
 10
10.3115355681
 20
13.4427806784
 10
10.2932175549
 20
13.3791171647
 10
10.276122907
 20
13.3161712805
 10
10.2602257243
 20
13.2539383833
 10
10.2455001067
 20
13.1924138305
 10
10.2319201224
 20
13.1315901142
 10
10.2194597143
 20
13.0714482648
 10
10.2080927939
 20
13.0119664472
 10
10.1977932724
 20
12.9531228263
 10
10.1885362691
 20
12.8948945379
 10
10.1803017338
 20
12.8372546007
 10
10.1730708242
 20
12.7801750045
 10
10.166824698
 20
12.7236277388
 10
10.1599961212
 20
12.6490113704
 10
10.1548417488
 20
12.5752271498
 10
10.1513185571
 20
12.5022106555
 10
10.1493870537
 20
12.4298977929
 10
10.1490218724
 20
12.3582257761
 10
10.1502011788
 20
12.2871321459
 10
10.1529049407
 20
12.2165660445
 10
10.1571203353
 20
12.1465230192
 10
10.1628363421
 20
12.0770102181
 10
10.1700414836
 20
12.0080236677
 10
10.1787224541
 20
11.9395149066
 10
10.1888654906
 20
11.8714243514
 10
10.2004592752
 20
11.803699677
 10
10.2135022696
 20
11.7363175913
 10
10.2279953808
 20
11.6692620604
 10
10.2439404774
 20
11.6025209595
 10
10.2613432765
 20
11.5360977994
 10
10.280210457
 20
11.47
  0
LINE
  5
4B9
100
AcDbEntity
  8
0
100
AcDbLine
 62
253
  6
CONTINUOUS
 10
-0.194
 20
-11.038
 11
-0.236
 21
-11.12
  0
LINE
  5
4BA
100
AcDbEntity
  8
0
100
AcDbLine
 62
253
  6
CONTINUOUS
 10
0.998
 20
-3.334
 11
0.948
 21
-3.412
  0
LINE
  5
4BB
100
AcDbEntity
  8
0
100
AcDbLine
 62
253
  6
CONTINUOUS
 10
0.954
 20
-4.776
 11
0.982
 21
-4.736
  0
LINE
  5
4BC
100
AcDbEntity
  8
0
100
AcDbLine
 62
253
  6
CONTINUOUS
 10
0.882
 20
-4.876
 11
0.954
 21
-4.776
  0
LINE
  5
4BD
100
AcDbEntity
  8
0
100
AcDbLine
 62
253
  6
CONTINUOUS
 10
-1.0
 20
-7.424
 11
-1.034
 21
-7.47
  0
LINE
  5
4BE
100
AcDbEntity
  8
0
100
AcDbLine
 62
253
  6
CONTINUOUS
 10
-0.938
 20
-7.346
 11
-1.0
 21
-7.424
  0
LINE
  5
4BF
100
AcDbEntity
  8
0
100
AcDbLine
 62
253
  6
CONTINUOUS
 10
0.948
 20
-3.412
 11
0.88
 21
-3.486
  0
LINE
  5
4C0
100
AcDbEntity
  8
0
100
AcDbLine
 62
253
  6
CONTINUOUS
 10
-2.866
 20
-8.538
 11
-2.934
 21
-8.612
  0
LINE
  5
4C1
100
AcDbEntity
  8
0
100
AcDbLine
 62
253
  6
CONTINUOUS
 10
-2.058
 20
-6.696
 11
-2.012
 21
-6.65
  0
LINE
  5
4C2
100
AcDbEntity
  8
0
100
AcDbLine
 62
253
  6
CONTINUOUS
 10
-0.166
 20
-5.494
 11
-0.11
 21
-5.444
  0
LINE
  5
4C3
100
AcDbEntity
  8
0
100
AcDbLine
 62
253
  6
CONTINUOUS
 10
0.854
 20
-4.9
 11
0.882
 21
-4.876
  0
LINE
  5
4C4
100
AcDbEntity
  8
0
100
AcDbLine
 62
253
  6
CONTINUOUS
 10
-0.012
 20
-3.948
 11
-0.062
 21
-3.986
  0
LINE
  5
4C5
100
AcDbEntity
  8
0
100
AcDbLine
 62
253
  6
CONTINUOUS
 10
-3.312
 20
-7.974
 11
-3.238
 21
-7.918
  0
LINE
  5
4C6
100
AcDbEntity
  8
0
100
AcDbLine
 62
253
  6
CONTINUOUS
 10
0.786
 20
-4.95
 11
0.854
 21
-4.9
  0
LINE
  5
4C7
100
AcDbEntity
  8
0
100
AcDbLine
 62
253
  6
CONTINUOUS
 10
-2.152
 20
-5.07
 11
-0.852
 21
-4.158
  0
LINE
  5
4C8
100
AcDbEntity
  8
0
100
AcDbLine
 62
253
  6
CONTINUOUS
 10
0.078
 20
-3.886
 11
-0.012
 21
-3.948
  0
LINE
  5
4C9
100
AcDbEntity
  8
0
100
AcDbLine
 62
253
  6
CONTINUOUS
 10
0.73
 20
-4.988
 11
0.786
 21
-4.95
  0
LINE
  5
4CA
100
AcDbEntity
  8
0
100
AcDbLine
 62
253
  6
CONTINUOUS
 10
-3.948
 20
-6.632
 11
-3.868
 21
-6.588
  0
LINE
  5
4CB
100
AcDbEntity
  8
0
100
AcDbLine
 62
253
  6
CONTINUOUS
 10
0.154
 20
-3.436
 11
0.25
 21
-3.384
  0
LINE
  5
4CC
100
AcDbEntity
  8
0
100
AcDbLine
 62
253
  6
CONTINUOUS
 10
0.576
 20
-2.792
 11
0.644
 21
-2.758
  0
LINE
  5
4CD
100
AcDbEntity
  8
0
100
AcDbLine
 62
253
  6
CONTINUOUS
 10
-4.066
 20
-5.542
 11
-2.766
 21
-4.99
  0
LINE
  5
4CE
100
AcDbEntity
  8
0
100
AcDbLine
 62
253
  6
CONTINUOUS
 10
0.144
 20
-3.858
 11
0.078
 21
-3.886
  0
LWPOLYLINE
  5
4CF
100
AcDbEntity
  8
CURVE
100
AcDbPolyline
 62
253
  6
CONTINUOUS
 90
6
 70
0
 10
-7.4372735135
 20
-5.5965120355
 10
-7.41490565
 20
-5.5883180134
 10
-7.3919899533
 20
-5.5803096493
 10
-7.3685386133
 20
-5.5724509065
 10
-7.34456382
 20
-5.5647057486
 10
-7.3200777633
 20
-5.5570381388
  0
LINE
  5
4D0
100
AcDbEntity
  8
0
100
AcDbLine
 62
253
  6
CONTINUOUS
 10
0.212
 20
-3.836
 11
0.144
 21
-3.858
  0
LINE
  5
4D1
100
AcDbEntity
  8
CURVE
100
AcDbLine
 62
253
  6
CONTINUOUS
 10
-9.457657
 20
-7.92899
 11
-6.558004
 21
-7.039304
  0
LINE
  5
4D2
100
AcDbEntity
  8
CURVE
100
AcDbLine
 62
253
  6
CONTINUOUS
 10
-7.3200777633
 20
-5.5570381388
 11
-7.2781747221
 21
-5.5443096322
  0
LINE
  5
4D3
100
AcDbEntity
  8
CURVE
100
AcDbLine
 62
253
  6
CONTINUOUS
 10
-7.2781747221
 20
-5.5443096322
 11
-6.8995446002
 21
-5.4311404092
  0
LINE
  5
4D4
100
AcDbEntity
  8
CURVE
100
AcDbLine
 62
253
  6
CONTINUOUS
 10
-6.8995446002
 20
-5.4311404092
 11
-6.7695007197
 21
-5.3931040767
  0
LWPOLYLINE
  5
4D5
100
AcDbEntity
  8
CURVE
100
AcDbPolyline
 62
253
  6
CONTINUOUS
 90
3
 70
0
 10
-6.7695007197
 20
-5.3931040767
 10
-6.5946368487
 20
-5.3423920237
 10
-6.5580036477
 20
-5.3318417383
  0
LINE
  5
4D6
100
AcDbEntity
  8
CURVE
100
AcDbLine
 62
253
  6
CONTINUOUS
 10
-6.55
 20
2.70079
 11
-9.450001
 21
2.70079
  0
LINE
  5
4D7
100
AcDbEntity
  8
CURVE
100
AcDbLine
 62
253
  6
CONTINUOUS
 10
-8.968068
 20
3.323396
 11
-8.148695
 21
3.323396
  0
LINE
  5
4D8
100
AcDbEntity
  8
CURVE
100
AcDbLine
 62
253
  6
CONTINUOUS
 10
-7.666762
 20
3.323396
 11
-6.55
 21
3.323396
  0
LINE
  5
4D9
100
AcDbEntity
  8
CURVE
100
AcDbLine
 62
253
  6
CONTINUOUS
 10
7.95
 20
3.7960000248
 11
6.65
 21
3.7960000248
  0
LINE
  5
4DA
100
AcDbEntity
  8
CURVE
100
AcDbLine
 62
253
  6
CONTINUOUS
 10
6.8357142746
 20
4.5239998512
 11
7.764285706
 21
4.5239998512
  0
LINE
  5
4DB
100
AcDbEntity
  8
0
100
AcDbLine
 62
253
  6
CONTINUOUS
 10
-0.25
 20
4.774
 11
1.05
 21
4.774
  0
LWPOLYLINE
  5
4DC
100
AcDbEntity
  8
CURVE
100
AcDbPolyline
 62
253
  6
CONTINUOUS
 90
56
 70
0
 10
-8.5583820936
 20
4.1187598859
 10
-8.5437232085
 20
4.1186596929
 10
-8.529325542
 20
4.1183439275
 10
-8.5151875897
 20
4.117789841
 10
-8.5013078476
 20
4.1169746846
 10
-8.487685764
 20
4.1158772481
 10
-8.4743245976
 20
4.114482474
 10
-8.4612285596
 20
4.1127768435
 10
-8.448401861
 20
4.1107468376
 10
-8.4358480652
 20
4.1083833522
 10
-8.4235681437
 20
4.1056949429
 10
-8.4115624199
 20
4.1026945801
 10
-8.3998312175
 20
4.0993952342
 10
-8.3883753703
 20
4.0958101097
 10
-8.3771977534
 20
4.0919533463
 10
-8.3663017522
 20
4.0878393178
 10
-8.3556907522
 20
4.083482398
 10
-8.3453680324
 20
4.0788967853
 10
-8.3353364462
 20
4.0740959772
 10
-8.3255987405
 20
4.0690932962
 10
-8.3161576623
 20
4.0639020645
 10
-8.3070201428
 20
4.0585377829
 10
-8.2982098495
 20
4.0530246668
 10
-8.2897546343
 20
4.0473891097
 10
-8.281682349
 20
4.0416575056
 10
-8.2740128966
 20
4.0358516208
 10
-8.2667343849
 20
4.0299747124
 10
-8.259826973
 20
4.02402541
 10
-8.2532708199
 20
4.0180023434
 10
-8.2470464389
 20
4.0119010272
 10
-8.2411357608
 20
4.0057045157
 10
-8.2355210707
 20
3.9993927482
 10
-8.2301846537
 20
3.992945664
 10
-8.2251079315
 20
3.9863424483
 10
-8.2202688733
 20
3.9795592706
 10
-8.2156445846
 20
3.9725715463
 10
-8.2112121714
 20
3.9653546908
 10
-8.206951473
 20
3.9578848692
 10
-8.2028532635
 20
3.9501412449
 10
-8.1989110509
 20
3.9421037308
 10
-8.195118343
 20
3.93375224
 10
-8.1914701922
 20
3.9250663063
 10
-8.1879678284
 20
3.916023947
 10
-8.1846140265
 20
3.9066028
 10
-8.1814115611
 20
3.8967805036
 10
-8.1783641466
 20
3.8865396704
 10
-8.1754792572
 20
3.8758828116
 10
-8.1727653068
 20
3.8648174132
 10
-8.1702307095
 20
3.8533509609
 10
-8.1678804234
 20
3.841490822
 10
-8.1657055832
 20
3.8292438882
 10
-8.1636938678
 20
3.8166169327
 10
-8.161832956
 20
3.8036167284
 10
-8.1601068231
 20
3.790249176
 10
-8.1584846297
 20
3.7765166859
 10
-8.1569318325
 20
3.762420796
  0
LWPOLYLINE
  5
4DD
100
AcDbEntity
  8
CURVE
100
AcDbPolyline
 62
253
  6
CONTINUOUS
 90
62
 70
0
 10
-8.5583778895
 20
4.7815268003
 10
-8.5286991305
 20
4.7812242552
 10
-8.4998917512
 20
4.7803351845
 10
-8.4719705757
 20
4.7788872306
 10
-8.4449504275
 20
4.776908036
 10
-8.4188362095
 20
4.7744238473
 10
-8.3935931399
 20
4.7714553278
 10
-8.3691765159
 20
4.7680217452
 10
-8.3455416348
 20
4.764142367
 10
-8.3226475146
 20
4.7598353623
 10
-8.3004680571
 20
4.7551145052
 10
-8.2789808848
 20
4.7499924715
 10
-8.2581636203
 20
4.7444819368
 10
-8.2379915888
 20
4.7385956038
 10
-8.2184309255
 20
4.7323462821
 10
-8.199445468
 20
4.7257468087
 10
-8.180999054
 20
4.7188100203
 10
-8.1571885058
 20
4.7090570164
 10
-8.1342382156
 20
4.6987490263
 10
-8.1121144303
 20
4.6879079141
 10
-8.0907798128
 20
4.6765488712
 10
-8.0701826905
 20
4.6646603987
 10
-8.050267807
 20
4.6522243252
 10
-8.0309840747
 20
4.6392205601
 10
-8.0122970814
 20
4.6256213373
 10
-7.9941765834
 20
4.6113969713
 10
-7.9765889351
 20
4.5965167834
 10
-7.9594868809
 20
4.5809461209
 10
-7.9428197627
 20
4.5646493376
 10
-7.9265477455
 20
4.547596362
 10
-7.9106742855
 20
4.5297794229
 10
-7.8952136614
 20
4.5111963238
 10
-7.880174298
 20
4.4918321864
 10
-7.8655412022
 20
4.4716214065
 10
-7.8512935265
 20
4.4504856978
 10
-7.8408468399
 20
4.4339711061
 10
-7.8305885062
 20
4.4168067893
 10
-7.8205018061
 20
4.3989073304
 10
-7.8105700203
 20
4.3801873126
 10
-7.8007866654
 20
4.3605796499
 10
-7.7911862003
 20
4.3400905798
 10
-7.78181332
 20
4.3187446706
 10
-7.7727127193
 20
4.2965664907
 10
-7.7639306486
 20
4.2736126961
 10
-7.7555195815
 20
4.2500682932
 10
-7.7475335472
 20
4.2261503762
 10
-7.7400265751
 20
4.202076039
 10
-7.7308273463
 20
4.1700486358
 10
-7.7225327601
 20
4.1382825432
 10
-7.7150997408
 20
4.1069312068
 10
-7.7084806388
 20
4.0761104752
 10
-7.7026095064
 20
4.045785808
 10
-7.6974158219
 20
4.015885068
 10
-7.692834412
 20
3.986342318
 10
-7.6888214975
 20
3.9571164213
 10
-7.6853386476
 20
3.9281724416
 10
-7.6823447082
 20
3.8994732784
 10
-7.6797876316
 20
3.8709731753
 10
-7.6776126469
 20
3.842624212
 10
-7.6749487196
 20
3.80029154
 10
-7.6728480461
 20
3.7581026506
 10
-7.6711397481
 20
3.7159511804
  0
LINE
  5
4DE
100
AcDbEntity
  8
CURVE
100
AcDbLine
 62
253
  6
CONTINUOUS
 10
7.95
 20
2.5480000124
 11
6.65
 21
2.9640000744
  0
LINE
  5
4DF
100
AcDbEntity
  8
CURVE
100
AcDbLine
 62
253
  6
CONTINUOUS
 10
-9.450001
 20
8.227849
 11
-6.55
 21
7.179514
  0
LINE
  5
4E0
100
AcDbEntity
  8
0
100
AcDbLine
 62
253
  6
CONTINUOUS
 10
1.05
 20
3.908
 11
-0.25
 21
4.42
  0
LINE
  5
4E1
100
AcDbEntity
  8
CURVE
100
AcDbLine
 62
253
  6
CONTINUOUS
 10
6.65
 20
3.7960000248
 11
6.65
 21
4.3159999504
  0
LINE
  5
4E2
100
AcDbEntity
  8
CURVE
100
AcDbLine
 62
253
  6
CONTINUOUS
 10
6.65
 20
5.1133333664
 11
6.65
 21
5.737333416
  0
LINE
  5
4E3
100
AcDbEntity
  8
CURVE
100
AcDbLine
 62
253
  6
CONTINUOUS
 10
6.65
 20
11.4573334656
 11
6.65
 21
12.2893330688
  0
LINE
  5
4E4
100
AcDbEntity
  8
CURVE
100
AcDbLine
 62
253
  6
CONTINUOUS
 10
7.2071428239
 20
5.529333168
 11
7.2071428239
 21
5.1133333664
  0
LINE
  5
4E5
100
AcDbEntity
  8
0
100
AcDbLine
 62
253
  6
CONTINUOUS
 10
1.014
 20
-15.862
 11
1.038
 21
-15.774
  0
LINE
  5
4E6
100
AcDbEntity
  8
0
100
AcDbLine
 62
253
  6
CONTINUOUS
 10
1.04
 20
-14.65
 11
1.012
 21
-14.736
  0
LINE
  5
4E7
100
AcDbEntity
  8
0
100
AcDbLine
 62
253
  6
CONTINUOUS
 10
0.316
 20
-14.456
 11
0.35
 21
-14.37
  0
LINE
  5
4E8
100
AcDbEntity
  8
0
100
AcDbLine
 62
253
  6
CONTINUOUS
 10
-0.196
 20
-15.468
 11
-0.238
 21
-15.55
  0
LINE
  5
4E9
100
AcDbEntity
  8
0
100
AcDbLine
 62
253
  6
CONTINUOUS
 10
0.456
 20
-11.01
 11
0.408
 21
-11.086
  0
LINE
  5
4EA
100
AcDbEntity
  8
0
100
AcDbLine
 62
253
  6
CONTINUOUS
 10
0.96
 20
-11.518
 11
1.016
 21
-11.432
  0
LINE
  5
4EB
100
AcDbEntity
  8
0
100
AcDbLine
 62
253
  6
CONTINUOUS
 10
0.352
 20
-12.154
 11
0.412
 21
-12.068
  0
LINE
  5
4EC
100
AcDbEntity
  8
0
100
AcDbLine
 62
253
  6
CONTINUOUS
 10
-3.98
 20
-10.44
 11
-3.924
 21
-10.388
  0
LINE
  5
4ED
100
AcDbEntity
  8
0
100
AcDbLine
 62
253
  6
CONTINUOUS
 10
-1.118
 20
-7.526
 11
-1.174
 21
-7.572
  0
LINE
  5
4EE
100
AcDbEntity
  8
0
100
AcDbLine
 62
253
  6
CONTINUOUS
 10
-1.034
 20
-7.47
 11
-1.118
 21
-7.526
  0
LINE
  5
4EF
100
AcDbEntity
  8
0
100
AcDbLine
 62
253
  6
CONTINUOUS
 10
0.428
 20
-5.778
 11
1.044
 21
-5.41
  0
LINE
  5
4F0
100
AcDbEntity
  8
0
100
AcDbLine
 62
253
  6
CONTINUOUS
 10
-3.66
 20
-8.562
 11
-3.564
 21
-8.51
  0
LINE
  5
4F1
100
AcDbEntity
  8
0
100
AcDbLine
 62
253
  6
CONTINUOUS
 10
-3.238
 20
-7.918
 11
-3.17
 21
-7.884
  0
LINE
  5
4F2
100
AcDbEntity
  8
0
100
AcDbLine
 62
253
  6
CONTINUOUS
 10
-0.25
 20
-7.124
 11
1.05
 21
-6.572
  0
LINE
  5
4F3
100
AcDbEntity
  8
0
100
AcDbLine
 62
253
  6
CONTINUOUS
 10
0.68
 20
-5.006
 11
0.73
 21
-4.988
  0
LINE
  5
4F4
100
AcDbEntity
  8
0
100
AcDbLine
 62
253
  6
CONTINUOUS
 10
-1.174
 20
-7.572
 11
-1.338
 21
-7.628
  0
LINE
  5
4F5
100
AcDbEntity
  8
0
100
AcDbLine
 62
253
  6
CONTINUOUS
 10
-0.11
 20
-5.444
 11
-0.008
 21
-5.41
  0
LINE
  5
4F6
100
AcDbEntity
  8
0
100
AcDbLine
 62
253
  6
CONTINUOUS
 10
0.546
 20
-5.05
 11
0.68
 21
-5.006
  0
LINE
  5
4F7
100
AcDbEntity
  8
CURVE
100
AcDbLine
 62
253
  6
CONTINUOUS
 10
7.95
 20
5.1133333664
 11
6.65
 21
5.1133333664
  0
LINE
  5
4F8
100
AcDbEntity
  8
CURVE
100
AcDbLine
 62
253
  6
CONTINUOUS
 10
-6.55
 20
5.171133
 11
-9.450001
 21
5.171133
  0
LINE
  5
4F9
100
AcDbEntity
  8
CURVE
100
AcDbLine
 62
253
  6
CONTINUOUS
 10
-9.450001
 20
5.793739
 11
-7.031933
 21
5.793739
  0
LINE
  5
4FA
100
AcDbEntity
  8
CURVE
100
AcDbLine
 62
253
  6
CONTINUOUS
 10
-7.031933
 20
6.866738
 11
-6.55
 21
6.866738
  0
LINE
  5
4FB
100
AcDbEntity
  8
CURVE
100
AcDbLine
 62
253
  6
CONTINUOUS
 10
-7.646572
 20
8.151456
 11
-8.895841
 21
8.581471
  0
LINE
  5
4FC
100
AcDbEntity
  8
CURVE
100
AcDbLine
 62
253
  6
CONTINUOUS
 10
-6.55
 20
7.773964
 11
-7.164639
 21
7.990812
  0
LINE
  5
4FD
100
AcDbEntity
  8
CURVE
100
AcDbLine
 62
253
  6
CONTINUOUS
 10
7.3928571373
 20
1.7160000186
 11
6.65
 21
2.1320000372
  0
LINE
  5
4FE
100
AcDbEntity
  8
0
100
AcDbLine
 62
253
  6
CONTINUOUS
 10
-5.05
 20
13.9725
 11
-4.6428571105
 21
13.5205716441
  0
LINE
  5
4FF
100
AcDbEntity
  8
0
100
AcDbLine
 62
253
  6
CONTINUOUS
 10
-4.5071428895
 20
14.8763572147
 11
-5.05
 21
15.4789283559
  0
LINE
  5
500
100
AcDbEntity
  8
0
100
AcDbLine
 62
253
  6
CONTINUOUS
 10
-3.15
 20
13.9725
 11
-3.4214285836
 21
14.2737855706
  0
LINE
  5
501
100
AcDbEntity
  8
CURVE
100
AcDbLine
 62
253
  6
CONTINUOUS
 10
7.578571412
 20
2.6866666708
 11
7.578571412
 21
3.2413333912
  0
LINE
  5
502
100
AcDbEntity
  8
CURVE
100
AcDbLine
 62
253
  6
CONTINUOUS
 10
7.578571412
 20
12.8439997025
 11
7.578571412
 21
13.3986663361
  0
LINE
  5
503
100
AcDbEntity
  8
CURVE
100
AcDbLine
 62
253
  6
CONTINUOUS
 10
7.95
 20
5.737333416
 11
7.95
 21
5.1133333664
  0
LINE
  5
504
100
AcDbEntity
  8
CURVE
100
AcDbLine
 62
253
  6
CONTINUOUS
 10
7.95
 20
4.3159999504
 11
7.95
 21
3.7960000248
  0
LINE
  5
505
100
AcDbEntity
  8
CURVE
100
AcDbLine
 62
253
  6
CONTINUOUS
 10
7.95
 20
13.9533336639
 11
7.95
 21
14.4733330688
  0
LINE
  5
506
100
AcDbEntity
  8
0
100
AcDbLine
 62
253
  6
CONTINUOUS
 10
0.454
 20
-15.44
 11
0.406
 21
-15.516
  0
LINE
  5
507
100
AcDbEntity
  8
0
100
AcDbLine
 62
253
  6
CONTINUOUS
 10
0.958
 20
-15.948
 11
1.014
 21
-15.862
  0
LINE
  5
508
100
AcDbEntity
  8
0
100
AcDbLine
 62
253
  6
CONTINUOUS
 10
1.014
 20
-12.522
 11
0.95
 21
-12.618
  0
LINE
  5
509
100
AcDbEntity
  8
0
100
AcDbLine
 62
253
  6
CONTINUOUS
 10
1.012
 20
-14.736
 11
0.948
 21
-14.832
  0
LINE
  5
50A
100
AcDbEntity
  8
0
100
AcDbLine
 62
253
  6
CONTINUOUS
 10
0.35
 20
-14.37
 11
0.41
 21
-14.284
  0
LINE
  5
50B
100
AcDbEntity
  8
0
100
AcDbLine
 62
253
  6
CONTINUOUS
 10
-0.096
 20
-13.164
 11
-0.216
 21
-13.292
  0
LINE
  5
50C
100
AcDbEntity
  8
0
100
AcDbLine
 62
253
  6
CONTINUOUS
 10
0.524
 20
-10.94
 11
0.456
 21
-11.01
  0
LINE
  5
50D
100
AcDbEntity
  8
0
100
AcDbLine
 62
253
  6
CONTINUOUS
 10
-0.124
 20
-10.97
 11
-0.194
 21
-11.038
  0
LINE
  5
50E
100
AcDbEntity
  8
0
100
AcDbLine
 62
253
  6
CONTINUOUS
 10
0.882
 20
-11.588
 11
0.96
 21
-11.518
  0
LINE
  5
50F
100
AcDbEntity
  8
0
100
AcDbLine
 62
253
  6
CONTINUOUS
 10
-3.388
 20
-10.722
 11
-2.772
 21
-10.354
  0
LINE
  5
510
100
AcDbEntity
  8
0
100
AcDbLine
 62
253
  6
CONTINUOUS
 10
-4.066
 20
-12.068
 11
-2.766
 21
-11.516
  0
LINE
  5
511
100
AcDbEntity
  8
0
100
AcDbLine
 62
253
  6
CONTINUOUS
 10
-0.25
 20
-9.23
 11
1.026
 21
-8.696
  0
LINE
  5
512
100
AcDbEntity
  8
0
100
AcDbLine
 62
253
  6
CONTINUOUS
 10
-2.152
 20
-9.41
 11
-0.852
 21
-8.904
  0
LINE
  5
513
100
AcDbEntity
  8
CURVE
100
AcDbLine
 62
253
  6
CONTINUOUS
 10
-6.558004
 20
-11.040105
 11
-8.451423
 21
-11.750162
  0
LINE
  5
514
100
AcDbEntity
  8
CURVE
100
AcDbLine
 62
253
  6
CONTINUOUS
 10
-9.457657
 20
-11.593234
 11
-7.847761
 21
-10.994355
  0
LINE
  5
515
100
AcDbEntity
  8
0
100
AcDbLine
 62
253
  6
CONTINUOUS
 10
-3.924
 20
-10.388
 11
-3.822
 21
-10.354
  0
LINE
  5
516
100
AcDbEntity
  8
CURVE
100
AcDbLine
 62
253
  6
CONTINUOUS
 10
7.95
 20
7.5746663361
 11
6.65
 21
7.5746663361
  0
LINE
  5
517
100
AcDbEntity
  8
CURVE
100
AcDbLine
 62
253
  6
CONTINUOUS
 10
7.95
 20
8.2333332672
 11
6.65
 21
8.2333332672
  0
LINE
  5
518
100
AcDbEntity
  8
CURVE
100
AcDbLine
 62
253
  6
CONTINUOUS
 10
7.95
 20
8.9613332672
 11
6.65
 21
8.9613332672
  0
LINE
  5
519
100
AcDbEntity
  8
0
100
AcDbLine
 62
253
  6
CONTINUOUS
 10
-5.05
 20
9.3025714555
 11
-3.15
 21
9.3025714555
  0
LINE
  5
51A
100
AcDbEntity
  8
0
100
AcDbLine
 62
253
  6
CONTINUOUS
 10
-3.5571428612
 20
9.905142911
 11
-5.05
 21
10.3570713927
  0
LINE
  5
51B
100
AcDbEntity
  8
CURVE
100
AcDbLine
 62
253
  6
CONTINUOUS
 10
7.764285706
 20
4.5239998512
 11
7.95
 21
4.3159999504
  0
LINE
  5
51C
100
AcDbEntity
  8
0
100
AcDbLine
 62
253
  6
CONTINUOUS
 10
9.977372
 20
12.257943
 11
9.977372
 21
13.275755
  0
LINE
  5
51D
100
AcDbEntity
  8
0
100
AcDbLine
 62
253
  6
CONTINUOUS
 10
10.10021
 20
11.1
 11
10.10021
 21
11.47
  0
LINE
  5
51E
100
AcDbEntity
  8
0
100
AcDbLine
 62
253
  6
CONTINUOUS
 10
10.4267
 20
13.275755
 11
10.4267
 21
12.257943
  0
LINE
  5
51F
100
AcDbEntity
  8
0
100
AcDbLine
 62
253
  6
CONTINUOUS
 10
10.74021
 20
10.31
 11
10.74021
 21
14.47
  0
LINE
  5
520
100
AcDbEntity
  8
0
100
AcDbLine
 62
253
  6
CONTINUOUS
 10
11.04021
 20
14.47
 11
11.04021
 21
10.31
  0
LINE
  5
521
100
AcDbEntity
  8
0
100
AcDbLine
 62
253
  6
CONTINUOUS
 10
11.33021
 20
13.92
 11
11.33021
 21
14.8
  0
LINE
  5
522
100
AcDbEntity
  8
0
100
AcDbLine
 62
253
  6
CONTINUOUS
 10
0.896
 20
-13.742
 11
1.01
 21
-13.618
  0
LINE
  5
523
100
AcDbEntity
  8
0
100
AcDbLine
 62
253
  6
CONTINUOUS
 10
0.522
 20
-15.37
 11
0.454
 21
-15.44
  0
LINE
  5
524
100
AcDbEntity
  8
0
100
AcDbLine
 62
253
  6
CONTINUOUS
 10
-0.126
 20
-15.4
 11
-0.196
 21
-15.468
  0
LINE
  5
525
100
AcDbEntity
  8
0
100
AcDbLine
 62
253
  6
CONTINUOUS
 10
0.948
 20
-14.832
 11
0.876
 21
-14.894
  0
LINE
  5
526
100
AcDbEntity
  8
0
100
AcDbLine
 62
253
  6
CONTINUOUS
 10
0.95
 20
-12.618
 11
0.878
 21
-12.678
  0
LINE
  5
527
100
AcDbEntity
  8
0
100
AcDbLine
 62
253
  6
CONTINUOUS
 10
0.412
 20
-12.068
 11
0.486
 21
-12.012
  0
LINE
  5
528
100
AcDbEntity
  8
0
100
AcDbLine
 62
253
  6
CONTINUOUS
 10
0.41
 20
-14.284
 11
0.484
 21
-14.228
  0
LINE
  5
529
100
AcDbEntity
  8
0
100
AcDbLine
 62
253
  6
CONTINUOUS
 10
2.38
 20
-11.208
 11
1.65
 21
-11.686
  0
LINE
  5
52A
100
AcDbEntity
  8
0
100
AcDbLine
 62
253
  6
CONTINUOUS
 10
-0.048
 20
-10.93
 11
-0.124
 21
-10.97
  0
LINE
  5
52B
100
AcDbEntity
  8
0
100
AcDbLine
 62
253
  6
CONTINUOUS
 10
0.606
 20
-10.9
 11
0.524
 21
-10.94
  0
LINE
  5
52C
100
AcDbEntity
  8
0
100
AcDbLine
 62
253
  6
CONTINUOUS
 10
0.05
 20
-13.094
 11
-0.096
 21
-13.164
  0
LINE
  5
52D
100
AcDbEntity
  8
0
100
AcDbLine
 62
253
  6
CONTINUOUS
 10
-2.152
 20
-13.7
 11
-0.852
 21
-13.15
  0
LINE
  5
52E
100
AcDbEntity
  8
0
100
AcDbLine
 62
253
  6
CONTINUOUS
 10
-4.066
 20
-14.174
 11
-2.788
 21
-13.64
  0
LINE
  5
52F
100
AcDbEntity
  8
0
100
AcDbLine
 62
253
  6
CONTINUOUS
 10
0.486
 20
-12.012
 11
0.574
 21
-11.978
  0
LINE
  5
530
100
AcDbEntity
  8
0
100
AcDbLine
 62
253
  6
CONTINUOUS
 10
10.481743
 20
10.88
 11
11.04021
 21
10.93
  0
LINE
  5
531
100
AcDbEntity
  8
0
100
AcDbLine
 62
253
  6
CONTINUOUS
 10
11.04021
 20
10.93
 11
16.09021
 21
11.36
  0
LINE
  5
532
100
AcDbEntity
  8
0
100
AcDbLine
 62
253
  6
CONTINUOUS
 10
19.922628
 20
9.6
 11
18.422628
 21
9.6
  0
LINE
  5
533
100
AcDbEntity
  8
CURVE
100
AcDbLine
 62
253
  6
CONTINUOUS
 10
-6.55
 20
10.292325
 11
-9.450001
 21
10.292325
  0
LINE
  5
534
100
AcDbEntity
  8
0
100
AcDbLine
 62
253
  6
CONTINUOUS
 10
11.04021
 20
10.31
 11
10.74021
 21
10.31
  0
LINE
  5
535
100
AcDbEntity
  8
0
100
AcDbLine
 62
253
  6
CONTINUOUS
 10
-3.15
 20
10.6081428691
 11
-4.1
 21
10.6081428691
  0
LINE
  5
536
100
AcDbEntity
  8
CURVE
100
AcDbLine
 62
253
  6
CONTINUOUS
 10
7.95
 20
10.7986665344
 11
6.65
 21
10.7986665344
  0
LINE
  5
537
100
AcDbEntity
  8
CURVE
100
AcDbLine
 62
253
  6
CONTINUOUS
 10
-8.977104
 20
10.87477
 11
-6.55
 21
10.87477
  0
LINE
  5
538
100
AcDbEntity
  8
0
100
AcDbLine
 62
253
  6
CONTINUOUS
 10
10.74021
 20
11.1
 11
10.10021
 21
11.1
  0
LINE
  5
539
100
AcDbEntity
  8
0
100
AcDbLine
 62
253
  6
CONTINUOUS
 10
16.09021
 20
11.36
 11
16.69021
 21
11.36
  0
LINE
  5
53A
100
AcDbEntity
  8
0
100
AcDbLine
 62
253
  6
CONTINUOUS
 10
10.10021
 20
11.47
 11
10.74021
 21
11.47
  0
LINE
  5
53B
100
AcDbEntity
  8
0
100
AcDbLine
 62
253
  6
CONTINUOUS
 10
16.12021
 20
11.49
 11
16.58021
 21
11.49
  0
LINE
  5
53C
100
AcDbEntity
  8
CURVE
100
AcDbLine
 62
253
  6
CONTINUOUS
 10
-0.146077
 20
11.61489
 11
0.60474
 21
11.61489
  0
LINE
  5
53D
100
AcDbEntity
  8
CURVE
100
AcDbLine
 62
253
  6
CONTINUOUS
 10
4.19918
 20
11.61489
 11
4.949997
 21
11.61489
  0
LINE
  5
53E
100
AcDbEntity
  8
0
100
AcDbLine
 62
253
  6
CONTINUOUS
 10
16.58021
 20
11.71
 11
16.12021
 21
11.71
  0
LINE
  5
53F
100
AcDbEntity
  8
0
100
AcDbLine
 62
253
  6
CONTINUOUS
 10
16.69021
 20
11.82
 11
16.09021
 21
11.82
  0
LINE
  5
540
100
AcDbEntity
  8
CURVE
100
AcDbLine
 62
253
  6
CONTINUOUS
 10
7.95
 20
11.8733332672
 11
6.65
 21
11.8733332672
  0
LINE
  5
541
100
AcDbEntity
  8
0
100
AcDbLine
 62
253
  6
CONTINUOUS
 10
-3.5571428612
 20
11.562214178
 11
-5.05
 21
12.0141427853
  0
LINE
  5
542
100
AcDbEntity
  8
CURVE
100
AcDbLine
 62
253
  6
CONTINUOUS
 10
-7.646572
 20
14.176491
 11
-8.895677
 21
14.606449
  0
LINE
  5
543
100
AcDbEntity
  8
CURVE
100
AcDbLine
 62
253
  6
CONTINUOUS
 10
-6.55
 20
13.798889
 11
-7.164639
 21
14.015846
  0
LINE
  5
544
100
AcDbEntity
  8
CURVE
100
AcDbLine
 62
253
  6
CONTINUOUS
 10
-9.450001
 20
14.252884
 11
-6.55
 21
13.20444
  0
LINE
  5
545
100
AcDbEntity
  8
0
100
AcDbLine
 62
253
  6
CONTINUOUS
 10
-4.6428571105
 20
13.5205716441
 11
-4.1
 21
13.2192855706
  0
LINE
  5
546
100
AcDbEntity
  8
0
100
AcDbLine
 62
253
  6
CONTINUOUS
 10
12.15021
 20
12.12
 11
12.15021
 21
13.42
  0
LINE
  5
547
100
AcDbEntity
  8
0
100
AcDbLine
 62
253
  6
CONTINUOUS
 10
12.16021
 20
14.8
 11
12.16021
 21
13.92
  0
LINE
  5
548
100
AcDbEntity
  8
0
100
AcDbLine
 62
253
  6
CONTINUOUS
 10
12.52021
 20
13.42
 11
12.52021
 21
12.12
  0
LINE
  5
549
100
AcDbEntity
  8
0
100
AcDbLine
 62
253
  6
CONTINUOUS
 10
0.88
 20
-16.018
 11
0.958
 21
-15.948
  0
LINE
  5
54A
100
AcDbEntity
  8
RACCORDO
100
AcDbLine
 62
7
  6
CONTINUOUS
 10
-14.55
 20
-23.1226497308
 11
-15.425
 21
-23.6278312164
  0
LINE
  5
54B
100
AcDbEntity
  8
RACCORDO
100
AcDbLine
 62
253
  6
CONTINUOUS
 10
-14.3014544328
 20
-23.2669872981
 11
-15.3014544328
 21
-23.8443375673
  0
LINE
  5
54C
100
AcDbEntity
  8
0
100
AcDbLine
 62
253
  6
CONTINUOUS
 10
-0.05
 20
-15.362
 11
-0.126
 21
-15.4
  0
LINE
  5
54D
100
AcDbEntity
  8
0
100
AcDbLine
 62
253
  6
CONTINUOUS
 10
0.604
 20
-15.33
 11
0.522
 21
-15.37
  0
LINE
  5
54E
100
AcDbEntity
  8
0
100
AcDbLine
 62
253
  6
CONTINUOUS
 10
0.754
 20
-13.806
 11
0.896
 21
-13.742
  0
LINE
  5
54F
100
AcDbEntity
  8
0
100
AcDbLine
 62
253
  6
CONTINUOUS
 10
0.878
 20
-12.678
 11
0.79
 21
-12.716
  0
LINE
  5
550
100
AcDbEntity
  8
0
100
AcDbLine
 62
253
  6
CONTINUOUS
 10
0.876
 20
-14.894
 11
0.788
 21
-14.932
  0
LINE
  5
551
100
AcDbEntity
  8
0
100
AcDbLine
 62
253
  6
CONTINUOUS
 10
1.65
 20
-13.71
 11
2.95
 21
-13.158
  0
LINE
  5
552
100
AcDbEntity
  8
0
100
AcDbLine
 62
253
  6
CONTINUOUS
 10
-4.066
 20
-16.076
 11
-2.766
 21
-15.57
  0
LINE
  5
553
100
AcDbEntity
  8
0
100
AcDbLine
 62
253
  6
CONTINUOUS
 10
0.484
 20
-14.228
 11
0.572
 21
-14.194
  0
LINE
  5
554
100
AcDbEntity
  8
CURVE
100
AcDbLine
 62
253
  6
CONTINUOUS
 10
-6.558004
 20
-15.081013
 11
-9.457657
 21
-16.00026
  0
LINE
  5
555
100
AcDbEntity
  8
0
100
AcDbLine
 62
253
  6
CONTINUOUS
 10
12.52021
 20
12.12
 11
12.15021
 21
12.12
  0
LINE
  5
556
100
AcDbEntity
  8
0
100
AcDbLine
 62
253
  6
CONTINUOUS
 10
10.4267
 20
12.257943
 11
9.977372
 21
12.257943
  0
LINE
  5
557
100
AcDbEntity
  8
0
100
AcDbLine
 62
253
  6
CONTINUOUS
 10
-3.15
 20
12.2652142618
 11
-4.1
 21
12.2652142618
  0
LINE
  5
558
100
AcDbEntity
  8
CURVE
100
AcDbLine
 62
253
  6
CONTINUOUS
 10
-7.151887
 20
12.328754
 11
-9.450001
 21
12.328754
  0
LINE
  5
559
100
AcDbEntity
  8
CURVE
100
AcDbLine
 62
253
  6
CONTINUOUS
 10
-9.450001
 20
12.911198
 11
-6.55
 21
12.911198
  0
LINE
  5
55A
100
AcDbEntity
  8
0
100
AcDbLine
 62
253
  6
CONTINUOUS
 10
-4.1
 20
13.2192855706
 11
-3.4214285836
 21
13.2192855706
  0
LINE
  5
55B
100
AcDbEntity
  8
0
100
AcDbLine
 62
253
  6
CONTINUOUS
 10
9.977372
 20
13.275755
 11
10.4267
 21
13.275755
  0
LINE
  5
55C
100
AcDbEntity
  8
0
100
AcDbLine
 62
253
  6
CONTINUOUS
 10
12.15021
 20
13.42
 11
12.52021
 21
13.42
  0
LINE
  5
55D
100
AcDbEntity
  8
0
100
AcDbLine
 62
253
  6
CONTINUOUS
 10
12.16021
 20
13.92
 11
11.33021
 21
13.92
  0
LINE
  5
55E
100
AcDbEntity
  8
CURVE
100
AcDbLine
 62
253
  6
CONTINUOUS
 10
6.65
 20
13.9533336639
 11
7.95
 21
13.9533336639
  0
LINE
  5
55F
100
AcDbEntity
  8
RACCORDO
100
AcDbLine
 62
7
  6
CONTINUOUS
 10
-15.425
 20
23.6278312164
 11
-14.55
 21
23.1226497308
  0
LINE
  5
560
100
AcDbEntity
  8
RACCORDO
100
AcDbLine
 62
253
  6
CONTINUOUS
 10
-15.3014544328
 20
23.8443375673
 11
-14.3014544328
 21
23.2669872981
  0
LINE
  5
561
100
AcDbEntity
  8
0
100
AcDbLine
 62
253
  6
CONTINUOUS
 10
10.39021
 20
11.1
 11
10.481743
 21
10.88
  0
LINE
  5
562
100
AcDbEntity
  8
0
100
AcDbLine
 62
253
  6
CONTINUOUS
 10
10.2802100371
 20
11.4699998752
 11
10.39021
 21
11.1
  0
LINE
  5
563
100
AcDbEntity
  8
0
100
AcDbLine
 62
253
  6
CONTINUOUS
 10
16.09021
 20
11.82
 11
16.09021
 21
13.07
  0
LINE
  5
564
100
AcDbEntity
  8
0
100
AcDbLine
 62
253
  6
CONTINUOUS
 10
16.12021
 20
11.71
 11
16.12021
 21
11.49
  0
LINE
  5
565
100
AcDbEntity
  8
0
100
AcDbLine
 62
253
  6
CONTINUOUS
 10
-2.152
 20
-16.082
 11
-0.852
 21
-15.576
  0
LINE
  5
566
100
AcDbEntity
  8
0
100
AcDbLine
 62
253
  6
CONTINUOUS
 10
-3.4214285836
 20
14.2737855706
 11
-3.9642857224
 21
14.2737855706
  0
LINE
  5
567
100
AcDbEntity
  8
0
100
AcDbLine
 62
253
  6
CONTINUOUS
 10
10.74021
 20
14.47
 11
11.04021
 21
14.47
  0
LINE
  5
568
100
AcDbEntity
  8
0
100
AcDbLine
 62
253
  6
CONTINUOUS
 10
11.33021
 20
14.8
 11
12.16021
 21
14.8
  0
LINE
  5
569
100
AcDbEntity
  8
CURVE
100
AcDbLine
 62
253
  6
CONTINUOUS
 10
7.2071428239
 20
15.3053326721
 11
7.95
 21
15.3053326721
  0
LINE
  5
56A
100
AcDbEntity
  8
0
100
AcDbLine
 62
253
  6
CONTINUOUS
 10
-5.05
 20
15.4789283559
 11
-3.15
 21
15.4789283559
  0
LINE
  5
56B
100
AcDbEntity
  8
CURVE
100
AcDbLine
 62
253
  6
CONTINUOUS
 10
2.77696
 20
15.6
 11
2.02696
 21
15.6
  0
LINE
  5
56C
100
AcDbEntity
  8
0
100
AcDbLine
 62
253
  6
CONTINUOUS
 10
18.422628
 20
15.6
 11
19.922628
 21
15.6
  0
LINE
  5
56D
100
AcDbEntity
  8
CURVE
100
AcDbLine
 62
253
  6
CONTINUOUS
 10
4.9499971177
 20
16.0
 11
4.1991769516
 21
16.0
  0
LINE
  5
56E
100
AcDbEntity
  8
CURVE
100
AcDbLine
 62
253
  6
CONTINUOUS
 10
0.60474
 20
16.0
 11
-0.1460771177
 21
16.0
  0
LINE
  5
56F
100
AcDbEntity
  8
0
100
AcDbLine
 62
253
  6
CONTINUOUS
 10
12.16021
 20
14.14
 11
15.420801
 21
13.915132
  0
LINE
  5
570
100
AcDbEntity
  8
0
100
AcDbLine
 62
253
  6
CONTINUOUS
 10
11.04021
 20
14.23
 11
11.33021
 21
14.21
  0
LINE
  5
571
100
AcDbEntity
  8
0
100
AcDbLine
 62
253
  6
CONTINUOUS
 10
11.33021
 20
14.21
 11
12.16021
 21
14.14
  0
LINE
  5
572
100
AcDbEntity
  8
CURVE
100
AcDbLine
 62
253
  6
CONTINUOUS
 10
7.95
 20
12.7053335648
 11
6.65
 21
13.1213326721
  0
LINE
  5
573
100
AcDbEntity
  8
0
100
AcDbLine
 62
253
  6
CONTINUOUS
 10
16.58021
 20
11.49
 11
16.58021
 21
11.71
  0
LINE
  5
574
100
AcDbEntity
  8
0
100
AcDbLine
 62
253
  6
CONTINUOUS
 10
16.69021
 20
11.36
 11
16.69021
 21
11.82
  0
LINE
  5
575
100
AcDbEntity
  8
0
100
AcDbLine
 62
253
  6
CONTINUOUS
 10
18.422628
 20
9.6
 11
18.422628
 21
15.6
  0
LINE
  5
576
100
AcDbEntity
  8
CORPO
100
AcDbLine
 62
253
  6
CONTINUOUS
 10
23.95
 20
17.1746025225
 11
22.9674524064
 21
17.1746025225
  0
LINE
  5
577
100
AcDbEntity
  8
ASSI
100
AcDbLine
 62
253
  6
CONTINUOUS
 10
23.95
 20
17.1746025225
 11
22.9674524064
 21
17.1746025225
  0
LINE
  5
578
100
AcDbEntity
  8
CORPO
100
AcDbLine
 62
253
  6
CONTINUOUS
 10
-12.05
 20
17.7858344278
 11
22.9674524064
 21
17.1746025225
  0
LINE
  5
579
100
AcDbEntity
  8
ASSI
100
AcDbLine
 62
253
  6
CONTINUOUS
 10
-12.05
 20
17.7858344278
 11
22.9674524064
 21
17.1746025225
  0
LINE
  5
57A
100
AcDbEntity
  8
CURVE
100
AcDbLine
 62
253
  6
CONTINUOUS
 10
7.2071428239
 20
15.3053326721
 11
6.65
 21
15.7213338623
  0
LINE
  5
57B
100
AcDbEntity
  8
0
100
AcDbLine
 62
253
  6
CONTINUOUS
 10
10.089268
 20
16.012733
 11
16.922628
 21
9.177361
  0
LINE
  5
57C
100
AcDbEntity
  8
0
100
AcDbLine
 62
253
  6
CONTINUOUS
 10
19.922628
 20
15.6
 11
19.922628
 21
9.6
  0
LINE
  5
57D
100
AcDbEntity
  8
RACCORDO
100
AcDbLine
 62
7
  6
CONTINUOUS
 10
-2.05
 20
20.9959955457
 11
-11.8502132398
 21
20.9104703804
  0
LINE
  5
57E
100
AcDbEntity
  8
RACCORDO
100
AcDbLine
 62
7
  6
CONTINUOUS
 10
-2.2488364537
 20
19.7570215015
 11
-8.3749170717
 21
19.721381007
  0
LINE
  5
57F
100
AcDbEntity
  8
CORPO
100
AcDbLine
 62
7
  6
CONTINUOUS
 10
-12.05
 20
19.7855298181
 11
22.9674524064
 21
19.1742979128
  0
LINE
  5
580
100
AcDbEntity
  8
ASSI
100
AcDbLine
 62
7
  6
CONTINUOUS
 10
-12.05
 20
19.7855298181
 11
22.9674524064
 21
19.1742979128
  0
LINE
  5
581
100
AcDbEntity
  8
CORPO
100
AcDbLine
 62
7
  6
CONTINUOUS
 10
-2.1135520409
 20
19.8120884739
 11
-2.05
 21
19.8109791689
  0
LINE
  5
582
100
AcDbEntity
  8
ASSI
100
AcDbLine
 62
7
  6
CONTINUOUS
 10
-2.1135520409
 20
19.8120884739
 11
-2.05
 21
19.8109791689
  0
LINE
  5
583
100
AcDbEntity
  8
RACCORDO
100
AcDbLine
 62
253
  6
CONTINUOUS
 10
-21.6459721857
 20
20.5423171059
 11
-22.0628368746
 21
20.5596528958
  0
LWPOLYLINE
  5
584
100
AcDbEntity
  8
RACCORDO
100
AcDbPolyline
 62
253
  6
CONTINUOUS
 90
3
 70
0
 10
-22.0628368746
 20
20.5596528958
 10
-22.1229117069
 20
20.5622543627
 10
-22.1270059581
 20
20.5624683242
  0
LINE
  5
585
100
AcDbEntity
  8
CORPO
100
AcDbLine
 62
253
  6
CONTINUOUS
 10
22.9712174615
 20
19.112398915
 11
22.9718190613
 21
19.0853851229
  0
LINE
  5
586
100
AcDbEntity
  8
ASSI
100
AcDbLine
 62
253
  6
CONTINUOUS
 10
22.9712174615
 20
19.112398915
 11
22.9718190613
 21
19.0853851229
  0
LINE
  5
587
100
AcDbEntity
  8
CORPO
100
AcDbLine
 62
253
  6
CONTINUOUS
 10
22.9718190613
 20
19.0853851229
 11
22.9726194599
 21
19.0359837997
  0
LINE
  5
588
100
AcDbEntity
  8
ASSI
100
AcDbLine
 62
253
  6
CONTINUOUS
 10
22.9718190613
 20
19.0853851229
 11
22.9726194599
 21
19.0359837997
  0
LINE
  5
589
100
AcDbEntity
  8
CORPO
100
AcDbLine
 62
253
  6
CONTINUOUS
 10
22.9726194599
 20
19.0359837997
 11
22.9734893467
 21
18.9539824897
  0
LINE
  5
58A
100
AcDbEntity
  8
ASSI
100
AcDbLine
 62
253
  6
CONTINUOUS
 10
22.9726194599
 20
19.0359837997
 11
22.9734893467
 21
18.9539824897
  0
LINE
  5
58B
100
AcDbEntity
  8
CORPO
100
AcDbLine
 62
253
  6
CONTINUOUS
 10
22.9674524064
 20
-17.1746025225
 11
22.9698574801
 21
-17.4726327754
  0
LINE
  5
58C
100
AcDbEntity
  8
ASSI
100
AcDbLine
 62
253
  6
CONTINUOUS
 10
22.9674524064
 20
-17.1746025225
 11
22.9698574801
 21
-17.4726327754
  0
LINE
  5
58D
100
AcDbEntity
  8
CORPO
100
AcDbLine
 62
253
  6
CONTINUOUS
 10
22.9698574801
 20
-17.4726327754
 11
22.9718190613
 21
-17.763997708
  0
LINE
  5
58E
100
AcDbEntity
  8
ASSI
100
AcDbLine
 62
253
  6
CONTINUOUS
 10
22.9698574801
 20
-17.4726327754
 11
22.9718190613
 21
-17.763997708
  0
LINE
  5
58F
100
AcDbEntity
  8
CORPO
100
AcDbLine
 62
253
  6
CONTINUOUS
 10
22.9734893467
 20
18.9539824897
 11
22.9741257565
 21
18.8543015697
  0
LINE
  5
590
100
AcDbEntity
  8
ASSI
100
AcDbLine
 62
253
  6
CONTINUOUS
 10
22.9734893467
 20
18.9539824897
 11
22.9741257565
 21
18.8543015697
  0
LINE
  5
591
100
AcDbEntity
  8
CORPO
100
AcDbLine
 62
253
  6
CONTINUOUS
 10
22.9718190613
 20
-17.763997708
 11
22.9732934148
 21
-18.0421910753
  0
LINE
  5
592
100
AcDbEntity
  8
ASSI
100
AcDbLine
 62
253
  6
CONTINUOUS
 10
22.9718190613
 20
-17.763997708
 11
22.9732934148
 21
-18.0421910753
  0
LINE
  5
593
100
AcDbEntity
  8
CORPO
100
AcDbLine
 62
253
  6
CONTINUOUS
 10
22.9732934148
 20
-18.0421910753
 11
22.9742476338
 21
-18.3010029899
  0
LINE
  5
594
100
AcDbEntity
  8
ASSI
100
AcDbLine
 62
253
  6
CONTINUOUS
 10
22.9732934148
 20
-18.0421910753
 11
22.9742476338
 21
-18.3010029899
  0
LINE
  5
595
100
AcDbEntity
  8
CORPO
100
AcDbLine
 62
253
  6
CONTINUOUS
 10
22.9741257565
 20
18.8543015697
 11
22.9745838305
 21
18.7063632857
  0
LINE
  5
596
100
AcDbEntity
  8
ASSI
100
AcDbLine
 62
253
  6
CONTINUOUS
 10
22.9741257565
 20
18.8543015697
 11
22.9745838305
 21
18.7063632857
  0
LINE
  5
597
100
AcDbEntity
  8
CORPO
100
AcDbLine
 62
253
  6
CONTINUOUS
 10
22.9742476338
 20
-18.3010029899
 11
22.9746297721
 21
-18.4976893251
  0
LINE
  5
598
100
AcDbEntity
  8
ASSI
100
AcDbLine
 62
253
  6
CONTINUOUS
 10
22.9742476338
 20
-18.3010029899
 11
22.9746297721
 21
-18.4976893251
  0
LINE
  5
599
100
AcDbEntity
  8
CORPO
100
AcDbLine
 62
253
  6
CONTINUOUS
 10
22.9674524064
 20
17.1746025225
 11
22.9674524064
 21
-17.1746025225
  0
LINE
  5
59A
100
AcDbEntity
  8
ASSI
100
AcDbLine
 62
253
  6
CONTINUOUS
 10
22.9674524064
 20
17.1746025225
 11
22.9674524064
 21
-17.1746025225
  0
LINE
  5
59B
100
AcDbEntity
  8
CORPO
100
AcDbLine
 62
253
  6
CONTINUOUS
 10
22.9745838305
 20
18.7063632857
 11
22.9746604226
 21
18.534654975
  0
LINE
  5
59C
100
AcDbEntity
  8
ASSI
100
AcDbLine
 62
253
  6
CONTINUOUS
 10
22.9745838305
 20
18.7063632857
 11
22.9746604226
 21
18.534654975
  0
LINE
  5
59D
100
AcDbEntity
  8
CORPO
100
AcDbLine
 62
253
  6
CONTINUOUS
 10
22.9746297721
 20
-18.4976893251
 11
22.9746297729
 21
-18.673843046
  0
LINE
  5
59E
100
AcDbEntity
  8
ASSI
100
AcDbLine
 62
253
  6
CONTINUOUS
 10
22.9746297721
 20
-18.4976893251
 11
22.9746297729
 21
-18.673843046
  0
LINE
  5
59F
100
AcDbEntity
  8
CORPO
100
AcDbLine
 62
253
  6
CONTINUOUS
 10
22.9746604226
 20
18.534654975
 11
22.9743544675
 21
18.3418405171
  0
LINE
  5
5A0
100
AcDbEntity
  8
ASSI
100
AcDbLine
 62
253
  6
CONTINUOUS
 10
22.9746604226
 20
18.534654975
 11
22.9743544675
 21
18.3418405171
  0
LINE
  5
5A1
100
AcDbEntity
  8
CORPO
100
AcDbLine
 62
253
  6
CONTINUOUS
 10
22.9746297729
 20
-18.673843046
 11
22.9742476359
 21
-18.8267312989
  0
LINE
  5
5A2
100
AcDbEntity
  8
ASSI
100
AcDbLine
 62
253
  6
CONTINUOUS
 10
22.9746297729
 20
-18.673843046
 11
22.9742476359
 21
-18.8267312989
  0
LINE
  5
5A3
100
AcDbEntity
  8
CORPO
100
AcDbLine
 62
253
  6
CONTINUOUS
 10
22.9743544675
 20
18.3418405171
 11
22.9734893499
 21
18.0868344106
  0
LINE
  5
5A4
100
AcDbEntity
  8
ASSI
100
AcDbLine
 62
253
  6
CONTINUOUS
 10
22.9743544675
 20
18.3418405171
 11
22.9734893499
 21
18.0868344106
  0
LINE
  5
5A5
100
AcDbEntity
  8
CORPO
100
AcDbLine
 62
253
  6
CONTINUOUS
 10
22.9734893499
 20
18.0868344106
 11
22.9720997228
 21
17.8114497966
  0
LINE
  5
5A6
100
AcDbEntity
  8
ASSI
100
AcDbLine
 62
253
  6
CONTINUOUS
 10
22.9734893499
 20
18.0868344106
 11
22.9720997228
 21
17.8114497966
  0
LINE
  5
5A7
100
AcDbEntity
  8
CORPO
100
AcDbLine
 62
253
  6
CONTINUOUS
 10
22.9742476359
 20
-18.8267312989
 11
22.9736705577
 21
-18.9306840272
  0
LINE
  5
5A8
100
AcDbEntity
  8
ASSI
100
AcDbLine
 62
253
  6
CONTINUOUS
 10
22.9742476359
 20
-18.8267312989
 11
22.9736705577
 21
-18.9306840272
  0
LINE
  5
5A9
100
AcDbEntity
  8
CORPO
100
AcDbLine
 62
253
  6
CONTINUOUS
 10
22.9720997228
 20
17.8114497966
 11
22.9702166044
 21
17.5218346728
  0
LINE
  5
5AA
100
AcDbEntity
  8
ASSI
100
AcDbLine
 62
253
  6
CONTINUOUS
 10
22.9720997228
 20
17.8114497966
 11
22.9702166044
 21
17.5218346728
  0
LWPOLYLINE
  5
5AB
100
AcDbEntity
  8
CORPO
100
AcDbPolyline
 62
253
  6
CONTINUOUS
 90
3
 70
0
 10
22.9702166044
 20
17.5218346728
 10
22.9678814598
 20
17.2244563875
 10
22.9674524064
 20
17.1746025225
  0
LWPOLYLINE
  5
5AC
100
AcDbEntity
  8
ASSI
100
AcDbPolyline
 62
253
  6
CONTINUOUS
 90
3
 70
0
 10
22.9702166044
 20
17.5218346728
 10
22.9678814598
 20
17.2244563875
 10
22.9674524064
 20
17.1746025225
  0
LINE
  5
5AD
100
AcDbEntity
  8
CORPO
100
AcDbLine
 62
253
  6
CONTINUOUS
 10
22.9736705577
 20
-18.9306840272
 11
22.972858427
 21
-19.0171886511
  0
LINE
  5
5AE
100
AcDbEntity
  8
ASSI
100
AcDbLine
 62
253
  6
CONTINUOUS
 10
22.9736705577
 20
-18.9306840272
 11
22.972858427
 21
-19.0171886511
  0
LINE
  5
5AF
100
AcDbEntity
  8
CORPO
100
AcDbLine
 62
253
  6
CONTINUOUS
 10
22.972858427
 20
-19.0171886511
 11
22.9720997228
 21
-19.0700926405
  0
LINE
  5
5B0
100
AcDbEntity
  8
ASSI
100
AcDbLine
 62
253
  6
CONTINUOUS
 10
22.972858427
 20
-19.0171886511
 11
22.9720997228
 21
-19.0700926405
  0
LWPOLYLINE
  5
5B1
100
AcDbEntity
  8
CORPO
100
AcDbPolyline
 62
253
  6
CONTINUOUS
 90
13
 70
0
 10
22.9720997228
 20
-19.0700926405
 10
22.9715248657
 20
-19.0994901884
 10
22.971217466
 20
-19.1123989407
 10
22.9708966786
 20
-19.1241033957
 10
22.970562929
 20
-19.1345962856
 10
22.9702166044
 20
-19.1438710475
 10
22.9698574835
 20
-19.1519218683
 10
22.9694860318
 20
-19.1587437136
 10
22.9691026924
 20
-19.1643324019
 10
22.9687072332
 20
-19.1686845231
 10
22.9682999085
 20
-19.1717973476
 10
22.9678814598
 20
-19.1736688783
 10
22.9674524064
 20
-19.1742979128
  0
LWPOLYLINE
  5
5B2
100
AcDbEntity
  8
ASSI
100
AcDbPolyline
 62
253
  6
CONTINUOUS
 90
13
 70
0
 10
22.9720997228
 20
-19.0700926405
 10
22.9715248657
 20
-19.0994901884
 10
22.971217466
 20
-19.1123989407
 10
22.9708966786
 20
-19.1241033957
 10
22.970562929
 20
-19.1345962856
 10
22.9702166044
 20
-19.1438710475
 10
22.9698574835
 20
-19.1519218683
 10
22.9694860318
 20
-19.1587437136
 10
22.9691026924
 20
-19.1643324019
 10
22.9687072332
 20
-19.1686845231
 10
22.9682999085
 20
-19.1717973476
 10
22.9678814598
 20
-19.1736688783
 10
22.9674524064
 20
-19.1742979128
  0
LWPOLYLINE
  5
5B3
100
AcDbEntity
  8
RACCORDO
100
AcDbPolyline
 62
253
  6
CONTINUOUS
 90
19
 70
0
 10
-20.6896859495
 20
21.5093967499
 10
-20.7722003824
 20
21.5016541022
 10
-20.8529727447
 20
21.4874178774
 10
-20.9320030364
 20
21.4666880755
 10
-21.0098291409
 20
21.4392826589
 10
-21.0859131749
 20
21.4053836652
 10
-21.1586414881
 20
21.3655372072
 10
-21.2279926857
 20
21.3195471111
 10
-21.2939881625
 20
21.2676095507
 10
-21.3550784534
 20
21.2108591609
 10
-21.4111007457
 20
21.1491702798
 10
-21.462217852
 20
21.0826685694
 10
-21.5073687455
 20
21.0128656501
 10
-21.5463808393
 20
20.9397257246
 10
-21.5794267201
 20
20.8632845904
 10
-21.6059631219
 20
20.7851612601
 10
-21.6258089557
 20
20.7058954047
 10
-21.6391453103
 20
20.6249473533
 10
-21.6459721857
 20
20.5423171059
  0
LINE
  5
5B4
100
AcDbEntity
  8
RACCORDO
100
AcDbLine
 62
7
  6
CONTINUOUS
 10
-13.05
 20
22.3999487714
 11
-14.3014544328
 21
22.3339351971
  0
LINE
  5
5B5
100
AcDbEntity
  8
DRAFT
100
AcDbLine
 62
7
  6
CONTINUOUS
 10
-12.05
 20
20.9
 11
-11.8502132398
 21
20.9104703804
  0
LINE
  5
5B6
100
AcDbEntity
  8
RACCORDO
100
AcDbLine
 62
253
  6
CONTINUOUS
 10
-13.0478573976
 20
21.909888014
 11
-20.6896859495
 21
21.5093967499
  0
LINE
  5
5B7
100
AcDbEntity
  8
RACCORDO
100
AcDbLine
 62
7
  6
CONTINUOUS
 10
-14.3947953395
 20
22.329482895
 11
-20.7067788889
 21
21.998725222
  0
LINE
  5
5B8
100
AcDbEntity
  8
RACCORDO
100
AcDbLine
 62
7
  6
CONTINUOUS
 10
-14.3014544328
 20
22.3339351971
 11
-14.3372276713
 21
22.3321511872
  0
LINE
  5
5B9
100
AcDbEntity
  8
RACCORDO
100
AcDbLine
 62
7
  6
CONTINUOUS
 10
-14.3372276713
 20
22.3321511872
 11
-14.3947953395
 21
22.329482895
  0
LINE
  5
5BA
100
AcDbEntity
  8
RACCORDO
100
AcDbLine
 62
7
  6
CONTINUOUS
 10
-2.5412737968
 20
21.5659754333
 11
-12.05
 21
21.4
  0
LINE
  5
5BB
100
AcDbEntity
  8
RACCORDO
100
AcDbLine
 62
253
  6
CONTINUOUS
 10
-12.05
 20
21.9011798444
 11
-13.0478573976
 21
21.909888014
  0
LINE
  5
5BC
100
AcDbEntity
  8
RACCORDO
100
AcDbLine
 62
7
  6
CONTINUOUS
 10
-3.0412734645
 20
22.3126551668
 11
-13.05
 21
22.4
  0
LINE
  5
5BD
100
AcDbEntity
  8
CORPO
100
AcDbLine
 62
7
  6
CONTINUOUS
 10
-5.0494213785
 20
22.3633342638
 11
-2.05
 21
22.3109791689
  0
LINE
  5
5BE
100
AcDbEntity
  8
ASSI
100
AcDbLine
 62
7
  6
CONTINUOUS
 10
-5.0494213785
 20
22.3633342638
 11
-2.05
 21
22.3109791689
  0
LINE
  5
5BF
100
AcDbEntity
  8
CORPO
100
AcDbLine
 62
7
  6
CONTINUOUS
 10
23.95
 20
18.1744502176
 11
23.95
 21
-18.1744502176
  0
LINE
  5
5C0
100
AcDbEntity
  8
ASSI
100
AcDbLine
 62
7
  6
CONTINUOUS
 10
23.95
 20
18.1744502176
 11
23.95
 21
-18.1744502176
  0
LINE
  5
5C1
100
AcDbEntity
  8
CORPO
100
AcDbLine
 62
7
  6
CONTINUOUS
 10
24.05
 20
0.9999980763
 11
24.05
 21
-0.9998724389
  0
LINE
  5
5C2
100
AcDbEntity
  8
ASSI
100
AcDbLine
 62
7
  6
CONTINUOUS
 10
24.05
 20
0.9999980763
 11
24.05
 21
-0.9998724389
  0
LINE
  5
5C3
100
AcDbEntity
  8
RACCORDO
100
AcDbLine
 62
253
  6
CONTINUOUS
 10
-13.05
 20
24.2500042308
 11
-15.3014544328
 21
24.2369056521
  0
LINE
  5
5C4
100
AcDbEntity
  8
RACCORDO
100
AcDbLine
 62
7
  6
CONTINUOUS
 10
-13.05
 20
24.5
 11
-15.3014544328
 21
24.4869014213
  0
LINE
  5
5C5
100
AcDbEntity
  8
RACCORDO
100
AcDbLine
 62
253
  6
CONTINUOUS
 10
-15.55
 20
23.8443375673
 11
-15.3014544328
 21
23.8443375673
  0
LINE
  5
5C6
100
AcDbEntity
  8
RACCORDO
100
AcDbLine
 62
253
  6
CONTINUOUS
 10
-12.05
 20
23.8443375673
 11
-12.2985455672
 21
23.8443375673
  0
LINE
  5
5C7
100
AcDbEntity
  8
RACCORDO
100
AcDbLine
 62
253
  6
CONTINUOUS
 10
-15.55
 20
24.2369056521
 11
-15.3014544328
 21
24.2369056521
  0
LINE
  5
5C8
100
AcDbEntity
  8
RACCORDO
100
AcDbLine
 62
253
  6
CONTINUOUS
 10
-12.05
 20
24.2456323968
 11
-12.2985455672
 21
24.2456323968
  0
LINE
  5
5C9
100
AcDbEntity
  8
RACCORDO
100
AcDbLine
 62
7
  6
CONTINUOUS
 10
-12.0502917857
 20
23.7941838677
 11
-5.0500002069
 21
23.7534573627
  0
LINE
  5
5CA
100
AcDbEntity
  8
RACCORDO
100
AcDbLine
 62
253
  6
CONTINUOUS
 10
-12.2985455672
 20
24.2456323968
 11
-13.05
 21
24.2500042308
  0
LINE
  5
5CB
100
AcDbEntity
  8
RACCORDO
100
AcDbLine
 62
7
  6
CONTINUOUS
 10
-12.2985455672
 20
24.495628166
 11
-13.05
 21
24.5
  0
LWPOLYLINE
  5
5CC
100
AcDbEntity
  8
CORPO
100
AcDbPolyline
 62
253
  6
CONTINUOUS
 90
11
 70
0
 10
22.9674524064
 20
19.1742979128
 10
22.9678814571
 20
19.1736688769
 10
22.9682999038
 20
19.1717973428
 10
22.9687072274
 20
19.1686845139
 10
22.9691026869
 20
19.164332389
 10
22.9694860276
 20
19.1587436984
 10
22.9698574801
 20
19.1519218513
 10
22.9702166007
 20
19.1438710287
 10
22.9705629247
 20
19.1345962654
 10
22.9708966739
 20
19.1241033736
 10
22.9712174615
 20
19.112398915
  0
LWPOLYLINE
  5
5CD
100
AcDbEntity
  8
ASSI
100
AcDbPolyline
 62
253
  6
CONTINUOUS
 90
11
 70
0
 10
22.9674524064
 20
19.1742979128
 10
22.9678814571
 20
19.1736688769
 10
22.9682999038
 20
19.1717973428
 10
22.9687072274
 20
19.1686845139
 10
22.9691026869
 20
19.164332389
 10
22.9694860276
 20
19.1587436984
 10
22.9698574801
 20
19.1519218513
 10
22.9702166007
 20
19.1438710287
 10
22.9705629247
 20
19.1345962654
 10
22.9708966739
 20
19.1241033736
 10
22.9712174615
 20
19.112398915
  0
LWPOLYLINE
  5
5CE
100
AcDbEntity
  8
RACCORDO
100
AcDbPolyline
 62
7
  6
CONTINUOUS
 90
5
 70
0
 10
38.7334909204
 20
24.4106955334
 10
38.7084959021
 20
24.3749996731
 10
38.6900788401
 20
24.3355060529
 10
38.6787993033
 20
24.2934146147
 10
38.675
 20
24.2500042308
  0
LINE
  5
5CF
100
AcDbEntity
  8
RACCORDO
100
AcDbLine
 62
7
  6
CONTINUOUS
 10
38.7643044666
 20
24.4415090796
 11
38.7334909204
 21
24.4106955334
  0
LINE
  5
5D0
100
AcDbEntity
  8
RACCORDO
100
AcDbLine
 62
253
  6
CONTINUOUS
 10
40.8250042308
 20
24.5
 11
40.8246205848
 21
24.499616354
  0
LINE
  5
5D1
100
AcDbEntity
  8
RACCORDO
100
AcDbLine
 62
7
  6
CONTINUOUS
 10
38.7334909204
 20
-24.4106955334
 11
38.7643044666
 21
-24.4415090796
  0
LINE
  5
5D2
100
AcDbEntity
  8
RACCORDO
100
AcDbLine
 62
253
  6
CONTINUOUS
 10
40.8250042308
 20
-24.5
 11
40.8246205848
 21
-24.499616354
  0
LWPOLYLINE
  5
5D3
100
AcDbEntity
  8
RACCORDO
100
AcDbPolyline
 62
7
  6
CONTINUOUS
 90
3
 70
0
 10
38.6900788401
 20
-24.3355060529
 10
38.7084959021
 20
-24.3749996731
 10
38.7334909204
 20
-24.4106955334
  0
LWPOLYLINE
  5
5D4
100
AcDbEntity
  8
RACCORDO
100
AcDbPolyline
 62
7
  6
CONTINUOUS
 90
3
 70
0
 10
38.675
 20
-24.2500042308
 10
38.6787993033
 20
-24.2934146147
 10
38.6900788401
 20
-24.3355060529
  0
LWPOLYLINE
  5
5D5
100
AcDbEntity
  8
RACCORDO
100
AcDbPolyline
 62
7
  6
CONTINUOUS
 90
5
 70
0
 10
38.7643044666
 20
-24.4415090796
 10
38.8000003269
 20
-24.4665040979
 10
38.8394939471
 20
-24.4849211599
 10
38.8815853853
 20
-24.4962006967
 10
38.9249957692
 20
-24.5
  0
LWPOLYLINE
  5
5D6
100
AcDbEntity
  8
RACCORDO
100
AcDbPolyline
 62
253
  6
CONTINUOUS
 90
13
 70
0
 10
41.0619014213
 20
-23.8443375673
 10
41.0597194283
 20
-23.8164122522
 10
41.0533709795
 20
-23.7888676909
 10
41.0429239476
 20
-23.7621735851
 10
41.02850038
 20
-23.7367668404
 10
41.0103193852
 20
-23.7131246796
 10
40.9887322372
 20
-23.6917350818
 10
40.9641352734
 20
-23.6729824084
 10
40.9369301839
 20
-23.6571655895
 10
40.9075878308
 20
-23.6445573199
 10
40.8766133274
 20
-23.6353723694
 10
40.844536136
 20
-23.6297655866
 10
40.8119056521
 20
-23.6278312164
  0
LWPOLYLINE
  5
5D7
100
AcDbEntity
  8
RACCORDO
100
AcDbPolyline
 62
253
  6
CONTINUOUS
 90
13
 70
0
 10
38.3258062792
 20
-21.5093967499
 10
38.3300504768
 20
-21.5732248214
 10
38.3425940671
 20
-21.6359631973
 10
38.3632230892
 20
-21.6965397182
 10
38.3915853934
 20
-21.7539190856
 10
38.4271966425
 20
-21.8071205561
 10
38.4694485739
 20
-21.8552347091
 10
38.5176194835
 20
-21.8974390769
 10
38.5708862699
 20
-21.9330119554
 10
38.6283383974
 20
-21.9613448834
 10
38.688993895
 20
-21.9819533482
 10
38.7518162241
 20
-21.9944849395
 10
38.8157316498
 20
-21.998725222
  0
LWPOLYLINE
  5
5D8
100
AcDbEntity
  8
RACCORDO
100
AcDbPolyline
 62
7
  6
CONTINUOUS
 90
13
 70
0
 10
38.6880985787
 20
-24.2369056521
 10
38.6902383395
 20
-24.2695359488
 10
38.6966188029
 20
-24.3016079562
 10
38.707130802
 20
-24.3325729368
 10
38.7215944813
 20
-24.3619010942
 10
38.739762374
 20
-24.3890906368
 10
38.7613236357
 20
-24.4136763643
 10
38.7859093632
 20
-24.435237626
 10
38.8130989058
 20
-24.4534055187
 10
38.8424270632
 20
-24.467869198
 10
38.8733920438
 20
-24.4783811971
 10
38.9054640512
 20
-24.4847616605
 10
38.9380943479
 20
-24.4869014213
  0
LWPOLYLINE
  5
5D9
100
AcDbEntity
  8
RACCORDO
100
AcDbPolyline
 62
253
  6
CONTINUOUS
 90
8
 70
0
 10
38.3352024582
 20
21.3195471111
 10
38.3339919286
 20
21.3655372071
 10
38.3327224511
 20
21.4053836641
 10
38.3313943994
 20
21.4392826566
 10
38.3300359397
 20
21.4666880726
 10
38.3286564608
 20
21.4874178749
 10
38.327246574
 20
21.5016541006
 10
38.3258062792
 20
21.5093967499
  0
LWPOLYLINE
  5
5DA
100
AcDbEntity
  8
RACCORDO
100
AcDbPolyline
 62
253
  6
CONTINUOUS
 90
7
 70
0
 10
38.8239274407
 20
21.7845304738
 10
38.822663415
 20
21.8437819841
 10
38.8213407635
 20
21.8939084562
 10
38.8199838272
 20
21.934700178
 10
38.8186007196
 20
21.9659060893
 10
38.8171833271
 20
21.9872936772
 10
38.8157316498
 20
21.998725222
  0
LINE
  5
5DB
100
AcDbEntity
  8
RACCORDO
100
AcDbLine
 62
253
  6
CONTINUOUS
 10
38.3374207486
 20
21.2108591607
 11
38.3352024582
 21
21.3195471111
  0
LINE
  5
5DC
100
AcDbEntity
  8
RACCORDO
100
AcDbLine
 62
253
  6
CONTINUOUS
 10
38.8262807988
 20
21.6398815811
 11
38.8239274407
 21
21.7845304738
  0
LINE
  5
5DD
100
AcDbEntity
  8
RACCORDO
100
AcDbLine
 62
253
  6
CONTINUOUS
 10
38.3392908737
 20
21.0826685694
 11
38.3374207486
 21
21.2108591607
  0
LINE
  5
5DE
100
AcDbEntity
  8
RACCORDO
100
AcDbLine
 62
253
  6
CONTINUOUS
 10
38.8283188223
 20
21.4641539927
 11
38.8262807988
 21
21.6398815811
  0
LINE
  5
5DF
100
AcDbEntity
  8
RACCORDO
100
AcDbLine
 62
253
  6
CONTINUOUS
 10
38.6880985787
 20
-23.8443375673
 11
38.6822807489
 21
-23.2669872981
  0
LINE
  5
5E0
100
AcDbEntity
  8
RACCORDO
100
AcDbLine
 62
253
  6
CONTINUOUS
 10
38.9380943479
 20
-23.6278312164
 11
38.9330037468
 21
-23.1226497308
  0
LINE
  5
5E1
100
AcDbEntity
  8
RACCORDO
100
AcDbLine
 62
253
  6
CONTINUOUS
 10
38.3407599442
 20
20.9397257251
 11
38.3392908737
 21
21.0826685694
  0
LINE
  5
5E2
100
AcDbEntity
  8
RACCORDO
100
AcDbLine
 62
253
  6
CONTINUOUS
 10
38.8299967206
 20
21.2624358569
 11
38.8283188223
 21
21.4641539927
  0
LINE
  5
5E3
100
AcDbEntity
  8
RACCORDO
100
AcDbLine
 62
253
  6
CONTINUOUS
 10
38.3417999568
 20
20.7851612609
 11
38.3407599442
 21
20.9397257251
  0
LINE
  5
5E4
100
AcDbEntity
  8
RACCORDO
100
AcDbLine
 62
253
  6
CONTINUOUS
 10
38.8312549767
 20
21.0411669498
 11
38.8299967206
 21
21.2624358569
  0
LINE
  5
5E5
100
AcDbEntity
  8
RACCORDO
100
AcDbLine
 62
253
  6
CONTINUOUS
 10
38.8320672023
 20
20.8057774365
 11
38.8312549767
 21
21.0411669498
  0
LINE
  5
5E6
100
AcDbEntity
  8
RACCORDO
100
AcDbLine
 62
253
  6
CONTINUOUS
 10
38.342379154
 20
20.6249473537
 11
38.3417999568
 21
20.7851612609
  0
LINE
  5
5E7
100
AcDbEntity
  8
RACCORDO
100
AcDbLine
 62
253
  6
CONTINUOUS
 10
38.8324236882
 20
20.5624683248
 11
38.8320672023
 21
20.8057774365
  0
LINE
  5
5E8
100
AcDbEntity
  8
RACCORDO
100
AcDbLine
 62
7
  6
CONTINUOUS
 10
38.175
 20
21.9011798444
 11
38.175
 21
-21.9011798444
  0
LINE
  5
5E9
100
AcDbEntity
  8
CORPO
100
AcDbLine
 62
7
  6
CONTINUOUS
 10
38.175
 20
-17.7858344278
 11
38.175
 21
17.7858344278
  0
LINE
  5
5EA
100
AcDbEntity
  8
ASSI
100
AcDbLine
 62
7
  6
CONTINUOUS
 10
38.175
 20
-17.7858344278
 11
38.175
 21
17.7858344278
  0
LINE
  5
5EB
100
AcDbEntity
  8
RACCORDO
100
AcDbLine
 62
7
  6
CONTINUOUS
 10
38.675
 20
-23.2669872981
 11
38.675
 21
-24.2500042308
  0
LINE
  5
5EC
100
AcDbEntity
  8
RACCORDO
100
AcDbLine
 62
7
  6
CONTINUOUS
 10
38.675
 20
23.2669872981
 11
38.675
 21
24.2500042308
  0
LINE
  5
5ED
100
AcDbEntity
  8
RACCORDO
100
AcDbLine
 62
7
  6
CONTINUOUS
 10
38.6822807489
 20
-23.2669872981
 11
38.6822807489
 21
-22.3339351971
  0
LINE
  5
5EE
100
AcDbEntity
  8
RACCORDO
100
AcDbLine
 62
7
  6
CONTINUOUS
 10
38.6822807489
 20
22.3339351971
 11
38.6822807489
 21
23.2669872981
  0
LINE
  5
5EF
100
AcDbEntity
  8
RACCORDO
100
AcDbLine
 62
7
  6
CONTINUOUS
 10
38.6880985787
 20
24.2369056521
 11
38.6880985787
 21
23.8443375673
  0
LINE
  5
5F0
100
AcDbEntity
  8
RACCORDO
100
AcDbLine
 62
7
  6
CONTINUOUS
 10
38.6880985787
 20
-23.8443375673
 11
38.6880985787
 21
-24.2369056521
  0
LINE
  5
5F1
100
AcDbEntity
  8
RACCORDO
100
AcDbLine
 62
253
  6
CONTINUOUS
 10
38.9322765181
 20
-23.1226497308
 11
38.9322765181
 21
-22.3213883311
  0
LINE
  5
5F2
100
AcDbEntity
  8
RACCORDO
100
AcDbLine
 62
253
  6
CONTINUOUS
 10
38.9322765181
 20
22.3213883311
 11
38.9322765181
 21
23.1226497308
  0
LINE
  5
5F3
100
AcDbEntity
  8
RACCORDO
100
AcDbLine
 62
253
  6
CONTINUOUS
 10
38.9380943479
 20
-23.6278312164
 11
38.9380943479
 21
-24.4869014213
  0
LINE
  5
5F4
100
AcDbEntity
  8
RACCORDO
100
AcDbLine
 62
253
  6
CONTINUOUS
 10
38.9380943479
 20
23.6278312164
 11
38.9380943479
 21
24.4869014213
  0
LWPOLYLINE
  5
5F5
100
AcDbEntity
  8
RACCORDO
100
AcDbPolyline
 62
253
  6
CONTINUOUS
 90
9
 70
0
 10
38.3454123069
 20
-15.9785124608
 10
38.3475977985
 20
-11.4141291356
 10
38.3490547923
 20
-6.8491671301
 10
38.3497832877
 20
-2.2832397745
 10
38.3497832853
 20
2.2832662612
 10
38.3490547869
 20
6.8491909681
 10
38.3475977931
 20
11.4141476763
 10
38.3454123033
 20
15.9785230555
 10
38.342379154
 20
20.6249473537
  0
LWPOLYLINE
  5
5F6
100
AcDbEntity
  8
RACCORDO
100
AcDbPolyline
 62
253
  6
CONTINUOUS
 90
9
 70
0
 10
38.8353376781
 20
-15.9948130116
 10
38.8375231706
 20
-11.4258211511
 10
38.8389801656
 20
-6.8558745538
 10
38.8397086632
 20
-2.2853551557
 10
38.8397086634
 20
2.2853551508
 10
38.8389801659
 20
6.8558745493
 10
38.8375231709
 20
11.4258211477
 10
38.8353376783
 20
15.9948130097
 10
38.8324236882
 20
20.5624683248
  0
LINE
  5
5F7
100
AcDbEntity
  8
RACCORDO
100
AcDbLine
 62
253
  6
CONTINUOUS
 10
38.8320668802
 20
-20.8058711188
 11
38.8353376781
 21
-15.9948130116
  0
LINE
  5
5F8
100
AcDbEntity
  8
RACCORDO
100
AcDbLine
 62
253
  6
CONTINUOUS
 10
38.3421467329
 20
-20.7058282715
 11
38.3454123069
 21
-15.9785124608
  0
LINE
  5
5F9
100
AcDbEntity
  8
RACCORDO
100
AcDbLine
 62
253
  6
CONTINUOUS
 10
38.8312554959
 20
-21.0411327903
 11
38.8320668802
 21
-20.8058711188
  0
LINE
  5
5FA
100
AcDbEntity
  8
RACCORDO
100
AcDbLine
 62
253
  6
CONTINUOUS
 10
38.3413374073
 20
-20.8632058906
 11
38.3421467329
 21
-20.7058282715
  0
LINE
  5
5FB
100
AcDbEntity
  8
RACCORDO
100
AcDbLine
 62
253
  6
CONTINUOUS
 10
38.829998844
 20
-21.2621628114
 11
38.8312554959
 21
-21.0411327903
  0
LINE
  5
5FC
100
AcDbEntity
  8
RACCORDO
100
AcDbLine
 62
253
  6
CONTINUOUS
 10
38.8283216943
 20
-21.4638296838
 11
38.829998844
 21
-21.2621628114
  0
LINE
  5
5FD
100
AcDbEntity
  8
RACCORDO
100
AcDbLine
 62
253
  6
CONTINUOUS
 10
38.3400795429
 20
-21.0128307347
 11
38.3413374073
 21
-20.8632058906
  0
LINE
  5
5FE
100
AcDbEntity
  8
RACCORDO
100
AcDbLine
 62
253
  6
CONTINUOUS
 10
38.6822807489
 20
23.2669872981
 11
38.6880985787
 21
23.8443375673
  0
LINE
  5
5FF
100
AcDbEntity
  8
RACCORDO
100
AcDbLine
 62
253
  6
CONTINUOUS
 10
38.9330037468
 20
23.1226497308
 11
38.9380943479
 21
23.6278312164
  0
LINE
  5
600
100
AcDbEntity
  8
RACCORDO
100
AcDbLine
 62
253
  6
CONTINUOUS
 10
38.8262840235
 20
-21.6396062036
 11
38.8283216943
 21
-21.4638296838
  0
LINE
  5
601
100
AcDbEntity
  8
RACCORDO
100
AcDbLine
 62
253
  6
CONTINUOUS
 10
38.3383969593
 20
-21.1492674246
 11
38.3400795429
 21
-21.0128307347
  0
LWPOLYLINE
  5
602
100
AcDbEntity
  8
RACCORDO
100
AcDbPolyline
 62
7
  6
CONTINUOUS
 90
12
 70
0
 10
38.1924176657
 20
21.909888014
 10
38.1949299938
 20
21.9592693875
 10
38.2024077132
 20
22.0081737604
 10
38.2147827674
 20
22.0561018132
 10
38.2319006115
 20
22.1024775204
 10
38.2536132513
 20
22.1469174645
 10
38.2798651028
 20
22.1891945685
 10
38.3104551785
 20
22.2288134235
 10
38.3451452841
 20
22.2653164805
 10
38.3838915176
 20
22.298449669
 10
38.4264469282
 20
22.3277342994
 10
38.4634554329
 20
22.3482808577
  0
LWPOLYLINE
  5
603
100
AcDbEntity
  8
RACCORDO
100
AcDbPolyline
 62
253
  6
CONTINUOUS
 90
13
 70
0
 10
38.3258062792
 20
21.5093967499
 10
38.3300511682
 20
21.573230031
 10
38.342596537
 20
21.635972375
 10
38.36322798
 20
21.6965514894
 10
38.3915928973
 20
21.7539320521
 10
38.4272065209
 20
21.8071334057
 10
38.4694601994
 20
21.8552463172
 10
38.5176318
 20
21.8974485172
 10
38.5708980504
 20
21.9330187524
 10
38.6283486083
 20
21.9613491127
 10
38.6890016202
 20
21.9819554203
 10
38.7518205009
 20
21.9944855049
 10
38.8157316498
 20
21.998725222
  0
LWPOLYLINE
  5
604
100
AcDbEntity
  8
RACCORDO
100
AcDbPolyline
 62
253
  6
CONTINUOUS
 90
13
 70
0
 10
41.0619014213
 20
23.8443375673
 10
41.0596758307
 20
23.8161297326
 10
41.0532264882
 20
23.7884027584
 10
41.0426633362
 20
23.761629308
 10
41.0281664453
 20
23.7362657898
 10
41.0099829448
 20
23.7127445772
 10
40.9884228098
 20
23.6914666374
 10
40.9638535772
 20
23.6727946968
 10
40.9366940799
 20
23.6570470569
 10
40.9074073074
 20
23.6444921687
 10
40.876492513
 20
23.6353440559
 10
40.8444767028
 20
23.629758667
 10
40.8119056521
 20
23.6278312164
  0
LWPOLYLINE
  5
605
100
AcDbEntity
  8
RACCORDO
100
AcDbPolyline
 62
7
  6
CONTINUOUS
 90
13
 70
0
 10
41.0677192511
 20
23.2669872981
 10
41.065759901
 20
23.2500124376
 10
41.0601554186
 20
23.232751575
 10
41.0508278116
 20
23.2156095158
 10
41.0377740872
 20
23.1991814406
 10
41.0210383857
 20
23.1837387744
 10
41.0006829077
 20
23.1692396567
 10
40.9768941176
 20
23.1561677462
 10
40.9499226112
 20
23.144975649
 10
40.9199903781
 20
23.1356232963
 10
40.8874714437
 20
23.1284216237
 10
40.8529307036
 20
23.1239714115
 10
40.8169962532
 20
23.1226497308
  0
LINE
  5
606
100
AcDbEntity
  8
RACCORDO
100
AcDbLine
 62
253
  6
CONTINUOUS
 10
38.1924176657
 20
21.909888014
 11
38.175
 21
21.9011798444
  0
LWPOLYLINE
  5
607
100
AcDbEntity
  8
RACCORDO
100
AcDbPolyline
 62
7
  6
CONTINUOUS
 90
6
 70
0
 10
38.4634554329
 20
22.3482808577
 10
38.4724119319
 20
22.3526455331
 10
38.5215102112
 20
22.3727768287
 10
38.5733148343
 20
22.3876679933
 10
38.6272220125
 20
22.3968669155
 10
38.682604264
 20
22.3999999602
  0
LWPOLYLINE
  5
608
100
AcDbEntity
  8
RACCORDO
100
AcDbPolyline
 62
7
  6
CONTINUOUS
 90
3
 70
0
 10
38.8394939471
 20
24.4849211599
 10
38.8000003269
 20
24.4665040979
 10
38.7643044666
 20
24.4415090796
  0
LINE
  5
609
100
AcDbEntity
  8
RACCORDO
100
AcDbLine
 62
253
  6
CONTINUOUS
 10
38.175
 20
-21.9011798444
 11
38.1924176657
 21
-21.909888014
  0
LWPOLYLINE
  5
60A
100
AcDbEntity
  8
RACCORDO
100
AcDbPolyline
 62
7
  6
CONTINUOUS
 90
12
 70
0
 10
38.4634554329
 20
-22.3482808577
 10
38.4264469282
 20
-22.3277342994
 10
38.3838915176
 20
-22.298449669
 10
38.3451452841
 20
-22.2653164805
 10
38.3104551785
 20
-22.2288134235
 10
38.2798651028
 20
-22.1891945685
 10
38.2536132513
 20
-22.1469174645
 10
38.2319006115
 20
-22.1024775204
 10
38.2147827674
 20
-22.0561018132
 10
38.2024077132
 20
-22.0081737604
 10
38.1949299938
 20
-21.9592693875
 10
38.1924176657
 20
-21.909888014
  0
LWPOLYLINE
  5
60B
100
AcDbEntity
  8
RACCORDO
100
AcDbPolyline
 62
7
  6
CONTINUOUS
 90
13
 70
0
 10
41.0677192511
 20
-23.2669872981
 10
41.065759901
 20
-23.2500124376
 10
41.0601554186
 20
-23.232751575
 10
41.0508278116
 20
-23.2156095158
 10
41.0377740872
 20
-23.1991814406
 10
41.0210383857
 20
-23.1837387744
 10
41.0006829077
 20
-23.1692396567
 10
40.9768941176
 20
-23.1561677462
 10
40.9499226112
 20
-23.144975649
 10
40.9199903781
 20
-23.1356232963
 10
40.8874714437
 20
-23.1284216237
 10
40.8529307036
 20
-23.1239714115
 10
40.8169962532
 20
-23.1226497308
  0
LWPOLYLINE
  5
60C
100
AcDbEntity
  8
RACCORDO
100
AcDbPolyline
 62
253
  6
CONTINUOUS
 90
13
 70
0
 10
38.6880985787
 20
23.8443375673
 10
38.6903241693
 20
23.8161297326
 10
38.6967735118
 20
23.7884027584
 10
38.7073366638
 20
23.761629308
 10
38.7218335547
 20
23.7362657898
 10
38.7400170552
 20
23.7127445772
 10
38.7615771902
 20
23.6914666374
 10
38.7861464228
 20
23.6727946968
 10
38.8133059201
 20
23.6570470569
 10
38.8425926926
 20
23.6444921687
 10
38.873507487
 20
23.6353440559
 10
38.9055232972
 20
23.629758667
 10
38.9380943479
 20
23.6278312164
  0
LINE
  5
60D
100
AcDbEntity
  8
RACCORDO
100
AcDbLine
 62
253
  6
CONTINUOUS
 10
40.8119056521
 20
23.6278312164
 11
40.8169962532
 21
23.1226497308
  0
LINE
  5
60E
100
AcDbEntity
  8
RACCORDO
100
AcDbLine
 62
253
  6
CONTINUOUS
 10
41.0619014213
 20
23.8443375673
 11
41.0677192511
 21
23.2669872981
  0
LINE
  5
60F
100
AcDbEntity
  8
RACCORDO
100
AcDbLine
 62
253
  6
CONTINUOUS
 10
41.0619014213
 20
24.2369056521
 11
41.0618971412
 21
24.2383600852
  0
LINE
  5
610
100
AcDbEntity
  8
RACCORDO
100
AcDbLine
 62
253
  6
CONTINUOUS
 10
40.8119056521
 20
-23.6278312164
 11
40.8119056521
 21
-24.4869014213
  0
LINE
  5
611
100
AcDbEntity
  8
RACCORDO
100
AcDbLine
 62
253
  6
CONTINUOUS
 10
40.8119056521
 20
23.6278312164
 11
40.8119056521
 21
24.4869014213
  0
LINE
  5
612
100
AcDbEntity
  8
RACCORDO
100
AcDbLine
 62
253
  6
CONTINUOUS
 10
40.8177234819
 20
23.1226497308
 11
40.8177234819
 21
22.3213883311
  0
LINE
  5
613
100
AcDbEntity
  8
RACCORDO
100
AcDbLine
 62
253
  6
CONTINUOUS
 10
40.8177234819
 20
-22.3213883311
 11
40.8177234819
 21
-23.1226497308
  0
LINE
  5
614
100
AcDbEntity
  8
RACCORDO
100
AcDbLine
 62
7
  6
CONTINUOUS
 10
41.0619014213
 20
-24.2369056521
 11
41.0619014213
 21
-23.8443375673
  0
LINE
  5
615
100
AcDbEntity
  8
RACCORDO
100
AcDbLine
 62
7
  6
CONTINUOUS
 10
41.0619014213
 20
23.8443375673
 11
41.0619014213
 21
24.2369056521
  0
LINE
  5
616
100
AcDbEntity
  8
RACCORDO
100
AcDbLine
 62
7
  6
CONTINUOUS
 10
41.0677192511
 20
23.2669872981
 11
41.0677192511
 21
22.3344140523
  0
LINE
  5
617
100
AcDbEntity
  8
RACCORDO
100
AcDbLine
 62
7
  6
CONTINUOUS
 10
41.0677192511
 20
-22.3344140523
 11
41.0677192511
 21
-23.2669872981
  0
LINE
  5
618
100
AcDbEntity
  8
RACCORDO
100
AcDbLine
 62
7
  6
CONTINUOUS
 10
41.075
 20
-23.2669872981
 11
41.075
 21
-24.2500042308
  0
LINE
  5
619
100
AcDbEntity
  8
RACCORDO
100
AcDbLine
 62
7
  6
CONTINUOUS
 10
41.075
 20
23.2669872981
 11
41.075
 21
24.2500042308
  0
LINE
  5
61A
100
AcDbEntity
  8
RACCORDO
100
AcDbLine
 62
253
  6
CONTINUOUS
 10
40.8169962532
 20
-23.1226497308
 11
40.8119056521
 21
-23.6278312164
  0
LINE
  5
61B
100
AcDbEntity
  8
RACCORDO
100
AcDbLine
 62
253
  6
CONTINUOUS
 10
41.0677192511
 20
-23.2669872981
 11
41.0619014213
 21
-23.8443375673
  0
LWPOLYLINE
  5
61C
100
AcDbEntity
  8
RACCORDO
100
AcDbPolyline
 62
253
  6
CONTINUOUS
 90
13
 70
0
 10
38.6880985787
 20
-23.8443375673
 10
38.6902805717
 20
-23.8164122522
 10
38.6966290205
 20
-23.7888676909
 10
38.7070760524
 20
-23.7621735851
 10
38.72149962
 20
-23.7367668404
 10
38.7396806148
 20
-23.7131246796
 10
38.7612677628
 20
-23.6917350818
 10
38.7858647266
 20
-23.6729824084
 10
38.8130698161
 20
-23.6571655895
 10
38.8424121692
 20
-23.6445573199
 10
38.8733866726
 20
-23.6353723694
 10
38.905463864
 20
-23.6297655866
 10
38.9380943479
 20
-23.6278312164
  0
LWPOLYLINE
  5
61D
100
AcDbEntity
  8
RACCORDO
100
AcDbPolyline
 62
7
  6
CONTINUOUS
 90
13
 70
0
 10
38.6822807489
 20
-23.2669872981
 10
38.6842467536
 20
-23.2492660013
 10
38.6898708792
 20
-23.2321167029
 10
38.699219186
 20
-23.215539403
 10
38.712276909
 20
-23.1992537336
 10
38.7289925799
 20
-23.1835400627
 10
38.7493173538
 20
-23.1692394937
 10
38.7730832601
 20
-23.1563414203
 10
38.8000243139
 20
-23.1448564488
 10
38.8298792537
 20
-23.1356575018
 10
38.8622533639
 20
-23.1290355536
 10
38.8965931211
 20
-23.1246996299
 10
38.9322765181
 20
-23.1226497308
  0
LWPOLYLINE
  5
61E
100
AcDbEntity
  8
RACCORDO
100
AcDbPolyline
 62
253
  6
CONTINUOUS
 90
8
 70
0
 10
38.8157316498
 20
-21.998725222
 10
38.8171825391
 20
-21.9873034285
 10
38.8185996536
 20
-21.9659265554
 10
38.8199829932
 20
-21.9347200661
 10
38.8213409758
 20
-21.8938947624
 10
38.8226651836
 20
-21.8436964823
 10
38.8239303631
 20
-21.7843663419
 10
38.8262840235
 20
-21.6396062036
  0
LWPOLYLINE
  5
61F
100
AcDbEntity
  8
RACCORDO
100
AcDbPolyline
 62
253
  6
CONTINUOUS
 90
13
 70
0
 10
38.3424983193
 20
20.5423171059
 10
38.3477050805
 20
20.5449184752
 10
38.3610217645
 20
20.5474762936
 10
38.3822255667
 20
20.5499477658
 10
38.4109617217
 20
20.5522915412
 10
38.4467494386
 20
20.5544684056
 10
38.488989945
 20
20.5564419375
 10
38.5369765057
 20
20.5581791175
 10
38.5899062471
 20
20.5596508805
 10
38.6468935897
 20
20.5608326021
 10
38.7069850656
 20
20.5617045108
 10
38.7691752712
 20
20.5622520184
 10
38.832423688
 20
20.5624659645
  0
LWPOLYLINE
  5
620
100
AcDbEntity
  8
RACCORDO
100
AcDbPolyline
 62
253
  6
CONTINUOUS
 90
13
 70
0
 10
38.3424983176
 20
-20.5423171059
 10
38.3477002426
 20
-20.544918727
 10
38.3610130483
 20
-20.547476815
 10
38.3822139713
 20
-20.5499485653
 10
38.4109482565
 20
-20.5522926183
 10
38.4467350928
 20
-20.5544697507
 10
38.488975659
 20
-20.5564435328
 10
38.5369631434
 20
-20.5581809369
 10
38.5898945712
 20
-20.5596528913
 10
38.6468842403
 20
-20.5608347667
 10
38.7069785425
 20
-20.5617067871
 10
38.7691719191
 20
-20.5622543605
 10
38.8324236882
 20
-20.5624683244
  0
LWPOLYLINE
  5
621
100
AcDbEntity
  8
RACCORDO
100
AcDbPolyline
 62
7
  6
CONTINUOUS
 90
13
 70
0
 10
38.6822807489
 20
23.2669872981
 10
38.684240099
 20
23.2500124376
 10
38.6898445814
 20
23.232751575
 10
38.6991721884
 20
23.2156095158
 10
38.7122259128
 20
23.1991814406
 10
38.7289616143
 20
23.1837387744
 10
38.7493170923
 20
23.1692396567
 10
38.7731058824
 20
23.1561677462
 10
38.8000773888
 20
23.144975649
 10
38.8300096219
 20
23.1356232963
 10
38.8625285563
 20
23.1284216237
 10
38.8970692964
 20
23.1239714115
 10
38.9330037468
 20
23.1226497308
  0
LWPOLYLINE
  5
622
100
AcDbEntity
  8
RACCORDO
100
AcDbPolyline
 62
7
  6
CONTINUOUS
 90
3
 70
0
 10
41.075
 20
24.2500042308
 10
41.0712006967
 20
24.2934146147
 10
41.0599211599
 20
24.3355060529
  0
LWPOLYLINE
  5
623
100
AcDbEntity
  8
RACCORDO
100
AcDbPolyline
 62
7
  6
CONTINUOUS
 90
4
 70
0
 10
41.0618971412
 20
24.2383600852
 10
41.0597427507
 20
24.2696792292
 10
41.0533046885
 20
24.3018927884
 10
41.04269614
 20
24.3329896478
  0
LWPOLYLINE
  5
624
100
AcDbEntity
  8
0
100
AcDbPolyline
 62
7
  6
CONTINUOUS
 90
37
 70
0
 10
44.1250000023
 20
7.5000000034
 10
44.1355401109
 20
7.2773792038
 10
44.1643264525
 20
7.0602430808
 10
44.211359027
 20
6.8485917777
 10
44.2772816183
 20
6.6410827478
 10
44.3614504425
 20
6.4390587854
 10
44.4619341481
 20
6.2465480966
 10
44.5790887869
 20
6.0636087054
 10
44.712558307
 20
5.8901829098
 10
44.8593432023
 20
5.7301254156
 10
45.0197303484
 20
5.5837327298
 10
45.1934328697
 20
5.4507086589
 10
45.3765906325
 20
5.3340189031
 10
45.5694292706
 20
5.2340164901
 10
45.7717231502
 20
5.1503486314
 10
45.9789352366
 20
5.084922306
 10
46.1911840555
 20
5.038150176
 10
46.4083510812
 20
5.009619707
 10
46.6255437015
 20
5.0000000615
 10
46.8427647265
 20
5.0097221718
 10
47.0600113462
 20
5.0383551054
 10
47.272382518
 20
5.0852751972
 10
47.4797673659
 20
5.1508967734
 10
47.6822767658
 20
5.2348053792
 10
47.8753423028
 20
5.3351341556
 10
48.0587700974
 20
5.4522834181
 10
48.2327540291
 20
5.5858526095
 10
48.3933073208
 20
5.7327735654
 10
48.5400818044
 20
5.8932979794
 10
48.6734256481
 20
6.0671738437
 10
48.7903965799
 20
6.2505774865
 10
48.8906622307
 20
6.4438426944
 10
48.9745549697
 20
6.6466353543
 10
49.0401296324
 20
6.8541300472
 10
49.0867378305
 20
7.0647182562
 10
49.1150279523
 20
7.2800082816
 10
49.1249999977
 20
7.4999999963
  0
LINE
  5
625
100
AcDbEntity
  8
CIRCUITO_LETTORE_SA
100
AcDbLine
 62
7
  6
CONTINUOUS
 10
44.675
 20
-11.1
 11
44.675
 21
-12.0
  0
LINE
  5
626
100
AcDbEntity
  8
RACCORDO
100
AcDbLine
 62
7
  6
CONTINUOUS
 10
44.9279258382
 20
23.7970741618
 11
44.9279258382
 21
22.3736436632
  0
LINE
  5
627
100
AcDbEntity
  8
RACCORDO
100
AcDbLine
 62
7
  6
CONTINUOUS
 10
44.9279258382
 20
-22.3736436632
 11
44.9279258382
 21
-23.7970741618
  0
LINE
  5
628
100
AcDbEntity
  8
0
100
AcDbLine
 62
253
  6
CONTINUOUS
 10
45.125
 20
-12.2739171521
 11
45.125
 21
-12.75
  0
LINE
  5
629
100
AcDbEntity
  8
RACCORDO
100
AcDbLine
 62
253
  6
CONTINUOUS
 10
45.125
 20
-13.3279089484
 11
45.125
 21
-12.75
  0
LINE
  5
62A
100
AcDbEntity
  8
0
100
AcDbLine
 62
253
  6
CONTINUOUS
 10
45.125
 20
-10.7260828479
 11
45.125
 21
-10.25
  0
LINE
  5
62B
100
AcDbEntity
  8
RACCORDO
100
AcDbLine
 62
253
  6
CONTINUOUS
 10
45.125
 20
-10.25
 11
45.1250000027
 21
-9.6803118701
  0
LINE
  5
62C
100
AcDbEntity
  8
CIRCUITO_LETTORE_SA
100
AcDbLine
 62
7
  6
CONTINUOUS
 10
45.425
 20
-12.0
 11
45.425
 21
-11.1
  0
LINE
  5
62D
100
AcDbEntity
  8
RACCORDO
100
AcDbLine
 62
253
  6
CONTINUOUS
 10
45.4279173766
 20
23.5953423515
 11
45.4279173766
 21
22.3475922207
  0
LINE
  5
62E
100
AcDbEntity
  8
RACCORDO
100
AcDbLine
 62
253
  6
CONTINUOUS
 10
45.4279173766
 20
-22.3475922207
 11
45.4279173766
 21
-23.5953423515
  0
LWPOLYLINE
  5
62F
100
AcDbEntity
  8
CURVE
100
AcDbPolyline
 62
252
  6
CONTINUOUS
 90
89
 70
0
 10
44.125
 20
7.5
 10
44.126349036
 20
7.5825853524
 10
44.1303749636
 20
7.664305117
 10
44.1370460123
 20
7.7453420528
 10
44.1463304112
 20
7.8258789189
 10
44.1582041129
 20
7.9060618282
 10
44.1726739609
 20
7.9858903095
 10
44.1897545219
 20
8.0653272453
 10
44.2094603626
 20
8.1443355183
 10
44.2317972148
 20
8.2228601571
 10
44.2567354714
 20
8.3007747749
 10
44.2842366905
 20
8.3779351308
 10
44.3142624303
 20
8.4541969839
 10
44.3467740875
 20
8.5294271788
 10
44.3817324135
 20
8.6035369025
 10
44.4190979983
 20
8.6764484273
 10
44.4588314319
 20
8.7480840255
 10
44.507086781
 20
8.8282934283
 10
44.5583056819
 20
8.9066320614
 10
44.61241046
 20
8.9829971934
 10
44.6693234409
 20
9.0572860926
 10
44.7289669501
 20
9.1293960275
 10
44.7912633129
 20
9.1992242666
 10
44.856134855
 20
9.2666680783
 10
44.9234993938
 20
9.3316284057
 10
44.993256715
 20
9.3940208906
 10
45.0653020963
 20
9.4537648493
 10
45.1395308154
 20
9.5107795982
 10
45.21583815
 20
9.5649844539
 10
45.2941193778
 20
9.6162987325
 10
45.3742697767
 20
9.6646417506
 10
45.4561817654
 20
9.7099378554
 10
45.5397363279
 20
9.7521315175
 10
45.6248115894
 20
9.7911722383
 10
45.711285675
 20
9.8270095194
 10
45.7990367098
 20
9.8595928621
 10
45.8879428189
 20
9.8888717681
 10
45.9778821276
 20
9.9147957386
 10
46.0687313028
 20
9.9373198626
 10
46.1603611785
 20
9.956421578
 10
46.2526411308
 20
9.9720839103
 10
46.3454405355
 20
9.9842898848
 10
46.4386287685
 20
9.993022527
 10
46.5320752058
 20
9.9982648621
 10
46.6256492232
 20
9.9999999157
 10
46.7192202552
 20
9.9982164464
 10
46.8126579694
 20
9.9929261465
 10
46.9058320922
 20
9.9841464414
 10
46.9986123497
 20
9.9718947567
 10
47.0908684682
 20
9.9561885179
 10
47.1824701737
 20
9.9370451506
 10
47.2732871927
 20
9.9144820802
 10
47.3631907592
 20
9.8885222161
 10
47.4520581398
 20
9.859210402
 10
47.5397681091
 20
9.8265969655
 10
47.6261994415
 20
9.790732234
 10
47.7112309117
 20
9.7516665351
 10
47.7947412941
 20
9.7094501964
 10
47.8766093634
 20
9.6641335452
 10
47.9567166282
 20
9.6157719837
 10
48.0349555339
 20
9.5644412124
 10
48.11122126
 20
9.5102220061
 10
48.1854089861
 20
9.4531951398
 10
48.2574138918
 20
9.3934413885
 10
48.3271311565
 20
9.3310415272
 10
48.3944559599
 20
9.2660763307
 10
48.4592880598
 20
9.1986301377
 10
48.5215455277
 20
9.1288015409
 10
48.5811510133
 20
9.0566926967
 10
48.6380271665
 20
8.9824057614
 10
48.6920966371
 20
8.9060428912
 10
48.7432820748
 20
8.8277062427
 10
48.7915061296
 20
8.7474979721
 10
48.8312140646
 20
8.6758624515
 10
48.868555376
 20
8.6029509564
 10
48.90348997
 20
8.5288422598
 10
48.9359777531
 20
8.4536151345
 10
48.9659789308
 20
8.3773595816
 10
48.9934549047
 20
8.3002105161
 10
49.0183673758
 20
8.2223140815
 10
49.0406780448
 20
8.143816421
 10
49.0603575899
 20
8.0648453244
 10
49.0774125986
 20
7.9854551665
 10
49.0918586361
 20
7.9056819685
 10
49.1037112671
 20
7.8255617516
 10
49.1129782595
 20
7.7450941133
 10
49.1196361917
 20
7.664132956
 10
49.1236538448
 20
7.5824957586
 10
49.125
 20
7.5
  0
LWPOLYLINE
  5
630
100
AcDbEntity
  8
RACCORDO
100
AcDbPolyline
 62
253
  6
CONTINUOUS
 90
10
 70
0
 10
38.3258062792
 20
-21.5093967499
 10
38.3272472789
 20
-21.5016418798
 10
38.328657629
 20
-21.4873961658
 10
38.3300373293
 20
-21.4666596077
 10
38.3313957665
 20
-21.439244813
 10
38.3327235539
 20
-21.4053391743
 10
38.3339925322
 20
-21.36550487
 10
38.3352020391
 20
-21.3195696885
 10
38.3363527368
 20
-21.2677058413
 10
38.3383969593
 20
-21.1492674246
  0
LWPOLYLINE
  5
631
100
AcDbEntity
  8
RACCORDO
100
AcDbPolyline
 62
7
  6
CONTINUOUS
 90
6
 70
0
 10
57.6643044666
 20
24.4415090796
 10
57.6334909204
 20
24.4106955334
 10
57.6084959021
 20
24.3749996731
 10
57.5900788401
 20
24.3355060529
 10
57.5787993033
 20
24.2934146147
 10
57.575
 20
24.2500042308
  0
LINE
  5
632
100
AcDbEntity
  8
RACCORDO
100
AcDbLine
 62
7
  6
CONTINUOUS
 10
53.2699801227
 20
23.6247960508
 11
53.2220826234
 21
23.5953423515
  0
LWPOLYLINE
  5
633
100
AcDbEntity
  8
RACCORDO
100
AcDbPolyline
 62
7
  6
CONTINUOUS
 90
10
 70
0
 10
57.7420103522
 20
24.46769614
 10
57.7125670725
 20
24.4530975824
 10
57.6852883134
 20
24.4347595221
 10
57.660649375
 20
24.412999522
 10
57.6390321138
 20
24.3881342002
 10
57.620871267
 20
24.3606400382
 10
57.6065680354
 20
24.3312029127
 10
57.5963083337
 20
24.3004380701
 10
57.5901457911
 20
24.2688252702
 10
57.5895487912
 20
24.2637857299
  0
LWPOLYLINE
  5
634
100
AcDbEntity
  8
RACCORDO
100
AcDbPolyline
 62
7
  6
CONTINUOUS
 90
3
 70
0
 10
57.7394939471
 20
24.4849211599
 10
57.7000003269
 20
24.4665040979
 10
57.6643044666
 20
24.4415090796
  0
LWPOLYLINE
  5
635
100
AcDbEntity
  8
RACCORDO
100
AcDbPolyline
 62
7
  6
CONTINUOUS
 90
3
 70
0
 10
53.3640837644
 20
-23.6837245062
 10
53.2699801227
 20
-23.6247960508
 10
53.2220826234
 20
-23.5953423515
  0
LWPOLYLINE
  5
636
100
AcDbEntity
  8
RACCORDO
100
AcDbPolyline
 62
7
  6
CONTINUOUS
 90
5
 70
0
 10
57.6643044666
 20
-24.4415090796
 10
57.7000003269
 20
-24.4665040979
 10
57.7394939471
 20
-24.4849211599
 10
57.7815853853
 20
-24.4962006967
 10
57.8249957692
 20
-24.5
  0
LINE
  5
637
100
AcDbEntity
  8
CIRCUITO_LETTORE_SA
100
AcDbLine
 62
7
  6
CONTINUOUS
 10
44.5539502577
 20
-10.9789502577
 11
44.675
 21
-11.1
  0
LINE
  5
638
100
AcDbEntity
  8
CIRCUITO_LETTORE_SA
100
AcDbLine
 62
7
  6
CONTINUOUS
 10
46.075
 20
-12.0
 11
46.075
 21
-11.200540038
  0
LINE
  5
639
100
AcDbEntity
  8
CIRCUITO_LETTORE_SA
100
AcDbLine
 62
7
  6
CONTINUOUS
 10
48.575
 20
-12.2739171521
 11
48.575
 21
-11.2
  0
LINE
  5
63A
100
AcDbEntity
  8
RACCORDO
100
AcDbLine
 62
253
  6
CONTINUOUS
 10
38.1924176657
 20
-21.909888014
 11
38.3258062792
 21
-21.5093967499
  0
LINE
  5
63B
100
AcDbEntity
  8
RACCORDO
100
AcDbLine
 62
253
  6
CONTINUOUS
 10
38.8157316498
 20
-21.998725222
 11
38.7057468857
 21
-22.3289478403
  0
LWPOLYLINE
  5
63C
100
AcDbEntity
  8
RACCORDO
100
AcDbPolyline
 62
7
  6
CONTINUOUS
 90
3
 70
0
 10
104.7250042308
 20
-24.5
 10
104.7684146147
 20
-24.4962006967
 10
104.8105060529
 20
-24.4849211599
  0
LWPOLYLINE
  5
63D
100
AcDbEntity
  8
RACCORDO
100
AcDbPolyline
 62
7
  6
CONTINUOUS
 90
4
 70
0
 10
104.7133600852
 20
-24.4868971412
 10
104.7446792292
 20
-24.4847427507
 10
104.7768927884
 20
-24.4783046885
 10
104.8079896478
 20
-24.46769614
  0
LWPOLYLINE
  5
63E
100
AcDbEntity
  8
RACCORDO
100
AcDbPolyline
 62
7
  6
CONTINUOUS
 90
5
 70
0
 10
38.6272220125
 20
-22.3968669155
 10
38.5733148343
 20
-22.3876679933
 10
38.5215102112
 20
-22.3727768287
 10
38.4724119319
 20
-22.3526455331
 10
38.4634554329
 20
-22.3482808577
  0
LINE
  5
63F
100
AcDbEntity
  8
RACCORDO
100
AcDbLine
 62
253
  6
CONTINUOUS
 10
59.975
 20
-24.2500042308
 11
59.974616354
 21
-24.2496205848
  0
LINE
  5
640
100
AcDbEntity
  8
RACCORDO
100
AcDbLine
 62
253
  6
CONTINUOUS
 10
38.3258062792
 20
21.5093967499
 11
38.1924176657
 21
21.909888014
  0
LINE
  5
641
100
AcDbEntity
  8
RACCORDO
100
AcDbLine
 62
253
  6
CONTINUOUS
 10
38.7057468857
 20
22.3289478403
 11
38.8157316498
 21
21.998725222
  0
LWPOLYLINE
  5
642
100
AcDbEntity
  8
0
100
AcDbPolyline
 62
7
  6
CONTINUOUS
 90
37
 70
0
 10
49.1249999977
 20
7.4999999963
 10
49.1144586748
 20
7.7226375387
 10
49.0856679954
 20
7.9397896535
 10
49.0386279596
 20
8.1514564117
 10
48.9726943251
 20
8.3589817643
 10
48.8885113341
 20
8.561021893
 10
48.7880117132
 20
8.7535453016
 10
48.6708384747
 20
8.9364940956
 10
48.5373486062
 20
9.1099264923
 10
48.3905457975
 20
9.2699853163
 10
48.2301437089
 20
9.4163730397
 10
48.0564286802
 20
9.5493876201
 10
47.8732634203
 20
9.6660652095
 10
47.6804232043
 20
9.7660526851
 10
47.4781327571
 20
9.8497035722
 10
47.2709289624
 20
9.9151140184
 10
47.058694514
 20
9.9618718925
 10
46.8415467181
 20
9.9903895692
 10
46.6243743776
 20
9.9999999191
 10
46.4071747739
 20
9.9902730172
 10
46.1899506255
 20
9.9616387882
 10
45.9775988903
 20
9.9147198181
 10
45.7702291905
 20
9.8491018584
 10
45.5677319039
 20
9.7651989128
 10
45.3746751215
 20
9.6648759079
 10
45.1912527747
 20
9.5477329753
 10
45.0172709322
 20
9.4141695769
 10
44.8567158916
 20
9.2672496612
 10
44.7099334485
 20
9.10671756
 10
44.5765778073
 20
8.9328285117
 10
44.4595978796
 20
8.7494129236
 10
44.3593287144
 20
8.5561370087
 10
44.2754352627
 20
8.3533342268
 10
44.2098612892
 20
8.1458360239
 10
44.1632547154
 20
7.9352528865
 10
44.1349676197
 20
7.7199742313
 10
44.1250000023
 20
7.5000000034
  0
LINE
  5
643
100
AcDbEntity
  8
CIRCUITO_LETTORE_SA
100
AcDbLine
 62
7
  6
CONTINUOUS
 10
49.925
 20
-12.1
 11
49.925
 21
-11.1
  0
LINE
  5
644
100
AcDbEntity
  8
CIRCUITO_LETTORE_SA
100
AcDbLine
 62
7
  6
CONTINUOUS
 10
50.075
 20
-12.1
 11
50.075
 21
-11.1
  0
LWPOLYLINE
  5
645
100
AcDbEntity
  8
CURVE
100
AcDbPolyline
 62
252
  6
CONTINUOUS
 90
89
 70
0
 10
49.125
 20
7.5
 10
49.12365102
 20
7.4174162998
 10
49.1196252598
 20
7.3356982049
 10
49.1129544888
 20
7.254662966
 10
49.1036704765
 20
7.1741278338
 10
49.091797277
 20
7.0939467149
 10
49.0773280818
 20
7.0141201401
 10
49.060248367
 20
6.9346852961
 10
49.0405436087
 20
6.8556793698
 10
49.0182081067
 20
6.7771573703
 10
48.9932714565
 20
6.6992455971
 10
48.9657720774
 20
6.6220881719
 10
48.9357483887
 20
6.5458292165
 10
48.9032389744
 20
6.4706017859
 10
48.8682830778
 20
6.3964946679
 10
48.8309201071
 20
6.3235855833
 10
48.7911894703
 20
6.2519522531
 10
48.7429375262
 20
6.1717452166
 10
48.6917221864
 20
6.0934086684
 10
48.6376210451
 20
6.0170452924
 10
48.5807116966
 20
5.9427577722
 10
48.5210717353
 20
5.8706487917
 10
48.4587787554
 20
5.8008210348
 10
48.3939103512
 20
5.7333771853
 10
48.3265486313
 20
5.6684162691
 10
48.2567937623
 20
5.6060226816
 10
48.184750425
 20
5.5462771601
 10
48.1105233001
 20
5.4892604421
 10
48.0342170685
 20
5.4350532649
 10
47.955936411
 20
5.3837363661
 10
47.8757860084
 20
5.335390483
 10
47.7938734089
 20
5.2900913241
 10
47.7103176292
 20
5.2478944818
 10
47.6252405533
 20
5.2088505195
 10
47.5387640655
 20
5.1730100007
 10
47.4510100495
 20
5.1404234887
 10
47.3621003897
 20
5.111141547
 10
47.2721569699
 20
5.0852147391
 10
47.1813031443
 20
5.0626880362
 10
47.0896681469
 20
5.0435840417
 10
46.997382682
 20
5.0279197667
 10
46.9045774536
 20
5.0157122222
 10
46.8113831659
 20
5.0069784196
 10
46.717930523
 20
5.00173537
 10
46.6243502291
 20
5.0000000844
 10
46.5307729295
 20
5.0017838285
 10
46.4373290347
 20
5.0070748843
 10
46.3441488967
 20
5.0158557887
 10
46.2513628671
 20
5.0281090781
 10
46.1591012977
 20
5.0438172892
 10
46.0674945404
 20
5.0629629585
 10
45.976672947
 20
5.0855286226
 10
45.8867653491
 20
5.1114913303
 10
45.7978944983
 20
5.1408061794
 10
45.710181626
 20
5.1734227797
 10
45.6237479638
 20
5.2092907412
 10
45.538714743
 20
5.2483596739
 10
45.455203195
 20
5.2905791875
 10
45.3733345515
 20
5.3358988921
 10
45.2932273022
 20
5.3842633246
 10
45.2149889706
 20
5.4355967296
 10
45.1387243389
 20
5.4898182786
 10
45.0645381891
 20
5.5468471433
 10
44.992535303
 20
5.6066024953
 10
44.9228204628
 20
5.6690035061
 10
44.8554984504
 20
5.7339693473
 10
44.7906694631
 20
5.8014156426
 10
44.7284153584
 20
5.8712438232
 10
44.6688134093
 20
5.9433517726
 10
44.6119408886
 20
6.0176373741
 10
44.5578750691
 20
6.0939985111
 10
44.5066932237
 20
6.1723330668
 10
44.4584726252
 20
6.2525389247
 10
44.4187675491
 20
6.3241721009
 10
44.3814289238
 20
6.3970810516
 10
44.3464968336
 20
6.4711870183
 10
44.3140113626
 20
6.5464112427
 10
44.2840122937
 20
6.6226637575
 10
44.2565382042
 20
6.6998097586
 10
44.2316273701
 20
6.7777032326
 10
44.2093180675
 20
6.8561981665
 10
44.1896396066
 20
6.9351668665
 10
44.172585435
 20
7.0145549167
 10
44.1581400348
 20
7.0943262208
 10
44.1462878878
 20
7.1744446825
 10
44.1370212655
 20
7.2549106401
 10
44.1303635974
 20
7.3358701709
 10
44.1263461025
 20
7.4175057869
 10
44.125
 20
7.5
  0
LWPOLYLINE
  5
646
100
AcDbEntity
  8
RACCORDO
100
AcDbPolyline
 62
7
  6
CONTINUOUS
 90
8
 70
0
 10
90.0287926863
 20
-23.7953389668
 10
90.0669992246
 20
-23.7905311208
 10
90.1070647175
 20
-23.7777978386
 10
90.1489891651
 20
-23.7589950003
 10
90.1932042903
 20
-23.7362909328
 10
90.2392783701
 20
-23.7111435919
 10
90.2859162356
 20
-23.6837245062
 10
90.3800198773
 20
-23.6247960508
  0
LWPOLYLINE
  5
647
100
AcDbEntity
  8
RACCORDO
100
AcDbPolyline
 62
7
  6
CONTINUOUS
 90
4
 70
0
 10
85.8387857299
 20
-24.4854512088
 10
85.8438252702
 20
-24.4848542089
 10
85.8754380701
 20
-24.4786916663
 10
85.9062029127
 20
-24.4684319646
  0
LWPOLYLINE
  5
648
100
AcDbEntity
  8
RACCORDO
100
AcDbPolyline
 62
7
  6
CONTINUOUS
 90
3
 70
0
 10
85.8250042308
 20
-24.5
 10
85.8684146147
 20
-24.4962006967
 10
85.9105060529
 20
-24.4849211599
  0
LWPOLYLINE
  5
649
100
AcDbEntity
  8
RACCORDO
100
AcDbPolyline
 62
7
  6
CONTINUOUS
 90
4
 70
0
 10
59.7133600852
 20
-24.4868971412
 10
59.7446792292
 20
-24.4847427507
 10
59.7768927884
 20
-24.4783046885
 10
59.8079896478
 20
-24.46769614
  0
LINE
  5
64A
100
AcDbEntity
  8
RACCORDO
100
AcDbLine
 62
253
  6
CONTINUOUS
 10
85.8119056521
 20
-24.4869014213
 11
85.8387857299
 21
-24.4854512088
  0
LINE
  5
64B
100
AcDbEntity
  8
RACCORDO
100
AcDbLine
 62
253
  6
CONTINUOUS
 10
104.7119056521
 20
-24.4869014213
 11
104.7133600852
 21
-24.4868971412
  0
LINE
  5
64C
100
AcDbEntity
  8
RACCORDO
100
AcDbLine
 62
253
  6
CONTINUOUS
 10
59.7119056521
 20
-24.4869014213
 11
59.7133600852
 21
-24.4868971412
  0
LINE
  5
64D
100
AcDbEntity
  8
RACCORDO
100
AcDbLine
 62
7
  6
CONTINUOUS
 10
104.7250042308
 20
-24.5
 11
102.8249957692
 21
-24.5
  0
LINE
  5
64E
100
AcDbEntity
  8
RACCORDO
100
AcDbLine
 62
7
  6
CONTINUOUS
 10
85.8250042308
 20
-24.5
 11
83.9249957692
 21
-24.5
  0
LINE
  5
64F
100
AcDbEntity
  8
RACCORDO
100
AcDbLine
 62
7
  6
CONTINUOUS
 10
59.7250042308
 20
-24.5
 11
57.8249957692
 21
-24.5
  0
LINE
  5
650
100
AcDbEntity
  8
RACCORDO
100
AcDbLine
 62
7
  6
CONTINUOUS
 10
40.8250042308
 20
-24.5
 11
38.9249957692
 21
-24.5
  0
LINE
  5
651
100
AcDbEntity
  8
RACCORDO
100
AcDbLine
 62
7
  6
CONTINUOUS
 10
38.9380943479
 20
-24.4869014213
 11
40.8119056521
 21
-24.4869014213
  0
LINE
  5
652
100
AcDbEntity
  8
RACCORDO
100
AcDbLine
 62
7
  6
CONTINUOUS
 10
57.8380943479
 20
-24.4869014213
 11
59.7119056521
 21
-24.4869014213
  0
LINE
  5
653
100
AcDbEntity
  8
RACCORDO
100
AcDbLine
 62
7
  6
CONTINUOUS
 10
83.9380943479
 20
-24.4869014213
 11
85.8119056521
 21
-24.4869014213
  0
LINE
  5
654
100
AcDbEntity
  8
RACCORDO
100
AcDbLine
 62
7
  6
CONTINUOUS
 10
102.8380943479
 20
-24.4869014213
 11
104.7119056521
 21
-24.4869014213
  0
LINE
  5
655
100
AcDbEntity
  8
RACCORDO
100
AcDbLine
 62
253
  6
CONTINUOUS
 10
38.6880985787
 20
-24.2369056521
 11
41.0619014213
 21
-24.2369056521
  0
LINE
  5
656
100
AcDbEntity
  8
RACCORDO
100
AcDbLine
 62
253
  6
CONTINUOUS
 10
57.5880985787
 20
-24.2369056521
 11
59.9619014213
 21
-24.2369056521
  0
LINE
  5
657
100
AcDbEntity
  8
RACCORDO
100
AcDbLine
 62
253
  6
CONTINUOUS
 10
83.6880985787
 20
-24.2369056521
 11
86.0619014213
 21
-24.2369056521
  0
LINE
  5
658
100
AcDbEntity
  8
RACCORDO
100
AcDbLine
 62
253
  6
CONTINUOUS
 10
102.5880985787
 20
-24.2369056521
 11
104.9619014213
 21
-24.2369056521
  0
LINE
  5
659
100
AcDbEntity
  8
RACCORDO
100
AcDbLine
 62
253
  6
CONTINUOUS
 10
38.6880985787
 20
-23.8443375673
 11
41.0619014213
 21
-23.8443375673
  0
LINE
  5
65A
100
AcDbEntity
  8
RACCORDO
100
AcDbLine
 62
253
  6
CONTINUOUS
 10
57.5880985787
 20
-23.8443375673
 11
59.9619014213
 21
-23.8443375673
  0
LINE
  5
65B
100
AcDbEntity
  8
RACCORDO
100
AcDbLine
 62
253
  6
CONTINUOUS
 10
83.6880985787
 20
-23.8443375673
 11
86.0619014213
 21
-23.8443375673
  0
LINE
  5
65C
100
AcDbEntity
  8
RACCORDO
100
AcDbLine
 62
253
  6
CONTINUOUS
 10
102.5880985787
 20
-23.8443375673
 11
104.9619014213
 21
-23.8443375673
  0
LINE
  5
65D
100
AcDbEntity
  8
RACCORDO
100
AcDbLine
 62
7
  6
CONTINUOUS
 10
45.0287926863
 20
-23.7953389668
 11
53.6212073137
 21
-23.7953389668
  0
LINE
  5
65E
100
AcDbEntity
  8
RACCORDO
100
AcDbLine
 62
7
  6
CONTINUOUS
 10
90.0287926863
 20
-23.7953389668
 11
98.6212073137
 21
-23.7953389668
  0
LINE
  5
65F
100
AcDbEntity
  8
RACCORDO
100
AcDbLine
 62
253
  6
CONTINUOUS
 10
104.7119056521
 20
-23.6278312164
 11
102.8380943479
 21
-23.6278312164
  0
LINE
  5
660
100
AcDbEntity
  8
RACCORDO
100
AcDbLine
 62
253
  6
CONTINUOUS
 10
85.8119056521
 20
-23.6278312164
 11
83.9380943479
 21
-23.6278312164
  0
LINE
  5
661
100
AcDbEntity
  8
RACCORDO
100
AcDbLine
 62
253
  6
CONTINUOUS
 10
59.7119056521
 20
-23.6278312164
 11
57.8380943479
 21
-23.6278312164
  0
LINE
  5
662
100
AcDbEntity
  8
RACCORDO
100
AcDbLine
 62
253
  6
CONTINUOUS
 10
40.8119056521
 20
-23.6278312164
 11
38.9380943479
 21
-23.6278312164
  0
LINE
  5
663
100
AcDbEntity
  8
RACCORDO
100
AcDbLine
 62
253
  6
CONTINUOUS
 10
45.4279173766
 20
-23.5953423515
 11
53.2220826234
 21
-23.5953423515
  0
LINE
  5
664
100
AcDbEntity
  8
RACCORDO
100
AcDbLine
 62
253
  6
CONTINUOUS
 10
90.4279173766
 20
-23.5953423515
 11
98.2220826234
 21
-23.5953423515
  0
LINE
  5
665
100
AcDbEntity
  8
RACCORDO
100
AcDbLine
 62
7
  6
CONTINUOUS
 10
38.682604264
 20
-22.3999999602
 11
38.6272220125
 21
-22.3968669155
  0
LWPOLYLINE
  5
666
100
AcDbEntity
  8
RACCORDO
100
AcDbPolyline
 62
7
  6
CONTINUOUS
 90
7
 70
0
 10
53.6212073137
 20
-23.7953389668
 10
53.5830007754
 20
-23.7905311208
 10
53.5429352825
 20
-23.7777978386
 10
53.5010108349
 20
-23.7589950003
 10
53.4567957097
 20
-23.7362909328
 10
53.4107216299
 20
-23.7111435919
 10
53.3640837644
 20
-23.6837245062
  0
LWPOLYLINE
  5
667
100
AcDbEntity
  8
RACCORDO
100
AcDbPolyline
 62
7
  6
CONTINUOUS
 90
10
 70
0
 10
57.6065680354
 20
-24.3312029127
 10
57.620871267
 20
-24.3606400382
 10
57.6390321138
 20
-24.3881342002
 10
57.660649375
 20
-24.412999522
 10
57.6852883134
 20
-24.4347595221
 10
57.7125670725
 20
-24.4530975824
 10
57.7420103522
 20
-24.46769614
 10
57.7731072116
 20
-24.4783046885
 10
57.8053207708
 20
-24.4847427507
 10
57.8380943479
 20
-24.4869014213
  0
LWPOLYLINE
  5
668
100
AcDbEntity
  8
RACCORDO
100
AcDbPolyline
 62
7
  6
CONTINUOUS
 90
4
 70
0
 10
57.5900788401
 20
-24.3355060529
 10
57.6084959021
 20
-24.3749996731
 10
57.6334909204
 20
-24.4106955334
 10
57.6643044666
 20
-24.4415090796
  0
LINE
  5
669
100
AcDbEntity
  8
RACCORDO
100
AcDbLine
 62
253
  6
CONTINUOUS
 10
53.2220826234
 20
-23.5953423515
 11
53.2220826234
 21
-22.3475922207
  0
LINE
  5
66A
100
AcDbEntity
  8
RACCORDO
100
AcDbLine
 62
253
  6
CONTINUOUS
 10
53.2220826234
 20
22.3475922207
 11
53.2220826234
 21
23.5953423515
  0
LINE
  5
66B
100
AcDbEntity
  8
RACCORDO
100
AcDbLine
 62
7
  6
CONTINUOUS
 10
53.7220741618
 20
-23.7970741618
 11
53.7220741618
 21
-22.3736436632
  0
LINE
  5
66C
100
AcDbEntity
  8
RACCORDO
100
AcDbLine
 62
7
  6
CONTINUOUS
 10
53.7220741618
 20
22.3736436632
 11
53.7220741618
 21
23.7970741618
  0
LWPOLYLINE
  5
66D
100
AcDbEntity
  8
RACCORDO
100
AcDbPolyline
 62
7
  6
CONTINUOUS
 90
3
 70
0
 10
59.7250042308
 20
-24.5
 10
59.7684146147
 20
-24.4962006967
 10
59.8105060529
 20
-24.4849211599
  0
LWPOLYLINE
  5
66E
100
AcDbEntity
  8
RACCORDO
100
AcDbPolyline
 62
7
  6
CONTINUOUS
 90
3
 70
0
 10
40.8250042308
 20
-24.5
 10
40.8684146147
 20
-24.4962006967
 10
40.9105060529
 20
-24.4849211599
  0
LINE
  5
66F
100
AcDbEntity
  8
RACCORDO
100
AcDbLine
 62
253
  6
CONTINUOUS
 10
40.8119056521
 20
-24.4869014213
 11
40.8387857299
 21
-24.4854512088
  0
LINE
  5
670
100
AcDbEntity
  8
RACCORDO
100
AcDbLine
 62
7
  6
CONTINUOUS
 10
38.9330037468
 20
-23.1226497308
 11
40.8169962532
 21
-23.1226497308
  0
LINE
  5
671
100
AcDbEntity
  8
RACCORDO
100
AcDbLine
 62
7
  6
CONTINUOUS
 10
57.8330037468
 20
-23.1226497308
 11
59.7169962532
 21
-23.1226497308
  0
LINE
  5
672
100
AcDbEntity
  8
RACCORDO
100
AcDbLine
 62
7
  6
CONTINUOUS
 10
83.9330037468
 20
-23.1226497308
 11
85.8169962532
 21
-23.1226497308
  0
LINE
  5
673
100
AcDbEntity
  8
RACCORDO
100
AcDbLine
 62
7
  6
CONTINUOUS
 10
102.8330037468
 20
-23.1226497308
 11
104.7169962532
 21
-23.1226497308
  0
LINE
  5
674
100
AcDbEntity
  8
DRAFT
100
AcDbLine
 62
7
  6
CONTINUOUS
 10
102.575
 20
-22.4
 11
98.725
 21
-22.4
  0
LINE
  5
675
100
AcDbEntity
  8
DRAFT
100
AcDbLine
 62
7
  6
CONTINUOUS
 10
89.925
 20
-22.4
 11
86.075
 21
-22.4
  0
LINE
  5
676
100
AcDbEntity
  8
DRAFT
100
AcDbLine
 62
7
  6
CONTINUOUS
 10
83.675
 20
-22.4
 11
59.975
 21
-22.4
  0
LINE
  5
677
100
AcDbEntity
  8
DRAFT
100
AcDbLine
 62
7
  6
CONTINUOUS
 10
57.575
 20
-22.4
 11
53.725
 21
-22.4
  0
LINE
  5
678
100
AcDbEntity
  8
DRAFT
100
AcDbLine
 62
7
  6
CONTINUOUS
 10
44.925
 20
-22.4
 11
41.075
 21
-22.4
  0
LINE
  5
679
100
AcDbEntity
  8
RACCORDO
100
AcDbLine
 62
7
  6
CONTINUOUS
 10
98.2220826234
 20
-22.3475922207
 11
90.4279173766
 21
-22.3475922207
  0
LINE
  5
67A
100
AcDbEntity
  8
RACCORDO
100
AcDbLine
 62
7
  6
CONTINUOUS
 10
53.2220826234
 20
-22.3475922207
 11
45.4279173766
 21
-22.3475922207
  0
LINE
  5
67B
100
AcDbEntity
  8
RACCORDO
100
AcDbLine
 62
7
  6
CONTINUOUS
 10
38.9322765181
 20
-22.3213883311
 11
40.8177234819
 21
-22.3213883311
  0
LINE
  5
67C
100
AcDbEntity
  8
RACCORDO
100
AcDbLine
 62
7
  6
CONTINUOUS
 10
57.8322765181
 20
-22.3213883311
 11
59.7177234819
 21
-22.3213883311
  0
LINE
  5
67D
100
AcDbEntity
  8
RACCORDO
100
AcDbLine
 62
7
  6
CONTINUOUS
 10
83.9322765181
 20
-22.3213883311
 11
85.8177234819
 21
-22.3213883311
  0
LINE
  5
67E
100
AcDbEntity
  8
RACCORDO
100
AcDbLine
 62
7
  6
CONTINUOUS
 10
102.8322765181
 20
-22.3213883311
 11
104.7177234819
 21
-22.3213883311
  0
LINE
  5
67F
100
AcDbEntity
  8
RACCORDO
100
AcDbLine
 62
253
  6
CONTINUOUS
 10
38.8157316498
 20
-21.998725222
 11
104.8342683502
 21
-21.998725222
  0
LINE
  5
680
100
AcDbEntity
  8
RACCORDO
100
AcDbLine
 62
253
  6
CONTINUOUS
 10
38.8324236882
 20
-20.5624683248
 11
104.8175763118
 21
-20.5624683248
  0
LWPOLYLINE
  5
681
100
AcDbEntity
  8
RACCORDO
100
AcDbPolyline
 62
7
  6
CONTINUOUS
 90
7
 70
0
 10
98.6212073137
 20
-23.7953389668
 10
98.5830007754
 20
-23.7905311208
 10
98.5429352825
 20
-23.7777978386
 10
98.5010108349
 20
-23.7589950003
 10
98.4567957097
 20
-23.7362909328
 10
98.4107216299
 20
-23.7111435919
 10
98.3640837644
 20
-23.6837245062
  0
LWPOLYLINE
  5
682
100
AcDbEntity
  8
RACCORDO
100
AcDbPolyline
 62
7
  6
CONTINUOUS
 90
3
 70
0
 10
41.0599211599
 20
24.3355060529
 10
41.0415040979
 20
24.3749996731
 10
41.0165090796
 20
24.4106955334
  0
LWPOLYLINE
  5
683
100
AcDbEntity
  8
RACCORDO
100
AcDbPolyline
 62
7
  6
CONTINUOUS
 90
3
 70
0
 10
57.575
 20
-24.2500042308
 10
57.5787993033
 20
-24.2934146147
 10
57.5900788401
 20
-24.3355060529
  0
LINE
  5
684
100
AcDbEntity
  8
RACCORDO
100
AcDbLine
 62
253
  6
CONTINUOUS
 10
57.5880985787
 20
-24.2369056521
 11
57.5895487912
 21
-24.2637857299
  0
LINE
  5
685
100
AcDbEntity
  8
RACCORDO
100
AcDbLine
 62
253
  6
CONTINUOUS
 10
57.5880985787
 20
-23.8443375673
 11
57.5822807489
 21
-23.2669872981
  0
LINE
  5
686
100
AcDbEntity
  8
RACCORDO
100
AcDbLine
 62
7
  6
CONTINUOUS
 10
57.575
 20
-23.2669872981
 11
57.575
 21
-24.2500042308
  0
LINE
  5
687
100
AcDbEntity
  8
RACCORDO
100
AcDbLine
 62
7
  6
CONTINUOUS
 10
57.575
 20
23.2669872981
 11
57.575
 21
24.2500042308
  0
LINE
  5
688
100
AcDbEntity
  8
RACCORDO
100
AcDbLine
 62
7
  6
CONTINUOUS
 10
57.5822807489
 20
-23.2669872981
 11
57.5822807489
 21
-22.3344140523
  0
LINE
  5
689
100
AcDbEntity
  8
RACCORDO
100
AcDbLine
 62
7
  6
CONTINUOUS
 10
57.5822807489
 20
22.3344140523
 11
57.5822807489
 21
23.2669872981
  0
LINE
  5
68A
100
AcDbEntity
  8
RACCORDO
100
AcDbLine
 62
7
  6
CONTINUOUS
 10
57.5880985787
 20
24.2369056521
 11
57.5880985787
 21
23.8443375673
  0
LINE
  5
68B
100
AcDbEntity
  8
RACCORDO
100
AcDbLine
 62
7
  6
CONTINUOUS
 10
57.5880985787
 20
-23.8443375673
 11
57.5880985787
 21
-24.2369056521
  0
LINE
  5
68C
100
AcDbEntity
  8
RACCORDO
100
AcDbLine
 62
253
  6
CONTINUOUS
 10
57.5822807489
 20
23.2669872981
 11
57.5880985787
 21
23.8443375673
  0
LINE
  5
68D
100
AcDbEntity
  8
RACCORDO
100
AcDbLine
 62
253
  6
CONTINUOUS
 10
57.5895487912
 20
24.2637857299
 11
57.5880985787
 21
24.2369056521
  0
LWPOLYLINE
  5
68E
100
AcDbEntity
  8
RACCORDO
100
AcDbPolyline
 62
7
  6
CONTINUOUS
 90
13
 70
0
 10
59.9677192511
 20
23.2669872981
 10
59.965759901
 20
23.2500124376
 10
59.9601554186
 20
23.232751575
 10
59.9508278116
 20
23.2156095158
 10
59.9377740872
 20
23.1991814406
 10
59.9210383857
 20
23.1837387744
 10
59.9006829077
 20
23.1692396567
 10
59.8768941176
 20
23.1561677462
 10
59.8499226112
 20
23.144975649
 10
59.8199903781
 20
23.1356232963
 10
59.7874714437
 20
23.1284216237
 10
59.7529307036
 20
23.1239714115
 10
59.7169962532
 20
23.1226497308
  0
LWPOLYLINE
  5
68F
100
AcDbEntity
  8
RACCORDO
100
AcDbPolyline
 62
7
  6
CONTINUOUS
 90
10
 70
0
 10
38.6822807489
 20
-22.3339351971
 10
38.6826368447
 20
-22.3333200348
 10
38.6835652052
 20
-22.3327253649
 10
38.6850638556
 20
-22.3321511872
 10
38.6871296939
 20
-22.3316044878
 10
38.6897580397
 20
-22.3310782807
 10
38.6929422112
 20
-22.3305516082
 10
38.6966743604
 20
-22.3300174843
 10
38.7009459244
 20
-22.329482895
 10
38.7057468857
 20
-22.3289478403
  0
LWPOLYLINE
  5
690
100
AcDbEntity
  8
RACCORDO
100
AcDbPolyline
 62
7
  6
CONTINUOUS
 90
3
 70
0
 10
83.8394939471
 20
24.4849211599
 10
83.8000003269
 20
24.4665040979
 10
83.7643044666
 20
24.4415090796
  0
LWPOLYLINE
  5
691
100
AcDbEntity
  8
RACCORDO
100
AcDbPolyline
 62
7
  6
CONTINUOUS
 90
8
 70
0
 10
45.0287926863
 20
-23.7953389668
 10
45.0669992246
 20
-23.7905311208
 10
45.1070647175
 20
-23.7777978386
 10
45.1489891651
 20
-23.7589950003
 10
45.1932042903
 20
-23.7362909328
 10
45.2392783701
 20
-23.7111435919
 10
45.2859162356
 20
-23.6837245062
 10
45.3800198773
 20
-23.6247960508
  0
LWPOLYLINE
  5
692
100
AcDbEntity
  8
RACCORDO
100
AcDbPolyline
 62
7
  6
CONTINUOUS
 90
4
 70
0
 10
40.8387857299
 20
-24.4854512088
 10
40.8438252702
 20
-24.4848542089
 10
40.8754380701
 20
-24.4786916663
 10
40.9062029127
 20
-24.4684319646
  0
LWPOLYLINE
  5
693
100
AcDbEntity
  8
RACCORDO
100
AcDbPolyline
 62
7
  6
CONTINUOUS
 90
10
 70
0
 10
104.9442531143
 20
-22.3289478403
 10
104.9490540756
 20
-22.329482895
 10
104.9533256396
 20
-22.3300174843
 10
104.9570577888
 20
-22.3305516082
 10
104.9602419603
 20
-22.3310782807
 10
104.9628703061
 20
-22.3316044878
 10
104.9649361444
 20
-22.3321511872
 10
104.9664347948
 20
-22.3327253649
 10
104.9673631553
 20
-22.3333200348
 10
104.9677192511
 20
-22.3339351971
  0
LWPOLYLINE
  5
694
100
AcDbEntity
  8
RACCORDO
100
AcDbPolyline
 62
7
  6
CONTINUOUS
 90
10
 70
0
 10
41.04269614
 20
24.3329896478
 10
41.0280975824
 20
24.3624329275
 10
41.0097595221
 20
24.3897116866
 10
40.987999522
 20
24.414350625
 10
40.9631342002
 20
24.4359678862
 10
40.9356400382
 20
24.454128733
 10
40.9062029127
 20
24.4684319646
 10
40.8754380701
 20
24.4786916663
 10
40.8438252702
 20
24.4848542089
 10
40.8387857299
 20
24.4854512088
  0
LWPOLYLINE
  5
695
100
AcDbEntity
  8
RACCORDO
100
AcDbPolyline
 62
7
  6
CONTINUOUS
 90
4
 70
0
 10
57.5895487912
 20
-24.2637857299
 10
57.5901457911
 20
-24.2688252702
 10
57.5963083337
 20
-24.3004380701
 10
57.6065680354
 20
-24.3312029127
  0
LWPOLYLINE
  5
696
100
AcDbEntity
  8
RACCORDO
100
AcDbPolyline
 62
7
  6
CONTINUOUS
 90
13
 70
0
 10
59.9677192511
 20
-23.2669872981
 10
59.9657532464
 20
-23.2492660013
 10
59.9601291208
 20
-23.2321167029
 10
59.950780814
 20
-23.215539403
 10
59.937723091
 20
-23.1992537336
 10
59.9210074201
 20
-23.1835400627
 10
59.9006826462
 20
-23.1692394937
 10
59.8769167399
 20
-23.1563414203
 10
59.8499756861
 20
-23.1448564488
 10
59.8201207463
 20
-23.1356575018
 10
59.7877466361
 20
-23.1290355536
 10
59.7534068789
 20
-23.1246996299
 10
59.7177234819
 20
-23.1226497308
  0
LWPOLYLINE
  5
697
100
AcDbEntity
  8
RACCORDO
100
AcDbPolyline
 62
253
  6
CONTINUOUS
 90
13
 70
0
 10
57.5880985787
 20
23.8443375673
 10
57.5903241693
 20
23.8161297326
 10
57.5967735118
 20
23.7884027584
 10
57.6073366638
 20
23.761629308
 10
57.6218335547
 20
23.7362657898
 10
57.6400170552
 20
23.7127445772
 10
57.6615771902
 20
23.6914666374
 10
57.6861464228
 20
23.6727946968
 10
57.7133059201
 20
23.6570470569
 10
57.7425926926
 20
23.6444921687
 10
57.773507487
 20
23.6353440559
 10
57.8055232972
 20
23.629758667
 10
57.8380943479
 20
23.6278312164
  0
LWPOLYLINE
  5
698
100
AcDbEntity
  8
RACCORDO
100
AcDbPolyline
 62
253
  6
CONTINUOUS
 90
13
 70
0
 10
59.9619014213
 20
-23.8443375673
 10
59.9597194283
 20
-23.8164122522
 10
59.9533709795
 20
-23.7888676909
 10
59.9429239476
 20
-23.7621735851
 10
59.92850038
 20
-23.7367668404
 10
59.9103193852
 20
-23.7131246796
 10
59.8887322372
 20
-23.6917350818
 10
59.8641352734
 20
-23.6729824084
 10
59.8369301839
 20
-23.6571655895
 10
59.8075878308
 20
-23.6445573199
 10
59.7766133274
 20
-23.6353723694
 10
59.744536136
 20
-23.6297655866
 10
59.7119056521
 20
-23.6278312164
  0
LINE
  5
699
100
AcDbEntity
  8
RACCORDO
100
AcDbLine
 62
253
  6
CONTINUOUS
 10
57.8380943479
 20
-23.6278312164
 11
57.8330037468
 21
-23.1226497308
  0
LINE
  5
69A
100
AcDbEntity
  8
RACCORDO
100
AcDbLine
 62
253
  6
CONTINUOUS
 10
59.7119056521
 20
23.6278312164
 11
59.7169962532
 21
23.1226497308
  0
LINE
  5
69B
100
AcDbEntity
  8
RACCORDO
100
AcDbLine
 62
253
  6
CONTINUOUS
 10
59.9619014213
 20
23.8443375673
 11
59.9677192511
 21
23.2669872981
  0
LINE
  5
69C
100
AcDbEntity
  8
RACCORDO
100
AcDbLine
 62
253
  6
CONTINUOUS
 10
57.8322765181
 20
-23.1226497308
 11
57.8322765181
 21
-22.3213883311
  0
LINE
  5
69D
100
AcDbEntity
  8
RACCORDO
100
AcDbLine
 62
253
  6
CONTINUOUS
 10
57.8322765181
 20
22.3213883311
 11
57.8322765181
 21
23.1226497308
  0
LINE
  5
69E
100
AcDbEntity
  8
RACCORDO
100
AcDbLine
 62
253
  6
CONTINUOUS
 10
57.8380943479
 20
-23.6278312164
 11
57.8380943479
 21
-24.4869014213
  0
LINE
  5
69F
100
AcDbEntity
  8
RACCORDO
100
AcDbLine
 62
253
  6
CONTINUOUS
 10
57.8380943479
 20
23.6278312164
 11
57.8380943479
 21
24.4869014213
  0
LINE
  5
6A0
100
AcDbEntity
  8
RACCORDO
100
AcDbLine
 62
253
  6
CONTINUOUS
 10
59.7119056521
 20
-23.6278312164
 11
59.7119056521
 21
-24.4869014213
  0
LINE
  5
6A1
100
AcDbEntity
  8
RACCORDO
100
AcDbLine
 62
253
  6
CONTINUOUS
 10
59.7119056521
 20
23.6278312164
 11
59.7119056521
 21
24.4869014213
  0
LINE
  5
6A2
100
AcDbEntity
  8
RACCORDO
100
AcDbLine
 62
253
  6
CONTINUOUS
 10
59.7177234819
 20
23.1226497308
 11
59.7177234819
 21
22.3213883311
  0
LINE
  5
6A3
100
AcDbEntity
  8
RACCORDO
100
AcDbLine
 62
253
  6
CONTINUOUS
 10
59.7177234819
 20
-22.3213883311
 11
59.7177234819
 21
-23.1226497308
  0
LINE
  5
6A4
100
AcDbEntity
  8
RACCORDO
100
AcDbLine
 62
7
  6
CONTINUOUS
 10
59.9619014213
 20
-24.2369056521
 11
59.9619014213
 21
-23.8443375673
  0
LINE
  5
6A5
100
AcDbEntity
  8
RACCORDO
100
AcDbLine
 62
7
  6
CONTINUOUS
 10
59.9619014213
 20
23.8443375673
 11
59.9619014213
 21
24.2369056521
  0
LINE
  5
6A6
100
AcDbEntity
  8
RACCORDO
100
AcDbLine
 62
7
  6
CONTINUOUS
 10
59.9677192511
 20
23.2669872981
 11
59.9677192511
 21
22.3344140523
  0
LINE
  5
6A7
100
AcDbEntity
  8
RACCORDO
100
AcDbLine
 62
7
  6
CONTINUOUS
 10
59.9677192511
 20
-22.3344140523
 11
59.9677192511
 21
-23.2669872981
  0
LINE
  5
6A8
100
AcDbEntity
  8
RACCORDO
100
AcDbLine
 62
7
  6
CONTINUOUS
 10
59.975
 20
-23.2669872981
 11
59.975
 21
-24.2500042308
  0
LINE
  5
6A9
100
AcDbEntity
  8
RACCORDO
100
AcDbLine
 62
7
  6
CONTINUOUS
 10
59.975
 20
23.2669872981
 11
59.975
 21
24.2500042308
  0
LINE
  5
6AA
100
AcDbEntity
  8
RACCORDO
100
AcDbLine
 62
253
  6
CONTINUOUS
 10
57.8330037468
 20
23.1226497308
 11
57.8380943479
 21
23.6278312164
  0
LINE
  5
6AB
100
AcDbEntity
  8
RACCORDO
100
AcDbLine
 62
253
  6
CONTINUOUS
 10
59.7169962532
 20
-23.1226497308
 11
59.7119056521
 21
-23.6278312164
  0
LINE
  5
6AC
100
AcDbEntity
  8
RACCORDO
100
AcDbLine
 62
253
  6
CONTINUOUS
 10
59.9677192511
 20
-23.2669872981
 11
59.9619014213
 21
-23.8443375673
  0
LWPOLYLINE
  5
6AD
100
AcDbEntity
  8
RACCORDO
100
AcDbPolyline
 62
253
  6
CONTINUOUS
 90
13
 70
0
 10
57.5880985787
 20
-23.8443375673
 10
57.5902805717
 20
-23.8164122522
 10
57.5966290205
 20
-23.7888676909
 10
57.6070760524
 20
-23.7621735851
 10
57.62149962
 20
-23.7367668404
 10
57.6396806148
 20
-23.7131246796
 10
57.6612677628
 20
-23.6917350818
 10
57.6858647266
 20
-23.6729824084
 10
57.7130698161
 20
-23.6571655895
 10
57.7424121692
 20
-23.6445573199
 10
57.7733866726
 20
-23.6353723694
 10
57.805463864
 20
-23.6297655866
 10
57.8380943479
 20
-23.6278312164
  0
LWPOLYLINE
  5
6AE
100
AcDbEntity
  8
RACCORDO
100
AcDbPolyline
 62
253
  6
CONTINUOUS
 90
13
 70
0
 10
59.9619014213
 20
23.8443375673
 10
59.9596758307
 20
23.8161297326
 10
59.9532264882
 20
23.7884027584
 10
59.9426633362
 20
23.761629308
 10
59.9281664453
 20
23.7362657898
 10
59.9099829448
 20
23.7127445772
 10
59.8884228098
 20
23.6914666374
 10
59.8638535772
 20
23.6727946968
 10
59.8366940799
 20
23.6570470569
 10
59.8074073074
 20
23.6444921687
 10
59.776492513
 20
23.6353440559
 10
59.7444767028
 20
23.629758667
 10
59.7119056521
 20
23.6278312164
  0
LWPOLYLINE
  5
6AF
100
AcDbEntity
  8
RACCORDO
100
AcDbPolyline
 62
7
  6
CONTINUOUS
 90
13
 70
0
 10
57.5822807489
 20
-23.2669872981
 10
57.584240099
 20
-23.2500124376
 10
57.5898445814
 20
-23.232751575
 10
57.5991721884
 20
-23.2156095158
 10
57.6122259128
 20
-23.1991814406
 10
57.6289616143
 20
-23.1837387744
 10
57.6493170923
 20
-23.1692396567
 10
57.6731058824
 20
-23.1561677462
 10
57.7000773888
 20
-23.144975649
 10
57.7300096219
 20
-23.1356232963
 10
57.7625285563
 20
-23.1284216237
 10
57.7970692964
 20
-23.1239714115
 10
57.8330037468
 20
-23.1226497308
  0
LWPOLYLINE
  5
6B0
100
AcDbEntity
  8
RACCORDO
100
AcDbPolyline
 62
7
  6
CONTINUOUS
 90
5
 70
0
 10
83.7643044666
 20
-24.4415090796
 10
83.8000003269
 20
-24.4665040979
 10
83.8394939471
 20
-24.4849211599
 10
83.8815853853
 20
-24.4962006967
 10
83.9249957692
 20
-24.5
  0
LWPOLYLINE
  5
6B1
100
AcDbEntity
  8
RACCORDO
100
AcDbPolyline
 62
7
  6
CONTINUOUS
 90
13
 70
0
 10
57.5822807489
 20
23.2669872981
 10
57.584240099
 20
23.2500124376
 10
57.5898445814
 20
23.232751575
 10
57.5991721884
 20
23.2156095158
 10
57.6122259128
 20
23.1991814406
 10
57.6289616143
 20
23.1837387744
 10
57.6493170923
 20
23.1692396567
 10
57.6731058824
 20
23.1561677462
 10
57.7000773888
 20
23.144975649
 10
57.7300096219
 20
23.1356232963
 10
57.7625285563
 20
23.1284216237
 10
57.7970692964
 20
23.1239714115
 10
57.8330037468
 20
23.1226497308
  0
LWPOLYLINE
  5
6B2
100
AcDbEntity
  8
RACCORDO
100
AcDbPolyline
 62
7
  6
CONTINUOUS
 90
3
 70
0
 10
59.975
 20
24.2500042308
 10
59.9712006967
 20
24.2934146147
 10
59.9599211599
 20
24.3355060529
  0
LWPOLYLINE
  5
6B3
100
AcDbEntity
  8
RACCORDO
100
AcDbPolyline
 62
7
  6
CONTINUOUS
 90
13
 70
0
 10
59.9619014213
 20
24.2369056521
 10
59.9597616605
 20
24.2695359488
 10
59.9533811971
 20
24.3016079562
 10
59.942869198
 20
24.3325729368
 10
59.9284055187
 20
24.3619010942
 10
59.910237626
 20
24.3890906368
 10
59.8886763643
 20
24.4136763643
 10
59.8640906368
 20
24.435237626
 10
59.8369010942
 20
24.4534055187
 10
59.8075729368
 20
24.467869198
 10
59.7766079562
 20
24.4783811971
 10
59.7445359488
 20
24.4847616605
 10
59.7119056521
 20
24.4869014213
  0
LINE
  5
6B4
100
AcDbEntity
  8
CIRCUITO_LETTORE_SA
100
AcDbLine
 62
7
  6
CONTINUOUS
 10
63.425
 20
-12.1
 11
63.425
 21
-12.0
  0
LINE
  5
6B5
100
AcDbEntity
  8
RACCORDO
100
AcDbLine
 62
253
  6
CONTINUOUS
 10
59.9604512088
 20
-24.2637857299
 11
59.9619014213
 21
-24.2369056521
  0
LWPOLYLINE
  5
6B6
100
AcDbEntity
  8
RACCORDO
100
AcDbPolyline
 62
7
  6
CONTINUOUS
 90
5
 70
0
 10
41.0165090796
 20
-24.4106955334
 10
41.0415040979
 20
-24.3749996731
 10
41.0599211599
 20
-24.3355060529
 10
41.0712006967
 20
-24.2934146147
 10
41.075
 20
-24.2500042308
  0
LINE
  5
6B7
100
AcDbEntity
  8
CIRCUITO_LETTORE_SA
100
AcDbLine
 62
7
  6
CONTINUOUS
 10
44.6042272222
 20
-12.0707727778
 11
44.675
 21
-12.0
  0
LWPOLYLINE
  5
6B8
100
AcDbEntity
  8
RACCORDO
100
AcDbPolyline
 62
253
  6
CONTINUOUS
 90
37
 70
0
 10
98.525
 20
-13.3279089484
 10
98.6867294349
 20
-13.3204297725
 10
98.84479066
 20
-13.2994927437
 10
98.9991836753
 20
-13.2650978169
 10
99.1510925781
 20
-13.2166969675
 10
99.2993332711
 20
-13.1548380411
 10
99.4403534624
 20
-13.0811647713
 10
99.5738372041
 20
-12.995481439
 10
99.7001004441
 20
-12.8979834704
 10
99.8165387353
 20
-12.790901337
 10
99.9229535703
 20
-12.6740850196
 10
100.0195434564
 20
-12.5476842177
 10
100.1042994689
 20
-12.4143790493
 10
100.1770245715
 20
-12.2739767219
 10
100.2379158004
 20
-12.1266697644
 10
100.2855553396
 20
-11.9757163922
 10
100.3196429043
 20
-11.8209880425
 10
100.3404787792
 20
-11.6626131445
 10
100.3475460028
 20
-11.5042355525
 10
100.3404983464
 20
-11.3458505185
 10
100.3196820386
 20
-11.187462822
 10
100.2856188048
 20
-11.0327307681
 10
100.2380118818
 20
-10.8817941749
 10
100.1771580328
 20
-10.7345134028
 10
100.1044692717
 20
-10.5941277039
 10
100.0197503134
 20
-10.4608242215
 10
99.9231964431
 20
-10.3344160752
 10
99.8168055308
 20
-10.2175815723
 10
99.7003758919
 20
-10.1104666122
 10
99.574109211
 20
-10.0129255714
 10
99.4406084116
 20
-9.9271995195
 10
99.2995519859
 20
-9.8534849687
 10
99.1512614418
 20
-9.7915856369
 10
98.9993042264
 20
-9.743153414
 10
98.8448694889
 20
-9.7087389783
 10
98.6867680801
 20
-9.6877917844
 10
98.525
 20
-9.6803118653
  0
LWPOLYLINE
  5
6B9
100
AcDbEntity
  8
RACCORDO
100
AcDbPolyline
 62
253
  6
CONTINUOUS
 90
37
 70
0
 10
98.525
 20
-12.8221771629
 10
98.6422857005
 20
-12.8170022757
 10
98.7583809232
 20
-12.8015554473
 10
98.8724009793
 20
-12.7760297687
 10
98.9834828514
 20
-12.7406980341
 10
99.0908069632
 20
-12.6958943745
 10
99.1935980113
 20
-12.642006364
 10
99.2910815149
 20
-12.5795200834
 10
99.3825866356
 20
-12.5089453789
 10
99.4675389203
 20
-12.4307683242
 10
99.5453142123
 20
-12.3456097223
 10
99.6153624268
 20
-12.2541200627
 10
99.6772489107
 20
-12.1568585745
 10
99.730521322
 20
-12.0545059671
 10
99.7747422658
 20
-11.9478658309
 10
99.809556383
 20
-11.8377206169
 10
99.8346915168
 20
-11.7248745458
 10
99.8499363696
 20
-11.6101997757
 10
99.8551462562
 20
-11.4946219131
 10
99.8502828974
 20
-11.3790191168
 10
99.8353861475
 20
-11.2642670527
 10
99.8105732599
 20
-11.1512943251
 10
99.7760593253
 20
-11.0409841165
 10
99.7321187962
 20
-10.934136535
 10
99.6790754699
 20
-10.8315284554
 10
99.6173661578
 20
-10.7339715095
 10
99.5474475496
 20
-10.6421548685
 10
99.4697286977
 20
-10.5566466639
 10
99.3847625554
 20
-10.4781088398
 10
99.2931819566
 20
-10.4071726437
 10
99.1955482156
 20
-10.3443415372
 10
99.0925439566
 20
-10.2901385062
 10
98.9849562282
 20
-10.2450557893
 10
98.8735536214
 20
-10.2094949548
 10
98.7591657674
 20
-10.1838014205
 10
98.6426803243
 20
-10.1682502326
 10
98.525
 20
-10.1630354299
  0
LINE
  5
6BA
100
AcDbEntity
  8
RACCORDO
100
AcDbLine
 62
253
  6
CONTINUOUS
 10
45.125
 20
-13.3279089484
 11
98.5249999971
 21
-13.3279089435
  0
LINE
  5
6BB
100
AcDbEntity
  8
RACCORDO
100
AcDbLine
 62
253
  6
CONTINUOUS
 10
45.125
 20
-12.8221771629
 11
98.525
 21
-12.8221771629
  0
LINE
  5
6BC
100
AcDbEntity
  8
0
100
AcDbLine
 62
7
  6
CONTINUOUS
 10
45.125
 20
-12.75
 11
98.525
 21
-12.75
  0
LINE
  5
6BD
100
AcDbEntity
  8
0
100
AcDbLine
 62
7
  6
CONTINUOUS
 10
45.125
 20
-12.2739171521
 11
98.525
 21
-12.2739171521
  0
LINE
  5
6BE
100
AcDbEntity
  8
CIRCUITO_LETTORE_SA
100
AcDbLine
 62
7
  6
CONTINUOUS
 10
48.575
 20
-12.1
 11
63.425
 21
-12.1
  0
LINE
  5
6BF
100
AcDbEntity
  8
CIRCUITO_LETTORE_SA
100
AcDbLine
 62
7
  6
CONTINUOUS
 10
66.725
 20
-12.1
 11
93.225
 21
-12.1
  0
LINE
  5
6C0
100
AcDbEntity
  8
CIRCUITO_LETTORE_SA
100
AcDbLine
 62
7
  6
CONTINUOUS
 10
94.225
 20
-12.1
 11
95.075
 21
-12.1
  0
LINE
  5
6C1
100
AcDbEntity
  8
CIRCUITO_LETTORE_SA
100
AcDbLine
 62
7
  6
CONTINUOUS
 10
44.675
 20
-12.0
 11
48.575
 21
-12.0
  0
LINE
  5
6C2
100
AcDbEntity
  8
CIRCUITO_LETTORE_SA
100
AcDbLine
 62
7
  6
CONTINUOUS
 10
50.075
 20
-12.0
 11
66.725
 21
-12.0
  0
LINE
  5
6C3
100
AcDbEntity
  8
CIRCUITO_LETTORE_SA
100
AcDbLine
 62
7
  6
CONTINUOUS
 10
93.225
 20
-12.0
 11
94.225
 21
-12.0
  0
LINE
  5
6C4
100
AcDbEntity
  8
CIRCUITO_LETTORE_SA
100
AcDbLine
 62
7
  6
CONTINUOUS
 10
95.075
 20
-12.0
 11
98.975
 21
-12.0
  0
LINE
  5
6C5
100
AcDbEntity
  8
CIRCUITO_LETTORE_SA
100
AcDbLine
 62
7
  6
CONTINUOUS
 10
82.7576397009
 20
-11.8
 11
77.775
 21
-11.8
  0
LINE
  5
6C6
100
AcDbEntity
  8
CIRCUITO_LETTORE_SA
100
AcDbLine
 62
7
  6
CONTINUOUS
 10
77.375
 20
-11.8
 11
75.525
 21
-11.8
  0
LINE
  5
6C7
100
AcDbEntity
  8
CIRCUITO_LETTORE_SA
100
AcDbLine
 62
7
  6
CONTINUOUS
 10
75.125
 20
-11.8
 11
73.275
 21
-11.8
  0
LINE
  5
6C8
100
AcDbEntity
  8
CIRCUITO_LETTORE_SA
100
AcDbLine
 62
7
  6
CONTINUOUS
 10
72.875
 20
-11.8
 11
71.025
 21
-11.8
  0
LINE
  5
6C9
100
AcDbEntity
  8
CIRCUITO_LETTORE_SA
100
AcDbLine
 62
7
  6
CONTINUOUS
 10
70.625
 20
-11.8
 11
64.575
 21
-11.8
  0
LINE
  5
6CA
100
AcDbEntity
  8
CIRCUITO_LETTORE_SA
100
AcDbLine
 62
7
  6
CONTINUOUS
 10
64.575
 20
-11.553
 11
70.625
 21
-11.553
  0
LINE
  5
6CB
100
AcDbEntity
  8
CIRCUITO_LETTORE_SA
100
AcDbLine
 62
7
  6
CONTINUOUS
 10
71.025
 20
-11.553
 11
72.875
 21
-11.553
  0
LINE
  5
6CC
100
AcDbEntity
  8
CIRCUITO_LETTORE_SA
100
AcDbLine
 62
7
  6
CONTINUOUS
 10
73.275
 20
-11.553
 11
75.125
 21
-11.553
  0
LINE
  5
6CD
100
AcDbEntity
  8
CIRCUITO_LETTORE_SA
100
AcDbLine
 62
7
  6
CONTINUOUS
 10
75.525
 20
-11.553
 11
77.375
 21
-11.553
  0
LINE
  5
6CE
100
AcDbEntity
  8
CIRCUITO_LETTORE_SA
100
AcDbLine
 62
7
  6
CONTINUOUS
 10
77.775
 20
-11.553
 11
95.075
 21
-11.553
  0
LINE
  5
6CF
100
AcDbEntity
  8
CIRCUITO_LETTORE_SA
100
AcDbLine
 62
7
  6
CONTINUOUS
 10
64.575
 20
-12.0
 11
64.575
 21
-11.553
  0
LINE
  5
6D0
100
AcDbEntity
  8
RACCORDO
100
AcDbLine
 62
7
  6
CONTINUOUS
 10
83.7643044666
 20
24.4415090796
 11
83.7334909204
 21
24.4106955334
  0
LINE
  5
6D1
100
AcDbEntity
  8
RACCORDO
100
AcDbLine
 62
253
  6
CONTINUOUS
 10
85.8250042308
 20
24.5
 11
85.8246205848
 21
24.499616354
  0
LWPOLYLINE
  5
6D2
100
AcDbEntity
  8
RACCORDO
100
AcDbPolyline
 62
7
  6
CONTINUOUS
 90
10
 70
0
 10
102.7420103522
 20
24.46769614
 10
102.7125670725
 20
24.4530975824
 10
102.6852883134
 20
24.4347595221
 10
102.660649375
 20
24.412999522
 10
102.6390321138
 20
24.3881342002
 10
102.620871267
 20
24.3606400382
 10
102.6065680354
 20
24.3312029127
 10
102.5963083337
 20
24.3004380701
 10
102.5901457911
 20
24.2688252702
 10
102.5895487912
 20
24.2637857299
  0
LWPOLYLINE
  5
6D3
100
AcDbEntity
  8
RACCORDO
100
AcDbPolyline
 62
7
  6
CONTINUOUS
 90
3
 70
0
 10
102.7394939471
 20
24.4849211599
 10
102.7000003269
 20
24.4665040979
 10
102.6643044666
 20
24.4415090796
  0
LWPOLYLINE
  5
6D4
100
AcDbEntity
  8
RACCORDO
100
AcDbPolyline
 62
253
  6
CONTINUOUS
 90
37
 70
0
 10
45.125
 20
-10.1630354299
 10
45.0073511308
 20
-10.1682474549
 10
44.8908969101
 20
-10.1837902495
 10
44.7765392919
 20
-10.209469793
 10
44.6651664694
 20
-10.245010677
 10
44.557605958
 20
-10.2900679333
 10
44.4546220518
 20
-10.344242352
 10
44.3570014388
 20
-10.4070431334
 10
44.2654270684
 20
-10.4779484395
 10
44.1804582077
 20
-10.5564583411
 10
44.102727145
 20
-10.641945222
 10
44.0327900898
 20
-10.733746939
 10
43.9710597513
 20
-10.8312928343
 10
43.9179936513
 20
-10.933893944
 10
43.8740292763
 20
-11.0407391352
 10
43.8394921862
 20
-11.1510482596
 10
43.814656953
 20
-11.2640201112
 10
43.7997382779
 20
-11.3787723145
 10
43.7948533501
 20
-11.4943755098
 10
43.8000417183
 20
-11.6099535371
 10
43.8152647964
 20
-11.7246287232
 10
43.8403778326
 20
-11.8374762125
 10
43.8751691685
 20
-11.9476231172
 10
43.9193667508
 20
-12.054266212
 10
43.9726168468
 20
-12.1566260599
 10
44.0344825602
 20
-12.2538984172
 10
44.1045123949
 20
-12.3454025847
 10
44.1822755095
 20
-12.4305821307
 10
44.2672251781
 20
-12.5087868097
 10
44.3587366123
 20
-12.5793920868
 10
44.456233251
 20
-12.6419083757
 10
44.5590445801
 20
-12.6958247027
 10
44.6663957727
 20
-12.7406535393
 10
44.7775072027
 20
-12.7760049711
 10
44.8915571812
 20
-12.8015444451
 10
45.0076832549
 20
-12.8169995415
 10
45.125
 20
-12.8221771629
  0
LINE
  5
6D5
100
AcDbEntity
  8
CIRCUITO_LETTORE_SA
100
AcDbLine
 62
253
  6
CONTINUOUS
 10
97.575
 20
-11.3169777784
 11
95.075
 21
-11.3169777784
  0
LINE
  5
6D6
100
AcDbEntity
  8
CIRCUITO_LETTORE_SA
100
AcDbLine
 62
253
  6
CONTINUOUS
 10
46.075
 20
-11.3169777784
 11
48.575
 21
-11.3169777784
  0
LINE
  5
6D7
100
AcDbEntity
  8
CIRCUITO_LETTORE_SA
100
AcDbLine
 62
7
  6
CONTINUOUS
 10
97.575
 20
-11.2
 11
95.075
 21
-11.2
  0
LINE
  5
6D8
100
AcDbEntity
  8
CIRCUITO_LETTORE_SA
100
AcDbLine
 62
7
  6
CONTINUOUS
 10
48.575
 20
-11.2
 11
46.075
 21
-11.2
  0
LINE
  5
6D9
100
AcDbEntity
  8
CIRCUITO_LETTORE_SA
100
AcDbLine
 62
7
  6
CONTINUOUS
 10
98.975
 20
-11.1
 11
44.675
 21
-11.1
  0
LINE
  5
6DA
100
AcDbEntity
  8
0
100
AcDbLine
 62
7
  6
CONTINUOUS
 10
98.525
 20
-10.7260828479
 11
45.125
 21
-10.7260828479
  0
LINE
  5
6DB
100
AcDbEntity
  8
0
100
AcDbLine
 62
7
  6
CONTINUOUS
 10
98.525
 20
-10.25
 11
45.125
 21
-10.25
  0
LINE
  5
6DC
100
AcDbEntity
  8
RACCORDO
100
AcDbLine
 62
253
  6
CONTINUOUS
 10
98.525
 20
-10.1630354299
 11
45.125
 21
-10.1630354299
  0
LINE
  5
6DD
100
AcDbEntity
  8
RACCORDO
100
AcDbLine
 62
253
  6
CONTINUOUS
 10
98.525
 20
-9.6803118653
 11
45.1250000027
 21
-9.6803118701
  0
LINE
  5
6DE
100
AcDbEntity
  8
RACCORDO
100
AcDbLine
 62
7
  6
CONTINUOUS
 10
83.7334909204
 20
-24.4106955334
 11
83.7643044666
 21
-24.4415090796
  0
LINE
  5
6DF
100
AcDbEntity
  8
RACCORDO
100
AcDbLine
 62
253
  6
CONTINUOUS
 10
85.8250042308
 20
-24.5
 11
85.8246205848
 21
-24.499616354
  0
LINE
  5
6E0
100
AcDbEntity
  8
CIRCUITO_LETTORE_SA
100
AcDbLine
 62
7
  6
CONTINUOUS
 10
66.725
 20
-12.1
 11
66.725
 21
-12.0
  0
LINE
  5
6E1
100
AcDbEntity
  8
CIRCUITO_LETTORE_SA
100
AcDbLine
 62
7
  6
CONTINUOUS
 10
68.825
 20
-12.1
 11
68.825
 21
-11.8
  0
LWPOLYLINE
  5
6E2
100
AcDbEntity
  8
RACCORDO
100
AcDbPolyline
 62
7
  6
CONTINUOUS
 90
5
 70
0
 10
83.7334909204
 20
24.4106955334
 10
83.7084959021
 20
24.3749996731
 10
83.6900788401
 20
24.3355060529
 10
83.6787993033
 20
24.2934146147
 10
83.675
 20
24.2500042308
  0
LINE
  5
6E3
100
AcDbEntity
  8
RACCORDO
100
AcDbLine
 62
7
  6
CONTINUOUS
 10
98.2699801227
 20
23.6247960508
 11
98.2220826234
 21
23.5953423515
  0
LWPOLYLINE
  5
6E4
100
AcDbEntity
  8
RACCORDO
100
AcDbPolyline
 62
253
  6
CONTINUOUS
 90
37
 70
0
 10
45.125
 20
-9.6803118653
 10
44.96324656
 20
-9.6877959277
 10
44.8051684669
 20
-9.7087374691
 10
44.6507657207
 20
-9.7431364563
 10
44.4988552836
 20
-9.7915419795
 10
44.3506201934
 20
-9.8534048157
 10
44.2096095637
 20
-9.9270774421
 10
44.0761395191
 20
-10.0127546533
 10
43.949893935
 20
-10.1102414248
 10
43.8334735508
 20
-10.2173055153
 10
43.7270773448
 20
-10.3340956667
 10
43.6305063387
 20
-10.4604628612
 10
43.5457643364
 20
-10.5937282652
 10
43.473047973
 20
-10.7340790365
 10
43.4121606135
 20
-10.8813277544
 10
43.3645161567
 20
-11.0322338078
 10
43.3304106724
 20
-11.1869307414
 10
43.309548091
 20
-11.3452848321
 10
43.3024541025
 20
-11.5036547001
 10
43.3094748542
 20
-11.6620467005
 10
43.3302641988
 20
-11.8204544455
 10
43.3643093851
 20
-11.9752176004
 10
43.41191157
 20
-12.1262020529
 10
43.4727695964
 20
-12.2735420486
 10
43.5454672423
 20
-12.4139799413
 10
43.6302000513
 20
-12.5473230779
 10
43.7267724796
 20
-12.6737643751
 10
43.8331816744
 20
-12.7906246561
 10
43.9496289001
 20
-12.8977574832
 10
44.0759128922
 20
-12.995309614
 10
44.2094270048
 20
-13.0810417323
 10
44.3504923898
 20
-13.154756912
 10
44.4987878951
 20
-13.2166523726
 10
44.650743419
 20
-13.2650800363
 10
44.8051689275
 20
-13.2994906096
 10
44.9632544545
 20
-13.3204335653
 10
45.125
 20
-13.3279089484
  0
LWPOLYLINE
  5
6E5
100
AcDbEntity
  8
RACCORDO
100
AcDbPolyline
 62
7
  6
CONTINUOUS
 90
3
 70
0
 10
98.3640837644
 20
-23.6837245062
 10
98.2699801227
 20
-23.6247960508
 10
98.2220826234
 20
-23.5953423515
  0
LWPOLYLINE
  5
6E6
100
AcDbEntity
  8
RACCORDO
100
AcDbPolyline
 62
7
  6
CONTINUOUS
 90
6
 70
0
 10
41.0165090796
 20
24.4106955334
 10
40.9856955334
 20
24.4415090796
 10
40.9499996731
 20
24.4665040979
 10
40.9105060529
 20
24.4849211599
 10
40.8684146147
 20
24.4962006967
 10
40.8250042308
 20
24.5
  0
LINE
  5
6E7
100
AcDbEntity
  8
CIRCUITO_LETTORE_SA
100
AcDbLine
 62
7
  6
CONTINUOUS
 10
70.625
 20
-11.1
 11
70.625
 21
-12.1
  0
LINE
  5
6E8
100
AcDbEntity
  8
CIRCUITO_LETTORE_SA
100
AcDbLine
 62
7
  6
CONTINUOUS
 10
71.025
 20
-11.1
 11
71.025
 21
-12.1
  0
LWPOLYLINE
  5
6E9
100
AcDbEntity
  8
RACCORDO
100
AcDbPolyline
 62
7
  6
CONTINUOUS
 90
5
 70
0
 10
102.6643044666
 20
-24.4415090796
 10
102.7000003269
 20
-24.4665040979
 10
102.7394939471
 20
-24.4849211599
 10
102.7815853853
 20
-24.4962006967
 10
102.8249957692
 20
-24.5
  0
LWPOLYLINE
  5
6EA
100
AcDbEntity
  8
RACCORDO
100
AcDbPolyline
 62
7
  6
CONTINUOUS
 90
3
 70
0
 10
59.9599211599
 20
24.3355060529
 10
59.9415040979
 20
24.3749996731
 10
59.9165090796
 20
24.4106955334
  0
LINE
  5
6EB
100
AcDbEntity
  8
CIRCUITO_LETTORE_SA
100
AcDbLine
 62
7
  6
CONTINUOUS
 10
72.875
 20
-11.1
 11
72.875
 21
-12.1
  0
LINE
  5
6EC
100
AcDbEntity
  8
CIRCUITO_LETTORE_SA
100
AcDbLine
 62
7
  6
CONTINUOUS
 10
73.275
 20
-11.1
 11
73.275
 21
-12.1
  0
LINE
  5
6ED
100
AcDbEntity
  8
CIRCUITO_LETTORE_SA
100
AcDbLine
 62
7
  6
CONTINUOUS
 10
75.125
 20
-11.1
 11
75.125
 21
-12.1
  0
LWPOLYLINE
  5
6EE
100
AcDbEntity
  8
RACCORDO
100
AcDbPolyline
 62
7
  6
CONTINUOUS
 90
3
 70
0
 10
83.6900788401
 20
-24.3355060529
 10
83.7084959021
 20
-24.3749996731
 10
83.7334909204
 20
-24.4106955334
  0
LINE
  5
6EF
100
AcDbEntity
  8
CIRCUITO_LETTORE_SA
100
AcDbLine
 62
7
  6
CONTINUOUS
 10
75.525
 20
-11.1
 11
75.525
 21
-12.1
  0
LINE
  5
6F0
100
AcDbEntity
  8
CIRCUITO_LETTORE_SA
100
AcDbLine
 62
7
  6
CONTINUOUS
 10
77.375
 20
-11.1
 11
77.375
 21
-12.1
  0
LINE
  5
6F1
100
AcDbEntity
  8
CIRCUITO_LETTORE_SA
100
AcDbLine
 62
7
  6
CONTINUOUS
 10
77.775
 20
-11.1
 11
77.775
 21
-12.1
  0
LWPOLYLINE
  5
6F2
100
AcDbEntity
  8
RACCORDO
100
AcDbPolyline
 62
7
  6
CONTINUOUS
 90
6
 70
0
 10
102.6643044666
 20
24.4415090796
 10
102.6334909204
 20
24.4106955334
 10
102.6084959021
 20
24.3749996731
 10
102.5900788401
 20
24.3355060529
 10
102.5787993033
 20
24.2934146147
 10
102.575
 20
24.2500042308
  0
LWPOLYLINE
  5
6F3
100
AcDbEntity
  8
DRAFT
100
AcDbPolyline
 62
7
  6
CONTINUOUS
 90
19
 70
0
 10
93.825
 20
3.0711060506
 10
94.096497741
 20
3.082908448
 10
94.3661586255
 20
3.1182644033
 10
94.6319372805
 20
3.1769621061
 10
94.8918856183
 20
3.2586395675
 10
95.1439352317
 20
3.3627162703
 10
95.3859398146
 20
3.4883314844
 10
95.6159374627
 20
3.634435734
 10
95.832327815
 20
3.7999798043
 10
96.0336319389
 20
3.9838587915
 10
96.2183461761
 20
4.1847839994
 10
96.3849568398
 20
4.4012012121
 10
96.5321274667
 20
4.6314445025
 10
96.6586951165
 20
4.8737566184
 10
96.7636740496
 20
5.1263226198
 10
96.8462324219
 20
5.3872385726
 10
96.9057015648
 20
5.6545244681
 10
96.9415852553
 20
5.9261375031
 10
96.9535687441
 20
6.2
  0
LWPOLYLINE
  5
6F4
100
AcDbEntity
  8
CURVE
100
AcDbPolyline
 62
252
  6
CONTINUOUS
 90
81
 70
0
 10
93.825
 20
0.2
 10
93.5879686183
 20
0.2046099681
 10
93.3527602988
 20
0.2184265071
 10
93.1192012789
 20
0.2414295687
 10
92.887117796
 20
0.273599105
 10
92.6563360878
 20
0.3149150677
 10
92.4267982122
 20
0.3653424693
 10
92.19890951
 20
0.4247865636
 10
91.9731911425
 20
0.4931376652
 10
91.7501642712
 20
0.5702860884
 10
91.5303500573
 20
0.6561221478
 10
91.3142286675
 20
0.750526013
 10
91.1021162897
 20
0.8533372755
 10
90.894288117
 20
0.9643853818
 10
90.6910193426
 20
1.0834997786
 10
90.4925851596
 20
1.2105099127
 10
90.2992638945
 20
1.3452351097
 10
90.1113464072
 20
1.4874542121
 10
89.929126691
 20
1.6369359412
 10
89.7528987392
 20
1.7934490183
 10
89.5829565449
 20
1.9567621649
 10
89.4195830887
 20
2.1266357118
 10
89.2630172999
 20
2.3027964272
 10
89.1134870952
 20
2.4849626886
 10
88.9712203913
 20
2.6728528736
 10
88.8364451046
 20
2.8661853598
 10
88.7093799279
 20
3.0646719198
 10
88.5902066583
 20
3.2679979061
 10
88.4790978688
 20
3.4758420664
 10
88.3762261326
 20
3.6878831483
 10
88.2817640229
 20
3.9037998993
 10
88.195872926
 20
4.1232664928
 10
88.1186694815
 20
4.3459388043
 10
88.0502591423
 20
4.571468135
 10
87.9907473612
 20
4.7995057861
 10
87.9402395911
 20
5.0297030589
 10
87.8988296711
 20
5.2617090237
 10
87.866564985
 20
5.4951638277
 10
87.8434813027
 20
5.729705387
 10
87.8296143944
 20
5.964971618
 10
87.82500003
 20
6.2006004367
 10
87.8296620566
 20
6.4362296346
 10
87.8435766286
 20
6.6714965029
 10
87.8667079778
 20
6.9060382081
 10
87.8990203357
 20
7.1394919165
 10
87.9404779339
 20
7.3714947946
 10
87.9910333665
 20
7.6016863791
 10
88.0505926772
 20
7.8297156881
 10
88.1190502724
 20
8.0552341104
 10
88.1963005582
 20
8.2778930343
 10
88.2822379411
 20
8.4973438485
 10
88.3767455759
 20
8.713242446
 10
88.4796616122
 20
8.9252627376
 10
88.5908129484
 20
9.1330831386
 10
88.7100264826
 20
9.3363820642
 10
88.8371291133
 20
9.5348379297
 10
88.9719385823
 20
9.7281358754
 10
89.1142360065
 20
9.9159879416
 10
89.2637933463
 20
10.0981128936
 10
89.420382562
 20
10.2742294966
 10
89.5837756143
 20
10.4440565159
 10
89.7537333691
 20
10.6073211149
 10
89.9299723147
 20
10.7637840492
 10
90.1121978453
 20
10.9132144723
 10
90.3001153546
 20
11.055381538
 10
90.4934302367
 20
11.1900543997
 10
90.6918516626
 20
11.3170123952
 10
90.8951039109
 20
11.4360755977
 10
91.1029150375
 20
11.5470742642
 10
91.3150130982
 20
11.649838652
 10
91.5311261486
 20
11.7441990182
 10
91.7509392748
 20
11.8299954006
 10
91.9739656838
 20
11.9071069586
 10
92.1996756127
 20
11.9754226324
 10
92.4275392986
 20
12.0348313621
 10
92.6570269789
 20
12.0852220877
 10
92.8877266219
 20
12.1264996009
 10
93.1196971209
 20
12.1586320995
 10
93.3531151005
 20
12.1816036326
 10
93.5881571854
 20
12.1953982497
 10
93.825
 20
12.2
  0
LWPOLYLINE
  5
6F5
100
AcDbEntity
  8
0
100
AcDbPolyline
 62
7
  6
CONTINUOUS
 90
58
 70
0
 10
93.825
 20
0.2
 10
93.4936840474
 20
0.2091428754
 10
93.1651543667
 20
0.2362666712
 10
92.839410958
 20
0.2813713861
 10
92.5154402838
 20
0.3447288172
 10
92.1942558815
 20
0.4260671588
 10
91.8788983635
 20
0.524571002
 10
91.5693862205
 20
0.6403771084
 10
91.2657009619
 20
0.7733486824
 10
90.9708277271
 20
0.9222599695
 10
90.6850516946
 20
1.0871805796
 10
90.4080876861
 20
1.2680408154
 10
90.1420653058
 20
1.4634059482
 10
89.8868253043
 20
1.6735827673
 10
89.642526931
 20
1.8982643115
 10
89.4117775385
 20
2.1350952143
 10
89.1949388667
 20
2.3839380445
 10
88.9916491756
 20
2.6449299672
 10
88.8034305984
 20
2.9161275052
 10
88.6302189643
 20
3.1979390467
 10
88.4720784442
 20
3.4899558333
 10
88.3307236832
 20
3.7890086871
 10
88.2064675322
 20
4.0947866761
 10
88.0989971403
 20
4.4076003198
 10
88.0090886009
 20
4.7252126645
 10
87.9367986714
 20
5.0480861938
 10
87.8820705943
 20
5.3757579811
 10
87.8455101904
 20
5.7046030469
 10
87.827319942
 20
6.0341960891
 10
87.8272973668
 20
6.3649620776
 10
87.8454408389
 20
6.6945515679
 10
87.8819501493
 20
7.0233843112
 10
87.936625507
 20
7.3510403255
 10
88.008865913
 20
7.673910731
 10
88.0987319968
 20
7.9915451845
 10
88.2061631289
 20
8.3043940571
 10
88.3303764214
 20
8.6101997253
 10
88.4716789544
 20
8.9092603001
 10
88.6297636477
 20
9.2012778826
 10
88.8029263727
 20
9.4831010193
 10
88.9911111199
 20
9.7543336196
 10
89.1943738987
 20
10.0153722539
 10
89.4111786088
 20
10.2642546309
 10
89.6418685216
 20
10.5011027581
 10
89.8861003656
 20
10.7257952372
 10
90.1413082264
 20
10.9360047931
 10
90.4073536806
 20
11.1314435594
 10
90.6843751515
 20
11.3124001107
 10
90.9702219951
 20
11.4774119161
 10
91.2651726313
 20
11.626402778
 10
91.56894864
 20
11.7594495529
 10
91.8785641174
 20
11.8753193112
 10
92.1940576146
 20
11.9738741087
 10
92.5153905803
 20
12.0552524055
 10
92.8394614575
 20
12.1186358558
 10
93.1652363936
 20
12.1637517762
 10
93.4937492411
 20
12.1908731339
 10
93.825
 20
12.2
  0
LINE
  5
6F6
100
AcDbEntity
  8
RACCORDO
100
AcDbLine
 62
253
  6
CONTINUOUS
 10
57.575
 20
-24.2500042308
 11
57.575383646
 21
-24.2496205848
  0
LINE
  5
6F7
100
AcDbEntity
  8
RACCORDO
100
AcDbLine
 62
7
  6
CONTINUOUS
 10
45.3800198773
 20
-23.6247960508
 11
45.4279173766
 21
-23.5953423515
  0
LWPOLYLINE
  5
6F8
100
AcDbEntity
  8
RACCORDO
100
AcDbPolyline
 62
7
  6
CONTINUOUS
 90
3
 70
0
 10
45.2859162356
 20
23.6837245062
 10
45.3800198773
 20
23.6247960508
 10
45.4279173766
 20
23.5953423515
  0
LINE
  5
6F9
100
AcDbEntity
  8
RACCORDO
100
AcDbLine
 62
253
  6
CONTINUOUS
 10
104.975
 20
-24.2500042308
 11
104.974616354
 21
-24.2496205848
  0
LINE
  5
6FA
100
AcDbEntity
  8
RACCORDO
100
AcDbLine
 62
253
  6
CONTINUOUS
 10
57.575
 20
24.2500042308
 11
57.575383646
 21
24.2496205848
  0
LWPOLYLINE
  5
6FB
100
AcDbEntity
  8
RACCORDO
100
AcDbPolyline
 62
7
  6
CONTINUOUS
 90
3
 70
0
 10
83.675
 20
-24.2500042308
 10
83.6787993033
 20
-24.2934146147
 10
83.6900788401
 20
-24.3355060529
  0
LWPOLYLINE
  5
6FC
100
AcDbEntity
  8
RACCORDO
100
AcDbPolyline
 62
253
  6
CONTINUOUS
 90
13
 70
0
 10
86.0619014213
 20
-23.8443375673
 10
86.0597194283
 20
-23.8164122522
 10
86.0533709795
 20
-23.7888676909
 10
86.0429239476
 20
-23.7621735851
 10
86.02850038
 20
-23.7367668404
 10
86.0103193852
 20
-23.7131246796
 10
85.9887322372
 20
-23.6917350818
 10
85.9641352734
 20
-23.6729824084
 10
85.9369301839
 20
-23.6571655895
 10
85.9075878308
 20
-23.6445573199
 10
85.8766133274
 20
-23.6353723694
 10
85.844536136
 20
-23.6297655866
 10
85.8119056521
 20
-23.6278312164
  0
LWPOLYLINE
  5
6FD
100
AcDbEntity
  8
RACCORDO
100
AcDbPolyline
 62
7
  6
CONTINUOUS
 90
13
 70
0
 10
83.6880985787
 20
-24.2369056521
 10
83.6902383395
 20
-24.2695359488
 10
83.6966188029
 20
-24.3016079562
 10
83.707130802
 20
-24.3325729368
 10
83.7215944813
 20
-24.3619010942
 10
83.739762374
 20
-24.3890906368
 10
83.7613236357
 20
-24.4136763643
 10
83.7859093632
 20
-24.435237626
 10
83.8130989058
 20
-24.4534055187
 10
83.8424270632
 20
-24.467869198
 10
83.8733920438
 20
-24.4783811971
 10
83.9054640512
 20
-24.4847616605
 10
83.9380943479
 20
-24.4869014213
  0
LINE
  5
6FE
100
AcDbEntity
  8
RACCORDO
100
AcDbLine
 62
253
  6
CONTINUOUS
 10
83.6880985787
 20
-23.8443375673
 11
83.6822807489
 21
-23.2669872981
  0
LINE
  5
6FF
100
AcDbEntity
  8
RACCORDO
100
AcDbLine
 62
253
  6
CONTINUOUS
 10
83.9380943479
 20
-23.6278312164
 11
83.9330037468
 21
-23.1226497308
  0
LINE
  5
700
100
AcDbEntity
  8
CIRCUITO_LETTORE_SA
100
AcDbLine
 62
7
  6
CONTINUOUS
 10
81.8576397009
 20
-12.1
 11
81.8576397009
 21
-11.8
  0
LINE
  5
701
100
AcDbEntity
  8
CIRCUITO_LETTORE_SA
100
AcDbLine
 62
253
  6
CONTINUOUS
 10
82.4576397009
 20
-12.1
 11
82.4576397009
 21
-11.8
  0
LINE
  5
702
100
AcDbEntity
  8
CIRCUITO_LETTORE_SA
100
AcDbLine
 62
7
  6
CONTINUOUS
 10
82.7576397009
 20
-12.1
 11
82.7576397009
 21
-11.8
  0
LINE
  5
703
100
AcDbEntity
  8
RACCORDO
100
AcDbLine
 62
7
  6
CONTINUOUS
 10
83.675
 20
-23.2669872981
 11
83.675
 21
-24.2500042308
  0
LINE
  5
704
100
AcDbEntity
  8
RACCORDO
100
AcDbLine
 62
7
  6
CONTINUOUS
 10
83.675
 20
23.2669872981
 11
83.675
 21
24.2500042308
  0
LINE
  5
705
100
AcDbEntity
  8
RACCORDO
100
AcDbLine
 62
7
  6
CONTINUOUS
 10
83.6822807489
 20
-23.2669872981
 11
83.6822807489
 21
-22.3344140523
  0
LINE
  5
706
100
AcDbEntity
  8
RACCORDO
100
AcDbLine
 62
7
  6
CONTINUOUS
 10
83.6822807489
 20
22.3344140523
 11
83.6822807489
 21
23.2669872981
  0
LINE
  5
707
100
AcDbEntity
  8
RACCORDO
100
AcDbLine
 62
7
  6
CONTINUOUS
 10
83.6880985787
 20
24.2369056521
 11
83.6880985787
 21
23.8443375673
  0
LINE
  5
708
100
AcDbEntity
  8
RACCORDO
100
AcDbLine
 62
7
  6
CONTINUOUS
 10
83.6880985787
 20
-23.8443375673
 11
83.6880985787
 21
-24.2369056521
  0
LINE
  5
709
100
AcDbEntity
  8
RACCORDO
100
AcDbLine
 62
253
  6
CONTINUOUS
 10
83.9322765181
 20
-23.1226497308
 11
83.9322765181
 21
-22.3213883311
  0
LINE
  5
70A
100
AcDbEntity
  8
RACCORDO
100
AcDbLine
 62
253
  6
CONTINUOUS
 10
83.9322765181
 20
22.3213883311
 11
83.9322765181
 21
23.1226497308
  0
LINE
  5
70B
100
AcDbEntity
  8
RACCORDO
100
AcDbLine
 62
253
  6
CONTINUOUS
 10
83.9380943479
 20
-23.6278312164
 11
83.9380943479
 21
-24.4869014213
  0
LINE
  5
70C
100
AcDbEntity
  8
RACCORDO
100
AcDbLine
 62
253
  6
CONTINUOUS
 10
83.9380943479
 20
23.6278312164
 11
83.9380943479
 21
24.4869014213
  0
LINE
  5
70D
100
AcDbEntity
  8
RACCORDO
100
AcDbLine
 62
253
  6
CONTINUOUS
 10
83.6822807489
 20
23.2669872981
 11
83.6880985787
 21
23.8443375673
  0
LINE
  5
70E
100
AcDbEntity
  8
RACCORDO
100
AcDbLine
 62
253
  6
CONTINUOUS
 10
83.9330037468
 20
23.1226497308
 11
83.9380943479
 21
23.6278312164
  0
LWPOLYLINE
  5
70F
100
AcDbEntity
  8
RACCORDO
100
AcDbPolyline
 62
253
  6
CONTINUOUS
 90
13
 70
0
 10
86.0619014213
 20
23.8443375673
 10
86.0596758307
 20
23.8161297326
 10
86.0532264882
 20
23.7884027584
 10
86.0426633362
 20
23.761629308
 10
86.0281664453
 20
23.7362657898
 10
86.0099829448
 20
23.7127445772
 10
85.9884228098
 20
23.6914666374
 10
85.9638535772
 20
23.6727946968
 10
85.9366940799
 20
23.6570470569
 10
85.9074073074
 20
23.6444921687
 10
85.876492513
 20
23.6353440559
 10
85.8444767028
 20
23.629758667
 10
85.8119056521
 20
23.6278312164
  0
LWPOLYLINE
  5
710
100
AcDbEntity
  8
RACCORDO
100
AcDbPolyline
 62
7
  6
CONTINUOUS
 90
13
 70
0
 10
86.0677192511
 20
23.2669872981
 10
86.065759901
 20
23.2500124376
 10
86.0601554186
 20
23.232751575
 10
86.0508278116
 20
23.2156095158
 10
86.0377740872
 20
23.1991814406
 10
86.0210383857
 20
23.1837387744
 10
86.0006829077
 20
23.1692396567
 10
85.9768941176
 20
23.1561677462
 10
85.9499226112
 20
23.144975649
 10
85.9199903781
 20
23.1356232963
 10
85.8874714437
 20
23.1284216237
 10
85.8529307036
 20
23.1239714115
 10
85.8169962532
 20
23.1226497308
  0
LWPOLYLINE
  5
711
100
AcDbEntity
  8
RACCORDO
100
AcDbPolyline
 62
7
  6
CONTINUOUS
 90
6
 70
0
 10
59.8856955334
 20
-24.4415090796
 10
59.9165090796
 20
-24.4106955334
 10
59.9415040979
 20
-24.3749996731
 10
59.9599211599
 20
-24.3355060529
 10
59.9712006967
 20
-24.2934146147
 10
59.975
 20
-24.2500042308
  0
LWPOLYLINE
  5
712
100
AcDbEntity
  8
RACCORDO
100
AcDbPolyline
 62
7
  6
CONTINUOUS
 90
10
 70
0
 10
40.9062029127
 20
-24.4684319646
 10
40.9356400382
 20
-24.454128733
 10
40.9631342002
 20
-24.4359678862
 10
40.987999522
 20
-24.414350625
 10
41.0097595221
 20
-24.3897116866
 10
41.0280975824
 20
-24.3624329275
 10
41.04269614
 20
-24.3329896478
 10
41.0533046885
 20
-24.3018927884
 10
41.0597427507
 20
-24.2696792292
 10
41.0619014213
 20
-24.2369056521
  0
LWPOLYLINE
  5
713
100
AcDbEntity
  8
RACCORDO
100
AcDbPolyline
 62
7
  6
CONTINUOUS
 90
4
 70
0
 10
40.9105060529
 20
-24.4849211599
 10
40.9499996731
 20
-24.4665040979
 10
40.9856955334
 20
-24.4415090796
 10
41.0165090796
 20
-24.4106955334
  0
LWPOLYLINE
  5
714
100
AcDbEntity
  8
DRAFT
100
AcDbPolyline
 62
7
  6
CONTINUOUS
 90
19
 70
0
 10
93.825
 20
9.3283105332
 10
93.5534258728
 20
9.3165016788
 10
93.2837135268
 20
9.2811300552
 10
93.0179083635
 20
9.222413706
 10
92.7579614265
 20
9.1407223061
 10
92.5059347789
 20
9.036641189
 10
92.2639607009
 20
8.911029488
 10
92.0339975935
 20
8.7649376618
 10
91.817645063
 20
8.5994170602
 10
91.6163744718
 20
8.4155676112
 10
91.4316839386
 20
8.2146722746
 10
91.2650914019
 20
7.998288893
 10
91.1179395072
 20
7.7680928808
 10
90.9913913382
 20
7.5258501867
 10
90.8864238434
 20
7.273368483
 10
90.803862462
 20
7.0125373356
 10
90.7443752587
 20
6.7453302129
 10
90.7084598266
 20
6.4737924992
 10
90.6964312558
 20
6.2
  0
LWPOLYLINE
  5
715
100
AcDbEntity
  8
0
100
AcDbPolyline
 62
253
  6
CONTINUOUS
 90
5
 70
0
 10
48.3108127581
 20
7.4935404542
 10
48.5223751557
 20
7.4949183032
 10
48.7289531925
 20
7.4964569405
 10
48.9300041927
 20
7.498152324
 10
49.125
 20
7.5
  0
LINE
  5
716
100
AcDbEntity
  8
0
100
AcDbLine
 62
253
  6
CONTINUOUS
 10
47.8749695924
 20
7.4912811672
 11
48.3108127581
 21
7.4935404542
  0
LWPOLYLINE
  5
717
100
AcDbEntity
  8
0
100
AcDbPolyline
 62
253
  6
CONTINUOUS
 90
6
 70
0
 10
45.3750304076
 20
7.4912811672
 10
44.9391872419
 20
7.4935404542
 10
44.7276248443
 20
7.4949183032
 10
44.5210468075
 20
7.4964569405
 10
44.3199958073
 20
7.498152324
 10
44.125
 20
7.5
  0
LINE
  5
718
100
AcDbEntity
  8
RACCORDO
100
AcDbLine
 62
7
  6
CONTINUOUS
 10
59.9165090796
 20
24.4106955334
 11
59.8856955334
 21
24.4415090796
  0
LINE
  5
719
100
AcDbEntity
  8
CIRCUITO_LETTORE_SA
100
AcDbLine
 62
7
  6
CONTINUOUS
 10
99.0457727778
 20
-12.0707727778
 11
98.975
 21
-12.0
  0
LWPOLYLINE
  5
71A
100
AcDbEntity
  8
RACCORDO
100
AcDbPolyline
 62
7
  6
CONTINUOUS
 90
13
 70
0
 10
86.0677192511
 20
-23.2669872981
 10
86.065759901
 20
-23.2500124376
 10
86.0601554186
 20
-23.232751575
 10
86.0508278116
 20
-23.2156095158
 10
86.0377740872
 20
-23.1991814406
 10
86.0210383857
 20
-23.1837387744
 10
86.0006829077
 20
-23.1692396567
 10
85.9768941176
 20
-23.1561677462
 10
85.9499226112
 20
-23.144975649
 10
85.9199903781
 20
-23.1356232963
 10
85.8874714437
 20
-23.1284216237
 10
85.8529307036
 20
-23.1239714115
 10
85.8169962532
 20
-23.1226497308
  0
LWPOLYLINE
  5
71B
100
AcDbEntity
  8
RACCORDO
100
AcDbPolyline
 62
253
  6
CONTINUOUS
 90
13
 70
0
 10
83.6880985787
 20
23.8443375673
 10
83.6903241693
 20
23.8161297326
 10
83.6967735118
 20
23.7884027584
 10
83.7073366638
 20
23.761629308
 10
83.7218335547
 20
23.7362657898
 10
83.7400170552
 20
23.7127445772
 10
83.7615771902
 20
23.6914666374
 10
83.7861464228
 20
23.6727946968
 10
83.8133059201
 20
23.6570470569
 10
83.8425926926
 20
23.6444921687
 10
83.873507487
 20
23.6353440559
 10
83.9055232972
 20
23.629758667
 10
83.9380943479
 20
23.6278312164
  0
LINE
  5
71C
100
AcDbEntity
  8
RACCORDO
100
AcDbLine
 62
253
  6
CONTINUOUS
 10
85.8119056521
 20
23.6278312164
 11
85.8169962532
 21
23.1226497308
  0
LINE
  5
71D
100
AcDbEntity
  8
RACCORDO
100
AcDbLine
 62
253
  6
CONTINUOUS
 10
86.0619014213
 20
23.8443375673
 11
86.0677192511
 21
23.2669872981
  0
LINE
  5
71E
100
AcDbEntity
  8
RACCORDO
100
AcDbLine
 62
253
  6
CONTINUOUS
 10
86.0619014213
 20
24.2369056521
 11
86.0618971412
 21
24.2383600852
  0
LINE
  5
71F
100
AcDbEntity
  8
RACCORDO
100
AcDbLine
 62
253
  6
CONTINUOUS
 10
85.8119056521
 20
-23.6278312164
 11
85.8119056521
 21
-24.4869014213
  0
LINE
  5
720
100
AcDbEntity
  8
RACCORDO
100
AcDbLine
 62
253
  6
CONTINUOUS
 10
85.8119056521
 20
23.6278312164
 11
85.8119056521
 21
24.4869014213
  0
LINE
  5
721
100
AcDbEntity
  8
RACCORDO
100
AcDbLine
 62
253
  6
CONTINUOUS
 10
85.8177234819
 20
23.1226497308
 11
85.8177234819
 21
22.3213883311
  0
LINE
  5
722
100
AcDbEntity
  8
RACCORDO
100
AcDbLine
 62
253
  6
CONTINUOUS
 10
85.8177234819
 20
-22.3213883311
 11
85.8177234819
 21
-23.1226497308
  0
LINE
  5
723
100
AcDbEntity
  8
RACCORDO
100
AcDbLine
 62
7
  6
CONTINUOUS
 10
86.0619014213
 20
-24.2369056521
 11
86.0619014213
 21
-23.8443375673
  0
LINE
  5
724
100
AcDbEntity
  8
RACCORDO
100
AcDbLine
 62
7
  6
CONTINUOUS
 10
86.0619014213
 20
23.8443375673
 11
86.0619014213
 21
24.2369056521
  0
LINE
  5
725
100
AcDbEntity
  8
RACCORDO
100
AcDbLine
 62
7
  6
CONTINUOUS
 10
86.0677192511
 20
23.2669872981
 11
86.0677192511
 21
22.3344140523
  0
LINE
  5
726
100
AcDbEntity
  8
RACCORDO
100
AcDbLine
 62
7
  6
CONTINUOUS
 10
86.0677192511
 20
-22.3344140523
 11
86.0677192511
 21
-23.2669872981
  0
LINE
  5
727
100
AcDbEntity
  8
RACCORDO
100
AcDbLine
 62
7
  6
CONTINUOUS
 10
86.075
 20
-23.2669872981
 11
86.075
 21
-24.2500042308
  0
LINE
  5
728
100
AcDbEntity
  8
RACCORDO
100
AcDbLine
 62
7
  6
CONTINUOUS
 10
86.075
 20
23.2669872981
 11
86.075
 21
24.2500042308
  0
LINE
  5
729
100
AcDbEntity
  8
RACCORDO
100
AcDbLine
 62
253
  6
CONTINUOUS
 10
85.8169962532
 20
-23.1226497308
 11
85.8119056521
 21
-23.6278312164
  0
LINE
  5
72A
100
AcDbEntity
  8
RACCORDO
100
AcDbLine
 62
253
  6
CONTINUOUS
 10
86.0677192511
 20
-23.2669872981
 11
86.0619014213
 21
-23.8443375673
  0
LWPOLYLINE
  5
72B
100
AcDbEntity
  8
RACCORDO
100
AcDbPolyline
 62
253
  6
CONTINUOUS
 90
13
 70
0
 10
83.6880985787
 20
-23.8443375673
 10
83.6902805717
 20
-23.8164122522
 10
83.6966290205
 20
-23.7888676909
 10
83.7070760524
 20
-23.7621735851
 10
83.72149962
 20
-23.7367668404
 10
83.7396806148
 20
-23.7131246796
 10
83.7612677628
 20
-23.6917350818
 10
83.7858647266
 20
-23.6729824084
 10
83.8130698161
 20
-23.6571655895
 10
83.8424121692
 20
-23.6445573199
 10
83.8733866726
 20
-23.6353723694
 10
83.905463864
 20
-23.6297655866
 10
83.9380943479
 20
-23.6278312164
  0
LWPOLYLINE
  5
72C
100
AcDbEntity
  8
RACCORDO
100
AcDbPolyline
 62
7
  6
CONTINUOUS
 90
13
 70
0
 10
83.6822807489
 20
-23.2669872981
 10
83.6842467536
 20
-23.2492660013
 10
83.6898708792
 20
-23.2321167029
 10
83.699219186
 20
-23.215539403
 10
83.712276909
 20
-23.1992537336
 10
83.7289925799
 20
-23.1835400627
 10
83.7493173538
 20
-23.1692394937
 10
83.7730832601
 20
-23.1563414203
 10
83.8000243139
 20
-23.1448564488
 10
83.8298792537
 20
-23.1356575018
 10
83.8622533639
 20
-23.1290355536
 10
83.8965931211
 20
-23.1246996299
 10
83.9322765181
 20
-23.1226497308
  0
LWPOLYLINE
  5
72D
100
AcDbEntity
  8
RACCORDO
100
AcDbPolyline
 62
7
  6
CONTINUOUS
 90
5
 70
0
 10
59.8856955334
 20
24.4415090796
 10
59.8499996731
 20
24.4665040979
 10
59.8105060529
 20
24.4849211599
 10
59.7684146147
 20
24.4962006967
 10
59.7250042308
 20
24.5
  0
LWPOLYLINE
  5
72E
100
AcDbEntity
  8
RACCORDO
100
AcDbPolyline
 62
7
  6
CONTINUOUS
 90
13
 70
0
 10
83.6822807489
 20
23.2669872981
 10
83.684240099
 20
23.2500124376
 10
83.6898445814
 20
23.232751575
 10
83.6991721884
 20
23.2156095158
 10
83.7122259128
 20
23.1991814406
 10
83.7289616143
 20
23.1837387744
 10
83.7493170923
 20
23.1692396567
 10
83.7731058824
 20
23.1561677462
 10
83.8000773888
 20
23.144975649
 10
83.8300096219
 20
23.1356232963
 10
83.8625285563
 20
23.1284216237
 10
83.8970692964
 20
23.1239714115
 10
83.9330037468
 20
23.1226497308
  0
LWPOLYLINE
  5
72F
100
AcDbEntity
  8
RACCORDO
100
AcDbPolyline
 62
7
  6
CONTINUOUS
 90
3
 70
0
 10
86.075
 20
24.2500042308
 10
86.0712006967
 20
24.2934146147
 10
86.0599211599
 20
24.3355060529
  0
LWPOLYLINE
  5
730
100
AcDbEntity
  8
RACCORDO
100
AcDbPolyline
 62
7
  6
CONTINUOUS
 90
4
 70
0
 10
86.0618971412
 20
24.2383600852
 10
86.0597427507
 20
24.2696792292
 10
86.0533046885
 20
24.3018927884
 10
86.04269614
 20
24.3329896478
  0
LINE
  5
731
100
AcDbEntity
  8
RACCORDO
100
AcDbLine
 62
7
  6
CONTINUOUS
 10
89.9279258382
 20
23.7970741618
 11
89.9279258382
 21
22.3736436632
  0
LINE
  5
732
100
AcDbEntity
  8
RACCORDO
100
AcDbLine
 62
7
  6
CONTINUOUS
 10
89.9279258382
 20
-22.3736436632
 11
89.9279258382
 21
-23.7970741618
  0
LWPOLYLINE
  5
733
100
AcDbEntity
  8
RACCORDO
100
AcDbPolyline
 62
7
  6
CONTINUOUS
 90
10
 70
0
 10
104.9677192511
 20
22.3339351971
 10
104.9673631553
 20
22.3333200348
 10
104.9664347948
 20
22.3327253649
 10
104.9649361444
 20
22.3321511872
 10
104.9628703061
 20
22.3316044878
 10
104.9602419603
 20
22.3310782807
 10
104.9570577888
 20
22.3305516082
 10
104.9533256396
 20
22.3300174843
 10
104.9490540756
 20
22.329482895
 10
104.9442531143
 20
22.3289478403
  0
LWPOLYLINE
  5
734
100
AcDbEntity
  8
RACCORDO
100
AcDbPolyline
 62
7
  6
CONTINUOUS
 90
10
 70
0
 10
59.8079896478
 20
-24.46769614
 10
59.8374329275
 20
-24.4530975824
 10
59.8647116866
 20
-24.4347595221
 10
59.889350625
 20
-24.412999522
 10
59.9109678862
 20
-24.3881342002
 10
59.929128733
 20
-24.3606400382
 10
59.9434319646
 20
-24.3312029127
 10
59.9536916663
 20
-24.3004380701
 10
59.9598542089
 20
-24.2688252702
 10
59.9604512088
 20
-24.2637857299
  0
LWPOLYLINE
  5
735
100
AcDbEntity
  8
CURVE
100
AcDbPolyline
 62
252
  6
CONTINUOUS
 90
81
 70
0
 10
93.825
 20
12.2
 10
94.0620356752
 20
12.195389827
 10
94.2972454577
 20
12.1815729458
 10
94.5308029444
 20
12.158569813
 10
94.7628817322
 20
12.1264008852
 10
94.9936554181
 20
12.085086619
 10
95.2231818892
 20
12.0346623839
 10
95.4510561933
 20
11.9752232004
 10
95.6767576684
 20
11.9068790019
 10
95.8997656525
 20
11.8297397217
 10
96.1195594835
 20
11.7439152931
 10
96.335659542
 20
11.6495256838
 10
96.5477503794
 20
11.5467309984
 10
96.7555575892
 20
11.4357013758
 10
96.9588067653
 20
11.316606955
 10
97.1572235015
 20
11.1896178748
 10
97.3505301387
 20
11.0549143861
 10
97.5384360064
 20
10.9127171882
 10
97.7206471816
 20
10.7632570922
 10
97.8968697408
 20
10.6067649093
 10
98.0668097609
 20
10.4434714507
 10
98.2301842745
 20
10.2736159426
 10
98.3867541382
 20
10.0974712716
 10
98.5362911645
 20
9.9153187394
 10
98.6785671659
 20
9.7274396476
 10
98.813353955
 20
9.534115298
 10
98.9404325339
 20
9.3356337076
 10
99.0596206638
 20
9.1323097562
 10
99.1707452957
 20
8.9244650389
 10
99.2736333803
 20
8.7124211507
 10
99.3681118686
 20
8.4964996869
 10
99.4540189539
 20
8.2770268114
 10
99.5312377994
 20
8.0543469626
 10
99.5996628108
 20
7.8288091478
 10
99.6591883937
 20
7.6007623742
 10
99.7097089539
 20
7.3705556492
 10
99.751130572
 20
7.1385402844
 10
99.7834060288
 20
6.9050768095
 10
99.80649978
 20
6.6705280589
 10
99.8203762812
 20
6.4352568667
 10
99.8249999883
 20
6.1996260673
 10
99.8203472822
 20
5.9639983746
 10
99.8064422446
 20
5.7287360227
 10
99.7833208825
 20
5.4942011252
 10
99.7510192029
 20
5.260755796
 10
99.7095732127
 20
5.0287621487
 10
99.6590304965
 20
4.7985799948
 10
99.5994849494
 20
4.5705599357
 10
99.5310420439
 20
4.3450502709
 10
99.4538072525
 20
4.1223992995
 10
99.367886048
 20
3.9029553207
 10
99.2733950949
 20
3.687062119
 10
99.170495826
 20
3.4750454196
 10
99.0593608661
 20
3.2672264331
 10
98.9401628398
 20
3.0639263699
 10
98.8130743721
 20
2.8654664406
 10
98.6782772734
 20
2.672161242
 10
98.5359900981
 20
2.4842989164
 10
98.3864405859
 20
2.3021609922
 10
98.2298564769
 20
2.126028998
 10
98.0664655112
 20
1.9561844623
 10
97.8965065801
 20
1.7929005451
 10
97.7202631815
 20
1.6364169314
 10
97.5380299645
 20
1.4869649378
 10
97.3501015784
 20
1.3447758808
 10
97.1567726725
 20
1.2100810769
 10
96.9583342394
 20
1.0831016532
 10
96.755062646
 20
0.9640179787
 10
96.5472306025
 20
0.8530002334
 10
96.3351108191
 20
0.7502185968
 10
96.1189760062
 20
0.6558432487
 10
95.8991418082
 20
0.5700344791
 10
95.6760956066
 20
0.4929130193
 10
95.4503677171
 20
0.4245897105
 10
95.2224884553
 20
0.3651753943
 10
94.992988137
 20
0.3147809122
 10
94.7622792238
 20
0.2735012218
 10
94.5303027615
 20
0.2413677461
 10
94.2968819422
 20
0.2183960244
 10
94.0618399578
 20
0.204601596
 10
93.825
 20
0.2
  0
LWPOLYLINE
  5
736
100
AcDbEntity
  8
0
100
AcDbPolyline
 62
7
  6
CONTINUOUS
 90
58
 70
0
 10
93.825
 20
12.2
 10
94.156305285
 20
12.1908571968
 10
94.4848235727
 20
12.1637353021
 10
94.8105548631
 20
12.1186342447
 10
95.1345131117
 20
12.0552814403
 10
95.4556843629
 20
11.9739491899
 10
95.7710267508
 20
11.875454692
 10
96.0805212798
 20
11.7596607256
 10
96.3841869454
 20
11.6267039967
 10
96.679038868
 20
11.4778125714
 10
96.9647910988
 20
11.3129167639
 10
97.2417295867
 20
11.1320856021
 10
97.5077272984
 20
10.936755242
 10
97.7629427751
 20
10.7266200375
 10
98.0072174756
 20
10.5019849255
 10
98.2379487425
 20
10.2652020184
 10
98.454775937
 20
10.0164086185
 10
98.6580596979
 20
9.755466815
 10
98.8462792843
 20
9.4843160269
 10
99.0194998697
 20
9.2025474612
 10
99.1776562806
 20
8.9105694297
 10
99.3190322559
 20
8.6115471788
 10
99.4433158274
 20
8.3057898216
 10
99.5508189633
 20
7.992988033
 10
99.6407613073
 20
7.6753795854
 10
99.7130856023
 20
7.3525000998
 10
99.7678491053
 20
7.0248139258
 10
99.8044432316
 20
6.6959521146
 10
99.8226646021
 20
6.3663408245
 10
99.8227165958
 20
6.0355541282
 10
99.8046007646
 20
5.7059451127
 10
99.7681168458
 20
5.3770954483
 10
99.7134651021
 20
5.0494237971
 10
99.6412478745
 20
4.7265388612
 10
99.5514052133
 20
4.4088923662
 10
99.4439970681
 20
4.0960330289
 10
99.3198056291
 20
3.7902151286
 10
99.1785246356
 20
3.4911409922
 10
99.0204603484
 20
3.1991087055
 10
98.8473137393
 20
2.9172662322
 10
98.6591402697
 20
2.6460086304
 10
98.4558844783
 20
2.3849412119
 10
98.2390809535
 20
2.1360273398
 10
98.0083850993
 20
1.8991446998
 10
97.7641415116
 20
1.6744158727
 10
97.5089185663
 20
1.4641715586
 10
97.2428546296
 20
1.2687010391
 10
96.9658113353
 20
1.0877152045
 10
96.6799419606
 20
0.9226771559
 10
96.3849683117
 20
0.7736638951
 10
96.0811685825
 20
0.640598508
 10
95.771530631
 20
0.5247132086
 10
95.4560161867
 20
0.4261464644
 10
95.1346635202
 20
0.344759842
 10
94.8105753013
 20
0.2813701955
 10
94.4847857532
 20
0.2362498122
 10
94.1562606528
 20
0.2091264132
 10
93.825
 20
0.2
  0
LWPOLYLINE
  5
737
100
AcDbEntity
  8
RACCORDO
100
AcDbPolyline
 62
7
  6
CONTINUOUS
 90
10
 70
0
 10
102.6065680354
 20
-24.3312029127
 10
102.620871267
 20
-24.3606400382
 10
102.6390321138
 20
-24.3881342002
 10
102.660649375
 20
-24.412999522
 10
102.6852883134
 20
-24.4347595221
 10
102.7125670725
 20
-24.4530975824
 10
102.7420103522
 20
-24.46769614
 10
102.7731072116
 20
-24.4783046885
 10
102.8053207708
 20
-24.4847427507
 10
102.8380943479
 20
-24.4869014213
  0
LWPOLYLINE
  5
738
100
AcDbEntity
  8
RACCORDO
100
AcDbPolyline
 62
7
  6
CONTINUOUS
 90
4
 70
0
 10
102.5900788401
 20
-24.3355060529
 10
102.6084959021
 20
-24.3749996731
 10
102.6334909204
 20
-24.4106955334
 10
102.6643044666
 20
-24.4415090796
  0
LWPOLYLINE
  5
739
100
AcDbEntity
  8
DRAFT
100
AcDbPolyline
 62
7
  6
CONTINUOUS
 90
19
 70
0
 10
90.6964312558
 20
6.2
 10
90.7083131879
 20
5.9272969852
 10
90.7439199491
 20
5.6566675914
 10
90.8029803003
 20
5.3901718554
 10
90.8850468482
 20
5.129831058
 10
90.9894936162
 20
4.8776344706
 10
91.1155145882
 20
4.6355219355
 10
91.262128169
 20
4.4053576039
 10
91.4282261014
 20
4.1888626126
 10
91.6125868911
 20
3.9876341753
 10
91.8137295524
 20
3.8032833254
 10
92.0302037338
 20
3.6371341131
 10
92.2607181688
 20
3.4902582662
 10
92.504117933
 20
3.36362223
 10
92.7580947025
 20
3.2586467547
 10
93.0193883014
 20
3.1766085681
 10
93.2854647253
 20
3.1179797455
 10
93.5546885989
 20
3.082805315
 10
93.825
 20
3.0711060506
  0
LINE
  5
73A
100
AcDbEntity
  8
RACCORDO
100
AcDbLine
 62
253
  6
CONTINUOUS
 10
90.4279173766
 20
23.5953423515
 11
90.4279173766
 21
22.3475922207
  0
LINE
  5
73B
100
AcDbEntity
  8
RACCORDO
100
AcDbLine
 62
253
  6
CONTINUOUS
 10
90.4279173766
 20
-22.3475922207
 11
90.4279173766
 21
-23.5953423515
  0
LWPOLYLINE
  5
73C
100
AcDbEntity
  8
RACCORDO
100
AcDbPolyline
 62
7
  6
CONTINUOUS
 90
3
 70
0
 10
59.8105060529
 20
-24.4849211599
 10
59.8499996731
 20
-24.4665040979
 10
59.8856955334
 20
-24.4415090796
  0
LWPOLYLINE
  5
73D
100
AcDbEntity
  8
RACCORDO
100
AcDbPolyline
 62
7
  6
CONTINUOUS
 90
10
 70
0
 10
38.7057468857
 20
22.3289478403
 10
38.7009459244
 20
22.329482895
 10
38.6966743604
 20
22.3300174843
 10
38.6929422112
 20
22.3305516082
 10
38.6897580397
 20
22.3310782807
 10
38.6871296939
 20
22.3316044878
 10
38.6850638556
 20
22.3321511872
 10
38.6835652052
 20
22.3327253649
 10
38.6826368447
 20
22.3333200348
 10
38.6822807489
 20
22.3339351971
  0
LINE
  5
73E
100
AcDbEntity
  8
CIRCUITO_LETTORE_SA
100
AcDbLine
 62
7
  6
CONTINUOUS
 10
93.225
 20
-12.1
 11
93.225
 21
-12.0
  0
LINE
  5
73F
100
AcDbEntity
  8
DRAFT
100
AcDbLine
 62
253
  6
CONTINUOUS
 10
93.825
 20
3.0711060506
 11
93.825
 21
0.2
  0
LINE
  5
740
100
AcDbEntity
  8
DRAFT
100
AcDbLine
 62
253
  6
CONTINUOUS
 10
93.825
 20
9.3283105332
 11
93.825
 21
12.2
  0
LINE
  5
741
100
AcDbEntity
  8
CIRCUITO_LETTORE_SA
100
AcDbLine
 62
7
  6
CONTINUOUS
 10
94.225
 20
-12.1
 11
94.225
 21
-12.0
  0
LINE
  5
742
100
AcDbEntity
  8
CIRCUITO_LETTORE_SA
100
AcDbLine
 62
7
  6
CONTINUOUS
 10
94.225
 20
-11.553
 11
94.225
 21
-11.1
  0
LINE
  5
743
100
AcDbEntity
  8
CIRCUITO_LETTORE_SA
100
AcDbLine
 62
7
  6
CONTINUOUS
 10
95.075
 20
-12.2739171521
 11
95.075
 21
-11.2
  0
LWPOLYLINE
  5
744
100
AcDbEntity
  8
RACCORDO
100
AcDbPolyline
 62
7
  6
CONTINUOUS
 90
8
 70
0
 10
98.6212073137
 20
23.7953389668
 10
98.5830007754
 20
23.7905311208
 10
98.5429352825
 20
23.7777978386
 10
98.5010108349
 20
23.7589950003
 10
98.4567957097
 20
23.7362909328
 10
98.4107216299
 20
23.7111435919
 10
98.3640837644
 20
23.6837245062
 10
98.2699801227
 20
23.6247960508
  0
LINE
  5
745
100
AcDbEntity
  8
RACCORDO
100
AcDbLine
 62
253
  6
CONTINUOUS
 10
38.8324236882
 20
20.5624683248
 11
104.8175763118
 21
20.5624683248
  0
LWPOLYLINE
  5
746
100
AcDbEntity
  8
RACCORDO
100
AcDbPolyline
 62
7
  6
CONTINUOUS
 90
7
 70
0
 10
45.0287926863
 20
23.7953389668
 10
45.0669992246
 20
23.7905311208
 10
45.1070647175
 20
23.7777978386
 10
45.1489891651
 20
23.7589950003
 10
45.1932042903
 20
23.7362909328
 10
45.2392783701
 20
23.7111435919
 10
45.2859162356
 20
23.6837245062
  0
LWPOLYLINE
  5
747
100
AcDbEntity
  8
RACCORDO
100
AcDbPolyline
 62
7
  6
CONTINUOUS
 90
10
 70
0
 10
86.04269614
 20
24.3329896478
 10
86.0280975824
 20
24.3624329275
 10
86.0097595221
 20
24.3897116866
 10
85.987999522
 20
24.414350625
 10
85.9631342002
 20
24.4359678862
 10
85.9356400382
 20
24.454128733
 10
85.9062029127
 20
24.4684319646
 10
85.8754380701
 20
24.4786916663
 10
85.8438252702
 20
24.4848542089
 10
85.8387857299
 20
24.4854512088
  0
LWPOLYLINE
  5
748
100
AcDbEntity
  8
RACCORDO
100
AcDbPolyline
 62
7
  6
CONTINUOUS
 90
3
 70
0
 10
86.0599211599
 20
24.3355060529
 10
86.0415040979
 20
24.3749996731
 10
86.0165090796
 20
24.4106955334
  0
LWPOLYLINE
  5
749
100
AcDbEntity
  8
DRAFT
100
AcDbPolyline
 62
7
  6
CONTINUOUS
 90
19
 70
0
 10
96.9535687441
 20
6.2
 10
96.9416406955
 20
6.4726470354
 10
96.9059985517
 20
6.7432153644
 10
96.8469138214
 20
7.0096464498
 10
96.7648336418
 20
7.2699204293
 10
96.6603842603
 20
7.522049486
 10
96.5343724291
 20
7.764095548
 10
96.3877808437
 20
7.9941937948
 10
96.2217158312
 20
8.2106271033
 10
96.0373929005
 20
8.4118060609
 10
95.8362898707
 20
8.5961199326
 10
95.6198549514
 20
8.7622435154
 10
95.3893721846
 20
8.9091078229
 10
95.145990961
 20
9.035744992
 10
94.8920193775
 20
9.1407292673
 10
94.6307181305
 20
9.2227800886
 10
94.3646208436
 20
9.2814221378
 10
94.0953614971
 20
9.3166070624
 10
93.825
 20
9.3283105332
  0
LINE
  5
74A
100
AcDbEntity
  8
CIRCUITO_LETTORE_SA
100
AcDbLine
 62
7
  6
CONTINUOUS
 10
97.575
 20
-12.0
 11
97.575
 21
-11.200540038
  0
LINE
  5
74B
100
AcDbEntity
  8
RACCORDO
100
AcDbLine
 62
253
  6
CONTINUOUS
 10
98.2220826234
 20
-23.5953423515
 11
98.2220826234
 21
-22.3475922207
  0
LINE
  5
74C
100
AcDbEntity
  8
RACCORDO
100
AcDbLine
 62
253
  6
CONTINUOUS
 10
98.2220826234
 20
22.3475922207
 11
98.2220826234
 21
23.5953423515
  0
LINE
  5
74D
100
AcDbEntity
  8
CIRCUITO_LETTORE_SA
100
AcDbLine
 62
7
  6
CONTINUOUS
 10
98.225
 20
-12.0
 11
98.225
 21
-11.1
  0
LINE
  5
74E
100
AcDbEntity
  8
0
100
AcDbLine
 62
253
  6
CONTINUOUS
 10
98.525
 20
-12.2739171521
 11
98.525
 21
-12.75
  0
LINE
  5
74F
100
AcDbEntity
  8
RACCORDO
100
AcDbLine
 62
253
  6
CONTINUOUS
 10
98.5249999971
 20
-13.3279089435
 11
98.525
 21
-12.75
  0
LINE
  5
750
100
AcDbEntity
  8
0
100
AcDbLine
 62
253
  6
CONTINUOUS
 10
98.525
 20
-10.7260828479
 11
98.525
 21
-10.25
  0
LINE
  5
751
100
AcDbEntity
  8
RACCORDO
100
AcDbLine
 62
253
  6
CONTINUOUS
 10
98.525
 20
-10.25
 11
98.525
 21
-9.6803118653
  0
LINE
  5
752
100
AcDbEntity
  8
RACCORDO
100
AcDbLine
 62
7
  6
CONTINUOUS
 10
98.7220741618
 20
-23.7970741618
 11
98.7220741618
 21
-22.3736436632
  0
LINE
  5
753
100
AcDbEntity
  8
RACCORDO
100
AcDbLine
 62
7
  6
CONTINUOUS
 10
98.7220741618
 20
22.3736436632
 11
98.7220741618
 21
23.7970741618
  0
LINE
  5
754
100
AcDbEntity
  8
CIRCUITO_LETTORE_SA
100
AcDbLine
 62
7
  6
CONTINUOUS
 10
98.975
 20
-12.0
 11
98.975
 21
-11.1
  0
LINE
  5
755
100
AcDbEntity
  8
RACCORDO
100
AcDbLine
 62
253
  6
CONTINUOUS
 10
104.8342683502
 20
21.998725222
 11
104.9442531143
 21
22.3289478403
  0
LINE
  5
756
100
AcDbEntity
  8
RACCORDO
100
AcDbLine
 62
253
  6
CONTINUOUS
 10
105.4575823343
 20
21.909888014
 11
105.3241937208
 21
21.5093967499
  0
LWPOLYLINE
  5
757
100
AcDbEntity
  8
RACCORDO
100
AcDbPolyline
 62
7
  6
CONTINUOUS
 90
5
 70
0
 10
86.0165090796
 20
-24.4106955334
 10
86.0415040979
 20
-24.3749996731
 10
86.0599211599
 20
-24.3355060529
 10
86.0712006967
 20
-24.2934146147
 10
86.075
 20
-24.2500042308
  0
LWPOLYLINE
  5
758
100
AcDbEntity
  8
RACCORDO
100
AcDbPolyline
 62
7
  6
CONTINUOUS
 90
3
 70
0
 10
102.8249957692
 20
24.5
 10
102.7815853853
 20
24.4962006967
 10
102.7394939471
 20
24.4849211599
  0
LWPOLYLINE
  5
759
100
AcDbEntity
  8
RACCORDO
100
AcDbPolyline
 62
7
  6
CONTINUOUS
 90
3
 70
0
 10
83.9249957692
 20
24.5
 10
83.8815853853
 20
24.4962006967
 10
83.8394939471
 20
24.4849211599
  0
LWPOLYLINE
  5
75A
100
AcDbEntity
  8
RACCORDO
100
AcDbPolyline
 62
7
  6
CONTINUOUS
 90
4
 70
0
 10
102.8366399148
 20
24.4868971412
 10
102.8053207708
 20
24.4847427507
 10
102.7731072116
 20
24.4783046885
 10
102.7420103522
 20
24.46769614
  0
LWPOLYLINE
  5
75B
100
AcDbEntity
  8
RACCORDO
100
AcDbPolyline
 62
7
  6
CONTINUOUS
 90
13
 70
0
 10
83.9380943479
 20
24.4869014213
 10
83.9054640512
 20
24.4847616605
 10
83.8733920438
 20
24.4783811971
 10
83.8424270632
 20
24.467869198
 10
83.8130989058
 20
24.4534055187
 10
83.7859093632
 20
24.435237626
 10
83.7613236357
 20
24.4136763643
 10
83.739762374
 20
24.3890906368
 10
83.7215944813
 20
24.3619010942
 10
83.707130802
 20
24.3325729368
 10
83.6966188029
 20
24.3016079562
 10
83.6902383395
 20
24.2695359488
 10
83.6880985787
 20
24.2369056521
  0
LINE
  5
75C
100
AcDbEntity
  8
RACCORDO
100
AcDbLine
 62
253
  6
CONTINUOUS
 10
38.8157316498
 20
21.998725222
 11
104.8342683502
 21
21.998725222
  0
LINE
  5
75D
100
AcDbEntity
  8
RACCORDO
100
AcDbLine
 62
7
  6
CONTINUOUS
 10
38.9322765181
 20
22.3213883311
 11
40.8177234819
 21
22.3213883311
  0
LINE
  5
75E
100
AcDbEntity
  8
RACCORDO
100
AcDbLine
 62
7
  6
CONTINUOUS
 10
57.8322765181
 20
22.3213883311
 11
59.7177234819
 21
22.3213883311
  0
LINE
  5
75F
100
AcDbEntity
  8
RACCORDO
100
AcDbLine
 62
7
  6
CONTINUOUS
 10
83.9322765181
 20
22.3213883311
 11
85.8177234819
 21
22.3213883311
  0
LINE
  5
760
100
AcDbEntity
  8
RACCORDO
100
AcDbLine
 62
7
  6
CONTINUOUS
 10
102.8322765181
 20
22.3213883311
 11
104.7177234819
 21
22.3213883311
  0
LINE
  5
761
100
AcDbEntity
  8
RACCORDO
100
AcDbLine
 62
7
  6
CONTINUOUS
 10
98.2220826234
 20
22.3475922207
 11
90.4279173766
 21
22.3475922207
  0
LINE
  5
762
100
AcDbEntity
  8
RACCORDO
100
AcDbLine
 62
7
  6
CONTINUOUS
 10
53.2220826234
 20
22.3475922207
 11
45.4279173766
 21
22.3475922207
  0
LINE
  5
763
100
AcDbEntity
  8
DRAFT
100
AcDbLine
 62
7
  6
CONTINUOUS
 10
102.575
 20
22.4
 11
98.725
 21
22.4
  0
LINE
  5
764
100
AcDbEntity
  8
DRAFT
100
AcDbLine
 62
7
  6
CONTINUOUS
 10
89.925
 20
22.4
 11
86.075
 21
22.4
  0
LINE
  5
765
100
AcDbEntity
  8
DRAFT
100
AcDbLine
 62
7
  6
CONTINUOUS
 10
83.675
 20
22.4
 11
59.975
 21
22.4
  0
LINE
  5
766
100
AcDbEntity
  8
DRAFT
100
AcDbLine
 62
7
  6
CONTINUOUS
 10
57.575
 20
22.4
 11
53.725
 21
22.4
  0
LINE
  5
767
100
AcDbEntity
  8
DRAFT
100
AcDbLine
 62
7
  6
CONTINUOUS
 10
44.925
 20
22.4
 11
41.075
 21
22.4
  0
LINE
  5
768
100
AcDbEntity
  8
RACCORDO
100
AcDbLine
 62
7
  6
CONTINUOUS
 10
38.9322765181
 20
23.1226497308
 11
40.8177234819
 21
23.1226497308
  0
LINE
  5
769
100
AcDbEntity
  8
RACCORDO
100
AcDbLine
 62
7
  6
CONTINUOUS
 10
57.8322765181
 20
23.1226497308
 11
59.7177234819
 21
23.1226497308
  0
LINE
  5
76A
100
AcDbEntity
  8
RACCORDO
100
AcDbLine
 62
7
  6
CONTINUOUS
 10
83.9322765181
 20
23.1226497308
 11
85.8177234819
 21
23.1226497308
  0
LINE
  5
76B
100
AcDbEntity
  8
RACCORDO
100
AcDbLine
 62
7
  6
CONTINUOUS
 10
102.8322765181
 20
23.1226497308
 11
104.7177234819
 21
23.1226497308
  0
LINE
  5
76C
100
AcDbEntity
  8
RACCORDO
100
AcDbLine
 62
253
  6
CONTINUOUS
 10
98.2220826234
 20
23.5953423515
 11
90.4279173766
 21
23.5953423515
  0
LINE
  5
76D
100
AcDbEntity
  8
RACCORDO
100
AcDbLine
 62
253
  6
CONTINUOUS
 10
53.2220826234
 20
23.5953423515
 11
45.4279173766
 21
23.5953423515
  0
LINE
  5
76E
100
AcDbEntity
  8
RACCORDO
100
AcDbLine
 62
253
  6
CONTINUOUS
 10
38.9380943479
 20
23.6278312164
 11
40.8119056521
 21
23.6278312164
  0
LINE
  5
76F
100
AcDbEntity
  8
RACCORDO
100
AcDbLine
 62
253
  6
CONTINUOUS
 10
57.8380943479
 20
23.6278312164
 11
59.7119056521
 21
23.6278312164
  0
LINE
  5
770
100
AcDbEntity
  8
RACCORDO
100
AcDbLine
 62
253
  6
CONTINUOUS
 10
83.9380943479
 20
23.6278312164
 11
85.8119056521
 21
23.6278312164
  0
LINE
  5
771
100
AcDbEntity
  8
RACCORDO
100
AcDbLine
 62
253
  6
CONTINUOUS
 10
102.8380943479
 20
23.6278312164
 11
104.7119056521
 21
23.6278312164
  0
LINE
  5
772
100
AcDbEntity
  8
RACCORDO
100
AcDbLine
 62
7
  6
CONTINUOUS
 10
98.6212073137
 20
23.7953389668
 11
90.0287926863
 21
23.7953389668
  0
LINE
  5
773
100
AcDbEntity
  8
RACCORDO
100
AcDbLine
 62
7
  6
CONTINUOUS
 10
53.6212073137
 20
23.7953389668
 11
45.0287926863
 21
23.7953389668
  0
LINE
  5
774
100
AcDbEntity
  8
RACCORDO
100
AcDbLine
 62
253
  6
CONTINUOUS
 10
38.6880985787
 20
23.8443375673
 11
41.0619014213
 21
23.8443375673
  0
LINE
  5
775
100
AcDbEntity
  8
RACCORDO
100
AcDbLine
 62
253
  6
CONTINUOUS
 10
57.5880985787
 20
23.8443375673
 11
59.9619014213
 21
23.8443375673
  0
LINE
  5
776
100
AcDbEntity
  8
RACCORDO
100
AcDbLine
 62
253
  6
CONTINUOUS
 10
83.6880985787
 20
23.8443375673
 11
86.0619014213
 21
23.8443375673
  0
LINE
  5
777
100
AcDbEntity
  8
RACCORDO
100
AcDbLine
 62
253
  6
CONTINUOUS
 10
102.5880985787
 20
23.8443375673
 11
104.9619014213
 21
23.8443375673
  0
LINE
  5
778
100
AcDbEntity
  8
RACCORDO
100
AcDbLine
 62
253
  6
CONTINUOUS
 10
40.8387857299
 20
24.4854512088
 11
40.8119056521
 21
24.4869014213
  0
LINE
  5
779
100
AcDbEntity
  8
RACCORDO
100
AcDbLine
 62
7
  6
CONTINUOUS
 10
104.967395736
 20
22.3999999602
 11
105.0227779875
 21
22.3968669155
  0
LINE
  5
77A
100
AcDbEntity
  8
RACCORDO
100
AcDbLine
 62
253
  6
CONTINUOUS
 10
104.9442531143
 20
-22.3289478403
 11
104.8342683502
 21
-21.998725222
  0
LINE
  5
77B
100
AcDbEntity
  8
RACCORDO
100
AcDbLine
 62
253
  6
CONTINUOUS
 10
105.3241937208
 20
-21.5093967499
 11
105.4575823343
 21
-21.909888014
  0
LWPOLYLINE
  5
77C
100
AcDbEntity
  8
RACCORDO
100
AcDbPolyline
 62
7
  6
CONTINUOUS
 90
3
 70
0
 10
102.575
 20
-24.2500042308
 10
102.5787993033
 20
-24.2934146147
 10
102.5900788401
 20
-24.3355060529
  0
LINE
  5
77D
100
AcDbEntity
  8
RACCORDO
100
AcDbLine
 62
253
  6
CONTINUOUS
 10
102.5880985787
 20
-24.2369056521
 11
102.5895487912
 21
-24.2637857299
  0
LINE
  5
77E
100
AcDbEntity
  8
RACCORDO
100
AcDbLine
 62
253
  6
CONTINUOUS
 10
102.5895487912
 20
24.2637857299
 11
102.5880985787
 21
24.2369056521
  0
LWPOLYLINE
  5
77F
100
AcDbEntity
  8
RACCORDO
100
AcDbPolyline
 62
7
  6
CONTINUOUS
 90
13
 70
0
 10
104.9677192511
 20
23.2669872981
 10
104.965759901
 20
23.2500124376
 10
104.9601554186
 20
23.232751575
 10
104.9508278116
 20
23.2156095158
 10
104.9377740872
 20
23.1991814406
 10
104.9210383857
 20
23.1837387744
 10
104.9006829077
 20
23.1692396567
 10
104.8768941176
 20
23.1561677462
 10
104.8499226112
 20
23.144975649
 10
104.8199903781
 20
23.1356232963
 10
104.7874714437
 20
23.1284216237
 10
104.7529307036
 20
23.1239714115
 10
104.7169962532
 20
23.1226497308
  0
LWPOLYLINE
  5
780
100
AcDbEntity
  8
RACCORDO
100
AcDbPolyline
 62
253
  6
CONTINUOUS
 90
8
 70
0
 10
104.8342683502
 20
21.998725222
 10
104.8328166729
 20
21.9872936772
 10
104.8313992804
 20
21.9659060893
 10
104.8300161728
 20
21.934700178
 10
104.8286592365
 20
21.8939084562
 10
104.8273365849
 20
21.8437819841
 10
104.8260725592
 20
21.7845304738
 10
104.8237192012
 20
21.6398815811
  0
LWPOLYLINE
  5
781
100
AcDbEntity
  8
RACCORDO
100
AcDbPolyline
 62
253
  6
CONTINUOUS
 90
10
 70
0
 10
105.3241937208
 20
21.5093967499
 10
105.322753426
 20
21.5016541022
 10
105.3213435392
 20
21.4874178774
 10
105.3199640603
 20
21.4666880755
 10
105.3186056006
 20
21.4392826589
 10
105.3172775488
 20
21.4053836652
 10
105.3160080714
 20
21.3655372072
 10
105.3147975418
 20
21.3195471111
 10
105.3136455864
 20
21.2676095507
 10
105.3116013787
 20
21.1491702798
  0
LINE
  5
782
100
AcDbEntity
  8
CIRCUITO_LETTORE_SA
100
AcDbLine
 62
7
  6
CONTINUOUS
 10
99.0960497423
 20
-10.9789502577
 11
98.975
 21
-11.1
  0
LWPOLYLINE
  5
783
100
AcDbEntity
  8
RACCORDO
100
AcDbPolyline
 62
7
  6
CONTINUOUS
 90
10
 70
0
 10
85.9062029127
 20
-24.4684319646
 10
85.9356400382
 20
-24.454128733
 10
85.9631342002
 20
-24.4359678862
 10
85.987999522
 20
-24.414350625
 10
86.0097595221
 20
-24.3897116866
 10
86.0280975824
 20
-24.3624329275
 10
86.04269614
 20
-24.3329896478
 10
86.0533046885
 20
-24.3018927884
 10
86.0597427507
 20
-24.2696792292
 10
86.0619014213
 20
-24.2369056521
  0
LWPOLYLINE
  5
784
100
AcDbEntity
  8
RACCORDO
100
AcDbPolyline
 62
7
  6
CONTINUOUS
 90
4
 70
0
 10
85.9105060529
 20
-24.4849211599
 10
85.9499996731
 20
-24.4665040979
 10
85.9856955334
 20
-24.4415090796
 10
86.0165090796
 20
-24.4106955334
  0
LWPOLYLINE
  5
785
100
AcDbEntity
  8
RACCORDO
100
AcDbPolyline
 62
7
  6
CONTINUOUS
 90
8
 70
0
 10
53.6212073137
 20
23.7953389668
 10
53.5830007754
 20
23.7905311208
 10
53.5429352825
 20
23.7777978386
 10
53.5010108349
 20
23.7589950003
 10
53.4567957097
 20
23.7362909328
 10
53.4107216299
 20
23.7111435919
 10
53.3640837644
 20
23.6837245062
 10
53.2699801227
 20
23.6247960508
  0
LWPOLYLINE
  5
786
100
AcDbEntity
  8
RACCORDO
100
AcDbPolyline
 62
7
  6
CONTINUOUS
 90
3
 70
0
 10
57.8249957692
 20
24.5
 10
57.7815853853
 20
24.4962006967
 10
57.7394939471
 20
24.4849211599
  0
LWPOLYLINE
  5
787
100
AcDbEntity
  8
RACCORDO
100
AcDbPolyline
 62
7
  6
CONTINUOUS
 90
4
 70
0
 10
57.8366399148
 20
24.4868971412
 10
57.8053207708
 20
24.4847427507
 10
57.7731072116
 20
24.4783046885
 10
57.7420103522
 20
24.46769614
  0
LWPOLYLINE
  5
788
100
AcDbEntity
  8
RACCORDO
100
AcDbPolyline
 62
7
  6
CONTINUOUS
 90
13
 70
0
 10
38.9380943479
 20
24.4869014213
 10
38.9054640512
 20
24.4847616605
 10
38.8733920438
 20
24.4783811971
 10
38.8424270632
 20
24.467869198
 10
38.8130989058
 20
24.4534055187
 10
38.7859093632
 20
24.435237626
 10
38.7613236357
 20
24.4136763643
 10
38.739762374
 20
24.3890906368
 10
38.7215944813
 20
24.3619010942
 10
38.707130802
 20
24.3325729368
 10
38.6966188029
 20
24.3016079562
 10
38.6902383395
 20
24.2695359488
 10
38.6880985787
 20
24.2369056521
  0
LINE
  5
789
100
AcDbEntity
  8
RACCORDO
100
AcDbLine
 62
253
  6
CONTINUOUS
 10
102.8380943479
 20
24.4869014213
 11
102.8366399148
 21
24.4868971412
  0
LINE
  5
78A
100
AcDbEntity
  8
RACCORDO
100
AcDbLine
 62
253
  6
CONTINUOUS
 10
57.8380943479
 20
24.4869014213
 11
57.8366399148
 21
24.4868971412
  0
LINE
  5
78B
100
AcDbEntity
  8
RACCORDO
100
AcDbLine
 62
253
  6
CONTINUOUS
 10
38.6880985787
 20
24.2369056521
 11
41.0619014213
 21
24.2369056521
  0
LINE
  5
78C
100
AcDbEntity
  8
RACCORDO
100
AcDbLine
 62
253
  6
CONTINUOUS
 10
57.5880985787
 20
24.2369056521
 11
59.9619014213
 21
24.2369056521
  0
LINE
  5
78D
100
AcDbEntity
  8
RACCORDO
100
AcDbLine
 62
253
  6
CONTINUOUS
 10
83.6880985787
 20
24.2369056521
 11
86.0619014213
 21
24.2369056521
  0
LINE
  5
78E
100
AcDbEntity
  8
RACCORDO
100
AcDbLine
 62
253
  6
CONTINUOUS
 10
102.5880985787
 20
24.2369056521
 11
104.9619014213
 21
24.2369056521
  0
LINE
  5
78F
100
AcDbEntity
  8
RACCORDO
100
AcDbLine
 62
7
  6
CONTINUOUS
 10
104.7119056521
 20
24.4869014213
 11
102.8380943479
 21
24.4869014213
  0
LINE
  5
790
100
AcDbEntity
  8
RACCORDO
100
AcDbLine
 62
7
  6
CONTINUOUS
 10
85.8119056521
 20
24.4869014213
 11
83.9380943479
 21
24.4869014213
  0
LINE
  5
791
100
AcDbEntity
  8
RACCORDO
100
AcDbLine
 62
7
  6
CONTINUOUS
 10
59.7119056521
 20
24.4869014213
 11
57.8380943479
 21
24.4869014213
  0
LINE
  5
792
100
AcDbEntity
  8
RACCORDO
100
AcDbLine
 62
7
  6
CONTINUOUS
 10
40.8119056521
 20
24.4869014213
 11
38.9380943479
 21
24.4869014213
  0
LINE
  5
793
100
AcDbEntity
  8
RACCORDO
100
AcDbLine
 62
7
  6
CONTINUOUS
 10
38.9249957692
 20
24.5
 11
40.8250042308
 21
24.5
  0
LINE
  5
794
100
AcDbEntity
  8
RACCORDO
100
AcDbLine
 62
7
  6
CONTINUOUS
 10
57.8249957692
 20
24.5
 11
59.7250042308
 21
24.5
  0
LINE
  5
795
100
AcDbEntity
  8
RACCORDO
100
AcDbLine
 62
7
  6
CONTINUOUS
 10
83.9249957692
 20
24.5
 11
85.8250042308
 21
24.5
  0
LINE
  5
796
100
AcDbEntity
  8
RACCORDO
100
AcDbLine
 62
7
  6
CONTINUOUS
 10
102.8249957692
 20
24.5
 11
104.7250042308
 21
24.5
  0
LINE
  5
797
100
AcDbEntity
  8
RACCORDO
100
AcDbLine
 62
253
  6
CONTINUOUS
 10
85.8387857299
 20
24.4854512088
 11
85.8119056521
 21
24.4869014213
  0
LWPOLYLINE
  5
798
100
AcDbEntity
  8
RACCORDO
100
AcDbPolyline
 62
7
  6
CONTINUOUS
 90
7
 70
0
 10
90.0287926863
 20
23.7953389668
 10
90.0669992246
 20
23.7905311208
 10
90.1070647175
 20
23.7777978386
 10
90.1489891651
 20
23.7589950003
 10
90.1932042903
 20
23.7362909328
 10
90.2392783701
 20
23.7111435919
 10
90.2859162356
 20
23.6837245062
  0
LWPOLYLINE
  5
799
100
AcDbEntity
  8
RACCORDO
100
AcDbPolyline
 62
7
  6
CONTINUOUS
 90
6
 70
0
 10
86.0165090796
 20
24.4106955334
 10
85.9856955334
 20
24.4415090796
 10
85.9499996731
 20
24.4665040979
 10
85.9105060529
 20
24.4849211599
 10
85.8684146147
 20
24.4962006967
 10
85.8250042308
 20
24.5
  0
LWPOLYLINE
  5
79A
100
AcDbEntity
  8
RACCORDO
100
AcDbPolyline
 62
7
  6
CONTINUOUS
 90
4
 70
0
 10
102.5895487912
 20
-24.2637857299
 10
102.5901457911
 20
-24.2688252702
 10
102.5963083337
 20
-24.3004380701
 10
102.6065680354
 20
-24.3312029127
  0
LWPOLYLINE
  5
79B
100
AcDbEntity
  8
RACCORDO
100
AcDbPolyline
 62
253
  6
CONTINUOUS
 90
13
 70
0
 10
102.5880985787
 20
23.8443375673
 10
102.5903241693
 20
23.8161297326
 10
102.5967735118
 20
23.7884027584
 10
102.6073366638
 20
23.761629308
 10
102.6218335547
 20
23.7362657898
 10
102.6400170552
 20
23.7127445772
 10
102.6615771902
 20
23.6914666374
 10
102.6861464228
 20
23.6727946968
 10
102.7133059201
 20
23.6570470569
 10
102.7425926926
 20
23.6444921687
 10
102.773507487
 20
23.6353440559
 10
102.8055232972
 20
23.629758667
 10
102.8380943479
 20
23.6278312164
  0
LWPOLYLINE
  5
79C
100
AcDbEntity
  8
RACCORDO
100
AcDbPolyline
 62
253
  6
CONTINUOUS
 90
13
 70
0
 10
104.9619014213
 20
-23.8443375673
 10
104.9597194283
 20
-23.8164122522
 10
104.9533709795
 20
-23.7888676909
 10
104.9429239476
 20
-23.7621735851
 10
104.92850038
 20
-23.7367668404
 10
104.9103193852
 20
-23.7131246796
 10
104.8887322372
 20
-23.6917350818
 10
104.8641352734
 20
-23.6729824084
 10
104.8369301839
 20
-23.6571655895
 10
104.8075878308
 20
-23.6445573199
 10
104.7766133274
 20
-23.6353723694
 10
104.744536136
 20
-23.6297655866
 10
104.7119056521
 20
-23.6278312164
  0
LWPOLYLINE
  5
79D
100
AcDbEntity
  8
RACCORDO
100
AcDbPolyline
 62
253
  6
CONTINUOUS
 90
8
 70
0
 10
105.3147979609
 20
-21.3195696884
 10
105.3160074678
 20
-21.3655048695
 10
105.3172764461
 20
-21.405339173
 10
105.3186042336
 20
-21.4392448107
 10
105.3199626707
 20
-21.466659605
 10
105.321342371
 20
-21.4873961634
 10
105.3227527211
 20
-21.5016418784
 10
105.3241937208
 20
-21.5093967499
  0
LWPOLYLINE
  5
79E
100
AcDbEntity
  8
RACCORDO
100
AcDbPolyline
 62
253
  6
CONTINUOUS
 90
7
 70
0
 10
104.826069637
 20
-21.7843663419
 10
104.8273348165
 20
-21.8436964823
 10
104.8286590242
 20
-21.8938947624
 10
104.8300170067
 20
-21.9347200661
 10
104.8314003464
 20
-21.9659265554
 10
104.8328174608
 20
-21.9873034285
 10
104.8342683502
 20
-21.998725222
  0
LINE
  5
79F
100
AcDbEntity
  8
RACCORDO
100
AcDbLine
 62
253
  6
CONTINUOUS
 10
105.3125815467
 20
-21.2109921413
 11
105.3147979609
 21
-21.3195696884
  0
LINE
  5
7A0
100
AcDbEntity
  8
RACCORDO
100
AcDbLine
 62
253
  6
CONTINUOUS
 10
104.8237159765
 20
-21.6396062036
 11
104.826069637
 21
-21.7843663419
  0
LWPOLYLINE
  5
7A1
100
AcDbEntity
  8
RACCORDO
100
AcDbPolyline
 62
253
  6
CONTINUOUS
 90
3
 70
0
 10
105.3099204571
 20
-21.0128307347
 10
105.3107095159
 20
-21.0826928551
 10
105.3125815467
 20
-21.2109921413
  0
LINE
  5
7A2
100
AcDbEntity
  8
RACCORDO
100
AcDbLine
 62
253
  6
CONTINUOUS
 10
104.8216783057
 20
-21.4638296838
 11
104.8237159765
 21
-21.6396062036
  0
LINE
  5
7A3
100
AcDbEntity
  8
RACCORDO
100
AcDbLine
 62
253
  6
CONTINUOUS
 10
102.5880985787
 20
-23.8443375673
 11
102.5822807489
 21
-23.2669872981
  0
LINE
  5
7A4
100
AcDbEntity
  8
RACCORDO
100
AcDbLine
 62
253
  6
CONTINUOUS
 10
102.8380943479
 20
-23.6278312164
 11
102.8330037468
 21
-23.1226497308
  0
LINE
  5
7A5
100
AcDbEntity
  8
RACCORDO
100
AcDbLine
 62
253
  6
CONTINUOUS
 10
104.7119056521
 20
23.6278312164
 11
104.7169962532
 21
23.1226497308
  0
LINE
  5
7A6
100
AcDbEntity
  8
RACCORDO
100
AcDbLine
 62
253
  6
CONTINUOUS
 10
104.820001156
 20
-21.2621628114
 11
104.8216783057
 21
-21.4638296838
  0
LINE
  5
7A7
100
AcDbEntity
  8
RACCORDO
100
AcDbLine
 62
253
  6
CONTINUOUS
 10
104.8187445041
 20
-21.0411327903
 11
104.820001156
 21
-21.2621628114
  0
LINE
  5
7A8
100
AcDbEntity
  8
RACCORDO
100
AcDbLine
 62
253
  6
CONTINUOUS
 10
104.8179331198
 20
-20.8058711188
 11
104.8187445041
 21
-21.0411327903
  0
LINE
  5
7A9
100
AcDbEntity
  8
RACCORDO
100
AcDbLine
 62
253
  6
CONTINUOUS
 10
104.8175763118
 20
-20.5624683248
 11
104.8179331198
 21
-20.8058711188
  0
LINE
  5
7AA
100
AcDbEntity
  8
RACCORDO
100
AcDbLine
 62
7
  6
CONTINUOUS
 10
102.575
 20
-23.2669872981
 11
102.575
 21
-24.2500042308
  0
LINE
  5
7AB
100
AcDbEntity
  8
RACCORDO
100
AcDbLine
 62
7
  6
CONTINUOUS
 10
102.575
 20
23.2669872981
 11
102.575
 21
24.2500042308
  0
LINE
  5
7AC
100
AcDbEntity
  8
RACCORDO
100
AcDbLine
 62
7
  6
CONTINUOUS
 10
102.5822807489
 20
-23.2669872981
 11
102.5822807489
 21
-22.3344140523
  0
LINE
  5
7AD
100
AcDbEntity
  8
RACCORDO
100
AcDbLine
 62
7
  6
CONTINUOUS
 10
102.5822807489
 20
22.3344140523
 11
102.5822807489
 21
23.2669872981
  0
LINE
  5
7AE
100
AcDbEntity
  8
RACCORDO
100
AcDbLine
 62
7
  6
CONTINUOUS
 10
102.5880985787
 20
24.2369056521
 11
102.5880985787
 21
23.8443375673
  0
LINE
  5
7AF
100
AcDbEntity
  8
RACCORDO
100
AcDbLine
 62
7
  6
CONTINUOUS
 10
102.5880985787
 20
-23.8443375673
 11
102.5880985787
 21
-24.2369056521
  0
LINE
  5
7B0
100
AcDbEntity
  8
RACCORDO
100
AcDbLine
 62
253
  6
CONTINUOUS
 10
102.8322765181
 20
-23.1226497308
 11
102.8322765181
 21
-22.3213883311
  0
LINE
  5
7B1
100
AcDbEntity
  8
RACCORDO
100
AcDbLine
 62
253
  6
CONTINUOUS
 10
102.8322765181
 20
22.3213883311
 11
102.8322765181
 21
23.1226497308
  0
LINE
  5
7B2
100
AcDbEntity
  8
RACCORDO
100
AcDbLine
 62
253
  6
CONTINUOUS
 10
102.8380943479
 20
-23.6278312164
 11
102.8380943479
 21
-24.4869014213
  0
LINE
  5
7B3
100
AcDbEntity
  8
RACCORDO
100
AcDbLine
 62
253
  6
CONTINUOUS
 10
102.8380943479
 20
23.6278312164
 11
102.8380943479
 21
24.4869014213
  0
LINE
  5
7B4
100
AcDbEntity
  8
RACCORDO
100
AcDbLine
 62
253
  6
CONTINUOUS
 10
104.7119056521
 20
-23.6278312164
 11
104.7119056521
 21
-24.4869014213
  0
LINE
  5
7B5
100
AcDbEntity
  8
RACCORDO
100
AcDbLine
 62
253
  6
CONTINUOUS
 10
104.7119056521
 20
23.6278312164
 11
104.7119056521
 21
24.4869014213
  0
LINE
  5
7B6
100
AcDbEntity
  8
RACCORDO
100
AcDbLine
 62
253
  6
CONTINUOUS
 10
104.7177234819
 20
23.1226497308
 11
104.7177234819
 21
22.3213883311
  0
LINE
  5
7B7
100
AcDbEntity
  8
RACCORDO
100
AcDbLine
 62
253
  6
CONTINUOUS
 10
104.7177234819
 20
-22.3213883311
 11
104.7177234819
 21
-23.1226497308
  0
LINE
  5
7B8
100
AcDbEntity
  8
RACCORDO
100
AcDbLine
 62
7
  6
CONTINUOUS
 10
104.9619014213
 20
-24.2369056521
 11
104.9619014213
 21
-23.8443375673
  0
LINE
  5
7B9
100
AcDbEntity
  8
RACCORDO
100
AcDbLine
 62
7
  6
CONTINUOUS
 10
104.9619014213
 20
23.8443375673
 11
104.9619014213
 21
24.2369056521
  0
LINE
  5
7BA
100
AcDbEntity
  8
RACCORDO
100
AcDbLine
 62
7
  6
CONTINUOUS
 10
104.9677192511
 20
23.2669872981
 11
104.9677192511
 21
22.3339351971
  0
LINE
  5
7BB
100
AcDbEntity
  8
RACCORDO
100
AcDbLine
 62
7
  6
CONTINUOUS
 10
104.9677192511
 20
-22.3339351971
 11
104.9677192511
 21
-23.2669872981
  0
LINE
  5
7BC
100
AcDbEntity
  8
RACCORDO
100
AcDbLine
 62
7
  6
CONTINUOUS
 10
104.975
 20
-23.2669872981
 11
104.975
 21
-24.2500042308
  0
LINE
  5
7BD
100
AcDbEntity
  8
RACCORDO
100
AcDbLine
 62
7
  6
CONTINUOUS
 10
104.975
 20
23.2669872981
 11
104.975
 21
24.2500042308
  0
LWPOLYLINE
  5
7BE
100
AcDbEntity
  8
RACCORDO
100
AcDbPolyline
 62
253
  6
CONTINUOUS
 90
9
 70
0
 10
104.8146623217
 20
15.9948130097
 10
104.8124768291
 20
11.4258211477
 10
104.8110198341
 20
6.8558745493
 10
104.8102913366
 20
2.2853551508
 10
104.8102913368
 20
-2.2853551557
 10
104.8110198344
 20
-6.8558745538
 10
104.8124768294
 20
-11.4258211511
 10
104.8146623219
 20
-15.9948130116
 10
104.8175763118
 20
-20.5624683248
  0
LINE
  5
7BF
100
AcDbEntity
  8
RACCORDO
100
AcDbLine
 62
253
  6
CONTINUOUS
 10
104.8179327976
 20
20.8057774365
 11
104.8146623217
 21
15.9948130097
  0
LINE
  5
7C0
100
AcDbEntity
  8
RACCORDO
100
AcDbLine
 62
253
  6
CONTINUOUS
 10
104.8187450233
 20
21.0411669498
 11
104.8179327976
 21
20.8057774365
  0
LINE
  5
7C1
100
AcDbEntity
  8
RACCORDO
100
AcDbLine
 62
253
  6
CONTINUOUS
 10
104.8200032794
 20
21.2624358569
 11
104.8187450233
 21
21.0411669498
  0
LINE
  5
7C2
100
AcDbEntity
  8
RACCORDO
100
AcDbLine
 62
253
  6
CONTINUOUS
 10
104.8216811777
 20
21.4641539927
 11
104.8200032794
 21
21.2624358569
  0
LINE
  5
7C3
100
AcDbEntity
  8
RACCORDO
100
AcDbLine
 62
253
  6
CONTINUOUS
 10
102.5822807489
 20
23.2669872981
 11
102.5880985787
 21
23.8443375673
  0
LINE
  5
7C4
100
AcDbEntity
  8
RACCORDO
100
AcDbLine
 62
253
  6
CONTINUOUS
 10
102.8330037468
 20
23.1226497308
 11
102.8380943479
 21
23.6278312164
  0
LINE
  5
7C5
100
AcDbEntity
  8
RACCORDO
100
AcDbLine
 62
253
  6
CONTINUOUS
 10
104.7169962532
 20
-23.1226497308
 11
104.7119056521
 21
-23.6278312164
  0
LINE
  5
7C6
100
AcDbEntity
  8
RACCORDO
100
AcDbLine
 62
253
  6
CONTINUOUS
 10
104.8237192012
 20
21.6398815811
 11
104.8216811777
 21
21.4641539927
  0
LINE
  5
7C7
100
AcDbEntity
  8
RACCORDO
100
AcDbLine
 62
253
  6
CONTINUOUS
 10
105.3116013787
 20
21.1491702798
 11
105.3099210145
 21
21.0128656501
  0
LWPOLYLINE
  5
7C8
100
AcDbEntity
  8
RACCORDO
100
AcDbPolyline
 62
253
  6
CONTINUOUS
 90
13
 70
0
 10
102.5880985787
 20
-23.8443375673
 10
102.5902805717
 20
-23.8164122522
 10
102.5966290205
 20
-23.7888676909
 10
102.6070760524
 20
-23.7621735851
 10
102.62149962
 20
-23.7367668404
 10
102.6396806148
 20
-23.7131246796
 10
102.6612677628
 20
-23.6917350818
 10
102.6858647266
 20
-23.6729824084
 10
102.7130698161
 20
-23.6571655895
 10
102.7424121692
 20
-23.6445573199
 10
102.7733866726
 20
-23.6353723694
 10
102.805463864
 20
-23.6297655866
 10
102.8380943479
 20
-23.6278312164
  0
LWPOLYLINE
  5
7C9
100
AcDbEntity
  8
RACCORDO
100
AcDbPolyline
 62
253
  6
CONTINUOUS
 90
13
 70
0
 10
104.9619014213
 20
23.8443375673
 10
104.9596758307
 20
23.8161297326
 10
104.9532264882
 20
23.7884027584
 10
104.9426633362
 20
23.761629308
 10
104.9281664453
 20
23.7362657898
 10
104.9099829448
 20
23.7127445772
 10
104.8884228098
 20
23.6914666374
 10
104.8638535772
 20
23.6727946968
 10
104.8366940799
 20
23.6570470569
 10
104.8074073074
 20
23.6444921687
 10
104.776492513
 20
23.6353440559
 10
104.7444767028
 20
23.629758667
 10
104.7119056521
 20
23.6278312164
  0
LWPOLYLINE
  5
7CA
100
AcDbEntity
  8
RACCORDO
100
AcDbPolyline
 62
7
  6
CONTINUOUS
 90
13
 70
0
 10
102.5822807489
 20
-23.2669872981
 10
102.584240099
 20
-23.2500124376
 10
102.5898445814
 20
-23.232751575
 10
102.5991721884
 20
-23.2156095158
 10
102.6122259128
 20
-23.1991814406
 10
102.6289616143
 20
-23.1837387744
 10
102.6493170923
 20
-23.1692396567
 10
102.6731058824
 20
-23.1561677462
 10
102.7000773888
 20
-23.144975649
 10
102.7300096219
 20
-23.1356232963
 10
102.7625285563
 20
-23.1284216237
 10
102.7970692964
 20
-23.1239714115
 10
102.8330037468
 20
-23.1226497308
  0
LINE
  5
7CB
100
AcDbEntity
  8
RACCORDO
100
AcDbLine
 62
7
  6
CONTINUOUS
 10
90.3800198773
 20
-23.6247960508
 11
90.4279173766
 21
-23.5953423515
  0
LWPOLYLINE
  5
7CC
100
AcDbEntity
  8
RACCORDO
100
AcDbPolyline
 62
7
  6
CONTINUOUS
 90
3
 70
0
 10
38.9249957692
 20
24.5
 10
38.8815853853
 20
24.4962006967
 10
38.8394939471
 20
24.4849211599
  0
LWPOLYLINE
  5
7CD
100
AcDbEntity
  8
RACCORDO
100
AcDbPolyline
 62
7
  6
CONTINUOUS
 90
5
 70
0
 10
105.0227779875
 20
22.3968669155
 10
105.0766851657
 20
22.3876679933
 10
105.1284897888
 20
22.3727768287
 10
105.1775880681
 20
22.3526455331
 10
105.1865445671
 20
22.3482808577
  0
LWPOLYLINE
  5
7CE
100
AcDbEntity
  8
RACCORDO
100
AcDbPolyline
 62
7
  6
CONTINUOUS
 90
3
 70
0
 10
90.2859162356
 20
23.6837245062
 10
90.3800198773
 20
23.6247960508
 10
90.4279173766
 20
23.5953423515
  0
LWPOLYLINE
  5
7CF
100
AcDbEntity
  8
RACCORDO
100
AcDbPolyline
 62
7
  6
CONTINUOUS
 90
13
 70
0
 10
102.5822807489
 20
23.2669872981
 10
102.584240099
 20
23.2500124376
 10
102.5898445814
 20
23.232751575
 10
102.5991721884
 20
23.2156095158
 10
102.6122259128
 20
23.1991814406
 10
102.6289616143
 20
23.1837387744
 10
102.6493170923
 20
23.1692396567
 10
102.6731058824
 20
23.1561677462
 10
102.7000773888
 20
23.144975649
 10
102.7300096219
 20
23.1356232963
 10
102.7625285563
 20
23.1284216237
 10
102.7970692964
 20
23.1239714115
 10
102.8330037468
 20
23.1226497308
  0
LWPOLYLINE
  5
7D0
100
AcDbEntity
  8
RACCORDO
100
AcDbPolyline
 62
7
  6
CONTINUOUS
 90
13
 70
0
 10
104.9677192511
 20
-23.2669872981
 10
104.9657532464
 20
-23.2492660013
 10
104.9601291208
 20
-23.2321167029
 10
104.950780814
 20
-23.215539403
 10
104.937723091
 20
-23.1992537336
 10
104.9210074201
 20
-23.1835400627
 10
104.9006826462
 20
-23.1692394937
 10
104.8769167399
 20
-23.1563414203
 10
104.8499756861
 20
-23.1448564488
 10
104.8201207463
 20
-23.1356575018
 10
104.7877466361
 20
-23.1290355536
 10
104.7534068789
 20
-23.1246996299
 10
104.7177234819
 20
-23.1226497308
  0
LWPOLYLINE
  5
7D1
100
AcDbEntity
  8
RACCORDO
100
AcDbPolyline
 62
7
  6
CONTINUOUS
 90
3
 70
0
 10
104.975
 20
24.2500042308
 10
104.9712006967
 20
24.2934146147
 10
104.9599211599
 20
24.3355060529
  0
LWPOLYLINE
  5
7D2
100
AcDbEntity
  8
RACCORDO
100
AcDbPolyline
 62
253
  6
CONTINUOUS
 90
13
 70
0
 10
105.3241937208
 20
21.5093967499
 10
105.3199494016
 20
21.5732257358
 10
105.3074054977
 20
21.6359648121
 10
105.2867760466
 20
21.6965417957
 10
105.2584132741
 20
21.7539213857
 10
105.2228015927
 20
21.8071228493
 10
105.1805493397
 20
21.8552367901
 10
105.1323782993
 20
21.8974407743
 10
105.0791116027
 20
21.9330131813
 10
105.0216597535
 20
21.9613456482
 10
104.9610047032
 20
21.9819537236
 10
104.8981829986
 20
21.9944850423
 10
104.8342683504
 20
21.9987252226
  0
LWPOLYLINE
  5
7D3
100
AcDbEntity
  8
RACCORDO
100
AcDbPolyline
 62
7
  6
CONTINUOUS
 90
13
 70
0
 10
104.9619014213
 20
24.2369056521
 10
104.9597616605
 20
24.2695359488
 10
104.9533811971
 20
24.3016079562
 10
104.942869198
 20
24.3325729368
 10
104.9284055187
 20
24.3619010942
 10
104.910237626
 20
24.3890906368
 10
104.8886763643
 20
24.4136763643
 10
104.8640906368
 20
24.435237626
 10
104.8369010942
 20
24.4534055187
 10
104.8075729368
 20
24.467869198
 10
104.7766079562
 20
24.4783811971
 10
104.7445359488
 20
24.4847616605
 10
104.7119056521
 20
24.4869014213
  0
LINE
  5
7D4
100
AcDbEntity
  8
RACCORDO
100
AcDbLine
 62
253
  6
CONTINUOUS
 10
104.9619014213
 20
23.8443375673
 11
104.9677192511
 21
23.2669872981
  0
LINE
  5
7D5
100
AcDbEntity
  8
RACCORDO
100
AcDbLine
 62
253
  6
CONTINUOUS
 10
105.3086625927
 20
-20.8632058913
 11
105.3099204571
 21
-21.0128307347
  0
LINE
  5
7D6
100
AcDbEntity
  8
RACCORDO
100
AcDbLine
 62
253
  6
CONTINUOUS
 10
105.307853267
 20
-20.7058282723
 11
105.3086625927
 21
-20.8632058913
  0
LINE
  5
7D7
100
AcDbEntity
  8
RACCORDO
100
AcDbLine
 62
253
  6
CONTINUOUS
 10
105.3075016824
 20
-20.5423171059
 11
105.307853267
 21
-20.7058282723
  0
LINE
  5
7D8
100
AcDbEntity
  8
CORPO
100
AcDbLine
 62
7
  6
CONTINUOUS
 10
105.475
 20
17.7858344278
 11
105.475
 21
-17.7858344278
  0
LINE
  5
7D9
100
AcDbEntity
  8
ASSI
100
AcDbLine
 62
7
  6
CONTINUOUS
 10
105.475
 20
17.7858344278
 11
105.475
 21
-17.7858344278
  0
LINE
  5
7DA
100
AcDbEntity
  8
RACCORDO
100
AcDbLine
 62
7
  6
CONTINUOUS
 10
105.475
 20
21.9011798444
 11
105.475
 21
-21.9011798444
  0
LWPOLYLINE
  5
7DB
100
AcDbEntity
  8
RACCORDO
100
AcDbPolyline
 62
253
  6
CONTINUOUS
 90
9
 70
0
 10
105.3045876967
 20
15.9785230555
 10
105.3024022069
 20
11.4141476763
 10
105.3009452131
 20
6.8491909681
 10
105.3002167147
 20
2.2832662612
 10
105.3002167123
 20
-2.2832397745
 10
105.3009452077
 20
-6.8491671301
 10
105.3024022015
 20
-11.4141291356
 10
105.3045876931
 20
-15.9785124608
 10
105.3075016824
 20
-20.5423171059
  0
LINE
  5
7DC
100
AcDbEntity
  8
RACCORDO
100
AcDbLine
 62
253
  6
CONTINUOUS
 10
105.3078536329
 20
20.7058954047
 11
105.3045876967
 21
15.9785230555
  0
LINE
  5
7DD
100
AcDbEntity
  8
RACCORDO
100
AcDbLine
 62
253
  6
CONTINUOUS
 10
105.3086632379
 20
20.8632845904
 11
105.3078536329
 21
20.7058954047
  0
LINE
  5
7DE
100
AcDbEntity
  8
RACCORDO
100
AcDbLine
 62
253
  6
CONTINUOUS
 10
105.3099210145
 20
21.0128656501
 11
105.3086632379
 21
20.8632845904
  0
LINE
  5
7DF
100
AcDbEntity
  8
RACCORDO
100
AcDbLine
 62
253
  6
CONTINUOUS
 10
104.9677192511
 20
-23.2669872981
 11
104.9619014213
 21
-23.8443375673
  0
LWPOLYLINE
  5
7E0
100
AcDbEntity
  8
RACCORDO
100
AcDbPolyline
 62
7
  6
CONTINUOUS
 90
12
 70
0
 10
105.4575823343
 20
-21.909888014
 10
105.4550700062
 20
-21.9592693875
 10
105.4475922868
 20
-22.0081737604
 10
105.4352172326
 20
-22.0561018132
 10
105.4180993885
 20
-22.1024775204
 10
105.3963867487
 20
-22.1469174645
 10
105.3701348972
 20
-22.1891945685
 10
105.3395448215
 20
-22.2288134235
 10
105.3048547159
 20
-22.2653164805
 10
105.2661084824
 20
-22.298449669
 10
105.2235530718
 20
-22.3277342994
 10
105.1865445671
 20
-22.3482808577
  0
LINE
  5
7E1
100
AcDbEntity
  8
RACCORDO
100
AcDbLine
 62
253
  6
CONTINUOUS
 10
104.9604512088
 20
-24.2637857299
 11
104.9619014213
 21
-24.2369056521
  0
LWPOLYLINE
  5
7E2
100
AcDbEntity
  8
RACCORDO
100
AcDbPolyline
 62
253
  6
CONTINUOUS
 90
13
 70
0
 10
105.3241937208
 20
-21.5093967499
 10
105.3199488318
 20
-21.5732300307
 10
105.3074034631
 20
-21.6359723744
 10
105.2867720203
 20
-21.6965514885
 10
105.2584071031
 20
-21.753932051
 10
105.2227934798
 20
-21.8071334043
 10
105.1805398016
 20
-21.8552463157
 10
105.132368201
 20
-21.8974485156
 10
105.0791019507
 20
-21.9330187509
 10
105.0216513926
 20
-21.9613491114
 10
104.9609983806
 20
-21.9819554194
 10
104.8981794996
 20
-21.9944855044
 10
104.8342683502
 20
-21.998725222
  0
LWPOLYLINE
  5
7E3
100
AcDbEntity
  8
RACCORDO
100
AcDbPolyline
 62
253
  6
CONTINUOUS
 90
13
 70
0
 10
105.3075016812
 20
-20.5423171059
 10
105.302295634
 20
-20.5449185278
 10
105.2889795227
 20
-20.5474763998
 10
105.2677761455
 20
-20.5499479247
 10
105.2390402665
 20
-20.5522917504
 10
105.2032526796
 20
-20.5544686611
 10
105.1610121643
 20
-20.556442234
 10
105.113025467
 20
-20.5581794481
 10
105.0600954767
 20
-20.5596512374
 10
105.0031077905
 20
-20.5608329776
 10
104.9430158973
 20
-20.5617048966
 10
104.8808252236
 20
-20.5622524057
 10
104.8175763119
 20
-20.5624663444
  0
LWPOLYLINE
  5
7E4
100
AcDbEntity
  8
RACCORDO
100
AcDbPolyline
 62
253
  6
CONTINUOUS
 90
13
 70
0
 10
105.3075016824
 20
20.5423171059
 10
105.3022997568
 20
20.544918727
 10
105.2889869506
 20
20.5474768153
 10
105.2677860273
 20
20.549948566
 10
105.239051742
 20
20.5522926195
 10
105.2032649056
 20
20.5544697525
 10
105.1610243395
 20
20.5564435353
 10
105.1130368553
 20
20.5581809404
 10
105.0601054278
 20
20.5596528958
 10
105.0031157589
 20
20.5608347714
 10
104.943021457
 20
20.5617067909
 10
104.8808280806
 20
20.5622543627
 10
104.8175763118
 20
20.5624683242
  0
LINE
  5
7E5
100
AcDbEntity
  8
RACCORDO
100
AcDbLine
 62
253
  6
CONTINUOUS
 10
105.4575823343
 20
-21.909888014
 11
105.475
 21
-21.9011798444
  0
LWPOLYLINE
  5
7E6
100
AcDbEntity
  8
RACCORDO
100
AcDbPolyline
 62
7
  6
CONTINUOUS
 90
10
 70
0
 10
104.8079896478
 20
-24.46769614
 10
104.8374329275
 20
-24.4530975824
 10
104.8647116866
 20
-24.4347595221
 10
104.889350625
 20
-24.412999522
 10
104.9109678862
 20
-24.3881342002
 10
104.929128733
 20
-24.3606400382
 10
104.9434319646
 20
-24.3312029127
 10
104.9536916663
 20
-24.3004380701
 10
104.9598542089
 20
-24.2688252702
 10
104.9604512088
 20
-24.2637857299
  0
LWPOLYLINE
  5
7E7
100
AcDbEntity
  8
RACCORDO
100
AcDbPolyline
 62
7
  6
CONTINUOUS
 90
6
 70
0
 10
105.1865445671
 20
-22.3482808577
 10
105.1775880681
 20
-22.3526455331
 10
105.1284897888
 20
-22.3727768287
 10
105.0766851657
 20
-22.3876679933
 10
105.0227779875
 20
-22.3968669155
 10
104.967395736
 20
-22.3999999602
  0
LWPOLYLINE
  5
7E8
100
AcDbEntity
  8
RACCORDO
100
AcDbPolyline
 62
7
  6
CONTINUOUS
 90
3
 70
0
 10
104.8105060529
 20
-24.4849211599
 10
104.8499996731
 20
-24.4665040979
 10
104.8856955334
 20
-24.4415090796
  0
LINE
  5
7E9
100
AcDbEntity
  8
RACCORDO
100
AcDbLine
 62
253
  6
CONTINUOUS
 10
105.475
 20
21.9011798444
 11
105.4575823343
 21
21.909888014
  0
LWPOLYLINE
  5
7EA
100
AcDbEntity
  8
RACCORDO
100
AcDbPolyline
 62
7
  6
CONTINUOUS
 90
12
 70
0
 10
105.1865445671
 20
22.3482808577
 10
105.2235530718
 20
22.3277342994
 10
105.2661084824
 20
22.298449669
 10
105.3048547159
 20
22.2653164805
 10
105.3395448215
 20
22.2288134235
 10
105.3701348972
 20
22.1891945685
 10
105.3963867487
 20
22.1469174645
 10
105.4180993885
 20
22.1024775204
 10
105.4352172326
 20
22.0561018132
 10
105.4475922868
 20
22.0081737604
 10
105.4550700062
 20
21.9592693875
 10
105.4575823343
 20
21.909888014
  0
LINE
  5
7EB
100
AcDbEntity
  8
RACCORDO
100
AcDbLine
 62
253
  6
CONTINUOUS
 10
102.575
 20
-24.2500042308
 11
102.575383646
 21
-24.2496205848
  0
LWPOLYLINE
  5
7EC
100
AcDbEntity
  8
RACCORDO
100
AcDbPolyline
 62
7
  6
CONTINUOUS
 90
6
 70
0
 10
104.8856955334
 20
-24.4415090796
 10
104.9165090796
 20
-24.4106955334
 10
104.9415040979
 20
-24.3749996731
 10
104.9599211599
 20
-24.3355060529
 10
104.9712006967
 20
-24.2934146147
 10
104.975
 20
-24.2500042308
  0
LWPOLYLINE
  5
7ED
100
AcDbEntity
  8
RACCORDO
100
AcDbPolyline
 62
7
  6
CONTINUOUS
 90
5
 70
0
 10
104.8856955334
 20
24.4415090796
 10
104.8499996731
 20
24.4665040979
 10
104.8105060529
 20
24.4849211599
 10
104.7684146147
 20
24.4962006967
 10
104.7250042308
 20
24.5
  0
LINE
  5
7EE
100
AcDbEntity
  8
RACCORDO
100
AcDbLine
 62
253
  6
CONTINUOUS
 10
102.575
 20
24.2500042308
 11
102.575383646
 21
24.2496205848
  0
LINE
  5
7EF
100
AcDbEntity
  8
RACCORDO
100
AcDbLine
 62
7
  6
CONTINUOUS
 10
104.9165090796
 20
24.4106955334
 11
104.8856955334
 21
24.4415090796
  0
LWPOLYLINE
  5
7F0
100
AcDbEntity
  8
RACCORDO
100
AcDbPolyline
 62
7
  6
CONTINUOUS
 90
3
 70
0
 10
104.9599211599
 20
24.3355060529
 10
104.9415040979
 20
24.3749996731
 10
104.9165090796
 20
24.4106955334
  0
ARC
  5
7F1
100
AcDbEntity
  8
RACCORDO
100
AcDbCircle
 62
7
  6
CONTINUOUS
 10
-20.6282749545
 20
-20.5007809198
 40
1.5
100
AcDbArc
 50
182.3569499908
 51
267.0
  0
ARC
  5
7F2
100
AcDbEntity
  8
RACCORDO
100
AcDbCircle
 62
7
  6
CONTINUOUS
 10
-3.05
 20
-21.3126932437
 40
1.0
100
AcDbArc
 50
270.5
 51
360.0
  0
ARC
  5
7F3
100
AcDbEntity
  8
CORPO
100
AcDbCircle
 62
7
  6
CONTINUOUS
 10
22.95
 20
-18.1744502176
 40
1.0
100
AcDbArc
 50
271.0
 51
360.0
  0
ARC
  5
7F4
100
AcDbEntity
  8
ASSI
100
AcDbCircle
 62
7
  6
CONTINUOUS
 10
22.95
 20
-18.1744501925
 40
1.0
100
AcDbArc
 50
270.9999999749
 51
359.9999985607
  0
ARC
  5
7F5
100
AcDbEntity
  8
RACCORDO
100
AcDbCircle
 62
7
  6
CONTINUOUS
 10
-12.3
 20
-24.2456323968
 40
0.25
100
AcDbArc
 50
270.3333333333
 51
360.0
  0
ARC
  5
7F6
100
AcDbEntity
  8
RACCORDO
100
AcDbCircle
 62
7
  6
CONTINUOUS
 10
-12.3
 20
-23.8443375673
 40
0.25
100
AcDbArc
 50
0.0
 51
60.0
  0
ARC
  5
7F7
100
AcDbEntity
  8
RACCORDO
100
AcDbCircle
 62
7
  6
CONTINUOUS
 10
-15.3
 20
-24.2369056521
 40
0.25
100
AcDbArc
 50
180.0
 51
269.6666666667
  0
ARC
  5
7F8
100
AcDbEntity
  8
RACCORDO
100
AcDbCircle
 62
7
  6
CONTINUOUS
 10
-15.3
 20
-23.8443375673
 40
0.25
100
AcDbArc
 50
120.0
 51
180.0
  0
ARC
  5
7F9
100
AcDbEntity
  8
RACCORDO
100
AcDbCircle
 62
7
  6
CONTINUOUS
 10
-2.25
 20
-19.9570181168
 40
0.2
100
AcDbArc
 50
0.0
 51
89.6666666667
  0
ARC
  5
7FA
100
AcDbEntity
  8
RACCORDO
100
AcDbCircle
 62
7
  6
CONTINUOUS
 10
-20.6282749545
 20
20.5007809198
 40
1.5
100
AcDbArc
 50
93.0
 51
177.6430500092
  0
ARC
  5
7FB
100
AcDbEntity
  8
RACCORDO
100
AcDbCircle
 62
7
  6
CONTINUOUS
 10
-3.05
 20
21.3126932437
 40
1.0
100
AcDbArc
 50
0.0
 51
89.5
  0
ARC
  5
7FC
100
AcDbEntity
  8
CORPO
100
AcDbCircle
 62
7
  6
CONTINUOUS
 10
22.95
 20
18.1744501925
 40
1.0
100
AcDbArc
 50
0.0000014393
 51
89.0000000251
  0
ARC
  5
7FD
100
AcDbEntity
  8
ASSI
100
AcDbCircle
 62
7
  6
CONTINUOUS
 10
22.95
 20
18.1744502176
 40
1.0
100
AcDbArc
 50
0.0
 51
89.0000000251
  0
ARC
  5
7FE
100
AcDbEntity
  8
RACCORDO
100
AcDbCircle
 62
7
  6
CONTINUOUS
 10
-12.3
 20
23.8443375673
 40
0.25
100
AcDbArc
 50
300.0
 51
360.0
  0
ARC
  5
7FF
100
AcDbEntity
  8
RACCORDO
100
AcDbCircle
 62
7
  6
CONTINUOUS
 10
-12.3
 20
24.2456323968
 40
0.25
100
AcDbArc
 50
0.0
 51
89.6666666667
  0
ARC
  5
800
100
AcDbEntity
  8
RACCORDO
100
AcDbCircle
 62
7
  6
CONTINUOUS
 10
-15.3
 20
24.2369056521
 40
0.25
100
AcDbArc
 50
90.3333333333
 51
180.0
  0
ARC
  5
801
100
AcDbEntity
  8
RACCORDO
100
AcDbCircle
 62
7
  6
CONTINUOUS
 10
-15.3
 20
23.8443375673
 40
0.25
100
AcDbArc
 50
180.0
 51
240.0
  0
ARC
  5
802
100
AcDbEntity
  8
RACCORDO
100
AcDbCircle
 62
7
  6
CONTINUOUS
 10
-2.25
 20
19.9570181168
 40
0.2
100
AcDbArc
 50
270.3333333333
 51
360.0
  0
ARC
  5
803
100
AcDbEntity
  8
RACCORDO
100
AcDbCircle
 62
7
  6
CONTINUOUS
 10
477.45
 20
0.0
 40
500.0
100
AcDbArc
 50
177.6430500092
 51
182.3569499908
  0
CIRCLE
  5
804
100
AcDbEntity
  8
DRAFT
100
AcDbCircle
 62
7
  6
CONTINUOUS
 10
93.825
 20
6.2
 40
3.05
  0
CIRCLE
  5
805
100
AcDbEntity
  8
0
100
AcDbCircle
 62
7
  6
CONTINUOUS
 10
93.825
 20
6.2
 40
3.0
  0
CIRCLE
  5
806
100
AcDbEntity
  8
RACCORDO
100
AcDbCircle
 62
7
  6
CONTINUOUS
 10
46.625
 20
7.5
 40
1.25
  0
ARC
  5
807
100
AcDbEntity
  8
0
100
AcDbCircle
 62
7
  6
CONTINUOUS
 10
45.125
 20
-11.5
 40
1.25
100
AcDbArc
 50
90.0
 51
270.0
  0
ARC
  5
808
100
AcDbEntity
  8
0
100
AcDbCircle
 62
7
  6
CONTINUOUS
 10
98.525
 20
-11.5
 40
1.25
100
AcDbArc
 50
270.0
 51
90.0
  0
ARC
  5
809
100
AcDbEntity
  8
0
100
AcDbCircle
 62
7
  6
CONTINUOUS
 10
46.625
 20
7.5
 40
1.25
100
AcDbArc
 50
0.0
 51
180.0
  0
CIRCLE
  5
80A
100
AcDbEntity
  8
RACCORDO
100
AcDbCircle
 62
253
  6
CONTINUOUS
 10
46.625
 20
7.5
 40
1.1616161573
  0
ARC
  5
80B
100
AcDbEntity
  8
0
100
AcDbCircle
 62
7
  6
CONTINUOUS
 10
98.525
 20
-11.5
 40
0.7739171521
100
AcDbArc
 50
270.0
 51
90.0
  0
ARC
  5
80C
100
AcDbEntity
  8
0
100
AcDbCircle
 62
7
  6
CONTINUOUS
 10
45.125
 20
-11.5
 40
0.7739171521
100
AcDbArc
 50
90.0
 51
270.0
  0
ELLIPSE
  5
80D
100
AcDbEntity
  8
RACCORDO
100
AcDbEllipse
 62
7
  6
CONTINUOUS
 10
-2.55
 20
-22.0658992808
 30
0.0
 11
0.5
 21
-0.0
 31
0.0
 40
1.0
 41
0.6605680511
 42
1.5533430343
  0
ELLIPSE
  5
80E
100
AcDbEntity
  8
RACCORDO
100
AcDbEllipse
 62
7
  6
CONTINUOUS
 10
-2.55
 20
22.0658992808
 30
0.0
 11
-0.0
 21
0.5
 31
0.0
 40
1.0
 41
-3.1241393611
 42
-2.2313643779
  0
ELLIPSE
  5
80F
100
AcDbEntity
  8
0
100
AcDbEllipse
 62
253
  6
CONTINUOUS
 10
16.04021
 20
13.718074
 30
0.0
 11
0.0
 21
0.215
 31
0.0
 40
1.0
 41
0.0
 42
6.2831853072
  0
ELLIPSE
  5
810
100
AcDbEntity
  8
0
100
AcDbEllipse
 62
253
  6
CONTINUOUS
 10
10.654303
 20
14.28
 30
0.0
 11
0.335
 21
-0.0
 31
0.0
 40
1.0
 41
0.0
 42
6.2831853072
  0
ELLIPSE
  5
811
100
AcDbEntity
  8
0
100
AcDbEllipse
 62
253
  6
CONTINUOUS
 10
16.04021
 20
13.718074
 30
0.0
 11
0.365
 21
-0.0
 31
0.0
 40
1.0
 41
0.0
 42
6.2831853072
  0
ELLIPSE
  5
812
100
AcDbEntity
  8
0
100
AcDbEllipse
 62
253
  6
CONTINUOUS
 10
16.04021
 20
13.718074
 30
0.0
 11
0.65
 21
-0.0
 31
0.0
 40
1.0
 41
0.0
 42
6.2831853072
  0
ELLIPSE
  5
813
100
AcDbEntity
  8
CURVE
100
AcDbEllipse
 62
253
  6
CONTINUOUS
 10
2.40196
 20
15.9
 30
0.0
 11
1.7999999246
 21
-0.0
 31
0.0
 40
1.0
 41
3.086008478
 42
4.5025183792
  0
ELLIPSE
  5
814
100
AcDbEntity
  8
CURVE
100
AcDbEllipse
 62
253
  6
CONTINUOUS
 10
2.40196
 20
15.9
 30
0.0
 11
0.0
 21
1.7999968808
 31
0.0
 40
1.0
 41
-2.9317216922
 42
-1.5152120571
  0
ELLIPSE
  5
815
100
AcDbEntity
  8
CURVE
100
AcDbEllipse
 62
253
  6
CONTINUOUS
 10
2.40196
 20
11.51489
 30
0.0
 11
-0.0
 21
1.7999999246
 31
0.0
 40
1.0
 41
1.5152121512
 42
4.767973156
  0
ELLIPSE
  5
816
100
AcDbEntity
  8
CURVE
100
AcDbEllipse
 62
253
  6
CONTINUOUS
 10
2.40196
 20
11.51489
 30
0.0
 11
0.0
 21
2.5499985399
 31
0.0
 40
1.0
 41
1.5315705596
 42
4.7516147475
  0
ELLIPSE
  5
817
100
AcDbEntity
  8
CURVE
100
AcDbEllipse
 62
253
  6
CONTINUOUS
 10
2.40196
 20
15.9
 30
0.0
 11
2.5499986575
 21
0.0
 31
0.0
 40
1.0
 41
3.1023668883
 42
6.3224110725
  0
ELLIPSE
  5
818
100
AcDbEntity
  8
RACCORDO
100
AcDbEllipse
 62
7
  6
CONTINUOUS
 10
38.6650746407
 20
-21.9012544738
 30
0.0
 11
0.4383594471
 21
-0.2191630312
 31
0.0
 40
0.9998096356
 41
-2.6780516535
 42
-1.5707963161
  0
ELLIPSE
  5
819
100
AcDbEntity
  8
RACCORDO
100
AcDbEllipse
 62
7
  6
CONTINUOUS
 10
104.9849253593
 20
21.9012544738
 30
0.0
 11
0.4383594471
 21
-0.2191630312
 31
0.0
 40
0.9998096356
 41
0.4635410001
 42
1.5707963374
  0
ELLIPSE
  5
81A
100
AcDbEntity
  8
RACCORDO
100
AcDbEllipse
 62
7
  6
CONTINUOUS
 10
104.9849253593
 20
-21.9012544738
 30
0.0
 11
0.4383594471
 21
0.2191630312
 31
0.0
 40
0.9998096356
 41
-1.5707963374
 42
-0.4635410001
  0
ELLIPSE
  5
81B
100
AcDbEntity
  8
RACCORDO
100
AcDbEllipse
 62
7
  6
CONTINUOUS
 10
38.6650746407
 20
21.9012544738
 30
0.0
 11
0.4383594471
 21
0.2191630312
 31
0.0
 40
0.9998096356
 41
1.5707963161
 42
2.6780516535
  0
ELLIPSE
  5
81C
100
AcDbEntity
  8
RACCORDO
100
AcDbEllipse
 62
7
  6
CONTINUOUS
 10
85.8177234819
 20
-22.3344902759
 30
0.0
 11
0.25
 21
0.0
 31
0.0
 40
0.0524077793
 41
0.0058177642
 42
1.5707963268
  0
ELLIPSE
  5
81D
100
AcDbEntity
  8
RACCORDO
100
AcDbEllipse
 62
7
  6
CONTINUOUS
 10
98.2220826234
 20
22.3737961104
 30
0.0
 11
0.5
 21
0.0
 31
0.0
 40
0.0524077793
 41
-1.5707963268
 42
-0.0058177642
  0
ELLIPSE
  5
81E
100
AcDbEntity
  8
RACCORDO
100
AcDbEllipse
 62
7
  6
CONTINUOUS
 10
98.2220826234
 20
23.7970910851
 30
0.0
 11
0.5
 21
-0.0
 31
0.0
 40
0.0058178298
 41
-0.6464131586
 42
-0.0058177642
  0
ELLIPSE
  5
81F
100
AcDbEntity
  8
RACCORDO
100
AcDbEllipse
 62
7
  6
CONTINUOUS
 10
83.9322765181
 20
-22.3344902759
 30
0.0
 11
0.25
 21
0.0
 31
0.0
 40
0.0524077793
 41
1.5707963268
 42
3.1357748894
  0
ELLIPSE
  5
820
100
AcDbEntity
  8
RACCORDO
100
AcDbEllipse
 62
7
  6
CONTINUOUS
 10
90.4279173766
 20
23.7970910851
 30
0.0
 11
0.5
 21
-0.0
 31
0.0
 40
0.0058178298
 41
-3.1357748894
 42
-2.495179495
  0
ELLIPSE
  5
821
100
AcDbEntity
  8
RACCORDO
100
AcDbEllipse
 62
7
  6
CONTINUOUS
 10
90.4279173766
 20
22.3737961104
 30
0.0
 11
0.5
 21
-0.0
 31
0.0
 40
0.0524077793
 41
-3.1357748894
 42
-1.5707963268
  0
ELLIPSE
  5
822
100
AcDbEntity
  8
RACCORDO
100
AcDbEllipse
 62
7
  6
CONTINUOUS
 10
98.2220826234
 20
-23.7970910851
 30
0.0
 11
0.5
 21
0.0
 31
0.0
 40
0.0058178298
 41
0.0058177642
 42
0.6464131586
  0
ELLIPSE
  5
823
100
AcDbEntity
  8
RACCORDO
100
AcDbEllipse
 62
7
  6
CONTINUOUS
 10
104.7177234819
 20
22.3344902759
 30
0.0
 11
0.25
 21
-0.0
 31
0.0
 40
0.0524077793
 41
-1.5707963268
 42
-0.4367799193
  0
ELLIPSE
  5
824
100
AcDbEntity
  8
RACCORDO
100
AcDbEllipse
 62
7
  6
CONTINUOUS
 10
102.8322765181
 20
22.3344902759
 30
0.0
 11
0.25
 21
0.0
 31
0.0
 40
0.0524077793
 41
-3.1357748894
 42
-1.5707963268
  0
ELLIPSE
  5
825
100
AcDbEntity
  8
RACCORDO
100
AcDbEllipse
 62
7
  6
CONTINUOUS
 10
98.2220826234
 20
-22.3737961104
 30
0.0
 11
0.5
 21
-0.0
 31
0.0
 40
0.0524077793
 41
0.0058177642
 42
1.5707963268
  0
ELLIPSE
  5
826
100
AcDbEntity
  8
RACCORDO
100
AcDbEllipse
 62
7
  6
CONTINUOUS
 10
90.4279173766
 20
-22.3737961104
 30
0.0
 11
0.5
 21
-0.0
 31
0.0
 40
0.0524077793
 41
1.5707963268
 42
3.1357748894
  0
ELLIPSE
  5
827
100
AcDbEntity
  8
RACCORDO
100
AcDbEllipse
 62
7
  6
CONTINUOUS
 10
90.4279173766
 20
-23.7970910851
 30
0.0
 11
0.5
 21
-0.0
 31
0.0
 40
0.0058178298
 41
2.495179495
 42
3.1357748894
  0
ELLIPSE
  5
828
100
AcDbEntity
  8
RACCORDO
100
AcDbEllipse
 62
7
  6
CONTINUOUS
 10
53.2220826234
 20
22.3737961104
 30
0.0
 11
0.5
 21
-0.0
 31
0.0
 40
0.0524077793
 41
-1.5707963268
 42
-0.0058177642
  0
ELLIPSE
  5
829
100
AcDbEntity
  8
RACCORDO
100
AcDbEllipse
 62
7
  6
CONTINUOUS
 10
53.2220826234
 20
23.7970910851
 30
0.0
 11
0.5
 21
0.0
 31
0.0
 40
0.0058178298
 41
-0.6464131586
 42
-0.0058177642
  0
ELLIPSE
  5
82A
100
AcDbEntity
  8
RACCORDO
100
AcDbEllipse
 62
7
  6
CONTINUOUS
 10
85.8177234819
 20
22.3344902759
 30
0.0
 11
0.25
 21
0.0
 31
0.0
 40
0.0524077793
 41
-1.5707963268
 42
-0.0058177642
  0
ELLIPSE
  5
82B
100
AcDbEntity
  8
RACCORDO
100
AcDbEllipse
 62
7
  6
CONTINUOUS
 10
45.4279173766
 20
23.7970910851
 30
0.0
 11
0.5
 21
0.0
 31
0.0
 40
0.0058178298
 41
-3.1357748894
 42
-2.495179495
  0
ELLIPSE
  5
82C
100
AcDbEntity
  8
RACCORDO
100
AcDbEllipse
 62
7
  6
CONTINUOUS
 10
45.4279173766
 20
22.3737961104
 30
0.0
 11
0.5
 21
0.0
 31
0.0
 40
0.0524077793
 41
-3.1357748894
 42
-1.5707963268
  0
ELLIPSE
  5
82D
100
AcDbEntity
  8
RACCORDO
100
AcDbEllipse
 62
7
  6
CONTINUOUS
 10
53.2220826234
 20
-23.7970910851
 30
0.0
 11
0.5
 21
-0.0
 31
0.0
 40
0.0058178298
 41
0.0058177642
 42
0.6464131586
  0
ELLIPSE
  5
82E
100
AcDbEntity
  8
RACCORDO
100
AcDbEllipse
 62
7
  6
CONTINUOUS
 10
83.9322765181
 20
22.3344902759
 30
0.0
 11
0.25
 21
0.0
 31
0.0
 40
0.0524077793
 41
-3.1357748894
 42
-1.5707963268
  0
ELLIPSE
  5
82F
100
AcDbEntity
  8
RACCORDO
100
AcDbEllipse
 62
7
  6
CONTINUOUS
 10
53.2220826234
 20
-22.3737961104
 30
0.0
 11
0.5
 21
-0.0
 31
0.0
 40
0.0524077793
 41
0.0058177642
 42
1.5707963268
  0
ELLIPSE
  5
830
100
AcDbEntity
  8
RACCORDO
100
AcDbEllipse
 62
7
  6
CONTINUOUS
 10
45.4279173766
 20
-22.3737961104
 30
0.0
 11
0.5
 21
0.0
 31
0.0
 40
0.0524077793
 41
1.5707963268
 42
3.1357748894
  0
ELLIPSE
  5
831
100
AcDbEntity
  8
RACCORDO
100
AcDbEllipse
 62
7
  6
CONTINUOUS
 10
45.4279173766
 20
-23.7970910851
 30
0.0
 11
0.5
 21
0.0
 31
0.0
 40
0.0058178298
 41
2.495179495
 42
3.1357748894
  0
ELLIPSE
  5
832
100
AcDbEntity
  8
RACCORDO
100
AcDbEllipse
 62
7
  6
CONTINUOUS
 10
59.7177234819
 20
-22.3344902759
 30
0.0
 11
0.25
 21
-0.0
 31
0.0
 40
0.0524077793
 41
0.0058177642
 42
1.5707963268
  0
ELLIPSE
  5
833
100
AcDbEntity
  8
RACCORDO
100
AcDbEllipse
 62
7
  6
CONTINUOUS
 10
104.7177234819
 20
-22.3344902759
 30
0.0
 11
0.25
 21
-0.0
 31
0.0
 40
0.0524077793
 41
0.4367799193
 42
1.5707963268
  0
ELLIPSE
  5
834
100
AcDbEntity
  8
RACCORDO
100
AcDbEllipse
 62
7
  6
CONTINUOUS
 10
57.8322765181
 20
-22.3344902759
 30
0.0
 11
0.25
 21
0.0
 31
0.0
 40
0.0524077793
 41
1.5707963268
 42
3.1357748894
  0
ELLIPSE
  5
835
100
AcDbEntity
  8
RACCORDO
100
AcDbEllipse
 62
7
  6
CONTINUOUS
 10
40.8177234819
 20
-22.3344902759
 30
0.0
 11
0.25
 21
0.0
 31
0.0
 40
0.0524077793
 41
0.0058177642
 42
1.5707963268
  0
ELLIPSE
  5
836
100
AcDbEntity
  8
RACCORDO
100
AcDbEllipse
 62
7
  6
CONTINUOUS
 10
38.9322765181
 20
-22.3344902759
 30
0.0
 11
0.25
 21
0.0
 31
0.0
 40
0.0524077793
 41
1.5707963268
 42
2.7048127343
  0
ELLIPSE
  5
837
100
AcDbEntity
  8
RACCORDO
100
AcDbEllipse
 62
7
  6
CONTINUOUS
 10
102.8322765181
 20
-22.3344902759
 30
0.0
 11
0.25
 21
-0.0
 31
0.0
 40
0.0524077793
 41
1.5707963268
 42
3.1357748894
  0
ELLIPSE
  5
838
100
AcDbEntity
  8
RACCORDO
100
AcDbEllipse
 62
7
  6
CONTINUOUS
 10
59.7177234819
 20
22.3344902759
 30
0.0
 11
0.25
 21
0.0
 31
0.0
 40
0.0524077793
 41
-1.5707963268
 42
-0.0058177642
  0
ELLIPSE
  5
839
100
AcDbEntity
  8
RACCORDO
100
AcDbEllipse
 62
7
  6
CONTINUOUS
 10
57.8322765181
 20
22.3344902759
 30
0.0
 11
0.25
 21
0.0
 31
0.0
 40
0.0524077793
 41
-3.1357748894
 42
-1.5707963268
  0
ELLIPSE
  5
83A
100
AcDbEntity
  8
RACCORDO
100
AcDbEllipse
 62
7
  6
CONTINUOUS
 10
40.8177234819
 20
22.3344902759
 30
0.0
 11
0.25
 21
0.0
 31
0.0
 40
0.0524077793
 41
-1.5707963268
 42
-0.0058177642
  0
ELLIPSE
  5
83B
100
AcDbEntity
  8
RACCORDO
100
AcDbEllipse
 62
7
  6
CONTINUOUS
 10
38.9322765181
 20
22.3344902759
 30
0.0
 11
0.25
 21
-0.0
 31
0.0
 40
0.0524077793
 41
-2.7048127343
 42
-1.5707963268
  0
ENDSEC
  0
SECTION
  2
OBJECTS
  0
DICTIONARY
  5
C
100
AcDbDictionary
280
0
281
1
  3
ACAD_GROUP
350
D
  3
ACAD_MLINESTYLE
350
17
  3
ACAD_LAYOUT
350
1A
  3
ACAD_PLOTSETTINGS
350
19
  3
ACAD_PLOTSTYLENAME
350
E
  0
DICTIONARY
  5
D
102
{ACAD_REACTORS
330
C
102
}
100
AcDbDictionary
280
0
281
1
  0
ACDBDICTIONARYWDFLT
  5
E
102
{ACAD_REACTORS
330
C
102
}
100
AcDbDictionary
281
1
  3
Normal
350
F
100
AcDbDictionaryWithDefault
340
F
  0
DICTIONARY
  5
17
102
{ACAD_REACTORS
330
C
102
}
100
AcDbDictionary
280
0
281
1
  3
Standard
350
18
  0
DICTIONARY
  5
19
102
{ACAD_REACTORS
330
C
102
}
100
AcDbDictionary
281
1
  0
DICTIONARY
  5
1A
102
{ACAD_REACTORS
330
C
102
}
100
AcDbDictionary
281
1
  3
Model
350
83C
  3
Layout1
350
83D
  0
ACDBPLACEHOLDER
  5
F
102
{ACAD_REACTORS
330
E
102
}
  0
MLINESTYLE
  5
18
102
{ACAD_REACTORS
330
17
102
}
100
AcDbMlineStyle
  2
STANDARD
 70
0
  3

 62
256
 51
90.0
 52
90.0
 71
2
 49
0.5
 62
256
  6
BYLAYER
 49
-0.5
 62
256
  6
BYLAYER
  0
LAYOUT
  5
83C
102
{ACAD_REACTORS
330
1A
102
}
100
AcDbPlotSettings
  1

  2
none_device
  4
ISO_A4_(297.00_x_210.00_MM)
  6

 40
0.0
 41
0.0
 42
0.0
 43
0.0
 44
297.0
 45
210.0
 46
0.0
 47
0.0
 48
0.0
 49
0.0
140
0.0
141
0.0
142
1.0
143
1.0
 70
1024
 72
1
 73
0
 74
0
  7

 75
0
147
1.0
148
0.0
149
0.0
100
AcDbLayout
  1
Model
 70
0
 71
0
 10
0.0
 20
0.0
 11
297.0
 21
210.0
 12
0.0
 22
0.0
 32
0.0
 14
0.0
 24
0.0
 34
0.0
 15
0.0
 25
0.0
 35
0.0
146
0.0
 13
0.0
 23
0.0
 33
0.0
 16
1.0
 26
0.0
 36
0.0
 17
0.0
 27
1.0
 37
0.0
 76
0
330
216
345
0
346
0
  0
LAYOUT
  5
83D
102
{ACAD_REACTORS
330
1A
102
}
100
AcDbPlotSettings
  1

  2
none_device
  4
ISO_A4_(297.00_x_210.00_MM)
  6

 40
0.0
 41
0.0
 42
0.0
 43
0.0
 44
297.0
 45
210.0
 46
0.0
 47
0.0
 48
0.0
 49
0.0
140
0.0
141
0.0
142
1.0
143
1.0
 70
0
 72
1
 73
0
 74
0
  7

 75
0
147
1.0
148
0.0
149
0.0
100
AcDbLayout
  1
Layout1
 70
0
 71
1
 10
0.0
 20
0.0
 11
297.0
 21
210.0
 12
0.0
 22
0.0
 32
0.0
 14
0.0
 24
0.0
 34
0.0
 15
0.0
 25
0.0
 35
0.0
146
0.0
 13
0.0
 23
0.0
 33
0.0
 16
1.0
 26
0.0
 36
0.0
 17
0.0
 27
1.0
 37
0.0
 76
0
330
217
345
0
346
0
  0
ENDSEC
  0
EOF
