  0
SECTION
  2
HEADER
  9
$ACADVER
  1
AC1024
  9
$DWGCODEPAGE
  3
ANSI_1252
  9
$EXTMAX
 10
558.8
 20
431.8
 30
0.0
  9
$EXTMIN
 10
0.0
 20
0.0
 30
0.0
  9
$LIMMIN
 10
0.0
 20
0.0
  9
$LIMMAX
 10
558.8
 20
431.8
  9
$VIEWCTR
 10
279.4
 20
215.9
  9
$VIEWSIZE
 40
431.8
  9
$CLAYER
  8
0
  9
$LTSCALE
 40
30.734
  9
$CELTYPE
  6
BYLAYER
  9
$DIMSCALE
 40
1.0
  9
$DIMASZ
 40
3.0
  9
$DIMEXO
 40
0.5
  9
$DIMDLI
 40
21.2344
  9
$DIMEXE
 40
1.5
  9
$DIMCEN
 40
5.0292
  9
$DIMLFAC
 40
1.0
  9
$DIMBLK
  1
_FILLED
  9
$DIMALT
 70
0
  9
$DIMALTF
 40
0.0393700787
  9
$DIMTXT
 40
3.0
  9
$DIMTOL
 70
1
  9
$DIMLIM
 70
0
  9
$DIMTFAC
 40
1.0
  9
$DIMTP
 40
0.01
  9
$DIMTM
 40
0.01
  9
$DIMGAP
 40
0.625
  9
$DIMDSEP
 70
44
  9
$AUNITS
 70
0
  9
$PDMODE
 70
3
  9
$PDSIZE
 40
3.0
  9
$HANDSEED
  5
62B
  9
$TILEMODE
 70
1
  9
$MEASUREMENT
 70
1
  9
$INSUNITS
 70
4
  0
ENDSEC
  0
SECTION
  2
CLASSES
  0
CLASS
  1
ACDBDICTIONARYWDFLT
  2
AcDbDictionaryWithDefault
  3
AutoCAD 2000
 90
0
 91
1
280
0
281
0
  0
CLASS
  1
ACDBPLACEHOLDER
  2
AcDbPlaceHolder
  3
AutoCAD 2000
 90
0
 91
1
280
0
281
0
  0
CLASS
  1
LAYOUT
  2
AcDbLayout
  3
AutoCAD 2000
 90
0
 91
0
280
0
281
0
  0
ENDSEC
  0
SECTION
  2
TABLES
  0
TABLE
  2
VPORT
  5
8
100
AcDbSymbolTable
 70
2
  0
VPORT
  5
1F4
100
AcDbSymbolTableRecord
100
AcDbViewportTableRecord
  2
*ACTIVE
 70
0
 10
0.0
 20
0.0
 11
1.0
 21
1.0
 12
279.4
 22
215.9
 13
0.0
 23
0.0
 14
1.0
 24
1.0
 15
0.0
 25
0.0
 16
0.0
 26
0.0
 36
1.0
 17
0.0
 27
0.0
 37
0.0
 40
431.8
 41
1.2941176471
 42
50.0
 43
0.0
 44
0.0
 50
0.0
 51
0.0
 71
0
 72
100
 73
1
 74
1
 75
0
 76
0
 77
0
 78
0
  0
ENDTAB
  0
TABLE
  2
LTYPE
  5
5
100
AcDbSymbolTable
 70
6
  0
LTYPE
  5
14
100
AcDbSymbolTableRecord
100
AcDbLinetypeTableRecord
  2
BYBLOCK
 70
0
  3

 72
65
 73
0
 40
0.0
  0
LTYPE
  5
15
100
AcDbSymbolTableRecord
100
AcDbLinetypeTableRecord
  2
BYLAYER
 70
0
  3

 72
65
 73
0
 40
0.0
  0
LTYPE
  5
16
100
AcDbSymbolTableRecord
100
AcDbLinetypeTableRecord
  2
CONTINUOUS
 70
64
  3
Solid line
 72
65
 73
0
 40
0.0
  0
LTYPE
  5
1F5
100
AcDbSymbolTableRecord
100
AcDbLinetypeTableRecord
  2
CENTER
 70
64
  3
____ _ ____ _ ____ _ ____ _ ____ _ ____ _ ____
 72
65
 73
4
 40
0.6
 49
0.375
 74
0
 49
-0.075
 74
0
 49
0.075
 74
0
 49
-0.075
 74
0
  0
LTYPE
  5
1F6
100
AcDbSymbolTableRecord
100
AcDbLinetypeTableRecord
  2
HIDDEN
 70
64
  3
- - - - - - - - - - - - - - - - - - - -
 72
65
 73
2
 40
0.2
 49
0.1
 74
0
 49
-0.1
 74
0
  0
LTYPE
  5
1F7
100
AcDbSymbolTableRecord
100
AcDbLinetypeTableRecord
  2
PHANTOM
 70
64
  3
_____ _ _ _____ _ _ _____ _ _ _____
 72
65
 73
6
 40
0.8
 49
0.45
 74
0
 49
-0.05
 74
0
 49
0.1
 74
0
 49
-0.05
 74
0
 49
0.1
 74
0
 49
-0.05
 74
0
  0
LTYPE
  5
1F8
100
AcDbSymbolTableRecord
100
AcDbLinetypeTableRecord
  2
DOT
 70
64
  3
. . . . . . . . . . . . . . . . . . . .
 72
65
 73
2
 40
0.2
 49
0.1
 74
0
 49
-0.1
 74
0
  0
LTYPE
  5
1F9
100
AcDbSymbolTableRecord
100
AcDbLinetypeTableRecord
  2
DASHED
 70
64
  3
- - - - - - - - - - - - - - - - - - - -
 72
65
 73
2
 40
0.2
 49
0.1
 74
0
 49
-0.1
 74
0
  0
ENDTAB
  0
TABLE
  2
LAYER
  5
2
100
AcDbSymbolTable
 70
36
  0
LAYER
  5
10
100
AcDbSymbolTableRecord
100
AcDbLayerTableRecord
  2
0
 70
0
 62
7
  6
CONTINUOUS
370
-3
390
F
  0
LAYER
  5
1FA
100
AcDbSymbolTableRecord
100
AcDbLayerTableRecord
  2
DEFAULT_1
 70
0
 62
7
  6
CENTER
370
-3
390
F
  0
LAYER
  5
1FB
100
AcDbSymbolTableRecord
100
AcDbLayerTableRecord
  2
DEFAULT_2
 70
0
 62
7
  6
HIDDEN
370
-3
390
F
  0
LAYER
  5
1FC
100
AcDbSymbolTableRecord
100
AcDbLayerTableRecord
  2
DEFAULT_3
 70
0
 62
7
  6
PHANTOM
370
-3
390
F
  0
LAYER
  5
1FD
100
AcDbSymbolTableRecord
100
AcDbLayerTableRecord
  2
06___PRT_ALL_SURFS_13
 70
0
 62
7
  6
CONTINUOUS
370
-3
390
F
  0
LAYER
  5
1FE
100
AcDbSymbolTableRecord
100
AcDbLayerTableRecord
  2
06___PRT_ALL_SURFS_22
 70
0
 62
7
  6
CONTINUOUS
370
-3
390
F
  0
LAYER
  5
1FF
100
AcDbSymbolTableRecord
100
AcDbLayerTableRecord
  2
06___PRT_ALL_SURFS_23
 70
0
 62
7
  6
CONTINUOUS
370
-3
390
F
  0
LAYER
  5
200
100
AcDbSymbolTableRecord
100
AcDbLayerTableRecord
  2
06___PRT_ALL_SURFS_3
 70
0
 62
7
  6
CONTINUOUS
370
-3
390
F
  0
LAYER
  5
201
100
AcDbSymbolTableRecord
100
AcDbLayerTableRecord
  2
06___PRT_ALL_SURFS_5
 70
0
 62
7
  6
CONTINUOUS
370
-3
390
F
  0
LAYER
  5
202
100
AcDbSymbolTableRecord
100
AcDbLayerTableRecord
  2
06___PRT_ALL_SURFS_8
 70
0
 62
7
  6
CONTINUOUS
370
-3
390
F
  0
LAYER
  5
203
100
AcDbSymbolTableRecord
100
AcDbLayerTableRecord
  2
06___PRT_ALL_SURFS_9
 70
0
 62
7
  6
CONTINUOUS
370
-3
390
F
  0
LAYER
  5
204
100
AcDbSymbolTableRecord
100
AcDbLayerTableRecord
  2
1608-FL-RF-VIMAR_80000
 70
0
 62
7
  6
CONTINUOUS
370
-3
390
F
  0
LAYER
  5
205
100
AcDbSymbolTableRecord
100
AcDbLayerTableRecord
  2
1608-FL-RF-VIMAR_80000_1
 70
0
 62
7
  6
CONTINUOUS
370
-3
390
F
  0
LAYER
  5
206
100
AcDbSymbolTableRecord
100
AcDbLayerTableRecord
  2
2125-CC-RF-VIMAR_110000
 70
0
 62
7
  6
CONTINUOUS
370
-3
390
F
  0
LAYER
  5
207
100
AcDbSymbolTableRecord
100
AcDbLayerTableRecord
  2
2125-CC-RF-VIMAR_110000_1
 70
0
 62
7
  6
CONTINUOUS
370
-3
390
F
  0
LAYER
  5
208
100
AcDbSymbolTableRecord
100
AcDbLayerTableRecord
  2
2125-DL-RF-FINE_VIMAR_110000
 70
0
 62
7
  6
CONTINUOUS
370
-3
390
F
  0
LAYER
  5
209
100
AcDbSymbolTableRecord
100
AcDbLayerTableRecord
  2
2125-DL-RF-FINE_VIMAR_110000_1
 70
0
 62
7
  6
CONTINUOUS
370
-3
390
F
  0
LAYER
  5
20A
100
AcDbSymbolTableRecord
100
AcDbLayerTableRecord
  2
2125-R1-RF-VIMAR_60000
 70
0
 62
7
  6
CONTINUOUS
370
-3
390
F
  0
LAYER
  5
20B
100
AcDbSymbolTableRecord
100
AcDbLayerTableRecord
  2
2125-R1-RF-VIMAR_60000_1
 70
0
 62
7
  6
CONTINUOUS
370
-3
390
F
  0
LAYER
  5
20C
100
AcDbSymbolTableRecord
100
AcDbLayerTableRecord
  2
2125-R1-RF-VIMAR_60000_2
 70
0
 62
7
  6
CONTINUOUS
370
-3
390
F
  0
LAYER
  5
20D
100
AcDbSymbolTableRecord
100
AcDbLayerTableRecord
  2
2125-R1-RF-VIMAR_60000_3
 70
0
 62
7
  6
CONTINUOUS
370
-3
390
F
  0
LAYER
  5
20E
100
AcDbSymbolTableRecord
100
AcDbLayerTableRecord
  2
2125-R1-RF-VIMAR_60000_4
 70
0
 62
7
  6
CONTINUOUS
370
-3
390
F
  0
LAYER
  5
20F
100
AcDbSymbolTableRecord
100
AcDbLayerTableRecord
  2
3216-CF-RF-VIMAR_100000
 70
0
 62
7
  6
CONTINUOUS
370
-3
390
F
  0
LAYER
  5
210
100
AcDbSymbolTableRecord
100
AcDbLayerTableRecord
  2
3216-CF-RF-VIMAR_100000_1
 70
0
 62
7
  6
CONTINUOUS
370
-3
390
F
  0
LAYER
  5
211
100
AcDbSymbolTableRecord
100
AcDbLayerTableRecord
  2
3216-CF-RF-VIMAR_100000_2
 70
0
 62
7
  6
CONTINUOUS
370
-3
390
F
  0
LAYER
  5
212
100
AcDbSymbolTableRecord
100
AcDbLayerTableRecord
  2
3216-R1-RF-VIMAR_60000
 70
0
 62
7
  6
CONTINUOUS
370
-3
390
F
  0
LAYER
  5
213
100
AcDbSymbolTableRecord
100
AcDbLayerTableRecord
  2
43000771B0
 70
0
 62
7
  6
CONTINUOUS
370
-3
390
F
  0
LAYER
  5
214
100
AcDbSymbolTableRecord
100
AcDbLayerTableRecord
  2
43000773A1
 70
0
 62
7
  6
CONTINUOUS
370
-3
390
F
  0
LAYER
  5
215
100
AcDbSymbolTableRecord
100
AcDbLayerTableRecord
  2
43900771A0
 70
0
 62
7
  6
CONTINUOUS
370
-3
390
F
  0
LAYER
  5
216
100
AcDbSymbolTableRecord
100
AcDbLayerTableRecord
  2
43900772A0
 70
0
 62
7
  6
CONTINUOUS
370
-3
390
F
  0
LAYER
  5
217
100
AcDbSymbolTableRecord
100
AcDbLayerTableRecord
  2
43900773A1
 70
0
 62
7
  6
CONTINUOUS
370
-3
390
F
  0
LAYER
  5
218
100
AcDbSymbolTableRecord
100
AcDbLayerTableRecord
  2
ASSI
 70
0
 62
7
  6
CONTINUOUS
370
-3
390
F
  0
LAYER
  5
219
100
AcDbSymbolTableRecord
100
AcDbLayerTableRecord
  2
BZ-BST-0841A_450000
 70
0
 62
7
  6
CONTINUOUS
370
-3
390
F
  0
LAYER
  5
21A
100
AcDbSymbolTableRecord
100
AcDbLayerTableRecord
  2
CAP-E-SMD-10_8-10_8-5_5_580000
 70
0
 62
7
  6
CONTINUOUS
370
-3
390
F
  0
LAYER
  5
21B
100
AcDbSymbolTableRecord
100
AcDbLayerTableRecord
  2
CAPC1608N_80000
 70
0
 62
7
  6
CONTINUOUS
370
-3
390
F
  0
LAYER
  5
21C
100
AcDbSymbolTableRecord
100
AcDbLayerTableRecord
  2
CAPC1608N_80000_1
 70
0
 62
7
  6
CONTINUOUS
370
-3
390
F
  0
LAYER
  5
21D
100
AcDbSymbolTableRecord
100
AcDbLayerTableRecord
  2
CAPC1608N_80000_10
 70
0
 62
7
  6
CONTINUOUS
370
-3
390
F
  0
LAYER
  5
21E
100
AcDbSymbolTableRecord
100
AcDbLayerTableRecord
  2
CAPC1608N_80000_11
 70
0
 62
7
  6
CONTINUOUS
370
-3
390
F
  0
LAYER
  5
21F
100
AcDbSymbolTableRecord
100
AcDbLayerTableRecord
  2
CAPC1608N_80000_12
 70
0
 62
7
  6
CONTINUOUS
370
-3
390
F
  0
LAYER
  5
220
100
AcDbSymbolTableRecord
100
AcDbLayerTableRecord
  2
CAPC1608N_80000_13
 70
0
 62
7
  6
CONTINUOUS
370
-3
390
F
  0
LAYER
  5
221
100
AcDbSymbolTableRecord
100
AcDbLayerTableRecord
  2
CAPC1608N_80000_14
 70
0
 62
7
  6
CONTINUOUS
370
-3
390
F
  0
LAYER
  5
222
100
AcDbSymbolTableRecord
100
AcDbLayerTableRecord
  2
CAPC1608N_80000_15
 70
0
 62
7
  6
CONTINUOUS
370
-3
390
F
  0
LAYER
  5
223
100
AcDbSymbolTableRecord
100
AcDbLayerTableRecord
  2
CAPC1608N_80000_16
 70
0
 62
7
  6
CONTINUOUS
370
-3
390
F
  0
LAYER
  5
224
100
AcDbSymbolTableRecord
100
AcDbLayerTableRecord
  2
CAPC1608N_80000_17
 70
0
 62
7
  6
CONTINUOUS
370
-3
390
F
  0
LAYER
  5
225
100
AcDbSymbolTableRecord
100
AcDbLayerTableRecord
  2
CAPC1608N_80000_18
 70
0
 62
7
  6
CONTINUOUS
370
-3
390
F
  0
LAYER
  5
226
100
AcDbSymbolTableRecord
100
AcDbLayerTableRecord
  2
CAPC1608N_80000_19
 70
0
 62
7
  6
CONTINUOUS
370
-3
390
F
  0
LAYER
  5
227
100
AcDbSymbolTableRecord
100
AcDbLayerTableRecord
  2
CAPC1608N_80000_2
 70
0
 62
7
  6
CONTINUOUS
370
-3
390
F
  0
LAYER
  5
228
100
AcDbSymbolTableRecord
100
AcDbLayerTableRecord
  2
CAPC1608N_80000_20
 70
0
 62
7
  6
CONTINUOUS
370
-3
390
F
  0
LAYER
  5
229
100
AcDbSymbolTableRecord
100
AcDbLayerTableRecord
  2
CAPC1608N_80000_21
 70
0
 62
7
  6
CONTINUOUS
370
-3
390
F
  0
LAYER
  5
22A
100
AcDbSymbolTableRecord
100
AcDbLayerTableRecord
  2
CAPC1608N_80000_22
 70
0
 62
7
  6
CONTINUOUS
370
-3
390
F
  0
LAYER
  5
22B
100
AcDbSymbolTableRecord
100
AcDbLayerTableRecord
  2
CAPC1608N_80000_23
 70
0
 62
7
  6
CONTINUOUS
370
-3
390
F
  0
LAYER
  5
22C
100
AcDbSymbolTableRecord
100
AcDbLayerTableRecord
  2
CAPC1608N_80000_24
 70
0
 62
7
  6
CONTINUOUS
370
-3
390
F
  0
LAYER
  5
22D
100
AcDbSymbolTableRecord
100
AcDbLayerTableRecord
  2
CAPC1608N_80000_25
 70
0
 62
7
  6
CONTINUOUS
370
-3
390
F
  0
LAYER
  5
22E
100
AcDbSymbolTableRecord
100
AcDbLayerTableRecord
  2
CAPC1608N_80000_26
 70
0
 62
7
  6
CONTINUOUS
370
-3
390
F
  0
LAYER
  5
22F
100
AcDbSymbolTableRecord
100
AcDbLayerTableRecord
  2
CAPC1608N_80000_27
 70
0
 62
7
  6
CONTINUOUS
370
-3
390
F
  0
LAYER
  5
230
100
AcDbSymbolTableRecord
100
AcDbLayerTableRecord
  2
CAPC1608N_80000_28
 70
0
 62
7
  6
CONTINUOUS
370
-3
390
F
  0
LAYER
  5
231
100
AcDbSymbolTableRecord
100
AcDbLayerTableRecord
  2
CAPC1608N_80000_29
 70
0
 62
7
  6
CONTINUOUS
370
-3
390
F
  0
LAYER
  5
232
100
AcDbSymbolTableRecord
100
AcDbLayerTableRecord
  2
CAPC1608N_80000_3
 70
0
 62
7
  6
CONTINUOUS
370
-3
390
F
  0
LAYER
  5
233
100
AcDbSymbolTableRecord
100
AcDbLayerTableRecord
  2
CAPC1608N_80000_30
 70
0
 62
7
  6
CONTINUOUS
370
-3
390
F
  0
LAYER
  5
234
100
AcDbSymbolTableRecord
100
AcDbLayerTableRecord
  2
CAPC1608N_80000_31
 70
0
 62
7
  6
CONTINUOUS
370
-3
390
F
  0
LAYER
  5
235
100
AcDbSymbolTableRecord
100
AcDbLayerTableRecord
  2
CAPC1608N_80000_32
 70
0
 62
7
  6
CONTINUOUS
370
-3
390
F
  0
LAYER
  5
236
100
AcDbSymbolTableRecord
100
AcDbLayerTableRecord
  2
CAPC1608N_80000_33
 70
0
 62
7
  6
CONTINUOUS
370
-3
390
F
  0
LAYER
  5
237
100
AcDbSymbolTableRecord
100
AcDbLayerTableRecord
  2
CAPC1608N_80000_34
 70
0
 62
7
  6
CONTINUOUS
370
-3
390
F
  0
LAYER
  5
238
100
AcDbSymbolTableRecord
100
AcDbLayerTableRecord
  2
CAPC1608N_80000_35
 70
0
 62
7
  6
CONTINUOUS
370
-3
390
F
  0
LAYER
  5
239
100
AcDbSymbolTableRecord
100
AcDbLayerTableRecord
  2
CAPC1608N_80000_36
 70
0
 62
7
  6
CONTINUOUS
370
-3
390
F
  0
LAYER
  5
23A
100
AcDbSymbolTableRecord
100
AcDbLayerTableRecord
  2
CAPC1608N_80000_4
 70
0
 62
7
  6
CONTINUOUS
370
-3
390
F
  0
LAYER
  5
23B
100
AcDbSymbolTableRecord
100
AcDbLayerTableRecord
  2
CAPC1608N_80000_5
 70
0
 62
7
  6
CONTINUOUS
370
-3
390
F
  0
LAYER
  5
23C
100
AcDbSymbolTableRecord
100
AcDbLayerTableRecord
  2
CAPC1608N_80000_6
 70
0
 62
7
  6
CONTINUOUS
370
-3
390
F
  0
LAYER
  5
23D
100
AcDbSymbolTableRecord
100
AcDbLayerTableRecord
  2
CAPC1608N_80000_7
 70
0
 62
7
  6
CONTINUOUS
370
-3
390
F
  0
LAYER
  5
23E
100
AcDbSymbolTableRecord
100
AcDbLayerTableRecord
  2
CAPC1608N_80000_8
 70
0
 62
7
  6
CONTINUOUS
370
-3
390
F
  0
LAYER
  5
23F
100
AcDbSymbolTableRecord
100
AcDbLayerTableRecord
  2
CAPC1608N_80000_9
 70
0
 62
7
  6
CONTINUOUS
370
-3
390
F
  0
LAYER
  5
240
100
AcDbSymbolTableRecord
100
AcDbLayerTableRecord
  2
CN-MRT4P5_2-VIMAR_1750000
 70
0
 62
7
  6
CONTINUOUS
370
-3
390
F
  0
LAYER
  5
241
100
AcDbSymbolTableRecord
100
AcDbLayerTableRecord
  2
CN-MRT4P5_3-VIMAR_1750000
 70
0
 62
7
  6
CONTINUOUS
370
-3
390
F
  0
LAYER
  5
242
100
AcDbSymbolTableRecord
100
AcDbLayerTableRecord
  2
CN-SOCKET-SMD2_0-2_430000
 70
0
 62
7
  6
CONTINUOUS
370
-3
390
F
  0
LAYER
  5
243
100
AcDbSymbolTableRecord
100
AcDbLayerTableRecord
  2
CN1-REF_SQUAREHOLE12_SPEA-VIMAR
 70
0
 62
7
  6
CONTINUOUS
370
-3
390
F
  0
LAYER
  5
244
100
AcDbSymbolTableRecord
100
AcDbLayerTableRecord
  2
CN1-REF_SQUAREHOLE12_SPEA-VIM_1
 70
0
 62
7
  6
CONTINUOUS
370
-3
390
F
  0
LAYER
  5
245
100
AcDbSymbolTableRecord
100
AcDbLayerTableRecord
  2
CN1-REF_SQUAREHOLE12_SPEA-VIM_2
 70
0
 62
7
  6
CONTINUOUS
370
-3
390
F
  0
LAYER
  5
246
100
AcDbSymbolTableRecord
100
AcDbLayerTableRecord
  2
CN1-REF_SQUAREHOLE12_SPEA-VIM_3
 70
0
 62
7
  6
CONTINUOUS
370
-3
390
F
  0
LAYER
  5
247
100
AcDbSymbolTableRecord
100
AcDbLayerTableRecord
  2
CN1-TP10_SMD-VIMAR_01_10000
 70
0
 62
7
  6
CONTINUOUS
370
-3
390
F
  0
LAYER
  5
248
100
AcDbSymbolTableRecord
100
AcDbLayerTableRecord
  2
CN1-TP10_SMD-VIMAR_01_10000_1
 70
0
 62
7
  6
CONTINUOUS
370
-3
390
F
  0
LAYER
  5
249
100
AcDbSymbolTableRecord
100
AcDbLayerTableRecord
  2
CN1-TP10_SMD-VIMAR_01_10000_2
 70
0
 62
7
  6
CONTINUOUS
370
-3
390
F
  0
LAYER
  5
24A
100
AcDbSymbolTableRecord
100
AcDbLayerTableRecord
  2
CN1-TP10_SMD-VIMAR_01_10000_3
 70
0
 62
7
  6
CONTINUOUS
370
-3
390
F
  0
LAYER
  5
24B
100
AcDbSymbolTableRecord
100
AcDbLayerTableRecord
  2
CN1-TP15_SMD-VIMAR_5000
 70
0
 62
7
  6
CONTINUOUS
370
-3
390
F
  0
LAYER
  5
24C
100
AcDbSymbolTableRecord
100
AcDbLayerTableRecord
  2
CN10-HEADER-SMD2_0-2-VIMAR_6500
 70
0
 62
7
  6
CONTINUOUS
370
-3
390
F
  0
LAYER
  5
24D
100
AcDbSymbolTableRecord
100
AcDbLayerTableRecord
  2
CN_MICROUSB_TYPEB_SMT_SET_30000
 70
0
 62
7
  6
CONTINUOUS
370
-3
390
F
  0
LAYER
  5
24E
100
AcDbSymbolTableRecord
100
AcDbLayerTableRecord
  2
CN_STRIP_2_P2_54_1-VIMAR_254000
 70
0
 62
7
  6
CONTINUOUS
370
-3
390
F
  0
LAYER
  5
24F
100
AcDbSymbolTableRecord
100
AcDbLayerTableRecord
  2
CN_STRIP_2_P2_54_1-VIMAR_2540_1
 70
0
 62
7
  6
CONTINUOUS
370
-3
390
F
  0
LAYER
  5
250
100
AcDbSymbolTableRecord
100
AcDbLayerTableRecord
  2
COLOR13
 70
0
 62
7
  6
CONTINUOUS
370
-3
390
F
  0
LAYER
  5
251
100
AcDbSymbolTableRecord
100
AcDbLayerTableRecord
  2
COLOR21
 70
0
 62
7
  6
CONTINUOUS
370
-3
390
F
  0
LAYER
  5
252
100
AcDbSymbolTableRecord
100
AcDbLayerTableRecord
  2
COLOR22
 70
0
 62
7
  6
CONTINUOUS
370
-3
390
F
  0
LAYER
  5
253
100
AcDbSymbolTableRecord
100
AcDbLayerTableRecord
  2
COLOR23
 70
0
 62
7
  6
CONTINUOUS
370
-3
390
F
  0
LAYER
  5
254
100
AcDbSymbolTableRecord
100
AcDbLayerTableRecord
  2
COLOR24
 70
0
 62
7
  6
CONTINUOUS
370
-3
390
F
  0
LAYER
  5
255
100
AcDbSymbolTableRecord
100
AcDbLayerTableRecord
  2
COLOR6
 70
0
 62
7
  6
CONTINUOUS
370
-3
390
F
  0
LAYER
  5
256
100
AcDbSymbolTableRecord
100
AcDbLayerTableRecord
  2
COORDINATE
 70
0
 62
7
  6
CONTINUOUS
370
-3
390
F
  0
LAYER
  5
257
100
AcDbSymbolTableRecord
100
AcDbLayerTableRecord
  2
COORD_ORIGINE
 70
0
 62
7
  6
CONTINUOUS
370
-3
390
F
  0
LAYER
  5
258
100
AcDbSymbolTableRecord
100
AcDbLayerTableRecord
  2
COPY_PUBLISH
 70
0
 62
7
  6
CONTINUOUS
370
-3
390
F
  0
LAYER
  5
259
100
AcDbSymbolTableRecord
100
AcDbLayerTableRecord
  2
COSMETIC
 70
0
 62
7
  6
CONTINUOUS
370
-3
390
F
  0
LAYER
  5
25A
100
AcDbSymbolTableRecord
100
AcDbLayerTableRecord
  2
COSMETICI
 70
0
 62
7
  6
CONTINUOUS
370
-3
390
F
  0
LAYER
  5
25B
100
AcDbSymbolTableRecord
100
AcDbLayerTableRecord
  2
CP-CE11-RF-VIMAR_630000
 70
0
 62
7
  6
CONTINUOUS
370
-3
390
F
  0
LAYER
  5
25C
100
AcDbSymbolTableRecord
100
AcDbLayerTableRecord
  2
CP-CE4-RF_550000
 70
0
 62
7
  6
CONTINUOUS
370
-3
390
F
  0
LAYER
  5
25D
100
AcDbSymbolTableRecord
100
AcDbLayerTableRecord
  2
CP-CE6-RF_820000
 70
0
 62
7
  6
CONTINUOUS
370
-3
390
F
  0
LAYER
  5
25E
100
AcDbSymbolTableRecord
100
AcDbLayerTableRecord
  2
CP-CE9-RF-VIMAR_1080000
 70
0
 62
7
  6
CONTINUOUS
370
-3
390
F
  0
LAYER
  5
25F
100
AcDbSymbolTableRecord
100
AcDbLayerTableRecord
  2
CP-CE9-RF-VIMAR_1080000_1
 70
0
 62
7
  6
CONTINUOUS
370
-3
390
F
  0
LAYER
  5
260
100
AcDbSymbolTableRecord
100
AcDbLayerTableRecord
  2
CP-DO-214AC-D-VIMAR_240000
 70
0
 62
7
  6
CONTINUOUS
370
-3
390
F
  0
LAYER
  5
261
100
AcDbSymbolTableRecord
100
AcDbLayerTableRecord
  2
CP-DO-214AC-D-VIMAR_240000_1
 70
0
 62
7
  6
CONTINUOUS
370
-3
390
F
  0
LAYER
  5
262
100
AcDbSymbolTableRecord
100
AcDbLayerTableRecord
  2
CP-L4-RF-FINE-VIMAR_470000
 70
0
 62
7
  6
CONTINUOUS
370
-3
390
F
  0
LAYER
  5
263
100
AcDbSymbolTableRecord
100
AcDbLayerTableRecord
  2
CP-L5-RF-VIMAR_280000
 70
0
 62
7
  6
CONTINUOUS
370
-3
390
F
  0
LAYER
  5
264
100
AcDbSymbolTableRecord
100
AcDbLayerTableRecord
  2
CURVE
 70
0
 62
7
  6
CONTINUOUS
370
-3
390
F
  0
LAYER
  5
265
100
AcDbSymbolTableRecord
100
AcDbLayerTableRecord
  2
DIOMELF3515N_160000
 70
0
 62
7
  6
CONTINUOUS
370
-3
390
F
  0
LAYER
  5
266
100
AcDbSymbolTableRecord
100
AcDbLayerTableRecord
  2
DRAFT
 70
0
 62
7
  6
CONTINUOUS
370
-3
390
F
  0
LAYER
  5
267
100
AcDbSymbolTableRecord
100
AcDbLayerTableRecord
  2
E4_MARK_10000
 70
0
 62
7
  6
CONTINUOUS
370
-3
390
F
  0
LAYER
  5
268
100
AcDbSymbolTableRecord
100
AcDbLayerTableRecord
  2
GEOMETRIA_SOLIDA
 70
0
 62
7
  6
CONTINUOUS
370
-3
390
F
  0
LAYER
  5
269
100
AcDbSymbolTableRecord
100
AcDbLayerTableRecord
  2
HVQFN64-9_0-9_0-9_0-9_0-1_0-0_5
 70
0
 62
7
  6
CONTINUOUS
370
-3
390
F
  0
LAYER
  5
26A
100
AcDbSymbolTableRecord
100
AcDbLayerTableRecord
  2
IMPORT_IGES
 70
0
 62
7
  6
CONTINUOUS
370
-3
390
F
  0
LAYER
  5
26B
100
AcDbSymbolTableRecord
100
AcDbLayerTableRecord
  2
IND-PS-10_0-6_0_600000
 70
0
 62
7
  6
CONTINUOUS
370
-3
390
F
  0
LAYER
  5
26C
100
AcDbSymbolTableRecord
100
AcDbLayerTableRecord
  2
IND-PS-7_3-4_5_450000
 70
0
 62
7
  6
CONTINUOUS
370
-3
390
F
  0
LAYER
  5
26D
100
AcDbSymbolTableRecord
100
AcDbLayerTableRecord
  2
INDC2012X130N_130000
 70
0
 62
7
  6
CONTINUOUS
370
-3
390
F
  0
LAYER
  5
26E
100
AcDbSymbolTableRecord
100
AcDbLayerTableRecord
  2
INDC2012X130N_130000_1
 70
0
 62
7
  6
CONTINUOUS
370
-3
390
F
  0
LAYER
  5
26F
100
AcDbSymbolTableRecord
100
AcDbLayerTableRecord
  2
IND_7X7_8X5_550000
 70
0
 62
7
  6
CONTINUOUS
370
-3
390
F
  0
LAYER
  5
270
100
AcDbSymbolTableRecord
100
AcDbLayerTableRecord
  2
INTFCLR_1
 70
0
 62
7
  6
CONTINUOUS
370
-3
390
F
  0
LAYER
  5
271
100
AcDbSymbolTableRecord
100
AcDbLayerTableRecord
  2
INTF_11
 70
0
 62
7
  6
CONTINUOUS
370
-3
390
F
  0
LAYER
  5
272
100
AcDbSymbolTableRecord
100
AcDbLayerTableRecord
  2
INTF_12
 70
0
 62
7
  6
CONTINUOUS
370
-3
390
F
  0
LAYER
  5
273
100
AcDbSymbolTableRecord
100
AcDbLayerTableRecord
  2
INTF_2
 70
0
 62
7
  6
CONTINUOUS
370
-3
390
F
  0
LAYER
  5
274
100
AcDbSymbolTableRecord
100
AcDbLayerTableRecord
  2
INTF_5
 70
0
 62
7
  6
CONTINUOUS
370
-3
390
F
  0
LAYER
  5
275
100
AcDbSymbolTableRecord
100
AcDbLayerTableRecord
  2
INTF_BLANK
 70
0
 62
7
  6
CONTINUOUS
370
-3
390
F
  0
LAYER
  5
276
100
AcDbSymbolTableRecord
100
AcDbLayerTableRecord
  2
INTF_CYAN
 70
0
 62
7
  6
CONTINUOUS
370
-3
390
F
  0
LAYER
  5
277
100
AcDbSymbolTableRecord
100
AcDbLayerTableRecord
  2
INTF_MAGENTA
 70
0
 62
7
  6
CONTINUOUS
370
-3
390
F
  0
LAYER
  5
278
100
AcDbSymbolTableRecord
100
AcDbLayerTableRecord
  2
INTF_YELLOW
 70
0
 62
7
  6
CONTINUOUS
370
-3
390
F
  0
LAYER
  5
279
100
AcDbSymbolTableRecord
100
AcDbLayerTableRecord
  2
K-THT-HONGFA-HF3F-L-H_1550000
 70
0
 62
7
  6
CONTINUOUS
370
-3
390
F
  0
LAYER
  5
27A
100
AcDbSymbolTableRecord
100
AcDbLayerTableRecord
  2
LEDC2812X90N_SIDE_90000
 70
0
 62
7
  6
CONTINUOUS
370
-3
390
F
  0
LAYER
  5
27B
100
AcDbSymbolTableRecord
100
AcDbLayerTableRecord
  2
LEDC2812X90N_SIDE_90000_1
 70
0
 62
7
  6
CONTINUOUS
370
-3
390
F
  0
LAYER
  5
27C
100
AcDbSymbolTableRecord
100
AcDbLayerTableRecord
  2
LEDC2812X90N_SIDE_90000_2
 70
0
 62
7
  6
CONTINUOUS
370
-3
390
F
  0
LAYER
  5
27D
100
AcDbSymbolTableRecord
100
AcDbLayerTableRecord
  2
LOGO_RESIST-RESTYLING_10000
 70
0
 62
7
  6
CONTINUOUS
370
-3
390
F
  0
LAYER
  5
27E
100
AcDbSymbolTableRecord
100
AcDbLayerTableRecord
  2
MM2-SWITCH-1-VIMAR_150000
 70
0
 62
7
  6
CONTINUOUS
370
-3
390
F
  0
LAYER
  5
27F
100
AcDbSymbolTableRecord
100
AcDbLayerTableRecord
  2
MM2-X-2-VIMAR_250000
 70
0
 62
7
  6
CONTINUOUS
370
-3
390
F
  0
LAYER
  5
280
100
AcDbSymbolTableRecord
100
AcDbLayerTableRecord
  2
MM3-MPAK-RF-VIMAR_120000
 70
0
 62
7
  6
CONTINUOUS
370
-3
390
F
  0
LAYER
  5
281
100
AcDbSymbolTableRecord
100
AcDbLayerTableRecord
  2
MM3-MPAK-RF-VIMAR_120000_1
 70
0
 62
7
  6
CONTINUOUS
370
-3
390
F
  0
LAYER
  5
282
100
AcDbSymbolTableRecord
100
AcDbLayerTableRecord
  2
MM3-MPAK-RF-VIMAR_120000_2
 70
0
 62
7
  6
CONTINUOUS
370
-3
390
F
  0
LAYER
  5
283
100
AcDbSymbolTableRecord
100
AcDbLayerTableRecord
  2
MM3-MPAK-RF-VIMAR_120000_3
 70
0
 62
7
  6
CONTINUOUS
370
-3
390
F
  0
LAYER
  5
284
100
AcDbSymbolTableRecord
100
AcDbLayerTableRecord
  2
MM3-MPAK-RF-VIMAR_120000_4
 70
0
 62
7
  6
CONTINUOUS
370
-3
390
F
  0
LAYER
  5
285
100
AcDbSymbolTableRecord
100
AcDbLayerTableRecord
  2
MM3-SOT-89-RF-VIMAR_150000
 70
0
 62
7
  6
CONTINUOUS
370
-3
390
F
  0
LAYER
  5
286
100
AcDbSymbolTableRecord
100
AcDbLayerTableRecord
  2
MM4-ABS-VIMAR_180000
 70
0
 62
7
  6
CONTINUOUS
370
-3
390
F
  0
LAYER
  5
287
100
AcDbSymbolTableRecord
100
AcDbLayerTableRecord
  2
MM4-X-9-VIMAR_50000
 70
0
 62
7
  6
CONTINUOUS
370
-3
390
F
  0
LAYER
  5
288
100
AcDbSymbolTableRecord
100
AcDbLayerTableRecord
  2
NO-PB_MARK_10000
 70
0
 62
7
  6
CONTINUOUS
370
-3
390
F
  0
LAYER
  5
289
100
AcDbSymbolTableRecord
100
AcDbLayerTableRecord
  2
NOTE
 70
0
 62
7
  6
CONTINUOUS
370
-3
390
F
  0
LAYER
  5
28A
100
AcDbSymbolTableRecord
100
AcDbLayerTableRecord
  2
PIANI
 70
0
 62
7
  6
CONTINUOUS
370
-3
390
F
  0
LAYER
  5
28B
100
AcDbSymbolTableRecord
100
AcDbLayerTableRecord
  2
PIANI_DI_RIFERIMENTO
 70
0
 62
7
  6
CONTINUOUS
370
-3
390
F
  0
LAYER
  5
28C
100
AcDbSymbolTableRecord
100
AcDbLayerTableRecord
  2
PIANI_ORIGINE
 70
0
 62
7
  6
CONTINUOUS
370
-3
390
F
  0
LAYER
  5
28D
100
AcDbSymbolTableRecord
100
AcDbLayerTableRecord
  2
PIANI_RIFERIMENTO
 70
0
 62
7
  6
CONTINUOUS
370
-3
390
F
  0
LAYER
  5
28E
100
AcDbSymbolTableRecord
100
AcDbLayerTableRecord
  2
PUNTI
 70
0
 62
7
  6
CONTINUOUS
370
-3
390
F
  0
LAYER
  5
28F
100
AcDbSymbolTableRecord
100
AcDbLayerTableRecord
  2
RACCORDO
 70
0
 62
7
  6
CONTINUOUS
370
-3
390
F
  0
LAYER
  5
290
100
AcDbSymbolTableRecord
100
AcDbLayerTableRecord
  2
RD-R50-1W-1-VIMAR_1700000
 70
0
 62
7
  6
CONTINUOUS
370
-3
390
F
  0
LAYER
  5
291
100
AcDbSymbolTableRecord
100
AcDbLayerTableRecord
  2
RD-ZNR50-1-VIMAR_1150000
 70
0
 62
7
  6
CONTINUOUS
370
-3
390
F
  0
LAYER
  5
292
100
AcDbSymbolTableRecord
100
AcDbLayerTableRecord
  2
RD_D6H8_5_VIMAR_850000
 70
0
 62
7
  6
CONTINUOUS
370
-3
390
F
  0
LAYER
  5
293
100
AcDbSymbolTableRecord
100
AcDbLayerTableRecord
  2
RESC1608N_45000
 70
0
 62
7
  6
CONTINUOUS
370
-3
390
F
  0
LAYER
  5
294
100
AcDbSymbolTableRecord
100
AcDbLayerTableRecord
  2
RESC1608N_45000_1
 70
0
 62
7
  6
CONTINUOUS
370
-3
390
F
  0
LAYER
  5
295
100
AcDbSymbolTableRecord
100
AcDbLayerTableRecord
  2
RESC1608N_45000_10
 70
0
 62
7
  6
CONTINUOUS
370
-3
390
F
  0
LAYER
  5
296
100
AcDbSymbolTableRecord
100
AcDbLayerTableRecord
  2
RESC1608N_45000_11
 70
0
 62
7
  6
CONTINUOUS
370
-3
390
F
  0
LAYER
  5
297
100
AcDbSymbolTableRecord
100
AcDbLayerTableRecord
  2
RESC1608N_45000_12
 70
0
 62
7
  6
CONTINUOUS
370
-3
390
F
  0
LAYER
  5
298
100
AcDbSymbolTableRecord
100
AcDbLayerTableRecord
  2
RESC1608N_45000_13
 70
0
 62
7
  6
CONTINUOUS
370
-3
390
F
  0
LAYER
  5
299
100
AcDbSymbolTableRecord
100
AcDbLayerTableRecord
  2
RESC1608N_45000_14
 70
0
 62
7
  6
CONTINUOUS
370
-3
390
F
  0
LAYER
  5
29A
100
AcDbSymbolTableRecord
100
AcDbLayerTableRecord
  2
RESC1608N_45000_15
 70
0
 62
7
  6
CONTINUOUS
370
-3
390
F
  0
LAYER
  5
29B
100
AcDbSymbolTableRecord
100
AcDbLayerTableRecord
  2
RESC1608N_45000_16
 70
0
 62
7
  6
CONTINUOUS
370
-3
390
F
  0
LAYER
  5
29C
100
AcDbSymbolTableRecord
100
AcDbLayerTableRecord
  2
RESC1608N_45000_17
 70
0
 62
7
  6
CONTINUOUS
370
-3
390
F
  0
LAYER
  5
29D
100
AcDbSymbolTableRecord
100
AcDbLayerTableRecord
  2
RESC1608N_45000_18
 70
0
 62
7
  6
CONTINUOUS
370
-3
390
F
  0
LAYER
  5
29E
100
AcDbSymbolTableRecord
100
AcDbLayerTableRecord
  2
RESC1608N_45000_19
 70
0
 62
7
  6
CONTINUOUS
370
-3
390
F
  0
LAYER
  5
29F
100
AcDbSymbolTableRecord
100
AcDbLayerTableRecord
  2
RESC1608N_45000_2
 70
0
 62
7
  6
CONTINUOUS
370
-3
390
F
  0
LAYER
  5
2A0
100
AcDbSymbolTableRecord
100
AcDbLayerTableRecord
  2
RESC1608N_45000_20
 70
0
 62
7
  6
CONTINUOUS
370
-3
390
F
  0
LAYER
  5
2A1
100
AcDbSymbolTableRecord
100
AcDbLayerTableRecord
  2
RESC1608N_45000_21
 70
0
 62
7
  6
CONTINUOUS
370
-3
390
F
  0
LAYER
  5
2A2
100
AcDbSymbolTableRecord
100
AcDbLayerTableRecord
  2
RESC1608N_45000_22
 70
0
 62
7
  6
CONTINUOUS
370
-3
390
F
  0
LAYER
  5
2A3
100
AcDbSymbolTableRecord
100
AcDbLayerTableRecord
  2
RESC1608N_45000_23
 70
0
 62
7
  6
CONTINUOUS
370
-3
390
F
  0
LAYER
  5
2A4
100
AcDbSymbolTableRecord
100
AcDbLayerTableRecord
  2
RESC1608N_45000_24
 70
0
 62
7
  6
CONTINUOUS
370
-3
390
F
  0
LAYER
  5
2A5
100
AcDbSymbolTableRecord
100
AcDbLayerTableRecord
  2
RESC1608N_45000_25
 70
0
 62
7
  6
CONTINUOUS
370
-3
390
F
  0
LAYER
  5
2A6
100
AcDbSymbolTableRecord
100
AcDbLayerTableRecord
  2
RESC1608N_45000_26
 70
0
 62
7
  6
CONTINUOUS
370
-3
390
F
  0
LAYER
  5
2A7
100
AcDbSymbolTableRecord
100
AcDbLayerTableRecord
  2
RESC1608N_45000_27
 70
0
 62
7
  6
CONTINUOUS
370
-3
390
F
  0
LAYER
  5
2A8
100
AcDbSymbolTableRecord
100
AcDbLayerTableRecord
  2
RESC1608N_45000_28
 70
0
 62
7
  6
CONTINUOUS
370
-3
390
F
  0
LAYER
  5
2A9
100
AcDbSymbolTableRecord
100
AcDbLayerTableRecord
  2
RESC1608N_45000_29
 70
0
 62
7
  6
CONTINUOUS
370
-3
390
F
  0
LAYER
  5
2AA
100
AcDbSymbolTableRecord
100
AcDbLayerTableRecord
  2
RESC1608N_45000_3
 70
0
 62
7
  6
CONTINUOUS
370
-3
390
F
  0
LAYER
  5
2AB
100
AcDbSymbolTableRecord
100
AcDbLayerTableRecord
  2
RESC1608N_45000_30
 70
0
 62
7
  6
CONTINUOUS
370
-3
390
F
  0
LAYER
  5
2AC
100
AcDbSymbolTableRecord
100
AcDbLayerTableRecord
  2
RESC1608N_45000_31
 70
0
 62
7
  6
CONTINUOUS
370
-3
390
F
  0
LAYER
  5
2AD
100
AcDbSymbolTableRecord
100
AcDbLayerTableRecord
  2
RESC1608N_45000_32
 70
0
 62
7
  6
CONTINUOUS
370
-3
390
F
  0
LAYER
  5
2AE
100
AcDbSymbolTableRecord
100
AcDbLayerTableRecord
  2
RESC1608N_45000_33
 70
0
 62
7
  6
CONTINUOUS
370
-3
390
F
  0
LAYER
  5
2AF
100
AcDbSymbolTableRecord
100
AcDbLayerTableRecord
  2
RESC1608N_45000_34
 70
0
 62
7
  6
CONTINUOUS
370
-3
390
F
  0
LAYER
  5
2B0
100
AcDbSymbolTableRecord
100
AcDbLayerTableRecord
  2
RESC1608N_45000_35
 70
0
 62
7
  6
CONTINUOUS
370
-3
390
F
  0
LAYER
  5
2B1
100
AcDbSymbolTableRecord
100
AcDbLayerTableRecord
  2
RESC1608N_45000_36
 70
0
 62
7
  6
CONTINUOUS
370
-3
390
F
  0
LAYER
  5
2B2
100
AcDbSymbolTableRecord
100
AcDbLayerTableRecord
  2
RESC1608N_45000_37
 70
0
 62
7
  6
CONTINUOUS
370
-3
390
F
  0
LAYER
  5
2B3
100
AcDbSymbolTableRecord
100
AcDbLayerTableRecord
  2
RESC1608N_45000_38
 70
0
 62
7
  6
CONTINUOUS
370
-3
390
F
  0
LAYER
  5
2B4
100
AcDbSymbolTableRecord
100
AcDbLayerTableRecord
  2
RESC1608N_45000_39
 70
0
 62
7
  6
CONTINUOUS
370
-3
390
F
  0
LAYER
  5
2B5
100
AcDbSymbolTableRecord
100
AcDbLayerTableRecord
  2
RESC1608N_45000_4
 70
0
 62
7
  6
CONTINUOUS
370
-3
390
F
  0
LAYER
  5
2B6
100
AcDbSymbolTableRecord
100
AcDbLayerTableRecord
  2
RESC1608N_45000_40
 70
0
 62
7
  6
CONTINUOUS
370
-3
390
F
  0
LAYER
  5
2B7
100
AcDbSymbolTableRecord
100
AcDbLayerTableRecord
  2
RESC1608N_45000_41
 70
0
 62
7
  6
CONTINUOUS
370
-3
390
F
  0
LAYER
  5
2B8
100
AcDbSymbolTableRecord
100
AcDbLayerTableRecord
  2
RESC1608N_45000_42
 70
0
 62
7
  6
CONTINUOUS
370
-3
390
F
  0
LAYER
  5
2B9
100
AcDbSymbolTableRecord
100
AcDbLayerTableRecord
  2
RESC1608N_45000_43
 70
0
 62
7
  6
CONTINUOUS
370
-3
390
F
  0
LAYER
  5
2BA
100
AcDbSymbolTableRecord
100
AcDbLayerTableRecord
  2
RESC1608N_45000_44
 70
0
 62
7
  6
CONTINUOUS
370
-3
390
F
  0
LAYER
  5
2BB
100
AcDbSymbolTableRecord
100
AcDbLayerTableRecord
  2
RESC1608N_45000_5
 70
0
 62
7
  6
CONTINUOUS
370
-3
390
F
  0
LAYER
  5
2BC
100
AcDbSymbolTableRecord
100
AcDbLayerTableRecord
  2
RESC1608N_45000_6
 70
0
 62
7
  6
CONTINUOUS
370
-3
390
F
  0
LAYER
  5
2BD
100
AcDbSymbolTableRecord
100
AcDbLayerTableRecord
  2
RESC1608N_45000_7
 70
0
 62
7
  6
CONTINUOUS
370
-3
390
F
  0
LAYER
  5
2BE
100
AcDbSymbolTableRecord
100
AcDbLayerTableRecord
  2
RESC1608N_45000_8
 70
0
 62
7
  6
CONTINUOUS
370
-3
390
F
  0
LAYER
  5
2BF
100
AcDbSymbolTableRecord
100
AcDbLayerTableRecord
  2
RESC1608N_45000_9
 70
0
 62
7
  6
CONTINUOUS
370
-3
390
F
  0
LAYER
  5
2C0
100
AcDbSymbolTableRecord
100
AcDbLayerTableRecord
  2
RGB__255__255__255__
 70
0
 62
7
  6
CONTINUOUS
370
-3
390
F
  0
LAYER
  5
2C1
100
AcDbSymbolTableRecord
100
AcDbLayerTableRecord
  2
RY-S13-3_2-VIMAR_1500000
 70
0
 62
7
  6
CONTINUOUS
370
-3
390
F
  0
LAYER
  5
2C2
100
AcDbSymbolTableRecord
100
AcDbLayerTableRecord
  2
SC70-6_REF_H1_1_110000
 70
0
 62
7
  6
CONTINUOUS
370
-3
390
F
  0
LAYER
  5
2C3
100
AcDbSymbolTableRecord
100
AcDbLayerTableRecord
  2
SIMBOLI
 70
0
 62
7
  6
CONTINUOUS
370
-3
390
F
  0
LAYER
  5
2C4
100
AcDbSymbolTableRecord
100
AcDbLayerTableRecord
  2
SMUSSO
 70
0
 62
7
  6
CONTINUOUS
370
-3
390
F
  0
LAYER
  5
2C5
100
AcDbSymbolTableRecord
100
AcDbLayerTableRecord
  2
SNAPLINE
 70
0
 62
7
  6
CONTINUOUS
370
-3
390
F
  0
LAYER
  5
2C6
100
AcDbSymbolTableRecord
100
AcDbLayerTableRecord
  2
SOD123_135000
 70
0
 62
7
  6
CONTINUOUS
370
-3
390
F
  0
LAYER
  5
2C7
100
AcDbSymbolTableRecord
100
AcDbLayerTableRecord
  2
SOD123_135000_1
 70
0
 62
7
  6
CONTINUOUS
370
-3
390
F
  0
LAYER
  5
2C8
100
AcDbSymbolTableRecord
100
AcDbLayerTableRecord
  2
SOIC-8-7A-5_0-6_2-1_75-REF_1750
 70
0
 62
7
  6
CONTINUOUS
370
-3
390
F
  0
LAYER
  5
2C9
100
AcDbSymbolTableRecord
100
AcDbLayerTableRecord
  2
SOP8-T1-RF-FINE-VIMAR_150000
 70
0
 62
7
  6
CONTINUOUS
370
-3
390
F
  0
LAYER
  5
2CA
100
AcDbSymbolTableRecord
100
AcDbLayerTableRecord
  2
SOT95P280X110-6N_110000
 70
0
 62
7
  6
CONTINUOUS
370
-3
390
F
  0
LAYER
  5
2CB
100
AcDbSymbolTableRecord
100
AcDbLayerTableRecord
  2
SOT95P280X110-6N_110000_1
 70
0
 62
7
  6
CONTINUOUS
370
-3
390
F
  0
LAYER
  5
2CC
100
AcDbSymbolTableRecord
100
AcDbLayerTableRecord
  2
STANDARD
 70
0
 62
7
  6
CONTINUOUS
370
-3
390
F
  0
LAYER
  5
2CD
100
AcDbSymbolTableRecord
100
AcDbLayerTableRecord
  2
SUPERFICI
 70
0
 62
7
  6
CONTINUOUS
370
-3
390
F
  0
LAYER
  5
2CE
100
AcDbSymbolTableRecord
100
AcDbLayerTableRecord
  2
TP10_SMD_0
 70
0
 62
7
  6
CONTINUOUS
370
-3
390
F
  0
LAYER
  5
2CF
100
AcDbSymbolTableRecord
100
AcDbLayerTableRecord
  2
TP10_SMD_0_1
 70
0
 62
7
  6
CONTINUOUS
370
-3
390
F
  0
LAYER
  5
2D0
100
AcDbSymbolTableRecord
100
AcDbLayerTableRecord
  2
TRASH
 70
0
 62
7
  6
CONTINUOUS
370
-3
390
F
  0
LAYER
  5
2D1
100
AcDbSymbolTableRecord
100
AcDbLayerTableRecord
  2
TSSOP14-RF-3-VIMAR_110000
 70
0
 62
7
  6
CONTINUOUS
370
-3
390
F
  0
LAYER
  5
2D2
100
AcDbSymbolTableRecord
100
AcDbLayerTableRecord
  2
TSSOP8-RF-1-VIMAR_0
 70
0
 62
7
  6
CONTINUOUS
370
-3
390
F
  0
LAYER
  5
2D3
100
AcDbSymbolTableRecord
100
AcDbLayerTableRecord
  2
XSEC_DATUMS
 70
0
 62
7
  6
CONTINUOUS
370
-3
390
F
  0
LAYER
  5
2D4
100
AcDbSymbolTableRecord
100
AcDbLayerTableRecord
  2
___SHELL
 70
0
 62
7
  6
CONTINUOUS
370
-3
390
F
  0
ENDTAB
  0
TABLE
  2
STYLE
  5
3
100
AcDbSymbolTable
 70
1
  0
STYLE
  5
11
100
AcDbSymbolTableRecord
100
AcDbTextStyleTableRecord
  2
STANDARD
 70
0
 40
0.0
 41
0.8
 50
0.0
 71
0
 42
0.2
  3
txt
  4

  0
STYLE
  5
2D5
100
AcDbSymbolTableRecord
100
AcDbTextStyleTableRecord
  2
TEXTSTYLE_1
 70
0
 40
0.0
 41
0.8
 50
0.0
 71
0
 42
0.2
  3
gdt
  4

  0
ENDTAB
  0
TABLE
  2
VIEW
  5
6
100
AcDbSymbolTable
 70
0
  0
ENDTAB
  0
TABLE
  2
UCS
  5
7
100
AcDbSymbolTable
 70
0
  0
ENDTAB
  0
TABLE
  2
APPID
  5
9
100
AcDbSymbolTable
 70
1
  0
APPID
  5
2D6
100
AcDbSymbolTableRecord
100
AcDbRegAppTableRecord
  2
ACAD
 70
0
  0
ENDTAB
  0
TABLE
  2
BLOCK_RECORD
  5
1
100
AcDbSymbolTable
 70
0
  0
BLOCK_RECORD
  5
2D7
100
AcDbSymbolTableRecord
100
AcDbBlockTableRecord
  2
*Model_Space
  0
BLOCK_RECORD
  5
2D8
100
AcDbSymbolTableRecord
100
AcDbBlockTableRecord
  2
*Paper_Space
  0
BLOCK_RECORD
  5
2D9
100
AcDbSymbolTableRecord
100
AcDbBlockTableRecord
  2
_FILLED
  0
BLOCK_RECORD
  5
2DA
100
AcDbSymbolTableRecord
100
AcDbBlockTableRecord
  2
*D0
  0
BLOCK_RECORD
  5
2DB
100
AcDbSymbolTableRecord
100
AcDbBlockTableRecord
  2
*D1
  0
BLOCK_RECORD
  5
2DC
100
AcDbSymbolTableRecord
100
AcDbBlockTableRecord
  2
*D2
  0
BLOCK_RECORD
  5
2DD
100
AcDbSymbolTableRecord
100
AcDbBlockTableRecord
  2
*D3
  0
ENDTAB
  0
TABLE
  2
DIMSTYLE
  5
A
100
AcDbSymbolTable
 70
1
100
AcDbDimStyleTable
 71
0
  0
DIMSTYLE
105
2DE
100
AcDbSymbolTableRecord
100
AcDbDimStyleTableRecord
  2
STANDARD
 70
0
  3

  4

 40
1.0
 41
3.0
 42
0.5
 43
0.38
 44
1.5
 45
0.0
 46
0.0
 47
0.01
 48
0.01
140
3.0
141
0.09
142
0.0
143
25.4
144
1.0
145
0.0
146
1.0
147
0.625
 71
1
 72
0
 73
0
 74
0
 75
0
 76
0
 77
1
 78
8
 79
2
170
0
171
1
172
0
173
0
174
0
175
0
176
0
177
0
178
0
270
2
179
2
271
2
272
2
273
2
274
2
275
0
280
0
281
0
282
0
283
1
284
8
285
0
286
0
287
3
288
0
340
11
278
44
341
2D9
342
2D9
343
2D9
344
2D9
  0
DIMSTYLE
105
2DF
100
AcDbSymbolTableRecord
100
AcDbDimStyleTableRecord
  2
DIMSTYLE_1
 70
0
  3

  4

 40
1.0
 41
3.0
 42
0.5
 43
0.38
 44
1.5
 45
0.0
 46
0.0
 47
0.0
 48
0.0
140
3.0
141
0.09
142
0.0
143
25.4
144
1.0
145
0.0
146
1.0
147
0.75
 71
0
 72
0
 73
0
 74
0
 75
0
 76
0
 77
1
 78
8
 79
2
170
0
171
1
172
0
173
0
174
0
175
0
176
0
177
0
178
0
270
2
179
2
271
2
272
2
273
2
274
2
275
0
280
0
281
0
282
0
283
1
284
8
285
0
286
0
287
3
288
0
340
11
278
44
341
2D9
342
2D9
343
2D9
344
2D9
  0
ENDTAB
  0
ENDSEC
  0
SECTION
  2
BLOCKS
  0
BLOCK
  5
20
100
AcDbEntity
  8
0
100
AcDbBlockBegin
  2
*Model_Space
 70
0
 10
0.0
 20
0.0
 30
0.0
  3
*Model_Space
  1

  0
ENDBLK
  5
21
100
AcDbEntity
  8
0
100
AcDbBlockEnd
  0
BLOCK
  5
1C
100
AcDbEntity
  8
0
100
AcDbBlockBegin
  2
*Paper_Space
 70
0
 10
0.0
 20
0.0
 30
0.0
  3
*Paper_Space
  1

  0
ENDBLK
  5
1D
100
AcDbEntity
  8
0
100
AcDbBlockEnd
  0
BLOCK
  5
2E0
100
AcDbEntity
  8
0
100
AcDbBlockBegin
  2
_FILLED
 70
64
 10
0.0
 20
0.0
  3
_FILLED
  1

  0
SOLID
  5
2E1
100
AcDbEntity
  8
0
  6
BYBLOCK
 62
0
100
AcDbTrace
 10
0.0
 20
0.0
 11
-1.0
 21
0.3166666667
 12
-1.0
 22
-0.3166666667
 13
-1.0
 23
-0.3166666667
  0
ENDBLK
  5
2E2
100
AcDbEntity
  8
0
  6
BYBLOCK
 62
0
100
AcDbBlockEnd
  0
BLOCK
  5
2E3
100
AcDbEntity
  8
0
100
AcDbBlockBegin
 62
7
  6
CONTINUOUS
  2
*D0
 70
65
 10
0.0
 20
0.0
  3
*D0
  1

  0
LINE
  5
2E4
100
AcDbEntity
  8
0
100
AcDbLine
 62
7
  6
CONTINUOUS
 10
-76.9588829483
 20
41.1149194088
 11
-76.9588829483
 21
52.1645921033
  0
LINE
  5
2E5
100
AcDbEntity
  8
0
100
AcDbLine
 62
7
  6
CONTINUOUS
 10
-47.4588829483
 20
33.2665034437
 11
-47.4588829483
 21
52.1645921033
  0
LINE
  5
2E6
100
AcDbEntity
  8
0
100
AcDbLine
 62
7
  6
CONTINUOUS
 10
-76.9588829483
 20
50.6645921033
 11
-62.2088829483
 21
50.6645921033
  0
LINE
  5
2E7
100
AcDbEntity
  8
0
100
AcDbLine
 62
7
  6
CONTINUOUS
 10
-47.4588829483
 20
50.6645921033
 11
-62.2088829483
 21
50.6645921033
  0
INSERT
  5
2E8
100
AcDbEntity
  8
0
100
AcDbBlockReference
 62
7
  6
CONTINUOUS
  2
_FILLED
 10
-76.9588829483
 20
50.6645921033
 41
3.0
 42
3.0
 43
3.0
 50
180.0
  0
INSERT
  5
2E9
100
AcDbEntity
  8
0
100
AcDbBlockReference
 62
7
  6
CONTINUOUS
  2
_FILLED
 10
-47.4588829483
 20
50.6645921033
 41
3.0
 42
3.0
 43
3.0
  0
ENDBLK
  5
2EA
100
AcDbEntity
  8
0
  6
BYBLOCK
 62
0
100
AcDbBlockEnd
  0
BLOCK
  5
2EB
100
AcDbEntity
  8
0
100
AcDbBlockBegin
 62
7
  6
CONTINUOUS
  2
*D1
 70
65
 10
0.0
 20
0.0
  3
*D1
  1

  0
LINE
  5
2EC
100
AcDbEntity
  8
0
100
AcDbLine
 62
7
  6
CONTINUOUS
 10
-97.4588829483
 20
36.9030606737
 11
-97.4588829483
 21
61.8824333929
  0
LINE
  5
2ED
100
AcDbEntity
  8
0
100
AcDbLine
 62
7
  6
CONTINUOUS
 10
-47.4588829483
 20
30.4022177213
 11
-47.4588829483
 21
61.8824333929
  0
LINE
  5
2EE
100
AcDbEntity
  8
0
100
AcDbLine
 62
7
  6
CONTINUOUS
 10
-97.4588829483
 20
60.3824333929
 11
-72.4588829483
 21
60.3824333929
  0
LINE
  5
2EF
100
AcDbEntity
  8
0
100
AcDbLine
 62
7
  6
CONTINUOUS
 10
-47.4588829483
 20
60.3824333929
 11
-72.4588829483
 21
60.3824333929
  0
INSERT
  5
2F0
100
AcDbEntity
  8
0
100
AcDbBlockReference
 62
7
  6
CONTINUOUS
  2
_FILLED
 10
-97.4588829483
 20
60.3824333929
 41
3.0
 42
3.0
 43
3.0
 50
180.0
  0
INSERT
  5
2F1
100
AcDbEntity
  8
0
100
AcDbBlockReference
 62
7
  6
CONTINUOUS
  2
_FILLED
 10
-47.4588829483
 20
60.3824333929
 41
3.0
 42
3.0
 43
3.0
  0
ENDBLK
  5
2F2
100
AcDbEntity
  8
0
  6
BYBLOCK
 62
0
100
AcDbBlockEnd
  0
BLOCK
  5
2F3
100
AcDbEntity
  8
0
100
AcDbBlockBegin
 62
7
  6
CONTINUOUS
  2
*D2
 70
65
 10
0.0
 20
0.0
  3
*D2
  1

  0
LINE
  5
2F4
100
AcDbEntity
  8
0
100
AcDbLine
 62
7
  6
CONTINUOUS
 10
-33.65
 20
40.6148242172
 11
-33.65
 21
52.2236462766
  0
LINE
  5
2F5
100
AcDbEntity
  8
0
100
AcDbLine
 62
7
  6
CONTINUOUS
 10
33.65
 20
40.6148242172
 11
33.65
 21
52.2236462766
  0
LINE
  5
2F6
100
AcDbEntity
  8
0
100
AcDbLine
 62
7
  6
CONTINUOUS
 10
-33.65
 20
50.7236462766
 11
0.0
 21
50.7236462766
  0
LINE
  5
2F7
100
AcDbEntity
  8
0
100
AcDbLine
 62
7
  6
CONTINUOUS
 10
33.65
 20
50.7236462766
 11
0.0
 21
50.7236462766
  0
INSERT
  5
2F8
100
AcDbEntity
  8
0
100
AcDbBlockReference
 62
7
  6
CONTINUOUS
  2
_FILLED
 10
-33.65
 20
50.7236462766
 41
3.0
 42
3.0
 43
3.0
 50
180.0
  0
INSERT
  5
2F9
100
AcDbEntity
  8
0
100
AcDbBlockReference
 62
7
  6
CONTINUOUS
  2
_FILLED
 10
33.65
 20
50.7236462766
 41
3.0
 42
3.0
 43
3.0
  0
ENDBLK
  5
2FA
100
AcDbEntity
  8
0
  6
BYBLOCK
 62
0
100
AcDbBlockEnd
  0
BLOCK
  5
2FB
100
AcDbEntity
  8
0
100
AcDbBlockBegin
 62
7
  6
CONTINUOUS
  2
*D3
 70
65
 10
0.0
 20
0.0
  3
*D3
  1

  0
LINE
  5
2FC
100
AcDbEntity
  8
0
100
AcDbLine
 62
7
  6
CONTINUOUS
 10
33.4000042308
 20
42.7236462766
 11
43.2783350929
 21
42.7236462766
  0
LINE
  5
2FD
100
AcDbEntity
  8
0
100
AcDbLine
 62
7
  6
CONTINUOUS
 10
33.4000042308
 20
-6.2763537234
 11
43.2783350929
 21
-6.2763537234
  0
LINE
  5
2FE
100
AcDbEntity
  8
0
100
AcDbLine
 62
7
  6
CONTINUOUS
 10
41.7783350929
 20
42.7236462766
 11
41.7783350929
 21
18.2236462766
  0
LINE
  5
2FF
100
AcDbEntity
  8
0
100
AcDbLine
 62
7
  6
CONTINUOUS
 10
41.7783350929
 20
-6.2763537234
 11
41.7783350929
 21
18.2236462766
  0
INSERT
  5
300
100
AcDbEntity
  8
0
100
AcDbBlockReference
 62
7
  6
CONTINUOUS
  2
_FILLED
 10
41.7783350929
 20
42.7236462766
 41
3.0
 42
3.0
 43
3.0
 50
90.0
  0
INSERT
  5
301
100
AcDbEntity
  8
0
100
AcDbBlockReference
 62
7
  6
CONTINUOUS
  2
_FILLED
 10
41.7783350929
 20
-6.2763537234
 41
3.0
 42
3.0
 43
3.0
 50
270.0
  0
ENDBLK
  5
302
100
AcDbEntity
  8
0
  6
BYBLOCK
 62
0
100
AcDbBlockEnd
  0
ENDSEC
  0
SECTION
  2
ENTITIES
  0
DIMENSION
  5
303
100
AcDbEntity
  8
0
100
AcDbDimension
 62
7
  6
CONTINUOUS
  2
*D0
 10
-47.4588829483
 20
50.6645921033
 11
-66.494597234
 21
50.6645921033
 70
160
 71
2
 72
2
 41
0.9
 42
29.5
  3
DIMSTYLE_1
100
AcDbAlignedDimension
 13
-76.9588829483
 23
40.6149194088
 14
-47.4588829483
 24
32.7665034437
100
AcDbRotatedDimension
  0
DIMENSION
  5
304
100
AcDbEntity
  8
0
100
AcDbDimension
 62
7
  6
CONTINUOUS
  2
*D1
 10
-47.4588829483
 20
60.3824333929
 11
-74.7088829483
 21
60.3824333929
 70
160
 71
2
 72
2
 41
0.9
 42
50.0
  3
DIMSTYLE_1
100
AcDbAlignedDimension
 13
-97.4588829483
 23
36.4030606737
 14
-47.4588829483
 24
29.9022177213
100
AcDbRotatedDimension
  0
DIMENSION
  5
305
100
AcDbEntity
  8
0
100
AcDbDimension
 62
7
  6
CONTINUOUS
  2
*D2
 10
33.65
 20
50.7236462766
 11
-4.2857142857
 21
50.7236462766
 70
160
 71
2
 72
2
 41
0.9
 42
67.3
  3
DIMSTYLE_1
100
AcDbAlignedDimension
 13
-33.65
 23
40.1148242172
 14
33.65
 24
40.1148242172
100
AcDbRotatedDimension
  0
DIMENSION
  5
306
100
AcDbEntity
  8
0
100
AcDbDimension
 62
7
  6
CONTINUOUS
  2
*D3
 10
41.7783350929
 20
-6.2763537234
 11
41.7783350929
 21
15.8665034195
 70
160
 71
2
 72
2
 41
0.9
 42
49.0
  3
DIMSTYLE_1
100
AcDbAlignedDimension
 13
32.9000042308
 23
42.7236462766
 14
32.9000042308
 24
-6.2763537234
 50
270.0
100
AcDbRotatedDimension
  0
LWPOLYLINE
  5
307
100
AcDbEntity
  8
RACCORDO
100
AcDbPolyline
 62
7
  6
CONTINUOUS
 90
7
 70
0
 10
-33.0767749435
 20
42.6504212201
 10
-33.0983362052
 20
42.6258354925
 10
-33.1165040978
 20
42.5986459497
 10
-33.1309677771
 20
42.5693177923
 10
-33.1414797761
 20
42.5383528116
 10
-33.1478602393
 20
42.5062808042
 10
-33.15
 20
42.4736505074
  0
LINE
  5
308
100
AcDbEntity
  8
RACCORDO
100
AcDbLine
 62
250
  6
CONTINUOUS
 10
-30.9999957692
 20
42.7236462766
 11
-31.0130943479
 21
42.7105476979
  0
LINE
  5
309
100
AcDbEntity
  8
RACCORDO
100
AcDbLine
 62
250
  6
CONTINUOUS
 10
-30.75
 20
42.4736505074
 11
-30.750383646
 21
42.4732668614
  0
LINE
  5
30A
100
AcDbEntity
  8
RACCORDO
100
AcDbLine
 62
7
  6
CONTINUOUS
 10
-33.0521892159
 20
42.6719824818
 11
-33.0767749435
 21
42.6504212201
  0
LINE
  5
30B
100
AcDbEntity
  8
RACCORDO
100
AcDbLine
 62
250
  6
CONTINUOUS
 10
-33.6325830976
 20
40.1235320052
 11
-33.65
 21
40.1148242172
  0
LWPOLYLINE
  5
30C
100
AcDbEntity
  8
RACCORDO
100
AcDbPolyline
 62
7
  6
CONTINUOUS
 90
5
 70
0
 10
-33.3560139352
 20
40.5708716476
 10
-33.3359211224
 20
40.5803652249
 10
-33.2759554458
 20
40.6026064176
 10
-33.213641691
 20
40.6170094875
 10
-33.1499991391
 20
40.6233374753
  0
LWPOLYLINE
  5
30D
100
AcDbEntity
  8
RACCORDO
100
AcDbPolyline
 62
7
  6
CONTINUOUS
 90
4
 70
0
 10
-32.964706535
 20
42.7151260527
 10
-32.9956715157
 20
42.7046140537
 10
-33.0249996731
 20
42.6901503744
 10
-33.0521892159
 20
42.6719824818
  0
LWPOLYLINE
  5
30E
100
AcDbEntity
  8
RACCORDO
100
AcDbPolyline
 62
7
  6
CONTINUOUS
 90
19
 70
0
 10
-28.6330986169
 20
39.8275387057
 10
-28.6132161818
 20
39.8612524671
 10
-28.586545927
 20
39.8915824718
 10
-28.5530878525
 20
39.9187850511
 10
-28.5123596911
 20
39.9431513965
 10
-28.4648437101
 20
39.9648591944
 10
-28.4119867109
 20
39.9839956938
 10
-28.3538129915
 20
40.0007451644
 10
-28.2902982539
 20
40.0153525966
 10
-28.2228164061
 20
40.0279936388
 10
-28.1516074574
 20
40.0388224504
 10
-28.0764313986
 20
40.0480102966
 10
-27.9979421099
 20
40.0557292474
 10
-27.9157672766
 20
40.0621230971
 10
-27.8302792133
 20
40.0672576561
 10
-27.7432487446
 20
40.0711622705
 10
-27.6552661453
 20
40.0738858201
 10
-27.5657411405
 20
40.0754923423
 10
-27.4746737303
 20
40.076009671
  0
LINE
  5
30F
100
AcDbEntity
  8
RACCORDO
100
AcDbLine
 62
7
  6
CONTINUOUS
 10
-18.5672359149
 20
41.841230432
 11
-18.6029173766
 21
41.8189886281
  0
LWPOLYLINE
  5
310
100
AcDbEntity
  8
0
100
AcDbPolyline
 62
7
  6
CONTINUOUS
 90
5
 70
0
 43
0.3500000087
 10
2.9999999987
 20
53.1879294373
 10
3.3571429762
 20
53.4022202332
 10
3.3571429762
 20
54.0450755676
 10
2.9999999987
 20
54.4736486328
 10
2.142857199
 20
54.4736486328
  0
LWPOLYLINE
  5
311
100
AcDbEntity
  8
RACCORDO
100
AcDbPolyline
 62
7
  6
CONTINUOUS
 90
5
 70
0
 10
-14.064706535
 20
42.7151260527
 10
-14.0956715157
 20
42.7046140537
 10
-14.1249996731
 20
42.6901503744
 10
-14.1521892159
 20
42.6719824818
 10
-14.1767749435
 20
42.6504212201
  0
LWPOLYLINE
  5
312
100
AcDbEntity
  8
RACCORDO
100
AcDbPolyline
 62
7
  6
CONTINUOUS
 90
11
 70
0
 10
-14.0504353334
 20
42.702338662
 10
-14.0812000699
 20
42.6920793991
 10
-14.1106375013
 20
42.6777764547
 10
-14.1381326184
 20
42.6596153645
 10
-14.1630001681
 20
42.6379962604
 10
-14.1847646907
 20
42.6133512708
 10
-14.2031066028
 20
42.5860636677
 10
-14.2177048111
 20
42.5566150954
 10
-14.2283098754
 20
42.5255197972
 10
-14.2347443807
 20
42.4933131801
 10
-14.2369014213
 20
42.4605519287
  0
LWPOLYLINE
  5
313
100
AcDbEntity
  8
0
100
AcDbPolyline
 62
7
  6
CONTINUOUS
 90
10
 70
0
 43
0.3500000087
 10
-3.2142857319
 20
54.4736486328
 10
-3.8571429316
 20
53.8307932983
 10
-4.285714398
 20
52.973647168
 10
-4.285714398
 20
51.9022187683
 10
-3.8571429316
 20
51.4736457031
 10
-3.2142857319
 20
51.4736457031
 10
-2.7857142654
 20
51.9022187683
 10
-2.7857142654
 20
52.7593563721
 10
-3.2142857319
 20
53.1879294373
 10
-4.1428571537
 20
53.1879294373
  0
LWPOLYLINE
  5
314
100
AcDbEntity
  8
RACCORDO
100
AcDbPolyline
 62
7
  6
CONTINUOUS
 90
10
 70
0
 10
-33.6325830976
 20
40.1235320052
 10
-33.6284719489
 20
40.1873427748
 10
-33.6162562721
 20
40.2501130852
 10
-33.5961340112
 20
40.3108168001
 10
-33.5684320591
 20
40.3684614383
 10
-33.5336021976
 20
40.4221040213
 10
-33.4922136458
 20
40.4708664367
 10
-33.4449418086
 20
40.5139505605
 10
-33.3925586206
 20
40.5506507999
 10
-33.3560139352
 20
40.5708716476
  0
LINE
  5
315
100
AcDbEntity
  8
RACCORDO
100
AcDbLine
 62
7
  6
CONTINUOUS
 10
-14.1767749435
 20
42.6504212201
 11
-14.1983362052
 21
42.6258354925
  0
LINE
  5
316
100
AcDbEntity
  8
RACCORDO
100
AcDbLine
 62
250
  6
CONTINUOUS
 10
-12.0999957692
 20
42.7236462766
 11
-12.1130943479
 21
42.7105476979
  0
LINE
  5
317
100
AcDbEntity
  8
RACCORDO
100
AcDbLine
 62
250
  6
CONTINUOUS
 10
-11.85
 20
42.4736505074
 11
-11.8630985787
 21
42.4605519287
  0
LWPOLYLINE
  5
318
100
AcDbEntity
  8
RACCORDO
100
AcDbPolyline
 62
7
  6
CONTINUOUS
 90
4
 70
0
 10
12.035293465
 20
42.7151260527
 10
12.0043284843
 20
42.7046140537
 10
11.9750003269
 20
42.6901503744
 10
11.9478107841
 20
42.6719824818
  0
LWPOLYLINE
  5
319
100
AcDbEntity
  8
RACCORDO
100
AcDbPolyline
 62
7
  6
CONTINUOUS
 90
3
 70
0
 10
-33.15
 20
-6.0263579542
 10
-33.1478602393
 20
-6.058988251
 10
-33.1414797761
 20
-6.0910602584
  0
LWPOLYLINE
  5
31A
100
AcDbEntity
  8
RACCORDO
100
AcDbPolyline
 62
7
  6
CONTINUOUS
 90
13
 70
0
 10
-33.1369014213
 20
-6.0132593755
 10
-33.1347616605
 20
-6.0458896722
 10
-33.1283811971
 20
-6.0779616796
 10
-33.117869198
 20
-6.1089266602
 10
-33.1034055187
 20
-6.1382548176
 10
-33.085237626
 20
-6.1654443602
 10
-33.0636763643
 20
-6.1900300877
 10
-33.0390906368
 20
-6.2115913494
 10
-33.0119010942
 20
-6.2297592421
 10
-32.9825729368
 20
-6.2442229214
 10
-32.9516079562
 20
-6.2547349205
 10
-32.9195359488
 20
-6.2611153839
 10
-32.8869056521
 20
-6.2632551447
  0
LINE
  5
31B
100
AcDbEntity
  8
RACCORDO
100
AcDbLine
 62
250
  6
CONTINUOUS
 10
-33.3090317018
 20
37.253897593
 11
-33.3069667963
 21
37.168388678
  0
LINE
  5
31C
100
AcDbEntity
  8
RACCORDO
100
AcDbLine
 62
250
  6
CONTINUOUS
 10
-33.3069667963
 20
37.168388678
 11
-33.3051419403
 21
37.0664927039
  0
LINE
  5
31D
100
AcDbEntity
  8
RACCORDO
100
AcDbLine
 62
250
  6
CONTINUOUS
 10
-32.809104506
 20
37.6790888297
 11
-32.8070403937
 21
37.5508454157
  0
LINE
  5
31E
100
AcDbEntity
  8
RACCORDO
100
AcDbLine
 62
250
  6
CONTINUOUS
 10
-33.3051419403
 20
37.0664927039
 11
-33.3029373557
 21
36.888030944
  0
LINE
  5
31F
100
AcDbEntity
  8
RACCORDO
100
AcDbLine
 62
250
  6
CONTINUOUS
 10
-33.1369014213
 20
-5.6206912907
 11
-33.1427192511
 21
-5.0433410215
  0
LINE
  5
320
100
AcDbEntity
  8
RACCORDO
100
AcDbLine
 62
250
  6
CONTINUOUS
 10
-32.8869056521
 20
-5.4041849398
 11
-32.8919962532
 21
-4.8990034542
  0
LINE
  5
321
100
AcDbEntity
  8
RACCORDO
100
AcDbLine
 62
250
  6
CONTINUOUS
 10
-32.8070403937
 20
37.5508454157
 11
-32.8044076665
 21
37.313737432
  0
LINE
  5
322
100
AcDbEntity
  8
RACCORDO
100
AcDbLine
 62
250
  6
CONTINUOUS
 10
-33.3029373557
 20
36.888030944
 11
-33.3014625692
 21
36.6864039076
  0
LINE
  5
323
100
AcDbEntity
  8
RACCORDO
100
AcDbLine
 62
250
  6
CONTINUOUS
 10
-32.8044076665
 20
37.313737432
 11
-32.8015395112
 21
36.8285264702
  0
LINE
  5
324
100
AcDbEntity
  8
RACCORDO
100
AcDbLine
 62
250
  6
CONTINUOUS
 10
-33.3014625692
 20
36.6864039076
 11
-33.3007465392
 21
36.3985590672
  0
LINE
  5
325
100
AcDbEntity
  8
ASSI
100
AcDbLine
 62
7
  6
CONTINUOUS
 10
-33.65
 20
0.5233416669
 11
-33.65
 21
35.9239508863
  0
LINE
  5
326
100
AcDbEntity
  8
RACCORDO
100
AcDbLine
 62
7
  6
CONTINUOUS
 10
-33.65
 20
-3.667531664
 11
-33.65
 21
40.1148242172
  0
LINE
  5
327
100
AcDbEntity
  8
RACCORDO
100
AcDbLine
 62
7
  6
CONTINUOUS
 10
-33.15
 20
-6.0263579542
 11
-33.15
 21
-5.0433410215
  0
LINE
  5
328
100
AcDbEntity
  8
RACCORDO
100
AcDbLine
 62
7
  6
CONTINUOUS
 10
-33.15
 20
41.4906335747
 11
-33.15
 21
42.4736505074
  0
LINE
  5
329
100
AcDbEntity
  8
RACCORDO
100
AcDbLine
 62
7
  6
CONTINUOUS
 10
-33.1427192511
 20
-5.0433410215
 11
-33.1427192511
 21
-4.1097646848
  0
LINE
  5
32A
100
AcDbEntity
  8
RACCORDO
100
AcDbLine
 62
7
  6
CONTINUOUS
 10
-33.1427192511
 20
40.557057238
 11
-33.1427192511
 21
41.4906335747
  0
LINE
  5
32B
100
AcDbEntity
  8
RACCORDO
100
AcDbLine
 62
7
  6
CONTINUOUS
 10
-33.1369014213
 20
42.4605519287
 11
-33.1369014213
 21
42.0679838439
  0
LINE
  5
32C
100
AcDbEntity
  8
RACCORDO
100
AcDbLine
 62
7
  6
CONTINUOUS
 10
-33.1369014213
 20
-5.6206912907
 11
-33.1369014213
 21
-6.0132593755
  0
LINE
  5
32D
100
AcDbEntity
  8
RACCORDO
100
AcDbLine
 62
250
  6
CONTINUOUS
 10
-32.8927234819
 20
-4.8990034542
 11
-32.8927234819
 21
-4.0977420545
  0
LINE
  5
32E
100
AcDbEntity
  8
RACCORDO
100
AcDbLine
 62
250
  6
CONTINUOUS
 10
-32.8927234819
 20
40.5450346077
 11
-32.8927234819
 21
41.3462960074
  0
LINE
  5
32F
100
AcDbEntity
  8
RACCORDO
100
AcDbLine
 62
250
  6
CONTINUOUS
 10
-32.8869056521
 20
-6.2632551447
 11
-32.8869056521
 21
-5.4041849398
  0
LINE
  5
330
100
AcDbEntity
  8
RACCORDO
100
AcDbLine
 62
250
  6
CONTINUOUS
 10
-32.8869056521
 20
41.8514774929
 11
-32.8869056521
 21
42.7105476979
  0
LINE
  5
331
100
AcDbEntity
  8
RACCORDO
100
AcDbLine
 62
250
  6
CONTINUOUS
 10
-32.8015395112
 20
36.8285264702
 11
-32.8010182144
 21
36.1787467486
  0
LINE
  5
332
100
AcDbEntity
  8
RACCORDO
100
AcDbLine
 62
250
  6
CONTINUOUS
 10
-33.3007465392
 20
36.3985590672
 11
-33.3369771264
 21
27.4980821763
  0
LINE
  5
333
100
AcDbEntity
  8
RACCORDO
100
AcDbLine
 62
250
  6
CONTINUOUS
 10
-32.8010182144
 20
36.1787467486
 11
-32.8370533031
 21
27.379270249
  0
LINE
  5
334
100
AcDbEntity
  8
RACCORDO
100
AcDbLine
 62
250
  6
CONTINUOUS
 10
-33.3369771264
 20
27.4980821763
 11
-33.3754727997
 21
18.8532907787
  0
LINE
  5
335
100
AcDbEntity
  8
RACCORDO
100
AcDbLine
 62
250
  6
CONTINUOUS
 10
-32.8370533031
 20
27.379270249
 11
-32.8755489642
 21
18.7252514309
  0
LINE
  5
336
100
AcDbEntity
  8
RACCORDO
100
AcDbLine
 62
250
  6
CONTINUOUS
 10
-33.3754727997
 20
18.8532907787
 11
-33.4166607313
 21
10.2485714215
  0
LINE
  5
337
100
AcDbEntity
  8
RACCORDO
100
AcDbLine
 62
250
  6
CONTINUOUS
 10
-32.8755489642
 20
18.7252514309
 11
-32.9167368627
 21
10.1120418914
  0
LINE
  5
338
100
AcDbEntity
  8
RACCORDO
100
AcDbLine
 62
250
  6
CONTINUOUS
 10
-33.4166607313
 20
10.2485714215
 11
-33.460521481
 21
1.6880597001
  0
LWPOLYLINE
  5
339
100
AcDbEntity
  8
RACCORDO
100
AcDbPolyline
 62
250
  6
CONTINUOUS
 90
3
 70
0
 10
-32.9167368627
 20
10.1120418914
 10
-32.9605976188
 20
1.5423894394
 10
-32.9843875174
 20
-2.9137183953
  0
LINE
  5
33A
100
AcDbEntity
  8
RACCORDO
100
AcDbLine
 62
250
  6
CONTINUOUS
 10
-33.460521481
 20
1.6880597001
 11
-33.484841906
 21
-2.7614408314
  0
LINE
  5
33B
100
AcDbEntity
  8
RACCORDO
100
AcDbLine
 62
250
  6
CONTINUOUS
 10
-32.9843875174
 20
-2.9137183953
 11
-32.9869326363
 21
-3.2529378102
  0
LINE
  5
33C
100
AcDbEntity
  8
RACCORDO
100
AcDbLine
 62
250
  6
CONTINUOUS
 10
-33.1427192511
 20
41.4906335747
 11
-33.1369014213
 21
42.0679838439
  0
LINE
  5
33D
100
AcDbEntity
  8
RACCORDO
100
AcDbLine
 62
250
  6
CONTINUOUS
 10
-32.8919962532
 20
41.3462960074
 11
-32.8869056521
 21
41.8514774929
  0
LINE
  5
33E
100
AcDbEntity
  8
RACCORDO
100
AcDbLine
 62
250
  6
CONTINUOUS
 10
-33.484841906
 20
-2.7614408314
 11
-33.4868549306
 21
-2.9275528232
  0
LINE
  5
33F
100
AcDbEntity
  8
RACCORDO
100
AcDbLine
 62
250
  6
CONTINUOUS
 10
-32.9869326363
 20
-3.2529378102
 11
-32.9894886698
 21
-3.462198582
  0
LINE
  5
340
100
AcDbEntity
  8
RACCORDO
100
AcDbLine
 62
250
  6
CONTINUOUS
 10
-33.4868549306
 20
-2.9275528232
 11
-33.4885076187
 21
-3.0240281325
  0
LINE
  5
341
100
AcDbEntity
  8
RACCORDO
100
AcDbLine
 62
250
  6
CONTINUOUS
 10
-32.9894886698
 20
-3.462198582
 11
-32.9914451406
 21
-3.5752321471
  0
LWPOLYLINE
  5
342
100
AcDbEntity
  8
RACCORDO
100
AcDbPolyline
 62
250
  6
CONTINUOUS
 90
10
 70
0
 10
-33.4885076187
 20
-3.0240281325
 10
-33.4903675384
 20
-3.1067086709
 10
-33.4913708392
 20
-3.142622038
 10
-33.4924088441
 20
-3.1744467331
 10
-33.4934820084
 20
-3.2021229146
 10
-33.4945898769
 20
-3.2257104241
 10
-33.4957171239
 20
-3.2448993012
 10
-33.4968586407
 20
-3.2595862258
 10
-33.498019536
 20
-3.2698745181
 10
-33.4991998097
 20
-3.275764178
  0
LWPOLYLINE
  5
343
100
AcDbEntity
  8
RACCORDO
100
AcDbPolyline
 62
250
  6
CONTINUOUS
 90
7
 70
0
 10
-32.9914451406
 20
-3.5752321471
 10
-32.9935552766
 20
-3.6646094494
 10
-32.9946628517
 20
-3.6999027169
 10
-32.9957902151
 20
-3.7287090151
 10
-32.9969323424
 20
-3.7509000393
 10
-32.9980942581
 20
-3.7663790058
 10
-32.9992759622
 20
-3.7750789454
  0
LINE
  5
344
100
AcDbEntity
  8
RACCORDO
100
AcDbLine
 62
250
  6
CONTINUOUS
 10
-33.1354512088
 20
42.4874320065
 11
-33.1369014213
 21
42.4605519287
  0
LWPOLYLINE
  5
345
100
AcDbEntity
  8
RACCORDO
100
AcDbPolyline
 62
250
  6
CONTINUOUS
 90
13
 70
0
 10
-30.7630985787
 20
42.0679838439
 10
-30.7652935822
 20
42.0399739217
 10
-30.7716720372
 20
42.0123751212
 10
-30.7821533535
 20
41.9856579853
 10
-30.7965979242
 20
41.9602652967
 10
-30.8147781249
 20
41.936660613
 10
-30.8363551826
 20
41.9153054222
 10
-30.860940914
 20
41.8965778624
 10
-30.8881290125
 20
41.8807821195
 10
-30.9174532992
 20
41.86818874
 10
-30.9484116269
 20
41.8590127932
 10
-30.9804747649
 20
41.8534105931
 10
-31.0130943479
 20
41.8514774929
  0
LWPOLYLINE
  5
346
100
AcDbEntity
  8
RACCORDO
100
AcDbPolyline
 62
250
  6
CONTINUOUS
 90
13
 70
0
 10
-33.1369014213
 20
-5.6206912907
 10
-33.1346758307
 20
-5.592483456
 10
-33.1282264882
 20
-5.5647564818
 10
-33.1176633362
 20
-5.5379830314
 10
-33.1031664453
 20
-5.5126195132
 10
-33.0849829448
 20
-5.4890983006
 10
-33.0634228098
 20
-5.4678203608
 10
-33.0388535772
 20
-5.4491484202
 10
-33.0116940799
 20
-5.4334007803
 10
-32.9824073074
 20
-5.4208458921
 10
-32.951492513
 20
-5.4116977793
 10
-32.9194767028
 20
-5.4061123904
 10
-32.8869056521
 20
-5.4041849398
  0
LWPOLYLINE
  5
347
100
AcDbEntity
  8
RACCORDO
100
AcDbPolyline
 62
7
  6
CONTINUOUS
 90
13
 70
0
 10
-30.7572807489
 20
41.4906335747
 10
-30.7592401087
 20
41.4736586701
 10
-30.7648446158
 20
41.4563977727
 10
-30.7741722574
 20
41.4392556895
 10
-30.7872260203
 20
41.4228276013
 10
-30.8039617589
 20
41.4073849331
 10
-30.8243172671
 20
41.3928858243
 10
-30.8481060766
 20
41.3798139295
 10
-30.8750775869
 20
41.3686218525
 10
-30.9050098037
 20
41.3592695253
 10
-30.9375286991
 20
41.3520678788
 10
-30.9720693778
 20
41.3476176848
 10
-31.0080037468
 20
41.3462960074
  0
LWPOLYLINE
  5
348
100
AcDbEntity
  8
RACCORDO
100
AcDbPolyline
 62
7
  6
CONTINUOUS
 90
13
 70
0
 10
-33.1427192511
 20
-5.0433410215
 10
-33.1407598913
 20
-5.0263661169
 10
-33.1351553842
 20
-5.0091052195
 10
-33.1258277426
 20
-4.9919631363
 10
-33.1127739797
 20
-4.9755350481
 10
-33.0960382411
 20
-4.9600923799
 10
-33.0756827329
 20
-4.9455932711
 10
-33.0518939234
 20
-4.9325213763
 10
-33.0249224131
 20
-4.9213292993
 10
-32.9949901963
 20
-4.9119769721
 10
-32.9624713009
 20
-4.9047753257
 10
-32.9279306222
 20
-4.9003251316
 10
-32.8919962532
 20
-4.8990034542
  0
LWPOLYLINE
  5
349
100
AcDbEntity
  8
RACCORDO
100
AcDbPolyline
 62
7
  6
CONTINUOUS
 90
6
 70
0
 10
-14.1983362052
 20
42.6258354925
 10
-14.2165040978
 20
42.5986459497
 10
-14.2309677771
 20
42.5693177923
 10
-14.2414797761
 20
42.5383528116
 10
-14.2478602393
 20
42.5062808042
 10
-14.25
 20
42.4736505074
  0
LWPOLYLINE
  5
34A
100
AcDbEntity
  8
RACCORDO
100
AcDbPolyline
 62
7
  6
CONTINUOUS
 90
4
 70
0
 10
-33.1414797761
 20
-6.0910602584
 10
-33.1309677771
 20
-6.1220252391
 10
-33.1165040978
 20
-6.1513533965
 10
-33.0983362052
 20
-6.1785429393
  0
LINE
  5
34B
100
AcDbEntity
  8
RACCORDO
100
AcDbLine
 62
250
  6
CONTINUOUS
 10
-33.4536639192
 20
39.4938097939
 11
-33.4504252311
 21
39.455827415
  0
LWPOLYLINE
  5
34C
100
AcDbEntity
  8
RACCORDO
100
AcDbPolyline
 62
250
  6
CONTINUOUS
 90
13
 70
0
 10
-30.7630985787
 20
-5.6206912907
 10
-30.7653241693
 20
-5.592483456
 10
-30.7717735118
 20
-5.5647564818
 10
-30.7823366638
 20
-5.5379830314
 10
-30.7968335547
 20
-5.5126195132
 10
-30.8150170552
 20
-5.4890983006
 10
-30.8365771902
 20
-5.4678203608
 10
-30.8611464228
 20
-5.4491484202
 10
-30.8883059201
 20
-5.4334007803
 10
-30.9175926926
 20
-5.4208458921
 10
-30.948507487
 20
-5.4116977793
 10
-30.9805232972
 20
-5.4061123904
 10
-31.0130943479
 20
-5.4041849398
  0
LINE
  5
34D
100
AcDbEntity
  8
RACCORDO
100
AcDbLine
 62
250
  6
CONTINUOUS
 10
-32.9537401479
 20
39.984628216
 11
-32.9505014826
 21
39.94464639
  0
LWPOLYLINE
  5
34E
100
AcDbEntity
  8
RACCORDO
100
AcDbPolyline
 62
250
  6
CONTINUOUS
 90
13
 70
0
 10
-33.1369014213
 20
42.0679838439
 10
-33.1347064178
 20
42.0399739217
 10
-33.1283279628
 20
42.0123751212
 10
-33.1178466465
 20
41.9856579853
 10
-33.1034020758
 20
41.9602652967
 10
-33.0852218751
 20
41.936660613
 10
-33.0636448174
 20
41.9153054222
 10
-33.039059086
 20
41.8965778624
 10
-33.0118709875
 20
41.8807821195
 10
-32.9825467008
 20
41.86818874
 10
-32.9515883731
 20
41.8590127932
 10
-32.9195252351
 20
41.8534105931
 10
-32.8869056521
 20
41.8514774929
  0
LINE
  5
34F
100
AcDbEntity
  8
RACCORDO
100
AcDbLine
 62
250
  6
CONTINUOUS
 10
-33.4504252311
 20
39.455827415
 11
-33.44719804
 21
39.4141224627
  0
LINE
  5
350
100
AcDbEntity
  8
RACCORDO
100
AcDbLine
 62
250
  6
CONTINUOUS
 10
-32.9505014826
 20
39.94464639
 11
-32.947274288
 21
39.9007470831
  0
LINE
  5
351
100
AcDbEntity
  8
RACCORDO
100
AcDbLine
 62
250
  6
CONTINUOUS
 10
-33.44719804
 20
39.4141224627
 11
-33.4439829678
 21
39.3686897443
  0
LWPOLYLINE
  5
352
100
AcDbEntity
  8
RACCORDO
100
AcDbPolyline
 62
250
  6
CONTINUOUS
 90
3
 70
0
 10
-32.947274288
 20
39.9007470831
 10
-32.9440591633
 20
39.8529209721
 10
-32.8137598991
 20
37.8519494131
  0
LINE
  5
353
100
AcDbEntity
  8
RACCORDO
100
AcDbLine
 62
250
  6
CONTINUOUS
 10
-33.4439829678
 20
39.3686897443
 11
-33.3136837467
 21
37.3689865
  0
LWPOLYLINE
  5
354
100
AcDbEntity
  8
RACCORDO
100
AcDbPolyline
 62
250
  6
CONTINUOUS
 90
5
 70
0
 10
-33.3136837467
 20
37.3689865
 10
-33.3124590792
 20
37.3473405343
 10
-33.311276482
 20
37.3209797668
 10
-33.3101359551
 20
37.2899041974
 10
-33.3090317018
 20
37.253897593
  0
LWPOLYLINE
  5
355
100
AcDbEntity
  8
RACCORDO
100
AcDbPolyline
 62
250
  6
CONTINUOUS
 90
3
 70
0
 10
-32.8137598991
 20
37.8519494131
 10
-32.8125336987
 20
37.8198246929
 10
-32.8113500115
 20
37.7801636793
  0
LINE
  5
356
100
AcDbEntity
  8
RACCORDO
100
AcDbLine
 62
250
  6
CONTINUOUS
 10
-32.8113500115
 20
37.7801636793
 11
-32.809104506
 21
37.6790888297
  0
LINE
  5
357
100
AcDbEntity
  8
RACCORDO
100
AcDbLine
 62
250
  6
CONTINUOUS
 10
-31.0130943479
 20
41.8514774929
 11
-31.0080037468
 21
41.3462960074
  0
LINE
  5
358
100
AcDbEntity
  8
RACCORDO
100
AcDbLine
 62
250
  6
CONTINUOUS
 10
-30.7630985787
 20
42.0679838439
 11
-30.7572807489
 21
41.4906335747
  0
LINE
  5
359
100
AcDbEntity
  8
RACCORDO
100
AcDbLine
 62
250
  6
CONTINUOUS
 10
-31.0130943479
 20
-6.2632551447
 11
-31.0130943479
 21
-5.4041849398
  0
LINE
  5
35A
100
AcDbEntity
  8
RACCORDO
100
AcDbLine
 62
250
  6
CONTINUOUS
 10
-31.0130943479
 20
41.8514774929
 11
-31.0130943479
 21
42.7105476979
  0
LINE
  5
35B
100
AcDbEntity
  8
RACCORDO
100
AcDbLine
 62
250
  6
CONTINUOUS
 10
-31.0072765181
 20
41.3462960074
 11
-31.0072765181
 21
40.5450346077
  0
LINE
  5
35C
100
AcDbEntity
  8
RACCORDO
100
AcDbLine
 62
250
  6
CONTINUOUS
 10
-31.0072765181
 20
-4.0977420545
 11
-31.0072765181
 21
-4.8990034542
  0
LINE
  5
35D
100
AcDbEntity
  8
RACCORDO
100
AcDbLine
 62
7
  6
CONTINUOUS
 10
-30.7630985787
 20
-6.0132593755
 11
-30.7630985787
 21
-5.6206912907
  0
LINE
  5
35E
100
AcDbEntity
  8
RACCORDO
100
AcDbLine
 62
7
  6
CONTINUOUS
 10
-30.7630985787
 20
42.0679838439
 11
-30.7630985787
 21
42.4605519287
  0
LINE
  5
35F
100
AcDbEntity
  8
RACCORDO
100
AcDbLine
 62
7
  6
CONTINUOUS
 10
-30.7572807489
 20
41.4906335747
 11
-30.7572807489
 21
40.5580603289
  0
LINE
  5
360
100
AcDbEntity
  8
RACCORDO
100
AcDbLine
 62
7
  6
CONTINUOUS
 10
-30.7572807489
 20
-4.1107677757
 11
-30.7572807489
 21
-5.0433410215
  0
LINE
  5
361
100
AcDbEntity
  8
RACCORDO
100
AcDbLine
 62
7
  6
CONTINUOUS
 10
-30.75
 20
-6.0263579542
 11
-30.75
 21
-5.0433410215
  0
LINE
  5
362
100
AcDbEntity
  8
RACCORDO
100
AcDbLine
 62
7
  6
CONTINUOUS
 10
-30.75
 20
41.4906335747
 11
-30.75
 21
42.4736505074
  0
LINE
  5
363
100
AcDbEntity
  8
RACCORDO
100
AcDbLine
 62
7
  6
CONTINUOUS
 10
-28.6504150764
 20
39.7462248483
 11
-28.6504150764
 21
38.3878964657
  0
LINE
  5
364
100
AcDbEntity
  8
RACCORDO
100
AcDbLine
 62
250
  6
CONTINUOUS
 10
-31.0080037468
 20
-4.8990034542
 11
-31.0130943479
 21
-5.4041849398
  0
LINE
  5
365
100
AcDbEntity
  8
RACCORDO
100
AcDbLine
 62
250
  6
CONTINUOUS
 10
-30.7572807489
 20
-5.0433410215
 11
-30.7630985787
 21
-5.6206912907
  0
LINE
  5
366
100
AcDbEntity
  8
RACCORDO
100
AcDbLine
 62
250
  6
CONTINUOUS
 10
-30.7645487912
 20
-6.0401394533
 11
-30.7630985787
 21
-6.0132593755
  0
LINE
  5
367
100
AcDbEntity
  8
RACCORDO
100
AcDbLine
 62
250
  6
CONTINUOUS
 10
-33.4991998097
 20
-3.275764178
 11
-33.6325830976
 21
-3.676239452
  0
LINE
  5
368
100
AcDbEntity
  8
RACCORDO
100
AcDbLine
 62
250
  6
CONTINUOUS
 10
-32.9992759622
 20
-3.7750789454
 11
-33.10891534
 21
-4.104264562
  0
LWPOLYLINE
  5
369
100
AcDbEntity
  8
RACCORDO
100
AcDbPolyline
 62
7
  6
CONTINUOUS
 90
5
 70
0
 10
30.935293465
 20
42.7151260527
 10
30.9043284843
 20
42.7046140537
 10
30.8750003269
 20
42.6901503744
 10
30.8478107841
 20
42.6719824818
 10
30.8232250565
 20
42.6504212201
  0
LWPOLYLINE
  5
36A
100
AcDbEntity
  8
RACCORDO
100
AcDbPolyline
 62
7
  6
CONTINUOUS
 90
11
 70
0
 10
30.9495646666
 20
42.702338662
 10
30.9187999301
 20
42.6920793991
 10
30.8893624987
 20
42.6777764547
 10
30.8618673816
 20
42.6596153645
 10
30.8369998319
 20
42.6379962604
 10
30.8152353093
 20
42.6133512708
 10
30.7968933972
 20
42.5860636677
 10
30.7822951889
 20
42.5566150954
 10
30.7716901246
 20
42.5255197972
 10
30.7652556193
 20
42.4933131801
 10
30.7630985787
 20
42.4605519287
  0
LWPOLYLINE
  5
36B
100
AcDbEntity
  8
RACCORDO
100
AcDbPolyline
 62
7
  6
CONTINUOUS
 90
3
 70
0
 10
-33.0983362052
 20
-6.1785429393
 10
-33.0767749435
 20
-6.2031286669
 10
-33.0521892159
 20
-6.2246899286
  0
LWPOLYLINE
  5
36C
100
AcDbEntity
  8
RACCORDO
100
AcDbPolyline
 62
7
  6
CONTINUOUS
 90
13
 70
0
 10
-30.7572807489
 20
-5.0433410215
 10
-30.7592401087
 20
-5.0263661169
 10
-30.7648446158
 20
-5.0091052195
 10
-30.7741722574
 20
-4.9919631363
 10
-30.7872260203
 20
-4.9755350481
 10
-30.8039617589
 20
-4.9600923799
 10
-30.8243172671
 20
-4.9455932711
 10
-30.8481060766
 20
-4.9325213763
 10
-30.8750775869
 20
-4.9213292993
 10
-30.9050098037
 20
-4.9119769721
 10
-30.9375286991
 20
-4.9047753257
 10
-30.9720693778
 20
-4.9003251316
 10
-31.0080037468
 20
-4.8990034542
  0
LWPOLYLINE
  5
36D
100
AcDbEntity
  8
RACCORDO
100
AcDbPolyline
 62
7
  6
CONTINUOUS
 90
3
 70
0
 10
-30.75
 20
42.4736505074
 10
-30.7521397607
 20
42.5062808042
 10
-30.7585202239
 20
42.5383528116
  0
LINE
  5
36E
100
AcDbEntity
  8
RACCORDO
100
AcDbLine
 62
250
  6
CONTINUOUS
 10
-30.7630985787
 20
42.4605519287
 11
-30.7645487912
 21
42.4874320065
  0
LINE
  5
36F
100
AcDbEntity
  8
RACCORDO
100
AcDbLine
 62
7
  6
CONTINUOUS
 10
-26.8970741618
 20
42.0207204384
 11
-26.8970741618
 21
40.5972899398
  0
LINE
  5
370
100
AcDbEntity
  8
RACCORDO
100
AcDbLine
 62
7
  6
CONTINUOUS
 10
-26.8970741618
 20
-4.1499973866
 11
-26.8970741618
 21
-5.5734278852
  0
LINE
  5
371
100
AcDbEntity
  8
RACCORDO
100
AcDbLine
 62
250
  6
CONTINUOUS
 10
-26.3970826234
 20
41.8189886281
 11
-26.3970826234
 21
40.5712384973
  0
LINE
  5
372
100
AcDbEntity
  8
RACCORDO
100
AcDbLine
 62
250
  6
CONTINUOUS
 10
-26.3970826234
 20
-4.1239459441
 11
-26.3970826234
 21
-5.3716960749
  0
LINE
  5
373
100
AcDbEntity
  8
RACCORDO
100
AcDbLine
 62
250
  6
CONTINUOUS
 10
-30.9999957692
 20
-6.2763537234
 11
-31.0130943479
 21
-6.2632551447
  0
LINE
  5
374
100
AcDbEntity
  8
RACCORDO
100
AcDbLine
 62
250
  6
CONTINUOUS
 10
-30.75
 20
-6.0263579542
 11
-30.750383646
 21
-6.0259743082
  0
LWPOLYLINE
  5
375
100
AcDbEntity
  8
RACCORDO
100
AcDbPolyline
 62
7
  6
CONTINUOUS
 90
3
 70
0
 10
-30.7645487912
 20
42.4874320065
 10
-30.7651455604
 20
42.4924697552
 10
-30.7713076146
 20
42.52408161
  0
LWPOLYLINE
  5
376
100
AcDbEntity
  8
RACCORDO
100
AcDbPolyline
 62
7
  6
CONTINUOUS
 90
13
 70
0
 10
-33.1427192511
 20
41.4906335747
 10
-33.1407532367
 20
41.4729122329
 10
-33.1351290863
 20
41.4557629002
 10
-33.125780745
 20
41.4391855767
 10
-33.1127229834
 20
41.4228998956
 10
-33.0960072755
 20
41.4071862238
 10
-33.0756824713
 20
41.3928856613
 10
-33.0519165456
 20
41.3799876038
 10
-33.0249754878
 20
41.3685026557
 10
-32.9951205643
 20
41.3593037306
 10
-32.9627464932
 20
41.3526817998
 10
-32.9284067974
 20
41.3483458921
 10
-32.8927234819
 20
41.3462960074
  0
LINE
  5
377
100
AcDbEntity
  8
RACCORDO
100
AcDbLine
 62
7
  6
CONTINUOUS
 10
11.9478107841
 20
42.6719824818
 11
11.9232250565
 21
42.6504212201
  0
LINE
  5
378
100
AcDbEntity
  8
RACCORDO
100
AcDbLine
 62
7
  6
CONTINUOUS
 10
26.4327640851
 20
41.841230432
 11
26.3970826234
 21
41.8189886281
  0
LWPOLYLINE
  5
379
100
AcDbEntity
  8
RACCORDO
100
AcDbPolyline
 62
7
  6
CONTINUOUS
 90
6
 70
0
 10
-33.0521892159
 20
-6.2246899286
 10
-33.0249996731
 20
-6.2428578212
 10
-32.9956715157
 20
-6.2573215005
 10
-32.964706535
 20
-6.2678334995
 10
-32.9326345276
 20
-6.2742139627
 10
-32.9000042308
 20
-6.2763537234
  0
LINE
  5
37A
100
AcDbEntity
  8
RACCORDO
100
AcDbLine
 62
250
  6
CONTINUOUS
 10
-18.6029173766
 20
-5.3716960749
 11
-18.6029173766
 21
-4.1239459441
  0
LINE
  5
37B
100
AcDbEntity
  8
RACCORDO
100
AcDbLine
 62
250
  6
CONTINUOUS
 10
-18.6029173766
 20
40.5712384973
 11
-18.6029173766
 21
41.8189886281
  0
LINE
  5
37C
100
AcDbEntity
  8
RACCORDO
100
AcDbLine
 62
7
  6
CONTINUOUS
 10
-18.1029258382
 20
-5.5734278852
 11
-18.1029258382
 21
-4.1499973866
  0
LINE
  5
37D
100
AcDbEntity
  8
RACCORDO
100
AcDbLine
 62
7
  6
CONTINUOUS
 10
-18.1029258382
 20
40.5972899398
 11
-18.1029258382
 21
42.0207204384
  0
LWPOLYLINE
  5
37E
100
AcDbEntity
  8
RACCORDO
100
AcDbPolyline
 62
7
  6
CONTINUOUS
 90
7
 70
0
 10
11.9232250565
 20
42.6504212201
 10
11.9016637948
 20
42.6258354925
 10
11.8834959022
 20
42.5986459497
 10
11.8690322229
 20
42.5693177923
 10
11.8585202239
 20
42.5383528116
 10
11.8521397607
 20
42.5062808042
 10
11.85
 20
42.4736505074
  0
LWPOLYLINE
  5
37F
100
AcDbEntity
  8
RACCORDO
100
AcDbPolyline
 62
7
  6
CONTINUOUS
 90
7
 70
0
 10
-30.8232250565
 20
-6.2031286669
 10
-30.8016637948
 20
-6.1785429393
 10
-30.7834959022
 20
-6.1513533965
 10
-30.7690322229
 20
-6.1220252391
 10
-30.7585202239
 20
-6.0910602584
 10
-30.7521397607
 20
-6.058988251
 10
-30.75
 20
-6.0263579542
  0
LINE
  5
380
100
AcDbEntity
  8
RACCORDO
100
AcDbLine
 62
250
  6
CONTINUOUS
 10
14.0000042308
 20
42.7236462766
 11
13.9869056521
 21
42.7105476979
  0
LINE
  5
381
100
AcDbEntity
  8
RACCORDO
100
AcDbLine
 62
250
  6
CONTINUOUS
 10
14.25
 20
42.4736505074
 11
14.249616354
 21
42.4732668614
  0
LINE
  5
382
100
AcDbEntity
  8
RACCORDO
100
AcDbLine
 62
250
  6
CONTINUOUS
 10
-33.15
 20
-6.0263579542
 11
-33.1369014213
 21
-6.0132593755
  0
LINE
  5
383
100
AcDbEntity
  8
RACCORDO
100
AcDbLine
 62
250
  6
CONTINUOUS
 10
-32.9000042308
 20
-6.2763537234
 11
-32.8869056521
 21
-6.2632551447
  0
LINE
  5
384
100
AcDbEntity
  8
RACCORDO
100
AcDbLine
 62
250
  6
CONTINUOUS
 10
-33.65
 20
-3.667531664
 11
-33.6325830976
 21
-3.676239452
  0
LWPOLYLINE
  5
385
100
AcDbEntity
  8
RACCORDO
100
AcDbPolyline
 62
7
  6
CONTINUOUS
 90
10
 70
0
 10
-33.3560141103
 20
-4.1235792476
 10
-33.3925587188
 20
-4.1033582373
 10
-33.4449414537
 20
-4.0666574984
 10
-33.4922136458
 20
-4.0235738835
 10
-33.5336023742
 20
-3.9748116889
 10
-33.5684316274
 20
-3.9211683455
 10
-33.5961340112
 20
-3.8635242469
 10
-33.616257659
 20
-3.8028222658
 10
-33.6284737002
 20
-3.740052411
 10
-33.6325830976
 20
-3.676239452
  0
LINE
  5
386
100
AcDbEntity
  8
RACCORDO
100
AcDbLine
 62
250
  6
CONTINUOUS
 10
-33.6325830976
 20
40.1235320052
 11
-33.476619603
 21
39.655261023
  0
LINE
  5
387
100
AcDbEntity
  8
RACCORDO
100
AcDbLine
 62
250
  6
CONTINUOUS
 10
-33.10891534
 20
40.5515571152
 11
-32.9766957555
 21
40.1545757903
  0
LWPOLYLINE
  5
388
100
AcDbEntity
  8
RACCORDO
100
AcDbPolyline
 62
250
  6
CONTINUOUS
 90
15
 70
0
 10
-33.476619603
 20
39.655261023
 10
-33.4749651145
 20
39.6498159225
 10
-33.4733127831
 20
39.643431634
 10
-33.4716626088
 20
39.6361081574
 10
-33.4700145409
 20
39.6278441128
 10
-33.4683686301
 20
39.6186408802
 10
-33.4667250291
 20
39.6085025993
 10
-33.4650837322
 20
39.5974297067
 10
-33.4634447451
 20
39.5854217657
 10
-33.461808237
 20
39.5724816065
 10
-33.4601742063
 20
39.5586096592
 10
-33.4585426546
 20
39.5438054935
 10
-33.4569137565
 20
39.5280706486
 10
-33.4552875111
 20
39.5114055609
 10
-33.4536639192
 20
39.4938097939
  0
LWPOLYLINE
  5
389
100
AcDbEntity
  8
RACCORDO
100
AcDbPolyline
 62
250
  6
CONTINUOUS
 90
15
 70
0
 10
-32.9766957555
 20
40.1545757903
 10
-32.9750412267
 20
40.1488476376
 10
-32.9733888647
 20
40.142126469
 10
-32.9717386694
 20
40.1344144183
 10
-32.9700905915
 20
40.1257143444
 10
-32.9684446804
 20
40.1160280801
 10
-32.9668010841
 20
40.105355754
 10
-32.9651597952
 20
40.0936992207
 10
-32.9635208212
 20
40.0810605288
 10
-32.9618843319
 20
40.0674390658
 10
-32.9602503292
 20
40.0528364842
 10
-32.9586188114
 20
40.0372544888
 10
-32.9569899431
 20
40.0206915433
 10
-32.9553637207
 20
40.0031489659
 10
-32.9537401479
 20
39.984628216
  0
LINE
  5
38A
100
AcDbEntity
  8
RACCORDO
100
AcDbLine
 62
250
  6
CONTINUOUS
 10
-27.4746737303
 20
40.076009671
 11
-27.1116057106
 21
38.0142908948
  0
LWPOLYLINE
  5
38B
100
AcDbEntity
  8
RACCORDO
100
AcDbPolyline
 62
7
  6
CONTINUOUS
 90
13
 70
0
 10
-14.2368971412
 20
-6.0147138086
 10
-14.2347443807
 20
-6.0460206269
 10
-14.2283098754
 20
-6.078227244
 10
-14.2177048111
 20
-6.1093225423
 10
-14.2031066028
 20
-6.1387711145
 10
-14.1847646907
 20
-6.1660587176
 10
-14.1630001681
 20
-6.1907037072
 10
-14.1381326184
 20
-6.2123228113
 10
-14.1106375013
 20
-6.2304839015
 10
-14.0812000699
 20
-6.2447868459
 10
-14.0504353334
 20
-6.2550461088
 10
-14.0188234786
 20
-6.261208163
 10
-14.0137857299
 20
-6.2618049322
  0
LWPOLYLINE
  5
38C
100
AcDbEntity
  8
RACCORDO
100
AcDbPolyline
 62
7
  6
CONTINUOUS
 90
3
 70
0
 10
-14.25
 20
-6.0263579542
 10
-14.2478602393
 20
-6.058988251
 10
-14.2414797761
 20
-6.0910602584
  0
LINE
  5
38D
100
AcDbEntity
  8
RACCORDO
100
AcDbLine
 62
250
  6
CONTINUOUS
 10
-14.2369014213
 20
-5.6206912907
 11
-14.2427192511
 21
-5.0433410215
  0
LINE
  5
38E
100
AcDbEntity
  8
RACCORDO
100
AcDbLine
 62
250
  6
CONTINUOUS
 10
-13.9869056521
 20
-5.4041849398
 11
-13.9919962532
 21
-4.8990034542
  0
LINE
  5
38F
100
AcDbEntity
  8
RACCORDO
100
AcDbLine
 62
250
  6
CONTINUOUS
 10
-14.2369014213
 20
-6.0132593755
 11
-14.2368971412
 21
-6.0147138086
  0
LINE
  5
390
100
AcDbEntity
  8
RACCORDO
100
AcDbLine
 62
7
  6
CONTINUOUS
 10
-14.25
 20
-6.0263579542
 11
-14.25
 21
-5.0433410215
  0
LINE
  5
391
100
AcDbEntity
  8
RACCORDO
100
AcDbLine
 62
7
  6
CONTINUOUS
 10
-14.25
 20
41.4906335747
 11
-14.25
 21
42.4736505074
  0
LINE
  5
392
100
AcDbEntity
  8
RACCORDO
100
AcDbLine
 62
7
  6
CONTINUOUS
 10
-14.2427192511
 20
-5.0433410215
 11
-14.2427192511
 21
-4.1107677757
  0
LINE
  5
393
100
AcDbEntity
  8
RACCORDO
100
AcDbLine
 62
7
  6
CONTINUOUS
 10
-14.2427192511
 20
40.5580603289
 11
-14.2427192511
 21
41.4906335747
  0
LINE
  5
394
100
AcDbEntity
  8
RACCORDO
100
AcDbLine
 62
7
  6
CONTINUOUS
 10
-14.2369014213
 20
42.4605519287
 11
-14.2369014213
 21
42.0679838439
  0
LINE
  5
395
100
AcDbEntity
  8
RACCORDO
100
AcDbLine
 62
7
  6
CONTINUOUS
 10
-14.2369014213
 20
-5.6206912907
 11
-14.2369014213
 21
-6.0132593755
  0
LINE
  5
396
100
AcDbEntity
  8
RACCORDO
100
AcDbLine
 62
250
  6
CONTINUOUS
 10
-14.2427192511
 20
41.4906335747
 11
-14.2369014213
 21
42.0679838439
  0
LINE
  5
397
100
AcDbEntity
  8
RACCORDO
100
AcDbLine
 62
250
  6
CONTINUOUS
 10
-13.9919962532
 20
41.3462960074
 11
-13.9869056521
 21
41.8514774929
  0
LWPOLYLINE
  5
398
100
AcDbEntity
  8
RACCORDO
100
AcDbPolyline
 62
250
  6
CONTINUOUS
 90
13
 70
0
 10
-11.8630985787
 20
42.0679838439
 10
-11.8652935822
 20
42.0399739217
 10
-11.8716720372
 20
42.0123751212
 10
-11.8821533535
 20
41.9856579853
 10
-11.8965979242
 20
41.9602652967
 10
-11.9147781249
 20
41.936660613
 10
-11.9363551826
 20
41.9153054222
 10
-11.960940914
 20
41.8965778624
 10
-11.9881290125
 20
41.8807821195
 10
-12.0174532992
 20
41.86818874
 10
-12.0484116269
 20
41.8590127932
 10
-12.0804747649
 20
41.8534105931
 10
-12.1130943479
 20
41.8514774929
  0
LWPOLYLINE
  5
399
100
AcDbEntity
  8
RACCORDO
100
AcDbPolyline
 62
7
  6
CONTINUOUS
 90
13
 70
0
 10
-11.8572807489
 20
41.4906335747
 10
-11.8592467633
 20
41.4729122329
 10
-11.8648709137
 20
41.4557629002
 10
-11.874219255
 20
41.4391855767
 10
-11.8872770166
 20
41.4228998956
 10
-11.9039927245
 20
41.4071862238
 10
-11.9243175287
 20
41.3928856613
 10
-11.9480834544
 20
41.3799876038
 10
-11.9750245122
 20
41.3685026557
 10
-12.0048794357
 20
41.3593037306
 10
-12.0372535068
 20
41.3526817998
 10
-12.0715932026
 20
41.3483458921
 10
-12.1072765181
 20
41.3462960074
  0
LWPOLYLINE
  5
39A
100
AcDbEntity
  8
0
100
AcDbPolyline
 62
7
  6
CONTINUOUS
 90
3
 70
0
 43
0.3500000087
 10
1.142857155
 20
51.7593639221
 10
1.0714285995
 20
51.5450731262
 10
0.9285714218
 20
51.2593591705
  0
LINE
  5
39B
100
AcDbEntity
  8
RACCORDO
100
AcDbLine
 62
7
  6
CONTINUOUS
 10
-30.8478107841
 20
-6.2246899286
 11
-30.8232250565
 21
-6.2031286669
  0
LWPOLYLINE
  5
39C
100
AcDbEntity
  8
RACCORDO
100
AcDbPolyline
 62
7
  6
CONTINUOUS
 90
3
 70
0
 10
-18.4963419942
 20
-5.4385100562
 10
-18.5672359149
 20
-5.3939378788
 10
-18.6029173766
 20
-5.3716960749
  0
LINE
  5
39D
100
AcDbEntity
  8
RACCORDO
100
AcDbLine
 62
7
  6
CONTINUOUS
 10
-14.1983362052
 20
-6.1785429393
 11
-14.1767749435
 21
-6.2031286669
  0
LWPOLYLINE
  5
39E
100
AcDbEntity
  8
RACCORDO
100
AcDbPolyline
 62
7
  6
CONTINUOUS
 90
5
 70
0
 10
-30.7585202239
 20
42.5383528116
 10
-30.7690322229
 20
42.5693177923
 10
-30.7834959022
 20
42.5986459497
 10
-30.8016637948
 20
42.6258354925
 10
-30.8232250565
 20
42.6504212201
  0
LWPOLYLINE
  5
39F
100
AcDbEntity
  8
RACCORDO
100
AcDbPolyline
 62
7
  6
CONTINUOUS
 90
4
 70
0
 10
-14.2414797761
 20
-6.0910602584
 10
-14.2309677771
 20
-6.1220252391
 10
-14.2165040978
 20
-6.1513533965
 10
-14.1983362052
 20
-6.1785429393
  0
LWPOLYLINE
  5
3A0
100
AcDbEntity
  8
RACCORDO
100
AcDbPolyline
 62
7
  6
CONTINUOUS
 90
11
 70
0
 10
-30.7713076146
 20
42.52408161
 10
-30.7815668775
 20
42.5548463465
 10
-30.7958698219
 20
42.5842837779
 10
-30.8140309121
 20
42.611778895
 10
-30.8356500162
 20
42.6366464447
 10
-30.8602950058
 20
42.6584109673
 10
-30.8875826089
 20
42.6767528794
 10
-30.9170311812
 20
42.6913510877
 10
-30.9481264794
 20
42.701956152
 10
-30.9803330965
 20
42.7083906573
 10
-31.0130943479
 20
42.7105476979
  0
LWPOLYLINE
  5
3A1
100
AcDbEntity
  8
RACCORDO
100
AcDbPolyline
 62
250
  6
CONTINUOUS
 90
13
 70
0
 10
-11.8630985787
 20
-5.6206912907
 10
-11.8653241693
 20
-5.592483456
 10
-11.8717735118
 20
-5.5647564818
 10
-11.8823366638
 20
-5.5379830314
 10
-11.8968335547
 20
-5.5126195132
 10
-11.9150170552
 20
-5.4890983006
 10
-11.9365771902
 20
-5.4678203608
 10
-11.9611464228
 20
-5.4491484202
 10
-11.9883059201
 20
-5.4334007803
 10
-12.0175926926
 20
-5.4208458921
 10
-12.048507487
 20
-5.4116977793
 10
-12.0805232972
 20
-5.4061123904
 10
-12.1130943479
 20
-5.4041849398
  0
LWPOLYLINE
  5
3A2
100
AcDbEntity
  8
RACCORDO
100
AcDbPolyline
 62
250
  6
CONTINUOUS
 90
13
 70
0
 10
-14.2369014213
 20
42.0679838439
 10
-14.2347064178
 20
42.0399739217
 10
-14.2283279628
 20
42.0123751212
 10
-14.2178466465
 20
41.9856579853
 10
-14.2034020758
 20
41.9602652967
 10
-14.1852218751
 20
41.936660613
 10
-14.1636448174
 20
41.9153054222
 10
-14.139059086
 20
41.8965778624
 10
-14.1118709875
 20
41.8807821195
 10
-14.0825467008
 20
41.86818874
 10
-14.0515883731
 20
41.8590127932
 10
-14.0195252351
 20
41.8534105931
 10
-13.9869056521
 20
41.8514774929
  0
LINE
  5
3A3
100
AcDbEntity
  8
RACCORDO
100
AcDbLine
 62
250
  6
CONTINUOUS
 10
-12.1130943479
 20
41.8514774929
 11
-12.1080037468
 21
41.3462960074
  0
LINE
  5
3A4
100
AcDbEntity
  8
RACCORDO
100
AcDbLine
 62
250
  6
CONTINUOUS
 10
-11.8630985787
 20
42.0679838439
 11
-11.8572807489
 21
41.4906335747
  0
LINE
  5
3A5
100
AcDbEntity
  8
RACCORDO
100
AcDbLine
 62
250
  6
CONTINUOUS
 10
-13.9927234819
 20
-4.8990034542
 11
-13.9927234819
 21
-4.0977420545
  0
LINE
  5
3A6
100
AcDbEntity
  8
RACCORDO
100
AcDbLine
 62
250
  6
CONTINUOUS
 10
-13.9927234819
 20
40.5450346077
 11
-13.9927234819
 21
41.3462960074
  0
LINE
  5
3A7
100
AcDbEntity
  8
RACCORDO
100
AcDbLine
 62
250
  6
CONTINUOUS
 10
-13.9869056521
 20
-6.2632551447
 11
-13.9869056521
 21
-5.4041849398
  0
LINE
  5
3A8
100
AcDbEntity
  8
RACCORDO
100
AcDbLine
 62
250
  6
CONTINUOUS
 10
-13.9869056521
 20
41.8514774929
 11
-13.9869056521
 21
42.7105476979
  0
LINE
  5
3A9
100
AcDbEntity
  8
RACCORDO
100
AcDbLine
 62
250
  6
CONTINUOUS
 10
-12.1130943479
 20
-6.2632551447
 11
-12.1130943479
 21
-5.4041849398
  0
LINE
  5
3AA
100
AcDbEntity
  8
RACCORDO
100
AcDbLine
 62
250
  6
CONTINUOUS
 10
-12.1130943479
 20
41.8514774929
 11
-12.1130943479
 21
42.7105476979
  0
LINE
  5
3AB
100
AcDbEntity
  8
RACCORDO
100
AcDbLine
 62
250
  6
CONTINUOUS
 10
-12.1072765181
 20
41.3462960074
 11
-12.1072765181
 21
40.5450346077
  0
LINE
  5
3AC
100
AcDbEntity
  8
RACCORDO
100
AcDbLine
 62
250
  6
CONTINUOUS
 10
-12.1072765181
 20
-4.0977420545
 11
-12.1072765181
 21
-4.8990034542
  0
LINE
  5
3AD
100
AcDbEntity
  8
RACCORDO
100
AcDbLine
 62
7
  6
CONTINUOUS
 10
-11.8630985787
 20
-6.0132593755
 11
-11.8630985787
 21
-5.6206912907
  0
LINE
  5
3AE
100
AcDbEntity
  8
RACCORDO
100
AcDbLine
 62
7
  6
CONTINUOUS
 10
-11.8630985787
 20
42.0679838439
 11
-11.8630985787
 21
42.4605519287
  0
LINE
  5
3AF
100
AcDbEntity
  8
RACCORDO
100
AcDbLine
 62
7
  6
CONTINUOUS
 10
-11.8572807489
 20
41.4906335747
 11
-11.8572807489
 21
40.5580603289
  0
LINE
  5
3B0
100
AcDbEntity
  8
RACCORDO
100
AcDbLine
 62
7
  6
CONTINUOUS
 10
-11.8572807489
 20
-4.1107677757
 11
-11.8572807489
 21
-5.0433410215
  0
LINE
  5
3B1
100
AcDbEntity
  8
RACCORDO
100
AcDbLine
 62
7
  6
CONTINUOUS
 10
-11.85
 20
-6.0263579542
 11
-11.85
 21
-5.0433410215
  0
LINE
  5
3B2
100
AcDbEntity
  8
RACCORDO
100
AcDbLine
 62
7
  6
CONTINUOUS
 10
-11.85
 20
41.4906335747
 11
-11.85
 21
42.4736505074
  0
LINE
  5
3B3
100
AcDbEntity
  8
RACCORDO
100
AcDbLine
 62
250
  6
CONTINUOUS
 10
-12.1080037468
 20
-4.8990034542
 11
-12.1130943479
 21
-5.4041849398
  0
LINE
  5
3B4
100
AcDbEntity
  8
RACCORDO
100
AcDbLine
 62
250
  6
CONTINUOUS
 10
-11.8572807489
 20
-5.0433410215
 11
-11.8630985787
 21
-5.6206912907
  0
LWPOLYLINE
  5
3B5
100
AcDbEntity
  8
RACCORDO
100
AcDbPolyline
 62
250
  6
CONTINUOUS
 90
13
 70
0
 10
-14.2369014213
 20
-5.6206912907
 10
-14.2346758307
 20
-5.592483456
 10
-14.2282264882
 20
-5.5647564818
 10
-14.2176633362
 20
-5.5379830314
 10
-14.2031664453
 20
-5.5126195132
 10
-14.1849829448
 20
-5.4890983006
 10
-14.1634228098
 20
-5.4678203608
 10
-14.1388535772
 20
-5.4491484202
 10
-14.1116940799
 20
-5.4334007803
 10
-14.0824073074
 20
-5.4208458921
 10
-14.051492513
 20
-5.4116977793
 10
-14.0194767028
 20
-5.4061123904
 10
-13.9869056521
 20
-5.4041849398
  0
LWPOLYLINE
  5
3B6
100
AcDbEntity
  8
RACCORDO
100
AcDbPolyline
 62
7
  6
CONTINUOUS
 90
13
 70
0
 10
-14.2427192511
 20
-5.0433410215
 10
-14.2407598913
 20
-5.0263661169
 10
-14.2351553842
 20
-5.0091052195
 10
-14.2258277426
 20
-4.9919631363
 10
-14.2127739797
 20
-4.9755350481
 10
-14.1960382411
 20
-4.9600923799
 10
-14.1756827329
 20
-4.9455932711
 10
-14.1518939234
 20
-4.9325213763
 10
-14.1249224131
 20
-4.9213292993
 10
-14.0949901963
 20
-4.9119769721
 10
-14.0624713009
 20
-4.9047753257
 10
-14.0279306222
 20
-4.9003251316
 10
-13.9919962532
 20
-4.8990034542
  0
LWPOLYLINE
  5
3B7
100
AcDbEntity
  8
RACCORDO
100
AcDbPolyline
 62
7
  6
CONTINUOUS
 90
4
 70
0
 10
-33.2136405569
 20
-4.1697166914
 10
-33.275954679
 20
-4.1553133419
 10
-33.3359211224
 20
-4.1330726717
 10
-33.3560141103
 20
-4.1235792476
  0
LWPOLYLINE
  5
3B8
100
AcDbEntity
  8
RACCORDO
100
AcDbPolyline
 62
7
  6
CONTINUOUS
 90
7
 70
0
 10
-14.1767749435
 20
-6.2031286669
 10
-14.1521892159
 20
-6.2246899286
 10
-14.1249996731
 20
-6.2428578212
 10
-14.0956715157
 20
-6.2573215005
 10
-14.064706535
 20
-6.2678334995
 10
-14.0326345276
 20
-6.2742139627
 10
-14.0000042308
 20
-6.2763537234
  0
LINE
  5
3B9
100
AcDbEntity
  8
RACCORDO
100
AcDbLine
 62
250
  6
CONTINUOUS
 10
-12.0999957692
 20
-6.2763537234
 11
-12.1130943479
 21
-6.2632551447
  0
LINE
  5
3BA
100
AcDbEntity
  8
RACCORDO
100
AcDbLine
 62
250
  6
CONTINUOUS
 10
-11.85
 20
-6.0263579542
 11
-11.8630985787
 21
-6.0132593755
  0
LWPOLYLINE
  5
3BB
100
AcDbEntity
  8
RACCORDO
100
AcDbPolyline
 62
7
  6
CONTINUOUS
 90
13
 70
0
 10
-11.8572807489
 20
-5.0433410215
 10
-11.8592401087
 20
-5.0263661169
 10
-11.8648446158
 20
-5.0091052195
 10
-11.8741722574
 20
-4.9919631363
 10
-11.8872260203
 20
-4.9755350481
 10
-11.9039617589
 20
-4.9600923799
 10
-11.9243172671
 20
-4.9455932711
 10
-11.9481060766
 20
-4.9325213763
 10
-11.9750775869
 20
-4.9213292993
 10
-12.0050098037
 20
-4.9119769721
 10
-12.0375286991
 20
-4.9047753257
 10
-12.0720693778
 20
-4.9003251316
 10
-12.1080037468
 20
-4.8990034542
  0
LWPOLYLINE
  5
3BC
100
AcDbEntity
  8
RACCORDO
100
AcDbPolyline
 62
7
  6
CONTINUOUS
 90
13
 70
0
 10
-11.8630985787
 20
42.4605519287
 10
-11.8652383395
 20
42.4931822254
 10
-11.8716188029
 20
42.5252542328
 10
-11.882130802
 20
42.5562192134
 10
-11.8965944813
 20
42.5855473708
 10
-11.914762374
 20
42.6127369134
 10
-11.9363236357
 20
42.6373226409
 10
-11.9609093632
 20
42.6588839026
 10
-11.9880989058
 20
42.6770517953
 10
-12.0174270632
 20
42.6915154746
 10
-12.0483920438
 20
42.7020274737
 10
-12.0804640512
 20
42.708407937
 10
-12.1130943479
 20
42.7105476979
  0
LWPOLYLINE
  5
3BD
100
AcDbEntity
  8
RACCORDO
100
AcDbPolyline
 62
7
  6
CONTINUOUS
 90
3
 70
0
 10
-11.85
 20
42.4736505074
 10
-11.8521397607
 20
42.5062808042
 10
-11.8585202239
 20
42.5383528116
  0
LINE
  5
3BE
100
AcDbEntity
  8
RACCORDO
100
AcDbLine
 62
250
  6
CONTINUOUS
 10
32.9000042308
 20
42.7236462766
 11
32.8869056521
 21
42.7105476979
  0
LINE
  5
3BF
100
AcDbEntity
  8
RACCORDO
100
AcDbLine
 62
7
  6
CONTINUOUS
 10
-26.4327640851
 20
-5.3939378788
 11
-26.3970826234
 21
-5.3716960749
  0
LWPOLYLINE
  5
3C0
100
AcDbEntity
  8
RACCORDO
100
AcDbPolyline
 62
7
  6
CONTINUOUS
 90
11
 70
0
 10
18.2037926863
 20
-5.5716926902
 10
18.231855823
 20
-5.5688071366
 10
18.2611857674
 20
-5.5611338067
 10
18.2917825193
 20
-5.5495886651
 10
18.3238543749
 20
-5.5352372543
 10
18.3571930382
 20
-5.5188423979
 10
18.3911736206
 20
-5.5005603468
 10
18.4257496876
 20
-5.4807803249
 10
18.4609676738
 20
-5.4600741748
 10
18.4963419942
 20
-5.4385100562
 10
18.5672359149
 20
-5.3939378788
  0
LWPOLYLINE
  5
3C1
100
AcDbEntity
  8
RACCORDO
100
AcDbPolyline
 62
7
  6
CONTINUOUS
 90
13
 70
0
 10
13.9883600852
 20
-6.2632508646
 10
14.0196669035
 20
-6.2610981041
 10
14.0518735206
 20
-6.2546635988
 10
14.0829688188
 20
-6.2440585345
 10
14.1124173911
 20
-6.2294603263
 10
14.1397049942
 20
-6.2111184141
 10
14.1643499838
 20
-6.1893538915
 10
14.1859690879
 20
-6.1644863419
 10
14.2041301781
 20
-6.1369912247
 10
14.2184331225
 20
-6.1075537933
 10
14.2286923854
 20
-6.0767890568
 10
14.2348544396
 20
-6.045177202
 10
14.2354512088
 20
-6.0401394533
  0
LWPOLYLINE
  5
3C2
100
AcDbEntity
  8
RACCORDO
100
AcDbPolyline
 62
7
  6
CONTINUOUS
 90
3
 70
0
 10
32.9000042308
 20
-6.2763537234
 10
32.9326345276
 20
-6.2742139627
 10
32.964706535
 20
-6.2678334995
  0
LWPOLYLINE
  5
3C3
100
AcDbEntity
  8
RACCORDO
100
AcDbPolyline
 62
7
  6
CONTINUOUS
 90
13
 70
0
 10
32.8869056521
 20
-6.2632551447
 10
32.9195359488
 20
-6.2611153839
 10
32.9516079562
 20
-6.2547349205
 10
32.9825729368
 20
-6.2442229214
 10
33.0119010942
 20
-6.2297592421
 10
33.0390906368
 20
-6.2115913494
 10
33.0636763643
 20
-6.1900300877
 10
33.085237626
 20
-6.1654443602
 10
33.1034055187
 20
-6.1382548176
 10
33.117869198
 20
-6.1089266602
 10
33.1283811971
 20
-6.0779616796
 10
33.1347616605
 20
-6.0458896722
 10
33.1369014213
 20
-6.0132593755
  0
LWPOLYLINE
  5
3C4
100
AcDbEntity
  8
RACCORDO
100
AcDbPolyline
 62
7
  6
CONTINUOUS
 90
3
 70
0
 10
14.0000042308
 20
-6.2763537234
 10
14.0326345276
 20
-6.2742139627
 10
14.064706535
 20
-6.2678334995
  0
LINE
  5
3C5
100
AcDbEntity
  8
RACCORDO
100
AcDbLine
 62
250
  6
CONTINUOUS
 10
-14.0137857299
 20
-6.2618049322
 11
-13.9869056521
 21
-6.2632551447
  0
LINE
  5
3C6
100
AcDbEntity
  8
RACCORDO
100
AcDbLine
 62
7
  6
CONTINUOUS
 10
-33.1499982782
 20
-4.1760461527
 11
-33.2136405569
 21
-4.1697166914
  0
LWPOLYLINE
  5
3C7
100
AcDbEntity
  8
RACCORDO
100
AcDbPolyline
 62
7
  6
CONTINUOUS
 90
10
 70
0
 10
-18.2037926863
 20
-5.5716926902
 10
-18.231855823
 20
-5.5688071366
 10
-18.2611857674
 20
-5.5611338067
 10
-18.2917825193
 20
-5.5495886651
 10
-18.3238543749
 20
-5.5352372543
 10
-18.3571930382
 20
-5.5188423979
 10
-18.3911736206
 20
-5.5005603468
 10
-18.4257496876
 20
-5.4807803249
 10
-18.4609676738
 20
-5.4600741748
 10
-18.4963419942
 20
-5.4385100562
  0
LWPOLYLINE
  5
3C8
100
AcDbEntity
  8
RACCORDO
100
AcDbPolyline
 62
7
  6
CONTINUOUS
 90
13
 70
0
 10
-14.2427192511
 20
41.4906335747
 10
-14.2407598913
 20
41.4736586701
 10
-14.2351553842
 20
41.4563977727
 10
-14.2258277426
 20
41.4392556895
 10
-14.2127739797
 20
41.4228276013
 10
-14.1960382411
 20
41.4073849331
 10
-14.1756827329
 20
41.3928858243
 10
-14.1518939234
 20
41.3798139295
 10
-14.1249224131
 20
41.3686218525
 10
-14.0949901963
 20
41.3592695253
 10
-14.0624713009
 20
41.3520678788
 10
-14.0279306222
 20
41.3476176848
 10
-13.9919962532
 20
41.3462960074
  0
LWPOLYLINE
  5
3C9
100
AcDbEntity
  8
RACCORDO
100
AcDbPolyline
 62
7
  6
CONTINUOUS
 90
6
 70
0
 10
-11.9016637948
 20
-6.1785429393
 10
-11.8834959022
 20
-6.1513533965
 10
-11.8690322229
 20
-6.1220252391
 10
-11.8585202239
 20
-6.0910602584
 10
-11.8521397607
 20
-6.058988251
 10
-11.85
 20
-6.0263579542
  0
LINE
  5
3CA
100
AcDbEntity
  8
RACCORDO
100
AcDbLine
 62
7
  6
CONTINUOUS
 10
30.8232250565
 20
42.6504212201
 11
30.8016637948
 21
42.6258354925
  0
LINE
  5
3CB
100
AcDbEntity
  8
RACCORDO
100
AcDbLine
 62
250
  6
CONTINUOUS
 10
28.6504150764
 20
38.3878964657
 11
28.4463885715
 21
38.1732842727
  0
LINE
  5
3CC
100
AcDbEntity
  8
RACCORDO
100
AcDbLine
 62
250
  6
CONTINUOUS
 10
33.15
 20
42.4736505074
 11
33.1369014213
 21
42.4605519287
  0
LINE
  5
3CD
100
AcDbEntity
  8
RACCORDO
100
AcDbLine
 62
250
  6
CONTINUOUS
 10
-14.25
 20
-6.0263579542
 11
-14.2369014213
 21
-6.0132593755
  0
LINE
  5
3CE
100
AcDbEntity
  8
RACCORDO
100
AcDbLine
 62
250
  6
CONTINUOUS
 10
-14.0000042308
 20
-6.2763537234
 11
-13.9996205848
 21
-6.2759700774
  0
LWPOLYLINE
  5
3CF
100
AcDbEntity
  8
RACCORDO
100
AcDbPolyline
 62
7
  6
CONTINUOUS
 90
3
 70
0
 10
-11.9478107841
 20
-6.2246899286
 10
-11.9232250565
 20
-6.2031286669
 10
-11.9016637948
 20
-6.1785429393
  0
LWPOLYLINE
  5
3D0
100
AcDbEntity
  8
RACCORDO
100
AcDbPolyline
 62
7
  6
CONTINUOUS
 90
4
 70
0
 10
-30.935293465
 20
-6.2678334995
 10
-30.9043284843
 20
-6.2573215005
 10
-30.8750003269
 20
-6.2428578212
 10
-30.8478107841
 20
-6.2246899286
  0
LWPOLYLINE
  5
3D1
100
AcDbEntity
  8
RACCORDO
100
AcDbPolyline
 62
7
  6
CONTINUOUS
 90
13
 70
0
 10
-31.0116399148
 20
-6.2632508646
 10
-30.9803330965
 20
-6.2610981041
 10
-30.9481264794
 20
-6.2546635988
 10
-30.9170311812
 20
-6.2440585345
 10
-30.8875826089
 20
-6.2294603263
 10
-30.8602950058
 20
-6.2111184141
 10
-30.8356500162
 20
-6.1893538915
 10
-30.8140309121
 20
-6.1644863419
 10
-30.7958698219
 20
-6.1369912247
 10
-30.7815668775
 20
-6.1075537933
 10
-30.7713076146
 20
-6.0767890568
 10
-30.7651455604
 20
-6.045177202
 10
-30.7645487912
 20
-6.0401394533
  0
LWPOLYLINE
  5
3D2
100
AcDbEntity
  8
RACCORDO
100
AcDbPolyline
 62
250
  6
CONTINUOUS
 90
13
 70
0
 10
32.9992759622
 20
-3.7750789454
 10
33.064492968
 20
-3.7707524984
 10
33.1285951153
 20
-3.757966152
 10
33.1904868444
 20
-3.736938526
 10
33.2491104325
 20
-3.7080290644
 10
33.303463945
 20
-3.6717319473
 10
33.3526183907
 20
-3.628667691
 10
33.3957337578
 20
-3.5795724309
 10
33.4320733308
 20
-3.5252852898
 10
33.4610161767
 20
-3.4667341267
 10
33.4820677908
 20
-3.4049196447
 10
33.4948685415
 20
-3.3408982858
 10
33.4991998097
 20
-3.275764178
  0
LWPOLYLINE
  5
3D3
100
AcDbEntity
  8
RACCORDO
100
AcDbPolyline
 62
7
  6
CONTINUOUS
 90
3
 70
0
 10
-12.0999957692
 20
-6.2763537234
 10
-12.0673654724
 20
-6.2742139627
 10
-12.035293465
 20
-6.2678334995
  0
LWPOLYLINE
  5
3D4
100
AcDbEntity
  8
RACCORDO
100
AcDbPolyline
 62
7
  6
CONTINUOUS
 90
13
 70
0
 10
-12.1130943479
 20
-6.2632551447
 10
-12.0804640512
 20
-6.2611153839
 10
-12.0483920438
 20
-6.2547349205
 10
-12.0174270632
 20
-6.2442229214
 10
-11.9880989058
 20
-6.2297592421
 10
-11.9609093632
 20
-6.2115913494
 10
-11.9363236357
 20
-6.1900300877
 10
-11.914762374
 20
-6.1654443602
 10
-11.8965944813
 20
-6.1382548176
 10
-11.882130802
 20
-6.1089266602
 10
-11.8716188029
 20
-6.0779616796
 10
-11.8652383395
 20
-6.0458896722
 10
-11.8630985787
 20
-6.0132593755
  0
LWPOLYLINE
  5
3D5
100
AcDbEntity
  8
RACCORDO
100
AcDbPolyline
 62
7
  6
CONTINUOUS
 90
3
 70
0
 10
-30.9999957692
 20
-6.2763537234
 10
-30.9673654724
 20
-6.2742139627
 10
-30.935293465
 20
-6.2678334995
  0
LWPOLYLINE
  5
3D6
100
AcDbEntity
  8
RACCORDO
100
AcDbPolyline
 62
250
  6
CONTINUOUS
 90
13
 70
0
 10
32.98353153
 20
-2.7252478342
 10
33.0481056144
 20
-2.7236755141
 10
33.111598093
 20
-2.7196275885
 10
33.1729454769
 20
-2.7131718595
 10
33.2311202071
 20
-2.7044164596
 10
33.2851478659
 20
-2.6935080404
 10
33.3341234987
 20
-2.6806293159
 10
33.3772267712
 20
-2.6659960027
 10
33.4137357106
 20
-2.6498532066
 10
33.4430387977
 20
-2.6324713167
 10
33.4646452106
 20
-2.6141414771
 10
33.4781930453
 20
-2.5951707097
 10
33.4834553775
 20
-2.5758767718
  0
LINE
  5
3D7
100
AcDbEntity
  8
RACCORDO
100
AcDbLine
 62
250
  6
CONTINUOUS
 10
13.9869056521
 20
-6.2632551447
 11
13.9883600852
 21
-6.2632508646
  0
LINE
  5
3D8
100
AcDbEntity
  8
RACCORDO
100
AcDbLine
 62
250
  6
CONTINUOUS
 10
-31.0130943479
 20
-6.2632551447
 11
-31.0116399148
 21
-6.2632508646
  0
LINE
  5
3D9
100
AcDbEntity
  8
RACCORDO
100
AcDbLine
 62
7
  6
CONTINUOUS
 10
32.9000042308
 20
-6.2763537234
 11
30.9999957692
 21
-6.2763537234
  0
LINE
  5
3DA
100
AcDbEntity
  8
RACCORDO
100
AcDbLine
 62
7
  6
CONTINUOUS
 10
14.0000042308
 20
-6.2763537234
 11
12.0999957692
 21
-6.2763537234
  0
LINE
  5
3DB
100
AcDbEntity
  8
RACCORDO
100
AcDbLine
 62
7
  6
CONTINUOUS
 10
-12.0999957692
 20
-6.2763537234
 11
-14.0000042308
 21
-6.2763537234
  0
LINE
  5
3DC
100
AcDbEntity
  8
RACCORDO
100
AcDbLine
 62
7
  6
CONTINUOUS
 10
-30.9999957692
 20
-6.2763537234
 11
-32.9000042308
 21
-6.2763537234
  0
LINE
  5
3DD
100
AcDbEntity
  8
RACCORDO
100
AcDbLine
 62
7
  6
CONTINUOUS
 10
-32.8869056521
 20
-6.2632551447
 11
-31.0130943479
 21
-6.2632551447
  0
LINE
  5
3DE
100
AcDbEntity
  8
RACCORDO
100
AcDbLine
 62
7
  6
CONTINUOUS
 10
-13.9869056521
 20
-6.2632551447
 11
-12.1130943479
 21
-6.2632551447
  0
LINE
  5
3DF
100
AcDbEntity
  8
RACCORDO
100
AcDbLine
 62
7
  6
CONTINUOUS
 10
12.1130943479
 20
-6.2632551447
 11
13.9869056521
 21
-6.2632551447
  0
LINE
  5
3E0
100
AcDbEntity
  8
RACCORDO
100
AcDbLine
 62
7
  6
CONTINUOUS
 10
31.0130943479
 20
-6.2632551447
 11
32.8869056521
 21
-6.2632551447
  0
LINE
  5
3E1
100
AcDbEntity
  8
RACCORDO
100
AcDbLine
 62
250
  6
CONTINUOUS
 10
-11.8630985787
 20
-6.0132593755
 11
-14.2369014213
 21
-6.0132593755
  0
LINE
  5
3E2
100
AcDbEntity
  8
RACCORDO
100
AcDbLine
 62
250
  6
CONTINUOUS
 10
11.8630985787
 20
-6.0132593755
 11
14.2369014213
 21
-6.0132593755
  0
LINE
  5
3E3
100
AcDbEntity
  8
RACCORDO
100
AcDbLine
 62
250
  6
CONTINUOUS
 10
30.7630985787
 20
-6.0132593755
 11
33.1369014213
 21
-6.0132593755
  0
LINE
  5
3E4
100
AcDbEntity
  8
RACCORDO
100
AcDbLine
 62
250
  6
CONTINUOUS
 10
-30.7630985787
 20
-6.0132593755
 11
-33.1369014213
 21
-6.0132593755
  0
LINE
  5
3E5
100
AcDbEntity
  8
RACCORDO
100
AcDbLine
 62
250
  6
CONTINUOUS
 10
-11.8630985787
 20
-5.6206912907
 11
-14.2369014213
 21
-5.6206912907
  0
LINE
  5
3E6
100
AcDbEntity
  8
RACCORDO
100
AcDbLine
 62
250
  6
CONTINUOUS
 10
11.8630985787
 20
-5.6206912907
 11
14.2369014213
 21
-5.6206912907
  0
LINE
  5
3E7
100
AcDbEntity
  8
RACCORDO
100
AcDbLine
 62
250
  6
CONTINUOUS
 10
30.7630985787
 20
-5.6206912907
 11
33.1369014213
 21
-5.6206912907
  0
LINE
  5
3E8
100
AcDbEntity
  8
RACCORDO
100
AcDbLine
 62
250
  6
CONTINUOUS
 10
-30.7630985787
 20
-5.6206912907
 11
-33.1369014213
 21
-5.6206912907
  0
LINE
  5
3E9
100
AcDbEntity
  8
RACCORDO
100
AcDbLine
 62
7
  6
CONTINUOUS
 10
-26.7962073137
 20
-5.5716926902
 11
-18.2037926863
 21
-5.5716926902
  0
LINE
  5
3EA
100
AcDbEntity
  8
RACCORDO
100
AcDbLine
 62
7
  6
CONTINUOUS
 10
18.2037926863
 20
-5.5716926902
 11
26.7962073137
 21
-5.5716926902
  0
LINE
  5
3EB
100
AcDbEntity
  8
RACCORDO
100
AcDbLine
 62
250
  6
CONTINUOUS
 10
32.8869056521
 20
-5.4041849398
 11
31.0130943479
 21
-5.4041849398
  0
LINE
  5
3EC
100
AcDbEntity
  8
RACCORDO
100
AcDbLine
 62
250
  6
CONTINUOUS
 10
13.9869056521
 20
-5.4041849398
 11
12.1130943479
 21
-5.4041849398
  0
LINE
  5
3ED
100
AcDbEntity
  8
RACCORDO
100
AcDbLine
 62
250
  6
CONTINUOUS
 10
-12.1130943479
 20
-5.4041849398
 11
-13.9869056521
 21
-5.4041849398
  0
LINE
  5
3EE
100
AcDbEntity
  8
RACCORDO
100
AcDbLine
 62
250
  6
CONTINUOUS
 10
-31.0130943479
 20
-5.4041849398
 11
-32.8869056521
 21
-5.4041849398
  0
LINE
  5
3EF
100
AcDbEntity
  8
RACCORDO
100
AcDbLine
 62
250
  6
CONTINUOUS
 10
-26.3970826234
 20
-5.3716960749
 11
-18.6029173766
 21
-5.3716960749
  0
LINE
  5
3F0
100
AcDbEntity
  8
RACCORDO
100
AcDbLine
 62
250
  6
CONTINUOUS
 10
18.6029173766
 20
-5.3716960749
 11
26.3970826234
 21
-5.3716960749
  0
LINE
  5
3F1
100
AcDbEntity
  8
RACCORDO
100
AcDbLine
 62
7
  6
CONTINUOUS
 10
32.8927234819
 20
-4.8990034542
 11
31.0072765181
 21
-4.8990034542
  0
LINE
  5
3F2
100
AcDbEntity
  8
RACCORDO
100
AcDbLine
 62
7
  6
CONTINUOUS
 10
13.9927234819
 20
-4.8990034542
 11
12.1072765181
 21
-4.8990034542
  0
LINE
  5
3F3
100
AcDbEntity
  8
RACCORDO
100
AcDbLine
 62
7
  6
CONTINUOUS
 10
-12.1072765181
 20
-4.8990034542
 11
-13.9927234819
 21
-4.8990034542
  0
LINE
  5
3F4
100
AcDbEntity
  8
RACCORDO
100
AcDbLine
 62
7
  6
CONTINUOUS
 10
-31.0072765181
 20
-4.8990034542
 11
-32.8927234819
 21
-4.8990034542
  0
LINE
  5
3F5
100
AcDbEntity
  8
DRAFT
100
AcDbLine
 62
7
  6
CONTINUOUS
 10
-30.75
 20
-4.1763537234
 11
-26.9
 21
-4.1763537234
  0
LINE
  5
3F6
100
AcDbEntity
  8
DRAFT
100
AcDbLine
 62
7
  6
CONTINUOUS
 10
-18.1
 20
-4.1763537234
 11
-14.25
 21
-4.1763537234
  0
LINE
  5
3F7
100
AcDbEntity
  8
DRAFT
100
AcDbLine
 62
7
  6
CONTINUOUS
 10
-11.85
 20
-4.1763537234
 11
11.85
 21
-4.1763537234
  0
LINE
  5
3F8
100
AcDbEntity
  8
DRAFT
100
AcDbLine
 62
7
  6
CONTINUOUS
 10
14.25
 20
-4.1763537234
 11
18.1
 21
-4.1763537234
  0
LINE
  5
3F9
100
AcDbEntity
  8
DRAFT
100
AcDbLine
 62
7
  6
CONTINUOUS
 10
26.9
 20
-4.1763537234
 11
30.75
 21
-4.1763537234
  0
LINE
  5
3FA
100
AcDbEntity
  8
RACCORDO
100
AcDbLine
 62
7
  6
CONTINUOUS
 10
-26.3970826234
 20
-4.1239459441
 11
-18.6029173766
 21
-4.1239459441
  0
LINE
  5
3FB
100
AcDbEntity
  8
RACCORDO
100
AcDbLine
 62
7
  6
CONTINUOUS
 10
18.6029173766
 20
-4.1239459441
 11
26.3970826234
 21
-4.1239459441
  0
LINE
  5
3FC
100
AcDbEntity
  8
RACCORDO
100
AcDbLine
 62
7
  6
CONTINUOUS
 10
32.8927234819
 20
-4.0977420545
 11
31.0072765181
 21
-4.0977420545
  0
LINE
  5
3FD
100
AcDbEntity
  8
RACCORDO
100
AcDbLine
 62
7
  6
CONTINUOUS
 10
13.9927234819
 20
-4.0977420545
 11
12.1072765181
 21
-4.0977420545
  0
LINE
  5
3FE
100
AcDbEntity
  8
RACCORDO
100
AcDbLine
 62
7
  6
CONTINUOUS
 10
-12.1072765181
 20
-4.0977420545
 11
-13.9927234819
 21
-4.0977420545
  0
LINE
  5
3FF
100
AcDbEntity
  8
RACCORDO
100
AcDbLine
 62
7
  6
CONTINUOUS
 10
-31.0072765181
 20
-4.0977420545
 11
-32.8927234819
 21
-4.0977420545
  0
LINE
  5
400
100
AcDbEntity
  8
RACCORDO
100
AcDbLine
 62
250
  6
CONTINUOUS
 10
32.9992759622
 20
-3.7750789454
 11
-32.9992759622
 21
-3.7750789454
  0
LWPOLYLINE
  5
401
100
AcDbEntity
  8
RACCORDO
100
AcDbPolyline
 62
250
  6
CONTINUOUS
 90
13
 70
0
 10
-32.98353153
 20
-2.7252419985
 10
-33.0481044523
 20
-2.7236697569
 10
-33.1115958315
 20
-2.7196220239
 10
-33.1729422355
 20
-2.713166596
 10
-33.2311161589
 20
-2.7044115967
 10
-33.285143233
 20
-2.6935036655
 10
-33.3341185455
 20
-2.6806255017
 10
-33.3772217973
 20
-2.6659928046
 10
-33.413731042
 20
-2.6498506608
 10
-33.4430347776
 20
-2.6324694389
 10
-33.4646421889
 20
-2.6141402611
 10
-33.4781913683
 20
-2.5951701269
 10
-33.4834553773
 20
-2.5758767718
  0
LINE
  5
402
100
AcDbEntity
  8
RACCORDO
100
AcDbLine
 62
250
  6
CONTINUOUS
 10
30.9862142701
 20
-6.2618049322
 11
31.0130943479
 21
-6.2632551447
  0
LWPOLYLINE
  5
403
100
AcDbEntity
  8
RACCORDO
100
AcDbPolyline
 62
250
  6
CONTINUOUS
 90
13
 70
0
 10
-32.9992759622
 20
-3.7750789454
 10
-33.0644914191
 20
-3.7707527032
 10
-33.128592317
 20
-3.7579669027
 10
-33.1904831449
 20
-3.7369400586
 10
-33.249106163
 20
-3.7080315282
 10
-33.3034594798
 20
-3.6717353704
 10
-33.3526141747
 20
-3.6286719015
 10
-33.3957301736
 20
-3.5795770939
 10
-33.4320706064
 20
-3.5252899982
 10
-33.4610144001
 20
-3.4667384033
 10
-33.4820668933
 20
-3.4049229801
 10
-33.4948682903
 20
-3.3409001796
 10
-33.4991998097
 20
-3.275764178
  0
LWPOLYLINE
  5
404
100
AcDbEntity
  8
RACCORDO
100
AcDbPolyline
 62
7
  6
CONTINUOUS
 90
10
 70
0
 10
-33.1427192511
 20
40.557057238
 10
-33.1422178214
 20
40.5563285625
 10
-33.1408828865
 20
40.5556405513
 10
-33.138718413
 20
40.5549932044
 10
-33.135730537
 20
40.5544015573
 10
-33.1319290805
 20
40.5538505746
 10
-33.1273289685
 20
40.5532951497
 10
-33.121947422
 20
40.5527202471
 10
-33.1158024523
 20
40.5521409023
 10
-33.10891534
 20
40.5515571152
  0
LINE
  5
405
100
AcDbEntity
  8
RACCORDO
100
AcDbLine
 62
250
  6
CONTINUOUS
 10
-28.6504150764
 20
39.7462248483
 11
-27.7383711558
 21
38.0235129051
  0
LWPOLYLINE
  5
406
100
AcDbEntity
  8
0
100
AcDbPolyline
 62
7
  6
CONTINUOUS
 90
4
 70
0
 43
0.3500000087
 10
-1.9285714658
 20
53.8307932983
 10
-1.9285714658
 20
54.4736486328
 10
-0.4285714331
 20
54.4736486328
 10
-1.2857142661
 20
51.4736457031
  0
LWPOLYLINE
  5
407
100
AcDbEntity
  8
RACCORDO
100
AcDbPolyline
 62
7
  6
CONTINUOUS
 90
11
 70
0
 10
-26.7962073137
 20
-5.5716926902
 10
-26.768144177
 20
-5.5688071366
 10
-26.7388142326
 20
-5.5611338067
 10
-26.7082174807
 20
-5.5495886651
 10
-26.6761456251
 20
-5.5352372543
 10
-26.6428069618
 20
-5.5188423979
 10
-26.6088263794
 20
-5.5005603468
 10
-26.5742503124
 20
-5.4807803249
 10
-26.5390323262
 20
-5.4600741748
 10
-26.5036580058
 20
-5.4385100562
 10
-26.4327640851
 20
-5.3939378788
  0
LWPOLYLINE
  5
408
100
AcDbEntity
  8
RACCORDO
100
AcDbPolyline
 62
7
  6
CONTINUOUS
 90
10
 70
0
 10
-33.10891534
 20
-4.104264562
 10
-33.1158024523
 20
-4.1048483491
 10
-33.121947422
 20
-4.1054276939
 10
-33.1273289685
 20
-4.1060025965
 10
-33.1319290805
 20
-4.1065580215
 10
-33.135730537
 20
-4.1071090041
 10
-33.138718413
 20
-4.1077006512
 10
-33.1408828865
 20
-4.1083479981
 10
-33.1422178214
 20
-4.1090360093
 10
-33.1427192511
 20
-4.1097646848
  0
LINE
  5
409
100
AcDbEntity
  8
RACCORDO
100
AcDbLine
 62
250
  6
CONTINUOUS
 10
32.9835315297
 20
-2.7252477901
 11
-32.9835315297
 21
-2.7252477901
  0
LWPOLYLINE
  5
40A
100
AcDbEntity
  8
RACCORDO
100
AcDbPolyline
 62
7
  6
CONTINUOUS
 90
10
 70
0
 10
26.7962073137
 20
-5.5716926902
 10
26.768144177
 20
-5.5688071366
 10
26.7388142326
 20
-5.5611338067
 10
26.7082174807
 20
-5.5495886651
 10
26.6761456251
 20
-5.5352372543
 10
26.6428069618
 20
-5.5188423979
 10
26.6088263794
 20
-5.5005603468
 10
26.5742503124
 20
-5.4807803249
 10
26.5390323262
 20
-5.4600741748
 10
26.5036580058
 20
-5.4385100562
  0
LWPOLYLINE
  5
40B
100
AcDbEntity
  8
RACCORDO
100
AcDbPolyline
 62
7
  6
CONTINUOUS
 90
6
 70
0
 10
30.8016637948
 20
42.6258354925
 10
30.7834959022
 20
42.5986459497
 10
30.7690322229
 20
42.5693177923
 10
30.7585202239
 20
42.5383528116
 10
30.7521397607
 20
42.5062808042
 10
30.75
 20
42.4736505074
  0
LWPOLYLINE
  5
40C
100
AcDbEntity
  8
RACCORDO
100
AcDbPolyline
 62
7
  6
CONTINUOUS
 90
4
 70
0
 10
-12.035293465
 20
-6.2678334995
 10
-12.0043284843
 20
-6.2573215005
 10
-11.9750003269
 20
-6.2428578212
 10
-11.9478107841
 20
-6.2246899286
  0
LWPOLYLINE
  5
40D
100
AcDbEntity
  8
RACCORDO
100
AcDbPolyline
 62
7
  6
CONTINUOUS
 90
6
 70
0
 10
11.9478107841
 20
-6.2246899286
 10
11.9750003269
 20
-6.2428578212
 10
12.0043284843
 20
-6.2573215005
 10
12.035293465
 20
-6.2678334995
 10
12.0673654724
 20
-6.2742139627
 10
12.0999957692
 20
-6.2763537234
  0
LWPOLYLINE
  5
40E
100
AcDbEntity
  8
RACCORDO
100
AcDbPolyline
 62
7
  6
CONTINUOUS
 90
4
 70
0
 10
-11.8585202239
 20
42.5383528116
 10
-11.8690322229
 20
42.5693177923
 10
-11.8834959022
 20
42.5986459497
 10
-11.9016637948
 20
42.6258354925
  0
LINE
  5
40F
100
AcDbEntity
  8
RACCORDO
100
AcDbLine
 62
250
  6
CONTINUOUS
 10
27.7383715276
 20
38.0235136073
 11
28.6504150764
 21
39.7462248483
  0
LINE
  5
410
100
AcDbEntity
  8
RACCORDO
100
AcDbLine
 62
250
  6
CONTINUOUS
 10
14.0000042308
 20
-6.2763537234
 11
13.9869056521
 21
-6.2632551447
  0
LINE
  5
411
100
AcDbEntity
  8
RACCORDO
100
AcDbLine
 62
250
  6
CONTINUOUS
 10
14.25
 20
-6.0263579542
 11
14.249616354
 21
-6.0259743082
  0
LINE
  5
412
100
AcDbEntity
  8
RACCORDO
100
AcDbLine
 62
250
  6
CONTINUOUS
 10
-33.15
 20
42.4736505074
 11
-33.149616354
 21
42.4732668614
  0
LINE
  5
413
100
AcDbEntity
  8
RACCORDO
100
AcDbLine
 62
250
  6
CONTINUOUS
 10
-32.9000042308
 20
42.7236462766
 11
-32.8869056521
 21
42.7105476979
  0
LINE
  5
414
100
AcDbEntity
  8
RACCORDO
100
AcDbLine
 62
250
  6
CONTINUOUS
 10
-28.4463883893
 20
38.1732840811
 11
-28.6504150764
 21
38.3878964657
  0
LWPOLYLINE
  5
415
100
AcDbEntity
  8
RACCORDO
100
AcDbPolyline
 62
7
  6
CONTINUOUS
 90
3
 70
0
 10
11.9016637948
 20
-6.1785429393
 10
11.9232250565
 20
-6.2031286669
 10
11.9478107841
 20
-6.2246899286
  0
LINE
  5
416
100
AcDbEntity
  8
RACCORDO
100
AcDbLine
 62
250
  6
CONTINUOUS
 10
11.8645487912
 20
42.4874320065
 11
11.8630985787
 21
42.4605519287
  0
LWPOLYLINE
  5
417
100
AcDbEntity
  8
RACCORDO
100
AcDbPolyline
 62
250
  6
CONTINUOUS
 90
13
 70
0
 10
14.2369014213
 20
42.0679838439
 10
14.2347064178
 20
42.0399739217
 10
14.2283279628
 20
42.0123751212
 10
14.2178466465
 20
41.9856579853
 10
14.2034020758
 20
41.9602652967
 10
14.1852218751
 20
41.936660613
 10
14.1636448174
 20
41.9153054222
 10
14.139059086
 20
41.8965778624
 10
14.1118709875
 20
41.8807821195
 10
14.0825467008
 20
41.86818874
 10
14.0515883731
 20
41.8590127932
 10
14.0195252351
 20
41.8534105931
 10
13.9869056521
 20
41.8514774929
  0
LWPOLYLINE
  5
418
100
AcDbEntity
  8
RACCORDO
100
AcDbPolyline
 62
7
  6
CONTINUOUS
 90
13
 70
0
 10
14.2427192511
 20
41.4906335747
 10
14.2407598913
 20
41.4736586701
 10
14.2351553842
 20
41.4563977727
 10
14.2258277426
 20
41.4392556895
 10
14.2127739797
 20
41.4228276013
 10
14.1960382411
 20
41.4073849331
 10
14.1756827329
 20
41.3928858243
 10
14.1518939234
 20
41.3798139295
 10
14.1249224131
 20
41.3686218525
 10
14.0949901963
 20
41.3592695253
 10
14.0624713009
 20
41.3520678788
 10
14.0279306222
 20
41.3476176848
 10
13.9919962532
 20
41.3462960074
  0
LWPOLYLINE
  5
419
100
AcDbEntity
  8
RACCORDO
100
AcDbPolyline
 62
7
  6
CONTINUOUS
 90
4
 70
0
 10
14.064706535
 20
-6.2678334995
 10
14.0956715157
 20
-6.2573215005
 10
14.1249996731
 20
-6.2428578212
 10
14.1521892159
 20
-6.2246899286
  0
LWPOLYLINE
  5
41A
100
AcDbEntity
  8
RACCORDO
100
AcDbPolyline
 62
7
  6
CONTINUOUS
 90
3
 70
0
 10
26.5036580058
 20
-5.4385100562
 10
26.4327640851
 20
-5.3939378788
 10
26.3970826234
 20
-5.3716960749
  0
LWPOLYLINE
  5
41B
100
AcDbEntity
  8
RACCORDO
100
AcDbPolyline
 62
7
  6
CONTINUOUS
 90
4
 70
0
 10
11.8585202239
 20
-6.0910602584
 10
11.8690322229
 20
-6.1220252391
 10
11.8834959022
 20
-6.1513533965
 10
11.9016637948
 20
-6.1785429393
  0
LWPOLYLINE
  5
41C
100
AcDbEntity
  8
RACCORDO
100
AcDbPolyline
 62
250
  6
CONTINUOUS
 90
13
 70
0
 10
14.2369014213
 20
-5.6206912907
 10
14.2346758307
 20
-5.592483456
 10
14.2282264882
 20
-5.5647564818
 10
14.2176633362
 20
-5.5379830314
 10
14.2031664453
 20
-5.5126195132
 10
14.1849829448
 20
-5.4890983006
 10
14.1634228098
 20
-5.4678203608
 10
14.1388535772
 20
-5.4491484202
 10
14.1116940799
 20
-5.4334007803
 10
14.0824073074
 20
-5.4208458921
 10
14.051492513
 20
-5.4116977793
 10
14.0194767028
 20
-5.4061123904
 10
13.9869056521
 20
-5.4041849398
  0
LWPOLYLINE
  5
41D
100
AcDbEntity
  8
RACCORDO
100
AcDbPolyline
 62
7
  6
CONTINUOUS
 90
3
 70
0
 10
11.85
 20
-6.0263579542
 10
11.8521397607
 20
-6.058988251
 10
11.8585202239
 20
-6.0910602584
  0
LWPOLYLINE
  5
41E
100
AcDbEntity
  8
RACCORDO
100
AcDbPolyline
 62
7
  6
CONTINUOUS
 90
13
 70
0
 10
11.8630985787
 20
-6.0132593755
 10
11.8652383395
 20
-6.0458896722
 10
11.8716188029
 20
-6.0779616796
 10
11.882130802
 20
-6.1089266602
 10
11.8965944813
 20
-6.1382548176
 10
11.914762374
 20
-6.1654443602
 10
11.9363236357
 20
-6.1900300877
 10
11.9609093632
 20
-6.2115913494
 10
11.9880989058
 20
-6.2297592421
 10
12.0174270632
 20
-6.2442229214
 10
12.0483920438
 20
-6.2547349205
 10
12.0804640512
 20
-6.2611153839
 10
12.1130943479
 20
-6.2632551447
  0
LINE
  5
41F
100
AcDbEntity
  8
RACCORDO
100
AcDbLine
 62
250
  6
CONTINUOUS
 10
11.8630985787
 20
-5.6206912907
 11
11.8572807489
 21
-5.0433410215
  0
LINE
  5
420
100
AcDbEntity
  8
RACCORDO
100
AcDbLine
 62
250
  6
CONTINUOUS
 10
12.1130943479
 20
-5.4041849398
 11
12.1080037468
 21
-4.8990034542
  0
LINE
  5
421
100
AcDbEntity
  8
RACCORDO
100
AcDbLine
 62
250
  6
CONTINUOUS
 10
13.9869056521
 20
41.8514774929
 11
13.9919962532
 21
41.3462960074
  0
LINE
  5
422
100
AcDbEntity
  8
RACCORDO
100
AcDbLine
 62
250
  6
CONTINUOUS
 10
14.2369014213
 20
42.0679838439
 11
14.2427192511
 21
41.4906335747
  0
LINE
  5
423
100
AcDbEntity
  8
RACCORDO
100
AcDbLine
 62
7
  6
CONTINUOUS
 10
11.85
 20
-6.0263579542
 11
11.85
 21
-5.0433410215
  0
LINE
  5
424
100
AcDbEntity
  8
RACCORDO
100
AcDbLine
 62
7
  6
CONTINUOUS
 10
11.85
 20
41.4906335747
 11
11.85
 21
42.4736505074
  0
LINE
  5
425
100
AcDbEntity
  8
RACCORDO
100
AcDbLine
 62
7
  6
CONTINUOUS
 10
11.8572807489
 20
-5.0433410215
 11
11.8572807489
 21
-4.1107677757
  0
LINE
  5
426
100
AcDbEntity
  8
RACCORDO
100
AcDbLine
 62
7
  6
CONTINUOUS
 10
11.8572807489
 20
40.5580603289
 11
11.8572807489
 21
41.4906335747
  0
LINE
  5
427
100
AcDbEntity
  8
RACCORDO
100
AcDbLine
 62
7
  6
CONTINUOUS
 10
11.8630985787
 20
42.4605519287
 11
11.8630985787
 21
42.0679838439
  0
LINE
  5
428
100
AcDbEntity
  8
RACCORDO
100
AcDbLine
 62
7
  6
CONTINUOUS
 10
11.8630985787
 20
-5.6206912907
 11
11.8630985787
 21
-6.0132593755
  0
LINE
  5
429
100
AcDbEntity
  8
RACCORDO
100
AcDbLine
 62
250
  6
CONTINUOUS
 10
12.1072765181
 20
-4.8990034542
 11
12.1072765181
 21
-4.0977420545
  0
LINE
  5
42A
100
AcDbEntity
  8
RACCORDO
100
AcDbLine
 62
250
  6
CONTINUOUS
 10
12.1072765181
 20
40.5450346077
 11
12.1072765181
 21
41.3462960074
  0
LINE
  5
42B
100
AcDbEntity
  8
RACCORDO
100
AcDbLine
 62
250
  6
CONTINUOUS
 10
12.1130943479
 20
-6.2632551447
 11
12.1130943479
 21
-5.4041849398
  0
LINE
  5
42C
100
AcDbEntity
  8
RACCORDO
100
AcDbLine
 62
250
  6
CONTINUOUS
 10
12.1130943479
 20
41.8514774929
 11
12.1130943479
 21
42.7105476979
  0
LINE
  5
42D
100
AcDbEntity
  8
RACCORDO
100
AcDbLine
 62
250
  6
CONTINUOUS
 10
13.9869056521
 20
-6.2632551447
 11
13.9869056521
 21
-5.4041849398
  0
LINE
  5
42E
100
AcDbEntity
  8
RACCORDO
100
AcDbLine
 62
250
  6
CONTINUOUS
 10
13.9869056521
 20
41.8514774929
 11
13.9869056521
 21
42.7105476979
  0
LINE
  5
42F
100
AcDbEntity
  8
RACCORDO
100
AcDbLine
 62
250
  6
CONTINUOUS
 10
13.9927234819
 20
41.3462960074
 11
13.9927234819
 21
40.5450346077
  0
LINE
  5
430
100
AcDbEntity
  8
RACCORDO
100
AcDbLine
 62
250
  6
CONTINUOUS
 10
13.9927234819
 20
-4.0977420545
 11
13.9927234819
 21
-4.8990034542
  0
LINE
  5
431
100
AcDbEntity
  8
RACCORDO
100
AcDbLine
 62
7
  6
CONTINUOUS
 10
14.2369014213
 20
-6.0132593755
 11
14.2369014213
 21
-5.6206912907
  0
LINE
  5
432
100
AcDbEntity
  8
RACCORDO
100
AcDbLine
 62
7
  6
CONTINUOUS
 10
14.2369014213
 20
42.0679838439
 11
14.2369014213
 21
42.4605519287
  0
LINE
  5
433
100
AcDbEntity
  8
RACCORDO
100
AcDbLine
 62
7
  6
CONTINUOUS
 10
14.2427192511
 20
41.4906335747
 11
14.2427192511
 21
40.5580603289
  0
LINE
  5
434
100
AcDbEntity
  8
RACCORDO
100
AcDbLine
 62
7
  6
CONTINUOUS
 10
14.2427192511
 20
-4.1107677757
 11
14.2427192511
 21
-5.0433410215
  0
LINE
  5
435
100
AcDbEntity
  8
RACCORDO
100
AcDbLine
 62
7
  6
CONTINUOUS
 10
14.25
 20
-6.0263579542
 11
14.25
 21
-5.0433410215
  0
LINE
  5
436
100
AcDbEntity
  8
RACCORDO
100
AcDbLine
 62
7
  6
CONTINUOUS
 10
14.25
 20
41.4906335747
 11
14.25
 21
42.4736505074
  0
LINE
  5
437
100
AcDbEntity
  8
RACCORDO
100
AcDbLine
 62
250
  6
CONTINUOUS
 10
11.8572807489
 20
41.4906335747
 11
11.8630985787
 21
42.0679838439
  0
LINE
  5
438
100
AcDbEntity
  8
RACCORDO
100
AcDbLine
 62
250
  6
CONTINUOUS
 10
12.1080037468
 20
41.3462960074
 11
12.1130943479
 21
41.8514774929
  0
LINE
  5
439
100
AcDbEntity
  8
RACCORDO
100
AcDbLine
 62
250
  6
CONTINUOUS
 10
13.9919962532
 20
-4.8990034542
 11
13.9869056521
 21
-5.4041849398
  0
LINE
  5
43A
100
AcDbEntity
  8
RACCORDO
100
AcDbLine
 62
250
  6
CONTINUOUS
 10
14.2427192511
 20
-5.0433410215
 11
14.2369014213
 21
-5.6206912907
  0
LINE
  5
43B
100
AcDbEntity
  8
RACCORDO
100
AcDbLine
 62
250
  6
CONTINUOUS
 10
14.2354512088
 20
-6.0401394533
 11
14.2369014213
 21
-6.0132593755
  0
LWPOLYLINE
  5
43C
100
AcDbEntity
  8
RACCORDO
100
AcDbPolyline
 62
250
  6
CONTINUOUS
 90
13
 70
0
 10
11.8630985787
 20
-5.6206912907
 10
11.8653241693
 20
-5.592483456
 10
11.8717735118
 20
-5.5647564818
 10
11.8823366638
 20
-5.5379830314
 10
11.8968335547
 20
-5.5126195132
 10
11.9150170552
 20
-5.4890983006
 10
11.9365771902
 20
-5.4678203608
 10
11.9611464228
 20
-5.4491484202
 10
11.9883059201
 20
-5.4334007803
 10
12.0175926926
 20
-5.4208458921
 10
12.048507487
 20
-5.4116977793
 10
12.0805232972
 20
-5.4061123904
 10
12.1130943479
 20
-5.4041849398
  0
LWPOLYLINE
  5
43D
100
AcDbEntity
  8
RACCORDO
100
AcDbPolyline
 62
7
  6
CONTINUOUS
 90
13
 70
0
 10
11.8572807489
 20
-5.0433410215
 10
11.8592401087
 20
-5.0263661169
 10
11.8648446158
 20
-5.0091052195
 10
11.8741722574
 20
-4.9919631363
 10
11.8872260203
 20
-4.9755350481
 10
11.9039617589
 20
-4.9600923799
 10
11.9243172671
 20
-4.9455932711
 10
11.9481060766
 20
-4.9325213763
 10
11.9750775869
 20
-4.9213292993
 10
12.0050098037
 20
-4.9119769721
 10
12.0375286991
 20
-4.9047753257
 10
12.0720693778
 20
-4.9003251316
 10
12.1080037468
 20
-4.8990034542
  0
LWPOLYLINE
  5
43E
100
AcDbEntity
  8
RACCORDO
100
AcDbPolyline
 62
7
  6
CONTINUOUS
 90
7
 70
0
 10
14.1767749435
 20
-6.2031286669
 10
14.1983362052
 20
-6.1785429393
 10
14.2165040978
 20
-6.1513533965
 10
14.2309677771
 20
-6.1220252391
 10
14.2414797761
 20
-6.0910602584
 10
14.2478602393
 20
-6.058988251
 10
14.25
 20
-6.0263579542
  0
LINE
  5
43F
100
AcDbEntity
  8
RACCORDO
100
AcDbLine
 62
250
  6
CONTINUOUS
 10
11.85
 20
-6.0263579542
 11
11.8630985787
 21
-6.0132593755
  0
LINE
  5
440
100
AcDbEntity
  8
RACCORDO
100
AcDbLine
 62
250
  6
CONTINUOUS
 10
12.0999957692
 20
-6.2763537234
 11
12.1130943479
 21
-6.2632551447
  0
LINE
  5
441
100
AcDbEntity
  8
RACCORDO
100
AcDbLine
 62
7
  6
CONTINUOUS
 10
14.1521892159
 20
-6.2246899286
 11
14.1767749435
 21
-6.2031286669
  0
LINE
  5
442
100
AcDbEntity
  8
RACCORDO
100
AcDbLine
 62
7
  6
CONTINUOUS
 10
18.5672359149
 20
-5.3939378788
 11
18.6029173766
 21
-5.3716960749
  0
LINE
  5
443
100
AcDbEntity
  8
RACCORDO
100
AcDbLine
 62
7
  6
CONTINUOUS
 10
-30.8232250565
 20
42.6504212201
 11
-30.8478107841
 21
42.6719824818
  0
LWPOLYLINE
  5
444
100
AcDbEntity
  8
RACCORDO
100
AcDbPolyline
 62
7
  6
CONTINUOUS
 90
13
 70
0
 10
14.2427192511
 20
-5.0433410215
 10
14.2407598913
 20
-5.0263661169
 10
14.2351553842
 20
-5.0091052195
 10
14.2258277426
 20
-4.9919631363
 10
14.2127739797
 20
-4.9755350481
 10
14.1960382411
 20
-4.9600923799
 10
14.1756827329
 20
-4.9455932711
 10
14.1518939234
 20
-4.9325213763
 10
14.1249224131
 20
-4.9213292993
 10
14.0949901963
 20
-4.9119769721
 10
14.0624713009
 20
-4.9047753257
 10
14.0279306222
 20
-4.9003251316
 10
13.9919962532
 20
-4.8990034542
  0
LWPOLYLINE
  5
445
100
AcDbEntity
  8
RACCORDO
100
AcDbPolyline
 62
250
  6
CONTINUOUS
 90
13
 70
0
 10
11.8630985787
 20
42.0679838439
 10
11.8652935822
 20
42.0399739217
 10
11.8716720372
 20
42.0123751212
 10
11.8821533535
 20
41.9856579853
 10
11.8965979242
 20
41.9602652967
 10
11.9147781249
 20
41.936660613
 10
11.9363551826
 20
41.9153054222
 10
11.960940914
 20
41.8965778624
 10
11.9881290125
 20
41.8807821195
 10
12.0174532992
 20
41.86818874
 10
12.0484116269
 20
41.8590127932
 10
12.0804747649
 20
41.8534105931
 10
12.1130943479
 20
41.8514774929
  0
LWPOLYLINE
  5
446
100
AcDbEntity
  8
RACCORDO
100
AcDbPolyline
 62
7
  6
CONTINUOUS
 90
3
 70
0
 10
14.25
 20
42.4736505074
 10
14.2478602393
 20
42.5062808042
 10
14.2414797761
 20
42.5383528116
  0
LINE
  5
447
100
AcDbEntity
  8
RACCORDO
100
AcDbLine
 62
250
  6
CONTINUOUS
 10
14.2369014213
 20
42.4605519287
 11
14.2354512088
 21
42.4874320065
  0
LINE
  5
448
100
AcDbEntity
  8
RACCORDO
100
AcDbLine
 62
7
  6
CONTINUOUS
 10
18.1029258382
 20
42.0207204384
 11
18.1029258382
 21
40.5972899398
  0
LINE
  5
449
100
AcDbEntity
  8
RACCORDO
100
AcDbLine
 62
7
  6
CONTINUOUS
 10
18.1029258382
 20
-4.1499973866
 11
18.1029258382
 21
-5.5734278852
  0
LINE
  5
44A
100
AcDbEntity
  8
RACCORDO
100
AcDbLine
 62
250
  6
CONTINUOUS
 10
18.6029173766
 20
41.8189886281
 11
18.6029173766
 21
40.5712384973
  0
LINE
  5
44B
100
AcDbEntity
  8
RACCORDO
100
AcDbLine
 62
250
  6
CONTINUOUS
 10
18.6029173766
 20
-4.1239459441
 11
18.6029173766
 21
-5.3716960749
  0
LINE
  5
44C
100
AcDbEntity
  8
RACCORDO
100
AcDbLine
 62
250
  6
CONTINUOUS
 10
32.9766957555
 20
40.1545757903
 11
33.10891534
 21
40.5515571152
  0
LINE
  5
44D
100
AcDbEntity
  8
RACCORDO
100
AcDbLine
 62
250
  6
CONTINUOUS
 10
33.6325830976
 20
-3.676239452
 11
33.65
 21
-3.667531664
  0
LWPOLYLINE
  5
44E
100
AcDbEntity
  8
RACCORDO
100
AcDbPolyline
 62
7
  6
CONTINUOUS
 90
5
 70
0
 10
33.3560139352
 20
-4.1235790944
 10
33.3359211224
 20
-4.1330726717
 10
33.2759554458
 20
-4.1553138644
 10
33.213641691
 20
-4.1697169343
 10
33.1499991391
 20
-4.1760449221
  0
LWPOLYLINE
  5
44F
100
AcDbEntity
  8
RACCORDO
100
AcDbPolyline
 62
7
  6
CONTINUOUS
 90
4
 70
0
 10
32.964706535
 20
-6.2678334995
 10
32.9956715157
 20
-6.2573215005
 10
33.0249996731
 20
-6.2428578212
 10
33.0521892159
 20
-6.2246899286
  0
LWPOLYLINE
  5
450
100
AcDbEntity
  8
0
100
AcDbPolyline
 62
7
  6
CONTINUOUS
 90
2
 70
0
 43
0.3500000087
 10
41.0283355988
 20
16.8665049835
 10
39.5283341339
 20
16.8665049835
  0
LWPOLYLINE
  5
451
100
AcDbEntity
  8
RACCORDO
100
AcDbPolyline
 62
7
  6
CONTINUOUS
 90
6
 70
0
 10
-30.8478107841
 20
42.6719824818
 10
-30.8750003269
 20
42.6901503744
 10
-30.9043284843
 20
42.7046140537
 10
-30.935293465
 20
42.7151260527
 10
-30.9673654724
 20
42.7215065159
 10
-30.9999957692
 20
42.7236462766
  0
LWPOLYLINE
  5
452
100
AcDbEntity
  8
RACCORDO
100
AcDbPolyline
 62
7
  6
CONTINUOUS
 90
7
 70
0
 10
30.8232250565
 20
-6.2031286669
 10
30.8478107841
 20
-6.2246899286
 10
30.8750003269
 20
-6.2428578212
 10
30.9043284843
 20
-6.2573215005
 10
30.935293465
 20
-6.2678334995
 10
30.9673654724
 20
-6.2742139627
 10
30.9999957692
 20
-6.2763537234
  0
LWPOLYLINE
  5
453
100
AcDbEntity
  8
RACCORDO
100
AcDbPolyline
 62
7
  6
CONTINUOUS
 90
13
 70
0
 10
11.8572807489
 20
41.4906335747
 10
11.8592467633
 20
41.4729122329
 10
11.8648709137
 20
41.4557629002
 10
11.874219255
 20
41.4391855767
 10
11.8872770166
 20
41.4228998956
 10
11.9039927245
 20
41.4071862238
 10
11.9243175287
 20
41.3928856613
 10
11.9480834544
 20
41.3799876038
 10
11.9750245122
 20
41.3685026557
 10
12.0048794357
 20
41.3593037306
 10
12.0372535068
 20
41.3526817998
 10
12.0715932026
 20
41.3483458921
 10
12.1072765181
 20
41.3462960074
  0
LINE
  5
454
100
AcDbEntity
  8
RACCORDO
100
AcDbLine
 62
250
  6
CONTINUOUS
 10
27.1116057106
 20
38.0142908948
 11
27.4746737303
 21
40.076009671
  0
LINE
  5
455
100
AcDbEntity
  8
RACCORDO
100
AcDbLine
 62
250
  6
CONTINUOUS
 10
33.476619603
 20
39.655261023
 11
33.6325830976
 21
40.1235320052
  0
LWPOLYLINE
  5
456
100
AcDbEntity
  8
RACCORDO
100
AcDbPolyline
 62
7
  6
CONTINUOUS
 90
3
 70
0
 10
-26.5036580058
 20
41.8858026094
 10
-26.4327640851
 20
41.841230432
 10
-26.3970826234
 20
41.8189886281
  0
LINE
  5
457
100
AcDbEntity
  8
RACCORDO
100
AcDbLine
 62
250
  6
CONTINUOUS
 10
32.9000042308
 20
-6.2763537234
 11
32.8869056521
 21
-6.2632551447
  0
LINE
  5
458
100
AcDbEntity
  8
RACCORDO
100
AcDbLine
 62
250
  6
CONTINUOUS
 10
33.15
 20
-6.0263579542
 11
33.1369014213
 21
-6.0132593755
  0
LINE
  5
459
100
AcDbEntity
  8
RACCORDO
100
AcDbLine
 62
250
  6
CONTINUOUS
 10
-14.25
 20
42.4736505074
 11
-14.2369014213
 21
42.4605519287
  0
LINE
  5
45A
100
AcDbEntity
  8
RACCORDO
100
AcDbLine
 62
250
  6
CONTINUOUS
 10
-14.0000042308
 20
42.7236462766
 11
-13.9996205848
 21
42.7232626306
  0
LINE
  5
45B
100
AcDbEntity
  8
RACCORDO
100
AcDbLine
 62
7
  6
CONTINUOUS
 10
30.8016637948
 20
-6.1785429393
 11
30.8232250565
 21
-6.2031286669
  0
LWPOLYLINE
  5
45C
100
AcDbEntity
  8
RACCORDO
100
AcDbPolyline
 62
7
  6
CONTINUOUS
 90
3
 70
0
 10
-11.9016637948
 20
42.6258354925
 10
-11.9232250565
 20
42.6504212201
 10
-11.9478107841
 20
42.6719824818
  0
LWPOLYLINE
  5
45D
100
AcDbEntity
  8
RACCORDO
100
AcDbPolyline
 62
7
  6
CONTINUOUS
 90
3
 70
0
 10
14.2354512088
 20
42.4874320065
 10
14.2348544396
 20
42.4924697552
 10
14.2286923854
 20
42.52408161
  0
LWPOLYLINE
  5
45E
100
AcDbEntity
  8
RACCORDO
100
AcDbPolyline
 62
7
  6
CONTINUOUS
 90
10
 70
0
 10
33.1427192511
 20
-4.1097646848
 10
33.1422178214
 20
-4.1090360093
 10
33.1408828865
 20
-4.1083479981
 10
33.138718413
 20
-4.1077006512
 10
33.135730537
 20
-4.1071090041
 10
33.1319290805
 20
-4.1065580215
 10
33.1273289685
 20
-4.1060025965
 10
33.121947422
 20
-4.1054276939
 10
33.1158024523
 20
-4.1048483491
 10
33.10891534
 20
-4.104264562
  0
LWPOLYLINE
  5
45F
100
AcDbEntity
  8
0
100
AcDbPolyline
 62
7
  6
CONTINUOUS
 90
10
 70
0
 43
0.3500000087
 10
1.0714285995
 20
51.9736461914
 10
1.142857155
 20
51.8307913452
 10
1.142857155
 20
51.7593639221
 10
0.9999999774
 20
51.6165048126
 10
0.9285714218
 20
51.6165048126
 10
0.8571428663
 20
51.6879279724
 10
0.8571428663
 20
51.7593639221
 10
0.9285714218
 20
51.9022187683
 10
0.9999999774
 20
51.9736461914
 10
1.0714285995
 20
51.9736461914
  0
LINE
  5
460
100
AcDbEntity
  8
RACCORDO
100
AcDbLine
 62
250
  6
CONTINUOUS
 10
26.3970826234
 20
-5.3716960749
 11
26.3970826234
 21
-4.1239459441
  0
LINE
  5
461
100
AcDbEntity
  8
RACCORDO
100
AcDbLine
 62
250
  6
CONTINUOUS
 10
26.3970826234
 20
40.5712384973
 11
26.3970826234
 21
41.8189886281
  0
LINE
  5
462
100
AcDbEntity
  8
RACCORDO
100
AcDbLine
 62
7
  6
CONTINUOUS
 10
26.8970741618
 20
-5.5734278852
 11
26.8970741618
 21
-4.1499973866
  0
LINE
  5
463
100
AcDbEntity
  8
RACCORDO
100
AcDbLine
 62
7
  6
CONTINUOUS
 10
26.8970741618
 20
40.5972899398
 11
26.8970741618
 21
42.0207204384
  0
LINE
  5
464
100
AcDbEntity
  8
RACCORDO
100
AcDbLine
 62
7
  6
CONTINUOUS
 10
28.6504150764
 20
39.7462248483
 11
28.6504150764
 21
38.3878964657
  0
LWPOLYLINE
  5
465
100
AcDbEntity
  8
RACCORDO
100
AcDbPolyline
 62
7
  6
CONTINUOUS
 90
13
 70
0
 10
33.1427192511
 20
41.4906335747
 10
33.1407532367
 20
41.4729122329
 10
33.1351290863
 20
41.4557629002
 10
33.125780745
 20
41.4391855767
 10
33.1127229834
 20
41.4228998956
 10
33.0960072755
 20
41.4071862238
 10
33.0756824713
 20
41.3928856613
 10
33.0519165456
 20
41.3799876038
 10
33.0249754878
 20
41.3685026557
 10
32.9951205643
 20
41.3593037306
 10
32.9627464932
 20
41.3526817998
 10
32.9284067974
 20
41.3483458921
 10
32.8927234819
 20
41.3462960074
  0
LINE
  5
466
100
AcDbEntity
  8
RACCORDO
100
AcDbLine
 62
250
  6
CONTINUOUS
 10
30.75
 20
-6.0263579542
 11
30.7630985787
 21
-6.0132593755
  0
LINE
  5
467
100
AcDbEntity
  8
RACCORDO
100
AcDbLine
 62
250
  6
CONTINUOUS
 10
30.9999957692
 20
-6.2763537234
 11
31.0003794152
 21
-6.2759700774
  0
LWPOLYLINE
  5
468
100
AcDbEntity
  8
RACCORDO
100
AcDbPolyline
 62
7
  6
CONTINUOUS
 90
3
 70
0
 10
33.0521892159
 20
-6.2246899286
 10
33.0767749435
 20
-6.2031286669
 10
33.0983362052
 20
-6.1785429393
  0
LWPOLYLINE
  5
469
100
AcDbEntity
  8
RACCORDO
100
AcDbPolyline
 62
7
  6
CONTINUOUS
 90
6
 70
0
 10
-11.9478107841
 20
42.6719824818
 10
-11.9750003269
 20
42.6901503744
 10
-12.0043284843
 20
42.7046140537
 10
-12.035293465
 20
42.7151260527
 10
-12.0673654724
 20
42.7215065159
 10
-12.0999957692
 20
42.7236462766
  0
LWPOLYLINE
  5
46A
100
AcDbEntity
  8
RACCORDO
100
AcDbPolyline
 62
7
  6
CONTINUOUS
 90
5
 70
0
 10
14.2414797761
 20
42.5383528116
 10
14.2309677771
 20
42.5693177923
 10
14.2165040978
 20
42.5986459497
 10
14.1983362052
 20
42.6258354925
 10
14.1767749435
 20
42.6504212201
  0
LWPOLYLINE
  5
46B
100
AcDbEntity
  8
RACCORDO
100
AcDbPolyline
 62
7
  6
CONTINUOUS
 90
4
 70
0
 10
30.7585202239
 20
-6.0910602584
 10
30.7690322229
 20
-6.1220252391
 10
30.7834959022
 20
-6.1513533965
 10
30.8016637948
 20
-6.1785429393
  0
LWPOLYLINE
  5
46C
100
AcDbEntity
  8
RACCORDO
100
AcDbPolyline
 62
7
  6
CONTINUOUS
 90
11
 70
0
 10
14.2286923854
 20
42.52408161
 10
14.2184331225
 20
42.5548463465
 10
14.2041301781
 20
42.5842837779
 10
14.1859690879
 20
42.611778895
 10
14.1643499838
 20
42.6366464447
 10
14.1397049942
 20
42.6584109673
 10
14.1124173911
 20
42.6767528794
 10
14.0829688188
 20
42.6913510877
 10
14.0518735206
 20
42.701956152
 10
14.0196669035
 20
42.7083906573
 10
13.9869056521
 20
42.7105476979
  0
LWPOLYLINE
  5
46D
100
AcDbEntity
  8
RACCORDO
100
AcDbPolyline
 62
250
  6
CONTINUOUS
 90
13
 70
0
 10
33.1369014213
 20
-5.6206912907
 10
33.1346758307
 20
-5.592483456
 10
33.1282264882
 20
-5.5647564818
 10
33.1176633362
 20
-5.5379830314
 10
33.1031664453
 20
-5.5126195132
 10
33.0849829448
 20
-5.4890983006
 10
33.0634228098
 20
-5.4678203608
 10
33.0388535772
 20
-5.4491484202
 10
33.0116940799
 20
-5.4334007803
 10
32.9824073074
 20
-5.4208458921
 10
32.951492513
 20
-5.4116977793
 10
32.9194767028
 20
-5.4061123904
 10
32.8869056521
 20
-5.4041849398
  0
LWPOLYLINE
  5
46E
100
AcDbEntity
  8
RACCORDO
100
AcDbPolyline
 62
7
  6
CONTINUOUS
 90
13
 70
0
 10
30.7631028588
 20
-6.0147138086
 10
30.7652556193
 20
-6.0460206269
 10
30.7716901246
 20
-6.078227244
 10
30.7822951889
 20
-6.1093225423
 10
30.7968933972
 20
-6.1387711145
 10
30.8152353093
 20
-6.1660587176
 10
30.8369998319
 20
-6.1907037072
 10
30.8618673816
 20
-6.2123228113
 10
30.8893624987
 20
-6.2304839015
 10
30.9187999301
 20
-6.2447868459
 10
30.9495646666
 20
-6.2550461088
 10
30.9811765214
 20
-6.261208163
 10
30.9862142701
 20
-6.2618049322
  0
LWPOLYLINE
  5
46F
100
AcDbEntity
  8
RACCORDO
100
AcDbPolyline
 62
7
  6
CONTINUOUS
 90
3
 70
0
 10
30.75
 20
-6.0263579542
 10
30.7521397607
 20
-6.058988251
 10
30.7585202239
 20
-6.0910602584
  0
LINE
  5
470
100
AcDbEntity
  8
RACCORDO
100
AcDbLine
 62
250
  6
CONTINUOUS
 10
32.9935552765
 20
-3.6646094462
 11
32.9914451405
 21
-3.5752321432
  0
LINE
  5
471
100
AcDbEntity
  8
RACCORDO
100
AcDbLine
 62
250
  6
CONTINUOUS
 10
32.9914451405
 20
-3.5752321432
 11
32.9894886698
 21
-3.4621985775
  0
LINE
  5
472
100
AcDbEntity
  8
RACCORDO
100
AcDbLine
 62
250
  6
CONTINUOUS
 10
32.9894886698
 20
-3.4621985775
 11
32.9869326363
 21
-3.2529378049
  0
LINE
  5
473
100
AcDbEntity
  8
RACCORDO
100
AcDbLine
 62
250
  6
CONTINUOUS
 10
30.7630985787
 20
-5.6206912907
 11
30.7572807489
 21
-5.0433410215
  0
LINE
  5
474
100
AcDbEntity
  8
RACCORDO
100
AcDbLine
 62
250
  6
CONTINUOUS
 10
31.0130943479
 20
-5.4041849398
 11
31.0080037468
 21
-4.8990034542
  0
LINE
  5
475
100
AcDbEntity
  8
RACCORDO
100
AcDbLine
 62
250
  6
CONTINUOUS
 10
32.9383327298
 20
5.8215997855
 11
32.8958084025
 21
14.4133734672
  0
LINE
  5
476
100
AcDbEntity
  8
RACCORDO
100
AcDbLine
 62
250
  6
CONTINUOUS
 10
32.8958084025
 20
14.4133734672
 11
32.8559633928
 21
23.0473319364
  0
LINE
  5
477
100
AcDbEntity
  8
RACCORDO
100
AcDbLine
 62
250
  6
CONTINUOUS
 10
32.8559633928
 20
23.0473319364
 11
32.8188170803
 21
31.7207207716
  0
LINE
  5
478
100
AcDbEntity
  8
RACCORDO
100
AcDbLine
 62
250
  6
CONTINUOUS
 10
32.9869326363
 20
-3.2529378049
 11
32.9383327298
 21
5.8215997855
  0
LINE
  5
479
100
AcDbEntity
  8
RACCORDO
100
AcDbLine
 62
250
  6
CONTINUOUS
 10
30.7630985787
 20
-6.0132593755
 11
30.7631028588
 21
-6.0147138086
  0
LINE
  5
47A
100
AcDbEntity
  8
RACCORDO
100
AcDbLine
 62
250
  6
CONTINUOUS
 10
32.8188170803
 20
31.7207207716
 11
32.8008226731
 21
36.3966516502
  0
LINE
  5
47B
100
AcDbEntity
  8
RACCORDO
100
AcDbLine
 62
7
  6
CONTINUOUS
 10
30.75
 20
-6.0263579542
 11
30.75
 21
-5.0433410215
  0
LINE
  5
47C
100
AcDbEntity
  8
RACCORDO
100
AcDbLine
 62
7
  6
CONTINUOUS
 10
30.75
 20
41.4906335747
 11
30.75
 21
42.4736505074
  0
LINE
  5
47D
100
AcDbEntity
  8
RACCORDO
100
AcDbLine
 62
7
  6
CONTINUOUS
 10
30.7572807489
 20
-5.0433410215
 11
30.7572807489
 21
-4.1107677757
  0
LINE
  5
47E
100
AcDbEntity
  8
RACCORDO
100
AcDbLine
 62
7
  6
CONTINUOUS
 10
30.7572807489
 20
40.5580603289
 11
30.7572807489
 21
41.4906335747
  0
LINE
  5
47F
100
AcDbEntity
  8
RACCORDO
100
AcDbLine
 62
7
  6
CONTINUOUS
 10
30.7630985787
 20
42.4605519287
 11
30.7630985787
 21
42.0679838439
  0
LINE
  5
480
100
AcDbEntity
  8
RACCORDO
100
AcDbLine
 62
7
  6
CONTINUOUS
 10
30.7630985787
 20
-5.6206912907
 11
30.7630985787
 21
-6.0132593755
  0
LINE
  5
481
100
AcDbEntity
  8
RACCORDO
100
AcDbLine
 62
250
  6
CONTINUOUS
 10
31.0072765181
 20
-4.8990034542
 11
31.0072765181
 21
-4.0977420545
  0
LINE
  5
482
100
AcDbEntity
  8
RACCORDO
100
AcDbLine
 62
250
  6
CONTINUOUS
 10
31.0072765181
 20
40.5450346077
 11
31.0072765181
 21
41.3462960074
  0
LINE
  5
483
100
AcDbEntity
  8
RACCORDO
100
AcDbLine
 62
250
  6
CONTINUOUS
 10
31.0130943479
 20
-6.2632551447
 11
31.0130943479
 21
-5.4041849398
  0
LINE
  5
484
100
AcDbEntity
  8
RACCORDO
100
AcDbLine
 62
250
  6
CONTINUOUS
 10
31.0130943479
 20
41.8514774929
 11
31.0130943479
 21
42.7105476979
  0
LINE
  5
485
100
AcDbEntity
  8
RACCORDO
100
AcDbLine
 62
250
  6
CONTINUOUS
 10
32.8869056521
 20
-6.2632551447
 11
32.8869056521
 21
-5.4041849398
  0
LINE
  5
486
100
AcDbEntity
  8
RACCORDO
100
AcDbLine
 62
250
  6
CONTINUOUS
 10
32.8869056521
 20
41.8514774929
 11
32.8869056521
 21
42.7105476979
  0
LINE
  5
487
100
AcDbEntity
  8
RACCORDO
100
AcDbLine
 62
250
  6
CONTINUOUS
 10
32.8927234819
 20
41.3462960074
 11
32.8927234819
 21
40.5450346077
  0
LINE
  5
488
100
AcDbEntity
  8
RACCORDO
100
AcDbLine
 62
250
  6
CONTINUOUS
 10
32.8927234819
 20
-4.0977420545
 11
32.8927234819
 21
-4.8990034542
  0
LINE
  5
489
100
AcDbEntity
  8
RACCORDO
100
AcDbLine
 62
250
  6
CONTINUOUS
 10
32.8008226731
 20
36.3966516502
 11
32.8019463931
 21
36.9322566699
  0
LINE
  5
48A
100
AcDbEntity
  8
RACCORDO
100
AcDbLine
 62
250
  6
CONTINUOUS
 10
32.8019463931
 20
36.9322566699
 11
32.8044076665
 21
37.3137374328
  0
LINE
  5
48B
100
AcDbEntity
  8
RACCORDO
100
AcDbLine
 62
250
  6
CONTINUOUS
 10
33.3014625692
 20
36.6864039081
 11
33.3029373557
 21
36.8880309445
  0
LINE
  5
48C
100
AcDbEntity
  8
RACCORDO
100
AcDbLine
 62
250
  6
CONTINUOUS
 10
30.7572807489
 20
41.4906335747
 11
30.7630985787
 21
42.0679838439
  0
LINE
  5
48D
100
AcDbEntity
  8
RACCORDO
100
AcDbLine
 62
250
  6
CONTINUOUS
 10
31.0080037468
 20
41.3462960074
 11
31.0130943479
 21
41.8514774929
  0
LINE
  5
48E
100
AcDbEntity
  8
RACCORDO
100
AcDbLine
 62
250
  6
CONTINUOUS
 10
32.8919962532
 20
-4.8990034542
 11
32.8869056521
 21
-5.4041849398
  0
LINE
  5
48F
100
AcDbEntity
  8
RACCORDO
100
AcDbLine
 62
250
  6
CONTINUOUS
 10
32.8044076665
 20
37.3137374328
 11
32.8070403937
 21
37.5508454164
  0
LINE
  5
490
100
AcDbEntity
  8
RACCORDO
100
AcDbLine
 62
250
  6
CONTINUOUS
 10
33.3029373557
 20
36.8880309445
 11
33.3051419403
 21
37.0664927044
  0
LINE
  5
491
100
AcDbEntity
  8
RACCORDO
100
AcDbLine
 62
250
  6
CONTINUOUS
 10
32.8070403937
 20
37.5508454164
 11
32.809104506
 21
37.6790888304
  0
LINE
  5
492
100
AcDbEntity
  8
RACCORDO
100
AcDbLine
 62
250
  6
CONTINUOUS
 10
33.3051419403
 20
37.0664927044
 11
33.3069667963
 21
37.1683886785
  0
LWPOLYLINE
  5
493
100
AcDbEntity
  8
RACCORDO
100
AcDbPolyline
 62
250
  6
CONTINUOUS
 90
4
 70
0
 10
32.809104506
 20
37.6790888304
 10
32.8113500115
 20
37.7801636797
 10
32.8125336987
 20
37.8198246931
 10
32.8137598991
 20
37.8519494131
  0
LWPOLYLINE
  5
494
100
AcDbEntity
  8
RACCORDO
100
AcDbPolyline
 62
250
  6
CONTINUOUS
 90
6
 70
0
 10
33.3069667963
 20
37.1683886785
 10
33.3090317018
 20
37.2538975934
 10
33.3101359551
 20
37.2899041978
 10
33.311276482
 20
37.3209797671
 10
33.3124590792
 20
37.3473405345
 10
33.3136837467
 20
37.3689865
  0
LINE
  5
495
100
AcDbEntity
  8
RACCORDO
100
AcDbLine
 62
250
  6
CONTINUOUS
 10
32.8137598991
 20
37.8519494131
 11
32.9456652306
 21
39.8773240929
  0
LINE
  5
496
100
AcDbEntity
  8
RACCORDO
100
AcDbLine
 62
250
  6
CONTINUOUS
 10
33.3136837467
 20
37.3689865
 11
33.4455890032
 21
39.3918719679
  0
LINE
  5
497
100
AcDbEntity
  8
RACCORDO
100
AcDbLine
 62
250
  6
CONTINUOUS
 10
32.9456652306
 20
39.8773240929
 11
32.9488863903
 21
39.9231875657
  0
LINE
  5
498
100
AcDbEntity
  8
RACCORDO
100
AcDbLine
 62
250
  6
CONTINUOUS
 10
33.4455890032
 20
39.3918719679
 11
33.4488101349
 21
39.4354408033
  0
LWPOLYLINE
  5
499
100
AcDbEntity
  8
RACCORDO
100
AcDbPolyline
 62
250
  6
CONTINUOUS
 90
13
 70
0
 10
33.1369014213
 20
42.0679838439
 10
33.1347064178
 20
42.0399739217
 10
33.1283279628
 20
42.0123751212
 10
33.1178466465
 20
41.9856579853
 10
33.1034020758
 20
41.9602652967
 10
33.0852218751
 20
41.936660613
 10
33.0636448174
 20
41.9153054222
 10
33.039059086
 20
41.8965778624
 10
33.0118709875
 20
41.8807821195
 10
32.9825467008
 20
41.86818874
 10
32.9515883731
 20
41.8590127932
 10
32.9195252351
 20
41.8534105931
 10
32.8869056521
 20
41.8514774929
  0
LWPOLYLINE
  5
49A
100
AcDbEntity
  8
RACCORDO
100
AcDbPolyline
 62
250
  6
CONTINUOUS
 90
13
 70
0
 10
30.7630985787
 20
-5.6206912907
 10
30.7653241693
 20
-5.592483456
 10
30.7717735118
 20
-5.5647564818
 10
30.7823366638
 20
-5.5379830314
 10
30.7968335547
 20
-5.5126195132
 10
30.8150170552
 20
-5.4890983006
 10
30.8365771902
 20
-5.4678203608
 10
30.8611464228
 20
-5.4491484202
 10
30.8883059201
 20
-5.4334007803
 10
30.9175926926
 20
-5.4208458921
 10
30.948507487
 20
-5.4116977793
 10
30.9805232972
 20
-5.4061123904
 10
31.0130943479
 20
-5.4041849398
  0
LWPOLYLINE
  5
49B
100
AcDbEntity
  8
RACCORDO
100
AcDbPolyline
 62
250
  6
CONTINUOUS
 90
17
 70
0
 10
32.9488863903
 20
39.9231875657
 10
32.9521194006
 20
39.965126973
 10
32.9537401479
 20
39.9846282162
 10
32.9553637207
 20
40.0031489661
 10
32.9569899432
 20
40.0206915436
 10
32.9586188114
 20
40.037254489
 10
32.9602503293
 20
40.0528364844
 10
32.9618843319
 20
40.067439066
 10
32.9635208212
 20
40.081060529
 10
32.9651597953
 20
40.0936992209
 10
32.9668010841
 20
40.1053557542
 10
32.9684446805
 20
40.1160280802
 10
32.9700905916
 20
40.1257143446
 10
32.9717386694
 20
40.1344144184
 10
32.9733888647
 20
40.142126469
 10
32.9750412267
 20
40.1488476377
 10
32.9766957555
 20
40.1545757903
  0
LWPOLYLINE
  5
49C
100
AcDbEntity
  8
RACCORDO
100
AcDbPolyline
 62
250
  6
CONTINUOUS
 90
17
 70
0
 10
33.4488101349
 20
39.4354408033
 10
33.4520431584
 20
39.4752835778
 10
33.4536639192
 20
39.4938097941
 10
33.4552875111
 20
39.5114055611
 10
33.4569137566
 20
39.5280706488
 10
33.4585426546
 20
39.5438054937
 10
33.4601742063
 20
39.5586096593
 10
33.461808237
 20
39.5724816066
 10
33.4634447451
 20
39.5854217659
 10
33.4650837322
 20
39.5974297068
 10
33.4667250291
 20
39.6085025994
 10
33.4683686301
 20
39.6186408803
 10
33.4700145409
 20
39.627844113
 10
33.4716626089
 20
39.6361081575
 10
33.4733127831
 20
39.643431634
 10
33.4749651145
 20
39.6498159225
 10
33.476619603
 20
39.655261023
  0
LWPOLYLINE
  5
49D
100
AcDbEntity
  8
RACCORDO
100
AcDbPolyline
 62
7
  6
CONTINUOUS
 90
13
 70
0
 10
30.7572807489
 20
-5.0433410215
 10
30.7592401087
 20
-5.0263661169
 10
30.7648446158
 20
-5.0091052195
 10
30.7741722574
 20
-4.9919631363
 10
30.7872260203
 20
-4.9755350481
 10
30.8039617589
 20
-4.9600923799
 10
30.8243172671
 20
-4.9455932711
 10
30.8481060766
 20
-4.9325213763
 10
30.8750775869
 20
-4.9213292993
 10
30.9050098037
 20
-4.9119769721
 10
30.9375286991
 20
-4.9047753257
 10
30.9720693778
 20
-4.9003251316
 10
31.0080037468
 20
-4.8990034542
  0
LWPOLYLINE
  5
49E
100
AcDbEntity
  8
RACCORDO
100
AcDbPolyline
 62
7
  6
CONTINUOUS
 90
6
 70
0
 10
33.0983362052
 20
-6.1785429393
 10
33.1165040978
 20
-6.1513533965
 10
33.1309677771
 20
-6.1220252391
 10
33.1414797761
 20
-6.0910602584
 10
33.1478602393
 20
-6.058988251
 10
33.15
 20
-6.0263579542
  0
LINE
  5
49F
100
AcDbEntity
  8
RACCORDO
100
AcDbLine
 62
250
  6
CONTINUOUS
 10
33.10891534
 20
-4.104264562
 11
32.9992759622
 21
-3.7750789454
  0
LINE
  5
4A0
100
AcDbEntity
  8
RACCORDO
100
AcDbLine
 62
250
  6
CONTINUOUS
 10
33.6325830976
 20
-3.676239452
 11
33.4991998097
 21
-3.275764178
  0
LWPOLYLINE
  5
4A1
100
AcDbEntity
  8
RACCORDO
100
AcDbPolyline
 62
250
  6
CONTINUOUS
 90
8
 70
0
 10
33.4991998097
 20
-3.275764178
 10
33.4980195359
 20
-3.2698745175
 10
33.4968586406
 20
-3.2595862248
 10
33.4957171238
 20
-3.2448992997
 10
33.4945898768
 20
-3.2257104223
 10
33.4934820083
 20
-3.2021229125
 10
33.492408844
 20
-3.1744467308
 10
33.4913708391
 20
-3.1426220355
  0
LWPOLYLINE
  5
4A2
100
AcDbEntity
  8
RACCORDO
100
AcDbPolyline
 62
250
  6
CONTINUOUS
 90
6
 70
0
 10
32.9992759622
 20
-3.7750789454
 10
32.998094258
 20
-3.7663790053
 10
32.9969323423
 20
-3.750900038
 10
32.995790215
 20
-3.728709013
 10
32.9946628516
 20
-3.699902714
 10
32.9935552765
 20
-3.6646094462
  0
LWPOLYLINE
  5
4A3
100
AcDbEntity
  8
RACCORDO
100
AcDbPolyline
 62
7
  6
CONTINUOUS
 90
13
 70
0
 10
33.1427192511
 20
-5.0433410215
 10
33.1407598913
 20
-5.0263661169
 10
33.1351553842
 20
-5.0091052195
 10
33.1258277426
 20
-4.9919631363
 10
33.1127739797
 20
-4.9755350481
 10
33.0960382411
 20
-4.9600923799
 10
33.0756827329
 20
-4.9455932711
 10
33.0518939234
 20
-4.9325213763
 10
33.0249224131
 20
-4.9213292993
 10
32.9949901963
 20
-4.9119769721
 10
32.9624713009
 20
-4.9047753257
 10
32.9279306222
 20
-4.9003251316
 10
32.8919962532
 20
-4.8990034542
  0
LWPOLYLINE
  5
4A4
100
AcDbEntity
  8
RACCORDO
100
AcDbPolyline
 62
250
  6
CONTINUOUS
 90
13
 70
0
 10
30.7630985787
 20
42.0679838439
 10
30.7652935822
 20
42.0399739217
 10
30.7716720372
 20
42.0123751212
 10
30.7821533535
 20
41.9856579853
 10
30.7965979242
 20
41.9602652967
 10
30.8147781249
 20
41.936660613
 10
30.8363551826
 20
41.9153054222
 10
30.860940914
 20
41.8965778624
 10
30.8881290125
 20
41.8807821195
 10
30.9174532992
 20
41.86818874
 10
30.9484116269
 20
41.8590127932
 10
30.9804747649
 20
41.8534105931
 10
31.0130943479
 20
41.8514774929
  0
LWPOLYLINE
  5
4A5
100
AcDbEntity
  8
RACCORDO
100
AcDbPolyline
 62
7
  6
CONTINUOUS
 90
13
 70
0
 10
33.1369014213
 20
42.4605519287
 10
33.1347616605
 20
42.4931822254
 10
33.1283811971
 20
42.5252542328
 10
33.117869198
 20
42.5562192134
 10
33.1034055187
 20
42.5855473708
 10
33.085237626
 20
42.6127369134
 10
33.0636763643
 20
42.6373226409
 10
33.0390906368
 20
42.6588839026
 10
33.0119010942
 20
42.6770517953
 10
32.9825729368
 20
42.6915154746
 10
32.9516079562
 20
42.7020274737
 10
32.9195359488
 20
42.708407937
 10
32.8869056521
 20
42.7105476979
  0
LWPOLYLINE
  5
4A6
100
AcDbEntity
  8
RACCORDO
100
AcDbPolyline
 62
7
  6
CONTINUOUS
 90
3
 70
0
 10
33.15
 20
42.4736505074
 10
33.1478602393
 20
42.5062808042
 10
33.1414797761
 20
42.5383528116
  0
LINE
  5
4A7
100
AcDbEntity
  8
RACCORDO
100
AcDbLine
 62
250
  6
CONTINUOUS
 10
33.4913708391
 20
-3.1426220355
 11
33.4894129011
 21
-3.0671961143
  0
LINE
  5
4A8
100
AcDbEntity
  8
RACCORDO
100
AcDbLine
 62
250
  6
CONTINUOUS
 10
33.4894129011
 20
-3.0671961143
 11
33.4876509998
 21
-2.9772609576
  0
LINE
  5
4A9
100
AcDbEntity
  8
RACCORDO
100
AcDbLine
 62
250
  6
CONTINUOUS
 10
33.4876509998
 20
-2.9772609576
 11
33.4854463238
 21
-2.8192327074
  0
LINE
  5
4AA
100
AcDbEntity
  8
RACCORDO
100
AcDbLine
 62
250
  6
CONTINUOUS
 10
32.8869056521
 20
41.8514774929
 11
32.8919962532
 21
41.3462960074
  0
LINE
  5
4AB
100
AcDbEntity
  8
RACCORDO
100
AcDbLine
 62
250
  6
CONTINUOUS
 10
33.1369014213
 20
42.0679838439
 11
33.1427192511
 21
41.4906335747
  0
LINE
  5
4AC
100
AcDbEntity
  8
RACCORDO
100
AcDbLine
 62
250
  6
CONTINUOUS
 10
33.4854463238
 20
-2.8192327074
 11
33.4834553775
 21
-2.5758767718
  0
LINE
  5
4AD
100
AcDbEntity
  8
RACCORDO
100
AcDbLine
 62
250
  6
CONTINUOUS
 10
33.4834553775
 20
-2.5758767718
 11
33.4382565989
 21
5.9628757646
  0
LINE
  5
4AE
100
AcDbEntity
  8
RACCORDO
100
AcDbLine
 62
250
  6
CONTINUOUS
 10
33.4382565989
 20
5.9628757646
 11
33.3957322582
 21
14.5454913039
  0
LINE
  5
4AF
100
AcDbEntity
  8
RACCORDO
100
AcDbLine
 62
250
  6
CONTINUOUS
 10
33.3957322582
 20
14.5454913039
 11
33.3558872157
 21
23.1709359472
  0
LINE
  5
4B0
100
AcDbEntity
  8
RACCORDO
100
AcDbLine
 62
250
  6
CONTINUOUS
 10
33.3558872157
 20
23.1709359472
 11
33.3187409117
 21
31.835074099
  0
LINE
  5
4B1
100
AcDbEntity
  8
RACCORDO
100
AcDbLine
 62
250
  6
CONTINUOUS
 10
33.3187409117
 20
31.835074099
 11
33.3007465392
 21
36.3985590676
  0
LINE
  5
4B2
100
AcDbEntity
  8
RACCORDO
100
AcDbLine
 62
7
  6
CONTINUOUS
 10
33.1369014213
 20
-6.0132593755
 11
33.1369014213
 21
-5.6206912907
  0
LINE
  5
4B3
100
AcDbEntity
  8
RACCORDO
100
AcDbLine
 62
7
  6
CONTINUOUS
 10
33.1369014213
 20
42.0679838439
 11
33.1369014213
 21
42.4605519287
  0
LINE
  5
4B4
100
AcDbEntity
  8
RACCORDO
100
AcDbLine
 62
7
  6
CONTINUOUS
 10
33.1427192511
 20
41.4906335747
 11
33.1427192511
 21
40.557057238
  0
LINE
  5
4B5
100
AcDbEntity
  8
RACCORDO
100
AcDbLine
 62
7
  6
CONTINUOUS
 10
33.1427192511
 20
-4.1097646848
 11
33.1427192511
 21
-5.0433410215
  0
LINE
  5
4B6
100
AcDbEntity
  8
RACCORDO
100
AcDbLine
 62
7
  6
CONTINUOUS
 10
33.15
 20
-6.0263579542
 11
33.15
 21
-5.0433410215
  0
LINE
  5
4B7
100
AcDbEntity
  8
RACCORDO
100
AcDbLine
 62
7
  6
CONTINUOUS
 10
33.15
 20
41.4906335747
 11
33.15
 21
42.4736505074
  0
LINE
  5
4B8
100
AcDbEntity
  8
ASSI
100
AcDbLine
 62
7
  6
CONTINUOUS
 10
33.65
 20
35.9239508863
 11
33.65
 21
0.5233416669
  0
LINE
  5
4B9
100
AcDbEntity
  8
RACCORDO
100
AcDbLine
 62
7
  6
CONTINUOUS
 10
33.65
 20
-3.667531664
 11
33.65
 21
40.1148242172
  0
LINE
  5
4BA
100
AcDbEntity
  8
RACCORDO
100
AcDbLine
 62
250
  6
CONTINUOUS
 10
33.3007465392
 20
36.3985590676
 11
33.3014625692
 21
36.6864039081
  0
LINE
  5
4BB
100
AcDbEntity
  8
RACCORDO
100
AcDbLine
 62
250
  6
CONTINUOUS
 10
33.1427192511
 20
-5.0433410215
 11
33.1369014213
 21
-5.6206912907
  0
LWPOLYLINE
  5
4BC
100
AcDbEntity
  8
RACCORDO
100
AcDbPolyline
 62
7
  6
CONTINUOUS
 90
10
 70
0
 10
33.6325830976
 20
-3.676239452
 10
33.6284719489
 20
-3.7400502216
 10
33.6162562721
 20
-3.802820532
 10
33.5961340112
 20
-3.8635242469
 10
33.5684320591
 20
-3.9211688851
 10
33.5336021976
 20
-3.9748114681
 10
33.4922136458
 20
-4.0235738835
 10
33.4449418086
 20
-4.0666580073
 10
33.3925586206
 20
-4.1033582467
 10
33.3560139352
 20
-4.1235790944
  0
LWPOLYLINE
  5
4BD
100
AcDbEntity
  8
RACCORDO
100
AcDbPolyline
 62
250
  6
CONTINUOUS
 90
13
 70
0
 10
32.8012547241
 20
36.0713422709
 10
32.8658127697
 20
36.0725108615
 10
32.9292900358
 20
36.0755110248
 10
32.9906238317
 20
36.0802925341
 10
33.0487873511
 20
36.0867753409
 10
33.1028068623
 20
36.0948509146
 10
33.1517780096
 20
36.1043840597
 10
33.1948809533
 20
36.1152151788
 10
33.2313940948
 20
36.1271629455
 10
33.2607061576
 20
36.1400273386
 10
33.2823264202
 20
36.1535929918
 10
33.2958929317
 20
36.1676327988
 10
33.3011785714
 20
36.1819117153
  0
LINE
  5
4BE
100
AcDbEntity
  8
RACCORDO
100
AcDbLine
 62
250
  6
CONTINUOUS
 10
-32.8012547243
 20
36.0713371874
 11
32.8012547243
 21
36.0713371874
  0
LWPOLYLINE
  5
4BF
100
AcDbEntity
  8
RACCORDO
100
AcDbPolyline
 62
250
  6
CONTINUOUS
 90
13
 70
0
 10
-32.8012547241
 20
36.0713372376
 10
-32.8658141279
 20
36.0725058949
 10
-32.929292679
 20
36.0755062235
 10
-32.99062762
 20
36.0802879918
 10
-33.0487920822
 20
36.0867711437
 10
-33.1028122768
 20
36.0948471383
 10
-33.1517837983
 20
36.1043807669
 10
-33.1948867662
 20
36.1152124177
 10
-33.2313995509
 20
36.1271607474
 10
-33.2607108559
 20
36.1400257171
 10
-33.2823299517
 20
36.1535919417
 10
-33.2958948917
 20
36.1676322956
 10
-33.3011785717
 20
36.1819117153
  0
LWPOLYLINE
  5
4C0
100
AcDbEntity
  8
RACCORDO
100
AcDbPolyline
 62
7
  6
CONTINUOUS
 90
13
 70
0
 10
30.7572807489
 20
41.4906335747
 10
30.7592401087
 20
41.4736586701
 10
30.7648446158
 20
41.4563977727
 10
30.7741722574
 20
41.4392556895
 10
30.7872260203
 20
41.4228276013
 10
30.8039617589
 20
41.4073849331
 10
30.8243172671
 20
41.3928858243
 10
30.8481060766
 20
41.3798139295
 10
30.8750775869
 20
41.3686218525
 10
30.9050098037
 20
41.3592695253
 10
30.9375286991
 20
41.3520678788
 10
30.9720693778
 20
41.3476176848
 10
31.0080037468
 20
41.3462960074
  0
LWPOLYLINE
  5
4C1
100
AcDbEntity
  8
RACCORDO
100
AcDbPolyline
 62
7
  6
CONTINUOUS
 90
3
 70
0
 10
30.9862142701
 20
42.7090974854
 10
30.9811765214
 20
42.7085007162
 10
30.9495646666
 20
42.702338662
  0
LWPOLYLINE
  5
4C2
100
AcDbEntity
  8
RACCORDO
100
AcDbPolyline
 62
7
  6
CONTINUOUS
 90
11
 70
0
 10
26.7962073137
 20
42.0189852434
 10
26.768144177
 20
42.0160996898
 10
26.7388142326
 20
42.0084263599
 10
26.7082174807
 20
41.9968812183
 10
26.6761456251
 20
41.9825298075
 10
26.6428069618
 20
41.9661349511
 10
26.6088263794
 20
41.9478529
 10
26.5742503124
 20
41.9280728781
 10
26.5390323262
 20
41.907366728
 10
26.5036580058
 20
41.8858026094
 10
26.4327640851
 20
41.841230432
  0
LWPOLYLINE
  5
4C3
100
AcDbEntity
  8
RACCORDO
100
AcDbPolyline
 62
7
  6
CONTINUOUS
 90
10
 70
0
 10
33.10891534
 20
40.5515571152
 10
33.1158024523
 20
40.5521409023
 10
33.121947422
 20
40.5527202471
 10
33.1273289685
 20
40.5532951497
 10
33.1319290805
 20
40.5538505746
 10
33.135730537
 20
40.5544015573
 10
33.138718413
 20
40.5549932044
 10
33.1408828865
 20
40.5556405513
 10
33.1422178214
 20
40.5563285625
 10
33.1427192511
 20
40.557057238
  0
LWPOLYLINE
  5
4C4
100
AcDbEntity
  8
RACCORDO
100
AcDbPolyline
 62
250
  6
CONTINUOUS
 90
13
 70
0
 10
-32.8137598991
 20
37.8519494131
 10
-32.878828452
 20
37.8475571842
 10
-32.9427898211
 20
37.8350231567
 10
-33.0045558624
 20
37.8145606387
 10
-33.063075826
 20
37.7865178022
 10
-33.1173541365
 20
37.7513718001
 10
-33.1664673534
 20
37.7097206829
 10
-33.2095800134
 20
37.6622731264
 10
-33.2459587747
 20
37.6098363794
 10
-33.2749848338
 20
37.5533026096
 10
-33.2961645223
 20
37.4936336361
 10
-33.3091376791
 20
37.4318445506
 10
-33.3136837467
 20
37.3689865
  0
LINE
  5
4C5
100
AcDbEntity
  8
RACCORDO
100
AcDbLine
 62
250
  6
CONTINUOUS
 10
-32.8137598991
 20
37.8519494131
 11
32.8137598991
 21
37.8519494131
  0
LINE
  5
4C6
100
AcDbEntity
  8
RACCORDO
100
AcDbLine
 62
7
  6
CONTINUOUS
 10
-27.4696305723
 20
38.0142908948
 11
27.4696305723
 21
38.0142908948
  0
LINE
  5
4C7
100
AcDbEntity
  8
RACCORDO
100
AcDbLine
 62
250
  6
CONTINUOUS
 10
32.9424560861
 20
39.8275387057
 11
28.6330986169
 21
39.8275387057
  0
LINE
  5
4C8
100
AcDbEntity
  8
RACCORDO
100
AcDbLine
 62
250
  6
CONTINUOUS
 10
-28.6330986169
 20
39.8275387057
 11
-32.9424560861
 21
39.8275387057
  0
LINE
  5
4C9
100
AcDbEntity
  8
RACCORDO
100
AcDbLine
 62
7
  6
CONTINUOUS
 10
-27.4746737303
 20
40.076009671
 11
27.4746737303
 21
40.076009671
  0
LINE
  5
4CA
100
AcDbEntity
  8
RACCORDO
100
AcDbLine
 62
250
  6
CONTINUOUS
 10
-32.9766957555
 20
40.1545757903
 11
32.9766957555
 21
40.1545757903
  0
LWPOLYLINE
  5
4CB
100
AcDbEntity
  8
RACCORDO
100
AcDbPolyline
 62
7
  6
CONTINUOUS
 90
19
 70
0
 10
27.4746737303
 20
40.076009671
 10
27.5649345022
 20
40.0754718106
 10
27.6532707336
 20
40.0739086361
 10
27.7396824244
 20
40.0712946589
 10
27.8243434555
 20
40.0676006799
 10
27.9070799461
 20
40.0627555947
 10
27.9873702534
 20
40.0566433605
 10
28.0654080179
 20
40.0491844271
 10
28.1409995991
 20
40.040250361
 10
28.2130424332
 20
40.0296124784
 10
28.2818010056
 20
40.0170595293
 10
28.3470108308
 20
40.0024555273
 10
28.4067758884
 20
39.9856511694
 10
28.4609877074
 20
39.9663933256
 10
28.5097547589
 20
39.9444849102
 10
28.5515064362
 20
39.919867148
 10
28.5857192039
 20
39.8923698824
 10
28.6129165975
 20
39.8616817309
 10
28.6330986169
 20
39.8275387057
  0
LWPOLYLINE
  5
4CC
100
AcDbEntity
  8
RACCORDO
100
AcDbPolyline
 62
250
  6
CONTINUOUS
 90
13
 70
0
 10
32.8137598991
 20
37.8519494131
 10
32.8788271436
 20
37.8475573557
 10
32.9427874542
 20
37.8350237777
 10
33.0045527283
 20
37.8145619024
 10
33.0630722056
 20
37.7865198303
 10
33.1173503439
 20
37.7513746174
 10
33.1664637552
 20
37.7097241594
 10
33.2095769147
 20
37.6622770205
 10
33.2459563747
 20
37.6098403785
 10
33.2749832423
 20
37.5533062936
 10
33.296163708
 20
37.4936365323
 10
33.3091374466
 20
37.4318462056
 10
33.3136837467
 20
37.3689865
  0
LWPOLYLINE
  5
4CD
100
AcDbEntity
  8
RACCORDO
100
AcDbPolyline
 62
7
  6
CONTINUOUS
 90
10
 70
0
 10
-26.7962073137
 20
42.0189852434
 10
-26.768144177
 20
42.0160996898
 10
-26.7388142326
 20
42.0084263599
 10
-26.7082174807
 20
41.9968812183
 10
-26.6761456251
 20
41.9825298075
 10
-26.6428069618
 20
41.9661349511
 10
-26.6088263794
 20
41.9478529
 10
-26.5742503124
 20
41.9280728781
 10
-26.5390323262
 20
41.907366728
 10
-26.5036580058
 20
41.8858026094
  0
LINE
  5
4CE
100
AcDbEntity
  8
RACCORDO
100
AcDbLine
 62
250
  6
CONTINUOUS
 10
11.85
 20
42.4736505074
 11
11.850383646
 21
42.4732668614
  0
LINE
  5
4CF
100
AcDbEntity
  8
RACCORDO
100
AcDbLine
 62
250
  6
CONTINUOUS
 10
12.0999957692
 20
42.7236462766
 11
12.1130943479
 21
42.7105476979
  0
LWPOLYLINE
  5
4D0
100
AcDbEntity
  8
0
100
AcDbPolyline
 62
7
  6
CONTINUOUS
 90
3
 70
0
 43
0.3500000087
 10
40.385476001
 20
17.3665054718
 10
40.385476001
 20
15.866504007
 10
38.0283369324
 20
16.5093593414
  0
LWPOLYLINE
  5
4D1
100
AcDbEntity
  8
RACCORDO
100
AcDbPolyline
 62
7
  6
CONTINUOUS
 90
11
 70
0
 10
-18.2037926863
 20
42.0189852434
 10
-18.231855823
 20
42.0160996898
 10
-18.2611857674
 20
42.0084263599
 10
-18.2917825193
 20
41.9968812183
 10
-18.3238543749
 20
41.9825298075
 10
-18.3571930382
 20
41.9661349511
 10
-18.3911736206
 20
41.9478529
 10
-18.4257496876
 20
41.9280728781
 10
-18.4609676738
 20
41.907366728
 10
-18.4963419942
 20
41.8858026094
 10
-18.5672359149
 20
41.841230432
  0
LWPOLYLINE
  5
4D2
100
AcDbEntity
  8
RACCORDO
100
AcDbPolyline
 62
7
  6
CONTINUOUS
 90
13
 70
0
 10
12.1116399148
 20
42.7105434178
 10
12.0803330965
 20
42.7083906573
 10
12.0481264794
 20
42.701956152
 10
12.0170311812
 20
42.6913510877
 10
11.9875826089
 20
42.6767528794
 10
11.9602950058
 20
42.6584109673
 10
11.9356500162
 20
42.6366464447
 10
11.9140309121
 20
42.611778895
 10
11.8958698219
 20
42.5842837779
 10
11.8815668775
 20
42.5548463465
 10
11.8713076146
 20
42.52408161
 10
11.8651455604
 20
42.4924697552
 10
11.8645487912
 20
42.4874320065
  0
LWPOLYLINE
  5
4D3
100
AcDbEntity
  8
RACCORDO
100
AcDbPolyline
 62
250
  6
CONTINUOUS
 90
13
 70
0
 10
-32.9424560861
 20
39.8275387057
 10
-33.0075233305
 20
39.8231466481
 10
-33.071483641
 20
39.81061307
 10
-33.133248915
 20
39.7901511947
 10
-33.1917683923
 20
39.7621091226
 10
-33.2460465306
 20
39.7269639098
 10
-33.295159942
 20
39.685313452
 10
-33.3382731015
 20
39.6378663131
 10
-33.3746525616
 20
39.5854296711
 10
-33.4036794292
 20
39.5288955863
 10
-33.424859895
 20
39.4692258249
 10
-33.4378336336
 20
39.4074354982
 10
-33.4423799337
 20
39.3445757925
  0
LWPOLYLINE
  5
4D4
100
AcDbEntity
  8
RACCORDO
100
AcDbPolyline
 62
250
  6
CONTINUOUS
 90
13
 70
0
 10
-32.9766957555
 20
40.1545757903
 10
-33.0419112159
 20
40.1502495476
 10
-33.1060121166
 20
40.1374637459
 10
-33.1679029466
 20
40.1164368999
 10
-33.2265259662
 20
40.0875283673
 10
-33.2808792836
 20
40.0512322071
 10
-33.3300339781
 20
40.0081687362
 10
-33.3731499757
 20
39.9590739273
 10
-33.4094904066
 20
39.9047868312
 10
-33.438434198
 20
39.8462352371
 10
-33.459486689
 20
39.7844198162
 10
-33.4722880842
 20
39.7203970195
 10
-33.476619603
 20
39.655261023
  0
LWPOLYLINE
  5
4D5
100
AcDbEntity
  8
RACCORDO
100
AcDbPolyline
 62
7
  6
CONTINUOUS
 90
3
 70
0
 10
30.9999957692
 20
42.7236462766
 10
30.9673654724
 20
42.7215065159
 10
30.935293465
 20
42.7151260527
  0
LWPOLYLINE
  5
4D6
100
AcDbEntity
  8
RACCORDO
100
AcDbPolyline
 62
7
  6
CONTINUOUS
 90
3
 70
0
 10
12.0999957692
 20
42.7236462766
 10
12.0673654724
 20
42.7215065159
 10
12.035293465
 20
42.7151260527
  0
LWPOLYLINE
  5
4D7
100
AcDbEntity
  8
RACCORDO
100
AcDbPolyline
 62
7
  6
CONTINUOUS
 90
3
 70
0
 10
-14.0000042308
 20
42.7236462766
 10
-14.0326345276
 20
42.7215065159
 10
-14.064706535
 20
42.7151260527
  0
LINE
  5
4D8
100
AcDbEntity
  8
RACCORDO
100
AcDbLine
 62
250
  6
CONTINUOUS
 10
31.0130943479
 20
42.7105476979
 11
30.9862142701
 21
42.7090974854
  0
LINE
  5
4D9
100
AcDbEntity
  8
RACCORDO
100
AcDbLine
 62
250
  6
CONTINUOUS
 10
-13.9869056521
 20
42.7105476979
 11
-14.0137857299
 21
42.7090974854
  0
LINE
  5
4DA
100
AcDbEntity
  8
RACCORDO
100
AcDbLine
 62
250
  6
CONTINUOUS
 10
12.1130943479
 20
42.7105476979
 11
12.1116399148
 21
42.7105434178
  0
LINE
  5
4DB
100
AcDbEntity
  8
RACCORDO
100
AcDbLine
 62
250
  6
CONTINUOUS
 10
-32.8869056521
 20
42.7105476979
 11
-32.8883600852
 21
42.7105434178
  0
LINE
  5
4DC
100
AcDbEntity
  8
RACCORDO
100
AcDbLine
 62
7
  6
CONTINUOUS
 10
32.8927234819
 20
40.5450346077
 11
31.0072765181
 21
40.5450346077
  0
LINE
  5
4DD
100
AcDbEntity
  8
RACCORDO
100
AcDbLine
 62
7
  6
CONTINUOUS
 10
13.9927234819
 20
40.5450346077
 11
12.1072765181
 21
40.5450346077
  0
LINE
  5
4DE
100
AcDbEntity
  8
RACCORDO
100
AcDbLine
 62
7
  6
CONTINUOUS
 10
-12.1072765181
 20
40.5450346077
 11
-13.9927234819
 21
40.5450346077
  0
LINE
  5
4DF
100
AcDbEntity
  8
RACCORDO
100
AcDbLine
 62
7
  6
CONTINUOUS
 10
-31.0072765181
 20
40.5450346077
 11
-32.8927234819
 21
40.5450346077
  0
LINE
  5
4E0
100
AcDbEntity
  8
RACCORDO
100
AcDbLine
 62
7
  6
CONTINUOUS
 10
-26.3970826234
 20
40.5712384973
 11
-18.6029173766
 21
40.5712384973
  0
LINE
  5
4E1
100
AcDbEntity
  8
RACCORDO
100
AcDbLine
 62
7
  6
CONTINUOUS
 10
18.6029173766
 20
40.5712384973
 11
26.3970826234
 21
40.5712384973
  0
LINE
  5
4E2
100
AcDbEntity
  8
DRAFT
100
AcDbLine
 62
7
  6
CONTINUOUS
 10
-30.75
 20
40.6236462766
 11
-26.9
 21
40.6236462766
  0
LINE
  5
4E3
100
AcDbEntity
  8
DRAFT
100
AcDbLine
 62
7
  6
CONTINUOUS
 10
-18.1
 20
40.6236462766
 11
-14.25
 21
40.6236462766
  0
LINE
  5
4E4
100
AcDbEntity
  8
DRAFT
100
AcDbLine
 62
7
  6
CONTINUOUS
 10
-11.85
 20
40.6236462766
 11
11.85
 21
40.6236462766
  0
LINE
  5
4E5
100
AcDbEntity
  8
DRAFT
100
AcDbLine
 62
7
  6
CONTINUOUS
 10
14.25
 20
40.6236462766
 11
18.1
 21
40.6236462766
  0
LINE
  5
4E6
100
AcDbEntity
  8
DRAFT
100
AcDbLine
 62
7
  6
CONTINUOUS
 10
26.9
 20
40.6236462766
 11
30.75
 21
40.6236462766
  0
LINE
  5
4E7
100
AcDbEntity
  8
RACCORDO
100
AcDbLine
 62
7
  6
CONTINUOUS
 10
32.8919962532
 20
41.3462960074
 11
31.0080037468
 21
41.3462960074
  0
LINE
  5
4E8
100
AcDbEntity
  8
RACCORDO
100
AcDbLine
 62
7
  6
CONTINUOUS
 10
13.9919962532
 20
41.3462960074
 11
12.1080037468
 21
41.3462960074
  0
LINE
  5
4E9
100
AcDbEntity
  8
RACCORDO
100
AcDbLine
 62
7
  6
CONTINUOUS
 10
-12.1080037468
 20
41.3462960074
 11
-13.9919962532
 21
41.3462960074
  0
LINE
  5
4EA
100
AcDbEntity
  8
RACCORDO
100
AcDbLine
 62
7
  6
CONTINUOUS
 10
-31.0080037468
 20
41.3462960074
 11
-32.8919962532
 21
41.3462960074
  0
LINE
  5
4EB
100
AcDbEntity
  8
RACCORDO
100
AcDbLine
 62
250
  6
CONTINUOUS
 10
26.3970826234
 20
41.8189886281
 11
18.6029173766
 21
41.8189886281
  0
LINE
  5
4EC
100
AcDbEntity
  8
RACCORDO
100
AcDbLine
 62
250
  6
CONTINUOUS
 10
-18.6029173766
 20
41.8189886281
 11
-26.3970826234
 21
41.8189886281
  0
LINE
  5
4ED
100
AcDbEntity
  8
RACCORDO
100
AcDbLine
 62
250
  6
CONTINUOUS
 10
-32.8869056521
 20
41.8514774929
 11
-31.0130943479
 21
41.8514774929
  0
LINE
  5
4EE
100
AcDbEntity
  8
RACCORDO
100
AcDbLine
 62
250
  6
CONTINUOUS
 10
-13.9869056521
 20
41.8514774929
 11
-12.1130943479
 21
41.8514774929
  0
LINE
  5
4EF
100
AcDbEntity
  8
RACCORDO
100
AcDbLine
 62
250
  6
CONTINUOUS
 10
12.1130943479
 20
41.8514774929
 11
13.9869056521
 21
41.8514774929
  0
LINE
  5
4F0
100
AcDbEntity
  8
RACCORDO
100
AcDbLine
 62
250
  6
CONTINUOUS
 10
31.0130943479
 20
41.8514774929
 11
32.8869056521
 21
41.8514774929
  0
LINE
  5
4F1
100
AcDbEntity
  8
RACCORDO
100
AcDbLine
 62
7
  6
CONTINUOUS
 10
26.7962073137
 20
42.0189852434
 11
18.2037926863
 21
42.0189852434
  0
LINE
  5
4F2
100
AcDbEntity
  8
RACCORDO
100
AcDbLine
 62
7
  6
CONTINUOUS
 10
-18.2037926863
 20
42.0189852434
 11
-26.7962073137
 21
42.0189852434
  0
LINE
  5
4F3
100
AcDbEntity
  8
RACCORDO
100
AcDbLine
 62
250
  6
CONTINUOUS
 10
-11.8630985787
 20
42.0679838439
 11
-14.2369014213
 21
42.0679838439
  0
LINE
  5
4F4
100
AcDbEntity
  8
RACCORDO
100
AcDbLine
 62
250
  6
CONTINUOUS
 10
11.8630985787
 20
42.0679838439
 11
14.2369014213
 21
42.0679838439
  0
LINE
  5
4F5
100
AcDbEntity
  8
RACCORDO
100
AcDbLine
 62
250
  6
CONTINUOUS
 10
30.7630985787
 20
42.0679838439
 11
33.1369014213
 21
42.0679838439
  0
LINE
  5
4F6
100
AcDbEntity
  8
RACCORDO
100
AcDbLine
 62
250
  6
CONTINUOUS
 10
-30.7630985787
 20
42.0679838439
 11
-33.1369014213
 21
42.0679838439
  0
LINE
  5
4F7
100
AcDbEntity
  8
RACCORDO
100
AcDbLine
 62
250
  6
CONTINUOUS
 10
-11.8630985787
 20
42.4605519287
 11
-14.2369014213
 21
42.4605519287
  0
LINE
  5
4F8
100
AcDbEntity
  8
RACCORDO
100
AcDbLine
 62
250
  6
CONTINUOUS
 10
11.8630985787
 20
42.4605519287
 11
14.2369014213
 21
42.4605519287
  0
LINE
  5
4F9
100
AcDbEntity
  8
RACCORDO
100
AcDbLine
 62
250
  6
CONTINUOUS
 10
30.7630985787
 20
42.4605519287
 11
33.1369014213
 21
42.4605519287
  0
LINE
  5
4FA
100
AcDbEntity
  8
RACCORDO
100
AcDbLine
 62
250
  6
CONTINUOUS
 10
-30.7630985787
 20
42.4605519287
 11
-33.1369014213
 21
42.4605519287
  0
LINE
  5
4FB
100
AcDbEntity
  8
RACCORDO
100
AcDbLine
 62
7
  6
CONTINUOUS
 10
32.8869056521
 20
42.7105476979
 11
31.0130943479
 21
42.7105476979
  0
LINE
  5
4FC
100
AcDbEntity
  8
RACCORDO
100
AcDbLine
 62
7
  6
CONTINUOUS
 10
13.9869056521
 20
42.7105476979
 11
12.1130943479
 21
42.7105476979
  0
LINE
  5
4FD
100
AcDbEntity
  8
RACCORDO
100
AcDbLine
 62
7
  6
CONTINUOUS
 10
-12.1130943479
 20
42.7105476979
 11
-13.9869056521
 21
42.7105476979
  0
LINE
  5
4FE
100
AcDbEntity
  8
RACCORDO
100
AcDbLine
 62
7
  6
CONTINUOUS
 10
-31.0130943479
 20
42.7105476979
 11
-32.8869056521
 21
42.7105476979
  0
LINE
  5
4FF
100
AcDbEntity
  8
RACCORDO
100
AcDbLine
 62
7
  6
CONTINUOUS
 10
-32.9000042308
 20
42.7236462766
 11
-30.9999957692
 21
42.7236462766
  0
LINE
  5
500
100
AcDbEntity
  8
RACCORDO
100
AcDbLine
 62
7
  6
CONTINUOUS
 10
-14.0000042308
 20
42.7236462766
 11
-12.0999957692
 21
42.7236462766
  0
LINE
  5
501
100
AcDbEntity
  8
RACCORDO
100
AcDbLine
 62
7
  6
CONTINUOUS
 10
12.0999957692
 20
42.7236462766
 11
14.0000042308
 21
42.7236462766
  0
LINE
  5
502
100
AcDbEntity
  8
RACCORDO
100
AcDbLine
 62
7
  6
CONTINUOUS
 10
30.9999957692
 20
42.7236462766
 11
32.9000042308
 21
42.7236462766
  0
LWPOLYLINE
  5
503
100
AcDbEntity
  8
RACCORDO
100
AcDbPolyline
 62
250
  6
CONTINUOUS
 90
13
 70
0
 10
32.9766957555
 20
40.1545757903
 10
33.0419112122
 20
40.1502495481
 10
33.1060121098
 20
40.1374637477
 10
33.1679029376
 20
40.1164369036
 10
33.2265259557
 20
40.0875283734
 10
33.2808792725
 20
40.0512322157
 10
33.3300339675
 20
40.0081687468
 10
33.3731499665
 20
39.9590739393
 10
33.4094903995
 20
39.9047868436
 10
33.4384341933
 20
39.8462352486
 10
33.4594866866
 20
39.7844198253
 10
33.4722880835
 20
39.7203970247
 10
33.476619603
 20
39.655261023
  0
LWPOLYLINE
  5
504
100
AcDbEntity
  8
RACCORDO
100
AcDbPolyline
 62
250
  6
CONTINUOUS
 90
13
 70
0
 10
32.9424560861
 20
39.8275387057
 10
33.0075233338
 20
39.8231466476
 10
33.0714836469
 20
39.8106130684
 10
33.133248923
 20
39.7901511914
 10
33.1917684016
 20
39.7621091174
 10
33.2460465405
 20
39.7269639024
 10
33.2951599515
 20
39.6853134428
 10
33.3382731098
 20
39.6378663027
 10
33.374652568
 20
39.5854296604
 10
33.4036794335
 20
39.5288955763
 10
33.4248598972
 20
39.469225817
 10
33.4378336342
 20
39.4074354937
 10
33.4423799337
 20
39.3445757925
  0
LINE
  5
505
100
AcDbEntity
  8
RACCORDO
100
AcDbLine
 62
7
  6
CONTINUOUS
 10
33.1499982782
 20
40.6233387059
 11
33.2136405569
 21
40.6170092446
  0
LWPOLYLINE
  5
506
100
AcDbEntity
  8
RACCORDO
100
AcDbPolyline
 62
7
  6
CONTINUOUS
 90
10
 70
0
 10
18.2037926863
 20
42.0189852434
 10
18.231855823
 20
42.0160996898
 10
18.2611857674
 20
42.0084263599
 10
18.2917825193
 20
41.9968812183
 10
18.3238543749
 20
41.9825298075
 10
18.3571930382
 20
41.9661349511
 10
18.3911736206
 20
41.9478529
 10
18.4257496876
 20
41.9280728781
 10
18.4609676738
 20
41.907366728
 10
18.4963419942
 20
41.8858026094
  0
LWPOLYLINE
  5
507
100
AcDbEntity
  8
RACCORDO
100
AcDbPolyline
 62
7
  6
CONTINUOUS
 90
6
 70
0
 10
14.1521892159
 20
42.6719824818
 10
14.1249996731
 20
42.6901503744
 10
14.0956715157
 20
42.7046140537
 10
14.064706535
 20
42.7151260527
 10
14.0326345276
 20
42.7215065159
 10
14.0000042308
 20
42.7236462766
  0
LINE
  5
508
100
AcDbEntity
  8
RACCORDO
100
AcDbLine
 62
7
  6
CONTINUOUS
 10
14.1767749435
 20
42.6504212201
 11
14.1521892159
 21
42.6719824818
  0
LWPOLYLINE
  5
509
100
AcDbEntity
  8
0
100
AcDbPolyline
 62
7
  6
CONTINUOUS
 90
10
 70
0
 43
0.3500000087
 10
41.0283355988
 20
18.6522161407
 10
40.1711937317
 20
19.5093622711
 10
39.3140476013
 20
19.7236445404
 10
38.4569057343
 20
19.7236445404
 10
38.0283369324
 20
19.2950757385
 10
38.0283369324
 20
18.6522161407
 10
38.4569057343
 20
18.2236473389
 10
39.3140476013
 20
18.2236473389
 10
39.7426206665
 20
18.6522161407
 10
39.7426206665
 20
19.5807896942
  0
LWPOLYLINE
  5
50A
100
AcDbEntity
  8
RACCORDO
100
AcDbPolyline
 62
7
  6
CONTINUOUS
 90
3
 70
0
 10
-14.0137857299
 20
42.7090974854
 10
-14.0188234786
 20
42.7085007162
 10
-14.0504353334
 20
42.702338662
  0
LWPOLYLINE
  5
50B
100
AcDbEntity
  8
RACCORDO
100
AcDbPolyline
 62
7
  6
CONTINUOUS
 90
13
 70
0
 10
-32.8883600852
 20
42.7105434178
 10
-32.9196669035
 20
42.7083906573
 10
-32.9518735206
 20
42.701956152
 10
-32.9829688188
 20
42.6913510877
 10
-33.0124173911
 20
42.6767528794
 10
-33.0397049942
 20
42.6584109673
 10
-33.0643499838
 20
42.6366464447
 10
-33.0859690879
 20
42.611778895
 10
-33.1041301781
 20
42.5842837779
 10
-33.1184331225
 20
42.5548463465
 10
-33.1286923854
 20
42.52408161
 10
-33.1348544396
 20
42.4924697552
 10
-33.1354512088
 20
42.4874320065
  0
LWPOLYLINE
  5
50C
100
AcDbEntity
  8
RACCORDO
100
AcDbPolyline
 62
7
  6
CONTINUOUS
 90
3
 70
0
 10
-32.9000042308
 20
42.7236462766
 10
-32.9326345276
 20
42.7215065159
 10
-32.964706535
 20
42.7151260527
  0
LWPOLYLINE
  5
50D
100
AcDbEntity
  8
RACCORDO
100
AcDbPolyline
 62
7
  6
CONTINUOUS
 90
4
 70
0
 10
33.2136405569
 20
40.6170092446
 10
33.275954679
 20
40.6026058951
 10
33.3359211224
 20
40.5803652249
 10
33.3560141103
 20
40.5708718008
  0
LWPOLYLINE
  5
50E
100
AcDbEntity
  8
RACCORDO
100
AcDbPolyline
 62
7
  6
CONTINUOUS
 90
3
 70
0
 10
18.4963419942
 20
41.8858026094
 10
18.5672359149
 20
41.841230432
 10
18.6029173766
 20
41.8189886281
  0
LWPOLYLINE
  5
50F
100
AcDbEntity
  8
RACCORDO
100
AcDbPolyline
 62
7
  6
CONTINUOUS
 90
4
 70
0
 10
33.1414797761
 20
42.5383528116
 10
33.1309677771
 20
42.5693177923
 10
33.1165040978
 20
42.5986459497
 10
33.0983362052
 20
42.6258354925
  0
LWPOLYLINE
  5
510
100
AcDbEntity
  8
0
100
AcDbPolyline
 62
7
  6
CONTINUOUS
 90
6
 70
0
 43
0.3500000087
 10
2.142857199
 20
51.4736457031
 10
3.2142857319
 20
51.4736457031
 10
3.4285714651
 20
51.6879279724
 10
3.4285714651
 20
52.7593563721
 10
2.9999999987
 20
53.1879294373
 10
2.5714285322
 20
53.1879294373
  0
LINE
  5
511
100
AcDbEntity
  8
RACCORDO
100
AcDbLine
 62
250
  6
CONTINUOUS
 10
33.65
 20
40.1148242172
 11
33.6325830976
 21
40.1235320052
  0
LWPOLYLINE
  5
512
100
AcDbEntity
  8
RACCORDO
100
AcDbPolyline
 62
7
  6
CONTINUOUS
 90
10
 70
0
 10
33.3560141103
 20
40.5708718008
 10
33.3925587188
 20
40.5506507905
 10
33.4449414537
 20
40.5139500516
 10
33.4922136458
 20
40.4708664367
 10
33.5336023742
 20
40.4221042421
 10
33.5684316274
 20
40.3684608987
 10
33.5961340112
 20
40.3108168001
 10
33.616257659
 20
40.2501148189
 10
33.6284737002
 20
40.1873449641
 10
33.6325830976
 20
40.1235320052
  0
LWPOLYLINE
  5
513
100
AcDbEntity
  8
RACCORDO
100
AcDbPolyline
 62
7
  6
CONTINUOUS
 90
6
 70
0
 10
33.0521892159
 20
42.6719824818
 10
33.0249996731
 20
42.6901503744
 10
32.9956715157
 20
42.7046140537
 10
32.964706535
 20
42.7151260527
 10
32.9326345276
 20
42.7215065159
 10
32.9000042308
 20
42.7236462766
  0
LINE
  5
514
100
AcDbEntity
  8
RACCORDO
100
AcDbLine
 62
250
  6
CONTINUOUS
 10
30.75
 20
42.4736505074
 11
30.7630985787
 21
42.4605519287
  0
LINE
  5
515
100
AcDbEntity
  8
RACCORDO
100
AcDbLine
 62
250
  6
CONTINUOUS
 10
30.9999957692
 20
42.7236462766
 11
31.0003794152
 21
42.7232626306
  0
LWPOLYLINE
  5
516
100
AcDbEntity
  8
RACCORDO
100
AcDbPolyline
 62
7
  6
CONTINUOUS
 90
3
 70
0
 10
33.0983362052
 20
42.6258354925
 10
33.0767749435
 20
42.6504212201
 10
33.0521892159
 20
42.6719824818
  0
LWPOLYLINE
  5
517
100
AcDbEntity
  8
RACCORDO
100
AcDbPolyline
 62
250
  6
CONTINUOUS
 90
4
 70
0
 10
-97.4217207885
 20
36.0713422709
 10
-97.4176943187
 20
36.0725108615
 10
-97.4055719706
 20
36.0755110248
 10
-97.3855566881
 20
36.0802925341
  0
LWPOLYLINE
  5
518
100
AcDbEntity
  8
RACCORDO
100
AcDbPolyline
 62
7
  6
CONTINUOUS
 90
7
 70
0
 10
-79.2103373811
 20
41.4906335747
 10
-79.2402077103
 20
41.4729122329
 10
-79.2700345873
 20
41.4557629002
 10
-79.2993501363
 20
41.4391855767
 10
-79.3276272926
 20
41.4228998956
 10
-79.354401673
 20
41.4071862238
 10
-79.4016459335
 20
41.3799876038
  0
LWPOLYLINE
  5
519
100
AcDbEntity
  8
RACCORDO
100
AcDbPolyline
 62
7
  6
CONTINUOUS
 90
6
 70
0
 10
-79.4016459335
 20
41.3799876038
 10
-79.4210371538
 20
41.3685026557
 10
-79.4369505644
 20
41.3593037306
 10
-79.4488762354
 20
41.3526817998
 10
-79.4563232461
 20
41.3483458921
 10
-79.4588829483
 20
41.3462960074
  0
LINE
  5
51A
100
AcDbEntity
  8
RACCORDO
100
AcDbLine
 62
250
  6
CONTINUOUS
 10
-77.9588829483
 20
41.6341314248
 11
-77.2074285154
 21
42.0679838439
  0
LINE
  5
51B
100
AcDbEntity
  8
RACCORDO
100
AcDbLine
 62
7
  6
CONTINUOUS
 10
-77.9588829483
 20
41.3462960074
 11
-76.9588829483
 21
41.9236462766
  0
LINE
  5
51C
100
AcDbEntity
  8
RACCORDO
100
AcDbLine
 62
250
  6
CONTINUOUS
 10
-75.8326548118
 20
38.2334747206
 11
-76.2583176568
 21
38.1114178639
  0
LINE
  5
51D
100
AcDbEntity
  8
ASSI
100
AcDbLine
 62
250
  6
CONTINUOUS
 10
-75.8326548118
 20
38.2334747206
 11
-76.2583176568
 21
38.1114178639
  0
LINE
  5
51E
100
AcDbEntity
  8
RACCORDO
100
AcDbLine
 62
250
  6
CONTINUOUS
 10
-80.3087294406
 20
41.8965778624
 11
-80.3247911286
 21
41.86818874
  0
LINE
  5
51F
100
AcDbEntity
  8
RACCORDO
100
AcDbLine
 62
250
  6
CONTINUOUS
 10
-80.2423932132
 20
42.0123751212
 11
-80.3087294406
 21
41.8965778624
  0
LINE
  5
520
100
AcDbEntity
  8
RACCORDO
100
AcDbLine
 62
250
  6
CONTINUOUS
 10
-80.2103373811
 20
42.0679838439
 11
-80.2423932132
 21
42.0123751212
  0
LWPOLYLINE
  5
521
100
AcDbEntity
  8
0
100
AcDbPolyline
 62
7
  6
CONTINUOUS
 90
10
 70
0
 43
0.3500000087
 10
-63.7088829865
 20
51.4145903931
 10
-62.8517411194
 20
52.2717365234
 10
-62.6374545868
 20
53.1288741272
 10
-62.6374545868
 20
53.9860202576
 10
-63.066027652
 20
54.4145933228
 10
-63.7088829865
 20
54.4145933228
 10
-64.1374560516
 20
53.9860202576
 10
-64.1374560516
 20
53.1288741272
 10
-63.7088829865
 20
52.7003095886
 10
-62.780309433
 20
52.7003095886
  0
LINE
  5
522
100
AcDbEntity
  8
RACCORDO
100
AcDbLine
 62
7
  6
CONTINUOUS
 10
-76.4632044288
 20
38.1149941759
 11
-76.3492319847
 21
38.22896662
  0
LINE
  5
523
100
AcDbEntity
  8
DRAFT
100
AcDbLine
 62
7
  6
CONTINUOUS
 10
-76.4632044288
 20
38.1149941759
 11
-76.6597733063
 21
37.9184252984
  0
LINE
  5
524
100
AcDbEntity
  8
ASSI
100
AcDbLine
 62
7
  6
CONTINUOUS
 10
-76.3492319847
 20
38.22896662
 11
-76.6597733063
 21
37.9184252984
  0
LWPOLYLINE
  5
525
100
AcDbEntity
  8
RACCORDO
100
AcDbPolyline
 62
250
  6
CONTINUOUS
 90
4
 70
0
 10
-80.3247911286
 20
41.86818874
 10
-80.3299087537
 20
41.8590127932
 10
-80.3329566475
 20
41.8534105931
 10
-80.3338829483
 20
41.8514774929
  0
LWPOLYLINE
  5
526
100
AcDbEntity
  8
RACCORDO
100
AcDbPolyline
 62
250
  6
CONTINUOUS
 90
8
 70
0
 10
-96.3471115159
 20
37.8519494131
 10
-96.3470704198
 20
37.8475573557
 10
-96.3448284886
 20
37.8350237777
 10
-96.3404238622
 20
37.8145619024
 10
-96.3339314729
 20
37.7865198303
 10
-96.3254617703
 20
37.7513746174
 10
-96.3151588418
 20
37.7097241594
 10
-96.2897826127
 20
37.6098403785
  0
LWPOLYLINE
  5
527
100
AcDbEntity
  8
RACCORDO
100
AcDbPolyline
 62
250
  6
CONTINUOUS
 90
8
 70
0
 10
-86.9092810126
 20
40.1545757903
 10
-86.9101926239
 20
40.1502495481
 10
-86.9106414338
 20
40.1374637477
 10
-86.910619772
 20
40.1164369036
 10
-86.9101280088
 20
40.0875283734
 10
-86.9091745484
 20
40.0512322157
 10
-86.907775686
 20
40.0081687468
 10
-86.9037445872
 20
39.9047868436
  0
LWPOLYLINE
  5
528
100
AcDbEntity
  8
RACCORDO
100
AcDbPolyline
 62
250
  6
CONTINUOUS
 90
8
 70
0
 10
-88.9741119012
 20
39.8275387057
 10
-88.9740708058
 20
39.8231466476
 10
-88.9718288748
 20
39.8106130684
 10
-88.9674242483
 20
39.7901511914
 10
-88.9609318585
 20
39.7621091174
 10
-88.952462155
 20
39.7269639024
 10
-88.9421592258
 20
39.6853134428
 10
-88.9167829957
 20
39.5854296604
  0
LWPOLYLINE
  5
529
100
AcDbEntity
  8
RACCORDO
100
AcDbPolyline
 62
250
  6
CONTINUOUS
 90
10
 70
0
 10
-86.5002179787
 20
-2.5758767718
 10
-87.8141000342
 20
1.6880597001
 10
-89.0896542739
 20
5.9628757646
 10
-90.3268806977
 20
10.2485714215
 10
-91.5258721174
 20
14.5454913039
 10
-92.6865357211
 20
18.8532907787
 10
-93.8085930741
 20
23.1709359472
 10
-94.8919513645
 20
27.4980821763
 10
-95.9367034041
 20
31.835074099
 10
-96.9428491928
 20
36.1819117153
  0
LWPOLYLINE
  5
52A
100
AcDbEntity
  8
RACCORDO
100
AcDbPolyline
 62
250
  6
CONTINUOUS
 90
22
 70
0
 10
-96.9428491928
 20
36.1819117153
 10
-96.9563936217
 20
36.2540567871
 10
-96.9646439955
 20
36.3262725712
 10
-96.9676003141
 20
36.3985590676
 10
-96.9652267479
 20
36.4713124269
 10
-96.9575591265
 20
36.5441364986
 10
-96.9447049389
 20
36.6158428308
 10
-96.9265789852
 20
36.6864039081
 10
-96.9032664653
 20
36.7558472459
 10
-96.8751304673
 20
36.8230669383
 10
-96.8420885237
 20
36.8880309445
 10
-96.8042231019
 20
36.9507713053
 10
-96.7621446922
 20
37.0102782375
 10
-96.7157879552
 20
37.0664927044
 10
-96.6652182302
 20
37.1194737427
 10
-96.6112420254
 20
37.1683886785
 10
-96.5537960859
 20
37.2131761872
 10
-96.4929436666
 20
37.2538975934
 10
-96.4296810407
 20
37.2899041978
 10
-96.3643402993
 20
37.3209797671
 10
-96.2965893512
 20
37.3473405345
 10
-96.2264281966
 20
37.3689865
  0
LINE
  5
52B
100
AcDbEntity
  8
RACCORDO
100
AcDbLine
 62
250
  6
CONTINUOUS
 10
-86.8983091076
 20
39.7844198253
 11
-86.8918392377
 21
39.655261023
  0
LINE
  5
52C
100
AcDbEntity
  8
RACCORDO
100
AcDbLine
 62
250
  6
CONTINUOUS
 10
-86.9037445872
 20
39.9047868436
 11
-86.8983091076
 21
39.7844198253
  0
LINE
  5
52D
100
AcDbEntity
  8
RACCORDO
100
AcDbLine
 62
250
  6
CONTINUOUS
 10
-85.6141563547
 20
-3.628667691
 11
-85.6101252055
 21
-3.5252852898
  0
LINE
  5
52E
100
AcDbEntity
  8
RACCORDO
100
AcDbLine
 62
250
  6
CONTINUOUS
 10
-85.6101252055
 20
-3.5252852898
 11
-85.6046897688
 21
-3.4049196447
  0
LINE
  5
52F
100
AcDbEntity
  8
RACCORDO
100
AcDbLine
 62
250
  6
CONTINUOUS
 10
-85.6046897688
 20
-3.4049196447
 11
-85.5982200623
 21
-3.275764178
  0
LWPOLYLINE
  5
530
100
AcDbEntity
  8
RACCORDO
100
AcDbPolyline
 62
7
  6
CONTINUOUS
 90
7
 70
0
 10
-77.959178894
 20
40.6233387059
 10
-77.9601701193
 20
40.6170092446
 10
-77.960941122
 20
40.6026058951
 10
-77.9614865044
 20
40.5803652249
 10
-77.9618262903
 20
40.5506507905
 10
-77.9619517658
 20
40.5139500516
 10
-77.9614787123
 20
40.4221042421
  0
LINE
  5
531
100
AcDbEntity
  8
RACCORDO
100
AcDbLine
 62
250
  6
CONTINUOUS
 10
-96.2595222585
 20
37.4936365323
 11
-96.2264281966
 21
37.3689865
  0
LINE
  5
532
100
AcDbEntity
  8
RACCORDO
100
AcDbLine
 62
250
  6
CONTINUOUS
 10
-96.2897826127
 20
37.6098403785
 11
-96.2595222585
 21
37.4936365323
  0
LWPOLYLINE
  5
533
100
AcDbEntity
  8
RACCORDO
100
AcDbPolyline
 62
250
  6
CONTINUOUS
 90
7
 70
0
 10
-85.6156618372
 20
-3.7750789454
 10
-85.6165734612
 20
-3.7707524984
 10
-85.6170222615
 20
-3.757966152
 10
-85.6170005726
 20
-3.736938526
 10
-85.6165087696
 20
-3.7080290644
 10
-85.6155552623
 20
-3.6717319473
 10
-85.6141563547
 20
-3.628667691
  0
LWPOLYLINE
  5
534
100
AcDbEntity
  8
RACCORDO
100
AcDbPolyline
 62
250
  6
CONTINUOUS
 90
4
 70
0
 10
-80.2103373811
 20
-6.2632551447
 10
-80.2105147699
 20
-6.2611153839
 10
-80.2106642389
 20
-6.2547349205
 10
-80.2107832309
 20
-6.2442229214
  0
LINE
  5
535
100
AcDbEntity
  8
RACCORDO
100
AcDbLine
 62
250
  6
CONTINUOUS
 10
-80.2107832309
 20
-6.2442229214
 11
-80.2109221963
 21
-6.2115913494
  0
LINE
  5
536
100
AcDbEntity
  8
RACCORDO
100
AcDbLine
 62
250
  6
CONTINUOUS
 10
-80.2103373811
 20
42.4605519287
 11
-80.2109221963
 21
42.6127369134
  0
LINE
  5
537
100
AcDbEntity
  8
RACCORDO
100
AcDbLine
 62
7
  6
CONTINUOUS
 10
-80.4588829483
 20
-6.0132593755
 11
-80.4588829483
 21
-5.6206912907
  0
LINE
  5
538
100
AcDbEntity
  8
RACCORDO
100
AcDbLine
 62
7
  6
CONTINUOUS
 10
-80.4588829483
 20
42.0679838439
 11
-80.4588829483
 21
42.4605519287
  0
LINE
  5
539
100
AcDbEntity
  8
RACCORDO
100
AcDbLine
 62
250
  6
CONTINUOUS
 10
-80.2103373811
 20
-6.0132593755
 11
-80.2103373811
 21
-5.6206912907
  0
LINE
  5
53A
100
AcDbEntity
  8
RACCORDO
100
AcDbLine
 62
250
  6
CONTINUOUS
 10
-80.2103373811
 20
42.0679838439
 11
-80.2103373811
 21
42.4605519287
  0
LWPOLYLINE
  5
53B
100
AcDbEntity
  8
RACCORDO
100
AcDbPolyline
 62
250
  6
CONTINUOUS
 90
6
 70
0
 10
-80.2109221963
 20
42.6127369134
 10
-80.2108697099
 20
42.6770517953
 10
-80.2107832309
 20
42.6915154746
 10
-80.2106642389
 20
42.7020274737
 10
-80.2105147699
 20
42.708407937
 10
-80.2103373811
 20
42.7105476979
  0
LINE
  5
53C
100
AcDbEntity
  8
RACCORDO
100
AcDbLine
 62
250
  6
CONTINUOUS
 10
-80.2109221963
 20
-6.2115913494
 11
-80.2107832309
 21
-6.1089266602
  0
LINE
  5
53D
100
AcDbEntity
  8
RACCORDO
100
AcDbLine
 62
250
  6
CONTINUOUS
 10
-80.2107832309
 20
-6.1089266602
 11
-80.2103373811
 21
-6.0132593755
  0
LINE
  5
53E
100
AcDbEntity
  8
RACCORDO
100
AcDbLine
 62
7
  6
CONTINUOUS
 10
-77.2074285154
 20
-6.2719818894
 11
-77.9588829483
 21
-6.2763537234
  0
LINE
  5
53F
100
AcDbEntity
  8
RACCORDO
100
AcDbLine
 62
7
  6
CONTINUOUS
 10
-77.9588829483
 20
-6.2763537234
 11
-80.2103373811
 21
-6.2632551447
  0
LWPOLYLINE
  5
540
100
AcDbEntity
  8
RACCORDO
100
AcDbPolyline
 62
7
  6
CONTINUOUS
 90
6
 70
0
 10
-79.2103373811
 20
-5.0433410215
 10
-79.2405445933
 20
-5.0263661169
 10
-79.2702531793
 20
-5.0091052195
 10
-79.2992289698
 20
-4.9919631363
 10
-79.3274595753
 20
-4.9755350481
 10
-79.3544572897
 20
-4.9600923799
  0
LINE
  5
541
100
AcDbEntity
  8
RACCORDO
100
AcDbLine
 62
250
  6
CONTINUOUS
 10
-77.2074285154
 20
-5.6206912907
 11
-77.9588829483
 21
-5.1868388716
  0
LINE
  5
542
100
AcDbEntity
  8
RACCORDO
100
AcDbLine
 62
7
  6
CONTINUOUS
 10
-77.0838829483
 20
-5.4041849398
 11
-77.9588829483
 21
-4.8990034542
  0
LWPOLYLINE
  5
543
100
AcDbEntity
  8
RACCORDO
100
AcDbPolyline
 62
7
  6
CONTINUOUS
 90
7
 70
0
 10
-79.3544572897
 20
-4.9600923799
 10
-79.4015742487
 20
-4.9325213763
 10
-79.421155487
 20
-4.9213292993
 10
-79.4370090518
 20
-4.9119769721
 10
-79.4486202814
 20
-4.9047753257
 10
-79.4559829283
 20
-4.9003251316
 10
-79.4588829483
 20
-4.8990034542
  0
LINE
  5
544
100
AcDbEntity
  8
RACCORDO
100
AcDbLine
 62
250
  6
CONTINUOUS
 10
-80.2103373811
 20
-5.6206912907
 11
-80.2981699676
 21
-5.4678203608
  0
LWPOLYLINE
  5
545
100
AcDbEntity
  8
RACCORDO
100
AcDbPolyline
 62
250
  6
CONTINUOUS
 90
6
 70
0
 10
-80.2981699676
 20
-5.4678203608
 10
-80.3177411727
 20
-5.4334007803
 10
-80.3248193553
 20
-5.4208458921
 10
-80.3299211637
 20
-5.4116977793
 10
-80.332959627
 20
-5.4061123904
 10
-80.3338829483
 20
-5.4041849398
  0
LWPOLYLINE
  5
546
100
AcDbEntity
  8
RACCORDO
100
AcDbPolyline
 62
7
  6
CONTINUOUS
 90
4
 70
0
 10
-77.9588829483
 20
-6.2763537234
 10
-77.9590603175
 20
-6.2742139627
 10
-77.9592097693
 20
-6.2678334995
 10
-77.9593287465
 20
-6.2573215005
  0
LINE
  5
547
100
AcDbEntity
  8
RACCORDO
100
AcDbLine
 62
7
  6
CONTINUOUS
 10
-77.960146968
 20
40.3108168001
 11
-77.9566966193
 21
40.1235320052
  0
LWPOLYLINE
  5
548
100
AcDbEntity
  8
RACCORDO
100
AcDbPolyline
 62
250
  6
CONTINUOUS
 90
4
 70
0
 10
-77.2069813189
 20
42.7000778324
 10
-77.2071005276
 20
42.7106828967
 10
-77.2072504653
 20
42.717117402
 10
-77.2074285154
 20
42.7192744426
  0
LINE
  5
549
100
AcDbEntity
  8
RACCORDO
100
AcDbLine
 62
7
  6
CONTINUOUS
 10
-77.9614787123
 20
40.4221042421
 11
-77.960146968
 21
40.3108168001
  0
LINE
  5
54A
100
AcDbEntity
  8
RACCORDO
100
AcDbLine
 62
7
  6
CONTINUOUS
 10
-77.9593287465
 20
-6.2573215005
 11
-77.9594676867
 21
-6.2246899286
  0
LINE
  5
54B
100
AcDbEntity
  8
RACCORDO
100
AcDbLine
 62
250
  6
CONTINUOUS
 10
-77.2068428775
 20
42.667137712
 11
-77.2069813189
 21
42.7000778324
  0
LINE
  5
54C
100
AcDbEntity
  8
RACCORDO
100
AcDbLine
 62
7
  6
CONTINUOUS
 10
-77.9588829483
 20
42.4736505074
 11
-77.9594676867
 21
42.6258354925
  0
LINE
  5
54D
100
AcDbEntity
  8
RACCORDO
100
AcDbLine
 62
250
  6
CONTINUOUS
 10
-77.2068428775
 20
-6.1747854623
 11
-77.2074285154
 21
-6.0219861202
  0
LINE
  5
54E
100
AcDbEntity
  8
RACCORDO
100
AcDbLine
 62
7
  6
CONTINUOUS
 10
-79.4588829483
 20
41.3462960074
 11
-79.4588829483
 21
40.5450346077
  0
LINE
  5
54F
100
AcDbEntity
  8
RACCORDO
100
AcDbLine
 62
7
  6
CONTINUOUS
 10
-79.4588829483
 20
-4.0977420545
 11
-79.4588829483
 21
-4.8990034542
  0
LINE
  5
550
100
AcDbEntity
  8
RACCORDO
100
AcDbLine
 62
250
  6
CONTINUOUS
 10
-79.2103373811
 20
41.4906335747
 11
-79.2103373811
 21
40.557057238
  0
LINE
  5
551
100
AcDbEntity
  8
RACCORDO
100
AcDbLine
 62
250
  6
CONTINUOUS
 10
-79.2103373811
 20
-4.1097646848
 11
-79.2103373811
 21
-5.0433410215
  0
LINE
  5
552
100
AcDbEntity
  8
RACCORDO
100
AcDbLine
 62
7
  6
CONTINUOUS
 10
-77.9588829483
 20
-6.0263579542
 11
-77.9588829483
 21
-4.1760436914
  0
LINE
  5
553
100
AcDbEntity
  8
RACCORDO
100
AcDbLine
 62
7
  6
CONTINUOUS
 10
-77.9588829483
 20
40.6233362446
 11
-77.9588829483
 21
42.4736505074
  0
LINE
  5
554
100
AcDbEntity
  8
RACCORDO
100
AcDbLine
 62
250
  6
CONTINUOUS
 10
-77.2074285154
 20
42.4692786734
 11
-77.2074285154
 21
42.0679838439
  0
LINE
  5
555
100
AcDbEntity
  8
RACCORDO
100
AcDbLine
 62
250
  6
CONTINUOUS
 10
-77.2074285154
 20
-5.6206912907
 11
-77.2074285154
 21
-6.0219861202
  0
LINE
  5
556
100
AcDbEntity
  8
RACCORDO
100
AcDbLine
 62
7
  6
CONTINUOUS
 10
-76.9588829483
 20
42.4692786734
 11
-76.9588829483
 21
41.9236462766
  0
LINE
  5
557
100
AcDbEntity
  8
ASSI
100
AcDbLine
 62
7
  6
CONTINUOUS
 10
-76.9588829483
 20
35.9239508863
 11
-76.9588829483
 21
0.5233416669
  0
LINE
  5
558
100
AcDbEntity
  8
RACCORDO
100
AcDbLine
 62
7
  6
CONTINUOUS
 10
-76.9588829483
 20
-5.6206912907
 11
-76.9588829483
 21
-6.0219861202
  0
LINE
  5
559
100
AcDbEntity
  8
RACCORDO
100
AcDbLine
 62
7
  6
CONTINUOUS
 10
-76.9588829483
 20
-4.1676268556
 11
-76.9588829483
 21
40.6149194088
  0
LWPOLYLINE
  5
55A
100
AcDbEntity
  8
RACCORDO
100
AcDbPolyline
 62
7
  6
CONTINUOUS
 90
7
 70
0
 10
-77.9618253278
 20
-4.0235738835
 10
-77.9619342861
 20
-4.0666580073
 10
-77.9618381618
 20
-4.1033582467
 10
-77.9614865044
 20
-4.1330726717
 10
-77.9608761786
 20
-4.1553138644
 10
-77.960051031
 20
-4.1697169343
 10
-77.9590309211
 20
-4.1760449221
  0
LWPOLYLINE
  5
55B
100
AcDbEntity
  8
RACCORDO
100
AcDbPolyline
 62
7
  6
CONTINUOUS
 90
6
 70
0
 10
-77.9594676867
 20
42.6258354925
 10
-77.9594152117
 20
42.6901503744
 10
-77.9593287465
 20
42.7046140537
 10
-77.9592097693
 20
42.7151260527
 10
-77.9590603175
 20
42.7215065159
 10
-77.9588829483
 20
42.7236462766
  0
LINE
  5
55C
100
AcDbEntity
  8
RACCORDO
100
AcDbLine
 62
7
  6
CONTINUOUS
 10
-77.9594676867
 20
-6.2246899286
 11
-77.9593287465
 21
-6.1220252391
  0
LINE
  5
55D
100
AcDbEntity
  8
RACCORDO
100
AcDbLine
 62
250
  6
CONTINUOUS
 10
-77.206987372
 20
42.5635730912
 11
-77.2068428775
 21
42.667137712
  0
LINE
  5
55E
100
AcDbEntity
  8
RACCORDO
100
AcDbLine
 62
7
  6
CONTINUOUS
 10
-77.9593287465
 20
-6.1220252391
 11
-77.9588829483
 21
-6.0263579542
  0
LINE
  5
55F
100
AcDbEntity
  8
RACCORDO
100
AcDbLine
 62
250
  6
CONTINUOUS
 10
-77.2074285154
 20
42.4692786734
 11
-77.206987372
 21
42.5635730912
  0
LINE
  5
560
100
AcDbEntity
  8
RACCORDO
100
AcDbLine
 62
7
  6
CONTINUOUS
 10
-77.9609088653
 20
-3.9211688851
 11
-77.9618253278
 21
-4.0235738835
  0
LINE
  5
561
100
AcDbEntity
  8
RACCORDO
100
AcDbLine
 62
7
  6
CONTINUOUS
 10
-77.9592134025
 20
-3.802820532
 11
-77.9609088653
 21
-3.9211688851
  0
LINE
  5
562
100
AcDbEntity
  8
RACCORDO
100
AcDbLine
 62
7
  6
CONTINUOUS
 10
-77.9566966193
 20
-3.676239452
 11
-77.9592134025
 21
-3.802820532
  0
LWPOLYLINE
  5
563
100
AcDbEntity
  8
RACCORDO
100
AcDbPolyline
 62
250
  6
CONTINUOUS
 90
6
 70
0
 10
-77.2074285154
 20
-6.2719818894
 10
-77.2072547319
 20
-6.2699349078
 10
-77.2071066693
 20
-6.2637728535
 10
-77.206987372
 20
-6.2535135906
 10
-77.2068993221
 20
-6.2392106462
 10
-77.2068428775
 20
-6.1747854623
  0
LWPOLYLINE
  5
564
100
AcDbEntity
  8
0
100
AcDbPolyline
 62
7
  6
CONTINUOUS
 90
3
 70
0
 43
0.3500000087
 10
-61.0660256989
 20
51.7003086121
 10
-61.1374531219
 20
51.4860220795
 10
-61.2803122314
 20
51.2003081238
  0
LINE
  5
565
100
AcDbEntity
  8
0
100
AcDbLine
 62
7
  6
CONTINUOUS
 10
-69.9588067958
 20
-4.1152649843
 11
-69.5588829483
 21
-4.1117749018
  0
LINE
  5
566
100
AcDbEntity
  8
ASSI
100
AcDbLine
 62
7
  6
CONTINUOUS
 10
-69.9588067958
 20
-4.1152649843
 11
-69.5588829483
 21
-4.1117749018
  0
LINE
  5
567
100
AcDbEntity
  8
RACCORDO
100
AcDbLine
 62
7
  6
CONTINUOUS
 10
-67.9501564128
 20
-4.0890088902
 11
-77.9588829483
 21
-4.1763537234
  0
LINE
  5
568
100
AcDbEntity
  8
RACCORDO
100
AcDbLine
 62
250
  6
CONTINUOUS
 10
-77.9566966193
 20
-3.676239452
 11
-76.9588829483
 21
-3.667531664
  0
LINE
  5
569
100
AcDbEntity
  8
RACCORDO
100
AcDbLine
 62
250
  6
CONTINUOUS
 10
-77.2074285154
 20
-6.0219861202
 11
-77.9588829483
 21
-6.0263579542
  0
LINE
  5
56A
100
AcDbEntity
  8
RACCORDO
100
AcDbLine
 62
7
  6
CONTINUOUS
 10
-69.9588135234
 20
-5.529810681
 11
-76.959174734
 21
-5.5705375912
  0
LINE
  5
56B
100
AcDbEntity
  8
RACCORDO
100
AcDbLine
 62
250
  6
CONTINUOUS
 10
-76.9588829483
 20
-6.0219861202
 11
-77.2074285154
 21
-6.0219861202
  0
LINE
  5
56C
100
AcDbEntity
  8
RACCORDO
100
AcDbLine
 62
250
  6
CONTINUOUS
 10
-80.4588829483
 20
-6.0132593755
 11
-80.2103373811
 21
-6.0132593755
  0
LINE
  5
56D
100
AcDbEntity
  8
RACCORDO
100
AcDbLine
 62
250
  6
CONTINUOUS
 10
-80.4588829483
 20
-5.6206912907
 11
-80.2103373811
 21
-5.6206912907
  0
LINE
  5
56E
100
AcDbEntity
  8
RACCORDO
100
AcDbLine
 62
250
  6
CONTINUOUS
 10
-76.9588829483
 20
-5.6206912907
 11
-77.2074285154
 21
-5.6206912907
  0
LINE
  5
56F
100
AcDbEntity
  8
RACCORDO
100
AcDbLine
 62
250
  6
CONTINUOUS
 10
-77.9588829483
 20
-6.0263579542
 11
-80.2103373811
 21
-6.0132593755
  0
LINE
  5
570
100
AcDbEntity
  8
RACCORDO
100
AcDbLine
 62
7
  6
CONTINUOUS
 10
-67.450156745
 20
-3.3423291567
 11
-76.9588829483
 21
-3.1763537234
  0
LINE
  5
571
100
AcDbEntity
  8
RACCORDO
100
AcDbLine
 62
7
  6
CONTINUOUS
 10
-79.2534530489
 20
-4.1077006512
 11
-79.3086646364
 21
-4.1054276939
  0
LINE
  5
572
100
AcDbEntity
  8
RACCORDO
100
AcDbLine
 62
7
  6
CONTINUOUS
 10
-79.3086646364
 20
-4.1054276939
 11
-79.3344260903
 21
-4.104264562
  0
LINE
  5
573
100
AcDbEntity
  8
RACCORDO
100
AcDbLine
 62
7
  6
CONTINUOUS
 10
-79.224775542
 20
-4.1090360093
 11
-79.2534530489
 21
-4.1077006512
  0
LINE
  5
574
100
AcDbEntity
  8
RACCORDO
100
AcDbLine
 62
7
  6
CONTINUOUS
 10
-79.3344260903
 20
-4.104264562
 11
-85.6156618372
 21
-3.7750789454
  0
LINE
  5
575
100
AcDbEntity
  8
RACCORDO
100
AcDbLine
 62
250
  6
CONTINUOUS
 10
-77.9566966193
 20
-3.676239452
 11
-85.5982200623
 21
-3.275764178
  0
LINE
  5
576
100
AcDbEntity
  8
RACCORDO
100
AcDbLine
 62
7
  6
CONTINUOUS
 10
-77.9588829483
 20
-4.1760617972
 11
-79.224775542
 21
-4.1090360093
  0
LWPOLYLINE
  5
577
100
AcDbEntity
  8
RACCORDO
100
AcDbPolyline
 62
250
  6
CONTINUOUS
 90
19
 70
0
 10
-85.5982200623
 20
-3.275764178
 10
-85.6658379026
 20
-3.2698745175
 10
-85.7323455514
 20
-3.2595862248
 10
-85.7977430086
 20
-3.2448992997
 10
-85.8623229426
 20
-3.2257104223
 10
-85.925792685
 20
-3.2021229125
 10
-85.9872742306
 20
-3.1744467308
 10
-86.0467414902
 20
-3.1426220355
 10
-86.1042205529
 20
-3.1067086681
 10
-86.158911681
 20
-3.0671961143
 10
-86.2107752777
 20
-3.0240281292
 10
-86.2598509397
 20
-2.9772609576
 10
-86.3054577196
 20
-2.9275528197
 10
-86.3475416719
 20
-2.8748632467
 10
-86.3861567421
 20
-2.8192327074
 10
-86.420783819
 20
-2.7614408276
 10
-86.4512498655
 20
-2.7017474828
 10
-86.4777279188
 20
-2.6398927975
 10
-86.5002179787
 20
-2.5758767718
  0
LINE
  5
578
100
AcDbEntity
  8
RACCORDO
100
AcDbLine
 62
250
  6
CONTINUOUS
 10
-88.8865226419
 20
39.469225817
 11
-88.8534285819
 21
39.3445757925
  0
LINE
  5
579
100
AcDbEntity
  8
RACCORDO
100
AcDbLine
 62
250
  6
CONTINUOUS
 10
-88.9167829957
 20
39.5854296604
 11
-88.8865226419
 21
39.469225817
  0
LWPOLYLINE
  5
57A
100
AcDbEntity
  8
RACCORDO
100
AcDbPolyline
 62
250
  6
CONTINUOUS
 90
4
 70
0
 10
-77.0929747679
 20
-5.4208961868
 10
-77.0878571428
 20
-5.41172024
 10
-77.084809249
 20
-5.4061180399
 10
-77.0838829483
 20
-5.4041849398
  0
LINE
  5
57B
100
AcDbEntity
  8
RACCORDO
100
AcDbLine
 62
250
  6
CONTINUOUS
 10
-77.1090364559
 20
-5.4492853092
 11
-77.0929747679
 21
-5.4208961868
  0
LINE
  5
57C
100
AcDbEntity
  8
RACCORDO
100
AcDbLine
 62
250
  6
CONTINUOUS
 10
-77.1753726833
 20
-5.565082568
 11
-77.1090364559
 21
-5.4492853092
  0
LINE
  5
57D
100
AcDbEntity
  8
RACCORDO
100
AcDbLine
 62
250
  6
CONTINUOUS
 10
-77.2074285154
 20
-5.6206912907
 11
-77.1753726833
 21
-5.565082568
  0
LWPOLYLINE
  5
57E
100
AcDbEntity
  8
RACCORDO
100
AcDbPolyline
 62
250
  6
CONTINUOUS
 90
4
 70
0
 10
-86.968658706
 20
-2.7252478342
 10
-86.9647630648
 20
-2.7236755141
 10
-86.952940204
 20
-2.7196275885
 10
-86.9333881547
 20
-2.7131718595
  0
LINE
  5
57F
100
AcDbEntity
  8
RACCORDO
100
AcDbLine
 62
250
  6
CONTINUOUS
 10
-86.9333881547
 20
-2.7131718595
 11
-86.8725304424
 21
-2.6935080404
  0
LINE
  5
580
100
AcDbEntity
  8
RACCORDO
100
AcDbLine
 62
250
  6
CONTINUOUS
 10
-86.8725304424
 20
-2.6935080404
 11
-86.6221265221
 21
-2.6141414771
  0
LINE
  5
581
100
AcDbEntity
  8
RACCORDO
100
AcDbLine
 62
250
  6
CONTINUOUS
 10
-86.6221265221
 20
-2.6141414771
 11
-86.5002179787
 21
-2.5758767718
  0
LINE
  5
582
100
AcDbEntity
  8
DRAFT
100
AcDbLine
 62
7
  6
CONTINUOUS
 10
-68.3651947869
 20
-1.5263503386
 11
-66.9588829483
 21
-1.5018030741
  0
LINE
  5
583
100
AcDbEntity
  8
ASSI
100
AcDbLine
 62
7
  6
CONTINUOUS
 10
-68.3651947869
 20
-1.5263503386
 11
-66.9588829483
 21
-1.5018030741
  0
LINE
  5
584
100
AcDbEntity
  8
0
100
AcDbLine
 62
7
  6
CONTINUOUS
 10
-76.9588829483
 20
-1.4763537234
 11
-48.4414305418
 21
-0.9785797401
  0
LINE
  5
585
100
AcDbEntity
  8
ASSI
100
AcDbLine
 62
7
  6
CONTINUOUS
 10
-76.9588829483
 20
-1.4763537234
 11
-48.4414305418
 21
-0.9785797401
  0
LINE
  5
586
100
AcDbEntity
  8
0
100
AcDbLine
 62
7
  6
CONTINUOUS
 10
-67.157719402
 20
-1.5333752249
 11
-76.9588829483
 21
-1.4763537234
  0
LINE
  5
587
100
AcDbEntity
  8
RACCORDO
100
AcDbLine
 62
7
  6
CONTINUOUS
 10
-66.9588829483
 20
-2.7723492691
 11
-76.759096188
 21
-2.6868241038
  0
LINE
  5
588
100
AcDbEntity
  8
DRAFT
100
AcDbLine
 62
7
  6
CONTINUOUS
 10
-76.759096188
 20
-2.6868241038
 11
-76.9588829483
 21
-2.6763537234
  0
LWPOLYLINE
  5
589
100
AcDbEntity
  8
0
100
AcDbPolyline
 62
7
  6
CONTINUOUS
 90
13
 70
0
 43
0.3500000087
 10
-72.5660241394
 20
61.9895751404
 10
-72.5660241394
 20
63.2752943359
 10
-72.3517418701
 20
63.7038588745
 10
-71.9231688049
 20
64.1324319397
 10
-71.7088865356
 20
64.1324319397
 10
-71.2803134705
 20
63.7038588745
 10
-71.0660269379
 20
63.2752943359
 10
-71.0660269379
 20
61.9895751404
 10
-71.2803134705
 20
61.5610020752
 10
-71.7088865356
 20
61.1324375366
 10
-71.9231688049
 20
61.1324375366
 10
-72.3517418701
 20
61.5610020752
 10
-72.5660241394
 20
61.9895751404
  0
LINE
  5
58A
100
AcDbEntity
  8
RACCORDO
100
AcDbLine
 62
250
  6
CONTINUOUS
 10
-72.0588829483
 20
38.2664079288
 11
-72.0588829483
 21
38.0381164584
  0
LINE
  5
58B
100
AcDbEntity
  8
ASSI
100
AcDbLine
 62
250
  6
CONTINUOUS
 10
-72.0588829483
 20
38.2664079288
 11
-72.0588829483
 21
38.0381164584
  0
LINE
  5
58C
100
AcDbEntity
  8
RACCORDO
100
AcDbLine
 62
7
  6
CONTINUOUS
 10
-71.0588829483
 20
38.2751352289
 11
-71.0588829483
 21
38.0206613935
  0
LINE
  5
58D
100
AcDbEntity
  8
ASSI
100
AcDbLine
 62
7
  6
CONTINUOUS
 10
-71.0588829483
 20
38.2751352289
 11
-71.0588829483
 21
38.0206613935
  0
LINE
  5
58E
100
AcDbEntity
  8
DRAFT
100
AcDbLine
 62
250
  6
CONTINUOUS
 10
-70.3843631215
 20
-4.1102518903
 11
-70.3843631215
 21
-5.5322864562
  0
LINE
  5
58F
100
AcDbEntity
  8
DRAFT
100
AcDbLine
 62
250
  6
CONTINUOUS
 10
-70.3843631215
 20
40.5575444435
 11
-70.3843631215
 21
41.9795790093
  0
LINE
  5
590
100
AcDbEntity
  8
RACCORDO
100
AcDbLine
 62
7
  6
CONTINUOUS
 10
-69.9588829483
 20
-4.1065387811
 11
-69.9588829483
 21
-5.5298110849
  0
LINE
  5
591
100
AcDbEntity
  8
RACCORDO
100
AcDbLine
 62
7
  6
CONTINUOUS
 10
-69.9588829483
 20
40.5538313343
 11
-69.9588829483
 21
41.9771036381
  0
LINE
  5
592
100
AcDbEntity
  8
RACCORDO
100
AcDbLine
 62
7
  6
CONTINUOUS
 10
-79.4588829483
 20
-4.8990034542
 11
-80.3338829483
 21
-5.4041849398
  0
LINE
  5
593
100
AcDbEntity
  8
RACCORDO
100
AcDbLine
 62
250
  6
CONTINUOUS
 10
-79.2103373811
 20
-5.0433410215
 11
-80.2103373811
 21
-5.6206912907
  0
LINE
  5
594
100
AcDbEntity
  8
0
100
AcDbLine
 62
250
  6
CONTINUOUS
 10
-76.9588829483
 20
0.5233416669
 11
-48.4414305418
 21
1.0211156503
  0
LINE
  5
595
100
AcDbEntity
  8
ASSI
100
AcDbLine
 62
250
  6
CONTINUOUS
 10
-76.9588829483
 20
0.5233416669
 11
-48.4414305418
 21
1.0211156503
  0
LINE
  5
596
100
AcDbEntity
  8
0
100
AcDbLine
 62
250
  6
CONTINUOUS
 10
-47.4588829483
 20
1.0211156503
 11
-48.4414305418
 21
1.0211156503
  0
LINE
  5
597
100
AcDbEntity
  8
ASSI
100
AcDbLine
 62
250
  6
CONTINUOUS
 10
-47.4588829483
 20
1.0211156503
 11
-48.4414305418
 21
1.0211156503
  0
LINE
  5
598
100
AcDbEntity
  8
RACCORDO
100
AcDbLine
 62
250
  6
CONTINUOUS
 10
-67.450156745
 20
39.7896217099
 11
-67.450156745
 21
39.2153545408
  0
LINE
  5
599
100
AcDbEntity
  8
RACCORDO
100
AcDbLine
 62
250
  6
CONTINUOUS
 10
-67.450156745
 20
-2.7680619876
 11
-67.450156745
 21
-3.3423291567
  0
LINE
  5
59A
100
AcDbEntity
  8
RACCORDO
100
AcDbLine
 62
7
  6
CONTINUOUS
 10
-66.9588829483
 20
39.5363395203
 11
-66.9588829483
 21
39.2196418223
  0
LINE
  5
59B
100
AcDbEntity
  8
0
100
AcDbLine
 62
7
  6
CONTINUOUS
 10
-66.9588829483
 20
-1.5390850455
 11
-66.9588829483
 21
-1.5018030741
  0
LINE
  5
59C
100
AcDbEntity
  8
RACCORDO
100
AcDbLine
 62
7
  6
CONTINUOUS
 10
-66.9588829483
 20
-3.0890469671
 11
-66.9588829483
 21
-1.7333718402
  0
LINE
  5
59D
100
AcDbEntity
  8
DRAFT
100
AcDbLine
 62
7
  6
CONTINUOUS
 10
-66.9588829483
 20
-1.5018030741
 11
-66.9588829483
 21
-1.3018030741
  0
LINE
  5
59E
100
AcDbEntity
  8
ASSI
100
AcDbLine
 62
7
  6
CONTINUOUS
 10
-66.9588829483
 20
-1.5390850455
 11
-66.9588829483
 21
-1.3018030741
  0
LINE
  5
59F
100
AcDbEntity
  8
0
100
AcDbLine
 62
7
  6
CONTINUOUS
 10
-66.9588829483
 20
37.9490956273
 11
-66.9588829483
 21
37.9863775987
  0
LINE
  5
5A0
100
AcDbEntity
  8
DRAFT
100
AcDbLine
 62
7
  6
CONTINUOUS
 10
-66.9588829483
 20
37.7490956273
 11
-66.9588829483
 21
37.9490956273
  0
LINE
  5
5A1
100
AcDbEntity
  8
ASSI
100
AcDbLine
 62
7
  6
CONTINUOUS
 10
-66.9588829483
 20
37.7490956273
 11
-66.9588829483
 21
37.9863775987
  0
LINE
  5
5A2
100
AcDbEntity
  8
ASSI
100
AcDbLine
 62
7
  6
CONTINUOUS
 10
-66.9588829483
 20
38.8065705598
 11
-66.9588829483
 21
39.2196418223
  0
LINE
  5
5A3
100
AcDbEntity
  8
0
100
AcDbLine
 62
7
  6
CONTINUOUS
 10
-67.0145529551
 20
-1.5952429969
 11
-66.9588829483
 21
-1.5390850455
  0
LINE
  5
5A4
100
AcDbEntity
  8
ASSI
100
AcDbLine
 62
7
  6
CONTINUOUS
 10
-67.0145529551
 20
-1.5952429969
 11
-66.9588829483
 21
-1.5390850455
  0
LINE
  5
5A5
100
AcDbEntity
  8
0
100
AcDbLine
 62
250
  6
CONTINUOUS
 10
-48.437185625
 20
37.3429091137
 11
-48.4360041364
 21
37.2671501425
  0
LINE
  5
5A6
100
AcDbEntity
  8
ASSI
100
AcDbLine
 62
250
  6
CONTINUOUS
 10
-48.437185625
 20
37.3429091137
 11
-48.4360041364
 21
37.2671501425
  0
LINE
  5
5A7
100
AcDbEntity
  8
0
100
AcDbLine
 62
250
  6
CONTINUOUS
 10
-48.4360041364
 20
37.2671501425
 11
-48.4351109302
 21
37.1677887546
  0
LINE
  5
5A8
100
AcDbEntity
  8
ASSI
100
AcDbLine
 62
250
  6
CONTINUOUS
 10
-48.4360041364
 20
37.2671501425
 11
-48.4351109302
 21
37.1677887546
  0
LINE
  5
5A9
100
AcDbEntity
  8
0
100
AcDbLine
 62
250
  6
CONTINUOUS
 10
-48.4414305418
 20
1.0211156503
 11
-48.4355210462
 21
0.1382422415
  0
LINE
  5
5AA
100
AcDbEntity
  8
ASSI
100
AcDbLine
 62
250
  6
CONTINUOUS
 10
-48.4414305418
 20
1.0211156503
 11
-48.4355210462
 21
0.1382422415
  0
LINE
  5
5AB
100
AcDbEntity
  8
0
100
AcDbLine
 62
250
  6
CONTINUOUS
 10
-48.4351109302
 20
37.1677887546
 11
-48.4342314103
 21
36.9045773045
  0
LINE
  5
5AC
100
AcDbEntity
  8
ASSI
100
AcDbLine
 62
250
  6
CONTINUOUS
 10
-48.4351109302
 20
37.1677887546
 11
-48.4342314103
 21
36.9045773045
  0
LINE
  5
5AD
100
AcDbEntity
  8
0
100
AcDbLine
 62
250
  6
CONTINUOUS
 10
-48.4355210462
 20
0.1382422415
 11
-48.4342055699
 21
-0.4063516406
  0
LINE
  5
5AE
100
AcDbEntity
  8
ASSI
100
AcDbLine
 62
250
  6
CONTINUOUS
 10
-48.4355210462
 20
0.1382422415
 11
-48.4342055699
 21
-0.4063516406
  0
LINE
  5
5AF
100
AcDbEntity
  8
0
100
AcDbLine
 62
250
  6
CONTINUOUS
 10
-48.4414305418
 20
35.4261769029
 11
-48.4414305418
 21
1.0211156503
  0
LINE
  5
5B0
100
AcDbEntity
  8
ASSI
100
AcDbLine
 62
250
  6
CONTINUOUS
 10
-48.4414305418
 20
35.4261769029
 11
-48.4414305418
 21
1.0211156503
  0
LINE
  5
5B1
100
AcDbEntity
  8
0
100
AcDbLine
 62
7
  6
CONTINUOUS
 10
-47.4588829483
 20
36.4260245981
 11
-47.4588829483
 21
0.0212679551
  0
LINE
  5
5B2
100
AcDbEntity
  8
ASSI
100
AcDbLine
 62
7
  6
CONTINUOUS
 10
-47.4588829483
 20
36.4260245981
 11
-47.4588829483
 21
0.0212679551
  0
LINE
  5
5B3
100
AcDbEntity
  8
0
100
AcDbLine
 62
250
  6
CONTINUOUS
 10
-48.4342314103
 20
36.9045773045
 11
-48.4352438361
 21
36.3745024576
  0
LINE
  5
5B4
100
AcDbEntity
  8
ASSI
100
AcDbLine
 62
250
  6
CONTINUOUS
 10
-48.4342314103
 20
36.9045773045
 11
-48.4352438361
 21
36.3745024576
  0
LINE
  5
5B5
100
AcDbEntity
  8
0
100
AcDbLine
 62
250
  6
CONTINUOUS
 10
-48.4342055699
 20
-0.4063516406
 11
-48.4348765469
 21
-0.6819226782
  0
LINE
  5
5B6
100
AcDbEntity
  8
ASSI
100
AcDbLine
 62
250
  6
CONTINUOUS
 10
-48.4342055699
 20
-0.4063516406
 11
-48.4348765469
 21
-0.6819226782
  0
LWPOLYLINE
  5
5B7
100
AcDbEntity
  8
0
100
AcDbPolyline
 62
250
  6
CONTINUOUS
 90
3
 70
0
 10
-48.4352438361
 20
36.3745024576
 10
-48.4403429318
 20
35.555219128
 10
-48.4414305418
 20
35.4261769029
  0
LWPOLYLINE
  5
5B8
100
AcDbEntity
  8
ASSI
100
AcDbPolyline
 62
250
  6
CONTINUOUS
 90
3
 70
0
 10
-48.4352438361
 20
36.3745024576
 10
-48.4403429318
 20
35.555219128
 10
-48.4414305418
 20
35.4261769029
  0
LINE
  5
5B9
100
AcDbEntity
  8
0
100
AcDbLine
 62
250
  6
CONTINUOUS
 10
-48.4348765469
 20
-0.6819226782
 11
-48.4356976981
 21
-0.7915173833
  0
LINE
  5
5BA
100
AcDbEntity
  8
ASSI
100
AcDbLine
 62
250
  6
CONTINUOUS
 10
-48.4348765469
 20
-0.6819226782
 11
-48.4356976981
 21
-0.7915173833
  0
LWPOLYLINE
  5
5BB
100
AcDbEntity
  8
0
100
AcDbPolyline
 62
250
  6
CONTINUOUS
 90
7
 70
0
 10
-48.4356976981
 20
-0.7915173833
 10
-48.4368729036
 20
-0.8795879869
 10
-48.437604945
 20
-0.9143257147
 10
-48.4384291328
 20
-0.9419571229
 10
-48.4393415136
 20
-0.9620759751
 10
-48.4403429318
 20
-0.9743927664
 10
-48.4414305418
 20
-0.9785797401
  0
LWPOLYLINE
  5
5BC
100
AcDbEntity
  8
ASSI
100
AcDbPolyline
 62
250
  6
CONTINUOUS
 90
7
 70
0
 10
-48.4356976981
 20
-0.7915173833
 10
-48.4368729036
 20
-0.8795879869
 10
-48.437604945
 20
-0.9143257147
 10
-48.4384291328
 20
-0.9419571229
 10
-48.4393415136
 20
-0.9620759751
 10
-48.4403429318
 20
-0.9743927664
 10
-48.4414305418
 20
-0.9785797401
  0
LINE
  5
5BD
100
AcDbEntity
  8
RACCORDO
100
AcDbLine
 62
7
  6
CONTINUOUS
 10
-80.3338829483
 20
41.8514774929
 11
-79.4588829483
 21
41.3462960074
  0
LINE
  5
5BE
100
AcDbEntity
  8
RACCORDO
100
AcDbLine
 62
250
  6
CONTINUOUS
 10
-80.2103373811
 20
42.0679838439
 11
-79.2103373811
 21
41.4906335747
  0
LWPOLYLINE
  5
5BF
100
AcDbEntity
  8
RACCORDO
100
AcDbPolyline
 62
7
  6
CONTINUOUS
 90
7
 70
0
 10
-76.9588829483
 20
41.9236462766
 10
-76.9614426504
 20
41.9256961613
 10
-76.9688896611
 20
41.930032069
 10
-76.9808153322
 20
41.9366539998
 10
-76.9967287427
 20
41.9458529249
 10
-77.016119963
 20
41.957337873
 10
-77.0633642235
 20
41.9845364929
  0
LINE
  5
5C0
100
AcDbEntity
  8
0
100
AcDbLine
 62
7
  6
CONTINUOUS
 10
-66.9588829483
 20
37.9863775987
 11
-67.3015104154
 21
38.3320081771
  0
LINE
  5
5C1
100
AcDbEntity
  8
ASSI
100
AcDbLine
 62
7
  6
CONTINUOUS
 10
-66.9588829483
 20
37.9863775987
 11
-67.3015104154
 21
38.3320081771
  0
LINE
  5
5C2
100
AcDbEntity
  8
0
100
AcDbLine
 62
250
  6
CONTINUOUS
 10
-47.4588829483
 20
35.4261769029
 11
-48.4414305418
 21
35.4261769029
  0
LINE
  5
5C3
100
AcDbEntity
  8
ASSI
100
AcDbLine
 62
250
  6
CONTINUOUS
 10
-47.4588829483
 20
35.4261769029
 11
-48.4414305418
 21
35.4261769029
  0
LINE
  5
5C4
100
AcDbEntity
  8
0
100
AcDbLine
 62
250
  6
CONTINUOUS
 10
-76.9588829483
 20
35.9239508863
 11
-48.4414305418
 21
35.4261769029
  0
LINE
  5
5C5
100
AcDbEntity
  8
ASSI
100
AcDbLine
 62
250
  6
CONTINUOUS
 10
-76.9588829483
 20
35.9239508863
 11
-48.4414305418
 21
35.4261769029
  0
LWPOLYLINE
  5
5C6
100
AcDbEntity
  8
RACCORDO
100
AcDbPolyline
 62
7
  6
CONTINUOUS
 90
6
 70
0
 10
-77.0633642235
 20
41.9845364929
 10
-77.0901386039
 20
42.0002501648
 10
-77.1184157603
 20
42.0165358459
 10
-77.1477313093
 20
42.0331131694
 10
-77.1775581863
 20
42.0502625021
 10
-77.2074285154
 20
42.0679838439
  0
LWPOLYLINE
  5
5C7
100
AcDbEntity
  8
0
100
AcDbPolyline
 62
7
  6
CONTINUOUS
 90
10
 70
0
 43
0.3500000087
 10
-61.1374531219
 20
51.9145908813
 10
-61.0660256989
 20
51.7717360352
 10
-61.0660256989
 20
51.7003086121
 10
-61.2088848083
 20
51.5574495026
 10
-61.2803122314
 20
51.5574495026
 10
-61.3517396545
 20
51.6288769257
 10
-61.3517396545
 20
51.7003086121
 10
-61.2803122314
 20
51.8431634583
 10
-61.2088848083
 20
51.9145908813
 10
-61.1374531219
 20
51.9145908813
  0
LWPOLYLINE
  5
5C8
100
AcDbEntity
  8
0
100
AcDbPolyline
 62
250
  6
CONTINUOUS
 90
6
 70
0
 10
-48.4414305418
 20
37.4258722933
 10
-48.4404199256
 20
37.4222872483
 10
-48.4394893685
 20
37.4117982374
 10
-48.43863922
 20
37.3947619102
 10
-48.437873991
 20
37.3716986924
 10
-48.437185625
 20
37.3429091137
  0
LWPOLYLINE
  5
5C9
100
AcDbEntity
  8
ASSI
100
AcDbPolyline
 62
250
  6
CONTINUOUS
 90
6
 70
0
 10
-48.4414305418
 20
37.4258722933
 10
-48.4404199256
 20
37.4222872483
 10
-48.4394893685
 20
37.4117982374
 10
-48.43863922
 20
37.3947619102
 10
-48.437873991
 20
37.3716986924
 10
-48.437185625
 20
37.3429091137
  0
LINE
  5
5CA
100
AcDbEntity
  8
RACCORDO
100
AcDbLine
 62
250
  6
CONTINUOUS
 10
-97.3855566881
 20
36.0802925341
 11
-97.2821289603
 21
36.1043840597
  0
LINE
  5
5CB
100
AcDbEntity
  8
RACCORDO
100
AcDbLine
 62
250
  6
CONTINUOUS
 10
-97.2821289603
 20
36.1043840597
 11
-96.9428491928
 21
36.1819117153
  0
LINE
  5
5CC
100
AcDbEntity
  8
DRAFT
100
AcDbLine
 62
7
  6
CONTINUOUS
 10
-76.9588829483
 20
39.1236462766
 11
-76.759096188
 21
39.134116657
  0
LINE
  5
5CD
100
AcDbEntity
  8
RACCORDO
100
AcDbLine
 62
250
  6
CONTINUOUS
 10
-86.8918392377
 20
39.655261023
 11
-77.9566966193
 21
40.1235320052
  0
LINE
  5
5CE
100
AcDbEntity
  8
RACCORDO
100
AcDbLine
 62
7
  6
CONTINUOUS
 10
-67.450156745
 20
39.7896217099
 11
-76.9588829483
 21
39.6236462766
  0
LINE
  5
5CF
100
AcDbEntity
  8
ASSI
100
AcDbLine
 62
7
  6
CONTINUOUS
 10
-67.4545196805
 20
38.3065895983
 11
-76.9588829483
 21
38.2236462766
  0
LINE
  5
5D0
100
AcDbEntity
  8
RACCORDO
100
AcDbLine
 62
7
  6
CONTINUOUS
 10
-66.9588829483
 20
39.2196418223
 11
-76.759096188
 21
39.134116657
  0
LINE
  5
5D1
100
AcDbEntity
  8
RACCORDO
100
AcDbLine
 62
250
  6
CONTINUOUS
 10
-76.9588829483
 20
40.1148242172
 11
-77.9566966193
 21
40.1235320052
  0
LINE
  5
5D2
100
AcDbEntity
  8
0
100
AcDbLine
 62
7
  6
CONTINUOUS
 10
-76.9588829483
 20
37.9236462766
 11
-48.4414305418
 21
37.4258722933
  0
LINE
  5
5D3
100
AcDbEntity
  8
ASSI
100
AcDbLine
 62
7
  6
CONTINUOUS
 10
-76.9588829483
 20
37.9236462766
 11
-48.4414305418
 21
37.4258722933
  0
LINE
  5
5D4
100
AcDbEntity
  8
DRAFT
100
AcDbLine
 62
7
  6
CONTINUOUS
 10
-76.4632044288
 20
38.1149941759
 11
-66.9588829483
 21
37.9490956273
  0
LINE
  5
5D5
100
AcDbEntity
  8
ASSI
100
AcDbLine
 62
7
  6
CONTINUOUS
 10
-76.4632044288
 20
38.1149941759
 11
-66.9588829483
 21
37.9490956273
  0
LINE
  5
5D6
100
AcDbEntity
  8
RACCORDO
100
AcDbLine
 62
250
  6
CONTINUOUS
 10
-96.2264281966
 20
37.3689865
 11
-88.8534285819
 21
39.3445757925
  0
LINE
  5
5D7
100
AcDbEntity
  8
RACCORDO
100
AcDbLine
 62
7
  6
CONTINUOUS
 10
-96.3471115159
 20
37.8519494131
 11
-88.9741119012
 21
39.8275387057
  0
LWPOLYLINE
  5
5D8
100
AcDbEntity
  8
RACCORDO
100
AcDbPolyline
 62
250
  6
CONTINUOUS
 90
22
 70
0
 10
-88.8534285819
 20
39.3445757925
 10
-88.7615908198
 20
39.3686897444
 10
-88.6695811107
 20
39.3918719679
 10
-88.5773994548
 20
39.414122463
 10
-88.4850426004
 20
39.4354408033
 10
-88.392513799
 20
39.4558274152
 10
-88.2998228055
 20
39.4752835778
 10
-88.2069694819
 20
39.4938097941
 10
-88.1139539661
 20
39.5114055611
 10
-88.020786426
 20
39.5280706488
 10
-87.9274669181
 20
39.5438054937
 10
-87.8339953858
 20
39.5586096593
 10
-87.740381828
 20
39.5724816066
 10
-87.6466263443
 20
39.5854217659
 10
-87.552728835
 20
39.5974297068
 10
-87.4586990004
 20
39.6085025994
 10
-87.3645371597
 20
39.6186408803
 10
-87.2702429937
 20
39.627844113
 10
-87.1758252443
 20
39.6361081575
 10
-87.0812868255
 20
39.643431634
 10
-86.9866248233
 20
39.6498159225
 10
-86.8918392377
 20
39.655261023
  0
LINE
  5
5D9
100
AcDbEntity
  8
RACCORDO
100
AcDbLine
 62
7
  6
CONTINUOUS
 10
-86.9092810126
 20
40.1545757903
 11
-79.3344260903
 21
40.5515571152
  0
LINE
  5
5DA
100
AcDbEntity
  8
RACCORDO
100
AcDbLine
 62
7
  6
CONTINUOUS
 10
-79.224775542
 20
40.5563285625
 11
-77.9588829483
 21
40.6233543504
  0
LINE
  5
5DB
100
AcDbEntity
  8
RACCORDO
100
AcDbLine
 62
7
  6
CONTINUOUS
 10
-79.2534530489
 20
40.5549932044
 11
-79.224775542
 21
40.5563285625
  0
LINE
  5
5DC
100
AcDbEntity
  8
RACCORDO
100
AcDbLine
 62
7
  6
CONTINUOUS
 10
-79.3344260903
 20
40.5515571152
 11
-79.2952557775
 21
40.5532951497
  0
LINE
  5
5DD
100
AcDbEntity
  8
RACCORDO
100
AcDbLine
 62
7
  6
CONTINUOUS
 10
-79.2952557775
 20
40.5532951497
 11
-79.2534530489
 21
40.5549932044
  0
LINE
  5
5DE
100
AcDbEntity
  8
RACCORDO
100
AcDbLine
 62
250
  6
CONTINUOUS
 10
-77.9588829483
 20
42.4736505074
 11
-80.2103373811
 21
42.4605519287
  0
LINE
  5
5DF
100
AcDbEntity
  8
RACCORDO
100
AcDbLine
 62
7
  6
CONTINUOUS
 10
-77.9588829483
 20
42.7236462766
 11
-80.2103373811
 21
42.7105476979
  0
LINE
  5
5E0
100
AcDbEntity
  8
RACCORDO
100
AcDbLine
 62
250
  6
CONTINUOUS
 10
-80.4588829483
 20
42.0679838439
 11
-80.2103373811
 21
42.0679838439
  0
LINE
  5
5E1
100
AcDbEntity
  8
RACCORDO
100
AcDbLine
 62
250
  6
CONTINUOUS
 10
-80.4588829483
 20
42.4605519287
 11
-80.2103373811
 21
42.4605519287
  0
LINE
  5
5E2
100
AcDbEntity
  8
RACCORDO
100
AcDbLine
 62
250
  6
CONTINUOUS
 10
-76.9588829483
 20
42.4692786734
 11
-77.2074285154
 21
42.4692786734
  0
LINE
  5
5E3
100
AcDbEntity
  8
RACCORDO
100
AcDbLine
 62
7
  6
CONTINUOUS
 10
-76.958335031
 20
42.0178252591
 11
-69.9588135234
 21
41.9771032342
  0
LINE
  5
5E4
100
AcDbEntity
  8
RACCORDO
100
AcDbLine
 62
250
  6
CONTINUOUS
 10
-77.2074285154
 20
42.4692786734
 11
-77.9588829483
 21
42.4736505074
  0
LINE
  5
5E5
100
AcDbEntity
  8
RACCORDO
100
AcDbLine
 62
7
  6
CONTINUOUS
 10
-77.2074285154
 20
42.7192744426
 11
-77.9588829483
 21
42.7236462766
  0
LINE
  5
5E6
100
AcDbEntity
  8
RACCORDO
100
AcDbLine
 62
7
  6
CONTINUOUS
 10
-67.9501564128
 20
40.5363014434
 11
-77.9588829483
 21
40.6236462766
  0
LINE
  5
5E7
100
AcDbEntity
  8
0
100
AcDbLine
 62
7
  6
CONTINUOUS
 10
-69.9588067958
 20
40.5625575375
 11
-69.5588829483
 21
40.5590674549
  0
LINE
  5
5E8
100
AcDbEntity
  8
ASSI
100
AcDbLine
 62
7
  6
CONTINUOUS
 10
-69.9588067958
 20
40.5625575375
 11
-69.5588829483
 21
40.5590674549
  0
LWPOLYLINE
  5
5E9
100
AcDbEntity
  8
0
100
AcDbPolyline
 62
7
  6
CONTINUOUS
 90
8
 70
0
 43
0.3500000087
 10
-60.0660247223
 20
51.4145903931
 10
-59.2088828552
 20
51.4145903931
 10
-58.78030979
 20
51.8431634583
 10
-58.78030979
 20
52.7003095886
 10
-59.2088828552
 20
53.1288741272
 10
-60.0660247223
 20
53.1288741272
 10
-60.0660247223
 20
54.4145933228
 10
-58.78030979
 20
54.4145933228
  0
LWPOLYLINE
  5
5EA
100
AcDbEntity
  8
0
100
AcDbPolyline
 62
7
  6
CONTINUOUS
 90
7
 70
0
 43
0.3500000087
 10
-64.9945979187
 20
51.4145903931
 10
-66.4945951202
 20
51.4145903931
 10
-64.9945979187
 20
53.5574471924
 10
-64.9945979187
 20
53.9860202576
 10
-65.4231667206
 20
54.4145933228
 10
-66.0660263184
 20
54.4145933228
 10
-66.4945951202
 20
53.7717379883
  0
LWPOLYLINE
  5
5EB
100
AcDbEntity
  8
0
100
AcDbPolyline
 62
7
  6
CONTINUOUS
 90
8
 70
0
 43
0.3500000087
 10
-74.7088809387
 20
61.1324375366
 10
-73.851743335
 20
61.1324375366
 10
-73.4231702698
 20
61.5610020752
 10
-73.4231702698
 20
62.4181482056
 10
-73.851743335
 20
62.8467212708
 10
-74.7088809387
 20
62.8467212708
 10
-74.7088809387
 20
64.1324319397
 10
-73.4231702698
 20
64.1324319397
  0
ARC
  5
5EC
100
AcDbEntity
  8
RACCORDO
100
AcDbCircle
 62
7
  6
CONTINUOUS
 10
-85.5371579028
 20
-2.2771346432
 40
1.5
100
AcDbArc
 50
197.3820662698
 51
267.0
  0
ARC
  5
5ED
100
AcDbEntity
  8
RACCORDO
100
AcDbCircle
 62
7
  6
CONTINUOUS
 10
-77.2088829483
 20
-6.0219861202
 40
0.25
100
AcDbArc
 50
270.3333333333
 51
360.0
  0
ARC
  5
5EE
100
AcDbEntity
  8
RACCORDO
100
AcDbCircle
 62
7
  6
CONTINUOUS
 10
-77.2088829483
 20
-5.6206912907
 40
0.25
100
AcDbArc
 50
0.0
 51
60.0
  0
ARC
  5
5EF
100
AcDbEntity
  8
RACCORDO
100
AcDbCircle
 62
7
  6
CONTINUOUS
 10
-80.2088829483
 20
-6.0132593755
 40
0.25
100
AcDbArc
 50
180.0
 51
269.6666666667
  0
ARC
  5
5F0
100
AcDbEntity
  8
RACCORDO
100
AcDbCircle
 62
7
  6
CONTINUOUS
 10
-80.2088829483
 20
-5.6206912907
 40
0.25
100
AcDbArc
 50
120.0
 51
180.0
  0
ARC
  5
5F1
100
AcDbEntity
  8
RACCORDO
100
AcDbCircle
 62
7
  6
CONTINUOUS
 10
-86.3859214502
 20
30.1682804428
 40
10.0
100
AcDbArc
 50
93.0
 51
105.0
  0
ARC
  5
5F2
100
AcDbEntity
  8
RACCORDO
100
AcDbCircle
 62
7
  6
CONTINUOUS
 10
-95.9588829483
 20
36.4030606737
 40
1.5
100
AcDbArc
 50
105.0
 51
192.7765277139
  0
ARC
  5
5F3
100
AcDbEntity
  8
RACCORDO
100
AcDbCircle
 62
7
  6
CONTINUOUS
 10
-80.2088829483
 20
42.4605519287
 40
0.25
100
AcDbArc
 50
90.3333333333
 51
180.0
  0
ARC
  5
5F4
100
AcDbEntity
  8
RACCORDO
100
AcDbCircle
 62
7
  6
CONTINUOUS
 10
-77.2088829483
 20
42.4692786734
 40
0.25
100
AcDbArc
 50
0.0
 51
89.6666666667
  0
ARC
  5
5F5
100
AcDbEntity
  8
RACCORDO
100
AcDbCircle
 62
7
  6
CONTINUOUS
 10
-80.2088829483
 20
42.0679838439
 40
0.25
100
AcDbArc
 50
180.0
 51
240.0
  0
ARC
  5
5F6
100
AcDbEntity
  8
0
100
AcDbCircle
 62
7
  6
CONTINUOUS
 10
-48.4588829483
 20
0.0212679551
 40
1.0
100
AcDbArc
 50
271.0
 51
360.0
  0
ARC
  5
5F7
100
AcDbEntity
  8
ASSI
100
AcDbCircle
 62
7
  6
CONTINUOUS
 10
-48.4588829483
 20
0.0212679551
 40
1.0
100
AcDbArc
 50
271.0
 51
360.0
  0
ARC
  5
5F8
100
AcDbEntity
  8
RACCORDO
100
AcDbCircle
 62
7
  6
CONTINUOUS
 10
-67.9588829483
 20
-3.0890469671
 40
1.0
100
AcDbArc
 50
270.5
 51
360.0
  0
ARC
  5
5F9
100
AcDbEntity
  8
RACCORDO
100
AcDbCircle
 62
7
  6
CONTINUOUS
 10
-67.1588829483
 20
-1.7333718402
 40
0.2
100
AcDbArc
 50
0.0
 51
89.6666666667
  0
ARC
  5
5FA
100
AcDbEntity
  8
0
100
AcDbCircle
 62
7
  6
CONTINUOUS
 10
-48.4588829483
 20
36.4260245981
 40
1.0
100
AcDbArc
 50
0.0
 51
89.0
  0
ARC
  5
5FB
100
AcDbEntity
  8
ASSI
100
AcDbCircle
 62
7
  6
CONTINUOUS
 10
-48.4588829483
 20
36.4260245981
 40
1.0
100
AcDbArc
 50
0.0
 51
89.0
  0
ARC
  5
5FC
100
AcDbEntity
  8
RACCORDO
100
AcDbCircle
 62
7
  6
CONTINUOUS
 10
-67.9588829483
 20
39.5363395203
 40
1.0
100
AcDbArc
 50
0.0
 51
89.5
  0
ARC
  5
5FD
100
AcDbEntity
  8
ASSI
100
AcDbCircle
 62
7
  6
CONTINUOUS
 10
-67.4588829483
 20
38.8065705598
 40
0.5
100
AcDbArc
 50
270.5
 51
360.0
  0
ARC
  5
5FE
100
AcDbEntity
  8
RACCORDO
100
AcDbCircle
 62
7
  6
CONTINUOUS
 10
390.1982776502
 20
146.6458164396
 40
500.0
100
AcDbArc
 50
192.7765258109
 51
197.3820681062
  0
ELLIPSE
  5
5FF
100
AcDbEntity
  8
RACCORDO
100
AcDbEllipse
 62
7
  6
CONTINUOUS
 10
33.149923836
 20
40.1149003696
 30
0.0
 11
0.4473055582
 21
-0.2236357461
 31
0.0
 40
0.9998096356
 41
0.4635410001
 42
1.5707963891
  0
ELLIPSE
  5
600
100
AcDbEntity
  8
RACCORDO
100
AcDbEllipse
 62
7
  6
CONTINUOUS
 10
-33.149923836
 20
-3.6676078164
 30
0.0
 11
0.4473055582
 21
-0.2236357461
 31
0.0
 40
0.9998096356
 41
-2.6780516535
 42
-1.5707962645
  0
ELLIPSE
  5
601
100
AcDbEntity
  8
RACCORDO
100
AcDbEllipse
 62
7
  6
CONTINUOUS
 10
-33.149923836
 20
40.1149003696
 30
0.0
 11
0.4473055582
 21
0.2236357461
 31
0.0
 40
0.9998096356
 41
1.5707962645
 42
2.6780516535
  0
ELLIPSE
  5
602
100
AcDbEntity
  8
RACCORDO
100
AcDbEllipse
 62
7
  6
CONTINUOUS
 10
33.149923836
 20
-3.6676078164
 30
0.0
 11
0.4473055582
 21
0.2236357461
 31
0.0
 40
0.9998096356
 41
-1.5707963891
 42
-0.4635410001
  0
ELLIPSE
  5
603
100
AcDbEntity
  8
RACCORDO
100
AcDbEllipse
 62
7
  6
CONTINUOUS
 10
18.6029173766
 20
40.597442387
 30
0.0
 11
0.5
 21
0.0
 31
0.0
 40
0.0524077793
 41
-3.1357748894
 42
-1.5707963268
  0
ELLIPSE
  5
604
100
AcDbEntity
  8
RACCORDO
100
AcDbEllipse
 62
7
  6
CONTINUOUS
 10
26.3970826234
 20
40.597442387
 30
0.0
 11
0.5
 21
0.0
 31
0.0
 40
0.0524077793
 41
-1.5707963268
 42
-0.0058177642
  0
ELLIPSE
  5
605
100
AcDbEntity
  8
RACCORDO
100
AcDbEllipse
 62
7
  6
CONTINUOUS
 10
26.3970826234
 20
42.0207373617
 30
0.0
 11
0.5
 21
0.0
 31
0.0
 40
0.0058178298
 41
-0.6464131586
 42
-0.0058177642
  0
ELLIPSE
  5
606
100
AcDbEntity
  8
RACCORDO
100
AcDbEllipse
 62
7
  6
CONTINUOUS
 10
-32.8927234819
 20
40.5581365525
 30
0.0
 11
0.25
 21
-0.0
 31
0.0
 40
0.0524077793
 41
-2.6154833905
 42
-1.5707963268
  0
ELLIPSE
  5
607
100
AcDbEntity
  8
RACCORDO
100
AcDbEllipse
 62
7
  6
CONTINUOUS
 10
-31.0072765181
 20
40.5581365525
 30
0.0
 11
0.25
 21
0.0
 31
0.0
 40
0.0524077793
 41
-1.5707963268
 42
-0.0058177642
  0
ELLIPSE
  5
608
100
AcDbEntity
  8
RACCORDO
100
AcDbEllipse
 62
7
  6
CONTINUOUS
 10
-13.9927234819
 20
40.5581365525
 30
0.0
 11
0.25
 21
0.0
 31
0.0
 40
0.0524077793
 41
-3.1357748894
 42
-1.5707963268
  0
ELLIPSE
  5
609
100
AcDbEntity
  8
RACCORDO
100
AcDbEllipse
 62
7
  6
CONTINUOUS
 10
27.3278228021
 20
38.4327650872
 30
0.0
 11
1.3224997768
 21
-0.0497860763
 31
0.0
 40
0.3141793358
 41
4.8316419158
 42
6.2950121727
  0
ELLIPSE
  5
60A
100
AcDbEntity
  8
RACCORDO
100
AcDbEllipse
 62
7
  6
CONTINUOUS
 10
27.3214904254
 20
39.6787762876
 30
0.0
 11
1.3285790695
 21
0.0790795292
 31
0.0
 40
0.3832199471
 41
-0.0228060185
 42
0.1388035562
  0
ELLIPSE
  5
60B
100
AcDbEntity
  8
RACCORDO
100
AcDbEllipse
 62
7
  6
CONTINUOUS
 10
-12.1072765181
 20
40.5581365525
 30
0.0
 11
0.25
 21
0.0
 31
0.0
 40
0.0524077793
 41
-1.5707963268
 42
-0.0058177642
  0
ELLIPSE
  5
60C
100
AcDbEntity
  8
RACCORDO
100
AcDbEllipse
 62
7
  6
CONTINUOUS
 10
-27.3214904254
 20
39.6787762876
 30
0.0
 11
1.3285790695
 21
-0.0790795292
 31
0.0
 40
0.3832199471
 41
3.0027890974
 42
3.1643986721
  0
ELLIPSE
  5
60D
100
AcDbEntity
  8
RACCORDO
100
AcDbEllipse
 62
7
  6
CONTINUOUS
 10
-32.8927234819
 20
-4.1108439993
 30
0.0
 11
0.25
 21
0.0
 31
0.0
 40
0.0524077793
 41
1.5707963268
 42
2.6154833905
  0
ELLIPSE
  5
60E
100
AcDbEntity
  8
RACCORDO
100
AcDbEllipse
 62
7
  6
CONTINUOUS
 10
-31.0072765181
 20
-4.1108439993
 30
0.0
 11
0.25
 21
0.0
 31
0.0
 40
0.0524077793
 41
0.0058177642
 42
1.5707963268
  0
ELLIPSE
  5
60F
100
AcDbEntity
  8
RACCORDO
100
AcDbEllipse
 62
7
  6
CONTINUOUS
 10
-27.3278228021
 20
38.4327650872
 30
0.0
 11
1.3224997768
 21
0.0497860763
 31
0.0
 40
0.3141793358
 41
3.129765788
 42
4.593136045
  0
ELLIPSE
  5
610
100
AcDbEntity
  8
RACCORDO
100
AcDbEllipse
 62
7
  6
CONTINUOUS
 10
-13.9927234819
 20
-4.1108439993
 30
0.0
 11
0.25
 21
0.0
 31
0.0
 40
0.0524077793
 41
1.5707963268
 42
3.1357748894
  0
ELLIPSE
  5
611
100
AcDbEntity
  8
RACCORDO
100
AcDbEllipse
 62
7
  6
CONTINUOUS
 10
-12.1072765181
 20
-4.1108439993
 30
0.0
 11
0.25
 21
0.0
 31
0.0
 40
0.0524077793
 41
0.0058177642
 42
1.5707963268
  0
ELLIPSE
  5
612
100
AcDbEntity
  8
RACCORDO
100
AcDbEllipse
 62
7
  6
CONTINUOUS
 10
-26.3970826234
 20
-4.1501498338
 30
0.0
 11
0.5
 21
0.0
 31
0.0
 40
0.0524077793
 41
1.5707963268
 42
3.1357748894
  0
ELLIPSE
  5
613
100
AcDbEntity
  8
RACCORDO
100
AcDbEllipse
 62
7
  6
CONTINUOUS
 10
-26.3970826234
 20
-5.5734448085
 30
0.0
 11
0.5
 21
0.0
 31
0.0
 40
0.0058178298
 41
2.495179495
 42
3.1357748894
  0
ELLIPSE
  5
614
100
AcDbEntity
  8
RACCORDO
100
AcDbEllipse
 62
7
  6
CONTINUOUS
 10
12.1072765181
 20
40.5581365525
 30
0.0
 11
0.25
 21
0.0
 31
0.0
 40
0.0524077793
 41
-3.1357748894
 42
-1.5707963268
  0
ELLIPSE
  5
615
100
AcDbEntity
  8
RACCORDO
100
AcDbEllipse
 62
7
  6
CONTINUOUS
 10
-18.6029173766
 20
-5.5734448085
 30
0.0
 11
0.5
 21
-0.0
 31
0.0
 40
0.0058178298
 41
0.0058177642
 42
0.6464131586
  0
ELLIPSE
  5
616
100
AcDbEntity
  8
RACCORDO
100
AcDbEllipse
 62
7
  6
CONTINUOUS
 10
-18.6029173766
 20
-4.1501498338
 30
0.0
 11
0.5
 21
0.0
 31
0.0
 40
0.0524077793
 41
0.0058177642
 42
1.5707963268
  0
ELLIPSE
  5
617
100
AcDbEntity
  8
RACCORDO
100
AcDbEllipse
 62
7
  6
CONTINUOUS
 10
-26.3970826234
 20
42.0207373617
 30
0.0
 11
0.5
 21
0.0
 31
0.0
 40
0.0058178298
 41
-3.1357748894
 42
-2.495179495
  0
ELLIPSE
  5
618
100
AcDbEntity
  8
RACCORDO
100
AcDbEllipse
 62
7
  6
CONTINUOUS
 10
-26.3970826234
 20
40.597442387
 30
0.0
 11
0.5
 21
0.0
 31
0.0
 40
0.0524077793
 41
-3.1357748894
 42
-1.5707963268
  0
ELLIPSE
  5
619
100
AcDbEntity
  8
RACCORDO
100
AcDbEllipse
 62
7
  6
CONTINUOUS
 10
-18.6029173766
 20
40.597442387
 30
0.0
 11
0.5
 21
-0.0
 31
0.0
 40
0.0524077793
 41
-1.5707963268
 42
-0.0058177642
  0
ELLIPSE
  5
61A
100
AcDbEntity
  8
RACCORDO
100
AcDbEllipse
 62
7
  6
CONTINUOUS
 10
13.9927234819
 20
40.5581365525
 30
0.0
 11
0.25
 21
0.0
 31
0.0
 40
0.0524077793
 41
-1.5707963268
 42
-0.0058177642
  0
ELLIPSE
  5
61B
100
AcDbEntity
  8
RACCORDO
100
AcDbEllipse
 62
7
  6
CONTINUOUS
 10
-18.6029173766
 20
42.0207373617
 30
0.0
 11
0.5
 21
-0.0
 31
0.0
 40
0.0058178298
 41
-0.6464131586
 42
-0.0058177642
  0
ELLIPSE
  5
61C
100
AcDbEntity
  8
RACCORDO
100
AcDbEllipse
 62
7
  6
CONTINUOUS
 10
18.6029173766
 20
-4.1501498338
 30
0.0
 11
0.5
 21
0.0
 31
0.0
 40
0.0524077793
 41
1.5707963268
 42
3.1357748894
  0
ELLIPSE
  5
61D
100
AcDbEntity
  8
RACCORDO
100
AcDbEllipse
 62
7
  6
CONTINUOUS
 10
32.8927234819
 20
-4.1108439993
 30
0.0
 11
0.25
 21
-0.0
 31
0.0
 40
0.0524077793
 41
0.5261092631
 42
1.5707963268
  0
ELLIPSE
  5
61E
100
AcDbEntity
  8
RACCORDO
100
AcDbEllipse
 62
7
  6
CONTINUOUS
 10
18.6029173766
 20
-5.5734448085
 30
0.0
 11
0.5
 21
0.0
 31
0.0
 40
0.0058178298
 41
2.495179495
 42
3.1357748894
  0
ELLIPSE
  5
61F
100
AcDbEntity
  8
RACCORDO
100
AcDbEllipse
 62
7
  6
CONTINUOUS
 10
31.0072765181
 20
-4.1108439993
 30
0.0
 11
0.25
 21
0.0
 31
0.0
 40
0.0524077793
 41
1.5707963268
 42
3.1357748894
  0
ELLIPSE
  5
620
100
AcDbEntity
  8
RACCORDO
100
AcDbEllipse
 62
7
  6
CONTINUOUS
 10
13.9927234819
 20
-4.1108439993
 30
0.0
 11
0.25
 21
0.0
 31
0.0
 40
0.0524077793
 41
0.0058177642
 42
1.5707963268
  0
ELLIPSE
  5
621
100
AcDbEntity
  8
RACCORDO
100
AcDbEllipse
 62
7
  6
CONTINUOUS
 10
26.3970826234
 20
-5.5734448085
 30
0.0
 11
0.5
 21
-0.0
 31
0.0
 40
0.0058178298
 41
0.0058177642
 42
0.6464131586
  0
ELLIPSE
  5
622
100
AcDbEntity
  8
RACCORDO
100
AcDbEllipse
 62
7
  6
CONTINUOUS
 10
26.3970826234
 20
-4.1501498338
 30
0.0
 11
0.5
 21
0.0
 31
0.0
 40
0.0524077793
 41
0.0058177642
 42
1.5707963268
  0
ELLIPSE
  5
623
100
AcDbEntity
  8
RACCORDO
100
AcDbEllipse
 62
7
  6
CONTINUOUS
 10
18.6029173766
 20
42.0207373617
 30
0.0
 11
0.5
 21
-0.0
 31
0.0
 40
0.0058178298
 41
-3.1357748894
 42
-2.495179495
  0
ELLIPSE
  5
624
100
AcDbEntity
  8
RACCORDO
100
AcDbEllipse
 62
7
  6
CONTINUOUS
 10
12.1072765181
 20
-4.1108439993
 30
0.0
 11
0.25
 21
0.0
 31
0.0
 40
0.0524077793
 41
1.5707963268
 42
3.1357748894
  0
ELLIPSE
  5
625
100
AcDbEntity
  8
RACCORDO
100
AcDbEllipse
 62
7
  6
CONTINUOUS
 10
32.8927234819
 20
40.5581365525
 30
0.0
 11
0.25
 21
0.0
 31
0.0
 40
0.0524077793
 41
-1.5707963268
 42
-0.5261092631
  0
ELLIPSE
  5
626
100
AcDbEntity
  8
RACCORDO
100
AcDbEllipse
 62
7
  6
CONTINUOUS
 10
31.0072765181
 20
40.5581365525
 30
0.0
 11
0.25
 21
0.0
 31
0.0
 40
0.0524077793
 41
-3.1357748894
 42
-1.5707963268
  0
ELLIPSE
  5
627
100
AcDbEntity
  8
RACCORDO
100
AcDbEllipse
 62
7
  6
CONTINUOUS
 10
-67.4588829483
 20
-3.8422530042
 30
0.0
 11
0.0
 21
0.5
 31
0.0
 40
1.0
 41
-0.9102282757
 42
-0.0174532925
  0
ELLIPSE
  5
628
100
AcDbEntity
  8
RACCORDO
100
AcDbEllipse
 62
7
  6
CONTINUOUS
 10
-67.4588829483
 20
40.2895455574
 30
0.0
 11
0.5
 21
0.0
 31
0.0
 40
1.0
 41
-1.5533430343
 42
-0.6605680511
  0
ENDSEC
  0
SECTION
  2
OBJECTS
  0
DICTIONARY
  5
C
100
AcDbDictionary
280
0
281
1
  3
ACAD_GROUP
350
D
  3
ACAD_MLINESTYLE
350
17
  3
ACAD_LAYOUT
350
1A
  3
ACAD_PLOTSETTINGS
350
19
  3
ACAD_PLOTSTYLENAME
350
E
  0
DICTIONARY
  5
D
102
{ACAD_REACTORS
330
C
102
}
100
AcDbDictionary
280
0
281
1
  0
ACDBDICTIONARYWDFLT
  5
E
102
{ACAD_REACTORS
330
C
102
}
100
AcDbDictionary
281
1
  3
Normal
350
F
100
AcDbDictionaryWithDefault
340
F
  0
DICTIONARY
  5
17
102
{ACAD_REACTORS
330
C
102
}
100
AcDbDictionary
280
0
281
1
  3
Standard
350
18
  0
DICTIONARY
  5
19
102
{ACAD_REACTORS
330
C
102
}
100
AcDbDictionary
281
1
  0
DICTIONARY
  5
1A
102
{ACAD_REACTORS
330
C
102
}
100
AcDbDictionary
281
1
  3
Model
350
629
  3
Layout1
350
62A
  0
ACDBPLACEHOLDER
  5
F
102
{ACAD_REACTORS
330
E
102
}
  0
MLINESTYLE
  5
18
102
{ACAD_REACTORS
330
17
102
}
100
AcDbMlineStyle
  2
STANDARD
 70
0
  3

 62
256
 51
90.0
 52
90.0
 71
2
 49
0.5
 62
256
  6
BYLAYER
 49
-0.5
 62
256
  6
BYLAYER
  0
LAYOUT
  5
629
102
{ACAD_REACTORS
330
1A
102
}
100
AcDbPlotSettings
  1

  2
none_device
  4
ANSI_C_(22.00_x_17.00_Inches)
  6

 40
0.0
 41
0.0
 42
0.0
 43
0.0
 44
558.8
 45
431.8
 46
0.0
 47
0.0
 48
0.0
 49
0.0
140
0.0
141
0.0
142
1.0
143
1.0
 70
1024
 72
1
 73
0
 74
0
  7

 75
0
147
1.0
148
0.0
149
0.0
100
AcDbLayout
  1
Model
 70
0
 71
0
 10
0.0
 20
0.0
 11
558.8
 21
431.8
 12
0.0
 22
0.0
 32
0.0
 14
0.0
 24
0.0
 34
0.0
 15
0.0
 25
0.0
 35
0.0
146
0.0
 13
0.0
 23
0.0
 33
0.0
 16
1.0
 26
0.0
 36
0.0
 17
0.0
 27
1.0
 37
0.0
 76
0
330
2D7
345
0
346
0
  0
LAYOUT
  5
62A
102
{ACAD_REACTORS
330
1A
102
}
100
AcDbPlotSettings
  1

  2
none_device
  4
ANSI_C_(22.00_x_17.00_Inches)
  6

 40
0.0
 41
0.0
 42
0.0
 43
0.0
 44
558.8
 45
431.8
 46
0.0
 47
0.0
 48
0.0
 49
0.0
140
0.0
141
0.0
142
1.0
143
1.0
 70
0
 72
1
 73
0
 74
0
  7

 75
0
147
1.0
148
0.0
149
0.0
100
AcDbLayout
  1
Layout1
 70
0
 71
1
 10
0.0
 20
0.0
 11
558.8
 21
431.8
 12
0.0
 22
0.0
 32
0.0
 14
0.0
 24
0.0
 34
0.0
 15
0.0
 25
0.0
 35
0.0
146
0.0
 13
0.0
 23
0.0
 33
0.0
 16
1.0
 26
0.0
 36
0.0
 17
0.0
 27
1.0
 37
0.0
 76
0
330
2D8
345
0
346
0
  0
ENDSEC
  0
EOF
