  0
SECTION
  2
HEADER
  9
$ACADVER
  1
AC1015
  9
$DWGCODEPAGE
  3
ANSI_1252
  9
$EXTMAX
 10
297.0
 20
210.0
 30
0.0
  9
$EXTMIN
 10
0.0
 20
0.0
 30
0.0
  9
$LIMMIN
 10
0.0
 20
0.0
  9
$LIMMAX
 10
297.0
 20
210.0
  9
$VIEWCTR
 10
148.5
 20
105.0
  9
$VIEWSIZE
 40
210.0
  9
$CLAYER
  8
0
  9
$LTSCALE
 40
16.335
  9
$CELTYPE
  6
BYLAYER
  9
$DIMSCALE
 40
1.0
  9
$DIMASZ
 40
3.0
  9
$DIMEXO
 40
0.5
  9
$DIMDLI
 40
11.286
  9
$DIMEXE
 40
1.5
  9
$DIMCEN
 40
2.673
  9
$DIMLFAC
 40
1.0
  9
$DIMBLK
  1
_FILLED
  9
$DIMTXT
 40
3.0
  9
$DIMTOL
 70
1
  9
$DIMLIM
 70
0
  9
$DIMTFAC
 40
1.0
  9
$DIMTP
 40
0.01
  9
$DIMTM
 40
0.01
  9
$DIMGAP
 40
0.625
  9
$DIMDSEP
 70
44
  9
$PDMODE
 70
3
  9
$PDSIZE
 40
3.0
  9
$HANDSEED
  5
7E8
  9
$TILEMODE
 70
1
  9
$MEASUREMENT
 70
1
  9
$INSUNITS
 70
4
  0
ENDSEC
  0
SECTION
  2
CLASSES
  0
CLASS
  1
ACDBDICTIONARYWDFLT
  2
AcDbDictionaryWithDefault
  3
AutoCAD 2000
 90
0
280
0
281
0
  0
CLASS
  1
ACDBPLACEHOLDER
  2
AcDbPlaceHolder
  3
AutoCAD 2000
 90
0
280
0
281
0
  0
CLASS
  1
LAYOUT
  2
AcDbLayout
  3
AutoCAD 2000
 90
0
280
0
281
0
  0
ENDSEC
  0
SECTION
  2
TABLES
  0
TABLE
  2
VPORT
  5
8
100
AcDbSymbolTable
 70
2
  0
VPORT
  5
1F4
100
AcDbSymbolTableRecord
100
AcDbViewportTableRecord
  2
*ACTIVE
 70
0
 10
0.0
 20
0.0
 11
1.0
 21
1.0
 12
148.5
 22
105.0
 13
0.0
 23
0.0
 14
1.0
 24
1.0
 15
0.0
 25
0.0
 16
0.0
 26
0.0
 36
1.0
 17
0.0
 27
0.0
 37
0.0
 40
210.0
 41
1.4142857143
 42
50.0
 43
0.0
 44
0.0
 50
0.0
 51
0.0
 71
0
 72
100
 73
1
 74
1
 75
0
 76
0
 77
0
 78
0
  0
ENDTAB
  0
TABLE
  2
LTYPE
  5
5
100
AcDbSymbolTable
 70
6
  0
LTYPE
  5
14
100
AcDbSymbolTableRecord
100
AcDbLinetypeTableRecord
  2
BYBLOCK
 70
0
  3

 72
65
 73
0
 40
0.0
  0
LTYPE
  5
15
100
AcDbSymbolTableRecord
100
AcDbLinetypeTableRecord
  2
BYLAYER
 70
0
  3

 72
65
 73
0
 40
0.0
  0
LTYPE
  5
16
100
AcDbSymbolTableRecord
100
AcDbLinetypeTableRecord
  2
CONTINUOUS
 70
64
  3
Solid line
 72
65
 73
0
 40
0.0
  0
LTYPE
  5
1F5
100
AcDbSymbolTableRecord
100
AcDbLinetypeTableRecord
  2
CENTER
 70
64
  3
____ _ ____ _ ____ _ ____ _ ____ _ ____ _ ____
 72
65
 73
4
 40
0.6
 49
0.375
 74
0
 49
-0.075
 74
0
 49
0.075
 74
0
 49
-0.075
 74
0
  0
LTYPE
  5
1F6
100
AcDbSymbolTableRecord
100
AcDbLinetypeTableRecord
  2
HIDDEN
 70
64
  3
- - - - - - - - - - - - - - - - - - - -
 72
65
 73
2
 40
0.2
 49
0.1
 74
0
 49
-0.1
 74
0
  0
LTYPE
  5
1F7
100
AcDbSymbolTableRecord
100
AcDbLinetypeTableRecord
  2
PHANTOM
 70
64
  3
_____ _ _ _____ _ _ _____ _ _ _____
 72
65
 73
6
 40
0.8
 49
0.45
 74
0
 49
-0.05
 74
0
 49
0.1
 74
0
 49
-0.05
 74
0
 49
0.1
 74
0
 49
-0.05
 74
0
  0
LTYPE
  5
1F8
100
AcDbSymbolTableRecord
100
AcDbLinetypeTableRecord
  2
DOT
 70
64
  3
. . . . . . . . . . . . . . . . . . . .
 72
65
 73
2
 40
0.2
 49
0.1
 74
0
 49
-0.1
 74
0
  0
LTYPE
  5
1F9
100
AcDbSymbolTableRecord
100
AcDbLinetypeTableRecord
  2
DASHED
 70
64
  3
- - - - - - - - - - - - - - - - - - - -
 72
65
 73
2
 40
0.2
 49
0.1
 74
0
 49
-0.1
 74
0
  0
ENDTAB
  0
TABLE
  2
LAYER
  5
2
100
AcDbSymbolTable
 70
36
  0
LAYER
  5
10
100
AcDbSymbolTableRecord
100
AcDbLayerTableRecord
  2
0
 70
0
 62
7
  6
CONTINUOUS
370
-3
390
F
  0
LAYER
  5
1FA
100
AcDbSymbolTableRecord
100
AcDbLayerTableRecord
  2
DEFAULT_1
 70
0
 62
7
  6
CENTER
370
-3
390
F
  0
LAYER
  5
1FB
100
AcDbSymbolTableRecord
100
AcDbLayerTableRecord
  2
DEFAULT_2
 70
0
 62
7
  6
HIDDEN
370
-3
390
F
  0
LAYER
  5
1FC
100
AcDbSymbolTableRecord
100
AcDbLayerTableRecord
  2
DEFAULT_3
 70
0
 62
7
  6
PHANTOM
370
-3
390
F
  0
LAYER
  5
1FD
100
AcDbSymbolTableRecord
100
AcDbLayerTableRecord
  2
ASSI
 70
0
 62
7
  6
CONTINUOUS
370
-3
390
F
  0
LAYER
  5
1FE
100
AcDbSymbolTableRecord
100
AcDbLayerTableRecord
  2
COLOR15
 70
0
 62
7
  6
CONTINUOUS
370
-3
390
F
  0
LAYER
  5
1FF
100
AcDbSymbolTableRecord
100
AcDbLayerTableRecord
  2
COLORE_MATERIALE
 70
0
 62
7
  6
CONTINUOUS
370
-3
390
F
  0
LAYER
  5
200
100
AcDbSymbolTableRecord
100
AcDbLayerTableRecord
  2
COORDINATE
 70
0
 62
7
  6
CONTINUOUS
370
-3
390
F
  0
LAYER
  5
201
100
AcDbSymbolTableRecord
100
AcDbLayerTableRecord
  2
COORD_ORIGINE
 70
0
 62
7
  6
CONTINUOUS
370
-3
390
F
  0
LAYER
  5
202
100
AcDbSymbolTableRecord
100
AcDbLayerTableRecord
  2
CURVE
 70
0
 62
7
  6
CONTINUOUS
370
-3
390
F
  0
LAYER
  5
203
100
AcDbSymbolTableRecord
100
AcDbLayerTableRecord
  2
DRAFT
 70
0
 62
7
  6
CONTINUOUS
370
-3
390
F
  0
LAYER
  5
204
100
AcDbSymbolTableRecord
100
AcDbLayerTableRecord
  2
IMPORT
 70
0
 62
7
  6
CONTINUOUS
370
-3
390
F
  0
LAYER
  5
205
100
AcDbSymbolTableRecord
100
AcDbLayerTableRecord
  2
INTF_1
 70
0
 62
7
  6
CONTINUOUS
370
-3
390
F
  0
LAYER
  5
206
100
AcDbSymbolTableRecord
100
AcDbLayerTableRecord
  2
INTF_CYAN
 70
0
 62
7
  6
CONTINUOUS
370
-3
390
F
  0
LAYER
  5
207
100
AcDbSymbolTableRecord
100
AcDbLayerTableRecord
  2
INTF_GREEN
 70
0
 62
7
  6
CONTINUOUS
370
-3
390
F
  0
LAYER
  5
208
100
AcDbSymbolTableRecord
100
AcDbLayerTableRecord
  2
INTF_YELLOW
 70
0
 62
7
  6
CONTINUOUS
370
-3
390
F
  0
LAYER
  5
209
100
AcDbSymbolTableRecord
100
AcDbLayerTableRecord
  2
NOTE
 70
0
 62
7
  6
CONTINUOUS
370
-3
390
F
  0
LAYER
  5
20A
100
AcDbSymbolTableRecord
100
AcDbLayerTableRecord
  2
PIANI
 70
0
 62
7
  6
CONTINUOUS
370
-3
390
F
  0
LAYER
  5
20B
100
AcDbSymbolTableRecord
100
AcDbLayerTableRecord
  2
PIANI_ORIGINE
 70
0
 62
7
  6
CONTINUOUS
370
-3
390
F
  0
LAYER
  5
20C
100
AcDbSymbolTableRecord
100
AcDbLayerTableRecord
  2
PIANI_RIFERIMENTO
 70
0
 62
7
  6
CONTINUOUS
370
-3
390
F
  0
LAYER
  5
20D
100
AcDbSymbolTableRecord
100
AcDbLayerTableRecord
  2
PUNTI
 70
0
 62
7
  6
CONTINUOUS
370
-3
390
F
  0
LAYER
  5
20E
100
AcDbSymbolTableRecord
100
AcDbLayerTableRecord
  2
RACCORDO
 70
0
 62
7
  6
CONTINUOUS
370
-3
390
F
  0
LAYER
  5
20F
100
AcDbSymbolTableRecord
100
AcDbLayerTableRecord
  2
RGB____0____0____0__
 70
0
 62
7
  6
CONTINUOUS
370
-3
390
F
  0
LAYER
  5
210
100
AcDbSymbolTableRecord
100
AcDbLayerTableRecord
  2
SMUSSO
 70
0
 62
7
  6
CONTINUOUS
370
-3
390
F
  0
LAYER
  5
211
100
AcDbSymbolTableRecord
100
AcDbLayerTableRecord
  2
SNAPLINE
 70
0
 62
7
  6
CONTINUOUS
370
-3
390
F
  0
LAYER
  5
212
100
AcDbSymbolTableRecord
100
AcDbLayerTableRecord
  2
SUPERFICI
 70
0
 62
7
  6
CONTINUOUS
370
-3
390
F
  0
LAYER
  5
213
100
AcDbSymbolTableRecord
100
AcDbLayerTableRecord
  2
TRASH
 70
0
 62
7
  6
CONTINUOUS
370
-3
390
F
  0
LAYER
  5
214
100
AcDbSymbolTableRecord
100
AcDbLayerTableRecord
  2
XSEC_DATUMS
 70
0
 62
7
  6
CONTINUOUS
370
-3
390
F
  0
ENDTAB
  0
TABLE
  2
STYLE
  5
3
100
AcDbSymbolTable
 70
1
  0
STYLE
  5
11
100
AcDbSymbolTableRecord
100
AcDbTextStyleTableRecord
  2
STANDARD
 70
0
 40
0.0
 41
0.8
 50
0.0
 71
0
 42
0.2
  3
txt
  4

  0
STYLE
  5
215
100
AcDbSymbolTableRecord
100
AcDbTextStyleTableRecord
  2
TEXTSTYLE_1
 70
0
 40
0.0
 41
0.8
 50
0.0
 71
0
 42
0.2
  3
gdt
  4

  0
ENDTAB
  0
TABLE
  2
VIEW
  5
6
100
AcDbSymbolTable
 70
0
  0
ENDTAB
  0
TABLE
  2
UCS
  5
7
100
AcDbSymbolTable
 70
0
  0
ENDTAB
  0
TABLE
  2
APPID
  5
9
100
AcDbSymbolTable
 70
1
  0
APPID
  5
216
100
AcDbSymbolTableRecord
100
AcDbRegAppTableRecord
  2
ACAD
 70
0
  0
ENDTAB
  0
TABLE
  2
BLOCK_RECORD
  5
1
100
AcDbSymbolTable
 70
0
  0
BLOCK_RECORD
  5
217
100
AcDbSymbolTableRecord
100
AcDbBlockTableRecord
  2
*Model_Space
  0
BLOCK_RECORD
  5
218
100
AcDbSymbolTableRecord
100
AcDbBlockTableRecord
  2
*Paper_Space
  0
BLOCK_RECORD
  5
219
100
AcDbSymbolTableRecord
100
AcDbBlockTableRecord
  2
_FILLED
  0
BLOCK_RECORD
  5
21A
100
AcDbSymbolTableRecord
100
AcDbBlockTableRecord
  2
*D0
  0
BLOCK_RECORD
  5
21B
100
AcDbSymbolTableRecord
100
AcDbBlockTableRecord
  2
*D1
  0
BLOCK_RECORD
  5
21C
100
AcDbSymbolTableRecord
100
AcDbBlockTableRecord
  2
*D2
  0
BLOCK_RECORD
  5
21D
100
AcDbSymbolTableRecord
100
AcDbBlockTableRecord
  2
*D3
  0
ENDTAB
  0
TABLE
  2
DIMSTYLE
  5
A
100
AcDbSymbolTable
 70
1
100
AcDbDimStyleTable
 71
0
  0
DIMSTYLE
105
21E
100
AcDbSymbolTableRecord
100
AcDbDimStyleTableRecord
  2
STANDARD
 70
0
  3

  4

 40
1.0
 41
3.0
 42
0.5
 43
0.38
 44
1.5
 45
0.0
 46
0.0
 47
0.01
 48
0.01
140
3.0
141
0.09
142
0.0
143
25.4
144
1.0
145
0.0
146
1.0
147
0.625
 71
1.0
 72
0.0
 73
0
 74
0
 75
0
 76
0
 77
1
 78
8
170
0
171
2
172
0
173
0
174
0
175
0
176
0
177
0
178
0
270
2
271
2
272
2
273
2
274
2
275
0
280
0
281
0
282
0
283
1
284
8
285
0
286
0
287
3
288
0
340
11
278
44
341
219
342
219
343
219
344
219
  0
DIMSTYLE
105
21F
100
AcDbSymbolTableRecord
100
AcDbDimStyleTableRecord
  2
DIMSTYLE_1
 70
0
  3

  4

 40
1.0
 41
3.0
 42
0.5
 43
0.38
 44
1.5
 45
0.0
 46
0.0
 47
0.0
 48
0.0
140
3.0
141
0.09
142
0.0
143
25.4
144
1.0
145
0.0
146
1.0
147
0.75
 71
0.0
 72
0.0
 73
0
 74
0
 75
0
 76
0
 77
1
 78
8
170
0
171
2
172
0
173
0
174
0
175
0
176
0
177
0
178
0
270
2
271
2
272
2
273
2
274
2
275
0
280
0
281
0
282
0
283
1
284
8
285
0
286
0
287
3
288
0
340
11
278
44
341
219
342
219
343
219
344
219
  0
ENDTAB
  0
ENDSEC
  0
SECTION
  2
BLOCKS
  0
BLOCK
  5
20
100
AcDbEntity
  8
0
100
AcDbBlockBegin
  2
*Model_Space
 70
0
 10
0.0
 20
0.0
 30
0.0
  3
*Model_Space
  1

  0
ENDBLK
  5
21
100
AcDbEntity
  8
0
100
AcDbBlockEnd
  0
BLOCK
  5
1C
100
AcDbEntity
  8
0
100
AcDbBlockBegin
  2
*Paper_Space
 70
0
 10
0.0
 20
0.0
 30
0.0
  3
*Paper_Space
  1

  0
ENDBLK
  5
1D
100
AcDbEntity
  8
0
100
AcDbBlockEnd
  0
BLOCK
  5
220
100
AcDbEntity
  8
0
100
AcDbBlockBegin
  2
_FILLED
 70
64
 10
0.0
 20
0.0
  3
_FILLED
  1

  0
SOLID
  5
221
100
AcDbEntity
  8
0
  6
BYBLOCK
 62
0
100
AcDbTrace
 10
0.0
 20
0.0
 11
-1.0
 21
0.3166666667
 12
-1.0
 22
-0.3166666667
 13
-1.0
 23
-0.3166666667
  0
ENDBLK
  5
222
100
AcDbEntity
  8
0
  6
BYBLOCK
 62
0
100
AcDbBlockEnd
  0
BLOCK
  5
223
100
AcDbEntity
  8
0
100
AcDbBlockBegin
 62
7
  6
CONTINUOUS
  2
*D0
 70
65
 10
0.0
 20
0.0
  3
*D0
  1

  0
MTEXT
  5
224
100
AcDbEntity
  8
0
100
AcDbMText
 62
7
  6
CONTINUOUS
  7
STANDARD
 71
2
 72
1
 10
-57.1188758013
 20
36.8624947461
 30
0.0
 11
1.0
 21
0.0
 31
0.0
 44
0.9
  1
36
 40
3.0
 41
6.75
  0
LINE
  5
225
100
AcDbEntity
  8
0
100
AcDbLine
 62
7
  6
CONTINUOUS
 10
-39.1188758013
 20
17.9753111058
 11
-39.1188758013
 21
34.6124947461
  0
LINE
  5
226
100
AcDbEntity
  8
0
100
AcDbLine
 62
7
  6
CONTINUOUS
 10
-75.1188758013
 20
24.8024249988
 11
-75.1188758013
 21
34.6124947461
  0
LINE
  5
227
100
AcDbEntity
  8
0
100
AcDbLine
 62
7
  6
CONTINUOUS
 10
-39.1188758013
 20
33.1124947461
 11
-57.1188758013
 21
33.1124947461
  0
LINE
  5
228
100
AcDbEntity
  8
0
100
AcDbLine
 62
7
  6
CONTINUOUS
 10
-75.1188758013
 20
33.1124947461
 11
-57.1188758013
 21
33.1124947461
  0
INSERT
  5
229
100
AcDbEntity
  8
0
100
AcDbBlockReference
 62
7
  6
CONTINUOUS
  2
_FILLED
 10
-39.1188758013
 20
33.1124947461
 41
3.0
 42
3.0
 43
3.0
  0
INSERT
  5
22A
100
AcDbEntity
  8
0
100
AcDbBlockReference
 62
7
  6
CONTINUOUS
  2
_FILLED
 10
-75.1188758013
 20
33.1124947461
 41
3.0
 42
3.0
 43
3.0
 50
180.0
  0
ENDBLK
  5
22B
100
AcDbEntity
  8
0
  6
BYBLOCK
 62
0
100
AcDbBlockEnd
  0
BLOCK
  5
22C
100
AcDbEntity
  8
0
100
AcDbBlockBegin
 62
7
  6
CONTINUOUS
  2
*D1
 70
65
 10
0.0
 20
0.0
  3
*D1
  1

  0
MTEXT
  5
22D
100
AcDbEntity
  8
0
100
AcDbMText
 62
7
  6
CONTINUOUS
  7
STANDARD
 71
2
 72
1
 10
-62.3688758013
 20
46.806792602
 30
0.0
 11
1.0
 21
0.0
 31
0.0
 44
0.9
  1
46,5
 40
3.0
 41
12.8571428571
  0
LINE
  5
22E
100
AcDbEntity
  8
0
100
AcDbLine
 62
7
  6
CONTINUOUS
 10
-39.1188758013
 20
17.9753111058
 11
-39.1188758013
 21
44.556792602
  0
LINE
  5
22F
100
AcDbEntity
  8
0
100
AcDbLine
 62
7
  6
CONTINUOUS
 10
-85.6188758013
 20
0.556792602
 11
-85.6188758013
 21
44.556792602
  0
LINE
  5
230
100
AcDbEntity
  8
0
100
AcDbLine
 62
7
  6
CONTINUOUS
 10
-39.1188758013
 20
43.056792602
 11
-62.3688758013
 21
43.056792602
  0
LINE
  5
231
100
AcDbEntity
  8
0
100
AcDbLine
 62
7
  6
CONTINUOUS
 10
-85.6188758013
 20
43.056792602
 11
-62.3688758013
 21
43.056792602
  0
INSERT
  5
232
100
AcDbEntity
  8
0
100
AcDbBlockReference
 62
7
  6
CONTINUOUS
  2
_FILLED
 10
-39.1188758013
 20
43.056792602
 41
3.0
 42
3.0
 43
3.0
 50
0.0
  0
INSERT
  5
233
100
AcDbEntity
  8
0
100
AcDbBlockReference
 62
7
  6
CONTINUOUS
  2
_FILLED
 10
-85.6188758013
 20
43.056792602
 41
3.0
 42
3.0
 43
3.0
 50
180.0
  0
ENDBLK
  5
234
100
AcDbEntity
  8
0
  6
BYBLOCK
 62
0
100
AcDbBlockEnd
  0
BLOCK
  5
235
100
AcDbEntity
  8
0
100
AcDbBlockBegin
 62
7
  6
CONTINUOUS
  2
*D2
 70
65
 10
0.0
 20
0.0
  3
*D2
  1

  0
MTEXT
  5
236
100
AcDbEntity
  8
0
100
AcDbMText
 62
7
  6
CONTINUOUS
  7
STANDARD
 71
2
 72
1
 10
-0.2556725
 20
36.806792602
 30
0.0
 11
1.0
 21
0.0
 31
0.0
 44
0.9
  1
44,8
 40
3.0
 41
13.1785714286
  0
LINE
  5
237
100
AcDbEntity
  8
0
100
AcDbLine
 62
7
  6
CONTINUOUS
 10
-22.6556725
 20
22.4479705426
 11
-22.6556725
 21
34.556792602
  0
LINE
  5
238
100
AcDbEntity
  8
0
100
AcDbLine
 62
7
  6
CONTINUOUS
 10
22.1443275
 20
22.4479705426
 11
22.1443275
 21
34.556792602
  0
LINE
  5
239
100
AcDbEntity
  8
0
100
AcDbLine
 62
7
  6
CONTINUOUS
 10
-22.6556725
 20
33.056792602
 11
-0.2556725
 21
33.056792602
  0
LINE
  5
23A
100
AcDbEntity
  8
0
100
AcDbLine
 62
7
  6
CONTINUOUS
 10
22.1443275
 20
33.056792602
 11
-0.2556725
 21
33.056792602
  0
INSERT
  5
23B
100
AcDbEntity
  8
0
100
AcDbBlockReference
 62
7
  6
CONTINUOUS
  2
_FILLED
 10
-22.6556725
 20
33.056792602
 41
3.0
 42
3.0
 43
3.0
 50
180.0
  0
INSERT
  5
23C
100
AcDbEntity
  8
0
100
AcDbBlockReference
 62
7
  6
CONTINUOUS
  2
_FILLED
 10
22.1443275
 20
33.056792602
 41
3.0
 42
3.0
 43
3.0
  0
ENDBLK
  5
23D
100
AcDbEntity
  8
0
  6
BYBLOCK
 62
0
100
AcDbBlockEnd
  0
BLOCK
  5
23E
100
AcDbEntity
  8
0
100
AcDbBlockBegin
 62
7
  6
CONTINUOUS
  2
*D3
 70
65
 10
0.0
 20
0.0
  3
*D3
  1

  0
MTEXT
  5
23F
100
AcDbEntity
  8
0
100
AcDbMText
 62
7
  6
CONTINUOUS
  7
STANDARD
 71
2
 72
1
 10
26.4943275
 20
0.056792602
 30
0.0
 11
0.0
 21
1.0
 31
0.0
 44
0.9
  1
49
 40
3.0
 41
7.0714285714
  0
LINE
  5
240
100
AcDbEntity
  8
0
100
AcDbLine
 62
7
  6
CONTINUOUS
 10
21.8943317308
 20
24.556792602
 11
31.7443275
 21
24.556792602
  0
LINE
  5
241
100
AcDbEntity
  8
0
100
AcDbLine
 62
7
  6
CONTINUOUS
 10
21.8943317308
 20
-24.443207398
 11
31.7443275
 21
-24.443207398
  0
LINE
  5
242
100
AcDbEntity
  8
0
100
AcDbLine
 62
7
  6
CONTINUOUS
 10
30.2443275
 20
24.556792602
 11
30.2443275
 21
0.056792602
  0
LINE
  5
243
100
AcDbEntity
  8
0
100
AcDbLine
 62
7
  6
CONTINUOUS
 10
30.2443275
 20
-24.443207398
 11
30.2443275
 21
0.056792602
  0
INSERT
  5
244
100
AcDbEntity
  8
0
100
AcDbBlockReference
 62
7
  6
CONTINUOUS
  2
_FILLED
 10
30.2443275
 20
24.556792602
 41
3.0
 42
3.0
 43
3.0
 50
90.0
  0
INSERT
  5
245
100
AcDbEntity
  8
0
100
AcDbBlockReference
 62
7
  6
CONTINUOUS
  2
_FILLED
 10
30.2443275
 20
-24.443207398
 41
3.0
 42
3.0
 43
3.0
 50
270.0
  0
ENDBLK
  5
246
100
AcDbEntity
  8
0
  6
BYBLOCK
 62
0
100
AcDbBlockEnd
  0
ENDSEC
  0
SECTION
  2
ENTITIES
  0
DIMENSION
  5
247
100
AcDbEntity
  8
0
100
AcDbDimension
 62
7
  6
CONTINUOUS
  2
*D0
 10
-75.1188758013
 20
33.1124947461
 11
-57.1188758013
 21
33.1124947461
 70
160
 71
2
 42
36.0
  3
DIMSTYLE_1
100
AcDbAlignedDimension
 13
-39.1188758013
 23
17.4753111058
 14
-75.1188758013
 24
24.3024249988
 50
180.0
100
AcDbRotatedDimension
  0
DIMENSION
  5
248
100
AcDbEntity
  8
0
100
AcDbDimension
 62
7
  6
CONTINUOUS
  2
*D1
 10
-85.6188758013
 20
43.056792602
 11
-62.3688758013
 21
43.056792602
 70
160
 71
2
 42
46.5
  3
DIMSTYLE_1
100
AcDbAlignedDimension
 13
-39.1188758013
 23
17.4753111058
 14
-85.6188758013
 24
0.056792602
 50
180.0
100
AcDbRotatedDimension
  0
DIMENSION
  5
249
100
AcDbEntity
  8
0
100
AcDbDimension
 62
7
  6
CONTINUOUS
  2
*D2
 10
22.1443275
 20
33.056792602
 11
-0.2556725
 21
33.056792602
 70
160
 71
2
 42
44.8
  3
DIMSTYLE_1
100
AcDbAlignedDimension
 13
-22.6556725
 23
21.9479705426
 14
22.1443275
 24
21.9479705426
100
AcDbRotatedDimension
  0
DIMENSION
  5
24A
100
AcDbEntity
  8
0
100
AcDbDimension
 62
7
  6
CONTINUOUS
  2
*D3
 10
30.2443275
 20
-24.443207398
 11
30.2443275
 21
0.056792602
 70
160
 71
2
 42
49.0
  3
DIMSTYLE_1
100
AcDbAlignedDimension
 13
21.3943317308
 23
24.556792602
 14
21.3943317308
 24
-24.443207398
 50
270.0
100
AcDbRotatedDimension
  0
LINE
  5
24B
100
AcDbEntity
  8
RACCORDO
100
AcDbLine
 62
253
  6
CONTINUOUS
 10
-20.0056344238
 20
24.556792602
 11
-20.0449844781
 21
24.5174425477
  0
LINE
  5
24C
100
AcDbEntity
  8
RACCORDO
100
AcDbLine
 62
253
  6
CONTINUOUS
 10
-20.0449844781
 20
-24.4038573436
 11
-20.0056344238
 21
-24.443207398
  0
LINE
  5
24D
100
AcDbEntity
  8
RACCORDO
100
AcDbLine
 62
253
  6
CONTINUOUS
 10
-19.7556725
 20
24.3068306783
 11
-19.7950225543
 21
24.2674806239
  0
LINE
  5
24E
100
AcDbEntity
  8
RACCORDO
100
AcDbLine
 62
7
  6
CONTINUOUS
 10
-19.7775674894
 20
22.4348976127
 11
-19.7556725
 21
22.456792602
  0
LINE
  5
24F
100
AcDbEntity
  8
RACCORDO
100
AcDbLine
 62
253
  6
CONTINUOUS
 10
-22.6120348377
 20
21.9697877121
 11
-22.6556725
 21
21.9479705426
  0
LINE
  5
250
100
AcDbEntity
  8
RACCORDO
100
AcDbLine
 62
7
  6
CONTINUOUS
 10
-22.3061580365
 20
22.4306100046
 11
-22.3360782827
 21
22.4166877189
  0
LINE
  5
251
100
AcDbEntity
  8
RACCORDO
100
AcDbLine
 62
7
  6
CONTINUOUS
 10
-22.3360782827
 20
-22.3031025148
 11
-22.3061580365
 21
-22.3170248006
  0
LINE
  5
252
100
AcDbEntity
  8
RACCORDO
100
AcDbLine
 62
253
  6
CONTINUOUS
 10
-22.6120348377
 20
-21.856202508
 11
-22.6556725
 21
-21.8343853386
  0
LWPOLYLINE
  5
253
100
AcDbEntity
  8
RACCORDO
100
AcDbPolyline
 62
253
  6
CONTINUOUS
 90
16
 70
0
 10
-22.5255915938
 20
-20.4445755085
 10
-22.5220120879
 20
-20.4466972238
 10
-22.5131144957
 20
-20.448796206
 10
-22.4989941507
 20
-20.4508499654
 10
-22.4798023453
 20
-20.4528364971
 10
-22.4557447103
 20
-20.4547345163
 10
-22.4270790115
 20
-20.4565236867
 10
-22.3941123878
 20
-20.4581848383
 10
-22.3571980605
 20
-20.4597001725
 10
-22.3167315484
 20
-20.4610534534
 10
-22.2731464303
 20
-20.4622301811
 10
-22.2269096995
 20
-20.4632177477
 10
-22.1785167598
 20
-20.4640055719
 10
-22.1284861179
 20
-20.4645852127
 10
-22.0773538276
 20
-20.4649504594
 10
-0.9856772538
 20
-20.4650973985
  0
LINE
  5
254
100
AcDbEntity
  8
RACCORDO
100
AcDbLine
 62
253
  6
CONTINUOUS
 10
-19.7950225543
 20
-24.1538954199
 11
-19.7556725
 21
-24.1932454742
  0
LINE
  5
255
100
AcDbEntity
  8
RACCORDO
100
AcDbLine
 62
7
  6
CONTINUOUS
 10
-19.7775674894
 20
-22.3213124086
 11
-19.7556725
 21
-22.343207398
  0
LWPOLYLINE
  5
256
100
AcDbEntity
  8
RACCORDO
100
AcDbPolyline
 62
253
  6
CONTINUOUS
 90
31
 70
0
 10
21.3812331521
 20
-24.4301088192
 10
21.3943195062
 20
-24.4297656302
 10
21.4073700045
 20
-24.4287378873
 10
21.4203488619
 20
-24.4270284041
 10
21.4332205016
 20
-24.4246418614
 10
21.4459496155
 20
-24.4215848002
 10
21.458501263
 20
-24.4178656107
 10
21.4708410191
 20
-24.4134944957
 10
21.4829350563
 20
-24.4084834402
 10
21.4947502019
 20
-24.4028461919
 10
21.5062540577
 20
-24.3965982127
 10
21.5174150837
 20
-24.3897566369
 10
21.528202674
 20
-24.3823402301
 10
21.5385872633
 20
-24.3743693219
 10
21.5485403667
 20
-24.3658657804
 10
21.5580346599
 20
-24.3568529613
 10
21.5670440817
 20
-24.3473556268
 10
21.5755439786
 20
-24.3373997897
 10
21.5835111209
 20
-24.3270126638
 10
21.5909237509
 20
-24.3162225846
 10
21.5977614327
 20
-24.3050592662
 10
21.6040052344
 20
-24.2935536658
 10
21.609637983
 20
-24.2817375875
 10
21.6146444129
 20
-24.2696432314
 10
21.619010964
 20
-24.2573034275
 10
21.6227264037
 20
-24.2447492429
 10
21.6257795171
 20
-24.2320177777
 10
21.6281606472
 20
-24.219152059
 10
21.6298642515
 20
-24.2061902844
 10
21.6308875141
 20
-24.19316539
 10
21.6312289213
 20
-24.18011305
  0
LWPOLYLINE
  5
257
100
AcDbEntity
  8
RACCORDO
100
AcDbPolyline
 62
253
  6
CONTINUOUS
 90
31
 70
0
 10
2.4812331521
 20
-24.4301088192
 10
2.494285492
 20
-24.429767412
 10
2.5073103864
 20
-24.4287441494
 10
2.520272161
 20
-24.4270405452
 10
2.5331378798
 20
-24.424659415
 10
2.5458693449
 20
-24.4216063016
 10
2.5584235295
 20
-24.4178908619
 10
2.5707633334
 20
-24.4135243108
 10
2.5828576896
 20
-24.4085178809
 10
2.5946737678
 20
-24.4028851323
 10
2.6061793682
 20
-24.3966413307
 10
2.6173426866
 20
-24.3898036489
 10
2.6281327658
 20
-24.3823910188
 10
2.6385198917
 20
-24.3744238766
 10
2.6484757289
 20
-24.3659239797
 10
2.6579730633
 20
-24.3569145578
 10
2.6669858824
 20
-24.3474202647
 10
2.6754894239
 20
-24.3374671613
 10
2.6834603321
 20
-24.327082572
 10
2.690876739
 20
-24.3162949817
 10
2.6977183148
 20
-24.3051339557
 10
2.7039662939
 20
-24.2936300999
 10
2.7096035422
 20
-24.2818149543
 10
2.7146145977
 20
-24.269720917
 10
2.7189857128
 20
-24.2573811609
 10
2.7227049023
 20
-24.2448295135
 10
2.7257619634
 20
-24.2321003996
 10
2.7281485061
 20
-24.2192287599
 10
2.7298579893
 20
-24.2062499025
 10
2.7308857323
 20
-24.1931994041
 10
2.7312289213
 20
-24.18011305
  0
LWPOLYLINE
  5
258
100
AcDbEntity
  8
RACCORDO
100
AcDbPolyline
 62
7
  6
CONTINUOUS
 90
34
 70
0
 10
21.3943317308
 20
-24.443207398
 10
21.406227016
 20
-24.4429242477
 10
21.4180953556
 20
-24.4420754322
 10
21.4299098661
 20
-24.4406628721
 10
21.4416437875
 20
-24.4386897657
 10
21.4532705388
 20
-24.4361605797
 10
21.464763779
 20
-24.4330810397
 10
21.4760974738
 20
-24.4294581193
 10
21.4872459493
 20
-24.4253000237
 10
21.4981839463
 20
-24.4206161701
 10
21.5088866876
 20
-24.4154171668
 10
21.5193299283
 20
-24.4097147896
 10
21.5294900059
 20
-24.4035219561
 10
21.5393439051
 20
-24.3968526934
 10
21.5488693038
 20
-24.3897221087
 10
21.5580446191
 20
-24.3821463568
 10
21.5668490661
 20
-24.3741425984
 10
21.5752627005
 20
-24.365728964
 10
21.5832664589
 20
-24.356924517
 10
21.5908422107
 20
-24.3477492018
 10
21.5979727955
 20
-24.3382238031
 10
21.6046420581
 20
-24.3283699039
 10
21.6108348916
 20
-24.3182098262
 10
21.6165372688
 20
-24.3077665856
 10
21.6217362722
 20
-24.2970638443
 10
21.6264201258
 20
-24.2861258473
 10
21.6305782213
 20
-24.2749773717
 10
21.6342011417
 20
-24.263643677
 10
21.6372806817
 20
-24.2521504368
 10
21.6398098677
 20
-24.2405236854
 10
21.6417829741
 20
-24.2287897641
 10
21.6431955342
 20
-24.2169752535
 10
21.6440443498
 20
-24.205106914
 10
21.6443275
 20
-24.1932116287
  0
LWPOLYLINE
  5
259
100
AcDbEntity
  8
RACCORDO
100
AcDbPolyline
 62
7
  6
CONTINUOUS
 90
34
 70
0
 10
2.4943317308
 20
-24.443207398
 10
2.506227016
 20
-24.4429242477
 10
2.5180953556
 20
-24.4420754322
 10
2.5299098661
 20
-24.4406628721
 10
2.5416437875
 20
-24.4386897657
 10
2.5532705388
 20
-24.4361605797
 10
2.564763779
 20
-24.4330810397
 10
2.5760974738
 20
-24.4294581193
 10
2.5872459493
 20
-24.4253000237
 10
2.5981839463
 20
-24.4206161701
 10
2.6088866876
 20
-24.4154171668
 10
2.6193299283
 20
-24.4097147896
 10
2.6294900059
 20
-24.4035219561
 10
2.6393439051
 20
-24.3968526934
 10
2.6488693038
 20
-24.3897221087
 10
2.6580446191
 20
-24.3821463568
 10
2.6668490661
 20
-24.3741425984
 10
2.6752627005
 20
-24.365728964
 10
2.6832664589
 20
-24.356924517
 10
2.6908422107
 20
-24.3477492018
 10
2.6979727955
 20
-24.3382238031
 10
2.7046420581
 20
-24.3283699039
 10
2.7108348916
 20
-24.3182098262
 10
2.7165372688
 20
-24.3077665856
 10
2.7217362722
 20
-24.2970638443
 10
2.7264201258
 20
-24.2861258473
 10
2.7305782213
 20
-24.2749773717
 10
2.7342011417
 20
-24.263643677
 10
2.7372806817
 20
-24.2521504368
 10
2.7398098677
 20
-24.2405236854
 10
2.7417829741
 20
-24.2287897641
 10
2.7431955342
 20
-24.2169752535
 10
2.7440443498
 20
-24.205106914
 10
2.7443275
 20
-24.1932116287
  0
LINE
  5
25A
100
AcDbEntity
  8
RACCORDO
100
AcDbLine
 62
7
  6
CONTINUOUS
 10
21.3943317308
 20
-24.443207398
 11
19.4943232692
 21
-24.443207398
  0
LINE
  5
25B
100
AcDbEntity
  8
RACCORDO
100
AcDbLine
 62
7
  6
CONTINUOUS
 10
-3.0056820192
 20
-24.443207398
 11
-1.1056629808
 21
-24.443207398
  0
LINE
  5
25C
100
AcDbEntity
  8
RACCORDO
100
AcDbLine
 62
7
  6
CONTINUOUS
 10
2.4943317308
 20
-24.443207398
 11
0.5943232692
 21
-24.443207398
  0
LINE
  5
25D
100
AcDbEntity
  8
RACCORDO
100
AcDbLine
 62
7
  6
CONTINUOUS
 10
-20.0056629808
 20
-24.443207398
 11
-21.9056820192
 21
-24.443207398
  0
LINE
  5
25E
100
AcDbEntity
  8
RACCORDO
100
AcDbLine
 62
253
  6
CONTINUOUS
 10
0.6074218479
 20
-24.4301088192
 11
2.4812331521
 21
-24.4301088192
  0
LINE
  5
25F
100
AcDbEntity
  8
RACCORDO
100
AcDbLine
 62
253
  6
CONTINUOUS
 10
19.5074218479
 20
-24.4301088192
 11
21.3812331521
 21
-24.4301088192
  0
LINE
  5
260
100
AcDbEntity
  8
RACCORDO
100
AcDbLine
 62
253
  6
CONTINUOUS
 10
-1.1449844781
 20
-24.4038573436
 11
-2.9663605219
 21
-24.4038573436
  0
LINE
  5
261
100
AcDbEntity
  8
RACCORDO
100
AcDbLine
 62
253
  6
CONTINUOUS
 10
-20.0449844781
 20
-24.4038573436
 11
-21.8663605219
 21
-24.4038573436
  0
LWPOLYLINE
  5
262
100
AcDbEntity
  8
RACCORDO
100
AcDbPolyline
 62
7
  6
CONTINUOUS
 90
13
 70
0
 10
-22.1556725
 20
-24.1932454742
 10
-22.1535327257
 20
-24.2258675642
 10
-22.147153976
 20
-24.257932802
 10
-22.136644612
 20
-24.2888927996
 10
-22.1221833389
 20
-24.3182185241
 10
-22.1040169837
 20
-24.3454073106
 10
-22.0824570804
 20
-24.3699919783
 10
-22.0578724127
 20
-24.3915518817
 10
-22.0306836262
 20
-24.4097182369
 10
-22.0013579016
 20
-24.42417951
 10
-21.9703979041
 20
-24.4346888739
 10
-21.9383326662
 20
-24.4410676237
 10
-21.9057105762
 20
-24.443207398
  0
LWPOLYLINE
  5
263
100
AcDbEntity
  8
RACCORDO
100
AcDbPolyline
 62
253
  6
CONTINUOUS
 90
13
 70
0
 10
-22.1163224457
 20
-24.1538954199
 10
-22.1142644013
 20
-24.1858298421
 10
-22.1080888023
 20
-24.2174488877
 10
-22.0978170813
 20
-24.2482115168
 10
-22.0835076353
 20
-24.2776359793
 10
-22.0653483765
 20
-24.3051120422
 10
-22.0437358735
 20
-24.3299633711
 10
-22.0190999759
 20
-24.3517165925
 10
-21.9918247732
 20
-24.370050837
 10
-21.962389469
 20
-24.3846461645
 10
-21.9313067186
 20
-24.3952528435
 10
-21.8991117119
 20
-24.401692472
 10
-21.8663605219
 20
-24.4038573436
  0
LWPOLYLINE
  5
264
100
AcDbEntity
  8
RACCORDO
100
AcDbPolyline
 62
253
  6
CONTINUOUS
 90
7
 70
0
 10
-21.8794518206
 20
-23.1380259124
 10
-21.8803165815
 20
-23.1220091603
 10
-21.8810913256
 20
-23.1032832708
 10
-21.8817760529
 20
-23.0821081199
 10
-21.8823773736
 20
-23.058780899
 10
-21.8828886775
 20
-23.0336173251
 10
-21.8832901338
 20
-23.0069436085
  0
LWPOLYLINE
  5
265
100
AcDbEntity
  8
RACCORDO
100
AcDbPolyline
 62
253
  6
CONTINUOUS
 90
16
 70
0
 10
-22.5421184227
 20
-21.4021612633
 10
-22.5393353008
 20
-21.4543233233
 10
-22.5311117853
 20
-21.5059146092
 10
-22.5175378523
 20
-21.5563705359
 10
-22.4987620292
 20
-21.605138942
 10
-22.4749897723
 20
-21.6516861266
 10
-22.4464812202
 20
-21.6955026908
 10
-22.4135483412
 20
-21.7361091228
 10
-22.3765515246
 20
-21.7730610362
 10
-22.3358956432
 20
-21.8059540308
 10
-22.2920256067
 20
-21.834428133
 10
-22.2454215028
 20
-21.8581717253
 10
-22.196593354
 20
-21.8769249534
 10
-22.1460755161
 20
-21.8904825828
 10
-22.0944208279
 20
-21.8986962399
 10
-22.0421945751
 20
-21.9014760307
  0
LWPOLYLINE
  5
266
100
AcDbEntity
  8
RACCORDO
100
AcDbPolyline
 62
253
  6
CONTINUOUS
 90
19
 70
0
 10
-22.4996107061
 20
0.5222842403
 10
-22.4988077882
 20
0.5005003105
 10
-22.4963129255
 20
0.4782343865
 10
-22.4920032103
 20
0.4556261239
 10
-22.4857530926
 20
0.4327992221
 10
-22.4774669486
 20
0.4099714582
 10
-22.4671110303
 20
0.3874441058
 10
-22.4546385565
 20
0.3654117557
 10
-22.4400291764
 20
0.3441053128
 10
-22.4233767259
 20
0.3238691659
 10
-22.4048033909
 20
0.3049855119
 10
-22.3843295623
 20
0.2875849472
 10
-22.3619366253
 20
0.2717945074
 10
-22.3376475141
 20
0.2578141693
 10
-22.3116706194
 20
0.2459413845
 10
-22.2843013797
 20
0.2364440449
 10
-22.2557948123
 20
0.2295190908
 10
-22.2263484469
 20
0.2253241924
 10
-22.1962264395
 20
0.2240105118
  0
LINE
  5
267
100
AcDbEntity
  8
RACCORDO
100
AcDbLine
 62
253
  6
CONTINUOUS
 10
-21.8663605219
 20
-23.5710386143
 11
-21.8794518206
 21
-23.1380259124
  0
LINE
  5
268
100
AcDbEntity
  8
RACCORDO
100
AcDbLine
 62
253
  6
CONTINUOUS
 10
-22.1300648468
 20
-23.3306056891
 11
-22.1163224457
 21
-23.7875449653
  0
LINE
  5
269
100
AcDbEntity
  8
RACCORDO
100
AcDbLine
 62
253
  6
CONTINUOUS
 10
-22.1312243296
 20
-23.2748913557
 11
-22.1300648468
 21
-23.3306056891
  0
LINE
  5
26A
100
AcDbEntity
  8
RACCORDO
100
AcDbLine
 62
253
  6
CONTINUOUS
 10
-22.1321996668
 20
-23.2082120514
 11
-22.1312243296
 21
-23.2748913557
  0
LINE
  5
26B
100
AcDbEntity
  8
RACCORDO
100
AcDbLine
 62
253
  6
CONTINUOUS
 10
-22.1329561963
 20
-23.1331912739
 11
-22.1321996668
 21
-23.2082120514
  0
LINE
  5
26C
100
AcDbEntity
  8
RACCORDO
100
AcDbLine
 62
253
  6
CONTINUOUS
 10
-22.5093398986
 20
20.9942353186
 11
-22.5078140919
 21
20.8023526468
  0
LINE
  5
26D
100
AcDbEntity
  8
RACCORDO
100
AcDbLine
 62
253
  6
CONTINUOUS
 10
-22.5078140919
 20
20.8023526468
 11
-22.5070264272
 21
20.5975125759
  0
LINE
  5
26E
100
AcDbEntity
  8
RACCORDO
100
AcDbLine
 62
253
  6
CONTINUOUS
 10
-22.5070264272
 20
20.5975125759
 11
-22.5040958426
 21
16.0830207091
  0
LINE
  5
26F
100
AcDbEntity
  8
RACCORDO
100
AcDbLine
 62
253
  6
CONTINUOUS
 10
-22.5040958426
 20
16.0830207091
 11
-22.5019508675
 21
11.6381209367
  0
LINE
  5
270
100
AcDbEntity
  8
RACCORDO
100
AcDbLine
 62
253
  6
CONTINUOUS
 10
-22.5019508675
 20
11.6381209367
 11
-22.5004967013
 21
7.1923460181
  0
LINE
  5
271
100
AcDbEntity
  8
RACCORDO
100
AcDbLine
 62
7
  6
CONTINUOUS
 10
-22.6556725
 20
-21.8343853386
 11
-22.6556725
 21
21.9479705426
  0
LINE
  5
272
100
AcDbEntity
  8
ASSI
100
AcDbLine
 62
7
  6
CONTINUOUS
 10
-22.6556725
 20
-17.6149064467
 11
-22.6556725
 21
17.7284916508
  0
LINE
  5
273
100
AcDbEntity
  8
RACCORDO
100
AcDbLine
 62
7
  6
CONTINUOUS
 10
-22.6306725
 20
0.4567583341
 11
-22.6306725
 21
21.80656375
  0
LINE
  5
274
100
AcDbEntity
  8
DRAFT
100
AcDbLine
 62
7
  6
CONTINUOUS
 10
-22.6259988896
 20
-20.743207398
 11
-22.6259988896
 21
0.056792602
  0
LINE
  5
275
100
AcDbEntity
  8
RACCORDO
100
AcDbLine
 62
7
  6
CONTINUOUS
 10
-22.6120348377
 20
21.9697877121
 11
-22.6120348377
 21
21.9413435719
  0
LINE
  5
276
100
AcDbEntity
  8
DRAFT
100
AcDbLine
 62
7
  6
CONTINUOUS
 10
-22.6120348377
 20
0.3531275554
 11
-22.6120348377
 21
0.056792602
  0
LINE
  5
277
100
AcDbEntity
  8
RACCORDO
100
AcDbLine
 62
7
  6
CONTINUOUS
 10
-22.6120348377
 20
-20.743207398
 11
-22.6120348377
 21
-21.856202508
  0
LINE
  5
278
100
AcDbEntity
  8
RACCORDO
100
AcDbLine
 62
7
  6
CONTINUOUS
 10
-22.6056725
 20
-20.6213938475
 11
-22.6056725
 21
-0.243207398
  0
LINE
  5
279
100
AcDbEntity
  8
RACCORDO
100
AcDbLine
 62
7
  6
CONTINUOUS
 10
-22.595199461
 20
-20.6213938475
 11
-22.595199461
 21
-21.5615338783
  0
LINE
  5
27A
100
AcDbEntity
  8
RACCORDO
100
AcDbLine
 62
253
  6
CONTINUOUS
 10
-22.5004967013
 20
7.1923460181
 11
-22.499610808
 21
0.5222841894
  0
LINE
  5
27B
100
AcDbEntity
  8
RACCORDO
100
AcDbLine
 62
253
  6
CONTINUOUS
 10
-22.5186457891
 20
-4.7342055274
 11
-22.5182462569
 21
-0.243207398
  0
LINE
  5
27C
100
AcDbEntity
  8
RACCORDO
100
AcDbLine
 62
253
  6
CONTINUOUS
 10
-22.5197498342
 20
-9.2242227248
 11
-22.5186457891
 21
-4.7342055274
  0
LINE
  5
27D
100
AcDbEntity
  8
RACCORDO
100
AcDbLine
 62
253
  6
CONTINUOUS
 10
-22.5215583409
 20
-13.7132246992
 11
-22.5197498342
 21
-9.2242227248
  0
LINE
  5
27E
100
AcDbEntity
  8
RACCORDO
100
AcDbLine
 62
253
  6
CONTINUOUS
 10
-22.5240711036
 20
-18.2010742869
 11
-22.5215583409
 21
-13.7132246992
  0
LINE
  5
27F
100
AcDbEntity
  8
RACCORDO
100
AcDbLine
 62
253
  6
CONTINUOUS
 10
-22.5261262823
 20
-20.6524532812
 11
-22.5240711036
 21
-18.2010742869
  0
LINE
  5
280
100
AcDbEntity
  8
RACCORDO
100
AcDbLine
 62
253
  6
CONTINUOUS
 10
-22.5279993061
 20
-20.911683903
 11
-22.5261262823
 21
-20.6524532812
  0
LINE
  5
281
100
AcDbEntity
  8
RACCORDO
100
AcDbLine
 62
253
  6
CONTINUOUS
 10
-22.1317390561
 20
23.356225883
 11
-22.1329587438
 21
23.2464720417
  0
LWPOLYLINE
  5
282
100
AcDbEntity
  8
RACCORDO
100
AcDbPolyline
 62
253
  6
CONTINUOUS
 90
3
 70
0
 10
-22.1300661175
 20
23.4441352785
 10
-22.1306706167
 20
23.4175342533
 10
-22.1317390561
 20
23.356225883
  0
LINE
  5
283
100
AcDbEntity
  8
RACCORDO
100
AcDbLine
 62
253
  6
CONTINUOUS
 10
-22.1300661175
 20
23.4441352785
 11
-22.1163224457
 21
23.9011301693
  0
LINE
  5
284
100
AcDbEntity
  8
RACCORDO
100
AcDbLine
 62
253
  6
CONTINUOUS
 10
-21.8794518206
 20
23.2516111165
 11
-21.8663605219
 21
23.6846238184
  0
LWPOLYLINE
  5
285
100
AcDbEntity
  8
RACCORDO
100
AcDbPolyline
 62
7
  6
CONTINUOUS
 90
13
 70
0
 10
-22.1556725
 20
24.3068021213
 10
-22.1535347296
 20
24.3394369727
 10
-22.1471555684
 20
24.3715118268
 10
-22.136644612
 20
24.4024780036
 10
-22.1221823065
 20
24.4318055851
 10
-22.1040163535
 20
24.4589933673
 10
-22.0824570804
 20
24.4835771824
 10
-22.0578732653
 20
24.5051364555
 10
-22.0306854831
 20
24.5233024086
 10
-22.0013579016
 20
24.5377647141
 10
-21.9703917247
 20
24.5482756704
 10
-21.9383168707
 20
24.5546548316
 10
-21.9056820192
 20
24.556792602
  0
LWPOLYLINE
  5
286
100
AcDbEntity
  8
RACCORDO
100
AcDbPolyline
 62
253
  6
CONTINUOUS
 90
13
 70
0
 10
-22.1163224457
 20
24.2674806239
 10
-22.1141575741
 20
24.3002318139
 10
-22.1077179455
 20
24.3324268206
 10
-22.0971112665
 20
24.3635095711
 10
-22.082515939
 20
24.3929448753
 10
-22.0641816945
 20
24.4202200779
 10
-22.0424284732
 20
24.4448559755
 10
-22.0175771442
 20
24.4664684786
 10
-21.9901010813
 20
24.4846277374
 10
-21.9606766189
 20
24.4989371834
 10
-21.9299139897
 20
24.5092089043
 10
-21.8982949441
 20
24.5153845033
 10
-21.8663605219
 20
24.5174425477
  0
LWPOLYLINE
  5
287
100
AcDbEntity
  8
RACCORDO
100
AcDbPolyline
 62
7
  6
CONTINUOUS
 90
9
 70
0
 10
-22.5182462569
 20
-0.243207398
 10
-22.5159111533
 20
-0.2178007838
 10
-22.5102237481
 20
-0.19225412
 10
-22.5010511321
 20
-0.1670427205
 10
-22.4884532877
 20
-0.1429056433
 10
-22.4723790538
 20
-0.1201344383
 10
-22.4523843304
 20
-0.0987590642
 10
-22.4282405996
 20
-0.079462444
 10
-22.4002615637
 20
-0.0633604044
  0
LWPOLYLINE
  5
288
100
AcDbEntity
  8
RACCORDO
100
AcDbPolyline
 62
7
  6
CONTINUOUS
 90
23
 70
0
 10
6.6981201863
 20
-23.7385463648
 10
6.7089093097
 20
-23.7379989628
 10
6.7199967719
 20
-23.7365712929
 10
6.7313825728
 20
-23.7343438859
 10
6.7430913531
 20
-23.7314052945
 10
6.755098472
 20
-23.7278312695
 10
6.767330008
 20
-23.7236669112
 10
6.7797787482
 20
-23.7189717682
 10
6.7924519054
 20
-23.7138092076
 10
6.8052971956
 20
-23.7082027083
 10
6.8183103277
 20
-23.7021976299
 10
6.8314955928
 20
-23.6958439627
 10
6.8448135797
 20
-23.6891534562
 10
6.8582620667
 20
-23.6821616811
 10
6.8718432756
 20
-23.6749087901
 10
6.8855244604
 20
-23.667401071
 10
6.8993045721
 20
-23.6596675858
 10
6.9131846598
 20
-23.651741349
 10
6.9271351244
 20
-23.643626588
 10
6.941155725
 20
-23.635347927
 10
6.9552467024
 20
-23.6269333572
 10
6.9693791799
 20
-23.6183870777
 10
6.9977693162
 20
-23.6009885991
  0
LWPOLYLINE
  5
289
100
AcDbEntity
  8
RACCORDO
100
AcDbPolyline
 62
7
  6
CONTINUOUS
 90
34
 70
0
 10
0.6016040181
 20
-23.0658571288
 10
0.588579543
 20
-23.0661107062
 10
0.5756499708
 20
-23.0667361049
 10
0.5628493724
 20
-23.0677333251
 10
0.5501993153
 20
-23.0691149904
 10
0.537743165
 20
-23.0708684772
 10
0.5255446514
 20
-23.0729559137
 10
0.5136440292
 20
-23.0753783824
 10
0.5020536302
 20
-23.0781348008
 10
0.4907916452
 20
-23.0811840502
 10
0.4798804726
 20
-23.0845266092
 10
0.4693403679
 20
-23.088161999
 10
0.4591844746
 20
-23.092047665
 10
0.449430333
 20
-23.0961836532
 10
0.440093618
 20
-23.1005699174
 10
0.4311832836
 20
-23.1051637648
 10
0.4227124406
 20
-23.1099649902
 10
0.4146927084
 20
-23.1149737986
 10
0.4071298049
 20
-23.1201481121
 10
0.4000329126
 20
-23.1254875947
 10
0.3934100035
 20
-23.1309925823
 10
0.3872642596
 20
-23.1366220044
 10
0.3816013786
 20
-23.142375455
 10
0.3764260214
 20
-23.14825334
 10
0.3717392433
 20
-23.1542158064
 10
0.3675436184
 20
-23.1602623908
 10
0.3638407682
 20
-23.1663935566
 10
0.360629791
 20
-23.1725708417
 10
0.3579104241
 20
-23.1787937006
 10
0.3556814776
 20
-23.1850626787
 10
0.3539401149
 20
-23.1913409499
 10
0.3526833761
 20
-23.1976162388
 10
0.3519076713
 20
-23.2039008209
 10
0.3516082489
 20
-23.2101946961
  0
LINE
  5
28A
100
AcDbEntity
  8
RACCORDO
100
AcDbLine
 62
253
  6
CONTINUOUS
 10
0.3574260787
 20
-24.18011305
 11
2.7312289213
 21
-24.18011305
  0
LINE
  5
28B
100
AcDbEntity
  8
RACCORDO
100
AcDbLine
 62
253
  6
CONTINUOUS
 10
19.2574260787
 20
-24.18011305
 11
21.6312289213
 21
-24.18011305
  0
LINE
  5
28C
100
AcDbEntity
  8
RACCORDO
100
AcDbLine
 62
253
  6
CONTINUOUS
 10
-0.8950225543
 20
-24.1538954199
 11
-3.2163224457
 21
-24.1538954199
  0
LINE
  5
28D
100
AcDbEntity
  8
RACCORDO
100
AcDbLine
 62
253
  6
CONTINUOUS
 10
-19.7950225543
 20
-24.1538954199
 11
-22.1163224457
 21
-24.1538954199
  0
LINE
  5
28E
100
AcDbEntity
  8
RACCORDO
100
AcDbLine
 62
253
  6
CONTINUOUS
 10
0.3574260787
 20
-23.7875449653
 11
2.7312289213
 21
-23.7875449653
  0
LINE
  5
28F
100
AcDbEntity
  8
RACCORDO
100
AcDbLine
 62
253
  6
CONTINUOUS
 10
-0.8950225543
 20
-23.7875449653
 11
-3.2163224457
 21
-23.7875449653
  0
LINE
  5
290
100
AcDbEntity
  8
RACCORDO
100
AcDbLine
 62
253
  6
CONTINUOUS
 10
19.2574260787
 20
-23.7875449653
 11
21.6312289213
 21
-23.7875449653
  0
LINE
  5
291
100
AcDbEntity
  8
RACCORDO
100
AcDbLine
 62
253
  6
CONTINUOUS
 10
-19.7950225543
 20
-23.7875449653
 11
-22.1163224457
 21
-23.7875449653
  0
LINE
  5
292
100
AcDbEntity
  8
DRAFT
100
AcDbLine
 62
7
  6
CONTINUOUS
 10
-15.9056725
 20
-23.743207398
 11
-7.1056725
 21
-23.743207398
  0
LINE
  5
293
100
AcDbEntity
  8
DRAFT
100
AcDbLine
 62
7
  6
CONTINUOUS
 10
15.3943275
 20
-23.743207398
 11
6.5943275
 21
-23.743207398
  0
LINE
  5
294
100
AcDbEntity
  8
RACCORDO
100
AcDbLine
 62
253
  6
CONTINUOUS
 10
6.6981201863
 20
-23.7385463648
 11
15.2905348137
 21
-23.7385463648
  0
LINE
  5
295
100
AcDbEntity
  8
RACCORDO
100
AcDbLine
 62
7
  6
CONTINUOUS
 10
-15.3968688035
 20
-23.725752333
 11
-7.6144761965
 21
-23.725752333
  0
LINE
  5
296
100
AcDbEntity
  8
RACCORDO
100
AcDbLine
 62
253
  6
CONTINUOUS
 10
21.3812331521
 20
-23.5710386143
 11
19.5074218479
 21
-23.5710386143
  0
LINE
  5
297
100
AcDbEntity
  8
RACCORDO
100
AcDbLine
 62
253
  6
CONTINUOUS
 10
2.4812331521
 20
-23.5710386143
 11
0.6074218479
 21
-23.5710386143
  0
LINE
  5
298
100
AcDbEntity
  8
RACCORDO
100
AcDbLine
 62
253
  6
CONTINUOUS
 10
-1.1449844781
 20
-23.5710386143
 11
-2.9663605219
 21
-23.5710386143
  0
LINE
  5
299
100
AcDbEntity
  8
RACCORDO
100
AcDbLine
 62
253
  6
CONTINUOUS
 10
-20.0449844781
 20
-23.5710386143
 11
-21.8663605219
 21
-23.5710386143
  0
LINE
  5
29A
100
AcDbEntity
  8
RACCORDO
100
AcDbLine
 62
253
  6
CONTINUOUS
 10
7.0972448766
 20
-23.5385497494
 11
14.8914101234
 21
-23.5385497494
  0
LINE
  5
29B
100
AcDbEntity
  8
RACCORDO
100
AcDbLine
 62
253
  6
CONTINUOUS
 10
-21.8794518206
 20
-23.1380259124
 11
-20.0318931794
 21
-23.1380259124
  0
LINE
  5
29C
100
AcDbEntity
  8
RACCORDO
100
AcDbLine
 62
253
  6
CONTINUOUS
 10
-2.9794518206
 20
-23.1380259124
 11
-1.1318931794
 21
-23.1380259124
  0
LINE
  5
29D
100
AcDbEntity
  8
RACCORDO
100
AcDbLine
 62
7
  6
CONTINUOUS
 10
0.6023312468
 20
-23.0658571288
 11
2.4863237532
 21
-23.0658571288
  0
LINE
  5
29E
100
AcDbEntity
  8
RACCORDO
100
AcDbLine
 62
7
  6
CONTINUOUS
 10
19.5023312468
 20
-23.0658571288
 11
21.3863237532
 21
-23.0658571288
  0
LINE
  5
29F
100
AcDbEntity
  8
RACCORDO
100
AcDbLine
 62
253
  6
CONTINUOUS
 10
-0.8775674894
 20
-22.9215195615
 11
-3.2337775106
 21
-22.9215195615
  0
LINE
  5
2A0
100
AcDbEntity
  8
RACCORDO
100
AcDbLine
 62
253
  6
CONTINUOUS
 10
-19.7775674894
 20
-22.9215195615
 11
-22.1337775106
 21
-22.9215195615
  0
LINE
  5
2A1
100
AcDbEntity
  8
DRAFT
100
AcDbLine
 62
7
  6
CONTINUOUS
 10
19.2443275
 20
-22.343207398
 11
15.3943275
 21
-22.343207398
  0
LINE
  5
2A2
100
AcDbEntity
  8
DRAFT
100
AcDbLine
 62
7
  6
CONTINUOUS
 10
6.5943275
 20
-22.343207398
 11
2.7443275
 21
-22.343207398
  0
LINE
  5
2A3
100
AcDbEntity
  8
DRAFT
100
AcDbLine
 62
7
  6
CONTINUOUS
 10
0.3443275
 20
-22.343207398
 11
-0.8556725
 21
-22.343207398
  0
LINE
  5
2A4
100
AcDbEntity
  8
ASSI
100
AcDbLine
 62
7
  6
CONTINUOUS
 10
0.3443275
 20
-22.343207398
 11
-0.8556725
 21
-22.343207398
  0
LINE
  5
2A5
100
AcDbEntity
  8
DRAFT
100
AcDbLine
 62
7
  6
CONTINUOUS
 10
-3.2556725
 20
-22.343207398
 11
-7.1056725
 21
-22.343207398
  0
LINE
  5
2A6
100
AcDbEntity
  8
DRAFT
100
AcDbLine
 62
7
  6
CONTINUOUS
 10
-15.9056725
 20
-22.343207398
 11
-19.7556725
 21
-22.343207398
  0
LINE
  5
2A7
100
AcDbEntity
  8
RACCORDO
100
AcDbLine
 62
7
  6
CONTINUOUS
 10
-7.6144761965
 20
-22.325752333
 11
-15.3968688035
 21
-22.325752333
  0
LINE
  5
2A8
100
AcDbEntity
  8
RACCORDO
100
AcDbLine
 62
7
  6
CONTINUOUS
 10
-22.3061580365
 20
-22.3170248006
 11
-21.8838155868
 21
-22.3170248006
  0
LINE
  5
2A9
100
AcDbEntity
  8
RACCORDO
100
AcDbLine
 62
7
  6
CONTINUOUS
 10
-20.0275294132
 20
-22.3170248006
 11
-2.9838155868
 21
-22.3170248006
  0
LINE
  5
2AA
100
AcDbEntity
  8
RACCORDO
100
AcDbLine
 62
7
  6
CONTINUOUS
 10
-1.1275294132
 20
-22.3170248006
 11
-0.7051869635
 21
-22.3170248006
  0
LINE
  5
2AB
100
AcDbEntity
  8
RACCORDO
100
AcDbLine
 62
7
  6
CONTINUOUS
 10
14.8914101234
 20
-22.2907996187
 11
7.0972448766
 21
-22.2907996187
  0
LINE
  5
2AC
100
AcDbEntity
  8
RACCORDO
100
AcDbLine
 62
7
  6
CONTINUOUS
 10
0.6016040181
 20
-22.264595729
 11
2.4870509819
 21
-22.264595729
  0
LINE
  5
2AD
100
AcDbEntity
  8
RACCORDO
100
AcDbLine
 62
7
  6
CONTINUOUS
 10
19.5016040181
 20
-22.264595729
 11
21.3870509819
 21
-22.264595729
  0
LINE
  5
2AE
100
AcDbEntity
  8
RACCORDO
100
AcDbLine
 62
7
  6
CONTINUOUS
 10
-22.0955800608
 20
-22.0617627304
 11
-0.9157649392
 21
-22.0617627304
  0
LWPOLYLINE
  5
2AF
100
AcDbEntity
  8
RACCORDO
100
AcDbPolyline
 62
7
  6
CONTINUOUS
 90
34
 70
0
 10
21.3870509819
 20
-23.0658571288
 10
21.400075457
 20
-23.0661107062
 10
21.4130050292
 20
-23.0667361049
 10
21.4258056276
 20
-23.0677333251
 10
21.4384556847
 20
-23.0691149904
 10
21.450911835
 20
-23.0708684772
 10
21.4631103486
 20
-23.0729559137
 10
21.4750109708
 20
-23.0753783824
 10
21.4866013698
 20
-23.0781348008
 10
21.4978633548
 20
-23.0811840502
 10
21.5087745274
 20
-23.0845266092
 10
21.5193146321
 20
-23.088161999
 10
21.5294705254
 20
-23.092047665
 10
21.539224667
 20
-23.0961836532
 10
21.548561382
 20
-23.1005699174
 10
21.5574717164
 20
-23.1051637648
 10
21.5659425594
 20
-23.1099649902
 10
21.5739622916
 20
-23.1149737986
 10
21.5815251951
 20
-23.1201481121
 10
21.5886220874
 20
-23.1254875947
 10
21.5952449965
 20
-23.1309925823
 10
21.6013907404
 20
-23.1366220044
 10
21.6070536214
 20
-23.142375455
 10
21.6122289786
 20
-23.14825334
 10
21.6169157567
 20
-23.1542158064
 10
21.6211113816
 20
-23.1602623908
 10
21.6248142318
 20
-23.1663935566
 10
21.628025209
 20
-23.1725708417
 10
21.6307445759
 20
-23.1787937006
 10
21.6329735224
 20
-23.1850626787
 10
21.6347148851
 20
-23.1913409499
 10
21.6359716239
 20
-23.1976162388
 10
21.6367473287
 20
-23.2039008209
 10
21.6370467511
 20
-23.2101946961
  0
LWPOLYLINE
  5
2B0
100
AcDbEntity
  8
RACCORDO
100
AcDbPolyline
 62
7
  6
CONTINUOUS
 90
22
 70
0
 10
15.2905348137
 20
-23.7385463648
 10
15.2797456903
 20
-23.7379989628
 10
15.2686582281
 20
-23.7365712929
 10
15.2572724272
 20
-23.7343438859
 10
15.2455636469
 20
-23.7314052945
 10
15.233556528
 20
-23.7278312695
 10
15.221324992
 20
-23.7236669112
 10
15.2088762518
 20
-23.7189717682
 10
15.1962030946
 20
-23.7138092076
 10
15.1833578044
 20
-23.7082027083
 10
15.1703446723
 20
-23.7021976299
 10
15.1571594072
 20
-23.6958439627
 10
15.1438414203
 20
-23.6891534562
 10
15.1303929333
 20
-23.6821616811
 10
15.1168117244
 20
-23.6749087901
 10
15.1031305396
 20
-23.667401071
 10
15.0893504279
 20
-23.6596675858
 10
15.0754703402
 20
-23.651741349
 10
15.0615198756
 20
-23.643626588
 10
15.047499275
 20
-23.635347927
 10
15.0334082976
 20
-23.6269333572
 10
15.0192758201
 20
-23.6183870777
  0
LWPOLYLINE
  5
2B1
100
AcDbEntity
  8
RACCORDO
100
AcDbPolyline
 62
7
  6
CONTINUOUS
 90
11
 70
0
 10
0.3443283609
 20
-22.3428985966
 10
0.3228391028
 20
-22.3416811377
 10
0.3013840539
 20
-22.3395347019
 10
0.280003613
 20
-22.3364584231
 10
0.2587155886
 20
-22.3324483641
 10
0.2375839789
 20
-22.327510088
 10
0.2167166033
 20
-22.3216684745
 10
0.1961677992
 20
-22.3149442037
 10
0.1759580072
 20
-22.3073494616
 10
0.1561400412
 20
-22.2989097556
 10
0.1382904259
 20
-22.2904211997
  0
LWPOLYLINE
  5
2B2
100
AcDbEntity
  8
RACCORDO
100
AcDbPolyline
 62
253
  6
CONTINUOUS
 90
13
 70
0
 10
-19.7950225543
 20
-23.7875449653
 10
-19.7974204972
 20
-23.759440248
 10
-19.8040074618
 20
-23.7318110897
 10
-19.8146719904
 20
-23.7051250025
 10
-19.8292336287
 20
-23.6798335406
 10
-19.8474459799
 20
-23.6563646601
 10
-19.8690008733
 20
-23.6351154771
 10
-19.8935335793
 20
-23.6164455483
 10
-19.9206289809
 20
-23.600670787
 10
-19.9498285976
 20
-23.5880581173
 10
-19.9806383437
 20
-23.5788209577
 10
-20.0125368886
 20
-23.5731156101
 10
-20.0449844781
 20
-23.5710386143
  0
LWPOLYLINE
  5
2B3
100
AcDbEntity
  8
RACCORDO
100
AcDbPolyline
 62
253
  6
CONTINUOUS
 90
13
 70
0
 10
-19.7819312556
 20
-23.3545322633
 10
-19.7843291967
 20
-23.3264275571
 10
-19.7909161573
 20
-23.2987984059
 10
-19.8015806812
 20
-23.2721123218
 10
-19.8161423166
 20
-23.2468208583
 10
-19.8343546675
 20
-23.2233519731
 10
-19.8559095619
 20
-23.2021027859
 10
-19.8804422687
 20
-23.183432854
 10
-19.9075376718
 20
-23.16765809
 10
-19.9367372906
 20
-23.1550454181
 10
-19.9675470393
 20
-23.145808257
 10
-19.999445587
 20
-23.1401029084
 10
-20.0318931794
 20
-23.1380259124
  0
LINE
  5
2B4
100
AcDbEntity
  8
RACCORDO
100
AcDbLine
 62
253
  6
CONTINUOUS
 10
-22.5153298465
 20
21.3413486938
 11
-22.513321424
 21
21.2601105694
  0
LINE
  5
2B5
100
AcDbEntity
  8
RACCORDO
100
AcDbLine
 62
253
  6
CONTINUOUS
 10
-22.0175826216
 20
21.8651822541
 11
-22.0154032985
 21
21.7688192385
  0
LINE
  5
2B6
100
AcDbEntity
  8
RACCORDO
100
AcDbLine
 62
253
  6
CONTINUOUS
 10
-22.513321424
 20
21.2601105694
 11
-22.5115339081
 21
21.1635120494
  0
LINE
  5
2B7
100
AcDbEntity
  8
RACCORDO
100
AcDbLine
 62
253
  6
CONTINUOUS
 10
-22.0154032985
 20
21.7688192385
 11
-22.0133965894
 21
21.6470828806
  0
LINE
  5
2B8
100
AcDbEntity
  8
RACCORDO
100
AcDbLine
 62
253
  6
CONTINUOUS
 10
-22.0133965894
 20
21.6470828806
 11
-22.0116107081
 21
21.5024770448
  0
LINE
  5
2B9
100
AcDbEntity
  8
RACCORDO
100
AcDbLine
 62
253
  6
CONTINUOUS
 10
-22.5115339081
 20
21.1635120494
 11
-22.5093398986
 21
20.9942353186
  0
LINE
  5
2BA
100
AcDbEntity
  8
RACCORDO
100
AcDbLine
 62
253
  6
CONTINUOUS
 10
-22.0116107081
 20
21.5024770448
 11
-22.009418063
 21
21.2488239767
  0
LINE
  5
2BB
100
AcDbEntity
  8
RACCORDO
100
AcDbLine
 62
253
  6
CONTINUOUS
 10
-21.8832901338
 20
-23.0069436085
 11
-21.8837502834
 21
-22.9505108399
  0
LINE
  5
2BC
100
AcDbEntity
  8
RACCORDO
100
AcDbLine
 62
253
  6
CONTINUOUS
 10
-22.009418063
 20
21.2488239767
 11
-22.0078924307
 21
20.9613283057
  0
LINE
  5
2BD
100
AcDbEntity
  8
RACCORDO
100
AcDbLine
 62
253
  6
CONTINUOUS
 10
-22.1336413385
 20
-23.0091610532
 11
-22.1329561963
 21
-23.1331912739
  0
LINE
  5
2BE
100
AcDbEntity
  8
RACCORDO
100
AcDbLine
 62
253
  6
CONTINUOUS
 10
-22.0078924307
 20
20.9613283057
 11
-22.0071034168
 21
20.6527243817
  0
LINE
  5
2BF
100
AcDbEntity
  8
RACCORDO
100
AcDbLine
 62
253
  6
CONTINUOUS
 10
-22.0071034168
 20
20.6527243817
 11
-22.0041721844
 21
16.0994597864
  0
LINE
  5
2C0
100
AcDbEntity
  8
RACCORDO
100
AcDbLine
 62
253
  6
CONTINUOUS
 10
-22.0041721844
 20
16.0994597864
 11
-22.0020272942
 21
11.6503777269
  0
LINE
  5
2C1
100
AcDbEntity
  8
RACCORDO
100
AcDbLine
 62
253
  6
CONTINUOUS
 10
-22.0020272942
 20
11.6503777269
 11
-22.000573108
 21
7.2005093705
  0
LINE
  5
2C2
100
AcDbEntity
  8
RACCORDO
100
AcDbLine
 62
7
  6
CONTINUOUS
 10
-22.1556725
 20
-22.3428973659
 11
-22.1556725
 21
-24.1932169172
  0
LINE
  5
2C3
100
AcDbEntity
  8
RACCORDO
100
AcDbLine
 62
7
  6
CONTINUOUS
 10
-22.1556725
 20
22.45648257
 11
-22.1556725
 21
24.3068021213
  0
LINE
  5
2C4
100
AcDbEntity
  8
RACCORDO
100
AcDbLine
 62
253
  6
CONTINUOUS
 10
-22.1336413385
 20
-23.0091610532
 11
-22.1337775106
 21
-22.3213124086
  0
LINE
  5
2C5
100
AcDbEntity
  8
RACCORDO
100
AcDbLine
 62
253
  6
CONTINUOUS
 10
-22.1163224457
 20
-24.1538954199
 11
-22.1163224457
 21
-23.7875449653
  0
LINE
  5
2C6
100
AcDbEntity
  8
RACCORDO
100
AcDbLine
 62
253
  6
CONTINUOUS
 10
-22.1163224457
 20
23.9011301693
 11
-22.1163224457
 21
24.2674806239
  0
LINE
  5
2C7
100
AcDbEntity
  8
RACCORDO
100
AcDbLine
 62
253
  6
CONTINUOUS
 10
-22.000573108
 20
7.2005093705
 11
-21.9996869854
 21
0.5242795809
  0
LINE
  5
2C8
100
AcDbEntity
  8
RACCORDO
100
AcDbLine
 62
253
  6
CONTINUOUS
 10
-21.8837502834
 20
-22.9505108399
 11
-21.8838155868
 21
-22.3170248006
  0
LINE
  5
2C9
100
AcDbEntity
  8
RACCORDO
100
AcDbLine
 62
253
  6
CONTINUOUS
 10
-21.8663605219
 20
-24.4038573436
 11
-21.8663605219
 21
-23.5710386143
  0
LINE
  5
2CA
100
AcDbEntity
  8
RACCORDO
100
AcDbLine
 62
253
  6
CONTINUOUS
 10
-21.8663605219
 20
23.6846238184
 11
-21.8663605219
 21
24.5174425477
  0
LINE
  5
2CB
100
AcDbEntity
  8
DRAFT
100
AcDbLine
 62
7
  6
CONTINUOUS
 10
-21.0056725
 20
0.056792602
 11
-21.0056725
 21
-0.043207398
  0
LINE
  5
2CC
100
AcDbEntity
  8
DRAFT
100
AcDbLine
 62
7
  6
CONTINUOUS
 10
-20.9986910058
 20
0.056792602
 11
-20.9986910058
 21
-0.043207398
  0
LINE
  5
2CD
100
AcDbEntity
  8
RACCORDO
100
AcDbLine
 62
253
  6
CONTINUOUS
 10
-22.0187219184
 20
-4.7388016011
 11
-22.0183224074
 21
-0.243327446
  0
LINE
  5
2CE
100
AcDbEntity
  8
RACCORDO
100
AcDbLine
 62
253
  6
CONTINUOUS
 10
-22.0198259539
 20
-9.2334277167
 11
-22.0187219184
 21
-4.7388016011
  0
LINE
  5
2CF
100
AcDbEntity
  8
RACCORDO
100
AcDbLine
 62
253
  6
CONTINUOUS
 10
-22.0216344631
 20
-13.7269456858
 11
-22.0198259539
 21
-9.2334277167
  0
LINE
  5
2D0
100
AcDbEntity
  8
RACCORDO
100
AcDbLine
 62
253
  6
CONTINUOUS
 10
-22.0241472425
 20
-18.2194044351
 11
-22.0216344631
 21
-13.7269456858
  0
LINE
  5
2D1
100
AcDbEntity
  8
RACCORDO
100
AcDbLine
 62
253
  6
CONTINUOUS
 10
-21.8838155868
 20
22.4306100046
 11
-21.8837495569
 21
23.0641810958
  0
LINE
  5
2D2
100
AcDbEntity
  8
RACCORDO
100
AcDbLine
 62
253
  6
CONTINUOUS
 10
-22.0265526294
 20
-20.8788987258
 11
-22.0241472425
 21
-18.2194044351
  0
LINE
  5
2D3
100
AcDbEntity
  8
RACCORDO
100
AcDbLine
 62
253
  6
CONTINUOUS
 10
-22.133478965
 20
23.1647445646
 11
-22.1337775106
 21
22.4348976127
  0
LINE
  5
2D4
100
AcDbEntity
  8
RACCORDO
100
AcDbLine
 62
253
  6
CONTINUOUS
 10
-22.1329587438
 20
23.2464720417
 11
-22.133478965
 21
23.1647445646
  0
LINE
  5
2D5
100
AcDbEntity
  8
RACCORDO
100
AcDbLine
 62
253
  6
CONTINUOUS
 10
-22.0287418745
 20
-21.2552969644
 11
-22.0265526294
 21
-20.8788987258
  0
LWPOLYLINE
  5
2D6
100
AcDbEntity
  8
RACCORDO
100
AcDbPolyline
 62
253
  6
CONTINUOUS
 90
8
 70
0
 10
-21.8837495569
 20
23.0641810958
 10
-21.8832880327
 20
23.1207098877
 10
-21.8828857206
 20
23.1473939019
 10
-21.882373587
 20
23.1725450791
 10
-21.8817720849
 20
23.1958410505
 10
-21.881088032
 20
23.216971415
 10
-21.8803146105
 20
23.2356455528
 10
-21.8794518206
 20
23.2516111165
  0
LINE
  5
2D7
100
AcDbEntity
  8
RACCORDO
100
AcDbLine
 62
253
  6
CONTINUOUS
 10
-22.0311365358
 20
-21.4950001255
 11
-22.0287418745
 21
-21.2552969644
  0
LINE
  5
2D8
100
AcDbEntity
  8
RACCORDO
100
AcDbLine
 62
253
  6
CONTINUOUS
 10
-22.5301931822
 20
-21.0809722079
 11
-22.5279993061
 21
-20.911683903
  0
LINE
  5
2D9
100
AcDbEntity
  8
RACCORDO
100
AcDbLine
 62
253
  6
CONTINUOUS
 10
-22.0330328024
 20
-21.6284963258
 11
-22.0311365358
 21
-21.4950001255
  0
LINE
  5
2DA
100
AcDbEntity
  8
RACCORDO
100
AcDbLine
 62
253
  6
CONTINUOUS
 10
-22.531980711
 20
-21.1775811968
 11
-22.5301931822
 21
-21.0809722079
  0
LWPOLYLINE
  5
2DB
100
AcDbEntity
  8
RACCORDO
100
AcDbPolyline
 62
253
  6
CONTINUOUS
 90
19
 70
0
 10
-21.9996928222
 20
0.5242795809
 10
-22.0001881476
 20
0.5025328189
 10
-22.001931604
 20
0.4802988648
 10
-22.0049231914
 20
0.4577161571
 10
-22.0091452323
 20
0.4348891506
 10
-22.0146154043
 20
0.4120522871
 10
-22.0213867392
 20
0.3895545577
 10
-22.0294793946
 20
0.367631812
 10
-22.0388732129
 20
0.346447753
 10
-22.0495607536
 20
0.3262407142
 10
-22.0615911276
 20
0.3072545665
 10
-22.0749152238
 20
0.2896773851
 10
-22.0893782685
 20
0.2736820616
 10
-22.1050597247
 20
0.2594736972
 10
-22.1218801293
 20
0.2473373166
 10
-22.1394463194
 20
0.2375458904
 10
-22.1576272407
 20
0.2302942279
 10
-22.1765539474
 20
0.2257332637
 10
-22.1962264395
 20
0.2240105118
  0
LWPOLYLINE
  5
2DC
100
AcDbEntity
  8
RACCORDO
100
AcDbPolyline
 62
253
  6
CONTINUOUS
 90
13
 70
0
 10
-19.7819312556
 20
23.4681174674
 10
-19.7843291821
 20
23.440012852
 10
-19.7909161091
 20
23.4123837619
 10
-19.8015805931
 20
23.3856977077
 10
-19.8161421986
 20
23.3604062383
 10
-19.8343545384
 20
23.3369373228
 10
-19.8559094323
 20
23.3156881025
 10
-19.880442145
 20
23.297018141
 10
-19.9075375648
 20
23.2812433483
 10
-19.9367372062
 20
23.2686306532
 10
-19.9675469805
 20
23.2593934753
 10
-19.9994455568
 20
23.2536881163
 10
-20.0318931794
 20
23.2516111165
  0
LWPOLYLINE
  5
2DD
100
AcDbEntity
  8
RACCORDO
100
AcDbPolyline
 62
253
  6
CONTINUOUS
 90
13
 70
0
 10
-19.7950225543
 20
23.9011301693
 10
-19.7974300973
 20
23.8729659624
 10
-19.8040427824
 20
23.8452852038
 10
-19.8147460721
 20
23.8185577255
 10
-19.8293546529
 20
23.7932388845
 10
-19.8476193283
 20
23.7697551607
 10
-19.8692343948
 20
23.7484986782
 10
-19.8938561023
 20
23.7298159324
 10
-19.9210494147
 20
23.7140444509
 10
-19.950282842
 20
23.7014783795
 10
-19.981024907
 20
23.692314336
 10
-20.0127711867
 20
23.6866725745
 10
-20.0449844781
 20
23.6846238184
  0
LINE
  5
2DE
100
AcDbEntity
  8
RACCORDO
100
AcDbLine
 62
7
  6
CONTINUOUS
 10
-7.1056725
 20
23.856792602
 11
-7.1145523489
 21
23.8479127531
  0
LINE
  5
2DF
100
AcDbEntity
  8
RACCORDO
100
AcDbLine
 62
7
  6
CONTINUOUS
 10
-7.1056725
 20
22.456792602
 11
-7.1145523489
 21
22.4479127531
  0
LWPOLYLINE
  5
2E0
100
AcDbEntity
  8
RACCORDO
100
AcDbPolyline
 62
7
  6
CONTINUOUS
 90
11
 70
0
 10
0.1382904259
 20
22.4040064038
 10
0.1561400412
 20
22.4124949597
 10
0.1759580072
 20
22.4209346657
 10
0.1961677992
 20
22.4285294078
 10
0.2167166033
 20
22.4352536785
 10
0.2375839789
 20
22.4410952921
 10
0.2587155886
 20
22.4460335682
 10
0.280003613
 20
22.4500436271
 10
0.3013840539
 20
22.453119906
 10
0.3228391028
 20
22.4552663418
 10
0.3443283609
 20
22.4564838007
  0
LINE
  5
2E1
100
AcDbEntity
  8
RACCORDO
100
AcDbLine
 62
253
  6
CONTINUOUS
 10
21.8518197933
 20
-20.4984572311
 11
21.8190441633
 21
-20.4998691802
  0
LINE
  5
2E2
100
AcDbEntity
  8
RACCORDO
100
AcDbLine
 62
253
  6
CONTINUOUS
 10
21.8190441633
 20
-20.4998691802
 11
21.7832399539
 21
-20.5011504457
  0
LINE
  5
2E3
100
AcDbEntity
  8
RACCORDO
100
AcDbLine
 62
253
  6
CONTINUOUS
 10
21.7832399539
 20
-20.5011504457
 11
21.7447242591
 21
-20.5022896804
  0
LINE
  5
2E4
100
AcDbEntity
  8
RACCORDO
100
AcDbLine
 62
253
  6
CONTINUOUS
 10
21.7447242591
 20
-20.5022896804
 11
21.7038381871
 21
-20.5032767949
  0
LINE
  5
2E5
100
AcDbEntity
  8
RACCORDO
100
AcDbLine
 62
253
  6
CONTINUOUS
 10
21.7038381871
 20
-20.5032767949
 11
21.6609438386
 21
-20.5041030468
  0
LINE
  5
2E6
100
AcDbEntity
  8
RACCORDO
100
AcDbLine
 62
253
  6
CONTINUOUS
 10
21.6609438386
 20
-20.5041030468
 11
21.5936718383
 21
-20.5050252061
  0
LINE
  5
2E7
100
AcDbEntity
  8
RACCORDO
100
AcDbLine
 62
253
  6
CONTINUOUS
 10
21.5936718383
 20
-20.5050252061
 11
21.5240786189
 21
-20.5055509508
  0
LINE
  5
2E8
100
AcDbEntity
  8
RACCORDO
100
AcDbLine
 62
253
  6
CONTINUOUS
 10
-0.8828597876
 20
-20.4645848511
 11
-0.9856772538
 21
-20.4650970186
  0
LINE
  5
2E9
100
AcDbEntity
  8
RACCORDO
100
AcDbLine
 62
253
  6
CONTINUOUS
 10
0.4950515378
 20
-21.9419326199
 11
21.4936034622
 21
-21.9419326199
  0
LINE
  5
2EA
100
AcDbEntity
  8
RACCORDO
100
AcDbLine
 62
253
  6
CONTINUOUS
 10
-0.9691504249
 20
-21.9014760307
 11
-22.0421945751
 21
-21.9014760307
  0
LINE
  5
2EB
100
AcDbEntity
  8
DRAFT
100
AcDbLine
 62
7
  6
CONTINUOUS
 10
-0.3556725
 20
-21.243207398
 11
-0.1556725
 21
-21.243207398
  0
LINE
  5
2EC
100
AcDbEntity
  8
ASSI
100
AcDbLine
 62
7
  6
CONTINUOUS
 10
-0.3556725
 20
-21.243207398
 11
-0.1556725
 21
-21.243207398
  0
LINE
  5
2ED
100
AcDbEntity
  8
DRAFT
100
AcDbLine
 62
7
  6
CONTINUOUS
 10
-0.3556725
 20
-21.0948393461
 11
-0.1556725
 21
-21.0948393461
  0
LINE
  5
2EE
100
AcDbEntity
  8
ASSI
100
AcDbLine
 62
7
  6
CONTINUOUS
 10
-0.3556725
 20
-21.0948393461
 11
-0.1556725
 21
-21.0948393461
  0
LINE
  5
2EF
100
AcDbEntity
  8
DRAFT
100
AcDbLine
 62
7
  6
CONTINUOUS
 10
-0.3853461104
 20
-20.743207398
 11
-0.416145539
 21
-20.743207398
  0
LINE
  5
2F0
100
AcDbEntity
  8
DRAFT
100
AcDbLine
 62
7
  6
CONTINUOUS
 10
-22.595199461
 20
-20.743207398
 11
-22.6259988896
 21
-20.743207398
  0
LINE
  5
2F1
100
AcDbEntity
  8
DRAFT
100
AcDbLine
 62
7
  6
CONTINUOUS
 10
-22.6056725
 20
-20.6213938475
 11
-22.595199461
 21
-20.6213938475
  0
LINE
  5
2F2
100
AcDbEntity
  8
DRAFT
100
AcDbLine
 62
7
  6
CONTINUOUS
 10
-0.4056725
 20
-20.6213938475
 11
-0.416145539
 21
-20.6213938475
  0
LINE
  5
2F3
100
AcDbEntity
  8
RACCORDO
100
AcDbLine
 62
253
  6
CONTINUOUS
 10
0.5115783085
 20
-20.5056757228
 11
21.5240786189
 21
-20.5055509508
  0
LINE
  5
2F4
100
AcDbEntity
  8
RACCORDO
100
AcDbLine
 62
253
  6
CONTINUOUS
 10
0.4412055887
 20
-20.5054205666
 11
0.5115783085
 21
-20.5056757228
  0
LINE
  5
2F5
100
AcDbEntity
  8
RACCORDO
100
AcDbLine
 62
253
  6
CONTINUOUS
 10
0.3722338754
 20
-20.5047611248
 11
0.4412055887
 21
-20.5054205666
  0
LINE
  5
2F6
100
AcDbEntity
  8
RACCORDO
100
AcDbLine
 62
253
  6
CONTINUOUS
 10
0.3277111304
 20
-20.5041030527
 11
0.3722338754
 21
-20.5047611248
  0
LINE
  5
2F7
100
AcDbEntity
  8
RACCORDO
100
AcDbLine
 62
253
  6
CONTINUOUS
 10
0.2848167759
 20
-20.5032768004
 11
0.3277111304
 21
-20.5041030527
  0
LINE
  5
2F8
100
AcDbEntity
  8
RACCORDO
100
AcDbLine
 62
253
  6
CONTINUOUS
 10
0.2439306989
 20
-20.5022896856
 11
0.2848167759
 21
-20.5032768004
  0
LINE
  5
2F9
100
AcDbEntity
  8
RACCORDO
100
AcDbLine
 62
253
  6
CONTINUOUS
 10
0.2054150004
 20
-20.5011504504
 11
0.2439306989
 21
-20.5022896856
  0
LINE
  5
2FA
100
AcDbEntity
  8
RACCORDO
100
AcDbLine
 62
253
  6
CONTINUOUS
 10
0.1696107885
 20
-20.4998691843
 11
0.2054150004
 21
-20.5011504504
  0
LWPOLYLINE
  5
2FB
100
AcDbEntity
  8
RACCORDO
100
AcDbPolyline
 62
7
  6
CONTINUOUS
 90
13
 70
0
 10
21.60324284
 20
-22.2711182366
 10
21.6084771819
 20
-22.2715725335
 10
21.613297187
 20
-22.2720157537
 10
21.6176934807
 20
-22.2724478974
 10
21.6216577375
 20
-22.2728608668
 10
21.6251818424
 20
-22.2732627597
 10
21.628258221
 20
-22.2736778686
 10
21.6308810041
 20
-22.274109709
 10
21.6330452249
 20
-22.2745547656
 10
21.6347464773
 20
-22.2750267843
 10
21.6359816941
 20
-22.2755303472
 10
21.6367488673
 20
-22.2760608722
 10
21.6370467511
 20
-22.2766183594
  0
LINE
  5
2FC
100
AcDbEntity
  8
RACCORDO
100
AcDbLine
 62
7
  6
CONTINUOUS
 10
-7.1056725
 20
-23.743207398
 11
-7.1145523489
 21
-23.7343275491
  0
LINE
  5
2FD
100
AcDbEntity
  8
RACCORDO
100
AcDbLine
 62
7
  6
CONTINUOUS
 10
-7.1056725
 20
-22.343207398
 11
-7.1145523489
 21
-22.3343275491
  0
LWPOLYLINE
  5
2FE
100
AcDbEntity
  8
RACCORDO
100
AcDbPolyline
 62
253
  6
CONTINUOUS
 90
13
 70
0
 10
-22.1294137444
 20
23.4681174674
 10
-22.1270158176
 20
23.4400128498
 10
-22.1204288897
 20
23.412383758
 10
-22.1097644047
 20
23.3856977029
 10
-22.0952027983
 20
23.3604062334
 10
-22.0769904578
 20
23.3369373183
 10
-22.0554355636
 20
23.3156880987
 10
-22.030902851
 20
23.2970181381
 10
-22.0038074318
 20
23.2812433464
 10
-21.9746077911
 20
23.268630652
 10
-21.9437980176
 20
23.2593934747
 10
-21.9118994422
 20
23.2536881161
 10
-21.8794518206
 20
23.2516111165
  0
LWPOLYLINE
  5
2FF
100
AcDbEntity
  8
RACCORDO
100
AcDbPolyline
 62
253
  6
CONTINUOUS
 90
13
 70
0
 10
-22.1163224457
 20
23.9011301693
 10
-22.1139548607
 20
23.8732143693
 10
-22.1074361352
 20
23.8457076215
 10
-22.0968498125
 20
23.8190754281
 10
-22.0823377855
 20
23.7937562899
 10
-22.0641280935
 20
23.7702078518
 10
-22.0425566736
 20
23.748884999
 10
-22.0180079932
 20
23.7301620326
 10
-21.9908851449
 20
23.7143413506
 10
-21.9616496262
 20
23.7016918679
 10
-21.9307982612
 20
23.6924280061
 10
-21.8988544902
 20
23.6867064273
 10
-21.8663605219
 20
23.6846238184
  0
LWPOLYLINE
  5
300
100
AcDbEntity
  8
RACCORDO
100
AcDbPolyline
 62
253
  6
CONTINUOUS
 90
13
 70
0
 10
-19.7950225543
 20
24.2674806239
 10
-19.7971701209
 20
24.3001009132
 10
-19.8035562179
 20
24.3321632765
 10
-19.8140716198
 20
24.3631193302
 10
-19.8285364749
 20
24.3924396127
 10
-19.8467033812
 20
24.4196226402
 10
-19.8682616184
 20
24.4442034836
 10
-19.8928424618
 20
24.4657617208
 10
-19.9200254893
 20
24.4839286272
 10
-19.9493457719
 20
24.4983934822
 10
-19.9803018256
 20
24.5089088841
 10
-20.0123641888
 20
24.5152949812
 10
-20.0449844781
 20
24.5174425477
  0
LWPOLYLINE
  5
301
100
AcDbEntity
  8
RACCORDO
100
AcDbPolyline
 62
7
  6
CONTINUOUS
 90
13
 70
0
 10
-19.7556725
 20
24.3068306783
 10
-19.7578122743
 20
24.3394527683
 10
-19.764191024
 20
24.3715180061
 10
-19.774700388
 20
24.4024780036
 10
-19.7891616611
 20
24.4318037282
 10
-19.8073280163
 20
24.4589925147
 10
-19.8288879196
 20
24.4835771824
 10
-19.8534725873
 20
24.5051370857
 10
-19.8806613738
 20
24.523303441
 10
-19.9099870984
 20
24.5377647141
 10
-19.9409470959
 20
24.548274078
 10
-19.9730123338
 20
24.5546528278
 10
-20.0056344238
 20
24.556792602
  0
LINE
  5
302
100
AcDbEntity
  8
RACCORDO
100
AcDbLine
 62
253
  6
CONTINUOUS
 10
-20.0449844781
 20
23.6846238184
 11
-20.0318931794
 21
23.2516111165
  0
LINE
  5
303
100
AcDbEntity
  8
RACCORDO
100
AcDbLine
 62
253
  6
CONTINUOUS
 10
-19.7812788826
 20
23.444135277
 11
-19.7950225543
 21
23.9011301693
  0
LINE
  5
304
100
AcDbEntity
  8
RACCORDO
100
AcDbLine
 62
253
  6
CONTINUOUS
 10
-19.7801177578
 20
23.3883143889
 11
-19.7812788826
 21
23.444135277
  0
LWPOLYLINE
  5
305
100
AcDbEntity
  8
RACCORDO
100
AcDbPolyline
 62
253
  6
CONTINUOUS
 90
7
 70
0
 10
-20.0280569674
 20
23.1207099295
 10
-20.0284592801
 20
23.1473939447
 10
-20.0289714144
 20
23.1725451174
 10
-20.0295729168
 20
23.1958410811
 10
-20.0302569695
 20
23.216971436
 10
-20.0310303904
 20
23.2356455631
 10
-20.0318931794
 20
23.2516111165
  0
LINE
  5
306
100
AcDbEntity
  8
RACCORDO
100
AcDbLine
 62
253
  6
CONTINUOUS
 10
-19.7791420039
 20
23.3215185355
 11
-19.7801177578
 21
23.3883143889
  0
LINE
  5
307
100
AcDbEntity
  8
RACCORDO
100
AcDbLine
 62
253
  6
CONTINUOUS
 10
-19.7780944486
 20
23.2061328924
 11
-19.7791420039
 21
23.3215185355
  0
LINE
  5
308
100
AcDbEntity
  8
RACCORDO
100
AcDbLine
 62
253
  6
CONTINUOUS
 10
-20.0275954429
 20
23.0641811159
 11
-20.0280569674
 21
23.1207099295
  0
LINE
  5
309
100
AcDbEntity
  8
RACCORDO
100
AcDbLine
 62
253
  6
CONTINUOUS
 10
-19.7776036107
 20
23.0793672085
 11
-19.7780944486
 21
23.2061328924
  0
LINE
  5
30A
100
AcDbEntity
  8
RACCORDO
100
AcDbLine
 62
253
  6
CONTINUOUS
 10
-20.0449844781
 20
-23.5710386143
 11
-20.0449844781
 21
-24.4038573436
  0
LINE
  5
30B
100
AcDbEntity
  8
RACCORDO
100
AcDbLine
 62
253
  6
CONTINUOUS
 10
-20.0449844781
 20
23.6846238184
 11
-20.0449844781
 21
24.5174425477
  0
LINE
  5
30C
100
AcDbEntity
  8
RACCORDO
100
AcDbLine
 62
253
  6
CONTINUOUS
 10
-20.0275954429
 20
23.0641811159
 11
-20.0275294132
 21
22.4306100046
  0
LINE
  5
30D
100
AcDbEntity
  8
DRAFT
100
AcDbLine
 62
7
  6
CONTINUOUS
 10
-19.8626539942
 20
0.056792602
 11
-19.8626539942
 21
-0.043207398
  0
LINE
  5
30E
100
AcDbEntity
  8
DRAFT
100
AcDbLine
 62
7
  6
CONTINUOUS
 10
-19.8556725
 20
-0.043207398
 11
-19.8556725
 21
0.056792602
  0
LINE
  5
30F
100
AcDbEntity
  8
RACCORDO
100
AcDbLine
 62
253
  6
CONTINUOUS
 10
-19.7950225543
 20
24.2674806239
 11
-19.7950225543
 21
23.9011301693
  0
LINE
  5
310
100
AcDbEntity
  8
RACCORDO
100
AcDbLine
 62
253
  6
CONTINUOUS
 10
-19.7950225543
 20
-23.7875449653
 11
-19.7950225543
 21
-24.1538954199
  0
LINE
  5
311
100
AcDbEntity
  8
RACCORDO
100
AcDbLine
 62
253
  6
CONTINUOUS
 10
-19.7776036107
 20
23.0793672085
 11
-19.7775674894
 21
22.4348976127
  0
LINE
  5
312
100
AcDbEntity
  8
RACCORDO
100
AcDbLine
 62
7
  6
CONTINUOUS
 10
-19.7556725
 20
-24.1932169172
 11
-19.7556725
 21
-22.343207398
  0
LINE
  5
313
100
AcDbEntity
  8
RACCORDO
100
AcDbLine
 62
7
  6
CONTINUOUS
 10
-19.7556725
 20
22.456792602
 11
-19.7556725
 21
24.3068021213
  0
LINE
  5
314
100
AcDbEntity
  8
RACCORDO
100
AcDbLine
 62
253
  6
CONTINUOUS
 10
-20.0275947167
 20
-22.9505108225
 11
-20.0275294132
 21
-22.3170248006
  0
LINE
  5
315
100
AcDbEntity
  8
RACCORDO
100
AcDbLine
 62
253
  6
CONTINUOUS
 10
-19.7778670284
 20
-23.0513846551
 11
-19.7775674894
 21
-22.3213124086
  0
LINE
  5
316
100
AcDbEntity
  8
RACCORDO
100
AcDbLine
 62
253
  6
CONTINUOUS
 10
-19.7787382512
 20
-23.1716668918
 11
-19.7778670284
 21
-23.0513846551
  0
LINE
  5
317
100
AcDbEntity
  8
RACCORDO
100
AcDbLine
 62
253
  6
CONTINUOUS
 10
-19.7796092147
 20
-23.2428619067
 11
-19.7787382512
 21
-23.1716668918
  0
LWPOLYLINE
  5
318
100
AcDbEntity
  8
RACCORDO
100
AcDbPolyline
 62
253
  6
CONTINUOUS
 90
3
 70
0
 10
-19.7812801531
 20
-23.3306056937
 10
-19.7806766247
 20
-23.3040587271
 10
-19.7796092147
 20
-23.2428619067
  0
LINE
  5
319
100
AcDbEntity
  8
RACCORDO
100
AcDbLine
 62
253
  6
CONTINUOUS
 10
-20.0318931794
 20
-23.1380259124
 11
-20.0449844781
 21
-23.5710386143
  0
LINE
  5
31A
100
AcDbEntity
  8
RACCORDO
100
AcDbLine
 62
253
  6
CONTINUOUS
 10
-19.7812801531
 20
-23.3306056937
 11
-19.7950225543
 21
-23.7875449653
  0
LWPOLYLINE
  5
31B
100
AcDbEntity
  8
RACCORDO
100
AcDbPolyline
 62
7
  6
CONTINUOUS
 90
25
 70
0
 10
-17.5056725
 20
13.556809456
 10
-17.5045654933
 20
13.5897307984
 10
-17.5013664357
 20
13.6222362294
 10
-17.4960753273
 20
13.654325751
 10
-17.4886519946
 20
13.6861325861
 10
-17.4791366109
 20
13.7175235154
 10
-17.4676496964
 20
13.7480988798
 10
-17.4541660087
 20
13.7778485005
 10
-17.43871079
 20
13.8067825642
 10
-17.4214802871
 20
13.8345319635
 10
-17.4024517553
 20
13.8610816199
 10
-17.3816479392
 20
13.8864466225
 10
-17.3593333196
 20
13.9103031175
 10
-17.3354882973
 20
13.9326319756
 10
-17.3101324715
 20
13.9534523376
 10
-17.2835891204
 20
13.9724977577
 10
-17.2558429056
 20
13.9897454285
 10
-17.2269091655
 20
14.0052181681
 10
-17.1971571924
 20
14.018717969
 10
-17.1665763611
 20
14.0302194481
 10
-17.1351772968
 20
14.0397479968
 10
-17.1033611677
 20
14.0471817692
 10
-17.0712616965
 20
14.0524801516
 10
-17.0387451606
 20
14.0556837622
 10
-17.0058115599
 20
14.056792602
  0
LWPOLYLINE
  5
31C
100
AcDbEntity
  8
RACCORDO
100
AcDbPolyline
 62
253
  6
CONTINUOUS
 90
8
 70
0
 10
-20.0318931794
 20
-23.1380259124
 10
-20.0310284176
 20
-23.1220091482
 10
-20.030253673
 20
-23.1032832468
 10
-20.0295689455
 20
-23.0821080858
 10
-20.0289676251
 20
-23.0587808588
 10
-20.0284563219
 20
-23.0336172837
 10
-20.028054866
 20
-23.0069435704
 10
-20.0275947167
 20
-22.9505108225
  0
LWPOLYLINE
  5
31D
100
AcDbEntity
  8
RACCORDO
100
AcDbPolyline
 62
7
  6
CONTINUOUS
 90
13
 70
0
 10
-19.7556725
 20
-24.1932454742
 10
-19.7578122743
 20
-24.2258675642
 10
-19.764191024
 20
-24.257932802
 10
-19.774700388
 20
-24.2888927996
 10
-19.7891616611
 20
-24.3182185241
 10
-19.8073280163
 20
-24.3454073106
 10
-19.8288879196
 20
-24.3699919783
 10
-19.8534725873
 20
-24.3915518817
 10
-19.8806613738
 20
-24.4097182369
 10
-19.9099870984
 20
-24.42417951
 10
-19.9409470959
 20
-24.4346888739
 10
-19.9730123338
 20
-24.4410676237
 10
-20.0056344238
 20
-24.443207398
  0
LWPOLYLINE
  5
31E
100
AcDbEntity
  8
RACCORDO
100
AcDbPolyline
 62
253
  6
CONTINUOUS
 90
13
 70
0
 10
-19.7950225543
 20
-24.1538954199
 10
-19.7971874259
 20
-24.1866466099
 10
-19.8036270545
 20
-24.2188416165
 10
-19.8142337335
 20
-24.249924367
 10
-19.828829061
 20
-24.2793596712
 10
-19.8471633055
 20
-24.3066348738
 10
-19.8689165268
 20
-24.3312707714
 10
-19.8937678558
 20
-24.3528832745
 10
-19.9212439187
 20
-24.3710425333
 10
-19.9506683811
 20
-24.3853519793
 10
-19.9814310103
 20
-24.3956237003
 10
-20.0130500559
 20
-24.4017992992
 10
-20.0449844781
 20
-24.4038573436
  0
LWPOLYLINE
  5
31F
100
AcDbEntity
  8
RACCORDO
100
AcDbPolyline
 62
253
  6
CONTINUOUS
 90
13
 70
0
 10
-22.1294137444
 20
-23.3545322633
 10
-22.1270158037
 20
-23.3264275597
 10
-22.120428844
 20
-23.2987984103
 10
-22.1097643212
 20
-23.2721123269
 10
-22.0952026864
 20
-23.2468208631
 10
-22.0769903355
 20
-23.223351977
 10
-22.055435441
 20
-23.2021027887
 10
-22.030902734
 20
-23.1834328561
 10
-22.0038073305
 20
-23.1676580915
 10
-21.9746077113
 20
-23.155045419
 10
-21.9437979621
 20
-23.1458082575
 10
-21.9118994137
 20
-23.1401029086
 10
-21.8794518206
 20
-23.1380259124
  0
LWPOLYLINE
  5
320
100
AcDbEntity
  8
RACCORDO
100
AcDbPolyline
 62
253
  6
CONTINUOUS
 90
13
 70
0
 10
-22.1163224457
 20
-23.7875449653
 10
-22.1139149027
 20
-23.7593807583
 10
-22.1073022176
 20
-23.7316999998
 10
-22.0965989279
 20
-23.7049725214
 10
-22.0819903471
 20
-23.6796536804
 10
-22.0637256717
 20
-23.6561699566
 10
-22.0421106052
 20
-23.6349134741
 10
-22.0174888977
 20
-23.6162307283
 10
-21.9902955853
 20
-23.6004592468
 10
-21.961062158
 20
-23.5878931754
 10
-21.930320093
 20
-23.5787291319
 10
-21.8985738133
 20
-23.5730873705
 10
-21.8663605219
 20
-23.5710386143
  0
LWPOLYLINE
  5
321
100
AcDbEntity
  8
RACCORDO
100
AcDbPolyline
 62
253
  6
CONTINUOUS
 90
8
 70
0
 10
-22.0421945751
 20
-21.9014760307
 10
-22.0409613178
 20
-21.8922488391
 10
-22.039750616
 20
-21.8756543239
 10
-22.0385624698
 20
-21.8517765394
 10
-22.0373913406
 20
-21.8207375623
 10
-22.036242767
 20
-21.7826916141
 10
-22.0351333647
 20
-21.7378202183
 10
-22.0330328024
 20
-21.6284963258
  0
LWPOLYLINE
  5
322
100
AcDbEntity
  8
RACCORDO
100
AcDbPolyline
 62
253
  6
CONTINUOUS
 90
9
 70
0
 10
-22.5421184227
 20
-21.4021612633
 10
-22.5408886534
 20
-21.3959253122
 10
-22.539680253
 20
-21.3849166697
 10
-22.5384932214
 20
-21.3691353359
 10
-22.5373215981
 20
-21.3484568521
 10
-22.5361713436
 20
-21.323005677
 10
-22.5350603394
 20
-21.2931551864
 10
-22.5339893711
 20
-21.2588351461
 10
-22.531980711
 20
-21.1775811968
  0
LINE
  5
323
100
AcDbEntity
  8
RACCORDO
100
AcDbLine
 62
253
  6
CONTINUOUS
 10
-1.1056344238
 20
24.556792602
 11
-1.1449844781
 21
24.5174425477
  0
LINE
  5
324
100
AcDbEntity
  8
RACCORDO
100
AcDbLine
 62
7
  6
CONTINUOUS
 10
0.1383130906
 20
22.404017736
 11
0.120810498
 21
22.3952671062
  0
LINE
  5
325
100
AcDbEntity
  8
RACCORDO
100
AcDbLine
 62
253
  6
CONTINUOUS
 10
-0.1382555976
 20
21.9566783306
 11
-0.1556725
 21
21.9479705426
  0
LINE
  5
326
100
AcDbEntity
  8
DRAFT
100
AcDbLine
 62
7
  6
CONTINUOUS
 10
-0.3556725
 20
-17.8690290217
 11
-0.1556725
 21
-17.8690290217
  0
LINE
  5
327
100
AcDbEntity
  8
ASSI
100
AcDbLine
 62
7
  6
CONTINUOUS
 10
-0.3556725
 20
-17.8690290217
 11
-0.1556725
 21
-17.8690290217
  0
LINE
  5
328
100
AcDbEntity
  8
RACCORDO
100
AcDbLine
 62
7
  6
CONTINUOUS
 10
-0.1556725
 20
-17.6447256729
 11
-0.3556725
 21
-17.6447256729
  0
LINE
  5
329
100
AcDbEntity
  8
ASSI
100
AcDbLine
 62
7
  6
CONTINUOUS
 10
-0.1556725
 20
-17.6447256729
 11
-0.3556725
 21
-17.6447256729
  0
LINE
  5
32A
100
AcDbEntity
  8
RACCORDO
100
AcDbLine
 62
7
  6
CONTINUOUS
 10
0.120810498
 20
-22.2816819021
 11
0.1383130906
 21
-22.2904325319
  0
LINE
  5
32B
100
AcDbEntity
  8
RACCORDO
100
AcDbLine
 62
253
  6
CONTINUOUS
 10
-0.1556725
 20
-21.8343853386
 11
-0.1382555976
 21
-21.8430931265
  0
LWPOLYLINE
  5
32C
100
AcDbEntity
  8
RACCORDO
100
AcDbPolyline
 62
7
  6
CONTINUOUS
 90
27
 70
0
 10
0.1382904259
 20
-22.2904211997
 10
0.1178695992
 20
-22.2796135216
 10
0.0993889102
 20
-22.268752949
 10
0.081357685
 20
-22.2570881918
 10
0.0638232837
 20
-22.2446449599
 10
0.0467947017
 20
-22.231423091
 10
0.03028242
 20
-22.2174184749
 10
0.014349812
 20
-22.2026721332
 10
-0.0009194627
 20
-22.1872575146
 10
-0.0154950356
 20
-22.171208057
 10
-0.0293538674
 20
-22.1545520321
 10
-0.0424373316
 20
-22.1373683105
 10
-0.054723422
 20
-22.1197017844
 10
-0.0662023472
 20
-22.1015834375
 10
-0.0768456639
 20
-22.0830787413
 10
-0.0866372805
 20
-22.0642440351
 10
-0.0955803473
 20
-22.0451037624
 10
-0.1036788933
 20
-22.0256761502
 10
-0.1109268104
 20
-22.0060020793
 10
-0.1173217798
 20
-21.9861169345
 10
-0.1228697025
 20
-21.9660279377
 10
-0.1275681234
 20
-21.9457644004
 10
-0.1314125641
 20
-21.9253696619
 10
-0.1344033067
 20
-21.9048703997
 10
-0.1365400827
 20
-21.8842992598
 10
-0.1378233618
 20
-21.8636950408
 10
-0.1382555976
 20
-21.8430931265
  0
LINE
  5
32D
100
AcDbEntity
  8
RACCORDO
100
AcDbLine
 62
253
  6
CONTINUOUS
 10
-1.1449844781
 20
-24.4038573436
 11
-1.1056344238
 21
-24.443207398
  0
LWPOLYLINE
  5
32E
100
AcDbEntity
  8
RACCORDO
100
AcDbPolyline
 62
253
  6
CONTINUOUS
 90
8
 70
0
 10
-22.5234584876
 20
21.4846601466
 10
-22.5222286686
 20
21.478423018
 10
-22.5210202568
 20
21.467414195
 10
-22.5198332521
 20
21.4516336777
 10
-22.5186617046
 20
21.4309568149
 10
-22.5175115643
 20
21.4055082577
 10
-22.5164006811
 20
21.3756619592
 10
-22.5153298465
 20
21.3413486938
  0
LWPOLYLINE
  5
32F
100
AcDbEntity
  8
RACCORDO
100
AcDbPolyline
 62
253
  6
CONTINUOUS
 90
6
 70
0
 10
-22.02353464
 20
21.983974914
 10
-22.0223013478
 20
21.9747473214
 10
-22.0210906085
 20
21.958151874
 10
-22.0199024222
 20
21.9342725544
 10
-22.0187312454
 20
21.9032312719
 10
-22.0175826216
 20
21.8651822541
  0
LINE
  5
330
100
AcDbEntity
  8
RACCORDO
100
AcDbLine
 62
7
  6
CONTINUOUS
 10
-17.5056725
 20
13.556809456
 11
-17.5056725
 21
10.056775746
  0
LINE
  5
331
100
AcDbEntity
  8
RACCORDO
100
AcDbLine
 62
253
  6
CONTINUOUS
 10
-17.3056725
 20
13.506792602
 11
-17.3056725
 21
10.006792602
  0
LINE
  5
332
100
AcDbEntity
  8
RACCORDO
100
AcDbLine
 62
253
  6
CONTINUOUS
 10
-17.0056725
 20
13.806792602
 11
-17.0056724991
 21
14.006792602
  0
LINE
  5
333
100
AcDbEntity
  8
RACCORDO
100
AcDbLine
 62
253
  6
CONTINUOUS
 10
-17.0056725
 20
9.706792602
 11
-17.0056725
 21
9.5335875213
  0
LINE
  5
334
100
AcDbEntity
  8
DRAFT
100
AcDbLine
 62
7
  6
CONTINUOUS
 10
-15.9056725
 20
23.856792602
 11
-15.9056725
 21
22.456792602
  0
LINE
  5
335
100
AcDbEntity
  8
DRAFT
100
AcDbLine
 62
7
  6
CONTINUOUS
 10
-15.9056725
 20
-22.343207398
 11
-15.9056725
 21
-23.743207398
  0
LINE
  5
336
100
AcDbEntity
  8
RACCORDO
100
AcDbLine
 62
253
  6
CONTINUOUS
 10
-15.8967926511
 20
23.8479127531
 11
-15.8967926511
 21
22.4479127531
  0
LINE
  5
337
100
AcDbEntity
  8
RACCORDO
100
AcDbLine
 62
253
  6
CONTINUOUS
 10
-15.8967926511
 20
-22.3343275491
 11
-15.8967926511
 21
-23.7343275491
  0
LINE
  5
338
100
AcDbEntity
  8
RACCORDO
100
AcDbLine
 62
253
  6
CONTINUOUS
 10
-0.8556725
 20
24.3068306783
 11
-0.8950225543
 21
24.2674806239
  0
LINE
  5
339
100
AcDbEntity
  8
RACCORDO
100
AcDbLine
 62
7
  6
CONTINUOUS
 10
-0.8775674894
 20
22.4348976127
 11
-0.8558791933
 21
22.4565859088
  0
LINE
  5
33A
100
AcDbEntity
  8
RACCORDO
100
AcDbLine
 62
253
  6
CONTINUOUS
 10
2.4943317308
 20
24.556792602
 11
2.4812331521
 21
24.5436940233
  0
LWPOLYLINE
  5
33B
100
AcDbEntity
  8
RACCORDO
100
AcDbPolyline
 62
7
  6
CONTINUOUS
 90
19
 70
0
 10
-7.043728165
 20
14.0213917641
 10
-7.0409595216
 20
14.0231411565
 10
-7.0382806998
 20
14.0249584437
 10
-7.0356940668
 20
14.0268374468
 10
-7.0331996616
 20
14.0287734222
 10
-7.0307980192
 20
14.0307611844
 10
-7.0284915993
 20
14.032793635
 10
-7.026281143
 20
14.0348646811
 10
-7.0241647092
 20
14.0369706263
 10
-7.0221403361
 20
14.0391080313
 10
-7.0201993578
 20
14.0412814191
 10
-7.0183489491
 20
14.0434780317
 10
-7.0166085505
 20
14.0456669381
 10
-7.0149703579
 20
14.0478481822
 10
-7.0134351362
 20
14.0500108486
 10
-7.0120292087
 20
14.0521036086
 10
-7.0107087712
 20
14.0541782479
 10
-7.0095057073
 20
14.0561709798
 10
-7.0091478237
 20
14.056792602
  0
LINE
  5
33C
100
AcDbEntity
  8
RACCORDO
100
AcDbLine
 62
253
  6
CONTINUOUS
 10
-0.1556725
 20
-17.344737096
 11
-0.3556725
 21
-17.344737096
  0
LINE
  5
33D
100
AcDbEntity
  8
ASSI
100
AcDbLine
 62
253
  6
CONTINUOUS
 10
-0.1556725
 20
-17.344737096
 11
-0.3556725
 21
-17.344737096
  0
LINE
  5
33E
100
AcDbEntity
  8
RACCORDO
100
AcDbLine
 62
253
  6
CONTINUOUS
 10
-0.8950225543
 20
-24.1538954199
 11
-0.8556725
 21
-24.1932454742
  0
LINE
  5
33F
100
AcDbEntity
  8
RACCORDO
100
AcDbLine
 62
7
  6
CONTINUOUS
 10
-0.8775674894
 20
-22.3213124086
 11
-0.8558791933
 21
-22.3430007047
  0
LINE
  5
340
100
AcDbEntity
  8
RACCORDO
100
AcDbLine
 62
253
  6
CONTINUOUS
 10
2.4943317308
 20
-24.443207398
 11
2.4812331521
 21
-24.4301088192
  0
LINE
  5
341
100
AcDbEntity
  8
DRAFT
100
AcDbLine
 62
7
  6
CONTINUOUS
 10
-13.5056725
 20
0.056792602
 11
-13.5007232473
 21
-0.043207398
  0
LINE
  5
342
100
AcDbEntity
  8
RACCORDO
100
AcDbLine
 62
253
  6
CONTINUOUS
 10
-15.3968688035
 20
23.8393375371
 11
-15.3968688035
 21
22.4393375371
  0
LINE
  5
343
100
AcDbEntity
  8
RACCORDO
100
AcDbLine
 62
253
  6
CONTINUOUS
 10
-15.3968688035
 20
-22.325752333
 11
-15.3968688035
 21
-23.725752333
  0
LINE
  5
344
100
AcDbEntity
  8
RACCORDO
100
AcDbLine
 62
253
  6
CONTINUOUS
 10
-22.595199461
 20
-21.5615338783
 11
-22.5421184227
 21
-21.4021612633
  0
LINE
  5
345
100
AcDbEntity
  8
RACCORDO
100
AcDbLine
 62
253
  6
CONTINUOUS
 10
-22.0955800608
 20
-22.0617627304
 11
-22.0421945751
 21
-21.9014760307
  0
LWPOLYLINE
  5
346
100
AcDbEntity
  8
RACCORDO
100
AcDbPolyline
 62
253
  6
CONTINUOUS
 90
16
 70
0
 10
0.0116544609
 20
20.5986984585
 10
0.0126184706
 20
20.5996661531
 10
0.0146878314
 20
20.6006317039
 10
0.0178579591
 20
20.6015929719
 10
0.0221218309
 20
20.6025478277
 10
0.027470001
 20
20.6034941559
 10
0.0338906215
 20
20.6044298601
 10
0.0413694687
 20
20.6053528675
 10
0.0498899747
 20
20.6062611332
 10
0.0594332639
 20
20.6071526453
 10
0.0699781949
 20
20.6080254286
 10
0.0815014075
 20
20.6088775499
 10
0.0939773742
 20
20.6097071212
 10
0.1073784567
 20
20.6105123049
 10
0.1216749676
 20
20.6112913173
 10
0.1368352356
 20
20.6120424325
  0
LINE
  5
347
100
AcDbEntity
  8
RACCORDO
100
AcDbLine
 62
253
  6
CONTINUOUS
 10
2.7443275
 20
24.3067968328
 11
2.7312289213
 21
24.2936982541
  0
LINE
  5
348
100
AcDbEntity
  8
DRAFT
100
AcDbLine
 62
7
  6
CONTINUOUS
 10
-21.1556725
 20
0.156792602
 11
-21.1329826437
 21
0.1794824583
  0
LINE
  5
349
100
AcDbEntity
  8
RACCORDO
100
AcDbLine
 62
253
  6
CONTINUOUS
 10
2.7443275
 20
-24.1932116287
 11
2.7312289213
 21
-24.18011305
  0
LINE
  5
34A
100
AcDbEntity
  8
DRAFT
100
AcDbLine
 62
7
  6
CONTINUOUS
 10
-19.5056725
 20
0.156792602
 11
-19.5283623563
 21
0.1794824583
  0
LWPOLYLINE
  5
34B
100
AcDbEntity
  8
RACCORDO
100
AcDbPolyline
 62
253
  6
CONTINUOUS
 90
17
 70
0
 10
0.0116544609
 20
-20.4851132544
 10
0.0126184605
 20
-20.4860809494
 10
0.0146878119
 20
-20.4870465005
 10
0.0178579309
 20
-20.4880077689
 10
0.0221217946
 20
-20.4889626251
 10
0.0274699573
 20
-20.4899089537
 10
0.0338905712
 20
-20.4908446584
 10
0.0413694125
 20
-20.4917676661
 10
0.0498899133
 20
-20.4926759323
 10
0.059433198
 20
-20.4935674448
 10
0.0699781253
 20
-20.4944402287
 10
0.0815013348
 20
-20.4952923503
 10
0.0939772992
 20
-20.4961219221
 10
0.1073783801
 20
-20.4969271063
 10
0.12167489
 20
-20.4977061191
 10
0.1368351577
 20
-20.4984572347
 10
0.1696107885
 20
-20.4998691843
  0
LINE
  5
34C
100
AcDbEntity
  8
RACCORDO
100
AcDbLine
 62
253
  6
CONTINUOUS
 10
-22.6306725
 20
21.80656375
 11
-22.5234584876
 21
21.4846601466
  0
LINE
  5
34D
100
AcDbEntity
  8
RACCORDO
100
AcDbLine
 62
253
  6
CONTINUOUS
 10
-22.1310530997
 20
22.306792602
 11
-22.02353464
 21
21.983974914
  0
LINE
  5
34E
100
AcDbEntity
  8
DRAFT
100
AcDbLine
 62
7
  6
CONTINUOUS
 10
-12.3056725
 20
0.056792602
 11
-12.3155717592
 21
-0.043207398
  0
LWPOLYLINE
  5
34F
100
AcDbEntity
  8
RACCORDO
100
AcDbPolyline
 62
253
  6
CONTINUOUS
 90
11
 70
0
 10
-7.0780350126
 20
14.056792602
 10
-7.0783689661
 20
14.0561180527
 10
-7.0811095493
 20
14.0501454006
 10
-7.0835960938
 20
14.0443011494
 10
-7.0858170566
 20
14.0386557163
 10
-7.0877839807
 20
14.0332522322
 10
-7.0895314962
 20
14.0281181891
 10
-7.0910699352
 20
14.0233226419
 10
-7.0923889655
 20
14.0189612081
 10
-7.0934922205
 20
14.0151197195
 10
-7.0943839015
 20
14.0118689549
  0
LINE
  5
350
100
AcDbEntity
  8
RACCORDO
100
AcDbLine
 62
7
  6
CONTINUOUS
 10
14.9624180905
 20
23.6968683437
 11
14.8914101234
 21
23.6521349535
  0
LINE
  5
351
100
AcDbEntity
  8
RACCORDO
100
AcDbLine
 62
7
  6
CONTINUOUS
 10
14.9908856838
 20
23.7145738031
 11
14.9624180905
 21
23.6968683437
  0
LINE
  5
352
100
AcDbEntity
  8
RACCORDO
100
AcDbLine
 62
7
  6
CONTINUOUS
 10
15.0192758201
 20
-23.6183870777
 11
14.9908856838
 21
-23.6009885991
  0
LINE
  5
353
100
AcDbEntity
  8
RACCORDO
100
AcDbLine
 62
7
  6
CONTINUOUS
 10
14.9908856838
 20
-23.6009885991
 11
14.9481663153
 21
-23.5743612441
  0
LWPOLYLINE
  5
354
100
AcDbEntity
  8
RACCORDO
100
AcDbPolyline
 62
7
  6
CONTINUOUS
 90
3
 70
0
 10
-22.1401976456
 20
-0.1671135499
 10
-22.0592955906
 20
-0.2179041385
 10
-22.0183224074
 20
-0.243327446
  0
LINE
  5
355
100
AcDbEntity
  8
RACCORDO
100
AcDbLine
 62
7
  6
CONTINUOUS
 10
14.9481663153
 20
-23.5743612441
 11
14.8914101234
 21
-23.5385497494
  0
LWPOLYLINE
  5
356
100
AcDbEntity
  8
RACCORDO
100
AcDbPolyline
 62
253
  6
CONTINUOUS
 90
12
 70
0
 10
-15.9157958297
 20
14.0075144758
 10
-15.9168672639
 20
14.0115338959
 10
-15.917737517
 20
14.0147133058
 10
-15.9188269202
 20
14.018519627
 10
-15.9201384305
 20
14.02288344
 10
-15.9216781689
 20
14.0277077682
 10
-15.9234391502
 20
14.0328953614
 10
-15.9254283596
 20
14.0383764911
 10
-15.9276728734
 20
14.0441033694
 10
-15.9301817168
 20
14.0500211508
 10
-15.9329458645
 20
14.0560609809
 10
-15.9333076686
 20
14.056792602
  0
LINE
  5
357
100
AcDbEntity
  8
DRAFT
100
AcDbLine
 62
7
  6
CONTINUOUS
 10
-10.7056725
 20
0.056792602
 11
-10.6957732408
 21
-0.043207398
  0
LINE
  5
358
100
AcDbEntity
  8
DRAFT
100
AcDbLine
 62
7
  6
CONTINUOUS
 10
-9.5056725
 20
0.056792602
 11
-9.5106217527
 21
-0.043207398
  0
LWPOLYLINE
  5
359
100
AcDbEntity
  8
RACCORDO
100
AcDbPolyline
 62
253
  6
CONTINUOUS
 90
4
 70
0
 10
-7.0943839015
 20
14.0118689549
 10
-7.0955109674
 20
14.0076544599
 10
-7.0957338958
 20
14.0068554141
 10
-7.0957591913
 20
14.0067926022
  0
LINE
  5
35A
100
AcDbEntity
  8
DRAFT
100
AcDbLine
 62
7
  6
CONTINUOUS
 10
-12.3556725
 20
0.156792602
 11
-12.3329826437
 21
0.1794824583
  0
LINE
  5
35B
100
AcDbEntity
  8
RACCORDO
100
AcDbLine
 62
253
  6
CONTINUOUS
 10
-22.6306725
 20
0.4567583341
 11
-22.499610808
 21
0.5222841894
  0
LINE
  5
35C
100
AcDbEntity
  8
RACCORDO
100
AcDbLine
 62
253
  6
CONTINUOUS
 10
-22.3306724983
 20
0.156792602
 11
-22.1962264395
 21
0.2240105118
  0
LWPOLYLINE
  5
35D
100
AcDbEntity
  8
RACCORDO
100
AcDbPolyline
 62
7
  6
CONTINUOUS
 90
6
 70
0
 10
-22.3331758453
 20
-0.06336773
 10
-22.2965504613
 20
-0.0794807611
 10
-22.2589399494
 20
-0.0987905094
 10
-22.220131968
 20
-0.1201789339
 10
-22.1803388587
 20
-0.142962606
 10
-22.1401976456
 20
-0.1671135499
  0
LINE
  5
35E
100
AcDbEntity
  8
RACCORDO
100
AcDbLine
 62
253
  6
CONTINUOUS
 10
-7.6144761965
 20
-23.725752333
 11
-7.6144761965
 21
-22.325752333
  0
LINE
  5
35F
100
AcDbEntity
  8
RACCORDO
100
AcDbLine
 62
253
  6
CONTINUOUS
 10
-7.6144761965
 20
22.4393375371
 11
-7.6144761965
 21
23.8393375371
  0
LINE
  5
360
100
AcDbEntity
  8
RACCORDO
100
AcDbLine
 62
253
  6
CONTINUOUS
 10
-7.1145523489
 20
-23.7343275491
 11
-7.1145523489
 21
-22.3343275491
  0
LINE
  5
361
100
AcDbEntity
  8
RACCORDO
100
AcDbLine
 62
253
  6
CONTINUOUS
 10
-7.1145523489
 20
22.4479127531
 11
-7.1145523489
 21
23.8479127531
  0
LINE
  5
362
100
AcDbEntity
  8
DRAFT
100
AcDbLine
 62
7
  6
CONTINUOUS
 10
-7.1056725
 20
-23.743207398
 11
-7.1056725
 21
-22.343207398
  0
LINE
  5
363
100
AcDbEntity
  8
DRAFT
100
AcDbLine
 62
7
  6
CONTINUOUS
 10
-7.1056725
 20
22.456792602
 11
-7.1056725
 21
23.856792602
  0
LINE
  5
364
100
AcDbEntity
  8
RACCORDO
100
AcDbLine
 62
253
  6
CONTINUOUS
 10
-0.8802919003
 20
22.306792602
 11
-0.98781036
 21
21.983974914
  0
LINE
  5
365
100
AcDbEntity
  8
RACCORDO
100
AcDbLine
 62
253
  6
CONTINUOUS
 10
-0.3806725
 20
21.80656375
 11
-0.4878865124
 21
21.4846601466
  0
LINE
  5
366
100
AcDbEntity
  8
RACCORDO
100
AcDbLine
 62
7
  6
CONTINUOUS
 10
-22.4002615637
 20
-0.0633604044
 11
-22.3688172591
 21
-0.0514029414
  0
LINE
  5
367
100
AcDbEntity
  8
RACCORDO
100
AcDbLine
 62
7
  6
CONTINUOUS
 10
-22.3688161012
 20
-0.0514029412
 11
-22.3331758453
 21
-0.06336773
  0
LINE
  5
368
100
AcDbEntity
  8
DRAFT
100
AcDbLine
 62
7
  6
CONTINUOUS
 10
-10.6556725
 20
0.156792602
 11
-10.6783623563
 21
0.1794824583
  0
LWPOLYLINE
  5
369
100
AcDbEntity
  8
RACCORDO
100
AcDbPolyline
 62
7
  6
CONTINUOUS
 90
34
 70
0
 10
-16.0021999837
 20
14.056792602
 10
-16.0020872455
 20
14.056594745
 10
-16.0008661527
 20
14.054551128
 10
-15.9993867916
 20
14.0522122745
 10
-15.9978018766
 20
14.0498545879
 10
-15.9961629417
 20
14.0475591345
 10
-15.9944150978
 20
14.0452530867
 10
-15.9925753704
 20
14.0429671555
 10
-15.9906496488
 20
14.0407136627
 10
-15.9886302626
 20
14.0384884995
 10
-15.9865163656
 20
14.0362962012
 10
-15.9843064541
 20
14.0341406326
 10
-15.9820007621
 20
14.0320273475
 10
-15.9796015493
 20
14.0299633684
 10
-15.9771084738
 20
14.0279530989
 10
-15.9745222718
 20
14.0260017591
 10
-15.971847645
 20
14.0241171172
 10
-15.9690857144
 20
14.0223038192
 10
-15.9662376767
 20
14.0205664579
 10
-15.9633092205
 20
14.0189119909
 10
-15.9603026622
 20
14.0173448758
 10
-15.957219824
 20
14.0158691789
 10
-15.9540663829
 20
14.0144905253
 10
-15.9508454343
 20
14.0132129301
 10
-15.9475595993
 20
14.0120400747
 10
-15.9442143944
 20
14.0109764364
 10
-15.9408129993
 20
14.0100254
 10
-15.9373593044
 20
14.0091904165
 10
-15.9338603478
 20
14.0084753484
 10
-15.9303202044
 20
14.0078830055
 10
-15.9267431143
 20
14.0074160707
 10
-15.9231367381
 20
14.0070773382
 10
-15.9195056576
 20
14.0068688546
 10
-15.9155899334
 20
14.0067921586
  0
LWPOLYLINE
  5
36A
100
AcDbEntity
  8
RACCORDO
100
AcDbPolyline
 62
253
  6
CONTINUOUS
 90
3
 70
0
 10
-15.9155860768
 20
14.0067926069
 10
-15.915599722
 20
14.0068220269
 10
-15.9157958297
 20
14.0075144758
  0
LINE
  5
36B
100
AcDbEntity
  8
RACCORDO
100
AcDbLine
 62
253
  6
CONTINUOUS
 10
-0.9691504249
 20
-21.9014760307
 11
-0.9157649392
 21
-22.0617627304
  0
LINE
  5
36C
100
AcDbEntity
  8
RACCORDO
100
AcDbLine
 62
253
  6
CONTINUOUS
 10
-0.4692265773
 20
-21.4021612633
 11
-0.416145539
 21
-21.5615338783
  0
LWPOLYLINE
  5
36D
100
AcDbEntity
  8
RACCORDO
100
AcDbPolyline
 62
7
  6
CONTINUOUS
 90
13
 70
0
 10
-3.2556725
 20
-24.1932454742
 10
-3.2535327257
 20
-24.2258675642
 10
-3.247153976
 20
-24.257932802
 10
-3.236644612
 20
-24.2888927996
 10
-3.2221833389
 20
-24.3182185241
 10
-3.2040169837
 20
-24.3454073106
 10
-3.1824570804
 20
-24.3699919783
 10
-3.1578724127
 20
-24.3915518817
 10
-3.1306836262
 20
-24.4097182369
 10
-3.1013579016
 20
-24.42417951
 10
-3.0703979041
 20
-24.4346888739
 10
-3.0383326662
 20
-24.4410676237
 10
-3.0057105762
 20
-24.443207398
  0
LWPOLYLINE
  5
36E
100
AcDbEntity
  8
RACCORDO
100
AcDbPolyline
 62
253
  6
CONTINUOUS
 90
13
 70
0
 10
-3.2163224457
 20
-24.1538954199
 10
-3.2142644013
 20
-24.1858298421
 10
-3.2080888023
 20
-24.2174488877
 10
-3.1978170813
 20
-24.2482115168
 10
-3.1835076353
 20
-24.2776359793
 10
-3.1653483765
 20
-24.3051120422
 10
-3.1437358735
 20
-24.3299633711
 10
-3.1190999759
 20
-24.3517165925
 10
-3.0918247732
 20
-24.370050837
 10
-3.062389469
 20
-24.3846461645
 10
-3.0313067186
 20
-24.3952528435
 10
-2.9991117119
 20
-24.401692472
 10
-2.9663605219
 20
-24.4038573436
  0
LINE
  5
36F
100
AcDbEntity
  8
RACCORDO
100
AcDbLine
 62
253
  6
CONTINUOUS
 10
-6.0056725
 20
13.806792602
 11
-6.0056725
 21
14.006792602
  0
LINE
  5
370
100
AcDbEntity
  8
RACCORDO
100
AcDbLine
 62
253
  6
CONTINUOUS
 10
-6.0056725
 20
9.706792602
 11
-6.0056724929
 21
9.5335878795
  0
LINE
  5
371
100
AcDbEntity
  8
RACCORDO
100
AcDbLine
 62
253
  6
CONTINUOUS
 10
-5.7056725
 20
10.006792602
 11
-5.7056725
 21
13.506792602
  0
LINE
  5
372
100
AcDbEntity
  8
RACCORDO
100
AcDbLine
 62
7
  6
CONTINUOUS
 10
-5.5056725
 20
13.556809456
 11
-5.5056725
 21
10.056775746
  0
LWPOLYLINE
  5
373
100
AcDbEntity
  8
RACCORDO
100
AcDbPolyline
 62
7
  6
CONTINUOUS
 90
25
 70
0
 10
-5.5056725
 20
10.056775746
 10
-5.5067812576
 20
10.0238460932
 10
-5.50998425
 20
9.9913328976
 10
-5.5152814773
 20
9.9592361612
 10
-5.5227134645
 20
9.9274224017
 10
-5.5322396867
 20
9.8960251043
 10
-5.5437385683
 20
9.8654447233
 10
-5.557235359
 20
9.8356917351
 10
-5.5727048093
 20
9.8067556693
 10
-5.5899495949
 20
9.779005562
 10
-5.6089924424
 20
9.7524565996
 10
-5.6298106254
 20
9.7270936034
 10
-5.6521386408
 20
9.7032400637
 10
-5.6759958276
 20
9.6809153024
 10
-5.701362847
 20
9.6601000058
 10
-5.727916179
 20
9.6410597125
 10
-5.7556710189
 20
9.6238171511
 10
-5.7846121715
 20
9.6083496006
 10
-5.814370531
 20
9.5948544253
 10
-5.8449565902
 20
9.5833568789
 10
-5.8763598562
 20
9.5738317135
 10
-5.9081797455
 20
9.5664005406
 10
-5.9402827301
 20
9.5611038985
 10
-5.9728023379
 20
9.5579012521
 10
-6.005738569
 20
9.556792602
  0
LWPOLYLINE
  5
374
100
AcDbEntity
  8
RACCORDO
100
AcDbPolyline
 62
253
  6
CONTINUOUS
 90
13
 70
0
 10
-3.2163224457
 20
24.2674806239
 10
-3.2142644013
 20
24.2994150462
 10
-3.2080888023
 20
24.3310340918
 10
-3.1978170813
 20
24.3617967209
 10
-3.1835076353
 20
24.3912211834
 10
-3.1653483765
 20
24.4186972463
 10
-3.1437358735
 20
24.4435485752
 10
-3.1190999759
 20
24.4653017965
 10
-3.0918247732
 20
24.483636041
 10
-3.062389469
 20
24.4982313686
 10
-3.0313067186
 20
24.5088380476
 10
-2.9991117119
 20
24.5152776761
 10
-2.9663605219
 20
24.5174425477
  0
LWPOLYLINE
  5
375
100
AcDbEntity
  8
RACCORDO
100
AcDbPolyline
 62
7
  6
CONTINUOUS
 90
13
 70
0
 10
-3.2556725
 20
24.3068306783
 10
-3.2535327257
 20
24.3394527683
 10
-3.247153976
 20
24.3715180061
 10
-3.236644612
 20
24.4024780036
 10
-3.2221833389
 20
24.4318037282
 10
-3.2040169837
 20
24.4589925147
 10
-3.1824570804
 20
24.4835771824
 10
-3.1578724127
 20
24.5051370857
 10
-3.1306836262
 20
24.523303441
 10
-3.1013579016
 20
24.5377647141
 10
-3.0703979041
 20
24.548274078
 10
-3.0383326662
 20
24.5546528278
 10
-3.0057105762
 20
24.556792602
  0
LWPOLYLINE
  5
376
100
AcDbEntity
  8
RACCORDO
100
AcDbPolyline
 62
253
  6
CONTINUOUS
 90
9
 70
0
 10
-0.4878865124
 20
21.4846601466
 10
-0.4891151024
 20
21.4784384354
 10
-0.4903226169
 20
21.4674434804
 10
-0.4915090558
 20
21.4516752815
 10
-0.4926804742
 20
21.4310088666
 10
-0.4938308171
 20
21.4055692079
 10
-0.4949419194
 20
21.3757312216
 10
-0.4960128838
 20
21.3414264797
 10
-0.4980216186
 20
21.2602022142
  0
LINE
  5
377
100
AcDbEntity
  8
RACCORDO
100
AcDbLine
 62
7
  6
CONTINUOUS
 10
15.3914016618
 20
23.8538667638
 11
15.3943275
 21
23.856792602
  0
LINE
  5
378
100
AcDbEntity
  8
RACCORDO
100
AcDbLine
 62
7
  6
CONTINUOUS
 10
15.3914016618
 20
-23.7402815598
 11
15.3943275
 21
-23.743207398
  0
LWPOLYLINE
  5
379
100
AcDbEntity
  8
RACCORDO
100
AcDbPolyline
 62
253
  6
CONTINUOUS
 90
13
 70
0
 10
-0.8819312556
 20
-23.3545322633
 10
-0.8843291967
 20
-23.3264275571
 10
-0.8909161573
 20
-23.2987984059
 10
-0.9015806812
 20
-23.2721123218
 10
-0.9161423166
 20
-23.2468208583
 10
-0.9343546675
 20
-23.2233519731
 10
-0.9559095619
 20
-23.2021027859
 10
-0.9804422687
 20
-23.183432854
 10
-1.0075376718
 20
-23.16765809
 10
-1.0367372906
 20
-23.1550454181
 10
-1.0675470393
 20
-23.145808257
 10
-1.099445587
 20
-23.1401029084
 10
-1.1318931794
 20
-23.1380259124
  0
LWPOLYLINE
  5
37A
100
AcDbEntity
  8
RACCORDO
100
AcDbPolyline
 62
253
  6
CONTINUOUS
 90
13
 70
0
 10
-0.8950225543
 20
-23.7875449653
 10
-0.8973901393
 20
-23.7596291652
 10
-0.9039088648
 20
-23.7321224175
 10
-0.9144951875
 20
-23.705490224
 10
-0.9290072145
 20
-23.6801710858
 10
-0.9472169065
 20
-23.6566226477
 10
-0.9687883264
 20
-23.6352997949
 10
-0.9933370068
 20
-23.6165768285
 10
-1.0204598551
 20
-23.6007561466
 10
-1.0496953738
 20
-23.5881066639
 10
-1.0805467388
 20
-23.578842802
 10
-1.1124905098
 20
-23.5731212232
 10
-1.1449844781
 20
-23.5710386143
  0
LWPOLYLINE
  5
37B
100
AcDbEntity
  8
RACCORDO
100
AcDbPolyline
 62
253
  6
CONTINUOUS
 90
7
 70
0
 10
-2.9794518206
 20
-23.1380259124
 10
-2.9803165815
 20
-23.1220091603
 10
-2.9810913256
 20
-23.1032832708
 10
-2.9817760529
 20
-23.0821081199
 10
-2.9823773736
 20
-23.058780899
 10
-2.9828886775
 20
-23.0336173251
 10
-2.9832901338
 20
-23.0069436085
  0
LINE
  5
37C
100
AcDbEntity
  8
RACCORDO
100
AcDbLine
 62
253
  6
CONTINUOUS
 10
-2.9663605219
 20
-23.5710386143
 11
-2.9794518206
 21
-23.1380259124
  0
LINE
  5
37D
100
AcDbEntity
  8
RACCORDO
100
AcDbLine
 62
253
  6
CONTINUOUS
 10
-3.2300648468
 20
-23.3306056891
 11
-3.2163224457
 21
-23.7875449653
  0
LINE
  5
37E
100
AcDbEntity
  8
RACCORDO
100
AcDbLine
 62
253
  6
CONTINUOUS
 10
-3.2312243296
 20
-23.2748913557
 11
-3.2300648468
 21
-23.3306056891
  0
LINE
  5
37F
100
AcDbEntity
  8
RACCORDO
100
AcDbLine
 62
253
  6
CONTINUOUS
 10
-3.2321996668
 20
-23.2082120514
 11
-3.2312243296
 21
-23.2748913557
  0
LINE
  5
380
100
AcDbEntity
  8
RACCORDO
100
AcDbLine
 62
253
  6
CONTINUOUS
 10
-3.2332488442
 20
-23.092820346
 11
-3.2321996668
 21
-23.2082120514
  0
LINE
  5
381
100
AcDbEntity
  8
RACCORDO
100
AcDbLine
 62
253
  6
CONTINUOUS
 10
-2.9832901338
 20
-23.0069436085
 11
-2.9837502834
 21
-22.9505108399
  0
LINE
  5
382
100
AcDbEntity
  8
RACCORDO
100
AcDbLine
 62
253
  6
CONTINUOUS
 10
-3.2337411848
 20
-22.9658726883
 11
-3.2332488442
 21
-23.092820346
  0
LINE
  5
383
100
AcDbEntity
  8
RACCORDO
100
AcDbLine
 62
7
  6
CONTINUOUS
 10
-3.2556725
 20
-22.343207398
 11
-3.2556725
 21
-24.1932169172
  0
LINE
  5
384
100
AcDbEntity
  8
RACCORDO
100
AcDbLine
 62
7
  6
CONTINUOUS
 10
-3.2556725
 20
22.456792602
 11
-3.2556725
 21
24.3068021213
  0
LINE
  5
385
100
AcDbEntity
  8
RACCORDO
100
AcDbLine
 62
253
  6
CONTINUOUS
 10
-3.2337411848
 20
-22.9658726883
 11
-3.2337775106
 21
-22.3213124086
  0
LINE
  5
386
100
AcDbEntity
  8
RACCORDO
100
AcDbLine
 62
253
  6
CONTINUOUS
 10
-3.2163224457
 20
-24.1538954199
 11
-3.2163224457
 21
-23.7875449653
  0
LINE
  5
387
100
AcDbEntity
  8
RACCORDO
100
AcDbLine
 62
253
  6
CONTINUOUS
 10
-3.2163224457
 20
23.9011301693
 11
-3.2163224457
 21
24.2674806239
  0
LINE
  5
388
100
AcDbEntity
  8
DRAFT
100
AcDbLine
 62
7
  6
CONTINUOUS
 10
-3.1556725
 20
-0.043207398
 11
-3.1556725
 21
0.056792602
  0
LINE
  5
389
100
AcDbEntity
  8
DRAFT
100
AcDbLine
 62
7
  6
CONTINUOUS
 10
-3.1486910058
 20
-0.043207398
 11
-3.1486910058
 21
0.056792602
  0
LINE
  5
38A
100
AcDbEntity
  8
RACCORDO
100
AcDbLine
 62
253
  6
CONTINUOUS
 10
-2.9837502834
 20
-22.9505108399
 11
-2.9838155868
 21
-22.3170248006
  0
LINE
  5
38B
100
AcDbEntity
  8
RACCORDO
100
AcDbLine
 62
253
  6
CONTINUOUS
 10
-2.9663605219
 20
-24.4038573436
 11
-2.9663605219
 21
-23.5710386143
  0
LINE
  5
38C
100
AcDbEntity
  8
RACCORDO
100
AcDbLine
 62
253
  6
CONTINUOUS
 10
-2.9663605219
 20
23.6846238184
 11
-2.9663605219
 21
24.5174425477
  0
LINE
  5
38D
100
AcDbEntity
  8
RACCORDO
100
AcDbLine
 62
253
  6
CONTINUOUS
 10
-2.9838155868
 20
22.4306100046
 11
-2.9837495569
 21
23.0641810958
  0
LINE
  5
38E
100
AcDbEntity
  8
RACCORDO
100
AcDbLine
 62
253
  6
CONTINUOUS
 10
-3.233478965
 20
23.1647445646
 11
-3.2337775106
 21
22.4348976127
  0
LINE
  5
38F
100
AcDbEntity
  8
RACCORDO
100
AcDbLine
 62
253
  6
CONTINUOUS
 10
-3.2326098758
 20
23.2849417902
 11
-3.233478965
 21
23.1647445646
  0
LWPOLYLINE
  5
390
100
AcDbEntity
  8
RACCORDO
100
AcDbPolyline
 62
253
  6
CONTINUOUS
 90
8
 70
0
 10
-2.9837495569
 20
23.0641810958
 10
-2.9832880327
 20
23.1207098877
 10
-2.9828857206
 20
23.1473939019
 10
-2.982373587
 20
23.1725450791
 10
-2.9817720849
 20
23.1958410505
 10
-2.981088032
 20
23.216971415
 10
-2.9803146105
 20
23.2356455528
 10
-2.9794518206
 20
23.2516111165
  0
LINE
  5
391
100
AcDbEntity
  8
RACCORDO
100
AcDbLine
 62
253
  6
CONTINUOUS
 10
-3.2317390561
 20
23.356225883
 11
-3.2326098758
 21
23.2849417902
  0
LWPOLYLINE
  5
392
100
AcDbEntity
  8
RACCORDO
100
AcDbPolyline
 62
253
  6
CONTINUOUS
 90
3
 70
0
 10
-3.2300661175
 20
23.4441352785
 10
-3.2306706167
 20
23.4175342533
 10
-3.2317390561
 20
23.356225883
  0
LINE
  5
393
100
AcDbEntity
  8
RACCORDO
100
AcDbLine
 62
253
  6
CONTINUOUS
 10
-3.2300661175
 20
23.4441352785
 11
-3.2163224457
 21
23.9011301693
  0
LINE
  5
394
100
AcDbEntity
  8
RACCORDO
100
AcDbLine
 62
253
  6
CONTINUOUS
 10
-2.9794518206
 20
23.2516111165
 11
-2.9663605219
 21
23.6846238184
  0
LWPOLYLINE
  5
395
100
AcDbEntity
  8
RACCORDO
100
AcDbPolyline
 62
253
  6
CONTINUOUS
 90
13
 70
0
 10
-0.8819312556
 20
23.4681174674
 10
-0.8843291821
 20
23.440012852
 10
-0.8909161091
 20
23.4123837619
 10
-0.9015805931
 20
23.3856977077
 10
-0.9161421986
 20
23.3604062383
 10
-0.9343545384
 20
23.3369373228
 10
-0.9559094323
 20
23.3156881025
 10
-0.980442145
 20
23.297018141
 10
-1.0075375648
 20
23.2812433483
 10
-1.0367372062
 20
23.2686306532
 10
-1.0675469805
 20
23.2593934753
 10
-1.0994455568
 20
23.2536881163
 10
-1.1318931794
 20
23.2516111165
  0
LWPOLYLINE
  5
396
100
AcDbEntity
  8
RACCORDO
100
AcDbPolyline
 62
253
  6
CONTINUOUS
 90
13
 70
0
 10
-0.8950225543
 20
23.9011301693
 10
-0.8974300973
 20
23.8729659624
 10
-0.9040427824
 20
23.8452852038
 10
-0.9147460721
 20
23.8185577255
 10
-0.9293546529
 20
23.7932388845
 10
-0.9476193283
 20
23.7697551607
 10
-0.9692343948
 20
23.7484986782
 10
-0.9938561023
 20
23.7298159324
 10
-1.0210494147
 20
23.7140444509
 10
-1.050282842
 20
23.7014783795
 10
-1.081024907
 20
23.692314336
 10
-1.1127711867
 20
23.6866725745
 10
-1.1449844781
 20
23.6846238184
  0
LWPOLYLINE
  5
397
100
AcDbEntity
  8
RACCORDO
100
AcDbPolyline
 62
253
  6
CONTINUOUS
 90
8
 70
0
 10
-0.98781036
 20
21.983974914
 10
-0.9890435875
 20
21.9747476016
 10
-0.9902542813
 20
21.9581526093
 10
-0.9914424413
 20
21.9342737595
 10
-0.9926136191
 20
21.9032326845
 10
-0.9937622631
 20
21.8651835318
 10
-0.994871719
 20
21.8203085701
 10
-0.9969722978
 20
21.7109786181
  0
LINE
  5
398
100
AcDbEntity
  8
DRAFT
100
AcDbLine
 62
7
  6
CONTINUOUS
 10
-3.5056725
 20
0.156792602
 11
-3.4829826437
 21
0.1794824583
  0
LINE
  5
399
100
AcDbEntity
  8
RACCORDO
100
AcDbLine
 62
253
  6
CONTINUOUS
 10
21.3943317308
 20
24.556792602
 11
21.3812331521
 21
24.5436940233
  0
LINE
  5
39A
100
AcDbEntity
  8
RACCORDO
100
AcDbLine
 62
253
  6
CONTINUOUS
 10
21.3943317308
 20
-24.443207398
 11
21.3812331521
 21
-24.4301088192
  0
LWPOLYLINE
  5
39B
100
AcDbEntity
  8
RACCORDO
100
AcDbPolyline
 62
253
  6
CONTINUOUS
 90
13
 70
0
 10
-3.2163224457
 20
23.9011301693
 10
-3.2139149027
 20
23.8729659624
 10
-3.2073022176
 20
23.8452852038
 10
-3.1965989279
 20
23.8185577255
 10
-3.1819903471
 20
23.7932388845
 10
-3.1637256717
 20
23.7697551607
 10
-3.1421106052
 20
23.7484986782
 10
-3.1174888977
 20
23.7298159324
 10
-3.0902955853
 20
23.7140444509
 10
-3.061062158
 20
23.7014783795
 10
-3.030320093
 20
23.692314336
 10
-2.9985738133
 20
23.6866725745
 10
-2.9663605219
 20
23.6846238184
  0
LWPOLYLINE
  5
39C
100
AcDbEntity
  8
RACCORDO
100
AcDbPolyline
 62
253
  6
CONTINUOUS
 90
13
 70
0
 10
-3.2294137444
 20
23.4681174674
 10
-3.2270158176
 20
23.4400128498
 10
-3.2204288897
 20
23.412383758
 10
-3.2097644047
 20
23.3856977029
 10
-3.1952027983
 20
23.3604062334
 10
-3.1769904578
 20
23.3369373183
 10
-3.1554355636
 20
23.3156880987
 10
-3.130902851
 20
23.2970181381
 10
-3.1038074318
 20
23.2812433464
 10
-3.0746077911
 20
23.268630652
 10
-3.0437980176
 20
23.2593934747
 10
-3.0118994422
 20
23.2536881161
 10
-2.9794518206
 20
23.2516111165
  0
LWPOLYLINE
  5
39D
100
AcDbEntity
  8
RACCORDO
100
AcDbPolyline
 62
253
  6
CONTINUOUS
 90
19
 70
0
 10
-1.0116521778
 20
0.5242795809
 10
-1.0109041663
 20
0.5010798659
 10
-1.0089271538
 20
0.4778057827
 10
-1.0057211404
 20
0.4546050883
 10
-1.0012654345
 20
0.4317162224
 10
-0.9955807277
 20
0.4092087749
 10
-0.9887290944
 20
0.3870070528
 10
-0.9808076847
 20
0.3651856592
 10
-0.9717193485
 20
0.3440899704
 10
-0.9612347099
 20
0.3240664547
 10
-0.9491748164
 20
0.3053870245
 10
-0.9357186206
 20
0.2881668233
 10
-0.9211736044
 20
0.272522244
 10
-0.9055139167
 20
0.2586419392
 10
-0.8887654086
 20
0.2467999788
 10
-0.8713131154
 20
0.2372421027
 10
-0.8532853822
 20
0.2301566432
 10
-0.8345538639
 20
0.2256973616
 10
-0.8151185605
 20
0.2240105118
  0
LWPOLYLINE
  5
39E
100
AcDbEntity
  8
RACCORDO
100
AcDbPolyline
 62
253
  6
CONTINUOUS
 90
8
 70
0
 10
-0.4773556289
 20
-21.2588351461
 10
-0.4762846606
 20
-21.2931551863
 10
-0.4751736564
 20
-21.323005677
 10
-0.4740234019
 20
-21.3484568521
 10
-0.4728517786
 20
-21.3691353358
 10
-0.471664747
 20
-21.3849166697
 10
-0.4704563466
 20
-21.3959253121
 10
-0.4692265773
 20
-21.4021612633
  0
LWPOLYLINE
  5
39F
100
AcDbEntity
  8
RACCORDO
100
AcDbPolyline
 62
253
  6
CONTINUOUS
 90
6
 70
0
 10
-0.9751022329
 20
-21.7826916141
 10
-0.9739536594
 20
-21.8207375623
 10
-0.9727825302
 20
-21.8517765394
 10
-0.971594384
 20
-21.8756543239
 10
-0.9703836823
 20
-21.8922488391
 10
-0.9691504249
 20
-21.9014760307
  0
LINE
  5
3A0
100
AcDbEntity
  8
RACCORDO
100
AcDbLine
 62
253
  6
CONTINUOUS
 10
-1.1449844781
 20
23.6846238184
 11
-1.1318931794
 21
23.2516111165
  0
LINE
  5
3A1
100
AcDbEntity
  8
RACCORDO
100
AcDbLine
 62
253
  6
CONTINUOUS
 10
-0.8812788826
 20
23.444135277
 11
-0.8950225543
 21
23.9011301693
  0
LWPOLYLINE
  5
3A2
100
AcDbEntity
  8
RACCORDO
100
AcDbPolyline
 62
253
  6
CONTINUOUS
 90
31
 70
0
 10
0.3574260787
 20
-24.18011305
 10
0.3577691173
 20
-24.193196536
 10
0.3587964072
 20
-24.2062441626
 10
0.3605051327
 20
-24.2192201688
 10
0.3628906107
 20
-24.2320889896
 10
0.3659463029
 20
-24.2448153542
 10
0.3696638343
 20
-24.2573643818
 10
0.3740330158
 20
-24.2697016781
 10
0.3790418723
 20
-24.2817934287
 10
0.3846766754
 20
-24.2936064925
 10
0.3909219813
 20
-24.3051084921
 10
0.3977606728
 20
-24.3162679026
 10
0.4051740061
 20
-24.3270541382
 10
0.4131416629
 20
-24.3374376359
 10
0.4216418052
 20
-24.3473899363
 10
0.4306511357
 20
-24.3568837622
 10
0.4401449616
 20
-24.3658930928
 10
0.4500972621
 20
-24.3743932351
 10
0.4604807597
 20
-24.3823608918
 10
0.4712669953
 20
-24.3897742252
 10
0.4824264058
 20
-24.3966129166
 10
0.4939284054
 20
-24.4028582225
 10
0.5057414692
 20
-24.4084930257
 10
0.5178332199
 20
-24.4135018822
 10
0.5301705161
 20
-24.4178710637
 10
0.5427195438
 20
-24.4215885951
 10
0.5554459084
 20
-24.4246442873
 10
0.5683147292
 20
-24.4270297652
 10
0.5812907353
 20
-24.4287384908
 10
0.5943383619
 20
-24.4297657807
 10
0.6074218479
 20
-24.4301088192
  0
LWPOLYLINE
  5
3A3
100
AcDbEntity
  8
RACCORDO
100
AcDbPolyline
 62
253
  6
CONTINUOUS
 90
34
 70
0
 10
-0.0048723097
 20
-21.4426178526
 10
-0.0042850098
 20
-21.4663624021
 10
-0.0025678676
 20
-21.4900532258
 10
0.0002752316
 20
-21.5136367186
 10
0.0042378547
 20
-21.5370595185
 10
0.0093110357
 20
-21.5602686271
 10
0.0154832957
 20
-21.5832115293
 10
0.0227406688
 20
-21.6058363126
 10
0.031066734
 20
-21.6280917841
 10
0.0404426521
 20
-21.6499275866
 10
0.0508472083
 20
-21.6712943125
 10
0.0622568605
 20
-21.6921436156
 10
0.0746457924
 20
-21.7124283203
 10
0.0879859716
 20
-21.7321025286
 10
0.1022472136
 20
-21.7511217238
 10
0.1173972498
 20
-21.7694428715
 10
0.1334018003
 20
-21.7870245165
 10
0.1502246519
 20
-21.8038268768
 10
0.1678277398
 20
-21.8198119341
 10
0.1861712338
 20
-21.8349435189
 10
0.2052136282
 20
-21.8491873931
 10
0.224911836
 20
-21.8625113273
 10
0.2452212863
 20
-21.8748851733
 10
0.2660960253
 20
-21.886280933
 10
0.2874888197
 20
-21.8966728213
 10
0.3093512645
 20
-21.9060373244
 10
0.3316338916
 20
-21.9143532534
 10
0.3542862823
 20
-21.9216017917
 10
0.3772571814
 20
-21.9277665382
 10
0.4004946128
 20
-21.932833544
 10
0.4239459973
 20
-21.9367913438
 10
0.4475582716
 20
-21.9396309825
 10
0.4712780086
 20
-21.9413460347
 10
0.4950515378
 20
-21.9419326199
  0
LWPOLYLINE
  5
3A4
100
AcDbEntity
  8
RACCORDO
100
AcDbPolyline
 62
7
  6
CONTINUOUS
 90
34
 70
0
 10
0.3443275
 20
-24.1932116287
 10
0.3446106502
 20
-24.205106914
 10
0.3454594658
 20
-24.2169752535
 10
0.3468720259
 20
-24.2287897641
 10
0.3488451323
 20
-24.2405236854
 10
0.3513743183
 20
-24.2521504368
 10
0.3544538583
 20
-24.263643677
 10
0.3580767787
 20
-24.2749773717
 10
0.3622348742
 20
-24.2861258473
 10
0.3669187278
 20
-24.2970638443
 10
0.3721177312
 20
-24.3077665856
 10
0.3778201084
 20
-24.3182098262
 10
0.3840129419
 20
-24.3283699039
 10
0.3906822045
 20
-24.3382238031
 10
0.3978127893
 20
-24.3477492018
 10
0.4053885411
 20
-24.356924517
 10
0.4133922995
 20
-24.365728964
 10
0.4218059339
 20
-24.3741425984
 10
0.4306103809
 20
-24.3821463568
 10
0.4397856962
 20
-24.3897221087
 10
0.4493110949
 20
-24.3968526934
 10
0.4591649941
 20
-24.4035219561
 10
0.4693250717
 20
-24.4097147896
 10
0.4797683124
 20
-24.4154171668
 10
0.4904710537
 20
-24.4206161701
 10
0.5014090507
 20
-24.4253000237
 10
0.5125575262
 20
-24.4294581193
 10
0.523891221
 20
-24.4330810397
 10
0.5353844612
 20
-24.4361605797
 10
0.5470112125
 20
-24.4386897657
 10
0.5587451339
 20
-24.4406628721
 10
0.5705596444
 20
-24.4420754322
 10
0.582427984
 20
-24.4429242477
 10
0.5943232692
 20
-24.443207398
  0
LINE
  5
3A5
100
AcDbEntity
  8
RACCORDO
100
AcDbLine
 62
253
  6
CONTINUOUS
 10
-0.479364289
 20
-21.1775811968
 11
-0.4773556289
 21
-21.2588351461
  0
LINE
  5
3A6
100
AcDbEntity
  8
RACCORDO
100
AcDbLine
 62
253
  6
CONTINUOUS
 10
-0.977281502
 20
-21.6863353391
 11
-0.9751022329
 21
-21.7826916141
  0
LINE
  5
3A7
100
AcDbEntity
  8
RACCORDO
100
AcDbLine
 62
253
  6
CONTINUOUS
 10
-0.8801177578
 20
23.3883143889
 11
-0.8812788826
 21
23.444135277
  0
LINE
  5
3A8
100
AcDbEntity
  8
RACCORDO
100
AcDbLine
 62
253
  6
CONTINUOUS
 10
-0.4811518178
 20
-21.0809722079
 11
-0.479364289
 21
-21.1775811968
  0
LINE
  5
3A9
100
AcDbEntity
  8
RACCORDO
100
AcDbLine
 62
253
  6
CONTINUOUS
 10
-0.9792881997
 20
-21.5646062997
 11
-0.977281502
 21
-21.6863353391
  0
LWPOLYLINE
  5
3AA
100
AcDbEntity
  8
RACCORDO
100
AcDbPolyline
 62
253
  6
CONTINUOUS
 90
7
 70
0
 10
-1.1280569674
 20
23.1207099295
 10
-1.1284592801
 20
23.1473939447
 10
-1.1289714144
 20
23.1725451174
 10
-1.1295729168
 20
23.1958410811
 10
-1.1302569695
 20
23.216971436
 10
-1.1310303904
 20
23.2356455631
 10
-1.1318931794
 20
23.2516111165
  0
LINE
  5
3AB
100
AcDbEntity
  8
RACCORDO
100
AcDbLine
 62
253
  6
CONTINUOUS
 10
-0.8791420039
 20
23.3215185355
 11
-0.8801177578
 21
23.3883143889
  0
LINE
  5
3AC
100
AcDbEntity
  8
RACCORDO
100
AcDbLine
 62
253
  6
CONTINUOUS
 10
-0.4833456939
 20
-20.911683903
 11
-0.4811518178
 21
-21.0809722079
  0
LINE
  5
3AD
100
AcDbEntity
  8
RACCORDO
100
AcDbLine
 62
253
  6
CONTINUOUS
 10
-0.9818725238
 20
-21.3399860655
 11
-0.9792881997
 21
-21.5646062997
  0
LINE
  5
3AE
100
AcDbEntity
  8
RACCORDO
100
AcDbLine
 62
253
  6
CONTINUOUS
 10
-0.8780944486
 20
23.2061328924
 11
-0.8791420039
 21
23.3215185355
  0
LINE
  5
3AF
100
AcDbEntity
  8
RACCORDO
100
AcDbLine
 62
253
  6
CONTINUOUS
 10
-1.1275954429
 20
23.0641811159
 11
-1.1280569674
 21
23.1207099295
  0
LINE
  5
3B0
100
AcDbEntity
  8
RACCORDO
100
AcDbLine
 62
253
  6
CONTINUOUS
 10
-0.9843612671
 20
-20.9777105285
 11
-0.9818725238
 21
-21.3399860655
  0
LINE
  5
3B1
100
AcDbEntity
  8
RACCORDO
100
AcDbLine
 62
253
  6
CONTINUOUS
 10
-0.4852187177
 20
-20.6524532812
 11
-0.4833456939
 21
-20.911683903
  0
LINE
  5
3B2
100
AcDbEntity
  8
RACCORDO
100
AcDbLine
 62
253
  6
CONTINUOUS
 10
-0.8776036107
 20
23.0793672085
 11
-0.8780944486
 21
23.2061328924
  0
LINE
  5
3B3
100
AcDbEntity
  8
RACCORDO
100
AcDbLine
 62
253
  6
CONTINUOUS
 10
-0.9855815449
 20
-20.5703126324
 11
-0.9843612671
 21
-20.9777105285
  0
LINE
  5
3B4
100
AcDbEntity
  8
RACCORDO
100
AcDbLine
 62
253
  6
CONTINUOUS
 10
-0.4857534062
 20
-20.4445755085
 11
-0.4852187177
 21
-20.6524532812
  0
LINE
  5
3B5
100
AcDbEntity
  8
RACCORDO
100
AcDbLine
 62
253
  6
CONTINUOUS
 10
-0.9885421852
 20
-15.9733387378
 11
-0.9855815449
 21
-20.5703126324
  0
LINE
  5
3B6
100
AcDbEntity
  8
RACCORDO
100
AcDbLine
 62
253
  6
CONTINUOUS
 10
-0.4886183141
 20
-15.9572906827
 11
-0.4857534062
 21
-20.4445755085
  0
LWPOLYLINE
  5
3B7
100
AcDbEntity
  8
RACCORDO
100
AcDbPolyline
 62
253
  6
CONTINUOUS
 90
3
 70
0
 10
0.0141965432
 20
16.6875319363
 10
0.0129923843
 20
18.6432278869
 10
0.0112599719
 20
20.7728349613
  0
LINE
  5
3B8
100
AcDbEntity
  8
RACCORDO
100
AcDbLine
 62
253
  6
CONTINUOUS
 10
-0.9907028295
 20
-11.4803049892
 11
-0.9885421852
 21
-15.9733387378
  0
LINE
  5
3B9
100
AcDbEntity
  8
RACCORDO
100
AcDbLine
 62
253
  6
CONTINUOUS
 10
-0.4907789487
 20
-11.4688649012
 11
-0.4886183141
 21
-15.9572906827
  0
LINE
  5
3BA
100
AcDbEntity
  8
RACCORDO
100
AcDbLine
 62
253
  6
CONTINUOUS
 10
0.0170064573
 20
10.8190316529
 11
0.0141965432
 21
16.6875319363
  0
LINE
  5
3BB
100
AcDbEntity
  8
RACCORDO
100
AcDbLine
 62
253
  6
CONTINUOUS
 10
-0.9921591357
 20
-6.9862562389
 11
-0.9907028295
 21
-11.4803049892
  0
LINE
  5
3BC
100
AcDbEntity
  8
RACCORDO
100
AcDbLine
 62
253
  6
CONTINUOUS
 10
-0.4922352588
 20
-6.9793324548
 11
-0.4907789487
 21
-11.4688649012
  0
LINE
  5
3BD
100
AcDbEntity
  8
RACCORDO
100
AcDbLine
 62
253
  6
CONTINUOUS
 10
0.0182108013
 20
6.9058219403
 11
0.0170064573
 21
10.8190316529
  0
LINE
  5
3BE
100
AcDbEntity
  8
DRAFT
100
AcDbLine
 62
7
  6
CONTINUOUS
 10
-2.0126539942
 20
-0.043207398
 11
-2.0126539942
 21
0.056792602
  0
LINE
  5
3BF
100
AcDbEntity
  8
DRAFT
100
AcDbLine
 62
7
  6
CONTINUOUS
 10
-2.0056725
 20
-0.043207398
 11
-2.0056725
 21
0.056792602
  0
LINE
  5
3C0
100
AcDbEntity
  8
RACCORDO
100
AcDbLine
 62
253
  6
CONTINUOUS
 10
-1.1449844781
 20
-23.5710386143
 11
-1.1449844781
 21
-24.4038573436
  0
LINE
  5
3C1
100
AcDbEntity
  8
RACCORDO
100
AcDbLine
 62
253
  6
CONTINUOUS
 10
-1.1449844781
 20
23.6846238184
 11
-1.1449844781
 21
24.5174425477
  0
LINE
  5
3C2
100
AcDbEntity
  8
RACCORDO
100
AcDbLine
 62
253
  6
CONTINUOUS
 10
-1.1275954429
 20
23.0641811159
 11
-1.1275294132
 21
22.4306100046
  0
LWPOLYLINE
  5
3C3
100
AcDbEntity
  8
RACCORDO
100
AcDbPolyline
 62
253
  6
CONTINUOUS
 90
3
 70
0
 10
-0.9930225926
 20
-0.243327446
 10
-0.9929109005
 20
-2.4911435316
 10
-0.9921591357
 20
-6.9862562389
  0
LINE
  5
3C4
100
AcDbEntity
  8
RACCORDO
100
AcDbLine
 62
253
  6
CONTINUOUS
 10
-0.8950225543
 20
24.2674806239
 11
-0.8950225543
 21
23.9011301693
  0
LINE
  5
3C5
100
AcDbEntity
  8
RACCORDO
100
AcDbLine
 62
253
  6
CONTINUOUS
 10
-0.8950225543
 20
-23.7875449653
 11
-0.8950225543
 21
-24.1538954199
  0
LINE
  5
3C6
100
AcDbEntity
  8
RACCORDO
100
AcDbLine
 62
253
  6
CONTINUOUS
 10
-0.8776036107
 20
23.0793672085
 11
-0.8775674894
 21
22.4348976127
  0
LINE
  5
3C7
100
AcDbEntity
  8
RACCORDO
100
AcDbLine
 62
7
  6
CONTINUOUS
 10
-0.8556725
 20
-24.1932169172
 11
-0.8556725
 21
-22.3428973659
  0
LINE
  5
3C8
100
AcDbEntity
  8
RACCORDO
100
AcDbLine
 62
7
  6
CONTINUOUS
 10
-0.8556725
 20
22.45648257
 11
-0.8556725
 21
24.3068021213
  0
LWPOLYLINE
  5
3C9
100
AcDbEntity
  8
RACCORDO
100
AcDbPolyline
 62
253
  6
CONTINUOUS
 90
3
 70
0
 10
-0.4930987431
 20
-0.243207398
 10
-0.492987039
 20
-2.4888305074
 10
-0.4922352588
 20
-6.9793324548
  0
LINE
  5
3CA
100
AcDbEntity
  8
RACCORDO
100
AcDbLine
 62
7
  6
CONTINUOUS
 10
-0.416145539
 20
-20.6213938475
 11
-0.416145539
 21
-21.5615338783
  0
LINE
  5
3CB
100
AcDbEntity
  8
RACCORDO
100
AcDbLine
 62
7
  6
CONTINUOUS
 10
-0.4056725
 20
-20.6213938475
 11
-0.4056725
 21
-0.243207398
  0
LINE
  5
3CC
100
AcDbEntity
  8
RACCORDO
100
AcDbLine
 62
7
  6
CONTINUOUS
 10
-0.3993101623
 20
-21.856202508
 11
-0.3993101623
 21
-20.743207398
  0
LINE
  5
3CD
100
AcDbEntity
  8
DRAFT
100
AcDbLine
 62
7
  6
CONTINUOUS
 10
-0.3993101623
 20
0.056792602
 11
-0.3993101623
 21
0.3531275559
  0
LINE
  5
3CE
100
AcDbEntity
  8
RACCORDO
100
AcDbLine
 62
7
  6
CONTINUOUS
 10
-0.3993101623
 20
21.941343535
 11
-0.3993101623
 21
21.9697877121
  0
LINE
  5
3CF
100
AcDbEntity
  8
DRAFT
100
AcDbLine
 62
7
  6
CONTINUOUS
 10
-0.3853461104
 20
-20.743207398
 11
-0.3853461104
 21
0.056792602
  0
LINE
  5
3D0
100
AcDbEntity
  8
RACCORDO
100
AcDbLine
 62
7
  6
CONTINUOUS
 10
-0.3806725
 20
0.4567583341
 11
-0.3806725
 21
21.80656375
  0
LINE
  5
3D1
100
AcDbEntity
  8
RACCORDO
100
AcDbLine
 62
7
  6
CONTINUOUS
 10
-0.3556725
 20
-21.8343853386
 11
-0.3556725
 21
8.556792602
  0
LINE
  5
3D2
100
AcDbEntity
  8
RACCORDO
100
AcDbLine
 62
7
  6
CONTINUOUS
 10
-0.3556725
 20
13.556792602
 11
-0.3556725
 21
21.9479705426
  0
LINE
  5
3D3
100
AcDbEntity
  8
RACCORDO
100
AcDbLine
 62
7
  6
CONTINUOUS
 10
-0.1556725
 20
21.9479705426
 11
-0.1556725
 21
-21.8343853386
  0
LINE
  5
3D4
100
AcDbEntity
  8
RACCORDO
100
AcDbLine
 62
253
  6
CONTINUOUS
 10
-1.0115353264
 20
2.7498074949
 11
-1.0116580146
 21
0.5242795809
  0
LINE
  5
3D5
100
AcDbEntity
  8
RACCORDO
100
AcDbLine
 62
253
  6
CONTINUOUS
 10
-0.5116116069
 20
2.7458282418
 11
-0.511734192
 21
0.5222841894
  0
LINE
  5
3D6
100
AcDbEntity
  8
RACCORDO
100
AcDbLine
 62
253
  6
CONTINUOUS
 10
0.0186122679
 20
-4.8354287466
 11
0.0182108013
 21
6.9058219403
  0
LINE
  5
3D7
100
AcDbEntity
  8
RACCORDO
100
AcDbLine
 62
253
  6
CONTINUOUS
 10
-1.0101311422
 20
9.425560568
 11
-1.0115353264
 21
2.7498074949
  0
LINE
  5
3D8
100
AcDbEntity
  8
RACCORDO
100
AcDbLine
 62
253
  6
CONTINUOUS
 10
-0.5102075725
 20
9.415326776
 11
-0.5116116069
 21
2.7458282418
  0
LINE
  5
3D9
100
AcDbEntity
  8
RACCORDO
100
AcDbLine
 62
253
  6
CONTINUOUS
 10
0.0170064574
 20
-10.7054459901
 11
0.0186122679
 21
-4.8354287466
  0
LINE
  5
3DA
100
AcDbEntity
  8
RACCORDO
100
AcDbLine
 62
253
  6
CONTINUOUS
 10
-1.0083315962
 20
13.8750130342
 11
-1.0101311422
 21
9.425560568
  0
LINE
  5
3DB
100
AcDbEntity
  8
RACCORDO
100
AcDbLine
 62
253
  6
CONTINUOUS
 10
-0.5084079939
 20
13.8606866515
 11
-0.5102075725
 21
9.415326776
  0
LINE
  5
3DC
100
AcDbEntity
  8
RACCORDO
100
AcDbLine
 62
253
  6
CONTINUOUS
 10
0.0152669378
 20
-14.6180249608
 11
0.0170064574
 21
-10.7054459901
  0
LINE
  5
3DD
100
AcDbEntity
  8
RACCORDO
100
AcDbLine
 62
253
  6
CONTINUOUS
 10
-1.0058413618
 20
18.3236368265
 11
-1.0083315962
 21
13.8750130342
  0
LINE
  5
3DE
100
AcDbEntity
  8
RACCORDO
100
AcDbLine
 62
253
  6
CONTINUOUS
 10
-0.5059176222
 20
18.3051277158
 11
-0.5084079939
 21
13.8606866515
  0
LINE
  5
3DF
100
AcDbEntity
  8
RACCORDO
100
AcDbLine
 62
253
  6
CONTINUOUS
 10
0.0129923845
 20
-18.5296424865
 11
0.0152669378
 21
-14.6180249608
  0
LINE
  5
3E0
100
AcDbEntity
  8
RACCORDO
100
AcDbLine
 62
253
  6
CONTINUOUS
 10
-1.1275947167
 20
-22.9505108225
 11
-1.1275294132
 21
-22.3170248006
  0
LINE
  5
3E1
100
AcDbEntity
  8
RACCORDO
100
AcDbLine
 62
253
  6
CONTINUOUS
 10
-1.0034525561
 20
20.9613314849
 11
-1.0058413618
 21
18.3236368265
  0
LINE
  5
3E2
100
AcDbEntity
  8
RACCORDO
100
AcDbLine
 62
253
  6
CONTINUOUS
 10
0.0112599129
 20
-20.6592656761
 11
0.0129923845
 21
-18.5296424865
  0
LINE
  5
3E3
100
AcDbEntity
  8
RACCORDO
100
AcDbLine
 62
253
  6
CONTINUOUS
 10
-0.8778670284
 20
-23.0513846551
 11
-0.8775674894
 21
-22.3213124086
  0
LINE
  5
3E4
100
AcDbEntity
  8
RACCORDO
100
AcDbLine
 62
253
  6
CONTINUOUS
 10
-0.5038782235
 20
20.7350476066
 11
-0.5059176222
 21
18.3051277158
  0
LINE
  5
3E5
100
AcDbEntity
  8
RACCORDO
100
AcDbLine
 62
253
  6
CONTINUOUS
 10
-1.0012633325
 20
21.3377540426
 11
-1.0034525561
 21
20.9613314849
  0
LINE
  5
3E6
100
AcDbEntity
  8
RACCORDO
100
AcDbLine
 62
253
  6
CONTINUOUS
 10
-0.8787382512
 20
-23.1716668918
 11
-0.8778670284
 21
-23.0513846551
  0
LINE
  5
3E7
100
AcDbEntity
  8
RACCORDO
100
AcDbLine
 62
253
  6
CONTINUOUS
 10
-0.5020042991
 20
20.9943125381
 11
-0.5038782235
 21
20.7350476066
  0
LINE
  5
3E8
100
AcDbEntity
  8
RACCORDO
100
AcDbLine
 62
253
  6
CONTINUOUS
 10
-0.9988685843
 20
21.5774747099
 11
-1.0012633325
 21
21.3377540426
  0
LINE
  5
3E9
100
AcDbEntity
  8
RACCORDO
100
AcDbLine
 62
253
  6
CONTINUOUS
 10
-0.8796092147
 20
-23.2428619067
 11
-0.8787382512
 21
-23.1716668918
  0
LINE
  5
3EA
100
AcDbEntity
  8
RACCORDO
100
AcDbLine
 62
253
  6
CONTINUOUS
 10
-0.4998095281
 20
21.1636097218
 11
-0.5020042991
 21
20.9943125381
  0
LINE
  5
3EB
100
AcDbEntity
  8
RACCORDO
100
AcDbLine
 62
253
  6
CONTINUOUS
 10
-0.9969722978
 20
21.7109786181
 11
-0.9988685843
 21
21.5774747099
  0
LINE
  5
3EC
100
AcDbEntity
  8
RACCORDO
100
AcDbLine
 62
253
  6
CONTINUOUS
 10
-0.4980216186
 20
21.2602022142
 11
-0.4998095281
 21
21.1636097218
  0
LWPOLYLINE
  5
3ED
100
AcDbEntity
  8
RACCORDO
100
AcDbPolyline
 62
7
  6
CONTINUOUS
 90
27
 70
0
 10
-0.1382555976
 20
21.9566783306
 10
-0.1378233618
 20
21.9772802449
 10
-0.1365400827
 20
21.9978844639
 10
-0.1344033067
 20
22.0184556037
 10
-0.1314125641
 20
22.038954866
 10
-0.1275681234
 20
22.0593496045
 10
-0.1228697025
 20
22.0796131418
 10
-0.1173217798
 20
22.0997021386
 10
-0.1109268104
 20
22.1195872834
 10
-0.1036788933
 20
22.1392613543
 10
-0.0955803473
 20
22.1586889665
 10
-0.0866372805
 20
22.1778292392
 10
-0.0768456639
 20
22.1966639454
 10
-0.0662023472
 20
22.2151686416
 10
-0.054723422
 20
22.2332869885
 10
-0.0424373316
 20
22.2509535145
 10
-0.0293538674
 20
22.2681372362
 10
-0.0154950356
 20
22.284793261
 10
-0.0009194627
 20
22.3008427187
 10
0.014349812
 20
22.3162573373
 10
0.03028242
 20
22.331003679
 10
0.0467947017
 20
22.3450082951
 10
0.0638232837
 20
22.358230164
 10
0.081357685
 20
22.3706733959
 10
0.0993889102
 20
22.3823381531
 10
0.1178695992
 20
22.3931987257
 10
0.1382904259
 20
22.4040064038
  0
LWPOLYLINE
  5
3EE
100
AcDbEntity
  8
RACCORDO
100
AcDbPolyline
 62
253
  6
CONTINUOUS
 90
3
 70
0
 10
-0.8812801531
 20
-23.3306056937
 10
-0.8806766247
 20
-23.3040587271
 10
-0.8796092147
 20
-23.2428619067
  0
LWPOLYLINE
  5
3EF
100
AcDbEntity
  8
RACCORDO
100
AcDbPolyline
 62
253
  6
CONTINUOUS
 90
34
 70
0
 10
-0.0048723097
 20
21.5562030566
 10
-0.0042850093
 20
21.5799476152
 10
-0.0025678659
 20
21.6036384472
 10
0.0002752352
 20
21.6272219476
 10
0.0042378609
 20
21.6506447545
 10
0.009311045
 20
21.6738538692
 10
0.0154833085
 20
21.6967967768
 10
0.0227406855
 20
21.7194215646
 10
0.0310667547
 20
21.7416770398
 10
0.040442677
 20
21.7635128452
 10
0.0508472374
 20
21.7848795731
 10
0.0622568938
 20
21.8057288772
 10
0.0746458296
 20
21.8260135823
 10
0.0879860126
 20
21.8456877901
 10
0.102247258
 20
21.8647069842
 10
0.117397297
 20
21.8830281301
 10
0.13340185
 20
21.9006097726
 10
0.1502247035
 20
21.9174121301
 10
0.1678277927
 20
21.9333971839
 10
0.1861712873
 20
21.948528765
 10
0.2052136816
 20
21.9627726353
 10
0.2249118887
 20
21.9760965652
 10
0.2452213376
 20
21.988470407
 10
0.2660960745
 20
21.9998661625
 10
0.2874888662
 20
22.0102580466
 10
0.3093513075
 20
22.0196225458
 10
0.3316339307
 20
22.027938471
 10
0.3542863169
 20
22.035187006
 10
0.377257211
 20
22.0413517495
 10
0.400494637
 20
22.0464187527
 10
0.4239460157
 20
22.0503765506
 10
0.4475582841
 20
22.0532161878
 10
0.4712780149
 20
22.0549312391
 10
0.4950515378
 20
22.055517824
  0
LINE
  5
3F0
100
AcDbEntity
  8
RACCORDO
100
AcDbLine
 62
253
  6
CONTINUOUS
 10
-1.1318931794
 20
-23.1380259124
 11
-1.1449844781
 21
-23.5710386143
  0
LINE
  5
3F1
100
AcDbEntity
  8
RACCORDO
100
AcDbLine
 62
253
  6
CONTINUOUS
 10
-0.8812801531
 20
-23.3306056937
 11
-0.8950225543
 21
-23.7875449653
  0
LWPOLYLINE
  5
3F2
100
AcDbEntity
  8
RACCORDO
100
AcDbPolyline
 62
7
  6
CONTINUOUS
 90
19
 70
0
 10
-0.5117342939
 20
0.5222842403
 10
-0.5126588574
 20
0.498927848
 10
-0.5154527697
 20
0.4755250784
 10
-0.5201460649
 20
0.4522261952
 10
-0.5267313066
 20
0.4292630431
 10
-0.535226244
 20
0.4067158798
 10
-0.5457334089
 20
0.3845347545
 10
-0.5583372493
 20
0.3628263018
 10
-0.5730057682
 20
0.3418939185
 10
-0.5896771155
 20
0.3220078314
 10
-0.6082602219
 20
0.3034175624
 10
-0.6287176412
 20
0.2862867864
 10
-0.6510359464
 20
0.270769302
 10
-0.6751723327
 20
0.2570639422
 10
-0.7009331157
 20
0.2454420266
 10
-0.7280390517
 20
0.2361539051
 10
-0.7562454824
 20
0.2293865129
 10
-0.7853571937
 20
0.2252909107
 10
-0.8151185605
 20
0.2240105118
  0
LWPOLYLINE
  5
3F3
100
AcDbEntity
  8
RACCORDO
100
AcDbPolyline
 62
253
  6
CONTINUOUS
 90
13
 70
0
 10
-3.2294137444
 20
-23.3545322633
 10
-3.2270158037
 20
-23.3264275597
 10
-3.220428844
 20
-23.2987984103
 10
-3.2097643212
 20
-23.2721123269
 10
-3.1952026864
 20
-23.2468208631
 10
-3.1769903355
 20
-23.223351977
 10
-3.155435441
 20
-23.2021027887
 10
-3.130902734
 20
-23.1834328561
 10
-3.1038073305
 20
-23.1676580915
 10
-3.0746077113
 20
-23.155045419
 10
-3.0437979621
 20
-23.1458082575
 10
-3.0118994137
 20
-23.1401029086
 10
-2.9794518206
 20
-23.1380259124
  0
LWPOLYLINE
  5
3F4
100
AcDbEntity
  8
RACCORDO
100
AcDbPolyline
 62
253
  6
CONTINUOUS
 90
13
 70
0
 10
-3.2163224457
 20
-23.7875449653
 10
-3.2139149027
 20
-23.7593807583
 10
-3.2073022176
 20
-23.7316999998
 10
-3.1965989279
 20
-23.7049725214
 10
-3.1819903471
 20
-23.6796536804
 10
-3.1637256717
 20
-23.6561699566
 10
-3.1421106052
 20
-23.6349134741
 10
-3.1174888977
 20
-23.6162307283
 10
-3.0902955853
 20
-23.6004592468
 10
-3.061062158
 20
-23.5878931754
 10
-3.030320093
 20
-23.5787291319
 10
-2.9985738133
 20
-23.5730873705
 10
-2.9663605219
 20
-23.5710386143
  0
LINE
  5
3F5
100
AcDbEntity
  8
RACCORDO
100
AcDbLine
 62
253
  6
CONTINUOUS
 10
21.6443275
 20
24.3067968328
 11
21.6312289213
 21
24.2936982541
  0
LWPOLYLINE
  5
3F6
100
AcDbEntity
  8
RACCORDO
100
AcDbPolyline
 62
7
  6
CONTINUOUS
 90
7
 70
0
 10
-0.9520494045
 20
-0.2179041356
 10
-0.8711473402
 20
-0.1671135412
 10
-0.831006121
 20
-0.1429625938
 10
-0.7912130058
 20
-0.1201789189
 10
-0.7524050233
 20
-0.098790495
 10
-0.7147945163
 20
-0.0794807505
 10
-0.6781691419
 20
-0.0633677243
  0
LINE
  5
3F7
100
AcDbEntity
  8
RACCORDO
100
AcDbLine
 62
7
  6
CONTINUOUS
 10
-0.9930225926
 20
-0.243327446
 11
-0.9520494045
 21
-0.2179041356
  0
LINE
  5
3F8
100
AcDbEntity
  8
RACCORDO
100
AcDbLine
 62
7
  6
CONTINUOUS
 10
-0.6781691419
 20
-0.0633677243
 11
-0.6425289002
 21
-0.0514029399
  0
LINE
  5
3F9
100
AcDbEntity
  8
RACCORDO
100
AcDbLine
 62
253
  6
CONTINUOUS
 10
-0.9930225926
 20
-0.243327446
 11
-22.0183224074
 21
-0.243327446
  0
LINE
  5
3FA
100
AcDbEntity
  8
RACCORDO
100
AcDbLine
 62
253
  6
CONTINUOUS
 10
-0.4056725
 20
-0.243207398
 11
-0.4930987431
 21
-0.243207398
  0
LINE
  5
3FB
100
AcDbEntity
  8
RACCORDO
100
AcDbLine
 62
253
  6
CONTINUOUS
 10
-22.5182462569
 20
-0.243207398
 11
-22.6056725
 21
-0.243207398
  0
LINE
  5
3FC
100
AcDbEntity
  8
RACCORDO
100
AcDbLine
 62
7
  6
CONTINUOUS
 10
-0.6057029656
 20
-0.043207398
 11
-22.4056420344
 21
-0.043207398
  0
LINE
  5
3FD
100
AcDbEntity
  8
DRAFT
100
AcDbLine
 62
7
  6
CONTINUOUS
 10
-0.3853461104
 20
0.056792602
 11
-2.0126539942
 21
0.056792602
  0
LINE
  5
3FE
100
AcDbEntity
  8
DRAFT
100
AcDbLine
 62
7
  6
CONTINUOUS
 10
-3.1486910058
 20
0.056792602
 11
-19.8626539942
 21
0.056792602
  0
LINE
  5
3FF
100
AcDbEntity
  8
DRAFT
100
AcDbLine
 62
7
  6
CONTINUOUS
 10
-20.9986910058
 20
0.056792602
 11
-22.6259988896
 21
0.056792602
  0
LINE
  5
400
100
AcDbEntity
  8
RACCORDO
100
AcDbLine
 62
7
  6
CONTINUOUS
 10
-22.3306724983
 20
0.156792602
 11
-21.1556725
 21
0.156792602
  0
LINE
  5
401
100
AcDbEntity
  8
DRAFT
100
AcDbLine
 62
7
  6
CONTINUOUS
 10
-19.5056725
 20
0.156792602
 11
-12.3556725
 21
0.156792602
  0
LINE
  5
402
100
AcDbEntity
  8
DRAFT
100
AcDbLine
 62
7
  6
CONTINUOUS
 10
-10.6556725
 20
0.156792602
 11
-3.5056725
 21
0.156792602
  0
LINE
  5
403
100
AcDbEntity
  8
RACCORDO
100
AcDbLine
 62
7
  6
CONTINUOUS
 10
-1.8556725
 20
0.156792602
 11
-0.6806725017
 21
0.156792602
  0
LINE
  5
404
100
AcDbEntity
  8
DRAFT
100
AcDbLine
 62
7
  6
CONTINUOUS
 10
-1.8783623563
 20
0.1794824583
 11
-3.4829826437
 21
0.1794824583
  0
LINE
  5
405
100
AcDbEntity
  8
DRAFT
100
AcDbLine
 62
7
  6
CONTINUOUS
 10
-10.6783623563
 20
0.1794824583
 11
-12.3329826437
 21
0.1794824583
  0
LINE
  5
406
100
AcDbEntity
  8
DRAFT
100
AcDbLine
 62
7
  6
CONTINUOUS
 10
-19.5283623563
 20
0.1794824583
 11
-21.1329826437
 21
0.1794824583
  0
LINE
  5
407
100
AcDbEntity
  8
RACCORDO
100
AcDbLine
 62
7
  6
CONTINUOUS
 10
-0.8151185605
 20
0.2240105118
 11
-22.1962264395
 21
0.2240105118
  0
LWPOLYLINE
  5
408
100
AcDbEntity
  8
RACCORDO
100
AcDbPolyline
 62
7
  6
CONTINUOUS
 90
7
 70
0
 10
-0.6982134127
 20
-0.043207398
 10
-0.6889663577
 20
-0.0434237221
 10
-0.6797058239
 20
-0.0440823831
 10
-0.6704318113
 20
-0.0451972628
 10
-0.6611443198
 20
-0.0467812832
 10
-0.6518433494
 20
-0.0488462912
 10
-0.6425289002
 20
-0.0514029399
  0
LINE
  5
409
100
AcDbEntity
  8
RACCORDO
100
AcDbLine
 62
7
  6
CONTINUOUS
 10
-0.6425277451
 20
-0.0514029401
 11
-0.6110834365
 21
-0.0633604043
  0
LINE
  5
40A
100
AcDbEntity
  8
RACCORDO
100
AcDbLine
 62
253
  6
CONTINUOUS
 10
-0.8151185605
 20
0.2240105118
 11
-0.6806725017
 21
0.156792602
  0
LINE
  5
40B
100
AcDbEntity
  8
RACCORDO
100
AcDbLine
 62
253
  6
CONTINUOUS
 10
-0.511734192
 20
0.5222841894
 11
-0.3806725
 21
0.4567583341
  0
LWPOLYLINE
  5
40C
100
AcDbEntity
  8
RACCORDO
100
AcDbPolyline
 62
7
  6
CONTINUOUS
 90
9
 70
0
 10
-0.6110834365
 20
-0.0633604043
 10
-0.5831043985
 20
-0.0794624453
 10
-0.5589606674
 20
-0.0987590663
 10
-0.5389659457
 20
-0.120134439
 10
-0.5228917139
 20
-0.1429056407
 10
-0.5102938701
 20
-0.1670427154
 10
-0.5011212533
 20
-0.192254115
 10
-0.4954338472
 20
-0.2178007805
 10
-0.4930987431
 20
-0.243207398
  0
LINE
  5
40D
100
AcDbEntity
  8
RACCORDO
100
AcDbLine
 62
253
  6
CONTINUOUS
 10
21.6443275
 20
-24.1932116287
 11
21.6312289213
 21
-24.18011305
  0
LINE
  5
40E
100
AcDbEntity
  8
DRAFT
100
AcDbLine
 62
7
  6
CONTINUOUS
 10
-1.8556725
 20
0.156792602
 11
-1.8783623563
 21
0.1794824583
  0
LWPOLYLINE
  5
40F
100
AcDbEntity
  8
RACCORDO
100
AcDbPolyline
 62
253
  6
CONTINUOUS
 90
13
 70
0
 10
-0.8950225543
 20
24.2674806239
 10
-0.8971874259
 20
24.3002318139
 10
-0.9036270545
 20
24.3324268206
 10
-0.9142337335
 20
24.3635095711
 10
-0.928829061
 20
24.3929448753
 10
-0.9471633055
 20
24.4202200779
 10
-0.9689165268
 20
24.4448559755
 10
-0.9937678558
 20
24.4664684786
 10
-1.0212439187
 20
24.4846277374
 10
-1.0506683811
 20
24.4989371834
 10
-1.0814310103
 20
24.5092089043
 10
-1.1130500559
 20
24.5153845033
 10
-1.1449844781
 20
24.5174425477
  0
LWPOLYLINE
  5
410
100
AcDbEntity
  8
RACCORDO
100
AcDbPolyline
 62
7
  6
CONTINUOUS
 90
13
 70
0
 10
-0.8556725
 20
24.3068306783
 10
-0.8578122743
 20
24.3394527683
 10
-0.864191024
 20
24.3715180061
 10
-0.874700388
 20
24.4024780036
 10
-0.8891616611
 20
24.4318037282
 10
-0.9073280163
 20
24.4589925147
 10
-0.9288879196
 20
24.4835771824
 10
-0.9534725873
 20
24.5051370857
 10
-0.9806613738
 20
24.523303441
 10
-1.0099870984
 20
24.5377647141
 10
-1.0409470959
 20
24.548274078
 10
-1.0730123338
 20
24.5546528278
 10
-1.1056344238
 20
24.556792602
  0
LWPOLYLINE
  5
411
100
AcDbEntity
  8
RACCORDO
100
AcDbPolyline
 62
253
  6
CONTINUOUS
 90
16
 70
0
 10
-0.4878865124
 20
21.4846601466
 10
-0.490669611
 20
21.5368219876
 10
-0.4988930652
 20
21.5884130966
 10
-0.5124669111
 20
21.6388688927
 10
-0.5312426344
 20
21.6876372174
 10
-0.555014791
 20
21.7341843676
 10
-0.5835232521
 20
21.7780009384
 10
-0.6164560601
 20
21.8186074142
 10
-0.6534528338
 20
21.855559401
 10
-0.6941087025
 20
21.8884524863
 10
-0.7379787615
 20
21.9169266894
 10
-0.7845829254
 20
21.940670383
 10
-0.8334111639
 20
21.9594237011
 10
-0.8839291167
 20
21.9729814018
 10
-0.9355839453
 20
21.9811951061
 10
-0.9878103599
 20
21.9839749141
  0
LWPOLYLINE
  5
412
100
AcDbEntity
  8
RACCORDO
100
AcDbPolyline
 62
7
  6
CONTINUOUS
 90
34
 70
0
 10
0.3516082489
 20
23.3237799001
 10
0.3519059753
 20
23.3175383211
 10
0.3526772267
 20
23.31126521
 10
0.3539275894
 20
23.304978794
 10
0.3556616367
 20
23.2987047619
 10
0.3578830794
 20
23.2924552236
 10
0.3605950994
 20
23.2862287396
 10
0.3637995963
 20
23.2800458021
 10
0.3674975208
 20
23.2739261719
 10
0.3716897718
 20
23.2678680154
 10
0.376375256
 20
23.2618928387
 10
0.3815518979
 20
23.256021431
 10
0.3872182687
 20
23.2502516091
 10
0.3933700526
 20
23.2446056282
 10
0.400001835
 20
23.2391051351
 10
0.4071096378
 20
23.2337477993
 10
0.4146856333
 20
23.228556347
 10
0.4227207153
 20
23.2235530382
 10
0.4312079409
 20
23.2187356242
 10
0.4401356504
 20
23.2141269308
 10
0.4494906291
 20
23.209749522
 10
0.4592623037
 20
23.2056014741
 10
0.4694348149
 20
23.2017052151
 10
0.479990402
 20
23.1980831723
 10
0.4909140028
 20
23.1947339361
 10
0.5021850603
 20
23.191678903
 10
0.5137809848
 20
23.1889396967
 10
0.5256816826
 20
23.1865154153
 10
0.5378485103
 20
23.1844286146
 10
0.5502665652
 20
23.1826951556
 10
0.5629505593
 20
23.1813090346
 10
0.5758852699
 20
23.1802859526
 10
0.5890237714
 20
23.1796567628
 10
0.6023312468
 20
23.1794423329
  0
LWPOLYLINE
  5
413
100
AcDbEntity
  8
RACCORDO
100
AcDbPolyline
 62
7
  6
CONTINUOUS
 90
34
 70
0
 10
2.7370467511
 20
-23.2101946961
 10
2.7367490247
 20
-23.203953117
 10
2.7359777733
 20
-23.1976800059
 10
2.7347274106
 20
-23.1913935899
 10
2.7329933633
 20
-23.1851195578
 10
2.7307719206
 20
-23.1788700195
 10
2.7280599006
 20
-23.1726435355
 10
2.7248554037
 20
-23.1664605981
 10
2.7211574792
 20
-23.1603409679
 10
2.7169652282
 20
-23.1542828113
 10
2.712279744
 20
-23.1483076346
 10
2.7071031021
 20
-23.142436227
 10
2.7014367313
 20
-23.1366664051
 10
2.6952849474
 20
-23.1310204241
 10
2.688653165
 20
-23.125519931
 10
2.6815453622
 20
-23.1201625953
 10
2.6739693667
 20
-23.1149711429
 10
2.6659342847
 20
-23.1099678342
 10
2.6574470591
 20
-23.1051504201
 10
2.6485193496
 20
-23.1005417267
 10
2.6391643709
 20
-23.0961643179
 10
2.6293926963
 20
-23.09201627
 10
2.6192201851
 20
-23.088120011
 10
2.608664598
 20
-23.0844979682
 10
2.5977409972
 20
-23.081148732
 10
2.5864699397
 20
-23.0780936989
 10
2.5748740152
 20
-23.0753544926
 10
2.5629733174
 20
-23.0729302112
 10
2.5508064897
 20
-23.0708434105
 10
2.5383884348
 20
-23.0691099515
 10
2.5257044407
 20
-23.0677238305
 10
2.5127697301
 20
-23.0667007485
 10
2.4996312286
 20
-23.0660715587
 10
2.4863237532
 20
-23.0658571288
  0
LWPOLYLINE
  5
414
100
AcDbEntity
  8
RACCORDO
100
AcDbPolyline
 62
253
  6
CONTINUOUS
 90
10
 70
0
 10
0.0005084674
 20
21.4902938978
 10
-0.0000678061
 20
21.502392447
 10
-0.0006518662
 20
21.5133379544
 10
-0.0012415341
 20
21.5230896728
 10
-0.0018368485
 20
21.5316431259
 10
-0.0024377708
 20
21.53900279
 10
-0.0030420075
 20
21.545141347
 10
-0.0036487939
 20
21.5500496907
 10
-0.0042588947
 20
21.5537369273
 10
-0.0048723097
 20
21.5562030566
  0
LWPOLYLINE
  5
415
100
AcDbEntity
  8
RACCORDO
100
AcDbPolyline
 62
253
  6
CONTINUOUS
 90
8
 70
0
 10
0.4992724635
 20
21.9912038296
 10
0.4986828408
 20
22.0058349479
 10
0.4980876162
 20
22.0186738719
 10
0.4974867899
 20
22.0297051524
 10
0.4968825502
 20
22.0389155779
 10
0.4962756262
 20
22.0462937029
 10
0.4956652888
 20
22.0518301158
 10
0.4950515378
 20
22.055517824
  0
LINE
  5
416
100
AcDbEntity
  8
RACCORDO
100
AcDbLine
 62
253
  6
CONTINUOUS
 10
0.0016375841
 20
21.4626292982
 11
0.0005084674
 21
21.4902938978
  0
LWPOLYLINE
  5
417
100
AcDbEntity
  8
RACCORDO
100
AcDbPolyline
 62
253
  6
CONTINUOUS
 90
31
 70
0
 10
0.3574260787
 20
23.9011301693
 10
0.3578054104
 20
23.8898200188
 10
0.3588663924
 20
23.878540754
 10
0.3606061273
 20
23.8673231761
 10
0.3630198642
 20
23.856197918
 10
0.3661010118
 20
23.8451953605
 10
0.369841156
 20
23.8343455492
 10
0.3742300834
 20
23.8236781128
 10
0.3792558087
 20
23.8132221817
 10
0.3849046077
 20
23.8030063089
 10
0.3911610547
 20
23.7930583919
 10
0.3980080646
 20
23.7834055962
 10
0.4054269397
 20
23.7740742817
 10
0.4133974206
 20
23.7650899302
 10
0.4218977417
 20
23.7564770762
 10
0.4309046902
 20
23.7482592395
 10
0.4403936701
 20
23.7404588612
 10
0.450338769
 20
23.7330972427
 10
0.4607128289
 20
23.7261944869
 10
0.4714875204
 20
23.7197694439
 10
0.4826334201
 20
23.713839659
 10
0.4941200909
 20
23.7084213253
 10
0.5059161651
 20
23.7035292391
 10
0.51798943
 20
23.6991767596
 10
0.5303069162
 20
23.6953757727
 10
0.542834987
 20
23.6921366579
 10
0.5555394311
 20
23.6894682607
 10
0.5683855552
 20
23.6873778678
 10
0.5813382793
 20
23.6858711877
 10
0.5943622321
 20
23.6849523349
 10
0.6074218479
 20
23.6846238184
  0
LWPOLYLINE
  5
418
100
AcDbEntity
  8
RACCORDO
100
AcDbPolyline
 62
253
  6
CONTINUOUS
 90
31
 70
0
 10
2.7312289213
 20
-23.7875449653
 10
2.7308503657
 20
-23.776246993
 10
2.7297912381
 20
-23.764976689
 10
2.7280538616
 20
-23.7537648191
 10
2.7256421602
 20
-23.74264101
 10
2.7225622899
 20
-23.731636758
 10
2.7188232389
 20
-23.7207852182
 10
2.7144356945
 20
-23.7101170952
 10
2.7094112955
 20
-23.6996604218
 10
2.7037636149
 20
-23.689443503
 10
2.6975079223
 20
-23.6794940979
 10
2.6906613477
 20
-23.6698395733
 10
2.6832427395
 20
-23.6605065499
 10
2.6752724354
 20
-23.6515205997
 10
2.6667721406
 20
-23.6429061805
 10
2.6577650501
 20
-23.6346868021
 10
2.6482757465
 20
-23.6268849055
 10
2.6383301594
 20
-23.6195218173
 10
2.6279554765
 20
-23.6126176684
 10
2.6171800441
 20
-23.6061913218
 10
2.6060332861
 20
-23.6002603249
 10
2.594545649
 20
-23.5948408775
 10
2.5827484923
 20
-23.5899477755
 10
2.5706740559
 20
-23.5855943924
 10
2.5583553763
 20
-23.5817926351
 10
2.5458261409
 20
-23.5785528886
 10
2.5331205381
 20
-23.5758839822
 10
2.5202732173
 20
-23.5737931898
 10
2.50731925
 20
-23.5722862198
 10
2.4942940362
 20
-23.5713671914
 10
2.4812331521
 20
-23.5710386143
  0
LINE
  5
419
100
AcDbEntity
  8
RACCORDO
100
AcDbLine
 62
253
  6
CONTINUOUS
 10
0.0027293034
 20
21.4305083843
 11
0.0016375841
 21
21.4626292982
  0
LINE
  5
41A
100
AcDbEntity
  8
RACCORDO
100
AcDbLine
 62
253
  6
CONTINUOUS
 10
0.5004327165
 20
21.9566405471
 11
0.4992724635
 21
21.9912038296
  0
LINE
  5
41B
100
AcDbEntity
  8
RACCORDO
100
AcDbLine
 62
253
  6
CONTINUOUS
 10
0.5015617328
 20
21.9151570694
 11
0.5004327165
 21
21.9566405471
  0
LINE
  5
41C
100
AcDbEntity
  8
RACCORDO
100
AcDbLine
 62
253
  6
CONTINUOUS
 10
0.0042869516
 20
21.3742655969
 11
0.0027293034
 21
21.4305083843
  0
LINE
  5
41D
100
AcDbEntity
  8
RACCORDO
100
AcDbLine
 62
253
  6
CONTINUOUS
 10
0.0057325268
 20
21.3089356563
 11
0.0042869516
 21
21.3742655969
  0
LINE
  5
41E
100
AcDbEntity
  8
RACCORDO
100
AcDbLine
 62
253
  6
CONTINUOUS
 10
0.5031843659
 20
21.8404132754
 11
0.5015617328
 21
21.9151570694
  0
LINE
  5
41F
100
AcDbEntity
  8
RACCORDO
100
AcDbLine
 62
253
  6
CONTINUOUS
 10
0.0074583188
 20
21.2089435642
 11
0.0057325268
 21
21.3089356563
  0
LINE
  5
420
100
AcDbEntity
  8
RACCORDO
100
AcDbLine
 62
253
  6
CONTINUOUS
 10
0.5051882064
 20
21.7187211474
 11
0.5031843659
 21
21.8404132754
  0
LINE
  5
421
100
AcDbEntity
  8
RACCORDO
100
AcDbLine
 62
253
  6
CONTINUOUS
 10
0.0092431641
 20
21.0661554977
 11
0.0074583188
 21
21.2089435642
  0
LINE
  5
422
100
AcDbEntity
  8
RACCORDO
100
AcDbLine
 62
253
  6
CONTINUOUS
 10
0.3574260787
 20
-23.7875449653
 11
0.3516082489
 21
-23.2101946961
  0
LINE
  5
423
100
AcDbEntity
  8
RACCORDO
100
AcDbLine
 62
253
  6
CONTINUOUS
 10
0.6074218479
 20
-23.5710386143
 11
0.6023312468
 21
-23.0658571288
  0
LINE
  5
424
100
AcDbEntity
  8
RACCORDO
100
AcDbLine
 62
253
  6
CONTINUOUS
 10
0.5077735208
 20
21.4940369525
 11
0.5051882064
 21
21.7187211474
  0
LINE
  5
425
100
AcDbEntity
  8
RACCORDO
100
AcDbLine
 62
253
  6
CONTINUOUS
 10
0.0107693825
 20
20.8744990338
 11
0.0092431641
 21
21.0661554977
  0
LINE
  5
426
100
AcDbEntity
  8
RACCORDO
100
AcDbLine
 62
253
  6
CONTINUOUS
 10
0.510263365
 20
21.1318244236
 11
0.5077735208
 21
21.4940369525
  0
LINE
  5
427
100
AcDbEntity
  8
RACCORDO
100
AcDbLine
 62
253
  6
CONTINUOUS
 10
0.0112599719
 20
20.7728349613
 11
0.0107693825
 21
20.8744990338
  0
LINE
  5
428
100
AcDbEntity
  8
RACCORDO
100
AcDbLine
 62
253
  6
CONTINUOUS
 10
0.5115783085
 20
20.6192609269
 11
0.510263365
 21
21.1318244236
  0
LINE
  5
429
100
AcDbEntity
  8
RACCORDO
100
AcDbLine
 62
253
  6
CONTINUOUS
 10
0.5141203913
 20
16.7042184696
 11
0.5115783085
 21
20.6192609269
  0
LINE
  5
42A
100
AcDbEntity
  8
RACCORDO
100
AcDbLine
 62
253
  6
CONTINUOUS
 10
0.5169303052
 20
10.8298137409
 11
0.5141203913
 21
16.7042184696
  0
LINE
  5
42B
100
AcDbEntity
  8
RACCORDO
100
AcDbLine
 62
253
  6
CONTINUOUS
 10
0.518134649
 20
6.9126671575
 11
0.5169303052
 21
10.8298137409
  0
LINE
  5
42C
100
AcDbEntity
  8
RACCORDO
100
AcDbLine
 62
7
  6
CONTINUOUS
 10
0.3443275
 20
-22.3428973659
 11
0.3443275
 21
-24.1932116287
  0
LINE
  5
42D
100
AcDbEntity
  8
RACCORDO
100
AcDbLine
 62
7
  6
CONTINUOUS
 10
0.3443275
 20
22.45648257
 11
0.3443275
 21
24.3067968328
  0
LINE
  5
42E
100
AcDbEntity
  8
RACCORDO
100
AcDbLine
 62
253
  6
CONTINUOUS
 10
0.3516082489
 20
23.3237799001
 11
0.3516082489
 21
22.3902035635
  0
LINE
  5
42F
100
AcDbEntity
  8
RACCORDO
100
AcDbLine
 62
253
  6
CONTINUOUS
 10
0.3516082489
 20
-22.2766183594
 11
0.3516082489
 21
-23.2101946961
  0
LINE
  5
430
100
AcDbEntity
  8
RACCORDO
100
AcDbLine
 62
253
  6
CONTINUOUS
 10
0.3574260787
 20
24.2936982541
 11
0.3574260787
 21
23.9011301693
  0
LINE
  5
431
100
AcDbEntity
  8
RACCORDO
100
AcDbLine
 62
253
  6
CONTINUOUS
 10
0.3574260787
 20
-23.7875449653
 11
0.3574260787
 21
-24.18011305
  0
LINE
  5
432
100
AcDbEntity
  8
RACCORDO
100
AcDbLine
 62
253
  6
CONTINUOUS
 10
0.6016040181
 20
23.1794423329
 11
0.6016040181
 21
22.3781809331
  0
LINE
  5
433
100
AcDbEntity
  8
RACCORDO
100
AcDbLine
 62
253
  6
CONTINUOUS
 10
0.6016040181
 20
-22.264595729
 11
0.6016040181
 21
-23.0658571288
  0
LINE
  5
434
100
AcDbEntity
  8
RACCORDO
100
AcDbLine
 62
253
  6
CONTINUOUS
 10
0.6074218479
 20
-23.5710386143
 11
0.6074218479
 21
-24.4301088192
  0
LINE
  5
435
100
AcDbEntity
  8
RACCORDO
100
AcDbLine
 62
253
  6
CONTINUOUS
 10
0.6074218479
 20
23.6846238184
 11
0.6074218479
 21
24.5436940233
  0
LINE
  5
436
100
AcDbEntity
  8
RACCORDO
100
AcDbLine
 62
253
  6
CONTINUOUS
 10
0.5185361155
 20
-4.8403358055
 11
0.518134649
 21
6.9126671575
  0
LINE
  5
437
100
AcDbEntity
  8
RACCORDO
100
AcDbLine
 62
253
  6
CONTINUOUS
 10
0.5169303052
 20
-10.716228537
 11
0.5185361155
 21
-4.8403358055
  0
LINE
  5
438
100
AcDbEntity
  8
RACCORDO
100
AcDbLine
 62
253
  6
CONTINUOUS
 10
0.5151907857
 20
-14.6327137749
 11
0.5169303052
 21
-10.716228537
  0
LINE
  5
439
100
AcDbEntity
  8
RACCORDO
100
AcDbLine
 62
253
  6
CONTINUOUS
 10
0.5129162322
 20
-18.5482972642
 11
0.5151907857
 21
-14.6327137749
  0
LINE
  5
43A
100
AcDbEntity
  8
RACCORDO
100
AcDbLine
 62
253
  6
CONTINUOUS
 10
0.5102633601
 20
-21.0182396643
 11
0.5129162322
 21
-18.5482972642
  0
LINE
  5
43B
100
AcDbEntity
  8
RACCORDO
100
AcDbLine
 62
253
  6
CONTINUOUS
 10
0.0098300139
 20
-20.8907930157
 11
0.0112599129
 21
-20.6592656761
  0
LINE
  5
43C
100
AcDbEntity
  8
RACCORDO
100
AcDbLine
 62
253
  6
CONTINUOUS
 10
0.5077735111
 20
-21.3804520902
 11
0.5102633601
 21
-21.0182396643
  0
LINE
  5
43D
100
AcDbEntity
  8
RACCORDO
100
AcDbLine
 62
253
  6
CONTINUOUS
 10
0.3516082489
 20
23.3237799001
 11
0.3574260787
 21
23.9011301693
  0
LINE
  5
43E
100
AcDbEntity
  8
RACCORDO
100
AcDbLine
 62
253
  6
CONTINUOUS
 10
0.6023312468
 20
23.1794423329
 11
0.6074218479
 21
23.6846238184
  0
LINE
  5
43F
100
AcDbEntity
  8
RACCORDO
100
AcDbLine
 62
253
  6
CONTINUOUS
 10
0.0078496567
 20
-21.0682980245
 11
0.0098300139
 21
-20.8907930157
  0
LINE
  5
440
100
AcDbEntity
  8
RACCORDO
100
AcDbLine
 62
253
  6
CONTINUOUS
 10
0.5051881939
 20
-21.6051362228
 11
0.5077735111
 21
-21.3804520902
  0
LINE
  5
441
100
AcDbEntity
  8
RACCORDO
100
AcDbLine
 62
253
  6
CONTINUOUS
 10
0.0061867797
 20
-21.1716708261
 11
0.0078496567
 21
-21.0682980245
  0
LINE
  5
442
100
AcDbEntity
  8
RACCORDO
100
AcDbLine
 62
253
  6
CONTINUOUS
 10
0.5031843528
 20
-21.7268283206
 11
0.5051881939
 21
-21.6051362228
  0
LINE
  5
443
100
AcDbEntity
  8
RACCORDO
100
AcDbLine
 62
253
  6
CONTINUOUS
 10
0.0047822329
 20
-21.2398730551
 11
0.0061867797
 21
-21.1716708261
  0
LINE
  5
444
100
AcDbEntity
  8
RACCORDO
100
AcDbLine
 62
253
  6
CONTINUOUS
 10
0.5015617195
 20
-21.8015720861
 11
0.5031843528
 21
-21.7268283206
  0
LINE
  5
445
100
AcDbEntity
  8
RACCORDO
100
AcDbLine
 62
253
  6
CONTINUOUS
 10
0.003260091
 20
-21.2992203223
 11
0.0047822329
 21
-21.2398730551
  0
LINE
  5
446
100
AcDbEntity
  8
RACCORDO
100
AcDbLine
 62
253
  6
CONTINUOUS
 10
0.5004327033
 20
-21.8430555188
 11
0.5015617195
 21
-21.8015720861
  0
LINE
  5
447
100
AcDbEntity
  8
RACCORDO
100
AcDbLine
 62
253
  6
CONTINUOUS
 10
0.0021881207
 20
-21.3335434623
 11
0.003260091
 21
-21.2992203223
  0
LWPOLYLINE
  5
448
100
AcDbEntity
  8
RACCORDO
100
AcDbPolyline
 62
253
  6
CONTINUOUS
 90
31
 70
0
 10
0.3574260787
 20
-23.7875449653
 10
0.3578046343
 20
-23.776246993
 10
0.3588637619
 20
-23.764976689
 10
0.3606011384
 20
-23.7537648191
 10
0.3630128398
 20
-23.74264101
 10
0.3660927101
 20
-23.731636758
 10
0.3698317611
 20
-23.7207852182
 10
0.3742193055
 20
-23.7101170952
 10
0.3792437045
 20
-23.6996604218
 10
0.3848913851
 20
-23.689443503
 10
0.3911470777
 20
-23.6794940979
 10
0.3979936523
 20
-23.6698395733
 10
0.4054122605
 20
-23.6605065499
 10
0.4133825646
 20
-23.6515205997
 10
0.4218828594
 20
-23.6429061805
 10
0.4308899499
 20
-23.6346868021
 10
0.4403792535
 20
-23.6268849055
 10
0.4503248406
 20
-23.6195218173
 10
0.4606995235
 20
-23.6126176684
 10
0.4714749559
 20
-23.6061913218
 10
0.4826217139
 20
-23.6002603249
 10
0.494109351
 20
-23.5948408775
 10
0.5059065077
 20
-23.5899477755
 10
0.5179809441
 20
-23.5855943924
 10
0.5302996237
 20
-23.5817926351
 10
0.5428288591
 20
-23.5785528886
 10
0.5555344619
 20
-23.5758839822
 10
0.5683817827
 20
-23.5737931898
 10
0.58133575
 20
-23.5722862198
 10
0.5943609638
 20
-23.5713671914
 10
0.6074218479
 20
-23.5710386143
  0
LWPOLYLINE
  5
449
100
AcDbEntity
  8
RACCORDO
100
AcDbPolyline
 62
253
  6
CONTINUOUS
 90
31
 70
0
 10
2.7312289213
 20
23.9011301693
 10
2.7308495896
 20
23.8898200188
 10
2.7297886076
 20
23.878540754
 10
2.7280488727
 20
23.8673231761
 10
2.7256351358
 20
23.856197918
 10
2.7225539882
 20
23.8451953605
 10
2.718813844
 20
23.8343455492
 10
2.7144249166
 20
23.8236781128
 10
2.7093991913
 20
23.8132221817
 10
2.7037503923
 20
23.8030063089
 10
2.6974939453
 20
23.7930583919
 10
2.6906469354
 20
23.7834055962
 10
2.6832280603
 20
23.7740742817
 10
2.6752575794
 20
23.7650899302
 10
2.6667572583
 20
23.7564770762
 10
2.6577503098
 20
23.7482592395
 10
2.6482613299
 20
23.7404588612
 10
2.638316231
 20
23.7330972427
 10
2.6279421711
 20
23.7261944869
 10
2.6171674796
 20
23.7197694439
 10
2.6060215799
 20
23.713839659
 10
2.5945349091
 20
23.7084213253
 10
2.5827388349
 20
23.7035292391
 10
2.57066557
 20
23.6991767596
 10
2.5583480838
 20
23.6953757727
 10
2.545820013
 20
23.6921366579
 10
2.5331155689
 20
23.6894682607
 10
2.5202694448
 20
23.6873778678
 10
2.5073167207
 20
23.6858711877
 10
2.4942927679
 20
23.6849523349
 10
2.4812331521
 20
23.6846238184
  0
LWPOLYLINE
  5
44A
100
AcDbEntity
  8
RACCORDO
100
AcDbPolyline
 62
7
  6
CONTINUOUS
 90
34
 70
0
 10
2.7370467511
 20
23.3237799001
 10
2.7367490247
 20
23.3175383211
 10
2.7359777733
 20
23.31126521
 10
2.7347274106
 20
23.304978794
 10
2.7329933633
 20
23.2987047619
 10
2.7307719206
 20
23.2924552236
 10
2.7280599006
 20
23.2862287396
 10
2.7248554037
 20
23.2800458021
 10
2.7211574792
 20
23.2739261719
 10
2.7169652282
 20
23.2678680154
 10
2.712279744
 20
23.2618928387
 10
2.7071031021
 20
23.256021431
 10
2.7014367313
 20
23.2502516091
 10
2.6952849474
 20
23.2446056282
 10
2.688653165
 20
23.2391051351
 10
2.6815453622
 20
23.2337477993
 10
2.6739693667
 20
23.228556347
 10
2.6659342847
 20
23.2235530382
 10
2.6574470591
 20
23.2187356242
 10
2.6485193496
 20
23.2141269308
 10
2.6391643709
 20
23.209749522
 10
2.6293926963
 20
23.2056014741
 10
2.6192201851
 20
23.2017052151
 10
2.608664598
 20
23.1980831723
 10
2.5977409972
 20
23.1947339361
 10
2.5864699397
 20
23.191678903
 10
2.5748740152
 20
23.1889396967
 10
2.5629733174
 20
23.1865154153
 10
2.5508064897
 20
23.1844286146
 10
2.5383884348
 20
23.1826951556
 10
2.5257044407
 20
23.1813090346
 10
2.5127697301
 20
23.1802859526
 10
2.4996312286
 20
23.1796567628
 10
2.4863237532
 20
23.1794423329
  0
LWPOLYLINE
  5
44B
100
AcDbEntity
  8
RACCORDO
100
AcDbPolyline
 62
253
  6
CONTINUOUS
 90
16
 70
0
 10
-0.4692265773
 20
-21.4021612633
 10
-0.472009734
 20
-21.4543236523
 10
-0.4802333414
 20
-21.505915203
 10
-0.4938074045
 20
-21.5563713243
 10
-0.5125833758
 20
-21.6051398505
 10
-0.5363557809
 20
-21.6516870839
 10
-0.5648644668
 20
-21.6955036358
 10
-0.5977974491
 20
-21.7361100004
 10
-0.6347943264
 20
-21.7730618027
 10
-0.675450224
 20
-21.8059546613
 10
-0.7193202247
 20
-21.8344286137
 10
-0.7659242379
 20
-21.8581720558
 10
-0.8147522534
 20
-21.8769251515
 10
-0.8652699227
 20
-21.8904826767
 10
-0.9169244066
 20
-21.8986962648
 10
-0.9691504249
 20
-21.9014760307
  0
LWPOLYLINE
  5
44C
100
AcDbEntity
  8
RACCORDO
100
AcDbPolyline
 62
253
  6
CONTINUOUS
 90
8
 70
0
 10
-1.1318931794
 20
-23.1380259124
 10
-1.1310284176
 20
-23.1220091482
 10
-1.130253673
 20
-23.1032832468
 10
-1.1295689455
 20
-23.0821080858
 10
-1.1289676251
 20
-23.0587808588
 10
-1.1284563219
 20
-23.0336172837
 10
-1.128054866
 20
-23.0069435704
 10
-1.1275947167
 20
-22.9505108225
  0
LWPOLYLINE
  5
44D
100
AcDbEntity
  8
RACCORDO
100
AcDbPolyline
 62
253
  6
CONTINUOUS
 90
13
 70
0
 10
-0.8950225543
 20
-24.1538954199
 10
-0.8970805987
 20
-24.1858298421
 10
-0.9032561977
 20
-24.2174488877
 10
-0.9135279187
 20
-24.2482115168
 10
-0.9278373647
 20
-24.2776359793
 10
-0.9459966235
 20
-24.3051120422
 10
-0.9676091265
 20
-24.3299633711
 10
-0.9922450241
 20
-24.3517165925
 10
-1.0195202268
 20
-24.370050837
 10
-1.048955531
 20
-24.3846461645
 10
-1.0800382814
 20
-24.3952528435
 10
-1.1122332881
 20
-24.401692472
 10
-1.1449844781
 20
-24.4038573436
  0
LWPOLYLINE
  5
44E
100
AcDbEntity
  8
RACCORDO
100
AcDbPolyline
 62
7
  6
CONTINUOUS
 90
13
 70
0
 10
-0.8556725
 20
-24.1932454742
 10
-0.8578122743
 20
-24.2258675642
 10
-0.864191024
 20
-24.257932802
 10
-0.874700388
 20
-24.2888927996
 10
-0.8891616611
 20
-24.3182185241
 10
-0.9073280163
 20
-24.3454073106
 10
-0.9288879196
 20
-24.3699919783
 10
-0.9534725873
 20
-24.3915518817
 10
-0.9806613738
 20
-24.4097182369
 10
-1.0099870984
 20
-24.42417951
 10
-1.0409470959
 20
-24.4346888739
 10
-1.0730123338
 20
-24.4410676237
 10
-1.1056344238
 20
-24.443207398
  0
LINE
  5
44F
100
AcDbEntity
  8
RACCORDO
100
AcDbLine
 62
7
  6
CONTINUOUS
 10
2.7443275
 20
22.456792602
 11
2.7370467511
 21
22.3912066543
  0
LINE
  5
450
100
AcDbEntity
  8
RACCORDO
100
AcDbLine
 62
7
  6
CONTINUOUS
 10
-22.1337775106
 20
-22.3213124086
 11
-22.1554658067
 21
-22.3430007047
  0
LINE
  5
451
100
AcDbEntity
  8
RACCORDO
100
AcDbLine
 62
253
  6
CONTINUOUS
 10
-22.1556725
 20
-24.1932454742
 11
-22.1163224457
 21
-24.1538954199
  0
LINE
  5
452
100
AcDbEntity
  8
RACCORDO
100
AcDbLine
 62
253
  6
CONTINUOUS
 10
-21.9057105762
 20
-24.443207398
 11
-21.8663605219
 21
-24.4038573436
  0
LWPOLYLINE
  5
453
100
AcDbEntity
  8
RACCORDO
100
AcDbPolyline
 62
253
  6
CONTINUOUS
 90
4
 70
0
 10
-22.4729213407
 20
0.5229508997
 10
-22.4870385888
 20
0.5227740534
 10
-22.4959340058
 20
0.5225534111
 10
-22.4995122807
 20
0.5222838987
  0
LINE
  5
454
100
AcDbEntity
  8
RACCORDO
100
AcDbLine
 62
253
  6
CONTINUOUS
 10
-22.4010207712
 20
0.523282096
 11
-22.4729213407
 21
0.5229508997
  0
LINE
  5
455
100
AcDbEntity
  8
RACCORDO
100
AcDbLine
 62
253
  6
CONTINUOUS
 10
-21.9996928223
 20
0.52427957
 11
-22.2471188109
 21
0.5235410674
  0
LINE
  5
456
100
AcDbEntity
  8
RACCORDO
100
AcDbLine
 62
253
  6
CONTINUOUS
 10
-22.2471188109
 20
0.5235410674
 11
-22.4010207712
 21
0.523282096
  0
LINE
  5
457
100
AcDbEntity
  8
RACCORDO
100
AcDbLine
 62
253
  6
CONTINUOUS
 10
-0.9599680397
 20
0.5240625169
 11
-21.9996928222
 21
0.5242795809
  0
LWPOLYLINE
  5
458
100
AcDbEntity
  8
RACCORDO
100
AcDbPolyline
 62
253
  6
CONTINUOUS
 90
6
 70
0
 10
-0.5117534399
 20
0.5222842311
 10
-0.5153317763
 20
0.5225483948
 10
-0.5242279192
 20
0.5227659689
 10
-0.5383466163
 20
0.5229417381
 10
-0.5575366485
 20
0.5230813516
 10
-0.9599680397
 20
0.5240625169
  0
LINE
  5
459
100
AcDbEntity
  8
RACCORDO
100
AcDbLine
 62
7
  6
CONTINUOUS
 10
-22.1337775106
 20
22.4348976127
 11
-22.1554658067
 21
22.4565859088
  0
LINE
  5
45A
100
AcDbEntity
  8
RACCORDO
100
AcDbLine
 62
253
  6
CONTINUOUS
 10
-22.1163224457
 20
24.2674806239
 11
-22.1556725
 21
24.3068306783
  0
LINE
  5
45B
100
AcDbEntity
  8
RACCORDO
100
AcDbLine
 62
253
  6
CONTINUOUS
 10
-21.8663605219
 20
24.5174425477
 11
-21.9057105762
 21
24.556792602
  0
LINE
  5
45C
100
AcDbEntity
  8
RACCORDO
100
AcDbLine
 62
7
  6
CONTINUOUS
 10
2.7443275
 20
-22.343207398
 11
2.7370467511
 21
-22.2776214503
  0
LINE
  5
45D
100
AcDbEntity
  8
RACCORDO
100
AcDbLine
 62
7
  6
CONTINUOUS
 10
0.3443275
 20
22.4565006792
 11
0.3516082489
 21
22.3902035635
  0
LWPOLYLINE
  5
45E
100
AcDbEntity
  8
RACCORDO
100
AcDbPolyline
 62
253
  6
CONTINUOUS
 90
31
 70
0
 10
2.7312289213
 20
24.2936982541
 10
2.7308857323
 20
24.3067846082
 10
2.7298579893
 20
24.3198351066
 10
2.7281485061
 20
24.332813964
 10
2.7257619634
 20
24.3456856036
 10
2.7227049023
 20
24.3584147176
 10
2.7189857128
 20
24.370966365
 10
2.7146145977
 20
24.3833061211
 10
2.7096035422
 20
24.3954001584
 10
2.7039662939
 20
24.407215304
 10
2.6977183148
 20
24.4187191598
 10
2.690876739
 20
24.4298801858
 10
2.6834603321
 20
24.4406677761
 10
2.6754894239
 20
24.4510523653
 10
2.6669858824
 20
24.4610054688
 10
2.6579730633
 20
24.4704997619
 10
2.6484757289
 20
24.4795091837
 10
2.6385198917
 20
24.4880090807
 10
2.6281327658
 20
24.4959762229
 10
2.6173426866
 20
24.5033888529
 10
2.6061793682
 20
24.5102265348
 10
2.5946737678
 20
24.5164703364
 10
2.5828576896
 20
24.522103085
 10
2.5707633334
 20
24.5271095149
 10
2.5584235295
 20
24.531476066
 10
2.5458693449
 20
24.5351915057
 10
2.5331378798
 20
24.5382446191
 10
2.520272161
 20
24.5406257493
 10
2.5073103864
 20
24.5423293535
 10
2.494285492
 20
24.5433526161
 10
2.4812331521
 20
24.5436940233
  0
LWPOLYLINE
  5
45F
100
AcDbEntity
  8
RACCORDO
100
AcDbPolyline
 62
7
  6
CONTINUOUS
 90
34
 70
0
 10
2.7443275
 20
24.3067968328
 10
2.7440443498
 20
24.3186921181
 10
2.7431955342
 20
24.3305604576
 10
2.7417829741
 20
24.3423749682
 10
2.7398098677
 20
24.3541088895
 10
2.7372806817
 20
24.3657356408
 10
2.7342011417
 20
24.377228881
 10
2.7305782213
 20
24.3885625758
 10
2.7264201258
 20
24.3997110513
 10
2.7217362722
 20
24.4106490483
 10
2.7165372688
 20
24.4213517896
 10
2.7108348916
 20
24.4317950303
 10
2.7046420581
 20
24.4419551079
 10
2.6979727955
 20
24.4518090072
 10
2.6908422107
 20
24.4613344059
 10
2.6832664589
 20
24.4705097211
 10
2.6752627005
 20
24.4793141681
 10
2.6668490661
 20
24.4877278025
 10
2.6580446191
 20
24.4957315609
 10
2.6488693038
 20
24.5033073128
 10
2.6393439051
 20
24.5104378975
 10
2.6294900059
 20
24.5171071602
 10
2.6193299283
 20
24.5232999937
 10
2.6088866876
 20
24.5290023709
 10
2.5981839463
 20
24.5342013742
 10
2.5872459493
 20
24.5388852278
 10
2.5760974738
 20
24.5430433234
 10
2.564763779
 20
24.5466662437
 10
2.5532705388
 20
24.5497457838
 10
2.5416437875
 20
24.5522749698
 10
2.5299098661
 20
24.5542480762
 10
2.5180953556
 20
24.5556606363
 10
2.506227016
 20
24.5565094518
 10
2.4943317308
 20
24.556792602
  0
LINE
  5
460
100
AcDbEntity
  8
RACCORDO
100
AcDbLine
 62
253
  6
CONTINUOUS
 10
2.4812331521
 20
23.6846238184
 11
2.4863237532
 21
23.1794423329
  0
LINE
  5
461
100
AcDbEntity
  8
RACCORDO
100
AcDbLine
 62
253
  6
CONTINUOUS
 10
2.7312289213
 20
23.9011301693
 11
2.7370467511
 21
23.3237799001
  0
LINE
  5
462
100
AcDbEntity
  8
RACCORDO
100
AcDbLine
 62
253
  6
CONTINUOUS
 10
2.4812331521
 20
-23.5710386143
 11
2.4812331521
 21
-24.4301088192
  0
LINE
  5
463
100
AcDbEntity
  8
RACCORDO
100
AcDbLine
 62
253
  6
CONTINUOUS
 10
2.4812331521
 20
23.6846238184
 11
2.4812331521
 21
24.5436940233
  0
LINE
  5
464
100
AcDbEntity
  8
RACCORDO
100
AcDbLine
 62
253
  6
CONTINUOUS
 10
2.4870509819
 20
23.1794423329
 11
2.4870509819
 21
22.3781809331
  0
LINE
  5
465
100
AcDbEntity
  8
RACCORDO
100
AcDbLine
 62
253
  6
CONTINUOUS
 10
2.4870509819
 20
-22.264595729
 11
2.4870509819
 21
-23.0658571288
  0
LINE
  5
466
100
AcDbEntity
  8
RACCORDO
100
AcDbLine
 62
253
  6
CONTINUOUS
 10
2.7312289213
 20
-24.18011305
 11
2.7312289213
 21
-23.7875449653
  0
LINE
  5
467
100
AcDbEntity
  8
RACCORDO
100
AcDbLine
 62
253
  6
CONTINUOUS
 10
2.7312289213
 20
23.9011301693
 11
2.7312289213
 21
24.2936982541
  0
LINE
  5
468
100
AcDbEntity
  8
RACCORDO
100
AcDbLine
 62
253
  6
CONTINUOUS
 10
2.7370467511
 20
23.3237799001
 11
2.7370467511
 21
22.3912066543
  0
LINE
  5
469
100
AcDbEntity
  8
RACCORDO
100
AcDbLine
 62
253
  6
CONTINUOUS
 10
2.7370467511
 20
-22.2776214503
 11
2.7370467511
 21
-23.2101946961
  0
LINE
  5
46A
100
AcDbEntity
  8
RACCORDO
100
AcDbLine
 62
7
  6
CONTINUOUS
 10
2.7443275
 20
-22.343207398
 11
2.7443275
 21
-24.1932116287
  0
LINE
  5
46B
100
AcDbEntity
  8
RACCORDO
100
AcDbLine
 62
7
  6
CONTINUOUS
 10
2.7443275
 20
22.456792602
 11
2.7443275
 21
24.3067968328
  0
LINE
  5
46C
100
AcDbEntity
  8
RACCORDO
100
AcDbLine
 62
253
  6
CONTINUOUS
 10
2.4863237532
 20
-23.0658571288
 11
2.4812331521
 21
-23.5710386143
  0
LINE
  5
46D
100
AcDbEntity
  8
RACCORDO
100
AcDbLine
 62
253
  6
CONTINUOUS
 10
2.7370467511
 20
-23.2101946961
 11
2.7312289213
 21
-23.7875449653
  0
LINE
  5
46E
100
AcDbEntity
  8
RACCORDO
100
AcDbLine
 62
7
  6
CONTINUOUS
 10
0.3516082489
 20
-22.2766183594
 11
0.3443275
 21
-22.3429154751
  0
LWPOLYLINE
  5
46F
100
AcDbEntity
  8
RACCORDO
100
AcDbPolyline
 62
253
  6
CONTINUOUS
 90
9
 70
0
 10
0.4950515378
 20
-21.9419326199
 10
0.4956652816
 20
-21.9382449357
 10
0.4962756141
 20
-21.9327085567
 10
0.4968825351
 20
-21.9253304675
 10
0.4974867751
 20
-21.9161200664
 10
0.4980876037
 20
-21.9050887942
 10
0.4986828299
 20
-21.8922498764
 10
0.4992724523
 20
-21.877618771
 10
0.5004327033
 20
-21.8430555188
  0
LINE
  5
470
100
AcDbEntity
  8
RACCORDO
100
AcDbLine
 62
7
  6
CONTINUOUS
 10
-15.9056725
 20
-22.343207398
 11
-15.8967926511
 21
-22.3343275491
  0
LINE
  5
471
100
AcDbEntity
  8
RACCORDO
100
AcDbLine
 62
7
  6
CONTINUOUS
 10
-15.9056725
 20
22.456792602
 11
-15.8967926511
 21
22.4479127531
  0
LINE
  5
472
100
AcDbEntity
  8
DRAFT
100
AcDbLine
 62
7
  6
CONTINUOUS
 10
6.5943275
 20
-23.743207398
 11
6.5943275
 21
-22.343207398
  0
LINE
  5
473
100
AcDbEntity
  8
DRAFT
100
AcDbLine
 62
7
  6
CONTINUOUS
 10
6.5943275
 20
22.456792602
 11
6.5943275
 21
23.856792602
  0
LINE
  5
474
100
AcDbEntity
  8
RACCORDO
100
AcDbLine
 62
253
  6
CONTINUOUS
 10
6.5972533382
 20
23.8538667638
 11
6.5972533382
 21
22.4304362652
  0
LINE
  5
475
100
AcDbEntity
  8
RACCORDO
100
AcDbLine
 62
253
  6
CONTINUOUS
 10
6.5972533382
 20
-22.3168510611
 11
6.5972533382
 21
-23.7402815598
  0
LWPOLYLINE
  5
476
100
AcDbEntity
  8
RACCORDO
100
AcDbPolyline
 62
253
  6
CONTINUOUS
 90
12
 70
0
 10
-0.0048723097
 20
-21.4426178526
 10
-0.0042590117
 20
-21.4401526128
 10
-0.0036489991
 20
-21.4364661838
 10
-0.003042272
 20
-21.4315585657
 10
-0.0024380563
 20
-21.425420618
 10
-0.0018371259
 20
-21.4180614811
 10
-0.0012418033
 20
-21.4095085765
 10
-0.0006521362
 20
-21.3997574672
 10
-0.0000680768
 20
-21.3888125901
 10
0.0005081965
 20
-21.3767146778
 10
0.001076648
 20
-21.3634595387
 10
0.0021881207
 20
-21.3335434623
  0
LINE
  5
477
100
AcDbEntity
  8
RACCORDO
100
AcDbLine
 62
253
  6
CONTINUOUS
 10
-0.1382555976
 20
-21.8430931265
 11
-0.0048723097
 21
-21.4426178526
  0
LINE
  5
478
100
AcDbEntity
  8
RACCORDO
100
AcDbLine
 62
7
  6
CONTINUOUS
 10
-15.9056725
 20
-23.743207398
 11
-15.8967926511
 21
-23.7343275491
  0
LWPOLYLINE
  5
479
100
AcDbEntity
  8
RACCORDO
100
AcDbPolyline
 62
7
  6
CONTINUOUS
 90
7
 70
0
 10
-22.3688161012
 20
-0.0514029412
 10
-22.3595027441
 20
-0.0488465454
 10
-22.3502024289
 20
-0.0467816073
 10
-22.3409151556
 20
-0.0451975352
 10
-22.3316409242
 20
-0.0440825439
 10
-22.3223797348
 20
-0.0434237721
 10
-22.3131315873
 20
-0.043207398
  0
LINE
  5
47A
100
AcDbEntity
  8
RACCORDO
100
AcDbLine
 62
7
  6
CONTINUOUS
 10
-15.9056725
 20
23.856792602
 11
-15.8967926511
 21
23.8479127531
  0
LINE
  5
47B
100
AcDbEntity
  8
RACCORDO
100
AcDbLine
 62
253
  6
CONTINUOUS
 10
-0.0048723097
 20
21.5562030566
 11
-0.1382555976
 21
21.9566783306
  0
LINE
  5
47C
100
AcDbEntity
  8
RACCORDO
100
AcDbLine
 62
253
  6
CONTINUOUS
 10
7.0972448766
 20
23.6521349535
 11
7.0972448766
 21
22.4043848228
  0
LINE
  5
47D
100
AcDbEntity
  8
RACCORDO
100
AcDbLine
 62
253
  6
CONTINUOUS
 10
7.0972448766
 20
-22.2907996187
 11
7.0972448766
 21
-23.5385497494
  0
LINE
  5
47E
100
AcDbEntity
  8
RACCORDO
100
AcDbLine
 62
7
  6
CONTINUOUS
 10
6.5943275
 20
-22.343207398
 11
6.5972533382
 21
-22.3168510611
  0
LINE
  5
47F
100
AcDbEntity
  8
RACCORDO
100
AcDbLine
 62
253
  6
CONTINUOUS
 10
0.4950515378
 20
-21.9419326199
 11
0.38541216
 21
-22.2711182366
  0
LWPOLYLINE
  5
480
100
AcDbEntity
  8
RACCORDO
100
AcDbPolyline
 62
7
  6
CONTINUOUS
 90
13
 70
0
 10
21.6370467511
 20
22.3902035635
 10
21.6367488673
 20
22.3896460763
 10
21.6359816941
 20
22.3891155513
 10
21.6347464773
 20
22.3886119884
 10
21.6330452249
 20
22.3881399697
 10
21.6308810041
 20
22.3876949131
 10
21.628258221
 20
22.3872630726
 10
21.6251818424
 20
22.3868479637
 10
21.6216577375
 20
22.3864460709
 10
21.6176934807
 20
22.3860331015
 10
21.613297187
 20
22.3856009578
 10
21.6084771819
 20
22.3851577375
 10
21.60324284
 20
22.3847034407
  0
LINE
  5
481
100
AcDbEntity
  8
DRAFT
100
AcDbLine
 62
7
  6
CONTINUOUS
 10
-22.6556725
 20
8.556792602
 11
-22.6306725
 21
8.556792602
  0
LINE
  5
482
100
AcDbEntity
  8
DRAFT
100
AcDbLine
 62
7
  6
CONTINUOUS
 10
-0.3556725
 20
8.556792602
 11
-0.3806725
 21
8.556792602
  0
LWPOLYLINE
  5
483
100
AcDbEntity
  8
RACCORDO
100
AcDbPolyline
 62
7
  6
CONTINUOUS
 90
25
 70
0
 10
-17.005606431
 20
9.556792602
 10
-17.0385426636
 20
9.5579012519
 10
-17.0710622738
 20
9.5611038988
 10
-17.1031652614
 20
9.566400542
 10
-17.1349851549
 20
9.5738317166
 10
-17.1663884259
 20
9.5833568845
 10
-17.1969744897
 20
9.5948544339
 10
-17.2267328536
 20
9.6083496131
 10
-17.2556740102
 20
9.6238171681
 10
-17.2834288529
 20
9.6410597338
 10
-17.3099821861
 20
9.6601000311
 10
-17.3353492054
 20
9.6809153315
 10
-17.359206391
 20
9.7032400955
 10
-17.3815344038
 20
9.7270936364
 10
-17.4023525829
 20
9.7524566326
 10
-17.4213954263
 20
9.7790055938
 10
-17.4386402078
 20
9.8067556984
 10
-17.4541096535
 20
9.8356917602
 10
-17.4676064403
 20
9.865444744
 10
-17.4791053189
 20
9.8960251204
 10
-17.4886315386
 20
9.9274224128
 10
-17.4960635241
 20
9.9592361681
 10
-17.5013607503
 20
9.9913329015
 10
-17.5045637423
 20
10.0238460947
 10
-17.5056725
 20
10.056775746
  0
LINE
  5
484
100
AcDbEntity
  8
RACCORDO
100
AcDbLine
 62
253
  6
CONTINUOUS
 10
0.38541216
 20
22.3847034407
 11
0.4950515378
 21
22.055517824
  0
LINE
  5
485
100
AcDbEntity
  8
RACCORDO
100
AcDbLine
 62
7
  6
CONTINUOUS
 10
6.5943275
 20
22.456792602
 11
6.5972533382
 21
22.4304362652
  0
LWPOLYLINE
  5
486
100
AcDbEntity
  8
RACCORDO
100
AcDbPolyline
 62
7
  6
CONTINUOUS
 90
13
 70
0
 10
0.3516082489
 20
-22.2766183594
 10
0.3519061327
 20
-22.2760608722
 10
0.3526733059
 20
-22.2755303472
 10
0.3539085227
 20
-22.2750267843
 10
0.3556097751
 20
-22.2745547656
 10
0.3577739959
 20
-22.274109709
 10
0.360396779
 20
-22.2736778686
 10
0.3634731576
 20
-22.2732627597
 10
0.3669972625
 20
-22.2728608668
 10
0.3709615193
 20
-22.2724478974
 10
0.375357813
 20
-22.2720157537
 10
0.3801778181
 20
-22.2715725335
 10
0.38541216
 20
-22.2711182366
  0
LINE
  5
487
100
AcDbEntity
  8
RACCORDO
100
AcDbLine
 62
253
  6
CONTINUOUS
 10
-17.0056725
 20
9.706792602
 11
-6.0056725
 21
9.706792602
  0
LINE
  5
488
100
AcDbEntity
  8
RACCORDO
100
AcDbLine
 62
253
  6
CONTINUOUS
 10
-5.7056725
 20
10.006792602
 11
-5.5084612586
 21
10.006792602
  0
LINE
  5
489
100
AcDbEntity
  8
RACCORDO
100
AcDbLine
 62
253
  6
CONTINUOUS
 10
-17.3056725
 20
10.006792602
 11
-17.502883741
 21
10.0067925998
  0
LINE
  5
48A
100
AcDbEntity
  8
RACCORDO
100
AcDbLine
 62
7
  6
CONTINUOUS
 10
15.3943275
 20
22.456792602
 11
15.3914016618
 21
22.4304362652
  0
LINE
  5
48B
100
AcDbEntity
  8
RACCORDO
100
AcDbLine
 62
253
  6
CONTINUOUS
 10
21.4936034622
 20
22.055517824
 11
21.60324284
 21
22.3847034407
  0
LINE
  5
48C
100
AcDbEntity
  8
RACCORDO
100
AcDbLine
 62
7
  6
CONTINUOUS
 10
-3.2337775106
 20
-22.3213124086
 11
-3.2556725
 21
-22.343207398
  0
LINE
  5
48D
100
AcDbEntity
  8
RACCORDO
100
AcDbLine
 62
253
  6
CONTINUOUS
 10
-5.7056725
 20
13.506792602
 11
-5.5056725
 21
13.5067926011
  0
LINE
  5
48E
100
AcDbEntity
  8
RACCORDO
100
AcDbLine
 62
253
  6
CONTINUOUS
 10
-17.3056725
 20
13.506792602
 11
-17.5056725
 21
13.506792602
  0
LINE
  5
48F
100
AcDbEntity
  8
DRAFT
100
AcDbLine
 62
7
  6
CONTINUOUS
 10
-22.6556725
 20
13.556792602
 11
-22.6306725
 21
13.556792602
  0
LINE
  5
490
100
AcDbEntity
  8
DRAFT
100
AcDbLine
 62
7
  6
CONTINUOUS
 10
-0.3556725
 20
13.556792602
 11
-0.3806725
 21
13.556792602
  0
LINE
  5
491
100
AcDbEntity
  8
RACCORDO
100
AcDbLine
 62
7
  6
CONTINUOUS
 10
-3.2337775106
 20
22.4348976127
 11
-3.2556725
 21
22.456792602
  0
LINE
  5
492
100
AcDbEntity
  8
RACCORDO
100
AcDbLine
 62
253
  6
CONTINUOUS
 10
21.60324284
 20
-22.2711182366
 11
21.4936034622
 21
-21.9419326199
  0
LINE
  5
493
100
AcDbEntity
  8
RACCORDO
100
AcDbLine
 62
7
  6
CONTINUOUS
 10
15.3943275
 20
-22.343207398
 11
15.3914016618
 21
-22.3168510611
  0
LINE
  5
494
100
AcDbEntity
  8
RACCORDO
100
AcDbLine
 62
253
  6
CONTINUOUS
 10
14.8914101234
 20
-23.5385497494
 11
14.8914101234
 21
-22.2907996187
  0
LINE
  5
495
100
AcDbEntity
  8
RACCORDO
100
AcDbLine
 62
253
  6
CONTINUOUS
 10
14.8914101234
 20
22.4043848228
 11
14.8914101234
 21
23.6521349535
  0
LINE
  5
496
100
AcDbEntity
  8
RACCORDO
100
AcDbLine
 62
253
  6
CONTINUOUS
 10
15.3914016618
 20
-23.7402815598
 11
15.3914016618
 21
-22.3168510611
  0
LINE
  5
497
100
AcDbEntity
  8
RACCORDO
100
AcDbLine
 62
253
  6
CONTINUOUS
 10
15.3914016618
 20
22.4304362652
 11
15.3914016618
 21
23.8538667638
  0
LINE
  5
498
100
AcDbEntity
  8
DRAFT
100
AcDbLine
 62
7
  6
CONTINUOUS
 10
15.3943275
 20
23.856792602
 11
15.3943275
 21
22.456792602
  0
LINE
  5
499
100
AcDbEntity
  8
DRAFT
100
AcDbLine
 62
7
  6
CONTINUOUS
 10
15.3943275
 20
-22.343207398
 11
15.3943275
 21
-23.743207398
  0
LINE
  5
49A
100
AcDbEntity
  8
RACCORDO
100
AcDbLine
 62
253
  6
CONTINUOUS
 10
22.1269105976
 20
21.9566783306
 11
21.9935273097
 21
21.5562030566
  0
LINE
  5
49B
100
AcDbEntity
  8
RACCORDO
100
AcDbLine
 62
253
  6
CONTINUOUS
 10
-3.2556725
 20
-24.1932454742
 11
-3.2163224457
 21
-24.1538954199
  0
LINE
  5
49C
100
AcDbEntity
  8
RACCORDO
100
AcDbLine
 62
253
  6
CONTINUOUS
 10
-3.0057105762
 20
-24.443207398
 11
-2.9663605219
 21
-24.4038573436
  0
LWPOLYLINE
  5
49D
100
AcDbEntity
  8
RACCORDO
100
AcDbPolyline
 62
7
  6
CONTINUOUS
 90
17
 70
0
 10
-7.0957549821
 20
14.0067925667
 10
-7.0946929805
 20
14.0067982057
 10
-7.0908538275
 20
14.0069127416
 10
-7.0870594632
 20
14.0071713341
 10
-7.083315102
 20
14.0075693169
 10
-7.0796256041
 20
14.0081018905
 10
-7.0759954944
 20
14.0087641412
 10
-7.0724289842
 20
14.0095510571
 10
-7.0689299414
 20
14.0104575518
 10
-7.0655019124
 20
14.0114784808
 10
-7.0621481441
 20
14.0126086523
 10
-7.0588715572
 20
14.0138428534
 10
-7.0556747732
 20
14.0151758599
 10
-7.0525601377
 20
14.016602443
 10
-7.0495296469
 20
14.0181174215
 10
-7.0465851093
 20
14.0197156018
 10
-7.043728165
 20
14.0213917641
  0
LINE
  5
49E
100
AcDbEntity
  8
RACCORDO
100
AcDbLine
 62
253
  6
CONTINUOUS
 10
-6.0056725
 20
13.806792602
 11
-17.0056725
 21
13.806792602
  0
LINE
  5
49F
100
AcDbEntity
  8
RACCORDO
100
AcDbLine
 62
7
  6
CONTINUOUS
 10
-6.0056725
 20
14.006792602
 11
-17.0056725
 21
14.006792602
  0
LINE
  5
4A0
100
AcDbEntity
  8
RACCORDO
100
AcDbLine
 62
7
  6
CONTINUOUS
 10
-17.0058115599
 20
14.056792602
 11
-6.0055334401
 21
14.056792602
  0
LWPOLYLINE
  5
4A1
100
AcDbEntity
  8
RACCORDO
100
AcDbPolyline
 62
7
  6
CONTINUOUS
 90
25
 70
0
 10
-6.0055334401
 20
14.056792602
 10
-5.9725997161
 20
14.0556837769
 10
-5.9400829968
 20
14.0524801299
 10
-5.907983282
 20
14.0471816597
 10
-5.8761668209
 20
14.0397477471
 10
-5.8447673643
 20
14.0302190068
 10
-5.8141861648
 20
14.0187172882
 10
-5.784433851
 20
14.0052171785
 10
-5.7554997942
 20
13.9897440822
 10
-5.7277533608
 20
13.9724960738
 10
-5.7012099155
 20
13.9534503333
 10
-5.6758540934
 20
13.9326296699
 10
-5.6520091667
 20
13.9103006024
 10
-5.6296947567
 20
13.8864440121
 10
-5.6088912421
 20
13.8610790061
 10
-5.5898630306
 20
13.8345294442
 10
-5.5726328652
 20
13.8067802639
 10
-5.557178003
 20
13.7778465171
 10
-5.5436946237
 20
13.7480972372
 10
-5.5322079484
 20
13.717522241
 10
-5.5226927561
 20
13.686131704
 10
-5.5152695634
 20
13.6543252008
 10
-5.5099785426
 20
13.6222359229
 10
-5.5067795215
 20
13.5897306753
 10
-5.5056725
 20
13.556809456
  0
LINE
  5
4A2
100
AcDbEntity
  8
RACCORDO
100
AcDbLine
 62
253
  6
CONTINUOUS
 10
-3.2163224457
 20
24.2674806239
 11
-3.2556725
 21
24.3068306783
  0
LINE
  5
4A3
100
AcDbEntity
  8
RACCORDO
100
AcDbLine
 62
253
  6
CONTINUOUS
 10
-2.9663605219
 20
24.5174425477
 11
-3.0057105762
 21
24.556792602
  0
LINE
  5
4A4
100
AcDbEntity
  8
RACCORDO
100
AcDbLine
 62
253
  6
CONTINUOUS
 10
21.9935273097
 20
-21.4426178526
 11
22.1269105976
 21
-21.8430931265
  0
LWPOLYLINE
  5
4A5
100
AcDbEntity
  8
RACCORDO
100
AcDbPolyline
 62
253
  6
CONTINUOUS
 90
9
 70
0
 10
21.4936034622
 20
22.055517824
 10
21.4929897112
 20
22.0518301158
 10
21.4923793738
 20
22.0462937029
 10
21.4917724498
 20
22.0389155779
 10
21.4911682101
 20
22.0297051524
 10
21.4905673838
 20
22.0186738719
 10
21.4899721592
 20
22.0058349479
 10
21.4893825365
 20
21.9912038296
 10
21.4882222835
 20
21.9566405471
  0
LWPOLYLINE
  5
4A6
100
AcDbEntity
  8
RACCORDO
100
AcDbPolyline
 62
253
  6
CONTINUOUS
 90
12
 70
0
 10
21.9935273097
 20
21.5562030566
 10
21.9929138947
 20
21.5537369273
 10
21.9923037939
 20
21.5500496907
 10
21.9916970075
 20
21.545141347
 10
21.9910927708
 20
21.53900279
 10
21.9904918485
 20
21.5316431259
 10
21.9898965341
 20
21.5230896728
 10
21.9893068662
 20
21.5133379544
 10
21.9887228061
 20
21.502392447
 10
21.9881465326
 20
21.4902938978
 10
21.987578081
 20
21.4770381189
 10
21.9864666093
 20
21.4471207453
  0
LINE
  5
4A7
100
AcDbEntity
  8
RACCORDO
100
AcDbLine
 62
253
  6
CONTINUOUS
 10
0.3443275
 20
-24.1932116287
 11
0.3574260787
 21
-24.18011305
  0
LINE
  5
4A8
100
AcDbEntity
  8
RACCORDO
100
AcDbLine
 62
253
  6
CONTINUOUS
 10
0.5943232692
 20
-24.443207398
 11
0.6074218479
 21
-24.4301088192
  0
LWPOLYLINE
  5
4A9
100
AcDbEntity
  8
RACCORDO
100
AcDbPolyline
 62
253
  6
CONTINUOUS
 90
14
 70
0
 10
-0.4857534063
 20
-20.4445755085
 10
-0.4893335876
 20
-20.4466971974
 10
-0.4982317514
 20
-20.4487961503
 10
-0.51235256
 20
-20.4508498785
 10
-0.5315447184
 20
-20.4528363777
 10
-0.5556025958
 20
-20.4547343638
 10
-0.5842684285
 20
-20.4565235012
 10
-0.6172350816
 20
-20.4581846205
 10
-0.6541493399
 20
-20.4596999239
 10
-0.6946156923
 20
-20.461053176
 10
-0.7382005694
 20
-20.4622298776
 10
-0.7844369891
 20
-20.4632174212
 10
-0.8328295597
 20
-20.464005226
 10
-0.8828597876
 20
-20.4645848511
  0
LINE
  5
4AA
100
AcDbEntity
  8
RACCORDO
100
AcDbLine
 62
253
  6
CONTINUOUS
 10
-0.3556725
 20
17.4583223001
 11
-0.1556725
 21
17.4583223001
  0
LINE
  5
4AB
100
AcDbEntity
  8
ASSI
100
AcDbLine
 62
253
  6
CONTINUOUS
 10
-0.3556725
 20
17.4583223001
 11
-0.1556725
 21
17.4583223001
  0
LINE
  5
4AC
100
AcDbEntity
  8
RACCORDO
100
AcDbLine
 62
7
  6
CONTINUOUS
 10
-0.3556725
 20
17.758310877
 11
-0.1556725
 21
17.758310877
  0
LINE
  5
4AD
100
AcDbEntity
  8
ASSI
100
AcDbLine
 62
7
  6
CONTINUOUS
 10
-0.3556725
 20
17.758310877
 11
-0.1556725
 21
17.758310877
  0
LINE
  5
4AE
100
AcDbEntity
  8
DRAFT
100
AcDbLine
 62
7
  6
CONTINUOUS
 10
-0.3556725
 20
17.9826142258
 11
-0.1556725
 21
17.9826142258
  0
LINE
  5
4AF
100
AcDbEntity
  8
ASSI
100
AcDbLine
 62
7
  6
CONTINUOUS
 10
-0.3556725
 20
17.9826142258
 11
-0.1556725
 21
17.9826142258
  0
LWPOLYLINE
  5
4B0
100
AcDbEntity
  8
RACCORDO
100
AcDbPolyline
 62
253
  6
CONTINUOUS
 90
16
 70
0
 10
-0.504413386
 20
20.5270120321
 10
-0.507992894
 20
20.5291305238
 10
-0.5168904879
 20
20.5312263168
 10
-0.5310108344
 20
20.5332769558
 10
-0.5502026409
 20
20.5352604692
 10
-0.5742602767
 20
20.5371556046
 10
-0.6029259759
 20
20.5389420567
 10
-0.6358925996
 20
20.5406006844
 10
-0.6728069268
 20
20.5421137163
 10
-0.7132734384
 20
20.5434649411
 10
-0.7568585557
 20
20.5446398811
 10
-0.8030952855
 20
20.5456259473
 10
-0.851488224
 20
20.5464125746
 10
-0.9015188646
 20
20.5469913347
 10
-0.9526511536
 20
20.5473560264
 10
-22.0070077665
 20
20.5475027423
  0
LINE
  5
4B1
100
AcDbEntity
  8
RACCORDO
100
AcDbLine
 62
253
  6
CONTINUOUS
 10
0.3443275
 20
24.3067968328
 11
0.3574260787
 21
24.2936982541
  0
LINE
  5
4B2
100
AcDbEntity
  8
RACCORDO
100
AcDbLine
 62
253
  6
CONTINUOUS
 10
0.5943232692
 20
24.556792602
 11
0.6074218479
 21
24.5436940233
  0
LINE
  5
4B3
100
AcDbEntity
  8
RACCORDO
100
AcDbLine
 62
7
  6
CONTINUOUS
 10
21.6443275
 20
-22.3429154751
 11
21.6370467511
 21
-22.2766183594
  0
LWPOLYLINE
  5
4B4
100
AcDbEntity
  8
RACCORDO
100
AcDbPolyline
 62
253
  6
CONTINUOUS
 90
31
 70
0
 10
19.2574260787
 20
23.9011301693
 10
19.2578054104
 20
23.8898200188
 10
19.2588663924
 20
23.878540754
 10
19.2606061273
 20
23.8673231761
 10
19.2630198642
 20
23.856197918
 10
19.2661010118
 20
23.8451953605
 10
19.269841156
 20
23.8343455492
 10
19.2742300834
 20
23.8236781128
 10
19.2792558087
 20
23.8132221817
 10
19.2849046077
 20
23.8030063089
 10
19.2911610547
 20
23.7930583919
 10
19.2980080646
 20
23.7834055962
 10
19.3054269397
 20
23.7740742817
 10
19.3133974206
 20
23.7650899302
 10
19.3218977417
 20
23.7564770762
 10
19.3309046902
 20
23.7482592395
 10
19.3403936701
 20
23.7404588612
 10
19.350338769
 20
23.7330972427
 10
19.3607128289
 20
23.7261944869
 10
19.3714875204
 20
23.7197694439
 10
19.3826334201
 20
23.713839659
 10
19.3941200909
 20
23.7084213253
 10
19.4059161651
 20
23.7035292391
 10
19.41798943
 20
23.6991767596
 10
19.4303069162
 20
23.6953757727
 10
19.442834987
 20
23.6921366579
 10
19.4555394311
 20
23.6894682607
 10
19.4683855552
 20
23.6873778678
 10
19.4813382793
 20
23.6858711877
 10
19.4943622321
 20
23.6849523349
 10
19.5074218479
 20
23.6846238184
  0
LWPOLYLINE
  5
4B5
100
AcDbEntity
  8
RACCORDO
100
AcDbPolyline
 62
253
  6
CONTINUOUS
 90
31
 70
0
 10
19.2574260787
 20
-24.18011305
 10
19.2577674859
 20
-24.19316539
 10
19.2587907485
 20
-24.2061902844
 10
19.2604943528
 20
-24.219152059
 10
19.2628754829
 20
-24.2320177777
 10
19.2659285963
 20
-24.2447492429
 10
19.269644036
 20
-24.2573034275
 10
19.2740105871
 20
-24.2696432314
 10
19.279017017
 20
-24.2817375875
 10
19.2846497656
 20
-24.2935536658
 10
19.2908935673
 20
-24.3050592662
 10
19.2977312491
 20
-24.3162225846
 10
19.3051438791
 20
-24.3270126638
 10
19.3131110214
 20
-24.3373997897
 10
19.3216109183
 20
-24.3473556268
 10
19.3306203401
 20
-24.3568529613
 10
19.3401146333
 20
-24.3658657804
 10
19.3500677367
 20
-24.3743693219
 10
19.360452326
 20
-24.3823402301
 10
19.3712399163
 20
-24.3897566369
 10
19.3824009423
 20
-24.3965982127
 10
19.3939047981
 20
-24.4028461919
 10
19.4057199437
 20
-24.4084834402
 10
19.4178139809
 20
-24.4134944957
 10
19.430153737
 20
-24.4178656107
 10
19.4427053845
 20
-24.4215848002
 10
19.4554344984
 20
-24.4246418614
 10
19.4683061381
 20
-24.4270284041
 10
19.4812849955
 20
-24.4287378873
 10
19.4943354938
 20
-24.4297656302
 10
19.5074218479
 20
-24.4301088192
  0
LWPOLYLINE
  5
4B6
100
AcDbEntity
  8
RACCORDO
100
AcDbPolyline
 62
7
  6
CONTINUOUS
 90
34
 70
0
 10
19.2443275
 20
-24.1932116287
 10
19.2446106502
 20
-24.205106914
 10
19.2454594658
 20
-24.2169752535
 10
19.2468720259
 20
-24.2287897641
 10
19.2488451323
 20
-24.2405236854
 10
19.2513743183
 20
-24.2521504368
 10
19.2544538583
 20
-24.263643677
 10
19.2580767787
 20
-24.2749773717
 10
19.2622348742
 20
-24.2861258473
 10
19.2669187278
 20
-24.2970638443
 10
19.2721177312
 20
-24.3077665856
 10
19.2778201084
 20
-24.3182098262
 10
19.2840129419
 20
-24.3283699039
 10
19.2906822045
 20
-24.3382238031
 10
19.2978127893
 20
-24.3477492018
 10
19.3053885411
 20
-24.356924517
 10
19.3133922995
 20
-24.365728964
 10
19.3218059339
 20
-24.3741425984
 10
19.3306103809
 20
-24.3821463568
 10
19.3397856962
 20
-24.3897221087
 10
19.3493110949
 20
-24.3968526934
 10
19.3591649941
 20
-24.4035219561
 10
19.3693250717
 20
-24.4097147896
 10
19.3797683124
 20
-24.4154171668
 10
19.3904710537
 20
-24.4206161701
 10
19.4014090507
 20
-24.4253000237
 10
19.4125575262
 20
-24.4294581193
 10
19.423891221
 20
-24.4330810397
 10
19.4353844612
 20
-24.4361605797
 10
19.4470112125
 20
-24.4386897657
 10
19.4587451339
 20
-24.4406628721
 10
19.4705596444
 20
-24.4420754322
 10
19.482427984
 20
-24.4429242477
 10
19.4943232692
 20
-24.443207398
  0
LINE
  5
4B7
100
AcDbEntity
  8
RACCORDO
100
AcDbLine
 62
253
  6
CONTINUOUS
 10
19.2574260787
 20
-23.7875449653
 11
19.2516082489
 21
-23.2101946961
  0
LINE
  5
4B8
100
AcDbEntity
  8
RACCORDO
100
AcDbLine
 62
253
  6
CONTINUOUS
 10
19.5074218479
 20
-23.5710386143
 11
19.5023312468
 21
-23.0658571288
  0
LINE
  5
4B9
100
AcDbEntity
  8
RACCORDO
100
AcDbLine
 62
7
  6
CONTINUOUS
 10
19.2443275
 20
-22.343207398
 11
19.2443275
 21
-24.1932116287
  0
LINE
  5
4BA
100
AcDbEntity
  8
RACCORDO
100
AcDbLine
 62
7
  6
CONTINUOUS
 10
19.2443275
 20
22.456792602
 11
19.2443275
 21
24.3067968328
  0
LINE
  5
4BB
100
AcDbEntity
  8
RACCORDO
100
AcDbLine
 62
253
  6
CONTINUOUS
 10
19.2516082489
 20
-23.2101946961
 11
19.2516082489
 21
-22.2776214503
  0
LINE
  5
4BC
100
AcDbEntity
  8
RACCORDO
100
AcDbLine
 62
253
  6
CONTINUOUS
 10
19.2516082489
 20
22.3912066543
 11
19.2516082489
 21
23.3237799001
  0
LINE
  5
4BD
100
AcDbEntity
  8
RACCORDO
100
AcDbLine
 62
253
  6
CONTINUOUS
 10
19.2574260787
 20
24.2936982541
 11
19.2574260787
 21
23.9011301693
  0
LINE
  5
4BE
100
AcDbEntity
  8
RACCORDO
100
AcDbLine
 62
253
  6
CONTINUOUS
 10
19.2574260787
 20
-23.7875449653
 11
19.2574260787
 21
-24.18011305
  0
LINE
  5
4BF
100
AcDbEntity
  8
RACCORDO
100
AcDbLine
 62
253
  6
CONTINUOUS
 10
19.5016040181
 20
-23.0658571288
 11
19.5016040181
 21
-22.264595729
  0
LINE
  5
4C0
100
AcDbEntity
  8
RACCORDO
100
AcDbLine
 62
253
  6
CONTINUOUS
 10
19.5016040181
 20
22.3781809331
 11
19.5016040181
 21
23.1794423329
  0
LINE
  5
4C1
100
AcDbEntity
  8
RACCORDO
100
AcDbLine
 62
253
  6
CONTINUOUS
 10
19.5074218479
 20
-23.5710386143
 11
19.5074218479
 21
-24.4301088192
  0
LINE
  5
4C2
100
AcDbEntity
  8
RACCORDO
100
AcDbLine
 62
253
  6
CONTINUOUS
 10
19.5074218479
 20
23.6846238184
 11
19.5074218479
 21
24.5436940233
  0
LINE
  5
4C3
100
AcDbEntity
  8
RACCORDO
100
AcDbLine
 62
253
  6
CONTINUOUS
 10
19.2516082489
 20
23.3237799001
 11
19.2574260787
 21
23.9011301693
  0
LINE
  5
4C4
100
AcDbEntity
  8
RACCORDO
100
AcDbLine
 62
253
  6
CONTINUOUS
 10
19.5023312468
 20
23.1794423329
 11
19.5074218479
 21
23.6846238184
  0
LWPOLYLINE
  5
4C5
100
AcDbEntity
  8
RACCORDO
100
AcDbPolyline
 62
253
  6
CONTINUOUS
 90
31
 70
0
 10
19.2574260787
 20
-23.7875449653
 10
19.2578046343
 20
-23.776246993
 10
19.2588637619
 20
-23.764976689
 10
19.2606011384
 20
-23.7537648191
 10
19.2630128398
 20
-23.74264101
 10
19.2660927101
 20
-23.731636758
 10
19.2698317611
 20
-23.7207852182
 10
19.2742193055
 20
-23.7101170952
 10
19.2792437045
 20
-23.6996604218
 10
19.2848913851
 20
-23.689443503
 10
19.2911470777
 20
-23.6794940979
 10
19.2979936523
 20
-23.6698395733
 10
19.3054122605
 20
-23.6605065499
 10
19.3133825646
 20
-23.6515205997
 10
19.3218828594
 20
-23.6429061805
 10
19.3308899499
 20
-23.6346868021
 10
19.3403792535
 20
-23.6268849055
 10
19.3503248406
 20
-23.6195218173
 10
19.3606995235
 20
-23.6126176684
 10
19.3714749559
 20
-23.6061913218
 10
19.3826217139
 20
-23.6002603249
 10
19.394109351
 20
-23.5948408775
 10
19.4059065077
 20
-23.5899477755
 10
19.4179809441
 20
-23.5855943924
 10
19.4302996237
 20
-23.5817926351
 10
19.4428288591
 20
-23.5785528886
 10
19.4555344619
 20
-23.5758839822
 10
19.4683817827
 20
-23.5737931898
 10
19.48133575
 20
-23.5722862198
 10
19.4943609638
 20
-23.5713671914
 10
19.5074218479
 20
-23.5710386143
  0
LINE
  5
4C6
100
AcDbEntity
  8
RACCORDO
100
AcDbLine
 62
7
  6
CONTINUOUS
 10
21.6370467511
 20
22.3902035635
 11
21.6443275
 21
22.4565006792
  0
LINE
  5
4C7
100
AcDbEntity
  8
RACCORDO
100
AcDbLine
 62
253
  6
CONTINUOUS
 10
-0.3993101623
 20
-21.856202508
 11
-0.3556725
 21
-21.8343853386
  0
LINE
  5
4C8
100
AcDbEntity
  8
RACCORDO
100
AcDbLine
 62
7
  6
CONTINUOUS
 10
-0.7051869635
 20
-22.3170248006
 11
-0.6752667173
 21
-22.3031025148
  0
LINE
  5
4C9
100
AcDbEntity
  8
RACCORDO
100
AcDbLine
 62
7
  6
CONTINUOUS
 10
-0.6752667173
 20
22.4166877189
 11
-0.7051869635
 21
22.4306100046
  0
LINE
  5
4CA
100
AcDbEntity
  8
RACCORDO
100
AcDbLine
 62
253
  6
CONTINUOUS
 10
-0.3993101623
 20
21.9697877121
 11
-0.3556725
 21
21.9479705426
  0
LWPOLYLINE
  5
4CB
100
AcDbEntity
  8
RACCORDO
100
AcDbPolyline
 62
7
  6
CONTINUOUS
 90
34
 70
0
 10
19.2516082489
 20
23.3237799001
 10
19.2519059753
 20
23.3175383211
 10
19.2526772267
 20
23.31126521
 10
19.2539275894
 20
23.304978794
 10
19.2556616367
 20
23.2987047619
 10
19.2578830794
 20
23.2924552236
 10
19.2605950994
 20
23.2862287396
 10
19.2637995963
 20
23.2800458021
 10
19.2674975208
 20
23.2739261719
 10
19.2716897718
 20
23.2678680154
 10
19.276375256
 20
23.2618928387
 10
19.2815518979
 20
23.256021431
 10
19.2872182687
 20
23.2502516091
 10
19.2933700526
 20
23.2446056282
 10
19.300001835
 20
23.2391051351
 10
19.3071096378
 20
23.2337477993
 10
19.3146856333
 20
23.228556347
 10
19.3227207153
 20
23.2235530382
 10
19.3312079409
 20
23.2187356242
 10
19.3401356504
 20
23.2141269308
 10
19.3494906291
 20
23.209749522
 10
19.3592623037
 20
23.2056014741
 10
19.3694348149
 20
23.2017052151
 10
19.379990402
 20
23.1980831723
 10
19.3909140028
 20
23.1947339361
 10
19.4021850603
 20
23.191678903
 10
19.4137809848
 20
23.1889396967
 10
19.4256816826
 20
23.1865154153
 10
19.4378485103
 20
23.1844286146
 10
19.4502665652
 20
23.1826951556
 10
19.4629505593
 20
23.1813090346
 10
19.4758852699
 20
23.1802859526
 10
19.4890237714
 20
23.1796567628
 10
19.5023312468
 20
23.1794423329
  0
LWPOLYLINE
  5
4CC
100
AcDbEntity
  8
RACCORDO
100
AcDbPolyline
 62
253
  6
CONTINUOUS
 90
10
 70
0
 10
21.9881468035
 20
-21.3767146778
 10
21.9887230768
 20
-21.3888125901
 10
21.9893071362
 20
-21.3997574672
 10
21.9898968033
 20
-21.4095085765
 10
21.9904921259
 20
-21.4180614811
 10
21.9910930563
 20
-21.425420618
 10
21.991697272
 20
-21.4315585657
 10
21.9923039991
 20
-21.4364661838
 10
21.9929140117
 20
-21.4401526128
 10
21.9935273097
 20
-21.4426178526
  0
LWPOLYLINE
  5
4CD
100
AcDbEntity
  8
RACCORDO
100
AcDbPolyline
 62
253
  6
CONTINUOUS
 90
8
 70
0
 10
21.4893825477
 20
-21.877618771
 10
21.4899721701
 20
-21.8922498764
 10
21.4905673963
 20
-21.9050887942
 10
21.4911682249
 20
-21.9161200664
 10
21.4917724649
 20
-21.9253304675
 10
21.4923793859
 20
-21.9327085567
 10
21.4929897184
 20
-21.9382449357
 10
21.4936034622
 20
-21.9419326199
  0
LINE
  5
4CE
100
AcDbEntity
  8
RACCORDO
100
AcDbLine
 62
253
  6
CONTINUOUS
 10
21.9870176867
 20
-21.3490513643
 11
21.9881468035
 21
-21.3767146778
  0
LWPOLYLINE
  5
4CF
100
AcDbEntity
  8
RACCORDO
100
AcDbPolyline
 62
253
  6
CONTINUOUS
 90
31
 70
0
 10
21.6312289213
 20
-23.7875449653
 10
21.6308503657
 20
-23.776246993
 10
21.6297912381
 20
-23.764976689
 10
21.6280538616
 20
-23.7537648191
 10
21.6256421602
 20
-23.74264101
 10
21.6225622899
 20
-23.731636758
 10
21.6188232389
 20
-23.7207852182
 10
21.6144356945
 20
-23.7101170952
 10
21.6094112955
 20
-23.6996604218
 10
21.6037636149
 20
-23.689443503
 10
21.5975079223
 20
-23.6794940979
 10
21.5906613477
 20
-23.6698395733
 10
21.5832427395
 20
-23.6605065499
 10
21.5752724354
 20
-23.6515205997
 10
21.5667721406
 20
-23.6429061805
 10
21.5577650501
 20
-23.6346868021
 10
21.5482757465
 20
-23.6268849055
 10
21.5383301594
 20
-23.6195218173
 10
21.5279554765
 20
-23.6126176684
 10
21.5171800441
 20
-23.6061913218
 10
21.5060332861
 20
-23.6002603249
 10
21.494545649
 20
-23.5948408775
 10
21.4827484923
 20
-23.5899477755
 10
21.4706740559
 20
-23.5855943924
 10
21.4583553763
 20
-23.5817926351
 10
21.4458261409
 20
-23.5785528886
 10
21.4331205381
 20
-23.5758839822
 10
21.4202732173
 20
-23.5737931898
 10
21.40731925
 20
-23.5722862198
 10
21.3942940362
 20
-23.5713671914
 10
21.3812331521
 20
-23.5710386143
  0
LINE
  5
4D0
100
AcDbEntity
  8
RACCORDO
100
AcDbLine
 62
253
  6
CONTINUOUS
 10
21.9859259652
 20
-21.3169317561
 11
21.9870176867
 21
-21.3490513643
  0
LINE
  5
4D1
100
AcDbEntity
  8
RACCORDO
100
AcDbLine
 62
253
  6
CONTINUOUS
 10
21.4882222967
 20
-21.8430555188
 11
21.4893825477
 21
-21.877618771
  0
LWPOLYLINE
  5
4D2
100
AcDbEntity
  8
RACCORDO
100
AcDbPolyline
 62
253
  6
CONTINUOUS
 90
31
 70
0
 10
21.6312289213
 20
24.2936982541
 10
21.6308858827
 20
24.3067817401
 10
21.6298585928
 20
24.3198293667
 10
21.6281498673
 20
24.3328053728
 10
21.6257643893
 20
24.3456741937
 10
21.6227086971
 20
24.3584005582
 10
21.6189911657
 20
24.3709495859
 10
21.6146219842
 20
24.3832868822
 10
21.6096131277
 20
24.3953786328
 10
21.6039783246
 20
24.4071916966
 10
21.5977330187
 20
24.4186936962
 10
21.5908943272
 20
24.4298531067
 10
21.5834809939
 20
24.4406393423
 10
21.5755133371
 20
24.45102284
 10
21.5670131948
 20
24.4609751404
 10
21.5580038643
 20
24.4704689663
 10
21.5485100384
 20
24.4794782969
 10
21.5385577379
 20
24.4879784392
 10
21.5281742403
 20
24.4959460959
 10
21.5173880047
 20
24.5033594293
 10
21.5062285942
 20
24.5101981207
 10
21.4947265946
 20
24.5164434266
 10
21.4829135308
 20
24.5220782298
 10
21.4708217801
 20
24.5270870863
 10
21.4584844839
 20
24.5314562678
 10
21.4459354562
 20
24.5351737991
 10
21.4332090916
 20
24.5382294913
 10
21.4203402708
 20
24.5406149693
 10
21.4073642647
 20
24.5423236949
 10
21.3943166381
 20
24.5433509847
 10
21.3812331521
 20
24.5436940233
  0
LINE
  5
4D3
100
AcDbEntity
  8
RACCORDO
100
AcDbLine
 62
253
  6
CONTINUOUS
 10
21.4870932805
 20
-21.8015720861
 11
21.4882222967
 21
-21.8430555188
  0
LINE
  5
4D4
100
AcDbEntity
  8
RACCORDO
100
AcDbLine
 62
253
  6
CONTINUOUS
 10
21.98436831
 20
-21.2606909718
 11
21.9859259652
 21
-21.3169317561
  0
LWPOLYLINE
  5
4D5
100
AcDbEntity
  8
RACCORDO
100
AcDbPolyline
 62
7
  6
CONTINUOUS
 90
34
 70
0
 10
21.6443275
 20
24.3067968328
 10
21.6440443498
 20
24.3186921181
 10
21.6431955342
 20
24.3305604576
 10
21.6417829741
 20
24.3423749682
 10
21.6398098677
 20
24.3541088895
 10
21.6372806817
 20
24.3657356408
 10
21.6342011417
 20
24.377228881
 10
21.6305782213
 20
24.3885625758
 10
21.6264201258
 20
24.3997110513
 10
21.6217362722
 20
24.4106490483
 10
21.6165372688
 20
24.4213517896
 10
21.6108348916
 20
24.4317950303
 10
21.6046420581
 20
24.4419551079
 10
21.5979727955
 20
24.4518090072
 10
21.5908422107
 20
24.4613344059
 10
21.5832664589
 20
24.4705097211
 10
21.5752627005
 20
24.4793141681
 10
21.5668490661
 20
24.4877278025
 10
21.5580446191
 20
24.4957315609
 10
21.5488693038
 20
24.5033073128
 10
21.5393439051
 20
24.5104378975
 10
21.5294900059
 20
24.5171071602
 10
21.5193299283
 20
24.5232999937
 10
21.5088866876
 20
24.5290023709
 10
21.4981839463
 20
24.5342013742
 10
21.4872459493
 20
24.5388852278
 10
21.4760974738
 20
24.5430433234
 10
21.464763779
 20
24.5466662437
 10
21.4532705388
 20
24.5497457838
 10
21.4416437875
 20
24.5522749698
 10
21.4299098661
 20
24.5542480762
 10
21.4180953556
 20
24.5556606363
 10
21.406227016
 20
24.5565094518
 10
21.3943317308
 20
24.556792602
  0
LINE
  5
4D6
100
AcDbEntity
  8
RACCORDO
100
AcDbLine
 62
253
  6
CONTINUOUS
 10
21.9829227223
 20
-21.1953629823
 11
21.98436831
 21
-21.2606909718
  0
LINE
  5
4D7
100
AcDbEntity
  8
RACCORDO
100
AcDbLine
 62
253
  6
CONTINUOUS
 10
21.4854706472
 20
-21.7268283206
 11
21.4870932805
 21
-21.8015720861
  0
LINE
  5
4D8
100
AcDbEntity
  8
RACCORDO
100
AcDbLine
 62
253
  6
CONTINUOUS
 10
21.9811968971
 20
-21.0953727731
 11
21.9829227223
 21
-21.1953629823
  0
LINE
  5
4D9
100
AcDbEntity
  8
RACCORDO
100
AcDbLine
 62
253
  6
CONTINUOUS
 10
21.4834668061
 20
-21.6051362228
 11
21.4854706472
 21
-21.7268283206
  0
LINE
  5
4DA
100
AcDbEntity
  8
RACCORDO
100
AcDbLine
 62
253
  6
CONTINUOUS
 10
21.9794119941
 20
-20.9525856611
 11
21.9811968971
 21
-21.0953727731
  0
LINE
  5
4DB
100
AcDbEntity
  8
RACCORDO
100
AcDbLine
 62
253
  6
CONTINUOUS
 10
21.3812331521
 20
23.6846238184
 11
21.3863237532
 21
23.1794423329
  0
LINE
  5
4DC
100
AcDbEntity
  8
RACCORDO
100
AcDbLine
 62
253
  6
CONTINUOUS
 10
21.6312289213
 20
23.9011301693
 11
21.6370467511
 21
23.3237799001
  0
LINE
  5
4DD
100
AcDbEntity
  8
RACCORDO
100
AcDbLine
 62
253
  6
CONTINUOUS
 10
21.4808814889
 20
-21.3804520902
 11
21.4834668061
 21
-21.6051362228
  0
LINE
  5
4DE
100
AcDbEntity
  8
RACCORDO
100
AcDbLine
 62
253
  6
CONTINUOUS
 10
21.9778857077
 20
-20.7609293794
 11
21.9794119941
 21
-20.9525856611
  0
LINE
  5
4DF
100
AcDbEntity
  8
RACCORDO
100
AcDbLine
 62
253
  6
CONTINUOUS
 10
21.4783916399
 20
-21.0182396643
 11
21.4808814889
 21
-21.3804520902
  0
LINE
  5
4E0
100
AcDbEntity
  8
RACCORDO
100
AcDbLine
 62
253
  6
CONTINUOUS
 10
21.9770366942
 20
-20.520278285
 11
21.9778857077
 21
-20.7609293794
  0
LINE
  5
4E1
100
AcDbEntity
  8
RACCORDO
100
AcDbLine
 62
253
  6
CONTINUOUS
 10
21.4770766915
 20
-20.5056757228
 11
21.4783916399
 21
-21.0182396643
  0
LWPOLYLINE
  5
4E2
100
AcDbEntity
  8
RACCORDO
100
AcDbPolyline
 62
253
  6
CONTINUOUS
 90
3
 70
0
 10
21.4734642143
 20
-14.6327137749
 10
21.4745346087
 20
-16.5906332656
 10
21.4770766915
 20
-20.5056757228
  0
LWPOLYLINE
  5
4E3
100
AcDbEntity
  8
RACCORDO
100
AcDbPolyline
 62
253
  6
CONTINUOUS
 90
3
 70
0
 10
21.9733880622
 20
-14.6180249608
 10
21.9744584566
 20
-16.5739463886
 10
21.9770366942
 20
-20.520278285
  0
LINE
  5
4E4
100
AcDbEntity
  8
RACCORDO
100
AcDbLine
 62
253
  6
CONTINUOUS
 10
21.471055619
 20
-8.7577228859
 11
21.4734642143
 21
-14.6327137749
  0
LINE
  5
4E5
100
AcDbEntity
  8
RACCORDO
100
AcDbLine
 62
253
  6
CONTINUOUS
 10
21.9709794667
 20
-8.7489086975
 11
21.9733880622
 21
-14.6180249608
  0
LINE
  5
4E6
100
AcDbEntity
  8
RACCORDO
100
AcDbLine
 62
253
  6
CONTINUOUS
 10
21.4698512382
 20
-2.8815145002
 11
21.471055619
 21
-8.7577228859
  0
LINE
  5
4E7
100
AcDbEntity
  8
RACCORDO
100
AcDbLine
 62
253
  6
CONTINUOUS
 10
21.9697750858
 20
-2.8785761542
 11
21.9709794667
 21
-8.7489086975
  0
LINE
  5
4E8
100
AcDbEntity
  8
RACCORDO
100
AcDbLine
 62
253
  6
CONTINUOUS
 10
21.3812331521
 20
-23.5710386143
 11
21.3812331521
 21
-24.4301088192
  0
LINE
  5
4E9
100
AcDbEntity
  8
RACCORDO
100
AcDbLine
 62
253
  6
CONTINUOUS
 10
21.3812331521
 20
23.6846238184
 11
21.3812331521
 21
24.5436940233
  0
LINE
  5
4EA
100
AcDbEntity
  8
RACCORDO
100
AcDbLine
 62
253
  6
CONTINUOUS
 10
21.3870509819
 20
-23.0658571288
 11
21.3870509819
 21
-22.264595729
  0
LINE
  5
4EB
100
AcDbEntity
  8
RACCORDO
100
AcDbLine
 62
253
  6
CONTINUOUS
 10
21.3870509819
 20
22.3781809331
 11
21.3870509819
 21
23.1794423329
  0
LINE
  5
4EC
100
AcDbEntity
  8
RACCORDO
100
AcDbLine
 62
253
  6
CONTINUOUS
 10
21.6312289213
 20
-24.18011305
 11
21.6312289213
 21
-23.7875449653
  0
LINE
  5
4ED
100
AcDbEntity
  8
RACCORDO
100
AcDbLine
 62
253
  6
CONTINUOUS
 10
21.6312289213
 20
23.9011301693
 11
21.6312289213
 21
24.2936982541
  0
LINE
  5
4EE
100
AcDbEntity
  8
RACCORDO
100
AcDbLine
 62
253
  6
CONTINUOUS
 10
21.6370467511
 20
-23.2101946961
 11
21.6370467511
 21
-22.2766183594
  0
LINE
  5
4EF
100
AcDbEntity
  8
RACCORDO
100
AcDbLine
 62
253
  6
CONTINUOUS
 10
21.6370467511
 20
22.3902035635
 11
21.6370467511
 21
23.3237799001
  0
LINE
  5
4F0
100
AcDbEntity
  8
RACCORDO
100
AcDbLine
 62
7
  6
CONTINUOUS
 10
21.6443275
 20
-22.3428973659
 11
21.6443275
 21
-24.1932116287
  0
LINE
  5
4F1
100
AcDbEntity
  8
RACCORDO
100
AcDbLine
 62
7
  6
CONTINUOUS
 10
21.6443275
 20
22.45648257
 11
21.6443275
 21
24.3067968328
  0
LINE
  5
4F2
100
AcDbEntity
  8
ASSI
100
AcDbLine
 62
7
  6
CONTINUOUS
 10
22.1443275
 20
17.7284916508
 11
22.1443275
 21
-17.6149064467
  0
LINE
  5
4F3
100
AcDbEntity
  8
RACCORDO
100
AcDbLine
 62
7
  6
CONTINUOUS
 10
22.1443275
 20
21.9479705426
 11
22.1443275
 21
-21.8343853386
  0
LINE
  5
4F4
100
AcDbEntity
  8
CURVE
100
AcDbLine
 62
253
  6
CONTINUOUS
 10
22.2443275
 20
2.757582602
 11
22.2443275
 21
3.6450126591
  0
LINE
  5
4F5
100
AcDbEntity
  8
CURVE
100
AcDbLine
 62
7
  6
CONTINUOUS
 10
22.2443275
 20
3.6450126591
 11
22.2443275
 21
15.8256340718
  0
LINE
  5
4F6
100
AcDbEntity
  8
CURVE
100
AcDbLine
 62
253
  6
CONTINUOUS
 10
22.2443275
 20
15.8256340718
 11
22.2443275
 21
16.056792602
  0
LINE
  5
4F7
100
AcDbEntity
  8
RACCORDO
100
AcDbLine
 62
253
  6
CONTINUOUS
 10
21.4698512382
 20
2.9950997041
 11
21.4698512382
 21
-2.8815145002
  0
LINE
  5
4F8
100
AcDbEntity
  8
RACCORDO
100
AcDbLine
 62
253
  6
CONTINUOUS
 10
21.9697750858
 20
2.9921618018
 11
21.9697750858
 21
-2.8785761542
  0
LINE
  5
4F9
100
AcDbEntity
  8
RACCORDO
100
AcDbLine
 62
253
  6
CONTINUOUS
 10
21.4734642143
 20
14.7462989789
 11
21.4698512382
 21
2.9950997041
  0
LINE
  5
4FA
100
AcDbEntity
  8
RACCORDO
100
AcDbLine
 62
253
  6
CONTINUOUS
 10
21.9733880624
 20
14.7316106067
 11
21.9697750858
 21
2.9921618018
  0
LINE
  5
4FB
100
AcDbEntity
  8
RACCORDO
100
AcDbLine
 62
253
  6
CONTINUOUS
 10
21.478391635
 20
21.1318244236
 11
21.4734642143
 21
14.7462989789
  0
LINE
  5
4FC
100
AcDbEntity
  8
RACCORDO
100
AcDbLine
 62
253
  6
CONTINUOUS
 10
21.9777011652
 20
20.8409195809
 11
21.9733880624
 21
14.7316106067
  0
LINE
  5
4FD
100
AcDbEntity
  8
RACCORDO
100
AcDbLine
 62
253
  6
CONTINUOUS
 10
21.4808814792
 20
21.4940369525
 11
21.478391635
 21
21.1318244236
  0
LINE
  5
4FE
100
AcDbEntity
  8
RACCORDO
100
AcDbLine
 62
253
  6
CONTINUOUS
 10
21.979108691
 20
21.0355351626
 11
21.9777011652
 21
20.8409195809
  0
LINE
  5
4FF
100
AcDbEntity
  8
RACCORDO
100
AcDbLine
 62
253
  6
CONTINUOUS
 10
21.3863237532
 20
-23.0658571288
 11
21.3812331521
 21
-23.5710386143
  0
LINE
  5
500
100
AcDbEntity
  8
RACCORDO
100
AcDbLine
 62
253
  6
CONTINUOUS
 10
21.6370467511
 20
-23.2101946961
 11
21.6312289213
 21
-23.7875449653
  0
LINE
  5
501
100
AcDbEntity
  8
RACCORDO
100
AcDbLine
 62
253
  6
CONTINUOUS
 10
21.9808051382
 20
21.1818685186
 11
21.979108691
 21
21.0355351626
  0
LINE
  5
502
100
AcDbEntity
  8
RACCORDO
100
AcDbLine
 62
253
  6
CONTINUOUS
 10
21.4834667936
 20
21.7187211474
 11
21.4808814792
 21
21.4940369525
  0
LINE
  5
503
100
AcDbEntity
  8
RACCORDO
100
AcDbLine
 62
253
  6
CONTINUOUS
 10
21.9824679776
 20
21.2852429177
 11
21.9808051382
 21
21.1818685186
  0
LINE
  5
504
100
AcDbEntity
  8
RACCORDO
100
AcDbLine
 62
253
  6
CONTINUOUS
 10
21.4854706341
 20
21.8404132754
 11
21.4834667936
 21
21.7187211474
  0
LINE
  5
505
100
AcDbEntity
  8
RACCORDO
100
AcDbLine
 62
253
  6
CONTINUOUS
 10
21.9838725086
 20
21.3534469959
 11
21.9824679776
 21
21.2852429177
  0
LINE
  5
506
100
AcDbEntity
  8
RACCORDO
100
AcDbLine
 62
253
  6
CONTINUOUS
 10
21.4870932672
 20
21.9151570694
 11
21.4854706341
 21
21.8404132754
  0
LINE
  5
507
100
AcDbEntity
  8
RACCORDO
100
AcDbLine
 62
253
  6
CONTINUOUS
 10
21.9853946424
 20
21.4127962911
 11
21.9838725086
 21
21.3534469959
  0
LINE
  5
508
100
AcDbEntity
  8
RACCORDO
100
AcDbLine
 62
253
  6
CONTINUOUS
 10
21.4882222835
 20
21.9566405471
 11
21.4870932672
 21
21.9151570694
  0
LINE
  5
509
100
AcDbEntity
  8
RACCORDO
100
AcDbLine
 62
253
  6
CONTINUOUS
 10
21.9864666093
 20
21.4471207453
 11
21.9853946424
 21
21.4127962911
  0
LWPOLYLINE
  5
50A
100
AcDbEntity
  8
RACCORDO
100
AcDbPolyline
 62
253
  6
CONTINUOUS
 90
31
 70
0
 10
21.6312289213
 20
23.9011301693
 10
21.6308495896
 20
23.8898200188
 10
21.6297886076
 20
23.878540754
 10
21.6280488727
 20
23.8673231761
 10
21.6256351358
 20
23.856197918
 10
21.6225539882
 20
23.8451953605
 10
21.618813844
 20
23.8343455492
 10
21.6144249166
 20
23.8236781128
 10
21.6093991913
 20
23.8132221817
 10
21.6037503923
 20
23.8030063089
 10
21.5974939453
 20
23.7930583919
 10
21.5906469354
 20
23.7834055962
 10
21.5832280603
 20
23.7740742817
 10
21.5752575794
 20
23.7650899302
 10
21.5667572583
 20
23.7564770762
 10
21.5577503098
 20
23.7482592395
 10
21.5482613299
 20
23.7404588612
 10
21.538316231
 20
23.7330972427
 10
21.5279421711
 20
23.7261944869
 10
21.5171674796
 20
23.7197694439
 10
21.5060215799
 20
23.713839659
 10
21.4945349091
 20
23.7084213253
 10
21.4827388349
 20
23.7035292391
 10
21.47066557
 20
23.6991767596
 10
21.4583480838
 20
23.6953757727
 10
21.445820013
 20
23.6921366579
 10
21.4331155689
 20
23.6894682607
 10
21.4202694448
 20
23.6873778678
 10
21.4073167207
 20
23.6858711877
 10
21.3942927679
 20
23.6849523349
 10
21.3812331521
 20
23.6846238184
  0
LWPOLYLINE
  5
50B
100
AcDbEntity
  8
RACCORDO
100
AcDbPolyline
 62
7
  6
CONTINUOUS
 90
34
 70
0
 10
19.2516082489
 20
-23.2101946961
 10
19.2519059753
 20
-23.203953117
 10
19.2526772267
 20
-23.1976800059
 10
19.2539275894
 20
-23.1913935899
 10
19.2556616367
 20
-23.1851195578
 10
19.2578830794
 20
-23.1788700195
 10
19.2605950994
 20
-23.1726435355
 10
19.2637995963
 20
-23.1664605981
 10
19.2674975208
 20
-23.1603409679
 10
19.2716897718
 20
-23.1542828113
 10
19.276375256
 20
-23.1483076346
 10
19.2815518979
 20
-23.142436227
 10
19.2872182687
 20
-23.1366664051
 10
19.2933700526
 20
-23.1310204241
 10
19.300001835
 20
-23.125519931
 10
19.3071096378
 20
-23.1201625953
 10
19.3146856333
 20
-23.1149711429
 10
19.3227207153
 20
-23.1099678342
 10
19.3312079409
 20
-23.1051504201
 10
19.3401356504
 20
-23.1005417267
 10
19.3494906291
 20
-23.0961643179
 10
19.3592623037
 20
-23.09201627
 10
19.3694348149
 20
-23.088120011
 10
19.379990402
 20
-23.0844979682
 10
19.3909140028
 20
-23.081148732
 10
19.4021850603
 20
-23.0780936989
 10
19.4137809848
 20
-23.0753544926
 10
19.4256816826
 20
-23.0729302112
 10
19.4378485103
 20
-23.0708434105
 10
19.4502665652
 20
-23.0691099515
 10
19.4629505593
 20
-23.0677238305
 10
19.4758852699
 20
-23.0667007485
 10
19.4890237714
 20
-23.0660715587
 10
19.5023312468
 20
-23.0658571288
  0
LWPOLYLINE
  5
50C
100
AcDbEntity
  8
RACCORDO
100
AcDbPolyline
 62
7
  6
CONTINUOUS
 90
34
 70
0
 10
21.6370467511
 20
23.3237799001
 10
21.6367490247
 20
23.3175383211
 10
21.6359777733
 20
23.31126521
 10
21.6347274106
 20
23.304978794
 10
21.6329933633
 20
23.2987047619
 10
21.6307719206
 20
23.2924552236
 10
21.6280599006
 20
23.2862287396
 10
21.6248554037
 20
23.2800458021
 10
21.6211574792
 20
23.2739261719
 10
21.6169652282
 20
23.2678680154
 10
21.612279744
 20
23.2618928387
 10
21.6071031021
 20
23.256021431
 10
21.6014367313
 20
23.2502516091
 10
21.5952849474
 20
23.2446056282
 10
21.588653165
 20
23.2391051351
 10
21.5815453622
 20
23.2337477993
 10
21.5739693667
 20
23.228556347
 10
21.5659342847
 20
23.2235530382
 10
21.5574470591
 20
23.2187356242
 10
21.5485193496
 20
23.2141269308
 10
21.5391643709
 20
23.209749522
 10
21.5293926963
 20
23.2056014741
 10
21.5192201851
 20
23.2017052151
 10
21.508664598
 20
23.1980831723
 10
21.4977409972
 20
23.1947339361
 10
21.4864699397
 20
23.191678903
 10
21.4748740152
 20
23.1889396967
 10
21.4629733174
 20
23.1865154153
 10
21.4508064897
 20
23.1844286146
 10
21.4383884348
 20
23.1826951556
 10
21.4257044407
 20
23.1813090346
 10
21.4127697301
 20
23.1802859526
 10
21.3996312286
 20
23.1796567628
 10
21.3863237532
 20
23.1794423329
  0
LINE
  5
50D
100
AcDbEntity
  8
RACCORDO
100
AcDbLine
 62
7
  6
CONTINUOUS
 10
19.2443275
 20
-22.343207398
 11
19.2516082489
 21
-22.2776214503
  0
LINE
  5
50E
100
AcDbEntity
  8
RACCORDO
100
AcDbLine
 62
7
  6
CONTINUOUS
 10
6.5972533382
 20
-23.7402815598
 11
6.5943275
 21
-23.743207398
  0
LINE
  5
50F
100
AcDbEntity
  8
RACCORDO
100
AcDbLine
 62
253
  6
CONTINUOUS
 10
0.1368352356
 20
20.6120424325
 11
0.1696108651
 21
20.6134543812
  0
LINE
  5
510
100
AcDbEntity
  8
RACCORDO
100
AcDbLine
 62
253
  6
CONTINUOUS
 10
0.1696108651
 20
20.6134543812
 11
0.2054150731
 21
20.6147356465
  0
LINE
  5
511
100
AcDbEntity
  8
RACCORDO
100
AcDbLine
 62
253
  6
CONTINUOUS
 10
0.2054150731
 20
20.6147356465
 11
0.2439307657
 21
20.6158748809
  0
LINE
  5
512
100
AcDbEntity
  8
RACCORDO
100
AcDbLine
 62
253
  6
CONTINUOUS
 10
0.2439307657
 20
20.6158748809
 11
0.2848168348
 21
20.6168619951
  0
LINE
  5
513
100
AcDbEntity
  8
RACCORDO
100
AcDbLine
 62
253
  6
CONTINUOUS
 10
0.2848168348
 20
20.6168619951
 11
0.3277111796
 21
20.6176882468
  0
LINE
  5
514
100
AcDbEntity
  8
RACCORDO
100
AcDbLine
 62
253
  6
CONTINUOUS
 10
0.3277111796
 20
20.6176882468
 11
0.3949831737
 21
20.6186104058
  0
LWPOLYLINE
  5
515
100
AcDbEntity
  8
RACCORDO
100
AcDbPolyline
 62
253
  6
CONTINUOUS
 90
14
 70
0
 10
-22.1098261354
 20
20.5469913347
 10
-22.159856776
 20
20.5464125746
 10
-22.2082497145
 20
20.5456259473
 10
-22.2544864443
 20
20.5446398811
 10
-22.2980715616
 20
20.5434649411
 10
-22.3385380732
 20
20.5421137163
 10
-22.3754524004
 20
20.5406006844
 10
-22.4084190241
 20
20.5389420567
 10
-22.4370847233
 20
20.5371556046
 10
-22.4611423591
 20
20.5352604692
 10
-22.4803341656
 20
20.5332769558
 10
-22.4944545121
 20
20.5312263168
 10
-22.503352106
 20
20.5291305238
 10
-22.506931614
 20
20.5270120321
  0
LINE
  5
516
100
AcDbEntity
  8
RACCORDO
100
AcDbLine
 62
253
  6
CONTINUOUS
 10
0.3949831737
 20
20.6186104058
 11
0.464576386
 21
20.6191361503
  0
LINE
  5
517
100
AcDbEntity
  8
RACCORDO
100
AcDbLine
 62
253
  6
CONTINUOUS
 10
-22.0070077665
 20
20.5475027423
 11
-22.1098261354
 21
20.5469913347
  0
LINE
  5
518
100
AcDbEntity
  8
RACCORDO
100
AcDbLine
 62
253
  6
CONTINUOUS
 10
0.464576386
 20
20.6191361503
 11
21.4770766915
 21
20.6192609269
  0
LINE
  5
519
100
AcDbEntity
  8
DRAFT
100
AcDbLine
 62
7
  6
CONTINUOUS
 10
-0.1556725
 20
21.2084245502
 11
-0.3556725
 21
21.2084245502
  0
LINE
  5
51A
100
AcDbEntity
  8
ASSI
100
AcDbLine
 62
7
  6
CONTINUOUS
 10
-0.1556725
 20
21.2084245502
 11
-0.3556725
 21
21.2084245502
  0
LINE
  5
51B
100
AcDbEntity
  8
DRAFT
100
AcDbLine
 62
7
  6
CONTINUOUS
 10
-0.1556725
 20
21.356792602
 11
-0.3556725
 21
21.356792602
  0
LINE
  5
51C
100
AcDbEntity
  8
ASSI
100
AcDbLine
 62
7
  6
CONTINUOUS
 10
-0.1556725
 20
21.356792602
 11
-0.3556725
 21
21.356792602
  0
LINE
  5
51D
100
AcDbEntity
  8
RACCORDO
100
AcDbLine
 62
253
  6
CONTINUOUS
 10
-0.98781036
 20
21.983974914
 11
-22.02353464
 21
21.983974914
  0
LINE
  5
51E
100
AcDbEntity
  8
RACCORDO
100
AcDbLine
 62
253
  6
CONTINUOUS
 10
0.4950515378
 20
22.055517824
 11
21.4936034622
 21
22.055517824
  0
LINE
  5
51F
100
AcDbEntity
  8
RACCORDO
100
AcDbLine
 62
7
  6
CONTINUOUS
 10
-22.1310530997
 20
22.306792602
 11
-0.8802919003
 21
22.306792602
  0
LINE
  5
520
100
AcDbEntity
  8
RACCORDO
100
AcDbLine
 62
7
  6
CONTINUOUS
 10
0.6016040181
 20
22.3781809331
 11
2.4870509819
 21
22.3781809331
  0
LINE
  5
521
100
AcDbEntity
  8
RACCORDO
100
AcDbLine
 62
7
  6
CONTINUOUS
 10
19.5016040181
 20
22.3781809331
 11
21.3870509819
 21
22.3781809331
  0
LINE
  5
522
100
AcDbEntity
  8
RACCORDO
100
AcDbLine
 62
7
  6
CONTINUOUS
 10
14.8914101234
 20
22.4043848228
 11
7.0972448766
 21
22.4043848228
  0
LINE
  5
523
100
AcDbEntity
  8
RACCORDO
100
AcDbLine
 62
7
  6
CONTINUOUS
 10
-0.7051869635
 20
22.4306100046
 11
-1.1275294132
 21
22.4306100046
  0
LINE
  5
524
100
AcDbEntity
  8
RACCORDO
100
AcDbLine
 62
7
  6
CONTINUOUS
 10
-2.9838155868
 20
22.4306100046
 11
-20.0275294132
 21
22.4306100046
  0
LINE
  5
525
100
AcDbEntity
  8
RACCORDO
100
AcDbLine
 62
7
  6
CONTINUOUS
 10
-21.8838155868
 20
22.4306100046
 11
-22.3061580365
 21
22.4306100046
  0
LINE
  5
526
100
AcDbEntity
  8
RACCORDO
100
AcDbLine
 62
7
  6
CONTINUOUS
 10
-7.6144761965
 20
22.4393375371
 11
-15.3968688035
 21
22.4393375371
  0
LINE
  5
527
100
AcDbEntity
  8
DRAFT
100
AcDbLine
 62
7
  6
CONTINUOUS
 10
19.2443275
 20
22.456792602
 11
15.3943275
 21
22.456792602
  0
LINE
  5
528
100
AcDbEntity
  8
DRAFT
100
AcDbLine
 62
7
  6
CONTINUOUS
 10
6.5943275
 20
22.456792602
 11
2.7443275
 21
22.456792602
  0
LINE
  5
529
100
AcDbEntity
  8
DRAFT
100
AcDbLine
 62
7
  6
CONTINUOUS
 10
-0.8556725
 20
22.456792602
 11
0.3443283609
 21
22.456792602
  0
LINE
  5
52A
100
AcDbEntity
  8
ASSI
100
AcDbLine
 62
7
  6
CONTINUOUS
 10
-0.8556725
 20
22.456792602
 11
0.3443283609
 21
22.456792602
  0
LINE
  5
52B
100
AcDbEntity
  8
DRAFT
100
AcDbLine
 62
7
  6
CONTINUOUS
 10
-3.2556725
 20
22.456792602
 11
-7.1056725
 21
22.456792602
  0
LINE
  5
52C
100
AcDbEntity
  8
DRAFT
100
AcDbLine
 62
7
  6
CONTINUOUS
 10
-15.9056725
 20
22.456792602
 11
-19.7556725
 21
22.456792602
  0
LINE
  5
52D
100
AcDbEntity
  8
RACCORDO
100
AcDbLine
 62
253
  6
CONTINUOUS
 10
21.5474494113
 20
20.6190057707
 11
21.4770766915
 21
20.6192609268
  0
LINE
  5
52E
100
AcDbEntity
  8
RACCORDO
100
AcDbLine
 62
253
  6
CONTINUOUS
 10
21.6164211246
 20
20.6183463289
 11
21.5474494113
 21
20.6190057707
  0
LINE
  5
52F
100
AcDbEntity
  8
RACCORDO
100
AcDbLine
 62
253
  6
CONTINUOUS
 10
21.6609438695
 20
20.6176882568
 11
21.6164211246
 21
20.6183463289
  0
LINE
  5
530
100
AcDbEntity
  8
RACCORDO
100
AcDbLine
 62
253
  6
CONTINUOUS
 10
21.7038382241
 20
20.6168620045
 11
21.6609438695
 21
20.6176882568
  0
LINE
  5
531
100
AcDbEntity
  8
RACCORDO
100
AcDbLine
 62
253
  6
CONTINUOUS
 10
21.7447243011
 20
20.6158748896
 11
21.7038382241
 21
20.6168620045
  0
LINE
  5
532
100
AcDbEntity
  8
RACCORDO
100
AcDbLine
 62
253
  6
CONTINUOUS
 10
21.7832399996
 20
20.6147356545
 11
21.7447243011
 21
20.6158748896
  0
LINE
  5
533
100
AcDbEntity
  8
RACCORDO
100
AcDbLine
 62
253
  6
CONTINUOUS
 10
21.8190442114
 20
20.6134543884
 11
21.7832399996
 21
20.6147356545
  0
LWPOLYLINE
  5
534
100
AcDbEntity
  8
RACCORDO
100
AcDbPolyline
 62
7
  6
CONTINUOUS
 90
13
 70
0
 10
0.38541216
 20
22.3847034407
 10
0.3801778181
 20
22.3851577375
 10
0.375357813
 20
22.3856009578
 10
0.3709615193
 20
22.3860331015
 10
0.3669972625
 20
22.3864460709
 10
0.3634731576
 20
22.3868479637
 10
0.360396779
 20
22.3872630726
 10
0.3577739959
 20
22.3876949131
 10
0.3556097751
 20
22.3881399697
 10
0.3539085227
 20
22.3886119884
 10
0.3526733059
 20
22.3891155513
 10
0.3519061327
 20
22.3896460763
 10
0.3516082489
 20
22.3902035635
  0
LINE
  5
535
100
AcDbEntity
  8
RACCORDO
100
AcDbLine
 62
7
  6
CONTINUOUS
 10
6.5972533382
 20
23.8538667638
 11
6.5943275
 21
23.856792602
  0
LINE
  5
536
100
AcDbEntity
  8
RACCORDO
100
AcDbLine
 62
7
  6
CONTINUOUS
 10
19.2443275
 20
22.456792602
 11
19.2516082489
 21
22.3912066543
  0
LWPOLYLINE
  5
537
100
AcDbEntity
  8
RACCORDO
100
AcDbPolyline
 62
253
  6
CONTINUOUS
 90
34
 70
0
 10
21.9935273097
 20
21.5562030566
 10
21.9929400096
 20
21.5799476099
 10
21.9912228669
 20
21.6036384371
 10
21.9883797669
 20
21.6272219331
 10
21.9844171427
 20
21.6506447359
 10
21.9793439604
 20
21.6738538471
 10
21.9731716989
 20
21.6967967516
 10
21.9659143242
 20
21.7194215368
 10
21.9575882573
 20
21.7416770099
 10
21.9482123374
 20
21.7635128137
 10
21.9378077794
 20
21.7848795405
 10
21.9263981253
 20
21.8057288441
 10
21.9140091918
 20
21.8260135489
 10
21.900669011
 20
21.8456877571
 10
21.8864077675
 20
21.8647069519
 10
21.87125773
 20
21.8830280988
 10
21.8552531785
 20
21.9006097428
 10
21.838430326
 20
21.917412102
 10
21.8208272375
 20
21.9333971578
 10
21.8024837433
 20
21.948528741
 10
21.7834413489
 20
21.9627726136
 10
21.7637431414
 20
21.9760965459
 10
21.7434336916
 20
21.9884703902
 10
21.7225589535
 20
21.9998661481
 10
21.7011661602
 20
22.0102580345
 10
21.6793037169
 20
22.0196225359
 10
21.6570210915
 20
22.0279384633
 10
21.6343687027
 20
22.0351870002
 10
21.6113978058
 20
22.0413517454
 10
21.5881603768
 20
22.0464187501
 10
21.5647089948
 20
22.0503765491
 10
21.541096723
 20
22.0532161871
 10
21.5173769887
 20
22.054931239
 10
21.4936034622
 20
22.055517824
  0
LWPOLYLINE
  5
538
100
AcDbEntity
  8
RACCORDO
100
AcDbPolyline
 62
7
  6
CONTINUOUS
 90
27
 70
0
 10
22.1269105976
 20
-21.8430931265
 10
22.1264783618
 20
-21.8636950408
 10
22.1251950827
 20
-21.8842992598
 10
22.1230583067
 20
-21.9048703997
 10
22.1200675641
 20
-21.9253696619
 10
22.1162231234
 20
-21.9457644004
 10
22.1115247025
 20
-21.9660279377
 10
22.1059767798
 20
-21.9861169345
 10
22.0995818104
 20
-22.0060020793
 10
22.0923338933
 20
-22.0256761502
 10
22.0842353473
 20
-22.0451037624
 10
22.0752922805
 20
-22.0642440351
 10
22.0655006639
 20
-22.0830787413
 10
22.0548573472
 20
-22.1015834375
 10
22.043378422
 20
-22.1197017844
 10
22.0310923316
 20
-22.1373683105
 10
22.0180088674
 20
-22.1545520321
 10
22.0041500356
 20
-22.171208057
 10
21.9895744627
 20
-22.1872575146
 10
21.974305188
 20
-22.2026721332
 10
21.95837258
 20
-22.2174184749
 10
21.9418602983
 20
-22.231423091
 10
21.9248317163
 20
-22.2446449599
 10
21.907297315
 20
-22.2570881918
 10
21.8892660898
 20
-22.268752949
 10
21.8707854008
 20
-22.2796135216
 10
21.8503645741
 20
-22.2904211997
  0
LWPOLYLINE
  5
539
100
AcDbEntity
  8
RACCORDO
100
AcDbPolyline
 62
253
  6
CONTINUOUS
 90
34
 70
0
 10
21.9935273097
 20
-21.4426178526
 10
21.9929400093
 20
-21.4663624111
 10
21.9912228659
 20
-21.4900532431
 10
21.9883797648
 20
-21.5136367436
 10
21.9844171391
 20
-21.5370595504
 10
21.979343955
 20
-21.5602686651
 10
21.9731716915
 20
-21.5832115727
 10
21.9659143145
 20
-21.6058363605
 10
21.9575882453
 20
-21.6280918357
 10
21.948212323
 20
-21.6499276411
 10
21.9378077626
 20
-21.671294369
 10
21.9263981062
 20
-21.6921436732
 10
21.9140091704
 20
-21.7124283782
 10
21.9006689874
 20
-21.732102586
 10
21.886407742
 20
-21.7511217801
 10
21.871257703
 20
-21.769442926
 10
21.85525315
 20
-21.7870245685
 10
21.8384302965
 20
-21.803826926
 10
21.8208272073
 20
-21.8198119798
 10
21.8024837127
 20
-21.8349435609
 10
21.7834413184
 20
-21.8491874312
 10
21.7637431113
 20
-21.8625113612
 10
21.7434336624
 20
-21.874885203
 10
21.7225589255
 20
-21.8862809584
 10
21.7011661338
 20
-21.8966728425
 10
21.6793036925
 20
-21.9060373417
 10
21.6570210693
 20
-21.9143532669
 10
21.6343686831
 20
-21.9216018019
 10
21.611397789
 20
-21.9277665454
 10
21.588160363
 20
-21.9328335487
 10
21.5647089843
 20
-21.9367913465
 10
21.5410967159
 20
-21.9396309837
 10
21.5173769851
 20
-21.9413460351
 10
21.4936034622
 20
-21.9419326199
  0
LINE
  5
53A
100
AcDbEntity
  8
RACCORDO
100
AcDbLine
 62
7
  6
CONTINUOUS
 10
7.0262369095
 20
-23.5832831396
 11
7.0972448766
 21
-23.5385497494
  0
LINE
  5
53B
100
AcDbEntity
  8
RACCORDO
100
AcDbLine
 62
7
  6
CONTINUOUS
 10
6.9977693162
 20
-23.6009885991
 11
7.0262369095
 21
-23.5832831396
  0
LWPOLYLINE
  5
53C
100
AcDbEntity
  8
RACCORDO
100
AcDbPolyline
 62
253
  6
CONTINUOUS
 90
16
 70
0
 10
-22.02353464
 20
21.983974914
 10
-22.0757608817
 20
21.9811951243
 10
-22.1274155603
 20
21.9729814706
 10
-22.1779333902
 20
21.9594238461
 10
-22.2267615328
 20
21.9406706242
 10
-22.2733656325
 20
21.916927039
 10
-22.3172356674
 20
21.8884529437
 10
-22.3578915496
 20
21.8555599556
 10
-22.394888369
 20
21.8186080473
 10
-22.4278212529
 20
21.7780016184
 10
-22.4563298113
 20
21.7341850548
 10
-22.4801020752
 20
21.6876378679
 10
-22.4988779052
 20
21.6388694561
 10
-22.5124518443
 20
21.5884135203
 10
-22.5206753641
 20
21.536822222
 10
-22.5234584876
 20
21.4846601466
  0
LWPOLYLINE
  5
53D
100
AcDbEntity
  8
RACCORDO
100
AcDbPolyline
 62
7
  6
CONTINUOUS
 90
23
 70
0
 10
15.2905348137
 20
23.8521315689
 10
15.2797456903
 20
23.8515841669
 10
15.2686582281
 20
23.850156497
 10
15.2572724272
 20
23.84792909
 10
15.2455636469
 20
23.8449904986
 10
15.233556528
 20
23.8414164736
 10
15.221324992
 20
23.8372521153
 10
15.2088762518
 20
23.8325569723
 10
15.1962030946
 20
23.8273944117
 10
15.1833578044
 20
23.8217879124
 10
15.1703446723
 20
23.815782834
 10
15.1571594072
 20
23.8094291668
 10
15.1438414203
 20
23.8027386603
 10
15.1303929333
 20
23.7957468852
 10
15.1168117244
 20
23.7884939942
 10
15.1031305396
 20
23.780986275
 10
15.0893504279
 20
23.7732527899
 10
15.0754703402
 20
23.765326553
 10
15.0615198756
 20
23.7572117921
 10
15.047499275
 20
23.7489331311
 10
15.0334082976
 20
23.7405185613
 10
15.0192758201
 20
23.7319722818
 10
14.9908856838
 20
23.7145738031
  0
LWPOLYLINE
  5
53E
100
AcDbEntity
  8
RACCORDO
100
AcDbPolyline
 62
253
  6
CONTINUOUS
 90
31
 70
0
 10
19.5074218479
 20
24.5436940233
 10
19.4943354938
 20
24.5433508343
 10
19.4812849955
 20
24.5423230913
 10
19.4683061381
 20
24.5406136082
 10
19.4554344984
 20
24.5382270655
 10
19.4427053845
 20
24.5351700043
 10
19.430153737
 20
24.5314508148
 10
19.4178139809
 20
24.5270796997
 10
19.4057199437
 20
24.5220686443
 10
19.3939047981
 20
24.516431396
 10
19.3824009423
 20
24.5101834168
 10
19.3712399163
 20
24.503341841
 10
19.360452326
 20
24.4959254342
 10
19.3500677367
 20
24.487954526
 10
19.3401146333
 20
24.4794509845
 10
19.3306203401
 20
24.4704381654
 10
19.3216109183
 20
24.4609408309
 10
19.3131110214
 20
24.4509849938
 10
19.3051438791
 20
24.4405978679
 10
19.2977312491
 20
24.4298077887
 10
19.2908935673
 20
24.4186444703
 10
19.2846497656
 20
24.4071388699
 10
19.279017017
 20
24.3953227916
 10
19.2740105871
 20
24.3832284355
 10
19.269644036
 20
24.3708886316
 10
19.2659285963
 20
24.358334447
 10
19.2628754829
 20
24.3456029818
 10
19.2604943528
 20
24.332737263
 10
19.2587907485
 20
24.3197754885
 10
19.2577674859
 20
24.3067505941
 10
19.2574260787
 20
24.2936982541
  0
LWPOLYLINE
  5
53F
100
AcDbEntity
  8
RACCORDO
100
AcDbPolyline
 62
253
  6
CONTINUOUS
 90
31
 70
0
 10
0.6074218479
 20
24.5436940233
 10
0.5943383619
 20
24.5433509847
 10
0.5812907353
 20
24.5423236949
 10
0.5683147292
 20
24.5406149693
 10
0.5554459084
 20
24.5382294913
 10
0.5427195438
 20
24.5351737991
 10
0.5301705161
 20
24.5314562678
 10
0.5178332199
 20
24.5270870863
 10
0.5057414692
 20
24.5220782298
 10
0.4939284054
 20
24.5164434266
 10
0.4824264058
 20
24.5101981207
 10
0.4712669953
 20
24.5033594293
 10
0.4604807597
 20
24.4959460959
 10
0.4500972621
 20
24.4879784392
 10
0.4401449616
 20
24.4794782969
 10
0.4306511357
 20
24.4704689663
 10
0.4216418052
 20
24.4609751404
 10
0.4131416629
 20
24.45102284
 10
0.4051740061
 20
24.4406393423
 10
0.3977606728
 20
24.4298531067
 10
0.3909219813
 20
24.4186936962
 10
0.3846766754
 20
24.4071916966
 10
0.3790418723
 20
24.3953786328
 10
0.3740330158
 20
24.3832868822
 10
0.3696638343
 20
24.3709495859
 10
0.3659463029
 20
24.3584005582
 10
0.3628906107
 20
24.3456741937
 10
0.3605051327
 20
24.3328053728
 10
0.3587964072
 20
24.3198293667
 10
0.3577691173
 20
24.3067817401
 10
0.3574260787
 20
24.2936982541
  0
LWPOLYLINE
  5
540
100
AcDbEntity
  8
RACCORDO
100
AcDbPolyline
 62
7
  6
CONTINUOUS
 90
34
 70
0
 10
19.4943232692
 20
24.556792602
 10
19.482427984
 20
24.5565094518
 10
19.4705596444
 20
24.5556606363
 10
19.4587451339
 20
24.5542480762
 10
19.4470112125
 20
24.5522749698
 10
19.4353844612
 20
24.5497457838
 10
19.423891221
 20
24.5466662437
 10
19.4125575262
 20
24.5430433234
 10
19.4014090507
 20
24.5388852278
 10
19.3904710537
 20
24.5342013742
 10
19.3797683124
 20
24.5290023709
 10
19.3693250717
 20
24.5232999937
 10
19.3591649941
 20
24.5171071602
 10
19.3493110949
 20
24.5104378975
 10
19.3397856962
 20
24.5033073128
 10
19.3306103809
 20
24.4957315609
 10
19.3218059339
 20
24.4877278025
 10
19.3133922995
 20
24.4793141681
 10
19.3053885411
 20
24.4705097211
 10
19.2978127893
 20
24.4613344059
 10
19.2906822045
 20
24.4518090072
 10
19.2840129419
 20
24.4419551079
 10
19.2778201084
 20
24.4317950303
 10
19.2721177312
 20
24.4213517896
 10
19.2669187278
 20
24.4106490483
 10
19.2622348742
 20
24.3997110513
 10
19.2580767787
 20
24.3885625758
 10
19.2544538583
 20
24.377228881
 10
19.2513743183
 20
24.3657356408
 10
19.2488451323
 20
24.3541088895
 10
19.2468720259
 20
24.3423749682
 10
19.2454594658
 20
24.3305604576
 10
19.2446106502
 20
24.3186921181
 10
19.2443275
 20
24.3067968328
  0
LWPOLYLINE
  5
541
100
AcDbEntity
  8
RACCORDO
100
AcDbPolyline
 62
7
  6
CONTINUOUS
 90
34
 70
0
 10
0.5943232692
 20
24.556792602
 10
0.582427984
 20
24.5565094518
 10
0.5705596444
 20
24.5556606363
 10
0.5587451339
 20
24.5542480762
 10
0.5470112125
 20
24.5522749698
 10
0.5353844612
 20
24.5497457838
 10
0.523891221
 20
24.5466662437
 10
0.5125575262
 20
24.5430433234
 10
0.5014090507
 20
24.5388852278
 10
0.4904710537
 20
24.5342013742
 10
0.4797683124
 20
24.5290023709
 10
0.4693250717
 20
24.5232999937
 10
0.4591649941
 20
24.5171071602
 10
0.4493110949
 20
24.5104378975
 10
0.4397856962
 20
24.5033073128
 10
0.4306103809
 20
24.4957315609
 10
0.4218059339
 20
24.4877278025
 10
0.4133922995
 20
24.4793141681
 10
0.4053885411
 20
24.4705097211
 10
0.3978127893
 20
24.4613344059
 10
0.3906822045
 20
24.4518090072
 10
0.3840129419
 20
24.4419551079
 10
0.3778201084
 20
24.4317950303
 10
0.3721177312
 20
24.4213517896
 10
0.3669187278
 20
24.4106490483
 10
0.3622348742
 20
24.3997110513
 10
0.3580767787
 20
24.3885625758
 10
0.3544538583
 20
24.377228881
 10
0.3513743183
 20
24.3657356408
 10
0.3488451323
 20
24.3541088895
 10
0.3468720259
 20
24.3423749682
 10
0.3454594658
 20
24.3305604576
 10
0.3446106502
 20
24.3186921181
 10
0.3443275
 20
24.3067968328
  0
LINE
  5
542
100
AcDbEntity
  8
RACCORDO
100
AcDbLine
 62
253
  6
CONTINUOUS
 10
-0.8775674894
 20
23.0351047656
 11
-3.2337775106
 21
23.0351047656
  0
LINE
  5
543
100
AcDbEntity
  8
RACCORDO
100
AcDbLine
 62
253
  6
CONTINUOUS
 10
-19.7775674894
 20
23.0351047656
 11
-22.1337775106
 21
23.0351047656
  0
LINE
  5
544
100
AcDbEntity
  8
RACCORDO
100
AcDbLine
 62
7
  6
CONTINUOUS
 10
0.6016040181
 20
23.1794423329
 11
2.4870509819
 21
23.1794423329
  0
LINE
  5
545
100
AcDbEntity
  8
RACCORDO
100
AcDbLine
 62
7
  6
CONTINUOUS
 10
19.5016040181
 20
23.1794423329
 11
21.3870509819
 21
23.1794423329
  0
LINE
  5
546
100
AcDbEntity
  8
RACCORDO
100
AcDbLine
 62
253
  6
CONTINUOUS
 10
-21.8794518206
 20
23.2516111165
 11
-20.0318931794
 21
23.2516111165
  0
LINE
  5
547
100
AcDbEntity
  8
RACCORDO
100
AcDbLine
 62
253
  6
CONTINUOUS
 10
-2.9794518206
 20
23.2516111165
 11
-1.1318931794
 21
23.2516111165
  0
LINE
  5
548
100
AcDbEntity
  8
RACCORDO
100
AcDbLine
 62
253
  6
CONTINUOUS
 10
14.8914101234
 20
23.6521349535
 11
7.0972448766
 21
23.6521349535
  0
LINE
  5
549
100
AcDbEntity
  8
RACCORDO
100
AcDbLine
 62
253
  6
CONTINUOUS
 10
0.6074218479
 20
23.6846238184
 11
2.4812331521
 21
23.6846238184
  0
LINE
  5
54A
100
AcDbEntity
  8
RACCORDO
100
AcDbLine
 62
253
  6
CONTINUOUS
 10
-1.1449844781
 20
23.6846238184
 11
-2.9663605219
 21
23.6846238184
  0
LINE
  5
54B
100
AcDbEntity
  8
RACCORDO
100
AcDbLine
 62
253
  6
CONTINUOUS
 10
19.5074218479
 20
23.6846238184
 11
21.3812331521
 21
23.6846238184
  0
LINE
  5
54C
100
AcDbEntity
  8
RACCORDO
100
AcDbLine
 62
253
  6
CONTINUOUS
 10
-20.0449844781
 20
23.6846238184
 11
-21.8663605219
 21
23.6846238184
  0
LINE
  5
54D
100
AcDbEntity
  8
RACCORDO
100
AcDbLine
 62
7
  6
CONTINUOUS
 10
-7.6144761965
 20
23.8393375371
 11
-15.3968688035
 21
23.8393375371
  0
LINE
  5
54E
100
AcDbEntity
  8
RACCORDO
100
AcDbLine
 62
253
  6
CONTINUOUS
 10
15.2905348137
 20
23.8521315689
 11
6.6981201863
 21
23.8521315689
  0
LINE
  5
54F
100
AcDbEntity
  8
DRAFT
100
AcDbLine
 62
7
  6
CONTINUOUS
 10
6.5943275
 20
23.856792602
 11
15.3943275
 21
23.856792602
  0
LINE
  5
550
100
AcDbEntity
  8
DRAFT
100
AcDbLine
 62
7
  6
CONTINUOUS
 10
-7.1056725
 20
23.856792602
 11
-15.9056725
 21
23.856792602
  0
LINE
  5
551
100
AcDbEntity
  8
RACCORDO
100
AcDbLine
 62
253
  6
CONTINUOUS
 10
0.3574260787
 20
23.9011301693
 11
2.7312289213
 21
23.9011301693
  0
LINE
  5
552
100
AcDbEntity
  8
RACCORDO
100
AcDbLine
 62
253
  6
CONTINUOUS
 10
-0.8950225543
 20
23.9011301693
 11
-3.2163224457
 21
23.9011301693
  0
LINE
  5
553
100
AcDbEntity
  8
RACCORDO
100
AcDbLine
 62
253
  6
CONTINUOUS
 10
19.2574260787
 20
23.9011301693
 11
21.6312289213
 21
23.9011301693
  0
LINE
  5
554
100
AcDbEntity
  8
RACCORDO
100
AcDbLine
 62
253
  6
CONTINUOUS
 10
-19.7950225543
 20
23.9011301693
 11
-22.1163224457
 21
23.9011301693
  0
LINE
  5
555
100
AcDbEntity
  8
RACCORDO
100
AcDbLine
 62
253
  6
CONTINUOUS
 10
-0.8950225543
 20
24.2674806239
 11
-3.2163224457
 21
24.2674806239
  0
LINE
  5
556
100
AcDbEntity
  8
RACCORDO
100
AcDbLine
 62
253
  6
CONTINUOUS
 10
-19.7950225543
 20
24.2674806239
 11
-22.1163224457
 21
24.2674806239
  0
LINE
  5
557
100
AcDbEntity
  8
RACCORDO
100
AcDbLine
 62
253
  6
CONTINUOUS
 10
0.3574260787
 20
24.2936982541
 11
2.7312289213
 21
24.2936982541
  0
LINE
  5
558
100
AcDbEntity
  8
RACCORDO
100
AcDbLine
 62
253
  6
CONTINUOUS
 10
19.2574260787
 20
24.2936982541
 11
21.6312289213
 21
24.2936982541
  0
LINE
  5
559
100
AcDbEntity
  8
RACCORDO
100
AcDbLine
 62
253
  6
CONTINUOUS
 10
-1.1449844781
 20
24.5174425477
 11
-2.9663605219
 21
24.5174425477
  0
LINE
  5
55A
100
AcDbEntity
  8
RACCORDO
100
AcDbLine
 62
253
  6
CONTINUOUS
 10
-20.0449844781
 20
24.5174425477
 11
-21.8663605219
 21
24.5174425477
  0
LINE
  5
55B
100
AcDbEntity
  8
RACCORDO
100
AcDbLine
 62
253
  6
CONTINUOUS
 10
21.3812331521
 20
24.5436940233
 11
19.5074218479
 21
24.5436940233
  0
LINE
  5
55C
100
AcDbEntity
  8
RACCORDO
100
AcDbLine
 62
253
  6
CONTINUOUS
 10
2.4812331521
 20
24.5436940233
 11
0.6074218479
 21
24.5436940233
  0
LINE
  5
55D
100
AcDbEntity
  8
RACCORDO
100
AcDbLine
 62
7
  6
CONTINUOUS
 10
-3.0056820192
 20
24.556792602
 11
-1.1056629808
 21
24.556792602
  0
LINE
  5
55E
100
AcDbEntity
  8
RACCORDO
100
AcDbLine
 62
7
  6
CONTINUOUS
 10
0.5943232692
 20
24.556792602
 11
2.4943317308
 21
24.556792602
  0
LINE
  5
55F
100
AcDbEntity
  8
RACCORDO
100
AcDbLine
 62
7
  6
CONTINUOUS
 10
19.4943232692
 20
24.556792602
 11
21.3943317308
 21
24.556792602
  0
LINE
  5
560
100
AcDbEntity
  8
RACCORDO
100
AcDbLine
 62
7
  6
CONTINUOUS
 10
-20.0056629808
 20
24.556792602
 11
-21.9056820192
 21
24.556792602
  0
LWPOLYLINE
  5
561
100
AcDbEntity
  8
RACCORDO
100
AcDbPolyline
 62
7
  6
CONTINUOUS
 90
22
 70
0
 10
6.6981201863
 20
23.8521315689
 10
6.7089093097
 20
23.8515841669
 10
6.7199967719
 20
23.850156497
 10
6.7313825728
 20
23.84792909
 10
6.7430913531
 20
23.8449904986
 10
6.755098472
 20
23.8414164736
 10
6.767330008
 20
23.8372521153
 10
6.7797787482
 20
23.8325569723
 10
6.7924519054
 20
23.8273944117
 10
6.8052971956
 20
23.8217879124
 10
6.8183103277
 20
23.815782834
 10
6.8314955928
 20
23.8094291668
 10
6.8448135797
 20
23.8027386603
 10
6.8582620667
 20
23.7957468852
 10
6.8718432756
 20
23.7884939942
 10
6.8855244604
 20
23.780986275
 10
6.8993045721
 20
23.7732527899
 10
6.9131846598
 20
23.765326553
 10
6.9271351244
 20
23.7572117921
 10
6.941155725
 20
23.7489331311
 10
6.9552467024
 20
23.7405185613
 10
6.9693791799
 20
23.7319722818
  0
LWPOLYLINE
  5
562
100
AcDbEntity
  8
RACCORDO
100
AcDbPolyline
 62
7
  6
CONTINUOUS
 90
11
 70
0
 10
21.6443266391
 20
22.4564838007
 10
21.6658158972
 20
22.4552663418
 10
21.6872709461
 20
22.453119906
 10
21.708651387
 20
22.4500436271
 10
21.7299394114
 20
22.4460335682
 10
21.7510710211
 20
22.4410952921
 10
21.7719383967
 20
22.4352536785
 10
21.7924872008
 20
22.4285294078
 10
21.8126969928
 20
22.4209346657
 10
21.8325149588
 20
22.4124949597
 10
21.8503645741
 20
22.4040064038
  0
LINE
  5
563
100
AcDbEntity
  8
RACCORDO
100
AcDbLine
 62
7
  6
CONTINUOUS
 10
6.9693791799
 20
23.7319722818
 11
6.9977693162
 21
23.7145738031
  0
LINE
  5
564
100
AcDbEntity
  8
RACCORDO
100
AcDbLine
 62
7
  6
CONTINUOUS
 10
6.9977693162
 20
23.7145738031
 11
7.0404886847
 21
23.6879464482
  0
LINE
  5
565
100
AcDbEntity
  8
RACCORDO
100
AcDbLine
 62
7
  6
CONTINUOUS
 10
7.0404886847
 20
23.6879464482
 11
7.0972448766
 21
23.6521349535
  0
LWPOLYLINE
  5
566
100
AcDbEntity
  8
RACCORDO
100
AcDbPolyline
 62
253
  6
CONTINUOUS
 90
16
 70
0
 10
21.9770005391
 20
-20.4851132544
 10
21.9760365332
 20
-20.4860809492
 10
21.9739671758
 20
-20.4870465001
 10
21.9707970514
 20
-20.4880077683
 10
21.9665331826
 20
-20.4889626243
 10
21.9611850152
 20
-20.4899089526
 10
21.9547643972
 20
-20.490844657
 10
21.9472855522
 20
-20.4917676646
 10
21.9387650481
 20
-20.4926759305
 10
21.9292217606
 20
-20.4935674428
 10
21.9186768309
 20
-20.4944402263
 10
21.9071536194
 20
-20.4952923477
 10
21.8946776537
 20
-20.4961219192
 10
21.8812765717
 20
-20.4969271031
 10
21.8669800612
 20
-20.4977061157
 10
21.8518197933
 20
-20.4984572311
  0
LINE
  5
567
100
AcDbEntity
  8
RACCORDO
100
AcDbLine
 62
253
  6
CONTINUOUS
 10
19.2443275
 20
-24.1932116287
 11
19.2574260787
 21
-24.18011305
  0
LINE
  5
568
100
AcDbEntity
  8
RACCORDO
100
AcDbLine
 62
253
  6
CONTINUOUS
 10
19.4943232692
 20
-24.443207398
 11
19.5074218479
 21
-24.4301088192
  0
LINE
  5
569
100
AcDbEntity
  8
RACCORDO
100
AcDbLine
 62
253
  6
CONTINUOUS
 10
22.1269105976
 20
-21.8430931265
 11
22.1443275
 21
-21.8343853386
  0
LINE
  5
56A
100
AcDbEntity
  8
RACCORDO
100
AcDbLine
 62
7
  6
CONTINUOUS
 10
21.8503419094
 20
-22.2904325319
 11
21.867844502
 21
-22.2816819021
  0
LWPOLYLINE
  5
56B
100
AcDbEntity
  8
RACCORDO
100
AcDbPolyline
 62
7
  6
CONTINUOUS
 90
11
 70
0
 10
21.8503645741
 20
-22.2904211997
 10
21.8325149588
 20
-22.2989097556
 10
21.8126969928
 20
-22.3073494616
 10
21.7924872008
 20
-22.3149442037
 10
21.7719383967
 20
-22.3216684745
 10
21.7510710211
 20
-22.327510088
 10
21.7299394114
 20
-22.3324483641
 10
21.708651387
 20
-22.3364584231
 10
21.6872709461
 20
-22.3395347019
 10
21.6658158972
 20
-22.3416811377
 10
21.6443266391
 20
-22.3428985966
  0
LINE
  5
56C
100
AcDbEntity
  8
RACCORDO
100
AcDbLine
 62
253
  6
CONTINUOUS
 10
22.1443275
 20
21.9479705426
 11
22.1269105976
 21
21.9566783306
  0
LINE
  5
56D
100
AcDbEntity
  8
RACCORDO
100
AcDbLine
 62
7
  6
CONTINUOUS
 10
21.867844502
 20
22.3952671062
 11
21.8503419094
 21
22.404017736
  0
LWPOLYLINE
  5
56E
100
AcDbEntity
  8
RACCORDO
100
AcDbPolyline
 62
7
  6
CONTINUOUS
 90
27
 70
0
 10
21.8503645741
 20
22.4040064038
 10
21.8707854008
 20
22.3931987257
 10
21.8892660898
 20
22.3823381531
 10
21.907297315
 20
22.3706733959
 10
21.9248317163
 20
22.358230164
 10
21.9418602983
 20
22.3450082951
 10
21.95837258
 20
22.331003679
 10
21.974305188
 20
22.3162573373
 10
21.9895744627
 20
22.3008427187
 10
22.0041500356
 20
22.284793261
 10
22.0180088674
 20
22.2681372362
 10
22.0310923316
 20
22.2509535145
 10
22.043378422
 20
22.2332869885
 10
22.0548573472
 20
22.2151686416
 10
22.0655006639
 20
22.1966639454
 10
22.0752922805
 20
22.1778292392
 10
22.0842353473
 20
22.1586889665
 10
22.0923338933
 20
22.1392613543
 10
22.0995818104
 20
22.1195872834
 10
22.1059767798
 20
22.0997021386
 10
22.1115247025
 20
22.0796131418
 10
22.1162231234
 20
22.0593496045
 10
22.1200675641
 20
22.038954866
 10
22.1230583067
 20
22.0184556037
 10
22.1251950827
 20
21.9978844639
 10
22.1264783618
 20
21.9772802449
 10
22.1269105976
 20
21.9566783306
  0
LINE
  5
56F
100
AcDbEntity
  8
RACCORDO
100
AcDbLine
 62
253
  6
CONTINUOUS
 10
19.2443275
 20
24.3067968328
 11
19.2574260787
 21
24.2936982541
  0
LINE
  5
570
100
AcDbEntity
  8
RACCORDO
100
AcDbLine
 62
253
  6
CONTINUOUS
 10
19.4943232692
 20
24.556792602
 11
19.5074218479
 21
24.5436940233
  0
LWPOLYLINE
  5
571
100
AcDbEntity
  8
RACCORDO
100
AcDbPolyline
 62
253
  6
CONTINUOUS
 90
17
 70
0
 10
21.9770005391
 20
20.5986984585
 10
21.9760365395
 20
20.5996661534
 10
21.9739671881
 20
20.6006317046
 10
21.9707970691
 20
20.601592973
 10
21.9665332054
 20
20.6025478292
 10
21.9611850426
 20
20.6034941578
 10
21.9547644288
 20
20.6044298624
 10
21.9472855875
 20
20.6053528702
 10
21.9387650867
 20
20.6062611364
 10
21.929221802
 20
20.6071526489
 10
21.9186768747
 20
20.6080254327
 10
21.9071536651
 20
20.6088775544
 10
21.8946777008
 20
20.6097071262
 10
21.8812766199
 20
20.6105123103
 10
21.86698011
 20
20.6112913231
 10
21.8518198423
 20
20.6120424388
 10
21.8190442114
 20
20.6134543884
  0
LWPOLYLINE
  5
572
100
AcDbEntity
  8
RACCORDO
100
AcDbPolyline
 62
7
  6
CONTINUOUS
 90
5
 70
0
 10
-77.6135534219
 20
23.1826951556
 10
-77.6158695464
 20
23.1813090346
 10
-77.6175324306
 20
23.1802859526
 10
-77.6185384641
 20
23.1796567628
 10
-77.6188758013
 20
23.1794423329
  0
LINE
  5
573
100
AcDbEntity
  8
RACCORDO
100
AcDbLine
 62
7
  6
CONTINUOUS
 10
-77.6029457375
 20
23.1889396967
 11
-77.6135534219
 21
23.1826951556
  0
LINE
  5
574
100
AcDbEntity
  8
RACCORDO
100
AcDbLine
 62
253
  6
CONTINUOUS
 10
-76.1188758013
 20
23.4672777503
 11
-75.3674213685
 21
23.9011301693
  0
LINE
  5
575
100
AcDbEntity
  8
RACCORDO
100
AcDbLine
 62
7
  6
CONTINUOUS
 10
-77.3811752704
 20
23.3175383211
 11
-77.6029457375
 21
23.1889396967
  0
LINE
  5
576
100
AcDbEntity
  8
RACCORDO
100
AcDbLine
 62
7
  6
CONTINUOUS
 10
-77.3703302342
 20
23.3237799001
 11
-77.3811752704
 21
23.3175383211
  0
LINE
  5
577
100
AcDbEntity
  8
RACCORDO
100
AcDbLine
 62
253
  6
CONTINUOUS
 10
-75.3674213685
 20
-23.7875449653
 11
-76.1188758013
 21
-23.3536925462
  0
LINE
  5
578
100
AcDbEntity
  8
RACCORDO
100
AcDbLine
 62
7
  6
CONTINUOUS
 10
-77.5810227476
 20
-23.088161999
 11
-77.3703302342
 21
-23.2101946961
  0
LINE
  5
579
100
AcDbEntity
  8
RACCORDO
100
AcDbLine
 62
7
  6
CONTINUOUS
 10
-77.6105818034
 20
-23.0708684772
 11
-77.5810227476
 21
-23.088161999
  0
LWPOLYLINE
  5
57A
100
AcDbEntity
  8
RACCORDO
100
AcDbPolyline
 62
7
  6
CONTINUOUS
 90
4
 70
0
 10
-77.6188758013
 20
-23.0658571288
 10
-77.6185362969
 20
-23.0661107062
 10
-77.6175249265
 20
-23.0667361049
 10
-77.6105818034
 20
-23.0708684772
  0
LWPOLYLINE
  5
57B
100
AcDbEntity
  8
RACCORDO
100
AcDbPolyline
 62
253
  6
CONTINUOUS
 90
5
 70
0
 10
-78.4913807043
 20
23.6894682607
 10
-78.4925128567
 20
23.6873778678
 10
-78.4933073821
 20
23.6858711877
 10
-78.4937621109
 20
23.6849523349
 10
-78.4938758013
 20
23.6846238184
  0
LINE
  5
57C
100
AcDbEntity
  8
RACCORDO
100
AcDbLine
 62
253
  6
CONTINUOUS
 10
-78.4881167992
 20
23.6953757727
 11
-78.4913807043
 21
23.6894682607
  0
LINE
  5
57D
100
AcDbEntity
  8
RACCORDO
100
AcDbLine
 62
253
  6
CONTINUOUS
 10
-78.4807954747
 20
23.7084213253
 11
-78.4881167992
 21
23.6953757727
  0
LINE
  5
57E
100
AcDbEntity
  8
RACCORDO
100
AcDbLine
 62
253
  6
CONTINUOUS
 10
-78.4581628206
 20
23.7482592395
 11
-78.4807954747
 21
23.7084213253
  0
LINE
  5
57F
100
AcDbEntity
  8
RACCORDO
100
AcDbLine
 62
253
  6
CONTINUOUS
 10
-78.3833638597
 20
23.878540754
 11
-78.4581628206
 21
23.7482592395
  0
LINE
  5
580
100
AcDbEntity
  8
RACCORDO
100
AcDbLine
 62
253
  6
CONTINUOUS
 10
-78.3703302342
 20
23.9011301693
 11
-78.3833638597
 21
23.878540754
  0
LINE
  5
581
100
AcDbEntity
  8
RACCORDO
100
AcDbLine
 62
7
  6
CONTINUOUS
 10
-76.1188758013
 20
23.1794423329
 11
-75.2438758013
 21
23.6846238184
  0
LINE
  5
582
100
AcDbEntity
  8
RACCORDO
100
AcDbLine
 62
7
  6
CONTINUOUS
 10
-75.2438758013
 20
-23.5710386143
 11
-76.1188758013
 21
-23.0658571288
  0
LINE
  5
583
100
AcDbEntity
  8
RACCORDO
100
AcDbLine
 62
253
  6
CONTINUOUS
 10
-78.3703302342
 20
-23.7875449653
 11
-78.4534624769
 21
-23.6429061805
  0
LINE
  5
584
100
AcDbEntity
  8
RACCORDO
100
AcDbLine
 62
253
  6
CONTINUOUS
 10
-78.4534624769
 20
-23.6429061805
 11
-78.4777307048
 21
-23.6002603249
  0
LINE
  5
585
100
AcDbEntity
  8
RACCORDO
100
AcDbLine
 62
253
  6
CONTINUOUS
 10
-78.4777307048
 20
-23.6002603249
 11
-78.4859923709
 21
-23.5855943924
  0
LWPOLYLINE
  5
586
100
AcDbEntity
  8
RACCORDO
100
AcDbPolyline
 62
253
  6
CONTINUOUS
 90
7
 70
0
 10
-78.4859923709
 20
-23.5855943924
 10
-78.489913224
 20
-23.5785528886
 10
-78.4913801989
 20
-23.5758839822
 10
-78.4925125749
 20
-23.5737931898
 10
-78.4933072604
 20
-23.5722862198
 10
-78.4937620832
 20
-23.5713671914
 10
-78.4938758013
 20
-23.5710386143
  0
LWPOLYLINE
  5
587
100
AcDbEntity
  8
RACCORDO
100
AcDbPolyline
 62
253
  6
CONTINUOUS
 90
43
 70
0
 10
-84.705030971
 20
-20.4851132544
 10
-84.7029596458
 20
-20.520278285
 10
-84.6996653393
 20
-20.5552672662
 10
-84.6951480516
 20
-20.590080198
 10
-84.6893991831
 20
-20.6247609617
 10
-84.6824273333
 20
-20.6592656761
 10
-84.674258301
 20
-20.6934626976
 10
-84.6648875893
 20
-20.7273498849
 10
-84.654319695
 20
-20.7609293794
 10
-84.6425939075
 20
-20.7940759617
 10
-84.6297060194
 20
-20.8267876509
 10
-84.6156602379
 20
-20.8590664278
 10
-84.6005084744
 20
-20.8907930157
 10
-84.5842466328
 20
-20.921965433
 10
-84.566878809
 20
-20.9525856611
 10
-84.5484692024
 20
-20.9825403676
 10
-84.5290138612
 20
-21.0118272011
 10
-84.5085167372
 20
-21.0404485129
 10
-84.4870538853
 20
-21.0682980245
 10
-84.4646217839
 20
-21.0953727731
 10
-84.4412239546
 20
-21.1216757215
 10
-84.4169470173
 20
-21.1471094795
 10
-84.3917877236
 20
-21.1716708261
 10
-84.3657493218
 20
-21.1953629823
 10
-84.3389281771
 20
-21.2180982203
 10
-84.3113212903
 20
-21.2398730551
 10
-84.2829316607
 20
-21.2606909718
 10
-84.2538646509
 20
-21.2804746981
 10
-84.2241178422
 20
-21.2992203223
 10
-84.1936936534
 20
-21.3169317561
 10
-84.1627047038
 20
-21.3335434623
 10
-84.1311489692
 20
-21.3490513643
 10
-84.0990284738
 20
-21.3634595387
 10
-84.0664619091
 20
-21.3767146778
 10
-84.033447237
 20
-21.3888125901
 10
-83.9999864956
 20
-21.3997574672
 10
-83.9662044912
 20
-21.4095085765
 10
-83.9320984792
 20
-21.4180614811
 10
-83.8976712042
 20
-21.425420618
 10
-83.8630557063
 20
-21.4315585657
 10
-83.8282963322
 20
-21.4364661838
 10
-83.7933487352
 20
-21.4401526128
 10
-83.7582129153
 20
-21.4426178526
  0
LINE
  5
588
100
AcDbEntity
  8
RACCORDO
100
AcDbLine
 62
7
  6
CONTINUOUS
 10
-85.6188758013
 20
9.706792602
 11
-85.6188758013
 21
13.806792602
  0
LWPOLYLINE
  5
589
100
AcDbEntity
  8
RACCORDO
100
AcDbPolyline
 62
253
  6
CONTINUOUS
 90
22
 70
0
 10
-84.705030971
 20
20.5986984585
 10
-84.7816805538
 20
18.6432278869
 10
-84.8506667703
 20
16.6875319363
 10
-84.9119896203
 20
14.7316106067
 10
-84.9656498117
 20
12.7754338193
 10
-85.0116466368
 20
10.8190316529
 10
-85.0499779718
 20
8.8624943443
 10
-85.0806434617
 20
6.9058219403
 10
-85.1036434616
 20
4.949014394
 10
-85.1189769128
 20
2.9921618018
 10
-85.1266434623
 20
1.0352641652
 10
-85.1266434632
 20
-0.9216785175
 10
-85.1189769153
 20
-2.8785761542
 10
-85.1036434659
 20
-4.8354287466
 10
-85.0806434678
 20
-6.7922362932
 10
-85.0499779796
 20
-8.7489086975
 10
-85.011646647
 20
-10.7054459901
 10
-84.9656498243
 20
-12.6618481404
 10
-84.9119896331
 20
-14.6180249608
 10
-84.8506667808
 20
-16.5739463886
 10
-84.7816805601
 20
-18.5296424865
 10
-84.705030971
 20
-20.4851132544
  0
LINE
  5
58A
100
AcDbEntity
  8
RACCORDO
100
AcDbLine
 62
7
  6
CONTINUOUS
 10
-75.3674213685
 20
-24.438835564
 11
-76.1188758013
 21
-24.443207398
  0
LINE
  5
58B
100
AcDbEntity
  8
RACCORDO
100
AcDbLine
 62
253
  6
CONTINUOUS
 10
-75.3674213685
 20
-24.1888397947
 11
-76.1188758013
 21
-24.1932116287
  0
LINE
  5
58C
100
AcDbEntity
  8
ASSI
100
AcDbLine
 62
7
  6
CONTINUOUS
 10
-75.123966893
 20
-23.7374191873
 11
-68.6159669357
 21
-23.6995567511
  0
LINE
  5
58D
100
AcDbEntity
  8
RACCORDO
100
AcDbLine
 62
253
  6
CONTINUOUS
 10
-75.1188758013
 20
-24.1888397947
 11
-75.3674213685
 21
-24.1888397947
  0
LINE
  5
58E
100
AcDbEntity
  8
RACCORDO
100
AcDbLine
 62
253
  6
CONTINUOUS
 10
-78.6188758013
 20
-24.18011305
 11
-78.3703302342
 21
-24.18011305
  0
LINE
  5
58F
100
AcDbEntity
  8
RACCORDO
100
AcDbLine
 62
253
  6
CONTINUOUS
 10
-78.6188758013
 20
-23.7875449653
 11
-78.3703302342
 21
-23.7875449653
  0
LINE
  5
590
100
AcDbEntity
  8
RACCORDO
100
AcDbLine
 62
253
  6
CONTINUOUS
 10
-75.1188758013
 20
-23.7875449653
 11
-75.3674213685
 21
-23.7875449653
  0
LINE
  5
591
100
AcDbEntity
  8
RACCORDO
100
AcDbLine
 62
7
  6
CONTINUOUS
 10
-76.1188758013
 20
-24.443207398
 11
-78.3703302342
 21
-24.4301088192
  0
LINE
  5
592
100
AcDbEntity
  8
RACCORDO
100
AcDbLine
 62
253
  6
CONTINUOUS
 10
-76.1188758013
 20
-24.1932116287
 11
-78.3703302342
 21
-24.18011305
  0
LINE
  5
593
100
AcDbEntity
  8
RACCORDO
100
AcDbLine
 62
7
  6
CONTINUOUS
 10
-77.4752367655
 20
-22.2720157537
 11
-77.4027423267
 21
-22.2750267843
  0
LINE
  5
594
100
AcDbEntity
  8
RACCORDO
100
AcDbLine
 62
7
  6
CONTINUOUS
 10
-77.4944189433
 20
-22.2711182366
 11
-77.4752367655
 21
-22.2720157537
  0
LINE
  5
595
100
AcDbEntity
  8
RACCORDO
100
AcDbLine
 62
7
  6
CONTINUOUS
 10
-77.4027423267
 20
-22.2750267843
 11
-77.3811626235
 21
-22.2760608722
  0
LINE
  5
596
100
AcDbEntity
  8
RACCORDO
100
AcDbLine
 62
7
  6
CONTINUOUS
 10
-77.4944189433
 20
-22.2711182366
 11
-83.7756546902
 21
-21.9419326199
  0
LINE
  5
597
100
AcDbEntity
  8
RACCORDO
100
AcDbLine
 62
253
  6
CONTINUOUS
 10
-83.7582129153
 20
-21.4426178526
 11
-76.1166894723
 21
-21.8430931265
  0
LINE
  5
598
100
AcDbEntity
  8
RACCORDO
100
AcDbLine
 62
7
  6
CONTINUOUS
 10
-76.1188758013
 20
-22.3429154751
 11
-77.3811626235
 21
-22.2760608722
  0
LINE
  5
599
100
AcDbEntity
  8
RACCORDO
100
AcDbLine
 62
253
  6
CONTINUOUS
 10
-83.7582129153
 20
21.5562030566
 11
-83.7652258103
 21
21.6967967516
  0
LINE
  5
59A
100
AcDbEntity
  8
RACCORDO
100
AcDbLine
 62
253
  6
CONTINUOUS
 10
-83.7652258103
 20
21.6967967516
 11
-83.7701182637
 21
21.8057288441
  0
LINE
  5
59B
100
AcDbEntity
  8
RACCORDO
100
AcDbLine
 62
253
  6
CONTINUOUS
 10
-83.7701182637
 20
21.8057288441
 11
-83.7732068669
 21
21.8830280988
  0
LINE
  5
59C
100
AcDbEntity
  8
RACCORDO
100
AcDbLine
 62
253
  6
CONTINUOUS
 10
-83.7732068669
 20
21.8830280988
 11
-83.7749663299
 21
21.9333971578
  0
LINE
  5
59D
100
AcDbEntity
  8
RACCORDO
100
AcDbLine
 62
253
  6
CONTINUOUS
 10
-83.7749663299
 20
21.9333971578
 11
-83.7758532592
 21
21.9627726136
  0
LINE
  5
59E
100
AcDbEntity
  8
RACCORDO
100
AcDbLine
 62
253
  6
CONTINUOUS
 10
-83.7758532592
 20
21.9627726136
 11
-83.7765016863
 21
21.9884703902
  0
LWPOLYLINE
  5
59F
100
AcDbEntity
  8
RACCORDO
100
AcDbPolyline
 62
253
  6
CONTINUOUS
 90
11
 70
0
 10
-83.7765016863
 20
21.9884703902
 10
-83.7769057458
 20
22.0102580345
 10
-83.7770149081
 20
22.0196225359
 10
-83.7770617827
 20
22.0279384633
 10
-83.7770462635
 20
22.0351870002
 10
-83.7769683856
 20
22.0413517454
 10
-83.7768283252
 20
22.0464187501
 10
-83.7766263992
 20
22.0503765491
 10
-83.7763630646
 20
22.0532161871
 10
-83.7760389171
 20
22.054931239
 10
-83.7756546902
 20
22.055517824
  0
LWPOLYLINE
  5
5A0
100
AcDbEntity
  8
RACCORDO
100
AcDbPolyline
 62
253
  6
CONTINUOUS
 90
10
 70
0
 10
-83.7769057457
 20
-21.8966728425
 10
-83.777014908
 20
-21.9060373417
 10
-83.7770617825
 20
-21.9143532669
 10
-83.7770462633
 20
-21.9216018019
 10
-83.7769683853
 20
-21.9277665454
 10
-83.7768283249
 20
-21.9328335487
 10
-83.776626399
 20
-21.9367913465
 10
-83.7763630644
 20
-21.9396309837
 10
-83.776038917
 20
-21.9413460351
 10
-83.7756546902
 20
-21.9419326199
  0
LINE
  5
5A1
100
AcDbEntity
  8
RACCORDO
100
AcDbLine
 62
253
  6
CONTINUOUS
 10
-83.7765016864
 20
-21.874885203
 11
-83.7769057457
 21
-21.8966728425
  0
LINE
  5
5A2
100
AcDbEntity
  8
RACCORDO
100
AcDbLine
 62
253
  6
CONTINUOUS
 10
-83.7758532594
 20
-21.8491874312
 11
-83.7765016864
 21
-21.874885203
  0
LINE
  5
5A3
100
AcDbEntity
  8
RACCORDO
100
AcDbLine
 62
253
  6
CONTINUOUS
 10
-83.7744358523
 20
-21.803826926
 11
-83.7758532594
 21
-21.8491874312
  0
LINE
  5
5A4
100
AcDbEntity
  8
RACCORDO
100
AcDbLine
 62
253
  6
CONTINUOUS
 10
-83.7725111421
 20
-21.7511217801
 11
-83.7744358523
 21
-21.803826926
  0
LINE
  5
5A5
100
AcDbEntity
  8
RACCORDO
100
AcDbLine
 62
253
  6
CONTINUOUS
 10
-83.7692247554
 20
-21.671294369
 11
-83.7725111421
 21
-21.7511217801
  0
LINE
  5
5A6
100
AcDbEntity
  8
RACCORDO
100
AcDbLine
 62
253
  6
CONTINUOUS
 10
-83.7641311618
 20
-21.5602686651
 11
-83.7692247554
 21
-21.671294369
  0
LINE
  5
5A7
100
AcDbEntity
  8
RACCORDO
100
AcDbLine
 62
253
  6
CONTINUOUS
 10
-83.7582129153
 20
-21.4426178526
 11
-83.7641311618
 21
-21.5602686651
  0
LWPOLYLINE
  5
5A8
100
AcDbEntity
  8
RACCORDO
100
AcDbPolyline
 62
7
  6
CONTINUOUS
 90
11
 70
0
 10
-76.1190237742
 20
22.4564838007
 10
-76.1194380198
 20
22.4552663418
 10
-76.1198149952
 20
22.453119906
 10
-76.1201540028
 20
22.4500436271
 10
-76.120448855
 20
22.4460335682
 10
-76.1207042972
 20
22.4410952921
 10
-76.1209359637
 20
22.4352536785
 10
-76.121147991
 20
22.4285294078
 10
-76.1213346503
 20
22.4209346657
 10
-76.1214967344
 20
22.4124949597
 10
-76.1217436115
 20
22.3931987257
  0
LINE
  5
5A9
100
AcDbEntity
  8
DRAFT
100
AcDbLine
 62
7
  6
CONTINUOUS
 10
-65.7358539161
 20
-22.1794261417
 11
-65.1188758013
 21
-22.1686567487
  0
LINE
  5
5AA
100
AcDbEntity
  8
ASSI
100
AcDbLine
 62
7
  6
CONTINUOUS
 10
-65.7358539161
 20
-22.1794261417
 11
-65.1188758013
 21
-22.1686567487
  0
LINE
  5
5AB
100
AcDbEntity
  8
DRAFT
100
AcDbLine
 62
7
  6
CONTINUOUS
 10
-65.1188758013
 20
-20.6186567487
 11
-75.1188758013
 21
-20.793207398
  0
LINE
  5
5AC
100
AcDbEntity
  8
ASSI
100
AcDbLine
 62
7
  6
CONTINUOUS
 10
-65.1188758013
 20
-20.6186567487
 11
-75.1188758013
 21
-20.793207398
  0
LINE
  5
5AD
100
AcDbEntity
  8
RACCORDO
100
AcDbLine
 62
7
  6
CONTINUOUS
 10
-66.1101492658
 20
-22.2558625647
 11
-76.1188758013
 21
-22.343207398
  0
LINE
  5
5AE
100
AcDbEntity
  8
RACCORDO
100
AcDbLine
 62
253
  6
CONTINUOUS
 10
-76.1166894723
 20
-21.8430931265
 11
-75.1188758013
 21
-21.8343853386
  0
LINE
  5
5AF
100
AcDbEntity
  8
RACCORDO
100
AcDbLine
 62
7
  6
CONTINUOUS
 10
-65.1188758013
 20
-20.843207398
 11
-75.1188758013
 21
-20.843207398
  0
LINE
  5
5B0
100
AcDbEntity
  8
RACCORDO
100
AcDbLine
 62
7
  6
CONTINUOUS
 10
-65.6101495981
 20
-21.5091828312
 11
-75.1188758013
 21
-21.343207398
  0
LWPOLYLINE
  5
5B1
100
AcDbEntity
  8
RACCORDO
100
AcDbPolyline
 62
253
  6
CONTINUOUS
 90
6
 70
0
 10
-78.3703302342
 20
-24.4301088192
 10
-78.3704043717
 20
-24.4297656302
 10
-78.3704743181
 20
-24.4287378873
 10
-78.3705398814
 20
-24.4270284041
 10
-78.3706008819
 20
-24.4246418614
 10
-78.3706571522
 20
-24.4215848002
  0
LINE
  5
5B2
100
AcDbEntity
  8
RACCORDO
100
AcDbLine
 62
253
  6
CONTINUOUS
 10
-85.1953289445
 20
-20.5056360656
 11
-85.1958816091
 21
-20.505675716
  0
LINE
  5
5B3
100
AcDbEntity
  8
RACCORDO
100
AcDbLine
 62
253
  6
CONTINUOUS
 10
-85.2448763369
 20
-20.4649500865
 11
-85.247551108
 21
-20.4650970186
  0
LINE
  5
5B4
100
AcDbEntity
  8
RACCORDO
100
AcDbLine
 62
253
  6
CONTINUOUS
 10
-85.1909108059
 20
-20.50542056
 11
-85.1953289445
 21
-20.5056360656
  0
LINE
  5
5B5
100
AcDbEntity
  8
RACCORDO
100
AcDbLine
 62
253
  6
CONTINUOUS
 10
-85.1975589514
 20
-20.4628880812
 11
-85.2448763369
 21
-20.4649500865
  0
LINE
  5
5B6
100
AcDbEntity
  8
RACCORDO
100
AcDbLine
 62
253
  6
CONTINUOUS
 10
-84.705030971
 20
-20.4851132544
 11
-85.1909108059
 21
-20.50542056
  0
LINE
  5
5B7
100
AcDbEntity
  8
RACCORDO
100
AcDbLine
 62
253
  6
CONTINUOUS
 10
-40.101080186
 20
-18.7025270071
 11
-43.680631547
 21
-18.8016021935
  0
LINE
  5
5B8
100
AcDbEntity
  8
ASSI
100
AcDbLine
 62
253
  6
CONTINUOUS
 10
-40.101080186
 20
-18.7025270071
 11
-43.680631547
 21
-18.8016021935
  0
LINE
  5
5B9
100
AcDbEntity
  8
RACCORDO
100
AcDbLine
 62
7
  6
CONTINUOUS
 10
-40.1014233949
 20
-19.0319754926
 11
-65.1188758013
 21
-19.4686567487
  0
LINE
  5
5BA
100
AcDbEntity
  8
ASSI
100
AcDbLine
 62
7
  6
CONTINUOUS
 10
-40.1014233949
 20
-19.0319754926
 11
-65.1188758013
 21
-19.4686567487
  0
LINE
  5
5BB
100
AcDbEntity
  8
RACCORDO
100
AcDbLine
 62
253
  6
CONTINUOUS
 10
-43.680631547
 20
-18.8016021935
 11
-65.1188758013
 21
-19.1758081389
  0
LINE
  5
5BC
100
AcDbEntity
  8
ASSI
100
AcDbLine
 62
253
  6
CONTINUOUS
 10
-43.680631547
 20
-18.8016021935
 11
-65.1188758013
 21
-19.1758081389
  0
LINE
  5
5BD
100
AcDbEntity
  8
RACCORDO
100
AcDbLine
 62
253
  6
CONTINUOUS
 10
-75.1188758013
 20
-19.0289046175
 11
-43.680631547
 21
-18.8016021935
  0
LINE
  5
5BE
100
AcDbEntity
  8
ASSI
100
AcDbLine
 62
253
  6
CONTINUOUS
 10
-75.1188758013
 20
-19.0289046175
 11
-43.680631547
 21
-18.8016021935
  0
LINE
  5
5BF
100
AcDbEntity
  8
RACCORDO
100
AcDbLine
 62
253
  6
CONTINUOUS
 10
-78.3706571522
 20
-24.4215848002
 11
-78.3707548982
 21
-24.4134944957
  0
LINE
  5
5C0
100
AcDbEntity
  8
RACCORDO
100
AcDbLine
 62
253
  6
CONTINUOUS
 10
-78.3707548982
 20
-24.4134944957
 11
-78.3708626255
 21
-24.3965982127
  0
LINE
  5
5C1
100
AcDbEntity
  8
RACCORDO
100
AcDbLine
 62
253
  6
CONTINUOUS
 10
-78.3703302342
 20
24.2936982541
 11
-78.370921378
 21
24.45102284
  0
LINE
  5
5C2
100
AcDbEntity
  8
RACCORDO
100
AcDbLine
 62
7
  6
CONTINUOUS
 10
-78.6188758013
 20
-24.18011305
 11
-78.6188758013
 21
-23.7875449653
  0
LINE
  5
5C3
100
AcDbEntity
  8
RACCORDO
100
AcDbLine
 62
7
  6
CONTINUOUS
 10
-78.6188758013
 20
23.9011301693
 11
-78.6188758013
 21
24.2936982541
  0
LINE
  5
5C4
100
AcDbEntity
  8
RACCORDO
100
AcDbLine
 62
253
  6
CONTINUOUS
 10
-78.3703302342
 20
-24.18011305
 11
-78.3703302342
 21
-23.7875449653
  0
LINE
  5
5C5
100
AcDbEntity
  8
RACCORDO
100
AcDbLine
 62
253
  6
CONTINUOUS
 10
-78.3703302342
 20
23.9011301693
 11
-78.3703302342
 21
24.2936982541
  0
LINE
  5
5C6
100
AcDbEntity
  8
RACCORDO
100
AcDbLine
 62
253
  6
CONTINUOUS
 10
-78.3708626255
 20
-24.3965982127
 11
-78.3709298065
 21
-24.3473556268
  0
LINE
  5
5C7
100
AcDbEntity
  8
RACCORDO
100
AcDbLine
 62
253
  6
CONTINUOUS
 10
-78.370921378
 20
24.45102284
 11
-78.3708877001
 21
24.5033594293
  0
LINE
  5
5C8
100
AcDbEntity
  8
RACCORDO
100
AcDbLine
 62
253
  6
CONTINUOUS
 10
-78.3709298065
 20
-24.3473556268
 11
-78.3704740077
 21
-24.2061902844
  0
LINE
  5
5C9
100
AcDbEntity
  8
RACCORDO
100
AcDbLine
 62
253
  6
CONTINUOUS
 10
-78.3704740077
 20
-24.2061902844
 11
-78.3703302342
 21
-24.18011305
  0
LINE
  5
5CA
100
AcDbEntity
  8
RACCORDO
100
AcDbLine
 62
253
  6
CONTINUOUS
 10
-78.3708877001
 20
24.5033594293
 11
-78.3707960363
 21
24.5220782298
  0
LWPOLYLINE
  5
5CB
100
AcDbEntity
  8
RACCORDO
100
AcDbPolyline
 62
253
  6
CONTINUOUS
 90
8
 70
0
 10
-78.3707960363
 20
24.5220782298
 10
-78.3707084721
 20
24.5314562678
 10
-78.370657092
 20
24.5351737991
 10
-78.3706008296
 20
24.5382294913
 10
-78.3705398393
 20
24.5406149693
 10
-78.3704742882
 20
24.5423236949
 10
-78.3704043559
 20
24.5433509847
 10
-78.3703302342
 20
24.5436940233
  0
LINE
  5
5CC
100
AcDbEntity
  8
CURVE
100
AcDbLine
 62
7
  6
CONTINUOUS
 10
-72.5188768013
 20
14.8824376331
 11
-72.2639838894
 21
15.137330545
  0
LINE
  5
5CD
100
AcDbEntity
  8
CURVE
100
AcDbLine
 62
7
  6
CONTINUOUS
 10
-72.5188768013
 20
14.4624162051
 11
-71.6201658315
 21
15.3611271749
  0
LINE
  5
5CE
100
AcDbEntity
  8
CURVE
100
AcDbLine
 62
7
  6
CONTINUOUS
 10
-72.3225672264
 20
14.238704352
 11
-71.9150644895
 21
14.6462070889
  0
LINE
  5
5CF
100
AcDbEntity
  8
CURVE
100
AcDbLine
 62
7
  6
CONTINUOUS
 10
-71.8665281892
 20
14.6947433891
 11
-70.9763477735
 21
15.5849238049
  0
LINE
  5
5D0
100
AcDbEntity
  8
CURVE
100
AcDbLine
 62
7
  6
CONTINUOUS
 10
-72.0140755135
 20
14.1271746369
 11
-71.602598033
 21
14.5386521174
  0
LINE
  5
5D1
100
AcDbEntity
  8
CURVE
100
AcDbLine
 62
7
  6
CONTINUOUS
 10
-71.2476062243
 20
14.8936439261
 11
-70.3325297156
 21
15.8087204348
  0
LINE
  5
5D2
100
AcDbEntity
  8
CURVE
100
AcDbLine
 62
7
  6
CONTINUOUS
 10
-71.7055838006
 20
14.0156449218
 11
-71.2901315765
 21
14.4310971458
  0
LINE
  5
5D3
100
AcDbEntity
  8
CURVE
100
AcDbLine
 62
7
  6
CONTINUOUS
 10
-70.7154478013
 20
15.005780921
 11
-69.6887116576
 21
16.0325170647
  0
LINE
  5
5D4
100
AcDbEntity
  8
CURVE
100
AcDbLine
 62
7
  6
CONTINUOUS
 10
-72.5188768013
 20
12.782330493
 11
-72.3332166923
 21
12.967990602
  0
LINE
  5
5D5
100
AcDbEntity
  8
CURVE
100
AcDbLine
 62
7
  6
CONTINUOUS
 10
-71.3970920877
 20
13.9041152066
 11
-70.97766512
 21
14.3235421743
  0
LINE
  5
5D6
100
AcDbEntity
  8
CURVE
100
AcDbLine
 62
7
  6
CONTINUOUS
 10
-70.7154478013
 20
14.585759493
 11
-70.2335148013
 21
15.067692493
  0
LINE
  5
5D7
100
AcDbEntity
  8
CURVE
100
AcDbLine
 62
7
  6
CONTINUOUS
 10
-70.0006527775
 20
15.3005545168
 11
-69.6188758013
 21
15.682331493
  0
LINE
  5
5D8
100
AcDbEntity
  8
CURVE
100
AcDbLine
 62
7
  6
CONTINUOUS
 10
-72.4956392643
 20
12.385546602
 11
-71.9131952643
 21
12.967990602
  0
LINE
  5
5D9
100
AcDbEntity
  8
CURVE
100
AcDbLine
 62
7
  6
CONTINUOUS
 10
-71.0886003748
 20
13.7925854915
 11
-70.2335148013
 21
14.647671065
  0
LINE
  5
5DA
100
AcDbEntity
  8
CURVE
100
AcDbLine
 62
253
  6
CONTINUOUS
 10
-69.6188758013
 20
16.056792602
 11
-72.5188768013
 21
15.048727602
  0
LINE
  5
5DB
100
AcDbEntity
  8
CURVE
100
AcDbLine
 62
253
  6
CONTINUOUS
 10
-70.2335148013
 20
15.221376602
 11
-69.6188758013
 21
15.430366602
  0
LINE
  5
5DC
100
AcDbEntity
  8
CURVE
100
AcDbLine
 62
253
  6
CONTINUOUS
 10
-71.9645528013
 20
14.663241602
 11
-70.7154478013
 21
15.064661602
  0
LINE
  5
5DD
100
AcDbEntity
  8
RACCORDO
100
AcDbLine
 62
253
  6
CONTINUOUS
 10
-75.1188758013
 20
-17.6149064467
 11
-40.1014233949
 21
-17.3617259017
  0
LINE
  5
5DE
100
AcDbEntity
  8
ASSI
100
AcDbLine
 62
253
  6
CONTINUOUS
 10
-75.1188758013
 20
-17.6149064467
 11
-40.1014233949
 21
-17.3617259017
  0
LINE
  5
5DF
100
AcDbEntity
  8
RACCORDO
100
AcDbLine
 62
253
  6
CONTINUOUS
 10
-39.1188758013
 20
-17.3617259017
 11
-40.1014233949
 21
-17.3617258986
  0
LINE
  5
5E0
100
AcDbEntity
  8
ASSI
100
AcDbLine
 62
253
  6
CONTINUOUS
 10
-39.1188758013
 20
-17.3617259017
 11
-40.1014233949
 21
-17.3617258986
  0
LINE
  5
5E1
100
AcDbEntity
  8
CURVE
100
AcDbLine
 62
253
  6
CONTINUOUS
 10
-70.5306118013
 20
-14.733228398
 11
-72.5265328013
 21
-14.163617398
  0
LINE
  5
5E2
100
AcDbEntity
  8
CURVE
100
AcDbLine
 62
253
  6
CONTINUOUS
 10
-72.5265328013
 20
-13.558759398
 11
-69.6268798013
 21
-14.490824398
  0
LWPOLYLINE
  5
5E3
100
AcDbEntity
  8
RACCORDO
100
AcDbPolyline
 62
7
  6
CONTINUOUS
 90
10
 70
0
 10
-76.1214967344
 20
-22.2989097556
 10
-76.1213346503
 20
-22.3073494616
 10
-76.121147991
 20
-22.3149442037
 10
-76.1209359637
 20
-22.3216684745
 10
-76.1207042972
 20
-22.327510088
 10
-76.120448855
 20
-22.3324483641
 10
-76.1201540028
 20
-22.3364584231
 10
-76.1198149952
 20
-22.3395347019
 10
-76.1194380198
 20
-22.3416811377
 10
-76.1190237742
 20
-22.3428985966
  0
LINE
  5
5E4
100
AcDbEntity
  8
RACCORDO
100
AcDbLine
 62
7
  6
CONTINUOUS
 10
-76.1208540642
 20
22.1966639454
 11
-76.1194445179
 21
22.0997021386
  0
LINE
  5
5E5
100
AcDbEntity
  8
RACCORDO
100
AcDbLine
 62
7
  6
CONTINUOUS
 10
-76.1217436115
 20
-22.2796135216
 11
-76.1214967344
 21
-22.2989097556
  0
LINE
  5
5E6
100
AcDbEntity
  8
RACCORDO
100
AcDbLine
 62
7
  6
CONTINUOUS
 10
-76.1215841548
 20
22.2681372362
 11
-76.1208540642
 21
22.1966639454
  0
LINE
  5
5E7
100
AcDbEntity
  8
RACCORDO
100
AcDbLine
 62
7
  6
CONTINUOUS
 10
-76.121889698
 20
-22.2570881918
 11
-76.1217436115
 21
-22.2796135216
  0
LINE
  5
5E8
100
AcDbEntity
  8
RACCORDO
100
AcDbLine
 62
7
  6
CONTINUOUS
 10
-76.1219154742
 20
22.331003679
 11
-76.1215841548
 21
22.2681372362
  0
LINE
  5
5E9
100
AcDbEntity
  8
RACCORDO
100
AcDbLine
 62
7
  6
CONTINUOUS
 10
-77.6188758013
 20
-23.0658571288
 11
-77.6188758013
 21
-22.264595729
  0
LINE
  5
5EA
100
AcDbEntity
  8
RACCORDO
100
AcDbLine
 62
7
  6
CONTINUOUS
 10
-77.6188758013
 20
22.3781809331
 11
-77.6188758013
 21
23.1794423329
  0
LINE
  5
5EB
100
AcDbEntity
  8
RACCORDO
100
AcDbLine
 62
253
  6
CONTINUOUS
 10
-77.3703302342
 20
-23.2101946961
 11
-77.3703302342
 21
-22.2766183594
  0
LINE
  5
5EC
100
AcDbEntity
  8
RACCORDO
100
AcDbLine
 62
253
  6
CONTINUOUS
 10
-77.3703302342
 20
22.3902035635
 11
-77.3703302342
 21
23.3237799001
  0
LINE
  5
5ED
100
AcDbEntity
  8
RACCORDO
100
AcDbLine
 62
7
  6
CONTINUOUS
 10
-76.1188758013
 20
-22.3428973659
 11
-76.1188758013
 21
-24.443207398
  0
LINE
  5
5EE
100
AcDbEntity
  8
RACCORDO
100
AcDbLine
 62
7
  6
CONTINUOUS
 10
-76.1188758013
 20
22.45648257
 11
-76.1188758013
 21
24.556792602
  0
LINE
  5
5EF
100
AcDbEntity
  8
RACCORDO
100
AcDbLine
 62
7
  6
CONTINUOUS
 10
-76.1219154742
 20
-22.2174184749
 11
-76.121889698
 21
-22.2570881918
  0
LINE
  5
5F0
100
AcDbEntity
  8
RACCORDO
100
AcDbLine
 62
7
  6
CONTINUOUS
 10
-76.121889698
 20
22.3706733959
 11
-76.1219154742
 21
22.331003679
  0
LINE
  5
5F1
100
AcDbEntity
  8
RACCORDO
100
AcDbLine
 62
7
  6
CONTINUOUS
 10
-76.1215841548
 20
-22.1545520321
 11
-76.1219154742
 21
-22.2174184749
  0
LINE
  5
5F2
100
AcDbEntity
  8
RACCORDO
100
AcDbLine
 62
7
  6
CONTINUOUS
 10
-76.1217436115
 20
22.3931987257
 11
-76.121889698
 21
22.3706733959
  0
LINE
  5
5F3
100
AcDbEntity
  8
RACCORDO
100
AcDbLine
 62
7
  6
CONTINUOUS
 10
-76.1206144387
 20
-22.0642440351
 11
-76.1215841548
 21
-22.1545520321
  0
LINE
  5
5F4
100
AcDbEntity
  8
RACCORDO
100
AcDbLine
 62
7
  6
CONTINUOUS
 10
-76.1194445179
 20
-21.9861169345
 11
-76.1206144387
 21
-22.0642440351
  0
LINE
  5
5F5
100
AcDbEntity
  8
CURVE
100
AcDbLine
 62
253
  6
CONTINUOUS
 10
-68.0736376522
 20
15.6007924571
 11
-67.8474472461
 21
15.9047923121
  0
LINE
  5
5F6
100
AcDbEntity
  8
CURVE
100
AcDbLine
 62
253
  6
CONTINUOUS
 10
-67.1688758013
 20
15.752792892
 11
-66.8974472461
 21
16.056792747
  0
LINE
  5
5F7
100
AcDbEntity
  8
CURVE
100
AcDbLine
 62
7
  6
CONTINUOUS
 10
-72.0756178362
 20
12.385546602
 11
-71.4931738362
 21
12.967990602
  0
LINE
  5
5F8
100
AcDbEntity
  8
CURVE
100
AcDbLine
 62
7
  6
CONTINUOUS
 10
-70.7801086619
 20
13.6810557763
 11
-70.2335148013
 21
14.2276496369
  0
LINE
  5
5F9
100
AcDbEntity
  8
CURVE
100
AcDbLine
 62
7
  6
CONTINUOUS
 10
-71.6555964082
 20
12.385546602
 11
-71.0731524082
 21
12.967990602
  0
LINE
  5
5FA
100
AcDbEntity
  8
CURVE
100
AcDbLine
 62
7
  6
CONTINUOUS
 10
-70.471616949
 20
13.5695260612
 11
-70.0376435814
 21
14.0034994289
  0
LINE
  5
5FB
100
AcDbEntity
  8
CURVE
100
AcDbLine
 62
7
  6
CONTINUOUS
 10
-72.5188768013
 20
11.1022447809
 11
-72.1879969159
 21
11.4331246663
  0
LINE
  5
5FC
100
AcDbEntity
  8
CURVE
100
AcDbLine
 62
7
  6
CONTINUOUS
 10
-71.2355749802
 20
12.385546602
 11
-70.6531309802
 21
12.967990602
  0
LINE
  5
5FD
100
AcDbEntity
  8
CURVE
100
AcDbLine
 62
7
  6
CONTINUOUS
 10
-70.1631252362
 20
13.4579963461
 11
-69.7272025132
 21
13.893919069
  0
LINE
  5
5FE
100
AcDbEntity
  8
CURVE
100
AcDbLine
 62
7
  6
CONTINUOUS
 10
-72.5188768013
 20
10.6822233529
 11
-71.3737768077
 21
11.8273233465
  0
LINE
  5
5FF
100
AcDbEntity
  8
CURVE
100
AcDbLine
 62
7
  6
CONTINUOUS
 10
-70.8155535522
 20
12.385546602
 11
-70.2331095522
 21
12.967990602
  0
LINE
  5
600
100
AcDbEntity
  8
CURVE
100
AcDbLine
 62
7
  6
CONTINUOUS
 10
-69.8546335233
 20
13.3464666309
 11
-69.6188758013
 21
13.5822243529
  0
LINE
  5
601
100
AcDbEntity
  8
CURVE
100
AcDbLine
 62
7
  6
CONTINUOUS
 10
-72.4319611241
 20
10.349117602
 11
-71.8495161241
 21
10.931562602
  0
LINE
  5
602
100
AcDbEntity
  8
CURVE
100
AcDbLine
 62
7
  6
CONTINUOUS
 10
-71.6717921693
 20
11.1092865569
 11
-70.5595566995
 21
12.2215220267
  0
LINE
  5
603
100
AcDbEntity
  8
CURVE
100
AcDbLine
 62
7
  6
CONTINUOUS
 10
-70.3955321241
 20
12.385546602
 11
-69.8130881241
 21
12.967990602
  0
LINE
  5
604
100
AcDbEntity
  8
CURVE
100
AcDbLine
 62
7
  6
CONTINUOUS
 10
-72.0119396961
 20
10.349117602
 11
-71.4294946961
 21
10.931562602
  0
LINE
  5
605
100
AcDbEntity
  8
CURVE
100
AcDbLine
 62
7
  6
CONTINUOUS
 10
-70.8718131309
 20
11.4892441673
 11
-69.6188758013
 21
12.7421814968
  0
LINE
  5
606
100
AcDbEntity
  8
CURVE
100
AcDbLine
 62
7
  6
CONTINUOUS
 10
-71.5919182681
 20
10.349117602
 11
-71.0094732681
 21
10.931562602
  0
LINE
  5
607
100
AcDbEntity
  8
CURVE
100
AcDbLine
 62
7
  6
CONTINUOUS
 10
-70.0718340925
 20
11.8692017776
 11
-69.6188758013
 21
12.3221600688
  0
LINE
  5
608
100
AcDbEntity
  8
CURVE
100
AcDbLine
 62
7
  6
CONTINUOUS
 10
-72.5188768013
 20
9.0021376408
 11
-72.4858349802
 21
9.0351794618
  0
LINE
  5
609
100
AcDbEntity
  8
CURVE
100
AcDbLine
 62
7
  6
CONTINUOUS
 10
-71.1718968401
 20
10.349117602
 11
-70.5894518401
 21
10.931562602
  0
LINE
  5
60A
100
AcDbEntity
  8
CURVE
100
AcDbLine
 62
253
  6
CONTINUOUS
 10
-72.5188768013
 20
11.272931602
 11
-70.2207628013
 21
12.385546602
  0
LINE
  5
60B
100
AcDbEntity
  8
CURVE
100
AcDbLine
 62
253
  6
CONTINUOUS
 10
-69.6188758013
 20
12.084338602
 11
-72.0459798013
 21
10.931562602
  0
LINE
  5
60C
100
AcDbEntity
  8
CURVE
100
AcDbLine
 62
253
  6
CONTINUOUS
 10
-68.1188758013
 20
13.7767923121
 11
-66.2188758013
 21
14.3847930369
  0
LINE
  5
60D
100
AcDbEntity
  8
CURVE
100
AcDbLine
 62
253
  6
CONTINUOUS
 10
-72.5267068013
 20
-13.334142398
 11
-69.6268798013
 21
-13.334142398
  0
LWPOLYLINE
  5
60E
100
AcDbEntity
  8
RACCORDO
100
AcDbPolyline
 62
253
  6
CONTINUOUS
 90
6
 70
0
 10
-75.3670945107
 20
24.5439005438
 10
-75.367150773
 20
24.5469562361
 10
-75.3672117633
 20
24.549341714
 10
-75.3672773145
 20
24.5510504396
 10
-75.3673472467
 20
24.5520777295
 10
-75.3674213685
 20
24.552420768
  0
LWPOLYLINE
  5
60F
100
AcDbEntity
  8
RACCORDO
100
AcDbPolyline
 62
7
  6
CONTINUOUS
 90
3
 70
0
 10
-76.1194445179
 20
22.0997021386
 10
-76.1191033584
 20
22.0796131418
 10
-76.1166894723
 20
21.9566783306
  0
LINE
  5
610
100
AcDbEntity
  8
RACCORDO
100
AcDbLine
 62
253
  6
CONTINUOUS
 10
-75.3669967734
 20
24.535813831
 11
-75.3670945107
 21
24.5439005438
  0
LINE
  5
611
100
AcDbEntity
  8
RACCORDO
100
AcDbLine
 62
253
  6
CONTINUOUS
 10
-75.3668890397
 20
24.5189248654
 11
-75.3669967734
 21
24.535813831
  0
LINE
  5
612
100
AcDbEntity
  8
RACCORDO
100
AcDbLine
 62
253
  6
CONTINUOUS
 10
-75.366830192
 20
-24.346193906
 11
-75.3674213685
 21
-24.1888397947
  0
LINE
  5
613
100
AcDbEntity
  8
RACCORDO
100
AcDbLine
 62
253
  6
CONTINUOUS
 10
-75.3674213685
 20
24.3024249988
 11
-75.3674213685
 21
23.9011301693
  0
LINE
  5
614
100
AcDbEntity
  8
RACCORDO
100
AcDbLine
 62
253
  6
CONTINUOUS
 10
-75.3674213685
 20
-23.7875449653
 11
-75.3674213685
 21
-24.1888397947
  0
LINE
  5
615
100
AcDbEntity
  8
ASSI
100
AcDbLine
 62
7
  6
CONTINUOUS
 10
-75.1188758013
 20
17.7284916508
 11
-75.1188758013
 21
-17.6149064467
  0
LINE
  5
616
100
AcDbEntity
  8
RACCORDO
100
AcDbLine
 62
7
  6
CONTINUOUS
 10
-75.1188758013
 20
22.4480657343
 11
-75.1188758013
 21
-22.3344805302
  0
LINE
  5
617
100
AcDbEntity
  8
RACCORDO
100
AcDbLine
 62
7
  6
CONTINUOUS
 10
-75.1188758013
 20
-23.7373895681
 11
-75.1188758013
 21
-24.1888397947
  0
LINE
  5
618
100
AcDbEntity
  8
RACCORDO
100
AcDbLine
 62
7
  6
CONTINUOUS
 10
-75.1188758013
 20
23.8509747722
 11
-75.1188758013
 21
24.3024249988
  0
LINE
  5
619
100
AcDbEntity
  8
RACCORDO
100
AcDbLine
 62
253
  6
CONTINUOUS
 10
-75.3668217762
 20
24.4697018851
 11
-75.3668890397
 21
24.5189248654
  0
LINE
  5
61A
100
AcDbEntity
  8
RACCORDO
100
AcDbLine
 62
253
  6
CONTINUOUS
 10
-75.366863995
 20
-24.3985303936
 11
-75.366830192
 21
-24.346193906
  0
LINE
  5
61B
100
AcDbEntity
  8
RACCORDO
100
AcDbLine
 62
253
  6
CONTINUOUS
 10
-75.3672773145
 20
24.3285561114
 11
-75.3668217762
 21
24.4697018851
  0
LINE
  5
61C
100
AcDbEntity
  8
RACCORDO
100
AcDbLine
 62
253
  6
CONTINUOUS
 10
-75.3674213685
 20
24.3024249988
 11
-75.3672773145
 21
24.3285561114
  0
LINE
  5
61D
100
AcDbEntity
  8
RACCORDO
100
AcDbLine
 62
253
  6
CONTINUOUS
 10
-75.3669557466
 20
-24.4172446256
 11
-75.366863995
 21
-24.3985303936
  0
LWPOLYLINE
  5
61E
100
AcDbEntity
  8
RACCORDO
100
AcDbPolyline
 62
7
  6
CONTINUOUS
 90
3
 70
0
 10
-76.1166894723
 20
-21.8430931265
 10
-76.1171332767
 20
-21.8636950408
 10
-76.1194445179
 20
-21.9861169345
  0
LINE
  5
61F
100
AcDbEntity
  8
CURVE
100
AcDbLine
 62
7
  6
CONTINUOUS
 10
-72.5188768013
 20
8.5821162127
 11
-71.8419798279
 21
9.2590131862
  0
LINE
  5
620
100
AcDbEntity
  8
CURVE
100
AcDbLine
 62
7
  6
CONTINUOUS
 10
-70.751875412
 20
10.349117602
 11
-70.169430412
 21
10.931562602
  0
LINE
  5
621
100
AcDbEntity
  8
CURVE
100
AcDbLine
 62
7
  6
CONTINUOUS
 10
-72.4288677715
 20
8.2521038145
 11
-71.1981246756
 21
9.4828469105
  0
LINE
  5
622
100
AcDbEntity
  8
CURVE
100
AcDbLine
 62
7
  6
CONTINUOUS
 10
-70.331853984
 20
10.349117602
 11
-69.749408984
 21
10.931562602
  0
LINE
  5
623
100
AcDbEntity
  8
CURVE
100
AcDbLine
 62
7
  6
CONTINUOUS
 10
-72.1203675422
 20
8.1405826158
 11
-71.7102703929
 21
8.5506797651
  0
LINE
  5
624
100
AcDbEntity
  8
CURVE
100
AcDbLine
 62
7
  6
CONTINUOUS
 10
-71.4607190488
 20
8.8002311092
 11
-70.5542695232
 21
9.7066806348
  0
LINE
  5
625
100
AcDbEntity
  8
CURVE
100
AcDbLine
 62
7
  6
CONTINUOUS
 10
-69.911832556
 20
10.349117602
 11
-69.6188758013
 21
10.6420743567
  0
LINE
  5
626
100
AcDbEntity
  8
CURVE
100
AcDbLine
 62
7
  6
CONTINUOUS
 10
-71.8118673129
 20
8.0290614171
 11
-71.3978040385
 21
8.4431246915
  0
LINE
  5
627
100
AcDbEntity
  8
CURVE
100
AcDbLine
 62
7
  6
CONTINUOUS
 10
-70.8417975979
 20
8.9991311321
 11
-69.9104143709
 21
9.9305143591
  0
LINE
  5
628
100
AcDbEntity
  8
CURVE
100
AcDbLine
 62
7
  6
CONTINUOUS
 10
-71.5033670837
 20
7.9175402183
 11
-71.0853376842
 21
8.3355696178
  0
LINE
  5
629
100
AcDbEntity
  8
CURVE
100
AcDbLine
 62
7
  6
CONTINUOUS
 10
-70.7154478013
 20
8.7054595006
 11
-70.2335148013
 21
9.1873925006
  0
LINE
  5
62A
100
AcDbEntity
  8
CURVE
100
AcDbLine
 62
7
  6
CONTINUOUS
 10
-70.2199587401
 20
9.2009485619
 11
-69.6188758013
 21
9.8020315006
  0
LINE
  5
62B
100
AcDbEntity
  8
CURVE
100
AcDbLine
 62
7
  6
CONTINUOUS
 10
-71.1948668544
 20
7.8060190196
 11
-70.7728713299
 21
8.2280145441
  0
LINE
  5
62C
100
AcDbEntity
  8
CURVE
100
AcDbLine
 62
7
  6
CONTINUOUS
 10
-70.7154478013
 20
8.2854380726
 11
-70.2335148013
 21
8.7673710726
  0
LINE
  5
62D
100
AcDbEntity
  8
CURVE
100
AcDbLine
 62
7
  6
CONTINUOUS
 10
-70.8863666251
 20
7.6944978208
 11
-70.2335148013
 21
8.3473496446
  0
LINE
  5
62E
100
AcDbEntity
  8
CURVE
100
AcDbLine
 62
7
  6
CONTINUOUS
 10
-72.5188768013
 20
5.6419662166
 11
-72.3103114159
 21
5.850531602
  0
LINE
  5
62F
100
AcDbEntity
  8
CURVE
100
AcDbLine
 62
7
  6
CONTINUOUS
 10
-70.5778663958
 20
7.5829766221
 11
-70.1446059461
 21
8.0162370718
  0
LINE
  5
630
100
AcDbEntity
  8
CURVE
100
AcDbLine
 62
253
  6
CONTINUOUS
 10
-66.5355424774
 20
12.4087924571
 11
-66.4450662782
 21
12.4594594378
  0
LINE
  5
631
100
AcDbEntity
  8
CURVE
100
AcDbLine
 62
253
  6
CONTINUOUS
 10
-66.3093519935
 20
12.3074595103
 11
-66.3998281857
 21
12.2567925296
  0
LINE
  5
632
100
AcDbEntity
  8
CURVE
100
AcDbLine
 62
253
  6
CONTINUOUS
 10
-67.8474472461
 20
9.976792602
 11
-67.5760186908
 21
10.1287925296
  0
LINE
  5
633
100
AcDbEntity
  8
CURVE
100
AcDbLine
 62
253
  6
CONTINUOUS
 10
-69.6188758013
 20
10.031866602
 11
-72.5188768013
 21
9.023692602
  0
LINE
  5
634
100
AcDbEntity
  8
CURVE
100
AcDbLine
 62
253
  6
CONTINUOUS
 10
-70.2335148013
 20
9.196341602
 11
-69.6188758013
 21
9.405223602
  0
LINE
  5
635
100
AcDbEntity
  8
CURVE
100
AcDbLine
 62
253
  6
CONTINUOUS
 10
-71.9647168013
 20
8.638263602
 11
-70.7154478013
 21
9.039735602
  0
LINE
  5
636
100
AcDbEntity
  8
CURVE
100
AcDbLine
 62
253
  6
CONTINUOUS
 10
-56.4217239019
 20
13.6115539164
 11
-55.1219218982
 21
13.9829835505
  0
LINE
  5
637
100
AcDbEntity
  8
CURVE
100
AcDbLine
 62
253
  6
CONTINUOUS
 10
-72.5265328013
 20
-15.285955398
 11
-70.5306118013
 21
-14.733228398
  0
LINE
  5
638
100
AcDbEntity
  8
CURVE
100
AcDbLine
 62
253
  6
CONTINUOUS
 10
-69.6268798013
 20
-12.728871398
 11
-72.5267068013
 21
-12.728871398
  0
LINE
  5
639
100
AcDbEntity
  8
CURVE
100
AcDbLine
 62
253
  6
CONTINUOUS
 10
-71.5202988013
 20
-11.693369398
 11
-69.6268798013
 21
-11.823986398
  0
LINE
  5
63A
100
AcDbEntity
  8
CURVE
100
AcDbLine
 62
253
  6
CONTINUOUS
 10
-69.6268798013
 20
-12.403034398
 11
-72.5265328013
 21
-12.141212398
  0
LINE
  5
63B
100
AcDbEntity
  8
CURVE
100
AcDbLine
 62
253
  6
CONTINUOUS
 10
-69.6268798013
 20
-9.367240398
 11
-72.5265328013
 21
-8.457724398
  0
LINE
  5
63C
100
AcDbEntity
  8
CURVE
100
AcDbLine
 62
253
  6
CONTINUOUS
 10
-70.9166368013
 20
-10.937562398
 11
-72.5265328013
 21
-10.332291398
  0
LINE
  5
63D
100
AcDbEntity
  8
CURVE
100
AcDbLine
 62
253
  6
CONTINUOUS
 10
-71.5124058013
 20
-10.178755398
 11
-69.6268798013
 21
-10.898423398
  0
LINE
  5
63E
100
AcDbEntity
  8
CURVE
100
AcDbLine
 62
253
  6
CONTINUOUS
 10
-72.5267068013
 20
-12.728871398
 11
-72.5267068013
 21
-13.334142398
  0
LINE
  5
63F
100
AcDbEntity
  8
CURVE
100
AcDbLine
 62
253
  6
CONTINUOUS
 10
-72.5265328013
 20
-15.943467398
 11
-72.5265328013
 21
-15.285955398
  0
LINE
  5
640
100
AcDbEntity
  8
CURVE
100
AcDbLine
 62
253
  6
CONTINUOUS
 10
-72.5265328013
 20
-14.163617398
 11
-72.5265328013
 21
-13.558759398
  0
LINE
  5
641
100
AcDbEntity
  8
CURVE
100
AcDbLine
 62
253
  6
CONTINUOUS
 10
-72.5265328013
 20
-12.141212398
 11
-72.5265328013
 21
-11.536441398
  0
LINE
  5
642
100
AcDbEntity
  8
CURVE
100
AcDbLine
 62
253
  6
CONTINUOUS
 10
-72.5265328013
 20
-10.332291398
 11
-72.5265328013
 21
-9.733434398
  0
LINE
  5
643
100
AcDbEntity
  8
CURVE
100
AcDbLine
 62
253
  6
CONTINUOUS
 10
-72.5265328013
 20
-8.457724398
 11
-72.5265328013
 21
-7.872197398
  0
LINE
  5
644
100
AcDbEntity
  8
CURVE
100
AcDbLine
 62
253
  6
CONTINUOUS
 10
-72.5188768013
 20
15.048727602
 11
-72.5188768013
 21
14.309676602
  0
LINE
  5
645
100
AcDbEntity
  8
CURVE
100
AcDbLine
 62
253
  6
CONTINUOUS
 10
-72.5188768013
 20
9.023692602
 11
-72.5188768013
 21
8.284641602
  0
LINE
  5
646
100
AcDbEntity
  8
CURVE
100
AcDbLine
 62
253
  6
CONTINUOUS
 10
-72.5188768013
 20
3.645012602
 11
-72.5188768013
 21
2.757582602
  0
LINE
  5
647
100
AcDbEntity
  8
CURVE
100
AcDbLine
 62
253
  6
CONTINUOUS
 10
-72.5188768013
 20
5.227925602
 11
-72.5188768013
 21
5.850531602
  0
LINE
  5
648
100
AcDbEntity
  8
CURVE
100
AcDbLine
 62
253
  6
CONTINUOUS
 10
-72.5188768013
 20
10.349117602
 11
-72.5188768013
 21
11.272931602
  0
LINE
  5
649
100
AcDbEntity
  8
CURVE
100
AcDbLine
 62
253
  6
CONTINUOUS
 10
-72.5188768013
 20
12.385546602
 11
-72.5188768013
 21
12.967990602
  0
LINE
  5
64A
100
AcDbEntity
  8
CURVE
100
AcDbLine
 62
253
  6
CONTINUOUS
 10
-72.0369438013
 20
3.380188602
 11
-72.0369438013
 21
3.743404602
  0
LINE
  5
64B
100
AcDbEntity
  8
CURVE
100
AcDbLine
 62
253
  6
CONTINUOUS
 10
-71.2365367025
 20
-5.8761020737
 11
-71.2365367025
 21
-6.2220086698
  0
LINE
  5
64C
100
AcDbEntity
  8
CURVE
100
AcDbLine
 62
253
  6
CONTINUOUS
 10
-71.2175708013
 20
3.380188602
 11
-71.2175708013
 21
3.743404602
  0
LINE
  5
64D
100
AcDbEntity
  8
CURVE
100
AcDbLine
 62
253
  6
CONTINUOUS
 10
-72.5161347466
 20
3.7153545055
 11
-72.5188766606
 21
3.6450126595
  0
LINE
  5
64E
100
AcDbEntity
  8
CURVE
100
AcDbLine
 62
253
  6
CONTINUOUS
 10
-72.5131961001
 20
3.7823175597
 11
-72.5161347466
 21
3.7153545055
  0
LINE
  5
64F
100
AcDbEntity
  8
CURVE
100
AcDbLine
 62
253
  6
CONTINUOUS
 10
-72.5109477331
 20
3.8282819468
 11
-72.5131961001
 21
3.7823175597
  0
LINE
  5
650
100
AcDbEntity
  8
CURVE
100
AcDbLine
 62
253
  6
CONTINUOUS
 10
-72.5084045463
 20
3.8751720487
 11
-72.5109477331
 21
3.8282819468
  0
LINE
  5
651
100
AcDbEntity
  8
CURVE
100
AcDbLine
 62
253
  6
CONTINUOUS
 10
-72.0366736166
 20
3.7455928483
 11
-72.0315544214
 21
3.7890105683
  0
LINE
  5
652
100
AcDbEntity
  8
CURVE
100
AcDbLine
 62
253
  6
CONTINUOUS
 10
-72.0369437289
 20
3.743404733
 11
-72.0366736166
 21
3.7455928483
  0
LINE
  5
653
100
AcDbEntity
  8
CURVE
100
AcDbLine
 62
253
  6
CONTINUOUS
 10
-72.0315544214
 20
3.7890105683
 11
-72.0287427462
 21
3.8116607134
  0
LWPOLYLINE
  5
654
100
AcDbEntity
  8
CURVE
100
AcDbPolyline
 62
253
  6
CONTINUOUS
 90
50
 70
0
 10
-72.0496172498
 20
-5.7478330889
 10
-72.0482552371
 20
-5.7372332274
 10
-72.0466556393
 20
-5.7268208555
 10
-72.0448214238
 20
-5.7165777394
 10
-72.0427555583
 20
-5.7064856453
 10
-72.0404610102
 20
-5.6965263396
 10
-72.0379407472
 20
-5.6866815884
 10
-72.0351977368
 20
-5.676933158
 10
-72.0317192108
 20
-5.6656637368
 10
-72.0279415831
 20
-5.6545096539
 10
-72.0238648967
 20
-5.643479962
 10
-72.0194891947
 20
-5.6325837143
 10
-72.01481452
 20
-5.6218299639
 10
-72.0098409157
 20
-5.6112277635
 10
-72.0045691727
 20
-5.6007871773
 10
-71.9990030734
 20
-5.5905223122
 10
-71.9931471481
 20
-5.5804482863
 10
-71.9870059271
 20
-5.5705802176
 10
-71.9805839405
 20
-5.5609332241
 10
-71.9738857187
 20
-5.5515224238
 10
-71.9669159762
 20
-5.5423619546
 10
-71.9596801652
 20
-5.5334620341
 10
-71.9521839221
 20
-5.5248318999
 10
-71.9444328833
 20
-5.5164807894
 10
-71.9364326853
 20
-5.5084179403
 10
-71.9281889645
 20
-5.50065259
 10
-71.9197084066
 20
-5.4931921616
 10
-71.9110018936
 20
-5.4860368205
 10
-71.902081357
 20
-5.4791849177
 10
-71.892958728
 20
-5.4726348042
 10
-71.8836459379
 20
-5.4663848309
 10
-71.8741549181
 20
-5.4604333488
 10
-71.8644982794
 20
-5.4547794952
 10
-71.8546913503
 20
-5.4494255524
 10
-71.8447501387
 20
-5.4443745889
 10
-71.8346906525
 20
-5.4396296734
 10
-71.8245288998
 20
-5.4351938744
 10
-71.8142808886
 20
-5.4310702607
 10
-71.8039613556
 20
-5.4272610655
 10
-71.793579954
 20
-5.4237651819
 10
-71.7831450657
 20
-5.4205806677
 10
-71.7726650726
 20
-5.4177055806
 10
-71.7621483567
 20
-5.4151379785
 10
-71.7516033
 20
-5.4128759192
 10
-71.7410322455
 20
-5.4109189075
 10
-71.730413381
 20
-5.4092722368
 10
-71.7197188552
 20
-5.4079426476
 10
-71.708920817
 20
-5.4069368802
 10
-71.6979914152
 20
-5.4062616752
 10
-71.6869027987
 20
-5.4059237729
  0
LWPOLYLINE
  5
655
100
AcDbEntity
  8
CURVE
100
AcDbPolyline
 62
253
  6
CONTINUOUS
 90
61
 70
0
 10
-72.0287427462
 20
3.8116607134
 10
-72.0266160979
 20
3.827990874
 10
-72.0250138849
 20
3.8398249563
 10
-72.0233221593
 20
3.8518781508
 10
-72.0215444273
 20
3.864051805
 10
-72.0196841946
 20
3.8762472665
 10
-72.0177449674
 20
3.888365883
 10
-72.016071131
 20
3.8983348563
 10
-72.0143469008
 20
3.9081248659
 10
-72.0125743058
 20
3.9176788213
 10
-72.0107553748
 20
3.9269396322
 10
-72.0088921368
 20
3.9358502079
 10
-72.0069866207
 20
3.944353458
 10
-72.0052630581
 20
3.9515136657
 10
-72.0035041182
 20
3.9583271328
 10
-72.0017060455
 20
3.9648119863
 10
-71.9998650845
 20
3.9709863531
 10
-71.9979774796
 20
3.9768683602
 10
-71.9960394753
 20
3.9824761347
 10
-71.994047316
 20
3.9878278035
 10
-71.9916496739
 20
3.9937719113
 10
-71.9891672456
 20
3.9994208887
 10
-71.9865940673
 20
4.0048035206
 10
-71.9839241753
 20
4.0099485921
 10
-71.9811516059
 20
4.0148848881
 10
-71.9782703956
 20
4.0196411936
 10
-71.9737318328
 20
4.0265011368
 10
-71.968915282
 20
4.0331180171
 10
-71.9638006161
 20
4.0395889836
 10
-71.9583677074
 20
4.0460111858
 10
-71.951926535
 20
4.0531968935
 10
-71.9450927778
 20
4.0604054063
 10
-71.937893609
 20
4.0675995064
 10
-71.9303562017
 20
4.0747419759
 10
-71.9225077291
 20
4.0817955969
 10
-71.9143753642
 20
4.0887231517
 10
-71.9059862803
 20
4.0954874223
 10
-71.8973676505
 20
4.1020511909
 10
-71.8885466478
 20
4.1083772397
 10
-71.8795504456
 20
4.1144283507
 10
-71.8704062167
 20
4.1201673061
 10
-71.8603929954
 20
4.1259805857
 10
-71.8502462079
 20
4.1313985873
 10
-71.839973197
 20
4.1364333842
 10
-71.8295813054
 20
4.1410970495
 10
-71.8190778756
 20
4.1454016563
 10
-71.8084702503
 20
4.1493592781
 10
-71.7977657722
 20
4.1529819878
 10
-71.7869717839
 20
4.1562818587
 10
-71.7760956281
 20
4.1592709641
 10
-71.7651446474
 20
4.1619613771
 10
-71.7541261845
 20
4.1643651709
 10
-71.7430475819
 20
4.1664944188
 10
-71.7287291345
 20
4.1688481379
 10
-71.7143377243
 20
4.1707963619
 10
-71.6998876376
 20
4.1723673441
 10
-71.6853931609
 20
4.1735893377
 10
-71.6708685808
 20
4.1744905956
 10
-71.6563281835
 20
4.1750993712
 10
-71.6417862556
 20
4.1754439176
 10
-71.6272570836
 20
4.1755524879
  0
LINE
  5
656
100
AcDbEntity
  8
CURVE
100
AcDbLine
 62
253
  6
CONTINUOUS
 10
-68.1188758013
 20
15.4487930369
 11
-68.0736376522
 21
15.6007924571
  0
LINE
  5
657
100
AcDbEntity
  8
CURVE
100
AcDbLine
 62
253
  6
CONTINUOUS
 10
-68.1188758013
 20
9.672792747
 11
-67.8474472461
 21
9.976792602
  0
LINE
  5
658
100
AcDbEntity
  8
CURVE
100
AcDbLine
 62
253
  6
CONTINUOUS
 10
-66.2188758013
 20
9.5207928195
 11
-66.4903043849
 21
9.2167924571
  0
LINE
  5
659
100
AcDbEntity
  8
CURVE
100
AcDbLine
 62
253
  6
CONTINUOUS
 10
-67.0331615237
 20
8.4567925658
 11
-67.3045901356
 21
8.1527927108
  0
LINE
  5
65A
100
AcDbEntity
  8
CURVE
100
AcDbLine
 62
7
  6
CONTINUOUS
 10
-72.5128959878
 20
5.227925602
 11
-71.8902899878
 21
5.850531602
  0
LINE
  5
65B
100
AcDbEntity
  8
CURVE
100
AcDbLine
 62
7
  6
CONTINUOUS
 10
-70.2693661665
 20
7.4714554234
 11
-69.8341241821
 21
7.9066974077
  0
LINE
  5
65C
100
AcDbEntity
  8
CURVE
100
AcDbLine
 62
7
  6
CONTINUOUS
 10
-72.0928745598
 20
5.227925602
 11
-71.4702685598
 21
5.850531602
  0
LINE
  5
65D
100
AcDbEntity
  8
CURVE
100
AcDbLine
 62
7
  6
CONTINUOUS
 10
-69.9608659372
 20
7.3599342246
 11
-69.6188758013
 21
7.7019243605
  0
LINE
  5
65E
100
AcDbEntity
  8
CURVE
100
AcDbLine
 62
7
  6
CONTINUOUS
 10
-71.6728531318
 20
5.227925602
 11
-71.0502471318
 21
5.850531602
  0
LINE
  5
65F
100
AcDbEntity
  8
CURVE
100
AcDbLine
 62
7
  6
CONTINUOUS
 10
-70.1008088013
 20
6.7999699325
 11
-69.9772481318
 21
6.923530602
  0
LINE
  5
660
100
AcDbEntity
  8
CURVE
100
AcDbLine
 62
7
  6
CONTINUOUS
 10
-69.6523657079
 20
7.2484130259
 11
-69.6188758013
 21
7.2819029325
  0
LINE
  5
661
100
AcDbEntity
  8
CURVE
100
AcDbLine
 62
7
  6
CONTINUOUS
 10
-72.5011755421
 20
3.9795817637
 11
-71.642915477
 21
4.8378418288
  0
LINE
  5
662
100
AcDbEntity
  8
CURVE
100
AcDbLine
 62
7
  6
CONTINUOUS
 10
-71.2528317038
 20
5.227925602
 11
-70.6302257038
 21
5.850531602
  0
LINE
  5
663
100
AcDbEntity
  8
CURVE
100
AcDbLine
 62
7
  6
CONTINUOUS
 10
-70.1008088013
 20
6.3799485045
 11
-69.6188758013
 21
6.8618815045
  0
LINE
  5
664
100
AcDbEntity
  8
CURVE
100
AcDbLine
 62
7
  6
CONTINUOUS
 10
-72.518876677
 20
3.5418592008
 11
-71.2765691
 21
4.7841667777
  0
LINE
  5
665
100
AcDbEntity
  8
CURVE
100
AcDbLine
 62
7
  6
CONTINUOUS
 10
-70.8328102757
 20
5.227925602
 11
-70.2102042757
 21
5.850531602
  0
LINE
  5
666
100
AcDbEntity
  8
CURVE
100
AcDbLine
 62
7
  6
CONTINUOUS
 10
-70.1008088013
 20
5.9599270764
 11
-69.6188758013
 21
6.4418600764
  0
LINE
  5
667
100
AcDbEntity
  8
CURVE
100
AcDbLine
 62
7
  6
CONTINUOUS
 10
-72.5188767436
 20
3.1218377062
 11
-72.0369438013
 21
3.6037706484
  0
LINE
  5
668
100
AcDbEntity
  8
CURVE
100
AcDbLine
 62
7
  6
CONTINUOUS
 10
-71.4809009043
 20
4.1598135454
 11
-71.015420022
 21
4.6252944277
  0
LINE
  5
669
100
AcDbEntity
  8
CURVE
100
AcDbLine
 62
7
  6
CONTINUOUS
 10
-70.4127888477
 20
5.227925602
 11
-69.6188758013
 21
6.0218386484
  0
LINE
  5
66A
100
AcDbEntity
  8
CURVE
100
AcDbLine
 62
7
  6
CONTINUOUS
 10
-72.4631104197
 20
2.757582602
 11
-71.8405044197
 21
3.380188602
  0
LINE
  5
66B
100
AcDbEntity
  8
CURVE
100
AcDbLine
 62
7
  6
CONTINUOUS
 10
-71.253521858
 20
3.9671711638
 11
-70.8506107691
 21
4.3700822526
  0
LINE
  5
66C
100
AcDbEntity
  8
CURVE
100
AcDbLine
 62
7
  6
CONTINUOUS
 10
-69.9927674197
 20
5.227925602
 11
-69.6188758013
 21
5.6018172204
  0
LINE
  5
66D
100
AcDbEntity
  8
CURVE
100
AcDbLine
 62
253
  6
CONTINUOUS
 10
-56.4217239019
 20
15.1901255221
 11
-55.8646659335
 21
15.5615539164
  0
LINE
  5
66E
100
AcDbEntity
  8
CURVE
100
AcDbLine
 62
253
  6
CONTINUOUS
 10
-66.4903043849
 20
9.2167924571
 11
-66.7617329685
 21
9.0647925296
  0
LINE
  5
66F
100
AcDbEntity
  8
CURVE
100
AcDbLine
 62
253
  6
CONTINUOUS
 10
-72.5265328013
 20
-9.733434398
 11
-69.6268798013
 21
-9.462284398
  0
LINE
  5
670
100
AcDbEntity
  8
CURVE
100
AcDbLine
 62
253
  6
CONTINUOUS
 10
-69.6268798013
 20
-10.054400398
 11
-71.5124058013
 21
-10.178755398
  0
LINE
  5
671
100
AcDbEntity
  8
CURVE
100
AcDbLine
 62
253
  6
CONTINUOUS
 10
-71.7297818013
 20
-8.176333398
 11
-70.6536838013
 21
-8.477707398
  0
LINE
  5
672
100
AcDbEntity
  8
CURVE
100
AcDbLine
 62
253
  6
CONTINUOUS
 10
-70.2057538013
 20
-8.601519398
 11
-69.6268798013
 21
-8.768536398
  0
LWPOLYLINE
  5
673
100
AcDbEntity
  8
CURVE
100
AcDbPolyline
 62
253
  6
CONTINUOUS
 90
82
 70
0
 10
-70.9975462953
 20
-5.248651688
 10
-70.9990149439
 20
-5.240292354
 10
-71.0012219516
 20
-5.2320123592
 10
-71.004116921
 20
-5.2238366402
 10
-71.007649096
 20
-5.2157815722
 10
-71.0117662846
 20
-5.2078292856
 10
-71.0164159364
 20
-5.1999533497
 10
-71.024267605
 20
-5.1882287035
 10
-71.0329843799
 20
-5.1765506794
 10
-71.0423218471
 20
-5.1648654064
 10
-71.0519557188
 20
-5.1531706394
 10
-71.0617324809
 20
-5.1414788631
 10
-71.0717159421
 20
-5.1297422433
 10
-71.0820054198
 20
-5.1178853531
 10
-71.0926599813
 20
-5.1058870005
 10
-71.1075114341
 20
-5.0896757968
 10
-71.12317222
 20
-5.0732894054
 10
-71.13971564
 20
-5.0568145236
 10
-71.152749775
 20
-5.0444522443
 10
-71.166372025
 20
-5.032124332
 10
-71.1806327915
 20
-5.0198661624
 10
-71.195582476
 20
-5.0077131112
 10
-71.2112632279
 20
-4.995699578
 10
-71.2276841871
 20
-4.9838560581
 10
-71.2448462415
 20
-4.9722120711
 10
-71.2627502786
 20
-4.9607971364
 10
-71.2814011251
 20
-4.9496403323
 10
-71.3008193616
 20
-4.9387689725
 10
-71.3210295079
 20
-4.9282099296
 10
-71.3420560833
 20
-4.9179900765
 10
-71.3639186283
 20
-4.9081413242
 10
-71.3866167662
 20
-4.8987157377
 10
-71.4101451414
 20
-4.8897704206
 10
-71.434498398
 20
-4.8813624763
 10
-71.4596703844
 20
-4.873548093
 10
-71.4856517652
 20
-4.8663797967
 10
-71.512432409
 20
-4.8599091981
 10
-71.5400021843
 20
-4.8541879078
 10
-71.5626237316
 20
-4.8501844691
 10
-71.5857648153
 20
-4.8467164976
 10
-71.6094464115
 20
-4.8438068725
 10
-71.6336894964
 20
-4.8414784727
 10
-71.6585150462
 20
-4.8397541773
 10
-71.6839447247
 20
-4.8386609481
 10
-71.7100029461
 20
-4.838242077
 10
-71.7367148122
 20
-4.8385449388
 10
-71.7641054246
 20
-4.8396169082
 10
-71.7921998851
 20
-4.8415053599
 10
-71.8161537588
 20
-4.8437412227
 10
-71.8405446854
 20
-4.8466300389
 10
-71.8653035025
 20
-4.8502248612
 10
-71.8903801304
 20
-4.8545837501
 10
-71.9158008203
 20
-4.859784796
 10
-71.9416109059
 20
-4.8659110971
 10
-71.9678213207
 20
-4.8730361993
 10
-71.9943053963
 20
-4.8811954401
 10
-72.0209020642
 20
-4.8904146049
 10
-72.0474621094
 20
-4.9007144306
 10
-72.0738837308
 20
-4.9120954604
 10
-72.1000769809
 20
-4.9245531892
 10
-72.1259590507
 20
-4.9380823699
 10
-72.1514756855
 20
-4.952674789
 10
-72.1765797692
 20
-4.9683214909
 10
-72.2012245761
 20
-4.985016661
 10
-72.2253649438
 20
-5.0027670474
 10
-72.2489561003
 20
-5.021582539
 10
-72.2662602839
 20
-5.0363956873
 10
-72.2832004788
 20
-5.0517973248
 10
-72.2997468116
 20
-5.0677712566
 10
-72.3158694093
 20
-5.0843012876
 10
-72.3315271459
 20
-5.1013534401
 10
-72.346633885
 20
-5.1188226048
 10
-72.361110851
 20
-5.1366023935
 10
-72.3749537211
 20
-5.1546524345
 10
-72.3881805718
 20
-5.1729639029
 10
-72.4008246215
 20
-5.1915881431
 10
-72.4129001384
 20
-5.2105738211
 10
-72.4243304482
 20
-5.22989872
 10
-72.4350241863
 20
-5.2495426792
 10
-72.4449221679
 20
-5.2695646477
 10
-72.4539732536
 20
-5.2900433516
 10
-72.462126304
 20
-5.3110575172
  0
LWPOLYLINE
  5
674
100
AcDbEntity
  8
CURVE
100
AcDbPolyline
 62
253
  6
CONTINUOUS
 90
24
 70
0
 10
-72.0325480596
 20
-6.2220086698
 10
-72.0359047603
 20
-6.2019608393
 10
-72.0391081186
 20
-6.1819639225
 10
-72.0421358184
 20
-6.1620049291
 10
-72.0449655433
 20
-6.1420708693
 10
-72.0475767345
 20
-6.1221519282
 10
-72.0499558637
 20
-6.1022509921
 10
-72.0520911602
 20
-6.0823741226
 10
-72.0539708531
 20
-6.062527381
 10
-72.0555859438
 20
-6.042715018
 10
-72.0569385214
 20
-6.02293404
 10
-72.0580334473
 20
-6.0031796426
 10
-72.0588755826
 20
-5.9834470214
 10
-72.0594690001
 20
-5.9637320081
 10
-72.0598146177
 20
-5.9440329796
 10
-72.0599125652
 20
-5.9243489489
 10
-72.0597629721
 20
-5.9046789291
 10
-72.059288909
 20
-5.8822151708
 10
-72.0584909619
 20
-5.8597691956
 10
-72.0573683961
 20
-5.8373417755
 10
-72.0559204767
 20
-5.8149336826
 10
-72.0541464691
 20
-5.7925456892
 10
-72.0520456384
 20
-5.7701785672
 10
-72.0496172498
 20
-5.7478330889
  0
LWPOLYLINE
  5
675
100
AcDbEntity
  8
CURVE
100
AcDbPolyline
 62
253
  6
CONTINUOUS
 90
61
 70
0
 10
-70.7489293917
 20
3.9211230904
 10
-70.7504372975
 20
3.9431637214
 10
-70.752007511
 20
3.9642702968
 10
-70.7536424301
 20
3.9843025979
 10
-70.7553416359
 20
4.0032323692
 10
-70.7571091244
 20
4.0211293434
 10
-70.7589488914
 20
4.038063253
 10
-70.7608649326
 20
4.0541038307
 10
-70.7628612438
 20
4.0693208091
 10
-70.7649418209
 20
4.083783921
 10
-70.7674809942
 20
4.0997977785
 10
-70.7701466467
 20
4.1149911866
 10
-70.7729451234
 20
4.129474878
 10
-70.7758827695
 20
4.1433595857
 10
-70.7789659302
 20
4.1567560424
 10
-70.7822009507
 20
4.1697749811
 10
-70.7873520986
 20
4.1888377709
 10
-70.7928806226
 20
4.2076740174
 10
-70.7988079377
 20
4.2266574439
 10
-70.8051554589
 20
4.2461617739
 10
-70.8119032128
 20
4.266354632
 10
-70.819105262
 20
4.2872948408
 10
-70.8267794082
 20
4.3088455114
 10
-70.8349434532
 20
4.330869755
 10
-70.8436151989
 20
4.3532306826
 10
-70.8528124471
 20
4.3757914056
 10
-70.8625529994
 20
4.3984150349
 10
-70.8728546578
 20
4.4209646818
 10
-70.8837352239
 20
4.4433034575
 10
-70.8952124997
 20
4.465294473
 10
-70.9073042868
 20
4.4868008396
 10
-70.9206006266
 20
4.5086168072
 10
-70.9345799898
 20
4.529752094
 10
-70.949236015
 20
4.5502036556
 10
-70.9645623413
 20
4.5699684477
 10
-70.9805526075
 20
4.589043426
 10
-70.9972004525
 20
4.607425546
 10
-71.0144995152
 20
4.6251117636
 10
-71.0324434344
 20
4.6420990342
 10
-71.0510258491
 20
4.6583843136
 10
-71.070240398
 20
4.6739645575
 10
-71.0914735734
 20
4.6898421221
 10
-71.1133710046
 20
4.7049033086
 10
-71.1358812933
 20
4.7191415213
 10
-71.158953041
 20
4.7325501647
 10
-71.1825348496
 20
4.7451226435
 10
-71.2065753206
 20
4.756852362
 10
-71.2310230558
 20
4.7677327248
 10
-71.2558266567
 20
4.7777571364
 10
-71.2809347251
 20
4.7869190013
 10
-71.3062958626
 20
4.7952117239
 10
-71.3356960941
 20
4.8036730442
 10
-71.3653332568
 20
4.8110449707
 10
-71.3951779212
 20
4.8173947581
 10
-71.4252006576
 20
4.8227896606
 10
-71.4553720366
 20
4.8272969327
 10
-71.4895934808
 20
4.8313968802
 10
-71.5239298612
 20
4.834499654
 10
-71.5583440242
 20
4.8366547011
 10
-71.5927988162
 20
4.8379114682
 10
-71.6272570836
 20
4.8383194024
  0
LINE
  5
676
100
AcDbEntity
  8
CURVE
100
AcDbLine
 62
253
  6
CONTINUOUS
 10
-70.7461096209
 20
3.8751720487
 11
-70.7489293917
 21
3.9211230904
  0
LINE
  5
677
100
AcDbEntity
  8
CURVE
100
AcDbLine
 62
253
  6
CONTINUOUS
 10
-70.7435664342
 20
3.8282819468
 11
-70.7461096209
 21
3.8751720487
  0
LINE
  5
678
100
AcDbEntity
  8
CURVE
100
AcDbLine
 62
253
  6
CONTINUOUS
 10
-70.7405053545
 20
3.7646087146
 11
-70.7435664342
 21
3.8282819468
  0
LINE
  5
679
100
AcDbEntity
  8
CURVE
100
AcDbLine
 62
253
  6
CONTINUOUS
 10
-70.7377787342
 20
3.7006250299
 11
-70.7405053545
 21
3.7646087146
  0
LINE
  5
67A
100
AcDbEntity
  8
CURVE
100
AcDbLine
 62
253
  6
CONTINUOUS
 10
-70.7356375066
 20
3.6450126595
 11
-70.7377787342
 21
3.7006250299
  0
LINE
  5
67B
100
AcDbEntity
  8
CURVE
100
AcDbLine
 62
253
  6
CONTINUOUS
 10
-70.7616435633
 20
-6.2019387812
 11
-70.7616435633
 21
-5.8774067252
  0
LINE
  5
67C
100
AcDbEntity
  8
CURVE
100
AcDbLine
 62
253
  6
CONTINUOUS
 10
-70.7356378013
 20
3.645012602
 11
-70.7356378013
 21
3.380188602
  0
LINE
  5
67D
100
AcDbEntity
  8
CURVE
100
AcDbLine
 62
253
  6
CONTINUOUS
 10
-70.7154478013
 20
15.064661602
 11
-70.7154478013
 21
14.233283602
  0
LINE
  5
67E
100
AcDbEntity
  8
CURVE
100
AcDbLine
 62
253
  6
CONTINUOUS
 10
-70.7154478013
 20
9.039735602
 11
-70.7154478013
 21
8.208248602
  0
LINE
  5
67F
100
AcDbEntity
  8
CURVE
100
AcDbLine
 62
253
  6
CONTINUOUS
 10
-70.6536838013
 20
-8.477707398
 11
-70.6536838013
 21
-7.898203398
  0
LINE
  5
680
100
AcDbEntity
  8
CURVE
100
AcDbLine
 62
253
  6
CONTINUOUS
 10
-70.2335148013
 20
8.047604602
 11
-70.2335148013
 21
9.196341602
  0
LINE
  5
681
100
AcDbEntity
  8
CURVE
100
AcDbLine
 62
253
  6
CONTINUOUS
 10
-70.2335148013
 20
14.072638602
 11
-70.2335148013
 21
15.221376602
  0
LINE
  5
682
100
AcDbEntity
  8
CURVE
100
AcDbLine
 62
253
  6
CONTINUOUS
 10
-70.2057538013
 20
-7.777240398
 11
-70.2057538013
 21
-8.601519398
  0
LINE
  5
683
100
AcDbEntity
  8
CURVE
100
AcDbLine
 62
253
  6
CONTINUOUS
 10
-70.1008088013
 20
5.850531602
 11
-70.1008088013
 21
6.923530602
  0
LINE
  5
684
100
AcDbEntity
  8
CURVE
100
AcDbLine
 62
253
  6
CONTINUOUS
 10
-69.6268798013
 20
-6.982511398
 11
-69.6268798013
 21
-7.620442398
  0
LINE
  5
685
100
AcDbEntity
  8
CURVE
100
AcDbLine
 62
253
  6
CONTINUOUS
 10
-69.6268798013
 20
-8.768536398
 11
-69.6268798013
 21
-9.367240398
  0
LINE
  5
686
100
AcDbEntity
  8
CURVE
100
AcDbLine
 62
253
  6
CONTINUOUS
 10
-69.6268798013
 20
-9.462284398
 11
-69.6268798013
 21
-10.054400398
  0
LINE
  5
687
100
AcDbEntity
  8
CURVE
100
AcDbLine
 62
253
  6
CONTINUOUS
 10
-69.6268798013
 20
-10.898423398
 11
-69.6268798013
 21
-10.983312398
  0
LINE
  5
688
100
AcDbEntity
  8
CURVE
100
AcDbLine
 62
253
  6
CONTINUOUS
 10
-69.6268798013
 20
-11.823986398
 11
-69.6268798013
 21
-12.403034398
  0
LINE
  5
689
100
AcDbEntity
  8
CURVE
100
AcDbLine
 62
253
  6
CONTINUOUS
 10
-69.6268798013
 20
-14.490824398
 11
-69.6268798013
 21
-15.024220398
  0
LINE
  5
68A
100
AcDbEntity
  8
CURVE
100
AcDbLine
 62
253
  6
CONTINUOUS
 10
-69.6268798013
 20
-13.334142398
 11
-69.6268798013
 21
-12.728871398
  0
LINE
  5
68B
100
AcDbEntity
  8
CURVE
100
AcDbLine
 62
253
  6
CONTINUOUS
 10
-69.6268794491
 20
-6.8047747423
 11
-69.6268794491
 21
-6.2019387812
  0
LINE
  5
68C
100
AcDbEntity
  8
CURVE
100
AcDbLine
 62
253
  6
CONTINUOUS
 10
-69.6268794491
 20
-5.2750491363
 11
-69.6268794491
 21
-4.6928484128
  0
LINE
  5
68D
100
AcDbEntity
  8
CURVE
100
AcDbLine
 62
253
  6
CONTINUOUS
 10
-69.6188758013
 20
12.967990602
 11
-69.6188758013
 21
12.084338602
  0
LINE
  5
68E
100
AcDbEntity
  8
CURVE
100
AcDbLine
 62
253
  6
CONTINUOUS
 10
-69.6188758013
 20
10.931562602
 11
-69.6188758013
 21
10.349117602
  0
LINE
  5
68F
100
AcDbEntity
  8
CURVE
100
AcDbLine
 62
253
  6
CONTINUOUS
 10
-69.6188758013
 20
6.923530602
 11
-69.6188758013
 21
5.227925602
  0
LINE
  5
690
100
AcDbEntity
  8
CURVE
100
AcDbLine
 62
253
  6
CONTINUOUS
 10
-69.6188758013
 20
2.757582602
 11
-69.6188758013
 21
3.380188602
  0
LINE
  5
691
100
AcDbEntity
  8
CURVE
100
AcDbLine
 62
253
  6
CONTINUOUS
 10
-69.6188758013
 20
7.236306602
 11
-69.6188758013
 21
7.830756602
  0
LINE
  5
692
100
AcDbEntity
  8
CURVE
100
AcDbLine
 62
253
  6
CONTINUOUS
 10
-69.6188758013
 20
9.405223602
 11
-69.6188758013
 21
10.031866602
  0
LINE
  5
693
100
AcDbEntity
  8
CURVE
100
AcDbLine
 62
253
  6
CONTINUOUS
 10
-69.6188758013
 20
13.261232602
 11
-69.6188758013
 21
13.855681602
  0
LINE
  5
694
100
AcDbEntity
  8
CURVE
100
AcDbLine
 62
253
  6
CONTINUOUS
 10
-69.6188758013
 20
15.430366602
 11
-69.6188758013
 21
16.056792602
  0
LWPOLYLINE
  5
695
100
AcDbEntity
  8
CURVE
100
AcDbPolyline
 62
253
  6
CONTINUOUS
 90
49
 70
0
 10
-70.7616435633
 20
-5.8774067252
 10
-70.7615263649
 20
-5.8679659988
 10
-70.7611761732
 20
-5.8586653088
 10
-70.7605950934
 20
-5.8494855143
 10
-70.7597852308
 20
-5.8404074745
 10
-70.7587486907
 20
-5.8314120484
 10
-70.7574875782
 20
-5.8224800954
 10
-70.7560038837
 20
-5.8135977303
 10
-70.7542991371
 20
-5.8047720918
 10
-70.7523747534
 20
-5.7960155743
 10
-70.7502321476
 20
-5.7873405722
 10
-70.7478727348
 20
-5.7787594801
 10
-70.7452979298
 20
-5.7702846923
 10
-70.7425083367
 20
-5.7619261969
 10
-70.7395013149
 20
-5.7536843566
 10
-70.7362734129
 20
-5.7455571274
 10
-70.7328211791
 20
-5.7375424657
 10
-70.729141162
 20
-5.7296383276
 10
-70.7252299101
 20
-5.7218426694
 10
-70.7210852405
 20
-5.714153892
 10
-70.716710045
 20
-5.7065721761
 10
-70.7121084842
 20
-5.6990981471
 10
-70.7072847188
 20
-5.6917324304
 10
-70.7022429091
 20
-5.6844756514
 10
-70.6969872159
 20
-5.6773284356
 10
-70.6915210001
 20
-5.6702910365
 10
-70.6858444244
 20
-5.6633622192
 10
-70.6799568521
 20
-5.6565403771
 10
-70.6738576465
 20
-5.6498239035
 10
-70.6675461707
 20
-5.6432111915
 10
-70.661021788
 20
-5.6367006346
 10
-70.6542840047
 20
-5.6302911682
 10
-70.647332899
 20
-5.6239838968
 10
-70.6401686924
 20
-5.6177804675
 10
-70.6327916062
 20
-5.6116825269
 10
-70.6252018619
 20
-5.605691722
 10
-70.6173996807
 20
-5.5998096996
 10
-70.6093847682
 20
-5.5940389752
 10
-70.6011547665
 20
-5.5883855384
 10
-70.5927068021
 20
-5.5828562477
 10
-70.584038001
 20
-5.5774579612
 10
-70.5751454897
 20
-5.5721975375
 10
-70.5660263945
 20
-5.5670818348
 10
-70.5566778416
 20
-5.5621177114
 10
-70.5470969573
 20
-5.5573120257
 10
-70.537280868
 20
-5.552671636
 10
-70.5272267
 20
-5.5482034006
 10
-70.5169315794
 20
-5.5439141779
 10
-70.5063926328
 20
-5.5398108262
  0
LWPOLYLINE
  5
696
100
AcDbEntity
  8
RACCORDO
100
AcDbPolyline
 62
253
  6
CONTINUOUS
 90
8
 70
0
 10
-75.3674213685
 20
-24.438835564
 10
-75.3673474184
 20
-24.4384941567
 10
-75.367277595
 20
-24.4374708941
 10
-75.3672120969
 20
-24.4357672899
 10
-75.3671510993
 20
-24.4333861598
 10
-75.3670947923
 20
-24.4303330464
 10
-75.36704337
 20
-24.4266176066
 10
-75.3669557466
 20
-24.4172446256
  0
LWPOLYLINE
  5
697
100
AcDbEntity
  8
CURVE
100
AcDbPolyline
 62
253
  6
CONTINUOUS
 90
33
 70
0
 10
-72.462126304
 20
-5.3110575172
 10
-72.4723893637
 20
-5.340648401
 10
-72.4819690978
 20
-5.3706845558
 10
-72.490886011
 20
-5.4011782779
 10
-72.4991606079
 20
-5.4321418632
 10
-72.5068133931
 20
-5.4635876079
 10
-72.5138648861
 20
-5.4955229003
 10
-72.5203356665
 20
-5.5279354984
 10
-72.5262463289
 20
-5.5608082523
 10
-72.5316174678
 20
-5.5941240124
 10
-72.5364696778
 20
-5.6278656287
 10
-72.5418364524
 20
-5.6706176133
 10
-72.5464640912
 20
-5.7139880875
 10
-72.550392106
 20
-5.7579569369
 10
-72.5536600085
 20
-5.8025040474
 10
-72.5562995362
 20
-5.8476121418
 10
-72.5583113302
 20
-5.8932752918
 10
-72.5596882573
 20
-5.9394904066
 10
-72.5604231844
 20
-5.9862543952
 10
-72.5604723846
 20
-6.0403659686
 10
-72.5596904278
 20
-6.095179125
 10
-72.5580940043
 20
-6.1506825879
 10
-72.5556998043
 20
-6.2068650811
 10
-72.5525245182
 20
-6.2637153282
 10
-72.5485848363
 20
-6.3212220527
 10
-72.5438974489
 20
-6.3793739785
 10
-72.5384822625
 20
-6.4381633826
 10
-72.5323720488
 20
-6.4975967564
 10
-72.5256027958
 20
-6.5576841449
 10
-72.5182104913
 20
-6.6184355928
 10
-72.5102311233
 20
-6.679861145
 10
-72.5017006798
 20
-6.7419708466
 10
-72.4926551487
 20
-6.8047747423
  0
LINE
  5
698
100
AcDbEntity
  8
CURVE
100
AcDbLine
 62
7
  6
CONTINUOUS
 10
-72.0430889917
 20
2.757582602
 11
-71.4204829917
 21
3.380188602
  0
LINE
  5
699
100
AcDbEntity
  8
CURVE
100
AcDbLine
 62
7
  6
CONTINUOUS
 10
-71.2175705985
 20
3.5831009952
 11
-70.7593948312
 21
4.0412767625
  0
LINE
  5
69A
100
AcDbEntity
  8
CURVE
100
AcDbLine
 62
7
  6
CONTINUOUS
 10
-71.6230675636
 20
2.757582602
 11
-70.7356378013
 21
3.6450123643
  0
LINE
  5
69B
100
AcDbEntity
  8
CURVE
100
AcDbLine
 62
7
  6
CONTINUOUS
 10
-71.2030461356
 20
2.757582602
 11
-70.5804401356
 21
3.380188602
  0
LINE
  5
69C
100
AcDbEntity
  8
CURVE
100
AcDbLine
 62
7
  6
CONTINUOUS
 10
-70.7830247076
 20
2.757582602
 11
-70.1604187076
 21
3.380188602
  0
LINE
  5
69D
100
AcDbEntity
  8
CURVE
100
AcDbLine
 62
7
  6
CONTINUOUS
 10
-70.3630032796
 20
2.757582602
 11
-69.7403972796
 21
3.380188602
  0
LINE
  5
69E
100
AcDbEntity
  8
CURVE
100
AcDbLine
 62
7
  6
CONTINUOUS
 10
-69.9429818515
 20
2.757582602
 11
-69.6188758013
 21
3.0816886522
  0
LINE
  5
69F
100
AcDbEntity
  8
CURVE
100
AcDbLine
 62
253
  6
CONTINUOUS
 10
-72.4926551487
 20
-6.8047747423
 11
-69.6268794491
 21
-6.8047747423
  0
LINE
  5
6A0
100
AcDbEntity
  8
CURVE
100
AcDbLine
 62
253
  6
CONTINUOUS
 10
-71.2295002824
 20
3.8398249563
 11
-71.2268103771
 21
3.8197267553
  0
LINE
  5
6A1
100
AcDbEntity
  8
CURVE
100
AcDbLine
 62
253
  6
CONTINUOUS
 10
-71.2268103771
 20
3.8197267553
 11
-71.2247824786
 21
3.8038287002
  0
LINE
  5
6A2
100
AcDbEntity
  8
CURVE
100
AcDbLine
 62
253
  6
CONTINUOUS
 10
-71.2247824786
 20
3.8038287002
 11
-71.2221285109
 21
3.7820963536
  0
LINE
  5
6A3
100
AcDbEntity
  8
CURVE
100
AcDbLine
 62
253
  6
CONTINUOUS
 10
-71.2181495922
 20
3.7481666059
 11
-71.2175704383
 21
3.743404733
  0
LINE
  5
6A4
100
AcDbEntity
  8
CURVE
100
AcDbLine
 62
253
  6
CONTINUOUS
 10
-71.2221285109
 20
3.7820963536
 11
-71.2181495922
 21
3.7481666059
  0
LINE
  5
6A5
100
AcDbEntity
  8
ASSI
100
AcDbLine
 62
253
  6
CONTINUOUS
 10
-68.5443559746
 20
23.8075660268
 11
-68.5443559746
 21
22.3906907689
  0
LINE
  5
6A6
100
AcDbEntity
  8
ASSI
100
AcDbLine
 62
253
  6
CONTINUOUS
 10
-68.5443559746
 20
-22.2771055649
 11
-68.5443559746
 21
-23.6939808227
  0
LINE
  5
6A7
100
AcDbEntity
  8
ASSI
100
AcDbLine
 62
7
  6
CONTINUOUS
 10
-68.1188758013
 20
23.3131504167
 11
-68.1188758013
 21
22.386988014
  0
LINE
  5
6A8
100
AcDbEntity
  8
ASSI
100
AcDbLine
 62
7
  6
CONTINUOUS
 10
-68.1188758013
 20
-22.2734028099
 11
-68.1188758013
 21
-23.1995652127
  0
LINE
  5
6A9
100
AcDbEntity
  8
CURVE
100
AcDbLine
 62
253
  6
CONTINUOUS
 10
-68.1188758013
 20
7.5447924933
 11
-68.1188758013
 21
8.4567925658
  0
LINE
  5
6AA
100
AcDbEntity
  8
CURVE
100
AcDbLine
 62
253
  6
CONTINUOUS
 10
-68.1188758013
 20
9.5207928195
 11
-68.1188758013
 21
9.672792747
  0
LINE
  5
6AB
100
AcDbEntity
  8
CURVE
100
AcDbLine
 62
253
  6
CONTINUOUS
 10
-68.1188758013
 20
14.992792747
 11
-68.1188758013
 21
15.4487930369
  0
LINE
  5
6AC
100
AcDbEntity
  8
CURVE
100
AcDbLine
 62
253
  6
CONTINUOUS
 10
-67.3045901356
 20
8.1527927108
 11
-67.3045901356
 21
7.5447924933
  0
LINE
  5
6AD
100
AcDbEntity
  8
CURVE
100
AcDbLine
 62
253
  6
CONTINUOUS
 10
-67.1688758013
 20
14.992792747
 11
-67.1688758013
 21
15.752792892
  0
LINE
  5
6AE
100
AcDbEntity
  8
CURVE
100
AcDbLine
 62
253
  6
CONTINUOUS
 10
-66.7617329685
 20
13.3714595103
 11
-66.7617329685
 21
14.1821261287
  0
LINE
  5
6AF
100
AcDbEntity
  8
CURVE
100
AcDbLine
 62
253
  6
CONTINUOUS
 10
-56.4217239019
 20
9.2472687335
 11
-55.1219218982
 21
9.8972687335
  0
LINE
  5
6B0
100
AcDbEntity
  8
CURVE
100
AcDbLine
 62
253
  6
CONTINUOUS
 10
-69.6268798013
 20
-7.620442398
 11
-70.2057538013
 21
-7.777240398
  0
LINE
  5
6B1
100
AcDbEntity
  8
CURVE
100
AcDbLine
 62
253
  6
CONTINUOUS
 10
-70.6536838013
 20
-7.898203398
 11
-71.7297818013
 21
-8.176333398
  0
LWPOLYLINE
  5
6B2
100
AcDbEntity
  8
CURVE
100
AcDbPolyline
 62
253
  6
CONTINUOUS
 90
56
 70
0
 10
-71.6869027983
 20
-5.405923798
 10
-71.6742779542
 20
-5.4058887727
 10
-71.6618871958
 20
-5.4061570015
 10
-71.6497082638
 20
-5.4067169762
 10
-71.6377188987
 20
-5.4075571887
 10
-71.6258968411
 20
-5.4086661307
 10
-71.6142198316
 20
-5.410032294
 10
-71.6026656109
 20
-5.4116441703
 10
-71.5893212757
 20
-5.413820936
 10
-71.5761389897
 20
-5.4163044605
 10
-71.5631439706
 20
-5.4190827236
 10
-71.550361436
 20
-5.4221437055
 10
-71.5378166036
 20
-5.4254753859
 10
-71.5255346911
 20
-5.4290657449
 10
-71.5135359146
 20
-5.4329031034
 10
-71.5018204845
 20
-5.4369771467
 10
-71.4903836095
 20
-5.441277901
 10
-71.4792185904
 20
-5.4457975528
 10
-71.468311095
 20
-5.4505369291
 10
-71.4576448827
 20
-5.4554990168
 10
-71.4451454504
 20
-5.4617523598
 10
-71.4329683858
 20
-5.468339786
 10
-71.4211119953
 20
-5.4752703726
 10
-71.4095745849
 20
-5.4825531965
 10
-71.398354461
 20
-5.4901973352
 10
-71.3892490681
 20
-5.496848117
 10
-71.3803832224
 20
-5.5037500486
 10
-71.3717773094
 20
-5.5108970633
 10
-71.3634489922
 20
-5.5182855503
 10
-71.355405043
 20
-5.5259217221
 10
-71.3476495118
 20
-5.5338142469
 10
-71.3401857522
 20
-5.54197081
 10
-71.3330143345
 20
-5.5503951634
 10
-71.3261351327
 20
-5.559090076
 10
-71.3195477058
 20
-5.5680548032
 10
-71.3132503513
 20
-5.5772745461
 10
-71.3072410514
 20
-5.586730992
 10
-71.3004056859
 20
-5.5983712077
 10
-71.293969146
 20
-5.6103291617
 10
-71.287918364
 20
-5.6226081098
 10
-71.2822402725
 20
-5.6352113078
 10
-71.2769218039
 20
-5.6481420117
 10
-71.2719513951
 20
-5.6614002253
 10
-71.2673235017
 20
-5.6749729449
 10
-71.2630340838
 20
-5.6888439147
 10
-71.2590791016
 20
-5.7029968792
 10
-71.2554545153
 20
-5.7174155826
 10
-71.2518098466
 20
-5.7337330081
 10
-71.2485629157
 20
-5.7503646169
 10
-71.2457085517
 20
-5.7673165884
 10
-71.2432415836
 20
-5.7845951017
 10
-71.2411568407
 20
-5.8022063364
 10
-71.2394491519
 20
-5.8201564716
 10
-71.2381133466
 20
-5.8384516867
 10
-71.2371442537
 20
-5.8570981609
 10
-71.2365367025
 20
-5.8761020737
  0
LINE
  5
6B3
100
AcDbEntity
  8
CURVE
100
AcDbLine
 62
253
  6
CONTINUOUS
 10
-71.2365367025
 20
-6.2220086698
 11
-72.0325480596
 21
-6.2220086698
  0
LINE
  5
6B4
100
AcDbEntity
  8
CURVE
100
AcDbLine
 62
253
  6
CONTINUOUS
 10
-69.6268794491
 20
-6.2019387812
 11
-70.7616435633
 21
-6.2019387812
  0
LINE
  5
6B5
100
AcDbEntity
  8
CURVE
100
AcDbLine
 62
253
  6
CONTINUOUS
 10
-70.9804118725
 20
-5.248651688
 11
-70.9975462953
 21
-5.248651688
  0
LINE
  5
6B6
100
AcDbEntity
  8
CURVE
100
AcDbLine
 62
253
  6
CONTINUOUS
 10
-66.6260186625
 20
6.9367925296
 11
-66.6260186625
 21
5.8727926564
  0
LINE
  5
6B7
100
AcDbEntity
  8
CURVE
100
AcDbLine
 62
253
  6
CONTINUOUS
 10
-66.5355424774
 20
12.3074595103
 11
-66.5355424774
 21
12.4087924571
  0
LINE
  5
6B8
100
AcDbEntity
  8
CURVE
100
AcDbLine
 62
253
  6
CONTINUOUS
 10
-66.3093519935
 20
12.4087924571
 11
-66.3093519935
 21
12.3074595103
  0
LINE
  5
6B9
100
AcDbEntity
  8
CURVE
100
AcDbLine
 62
253
  6
CONTINUOUS
 10
-66.2188758013
 20
15.752792892
 11
-66.2188758013
 21
14.992792747
  0
LINE
  5
6BA
100
AcDbEntity
  8
CURVE
100
AcDbLine
 62
253
  6
CONTINUOUS
 10
-66.2188758013
 20
9.672792747
 11
-66.2188758013
 21
9.5207928195
  0
LINE
  5
6BB
100
AcDbEntity
  8
CURVE
100
AcDbLine
 62
253
  6
CONTINUOUS
 10
-66.2188758013
 20
7.5447924933
 11
-66.2188758013
 21
8.1527927108
  0
LINE
  5
6BC
100
AcDbEntity
  8
RACCORDO
100
AcDbLine
 62
253
  6
CONTINUOUS
 10
-65.6101495981
 20
21.6227680353
 11
-65.6101495981
 21
20.956792602
  0
LINE
  5
6BD
100
AcDbEntity
  8
RACCORDO
100
AcDbLine
 62
253
  6
CONTINUOUS
 10
-65.6101495981
 20
-20.843207398
 11
-65.6101495981
 21
-21.5091828312
  0
LINE
  5
6BE
100
AcDbEntity
  8
RACCORDO
100
AcDbLine
 62
253
  6
CONTINUOUS
 10
-65.4606917185
 20
-20.843207398
 11
-65.4606917185
 21
-20.6246231677
  0
LINE
  5
6BF
100
AcDbEntity
  8
RACCORDO
100
AcDbLine
 62
253
  6
CONTINUOUS
 10
-65.4606917185
 20
20.7382083718
 11
-65.4606917185
 21
20.956792602
  0
LINE
  5
6C0
100
AcDbEntity
  8
DRAFT
100
AcDbLine
 62
7
  6
CONTINUOUS
 10
-65.1188758013
 20
22.456792602
 11
-65.1188758013
 21
21.3694858457
  0
LINE
  5
6C1
100
AcDbEntity
  8
ASSI
100
AcDbLine
 62
7
  6
CONTINUOUS
 10
-65.1188758013
 20
22.456792602
 11
-65.1188758013
 21
21.3694858457
  0
LINE
  5
6C2
100
AcDbEntity
  8
DRAFT
100
AcDbLine
 62
7
  6
CONTINUOUS
 10
-65.1188758013
 20
-22.1686567487
 11
-65.1188758013
 21
-21.2559006417
  0
LINE
  5
6C3
100
AcDbEntity
  8
ASSI
100
AcDbLine
 62
7
  6
CONTINUOUS
 10
-65.1188758013
 20
-22.1686567487
 11
-65.1188758013
 21
-21.2559006417
  0
LINE
  5
6C4
100
AcDbEntity
  8
RACCORDO
100
AcDbLine
 62
7
  6
CONTINUOUS
 10
-65.1188758013
 20
-21.2559006417
 11
-65.1188758013
 21
-19.1758081389
  0
LINE
  5
6C5
100
AcDbEntity
  8
ASSI
100
AcDbLine
 62
7
  6
CONTINUOUS
 10
-65.1188758013
 20
-20.6186567487
 11
-65.1188758013
 21
-19.1758081389
  0
LINE
  5
6C6
100
AcDbEntity
  8
RACCORDO
100
AcDbLine
 62
7
  6
CONTINUOUS
 10
-65.1188758013
 20
19.289393343
 11
-65.1188758013
 21
21.3694858457
  0
LINE
  5
6C7
100
AcDbEntity
  8
ASSI
100
AcDbLine
 62
7
  6
CONTINUOUS
 10
-65.1188758013
 20
19.289393343
 11
-65.1188758013
 21
20.7322419528
  0
LINE
  5
6C8
100
AcDbEntity
  8
CURVE
100
AcDbLine
 62
253
  6
CONTINUOUS
 10
-56.4217239019
 20
4.5425069542
 11
-55.1219218982
 21
4.9139355035
  0
LWPOLYLINE
  5
6C9
100
AcDbEntity
  8
CURVE
100
AcDbPolyline
 62
253
  6
CONTINUOUS
 90
40
 70
0
 10
-70.4800078087
 20
-4.9183601808
 10
-70.5022689266
 20
-4.9245706563
 10
-70.5242434234
 20
-4.9308786076
 10
-70.5459207881
 20
-4.937341035
 10
-70.56729051
 20
-4.9440149392
 10
-70.5883416921
 20
-4.9509481875
 10
-70.6090618934
 20
-4.9581521158
 10
-70.6294382867
 20
-4.9656289269
 10
-70.6494580448
 20
-4.9733808236
 10
-70.6691083405
 20
-4.9814100086
 10
-70.6883763468
 20
-4.989718685
 10
-70.7072492364
 20
-4.9983090553
 10
-70.7234275059
 20
-5.0060581753
 10
-70.7392770152
 20
-5.0140245512
 10
-70.754781336
 20
-5.0222080808
 10
-70.7699240398
 20
-5.0306086615
 10
-70.7846937654
 20
-5.0392300891
 10
-70.7990994189
 20
-5.0480917525
 10
-70.8131549734
 20
-5.0572169391
 10
-70.8268744019
 20
-5.0666289361
 10
-70.8376121658
 20
-5.0743772645
 10
-70.8481199565
 20
-5.0823154476
 10
-70.858373979
 20
-5.0904348777
 10
-70.8683504378
 20
-5.0987269471
 10
-70.8780255379
 20
-5.1071830481
 10
-70.8873775569
 20
-5.115794043
 10
-70.8963930649
 20
-5.124548674
 10
-70.9050607049
 20
-5.1334351536
 10
-70.9133691201
 20
-5.1424416941
 10
-70.9213069534
 20
-5.1515565078
 10
-70.9288655393
 20
-5.160770352
 10
-70.9360469779
 20
-5.1700841636
 10
-70.9428560607
 20
-5.1795014243
 10
-70.949297579
 20
-5.1890256159
 10
-70.9553763243
 20
-5.1986602201
 10
-70.9610964138
 20
-5.2084090419
 10
-70.9664592676
 20
-5.2182771788
 10
-70.9714656315
 20
-5.2282700517
 10
-70.9761162512
 20
-5.2383930811
 10
-70.9804118725
 20
-5.248651688
  0
LINE
  5
6CA
100
AcDbEntity
  8
CURVE
100
AcDbLine
 62
253
  6
CONTINUOUS
 10
-70.3226365106
 20
-4.8757004412
 11
-70.4800078087
 21
-4.9183601808
  0
LINE
  5
6CB
100
AcDbEntity
  8
CURVE
100
AcDbLine
 62
253
  6
CONTINUOUS
 10
-69.6268794491
 20
-4.6928484128
 11
-69.7551177371
 21
-4.7270122305
  0
LINE
  5
6CC
100
AcDbEntity
  8
CURVE
100
AcDbLine
 62
253
  6
CONTINUOUS
 10
-70.146002145
 20
-4.8288795402
 11
-70.3226365106
 21
-4.8757004412
  0
LINE
  5
6CD
100
AcDbEntity
  8
CURVE
100
AcDbLine
 62
253
  6
CONTINUOUS
 10
-69.7551177371
 20
-4.7270122305
 11
-70.146002145
 21
-4.8288795402
  0
LWPOLYLINE
  5
6CE
100
AcDbEntity
  8
RACCORDO
100
AcDbPolyline
 62
253
  6
CONTINUOUS
 90
5
 70
0
 10
-75.2463714038
 20
-23.5758839822
 10
-75.2452390278
 20
-23.5737931898
 10
-75.2444443422
 20
-23.5722862198
 10
-75.2439895194
 20
-23.5713671914
 10
-75.2438758013
 20
-23.5710386143
  0
LWPOLYLINE
  5
6CF
100
AcDbEntity
  8
RACCORDO
100
AcDbPolyline
 62
253
  6
CONTINUOUS
 90
3
 70
0
 10
-75.2517592318
 20
-23.5855943924
 10
-75.2496359541
 20
-23.5817926351
 10
-75.2463714038
 20
-23.5758839822
  0
LINE
  5
6D0
100
AcDbEntity
  8
CURVE
100
AcDbLine
 62
253
  6
CONTINUOUS
 10
-56.4217239019
 20
5.7496497006
 11
-56.2360379124
 21
5.9353638978
  0
LINE
  5
6D1
100
AcDbEntity
  8
CURVE
100
AcDbLine
 62
253
  6
CONTINUOUS
 10
-56.4217239019
 20
3.056792602
 11
-55.6789799053
 21
3.4282211901
  0
LINE
  5
6D2
100
AcDbEntity
  8
CURVE
100
AcDbLine
 62
253
  6
CONTINUOUS
 10
-67.5760186908
 20
4.656792602
 11
-68.1188758013
 21
5.2647926292
  0
LWPOLYLINE
  5
6D3
100
AcDbEntity
  8
RACCORDO
100
AcDbPolyline
 62
253
  6
CONTINUOUS
 90
7
 70
0
 10
-75.2517592318
 20
23.6991795965
 10
-75.2478383786
 20
23.6921380927
 10
-75.2463714038
 20
23.6894691863
 10
-75.2452390278
 20
23.6873783938
 10
-75.2444443422
 20
23.6858714239
 10
-75.2439895194
 20
23.6849523955
 10
-75.2438758013
 20
23.6846238184
  0
LINE
  5
6D4
100
AcDbEntity
  8
CURVE
100
AcDbLine
 62
253
  6
CONTINUOUS
 10
-61.0419158013
 20
14.19628849
 11
-61.0419158013
 21
15.656792602
  0
LINE
  5
6D5
100
AcDbEntity
  8
CURVE
100
AcDbLine
 62
253
  6
CONTINUOUS
 10
-60.2919158013
 20
15.656792602
 11
-60.2919158013
 21
14.196291602
  0
LINE
  5
6D6
100
AcDbEntity
  8
RACCORDO
100
AcDbLine
 62
253
  6
CONTINUOUS
 10
-75.2633803106
 20
-23.6061913218
 11
-75.2517592318
 21
-23.5855943924
  0
LINE
  5
6D7
100
AcDbEntity
  8
RACCORDO
100
AcDbLine
 62
253
  6
CONTINUOUS
 10
-75.3052343542
 20
-23.6794940979
 11
-75.2633803106
 21
-23.6061913218
  0
LINE
  5
6D8
100
AcDbEntity
  8
RACCORDO
100
AcDbLine
 62
253
  6
CONTINUOUS
 10
-75.3674213685
 20
-23.7875449653
 11
-75.3052343542
 21
-23.6794940979
  0
LWPOLYLINE
  5
6D9
100
AcDbEntity
  8
CURVE
100
AcDbPolyline
 62
253
  6
CONTINUOUS
 90
8
 70
0
 10
-70.5064534525
 20
-5.5398337155
 10
-70.4679068917
 20
-5.5256860805
 10
-70.4289116161
 20
-5.512008644
 10
-70.3894879954
 20
-5.4987494929
 10
-70.3496563988
 20
-5.4858567139
 10
-70.3094371959
 20
-5.4732783941
 10
-70.268850756
 20
-5.4609626201
 10
-70.2279174487
 20
-5.448857479
  0
LINE
  5
6DA
100
AcDbEntity
  8
CURVE
100
AcDbLine
 62
253
  6
CONTINUOUS
 10
-67.8474472461
 20
9.2167924571
 11
-68.1188758013
 21
9.5207928195
  0
LINE
  5
6DB
100
AcDbEntity
  8
CURVE
100
AcDbLine
 62
253
  6
CONTINUOUS
 10
-66.2188758013
 20
8.1527927108
 11
-66.4903043849
 21
8.4567925658
  0
LINE
  5
6DC
100
AcDbEntity
  8
RACCORDO
100
AcDbLine
 62
253
  6
CONTINUOUS
 10
-75.3674213685
 20
23.9011301693
 11
-75.2842891258
 21
23.7564913846
  0
LINE
  5
6DD
100
AcDbEntity
  8
RACCORDO
100
AcDbLine
 62
253
  6
CONTINUOUS
 10
-75.2842891258
 20
23.7564913846
 11
-75.2600208978
 21
23.7138455289
  0
LINE
  5
6DE
100
AcDbEntity
  8
RACCORDO
100
AcDbLine
 62
253
  6
CONTINUOUS
 10
-75.2600208978
 20
23.7138455289
 11
-75.2517592318
 21
23.6991795965
  0
LINE
  5
6DF
100
AcDbEntity
  8
CURVE
100
AcDbLine
 62
253
  6
CONTINUOUS
 10
-72.5265328013
 20
-7.872197398
 11
-69.6268798013
 21
-6.982511398
  0
LINE
  5
6E0
100
AcDbEntity
  8
CURVE
100
AcDbLine
 62
253
  6
CONTINUOUS
 10
-69.9334123808
 20
-5.3645838667
 11
-69.6788810567
 21
-5.2900809509
  0
LINE
  5
6E1
100
AcDbEntity
  8
CURVE
100
AcDbLine
 62
253
  6
CONTINUOUS
 10
-69.6788810567
 20
-5.2900809509
 11
-69.6268794491
 21
-5.2750491363
  0
LINE
  5
6E2
100
AcDbEntity
  8
CURVE
100
AcDbLine
 62
253
  6
CONTINUOUS
 10
-70.0329438591
 20
-5.393196471
 11
-69.9334123808
 21
-5.3645838667
  0
LWPOLYLINE
  5
6E3
100
AcDbEntity
  8
CURVE
100
AcDbPolyline
 62
253
  6
CONTINUOUS
 90
3
 70
0
 10
-70.2279174487
 20
-5.448857479
 10
-70.1311769292
 20
-5.4210839187
 10
-70.0329438591
 20
-5.393196471
  0
LINE
  5
6E4
100
AcDbEntity
  8
CURVE
100
AcDbLine
 62
253
  6
CONTINUOUS
 10
-72.5188768013
 20
2.757582602
 11
-69.6188758013
 21
2.757582602
  0
LINE
  5
6E5
100
AcDbEntity
  8
CURVE
100
AcDbLine
 62
253
  6
CONTINUOUS
 10
-55.1219218982
 20
3.056792602
 11
-56.4217239019
 21
3.056792602
  0
LINE
  5
6E6
100
AcDbEntity
  8
CURVE
100
AcDbLine
 62
253
  6
CONTINUOUS
 10
-69.6188758013
 20
3.380188602
 11
-70.7356378013
 21
3.380188602
  0
LINE
  5
6E7
100
AcDbEntity
  8
CURVE
100
AcDbLine
 62
253
  6
CONTINUOUS
 10
-71.2175708013
 20
3.380188602
 11
-72.0369438013
 21
3.380188602
  0
LINE
  5
6E8
100
AcDbEntity
  8
CURVE
100
AcDbLine
 62
253
  6
CONTINUOUS
 10
-56.4217239019
 20
3.7996497781
 11
-55.1219218982
 21
3.7996497781
  0
LWPOLYLINE
  5
6E9
100
AcDbEntity
  8
CURVE
100
AcDbPolyline
 62
253
  6
CONTINUOUS
 90
59
 70
0
 10
-71.6272570836
 20
4.1755524879
 10
-71.6127279116
 20
4.1754439176
 10
-71.5981859837
 20
4.1750993712
 10
-71.5836455865
 20
4.1744905956
 10
-71.5691210063
 20
4.1735893377
 10
-71.5546265296
 20
4.1723673441
 10
-71.5401764429
 20
4.1707963619
 10
-71.5257850327
 20
4.1688481379
 10
-71.5114665853
 20
4.1664944188
 10
-71.5003879828
 20
4.1643651709
 10
-71.4893695198
 20
4.1619613771
 10
-71.4784185391
 20
4.1592709641
 10
-71.4675423833
 20
4.1562818587
 10
-71.456748395
 20
4.1529819878
 10
-71.4460439169
 20
4.1493592781
 10
-71.4354362916
 20
4.1454016563
 10
-71.4249328619
 20
4.1410970495
 10
-71.4145409702
 20
4.1364333842
 10
-71.4042679593
 20
4.1313985873
 10
-71.3941211719
 20
4.1259805857
 10
-71.3841079505
 20
4.1201673061
 10
-71.3749637217
 20
4.1144283507
 10
-71.3659675194
 20
4.1083772397
 10
-71.3571465167
 20
4.1020511909
 10
-71.3485278869
 20
4.0954874223
 10
-71.340138803
 20
4.0887231517
 10
-71.3320064381
 20
4.0817955969
 10
-71.3241579655
 20
4.0747419759
 10
-71.3166205582
 20
4.0675995064
 10
-71.3094213894
 20
4.0604054063
 10
-71.3025876322
 20
4.0531968935
 10
-71.2961464598
 20
4.0460111858
 10
-71.2907135512
 20
4.0395889836
 10
-71.2855988852
 20
4.0331180171
 10
-71.2807823345
 20
4.0265011368
 10
-71.2762437716
 20
4.0196411936
 10
-71.2733625613
 20
4.0148848881
 10
-71.270589992
 20
4.0099485921
 10
-71.2679201
 20
4.0048035206
 10
-71.2653469216
 20
3.9994208887
 10
-71.2628644933
 20
3.9937719113
 10
-71.2604668513
 20
3.9878278035
 10
-71.258474692
 20
3.9824761347
 10
-71.2565366876
 20
3.9768683602
 10
-71.2546490827
 20
3.9709863531
 10
-71.2528081217
 20
3.9648119863
 10
-71.251010049
 20
3.9583271328
 10
-71.2492511091
 20
3.9515136657
 10
-71.2475275465
 20
3.944353458
 10
-71.2456220304
 20
3.9358502079
 10
-71.2437587924
 20
3.9269396322
 10
-71.2419398615
 20
3.9176788213
 10
-71.2401672664
 20
3.9081248659
 10
-71.2384430363
 20
3.8983348563
 10
-71.2367691998
 20
3.888365883
 10
-71.2348299726
 20
3.8762472665
 10
-71.23296974
 20
3.864051805
 10
-71.2311920079
 20
3.8518781508
 10
-71.2295002824
 20
3.8398249563
  0
LINE
  5
6EA
100
AcDbEntity
  8
CURVE
100
AcDbLine
 62
253
  6
CONTINUOUS
 10
-66.6260186625
 20
5.8727926564
 11
-68.1188758013
 21
6.3287925658
  0
LINE
  5
6EB
100
AcDbEntity
  8
CURVE
100
AcDbLine
 62
253
  6
CONTINUOUS
 10
-72.5188768013
 20
8.284641602
 11
-69.6188758013
 21
7.236306602
  0
LINE
  5
6EC
100
AcDbEntity
  8
CURVE
100
AcDbLine
 62
253
  6
CONTINUOUS
 10
-67.5760186908
 20
10.736792747
 11
-68.1188758013
 21
11.3447924571
  0
LINE
  5
6ED
100
AcDbEntity
  8
CURVE
100
AcDbLine
 62
253
  6
CONTINUOUS
 10
-66.4903043849
 20
9.976792602
 11
-66.2188758013
 21
9.672792747
  0
LINE
  5
6EE
100
AcDbEntity
  8
CURVE
100
AcDbLine
 62
253
  6
CONTINUOUS
 10
-56.4217239019
 20
5.2853640528
 11
-56.4217239019
 21
5.7496497006
  0
LINE
  5
6EF
100
AcDbEntity
  8
CURVE
100
AcDbLine
 62
253
  6
CONTINUOUS
 10
-56.4217239019
 20
6.4615545363
 11
-56.4217239019
 21
7.0186974377
  0
LINE
  5
6F0
100
AcDbEntity
  8
CURVE
100
AcDbLine
 62
253
  6
CONTINUOUS
 10
-56.4217239019
 20
12.1258403392
 11
-56.4217239019
 21
12.8686971278
  0
LINE
  5
6F1
100
AcDbEntity
  8
CURVE
100
AcDbLine
 62
253
  6
CONTINUOUS
 10
-55.8646659335
 20
6.8329829306
 11
-55.8646659335
 21
6.4615545363
  0
LINE
  5
6F2
100
AcDbEntity
  8
CURVE
100
AcDbLine
 62
253
  6
CONTINUOUS
 10
-55.4932939159
 20
4.2948878438
 11
-55.4932939159
 21
4.790125987
  0
LINE
  5
6F3
100
AcDbEntity
  8
CURVE
100
AcDbLine
 62
253
  6
CONTINUOUS
 10
-55.4932939159
 20
13.3639351935
 11
-55.4932939159
 21
13.8591732592
  0
LWPOLYLINE
  5
6F4
100
AcDbEntity
  8
CURVE
100
AcDbPolyline
 62
253
  6
CONTINUOUS
 90
62
 70
0
 10
-71.6272570836
 20
4.8383194024
 10
-71.6617153511
 20
4.8379114682
 10
-71.6961701431
 20
4.8366547011
 10
-71.730584306
 20
4.834499654
 10
-71.7649206864
 20
4.8313968802
 10
-71.7991421306
 20
4.8272969327
 10
-71.8293135096
 20
4.8227896606
 10
-71.859336246
 20
4.8173947581
 10
-71.8891809104
 20
4.8110449707
 10
-71.9188180731
 20
4.8036730442
 10
-71.9482183047
 20
4.7952117239
 10
-71.9735794422
 20
4.7869190013
 10
-71.9986875105
 20
4.7777571364
 10
-72.0234911115
 20
4.7677327248
 10
-72.0479388466
 20
4.756852362
 10
-72.0719793176
 20
4.7451226435
 10
-72.0955611262
 20
4.7325501647
 10
-72.118632874
 20
4.7191415213
 10
-72.1411431626
 20
4.7049033086
 10
-72.1630405938
 20
4.6898421221
 10
-72.1842737692
 20
4.6739645575
 10
-72.2034883181
 20
4.6583843136
 10
-72.2220707328
 20
4.6420990342
 10
-72.240014652
 20
4.6251117636
 10
-72.2573137147
 20
4.607425546
 10
-72.2739615597
 20
4.589043426
 10
-72.2899518259
 20
4.5699684477
 10
-72.3052781522
 20
4.5502036556
 10
-72.3199341775
 20
4.529752094
 10
-72.3339135406
 20
4.5086168072
 10
-72.3472098804
 20
4.4868008396
 10
-72.3593016675
 20
4.465294473
 10
-72.3707789433
 20
4.4433034575
 10
-72.3816595094
 20
4.4209646818
 10
-72.3919611678
 20
4.3984150349
 10
-72.4017017202
 20
4.3757914056
 10
-72.4108989683
 20
4.3532306826
 10
-72.419570714
 20
4.330869755
 10
-72.4277347591
 20
4.3088455114
 10
-72.4354089053
 20
4.2872948408
 10
-72.4426109544
 20
4.266354632
 10
-72.4493587083
 20
4.2461617739
 10
-72.4557062295
 20
4.2266574439
 10
-72.4616335447
 20
4.2076740174
 10
-72.4671620687
 20
4.1888377709
 10
-72.4723132166
 20
4.1697749811
 10
-72.4755482371
 20
4.1567560424
 10
-72.4786313978
 20
4.1433595857
 10
-72.4815690439
 20
4.129474878
 10
-72.4843675205
 20
4.1149911866
 10
-72.487033173
 20
4.0997977785
 10
-72.4895723464
 20
4.083783921
 10
-72.4916529234
 20
4.0693208091
 10
-72.4936492347
 20
4.0541038307
 10
-72.4955652758
 20
4.038063253
 10
-72.4974050428
 20
4.0211293434
 10
-72.4991725313
 20
4.0032323692
 10
-72.5008717372
 20
3.9843025979
 10
-72.5025066562
 20
3.9642702968
 10
-72.5040768697
 20
3.9431637214
 10
-72.5055847755
 20
3.9211230904
 10
-72.5084045463
 20
3.8751720487
  0
LINE
  5
6F5
100
AcDbEntity
  8
CURVE
100
AcDbLine
 62
253
  6
CONTINUOUS
 10
-69.6188758013
 20
5.227925602
 11
-72.5188768013
 21
5.227925602
  0
LINE
  5
6F6
100
AcDbEntity
  8
CURVE
100
AcDbLine
 62
253
  6
CONTINUOUS
 10
-68.1188758013
 20
5.2647926292
 11
-66.2188758013
 21
5.2647926292
  0
LINE
  5
6F7
100
AcDbEntity
  8
CURVE
100
AcDbLine
 62
253
  6
CONTINUOUS
 10
-55.1219218982
 20
5.2853640528
 11
-56.4217239019
 21
5.2853640528
  0
LINE
  5
6F8
100
AcDbEntity
  8
CURVE
100
AcDbLine
 62
253
  6
CONTINUOUS
 10
-72.5188768013
 20
5.850531602
 11
-70.1008088013
 21
5.850531602
  0
LINE
  5
6F9
100
AcDbEntity
  8
CURVE
100
AcDbLine
 62
253
  6
CONTINUOUS
 10
-56.2360379124
 20
5.9353638978
 11
-55.307607907
 21
5.9353638978
  0
LINE
  5
6FA
100
AcDbEntity
  8
CURVE
100
AcDbLine
 62
253
  6
CONTINUOUS
 10
-55.1219218982
 20
6.4615545363
 11
-56.4217239019
 21
6.4615545363
  0
LINE
  5
6FB
100
AcDbEntity
  8
CURVE
100
AcDbLine
 62
253
  6
CONTINUOUS
 10
-66.2188758013
 20
6.5821259475
 11
-67.1688758013
 21
6.5821259475
  0
LINE
  5
6FC
100
AcDbEntity
  8
CURVE
100
AcDbLine
 62
253
  6
CONTINUOUS
 10
-70.1008088013
 20
6.923530602
 11
-69.6188758013
 21
6.923530602
  0
LINE
  5
6FD
100
AcDbEntity
  8
CURVE
100
AcDbLine
 62
253
  6
CONTINUOUS
 10
-55.1219218982
 20
4.1710783274
 11
-56.4217239019
 21
4.5425069542
  0
LINE
  5
6FE
100
AcDbEntity
  8
CURVE
100
AcDbLine
 62
253
  6
CONTINUOUS
 10
-70.7154478013
 20
8.208248602
 11
-71.9647168013
 21
8.638263602
  0
LINE
  5
6FF
100
AcDbEntity
  8
CURVE
100
AcDbLine
 62
253
  6
CONTINUOUS
 10
-69.6188758013
 20
7.830756602
 11
-70.2335148013
 21
8.047604602
  0
LINE
  5
700
100
AcDbEntity
  8
CURVE
100
AcDbLine
 62
253
  6
CONTINUOUS
 10
-55.6789799053
 20
3.4282211901
 11
-56.4217239019
 21
3.7996497781
  0
LINE
  5
701
100
AcDbEntity
  8
CURVE
100
AcDbLine
 62
253
  6
CONTINUOUS
 10
-67.5760186908
 20
9.0647925296
 11
-67.8474472461
 21
9.2167924571
  0
LINE
  5
702
100
AcDbEntity
  8
CURVE
100
AcDbLine
 62
253
  6
CONTINUOUS
 10
-66.7617329685
 20
10.1287925296
 11
-66.4903043849
 21
9.976792602
  0
LINE
  5
703
100
AcDbEntity
  8
CURVE
100
AcDbLine
 62
253
  6
CONTINUOUS
 10
-67.4403043566
 20
15.9047923121
 11
-67.1688758013
 21
15.6007924571
  0
LINE
  5
704
100
AcDbEntity
  8
CURVE
100
AcDbLine
 62
253
  6
CONTINUOUS
 10
-55.1219218982
 20
5.7496497006
 11
-55.1219218982
 21
5.2853640528
  0
LINE
  5
705
100
AcDbEntity
  8
CURVE
100
AcDbLine
 62
253
  6
CONTINUOUS
 10
-55.1219218982
 20
6.4615545363
 11
-55.1219218982
 21
7.0186974377
  0
LINE
  5
706
100
AcDbEntity
  8
CURVE
100
AcDbLine
 62
253
  6
CONTINUOUS
 10
-55.1219218982
 20
14.3544119448
 11
-55.1219218982
 21
14.8186971278
  0
LINE
  5
707
100
AcDbEntity
  8
CURVE
100
AcDbLine
 62
253
  6
CONTINUOUS
 10
-69.6268798013
 20
-10.983312398
 11
-71.5202988013
 21
-11.693369398
  0
LINE
  5
708
100
AcDbEntity
  8
CURVE
100
AcDbLine
 62
253
  6
CONTINUOUS
 10
-72.5265328013
 20
-11.536441398
 11
-70.9166368013
 21
-10.937562398
  0
LINE
  5
709
100
AcDbEntity
  8
CURVE
100
AcDbLine
 62
253
  6
CONTINUOUS
 10
-67.3045901356
 20
7.5447924933
 11
-68.1188758013
 21
7.5447924933
  0
LINE
  5
70A
100
AcDbEntity
  8
CURVE
100
AcDbLine
 62
253
  6
CONTINUOUS
 10
-66.4903043849
 20
8.4567925658
 11
-67.0331615237
 21
8.4567925658
  0
LINE
  5
70B
100
AcDbEntity
  8
CURVE
100
AcDbLine
 62
253
  6
CONTINUOUS
 10
-55.1219218982
 20
8.6591732592
 11
-56.4217239019
 21
8.6591732592
  0
LINE
  5
70C
100
AcDbEntity
  8
CURVE
100
AcDbLine
 62
253
  6
CONTINUOUS
 10
-66.7617329685
 20
9.0647925296
 11
-67.5760186908
 21
9.0647925296
  0
LINE
  5
70D
100
AcDbEntity
  8
CURVE
100
AcDbLine
 62
253
  6
CONTINUOUS
 10
-55.1219218982
 20
9.2472687335
 11
-56.4217239019
 21
9.2472687335
  0
LINE
  5
70E
100
AcDbEntity
  8
CURVE
100
AcDbLine
 62
253
  6
CONTINUOUS
 10
-66.4450662782
 20
12.2567925296
 11
-66.5355424774
 21
12.3074595103
  0
LINE
  5
70F
100
AcDbEntity
  8
CURVE
100
AcDbLine
 62
253
  6
CONTINUOUS
 10
-66.3998281857
 20
12.4594594378
 11
-66.3093519935
 21
12.4087924571
  0
LINE
  5
710
100
AcDbEntity
  8
CURVE
100
AcDbLine
 62
253
  6
CONTINUOUS
 10
-55.307607907
 20
5.9353638978
 11
-55.1219218982
 21
5.7496497006
  0
LINE
  5
711
100
AcDbEntity
  8
CURVE
100
AcDbLine
 62
253
  6
CONTINUOUS
 10
-66.4903043849
 20
16.056792747
 11
-66.2188758013
 21
15.752792892
  0
LINE
  5
712
100
AcDbEntity
  8
CURVE
100
AcDbLine
 62
253
  6
CONTINUOUS
 10
-55.1219218982
 20
9.8972687335
 11
-56.4217239019
 21
9.8972687335
  0
LINE
  5
713
100
AcDbEntity
  8
RACCORDO
100
AcDbLine
 62
253
  6
CONTINUOUS
 10
-85.6188758013
 20
10.006792602
 11
-85.5189284254
 21
10.006792602
  0
LINE
  5
714
100
AcDbEntity
  8
CURVE
100
AcDbLine
 62
253
  6
CONTINUOUS
 10
-67.5760186908
 20
10.1287925296
 11
-66.7617329685
 21
10.1287925296
  0
LINE
  5
715
100
AcDbEntity
  8
CURVE
100
AcDbLine
 62
253
  6
CONTINUOUS
 10
-69.6188758013
 20
10.349117602
 11
-72.5188768013
 21
10.349117602
  0
LINE
  5
716
100
AcDbEntity
  8
CURVE
100
AcDbLine
 62
253
  6
CONTINUOUS
 10
-72.0459798013
 20
10.931562602
 11
-69.6188758013
 21
10.931562602
  0
LINE
  5
717
100
AcDbEntity
  8
CURVE
100
AcDbLine
 62
253
  6
CONTINUOUS
 10
-68.1188758013
 20
11.3447924571
 11
-66.2188758013
 21
11.3447924571
  0
LINE
  5
718
100
AcDbEntity
  8
CURVE
100
AcDbLine
 62
253
  6
CONTINUOUS
 10
-55.1219218982
 20
11.5377448649
 11
-56.4217239019
 21
11.5377448649
  0
LINE
  5
719
100
AcDbEntity
  8
CURVE
100
AcDbLine
 62
253
  6
CONTINUOUS
 10
-63.2149528013
 20
11.671682602
 11
-62.4641358013
 21
11.671682602
  0
LINE
  5
71A
100
AcDbEntity
  8
CURVE
100
AcDbLine
 62
253
  6
CONTINUOUS
 10
-58.8696958013
 20
11.671682602
 11
-58.1188788013
 21
11.671682602
  0
LINE
  5
71B
100
AcDbEntity
  8
CURVE
100
AcDbLine
 62
253
  6
CONTINUOUS
 10
-66.2188758013
 20
13.168792602
 11
-68.1188758013
 21
13.7767923121
  0
LINE
  5
71C
100
AcDbEntity
  8
CURVE
100
AcDbLine
 62
253
  6
CONTINUOUS
 10
-70.7154478013
 20
14.233283602
 11
-71.9645528013
 21
14.663241602
  0
LINE
  5
71D
100
AcDbEntity
  8
CURVE
100
AcDbLine
 62
253
  6
CONTINUOUS
 10
-69.6188758013
 20
13.855681602
 11
-70.2335148013
 21
14.072638602
  0
LINE
  5
71E
100
AcDbEntity
  8
CURVE
100
AcDbLine
 62
253
  6
CONTINUOUS
 10
-72.5188768013
 20
14.309676602
 11
-69.6188758013
 21
13.261232602
  0
LINE
  5
71F
100
AcDbEntity
  8
RACCORDO
100
AcDbLine
 62
7
  6
CONTINUOUS
 10
-77.6188758013
 20
-23.0658571288
 11
-78.4938758013
 21
-23.5710386143
  0
LINE
  5
720
100
AcDbEntity
  8
RACCORDO
100
AcDbLine
 62
253
  6
CONTINUOUS
 10
-77.3703302342
 20
-23.2101946961
 11
-78.3703302342
 21
-23.7875449653
  0
LINE
  5
721
100
AcDbEntity
  8
CURVE
100
AcDbLine
 62
253
  6
CONTINUOUS
 10
-69.6268798013
 20
-15.024220398
 11
-72.5265328013
 21
-15.943467398
  0
LINE
  5
722
100
AcDbEntity
  8
CURVE
100
AcDbLine
 62
253
  6
CONTINUOUS
 10
-66.3998281857
 20
12.2567925296
 11
-66.4450662782
 21
12.2567925296
  0
LINE
  5
723
100
AcDbEntity
  8
CURVE
100
AcDbLine
 62
253
  6
CONTINUOUS
 10
-70.2207628013
 20
12.385546602
 11
-72.5188768013
 21
12.385546602
  0
LINE
  5
724
100
AcDbEntity
  8
CURVE
100
AcDbLine
 62
253
  6
CONTINUOUS
 10
-66.4450662782
 20
12.4594594378
 11
-66.3998281857
 21
12.4594594378
  0
LINE
  5
725
100
AcDbEntity
  8
CURVE
100
AcDbLine
 62
253
  6
CONTINUOUS
 10
-55.1219218982
 20
12.4972687335
 11
-56.4217239019
 21
12.4972687335
  0
LINE
  5
726
100
AcDbEntity
  8
CURVE
100
AcDbLine
 62
253
  6
CONTINUOUS
 10
-72.5188768013
 20
12.967990602
 11
-69.6188758013
 21
12.967990602
  0
LINE
  5
727
100
AcDbEntity
  8
RACCORDO
100
AcDbLine
 62
253
  6
CONTINUOUS
 10
-85.6188758013
 20
13.506792602
 11
-85.4370488129
 21
13.506792603
  0
LINE
  5
728
100
AcDbEntity
  8
RACCORDO
100
AcDbLine
 62
7
  6
CONTINUOUS
 10
-78.4938758013
 20
23.6846238184
 11
-77.6188758013
 21
23.1794423329
  0
LINE
  5
729
100
AcDbEntity
  8
RACCORDO
100
AcDbLine
 62
253
  6
CONTINUOUS
 10
-78.3703302342
 20
23.9011301693
 11
-77.3703302342
 21
23.3237799001
  0
LINE
  5
72A
100
AcDbEntity
  8
CURVE
100
AcDbLine
 62
253
  6
CONTINUOUS
 10
-56.4217239019
 20
14.3544119448
 11
-55.1219218982
 21
14.3544119448
  0
LINE
  5
72B
100
AcDbEntity
  8
CURVE
100
AcDbLine
 62
253
  6
CONTINUOUS
 10
-66.2188758013
 20
14.992792747
 11
-68.1188758013
 21
14.992792747
  0
LINE
  5
72C
100
AcDbEntity
  8
CURVE
100
AcDbLine
 62
253
  6
CONTINUOUS
 10
-55.8646659335
 20
15.5615539164
 11
-55.1219218982
 21
15.5615539164
  0
LINE
  5
72D
100
AcDbEntity
  8
CURVE
100
AcDbLine
 62
253
  6
CONTINUOUS
 10
-61.0419158013
 20
15.656792602
 11
-60.2919158013
 21
15.656792602
  0
LINE
  5
72E
100
AcDbEntity
  8
CURVE
100
AcDbLine
 62
253
  6
CONTINUOUS
 10
-67.8474472461
 20
15.9047923121
 11
-67.4403043566
 21
15.9047923121
  0
LINE
  5
72F
100
AcDbEntity
  8
CURVE
100
AcDbLine
 62
253
  6
CONTINUOUS
 10
-66.8974472461
 20
16.056792747
 11
-66.4903043849
 21
16.056792747
  0
LINE
  5
730
100
AcDbEntity
  8
CURVE
100
AcDbLine
 62
253
  6
CONTINUOUS
 10
-63.2149529191
 20
16.056792602
 11
-62.4641358013
 21
16.056792602
  0
LINE
  5
731
100
AcDbEntity
  8
CURVE
100
AcDbLine
 62
253
  6
CONTINUOUS
 10
-58.8696988498
 20
16.056792602
 11
-58.1188786836
 21
16.056792602
  0
LINE
  5
732
100
AcDbEntity
  8
CURVE
100
AcDbLine
 62
253
  6
CONTINUOUS
 10
-55.1219218982
 20
13.240126142
 11
-56.4217239019
 21
13.6115539164
  0
LINE
  5
733
100
AcDbEntity
  8
RACCORDO
100
AcDbLine
 62
253
  6
CONTINUOUS
 10
-39.1188758013
 20
17.4753111058
 11
-40.1014233949
 21
17.4753111058
  0
LINE
  5
734
100
AcDbEntity
  8
ASSI
100
AcDbLine
 62
253
  6
CONTINUOUS
 10
-39.1188758013
 20
17.4753111058
 11
-40.1014233949
 21
17.4753111058
  0
LINE
  5
735
100
AcDbEntity
  8
RACCORDO
100
AcDbLine
 62
253
  6
CONTINUOUS
 10
-40.1014233949
 20
17.4753111058
 11
-75.1188758013
 21
17.7284916508
  0
LINE
  5
736
100
AcDbEntity
  8
ASSI
100
AcDbLine
 62
253
  6
CONTINUOUS
 10
-40.1014233949
 20
17.4753111058
 11
-75.1188758013
 21
17.7284916508
  0
LINE
  5
737
100
AcDbEntity
  8
CURVE
100
AcDbLine
 62
253
  6
CONTINUOUS
 10
-55.8646659335
 20
15.5615539164
 11
-56.4217239019
 21
15.9329835505
  0
LINE
  5
738
100
AcDbEntity
  8
RACCORDO
100
AcDbLine
 62
253
  6
CONTINUOUS
 10
-43.6793556518
 20
-18.9604755887
 11
-43.680631547
 21
-18.8016021935
  0
LINE
  5
739
100
AcDbEntity
  8
ASSI
100
AcDbLine
 62
253
  6
CONTINUOUS
 10
-43.6793556518
 20
-18.9604755887
 11
-43.680631547
 21
-18.8016021935
  0
LINE
  5
73A
100
AcDbEntity
  8
RACCORDO
100
AcDbLine
 62
253
  6
CONTINUOUS
 10
-43.6792120705
 20
19.1477138377
 11
-43.6793556508
 21
19.0740607831
  0
LINE
  5
73B
100
AcDbEntity
  8
ASSI
100
AcDbLine
 62
253
  6
CONTINUOUS
 10
-43.6792120705
 20
19.1477138377
 11
-43.6793556508
 21
19.0740607831
  0
LINE
  5
73C
100
AcDbEntity
  8
RACCORDO
100
AcDbLine
 62
253
  6
CONTINUOUS
 10
-43.6793556508
 20
19.0740607831
 11
-43.680631547
 21
18.9151873976
  0
LINE
  5
73D
100
AcDbEntity
  8
ASSI
100
AcDbLine
 62
253
  6
CONTINUOUS
 10
-43.6793556508
 20
19.0740607831
 11
-43.680631547
 21
18.9151873976
  0
LINE
  5
73E
100
AcDbEntity
  8
RACCORDO
100
AcDbLine
 62
253
  6
CONTINUOUS
 10
-43.680631547
 20
18.9151873976
 11
-75.1188758013
 21
19.1424898216
  0
LINE
  5
73F
100
AcDbEntity
  8
ASSI
100
AcDbLine
 62
253
  6
CONTINUOUS
 10
-43.680631547
 20
18.9151873976
 11
-75.1188758013
 21
19.1424898216
  0
LINE
  5
740
100
AcDbEntity
  8
RACCORDO
100
AcDbLine
 62
253
  6
CONTINUOUS
 10
-65.1188758013
 20
19.289393343
 11
-43.680631547
 21
18.9151873976
  0
LINE
  5
741
100
AcDbEntity
  8
ASSI
100
AcDbLine
 62
253
  6
CONTINUOUS
 10
-65.1188758013
 20
19.289393343
 11
-43.680631547
 21
18.9151873976
  0
LINE
  5
742
100
AcDbEntity
  8
RACCORDO
100
AcDbLine
 62
7
  6
CONTINUOUS
 10
-65.1188758013
 20
19.5822419528
 11
-40.1014233949
 21
19.1455606967
  0
LINE
  5
743
100
AcDbEntity
  8
ASSI
100
AcDbLine
 62
7
  6
CONTINUOUS
 10
-65.1188758013
 20
19.5822419528
 11
-40.1014233949
 21
19.1455606967
  0
LINE
  5
744
100
AcDbEntity
  8
DRAFT
100
AcDbLine
 62
7
  6
CONTINUOUS
 10
-65.1188758013
 20
20.7322419528
 11
-75.1188758013
 21
20.906792602
  0
LINE
  5
745
100
AcDbEntity
  8
ASSI
100
AcDbLine
 62
7
  6
CONTINUOUS
 10
-65.1188758013
 20
20.7322419528
 11
-75.1188758013
 21
20.906792602
  0
LINE
  5
746
100
AcDbEntity
  8
RACCORDO
100
AcDbLine
 62
253
  6
CONTINUOUS
 10
-43.680631547
 20
18.9151873976
 11
-40.1010801859
 21
18.8161122138
  0
LINE
  5
747
100
AcDbEntity
  8
ASSI
100
AcDbLine
 62
253
  6
CONTINUOUS
 10
-43.680631547
 20
18.9151873976
 11
-40.1010801859
 21
18.8161122138
  0
LINE
  5
748
100
AcDbEntity
  8
RACCORDO
100
AcDbLine
 62
253
  6
CONTINUOUS
 10
-84.705030971
 20
20.5986984585
 11
-85.1909109679
 21
20.6190057707
  0
LWPOLYLINE
  5
749
100
AcDbEntity
  8
RACCORDO
100
AcDbPolyline
 62
253
  6
CONTINUOUS
 90
3
 70
0
 10
-85.1909109679
 20
20.6190057707
 10
-85.1953291086
 20
20.6192212764
 10
-85.1958817735
 20
20.6192609268
  0
LWPOLYLINE
  5
74A
100
AcDbEntity
  8
RACCORDO
100
AcDbPolyline
 62
253
  6
CONTINUOUS
 90
5
 70
0
 10
-40.1010807897
 20
18.8161124201
 10
-40.1017316774
 20
18.8822249175
 10
-40.1010127283
 20
18.9417316258
 10
-40.0997209747
 20
18.9942581871
 10
-40.0991536089
 20
19.0397625237
  0
LWPOLYLINE
  5
74B
100
AcDbEntity
  8
ASSI
100
AcDbPolyline
 62
253
  6
CONTINUOUS
 90
5
 70
0
 10
-40.1010807897
 20
18.8161124201
 10
-40.1017316774
 20
18.8822249175
 10
-40.1010127283
 20
18.9417316258
 10
-40.0997209747
 20
18.9942581871
 10
-40.0991536089
 20
19.0397625237
  0
LWPOLYLINE
  5
74C
100
AcDbEntity
  8
RACCORDO
100
AcDbPolyline
 62
253
  6
CONTINUOUS
 90
5
 70
0
 10
-40.0991536089
 20
19.0397625237
 10
-40.0998381893
 20
19.1069714418
 10
-40.0995999453
 20
19.1280885478
 10
-40.0999170046
 20
19.1410690046
 10
-40.1014233949
 20
19.1455606967
  0
LWPOLYLINE
  5
74D
100
AcDbEntity
  8
ASSI
100
AcDbPolyline
 62
253
  6
CONTINUOUS
 90
5
 70
0
 10
-40.0991536089
 20
19.0397625237
 10
-40.0998381893
 20
19.1069714418
 10
-40.0995999453
 20
19.1280885478
 10
-40.0999170046
 20
19.1410690046
 10
-40.1014233949
 20
19.1455606967
  0
LINE
  5
74E
100
AcDbEntity
  8
RACCORDO
100
AcDbLine
 62
253
  6
CONTINUOUS
 10
-40.1014233949
 20
-17.3617259017
 11
-40.1004837969
 21
-17.6865655946
  0
LINE
  5
74F
100
AcDbEntity
  8
ASSI
100
AcDbLine
 62
253
  6
CONTINUOUS
 10
-40.1014233949
 20
-17.3617259017
 11
-40.1004837969
 21
-17.6865655946
  0
LINE
  5
750
100
AcDbEntity
  8
RACCORDO
100
AcDbLine
 62
253
  6
CONTINUOUS
 10
-40.1010801859
 20
18.8161122138
 11
-40.1002889712
 21
18.5572033103
  0
LINE
  5
751
100
AcDbEntity
  8
ASSI
100
AcDbLine
 62
253
  6
CONTINUOUS
 10
-40.1010801859
 20
18.8161122138
 11
-40.1002889712
 21
18.5572033103
  0
LINE
  5
752
100
AcDbEntity
  8
RACCORDO
100
AcDbLine
 62
253
  6
CONTINUOUS
 10
-40.1004837969
 20
-17.6865655946
 11
-40.1000254913
 21
-18.0031346471
  0
LINE
  5
753
100
AcDbEntity
  8
ASSI
100
AcDbLine
 62
253
  6
CONTINUOUS
 10
-40.1004837969
 20
-17.6865655946
 11
-40.1000254913
 21
-18.0031346471
  0
LINE
  5
754
100
AcDbEntity
  8
RACCORDO
100
AcDbLine
 62
253
  6
CONTINUOUS
 10
-40.1002889712
 20
18.5572033103
 11
-40.0999865223
 21
18.2692484443
  0
LINE
  5
755
100
AcDbEntity
  8
ASSI
100
AcDbLine
 62
253
  6
CONTINUOUS
 10
-40.1002889712
 20
18.5572033103
 11
-40.0999865223
 21
18.2692484443
  0
LINE
  5
756
100
AcDbEntity
  8
RACCORDO
100
AcDbLine
 62
253
  6
CONTINUOUS
 10
-40.1014233949
 20
17.4753111058
 11
-40.1014233949
 21
-17.3617259017
  0
LINE
  5
757
100
AcDbEntity
  8
ASSI
100
AcDbLine
 62
253
  6
CONTINUOUS
 10
-40.1014233949
 20
17.4753111058
 11
-40.1014233949
 21
-17.3617259017
  0
LINE
  5
758
100
AcDbEntity
  8
RACCORDO
100
AcDbLine
 62
253
  6
CONTINUOUS
 10
-40.1000254913
 20
-18.0031346471
 11
-40.1000749865
 21
-18.3028299755
  0
LINE
  5
759
100
AcDbEntity
  8
ASSI
100
AcDbLine
 62
253
  6
CONTINUOUS
 10
-40.1000254913
 20
-18.0031346471
 11
-40.1000749865
 21
-18.3028299755
  0
LINE
  5
75A
100
AcDbEntity
  8
RACCORDO
100
AcDbLine
 62
253
  6
CONTINUOUS
 10
-40.0999865223
 20
18.2692484443
 11
-40.1001920885
 21
17.9599871582
  0
LINE
  5
75B
100
AcDbEntity
  8
ASSI
100
AcDbLine
 62
253
  6
CONTINUOUS
 10
-40.0999865223
 20
18.2692484443
 11
-40.1001920885
 21
17.9599871582
  0
LWPOLYLINE
  5
75C
100
AcDbEntity
  8
RACCORDO
100
AcDbPolyline
 62
253
  6
CONTINUOUS
 90
3
 70
0
 10
-40.1001920885
 20
17.9599871582
 10
-40.1008961794
 20
17.6382321886
 10
-40.1014233949
 20
17.4753111058
  0
LWPOLYLINE
  5
75D
100
AcDbEntity
  8
ASSI
100
AcDbPolyline
 62
253
  6
CONTINUOUS
 90
3
 70
0
 10
-40.1001920885
 20
17.9599871582
 10
-40.1008961794
 20
17.6382321886
 10
-40.1014233949
 20
17.4753111058
  0
LWPOLYLINE
  5
75E
100
AcDbEntity
  8
RACCORDO
100
AcDbPolyline
 62
253
  6
CONTINUOUS
 90
3
 70
0
 10
-40.1000749865
 20
-18.3028299755
 10
-40.1006256295
 20
-18.5771436207
 10
-40.101080186
 20
-18.7025270071
  0
LWPOLYLINE
  5
75F
100
AcDbEntity
  8
ASSI
100
AcDbPolyline
 62
253
  6
CONTINUOUS
 90
3
 70
0
 10
-40.1000749865
 20
-18.3028299755
 10
-40.1006256295
 20
-18.5771436207
 10
-40.101080186
 20
-18.7025270071
  0
LWPOLYLINE
  5
760
100
AcDbEntity
  8
RACCORDO
100
AcDbPolyline
 62
253
  6
CONTINUOUS
 90
6
 70
0
 10
-40.0998381893
 20
-18.9933862377
 10
-40.0991536089
 20
-18.9261773196
 10
-40.0997209747
 20
-18.8806729829
 10
-40.1010127283
 20
-18.8281464216
 10
-40.1017316774
 20
-18.7686397134
 10
-40.1010807897
 20
-18.7025272161
  0
LWPOLYLINE
  5
761
100
AcDbEntity
  8
ASSI
100
AcDbPolyline
 62
253
  6
CONTINUOUS
 90
6
 70
0
 10
-40.0998381893
 20
-18.9933862377
 10
-40.0991536089
 20
-18.9261773196
 10
-40.0997209747
 20
-18.8806729829
 10
-40.1010127283
 20
-18.8281464216
 10
-40.1017316774
 20
-18.7686397134
 10
-40.1010807897
 20
-18.7025272161
  0
LWPOLYLINE
  5
762
100
AcDbEntity
  8
RACCORDO
100
AcDbPolyline
 62
253
  6
CONTINUOUS
 90
6
 70
0
 10
-43.680631547
 20
-19.0944508033
 10
-43.6800680998
 20
-19.0906363086
 10
-43.6796417201
 20
-19.0792438337
 10
-43.6793556518
 20
-19.0603600543
 10
-43.6792120715
 20
-19.0341286412
 10
-43.6793556518
 20
-18.9604755887
  0
LWPOLYLINE
  5
763
100
AcDbEntity
  8
ASSI
100
AcDbPolyline
 62
253
  6
CONTINUOUS
 90
6
 70
0
 10
-43.680631547
 20
-19.0944508033
 10
-43.6800680998
 20
-19.0906363086
 10
-43.6796417201
 20
-19.0792438337
 10
-43.6793556518
 20
-19.0603600543
 10
-43.6792120715
 20
-19.0341286412
 10
-43.6793556518
 20
-18.9604755887
  0
LWPOLYLINE
  5
764
100
AcDbEntity
  8
RACCORDO
100
AcDbPolyline
 62
253
  6
CONTINUOUS
 90
43
 70
0
 10
-83.7582129153
 20
21.5562030566
 10
-83.7933554415
 20
21.5537369273
 10
-83.8283080901
 20
21.5500496907
 10
-83.8630708613
 20
21.545141347
 10
-83.8976875561
 20
21.53900279
 10
-83.9321143733
 20
21.5316431259
 10
-83.9662199098
 20
21.5230896728
 10
-84.0000019662
 20
21.5133379544
 10
-84.0334627417
 20
21.502392447
 10
-84.0664774309
 20
21.4902938978
 10
-84.0990440007
 20
21.4770381189
 10
-84.1311644841
 20
21.4626292982
 10
-84.1627201747
 20
21.4471207453
 10
-84.1937090405
 20
21.4305083843
 10
-84.2241331136
 20
21.4127962911
 10
-84.2538797828
 20
21.3940500034
 10
-84.2829466447
 20
21.3742655969
 10
-84.3113361028
 20
21.3534469959
 10
-84.3389427565
 20
21.3316715106
 10
-84.3657635963
 20
21.3089356563
 10
-84.3918016316
 20
21.2852429177
 10
-84.4169604901
 20
21.2606810583
 10
-84.4412369089
 20
21.2352468717
 10
-84.4646341509
 20
21.2089435642
 10
-84.4870656321
 20
21.1818685186
 10
-84.5085278303
 20
21.1540187822
 10
-84.5290242677
 20
21.1253973075
 10
-84.5484789267
 20
21.096110335
 10
-84.5668878678
 20
21.0661554977
 10
-84.5842550305
 20
21.0355351626
 10
-84.6005162161
 20
21.0043626703
 10
-84.6156673281
 20
20.9726360472
 10
-84.629712463
 20
20.9403572669
 10
-84.6425997116
 20
20.9076455912
 10
-84.6543248627
 20
20.8744990338
 10
-84.6648921276
 20
20.8409195809
 10
-84.6742622315
 20
20.8070324524
 10
-84.6824307106
 20
20.7728349613
 10
-84.6894020288
 20
20.7383297945
 10
-84.6951503023
 20
20.7036502328
 10
-84.6996669032
 20
20.668840703
 10
-84.7029604594
 20
20.6338567783
 10
-84.705030971
 20
20.5986984585
  0
LINE
  5
765
100
AcDbEntity
  8
RACCORDO
100
AcDbLine
 62
253
  6
CONTINUOUS
 10
-76.1166894723
 20
21.9566783306
 11
-83.7582129153
 21
21.5562030566
  0
LINE
  5
766
100
AcDbEntity
  8
RACCORDO
100
AcDbLine
 62
7
  6
CONTINUOUS
 10
-77.3703302342
 20
22.3902035635
 11
-77.3919734316
 21
22.3891155513
  0
LINE
  5
767
100
AcDbEntity
  8
RACCORDO
100
AcDbLine
 62
7
  6
CONTINUOUS
 10
-77.3919734316
 20
22.3891155513
 11
-77.4134496996
 21
22.3881399697
  0
LINE
  5
768
100
AcDbEntity
  8
RACCORDO
100
AcDbLine
 62
7
  6
CONTINUOUS
 10
-77.4653332414
 20
22.3860331015
 11
-77.4944189433
 21
22.3847034407
  0
LINE
  5
769
100
AcDbEntity
  8
RACCORDO
100
AcDbLine
 62
7
  6
CONTINUOUS
 10
-77.4134496996
 20
22.3881399697
 11
-77.4653332414
 21
22.3860331015
  0
LINE
  5
76A
100
AcDbEntity
  8
RACCORDO
100
AcDbLine
 62
7
  6
CONTINUOUS
 10
-65.6101495981
 20
21.6227680353
 11
-75.1188758013
 21
21.456792602
  0
LINE
  5
76B
100
AcDbEntity
  8
RACCORDO
100
AcDbLine
 62
7
  6
CONTINUOUS
 10
-65.1188758013
 20
20.956792602
 11
-75.1188758013
 21
20.956792602
  0
LINE
  5
76C
100
AcDbEntity
  8
DRAFT
100
AcDbLine
 62
7
  6
CONTINUOUS
 10
-68.1188758013
 20
22.456792602
 11
-65.1188758013
 21
22.456792602
  0
LINE
  5
76D
100
AcDbEntity
  8
ASSI
100
AcDbLine
 62
7
  6
CONTINUOUS
 10
-68.1188758013
 20
22.456792602
 11
-65.1188758013
 21
22.456792602
  0
LINE
  5
76E
100
AcDbEntity
  8
RACCORDO
100
AcDbLine
 62
253
  6
CONTINUOUS
 10
-75.1188758013
 20
21.9479705426
 11
-76.1166894723
 21
21.9566783306
  0
LINE
  5
76F
100
AcDbEntity
  8
RACCORDO
100
AcDbLine
 62
7
  6
CONTINUOUS
 10
-66.1101492658
 20
22.3694477688
 11
-76.1188758013
 21
22.456792602
  0
LWPOLYLINE
  5
770
100
AcDbEntity
  8
RACCORDO
100
AcDbPolyline
 62
253
  6
CONTINUOUS
 90
5
 70
0
 10
-43.680631547
 20
19.2080360074
 10
-43.6800680994
 20
19.2042215119
 10
-43.6796417194
 20
19.192829035
 10
-43.6793556509
 20
19.1739452531
 10
-43.6792120705
 20
19.1477138377
  0
LWPOLYLINE
  5
771
100
AcDbEntity
  8
ASSI
100
AcDbPolyline
 62
253
  6
CONTINUOUS
 90
5
 70
0
 10
-43.680631547
 20
19.2080360074
 10
-43.6800680994
 20
19.2042215119
 10
-43.6796417194
 20
19.192829035
 10
-43.6793556509
 20
19.1739452531
 10
-43.6792120705
 20
19.1477138377
  0
LWPOLYLINE
  5
772
100
AcDbEntity
  8
RACCORDO
100
AcDbPolyline
 62
253
  6
CONTINUOUS
 90
19
 70
0
 10
-39.1188758013
 20
18.1457130015
 10
-39.1225114291
 20
18.2041550908
 10
-39.1335111778
 20
18.2611140043
 10
-39.1518916197
 20
18.3166686583
 10
-39.1774573686
 20
18.3714969779
 10
-39.2099856353
 20
18.4253665402
 10
-39.2493706344
 20
18.4768153075
 10
-39.295262958
 20
18.5256797865
 10
-39.3472046651
 20
18.5722164512
 10
-39.4049844655
 20
18.6152504314
 10
-39.4680940127
 20
18.6546765251
 10
-39.5359419811
 20
18.69064724
 10
-39.6082409341
 20
18.7222282743
 10
-39.6843513685
 20
18.7495245123
 10
-39.7635815743
 20
18.7726471582
 10
-39.8455962835
 20
18.7906707374
 10
-39.9297888253
 20
18.8034861102
 10
-40.0152310128
 20
18.8118213486
 10
-40.1010807897
 20
18.8161124201
  0
LWPOLYLINE
  5
773
100
AcDbEntity
  8
ASSI
100
AcDbPolyline
 62
253
  6
CONTINUOUS
 90
19
 70
0
 10
-39.1188758013
 20
18.1457130015
 10
-39.1225114291
 20
18.2041550908
 10
-39.1335111778
 20
18.2611140043
 10
-39.1518916197
 20
18.3166686583
 10
-39.1774573686
 20
18.3714969779
 10
-39.2099856353
 20
18.4253665402
 10
-39.2493706344
 20
18.4768153075
 10
-39.295262958
 20
18.5256797865
 10
-39.3472046651
 20
18.5722164512
 10
-39.4049844655
 20
18.6152504314
 10
-39.4680940127
 20
18.6546765251
 10
-39.5359419811
 20
18.69064724
 10
-39.6082409341
 20
18.7222282743
 10
-39.6843513685
 20
18.7495245123
 10
-39.7635815743
 20
18.7726471582
 10
-39.8455962835
 20
18.7906707374
 10
-39.9297888253
 20
18.8034861102
 10
-40.0152310128
 20
18.8118213486
 10
-40.1010807897
 20
18.8161124201
  0
LINE
  5
774
100
AcDbEntity
  8
CURVE
100
AcDbLine
 62
253
  6
DASHED
 10
-39.1188758013
 20
-17.3617259017
 11
-39.1188758013
 21
-17.9541470135
  0
LINE
  5
775
100
AcDbEntity
  8
RACCORDO
100
AcDbLine
 62
7
  6
CONTINUOUS
 10
-39.1188758013
 20
18.1457130015
 11
-39.1188758013
 21
-18.0321277974
  0
LINE
  5
776
100
AcDbEntity
  8
ASSI
100
AcDbLine
 62
7
  6
CONTINUOUS
 10
-39.1188758013
 20
18.1457130015
 11
-39.1188758013
 21
-18.0321277974
  0
LWPOLYLINE
  5
777
100
AcDbEntity
  8
RACCORDO
100
AcDbPolyline
 62
253
  6
CONTINUOUS
 90
19
 70
0
 10
-39.1188758013
 20
-18.0321277974
 10
-39.1225114291
 20
-18.0905698868
 10
-39.1335111778
 20
-18.1475288004
 10
-39.1518916197
 20
-18.2030834545
 10
-39.1774573686
 20
-18.2579117742
 10
-39.2099856353
 20
-18.3117813366
 10
-39.2493706344
 20
-18.3632301039
 10
-39.2952629581
 20
-18.4120945829
 10
-39.3472046651
 20
-18.4586312477
 10
-39.4049844655
 20
-18.5016652279
 10
-39.4680940127
 20
-18.5410913215
 10
-39.5359419811
 20
-18.5770620364
 10
-39.608240934
 20
-18.6086430706
 10
-39.6843513685
 20
-18.6359393087
 10
-39.7635815743
 20
-18.6590619545
 10
-39.8455962835
 20
-18.6770855336
 10
-39.9297888253
 20
-18.6899009064
 10
-40.0152310127
 20
-18.6982361447
 10
-40.1010807897
 20
-18.7025272161
  0
LWPOLYLINE
  5
778
100
AcDbEntity
  8
ASSI
100
AcDbPolyline
 62
253
  6
CONTINUOUS
 90
19
 70
0
 10
-39.1188758013
 20
-18.0321277974
 10
-39.1225114291
 20
-18.0905698868
 10
-39.1335111778
 20
-18.1475288004
 10
-39.1518916197
 20
-18.2030834545
 10
-39.1774573686
 20
-18.2579117742
 10
-39.2099856353
 20
-18.3117813366
 10
-39.2493706344
 20
-18.3632301039
 10
-39.2952629581
 20
-18.4120945829
 10
-39.3472046651
 20
-18.4586312477
 10
-39.4049844655
 20
-18.5016652279
 10
-39.4680940127
 20
-18.5410913215
 10
-39.5359419811
 20
-18.5770620364
 10
-39.608240934
 20
-18.6086430706
 10
-39.6843513685
 20
-18.6359393087
 10
-39.7635815743
 20
-18.6590619545
 10
-39.8455962835
 20
-18.6770855336
 10
-39.9297888253
 20
-18.6899009064
 10
-40.0152310127
 20
-18.6982361447
 10
-40.1010807897
 20
-18.7025272161
  0
LINE
  5
779
100
AcDbEntity
  8
RACCORDO
100
AcDbLine
 62
7
  6
CONTINUOUS
 10
-77.3703302342
 20
22.3902035635
 11
-76.1188758013
 21
22.4565006792
  0
LINE
  5
77A
100
AcDbEntity
  8
RACCORDO
100
AcDbLine
 62
7
  6
CONTINUOUS
 10
-83.7756546902
 20
22.055517824
 11
-77.4944189433
 21
22.3847034407
  0
LINE
  5
77B
100
AcDbEntity
  8
RACCORDO
100
AcDbLine
 62
253
  6
CONTINUOUS
 10
-76.1188758013
 20
24.3067968328
 11
-78.3703302342
 21
24.2936982541
  0
LINE
  5
77C
100
AcDbEntity
  8
RACCORDO
100
AcDbLine
 62
7
  6
CONTINUOUS
 10
-76.1188758013
 20
24.556792602
 11
-78.3703302342
 21
24.5436940233
  0
LINE
  5
77D
100
AcDbEntity
  8
RACCORDO
100
AcDbLine
 62
253
  6
CONTINUOUS
 10
-78.6188758013
 20
23.9011301693
 11
-78.3703302342
 21
23.9011301693
  0
LINE
  5
77E
100
AcDbEntity
  8
RACCORDO
100
AcDbLine
 62
253
  6
CONTINUOUS
 10
-75.1188758013
 20
23.9011301693
 11
-75.3674213685
 21
23.9011301693
  0
LINE
  5
77F
100
AcDbEntity
  8
RACCORDO
100
AcDbLine
 62
253
  6
CONTINUOUS
 10
-78.6188758013
 20
24.2936982541
 11
-78.3703302342
 21
24.2936982541
  0
LINE
  5
780
100
AcDbEntity
  8
RACCORDO
100
AcDbLine
 62
253
  6
CONTINUOUS
 10
-75.1188758013
 20
24.3024249988
 11
-75.3674213685
 21
24.3024249988
  0
LINE
  5
781
100
AcDbEntity
  8
ASSI
100
AcDbLine
 62
7
  6
CONTINUOUS
 10
-75.1239684591
 20
23.8510044004
 11
-68.6159669357
 21
23.8131419552
  0
LINE
  5
782
100
AcDbEntity
  8
RACCORDO
100
AcDbLine
 62
253
  6
CONTINUOUS
 10
-75.3674213685
 20
24.3024249988
 11
-76.1188758013
 21
24.3067968328
  0
LINE
  5
783
100
AcDbEntity
  8
RACCORDO
100
AcDbLine
 62
7
  6
CONTINUOUS
 10
-75.3674213685
 20
24.552420768
 11
-76.1188758013
 21
24.556792602
  0
LWPOLYLINE
  5
784
100
AcDbEntity
  8
RACCORDO
100
AcDbPolyline
 62
253
  6
CONTINUOUS
 90
4
 70
0
 10
-40.1014233949
 20
-19.0319754926
 10
-40.0999170046
 20
-19.0274838005
 10
-40.0995999453
 20
-19.0145033437
 10
-40.0998381893
 20
-18.9933862377
  0
LWPOLYLINE
  5
785
100
AcDbEntity
  8
ASSI
100
AcDbPolyline
 62
253
  6
CONTINUOUS
 90
4
 70
0
 10
-40.1014233949
 20
-19.0319754926
 10
-40.0999170046
 20
-19.0274838005
 10
-40.0995999453
 20
-19.0145033437
 10
-40.0998381893
 20
-18.9933862377
  0
ARC
  5
786
100
AcDbEntity
  8
RACCORDO
100
AcDbCircle
 62
7
  6
CONTINUOUS
 10
-17.0056725
 20
13.506792602
 40
0.5
100
AcDbArc
 50
90.0
 51
171.4270036395
  0
ARC
  5
787
100
AcDbEntity
  8
RACCORDO
100
AcDbCircle
 62
7
  6
CONTINUOUS
 10
-6.0056725
 20
13.506792602
 40
0.5
100
AcDbArc
 50
8.5734816403
 51
90.0
  0
ARC
  5
788
100
AcDbEntity
  8
RACCORDO
100
AcDbCircle
 62
253
  6
CONTINUOUS
 10
-6.0056725
 20
10.006792602
 40
0.2999998665
100
AcDbArc
 50
270.0
 51
360.0
  0
ARC
  5
789
100
AcDbEntity
  8
RACCORDO
100
AcDbCircle
 62
253
  6
CONTINUOUS
 10
-17.0056725
 20
13.506792602
 40
0.2999998665
100
AcDbArc
 50
90.0
 51
180.0
  0
ARC
  5
78A
100
AcDbEntity
  8
RACCORDO
100
AcDbCircle
 62
253
  6
CONTINUOUS
 10
-6.0056725
 20
13.506792602
 40
0.2999998665
100
AcDbArc
 50
0.0
 51
90.0
  0
ARC
  5
78B
100
AcDbEntity
  8
RACCORDO
100
AcDbCircle
 62
253
  6
CONTINUOUS
 10
-17.0056725
 20
10.006792602
 40
0.2999998665
100
AcDbArc
 50
180.0
 51
270.0
  0
ARC
  5
78C
100
AcDbEntity
  8
RACCORDO
100
AcDbCircle
 62
7
  6
CONTINUOUS
 10
-83.7488242934
 20
-20.4035317285
 40
1.5
100
AcDbArc
 50
182.352296128
 51
232.5694039247
  0
ARC
  5
78D
100
AcDbEntity
  8
RACCORDO
100
AcDbCircle
 62
7
  6
CONTINUOUS
 10
-83.6971507559
 20
-20.4439883178
 40
1.5
100
AcDbArc
 50
182.3569499908
 51
267.0
  0
ARC
  5
78E
100
AcDbEntity
  8
RACCORDO
100
AcDbCircle
 62
7
  6
CONTINUOUS
 10
-66.1188758013
 20
-21.2559006417
 40
1.0
100
AcDbArc
 50
270.5
 51
360.0
  0
ARC
  5
78F
100
AcDbEntity
  8
ASSI
100
AcDbCircle
 62
7
  6
CONTINUOUS
 10
-68.6188758013
 20
-23.1995652127
 40
0.5
100
AcDbArc
 50
270.3333333333
 51
360.0
  0
ARC
  5
790
100
AcDbEntity
  8
RACCORDO
100
AcDbCircle
 62
7
  6
CONTINUOUS
 10
-77.8688758013
 20
-22.9215195615
 40
0.25
100
AcDbArc
 50
300.0
 51
360.0
  0
ARC
  5
791
100
AcDbEntity
  8
RACCORDO
100
AcDbCircle
 62
7
  6
CONTINUOUS
 10
-75.3688758013
 20
-23.7875449653
 40
0.25
100
AcDbArc
 50
0.0
 51
60.0
  0
ARC
  5
792
100
AcDbEntity
  8
RACCORDO
100
AcDbCircle
 62
7
  6
CONTINUOUS
 10
-78.3688758013
 20
-23.7875449653
 40
0.25
100
AcDbArc
 50
120.0
 51
180.0
  0
ARC
  5
793
100
AcDbEntity
  8
RACCORDO
100
AcDbCircle
 62
7
  6
CONTINUOUS
 10
-78.3688758013
 20
-24.18011305
 40
0.25
100
AcDbArc
 50
180.0
 51
269.6666666667
  0
ARC
  5
794
100
AcDbEntity
  8
RACCORDO
100
AcDbCircle
 62
7
  6
CONTINUOUS
 10
-75.3688758013
 20
-24.1888397947
 40
0.25
100
AcDbArc
 50
270.3333333333
 51
360.0
  0
ARC
  5
795
100
AcDbEntity
  8
RACCORDO
100
AcDbCircle
 62
7
  6
CONTINUOUS
 10
-85.4687957653
 20
-0.243207398
 40
0.2
100
AcDbArc
 50
138.4357306482
 51
180.0343912263
  0
ARC
  5
796
100
AcDbEntity
  8
RACCORDO
100
AcDbCircle
 62
7
  6
CONTINUOUS
 10
-40.1188758013
 20
-18.0321277974
 40
1.0
100
AcDbArc
 50
271.0
 51
360.0
  0
ARC
  5
797
100
AcDbEntity
  8
ASSI
100
AcDbCircle
 62
7
  6
CONTINUOUS
 10
-40.1188758013
 20
-18.0321277974
 40
1.0
100
AcDbArc
 50
271.0
 51
360.0
  0
ARC
  5
798
100
AcDbEntity
  8
RACCORDO
100
AcDbCircle
 62
7
  6
CONTINUOUS
 10
-85.4188758013
 20
9.706792602
 40
0.2
100
AcDbArc
 50
180.0
 51
236.8538382668
  0
ARC
  5
799
100
AcDbEntity
  8
RACCORDO
100
AcDbCircle
 62
7
  6
CONTINUOUS
 10
-85.4188758013
 20
13.806792602
 40
0.2
100
AcDbArc
 50
91.281127954
 51
180.0
  0
ARC
  5
79A
100
AcDbEntity
  8
RACCORDO
100
AcDbCircle
 62
7
  6
CONTINUOUS
 10
-83.7001002979
 20
20.4860306119
 40
1.5
100
AcDbArc
 50
177.5009774506
 51
177.6512798295
  0
ARC
  5
79B
100
AcDbEntity
  8
RACCORDO
100
AcDbCircle
 62
7
  6
CONTINUOUS
 10
-83.6971507559
 20
20.5575735219
 40
1.5
100
AcDbArc
 50
93.0
 51
177.6430500092
  0
ARC
  5
79C
100
AcDbEntity
  8
RACCORDO
100
AcDbCircle
 62
7
  6
CONTINUOUS
 10
-66.1188758013
 20
21.3694858457
 40
1.0
100
AcDbArc
 50
0.0
 51
89.5
  0
ARC
  5
79D
100
AcDbEntity
  8
ASSI
100
AcDbCircle
 62
7
  6
CONTINUOUS
 10
-68.6188758013
 20
23.3131504167
 40
0.5
100
AcDbArc
 50
0.0
 51
89.6666666667
  0
ARC
  5
79E
100
AcDbEntity
  8
RACCORDO
100
AcDbCircle
 62
7
  6
CONTINUOUS
 10
-77.8688758013
 20
23.0351047656
 40
0.25
100
AcDbArc
 50
0.0
 51
60.0
  0
ARC
  5
79F
100
AcDbEntity
  8
RACCORDO
100
AcDbCircle
 62
7
  6
CONTINUOUS
 10
-78.3688758013
 20
24.2936982541
 40
0.25
100
AcDbArc
 50
90.3333333333
 51
180.0
  0
ARC
  5
7A0
100
AcDbEntity
  8
RACCORDO
100
AcDbCircle
 62
7
  6
CONTINUOUS
 10
-75.3688758013
 20
24.3024249988
 40
0.25
100
AcDbArc
 50
0.0
 51
89.6666666667
  0
ARC
  5
7A1
100
AcDbEntity
  8
RACCORDO
100
AcDbCircle
 62
7
  6
CONTINUOUS
 10
-75.3688758013
 20
23.9011301693
 40
0.25
100
AcDbArc
 50
300.0
 51
360.0
  0
ARC
  5
7A2
100
AcDbEntity
  8
RACCORDO
100
AcDbCircle
 62
7
  6
CONTINUOUS
 10
-78.3688758013
 20
23.9011301693
 40
0.25
100
AcDbArc
 50
180.0
 51
240.0
  0
ARC
  5
7A3
100
AcDbEntity
  8
RACCORDO
100
AcDbCircle
 62
7
  6
CONTINUOUS
 10
-40.1188758013
 20
18.1457130015
 40
1.0
100
AcDbArc
 50
0.0
 51
89.0
  0
ARC
  5
7A4
100
AcDbEntity
  8
ASSI
100
AcDbCircle
 62
7
  6
CONTINUOUS
 10
-40.1188758013
 20
18.1457130015
 40
1.0
100
AcDbArc
 50
0.0
 51
89.0
  0
ARC
  5
7A5
100
AcDbEntity
  8
RACCORDO
100
AcDbCircle
 62
7
  6
CONTINUOUS
 10
414.3311141987
 20
0.056792602
 40
500.0
100
AcDbArc
 50
180.0343912263
 51
182.352296128
  0
ARC
  5
7A6
100
AcDbEntity
  8
RACCORDO
100
AcDbCircle
 62
7
  6
CONTINUOUS
 10
414.3811241987
 20
0.056792602
 40
500.0
100
AcDbArc
 50
177.6430500092
 51
182.3569499908
  0
ELLIPSE
  5
7A7
100
AcDbEntity
  8
RACCORDO
100
AcDbEllipse
 62
7
  6
CONTINUOUS
 10
-0.6057029656
 20
-0.243207398
 30
0.0
 11
0.2000304656
 21
-0.0
 31
0.0
 40
0.9998476952
 41
0.0
 42
1.5707963268
  0
ELLIPSE
  5
7A8
100
AcDbEntity
  8
RACCORDO
100
AcDbEllipse
 62
7
  6
CONTINUOUS
 10
-0.916221703
 20
-21.5610765574
 30
0.0
 11
-0.1582391023
 21
0.4751033573
 31
0.0
 40
0.9984778551
 41
-3.4626430041
 42
-1.8927600658
  0
ELLIPSE
  5
7A9
100
AcDbEntity
  8
RACCORDO
100
AcDbEllipse
 62
7
  6
CONTINUOUS
 10
-22.095123297
 20
-21.5610765574
 30
0.0
 11
0.1582391023
 21
0.4751033573
 31
0.0
 40
0.9984778551
 41
-4.3904252414
 42
-2.8205423031
  0
ELLIPSE
  5
7AA
100
AcDbEntity
  8
RACCORDO
100
AcDbEllipse
 62
7
  6
CONTINUOUS
 10
-22.4056420344
 20
-0.243207398
 30
0.0
 11
0.2000304656
 21
0.0
 31
0.0
 40
0.9998476952
 41
1.5707963268
 42
3.1415926536
  0
ELLIPSE
  5
7AB
100
AcDbEntity
  8
RACCORDO
100
AcDbEllipse
 62
7
  6
CONTINUOUS
 10
-22.130596336
 20
21.806106429
 30
0.0
 11
-0.1582391023
 21
0.4751033573
 31
0.0
 40
0.9984778551
 41
-0.3210503505
 42
1.2488325878
  0
ELLIPSE
  5
7AC
100
AcDbEntity
  8
RACCORDO
100
AcDbEllipse
 62
7
  6
CONTINUOUS
 10
-0.880748664
 20
21.806106429
 30
0.0
 11
0.1582391023
 21
0.4751033573
 31
0.0
 40
0.9984778551
 41
-1.2488325878
 42
0.3210503505
  0
ELLIPSE
  5
7AD
100
AcDbEntity
  8
RACCORDO
100
AcDbEllipse
 62
7
  6
CONTINUOUS
 10
-22.3306268016
 20
0.4568040256
 30
0.0
 11
0.2683833349
 21
0.1341814477
 31
0.0
 40
0.9998096356
 41
2.6780516535
 42
4.2486956813
  0
ELLIPSE
  5
7AE
100
AcDbEntity
  8
RACCORDO
100
AcDbEllipse
 62
7
  6
CONTINUOUS
 10
-0.6807181984
 20
0.4568040256
 30
0.0
 11
0.2683833349
 21
-0.1341814477
 31
0.0
 40
0.9998096356
 41
-1.1071030277
 42
0.4635410001
  0
ELLIPSE
  5
7AF
100
AcDbEntity
  8
RACCORDO
100
AcDbEllipse
 62
7
  6
CONTINUOUS
 10
-22.155596336
 20
-21.834461491
 30
0.0
 11
0.4473055582
 21
-0.2236357461
 31
0.0
 40
0.9998096356
 41
-2.6780516535
 42
-1.5707153721
  0
ELLIPSE
  5
7B0
100
AcDbEntity
  8
RACCORDO
100
AcDbEllipse
 62
7
  6
CONTINUOUS
 10
-0.855748664
 20
21.9480466951
 30
0.0
 11
0.4473055582
 21
-0.2236357461
 31
0.0
 40
0.9998096356
 41
0.4635410001
 42
1.5708772815
  0
ELLIPSE
  5
7B1
100
AcDbEntity
  8
RACCORDO
100
AcDbEllipse
 62
7
  6
CONTINUOUS
 10
-1.2065582176
 20
-22.0098529093
 30
0.0
 11
0.5936768768
 21
-0.2256812786
 31
0.0
 40
0.4132601168
 41
5.4912855347
 42
5.8550502945
  0
ELLIPSE
  5
7B2
100
AcDbEntity
  8
RACCORDO
100
AcDbEllipse
 62
7
  6
CONTINUOUS
 10
-0.855748664
 20
-21.834461491
 30
0.0
 11
0.4473055582
 21
0.2236357461
 31
0.0
 40
0.9998096356
 41
-1.5708772863
 42
-0.4635410001
  0
ELLIPSE
  5
7B3
100
AcDbEntity
  8
RACCORDO
100
AcDbEllipse
 62
7
  6
CONTINUOUS
 10
-21.8047867824
 20
-22.0098529093
 30
0.0
 11
0.5936768768
 21
0.2256812786
 31
0.0
 40
0.4132601168
 41
3.6463207879
 42
3.9334924261
  0
ELLIPSE
  5
7B4
100
AcDbEntity
  8
RACCORDO
100
AcDbEllipse
 62
7
  6
CONTINUOUS
 10
-21.8047867824
 20
22.1234381134
 30
0.0
 11
0.5936768768
 21
-0.2256812786
 31
0.0
 40
0.4132601168
 41
8.6328781883
 42
8.9966429481
  0
ELLIPSE
  5
7B5
100
AcDbEntity
  8
RACCORDO
100
AcDbEllipse
 62
7
  6
CONTINUOUS
 10
-22.155596336
 20
21.9480466951
 30
0.0
 11
0.4473055582
 21
0.2236357461
 31
0.0
 40
0.9998096356
 41
1.5707153673
 42
2.6780516535
  0
ELLIPSE
  5
7B6
100
AcDbEntity
  8
RACCORDO
100
AcDbEllipse
 62
7
  6
CONTINUOUS
 10
-1.2065582176
 20
22.1234381134
 30
0.0
 11
0.5936768768
 21
0.2256812786
 31
0.0
 40
0.4132601168
 41
6.7879134415
 42
7.0750850797
  0
ELLIPSE
  5
7B7
100
AcDbEntity
  8
RACCORDO
100
AcDbEllipse
 62
7
  6
CONTINUOUS
 10
-7.6144761965
 20
22.4480650696
 30
0.0
 11
0.5
 21
-0.0
 31
0.0
 40
0.0174550649
 41
-1.5707963268
 42
-0.0174532925
  0
ELLIPSE
  5
7B8
100
AcDbEntity
  8
RACCORDO
100
AcDbEllipse
 62
7
  6
CONTINUOUS
 10
-7.6144761965
 20
23.8480650696
 30
0.0
 11
0.5
 21
-0.0
 31
0.0
 40
0.0174550649
 41
-1.5707963268
 42
-0.0174532925
  0
ELLIPSE
  5
7B9
100
AcDbEntity
  8
RACCORDO
100
AcDbEllipse
 62
7
  6
CONTINUOUS
 10
-15.3968688035
 20
23.8480650696
 30
0.0
 11
0.5
 21
0.0
 31
0.0
 40
0.0174550649
 41
-3.1241393611
 42
-1.5707963268
  0
ELLIPSE
  5
7BA
100
AcDbEntity
  8
RACCORDO
100
AcDbEllipse
 62
7
  6
CONTINUOUS
 10
-15.3968688035
 20
22.4480650696
 30
0.0
 11
0.5
 21
-0.0
 31
0.0
 40
0.0174550649
 41
-3.1241393611
 42
-1.5707963268
  0
ELLIPSE
  5
7BB
100
AcDbEntity
  8
RACCORDO
100
AcDbEllipse
 62
7
  6
CONTINUOUS
 10
-7.6144761965
 20
-23.7344798655
 30
0.0
 11
0.5
 21
-0.0
 31
0.0
 40
0.0174550649
 41
0.0174532925
 42
1.5707963268
  0
ELLIPSE
  5
7BC
100
AcDbEntity
  8
RACCORDO
100
AcDbEllipse
 62
7
  6
CONTINUOUS
 10
-7.6144761965
 20
-22.3344798655
 30
0.0
 11
0.5
 21
0.0
 31
0.0
 40
0.0174550649
 41
0.0174532925
 42
1.5707963268
  0
ELLIPSE
  5
7BD
100
AcDbEntity
  8
RACCORDO
100
AcDbEllipse
 62
7
  6
CONTINUOUS
 10
-20.0275294132
 20
-22.3213885668
 30
0.0
 11
0.25
 21
0.0
 31
0.0
 40
0.0174550649
 41
0.0174532925
 42
1.5707963268
  0
ELLIPSE
  5
7BE
100
AcDbEntity
  8
RACCORDO
100
AcDbEllipse
 62
7
  6
CONTINUOUS
 10
-21.8838155868
 20
-22.3213885668
 30
0.0
 11
0.25
 21
0.0
 31
0.0
 40
0.0174550649
 41
1.5707963268
 42
3.1241393611
  0
ELLIPSE
  5
7BF
100
AcDbEntity
  8
RACCORDO
100
AcDbEllipse
 62
7
  6
CONTINUOUS
 10
-20.0275294132
 20
22.4349737709
 30
0.0
 11
0.25
 21
0.0
 31
0.0
 40
0.0174550649
 41
-1.5707963268
 42
-0.0174532925
  0
ELLIPSE
  5
7C0
100
AcDbEntity
  8
RACCORDO
100
AcDbEllipse
 62
7
  6
CONTINUOUS
 10
-21.8838155868
 20
22.4349737709
 30
0.0
 11
0.25
 21
0.0
 31
0.0
 40
0.0174550649
 41
-3.1241393611
 42
-1.5707963268
  0
ELLIPSE
  5
7C1
100
AcDbEntity
  8
RACCORDO
100
AcDbEllipse
 62
7
  6
CONTINUOUS
 10
-1.1275294132
 20
22.4349737709
 30
0.0
 11
0.25
 21
-0.0
 31
0.0
 40
0.0174550649
 41
-1.5707963268
 42
-0.0174532925
  0
ELLIPSE
  5
7C2
100
AcDbEntity
  8
RACCORDO
100
AcDbEllipse
 62
7
  6
CONTINUOUS
 10
-15.3968688035
 20
-22.3344798655
 30
0.0
 11
0.5
 21
-0.0
 31
0.0
 40
0.0174550649
 41
1.5707963268
 42
3.1241393611
  0
ELLIPSE
  5
7C3
100
AcDbEntity
  8
RACCORDO
100
AcDbEllipse
 62
7
  6
CONTINUOUS
 10
-15.3968688035
 20
-23.7344798655
 30
0.0
 11
0.5
 21
0.0
 31
0.0
 40
0.0174550649
 41
1.5707963268
 42
3.1241393611
  0
ELLIPSE
  5
7C4
100
AcDbEntity
  8
RACCORDO
100
AcDbEllipse
 62
7
  6
CONTINUOUS
 10
-22.1119586737
 20
21.9698638645
 30
0.0
 11
-0.4473055582
 21
-0.2236357461
 31
0.0
 40
0.9998096356
 41
4.7136854384
 42
5.8196443071
  0
ELLIPSE
  5
7C5
100
AcDbEntity
  8
RACCORDO
100
AcDbEllipse
 62
7
  6
CONTINUOUS
 10
-0.8993863263
 20
-21.8562786605
 30
0.0
 11
0.4473055582
 21
0.2236357461
 31
0.0
 40
0.9998096356
 41
4.7136854384
 42
5.8196443071
  0
ELLIPSE
  5
7C6
100
AcDbEntity
  8
RACCORDO
100
AcDbEllipse
 62
7
  6
CONTINUOUS
 10
-2.9838155868
 20
22.4349737709
 30
0.0
 11
0.25
 21
-0.0
 31
0.0
 40
0.0174550649
 41
-3.1241393611
 42
-1.5707963268
  0
ELLIPSE
  5
7C7
100
AcDbEntity
  8
RACCORDO
100
AcDbEllipse
 62
7
  6
CONTINUOUS
 10
-2.9838155868
 20
-22.3213885668
 30
0.0
 11
0.25
 21
0.0
 31
0.0
 40
0.0174550649
 41
1.5707963268
 42
3.1241393611
  0
ELLIPSE
  5
7C8
100
AcDbEntity
  8
RACCORDO
100
AcDbEllipse
 62
7
  6
CONTINUOUS
 10
-22.1119586737
 20
-21.8562786605
 30
0.0
 11
-0.4473055582
 21
0.2236357461
 31
0.0
 40
0.9998096356
 41
0.4635410001
 42
1.5694998687
  0
ELLIPSE
  5
7C9
100
AcDbEntity
  8
RACCORDO
100
AcDbEllipse
 62
7
  6
CONTINUOUS
 10
-1.1275294132
 20
-22.3213885668
 30
0.0
 11
0.25
 21
-0.0
 31
0.0
 40
0.0174550649
 41
0.0174532925
 42
1.5707963268
  0
ELLIPSE
  5
7CA
100
AcDbEntity
  8
RACCORDO
100
AcDbEllipse
 62
7
  6
CONTINUOUS
 10
-0.8993863263
 20
21.9698638645
 30
0.0
 11
0.4473055582
 21
-0.2236357461
 31
0.0
 40
0.9998096356
 41
0.4635410001
 42
1.5694998687
  0
ELLIPSE
  5
7CB
100
AcDbEntity
  8
RACCORDO
100
AcDbEllipse
 62
7
  6
CONTINUOUS
 10
21.644251336
 20
21.9480466951
 30
0.0
 11
0.4473055582
 21
-0.2236357461
 31
0.0
 40
0.9998096356
 41
0.4635410001
 42
1.5708581097
  0
ELLIPSE
  5
7CC
100
AcDbEntity
  8
RACCORDO
100
AcDbEllipse
 62
7
  6
CONTINUOUS
 10
0.344403664
 20
-21.834461491
 30
0.0
 11
0.4473055582
 21
-0.2236357461
 31
0.0
 40
0.9998096356
 41
-2.6780516535
 42
-1.5707345439
  0
ELLIPSE
  5
7CD
100
AcDbEntity
  8
RACCORDO
100
AcDbEllipse
 62
7
  6
CONTINUOUS
 10
0.344403664
 20
21.9480466951
 30
0.0
 11
0.4473055582
 21
0.2236357461
 31
0.0
 40
0.9998096356
 41
1.5707345439
 42
2.6780516535
  0
ELLIPSE
  5
7CE
100
AcDbEntity
  8
RACCORDO
100
AcDbEllipse
 62
7
  6
CONTINUOUS
 10
21.644251336
 20
-21.834461491
 30
0.0
 11
0.4473055582
 21
0.2236357461
 31
0.0
 40
0.9998096356
 41
-1.5708581097
 42
-0.4635410001
  0
ELLIPSE
  5
7CF
100
AcDbEntity
  8
RACCORDO
100
AcDbEllipse
 62
7
  6
CONTINUOUS
 10
14.8914101234
 20
22.4305887124
 30
0.0
 11
0.5
 21
0.0
 31
0.0
 40
0.0524077793
 41
-1.5707963268
 42
-0.0058177642
  0
ELLIPSE
  5
7D0
100
AcDbEntity
  8
RACCORDO
100
AcDbEllipse
 62
7
  6
CONTINUOUS
 10
14.8914101234
 20
23.8538836871
 30
0.0
 11
0.5
 21
0.0
 31
0.0
 40
0.0058178298
 41
-0.6464131586
 42
-0.0058177642
  0
ELLIPSE
  5
7D1
100
AcDbEntity
  8
RACCORDO
100
AcDbEllipse
 62
7
  6
CONTINUOUS
 10
21.3870509819
 20
-22.2776976739
 30
0.0
 11
0.25
 21
0.0
 31
0.0
 40
0.0524077793
 41
0.5261092631
 42
1.5707963268
  0
ELLIPSE
  5
7D2
100
AcDbEntity
  8
RACCORDO
100
AcDbEllipse
 62
7
  6
CONTINUOUS
 10
7.0972448766
 20
23.8538836871
 30
0.0
 11
0.5
 21
-0.0
 31
0.0
 40
0.0058178298
 41
-3.1357748894
 42
-2.495179495
  0
ELLIPSE
  5
7D3
100
AcDbEntity
  8
RACCORDO
100
AcDbEllipse
 62
7
  6
CONTINUOUS
 10
7.0972448766
 20
22.4305887124
 30
0.0
 11
0.5
 21
0.0
 31
0.0
 40
0.0524077793
 41
-3.1357748894
 42
-1.5707963268
  0
ELLIPSE
  5
7D4
100
AcDbEntity
  8
RACCORDO
100
AcDbEllipse
 62
7
  6
CONTINUOUS
 10
19.5016040181
 20
-22.2776976739
 30
0.0
 11
0.25
 21
0.0
 31
0.0
 40
0.0524077793
 41
1.5707963268
 42
3.1357748894
  0
ELLIPSE
  5
7D5
100
AcDbEntity
  8
RACCORDO
100
AcDbEllipse
 62
7
  6
CONTINUOUS
 10
14.8914101234
 20
-23.7402984831
 30
0.0
 11
0.5
 21
0.0
 31
0.0
 40
0.0058178298
 41
0.0058177642
 42
0.6464131586
  0
ELLIPSE
  5
7D6
100
AcDbEntity
  8
RACCORDO
100
AcDbEllipse
 62
7
  6
CONTINUOUS
 10
14.8914101234
 20
-22.3170035083
 30
0.0
 11
0.5
 21
0.0
 31
0.0
 40
0.0524077793
 41
0.0058177642
 42
1.5707963268
  0
ELLIPSE
  5
7D7
100
AcDbEntity
  8
RACCORDO
100
AcDbEllipse
 62
7
  6
CONTINUOUS
 10
2.4870509819
 20
-22.2776976739
 30
0.0
 11
0.25
 21
0.0
 31
0.0
 40
0.0524077793
 41
0.0058177642
 42
1.5707963268
  0
ELLIPSE
  5
7D8
100
AcDbEntity
  8
RACCORDO
100
AcDbEllipse
 62
7
  6
CONTINUOUS
 10
0.6016040181
 20
-22.2776976739
 30
0.0
 11
0.25
 21
0.0
 31
0.0
 40
0.0524077793
 41
1.5707963268
 42
2.6154833905
  0
ELLIPSE
  5
7D9
100
AcDbEntity
  8
RACCORDO
100
AcDbEllipse
 62
7
  6
CONTINUOUS
 10
21.3870509819
 20
22.3912828779
 30
0.0
 11
0.25
 21
-0.0
 31
0.0
 40
0.0524077793
 41
-1.5707963268
 42
-0.5261092631
  0
ELLIPSE
  5
7DA
100
AcDbEntity
  8
RACCORDO
100
AcDbEllipse
 62
7
  6
CONTINUOUS
 10
7.0972448766
 20
-22.3170035083
 30
0.0
 11
0.5
 21
-0.0
 31
0.0
 40
0.0524077793
 41
1.5707963268
 42
3.1357748894
  0
ELLIPSE
  5
7DB
100
AcDbEntity
  8
RACCORDO
100
AcDbEllipse
 62
7
  6
CONTINUOUS
 10
7.0972448766
 20
-23.7402984831
 30
0.0
 11
0.5
 21
0.0
 31
0.0
 40
0.0058178298
 41
2.495179495
 42
3.1357748894
  0
ELLIPSE
  5
7DC
100
AcDbEntity
  8
RACCORDO
100
AcDbEllipse
 62
7
  6
CONTINUOUS
 10
19.5016040181
 20
22.3912828779
 30
0.0
 11
0.25
 21
0.0
 31
0.0
 40
0.0524077793
 41
-3.1357748894
 42
-1.5707963268
  0
ELLIPSE
  5
7DD
100
AcDbEntity
  8
RACCORDO
100
AcDbEllipse
 62
7
  6
CONTINUOUS
 10
2.4870509819
 20
22.3912828779
 30
0.0
 11
0.25
 21
-0.0
 31
0.0
 40
0.0524077793
 41
-1.5707963268
 42
-0.0058177642
  0
ELLIPSE
  5
7DE
100
AcDbEntity
  8
RACCORDO
100
AcDbEllipse
 62
7
  6
CONTINUOUS
 10
0.6016040181
 20
22.3912828779
 30
0.0
 11
0.25
 21
-0.0
 31
0.0
 40
0.0524077793
 41
-2.6154833905
 42
-1.5707963268
  0
ELLIPSE
  5
7DF
100
AcDbEntity
  8
RACCORDO
100
AcDbEllipse
 62
7
  6
CONTINUOUS
 10
-65.6188758013
 20
22.1226918829
 30
0.0
 11
0.5
 21
0.0
 31
0.0
 40
1.0
 41
-1.5533430343
 42
-0.6605680511
  0
ELLIPSE
  5
7E0
100
AcDbEntity
  8
RACCORDO
100
AcDbEllipse
 62
7
  6
CONTINUOUS
 10
-65.6188758013
 20
-22.0091066788
 30
0.0
 11
0.5
 21
0.0
 31
0.0
 40
1.0
 41
0.6605680511
 42
1.5533430343
  0
ELLIPSE
  5
7E1
100
AcDbEntity
  8
CURVE
100
AcDbEllipse
 62
253
  6
CONTINUOUS
 10
-60.6669158013
 20
15.956792602
 30
0.0
 11
0.0
 21
1.7999968808
 31
0.0
 40
1.0
 41
-2.9317216922
 42
-1.5152120571
  0
ELLIPSE
  5
7E2
100
AcDbEntity
  8
CURVE
100
AcDbEllipse
 62
253
  6
CONTINUOUS
 10
-60.6669158013
 20
15.956792602
 30
0.0
 11
0.0
 21
1.7999999246
 31
0.0
 40
1.0
 41
1.5152121512
 42
2.9317220524
  0
ELLIPSE
  5
7E3
100
AcDbEntity
  8
CURVE
100
AcDbEllipse
 62
253
  6
CONTINUOUS
 10
-60.6669158013
 20
15.956792602
 30
0.0
 11
0.0
 21
2.5499986575
 31
0.0
 40
1.0
 41
1.5315705615
 42
4.7516147457
  0
ELLIPSE
  5
7E4
100
AcDbEntity
  8
CURVE
100
AcDbEllipse
 62
253
  6
CONTINUOUS
 10
-60.6669158013
 20
11.571682602
 30
0.0
 11
2.5499985399
 21
0.0
 31
0.0
 40
1.0
 41
3.1023668864
 42
6.3224110743
  0
ELLIPSE
  5
7E5
100
AcDbEntity
  8
CURVE
100
AcDbEllipse
 62
253
  6
CONTINUOUS
 10
-60.6669158013
 20
11.571682602
 30
0.0
 11
-0.0
 21
1.7999999246
 31
0.0
 40
1.0
 41
1.5152121512
 42
4.767973156
  0
ENDSEC
  0
SECTION
  2
OBJECTS
  0
DICTIONARY
  5
C
100
AcDbDictionary
280
0
281
1
  3
ACAD_GROUP
350
D
  3
ACAD_MLINESTYLE
350
17
  3
ACAD_LAYOUT
350
1A
  3
ACAD_PLOTSETTINGS
350
19
  3
ACAD_PLOTSTYLENAME
350
E
  0
DICTIONARY
  5
D
102
{ACAD_REACTORS
330
C
102
}
100
AcDbDictionary
280
0
281
1
  0
ACDBDICTIONARYWDFLT
  5
E
102
{ACAD_REACTORS
330
C
102
}
100
AcDbDictionary
281
1
  3
Normal
350
F
100
AcDbDictionaryWithDefault
340
F
  0
DICTIONARY
  5
17
102
{ACAD_REACTORS
330
C
102
}
100
AcDbDictionary
280
0
281
1
  3
Standard
350
18
  0
DICTIONARY
  5
19
102
{ACAD_REACTORS
330
C
102
}
100
AcDbDictionary
281
1
  0
DICTIONARY
  5
1A
102
{ACAD_REACTORS
330
C
102
}
100
AcDbDictionary
281
1
  3
Model
350
7E6
  3
Layout1
350
7E7
  0
ACDBPLACEHOLDER
  5
F
102
{ACAD_REACTORS
330
E
102
}
  0
MLINESTYLE
  5
18
102
{ACAD_REACTORS
330
17
102
}
100
AcDbMlineStyle
  2
STANDARD
 70
0
  3

 62
256
 51
90.0
 52
90.0
 71
2
 49
0.5
 62
256
  6
BYLAYER
 49
-0.5
 62
256
  6
BYLAYER
  0
LAYOUT
  5
7E6
102
{ACAD_REACTORS
330
1A
102
}
100
AcDbPlotSettings
  1

  2
none_device
  4
ISO_A4_(297.00_x_210.00_MM)
  6

 40
0.0
 41
0.0
 42
0.0
 43
0.0
 44
297.0
 45
210.0
 46
0.0
 47
0.0
 48
0.0
 49
0.0
140
0.0
141
0.0
142
1.0
143
1.0
 70
1024
 72
1
 73
0
 74
0
  7

 75
0
147
1.0
148
0.0
149
0.0
100
AcDbLayout
  1
Model
 70
0
 71
0
 10
0.0
 20
0.0
 11
297.0
 21
210.0
 12
0.0
 22
0.0
 32
0.0
 14
0.0
 24
0.0
 34
0.0
 15
0.0
 25
0.0
 35
0.0
146
0.0
 13
0.0
 23
0.0
 33
0.0
 16
1.0
 26
0.0
 36
0.0
 17
0.0
 27
1.0
 37
0.0
 76
0
330
217
345
0
346
0
  0
LAYOUT
  5
7E7
102
{ACAD_REACTORS
330
1A
102
}
100
AcDbPlotSettings
  1

  2
none_device
  4
ISO_A4_(297.00_x_210.00_MM)
  6

 40
0.0
 41
0.0
 42
0.0
 43
0.0
 44
297.0
 45
210.0
 46
0.0
 47
0.0
 48
0.0
 49
0.0
140
0.0
141
0.0
142
1.0
143
1.0
 70
0
 72
1
 73
0
 74
0
  7

 75
0
147
1.0
148
0.0
149
0.0
100
AcDbLayout
  1
Layout1
 70
0
 71
1
 10
0.0
 20
0.0
 11
297.0
 21
210.0
 12
0.0
 22
0.0
 32
0.0
 14
0.0
 24
0.0
 34
0.0
 15
0.0
 25
0.0
 35
0.0
146
0.0
 13
0.0
 23
0.0
 33
0.0
 16
1.0
 26
0.0
 36
0.0
 17
0.0
 27
1.0
 37
0.0
 76
0
330
218
345
0
346
0
  0
ENDSEC
  0
EOF
