  0
SECTION
  2
HEADER
  9
$ACADVER
  1
AC1015
  9
$DWGCODEPAGE
  3
ANSI_1252
  9
$EXTMAX
 10
558.8
 20
431.8
 30
0.0
  9
$EXTMIN
 10
0.0
 20
0.0
 30
0.0
  9
$LIMMIN
 10
0.0
 20
0.0
  9
$LIMMAX
 10
558.8
 20
431.8
  9
$VIEWCTR
 10
279.4
 20
215.9
  9
$VIEWSIZE
 40
431.8
  9
$CLAYER
  8
0
  9
$LTSCALE
 40
30.734
  9
$CELTYPE
  6
BYLAYER
  9
$DIMSCALE
 40
1.0
  9
$DIMASZ
 40
3.0
  9
$DIMEXO
 40
3.4925
  9
$DIMDLI
 40
21.2344
  9
$DIMEXE
 40
10.0584
  9
$DIMCEN
 40
5.0292
  9
$DIMLFAC
 40
1.0
  9
$DIMBLK
  1
_FILLED
  9
$DIMTXT
 40
3.0
  9
$DIMTOL
 70
1
  9
$DIMLIM
 70
0
  9
$DIMTFAC
 40
1.0
  9
$DIMTP
 40
0.01
  9
$DIMTM
 40
0.01
  9
$PDMODE
 70
3
  9
$PDSIZE
 40
3.0
  9
$HANDSEED
  5
786
  9
$TILEMODE
 70
1
  9
$MEASUREMENT
 70
1
  9
$INSUNITS
 70
4
  0
ENDSEC
  0
SECTION
  2
CLASSES
  0
CLASS
  1
ACDBDICTIONARYWDFLT
  2
AcDbDictionaryWithDefault
  3
AutoCAD 2000
 90
0
280
0
281
0
  0
CLASS
  1
ACDBPLACEHOLDER
  2
AcDbPlaceHolder
  3
AutoCAD 2000
 90
0
280
0
281
0
  0
CLASS
  1
LAYOUT
  2
AcDbLayout
  3
AutoCAD 2000
 90
0
280
0
281
0
  0
ENDSEC
  0
SECTION
  2
TABLES
  0
TABLE
  2
VPORT
  5
8
100
AcDbSymbolTable
 70
2
  0
VPORT
  5
1F4
100
AcDbSymbolTableRecord
100
AcDbViewportTableRecord
  2
*ACTIVE
 70
0
 10
0.0
 20
0.0
 11
1.0
 21
1.0
 12
279.4
 22
215.9
 13
0.0
 23
0.0
 14
1.0
 24
1.0
 15
0.0
 25
0.0
 16
0.0
 26
0.0
 36
1.0
 17
0.0
 27
0.0
 37
0.0
 40
431.8
 41
1.2941176471
 42
50.0
 43
0.0
 44
0.0
 50
0.0
 51
0.0
 71
0
 72
100
 73
1
 74
1
 75
0
 76
0
 77
0
 78
0
  0
ENDTAB
  0
TABLE
  2
LTYPE
  5
5
100
AcDbSymbolTable
 70
6
  0
LTYPE
  5
14
100
AcDbSymbolTableRecord
100
AcDbLinetypeTableRecord
  2
BYBLOCK
 70
0
  3

 72
65
 73
0
 40
0.0
  0
LTYPE
  5
15
100
AcDbSymbolTableRecord
100
AcDbLinetypeTableRecord
  2
BYLAYER
 70
0
  3

 72
65
 73
0
 40
0.0
  0
LTYPE
  5
16
100
AcDbSymbolTableRecord
100
AcDbLinetypeTableRecord
  2
CONTINUOUS
 70
64
  3
Solid line
 72
65
 73
0
 40
0.0
  0
LTYPE
  5
1F5
100
AcDbSymbolTableRecord
100
AcDbLinetypeTableRecord
  2
CENTER
 70
64
  3
____ _ ____ _ ____ _ ____ _ ____ _ ____ _ ____
 72
65
 73
4
 40
0.6
 49
0.375
 74
0
 49
-0.075
 74
0
 49
0.075
 74
0
 49
-0.075
 74
0
  0
LTYPE
  5
1F6
100
AcDbSymbolTableRecord
100
AcDbLinetypeTableRecord
  2
HIDDEN
 70
64
  3
- - - - - - - - - - - - - - - - - - - -
 72
65
 73
2
 40
0.2
 49
0.1
 74
0
 49
-0.1
 74
0
  0
LTYPE
  5
1F7
100
AcDbSymbolTableRecord
100
AcDbLinetypeTableRecord
  2
PHANTOM
 70
64
  3
_____ _ _ _____ _ _ _____ _ _ _____
 72
65
 73
6
 40
0.8
 49
0.45
 74
0
 49
-0.05
 74
0
 49
0.1
 74
0
 49
-0.05
 74
0
 49
0.1
 74
0
 49
-0.05
 74
0
  0
LTYPE
  5
1F8
100
AcDbSymbolTableRecord
100
AcDbLinetypeTableRecord
  2
DOT
 70
64
  3
. . . . . . . . . . . . . . . . . . . .
 72
65
 73
2
 40
0.2
 49
0.1
 74
0
 49
-0.1
 74
0
  0
LTYPE
  5
1F9
100
AcDbSymbolTableRecord
100
AcDbLinetypeTableRecord
  2
DASHED
 70
64
  3
- - - - - - - - - - - - - - - - - - - -
 72
65
 73
2
 40
0.2
 49
0.1
 74
0
 49
-0.1
 74
0
  0
ENDTAB
  0
TABLE
  2
LAYER
  5
2
100
AcDbSymbolTable
 70
36
  0
LAYER
  5
10
100
AcDbSymbolTableRecord
100
AcDbLayerTableRecord
  2
0
 70
0
 62
7
  6
CONTINUOUS
370
-3
390
F
  0
LAYER
  5
1FA
100
AcDbSymbolTableRecord
100
AcDbLayerTableRecord
  2
DEFAULT_1
 70
0
 62
7
  6
CENTER
370
-3
390
F
  0
LAYER
  5
1FB
100
AcDbSymbolTableRecord
100
AcDbLayerTableRecord
  2
DEFAULT_2
 70
0
 62
7
  6
HIDDEN
370
-3
390
F
  0
LAYER
  5
1FC
100
AcDbSymbolTableRecord
100
AcDbLayerTableRecord
  2
DEFAULT_3
 70
0
 62
7
  6
PHANTOM
370
-3
390
F
  0
LAYER
  5
1FD
100
AcDbSymbolTableRecord
100
AcDbLayerTableRecord
  2
ASSI
 70
0
 62
7
  6
CONTINUOUS
370
-3
390
F
  0
LAYER
  5
1FE
100
AcDbSymbolTableRecord
100
AcDbLayerTableRecord
  2
COLOR15
 70
0
 62
7
  6
CONTINUOUS
370
-3
390
F
  0
LAYER
  5
1FF
100
AcDbSymbolTableRecord
100
AcDbLayerTableRecord
  2
COLORE_MATERIALE
 70
0
 62
7
  6
CONTINUOUS
370
-3
390
F
  0
LAYER
  5
200
100
AcDbSymbolTableRecord
100
AcDbLayerTableRecord
  2
COORDINATE
 70
0
 62
7
  6
CONTINUOUS
370
-3
390
F
  0
LAYER
  5
201
100
AcDbSymbolTableRecord
100
AcDbLayerTableRecord
  2
COORD_ORIGINE
 70
0
 62
7
  6
CONTINUOUS
370
-3
390
F
  0
LAYER
  5
202
100
AcDbSymbolTableRecord
100
AcDbLayerTableRecord
  2
COSMETICI
 70
0
 62
7
  6
CONTINUOUS
370
-3
390
F
  0
LAYER
  5
203
100
AcDbSymbolTableRecord
100
AcDbLayerTableRecord
  2
CURVE
 70
0
 62
7
  6
CONTINUOUS
370
-3
390
F
  0
LAYER
  5
204
100
AcDbSymbolTableRecord
100
AcDbLayerTableRecord
  2
DRAFT
 70
0
 62
7
  6
CONTINUOUS
370
-3
390
F
  0
LAYER
  5
205
100
AcDbSymbolTableRecord
100
AcDbLayerTableRecord
  2
IMPORT
 70
0
 62
7
  6
CONTINUOUS
370
-3
390
F
  0
LAYER
  5
206
100
AcDbSymbolTableRecord
100
AcDbLayerTableRecord
  2
INTF_1
 70
0
 62
7
  6
CONTINUOUS
370
-3
390
F
  0
LAYER
  5
207
100
AcDbSymbolTableRecord
100
AcDbLayerTableRecord
  2
INTF_CYAN
 70
0
 62
7
  6
CONTINUOUS
370
-3
390
F
  0
LAYER
  5
208
100
AcDbSymbolTableRecord
100
AcDbLayerTableRecord
  2
INTF_GREEN
 70
0
 62
7
  6
CONTINUOUS
370
-3
390
F
  0
LAYER
  5
209
100
AcDbSymbolTableRecord
100
AcDbLayerTableRecord
  2
INTF_YELLOW
 70
0
 62
7
  6
CONTINUOUS
370
-3
390
F
  0
LAYER
  5
20A
100
AcDbSymbolTableRecord
100
AcDbLayerTableRecord
  2
NOTE
 70
0
 62
7
  6
CONTINUOUS
370
-3
390
F
  0
LAYER
  5
20B
100
AcDbSymbolTableRecord
100
AcDbLayerTableRecord
  2
PIANI
 70
0
 62
7
  6
CONTINUOUS
370
-3
390
F
  0
LAYER
  5
20C
100
AcDbSymbolTableRecord
100
AcDbLayerTableRecord
  2
PIANI_ORIGINE
 70
0
 62
7
  6
CONTINUOUS
370
-3
390
F
  0
LAYER
  5
20D
100
AcDbSymbolTableRecord
100
AcDbLayerTableRecord
  2
PIANI_RIFERIMENTO
 70
0
 62
7
  6
CONTINUOUS
370
-3
390
F
  0
LAYER
  5
20E
100
AcDbSymbolTableRecord
100
AcDbLayerTableRecord
  2
PUNTI
 70
0
 62
7
  6
CONTINUOUS
370
-3
390
F
  0
LAYER
  5
20F
100
AcDbSymbolTableRecord
100
AcDbLayerTableRecord
  2
RACCORDO
 70
0
 62
7
  6
CONTINUOUS
370
-3
390
F
  0
LAYER
  5
210
100
AcDbSymbolTableRecord
100
AcDbLayerTableRecord
  2
RGB____0____0____0__
 70
0
 62
7
  6
CONTINUOUS
370
-3
390
F
  0
LAYER
  5
211
100
AcDbSymbolTableRecord
100
AcDbLayerTableRecord
  2
SMUSSO
 70
0
 62
7
  6
CONTINUOUS
370
-3
390
F
  0
LAYER
  5
212
100
AcDbSymbolTableRecord
100
AcDbLayerTableRecord
  2
SNAPLINE
 70
0
 62
7
  6
CONTINUOUS
370
-3
390
F
  0
LAYER
  5
213
100
AcDbSymbolTableRecord
100
AcDbLayerTableRecord
  2
SUPERFICI
 70
0
 62
7
  6
CONTINUOUS
370
-3
390
F
  0
LAYER
  5
214
100
AcDbSymbolTableRecord
100
AcDbLayerTableRecord
  2
TRASH
 70
0
 62
7
  6
CONTINUOUS
370
-3
390
F
  0
LAYER
  5
215
100
AcDbSymbolTableRecord
100
AcDbLayerTableRecord
  2
XSEC_DATUMS
 70
0
 62
7
  6
CONTINUOUS
370
-3
390
F
  0
ENDTAB
  0
TABLE
  2
STYLE
  5
3
100
AcDbSymbolTable
 70
1
  0
STYLE
  5
11
100
AcDbSymbolTableRecord
100
AcDbTextStyleTableRecord
  2
STANDARD
 70
0
 40
0.0
 41
0.8
 50
0.0
 71
0
 42
0.2
  3
txt
  4

  0
STYLE
  5
216
100
AcDbSymbolTableRecord
100
AcDbTextStyleTableRecord
  2
TEXTSTYLE_1
 70
0
 40
0.0
 41
0.8
 50
0.0
 71
0
 42
0.2
  3
gdt
  4

  0
ENDTAB
  0
TABLE
  2
VIEW
  5
6
100
AcDbSymbolTable
 70
0
  0
ENDTAB
  0
TABLE
  2
UCS
  5
7
100
AcDbSymbolTable
 70
0
  0
ENDTAB
  0
TABLE
  2
APPID
  5
9
100
AcDbSymbolTable
 70
1
  0
APPID
  5
217
100
AcDbSymbolTableRecord
100
AcDbRegAppTableRecord
  2
ACAD
 70
0
  0
ENDTAB
  0
TABLE
  2
BLOCK_RECORD
  5
1
100
AcDbSymbolTable
 70
0
  0
BLOCK_RECORD
  5
218
100
AcDbSymbolTableRecord
100
AcDbBlockTableRecord
  2
*Model_Space
  0
BLOCK_RECORD
  5
219
100
AcDbSymbolTableRecord
100
AcDbBlockTableRecord
  2
*Paper_Space
  0
BLOCK_RECORD
  5
21A
100
AcDbSymbolTableRecord
100
AcDbBlockTableRecord
  2
_FILLED
  0
BLOCK_RECORD
  5
21B
100
AcDbSymbolTableRecord
100
AcDbBlockTableRecord
  2
*D0
  0
BLOCK_RECORD
  5
21C
100
AcDbSymbolTableRecord
100
AcDbBlockTableRecord
  2
*D1
  0
BLOCK_RECORD
  5
21D
100
AcDbSymbolTableRecord
100
AcDbBlockTableRecord
  2
*D2
  0
BLOCK_RECORD
  5
21E
100
AcDbSymbolTableRecord
100
AcDbBlockTableRecord
  2
*D3
  0
ENDTAB
  0
TABLE
  2
DIMSTYLE
  5
A
100
AcDbSymbolTable
 70
1
100
AcDbDimStyleTable
 71
0
  0
DIMSTYLE
105
21F
100
AcDbSymbolTableRecord
100
AcDbDimStyleTableRecord
  2
STANDARD
 70
0
  3

  4

 40
1.0
 41
3.0
 42
0.0625
 43
0.38
 44
0.18
 45
0.0
 46
0.0
 47
0.01
 48
0.01
140
3.0
141
0.09
142
0.0
143
25.4
144
1.0
145
0.0
146
1.0
147
0.09
 71
1.0
 72
0.0
 73
0
 74
0
 75
0
 76
0
 77
1
 78
8
170
0
171
2
172
0
173
0
174
0
175
0
176
0
177
0
178
0
270
2
271
2
272
2
273
2
274
2
275
0
280
0
281
0
282
0
283
1
284
8
285
0
286
0
287
3
288
0
340
11
341
21A
342
21A
343
21A
344
21A
  0
DIMSTYLE
105
220
100
AcDbSymbolTableRecord
100
AcDbDimStyleTableRecord
  2
DIMSTYLE_1
 70
0
  3

  4

 40
1.0
 41
3.0
 42
0.0625
 43
0.38
 44
0.18
 45
0.0
 46
0.0
 47
0.0
 48
0.0
140
3.0
141
0.09
142
0.0
143
25.4
144
1.0
145
0.0
146
1.0
147
0.09
 71
0.0
 72
0.0
 73
0
 74
0
 75
0
 76
0
 77
1
 78
8
170
0
171
2
172
0
173
0
174
0
175
0
176
0
177
0
178
0
270
2
271
2
272
2
273
2
274
2
275
0
280
0
281
0
282
0
283
1
284
8
285
0
286
0
287
3
288
0
340
11
341
21A
342
21A
343
21A
344
21A
  0
ENDTAB
  0
ENDSEC
  0
SECTION
  2
BLOCKS
  0
BLOCK
  5
20
100
AcDbEntity
  8
0
100
AcDbBlockBegin
  2
*Model_Space
 70
0
 10
0.0
 20
0.0
 30
0.0
  3
*Model_Space
  1

  0
ENDBLK
  5
21
100
AcDbEntity
  8
0
100
AcDbBlockEnd
  0
BLOCK
  5
1C
100
AcDbEntity
  8
0
100
AcDbBlockBegin
  2
*Paper_Space
 70
0
 10
0.0
 20
0.0
 30
0.0
  3
*Paper_Space
  1

  0
ENDBLK
  5
1D
100
AcDbEntity
  8
0
100
AcDbBlockEnd
  0
BLOCK
  5
221
100
AcDbEntity
  8
0
100
AcDbBlockBegin
  2
_FILLED
 70
64
 10
0.0
 20
0.0
  3
_FILLED
  1

  0
SOLID
  5
222
100
AcDbEntity
  8
0
  6
BYBLOCK
 62
0
100
AcDbTrace
 10
0.0
 20
0.0
 11
-1.0
 21
0.3166666667
 12
-1.0
 22
-0.3166666667
 13
-1.0
 23
-0.3166666667
  0
ENDBLK
  5
223
100
AcDbEntity
  8
0
  6
BYBLOCK
 62
0
100
AcDbBlockEnd
  0
BLOCK
  5
224
100
AcDbEntity
  8
0
100
AcDbBlockBegin
 62
7
  6
CONTINUOUS
  2
*D0
 70
65
 10
0.0
 20
0.0
  3
*D0
  1

  0
MTEXT
  5
225
100
AcDbEntity
  8
0
100
AcDbMText
 62
7
  6
CONTINUOUS
  7
STANDARD
 71
2
 72
1
 10
1.368
 20
36.25
 30
0.0
 11
1.0
 21
0.0
 31
0.0
 44
0.9
  1
44,8
 40
3.0
 41
8.7857142857
  0
LINE
  5
226
100
AcDbEntity
  8
0
100
AcDbLine
 62
7
  6
CONTINUOUS
 10
23.768
 20
22.3911779406
 11
23.768
 21
34.0
  0
LINE
  5
227
100
AcDbEntity
  8
0
100
AcDbLine
 62
7
  6
CONTINUOUS
 10
-21.032
 20
22.3911779406
 11
-21.032
 21
34.0
  0
LINE
  5
228
100
AcDbEntity
  8
0
100
AcDbLine
 62
7
  6
CONTINUOUS
 10
23.768
 20
32.5
 11
1.368
 21
32.5
  0
LINE
  5
229
100
AcDbEntity
  8
0
100
AcDbLine
 62
7
  6
CONTINUOUS
 10
-21.032
 20
32.5
 11
1.368
 21
32.5
  0
INSERT
  5
22A
100
AcDbEntity
  8
0
100
AcDbBlockReference
 62
7
  6
CONTINUOUS
  2
_FILLED
 10
23.768
 20
32.5
 41
3.0
 42
3.0
 43
3.0
  0
INSERT
  5
22B
100
AcDbEntity
  8
0
100
AcDbBlockReference
 62
7
  6
CONTINUOUS
  2
_FILLED
 10
-21.032
 20
32.5
 41
3.0
 42
3.0
 43
3.0
 50
180.0
  0
ENDBLK
  5
22C
100
AcDbEntity
  8
0
  6
BYBLOCK
 62
0
100
AcDbBlockEnd
  0
BLOCK
  5
22D
100
AcDbEntity
  8
0
100
AcDbBlockBegin
 62
7
  6
CONTINUOUS
  2
*D1
 70
65
 10
0.0
 20
0.0
  3
*D1
  1

  0
MTEXT
  5
22E
100
AcDbEntity
  8
0
100
AcDbMText
 62
7
  6
CONTINUOUS
  7
STANDARD
 71
2
 72
1
 10
28.118
 20
0.0
 30
0.0
 11
0.0
 21
1.0
 31
0.0
 44
0.9
  1
49
 40
3.0
 41
4.7142857143
  0
LINE
  5
22F
100
AcDbEntity
  8
0
100
AcDbLine
 62
7
  6
CONTINUOUS
 10
23.5180042308
 20
24.5
 11
33.368
 21
24.5
  0
LINE
  5
230
100
AcDbEntity
  8
0
100
AcDbLine
 62
7
  6
CONTINUOUS
 10
23.5180042308
 20
-24.5
 11
33.368
 21
-24.5
  0
LINE
  5
231
100
AcDbEntity
  8
0
100
AcDbLine
 62
7
  6
CONTINUOUS
 10
31.868
 20
24.5
 11
31.868
 21
0.0
  0
LINE
  5
232
100
AcDbEntity
  8
0
100
AcDbLine
 62
7
  6
CONTINUOUS
 10
31.868
 20
-24.5
 11
31.868
 21
0.0
  0
INSERT
  5
233
100
AcDbEntity
  8
0
100
AcDbBlockReference
 62
7
  6
CONTINUOUS
  2
_FILLED
 10
31.868
 20
24.5
 41
3.0
 42
3.0
 43
3.0
 50
90.0
  0
INSERT
  5
234
100
AcDbEntity
  8
0
100
AcDbBlockReference
 62
7
  6
CONTINUOUS
  2
_FILLED
 10
31.868
 20
-24.5
 41
3.0
 42
3.0
 43
3.0
 50
270.0
  0
ENDBLK
  5
235
100
AcDbEntity
  8
0
  6
BYBLOCK
 62
0
100
AcDbBlockEnd
  0
BLOCK
  5
236
100
AcDbEntity
  8
0
100
AcDbBlockBegin
 62
7
  6
CONTINUOUS
  2
*D2
 70
65
 10
0.0
 20
0.0
  3
*D2
  1

  0
MTEXT
  5
237
100
AcDbEntity
  8
0
100
AcDbMText
 62
7
  6
CONTINUOUS
  7
STANDARD
 71
2
 72
1
 10
-49.8023701545
 20
36.25
 30
0.0
 11
1.0
 21
0.0
 31
0.0
 44
0.9
  1
37
 40
3.0
 41
4.5
  0
LINE
  5
238
100
AcDbEntity
  8
0
100
AcDbLine
 62
7
  6
CONTINUOUS
 10
-31.3023701545
 20
17.9185185038
 11
-31.3023701545
 21
34.0
  0
LINE
  5
239
100
AcDbEntity
  8
0
100
AcDbLine
 62
7
  6
CONTINUOUS
 10
-68.3023701545
 20
22.899689968
 11
-68.3023701545
 21
34.0
  0
LINE
  5
23A
100
AcDbEntity
  8
0
100
AcDbLine
 62
7
  6
CONTINUOUS
 10
-31.3023701545
 20
32.5
 11
-49.8023701545
 21
32.5
  0
LINE
  5
23B
100
AcDbEntity
  8
0
100
AcDbLine
 62
7
  6
CONTINUOUS
 10
-68.3023701545
 20
32.5
 11
-49.8023701545
 21
32.5
  0
INSERT
  5
23C
100
AcDbEntity
  8
0
100
AcDbBlockReference
 62
7
  6
CONTINUOUS
  2
_FILLED
 10
-31.3023701545
 20
32.5
 41
3.0
 42
3.0
 43
3.0
  0
INSERT
  5
23D
100
AcDbEntity
  8
0
100
AcDbBlockReference
 62
7
  6
CONTINUOUS
  2
_FILLED
 10
-68.3023701545
 20
32.5
 41
3.0
 42
3.0
 43
3.0
 50
180.0
  0
ENDBLK
  5
23E
100
AcDbEntity
  8
0
  6
BYBLOCK
 62
0
100
AcDbBlockEnd
  0
BLOCK
  5
23F
100
AcDbEntity
  8
0
100
AcDbBlockBegin
 62
7
  6
CONTINUOUS
  2
*D3
 70
65
 10
0.0
 20
0.0
  3
*D3
  1

  0
MTEXT
  5
240
100
AcDbEntity
  8
0
100
AcDbMText
 62
7
  6
CONTINUOUS
  7
STANDARD
 71
2
 72
1
 10
-54.5523701545
 20
46.25
 30
0.0
 11
1.0
 21
0.0
 31
0.0
 44
0.9
  1
46,5
 40
3.0
 41
8.5714285714
  0
LINE
  5
241
100
AcDbEntity
  8
0
100
AcDbLine
 62
7
  6
CONTINUOUS
 10
-31.3023701545
 20
17.9185185038
 11
-31.3023701545
 21
44.0
  0
LINE
  5
242
100
AcDbEntity
  8
0
100
AcDbLine
 62
7
  6
CONTINUOUS
 10
-77.8023701545
 20
0.5
 11
-77.8023701545
 21
44.0
  0
LINE
  5
243
100
AcDbEntity
  8
0
100
AcDbLine
 62
7
  6
CONTINUOUS
 10
-31.3023701545
 20
42.5
 11
-54.5523701545
 21
42.5
  0
LINE
  5
244
100
AcDbEntity
  8
0
100
AcDbLine
 62
7
  6
CONTINUOUS
 10
-77.8023701545
 20
42.5
 11
-54.5523701545
 21
42.5
  0
INSERT
  5
245
100
AcDbEntity
  8
0
100
AcDbBlockReference
 62
7
  6
CONTINUOUS
  2
_FILLED
 10
-31.3023701545
 20
42.5
 41
3.0
 42
3.0
 43
3.0
  0
INSERT
  5
246
100
AcDbEntity
  8
0
100
AcDbBlockReference
 62
7
  6
CONTINUOUS
  2
_FILLED
 10
-77.8023701545
 20
42.5
 41
3.0
 42
3.0
 43
3.0
 50
180.0
  0
ENDBLK
  5
247
100
AcDbEntity
  8
0
  6
BYBLOCK
 62
0
100
AcDbBlockEnd
  0
ENDSEC
  0
SECTION
  2
ENTITIES
  0
DIMENSION
  5
248
100
AcDbEntity
  8
0
100
AcDbDimension
 62
7
  6
CONTINUOUS
  2
*D0
 10
-21.032
 20
32.5
 11
-3.0248571429
 21
34.75
 70
160
 71
2
 42
44.8
  3
DIMSTYLE_1
100
AcDbAlignedDimension
 13
23.768
 23
22.3911779406
 14
-21.032
 24
22.3911779406
 50
180.0
100
AcDbRotatedDimension
  0
DIMENSION
  5
249
100
AcDbEntity
  8
0
100
AcDbDimension
 62
7
  6
CONTINUOUS
  2
*D1
 10
31.868
 20
-24.5
 11
30.6741735237
 21
-2.1072778499
 70
160
 71
2
 42
49.0
  3
DIMSTYLE_1
100
AcDbAlignedDimension
 13
23.5180042308
 23
24.5
 14
23.5180042308
 24
-24.5
 50
270.0
100
AcDbRotatedDimension
  0
DIMENSION
  5
24A
100
AcDbEntity
  8
0
100
AcDbDimension
 62
7
  6
CONTINUOUS
  2
*D2
 10
-68.3023701545
 20
32.5
 11
-52.0523701545
 21
34.75
 70
160
 71
2
 42
37.0
  3
DIMSTYLE_1
100
AcDbAlignedDimension
 13
-31.3023701545
 23
17.9185185038
 14
-68.3023701545
 24
22.899689968
 50
180.0
100
AcDbRotatedDimension
  0
DIMENSION
  5
24B
100
AcDbEntity
  8
0
100
AcDbDimension
 62
7
  6
CONTINUOUS
  2
*D3
 10
-77.8023701545
 20
42.5
 11
-58.8380844403
 21
44.75
 70
160
 71
2
 42
46.5
  3
DIMSTYLE_1
100
AcDbAlignedDimension
 13
-31.3023701545
 23
17.9185185038
 14
-77.8023701545
 24
0.5
 50
180.0
100
AcDbRotatedDimension
  0
LINE
  5
24C
100
AcDbEntity
  8
RACCORDO
100
AcDbLine
 62
253
  6
CONTINUOUS
 10
-18.3819619238
 20
24.5
 11
-18.4213119781
 21
24.4606499457
  0
LINE
  5
24D
100
AcDbEntity
  8
RACCORDO
100
AcDbLine
 62
253
  6
CONTINUOUS
 10
-18.132
 20
24.2500380762
 11
-18.1713500543
 21
24.2106880219
  0
LINE
  5
24E
100
AcDbEntity
  8
RACCORDO
100
AcDbLine
 62
253
  6
CONTINUOUS
 10
-18.4213119781
 20
-24.4606499457
 11
-18.3819619238
 21
-24.5
  0
LINE
  5
24F
100
AcDbEntity
  8
RACCORDO
100
AcDbLine
 62
253
  6
CONTINUOUS
 10
-18.1713500543
 20
-24.2106880219
 11
-18.132
 21
-24.2500380762
  0
LINE
  5
250
100
AcDbEntity
  8
RACCORDO
100
AcDbLine
 62
7
  6
CONTINUOUS
 10
-18.1538949894
 20
22.3781050106
 11
-18.132
 21
22.4
  0
LINE
  5
251
100
AcDbEntity
  8
RACCORDO
100
AcDbLine
 62
253
  6
CONTINUOUS
 10
-20.9883623377
 20
21.9129951101
 11
-21.032
 21
21.8911779406
  0
LINE
  5
252
100
AcDbEntity
  8
RACCORDO
100
AcDbLine
 62
7
  6
CONTINUOUS
 10
-20.6824855365
 20
22.3738174026
 11
-20.7124057827
 21
22.3598951168
  0
LINE
  5
253
100
AcDbEntity
  8
RACCORDO
100
AcDbLine
 62
7
  6
CONTINUOUS
 10
-20.7124057827
 20
-22.3598951168
 11
-20.6824855365
 21
-22.3738174026
  0
LINE
  5
254
100
AcDbEntity
  8
RACCORDO
100
AcDbLine
 62
253
  6
CONTINUOUS
 10
-20.9883623377
 20
-21.9129951101
 11
-21.032
 21
-21.8911779406
  0
LINE
  5
255
100
AcDbEntity
  8
RACCORDO
100
AcDbLine
 62
7
  6
CONTINUOUS
 10
-18.1538949894
 20
-22.3781050106
 11
-18.132
 21
-22.4
  0
LINE
  5
256
100
AcDbEntity
  8
RACCORDO
100
AcDbLine
 62
7
  6
CONTINUOUS
 10
23.0180042308
 20
-24.5
 11
21.1179957692
 21
-24.5
  0
LINE
  5
257
100
AcDbEntity
  8
RACCORDO
100
AcDbLine
 62
7
  6
CONTINUOUS
 10
4.1180042308
 20
-24.5
 11
2.2179957692
 21
-24.5
  0
LINE
  5
258
100
AcDbEntity
  8
RACCORDO
100
AcDbLine
 62
7
  6
CONTINUOUS
 10
-1.3820095192
 20
-24.5
 11
0.5180095192
 21
-24.5
  0
LINE
  5
259
100
AcDbEntity
  8
RACCORDO
100
AcDbLine
 62
7
  6
CONTINUOUS
 10
-18.3819904808
 20
-24.5
 11
-20.2820095192
 21
-24.5
  0
LINE
  5
25A
100
AcDbEntity
  8
RACCORDO
100
AcDbLine
 62
253
  6
CONTINUOUS
 10
2.2310943479
 20
-24.4869014213
 11
4.1049056521
 21
-24.4869014213
  0
LINE
  5
25B
100
AcDbEntity
  8
RACCORDO
100
AcDbLine
 62
253
  6
CONTINUOUS
 10
21.1310943479
 20
-24.4869014213
 11
23.0049056521
 21
-24.4869014213
  0
LINE
  5
25C
100
AcDbEntity
  8
RACCORDO
100
AcDbLine
 62
253
  6
CONTINUOUS
 10
0.4786880219
 20
-24.4606499457
 11
-1.3426880219
 21
-24.4606499457
  0
LINE
  5
25D
100
AcDbEntity
  8
RACCORDO
100
AcDbLine
 62
253
  6
CONTINUOUS
 10
-18.4213119781
 20
-24.4606499457
 11
-20.2426880219
 21
-24.4606499457
  0
LINE
  5
25E
100
AcDbEntity
  8
RACCORDO
100
AcDbLine
 62
253
  6
CONTINUOUS
 10
1.9810985787
 20
-24.2369056521
 11
4.3549014213
 21
-24.2369056521
  0
LINE
  5
25F
100
AcDbEntity
  8
RACCORDO
100
AcDbLine
 62
253
  6
CONTINUOUS
 10
20.8810985787
 20
-24.2369056521
 11
23.2549014213
 21
-24.2369056521
  0
LINE
  5
260
100
AcDbEntity
  8
RACCORDO
100
AcDbLine
 62
253
  6
CONTINUOUS
 10
0.7286499457
 20
-24.2106880219
 11
-1.5926499457
 21
-24.2106880219
  0
LINE
  5
261
100
AcDbEntity
  8
RACCORDO
100
AcDbLine
 62
253
  6
CONTINUOUS
 10
-18.1713500543
 20
-24.2106880219
 11
-20.4926499457
 21
-24.2106880219
  0
LINE
  5
262
100
AcDbEntity
  8
RACCORDO
100
AcDbLine
 62
253
  6
CONTINUOUS
 10
0.7286499457
 20
-23.8443375673
 11
-1.5926499457
 21
-23.8443375673
  0
LINE
  5
263
100
AcDbEntity
  8
RACCORDO
100
AcDbLine
 62
253
  6
CONTINUOUS
 10
1.9810985787
 20
-23.8443375673
 11
4.3549014213
 21
-23.8443375673
  0
LINE
  5
264
100
AcDbEntity
  8
RACCORDO
100
AcDbLine
 62
253
  6
CONTINUOUS
 10
-18.1713500543
 20
-23.8443375673
 11
-20.4926499457
 21
-23.8443375673
  0
LINE
  5
265
100
AcDbEntity
  8
RACCORDO
100
AcDbLine
 62
253
  6
CONTINUOUS
 10
20.8810985787
 20
-23.8443375673
 11
23.2549014213
 21
-23.8443375673
  0
LINE
  5
266
100
AcDbEntity
  8
DRAFT
100
AcDbLine
 62
7
  6
CONTINUOUS
 10
-14.282
 20
-23.8
 11
-5.482
 21
-23.8
  0
LINE
  5
267
100
AcDbEntity
  8
DRAFT
100
AcDbLine
 62
7
  6
CONTINUOUS
 10
17.018
 20
-23.8
 11
8.218
 21
-23.8
  0
LINE
  5
268
100
AcDbEntity
  8
RACCORDO
100
AcDbLine
 62
253
  6
CONTINUOUS
 10
8.3217926863
 20
-23.7953389668
 11
16.9142073137
 21
-23.7953389668
  0
LINE
  5
269
100
AcDbEntity
  8
RACCORDO
100
AcDbLine
 62
7
  6
CONTINUOUS
 10
-13.7731963035
 20
-23.7825449351
 11
-5.9908036965
 21
-23.7825449351
  0
LINE
  5
26A
100
AcDbEntity
  8
RACCORDO
100
AcDbLine
 62
253
  6
CONTINUOUS
 10
23.0049056521
 20
-23.6278312164
 11
21.1310943479
 21
-23.6278312164
  0
LINE
  5
26B
100
AcDbEntity
  8
RACCORDO
100
AcDbLine
 62
253
  6
CONTINUOUS
 10
4.1049056521
 20
-23.6278312164
 11
2.2310943479
 21
-23.6278312164
  0
LINE
  5
26C
100
AcDbEntity
  8
RACCORDO
100
AcDbLine
 62
253
  6
CONTINUOUS
 10
0.4786880219
 20
-23.6278312164
 11
-1.3426880219
 21
-23.6278312164
  0
LINE
  5
26D
100
AcDbEntity
  8
RACCORDO
100
AcDbLine
 62
253
  6
CONTINUOUS
 10
-18.4213119781
 20
-23.6278312164
 11
-20.2426880219
 21
-23.6278312164
  0
LINE
  5
26E
100
AcDbEntity
  8
RACCORDO
100
AcDbLine
 62
253
  6
CONTINUOUS
 10
8.7209173766
 20
-23.5953423515
 11
16.5150826234
 21
-23.5953423515
  0
LINE
  5
26F
100
AcDbEntity
  8
RACCORDO
100
AcDbLine
 62
253
  6
CONTINUOUS
 10
-20.2557793206
 20
-23.1948185145
 11
-18.4082206794
 21
-23.1948185145
  0
LINE
  5
270
100
AcDbEntity
  8
RACCORDO
100
AcDbLine
 62
253
  6
CONTINUOUS
 10
-1.3557793206
 20
-23.1948185145
 11
0.4917793206
 21
-23.1948185145
  0
LINE
  5
271
100
AcDbEntity
  8
RACCORDO
100
AcDbLine
 62
7
  6
CONTINUOUS
 10
2.2260037468
 20
-23.1226497308
 11
4.1099962532
 21
-23.1226497308
  0
LINE
  5
272
100
AcDbEntity
  8
RACCORDO
100
AcDbLine
 62
7
  6
CONTINUOUS
 10
21.1260037468
 20
-23.1226497308
 11
23.0099962532
 21
-23.1226497308
  0
LINE
  5
273
100
AcDbEntity
  8
RACCORDO
100
AcDbLine
 62
253
  6
CONTINUOUS
 10
0.7461050106
 20
-22.9783121636
 11
-1.6101050106
 21
-22.9783121636
  0
LINE
  5
274
100
AcDbEntity
  8
RACCORDO
100
AcDbLine
 62
253
  6
CONTINUOUS
 10
-18.1538949894
 20
-22.9783121636
 11
-20.5101050106
 21
-22.9783121636
  0
LINE
  5
275
100
AcDbEntity
  8
RACCORDO
100
AcDbLine
 62
253
  6
CONTINUOUS
 10
-20.4926499457
 20
-23.8443375673
 11
-20.5057412444
 21
-23.4113248654
  0
LINE
  5
276
100
AcDbEntity
  8
RACCORDO
100
AcDbLine
 62
253
  6
CONTINUOUS
 10
-20.2426880219
 20
-23.6278312164
 11
-20.2557793206
 21
-23.1948185145
  0
LINE
  5
277
100
AcDbEntity
  8
RACCORDO
100
AcDbLine
 62
7
  6
CONTINUOUS
 10
-21.032
 20
-21.8911779406
 11
-21.032
 21
21.8911779406
  0
LINE
  5
278
100
AcDbEntity
  8
ASSI
100
AcDbLine
 62
7
  6
CONTINUOUS
 10
-21.032
 20
-17.6716990487
 11
-21.032
 21
17.6716990487
  0
LINE
  5
279
100
AcDbEntity
  8
RACCORDO
100
AcDbLine
 62
7
  6
CONTINUOUS
 10
-21.007
 20
0.3999657321
 11
-21.007
 21
21.7497711479
  0
LINE
  5
27A
100
AcDbEntity
  8
DRAFT
100
AcDbLine
 62
7
  6
CONTINUOUS
 10
-21.0023263896
 20
-20.8
 11
-21.0023263896
 21
0.0
  0
LINE
  5
27B
100
AcDbEntity
  8
RACCORDO
100
AcDbLine
 62
7
  6
CONTINUOUS
 10
-20.9883623377
 20
21.9129951101
 11
-20.9883623377
 21
21.8845509699
  0
LINE
  5
27C
100
AcDbEntity
  8
DRAFT
100
AcDbLine
 62
7
  6
CONTINUOUS
 10
-20.9883623377
 20
0.2963349534
 11
-20.9883623377
 21
0.0
  0
LINE
  5
27D
100
AcDbEntity
  8
RACCORDO
100
AcDbLine
 62
7
  6
CONTINUOUS
 10
-20.9883623377
 20
-20.8
 11
-20.9883623377
 21
-21.9129951101
  0
LINE
  5
27E
100
AcDbEntity
  8
RACCORDO
100
AcDbLine
 62
7
  6
CONTINUOUS
 10
-20.982
 20
-20.6781864496
 11
-20.982
 21
-0.3
  0
LINE
  5
27F
100
AcDbEntity
  8
RACCORDO
100
AcDbLine
 62
7
  6
CONTINUOUS
 10
-20.971526961
 20
-20.6781864496
 11
-20.971526961
 21
-21.6183264804
  0
LINE
  5
280
100
AcDbEntity
  8
RACCORDO
100
AcDbLine
 62
7
  6
CONTINUOUS
 10
-20.532
 20
-22.399689968
 11
-20.532
 21
-24.2500095192
  0
LINE
  5
281
100
AcDbEntity
  8
RACCORDO
100
AcDbLine
 62
7
  6
CONTINUOUS
 10
-20.532
 20
22.399689968
 11
-20.532
 21
24.2500095192
  0
LINE
  5
282
100
AcDbEntity
  8
RACCORDO
100
AcDbLine
 62
253
  6
CONTINUOUS
 10
-20.5101050106
 20
-22.9783121635
 11
-20.5101050106
 21
-22.3781050106
  0
LINE
  5
283
100
AcDbEntity
  8
RACCORDO
100
AcDbLine
 62
253
  6
CONTINUOUS
 10
-20.5101050106
 20
22.3781050106
 11
-20.5101050106
 21
22.9783121635
  0
LINE
  5
284
100
AcDbEntity
  8
RACCORDO
100
AcDbLine
 62
253
  6
CONTINUOUS
 10
-20.4926499457
 20
-24.2106880219
 11
-20.4926499457
 21
-23.8443375673
  0
LINE
  5
285
100
AcDbEntity
  8
RACCORDO
100
AcDbLine
 62
253
  6
CONTINUOUS
 10
-20.4926499457
 20
23.8443375673
 11
-20.4926499457
 21
24.2106880219
  0
LINE
  5
286
100
AcDbEntity
  8
RACCORDO
100
AcDbLine
 62
253
  6
CONTINUOUS
 10
-20.2601430868
 20
-22.9783121635
 11
-20.2601430868
 21
-22.3738174026
  0
LINE
  5
287
100
AcDbEntity
  8
RACCORDO
100
AcDbLine
 62
253
  6
CONTINUOUS
 10
-20.2601430868
 20
22.3738174026
 11
-20.2601430868
 21
22.9783121635
  0
LINE
  5
288
100
AcDbEntity
  8
RACCORDO
100
AcDbLine
 62
253
  6
CONTINUOUS
 10
-20.2426880219
 20
-24.4606499457
 11
-20.2426880219
 21
-23.6278312164
  0
LINE
  5
289
100
AcDbEntity
  8
RACCORDO
100
AcDbLine
 62
253
  6
CONTINUOUS
 10
-20.2426880219
 20
23.6278312164
 11
-20.2426880219
 21
24.4606499457
  0
LINE
  5
28A
100
AcDbEntity
  8
RACCORDO
100
AcDbLine
 62
253
  6
CONTINUOUS
 10
-20.5057412444
 20
23.4113248654
 11
-20.4926499457
 21
23.8443375673
  0
LINE
  5
28B
100
AcDbEntity
  8
RACCORDO
100
AcDbLine
 62
253
  6
CONTINUOUS
 10
-20.2557793206
 20
23.1948185145
 11
-20.2426880219
 21
23.6278312164
  0
LINE
  5
28C
100
AcDbEntity
  8
RACCORDO
100
AcDbLine
 62
7
  6
CONTINUOUS
 10
-5.482
 20
23.8
 11
-5.4908798489
 21
23.7911201511
  0
LINE
  5
28D
100
AcDbEntity
  8
DRAFT
100
AcDbLine
 62
7
  6
CONTINUOUS
 10
20.868
 20
-22.4
 11
17.018
 21
-22.4
  0
LINE
  5
28E
100
AcDbEntity
  8
DRAFT
100
AcDbLine
 62
7
  6
CONTINUOUS
 10
8.218
 20
-22.4
 11
4.368
 21
-22.4
  0
LINE
  5
28F
100
AcDbEntity
  8
DRAFT
100
AcDbLine
 62
7
  6
CONTINUOUS
 10
1.968
 20
-22.4
 11
0.768
 21
-22.4
  0
LINE
  5
290
100
AcDbEntity
  8
ASSI
100
AcDbLine
 62
7
  6
CONTINUOUS
 10
1.968
 20
-22.4
 11
0.768
 21
-22.4
  0
LINE
  5
291
100
AcDbEntity
  8
DRAFT
100
AcDbLine
 62
7
  6
CONTINUOUS
 10
-1.632
 20
-22.4
 11
-5.482
 21
-22.4
  0
LINE
  5
292
100
AcDbEntity
  8
DRAFT
100
AcDbLine
 62
7
  6
CONTINUOUS
 10
-14.282
 20
-22.4
 11
-18.132
 21
-22.4
  0
LINE
  5
293
100
AcDbEntity
  8
RACCORDO
100
AcDbLine
 62
7
  6
CONTINUOUS
 10
-5.9908036965
 20
-22.3825449351
 11
-13.7731963035
 21
-22.3825449351
  0
LINE
  5
294
100
AcDbEntity
  8
RACCORDO
100
AcDbLine
 62
7
  6
CONTINUOUS
 10
-20.6824855365
 20
-22.3738174026
 11
-20.2601430868
 21
-22.3738174026
  0
LINE
  5
295
100
AcDbEntity
  8
RACCORDO
100
AcDbLine
 62
7
  6
CONTINUOUS
 10
-18.4038569132
 20
-22.3738174026
 11
-1.3601430868
 21
-22.3738174026
  0
LINE
  5
296
100
AcDbEntity
  8
RACCORDO
100
AcDbLine
 62
7
  6
CONTINUOUS
 10
0.4961430868
 20
-22.3738174026
 11
0.9184855365
 21
-22.3738174026
  0
LINE
  5
297
100
AcDbEntity
  8
RACCORDO
100
AcDbLine
 62
7
  6
CONTINUOUS
 10
16.5150826234
 20
-22.3475922207
 11
8.7209173766
 21
-22.3475922207
  0
LINE
  5
298
100
AcDbEntity
  8
RACCORDO
100
AcDbLine
 62
7
  6
CONTINUOUS
 10
2.2252765181
 20
-22.3213883311
 11
4.1107234819
 21
-22.3213883311
  0
LINE
  5
299
100
AcDbEntity
  8
RACCORDO
100
AcDbLine
 62
7
  6
CONTINUOUS
 10
21.1252765181
 20
-22.3213883311
 11
23.0107234819
 21
-22.3213883311
  0
LINE
  5
29A
100
AcDbEntity
  8
RACCORDO
100
AcDbLine
 62
7
  6
CONTINUOUS
 10
-20.4719075608
 20
-22.1185553324
 11
0.7079075608
 21
-22.1185553324
  0
LINE
  5
29B
100
AcDbEntity
  8
RACCORDO
100
AcDbLine
 62
253
  6
CONTINUOUS
 10
2.1187240378
 20
-21.998725222
 11
23.1172759622
 21
-21.998725222
  0
LINE
  5
29C
100
AcDbEntity
  8
RACCORDO
100
AcDbLine
 62
253
  6
CONTINUOUS
 10
0.6545220751
 20
-21.9582686327
 11
-20.4185220751
 21
-21.9582686327
  0
LINE
  5
29D
100
AcDbEntity
  8
DRAFT
100
AcDbLine
 62
7
  6
CONTINUOUS
 10
1.268
 20
-21.3
 11
1.468
 21
-21.3
  0
LINE
  5
29E
100
AcDbEntity
  8
ASSI
100
AcDbLine
 62
7
  6
CONTINUOUS
 10
1.268
 20
-21.3
 11
1.468
 21
-21.3
  0
LINE
  5
29F
100
AcDbEntity
  8
DRAFT
100
AcDbLine
 62
7
  6
CONTINUOUS
 10
1.268
 20
-21.1516319481
 11
1.468
 21
-21.1516319481
  0
LINE
  5
2A0
100
AcDbEntity
  8
ASSI
100
AcDbLine
 62
7
  6
CONTINUOUS
 10
1.268
 20
-21.1516319481
 11
1.468
 21
-21.1516319481
  0
LINE
  5
2A1
100
AcDbEntity
  8
DRAFT
100
AcDbLine
 62
7
  6
CONTINUOUS
 10
1.207526961
 20
-20.8
 11
1.2383263896
 21
-20.8
  0
LINE
  5
2A2
100
AcDbEntity
  8
DRAFT
100
AcDbLine
 62
7
  6
CONTINUOUS
 10
-20.971526961
 20
-20.8
 11
-21.0023263896
 21
-20.8
  0
LINE
  5
2A3
100
AcDbEntity
  8
DRAFT
100
AcDbLine
 62
7
  6
CONTINUOUS
 10
-20.982
 20
-20.6781864496
 11
-20.971526961
 21
-20.6781864496
  0
LINE
  5
2A4
100
AcDbEntity
  8
DRAFT
100
AcDbLine
 62
7
  6
CONTINUOUS
 10
1.218
 20
-20.6781864496
 11
1.207526961
 21
-20.6781864496
  0
LINE
  5
2A5
100
AcDbEntity
  8
RACCORDO
100
AcDbLine
 62
253
  6
CONTINUOUS
 10
2.1352508085
 20
-20.5624683248
 11
23.1007491915
 21
-20.5624683248
  0
LINE
  5
2A6
100
AcDbEntity
  8
RACCORDO
100
AcDbLine
 62
253
  6
CONTINUOUS
 10
0.6379952462
 20
-20.5218900006
 11
-20.4019952462
 21
-20.5218900006
  0
LINE
  5
2A7
100
AcDbEntity
  8
RACCORDO
100
AcDbLine
 62
7
  6
CONTINUOUS
 10
-5.482
 20
-23.8
 11
-5.4908798489
 21
-23.7911201511
  0
LINE
  5
2A8
100
AcDbEntity
  8
DRAFT
100
AcDbLine
 62
7
  6
CONTINUOUS
 10
-19.382
 20
0.0
 11
-19.382
 21
-0.1
  0
LINE
  5
2A9
100
AcDbEntity
  8
DRAFT
100
AcDbLine
 62
7
  6
CONTINUOUS
 10
-19.3750185058
 20
0.0
 11
-19.3750185058
 21
-0.1
  0
LINE
  5
2AA
100
AcDbEntity
  8
RACCORDO
100
AcDbLine
 62
253
  6
CONTINUOUS
 10
-18.4213119781
 20
-23.6278312164
 11
-18.4213119781
 21
-24.4606499457
  0
LINE
  5
2AB
100
AcDbEntity
  8
RACCORDO
100
AcDbLine
 62
253
  6
CONTINUOUS
 10
-18.4213119781
 20
23.6278312164
 11
-18.4213119781
 21
24.4606499457
  0
LINE
  5
2AC
100
AcDbEntity
  8
RACCORDO
100
AcDbLine
 62
253
  6
CONTINUOUS
 10
-18.4038569132
 20
22.9783121635
 11
-18.4038569132
 21
22.3738174026
  0
LINE
  5
2AD
100
AcDbEntity
  8
RACCORDO
100
AcDbLine
 62
253
  6
CONTINUOUS
 10
-18.4038569132
 20
-22.3738174026
 11
-18.4038569132
 21
-22.9783121635
  0
LINE
  5
2AE
100
AcDbEntity
  8
DRAFT
100
AcDbLine
 62
7
  6
CONTINUOUS
 10
-18.2389814942
 20
0.0
 11
-18.2389814942
 21
-0.1
  0
LINE
  5
2AF
100
AcDbEntity
  8
DRAFT
100
AcDbLine
 62
7
  6
CONTINUOUS
 10
-18.232
 20
-0.1
 11
-18.232
 21
0.0
  0
LINE
  5
2B0
100
AcDbEntity
  8
RACCORDO
100
AcDbLine
 62
253
  6
CONTINUOUS
 10
-18.1713500543
 20
24.2106880219
 11
-18.1713500543
 21
23.8443375673
  0
LINE
  5
2B1
100
AcDbEntity
  8
RACCORDO
100
AcDbLine
 62
253
  6
CONTINUOUS
 10
-18.1713500543
 20
-23.8443375673
 11
-18.1713500543
 21
-24.2106880219
  0
LINE
  5
2B2
100
AcDbEntity
  8
RACCORDO
100
AcDbLine
 62
253
  6
CONTINUOUS
 10
-18.1538949894
 20
22.9783121635
 11
-18.1538949894
 21
22.3781050106
  0
LINE
  5
2B3
100
AcDbEntity
  8
RACCORDO
100
AcDbLine
 62
253
  6
CONTINUOUS
 10
-18.1538949894
 20
-22.3781050106
 11
-18.1538949894
 21
-22.9783121635
  0
LINE
  5
2B4
100
AcDbEntity
  8
RACCORDO
100
AcDbLine
 62
7
  6
CONTINUOUS
 10
-18.132
 20
-24.2500095192
 11
-18.132
 21
-22.4
  0
LINE
  5
2B5
100
AcDbEntity
  8
RACCORDO
100
AcDbLine
 62
7
  6
CONTINUOUS
 10
-18.132
 20
22.4
 11
-18.132
 21
24.2500095192
  0
LINE
  5
2B6
100
AcDbEntity
  8
RACCORDO
100
AcDbLine
 62
7
  6
CONTINUOUS
 10
-5.482
 20
22.4
 11
-5.4908798489
 21
22.3911201511
  0
LINE
  5
2B7
100
AcDbEntity
  8
RACCORDO
100
AcDbLine
 62
7
  6
CONTINUOUS
 10
1.7619855906
 20
22.3472251339
 11
1.744482998
 21
22.3384745041
  0
LINE
  5
2B8
100
AcDbEntity
  8
RACCORDO
100
AcDbLine
 62
253
  6
CONTINUOUS
 10
1.4854169024
 20
21.8998857286
 11
1.468
 21
21.8911779406
  0
LINE
  5
2B9
100
AcDbEntity
  8
RACCORDO
100
AcDbLine
 62
7
  6
CONTINUOUS
 10
1.744482998
 20
-22.3384745041
 11
1.7619855906
 21
-22.3472251339
  0
LINE
  5
2BA
100
AcDbEntity
  8
RACCORDO
100
AcDbLine
 62
253
  6
CONTINUOUS
 10
1.468
 20
-21.8911779406
 11
1.4854169024
 21
-21.8998857286
  0
LINE
  5
2BB
100
AcDbEntity
  8
RACCORDO
100
AcDbLine
 62
7
  6
CONTINUOUS
 10
-5.482
 20
-22.4
 11
-5.4908798489
 21
-22.3911201511
  0
LINE
  5
2BC
100
AcDbEntity
  8
RACCORDO
100
AcDbLine
 62
253
  6
CONTINUOUS
 10
-18.4213119781
 20
23.6278312164
 11
-18.4082206794
 21
23.1948185145
  0
LINE
  5
2BD
100
AcDbEntity
  8
RACCORDO
100
AcDbLine
 62
253
  6
CONTINUOUS
 10
-18.1713500543
 20
23.8443375673
 11
-18.1582587556
 21
23.4113248654
  0
LINE
  5
2BE
100
AcDbEntity
  8
RACCORDO
100
AcDbLine
 62
253
  6
CONTINUOUS
 10
-15.682
 20
13.5
 11
-15.682
 21
10.0
  0
LINE
  5
2BF
100
AcDbEntity
  8
RACCORDO
100
AcDbLine
 62
253
  6
CONTINUOUS
 10
-18.4082206794
 20
-23.1948185145
 11
-18.4213119781
 21
-23.6278312164
  0
LINE
  5
2C0
100
AcDbEntity
  8
RACCORDO
100
AcDbLine
 62
253
  6
CONTINUOUS
 10
-18.1582587556
 20
-23.4113248654
 11
-18.1713500543
 21
-23.8443375673
  0
LINE
  5
2C1
100
AcDbEntity
  8
RACCORDO
100
AcDbLine
 62
253
  6
CONTINUOUS
 10
0.5180380762
 20
24.5
 11
0.4786880219
 21
24.4606499457
  0
LINE
  5
2C2
100
AcDbEntity
  8
RACCORDO
100
AcDbLine
 62
253
  6
CONTINUOUS
 10
0.768
 20
24.2500380762
 11
0.7286499457
 21
24.2106880219
  0
LINE
  5
2C3
100
AcDbEntity
  8
DRAFT
100
AcDbLine
 62
7
  6
CONTINUOUS
 10
1.268
 20
-17.9258216238
 11
1.468
 21
-17.9258216238
  0
LINE
  5
2C4
100
AcDbEntity
  8
ASSI
100
AcDbLine
 62
7
  6
CONTINUOUS
 10
1.268
 20
-17.9258216238
 11
1.468
 21
-17.9258216238
  0
LINE
  5
2C5
100
AcDbEntity
  8
RACCORDO
100
AcDbLine
 62
7
  6
CONTINUOUS
 10
1.468
 20
-17.701518275
 11
1.268
 21
-17.701518275
  0
LINE
  5
2C6
100
AcDbEntity
  8
ASSI
100
AcDbLine
 62
7
  6
CONTINUOUS
 10
1.468
 20
-17.701518275
 11
1.268
 21
-17.701518275
  0
LINE
  5
2C7
100
AcDbEntity
  8
0
100
AcDbLine
 62
7
  6
CONTINUOUS
 10
1.268
 20
-17.5
 11
1.468
 21
-17.5
  0
LINE
  5
2C8
100
AcDbEntity
  8
COSMETICI
100
AcDbLine
 62
7
  6
CONTINUOUS
 10
1.468
 20
-17.2
 11
1.268
 21
-17.2
  0
LINE
  5
2C9
100
AcDbEntity
  8
RACCORDO
100
AcDbLine
 62
253
  6
CONTINUOUS
 10
0.4786880219
 20
-24.4606499457
 11
0.5180380762
 21
-24.5
  0
LINE
  5
2CA
100
AcDbEntity
  8
RACCORDO
100
AcDbLine
 62
253
  6
CONTINUOUS
 10
0.7286499457
 20
-24.2106880219
 11
0.768
 21
-24.2500380762
  0
LINE
  5
2CB
100
AcDbEntity
  8
RACCORDO
100
AcDbLine
 62
253
  6
CONTINUOUS
 10
-15.382
 20
9.7
 11
-15.382
 21
9.5
  0
LINE
  5
2CC
100
AcDbEntity
  8
RACCORDO
100
AcDbLine
 62
253
  6
CONTINUOUS
 10
-15.382
 20
13.8
 11
-15.3819999991
 21
14.0
  0
LINE
  5
2CD
100
AcDbEntity
  8
DRAFT
100
AcDbLine
 62
7
  6
CONTINUOUS
 10
-14.282
 20
23.8
 11
-14.282
 21
22.4
  0
LINE
  5
2CE
100
AcDbEntity
  8
DRAFT
100
AcDbLine
 62
7
  6
CONTINUOUS
 10
-14.282
 20
-22.4
 11
-14.282
 21
-23.8
  0
LINE
  5
2CF
100
AcDbEntity
  8
RACCORDO
100
AcDbLine
 62
253
  6
CONTINUOUS
 10
-14.2731201511
 20
23.7911201511
 11
-14.2731201511
 21
22.3911201511
  0
LINE
  5
2D0
100
AcDbEntity
  8
RACCORDO
100
AcDbLine
 62
253
  6
CONTINUOUS
 10
-14.2731201511
 20
-22.3911201511
 11
-14.2731201511
 21
-23.7911201511
  0
LINE
  5
2D1
100
AcDbEntity
  8
RACCORDO
100
AcDbLine
 62
253
  6
CONTINUOUS
 10
-13.7731963035
 20
23.7825449351
 11
-13.7731963035
 21
22.3825449351
  0
LINE
  5
2D2
100
AcDbEntity
  8
RACCORDO
100
AcDbLine
 62
253
  6
CONTINUOUS
 10
-13.7731963035
 20
-22.3825449351
 11
-13.7731963035
 21
-23.7825449351
  0
LINE
  5
2D3
100
AcDbEntity
  8
RACCORDO
100
AcDbLine
 62
7
  6
CONTINUOUS
 10
0.7461050106
 20
22.3781050106
 11
0.7677933067
 21
22.3997933067
  0
LINE
  5
2D4
100
AcDbEntity
  8
RACCORDO
100
AcDbLine
 62
253
  6
CONTINUOUS
 10
4.1180042308
 20
24.5
 11
4.1049056521
 21
24.4869014213
  0
LINE
  5
2D5
100
AcDbEntity
  8
RACCORDO
100
AcDbLine
 62
253
  6
CONTINUOUS
 10
4.368
 20
24.2500042308
 11
4.3549014213
 21
24.2369056521
  0
LINE
  5
2D6
100
AcDbEntity
  8
DRAFT
100
AcDbLine
 62
7
  6
CONTINUOUS
 10
-19.532
 20
0.1
 11
-19.5093101437
 21
0.1226898563
  0
LINE
  5
2D7
100
AcDbEntity
  8
RACCORDO
100
AcDbLine
 62
7
  6
CONTINUOUS
 10
0.7461050106
 20
-22.3781050106
 11
0.7677933067
 21
-22.3997933067
  0
LINE
  5
2D8
100
AcDbEntity
  8
RACCORDO
100
AcDbLine
 62
253
  6
CONTINUOUS
 10
4.1180042308
 20
-24.5
 11
4.1049056521
 21
-24.4869014213
  0
LINE
  5
2D9
100
AcDbEntity
  8
RACCORDO
100
AcDbLine
 62
253
  6
CONTINUOUS
 10
4.368
 20
-24.2500042308
 11
4.3549014213
 21
-24.2369056521
  0
LINE
  5
2DA
100
AcDbEntity
  8
DRAFT
100
AcDbLine
 62
7
  6
CONTINUOUS
 10
-11.882
 20
0.0
 11
-11.8770507473
 21
-0.1
  0
LINE
  5
2DB
100
AcDbEntity
  8
RACCORDO
100
AcDbLine
 62
253
  6
CONTINUOUS
 10
-20.971526961
 20
-21.6183264804
 11
-20.9184459227
 21
-21.4589538653
  0
LINE
  5
2DC
100
AcDbEntity
  8
RACCORDO
100
AcDbLine
 62
253
  6
CONTINUOUS
 10
-20.4719075608
 20
-22.1185553324
 11
-20.4185220751
 21
-21.9582686327
  0
LINE
  5
2DD
100
AcDbEntity
  8
DRAFT
100
AcDbLine
 62
7
  6
CONTINUOUS
 10
-17.882
 20
0.1
 11
-17.9046898563
 21
0.1226898563
  0
LINE
  5
2DE
100
AcDbEntity
  8
RACCORDO
100
AcDbLine
 62
253
  6
CONTINUOUS
 10
-21.007
 20
21.7497711479
 11
-20.8997859876
 21
21.4278675446
  0
LINE
  5
2DF
100
AcDbEntity
  8
RACCORDO
100
AcDbLine
 62
253
  6
CONTINUOUS
 10
-20.5073805997
 20
22.25
 11
-20.39986214
 21
21.927182312
  0
LINE
  5
2E0
100
AcDbEntity
  8
DRAFT
100
AcDbLine
 62
7
  6
CONTINUOUS
 10
-9.082
 20
0.0
 11
-9.0721007408
 21
-0.1
  0
LINE
  5
2E1
100
AcDbEntity
  8
DRAFT
100
AcDbLine
 62
7
  6
CONTINUOUS
 10
-10.682
 20
0.0
 11
-10.6918992592
 21
-0.1
  0
LINE
  5
2E2
100
AcDbEntity
  8
RACCORDO
100
AcDbLine
 62
253
  6
CONTINUOUS
 10
-21.007
 20
0.3999657321
 11
-20.875938308
 21
0.4654915873
  0
LINE
  5
2E3
100
AcDbEntity
  8
RACCORDO
100
AcDbLine
 62
253
  6
CONTINUOUS
 10
-20.7069999983
 20
0.1
 11
-20.5725539395
 21
0.1672179098
  0
LINE
  5
2E4
100
AcDbEntity
  8
DRAFT
100
AcDbLine
 62
7
  6
CONTINUOUS
 10
-7.882
 20
0.0
 11
-7.8869492527
 21
-0.1
  0
LINE
  5
2E5
100
AcDbEntity
  8
DRAFT
100
AcDbLine
 62
7
  6
CONTINUOUS
 10
-10.732
 20
0.1
 11
-10.7093101437
 21
0.1226898563
  0
LINE
  5
2E6
100
AcDbEntity
  8
RACCORDO
100
AcDbLine
 62
253
  6
CONTINUOUS
 10
-5.9908036965
 20
-23.7825449351
 11
-5.9908036965
 21
-22.3825449351
  0
LINE
  5
2E7
100
AcDbEntity
  8
RACCORDO
100
AcDbLine
 62
253
  6
CONTINUOUS
 10
-5.9908036965
 20
22.3825449351
 11
-5.9908036965
 21
23.7825449351
  0
LINE
  5
2E8
100
AcDbEntity
  8
RACCORDO
100
AcDbLine
 62
253
  6
CONTINUOUS
 10
-5.4908798489
 20
-23.7911201511
 11
-5.4908798489
 21
-22.3911201511
  0
LINE
  5
2E9
100
AcDbEntity
  8
RACCORDO
100
AcDbLine
 62
253
  6
CONTINUOUS
 10
-5.4908798489
 20
22.3911201511
 11
-5.4908798489
 21
23.7911201511
  0
LINE
  5
2EA
100
AcDbEntity
  8
DRAFT
100
AcDbLine
 62
7
  6
CONTINUOUS
 10
-5.482
 20
-23.8
 11
-5.482
 21
-22.4
  0
LINE
  5
2EB
100
AcDbEntity
  8
DRAFT
100
AcDbLine
 62
7
  6
CONTINUOUS
 10
-5.482
 20
22.4
 11
-5.482
 21
23.8
  0
LINE
  5
2EC
100
AcDbEntity
  8
RACCORDO
100
AcDbLine
 62
253
  6
CONTINUOUS
 10
-4.382
 20
9.7
 11
-4.3820000009
 21
9.5
  0
LINE
  5
2ED
100
AcDbEntity
  8
RACCORDO
100
AcDbLine
 62
253
  6
CONTINUOUS
 10
-4.382
 20
13.8
 11
-4.382
 21
14.0
  0
LINE
  5
2EE
100
AcDbEntity
  8
RACCORDO
100
AcDbLine
 62
253
  6
CONTINUOUS
 10
0.7433805997
 20
22.25
 11
0.63586214
 21
21.927182312
  0
LINE
  5
2EF
100
AcDbEntity
  8
RACCORDO
100
AcDbLine
 62
253
  6
CONTINUOUS
 10
1.243
 20
21.7497711479
 11
1.1357859876
 21
21.4278675446
  0
LINE
  5
2F0
100
AcDbEntity
  8
RACCORDO
100
AcDbLine
 62
7
  6
CONTINUOUS
 10
17.0150741618
 20
23.7970741618
 11
17.018
 21
23.8
  0
LINE
  5
2F1
100
AcDbEntity
  8
DRAFT
100
AcDbLine
 62
7
  6
CONTINUOUS
 10
-9.032
 20
0.1
 11
-9.0546898563
 21
0.1226898563
  0
LINE
  5
2F2
100
AcDbEntity
  8
RACCORDO
100
AcDbLine
 62
7
  6
CONTINUOUS
 10
17.0150741618
 20
-23.7970741618
 11
17.018
 21
-23.8
  0
LINE
  5
2F3
100
AcDbEntity
  8
RACCORDO
100
AcDbLine
 62
253
  6
CONTINUOUS
 10
0.6545220751
 20
-21.9582686327
 11
0.7079075608
 21
-22.1185553324
  0
LINE
  5
2F4
100
AcDbEntity
  8
RACCORDO
100
AcDbLine
 62
253
  6
CONTINUOUS
 10
1.1544459227
 20
-21.4589538653
 11
1.207526961
 21
-21.6183264804
  0
LINE
  5
2F5
100
AcDbEntity
  8
RACCORDO
100
AcDbLine
 62
253
  6
CONTINUOUS
 10
-1.5926499457
 20
-23.8443375673
 11
-1.6057412444
 21
-23.4113248654
  0
LINE
  5
2F6
100
AcDbEntity
  8
RACCORDO
100
AcDbLine
 62
253
  6
CONTINUOUS
 10
-1.3426880219
 20
-23.6278312164
 11
-1.3557793206
 21
-23.1948185145
  0
LINE
  5
2F7
100
AcDbEntity
  8
RACCORDO
100
AcDbLine
 62
253
  6
CONTINUOUS
 10
-4.082
 20
10.0
 11
-4.082
 21
13.5
  0
LINE
  5
2F8
100
AcDbEntity
  8
RACCORDO
100
AcDbLine
 62
253
  6
CONTINUOUS
 10
-1.6057412444
 20
23.4113248654
 11
-1.5926499457
 21
23.8443375673
  0
LINE
  5
2F9
100
AcDbEntity
  8
RACCORDO
100
AcDbLine
 62
253
  6
CONTINUOUS
 10
-1.3557793206
 20
23.1948185145
 11
-1.3426880219
 21
23.6278312164
  0
LINE
  5
2FA
100
AcDbEntity
  8
ASSI
100
AcDbLine
 62
7
  6
CONTINUOUS
 10
11.418
 20
-4.0
 11
13.818
 21
-4.0
  0
LINE
  5
2FB
100
AcDbEntity
  8
RACCORDO
100
AcDbLine
 62
7
  6
CONTINUOUS
 10
-1.632
 20
-22.4
 11
-1.632
 21
-24.2500095192
  0
LINE
  5
2FC
100
AcDbEntity
  8
RACCORDO
100
AcDbLine
 62
7
  6
CONTINUOUS
 10
-1.632
 20
22.4
 11
-1.632
 21
24.2500095192
  0
LINE
  5
2FD
100
AcDbEntity
  8
RACCORDO
100
AcDbLine
 62
253
  6
CONTINUOUS
 10
-1.6101050106
 20
-22.9783121635
 11
-1.6101050106
 21
-22.3781050106
  0
LINE
  5
2FE
100
AcDbEntity
  8
RACCORDO
100
AcDbLine
 62
253
  6
CONTINUOUS
 10
-1.6101050106
 20
22.3781050106
 11
-1.6101050106
 21
22.9783121635
  0
LINE
  5
2FF
100
AcDbEntity
  8
RACCORDO
100
AcDbLine
 62
253
  6
CONTINUOUS
 10
-1.5926499457
 20
-24.2106880219
 11
-1.5926499457
 21
-23.8443375673
  0
LINE
  5
300
100
AcDbEntity
  8
RACCORDO
100
AcDbLine
 62
253
  6
CONTINUOUS
 10
-1.5926499457
 20
23.8443375673
 11
-1.5926499457
 21
24.2106880219
  0
LINE
  5
301
100
AcDbEntity
  8
DRAFT
100
AcDbLine
 62
7
  6
CONTINUOUS
 10
-1.532
 20
-0.1
 11
-1.532
 21
0.0
  0
LINE
  5
302
100
AcDbEntity
  8
DRAFT
100
AcDbLine
 62
7
  6
CONTINUOUS
 10
-1.5250185058
 20
-0.1
 11
-1.5250185058
 21
0.0
  0
LINE
  5
303
100
AcDbEntity
  8
RACCORDO
100
AcDbLine
 62
253
  6
CONTINUOUS
 10
-1.3601430868
 20
-22.9783121635
 11
-1.3601430868
 21
-22.3738174026
  0
LINE
  5
304
100
AcDbEntity
  8
RACCORDO
100
AcDbLine
 62
253
  6
CONTINUOUS
 10
-1.3601430868
 20
22.3738174026
 11
-1.3601430868
 21
22.9783121635
  0
LINE
  5
305
100
AcDbEntity
  8
RACCORDO
100
AcDbLine
 62
253
  6
CONTINUOUS
 10
-1.3426880219
 20
-24.4606499457
 11
-1.3426880219
 21
-23.6278312164
  0
LINE
  5
306
100
AcDbEntity
  8
RACCORDO
100
AcDbLine
 62
253
  6
CONTINUOUS
 10
-1.3426880219
 20
23.6278312164
 11
-1.3426880219
 21
24.4606499457
  0
LINE
  5
307
100
AcDbEntity
  8
DRAFT
100
AcDbLine
 62
7
  6
CONTINUOUS
 10
-0.3889814942
 20
-0.1
 11
-0.3889814942
 21
0.0
  0
LINE
  5
308
100
AcDbEntity
  8
DRAFT
100
AcDbLine
 62
7
  6
CONTINUOUS
 10
-0.382
 20
-0.1
 11
-0.382
 21
0.0
  0
LINE
  5
309
100
AcDbEntity
  8
DRAFT
100
AcDbLine
 62
7
  6
CONTINUOUS
 10
-1.882
 20
0.1
 11
-1.8593101437
 21
0.1226898563
  0
LINE
  5
30A
100
AcDbEntity
  8
RACCORDO
100
AcDbLine
 62
253
  6
CONTINUOUS
 10
23.0180042308
 20
24.5
 11
23.0049056521
 21
24.4869014213
  0
LINE
  5
30B
100
AcDbEntity
  8
RACCORDO
100
AcDbLine
 62
253
  6
CONTINUOUS
 10
23.268
 20
24.2500042308
 11
23.2549014213
 21
24.2369056521
  0
LINE
  5
30C
100
AcDbEntity
  8
0
100
AcDbLine
 62
7
  6
CONTINUOUS
 10
19.438
 20
-1.5
 11
18.2716191586
 21
-1.5
  0
LINE
  5
30D
100
AcDbEntity
  8
0
100
AcDbLine
 62
7
  6
CONTINUOUS
 10
6.9643808414
 20
-1.5
 11
5.1169775602
 21
-1.5
  0
LINE
  5
30E
100
AcDbEntity
  8
0
100
AcDbLine
 62
7
  6
CONTINUOUS
 10
1.988
 20
-1.25
 11
2.7997726885
 21
-1.25
  0
LINE
  5
30F
100
AcDbEntity
  8
0
100
AcDbLine
 62
7
  6
CONTINUOUS
 10
5.0731101192
 20
-1.25
 11
5.488
 21
-1.25
  0
LINE
  5
310
100
AcDbEntity
  8
ASSI
100
AcDbLine
 62
7
  6
CONTINUOUS
 10
7.618
 20
-0.6
 11
8.4471796068
 21
-0.6
  0
LINE
  5
311
100
AcDbEntity
  8
ASSI
100
AcDbLine
 62
7
  6
CONTINUOUS
 10
16.7888203932
 20
-0.6
 11
17.618
 21
-0.6
  0
LINE
  5
312
100
AcDbEntity
  8
RACCORDO
100
AcDbLine
 62
253
  6
CONTINUOUS
 10
0.6306499074
 20
-0.300120048
 11
-20.3946499074
 21
-0.300120048
  0
LINE
  5
313
100
AcDbEntity
  8
RACCORDO
100
AcDbLine
 62
253
  6
CONTINUOUS
 10
1.218
 20
-0.3
 11
1.1305737569
 21
-0.3
  0
LINE
  5
314
100
AcDbEntity
  8
RACCORDO
100
AcDbLine
 62
253
  6
CONTINUOUS
 10
-20.8945737569
 20
-0.3
 11
-20.982
 21
-0.3
  0
LINE
  5
315
100
AcDbEntity
  8
RACCORDO
100
AcDbLine
 62
7
  6
CONTINUOUS
 10
1.0179695344
 20
-0.1
 11
-20.7819695344
 21
-0.1
  0
LINE
  5
316
100
AcDbEntity
  8
0
100
AcDbLine
 62
7
  6
CONTINUOUS
 10
20.718
 20
0.0
 11
20.268
 21
0.0
  0
LINE
  5
317
100
AcDbEntity
  8
DRAFT
100
AcDbLine
 62
7
  6
CONTINUOUS
 10
-0.3889814942
 20
0.0
 11
1.2383263896
 21
0.0
  0
LINE
  5
318
100
AcDbEntity
  8
DRAFT
100
AcDbLine
 62
7
  6
CONTINUOUS
 10
-1.5250185058
 20
0.0
 11
-18.2389814942
 21
0.0
  0
LINE
  5
319
100
AcDbEntity
  8
DRAFT
100
AcDbLine
 62
7
  6
CONTINUOUS
 10
-19.3750185058
 20
0.0
 11
-21.0023263896
 21
0.0
  0
LINE
  5
31A
100
AcDbEntity
  8
RACCORDO
100
AcDbLine
 62
7
  6
CONTINUOUS
 10
-20.7069999983
 20
0.1
 11
-19.532
 21
0.1
  0
LINE
  5
31B
100
AcDbEntity
  8
DRAFT
100
AcDbLine
 62
7
  6
CONTINUOUS
 10
-17.882
 20
0.1
 11
-10.732
 21
0.1
  0
LINE
  5
31C
100
AcDbEntity
  8
DRAFT
100
AcDbLine
 62
7
  6
CONTINUOUS
 10
-9.032
 20
0.1
 11
-1.882
 21
0.1
  0
LINE
  5
31D
100
AcDbEntity
  8
RACCORDO
100
AcDbLine
 62
7
  6
CONTINUOUS
 10
-0.232
 20
0.1
 11
0.9429999983
 21
0.1
  0
LINE
  5
31E
100
AcDbEntity
  8
DRAFT
100
AcDbLine
 62
7
  6
CONTINUOUS
 10
-0.2546898563
 20
0.1226898563
 11
-1.8593101437
 21
0.1226898563
  0
LINE
  5
31F
100
AcDbEntity
  8
DRAFT
100
AcDbLine
 62
7
  6
CONTINUOUS
 10
-9.0546898563
 20
0.1226898563
 11
-10.7093101437
 21
0.1226898563
  0
LINE
  5
320
100
AcDbEntity
  8
DRAFT
100
AcDbLine
 62
7
  6
CONTINUOUS
 10
-17.9046898563
 20
0.1226898563
 11
-19.5093101437
 21
0.1226898563
  0
LINE
  5
321
100
AcDbEntity
  8
RACCORDO
100
AcDbLine
 62
7
  6
CONTINUOUS
 10
0.8085539395
 20
0.1672179098
 11
-20.5725539395
 21
0.1672179098
  0
LINE
  5
322
100
AcDbEntity
  8
RACCORDO
100
AcDbLine
 62
253
  6
CONTINUOUS
 10
23.0180042308
 20
-24.5
 11
23.0049056521
 21
-24.4869014213
  0
LINE
  5
323
100
AcDbEntity
  8
RACCORDO
100
AcDbLine
 62
253
  6
CONTINUOUS
 10
23.268
 20
-24.2500042308
 11
23.2549014213
 21
-24.2369056521
  0
LINE
  5
324
100
AcDbEntity
  8
DRAFT
100
AcDbLine
 62
7
  6
CONTINUOUS
 10
-0.232
 20
0.1
 11
-0.2546898563
 21
0.1226898563
  0
LINE
  5
325
100
AcDbEntity
  8
RACCORDO
100
AcDbLine
 62
253
  6
CONTINUOUS
 10
0.4786880219
 20
23.6278312164
 11
0.4917793206
 21
23.1948185145
  0
LINE
  5
326
100
AcDbEntity
  8
RACCORDO
100
AcDbLine
 62
253
  6
CONTINUOUS
 10
0.7286499457
 20
23.8443375673
 11
0.7417412444
 21
23.4113248654
  0
LINE
  5
327
100
AcDbEntity
  8
RACCORDO
100
AcDbLine
 62
253
  6
CONTINUOUS
 10
1.9810985787
 20
-23.8443375673
 11
1.9752807489
 21
-23.2669872981
  0
LINE
  5
328
100
AcDbEntity
  8
RACCORDO
100
AcDbLine
 62
253
  6
CONTINUOUS
 10
2.2310943479
 20
-23.6278312164
 11
2.2260037468
 21
-23.1226497308
  0
LINE
  5
329
100
AcDbEntity
  8
RACCORDO
100
AcDbLine
 62
253
  6
CONTINUOUS
 10
0.4786880219
 20
-23.6278312164
 11
0.4786880219
 21
-24.4606499457
  0
LINE
  5
32A
100
AcDbEntity
  8
RACCORDO
100
AcDbLine
 62
253
  6
CONTINUOUS
 10
0.4786880219
 20
23.6278312164
 11
0.4786880219
 21
24.4606499457
  0
LINE
  5
32B
100
AcDbEntity
  8
RACCORDO
100
AcDbLine
 62
253
  6
CONTINUOUS
 10
0.4961430868
 20
22.9783121635
 11
0.4961430868
 21
22.3738174026
  0
LINE
  5
32C
100
AcDbEntity
  8
RACCORDO
100
AcDbLine
 62
253
  6
CONTINUOUS
 10
0.4961430868
 20
-22.3738174026
 11
0.4961430868
 21
-22.9783121635
  0
LINE
  5
32D
100
AcDbEntity
  8
RACCORDO
100
AcDbLine
 62
253
  6
CONTINUOUS
 10
0.7286499457
 20
24.2106880219
 11
0.7286499457
 21
23.8443375673
  0
LINE
  5
32E
100
AcDbEntity
  8
RACCORDO
100
AcDbLine
 62
253
  6
CONTINUOUS
 10
0.7286499457
 20
-23.8443375673
 11
0.7286499457
 21
-24.2106880219
  0
LINE
  5
32F
100
AcDbEntity
  8
RACCORDO
100
AcDbLine
 62
253
  6
CONTINUOUS
 10
0.7461050106
 20
22.9783121635
 11
0.7461050106
 21
22.3781050106
  0
LINE
  5
330
100
AcDbEntity
  8
RACCORDO
100
AcDbLine
 62
253
  6
CONTINUOUS
 10
0.7461050106
 20
-22.3781050106
 11
0.7461050106
 21
-22.9783121635
  0
LINE
  5
331
100
AcDbEntity
  8
RACCORDO
100
AcDbLine
 62
7
  6
CONTINUOUS
 10
0.768
 20
-24.2500095192
 11
0.768
 21
-22.399689968
  0
LINE
  5
332
100
AcDbEntity
  8
RACCORDO
100
AcDbLine
 62
7
  6
CONTINUOUS
 10
0.768
 20
22.399689968
 11
0.768
 21
24.2500095192
  0
LINE
  5
333
100
AcDbEntity
  8
RACCORDO
100
AcDbLine
 62
7
  6
CONTINUOUS
 10
1.207526961
 20
-20.6781864496
 11
1.207526961
 21
-21.6183264804
  0
LINE
  5
334
100
AcDbEntity
  8
RACCORDO
100
AcDbLine
 62
7
  6
CONTINUOUS
 10
1.218
 20
-20.6781864496
 11
1.218
 21
-0.3
  0
LINE
  5
335
100
AcDbEntity
  8
RACCORDO
100
AcDbLine
 62
7
  6
CONTINUOUS
 10
1.2243623377
 20
-21.9129951101
 11
1.2243623377
 21
-20.8
  0
LINE
  5
336
100
AcDbEntity
  8
DRAFT
100
AcDbLine
 62
7
  6
CONTINUOUS
 10
1.2243623377
 20
0.0
 11
1.2243623377
 21
0.2963349539
  0
LINE
  5
337
100
AcDbEntity
  8
RACCORDO
100
AcDbLine
 62
7
  6
CONTINUOUS
 10
1.2243623377
 20
21.884550933
 11
1.2243623377
 21
21.9129951101
  0
LINE
  5
338
100
AcDbEntity
  8
DRAFT
100
AcDbLine
 62
7
  6
CONTINUOUS
 10
1.2383263896
 20
-20.8
 11
1.2383263896
 21
0.0
  0
LINE
  5
339
100
AcDbEntity
  8
RACCORDO
100
AcDbLine
 62
7
  6
CONTINUOUS
 10
1.243
 20
0.3999657321
 11
1.243
 21
21.7497711479
  0
LINE
  5
33A
100
AcDbEntity
  8
RACCORDO
100
AcDbLine
 62
7
  6
CONTINUOUS
 10
1.268
 20
-21.8911779406
 11
1.268
 21
8.5
  0
LINE
  5
33B
100
AcDbEntity
  8
RACCORDO
100
AcDbLine
 62
7
  6
CONTINUOUS
 10
1.268
 20
13.5
 11
1.268
 21
21.8911779406
  0
LINE
  5
33C
100
AcDbEntity
  8
ASSI
100
AcDbLine
 62
7
  6
CONTINUOUS
 10
1.418
 20
12.625
 11
1.418
 21
13.375
  0
LINE
  5
33D
100
AcDbEntity
  8
RACCORDO
100
AcDbLine
 62
7
  6
CONTINUOUS
 10
1.468
 20
21.8911779406
 11
1.468
 21
-21.8911779406
  0
LINE
  5
33E
100
AcDbEntity
  8
RACCORDO
100
AcDbLine
 62
7
  6
CONTINUOUS
 10
1.968
 20
-22.399689968
 11
1.968
 21
-24.2500042308
  0
LINE
  5
33F
100
AcDbEntity
  8
RACCORDO
100
AcDbLine
 62
7
  6
CONTINUOUS
 10
1.968
 20
22.399689968
 11
1.968
 21
24.2500042308
  0
LINE
  5
340
100
AcDbEntity
  8
RACCORDO
100
AcDbLine
 62
253
  6
CONTINUOUS
 10
1.9752807489
 20
23.2669872981
 11
1.9752807489
 21
22.3334109614
  0
LINE
  5
341
100
AcDbEntity
  8
RACCORDO
100
AcDbLine
 62
253
  6
CONTINUOUS
 10
1.9752807489
 20
-22.3334109614
 11
1.9752807489
 21
-23.2669872981
  0
LINE
  5
342
100
AcDbEntity
  8
RACCORDO
100
AcDbLine
 62
253
  6
CONTINUOUS
 10
1.9810985787
 20
24.2369056521
 11
1.9810985787
 21
23.8443375673
  0
LINE
  5
343
100
AcDbEntity
  8
RACCORDO
100
AcDbLine
 62
253
  6
CONTINUOUS
 10
1.9810985787
 20
-23.8443375673
 11
1.9810985787
 21
-24.2369056521
  0
LINE
  5
344
100
AcDbEntity
  8
RACCORDO
100
AcDbLine
 62
253
  6
CONTINUOUS
 10
2.2252765181
 20
23.1226497308
 11
2.2252765181
 21
22.3213883311
  0
LINE
  5
345
100
AcDbEntity
  8
RACCORDO
100
AcDbLine
 62
253
  6
CONTINUOUS
 10
2.2252765181
 20
-22.3213883311
 11
2.2252765181
 21
-23.1226497308
  0
LINE
  5
346
100
AcDbEntity
  8
RACCORDO
100
AcDbLine
 62
253
  6
CONTINUOUS
 10
2.2310943479
 20
-23.6278312164
 11
2.2310943479
 21
-24.4869014213
  0
LINE
  5
347
100
AcDbEntity
  8
RACCORDO
100
AcDbLine
 62
253
  6
CONTINUOUS
 10
2.2310943479
 20
23.6278312164
 11
2.2310943479
 21
24.4869014213
  0
LINE
  5
348
100
AcDbEntity
  8
RACCORDO
100
AcDbLine
 62
253
  6
CONTINUOUS
 10
1.9752807489
 20
23.2669872981
 11
1.9810985787
 21
23.8443375673
  0
LINE
  5
349
100
AcDbEntity
  8
RACCORDO
100
AcDbLine
 62
253
  6
CONTINUOUS
 10
2.2260037468
 20
23.1226497308
 11
2.2310943479
 21
23.6278312164
  0
LINE
  5
34A
100
AcDbEntity
  8
RACCORDO
100
AcDbLine
 62
253
  6
CONTINUOUS
 10
0.4917793206
 20
-23.1948185145
 11
0.4786880219
 21
-23.6278312164
  0
LINE
  5
34B
100
AcDbEntity
  8
RACCORDO
100
AcDbLine
 62
253
  6
CONTINUOUS
 10
0.7417412444
 20
-23.4113248654
 11
0.7286499457
 21
-23.8443375673
  0
LINE
  5
34C
100
AcDbEntity
  8
RACCORDO
100
AcDbLine
 62
7
  6
CONTINUOUS
 10
4.368
 20
22.4
 11
4.3607192511
 21
22.3344140523
  0
LINE
  5
34D
100
AcDbEntity
  8
RACCORDO
100
AcDbLine
 62
7
  6
CONTINUOUS
 10
-20.5101050106
 20
-22.3781050106
 11
-20.5317933067
 21
-22.3997933067
  0
LINE
  5
34E
100
AcDbEntity
  8
RACCORDO
100
AcDbLine
 62
253
  6
CONTINUOUS
 10
0.6120203222
 20
0.4674869789
 11
-20.3760203222
 21
0.4674869789
  0
LINE
  5
34F
100
AcDbEntity
  8
ASSI
100
AcDbLine
 62
7
  6
CONTINUOUS
 10
17.618
 20
0.6
 11
16.7888203932
 21
0.6
  0
LINE
  5
350
100
AcDbEntity
  8
ASSI
100
AcDbLine
 62
7
  6
CONTINUOUS
 10
8.4471796068
 20
0.6
 11
7.618
 21
0.6
  0
LINE
  5
351
100
AcDbEntity
  8
RACCORDO
100
AcDbLine
 62
253
  6
CONTINUOUS
 10
0.8085539395
 20
0.1672179098
 11
0.9429999983
 21
0.1
  0
LINE
  5
352
100
AcDbEntity
  8
RACCORDO
100
AcDbLine
 62
253
  6
CONTINUOUS
 10
1.111938308
 20
0.4654915873
 11
1.243
 21
0.3999657321
  0
LINE
  5
353
100
AcDbEntity
  8
RACCORDO
100
AcDbLine
 62
7
  6
CONTINUOUS
 10
-20.5101050106
 20
22.3781050106
 11
-20.5317933067
 21
22.3997933067
  0
LINE
  5
354
100
AcDbEntity
  8
RACCORDO
100
AcDbLine
 62
7
  6
CONTINUOUS
 10
4.368
 20
-22.4
 11
4.3607192511
 21
-22.3344140523
  0
LINE
  5
355
100
AcDbEntity
  8
RACCORDO
100
AcDbLine
 62
253
  6
CONTINUOUS
 10
4.1049056521
 20
23.6278312164
 11
4.1099962532
 21
23.1226497308
  0
LINE
  5
356
100
AcDbEntity
  8
RACCORDO
100
AcDbLine
 62
253
  6
CONTINUOUS
 10
4.3549014213
 20
23.8443375673
 11
4.3607192511
 21
23.2669872981
  0
LINE
  5
357
100
AcDbEntity
  8
RACCORDO
100
AcDbLine
 62
253
  6
CONTINUOUS
 10
4.1049056521
 20
-23.6278312164
 11
4.1049056521
 21
-24.4869014213
  0
LINE
  5
358
100
AcDbEntity
  8
RACCORDO
100
AcDbLine
 62
253
  6
CONTINUOUS
 10
4.1049056521
 20
23.6278312164
 11
4.1049056521
 21
24.4869014213
  0
LINE
  5
359
100
AcDbEntity
  8
RACCORDO
100
AcDbLine
 62
253
  6
CONTINUOUS
 10
4.1107234819
 20
23.1226497308
 11
4.1107234819
 21
22.3213883311
  0
LINE
  5
35A
100
AcDbEntity
  8
RACCORDO
100
AcDbLine
 62
253
  6
CONTINUOUS
 10
4.1107234819
 20
-22.3213883311
 11
4.1107234819
 21
-23.1226497308
  0
LINE
  5
35B
100
AcDbEntity
  8
RACCORDO
100
AcDbLine
 62
253
  6
CONTINUOUS
 10
4.3549014213
 20
-24.2369056521
 11
4.3549014213
 21
-23.8443375673
  0
LINE
  5
35C
100
AcDbEntity
  8
RACCORDO
100
AcDbLine
 62
253
  6
CONTINUOUS
 10
4.3549014213
 20
23.8443375673
 11
4.3549014213
 21
24.2369056521
  0
LINE
  5
35D
100
AcDbEntity
  8
RACCORDO
100
AcDbLine
 62
253
  6
CONTINUOUS
 10
4.3607192511
 20
23.2669872981
 11
4.3607192511
 21
22.3344140523
  0
LINE
  5
35E
100
AcDbEntity
  8
RACCORDO
100
AcDbLine
 62
253
  6
CONTINUOUS
 10
4.3607192511
 20
-22.3344140523
 11
4.3607192511
 21
-23.2669872981
  0
LINE
  5
35F
100
AcDbEntity
  8
RACCORDO
100
AcDbLine
 62
7
  6
CONTINUOUS
 10
4.368
 20
-22.4
 11
4.368
 21
-24.2500042308
  0
LINE
  5
360
100
AcDbEntity
  8
RACCORDO
100
AcDbLine
 62
7
  6
CONTINUOUS
 10
4.368
 20
22.4
 11
4.368
 21
24.2500042308
  0
LINE
  5
361
100
AcDbEntity
  8
RACCORDO
100
AcDbLine
 62
253
  6
CONTINUOUS
 10
4.1099962532
 20
-23.1226497308
 11
4.1049056521
 21
-23.6278312164
  0
LINE
  5
362
100
AcDbEntity
  8
RACCORDO
100
AcDbLine
 62
253
  6
CONTINUOUS
 10
4.3607192511
 20
-23.2669872981
 11
4.3549014213
 21
-23.8443375673
  0
LINE
  5
363
100
AcDbEntity
  8
RACCORDO
100
AcDbLine
 62
253
  6
CONTINUOUS
 10
-20.532
 20
-24.2500380762
 11
-20.4926499457
 21
-24.2106880219
  0
LINE
  5
364
100
AcDbEntity
  8
RACCORDO
100
AcDbLine
 62
253
  6
CONTINUOUS
 10
-20.2820380762
 20
-24.5
 11
-20.2426880219
 21
-24.4606499457
  0
LINE
  5
365
100
AcDbEntity
  8
ASSI
100
AcDbLine
 62
7
  6
CONTINUOUS
 10
9.5067301628
 20
3.9597979746
 11
8.6582020254
 21
3.1112698372
  0
LINE
  5
366
100
AcDbEntity
  8
RACCORDO
100
AcDbLine
 62
253
  6
CONTINUOUS
 10
-20.4926499457
 20
24.2106880219
 11
-20.532
 21
24.2500380762
  0
LINE
  5
367
100
AcDbEntity
  8
RACCORDO
100
AcDbLine
 62
253
  6
CONTINUOUS
 10
-20.2426880219
 20
24.4606499457
 11
-20.2820380762
 21
24.5
  0
LINE
  5
368
100
AcDbEntity
  8
ASSI
100
AcDbLine
 62
7
  6
CONTINUOUS
 10
8.6582020254
 20
-3.1112698372
 11
9.5067301628
 21
-3.9597979746
  0
LINE
  5
369
100
AcDbEntity
  8
0
100
AcDbLine
 62
7
  6
CONTINUOUS
 10
5.488
 20
-1.25
 11
5.488
 21
2.7666460953
  0
LINE
  5
36A
100
AcDbEntity
  8
RACCORDO
100
AcDbLine
 62
7
  6
CONTINUOUS
 10
-14.282
 20
-22.4
 11
-14.2731201511
 21
-22.3911201511
  0
LINE
  5
36B
100
AcDbEntity
  8
RACCORDO
100
AcDbLine
 62
7
  6
CONTINUOUS
 10
-14.282
 20
-23.8
 11
-14.2731201511
 21
-23.7911201511
  0
LINE
  5
36C
100
AcDbEntity
  8
ASSI
100
AcDbLine
 62
7
  6
CONTINUOUS
 10
13.218
 20
5.0
 11
12.018
 21
5.0
  0
LINE
  5
36D
100
AcDbEntity
  8
RACCORDO
100
AcDbLine
 62
7
  6
CONTINUOUS
 10
-14.282
 20
22.4
 11
-14.2731201511
 21
22.3911201511
  0
LINE
  5
36E
100
AcDbEntity
  8
RACCORDO
100
AcDbLine
 62
7
  6
CONTINUOUS
 10
-14.282
 20
23.8
 11
-14.2731201511
 21
23.7911201511
  0
LINE
  5
36F
100
AcDbEntity
  8
ASSI
100
AcDbLine
 62
7
  6
CONTINUOUS
 10
7.618
 20
0.6
 11
7.618
 21
-0.6
  0
LINE
  5
370
100
AcDbEntity
  8
DRAFT
100
AcDbLine
 62
7
  6
CONTINUOUS
 10
8.218
 20
-23.8
 11
8.218
 21
-22.4
  0
LINE
  5
371
100
AcDbEntity
  8
DRAFT
100
AcDbLine
 62
7
  6
CONTINUOUS
 10
8.218
 20
22.4
 11
8.218
 21
23.8
  0
LINE
  5
372
100
AcDbEntity
  8
RACCORDO
100
AcDbLine
 62
253
  6
CONTINUOUS
 10
8.2209258382
 20
23.7970741618
 11
8.2209258382
 21
22.3736436632
  0
LINE
  5
373
100
AcDbEntity
  8
RACCORDO
100
AcDbLine
 62
253
  6
CONTINUOUS
 10
8.2209258382
 20
-22.3736436632
 11
8.2209258382
 21
-23.7970741618
  0
LINE
  5
374
100
AcDbEntity
  8
RACCORDO
100
AcDbLine
 62
253
  6
CONTINUOUS
 10
8.7209173766
 20
23.5953423515
 11
8.7209173766
 21
22.3475922207
  0
LINE
  5
375
100
AcDbEntity
  8
RACCORDO
100
AcDbLine
 62
253
  6
CONTINUOUS
 10
8.7209173766
 20
-22.3475922207
 11
8.7209173766
 21
-23.5953423515
  0
LINE
  5
376
100
AcDbEntity
  8
RACCORDO
100
AcDbLine
 62
253
  6
CONTINUOUS
 10
1.4854169024
 20
-21.8998857286
 11
1.6188001903
 21
-21.4994104546
  0
LINE
  5
377
100
AcDbEntity
  8
RACCORDO
100
AcDbLine
 62
253
  6
CONTINUOUS
 10
2.1187240378
 20
-21.998725222
 11
2.00908466
 21
-22.3279108386
  0
LINE
  5
378
100
AcDbEntity
  8
ASSI
100
AcDbLine
 62
7
  6
CONTINUOUS
 10
15.7292698372
 20
3.9597979746
 11
15.1429513145
 21
3.3734794519
  0
LINE
  5
379
100
AcDbEntity
  8
ASSI
100
AcDbLine
 62
7
  6
CONTINUOUS
 10
9.2445205481
 20
-2.5249513145
 11
8.6582020254
 21
-3.1112698372
  0
LINE
  5
37A
100
AcDbEntity
  8
DRAFT
100
AcDbLine
 62
7
  6
CONTINUOUS
 10
-21.032
 20
8.5
 11
-21.007
 21
8.5
  0
LINE
  5
37B
100
AcDbEntity
  8
DRAFT
100
AcDbLine
 62
7
  6
CONTINUOUS
 10
1.268
 20
8.5
 11
1.243
 21
8.5
  0
LINE
  5
37C
100
AcDbEntity
  8
ASSI
100
AcDbLine
 62
7
  6
CONTINUOUS
 10
8.6582020254
 20
3.1112698372
 11
9.2445205481
 21
2.5249513145
  0
LINE
  5
37D
100
AcDbEntity
  8
ASSI
100
AcDbLine
 62
7
  6
CONTINUOUS
 10
15.1429513145
 20
-3.3734794519
 11
15.7292698372
 21
-3.9597979746
  0
LINE
  5
37E
100
AcDbEntity
  8
RACCORDO
100
AcDbLine
 62
253
  6
CONTINUOUS
 10
1.6188001903
 20
21.4994104546
 11
1.4854169024
 21
21.8998857286
  0
LINE
  5
37F
100
AcDbEntity
  8
RACCORDO
100
AcDbLine
 62
253
  6
CONTINUOUS
 10
2.00908466
 20
22.3279108386
 11
2.1187240378
 21
21.998725222
  0
LINE
  5
380
100
AcDbEntity
  8
0
100
AcDbLine
 62
7
  6
CONTINUOUS
 10
11.118
 20
-9.937429245
 11
11.118
 21
-9.7839024528
  0
LINE
  5
381
100
AcDbEntity
  8
ASSI
100
AcDbLine
 62
7
  6
CONTINUOUS
 10
11.418
 20
-5.7256004052
 11
11.418
 21
-4.0
  0
LINE
  5
382
100
AcDbEntity
  8
RACCORDO
100
AcDbLine
 62
7
  6
CONTINUOUS
 10
8.218
 20
-22.4
 11
8.2209258382
 21
-22.3736436632
  0
LINE
  5
383
100
AcDbEntity
  8
ASSI
100
AcDbLine
 62
7
  6
CONTINUOUS
 10
9.5067301628
 20
-3.9597979746
 11
10.0930486855
 21
-3.3734794519
  0
LINE
  5
384
100
AcDbEntity
  8
ASSI
100
AcDbLine
 62
7
  6
CONTINUOUS
 10
15.9914794519
 20
2.5249513145
 11
16.5777979746
 21
3.1112698372
  0
LINE
  5
385
100
AcDbEntity
  8
RACCORDO
100
AcDbLine
 62
7
  6
CONTINUOUS
 10
-15.381933931
 20
9.5
 11
-4.382066069
 21
9.5
  0
LINE
  5
386
100
AcDbEntity
  8
RACCORDO
100
AcDbLine
 62
253
  6
CONTINUOUS
 10
-15.382
 20
9.7
 11
-4.382
 21
9.7
  0
LINE
  5
387
100
AcDbEntity
  8
RACCORDO
100
AcDbLine
 62
253
  6
CONTINUOUS
 10
-4.082
 20
10.0
 11
-3.882
 21
10.0
  0
LINE
  5
388
100
AcDbEntity
  8
RACCORDO
100
AcDbLine
 62
253
  6
CONTINUOUS
 10
-15.682
 20
10.0
 11
-15.882
 21
10.0000000009
  0
LINE
  5
389
100
AcDbEntity
  8
ASSI
100
AcDbLine
 62
7
  6
CONTINUOUS
 10
16.5777979746
 20
-3.1112698372
 11
15.9914794519
 21
-2.5249513145
  0
LINE
  5
38A
100
AcDbEntity
  8
ASSI
100
AcDbLine
 62
7
  6
CONTINUOUS
 10
10.0930486855
 20
3.3734794519
 11
9.5067301628
 21
3.9597979746
  0
LINE
  5
38B
100
AcDbEntity
  8
RACCORDO
100
AcDbLine
 62
7
  6
CONTINUOUS
 10
8.218
 20
22.4
 11
8.2209258382
 21
22.3736436632
  0
LINE
  5
38C
100
AcDbEntity
  8
ASSI
100
AcDbLine
 62
7
  6
CONTINUOUS
 10
12.018
 20
5.0
 11
12.018
 21
4.1708203932
  0
LINE
  5
38D
100
AcDbEntity
  8
ASSI
100
AcDbLine
 62
7
  6
CONTINUOUS
 10
13.218
 20
4.1708203932
 11
13.218
 21
5.0
  0
LINE
  5
38E
100
AcDbEntity
  8
ASSI
100
AcDbLine
 62
7
  6
CONTINUOUS
 10
13.818
 20
-4.0
 11
13.818
 21
-5.7256004052
  0
LINE
  5
38F
100
AcDbEntity
  8
ASSI
100
AcDbLine
 62
7
  6
CONTINUOUS
 10
15.7292698372
 20
-3.9597979746
 11
16.5777979746
 21
-3.1112698372
  0
LINE
  5
390
100
AcDbEntity
  8
DRAFT
100
AcDbLine
 62
7
  6
CONTINUOUS
 10
-21.032
 20
13.5
 11
-21.007
 21
13.5
  0
LINE
  5
391
100
AcDbEntity
  8
RACCORDO
100
AcDbLine
 62
253
  6
CONTINUOUS
 10
-4.082
 20
13.5
 11
-3.882
 21
13.4999999991
  0
LINE
  5
392
100
AcDbEntity
  8
DRAFT
100
AcDbLine
 62
7
  6
CONTINUOUS
 10
1.268
 20
13.5
 11
1.243
 21
13.5
  0
LINE
  5
393
100
AcDbEntity
  8
RACCORDO
100
AcDbLine
 62
253
  6
CONTINUOUS
 10
-15.682
 20
13.5
 11
-15.882
 21
13.5
  0
LINE
  5
394
100
AcDbEntity
  8
RACCORDO
100
AcDbLine
 62
253
  6
CONTINUOUS
 10
-4.382
 20
13.8
 11
-15.382
 21
13.8
  0
LINE
  5
395
100
AcDbEntity
  8
ASSI
100
AcDbLine
 62
7
  6
CONTINUOUS
 10
16.5777979746
 20
3.1112698372
 11
15.7292698372
 21
3.9597979746
  0
LINE
  5
396
100
AcDbEntity
  8
0
100
AcDbLine
 62
7
  6
CONTINUOUS
 10
14.118
 20
-9.7839024528
 11
14.118
 21
-9.937429245
  0
LINE
  5
397
100
AcDbEntity
  8
RACCORDO
100
AcDbLine
 62
7
  6
CONTINUOUS
 10
17.018
 20
22.4
 11
17.0150741618
 21
22.3736436632
  0
LINE
  5
398
100
AcDbEntity
  8
RACCORDO
100
AcDbLine
 62
253
  6
CONTINUOUS
 10
23.1172759622
 20
21.998725222
 11
23.22691534
 21
22.3279108386
  0
LINE
  5
399
100
AcDbEntity
  8
RACCORDO
100
AcDbLine
 62
253
  6
CONTINUOUS
 10
23.7505830976
 20
21.8998857286
 11
23.6171998097
 21
21.4994104546
  0
LINE
  5
39A
100
AcDbEntity
  8
RACCORDO
100
AcDbLine
 62
7
  6
CONTINUOUS
 10
-1.6101050106
 20
-22.3781050106
 11
-1.632
 21
-22.4
  0
LINE
  5
39B
100
AcDbEntity
  8
RACCORDO
100
AcDbLine
 62
253
  6
CONTINUOUS
 10
-1.632
 20
-24.2500380762
 11
-1.5926499457
 21
-24.2106880219
  0
LINE
  5
39C
100
AcDbEntity
  8
RACCORDO
100
AcDbLine
 62
7
  6
CONTINUOUS
 10
-15.3821390599
 20
14.0
 11
-4.3818609401
 21
14.0
  0
LINE
  5
39D
100
AcDbEntity
  8
RACCORDO
100
AcDbLine
 62
7
  6
CONTINUOUS
 10
-1.6101050106
 20
22.3781050106
 11
-1.632
 21
22.4
  0
LINE
  5
39E
100
AcDbEntity
  8
RACCORDO
100
AcDbLine
 62
253
  6
CONTINUOUS
 10
-1.5926499457
 20
24.2106880219
 11
-1.632
 21
24.2500380762
  0
LINE
  5
39F
100
AcDbEntity
  8
RACCORDO
100
AcDbLine
 62
253
  6
CONTINUOUS
 10
23.22691534
 20
-22.3279108386
 11
23.1172759622
 21
-21.998725222
  0
LINE
  5
3A0
100
AcDbEntity
  8
RACCORDO
100
AcDbLine
 62
253
  6
CONTINUOUS
 10
23.6171998097
 20
-21.4994104546
 11
23.7505830976
 21
-21.8998857286
  0
LINE
  5
3A1
100
AcDbEntity
  8
RACCORDO
100
AcDbLine
 62
7
  6
CONTINUOUS
 10
17.018
 20
-22.4
 11
17.0150741618
 21
-22.3736436632
  0
LINE
  5
3A2
100
AcDbEntity
  8
RACCORDO
100
AcDbLine
 62
253
  6
CONTINUOUS
 10
16.5150826234
 20
-23.5953423515
 11
16.5150826234
 21
-22.3475922207
  0
LINE
  5
3A3
100
AcDbEntity
  8
RACCORDO
100
AcDbLine
 62
253
  6
CONTINUOUS
 10
16.5150826234
 20
22.3475922207
 11
16.5150826234
 21
23.5953423515
  0
LINE
  5
3A4
100
AcDbEntity
  8
RACCORDO
100
AcDbLine
 62
253
  6
CONTINUOUS
 10
17.0150741618
 20
-23.7970741618
 11
17.0150741618
 21
-22.3736436632
  0
LINE
  5
3A5
100
AcDbEntity
  8
RACCORDO
100
AcDbLine
 62
253
  6
CONTINUOUS
 10
17.0150741618
 20
22.3736436632
 11
17.0150741618
 21
23.7970741618
  0
LINE
  5
3A6
100
AcDbEntity
  8
DRAFT
100
AcDbLine
 62
7
  6
CONTINUOUS
 10
17.018
 20
23.8
 11
17.018
 21
22.4
  0
LINE
  5
3A7
100
AcDbEntity
  8
DRAFT
100
AcDbLine
 62
7
  6
CONTINUOUS
 10
17.018
 20
-22.4
 11
17.018
 21
-23.8
  0
LINE
  5
3A8
100
AcDbEntity
  8
ASSI
100
AcDbLine
 62
7
  6
CONTINUOUS
 10
17.618
 20
-0.6
 11
17.618
 21
0.6
  0
LINE
  5
3A9
100
AcDbEntity
  8
RACCORDO
100
AcDbLine
 62
253
  6
CONTINUOUS
 10
-1.3820380762
 20
-24.5
 11
-1.3426880219
 21
-24.4606499457
  0
LINE
  5
3AA
100
AcDbEntity
  8
RACCORDO
100
AcDbLine
 62
253
  6
CONTINUOUS
 10
1.968
 20
-24.2500042308
 11
1.9810985787
 21
-24.2369056521
  0
LINE
  5
3AB
100
AcDbEntity
  8
COSMETICI
100
AcDbLine
 62
7
  6
CONTINUOUS
 10
1.268
 20
17.2
 11
1.468
 21
17.2
  0
LINE
  5
3AC
100
AcDbEntity
  8
0
100
AcDbLine
 62
7
  6
CONTINUOUS
 10
1.468
 20
17.5
 11
1.268
 21
17.5
  0
LINE
  5
3AD
100
AcDbEntity
  8
0
100
AcDbLine
 62
7
  6
CONTINUOUS
 10
1.468
 20
17.55
 11
1.268
 21
17.55
  0
LINE
  5
3AE
100
AcDbEntity
  8
RACCORDO
100
AcDbLine
 62
7
  6
CONTINUOUS
 10
1.268
 20
17.701518275
 11
1.468
 21
17.701518275
  0
LINE
  5
3AF
100
AcDbEntity
  8
ASSI
100
AcDbLine
 62
7
  6
CONTINUOUS
 10
1.268
 20
17.701518275
 11
1.468
 21
17.701518275
  0
LINE
  5
3B0
100
AcDbEntity
  8
DRAFT
100
AcDbLine
 62
7
  6
CONTINUOUS
 10
1.268
 20
17.9258216238
 11
1.468
 21
17.9258216238
  0
LINE
  5
3B1
100
AcDbEntity
  8
ASSI
100
AcDbLine
 62
7
  6
CONTINUOUS
 10
1.268
 20
17.9258216238
 11
1.468
 21
17.9258216238
  0
LINE
  5
3B2
100
AcDbEntity
  8
RACCORDO
100
AcDbLine
 62
253
  6
CONTINUOUS
 10
-1.3426880219
 20
24.4606499457
 11
-1.3820380762
 21
24.5
  0
LINE
  5
3B3
100
AcDbEntity
  8
RACCORDO
100
AcDbLine
 62
253
  6
CONTINUOUS
 10
1.968
 20
24.2500042308
 11
1.9810985787
 21
24.2369056521
  0
LINE
  5
3B4
100
AcDbEntity
  8
RACCORDO
100
AcDbLine
 62
253
  6
CONTINUOUS
 10
20.8810985787
 20
-23.8443375673
 11
20.8752807489
 21
-23.2669872981
  0
LINE
  5
3B5
100
AcDbEntity
  8
0
100
AcDbLine
 62
7
  6
CONTINUOUS
 10
19.438
 20
3.4605069582
 11
19.438
 21
-1.5
  0
LINE
  5
3B6
100
AcDbEntity
  8
RACCORDO
100
AcDbLine
 62
253
  6
CONTINUOUS
 10
20.8752807489
 20
23.2669872981
 11
20.8810985787
 21
23.8443375673
  0
LINE
  5
3B7
100
AcDbEntity
  8
RACCORDO
100
AcDbLine
 62
253
  6
CONTINUOUS
 10
2.2179957692
 20
-24.5
 11
2.2310943479
 21
-24.4869014213
  0
LINE
  5
3B8
100
AcDbEntity
  8
RACCORDO
100
AcDbLine
 62
253
  6
CONTINUOUS
 10
1.2243623377
 20
-21.9129951101
 11
1.268
 21
-21.8911779406
  0
LINE
  5
3B9
100
AcDbEntity
  8
RACCORDO
100
AcDbLine
 62
7
  6
CONTINUOUS
 10
0.9184855365
 20
-22.3738174026
 11
0.9484057827
 21
-22.3598951168
  0
LINE
  5
3BA
100
AcDbEntity
  8
RACCORDO
100
AcDbLine
 62
253
  6
CONTINUOUS
 10
0.6193352665
 20
20.4907101402
 11
-20.3833352665
 21
20.4907101402
  0
LINE
  5
3BB
100
AcDbEntity
  8
RACCORDO
100
AcDbLine
 62
253
  6
CONTINUOUS
 10
2.1352508085
 20
20.5624683248
 11
23.1007491915
 21
20.5624683248
  0
LINE
  5
3BC
100
AcDbEntity
  8
RACCORDO
100
AcDbLine
 62
7
  6
CONTINUOUS
 10
0.9484057827
 20
22.3598951168
 11
0.9184855365
 21
22.3738174026
  0
LINE
  5
3BD
100
AcDbEntity
  8
RACCORDO
100
AcDbLine
 62
253
  6
CONTINUOUS
 10
1.2243623377
 20
21.9129951101
 11
1.268
 21
21.8911779406
  0
LINE
  5
3BE
100
AcDbEntity
  8
RACCORDO
100
AcDbLine
 62
253
  6
CONTINUOUS
 10
2.2179957692
 20
24.5
 11
2.2310943479
 21
24.4869014213
  0
LINE
  5
3BF
100
AcDbEntity
  8
RACCORDO
100
AcDbLine
 62
253
  6
CONTINUOUS
 10
21.1310943479
 20
-23.6278312164
 11
21.1260037468
 21
-23.1226497308
  0
LINE
  5
3C0
100
AcDbEntity
  8
RACCORDO
100
AcDbLine
 62
7
  6
CONTINUOUS
 10
20.868
 20
-22.4
 11
20.868
 21
-24.2500042308
  0
LINE
  5
3C1
100
AcDbEntity
  8
RACCORDO
100
AcDbLine
 62
7
  6
CONTINUOUS
 10
20.868
 20
22.4
 11
20.868
 21
24.2500042308
  0
LINE
  5
3C2
100
AcDbEntity
  8
RACCORDO
100
AcDbLine
 62
253
  6
CONTINUOUS
 10
20.8752807489
 20
-23.2669872981
 11
20.8752807489
 21
-22.3344140523
  0
LINE
  5
3C3
100
AcDbEntity
  8
RACCORDO
100
AcDbLine
 62
253
  6
CONTINUOUS
 10
20.8752807489
 20
22.3344140523
 11
20.8752807489
 21
23.2669872981
  0
LINE
  5
3C4
100
AcDbEntity
  8
RACCORDO
100
AcDbLine
 62
253
  6
CONTINUOUS
 10
20.8810985787
 20
24.2369056521
 11
20.8810985787
 21
23.8443375673
  0
LINE
  5
3C5
100
AcDbEntity
  8
RACCORDO
100
AcDbLine
 62
253
  6
CONTINUOUS
 10
20.8810985787
 20
-23.8443375673
 11
20.8810985787
 21
-24.2369056521
  0
LINE
  5
3C6
100
AcDbEntity
  8
RACCORDO
100
AcDbLine
 62
253
  6
CONTINUOUS
 10
21.1252765181
 20
-23.1226497308
 11
21.1252765181
 21
-22.3213883311
  0
LINE
  5
3C7
100
AcDbEntity
  8
RACCORDO
100
AcDbLine
 62
253
  6
CONTINUOUS
 10
21.1252765181
 20
22.3213883311
 11
21.1252765181
 21
23.1226497308
  0
LINE
  5
3C8
100
AcDbEntity
  8
RACCORDO
100
AcDbLine
 62
253
  6
CONTINUOUS
 10
21.1310943479
 20
-23.6278312164
 11
21.1310943479
 21
-24.4869014213
  0
LINE
  5
3C9
100
AcDbEntity
  8
RACCORDO
100
AcDbLine
 62
253
  6
CONTINUOUS
 10
21.1310943479
 20
23.6278312164
 11
21.1310943479
 21
24.4869014213
  0
LINE
  5
3CA
100
AcDbEntity
  8
RACCORDO
100
AcDbLine
 62
253
  6
CONTINUOUS
 10
23.0049056521
 20
-23.6278312164
 11
23.0049056521
 21
-24.4869014213
  0
LINE
  5
3CB
100
AcDbEntity
  8
RACCORDO
100
AcDbLine
 62
253
  6
CONTINUOUS
 10
23.0049056521
 20
23.6278312164
 11
23.0049056521
 21
24.4869014213
  0
LINE
  5
3CC
100
AcDbEntity
  8
RACCORDO
100
AcDbLine
 62
253
  6
CONTINUOUS
 10
23.0107234819
 20
-23.1226497308
 11
23.0107234819
 21
-22.3213883311
  0
LINE
  5
3CD
100
AcDbEntity
  8
RACCORDO
100
AcDbLine
 62
253
  6
CONTINUOUS
 10
23.0107234819
 20
22.3213883311
 11
23.0107234819
 21
23.1226497308
  0
LINE
  5
3CE
100
AcDbEntity
  8
RACCORDO
100
AcDbLine
 62
253
  6
CONTINUOUS
 10
21.1260037468
 20
23.1226497308
 11
21.1310943479
 21
23.6278312164
  0
LINE
  5
3CF
100
AcDbEntity
  8
RACCORDO
100
AcDbLine
 62
7
  6
CONTINUOUS
 10
8.2209258382
 20
-23.7970741618
 11
8.218
 21
-23.8
  0
LINE
  5
3D0
100
AcDbEntity
  8
DRAFT
100
AcDbLine
 62
7
  6
CONTINUOUS
 10
1.468
 20
21.1516319481
 11
1.268
 21
21.1516319481
  0
LINE
  5
3D1
100
AcDbEntity
  8
ASSI
100
AcDbLine
 62
7
  6
CONTINUOUS
 10
1.468
 20
21.1516319481
 11
1.268
 21
21.1516319481
  0
LINE
  5
3D2
100
AcDbEntity
  8
DRAFT
100
AcDbLine
 62
7
  6
CONTINUOUS
 10
1.468
 20
21.3
 11
1.268
 21
21.3
  0
LINE
  5
3D3
100
AcDbEntity
  8
ASSI
100
AcDbLine
 62
7
  6
CONTINUOUS
 10
1.468
 20
21.3
 11
1.268
 21
21.3
  0
LINE
  5
3D4
100
AcDbEntity
  8
RACCORDO
100
AcDbLine
 62
253
  6
CONTINUOUS
 10
0.63586214
 20
21.927182312
 11
-20.39986214
 21
21.927182312
  0
LINE
  5
3D5
100
AcDbEntity
  8
RACCORDO
100
AcDbLine
 62
253
  6
CONTINUOUS
 10
2.1187240378
 20
21.998725222
 11
23.1172759622
 21
21.998725222
  0
LINE
  5
3D6
100
AcDbEntity
  8
RACCORDO
100
AcDbLine
 62
7
  6
CONTINUOUS
 10
-20.5073805997
 20
22.25
 11
0.7433805997
 21
22.25
  0
LINE
  5
3D7
100
AcDbEntity
  8
RACCORDO
100
AcDbLine
 62
7
  6
CONTINUOUS
 10
2.2252765181
 20
22.3213883311
 11
4.1107234819
 21
22.3213883311
  0
LINE
  5
3D8
100
AcDbEntity
  8
RACCORDO
100
AcDbLine
 62
7
  6
CONTINUOUS
 10
21.1252765181
 20
22.3213883311
 11
23.0107234819
 21
22.3213883311
  0
LINE
  5
3D9
100
AcDbEntity
  8
RACCORDO
100
AcDbLine
 62
7
  6
CONTINUOUS
 10
16.5150826234
 20
22.3475922207
 11
8.7209173766
 21
22.3475922207
  0
LINE
  5
3DA
100
AcDbEntity
  8
RACCORDO
100
AcDbLine
 62
7
  6
CONTINUOUS
 10
0.9184855365
 20
22.3738174026
 11
0.4961430868
 21
22.3738174026
  0
LINE
  5
3DB
100
AcDbEntity
  8
RACCORDO
100
AcDbLine
 62
7
  6
CONTINUOUS
 10
-1.3601430868
 20
22.3738174026
 11
-18.4038569132
 21
22.3738174026
  0
LINE
  5
3DC
100
AcDbEntity
  8
RACCORDO
100
AcDbLine
 62
7
  6
CONTINUOUS
 10
-20.2601430868
 20
22.3738174026
 11
-20.6824855365
 21
22.3738174026
  0
LINE
  5
3DD
100
AcDbEntity
  8
RACCORDO
100
AcDbLine
 62
7
  6
CONTINUOUS
 10
-5.9908036965
 20
22.3825449351
 11
-13.7731963035
 21
22.3825449351
  0
LINE
  5
3DE
100
AcDbEntity
  8
DRAFT
100
AcDbLine
 62
7
  6
CONTINUOUS
 10
20.868
 20
22.4
 11
17.018
 21
22.4
  0
LINE
  5
3DF
100
AcDbEntity
  8
DRAFT
100
AcDbLine
 62
7
  6
CONTINUOUS
 10
8.218
 20
22.4
 11
4.368
 21
22.4
  0
LINE
  5
3E0
100
AcDbEntity
  8
DRAFT
100
AcDbLine
 62
7
  6
CONTINUOUS
 10
0.768
 20
22.4
 11
1.9680008609
 21
22.4
  0
LINE
  5
3E1
100
AcDbEntity
  8
ASSI
100
AcDbLine
 62
7
  6
CONTINUOUS
 10
0.768
 20
22.4
 11
1.9680008609
 21
22.4
  0
LINE
  5
3E2
100
AcDbEntity
  8
DRAFT
100
AcDbLine
 62
7
  6
CONTINUOUS
 10
-1.632
 20
22.4
 11
-5.482
 21
22.4
  0
LINE
  5
3E3
100
AcDbEntity
  8
DRAFT
100
AcDbLine
 62
7
  6
CONTINUOUS
 10
-14.282
 20
22.4
 11
-18.132
 21
22.4
  0
LINE
  5
3E4
100
AcDbEntity
  8
RACCORDO
100
AcDbLine
 62
253
  6
CONTINUOUS
 10
0.7461050106
 20
22.9783121636
 11
-1.6101050106
 21
22.9783121636
  0
LINE
  5
3E5
100
AcDbEntity
  8
RACCORDO
100
AcDbLine
 62
253
  6
CONTINUOUS
 10
-18.1538949894
 20
22.9783121636
 11
-20.5101050106
 21
22.9783121636
  0
LINE
  5
3E6
100
AcDbEntity
  8
RACCORDO
100
AcDbLine
 62
7
  6
CONTINUOUS
 10
8.2209258382
 20
23.7970741618
 11
8.218
 21
23.8
  0
LINE
  5
3E7
100
AcDbEntity
  8
RACCORDO
100
AcDbLine
 62
253
  6
CONTINUOUS
 10
23.0049056521
 20
23.6278312164
 11
23.0099962532
 21
23.1226497308
  0
LINE
  5
3E8
100
AcDbEntity
  8
RACCORDO
100
AcDbLine
 62
253
  6
CONTINUOUS
 10
23.2549014213
 20
23.8443375673
 11
23.2607192511
 21
23.2669872981
  0
LINE
  5
3E9
100
AcDbEntity
  8
RACCORDO
100
AcDbLine
 62
253
  6
CONTINUOUS
 10
23.2549014213
 20
-24.2369056521
 11
23.2549014213
 21
-23.8443375673
  0
LINE
  5
3EA
100
AcDbEntity
  8
RACCORDO
100
AcDbLine
 62
253
  6
CONTINUOUS
 10
23.2549014213
 20
23.8443375673
 11
23.2549014213
 21
24.2369056521
  0
LINE
  5
3EB
100
AcDbEntity
  8
RACCORDO
100
AcDbLine
 62
253
  6
CONTINUOUS
 10
23.2607192511
 20
-23.2669872981
 11
23.2607192511
 21
-22.3334109614
  0
LINE
  5
3EC
100
AcDbEntity
  8
RACCORDO
100
AcDbLine
 62
253
  6
CONTINUOUS
 10
23.2607192511
 20
22.3334109614
 11
23.2607192511
 21
23.2669872981
  0
LINE
  5
3ED
100
AcDbEntity
  8
RACCORDO
100
AcDbLine
 62
7
  6
CONTINUOUS
 10
23.268
 20
-22.399689968
 11
23.268
 21
-24.2500042308
  0
LINE
  5
3EE
100
AcDbEntity
  8
RACCORDO
100
AcDbLine
 62
7
  6
CONTINUOUS
 10
23.268
 20
22.399689968
 11
23.268
 21
24.2500042308
  0
LINE
  5
3EF
100
AcDbEntity
  8
ASSI
100
AcDbLine
 62
7
  6
CONTINUOUS
 10
23.768
 20
17.6716990487
 11
23.768
 21
-17.6716990487
  0
LINE
  5
3F0
100
AcDbEntity
  8
RACCORDO
100
AcDbLine
 62
7
  6
CONTINUOUS
 10
23.768
 20
21.8911779406
 11
23.768
 21
-21.8911779406
  0
LINE
  5
3F1
100
AcDbEntity
  8
CURVE
100
AcDbLine
 62
253
  6
CONTINUOUS
 10
23.868
 20
16.0
 11
23.868
 21
13.20444
  0
LINE
  5
3F2
100
AcDbEntity
  8
CURVE
100
AcDbLine
 62
253
  6
CONTINUOUS
 10
23.868
 20
12.911198
 11
23.868
 21
10.292325
  0
LINE
  5
3F3
100
AcDbEntity
  8
CURVE
100
AcDbLine
 62
253
  6
CONTINUOUS
 10
23.868
 20
9.975074
 11
23.868
 21
7.179514
  0
LINE
  5
3F4
100
AcDbEntity
  8
CURVE
100
AcDbLine
 62
253
  6
CONTINUOUS
 10
23.868
 20
6.866738
 11
23.868
 21
5.171133
  0
LINE
  5
3F5
100
AcDbEntity
  8
CURVE
100
AcDbLine
 62
253
  6
CONTINUOUS
 10
23.868
 20
4.7815268003
 11
23.868
 21
2.70079
  0
LINE
  5
3F6
100
AcDbEntity
  8
RACCORDO
100
AcDbLine
 62
253
  6
CONTINUOUS
 10
23.0099962532
 20
-23.1226497308
 11
23.0049056521
 21
-23.6278312164
  0
LINE
  5
3F7
100
AcDbEntity
  8
RACCORDO
100
AcDbLine
 62
253
  6
CONTINUOUS
 10
23.2607192511
 20
-23.2669872981
 11
23.2549014213
 21
-23.8443375673
  0
LINE
  5
3F8
100
AcDbEntity
  8
RACCORDO
100
AcDbLine
 62
7
  6
CONTINUOUS
 10
20.868
 20
-22.4
 11
20.8752807489
 21
-22.3344140523
  0
LINE
  5
3F9
100
AcDbEntity
  8
RACCORDO
100
AcDbLine
 62
7
  6
CONTINUOUS
 10
2.2252765181
 20
23.1226497308
 11
4.1107234819
 21
23.1226497308
  0
LINE
  5
3FA
100
AcDbEntity
  8
RACCORDO
100
AcDbLine
 62
7
  6
CONTINUOUS
 10
21.1252765181
 20
23.1226497308
 11
23.0107234819
 21
23.1226497308
  0
LINE
  5
3FB
100
AcDbEntity
  8
RACCORDO
100
AcDbLine
 62
253
  6
CONTINUOUS
 10
-20.2557793206
 20
23.1948185145
 11
-18.4082206794
 21
23.1948185145
  0
LINE
  5
3FC
100
AcDbEntity
  8
RACCORDO
100
AcDbLine
 62
253
  6
CONTINUOUS
 10
-1.3557793206
 20
23.1948185145
 11
0.4917793206
 21
23.1948185145
  0
LINE
  5
3FD
100
AcDbEntity
  8
RACCORDO
100
AcDbLine
 62
253
  6
CONTINUOUS
 10
16.5150826234
 20
23.5953423515
 11
8.7209173766
 21
23.5953423515
  0
LINE
  5
3FE
100
AcDbEntity
  8
RACCORDO
100
AcDbLine
 62
253
  6
CONTINUOUS
 10
0.4786880219
 20
23.6278312164
 11
-1.3426880219
 21
23.6278312164
  0
LINE
  5
3FF
100
AcDbEntity
  8
RACCORDO
100
AcDbLine
 62
253
  6
CONTINUOUS
 10
2.2310943479
 20
23.6278312164
 11
4.1049056521
 21
23.6278312164
  0
LINE
  5
400
100
AcDbEntity
  8
RACCORDO
100
AcDbLine
 62
253
  6
CONTINUOUS
 10
-18.4213119781
 20
23.6278312164
 11
-20.2426880219
 21
23.6278312164
  0
LINE
  5
401
100
AcDbEntity
  8
RACCORDO
100
AcDbLine
 62
253
  6
CONTINUOUS
 10
21.1310943479
 20
23.6278312164
 11
23.0049056521
 21
23.6278312164
  0
LINE
  5
402
100
AcDbEntity
  8
RACCORDO
100
AcDbLine
 62
7
  6
CONTINUOUS
 10
-5.9908036965
 20
23.7825449351
 11
-13.7731963035
 21
23.7825449351
  0
LINE
  5
403
100
AcDbEntity
  8
RACCORDO
100
AcDbLine
 62
253
  6
CONTINUOUS
 10
16.9142073137
 20
23.7953389668
 11
8.3217926863
 21
23.7953389668
  0
LINE
  5
404
100
AcDbEntity
  8
DRAFT
100
AcDbLine
 62
7
  6
CONTINUOUS
 10
8.218
 20
23.8
 11
17.018
 21
23.8
  0
LINE
  5
405
100
AcDbEntity
  8
DRAFT
100
AcDbLine
 62
7
  6
CONTINUOUS
 10
-5.482
 20
23.8
 11
-14.282
 21
23.8
  0
LINE
  5
406
100
AcDbEntity
  8
RACCORDO
100
AcDbLine
 62
253
  6
CONTINUOUS
 10
0.7286499457
 20
23.8443375673
 11
-1.5926499457
 21
23.8443375673
  0
LINE
  5
407
100
AcDbEntity
  8
RACCORDO
100
AcDbLine
 62
253
  6
CONTINUOUS
 10
1.9810985787
 20
23.8443375673
 11
4.3549014213
 21
23.8443375673
  0
LINE
  5
408
100
AcDbEntity
  8
RACCORDO
100
AcDbLine
 62
253
  6
CONTINUOUS
 10
-18.1713500543
 20
23.8443375673
 11
-20.4926499457
 21
23.8443375673
  0
LINE
  5
409
100
AcDbEntity
  8
RACCORDO
100
AcDbLine
 62
253
  6
CONTINUOUS
 10
20.8810985787
 20
23.8443375673
 11
23.2549014213
 21
23.8443375673
  0
LINE
  5
40A
100
AcDbEntity
  8
RACCORDO
100
AcDbLine
 62
253
  6
CONTINUOUS
 10
0.7286499457
 20
24.2106880219
 11
-1.5926499457
 21
24.2106880219
  0
LINE
  5
40B
100
AcDbEntity
  8
RACCORDO
100
AcDbLine
 62
253
  6
CONTINUOUS
 10
-18.1713500543
 20
24.2106880219
 11
-20.4926499457
 21
24.2106880219
  0
LINE
  5
40C
100
AcDbEntity
  8
RACCORDO
100
AcDbLine
 62
253
  6
CONTINUOUS
 10
1.9810985787
 20
24.2369056521
 11
4.3549014213
 21
24.2369056521
  0
LINE
  5
40D
100
AcDbEntity
  8
RACCORDO
100
AcDbLine
 62
253
  6
CONTINUOUS
 10
20.8810985787
 20
24.2369056521
 11
23.2549014213
 21
24.2369056521
  0
LINE
  5
40E
100
AcDbEntity
  8
RACCORDO
100
AcDbLine
 62
253
  6
CONTINUOUS
 10
0.4786880219
 20
24.4606499457
 11
-1.3426880219
 21
24.4606499457
  0
LINE
  5
40F
100
AcDbEntity
  8
RACCORDO
100
AcDbLine
 62
253
  6
CONTINUOUS
 10
-18.4213119781
 20
24.4606499457
 11
-20.2426880219
 21
24.4606499457
  0
LINE
  5
410
100
AcDbEntity
  8
RACCORDO
100
AcDbLine
 62
253
  6
CONTINUOUS
 10
23.0049056521
 20
24.4869014213
 11
21.1310943479
 21
24.4869014213
  0
LINE
  5
411
100
AcDbEntity
  8
RACCORDO
100
AcDbLine
 62
253
  6
CONTINUOUS
 10
4.1049056521
 20
24.4869014213
 11
2.2310943479
 21
24.4869014213
  0
LINE
  5
412
100
AcDbEntity
  8
RACCORDO
100
AcDbLine
 62
7
  6
CONTINUOUS
 10
-1.3820095192
 20
24.5
 11
0.5180095192
 21
24.5
  0
LINE
  5
413
100
AcDbEntity
  8
RACCORDO
100
AcDbLine
 62
7
  6
CONTINUOUS
 10
2.2179957692
 20
24.5
 11
4.1180042308
 21
24.5
  0
LINE
  5
414
100
AcDbEntity
  8
RACCORDO
100
AcDbLine
 62
7
  6
CONTINUOUS
 10
-18.3819904808
 20
24.5
 11
-20.2820095192
 21
24.5
  0
LINE
  5
415
100
AcDbEntity
  8
RACCORDO
100
AcDbLine
 62
7
  6
CONTINUOUS
 10
21.1179957692
 20
24.5
 11
23.0180042308
 21
24.5
  0
LINE
  5
416
100
AcDbEntity
  8
RACCORDO
100
AcDbLine
 62
7
  6
CONTINUOUS
 10
20.868
 20
22.4
 11
20.8752807489
 21
22.3344140523
  0
LINE
  5
417
100
AcDbEntity
  8
RACCORDO
100
AcDbLine
 62
253
  6
CONTINUOUS
 10
20.868
 20
-24.2500042308
 11
20.8810985787
 21
-24.2369056521
  0
LINE
  5
418
100
AcDbEntity
  8
RACCORDO
100
AcDbLine
 62
253
  6
CONTINUOUS
 10
21.1179957692
 20
-24.5
 11
21.1310943479
 21
-24.4869014213
  0
LINE
  5
419
100
AcDbEntity
  8
RACCORDO
100
AcDbLine
 62
253
  6
CONTINUOUS
 10
23.7505830976
 20
-21.8998857286
 11
23.768
 21
-21.8911779406
  0
LINE
  5
41A
100
AcDbEntity
  8
RACCORDO
100
AcDbLine
 62
7
  6
CONTINUOUS
 10
23.4740144094
 20
-22.3472251339
 11
23.491517002
 21
-22.3384745041
  0
LINE
  5
41B
100
AcDbEntity
  8
RACCORDO
100
AcDbLine
 62
253
  6
CONTINUOUS
 10
23.768
 20
21.8911779406
 11
23.7505830976
 21
21.8998857286
  0
LINE
  5
41C
100
AcDbEntity
  8
RACCORDO
100
AcDbLine
 62
7
  6
CONTINUOUS
 10
23.491517002
 20
22.3384745041
 11
23.4740144094
 21
22.3472251339
  0
LINE
  5
41D
100
AcDbEntity
  8
RACCORDO
100
AcDbLine
 62
253
  6
CONTINUOUS
 10
20.868
 20
24.2500042308
 11
20.8810985787
 21
24.2369056521
  0
LINE
  5
41E
100
AcDbEntity
  8
RACCORDO
100
AcDbLine
 62
253
  6
CONTINUOUS
 10
21.1179957692
 20
24.5
 11
21.1310943479
 21
24.4869014213
  0
LINE
  5
41F
100
AcDbEntity
  8
RACCORDO
100
AcDbLine
 62
253
  6
CONTINUOUS
 10
-68.3023701545
 20
23.4104851482
 11
-67.5509157217
 21
23.8443375673
  0
LINE
  5
420
100
AcDbEntity
  8
RACCORDO
100
AcDbLine
 62
253
  6
CONTINUOUS
 10
-67.5509157217
 20
-23.8443375673
 11
-68.3023701545
 21
-23.4104851482
  0
LINE
  5
421
100
AcDbEntity
  8
RACCORDO
100
AcDbLine
 62
7
  6
CONTINUOUS
 10
-68.3023701545
 20
23.1226497308
 11
-67.4273701545
 21
23.6278312164
  0
LINE
  5
422
100
AcDbEntity
  8
RACCORDO
100
AcDbLine
 62
7
  6
CONTINUOUS
 10
-67.4273701545
 20
-23.6278312164
 11
-68.3023701545
 21
-23.1226497308
  0
LINE
  5
423
100
AcDbEntity
  8
ASSI
100
AcDbLine
 62
7
  6
CONTINUOUS
 10
-78.4023701545
 20
-5.7256004052
 11
-78.4023701545
 21
5.8500077814
  0
LINE
  5
424
100
AcDbEntity
  8
0
100
AcDbLine
 62
7
  6
CONTINUOUS
 10
-78.0023701545
 20
9.9
 11
-78.0023701545
 21
-9.9
  0
LINE
  5
425
100
AcDbEntity
  8
RACCORDO
100
AcDbLine
 62
7
  6
CONTINUOUS
 10
-77.8023701545
 20
9.9
 11
-77.8023701545
 21
13.8
  0
LINE
  5
426
100
AcDbEntity
  8
RACCORDO
100
AcDbLine
 62
7
  6
CONTINUOUS
 10
-67.5509157217
 20
-24.495628166
 11
-68.3023701545
 21
-24.5
  0
LINE
  5
427
100
AcDbEntity
  8
RACCORDO
100
AcDbLine
 62
253
  6
CONTINUOUS
 10
-67.5509157217
 20
-24.2456323968
 11
-68.3023701545
 21
-24.2500042308
  0
LINE
  5
428
100
AcDbEntity
  8
ASSI
100
AcDbLine
 62
7
  6
CONTINUOUS
 10
-67.3074612462
 20
-23.7942117893
 11
-60.7994612889
 21
-23.7563493531
  0
LINE
  5
429
100
AcDbEntity
  8
RACCORDO
100
AcDbLine
 62
253
  6
CONTINUOUS
 10
-67.3023701545
 20
-24.2456323968
 11
-67.5509157217
 21
-24.2456323968
  0
LINE
  5
42A
100
AcDbEntity
  8
RACCORDO
100
AcDbLine
 62
253
  6
CONTINUOUS
 10
-70.8023701545
 20
-24.2369056521
 11
-70.5538245874
 21
-24.2369056521
  0
LINE
  5
42B
100
AcDbEntity
  8
RACCORDO
100
AcDbLine
 62
253
  6
CONTINUOUS
 10
-70.8023701545
 20
-23.8443375673
 11
-70.5538245874
 21
-23.8443375673
  0
LINE
  5
42C
100
AcDbEntity
  8
RACCORDO
100
AcDbLine
 62
253
  6
CONTINUOUS
 10
-67.3023701545
 20
-23.8443375673
 11
-67.5509157217
 21
-23.8443375673
  0
LINE
  5
42D
100
AcDbEntity
  8
RACCORDO
100
AcDbLine
 62
7
  6
CONTINUOUS
 10
-68.3023701545
 20
-24.5
 11
-70.5538245874
 21
-24.4869014213
  0
LINE
  5
42E
100
AcDbEntity
  8
RACCORDO
100
AcDbLine
 62
253
  6
CONTINUOUS
 10
-68.3023701545
 20
-24.2500042308
 11
-70.5538245874
 21
-24.2369056521
  0
LINE
  5
42F
100
AcDbEntity
  8
RACCORDO
100
AcDbLine
 62
7
  6
CONTINUOUS
 10
-69.6779132965
 20
-22.3279108386
 11
-75.9591490434
 21
-21.998725222
  0
LINE
  5
430
100
AcDbEntity
  8
RACCORDO
100
AcDbLine
 62
253
  6
CONTINUOUS
 10
-75.9417072685
 20
-21.4994104546
 11
-68.3001838255
 21
-21.8998857286
  0
LINE
  5
431
100
AcDbEntity
  8
DRAFT
100
AcDbLine
 62
7
  6
CONTINUOUS
 10
-57.9193482693
 20
-22.2362187438
 11
-57.3023701545
 21
-22.2254493507
  0
LINE
  5
432
100
AcDbEntity
  8
ASSI
100
AcDbLine
 62
7
  6
CONTINUOUS
 10
-57.9193482693
 20
-22.2362187438
 11
-57.3023701545
 21
-22.2254493507
  0
LINE
  5
433
100
AcDbEntity
  8
DRAFT
100
AcDbLine
 62
7
  6
CONTINUOUS
 10
-57.3023701545
 20
-20.6754493507
 11
-67.3023701545
 21
-20.85
  0
LINE
  5
434
100
AcDbEntity
  8
ASSI
100
AcDbLine
 62
7
  6
CONTINUOUS
 10
-57.3023701545
 20
-20.6754493507
 11
-67.3023701545
 21
-20.85
  0
LINE
  5
435
100
AcDbEntity
  8
RACCORDO
100
AcDbLine
 62
7
  6
CONTINUOUS
 10
-58.293643619
 20
-22.3126551668
 11
-68.3023701545
 21
-22.4
  0
LINE
  5
436
100
AcDbEntity
  8
RACCORDO
100
AcDbLine
 62
253
  6
CONTINUOUS
 10
-68.3001838255
 20
-21.8998857286
 11
-67.3023701545
 21
-21.8911779406
  0
LINE
  5
437
100
AcDbEntity
  8
RACCORDO
100
AcDbLine
 62
7
  6
CONTINUOUS
 10
-57.3023701545
 20
-20.9
 11
-67.3023701545
 21
-20.9
  0
LINE
  5
438
100
AcDbEntity
  8
RACCORDO
100
AcDbLine
 62
7
  6
CONTINUOUS
 10
-57.7936439513
 20
-21.5659754333
 11
-67.3023701545
 21
-21.4
  0
LINE
  5
439
100
AcDbEntity
  8
RACCORDO
100
AcDbLine
 62
253
  6
CONTINUOUS
 10
-77.3810533046
 20
-20.5196806832
 11
-77.4310454612
 21
-20.5218896207
  0
LINE
  5
43A
100
AcDbEntity
  8
RACCORDO
100
AcDbLine
 62
253
  6
CONTINUOUS
 10
-76.8885253242
 20
-20.5419058565
 11
-77.3793759623
 21
-20.562468318
  0
LINE
  5
43B
100
AcDbEntity
  8
RACCORDO
100
AcDbLine
 62
7
  6
CONTINUOUS
 10
-32.2849177481
 20
-19.0887680946
 11
-57.3023701545
 21
-19.5254493507
  0
LINE
  5
43C
100
AcDbEntity
  8
ASSI
100
AcDbLine
 62
7
  6
CONTINUOUS
 10
-32.2849177481
 20
-19.0887680946
 11
-57.3023701545
 21
-19.5254493507
  0
LINE
  5
43D
100
AcDbEntity
  8
RACCORDO
100
AcDbLine
 62
253
  6
CONTINUOUS
 10
-35.8641259002
 20
-18.8583947956
 11
-57.3023701545
 21
-19.232600741
  0
LINE
  5
43E
100
AcDbEntity
  8
ASSI
100
AcDbLine
 62
253
  6
CONTINUOUS
 10
-35.8641259002
 20
-18.8583947956
 11
-57.3023701545
 21
-19.232600741
  0
LINE
  5
43F
100
AcDbEntity
  8
RACCORDO
100
AcDbLine
 62
253
  6
CONTINUOUS
 10
-67.3023701545
 20
-19.0856972195
 11
-35.8641259002
 21
-18.8583947956
  0
LINE
  5
440
100
AcDbEntity
  8
ASSI
100
AcDbLine
 62
253
  6
CONTINUOUS
 10
-67.3023701545
 20
-19.0856972195
 11
-35.8641259002
 21
-18.8583947956
  0
LINE
  5
441
100
AcDbEntity
  8
RACCORDO
100
AcDbLine
 62
7
  6
CONTINUOUS
 10
-70.8023701545
 20
-24.2369056521
 11
-70.8023701545
 21
-23.8443375673
  0
LINE
  5
442
100
AcDbEntity
  8
RACCORDO
100
AcDbLine
 62
7
  6
CONTINUOUS
 10
-70.8023701545
 20
23.8443375673
 11
-70.8023701545
 21
24.2369056521
  0
LINE
  5
443
100
AcDbEntity
  8
RACCORDO
100
AcDbLine
 62
253
  6
CONTINUOUS
 10
-70.5538245874
 20
-24.2369056521
 11
-70.5538245874
 21
-23.8443375673
  0
LINE
  5
444
100
AcDbEntity
  8
RACCORDO
100
AcDbLine
 62
253
  6
CONTINUOUS
 10
-70.5538245874
 20
23.8443375673
 11
-70.5538245874
 21
24.2369056521
  0
LINE
  5
445
100
AcDbEntity
  8
CURVE
100
AcDbLine
 62
7
  6
CONTINUOUS
 10
-64.7023711545
 20
14.8730922803
 11
-64.520206427
 21
15.0552570079
  0
LINE
  5
446
100
AcDbEntity
  8
CURVE
100
AcDbLine
 62
7
  6
CONTINUOUS
 10
-64.7023711545
 20
14.731670924
 11
-64.3034326701
 21
15.1306094085
  0
LINE
  5
447
100
AcDbEntity
  8
CURVE
100
AcDbLine
 62
7
  6
CONTINUOUS
 10
-64.7023711545
 20
14.5902495678
 11
-64.0866589132
 21
15.2059618092
  0
LINE
  5
448
100
AcDbEntity
  8
CURVE
100
AcDbLine
 62
7
  6
CONTINUOUS
 10
-64.7023711545
 20
14.4488282116
 11
-63.8698851563
 21
15.2813142098
  0
LINE
  5
449
100
AcDbEntity
  8
CURVE
100
AcDbLine
 62
7
  6
CONTINUOUS
 10
-64.7023711545
 20
14.3074068553
 11
-63.6531113994
 21
15.3566666105
  0
LINE
  5
44A
100
AcDbEntity
  8
CURVE
100
AcDbLine
 62
7
  6
CONTINUOUS
 10
-64.6385471075
 20
14.2298095462
 11
-63.4363376425
 21
15.4320190111
  0
LINE
  5
44B
100
AcDbEntity
  8
CURVE
100
AcDbLine
 62
7
  6
CONTINUOUS
 10
-64.5346778439
 20
14.1922574535
 11
-64.1275438116
 21
14.5993914858
  0
LINE
  5
44C
100
AcDbEntity
  8
CURVE
100
AcDbLine
 62
7
  6
CONTINUOUS
 10
-64.1074348936
 20
14.6195004038
 11
-63.2195638857
 21
15.5073714118
  0
LINE
  5
44D
100
AcDbEntity
  8
CURVE
100
AcDbLine
 62
7
  6
CONTINUOUS
 10
-64.4308085803
 20
14.1547053609
 11
-64.0223362505
 21
14.5631776906
  0
LINE
  5
44E
100
AcDbEntity
  8
CURVE
100
AcDbLine
 62
7
  6
CONTINUOUS
 10
-63.8990436596
 20
14.6864702816
 11
-63.0027901288
 21
15.5827238124
  0
LINE
  5
44F
100
AcDbEntity
  8
CURVE
100
AcDbLine
 62
7
  6
CONTINUOUS
 10
-64.3269393167
 20
14.1171532682
 11
-63.9171286894
 21
14.5269638955
  0
LINE
  5
450
100
AcDbEntity
  8
CURVE
100
AcDbLine
 62
7
  6
CONTINUOUS
 10
-63.6906524256
 20
14.7534401594
 11
-62.7860163719
 21
15.658076213
  0
LINE
  5
451
100
AcDbEntity
  8
CURVE
100
AcDbLine
 62
7
  6
CONTINUOUS
 10
-64.2230700531
 20
14.0796011756
 11
-63.8119211283
 21
14.4907501004
  0
LINE
  5
452
100
AcDbEntity
  8
CURVE
100
AcDbLine
 62
7
  6
CONTINUOUS
 10
-63.4822611916
 20
14.8204100371
 11
-62.569242615
 21
15.7334286137
  0
LINE
  5
453
100
AcDbEntity
  8
CURVE
100
AcDbLine
 62
7
  6
CONTINUOUS
 10
-64.1192007895
 20
14.042049083
 11
-63.7067135672
 21
14.4545363053
  0
LINE
  5
454
100
AcDbEntity
  8
CURVE
100
AcDbLine
 62
7
  6
CONTINUOUS
 10
-63.2738699576
 20
14.8873799149
 11
-62.3524688581
 21
15.8087810143
  0
LINE
  5
455
100
AcDbEntity
  8
CURVE
100
AcDbLine
 62
7
  6
CONTINUOUS
 10
-64.0153315259
 20
14.0044969903
 11
-63.6015060061
 21
14.4183225101
  0
LINE
  5
456
100
AcDbEntity
  8
CURVE
100
AcDbLine
 62
7
  6
CONTINUOUS
 10
-63.0654787236
 20
14.9543497926
 11
-62.1356951012
 21
15.884133415
  0
LINE
  5
457
100
AcDbEntity
  8
CURVE
100
AcDbLine
 62
7
  6
CONTINUOUS
 10
-63.9114622623
 20
13.9669448977
 11
-63.496298445
 21
14.382108715
  0
LINE
  5
458
100
AcDbEntity
  8
CURVE
100
AcDbLine
 62
7
  6
CONTINUOUS
 10
-62.8989421545
 20
14.9794650054
 11
-61.9189213443
 21
15.9594858156
  0
LINE
  5
459
100
AcDbEntity
  8
CURVE
100
AcDbLine
 62
7
  6
CONTINUOUS
 10
-63.8075929987
 20
13.9293928051
 11
-63.3910908839
 21
14.3458949199
  0
LINE
  5
45A
100
AcDbEntity
  8
CURVE
100
AcDbLine
 62
7
  6
CONTINUOUS
 10
-62.8989421545
 20
14.8380436492
 11
-61.8023701545
 21
15.9346156492
  0
LINE
  5
45B
100
AcDbEntity
  8
CURVE
100
AcDbLine
 62
7
  6
CONTINUOUS
 10
-64.7023711545
 20
12.893193293
 11
-64.6843664475
 21
12.911198
  0
LINE
  5
45C
100
AcDbEntity
  8
CURVE
100
AcDbLine
 62
7
  6
CONTINUOUS
 10
-63.7037237351
 20
13.8918407124
 11
-63.2858833227
 21
14.3096811248
  0
LINE
  5
45D
100
AcDbEntity
  8
CURVE
100
AcDbLine
 62
7
  6
CONTINUOUS
 10
-62.8989421545
 20
14.696622293
 11
-61.8023701545
 21
15.793194293
  0
LINE
  5
45E
100
AcDbEntity
  8
CURVE
100
AcDbLine
 62
7
  6
CONTINUOUS
 10
-64.7023711545
 20
12.7517719367
 11
-64.5429450913
 21
12.911198
  0
LINE
  5
45F
100
AcDbEntity
  8
CURVE
100
AcDbLine
 62
7
  6
CONTINUOUS
 10
-63.5998544715
 20
13.8542886198
 11
-63.1806757616
 21
14.2734673296
  0
LINE
  5
460
100
AcDbEntity
  8
CURVE
100
AcDbLine
 62
7
  6
CONTINUOUS
 10
-62.8989421545
 20
14.5552009367
 11
-62.4170091545
 21
15.0371339367
  0
LINE
  5
461
100
AcDbEntity
  8
CURVE
100
AcDbLine
 62
7
  6
CONTINUOUS
 10
-62.2238969333
 20
15.230246158
 11
-61.8023701545
 21
15.6517729367
  0
LINE
  5
462
100
AcDbEntity
  8
CURVE
100
AcDbLine
 62
7
  6
CONTINUOUS
 10
-64.7023711545
 20
12.6103505805
 11
-64.401523735
 21
12.911198
  0
LINE
  5
463
100
AcDbEntity
  8
CURVE
100
AcDbLine
 62
7
  6
CONTINUOUS
 10
-63.4959852079
 20
13.8167365271
 11
-63.0754682005
 21
14.2372535345
  0
LINE
  5
464
100
AcDbEntity
  8
CURVE
100
AcDbLine
 62
7
  6
CONTINUOUS
 10
-62.8989421545
 20
14.4137795805
 11
-62.4170091545
 21
14.8957125805
  0
LINE
  5
465
100
AcDbEntity
  8
CURVE
100
AcDbLine
 62
7
  6
CONTINUOUS
 10
-62.0096154215
 20
15.3031063135
 11
-61.8023701545
 21
15.5103515805
  0
LINE
  5
466
100
AcDbEntity
  8
CURVE
100
AcDbLine
 62
7
  6
CONTINUOUS
 10
-64.7023711545
 20
12.4689292243
 11
-64.2601023788
 21
12.911198
  0
LINE
  5
467
100
AcDbEntity
  8
CURVE
100
AcDbLine
 62
7
  6
CONTINUOUS
 10
-63.3921159443
 20
13.7791844345
 11
-62.9702606394
 21
14.2010397394
  0
LINE
  5
468
100
AcDbEntity
  8
CURVE
100
AcDbLine
 62
7
  6
CONTINUOUS
 10
-62.8989421545
 20
14.2723582243
 11
-62.4170091545
 21
14.7542912243
  0
LINE
  5
469
100
AcDbEntity
  8
CURVE
100
AcDbLine
 62
7
  6
CONTINUOUS
 10
-64.7011250226
 20
12.328754
 11
-64.1186810226
 21
12.911198
  0
LINE
  5
46A
100
AcDbEntity
  8
CURVE
100
AcDbLine
 62
7
  6
CONTINUOUS
 10
-63.2882466807
 20
13.7416323419
 11
-62.4170091545
 21
14.612869868
  0
LINE
  5
46B
100
AcDbEntity
  8
CURVE
100
AcDbLine
 62
7
  6
CONTINUOUS
 10
-64.5597036663
 20
12.328754
 11
-63.9772596663
 21
12.911198
  0
LINE
  5
46C
100
AcDbEntity
  8
CURVE
100
AcDbLine
 62
7
  6
CONTINUOUS
 10
-63.1843774171
 20
13.7040802492
 11
-62.4170091545
 21
14.4714485118
  0
LINE
  5
46D
100
AcDbEntity
  8
CURVE
100
AcDbLine
 62
253
  6
CONTINUOUS
 10
-61.8023701545
 20
16.0
 11
-64.7023711545
 21
14.991935
  0
LINE
  5
46E
100
AcDbEntity
  8
CURVE
100
AcDbLine
 62
253
  6
CONTINUOUS
 10
-62.4170091545
 20
15.164584
 11
-61.8023701545
 21
15.373574
  0
LINE
  5
46F
100
AcDbEntity
  8
CURVE
100
AcDbLine
 62
253
  6
CONTINUOUS
 10
-64.1480471545
 20
14.606449
 11
-62.8989421545
 21
15.007869
  0
LINE
  5
470
100
AcDbEntity
  8
RACCORDO
100
AcDbLine
 62
253
  6
CONTINUOUS
 10
-67.3023701545
 20
-17.6716990487
 11
-32.2849177481
 21
-17.4185185038
  0
LINE
  5
471
100
AcDbEntity
  8
ASSI
100
AcDbLine
 62
253
  6
CONTINUOUS
 10
-67.3023701545
 20
-17.6716990487
 11
-32.2849177481
 21
-17.4185185038
  0
LINE
  5
472
100
AcDbEntity
  8
RACCORDO
100
AcDbLine
 62
253
  6
CONTINUOUS
 10
-31.3023701545
 20
-17.4185185038
 11
-32.2849177481
 21
-17.4185185007
  0
LINE
  5
473
100
AcDbEntity
  8
ASSI
100
AcDbLine
 62
253
  6
CONTINUOUS
 10
-31.3023701545
 20
-17.4185185038
 11
-32.2849177481
 21
-17.4185185007
  0
LINE
  5
474
100
AcDbEntity
  8
CURVE
100
AcDbLine
 62
253
  6
CONTINUOUS
 10
-47.3023701545
 20
-16.0
 11
-48.6023701545
 21
-16.0
  0
LINE
  5
475
100
AcDbEntity
  8
CURVE
100
AcDbLine
 62
253
  6
CONTINUOUS
 10
-62.7141061545
 20
-14.790021
 11
-64.7100271545
 21
-14.22041
  0
LINE
  5
476
100
AcDbEntity
  8
CURVE
100
AcDbLine
 62
253
  6
CONTINUOUS
 10
-64.7100271545
 20
-13.615552
 11
-61.8103741545
 21
-14.547617
  0
LINE
  5
477
100
AcDbEntity
  8
RACCORDO
100
AcDbLine
 62
7
  6
CONTINUOUS
 10
-69.8023701545
 20
-23.1226497308
 11
-69.8023701545
 21
-22.3213883311
  0
LINE
  5
478
100
AcDbEntity
  8
RACCORDO
100
AcDbLine
 62
7
  6
CONTINUOUS
 10
-69.8023701545
 20
22.3213883311
 11
-69.8023701545
 21
23.1226497308
  0
LINE
  5
479
100
AcDbEntity
  8
RACCORDO
100
AcDbLine
 62
253
  6
CONTINUOUS
 10
-69.5538245874
 20
-23.2669872981
 11
-69.5538245874
 21
-22.3334109614
  0
LINE
  5
47A
100
AcDbEntity
  8
RACCORDO
100
AcDbLine
 62
253
  6
CONTINUOUS
 10
-69.5538245874
 20
22.3334109614
 11
-69.5538245874
 21
23.2669872981
  0
LINE
  5
47B
100
AcDbEntity
  8
RACCORDO
100
AcDbLine
 62
7
  6
CONTINUOUS
 10
-68.3023701545
 20
-22.399689968
 11
-68.3023701545
 21
-24.2500042308
  0
LINE
  5
47C
100
AcDbEntity
  8
RACCORDO
100
AcDbLine
 62
7
  6
CONTINUOUS
 10
-68.3023701545
 20
22.399689968
 11
-68.3023701545
 21
24.2500042308
  0
LINE
  5
47D
100
AcDbEntity
  8
CURVE
100
AcDbLine
 62
253
  6
CONTINUOUS
 10
-60.0309415993
 20
15.994000145
 11
-60.3023701545
 21
15.6899997826
  0
LINE
  5
47E
100
AcDbEntity
  8
CURVE
100
AcDbLine
 62
253
  6
CONTINUOUS
 10
-60.3023701545
 20
13.866000145
 11
-60.0309415993
 21
14.17
  0
LINE
  5
47F
100
AcDbEntity
  8
CURVE
100
AcDbLine
 62
7
  6
CONTINUOUS
 10
-64.4182823101
 20
12.328754
 11
-63.8358383101
 21
12.911198
  0
LINE
  5
480
100
AcDbEntity
  8
CURVE
100
AcDbLine
 62
7
  6
CONTINUOUS
 10
-63.0805081535
 20
13.6665281566
 11
-62.4170091545
 21
14.3300271555
  0
LINE
  5
481
100
AcDbEntity
  8
CURVE
100
AcDbLine
 62
7
  6
CONTINUOUS
 10
-64.2768609538
 20
12.328754
 11
-63.6944169538
 21
12.911198
  0
LINE
  5
482
100
AcDbEntity
  8
CURVE
100
AcDbLine
 62
7
  6
CONTINUOUS
 10
-62.9766388899
 20
13.6289760639
 11
-62.4170091545
 21
14.1886057993
  0
LINE
  5
483
100
AcDbEntity
  8
CURVE
100
AcDbLine
 62
7
  6
CONTINUOUS
 10
-64.1354395976
 20
12.328754
 11
-63.5529955976
 21
12.911198
  0
LINE
  5
484
100
AcDbEntity
  8
CURVE
100
AcDbLine
 62
7
  6
CONTINUOUS
 10
-62.8727696263
 20
13.5914239713
 11
-62.4170091545
 21
14.0471844431
  0
LINE
  5
485
100
AcDbEntity
  8
CURVE
100
AcDbLine
 62
7
  6
CONTINUOUS
 10
-63.9940182414
 20
12.328754
 11
-63.4115742414
 21
12.911198
  0
LINE
  5
486
100
AcDbEntity
  8
CURVE
100
AcDbLine
 62
7
  6
CONTINUOUS
 10
-62.7689003627
 20
13.5538718787
 11
-62.3356460267
 21
13.9871262147
  0
LINE
  5
487
100
AcDbEntity
  8
CURVE
100
AcDbLine
 62
7
  6
CONTINUOUS
 10
-63.8525968851
 20
12.328754
 11
-63.2701528851
 21
12.911198
  0
LINE
  5
488
100
AcDbEntity
  8
CURVE
100
AcDbLine
 62
7
  6
CONTINUOUS
 10
-62.6650310991
 20
13.516319786
 11
-62.2311204145
 21
13.9502304706
  0
LINE
  5
489
100
AcDbEntity
  8
CURVE
100
AcDbLine
 62
7
  6
CONTINUOUS
 10
-63.7111755289
 20
12.328754
 11
-63.1287315289
 21
12.911198
  0
LINE
  5
48A
100
AcDbEntity
  8
CURVE
100
AcDbLine
 62
7
  6
CONTINUOUS
 10
-62.5611618355
 20
13.4787676934
 11
-62.1265948024
 21
13.9133347265
  0
LINE
  5
48B
100
AcDbEntity
  8
CURVE
100
AcDbLine
 62
7
  6
CONTINUOUS
 10
-64.7023711545
 20
11.1961370181
 11
-64.6635969045
 21
11.2349112681
  0
LINE
  5
48C
100
AcDbEntity
  8
CURVE
100
AcDbLine
 62
7
  6
CONTINUOUS
 10
-63.5697541727
 20
12.328754
 11
-62.9873101727
 21
12.911198
  0
LINE
  5
48D
100
AcDbEntity
  8
CURVE
100
AcDbLine
 62
7
  6
CONTINUOUS
 10
-62.4572925719
 20
13.4412156008
 11
-62.0220691902
 21
13.8764389825
  0
LINE
  5
48E
100
AcDbEntity
  8
CURVE
100
AcDbLine
 62
7
  6
CONTINUOUS
 10
-64.7023711545
 20
11.0547156619
 11
-64.38944872
 21
11.3676380965
  0
LINE
  5
48F
100
AcDbEntity
  8
CURVE
100
AcDbLine
 62
7
  6
CONTINUOUS
 10
-63.4283328164
 20
12.328754
 11
-62.8458888164
 21
12.911198
  0
LINE
  5
490
100
AcDbEntity
  8
CURVE
100
AcDbLine
 62
7
  6
CONTINUOUS
 10
-62.3534233083
 20
13.4036635081
 11
-61.917543578
 21
13.8395432384
  0
LINE
  5
491
100
AcDbEntity
  8
CURVE
100
AcDbLine
 62
7
  6
CONTINUOUS
 10
-64.7023711545
 20
10.9132943056
 11
-64.1153005354
 21
11.5003649248
  0
LINE
  5
492
100
AcDbEntity
  8
CURVE
100
AcDbLine
 62
7
  6
CONTINUOUS
 10
-63.2869114602
 20
12.328754
 11
-62.7044674602
 21
12.911198
  0
LINE
  5
493
100
AcDbEntity
  8
CURVE
100
AcDbLine
 62
7
  6
CONTINUOUS
 10
-62.2495540447
 20
13.3661114155
 11
-61.8130179659
 21
13.8026474943
  0
LINE
  5
494
100
AcDbEntity
  8
CURVE
100
AcDbLine
 62
7
  6
CONTINUOUS
 10
-64.7023711545
 20
10.7718729494
 11
-63.8411523508
 21
11.6330917531
  0
LINE
  5
495
100
AcDbEntity
  8
CURVE
100
AcDbLine
 62
7
  6
CONTINUOUS
 10
-63.1454901039
 20
12.328754
 11
-62.5630461039
 21
12.911198
  0
LINE
  5
496
100
AcDbEntity
  8
CURVE
100
AcDbLine
 62
7
  6
CONTINUOUS
 10
-62.1456847811
 20
13.3285593228
 11
-61.8023701545
 21
13.6718739494
  0
LINE
  5
497
100
AcDbEntity
  8
CURVE
100
AcDbLine
 62
7
  6
CONTINUOUS
 10
-64.7023711545
 20
10.6304515932
 11
-63.5670041662
 21
11.7658185815
  0
LINE
  5
498
100
AcDbEntity
  8
CURVE
100
AcDbLine
 62
7
  6
CONTINUOUS
 10
-63.0040687477
 20
12.328754
 11
-62.4216247477
 21
12.911198
  0
LINE
  5
499
100
AcDbEntity
  8
CURVE
100
AcDbLine
 62
7
  6
CONTINUOUS
 10
-62.0418155175
 20
13.2910072302
 11
-61.8023701545
 21
13.5304525932
  0
LINE
  5
49A
100
AcDbEntity
  8
CURVE
100
AcDbLine
 62
7
  6
CONTINUOUS
 10
-64.7023711545
 20
10.4890302369
 11
-63.2928559817
 21
11.8985454098
  0
LINE
  5
49B
100
AcDbEntity
  8
CURVE
100
AcDbLine
 62
7
  6
CONTINUOUS
 10
-62.8626473915
 20
12.328754
 11
-62.2802033915
 21
12.911198
  0
LINE
  5
49C
100
AcDbEntity
  8
CURVE
100
AcDbLine
 62
7
  6
CONTINUOUS
 10
-61.9379462539
 20
13.2534551376
 11
-61.8023701545
 21
13.3890312369
  0
LINE
  5
49D
100
AcDbEntity
  8
CURVE
100
AcDbLine
 62
7
  6
CONTINUOUS
 10
-64.7023711545
 20
10.3476088807
 11
-64.1752100352
 21
10.87477
  0
LINE
  5
49E
100
AcDbEntity
  8
CURVE
100
AcDbLine
 62
7
  6
CONTINUOUS
 10
-64.1261219085
 20
10.9238581268
 11
-63.0187077971
 21
12.0312722382
  0
LINE
  5
49F
100
AcDbEntity
  8
CURVE
100
AcDbLine
 62
7
  6
CONTINUOUS
 10
-62.7212260352
 20
12.328754
 11
-62.1387820352
 21
12.911198
  0
LINE
  5
4A0
100
AcDbEntity
  8
CURVE
100
AcDbLine
 62
7
  6
CONTINUOUS
 10
-61.8340769903
 20
13.2159030449
 11
-61.8023701545
 21
13.2476098807
  0
LINE
  5
4A1
100
AcDbEntity
  8
CURVE
100
AcDbLine
 62
7
  6
CONTINUOUS
 10
-64.616233679
 20
10.292325
 11
-64.033788679
 21
10.87477
  0
LINE
  5
4A2
100
AcDbEntity
  8
CURVE
100
AcDbLine
 62
7
  6
CONTINUOUS
 10
-63.8567686969
 20
11.0517899821
 11
-62.7445596125
 21
12.1639990665
  0
LINE
  5
4A3
100
AcDbEntity
  8
CURVE
100
AcDbLine
 62
7
  6
CONTINUOUS
 10
-62.579804679
 20
12.328754
 11
-61.997360679
 21
12.911198
  0
LINE
  5
4A4
100
AcDbEntity
  8
CURVE
100
AcDbLine
 62
7
  6
CONTINUOUS
 10
-64.4748123228
 20
10.292325
 11
-63.8923673228
 21
10.87477
  0
LINE
  5
4A5
100
AcDbEntity
  8
CURVE
100
AcDbLine
 62
7
  6
CONTINUOUS
 10
-63.5874154853
 20
11.1797218375
 11
-62.4704114279
 21
12.2967258948
  0
LINE
  5
4A6
100
AcDbEntity
  8
CURVE
100
AcDbLine
 62
7
  6
CONTINUOUS
 10
-62.4383833228
 20
12.328754
 11
-61.8559393228
 21
12.911198
  0
LINE
  5
4A7
100
AcDbEntity
  8
CURVE
100
AcDbLine
 62
7
  6
CONTINUOUS
 10
-64.3333909665
 20
10.292325
 11
-63.7509459665
 21
10.87477
  0
LINE
  5
4A8
100
AcDbEntity
  8
CURVE
100
AcDbLine
 62
7
  6
CONTINUOUS
 10
-63.3180622737
 20
11.3076536928
 11
-61.8023701545
 21
12.823345812
  0
LINE
  5
4A9
100
AcDbEntity
  8
CURVE
100
AcDbLine
 62
7
  6
CONTINUOUS
 10
-64.1919696103
 20
10.292325
 11
-63.6095246103
 21
10.87477
  0
LINE
  5
4AA
100
AcDbEntity
  8
CURVE
100
AcDbLine
 62
7
  6
CONTINUOUS
 10
-63.0487090621
 20
11.4355855481
 11
-61.8023701545
 21
12.6819244557
  0
LINE
  5
4AB
100
AcDbEntity
  8
CURVE
100
AcDbLine
 62
7
  6
CONTINUOUS
 10
-64.050548254
 20
10.292325
 11
-63.468103254
 21
10.87477
  0
LINE
  5
4AC
100
AcDbEntity
  8
CURVE
100
AcDbLine
 62
7
  6
CONTINUOUS
 10
-62.7793558506
 20
11.5635174035
 11
-61.8023701545
 21
12.5405030995
  0
LINE
  5
4AD
100
AcDbEntity
  8
CURVE
100
AcDbLine
 62
7
  6
CONTINUOUS
 10
-63.9091268978
 20
10.292325
 11
-63.3266818978
 21
10.87477
  0
LINE
  5
4AE
100
AcDbEntity
  8
CURVE
100
AcDbLine
 62
7
  6
CONTINUOUS
 10
-62.510002639
 20
11.6914492588
 11
-61.8023701545
 21
12.3990817433
  0
LINE
  5
4AF
100
AcDbEntity
  8
CURVE
100
AcDbLine
 62
7
  6
CONTINUOUS
 10
-63.7677055416
 20
10.292325
 11
-63.1852605416
 21
10.87477
  0
LINE
  5
4B0
100
AcDbEntity
  8
CURVE
100
AcDbLine
 62
7
  6
CONTINUOUS
 10
-62.2406494274
 20
11.8193811142
 11
-61.8023701545
 21
12.257660387
  0
LINE
  5
4B1
100
AcDbEntity
  8
CURVE
100
AcDbLine
 62
7
  6
CONTINUOUS
 10
-63.6262841853
 20
10.292325
 11
-63.0438391853
 21
10.87477
  0
LINE
  5
4B2
100
AcDbEntity
  8
CURVE
100
AcDbLine
 62
7
  6
CONTINUOUS
 10
-61.9712962158
 20
11.9473129695
 11
-61.8023701545
 21
12.1162390308
  0
LINE
  5
4B3
100
AcDbEntity
  8
CURVE
100
AcDbLine
 62
7
  6
CONTINUOUS
 10
-63.4848628291
 20
10.292325
 11
-62.9024178291
 21
10.87477
  0
LINE
  5
4B4
100
AcDbEntity
  8
CURVE
100
AcDbLine
 62
253
  6
CONTINUOUS
 10
-60.0309415993
 20
14.17
 11
-59.759513044
 21
14.3219999275
  0
LINE
  5
4B5
100
AcDbEntity
  8
CURVE
100
AcDbLine
 62
253
  6
CONTINUOUS
 10
-58.6737987381
 20
13.409999855
 11
-58.9452273217
 21
13.2579999275
  0
LINE
  5
4B6
100
AcDbEntity
  8
CURVE
100
AcDbLine
 62
253
  6
CONTINUOUS
 10
-64.7023711545
 20
11.216139
 11
-62.4042571545
 21
12.328754
  0
LINE
  5
4B7
100
AcDbEntity
  8
CURVE
100
AcDbLine
 62
253
  6
CONTINUOUS
 10
-61.8023701545
 20
12.027546
 11
-64.2294741545
 21
10.87477
  0
LINE
  5
4B8
100
AcDbEntity
  8
CURVE
100
AcDbLine
 62
253
  6
CONTINUOUS
 10
-64.7102011545
 20
-13.390935
 11
-61.8103741545
 21
-13.390935
  0
LINE
  5
4B9
100
AcDbEntity
  8
RACCORDO
100
AcDbLine
 62
253
  6
CONTINUOUS
 10
-67.5509157217
 20
24.2456323968
 11
-67.5509157217
 21
23.8443375673
  0
LINE
  5
4BA
100
AcDbEntity
  8
RACCORDO
100
AcDbLine
 62
253
  6
CONTINUOUS
 10
-67.5509157217
 20
-23.8443375673
 11
-67.5509157217
 21
-24.2456323968
  0
LINE
  5
4BB
100
AcDbEntity
  8
ASSI
100
AcDbLine
 62
7
  6
CONTINUOUS
 10
-67.3023701545
 20
17.6716990487
 11
-67.3023701545
 21
-17.6716990487
  0
LINE
  5
4BC
100
AcDbEntity
  8
RACCORDO
100
AcDbLine
 62
7
  6
CONTINUOUS
 10
-67.3023701545
 20
22.3912731322
 11
-67.3023701545
 21
-22.3912731322
  0
LINE
  5
4BD
100
AcDbEntity
  8
RACCORDO
100
AcDbLine
 62
7
  6
CONTINUOUS
 10
-67.3023701545
 20
-23.7941821702
 11
-67.3023701545
 21
-24.2456323968
  0
LINE
  5
4BE
100
AcDbEntity
  8
RACCORDO
100
AcDbLine
 62
7
  6
CONTINUOUS
 10
-67.3023701545
 20
23.7941821702
 11
-67.3023701545
 21
24.2456323968
  0
LINE
  5
4BF
100
AcDbEntity
  8
CURVE
100
AcDbLine
 62
253
  6
CONTINUOUS
 10
-58.4023701545
 20
13.7140002174
 11
-58.6737987381
 21
13.409999855
  0
LINE
  5
4C0
100
AcDbEntity
  8
CURVE
100
AcDbLine
 62
253
  6
CONTINUOUS
 10
-59.2166558769
 20
12.6499999638
 11
-59.4880844888
 21
12.3460001087
  0
LINE
  5
4C1
100
AcDbEntity
  8
CURVE
100
AcDbLine
 62
7
  6
CONTINUOUS
 10
-64.7023711545
 20
8.9333953183
 11
-64.6510114846
 21
8.9847549883
  0
LINE
  5
4C2
100
AcDbEntity
  8
CURVE
100
AcDbLine
 62
7
  6
CONTINUOUS
 10
-63.3434414729
 20
10.292325
 11
-62.7609964729
 21
10.87477
  0
LINE
  5
4C3
100
AcDbEntity
  8
CURVE
100
AcDbLine
 62
7
  6
CONTINUOUS
 10
-64.7023711545
 20
8.7919739621
 11
-64.434225238
 21
9.0601198786
  0
LINE
  5
4C4
100
AcDbEntity
  8
CURVE
100
AcDbLine
 62
7
  6
CONTINUOUS
 10
-63.2020201166
 20
10.292325
 11
-62.6195751166
 21
10.87477
  0
LINE
  5
4C5
100
AcDbEntity
  8
CURVE
100
AcDbLine
 62
7
  6
CONTINUOUS
 10
-64.7023711545
 20
8.6505526058
 11
-64.2174389914
 21
9.135484769
  0
LINE
  5
4C6
100
AcDbEntity
  8
CURVE
100
AcDbLine
 62
7
  6
CONTINUOUS
 10
-63.0605987604
 20
10.292325
 11
-62.4781537604
 21
10.87477
  0
LINE
  5
4C7
100
AcDbEntity
  8
CURVE
100
AcDbLine
 62
7
  6
CONTINUOUS
 10
-64.7023711545
 20
8.5091312496
 11
-64.0006527448
 21
9.2108496593
  0
LINE
  5
4C8
100
AcDbEntity
  8
CURVE
100
AcDbLine
 62
7
  6
CONTINUOUS
 10
-62.9191774041
 20
10.292325
 11
-62.3367324041
 21
10.87477
  0
LINE
  5
4C9
100
AcDbEntity
  8
CURVE
100
AcDbLine
 62
7
  6
CONTINUOUS
 10
-64.7023711545
 20
8.3677098934
 11
-63.7838664982
 21
9.2862145497
  0
LINE
  5
4CA
100
AcDbEntity
  8
CURVE
100
AcDbLine
 62
7
  6
CONTINUOUS
 10
-62.7777560479
 20
10.292325
 11
-62.1953110479
 21
10.87477
  0
LINE
  5
4CB
100
AcDbEntity
  8
CURVE
100
AcDbLine
 62
7
  6
CONTINUOUS
 10
-64.701225015
 20
8.2274346766
 11
-63.5670802517
 21
9.36157944
  0
LINE
  5
4CC
100
AcDbEntity
  8
CURVE
100
AcDbLine
 62
7
  6
CONTINUOUS
 10
-62.6363346917
 20
10.292325
 11
-62.0538896917
 21
10.87477
  0
LINE
  5
4CD
100
AcDbEntity
  8
CURVE
100
AcDbLine
 62
7
  6
CONTINUOUS
 10
-64.597352884
 20
8.1898854515
 11
-63.3502940051
 21
9.4369443304
  0
LINE
  5
4CE
100
AcDbEntity
  8
CURVE
100
AcDbLine
 62
7
  6
CONTINUOUS
 10
-62.4949133354
 20
10.292325
 11
-61.9124683354
 21
10.87477
  0
LINE
  5
4CF
100
AcDbEntity
  8
CURVE
100
AcDbLine
 62
7
  6
CONTINUOUS
 10
-64.4934807529
 20
8.1523362263
 11
-64.0858213719
 21
8.5599956073
  0
LINE
  5
4D0
100
AcDbEntity
  8
CURVE
100
AcDbLine
 62
7
  6
CONTINUOUS
 10
-64.0246318499
 20
8.6211851293
 11
-63.1335077585
 21
9.5123092207
  0
LINE
  5
4D1
100
AcDbEntity
  8
CURVE
100
AcDbLine
 62
7
  6
CONTINUOUS
 10
-62.3534919792
 20
10.292325
 11
-61.8023701545
 21
10.8434468247
  0
LINE
  5
4D2
100
AcDbEntity
  8
CURVE
100
AcDbLine
 62
7
  6
CONTINUOUS
 10
-64.3896086218
 20
8.1147870011
 11
-63.9806138452
 21
8.5237817778
  0
LINE
  5
4D3
100
AcDbEntity
  8
CURVE
100
AcDbLine
 62
7
  6
CONTINUOUS
 10
-63.816240789
 20
8.688154834
 11
-62.9167215119
 21
9.587674111
  0
LINE
  5
4D4
100
AcDbEntity
  8
CURVE
100
AcDbLine
 62
7
  6
CONTINUOUS
 10
-62.212070623
 20
10.292325
 11
-61.8023701545
 21
10.7020254684
  0
LINE
  5
4D5
100
AcDbEntity
  8
CURVE
100
AcDbLine
 62
7
  6
CONTINUOUS
 10
-64.2857364907
 20
8.077237776
 11
-63.8754063185
 21
8.4875679482
  0
LINE
  5
4D6
100
AcDbEntity
  8
CURVE
100
AcDbLine
 62
7
  6
CONTINUOUS
 10
-63.607849728
 20
8.7551245387
 11
-62.6999352653
 21
9.6630390014
  0
LINE
  5
4D7
100
AcDbEntity
  8
CURVE
100
AcDbLine
 62
7
  6
CONTINUOUS
 10
-62.0706492667
 20
10.292325
 11
-61.8023701545
 21
10.5606041122
  0
LINE
  5
4D8
100
AcDbEntity
  8
CURVE
100
AcDbLine
 62
7
  6
CONTINUOUS
 10
-64.1818643597
 20
8.0396885508
 11
-63.7701987918
 21
8.4513541187
  0
LINE
  5
4D9
100
AcDbEntity
  8
CURVE
100
AcDbLine
 62
7
  6
CONTINUOUS
 10
-63.3994586671
 20
8.8220942434
 11
-62.4831490188
 21
9.7384038917
  0
LINE
  5
4DA
100
AcDbEntity
  8
CURVE
100
AcDbLine
 62
7
  6
CONTINUOUS
 10
-61.9292279105
 20
10.292325
 11
-61.8023701545
 21
10.4191827559
  0
LINE
  5
4DB
100
AcDbEntity
  8
CURVE
100
AcDbLine
 62
7
  6
CONTINUOUS
 10
-64.0779922286
 20
8.0021393256
 11
-63.6649912651
 21
8.4151402892
  0
LINE
  5
4DC
100
AcDbEntity
  8
CURVE
100
AcDbLine
 62
7
  6
CONTINUOUS
 10
-63.1910676062
 20
8.8890639481
 11
-62.2663627722
 21
9.8137687821
  0
LINE
  5
4DD
100
AcDbEntity
  8
CURVE
100
AcDbLine
 62
7
  6
CONTINUOUS
 10
-63.9741200975
 20
7.9645901005
 11
-63.5597837384
 21
8.3789264597
  0
LINE
  5
4DE
100
AcDbEntity
  8
CURVE
100
AcDbLine
 62
7
  6
CONTINUOUS
 10
-62.9826765452
 20
8.9560336528
 11
-62.0495765256
 21
9.8891336724
  0
LINE
  5
4DF
100
AcDbEntity
  8
CURVE
100
AcDbLine
 62
7
  6
CONTINUOUS
 10
-63.8702479665
 20
7.9270408753
 11
-63.4545762116
 21
8.3427126301
  0
LINE
  5
4E0
100
AcDbEntity
  8
CURVE
100
AcDbLine
 62
7
  6
CONTINUOUS
 10
-62.8989421545
 20
8.8983466872
 11
-61.832790279
 21
9.9644985628
  0
LINE
  5
4E1
100
AcDbEntity
  8
CURVE
100
AcDbLine
 62
7
  6
CONTINUOUS
 10
-63.7663758354
 20
7.8894916502
 11
-63.3493686849
 21
8.3064988006
  0
LINE
  5
4E2
100
AcDbEntity
  8
CURVE
100
AcDbLine
 62
7
  6
CONTINUOUS
 10
-62.8989421545
 20
8.756925331
 11
-61.8023701545
 21
9.853497331
  0
LINE
  5
4E3
100
AcDbEntity
  8
CURVE
100
AcDbLine
 62
7
  6
CONTINUOUS
 10
-63.6625037043
 20
7.851942425
 11
-63.2441611582
 21
8.2702849711
  0
LINE
  5
4E4
100
AcDbEntity
  8
CURVE
100
AcDbLine
 62
7
  6
CONTINUOUS
 10
-62.8989421545
 20
8.6155039748
 11
-62.4170091545
 21
9.0974369748
  0
LINE
  5
4E5
100
AcDbEntity
  8
CURVE
100
AcDbLine
 62
7
  6
CONTINUOUS
 10
-62.3532180355
 20
9.1612280938
 11
-61.8023701545
 21
9.7120759748
  0
LINE
  5
4E6
100
AcDbEntity
  8
CURVE
100
AcDbLine
 62
7
  6
CONTINUOUS
 10
-63.5586315732
 20
7.8143931998
 11
-63.1389536315
 21
8.2340711416
  0
LINE
  5
4E7
100
AcDbEntity
  8
CURVE
100
AcDbLine
 62
7
  6
CONTINUOUS
 10
-62.8989421545
 20
8.4740826185
 11
-62.4170091545
 21
8.9560156185
  0
LINE
  5
4E8
100
AcDbEntity
  8
CURVE
100
AcDbLine
 62
7
  6
CONTINUOUS
 10
-62.1389935589
 20
9.2340312142
 11
-61.8023701545
 21
9.5706546185
  0
LINE
  5
4E9
100
AcDbEntity
  8
CURVE
100
AcDbLine
 62
7
  6
CONTINUOUS
 10
-63.4547594422
 20
7.7768439747
 11
-63.0337461048
 21
8.197857312
  0
LINE
  5
4EA
100
AcDbEntity
  8
CURVE
100
AcDbLine
 62
7
  6
CONTINUOUS
 10
-62.8989421545
 20
8.3326612623
 11
-62.4170091545
 21
8.8145942623
  0
LINE
  5
4EB
100
AcDbEntity
  8
CURVE
100
AcDbLine
 62
7
  6
CONTINUOUS
 10
-61.9247690822
 20
9.3068343346
 11
-61.8023701545
 21
9.4292332623
  0
LINE
  5
4EC
100
AcDbEntity
  8
CURVE
100
AcDbLine
 62
7
  6
CONTINUOUS
 10
-63.3508873111
 20
7.7392947495
 11
-62.9285385781
 21
8.1616434825
  0
LINE
  5
4ED
100
AcDbEntity
  8
CURVE
100
AcDbLine
 62
7
  6
CONTINUOUS
 10
-62.8989421545
 20
8.191239906
 11
-62.4170091545
 21
8.673172906
  0
LINE
  5
4EE
100
AcDbEntity
  8
CURVE
100
AcDbLine
 62
7
  6
CONTINUOUS
 10
-63.24701518
 20
7.7017455243
 11
-62.4170091545
 21
8.5317515498
  0
LINE
  5
4EF
100
AcDbEntity
  8
CURVE
100
AcDbLine
 62
7
  6
CONTINUOUS
 10
-63.143143049
 20
7.6641962992
 11
-62.4170091545
 21
8.3903301936
  0
LINE
  5
4F0
100
AcDbEntity
  8
CURVE
100
AcDbLine
 62
7
  6
CONTINUOUS
 10
-63.0392709179
 20
7.626647074
 11
-62.4170091545
 21
8.2489088373
  0
LINE
  5
4F1
100
AcDbEntity
  8
CURVE
100
AcDbLine
 62
7
  6
CONTINUOUS
 10
-62.9353987868
 20
7.5890978488
 11
-62.4170091545
 21
8.1074874811
  0
LINE
  5
4F2
100
AcDbEntity
  8
CURVE
100
AcDbLine
 62
253
  6
CONTINUOUS
 10
-61.8023701545
 20
9.975074
 11
-64.7023711545
 21
8.9669
  0
LINE
  5
4F3
100
AcDbEntity
  8
CURVE
100
AcDbLine
 62
253
  6
CONTINUOUS
 10
-62.4170091545
 20
9.139549
 11
-61.8023701545
 21
9.348431
  0
LINE
  5
4F4
100
AcDbEntity
  8
CURVE
100
AcDbLine
 62
253
  6
CONTINUOUS
 10
-48.6052182551
 20
13.5547613144
 11
-47.3054162514
 21
13.9261909485
  0
LINE
  5
4F5
100
AcDbEntity
  8
CURVE
100
AcDbLine
 62
253
  6
CONTINUOUS
 10
-64.7100271545
 20
-15.342748
 11
-62.7141061545
 21
-14.790021
  0
LINE
  5
4F6
100
AcDbEntity
  8
CURVE
100
AcDbLine
 62
253
  6
CONTINUOUS
 10
-48.6023701545
 20
-12.984
 11
-47.3023701545
 21
-12.984
  0
LINE
  5
4F7
100
AcDbEntity
  8
CURVE
100
AcDbLine
 62
253
  6
CONTINUOUS
 10
-61.8103741545
 20
-12.785664
 11
-64.7102011545
 21
-12.785664
  0
LINE
  5
4F8
100
AcDbEntity
  8
CURVE
100
AcDbLine
 62
253
  6
CONTINUOUS
 10
-47.3023701545
 20
-11.164
 11
-48.6023701545
 21
-11.164
  0
LINE
  5
4F9
100
AcDbEntity
  8
CURVE
100
AcDbLine
 62
253
  6
CONTINUOUS
 10
-63.7037931545
 20
-11.750162
 11
-61.8103741545
 21
-11.880779
  0
LINE
  5
4FA
100
AcDbEntity
  8
CURVE
100
AcDbLine
 62
253
  6
CONTINUOUS
 10
-61.8103741545
 20
-12.459827
 11
-64.7100271545
 21
-12.198005
  0
LINE
  5
4FB
100
AcDbEntity
  8
CURVE
100
AcDbLine
 62
253
  6
CONTINUOUS
 10
-61.8103741545
 20
-9.424033
 11
-64.7100271545
 21
-8.514517
  0
LINE
  5
4FC
100
AcDbEntity
  8
CURVE
100
AcDbLine
 62
253
  6
CONTINUOUS
 10
-63.1001311545
 20
-10.994355
 11
-64.7100271545
 21
-10.389084
  0
LINE
  5
4FD
100
AcDbEntity
  8
CURVE
100
AcDbLine
 62
253
  6
CONTINUOUS
 10
-63.6959001545
 20
-10.235548
 11
-61.8103741545
 21
-10.955216
  0
LINE
  5
4FE
100
AcDbEntity
  8
CURVE
100
AcDbLine
 62
253
  6
CONTINUOUS
 10
-64.7102011545
 20
-12.785664
 11
-64.7102011545
 21
-13.390935
  0
LINE
  5
4FF
100
AcDbEntity
  8
CURVE
100
AcDbLine
 62
253
  6
CONTINUOUS
 10
-64.7100271545
 20
-16.00026
 11
-64.7100271545
 21
-15.342748
  0
LINE
  5
500
100
AcDbEntity
  8
CURVE
100
AcDbLine
 62
253
  6
CONTINUOUS
 10
-64.7100271545
 20
-14.22041
 11
-64.7100271545
 21
-13.615552
  0
LINE
  5
501
100
AcDbEntity
  8
CURVE
100
AcDbLine
 62
253
  6
CONTINUOUS
 10
-64.7100271545
 20
-12.198005
 11
-64.7100271545
 21
-11.593234
  0
LINE
  5
502
100
AcDbEntity
  8
CURVE
100
AcDbLine
 62
253
  6
CONTINUOUS
 10
-64.7100271545
 20
-10.389084
 11
-64.7100271545
 21
-9.790227
  0
LINE
  5
503
100
AcDbEntity
  8
CURVE
100
AcDbLine
 62
253
  6
CONTINUOUS
 10
-64.7100271545
 20
-8.514517
 11
-64.7100271545
 21
-7.92899
  0
LINE
  5
504
100
AcDbEntity
  8
CURVE
100
AcDbLine
 62
253
  6
CONTINUOUS
 10
-64.7023711545
 20
14.991935
 11
-64.7023711545
 21
14.252884
  0
LINE
  5
505
100
AcDbEntity
  8
CURVE
100
AcDbLine
 62
253
  6
CONTINUOUS
 10
-64.7023711545
 20
8.9669
 11
-64.7023711545
 21
8.227849
  0
LINE
  5
506
100
AcDbEntity
  8
CURVE
100
AcDbLine
 62
253
  6
CONTINUOUS
 10
-64.7023711545
 20
3.58822
 11
-64.7023711545
 21
2.70079
  0
LINE
  5
507
100
AcDbEntity
  8
CURVE
100
AcDbLine
 62
253
  6
CONTINUOUS
 10
-64.7023711545
 20
5.171133
 11
-64.7023711545
 21
5.793739
  0
LINE
  5
508
100
AcDbEntity
  8
CURVE
100
AcDbLine
 62
253
  6
CONTINUOUS
 10
-64.7023711545
 20
10.292325
 11
-64.7023711545
 21
11.216139
  0
LINE
  5
509
100
AcDbEntity
  8
CURVE
100
AcDbLine
 62
253
  6
CONTINUOUS
 10
-64.7023711545
 20
12.328754
 11
-64.7023711545
 21
12.911198
  0
LINE
  5
50A
100
AcDbEntity
  8
CURVE
100
AcDbLine
 62
253
  6
CONTINUOUS
 10
-64.2204381545
 20
3.323396
 11
-64.2204381545
 21
3.686612
  0
LINE
  5
50B
100
AcDbEntity
  8
CURVE
100
AcDbLine
 62
7
  6
CONTINUOUS
 10
-64.7023711545
 20
5.6807041249
 11
-64.5893362794
 21
5.793739
  0
LINE
  5
50C
100
AcDbEntity
  8
CURVE
100
AcDbLine
 62
7
  6
CONTINUOUS
 10
-62.8315266557
 20
7.5515486237
 11
-62.3987168903
 21
7.9843583891
  0
LINE
  5
50D
100
AcDbEntity
  8
CURVE
100
AcDbLine
 62
7
  6
CONTINUOUS
 10
-64.7023711545
 20
5.5392827686
 11
-64.4479149232
 21
5.793739
  0
LINE
  5
50E
100
AcDbEntity
  8
CURVE
100
AcDbLine
 62
7
  6
CONTINUOUS
 10
-62.7276545247
 20
7.5139993985
 11
-62.2941775758
 21
7.9474763474
  0
LINE
  5
50F
100
AcDbEntity
  8
CURVE
100
AcDbLine
 62
7
  6
CONTINUOUS
 10
-64.7023711545
 20
5.3978614124
 11
-64.3064935669
 21
5.793739
  0
LINE
  5
510
100
AcDbEntity
  8
CURVE
100
AcDbLine
 62
7
  6
CONTINUOUS
 10
-62.6237823936
 20
7.4764501733
 11
-62.1896382613
 21
7.9105943056
  0
LINE
  5
511
100
AcDbEntity
  8
CURVE
100
AcDbLine
 62
7
  6
CONTINUOUS
 10
-64.7023711545
 20
5.2564400561
 11
-64.1650722107
 21
5.793739
  0
LINE
  5
512
100
AcDbEntity
  8
CURVE
100
AcDbLine
 62
7
  6
CONTINUOUS
 10
-62.5199102625
 20
7.4389009482
 11
-62.0850989468
 21
7.8737122639
  0
LINE
  5
513
100
AcDbEntity
  8
CURVE
100
AcDbLine
 62
7
  6
CONTINUOUS
 10
-64.6462568545
 20
5.171133
 11
-64.0236508545
 21
5.793739
  0
LINE
  5
514
100
AcDbEntity
  8
CURVE
100
AcDbLine
 62
7
  6
CONTINUOUS
 10
-62.4160381314
 20
7.401351723
 11
-61.9805596324
 21
7.8368302221
  0
LINE
  5
515
100
AcDbEntity
  8
CURVE
100
AcDbLine
 62
7
  6
CONTINUOUS
 10
-64.5048354982
 20
5.171133
 11
-63.8822294982
 21
5.793739
  0
LINE
  5
516
100
AcDbEntity
  8
CURVE
100
AcDbLine
 62
7
  6
CONTINUOUS
 10
-62.3121660004
 20
7.3638024978
 11
-61.8760203179
 21
7.7999481803
  0
LINE
  5
517
100
AcDbEntity
  8
CURVE
100
AcDbLine
 62
7
  6
CONTINUOUS
 10
-64.363414142
 20
5.171133
 11
-63.740808142
 21
5.793739
  0
LINE
  5
518
100
AcDbEntity
  8
CURVE
100
AcDbLine
 62
7
  6
CONTINUOUS
 10
-62.2082938693
 20
7.3262532727
 11
-61.8023701545
 21
7.7321769874
  0
LINE
  5
519
100
AcDbEntity
  8
CURVE
100
AcDbLine
 62
7
  6
CONTINUOUS
 10
-64.2219927857
 20
5.171133
 11
-63.5993867857
 21
5.793739
  0
LINE
  5
51A
100
AcDbEntity
  8
CURVE
100
AcDbLine
 62
7
  6
CONTINUOUS
 10
-62.1044217382
 20
7.2887040475
 11
-61.8023701545
 21
7.5907556312
  0
LINE
  5
51B
100
AcDbEntity
  8
CURVE
100
AcDbLine
 62
7
  6
CONTINUOUS
 10
-64.0805714295
 20
5.171133
 11
-63.4579654295
 21
5.793739
  0
LINE
  5
51C
100
AcDbEntity
  8
CURVE
100
AcDbLine
 62
7
  6
CONTINUOUS
 10
-62.0005496072
 20
7.2511548223
 11
-61.8023701545
 21
7.449334275
  0
LINE
  5
51D
100
AcDbEntity
  8
CURVE
100
AcDbLine
 62
7
  6
CONTINUOUS
 10
-63.9391500733
 20
5.171133
 11
-63.3165440733
 21
5.793739
  0
LINE
  5
51E
100
AcDbEntity
  8
CURVE
100
AcDbLine
 62
7
  6
CONTINUOUS
 10
-62.2843031545
 20
6.8259799187
 11
-62.2435450733
 21
6.866738
  0
LINE
  5
51F
100
AcDbEntity
  8
CURVE
100
AcDbLine
 62
7
  6
CONTINUOUS
 10
-61.8966774761
 20
7.2136055972
 11
-61.8023701545
 21
7.3079129187
  0
LINE
  5
520
100
AcDbEntity
  8
CURVE
100
AcDbLine
 62
7
  6
CONTINUOUS
 10
-64.514136251
 20
4.454725466
 11
-64.3177062198
 21
4.6511554972
  0
LINE
  5
521
100
AcDbEntity
  8
CURVE
100
AcDbLine
 62
7
  6
CONTINUOUS
 10
-63.797728717
 20
5.171133
 11
-63.175122717
 21
5.793739
  0
LINE
  5
522
100
AcDbEntity
  8
CURVE
100
AcDbLine
 62
7
  6
CONTINUOUS
 10
-62.2843031545
 20
6.6845585625
 11
-62.102123717
 21
6.866738
  0
LINE
  5
523
100
AcDbEntity
  8
CURVE
100
AcDbLine
 62
7
  6
CONTINUOUS
 10
-64.6301236163
 20
4.1973167445
 11
-64.0741179335
 21
4.7533224273
  0
LINE
  5
524
100
AcDbEntity
  8
CURVE
100
AcDbLine
 62
7
  6
CONTINUOUS
 10
-63.6563073608
 20
5.171133
 11
-63.0337013608
 21
5.793739
  0
LINE
  5
525
100
AcDbEntity
  8
CURVE
100
AcDbLine
 62
7
  6
CONTINUOUS
 10
-62.2843031545
 20
6.5431372063
 11
-61.9607023608
 21
6.866738
  0
LINE
  5
526
100
AcDbEntity
  8
CURVE
100
AcDbLine
 62
7
  6
CONTINUOUS
 10
-64.6752623108
 20
4.0107566937
 11
-63.9082303474
 21
4.7777886571
  0
LINE
  5
527
100
AcDbEntity
  8
CURVE
100
AcDbLine
 62
7
  6
CONTINUOUS
 10
-63.5148860046
 20
5.171133
 11
-62.8922800046
 21
5.793739
  0
LINE
  5
528
100
AcDbEntity
  8
CURVE
100
AcDbLine
 62
7
  6
CONTINUOUS
 10
-62.2843031545
 20
6.40171585
 11
-61.8192810046
 21
6.866738
  0
LINE
  5
529
100
AcDbEntity
  8
CURVE
100
AcDbLine
 62
7
  6
CONTINUOUS
 10
-64.6896552243
 20
3.8549424241
 11
-63.7644820427
 21
4.7801156056
  0
LINE
  5
52A
100
AcDbEntity
  8
CURVE
100
AcDbLine
 62
7
  6
CONTINUOUS
 10
-63.3734646483
 20
5.171133
 11
-62.7508586483
 21
5.793739
  0
LINE
  5
52B
100
AcDbEntity
  8
CURVE
100
AcDbLine
 62
7
  6
CONTINUOUS
 10
-62.2843031545
 20
6.2602944938
 11
-61.8023701545
 21
6.7422274938
  0
LINE
  5
52C
100
AcDbEntity
  8
CURVE
100
AcDbLine
 62
7
  6
CONTINUOUS
 10
-64.6975839523
 20
3.7055923398
 11
-63.6335828011
 21
4.769593491
  0
LINE
  5
52D
100
AcDbEntity
  8
CURVE
100
AcDbLine
 62
7
  6
CONTINUOUS
 10
-63.2320432921
 20
5.171133
 11
-62.6094372921
 21
5.793739
  0
LINE
  5
52E
100
AcDbEntity
  8
CURVE
100
AcDbLine
 62
7
  6
CONTINUOUS
 10
-62.2843031545
 20
6.1188731375
 11
-61.8023701545
 21
6.6008061375
  0
LINE
  5
52F
100
AcDbEntity
  8
CURVE
100
AcDbLine
 62
7
  6
CONTINUOUS
 10
-64.7023710184
 20
3.5593839174
 11
-63.5164398983
 21
4.7453150375
  0
LINE
  5
530
100
AcDbEntity
  8
CURVE
100
AcDbLine
 62
7
  6
CONTINUOUS
 10
-63.0906219358
 20
5.171133
 11
-62.4680159358
 21
5.793739
  0
LINE
  5
531
100
AcDbEntity
  8
CURVE
100
AcDbLine
 62
7
  6
CONTINUOUS
 10
-62.2843031545
 20
5.9774517813
 11
-61.8023701545
 21
6.4593847813
  0
LINE
  5
532
100
AcDbEntity
  8
CURVE
100
AcDbLine
 62
7
  6
CONTINUOUS
 10
-64.7023710409
 20
3.4179625388
 11
-64.1672334802
 21
3.9531000994
  0
LINE
  5
533
100
AcDbEntity
  8
CURVE
100
AcDbLine
 62
7
  6
CONTINUOUS
 10
-64.0630697133
 20
4.0572638663
 11
-63.4111377104
 21
4.7091958692
  0
LINE
  5
534
100
AcDbEntity
  8
CURVE
100
AcDbLine
 62
7
  6
CONTINUOUS
 10
-62.9492005796
 20
5.171133
 11
-62.3265945796
 21
5.793739
  0
LINE
  5
535
100
AcDbEntity
  8
CURVE
100
AcDbLine
 62
7
  6
CONTINUOUS
 10
-62.2843031545
 20
5.8360304251
 11
-61.8023701545
 21
6.3179634251
  0
LINE
  5
536
100
AcDbEntity
  8
CURVE
100
AcDbLine
 62
7
  6
CONTINUOUS
 10
-64.7023710633
 20
3.2765411601
 11
-64.2104678807
 21
3.7684443427
  0
LINE
  5
537
100
AcDbEntity
  8
CURVE
100
AcDbLine
 62
7
  6
CONTINUOUS
 10
-63.8618886277
 20
4.1170235957
 11
-63.3180685375
 21
4.6608436859
  0
LINE
  5
538
100
AcDbEntity
  8
CURVE
100
AcDbLine
 62
7
  6
CONTINUOUS
 10
-62.8077792234
 20
5.171133
 11
-61.8023701545
 21
6.1765420688
  0
LINE
  5
539
100
AcDbEntity
  8
CURVE
100
AcDbLine
 62
7
  6
CONTINUOUS
 10
-64.7023710857
 20
3.1351197814
 11
-64.2204381545
 21
3.6170527126
  0
LINE
  5
53A
100
AcDbEntity
  8
CURVE
100
AcDbLine
 62
7
  6
CONTINUOUS
 10
-63.7237429272
 20
4.1137479399
 11
-63.2360339112
 21
4.6014569559
  0
LINE
  5
53B
100
AcDbEntity
  8
CURVE
100
AcDbLine
 62
7
  6
CONTINUOUS
 10
-62.6663578671
 20
5.171133
 11
-61.8023701545
 21
6.0351207126
  0
LINE
  5
53C
100
AcDbEntity
  8
CURVE
100
AcDbLine
 62
7
  6
CONTINUOUS
 10
-64.7023711081
 20
2.9936984028
 11
-64.2204381545
 21
3.4756313564
  0
LINE
  5
53D
100
AcDbEntity
  8
CURVE
100
AcDbLine
 62
7
  6
CONTINUOUS
 10
-63.6110774479
 20
4.084992063
 11
-63.1648767928
 21
4.5311927181
  0
LINE
  5
53E
100
AcDbEntity
  8
CURVE
100
AcDbLine
 62
7
  6
CONTINUOUS
 10
-62.5249365109
 20
5.171133
 11
-61.8023701545
 21
5.8936993564
  0
LINE
  5
53F
100
AcDbEntity
  8
CURVE
100
AcDbLine
 62
7
  6
CONTINUOUS
 10
-64.7023711305
 20
2.8522770241
 11
-64.2204381545
 21
3.3342100001
  0
LINE
  5
540
100
AcDbEntity
  8
CURVE
100
AcDbLine
 62
7
  6
CONTINUOUS
 10
-63.5232392996
 20
4.0314088551
 11
-63.1043793309
 21
4.4502688237
  0
LINE
  5
541
100
AcDbEntity
  8
CURVE
100
AcDbLine
 62
7
  6
CONTINUOUS
 10
-62.3835151547
 20
5.171133
 11
-61.8023701545
 21
5.7522780001
  0
LINE
  5
542
100
AcDbEntity
  8
CURVE
100
AcDbLine
 62
7
  6
CONTINUOUS
 10
-64.7023711529
 20
2.7108556455
 11
-64.0898307984
 21
3.323396
  0
LINE
  5
543
100
AcDbEntity
  8
CURVE
100
AcDbLine
 62
7
  6
CONTINUOUS
 10
-63.4563743787
 20
3.9568524197
 11
-63.0542499355
 21
4.3589768629
  0
LINE
  5
544
100
AcDbEntity
  8
CURVE
100
AcDbLine
 62
7
  6
CONTINUOUS
 10
-62.2420937984
 20
5.171133
 11
-61.8023701545
 21
5.6108566439
  0
LINE
  5
545
100
AcDbEntity
  8
CURVE
100
AcDbLine
 62
7
  6
CONTINUOUS
 10
-64.5710154422
 20
2.70079
 11
-63.9484094422
 21
3.323396
  0
LINE
  5
546
100
AcDbEntity
  8
CURVE
100
AcDbLine
 62
7
  6
CONTINUOUS
 10
-63.4232577566
 20
3.8485476856
 11
-63.0129752659
 21
4.2588301763
  0
LINE
  5
547
100
AcDbEntity
  8
CURVE
100
AcDbLine
 62
7
  6
CONTINUOUS
 10
-62.1006724422
 20
5.171133
 11
-61.8023701545
 21
5.4694352876
  0
LINE
  5
548
100
AcDbEntity
  8
CURVE
100
AcDbLine
 62
253
  6
CONTINUOUS
 10
-48.6052182551
 20
15.1333329201
 11
-48.0481602867
 21
15.5047613144
  0
LINE
  5
549
100
AcDbEntity
  8
CURVE
100
AcDbLine
 62
253
  6
CONTINUOUS
 10
-64.1482111545
 20
8.581471
 11
-62.8989421545
 21
8.982943
  0
LINE
  5
54A
100
AcDbEntity
  8
CURVE
100
AcDbLine
 62
253
  6
CONTINUOUS
 10
-64.7100271545
 20
-9.790227
 11
-61.8103741545
 21
-9.519077
  0
LINE
  5
54B
100
AcDbEntity
  8
CURVE
100
AcDbLine
 62
253
  6
CONTINUOUS
 10
-61.8103741545
 20
-10.111193
 11
-63.6959001545
 21
-10.235548
  0
LINE
  5
54C
100
AcDbEntity
  8
CURVE
100
AcDbLine
 62
253
  6
CONTINUOUS
 10
-48.6023701545
 20
-10.1552
 11
-47.3023701545
 21
-10.1552
  0
LINE
  5
54D
100
AcDbEntity
  8
0
100
AcDbLine
 62
7
  6
CONTINUOUS
 10
-78.0023701545
 20
-9.9
 11
-77.7043500846
 21
-9.9
  0
LINE
  5
54E
100
AcDbEntity
  8
CURVE
100
AcDbLine
 62
253
  6
CONTINUOUS
 10
-48.6023701545
 20
-9.0424
 11
-47.3023701545
 21
-9.0424
  0
LINE
  5
54F
100
AcDbEntity
  8
CURVE
100
AcDbLine
 62
253
  6
CONTINUOUS
 10
-63.9132761545
 20
-8.233126
 11
-62.8371781545
 21
-8.5345
  0
LINE
  5
550
100
AcDbEntity
  8
CURVE
100
AcDbLine
 62
253
  6
CONTINUOUS
 10
-62.3892481545
 20
-8.658312
 11
-61.8103741545
 21
-8.825329
  0
LINE
  5
551
100
AcDbEntity
  8
CURVE
100
AcDbLine
 62
253
  6
CONTINUOUS
 10
-48.6023701545
 20
-14.4452
 11
-47.3023701545
 21
-14.993539
  0
LINE
  5
552
100
AcDbEntity
  8
CURVE
100
AcDbLine
 62
253
  6
CONTINUOUS
 10
-63.4200310557
 20
-5.9328946758
 11
-63.4200310557
 21
-6.2788012718
  0
LINE
  5
553
100
AcDbEntity
  8
CURVE
100
AcDbLine
 62
253
  6
CONTINUOUS
 10
-63.4010651545
 20
3.323396
 11
-63.4010651545
 21
3.686612
  0
LINE
  5
554
100
AcDbEntity
  8
CURVE
100
AcDbLine
 62
253
  6
CONTINUOUS
 10
-62.9451379165
 20
-6.2587313832
 11
-62.9451379165
 21
-5.9341993273
  0
LINE
  5
555
100
AcDbEntity
  8
CURVE
100
AcDbLine
 62
253
  6
CONTINUOUS
 10
-62.9191321545
 20
3.58822
 11
-62.9191321545
 21
3.323396
  0
LINE
  5
556
100
AcDbEntity
  8
CURVE
100
AcDbLine
 62
253
  6
CONTINUOUS
 10
-62.8989421545
 20
15.007869
 11
-62.8989421545
 21
14.176491
  0
LINE
  5
557
100
AcDbEntity
  8
CURVE
100
AcDbLine
 62
253
  6
CONTINUOUS
 10
-62.8989421545
 20
8.982943
 11
-62.8989421545
 21
8.151456
  0
LINE
  5
558
100
AcDbEntity
  8
CURVE
100
AcDbLine
 62
253
  6
CONTINUOUS
 10
-62.8371781545
 20
-8.5345
 11
-62.8371781545
 21
-7.954996
  0
LINE
  5
559
100
AcDbEntity
  8
CURVE
100
AcDbLine
 62
253
  6
CONTINUOUS
 10
-62.4170091545
 20
7.990812
 11
-62.4170091545
 21
9.139549
  0
LINE
  5
55A
100
AcDbEntity
  8
CURVE
100
AcDbLine
 62
253
  6
CONTINUOUS
 10
-62.4170091545
 20
14.015846
 11
-62.4170091545
 21
15.164584
  0
LINE
  5
55B
100
AcDbEntity
  8
CURVE
100
AcDbLine
 62
253
  6
CONTINUOUS
 10
-62.3892481545
 20
-7.834033
 11
-62.3892481545
 21
-8.658312
  0
LINE
  5
55C
100
AcDbEntity
  8
CURVE
100
AcDbLine
 62
253
  6
CONTINUOUS
 10
-62.2843031545
 20
5.793739
 11
-62.2843031545
 21
6.866738
  0
LINE
  5
55D
100
AcDbEntity
  8
CURVE
100
AcDbLine
 62
253
  6
CONTINUOUS
 10
-61.8103741545
 20
-7.039304
 11
-61.8103741545
 21
-7.677235
  0
LINE
  5
55E
100
AcDbEntity
  8
CURVE
100
AcDbLine
 62
253
  6
CONTINUOUS
 10
-61.8103741545
 20
-8.825329
 11
-61.8103741545
 21
-9.424033
  0
LINE
  5
55F
100
AcDbEntity
  8
CURVE
100
AcDbLine
 62
253
  6
CONTINUOUS
 10
-61.8103741545
 20
-9.519077
 11
-61.8103741545
 21
-10.111193
  0
LINE
  5
560
100
AcDbEntity
  8
CURVE
100
AcDbLine
 62
253
  6
CONTINUOUS
 10
-61.8103741545
 20
-10.955216
 11
-61.8103741545
 21
-11.040105
  0
LINE
  5
561
100
AcDbEntity
  8
CURVE
100
AcDbLine
 62
253
  6
CONTINUOUS
 10
-61.8103741545
 20
-11.880779
 11
-61.8103741545
 21
-12.459827
  0
LINE
  5
562
100
AcDbEntity
  8
CURVE
100
AcDbLine
 62
253
  6
CONTINUOUS
 10
-61.8103741545
 20
-14.547617
 11
-61.8103741545
 21
-15.081013
  0
LINE
  5
563
100
AcDbEntity
  8
CURVE
100
AcDbLine
 62
253
  6
CONTINUOUS
 10
-61.8103741545
 20
-13.390935
 11
-61.8103741545
 21
-12.785664
  0
LINE
  5
564
100
AcDbEntity
  8
CURVE
100
AcDbLine
 62
253
  6
CONTINUOUS
 10
-61.8103738023
 20
-6.8615673444
 11
-61.8103738023
 21
-6.2587313832
  0
LINE
  5
565
100
AcDbEntity
  8
CURVE
100
AcDbLine
 62
253
  6
CONTINUOUS
 10
-61.8103738023
 20
-5.3318417383
 11
-61.8103738023
 21
-4.7496410148
  0
LINE
  5
566
100
AcDbEntity
  8
CURVE
100
AcDbLine
 62
253
  6
CONTINUOUS
 10
-61.8023701545
 20
12.911198
 11
-61.8023701545
 21
12.027546
  0
LINE
  5
567
100
AcDbEntity
  8
CURVE
100
AcDbLine
 62
253
  6
CONTINUOUS
 10
-61.8023701545
 20
10.87477
 11
-61.8023701545
 21
10.292325
  0
LINE
  5
568
100
AcDbEntity
  8
CURVE
100
AcDbLine
 62
253
  6
CONTINUOUS
 10
-61.8023701545
 20
6.866738
 11
-61.8023701545
 21
5.171133
  0
LINE
  5
569
100
AcDbEntity
  8
CURVE
100
AcDbLine
 62
253
  6
CONTINUOUS
 10
-61.8023701545
 20
2.70079
 11
-61.8023701545
 21
3.323396
  0
LINE
  5
56A
100
AcDbEntity
  8
CURVE
100
AcDbLine
 62
253
  6
CONTINUOUS
 10
-61.8023701545
 20
7.179514
 11
-61.8023701545
 21
7.773964
  0
LINE
  5
56B
100
AcDbEntity
  8
CURVE
100
AcDbLine
 62
253
  6
CONTINUOUS
 10
-61.8023701545
 20
9.348431
 11
-61.8023701545
 21
9.975074
  0
LINE
  5
56C
100
AcDbEntity
  8
CURVE
100
AcDbLine
 62
253
  6
CONTINUOUS
 10
-61.8023701545
 20
13.20444
 11
-61.8023701545
 21
13.798889
  0
LINE
  5
56D
100
AcDbEntity
  8
CURVE
100
AcDbLine
 62
253
  6
CONTINUOUS
 10
-61.8023701545
 20
15.373574
 11
-61.8023701545
 21
16.0
  0
LINE
  5
56E
100
AcDbEntity
  8
CURVE
100
AcDbLine
 62
7
  6
CONTINUOUS
 10
-64.4295940859
 20
2.70079
 11
-63.8069880859
 21
3.323396
  0
LINE
  5
56F
100
AcDbEntity
  8
CURVE
100
AcDbLine
 62
7
  6
CONTINUOUS
 10
-63.4055709073
 20
3.7248131786
 11
-62.9771312796
 21
4.1532528064
  0
LINE
  5
570
100
AcDbEntity
  8
CURVE
100
AcDbLine
 62
7
  6
CONTINUOUS
 10
-61.9592510859
 20
5.171133
 11
-61.8023701545
 21
5.3280139314
  0
LINE
  5
571
100
AcDbEntity
  8
CURVE
100
AcDbLine
 62
7
  6
CONTINUOUS
 10
-64.2881727297
 20
2.70079
 11
-63.6655667297
 21
3.323396
  0
LINE
  5
572
100
AcDbEntity
  8
CURVE
100
AcDbLine
 62
7
  6
CONTINUOUS
 10
-63.4010648902
 20
3.5878978395
 11
-62.9504536447
 21
4.038509085
  0
LINE
  5
573
100
AcDbEntity
  8
CURVE
100
AcDbLine
 62
7
  6
CONTINUOUS
 10
-61.8178297297
 20
5.171133
 11
-61.8023701545
 21
5.1865925752
  0
LINE
  5
574
100
AcDbEntity
  8
CURVE
100
AcDbLine
 62
7
  6
CONTINUOUS
 10
-64.1467513735
 20
2.70079
 11
-63.5241453735
 21
3.323396
  0
LINE
  5
575
100
AcDbEntity
  8
CURVE
100
AcDbLine
 62
7
  6
CONTINUOUS
 10
-63.4010650315
 20
3.4464763419
 11
-62.9358667293
 21
3.9116746442
  0
LINE
  5
576
100
AcDbEntity
  8
CURVE
100
AcDbLine
 62
7
  6
CONTINUOUS
 10
-64.0053300172
 20
2.70079
 11
-62.9275497101
 21
3.7785703071
  0
LINE
  5
577
100
AcDbEntity
  8
CURVE
100
AcDbLine
 62
7
  6
CONTINUOUS
 10
-63.863908661
 20
2.70079
 11
-62.9212577385
 21
3.6434409225
  0
LINE
  5
578
100
AcDbEntity
  8
CURVE
100
AcDbLine
 62
7
  6
CONTINUOUS
 10
-63.7224873048
 20
2.70079
 11
-62.9191321545
 21
3.5041451502
  0
LINE
  5
579
100
AcDbEntity
  8
CURVE
100
AcDbLine
 62
7
  6
CONTINUOUS
 10
-63.5810659485
 20
2.70079
 11
-62.9191321545
 21
3.362723794
  0
LINE
  5
57A
100
AcDbEntity
  8
CURVE
100
AcDbLine
 62
7
  6
CONTINUOUS
 10
-63.4396445923
 20
2.70079
 11
-62.8170385923
 21
3.323396
  0
LINE
  5
57B
100
AcDbEntity
  8
CURVE
100
AcDbLine
 62
7
  6
CONTINUOUS
 10
-63.298223236
 20
2.70079
 11
-62.675617236
 21
3.323396
  0
LINE
  5
57C
100
AcDbEntity
  8
CURVE
100
AcDbLine
 62
7
  6
CONTINUOUS
 10
-63.1568018798
 20
2.70079
 11
-62.5341958798
 21
3.323396
  0
LINE
  5
57D
100
AcDbEntity
  8
CURVE
100
AcDbLine
 62
7
  6
CONTINUOUS
 10
-63.0153805236
 20
2.70079
 11
-62.3927745236
 21
3.323396
  0
LINE
  5
57E
100
AcDbEntity
  8
CURVE
100
AcDbLine
 62
7
  6
CONTINUOUS
 10
-62.8739591673
 20
2.70079
 11
-62.2513531673
 21
3.323396
  0
LINE
  5
57F
100
AcDbEntity
  8
CURVE
100
AcDbLine
 62
7
  6
CONTINUOUS
 10
-62.7325378111
 20
2.70079
 11
-62.1099318111
 21
3.323396
  0
LINE
  5
580
100
AcDbEntity
  8
CURVE
100
AcDbLine
 62
7
  6
CONTINUOUS
 10
-62.5911164549
 20
2.70079
 11
-61.9685104549
 21
3.323396
  0
LINE
  5
581
100
AcDbEntity
  8
CURVE
100
AcDbLine
 62
7
  6
CONTINUOUS
 10
-62.4496950986
 20
2.70079
 11
-61.8270890986
 21
3.323396
  0
LINE
  5
582
100
AcDbEntity
  8
CURVE
100
AcDbLine
 62
7
  6
CONTINUOUS
 10
-62.3082737424
 20
2.70079
 11
-61.8023701545
 21
3.2066935878
  0
LINE
  5
583
100
AcDbEntity
  8
CURVE
100
AcDbLine
 62
7
  6
CONTINUOUS
 10
-62.1668523861
 20
2.70079
 11
-61.8023701545
 21
3.0652722316
  0
LINE
  5
584
100
AcDbEntity
  8
CURVE
100
AcDbLine
 62
7
  6
CONTINUOUS
 10
-62.0254310299
 20
2.70079
 11
-61.8023701545
 21
2.9238508754
  0
LINE
  5
585
100
AcDbEntity
  8
CURVE
100
AcDbLine
 62
7
  6
CONTINUOUS
 10
-61.8840096737
 20
2.70079
 11
-61.8023701545
 21
2.7824295191
  0
LINE
  5
586
100
AcDbEntity
  8
CURVE
100
AcDbLine
 62
253
  6
CONTINUOUS
 10
-48.6023701545
 20
-7.992
 11
-47.3023701545
 21
-7.992
  0
LINE
  5
587
100
AcDbEntity
  8
CURVE
100
AcDbLine
 62
253
  6
CONTINUOUS
 10
-47.3023701545
 20
-7.7216
 11
-48.6023701545
 21
-7.7216
  0
LINE
  5
588
100
AcDbEntity
  8
CURVE
100
AcDbLine
 62
253
  6
CONTINUOUS
 10
-64.6761495019
 20
-6.8615673444
 11
-61.8103738023
 21
-6.8615673444
  0
LINE
  5
589
100
AcDbEntity
  8
ASSI
100
AcDbLine
 62
253
  6
CONTINUOUS
 10
-60.7278503278
 20
23.7507734247
 11
-60.7278503278
 21
22.3338981669
  0
LINE
  5
58A
100
AcDbEntity
  8
ASSI
100
AcDbLine
 62
253
  6
CONTINUOUS
 10
-60.7278503278
 20
-22.3338981669
 11
-60.7278503278
 21
-23.7507734247
  0
LINE
  5
58B
100
AcDbEntity
  8
ASSI
100
AcDbLine
 62
7
  6
CONTINUOUS
 10
-60.3023701545
 20
23.2563578147
 11
-60.3023701545
 21
22.3301954119
  0
LINE
  5
58C
100
AcDbEntity
  8
CURVE
100
AcDbLine
 62
253
  6
CONTINUOUS
 10
-60.3023701545
 20
15.6899997826
 11
-60.3023701545
 21
15.234
  0
LINE
  5
58D
100
AcDbEntity
  8
ASSI
100
AcDbLine
 62
7
  6
CONTINUOUS
 10
-60.3023701545
 20
-22.3301954119
 11
-60.3023701545
 21
-23.2563578147
  0
LINE
  5
58E
100
AcDbEntity
  8
CURVE
100
AcDbLine
 62
253
  6
CONTINUOUS
 10
-60.3023701545
 20
11.7379998913
 11
-60.3023701545
 21
12.6499999638
  0
LINE
  5
58F
100
AcDbEntity
  8
CURVE
100
AcDbLine
 62
253
  6
CONTINUOUS
 10
-60.3023701545
 20
13.7140002174
 11
-60.3023701545
 21
13.866000145
  0
LINE
  5
590
100
AcDbEntity
  8
CURVE
100
AcDbLine
 62
253
  6
CONTINUOUS
 10
-59.4880844888
 20
12.3460001087
 11
-59.4880844888
 21
11.7379998913
  0
LINE
  5
591
100
AcDbEntity
  8
CURVE
100
AcDbLine
 62
253
  6
CONTINUOUS
 10
-48.6052182551
 20
9.1904761314
 11
-47.3054162514
 21
9.8404761314
  0
LINE
  5
592
100
AcDbEntity
  8
CURVE
100
AcDbLine
 62
253
  6
CONTINUOUS
 10
-61.8103741545
 20
-7.677235
 11
-62.3892481545
 21
-7.834033
  0
LINE
  5
593
100
AcDbEntity
  8
CURVE
100
AcDbLine
 62
253
  6
CONTINUOUS
 10
-62.8371781545
 20
-7.954996
 11
-63.9132761545
 21
-8.233126
  0
LINE
  5
594
100
AcDbEntity
  8
CURVE
100
AcDbLine
 62
253
  6
CONTINUOUS
 10
-63.4200310557
 20
-6.2788012718
 11
-64.2160424128
 21
-6.2788012718
  0
LINE
  5
595
100
AcDbEntity
  8
CURVE
100
AcDbLine
 62
253
  6
CONTINUOUS
 10
-61.8103738023
 20
-6.2587313832
 11
-62.9451379165
 21
-6.2587313832
  0
LINE
  5
596
100
AcDbEntity
  8
ASSI
100
AcDbLine
 62
7
  6
CONTINUOUS
 10
-78.0023701545
 20
-5.7256004052
 11
-78.4023701545
 21
-5.7256004052
  0
LINE
  5
597
100
AcDbEntity
  8
CURVE
100
AcDbLine
 62
253
  6
CONTINUOUS
 10
-63.1639062257
 20
-5.30544429
 11
-63.1810406485
 21
-5.30544429
  0
LINE
  5
598
100
AcDbEntity
  8
CURVE
100
AcDbLine
 62
253
  6
CONTINUOUS
 10
-58.8095130157
 20
11.1299999275
 11
-58.8095130157
 21
10.0660000544
  0
LINE
  5
599
100
AcDbEntity
  8
CURVE
100
AcDbLine
 62
253
  6
CONTINUOUS
 10
-58.4023701545
 20
15.994000145
 11
-58.4023701545
 21
14.930000145
  0
LINE
  5
59A
100
AcDbEntity
  8
CURVE
100
AcDbLine
 62
253
  6
CONTINUOUS
 10
-58.4023701545
 20
13.866000145
 11
-58.4023701545
 21
13.7140002174
  0
LINE
  5
59B
100
AcDbEntity
  8
CURVE
100
AcDbLine
 62
253
  6
CONTINUOUS
 10
-58.4023701545
 20
11.7379998913
 11
-58.4023701545
 21
12.3460001087
  0
LINE
  5
59C
100
AcDbEntity
  8
RACCORDO
100
AcDbLine
 62
253
  6
CONTINUOUS
 10
-57.7936439513
 20
21.5659754333
 11
-57.7936439513
 21
20.9
  0
LINE
  5
59D
100
AcDbEntity
  8
RACCORDO
100
AcDbLine
 62
253
  6
CONTINUOUS
 10
-57.7936439513
 20
-20.9
 11
-57.7936439513
 21
-21.5659754333
  0
LINE
  5
59E
100
AcDbEntity
  8
0
100
AcDbLine
 62
253
  6
CONTINUOUS
 10
-57.6441860717
 20
-20.9
 11
-57.6441860717
 21
-20.6814157697
  0
LINE
  5
59F
100
AcDbEntity
  8
0
100
AcDbLine
 62
253
  6
CONTINUOUS
 10
-57.6441860717
 20
20.6814157697
 11
-57.6441860717
 21
20.9
  0
LINE
  5
5A0
100
AcDbEntity
  8
DRAFT
100
AcDbLine
 62
7
  6
CONTINUOUS
 10
-57.3023701545
 20
22.4
 11
-57.3023701545
 21
21.3126932437
  0
LINE
  5
5A1
100
AcDbEntity
  8
ASSI
100
AcDbLine
 62
7
  6
CONTINUOUS
 10
-57.3023701545
 20
22.4
 11
-57.3023701545
 21
21.3126932437
  0
LINE
  5
5A2
100
AcDbEntity
  8
DRAFT
100
AcDbLine
 62
7
  6
CONTINUOUS
 10
-57.3023701545
 20
-22.2254493507
 11
-57.3023701545
 21
-21.3126932437
  0
LINE
  5
5A3
100
AcDbEntity
  8
ASSI
100
AcDbLine
 62
7
  6
CONTINUOUS
 10
-57.3023701545
 20
-22.2254493507
 11
-57.3023701545
 21
-21.3126932437
  0
LINE
  5
5A4
100
AcDbEntity
  8
RACCORDO
100
AcDbLine
 62
7
  6
CONTINUOUS
 10
-57.3023701545
 20
-21.3126932437
 11
-57.3023701545
 21
-19.232600741
  0
LINE
  5
5A5
100
AcDbEntity
  8
ASSI
100
AcDbLine
 62
7
  6
CONTINUOUS
 10
-57.3023701545
 20
-20.6754493507
 11
-57.3023701545
 21
-19.232600741
  0
LINE
  5
5A6
100
AcDbEntity
  8
RACCORDO
100
AcDbLine
 62
7
  6
CONTINUOUS
 10
-57.3023701545
 20
19.232600741
 11
-57.3023701545
 21
21.3126932437
  0
LINE
  5
5A7
100
AcDbEntity
  8
ASSI
100
AcDbLine
 62
7
  6
CONTINUOUS
 10
-57.3023701545
 20
19.232600741
 11
-57.3023701545
 21
20.6754493507
  0
LINE
  5
5A8
100
AcDbEntity
  8
CURVE
100
AcDbLine
 62
253
  6
CONTINUOUS
 10
-48.6052182551
 20
4.4857143521
 11
-47.3054162514
 21
4.8571429014
  0
LINE
  5
5A9
100
AcDbEntity
  8
CURVE
100
AcDbLine
 62
253
  6
CONTINUOUS
 10
-48.6052182551
 20
3.0
 11
-47.8624742585
 21
3.371428588
  0
LINE
  5
5AA
100
AcDbEntity
  8
CURVE
100
AcDbLine
 62
253
  6
CONTINUOUS
 10
-53.2254101545
 20
14.139495888
 11
-53.2254101545
 21
15.6
  0
LINE
  5
5AB
100
AcDbEntity
  8
CURVE
100
AcDbLine
 62
253
  6
CONTINUOUS
 10
-52.4754101545
 20
15.6
 11
-52.4754101545
 21
14.139499
  0
LINE
  5
5AC
100
AcDbEntity
  8
CURVE
100
AcDbLine
 62
253
  6
CONTINUOUS
 10
-48.6052182551
 20
5.6928570986
 11
-48.4195322657
 21
5.8785712957
  0
LINE
  5
5AD
100
AcDbEntity
  8
CURVE
100
AcDbLine
 62
253
  6
CONTINUOUS
 10
-59.759513044
 20
8.85
 11
-60.3023701545
 21
9.4580000272
  0
LINE
  5
5AE
100
AcDbEntity
  8
CURVE
100
AcDbLine
 62
253
  6
CONTINUOUS
 10
-64.7100271545
 20
-7.92899
 11
-61.8103741545
 21
-7.039304
  0
LINE
  5
5AF
100
AcDbEntity
  8
CURVE
100
AcDbLine
 62
253
  6
CONTINUOUS
 10
-64.7023711545
 20
2.70079
 11
-61.8023701545
 21
2.70079
  0
LINE
  5
5B0
100
AcDbEntity
  8
CURVE
100
AcDbLine
 62
253
  6
CONTINUOUS
 10
-47.3054162514
 20
3.0
 11
-48.6052182551
 21
3.0
  0
LINE
  5
5B1
100
AcDbEntity
  8
CURVE
100
AcDbLine
 62
253
  6
CONTINUOUS
 10
-61.8023701545
 20
3.323396
 11
-62.9191321545
 21
3.323396
  0
LINE
  5
5B2
100
AcDbEntity
  8
CURVE
100
AcDbLine
 62
253
  6
CONTINUOUS
 10
-63.4010651545
 20
3.323396
 11
-64.2204381545
 21
3.323396
  0
LINE
  5
5B3
100
AcDbEntity
  8
CURVE
100
AcDbLine
 62
253
  6
CONTINUOUS
 10
-48.6052182551
 20
3.7428571761
 11
-47.3054162514
 21
3.7428571761
  0
LINE
  5
5B4
100
AcDbEntity
  8
CURVE
100
AcDbLine
 62
253
  6
CONTINUOUS
 10
-64.7023711545
 20
8.227849
 11
-61.8023701545
 21
7.179514
  0
LINE
  5
5B5
100
AcDbEntity
  8
CURVE
100
AcDbLine
 62
253
  6
CONTINUOUS
 10
-48.6052182551
 20
5.2285714507
 11
-48.6052182551
 21
5.6928570986
  0
LINE
  5
5B6
100
AcDbEntity
  8
CURVE
100
AcDbLine
 62
253
  6
CONTINUOUS
 10
-48.6052182551
 20
6.4047619343
 11
-48.6052182551
 21
6.9619048357
  0
LINE
  5
5B7
100
AcDbEntity
  8
CURVE
100
AcDbLine
 62
253
  6
CONTINUOUS
 10
-48.6052182551
 20
12.0690477371
 11
-48.6052182551
 21
12.8119045258
  0
LINE
  5
5B8
100
AcDbEntity
  8
CURVE
100
AcDbLine
 62
253
  6
CONTINUOUS
 10
-48.6023701545
 20
-8.9696
 11
-48.6023701545
 21
-9.0424
  0
LINE
  5
5B9
100
AcDbEntity
  8
CURVE
100
AcDbLine
 62
253
  6
CONTINUOUS
 10
-48.6023701545
 20
-9.3336
 11
-48.6023701545
 21
-10.1552
  0
LINE
  5
5BA
100
AcDbEntity
  8
CURVE
100
AcDbLine
 62
253
  6
CONTINUOUS
 10
-48.6023701545
 20
-14.3724
 11
-48.6023701545
 21
-14.4452
  0
LINE
  5
5BB
100
AcDbEntity
  8
CURVE
100
AcDbLine
 62
253
  6
CONTINUOUS
 10
-48.6023701545
 20
-16.0
 11
-48.6023701545
 21
-15.584
  0
LINE
  5
5BC
100
AcDbEntity
  8
CURVE
100
AcDbLine
 62
253
  6
CONTINUOUS
 10
-48.6023701545
 20
-13.5456
 11
-48.6023701545
 21
-12.4224
  0
LINE
  5
5BD
100
AcDbEntity
  8
CURVE
100
AcDbLine
 62
253
  6
CONTINUOUS
 10
-48.6023701545
 20
-11.164
 11
-48.6023701545
 21
-10.748
  0
LINE
  5
5BE
100
AcDbEntity
  8
CURVE
100
AcDbLine
 62
253
  6
CONTINUOUS
 10
-48.6023701545
 20
-7.7216
 11
-48.6023701545
 21
-7.3056
  0
LINE
  5
5BF
100
AcDbEntity
  8
CURVE
100
AcDbLine
 62
253
  6
CONTINUOUS
 10
-48.0481602867
 20
6.7761903286
 11
-48.0481602867
 21
6.4047619343
  0
LINE
  5
5C0
100
AcDbEntity
  8
CURVE
100
AcDbLine
 62
253
  6
CONTINUOUS
 10
-47.9939701545
 20
-10.1552
 11
-47.9939701545
 21
-9.396
  0
LINE
  5
5C1
100
AcDbEntity
  8
CURVE
100
AcDbLine
 62
253
  6
CONTINUOUS
 10
-47.9523701545
 20
-10.748
 11
-47.9523701545
 21
-11.164
  0
LINE
  5
5C2
100
AcDbEntity
  8
CURVE
100
AcDbLine
 62
253
  6
CONTINUOUS
 10
-47.9523701545
 20
-15.584
 11
-47.9523701545
 21
-16.0
  0
LINE
  5
5C3
100
AcDbEntity
  8
CURVE
100
AcDbLine
 62
253
  6
CONTINUOUS
 10
-61.8023701545
 20
5.171133
 11
-64.7023711545
 21
5.171133
  0
LINE
  5
5C4
100
AcDbEntity
  8
CURVE
100
AcDbLine
 62
253
  6
CONTINUOUS
 10
-47.3054162514
 20
5.2285714507
 11
-48.6052182551
 21
5.2285714507
  0
LINE
  5
5C5
100
AcDbEntity
  8
CURVE
100
AcDbLine
 62
253
  6
CONTINUOUS
 10
-64.7023711545
 20
5.793739
 11
-62.2843031545
 21
5.793739
  0
LINE
  5
5C6
100
AcDbEntity
  8
ASSI
100
AcDbLine
 62
7
  6
CONTINUOUS
 10
-78.0023701545
 20
5.85
 11
-78.4023701545
 21
5.85
  0
LINE
  5
5C7
100
AcDbEntity
  8
CURVE
100
AcDbLine
 62
253
  6
CONTINUOUS
 10
-48.4195322657
 20
5.8785712957
 11
-47.4911022602
 21
5.8785712957
  0
LINE
  5
5C8
100
AcDbEntity
  8
CURVE
100
AcDbLine
 62
253
  6
CONTINUOUS
 10
-47.3054162514
 20
6.4047619343
 11
-48.6052182551
 21
6.4047619343
  0
LINE
  5
5C9
100
AcDbEntity
  8
CURVE
100
AcDbLine
 62
253
  6
CONTINUOUS
 10
-62.2843031545
 20
6.866738
 11
-61.8023701545
 21
6.866738
  0
LINE
  5
5CA
100
AcDbEntity
  8
CURVE
100
AcDbLine
 62
253
  6
CONTINUOUS
 10
-47.3054162514
 20
4.1142857254
 11
-48.6052182551
 21
4.4857143521
  0
LINE
  5
5CB
100
AcDbEntity
  8
CURVE
100
AcDbLine
 62
253
  6
CONTINUOUS
 10
-62.8989421545
 20
8.151456
 11
-64.1482111545
 21
8.581471
  0
LINE
  5
5CC
100
AcDbEntity
  8
CURVE
100
AcDbLine
 62
253
  6
CONTINUOUS
 10
-61.8023701545
 20
7.773964
 11
-62.4170091545
 21
7.990812
  0
LINE
  5
5CD
100
AcDbEntity
  8
CURVE
100
AcDbLine
 62
253
  6
CONTINUOUS
 10
-47.8624742585
 20
3.371428588
 11
-48.6052182551
 21
3.7428571761
  0
LINE
  5
5CE
100
AcDbEntity
  8
CURVE
100
AcDbLine
 62
253
  6
CONTINUOUS
 10
-60.0309415993
 20
13.409999855
 11
-60.3023701545
 21
13.7140002174
  0
LINE
  5
5CF
100
AcDbEntity
  8
CURVE
100
AcDbLine
 62
253
  6
CONTINUOUS
 10
-58.4023701545
 20
12.3460001087
 11
-58.6737987381
 21
12.6499999638
  0
LINE
  5
5D0
100
AcDbEntity
  8
CURVE
100
AcDbLine
 62
253
  6
CONTINUOUS
 10
-58.6737987381
 20
14.17
 11
-58.4023701545
 21
13.866000145
  0
LINE
  5
5D1
100
AcDbEntity
  8
CURVE
100
AcDbLine
 62
253
  6
CONTINUOUS
 10
-47.6900891545
 20
-14.83
 11
-47.6900891545
 21
-13.9876
  0
LINE
  5
5D2
100
AcDbEntity
  8
CURVE
100
AcDbLine
 62
253
  6
CONTINUOUS
 10
-47.6767882691
 20
4.2380952418
 11
-47.6767882691
 21
4.733333385
  0
LINE
  5
5D3
100
AcDbEntity
  8
CURVE
100
AcDbLine
 62
253
  6
CONTINUOUS
 10
-47.6767882691
 20
13.3071425915
 11
-47.6767882691
 21
13.8023806572
  0
LINE
  5
5D4
100
AcDbEntity
  8
CURVE
100
AcDbLine
 62
253
  6
CONTINUOUS
 10
-47.3054162514
 20
5.6928570986
 11
-47.3054162514
 21
5.2285714507
  0
LINE
  5
5D5
100
AcDbEntity
  8
CURVE
100
AcDbLine
 62
253
  6
CONTINUOUS
 10
-47.3054162514
 20
6.4047619343
 11
-47.3054162514
 21
6.9619048357
  0
LINE
  5
5D6
100
AcDbEntity
  8
CURVE
100
AcDbLine
 62
253
  6
CONTINUOUS
 10
-47.3054162514
 20
14.2976193428
 11
-47.3054162514
 21
14.7619045258
  0
LINE
  5
5D7
100
AcDbEntity
  8
CURVE
100
AcDbLine
 62
253
  6
CONTINUOUS
 10
-47.3023701545
 20
-7.3056
 11
-47.3023701545
 21
-7.7216
  0
LINE
  5
5D8
100
AcDbEntity
  8
CURVE
100
AcDbLine
 62
253
  6
CONTINUOUS
 10
-47.3023701545
 20
-7.992
 11
-47.3023701545
 21
-8.0648
  0
LINE
  5
5D9
100
AcDbEntity
  8
CURVE
100
AcDbLine
 62
253
  6
CONTINUOUS
 10
-47.3023701545
 20
-10.1552
 11
-47.3023701545
 21
-9.3336
  0
LINE
  5
5DA
100
AcDbEntity
  8
CURVE
100
AcDbLine
 62
253
  6
CONTINUOUS
 10
-61.8103741545
 20
-11.040105
 11
-63.7037931545
 21
-11.750162
  0
LINE
  5
5DB
100
AcDbEntity
  8
CURVE
100
AcDbLine
 62
253
  6
CONTINUOUS
 10
-64.7100271545
 20
-11.593234
 11
-63.1001311545
 21
-10.994355
  0
LINE
  5
5DC
100
AcDbEntity
  8
CURVE
100
AcDbLine
 62
253
  6
CONTINUOUS
 10
-47.3054162514
 20
8.6023806572
 11
-48.6052182551
 21
8.6023806572
  0
LINE
  5
5DD
100
AcDbEntity
  8
CURVE
100
AcDbLine
 62
253
  6
CONTINUOUS
 10
-47.3054162514
 20
9.1904761314
 11
-48.6052182551
 21
9.1904761314
  0
LINE
  5
5DE
100
AcDbEntity
  8
CURVE
100
AcDbLine
 62
253
  6
CONTINUOUS
 10
-58.8095130157
 20
10.0660000544
 11
-60.3023701545
 21
10.5219999638
  0
LINE
  5
5DF
100
AcDbEntity
  8
CURVE
100
AcDbLine
 62
253
  6
CONTINUOUS
 10
-59.759513044
 20
13.2579999275
 11
-60.0309415993
 21
13.409999855
  0
LINE
  5
5E0
100
AcDbEntity
  8
CURVE
100
AcDbLine
 62
253
  6
CONTINUOUS
 10
-60.3023701545
 20
15.234
 11
-59.895227265
 21
14.930000145
  0
LINE
  5
5E1
100
AcDbEntity
  8
CURVE
100
AcDbLine
 62
253
  6
CONTINUOUS
 10
-47.4911022602
 20
5.8785712957
 11
-47.3054162514
 21
5.6928570986
  0
LINE
  5
5E2
100
AcDbEntity
  8
CURVE
100
AcDbLine
 62
253
  6
CONTINUOUS
 10
-47.3023701545
 20
-8.0648
 11
-48.6023701545
 21
-8.9696
  0
LINE
  5
5E3
100
AcDbEntity
  8
CURVE
100
AcDbLine
 62
253
  6
CONTINUOUS
 10
-60.3023701545
 20
9.4580000272
 11
-58.4023701545
 21
9.4580000272
  0
LINE
  5
5E4
100
AcDbEntity
  8
CURVE
100
AcDbLine
 62
253
  6
CONTINUOUS
 10
-47.3054162514
 20
9.8404761314
 11
-48.6052182551
 21
9.8404761314
  0
LINE
  5
5E5
100
AcDbEntity
  8
0
100
AcDbLine
 62
7
  6
CONTINUOUS
 10
-78.0023701545
 20
9.9
 11
-77.704350084
 21
9.9
  0
LINE
  5
5E6
100
AcDbEntity
  8
RACCORDO
100
AcDbLine
 62
253
  6
CONTINUOUS
 10
-77.8023701545
 20
10.0
 11
-77.702359563
 21
10.0
  0
LINE
  5
5E7
100
AcDbEntity
  8
CURVE
100
AcDbLine
 62
253
  6
CONTINUOUS
 10
-61.8023701545
 20
10.292325
 11
-64.7023711545
 21
10.292325
  0
LINE
  5
5E8
100
AcDbEntity
  8
CURVE
100
AcDbLine
 62
253
  6
CONTINUOUS
 10
-58.4023701545
 20
10.7753333454
 11
-59.3523701545
 21
10.7753333454
  0
LINE
  5
5E9
100
AcDbEntity
  8
CURVE
100
AcDbLine
 62
253
  6
CONTINUOUS
 10
-64.2294741545
 20
10.87477
 11
-61.8023701545
 21
10.87477
  0
LINE
  5
5EA
100
AcDbEntity
  8
CURVE
100
AcDbLine
 62
253
  6
CONTINUOUS
 10
-47.3054162514
 20
11.4809522629
 11
-48.6052182551
 21
11.4809522629
  0
LINE
  5
5EB
100
AcDbEntity
  8
CURVE
100
AcDbLine
 62
253
  6
CONTINUOUS
 10
-55.3984471545
 20
11.61489
 11
-54.6476301545
 21
11.61489
  0
LINE
  5
5EC
100
AcDbEntity
  8
CURVE
100
AcDbLine
 62
253
  6
CONTINUOUS
 10
-51.0531901545
 20
11.61489
 11
-50.3023731545
 21
11.61489
  0
LINE
  5
5ED
100
AcDbEntity
  8
CURVE
100
AcDbLine
 62
253
  6
CONTINUOUS
 10
-62.8989421545
 20
14.176491
 11
-64.1480471545
 21
14.606449
  0
LINE
  5
5EE
100
AcDbEntity
  8
CURVE
100
AcDbLine
 62
253
  6
CONTINUOUS
 10
-61.8023701545
 20
13.798889
 11
-62.4170091545
 21
14.015846
  0
LINE
  5
5EF
100
AcDbEntity
  8
CURVE
100
AcDbLine
 62
253
  6
CONTINUOUS
 10
-64.7023711545
 20
14.252884
 11
-61.8023701545
 21
13.20444
  0
LINE
  5
5F0
100
AcDbEntity
  8
CURVE
100
AcDbLine
 62
253
  6
CONTINUOUS
 10
-58.9452273217
 20
14.3219999275
 11
-58.6737987381
 21
14.17
  0
LINE
  5
5F1
100
AcDbEntity
  8
CURVE
100
AcDbLine
 62
253
  6
CONTINUOUS
 10
-58.4023701545
 20
14.930000145
 11
-59.759513044
 21
15.994000145
  0
LINE
  5
5F2
100
AcDbEntity
  8
RACCORDO
100
AcDbLine
 62
7
  6
CONTINUOUS
 10
-69.8023701545
 20
-23.1226497308
 11
-70.6773701545
 21
-23.6278312164
  0
LINE
  5
5F3
100
AcDbEntity
  8
RACCORDO
100
AcDbLine
 62
253
  6
CONTINUOUS
 10
-69.5538245874
 20
-23.2669872981
 11
-70.5538245874
 21
-23.8443375673
  0
LINE
  5
5F4
100
AcDbEntity
  8
CURVE
100
AcDbLine
 62
253
  6
CONTINUOUS
 10
-61.8103741545
 20
-15.081013
 11
-64.7100271545
 21
-16.00026
  0
LINE
  5
5F5
100
AcDbEntity
  8
CURVE
100
AcDbLine
 62
253
  6
CONTINUOUS
 10
-59.4880844888
 20
11.7379998913
 11
-60.3023701545
 21
11.7379998913
  0
LINE
  5
5F6
100
AcDbEntity
  8
CURVE
100
AcDbLine
 62
253
  6
CONTINUOUS
 10
-62.4042571545
 20
12.328754
 11
-64.7023711545
 21
12.328754
  0
LINE
  5
5F7
100
AcDbEntity
  8
CURVE
100
AcDbLine
 62
253
  6
CONTINUOUS
 10
-47.3054162514
 20
12.4404761314
 11
-48.6052182551
 21
12.4404761314
  0
LINE
  5
5F8
100
AcDbEntity
  8
CURVE
100
AcDbLine
 62
253
  6
CONTINUOUS
 10
-58.6737987381
 20
12.6499999638
 11
-59.2166558769
 21
12.6499999638
  0
LINE
  5
5F9
100
AcDbEntity
  8
CURVE
100
AcDbLine
 62
253
  6
CONTINUOUS
 10
-64.7023711545
 20
12.911198
 11
-61.8023701545
 21
12.911198
  0
LINE
  5
5FA
100
AcDbEntity
  8
CURVE
100
AcDbLine
 62
253
  6
CONTINUOUS
 10
-58.9452273217
 20
13.2579999275
 11
-59.759513044
 21
13.2579999275
  0
LINE
  5
5FB
100
AcDbEntity
  8
RACCORDO
100
AcDbLine
 62
253
  6
CONTINUOUS
 10
-77.8023701545
 20
13.5
 11
-77.6191716044
 21
13.5000000008
  0
LINE
  5
5FC
100
AcDbEntity
  8
RACCORDO
100
AcDbLine
 62
7
  6
CONTINUOUS
 10
-70.6773701545
 20
23.6278312164
 11
-69.8023701545
 21
23.1226497308
  0
LINE
  5
5FD
100
AcDbEntity
  8
RACCORDO
100
AcDbLine
 62
253
  6
CONTINUOUS
 10
-70.5538245874
 20
23.8443375673
 11
-69.5538245874
 21
23.2669872981
  0
LINE
  5
5FE
100
AcDbEntity
  8
CURVE
100
AcDbLine
 62
253
  6
CONTINUOUS
 10
-47.3023701545
 20
-13.824061
 11
-48.6023701545
 21
-14.3724
  0
LINE
  5
5FF
100
AcDbEntity
  8
CURVE
100
AcDbLine
 62
253
  6
CONTINUOUS
 10
-48.6052182551
 20
14.2976193428
 11
-47.3054162514
 21
14.2976193428
  0
LINE
  5
600
100
AcDbEntity
  8
CURVE
100
AcDbLine
 62
253
  6
CONTINUOUS
 10
-59.759513044
 20
14.3219999275
 11
-58.9452273217
 21
14.3219999275
  0
LINE
  5
601
100
AcDbEntity
  8
CURVE
100
AcDbLine
 62
253
  6
CONTINUOUS
 10
-48.0481602867
 20
15.5047613144
 11
-47.3054162514
 21
15.5047613144
  0
LINE
  5
602
100
AcDbEntity
  8
CURVE
100
AcDbLine
 62
253
  6
CONTINUOUS
 10
-53.2254101545
 20
15.6
 11
-52.4754101545
 21
15.6
  0
LINE
  5
603
100
AcDbEntity
  8
CURVE
100
AcDbLine
 62
253
  6
CONTINUOUS
 10
-59.759513044
 20
15.994000145
 11
-60.0309415993
 21
15.994000145
  0
LINE
  5
604
100
AcDbEntity
  8
CURVE
100
AcDbLine
 62
253
  6
CONTINUOUS
 10
-55.3984472723
 20
16.0
 11
-54.6476301545
 21
16.0
  0
LINE
  5
605
100
AcDbEntity
  8
CURVE
100
AcDbLine
 62
253
  6
CONTINUOUS
 10
-51.053193203
 20
16.0
 11
-50.3023730368
 21
16.0
  0
LINE
  5
606
100
AcDbEntity
  8
CURVE
100
AcDbLine
 62
253
  6
CONTINUOUS
 10
-47.3054162514
 20
13.18333354
 11
-48.6052182551
 21
13.5547613144
  0
LINE
  5
607
100
AcDbEntity
  8
RACCORDO
100
AcDbLine
 62
253
  6
CONTINUOUS
 10
-31.3023701545
 20
17.4185185038
 11
-32.2849177481
 21
17.4185185038
  0
LINE
  5
608
100
AcDbEntity
  8
ASSI
100
AcDbLine
 62
253
  6
CONTINUOUS
 10
-31.3023701545
 20
17.4185185038
 11
-32.2849177481
 21
17.4185185038
  0
LINE
  5
609
100
AcDbEntity
  8
RACCORDO
100
AcDbLine
 62
253
  6
CONTINUOUS
 10
-32.2849177481
 20
17.4185185038
 11
-67.3023701545
 21
17.6716990487
  0
LINE
  5
60A
100
AcDbEntity
  8
ASSI
100
AcDbLine
 62
253
  6
CONTINUOUS
 10
-32.2849177481
 20
17.4185185038
 11
-67.3023701545
 21
17.6716990487
  0
LINE
  5
60B
100
AcDbEntity
  8
CURVE
100
AcDbLine
 62
253
  6
CONTINUOUS
 10
-48.0481602867
 20
15.5047613144
 11
-48.6052182551
 21
15.8761909485
  0
LINE
  5
60C
100
AcDbEntity
  8
RACCORDO
100
AcDbLine
 62
253
  6
CONTINUOUS
 10
-35.8641259002
 20
18.8583947956
 11
-67.3023701545
 21
19.0856972195
  0
LINE
  5
60D
100
AcDbEntity
  8
ASSI
100
AcDbLine
 62
253
  6
CONTINUOUS
 10
-35.8641259002
 20
18.8583947956
 11
-67.3023701545
 21
19.0856972195
  0
LINE
  5
60E
100
AcDbEntity
  8
RACCORDO
100
AcDbLine
 62
253
  6
CONTINUOUS
 10
-57.3023701545
 20
19.232600741
 11
-35.8641259002
 21
18.8583947956
  0
LINE
  5
60F
100
AcDbEntity
  8
ASSI
100
AcDbLine
 62
253
  6
CONTINUOUS
 10
-57.3023701545
 20
19.232600741
 11
-35.8641259002
 21
18.8583947956
  0
LINE
  5
610
100
AcDbEntity
  8
RACCORDO
100
AcDbLine
 62
7
  6
CONTINUOUS
 10
-57.3023701545
 20
19.5254493507
 11
-32.2849177481
 21
19.0887680946
  0
LINE
  5
611
100
AcDbEntity
  8
ASSI
100
AcDbLine
 62
7
  6
CONTINUOUS
 10
-57.3023701545
 20
19.5254493507
 11
-32.2849177481
 21
19.0887680946
  0
LINE
  5
612
100
AcDbEntity
  8
DRAFT
100
AcDbLine
 62
7
  6
CONTINUOUS
 10
-57.3023701545
 20
20.6754493507
 11
-67.3023701545
 21
20.85
  0
LINE
  5
613
100
AcDbEntity
  8
ASSI
100
AcDbLine
 62
7
  6
CONTINUOUS
 10
-57.3023701545
 20
20.6754493507
 11
-67.3023701545
 21
20.85
  0
LINE
  5
614
100
AcDbEntity
  8
RACCORDO
100
AcDbLine
 62
253
  6
CONTINUOUS
 10
-76.8885253242
 20
20.5419058565
 11
-77.3793761268
 21
20.5624683248
  0
LINE
  5
615
100
AcDbEntity
  8
RACCORDO
100
AcDbLine
 62
253
  6
CONTINUOUS
 10
-32.2849177481
 20
17.4185185038
 11
-32.2849177481
 21
-17.4185185038
  0
LINE
  5
616
100
AcDbEntity
  8
ASSI
100
AcDbLine
 62
253
  6
CONTINUOUS
 10
-32.2849177481
 20
17.4185185038
 11
-32.2849177481
 21
-17.4185185038
  0
LINE
  5
617
100
AcDbEntity
  8
RACCORDO
100
AcDbLine
 62
253
  6
CONTINUOUS
 10
-68.3001838255
 20
21.8998857286
 11
-75.9417072685
 21
21.4994104546
  0
LINE
  5
618
100
AcDbEntity
  8
RACCORDO
100
AcDbLine
 62
7
  6
CONTINUOUS
 10
-57.7936439513
 20
21.5659754333
 11
-67.3023701545
 21
21.4
  0
LINE
  5
619
100
AcDbEntity
  8
RACCORDO
100
AcDbLine
 62
7
  6
CONTINUOUS
 10
-57.3023701545
 20
20.9
 11
-67.3023701545
 21
20.9
  0
LINE
  5
61A
100
AcDbEntity
  8
DRAFT
100
AcDbLine
 62
7
  6
CONTINUOUS
 10
-60.3023701545
 20
22.4
 11
-57.3023701545
 21
22.4
  0
LINE
  5
61B
100
AcDbEntity
  8
ASSI
100
AcDbLine
 62
7
  6
CONTINUOUS
 10
-60.3023701545
 20
22.4
 11
-57.3023701545
 21
22.4
  0
LINE
  5
61C
100
AcDbEntity
  8
RACCORDO
100
AcDbLine
 62
253
  6
CONTINUOUS
 10
-67.3023701545
 20
21.8911779406
 11
-68.3001838255
 21
21.8998857286
  0
LINE
  5
61D
100
AcDbEntity
  8
RACCORDO
100
AcDbLine
 62
7
  6
CONTINUOUS
 10
-58.293643619
 20
22.3126551668
 11
-68.3023701545
 21
22.4
  0
LINE
  5
61E
100
AcDbEntity
  8
RACCORDO
100
AcDbLine
 62
7
  6
CONTINUOUS
 10
-31.3023701545
 20
18.0889203995
 11
-31.3023701545
 21
-18.0889203995
  0
LINE
  5
61F
100
AcDbEntity
  8
ASSI
100
AcDbLine
 62
7
  6
CONTINUOUS
 10
-31.3023701545
 20
18.0889203995
 11
-31.3023701545
 21
-18.0889203995
  0
LINE
  5
620
100
AcDbEntity
  8
RACCORDO
100
AcDbLine
 62
7
  6
CONTINUOUS
 10
-75.9591490434
 20
21.998725222
 11
-69.6779132965
 21
22.3279108386
  0
LINE
  5
621
100
AcDbEntity
  8
RACCORDO
100
AcDbLine
 62
253
  6
CONTINUOUS
 10
-68.3023701545
 20
24.2500042308
 11
-70.5538245874
 21
24.2369056521
  0
LINE
  5
622
100
AcDbEntity
  8
RACCORDO
100
AcDbLine
 62
7
  6
CONTINUOUS
 10
-68.3023701545
 20
24.5
 11
-70.5538245874
 21
24.4869014213
  0
LINE
  5
623
100
AcDbEntity
  8
RACCORDO
100
AcDbLine
 62
253
  6
CONTINUOUS
 10
-70.8023701545
 20
23.8443375673
 11
-70.5538245874
 21
23.8443375673
  0
LINE
  5
624
100
AcDbEntity
  8
RACCORDO
100
AcDbLine
 62
253
  6
CONTINUOUS
 10
-67.3023701545
 20
23.8443375673
 11
-67.5509157217
 21
23.8443375673
  0
LINE
  5
625
100
AcDbEntity
  8
RACCORDO
100
AcDbLine
 62
253
  6
CONTINUOUS
 10
-70.8023701545
 20
24.2369056521
 11
-70.5538245874
 21
24.2369056521
  0
LINE
  5
626
100
AcDbEntity
  8
RACCORDO
100
AcDbLine
 62
253
  6
CONTINUOUS
 10
-67.3023701545
 20
24.2456323968
 11
-67.5509157217
 21
24.2456323968
  0
LINE
  5
627
100
AcDbEntity
  8
ASSI
100
AcDbLine
 62
7
  6
CONTINUOUS
 10
-67.3074628123
 20
23.7942117984
 11
-60.7994612889
 21
23.7563493531
  0
LINE
  5
628
100
AcDbEntity
  8
RACCORDO
100
AcDbLine
 62
253
  6
CONTINUOUS
 10
-67.5509157217
 20
24.2456323968
 11
-68.3023701545
 21
24.2500042308
  0
LINE
  5
629
100
AcDbEntity
  8
RACCORDO
100
AcDbLine
 62
7
  6
CONTINUOUS
 10
-67.5509157217
 20
24.495628166
 11
-68.3023701545
 21
24.5
  0
ARC
  5
62A
100
AcDbEntity
  8
RACCORDO
100
AcDbCircle
 62
253
  6
CONTINUOUS
 10
-20.4182792175
 20
-21.458059014
 40
0.5001919831
100
AcDbArc
 50
180.1025081198
 51
269.9721822312
  0
ARC
  5
62B
100
AcDbEntity
  8
RACCORDO
100
AcDbCircle
 62
253
  6
CONTINUOUS
 10
0.6542792224
 20
-21.4580590131
 40
0.5001919811
100
AcDbArc
 50
270.0278172062
 51
359.8974917757
  0
ARC
  5
62C
100
AcDbEntity
  8
RACCORDO
100
AcDbCircle
 62
253
  6
CONTINUOUS
 10
0.4785968315
 20
-24.2105964826
 40
0.2500538188
100
AcDbArc
 50
270.0208948261
 51
359.9790251971
  0
ARC
  5
62D
100
AcDbEntity
  8
RACCORDO
100
AcDbCircle
 62
253
  6
CONTINUOUS
 10
-1.3425968303
 20
-24.2105964838
 40
0.2500538188
100
AcDbArc
 50
180.0209745312
 51
269.9791049022
  0
ARC
  5
62E
100
AcDbEntity
  8
RACCORDO
100
AcDbCircle
 62
253
  6
CONTINUOUS
 10
-20.2425968303
 20
-24.2105964838
 40
0.2500538188
100
AcDbArc
 50
180.0209745312
 51
269.9791049022
  0
ARC
  5
62F
100
AcDbEntity
  8
RACCORDO
100
AcDbCircle
 62
253
  6
CONTINUOUS
 10
-18.4214033388
 20
-24.2105966612
 40
0.2500538188
100
AcDbArc
 50
270.0209338625
 51
359.9790661372
  0
ARC
  5
630
100
AcDbEntity
  8
RACCORDO
100
AcDbCircle
 62
7
  6
CONTINUOUS
 10
0.5180269207
 20
-24.2500269207
 40
0.2499730796
100
AcDbArc
 50
270.0025569395
 51
359.9974430605
  0
ARC
  5
631
100
AcDbEntity
  8
RACCORDO
100
AcDbCircle
 62
7
  6
CONTINUOUS
 10
-1.3820269207
 20
-24.2500269207
 40
0.2499730796
100
AcDbArc
 50
180.0025569395
 51
269.9974430605
  0
ARC
  5
632
100
AcDbEntity
  8
RACCORDO
100
AcDbCircle
 62
7
  6
CONTINUOUS
 10
-20.2820269207
 20
-24.2500269207
 40
0.2499730796
100
AcDbArc
 50
180.0025569395
 51
269.9974430605
  0
ARC
  5
633
100
AcDbEntity
  8
RACCORDO
100
AcDbCircle
 62
7
  6
CONTINUOUS
 10
-18.3819730793
 20
-24.2500269207
 40
0.2499730796
100
AcDbArc
 50
270.0025569395
 51
359.9974430605
  0
ARC
  5
634
100
AcDbEntity
  8
RACCORDO
100
AcDbCircle
 62
7
  6
CONTINUOUS
 10
-20.6871288141
 20
-0.3081539358
 40
0.2082047276
100
AcDbArc
 50
106.1795623882
 51
115.0260398395
  0
ARC
  5
635
100
AcDbEntity
  8
RACCORDO
100
AcDbCircle
 62
7
  6
CONTINUOUS
 10
0.9231605523
 20
-0.3080577641
 40
0.2081035212
100
AcDbArc
 50
64.3906988022
 51
73.821452869
  0
ARC
  5
636
100
AcDbEntity
  8
RACCORDO
100
AcDbCircle
 62
7
  6
CONTINUOUS
 10
0.9253196442
 20
-0.2942190947
 40
0.1942191448
100
AcDbArc
 50
73.2959833106
 51
89.9588634688
  0
ARC
  5
637
100
AcDbEntity
  8
RACCORDO
100
AcDbCircle
 62
7
  6
CONTINUOUS
 10
-20.6893199199
 20
-0.2942172024
 40
0.1942172522
100
AcDbArc
 50
90.0410556009
 51
106.7040997547
  0
ARC
  5
638
100
AcDbEntity
  8
RACCORDO
100
AcDbCircle
 62
253
  6
CONTINUOUS
 10
0.6356192854
 20
21.4269726907
 40
0.500191983
100
AcDbArc
 50
0.1025084188
 51
89.972182569
  0
ARC
  5
639
100
AcDbEntity
  8
RACCORDO
100
AcDbCircle
 62
253
  6
CONTINUOUS
 10
-20.3996192825
 20
21.4269726934
 40
0.500191983
100
AcDbArc
 50
90.027817757
 51
179.8974918906
  0
ARC
  5
63A
100
AcDbEntity
  8
RACCORDO
100
AcDbCircle
 62
7
  6
CONTINUOUS
 10
-4.3820316578
 20
10.0000373719
 40
0.5000348029
100
AcDbArc
 50
269.9960570581
 51
359.993786338
  0
ARC
  5
63B
100
AcDbEntity
  8
RACCORDO
100
AcDbCircle
 62
7
  6
CONTINUOUS
 10
-15.3819683422
 20
10.0000373719
 40
0.5000348029
100
AcDbArc
 50
180.0062136624
 51
270.0039429422
  0
ARC
  5
63C
100
AcDbEntity
  8
RACCORDO
100
AcDbCircle
 62
7
  6
CONTINUOUS
 10
-15.3821172397
 20
13.5001324773
 40
0.4998680516
100
AcDbArc
 50
90.0
 51
175.9995843706
  0
ARC
  5
63D
100
AcDbEntity
  8
RACCORDO
100
AcDbCircle
 62
7
  6
CONTINUOUS
 10
-4.3818827615
 20
13.5001324794
 40
0.499868051
100
AcDbArc
 50
4.00053689
 51
90.0
  0
ARC
  5
63E
100
AcDbEntity
  8
RACCORDO
100
AcDbCircle
 62
7
  6
CONTINUOUS
 10
-4.3816868075
 20
13.4999866735
 40
0.4996868084
100
AcDbArc
 50
0.0034605926
 51
4.0187823071
  0
ARC
  5
63F
100
AcDbEntity
  8
RACCORDO
100
AcDbCircle
 62
7
  6
CONTINUOUS
 10
-15.3823132677
 20
13.499986675
 40
0.4996867332
100
AcDbArc
 50
175.9813388207
 51
179.996539583
  0
ARC
  5
640
100
AcDbEntity
  8
RACCORDO
100
AcDbCircle
 62
7
  6
CONTINUOUS
 10
-15.382108578
 20
13.5006766783
 40
0.4993233226
100
AcDbArc
 50
90.0034977038
 51
94.0288324947
  0
ARC
  5
641
100
AcDbEntity
  8
RACCORDO
100
AcDbCircle
 62
7
  6
CONTINUOUS
 10
-4.3818914204
 20
13.5006767543
 40
0.4993232466
100
AcDbArc
 50
85.9712893991
 51
89.9965024743
  0
ARC
  5
642
100
AcDbEntity
  8
RACCORDO
100
AcDbCircle
 62
253
  6
CONTINUOUS
 10
-4.382
 20
10.0
 40
0.2999998665
100
AcDbArc
 50
270.0
 51
360.0
  0
ARC
  5
643
100
AcDbEntity
  8
RACCORDO
100
AcDbCircle
 62
253
  6
CONTINUOUS
 10
-15.382
 20
13.5
 40
0.2999998665
100
AcDbArc
 50
90.0
 51
180.0
  0
ARC
  5
644
100
AcDbEntity
  8
RACCORDO
100
AcDbCircle
 62
253
  6
CONTINUOUS
 10
-4.382
 20
13.5
 40
0.2999998665
100
AcDbArc
 50
0.0
 51
90.0
  0
ARC
  5
645
100
AcDbEntity
  8
RACCORDO
100
AcDbCircle
 62
253
  6
CONTINUOUS
 10
-15.382
 20
10.0
 40
0.2999998665
100
AcDbArc
 50
180.0
 51
270.0
  0
ARC
  5
646
100
AcDbEntity
  8
RACCORDO
100
AcDbCircle
 62
253
  6
CONTINUOUS
 10
-18.4214033836
 20
24.2105966164
 40
0.2500538636
100
AcDbArc
 50
0.020944126
 51
89.979055874
  0
ARC
  5
647
100
AcDbEntity
  8
RACCORDO
100
AcDbCircle
 62
253
  6
CONTINUOUS
 10
-20.2425964826
 20
24.2105968315
 40
0.2500538188
100
AcDbArc
 50
90.0209748023
 51
179.9791051724
  0
ARC
  5
648
100
AcDbEntity
  8
RACCORDO
100
AcDbCircle
 62
253
  6
CONTINUOUS
 10
-1.3425966612
 20
24.2105966612
 40
0.2500538188
100
AcDbArc
 50
90.020933862
 51
179.9790661384
  0
ARC
  5
649
100
AcDbEntity
  8
RACCORDO
100
AcDbCircle
 62
253
  6
CONTINUOUS
 10
0.4785966612
 20
24.2105966612
 40
0.2500538188
100
AcDbArc
 50
0.0209338628
 51
89.9790661375
  0
ARC
  5
64A
100
AcDbEntity
  8
RACCORDO
100
AcDbCircle
 62
7
  6
CONTINUOUS
 10
-20.2820269198
 20
24.2500269198
 40
0.2499730808
100
AcDbArc
 50
89.996011655
 51
180.003988345
  0
ARC
  5
64B
100
AcDbEntity
  8
RACCORDO
100
AcDbCircle
 62
7
  6
CONTINUOUS
 10
-18.3819730793
 20
24.2500269207
 40
0.2499730796
100
AcDbArc
 50
0.0025569395
 51
89.9974430605
  0
ARC
  5
64C
100
AcDbEntity
  8
RACCORDO
100
AcDbCircle
 62
7
  6
CONTINUOUS
 10
-1.3820269207
 20
24.2500269207
 40
0.2499730796
100
AcDbArc
 50
90.0025569395
 51
179.9974430605
  0
ARC
  5
64D
100
AcDbEntity
  8
RACCORDO
100
AcDbCircle
 62
7
  6
CONTINUOUS
 10
0.5180269207
 20
24.2500269207
 40
0.2499730796
100
AcDbArc
 50
0.0025569395
 51
89.9974430605
  0
ARC
  5
64E
100
AcDbEntity
  8
0
100
AcDbCircle
 62
7
  6
CONTINUOUS
 10
12.6179999189
 20
-0.0000095442
 40
7.6499994298
100
AcDbArc
 50
359.9999003391
 51
179.14151839
  0
ARC
  5
64F
100
AcDbEntity
  8
ASSI
100
AcDbCircle
 62
7
  6
CONTINUOUS
 10
15.0928737342
 20
-2.4748737342
 40
0.9
100
AcDbArc
 50
356.8103148958
 51
273.1896851042
  0
ARC
  5
650
100
AcDbEntity
  8
ASSI
100
AcDbCircle
 62
7
  6
CONTINUOUS
 10
10.1431262658
 20
-2.4748737342
 40
0.9
100
AcDbArc
 50
266.8103148958
 51
183.1896851042
  0
ARC
  5
651
100
AcDbEntity
  8
RACCORDO
100
AcDbCircle
 62
7
  6
CONTINUOUS
 10
1.9857831056
 20
-21.8996996212
 40
0.5003655864
100
AcDbArc
 50
180.0213107224
 51
243.4284874969
  0
ARC
  5
652
100
AcDbEntity
  8
RACCORDO
100
AcDbCircle
 62
7
  6
CONTINUOUS
 10
23.2502169042
 20
-21.8996996269
 40
0.5003655864
100
AcDbArc
 50
296.5715117915
 51
359.9786899232
  0
ARC
  5
653
100
AcDbEntity
  8
RACCORDO
100
AcDbCircle
 62
253
  6
CONTINUOUS
 10
23.117066664
 20
-21.4985216611
 40
0.5001723744
100
AcDbArc
 50
270.0239740404
 51
359.8981789871
  0
ARC
  5
654
100
AcDbEntity
  8
RACCORDO
100
AcDbCircle
 62
253
  6
CONTINUOUS
 10
2.1189333361
 20
-21.498521661
 40
0.5001723744
100
AcDbArc
 50
180.101821017
 51
269.9760259513
  0
ARC
  5
655
100
AcDbEntity
  8
RACCORDO
100
AcDbCircle
 62
7
  6
CONTINUOUS
 10
23.2504618824
 20
-21.9001237906
 40
0.499875135
100
AcDbArc
 50
272.0105361646
 51
296.5681456001
  0
ARC
  5
656
100
AcDbEntity
  8
RACCORDO
100
AcDbCircle
 62
7
  6
CONTINUOUS
 10
1.9855381176
 20
-21.9001237906
 40
0.499875135
100
AcDbArc
 50
243.4318543999
 51
267.9894638354
  0
ARC
  5
657
100
AcDbEntity
  8
RACCORDO
100
AcDbCircle
 62
253
  6
CONTINUOUS
 10
21.131104562
 20
-24.236895438
 40
0.2500059834
100
AcDbArc
 50
180.0023408263
 51
269.9976591737
  0
ARC
  5
658
100
AcDbEntity
  8
RACCORDO
100
AcDbCircle
 62
253
  6
CONTINUOUS
 10
23.004895438
 20
-24.236895438
 40
0.2500059834
100
AcDbArc
 50
270.0023408263
 51
359.9976591737
  0
ARC
  5
659
100
AcDbEntity
  8
RACCORDO
100
AcDbCircle
 62
253
  6
CONTINUOUS
 10
2.2311045619
 20
-24.2368954381
 40
0.2500059834
100
AcDbArc
 50
180.0023408215
 51
269.9976591785
  0
ARC
  5
65A
100
AcDbEntity
  8
RACCORDO
100
AcDbCircle
 62
253
  6
CONTINUOUS
 10
4.104895438
 20
-24.236895438
 40
0.2500059834
100
AcDbArc
 50
270.0023408263
 51
359.9976591737
  0
ARC
  5
65B
100
AcDbEntity
  8
RACCORDO
100
AcDbCircle
 62
7
  6
CONTINUOUS
 10
21.1179946513
 20
-24.2500053487
 40
0.2499946513
100
AcDbArc
 50
179.9997437926
 51
270.0002562074
  0
ARC
  5
65C
100
AcDbEntity
  8
RACCORDO
100
AcDbCircle
 62
7
  6
CONTINUOUS
 10
23.0180053487
 20
-24.2500053487
 40
0.2499946513
100
AcDbArc
 50
269.9997437926
 51
0.0002562074
  0
ARC
  5
65D
100
AcDbEntity
  8
RACCORDO
100
AcDbCircle
 62
7
  6
CONTINUOUS
 10
2.2179946513
 20
-24.2500053487
 40
0.2499946513
100
AcDbArc
 50
179.9997437926
 51
270.0002562074
  0
ARC
  5
65E
100
AcDbEntity
  8
RACCORDO
100
AcDbCircle
 62
7
  6
CONTINUOUS
 10
4.1180053487
 20
-24.2500053487
 40
0.2499946513
100
AcDbArc
 50
269.9997437926
 51
0.0002562074
  0
CIRCLE
  5
65F
100
AcDbEntity
  8
0
100
AcDbCircle
 62
7
  6
CONTINUOUS
 10
12.618
 20
0.0
 40
10.05
  0
ARC
  5
660
100
AcDbEntity
  8
0
100
AcDbCircle
 62
7
  6
CONTINUOUS
 10
12.618
 20
0.0
 40
10.0
100
AcDbArc
 50
261.372558122
 51
278.627441878
  0
CIRCLE
  5
661
100
AcDbEntity
  8
0
100
AcDbCircle
 62
7
  6
CONTINUOUS
 10
12.618
 20
0.0
 40
9.9
  0
CIRCLE
  5
662
100
AcDbEntity
  8
0
100
AcDbCircle
 62
7
  6
CONTINUOUS
 10
12.618
 20
0.0
 40
8.1
  0
ARC
  5
663
100
AcDbEntity
  8
0
100
AcDbCircle
 62
7
  6
CONTINUOUS
 10
12.6179994454
 20
0.0000094059
 40
7.6499993904
100
AcDbArc
 50
179.7137202722
 51
359.4275804541
  0
ARC
  5
664
100
AcDbEntity
  8
0
100
AcDbCircle
 62
7
  6
CONTINUOUS
 10
12.6064350944
 20
0.0000531138
 40
7.6384349654
100
AcDbArc
 50
179.1406886148
 51
179.7136147034
  0
ARC
  5
665
100
AcDbEntity
  8
0
100
AcDbCircle
 62
7
  6
CONTINUOUS
 10
12.6414206968
 20
0.0000085775
 40
7.6265793032
100
AcDbArc
 50
359.4258288042
 51
359.9999355605
  0
ARC
  5
666
100
AcDbEntity
  8
ASSI
100
AcDbCircle
 62
7
  6
CONTINUOUS
 10
12.618
 20
0.0
 40
5.85
100
AcDbArc
 50
281.8370041559
 51
258.1629958441
  0
ARC
  5
667
100
AcDbEntity
  8
ASSI
100
AcDbCircle
 62
7
  6
CONTINUOUS
 10
16.118
 20
0.0
 40
0.9
100
AcDbArc
 50
41.8103148958
 51
318.1896851042
  0
ARC
  5
668
100
AcDbEntity
  8
ASSI
100
AcDbCircle
 62
7
  6
CONTINUOUS
 10
15.0928737342
 20
2.4748737342
 40
0.9
100
AcDbArc
 50
86.8103148958
 51
3.1896851042
  0
ARC
  5
669
100
AcDbEntity
  8
ASSI
100
AcDbCircle
 62
7
  6
CONTINUOUS
 10
12.618
 20
3.5
 40
0.9
100
AcDbArc
 50
131.8103148958
 51
48.1896851042
  0
ARC
  5
66A
100
AcDbEntity
  8
ASSI
100
AcDbCircle
 62
7
  6
CONTINUOUS
 10
10.1431262658
 20
2.4748737342
 40
0.9
100
AcDbArc
 50
176.8103148958
 51
93.1896851042
  0
ARC
  5
66B
100
AcDbEntity
  8
ASSI
100
AcDbCircle
 62
7
  6
CONTINUOUS
 10
9.118
 20
0.0
 40
0.9
100
AcDbArc
 50
221.8103148958
 51
138.1896851042
  0
ARC
  5
66C
100
AcDbEntity
  8
RACCORDO
100
AcDbCircle
 62
7
  6
CONTINUOUS
 10
23.250216904
 20
21.8996996272
 40
0.5003655864
100
AcDbArc
 50
0.0213100439
 51
63.4284881755
  0
ARC
  5
66D
100
AcDbEntity
  8
RACCORDO
100
AcDbCircle
 62
7
  6
CONTINUOUS
 10
1.9857831054
 20
21.8996996209
 40
0.5003655864
100
AcDbArc
 50
116.5715124707
 51
179.978689244
  0
ARC
  5
66E
100
AcDbEntity
  8
RACCORDO
100
AcDbCircle
 62
253
  6
CONTINUOUS
 10
23.1170666558
 20
21.4985216786
 40
0.5001723744
100
AcDbArc
 50
0.1018189988
 51
89.9760250166
  0
ARC
  5
66F
100
AcDbEntity
  8
RACCORDO
100
AcDbCircle
 62
253
  6
CONTINUOUS
 10
2.1189333972
 20
21.4985215997
 40
0.5001723744
100
AcDbArc
 50
90.0239810469
 51
179.8981719658
  0
ARC
  5
670
100
AcDbEntity
  8
RACCORDO
100
AcDbCircle
 62
7
  6
CONTINUOUS
 10
1.9855381176
 20
21.9001237906
 40
0.499875135
100
AcDbArc
 50
92.0105361645
 51
116.5681456001
  0
ARC
  5
671
100
AcDbEntity
  8
RACCORDO
100
AcDbCircle
 62
7
  6
CONTINUOUS
 10
23.2504618824
 20
21.9001237906
 40
0.499875135
100
AcDbArc
 50
63.4318543999
 51
87.9894638355
  0
ARC
  5
672
100
AcDbEntity
  8
RACCORDO
100
AcDbCircle
 62
253
  6
CONTINUOUS
 10
23.0048954381
 20
24.2368954381
 40
0.2500059834
100
AcDbArc
 50
0.0023408215
 51
89.9976591785
  0
ARC
  5
673
100
AcDbEntity
  8
RACCORDO
100
AcDbCircle
 62
253
  6
CONTINUOUS
 10
21.131104562
 20
24.236895438
 40
0.2500059834
100
AcDbArc
 50
90.0023408263
 51
179.9976591737
  0
ARC
  5
674
100
AcDbEntity
  8
RACCORDO
100
AcDbCircle
 62
253
  6
CONTINUOUS
 10
2.2311045619
 20
24.2368954381
 40
0.2500059834
100
AcDbArc
 50
90.0023408215
 51
179.9976591785
  0
ARC
  5
675
100
AcDbEntity
  8
RACCORDO
100
AcDbCircle
 62
253
  6
CONTINUOUS
 10
4.104895438
 20
24.236895438
 40
0.2500059834
100
AcDbArc
 50
0.0023408263
 51
89.9976591737
  0
ARC
  5
676
100
AcDbEntity
  8
RACCORDO
100
AcDbCircle
 62
7
  6
CONTINUOUS
 10
23.0180053487
 20
24.2500053487
 40
0.2499946513
100
AcDbArc
 50
359.9997437926
 51
90.0002562074
  0
ARC
  5
677
100
AcDbEntity
  8
RACCORDO
100
AcDbCircle
 62
7
  6
CONTINUOUS
 10
21.1179946513
 20
24.2500053487
 40
0.2499946513
100
AcDbArc
 50
89.9997437926
 51
180.0002562074
  0
ARC
  5
678
100
AcDbEntity
  8
RACCORDO
100
AcDbCircle
 62
7
  6
CONTINUOUS
 10
2.2179946513
 20
24.2500053487
 40
0.2499946513
100
AcDbArc
 50
89.9997437926
 51
180.0002562074
  0
ARC
  5
679
100
AcDbEntity
  8
RACCORDO
100
AcDbCircle
 62
7
  6
CONTINUOUS
 10
4.1180053487
 20
24.2500053487
 40
0.2499946513
100
AcDbArc
 50
359.9997437926
 51
90.0002562074
  0
ARC
  5
67A
100
AcDbEntity
  8
RACCORDO
100
AcDbCircle
 62
253
  6
CONTINUOUS
 10
-223.2928726348
 20
-18.1378119878
 40
191.0093092315
100
AcDbArc
 50
359.8135702044
 51
0.215762145
  0
ARC
  5
67B
100
AcDbEntity
  8
ASSI
100
AcDbCircle
 62
253
  6
CONTINUOUS
 10
-223.2928726348
 20
-18.1378119878
 40
191.0093092315
100
AcDbArc
 50
359.8135702044
 51
0.215762145
  0
ARC
  5
67C
100
AcDbEntity
  8
RACCORDO
100
AcDbCircle
 62
7
  6
CONTINUOUS
 10
-58.3023701545
 20
-21.3126932437
 40
1.0
100
AcDbArc
 50
270.5
 51
360.0
  0
ARC
  5
67D
100
AcDbEntity
  8
ASSI
100
AcDbCircle
 62
7
  6
CONTINUOUS
 10
-60.8023701545
 20
-23.2563578147
 40
0.5
100
AcDbArc
 50
270.3333333333
 51
360.0
  0
ARC
  5
67E
100
AcDbEntity
  8
RACCORDO
100
AcDbCircle
 62
7
  6
CONTINUOUS
 10
-70.0523701545
 20
-22.9783121635
 40
0.25
100
AcDbArc
 50
300.0
 51
360.0
  0
ARC
  5
67F
100
AcDbEntity
  8
RACCORDO
100
AcDbCircle
 62
7
  6
CONTINUOUS
 10
-67.5523701545
 20
-23.8443375673
 40
0.25
100
AcDbArc
 50
0.0
 51
60.0
  0
ARC
  5
680
100
AcDbEntity
  8
RACCORDO
100
AcDbCircle
 62
7
  6
CONTINUOUS
 10
-70.5523701545
 20
-24.2369056521
 40
0.25
100
AcDbArc
 50
180.0
 51
269.6666666667
  0
ARC
  5
681
100
AcDbEntity
  8
RACCORDO
100
AcDbCircle
 62
7
  6
CONTINUOUS
 10
-70.5523701545
 20
-23.8443375673
 40
0.25
100
AcDbArc
 50
120.0
 51
180.0
  0
ARC
  5
682
100
AcDbEntity
  8
RACCORDO
100
AcDbCircle
 62
7
  6
CONTINUOUS
 10
-67.5523701545
 20
-24.2456323968
 40
0.25
100
AcDbArc
 50
270.3333333333
 51
360.0
  0
ARC
  5
683
100
AcDbEntity
  8
RACCORDO
100
AcDbCircle
 62
7
  6
CONTINUOUS
 10
-75.9323186466
 20
-20.4603243306
 40
1.5
100
AcDbArc
 50
182.352296128
 51
232.5694039247
  0
ARC
  5
684
100
AcDbEntity
  8
RACCORDO
100
AcDbCircle
 62
7
  6
CONTINUOUS
 10
-75.8806451091
 20
-20.5007809198
 40
1.5
100
AcDbArc
 50
182.3569499908
 51
267.0
  0
ARC
  5
685
100
AcDbEntity
  8
RACCORDO
100
AcDbCircle
 62
253
  6
CONTINUOUS
 10
-75.8893713065
 20
-20.5007809141
 40
1.0000000061
100
AcDbArc
 50
182.3569503068
 51
266.999999684
  0
ARC
  5
686
100
AcDbEntity
  8
RACCORDO
100
AcDbCircle
 62
7
  6
CONTINUOUS
 10
-32.3023701545
 20
-18.0889203995
 40
1.0
100
AcDbArc
 50
271.0
 51
360.0
  0
ARC
  5
687
100
AcDbEntity
  8
ASSI
100
AcDbCircle
 62
7
  6
CONTINUOUS
 10
-32.3023701545
 20
-18.0889203995
 40
1.0
100
AcDbArc
 50
271.0
 51
360.0
  0
ARC
  5
688
100
AcDbEntity
  8
RACCORDO
100
AcDbCircle
 62
253
  6
CONTINUOUS
 10
-197.0638602941
 20
18.1310980728
 40
164.7804832989
100
AcDbArc
 50
359.7522283689
 51
0.2184392791
  0
ARC
  5
689
100
AcDbEntity
  8
ASSI
100
AcDbCircle
 62
253
  6
CONTINUOUS
 10
-197.0638602941
 20
18.1310980728
 40
164.7804832989
100
AcDbArc
 50
359.7522283689
 51
0.2184392791
  0
ARC
  5
68A
100
AcDbEntity
  8
RACCORDO
100
AcDbCircle
 62
7
  6
CONTINUOUS
 10
-32.3023701545
 20
18.0889203995
 40
1.0
100
AcDbArc
 50
0.0
 51
89.0
  0
ARC
  5
68B
100
AcDbEntity
  8
ASSI
100
AcDbCircle
 62
7
  6
CONTINUOUS
 10
-32.3023701545
 20
18.0889203995
 40
1.0
100
AcDbArc
 50
0.0
 51
89.0
  0
ARC
  5
68C
100
AcDbEntity
  8
RACCORDO
100
AcDbCircle
 62
7
  6
CONTINUOUS
 10
-77.6023701545
 20
13.8
 40
0.2
100
AcDbArc
 50
90.8869186652
 51
180.0
  0
ARC
  5
68D
100
AcDbEntity
  8
RACCORDO
100
AcDbCircle
 62
7
  6
CONTINUOUS
 10
-75.8835946511
 20
20.4292380098
 40
1.5
100
AcDbArc
 50
177.5009774506
 51
177.6512798295
  0
ARC
  5
68E
100
AcDbEntity
  8
RACCORDO
100
AcDbCircle
 62
7
  6
CONTINUOUS
 10
-75.8806451091
 20
20.5007809198
 40
1.5
100
AcDbArc
 50
93.0
 51
177.6430500092
  0
ARC
  5
68F
100
AcDbEntity
  8
RACCORDO
100
AcDbCircle
 62
253
  6
CONTINUOUS
 10
-75.8893713065
 20
20.5007809141
 40
1.000000006
100
AcDbArc
 50
93.0000003145
 51
177.6430496947
  0
ARC
  5
690
100
AcDbEntity
  8
RACCORDO
100
AcDbCircle
 62
7
  6
CONTINUOUS
 10
-58.3023701545
 20
21.3126932437
 40
1.0
100
AcDbArc
 50
0.0
 51
89.5
  0
ARC
  5
691
100
AcDbEntity
  8
ASSI
100
AcDbCircle
 62
7
  6
CONTINUOUS
 10
-60.8023701545
 20
23.2563578147
 40
0.5
100
AcDbArc
 50
0.0
 51
89.6666666667
  0
ARC
  5
692
100
AcDbEntity
  8
RACCORDO
100
AcDbCircle
 62
7
  6
CONTINUOUS
 10
-70.0523701545
 20
22.9783121635
 40
0.25
100
AcDbArc
 50
0.0
 51
60.0
  0
ARC
  5
693
100
AcDbEntity
  8
RACCORDO
100
AcDbCircle
 62
7
  6
CONTINUOUS
 10
-67.5523701545
 20
24.2456323968
 40
0.25
100
AcDbArc
 50
0.0
 51
89.6666666667
  0
ARC
  5
694
100
AcDbEntity
  8
RACCORDO
100
AcDbCircle
 62
7
  6
CONTINUOUS
 10
-67.5523701545
 20
23.8443375673
 40
0.25
100
AcDbArc
 50
300.0
 51
360.0
  0
ARC
  5
695
100
AcDbEntity
  8
RACCORDO
100
AcDbCircle
 62
7
  6
CONTINUOUS
 10
-70.5523701545
 20
24.2369056521
 40
0.25
100
AcDbArc
 50
90.3333333333
 51
180.0
  0
ARC
  5
696
100
AcDbEntity
  8
RACCORDO
100
AcDbCircle
 62
7
  6
CONTINUOUS
 10
-70.5523701545
 20
23.8443375673
 40
0.25
100
AcDbArc
 50
180.0
 51
240.0
  0
ARC
  5
697
100
AcDbEntity
  8
RACCORDO
100
AcDbCircle
 62
7
  6
CONTINUOUS
 10
422.1476198455
 20
-0.0
 40
500.0
100
AcDbArc
 50
181.1345336299
 51
182.352296128
  0
ARC
  5
698
100
AcDbEntity
  8
RACCORDO
100
AcDbCircle
 62
7
  6
CONTINUOUS
 10
422.1976298455
 20
-0.0
 40
500.0
100
AcDbArc
 50
177.6430500092
 51
182.3569499908
  0
ARC
  5
699
100
AcDbEntity
  8
RACCORDO
100
AcDbCircle
 62
253
  6
CONTINUOUS
 10
422.1889224865
 20
-0.0
 40
499.5000188283
100
AcDbArc
 50
177.6430500981
 51
182.3569499019
  0
SPLINE
  5
69A
100
AcDbEntity
  8
RACCORDO
100
AcDbSpline
 62
253
  6
CONTINUOUS
 70
0
 71
3
 72
18
 73
14
 74
12
 42
0.0000001
 43
0.0000001
 44
0.0000000001
 12
0.3108574823
 22
1.4026018464
 32
0.0
 13
0.0006917065
 23
1.436636292
 33
0.0
 40
0.0
 40
0.0
 40
0.0
 40
0.0
 40
0.0095498448
 40
0.0278612792
 40
0.0548141259
 40
0.0901744071
 40
0.1336467284
 40
0.1848664293
 40
0.3087241267
 40
0.4575492249
 40
0.6262598979
 40
0.809176197
 40
1.0
 40
1.0
 40
1.0
 40
1.0
 10
-20.4185220751
 20
-21.9582686327
 30
0.0
 10
-20.4175325282
 20
-21.9538037561
 30
0.0
 10
-20.4166274508
 20
-21.9404257979
 30
0.0
 10
-20.414980506
 20
-21.9142742195
 30
0.0
 10
-20.4136138951
 20
-21.8756629982
 30
0.0
 10
-20.4121228308
 20
-21.8250365142
 30
0.0
 10
-20.4107323299
 20
-21.7627686067
 30
0.0
 10
-20.4088146955
 20
-21.6581288678
 30
0.0
 10
-20.4067589803
 20
-21.5030305319
 30
0.0
 10
-20.4047903537
 20
-21.2916658585
 30
0.0
 10
-20.4032906731
 20
-21.0520141733
 30
0.0
 10
-20.4023136115
 20
-20.7922476547
 30
0.0
 10
-20.4020392442
 20
-20.6132714675
 30
0.0
 10
-20.4019952462
 20
-20.5218900006
 30
0.0
 11
-20.4185220751
 21
-21.9582686327
 31
0.0
 11
-20.4169200564
 21
-21.9446428309
 31
0.0
 11
-20.415337156
 21
-21.9183836218
 31
0.0
 11
-20.4137896892
 21
-21.8796931136
 31
0.0
 11
-20.4122911508
 21
-21.8289153517
 31
0.0
 11
-20.4108534328
 21
-21.7664779806
 31
0.0
 11
-20.4094884249
 21
-21.6929065527
 31
0.0
 11
-20.4070235831
 21
-21.5149851415
 31
0.0
 11
-20.4049811179
 21
-21.3011873355
 31
0.0
 11
-20.4034300113
 21
-21.0588163949
 31
0.0
 11
-20.4024233834
 21
-20.7960340988
 31
0.0
 11
-20.4019952462
 21
-20.5218900006
 31
0.0
  0
SPLINE
  5
69B
100
AcDbEntity
  8
RACCORDO
100
AcDbSpline
 62
253
  6
CONTINUOUS
 70
0
 71
3
 72
18
 73
14
 74
12
 42
0.0000001
 43
0.0000001
 44
0.0000000001
 12
0.3017635457
 22
0.9092022078
 32
0.0
 13
0.0006900396
 23
0.957971511
 33
0.0
 40
0.0
 40
0.0
 40
0.0
 40
0.0
 40
0.0096310512
 40
0.027974723
 40
0.0549450797
 40
0.090315982
 40
0.1337919921
 40
0.1850087736
 40
0.3088494248
 40
0.4576500193
 40
0.6263309103
 40
0.8092122277
 40
1.0
 40
1.0
 40
1.0
 40
1.0
 10
-20.9184459227
 20
-21.4589538653
 30
0.0
 10
-20.917477156
 20
-21.4560350077
 30
0.0
 10
-20.9165381613
 20
-21.4470585021
 30
0.0
 10
-20.9149133616
 20
-21.4296522721
 30
0.0
 10
-20.9135347913
 20
-21.4038886177
 30
0.0
 10
-20.9120481348
 20
-21.3701450242
 30
0.0
 10
-20.910655861
 20
-21.3286302002
 30
0.0
 10
-20.9087392649
 20
-21.2588756315
 30
0.0
 10
-20.9066830502
 20
-21.155477732
 30
0.0
 10
-20.9047144286
 20
-21.0145669232
 30
0.0
 10
-20.9032147615
 20
-20.8547954475
 30
0.0
 10
-20.9022374632
 20
-20.6816126239
 30
0.0
 10
-20.9019629775
 20
-20.5622911941
 30
0.0
 10
-20.9019190938
 20
-20.5013681106
 30
0.0
 11
-20.9184459227
 21
-21.4589538653
 31
0.0
 11
-20.9168438523
 21
-21.4498677483
 31
0.0
 11
-20.9152611783
 21
-21.4323664451
 31
0.0
 11
-20.9137137525
 21
-21.406575986
 31
0.0
 11
-20.9122150781
 21
-21.3727248193
 31
0.0
 11
-20.9107773328
 21
-21.3311008528
 31
0.0
 11
-20.9094124751
 21
-21.2820556098
 31
0.0
 11
-20.9069477488
 21
-21.1634453691
 31
0.0
 11
-20.9049051814
 21
-21.0209132366
 31
0.0
 11
-20.9033540536
 21
-20.8593291515
 31
0.0
 11
-20.902347249
 21
-20.684136907
 31
0.0
 11
-20.9019190938
 21
-20.5013681106
 31
0.0
  0
SPLINE
  5
69C
100
AcDbEntity
  8
RACCORDO
100
AcDbSpline
 62
253
  6
CONTINUOUS
 70
0
 71
3
 72
18
 73
14
 74
12
 42
0.0000001
 43
0.0000001
 44
0.0000000001
 12
0.1959852938
 22
-0.4613683055
 32
0.0
 13
0.5012692091
 23
-0.0003588214
 33
0.0
 40
0.0
 40
0.0
 40
0.0
 40
0.0
 40
0.0075238994
 40
0.0237286542
 40
0.048908214
 40
0.082974341
 40
0.1256154818
 40
0.1764276113
 40
0.3007446894
 40
0.4511997844
 40
0.622246178
 40
0.8076933721
 40
1.0
 40
1.0
 40
1.0
 40
1.0
 10
-20.9019190938
 20
-20.5013681106
 30
0.0
 10
-20.9014275692
 20
-20.5025252068
 30
0.0
 10
-20.897020164
 20
-20.5039085259
 30
0.0
 10
-20.8895724863
 20
-20.5057536977
 30
0.0
 10
-20.8768136066
 20
-20.5075310144
 30
0.0
 10
-20.8600005513
 20
-20.5093580854
 30
0.0
 10
-20.8387210434
 20
-20.5111097065
 30
0.0
 10
-20.80243221
 20
-20.5135194614
 30
0.0
 10
-20.7480751876
 20
-20.5160954438
 30
0.0
 10
-20.6736276598
 20
-20.5185534914
 30
0.0
 10
-20.58893868
 20
-20.5204033704
 30
0.0
 10
-20.4972467471
 20
-20.5215724558
 30
0.0
 10
-20.43412771
 20
-20.5218669993
 30
0.0
 10
-20.4019952462
 20
-20.5218900006
 30
0.0
 11
-20.9019190938
 21
-20.5013681106
 31
0.0
 11
-20.8987123952
 21
-20.5033533806
 31
0.0
 11
-20.8908324043
 21
-20.5053251835
 31
0.0
 11
-20.8783600737
 21
-20.5072615001
 31
0.0
 11
-20.8613874986
 21
-20.5091408304
 31
0.0
 11
-20.8400891236
 21
-20.5109455097
 31
0.0
 11
-20.8146763025
 21
-20.5126595926
 31
0.0
 11
-20.7524368267
 21
-20.5157537484
 31
0.0
 11
-20.6770615897
 21
-20.5183086806
 31
0.0
 11
-20.5913427214
 21
-20.5202261766
 31
0.0
 11
-20.4983915878
 21
-20.521434891
 31
0.0
 11
-20.4019952462
 21
-20.5218900006
 31
0.0
  0
SPLINE
  5
69D
100
AcDbEntity
  8
RACCORDO
100
AcDbSpline
 62
253
  6
CONTINUOUS
 70
0
 71
3
 72
9
 73
5
 74
3
 42
0.0000001
 43
0.0000001
 44
0.0000000001
 12
0.0144850306
 22
20.2217663349
 32
0.0
 13
0.0002116589
 23
20.2217715216
 33
0.0
 40
0.0
 40
0.0
 40
0.0
 40
0.0
 40
0.2499080198
 40
1.0
 40
1.0
 40
1.0
 40
1.0
 10
-20.4019952462
 20
-20.5218900006
 30
0.0
 10
-20.4007886044
 20
-18.8373628066
 30
0.0
 10
-20.3965557941
 20
-12.0967736148
 30
0.0
 10
-20.3947028286
 20
-5.3561829292
 30
0.0
 10
-20.3946499074
 20
-0.300120048
 30
0.0
 11
-20.4019952462
 21
-20.5218900006
 31
0.0
 11
-20.3988216088
 21
-15.4683081188
 31
0.0
 11
-20.3946499074
 21
-0.300120048
 31
0.0
  0
SPLINE
  5
69E
100
AcDbEntity
  8
RACCORDO
100
AcDbSpline
 62
7
  6
CONTINUOUS
 70
0
 71
3
 72
9
 73
5
 74
3
 42
0.0000001
 43
0.0000001
 44
0.0000000001
 12
0.0453067768
 22
-0.0131547191
 32
0.0
 13
0.0434990695
 23
-0.0182642169
 33
0.0
 40
0.0
 40
0.0
 40
0.0
 40
0.0
 40
0.2388210468
 40
1.0
 40
1.0
 40
1.0
 40
1.0
 10
-20.7451436012
 20
-0.1081955432
 30
0.0
 10
-20.741536864
 20
-0.1092427512
 30
0.0
 10
-20.7265164565
 20
-0.1139098636
 30
0.0
 10
-20.7118132431
 20
-0.1195563916
 30
0.0
 10
-20.7007763844
 20
-0.1241905041
 30
0.0
 11
-20.7451436012
 21
-0.1081955432
 31
0.0
 11
-20.7343805764
 21
-0.111527822
 31
0.0
 11
-20.7007763844
 21
-0.1241905041
 31
0.0
  0
SPLINE
  5
69F
100
AcDbEntity
  8
RACCORDO
100
AcDbSpline
 62
7
  6
CONTINUOUS
 70
0
 71
3
 72
10
 73
6
 74
4
 42
0.0000001
 43
0.0000001
 44
0.0000000001
 12
0.3258300621
 22
-0.136808235
 32
0.0
 13
0.2986481281
 23
-0.1889206663
 33
0.0
 40
0.0
 40
0.0
 40
0.0
 40
0.0
 40
0.2295672099
 40
0.4775235625
 40
1.0
 40
1.0
 40
1.0
 40
1.0
 10
-20.7007763844
 20
-0.1241905041
 30
0.0
 10
-20.675843085
 20
-0.134659399
 30
0.0
 10
-20.625457672
 20
-0.1598927597
 30
0.0
 10
-20.5232813424
 20
-0.2185163789
 30
0.0
 10
-20.4466621108
 20
-0.2672178491
 30
0.0
 10
-20.3946499074
 20
-0.300120048
 30
0.0
 11
-20.7007763844
 21
-0.1241905041
 31
0.0
 11
-20.6277663383
 21
-0.1595591032
 31
0.0
 11
-20.5515483967
 21
-0.202789272
 31
0.0
 11
-20.3946499074
 21
-0.300120048
 31
0.0
  0
SPLINE
  5
6A0
100
AcDbEntity
  8
RACCORDO
100
AcDbSpline
 62
7
  6
CONTINUOUS
 70
0
 71
3
 72
9
 73
5
 74
3
 42
0.0000001
 43
0.0000001
 44
0.0000000001
 12
0.006205864
 22
0.2248080655
 32
0.0
 13
0.2037489349
 23
0.0952026816
 33
0.0
 40
0.0
 40
0.0
 40
0.0
 40
0.0
 40
0.4689620294
 40
1.0
 40
1.0
 40
1.0
 40
1.0
 10
-20.8945737569
 20
-0.3
 30
0.0
 10
-20.893603652
 20
-0.2648578511
 30
0.0
 10
-20.8712570722
 20
-0.1892795475
 30
0.0
 10
-20.8112718248
 20
-0.1363484593
 30
0.0
 10
-20.7752056845
 20
-0.1194963797
 30
0.0
 11
-20.8945737569
 21
-0.3
 31
0.0
 11
-20.8643665587
 21
-0.1989518394
 31
0.0
 11
-20.7752056845
 21
-0.1194963797
 31
0.0
  0
SPLINE
  5
6A1
100
AcDbEntity
  8
RACCORDO
100
AcDbSpline
 62
253
  6
CONTINUOUS
 70
0
 71
3
 72
9
 73
5
 74
3
 42
0.0000001
 43
0.0000001
 44
0.0000000001
 12
0.0144849015
 22
20.2013644893
 32
0.0
 13
0.0002117842
 23
20.2013696812
 33
0.0
 40
0.0
 40
0.0
 40
0.0
 40
0.0
 40
0.2499080201
 40
1.0
 40
1.0
 40
1.0
 40
1.0
 10
-20.9019190938
 20
-20.5013681106
 30
0.0
 10
-20.9007124628
 20
-18.8185404432
 30
0.0
 10
-20.8964796848
 20
-12.0847518662
 30
0.0
 10
-20.8946267094
 20
-5.3509617938
 30
0.0
 10
-20.8945737569
 20
-0.3
 30
0.0
 11
-20.9019190938
 21
-20.5013681106
 31
0.0
 11
-20.8987454807
 21
-15.4528848081
 31
0.0
 11
-20.8945737569
 21
-0.3
 31
0.0
  0
SPLINE
  5
6A2
100
AcDbEntity
  8
RACCORDO
100
AcDbSpline
 62
253
  6
CONTINUOUS
 70
0
 71
3
 72
18
 73
14
 74
12
 42
0.0000001
 43
0.0000001
 44
0.0000000001
 12
-0.1961205294
 22
-0.4613106629
 32
0.0
 13
-0.5012690506
 23
-0.0003587784
 33
0.0
 40
0.0
 40
0.0
 40
0.0
 40
0.0
 40
0.0075249767
 40
0.02373084
 40
0.0489113808
 40
0.0829783286
 40
0.1256201136
 40
0.1764327
 40
0.3007500986
 40
0.4512047294
 40
0.622249943
 40
0.8076954012
 40
1.0
 40
1.0
 40
1.0
 40
1.0
 10
1.1379190937
 20
-20.5013681106
 30
0.0
 10
1.1374271596
 20
-20.5025252279
 30
0.0
 10
1.1330196539
 20
-20.5039083792
 30
0.0
 10
1.1255711828
 20
-20.505753668
 30
0.0
 10
1.1128119564
 20
-20.5075309117
 30
0.0
 10
1.095998431
 20
-20.5093579844
 30
0.0
 10
1.0747186294
 20
-20.5111095703
 30
0.0
 10
1.0384295554
 20
-20.5135192828
 30
0.0
 10
0.9840725027
 20
-20.516095212
 30
0.0
 10
0.9096252152
 20
-20.5185532065
 30
0.0
 10
0.824936827
 20
-20.5204030389
 30
0.0
 10
0.7332457489
 20
-20.5215720907
 30
0.0
 10
0.6701273608
 20
-20.5218666224
 30
0.0
 10
0.6379952462
 20
-20.5218896207
 30
0.0
 11
1.1379190937
 21
-20.5013681106
 31
0.0
 11
1.1347117487
 21
-20.5033533601
 31
0.0
 11
1.1268311819
 21
-20.5053251397
 31
0.0
 11
1.1143583537
 21
-20.5072614307
 31
0.0
 11
1.097385367
 21
-20.5091407332
 31
0.0
 11
1.0760866722
 21
-20.5109453833
 31
0.0
 11
1.0506736276
 21
-20.5126594359
 31
0.0
 11
0.9884340076
 21
-20.5157535303
 31
0.0
 11
0.9130590253
 21
-20.5183084044
 31
0.0
 11
0.8273407747
 21
-20.5202258509
 31
0.0
 11
0.7343905403
 21
-20.5214345296
 31
0.0
 11
0.6379952462
 21
-20.5218896207
 31
0.0
  0
SPLINE
  5
6A3
100
AcDbEntity
  8
RACCORDO
100
AcDbSpline
 62
253
  6
CONTINUOUS
 70
0
 71
3
 72
18
 73
14
 74
12
 42
0.0000001
 43
0.0000001
 44
0.0000000001
 12
0.0006917066
 22
-1.436636292
 32
0.0
 13
0.3108574848
 23
-1.4026018459
 33
0.0
 40
0.0
 40
0.0
 40
0.0
 40
0.0
 40
0.190823803
 40
0.3737401021
 40
0.5424507751
 40
0.6912758733
 40
0.8151335707
 40
0.8663532716
 40
0.9098255928
 40
0.9451858741
 40
0.9721387208
 40
0.9904501554
 40
1.0
 40
1.0
 40
1.0
 40
1.0
 10
0.6379952462
 20
-20.5218900006
 30
0.0
 10
0.6380392442
 20
-20.6132714675
 30
0.0
 10
0.6383136115
 20
-20.7922476547
 30
0.0
 10
0.6392906731
 20
-21.0520141733
 30
0.0
 10
0.6407903537
 20
-21.2916658585
 30
0.0
 10
0.6427589802
 20
-21.5030305319
 30
0.0
 10
0.6448146955
 20
-21.6581288678
 30
0.0
 10
0.64673233
 20
-21.7627686067
 30
0.0
 10
0.6481228308
 20
-21.8250365141
 30
0.0
 10
0.6496138951
 20
-21.8756629981
 30
0.0
 10
0.6509805059
 20
-21.9142742196
 30
0.0
 10
0.6526274509
 20
-21.940425798
 30
0.0
 10
0.6535325282
 20
-21.9538037562
 30
0.0
 10
0.6545220751
 20
-21.9582686327
 30
0.0
 11
0.6379952462
 21
-20.5218900006
 31
0.0
 11
0.6384233834
 21
-20.7960340988
 31
0.0
 11
0.6394300113
 21
-21.0588163949
 31
0.0
 11
0.6409811179
 21
-21.3011873355
 31
0.0
 11
0.6430235831
 21
-21.5149851415
 31
0.0
 11
0.6454884249
 21
-21.6929065527
 31
0.0
 11
0.6468534328
 21
-21.7664779807
 31
0.0
 11
0.6482911508
 21
-21.8289153517
 31
0.0
 11
0.6497896892
 21
-21.8796931135
 31
0.0
 11
0.651337156
 21
-21.9183836219
 31
0.0
 11
0.6529200564
 21
-21.9446428312
 31
0.0
 11
0.6545220751
 21
-21.9582686327
 31
0.0
  0
SPLINE
  5
6A4
100
AcDbEntity
  8
RACCORDO
100
AcDbSpline
 62
253
  6
CONTINUOUS
 70
0
 71
3
 72
18
 73
14
 74
12
 42
0.0000001
 43
0.0000001
 44
0.0000000001
 12
0.0006900398
 22
-0.957971511
 32
0.0
 13
0.3017636739
 23
-0.9092021652
 33
0.0
 40
0.0
 40
0.0
 40
0.0
 40
0.0
 40
0.1907877723
 40
0.3736690897
 40
0.5423499807
 40
0.6911505752
 40
0.8149912264
 40
0.8662080079
 40
0.9096840178
 40
0.94505492
 40
0.9720252772
 40
0.9903689497
 40
1.0
 40
1.0
 40
1.0
 40
1.0
 10
1.1379190938
 20
-20.5013681106
 30
0.0
 10
1.1379629775
 20
-20.5622911941
 30
0.0
 10
1.1382374632
 20
-20.6816126239
 30
0.0
 10
1.1392147615
 20
-20.8547954475
 30
0.0
 10
1.1407144286
 20
-21.0145669232
 30
0.0
 10
1.1426830502
 20
-21.155477732
 30
0.0
 10
1.1447392648
 20
-21.2588756315
 30
0.0
 10
1.146655861
 20
-21.3286302002
 30
0.0
 10
1.1480481348
 20
-21.3701450241
 30
0.0
 10
1.1495347913
 20
-21.4038886176
 30
0.0
 10
1.1509133615
 20
-21.4296522724
 30
0.0
 10
1.1525381615
 20
-21.4470585024
 30
0.0
 10
1.1534771556
 20
-21.4560350081
 30
0.0
 10
1.1544459227
 20
-21.4589538653
 30
0.0
 11
1.1379190938
 21
-20.5013681106
 31
0.0
 11
1.138347249
 21
-20.684136907
 31
0.0
 11
1.1393540536
 21
-20.8593291515
 31
0.0
 11
1.1409051814
 21
-21.0209132365
 31
0.0
 11
1.1429477488
 21
-21.1634453691
 31
0.0
 11
1.1454124751
 21
-21.2820556099
 31
0.0
 11
1.1467773328
 21
-21.3311008528
 31
0.0
 11
1.1482150781
 21
-21.3727248191
 31
0.0
 11
1.1497137525
 21
-21.4065759857
 31
0.0
 11
1.1512611783
 21
-21.4323664453
 31
0.0
 11
1.1528438523
 21
-21.4498677492
 31
0.0
 11
1.1544459227
 21
-21.4589538653
 31
0.0
  0
SPLINE
  5
6A5
100
AcDbEntity
  8
RACCORDO
100
AcDbSpline
 62
7
  6
CONTINUOUS
 70
0
 71
3
 72
9
 73
5
 74
3
 42
0.0000001
 43
0.0000001
 44
0.0000000001
 12
0.2009403013
 22
-0.0963984534
 32
0.0
 13
0.0061499357
 23
-0.2227820567
 33
0.0
 40
0.0
 40
0.0
 40
0.0
 40
0.0
 40
0.5305860973
 40
1.0
 40
1.0
 40
1.0
 40
1.0
 10
1.0131095833
 20
-0.1203978394
 30
0.0
 10
1.0486482934
 20
-0.1374470658
 30
0.0
 10
1.1076357959
 20
-0.1902575648
 30
0.0
 10
1.1296114685
 20
-0.2651410018
 30
0.0
 10
1.1305737569
 20
-0.3
 30
0.0
 11
1.0131095833
 21
-0.1203978394
 31
0.0
 11
1.1008245611
 21
-0.1997021079
 31
0.0
 11
1.1305737569
 21
-0.3
 31
0.0
  0
SPLINE
  5
6A6
100
AcDbEntity
  8
RACCORDO
100
AcDbSpline
 62
7
  6
CONTINUOUS
 70
0
 71
3
 72
10
 73
6
 74
4
 42
0.0000001
 43
0.0000001
 44
0.0000000001
 12
0.3070876681
 22
0.1942594023
 32
0.0
 13
0.3376279456
 23
0.1343388315
 33
0.0
 40
0.0
 40
0.0
 40
0.0
 40
0.0
 40
0.5244655429
 40
0.7723840558
 40
1.0
 40
1.0
 40
1.0
 40
1.0
 10
0.6306499074
 20
-0.300120048
 30
0.0
 10
0.684335541
 20
-0.2661592604
 30
0.0
 10
0.7633110798
 20
-0.2159268296
 30
0.0
 10
0.8685694798
 20
-0.1559962815
 30
0.0
 10
0.9204136797
 20
-0.1305976393
 30
0.0
 10
0.9460301809
 20
-0.120405086
 30
0.0
 11
0.6306499074
 21
-0.300120048
 31
0.0
 11
0.7926594508
 21
-0.1997594534
 31
0.0
 11
0.8711930781
 21
-0.1556222344
 31
0.0
 11
0.9460301809
 21
-0.120405086
 31
0.0
  0
SPLINE
  5
6A7
100
AcDbEntity
  8
RACCORDO
100
AcDbSpline
 62
7
  6
CONTINUOUS
 70
0
 71
3
 72
9
 73
5
 74
3
 42
0.0000001
 43
0.0000001
 44
0.0000000001
 12
0.0345487285
 22
0.0137465985
 32
0.0
 13
0.035708418
 23
0.0103678588
 33
0.0
 40
0.0
 40
0.0
 40
0.0
 40
0.0
 40
0.2590185579
 40
1.0
 40
1.0
 40
1.0
 40
1.0
 10
0.9460301809
 20
-0.120405086
 30
0.0
 10
0.9490131015
 20
-0.1192182113
 30
0.0
 10
0.9605727476
 20
-0.1147479625
 30
0.0
 10
0.9723238415
 20
-0.110756339
 30
0.0
 10
0.9811435998
 20
-0.108195542
 30
0.0
 11
0.9460301809
 21
-0.120405086
 31
0.0
 11
0.9550142716
 21
-0.1169345678
 31
0.0
 11
0.9811435998
 21
-0.108195542
 31
0.0
  0
SPLINE
  5
6A8
100
AcDbEntity
  8
RACCORDO
100
AcDbSpline
 62
253
  6
CONTINUOUS
 70
0
 71
3
 72
9
 73
5
 74
3
 42
0.0000001
 43
0.0000001
 44
0.0000000001
 12
0.0002116589
 22
-20.2217715215
 32
0.0
 13
0.0144850306
 23
-20.2217663348
 33
0.0
 40
0.0
 40
0.0
 40
0.0
 40
0.0
 40
0.2500660323
 40
1.0
 40
1.0
 40
1.0
 40
1.0
 10
0.6306499074
 20
-0.300120048
 30
0.0
 10
0.6306675503
 20
-1.9857127713
 30
0.0
 10
0.6313325093
 20
-8.726303259
 30
0.0
 10
0.6343743074
 20
-15.4668935133
 30
0.0
 10
0.6379952462
 20
-20.5218900006
 30
0.0
 11
0.6306499074
 21
-0.300120048
 31
0.0
 11
0.6311487486
 21
-5.3568981935
 31
0.0
 11
0.6379952462
 21
-20.5218900006
 31
0.0
  0
SPLINE
  5
6A9
100
AcDbEntity
  8
RACCORDO
100
AcDbSpline
 62
253
  6
CONTINUOUS
 70
0
 71
3
 72
9
 73
5
 74
3
 42
0.0000001
 43
0.0000001
 44
0.0000000001
 12
0.0002117842
 22
-20.2013696811
 32
0.0
 13
0.0144849015
 23
-20.2013644892
 33
0.0
 40
0.0
 40
0.0
 40
0.0
 40
0.0
 40
0.2500660325
 40
1.0
 40
1.0
 40
1.0
 40
1.0
 10
1.1305737569
 20
-0.3
 30
0.0
 10
1.1305914102
 20
-1.9838921223
 30
0.0
 10
1.1312564004
 20
-8.7176819965
 30
0.0
 10
1.1342981872
 20
-15.451471637
 30
0.0
 10
1.1379190938
 20
-20.5013681106
 30
0.0
 11
1.1305737569
 21
-0.3
 31
0.0
 11
1.1310726214
 21
-5.3516763425
 31
0.0
 11
1.1379190938
 21
-20.5013681106
 31
0.0
  0
SPLINE
  5
6AA
100
AcDbEntity
  8
RACCORDO
100
AcDbSpline
 62
7
  6
CONTINUOUS
 70
0
 71
3
 72
11
 73
7
 74
5
 42
0.0000001
 43
0.0000001
 44
0.0000000001
 12
0.000046534
 22
-0.4699145231
 32
0.0
 13
-0.4699129377
 23
0.0012215431
 33
0.0
 40
0.0
 40
0.0
 40
0.0
 40
0.0
 40
0.2701640221
 40
0.5259584763
 40
0.7672801252
 40
1.0
 40
1.0
 40
1.0
 40
1.0
 10
1.1119382061
 20
0.4654916383
 30
0.0
 10
1.1119423967
 20
0.4231736391
 30
0.0
 10
1.0936758339
 20
0.3396867199
 30
0.0
 10
1.0202521529
 20
0.2404780407
 30
0.0
 10
0.9199832465
 20
0.1801544957
 30
0.0
 10
0.8450066328
 20
0.1671231507
 30
0.0
 10
0.8085539395
 20
0.1672179098
 30
0.0
 11
1.1119382061
 21
0.4654916383
 31
0.0
 11
1.0847167316
 21
0.3414903924
 31
0.0
 11
1.0133796558
 21
0.2447462487
 31
0.0
 11
0.9162487664
 21
0.1862204029
 31
0.0
 11
0.8085539395
 21
0.1672179098
 31
0.0
  0
LINE
  5
6AB
100
AcDbEntity
  8
RACCORDO
100
AcDbLine
 62
7
  6
CONTINUOUS
 10
-15.882
 20
13.5000168539
 11
-15.882
 21
9.999983144
  0
LINE
  5
6AC
100
AcDbEntity
  8
RACCORDO
100
AcDbLine
 62
7
  6
CONTINUOUS
 10
-3.882
 20
13.5000168539
 11
-3.882
 21
9.999983144
  0
SPLINE
  5
6AD
100
AcDbEntity
  8
RACCORDO
100
AcDbSpline
 62
253
  6
CONTINUOUS
 70
0
 71
3
 72
12
 73
8
 74
6
 42
0.0000001
 43
0.0000001
 44
0.0000000001
 12
-0.0007667247
 22
-0.4703880084
 32
0.0
 13
0.4703871661
 23
0.001174817
 33
0.0
 40
0.0
 40
0.0
 40
0.0
 40
0.0
 40
0.2697001498
 40
0.526059409
 40
0.7666228473
 40
0.8822803159
 40
1.0
 40
1.0
 40
1.0
 40
1.0
 10
-20.8759382061
 20
0.4654916383
 30
0.0
 10
-20.8760071347
 20
0.4232037328
 30
0.0
 10
-20.8575928992
 20
0.3396515753
 30
0.0
 10
-20.7843305766
 20
0.2403030517
 30
0.0
 10
-20.6996708467
 20
0.1899389684
 30
0.0
 10
-20.6277454098
 20
0.1700496815
 30
0.0
 10
-20.5910118824
 20
0.1671718101
 30
0.0
 10
-20.5725539395
 20
0.1672179098
 30
0.0
 11
-20.8759382061
 21
0.4654916383
 31
0.0
 11
-20.848752163
 21
0.3415748745
 31
0.0
 11
-20.777182148
 21
0.2445217199
 31
0.0
 11
-20.6802059152
 21
0.1862086621
 31
0.0
 11
-20.6277351352
 21
0.1718347985
 31
0.0
 11
-20.5725539395
 21
0.1672179098
 31
0.0
  0
SPLINE
  5
6AE
100
AcDbEntity
  8
RACCORDO
100
AcDbSpline
 62
253
  6
CONTINUOUS
 70
0
 71
3
 72
13
 73
9
 74
7
 42
0.0000001
 43
0.0000001
 44
0.0000000001
 12
-0.0017374098
 22
-0.3921233184
 32
0.0
 13
-0.3920464518
 23
-0.0079558183
 33
0.0
 40
0.0
 40
0.0
 40
0.0
 40
0.0
 40
0.3185639058
 40
0.5924888045
 40
0.708916319
 40
0.8129293351
 40
0.9120535526
 40
1.0
 40
1.0
 40
1.0
 40
1.0
 10
-20.3760203222
 20
0.4674869789
 30
0.0
 10
-20.3762048142
 20
0.4258482003
 30
0.0
 10
-20.3871359802
 20
0.3480905986
 30
0.0
 10
-20.4259526326
 20
0.2619399168
 30
0.0
 10
-20.4680955131
 20
0.2125466111
 30
0.0
 10
-20.5011184415
 20
0.1862597781
 30
0.0
 10
-20.536697081
 20
0.1716741717
 30
0.0
 10
-20.5610609086
 20
0.1674511384
 30
0.0
 10
-20.5725539395
 20
0.1672179098
 30
0.0
 11
-20.3760203222
 21
0.4674869789
 31
0.0
 11
-20.3941780203
 21
0.3438961406
 31
0.0
 11
-20.4404375669
 21
0.2469544484
 31
0.0
 11
-20.4702662466
 21
0.2123918483
 31
0.0
 11
-20.5026297361
 21
0.1875698981
 31
0.0
 11
-20.5384840551
 21
0.1725602285
 31
0.0
 11
-20.5725539395
 21
0.1672179098
 31
0.0
  0
SPLINE
  5
6AF
100
AcDbEntity
  8
RACCORDO
100
AcDbSpline
 62
253
  6
CONTINUOUS
 70
0
 71
3
 72
18
 73
14
 74
12
 42
0.0000001
 43
0.0000001
 44
0.0000000001
 12
-0.5012652671
 22
-0.0003582729
 32
0.0
 13
-0.1962367204
 23
-0.4612571365
 33
0.0
 40
0.0
 40
0.0
 40
0.0
 40
0.0
 40
0.1923081286
 40
0.3777567288
 40
0.5488043344
 40
0.6992603487
 40
0.8235779395
 40
0.8743901202
 40
0.9170311365
 40
0.9510969071
 40
0.976275768
 40
0.9924792039
 40
1.0
 40
1.0
 40
1.0
 40
1.0
 10
-20.3833352665
 20
20.4907101402
 30
0.0
 10
-20.4154677283
 20
20.490687174
 30
0.0
 10
-20.4785867545
 20
20.4903930783
 30
0.0
 10
-20.5702786735
 20
20.4892257682
 30
0.0
 10
-20.6549676363
 20
20.4873787041
 30
0.0
 10
-20.729415134
 20
20.484924381
 30
0.0
 10
-20.7837721623
 20
20.4823523419
 30
0.0
 10
-20.8200610014
 20
20.479946203
 30
0.0
 10
-20.8413405295
 20
20.4781973437
 30
0.0
 10
-20.8581534248
 20
20.4763727944
 30
0.0
 10
-20.8709124589
 20
20.4745988219
 30
0.0
 10
-20.8783593059
 20
20.4727553522
 30
0.0
 10
-20.8827671619
 20
20.4713757704
 30
0.0
 10
-20.883259114
 20
20.4702194301
 30
0.0
 11
-20.3833352665
 21
20.4907101402
 31
0.0
 11
-20.4797316055
 21
20.4902557222
 31
0.0
 11
-20.5726827366
 21
20.4890488442
 31
0.0
 11
-20.6584016032
 21
20.4871342615
 31
0.0
 11
-20.7337768393
 21
20.4845832109
 31
0.0
 11
-20.7960163153
 21
20.4814937562
 31
0.0
 11
-20.8214291368
 21
20.4797822777
 31
0.0
 11
-20.8427275126
 21
20.4779803403
 31
0.0
 11
-20.8597000889
 21
20.4761038654
 31
0.0
 11
-20.8721724209
 21
20.4741704907
 31
0.0
 11
-20.8800524135
 21
20.4722016837
 31
0.0
 11
-20.883259114
 21
20.4702194301
 31
0.0
  0
SPLINE
  5
6B0
100
AcDbEntity
  8
RACCORDO
100
AcDbSpline
 62
253
  6
CONTINUOUS
 70
0
 71
3
 72
9
 73
5
 74
3
 42
0.0000001
 43
0.0000001
 44
0.0000000001
 12
0.0143220757
 22
-20.004724285
 32
0.0
 13
0.0003254121
 23
-20.0047294092
 33
0.0
 40
0.0
 40
0.0
 40
0.0
 40
0.0
 40
0.2499085354
 40
1.0
 40
1.0
 40
1.0
 40
1.0
 10
-20.883259114
 20
20.4702194301
 30
0.0
 10
-20.8820660444
 20
18.8037689813
 30
0.0
 10
-20.8778760008
 20
12.1355271476
 30
0.0
 10
-20.876019671
 20
5.4672838481
 30
0.0
 10
-20.875938308
 20
0.4654915873
 30
0.0
 11
-20.883259114
 21
20.4702194301
 31
0.0
 11
-20.8801175395
 21
15.4708677897
 31
0.0
 11
-20.875938308
 21
0.4654915873
 31
0.0
  0
SPLINE
  5
6B1
100
AcDbEntity
  8
RACCORDO
100
AcDbSpline
 62
253
  6
CONTINUOUS
 70
0
 71
3
 72
9
 73
5
 74
3
 42
0.0000001
 43
0.0000001
 44
0.0000000001
 12
0.0143209818
 22
-20.0232196076
 32
0.0
 13
0.0003264556
 23
-20.0232247262
 33
0.0
 40
0.0
 40
0.0
 40
0.0
 40
0.0
 40
0.2499085376
 40
1.0
 40
1.0
 40
1.0
 40
1.0
 10
-20.3833352665
 20
20.4907101402
 30
0.0
 10
-20.3821422879
 20
18.8227189638
 30
0.0
 10
-20.3779525197
 20
12.148312023
 30
0.0
 10
-20.3760961092
 20
5.4739036181
 30
0.0
 10
-20.3760144854
 20
0.4674869789
 30
0.0
 11
-20.3833352665
 21
20.4907101402
 31
0.0
 11
-20.3801938984
 21
15.4867363171
 31
0.0
 11
-20.3760144854
 21
0.4674869789
 31
0.0
  0
SPLINE
  5
6B2
100
AcDbEntity
  8
RACCORDO
100
AcDbSpline
 62
253
  6
CONTINUOUS
 70
0
 71
3
 72
13
 73
9
 74
7
 42
0.0000001
 43
0.0000001
 44
0.0000000001
 12
-0.0005041326
 22
-0.3922420913
 32
0.0
 13
0.3921638998
 23
-0.0078478023
 33
0.0
 40
0.0
 40
0.0
 40
0.0
 40
0.0
 40
0.3185269981
 40
0.5918622562
 40
0.7086299528
 40
0.8128481218
 40
0.9118621421
 40
1.0
 40
1.0
 40
1.0
 40
1.0
 10
0.6120203222
 20
0.4674869789
 30
0.0
 10
0.6119667956
 20
0.4258404136
 30
0.0
 10
0.6244208665
 20
0.3485541121
 30
0.0
 10
0.6609666562
 20
0.2613291117
 30
0.0
 10
0.7039367959
 20
0.2125191635
 30
0.0
 10
0.7370302748
 20
0.1862894378
 30
0.0
 10
0.772644203
 20
0.1716427072
 30
0.0
 10
0.7970324441
 20
0.1674484726
 30
0.0
 10
0.8085539395
 20
0.1672179098
 30
0.0
 11
0.6120203222
 21
0.4674869789
 31
0.0
 11
0.6306054249
 21
0.3439372021
 31
0.0
 11
0.6758124112
 21
0.2467204239
 31
0.0
 11
0.706045093
 21
0.2123149179
 31
0.0
 11
0.7385738533
 21
0.1875569914
 31
0.0
 11
0.7743970271
 21
0.1725552746
 31
0.0
 11
0.8085539395
 21
0.1672179098
 31
0.0
  0
SPLINE
  5
6B3
100
AcDbEntity
  8
RACCORDO
100
AcDbSpline
 62
253
  6
CONTINUOUS
 70
0
 71
3
 72
18
 73
14
 74
12
 42
0.0000001
 43
0.0000001
 44
0.0000000001
 12
-0.4760991662
 22
0.1524607368
 32
0.0
 13
-0.499909416
 23
0.0022952398
 33
0.0
 40
0.0
 40
0.0
 40
0.0
 40
0.0
 40
0.0064338379
 40
0.022205093
 40
0.0471618701
 40
0.0811212262
 40
0.1237338774
 40
0.174576281
 40
0.2990872635
 40
0.4498620303
 40
0.6213119503
 40
0.8072145304
 40
1.0
 40
1.0
 40
1.0
 40
1.0
 10
1.1119190601
 20
0.4654916291
 30
0.0
 10
1.1108980119
 20
0.4658185983
 30
0.0
 10
1.1071076376
 20
0.4656213307
 30
0.0
 10
1.0993297605
 20
0.4661059808
 30
0.0
 10
1.0868427967
 20
0.466095785
 30
0.0
 10
1.0699425138
 20
0.4662941866
 30
0.0
 10
1.0487039687
 20
0.4663723031
 30
0.0
 10
1.0123857232
 20
0.4665046726
 30
0.0
 10
0.9580384921
 20
0.4665993389
 30
0.0
 10
0.8835961087
 20
0.4667137115
 30
0.0
 10
0.798922557
 20
0.4668628592
 30
0.0
 10
0.7072489116
 20
0.4671001114
 30
0.0
 10
0.6441454113
 20
0.4673382801
 30
0.0
 10
0.6120203208
 20
0.4674857764
 30
0.0
 11
1.1119190601
 21
0.4654916291
 31
0.0
 11
1.1087122943
 21
0.4657400013
 31
0.0
 11
1.1008307562
 21
0.4659479947
 31
0.0
 11
1.0883556704
 21
0.4661191156
 31
0.0
 11
1.0713794502
 21
0.4662570795
 31
0.0
 11
1.0500770445
 21
0.4663671449
 31
0.0
 11
1.024660333
 21
0.4664552607
 31
0.0
 11
0.9624156098
 21
0.4665897861
 31
0.0
 11
0.8870411873
 21
0.4667110643
 31
0.0
 11
0.8013310018
 21
0.4668699468
 31
0.0
 11
0.7083958956
 21
0.467115183
 31
0.0
 11
0.6120203208
 21
0.4674857764
 31
0.0
  0
SPLINE
  5
6B4
100
AcDbEntity
  8
RACCORDO
100
AcDbSpline
 62
253
  6
CONTINUOUS
 70
0
 71
3
 72
18
 73
14
 74
12
 42
0.0000001
 43
0.0000001
 44
0.0000000001
 12
-0.19623672
 22
0.4612571366
 32
0.0
 13
-0.5012652671
 23
0.0003582728
 33
0.0
 40
0.0
 40
0.0
 40
0.0
 40
0.0
 40
0.0075207961
 40
0.023724232
 40
0.0489030929
 40
0.0829688635
 40
0.1256098798
 40
0.1764220605
 40
0.3007396513
 40
0.4511956656
 40
0.6222432711
 40
0.8076918714
 40
1.0
 40
1.0
 40
1.0
 40
1.0
 10
1.119259114
 20
20.4702194301
 30
0.0
 10
1.1187671619
 20
20.4713757704
 30
0.0
 10
1.1143593059
 20
20.4727553522
 30
0.0
 10
1.1069124589
 20
20.4745988219
 30
0.0
 10
1.0941534248
 20
20.4763727944
 30
0.0
 10
1.0773405296
 20
20.4781973437
 30
0.0
 10
1.0560610014
 20
20.479946203
 30
0.0
 10
1.0197721623
 20
20.4823523419
 30
0.0
 10
0.965415134
 20
20.484924381
 30
0.0
 10
0.8909676363
 20
20.4873787041
 30
0.0
 10
0.8062786735
 20
20.4892257682
 30
0.0
 10
0.7145867545
 20
20.4903930783
 30
0.0
 10
0.6514677283
 20
20.490687174
 30
0.0
 10
0.6193352665
 20
20.4907101402
 30
0.0
 11
1.119259114
 21
20.4702194301
 31
0.0
 11
1.1160524135
 21
20.4722016837
 31
0.0
 11
1.1081724209
 21
20.4741704907
 31
0.0
 11
1.0957000889
 21
20.4761038654
 31
0.0
 11
1.0787275126
 21
20.4779803403
 31
0.0
 11
1.0574291368
 21
20.4797822777
 31
0.0
 11
1.0320163153
 21
20.4814937562
 31
0.0
 11
0.9697768393
 21
20.4845832109
 31
0.0
 11
0.8944016032
 21
20.4871342615
 31
0.0
 11
0.8086827366
 21
20.4890488442
 31
0.0
 11
0.7157316055
 21
20.4902557222
 31
0.0
 11
0.6193352665
 21
20.4907101402
 31
0.0
  0
SPLINE
  5
6B5
100
AcDbEntity
  8
RACCORDO
100
AcDbSpline
 62
253
  6
CONTINUOUS
 70
0
 71
3
 72
9
 73
5
 74
3
 42
0.0000001
 43
0.0000001
 44
0.0000000001
 12
-0.0143209819
 22
-20.0232196076
 32
0.0
 13
-0.0003264553
 23
-20.0232247262
 33
0.0
 40
0.0
 40
0.0
 40
0.0
 40
0.0
 40
0.2499085376
 40
1.0
 40
1.0
 40
1.0
 40
1.0
 10
0.6193352665
 20
20.4907101402
 30
0.0
 10
0.6181422879
 20
18.8227189638
 30
0.0
 10
0.6139525198
 20
12.148312023
 30
0.0
 10
0.6120961091
 20
5.4739036181
 30
0.0
 10
0.6120144854
 20
0.4674869789
 30
0.0
 11
0.6193352665
 21
20.4907101402
 31
0.0
 11
0.6161938984
 21
15.4867363171
 31
0.0
 11
0.6120144854
 21
0.4674869789
 31
0.0
  0
SPLINE
  5
6B6
100
AcDbEntity
  8
RACCORDO
100
AcDbSpline
 62
253
  6
CONTINUOUS
 70
0
 71
3
 72
9
 73
5
 74
3
 42
0.0000001
 43
0.0000001
 44
0.0000000001
 12
-0.0143220757
 22
-20.004724285
 32
0.0
 13
-0.0003254128
 23
-20.0047294092
 33
0.0
 40
0.0
 40
0.0
 40
0.0
 40
0.0
 40
0.2499085354
 40
1.0
 40
1.0
 40
1.0
 40
1.0
 10
1.119259114
 20
20.4702194301
 30
0.0
 10
1.1180660444
 20
18.8037689813
 30
0.0
 10
1.1138760008
 20
12.1355271476
 30
0.0
 10
1.1120196712
 20
5.4672838481
 30
0.0
 10
1.111938308
 20
0.4654915873
 30
0.0
 11
1.119259114
 21
20.4702194301
 31
0.0
 11
1.1161175395
 21
15.4708677896
 31
0.0
 11
1.111938308
 21
0.4654915873
 31
0.0
  0
SPLINE
  5
6B7
100
AcDbEntity
  8
RACCORDO
100
AcDbSpline
 62
253
  6
CONTINUOUS
 70
0
 71
3
 72
18
 73
14
 74
12
 42
0.0000001
 43
0.0000001
 44
0.0000000001
 12
-0.3109325607
 22
-1.4026810164
 32
0.0
 13
-0.0006902003
 23
-1.4367298336
 33
0.0
 40
0.0
 40
0.0
 40
0.0
 40
0.0
 40
0.0095500105
 40
0.0278614225
 40
0.0548144568
 40
0.0901751771
 40
0.1336480475
 40
0.1848683218
 40
0.3087271746
 40
0.4575531505
 40
0.6262639267
 40
0.8091790724
 40
1.0
 40
1.0
 40
1.0
 40
1.0
 10
0.63586214
 20
21.927182312
 30
0.0
 10
0.634872337
 20
21.9227171058
 30
0.0
 10
0.6339673422
 20
21.9093381537
 30
0.0
 10
0.6323205069
 20
21.8831847322
 30
0.0
 10
0.6309539401
 20
21.8445706889
 30
0.0
 10
0.6294627469
 20
21.7939403521
 30
0.0
 10
0.6280721643
 20
21.7316676398
 30
0.0
 10
0.6261545119
 20
21.6270199956
 30
0.0
 10
0.6240988046
 20
21.4719103103
 30
0.0
 10
0.6221300715
 20
21.2605308517
 30
0.0
 10
0.6206303784
 20
21.0208636443
 30
0.0
 10
0.6196535128
 20
20.7610820913
 30
0.0
 10
0.619379168
 20
20.5820961801
 30
0.0
 10
0.6193352665
 20
20.4907101402
 30
0.0
 11
0.63586214
 21
21.927182312
 31
0.0
 11
0.6342599113
 21
21.9135553957
 31
0.0
 11
0.6326771327
 21
21.8872944955
 31
0.0
 11
0.6311297127
 21
21.8486011925
 31
0.0
 11
0.6296310866
 21
21.797819493
 31
0.0
 11
0.628193282
 21
21.7353772673
 31
0.0
 11
0.6268282472
 21
21.661800224
 31
0.0
 11
0.6243633884
 21
21.483865566
 31
0.0
 11
0.622320851
 21
21.2700525776
 31
0.0
 11
0.6207697438
 21
21.0276657071
 31
0.0
 11
0.6197632521
 21
20.7648679573
 31
0.0
 11
0.6193352665
 21
20.4907101402
 31
0.0
  0
SPLINE
  5
6B8
100
AcDbEntity
  8
RACCORDO
100
AcDbSpline
 62
253
  6
CONTINUOUS
 70
0
 71
3
 72
18
 73
14
 74
12
 42
0.0000001
 43
0.0000001
 44
0.0000000001
 12
-0.3017578998
 22
-0.9092697842
 32
0.0
 13
-0.0006889812
 23
-0.9580338699
 33
0.0
 40
0.0
 40
0.0
 40
0.0
 40
0.0
 40
0.0096309929
 40
0.0279745374
 40
0.0549455948
 40
0.090317593
 40
0.1337942039
 40
0.1850108258
 40
0.3088519825
 40
0.4576533418
 40
0.6263338168
 40
0.8092147621
 40
1.0
 40
1.0
 40
1.0
 40
1.0
 10
1.1357859876
 20
21.4278675446
 30
0.0
 10
1.1348172449
 20
21.4249484876
 30
0.0
 10
1.1338780917
 20
21.4159714993
 30
0.0
 10
1.1322532818
 20
21.398563939
 30
0.0
 10
1.130874665
 20
21.3727980823
 30
0.0
 10
1.1293879827
 20
21.3390515186
 30
0.0
 10
1.1279956549
 20
21.2975335017
 30
0.0
 10
1.1260789659
 20
21.2277740882
 30
0.0
 10
1.1240227367
 20
21.1243691015
 30
0.0
 10
1.1220541097
 20
20.9834488455
 30
0.0
 10
1.1205544693
 20
20.823666976
 30
0.0
 10
1.1195773303
 20
20.6504739389
 30
0.0
 10
1.1193029299
 20
20.53114567
 30
0.0
 10
1.119259114
 20
20.4702194301
 30
0.0
 11
1.1357859876
 21
21.4278675446
 31
0.0
 11
1.1341838515
 21
21.4187808861
 31
0.0
 11
1.1326011174
 21
21.4012785621
 31
0.0
 11
1.1310536391
 21
21.3754857489
 31
0.0
 11
1.1295549148
 21
21.3416313255
 31
0.0
 11
1.1281171198
 21
21.3000040721
 31
0.0
 11
1.1267522152
 21
21.2509557885
 31
0.0
 11
1.124287439
 21
21.1323373402
 31
0.0
 11
1.1222448621
 21
20.9897951952
 31
0.0
 11
1.1206937791
 21
20.8282009891
 31
0.0
 11
1.1196871049
 21
20.652997696
 31
0.0
 11
1.119259114
 21
20.4702194301
 31
0.0
  0
SPLINE
  5
6B9
100
AcDbEntity
  8
RACCORDO
100
AcDbSpline
 62
253
  6
CONTINUOUS
 70
0
 71
3
 72
18
 73
14
 74
12
 42
0.0000001
 43
0.0000001
 44
0.0000000001
 12
0.3018073812
 22
-0.9092533641
 32
0.0
 13
0.0006889307
 23
-0.9580338725
 33
0.0
 40
0.0
 40
0.0
 40
0.0
 40
0.0
 40
0.0096308337
 40
0.0279747759
 40
0.0549455897
 40
0.090316974
 40
0.1337934193
 40
0.1850105828
 40
0.3088522914
 40
0.4576535501
 40
0.6263341931
 40
0.8092148164
 40
1.0
 40
1.0
 40
1.0
 40
1.0
 10
-20.8997859876
 20
21.4278675446
 30
0.0
 10
-20.898817102
 20
21.4249485886
 30
0.0
 10
-20.8978781831
 20
21.4159714342
 30
0.0
 10
-20.8962532526
 20
21.3985639361
 30
0.0
 10
-20.8948746705
 20
21.3727981998
 30
0.0
 10
-20.8933879459
 20
21.3390519748
 30
0.0
 10
-20.8919956307
 20
21.2975340295
 30
0.0
 10
-20.8900789707
 20
21.2277743203
 30
0.0
 10
-20.8880227347
 20
21.1243690154
 30
0.0
 10
-20.8860541054
 20
20.9834485617
 30
0.0
 10
-20.8845544821
 20
20.8236667728
 30
0.0
 10
-20.8835773242
 20
20.650473802
 30
0.0
 10
-20.8833029266
 20
20.5311456529
 30
0.0
 10
-20.883259114
 20
20.4702194301
 30
0.0
 11
-20.8997859876
 21
21.4278675446
 31
0.0
 11
-20.8981838496
 21
21.4187810413
 31
0.0
 11
-20.8966011107
 21
21.4012783352
 31
0.0
 11
-20.8950536252
 21
21.3754857561
 31
0.0
 11
-20.8935548971
 21
21.3416319215
 31
0.0
 11
-20.8921171039
 21
21.3000048267
 31
0.0
 11
-20.8907522058
 21
21.2509560236
 31
0.0
 11
-20.8882874338
 21
21.1323370461
 31
0.0
 11
-20.8862448611
 21
20.9897949971
 31
0.0
 11
-20.8846937847
 21
20.8282006295
 31
0.0
 11
-20.8836871032
 21
20.6529976445
 31
0.0
 11
-20.883259114
 21
20.4702194301
 31
0.0
  0
SPLINE
  5
6BA
100
AcDbEntity
  8
RACCORDO
100
AcDbSpline
 62
253
  6
CONTINUOUS
 70
0
 71
3
 72
18
 73
14
 74
12
 42
0.0000001
 43
0.0000001
 44
0.0000000001
 12
0.3108891367
 22
-1.4026906388
 32
0.0
 13
0.0006901954
 23
-1.436729831
 33
0.0
 40
0.0
 40
0.0
 40
0.0
 40
0.0
 40
0.0095497302
 40
0.0278613586
 40
0.0548145316
 40
0.0901752162
 40
0.1336480335
 40
0.1848683091
 40
0.3087271904
 40
0.4575531584
 40
0.6262639321
 40
0.8091790788
 40
1.0
 40
1.0
 40
1.0
 40
1.0
 10
-20.39986214
 20
21.927182312
 30
0.0
 10
-20.3988725042
 20
21.9227172062
 30
0.0
 10
-20.3979674702
 20
21.9093383191
 30
0.0
 10
-20.396320417
 20
21.8831848537
 30
0.0
 10
-20.3949537797
 20
21.8445706681
 30
0.0
 10
-20.3934626503
 20
21.793940302
 30
0.0
 10
-20.3920721146
 20
21.7316676321
 30
0.0
 10
-20.3901544444
 20
21.627019999
 30
0.0
 10
-20.3880987143
 20
21.4719103041
 30
0.0
 10
-20.3861300449
 20
21.2605308365
 30
0.0
 10
-20.3846303958
 20
21.0208636339
 30
0.0
 10
-20.3836534943
 20
20.7610820852
 30
0.0
 10
-20.3833791677
 20
20.5820961768
 30
0.0
 10
-20.3833352665
 20
20.4907101402
 30
0.0
 11
-20.39986214
 21
21.927182312
 31
0.0
 11
-20.39826006
 21
21.9135557837
 31
0.0
 11
-20.3966770991
 21
21.8872945831
 31
0.0
 11
-20.3951295729
 21
21.8486010849
 31
0.0
 11
-20.3936309807
 21
21.7978194359
 31
0.0
 11
-20.3921932214
 21
21.7353772856
 31
0.0
 11
-20.3908281861
 21
21.6618002404
 31
0.0
 11
-20.3883633117
 21
21.4838655421
 31
0.0
 11
-20.3863208176
 21
21.2700525651
 31
0.0
 11
-20.3847697476
 21
21.0276656984
 31
0.0
 11
-20.3837632444
 21
20.7648679476
 31
0.0
 11
-20.3833352665
 21
20.4907101402
 31
0.0
  0
SPLINE
  5
6BB
100
AcDbEntity
  8
RACCORDO
100
AcDbSpline
 62
253
  6
CONTINUOUS
 70
0
 71
3
 72
18
 73
14
 74
12
 42
0.0000001
 43
0.0000001
 44
0.0000000001
 12
-0.499830293
 22
-0.0023669314
 32
0.0
 13
-0.4750207799
 23
-0.1555351498
 33
0.0
 40
0.0
 40
0.0
 40
0.0
 40
0.0
 40
0.1928328411
 40
0.3787708841
 40
0.5502358656
 40
0.7010033065
 40
0.8254898089
 40
0.8763165453
 40
0.91891338
 40
0.9528583778
 40
0.977803825
 40
0.9935678738
 40
1.0
 40
1.0
 40
1.0
 40
1.0
 10
-20.3760203223
 20
0.467486968
 30
0.0
 10
-20.4081482208
 20
0.4673348273
 30
0.0
 10
-20.4712555578
 20
0.467090591
 30
0.0
 10
-20.5629310592
 20
0.466851361
 30
0.0
 10
-20.6475984807
 20
0.4667054618
 30
0.0
 10
-20.7220263184
 20
0.4665972117
 30
0.0
 10
-20.7763571645
 20
0.4665085251
 30
0.0
 10
-20.8126602468
 20
0.4663794436
 30
0.0
 10
-20.8338880924
 20
0.4663033703
 30
0.0
 10
-20.8507780601
 20
0.4661041133
 30
0.0
 10
-20.8632593114
 20
0.4661163961
 30
0.0
 10
-20.8710292539
 20
0.4656238328
 30
0.0
 10
-20.8748213162
 20
0.4658247705
 30
0.0
 10
-20.8758397807
 20
0.4654912966
 30
0.0
 11
-20.3760203223
 21
0.467486968
 31
0.0
 11
-20.4724043486
 21
0.4671067646
 31
0.0
 11
-20.5653425278
 21
0.4668593531
 31
0.0
 11
-20.6510467392
 21
0.4667036055
 31
0.0
 11
-20.7264056301
 21
0.4665883943
 31
0.0
 11
-20.7886283207
 21
0.4664601708
 31
0.0
 11
-20.8140332034
 21
0.4663744328
 31
0.0
 11
-20.8353243534
 21
0.4662658182
 31
0.0
 11
-20.8522907228
 21
0.4661280787
 31
0.0
 11
-20.8647581608
 21
0.4659556773
 31
0.0
 11
-20.8726347722
 21
0.4657446623
 31
0.0
 11
-20.8758397807
 21
0.4654912966
 31
0.0
  0
SPLINE
  5
6BC
100
AcDbEntity
  8
RACCORDO
100
AcDbSpline
 62
253
  6
CONTINUOUS
 70
0
 71
3
 72
9
 73
5
 74
3
 42
0.0000001
 43
0.0000001
 44
0.0000000001
 12
0.0130402161
 22
0.4328461123
 32
0.0
 13
0.0000083429
 23
0.4330424969
 33
0.0
 40
0.0
 40
0.0
 40
0.0
 40
0.0
 40
0.1835371995
 40
1.0
 40
1.0
 40
1.0
 40
1.0
 10
0.7417412444
 20
-23.4113248654
 30
0.0
 10
0.7425390326
 20
-23.3848437443
 30
0.0
 10
0.7455072078
 20
-23.2405227375
 30
0.0
 10
0.7461027401
 20
-23.0961665268
 30
0.0
 10
0.7461050106
 20
-22.9783121635
 30
0.0
 11
0.7417412444
 21
-23.4113248654
 31
0.0
 11
0.7435486491
 21
-23.3318660116
 31
0.0
 11
0.7461050106
 21
-22.9783121635
 31
0.0
  0
SPLINE
  5
6BD
100
AcDbEntity
  8
RACCORDO
100
AcDbSpline
 62
253
  6
CONTINUOUS
 70
0
 71
3
 72
9
 73
5
 74
3
 42
0.0000001
 43
0.0000001
 44
0.0000000001
 12
0.0134832305
 22
0.2161473685
 32
0.0
 13
0.0000773686
 23
0.216567487
 33
0.0
 40
0.0
 40
0.0
 40
0.0
 40
0.0
 40
0.4227073014
 40
1.0
 40
1.0
 40
1.0
 40
1.0
 10
0.4917793206
 20
-23.1948185145
 30
0.0
 10
0.4936791406
 20
-23.1643628242
 30
0.0
 10
0.4954295024
 20
-23.0921656862
 30
0.0
 10
0.4961281987
 20
-23.0199864399
 30
0.0
 10
0.4961430868
 20
-22.9783121635
 30
0.0
 11
0.4917793206
 21
-23.1948185145
 31
0.0
 11
0.4949710089
 21
-23.1033295063
 31
0.0
 11
0.4961430868
 21
-22.9783121635
 31
0.0
  0
SPLINE
  5
6BE
100
AcDbEntity
  8
RACCORDO
100
AcDbSpline
 62
253
  6
CONTINUOUS
 70
0
 71
3
 72
9
 73
5
 74
3
 42
0.0000001
 43
0.0000001
 44
0.0000000001
 12
-0.0134832262
 22
0.2161473688
 32
0.0
 13
-0.0000773675
 23
0.216567487
 33
0.0
 40
0.0
 40
0.0
 40
0.0
 40
0.0
 40
0.4227072993
 40
1.0
 40
1.0
 40
1.0
 40
1.0
 10
-1.3557793206
 20
-23.1948185145
 30
0.0
 10
-1.35767914
 20
-23.1643628243
 30
0.0
 10
-1.3594295024
 20
-23.0921656863
 30
0.0
 10
-1.3601281989
 20
-23.01998644
 30
0.0
 10
-1.3601430868
 20
-22.9783121635
 30
0.0
 11
-1.3557793206
 21
-23.1948185145
 31
0.0
 11
-1.3589710087
 21
-23.1033295068
 31
0.0
 11
-1.3601430868
 21
-22.9783121635
 31
0.0
  0
SPLINE
  5
6BF
100
AcDbEntity
  8
RACCORDO
100
AcDbSpline
 62
253
  6
CONTINUOUS
 70
0
 71
3
 72
9
 73
5
 74
3
 42
0.0000001
 43
0.0000001
 44
0.0000000001
 12
0.0000085126
 22
-0.4330402743
 32
0.0
 13
0.0130403931
 23
-0.4328438834
 33
0.0
 40
0.0
 40
0.0
 40
0.0
 40
0.0
 40
0.2988563759
 40
1.0
 40
1.0
 40
1.0
 40
1.0
 10
-1.6101050106
 20
-22.9783121635
 30
0.0
 10
-1.6101041626
 20
-23.0214511125
 30
0.0
 10
-1.6096767384
 20
-23.1657931492
 30
0.0
 10
-1.6087889739
 20
-23.3101629557
 30
0.0
 10
-1.6057412444
 20
-23.4113248654
 30
0.0
 11
-1.6101050106
 21
-22.9783121635
 31
0.0
 11
-1.6098075704
 21
-23.1077286687
 31
0.0
 11
-1.6057412444
 21
-23.4113248654
 31
0.0
  0
SPLINE
  5
6C0
100
AcDbEntity
  8
RACCORDO
100
AcDbSpline
 62
253
  6
CONTINUOUS
 70
0
 71
3
 72
11
 73
7
 74
5
 42
0.0000001
 43
0.0000001
 44
0.0000000001
 12
0.0036623496
 22
0.363522472
 32
0.0
 13
0.3635305362
 23
0.0027476601
 33
0.0
 40
0.0
 40
0.0
 40
0.0
 40
0.0
 40
0.2330733965
 40
0.4768398981
 40
0.7341134915
 40
1.0
 40
1.0
 40
1.0
 40
1.0
 10
-1.5926499457
 20
-23.8443375673
 30
0.0
 10
-1.5923654136
 20
-23.8160950949
 30
0.0
 10
-1.5781125183
 20
-23.7577516522
 30
0.0
 10
-1.5211626638
 20
-23.6863330231
 30
0.0
 10
-1.4387625116
 20
-23.6392590205
 30
0.0
 10
-1.3749073102
 20
-23.6280747383
 30
0.0
 10
-1.3426880219
 20
-23.6278312164
 30
0.0
 11
-1.5926499457
 21
-23.8443375673
 31
0.0
 11
-1.5729995835
 21
-23.761915925
 31
0.0
 11
-1.5186685009
 21
-23.6919053683
 31
0.0
 11
-1.4378388658
 21
-23.6448486633
 31
0.0
 11
-1.3426880219
 21
-23.6278312164
 31
0.0
  0
SPLINE
  5
6C1
100
AcDbEntity
  8
RACCORDO
100
AcDbSpline
 62
253
  6
CONTINUOUS
 70
0
 71
3
 72
11
 73
7
 74
5
 42
0.0000001
 43
0.0000001
 44
0.0000000001
 12
0.0036623495
 22
0.3635224582
 32
0.0
 13
0.3635305224
 23
0.00274766
 33
0.0
 40
0.0
 40
0.0
 40
0.0
 40
0.0
 40
0.2330683197
 40
0.4768288801
 40
0.7340988475
 40
1.0
 40
1.0
 40
1.0
 40
1.0
 10
-1.6057412444
 20
-23.4113248654
 30
0.0
 10
-1.6054567185
 20
-23.3830830092
 30
0.0
 10
-1.5912046422
 20
-23.3247409034
 30
0.0
 10
-1.5342568503
 20
-23.2533229769
 30
0.0
 10
-1.4518569306
 20
-23.2062475396
 30
0.0
 10
-1.3880003822
 20
-23.1950620497
 30
0.0
 10
-1.3557793206
 20
-23.1948185144
 30
0.0
 11
-1.6057412444
 21
-23.4113248654
 31
0.0
 11
-1.5860918085
 21
-23.3289049029
 31
0.0
 11
-1.5317629256
 21
-23.2588953774
 31
0.0
 11
-1.4509352012
 21
-23.2118380174
 31
0.0
 11
-1.3557793206
 21
-23.1948185144
 31
0.0
  0
SPLINE
  5
6C2
100
AcDbEntity
  8
RACCORDO
100
AcDbSpline
 62
253
  6
CONTINUOUS
 70
0
 71
3
 72
11
 73
7
 74
5
 42
0.0000001
 43
0.0000001
 44
0.0000000001
 12
0.0036623496
 22
0.363522472
 32
0.0
 13
0.3635305362
 23
0.0027476601
 33
0.0
 40
0.0
 40
0.0
 40
0.0
 40
0.0
 40
0.2330733965
 40
0.4768398981
 40
0.7341134915
 40
1.0
 40
1.0
 40
1.0
 40
1.0
 10
-20.4926499457
 20
-23.8443375673
 30
0.0
 10
-20.4923654136
 20
-23.8160950949
 30
0.0
 10
-20.4781125183
 20
-23.7577516522
 30
0.0
 10
-20.4211626638
 20
-23.6863330231
 30
0.0
 10
-20.3387625116
 20
-23.6392590205
 30
0.0
 10
-20.2749073102
 20
-23.6280747383
 30
0.0
 10
-20.2426880219
 20
-23.6278312164
 30
0.0
 11
-20.4926499457
 21
-23.8443375673
 31
0.0
 11
-20.4729995835
 21
-23.761915925
 31
0.0
 11
-20.4186685009
 21
-23.6919053683
 31
0.0
 11
-20.3378388658
 21
-23.6448486633
 31
0.0
 11
-20.2426880219
 21
-23.6278312164
 31
0.0
  0
SPLINE
  5
6C3
100
AcDbEntity
  8
RACCORDO
100
AcDbSpline
 62
253
  6
CONTINUOUS
 70
0
 71
3
 72
11
 73
7
 74
5
 42
0.0000001
 43
0.0000001
 44
0.0000000001
 12
0.0036623495
 22
0.3635224582
 32
0.0
 13
0.3635305224
 23
0.00274766
 33
0.0
 40
0.0
 40
0.0
 40
0.0
 40
0.0
 40
0.2330683197
 40
0.4768288801
 40
0.7340988475
 40
1.0
 40
1.0
 40
1.0
 40
1.0
 10
-20.5057412444
 20
-23.4113248654
 30
0.0
 10
-20.5054567185
 20
-23.3830830092
 30
0.0
 10
-20.4912046422
 20
-23.3247409034
 30
0.0
 10
-20.4342568503
 20
-23.2533229769
 30
0.0
 10
-20.3518569306
 20
-23.2062475396
 30
0.0
 10
-20.2880003822
 20
-23.1950620497
 30
0.0
 10
-20.2557793206
 20
-23.1948185144
 30
0.0
 11
-20.5057412444
 21
-23.4113248654
 31
0.0
 11
-20.4860918085
 21
-23.3289049029
 31
0.0
 11
-20.4317629256
 21
-23.2588953774
 31
0.0
 11
-20.3509352012
 21
-23.2118380174
 31
0.0
 11
-20.2557793206
 21
-23.1948185144
 31
0.0
  0
SPLINE
  5
6C4
100
AcDbEntity
  8
RACCORDO
100
AcDbSpline
 62
253
  6
CONTINUOUS
 70
0
 71
3
 72
11
 73
7
 74
5
 42
0.0000001
 43
0.0000001
 44
0.0000000001
 12
-0.0036623494
 22
0.3635224584
 32
0.0
 13
-0.3635305227
 23
0.0027476588
 33
0.0
 40
0.0
 40
0.0
 40
0.0
 40
0.0
 40
0.2330683205
 40
0.4768288809
 40
0.7340988478
 40
1.0
 40
1.0
 40
1.0
 40
1.0
 10
-18.1582587556
 20
-23.4113248654
 30
0.0
 10
-18.1585432815
 20
-23.3830830091
 30
0.0
 10
-18.1727953577
 20
-23.3247409031
 30
0.0
 10
-18.2297431497
 20
-23.2533229765
 30
0.0
 10
-18.3121430694
 20
-23.2062475393
 30
0.0
 10
-18.3759996178
 20
-23.1950620496
 30
0.0
 10
-18.4082206794
 20
-23.1948185144
 30
0.0
 11
-18.1582587556
 21
-23.4113248654
 31
0.0
 11
-18.1779081915
 21
-23.3289049025
 31
0.0
 11
-18.2322370744
 21
-23.258895377
 31
0.0
 11
-18.3130647988
 21
-23.2118380172
 31
0.0
 11
-18.4082206794
 21
-23.1948185144
 31
0.0
  0
SPLINE
  5
6C5
100
AcDbEntity
  8
RACCORDO
100
AcDbSpline
 62
253
  6
CONTINUOUS
 70
0
 71
3
 72
11
 73
7
 74
5
 42
0.0000001
 43
0.0000001
 44
0.0000000001
 12
-0.0036623495
 22
0.3635224582
 32
0.0
 13
-0.3635305224
 23
0.00274766
 33
0.0
 40
0.0
 40
0.0
 40
0.0
 40
0.0
 40
0.2330683206
 40
0.4768288809
 40
0.7340988478
 40
1.0
 40
1.0
 40
1.0
 40
1.0
 10
-18.1713500543
 20
-23.8443375673
 30
0.0
 10
-18.1716345802
 20
-23.816095711
 30
0.0
 10
-18.1858866566
 20
-23.7577536051
 30
0.0
 10
-18.2428344486
 20
-23.6863356787
 30
0.0
 10
-18.3252343682
 20
-23.6392602415
 30
0.0
 10
-18.3890909165
 20
-23.6280747517
 30
0.0
 10
-18.4213119781
 20
-23.6278312164
 30
0.0
 11
-18.1713500543
 21
-23.8443375673
 31
0.0
 11
-18.1909994904
 21
-23.7619176045
 31
0.0
 11
-18.2453283733
 21
-23.6919080791
 31
0.0
 11
-18.3261560976
 21
-23.6448507193
 31
0.0
 11
-18.4213119781
 21
-23.6278312164
 31
0.0
  0
SPLINE
  5
6C6
100
AcDbEntity
  8
RACCORDO
100
AcDbSpline
 62
253
  6
CONTINUOUS
 70
0
 71
3
 72
9
 73
5
 74
3
 42
0.0000001
 43
0.0000001
 44
0.0000000001
 12
0.0130402161
 22
0.4328461123
 32
0.0
 13
0.0000083429
 23
0.4330424969
 33
0.0
 40
0.0
 40
0.0
 40
0.0
 40
0.0
 40
0.1835371995
 40
1.0
 40
1.0
 40
1.0
 40
1.0
 10
-18.1582587556
 20
-23.4113248654
 30
0.0
 10
-18.1574609674
 20
-23.3848437443
 30
0.0
 10
-18.1544927922
 20
-23.2405227375
 30
0.0
 10
-18.1538972599
 20
-23.0961665268
 30
0.0
 10
-18.1538949894
 20
-22.9783121635
 30
0.0
 11
-18.1582587556
 21
-23.4113248654
 31
0.0
 11
-18.1564513509
 21
-23.3318660116
 31
0.0
 11
-18.1538949894
 21
-22.9783121635
 31
0.0
  0
SPLINE
  5
6C7
100
AcDbEntity
  8
RACCORDO
100
AcDbSpline
 62
253
  6
CONTINUOUS
 70
0
 71
3
 72
9
 73
5
 74
3
 42
0.0000001
 43
0.0000001
 44
0.0000000001
 12
0.0134832305
 22
0.2161473685
 32
0.0
 13
0.0000773686
 23
0.216567487
 33
0.0
 40
0.0
 40
0.0
 40
0.0
 40
0.0
 40
0.4227073014
 40
1.0
 40
1.0
 40
1.0
 40
1.0
 10
-18.4082206794
 20
-23.1948185145
 30
0.0
 10
-18.4063208594
 20
-23.1643628242
 30
0.0
 10
-18.4045704976
 20
-23.0921656862
 30
0.0
 10
-18.4038718013
 20
-23.0199864399
 30
0.0
 10
-18.4038569132
 20
-22.9783121635
 30
0.0
 11
-18.4082206794
 21
-23.1948185145
 31
0.0
 11
-18.4050289911
 21
-23.1033295063
 31
0.0
 11
-18.4038569132
 21
-22.9783121635
 31
0.0
  0
SPLINE
  5
6C8
100
AcDbEntity
  8
RACCORDO
100
AcDbSpline
 62
253
  6
CONTINUOUS
 70
0
 71
3
 72
9
 73
5
 74
3
 42
0.0000001
 43
0.0000001
 44
0.0000000001
 12
-0.0134832262
 22
0.2161473688
 32
0.0
 13
-0.0000773675
 23
0.216567487
 33
0.0
 40
0.0
 40
0.0
 40
0.0
 40
0.0
 40
0.4227072993
 40
1.0
 40
1.0
 40
1.0
 40
1.0
 10
-20.2557793206
 20
-23.1948185145
 30
0.0
 10
-20.25767914
 20
-23.1643628243
 30
0.0
 10
-20.2594295024
 20
-23.0921656863
 30
0.0
 10
-20.2601281989
 20
-23.01998644
 30
0.0
 10
-20.2601430868
 20
-22.9783121635
 30
0.0
 11
-20.2557793206
 21
-23.1948185145
 31
0.0
 11
-20.2589710087
 21
-23.1033295068
 31
0.0
 11
-20.2601430868
 21
-22.9783121635
 31
0.0
  0
SPLINE
  5
6C9
100
AcDbEntity
  8
RACCORDO
100
AcDbSpline
 62
253
  6
CONTINUOUS
 70
0
 71
3
 72
9
 73
5
 74
3
 42
0.0000001
 43
0.0000001
 44
0.0000000001
 12
0.0000085126
 22
-0.4330402743
 32
0.0
 13
0.0130403931
 23
-0.4328438834
 33
0.0
 40
0.0
 40
0.0
 40
0.0
 40
0.0
 40
0.2988563759
 40
1.0
 40
1.0
 40
1.0
 40
1.0
 10
-20.5101050106
 20
-22.9783121635
 30
0.0
 10
-20.5101041626
 20
-23.0214511125
 30
0.0
 10
-20.5096767384
 20
-23.1657931492
 30
0.0
 10
-20.5087889739
 20
-23.3101629557
 30
0.0
 10
-20.5057412444
 20
-23.4113248654
 30
0.0
 11
-20.5101050106
 21
-22.9783121635
 31
0.0
 11
-20.5098075704
 21
-23.1077286687
 31
0.0
 11
-20.5057412444
 21
-23.4113248654
 31
0.0
  0
SPLINE
  5
6CA
100
AcDbEntity
  8
RACCORDO
100
AcDbSpline
 62
253
  6
CONTINUOUS
 70
0
 71
3
 72
11
 73
7
 74
5
 42
0.0000001
 43
0.0000001
 44
0.0000000001
 12
0.0036623495
 22
-0.3635224584
 32
0.0
 13
0.3635305227
 23
-0.0027476592
 33
0.0
 40
0.0
 40
0.0
 40
0.0
 40
0.0
 40
0.2330683143
 40
0.4768288747
 40
0.7340988451
 40
1.0
 40
1.0
 40
1.0
 40
1.0
 10
-20.5057412444
 20
23.4113248654
 30
0.0
 10
-20.5054567185
 20
23.3830830098
 30
0.0
 10
-20.491204643
 20
23.3247409046
 30
0.0
 10
-20.4342568517
 20
23.2533229778
 30
0.0
 10
-20.3518569317
 20
23.2062475397
 30
0.0
 10
-20.2880003825
 20
23.1950620497
 30
0.0
 10
-20.2557793206
 20
23.1948185144
 30
0.0
 11
-20.5057412444
 21
23.4113248654
 31
0.0
 11
-20.4860918095
 21
23.3289049046
 31
0.0
 11
-20.4317629273
 21
23.2588953786
 31
0.0
 11
-20.3509352021
 21
23.2118380176
 31
0.0
 11
-20.2557793206
 21
23.1948185144
 31
0.0
  0
SPLINE
  5
6CB
100
AcDbEntity
  8
RACCORDO
100
AcDbSpline
 62
253
  6
CONTINUOUS
 70
0
 71
3
 72
11
 73
7
 74
5
 42
0.0000001
 43
0.0000001
 44
0.0000000001
 12
0.0036623504
 22
-0.363522545
 32
0.0
 13
0.3635306093
 23
-0.0027476606
 33
0.0
 40
0.0
 40
0.0
 40
0.0
 40
0.0
 40
0.2330560226
 40
0.4768188714
 40
0.7340946499
 40
1.0
 40
1.0
 40
1.0
 40
1.0
 10
-20.4926499457
 20
23.8443375673
 30
0.0
 10
-20.4923654348
 20
23.8160971945
 30
0.0
 10
-20.4781148203
 20
23.7577562482
 30
0.0
 10
-20.4211682361
 20
23.6863377391
 30
0.0
 10
-20.3387673955
 20
23.6392607402
 30
0.0
 10
-20.2749095999
 20
23.6280747556
 30
0.0
 10
-20.2426880219
 20
23.6278312164
 30
0.0
 11
-20.4926499457
 21
23.8443375673
 31
0.0
 11
-20.4730027148
 21
23.7619216541
 31
0.0
 11
-20.4186744786
 21
23.691910547
 31
0.0
 11
-20.3378453679
 21
23.6448513251
 31
0.0
 11
-20.2426880219
 21
23.6278312164
 31
0.0
  0
SPLINE
  5
6CC
100
AcDbEntity
  8
RACCORDO
100
AcDbSpline
 62
253
  6
CONTINUOUS
 70
0
 71
3
 72
9
 73
5
 74
3
 42
0.0000001
 43
0.0000001
 44
0.0000000001
 12
-0.0130694726
 22
-0.4328452312
 32
0.0
 13
-0.0000226207
 23
-0.4330424976
 33
0.0
 40
0.0
 40
0.0
 40
0.0
 40
0.0
 40
0.1835327344
 40
1.0
 40
1.0
 40
1.0
 40
1.0
 10
-20.5057412444
 20
23.4113248654
 30
0.0
 10
-20.5065408031
 20
23.3848444425
 30
0.0
 10
-20.5095039574
 20
23.2405232682
 30
0.0
 10
-20.5100988543
 20
23.0961671715
 30
0.0
 10
-20.5101050106
 20
22.9783121635
 30
0.0
 11
-20.5057412444
 21
23.4113248654
 31
0.0
 11
-20.5075487017
 21
23.3318679466
 31
0.0
 11
-20.5101050106
 21
22.9783121635
 31
0.0
  0
SPLINE
  5
6CD
100
AcDbEntity
  8
RACCORDO
100
AcDbSpline
 62
253
  6
CONTINUOUS
 70
0
 71
3
 72
9
 73
5
 74
3
 42
0.0000001
 43
0.0000001
 44
0.0000000001
 12
-0.0000826033
 22
0.2165674943
 32
0.0
 13
-0.0134937708
 23
0.21614672
 33
0.0
 40
0.0
 40
0.0
 40
0.0
 40
0.0
 40
0.5773023633
 40
1.0
 40
1.0
 40
1.0
 40
1.0
 10
-18.4038569132
 20
22.9783121635
 30
0.0
 10
-18.4038728089
 20
23.0199871389
 30
0.0
 10
-18.4045704211
 20
23.0921663389
 30
0.0
 10
-18.4063194177
 20
23.1643636119
 30
0.0
 10
-18.4082206794
 20
23.1948185145
 30
0.0
 11
-18.4038569132
 21
22.9783121635
 31
0.0
 11
-18.4050286786
 21
23.1033316077
 31
0.0
 11
-18.4082206794
 21
23.1948185145
 31
0.0
  0
SPLINE
  5
6CE
100
AcDbEntity
  8
RACCORDO
100
AcDbSpline
 62
253
  6
CONTINUOUS
 70
0
 71
3
 72
9
 73
5
 74
3
 42
0.0000001
 43
0.0000001
 44
0.0000000001
 12
0.0000826051
 22
0.2165674943
 32
0.0
 13
0.0134937783
 23
0.2161467195
 33
0.0
 40
0.0
 40
0.0
 40
0.0
 40
0.0
 40
0.5773023612
 40
1.0
 40
1.0
 40
1.0
 40
1.0
 10
-20.2601430868
 20
22.9783121635
 30
0.0
 10
-20.2601271908
 20
23.0199871388
 30
0.0
 10
-20.2594295786
 20
23.0921663387
 30
0.0
 10
-20.2576805833
 20
23.1643636118
 30
0.0
 10
-20.2557793206
 20
23.1948185145
 30
0.0
 11
-20.2601430868
 21
22.9783121635
 31
0.0
 11
-20.2589713216
 21
23.1033316072
 31
0.0
 11
-20.2557793206
 21
23.1948185145
 31
0.0
  0
SPLINE
  5
6CF
100
AcDbEntity
  8
RACCORDO
100
AcDbSpline
 62
253
  6
CONTINUOUS
 70
0
 71
3
 72
9
 73
5
 74
3
 42
0.0000001
 43
0.0000001
 44
0.0000000001
 12
-0.0000227395
 22
0.433040273
 32
0.0
 13
-0.0130697524
 23
0.4328429971
 33
0.0
 40
0.0
 40
0.0
 40
0.0
 40
0.0
 40
0.2988527377
 40
1.0
 40
1.0
 40
1.0
 40
1.0
 10
-18.1538949894
 20
22.9783121635
 30
0.0
 10
-18.1538972546
 20
23.0214505872
 30
0.0
 10
-18.1543232087
 20
23.1657925792
 30
0.0
 10
-18.1552041486
 20
23.3101626379
 30
0.0
 10
-18.1582587556
 20
23.4113248654
 30
0.0
 11
-18.1538949894
 21
22.9783121635
 31
0.0
 11
-18.1541924858
 21
23.1077270929
 31
0.0
 11
-18.1582587556
 21
23.4113248654
 31
0.0
  0
SPLINE
  5
6D0
100
AcDbEntity
  8
RACCORDO
100
AcDbSpline
 62
253
  6
CONTINUOUS
 70
0
 71
3
 72
11
 73
7
 74
5
 42
0.0000001
 43
0.0000001
 44
0.0000000001
 12
-0.0036623496
 22
-0.363522472
 32
0.0
 13
-0.3635305362
 23
-0.0027476601
 33
0.0
 40
0.0
 40
0.0
 40
0.0
 40
0.0
 40
0.2330733965
 40
0.4768398981
 40
0.7341134915
 40
1.0
 40
1.0
 40
1.0
 40
1.0
 10
-18.1713500543
 20
23.8443375673
 30
0.0
 10
-18.1716345864
 20
23.8160950949
 30
0.0
 10
-18.1858874817
 20
23.7577516522
 30
0.0
 10
-18.2428373362
 20
23.6863330231
 30
0.0
 10
-18.3252374884
 20
23.6392590205
 30
0.0
 10
-18.3890926898
 20
23.6280747383
 30
0.0
 10
-18.4213119781
 20
23.6278312164
 30
0.0
 11
-18.1713500543
 21
23.8443375673
 31
0.0
 11
-18.1910004165
 21
23.761915925
 31
0.0
 11
-18.2453314991
 21
23.6919053683
 31
0.0
 11
-18.3261611342
 21
23.6448486633
 31
0.0
 11
-18.4213119781
 21
23.6278312164
 31
0.0
  0
SPLINE
  5
6D1
100
AcDbEntity
  8
RACCORDO
100
AcDbSpline
 62
253
  6
CONTINUOUS
 70
0
 71
3
 72
11
 73
7
 74
5
 42
0.0000001
 43
0.0000001
 44
0.0000000001
 12
-0.0036623495
 22
-0.3635224582
 32
0.0
 13
-0.3635305225
 23
-0.00274766
 33
0.0
 40
0.0
 40
0.0
 40
0.0
 40
0.0
 40
0.2330683138
 40
0.4768288741
 40
0.7340988448
 40
1.0
 40
1.0
 40
1.0
 40
1.0
 10
-18.1582587556
 20
23.4113248654
 30
0.0
 10
-18.1585432815
 20
23.3830830099
 30
0.0
 10
-18.172795357
 20
23.3247409048
 30
0.0
 10
-18.2297431483
 20
23.2533229781
 30
0.0
 10
-18.3121430683
 20
23.2062475399
 30
0.0
 10
-18.3759996174
 20
23.1950620498
 30
0.0
 10
-18.4082206794
 20
23.1948185144
 30
0.0
 11
-18.1582587556
 21
23.4113248654
 31
0.0
 11
-18.1779081904
 21
23.3289049048
 31
0.0
 11
-18.2322370727
 21
23.2588953789
 31
0.0
 11
-18.3130647979
 21
23.2118380178
 31
0.0
 11
-18.4082206794
 21
23.1948185144
 31
0.0
  0
SPLINE
  5
6D2
100
AcDbEntity
  8
RACCORDO
100
AcDbSpline
 62
253
  6
CONTINUOUS
 70
0
 71
3
 72
11
 73
7
 74
5
 42
0.0000001
 43
0.0000001
 44
0.0000000001
 12
0.0036623495
 22
-0.3635224584
 32
0.0
 13
0.3635305227
 23
-0.0027476592
 33
0.0
 40
0.0
 40
0.0
 40
0.0
 40
0.0
 40
0.2330683143
 40
0.4768288747
 40
0.7340988451
 40
1.0
 40
1.0
 40
1.0
 40
1.0
 10
-1.6057412444
 20
23.4113248654
 30
0.0
 10
-1.6054567185
 20
23.3830830098
 30
0.0
 10
-1.591204643
 20
23.3247409046
 30
0.0
 10
-1.5342568517
 20
23.2533229778
 30
0.0
 10
-1.4518569317
 20
23.2062475397
 30
0.0
 10
-1.3880003825
 20
23.1950620497
 30
0.0
 10
-1.3557793206
 20
23.1948185144
 30
0.0
 11
-1.6057412444
 21
23.4113248654
 31
0.0
 11
-1.5860918095
 21
23.3289049046
 31
0.0
 11
-1.5317629273
 21
23.2588953786
 31
0.0
 11
-1.4509352021
 21
23.2118380176
 31
0.0
 11
-1.3557793206
 21
23.1948185144
 31
0.0
  0
SPLINE
  5
6D3
100
AcDbEntity
  8
RACCORDO
100
AcDbSpline
 62
253
  6
CONTINUOUS
 70
0
 71
3
 72
11
 73
7
 74
5
 42
0.0000001
 43
0.0000001
 44
0.0000000001
 12
0.0036623496
 22
-0.363522472
 32
0.0
 13
0.3635305362
 23
-0.0027476601
 33
0.0
 40
0.0
 40
0.0
 40
0.0
 40
0.0
 40
0.2330733965
 40
0.4768398981
 40
0.7341134915
 40
1.0
 40
1.0
 40
1.0
 40
1.0
 10
-1.5926499457
 20
23.8443375673
 30
0.0
 10
-1.5923654136
 20
23.8160950949
 30
0.0
 10
-1.5781125183
 20
23.7577516522
 30
0.0
 10
-1.5211626638
 20
23.6863330231
 30
0.0
 10
-1.4387625116
 20
23.6392590205
 30
0.0
 10
-1.3749073102
 20
23.6280747383
 30
0.0
 10
-1.3426880219
 20
23.6278312164
 30
0.0
 11
-1.5926499457
 21
23.8443375673
 31
0.0
 11
-1.5729995835
 21
23.761915925
 31
0.0
 11
-1.5186685009
 21
23.6919053683
 31
0.0
 11
-1.4378388658
 21
23.6448486633
 31
0.0
 11
-1.3426880219
 21
23.6278312164
 31
0.0
  0
SPLINE
  5
6D4
100
AcDbEntity
  8
RACCORDO
100
AcDbSpline
 62
253
  6
CONTINUOUS
 70
0
 71
3
 72
11
 73
7
 74
5
 42
0.0000001
 43
0.0000001
 44
0.0000000001
 12
-0.0036623496
 22
-0.363522472
 32
0.0
 13
-0.3635305362
 23
-0.0027476601
 33
0.0
 40
0.0
 40
0.0
 40
0.0
 40
0.0
 40
0.2330733965
 40
0.4768398981
 40
0.7341134915
 40
1.0
 40
1.0
 40
1.0
 40
1.0
 10
0.7286499457
 20
23.8443375673
 30
0.0
 10
0.7283654136
 20
23.8160950949
 30
0.0
 10
0.7141125183
 20
23.7577516522
 30
0.0
 10
0.6571626638
 20
23.6863330231
 30
0.0
 10
0.5747625116
 20
23.6392590205
 30
0.0
 10
0.5109073102
 20
23.6280747383
 30
0.0
 10
0.4786880219
 20
23.6278312164
 30
0.0
 11
0.7286499457
 21
23.8443375673
 31
0.0
 11
0.7089995835
 21
23.761915925
 31
0.0
 11
0.6546685009
 21
23.6919053683
 31
0.0
 11
0.5738388658
 21
23.6448486633
 31
0.0
 11
0.4786880219
 21
23.6278312164
 31
0.0
  0
SPLINE
  5
6D5
100
AcDbEntity
  8
RACCORDO
100
AcDbSpline
 62
253
  6
CONTINUOUS
 70
0
 71
3
 72
11
 73
7
 74
5
 42
0.0000001
 43
0.0000001
 44
0.0000000001
 12
-0.0036623495
 22
-0.3635224582
 32
0.0
 13
-0.3635305225
 23
-0.00274766
 33
0.0
 40
0.0
 40
0.0
 40
0.0
 40
0.0
 40
0.2330683138
 40
0.4768288741
 40
0.7340988448
 40
1.0
 40
1.0
 40
1.0
 40
1.0
 10
0.7417412444
 20
23.4113248654
 30
0.0
 10
0.7414567185
 20
23.3830830099
 30
0.0
 10
0.727204643
 20
23.3247409048
 30
0.0
 10
0.6702568517
 20
23.2533229781
 30
0.0
 10
0.5878569317
 20
23.2062475399
 30
0.0
 10
0.5240003826
 20
23.1950620498
 30
0.0
 10
0.4917793206
 20
23.1948185144
 30
0.0
 11
0.7417412444
 21
23.4113248654
 31
0.0
 11
0.7220918096
 21
23.3289049048
 31
0.0
 11
0.6677629273
 21
23.2588953789
 31
0.0
 11
0.5869352021
 21
23.2118380178
 31
0.0
 11
0.4917793206
 21
23.1948185144
 31
0.0
  0
SPLINE
  5
6D6
100
AcDbEntity
  8
RACCORDO
100
AcDbSpline
 62
253
  6
CONTINUOUS
 70
0
 71
3
 72
9
 73
5
 74
3
 42
0.0000001
 43
0.0000001
 44
0.0000000001
 12
-0.0000227395
 22
0.433040273
 32
0.0
 13
-0.0130697524
 23
0.4328429971
 33
0.0
 40
0.0
 40
0.0
 40
0.0
 40
0.0
 40
0.2988527377
 40
1.0
 40
1.0
 40
1.0
 40
1.0
 10
0.7461050106
 20
22.9783121635
 30
0.0
 10
0.7461027454
 20
23.0214505872
 30
0.0
 10
0.7456767913
 20
23.1657925792
 30
0.0
 10
0.7447958514
 20
23.3101626379
 30
0.0
 10
0.7417412444
 20
23.4113248654
 30
0.0
 11
0.7461050106
 21
22.9783121635
 31
0.0
 11
0.7458075142
 21
23.1077270929
 31
0.0
 11
0.7417412444
 21
23.4113248654
 31
0.0
  0
SPLINE
  5
6D7
100
AcDbEntity
  8
RACCORDO
100
AcDbSpline
 62
253
  6
CONTINUOUS
 70
0
 71
3
 72
9
 73
5
 74
3
 42
0.0000001
 43
0.0000001
 44
0.0000000001
 12
-0.0000826033
 22
0.2165674943
 32
0.0
 13
-0.0134937708
 23
0.21614672
 33
0.0
 40
0.0
 40
0.0
 40
0.0
 40
0.0
 40
0.5773023633
 40
1.0
 40
1.0
 40
1.0
 40
1.0
 10
0.4961430868
 20
22.9783121635
 30
0.0
 10
0.4961271911
 20
23.0199871389
 30
0.0
 10
0.4954295789
 20
23.0921663389
 30
0.0
 10
0.4936805823
 20
23.1643636119
 30
0.0
 10
0.4917793206
 20
23.1948185145
 30
0.0
 11
0.4961430868
 21
22.9783121635
 31
0.0
 11
0.4949713214
 21
23.1033316077
 31
0.0
 11
0.4917793206
 21
23.1948185145
 31
0.0
  0
SPLINE
  5
6D8
100
AcDbEntity
  8
RACCORDO
100
AcDbSpline
 62
253
  6
CONTINUOUS
 70
0
 71
3
 72
9
 73
5
 74
3
 42
0.0000001
 43
0.0000001
 44
0.0000000001
 12
0.0000826051
 22
0.2165674943
 32
0.0
 13
0.0134937783
 23
0.2161467195
 33
0.0
 40
0.0
 40
0.0
 40
0.0
 40
0.0
 40
0.5773023612
 40
1.0
 40
1.0
 40
1.0
 40
1.0
 10
-1.3601430868
 20
22.9783121635
 30
0.0
 10
-1.3601271908
 20
23.0199871388
 30
0.0
 10
-1.3594295786
 20
23.0921663387
 30
0.0
 10
-1.3576805833
 20
23.1643636118
 30
0.0
 10
-1.3557793206
 20
23.1948185145
 30
0.0
 11
-1.3601430868
 21
22.9783121635
 31
0.0
 11
-1.3589713216
 21
23.1033316072
 31
0.0
 11
-1.3557793206
 21
23.1948185145
 31
0.0
  0
SPLINE
  5
6D9
100
AcDbEntity
  8
RACCORDO
100
AcDbSpline
 62
253
  6
CONTINUOUS
 70
0
 71
3
 72
9
 73
5
 74
3
 42
0.0000001
 43
0.0000001
 44
0.0000000001
 12
-0.0130694726
 22
-0.4328452312
 32
0.0
 13
-0.0000226207
 23
-0.4330424976
 33
0.0
 40
0.0
 40
0.0
 40
0.0
 40
0.0
 40
0.1835327344
 40
1.0
 40
1.0
 40
1.0
 40
1.0
 10
-1.6057412444
 20
23.4113248654
 30
0.0
 10
-1.6065408031
 20
23.3848444425
 30
0.0
 10
-1.6095039574
 20
23.2405232682
 30
0.0
 10
-1.6100988543
 20
23.0961671715
 30
0.0
 10
-1.6101050106
 20
22.9783121635
 30
0.0
 11
-1.6057412444
 21
23.4113248654
 31
0.0
 11
-1.6075487017
 21
23.3318679466
 31
0.0
 11
-1.6101050106
 21
22.9783121635
 31
0.0
  0
SPLINE
  5
6DA
100
AcDbEntity
  8
RACCORDO
100
AcDbSpline
 62
253
  6
CONTINUOUS
 70
0
 71
3
 72
11
 73
7
 74
5
 42
0.0000001
 43
0.0000001
 44
0.0000000001
 12
-0.0036623494
 22
0.3635224584
 32
0.0
 13
-0.3635305227
 23
0.0027476588
 33
0.0
 40
0.0
 40
0.0
 40
0.0
 40
0.0
 40
0.2330683205
 40
0.4768288809
 40
0.7340988478
 40
1.0
 40
1.0
 40
1.0
 40
1.0
 10
0.7417412444
 20
-23.4113248654
 30
0.0
 10
0.7414567185
 20
-23.3830830091
 30
0.0
 10
0.7272046423
 20
-23.3247409031
 30
0.0
 10
0.6702568503
 20
-23.2533229765
 30
0.0
 10
0.5878569306
 20
-23.2062475393
 30
0.0
 10
0.5240003822
 20
-23.1950620496
 30
0.0
 10
0.4917793206
 20
-23.1948185144
 30
0.0
 11
0.7417412444
 21
-23.4113248654
 31
0.0
 11
0.7220918085
 21
-23.3289049025
 31
0.0
 11
0.6677629256
 21
-23.258895377
 31
0.0
 11
0.5869352012
 21
-23.2118380172
 31
0.0
 11
0.4917793206
 21
-23.1948185144
 31
0.0
  0
SPLINE
  5
6DB
100
AcDbEntity
  8
RACCORDO
100
AcDbSpline
 62
253
  6
CONTINUOUS
 70
0
 71
3
 72
11
 73
7
 74
5
 42
0.0000001
 43
0.0000001
 44
0.0000000001
 12
-0.0036623504
 22
0.363522545
 32
0.0
 13
-0.3635306093
 23
0.0027476606
 33
0.0
 40
0.0
 40
0.0
 40
0.0
 40
0.0
 40
0.2330560226
 40
0.4768188714
 40
0.7340946499
 40
1.0
 40
1.0
 40
1.0
 40
1.0
 10
0.7286499457
 20
-23.8443375673
 30
0.0
 10
0.7283654348
 20
-23.8160971945
 30
0.0
 10
0.7141148203
 20
-23.7577562482
 30
0.0
 10
0.6571682361
 20
-23.6863377391
 30
0.0
 10
0.5747673955
 20
-23.6392607402
 30
0.0
 10
0.5109095999
 20
-23.6280747556
 30
0.0
 10
0.4786880219
 20
-23.6278312164
 30
0.0
 11
0.7286499457
 21
-23.8443375673
 31
0.0
 11
0.7090027148
 21
-23.7619216541
 31
0.0
 11
0.6546744786
 21
-23.691910547
 31
0.0
 11
0.5738453679
 21
-23.6448513251
 31
0.0
 11
0.4786880219
 21
-23.6278312164
 31
0.0
  0
SPLINE
  5
6DC
100
AcDbEntity
  8
RACCORDO
100
AcDbSpline
 62
253
  6
CONTINUOUS
 70
0
 71
3
 72
39
 73
35
 74
33
 42
0.0000001
 43
0.0000001
 44
0.0000000001
 12
-31.6152032741
 22
0.0000429045
 32
0.0
 13
31.6152032741
 23
0.0000474969
 33
0.0
 40
0.0
 40
0.0
 40
0.0
 40
0.0
 40
0.031251042
 40
0.062501592
 40
0.0937520763
 40
0.1250022494
 40
0.1562520806
 40
0.1875015999
 40
0.2187508772
 40
0.2500000256
 40
0.2812491727
 40
0.31249845
 40
0.3437479646
 40
0.3749977936
 40
0.4062479611
 40
0.4374984402
 40
0.468749158
 40
0.4999999999
 40
0.5312508418
 40
0.5625015594
 40
0.5937520385
 40
0.625002206
 40
0.6562520351
 40
0.6875015496
 40
0.718750827
 40
0.7499999741
 40
0.7812491224
 40
0.8124983997
 40
0.8437479191
 40
0.8749977502
 40
0.9062479233
 40
0.9374984076
 40
0.9687489573
 40
1.0
 40
1.0
 40
1.0
 40
1.0
 10
12.618
 20
-10.0665451009
 30
0.0
 10
12.2886639845
 20
-10.066544654
 30
0.0
 10
11.629539664
 20
-10.0341821149
 30
0.0
 10
10.6507382629
 20
-9.889015176
 30
0.0
 10
9.6907841922
 20
-9.6486245819
 30
0.0
 10
8.7590404009
 20
-9.3153261807
 30
0.0
 10
7.8644469432
 20
-8.8923250536
 30
0.0
 10
7.0156234307
 20
-8.3836953876
 30
0.0
 10
6.2207401792
 20
-7.794328729
 30
0.0
 10
5.4874499528
 20
-7.1298965634
 30
0.0
 10
4.8228142925
 20
-6.3967904303
 30
0.0
 10
4.2332363586
 20
-5.6020634853
 30
0.0
 10
3.724396718
 20
-4.7533644844
 30
0.0
 10
3.3012043899
 20
-3.858861897
 30
0.0
 10
2.9677389275
 20
-2.9271709862
 30
0.0
 10
2.727223758
 20
-1.9672655867
 30
0.0
 10
2.5819766327
 20
-0.988397102
 30
0.0
 10
2.5334064697
 20
-0.0000000035
 30
0.0
 10
2.581976632
 20
0.9883970939
 30
0.0
 10
2.7272237561
 20
1.9672655762
 30
0.0
 10
2.967738924
 20
2.927170975
 30
0.0
 10
3.3012043856
 20
3.8588618862
 30
0.0
 10
3.7243967125
 20
4.7533644744
 30
0.0
 10
4.2332363524
 20
5.6020634756
 30
0.0
 10
4.8228142851
 20
6.3967904215
 30
0.0
 10
5.4874499448
 20
7.1298965552
 30
0.0
 10
6.2207401702
 20
7.7943287218
 30
0.0
 10
7.0156234212
 20
8.383695381
 30
0.0
 10
7.8644469332
 20
8.8923250486
 30
0.0
 10
8.7590403905
 20
9.3153261757
 30
0.0
 10
9.6907841811
 20
9.6486245808
 30
0.0
 10
10.6507382487
 20
9.8890151644
 30
0.0
 10
11.6295396522
 20
10.0341821448
 30
0.0
 10
12.2886639774
 20
10.0665446061
 30
0.0
 10
12.618
 20
10.0665451009
 30
0.0
 11
12.618
 21
-10.0665451009
 31
0.0
 11
11.6311814714
 21
-10.018077671
 31
0.0
 11
10.6538773054
 21
-9.8731441493
 31
0.0
 11
9.6954815642
 21
-9.6331386059
 31
0.0
 11
8.7652272259
 21
-9.3003736983
 31
0.0
 11
7.8720709758
 21
-8.8780513469
 31
0.0
 11
7.0246103454
 21
-8.3702371511
 31
0.0
 11
6.231004114
 21
-7.7818165504
 31
0.0
 11
5.4988923551
 21
-7.1184509085
 31
0.0
 11
4.8353251772
 21
-6.3865218667
 31
0.0
 11
4.2466947832
 21
-5.593071227
 31
0.0
 11
3.7386735633
 21
-4.7457348609
 31
0.0
 11
3.3161608821
 21
-3.8526687047
 31
0.0
 11
2.9832320587
 21
-2.9224732072
 31
0.0
 11
2.7431025034
 21
-1.9641086989
 31
0.0
 11
2.5980896712
 21
-0.9868109355
 31
0.0
 11
2.5495965454
 21
-0.0000000022
 31
0.0
 11
2.5980896703
 21
0.9868109272
 31
0.0
 11
2.7431025011
 21
1.9641086873
 31
0.0
 11
2.9832320551
 21
2.9224731958
 31
0.0
 11
3.3161608777
 21
3.852668694
 31
0.0
 11
3.738673558
 21
4.745734851
 31
0.0
 11
4.2466947768
 21
5.5930712174
 31
0.0
 11
4.8353251698
 21
6.3865218578
 31
0.0
 11
5.4988923472
 21
7.1184509004
 31
0.0
 11
6.2310041051
 21
7.7818165432
 31
0.0
 11
7.0246103357
 21
8.3702371445
 31
0.0
 11
7.8720709659
 21
8.8780513417
 31
0.0
 11
8.7652272158
 21
9.3003736941
 31
0.0
 11
9.6954815529
 21
9.6331386024
 31
0.0
 11
10.6538772938
 21
9.8731441468
 31
0.0
 11
11.63118145
 21
10.0180776735
 31
0.0
 11
12.618
 21
10.0665451009
 31
0.0
  0
SPLINE
  5
6DD
100
AcDbEntity
  8
RACCORDO
100
AcDbSpline
 62
253
  6
CONTINUOUS
 70
0
 71
3
 72
39
 73
35
 74
33
 42
0.0000001
 43
0.0000001
 44
0.0000000001
 12
-32.4082699761
 22
0.0000880499
 32
0.0
 13
32.4082699761
 23
0.0000974846
 33
0.0
 40
0.0
 40
0.0
 40
0.0
 40
0.0
 40
0.0312509881
 40
0.0625014915
 40
0.093751941
 40
0.1250020955
 40
0.1562519257
 40
0.1875014613
 40
0.2187507685
 40
0.2499999559
 40
0.2812491449
 40
0.3124984607
 40
0.343748005
 40
0.374997851
 40
0.4062480211
 40
0.4374984892
 40
0.4687491854
 40
0.5
 40
0.5312508145
 40
0.5625015105
 40
0.5937519786
 40
0.6250021488
 40
0.6562519948
 40
0.6875015391
 40
0.7187508549
 40
0.7500000439
 40
0.7812492312
 40
0.8124985385
 40
0.8437480741
 40
0.8749979043
 40
0.9062480588
 40
0.9374985082
 40
0.9687490114
 40
1.0
 40
1.0
 40
1.0
 40
1.0
 10
12.618
 20
-10.3216678586
 30
0.0
 10
12.2804031802
 20
-10.3216669414
 30
0.0
 10
11.6047451186
 20
-10.2884681841
 30
0.0
 10
10.6014061539
 20
-10.1395485907
 30
0.0
 10
9.6174146976
 20
-9.8929514215
 30
0.0
 10
8.6623792579
 20
-9.5510615947
 30
0.0
 10
7.7454709655
 20
-9.1171794784
 30
0.0
 10
6.8755281247
 20
-8.5954983629
 30
0.0
 10
6.0609237921
 20
-7.991050048
 30
0.0
 10
5.3094957497
 20
-7.3096652066
 30
0.0
 10
4.6284715879
 20
-6.5579104419
 30
0.0
 10
4.0244005177
 20
-5.7430273827
 30
0.0
 10
3.5030888795
 20
-4.8728639278
 30
0.0
 10
3.0695511178
 20
-3.9557960619
 30
0.0
 10
2.7279520678
 20
-3.0006528571
 30
0.0
 10
2.4815808735
 20
-2.0166264355
 30
0.0
 10
2.3328016475
 20
-1.0131895866
 30
0.0
 10
2.2830510936
 20
-0.0000000022
 30
0.0
 10
2.3328016474
 20
1.0131895811
 30
0.0
 10
2.4815808726
 20
2.0166264274
 30
0.0
 10
2.7279520659
 20
3.0006528481
 30
0.0
 10
3.0695511155
 20
3.9557960532
 30
0.0
 10
3.5030888766
 20
4.8728639196
 30
0.0
 10
4.0244005145
 20
5.7430273746
 30
0.0
 10
4.628471584
 20
6.5579104343
 30
0.0
 10
5.3094957456
 20
7.3096651992
 30
0.0
 10
6.0609237873
 20
7.9910500412
 30
0.0
 10
6.8755281198
 20
8.5954983562
 30
0.0
 10
7.7454709604
 20
9.1171794726
 30
0.0
 10
8.6623792522
 20
9.5510615886
 30
0.0
 10
9.6174146927
 20
9.8929514174
 30
0.0
 10
10.6014061454
 20
10.1395485705
 30
0.0
 10
11.6047451093
 20
10.2884682511
 30
0.0
 10
12.2804031752
 20
10.3216668431
 30
0.0
 10
12.618
 20
10.3216678586
 30
0.0
 11
12.618
 21
-10.3216678586
 31
0.0
 11
11.6064307311
 21
-10.271947349
 31
0.0
 11
10.6046286913
 21
-10.1232686044
 31
0.0
 11
9.6222364965
 21
-9.8770680111
 31
0.0
 11
8.6687290249
 21
-9.5357275748
 31
0.0
 11
7.7532943824
 21
-9.1025440976
 31
0.0
 11
6.8847481875
 21
-8.5817018281
 31
0.0
 11
6.0714516768
 21
-7.9782260908
 31
0.0
 11
5.3212297374
 21
-7.2979369246
 31
0.0
 11
4.6412983649
 21
-6.5473906293
 31
0.0
 11
4.038195772
 21
-5.7338170292
 31
0.0
 11
3.5177201133
 21
-4.8650507635
 31
0.0
 11
3.0848762131
 21
-3.9494549455
 31
0.0
 11
2.7438247639
 21
-2.9958435321
 31
0.0
 11
2.4978469242
 21
-2.0133949173
 31
0.0
 11
2.3493066328
 21
-1.0115660235
 31
0.0
 11
2.2996346325
 21
-0.0000000008
 31
0.0
 11
2.3493066325
 21
1.0115660178
 31
0.0
 11
2.4978469229
 21
2.0133949081
 31
0.0
 11
2.7438247619
 21
2.9958435229
 31
0.0
 11
3.0848762108
 21
3.9494549369
 31
0.0
 11
3.5177201105
 21
4.8650507554
 31
0.0
 11
4.0381957686
 21
5.7338170211
 31
0.0
 11
4.641298361
 21
6.5473906215
 31
0.0
 11
5.3212297333
 21
7.2979369173
 31
0.0
 11
6.0714516722
 21
7.9782260839
 31
0.0
 11
6.8847481822
 21
8.5817018213
 31
0.0
 11
7.7532943773
 21
9.1025440917
 31
0.0
 11
8.6687290199
 21
9.5357275693
 31
0.0
 11
9.6222364909
 21
9.8770680039
 31
0.0
 11
10.6046286845
 21
10.1232686017
 31
0.0
 11
11.6064307157
 21
10.2719473595
 31
0.0
 11
12.618
 21
10.3216678586
 31
0.0
  0
SPLINE
  5
6DE
100
AcDbEntity
  8
RACCORDO
100
AcDbSpline
 62
253
  6
CONTINUOUS
 70
0
 71
3
 72
39
 73
35
 74
33
 42
0.0000001
 43
0.0000001
 44
0.0000000001
 12
31.6152032741
 22
-0.0000429108
 32
0.0
 13
-31.6152032741
 23
-0.0000474919
 33
0.0
 40
0.0
 40
0.0
 40
0.0
 40
0.0
 40
0.0312510426
 40
0.0625015924
 40
0.0937520767
 40
0.1250022498
 40
0.156252081
 40
0.1875016003
 40
0.2187508776
 40
0.250000026
 40
0.2812491731
 40
0.3124984504
 40
0.3437479649
 40
0.374997794
 40
0.4062479615
 40
0.4374984406
 40
0.4687491584
 40
0.5000000003
 40
0.5312508421
 40
0.5625015597
 40
0.5937520388
 40
0.6250022063
 40
0.6562520354
 40
0.68750155
 40
0.7187508273
 40
0.7499999744
 40
0.7812491228
 40
0.8124984
 40
0.8437479194
 40
0.8749977506
 40
0.9062479237
 40
0.937498408
 40
0.9687489578
 40
1.0
 40
1.0
 40
1.0
 40
1.0
 10
12.618
 20
10.0665451009
 30
0.0
 10
12.9473360215
 20
10.0665446539
 30
0.0
 10
13.606460346
 20
10.0341821146
 30
0.0
 10
14.5852617508
 20
9.8890151729
 30
0.0
 10
15.5452158193
 20
9.6486245786
 30
0.0
 10
16.4769596101
 20
9.315326176
 30
0.0
 10
17.3715530674
 20
8.8923250481
 30
0.0
 10
18.2203765793
 20
8.3836953807
 30
0.0
 10
19.0152598305
 20
7.7943287213
 30
0.0
 10
19.7485500558
 20
7.1298965545
 30
0.0
 10
20.4131857156
 20
6.3967904208
 30
0.0
 10
21.0027636482
 20
5.6020634747
 30
0.0
 10
21.5116032881
 20
4.7533644733
 30
0.0
 10
21.9347956149
 20
3.8588618851
 30
0.0
 10
22.2682610764
 20
2.9271709739
 30
0.0
 10
22.5087762444
 20
1.9672655741
 30
0.0
 10
22.6540233685
 20
0.98839709
 30
0.0
 10
22.7025935303
 20
-0.0000000075
 30
0.0
 10
22.654023367
 20
-0.9883971041
 30
0.0
 10
22.508776242
 20
-1.9672655861
 30
0.0
 10
22.2682610729
 20
-2.9271709849
 30
0.0
 10
21.9347956106
 20
-3.8588618959
 30
0.0
 10
21.5116032824
 20
-4.7533644836
 30
0.0
 10
21.0027636419
 20
-5.6020634846
 30
0.0
 10
20.413185708
 20
-6.3967904297
 30
0.0
 10
19.7485500477
 20
-7.129896563
 30
0.0
 10
19.0152598212
 20
-7.7943287286
 30
0.0
 10
18.2203765697
 20
-8.3836953873
 30
0.0
 10
17.3715530571
 20
-8.8923250536
 30
0.0
 10
16.4769595992
 20
-9.3153261801
 30
0.0
 10
15.545215808
 20
-9.6486245839
 30
0.0
 10
14.585261738
 20
-9.8890151674
 30
0.0
 10
13.6064603381
 20
-10.034182145
 30
0.0
 10
12.9473360167
 20
-10.0665446062
 30
0.0
 10
12.618
 20
-10.0665451009
 30
0.0
 11
12.618
 21
10.0665451009
 31
0.0
 11
13.6048185463
 21
10.0180776695
 31
0.0
 11
14.5821227063
 21
9.8731441469
 31
0.0
 11
15.5405184477
 21
9.6331386023
 31
0.0
 11
16.4707727849
 21
9.3003736938
 31
0.0
 11
17.3639290346
 21
8.8780513414
 31
0.0
 11
18.2113896648
 21
8.3702371442
 31
0.0
 11
19.0049958956
 21
7.7818165427
 31
0.0
 11
19.7371076535
 21
7.1184508997
 31
0.0
 11
20.4006748308
 21
6.3865218571
 31
0.0
 11
20.9893052238
 21
5.5930712165
 31
0.0
 11
21.4973264427
 21
4.7457348498
 31
0.0
 11
21.9198391227
 21
3.8526686929
 31
0.0
 11
22.2527679452
 21
2.9224731948
 31
0.0
 11
22.4928974991
 21
1.964108686
 31
0.0
 11
22.6379103301
 21
0.986810923
 31
0.0
 11
22.6864034546
 21
-0.0000000085
 31
0.0
 11
22.6379103287
 21
-0.986810937
 31
0.0
 11
22.4928974969
 21
-1.9641086973
 31
0.0
 11
22.2527679418
 21
-2.9224732057
 31
0.0
 11
21.9198391183
 21
-3.8526687036
 31
0.0
 11
21.497326437
 21
-4.7457348602
 31
0.0
 11
20.9893052173
 21
-5.5930712262
 31
0.0
 11
20.4006748234
 21
-6.386521866
 31
0.0
 11
19.7371076453
 21
-7.118450908
 31
0.0
 11
19.0049958864
 21
-7.7818165501
 31
0.0
 11
18.2113896551
 21
-8.3702371508
 31
0.0
 11
17.3639290245
 21
-8.8780513467
 31
0.0
 11
16.4707727741
 21
-9.3003736983
 31
0.0
 11
15.5405184359
 21
-9.6331386058
 31
0.0
 11
14.5821226949
 21
-9.8731441491
 31
0.0
 11
13.6048185324
 21
-10.018077675
 31
0.0
 11
12.618
 21
-10.0665451009
 31
0.0
  0
SPLINE
  5
6DF
100
AcDbEntity
  8
RACCORDO
100
AcDbSpline
 62
253
  6
CONTINUOUS
 70
0
 71
3
 72
39
 73
35
 74
33
 42
0.0000001
 43
0.0000001
 44
0.0000000001
 12
32.4082699761
 22
-0.0000880629
 32
0.0
 13
-32.4082699761
 23
-0.0000974744
 33
0.0
 40
0.0
 40
0.0
 40
0.0
 40
0.0
 40
0.0312509887
 40
0.0625014919
 40
0.0937519414
 40
0.1250020958
 40
0.1562519261
 40
0.1875014617
 40
0.2187507689
 40
0.2499999563
 40
0.2812491453
 40
0.3124984611
 40
0.3437480054
 40
0.3749978514
 40
0.4062480215
 40
0.4374984896
 40
0.4687491858
 40
0.5000000003
 40
0.5312508148
 40
0.5625015109
 40
0.593751979
 40
0.6250021491
 40
0.6562519951
 40
0.6875015394
 40
0.7187508552
 40
0.7500000442
 40
0.7812492316
 40
0.8124985389
 40
0.8437480744
 40
0.8749979047
 40
0.9062480591
 40
0.9374985086
 40
0.968749012
 40
1.0
 40
1.0
 40
1.0
 40
1.0
 10
12.618
 20
10.3216678586
 30
0.0
 10
12.9555968259
 20
10.3216669413
 30
0.0
 10
13.6312548917
 20
10.2884681839
 30
0.0
 10
14.6345938601
 20
10.1395485875
 30
0.0
 10
15.6185853142
 20
9.8929514181
 30
0.0
 10
16.5736207534
 20
9.5510615898
 30
0.0
 10
17.4905290454
 20
9.1171794727
 30
0.0
 10
18.3604718855
 20
8.5954983558
 30
0.0
 10
19.1750762178
 20
7.9910500402
 30
0.0
 10
19.9265042591
 20
7.3096651975
 30
0.0
 10
20.6075284204
 20
6.5579104322
 30
0.0
 10
21.2115994893
 20
5.7430273718
 30
0.0
 10
21.7329111268
 20
4.8728639165
 30
0.0
 10
22.1664488871
 20
3.9557960497
 30
0.0
 10
22.5080479362
 20
3.0006528444
 30
0.0
 10
22.754419129
 20
2.0166264226
 30
0.0
 10
22.9031983537
 20
1.0131895742
 30
0.0
 10
22.9529489064
 20
-0.0000000091
 30
0.0
 10
22.9031983515
 20
-1.0131895915
 30
0.0
 10
22.7544191255
 20
-2.0166264376
 30
0.0
 10
22.5080479309
 20
-3.0006528582
 30
0.0
 10
22.1664488805
 20
-3.9557960632
 30
0.0
 10
21.7329111182
 20
-4.872863929
 30
0.0
 10
21.2115994796
 20
-5.7430273838
 30
0.0
 10
20.6075284089
 20
-6.5579104426
 30
0.0
 10
19.9265042468
 20
-7.3096652072
 30
0.0
 10
19.1750762039
 20
-7.9910500481
 30
0.0
 10
18.3604718709
 20
-8.5954983627
 30
0.0
 10
17.4905290296
 20
-9.1171794777
 30
0.0
 10
16.5736207372
 20
-9.5510615931
 30
0.0
 10
15.618585296
 20
-9.8929514206
 30
0.0
 10
14.634593841
 20
-10.1395485737
 30
0.0
 10
13.6312548807
 20
-10.2884682512
 30
0.0
 10
12.9555968188
 20
-10.3216668432
 30
0.0
 10
12.618
 20
-10.3216678586
 30
0.0
 11
12.618
 21
10.3216678586
 31
0.0
 11
13.629569287
 21
10.2719473475
 31
0.0
 11
14.6313713207
 21
10.1232686019
 31
0.0
 11
15.6137635156
 21
9.8770680074
 31
0.0
 11
16.5672709863
 21
9.5357275701
 31
0.0
 11
17.4827056283
 21
9.102544092
 31
0.0
 11
18.351251823
 21
8.581701821
 31
0.0
 11
19.1645483329
 21
7.9782260829
 31
0.0
 11
19.9147702714
 21
7.2979369156
 31
0.0
 11
20.5947016433
 21
6.5473906194
 31
0.0
 11
21.1978042351
 21
5.7338170184
 31
0.0
 11
21.7182798929
 21
4.8650507521
 31
0.0
 11
22.1511237918
 21
3.9494549335
 31
0.0
 11
22.49217524
 21
2.9958435194
 31
0.0
 11
22.7381530784
 21
2.0133949041
 31
0.0
 11
22.8866933685
 21
1.0115660108
 31
0.0
 11
22.9363653675
 21
-0.0000000101
 31
0.0
 11
22.8866933665
 21
-1.0115660278
 31
0.0
 11
22.7381530751
 21
-2.0133949184
 31
0.0
 11
22.4921752349
 21
-2.9958435331
 31
0.0
 11
22.1511237852
 21
-3.9494549468
 31
0.0
 11
21.7182798844
 21
-4.8650507649
 31
0.0
 11
21.1978042254
 21
-5.7338170302
 31
0.0
 11
20.594701632
 21
-6.54739063
 31
0.0
 11
19.914770259
 21
-7.2979369251
 31
0.0
 11
19.1645483191
 21
-7.978226091
 31
0.0
 11
18.3512518083
 21
-8.5817018278
 31
0.0
 11
17.4827056129
 21
-9.1025440969
 31
0.0
 11
16.5672709698
 21
-9.5357275736
 31
0.0
 11
15.6137634975
 21
-9.8770680074
 31
0.0
 11
14.631371304
 21
-10.1232686041
 31
0.0
 11
13.6295692663
 21
-10.2719473609
 31
0.0
 11
12.618
 21
-10.3216678586
 31
0.0
  0
SPLINE
  5
6E0
100
AcDbEntity
  8
RACCORDO
100
AcDbSpline
 62
7
  6
CONTINUOUS
 70
0
 71
3
 72
14
 73
10
 74
8
 42
0.0000001
 43
0.0000001
 44
0.0000000001
 12
0.3140475131
 22
0.0
 32
0.0
 13
0.0031643457
 23
-0.3140315707
 33
0.0
 40
0.0
 40
0.0
 40
0.0
 40
0.0
 40
0.1667834584
 40
0.3265303553
 40
0.6054058426
 40
0.7218936117
 40
0.824084769
 40
0.9151739062
 40
1.0
 40
1.0
 40
1.0
 40
1.0
 10
23.0107234819
 20
-23.1226497308
 30
0.0
 10
23.028182792
 20
-23.1226497308
 30
0.0
 10
23.0624168225
 20
-23.1249185553
 30
0.0
 10
23.1247384775
 20
-23.1366236518
 30
0.0
 10
23.1799252705
 20
-23.1579880447
 30
0.0
 10
23.2221083992
 20
-23.1890148207
 30
0.0
 10
23.2438994697
 20
-23.2134191306
 30
0.0
 10
23.2573998865
 20
-23.2396147063
 30
0.0
 10
23.2606297781
 20
-23.2581079409
 30
0.0
 10
23.2607192511
 20
-23.2669872981
 30
0.0
 11
23.0107234819
 21
-23.1226497308
 31
0.0
 11
23.0629927019
 21
-23.1260225969
 31
0.0
 11
23.112270005
 21
-23.1354346756
 31
0.0
 11
23.1931903604
 21
-23.1689336209
 31
0.0
 11
23.2224247922
 21
-23.1909254719
 31
0.0
 11
23.2435024657
 21
-23.2151263924
 31
0.0
 11
23.2562802795
 21
-23.2407203144
 31
0.0
 11
23.2607192511
 21
-23.2669872981
 31
0.0
  0
SPLINE
  5
6E1
100
AcDbEntity
  8
RACCORDO
100
AcDbSpline
 62
7
  6
CONTINUOUS
 70
0
 71
3
 72
12
 73
8
 74
6
 42
0.0000001
 43
0.0000001
 44
0.0000000001
 12
0.0345141171
 22
-0.0031148624
 32
0.0
 13
0.0037710146
 23
-0.0344486008
 33
0.0
 40
0.0
 40
0.0
 40
0.0
 40
0.0
 40
0.4189758554
 40
0.7258150368
 40
0.9169374284
 40
0.970078621
 40
1.0
 40
1.0
 40
1.0
 40
1.0
 10
23.22691534
 20
-22.3279108386
 30
0.0
 10
23.2317355339
 20
-22.328345856
 30
0.0
 10
23.2401021029
 20
-22.3290818085
 30
0.0
 10
23.2505917423
 20
-22.3301849672
 30
0.0
 10
23.2569546858
 20
-22.3312764657
 30
0.0
 10
23.2598861623
 20
-22.3323145409
 30
0.0
 10
23.2606816398
 20
-22.3330673782
 30
0.0
 10
23.2607192511
 20
-22.3334109614
 30
0.0
 11
23.22691534
 21
-22.3279108386
 31
0.0
 11
23.2413736105
 21
-22.3292412515
 31
0.0
 11
23.2519355634
 21
-22.3304711844
 31
0.0
 11
23.2584200498
 21
-22.3318197414
 31
0.0
 11
23.2600965195
 21
-22.3325818766
 31
0.0
 11
23.2607192511
 21
-22.3334109614
 31
0.0
  0
SPLINE
  5
6E2
100
AcDbEntity
  8
RACCORDO
100
AcDbSpline
 62
253
  6
CONTINUOUS
 70
0
 71
3
 72
12
 73
8
 74
6
 42
0.0000001
 43
0.0000001
 44
0.0000000001
 12
-0.0012250291
 22
0.3647209716
 32
0.0
 13
-0.3647218716
 23
0.0009188052
 33
0.0
 40
0.0
 40
0.0
 40
0.0
 40
0.0
 40
0.1163884573
 40
0.2342766891
 40
0.4774313669
 40
0.7341995372
 40
1.0
 40
1.0
 40
1.0
 40
1.0
 10
23.2549014213
 20
-23.8443375673
 30
0.0
 10
23.2548538949
 20
-23.8301877969
 30
0.0
 10
23.2514864602
 20
-23.8016107177
 30
0.0
 10
23.2319553545
 20
-23.7465223251
 30
0.0
 10
23.1839411583
 20
-23.6857279588
 30
0.0
 10
23.1012767035
 20
-23.6388607919
 30
0.0
 10
23.0372200662
 20
-23.6279126226
 30
0.0
 10
23.0049056521
 20
-23.6278312164
 30
0.0
 11
23.2549014213
 21
-23.8443375673
 31
0.0
 11
23.249973721
 21
-23.8021749995
 31
0.0
 11
23.2356629963
 21
-23.7616298799
 31
0.0
 11
23.18142284
 21
-23.6914666636
 31
0.0
 11
23.1004067191
 21
-23.6444924903
 31
0.0
 11
23.0049056521
 21
-23.6278312164
 31
0.0
  0
SPLINE
  5
6E3
100
AcDbEntity
  8
RACCORDO
100
AcDbSpline
 62
253
  6
CONTINUOUS
 70
0
 71
3
 72
12
 73
8
 74
6
 42
0.0000001
 43
0.0000001
 44
0.0000000001
 12
0.0012250291
 22
0.3647209716
 32
0.0
 13
0.3647218716
 23
0.0009188052
 33
0.0
 40
0.0
 40
0.0
 40
0.0
 40
0.0
 40
0.1163884573
 40
0.2342766891
 40
0.4774313669
 40
0.7341995372
 40
1.0
 40
1.0
 40
1.0
 40
1.0
 10
20.8810985787
 20
-23.8443375673
 30
0.0
 10
20.8811461051
 20
-23.8301877969
 30
0.0
 10
20.8845135398
 20
-23.8016107177
 30
0.0
 10
20.9040446455
 20
-23.7465223251
 30
0.0
 10
20.9520588417
 20
-23.6857279588
 30
0.0
 10
21.0347232965
 20
-23.6388607919
 30
0.0
 10
21.0987799338
 20
-23.6279126226
 30
0.0
 10
21.1310943479
 20
-23.6278312164
 30
0.0
 11
20.8810985787
 21
-23.8443375673
 31
0.0
 11
20.886026279
 21
-23.8021749995
 31
0.0
 11
20.9003370037
 21
-23.7616298799
 31
0.0
 11
20.95457716
 21
-23.6914666636
 31
0.0
 11
21.0355932809
 21
-23.6444924903
 31
0.0
 11
21.1310943479
 21
-23.6278312164
 31
0.0
  0
SPLINE
  5
6E4
100
AcDbEntity
  8
RACCORDO
100
AcDbSpline
 62
7
  6
CONTINUOUS
 70
0
 71
3
 72
13
 73
9
 74
7
 42
0.0000001
 43
0.0000001
 44
0.0000000001
 12
0.0031696367
 22
0.3145566487
 32
0.0
 13
0.3145726178
 23
0.0
 33
0.0
 40
0.0
 40
0.0
 40
0.0
 40
0.0
 40
0.0848322853
 40
0.1759482271
 40
0.2781995767
 40
0.3947846151
 40
0.6739262862
 40
1.0
 40
1.0
 40
1.0
 40
1.0
 10
20.8752807489
 20
-23.2669872981
 30
0.0
 10
20.8753703781
 20
-23.258092445
 30
0.0
 10
20.8786118496
 20
-23.2395646609
 30
0.0
 10
20.8921604085
 20
-23.2133256907
 30
0.0
 10
20.9140241061
 20
-23.1888896337
 30
0.0
 10
20.9563641663
 20
-23.1578237628
 30
0.0
 10
21.0281375492
 20
-23.1301860757
 30
0.0
 10
21.0918124596
 20
-23.1226497308
 30
0.0
 10
21.1260037468
 20
-23.1226497308
 30
0.0
 11
20.8752807489
 21
-23.2669872981
 31
0.0
 11
20.8797344967
 21
-23.240675663
 31
0.0
 11
20.8925557085
 21
-23.2150405302
 31
0.0
 11
20.9137050748
 21
-23.1908058016
 31
0.0
 11
20.9430379929
 21
-23.1687922607
 31
0.0
 11
21.02421414
 21
-23.1353096304
 31
0.0
 11
21.1260037468
 21
-23.1226497308
 31
0.0
  0
SPLINE
  5
6E5
100
AcDbEntity
  8
RACCORDO
100
AcDbSpline
 62
7
  6
CONTINUOUS
 70
0
 71
3
 72
13
 73
9
 74
7
 42
0.0000001
 43
0.0000001
 44
0.0000000001
 12
-0.4498518931
 22
-0.0034684605
 32
0.0
 13
-0.3802055421
 23
-0.2404630984
 33
0.0
 40
0.0
 40
0.0
 40
0.0
 40
0.0
 40
0.0927966287
 40
0.2002447148
 40
0.3193571807
 40
0.4469985052
 40
0.7183509509
 40
1.0
 40
1.0
 40
1.0
 40
1.0
 10
16.9142073137
 20
23.7953389668
 30
0.0
 10
16.9002924006
 20
23.7952316797
 30
0.0
 10
16.870382272
 20
23.789799767
 30
0.0
 10
16.8252472469
 20
23.7736730732
 30
0.0
 10
16.7770026256
 20
23.7513098509
 30
0.0
 10
16.7084209279
 20
23.714769798
 30
0.0
 10
16.6208591526
 20
23.6622363788
 30
0.0
 10
16.5507774665
 20
23.6179177525
 30
0.0
 10
16.5150826234
 20
23.5953423515
 30
0.0
 11
16.9142073137
 21
23.7953389668
 31
0.0
 11
16.8729163488
 21
23.7891921748
 31
0.0
 11
16.827156908
 21
23.7736180048
 31
0.0
 11
16.7783849087
 21
23.7514234725
 31
0.0
 11
16.7275960362
 21
23.7246334111
 31
0.0
 11
16.6224388891
 21
23.6626369814
 31
0.0
 11
16.5150826234
 21
23.5953423515
 31
0.0
  0
SPLINE
  5
6E6
100
AcDbEntity
  8
RACCORDO
100
AcDbSpline
 62
7
  6
CONTINUOUS
 70
0
 71
3
 72
13
 73
9
 74
7
 42
0.0000001
 43
0.0000001
 44
0.0000000001
 12
0.4498518931
 22
-0.0034684605
 32
0.0
 13
0.3802055421
 23
-0.2404630984
 33
0.0
 40
0.0
 40
0.0
 40
0.0
 40
0.0
 40
0.0927966287
 40
0.2002447148
 40
0.3193571807
 40
0.4469985052
 40
0.7183509509
 40
1.0
 40
1.0
 40
1.0
 40
1.0
 10
8.3217926863
 20
23.7953389668
 30
0.0
 10
8.3357075994
 20
23.7952316797
 30
0.0
 10
8.365617728
 20
23.789799767
 30
0.0
 10
8.4107527531
 20
23.7736730732
 30
0.0
 10
8.4589973744
 20
23.7513098509
 30
0.0
 10
8.5275790721
 20
23.714769798
 30
0.0
 10
8.6151408474
 20
23.6622363788
 30
0.0
 10
8.6852225335
 20
23.6179177525
 30
0.0
 10
8.7209173766
 20
23.5953423515
 30
0.0
 11
8.3217926863
 21
23.7953389668
 31
0.0
 11
8.3630836512
 21
23.7891921748
 31
0.0
 11
8.408843092
 21
23.7736180048
 31
0.0
 11
8.4576150913
 21
23.7514234725
 31
0.0
 11
8.5084039638
 21
23.7246334111
 31
0.0
 11
8.6135611109
 21
23.6626369814
 31
0.0
 11
8.7209173766
 21
23.5953423515
 31
0.0
  0
SPLINE
  5
6E7
100
AcDbEntity
  8
RACCORDO
100
AcDbSpline
 62
7
  6
CONTINUOUS
 70
0
 71
3
 72
13
 73
9
 74
7
 42
0.0000001
 43
0.0000001
 44
0.0000000001
 12
-0.0031696367
 22
0.3145566487
 32
0.0
 13
-0.3145726178
 23
0.0
 33
0.0
 40
0.0
 40
0.0
 40
0.0
 40
0.0
 40
0.0848322853
 40
0.1759482271
 40
0.2781995767
 40
0.3947846151
 40
0.6739262862
 40
1.0
 40
1.0
 40
1.0
 40
1.0
 10
4.3607192511
 20
-23.2669872981
 30
0.0
 10
4.3606296219
 20
-23.258092445
 30
0.0
 10
4.3573881504
 20
-23.2395646609
 30
0.0
 10
4.3438395915
 20
-23.2133256907
 30
0.0
 10
4.3219758939
 20
-23.1888896337
 30
0.0
 10
4.2796358337
 20
-23.1578237628
 30
0.0
 10
4.2078624508
 20
-23.1301860757
 30
0.0
 10
4.1441875404
 20
-23.1226497308
 30
0.0
 10
4.1099962532
 20
-23.1226497308
 30
0.0
 11
4.3607192511
 21
-23.2669872981
 31
0.0
 11
4.3562655033
 21
-23.240675663
 31
0.0
 11
4.3434442915
 21
-23.2150405302
 31
0.0
 11
4.3222949252
 21
-23.1908058016
 31
0.0
 11
4.2929620071
 21
-23.1687922607
 31
0.0
 11
4.21178586
 21
-23.1353096304
 31
0.0
 11
4.1099962532
 21
-23.1226497308
 31
0.0
  0
SPLINE
  5
6E8
100
AcDbEntity
  8
RACCORDO
100
AcDbSpline
 62
253
  6
CONTINUOUS
 70
0
 71
3
 72
12
 73
8
 74
6
 42
0.0000001
 43
0.0000001
 44
0.0000000001
 12
-0.0012250291
 22
0.3647209716
 32
0.0
 13
-0.3647218716
 23
0.0009188052
 33
0.0
 40
0.0
 40
0.0
 40
0.0
 40
0.0
 40
0.1163884573
 40
0.2342766891
 40
0.4774313669
 40
0.7341995372
 40
1.0
 40
1.0
 40
1.0
 40
1.0
 10
4.3549014213
 20
-23.8443375673
 30
0.0
 10
4.3548538949
 20
-23.8301877969
 30
0.0
 10
4.3514864602
 20
-23.8016107177
 30
0.0
 10
4.3319553545
 20
-23.7465223251
 30
0.0
 10
4.2839411583
 20
-23.6857279588
 30
0.0
 10
4.2012767035
 20
-23.6388607919
 30
0.0
 10
4.1372200662
 20
-23.6279126226
 30
0.0
 10
4.1049056521
 20
-23.6278312164
 30
0.0
 11
4.3549014213
 21
-23.8443375673
 31
0.0
 11
4.349973721
 21
-23.8021749995
 31
0.0
 11
4.3356629963
 21
-23.7616298799
 31
0.0
 11
4.28142284
 21
-23.6914666636
 31
0.0
 11
4.2004067191
 21
-23.6444924903
 31
0.0
 11
4.1049056521
 21
-23.6278312164
 31
0.0
  0
SPLINE
  5
6E9
100
AcDbEntity
  8
RACCORDO
100
AcDbSpline
 62
7
  6
CONTINUOUS
 70
0
 71
3
 72
12
 73
8
 74
6
 42
0.0000001
 43
0.0000001
 44
0.0000000001
 12
0.0037710146
 22
0.0344486008
 32
0.0
 13
0.0345141171
 23
0.0031148624
 33
0.0
 40
0.0
 40
0.0
 40
0.0
 40
0.0
 40
0.029921379
 40
0.0830625716
 40
0.2741849632
 40
0.5810241446
 40
1.0
 40
1.0
 40
1.0
 40
1.0
 10
1.9752807489
 20
-22.3334109614
 30
0.0
 10
1.9753183602
 20
-22.3330673782
 30
0.0
 10
1.9761138377
 20
-22.3323145409
 30
0.0
 10
1.9790453142
 20
-22.3312764657
 30
0.0
 10
1.9854082577
 20
-22.3301849672
 30
0.0
 10
1.9958978971
 20
-22.3290818085
 30
0.0
 10
2.0042644661
 20
-22.328345856
 30
0.0
 10
2.00908466
 20
-22.3279108386
 30
0.0
 11
1.9752807489
 21
-22.3334109614
 31
0.0
 11
1.9759034805
 21
-22.3325818766
 31
0.0
 11
1.9775799502
 21
-22.3318197414
 31
0.0
 11
1.9840644366
 21
-22.3304711844
 31
0.0
 11
1.9946263895
 21
-22.3292412515
 31
0.0
 11
2.00908466
 21
-22.3279108386
 31
0.0
  0
SPLINE
  5
6EA
100
AcDbEntity
  8
RACCORDO
100
AcDbSpline
 62
7
  6
CONTINUOUS
 70
0
 71
3
 72
14
 73
10
 74
8
 42
0.0000001
 43
0.0000001
 44
0.0000000001
 12
-0.3140475131
 22
0.0
 32
0.0
 13
-0.0031643457
 23
-0.3140315707
 33
0.0
 40
0.0
 40
0.0
 40
0.0
 40
0.0
 40
0.1667834584
 40
0.3265303553
 40
0.6054058426
 40
0.7218936117
 40
0.824084769
 40
0.9151739062
 40
1.0
 40
1.0
 40
1.0
 40
1.0
 10
2.2252765181
 20
-23.1226497308
 30
0.0
 10
2.207817208
 20
-23.1226497308
 30
0.0
 10
2.1735831775
 20
-23.1249185553
 30
0.0
 10
2.1112615225
 20
-23.1366236518
 30
0.0
 10
2.0560747295
 20
-23.1579880447
 30
0.0
 10
2.0138916008
 20
-23.1890148207
 30
0.0
 10
1.9921005303
 20
-23.2134191306
 30
0.0
 10
1.9786001135
 20
-23.2396147063
 30
0.0
 10
1.9753702219
 20
-23.2581079409
 30
0.0
 10
1.9752807489
 20
-23.2669872981
 30
0.0
 11
2.2252765181
 21
-23.1226497308
 31
0.0
 11
2.1730072981
 21
-23.1260225969
 31
0.0
 11
2.123729995
 21
-23.1354346756
 31
0.0
 11
2.0428096396
 21
-23.1689336209
 31
0.0
 11
2.0135752078
 21
-23.1909254719
 31
0.0
 11
1.9924975343
 21
-23.2151263924
 31
0.0
 11
1.9797197205
 21
-23.2407203144
 31
0.0
 11
1.9752807489
 21
-23.2669872981
 31
0.0
  0
SPLINE
  5
6EB
100
AcDbEntity
  8
RACCORDO
100
AcDbSpline
 62
253
  6
CONTINUOUS
 70
0
 71
3
 72
12
 73
8
 74
6
 42
0.0000001
 43
0.0000001
 44
0.0000000001
 12
0.0012250291
 22
0.3647209716
 32
0.0
 13
0.3647218716
 23
0.0009188052
 33
0.0
 40
0.0
 40
0.0
 40
0.0
 40
0.0
 40
0.1163884573
 40
0.2342766891
 40
0.4774313669
 40
0.7341995372
 40
1.0
 40
1.0
 40
1.0
 40
1.0
 10
1.9810985787
 20
-23.8443375673
 30
0.0
 10
1.9811461051
 20
-23.8301877969
 30
0.0
 10
1.9845135398
 20
-23.8016107177
 30
0.0
 10
2.0040446455
 20
-23.7465223251
 30
0.0
 10
2.0520588417
 20
-23.6857279588
 30
0.0
 10
2.1347232965
 20
-23.6388607919
 30
0.0
 10
2.1987799338
 20
-23.6279126226
 30
0.0
 10
2.2310943479
 20
-23.6278312164
 30
0.0
 11
1.9810985787
 21
-23.8443375673
 31
0.0
 11
1.986026279
 21
-23.8021749995
 31
0.0
 11
2.0003370037
 21
-23.7616298799
 31
0.0
 11
2.05457716
 21
-23.6914666636
 31
0.0
 11
2.1355932809
 21
-23.6444924903
 31
0.0
 11
2.2310943479
 21
-23.6278312164
 31
0.0
  0
SPLINE
  5
6EC
100
AcDbEntity
  8
RACCORDO
100
AcDbSpline
 62
7
  6
CONTINUOUS
 70
0
 71
3
 72
12
 73
8
 74
6
 42
0.0000001
 43
0.0000001
 44
0.0000000001
 12
-0.0037710146
 22
-0.0344486008
 32
0.0
 13
-0.0345141171
 23
-0.0031148624
 33
0.0
 40
0.0
 40
0.0
 40
0.0
 40
0.0
 40
0.029921379
 40
0.0830625716
 40
0.2741849632
 40
0.5810241446
 40
1.0
 40
1.0
 40
1.0
 40
1.0
 10
23.2607192511
 20
22.3334109614
 30
0.0
 10
23.2606816398
 20
22.3330673782
 30
0.0
 10
23.2598861623
 20
22.3323145409
 30
0.0
 10
23.2569546858
 20
22.3312764657
 30
0.0
 10
23.2505917423
 20
22.3301849672
 30
0.0
 10
23.2401021029
 20
22.3290818085
 30
0.0
 10
23.2317355339
 20
22.328345856
 30
0.0
 10
23.22691534
 20
22.3279108386
 30
0.0
 11
23.2607192511
 21
22.3334109614
 31
0.0
 11
23.2600965195
 21
22.3325818766
 31
0.0
 11
23.2584200498
 21
22.3318197414
 31
0.0
 11
23.2519355634
 21
22.3304711844
 31
0.0
 11
23.2413736105
 21
22.3292412515
 31
0.0
 11
23.22691534
 21
22.3279108386
 31
0.0
  0
SPLINE
  5
6ED
100
AcDbEntity
  8
RACCORDO
100
AcDbSpline
 62
253
  6
CONTINUOUS
 70
0
 71
3
 72
12
 73
8
 74
6
 42
0.0000001
 43
0.0000001
 44
0.0000000001
 12
-0.0012250292
 22
-0.3647209726
 32
0.0
 13
-0.3647218726
 23
-0.0009188052
 33
0.0
 40
0.0
 40
0.0
 40
0.0
 40
0.0
 40
0.1163886204
 40
0.2342768317
 40
0.4774314757
 40
0.7341995903
 40
1.0
 40
1.0
 40
1.0
 40
1.0
 10
23.2549014213
 20
23.8443375673
 30
0.0
 10
23.2548538948
 20
23.830187777
 30
0.0
 10
23.2514864572
 20
23.8016106793
 30
0.0
 10
23.2319553237
 20
23.7465222824
 30
0.0
 10
23.1839411288
 20
23.6857279355
 30
0.0
 10
23.1012766835
 20
23.6388607872
 30
0.0
 10
23.0372200598
 20
23.6279126226
 30
0.0
 10
23.0049056521
 20
23.6278312164
 30
0.0
 11
23.2549014213
 21
23.8443375673
 31
0.0
 11
23.2499737094
 21
23.8021749409
 31
0.0
 11
23.2356629728
 21
23.7616298332
 31
0.0
 11
23.1814228098
 21
23.6914666374
 31
0.0
 11
23.1004067009
 21
23.6444924834
 31
0.0
 11
23.0049056521
 21
23.6278312164
 31
0.0
  0
SPLINE
  5
6EE
100
AcDbEntity
  8
RACCORDO
100
AcDbSpline
 62
7
  6
CONTINUOUS
 70
0
 71
3
 72
13
 73
9
 74
7
 42
0.0000001
 43
0.0000001
 44
0.0000000001
 12
-0.0031696367
 22
-0.3145566487
 32
0.0
 13
-0.3145726178
 23
-0.0
 33
0.0
 40
0.0
 40
0.0
 40
0.0
 40
0.0
 40
0.0848322853
 40
0.1759482271
 40
0.2781995767
 40
0.3947846151
 40
0.6739262862
 40
1.0
 40
1.0
 40
1.0
 40
1.0
 10
23.2607192511
 20
23.2669872981
 30
0.0
 10
23.2606296219
 20
23.258092445
 30
0.0
 10
23.2573881504
 20
23.2395646609
 30
0.0
 10
23.2438395915
 20
23.2133256907
 30
0.0
 10
23.2219758939
 20
23.1888896337
 30
0.0
 10
23.1796358337
 20
23.1578237628
 30
0.0
 10
23.1078624508
 20
23.1301860757
 30
0.0
 10
23.0441875404
 20
23.1226497308
 30
0.0
 10
23.0099962532
 20
23.1226497308
 30
0.0
 11
23.2607192511
 21
23.2669872981
 31
0.0
 11
23.2562655033
 21
23.240675663
 31
0.0
 11
23.2434442915
 21
23.2150405302
 31
0.0
 11
23.2222949252
 21
23.1908058016
 31
0.0
 11
23.1929620071
 21
23.1687922607
 31
0.0
 11
23.11178586
 21
23.1353096304
 31
0.0
 11
23.0099962532
 21
23.1226497308
 31
0.0
  0
SPLINE
  5
6EF
100
AcDbEntity
  8
RACCORDO
100
AcDbSpline
 62
7
  6
CONTINUOUS
 70
0
 71
3
 72
13
 73
9
 74
7
 42
0.0000001
 43
0.0000001
 44
0.0000000001
 12
0.4498518931
 22
0.0034684605
 32
0.0
 13
0.3802055421
 23
0.2404630984
 33
0.0
 40
0.0
 40
0.0
 40
0.0
 40
0.0
 40
0.0927966287
 40
0.2002447148
 40
0.3193571807
 40
0.4469985052
 40
0.7183509509
 40
1.0
 40
1.0
 40
1.0
 40
1.0
 10
8.3217926863
 20
-23.7953389668
 30
0.0
 10
8.3357075994
 20
-23.7952316797
 30
0.0
 10
8.365617728
 20
-23.789799767
 30
0.0
 10
8.4107527531
 20
-23.7736730732
 30
0.0
 10
8.4589973744
 20
-23.7513098509
 30
0.0
 10
8.5275790721
 20
-23.714769798
 30
0.0
 10
8.6151408474
 20
-23.6622363788
 30
0.0
 10
8.6852225335
 20
-23.6179177525
 30
0.0
 10
8.7209173766
 20
-23.5953423515
 30
0.0
 11
8.3217926863
 21
-23.7953389668
 31
0.0
 11
8.3630836512
 21
-23.7891921748
 31
0.0
 11
8.408843092
 21
-23.7736180048
 31
0.0
 11
8.4576150913
 21
-23.7514234725
 31
0.0
 11
8.5084039638
 21
-23.7246334111
 31
0.0
 11
8.6135611109
 21
-23.6626369814
 31
0.0
 11
8.7209173766
 21
-23.5953423515
 31
0.0
  0
SPLINE
  5
6F0
100
AcDbEntity
  8
RACCORDO
100
AcDbSpline
 62
7
  6
CONTINUOUS
 70
0
 71
3
 72
13
 73
9
 74
7
 42
0.0000001
 43
0.0000001
 44
0.0000000001
 12
0.0031696367
 22
-0.3145566487
 32
0.0
 13
0.3145726178
 23
0.0
 33
0.0
 40
0.0
 40
0.0
 40
0.0
 40
0.0
 40
0.0848322853
 40
0.1759482271
 40
0.2781995767
 40
0.3947846151
 40
0.6739262862
 40
1.0
 40
1.0
 40
1.0
 40
1.0
 10
20.8752807489
 20
23.2669872981
 30
0.0
 10
20.8753703781
 20
23.258092445
 30
0.0
 10
20.8786118496
 20
23.2395646609
 30
0.0
 10
20.8921604085
 20
23.2133256907
 30
0.0
 10
20.9140241061
 20
23.1888896337
 30
0.0
 10
20.9563641663
 20
23.1578237628
 30
0.0
 10
21.0281375492
 20
23.1301860757
 30
0.0
 10
21.0918124596
 20
23.1226497308
 30
0.0
 10
21.1260037468
 20
23.1226497308
 30
0.0
 11
20.8752807489
 21
23.2669872981
 31
0.0
 11
20.8797344967
 21
23.240675663
 31
0.0
 11
20.8925557085
 21
23.2150405302
 31
0.0
 11
20.9137050748
 21
23.1908058016
 31
0.0
 11
20.9430379929
 21
23.1687922607
 31
0.0
 11
21.02421414
 21
23.1353096304
 31
0.0
 11
21.1260037468
 21
23.1226497308
 31
0.0
  0
SPLINE
  5
6F1
100
AcDbEntity
  8
RACCORDO
100
AcDbSpline
 62
253
  6
CONTINUOUS
 70
0
 71
3
 72
12
 73
8
 74
6
 42
0.0000001
 43
0.0000001
 44
0.0000000001
 12
0.0012250292
 22
-0.3647209726
 32
0.0
 13
0.3647218726
 23
-0.0009188052
 33
0.0
 40
0.0
 40
0.0
 40
0.0
 40
0.0
 40
0.1163886204
 40
0.2342768317
 40
0.4774314757
 40
0.7341995903
 40
1.0
 40
1.0
 40
1.0
 40
1.0
 10
20.8810985787
 20
23.8443375673
 30
0.0
 10
20.8811461052
 20
23.830187777
 30
0.0
 10
20.8845135428
 20
23.8016106793
 30
0.0
 10
20.9040446763
 20
23.7465222824
 30
0.0
 10
20.9520588712
 20
23.6857279355
 30
0.0
 10
21.0347233165
 20
23.6388607872
 30
0.0
 10
21.0987799402
 20
23.6279126226
 30
0.0
 10
21.1310943479
 20
23.6278312164
 30
0.0
 11
20.8810985787
 21
23.8443375673
 31
0.0
 11
20.8860262906
 21
23.8021749409
 31
0.0
 11
20.9003370272
 21
23.7616298332
 31
0.0
 11
20.9545771902
 21
23.6914666374
 31
0.0
 11
21.0355932991
 21
23.6444924834
 31
0.0
 11
21.1310943479
 21
23.6278312164
 31
0.0
  0
SPLINE
  5
6F2
100
AcDbEntity
  8
RACCORDO
100
AcDbSpline
 62
7
  6
CONTINUOUS
 70
0
 71
3
 72
13
 73
9
 74
7
 42
0.0000001
 43
0.0000001
 44
0.0000000001
 12
-0.4498518931
 22
0.0034684605
 32
0.0
 13
-0.3802055421
 23
0.2404630984
 33
0.0
 40
0.0
 40
0.0
 40
0.0
 40
0.0
 40
0.0927966287
 40
0.2002447148
 40
0.3193571807
 40
0.4469985052
 40
0.7183509509
 40
1.0
 40
1.0
 40
1.0
 40
1.0
 10
16.9142073137
 20
-23.7953389668
 30
0.0
 10
16.9002924006
 20
-23.7952316797
 30
0.0
 10
16.870382272
 20
-23.789799767
 30
0.0
 10
16.8252472469
 20
-23.7736730732
 30
0.0
 10
16.7770026256
 20
-23.7513098509
 30
0.0
 10
16.7084209279
 20
-23.714769798
 30
0.0
 10
16.6208591526
 20
-23.6622363788
 30
0.0
 10
16.5507774665
 20
-23.6179177525
 30
0.0
 10
16.5150826234
 20
-23.5953423515
 30
0.0
 11
16.9142073137
 21
-23.7953389668
 31
0.0
 11
16.8729163488
 21
-23.7891921748
 31
0.0
 11
16.827156908
 21
-23.7736180048
 31
0.0
 11
16.7783849087
 21
-23.7514234725
 31
0.0
 11
16.7275960362
 21
-23.7246334111
 31
0.0
 11
16.6224388891
 21
-23.6626369814
 31
0.0
 11
16.5150826234
 21
-23.5953423515
 31
0.0
  0
SPLINE
  5
6F3
100
AcDbEntity
  8
RACCORDO
100
AcDbSpline
 62
253
  6
CONTINUOUS
 70
0
 71
3
 72
12
 73
8
 74
6
 42
0.0000001
 43
0.0000001
 44
0.0000000001
 12
-0.0012250292
 22
-0.3647209726
 32
0.0
 13
-0.3647218726
 23
-0.0009188052
 33
0.0
 40
0.0
 40
0.0
 40
0.0
 40
0.0
 40
0.1163886204
 40
0.2342768317
 40
0.4774314757
 40
0.7341995903
 40
1.0
 40
1.0
 40
1.0
 40
1.0
 10
4.3549014213
 20
23.8443375673
 30
0.0
 10
4.3548538948
 20
23.830187777
 30
0.0
 10
4.3514864572
 20
23.8016106793
 30
0.0
 10
4.3319553237
 20
23.7465222824
 30
0.0
 10
4.2839411288
 20
23.6857279355
 30
0.0
 10
4.2012766835
 20
23.6388607872
 30
0.0
 10
4.1372200598
 20
23.6279126226
 30
0.0
 10
4.1049056521
 20
23.6278312164
 30
0.0
 11
4.3549014213
 21
23.8443375673
 31
0.0
 11
4.3499737094
 21
23.8021749409
 31
0.0
 11
4.3356629728
 21
23.7616298332
 31
0.0
 11
4.2814228098
 21
23.6914666374
 31
0.0
 11
4.2004067009
 21
23.6444924834
 31
0.0
 11
4.1049056521
 21
23.6278312164
 31
0.0
  0
SPLINE
  5
6F4
100
AcDbEntity
  8
RACCORDO
100
AcDbSpline
 62
7
  6
CONTINUOUS
 70
0
 71
3
 72
13
 73
9
 74
7
 42
0.0000001
 43
0.0000001
 44
0.0000000001
 12
-0.0031696367
 22
-0.3145566487
 32
0.0
 13
-0.3145726178
 23
0.0
 33
0.0
 40
0.0
 40
0.0
 40
0.0
 40
0.0
 40
0.0848322853
 40
0.1759482271
 40
0.2781995767
 40
0.3947846151
 40
0.6739262862
 40
1.0
 40
1.0
 40
1.0
 40
1.0
 10
4.3607192511
 20
23.2669872981
 30
0.0
 10
4.3606296219
 20
23.258092445
 30
0.0
 10
4.3573881504
 20
23.2395646609
 30
0.0
 10
4.3438395915
 20
23.2133256907
 30
0.0
 10
4.3219758939
 20
23.1888896337
 30
0.0
 10
4.2796358337
 20
23.1578237628
 30
0.0
 10
4.2078624508
 20
23.1301860757
 30
0.0
 10
4.1441875404
 20
23.1226497308
 30
0.0
 10
4.1099962532
 20
23.1226497308
 30
0.0
 11
4.3607192511
 21
23.2669872981
 31
0.0
 11
4.3562655033
 21
23.240675663
 31
0.0
 11
4.3434442915
 21
23.2150405302
 31
0.0
 11
4.3222949252
 21
23.1908058016
 31
0.0
 11
4.2929620071
 21
23.1687922607
 31
0.0
 11
4.21178586
 21
23.1353096304
 31
0.0
 11
4.1099962532
 21
23.1226497308
 31
0.0
  0
SPLINE
  5
6F5
100
AcDbEntity
  8
RACCORDO
100
AcDbSpline
 62
7
  6
CONTINUOUS
 70
0
 71
3
 72
12
 73
8
 74
6
 42
0.0000001
 43
0.0000001
 44
0.0000000001
 12
-0.0345141171
 22
0.0031148624
 32
0.0
 13
-0.0037710146
 23
0.0344486008
 33
0.0
 40
0.0
 40
0.0
 40
0.0
 40
0.0
 40
0.4189758554
 40
0.7258150368
 40
0.9169374284
 40
0.970078621
 40
1.0
 40
1.0
 40
1.0
 40
1.0
 10
2.00908466
 20
22.3279108386
 30
0.0
 10
2.0042644661
 20
22.328345856
 30
0.0
 10
1.9958978971
 20
22.3290818085
 30
0.0
 10
1.9854082577
 20
22.3301849672
 30
0.0
 10
1.9790453142
 20
22.3312764657
 30
0.0
 10
1.9761138377
 20
22.3323145409
 30
0.0
 10
1.9753183602
 20
22.3330673782
 30
0.0
 10
1.9752807489
 20
22.3334109614
 30
0.0
 11
2.00908466
 21
22.3279108386
 31
0.0
 11
1.9946263895
 21
22.3292412515
 31
0.0
 11
1.9840644366
 21
22.3304711844
 31
0.0
 11
1.9775799502
 21
22.3318197414
 31
0.0
 11
1.9759034805
 21
22.3325818766
 31
0.0
 11
1.9752807489
 21
22.3334109614
 31
0.0
  0
SPLINE
  5
6F6
100
AcDbEntity
  8
RACCORDO
100
AcDbSpline
 62
7
  6
CONTINUOUS
 70
0
 71
3
 72
13
 73
9
 74
7
 42
0.0000001
 43
0.0000001
 44
0.0000000001
 12
0.0031696367
 22
-0.3145566487
 32
0.0
 13
0.3145726178
 23
-0.0
 33
0.0
 40
0.0
 40
0.0
 40
0.0
 40
0.0
 40
0.0848322853
 40
0.1759482271
 40
0.2781995767
 40
0.3947846151
 40
0.6739262862
 40
1.0
 40
1.0
 40
1.0
 40
1.0
 10
1.9752807489
 20
23.2669872981
 30
0.0
 10
1.9753703781
 20
23.258092445
 30
0.0
 10
1.9786118496
 20
23.2395646609
 30
0.0
 10
1.9921604085
 20
23.2133256907
 30
0.0
 10
2.0140241061
 20
23.1888896337
 30
0.0
 10
2.0563641663
 20
23.1578237628
 30
0.0
 10
2.1281375492
 20
23.1301860757
 30
0.0
 10
2.1918124596
 20
23.1226497308
 30
0.0
 10
2.2260037468
 20
23.1226497308
 30
0.0
 11
1.9752807489
 21
23.2669872981
 31
0.0
 11
1.9797344967
 21
23.240675663
 31
0.0
 11
1.9925557085
 21
23.2150405302
 31
0.0
 11
2.0137050748
 21
23.1908058016
 31
0.0
 11
2.0430379929
 21
23.1687922607
 31
0.0
 11
2.12421414
 21
23.1353096304
 31
0.0
 11
2.2260037468
 21
23.1226497308
 31
0.0
  0
SPLINE
  5
6F7
100
AcDbEntity
  8
RACCORDO
100
AcDbSpline
 62
253
  6
CONTINUOUS
 70
0
 71
3
 72
12
 73
8
 74
6
 42
0.0000001
 43
0.0000001
 44
0.0000000001
 12
0.0012250292
 22
-0.3647209726
 32
0.0
 13
0.3647218726
 23
-0.0009188052
 33
0.0
 40
0.0
 40
0.0
 40
0.0
 40
0.0
 40
0.1163886204
 40
0.2342768317
 40
0.4774314757
 40
0.7341995903
 40
1.0
 40
1.0
 40
1.0
 40
1.0
 10
1.9810985787
 20
23.8443375673
 30
0.0
 10
1.9811461052
 20
23.830187777
 30
0.0
 10
1.9845135428
 20
23.8016106793
 30
0.0
 10
2.0040446763
 20
23.7465222824
 30
0.0
 10
2.0520588712
 20
23.6857279355
 30
0.0
 10
2.1347233165
 20
23.6388607872
 30
0.0
 10
2.1987799402
 20
23.6279126226
 30
0.0
 10
2.2310943479
 20
23.6278312164
 30
0.0
 11
1.9810985787
 21
23.8443375673
 31
0.0
 11
1.9860262906
 21
23.8021749409
 31
0.0
 11
2.0003370272
 21
23.7616298332
 31
0.0
 11
2.0545771902
 21
23.6914666374
 31
0.0
 11
2.1355932991
 21
23.6444924834
 31
0.0
 11
2.2310943479
 21
23.6278312164
 31
0.0
  0
LINE
  5
6F8
100
AcDbEntity
  8
RACCORDO
100
AcDbLine
 62
7
  6
CONTINUOUS
 10
23.2607192511
 20
22.3334109614
 11
23.268
 21
22.3997080771
  0
SPLINE
  5
6F9
100
AcDbEntity
  8
RACCORDO
100
AcDbSpline
 62
253
  6
CONTINUOUS
 70
0
 71
3
 72
20
 73
16
 74
14
 42
0.0000001
 43
0.0000001
 44
0.0000000001
 12
-0.3113032356
 22
-1.4023841043
 32
0.0
 13
-0.0006884906
 23
-1.4365202423
 33
0.0
 40
0.0
 40
0.0
 40
0.0
 40
0.0
 40
0.0036756393
 40
0.0095490152
 40
0.0278641228
 40
0.0548137329
 40
0.0901742583
 40
0.1336468814
 40
0.1848627443
 40
0.2433865001
 40
0.3087203075
 40
0.4575402753
 40
0.626264468
 40
0.8091562007
 40
1.0
 40
1.0
 40
1.0
 40
1.0
 10
23.1172759622
 20
21.998725222
 30
0.0
 10
23.1168945494
 20
21.9970070026
 30
0.0
 10
23.1163145289
 20
21.9924611896
 30
0.0
 10
23.1151080921
 20
21.9791792285
 30
0.0
 10
23.1138262854
 20
21.9547141328
 30
0.0
 10
23.112330458
 20
21.9161410531
 30
0.0
 10
23.1108909938
 20
21.8655057475
 30
0.0
 10
23.1094817527
 20
21.8032496116
 30
0.0
 10
23.1081420725
 20
21.7298972103
 30
0.0
 10
23.1068793924
 20
21.6460745229
 30
0.0
 10
23.105247753
 20
21.5155156221
 30
0.0
 10
23.1035463591
 20
21.3321857505
 30
0.0
 10
23.1020447133
 20
21.0925613976
 30
0.0
 10
23.1010678733
 20
20.8328115098
 30
0.0
 10
23.1007929896
 20
20.6538519851
 30
0.0
 10
23.1007491915
 20
20.5624683248
 30
0.0
 11
23.1172759622
 21
21.998725222
 31
0.0
 11
23.1164727033
 21
21.993506548
 31
0.0
 11
23.1156727845
 21
21.9851073288
 31
0.0
 11
23.1140909784
 21
21.9588448965
 31
0.0
 11
23.1125441441
 21
21.9201621466
 31
0.0
 11
23.1110453398
 21
21.8693881471
 31
0.0
 11
23.1096074197
 21
21.8069553934
 31
0.0
 11
23.1082425831
 21
21.7333954216
 31
0.0
 11
23.1069624807
 21
21.6493345984
 31
0.0
 11
23.1057780116
 21
21.5554887254
 31
0.0
 11
23.1037354522
 21
21.3417155625
 31
0.0
 11
23.1021843741
 21
21.0993447796
 31
0.0
 11
23.1011775337
 21
20.8366190025
 31
0.0
 11
23.1007491915
 21
20.5624683248
 31
0.0
  0
SPLINE
  5
6FA
100
AcDbEntity
  8
RACCORDO
100
AcDbSpline
 62
253
  6
CONTINUOUS
 70
0
 71
3
 72
20
 73
16
 74
14
 42
0.0000001
 43
0.0000001
 44
0.0000000001
 12
-0.3025978713
 22
-0.9088481034
 32
0.0
 13
-0.0006885379
 23
-0.9578986756
 33
0.0
 40
0.0
 40
0.0
 40
0.0
 40
0.0
 40
0.0037275326
 40
0.0096318925
 40
0.0279829027
 40
0.0549514503
 40
0.0903208801
 40
0.1337956133
 40
0.1850084482
 40
0.2435252561
 40
0.3088490649
 40
0.4576424794
 40
0.6263347798
 40
0.8091919705
 40
1.0
 40
1.0
 40
1.0
 40
1.0
 10
23.6171998097
 20
21.4994104546
 30
0.0
 10
23.6168238286
 20
21.4982812009
 30
0.0
 10
23.6162386464
 20
21.4952473812
 30
0.0
 10
23.6150362136
 20
21.486401405
 30
0.0
 10
23.6137493385
 20
21.4700799663
 30
0.0
 10
23.6122554395
 20
21.4443654918
 30
0.0
 10
23.6108149466
 20
21.4106064366
 30
0.0
 10
23.6094059922
 20
21.3691039906
 30
0.0
 10
23.6080661886
 20
21.3202035816
 30
0.0
 10
23.6068035224
 20
21.2643233079
 30
0.0
 10
23.6051718524
 20
21.1772864326
 30
0.0
 10
23.6034703935
 20
21.0550666866
 30
0.0
 10
23.6019686537
 20
20.8953140355
 30
0.0
 10
23.6009917539
 20
20.7221418744
 30
0.0
 10
23.600716832
 20
20.6028307761
 30
0.0
 10
23.6006730391
 20
20.5419058565
 30
0.0
 11
23.6171998097
 21
21.4994104546
 31
0.0
 11
23.6163965536
 21
21.4959313799
 31
0.0
 11
23.6155967015
 21
21.490332444
 31
0.0
 11
23.6140149375
 21
21.472825342
 31
0.0
 11
23.6124681525
 21
21.4470385484
 31
0.0
 11
23.6109694024
 21
21.4131913758
 31
0.0
 11
23.6095315034
 21
21.371571807
 31
0.0
 11
23.6081666853
 21
21.3225340767
 31
0.0
 11
23.6068865814
 21
21.2664955084
 31
0.0
 11
23.6057020989
 21
21.2039331141
 31
0.0
 11
23.6036594799
 21
21.0614187
 31
0.0
 11
23.6021083227
 21
20.8998359723
 31
0.0
 11
23.6011014163
 21
20.7246801605
 31
0.0
 11
23.6006730391
 21
20.5419058565
 31
0.0
  0
SPLINE
  5
6FB
100
AcDbEntity
  8
RACCORDO
100
AcDbSpline
 62
253
  6
CONTINUOUS
 70
0
 71
3
 72
20
 73
16
 74
14
 42
0.0000001
 43
0.0000001
 44
0.0000000001
 12
-0.1956816154
 22
0.4615658303
 32
0.0
 13
-0.5013324057
 23
0.0003595712
 33
0.0
 40
0.0
 40
0.0
 40
0.0
 40
0.0
 40
0.0028346756
 40
0.0076285697
 40
0.0238284213
 40
0.0490221826
 40
0.0830758085
 40
0.1257049518
 40
0.1765260437
 40
0.2350733681
 40
0.3008018987
 40
0.4512806635
 40
0.6223374963
 40
0.8075537286
 40
1.0
 40
1.0
 40
1.0
 40
1.0
 10
23.6006730391
 20
20.5419058565
 30
0.0
 10
23.6004881411
 20
20.5423419863
 30
0.0
 10
23.5993871819
 20
20.5431624732
 30
0.0
 10
23.5957423776
 20
20.5446306524
 30
0.0
 10
23.5881050337
 20
20.5462610494
 30
0.0
 10
23.5756716759
 20
20.5480980032
 30
0.0
 10
23.5587214634
 20
20.5499038014
 30
0.0
 10
23.537493335
 20
20.5516684759
 30
0.0
 10
23.5121454307
 20
20.5533526262
 30
0.0
 10
23.4829282008
 20
20.5549397927
 30
0.0
 10
23.4370588112
 20
20.5569936283
 30
0.0
 10
23.3723758435
 20
20.5591221786
 30
0.0
 10
23.2877111918
 20
20.5609785494
 30
0.0
 10
23.1960206436
 20
20.5621518005
 30
0.0
 10
23.1329090423
 20
20.5624452588
 30
0.0
 10
23.1007491915
 20
20.5624683248
 30
0.0
 11
23.6006730391
 21
20.5419058565
 31
0.0
 11
23.5996608368
 21
20.5429033607
 31
0.0
 11
23.5974734688
 21
20.543899072
 31
0.0
 11
23.5895957724
 21
20.5458741331
 31
0.0
 11
23.5771147652
 21
20.5478113432
 31
0.0
 11
23.5601465921
 21
20.5496930427
 31
0.0
 11
23.5388518631
 21
20.5515014257
 31
0.0
 11
23.5134315842
 21
20.5532194191
 31
0.0
 11
23.4841241741
 21
20.5548308614
 31
0.0
 11
23.4512060142
 21
20.5563205665
 31
0.0
 11
23.3758095421
 21
20.558879979
 31
0.0
 11
23.2900747151
 21
20.5608014234
 31
0.0
 11
23.1972276927
 21
20.5620127035
 31
0.0
 11
23.1007491915
 21
20.5624683248
 31
0.0
  0
SPLINE
  5
6FC
100
AcDbEntity
  8
RACCORDO
100
AcDbSpline
 62
253
  6
CONTINUOUS
 70
0
 71
3
 72
9
 73
5
 74
3
 42
0.0000001
 43
0.0000001
 44
0.0000000001
 12
-0.0295164958
 22
-41.1249280418
 32
0.0
 13
0.029516496
 23
-41.1249280418
 33
0.0
 40
0.0
 40
0.0
 40
0.0
 40
0.0
 40
0.2499471355
 40
1.0
 40
1.0
 40
1.0
 40
1.0
 10
23.1007491915
 20
20.5624683248
 30
0.0
 10
23.0982900037
 20
17.1361156711
 30
0.0
 10
23.0909150376
 20
3.4278046669
 30
0.0
 10
23.0933695474
 20
-10.2805116313
 30
0.0
 10
23.1007491915
 20
-20.5624683248
 30
0.0
 11
23.1007491915
 21
20.5624683248
 31
0.0
 11
23.0952173828
 21
10.2834092047
 31
0.0
 11
23.1007491915
 21
-20.5624683248
 31
0.0
  0
SPLINE
  5
6FD
100
AcDbEntity
  8
RACCORDO
100
AcDbSpline
 62
253
  6
CONTINUOUS
 70
0
 71
3
 72
9
 73
5
 74
3
 42
0.0000001
 43
0.0000001
 44
0.0000000001
 12
-0.0295164958
 22
-41.0838030965
 32
0.0
 13
0.029516496
 23
-41.0838030965
 33
0.0
 40
0.0
 40
0.0
 40
0.0
 40
0.0
 40
0.2499471355
 40
1.0
 40
1.0
 40
1.0
 40
1.0
 10
23.6006730391
 20
20.5419058565
 30
0.0
 10
23.5982138512
 20
17.1189795567
 30
0.0
 10
23.5908388852
 20
3.4243768659
 30
0.0
 10
23.593293395
 20
-10.2702311241
 30
0.0
 10
23.6006730391
 20
-20.5419058565
 30
0.0
 11
23.6006730391
 21
20.5419058565
 31
0.0
 11
23.5951412304
 21
10.2731257968
 31
0.0
 11
23.6006730391
 21
-20.5419058565
 31
0.0
  0
SPLINE
  5
6FE
100
AcDbEntity
  8
RACCORDO
100
AcDbSpline
 62
253
  6
CONTINUOUS
 70
0
 71
3
 72
20
 73
16
 74
14
 42
0.0000001
 43
0.0000001
 44
0.0000000001
 12
-0.1956842853
 22
-0.4615646944
 32
0.0
 13
-0.5013324021
 23
-0.0003595703
 33
0.0
 40
0.0
 40
0.0
 40
0.0
 40
0.0
 40
0.0028346847
 40
0.0076285899
 40
0.023828463
 40
0.0490222429
 40
0.0830758841
 40
0.1257050391
 40
0.1765261391
 40
0.2350734678
 40
0.3008019989
 40
0.451280754
 40
0.6223375646
 40
0.8075537653
 40
1.0
 40
1.0
 40
1.0
 40
1.0
 10
23.6006730391
 20
-20.5419058565
 30
0.0
 10
23.600488138
 20
-20.5423419866
 30
0.0
 10
23.5993871747
 20
-20.5431624721
 30
0.0
 10
23.5957423626
 20
-20.5446306517
 30
0.0
 10
23.5881050104
 20
-20.5462610479
 30
0.0
 10
23.575671643
 20
-20.5480980018
 30
0.0
 10
23.558721423
 20
-20.5499037994
 30
0.0
 10
23.5374932889
 20
-20.5516684735
 30
0.0
 10
23.5121453807
 20
-20.5533526233
 30
0.0
 10
23.4829281489
 20
-20.5549397893
 30
0.0
 10
23.4370587603
 20
-20.5569936241
 30
0.0
 10
23.3723757983
 20
-20.5591221736
 30
0.0
 10
23.2877111578
 20
-20.5609785435
 30
0.0
 10
23.1960206253
 20
-20.5621517941
 30
0.0
 10
23.1329090359
 20
-20.5624452521
 30
0.0
 10
23.1007491915
 20
-20.562468318
 30
0.0
 11
23.6006730391
 21
-20.5419058565
 31
0.0
 11
23.5996608302
 21
-20.5429033605
 31
0.0
 11
23.5974734561
 21
-20.5438990717
 31
0.0
 11
23.5895957485
 21
-20.5458741324
 31
0.0
 11
23.5771147319
 21
-20.547811342
 31
0.0
 11
23.5601465512
 21
-20.549693041
 31
0.0
 11
23.5388518164
 21
-20.5515014235
 31
0.0
 11
23.5134315336
 21
-20.5532194163
 31
0.0
 11
23.4841241215
 21
-20.554830858
 31
0.0
 11
23.4512059616
 21
-20.5563205627
 31
0.0
 11
23.3758094948
 21
-20.5588799741
 31
0.0
 11
23.2900746795
 21
-20.5608014176
 31
0.0
 11
23.1972276736
 21
-20.5620126971
 31
0.0
 11
23.1007491915
 21
-20.562468318
 31
0.0
  0
SPLINE
  5
6FF
100
AcDbEntity
  8
RACCORDO
100
AcDbSpline
 62
253
  6
CONTINUOUS
 70
0
 71
3
 72
20
 73
16
 74
14
 42
0.0000001
 43
0.0000001
 44
0.0000000001
 12
0.0006883777
 22
-1.4365202422
 32
0.0
 13
0.311310431
 23
-1.4023825069
 33
0.0
 40
0.0
 40
0.0
 40
0.0
 40
0.0
 40
0.1908437995
 40
0.3737355323
 40
0.542459725
 40
0.6912796928
 40
0.7566135001
 40
0.815137256
 40
0.8663531188
 40
0.9098257424
 40
0.9451862661
 40
0.9721358804
 40
0.9904509795
 40
0.9963243369
 40
1.0
 40
1.0
 40
1.0
 40
1.0
 10
23.1007491915
 20
-20.5624683248
 30
0.0
 10
23.1007929824
 20
-20.6538519852
 30
0.0
 10
23.1010678757
 20
-20.83281151
 30
0.0
 10
23.1020447158
 20
-21.0925613979
 30
0.0
 10
23.1035463643
 20
-21.3321857508
 30
0.0
 10
23.105247761
 20
-21.5155156224
 30
0.0
 10
23.1068794008
 20
-21.6460745232
 30
0.0
 10
23.1081420817
 20
-21.7298972104
 30
0.0
 10
23.1094817598
 20
-21.803249612
 30
0.0
 10
23.1108910032
 20
-21.8655057472
 30
0.0
 10
23.1123304647
 20
-21.9161410542
 30
0.0
 10
23.1138262873
 20
-21.9547141315
 30
0.0
 10
23.1151081109
 20
-21.9791792153
 30
0.0
 10
23.1163145181
 20
-21.9924611766
 30
0.0
 10
23.1168945381
 20
-21.9970069934
 30
0.0
 10
23.1172759622
 20
-21.998725222
 30
0.0
 11
23.1007491915
 21
-20.5624683248
 31
0.0
 11
23.1011775339
 21
-20.8366190028
 31
0.0
 11
23.1021843771
 21
-21.0993447799
 31
0.0
 11
23.1037354577
 21
-21.3417155628
 31
0.0
 11
23.1057780196
 21
-21.5554887257
 31
0.0
 11
23.1069624892
 21
-21.6493345986
 31
0.0
 11
23.1082425917
 21
-21.7333954219
 31
0.0
 11
23.1096074275
 21
-21.8069553934
 31
0.0
 11
23.1110453483
 21
-21.8693881478
 31
0.0
 11
23.1125441498
 21
-21.9201621449
 31
0.0
 11
23.1140909865
 21
-21.958844901
 31
0.0
 11
23.1156727885
 21
-21.9851073212
 31
0.0
 11
23.1164726914
 21
-21.9935065154
 31
0.0
 11
23.1172759622
 21
-21.998725222
 31
0.0
  0
SPLINE
  5
700
100
AcDbEntity
  8
RACCORDO
100
AcDbSpline
 62
253
  6
CONTINUOUS
 70
0
 71
3
 72
20
 73
16
 74
14
 42
0.0000001
 43
0.0000001
 44
0.0000000001
 12
0.0006885036
 22
-0.9578986751
 32
0.0
 13
0.3025872075
 23
-0.9088516532
 33
0.0
 40
0.0
 40
0.0
 40
0.0
 40
0.0
 40
0.1908080553
 40
0.373665237
 40
0.542357534
 40
0.6911509414
 40
0.7564747444
 40
0.8149915487
 40
0.8662043726
 40
0.9096791121
 40
0.945048521
 40
0.9720170687
 40
0.9903681147
 40
0.9962724392
 40
1.0
 40
1.0
 40
1.0
 40
1.0
 10
23.6006730391
 20
-20.5419058565
 30
0.0
 10
23.6007168298
 20
-20.6028307843
 30
0.0
 10
23.6009917539
 20
-20.7221418879
 30
0.0
 10
23.6019686535
 20
-20.8953140532
 30
0.0
 10
23.6034703934
 20
-21.055066698
 30
0.0
 10
23.6051718524
 20
-21.1772864387
 30
0.0
 10
23.6068035227
 20
-21.2643233087
 30
0.0
 10
23.6080661886
 20
-21.3202035759
 30
0.0
 10
23.6094059929
 20
-21.3691039821
 30
0.0
 10
23.6108149465
 20
-21.41060642
 30
0.0
 10
23.6122554393
 20
-21.4443654702
 30
0.0
 10
23.6137493424
 20
-21.4700799503
 30
0.0
 10
23.61503621
 20
-21.4864013875
 30
0.0
 10
23.6162386456
 20
-21.4952473755
 30
0.0
 10
23.616823839
 20
-21.498281188
 30
0.0
 10
23.6171998097
 20
-21.4994104546
 30
0.0
 11
23.6006730391
 21
-20.5419058565
 31
0.0
 11
23.6011014158
 21
-20.7246801851
 31
0.0
 11
23.6021083226
 21
-20.8998359882
 31
0.0
 11
23.6036594799
 21
-21.0614187125
 31
0.0
 11
23.605702099
 21
-21.2039331198
 31
0.0
 11
23.6068865816
 21
-21.2664955085
 31
0.0
 11
23.6081666855
 21
-21.3225340733
 31
0.0
 11
23.6095315037
 21
-21.371571793
 31
0.0
 11
23.6109694027
 21
-21.4131913678
 31
0.0
 11
23.6124681528
 21
-21.4470385204
 31
0.0
 11
23.6140149379
 21
-21.472825314
 31
0.0
 11
23.6155967016
 21
-21.4903324505
 31
0.0
 11
23.6163965537
 21
-21.4959313523
 31
0.0
 11
23.6171998097
 21
-21.4994104546
 31
0.0
  0
LINE
  5
701
100
AcDbEntity
  8
RACCORDO
100
AcDbLine
 62
7
  6
CONTINUOUS
 10
23.268
 20
-22.3997080771
 11
23.2607192511
 21
-22.3334109614
  0
LINE
  5
702
100
AcDbEntity
  8
RACCORDO
100
AcDbLine
 62
7
  6
CONTINUOUS
 10
1.968
 20
22.3997080771
 11
1.9752807489
 21
22.3334109614
  0
SPLINE
  5
703
100
AcDbEntity
  8
RACCORDO
100
AcDbSpline
 62
253
  6
CONTINUOUS
 70
0
 71
3
 72
20
 73
16
 74
14
 42
0.0000001
 43
0.0000001
 44
0.0000000001
 12
0.1956858694
 22
0.4615640205
 32
0.0
 13
0.5013323999
 23
0.0003595701
 33
0.0
 40
0.0
 40
0.0
 40
0.0
 40
0.0
 40
0.0028346901
 40
0.0076286019
 40
0.023828488
 40
0.0490222795
 40
0.0830759304
 40
0.1257050931
 40
0.1765261986
 40
0.2350735305
 40
0.3008020624
 40
0.4512808123
 40
0.6223376091
 40
0.8075537894
 40
1.0
 40
1.0
 40
1.0
 40
1.0
 10
1.6353269609
 20
20.5419058565
 30
0.0
 10
1.6355118638
 20
20.5423419868
 30
0.0
 10
1.6366128296
 20
20.5431624714
 30
0.0
 10
1.6402576464
 20
20.5446306512
 30
0.0
 10
1.6478950037
 20
20.5462610469
 30
0.0
 10
1.660328377
 20
20.5480980008
 30
0.0
 10
1.6772786017
 20
20.549903798
 30
0.0
 10
1.6985067397
 20
20.5516684718
 30
0.0
 10
1.7238546505
 20
20.5533526213
 30
0.0
 10
1.7530718838
 20
20.5549397869
 30
0.0
 10
1.798941272
 20
20.5569936212
 30
0.0
 10
1.8636242307
 20
20.55912217
 30
0.0
 10
1.9482888642
 20
20.5609785395
 30
0.0
 10
2.0399793866
 20
20.5621517896
 30
0.0
 10
2.1030909683
 20
20.5624452475
 30
0.0
 10
2.1352508085
 20
20.5624683135
 30
0.0
 11
1.6353269609
 21
20.5419058565
 31
0.0
 11
1.6363391737
 21
20.5429033604
 31
0.0
 11
1.6385265515
 21
20.5438990714
 31
0.0
 11
1.6464042658
 21
20.5458741318
 31
0.0
 11
1.6588852883
 21
20.5478113411
 31
0.0
 11
1.6758534739
 21
20.5496930397
 31
0.0
 11
1.6971482125
 21
20.5515014219
 31
0.0
 11
1.722568498
 21
20.5532194143
 31
0.0
 11
1.7518759116
 21
20.5548308557
 31
0.0
 11
1.7847940718
 21
20.55632056
 31
0.0
 11
1.8601905356
 21
20.5588799707
 31
0.0
 11
1.9459253437
 21
20.5608014136
 31
0.0
 11
2.0387723389
 21
20.5620126927
 31
0.0
 11
2.1352508085
 21
20.5624683135
 31
0.0
  0
SPLINE
  5
704
100
AcDbEntity
  8
RACCORDO
100
AcDbSpline
 62
253
  6
CONTINUOUS
 70
0
 71
3
 72
20
 73
16
 74
14
 42
0.0000001
 43
0.0000001
 44
0.0000000001
 12
-0.0006884906
 22
1.4365202423
 32
0.0
 13
-0.3113032347
 23
1.4023841045
 33
0.0
 40
0.0
 40
0.0
 40
0.0
 40
0.0
 40
0.1908437993
 40
0.373735532
 40
0.5424597247
 40
0.6912796925
 40
0.7566134999
 40
0.8151372557
 40
0.8663531186
 40
0.9098257417
 40
0.9451862671
 40
0.9721358772
 40
0.9904509848
 40
0.9963243607
 40
1.0
 40
1.0
 40
1.0
 40
1.0
 10
2.1352508085
 20
20.5624683248
 30
0.0
 10
2.1352070104
 20
20.6538519851
 30
0.0
 10
2.1349321267
 20
20.8328115098
 30
0.0
 10
2.1339552867
 20
21.0925613976
 30
0.0
 10
2.1324536409
 20
21.3321857505
 30
0.0
 10
2.130752247
 20
21.5155156221
 30
0.0
 10
2.1291206076
 20
21.6460745229
 30
0.0
 10
2.1278579275
 20
21.7298972103
 30
0.0
 10
2.1265182473
 20
21.8032496116
 30
0.0
 10
2.1251090062
 20
21.8655057475
 30
0.0
 10
2.123669542
 20
21.9161410531
 30
0.0
 10
2.1221737146
 20
21.9547141328
 30
0.0
 10
2.1208919079
 20
21.9791792285
 30
0.0
 10
2.1196854711
 20
21.9924611896
 30
0.0
 10
2.1191054506
 20
21.9970070026
 30
0.0
 10
2.1187240378
 20
21.998725222
 30
0.0
 11
2.1352508085
 21
20.5624683248
 31
0.0
 11
2.1348224663
 21
20.8366190025
 31
0.0
 11
2.1338156259
 21
21.0993447796
 31
0.0
 11
2.1322645478
 21
21.3417155625
 31
0.0
 11
2.1302219884
 21
21.5554887254
 31
0.0
 11
2.1290375193
 21
21.6493345984
 31
0.0
 11
2.1277574169
 21
21.7333954216
 31
0.0
 11
2.1263925803
 21
21.8069553934
 31
0.0
 11
2.1249546602
 21
21.8693881471
 31
0.0
 11
2.1234558559
 21
21.9201621466
 31
0.0
 11
2.1219090216
 21
21.9588448965
 31
0.0
 11
2.1203272155
 21
21.9851073288
 31
0.0
 11
2.1195272967
 21
21.993506548
 31
0.0
 11
2.1187240378
 21
21.998725222
 31
0.0
  0
SPLINE
  5
705
100
AcDbEntity
  8
RACCORDO
100
AcDbSpline
 62
253
  6
CONTINUOUS
 70
0
 71
3
 72
20
 73
16
 74
14
 42
0.0000001
 43
0.0000001
 44
0.0000000001
 12
-0.0006885379
 22
0.9578986756
 32
0.0
 13
-0.3025978753
 23
0.908848102
 33
0.0
 40
0.0
 40
0.0
 40
0.0
 40
0.0
 40
0.1908080295
 40
0.3736652202
 40
0.5423575206
 40
0.6911509351
 40
0.7564747439
 40
0.8149915518
 40
0.8662043867
 40
0.9096791199
 40
0.9450485497
 40
0.9720170973
 40
0.9903681075
 40
0.9962724674
 40
1.0
 40
1.0
 40
1.0
 40
1.0
 10
1.6353269609
 20
20.5419058565
 30
0.0
 10
1.635283168
 20
20.6028307761
 30
0.0
 10
1.6350082461
 20
20.7221418744
 30
0.0
 10
1.6340313463
 20
20.8953140355
 30
0.0
 10
1.6325296065
 20
21.0550666866
 30
0.0
 10
1.6308281476
 20
21.1772864326
 30
0.0
 10
1.6291964776
 20
21.2643233079
 30
0.0
 10
1.6279338114
 20
21.3202035816
 30
0.0
 10
1.6265940078
 20
21.3691039906
 30
0.0
 10
1.6251850534
 20
21.4106064366
 30
0.0
 10
1.6237445605
 20
21.4443654918
 30
0.0
 10
1.6222506615
 20
21.4700799663
 30
0.0
 10
1.6209637864
 20
21.486401405
 30
0.0
 10
1.6197613536
 20
21.4952473812
 30
0.0
 10
1.6191761714
 20
21.4982812009
 30
0.0
 10
1.6188001903
 20
21.4994104546
 30
0.0
 11
1.6353269609
 21
20.5419058565
 31
0.0
 11
1.6348985837
 21
20.7246801605
 31
0.0
 11
1.6338916773
 21
20.8998359723
 31
0.0
 11
1.6323405201
 21
21.0614187
 31
0.0
 11
1.6302979011
 21
21.2039331141
 31
0.0
 11
1.6291134186
 21
21.2664955084
 31
0.0
 11
1.6278333147
 21
21.3225340767
 31
0.0
 11
1.6264684966
 21
21.371571807
 31
0.0
 11
1.6250305976
 21
21.4131913758
 31
0.0
 11
1.6235318475
 21
21.4470385484
 31
0.0
 11
1.6219850625
 21
21.472825342
 31
0.0
 11
1.6204032985
 21
21.490332444
 31
0.0
 11
1.6196034464
 21
21.49593138
 31
0.0
 11
1.6188001903
 21
21.4994104546
 31
0.0
  0
SPLINE
  5
706
100
AcDbEntity
  8
RACCORDO
100
AcDbSpline
 62
253
  6
CONTINUOUS
 70
0
 71
3
 72
20
 73
16
 74
14
 42
0.0000001
 43
0.0000001
 44
0.0000000001
 12
0.1956816141
 22
-0.4615658308
 32
0.0
 13
0.5013324057
 23
-0.0003595712
 33
0.0
 40
0.0
 40
0.0
 40
0.0
 40
0.0
 40
0.0028346756
 40
0.0076285697
 40
0.0238284213
 40
0.0490221825
 40
0.0830758084
 40
0.1257049517
 40
0.1765260437
 40
0.2350733681
 40
0.3008018986
 40
0.4512806635
 40
0.6223374963
 40
0.8075537285
 40
1.0
 40
1.0
 40
1.0
 40
1.0
 10
1.6353269609
 20
-20.5419058565
 30
0.0
 10
1.6355118589
 20
-20.5423419863
 30
0.0
 10
1.6366128181
 20
-20.5431624732
 30
0.0
 10
1.6402576223
 20
-20.5446306524
 30
0.0
 10
1.6478949663
 20
-20.5462610494
 30
0.0
 10
1.6603283241
 20
-20.5480980032
 30
0.0
 10
1.6772785366
 20
-20.5499038014
 30
0.0
 10
1.698506665
 20
-20.5516684759
 30
0.0
 10
1.7238545692
 20
-20.5533526262
 30
0.0
 10
1.7530717991
 20
-20.5549397927
 30
0.0
 10
1.7989411888
 20
-20.5569936283
 30
0.0
 10
1.8636241565
 20
-20.5591221786
 30
0.0
 10
1.9482888082
 20
-20.5609785494
 30
0.0
 10
2.0399793564
 20
-20.5621518005
 30
0.0
 10
2.1030909577
 20
-20.5624452588
 30
0.0
 10
2.1352508085
 20
-20.5624683248
 30
0.0
 11
1.6353269609
 21
-20.5419058565
 31
0.0
 11
1.6363391632
 21
-20.5429033607
 31
0.0
 11
1.6385265312
 21
-20.543899072
 31
0.0
 11
1.6464042276
 21
-20.5458741331
 31
0.0
 11
1.6588852348
 21
-20.5478113432
 31
0.0
 11
1.6758534078
 21
-20.5496930427
 31
0.0
 11
1.6971481368
 21
-20.5515014257
 31
0.0
 11
1.7225684157
 21
-20.5532194191
 31
0.0
 11
1.7518758258
 21
-20.5548308614
 31
0.0
 11
1.7847939857
 21
-20.5563205666
 31
0.0
 11
1.8601904579
 21
-20.558879979
 31
0.0
 11
1.9459252849
 21
-20.5608014234
 31
0.0
 11
2.0387723073
 21
-20.5620127035
 31
0.0
 11
2.1352508085
 21
-20.5624683248
 31
0.0
  0
SPLINE
  5
707
100
AcDbEntity
  8
RACCORDO
100
AcDbSpline
 62
253
  6
CONTINUOUS
 70
0
 71
3
 72
9
 73
5
 74
3
 42
0.0000001
 43
0.0000001
 44
0.0000000001
 12
0.029516496
 22
41.1249280418
 32
0.0
 13
-0.0295164958
 23
41.1249280418
 33
0.0
 40
0.0
 40
0.0
 40
0.0
 40
0.0
 40
0.2499471355
 40
1.0
 40
1.0
 40
1.0
 40
1.0
 10
2.1352508085
 20
-20.5624683248
 30
0.0
 10
2.1377099964
 20
-17.1361156711
 30
0.0
 10
2.1450849624
 20
-3.4278046669
 30
0.0
 10
2.1426304526
 20
10.2805116313
 30
0.0
 10
2.1352508085
 20
20.5624683248
 30
0.0
 11
2.1352508085
 21
-20.5624683248
 31
0.0
 11
2.1407826172
 21
-10.2834092047
 31
0.0
 11
2.1352508085
 21
20.5624683248
 31
0.0
  0
SPLINE
  5
708
100
AcDbEntity
  8
RACCORDO
100
AcDbSpline
 62
253
  6
CONTINUOUS
 70
0
 71
3
 72
9
 73
5
 74
3
 42
0.0000001
 43
0.0000001
 44
0.0000000001
 12
0.029516496
 22
41.0838030965
 32
0.0
 13
-0.0295164958
 23
41.0838030965
 33
0.0
 40
0.0
 40
0.0
 40
0.0
 40
0.0
 40
0.2499471355
 40
1.0
 40
1.0
 40
1.0
 40
1.0
 10
1.6353269609
 20
-20.5419058565
 30
0.0
 10
1.6377861488
 20
-17.1189795567
 30
0.0
 10
1.6451611148
 20
-3.4243768659
 30
0.0
 10
1.642706605
 20
10.2702311241
 30
0.0
 10
1.6353269609
 20
20.5419058565
 30
0.0
 11
1.6353269609
 21
-20.5419058565
 31
0.0
 11
1.6408587696
 21
-10.2731257968
 31
0.0
 11
1.6353269609
 21
20.5419058565
 31
0.0
  0
SPLINE
  5
709
100
AcDbEntity
  8
RACCORDO
100
AcDbSpline
 62
253
  6
CONTINUOUS
 70
0
 71
3
 72
20
 73
16
 74
14
 42
0.0000001
 43
0.0000001
 44
0.0000000001
 12
0.311310432
 22
1.4023825067
 32
0.0
 13
0.0006883777
 23
1.4365202422
 33
0.0
 40
0.0
 40
0.0
 40
0.0
 40
0.0
 40
0.0036756631
 40
0.0095490205
 40
0.0278641196
 40
0.0548137339
 40
0.0901742576
 40
0.1336468812
 40
0.184862744
 40
0.2433864999
 40
0.3087203072
 40
0.457540275
 40
0.6262644677
 40
0.8091562005
 40
1.0
 40
1.0
 40
1.0
 40
1.0
 10
2.1187240378
 20
-21.998725222
 30
0.0
 10
2.1191054619
 20
-21.9970069934
 30
0.0
 10
2.1196854819
 20
-21.9924611766
 30
0.0
 10
2.1208918891
 20
-21.9791792153
 30
0.0
 10
2.1221737127
 20
-21.9547141315
 30
0.0
 10
2.1236695353
 20
-21.9161410542
 30
0.0
 10
2.1251089968
 20
-21.8655057472
 30
0.0
 10
2.1265182402
 20
-21.803249612
 30
0.0
 10
2.1278579183
 20
-21.7298972104
 30
0.0
 10
2.1291205992
 20
-21.6460745232
 30
0.0
 10
2.130752239
 20
-21.5155156224
 30
0.0
 10
2.1324536357
 20
-21.3321857508
 30
0.0
 10
2.1339552842
 20
-21.0925613979
 30
0.0
 10
2.1349321243
 20
-20.83281151
 30
0.0
 10
2.1352070176
 20
-20.6538519852
 30
0.0
 10
2.1352508085
 20
-20.5624683248
 30
0.0
 11
2.1187240378
 21
-21.998725222
 31
0.0
 11
2.1195273086
 21
-21.9935065154
 31
0.0
 11
2.1203272115
 21
-21.9851073212
 31
0.0
 11
2.1219090135
 21
-21.958844901
 31
0.0
 11
2.1234558502
 21
-21.9201621449
 31
0.0
 11
2.1249546517
 21
-21.8693881478
 31
0.0
 11
2.1263925725
 21
-21.8069553934
 31
0.0
 11
2.1277574083
 21
-21.7333954219
 31
0.0
 11
2.1290375108
 21
-21.6493345986
 31
0.0
 11
2.1302219804
 21
-21.5554887257
 31
0.0
 11
2.1322645423
 21
-21.3417155628
 31
0.0
 11
2.1338156229
 21
-21.0993447799
 31
0.0
 11
2.1348224661
 21
-20.8366190028
 31
0.0
 11
2.1352508085
 21
-20.5624683248
 31
0.0
  0
SPLINE
  5
70A
100
AcDbEntity
  8
RACCORDO
100
AcDbSpline
 62
253
  6
CONTINUOUS
 70
0
 71
3
 72
20
 73
16
 74
14
 42
0.0000001
 43
0.0000001
 44
0.0000000001
 12
0.3025872046
 22
0.9088516542
 32
0.0
 13
0.0006885036
 23
0.9578986751
 33
0.0
 40
0.0
 40
0.0
 40
0.0
 40
0.0
 40
0.0037275608
 40
0.0096318853
 40
0.0279829313
 40
0.054951479
 40
0.0903208879
 40
0.1337956274
 40
0.1850084513
 40
0.2435252556
 40
0.3088490586
 40
0.457642466
 40
0.626334763
 40
0.8091919447
 40
1.0
 40
1.0
 40
1.0
 40
1.0
 10
1.6188001903
 20
-21.4994104546
 30
0.0
 10
1.619176161
 20
-21.498281188
 30
0.0
 10
1.6197613544
 20
-21.4952473755
 30
0.0
 10
1.62096379
 20
-21.4864013875
 30
0.0
 10
1.6222506576
 20
-21.4700799503
 30
0.0
 10
1.6237445607
 20
-21.4443654702
 30
0.0
 10
1.6251850535
 20
-21.41060642
 30
0.0
 10
1.6265940071
 20
-21.3691039821
 30
0.0
 10
1.6279338114
 20
-21.3202035759
 30
0.0
 10
1.6291964773
 20
-21.2643233087
 30
0.0
 10
1.6308281476
 20
-21.1772864387
 30
0.0
 10
1.6325296066
 20
-21.055066698
 30
0.0
 10
1.6340313465
 20
-20.8953140532
 30
0.0
 10
1.6350082461
 20
-20.7221418879
 30
0.0
 10
1.6352831702
 20
-20.6028307843
 30
0.0
 10
1.6353269609
 20
-20.5419058565
 30
0.0
 11
1.6188001903
 21
-21.4994104546
 31
0.0
 11
1.6196034463
 21
-21.4959313522
 31
0.0
 11
1.6204032984
 21
-21.4903324505
 31
0.0
 11
1.6219850621
 21
-21.472825314
 31
0.0
 11
1.6235318472
 21
-21.4470385204
 31
0.0
 11
1.6250305973
 21
-21.4131913678
 31
0.0
 11
1.6264684963
 21
-21.371571793
 31
0.0
 11
1.6278333145
 21
-21.3225340733
 31
0.0
 11
1.6291134184
 21
-21.2664955085
 31
0.0
 11
1.630297901
 21
-21.2039331198
 31
0.0
 11
1.6323405201
 21
-21.0614187125
 31
0.0
 11
1.6338916774
 21
-20.8998359882
 31
0.0
 11
1.6348985842
 21
-20.7246801851
 31
0.0
 11
1.6353269609
 21
-20.5419058565
 31
0.0
  0
LINE
  5
70B
100
AcDbEntity
  8
RACCORDO
100
AcDbLine
 62
7
  6
CONTINUOUS
 10
1.9752807489
 20
-22.3334109614
 11
1.968
 21
-22.3997080771
  0
SPLINE
  5
70C
100
AcDbEntity
  8
RACCORDO
100
AcDbSpline
 62
253
  6
CONTINUOUS
 70
0
 71
3
 72
23
 73
19
 74
17
 42
0.0000001
 43
0.0000001
 44
0.0000000001
 12
-0.2500069057
 22
0.0014544976
 32
0.0
 13
0.0014544484
 23
0.250006906
 33
0.0
 40
0.0
 40
0.0
 40
0.0
 40
0.0
 40
0.0012389062
 40
0.0048607647
 40
0.0108738371
 40
0.0192698293
 40
0.0300271803
 40
0.0431186638
 40
0.0761821588
 40
0.118138791
 40
0.1685891107
 40
0.2270453895
 40
0.292943944
 40
0.3656535884
 40
0.4444701482
 40
0.617346572
 40
0.8049173772
 40
1.0
 40
1.0
 40
1.0
 40
1.0
 10
-70.5538245874
 20
-24.4869014213
 30
0.0
 10
-70.5539278324
 20
-24.4869008206
 30
0.0
 10
-70.5538400294
 20
-24.4862683713
 30
0.0
 10
-70.5540252409
 20
-24.4855825531
 30
0.0
 10
-70.5540091074
 20
-24.483956997
 30
0.0
 10
-70.5540969097
 20
-24.4819149867
 30
0.0
 10
-70.5541367698
 20
-24.4792072518
 30
0.0
 10
-70.55421302
 20
-24.4744748088
 30
0.0
 10
-70.5542807516
 20
-24.4671257043
 30
0.0
 10
-70.5543472038
 20
-24.4566723344
 30
0.0
 10
-70.5543932873
 20
-24.4440989332
 30
0.0
 10
-70.5544215176
 20
-24.4295315382
 30
0.0
 10
-70.5544302209
 20
-24.4131086594
 30
0.0
 10
-70.5544195474
 20
-24.394989155
 30
0.0
 10
-70.5543779993
 20
-24.3679544147
 30
0.0
 10
-70.5542760137
 20
-24.3313476023
 30
0.0
 10
-70.554086772
 20
-24.28505176
 30
0.0
 10
-70.5539191666
 20
-24.2531629864
 30
0.0
 10
-70.5538245874
 20
-24.2369056521
 30
0.0
 11
-70.5538245874
 21
-24.4869014213
 31
0.0
 11
-70.5538941566
 21
-24.4865995948
 31
0.0
 11
-70.5539601038
 21
-24.4856964945
 31
0.0
 11
-70.5540222395
 21
-24.4841944441
 31
0.0
 11
-70.5540803803
 21
-24.4820961579
 31
0.0
 11
-70.5541343872
 21
-24.4794072426
 31
0.0
 11
-70.5541841412
 21
-24.4761346041
 31
0.0
 11
-70.5542704316
 21
-24.4678688126
 31
0.0
 11
-70.5543384351
 21
-24.4573794077
 31
0.0
 11
-70.5543874771
 21
-24.4447663613
 31
0.0
 11
-70.5544170916
 21
-24.4301516706
 31
0.0
 11
-70.5544269984
 21
-24.413676301
 31
0.0
 11
-70.5544170914
 21
-24.3954980829
 31
0.0
 11
-70.5543874768
 21
-24.3757930874
 31
0.0
 11
-70.5542704311
 21
-24.3325722147
 31
0.0
 11
-70.5540803795
 21
-24.2856778096
 31
0.0
 11
-70.5538245874
 21
-24.2369056521
 31
0.0
  0
SPLINE
  5
70D
100
AcDbEntity
  8
RACCORDO
100
AcDbSpline
 62
7
  6
CONTINUOUS
 70
0
 71
3
 72
11
 73
7
 74
5
 42
0.0000001
 43
0.0000001
 44
0.0000000001
 12
0.2442770676
 22
-0.1514985472
 32
0.0
 13
0.2489101582
 23
-0.1437119949
 33
0.0
 40
0.0
 40
0.0
 40
0.0
 40
0.0
 40
0.0225227456
 40
0.0871911634
 40
0.3188730302
 40
1.0
 40
1.0
 40
1.0
 40
1.0
 10
-69.8023701545
 20
-23.1226497308
 30
0.0
 10
-69.8005362245
 20
-23.1237871186
 30
0.0
 10
-69.7934032737
 20
-23.1281345861
 30
0.0
 10
-69.7669704519
 20
-23.1434558003
 30
0.0
 10
-69.6860962184
 20
-23.1906667698
 30
0.0
 10
-69.610337728
 20
-23.2343585929
 30
0.0
 10
-69.5538245874
 20
-23.2669872981
 30
0.0
 11
-69.8023701545
 21
-23.1226497308
 31
0.0
 11
-69.7968448145
 21
-23.1260225969
 31
0.0
 11
-69.7808171616
 21
-23.1354346756
 31
0.0
 11
-69.7232671546
 21
-23.1689336209
 31
0.0
 11
-69.5538245874
 21
-23.2669872981
 31
0.0
  0
SPLINE
  5
70E
100
AcDbEntity
  8
RACCORDO
100
AcDbSpline
 62
253
  6
CONTINUOUS
 70
0
 71
3
 72
23
 73
19
 74
17
 42
0.0000001
 43
0.0000001
 44
0.0000000001
 12
0.1246405913
 22
-0.2158911439
 32
0.0
 13
-0.2158893171
 23
-0.1246437554
 33
0.0
 40
0.0
 40
0.0
 40
0.0
 40
0.0
 40
0.1952396719
 40
0.3828780266
 40
0.5557565082
 40
0.6345570769
 40
0.7072432922
 40
0.7731137541
 40
0.8315398341
 40
0.8819601501
 40
0.9238889979
 40
0.9569285413
 40
0.9700098801
 40
0.9807584244
 40
0.9891469756
 40
0.9951538559
 40
0.9987701865
 40
1.0
 40
1.0
 40
1.0
 40
1.0
 10
-67.5509157217
 20
23.8443375673
 30
0.0
 10
-67.5428041257
 20
23.8302873953
 30
0.0
 10
-67.5269101188
 20
23.8027263465
 30
0.0
 10
-67.5038800462
 20
23.7626975287
 30
0.0
 10
-67.4857107928
 20
23.731034834
 30
0.0
 10
-67.4723210263
 20
23.7076425082
 30
0.0
 10
-67.4633614458
 20
23.6919599717
 30
0.0
 10
-67.4552554195
 20
23.6777394934
 30
0.0
 10
-67.4480813221
 20
23.6651179971
 30
0.0
 10
-67.4419058333
 20
23.6542157421
 30
0.0
 10
-67.4367935354
 20
23.6451400919
 30
0.0
 10
-67.4332142419
 20
23.6387512992
 30
0.0
 10
-67.4309357848
 20
23.6346226741
 30
0.0
 10
-67.4296258805
 20
23.6322635419
 30
0.0
 10
-67.4286905888
 20
23.6304560673
 30
0.0
 10
-67.427859752
 20
23.6290629562
 30
0.0
 10
-67.42768861
 20
23.6283790951
 30
0.0
 10
-67.4272816533
 20
23.6278823125
 30
0.0
 10
-67.4273701545
 20
23.6278312164
 30
0.0
 11
-67.5509157217
 21
23.8443375673
 31
0.0
 11
-67.5266018204
 21
23.8021749995
 31
0.0
 11
-67.503276342
 21
23.7616298799
 31
0.0
 11
-67.4818291906
 21
23.7242490909
 31
0.0
 11
-67.4720710602
 21
23.707200175
 31
0.0
 11
-67.4630831502
 21
23.6914666636
 31
0.0
 11
-67.4549522062
 21
23.6772003888
 31
0.0
 11
-67.4477558266
 21
23.6645375218
 31
0.0
 11
-67.4415631757
 21
23.6535997554
 31
0.0
 11
-67.4364339366
 21
23.6444924903
 31
0.0
 11
-67.4324167968
 21
23.6373022208
 31
0.0
 11
-67.430838069
 21
23.634448831
 31
0.0
 11
-67.4295508156
 21
23.6320988139
 31
0.0
 11
-67.428558345
 21
23.6302581736
 31
0.0
 11
-67.427863312
 21
23.628931804
 31
0.0
 11
-67.4274669148
 21
23.6281221236
 31
0.0
 11
-67.4273701545
 21
23.6278312164
 31
0.0
  0
SPLINE
  5
70F
100
AcDbEntity
  8
RACCORDO
100
AcDbSpline
 62
7
  6
CONTINUOUS
 70
0
 71
3
 72
9
 73
5
 74
3
 42
0.0000001
 43
0.0000001
 44
0.0000000001
 12
0.1240404534
 22
-0.0065006847
 32
0.0
 13
0.1240356311
 23
-0.0065920554
 33
0.0
 40
0.0
 40
0.0
 40
0.0
 40
0.0
 40
0.482213368
 40
1.0
 40
1.0
 40
1.0
 40
1.0
 10
-69.6779132965
 20
-22.3279108386
 30
0.0
 10
-69.6579753083
 20
-22.3289557443
 30
0.0
 10
-69.6165966039
 20
-22.3304456948
 30
0.0
 10
-69.5752325846
 20
-22.332273202
 30
0.0
 10
-69.5538245874
 20
-22.3334109614
 30
0.0
 11
-69.6779132965
 21
-22.3279108386
 31
0.0
 11
-69.6180719942
 21
-22.3304711844
 31
0.0
 11
-69.5538245874
 21
-22.3334109614
 31
0.0
  0
SPLINE
  5
710
100
AcDbEntity
  8
RACCORDO
100
AcDbSpline
 62
253
  6
CONTINUOUS
 70
0
 71
3
 72
23
 73
19
 74
17
 42
0.0000001
 43
0.0000001
 44
0.0000000001
 12
-0.1246405913
 22
0.2158911439
 32
0.0
 13
0.2158893171
 23
0.1246437554
 33
0.0
 40
0.0
 40
0.0
 40
0.0
 40
0.0
 40
0.1952396719
 40
0.3828780266
 40
0.5557565082
 40
0.6345570769
 40
0.7072432922
 40
0.7731137541
 40
0.8315398341
 40
0.8819601501
 40
0.9238889979
 40
0.9569285413
 40
0.9700098801
 40
0.9807584244
 40
0.9891469756
 40
0.9951538559
 40
0.9987701865
 40
1.0
 40
1.0
 40
1.0
 40
1.0
 10
-70.5538245874
 20
-23.8443375673
 30
0.0
 10
-70.5619361834
 20
-23.8302873953
 30
0.0
 10
-70.5778301903
 20
-23.8027263465
 30
0.0
 10
-70.6008602629
 20
-23.7626975287
 30
0.0
 10
-70.6190295163
 20
-23.731034834
 30
0.0
 10
-70.6324192828
 20
-23.7076425082
 30
0.0
 10
-70.6413788633
 20
-23.6919599717
 30
0.0
 10
-70.6494848896
 20
-23.6777394934
 30
0.0
 10
-70.656658987
 20
-23.6651179971
 30
0.0
 10
-70.6628344757
 20
-23.6542157421
 30
0.0
 10
-70.6679467737
 20
-23.6451400919
 30
0.0
 10
-70.6715260672
 20
-23.6387512992
 30
0.0
 10
-70.6738045243
 20
-23.6346226741
 30
0.0
 10
-70.6751144286
 20
-23.6322635419
 30
0.0
 10
-70.6760497203
 20
-23.6304560673
 30
0.0
 10
-70.6768805571
 20
-23.6290629562
 30
0.0
 10
-70.6770516991
 20
-23.6283790951
 30
0.0
 10
-70.6774586557
 20
-23.6278823125
 30
0.0
 10
-70.6773701545
 20
-23.6278312164
 30
0.0
 11
-70.5538245874
 21
-23.8443375673
 31
0.0
 11
-70.5781384887
 21
-23.8021749995
 31
0.0
 11
-70.6014639671
 21
-23.7616298799
 31
0.0
 11
-70.6229111185
 21
-23.7242490909
 31
0.0
 11
-70.6326692489
 21
-23.707200175
 31
0.0
 11
-70.6416571589
 21
-23.6914666636
 31
0.0
 11
-70.6497881029
 21
-23.6772003888
 31
0.0
 11
-70.6569844825
 21
-23.6645375218
 31
0.0
 11
-70.6631771334
 21
-23.6535997554
 31
0.0
 11
-70.6683063725
 21
-23.6444924903
 31
0.0
 11
-70.6723235123
 21
-23.6373022208
 31
0.0
 11
-70.6739022401
 21
-23.634448831
 31
0.0
 11
-70.6751894935
 21
-23.6320988139
 31
0.0
 11
-70.6761819641
 21
-23.6302581736
 31
0.0
 11
-70.6768769971
 21
-23.628931804
 31
0.0
 11
-70.6772733943
 21
-23.6281221236
 31
0.0
 11
-70.6773701545
 21
-23.6278312164
 31
0.0
  0
SPLINE
  5
711
100
AcDbEntity
  8
RACCORDO
100
AcDbSpline
 62
253
  6
CONTINUOUS
 70
0
 71
3
 72
23
 73
19
 74
17
 42
0.0000001
 43
0.0000001
 44
0.0000000001
 12
0.1246405913
 22
0.2158911439
 32
0.0
 13
-0.2158893171
 23
0.1246437554
 33
0.0
 40
0.0
 40
0.0
 40
0.0
 40
0.0
 40
0.1952396719
 40
0.3828780266
 40
0.5557565082
 40
0.6345570769
 40
0.7072432922
 40
0.7731137541
 40
0.8315398341
 40
0.8819601501
 40
0.9238889979
 40
0.9569285413
 40
0.9700098801
 40
0.9807584244
 40
0.9891469756
 40
0.9951538559
 40
0.9987701865
 40
1.0
 40
1.0
 40
1.0
 40
1.0
 10
-67.5509157217
 20
-23.8443375673
 30
0.0
 10
-67.5428041257
 20
-23.8302873953
 30
0.0
 10
-67.5269101188
 20
-23.8027263465
 30
0.0
 10
-67.5038800462
 20
-23.7626975287
 30
0.0
 10
-67.4857107928
 20
-23.731034834
 30
0.0
 10
-67.4723210263
 20
-23.7076425082
 30
0.0
 10
-67.4633614458
 20
-23.6919599717
 30
0.0
 10
-67.4552554195
 20
-23.6777394934
 30
0.0
 10
-67.4480813221
 20
-23.6651179971
 30
0.0
 10
-67.4419058333
 20
-23.6542157421
 30
0.0
 10
-67.4367935354
 20
-23.6451400919
 30
0.0
 10
-67.4332142419
 20
-23.6387512992
 30
0.0
 10
-67.4309357848
 20
-23.6346226741
 30
0.0
 10
-67.4296258805
 20
-23.6322635419
 30
0.0
 10
-67.4286905888
 20
-23.6304560673
 30
0.0
 10
-67.427859752
 20
-23.6290629562
 30
0.0
 10
-67.42768861
 20
-23.6283790951
 30
0.0
 10
-67.4272816533
 20
-23.6278823125
 30
0.0
 10
-67.4273701545
 20
-23.6278312164
 30
0.0
 11
-67.5509157217
 21
-23.8443375673
 31
0.0
 11
-67.5266018204
 21
-23.8021749995
 31
0.0
 11
-67.503276342
 21
-23.7616298799
 31
0.0
 11
-67.4818291906
 21
-23.7242490909
 31
0.0
 11
-67.4720710602
 21
-23.707200175
 31
0.0
 11
-67.4630831502
 21
-23.6914666636
 31
0.0
 11
-67.4549522062
 21
-23.6772003888
 31
0.0
 11
-67.4477558266
 21
-23.6645375218
 31
0.0
 11
-67.4415631757
 21
-23.6535997554
 31
0.0
 11
-67.4364339366
 21
-23.6444924903
 31
0.0
 11
-67.4324167968
 21
-23.6373022208
 31
0.0
 11
-67.430838069
 21
-23.634448831
 31
0.0
 11
-67.4295508156
 21
-23.6320988139
 31
0.0
 11
-67.428558345
 21
-23.6302581736
 31
0.0
 11
-67.427863312
 21
-23.628931804
 31
0.0
 11
-67.4274669148
 21
-23.6281221236
 31
0.0
 11
-67.4273701545
 21
-23.6278312164
 31
0.0
  0
LINE
  5
712
100
AcDbEntity
  8
RACCORDO
100
AcDbLine
 62
7
  6
CONTINUOUS
 10
-68.3023701545
 20
-24.5
 11
-68.3023701545
 21
-24.2500042308
  0
SPLINE
  5
713
100
AcDbEntity
  8
RACCORDO
100
AcDbSpline
 62
7
  6
CONTINUOUS
 70
0
 71
3
 72
9
 73
5
 74
3
 42
0.0000001
 43
0.0000001
 44
0.0000000001
 12
-0.1240356311
 22
-0.0065920554
 32
0.0
 13
-0.1240404534
 23
-0.0065006847
 33
0.0
 40
0.0
 40
0.0
 40
0.0
 40
0.0
 40
0.517786632
 40
1.0
 40
1.0
 40
1.0
 40
1.0
 10
-69.5538245874
 20
22.3334109614
 30
0.0
 10
-69.5752325846
 20
22.332273202
 30
0.0
 10
-69.6165966039
 20
22.3304456948
 30
0.0
 10
-69.6579753083
 20
22.3289557443
 30
0.0
 10
-69.6779132965
 20
22.3279108386
 30
0.0
 11
-69.5538245874
 21
22.3334109614
 31
0.0
 11
-69.6180719942
 21
22.3304711844
 31
0.0
 11
-69.6779132965
 21
22.3279108386
 31
0.0
  0
SPLINE
  5
714
100
AcDbEntity
  8
RACCORDO
100
AcDbSpline
 62
253
  6
CONTINUOUS
 70
0
 71
3
 72
23
 73
19
 74
17
 42
0.0000001
 43
0.0000001
 44
0.0000000001
 12
-0.1246405913
 22
-0.2158911439
 32
0.0
 13
0.2158893171
 23
-0.1246437554
 33
0.0
 40
0.0
 40
0.0
 40
0.0
 40
0.0
 40
0.1952399434
 40
0.3828782425
 40
0.5557566864
 40
0.6345572254
 40
0.707243413
 40
0.7731138479
 40
0.8315399057
 40
0.8819601977
 40
0.9238890294
 40
0.9569285592
 40
0.9700098927
 40
0.9807584317
 40
0.9891469801
 40
0.9951538586
 40
0.9987701874
 40
1.0
 40
1.0
 40
1.0
 40
1.0
 10
-70.5538245874
 20
23.8443375673
 30
0.0
 10
-70.5619361947
 20
23.8302873757
 30
0.0
 10
-70.5778302105
 20
23.8027263114
 30
0.0
 10
-70.6008602904
 20
23.7626974807
 30
0.0
 10
-70.6190295387
 20
23.7310347949
 30
0.0
 10
-70.6324193012
 20
23.7076424759
 30
0.0
 10
-70.6413788782
 20
23.6919599455
 30
0.0
 10
-70.6494849014
 20
23.6777394727
 30
0.0
 10
-70.6566589957
 20
23.6651179818
 30
0.0
 10
-70.6628344819
 20
23.6542157312
 30
0.0
 10
-70.6679467777
 20
23.6451400849
 30
0.0
 10
-70.6715260697
 20
23.6387512947
 30
0.0
 10
-70.6738045258
 20
23.6346226714
 30
0.0
 10
-70.6751144295
 20
23.6322635401
 30
0.0
 10
-70.6760497209
 20
23.6304560662
 30
0.0
 10
-70.6768805574
 20
23.6290629556
 30
0.0
 10
-70.6770516994
 20
23.6283790949
 30
0.0
 10
-70.6774586557
 20
23.6278823125
 30
0.0
 10
-70.6773701545
 20
23.6278312164
 30
0.0
 11
-70.5538245874
 21
23.8443375673
 31
0.0
 11
-70.5781385225
 21
23.8021749409
 31
0.0
 11
-70.6014639939
 21
23.7616298332
 31
0.0
 11
-70.6229111406
 21
23.7242490524
 31
0.0
 11
-70.6326692673
 21
23.7072001429
 31
0.0
 11
-70.6416571738
 21
23.6914666374
 31
0.0
 11
-70.6497881145
 21
23.6772003685
 31
0.0
 11
-70.6569844913
 21
23.6645375063
 31
0.0
 11
-70.6631771392
 21
23.6535997451
 31
0.0
 11
-70.6683063764
 21
23.6444924834
 31
0.0
 11
-70.6723235144
 21
23.6373022169
 31
0.0
 11
-70.6739022416
 21
23.6344488282
 31
0.0
 11
-70.6751894943
 21
23.6320988123
 31
0.0
 11
-70.6761819646
 21
23.6302581726
 31
0.0
 11
-70.6768769974
 21
23.6289318034
 31
0.0
 11
-70.6772733944
 21
23.6281221234
 31
0.0
 11
-70.6773701545
 21
23.6278312164
 31
0.0
  0
SPLINE
  5
715
100
AcDbEntity
  8
RACCORDO
100
AcDbSpline
 62
7
  6
CONTINUOUS
 70
0
 71
3
 72
11
 73
7
 74
5
 42
0.0000001
 43
0.0000001
 44
0.0000000001
 12
-0.2489101639
 22
-0.1437119982
 32
0.0
 13
-0.2442400356
 23
-0.1515583809
 33
0.0
 40
0.0
 40
0.0
 40
0.0
 40
0.0
 40
0.6821066062
 40
0.9136705788
 40
0.978027483
 40
1.0
 40
1.0
 40
1.0
 40
1.0
 10
-69.5538245874
 20
23.2669872981
 30
0.0
 10
-69.6104190098
 20
23.2343116637
 30
0.0
 10
-69.6862498905
 20
23.1905799738
 30
0.0
 10
-69.7671678456
 20
23.143339517
 30
0.0
 10
-69.7935200818
 20
23.1280662994
 30
0.0
 10
-69.8005812984
 20
23.1237597705
 30
0.0
 10
-69.8023701545
 20
23.1226497308
 30
0.0
 11
-69.5538245874
 21
23.2669872981
 31
0.0
 11
-69.7235106687
 21
23.1687922607
 31
0.0
 11
-69.7810309668
 21
23.1353096304
 31
0.0
 11
-69.7969806982
 21
23.1259416726
 31
0.0
 11
-69.8023701545
 21
23.1226497308
 31
0.0
  0
SPLINE
  5
716
100
AcDbEntity
  8
RACCORDO
100
AcDbSpline
 62
253
  6
CONTINUOUS
 70
0
 71
3
 72
23
 73
19
 74
17
 42
0.0000001
 43
0.0000001
 44
0.0000000001
 12
0.2500069059
 22
0.0014544976
 32
0.0
 13
-0.0014544484
 23
0.2500069062
 33
0.0
 40
0.0
 40
0.0
 40
0.0
 40
0.0
 40
0.0012388838
 40
0.0048606977
 40
0.0108737392
 40
0.0192697131
 40
0.0300270182
 40
0.0431184624
 40
0.0761818945
 40
0.1181384666
 40
0.168588709
 40
0.2270449431
 40
0.2929434384
 40
0.365653037
 40
0.4444695596
 40
0.6173459605
 40
0.8049166945
 40
1.0
 40
1.0
 40
1.0
 40
1.0
 10
-67.5509157217
 20
-24.495628166
 30
0.0
 10
-67.5508124785
 20
-24.4956275653
 30
0.0
 10
-67.5509002775
 20
-24.4949951256
 30
0.0
 10
-67.5507150692
 20
-24.4943093131
 30
0.0
 10
-67.550731202
 20
-24.4926837653
 30
0.0
 10
-67.5506434005
 20
-24.4906417629
 30
0.0
 10
-67.55060354
 20
-24.4879340366
 30
0.0
 10
-67.5505272898
 20
-24.4832016059
 30
0.0
 10
-67.5504595579
 20
-24.475852515
 30
0.0
 10
-67.5503931058
 20
-24.4653991618
 30
0.0
 10
-67.550347022
 20
-24.4528257758
 30
0.0
 10
-67.5503187917
 20
-24.4382583958
 30
0.0
 10
-67.5503100882
 20
-24.4218355296
 30
0.0
 10
-67.5503207615
 20
-24.4037160369
 30
0.0
 10
-67.5503623095
 20
-24.3766813055
 30
0.0
 10
-67.5504642949
 20
-24.3400745039
 30
0.0
 10
-67.5506535364
 20
-24.2937786126
 30
0.0
 10
-67.5508211422
 20
-24.261889788
 30
0.0
 10
-67.5509157217
 20
-24.2456323968
 30
0.0
 11
-67.5509157217
 21
-24.495628166
 31
0.0
 11
-67.5508461526
 21
-24.4953263453
 31
0.0
 11
-67.5507802056
 21
-24.4944232561
 31
0.0
 11
-67.5507180702
 21
-24.4929212134
 31
0.0
 11
-67.5506599296
 21
-24.4908229318
 31
0.0
 11
-67.5506059227
 21
-24.488134028
 31
0.0
 11
-67.5505561686
 21
-24.4848613993
 31
0.0
 11
-67.550469878
 21
-24.4765956235
 31
0.0
 11
-67.5504018744
 21
-24.4661062336
 31
0.0
 11
-67.5503528323
 21
-24.4534932065
 31
0.0
 11
-67.5503232177
 21
-24.438878527
 31
0.0
 11
-67.5503133107
 21
-24.4224031722
 31
0.0
 11
-67.5503232175
 21
-24.4042249656
 31
0.0
 11
-67.550352832
 21
-24.3845199794
 31
0.0
 11
-67.5504698775
 21
-24.3412991123
 31
0.0
 11
-67.5506599288
 21
-24.294404725
 31
0.0
 11
-67.5509157217
 21
-24.2456323968
 31
0.0
  0
LINE
  5
717
100
AcDbEntity
  8
RACCORDO
100
AcDbLine
 62
7
  6
CONTINUOUS
 10
-69.5538245874
 20
22.3334109614
 11
-68.3023701545
 21
22.3997080771
  0
SPLINE
  5
718
100
AcDbEntity
  8
RACCORDO
100
AcDbSpline
 62
253
  6
CONTINUOUS
 70
0
 71
3
 72
23
 73
19
 74
17
 42
0.0000001
 43
0.0000001
 44
0.0000000001
 12
-0.0261538059
 22
0.4991963779
 32
0.0
 13
0.4991959615
 23
0.0261617518
 33
0.0
 40
0.0
 40
0.0
 40
0.0
 40
0.0
 40
0.1950127053
 40
0.3824958635
 40
0.55527377
 40
0.6340446107
 40
0.706709778
 40
0.7725722967
 40
0.8309984952
 40
0.881426985
 40
0.9233768971
 40
0.9564476412
 40
0.9695519303
 40
0.9803282322
 40
0.9887549017
 40
0.9948165359
 40
0.9985233215
 40
1.0
 40
1.0
 40
1.0
 40
1.0
 10
-75.9417072685
 20
21.4994104546
 30
0.0
 10
-75.9434073767
 20
21.5318603333
 30
0.0
 10
-75.9466349143
 20
21.5955128517
 30
0.0
 10
-75.95099706
 20
21.6879337563
 30
0.0
 10
-75.9541610291
 20
21.7610201366
 30
0.0
 10
-75.9562955345
 20
21.8150008191
 30
0.0
 10
-75.9576234728
 20
21.8511842823
 30
0.0
 10
-75.9587167474
 20
21.8839841037
 30
0.0
 10
-75.959565327
 20
21.913084056
 30
0.0
 10
-75.9601631602
 20
21.9382063836
 30
0.0
 10
-75.9605052298
 20
21.9591037831
 30
0.0
 10
-75.9605890122
 20
21.9737955791
 30
0.0
 10
-75.9604995582
 20
21.983273598
 30
0.0
 10
-75.9603729661
 20
21.9886797548
 30
0.0
 10
-75.9601897436
 20
21.9928231393
 30
0.0
 10
-75.9599453607
 20
21.9959900504
 30
0.0
 10
-75.9596801206
 20
21.9975846231
 30
0.0
 10
-75.9593947607
 20
21.9987123445
 30
0.0
 10
-75.9591490434
 20
21.998725222
 30
0.0
 11
-75.9417072685
 21
21.4994104546
 31
0.0
 11
-75.9466405586
 21
21.5967686983
 31
0.0
 11
-75.9510492458
 21
21.6903842198
 31
0.0
 11
-75.9547645683
 21
21.7766726696
 31
0.0
 11
-75.9563163717
 21
21.8160181286
 31
0.0
 11
-75.9576436913
 21
21.8523178083
 31
0.0
 11
-75.9587338026
 21
21.8852231801
 31
0.0
 11
-75.9595761799
 21
21.9144171778
 31
0.0
 11
-75.9601627044
 21
21.939618599
 31
0.0
 11
-75.9604877798
 21
21.9605860445
 31
0.0
 11
-75.9605482736
 21
21.9771173714
 31
0.0
 11
-75.9604790198
 21
21.9836675909
 31
0.0
 11
-75.9603435986
 21
21.9890527574
 31
0.0
 11
-75.9601423075
 21
21.9932602774
 31
0.0
 11
-75.9598755312
 21
21.9962786067
 31
0.0
 11
-75.9595441122
 21
21.9981016788
 31
0.0
 11
-75.9591490434
 21
21.998725222
 31
0.0
  0
LINE
  5
719
100
AcDbEntity
  8
RACCORDO
100
AcDbLine
 62
7
  6
CONTINUOUS
 10
-68.3023701545
 20
24.2500042308
 11
-68.3023701545
 21
24.5
  0
SPLINE
  5
71A
100
AcDbEntity
  8
RACCORDO
100
AcDbSpline
 62
253
  6
CONTINUOUS
 70
0
 71
3
 72
23
 73
19
 74
17
 42
0.0000001
 43
0.0000001
 44
0.0000000001
 12
-0.0261538051
 22
-0.4991963778
 32
0.0
 13
0.4991959614
 23
-0.0261617518
 33
0.0
 40
0.0
 40
0.0
 40
0.0
 40
0.0
 40
0.1950127054
 40
0.3824958636
 40
0.5552737702
 40
0.6340446109
 40
0.7067097782
 40
0.7725722969
 40
0.8309984953
 40
0.8814269851
 40
0.9233768973
 40
0.9564476413
 40
0.9695519304
 40
0.9803282323
 40
0.9887549018
 40
0.994816536
 40
0.9985233215
 40
1.0
 40
1.0
 40
1.0
 40
1.0
 10
-75.9417072685
 20
-21.4994104546
 30
0.0
 10
-75.9434073766
 20
-21.5318603333
 30
0.0
 10
-75.9466349142
 20
-21.5955128517
 30
0.0
 10
-75.9509970598
 20
-21.6879337564
 30
0.0
 10
-75.9541610288
 20
-21.7610201367
 30
0.0
 10
-75.9562955342
 20
-21.8150008192
 30
0.0
 10
-75.9576234725
 20
-21.8511842823
 30
0.0
 10
-75.958716747
 20
-21.8839841037
 30
0.0
 10
-75.9595653266
 20
-21.9130840561
 30
0.0
 10
-75.9601631599
 20
-21.9382063837
 30
0.0
 10
-75.9605052295
 20
-21.9591037831
 30
0.0
 10
-75.960589012
 20
-21.9737955791
 30
0.0
 10
-75.960499558
 20
-21.9832735981
 30
0.0
 10
-75.9603729659
 20
-21.9886797549
 30
0.0
 10
-75.9601897435
 20
-21.9928231394
 30
0.0
 10
-75.9599453606
 20
-21.9959900504
 30
0.0
 10
-75.9596801205
 20
-21.9975846231
 30
0.0
 10
-75.9593947607
 20
-21.9987123445
 30
0.0
 10
-75.9591490434
 20
-21.998725222
 30
0.0
 11
-75.9417072685
 21
-21.4994104546
 31
0.0
 11
-75.9466405584
 21
-21.5967686983
 31
0.0
 11
-75.9510492456
 21
-21.6903842199
 31
0.0
 11
-75.954764568
 21
-21.7766726696
 31
0.0
 11
-75.9563163714
 21
-21.8160181287
 31
0.0
 11
-75.957643691
 21
-21.8523178084
 31
0.0
 11
-75.9587338023
 21
-21.8852231801
 31
0.0
 11
-75.9595761796
 21
-21.9144171778
 31
0.0
 11
-75.9601627041
 21
-21.939618599
 31
0.0
 11
-75.9604877796
 21
-21.9605860445
 31
0.0
 11
-75.9605482734
 21
-21.9771173715
 31
0.0
 11
-75.9604790196
 21
-21.9836675909
 31
0.0
 11
-75.9603435985
 21
-21.9890527574
 31
0.0
 11
-75.9601423074
 21
-21.9932602774
 31
0.0
 11
-75.9598755311
 21
-21.9962786067
 31
0.0
 11
-75.9595441122
 21
-21.9981016788
 31
0.0
 11
-75.9591490434
 21
-21.998725222
 31
0.0
  0
SPLINE
  5
71B
100
AcDbEntity
  8
RACCORDO
100
AcDbSpline
 62
253
  6
CONTINUOUS
 70
0
 71
3
 72
23
 73
19
 74
17
 42
0.0000001
 43
0.0000001
 44
0.0000000001
 12
-0.0014544484
 22
0.250006906
 32
0.0
 13
0.2500069058
 23
0.0014544976
 33
0.0
 40
0.0
 40
0.0
 40
0.0
 40
0.0
 40
0.1950832165
 40
0.3826538753
 40
0.555530217
 40
0.6343467192
 40
0.707056309
 40
0.7729548092
 40
0.8314110437
 40
0.8818613134
 40
0.9238179118
 40
0.9568813775
 40
0.9699728489
 40
0.9807301876
 40
0.9891261733
 40
0.9951392412
 40
0.9987610956
 40
1.0
 40
1.0
 40
1.0
 40
1.0
 10
-70.5538245874
 20
24.2369056521
 30
0.0
 10
-70.5539191669
 20
24.2531630359
 30
0.0
 10
-70.5540867725
 20
24.2850518467
 30
0.0
 10
-70.5542760141
 20
24.3313477194
 30
0.0
 10
-70.5543779995
 20
24.3679545081
 30
0.0
 10
-70.5544195475
 20
24.3949892321
 30
0.0
 10
-70.5544302209
 20
24.4131087227
 30
0.0
 10
-70.5544215175
 20
24.4295315887
 30
0.0
 10
-70.5543932872
 20
24.4440989714
 30
0.0
 10
-70.5543472037
 20
24.4566723619
 30
0.0
 10
-70.5542807515
 20
24.4671257223
 30
0.0
 10
-70.5542130198
 20
24.4744748205
 30
0.0
 10
-70.5541367697
 20
24.4792072591
 30
0.0
 10
-70.5540969095
 20
24.4819149914
 30
0.0
 10
-70.5540091073
 20
24.4839569998
 30
0.0
 10
-70.5540252408
 20
24.4855825546
 30
0.0
 10
-70.5538400295
 20
24.4862683722
 30
0.0
 10
-70.5539278323
 20
24.4869008206
 30
0.0
 10
-70.5538245874
 20
24.4869014213
 30
0.0
 11
-70.5538245874
 21
24.2369056521
 31
0.0
 11
-70.5540803802
 21
24.285677958
 31
0.0
 11
-70.5542704314
 21
24.3325723265
 31
0.0
 11
-70.554387477
 21
24.3757931787
 31
0.0
 11
-70.5544170915
 21
24.3954981598
 31
0.0
 11
-70.5544269984
 21
24.4136763643
 31
0.0
 11
-70.5544170915
 21
24.4301517203
 31
0.0
 11
-70.554387477
 21
24.4447663999
 31
0.0
 11
-70.554338435
 21
24.4573794338
 31
0.0
 11
-70.5542704314
 21
24.4678688302
 31
0.0
 11
-70.5541841411
 21
24.4761346145
 31
0.0
 11
-70.554134387
 21
24.4794072499
 31
0.0
 11
-70.5540803802
 21
24.4820961621
 31
0.0
 11
-70.5540222394
 21
24.4841944467
 31
0.0
 11
-70.5539601037
 21
24.485696496
 31
0.0
 11
-70.5538941565
 21
24.4865995953
 31
0.0
 11
-70.5538245874
 21
24.4869014213
 31
0.0
  0
LINE
  5
71C
100
AcDbEntity
  8
RACCORDO
100
AcDbLine
 62
7
  6
CONTINUOUS
 10
-68.3023701545
 20
-22.3997080771
 11
-69.5538245874
 21
-22.3334109614
  0
SPLINE
  5
71D
100
AcDbEntity
  8
RACCORDO
100
AcDbSpline
 62
7
  6
CONTINUOUS
 70
0
 71
3
 72
21
 73
17
 74
15
 42
0.0000001
 43
0.0000001
 44
0.0000000001
 12
-0.0109831109
 22
-0.4998765043
 32
0.0
 13
0.2489218369
 23
-0.4336301044
 33
0.0
 40
0.0
 40
0.0
 40
0.0
 40
0.0
 40
0.1908256354
 40
0.3746348272
 40
0.5446935312
 40
0.6947558883
 40
0.7605294958
 40
0.8193035599
 40
0.8705379213
 40
0.9137618055
 40
0.9485785042
 40
0.9746716601
 40
0.9843749022
 40
0.991824884
 40
0.9970209342
 40
1.0
 40
1.0
 40
1.0
 40
1.0
 10
-68.3001838255
 20
-21.8998857286
 30
0.0
 10
-68.3008824452
 20
-21.9316821458
 30
0.0
 10
-68.3021331941
 20
-21.9941085464
 30
0.0
 10
-68.3036572098
 20
-22.0848776728
 30
0.0
 10
-68.3047424122
 20
-22.1688587659
 30
0.0
 10
-68.305280197
 20
-22.2331723136
 30
0.0
 10
-68.30543885
 20
-22.2789401678
 30
0.0
 10
-68.3054256066
 20
-22.3082371894
 30
0.0
 10
-68.3052872914
 20
-22.3337752387
 30
0.0
 10
-68.3050325947
 20
-22.3553204389
 30
0.0
 10
-68.3046424855
 20
-22.3726699905
 30
0.0
 10
-68.3042388771
 20
-22.3844364857
 30
0.0
 10
-68.3038003317
 20
-22.3916265377
 30
0.0
 10
-68.3034707685
 20
-22.3953465347
 30
0.0
 10
-68.3030773684
 20
-22.3979045676
 30
0.0
 10
-68.3027653123
 20
-22.3992605945
 30
0.0
 10
-68.3025181274
 20
-22.3996911987
 30
0.0
 11
-68.3001838255
 21
-21.8998857286
 31
0.0
 11
-68.3021040681
 21
-21.995278677
 31
0.0
 11
-68.3036341529
 21
-22.0871700108
 31
0.0
 11
-68.3047168265
 21
-22.1721919848
 31
0.0
 11
-68.3053125409
 21
-22.2472203705
 31
0.0
 11
-68.3054202092
 21
-22.2801068104
 31
0.0
 11
-68.30539906
 21
-22.3094936673
 31
0.0
 11
-68.3052503941
 21
-22.3351102705
 31
0.0
 11
-68.3049735122
 21
-22.3567203156
 31
0.0
 11
-68.3045706082
 21
-22.3741239025
 31
0.0
 11
-68.3040610347
 21
-22.3871604508
 31
0.0
 11
-68.3037522035
 21
-22.3920022047
 31
0.0
 11
-68.3033917495
 21
-22.3957096934
 31
0.0
 11
-68.3029786367
 21
-22.3982746486
 31
0.0
 11
-68.3025181274
 21
-22.3996911987
 31
0.0
  0
SPLINE
  5
71E
100
AcDbEntity
  8
RACCORDO
100
AcDbSpline
 62
253
  6
CONTINUOUS
 70
0
 71
3
 72
23
 73
19
 74
17
 42
0.0000001
 43
0.0000001
 44
0.0000000001
 12
0.0014544484
 22
0.250006906
 32
0.0
 13
-0.2500069057
 23
0.0014544976
 33
0.0
 40
0.0
 40
0.0
 40
0.0
 40
0.0
 40
0.1950832165
 40
0.3826538753
 40
0.555530217
 40
0.6343467192
 40
0.707056309
 40
0.7729548092
 40
0.8314110437
 40
0.8818613134
 40
0.9238179118
 40
0.9568813775
 40
0.9699728489
 40
0.9807301876
 40
0.9891261733
 40
0.9951392412
 40
0.9987610956
 40
1.0
 40
1.0
 40
1.0
 40
1.0
 10
-67.5509157217
 20
24.2456323968
 30
0.0
 10
-67.5508211422
 20
24.2618897806
 30
0.0
 10
-67.5506535366
 20
24.2937785914
 30
0.0
 10
-67.550464295
 20
24.3400744642
 30
0.0
 10
-67.5503623096
 20
24.3766812528
 30
0.0
 10
-67.5503207616
 20
24.4037159769
 30
0.0
 10
-67.5503100882
 20
24.4218354674
 30
0.0
 10
-67.5503187916
 20
24.4382583334
 30
0.0
 10
-67.5503470218
 20
24.4528257161
 30
0.0
 10
-67.5503931054
 20
24.4653991066
 30
0.0
 10
-67.5504595576
 20
24.475852467
 30
0.0
 10
-67.5505272893
 20
24.4832015652
 30
0.0
 10
-67.5506035394
 20
24.4879340038
 30
0.0
 10
-67.5506433996
 20
24.4906417361
 30
0.0
 10
-67.5507312018
 20
24.4926837445
 30
0.0
 10
-67.5507150683
 20
24.4943092993
 30
0.0
 10
-67.5509002795
 20
24.4949951169
 30
0.0
 10
-67.5508124768
 20
24.4956275653
 30
0.0
 10
-67.5509157217
 20
24.495628166
 30
0.0
 11
-67.5509157217
 21
24.2456323968
 31
0.0
 11
-67.5506599289
 21
24.2944047027
 31
0.0
 11
-67.5504698776
 21
24.3412990712
 31
0.0
 11
-67.5503528321
 21
24.3845199235
 31
0.0
 11
-67.5503232176
 21
24.4042249045
 31
0.0
 11
-67.5503133107
 21
24.422403109
 31
0.0
 11
-67.5503232176
 21
24.438878465
 31
0.0
 11
-67.5503528321
 21
24.4534931446
 31
0.0
 11
-67.5504018741
 21
24.4661061785
 31
0.0
 11
-67.5504698776
 21
24.476595575
 31
0.0
 11
-67.550556168
 21
24.4848613592
 31
0.0
 11
-67.5506059221
 21
24.4881339947
 31
0.0
 11
-67.5506599289
 21
24.4908229068
 31
0.0
 11
-67.5507180696
 21
24.4929211914
 31
0.0
 11
-67.5507802053
 21
24.4944232407
 31
0.0
 11
-67.5508461525
 21
24.49532634
 31
0.0
 11
-67.5509157217
 21
24.495628166
 31
0.0
  0
SPLINE
  5
71F
100
AcDbEntity
  8
RACCORDO
100
AcDbSpline
 62
7
  6
CONTINUOUS
 70
0
 71
3
 72
21
 73
17
 74
15
 42
0.0000001
 43
0.0000001
 44
0.0000000001
 12
-0.2489218369
 22
-0.4336301044
 32
0.0
 13
0.0109831109
 23
-0.4998765043
 33
0.0
 40
0.0
 40
0.0
 40
0.0
 40
0.0
 40
0.0029790658
 40
0.008175116
 40
0.0156250978
 40
0.0253283399
 40
0.0514214958
 40
0.0862381945
 40
0.1294620787
 40
0.1806964401
 40
0.2394705042
 40
0.3052441117
 40
0.4553064688
 40
0.6253651728
 40
0.8091743646
 40
1.0
 40
1.0
 40
1.0
 40
1.0
 10
-68.3025181274
 20
22.3996911987
 30
0.0
 10
-68.3027653123
 20
22.3992605945
 30
0.0
 10
-68.3030773684
 20
22.3979045676
 30
0.0
 10
-68.3034707685
 20
22.3953465347
 30
0.0
 10
-68.3038003317
 20
22.3916265377
 30
0.0
 10
-68.3042388771
 20
22.3844364857
 30
0.0
 10
-68.3046424855
 20
22.3726699905
 30
0.0
 10
-68.3050325947
 20
22.3553204389
 30
0.0
 10
-68.3052872914
 20
22.3337752387
 30
0.0
 10
-68.3054256066
 20
22.3082371894
 30
0.0
 10
-68.30543885
 20
22.2789401678
 30
0.0
 10
-68.305280197
 20
22.2331723136
 30
0.0
 10
-68.3047424122
 20
22.1688587659
 30
0.0
 10
-68.3036572098
 20
22.0848776728
 30
0.0
 10
-68.3021331941
 20
21.9941085464
 30
0.0
 10
-68.3008824452
 20
21.9316821458
 30
0.0
 10
-68.3001838255
 20
21.8998857286
 30
0.0
 11
-68.3025181274
 21
22.3996911987
 31
0.0
 11
-68.3029786367
 21
22.3982746486
 31
0.0
 11
-68.3033917495
 21
22.3957096934
 31
0.0
 11
-68.3037522035
 21
22.3920022047
 31
0.0
 11
-68.3040610347
 21
22.3871604508
 31
0.0
 11
-68.3045706082
 21
22.3741239025
 31
0.0
 11
-68.3049735122
 21
22.3567203156
 31
0.0
 11
-68.3052503941
 21
22.3351102705
 31
0.0
 11
-68.30539906
 21
22.3094936673
 31
0.0
 11
-68.3054202092
 21
22.2801068104
 31
0.0
 11
-68.3053125409
 21
22.2472203705
 31
0.0
 11
-68.3047168265
 21
22.1721919848
 31
0.0
 11
-68.3036341529
 21
22.0871700108
 31
0.0
 11
-68.3021040681
 21
21.995278677
 31
0.0
 11
-68.3001838255
 21
21.8998857286
 31
0.0
  0
SPLINE
  5
720
100
AcDbEntity
  8
RACCORDO
100
AcDbSpline
 62
253
  6
CONTINUOUS
 70
0
 71
3
 72
18
 73
14
 74
12
 42
0.0000001
 43
0.0000001
 44
0.0000000001
 12
0.3294903356
 22
0.0057512752
 32
0.0
 13
-0.0032361261
 23
0.3295246362
 33
0.0
 40
0.0
 40
0.0
 40
0.0
 40
0.0
 40
0.0043590853
 40
0.0168645001
 40
0.0375546242
 40
0.0663792743
 40
0.103278058
 40
0.1481831091
 40
0.2614830465
 40
0.4050402314
 40
0.577505555
 40
0.7767195619
 40
1.0
 40
1.0
 40
1.0
 40
1.0
 10
-32.2849177481
 20
-19.0887680946
 30
0.0
 10
-32.2844389893
 20
-19.0887597379
 30
0.0
 10
-32.284654035
 20
-19.0859281208
 30
0.0
 10
-32.2838996711
 20
-19.0827500108
 30
0.0
 10
-32.2838815129
 20
-19.0754141783
 30
0.0
 10
-32.2835271816
 20
-19.0661567309
 30
0.0
 10
-32.2833756202
 20
-19.0539166848
 30
0.0
 10
-32.2831428446
 20
-19.0325283243
 30
0.0
 10
-32.283052957
 20
-18.9993532168
 30
0.0
 10
-32.2831260969
 20
-18.9522052289
 30
0.0
 10
-32.2834181002
 20
-18.8956046264
 30
0.0
 10
-32.2839070188
 20
-18.830253382
 30
0.0
 10
-32.2843342884
 20
-18.7838452865
 30
0.0
 10
-32.2845751429
 20
-18.7593198181
 30
0.0
 11
-32.2849177481
 21
-19.0887680946
 31
0.0
 11
-32.2845131581
 21
-19.087389753
 31
0.0
 11
-32.2841573301
 21
-19.0832841026
 31
0.0
 11
-32.2838509755
 21
-19.0764727542
 31
0.0
 11
-32.2835948061
 21
-19.0669773187
 31
0.0
 11
-32.2833895334
 21
-19.0548194069
 31
0.0
 11
-32.2832358559
 21
-19.0400221708
 31
0.0
 11
-32.2830853709
 21
-19.002685553
 31
0.0
 11
-32.2831470208
 21
-18.955377683
 31
0.0
 11
-32.2834233501
 21
-18.8985440412
 31
0.0
 11
-32.2839050454
 21
-18.8328967198
 31
0.0
 11
-32.2845751429
 21
-18.7593198181
 31
0.0
  0
SPLINE
  5
721
100
AcDbEntity
  8
RACCORDO
100
AcDbSpline
 62
253
  6
CONTINUOUS
 70
0
 71
3
 72
14
 73
10
 74
8
 42
0.0000001
 43
0.0000001
 44
0.0000000001
 12
0.0
 22
-1.3032021193
 32
0.0
 13
-1.3026778483
 23
-0.036961972
 33
0.0
 40
0.0
 40
0.0
 40
0.0
 40
0.0
 40
0.1007638477
 40
0.2047686178
 40
0.4372951247
 40
0.5680542394
 40
0.7069637484
 40
0.8518396344
 40
1.0
 40
1.0
 40
1.0
 40
1.0
 10
-31.3023701545
 20
-18.0889203995
 30
0.0
 10
-31.3023701545
 20
-18.1326922861
 30
0.0
 10
-31.3153671471
 20
-18.2222267135
 30
0.0
 10
-31.396012469
 20
-18.3964590051
 30
0.0
 10
-31.5475488995
 20
-18.5422552693
 30
0.0
 10
-31.73890307
 20
-18.6476676486
 30
0.0
 10
-31.9086254255
 20
-18.7102089761
 30
0.0
 10
-32.0929520975
 20
-18.7484700502
 30
0.0
 10
-32.2202400675
 20
-18.757494385
 30
0.0
 10
-32.2845751429
 20
-18.7593198181
 30
0.0
 11
-31.3023701545
 21
-18.0889203995
 31
0.0
 11
-31.3211585352
 21
-18.2188850073
 31
0.0
 11
-31.376806433
 21
-18.3424738262
 31
0.0
 11
-31.5889967186
 21
-18.5588112473
 31
0.0
 11
-31.7375970886
 21
-18.6422137853
 31
0.0
 11
-31.9073601251
 21
-18.7050735218
 31
0.0
 11
-32.0920977514
 21
-18.7440403885
 31
0.0
 11
-32.2845751429
 21
-18.7593198181
 31
0.0
  0
SPLINE
  5
722
100
AcDbEntity
  8
RACCORDO
100
AcDbSpline
 62
253
  6
CONTINUOUS
 70
0
 71
3
 72
14
 73
10
 74
8
 42
0.0000001
 43
0.0000001
 44
0.0000000001
 12
0.0
 22
1.3032021189
 32
0.0
 13
-1.3026778478
 23
0.0369619736
 33
0.0
 40
0.0
 40
0.0
 40
0.0
 40
0.0
 40
0.1007638476
 40
0.2047686175
 40
0.4372951245
 40
0.5680542392
 40
0.7069637483
 40
0.8518396344
 40
1.0
 40
1.0
 40
1.0
 40
1.0
 10
-31.3023701545
 20
18.0889203995
 30
0.0
 10
-31.3023701545
 20
18.132692286
 30
0.0
 10
-31.3153671471
 20
18.2222267133
 30
0.0
 10
-31.3960124691
 20
18.3964590047
 30
0.0
 10
-31.5475488996
 20
18.5422552688
 30
0.0
 10
-31.73890307
 20
18.6476676481
 30
0.0
 10
-31.9086254255
 20
18.7102089757
 30
0.0
 10
-32.0929520975
 20
18.74847005
 30
0.0
 10
-32.2202400675
 20
18.7574943849
 30
0.0
 10
-32.2845751429
 20
18.7593198181
 30
0.0
 11
-31.3023701545
 21
18.0889203995
 31
0.0
 11
-31.3211585352
 21
18.2188850071
 31
0.0
 11
-31.376806433
 21
18.3424738258
 31
0.0
 11
-31.5889967186
 21
18.5588112468
 31
0.0
 11
-31.7375970886
 21
18.6422137848
 31
0.0
 11
-31.9073601251
 21
18.7050735214
 31
0.0
 11
-32.0920977514
 21
18.7440403883
 31
0.0
 11
-32.2845751429
 21
18.7593198181
 31
0.0
  0
SPLINE
  5
723
100
AcDbEntity
  8
RACCORDO
100
AcDbSpline
 62
253
  6
CONTINUOUS
 70
0
 71
3
 72
17
 73
13
 74
11
 42
0.0000001
 43
0.0000001
 44
0.0000000001
 12
0.292875097
 22
-0.0051121538
 32
0.0
 13
-0.0029943983
 23
-0.2929044044
 33
0.0
 40
0.0
 40
0.0
 40
0.0
 40
0.0
 40
0.0043029674
 40
0.0167129502
 40
0.0372630691
 40
0.0659091295
 40
0.1472698918
 40
0.260099553
 40
0.4033096565
 40
0.5757141643
 40
0.7754031902
 40
1.0
 40
1.0
 40
1.0
 40
1.0
 10
-35.8641259002
 20
19.1512434053
 30
0.0
 10
-35.8637058228
 20
19.1512360728
 30
0.0
 10
-35.8639452777
 20
19.1487276717
 30
0.0
 10
-35.8632683132
 20
19.1459358619
 30
0.0
 10
-35.86328994
 20
19.139454062
 30
0.0
 10
-35.8628539323
 20
19.1269934005
 30
0.0
 10
-35.8627653575
 20
19.1050262742
 30
0.0
 10
-35.8626447685
 20
19.0721825489
 30
0.0
 10
-35.8627726672
 20
19.0303109608
 30
0.0
 10
-35.8630476658
 20
18.9800111005
 30
0.0
 10
-35.8635066747
 20
18.9217474315
 30
0.0
 10
-35.8639017227
 20
18.8803232605
 30
0.0
 10
-35.8641259002
 20
18.8583947956
 30
0.0
 11
-35.8641259002
 21
19.1512434053
 31
0.0
 11
-35.863793125
 21
19.1500277042
 31
0.0
 11
-35.8635027237
 21
19.1464041939
 31
0.0
 11
-35.8632554168
 21
19.1403897413
 31
0.0
 11
-35.8630519249
 21
19.1320012135
 31
0.0
 11
-35.8627792323
 21
19.1081706027
 31
0.0
 11
-35.8626882398
 21
19.0751206963
 31
0.0
 11
-35.8627792322
 21
19.033171733
 31
0.0
 11
-35.8630519247
 21
18.9826717908
 31
0.0
 11
-35.8635027236
 21
18.9241806764
 31
0.0
 11
-35.8641259002
 21
18.8583947956
 31
0.0
  0
SPLINE
  5
724
100
AcDbEntity
  8
RACCORDO
100
AcDbSpline
 62
253
  6
CONTINUOUS
 70
0
 71
3
 72
17
 73
13
 74
11
 42
0.0000001
 43
0.0000001
 44
0.0000000001
 12
0.2928750969
 22
0.0051121538
 32
0.0
 13
-0.0029943956
 23
0.2929044044
 33
0.0
 40
0.0
 40
0.0
 40
0.0
 40
0.0
 40
0.0043029672
 40
0.0167129499
 40
0.0372630688
 40
0.0659091291
 40
0.1472698914
 40
0.2600995525
 40
0.4033096561
 40
0.575714164
 40
0.7754031901
 40
1.0
 40
1.0
 40
1.0
 40
1.0
 10
-35.8641259002
 20
-19.1512434053
 30
0.0
 10
-35.8637058229
 20
-19.1512360728
 30
0.0
 10
-35.8639452781
 20
-19.1487276716
 30
0.0
 10
-35.8632683136
 20
-19.1459358619
 30
0.0
 10
-35.8632899406
 20
-19.139454062
 30
0.0
 10
-35.862853933
 20
-19.1269934006
 30
0.0
 10
-35.8627653585
 20
-19.1050262742
 30
0.0
 10
-35.8626447696
 20
-19.072182549
 30
0.0
 10
-35.8627726683
 20
-19.0303109609
 30
0.0
 10
-35.8630476667
 20
-18.9800111005
 30
0.0
 10
-35.8635066752
 20
-18.9217474315
 30
0.0
 10
-35.8639017229
 20
-18.8803232605
 30
0.0
 10
-35.8641259002
 20
-18.8583947956
 30
0.0
 11
-35.8641259002
 21
-19.1512434053
 31
0.0
 11
-35.8637931252
 21
-19.1500277042
 31
0.0
 11
-35.8635027241
 21
-19.1464041939
 31
0.0
 11
-35.8632554174
 21
-19.1403897414
 31
0.0
 11
-35.8630519256
 21
-19.1320012135
 31
0.0
 11
-35.8627792333
 21
-19.1081706028
 31
0.0
 11
-35.8626882409
 21
-19.0751206964
 31
0.0
 11
-35.8627792333
 21
-19.0331717331
 31
0.0
 11
-35.8630519256
 21
-18.9826717909
 31
0.0
 11
-35.8635027241
 21
-18.9241806764
 31
0.0
 11
-35.8641259002
 21
-18.8583947956
 31
0.0
  0
LINE
  5
725
100
AcDbEntity
  8
RACCORDO
100
AcDbLine
 62
253
  6
CONTINUOUS
 10
-32.2845745392
 20
-18.7593196091
 11
-35.8641259002
 21
-18.8583947956
  0
LINE
  5
726
100
AcDbEntity
  8
RACCORDO
100
AcDbLine
 62
253
  6
CONTINUOUS
 10
-35.8641259002
 20
18.8583947956
 11
-32.2845745391
 21
18.7593196117
  0
SPLINE
  5
727
100
AcDbEntity
  8
RACCORDO
100
AcDbSpline
 62
253
  6
CONTINUOUS
 70
0
 71
3
 72
18
 73
14
 74
12
 42
0.0000001
 43
0.0000001
 44
0.0000000001
 12
0.0032352708
 22
0.3295246426
 32
0.0
 13
-0.3294903335
 23
0.0057512752
 33
0.0
 40
0.0
 40
0.0
 40
0.0
 40
0.0
 40
0.2232804416
 40
0.4224944484
 40
0.5949597709
 40
0.7385169562
 40
0.8518168955
 40
0.8967219476
 40
0.9336207321
 40
0.9624453827
 40
0.9831355068
 40
0.9956409205
 40
1.0
 40
1.0
 40
1.0
 40
1.0
 10
-32.2845751429
 20
18.7593198181
 30
0.0
 10
-32.284334352
 20
18.7838452873
 30
0.0
 10
-32.2839071335
 20
18.8302533834
 30
0.0
 10
-32.283418153
 20
18.8956046271
 30
0.0
 10
-32.2831260744
 20
18.9522052288
 30
0.0
 10
-32.2830529275
 20
18.9993532165
 30
0.0
 10
-32.2831428329
 20
19.0325283243
 30
0.0
 10
-32.283375623
 20
19.0539166848
 30
0.0
 10
-32.2835271894
 20
19.0661567313
 30
0.0
 10
-32.2838815258
 20
19.0754141778
 30
0.0
 10
-32.2838996784
 20
19.0827500123
 30
0.0
 10
-32.284654049
 20
19.0859281181
 30
0.0
 10
-32.2844389899
 20
19.0887597379
 30
0.0
 10
-32.2849177481
 20
19.0887680946
 30
0.0
 11
-32.2845751429
 21
18.7593198181
 31
0.0
 11
-32.2839051364
 21
18.8328967213
 31
0.0
 11
-32.2834233956
 21
18.898544042
 31
0.0
 11
-32.2831470062
 21
18.9553776827
 31
0.0
 11
-32.2830853469
 21
19.0026855526
 31
0.0
 11
-32.2832358494
 21
19.0400221706
 31
0.0
 11
-32.2833895361
 21
19.054819407
 31
0.0
 11
-32.2835948146
 21
19.0669773189
 31
0.0
 11
-32.2838509864
 21
19.0764727544
 31
0.0
 11
-32.2841573402
 21
19.0832841028
 31
0.0
 11
-32.2845131645
 21
19.0873897531
 31
0.0
 11
-32.2849177481
 21
19.0887680946
 31
0.0
  0
SPLINE
  5
728
100
AcDbEntity
  8
ASSI
100
AcDbSpline
 62
253
  6
CONTINUOUS
 70
0
 71
3
 72
18
 73
14
 74
12
 42
0.0000001
 43
0.0000001
 44
0.0000000001
 12
0.3294903356
 22
0.0057512752
 32
0.0
 13
-0.0032361261
 23
0.3295246362
 33
0.0
 40
0.0
 40
0.0
 40
0.0
 40
0.0
 40
0.0043590853
 40
0.0168645001
 40
0.0375546242
 40
0.0663792743
 40
0.103278058
 40
0.1481831091
 40
0.2614830465
 40
0.4050402314
 40
0.577505555
 40
0.7767195619
 40
1.0
 40
1.0
 40
1.0
 40
1.0
 10
-32.2849177481
 20
-19.0887680946
 30
0.0
 10
-32.2844389893
 20
-19.0887597379
 30
0.0
 10
-32.284654035
 20
-19.0859281208
 30
0.0
 10
-32.2838996711
 20
-19.0827500108
 30
0.0
 10
-32.2838815129
 20
-19.0754141783
 30
0.0
 10
-32.2835271816
 20
-19.0661567309
 30
0.0
 10
-32.2833756202
 20
-19.0539166848
 30
0.0
 10
-32.2831428446
 20
-19.0325283243
 30
0.0
 10
-32.283052957
 20
-18.9993532168
 30
0.0
 10
-32.2831260969
 20
-18.9522052289
 30
0.0
 10
-32.2834181002
 20
-18.8956046264
 30
0.0
 10
-32.2839070188
 20
-18.830253382
 30
0.0
 10
-32.2843342884
 20
-18.7838452865
 30
0.0
 10
-32.2845751429
 20
-18.7593198181
 30
0.0
 11
-32.2849177481
 21
-19.0887680946
 31
0.0
 11
-32.2845131581
 21
-19.087389753
 31
0.0
 11
-32.2841573301
 21
-19.0832841026
 31
0.0
 11
-32.2838509755
 21
-19.0764727542
 31
0.0
 11
-32.2835948061
 21
-19.0669773187
 31
0.0
 11
-32.2833895334
 21
-19.0548194069
 31
0.0
 11
-32.2832358559
 21
-19.0400221708
 31
0.0
 11
-32.2830853709
 21
-19.002685553
 31
0.0
 11
-32.2831470208
 21
-18.955377683
 31
0.0
 11
-32.2834233501
 21
-18.8985440412
 31
0.0
 11
-32.2839050454
 21
-18.8328967198
 31
0.0
 11
-32.2845751429
 21
-18.7593198181
 31
0.0
  0
SPLINE
  5
729
100
AcDbEntity
  8
ASSI
100
AcDbSpline
 62
253
  6
CONTINUOUS
 70
0
 71
3
 72
14
 73
10
 74
8
 42
0.0000001
 43
0.0000001
 44
0.0000000001
 12
0.0
 22
-1.3032021193
 32
0.0
 13
-1.3026778483
 23
-0.036961972
 33
0.0
 40
0.0
 40
0.0
 40
0.0
 40
0.0
 40
0.1007638477
 40
0.2047686178
 40
0.4372951247
 40
0.5680542394
 40
0.7069637484
 40
0.8518396344
 40
1.0
 40
1.0
 40
1.0
 40
1.0
 10
-31.3023701545
 20
-18.0889203995
 30
0.0
 10
-31.3023701545
 20
-18.1326922861
 30
0.0
 10
-31.3153671471
 20
-18.2222267135
 30
0.0
 10
-31.396012469
 20
-18.3964590051
 30
0.0
 10
-31.5475488995
 20
-18.5422552693
 30
0.0
 10
-31.73890307
 20
-18.6476676486
 30
0.0
 10
-31.9086254255
 20
-18.7102089761
 30
0.0
 10
-32.0929520975
 20
-18.7484700502
 30
0.0
 10
-32.2202400675
 20
-18.757494385
 30
0.0
 10
-32.2845751429
 20
-18.7593198181
 30
0.0
 11
-31.3023701545
 21
-18.0889203995
 31
0.0
 11
-31.3211585352
 21
-18.2188850073
 31
0.0
 11
-31.376806433
 21
-18.3424738262
 31
0.0
 11
-31.5889967186
 21
-18.5588112473
 31
0.0
 11
-31.7375970886
 21
-18.6422137853
 31
0.0
 11
-31.9073601251
 21
-18.7050735218
 31
0.0
 11
-32.0920977514
 21
-18.7440403885
 31
0.0
 11
-32.2845751429
 21
-18.7593198181
 31
0.0
  0
SPLINE
  5
72A
100
AcDbEntity
  8
ASSI
100
AcDbSpline
 62
253
  6
CONTINUOUS
 70
0
 71
3
 72
17
 73
13
 74
11
 42
0.0000001
 43
0.0000001
 44
0.0000000001
 12
0.2928750969
 22
0.0051121538
 32
0.0
 13
-0.0029943956
 23
0.2929044044
 33
0.0
 40
0.0
 40
0.0
 40
0.0
 40
0.0
 40
0.0043029672
 40
0.0167129499
 40
0.0372630688
 40
0.0659091291
 40
0.1472698914
 40
0.2600995525
 40
0.4033096561
 40
0.575714164
 40
0.7754031901
 40
1.0
 40
1.0
 40
1.0
 40
1.0
 10
-35.8641259002
 20
-19.1512434053
 30
0.0
 10
-35.8637058229
 20
-19.1512360728
 30
0.0
 10
-35.8639452781
 20
-19.1487276716
 30
0.0
 10
-35.8632683136
 20
-19.1459358619
 30
0.0
 10
-35.8632899406
 20
-19.139454062
 30
0.0
 10
-35.862853933
 20
-19.1269934006
 30
0.0
 10
-35.8627653585
 20
-19.1050262742
 30
0.0
 10
-35.8626447696
 20
-19.072182549
 30
0.0
 10
-35.8627726683
 20
-19.0303109609
 30
0.0
 10
-35.8630476667
 20
-18.9800111005
 30
0.0
 10
-35.8635066752
 20
-18.9217474315
 30
0.0
 10
-35.8639017229
 20
-18.8803232605
 30
0.0
 10
-35.8641259002
 20
-18.8583947956
 30
0.0
 11
-35.8641259002
 21
-19.1512434053
 31
0.0
 11
-35.8637931252
 21
-19.1500277042
 31
0.0
 11
-35.8635027241
 21
-19.1464041939
 31
0.0
 11
-35.8632554174
 21
-19.1403897414
 31
0.0
 11
-35.8630519256
 21
-19.1320012135
 31
0.0
 11
-35.8627792333
 21
-19.1081706028
 31
0.0
 11
-35.8626882409
 21
-19.0751206964
 31
0.0
 11
-35.8627792333
 21
-19.0331717331
 31
0.0
 11
-35.8630519256
 21
-18.9826717909
 31
0.0
 11
-35.8635027241
 21
-18.9241806764
 31
0.0
 11
-35.8641259002
 21
-18.8583947956
 31
0.0
  0
LINE
  5
72B
100
AcDbEntity
  8
ASSI
100
AcDbLine
 62
253
  6
CONTINUOUS
 10
-32.2845745392
 20
-18.7593196091
 11
-35.8641259002
 21
-18.8583947956
  0
SPLINE
  5
72C
100
AcDbEntity
  8
ASSI
100
AcDbSpline
 62
253
  6
CONTINUOUS
 70
0
 71
3
 72
14
 73
10
 74
8
 42
0.0000001
 43
0.0000001
 44
0.0000000001
 12
0.0
 22
1.3032021189
 32
0.0
 13
-1.3026778478
 23
0.0369619736
 33
0.0
 40
0.0
 40
0.0
 40
0.0
 40
0.0
 40
0.1007638476
 40
0.2047686175
 40
0.4372951245
 40
0.5680542392
 40
0.7069637483
 40
0.8518396344
 40
1.0
 40
1.0
 40
1.0
 40
1.0
 10
-31.3023701545
 20
18.0889203995
 30
0.0
 10
-31.3023701545
 20
18.132692286
 30
0.0
 10
-31.3153671471
 20
18.2222267133
 30
0.0
 10
-31.3960124691
 20
18.3964590047
 30
0.0
 10
-31.5475488996
 20
18.5422552688
 30
0.0
 10
-31.73890307
 20
18.6476676481
 30
0.0
 10
-31.9086254255
 20
18.7102089757
 30
0.0
 10
-32.0929520975
 20
18.74847005
 30
0.0
 10
-32.2202400675
 20
18.7574943849
 30
0.0
 10
-32.2845751429
 20
18.7593198181
 30
0.0
 11
-31.3023701545
 21
18.0889203995
 31
0.0
 11
-31.3211585352
 21
18.2188850071
 31
0.0
 11
-31.376806433
 21
18.3424738258
 31
0.0
 11
-31.5889967186
 21
18.5588112468
 31
0.0
 11
-31.7375970886
 21
18.6422137848
 31
0.0
 11
-31.9073601251
 21
18.7050735214
 31
0.0
 11
-32.0920977514
 21
18.7440403883
 31
0.0
 11
-32.2845751429
 21
18.7593198181
 31
0.0
  0
SPLINE
  5
72D
100
AcDbEntity
  8
ASSI
100
AcDbSpline
 62
253
  6
CONTINUOUS
 70
0
 71
3
 72
17
 73
13
 74
11
 42
0.0000001
 43
0.0000001
 44
0.0000000001
 12
0.292875097
 22
-0.0051121538
 32
0.0
 13
-0.0029943983
 23
-0.2929044044
 33
0.0
 40
0.0
 40
0.0
 40
0.0
 40
0.0
 40
0.0043029674
 40
0.0167129502
 40
0.0372630691
 40
0.0659091295
 40
0.1472698918
 40
0.260099553
 40
0.4033096565
 40
0.5757141643
 40
0.7754031902
 40
1.0
 40
1.0
 40
1.0
 40
1.0
 10
-35.8641259002
 20
19.1512434053
 30
0.0
 10
-35.8637058228
 20
19.1512360728
 30
0.0
 10
-35.8639452777
 20
19.1487276717
 30
0.0
 10
-35.8632683132
 20
19.1459358619
 30
0.0
 10
-35.86328994
 20
19.139454062
 30
0.0
 10
-35.8628539323
 20
19.1269934005
 30
0.0
 10
-35.8627653575
 20
19.1050262742
 30
0.0
 10
-35.8626447685
 20
19.0721825489
 30
0.0
 10
-35.8627726672
 20
19.0303109608
 30
0.0
 10
-35.8630476658
 20
18.9800111005
 30
0.0
 10
-35.8635066747
 20
18.9217474315
 30
0.0
 10
-35.8639017227
 20
18.8803232605
 30
0.0
 10
-35.8641259002
 20
18.8583947956
 30
0.0
 11
-35.8641259002
 21
19.1512434053
 31
0.0
 11
-35.863793125
 21
19.1500277042
 31
0.0
 11
-35.8635027237
 21
19.1464041939
 31
0.0
 11
-35.8632554168
 21
19.1403897413
 31
0.0
 11
-35.8630519249
 21
19.1320012135
 31
0.0
 11
-35.8627792323
 21
19.1081706027
 31
0.0
 11
-35.8626882398
 21
19.0751206963
 31
0.0
 11
-35.8627792322
 21
19.033171733
 31
0.0
 11
-35.8630519247
 21
18.9826717908
 31
0.0
 11
-35.8635027236
 21
18.9241806764
 31
0.0
 11
-35.8641259002
 21
18.8583947956
 31
0.0
  0
LINE
  5
72E
100
AcDbEntity
  8
ASSI
100
AcDbLine
 62
253
  6
CONTINUOUS
 10
-35.8641259002
 20
18.8583947956
 11
-32.2845745391
 21
18.7593196117
  0
SPLINE
  5
72F
100
AcDbEntity
  8
ASSI
100
AcDbSpline
 62
253
  6
CONTINUOUS
 70
0
 71
3
 72
18
 73
14
 74
12
 42
0.0000001
 43
0.0000001
 44
0.0000000001
 12
0.0032352708
 22
0.3295246426
 32
0.0
 13
-0.3294903335
 23
0.0057512752
 33
0.0
 40
0.0
 40
0.0
 40
0.0
 40
0.0
 40
0.2232804416
 40
0.4224944484
 40
0.5949597709
 40
0.7385169562
 40
0.8518168955
 40
0.8967219476
 40
0.9336207321
 40
0.9624453827
 40
0.9831355068
 40
0.9956409205
 40
1.0
 40
1.0
 40
1.0
 40
1.0
 10
-32.2845751429
 20
18.7593198181
 30
0.0
 10
-32.284334352
 20
18.7838452873
 30
0.0
 10
-32.2839071335
 20
18.8302533834
 30
0.0
 10
-32.283418153
 20
18.8956046271
 30
0.0
 10
-32.2831260744
 20
18.9522052288
 30
0.0
 10
-32.2830529275
 20
18.9993532165
 30
0.0
 10
-32.2831428329
 20
19.0325283243
 30
0.0
 10
-32.283375623
 20
19.0539166848
 30
0.0
 10
-32.2835271894
 20
19.0661567313
 30
0.0
 10
-32.2838815258
 20
19.0754141778
 30
0.0
 10
-32.2838996784
 20
19.0827500123
 30
0.0
 10
-32.284654049
 20
19.0859281181
 30
0.0
 10
-32.2844389899
 20
19.0887597379
 30
0.0
 10
-32.2849177481
 20
19.0887680946
 30
0.0
 11
-32.2845751429
 21
18.7593198181
 31
0.0
 11
-32.2839051364
 21
18.8328967213
 31
0.0
 11
-32.2834233956
 21
18.898544042
 31
0.0
 11
-32.2831470062
 21
18.9553776827
 31
0.0
 11
-32.2830853469
 21
19.0026855526
 31
0.0
 11
-32.2832358494
 21
19.0400221706
 31
0.0
 11
-32.2833895361
 21
19.054819407
 31
0.0
 11
-32.2835948146
 21
19.0669773189
 31
0.0
 11
-32.2838509864
 21
19.0764727544
 31
0.0
 11
-32.2841573402
 21
19.0832841028
 31
0.0
 11
-32.2845131645
 21
19.0873897531
 31
0.0
 11
-32.2849177481
 21
19.0887680946
 31
0.0
  0
SPLINE
  5
730
100
AcDbEntity
  8
CURVE
100
AcDbSpline
 62
253
  6
CONTINUOUS
 70
0
 71
3
 72
12
 73
8
 74
6
 42
0.0000001
 43
0.0000001
 44
0.0000000001
 12
0.6246960239
 22
0.0
 32
0.0
 13
0.0387650786
 23
-0.3079654448
 33
0.0
 40
0.0
 40
0.0
 40
0.0
 40
0.0
 40
0.185921234
 40
0.4028631903
 40
0.5870317304
 40
0.7674167628
 40
1.0
 40
1.0
 40
1.0
 40
1.0
 10
-63.8107514368
 20
4.1187598859
 30
0.0
 10
-63.7720366849
 20
4.1187598859
 30
0.0
 10
-63.6875226439
 20
4.1139587754
 30
0.0
 10
-63.5707403379
 20
4.0753089168
 30
0.0
 10
-63.4718193261
 20
3.9885724718
 30
0.0
 10
-63.4245672005
 20
3.9072717964
 30
0.0
 10
-63.4040701607
 20
3.7104879976
 30
0.0
 10
-63.4010647915
 20
3.6866121309
 30
0.0
 11
-63.8107514368
 21
4.1187598859
 31
0.0
 11
-63.6949609385
 21
4.1097018167
 31
0.0
 11
-63.5676023037
 21
4.0633747041
 31
0.0
 11
-63.479640813
 21
3.9892185838
 31
0.0
 11
-63.4310218997
 21
3.887560856
 31
0.0
 11
-63.4010647915
 21
3.6866121309
 31
0.0
  0
SPLINE
  5
731
100
AcDbEntity
  8
CURVE
100
AcDbSpline
 62
253
  6
CONTINUOUS
 70
0
 71
3
 72
12
 73
8
 74
6
 42
0.0000001
 43
0.0000001
 44
0.0000000001
 12
0.0387650786
 22
0.3079654448
 32
0.0
 13
0.6246960239
 23
-0.0
 33
0.0
 40
0.0
 40
0.0
 40
0.0
 40
0.0
 40
0.2325832372
 40
0.4129682696
 40
0.5971368097
 40
0.814078766
 40
1.0
 40
1.0
 40
1.0
 40
1.0
 10
-64.2204380821
 20
3.6866121309
 30
0.0
 10
-64.217432713
 20
3.7104879976
 30
0.0
 10
-64.1969356731
 20
3.9072717964
 30
0.0
 10
-64.1496835475
 20
3.9885724718
 30
0.0
 10
-64.0507625357
 20
4.0753089168
 30
0.0
 10
-63.9339802297
 20
4.1139587754
 30
0.0
 10
-63.8494661887
 20
4.1187598859
 30
0.0
 10
-63.8107514368
 20
4.1187598859
 30
0.0
 11
-64.2204380821
 21
3.6866121309
 31
0.0
 11
-64.1904809739
 21
3.887560856
 31
0.0
 11
-64.1418620607
 21
3.9892185838
 31
0.0
 11
-64.0539005699
 21
4.0633747041
 31
0.0
 11
-63.9265419351
 21
4.1097018167
 31
0.0
 11
-63.8107514368
 21
4.1187598859
 31
0.0
  0
SPLINE
  5
732
100
AcDbEntity
  8
CURVE
100
AcDbSpline
 62
253
  6
CONTINUOUS
 70
0
 71
3
 72
14
 73
10
 74
8
 42
0.0000001
 43
0.0000001
 44
0.0000000001
 12
-1.6046131982
 22
0.0
 32
0.0
 13
-0.0410140694
 23
-1.1066086282
 33
0.0
 40
0.0
 40
0.0
 40
0.0
 40
0.0
 40
0.1073393285
 40
0.2023715078
 40
0.3677530658
 40
0.5224009415
 40
0.6853200519
 40
0.8640908579
 40
1.0
 40
1.0
 40
1.0
 40
1.0
 10
-63.8107514368
 20
4.7815268003
 30
0.0
 10
-63.8681641379
 20
4.7815268003
 30
0.0
 10
-63.9766713639
 20
4.7752471448
 30
0.0
 10
-64.1697592757
 20
4.7356669991
 30
0.0
 10
-64.3744034985
 20
4.6333151986
 30
0.0
 10
-64.5451177166
 20
4.4379563589
 30
0.0
 10
-64.6448405597
 20
4.1627475799
 30
0.0
 10
-64.6866777625
 20
4.0075656385
 30
0.0
 10
-64.7005129515
 20
3.6383528006
 30
0.0
 10
-64.7023710139
 20
3.5882200575
 30
0.0
 11
-63.8107514368
 21
4.7815268003
 31
0.0
 11
-63.9826364838
 21
4.7705043307
 31
0.0
 11
-64.1317126579
 21
4.7384191219
 31
0.0
 11
-64.3677681224
 21
4.6171719554
 31
0.0
 11
-64.5307042336
 21
4.4300082376
 31
0.0
 11
-64.6328530615
 21
4.1893691718
 31
0.0
 11
-64.6860010094
 21
3.9074776948
 31
0.0
 11
-64.7023710139
 21
3.5882200575
 31
0.0
  0
SPLINE
  5
733
100
AcDbEntity
  8
CURVE
100
AcDbSpline
 62
253
  6
CONTINUOUS
 70
0
 71
3
 72
14
 73
10
 74
8
 42
0.0000001
 43
0.0000001
 44
0.0000000001
 12
-0.0410140694
 22
1.1066086282
 32
0.0
 13
-1.6046131982
 23
0.0
 33
0.0
 40
0.0
 40
0.0
 40
0.0
 40
0.0
 40
0.1359091421
 40
0.3146799481
 40
0.4775990585
 40
0.6322469342
 40
0.7976284922
 40
0.8926606715
 40
1.0
 40
1.0
 40
1.0
 40
1.0
 10
-62.9191318598
 20
3.5882200575
 30
0.0
 10
-62.9209899221
 20
3.6383528006
 30
0.0
 10
-62.9348251112
 20
4.0075656385
 30
0.0
 10
-62.976662314
 20
4.1627475799
 30
0.0
 10
-63.076385157
 20
4.4379563589
 30
0.0
 10
-63.2470993752
 20
4.6333151986
 30
0.0
 10
-63.451743598
 20
4.7356669991
 30
0.0
 10
-63.6448315098
 20
4.7752471448
 30
0.0
 10
-63.7533387357
 20
4.7815268003
 30
0.0
 10
-63.8107514368
 20
4.7815268003
 30
0.0
 11
-62.9191318598
 21
3.5882200575
 31
0.0
 11
-62.9355018643
 21
3.9074776948
 31
0.0
 11
-62.9886498121
 21
4.1893691718
 31
0.0
 11
-63.09079864
 21
4.4300082376
 31
0.0
 11
-63.2537347512
 21
4.6171719554
 31
0.0
 11
-63.4897902158
 21
4.7384191219
 31
0.0
 11
-63.6388663898
 21
4.7705043307
 31
0.0
 11
-63.8107514368
 21
4.7815268003
 31
0.0
  0
SPLINE
  5
734
100
AcDbEntity
  8
CURVE
100
AcDbSpline
 62
253
  6
CONTINUOUS
 70
0
 71
3
 72
10
 73
6
 74
4
 42
0.0000001
 43
0.0000001
 44
0.0000000001
 12
-0.7655616498
 22
-0.2079243757
 32
0.0
 13
-0.8023107012
 23
-0.218580965
 33
0.0
 40
0.0
 40
0.0
 40
0.0
 40
0.0
 40
0.3333333333
 40
0.6666666667
 40
1.0
 40
1.0
 40
1.0
 40
1.0
 10
-61.8103738023
 20
-4.7496410148
 30
0.0
 10
-61.8954362078
 20
-4.7727437232
 30
0.0
 10
-62.0673936165
 20
-4.8173070971
 30
0.0
 10
-62.3287640148
 20
-4.8852453934
 30
0.0
 10
-62.5059378867
 20
-4.9322438006
 30
0.0
 10
-62.5950835202
 20
-4.9565305745
 30
0.0
 11
-61.8103738023
 21
-4.7496410148
 31
0.0
 11
-62.0679659974
 21
-4.817489303
 31
0.0
 11
-62.3294957497
 21
-4.8856719458
 31
0.0
 11
-62.5950835202
 21
-4.9565305745
 31
0.0
  0
SPLINE
  5
735
100
AcDbEntity
  8
CURVE
100
AcDbSpline
 62
253
  6
CONTINUOUS
 70
0
 71
3
 72
12
 73
8
 74
6
 42
0.0000001
 43
0.0000001
 44
0.0000000001
 12
0.804615379
 22
0.3023976881
 32
0.0
 13
0.9395081821
 23
0.2701123749
 33
0.0
 40
0.0
 40
0.0
 40
0.0
 40
0.0
 40
0.3333333333
 40
0.5
 40
0.6666666667
 40
0.8333333333
 40
1.0
 40
1.0
 40
1.0
 40
1.0
 10
-62.6899478057
 20
-5.5966263175
 30
0.0
 10
-62.600546097
 20
-5.5630265744
 30
0.0
 10
-62.460696841
 20
-5.5190225172
 30
0.0
 10
-62.2662310026
 20
-5.4642388563
 30
0.0
 10
-62.1173569138
 20
-5.4217406781
 30
0.0
 10
-61.9657932105
 20
-5.3770605774
 30
0.0
 10
-61.8625687013
 20
-5.3468479814
 30
0.0
 10
-61.8103738023
 20
-5.3318417383
 30
0.0
 11
-62.6899478057
 21
-5.5966263175
 31
0.0
 11
-62.4114137011
 21
-5.5056506366
 31
0.0
 11
-62.2657268843
 21
-5.4640037842
 31
0.0
 11
-62.1169086447
 21
-5.4213770244
 31
0.0
 11
-61.9652477004
 21
-5.3769541119
 31
0.0
 11
-61.8103738023
 21
-5.3318417383
 31
0.0
  0
SPLINE
  5
736
100
AcDbEntity
  8
CURVE
100
AcDbSpline
 62
253
  6
CONTINUOUS
 70
0
 71
3
 72
14
 73
10
 74
8
 42
0.0000001
 43
0.0000001
 44
0.0000000001
 12
0.0
 22
0.4568140535
 32
0.0
 13
0.5117803098
 23
0.1923951546
 33
0.0
 40
0.0
 40
0.0
 40
0.0
 40
0.0
 40
0.125
 40
0.25
 40
0.375
 40
0.5
 40
0.625
 40
0.75
 40
1.0
 40
1.0
 40
1.0
 40
1.0
 10
-62.9451379165
 20
-5.9341993273
 30
0.0
 10
-62.9451379165
 20
-5.9151654084
 30
0.0
 10
-62.9423168334
 20
-5.879007611
 30
0.0
 10
-62.9300765953
 20
-5.8263666494
 30
0.0
 10
-62.910133404
 20
-5.7779986982
 30
0.0
 10
-62.8817415583
 20
-5.7334620942
 30
0.0
 10
-62.8457994213
 20
-5.6928919005
 30
0.0
 10
-62.7876260054
 20
-5.6436242799
 30
0.0
 10
-62.7325353451
 20
-5.6126363578
 30
0.0
 10
-62.689886986
 20
-5.5966034283
 30
0.0
 11
-62.9451379165
 21
-5.9341993273
 31
0.0
 11
-62.9409820645
 21
-5.8792735667
 31
0.0
 11
-62.9287927698
 21
-5.8270788178
 31
0.0
 11
-62.9087252949
 21
-5.7786372561
 31
0.0
 11
-62.8804831764
 21
-5.7341231626
 31
0.0
 11
-62.8445181005
 21
-5.6934951468
 31
0.0
 11
-62.8008959595
 21
-5.6566037176
 31
0.0
 11
-62.689886986
 21
-5.5966034283
 31
0.0
  0
SPLINE
  5
737
100
AcDbEntity
  8
CURVE
100
AcDbSpline
 62
253
  6
CONTINUOUS
 70
0
 71
3
 72
13
 73
9
 74
7
 42
0.0000001
 43
0.0000001
 44
0.0000000001
 12
-0.4244501669
 22
-1.1748603227
 32
0.0
 13
0.2601560446
 23
-1.7683612028
 33
0.0
 40
0.0
 40
0.0
 40
0.0
 40
0.0
 40
0.125
 40
0.25
 40
0.375
 40
0.5
 40
0.75
 40
1.0
 40
1.0
 40
1.0
 40
1.0
 10
-64.6456206572
 20
-5.3678501192
 30
0.0
 10
-64.6633060809
 20
-5.4168026327
 30
0.0
 10
-64.6928121586
 20
-5.518315989
 30
0.0
 10
-64.7220394622
 20
-5.6829483475
 30
0.0
 10
-64.7388086927
 20
-5.8577993899
 30
0.0
 10
-64.7479284123
 20
-6.1028427568
 30
0.0
 10
-64.7333626556
 20
-6.430981306
 30
0.0
 10
-64.6978291723
 20
-6.7142039108
 30
0.0
 10
-64.6761495019
 20
-6.8615673444
 30
0.0
 11
-64.6456206572
 21
-5.3678501192
 31
0.0
 11
-64.6903068564
 21
-5.5203763763
 31
0.0
 11
-64.7199631167
 21
-5.6846514615
 31
0.0
 11
-64.7371537859
 21
-5.8592879704
 31
0.0
 11
-64.7439174553
 21
-6.0430375378
 31
0.0
 11
-64.7273924361
 21
-6.4361592474
 31
0.0
 11
-64.6761495019
 21
-6.8615673444
 31
0.0
  0
SPLINE
  5
738
100
AcDbEntity
  8
CURVE
100
AcDbSpline
 62
253
  6
CONTINUOUS
 70
0
 71
3
 72
35
 73
31
 74
29
 42
0.0000001
 43
0.0000001
 44
0.0000000001
 12
-0.1039293945
 22
0.8054528069
 32
0.0
 13
-0.983876094
 23
-2.7272805565
 33
0.0
 40
0.0
 40
0.0
 40
0.0
 40
0.0
 40
0.03125
 40
0.0625
 40
0.09375
 40
0.109375
 40
0.125
 40
0.140625
 40
0.15625
 40
0.1875
 40
0.25
 40
0.3125
 40
0.375
 40
0.4375
 40
0.5
 40
0.5625
 40
0.625
 40
0.6875
 40
0.71875
 40
0.75
 40
0.78125
 40
0.8125
 40
0.84375
 40
0.875
 40
0.90625
 40
0.921875
 40
0.9375
 40
0.953125
 40
0.96875
 40
1.0
 40
1.0
 40
1.0
 40
1.0
 10
-63.1810406485
 20
-5.30544429
 30
0.0
 10
-63.1821232464
 20
-5.2970541566
 30
0.0
 10
-63.1866543935
 20
-5.280437051
 30
0.0
 10
-63.199188631
 20
-5.2566740133
 30
0.0
 10
-63.2132330108
 20
-5.2372457772
 30
0.0
 10
-63.2257694036
 20
-5.2216650578
 30
0.0
 10
-63.235429215
 20
-5.2099657318
 30
0.0
 10
-63.2451873853
 20
-5.1982837402
 30
0.0
 10
-63.2584734865
 20
-5.1826574556
 30
0.0
 10
-63.2828306463
 20
-5.1548366896
 30
0.0
 10
-63.3217665621
 20
-5.1136193088
 30
0.0
 10
-63.3770925896
 20
-5.0641412683
 30
0.0
 10
-63.4442477122
 20
-5.0169101401
 30
0.0
 10
-63.5232893694
 20
-4.973815276
 30
0.0
 10
-63.6157870732
 20
-4.9365765125
 30
0.0
 10
-63.7213981353
 20
-4.9088487428
 30
0.0
 10
-63.8394741927
 20
-4.8939354686
 30
0.0
 10
-63.9504444642
 20
-4.894570034
 30
0.0
 10
-64.0483350377
 20
-4.9058764719
 30
0.0
 10
-64.1244420703
 20
-4.921188243
 30
0.0
 10
-64.2044626225
 20
-4.9455760873
 30
0.0
 10
-64.2840466142
 20
-4.9797362235
 30
0.0
 10
-64.3607649326
 20
-5.0235467825
 30
0.0
 10
-64.4333451348
 20
-5.0767655881
 30
0.0
 10
-64.4893724596
 20
-5.1291766598
 30
0.0
 10
-64.5305649017
 20
-5.1754243738
 30
0.0
 10
-64.5588652465
 20
-5.2112861373
 30
0.0
 10
-64.5846860318
 20
-5.2481328445
 30
0.0
 10
-64.6162025079
 20
-5.2992833057
 30
0.0
 10
-64.6353719479
 20
-5.3394409468
 30
0.0
 10
-64.6456206572
 20
-5.3678501192
 30
0.0
 11
-63.1810406485
 21
-5.30544429
 31
0.0
 11
-63.1876106463
 21
-5.2806308212
 31
0.0
 11
-63.1999084674
 21
-5.2567488724
 31
0.0
 11
-63.2164755164
 21
-5.2333474198
 31
0.0
 11
-63.225812323
 21
-5.2216627601
 31
0.0
 11
-63.2354456081
 21
-5.2099686209
 31
0.0
 11
-63.2452217862
 21
-5.1982774532
 31
0.0
 11
-63.2552046508
 21
-5.1865414187
 31
0.0
 11
-63.276147456
 21
-5.1626872513
 31
0.0
 11
-63.3232003835
 21
-5.1136164449
 31
0.0
 11
-63.3790641054
 21
-5.0645157537
 31
0.0
 11
-63.4462288013
 21
-5.0175995174
 31
0.0
 11
-63.5255320439
 21
-4.9747912927
 31
0.0
 11
-63.6179726329
 21
-4.9381616781
 31
0.0
 11
-63.7234756345
 21
-4.910984492
 31
0.0
 11
-63.8419889041
 21
-4.8965479274
 31
0.0
 11
-63.9756766373
 21
-4.8982965423
 31
0.0
 11
-64.0487832214
 21
-4.907015129
 31
0.0
 11
-64.1250943235
 21
-4.9227009219
 31
0.0
 11
-64.2043898624
 21
-4.9472048026
 31
0.0
 11
-64.283569002
 21
-4.9813446273
 31
0.0
 11
-64.3600752466
 21
-5.0251148236
 31
0.0
 11
-64.4324538994
 21
-5.0783780015
 31
0.0
 11
-64.4993681187
 21
-5.141098493
 31
0.0
 11
-64.5301325706
 21
-5.1756203701
 31
0.0
 11
-64.5584519866
 21
-5.2114502946
 31
0.0
 11
-64.5843221271
 21
-5.2483855343
 31
0.0
 11
-64.6078269536
 21
-5.2866951121
 31
0.0
 11
-64.6456206572
 21
-5.3678501192
 31
0.0
  0
SPLINE
  5
739
100
AcDbEntity
  8
CURVE
100
AcDbSpline
 62
253
  6
CONTINUOUS
 70
0
 71
3
 72
15
 73
11
 74
9
 42
0.0000001
 43
0.0000001
 44
0.0000000001
 12
-0.8113913501
 22
-0.2210597173
 32
0.0
 13
-0.2059108935
 23
-0.5163909554
 33
0.0
 40
0.0
 40
0.0
 40
0.0
 40
0.0
 40
0.2
 40
0.4
 40
0.5
 40
0.6
 40
0.7
 40
0.8
 40
0.9
 40
1.0
 40
1.0
 40
1.0
 40
1.0
 10
-62.5951041895
 20
-4.956536206
 30
0.0
 10
-62.6491969461
 20
-4.9712735205
 30
0.0
 10
-62.7533869819
 20
-4.9986160634
 30
0.0
 10
-62.8706313336
 20
-5.0437572329
 30
0.0
 10
-62.9544311443
 20
-5.0868253615
 30
0.0
 10
-63.0112318587
 20
-5.1225974511
 30
0.0
 10
-63.0628778907
 20
-5.1633309362
 30
0.0
 10
-63.1063948367
 20
-5.2079496691
 30
0.0
 10
-63.1403631972
 20
-5.2549799517
 30
0.0
 10
-63.1570425293
 20
-5.2882312582
 30
0.0
 10
-63.1639062257
 20
-5.30544429
 30
0.0
 11
-62.5951041895
 21
-4.956536206
 31
0.0
 11
-62.7507883433
 21
-5.0008086616
 31
0.0
 11
-62.8907483137
 21
-5.0551038644
 31
0.0
 11
-62.9534229537
 21
-5.0874038603
 31
0.0
 11
-63.010372745
 21
-5.1234243504
 31
0.0
 11
-63.061523043
 21
-5.1639784775
 31
0.0
 11
-63.1048034058
 21
-5.208351594
 31
0.0
 11
-63.1388716368
 21
-5.2554543979
 31
0.0
 11
-63.1639062257
 21
-5.30544429
 31
0.0
  0
SPLINE
  5
73A
100
AcDbEntity
  8
CURVE
100
AcDbSpline
 62
253
  6
CONTINUOUS
 70
0
 71
3
 72
12
 73
8
 74
6
 42
0.0000001
 43
0.0000001
 44
0.0000000001
 12
-0.0822227012
 22
0.4818646262
 32
0.0
 13
0.0544405991
 23
0.4690218478
 33
0.0
 40
0.0
 40
0.0
 40
0.0
 40
0.0
 40
0.1666666667
 40
0.3333333333
 40
0.5
 40
0.6666666667
 40
1.0
 40
1.0
 40
1.0
 40
1.0
 10
-64.2160424128
 20
-6.2788012718
 30
0.0
 10
-64.2206103407
 20
-6.2520310148
 30
0.0
 10
-64.2290473788
 20
-6.1988313653
 30
0.0
 10
-64.2381782384
 20
-6.1192230938
 30
0.0
 10
-64.2430310894
 20
-6.0401940588
 30
0.0
 10
-64.2442124157
 20
-5.9351841573
 30
0.0
 10
-64.2391605585
 20
-5.8567392296
 30
0.0
 10
-64.233111603
 20
-5.804625691
 30
0.0
 11
-64.2160424128
 21
-6.2788012718
 31
0.0
 11
-64.2284599292
 21
-6.1988632324
 31
0.0
 11
-64.237465237
 21
-6.1193196332
 31
0.0
 11
-64.2423699467
 21
-6.0402393269
 31
0.0
 11
-64.2432573228
 21
-5.9614713547
 31
0.0
 11
-64.233111603
 21
-5.804625691
 31
0.0
  0
SPLINE
  5
73B
100
AcDbEntity
  8
CURVE
100
AcDbSpline
 62
253
  6
CONTINUOUS
 70
0
 71
3
 72
19
 73
15
 74
13
 42
0.0000001
 43
0.0000001
 44
0.0000000001
 12
0.8924624044
 22
0.0133343571
 32
0.0
 13
0.019283158
 23
-0.8633323936
 33
0.0
 40
0.0
 40
0.0
 40
0.0
 40
0.0
 40
0.1
 40
0.2
 40
0.25
 40
0.3
 40
0.4
 40
0.45
 40
0.5
 40
0.55
 40
0.6
 40
0.7
 40
0.8
 40
1.0
 40
1.0
 40
1.0
 40
1.0
 10
-63.8703971515
 20
-5.4627164
 30
0.0
 10
-63.8406484047
 20
-5.4622719215
 30
0.0
 10
-63.7853380596
 20
-5.4665242097
 30
0.0
 10
-63.7203056162
 20
-5.4814029848
 30
0.0
 10
-63.6734665808
 20
-5.4977456941
 30
0.0
 10
-63.6299129982
 20
-5.5166890616
 30
0.0
 10
-63.5904101786
 20
-5.5396948272
 30
0.0
 10
-63.5548520697
 20
-5.5673304042
 30
0.0
 10
-63.5307063543
 20
-5.5902080962
 30
0.0
 10
-63.5091927048
 20
-5.6154709286
 30
0.0
 10
-63.4840126873
 20
-5.6524347923
 30
0.0
 10
-63.4589732712
 20
-5.7035536396
 30
0.0
 10
-63.4304618176
 20
-5.7963699164
 30
0.0
 10
-63.4213165996
 20
-5.8753391829
 30
0.0
 10
-63.4200310557
 20
-5.9328946758
 30
0.0
 11
-63.8703971515
 21
-5.4627164
 31
0.0
 11
-63.7861591572
 21
-5.4684368927
 31
0.0
 11
-63.7090281006
 21
-5.4858586362
 31
0.0
 11
-63.6738772624
 21
-5.4980707763
 31
0.0
 11
-63.6411389575
 21
-5.5122917529
 31
0.0
 11
-63.5818493772
 21
-5.5469895391
 31
0.0
 11
-63.5552725474
 21
-5.5676889057
 31
0.0
 11
-63.531145032
 21
-5.5906056196
 31
0.0
 11
-63.5096308109
 21
-5.6158809395
 31
0.0
 11
-63.4907367321
 21
-5.6435214275
 31
0.0
 11
-63.4604172227
 21
-5.7049319047
 31
0.0
 11
-63.4389495001
 21
-5.7742055204
 31
0.0
 11
-63.4200310557
 21
-5.9328946758
 31
0.0
  0
SPLINE
  5
73C
100
AcDbEntity
  8
CURVE
100
AcDbSpline
 62
253
  6
CONTINUOUS
 70
0
 71
3
 72
15
 73
11
 74
9
 42
0.0000001
 43
0.0000001
 44
0.0000000001
 12
0.0695649653
 22
0.5991826113
 32
0.0
 13
0.536519825
 23
0.0080161886
 33
0.0
 40
0.0
 40
0.0
 40
0.0
 40
0.0
 40
0.125
 40
0.25
 40
0.375
 40
0.5
 40
0.625
 40
0.75
 40
0.875
 40
1.0
 40
1.0
 40
1.0
 40
1.0
 10
-64.233111603
 20
-5.804625691
 30
0.0
 10
-64.2302130628
 20
-5.7796597488
 30
0.0
 10
-64.2204869506
 20
-5.7330880161
 30
0.0
 10
-64.1951285624
 20
-5.6670566889
 30
0.0
 10
-64.1590102435
 20
-5.606807074
 30
0.0
 10
-64.1131105371
 20
-5.5556046836
 30
0.0
 10
-64.0586469545
 20
-5.5154448347
 30
0.0
 10
-63.9981966509
 20
-5.4859713056
 30
0.0
 10
-63.9352173463
 20
-5.4678469086
 30
0.0
 10
-63.8927521446
 20
-5.4630503828
 30
0.0
 10
-63.8703971519
 20
-5.462716375
 30
0.0
 11
-64.233111603
 21
-5.804625691
 31
0.0
 11
-64.2186920806
 21
-5.7337257281
 31
0.0
 11
-64.1933352407
 21
-5.6680203076
 31
0.0
 11
-64.1573800123
 21
-5.6083149448
 31
0.0
 11
-64.1116832244
 21
-5.5574451072
 31
0.0
 11
-64.0576491677
 21
-5.517225888
 31
0.0
 11
-63.9977751507
 21
-5.4878628276
 31
0.0
 11
-63.9350975967
 21
-5.46966851
 31
0.0
 11
-63.8703971519
 21
-5.462716375
 31
0.0
  0
ELLIPSE
  5
73D
100
AcDbEntity
  8
RACCORDO
100
AcDbEllipse
 62
7
  6
CONTINUOUS
 10
1.0179695344
 20
-0.3
 30
0.0
 11
0.2000304656
 21
-0.0
 31
0.0
 40
0.9998476952
 41
0.0
 42
1.5707963268
  0
ELLIPSE
  5
73E
100
AcDbEntity
  8
RACCORDO
100
AcDbEllipse
 62
7
  6
CONTINUOUS
 10
0.707450797
 20
-21.6178691594
 30
0.0
 11
-0.1582391023
 21
0.4751033573
 31
0.0
 40
0.9984778551
 41
-3.4626430041
 42
-1.8927600658
  0
ELLIPSE
  5
73F
100
AcDbEntity
  8
RACCORDO
100
AcDbEllipse
 62
7
  6
CONTINUOUS
 10
-20.471450797
 20
-21.6178691594
 30
0.0
 11
0.1582391023
 21
0.4751033573
 31
0.0
 40
0.9984778551
 41
-4.3904252414
 42
-2.8205423031
  0
ELLIPSE
  5
740
100
AcDbEntity
  8
RACCORDO
100
AcDbEllipse
 62
7
  6
CONTINUOUS
 10
-20.7819695344
 20
-0.3
 30
0.0
 11
0.2000304656
 21
0.0
 31
0.0
 40
0.9998476952
 41
1.5707963268
 42
3.1415926536
  0
ELLIPSE
  5
741
100
AcDbEntity
  8
RACCORDO
100
AcDbEllipse
 62
7
  6
CONTINUOUS
 10
-20.506923836
 20
21.749313827
 30
0.0
 11
-0.1582391023
 21
0.4751033573
 31
0.0
 40
0.9984778551
 41
-0.3210503505
 42
1.2488325878
  0
ELLIPSE
  5
742
100
AcDbEntity
  8
RACCORDO
100
AcDbEllipse
 62
7
  6
CONTINUOUS
 10
0.742923836
 20
21.749313827
 30
0.0
 11
0.1582391023
 21
0.4751033573
 31
0.0
 40
0.9984778551
 41
-1.2488325878
 42
0.3210503505
  0
ELLIPSE
  5
743
100
AcDbEntity
  8
RACCORDO
100
AcDbEllipse
 62
7
  6
CONTINUOUS
 10
-20.7069543016
 20
0.4000114235
 30
0.0
 11
0.2683833349
 21
0.1341814477
 31
0.0
 40
0.9998096356
 41
2.6780516535
 42
4.2486956813
  0
ELLIPSE
  5
744
100
AcDbEntity
  8
RACCORDO
100
AcDbEllipse
 62
7
  6
CONTINUOUS
 10
0.9429543016
 20
0.4000114235
 30
0.0
 11
0.2683833349
 21
-0.1341814477
 31
0.0
 40
0.9998096356
 41
-1.1071030277
 42
0.4635410001
  0
ELLIPSE
  5
745
100
AcDbEntity
  8
RACCORDO
100
AcDbEllipse
 62
7
  6
CONTINUOUS
 10
-20.531923836
 20
-21.891254093
 30
0.0
 11
0.4473055582
 21
-0.2236357461
 31
0.0
 40
0.9998096356
 41
-2.6780516535
 42
-1.5707153721
  0
ELLIPSE
  5
746
100
AcDbEntity
  8
RACCORDO
100
AcDbEllipse
 62
7
  6
CONTINUOUS
 10
0.767923836
 20
21.891254093
 30
0.0
 11
0.4473055582
 21
-0.2236357461
 31
0.0
 40
0.9998096356
 41
0.4635410001
 42
1.5708772815
  0
ELLIPSE
  5
747
100
AcDbEntity
  8
RACCORDO
100
AcDbEllipse
 62
7
  6
CONTINUOUS
 10
0.4171142824
 20
-22.0666455113
 30
0.0
 11
0.5936768768
 21
-0.2256812786
 31
0.0
 40
0.4132601168
 41
5.4912855347
 42
5.8550502945
  0
ELLIPSE
  5
748
100
AcDbEntity
  8
RACCORDO
100
AcDbEllipse
 62
7
  6
CONTINUOUS
 10
0.767923836
 20
-21.891254093
 30
0.0
 11
0.4473055582
 21
0.2236357461
 31
0.0
 40
0.9998096356
 41
-1.5708772863
 42
-0.4635410001
  0
ELLIPSE
  5
749
100
AcDbEntity
  8
RACCORDO
100
AcDbEllipse
 62
7
  6
CONTINUOUS
 10
-20.1811142824
 20
-22.0666455113
 30
0.0
 11
0.5936768768
 21
0.2256812786
 31
0.0
 40
0.4132601168
 41
3.6463207879
 42
3.9334924261
  0
ELLIPSE
  5
74A
100
AcDbEntity
  8
RACCORDO
100
AcDbEllipse
 62
7
  6
CONTINUOUS
 10
-20.1811142824
 20
22.0666455113
 30
0.0
 11
0.5936768768
 21
-0.2256812786
 31
0.0
 40
0.4132601168
 41
8.6328781883
 42
8.9966429481
  0
ELLIPSE
  5
74B
100
AcDbEntity
  8
RACCORDO
100
AcDbEllipse
 62
7
  6
CONTINUOUS
 10
-20.531923836
 20
21.891254093
 30
0.0
 11
0.4473055582
 21
0.2236357461
 31
0.0
 40
0.9998096356
 41
1.5707153672
 42
2.6780516535
  0
ELLIPSE
  5
74C
100
AcDbEntity
  8
RACCORDO
100
AcDbEllipse
 62
7
  6
CONTINUOUS
 10
0.4171142824
 20
22.0666455113
 30
0.0
 11
0.5936768768
 21
0.2256812786
 31
0.0
 40
0.4132601168
 41
6.7879134415
 42
7.0750850797
  0
ELLIPSE
  5
74D
100
AcDbEntity
  8
RACCORDO
100
AcDbEllipse
 62
7
  6
CONTINUOUS
 10
-5.9908036965
 20
22.3912724675
 30
0.0
 11
0.5
 21
0.0
 31
0.0
 40
0.0174550649
 41
-1.5707963268
 42
-0.0174532925
  0
ELLIPSE
  5
74E
100
AcDbEntity
  8
RACCORDO
100
AcDbEllipse
 62
7
  6
CONTINUOUS
 10
-5.9908036965
 20
23.7912724675
 30
0.0
 11
0.5
 21
-0.0
 31
0.0
 40
0.0174550649
 41
-1.5707963268
 42
-0.0174532925
  0
ELLIPSE
  5
74F
100
AcDbEntity
  8
RACCORDO
100
AcDbEllipse
 62
7
  6
CONTINUOUS
 10
-13.7731963035
 20
23.7912724675
 30
0.0
 11
0.5
 21
0.0
 31
0.0
 40
0.0174550649
 41
-3.1241393611
 42
-1.5707963268
  0
ELLIPSE
  5
750
100
AcDbEntity
  8
RACCORDO
100
AcDbEllipse
 62
7
  6
CONTINUOUS
 10
-13.7731963035
 20
22.3912724675
 30
0.0
 11
0.5
 21
-0.0
 31
0.0
 40
0.0174550649
 41
-3.1241393611
 42
-1.5707963268
  0
ELLIPSE
  5
751
100
AcDbEntity
  8
RACCORDO
100
AcDbEllipse
 62
7
  6
CONTINUOUS
 10
-18.4038569132
 20
-22.3781811688
 30
0.0
 11
0.25
 21
0.0
 31
0.0
 40
0.0174550649
 41
0.0174532925
 42
1.5707963268
  0
ELLIPSE
  5
752
100
AcDbEntity
  8
RACCORDO
100
AcDbEllipse
 62
7
  6
CONTINUOUS
 10
-20.2601430868
 20
-22.3781811688
 30
0.0
 11
0.25
 21
0.0
 31
0.0
 40
0.0174550649
 41
1.5707963268
 42
3.1241393611
  0
ELLIPSE
  5
753
100
AcDbEntity
  8
RACCORDO
100
AcDbEllipse
 62
7
  6
CONTINUOUS
 10
-18.4038569132
 20
22.3781811688
 30
0.0
 11
0.25
 21
0.0
 31
0.0
 40
0.0174550649
 41
-1.5707963268
 42
-0.0174532925
  0
ELLIPSE
  5
754
100
AcDbEntity
  8
RACCORDO
100
AcDbEllipse
 62
7
  6
CONTINUOUS
 10
-20.2601430868
 20
22.3781811688
 30
0.0
 11
0.25
 21
0.0
 31
0.0
 40
0.0174550649
 41
-3.1241393611
 42
-1.5707963268
  0
ELLIPSE
  5
755
100
AcDbEntity
  8
RACCORDO
100
AcDbEllipse
 62
7
  6
CONTINUOUS
 10
-20.4882861737
 20
21.9130712625
 30
0.0
 11
-0.4473055582
 21
-0.2236357461
 31
0.0
 40
0.9998096356
 41
4.7136854384
 42
5.8196443071
  0
ELLIPSE
  5
756
100
AcDbEntity
  8
RACCORDO
100
AcDbEllipse
 62
7
  6
CONTINUOUS
 10
0.7242861737
 20
-21.9130712625
 30
0.0
 11
0.4473055582
 21
0.2236357461
 31
0.0
 40
0.9998096356
 41
4.7136854384
 42
5.8196443071
  0
ELLIPSE
  5
757
100
AcDbEntity
  8
RACCORDO
100
AcDbEllipse
 62
7
  6
CONTINUOUS
 10
0.4961430868
 20
22.3781811688
 30
0.0
 11
0.25
 21
-0.0
 31
0.0
 40
0.0174550649
 41
-1.5707963268
 42
-0.0174532925
  0
ELLIPSE
  5
758
100
AcDbEntity
  8
RACCORDO
100
AcDbEllipse
 62
7
  6
CONTINUOUS
 10
-1.3601430868
 20
22.3781811688
 30
0.0
 11
0.25
 21
0.0
 31
0.0
 40
0.0174550649
 41
-3.1241393611
 42
-1.5707963268
  0
ELLIPSE
  5
759
100
AcDbEntity
  8
RACCORDO
100
AcDbEllipse
 62
7
  6
CONTINUOUS
 10
-20.4882861737
 20
-21.9130712625
 30
0.0
 11
-0.4473055582
 21
0.2236357461
 31
0.0
 40
0.9998096356
 41
0.4635410001
 42
1.5694998687
  0
ELLIPSE
  5
75A
100
AcDbEntity
  8
RACCORDO
100
AcDbEllipse
 62
7
  6
CONTINUOUS
 10
-5.9908036965
 20
-23.7912724675
 30
0.0
 11
0.5
 21
-0.0
 31
0.0
 40
0.0174550649
 41
0.0174532925
 42
1.5707963268
  0
ELLIPSE
  5
75B
100
AcDbEntity
  8
RACCORDO
100
AcDbEllipse
 62
7
  6
CONTINUOUS
 10
0.7242861737
 20
21.9130712625
 30
0.0
 11
0.4473055582
 21
-0.2236357461
 31
0.0
 40
0.9998096356
 41
0.4635410001
 42
1.5694998687
  0
ELLIPSE
  5
75C
100
AcDbEntity
  8
RACCORDO
100
AcDbEllipse
 62
7
  6
CONTINUOUS
 10
-5.9908036965
 20
-22.3912724675
 30
0.0
 11
0.5
 21
-0.0
 31
0.0
 40
0.0174550649
 41
0.0174532925
 42
1.5707963268
  0
ELLIPSE
  5
75D
100
AcDbEntity
  8
RACCORDO
100
AcDbEllipse
 62
7
  6
CONTINUOUS
 10
-13.7731963035
 20
-22.3912724675
 30
0.0
 11
0.5
 21
0.0
 31
0.0
 40
0.0174550649
 41
1.5707963268
 42
3.1241393611
  0
ELLIPSE
  5
75E
100
AcDbEntity
  8
RACCORDO
100
AcDbEllipse
 62
7
  6
CONTINUOUS
 10
-13.7731963035
 20
-23.7912724675
 30
0.0
 11
0.5
 21
-0.0
 31
0.0
 40
0.0174550649
 41
1.5707963268
 42
3.1241393611
  0
ELLIPSE
  5
75F
100
AcDbEntity
  8
RACCORDO
100
AcDbEllipse
 62
7
  6
CONTINUOUS
 10
-1.3601430868
 20
-22.3781811688
 30
0.0
 11
0.25
 21
0.0
 31
0.0
 40
0.0174550649
 41
1.5707963268
 42
3.1241393611
  0
ELLIPSE
  5
760
100
AcDbEntity
  8
RACCORDO
100
AcDbEllipse
 62
7
  6
CONTINUOUS
 10
0.4961430868
 20
-22.3781811688
 30
0.0
 11
0.25
 21
-0.0
 31
0.0
 40
0.0174550649
 41
0.0174532925
 42
1.5707963268
  0
ELLIPSE
  5
761
100
AcDbEntity
  8
RACCORDO
100
AcDbEllipse
 62
7
  6
CONTINUOUS
 10
23.267923836
 20
21.891254093
 30
0.0
 11
0.4473055582
 21
-0.2236357461
 31
0.0
 40
0.9998096356
 41
0.4635410001
 42
1.5708581097
  0
ELLIPSE
  5
762
100
AcDbEntity
  8
RACCORDO
100
AcDbEllipse
 62
7
  6
CONTINUOUS
 10
1.968076164
 20
-21.891254093
 30
0.0
 11
0.4473055582
 21
-0.2236357461
 31
0.0
 40
0.9998096356
 41
-2.6780516535
 42
-1.5707345439
  0
ELLIPSE
  5
763
100
AcDbEntity
  8
RACCORDO
100
AcDbEllipse
 62
7
  6
CONTINUOUS
 10
23.267923836
 20
-21.891254093
 30
0.0
 11
0.4473055582
 21
0.2236357461
 31
0.0
 40
0.9998096356
 41
-1.5708581097
 42
-0.4635410001
  0
ELLIPSE
  5
764
100
AcDbEntity
  8
RACCORDO
100
AcDbEllipse
 62
7
  6
CONTINUOUS
 10
1.968076164
 20
21.891254093
 30
0.0
 11
0.4473055582
 21
0.2236357461
 31
0.0
 40
0.9998096356
 41
1.5707345439
 42
2.6780516535
  0
ELLIPSE
  5
765
100
AcDbEntity
  8
RACCORDO
100
AcDbEllipse
 62
7
  6
CONTINUOUS
 10
23.0107234819
 20
-22.3344902759
 30
0.0
 11
0.25
 21
0.0
 31
0.0
 40
0.0524077793
 41
0.5261092631
 42
1.5707963268
  0
ELLIPSE
  5
766
100
AcDbEntity
  8
RACCORDO
100
AcDbEllipse
 62
7
  6
CONTINUOUS
 10
16.5150826234
 20
22.3737961104
 30
0.0
 11
0.5
 21
0.0
 31
0.0
 40
0.0524077793
 41
-1.5707963268
 42
-0.0058177642
  0
ELLIPSE
  5
767
100
AcDbEntity
  8
RACCORDO
100
AcDbEllipse
 62
7
  6
CONTINUOUS
 10
21.1252765181
 20
-22.3344902759
 30
0.0
 11
0.25
 21
0.0
 31
0.0
 40
0.0524077793
 41
1.5707963268
 42
3.1357748894
  0
ELLIPSE
  5
768
100
AcDbEntity
  8
RACCORDO
100
AcDbEllipse
 62
7
  6
CONTINUOUS
 10
16.5150826234
 20
23.7970910851
 30
0.0
 11
0.5
 21
0.0
 31
0.0
 40
0.0058178298
 41
-0.6464131586
 42
-0.0058177642
  0
ELLIPSE
  5
769
100
AcDbEntity
  8
RACCORDO
100
AcDbEllipse
 62
7
  6
CONTINUOUS
 10
8.7209173766
 20
23.7970910851
 30
0.0
 11
0.5
 21
0.0
 31
0.0
 40
0.0058178298
 41
-3.1357748894
 42
-2.495179495
  0
ELLIPSE
  5
76A
100
AcDbEntity
  8
RACCORDO
100
AcDbEllipse
 62
7
  6
CONTINUOUS
 10
8.7209173766
 20
22.3737961104
 30
0.0
 11
0.5
 21
0.0
 31
0.0
 40
0.0524077793
 41
-3.1357748894
 42
-1.5707963268
  0
ELLIPSE
  5
76B
100
AcDbEntity
  8
RACCORDO
100
AcDbEllipse
 62
7
  6
CONTINUOUS
 10
4.1107234819
 20
-22.3344902759
 30
0.0
 11
0.25
 21
-0.0
 31
0.0
 40
0.0524077793
 41
0.0058177642
 42
1.5707963268
  0
ELLIPSE
  5
76C
100
AcDbEntity
  8
RACCORDO
100
AcDbEllipse
 62
7
  6
CONTINUOUS
 10
2.2252765181
 20
-22.3344902759
 30
0.0
 11
0.25
 21
0.0
 31
0.0
 40
0.0524077793
 41
1.5707963268
 42
2.6154833905
  0
ELLIPSE
  5
76D
100
AcDbEntity
  8
RACCORDO
100
AcDbEllipse
 62
7
  6
CONTINUOUS
 10
23.0107234819
 20
22.3344902759
 30
0.0
 11
0.25
 21
-0.0
 31
0.0
 40
0.0524077793
 41
-1.5707963268
 42
-0.5261092631
  0
ELLIPSE
  5
76E
100
AcDbEntity
  8
RACCORDO
100
AcDbEllipse
 62
7
  6
CONTINUOUS
 10
16.5150826234
 20
-23.7970910851
 30
0.0
 11
0.5
 21
0.0
 31
0.0
 40
0.0058178298
 41
0.0058177642
 42
0.6464131586
  0
ELLIPSE
  5
76F
100
AcDbEntity
  8
RACCORDO
100
AcDbEllipse
 62
7
  6
CONTINUOUS
 10
16.5150826234
 20
-22.3737961104
 30
0.0
 11
0.5
 21
-0.0
 31
0.0
 40
0.0524077793
 41
0.0058177642
 42
1.5707963268
  0
ELLIPSE
  5
770
100
AcDbEntity
  8
RACCORDO
100
AcDbEllipse
 62
7
  6
CONTINUOUS
 10
21.1252765181
 20
22.3344902759
 30
0.0
 11
0.25
 21
0.0
 31
0.0
 40
0.0524077793
 41
-3.1357748894
 42
-1.5707963268
  0
ELLIPSE
  5
771
100
AcDbEntity
  8
RACCORDO
100
AcDbEllipse
 62
7
  6
CONTINUOUS
 10
4.1107234819
 20
22.3344902759
 30
0.0
 11
0.25
 21
-0.0
 31
0.0
 40
0.0524077793
 41
-1.5707963268
 42
-0.0058177642
  0
ELLIPSE
  5
772
100
AcDbEntity
  8
RACCORDO
100
AcDbEllipse
 62
7
  6
CONTINUOUS
 10
2.2252765181
 20
22.3344902759
 30
0.0
 11
0.25
 21
0.0
 31
0.0
 40
0.0524077793
 41
-2.6154833905
 42
-1.5707963268
  0
ELLIPSE
  5
773
100
AcDbEntity
  8
RACCORDO
100
AcDbEllipse
 62
7
  6
CONTINUOUS
 10
8.7209173766
 20
-22.3737961104
 30
0.0
 11
0.5
 21
0.0
 31
0.0
 40
0.0524077793
 41
1.5707963268
 42
3.1357748894
  0
ELLIPSE
  5
774
100
AcDbEntity
  8
RACCORDO
100
AcDbEllipse
 62
7
  6
CONTINUOUS
 10
8.7209173766
 20
-23.7970910851
 30
0.0
 11
0.5
 21
-0.0
 31
0.0
 40
0.0058178298
 41
2.495179495
 42
3.1357748894
  0
ELLIPSE
  5
775
100
AcDbEntity
  8
RACCORDO
100
AcDbEllipse
 62
7
  6
CONTINUOUS
 10
-57.8023701545
 20
-22.0658992808
 30
0.0
 11
0.4978544199
 21
-0.0462706887
 31
0.0
 40
1.0
 41
0.7532420261
 42
1.6460170093
  0
ELLIPSE
  5
776
100
AcDbEntity
  8
RACCORDO
100
AcDbEllipse
 62
7
  6
CONTINUOUS
 10
-57.8023701545
 20
22.0658992808
 30
0.0
 11
0.0
 21
0.5
 31
0.0
 40
1.0
 41
-3.1241393611
 42
-2.2313643779
  0
ELLIPSE
  5
777
100
AcDbEntity
  8
CURVE
100
AcDbEllipse
 62
253
  6
CONTINUOUS
 10
-52.8504101545
 20
15.9
 30
0.0
 11
2.0273648338
 21
-1.5467013235
 31
0.0
 40
1.0
 41
-2.4867355999
 42
0.690939582
  0
ELLIPSE
  5
778
100
AcDbEntity
  8
CURVE
100
AcDbEllipse
 62
253
  6
CONTINUOUS
 10
-52.8504101545
 20
15.9
 30
0.0
 11
1.7832287021
 21
0.2451207191
 31
0.0
 40
1.0
 41
-1.4975282251
 42
-0.08101859
  0
ELLIPSE
  5
779
100
AcDbEntity
  8
CURVE
100
AcDbEllipse
 62
253
  6
CONTINUOUS
 10
-52.8504101545
 20
15.9
 30
0.0
 11
0.0521037506
 21
1.7992456551
 31
0.0
 40
1.0
 41
1.5441627244
 42
2.9606726257
  0
ELLIPSE
  5
77A
100
AcDbEntity
  8
CURVE
100
AcDbEllipse
 62
253
  6
CONTINUOUS
 10
-52.8504101545
 20
11.51489
 30
0.0
 11
0.08485869
 21
2.5485861877
 31
0.0
 40
1.0
 41
-4.6759616632
 42
-1.4982864778
  0
ELLIPSE
  5
77B
100
AcDbEntity
  8
CURVE
100
AcDbEllipse
 62
253
  6
CONTINUOUS
 10
-52.8504101545
 20
11.51489
 30
0.0
 11
1.7922953843
 21
0.1663640101
 31
0.0
 40
1.0
 41
2.9934519297
 42
6.1617256357
  0
ELLIPSE
  5
77C
100
AcDbEntity
  8
CURVE
100
AcDbEllipse
 62
253
  6
CONTINUOUS
 10
-47.9523701545
 20
-7.3056
 30
0.0
 11
0.6498420368
 21
0.0143292426
 31
0.0
 40
1.0
 41
-0.0220467745
 42
3.1195458791
  0
ELLIPSE
  5
77D
100
AcDbEntity
  8
CURVE
100
AcDbEllipse
 62
253
  6
CONTINUOUS
 10
-48.2773701545
 20
-10.748
 30
0.0
 11
0.0013871337
 21
0.3249970398
 31
0.0
 40
1.0
 41
-1.56652821
 42
1.5750644436
  0
ELLIPSE
  5
77E
100
AcDbEntity
  8
CURVE
100
AcDbEllipse
 62
253
  6
CONTINUOUS
 10
-48.2773701545
 20
-15.584
 30
0.0
 11
0.0030585634
 21
0.3249856077
 31
0.0
 40
1.0
 41
-1.5613852236
 42
1.58020743
  0
ELLIPSE
  5
77F
100
AcDbEntity
  8
CURVE
100
AcDbEllipse
 62
253
  6
CONTINUOUS
 10
-47.3543701545
 20
-6.328
 30
0.0
 11
0.0519999725
 21
0.0000535045
 31
0.0
 40
1.0
 41
0.0
 42
6.2831853072
  0
ELLIPSE
  5
780
100
AcDbEntity
  8
CURVE
100
AcDbEllipse
 62
253
  6
CONTINUOUS
 10
-47.3543701545
 20
-12.1104
 30
0.0
 11
0.0002144846
 21
0.0519995577
 31
0.0
 40
1.0
 41
0.0
 42
6.2831853072
  0
ELLIPSE
  5
781
100
AcDbEntity
  8
CURVE
100
AcDbEllipse
 62
253
  6
CONTINUOUS
 10
-52.8504101545
 20
15.9
 30
0.0
 11
2.5498954127
 21
-0.0229464093
 31
0.0
 40
1.0
 41
3.1113656063
 42
3.1537346087
  0
ELLIPSE
  5
782
100
AcDbEntity
  8
CURVE
100
AcDbEllipse
 62
253
  6
CONTINUOUS
 10
-52.8504101545
 20
11.51489
 30
0.0
 11
-0.4076501082
 21
2.5172035958
 31
0.0
 40
1.0
 41
1.3710188157
 42
1.4133878181
  0
ELLIPSE
  5
783
100
AcDbEntity
  8
CURVE
100
AcDbEllipse
 62
253
  6
CONTINUOUS
 10
-52.8504101545
 20
11.51489
 30
0.0
 11
1.6949373005
 21
0.605959797
 31
0.0
 40
1.0
 41
-0.3722540819
 42
-0.287766783
  0
ENDSEC
  0
SECTION
  2
OBJECTS
  0
DICTIONARY
  5
C
100
AcDbDictionary
280
0
281
1
  3
ACAD_GROUP
350
D
  3
ACAD_MLINESTYLE
350
17
  3
ACAD_LAYOUT
350
1A
  3
ACAD_PLOTSETTINGS
350
19
  3
ACAD_PLOTSTYLENAME
350
E
  0
DICTIONARY
  5
D
102
{ACAD_REACTORS
330
C
102
}
100
AcDbDictionary
280
0
281
1
  0
ACDBDICTIONARYWDFLT
  5
E
102
{ACAD_REACTORS
330
C
102
}
100
AcDbDictionary
281
1
  3
Normal
350
F
100
AcDbDictionaryWithDefault
340
F
  0
DICTIONARY
  5
17
102
{ACAD_REACTORS
330
C
102
}
100
AcDbDictionary
280
0
281
1
  3
Standard
350
18
  0
DICTIONARY
  5
19
102
{ACAD_REACTORS
330
C
102
}
100
AcDbDictionary
281
1
  0
DICTIONARY
  5
1A
102
{ACAD_REACTORS
330
C
102
}
100
AcDbDictionary
281
1
  3
Model
350
784
  3
Layout1
350
785
  0
ACDBPLACEHOLDER
  5
F
102
{ACAD_REACTORS
330
E
102
}
  0
MLINESTYLE
  5
18
102
{ACAD_REACTORS
330
17
102
}
100
AcDbMlineStyle
  2
STANDARD
 70
0
  3

 62
256
 51
90.0
 52
90.0
 71
2
 49
0.5
 62
256
  6
BYLAYER
 49
-0.5
 62
256
  6
BYLAYER
  0
LAYOUT
  5
784
102
{ACAD_REACTORS
330
1A
102
}
100
AcDbPlotSettings
  1

  2
none_device
  4
ANSI_C_(22.00_x_17.00_Inches)
  6

 40
0.0
 41
0.0
 42
0.0
 43
0.0
 44
558.8
 45
431.8
 46
0.0
 47
0.0
 48
0.0
 49
0.0
140
0.0
141
0.0
142
1.0
143
1.0
 70
1024
 72
1
 73
0
 74
0
  7

 75
0
147
1.0
148
0.0
149
0.0
100
AcDbLayout
  1
Model
 70
0
 71
0
 10
0.0
 20
0.0
 11
558.8
 21
431.8
 12
0.0
 22
0.0
 32
0.0
 14
0.0
 24
0.0
 34
0.0
 15
0.0
 25
0.0
 35
0.0
146
0.0
 13
0.0
 23
0.0
 33
0.0
 16
1.0
 26
0.0
 36
0.0
 17
0.0
 27
1.0
 37
0.0
 76
0
330
218
345
0
346
0
  0
LAYOUT
  5
785
102
{ACAD_REACTORS
330
1A
102
}
100
AcDbPlotSettings
  1

  2
none_device
  4
ANSI_C_(22.00_x_17.00_Inches)
  6

 40
0.0
 41
0.0
 42
0.0
 43
0.0
 44
558.8
 45
431.8
 46
0.0
 47
0.0
 48
0.0
 49
0.0
140
0.0
141
0.0
142
1.0
143
1.0
 70
0
 72
1
 73
0
 74
0
  7

 75
0
147
1.0
148
0.0
149
0.0
100
AcDbLayout
  1
Layout1
 70
0
 71
1
 10
0.0
 20
0.0
 11
558.8
 21
431.8
 12
0.0
 22
0.0
 32
0.0
 14
0.0
 24
0.0
 34
0.0
 15
0.0
 25
0.0
 35
0.0
146
0.0
 13
0.0
 23
0.0
 33
0.0
 16
1.0
 26
0.0
 36
0.0
 17
0.0
 27
1.0
 37
0.0
 76
0
330
219
345
0
346
0
  0
ENDSEC
  0
EOF
