  0
SECTION
  2
HEADER
  9
$ACADVER
  1
AC1015
  9
$DWGCODEPAGE
  3
ANSI_1252
  9
$EXTMAX
 10
297.0
 20
210.0
 30
0.0
  9
$EXTMIN
 10
0.0
 20
0.0
 30
0.0
  9
$LIMMIN
 10
0.0
 20
0.0
  9
$LIMMAX
 10
297.0
 20
210.0
  9
$VIEWCTR
 10
148.5
 20
105.0
  9
$VIEWSIZE
 40
210.0
  9
$CLAYER
  8
0
  9
$LTSCALE
 40
16.335
  9
$CELTYPE
  6
BYLAYER
  9
$DIMSCALE
 40
1.0
  9
$DIMASZ
 40
3.0
  9
$DIMEXO
 40
1.85625
  9
$DIMDLI
 40
11.286
  9
$DIMEXE
 40
5.346
  9
$DIMCEN
 40
2.673
  9
$DIMLFAC
 40
1.0
  9
$DIMBLK
  1
_FILLED
  9
$DIMTXT
 40
3.0
  9
$DIMTOL
 70
1
  9
$DIMLIM
 70
0
  9
$DIMTFAC
 40
1.0
  9
$DIMTP
 40
0.01
  9
$DIMTM
 40
0.01
  9
$PDMODE
 70
3
  9
$PDSIZE
 40
3.0
  9
$HANDSEED
  5
2D7
  9
$TILEMODE
 70
1
  9
$MEASUREMENT
 70
1
  9
$INSUNITS
 70
4
  0
ENDSEC
  0
SECTION
  2
CLASSES
  0
CLASS
  1
ACDBDICTIONARYWDFLT
  2
AcDbDictionaryWithDefault
  3
AutoCAD 2000
 90
0
280
0
281
0
  0
CLASS
  1
ACDBPLACEHOLDER
  2
AcDbPlaceHolder
  3
AutoCAD 2000
 90
0
280
0
281
0
  0
CLASS
  1
LAYOUT
  2
AcDbLayout
  3
AutoCAD 2000
 90
0
280
0
281
0
  0
ENDSEC
  0
SECTION
  2
TABLES
  0
TABLE
  2
VPORT
  5
8
100
AcDbSymbolTable
 70
2
  0
VPORT
  5
1F4
100
AcDbSymbolTableRecord
100
AcDbViewportTableRecord
  2
*ACTIVE
 70
0
 10
0.0
 20
0.0
 11
1.0
 21
1.0
 12
148.5
 22
105.0
 13
0.0
 23
0.0
 14
1.0
 24
1.0
 15
0.0
 25
0.0
 16
0.0
 26
0.0
 36
1.0
 17
0.0
 27
0.0
 37
0.0
 40
210.0
 41
1.4142857143
 42
50.0
 43
0.0
 44
0.0
 50
0.0
 51
0.0
 71
0
 72
100
 73
1
 74
1
 75
0
 76
0
 77
0
 78
0
  0
ENDTAB
  0
TABLE
  2
LTYPE
  5
5
100
AcDbSymbolTable
 70
6
  0
LTYPE
  5
14
100
AcDbSymbolTableRecord
100
AcDbLinetypeTableRecord
  2
BYBLOCK
 70
0
  3

 72
65
 73
0
 40
0.0
  0
LTYPE
  5
15
100
AcDbSymbolTableRecord
100
AcDbLinetypeTableRecord
  2
BYLAYER
 70
0
  3

 72
65
 73
0
 40
0.0
  0
LTYPE
  5
16
100
AcDbSymbolTableRecord
100
AcDbLinetypeTableRecord
  2
CONTINUOUS
 70
64
  3
Solid line
 72
65
 73
0
 40
0.0
  0
LTYPE
  5
1F5
100
AcDbSymbolTableRecord
100
AcDbLinetypeTableRecord
  2
CENTER
 70
64
  3
____ _ ____ _ ____ _ ____ _ ____ _ ____ _ ____
 72
65
 73
4
 40
0.6
 49
0.375
 74
0
 49
-0.075
 74
0
 49
0.075
 74
0
 49
-0.075
 74
0
  0
LTYPE
  5
1F6
100
AcDbSymbolTableRecord
100
AcDbLinetypeTableRecord
  2
HIDDEN
 70
64
  3
- - - - - - - - - - - - - - - - - - - -
 72
65
 73
2
 40
0.2
 49
0.1
 74
0
 49
-0.1
 74
0
  0
LTYPE
  5
1F7
100
AcDbSymbolTableRecord
100
AcDbLinetypeTableRecord
  2
PHANTOM
 70
64
  3
_____ _ _ _____ _ _ _____ _ _ _____
 72
65
 73
6
 40
0.8
 49
0.45
 74
0
 49
-0.05
 74
0
 49
0.1
 74
0
 49
-0.05
 74
0
 49
0.1
 74
0
 49
-0.05
 74
0
  0
LTYPE
  5
1F8
100
AcDbSymbolTableRecord
100
AcDbLinetypeTableRecord
  2
DOT
 70
64
  3
. . . . . . . . . . . . . . . . . . . .
 72
65
 73
2
 40
0.2
 49
0.1
 74
0
 49
-0.1
 74
0
  0
LTYPE
  5
1F9
100
AcDbSymbolTableRecord
100
AcDbLinetypeTableRecord
  2
DASHED
 70
64
  3
- - - - - - - - - - - - - - - - - - - -
 72
65
 73
2
 40
0.2
 49
0.1
 74
0
 49
-0.1
 74
0
  0
ENDTAB
  0
TABLE
  2
LAYER
  5
2
100
AcDbSymbolTable
 70
36
  0
LAYER
  5
10
100
AcDbSymbolTableRecord
100
AcDbLayerTableRecord
  2
0
 70
0
 62
7
  6
CONTINUOUS
370
-3
390
F
  0
LAYER
  5
1FA
100
AcDbSymbolTableRecord
100
AcDbLayerTableRecord
  2
DEFAULT_1
 70
0
 62
7
  6
CENTER
370
-3
390
F
  0
LAYER
  5
1FB
100
AcDbSymbolTableRecord
100
AcDbLayerTableRecord
  2
DEFAULT_2
 70
0
 62
7
  6
HIDDEN
370
-3
390
F
  0
LAYER
  5
1FC
100
AcDbSymbolTableRecord
100
AcDbLayerTableRecord
  2
DEFAULT_3
 70
0
 62
7
  6
PHANTOM
370
-3
390
F
  0
LAYER
  5
1FD
100
AcDbSymbolTableRecord
100
AcDbLayerTableRecord
  2
ASSI
 70
0
 62
7
  6
CONTINUOUS
370
-3
390
F
  0
LAYER
  5
1FE
100
AcDbSymbolTableRecord
100
AcDbLayerTableRecord
  2
COORDINATE
 70
0
 62
7
  6
CONTINUOUS
370
-3
390
F
  0
LAYER
  5
1FF
100
AcDbSymbolTableRecord
100
AcDbLayerTableRecord
  2
COORD_ORIGINE
 70
0
 62
7
  6
CONTINUOUS
370
-3
390
F
  0
LAYER
  5
200
100
AcDbSymbolTableRecord
100
AcDbLayerTableRecord
  2
CURVE
 70
0
 62
7
  6
CONTINUOUS
370
-3
390
F
  0
LAYER
  5
201
100
AcDbSymbolTableRecord
100
AcDbLayerTableRecord
  2
CURVE_LED_TASTO
 70
0
 62
7
  6
CONTINUOUS
370
-3
390
F
  0
LAYER
  5
202
100
AcDbSymbolTableRecord
100
AcDbLayerTableRecord
  2
DRAFT
 70
0
 62
7
  6
CONTINUOUS
370
-3
390
F
  0
LAYER
  5
203
100
AcDbSymbolTableRecord
100
AcDbLayerTableRecord
  2
IGES_SCRITTE
 70
0
 62
7
  6
CONTINUOUS
370
-3
390
F
  0
LAYER
  5
204
100
AcDbSymbolTableRecord
100
AcDbLayerTableRecord
  2
PIANI
 70
0
 62
7
  6
CONTINUOUS
370
-3
390
F
  0
LAYER
  5
205
100
AcDbSymbolTableRecord
100
AcDbLayerTableRecord
  2
PIANI_ORIGINE
 70
0
 62
7
  6
CONTINUOUS
370
-3
390
F
  0
LAYER
  5
206
100
AcDbSymbolTableRecord
100
AcDbLayerTableRecord
  2
PIANI_RIFERIMENTO
 70
0
 62
7
  6
CONTINUOUS
370
-3
390
F
  0
LAYER
  5
207
100
AcDbSymbolTableRecord
100
AcDbLayerTableRecord
  2
PUNTI
 70
0
 62
7
  6
CONTINUOUS
370
-3
390
F
  0
LAYER
  5
208
100
AcDbSymbolTableRecord
100
AcDbLayerTableRecord
  2
RACCORDO
 70
0
 62
7
  6
CONTINUOUS
370
-3
390
F
  0
LAYER
  5
209
100
AcDbSymbolTableRecord
100
AcDbLayerTableRecord
  2
SMUSSO
 70
0
 62
7
  6
CONTINUOUS
370
-3
390
F
  0
LAYER
  5
20A
100
AcDbSymbolTableRecord
100
AcDbLayerTableRecord
  2
SNAPLINE
 70
0
 62
7
  6
CONTINUOUS
370
-3
390
F
  0
LAYER
  5
20B
100
AcDbSymbolTableRecord
100
AcDbLayerTableRecord
  2
SUPERFICI
 70
0
 62
7
  6
CONTINUOUS
370
-3
390
F
  0
LAYER
  5
20C
100
AcDbSymbolTableRecord
100
AcDbLayerTableRecord
  2
TRASH
 70
0
 62
7
  6
CONTINUOUS
370
-3
390
F
  0
ENDTAB
  0
TABLE
  2
STYLE
  5
3
100
AcDbSymbolTable
 70
1
  0
STYLE
  5
11
100
AcDbSymbolTableRecord
100
AcDbTextStyleTableRecord
  2
STANDARD
 70
0
 40
0.0
 41
0.8
 50
0.0
 71
0
 42
0.2
  3
txt
  4

  0
STYLE
  5
20D
100
AcDbSymbolTableRecord
100
AcDbTextStyleTableRecord
  2
TEXTSTYLE_1
 70
0
 40
0.0
 41
0.8
 50
0.0
 71
0
 42
0.2
  3
gdt
  4

  0
ENDTAB
  0
TABLE
  2
VIEW
  5
6
100
AcDbSymbolTable
 70
0
  0
ENDTAB
  0
TABLE
  2
UCS
  5
7
100
AcDbSymbolTable
 70
0
  0
ENDTAB
  0
TABLE
  2
APPID
  5
9
100
AcDbSymbolTable
 70
1
  0
APPID
  5
20E
100
AcDbSymbolTableRecord
100
AcDbRegAppTableRecord
  2
ACAD
 70
0
  0
ENDTAB
  0
TABLE
  2
BLOCK_RECORD
  5
1
100
AcDbSymbolTable
 70
0
  0
BLOCK_RECORD
  5
20F
100
AcDbSymbolTableRecord
100
AcDbBlockTableRecord
  2
*Model_Space
  0
BLOCK_RECORD
  5
210
100
AcDbSymbolTableRecord
100
AcDbBlockTableRecord
  2
*Paper_Space
  0
BLOCK_RECORD
  5
211
100
AcDbSymbolTableRecord
100
AcDbBlockTableRecord
  2
_FILLED
  0
BLOCK_RECORD
  5
212
100
AcDbSymbolTableRecord
100
AcDbBlockTableRecord
  2
*D0
  0
BLOCK_RECORD
  5
213
100
AcDbSymbolTableRecord
100
AcDbBlockTableRecord
  2
*D1
  0
BLOCK_RECORD
  5
214
100
AcDbSymbolTableRecord
100
AcDbBlockTableRecord
  2
*D2
  0
ENDTAB
  0
TABLE
  2
DIMSTYLE
  5
A
100
AcDbSymbolTable
 70
1
100
AcDbDimStyleTable
 71
0
  0
DIMSTYLE
105
215
100
AcDbSymbolTableRecord
100
AcDbDimStyleTableRecord
  2
STANDARD
 70
0
  3

  4

 40
1.0
 41
3.0
 42
0.0625
 43
0.38
 44
0.18
 45
0.0
 46
0.0
 47
0.01
 48
0.01
140
3.0
141
0.09
142
0.0
143
25.4
144
1.0
145
0.0
146
1.0
147
0.09
 71
1.0
 72
0.0
 73
0
 74
0
 75
0
 76
0
 77
1
 78
8
170
0
171
2
172
0
173
0
174
0
175
0
176
0
177
0
178
0
270
2
271
2
272
2
273
2
274
2
275
0
280
0
281
0
282
0
283
1
284
8
285
0
286
0
287
3
288
0
340
11
341
211
342
211
343
211
344
211
  0
DIMSTYLE
105
216
100
AcDbSymbolTableRecord
100
AcDbDimStyleTableRecord
  2
DIMSTYLE_1
 70
0
  3

  4

 40
1.0
 41
3.0
 42
0.0625
 43
0.38
 44
0.18
 45
0.0
 46
0.0
 47
0.0
 48
0.0
140
3.0
141
0.09
142
0.0
143
25.4
144
1.0
145
0.0
146
1.0
147
0.09
 71
0.0
 72
0.0
 73
0
 74
0
 75
0
 76
0
 77
1
 78
8
170
0
171
2
172
0
173
0
174
0
175
0
176
0
177
0
178
0
270
2
271
1
272
1
273
2
274
2
275
0
280
0
281
0
282
0
283
1
284
8
285
0
286
0
287
3
288
0
340
11
341
211
342
211
343
211
344
211
  0
DIMSTYLE
105
217
100
AcDbSymbolTableRecord
100
AcDbDimStyleTableRecord
  2
DIMSTYLE_2
 70
0
  3

  4

 40
1.0
 41
3.0
 42
0.0625
 43
0.38
 44
0.18
 45
0.0
 46
0.0
 47
0.0
 48
0.0
140
3.0
141
0.09
142
0.0
143
25.4
144
1.0
145
0.0
146
1.0
147
0.09
 71
0.0
 72
0.0
 73
0
 74
0
 75
0
 76
0
 77
1
 78
8
170
0
171
2
172
0
173
0
174
0
175
0
176
0
177
0
178
0
270
2
271
2
272
2
273
2
274
2
275
0
280
0
281
0
282
0
283
1
284
8
285
0
286
0
287
3
288
0
340
11
341
211
342
211
343
211
344
211
  0
ENDTAB
  0
ENDSEC
  0
SECTION
  2
BLOCKS
  0
BLOCK
  5
20
100
AcDbEntity
  8
0
100
AcDbBlockBegin
  2
*Model_Space
 70
0
 10
0.0
 20
0.0
 30
0.0
  3
*Model_Space
  1

  0
ENDBLK
  5
21
100
AcDbEntity
  8
0
100
AcDbBlockEnd
  0
BLOCK
  5
1C
100
AcDbEntity
  8
0
100
AcDbBlockBegin
  2
*Paper_Space
 70
0
 10
0.0
 20
0.0
 30
0.0
  3
*Paper_Space
  1

  0
ENDBLK
  5
1D
100
AcDbEntity
  8
0
100
AcDbBlockEnd
  0
BLOCK
  5
218
100
AcDbEntity
  8
0
100
AcDbBlockBegin
  2
_FILLED
 70
64
 10
0.0
 20
0.0
  3
_FILLED
  1

  0
SOLID
  5
219
100
AcDbEntity
  8
0
  6
BYBLOCK
 62
0
100
AcDbTrace
 10
0.0
 20
0.0
 11
-1.0
 21
0.3166666667
 12
-1.0
 22
-0.3166666667
 13
-1.0
 23
-0.3166666667
  0
ENDBLK
  5
21A
100
AcDbEntity
  8
0
  6
BYBLOCK
 62
0
100
AcDbBlockEnd
  0
BLOCK
  5
21B
100
AcDbEntity
  8
0
100
AcDbBlockBegin
 62
7
  6
CONTINUOUS
  2
*D0
 70
65
 10
0.0
 20
0.0
  3
*D0
  1

  0
MTEXT
  5
21C
100
AcDbEntity
  8
0
100
AcDbMText
 62
7
  6
CONTINUOUS
  7
STANDARD
 71
2
 72
1
 10
87.5326036446
 20
22.5725538169
 30
0.0
 11
0.0
 21
1.0
 31
0.0
 44
0.9
  1
44,4
 40
3.0
 41
8.7857142857
  0
LINE
  5
21D
100
AcDbEntity
  8
0
100
AcDbLine
 62
7
  6
CONTINUOUS
 10
82.9592710578
 20
44.7506707686
 11
92.7826036446
 21
44.7506707686
  0
LINE
  5
21E
100
AcDbEntity
  8
0
100
AcDbLine
 62
7
  6
CONTINUOUS
 10
82.9592710578
 20
0.3944368652
 11
92.7826036446
 21
0.3944368652
  0
LINE
  5
21F
100
AcDbEntity
  8
0
100
AcDbLine
 62
7
  6
CONTINUOUS
 10
91.2826036446
 20
44.7506707686
 11
91.2826036446
 21
22.5725538169
  0
LINE
  5
220
100
AcDbEntity
  8
0
100
AcDbLine
 62
7
  6
CONTINUOUS
 10
91.2826036446
 20
0.3944368652
 11
91.2826036446
 21
22.5725538169
  0
INSERT
  5
221
100
AcDbEntity
  8
0
100
AcDbBlockReference
 62
7
  6
CONTINUOUS
  2
_FILLED
 10
91.2826036446
 20
44.7506707686
 41
3.0
 42
3.0
 43
3.0
 50
90.0
  0
INSERT
  5
222
100
AcDbEntity
  8
0
100
AcDbBlockReference
 62
7
  6
CONTINUOUS
  2
_FILLED
 10
91.2826036446
 20
0.3944368652
 41
3.0
 42
3.0
 43
3.0
 50
270.0
  0
ENDBLK
  5
223
100
AcDbEntity
  8
0
  6
BYBLOCK
 62
0
100
AcDbBlockEnd
  0
BLOCK
  5
224
100
AcDbEntity
  8
0
100
AcDbBlockBegin
 62
7
  6
CONTINUOUS
  2
*D1
 70
65
 10
0.0
 20
0.0
  3
*D1
  1

  0
MTEXT
  5
225
100
AcDbEntity
  8
0
100
AcDbMText
 62
7
  6
CONTINUOUS
  7
STANDARD
 71
2
 72
1
 10
60.8826036446
 20
56.5006707686
 30
0.0
 11
1.0
 21
0.0
 31
0.0
 44
0.9
  1
44,8
 40
3.0
 41
8.7857142857
  0
LINE
  5
226
100
AcDbEntity
  8
0
100
AcDbLine
 62
7
  6
CONTINUOUS
 10
83.2826036446
 20
30.5725538169
 11
83.2826036446
 21
54.2506707686
  0
LINE
  5
227
100
AcDbEntity
  8
0
100
AcDbLine
 62
7
  6
CONTINUOUS
 10
38.4826036446
 20
27.6974115553
 11
38.4826036446
 21
54.2506707686
  0
LINE
  5
228
100
AcDbEntity
  8
0
100
AcDbLine
 62
7
  6
CONTINUOUS
 10
83.2826036446
 20
52.7506707686
 11
60.8826036446
 21
52.7506707686
  0
LINE
  5
229
100
AcDbEntity
  8
0
100
AcDbLine
 62
7
  6
CONTINUOUS
 10
38.4826036446
 20
52.7506707686
 11
60.8826036446
 21
52.7506707686
  0
INSERT
  5
22A
100
AcDbEntity
  8
0
100
AcDbBlockReference
 62
7
  6
CONTINUOUS
  2
_FILLED
 10
83.2826036446
 20
52.7506707686
 41
3.0
 42
3.0
 43
3.0
  0
INSERT
  5
22B
100
AcDbEntity
  8
0
100
AcDbBlockReference
 62
7
  6
CONTINUOUS
  2
_FILLED
 10
38.4826036446
 20
52.7506707686
 41
3.0
 42
3.0
 43
3.0
 50
180.0
  0
ENDBLK
  5
22C
100
AcDbEntity
  8
0
  6
BYBLOCK
 62
0
100
AcDbBlockEnd
  0
BLOCK
  5
22D
100
AcDbEntity
  8
0
100
AcDbBlockBegin
 62
7
  6
CONTINUOUS
  2
*D2
 70
65
 10
0.0
 20
0.0
  3
*D2
  1

  0
MTEXT
  5
22E
100
AcDbEntity
  8
0
100
AcDbMText
 62
7
  6
CONTINUOUS
  7
STANDARD
 71
1
 72
1
 10
21.8319317333
 20
56.5006707686
 30
0.0
 11
1.0
 21
0.0
 31
0.0
 44
0.9
  1
7
 40
3.0
 41
2.3571428571
  0
LINE
  5
22F
100
AcDbEntity
  8
0
100
AcDbLine
 62
7
  6
CONTINUOUS
 10
10.8151781677
 20
23.0725538169
 11
10.8151781677
 21
54.2506707686
  0
LINE
  5
230
100
AcDbEntity
  8
0
100
AcDbLine
 62
7
  6
CONTINUOUS
 10
17.8151781677
 20
18.4476960785
 11
17.8151781677
 21
54.2506707686
  0
LINE
  5
231
100
AcDbEntity
  8
0
100
AcDbLine
 62
7
  6
CONTINUOUS
 10
10.8151781677
 20
52.7506707686
 11
14.3151781677
 21
52.7506707686
  0
LINE
  5
232
100
AcDbEntity
  8
0
100
AcDbLine
 62
7
  6
CONTINUOUS
 10
17.8151781677
 20
52.7506707686
 11
14.3151781677
 21
52.7506707686
  0
LINE
  5
233
100
AcDbEntity
  8
0
100
AcDbLine
 62
7
  6
CONTINUOUS
 10
14.3151781677
 20
52.7506707686
 11
24.1890745904
 21
52.7506707686
  0
INSERT
  5
234
100
AcDbEntity
  8
0
100
AcDbBlockReference
 62
7
  6
CONTINUOUS
  2
_FILLED
 10
10.8151781677
 20
52.7506707686
 41
3.0
 42
3.0
 43
3.0
 50
180.0
  0
INSERT
  5
235
100
AcDbEntity
  8
0
100
AcDbBlockReference
 62
7
  6
CONTINUOUS
  2
_FILLED
 10
17.8151781677
 20
52.7506707686
 41
3.0
 42
3.0
 43
3.0
  0
ENDBLK
  5
236
100
AcDbEntity
  8
0
  6
BYBLOCK
 62
0
100
AcDbBlockEnd
  0
ENDSEC
  0
SECTION
  2
ENTITIES
  0
DIMENSION
  5
237
100
AcDbEntity
  8
0
100
AcDbDimension
 62
7
  6
CONTINUOUS
  2
*D0
 10
91.2826036446
 20
0.3944368652
 11
91.0009270297
 21
18.6453541875
 70
160
 71
2
 42
44.3562339034
  3
DIMSTYLE_1
100
AcDbAlignedDimension
 13
82.9592710578
 23
44.7506707686
 14
82.9592710578
 24
0.3944368652
 50
270.0
100
AcDbRotatedDimension
  0
DIMENSION
  5
238
100
AcDbEntity
  8
0
100
AcDbDimension
 62
7
  6
CONTINUOUS
  2
*D1
 10
38.4826036446
 20
52.7506707686
 11
56.4897465017
 21
55.0006707686
 70
160
 71
2
 42
44.8
  3
DIMSTYLE_2
100
AcDbAlignedDimension
 13
83.2826036446
 23
30.5725538169
 14
38.4826036446
 24
27.6974115553
 50
180.0
100
AcDbRotatedDimension
  0
DIMENSION
  5
239
100
AcDbEntity
  8
0
100
AcDbDimension
 62
7
  6
CONTINUOUS
  2
*D2
 10
17.8151781677
 20
52.7506707686
 11
23.0105031619
 21
55.0006707686
 70
160
 71
1
 42
7.0
  3
DIMSTYLE_2
100
AcDbAlignedDimension
 13
10.8151781677
 23
23.0725538169
 14
17.8151781677
 24
18.4476960785
100
AcDbRotatedDimension
  0
LINE
  5
23A
100
AcDbEntity
  8
RACCORDO
100
AcDbLine
 62
7
  6
CONTINUOUS
 10
38.5452118919
 20
26.1454078778
 11
38.4898156569
 21
26.7050076788
  0
LINE
  5
23B
100
AcDbEntity
  8
DRAFT
100
AcDbLine
 62
7
  6
CONTINUOUS
 10
38.4826036446
 20
15.0725538169
 11
38.5065451909
 21
2.0225538169
  0
LINE
  5
23C
100
AcDbEntity
  8
RACCORDO
100
AcDbLine
 62
7
  6
CONTINUOUS
 10
38.4826036446
 20
15.0725538169
 11
38.4826036446
 21
17.9476960785
  0
LINE
  5
23D
100
AcDbEntity
  8
RACCORDO
100
AcDbLine
 62
7
  6
CONTINUOUS
 10
38.4826036446
 20
27.1974115553
 11
38.4826036446
 21
30.0725538169
  0
LINE
  5
23E
100
AcDbEntity
  8
RACCORDO
100
AcDbLine
 62
7
  6
CONTINUOUS
 10
38.5065451909
 20
43.9503046053
 11
38.5065451909
 21
43.1225538169
  0
LINE
  5
23F
100
AcDbEntity
  8
RACCORDO
100
AcDbLine
 62
7
  6
CONTINUOUS
 10
38.5065451909
 20
2.0225538169
 11
38.5065451909
 21
1.1948030285
  0
LINE
  5
240
100
AcDbEntity
  8
RACCORDO
100
AcDbLine
 62
7
  6
CONTINUOUS
 10
38.5524239043
 20
25.6530040013
 11
38.5524239043
 21
19.4921036325
  0
LINE
  5
241
100
AcDbEntity
  8
DRAFT
100
AcDbLine
 62
7
  6
CONTINUOUS
 10
38.5065451909
 20
43.1225538169
 11
38.4826036446
 21
30.0725538169
  0
LINE
  5
242
100
AcDbEntity
  8
RACCORDO
100
AcDbLine
 62
7
  6
CONTINUOUS
 10
38.5452118919
 20
18.999699756
 11
38.4898156569
 21
18.440099955
  0
LINE
  5
243
100
AcDbEntity
  8
RACCORDO
100
AcDbLine
 62
7
  6
CONTINUOUS
 10
82.4592710578
 20
0.3944368652
 11
61.7559362313
 21
0.3944368652
  0
LINE
  5
244
100
AcDbEntity
  8
RACCORDO
100
AcDbLine
 62
7
  6
CONTINUOUS
 10
39.3059362313
 20
0.3944368652
 11
60.0092710578
 21
0.3944368652
  0
LINE
  5
245
100
AcDbEntity
  8
RACCORDO
100
AcDbLine
 62
253
  6
CONTINUOUS
 10
59.9431870342
 20
0.5928501589
 11
39.3720202549
 21
0.5928501589
  0
LINE
  5
246
100
AcDbEntity
  8
RACCORDO
100
AcDbLine
 62
253
  6
CONTINUOUS
 10
61.8220202549
 20
0.5928501589
 11
82.3931870342
 21
0.5928501589
  0
LINE
  5
247
100
AcDbEntity
  8
RACCORDO
100
AcDbLine
 62
253
  6
CONTINUOUS
 10
59.9316182756
 20
2.0291642925
 11
39.3835890136
 21
2.0291642925
  0
LINE
  5
248
100
AcDbEntity
  8
RACCORDO
100
AcDbLine
 62
253
  6
CONTINUOUS
 10
61.8335890136
 20
2.0291642925
 11
82.3816182756
 21
2.0291642925
  0
LINE
  5
249
100
AcDbEntity
  8
RACCORDO
100
AcDbLine
 62
253
  6
CONTINUOUS
 10
38.5065451909
 20
1.1948030285
 11
38.5721420988
 21
1.3917537867
  0
LINE
  5
24A
100
AcDbEntity
  8
RACCORDO
100
AcDbLine
 62
253
  6
CONTINUOUS
 10
38.5721420988
 20
43.7533538471
 11
38.5065451909
 21
43.9503046053
  0
LINE
  5
24B
100
AcDbEntity
  8
RACCORDO
100
AcDbLine
 62
253
  6
CONTINUOUS
 10
39.3059362313
 20
0.3944368652
 11
39.3720202549
 21
0.5928501589
  0
LINE
  5
24C
100
AcDbEntity
  8
DRAFT
100
AcDbLine
 62
7
  6
CONTINUOUS
 10
60.8098055129
 20
42.4993041508
 11
60.7522497461
 21
42.4417483841
  0
LINE
  5
24D
100
AcDbEntity
  8
DRAFT
100
AcDbLine
 62
7
  6
CONTINUOUS
 10
60.8096711289
 20
2.5725538169
 11
60.7523010236
 21
2.6299239223
  0
LINE
  5
24E
100
AcDbEntity
  8
RACCORDO
100
AcDbLine
 62
253
  6
CONTINUOUS
 10
39.3720202549
 20
44.5522574749
 11
39.3059362313
 21
44.7506707686
  0
LINE
  5
24F
100
AcDbEntity
  8
RACCORDO
100
AcDbLine
 62
253
  6
CONTINUOUS
 10
60.0092710578
 20
44.7506707686
 11
59.9431870342
 21
44.5522574749
  0
LINE
  5
250
100
AcDbEntity
  8
RACCORDO
100
AcDbLine
 62
253
  6
CONTINUOUS
 10
60.8086620982
 20
43.9503046053
 11
60.7430651903
 21
43.7533538471
  0
LINE
  5
251
100
AcDbEntity
  8
RACCORDO
100
AcDbLine
 62
253
  6
CONTINUOUS
 10
59.9431870342
 20
0.5928501589
 11
60.0092710578
 21
0.3944368652
  0
LINE
  5
252
100
AcDbEntity
  8
RACCORDO
100
AcDbLine
 62
253
  6
CONTINUOUS
 10
60.7430651903
 20
1.3917537867
 11
60.8086620982
 21
1.1948030285
  0
LINE
  5
253
100
AcDbEntity
  8
DRAFT
100
AcDbLine
 62
7
  6
CONTINUOUS
 10
60.8098055129
 20
42.4993041508
 11
60.8086620982
 21
43.1225538169
  0
LINE
  5
254
100
AcDbEntity
  8
DRAFT
100
AcDbLine
 62
7
  6
CONTINUOUS
 10
60.9554017763
 20
2.645803483
 11
60.9565451909
 21
2.0225538169
  0
LINE
  5
255
100
AcDbEntity
  8
RACCORDO
100
AcDbLine
 62
7
  6
CONTINUOUS
 10
60.8086620982
 20
43.9503046053
 11
60.8086620982
 21
43.1225538169
  0
LINE
  5
256
100
AcDbEntity
  8
RACCORDO
100
AcDbLine
 62
7
  6
CONTINUOUS
 10
60.8086620982
 20
2.0225538169
 11
60.8086620982
 21
1.1948030285
  0
LINE
  5
257
100
AcDbEntity
  8
RACCORDO
100
AcDbLine
 62
7
  6
CONTINUOUS
 10
60.9565451909
 20
1.1948030285
 11
60.9565451909
 21
2.0225538169
  0
LINE
  5
258
100
AcDbEntity
  8
RACCORDO
100
AcDbLine
 62
7
  6
CONTINUOUS
 10
60.9565451909
 20
43.1225538169
 11
60.9565451909
 21
43.9503046053
  0
LINE
  5
259
100
AcDbEntity
  8
DRAFT
100
AcDbLine
 62
7
  6
CONTINUOUS
 10
60.8096711289
 20
2.5725538169
 11
60.8086620982
 21
2.0225538169
  0
LINE
  5
25A
100
AcDbEntity
  8
DRAFT
100
AcDbLine
 62
7
  6
CONTINUOUS
 10
60.9555361602
 20
42.5725538169
 11
60.9565451909
 21
43.1225538169
  0
LINE
  5
25B
100
AcDbEntity
  8
RACCORDO
100
AcDbLine
 62
253
  6
CONTINUOUS
 10
60.9565451909
 20
1.1948030285
 11
61.0221420988
 21
1.3917537867
  0
LINE
  5
25C
100
AcDbEntity
  8
RACCORDO
100
AcDbLine
 62
253
  6
CONTINUOUS
 10
61.7559362313
 20
0.3944368652
 11
61.8220202549
 21
0.5928501589
  0
LINE
  5
25D
100
AcDbEntity
  8
RACCORDO
100
AcDbLine
 62
253
  6
CONTINUOUS
 10
61.0221420988
 20
43.7533538471
 11
60.9565451909
 21
43.9503046053
  0
LINE
  5
25E
100
AcDbEntity
  8
RACCORDO
100
AcDbLine
 62
253
  6
CONTINUOUS
 10
61.8220202549
 20
44.5522574749
 11
61.7559362313
 21
44.7506707686
  0
LINE
  5
25F
100
AcDbEntity
  8
RACCORDO
100
AcDbLine
 62
253
  6
CONTINUOUS
 10
82.4592710578
 20
44.7506707686
 11
82.3931870342
 21
44.5522574749
  0
LINE
  5
260
100
AcDbEntity
  8
RACCORDO
100
AcDbLine
 62
253
  6
CONTINUOUS
 10
83.2586620982
 20
43.9503046053
 11
83.1930651903
 21
43.7533538471
  0
LINE
  5
261
100
AcDbEntity
  8
DRAFT
100
AcDbLine
 62
7
  6
CONTINUOUS
 10
60.9554017763
 20
2.645803483
 11
61.012957543
 21
2.7033592498
  0
LINE
  5
262
100
AcDbEntity
  8
DRAFT
100
AcDbLine
 62
7
  6
CONTINUOUS
 10
60.9555361602
 20
42.5725538169
 11
61.0129062656
 21
42.5151837116
  0
LINE
  5
263
100
AcDbEntity
  8
RACCORDO
100
AcDbLine
 62
253
  6
CONTINUOUS
 10
82.3931870342
 20
0.5928501589
 11
82.4592710578
 21
0.3944368652
  0
LINE
  5
264
100
AcDbEntity
  8
RACCORDO
100
AcDbLine
 62
253
  6
CONTINUOUS
 10
83.1930651903
 20
1.3917537867
 11
83.2586620982
 21
1.1948030285
  0
LINE
  5
265
100
AcDbEntity
  8
RACCORDO
100
AcDbLine
 62
253
  6
CONTINUOUS
 10
59.9316182756
 20
43.1159433414
 11
39.3835890136
 21
43.1159433414
  0
LINE
  5
266
100
AcDbEntity
  8
RACCORDO
100
AcDbLine
 62
253
  6
CONTINUOUS
 10
61.8335890136
 20
43.1159433414
 11
82.3816182756
 21
43.1159433414
  0
LINE
  5
267
100
AcDbEntity
  8
RACCORDO
100
AcDbLine
 62
7
  6
CONTINUOUS
 10
83.2199953972
 20
18.999699756
 11
83.2753916322
 21
18.440099955
  0
LINE
  5
268
100
AcDbEntity
  8
DRAFT
100
AcDbLine
 62
7
  6
CONTINUOUS
 10
83.2826036446
 20
30.0725538169
 11
83.2586620982
 21
43.1225538169
  0
LINE
  5
269
100
AcDbEntity
  8
RACCORDO
100
AcDbLine
 62
7
  6
CONTINUOUS
 10
83.2127833849
 20
19.4921036325
 11
83.2127833849
 21
25.6530040013
  0
LINE
  5
26A
100
AcDbEntity
  8
RACCORDO
100
AcDbLine
 62
7
  6
CONTINUOUS
 10
83.2586620982
 20
1.1948030285
 11
83.2586620982
 21
2.0225538169
  0
LINE
  5
26B
100
AcDbEntity
  8
RACCORDO
100
AcDbLine
 62
7
  6
CONTINUOUS
 10
83.2586620982
 20
43.1225538169
 11
83.2586620982
 21
43.9503046053
  0
LINE
  5
26C
100
AcDbEntity
  8
RACCORDO
100
AcDbLine
 62
7
  6
CONTINUOUS
 10
83.2826036446
 20
30.0725538169
 11
83.2826036446
 21
27.1974115553
  0
LINE
  5
26D
100
AcDbEntity
  8
RACCORDO
100
AcDbLine
 62
7
  6
CONTINUOUS
 10
83.2826036446
 20
17.9476960785
 11
83.2826036446
 21
15.0725538169
  0
LINE
  5
26E
100
AcDbEntity
  8
DRAFT
100
AcDbLine
 62
7
  6
CONTINUOUS
 10
83.2586620982
 20
2.0225538169
 11
83.2826036446
 21
15.0725538169
  0
LINE
  5
26F
100
AcDbEntity
  8
RACCORDO
100
AcDbLine
 62
7
  6
CONTINUOUS
 10
83.2199953972
 20
26.1454078778
 11
83.2753916322
 21
26.7050076788
  0
LINE
  5
270
100
AcDbEntity
  8
RACCORDO
100
AcDbLine
 62
253
  6
CONTINUOUS
 10
59.9431870342
 20
44.5522574749
 11
39.3720202549
 21
44.5522574749
  0
LINE
  5
271
100
AcDbEntity
  8
RACCORDO
100
AcDbLine
 62
253
  6
CONTINUOUS
 10
61.8220202549
 20
44.5522574749
 11
82.3931870342
 21
44.5522574749
  0
LINE
  5
272
100
AcDbEntity
  8
RACCORDO
100
AcDbLine
 62
7
  6
CONTINUOUS
 10
82.4592710578
 20
44.7506707686
 11
61.7559362313
 21
44.7506707686
  0
LINE
  5
273
100
AcDbEntity
  8
RACCORDO
100
AcDbLine
 62
7
  6
CONTINUOUS
 10
39.3059362313
 20
44.7506707686
 11
60.0092710578
 21
44.7506707686
  0
LINE
  5
274
100
AcDbEntity
  8
RACCORDO
100
AcDbLine
 62
7
  6
CONTINUOUS
 10
12.6576167197
 20
0.5928501589
 11
16.4435678975
 21
0.3944368652
  0
LINE
  5
275
100
AcDbEntity
  8
RACCORDO
100
AcDbLine
 62
253
  6
CONTINUOUS
 10
12.6855235596
 20
1.3917537867
 11
16.4435678975
 21
1.1948030285
  0
LINE
  5
276
100
AcDbEntity
  8
RACCORDO
100
AcDbLine
 62
253
  6
CONTINUOUS
 10
12.0227498217
 20
2.0620337157
 11
11.237387294
 21
2.029164293
  0
LINE
  5
277
100
AcDbEntity
  8
RACCORDO
100
AcDbLine
 62
7
  6
CONTINUOUS
 10
14.2283540789
 20
18.999699756
 11
17.4020022566
 21
18.440099955
  0
LINE
  5
278
100
AcDbEntity
  8
RACCORDO
100
AcDbLine
 62
7
  6
CONTINUOUS
 10
15.7155587675
 20
20.0725538169
 11
13.8151781677
 21
20.0725538169
  0
LINE
  5
279
100
AcDbEntity
  8
RACCORDO
100
AcDbLine
 62
7
  6
CONTINUOUS
 10
13.8151781677
 20
19.4921036325
 11
13.8151781677
 21
25.6530040013
  0
LINE
  5
27A
100
AcDbEntity
  8
RACCORDO
100
AcDbLine
 62
7
  6
CONTINUOUS
 10
15.9152238592
 20
21.5225538169
 11
15.5934111661
 21
21.5225538169
  0
LINE
  5
27B
100
AcDbEntity
  8
RACCORDO
100
AcDbLine
 62
7
  6
CONTINUOUS
 10
15.9152238592
 20
23.6225538169
 11
15.5934111661
 21
23.6225538169
  0
LINE
  5
27C
100
AcDbEntity
  8
RACCORDO
100
AcDbLine
 62
7
  6
CONTINUOUS
 10
16.2151781677
 20
20.572782669
 11
16.2151781677
 21
21.2225995084
  0
LINE
  5
27D
100
AcDbEntity
  8
RACCORDO
100
AcDbLine
 62
7
  6
CONTINUOUS
 10
16.2151781677
 20
23.9225081255
 11
16.2151781677
 21
24.5723249649
  0
LINE
  5
27E
100
AcDbEntity
  8
RACCORDO
100
AcDbLine
 62
7
  6
CONTINUOUS
 10
16.4435678975
 20
0.3944368652
 11
16.4435678975
 21
2.0225538169
  0
LINE
  5
27F
100
AcDbEntity
  8
RACCORDO
100
AcDbLine
 62
7
  6
CONTINUOUS
 10
16.4435678975
 20
43.1225538169
 11
16.4435678975
 21
44.7506707686
  0
LINE
  5
280
100
AcDbEntity
  8
RACCORDO
100
AcDbLine
 62
7
  6
CONTINUOUS
 10
15.7155587675
 20
25.0725538169
 11
13.8151781677
 21
25.0725538169
  0
LINE
  5
281
100
AcDbEntity
  8
DRAFT
100
AcDbLine
 62
7
  6
CONTINUOUS
 10
17.8151781677
 20
30.0725538169
 11
16.4435678975
 21
43.1225538169
  0
LINE
  5
282
100
AcDbEntity
  8
RACCORDO
100
AcDbLine
 62
7
  6
CONTINUOUS
 10
17.8151781677
 20
30.0725538169
 11
17.8151781677
 21
27.1974115553
  0
LINE
  5
283
100
AcDbEntity
  8
RACCORDO
100
AcDbLine
 62
7
  6
CONTINUOUS
 10
17.8151781677
 20
17.9476960785
 11
17.8151781677
 21
15.0725538169
  0
LINE
  5
284
100
AcDbEntity
  8
DRAFT
100
AcDbLine
 62
7
  6
CONTINUOUS
 10
16.4435678975
 20
2.0225538169
 11
17.8151781677
 21
15.0725538169
  0
LINE
  5
285
100
AcDbEntity
  8
RACCORDO
100
AcDbLine
 62
7
  6
CONTINUOUS
 10
14.2283540789
 20
26.1454078778
 11
17.4020022566
 21
26.7050076788
  0
LINE
  5
286
100
AcDbEntity
  8
RACCORDO
100
AcDbLine
 62
253
  6
CONTINUOUS
 10
16.4435678975
 20
43.9503046053
 11
12.6855235596
 21
43.7533538471
  0
LINE
  5
287
100
AcDbEntity
  8
RACCORDO
100
AcDbLine
 62
7
  6
CONTINUOUS
 10
16.4435678975
 20
44.7506707686
 11
12.6576167197
 21
44.5522574749
  0
LINE
  5
288
100
AcDbEntity
  8
RACCORDO
100
AcDbLine
 62
253
  6
CONTINUOUS
 10
12.0227498217
 20
43.0830739181
 11
11.2373872815
 21
43.1159433414
  0
ARC
  5
289
100
AcDbEntity
  8
RACCORDO
100
AcDbCircle
 62
7
  6
CONTINUOUS
 10
510.8151781677
 20
22.5725538169
 40
500.0
100
AcDbArc
 50
177.6452381281
 51
182.3547618719
  0
ARC
  5
28A
100
AcDbEntity
  8
RACCORDO
100
AcDbCircle
 62
253
  6
CONTINUOUS
 10
510.8012162427
 20
22.5725538169
 40
499.2000000001
100
AcDbArc
 50
177.6452381281
 51
182.3547618719
  0
ARC
  5
28B
100
AcDbEntity
  8
RACCORDO
100
AcDbCircle
 62
7
  6
CONTINUOUS
 10
12.7361206541
 20
43.0543131728
 40
1.5
100
AcDbArc
 50
93.0
 51
177.6452381281
  0
ARC
  5
28C
100
AcDbEntity
  8
RACCORDO
100
AcDbCircle
 62
7
  6
CONTINUOUS
 10
12.7361206541
 20
2.0907944611
 40
1.5
100
AcDbArc
 50
182.3547618719
 51
267.0
  0
ARC
  5
28D
100
AcDbEntity
  8
DRAFT
100
AcDbCircle
 62
7
  6
CONTINUOUS
 10
14.9151781677
 20
22.5725538169
 40
1.25
100
AcDbArc
 50
208.3493892876
 51
302.8598803789
  0
ARC
  5
28E
100
AcDbEntity
  8
DRAFT
100
AcDbCircle
 62
7
  6
CONTINUOUS
 10
14.9151781677
 20
22.5725538169
 40
1.25
100
AcDbArc
 50
57.1401196211
 51
151.6506107124
  0
ARC
  5
28F
100
AcDbEntity
  8
RACCORDO
100
AcDbCircle
 62
253
  6
CONTINUOUS
 10
12.7221587295
 20
43.0543131723
 40
0.7000000005
100
AcDbArc
 50
93.0000000396
 51
177.6452380884
  0
ARC
  5
290
100
AcDbEntity
  8
RACCORDO
100
AcDbCircle
 62
253
  6
CONTINUOUS
 10
12.7221587295
 20
2.0907944616
 40
0.7000000005
100
AcDbArc
 50
182.3547619117
 51
266.9999999603
  0
ARC
  5
291
100
AcDbEntity
  8
RACCORDO
100
AcDbCircle
 62
7
  6
CONTINUOUS
 10
14.3151781677
 20
25.6530040013
 40
0.5
100
AcDbArc
 50
100.0
 51
180.0
  0
ARC
  5
292
100
AcDbEntity
  8
RACCORDO
100
AcDbCircle
 62
7
  6
CONTINUOUS
 10
14.3151781677
 20
19.4921036325
 40
0.5
100
AcDbArc
 50
180.0
 51
260.0
  0
ARC
  5
293
100
AcDbEntity
  8
RACCORDO
100
AcDbCircle
 62
7
  6
CONTINUOUS
 10
17.3151781677
 20
17.9476960785
 40
0.5
100
AcDbArc
 50
0.0
 51
80.0
  0
ARC
  5
294
100
AcDbEntity
  8
RACCORDO
100
AcDbCircle
 62
7
  6
CONTINUOUS
 10
17.3151781677
 20
27.1974115553
 40
0.5
100
AcDbArc
 50
280.0
 51
360.0
  0
SPLINE
  5
295
100
AcDbEntity
  8
RACCORDO
100
AcDbSpline
 62
253
  6
CONTINUOUS
 70
0
 71
3
 72
25
 73
21
 74
19
 42
0.0000001
 43
0.0000001
 44
0.0000000001
 12
-0.3133119132
 22
0.7383405445
 32
0.0
 13
-0.802066571
 23
0.0005747343
 33
0.0
 40
0.0
 40
0.0
 40
0.0
 40
0.0
 40
0.0062949894
 40
0.0193678562
 40
0.0395493178
 40
0.066784903
 40
0.100908467
 40
0.1416841228
 40
0.1888188372
 40
0.2419685086
 40
0.3007422145
 40
0.3647059501
 40
0.4333863078
 40
0.5062742622
 40
0.5828291199
 40
0.6624826501
 40
0.7446433856
 40
0.8287010766
 40
0.9140312725
 40
1.0
 40
1.0
 40
1.0
 40
1.0
 10
60.7314964317
 20
43.0830739181
 30
0.0
 10
60.730839
 20
43.0846232001
 30
0.0
 10
60.7252917725
 20
43.0867399191
 30
0.0
 10
60.7155956808
 20
43.0892881905
 30
0.0
 10
60.6993284046
 20
43.0918862325
 30
0.0
 10
60.6778069336
 20
43.0945042197
 30
0.0
 10
60.6505718625
 20
43.0970633052
 30
0.0
 10
60.6180548341
 20
43.0995411374
 30
0.0
 10
60.5804096898
 20
43.1019081087
 30
0.0
 10
60.5379446148
 20
43.104143982
 30
0.0
 10
60.4909654846
 20
43.106229301
 30
0.0
 10
60.4398246405
 20
43.1081471899
 30
0.0
 10
60.3849015723
 20
43.109882343
 30
0.0
 10
60.3266052108
 20
43.1114211847
 30
0.0
 10
60.2653692706
 20
43.1127517857
 30
0.0
 10
60.2016494779
 20
43.1138639094
 30
0.0
 10
60.1359200305
 20
43.114749041
 30
0.0
 10
60.0686700987
 20
43.1154004276
 30
0.0
 10
60.0004001871
 20
43.1158131127
 30
0.0
 10
59.9546024897
 20
43.1159268716
 30
0.0
 10
59.9316182756
 20
43.1159433414
 30
0.0
 11
60.7314964317
 21
43.0830739181
 31
0.0
 11
60.7273174494
 21
43.0859073836
 31
0.0
 11
60.7172163452
 21
43.0887197605
 31
0.0
 11
60.7012682982
 21
43.0914901174
 31
0.0
 11
60.6795920043
 21
43.0941978353
 31
0.0
 11
60.652348793
 21
43.0968227616
 31
0.0
 11
60.6197414263
 21
43.0993453599
 31
0.0
 11
60.58201259
 21
43.1017468553
 31
0.0
 11
60.539443087
 21
43.1040093742
 31
0.0
 11
60.4923497479
 21
43.1061160777
 31
0.0
 11
60.4410830727
 21
43.108051286
 31
0.0
 11
60.3860246219
 21
43.1098005962
 31
0.0
 11
60.3275841772
 21
43.1113509887
 31
0.0
 11
60.2661966912
 21
43.1126909245
 31
0.0
 11
60.2023190503
 21
43.1138104308
 31
0.0
 11
60.1364266744
 21
43.1147011755
 31
0.0
 11
60.0690099783
 21
43.1153565292
 31
0.0
 11
60.0005707219
 21
43.1157716143
 31
0.0
 11
59.9316182756
 21
43.1159433414
 31
0.0
  0
SPLINE
  5
296
100
AcDbEntity
  8
RACCORDO
100
AcDbSpline
 62
253
  6
CONTINUOUS
 70
0
 71
3
 72
18
 73
14
 74
12
 42
0.0000001
 43
0.0000001
 44
0.0000000001
 12
-0.0294440137
 22
-41.0867719839
 32
0.0
 13
0.0294440137
 23
-41.0867719839
 33
0.0
 40
0.0
 40
0.0
 40
0.0
 40
0.0
 40
0.0908710314
 40
0.1817648976
 40
0.2726765253
 40
0.3636008402
 40
0.4545327675
 40
0.5454672325
 40
0.6363991598
 40
0.7273234747
 40
0.8182351024
 40
0.9091289686
 40
1.0
 40
1.0
 40
1.0
 40
1.0
 10
59.9316182756
 20
43.1159433414
 30
0.0
 10
59.9307264063
 20
41.871410892
 30
0.0
 10
59.9291048256
 20
39.3820331391
 30
0.0
 10
59.9271590467
 20
35.6475666042
 30
0.0
 10
59.9256996175
 20
31.912370098
 30
0.0
 10
59.9247266194
 20
28.1766521621
 30
0.0
 10
59.9242401068
 20
24.4406213618
 30
0.0
 10
59.9242401068
 20
20.7044862721
 30
0.0
 10
59.9247266194
 20
16.9684554718
 30
0.0
 10
59.9256996175
 20
13.2327375359
 30
0.0
 10
59.9271590467
 20
9.4975410297
 30
0.0
 10
59.9291048256
 20
5.7630744948
 30
0.0
 10
59.9307264063
 20
3.2736967419
 30
0.0
 10
59.9316182756
 20
2.0291642925
 30
0.0
 11
59.9316182756
 21
43.1159433414
 31
0.0
 11
59.9291861423
 21
39.3823458266
 31
0.0
 11
59.9272402728
 21
35.6478098224
 31
0.0
 11
59.9257807757
 21
31.9125438303
 31
0.0
 11
59.9248077324
 21
28.1767564038
 31
0.0
 11
59.9243211971
 21
24.4406561096
 31
0.0
 11
59.9243211971
 21
20.7044515243
 31
0.0
 11
59.9248077324
 21
16.9683512301
 31
0.0
 11
59.9257807757
 21
13.2325638036
 31
0.0
 11
59.9272402728
 21
9.4972978115
 31
0.0
 11
59.9291861423
 21
5.7627618072
 31
0.0
 11
59.9316182756
 21
2.0291642925
 31
0.0
  0
SPLINE
  5
297
100
AcDbEntity
  8
RACCORDO
100
AcDbSpline
 62
253
  6
CONTINUOUS
 70
0
 71
3
 72
18
 73
14
 74
12
 42
0.0000001
 43
0.0000001
 44
0.0000000001
 12
-0.0294440137
 22
-41.0210331261
 32
0.0
 13
0.0294440137
 23
-41.0210331261
 33
0.0
 40
0.0
 40
0.0
 40
0.0
 40
0.0
 40
0.0908710281
 40
0.1817648952
 40
0.2726765238
 40
0.3636008397
 40
0.454532768
 40
0.5454672338
 40
0.6363991622
 40
0.727323478
 40
0.8182351067
 40
0.9091289738
 40
1.0
 40
1.0
 40
1.0
 40
1.0
 10
60.7314964317
 20
43.0830739181
 30
0.0
 10
60.7306045624
 20
41.8405327674
 30
0.0
 10
60.7289829818
 20
39.3551380526
 30
0.0
 10
60.7270372029
 20
35.6266466844
 30
0.0
 10
60.7255777736
 20
31.8974264532
 30
0.0
 10
60.7246047755
 20
28.1676856265
 30
0.0
 10
60.7241182629
 20
24.4376324358
 30
0.0
 10
60.7241182629
 20
20.7074751228
 30
0.0
 10
60.7246047755
 20
16.9774219323
 30
0.0
 10
60.7255777736
 20
13.2476811056
 30
0.0
 10
60.7270372029
 20
9.5184608745
 30
0.0
 10
60.7289829818
 20
5.7899695312
 30
0.0
 10
60.7306045624
 20
3.3045748415
 30
0.0
 10
60.7314964317
 20
2.0620337157
 30
0.0
 11
60.7314964317
 21
43.0830739181
 31
0.0
 11
60.7290642985
 21
39.3554502991
 31
0.0
 11
60.727118429
 21
35.6268895131
 31
0.0
 11
60.7256589319
 21
31.8975999073
 31
0.0
 11
60.7246858885
 21
28.1677897013
 31
0.0
 11
60.7241993532
 21
24.437667128
 31
0.0
 11
60.7241993532
 21
20.7074404306
 31
0.0
 11
60.7246858885
 21
16.9773178575
 31
0.0
 11
60.7256589319
 21
13.2475076515
 31
0.0
 11
60.7271184291
 21
9.5182180457
 31
0.0
 11
60.7290642986
 21
5.7896572598
 31
0.0
 11
60.7314964317
 21
2.0620337157
 31
0.0
  0
SPLINE
  5
298
100
AcDbEntity
  8
RACCORDO
100
AcDbSpline
 62
253
  6
CONTINUOUS
 70
0
 71
3
 72
25
 73
21
 74
19
 42
0.0000001
 43
0.0000001
 44
0.0000000001
 12
-0.3133122225
 22
-0.7383404128
 32
0.0
 13
-0.8020665706
 23
-0.0005747341
 33
0.0
 40
0.0
 40
0.0
 40
0.0
 40
0.0
 40
0.0062949907
 40
0.0193678589
 40
0.0395493217
 40
0.0667849078
 40
0.1009084727
 40
0.141684129
 40
0.1888188437
 40
0.2419685153
 40
0.3007422212
 40
0.3647059565
 40
0.4333863139
 40
0.5062742676
 40
0.5828291247
 40
0.6624826541
 40
0.7446433886
 40
0.8287010787
 40
0.9140312735
 40
1.0
 40
1.0
 40
1.0
 40
1.0
 10
60.7314964317
 20
2.0620337157
 30
0.0
 10
60.7308389992
 20
2.0604844337
 30
0.0
 10
60.7252917714
 20
2.0583677151
 30
0.0
 10
60.7155956782
 20
2.0558194434
 30
0.0
 10
60.6993284013
 20
2.0532214016
 30
0.0
 10
60.6778069294
 20
2.0506034144
 30
0.0
 10
60.6505718578
 20
2.0480443289
 30
0.0
 10
60.6180548288
 20
2.0455664968
 30
0.0
 10
60.5804096843
 20
2.0431995255
 30
0.0
 10
60.5379446092
 20
2.0409636524
 30
0.0
 10
60.4909654791
 20
2.0388783334
 30
0.0
 10
60.4398246352
 20
2.0369604446
 30
0.0
 10
60.3849015673
 20
2.0352252915
 30
0.0
 10
60.3266052062
 20
2.0336864499
 30
0.0
 10
60.2653692667
 20
2.0323558489
 30
0.0
 10
60.2016494746
 20
2.0312437252
 30
0.0
 10
60.1359200279
 20
2.0303585937
 30
0.0
 10
60.068670097
 20
2.0297072071
 30
0.0
 10
60.0004001862
 20
2.029294522
 30
0.0
 10
59.9546024894
 20
2.0291807631
 30
0.0
 10
59.9316182756
 20
2.0291642934
 30
0.0
 11
60.7314964317
 21
2.0620337157
 31
0.0
 11
60.7273174481
 21
2.0592002503
 31
0.0
 11
60.7172163427
 21
2.0563878734
 31
0.0
 11
60.7012682947
 21
2.0536175166
 31
0.0
 11
60.6795920001
 21
2.0509097988
 31
0.0
 11
60.6523487882
 21
2.0482848725
 31
0.0
 11
60.619741421
 21
2.0457622743
 31
0.0
 11
60.5820125844
 21
2.043360779
 31
0.0
 11
60.5394430813
 21
2.0410982601
 31
0.0
 11
60.4923497423
 21
2.0389915567
 31
0.0
 11
60.4410830673
 21
2.0370563484
 31
0.0
 11
60.3860246169
 21
2.0353070383
 31
0.0
 11
60.3275841727
 21
2.0337566458
 31
0.0
 11
60.2661966872
 21
2.0324167101
 31
0.0
 11
60.202319047
 21
2.0312972039
 31
0.0
 11
60.1364266719
 21
2.0304064591
 31
0.0
 11
60.0690099766
 21
2.0297511055
 31
0.0
 11
60.000570721
 21
2.0293360205
 31
0.0
 11
59.9316182756
 21
2.0291642934
 31
0.0
  0
SPLINE
  5
299
100
AcDbEntity
  8
RACCORDO
100
AcDbSpline
 62
253
  6
CONTINUOUS
 70
0
 71
3
 72
28
 73
24
 74
22
 42
0.0000001
 43
0.0000001
 44
0.0000000001
 12
0.0004811545
 22
-1.4364424453
 32
0.0
 13
0.2205490796
 23
-1.419410171
 33
0.0
 40
0.0
 40
0.0
 40
0.0
 40
0.0
 40
0.0732322839
 40
0.1458895409
 40
0.2176134279
 40
0.2880486582
 40
0.3568468711
 40
0.4236680263
 40
0.4881813806
 40
0.5500678649
 40
0.6090213052
 40
0.6647502355
 40
0.7169788697
 40
0.7654489543
 40
0.809920651
 40
0.8501741407
 40
0.886010347
 40
0.9172521697
 40
0.9437452442
 40
0.9653591131
 40
0.981987805
 40
0.9935512334
 40
1.0
 40
1.0
 40
1.0
 40
1.0
 10
59.9316182756
 20
2.0291642925
 30
0.0
 10
59.9316300209
 20
1.9940996389
 30
0.0
 10
59.9316733993
 20
1.9242456675
 30
0.0
 10
59.9317984194
 20
1.8200493429
 30
0.0
 10
59.9319826401
 20
1.7171923765
 30
0.0
 10
59.9322251124
 20
1.616183301
 30
0.0
 10
59.9325246323
 20
1.5175218861
 30
0.0
 10
59.932879681
 20
1.4216961518
 30
0.0
 10
59.9332884694
 20
1.3291800957
 30
0.0
 10
59.9337489234
 20
1.2404315033
 30
0.0
 10
59.9342586992
 20
1.1558893585
 30
0.0
 10
59.9348151878
 20
1.0759719281
 30
0.0
 10
59.9354155082
 20
1.0010745415
 30
0.0
 10
59.9360565437
 20
0.9315678282
 30
0.0
 10
59.9367348019
 20
0.8677956161
 30
0.0
 10
59.9374468165
 20
0.8100735015
 30
0.0
 10
59.9381877032
 20
0.7586868453
 30
0.0
 10
59.9389553361
 20
0.7138904746
 30
0.0
 10
59.9397369523
 20
0.6759042536
 30
0.0
 10
59.9405463078
 20
0.6449205397
 30
0.0
 10
59.9413176119
 20
0.6210793671
 30
0.0
 10
59.9421583872
 20
0.6045241961
 30
0.0
 10
59.9427129444
 20
0.5959013072
 30
0.0
 10
59.9431870342
 20
0.5928501589
 30
0.0
 11
59.9316182756
 21
2.0291642925
 31
0.0
 11
59.9316837591
 21
1.9239703461
 31
0.0
 11
59.9318093055
 21
1.8196024477
 31
0.0
 11
59.9319943052
 21
1.7165753725
 31
0.0
 11
59.9322378333
 21
1.6153995054
 31
0.0
 11
59.9325386908
 21
1.5165752846
 31
0.0
 11
59.9328953883
 21
1.4205911985
 31
0.0
 11
59.9333061621
 21
1.3279223833
 31
0.0
 11
59.9337689801
 21
1.2390272103
 31
0.0
 11
59.934281553
 21
1.1543455328
 31
0.0
 11
59.9348413467
 21
1.0742960848
 31
0.0
 11
59.9354455914
 21
0.9992750868
 31
0.0
 11
59.936091299
 21
0.9296535903
 31
0.0
 11
59.9367752741
 21
0.8657762158
 31
0.0
 11
59.9374941347
 21
0.8079588601
 31
0.0
 11
59.9382443245
 21
0.7564876762
 31
0.0
 11
59.9390221315
 21
0.7116173344
 31
0.0
 11
59.9398237084
 21
0.6735699983
 31
0.0
 11
59.9406450828
 21
0.6425337849
 31
0.0
 11
59.9414822184
 21
0.6186622987
 31
0.0
 11
59.9423309025
 21
0.6020737939
 31
0.0
 11
59.9431870342
 21
0.5928501589
 31
0.0
  0
SPLINE
  5
29A
100
AcDbEntity
  8
RACCORDO
100
AcDbSpline
 62
253
  6
CONTINUOUS
 70
0
 71
3
 72
28
 73
24
 74
22
 42
0.0000001
 43
0.0000001
 44
0.0000000001
 12
0.0004813685
 22
-0.6705540658
 32
0.0
 13
0.2118766253
 23
-0.6362006621
 33
0.0
 40
0.0
 40
0.0
 40
0.0
 40
0.0
 40
0.0731966812
 40
0.1458320204
 40
0.2175345643
 40
0.2879492058
 40
0.3567277782
 40
0.4235304308
 40
0.4880266173
 40
0.5498974701
 40
0.6088370269
 40
0.6645540473
 40
0.7167729925
 40
0.7652358883
 40
0.8097032201
 40
0.849955562
 40
0.8857943709
 40
0.9170432889
 40
0.9435490635
 40
0.9651830819
 40
0.981842831
 40
0.9934562521
 40
1.0
 40
1.0
 40
1.0
 40
1.0
 10
60.7314964317
 20
2.0620337157
 30
0.0
 10
60.7315081766
 20
2.0456729383
 30
0.0
 10
60.7315515437
 20
2.0130768643
 30
0.0
 10
60.731676558
 20
1.9644541048
 30
0.0
 10
60.7318607666
 20
1.9164533731
 30
0.0
 10
60.7321032398
 20
1.869314968
 30
0.0
 10
60.7324027559
 20
1.8232721268
 30
0.0
 10
60.732757806
 20
1.7785526012
 30
0.0
 10
60.7331665962
 20
1.7353775998
 30
0.0
 10
60.7336270544
 20
1.6939607644
 30
0.0
 10
60.7341368364
 20
1.6545069619
 30
0.0
 10
60.7346933332
 20
1.6172113899
 30
0.0
 10
60.7352936651
 20
1.5822585365
 30
0.0
 10
60.7359347118
 20
1.5498213698
 30
0.0
 10
60.7366129955
 20
1.5200603137
 30
0.0
 10
60.7373250068
 20
1.4931227085
 30
0.0
 10
60.7380660076
 20
1.469141425
 30
0.0
 10
60.7388334378
 20
1.4482360671
 30
0.0
 10
60.7396158728
 20
1.4305067054
 30
0.0
 10
60.7404233828
 20
1.416049188
 30
0.0
 10
60.7412002338
 20
1.4049100001
 30
0.0
 10
60.7420318177
 20
1.3971913799
 30
0.0
 10
60.7426030346
 20
1.393141499
 30
0.0
 10
60.7430651903
 20
1.3917537867
 30
0.0
 11
60.7314964317
 21
2.0620337157
 31
0.0
 11
60.7315618988
 21
2.0129514146
 31
0.0
 11
60.7316874415
 21
1.9642456418
 31
0.0
 11
60.7318724333
 21
1.9161655529
 31
0.0
 11
60.7321159589
 21
1.8689493446
 31
0.0
 11
60.7324168138
 21
1.8228305627
 31
0.0
 11
60.7327735113
 21
1.778037181
 31
0.0
 11
60.7331842863
 21
1.7347909407
 31
0.0
 11
60.7336471073
 21
1.6933057597
 31
0.0
 11
60.7341596848
 21
1.653786914
 31
0.0
 11
60.7347194847
 21
1.616429824
 31
0.0
 11
60.7353237369
 21
1.581419403
 31
0.0
 11
60.7359694534
 21
1.5489288187
 31
0.0
 11
60.7366534386
 21
1.5191189068
 31
0.0
 11
60.7373723102
 21
1.492137103
 31
0.0
 11
60.7381225113
 21
1.4681169501
 31
0.0
 11
60.7389003311
 21
1.4471772971
 31
0.0
 11
60.7397019185
 21
1.4294218226
 31
0.0
 11
60.740523311
 21
1.4149383127
 31
0.0
 11
60.7413604448
 21
1.4037984573
 31
0.0
 11
60.7422091721
 21
1.3960574168
 31
0.0
 11
60.7430651903
 21
1.3917537867
 31
0.0
  0
SPLINE
  5
29B
100
AcDbEntity
  8
RACCORDO
100
AcDbSpline
 62
253
  6
CONTINUOUS
 70
0
 71
3
 72
25
 73
21
 74
19
 42
0.0000001
 43
0.0000001
 44
0.0000000001
 12
-0.0011476256
 22
-1.2549178896
 32
0.0
 13
-1.2549178921
 23
-0.0011448309
 33
0.0
 40
0.0
 40
0.0
 40
0.0
 40
0.0
 40
0.0555078874
 40
0.1110211574
 40
0.1665406022
 40
0.2220668264
 40
0.2776002287
 40
0.3331409895
 40
0.3886890664
 40
0.4442441946
 40
0.4998058955
 40
0.5553734915
 40
0.6109461259
 40
0.6665227897
 40
0.7221023518
 40
0.777683593
 40
0.8332652436
 40
0.8888460215
 40
0.9444246707
 40
1.0
 40
1.0
 40
1.0
 40
1.0
 10
60.7430651903
 20
1.3917537867
 30
0.0
 10
60.7430439562
 20
1.3685345064
 30
0.0
 10
60.7409717809
 20
1.3220700284
 30
0.0
 10
60.7317990131
 20
1.2529266207
 30
0.0
 10
60.7166313455
 20
1.1848331798
 30
0.0
 10
60.6955841207
 20
1.1183143118
 30
0.0
 10
60.6688173698
 20
1.0538738106
 30
0.0
 10
60.6365346032
 20
0.9920020285
 30
0.0
 10
60.5989812587
 20
0.9331691478
 30
0.0
 10
60.5564428339
 20
0.8778224122
 30
0.0
 10
60.5092427145
 20
0.8263825131
 30
0.0
 10
60.4577397137
 20
0.7792404517
 30
0.0
 10
60.4023253478
 20
0.7367545532
 30
0.0
 10
60.3434208448
 20
0.6992477501
 30
0.0
 10
60.2814740006
 20
0.6670051283
 30
0.0
 10
60.2169555611
 20
0.6402717622
 30
0.0
 10
60.150356447
 20
0.6192508542
 30
0.0
 10
60.0821810339
 20
0.6041021887
 30
0.0
 10
60.0129544786
 20
0.5949409279
 30
0.0
 10
59.9664345259
 20
0.5928713671
 30
0.0
 10
59.9431870342
 20
0.5928501589
 30
0.0
 11
60.7430651903
 21
1.3917537867
 31
0.0
 11
60.7399613099
 21
1.3221651039
 31
0.0
 11
60.7308005418
 21
1.2531054176
 31
0.0
 11
60.715652524
 21
1.185099703
 31
0.0
 11
60.6946324079
 21
1.1186649235
 31
0.0
 11
60.6678999836
 21
1.0543061003
 31
0.0
 11
60.6356584646
 21
0.9925124738
 31
0.0
 11
60.5981529432
 21
0.9337537844
 31
0.0
 11
60.5556685273
 21
0.8784767016
 31
0.0
 11
60.5085281734
 21
0.8271014286
 31
0.0
 11
60.4570902312
 21
0.780018508
 31
0.0
 11
60.4017457197
 21
0.7375858528
 31
0.0
 11
60.3429153546
 21
0.7001260261
 31
0.0
 11
60.2810463502
 21
0.6679237884
 31
0.0
 11
60.21660902
 21
0.6412239334
 31
0.0
 11
60.1500932012
 21
0.6202294272
 31
0.0
 11
60.0820045311
 21
0.6050998648
 31
0.0
 11
60.0128606036
 21
0.5959502577
 31
0.0
 11
59.9431870342
 21
0.5928501589
 31
0.0
  0
SPLINE
  5
29C
100
AcDbEntity
  8
RACCORDO
100
AcDbSpline
 62
253
  6
CONTINUOUS
 70
0
 71
3
 72
25
 73
21
 74
19
 42
0.0000001
 43
0.0000001
 44
0.0000000001
 12
0.0011476256
 22
-1.2549178896
 32
0.0
 13
1.2549178921
 23
-0.0011448309
 33
0.0
 40
0.0
 40
0.0
 40
0.0
 40
0.0
 40
0.0555078869
 40
0.1110211565
 40
0.1665406009
 40
0.2220668249
 40
0.2776002269
 40
0.3331409876
 40
0.3886890643
 40
0.4442441925
 40
0.4998058935
 40
0.5553734895
 40
0.6109461241
 40
0.6665227881
 40
0.7221023503
 40
0.7776835918
 40
0.8332652427
 40
0.8888460208
 40
0.9444246704
 40
1.0
 40
1.0
 40
1.0
 40
1.0
 10
38.5721420988
 20
1.3917537867
 30
0.0
 10
38.5721633329
 20
1.3685345066
 30
0.0
 10
38.5742355082
 20
1.322070029
 30
0.0
 10
38.5834082759
 20
1.2529266218
 30
0.0
 10
38.5985759433
 20
1.1848331814
 30
0.0
 10
38.6196231678
 20
1.1183143137
 30
0.0
 10
38.6463899184
 20
1.0538738126
 30
0.0
 10
38.6786726847
 20
0.9920020306
 30
0.0
 10
38.7162260289
 20
0.9331691499
 30
0.0
 10
38.7587644535
 20
0.8778224142
 30
0.0
 10
38.8059645728
 20
0.8263825149
 30
0.0
 10
38.8574675736
 20
0.7792404533
 30
0.0
 10
38.9128819395
 20
0.7367545545
 30
0.0
 10
38.9717864425
 20
0.6992477512
 30
0.0
 10
39.0337332869
 20
0.6670051291
 30
0.0
 10
39.0982517266
 20
0.6402717627
 30
0.0
 10
39.164850841
 20
0.6192508545
 30
0.0
 10
39.2330262544
 20
0.6041021888
 30
0.0
 10
39.3022528101
 20
0.594940928
 30
0.0
 10
39.3487727631
 20
0.5928713671
 30
0.0
 10
39.3720202549
 20
0.5928501589
 30
0.0
 11
38.5721420988
 21
1.3917537867
 31
0.0
 11
38.5752459791
 21
1.3221651045
 31
0.0
 11
38.5844067471
 21
1.2531054187
 31
0.0
 11
38.5995547648
 21
1.1850997046
 31
0.0
 11
38.6205748805
 21
1.1186649254
 31
0.0
 11
38.6473073045
 21
1.0543061023
 31
0.0
 11
38.6795488233
 21
0.9925124759
 31
0.0
 11
38.7170543445
 21
0.9337537865
 31
0.0
 11
38.7595387601
 21
0.8784767036
 31
0.0
 11
38.8066791139
 21
0.8271014304
 31
0.0
 11
38.858117056
 21
0.7800185096
 31
0.0
 11
38.9134615675
 21
0.7375858542
 31
0.0
 11
38.9722919327
 21
0.7001260272
 31
0.0
 11
39.0341609373
 21
0.6679237892
 31
0.0
 11
39.0985982677
 21
0.641223934
 31
0.0
 11
39.1651140868
 21
0.6202294275
 31
0.0
 11
39.2332027572
 21
0.605099865
 31
0.0
 11
39.3023466852
 21
0.5959502577
 31
0.0
 11
39.3720202549
 21
0.5928501589
 31
0.0
  0
SPLINE
  5
29D
100
AcDbEntity
  8
RACCORDO
100
AcDbSpline
 62
253
  6
CONTINUOUS
 70
0
 71
3
 72
28
 73
24
 74
22
 42
0.0000001
 43
0.0000001
 44
0.0000000001
 12
0.2205490798
 22
1.419410171
 32
0.0
 13
0.0004811545
 23
1.4364424453
 33
0.0
 40
0.0
 40
0.0
 40
0.0
 40
0.0
 40
0.0064487666
 40
0.018012195
 40
0.0346408869
 40
0.0562547558
 40
0.0827478303
 40
0.113989653
 40
0.1498258593
 40
0.190079349
 40
0.2345510457
 40
0.2830211303
 40
0.3352497645
 40
0.3909786948
 40
0.4499321351
 40
0.5118186194
 40
0.5763319737
 40
0.6431531289
 40
0.7119513418
 40
0.7823865721
 40
0.8541104591
 40
0.9267677161
 40
1.0
 40
1.0
 40
1.0
 40
1.0
 10
39.3720202549
 20
0.5928501589
 30
0.0
 10
39.3724943448
 20
0.5959013072
 30
0.0
 10
39.3730489019
 20
0.6045241961
 30
0.0
 10
39.3738896772
 20
0.6210793671
 30
0.0
 10
39.3746609813
 20
0.6449205397
 30
0.0
 10
39.3754703368
 20
0.6759042536
 30
0.0
 10
39.376251953
 20
0.7138904746
 30
0.0
 10
39.3770195859
 20
0.7586868453
 30
0.0
 10
39.3777604726
 20
0.8100735015
 30
0.0
 10
39.3784724872
 20
0.8677956161
 30
0.0
 10
39.3791507455
 20
0.9315678282
 30
0.0
 10
39.3797917809
 20
1.0010745415
 30
0.0
 10
39.3803921013
 20
1.0759719281
 30
0.0
 10
39.3809485899
 20
1.1558893585
 30
0.0
 10
39.3814583658
 20
1.2404315033
 30
0.0
 10
39.3819188197
 20
1.3291800957
 30
0.0
 10
39.3823276081
 20
1.4216961518
 30
0.0
 10
39.3826826569
 20
1.5175218861
 30
0.0
 10
39.3829821767
 20
1.616183301
 30
0.0
 10
39.3832246491
 20
1.7171923765
 30
0.0
 10
39.3834088698
 20
1.8200493429
 30
0.0
 10
39.3835338898
 20
1.9242456675
 30
0.0
 10
39.3835772682
 20
1.9940996389
 30
0.0
 10
39.3835890136
 20
2.0291642925
 30
0.0
 11
39.3720202549
 21
0.5928501589
 31
0.0
 11
39.3728763866
 21
0.6020737939
 31
0.0
 11
39.3737250707
 21
0.6186622987
 31
0.0
 11
39.3745622063
 21
0.6425337849
 31
0.0
 11
39.3753835807
 21
0.6735699983
 31
0.0
 11
39.3761851577
 21
0.7116173344
 31
0.0
 11
39.3769629647
 21
0.7564876762
 31
0.0
 11
39.3777131544
 21
0.8079588601
 31
0.0
 11
39.3784320151
 21
0.8657762158
 31
0.0
 11
39.3791159902
 21
0.9296535903
 31
0.0
 11
39.3797616978
 21
0.9992750868
 31
0.0
 11
39.3803659424
 21
1.0742960848
 31
0.0
 11
39.3809257362
 21
1.1543455328
 31
0.0
 11
39.3814383091
 21
1.2390272103
 31
0.0
 11
39.3819011271
 21
1.3279223833
 31
0.0
 11
39.3823119008
 21
1.4205911985
 31
0.0
 11
39.3826685984
 21
1.5165752846
 31
0.0
 11
39.3829694558
 21
1.6153995054
 31
0.0
 11
39.3832129839
 21
1.7165753725
 31
0.0
 11
39.3833979836
 21
1.8196024477
 31
0.0
 11
39.38352353
 21
1.9239703461
 31
0.0
 11
39.3835890136
 21
2.0291642925
 31
0.0
  0
SPLINE
  5
29E
100
AcDbEntity
  8
RACCORDO
100
AcDbSpline
 62
253
  6
CONTINUOUS
 70
0
 71
3
 72
28
 73
24
 74
22
 42
0.0000001
 43
0.0000001
 44
0.0000000001
 12
0.2118766252
 22
0.6362006622
 32
0.0
 13
0.0004813685
 23
0.6705540658
 33
0.0
 40
0.0
 40
0.0
 40
0.0
 40
0.0
 40
0.0065437479
 40
0.018157169
 40
0.0348169181
 40
0.0564509365
 40
0.0829567111
 40
0.1142056291
 40
0.150044438
 40
0.1902967799
 40
0.2347641117
 40
0.2832270075
 40
0.3354459527
 40
0.3911629731
 40
0.4501025299
 40
0.5119733827
 40
0.5764695692
 40
0.6432722218
 40
0.7120507942
 40
0.7824654357
 40
0.8541679796
 40
0.9268033188
 40
1.0
 40
1.0
 40
1.0
 40
1.0
 10
38.5721420988
 20
1.3917537867
 30
0.0
 10
38.5726042546
 20
1.393141499
 30
0.0
 10
38.5731754714
 20
1.3971913799
 30
0.0
 10
38.5740070553
 20
1.4049100001
 30
0.0
 10
38.5747839064
 20
1.416049188
 30
0.0
 10
38.5755914163
 20
1.4305067054
 30
0.0
 10
38.5763738514
 20
1.4482360671
 30
0.0
 10
38.5771412815
 20
1.469141425
 30
0.0
 10
38.5778822824
 20
1.4931227085
 30
0.0
 10
38.5785942936
 20
1.5200603137
 30
0.0
 10
38.5792725773
 20
1.5498213698
 30
0.0
 10
38.579913624
 20
1.5822585365
 30
0.0
 10
38.5805139559
 20
1.6172113899
 30
0.0
 10
38.5810704527
 20
1.6545069619
 30
0.0
 10
38.5815802347
 20
1.6939607644
 30
0.0
 10
38.5820406929
 20
1.7353775998
 30
0.0
 10
38.5824494832
 20
1.7785526012
 30
0.0
 10
38.5828045332
 20
1.8232721268
 30
0.0
 10
38.5831040494
 20
1.869314968
 30
0.0
 10
38.5833465225
 20
1.9164533731
 30
0.0
 10
38.5835307311
 20
1.9644541048
 30
0.0
 10
38.5836557455
 20
2.0130768643
 30
0.0
 10
38.5836991126
 20
2.0456729383
 30
0.0
 10
38.5837108574
 20
2.0620337157
 30
0.0
 11
38.5721420988
 21
1.3917537867
 31
0.0
 11
38.572998117
 21
1.3960574168
 31
0.0
 11
38.5738468444
 21
1.4037984573
 31
0.0
 11
38.5746839782
 21
1.4149383127
 31
0.0
 11
38.5755053706
 21
1.4294218226
 31
0.0
 11
38.5763069581
 21
1.4471772971
 31
0.0
 11
38.5770847778
 21
1.4681169501
 31
0.0
 11
38.5778349789
 21
1.492137103
 31
0.0
 11
38.5785538506
 21
1.5191189068
 31
0.0
 11
38.5792378357
 21
1.5489288187
 31
0.0
 11
38.5798835522
 21
1.581419403
 31
0.0
 11
38.5804878044
 21
1.616429824
 31
0.0
 11
38.5810476043
 21
1.653786914
 31
0.0
 11
38.5815601818
 21
1.6933057597
 31
0.0
 11
38.5820230028
 21
1.7347909407
 31
0.0
 11
38.5824337778
 21
1.778037181
 31
0.0
 11
38.5827904753
 21
1.8228305627
 31
0.0
 11
38.5830913302
 21
1.8689493446
 31
0.0
 11
38.5833348559
 21
1.9161655529
 31
0.0
 11
38.5835198477
 21
1.9642456418
 31
0.0
 11
38.5836453904
 21
2.0129514146
 31
0.0
 11
38.5837108574
 21
2.0620337157
 31
0.0
  0
SPLINE
  5
29F
100
AcDbEntity
  8
RACCORDO
100
AcDbSpline
 62
253
  6
CONTINUOUS
 70
0
 71
3
 72
25
 73
21
 74
19
 42
0.0000001
 43
0.0000001
 44
0.0000000001
 12
0.3133119133
 22
-0.7383405444
 32
0.0
 13
0.802066571
 23
-0.0005747343
 33
0.0
 40
0.0
 40
0.0
 40
0.0
 40
0.0
 40
0.0062949894
 40
0.0193678562
 40
0.0395493178
 40
0.066784903
 40
0.100908467
 40
0.1416841228
 40
0.1888188372
 40
0.2419685086
 40
0.3007422145
 40
0.3647059501
 40
0.4333863078
 40
0.5062742622
 40
0.5828291199
 40
0.6624826501
 40
0.7446433856
 40
0.8287010766
 40
0.9140312725
 40
1.0
 40
1.0
 40
1.0
 40
1.0
 10
38.5837108574
 20
2.0620337157
 30
0.0
 10
38.5843682892
 20
2.0604844338
 30
0.0
 10
38.5899155167
 20
2.0583677148
 30
0.0
 10
38.5996116084
 20
2.0558194433
 30
0.0
 10
38.6158788845
 20
2.0532214013
 30
0.0
 10
38.6374003556
 20
2.0506034141
 30
0.0
 10
38.6646354266
 20
2.0480443286
 30
0.0
 10
38.6971524551
 20
2.0455664965
 30
0.0
 10
38.7347975993
 20
2.0431995251
 30
0.0
 10
38.7772626744
 20
2.0409636519
 30
0.0
 10
38.8242418045
 20
2.0388783329
 30
0.0
 10
38.8753826486
 20
2.036960444
 30
0.0
 10
38.9303057169
 20
2.0352252908
 30
0.0
 10
38.9886020784
 20
2.0336864492
 30
0.0
 10
39.0498380185
 20
2.0323558481
 30
0.0
 10
39.1135578113
 20
2.0312437244
 30
0.0
 10
39.1792872587
 20
2.0303585929
 30
0.0
 10
39.2465371904
 20
2.0297072062
 30
0.0
 10
39.314807102
 20
2.0292945212
 30
0.0
 10
39.3606047994
 20
2.0291807622
 30
0.0
 10
39.3835890136
 20
2.0291642925
 30
0.0
 11
38.5837108574
 21
2.0620337157
 31
0.0
 11
38.5878898397
 21
2.0592002503
 31
0.0
 11
38.597990944
 21
2.0563878733
 31
0.0
 11
38.613938991
 21
2.0536175165
 31
0.0
 11
38.6356152848
 21
2.0509097986
 31
0.0
 11
38.6628584961
 21
2.0482848723
 31
0.0
 11
38.6954658628
 21
2.045762274
 31
0.0
 11
38.7331946992
 21
2.0433607786
 31
0.0
 11
38.7757642021
 21
2.0410982596
 31
0.0
 11
38.8228575412
 21
2.0389915562
 31
0.0
 11
38.8741242164
 21
2.0370563478
 31
0.0
 11
38.9291826672
 21
2.0353070376
 31
0.0
 11
38.9876231119
 21
2.0337566451
 31
0.0
 11
39.0490105979
 21
2.0324167094
 31
0.0
 11
39.1128882388
 21
2.0312972031
 31
0.0
 11
39.1787806147
 21
2.0304064583
 31
0.0
 11
39.2461973108
 21
2.0297511046
 31
0.0
 11
39.3146365672
 21
2.0293360196
 31
0.0
 11
39.3835890136
 21
2.0291642925
 31
0.0
  0
SPLINE
  5
2A0
100
AcDbEntity
  8
RACCORDO
100
AcDbSpline
 62
253
  6
CONTINUOUS
 70
0
 71
3
 72
18
 73
14
 74
12
 42
0.0000001
 43
0.0000001
 44
0.0000000001
 12
0.0294440137
 22
41.0867719839
 32
0.0
 13
-0.0294440137
 23
41.0867719839
 33
0.0
 40
0.0
 40
0.0
 40
0.0
 40
0.0
 40
0.0908710314
 40
0.1817648976
 40
0.2726765253
 40
0.3636008402
 40
0.4545327675
 40
0.5454672325
 40
0.6363991598
 40
0.7273234747
 40
0.8182351024
 40
0.9091289686
 40
1.0
 40
1.0
 40
1.0
 40
1.0
 10
39.3835890136
 20
2.0291642925
 30
0.0
 10
39.3844808829
 20
3.2736967419
 30
0.0
 10
39.3861024635
 20
5.7630744948
 30
0.0
 10
39.3880482424
 20
9.4975410297
 30
0.0
 10
39.3895076717
 20
13.2327375359
 30
0.0
 10
39.3904806697
 20
16.9684554718
 30
0.0
 10
39.3909671824
 20
20.7044862721
 30
0.0
 10
39.3909671824
 20
24.4406213618
 30
0.0
 10
39.3904806697
 20
28.1766521621
 30
0.0
 10
39.3895076717
 20
31.912370098
 30
0.0
 10
39.3880482424
 20
35.6475666042
 30
0.0
 10
39.3861024635
 20
39.3820331391
 30
0.0
 10
39.3844808829
 20
41.871410892
 30
0.0
 10
39.3835890136
 20
43.1159433414
 30
0.0
 11
39.3835890136
 21
2.0291642925
 31
0.0
 11
39.3860211468
 21
5.7627618072
 31
0.0
 11
39.3879670163
 21
9.4972978115
 31
0.0
 11
39.3894265134
 21
13.2325638036
 31
0.0
 11
39.3903995568
 21
16.9683512301
 31
0.0
 11
39.390886092
 21
20.7044515243
 31
0.0
 11
39.390886092
 21
24.4406561096
 31
0.0
 11
39.3903995568
 21
28.1767564038
 31
0.0
 11
39.3894265134
 21
31.9125438303
 31
0.0
 11
39.3879670163
 21
35.6478098224
 31
0.0
 11
39.3860211468
 21
39.3823458266
 31
0.0
 11
39.3835890136
 21
43.1159433414
 31
0.0
  0
SPLINE
  5
2A1
100
AcDbEntity
  8
RACCORDO
100
AcDbSpline
 62
253
  6
CONTINUOUS
 70
0
 71
3
 72
18
 73
14
 74
12
 42
0.0000001
 43
0.0000001
 44
0.0000000001
 12
0.0294440137
 22
41.0210331261
 32
0.0
 13
-0.0294440137
 23
41.0210331261
 33
0.0
 40
0.0
 40
0.0
 40
0.0
 40
0.0
 40
0.0908710262
 40
0.1817648933
 40
0.272676522
 40
0.3636008378
 40
0.4545327662
 40
0.545467232
 40
0.6363991603
 40
0.7273234762
 40
0.8182351048
 40
0.9091289719
 40
1.0
 40
1.0
 40
1.0
 40
1.0
 10
38.5837108574
 20
2.0620337157
 30
0.0
 10
38.5846027267
 20
3.3045748415
 30
0.0
 10
38.5862243073
 20
5.7899695312
 30
0.0
 10
38.5881700862
 20
9.5184608745
 30
0.0
 10
38.5896295155
 20
13.2476811056
 30
0.0
 10
38.5906025136
 20
16.9774219323
 30
0.0
 10
38.5910890262
 20
20.7074751228
 30
0.0
 10
38.5910890262
 20
24.4376324358
 30
0.0
 10
38.5906025136
 20
28.1676856265
 30
0.0
 10
38.5896295155
 20
31.8974264532
 30
0.0
 10
38.5881700862
 20
35.6266466844
 30
0.0
 10
38.5862243073
 20
39.3551380526
 30
0.0
 10
38.5846027267
 20
41.8405327674
 30
0.0
 10
38.5837108574
 20
43.0830739181
 30
0.0
 11
38.5837108574
 21
2.0620337157
 31
0.0
 11
38.5861429905
 21
5.7896572598
 31
0.0
 11
38.5880888601
 21
9.5182180457
 31
0.0
 11
38.5895483573
 21
13.2475076515
 31
0.0
 11
38.5905214006
 21
16.9773178575
 31
0.0
 11
38.5910079359
 21
20.7074404306
 31
0.0
 11
38.5910079359
 21
24.437667128
 31
0.0
 11
38.5905214006
 21
28.1677897013
 31
0.0
 11
38.5895483573
 21
31.8975999073
 31
0.0
 11
38.5880888601
 21
35.6268895131
 31
0.0
 11
38.5861429906
 21
39.3554502991
 31
0.0
 11
38.5837108574
 21
43.0830739181
 31
0.0
  0
SPLINE
  5
2A2
100
AcDbEntity
  8
RACCORDO
100
AcDbSpline
 62
253
  6
CONTINUOUS
 70
0
 71
3
 72
25
 73
21
 74
19
 42
0.0000001
 43
0.0000001
 44
0.0000000001
 12
0.3133121085
 22
0.7383404613
 32
0.0
 13
0.8020665707
 23
0.0005747341
 33
0.0
 40
0.0
 40
0.0
 40
0.0
 40
0.0
 40
0.0062949902
 40
0.0193678579
 40
0.0395493203
 40
0.0667849061
 40
0.1009084706
 40
0.1416841267
 40
0.1888188413
 40
0.2419685129
 40
0.3007422187
 40
0.3647059542
 40
0.4333863117
 40
0.5062742656
 40
0.582829123
 40
0.6624826527
 40
0.7446433875
 40
0.828701078
 40
0.9140312732
 40
1.0
 40
1.0
 40
1.0
 40
1.0
 10
38.5837108574
 20
43.0830739181
 30
0.0
 10
38.5843682897
 20
43.0846232001
 30
0.0
 10
38.5899155174
 20
43.0867399189
 30
0.0
 10
38.59961161
 20
43.0892881905
 30
0.0
 10
38.6158788866
 20
43.0918862324
 30
0.0
 10
38.6374003582
 20
43.0945042196
 30
0.0
 10
38.6646354296
 20
43.0970633051
 30
0.0
 10
38.6971524584
 20
43.0995411372
 30
0.0
 10
38.7347976028
 20
43.1019081085
 30
0.0
 10
38.7772626779
 20
43.1041439817
 30
0.0
 10
38.824241808
 20
43.1062293007
 30
0.0
 10
38.875382652
 20
43.1081471895
 30
0.0
 10
38.93030572
 20
43.1098823427
 30
0.0
 10
38.9886020812
 20
43.1114211843
 30
0.0
 10
39.049838021
 20
43.1127517853
 30
0.0
 10
39.1135578134
 20
43.113863909
 30
0.0
 10
39.1792872603
 20
43.1147490405
 30
0.0
 10
39.2465371915
 20
43.1154004272
 30
0.0
 10
39.3148071026
 20
43.1158131122
 30
0.0
 10
39.3606047996
 20
43.1159268711
 30
0.0
 10
39.3835890136
 20
43.1159433408
 30
0.0
 11
38.5837108574
 21
43.0830739181
 31
0.0
 11
38.5878898406
 21
43.0859073836
 31
0.0
 11
38.5979909455
 21
43.0887197605
 31
0.0
 11
38.6139389932
 21
43.0914901173
 31
0.0
 11
38.6356152875
 21
43.0941978352
 31
0.0
 11
38.6628584992
 21
43.0968227614
 31
0.0
 11
38.6954658662
 21
43.0993453597
 31
0.0
 11
38.7331947027
 21
43.101746855
 31
0.0
 11
38.7757642057
 21
43.104009374
 31
0.0
 11
38.8228575448
 21
43.1061160774
 31
0.0
 11
38.8741242199
 21
43.1080512857
 31
0.0
 11
38.9291826704
 21
43.1098005959
 31
0.0
 11
38.9876231148
 21
43.1113509883
 31
0.0
 11
39.0490106004
 21
43.1126909241
 31
0.0
 11
39.1128882409
 21
43.1138104303
 31
0.0
 11
39.1787806163
 21
43.1147011751
 31
0.0
 11
39.2461973119
 21
43.1153565287
 31
0.0
 11
39.3146365678
 21
43.1157716138
 31
0.0
 11
39.3835890136
 21
43.1159433408
 31
0.0
  0
SPLINE
  5
2A3
100
AcDbEntity
  8
RACCORDO
100
AcDbSpline
 62
253
  6
CONTINUOUS
 70
0
 71
3
 72
28
 73
24
 74
22
 42
0.0000001
 43
0.0000001
 44
0.0000000001
 12
-0.0004811028
 22
1.4364424449
 32
0.0
 13
-0.2205592073
 23
1.419408597
 33
0.0
 40
0.0
 40
0.0
 40
0.0
 40
0.0
 40
0.0732323021
 40
0.1458895582
 40
0.2176134423
 40
0.288048675
 40
0.3568468858
 40
0.4236680393
 40
0.4881813937
 40
0.5500678786
 40
0.609021318
 40
0.6647502472
 40
0.7169788808
 40
0.7654489649
 40
0.809920661
 40
0.8501741491
 40
0.8860103542
 40
0.9172521765
 40
0.9437452507
 40
0.9653591176
 40
0.9819878089
 40
0.9935512361
 40
1.0
 40
1.0
 40
1.0
 40
1.0
 10
39.3835890136
 20
43.1159433414
 30
0.0
 10
39.3835772695
 20
43.1510080037
 30
0.0
 10
39.3835338882
 20
43.2208619833
 30
0.0
 10
39.3834088699
 20
43.3250583148
 30
0.0
 10
39.3832246477
 20
43.4279152805
 30
0.0
 10
39.3829821756
 20
43.5289243547
 30
0.0
 10
39.3826826551
 20
43.627585769
 30
0.0
 10
39.3823276061
 20
43.7234115014
 30
0.0
 10
39.3819188172
 20
43.815927557
 30
0.0
 10
39.3814583628
 20
43.9046761493
 30
0.0
 10
39.3809485865
 20
43.9892182934
 30
0.0
 10
39.3803920975
 20
44.0691357225
 30
0.0
 10
39.3797917768
 20
44.1440331081
 30
0.0
 10
39.3791507412
 20
44.2135398206
 30
0.0
 10
39.378472483
 20
44.2773120314
 30
0.0
 10
39.3777604682
 20
44.3350341443
 30
0.0
 10
39.3770195819
 20
44.3864207991
 30
0.0
 10
39.3762519479
 20
44.4312171686
 30
0.0
 10
39.375470335
 20
44.4692033887
 30
0.0
 10
39.3746609715
 20
44.5001871003
 30
0.0
 10
39.3738896861
 20
44.5240282734
 30
0.0
 10
39.3730488746
 20
44.5405834373
 30
0.0
 10
39.3724943664
 20
44.5492063313
 30
0.0
 10
39.3720202549
 20
44.5522574749
 30
0.0
 11
39.3835890136
 21
43.1159433414
 31
0.0
 11
39.3835235294
 21
43.221137314
 31
0.0
 11
39.3833979832
 21
43.3255052108
 31
0.0
 11
39.3832129829
 21
43.428532282
 31
0.0
 11
39.3829694546
 21
43.5297081525
 31
0.0
 11
39.3826685967
 21
43.6285323701
 31
0.0
 11
39.3823118987
 21
43.7245164539
 31
0.0
 11
39.3819011246
 21
43.8171852692
 31
0.0
 11
39.3814383061
 21
43.9060804431
 31
0.0
 11
39.3809257328
 21
43.9907621192
 31
0.0
 11
39.3803659386
 21
44.0708115657
 31
0.0
 11
39.3797616937
 21
44.1458325626
 31
0.0
 11
39.3791159859
 21
44.2154540585
 31
0.0
 11
39.3784320108
 21
44.2793314322
 31
0.0
 11
39.3777131501
 21
44.3371487855
 31
0.0
 11
39.3769629604
 21
44.3886199678
 31
0.0
 11
39.3761851534
 21
44.433490309
 31
0.0
 11
39.3753835767
 21
44.4715376445
 31
0.0
 11
39.374562202
 21
44.5025738551
 31
0.0
 11
39.3737250675
 21
44.5264453404
 31
0.0
 11
39.3728763818
 21
44.5430338434
 31
0.0
 11
39.3720202549
 21
44.5522574749
 31
0.0
  0
SPLINE
  5
2A4
100
AcDbEntity
  8
RACCORDO
100
AcDbSpline
 62
253
  6
CONTINUOUS
 70
0
 71
3
 72
28
 73
24
 74
22
 42
0.0000001
 43
0.0000001
 44
0.0000000001
 12
-0.0004813612
 22
0.6705540662
 32
0.0
 13
-0.2118743645
 23
0.6362014155
 33
0.0
 40
0.0
 40
0.0
 40
0.0
 40
0.0
 40
0.0732001489
 40
0.1458355094
 40
0.2175380531
 40
0.2879526823
 40
0.3567312183
 40
0.423533816
 40
0.4880299294
 40
0.5499006895
 40
0.6088401304
 40
0.6645569942
 40
0.7167757412
 40
0.765238403
 40
0.8097054767
 40
0.849957555
 40
0.8857960988
 40
0.9170447524
 40
0.9435502631
 40
0.9651840204
 40
0.9818435085
 40
0.9934566857
 40
1.0
 40
1.0
 40
1.0
 40
1.0
 10
38.5837108574
 20
43.0830739181
 30
0.0
 10
38.5836991122
 20
43.0994354706
 30
0.0
 10
38.5836557427
 20
43.1320323246
 30
0.0
 10
38.5835307238
 20
43.1806558638
 30
0.0
 10
38.5833465121
 20
43.2286565976
 30
0.0
 10
38.5831040359
 20
43.2757949917
 30
0.0
 10
38.5828045166
 20
43.3218378098
 30
0.0
 10
38.5824494635
 20
43.3665572986
 30
0.0
 10
38.5820406702
 20
43.4097322507
 30
0.0
 10
38.5815802089
 20
43.4511490231
 30
0.0
 10
38.5810704239
 20
43.490602744
 30
0.0
 10
38.5805139244
 20
43.5278982107
 30
0.0
 10
38.5799135902
 20
43.5628509325
 30
0.0
 10
38.5792725416
 20
43.5952879449
 30
0.0
 10
38.5785942565
 20
43.6250488319
 30
0.0
 10
38.5778822442
 20
43.6519862612
 30
0.0
 10
38.5771412424
 20
43.6759673673
 30
0.0
 10
38.5763738121
 20
43.6968725479
 30
0.0
 10
38.5755913758
 20
43.7146017326
 30
0.0
 10
38.5747838689
 20
43.729059075
 30
0.0
 10
38.5740070117
 20
43.7401980892
 30
0.0
 10
38.5731754493
 20
43.7479165041
 30
0.0
 10
38.572604219
 20
43.7519662252
 30
0.0
 10
38.5721420988
 20
43.7533538471
 30
0.0
 11
38.5837108574
 21
43.0830739181
 31
0.0
 11
38.5836453858
 21
43.1321585446
 31
0.0
 11
38.5835198402
 21
43.1808643317
 31
0.0
 11
38.5833348454
 21
43.2289444204
 31
0.0
 11
38.5830913166
 21
43.2761606205
 31
0.0
 11
38.5827904587
 21
43.322279378
 31
0.0
 11
38.5824337581
 21
43.3670727228
 31
0.0
 11
38.58202298
 21
43.4103189142
 31
0.0
 11
38.5815601558
 21
43.451804033
 31
0.0
 11
38.5810475753
 21
43.4913228009
 31
0.0
 11
38.5804877726
 21
43.528679786
 31
0.0
 11
38.5798835181
 21
43.5636900739
 31
0.0
 11
38.5792377997
 21
43.5961805014
 31
0.0
 11
38.5785538132
 21
43.6259902401
 31
0.0
 11
38.5778349404
 21
43.652971867
 31
0.0
 11
38.5770847384
 21
43.676991842
 31
0.0
 11
38.576306918
 21
43.6979313176
 31
0.0
 11
38.57550533
 21
43.715686615
 31
0.0
 11
38.5746839374
 21
43.7301699496
 31
0.0
 11
38.5738468036
 21
43.7413096294
 31
0.0
 11
38.5729980765
 21
43.7490505054
 31
0.0
 11
38.5721420988
 21
43.7533538471
 31
0.0
  0
SPLINE
  5
2A5
100
AcDbEntity
  8
RACCORDO
100
AcDbSpline
 62
253
  6
CONTINUOUS
 70
0
 71
3
 72
25
 73
21
 74
19
 42
0.0000001
 43
0.0000001
 44
0.0000000001
 12
-0.0011476256
 22
1.2549178896
 32
0.0
 13
-1.2549178921
 23
0.0011448309
 33
0.0
 40
0.0
 40
0.0
 40
0.0
 40
0.0
 40
0.0555078865
 40
0.1110211558
 40
0.1665406
 40
0.2220668237
 40
0.2776002255
 40
0.3331409861
 40
0.3886890628
 40
0.4442441909
 40
0.4998058919
 40
0.555373488
 40
0.6109461226
 40
0.6665227868
 40
0.7221023491
 40
0.7776835908
 40
0.8332652419
 40
0.8888460203
 40
0.9444246701
 40
1.0
 40
1.0
 40
1.0
 40
1.0
 10
60.7430651903
 20
43.7533538471
 30
0.0
 10
60.7430439562
 20
43.7765731271
 30
0.0
 10
60.740971781
 20
43.8230376044
 30
0.0
 10
60.7317990134
 20
43.8921810113
 30
0.0
 10
60.7166313462
 20
43.9602744513
 30
0.0
 10
60.6955841218
 20
44.0267933188
 30
0.0
 10
60.6688173714
 20
44.0912338197
 30
0.0
 10
60.6365346054
 20
44.1531056017
 30
0.0
 10
60.5989812613
 20
44.2119384824
 30
0.0
 10
60.5564428369
 20
44.2672852182
 30
0.0
 10
60.5092427177
 20
44.3187251176
 30
0.0
 10
60.457739717
 20
44.3658671794
 30
0.0
 10
60.4023253511
 20
44.4083530783
 30
0.0
 10
60.343420848
 20
44.4458598819
 30
0.0
 10
60.2814740036
 20
44.4781025042
 30
0.0
 10
60.2169555637
 20
44.5048358708
 30
0.0
 10
60.1503564491
 20
44.5258567791
 30
0.0
 10
60.0821810353
 20
44.5410054449
 30
0.0
 10
60.0129544794
 20
44.5501667059
 30
0.0
 10
59.9664345261
 20
44.5522362668
 30
0.0
 10
59.9431870342
 20
44.5522574749
 30
0.0
 11
60.7430651903
 21
43.7533538471
 31
0.0
 11
60.73996131
 21
43.8229425289
 31
0.0
 11
60.7308005422
 21
43.8920022143
 31
0.0
 11
60.7156525247
 21
43.9600079281
 31
0.0
 11
60.6946324091
 21
44.0264427071
 31
0.0
 11
60.6678999853
 21
44.09080153
 31
0.0
 11
60.6356584667
 21
44.1525951564
 31
0.0
 11
60.5981529457
 21
44.2113538458
 31
0.0
 11
60.5556685303
 21
44.2666309288
 31
0.0
 11
60.5085281766
 21
44.318006202
 31
0.0
 11
60.4570902346
 21
44.3650891231
 31
0.0
 11
60.4017457231
 21
44.4075217786
 31
0.0
 11
60.3429153578
 21
44.4449816059
 31
0.0
 11
60.2810463532
 21
44.4771838441
 31
0.0
 11
60.2166090226
 21
44.5038836995
 31
0.0
 11
60.1500932032
 21
44.5248782061
 31
0.0
 11
60.0820045325
 21
44.5400077688
 31
0.0
 11
60.0128606043
 21
44.5491573761
 31
0.0
 11
59.9431870342
 21
44.5522574749
 31
0.0
  0
SPLINE
  5
2A6
100
AcDbEntity
  8
RACCORDO
100
AcDbSpline
 62
253
  6
CONTINUOUS
 70
0
 71
3
 72
25
 73
21
 74
19
 42
0.0000001
 43
0.0000001
 44
0.0000000001
 12
0.0011476256
 22
1.2549178896
 32
0.0
 13
1.2549178921
 23
0.0011448309
 33
0.0
 40
0.0
 40
0.0
 40
0.0
 40
0.0
 40
0.0555078874
 40
0.1110211574
 40
0.1665406022
 40
0.2220668264
 40
0.2776002287
 40
0.3331409895
 40
0.3886890664
 40
0.4442441946
 40
0.4998058955
 40
0.5553734915
 40
0.6109461259
 40
0.6665227897
 40
0.7221023518
 40
0.777683593
 40
0.8332652436
 40
0.8888460215
 40
0.9444246707
 40
1.0
 40
1.0
 40
1.0
 40
1.0
 10
38.5721420988
 20
43.7533538471
 30
0.0
 10
38.5721633329
 20
43.7765731274
 30
0.0
 10
38.5742355082
 20
43.8230376054
 30
0.0
 10
38.583408276
 20
43.8921810132
 30
0.0
 10
38.5985759437
 20
43.960274454
 30
0.0
 10
38.6196231684
 20
44.026793322
 30
0.0
 10
38.6463899193
 20
44.0912338232
 30
0.0
 10
38.6786726859
 20
44.1531056054
 30
0.0
 10
38.7162260304
 20
44.2119384861
 30
0.0
 10
38.7587644552
 20
44.2672852217
 30
0.0
 10
38.8059645746
 20
44.3187251207
 30
0.0
 10
38.8574675754
 20
44.3658671822
 30
0.0
 10
38.9128819414
 20
44.4083530806
 30
0.0
 10
38.9717864443
 20
44.4458598837
 30
0.0
 10
39.0337332885
 20
44.4781025056
 30
0.0
 10
39.098251728
 20
44.5048358717
 30
0.0
 10
39.1648508421
 20
44.5258567797
 30
0.0
 10
39.2330262552
 20
44.5410054452
 30
0.0
 10
39.3022528105
 20
44.5501667059
 30
0.0
 10
39.3487727632
 20
44.5522362668
 30
0.0
 10
39.3720202549
 20
44.5522574749
 30
0.0
 11
38.5721420988
 21
43.7533538471
 31
0.0
 11
38.5752459792
 21
43.82294253
 31
0.0
 11
38.5844067473
 21
43.8920022163
 31
0.0
 11
38.5995547652
 21
43.9600079308
 31
0.0
 11
38.6205748812
 21
44.0264427103
 31
0.0
 11
38.6473073055
 21
44.0908015336
 31
0.0
 11
38.6795488245
 21
44.1525951601
 31
0.0
 11
38.717054346
 21
44.2113538495
 31
0.0
 11
38.7595387618
 21
44.2666309323
 31
0.0
 11
38.8066791157
 21
44.3180062053
 31
0.0
 11
38.8581170579
 21
44.3650891259
 31
0.0
 11
38.9134615694
 21
44.407521781
 31
0.0
 11
38.9722919346
 21
44.4449816078
 31
0.0
 11
39.0341609389
 21
44.4771838455
 31
0.0
 11
39.0985982691
 21
44.5038837004
 31
0.0
 11
39.1651140879
 21
44.5248782067
 31
0.0
 11
39.233202758
 21
44.540007769
 31
0.0
 11
39.3023466856
 21
44.5491573761
 31
0.0
 11
39.3720202549
 21
44.5522574749
 31
0.0
  0
SPLINE
  5
2A7
100
AcDbEntity
  8
RACCORDO
100
AcDbSpline
 62
253
  6
CONTINUOUS
 70
0
 71
3
 72
28
 73
24
 74
22
 42
0.0000001
 43
0.0000001
 44
0.0000000001
 12
-0.2205592075
 22
-1.4194085969
 32
0.0
 13
-0.0004811028
 23
-1.4364424449
 33
0.0
 40
0.0
 40
0.0
 40
0.0
 40
0.0
 40
0.0064487639
 40
0.0180121911
 40
0.0346408824
 40
0.0562547493
 40
0.0827478235
 40
0.1139896458
 40
0.1498258509
 40
0.190079339
 40
0.2345510351
 40
0.2830211192
 40
0.3352497528
 40
0.390978682
 40
0.4499321214
 40
0.5118186063
 40
0.5763319607
 40
0.6431531142
 40
0.711951325
 40
0.7823865577
 40
0.8541104418
 40
0.9267676979
 40
1.0
 40
1.0
 40
1.0
 40
1.0
 10
59.9431870342
 20
44.5522574749
 30
0.0
 10
59.9427129228
 20
44.5492063313
 30
0.0
 10
59.9421584145
 20
44.5405834373
 30
0.0
 10
59.9413176031
 20
44.5240282734
 30
0.0
 10
59.9405463176
 20
44.5001871003
 30
0.0
 10
59.9397369541
 20
44.4692033887
 30
0.0
 10
59.9389553413
 20
44.4312171686
 30
0.0
 10
59.9381877072
 20
44.3864207991
 30
0.0
 10
59.937446821
 20
44.3350341443
 30
0.0
 10
59.9367348062
 20
44.2773120314
 30
0.0
 10
59.9360565479
 20
44.2135398206
 30
0.0
 10
59.9354155123
 20
44.1440331081
 30
0.0
 10
59.9348151916
 20
44.0691357225
 30
0.0
 10
59.9342587026
 20
43.9892182934
 30
0.0
 10
59.9337489263
 20
43.9046761493
 30
0.0
 10
59.933288472
 20
43.815927557
 30
0.0
 10
59.9328796831
 20
43.7234115014
 30
0.0
 10
59.932524634
 20
43.627585769
 30
0.0
 10
59.9322251135
 20
43.5289243547
 30
0.0
 10
59.9319826414
 20
43.4279152805
 30
0.0
 10
59.9317984192
 20
43.3250583148
 30
0.0
 10
59.9316734009
 20
43.2208619833
 30
0.0
 10
59.9316300197
 20
43.1510080037
 30
0.0
 10
59.9316182756
 20
43.1159433414
 30
0.0
 11
59.9431870342
 21
44.5522574749
 31
0.0
 11
59.9423309073
 21
44.5430338434
 31
0.0
 11
59.9414822216
 21
44.5264453404
 31
0.0
 11
59.9406450871
 21
44.5025738551
 31
0.0
 11
59.9398237125
 21
44.4715376445
 31
0.0
 11
59.9390221357
 21
44.433490309
 31
0.0
 11
59.9382443287
 21
44.3886199678
 31
0.0
 11
59.937494139
 21
44.3371487855
 31
0.0
 11
59.9367752784
 21
44.2793314322
 31
0.0
 11
59.9360913032
 21
44.2154540585
 31
0.0
 11
59.9354455954
 21
44.1458325626
 31
0.0
 11
59.9348413505
 21
44.0708115657
 31
0.0
 11
59.9342815564
 21
43.9907621192
 31
0.0
 11
59.933768983
 21
43.9060804431
 31
0.0
 11
59.9333061646
 21
43.8171852692
 31
0.0
 11
59.9328953904
 21
43.7245164539
 31
0.0
 11
59.9325386925
 21
43.6285323701
 31
0.0
 11
59.9322378345
 21
43.5297081525
 31
0.0
 11
59.9319943062
 21
43.428532282
 31
0.0
 11
59.9318093059
 21
43.3255052108
 31
0.0
 11
59.9316837597
 21
43.221137314
 31
0.0
 11
59.9316182756
 21
43.1159433414
 31
0.0
  0
SPLINE
  5
2A8
100
AcDbEntity
  8
RACCORDO
100
AcDbSpline
 62
253
  6
CONTINUOUS
 70
0
 71
3
 72
28
 73
24
 74
22
 42
0.0000001
 43
0.0000001
 44
0.0000000001
 12
-0.2118743644
 22
-0.6362014155
 32
0.0
 13
-0.0004813612
 23
-0.6705540662
 33
0.0
 40
0.0
 40
0.0
 40
0.0
 40
0.0
 40
0.0065433143
 40
0.0181564915
 40
0.0348159796
 40
0.0564497369
 40
0.0829552476
 40
0.1142039012
 40
0.150042445
 40
0.1902945233
 40
0.234761597
 40
0.2832242588
 40
0.3354430058
 40
0.3911598696
 40
0.4500993105
 40
0.5119700706
 40
0.576466184
 40
0.6432687817
 40
0.7120473177
 40
0.7824619469
 40
0.8541644906
 40
0.9267998511
 40
1.0
 40
1.0
 40
1.0
 40
1.0
 10
60.7430651903
 20
43.7533538471
 30
0.0
 10
60.7426030701
 20
43.7519662252
 30
0.0
 10
60.7420318399
 20
43.7479165041
 30
0.0
 10
60.7412002774
 20
43.7401980892
 30
0.0
 10
60.7404234203
 20
43.729059075
 30
0.0
 10
60.7396159133
 20
43.7146017326
 30
0.0
 10
60.738833477
 20
43.6968725479
 30
0.0
 10
60.7380660467
 20
43.6759673673
 30
0.0
 10
60.7373250449
 20
43.6519862612
 30
0.0
 10
60.7366130327
 20
43.6250488319
 30
0.0
 10
60.7359347475
 20
43.5952879449
 30
0.0
 10
60.7352936989
 20
43.5628509325
 30
0.0
 10
60.7346933647
 20
43.5278982107
 30
0.0
 10
60.7341368652
 20
43.490602744
 30
0.0
 10
60.7336270802
 20
43.4511490231
 30
0.0
 10
60.7331666189
 20
43.4097322507
 30
0.0
 10
60.7327578256
 20
43.3665572986
 30
0.0
 10
60.7324027725
 20
43.3218378098
 30
0.0
 10
60.7321032532
 20
43.2757949917
 30
0.0
 10
60.7318607771
 20
43.2286565976
 30
0.0
 10
60.7316765653
 20
43.1806558638
 30
0.0
 10
60.7315515464
 20
43.1320323246
 30
0.0
 10
60.7315081769
 20
43.0994354706
 30
0.0
 10
60.7314964317
 20
43.0830739181
 30
0.0
 11
60.7430651903
 21
43.7533538471
 31
0.0
 11
60.7422092126
 21
43.7490505054
 31
0.0
 11
60.7413604855
 21
43.7413096294
 31
0.0
 11
60.7405233517
 21
43.7301699496
 31
0.0
 11
60.7397019591
 21
43.715686615
 31
0.0
 11
60.7389003711
 21
43.6979313176
 31
0.0
 11
60.7381225508
 21
43.676991842
 31
0.0
 11
60.7373723487
 21
43.652971867
 31
0.0
 11
60.7366534759
 21
43.6259902401
 31
0.0
 11
60.7359694894
 21
43.5961805014
 31
0.0
 11
60.735323771
 21
43.5636900739
 31
0.0
 11
60.7347195165
 21
43.528679786
 31
0.0
 11
60.7341597138
 21
43.4913228009
 31
0.0
 11
60.7336471333
 21
43.451804033
 31
0.0
 11
60.7331843092
 21
43.4103189142
 31
0.0
 11
60.7327735311
 21
43.3670727228
 31
0.0
 11
60.7324168305
 21
43.322279378
 31
0.0
 11
60.7321159725
 21
43.2761606205
 31
0.0
 11
60.7318724438
 21
43.2289444204
 31
0.0
 11
60.7316874489
 21
43.1808643317
 31
0.0
 11
60.7315619033
 21
43.1321585446
 31
0.0
 11
60.7314964317
 21
43.0830739181
 31
0.0
  0
SPLINE
  5
2A9
100
AcDbEntity
  8
RACCORDO
100
AcDbSpline
 62
253
  6
CONTINUOUS
 70
0
 71
3
 72
25
 73
21
 74
19
 42
0.0000001
 43
0.0000001
 44
0.0000000001
 12
0.3133119132
 22
-0.7383405445
 32
0.0
 13
0.802066571
 23
-0.0005747343
 33
0.0
 40
0.0
 40
0.0
 40
0.0
 40
0.0
 40
0.0062949894
 40
0.0193678562
 40
0.0395493178
 40
0.066784903
 40
0.100908467
 40
0.1416841228
 40
0.1888188372
 40
0.2419685086
 40
0.3007422145
 40
0.3647059501
 40
0.4333863078
 40
0.5062742622
 40
0.5828291199
 40
0.6624826501
 40
0.7446433856
 40
0.8287010766
 40
0.9140312725
 40
1.0
 40
1.0
 40
1.0
 40
1.0
 10
61.0337108574
 20
2.0620337157
 30
0.0
 10
61.0343682892
 20
2.0604844338
 30
0.0
 10
61.0399155167
 20
2.0583677148
 30
0.0
 10
61.0496116084
 20
2.0558194433
 30
0.0
 10
61.0658788845
 20
2.0532214013
 30
0.0
 10
61.0874003556
 20
2.0506034141
 30
0.0
 10
61.1146354266
 20
2.0480443286
 30
0.0
 10
61.1471524551
 20
2.0455664965
 30
0.0
 10
61.1847975993
 20
2.0431995251
 30
0.0
 10
61.2272626744
 20
2.0409636519
 30
0.0
 10
61.2742418045
 20
2.0388783329
 30
0.0
 10
61.3253826486
 20
2.036960444
 30
0.0
 10
61.3803057169
 20
2.0352252908
 30
0.0
 10
61.4386020784
 20
2.0336864492
 30
0.0
 10
61.4998380185
 20
2.0323558481
 30
0.0
 10
61.5635578113
 20
2.0312437244
 30
0.0
 10
61.6292872587
 20
2.0303585929
 30
0.0
 10
61.6965371904
 20
2.0297072062
 30
0.0
 10
61.764807102
 20
2.0292945212
 30
0.0
 10
61.8106047994
 20
2.0291807622
 30
0.0
 10
61.8335890136
 20
2.0291642925
 30
0.0
 11
61.0337108574
 21
2.0620337157
 31
0.0
 11
61.0378898397
 21
2.0592002503
 31
0.0
 11
61.047990944
 21
2.0563878733
 31
0.0
 11
61.063938991
 21
2.0536175165
 31
0.0
 11
61.0856152848
 21
2.0509097986
 31
0.0
 11
61.1128584961
 21
2.0482848723
 31
0.0
 11
61.1454658628
 21
2.045762274
 31
0.0
 11
61.1831946992
 21
2.0433607786
 31
0.0
 11
61.2257642021
 21
2.0410982596
 31
0.0
 11
61.2728575412
 21
2.0389915562
 31
0.0
 11
61.3241242164
 21
2.0370563478
 31
0.0
 11
61.3791826672
 21
2.0353070376
 31
0.0
 11
61.4376231119
 21
2.0337566451
 31
0.0
 11
61.4990105979
 21
2.0324167094
 31
0.0
 11
61.5628882388
 21
2.0312972031
 31
0.0
 11
61.6287806147
 21
2.0304064583
 31
0.0
 11
61.6961973108
 21
2.0297511046
 31
0.0
 11
61.7646365672
 21
2.0293360196
 31
0.0
 11
61.8335890136
 21
2.0291642925
 31
0.0
  0
SPLINE
  5
2AA
100
AcDbEntity
  8
RACCORDO
100
AcDbSpline
 62
253
  6
CONTINUOUS
 70
0
 71
3
 72
18
 73
14
 74
12
 42
0.0000001
 43
0.0000001
 44
0.0000000001
 12
0.0294440137
 22
41.0867719839
 32
0.0
 13
-0.0294440137
 23
41.0867719839
 33
0.0
 40
0.0
 40
0.0
 40
0.0
 40
0.0
 40
0.0908710314
 40
0.1817648976
 40
0.2726765253
 40
0.3636008402
 40
0.4545327675
 40
0.5454672325
 40
0.6363991598
 40
0.7273234747
 40
0.8182351024
 40
0.9091289686
 40
1.0
 40
1.0
 40
1.0
 40
1.0
 10
61.8335890136
 20
2.0291642925
 30
0.0
 10
61.8344808829
 20
3.2736967419
 30
0.0
 10
61.8361024635
 20
5.7630744948
 30
0.0
 10
61.8380482424
 20
9.4975410297
 30
0.0
 10
61.8395076717
 20
13.2327375358
 30
0.0
 10
61.8404806697
 20
16.9684554717
 30
0.0
 10
61.8409671824
 20
20.7044862721
 30
0.0
 10
61.8409671824
 20
24.4406213617
 30
0.0
 10
61.8404806697
 20
28.1766521621
 30
0.0
 10
61.8395076717
 20
31.912370098
 30
0.0
 10
61.8380482424
 20
35.6475666041
 30
0.0
 10
61.8361024635
 20
39.382033139
 30
0.0
 10
61.8344808829
 20
41.871410892
 30
0.0
 10
61.8335890136
 20
43.1159433414
 30
0.0
 11
61.8335890136
 21
2.0291642925
 31
0.0
 11
61.8360211468
 21
5.7627618072
 31
0.0
 11
61.8379670163
 21
9.4972978115
 31
0.0
 11
61.8394265134
 21
13.2325638036
 31
0.0
 11
61.8403995568
 21
16.96835123
 31
0.0
 11
61.840886092
 21
20.7044515243
 31
0.0
 11
61.840886092
 21
24.4406561096
 31
0.0
 11
61.8403995568
 21
28.1767564038
 31
0.0
 11
61.8394265134
 21
31.9125438302
 31
0.0
 11
61.8379670163
 21
35.6478098223
 31
0.0
 11
61.8360211468
 21
39.3823458266
 31
0.0
 11
61.8335890136
 21
43.1159433414
 31
0.0
  0
SPLINE
  5
2AB
100
AcDbEntity
  8
RACCORDO
100
AcDbSpline
 62
253
  6
CONTINUOUS
 70
0
 71
3
 72
18
 73
14
 74
12
 42
0.0000001
 43
0.0000001
 44
0.0000000001
 12
0.0294440137
 22
41.0210331261
 32
0.0
 13
-0.0294440137
 23
41.0210331261
 33
0.0
 40
0.0
 40
0.0
 40
0.0
 40
0.0
 40
0.0908710281
 40
0.1817648952
 40
0.2726765238
 40
0.3636008397
 40
0.454532768
 40
0.5454672338
 40
0.6363991622
 40
0.727323478
 40
0.8182351067
 40
0.9091289738
 40
1.0
 40
1.0
 40
1.0
 40
1.0
 10
61.0337108574
 20
2.0620337157
 30
0.0
 10
61.0346027267
 20
3.3045748665
 30
0.0
 10
61.0362243073
 20
5.7899695812
 30
0.0
 10
61.0381700862
 20
9.5184609495
 30
0.0
 10
61.0396295155
 20
13.2476811807
 30
0.0
 10
61.0406025136
 20
16.9774220074
 30
0.0
 10
61.0410890262
 20
20.707475198
 30
0.0
 10
61.0410890262
 20
24.437632511
 30
0.0
 10
61.0406025136
 20
28.1676857016
 30
0.0
 10
61.0396295155
 20
31.8974265283
 30
0.0
 10
61.0381700862
 20
35.6266467594
 30
0.0
 10
61.0362243073
 20
39.3551381026
 30
0.0
 10
61.0346027267
 20
41.8405327924
 30
0.0
 10
61.0337108574
 20
43.0830739181
 30
0.0
 11
61.0337108574
 21
2.0620337157
 31
0.0
 11
61.0361429906
 21
5.7896573347
 31
0.0
 11
61.0380888601
 21
9.5182181207
 31
0.0
 11
61.0395483573
 21
13.2475077266
 31
0.0
 11
61.0405214006
 21
16.9773179326
 31
0.0
 11
61.0410079359
 21
20.7074405058
 31
0.0
 11
61.0410079359
 21
24.4376672032
 31
0.0
 11
61.0405214006
 21
28.1677897764
 31
0.0
 11
61.0395483573
 21
31.8975999823
 31
0.0
 11
61.0380888601
 21
35.6268895881
 31
0.0
 11
61.0361429905
 21
39.3554503741
 31
0.0
 11
61.0337108574
 21
43.0830739181
 31
0.0
  0
SPLINE
  5
2AC
100
AcDbEntity
  8
RACCORDO
100
AcDbSpline
 62
253
  6
CONTINUOUS
 70
0
 71
3
 72
25
 73
21
 74
19
 42
0.0000001
 43
0.0000001
 44
0.0000000001
 12
0.3133122225
 22
0.7383404128
 32
0.0
 13
0.8020665706
 23
0.0005747341
 33
0.0
 40
0.0
 40
0.0
 40
0.0
 40
0.0
 40
0.0062949907
 40
0.0193678589
 40
0.0395493217
 40
0.0667849078
 40
0.1009084727
 40
0.141684129
 40
0.1888188437
 40
0.2419685153
 40
0.3007422212
 40
0.3647059565
 40
0.4333863139
 40
0.5062742676
 40
0.5828291247
 40
0.6624826541
 40
0.7446433886
 40
0.8287010787
 40
0.9140312735
 40
1.0
 40
1.0
 40
1.0
 40
1.0
 10
61.0337108574
 20
43.0830739181
 30
0.0
 10
61.0343682899
 20
43.0846232001
 30
0.0
 10
61.0399155178
 20
43.0867399188
 30
0.0
 10
61.0496116109
 20
43.0892881905
 30
0.0
 10
61.0658788878
 20
43.0918862323
 30
0.0
 10
61.0874003598
 20
43.0945042195
 30
0.0
 10
61.1146354314
 20
43.0970633049
 30
0.0
 10
61.1471524603
 20
43.0995411371
 30
0.0
 10
61.1847976048
 20
43.1019081083
 30
0.0
 10
61.22726268
 20
43.1041439815
 30
0.0
 10
61.27424181
 20
43.1062293004
 30
0.0
 10
61.325382654
 20
43.1081471893
 30
0.0
 10
61.3803057219
 20
43.1098823424
 30
0.0
 10
61.4386020829
 20
43.111421184
 30
0.0
 10
61.4998380225
 20
43.112751785
 30
0.0
 10
61.5635578146
 20
43.1138639087
 30
0.0
 10
61.6292872612
 20
43.1147490402
 30
0.0
 10
61.6965371922
 20
43.1154004268
 30
0.0
 10
61.7648071029
 20
43.1158131118
 30
0.0
 10
61.8106047997
 20
43.1159268707
 30
0.0
 10
61.8335890136
 20
43.1159433405
 30
0.0
 11
61.0337108574
 21
43.0830739181
 31
0.0
 11
61.037889841
 21
43.0859073836
 31
0.0
 11
61.0479909464
 21
43.0887197605
 31
0.0
 11
61.0639389944
 21
43.0914901172
 31
0.0
 11
61.0856152891
 21
43.0941978351
 31
0.0
 11
61.112858501
 21
43.0968227613
 31
0.0
 11
61.1454658681
 21
43.0993453595
 31
0.0
 11
61.1831947047
 21
43.1017468549
 31
0.0
 11
61.2257642078
 21
43.1040093738
 31
0.0
 11
61.2728575468
 21
43.1061160771
 31
0.0
 11
61.3241242218
 21
43.1080512854
 31
0.0
 11
61.3791826723
 21
43.1098005956
 31
0.0
 11
61.4376231165
 21
43.111350988
 31
0.0
 11
61.4990106019
 21
43.1126909237
 31
0.0
 11
61.5628882421
 21
43.11381043
 31
0.0
 11
61.6287806173
 21
43.1147011747
 31
0.0
 11
61.6961973125
 21
43.1153565284
 31
0.0
 11
61.7646365681
 21
43.1157716134
 31
0.0
 11
61.8335890136
 21
43.1159433405
 31
0.0
  0
SPLINE
  5
2AD
100
AcDbEntity
  8
RACCORDO
100
AcDbSpline
 62
253
  6
CONTINUOUS
 70
0
 71
3
 72
28
 73
24
 74
22
 42
0.0000001
 43
0.0000001
 44
0.0000000001
 12
-0.0004811545
 22
1.4364424453
 32
0.0
 13
-0.2205490796
 23
1.419410171
 33
0.0
 40
0.0
 40
0.0
 40
0.0
 40
0.0
 40
0.0732322839
 40
0.1458895409
 40
0.2176134279
 40
0.2880486582
 40
0.3568468711
 40
0.4236680263
 40
0.4881813806
 40
0.5500678649
 40
0.6090213052
 40
0.6647502355
 40
0.7169788697
 40
0.7654489543
 40
0.809920651
 40
0.8501741407
 40
0.886010347
 40
0.9172521697
 40
0.9437452442
 40
0.9653591131
 40
0.981987805
 40
0.9935512334
 40
1.0
 40
1.0
 40
1.0
 40
1.0
 10
61.8335890136
 20
43.1159433414
 30
0.0
 10
61.8335772682
 20
43.151007995
 30
0.0
 10
61.8335338898
 20
43.2208619663
 30
0.0
 10
61.8334088698
 20
43.325058291
 30
0.0
 10
61.8332246491
 20
43.4279152573
 30
0.0
 10
61.8329821767
 20
43.5289243329
 30
0.0
 10
61.8326826569
 20
43.6275857478
 30
0.0
 10
61.8323276081
 20
43.7234114821
 30
0.0
 10
61.8319188197
 20
43.8159275381
 30
0.0
 10
61.8314583658
 20
43.9046761306
 30
0.0
 10
61.8309485899
 20
43.9892182754
 30
0.0
 10
61.8303921013
 20
44.0691357058
 30
0.0
 10
61.8297917809
 20
44.1440330923
 30
0.0
 10
61.8291507455
 20
44.2135398057
 30
0.0
 10
61.8284724872
 20
44.2773120177
 30
0.0
 10
61.8277604726
 20
44.3350341323
 30
0.0
 10
61.8270195859
 20
44.3864207886
 30
0.0
 10
61.826251953
 20
44.4312171592
 30
0.0
 10
61.8254703368
 20
44.4692033802
 30
0.0
 10
61.8246609813
 20
44.5001870942
 30
0.0
 10
61.8238896772
 20
44.5240282668
 30
0.0
 10
61.8230489019
 20
44.5405834377
 30
0.0
 10
61.8224943448
 20
44.5492063266
 30
0.0
 10
61.8220202549
 20
44.5522574749
 30
0.0
 11
61.8335890136
 21
43.1159433414
 31
0.0
 11
61.83352353
 21
43.2211372878
 31
0.0
 11
61.8333979836
 21
43.3255051861
 31
0.0
 11
61.8332129839
 21
43.4285322613
 31
0.0
 11
61.8329694558
 21
43.5297081284
 31
0.0
 11
61.8326685984
 21
43.6285323493
 31
0.0
 11
61.8323119008
 21
43.7245164353
 31
0.0
 11
61.8319011271
 21
43.8171852506
 31
0.0
 11
61.8314383091
 21
43.9060804236
 31
0.0
 11
61.8309257362
 21
43.9907621011
 31
0.0
 11
61.8303659424
 21
44.0708115491
 31
0.0
 11
61.8297616978
 21
44.145832547
 31
0.0
 11
61.8291159902
 21
44.2154540435
 31
0.0
 11
61.8284320151
 21
44.279331418
 31
0.0
 11
61.8277131544
 21
44.3371487737
 31
0.0
 11
61.8269629647
 21
44.3886199577
 31
0.0
 11
61.8261851577
 21
44.4334902994
 31
0.0
 11
61.8253835807
 21
44.4715376355
 31
0.0
 11
61.8245622063
 21
44.502573849
 31
0.0
 11
61.8237250707
 21
44.5264453352
 31
0.0
 11
61.8228763866
 21
44.5430338399
 31
0.0
 11
61.8220202549
 21
44.5522574749
 31
0.0
  0
SPLINE
  5
2AE
100
AcDbEntity
  8
RACCORDO
100
AcDbSpline
 62
253
  6
CONTINUOUS
 70
0
 71
3
 72
28
 73
24
 74
22
 42
0.0000001
 43
0.0000001
 44
0.0000000001
 12
-0.0004813685
 22
0.6705540658
 32
0.0
 13
-0.2118766253
 23
0.6362006621
 33
0.0
 40
0.0
 40
0.0
 40
0.0
 40
0.0
 40
0.0731966812
 40
0.1458320204
 40
0.2175345643
 40
0.2879492058
 40
0.3567277782
 40
0.4235304308
 40
0.4880266173
 40
0.5498974701
 40
0.6088370269
 40
0.6645540473
 40
0.7167729925
 40
0.7652358883
 40
0.8097032201
 40
0.849955562
 40
0.8857943709
 40
0.9170432889
 40
0.9435490635
 40
0.9651830819
 40
0.981842831
 40
0.9934562521
 40
1.0
 40
1.0
 40
1.0
 40
1.0
 10
61.0337108574
 20
43.0830739181
 30
0.0
 10
61.0336991126
 20
43.0994346955
 30
0.0
 10
61.0336557455
 20
43.1320307696
 30
0.0
 10
61.0335307311
 20
43.180653529
 30
0.0
 10
61.0333465225
 20
43.2286542608
 30
0.0
 10
61.0331040494
 20
43.2757926658
 30
0.0
 10
61.0328045332
 20
43.321835507
 30
0.0
 10
61.0324494832
 20
43.3665550326
 30
0.0
 10
61.0320406929
 20
43.4097300341
 30
0.0
 10
61.0315802347
 20
43.4511468694
 30
0.0
 10
61.0310704527
 20
43.490600672
 30
0.0
 10
61.0305139559
 20
43.527896244
 30
0.0
 10
61.029913624
 20
43.5628490973
 30
0.0
 10
61.0292725773
 20
43.5952862641
 30
0.0
 10
61.0285942936
 20
43.6250473201
 30
0.0
 10
61.0278822824
 20
43.6519849253
 30
0.0
 10
61.0271412815
 20
43.6759662088
 30
0.0
 10
61.0263738514
 20
43.6968715668
 30
0.0
 10
61.0255914163
 20
43.7146009284
 30
0.0
 10
61.0247839064
 20
43.7290584459
 30
0.0
 10
61.0240070553
 20
43.7401976337
 30
0.0
 10
61.0231754714
 20
43.747916254
 30
0.0
 10
61.0226042546
 20
43.7519661349
 30
0.0
 10
61.0221420988
 20
43.7533538471
 30
0.0
 11
61.0337108574
 21
43.0830739181
 31
0.0
 11
61.0336453904
 21
43.1321562193
 31
0.0
 11
61.0335198477
 21
43.1808619921
 31
0.0
 11
61.0333348559
 21
43.2289420809
 31
0.0
 11
61.0330913302
 21
43.2761582892
 31
0.0
 11
61.0327904753
 21
43.3222770711
 31
0.0
 11
61.0324337778
 21
43.3670704528
 31
0.0
 11
61.0320230028
 21
43.4103166932
 31
0.0
 11
61.0315601818
 21
43.4518018742
 31
0.0
 11
61.0310476043
 21
43.4913207198
 31
0.0
 11
61.0304878044
 21
43.5286778099
 31
0.0
 11
61.0298835522
 21
43.5636882309
 31
0.0
 11
61.0292378357
 21
43.5961788152
 31
0.0
 11
61.0285538506
 21
43.6259887271
 31
0.0
 11
61.0278349789
 21
43.6529705309
 31
0.0
 11
61.0270847778
 21
43.6769906837
 31
0.0
 11
61.0263069581
 21
43.6979303367
 31
0.0
 11
61.0255053706
 21
43.7156858113
 31
0.0
 11
61.0246839782
 21
43.7301693212
 31
0.0
 11
61.0238468444
 21
43.7413091765
 31
0.0
 11
61.022998117
 21
43.7490502171
 31
0.0
 11
61.0221420988
 21
43.7533538471
 31
0.0
  0
SPLINE
  5
2AF
100
AcDbEntity
  8
RACCORDO
100
AcDbSpline
 62
253
  6
CONTINUOUS
 70
0
 71
3
 72
25
 73
21
 74
19
 42
0.0000001
 43
0.0000001
 44
0.0000000001
 12
0.0011476256
 22
1.2549178896
 32
0.0
 13
1.2549178921
 23
0.0011448309
 33
0.0
 40
0.0
 40
0.0
 40
0.0
 40
0.0
 40
0.0555078874
 40
0.1110211574
 40
0.1665406022
 40
0.2220668264
 40
0.2776002287
 40
0.3331409895
 40
0.3886890664
 40
0.4442441946
 40
0.4998058955
 40
0.5553734915
 40
0.6109461259
 40
0.6665227897
 40
0.7221023518
 40
0.777683593
 40
0.8332652436
 40
0.8888460215
 40
0.9444246707
 40
1.0
 40
1.0
 40
1.0
 40
1.0
 10
61.0221420988
 20
43.7533538471
 30
0.0
 10
61.0221633329
 20
43.7765731274
 30
0.0
 10
61.0242355082
 20
43.8230376054
 30
0.0
 10
61.033408276
 20
43.8921810132
 30
0.0
 10
61.0485759437
 20
43.960274454
 30
0.0
 10
61.0696231684
 20
44.026793322
 30
0.0
 10
61.0963899193
 20
44.0912338232
 30
0.0
 10
61.1286726859
 20
44.1531056054
 30
0.0
 10
61.1662260304
 20
44.2119384861
 30
0.0
 10
61.2087644552
 20
44.2672852217
 30
0.0
 10
61.2559645746
 20
44.3187251207
 30
0.0
 10
61.3074675754
 20
44.3658671822
 30
0.0
 10
61.3628819414
 20
44.4083530806
 30
0.0
 10
61.4217864443
 20
44.4458598837
 30
0.0
 10
61.4837332885
 20
44.4781025056
 30
0.0
 10
61.548251728
 20
44.5048358717
 30
0.0
 10
61.6148508421
 20
44.5258567797
 30
0.0
 10
61.6830262552
 20
44.5410054452
 30
0.0
 10
61.7522528105
 20
44.5501667059
 30
0.0
 10
61.7987727632
 20
44.5522362668
 30
0.0
 10
61.8220202549
 20
44.5522574749
 30
0.0
 11
61.0221420988
 21
43.7533538471
 31
0.0
 11
61.0252459792
 21
43.82294253
 31
0.0
 11
61.0344067473
 21
43.8920022163
 31
0.0
 11
61.0495547652
 21
43.9600079308
 31
0.0
 11
61.0705748812
 21
44.0264427104
 31
0.0
 11
61.0973073055
 21
44.0908015336
 31
0.0
 11
61.1295488245
 21
44.1525951601
 31
0.0
 11
61.167054346
 21
44.2113538495
 31
0.0
 11
61.2095387618
 21
44.2666309323
 31
0.0
 11
61.2566791157
 21
44.3180062053
 31
0.0
 11
61.3081170579
 21
44.3650891259
 31
0.0
 11
61.3634615694
 21
44.407521781
 31
0.0
 11
61.4222919346
 21
44.4449816078
 31
0.0
 11
61.4841609389
 21
44.4771838455
 31
0.0
 11
61.5485982691
 21
44.5038837004
 31
0.0
 11
61.6151140879
 21
44.5248782067
 31
0.0
 11
61.683202758
 21
44.540007769
 31
0.0
 11
61.7523466856
 21
44.5491573761
 31
0.0
 11
61.8220202549
 21
44.5522574749
 31
0.0
  0
SPLINE
  5
2B0
100
AcDbEntity
  8
RACCORDO
100
AcDbSpline
 62
253
  6
CONTINUOUS
 70
0
 71
3
 72
25
 73
21
 74
19
 42
0.0000001
 43
0.0000001
 44
0.0000000001
 12
-0.0011476256
 22
1.2549178896
 32
0.0
 13
-1.2549178921
 23
0.0011448309
 33
0.0
 40
0.0
 40
0.0
 40
0.0
 40
0.0
 40
0.0555078869
 40
0.1110211565
 40
0.1665406009
 40
0.2220668249
 40
0.2776002269
 40
0.3331409876
 40
0.3886890643
 40
0.4442441925
 40
0.4998058935
 40
0.5553734895
 40
0.6109461241
 40
0.6665227881
 40
0.7221023503
 40
0.7776835918
 40
0.8332652427
 40
0.8888460208
 40
0.9444246704
 40
1.0
 40
1.0
 40
1.0
 40
1.0
 10
83.1930651903
 20
43.7533538471
 30
0.0
 10
83.1930439562
 20
43.7765731272
 30
0.0
 10
83.1909717809
 20
43.8230376048
 30
0.0
 10
83.1817990133
 20
43.8921810121
 30
0.0
 10
83.1666313459
 20
43.9602744525
 30
0.0
 10
83.1455841213
 20
44.0267933202
 30
0.0
 10
83.1188173707
 20
44.0912338212
 30
0.0
 10
83.0865346045
 20
44.1531056033
 30
0.0
 10
83.0489812602
 20
44.211938484
 30
0.0
 10
83.0064428356
 20
44.2672852197
 30
0.0
 10
82.9592427164
 20
44.3187251189
 30
0.0
 10
82.9077397156
 20
44.3658671806
 30
0.0
 10
82.8523253497
 20
44.4083530793
 30
0.0
 10
82.7934208466
 20
44.4458598827
 30
0.0
 10
82.7314740023
 20
44.4781025048
 30
0.0
 10
82.6669555626
 20
44.5048358712
 30
0.0
 10
82.6003564482
 20
44.5258567794
 30
0.0
 10
82.5321810347
 20
44.541005445
 30
0.0
 10
82.462954479
 20
44.5501667059
 30
0.0
 10
82.416434526
 20
44.5522362668
 30
0.0
 10
82.3931870342
 20
44.5522574749
 30
0.0
 11
83.1930651903
 21
43.7533538471
 31
0.0
 11
83.18996131
 21
43.8229425294
 31
0.0
 11
83.180800542
 21
43.8920022151
 31
0.0
 11
83.1656525244
 21
43.9600079293
 31
0.0
 11
83.1446324086
 21
44.0264427085
 31
0.0
 11
83.1178999846
 21
44.0908015315
 31
0.0
 11
83.0856584658
 21
44.152595158
 31
0.0
 11
83.0481529446
 21
44.2113538474
 31
0.0
 11
83.005668529
 21
44.2666309303
 31
0.0
 11
82.9585281753
 21
44.3180062034
 31
0.0
 11
82.9070902332
 21
44.3650891243
 31
0.0
 11
82.8517457216
 21
44.4075217797
 31
0.0
 11
82.7929153564
 21
44.4449816067
 31
0.0
 11
82.7310463519
 21
44.4771838447
 31
0.0
 11
82.6666090215
 21
44.5038836999
 31
0.0
 11
82.6000932023
 21
44.5248782064
 31
0.0
 11
82.5320045319
 21
44.5400077689
 31
0.0
 11
82.462860604
 21
44.5491573761
 31
0.0
 11
82.3931870342
 21
44.5522574749
 31
0.0
  0
SPLINE
  5
2B1
100
AcDbEntity
  8
RACCORDO
100
AcDbSpline
 62
253
  6
CONTINUOUS
 70
0
 71
3
 72
28
 73
24
 74
22
 42
0.0000001
 43
0.0000001
 44
0.0000000001
 12
-0.2205490798
 22
-1.419410171
 32
0.0
 13
-0.0004811545
 23
-1.4364424453
 33
0.0
 40
0.0
 40
0.0
 40
0.0
 40
0.0
 40
0.0064487666
 40
0.018012195
 40
0.0346408869
 40
0.0562547558
 40
0.0827478303
 40
0.113989653
 40
0.1498258593
 40
0.190079349
 40
0.2345510457
 40
0.2830211303
 40
0.3352497645
 40
0.3909786948
 40
0.4499321351
 40
0.5118186194
 40
0.5763319737
 40
0.6431531289
 40
0.7119513418
 40
0.7823865721
 40
0.8541104591
 40
0.9267677161
 40
1.0
 40
1.0
 40
1.0
 40
1.0
 10
82.3931870342
 20
44.5522574749
 30
0.0
 10
82.3927129444
 20
44.5492063266
 30
0.0
 10
82.3921583872
 20
44.5405834377
 30
0.0
 10
82.3913176119
 20
44.5240282668
 30
0.0
 10
82.3905463078
 20
44.5001870942
 30
0.0
 10
82.3897369523
 20
44.4692033802
 30
0.0
 10
82.3889553361
 20
44.4312171592
 30
0.0
 10
82.3881877032
 20
44.3864207886
 30
0.0
 10
82.3874468165
 20
44.3350341323
 30
0.0
 10
82.3867348019
 20
44.2773120177
 30
0.0
 10
82.3860565437
 20
44.2135398057
 30
0.0
 10
82.3854155082
 20
44.1440330923
 30
0.0
 10
82.3848151878
 20
44.0691357058
 30
0.0
 10
82.3842586992
 20
43.9892182754
 30
0.0
 10
82.3837489234
 20
43.9046761306
 30
0.0
 10
82.3832884694
 20
43.8159275381
 30
0.0
 10
82.382879681
 20
43.7234114821
 30
0.0
 10
82.3825246323
 20
43.6275857478
 30
0.0
 10
82.3822251124
 20
43.5289243329
 30
0.0
 10
82.3819826401
 20
43.4279152573
 30
0.0
 10
82.3817984194
 20
43.325058291
 30
0.0
 10
82.3816733993
 20
43.2208619663
 30
0.0
 10
82.3816300209
 20
43.151007995
 30
0.0
 10
82.3816182756
 20
43.1159433414
 30
0.0
 11
82.3931870342
 21
44.5522574749
 31
0.0
 11
82.3923309025
 21
44.5430338399
 31
0.0
 11
82.3914822184
 21
44.5264453352
 31
0.0
 11
82.3906450828
 21
44.502573849
 31
0.0
 11
82.3898237084
 21
44.4715376355
 31
0.0
 11
82.3890221315
 21
44.4334902994
 31
0.0
 11
82.3882443245
 21
44.3886199577
 31
0.0
 11
82.3874941347
 21
44.3371487737
 31
0.0
 11
82.3867752741
 21
44.279331418
 31
0.0
 11
82.386091299
 21
44.2154540435
 31
0.0
 11
82.3854455914
 21
44.145832547
 31
0.0
 11
82.3848413467
 21
44.0708115491
 31
0.0
 11
82.384281553
 21
43.9907621011
 31
0.0
 11
82.3837689801
 21
43.9060804236
 31
0.0
 11
82.3833061621
 21
43.8171852506
 31
0.0
 11
82.3828953883
 21
43.7245164353
 31
0.0
 11
82.3825386908
 21
43.6285323493
 31
0.0
 11
82.3822378333
 21
43.5297081284
 31
0.0
 11
82.3819943052
 21
43.4285322613
 31
0.0
 11
82.3818093055
 21
43.3255051861
 31
0.0
 11
82.3816837591
 21
43.2211372878
 31
0.0
 11
82.3816182756
 21
43.1159433414
 31
0.0
  0
SPLINE
  5
2B2
100
AcDbEntity
  8
RACCORDO
100
AcDbSpline
 62
253
  6
CONTINUOUS
 70
0
 71
3
 72
28
 73
24
 74
22
 42
0.0000001
 43
0.0000001
 44
0.0000000001
 12
-0.2118766252
 22
-0.6362006622
 32
0.0
 13
-0.0004813685
 23
-0.6705540658
 33
0.0
 40
0.0
 40
0.0
 40
0.0
 40
0.0
 40
0.0065437479
 40
0.018157169
 40
0.0348169181
 40
0.0564509365
 40
0.0829567111
 40
0.1142056291
 40
0.150044438
 40
0.1902967799
 40
0.2347641117
 40
0.2832270075
 40
0.3354459527
 40
0.3911629731
 40
0.4501025299
 40
0.5119733827
 40
0.5764695692
 40
0.6432722218
 40
0.7120507942
 40
0.7824654357
 40
0.8541679796
 40
0.9268033188
 40
1.0
 40
1.0
 40
1.0
 40
1.0
 10
83.1930651903
 20
43.7533538471
 30
0.0
 10
83.1926030346
 20
43.7519661349
 30
0.0
 10
83.1920318177
 20
43.747916254
 30
0.0
 10
83.1912002338
 20
43.7401976337
 30
0.0
 10
83.1904233828
 20
43.7290584459
 30
0.0
 10
83.1896158728
 20
43.7146009284
 30
0.0
 10
83.1888334378
 20
43.6968715668
 30
0.0
 10
83.1880660076
 20
43.6759662088
 30
0.0
 10
83.1873250068
 20
43.6519849253
 30
0.0
 10
83.1866129955
 20
43.6250473201
 30
0.0
 10
83.1859347118
 20
43.5952862641
 30
0.0
 10
83.1852936651
 20
43.5628490973
 30
0.0
 10
83.1846933332
 20
43.527896244
 30
0.0
 10
83.1841368364
 20
43.490600672
 30
0.0
 10
83.1836270544
 20
43.4511468694
 30
0.0
 10
83.1831665962
 20
43.4097300341
 30
0.0
 10
83.182757806
 20
43.3665550326
 30
0.0
 10
83.1824027559
 20
43.321835507
 30
0.0
 10
83.1821032398
 20
43.2757926658
 30
0.0
 10
83.1818607666
 20
43.2286542608
 30
0.0
 10
83.181676558
 20
43.180653529
 30
0.0
 10
83.1815515437
 20
43.1320307696
 30
0.0
 10
83.1815081766
 20
43.0994346955
 30
0.0
 10
83.1814964317
 20
43.0830739181
 30
0.0
 11
83.1930651903
 21
43.7533538471
 31
0.0
 11
83.1922091721
 21
43.7490502171
 31
0.0
 11
83.1913604448
 21
43.7413091765
 31
0.0
 11
83.190523311
 21
43.7301693212
 31
0.0
 11
83.1897019185
 21
43.7156858113
 31
0.0
 11
83.1889003311
 21
43.6979303367
 31
0.0
 11
83.1881225113
 21
43.6769906837
 31
0.0
 11
83.1873723102
 21
43.6529705309
 31
0.0
 11
83.1866534386
 21
43.6259887271
 31
0.0
 11
83.1859694534
 21
43.5961788152
 31
0.0
 11
83.1853237369
 21
43.5636882309
 31
0.0
 11
83.1847194847
 21
43.5286778099
 31
0.0
 11
83.1841596848
 21
43.4913207198
 31
0.0
 11
83.1836471073
 21
43.4518018742
 31
0.0
 11
83.1831842863
 21
43.4103166932
 31
0.0
 11
83.1827735113
 21
43.3670704528
 31
0.0
 11
83.1824168138
 21
43.3222770711
 31
0.0
 11
83.1821159589
 21
43.2761582892
 31
0.0
 11
83.1818724333
 21
43.2289420809
 31
0.0
 11
83.1816874415
 21
43.1808619921
 31
0.0
 11
83.1815618988
 21
43.1321562193
 31
0.0
 11
83.1814964317
 21
43.0830739181
 31
0.0
  0
SPLINE
  5
2B3
100
AcDbEntity
  8
RACCORDO
100
AcDbSpline
 62
253
  6
CONTINUOUS
 70
0
 71
3
 72
25
 73
21
 74
19
 42
0.0000001
 43
0.0000001
 44
0.0000000001
 12
-0.3133119134
 22
0.7383405444
 32
0.0
 13
-0.802066571
 23
0.0005747343
 33
0.0
 40
0.0
 40
0.0
 40
0.0
 40
0.0
 40
0.0062949894
 40
0.0193678562
 40
0.0395493178
 40
0.066784903
 40
0.100908467
 40
0.1416841228
 40
0.1888188372
 40
0.2419685086
 40
0.3007422145
 40
0.3647059501
 40
0.4333863078
 40
0.5062742622
 40
0.5828291199
 40
0.6624826501
 40
0.7446433856
 40
0.8287010766
 40
0.9140312725
 40
1.0
 40
1.0
 40
1.0
 40
1.0
 10
83.1814964317
 20
43.0830739181
 30
0.0
 10
83.180839
 20
43.0846232001
 30
0.0
 10
83.1752917725
 20
43.0867399191
 30
0.0
 10
83.1655956807
 20
43.0892881905
 30
0.0
 10
83.1493284046
 20
43.0918862325
 30
0.0
 10
83.1278069336
 20
43.0945042197
 30
0.0
 10
83.1005718625
 20
43.0970633052
 30
0.0
 10
83.068054834
 20
43.0995411374
 30
0.0
 10
83.0304096898
 20
43.1019081087
 30
0.0
 10
82.9879446148
 20
43.104143982
 30
0.0
 10
82.9409654846
 20
43.106229301
 30
0.0
 10
82.8898246405
 20
43.1081471899
 30
0.0
 10
82.8349015723
 20
43.109882343
 30
0.0
 10
82.7766052108
 20
43.1114211847
 30
0.0
 10
82.7153692706
 20
43.1127517857
 30
0.0
 10
82.6516494779
 20
43.1138639094
 30
0.0
 10
82.5859200305
 20
43.114749041
 30
0.0
 10
82.5186700987
 20
43.1154004276
 30
0.0
 10
82.4504001871
 20
43.1158131127
 30
0.0
 10
82.4046024897
 20
43.1159268716
 30
0.0
 10
82.3816182756
 20
43.1159433414
 30
0.0
 11
83.1814964317
 21
43.0830739181
 31
0.0
 11
83.1773174494
 21
43.0859073836
 31
0.0
 11
83.1672163452
 21
43.0887197605
 31
0.0
 11
83.1512682981
 21
43.0914901174
 31
0.0
 11
83.1295920043
 21
43.0941978353
 31
0.0
 11
83.102348793
 21
43.0968227616
 31
0.0
 11
83.0697414263
 21
43.0993453599
 31
0.0
 11
83.03201259
 21
43.1017468553
 31
0.0
 11
82.989443087
 21
43.1040093742
 31
0.0
 11
82.9423497479
 21
43.1061160777
 31
0.0
 11
82.8910830727
 21
43.108051286
 31
0.0
 11
82.8360246219
 21
43.1098005962
 31
0.0
 11
82.7775841772
 21
43.1113509887
 31
0.0
 11
82.7161966912
 21
43.1126909245
 31
0.0
 11
82.6523190503
 21
43.1138104308
 31
0.0
 11
82.5864266744
 21
43.1147011755
 31
0.0
 11
82.5190099783
 21
43.1153565292
 31
0.0
 11
82.4505707219
 21
43.1157716143
 31
0.0
 11
82.3816182756
 21
43.1159433414
 31
0.0
  0
SPLINE
  5
2B4
100
AcDbEntity
  8
RACCORDO
100
AcDbSpline
 62
253
  6
CONTINUOUS
 70
0
 71
3
 72
18
 73
14
 74
12
 42
0.0000001
 43
0.0000001
 44
0.0000000001
 12
-0.0294440137
 22
-41.0867719839
 32
0.0
 13
0.0294440137
 23
-41.0867719839
 33
0.0
 40
0.0
 40
0.0
 40
0.0
 40
0.0
 40
0.0908710314
 40
0.1817648976
 40
0.2726765253
 40
0.3636008402
 40
0.4545327675
 40
0.5454672325
 40
0.6363991598
 40
0.7273234747
 40
0.8182351024
 40
0.9091289686
 40
1.0
 40
1.0
 40
1.0
 40
1.0
 10
82.3816182756
 20
43.1159433414
 30
0.0
 10
82.3807264063
 20
41.871410892
 30
0.0
 10
82.3791048256
 20
39.382033139
 30
0.0
 10
82.3771590467
 20
35.6475666041
 30
0.0
 10
82.3756996175
 20
31.912370098
 30
0.0
 10
82.3747266194
 20
28.1766521621
 30
0.0
 10
82.3742401068
 20
24.4406213617
 30
0.0
 10
82.3742401068
 20
20.7044862721
 30
0.0
 10
82.3747266194
 20
16.9684554717
 30
0.0
 10
82.3756996175
 20
13.2327375358
 30
0.0
 10
82.3771590467
 20
9.4975410297
 30
0.0
 10
82.3791048256
 20
5.7630744948
 30
0.0
 10
82.3807264063
 20
3.2736967419
 30
0.0
 10
82.3816182756
 20
2.0291642925
 30
0.0
 11
82.3816182756
 21
43.1159433414
 31
0.0
 11
82.3791861423
 21
39.3823458266
 31
0.0
 11
82.3772402728
 21
35.6478098223
 31
0.0
 11
82.3757807757
 21
31.9125438302
 31
0.0
 11
82.3748077324
 21
28.1767564038
 31
0.0
 11
82.3743211971
 21
24.4406561096
 31
0.0
 11
82.3743211971
 21
20.7044515243
 31
0.0
 11
82.3748077324
 21
16.96835123
 31
0.0
 11
82.3757807757
 21
13.2325638036
 31
0.0
 11
82.3772402728
 21
9.4972978115
 31
0.0
 11
82.3791861423
 21
5.7627618072
 31
0.0
 11
82.3816182756
 21
2.0291642925
 31
0.0
  0
SPLINE
  5
2B5
100
AcDbEntity
  8
RACCORDO
100
AcDbSpline
 62
253
  6
CONTINUOUS
 70
0
 71
3
 72
18
 73
14
 74
12
 42
0.0000001
 43
0.0000001
 44
0.0000000001
 12
-0.0294440137
 22
-41.0210331261
 32
0.0
 13
0.0294440137
 23
-41.0210331261
 33
0.0
 40
0.0
 40
0.0
 40
0.0
 40
0.0
 40
0.0908710262
 40
0.1817648933
 40
0.272676522
 40
0.3636008378
 40
0.4545327662
 40
0.545467232
 40
0.6363991603
 40
0.7273234762
 40
0.8182351048
 40
0.9091289719
 40
1.0
 40
1.0
 40
1.0
 40
1.0
 10
83.1814964317
 20
43.0830739181
 30
0.0
 10
83.1806045624
 20
41.8405327924
 30
0.0
 10
83.1789829818
 20
39.3551381026
 30
0.0
 10
83.1770372029
 20
35.6266467594
 30
0.0
 10
83.1755777736
 20
31.8974265283
 30
0.0
 10
83.1746047755
 20
28.1676857016
 30
0.0
 10
83.1741182629
 20
24.437632511
 30
0.0
 10
83.1741182629
 20
20.707475198
 30
0.0
 10
83.1746047755
 20
16.9774220074
 30
0.0
 10
83.1755777736
 20
13.2476811807
 30
0.0
 10
83.1770372029
 20
9.5184609495
 30
0.0
 10
83.1789829818
 20
5.7899695812
 30
0.0
 10
83.1806045624
 20
3.3045748665
 30
0.0
 10
83.1814964317
 20
2.0620337157
 30
0.0
 11
83.1814964317
 21
43.0830739181
 31
0.0
 11
83.1790642986
 21
39.3554503741
 31
0.0
 11
83.1771184291
 21
35.6268895881
 31
0.0
 11
83.1756589319
 21
31.8975999823
 31
0.0
 11
83.1746858885
 21
28.1677897764
 31
0.0
 11
83.1741993532
 21
24.4376672032
 31
0.0
 11
83.1741993532
 21
20.7074405058
 31
0.0
 11
83.1746858885
 21
16.9773179326
 31
0.0
 11
83.1756589319
 21
13.2475077266
 31
0.0
 11
83.177118429
 21
9.5182181207
 31
0.0
 11
83.1790642985
 21
5.7896573347
 31
0.0
 11
83.1814964317
 21
2.0620337157
 31
0.0
  0
SPLINE
  5
2B6
100
AcDbEntity
  8
RACCORDO
100
AcDbSpline
 62
253
  6
CONTINUOUS
 70
0
 71
3
 72
25
 73
21
 74
19
 42
0.0000001
 43
0.0000001
 44
0.0000000001
 12
-0.3133121085
 22
-0.7383404613
 32
0.0
 13
-0.8020665707
 23
-0.0005747341
 33
0.0
 40
0.0
 40
0.0
 40
0.0
 40
0.0
 40
0.0062949902
 40
0.0193678579
 40
0.0395493203
 40
0.0667849061
 40
0.1009084706
 40
0.1416841267
 40
0.1888188413
 40
0.2419685129
 40
0.3007422187
 40
0.3647059542
 40
0.4333863117
 40
0.5062742656
 40
0.582829123
 40
0.6624826527
 40
0.7446433875
 40
0.828701078
 40
0.9140312732
 40
1.0
 40
1.0
 40
1.0
 40
1.0
 10
83.1814964317
 20
2.0620337157
 30
0.0
 10
83.1808389995
 20
2.0604844337
 30
0.0
 10
83.1752917718
 20
2.058367715
 30
0.0
 10
83.1655956791
 20
2.0558194434
 30
0.0
 10
83.1493284025
 20
2.0532214015
 30
0.0
 10
83.1278069309
 20
2.0506034142
 30
0.0
 10
83.1005718595
 20
2.0480443288
 30
0.0
 10
83.0680548307
 20
2.0455664966
 30
0.0
 10
83.0304096863
 20
2.0431995254
 30
0.0
 10
82.9879446112
 20
2.0409636521
 30
0.0
 10
82.9409654811
 20
2.0388783332
 30
0.0
 10
82.8898246371
 20
2.0369604443
 30
0.0
 10
82.8349015691
 20
2.0352252912
 30
0.0
 10
82.7766052079
 20
2.0336864496
 30
0.0
 10
82.7153692681
 20
2.0323558485
 30
0.0
 10
82.6516494758
 20
2.0312437248
 30
0.0
 10
82.5859200288
 20
2.0303585933
 30
0.0
 10
82.5186700976
 20
2.0297072067
 30
0.0
 10
82.4504001866
 20
2.0292945217
 30
0.0
 10
82.4046024895
 20
2.0291807627
 30
0.0
 10
82.3816182756
 20
2.029164293
 30
0.0
 11
83.1814964317
 21
2.0620337157
 31
0.0
 11
83.1773174486
 21
2.0592002503
 31
0.0
 11
83.1672163436
 21
2.0563878734
 31
0.0
 11
83.151268296
 21
2.0536175165
 31
0.0
 11
83.1295920016
 21
2.0509097987
 31
0.0
 11
83.1023487899
 21
2.0482848724
 31
0.0
 11
83.069741423
 21
2.0457622742
 31
0.0
 11
83.0320125864
 21
2.0433607788
 31
0.0
 11
82.9894430834
 21
2.0410982598
 31
0.0
 11
82.9423497444
 21
2.0389915565
 31
0.0
 11
82.8910830693
 21
2.0370563481
 31
0.0
 11
82.8360246187
 21
2.035307038
 31
0.0
 11
82.7775841743
 21
2.0337566455
 31
0.0
 11
82.7161966887
 21
2.0324167098
 31
0.0
 11
82.6523190482
 21
2.0312972035
 31
0.0
 11
82.5864266728
 21
2.0304064588
 31
0.0
 11
82.5190099772
 21
2.0297511051
 31
0.0
 11
82.4505707214
 21
2.0293360201
 31
0.0
 11
82.3816182756
 21
2.029164293
 31
0.0
  0
SPLINE
  5
2B7
100
AcDbEntity
  8
RACCORDO
100
AcDbSpline
 62
253
  6
CONTINUOUS
 70
0
 71
3
 72
28
 73
24
 74
22
 42
0.0000001
 43
0.0000001
 44
0.0000000001
 12
0.0004811028
 22
-1.4364424449
 32
0.0
 13
0.2205592073
 23
-1.419408597
 33
0.0
 40
0.0
 40
0.0
 40
0.0
 40
0.0
 40
0.0732323021
 40
0.1458895582
 40
0.2176134423
 40
0.288048675
 40
0.3568468858
 40
0.4236680393
 40
0.4881813937
 40
0.5500678786
 40
0.609021318
 40
0.6647502472
 40
0.7169788808
 40
0.7654489649
 40
0.809920661
 40
0.8501741491
 40
0.8860103542
 40
0.9172521765
 40
0.9437452507
 40
0.9653591176
 40
0.9819878089
 40
0.9935512361
 40
1.0
 40
1.0
 40
1.0
 40
1.0
 10
82.3816182756
 20
2.0291642925
 30
0.0
 10
82.3816300197
 20
1.9940996301
 30
0.0
 10
82.3816734009
 20
1.9242456506
 30
0.0
 10
82.3817984192
 20
1.8200493191
 30
0.0
 10
82.3819826414
 20
1.7171923534
 30
0.0
 10
82.3822251135
 20
1.6161832791
 30
0.0
 10
82.382524634
 20
1.5175218649
 30
0.0
 10
82.3828796831
 20
1.4216961324
 30
0.0
 10
82.383288472
 20
1.3291800768
 30
0.0
 10
82.3837489263
 20
1.2404314845
 30
0.0
 10
82.3842587026
 20
1.1558893404
 30
0.0
 10
82.3848151916
 20
1.0759719113
 30
0.0
 10
82.3854155123
 20
1.0010745258
 30
0.0
 10
82.3860565479
 20
0.9315678133
 30
0.0
 10
82.3867348062
 20
0.8677956025
 30
0.0
 10
82.387446821
 20
0.8100734895
 30
0.0
 10
82.3881877072
 20
0.7586868348
 30
0.0
 10
82.3889553413
 20
0.7138904652
 30
0.0
 10
82.3897369541
 20
0.6759042451
 30
0.0
 10
82.3905463176
 20
0.6449205336
 30
0.0
 10
82.3913176031
 20
0.6210793605
 30
0.0
 10
82.3921584145
 20
0.6045241966
 30
0.0
 10
82.3927129228
 20
0.5959013026
 30
0.0
 10
82.3931870342
 20
0.5928501589
 30
0.0
 11
82.3816182756
 21
2.0291642925
 31
0.0
 11
82.3816837597
 21
1.9239703199
 31
0.0
 11
82.3818093059
 21
1.819602423
 31
0.0
 11
82.3819943062
 21
1.7165753518
 31
0.0
 11
82.3822378345
 21
1.6153994813
 31
0.0
 11
82.3825386925
 21
1.5165752637
 31
0.0
 11
82.3828953904
 21
1.42059118
 31
0.0
 11
82.3833061646
 21
1.3279223646
 31
0.0
 11
82.383768983
 21
1.2390271908
 31
0.0
 11
82.3842815564
 21
1.1543455147
 31
0.0
 11
82.3848413505
 21
1.0742960681
 31
0.0
 11
82.3854455954
 21
0.9992750712
 31
0.0
 11
82.3860913032
 21
0.9296535754
 31
0.0
 11
82.3867752784
 21
0.8657762017
 31
0.0
 11
82.387494139
 21
0.8079588483
 31
0.0
 11
82.3882443287
 21
0.7564876661
 31
0.0
 11
82.3890221357
 21
0.7116173249
 31
0.0
 11
82.3898237125
 21
0.6735699893
 31
0.0
 11
82.3906450871
 21
0.6425337787
 31
0.0
 11
82.3914822216
 21
0.6186622934
 31
0.0
 11
82.3923309073
 21
0.6020737905
 31
0.0
 11
82.3931870342
 21
0.5928501589
 31
0.0
  0
SPLINE
  5
2B8
100
AcDbEntity
  8
RACCORDO
100
AcDbSpline
 62
253
  6
CONTINUOUS
 70
0
 71
3
 72
28
 73
24
 74
22
 42
0.0000001
 43
0.0000001
 44
0.0000000001
 12
0.0004813612
 22
-0.6705540662
 32
0.0
 13
0.2118743645
 23
-0.6362014155
 33
0.0
 40
0.0
 40
0.0
 40
0.0
 40
0.0
 40
0.0732001489
 40
0.1458355094
 40
0.2175380531
 40
0.2879526823
 40
0.3567312183
 40
0.423533816
 40
0.4880299294
 40
0.5499006895
 40
0.6088401304
 40
0.6645569942
 40
0.7167757412
 40
0.765238403
 40
0.8097054767
 40
0.849957555
 40
0.8857960988
 40
0.9170447524
 40
0.9435502631
 40
0.9651840204
 40
0.9818435085
 40
0.9934566857
 40
1.0
 40
1.0
 40
1.0
 40
1.0
 10
83.1814964317
 20
2.0620337157
 30
0.0
 10
83.1815081769
 20
2.0456721632
 30
0.0
 10
83.1815515464
 20
2.0130753093
 30
0.0
 10
83.1816765653
 20
1.96445177
 30
0.0
 10
83.1818607771
 20
1.9164510363
 30
0.0
 10
83.1821032532
 20
1.8693126422
 30
0.0
 10
83.1824027725
 20
1.8232698241
 30
0.0
 10
83.1827578256
 20
1.7785503352
 30
0.0
 10
83.1831666189
 20
1.7353753831
 30
0.0
 10
83.1836270802
 20
1.6939586108
 30
0.0
 10
83.1841368652
 20
1.6545048899
 30
0.0
 10
83.1846933647
 20
1.6172094231
 30
0.0
 10
83.1852936989
 20
1.5822567014
 30
0.0
 10
83.1859347475
 20
1.549819689
 30
0.0
 10
83.1866130327
 20
1.5200588019
 30
0.0
 10
83.1873250449
 20
1.4931213727
 30
0.0
 10
83.1880660467
 20
1.4691402665
 30
0.0
 10
83.188833477
 20
1.448235086
 30
0.0
 10
83.1896159133
 20
1.4305059012
 30
0.0
 10
83.1904234203
 20
1.4160485589
 30
0.0
 10
83.1912002774
 20
1.4049095446
 30
0.0
 10
83.1920318399
 20
1.3971911298
 30
0.0
 10
83.1926030701
 20
1.3931414087
 30
0.0
 10
83.1930651903
 20
1.3917537867
 30
0.0
 11
83.1814964317
 21
2.0620337157
 31
0.0
 11
83.1815619033
 21
2.0129490892
 31
0.0
 11
83.1816874489
 21
1.9642433022
 31
0.0
 11
83.1818724438
 21
1.9161632134
 31
0.0
 11
83.1821159725
 21
1.8689470134
 31
0.0
 11
83.1824168305
 21
1.8228282558
 31
0.0
 11
83.1827735311
 21
1.778034911
 31
0.0
 11
83.1831843092
 21
1.7347887197
 31
0.0
 11
83.1836471333
 21
1.6933036008
 31
0.0
 11
83.1841597138
 21
1.6537848329
 31
0.0
 11
83.1847195165
 21
1.6164278479
 31
0.0
 11
83.185323771
 21
1.5814175599
 31
0.0
 11
83.1859694894
 21
1.5489271325
 31
0.0
 11
83.1866534759
 21
1.5191173937
 31
0.0
 11
83.1873723487
 21
1.4921357668
 31
0.0
 11
83.1881225508
 21
1.4681157918
 31
0.0
 11
83.1889003711
 21
1.4471763162
 31
0.0
 11
83.1897019591
 21
1.4294210188
 31
0.0
 11
83.1905233517
 21
1.4149376843
 31
0.0
 11
83.1913604855
 21
1.4037980044
 31
0.0
 11
83.1922092126
 21
1.3960571284
 31
0.0
 11
83.1930651903
 21
1.3917537867
 31
0.0
  0
SPLINE
  5
2B9
100
AcDbEntity
  8
RACCORDO
100
AcDbSpline
 62
253
  6
CONTINUOUS
 70
0
 71
3
 72
25
 73
21
 74
19
 42
0.0000001
 43
0.0000001
 44
0.0000000001
 12
0.0011476256
 22
-1.2549178896
 32
0.0
 13
1.2549178921
 23
-0.0011448309
 33
0.0
 40
0.0
 40
0.0
 40
0.0
 40
0.0
 40
0.0555078865
 40
0.1110211558
 40
0.1665406
 40
0.2220668237
 40
0.2776002255
 40
0.3331409861
 40
0.3886890628
 40
0.4442441909
 40
0.4998058919
 40
0.555373488
 40
0.6109461226
 40
0.6665227868
 40
0.7221023491
 40
0.7776835908
 40
0.8332652419
 40
0.8888460203
 40
0.9444246701
 40
1.0
 40
1.0
 40
1.0
 40
1.0
 10
61.0221420988
 20
1.3917537867
 30
0.0
 10
61.0221633329
 20
1.3685345068
 30
0.0
 10
61.0242355082
 20
1.3220700295
 30
0.0
 10
61.0334082757
 20
1.2529266226
 30
0.0
 10
61.048575943
 20
1.1848331825
 30
0.0
 10
61.0696231673
 20
1.118314315
 30
0.0
 10
61.0963899177
 20
1.0538738141
 30
0.0
 10
61.1286726838
 20
0.9920020322
 30
0.0
 10
61.1662260278
 20
0.9331691514
 30
0.0
 10
61.2087644523
 20
0.8778224157
 30
0.0
 10
61.2559645714
 20
0.8263825163
 30
0.0
 10
61.3074675721
 20
0.7792404545
 30
0.0
 10
61.362881938
 20
0.7367545555
 30
0.0
 10
61.4217864411
 20
0.699247752
 30
0.0
 10
61.4837332856
 20
0.6670051297
 30
0.0
 10
61.5482517254
 20
0.6402717631
 30
0.0
 10
61.6148508401
 20
0.6192508547
 30
0.0
 10
61.6830262538
 20
0.6041021889
 30
0.0
 10
61.7522528098
 20
0.594940928
 30
0.0
 10
61.798772763
 20
0.5928713671
 30
0.0
 10
61.8220202549
 20
0.5928501589
 30
0.0
 11
61.0221420988
 21
1.3917537867
 31
0.0
 11
61.0252459791
 21
1.322165105
 31
0.0
 11
61.034406747
 21
1.2531054195
 31
0.0
 11
61.0495547645
 21
1.1850997057
 31
0.0
 11
61.07057488
 21
1.1186649267
 31
0.0
 11
61.0973073038
 21
1.0543061038
 31
0.0
 11
61.1295488224
 21
0.9925124775
 31
0.0
 11
61.1670543434
 21
0.933753788
 31
0.0
 11
61.2095387589
 21
0.8784767051
 31
0.0
 11
61.2566791125
 21
0.8271014318
 31
0.0
 11
61.3081170545
 21
0.7800185108
 31
0.0
 11
61.3634615661
 21
0.7375858552
 31
0.0
 11
61.4222919313
 21
0.700126028
 31
0.0
 11
61.484160936
 21
0.6679237898
 31
0.0
 11
61.5485982666
 21
0.6412239344
 31
0.0
 11
61.6151140859
 21
0.6202294277
 31
0.0
 11
61.6832027566
 21
0.6050998651
 31
0.0
 11
61.7523466848
 21
0.5959502578
 31
0.0
 11
61.8220202549
 21
0.5928501589
 31
0.0
  0
SPLINE
  5
2BA
100
AcDbEntity
  8
RACCORDO
100
AcDbSpline
 62
253
  6
CONTINUOUS
 70
0
 71
3
 72
25
 73
21
 74
19
 42
0.0000001
 43
0.0000001
 44
0.0000000001
 12
-0.0011476256
 22
-1.2549178896
 32
0.0
 13
-1.2549178921
 23
-0.0011448309
 33
0.0
 40
0.0
 40
0.0
 40
0.0
 40
0.0
 40
0.0555078874
 40
0.1110211574
 40
0.1665406022
 40
0.2220668264
 40
0.2776002287
 40
0.3331409895
 40
0.3886890664
 40
0.4442441946
 40
0.4998058955
 40
0.5553734915
 40
0.6109461259
 40
0.6665227897
 40
0.7221023518
 40
0.777683593
 40
0.8332652436
 40
0.8888460215
 40
0.9444246707
 40
1.0
 40
1.0
 40
1.0
 40
1.0
 10
83.1930651903
 20
1.3917537867
 30
0.0
 10
83.1930439562
 20
1.3685345064
 30
0.0
 10
83.1909717809
 20
1.3220700284
 30
0.0
 10
83.1817990131
 20
1.2529266207
 30
0.0
 10
83.1666313455
 20
1.1848331798
 30
0.0
 10
83.1455841207
 20
1.1183143118
 30
0.0
 10
83.1188173698
 20
1.0538738106
 30
0.0
 10
83.0865346032
 20
0.9920020285
 30
0.0
 10
83.0489812587
 20
0.9331691478
 30
0.0
 10
83.0064428339
 20
0.8778224122
 30
0.0
 10
82.9592427145
 20
0.8263825131
 30
0.0
 10
82.9077397137
 20
0.7792404517
 30
0.0
 10
82.8523253478
 20
0.7367545532
 30
0.0
 10
82.7934208448
 20
0.6992477501
 30
0.0
 10
82.7314740006
 20
0.6670051283
 30
0.0
 10
82.6669555611
 20
0.6402717622
 30
0.0
 10
82.600356447
 20
0.6192508542
 30
0.0
 10
82.5321810339
 20
0.6041021887
 30
0.0
 10
82.4629544786
 20
0.5949409279
 30
0.0
 10
82.4164345259
 20
0.5928713671
 30
0.0
 10
82.3931870342
 20
0.5928501589
 30
0.0
 11
83.1930651903
 21
1.3917537867
 31
0.0
 11
83.1899613099
 21
1.3221651039
 31
0.0
 11
83.1808005418
 21
1.2531054176
 31
0.0
 11
83.165652524
 21
1.185099703
 31
0.0
 11
83.1446324079
 21
1.1186649235
 31
0.0
 11
83.1178999836
 21
1.0543061003
 31
0.0
 11
83.0856584646
 21
0.9925124738
 31
0.0
 11
83.0481529432
 21
0.9337537844
 31
0.0
 11
83.0056685273
 21
0.8784767016
 31
0.0
 11
82.9585281734
 21
0.8271014286
 31
0.0
 11
82.9070902312
 21
0.780018508
 31
0.0
 11
82.8517457197
 21
0.7375858528
 31
0.0
 11
82.7929153546
 21
0.7001260261
 31
0.0
 11
82.7310463502
 21
0.6679237884
 31
0.0
 11
82.66660902
 21
0.6412239334
 31
0.0
 11
82.6000932012
 21
0.6202294272
 31
0.0
 11
82.5320045311
 21
0.6050998648
 31
0.0
 11
82.4628606036
 21
0.5959502577
 31
0.0
 11
82.3931870342
 21
0.5928501589
 31
0.0
  0
SPLINE
  5
2BB
100
AcDbEntity
  8
RACCORDO
100
AcDbSpline
 62
253
  6
CONTINUOUS
 70
0
 71
3
 72
28
 73
24
 74
22
 42
0.0000001
 43
0.0000001
 44
0.0000000001
 12
0.2205592075
 22
1.4194085969
 32
0.0
 13
0.0004811028
 23
1.4364424449
 33
0.0
 40
0.0
 40
0.0
 40
0.0
 40
0.0
 40
0.0064487639
 40
0.0180121911
 40
0.0346408824
 40
0.0562547493
 40
0.0827478235
 40
0.1139896458
 40
0.1498258509
 40
0.190079339
 40
0.2345510351
 40
0.2830211192
 40
0.3352497528
 40
0.390978682
 40
0.4499321214
 40
0.5118186063
 40
0.5763319607
 40
0.6431531142
 40
0.711951325
 40
0.7823865577
 40
0.8541104418
 40
0.9267676979
 40
1.0
 40
1.0
 40
1.0
 40
1.0
 10
61.8220202549
 20
0.5928501589
 30
0.0
 10
61.8224943664
 20
0.5959013026
 30
0.0
 10
61.8230488746
 20
0.6045241966
 30
0.0
 10
61.8238896861
 20
0.6210793605
 30
0.0
 10
61.8246609715
 20
0.6449205336
 30
0.0
 10
61.825470335
 20
0.6759042451
 30
0.0
 10
61.8262519479
 20
0.7138904652
 30
0.0
 10
61.8270195819
 20
0.7586868348
 30
0.0
 10
61.8277604682
 20
0.8100734895
 30
0.0
 10
61.828472483
 20
0.8677956025
 30
0.0
 10
61.8291507412
 20
0.9315678133
 30
0.0
 10
61.8297917768
 20
1.0010745258
 30
0.0
 10
61.8303920975
 20
1.0759719113
 30
0.0
 10
61.8309485865
 20
1.1558893404
 30
0.0
 10
61.8314583628
 20
1.2404314845
 30
0.0
 10
61.8319188172
 20
1.3291800768
 30
0.0
 10
61.8323276061
 20
1.4216961324
 30
0.0
 10
61.8326826551
 20
1.5175218649
 30
0.0
 10
61.8329821756
 20
1.6161832791
 30
0.0
 10
61.8332246477
 20
1.7171923534
 30
0.0
 10
61.8334088699
 20
1.8200493191
 30
0.0
 10
61.8335338882
 20
1.9242456506
 30
0.0
 10
61.8335772695
 20
1.9940996301
 30
0.0
 10
61.8335890136
 20
2.0291642925
 30
0.0
 11
61.8220202549
 21
0.5928501589
 31
0.0
 11
61.8228763818
 21
0.6020737905
 31
0.0
 11
61.8237250675
 21
0.6186622934
 31
0.0
 11
61.824562202
 21
0.6425337787
 31
0.0
 11
61.8253835767
 21
0.6735699893
 31
0.0
 11
61.8261851534
 21
0.7116173249
 31
0.0
 11
61.8269629604
 21
0.7564876661
 31
0.0
 11
61.8277131501
 21
0.8079588483
 31
0.0
 11
61.8284320108
 21
0.8657762017
 31
0.0
 11
61.8291159859
 21
0.9296535754
 31
0.0
 11
61.8297616937
 21
0.9992750712
 31
0.0
 11
61.8303659386
 21
1.0742960681
 31
0.0
 11
61.8309257328
 21
1.1543455147
 31
0.0
 11
61.8314383061
 21
1.2390271908
 31
0.0
 11
61.8319011246
 21
1.3279223646
 31
0.0
 11
61.8323118987
 21
1.42059118
 31
0.0
 11
61.8326685967
 21
1.5165752637
 31
0.0
 11
61.8329694546
 21
1.6153994813
 31
0.0
 11
61.8332129829
 21
1.7165753518
 31
0.0
 11
61.8333979832
 21
1.819602423
 31
0.0
 11
61.8335235294
 21
1.9239703199
 31
0.0
 11
61.8335890136
 21
2.0291642925
 31
0.0
  0
SPLINE
  5
2BC
100
AcDbEntity
  8
RACCORDO
100
AcDbSpline
 62
253
  6
CONTINUOUS
 70
0
 71
3
 72
28
 73
24
 74
22
 42
0.0000001
 43
0.0000001
 44
0.0000000001
 12
0.2118743644
 22
0.6362014155
 32
0.0
 13
0.0004813612
 23
0.6705540662
 33
0.0
 40
0.0
 40
0.0
 40
0.0
 40
0.0
 40
0.0065433143
 40
0.0181564915
 40
0.0348159796
 40
0.0564497369
 40
0.0829552476
 40
0.1142039012
 40
0.150042445
 40
0.1902945233
 40
0.234761597
 40
0.2832242588
 40
0.3354430058
 40
0.3911598696
 40
0.4500993105
 40
0.5119700706
 40
0.576466184
 40
0.6432687817
 40
0.7120473177
 40
0.7824619469
 40
0.8541644906
 40
0.9267998511
 40
1.0
 40
1.0
 40
1.0
 40
1.0
 10
61.0221420988
 20
1.3917537867
 30
0.0
 10
61.022604219
 20
1.3931414087
 30
0.0
 10
61.0231754493
 20
1.3971911298
 30
0.0
 10
61.0240070117
 20
1.4049095446
 30
0.0
 10
61.0247838689
 20
1.4160485589
 30
0.0
 10
61.0255913758
 20
1.4305059012
 30
0.0
 10
61.0263738121
 20
1.448235086
 30
0.0
 10
61.0271412424
 20
1.4691402665
 30
0.0
 10
61.0278822442
 20
1.4931213727
 30
0.0
 10
61.0285942565
 20
1.5200588019
 30
0.0
 10
61.0292725416
 20
1.549819689
 30
0.0
 10
61.0299135902
 20
1.5822567014
 30
0.0
 10
61.0305139244
 20
1.6172094231
 30
0.0
 10
61.0310704239
 20
1.6545048899
 30
0.0
 10
61.0315802089
 20
1.6939586108
 30
0.0
 10
61.0320406702
 20
1.7353753831
 30
0.0
 10
61.0324494635
 20
1.7785503352
 30
0.0
 10
61.0328045166
 20
1.8232698241
 30
0.0
 10
61.0331040359
 20
1.8693126422
 30
0.0
 10
61.0333465121
 20
1.9164510363
 30
0.0
 10
61.0335307238
 20
1.96445177
 30
0.0
 10
61.0336557427
 20
2.0130753093
 30
0.0
 10
61.0336991122
 20
2.0456721632
 30
0.0
 10
61.0337108574
 20
2.0620337157
 30
0.0
 11
61.0221420988
 21
1.3917537867
 31
0.0
 11
61.0229980765
 21
1.3960571284
 31
0.0
 11
61.0238468036
 21
1.4037980044
 31
0.0
 11
61.0246839374
 21
1.4149376843
 31
0.0
 11
61.02550533
 21
1.4294210188
 31
0.0
 11
61.026306918
 21
1.4471763162
 31
0.0
 11
61.0270847384
 21
1.4681157918
 31
0.0
 11
61.0278349404
 21
1.4921357668
 31
0.0
 11
61.0285538132
 21
1.5191173937
 31
0.0
 11
61.0292377997
 21
1.5489271325
 31
0.0
 11
61.0298835181
 21
1.5814175599
 31
0.0
 11
61.0304877726
 21
1.6164278479
 31
0.0
 11
61.0310475753
 21
1.6537848329
 31
0.0
 11
61.0315601558
 21
1.6933036008
 31
0.0
 11
61.03202298
 21
1.7347887197
 31
0.0
 11
61.0324337581
 21
1.778034911
 31
0.0
 11
61.0327904587
 21
1.8228282558
 31
0.0
 11
61.0330913166
 21
1.8689470134
 31
0.0
 11
61.0333348454
 21
1.9161632134
 31
0.0
 11
61.0335198402
 21
1.9642433022
 31
0.0
 11
61.0336453858
 21
2.0129490892
 31
0.0
 11
61.0337108574
 21
2.0620337157
 31
0.0
  0
SPLINE
  5
2BD
100
AcDbEntity
  8
RACCORDO
100
AcDbSpline
 62
253
  6
CONTINUOUS
 70
0
 71
3
 72
25
 73
21
 74
19
 42
0.0000001
 43
0.0000001
 44
0.0000000001
 12
-0.0418433512
 22
0.7986619621
 32
0.0
 13
0.7986612959
 23
0.0418560649
 33
0.0
 40
0.0
 40
0.0
 40
0.0
 40
0.0
 40
0.087128138
 40
0.1735872079
 40
0.2587201755
 40
0.3418800975
 40
0.4224350448
 40
0.4997729144
 40
0.5733060921
 40
0.6424759342
 40
0.7067570341
 40
0.7656612495
 40
0.8187414655
 40
0.8655950857
 40
0.9058672664
 40
0.9392539767
 40
0.9655051825
 40
0.9844293393
 40
0.9959059157
 40
1.0
 40
1.0
 40
1.0
 40
1.0
 10
12.6855235596
 20
43.7533538471
 30
0.0
 10
12.6843083151
 20
43.776549157
 30
0.0
 10
12.681922168
 20
43.822763499
 30
0.0
 10
12.6784709544
 20
43.8916482436
 30
0.0
 10
12.6751786486
 20
43.9594816724
 30
0.0
 10
12.672070227
 20
44.0257481339
 30
0.0
 10
12.6691692463
 20
44.089943881
 30
0.0
 10
12.6664976383
 20
44.1515809429
 30
0.0
 10
12.6640755955
 20
44.2101906754
 30
0.0
 10
12.6619211757
 20
44.2653278776
 30
0.0
 10
12.6600508893
 20
44.3165723006
 30
0.0
 10
12.6584769956
 20
44.3635381011
 30
0.0
 10
12.6572155383
 20
44.4058563839
 30
0.0
 10
12.6562598759
 20
44.4432428719
 30
0.0
 10
12.6556609002
 20
44.4753003725
 30
0.0
 10
12.6552874181
 20
44.502112795
 30
0.0
 10
12.6554919911
 20
44.5225907956
 30
0.0
 10
12.6553757396
 20
44.5387598082
 30
0.0
 10
12.6566963735
 20
44.5460350017
 30
0.0
 10
12.6565267908
 20
44.5522003542
 30
0.0
 10
12.6576167197
 20
44.5522574749
 30
0.0
 11
12.6855235596
 21
43.7533538471
 31
0.0
 11
12.6819307497
 21
43.8229425294
 31
0.0
 11
12.6784713867
 21
43.8920022151
 31
0.0
 11
12.6751717679
 21
43.9600079293
 31
0.0
 11
12.6720569761
 21
44.0264427085
 31
0.0
 11
12.6691506893
 21
44.0908015315
 31
0.0
 11
12.6664750004
 21
44.152595158
 31
0.0
 11
12.6640502492
 21
44.2113538474
 31
0.0
 11
12.6618948683
 21
44.2666309303
 31
0.0
 11
12.6600252423
 21
44.3180062034
 31
0.0
 11
12.6584555836
 21
44.3650891243
 31
0.0
 11
12.6571978244
 21
44.4075217797
 31
0.0
 11
12.6562615259
 21
44.4449816067
 31
0.0
 11
12.6556538056
 21
44.4771838447
 31
0.0
 11
12.6553792833
 21
44.5038836999
 31
0.0
 11
12.6554400458
 21
44.5248782064
 31
0.0
 11
12.6558356312
 21
44.5400077689
 31
0.0
 11
12.6565630323
 21
44.5491573761
 31
0.0
 11
12.6576167197
 21
44.5522574749
 31
0.0
  0
SPLINE
  5
2BE
100
AcDbEntity
  8
RACCORDO
100
AcDbSpline
 62
253
  6
CONTINUOUS
 70
0
 71
3
 72
25
 73
21
 74
19
 42
0.0000001
 43
0.0000001
 44
0.0000000001
 12
-0.041843351
 22
-0.7986619621
 32
0.0
 13
0.7986612959
 23
-0.0418560649
 33
0.0
 40
0.0
 40
0.0
 40
0.0
 40
0.0
 40
0.0871281388
 40
0.1735872093
 40
0.2587201775
 40
0.3418800998
 40
0.4224350473
 40
0.499772917
 40
0.5733060948
 40
0.6424759367
 40
0.7067570364
 40
0.7656612515
 40
0.8187414672
 40
0.8655950871
 40
0.9058672674
 40
0.9392539774
 40
0.9655051829
 40
0.9844293395
 40
0.9959059158
 40
1.0
 40
1.0
 40
1.0
 40
1.0
 10
12.6855235596
 20
1.3917537867
 30
0.0
 10
12.6843083151
 20
1.3685584766
 30
0.0
 10
12.681922168
 20
1.3223441342
 30
0.0
 10
12.6784709544
 20
1.2534593891
 30
0.0
 10
12.6751786486
 20
1.18562596
 30
0.0
 10
12.672070227
 20
1.1193594981
 30
0.0
 10
12.6691692463
 20
1.0551637508
 30
0.0
 10
12.6664976382
 20
0.9935266888
 30
0.0
 10
12.6640755955
 20
0.9349169564
 30
0.0
 10
12.6619211757
 20
0.8797797543
 30
0.0
 10
12.6600508893
 20
0.8285353314
 30
0.0
 10
12.6584769956
 20
0.7815695312
 30
0.0
 10
12.6572155383
 20
0.7392512486
 30
0.0
 10
12.6562598759
 20
0.7018647609
 30
0.0
 10
12.6556609002
 20
0.6698072606
 30
0.0
 10
12.6552874182
 20
0.6429948383
 30
0.0
 10
12.6554919911
 20
0.6225168379
 30
0.0
 10
12.6553757396
 20
0.6063478255
 30
0.0
 10
12.6566963735
 20
0.5990726321
 30
0.0
 10
12.6565267909
 20
0.5929072797
 30
0.0
 10
12.6576167197
 20
0.5928501589
 30
0.0
 11
12.6855235596
 21
1.3917537867
 31
0.0
 11
12.6819307497
 21
1.3221651039
 31
0.0
 11
12.6784713867
 21
1.2531054176
 31
0.0
 11
12.6751717678
 21
1.185099703
 31
0.0
 11
12.6720569761
 21
1.1186649235
 31
0.0
 11
12.6691506893
 21
1.0543061003
 31
0.0
 11
12.6664750003
 21
0.9925124738
 31
0.0
 11
12.6640502492
 21
0.9337537844
 31
0.0
 11
12.6618948683
 21
0.8784767016
 31
0.0
 11
12.6600252423
 21
0.8271014286
 31
0.0
 11
12.6584555836
 21
0.780018508
 31
0.0
 11
12.6571978244
 21
0.7375858528
 31
0.0
 11
12.6562615259
 21
0.7001260261
 31
0.0
 11
12.6556538056
 21
0.6679237884
 31
0.0
 11
12.6553792833
 21
0.6412239334
 31
0.0
 11
12.6554400458
 21
0.6202294272
 31
0.0
 11
12.6558356312
 21
0.6050998648
 31
0.0
 11
12.6565630323
 21
0.5959502577
 31
0.0
 11
12.6576167197
 21
0.5928501589
 31
0.0
  0
ELLIPSE
  5
2BF
100
AcDbEntity
  8
RACCORDO
100
AcDbEllipse
 62
7
  6
CONTINUOUS
 10
38.5436963718
 20
19.4921036325
 30
0.0
 11
0.0
 21
0.5
 31
0.0
 40
0.0174550649
 41
-2.9670597284
 42
-1.5707963268
  0
ELLIPSE
  5
2C0
100
AcDbEntity
  8
RACCORDO
100
AcDbEllipse
 62
7
  6
CONTINUOUS
 10
38.5436963718
 20
25.6530040013
 30
0.0
 11
0.0
 21
0.5
 31
0.0
 40
0.0174550649
 41
-1.5707963268
 42
-0.1745329252
  0
ELLIPSE
  5
2C1
100
AcDbEntity
  8
RACCORDO
100
AcDbEllipse
 62
7
  6
CONTINUOUS
 10
60.0085402358
 20
43.9495728918
 30
0.0
 11
0.2531825638
 21
0.7601653717
 31
0.0
 40
0.9984778551
 41
-1.2488325878
 42
0.3210503505
  0
ELLIPSE
  5
2C2
100
AcDbEntity
  8
RACCORDO
100
AcDbEllipse
 62
7
  6
CONTINUOUS
 10
60.0085402358
 20
1.195534742
 30
0.0
 11
-0.2531825638
 21
0.7601653717
 31
0.0
 40
0.9984778551
 41
-3.4626430041
 42
-1.8927600658
  0
ELLIPSE
  5
2C3
100
AcDbEntity
  8
RACCORDO
100
AcDbEllipse
 62
7
  6
CONTINUOUS
 10
39.3066670533
 20
1.195534742
 30
0.0
 11
0.2531825638
 21
0.7601653717
 31
0.0
 40
0.9984778551
 41
-4.3904252414
 42
-2.8205423031
  0
ELLIPSE
  5
2C4
100
AcDbEntity
  8
RACCORDO
100
AcDbEllipse
 62
7
  6
CONTINUOUS
 10
39.3066670533
 20
43.9495728918
 30
0.0
 11
-0.2531825638
 21
0.7601653717
 31
0.0
 40
0.9984778551
 41
-0.3210503505
 42
1.2488325878
  0
ELLIPSE
  5
2C5
100
AcDbEntity
  8
DRAFT
100
AcDbEllipse
 62
7
  6
CONTINUOUS
 10
69.4379506542
 20
22.5725538169
 30
0.0
 11
0.0
 21
498.0
 31
0.0
 40
0.0174550649
 41
1.5308877529
 42
1.6108524791
  0
ELLIPSE
  5
2C6
100
AcDbEntity
  8
RACCORDO
100
AcDbEllipse
 62
7
  6
CONTINUOUS
 10
38.491331177
 20
17.9476960785
 30
0.0
 11
0.0
 21
0.5
 31
0.0
 40
0.0174550649
 41
0.1745329252
 42
1.5707963268
  0
ELLIPSE
  5
2C7
100
AcDbEntity
  8
RACCORDO
100
AcDbEllipse
 62
7
  6
CONTINUOUS
 10
38.491331177
 20
27.1974115553
 30
0.0
 11
0.0
 21
0.5
 31
0.0
 40
0.0174550649
 41
-4.7123889804
 42
-3.3161255788
  0
ELLIPSE
  5
2C8
100
AcDbEntity
  8
RACCORDO
100
AcDbEllipse
 62
7
  6
CONTINUOUS
 10
83.2215109173
 20
25.6530040013
 30
0.0
 11
0.0
 21
0.5
 31
0.0
 40
0.0174550649
 41
0.1745329252
 42
1.5707963268
  0
ELLIPSE
  5
2C9
100
AcDbEntity
  8
RACCORDO
100
AcDbEllipse
 62
7
  6
CONTINUOUS
 10
83.2215109173
 20
19.4921036325
 30
0.0
 11
0.0
 21
0.5
 31
0.0
 40
0.0174550649
 41
-4.7123889804
 42
-3.3161255788
  0
ELLIPSE
  5
2CA
100
AcDbEntity
  8
RACCORDO
100
AcDbEllipse
 62
7
  6
CONTINUOUS
 10
61.7566670533
 20
1.195534742
 30
0.0
 11
0.2531825638
 21
0.7601653717
 31
0.0
 40
0.9984778551
 41
-4.3904252414
 42
-2.8205423031
  0
ELLIPSE
  5
2CB
100
AcDbEntity
  8
RACCORDO
100
AcDbEllipse
 62
7
  6
CONTINUOUS
 10
61.7566670533
 20
43.9495728918
 30
0.0
 11
-0.2531825638
 21
0.7601653717
 31
0.0
 40
0.9984778551
 41
-0.3210503505
 42
1.2488325878
  0
ELLIPSE
  5
2CC
100
AcDbEntity
  8
RACCORDO
100
AcDbEllipse
 62
7
  6
CONTINUOUS
 10
82.4585402358
 20
43.9495728918
 30
0.0
 11
0.2531825638
 21
0.7601653717
 31
0.0
 40
0.9984778551
 41
-1.2488325878
 42
0.3210503505
  0
ELLIPSE
  5
2CD
100
AcDbEntity
  8
RACCORDO
100
AcDbEllipse
 62
7
  6
CONTINUOUS
 10
82.4585402358
 20
1.195534742
 30
0.0
 11
-0.2531825638
 21
0.7601653717
 31
0.0
 40
0.9984778551
 41
-3.4626430041
 42
-1.8927600658
  0
ELLIPSE
  5
2CE
100
AcDbEntity
  8
DRAFT
100
AcDbEllipse
 62
7
  6
CONTINUOUS
 10
52.327256635
 20
22.5725538169
 30
0.0
 11
0.0
 21
498.0
 31
0.0
 40
0.0174550649
 41
-1.6107049007
 42
-1.5307401744
  0
ELLIPSE
  5
2CF
100
AcDbEntity
  8
RACCORDO
100
AcDbEllipse
 62
7
  6
CONTINUOUS
 10
83.2738761121
 20
27.1974115553
 30
0.0
 11
0.0
 21
0.5
 31
0.0
 40
0.0174550649
 41
-2.9670597284
 42
-1.5707963268
  0
ELLIPSE
  5
2D0
100
AcDbEntity
  8
RACCORDO
100
AcDbEllipse
 62
7
  6
CONTINUOUS
 10
83.2738761121
 20
17.9476960785
 30
0.0
 11
0.0
 21
0.5
 31
0.0
 40
0.0174550649
 41
-1.5707963268
 42
-0.1745329252
  0
ELLIPSE
  5
2D1
100
AcDbEntity
  8
RACCORDO
100
AcDbEllipse
 62
7
  6
CONTINUOUS
 10
15.9151324693
 20
21.2225081185
 30
0.0
 11
0.2121966568
 21
0.2121966568
 31
0.0
 40
0.9996954599
 41
-0.7852458701
 42
0.7852458701
  0
ELLIPSE
  5
2D2
100
AcDbEntity
  8
RACCORDO
100
AcDbEllipse
 62
7
  6
CONTINUOUS
 10
15.7151020037
 20
20.5732399899
 30
0.0
 11
0.1582391023
 21
-0.4751033573
 31
-0.0
 40
0.9984778551
 41
-0.3210503505
 42
1.2488325878
  0
ELLIPSE
  5
2D3
100
AcDbEntity
  8
RACCORDO
100
AcDbEllipse
 62
7
  6
CONTINUOUS
 10
15.7151020037
 20
24.5718676439
 30
0.0
 11
-0.1582391023
 21
-0.4751033573
 31
-0.0
 40
0.9984778551
 41
1.8927600658
 42
3.4626430041
  0
ELLIPSE
  5
2D4
100
AcDbEntity
  8
RACCORDO
100
AcDbEllipse
 62
7
  6
CONTINUOUS
 10
15.9151324693
 20
23.9225995153
 30
0.0
 11
-0.2121966568
 21
0.2121966568
 31
0.0
 40
0.9996954599
 41
2.3563467834
 42
3.9268385237
  0
ENDSEC
  0
SECTION
  2
OBJECTS
  0
DICTIONARY
  5
C
100
AcDbDictionary
280
0
281
1
  3
ACAD_GROUP
350
D
  3
ACAD_MLINESTYLE
350
17
  3
ACAD_LAYOUT
350
1A
  3
ACAD_PLOTSETTINGS
350
19
  3
ACAD_PLOTSTYLENAME
350
E
  0
DICTIONARY
  5
D
102
{ACAD_REACTORS
330
C
102
}
100
AcDbDictionary
280
0
281
1
  0
ACDBDICTIONARYWDFLT
  5
E
102
{ACAD_REACTORS
330
C
102
}
100
AcDbDictionary
281
1
  3
Normal
350
F
100
AcDbDictionaryWithDefault
340
F
  0
DICTIONARY
  5
17
102
{ACAD_REACTORS
330
C
102
}
100
AcDbDictionary
280
0
281
1
  3
Standard
350
18
  0
DICTIONARY
  5
19
102
{ACAD_REACTORS
330
C
102
}
100
AcDbDictionary
281
1
  0
DICTIONARY
  5
1A
102
{ACAD_REACTORS
330
C
102
}
100
AcDbDictionary
281
1
  3
Model
350
2D5
  3
Layout1
350
2D6
  0
ACDBPLACEHOLDER
  5
F
102
{ACAD_REACTORS
330
E
102
}
  0
MLINESTYLE
  5
18
102
{ACAD_REACTORS
330
17
102
}
100
AcDbMlineStyle
  2
STANDARD
 70
0
  3

 62
256
 51
90.0
 52
90.0
 71
2
 49
0.5
 62
256
  6
BYLAYER
 49
-0.5
 62
256
  6
BYLAYER
  0
LAYOUT
  5
2D5
102
{ACAD_REACTORS
330
1A
102
}
100
AcDbPlotSettings
  1

  2
none_device
  4
ISO_A4_(297.00_x_210.00_MM)
  6

 40
0.0
 41
0.0
 42
0.0
 43
0.0
 44
297.0
 45
210.0
 46
0.0
 47
0.0
 48
0.0
 49
0.0
140
0.0
141
0.0
142
1.0
143
1.0
 70
1024
 72
1
 73
0
 74
0
  7

 75
0
147
1.0
148
0.0
149
0.0
100
AcDbLayout
  1
Model
 70
0
 71
0
 10
0.0
 20
0.0
 11
297.0
 21
210.0
 12
0.0
 22
0.0
 32
0.0
 14
0.0
 24
0.0
 34
0.0
 15
0.0
 25
0.0
 35
0.0
146
0.0
 13
0.0
 23
0.0
 33
0.0
 16
1.0
 26
0.0
 36
0.0
 17
0.0
 27
1.0
 37
0.0
 76
0
330
20F
345
0
346
0
  0
LAYOUT
  5
2D6
102
{ACAD_REACTORS
330
1A
102
}
100
AcDbPlotSettings
  1

  2
none_device
  4
ISO_A4_(297.00_x_210.00_MM)
  6

 40
0.0
 41
0.0
 42
0.0
 43
0.0
 44
297.0
 45
210.0
 46
0.0
 47
0.0
 48
0.0
 49
0.0
140
0.0
141
0.0
142
1.0
143
1.0
 70
0
 72
1
 73
0
 74
0
  7

 75
0
147
1.0
148
0.0
149
0.0
100
AcDbLayout
  1
Layout1
 70
0
 71
1
 10
0.0
 20
0.0
 11
297.0
 21
210.0
 12
0.0
 22
0.0
 32
0.0
 14
0.0
 24
0.0
 34
0.0
 15
0.0
 25
0.0
 35
0.0
146
0.0
 13
0.0
 23
0.0
 33
0.0
 16
1.0
 26
0.0
 36
0.0
 17
0.0
 27
1.0
 37
0.0
 76
0
330
210
345
0
346
0
  0
ENDSEC
  0
EOF
