  0
SECTION
  2
HEADER
  9
$ACADVER
  1
AC1024
  9
$DWGCODEPAGE
  3
ANSI_1252
  9
$EXTMAX
 10
210.0
 20
297.0
 30
0.0
  9
$EXTMIN
 10
0.0
 20
0.0
 30
0.0
  9
$LIMMIN
 10
0.0
 20
0.0
  9
$LIMMAX
 10
210.0
 20
297.0
  9
$VIEWCTR
 10
105.0
 20
148.5
  9
$VIEWSIZE
 40
297.0
  9
$CLAYER
  8
0
  9
$LTSCALE
 40
19.36
  9
$CELTYPE
  6
BYLAYER
  9
$DIMSCALE
 40
1.0
  9
$DIMASZ
 40
3.0
  9
$DIMEXO
 40
0.5
  9
$DIMDLI
 40
13.376
  9
$DIMEXE
 40
1.5
  9
$DIMCEN
 40
3.168
  9
$DIMLFAC
 40
1.0
  9
$DIMBLK
  1
_FILLED
  9
$DIMALT
 70
0
  9
$DIMALTF
 40
0.0393700787
  9
$DIMTXT
 40
3.0
  9
$DIMTOL
 70
1
  9
$DIMLIM
 70
0
  9
$DIMTFAC
 40
1.0
  9
$DIMTP
 40
0.01
  9
$DIMTM
 40
0.01
  9
$DIMGAP
 40
0.625
  9
$DIMDSEP
 70
44
  9
$AUNITS
 70
0
  9
$PDMODE
 70
3
  9
$PDSIZE
 40
3.0
  9
$HANDSEED
  5
2D1
  9
$TILEMODE
 70
1
  9
$MEASUREMENT
 70
1
  9
$INSUNITS
 70
4
  0
ENDSEC
  0
SECTION
  2
CLASSES
  0
CLASS
  1
ACDBDICTIONARYWDFLT
  2
AcDbDictionaryWithDefault
  3
AutoCAD 2000
 90
0
 91
1
280
0
281
0
  0
CLASS
  1
ACDBPLACEHOLDER
  2
AcDbPlaceHolder
  3
AutoCAD 2000
 90
0
 91
1
280
0
281
0
  0
CLASS
  1
LAYOUT
  2
AcDbLayout
  3
AutoCAD 2000
 90
0
 91
0
280
0
281
0
  0
ENDSEC
  0
SECTION
  2
TABLES
  0
TABLE
  2
VPORT
  5
8
100
AcDbSymbolTable
 70
2
  0
VPORT
  5
1F4
100
AcDbSymbolTableRecord
100
AcDbViewportTableRecord
  2
*ACTIVE
 70
0
 10
0.0
 20
0.0
 11
1.0
 21
1.0
 12
105.0
 22
148.5
 13
0.0
 23
0.0
 14
1.0
 24
1.0
 15
0.0
 25
0.0
 16
0.0
 26
0.0
 36
1.0
 17
0.0
 27
0.0
 37
0.0
 40
297.0
 41
0.7070707071
 42
50.0
 43
0.0
 44
0.0
 50
0.0
 51
0.0
 71
0
 72
100
 73
1
 74
1
 75
0
 76
0
 77
0
 78
0
  0
ENDTAB
  0
TABLE
  2
LTYPE
  5
5
100
AcDbSymbolTable
 70
6
  0
LTYPE
  5
14
100
AcDbSymbolTableRecord
100
AcDbLinetypeTableRecord
  2
BYBLOCK
 70
0
  3

 72
65
 73
0
 40
0.0
  0
LTYPE
  5
15
100
AcDbSymbolTableRecord
100
AcDbLinetypeTableRecord
  2
BYLAYER
 70
0
  3

 72
65
 73
0
 40
0.0
  0
LTYPE
  5
16
100
AcDbSymbolTableRecord
100
AcDbLinetypeTableRecord
  2
CONTINUOUS
 70
64
  3
Solid line
 72
65
 73
0
 40
0.0
  0
LTYPE
  5
1F5
100
AcDbSymbolTableRecord
100
AcDbLinetypeTableRecord
  2
CENTER
 70
64
  3
____ _ ____ _ ____ _ ____ _ ____ _ ____ _ ____
 72
65
 73
4
 40
0.6
 49
0.375
 74
0
 49
-0.075
 74
0
 49
0.075
 74
0
 49
-0.075
 74
0
  0
LTYPE
  5
1F6
100
AcDbSymbolTableRecord
100
AcDbLinetypeTableRecord
  2
HIDDEN
 70
64
  3
- - - - - - - - - - - - - - - - - - - -
 72
65
 73
2
 40
0.2
 49
0.1
 74
0
 49
-0.1
 74
0
  0
LTYPE
  5
1F7
100
AcDbSymbolTableRecord
100
AcDbLinetypeTableRecord
  2
PHANTOM
 70
64
  3
_____ _ _ _____ _ _ _____ _ _ _____
 72
65
 73
6
 40
0.8
 49
0.45
 74
0
 49
-0.05
 74
0
 49
0.1
 74
0
 49
-0.05
 74
0
 49
0.1
 74
0
 49
-0.05
 74
0
  0
LTYPE
  5
1F8
100
AcDbSymbolTableRecord
100
AcDbLinetypeTableRecord
  2
DOT
 70
64
  3
. . . . . . . . . . . . . . . . . . . .
 72
65
 73
2
 40
0.2
 49
0.1
 74
0
 49
-0.1
 74
0
  0
LTYPE
  5
1F9
100
AcDbSymbolTableRecord
100
AcDbLinetypeTableRecord
  2
DASHED
 70
64
  3
- - - - - - - - - - - - - - - - - - - -
 72
65
 73
2
 40
0.2
 49
0.1
 74
0
 49
-0.1
 74
0
  0
ENDTAB
  0
TABLE
  2
LAYER
  5
2
100
AcDbSymbolTable
 70
36
  0
LAYER
  5
10
100
AcDbSymbolTableRecord
100
AcDbLayerTableRecord
  2
0
 70
0
 62
7
  6
CONTINUOUS
370
-3
390
F
  0
LAYER
  5
1FA
100
AcDbSymbolTableRecord
100
AcDbLayerTableRecord
  2
DEFAULT_1
 70
0
 62
7
  6
CENTER
370
-3
390
F
  0
LAYER
  5
1FB
100
AcDbSymbolTableRecord
100
AcDbLayerTableRecord
  2
DEFAULT_2
 70
0
 62
7
  6
HIDDEN
370
-3
390
F
  0
LAYER
  5
1FC
100
AcDbSymbolTableRecord
100
AcDbLayerTableRecord
  2
DEFAULT_3
 70
0
 62
7
  6
PHANTOM
370
-3
390
F
  0
LAYER
  5
1FD
100
AcDbSymbolTableRecord
100
AcDbLayerTableRecord
  2
ASSI
 70
0
 62
7
  6
CONTINUOUS
370
-3
390
F
  0
LAYER
  5
1FE
100
AcDbSymbolTableRecord
100
AcDbLayerTableRecord
  2
COORDINATE
 70
0
 62
7
  6
CONTINUOUS
370
-3
390
F
  0
LAYER
  5
1FF
100
AcDbSymbolTableRecord
100
AcDbLayerTableRecord
  2
COORD_ORIGINE
 70
0
 62
7
  6
CONTINUOUS
370
-3
390
F
  0
LAYER
  5
200
100
AcDbSymbolTableRecord
100
AcDbLayerTableRecord
  2
COSMETICI
 70
0
 62
7
  6
CONTINUOUS
370
-3
390
F
  0
LAYER
  5
201
100
AcDbSymbolTableRecord
100
AcDbLayerTableRecord
  2
CURVE
 70
0
 62
7
  6
CONTINUOUS
370
-3
390
F
  0
LAYER
  5
202
100
AcDbSymbolTableRecord
100
AcDbLayerTableRecord
  2
CURVE_LED_TASTO
 70
0
 62
7
  6
CONTINUOUS
370
-3
390
F
  0
LAYER
  5
203
100
AcDbSymbolTableRecord
100
AcDbLayerTableRecord
  2
DRAFT
 70
0
 62
7
  6
CONTINUOUS
370
-3
390
F
  0
LAYER
  5
204
100
AcDbSymbolTableRecord
100
AcDbLayerTableRecord
  2
IGES_SCRITTE
 70
0
 62
7
  6
CONTINUOUS
370
-3
390
F
  0
LAYER
  5
205
100
AcDbSymbolTableRecord
100
AcDbLayerTableRecord
  2
INTF_1
 70
0
 62
7
  6
CONTINUOUS
370
-3
390
F
  0
LAYER
  5
206
100
AcDbSymbolTableRecord
100
AcDbLayerTableRecord
  2
INTF_11
 70
0
 62
7
  6
CONTINUOUS
370
-3
390
F
  0
LAYER
  5
207
100
AcDbSymbolTableRecord
100
AcDbLayerTableRecord
  2
NOTE
 70
0
 62
7
  6
CONTINUOUS
370
-3
390
F
  0
LAYER
  5
208
100
AcDbSymbolTableRecord
100
AcDbLayerTableRecord
  2
PIANI
 70
0
 62
7
  6
CONTINUOUS
370
-3
390
F
  0
LAYER
  5
209
100
AcDbSymbolTableRecord
100
AcDbLayerTableRecord
  2
PIANI_ORIGINE
 70
0
 62
7
  6
CONTINUOUS
370
-3
390
F
  0
LAYER
  5
20A
100
AcDbSymbolTableRecord
100
AcDbLayerTableRecord
  2
PIANI_RIFERIMENTO
 70
0
 62
7
  6
CONTINUOUS
370
-3
390
F
  0
LAYER
  5
20B
100
AcDbSymbolTableRecord
100
AcDbLayerTableRecord
  2
PUNTI
 70
0
 62
7
  6
CONTINUOUS
370
-3
390
F
  0
LAYER
  5
20C
100
AcDbSymbolTableRecord
100
AcDbLayerTableRecord
  2
RACCORDO
 70
0
 62
7
  6
CONTINUOUS
370
-3
390
F
  0
LAYER
  5
20D
100
AcDbSymbolTableRecord
100
AcDbLayerTableRecord
  2
RGB____0____0____0__
 70
0
 62
7
  6
CONTINUOUS
370
-3
390
F
  0
LAYER
  5
20E
100
AcDbSymbolTableRecord
100
AcDbLayerTableRecord
  2
SIMBOLI
 70
0
 62
7
  6
CONTINUOUS
370
-3
390
F
  0
LAYER
  5
20F
100
AcDbSymbolTableRecord
100
AcDbLayerTableRecord
  2
SMUSSO
 70
0
 62
7
  6
CONTINUOUS
370
-3
390
F
  0
LAYER
  5
210
100
AcDbSymbolTableRecord
100
AcDbLayerTableRecord
  2
SUPERFICI
 70
0
 62
7
  6
CONTINUOUS
370
-3
390
F
  0
LAYER
  5
211
100
AcDbSymbolTableRecord
100
AcDbLayerTableRecord
  2
TRASH
 70
0
 62
7
  6
CONTINUOUS
370
-3
390
F
  0
ENDTAB
  0
TABLE
  2
STYLE
  5
3
100
AcDbSymbolTable
 70
1
  0
STYLE
  5
11
100
AcDbSymbolTableRecord
100
AcDbTextStyleTableRecord
  2
STANDARD
 70
0
 40
0.0
 41
0.8
 50
0.0
 71
0
 42
0.2
  3
txt
  4

  0
STYLE
  5
212
100
AcDbSymbolTableRecord
100
AcDbTextStyleTableRecord
  2
TEXTSTYLE_1
 70
0
 40
0.0
 41
0.8
 50
0.0
 71
0
 42
0.2
  3
gdt
  4

  0
ENDTAB
  0
TABLE
  2
VIEW
  5
6
100
AcDbSymbolTable
 70
0
  0
ENDTAB
  0
TABLE
  2
UCS
  5
7
100
AcDbSymbolTable
 70
0
  0
ENDTAB
  0
TABLE
  2
APPID
  5
9
100
AcDbSymbolTable
 70
1
  0
APPID
  5
213
100
AcDbSymbolTableRecord
100
AcDbRegAppTableRecord
  2
ACAD
 70
0
  0
ENDTAB
  0
TABLE
  2
BLOCK_RECORD
  5
1
100
AcDbSymbolTable
 70
0
  0
BLOCK_RECORD
  5
214
100
AcDbSymbolTableRecord
100
AcDbBlockTableRecord
  2
*Model_Space
  0
BLOCK_RECORD
  5
215
100
AcDbSymbolTableRecord
100
AcDbBlockTableRecord
  2
*Paper_Space
  0
BLOCK_RECORD
  5
216
100
AcDbSymbolTableRecord
100
AcDbBlockTableRecord
  2
_FILLED
  0
BLOCK_RECORD
  5
217
100
AcDbSymbolTableRecord
100
AcDbBlockTableRecord
  2
*D0
  0
BLOCK_RECORD
  5
218
100
AcDbSymbolTableRecord
100
AcDbBlockTableRecord
  2
*D1
  0
BLOCK_RECORD
  5
219
100
AcDbSymbolTableRecord
100
AcDbBlockTableRecord
  2
*D2
  0
ENDTAB
  0
TABLE
  2
DIMSTYLE
  5
A
100
AcDbSymbolTable
 70
1
100
AcDbDimStyleTable
 71
0
  0
DIMSTYLE
105
21A
100
AcDbSymbolTableRecord
100
AcDbDimStyleTableRecord
  2
STANDARD
 70
0
  3

  4

 40
1.0
 41
3.0
 42
0.5
 43
0.38
 44
1.5
 45
0.0
 46
0.0
 47
0.01
 48
0.01
140
3.0
141
0.09
142
0.0
143
25.4
144
1.0
145
0.0
146
1.0
147
0.625
 71
1
 72
0
 73
0
 74
0
 75
0
 76
0
 77
1
 78
8
 79
2
170
0
171
1
172
0
173
0
174
0
175
0
176
0
177
0
178
0
270
2
179
2
271
2
272
2
273
2
274
2
275
0
280
0
281
0
282
0
283
1
284
8
285
0
286
0
287
3
288
0
340
11
278
44
341
216
342
216
343
216
344
216
  0
DIMSTYLE
105
21B
100
AcDbSymbolTableRecord
100
AcDbDimStyleTableRecord
  2
DIMSTYLE_1
 70
0
  3

  4

 40
1.0
 41
3.0
 42
0.5
 43
0.38
 44
1.5
 45
0.0
 46
0.0
 47
0.0
 48
0.0
140
3.0
141
0.09
142
0.0
143
25.4
144
1.0
145
0.0
146
1.0
147
0.75
 71
0
 72
0
 73
0
 74
0
 75
0
 76
0
 77
1
 78
8
 79
2
170
0
171
1
172
0
173
0
174
0
175
0
176
0
177
0
178
0
270
2
179
2
271
1
272
1
273
2
274
2
275
0
280
0
281
0
282
0
283
1
284
8
285
0
286
0
287
3
288
0
340
11
278
44
341
216
342
216
343
216
344
216
  0
DIMSTYLE
105
21C
100
AcDbSymbolTableRecord
100
AcDbDimStyleTableRecord
  2
DIMSTYLE_2
 70
0
  3

  4

 40
1.0
 41
3.0
 42
0.5
 43
0.38
 44
1.5
 45
0.0
 46
0.0
 47
0.0
 48
0.0
140
3.0
141
0.09
142
0.0
143
25.4
144
1.0
145
0.0
146
1.0
147
0.75
 71
0
 72
0
 73
0
 74
0
 75
0
 76
0
 77
1
 78
8
 79
2
170
0
171
1
172
0
173
0
174
0
175
0
176
0
177
0
178
0
270
2
179
2
271
2
272
2
273
2
274
2
275
0
280
0
281
0
282
0
283
1
284
8
285
0
286
0
287
3
288
0
340
11
278
44
341
216
342
216
343
216
344
216
  0
ENDTAB
  0
ENDSEC
  0
SECTION
  2
BLOCKS
  0
BLOCK
  5
20
100
AcDbEntity
  8
0
100
AcDbBlockBegin
  2
*Model_Space
 70
0
 10
0.0
 20
0.0
 30
0.0
  3
*Model_Space
  1

  0
ENDBLK
  5
21
100
AcDbEntity
  8
0
100
AcDbBlockEnd
  0
BLOCK
  5
1C
100
AcDbEntity
  8
0
100
AcDbBlockBegin
  2
*Paper_Space
 70
0
 10
0.0
 20
0.0
 30
0.0
  3
*Paper_Space
  1

  0
ENDBLK
  5
1D
100
AcDbEntity
  8
0
100
AcDbBlockEnd
  0
BLOCK
  5
21D
100
AcDbEntity
  8
0
100
AcDbBlockBegin
  2
_FILLED
 70
64
 10
0.0
 20
0.0
  3
_FILLED
  1

  0
SOLID
  5
21E
100
AcDbEntity
  8
0
  6
BYBLOCK
 62
0
100
AcDbTrace
 10
0.0
 20
0.0
 11
-1.0
 21
0.3166666667
 12
-1.0
 22
-0.3166666667
 13
-1.0
 23
-0.3166666667
  0
ENDBLK
  5
21F
100
AcDbEntity
  8
0
  6
BYBLOCK
 62
0
100
AcDbBlockEnd
  0
BLOCK
  5
220
100
AcDbEntity
  8
0
100
AcDbBlockBegin
 62
7
  6
CONTINUOUS
  2
*D0
 70
65
 10
0.0
 20
0.0
  3
*D0
  1

  0
LINE
  5
221
100
AcDbEntity
  8
0
100
AcDbLine
 62
7
  6
CONTINUOUS
 10
22.389526961
 20
4.541834413
 11
22.389526961
 21
32.8919780878
  0
LINE
  5
222
100
AcDbEntity
  8
0
100
AcDbLine
 62
7
  6
CONTINUOUS
 10
-22.389526961
 20
4.541834413
 11
-22.389526961
 21
32.8919780878
  0
LINE
  5
223
100
AcDbEntity
  8
0
100
AcDbLine
 62
7
  6
CONTINUOUS
 10
22.389526961
 20
31.3919780878
 11
0.0
 21
31.3919780878
  0
LINE
  5
224
100
AcDbEntity
  8
0
100
AcDbLine
 62
7
  6
CONTINUOUS
 10
-22.389526961
 20
31.3919780878
 11
0.0
 21
31.3919780878
  0
INSERT
  5
225
100
AcDbEntity
  8
0
100
AcDbBlockReference
 62
7
  6
CONTINUOUS
  2
_FILLED
 10
22.389526961
 20
31.3919780878
 41
3.0
 42
3.0
 43
3.0
 50
0.0
  0
INSERT
  5
226
100
AcDbEntity
  8
0
100
AcDbBlockReference
 62
7
  6
CONTINUOUS
  2
_FILLED
 10
-22.389526961
 20
31.3919780878
 41
3.0
 42
3.0
 43
3.0
 50
180.0
  0
ENDBLK
  5
227
100
AcDbEntity
  8
0
  6
BYBLOCK
 62
0
100
AcDbBlockEnd
  0
BLOCK
  5
228
100
AcDbEntity
  8
0
100
AcDbBlockBegin
 62
7
  6
CONTINUOUS
  2
*D1
 70
65
 10
0.0
 20
0.0
  3
*D1
  1

  0
LINE
  5
229
100
AcDbEntity
  8
0
100
AcDbLine
 62
7
  6
CONTINUOUS
 10
-22.0766674133
 20
-22.1781169517
 11
-34.3663038772
 21
-22.1781169517
  0
LINE
  5
22A
100
AcDbEntity
  8
0
100
AcDbLine
 62
7
  6
CONTINUOUS
 10
-22.0766674133
 20
22.1781169517
 11
-34.3663038772
 21
22.1781169517
  0
LINE
  5
22B
100
AcDbEntity
  8
0
100
AcDbLine
 62
7
  6
CONTINUOUS
 10
-32.8663038772
 20
-22.1781169517
 11
-32.8663038772
 21
0.0
  0
LINE
  5
22C
100
AcDbEntity
  8
0
100
AcDbLine
 62
7
  6
CONTINUOUS
 10
-32.8663038772
 20
22.1781169517
 11
-32.8663038772
 21
0.0
  0
INSERT
  5
22D
100
AcDbEntity
  8
0
100
AcDbBlockReference
 62
7
  6
CONTINUOUS
  2
_FILLED
 10
-32.8663038772
 20
-22.1781169517
 41
3.0
 42
3.0
 43
3.0
 50
270.0
  0
INSERT
  5
22E
100
AcDbEntity
  8
0
100
AcDbBlockReference
 62
7
  6
CONTINUOUS
  2
_FILLED
 10
-32.8663038772
 20
22.1781169517
 41
3.0
 42
3.0
 43
3.0
 50
90.0
  0
ENDBLK
  5
22F
100
AcDbEntity
  8
0
  6
BYBLOCK
 62
0
100
AcDbBlockEnd
  0
BLOCK
  5
230
100
AcDbEntity
  8
0
100
AcDbBlockBegin
 62
7
  6
CONTINUOUS
  2
*D2
 70
65
 10
0.0
 20
0.0
  3
*D2
  1

  0
LINE
  5
231
100
AcDbEntity
  8
0
100
AcDbLine
 62
7
  6
CONTINUOUS
 10
50.6927436062
 20
0.5
 11
50.6927436062
 21
33.0103952677
  0
LINE
  5
232
100
AcDbEntity
  8
0
100
AcDbLine
 62
7
  6
CONTINUOUS
 10
43.6927436062
 20
8.0
 11
43.6927436062
 21
33.0103952677
  0
LINE
  5
233
100
AcDbEntity
  8
0
100
AcDbLine
 62
7
  6
CONTINUOUS
 10
50.6927436062
 20
31.5103952677
 11
54.6927436062
 21
31.5103952677
  0
LINE
  5
234
100
AcDbEntity
  8
0
100
AcDbLine
 62
7
  6
CONTINUOUS
 10
54.6927436062
 20
31.5103952677
 11
47.1927436062
 21
31.5103952677
  0
LINE
  5
235
100
AcDbEntity
  8
0
100
AcDbLine
 62
7
  6
CONTINUOUS
 10
43.6927436062
 20
31.5103952677
 11
39.6927436062
 21
31.5103952677
  0
LINE
  5
236
100
AcDbEntity
  8
0
100
AcDbLine
 62
7
  6
CONTINUOUS
 10
39.6927436062
 20
31.5103952677
 11
47.1927436062
 21
31.5103952677
  0
INSERT
  5
237
100
AcDbEntity
  8
0
100
AcDbBlockReference
 62
7
  6
CONTINUOUS
  2
_FILLED
 10
50.6927436062
 20
31.5103952677
 41
3.0
 42
3.0
 43
3.0
 50
180.0
  0
INSERT
  5
238
100
AcDbEntity
  8
0
100
AcDbBlockReference
 62
7
  6
CONTINUOUS
  2
_FILLED
 10
43.6927436062
 20
31.5103952677
 41
3.0
 42
3.0
 43
3.0
  0
ENDBLK
  5
239
100
AcDbEntity
  8
0
  6
BYBLOCK
 62
0
100
AcDbBlockEnd
  0
ENDSEC
  0
SECTION
  2
ENTITIES
  0
DIMENSION
  5
23A
100
AcDbEntity
  8
0
100
AcDbDimension
 62
7
  6
CONTINUOUS
  2
*D0
 10
-22.389526961
 20
31.3919780878
 11
-4.3928571429
 21
31.3919780878
 70
160
 71
2
 72
2
 41
0.9
 42
44.7790539221
  3
DIMSTYLE_1
100
AcDbAlignedDimension
 13
22.389526961
 23
4.041834413
 14
-22.389526961
 24
4.041834413
 50
180.0
100
AcDbRotatedDimension
  0
DIMENSION
  5
23B
100
AcDbEntity
  8
0
100
AcDbDimension
 62
7
  6
CONTINUOUS
  2
*D1
 10
-32.8663038772
 20
22.1781169517
 11
-32.8663038772
 21
-4.3928571429
 70
160
 71
2
 72
2
 41
0.9
 42
44.3562339034
  3
DIMSTYLE_1
100
AcDbAlignedDimension
 13
-21.5766674133
 23
-22.1781169517
 14
-21.5766674133
 24
22.1781169517
 50
90.0
100
AcDbRotatedDimension
  0
DIMENSION
  5
23C
100
AcDbEntity
  8
0
100
AcDbDimension
 62
7
  6
CONTINUOUS
  2
*D2
 10
43.6927436062
 20
31.5103952677
 11
46.0141721776
 21
31.5103952677
 70
160
 71
2
 72
2
 41
0.9
 42
7.0
  3
DIMSTYLE_2
100
AcDbAlignedDimension
 13
50.6927436062
 23
0.0
 14
43.6927436062
 24
7.5
 50
180.0
100
AcDbRotatedDimension
  0
LWPOLYLINE
  5
23D
100
AcDbEntity
  8
0
100
AcDbPolyline
 62
7
  6
CONTINUOUS
 90
3
 70
0
 43
0.3500000019
 10
-34.2591621094
 20
3.5357141418
 10
-34.2591621094
 20
2.0357143555
 10
-36.6163041992
 20
2.6785715027
  0
LWPOLYLINE
  5
23E
100
AcDbEntity
  8
0
100
AcDbPolyline
 62
7
  6
CONTINUOUS
 90
3
 70
0
 43
0.3500000019
 10
-34.2591621094
 20
-0.5357142754
 10
-34.2591621094
 20
-2.0357143555
 10
-36.6163041992
 20
-1.3928571243
  0
LWPOLYLINE
  5
23F
100
AcDbEntity
  8
0
100
AcDbPolyline
 62
7
  6
CONTINUOUS
 90
3
 70
0
 43
0.3500000019
 10
-34.2591621094
 20
-2.8928569946
 10
-34.2591621094
 20
-4.3928571167
 10
-36.6163041992
 20
-3.7499999695
  0
LWPOLYLINE
  5
240
100
AcDbEntity
  8
RACCORDO
100
AcDbPolyline
 62
250
  6
CONTINUOUS
 90
13
 70
0
 10
-22.2988927871
 20
20.5105201012
 10
-22.2947133192
 20
20.5133535424
 10
-22.2846117903
 20
20.5161658931
 10
-22.2686633819
 20
20.5189362221
 10
-22.2469867915
 20
20.5216439109
 10
-22.2197433493
 20
20.5242688073
 10
-22.187135817
 20
20.5267913752
 10
-22.1494068793
 20
20.5291928403
 10
-22.1068373373
 20
20.5314553294
 10
-22.0597440188
 20
20.5335620038
 10
-22.0084774202
 20
20.5354971842
 10
-21.953419098
 20
20.537246468
 10
-21.8949788289
 20
20.5387968359
  0
LWPOLYLINE
  5
241
100
AcDbEntity
  8
RACCORDO
100
AcDbPolyline
 62
250
  6
CONTINUOUS
 90
14
 70
0
 10
-22.2988927871
 20
-20.5105201012
 10
-22.2947138048
 20
-20.5133535667
 10
-22.2846127005
 20
-20.5161659436
 10
-22.2686646535
 20
-20.5189363004
 10
-22.2469883596
 20
-20.5216440182
 10
-22.2197451483
 20
-20.5242689445
 10
-22.1871377816
 20
-20.5267915427
 10
-22.1494089452
 20
-20.529193038
 10
-22.1068394423
 20
-20.5314555569
 10
-22.0597461032
 20
-20.5335622602
 10
-22.008479428
 20
-20.5354974684
 10
-21.9534209772
 20
-20.5372467785
 10
-21.8949805326
 20
-20.5387971709
 10
-21.7697154057
 20
-20.5412566127
  0
LWPOLYLINE
  5
242
100
AcDbEntity
  8
RACCORDO
100
AcDbPolyline
 62
250
  6
CONTINUOUS
 90
19
 70
0
 10
-22.3104615458
 20
-21.1808000302
 10
-22.3073577086
 20
-21.250388223
 10
-22.2981970576
 20
-21.3194474936
 10
-22.2830492124
 20
-21.3874528743
 10
-22.2620293055
 20
-21.4538874067
 10
-22.2352971079
 20
-21.5182460701
 10
-22.2030558159
 20
-21.58003962
 10
-22.1655505036
 20
-21.6387983128
 10
-22.1230662635
 20
-21.6940754703
 10
-22.0759260422
 20
-21.745450875
 10
-22.0244881768
 20
-21.7925339742
 10
-21.9691436775
 20
-21.8349668413
 10
-21.9103132614
 20
-21.872426894
 10
-21.8484441383
 20
-21.9046293592
 10
-21.7840066207
 20
-21.931329429
 10
-21.7174905592
 20
-21.95232412
 10
-21.6494015991
 20
-21.9674538256
 10
-21.5802573352
 20
-21.9766035258
 10
-21.5105833897
 20
-21.9797036581
  0
LWPOLYLINE
  5
243
100
AcDbEntity
  8
RACCORDO
100
AcDbPolyline
 62
250
  6
CONTINUOUS
 90
19
 70
0
 10
-22.3104615458
 20
21.1808000302
 10
-22.3073576654
 20
21.250388713
 10
-22.2981968973
 20
21.3194483993
 10
-22.2830488794
 20
21.3874541139
 10
-22.2620287634
 20
21.4538888934
 10
-22.2352963391
 20
21.5182477166
 10
-22.2030548201
 20
21.5800413431
 10
-22.1655492986
 20
21.6388000325
 10
-22.1230648828
 20
21.6940771153
 10
-22.0759245289
 20
21.7454523883
 10
-22.0244865868
 20
21.7925353089
 10
-21.9691420752
 20
21.8349679641
 10
-21.9103117101
 20
21.8724277908
 10
-21.8484427057
 20
21.9046300286
 10
-21.7840053755
 20
21.9313298835
 10
-21.7174895567
 20
21.9523243898
 10
-21.6494008866
 20
21.9674539521
 10
-21.580256959
 20
21.9766035592
 10
-21.5105833896
 20
21.979703658
  0
LWPOLYLINE
  5
244
100
AcDbEntity
  8
RACCORDO
100
AcDbPolyline
 62
250
  6
CONTINUOUS
 90
8
 70
0
 10
-22.304774738
 20
21.0805935828
 10
-22.3055245334
 20
21.1046004946
 10
-22.3063025431
 20
21.1254823806
 10
-22.3071080189
 20
21.1432848009
 10
-22.3079279573
 20
21.1577441378
 10
-22.3087580241
 20
21.1687725187
 10
-22.3096025535
 20
21.1764578161
 10
-22.3104615458
 20
21.1808000302
  0
LWPOLYLINE
  5
245
100
AcDbEntity
  8
RACCORDO
100
AcDbPolyline
 62
250
  6
CONTINUOUS
 90
5
 70
0
 10
-21.5072219931
 20
21.8989800831
 10
-21.5080416317
 20
21.9300161156
 10
-21.508873141
 20
21.9538889654
 10
-21.5097203936
 20
21.9704790688
 10
-21.5105833896
 20
21.979703658
  0
LINE
  5
246
100
AcDbEntity
  8
RACCORDO
100
AcDbLine
 62
250
  6
CONTINUOUS
 10
-22.3033683032
 20
21.0237416602
 11
-22.304774738
 21
21.0805935828
  0
LINE
  5
247
100
AcDbEntity
  8
RACCORDO
100
AcDbLine
 62
250
  6
CONTINUOUS
 10
-22.3021159944
 20
20.9560972592
 11
-22.3033683032
 21
21.0237416602
  0
LINE
  5
248
100
AcDbEntity
  8
RACCORDO
100
AcDbLine
 62
250
  6
CONTINUOUS
 10
-21.5056415637
 20
21.8160652548
 11
-21.5072219931
 21
21.8989800831
  0
LINE
  5
249
100
AcDbEntity
  8
RACCORDO
100
AcDbLine
 62
250
  6
CONTINUOUS
 10
-22.3005789864
 20
20.8375461838
 11
-22.3021159944
 21
20.9560972592
  0
LINE
  5
24A
100
AcDbEntity
  8
RACCORDO
100
AcDbLine
 62
250
  6
CONTINUOUS
 10
-21.503487745
 20
21.6428840419
 11
-21.5056415637
 21
21.8160652548
  0
LINE
  5
24B
100
AcDbEntity
  8
RACCORDO
100
AcDbLine
 62
250
  6
CONTINUOUS
 10
-21.5007020859
 20
21.2446448854
 11
-21.503487745
 21
21.6428840419
  0
LINE
  5
24C
100
AcDbEntity
  8
RACCORDO
100
AcDbLine
 62
250
  6
CONTINUOUS
 10
-22.2992670438
 20
20.6560041283
 11
-22.3005789864
 21
20.8375461838
  0
LINE
  5
24D
100
AcDbEntity
  8
DRAFT
100
AcDbLine
 62
7
  6
CONTINUOUS
 10
-22.4
 20
-7.5
 11
-22.3760584537
 21
-20.55
  0
LINE
  5
24E
100
AcDbEntity
  8
0
100
AcDbLine
 62
7
  6
CONTINUOUS
 10
-22.4
 20
-7.5
 11
-22.4
 21
-4.5524931981
  0
LINE
  5
24F
100
AcDbEntity
  8
0
100
AcDbLine
 62
7
  6
CONTINUOUS
 10
-22.4
 20
4.5524931981
 11
-22.4
 21
7.5
  0
LINE
  5
250
100
AcDbEntity
  8
0
100
AcDbLine
 62
7
  6
CONTINUOUS
 10
-22.389526961
 20
-4.041834413
 11
-22.389526961
 21
4.041834413
  0
LINE
  5
251
100
AcDbEntity
  8
RACCORDO
100
AcDbLine
 62
7
  6
CONTINUOUS
 10
-22.3760584537
 20
21.3777507884
 11
-22.3760584537
 21
20.55
  0
LINE
  5
252
100
AcDbEntity
  8
RACCORDO
100
AcDbLine
 62
7
  6
CONTINUOUS
 10
-22.3760584537
 20
-20.55
 11
-22.3760584537
 21
-21.3777507884
  0
LINE
  5
253
100
AcDbEntity
  8
DRAFT
100
AcDbLine
 62
7
  6
CONTINUOUS
 10
-22.3760584537
 20
20.55
 11
-22.4
 21
7.5
  0
LINE
  5
254
100
AcDbEntity
  8
RACCORDO
100
AcDbLine
 62
250
  6
CONTINUOUS
 10
-21.5002914777
 20
-21.151966145
 11
-21.5007020859
 21
21.2446448854
  0
LINE
  5
255
100
AcDbEntity
  8
RACCORDO
100
AcDbLine
 62
250
  6
CONTINUOUS
 10
-22.2992666489
 20
-20.6559145062
 11
-22.2992670438
 21
20.6560041283
  0
LINE
  5
256
100
AcDbEntity
  8
RACCORDO
100
AcDbLine
 62
250
  6
CONTINUOUS
 10
-21.5028429231
 20
-21.573268161
 11
-21.5002914777
 21
-21.151966145
  0
LINE
  5
257
100
AcDbEntity
  8
RACCORDO
100
AcDbLine
 62
250
  6
CONTINUOUS
 10
-22.3005776565
 20
-20.8374162223
 11
-22.2992666489
 21
-20.6559145062
  0
LINE
  5
258
100
AcDbEntity
  8
RACCORDO
100
AcDbLine
 62
250
  6
CONTINUOUS
 10
-21.5048923249
 20
-21.764588066
 11
-21.5028429231
 21
-21.573268161
  0
LINE
  5
259
100
AcDbEntity
  8
RACCORDO
100
AcDbLine
 62
250
  6
CONTINUOUS
 10
-22.3021137481
 20
-20.9559570011
 11
-22.3005776565
 21
-20.8374162223
  0
LINE
  5
25A
100
AcDbEntity
  8
RACCORDO
100
AcDbLine
 62
250
  6
CONTINUOUS
 10
-22.3033658049
 20
-21.0236247562
 11
-22.3021137481
 21
-20.9559570011
  0
LINE
  5
25B
100
AcDbEntity
  8
0
100
AcDbLine
 62
7
  6
CONTINUOUS
 10
-22.4
 20
-4.5524931981
 11
-22.3974938389
 21
-4.539931762
  0
LINE
  5
25C
100
AcDbEntity
  8
RACCORDO
100
AcDbLine
 62
250
  6
CONTINUOUS
 10
21.8949780499
 20
-20.5387966284
 11
21.7697136078
 21
-20.5412560117
  0
LINE
  5
25D
100
AcDbEntity
  8
RACCORDO
100
AcDbLine
 62
250
  6
CONTINUOUS
 10
21.7697136078
 20
-20.5412560117
 11
21.6364053902
 21
-20.5428020708
  0
LINE
  5
25E
100
AcDbEntity
  8
RACCORDO
100
AcDbLine
 62
7
  6
CONTINUOUS
 10
-21.5766674133
 20
-22.1781169517
 11
21.5766674133
 21
-22.1781169517
  0
LINE
  5
25F
100
AcDbEntity
  8
RACCORDO
100
AcDbLine
 62
250
  6
CONTINUOUS
 10
21.5105833896
 20
-21.979703658
 11
-21.5105833896
 21
-21.979703658
  0
LINE
  5
260
100
AcDbEntity
  8
RACCORDO
100
AcDbLine
 62
250
  6
CONTINUOUS
 10
-21.7697154057
 20
-20.5412566127
 11
-21.6364063337
 21
-20.5428027114
  0
LINE
  5
261
100
AcDbEntity
  8
0
100
AcDbLine
 62
7
  6
CONTINUOUS
 10
-22.4
 20
4.5524931981
 11
-22.3974938389
 21
4.539931762
  0
LWPOLYLINE
  5
262
100
AcDbEntity
  8
RACCORDO
100
AcDbPolyline
 62
250
  6
CONTINUOUS
 90
7
 70
0
 10
-21.5105833896
 20
-21.979703658
 10
-21.5097202739
 20
-21.9704787043
 10
-21.5088729344
 20
-21.953888026
 10
-21.5080413712
 20
-21.9300146169
 10
-21.507221734
 20
-21.8989784832
 10
-21.506417873
 20
-21.8609334433
 10
-21.5048923249
 20
-21.764588066
  0
LINE
  5
263
100
AcDbEntity
  8
RACCORDO
100
AcDbLine
 62
250
  6
CONTINUOUS
 10
21.6364053902
 20
-20.5428020708
 11
21.499014631
 21
-20.5433888651
  0
LWPOLYLINE
  5
264
100
AcDbEntity
  8
RACCORDO
100
AcDbPolyline
 62
250
  6
CONTINUOUS
 90
3
 70
0
 10
-21.6364063337
 20
-20.5428027114
 10
-21.5679670773
 20
-20.5432177968
 10
21.499014631
 20
-20.5433895244
  0
LWPOLYLINE
  5
265
100
AcDbEntity
  8
RACCORDO
100
AcDbPolyline
 62
250
  6
CONTINUOUS
 90
9
 70
0
 10
-22.3104615458
 20
-21.1808000302
 10
-22.3096019164
 20
-21.1764512183
 10
-22.3087568665
 20
-21.1687580336
 10
-22.3079263959
 20
-21.1577204759
 10
-22.3071062061
 20
-21.143251084
 10
-22.3063005956
 20
-21.1254373192
 10
-22.3055224607
 20
-21.1045415656
 10
-22.3047724833
 20
-21.0805158819
 10
-22.3033658049
 20
-21.0236247562
  0
LINE
  5
266
100
AcDbEntity
  8
RACCORDO
100
AcDbLine
 62
250
  6
CONTINUOUS
 10
-22.3760584537
 20
-21.3777507884
 11
-22.3104615458
 21
-21.1808000302
  0
LWPOLYLINE
  5
267
100
AcDbEntity
  8
0
100
AcDbPolyline
 62
7
  6
CONTINUOUS
 90
10
 70
0
 43
0.3500000019
 10
-34.1163044434
 20
0.9642857208
 10
-33.9734467773
 20
1.0357143021
 10
-33.9020192871
 20
1.0357143021
 10
-33.7591616211
 20
0.8928571396
 10
-33.7591616211
 20
0.8214285583
 10
-33.8305891113
 20
0.7499999771
 10
-33.9020192871
 20
0.7499999771
 10
-34.0448742676
 20
0.8214285583
 10
-34.1163044434
 20
0.8928571396
 10
-34.1163044434
 20
0.9642857208
  0
LINE
  5
268
100
AcDbEntity
  8
RACCORDO
100
AcDbLine
 62
250
  6
CONTINUOUS
 10
-22.3104615458
 20
21.1808000302
 11
-22.3760584537
 21
21.3777507884
  0
LINE
  5
269
100
AcDbEntity
  8
RACCORDO
100
AcDbLine
 62
250
  6
CONTINUOUS
 10
-21.5766674133
 20
-22.1781169517
 11
-21.5105833896
 21
-21.979703658
  0
LINE
  5
26A
100
AcDbEntity
  8
RACCORDO
100
AcDbLine
 62
250
  6
CONTINUOUS
 10
-21.5105833896
 20
21.979703658
 11
-21.5766674133
 21
22.1781169517
  0
LWPOLYLINE
  5
26B
100
AcDbEntity
  8
0
100
AcDbPolyline
 62
7
  6
CONTINUOUS
 90
3
 70
0
 43
0.3500000019
 10
1.0357128906
 20
32.4276911621
 10
0.9642880859
 20
32.2134060059
 10
0.8214277344
 20
31.9276933594
  0
LWPOLYLINE
  5
26C
100
AcDbEntity
  8
0
100
AcDbPolyline
 62
7
  6
CONTINUOUS
 90
3
 70
0
 43
0.3500000019
 10
-33.9020192871
 20
1.0357143021
 10
-33.6877314453
 20
0.9642857208
 10
-33.4020187988
 20
0.8214285583
  0
LWPOLYLINE
  5
26D
100
AcDbEntity
  8
0
100
AcDbPolyline
 62
7
  6
CONTINUOUS
 90
2
 70
0
 43
0.3500000019
 10
-3.392855957
 20
32.1419785156
 10
-3.392855957
 20
33.6419772949
  0
LWPOLYLINE
  5
26E
100
AcDbEntity
  8
0
100
AcDbPolyline
 62
7
  6
CONTINUOUS
 90
2
 70
0
 43
0.3500000019
 10
-33.6163039551
 20
-3.3928571472
 10
-35.1163027344
 20
-3.3928571472
  0
LWPOLYLINE
  5
26F
100
AcDbEntity
  8
0
100
AcDbPolyline
 62
7
  6
CONTINUOUS
 90
2
 70
0
 43
0.3500000019
 10
-1.0357138672
 20
32.1419785156
 10
-1.0357138672
 20
33.6419772949
  0
LWPOLYLINE
  5
270
100
AcDbEntity
  8
0
100
AcDbPolyline
 62
7
  6
CONTINUOUS
 90
2
 70
0
 43
0.3500000019
 10
-33.6163039551
 20
-1.0357143021
 10
-35.1163027344
 20
-1.0357143021
  0
LWPOLYLINE
  5
271
100
AcDbEntity
  8
0
100
AcDbPolyline
 62
7
  6
CONTINUOUS
 90
4
 70
0
 43
0.3500000019
 10
2.0357138672
 20
32.5705488281
 10
2.0357138672
 20
33.4276921387
 10
2.4642841797
 20
33.8562651367
 10
3.1071450195
 20
33.8562651367
  0
LWPOLYLINE
  5
272
100
AcDbEntity
  8
0
100
AcDbPolyline
 62
7
  6
CONTINUOUS
 90
2
 70
0
 43
0.3500000019
 10
-33.6163039551
 20
3.035714325
 10
-35.1163027344
 20
3.035714325
  0
LINE
  5
273
100
AcDbEntity
  8
RACCORDO
100
AcDbLine
 62
250
  6
CONTINUOUS
 10
21.5766674133
 20
22.1781169517
 11
21.5105833896
 21
21.979703658
  0
LINE
  5
274
100
AcDbEntity
  8
RACCORDO
100
AcDbLine
 62
250
  6
CONTINUOUS
 10
22.3760584537
 20
21.3777507884
 11
22.3104615458
 21
21.1808000302
  0
LINE
  5
275
100
AcDbEntity
  8
RACCORDO
100
AcDbLine
 62
250
  6
CONTINUOUS
 10
21.5105833896
 20
-21.979703658
 11
21.5766674133
 21
-22.1781169517
  0
LINE
  5
276
100
AcDbEntity
  8
RACCORDO
100
AcDbLine
 62
250
  6
CONTINUOUS
 10
22.3104615458
 20
-21.1808000302
 11
22.3760584537
 21
-21.3777507884
  0
LWPOLYLINE
  5
277
100
AcDbEntity
  8
0
100
AcDbPolyline
 62
7
  6
CONTINUOUS
 90
10
 70
0
 43
0.3500000019
 10
0.9642880859
 20
32.6419790039
 10
1.0357128906
 20
32.4991213379
 10
1.0357128906
 20
32.4276911621
 10
0.8928579102
 20
32.2848361816
 10
0.8214277344
 20
32.2848361816
 10
0.7499975586
 20
32.3562636719
 10
0.7499975586
 20
32.4276911621
 10
0.8214277344
 20
32.5705488281
 10
0.8928579102
 20
32.6419790039
 10
0.9642880859
 20
32.6419790039
  0
LWPOLYLINE
  5
278
100
AcDbEntity
  8
RACCORDO
100
AcDbPolyline
 62
250
  6
CONTINUOUS
 90
9
 70
0
 10
22.3104615458
 20
21.1808000302
 10
22.3096025535
 20
21.1764578161
 10
22.3087580241
 20
21.1687725187
 10
22.3079279573
 20
21.1577441378
 10
22.3071080189
 20
21.1432848009
 10
22.3063025431
 20
21.1254823807
 10
22.3055245334
 20
21.1046004947
 10
22.304774738
 20
21.0805935828
 10
22.3033683032
 20
21.0237416602
  0
LWPOLYLINE
  5
279
100
AcDbEntity
  8
RACCORDO
100
AcDbPolyline
 62
250
  6
CONTINUOUS
 90
5
 70
0
 10
21.507221734
 20
-21.8989784832
 10
21.5080413712
 20
-21.9300146169
 10
21.5088729344
 20
-21.953888026
 10
21.5097202739
 20
-21.9704787043
 10
21.5105833896
 20
-21.979703658
  0
LINE
  5
27A
100
AcDbEntity
  8
RACCORDO
100
AcDbLine
 62
250
  6
CONTINUOUS
 10
21.5056413391
 20
-21.816064351
 11
21.507221734
 21
-21.8989784832
  0
LINE
  5
27B
100
AcDbEntity
  8
RACCORDO
100
AcDbLine
 62
250
  6
CONTINUOUS
 10
21.5034872511
 20
-21.6428797241
 11
21.5056413391
 21
-21.816064351
  0
LINE
  5
27C
100
AcDbEntity
  8
RACCORDO
100
AcDbLine
 62
250
  6
CONTINUOUS
 10
21.5056415637
 20
21.8160652548
 11
21.503487745
 21
21.6428840419
  0
LWPOLYLINE
  5
27D
100
AcDbEntity
  8
RACCORDO
100
AcDbPolyline
 62
250
  6
CONTINUOUS
 90
6
 70
0
 10
21.5105833896
 20
21.979703658
 10
21.5097203937
 20
21.9704790688
 10
21.508873141
 20
21.9538889654
 10
21.5080416317
 20
21.9300161156
 10
21.5072219931
 20
21.8989800831
 10
21.5056415637
 20
21.8160652548
  0
LINE
  5
27E
100
AcDbEntity
  8
0
100
AcDbLine
 62
7
  6
CONTINUOUS
 10
22.4
 20
4.5524931981
 11
22.3974938389
 21
4.539931762
  0
LINE
  5
27F
100
AcDbEntity
  8
RACCORDO
100
AcDbLine
 62
250
  6
CONTINUOUS
 10
-21.8949788289
 20
20.5387968359
 11
-21.7697141719
 21
20.5412562357
  0
LINE
  5
280
100
AcDbEntity
  8
RACCORDO
100
AcDbLine
 62
250
  6
CONTINUOUS
 10
-21.7697141719
 20
20.5412562357
 11
-21.6364056862
 21
20.542802303
  0
LINE
  5
281
100
AcDbEntity
  8
RACCORDO
100
AcDbLine
 62
250
  6
CONTINUOUS
 10
-21.6364056862
 20
20.542802303
 11
-21.499014631
 21
20.5433890968
  0
LINE
  5
282
100
AcDbEntity
  8
RACCORDO
100
AcDbLine
 62
250
  6
CONTINUOUS
 10
21.5679670773
 20
20.5432177969
 11
-21.499014631
 21
20.5433895244
  0
LINE
  5
283
100
AcDbEntity
  8
RACCORDO
100
AcDbLine
 62
250
  6
CONTINUOUS
 10
21.7038230298
 20
20.5421473577
 11
21.5679670773
 21
20.5432177969
  0
LINE
  5
284
100
AcDbEntity
  8
0
100
AcDbLine
 62
7
  6
CONTINUOUS
 10
22.4
 20
-4.5524931981
 11
22.3974938389
 21
-4.539931762
  0
LWPOLYLINE
  5
285
100
AcDbEntity
  8
RACCORDO
100
AcDbPolyline
 62
250
  6
CONTINUOUS
 90
19
 70
0
 10
22.3104615458
 20
21.1808000302
 10
22.3073577317
 20
21.2503879622
 10
22.2981971434
 20
21.3194470109
 10
22.2830493907
 20
21.3874522124
 10
22.2620295963
 20
21.4538866112
 10
22.2352975214
 20
21.5182451868
 10
22.2030563525
 20
21.5800386936
 10
22.1655511545
 20
21.638797386
 10
22.1230670114
 20
21.6940745815
 10
22.0759268639
 20
21.7454500554
 10
22.0244890425
 20
21.7925332496
 10
21.9691445523
 20
21.8349662301
 10
21.9103141109
 20
21.8724264046
 10
21.848444925
 20
21.9046289931
 10
21.7840073068
 20
21.9313291798
 10
21.7174911134
 20
21.9523239718
 10
21.6494019941
 20
21.9674537561
 10
21.5802575442
 20
21.9766035076
 10
21.5105833897
 20
21.9797036581
  0
LWPOLYLINE
  5
286
100
AcDbEntity
  8
RACCORDO
100
AcDbPolyline
 62
250
  6
CONTINUOUS
 90
8
 70
0
 10
22.3047724833
 20
-21.0805158819
 10
22.3055224607
 20
-21.1045415656
 10
22.3063005956
 20
-21.1254373192
 10
22.3071062061
 20
-21.143251084
 10
22.3079263959
 20
-21.1577204759
 10
22.3087568665
 20
-21.1687580336
 10
22.3096019164
 20
-21.1764512183
 10
22.3104615458
 20
-21.1808000302
  0
LINE
  5
287
100
AcDbEntity
  8
RACCORDO
100
AcDbLine
 62
250
  6
CONTINUOUS
 10
22.3033658049
 20
-21.0236247562
 11
22.3047724833
 21
-21.0805158819
  0
LINE
  5
288
100
AcDbEntity
  8
RACCORDO
100
AcDbLine
 62
250
  6
CONTINUOUS
 10
22.3021137481
 20
-20.9559570011
 11
22.3033658049
 21
-21.0236247562
  0
LINE
  5
289
100
AcDbEntity
  8
RACCORDO
100
AcDbLine
 62
250
  6
CONTINUOUS
 10
22.3005776565
 20
-20.8374162223
 11
22.3021137481
 21
-20.9559570011
  0
LINE
  5
28A
100
AcDbEntity
  8
RACCORDO
100
AcDbLine
 62
250
  6
CONTINUOUS
 10
21.5007019773
 20
-21.2446423289
 11
21.5034872511
 21
-21.6428797241
  0
LINE
  5
28B
100
AcDbEntity
  8
RACCORDO
100
AcDbLine
 62
250
  6
CONTINUOUS
 10
22.2992666489
 20
-20.6559145062
 11
22.3005776565
 21
-20.8374162223
  0
LINE
  5
28C
100
AcDbEntity
  8
DRAFT
100
AcDbLine
 62
7
  6
CONTINUOUS
 10
22.3760584537
 20
20.55
 11
22.4
 21
7.5
  0
LINE
  5
28D
100
AcDbEntity
  8
RACCORDO
100
AcDbLine
 62
250
  6
CONTINUOUS
 10
22.293805482
 20
-11.3954820926
 11
22.2992666489
 21
-20.6559145062
  0
LINE
  5
28E
100
AcDbEntity
  8
RACCORDO
100
AcDbLine
 62
7
  6
CONTINUOUS
 10
22.3760584537
 20
21.3777507884
 11
22.3760584537
 21
20.55
  0
LINE
  5
28F
100
AcDbEntity
  8
RACCORDO
100
AcDbLine
 62
7
  6
CONTINUOUS
 10
22.3760584537
 20
-20.55
 11
22.3760584537
 21
-21.3777507884
  0
LINE
  5
290
100
AcDbEntity
  8
0
100
AcDbLine
 62
7
  6
CONTINUOUS
 10
22.389526961
 20
-4.041834413
 11
22.389526961
 21
4.041834413
  0
LINE
  5
291
100
AcDbEntity
  8
0
100
AcDbLine
 62
7
  6
CONTINUOUS
 10
22.4
 20
-7.5
 11
22.4
 21
-4.5524931981
  0
LINE
  5
292
100
AcDbEntity
  8
0
100
AcDbLine
 62
7
  6
CONTINUOUS
 10
22.4
 20
4.5524931981
 11
22.4
 21
7.5
  0
LINE
  5
293
100
AcDbEntity
  8
RACCORDO
100
AcDbLine
 62
250
  6
CONTINUOUS
 10
21.4917475515
 20
2.2828020445
 11
21.5007019773
 21
-21.2446423289
  0
LINE
  5
294
100
AcDbEntity
  8
RACCORDO
100
AcDbLine
 62
250
  6
CONTINUOUS
 10
22.2916257076
 20
2.2791493351
 11
22.293805482
 21
-11.3954820926
  0
LINE
  5
295
100
AcDbEntity
  8
DRAFT
100
AcDbLine
 62
7
  6
CONTINUOUS
 10
22.4
 20
-7.5
 11
22.3760584537
 21
-20.55
  0
LINE
  5
296
100
AcDbEntity
  8
RACCORDO
100
AcDbLine
 62
250
  6
CONTINUOUS
 10
22.2992670438
 20
20.6560041283
 11
22.2916257076
 21
2.2791493351
  0
LINE
  5
297
100
AcDbEntity
  8
RACCORDO
100
AcDbLine
 62
250
  6
CONTINUOUS
 10
21.5007020859
 20
21.2446448854
 11
21.4917475515
 21
2.2828020445
  0
LINE
  5
298
100
AcDbEntity
  8
RACCORDO
100
AcDbLine
 62
250
  6
CONTINUOUS
 10
21.503487745
 20
21.6428840419
 11
21.5007020859
 21
21.2446448854
  0
LINE
  5
299
100
AcDbEntity
  8
RACCORDO
100
AcDbLine
 62
250
  6
CONTINUOUS
 10
22.3005789864
 20
20.8375461838
 11
22.2992670438
 21
20.6560041283
  0
LINE
  5
29A
100
AcDbEntity
  8
RACCORDO
100
AcDbLine
 62
250
  6
CONTINUOUS
 10
22.3021159944
 20
20.9560972592
 11
22.3005789864
 21
20.8375461838
  0
LINE
  5
29B
100
AcDbEntity
  8
RACCORDO
100
AcDbLine
 62
250
  6
CONTINUOUS
 10
22.3033683032
 20
21.0237416602
 11
22.3021159944
 21
20.9560972592
  0
LWPOLYLINE
  5
29C
100
AcDbEntity
  8
RACCORDO
100
AcDbPolyline
 62
250
  6
CONTINUOUS
 90
19
 70
0
 10
22.3104615458
 20
-21.1808000302
 10
22.3073576654
 20
-21.250388713
 10
22.2981968973
 20
-21.3194483994
 10
22.2830488794
 20
-21.3874541139
 10
22.2620287634
 20
-21.4538888934
 10
22.2352963391
 20
-21.5182477166
 10
22.2030548201
 20
-21.5800413432
 10
22.1655492986
 20
-21.6388000326
 10
22.1230648828
 20
-21.6940771153
 10
22.0759245289
 20
-21.7454523883
 10
22.0244865867
 20
-21.7925353089
 10
21.9691420752
 20
-21.8349679641
 10
21.91031171
 20
-21.8724277908
 10
21.8484427057
 20
-21.9046300286
 10
21.7840053755
 20
-21.9313298835
 10
21.7174895567
 20
-21.9523243898
 10
21.6494008866
 20
-21.9674539521
 10
21.580256959
 20
-21.9766035592
 10
21.5105833896
 20
-21.979703658
  0
LINE
  5
29D
100
AcDbEntity
  8
RACCORDO
100
AcDbLine
 62
250
  6
CONTINUOUS
 10
21.5105833896
 20
21.979703658
 11
-21.5105833896
 21
21.979703658
  0
LINE
  5
29E
100
AcDbEntity
  8
RACCORDO
100
AcDbLine
 62
7
  6
CONTINUOUS
 10
-21.5766674133
 20
22.1781169517
 11
21.5766674133
 21
22.1781169517
  0
LWPOLYLINE
  5
29F
100
AcDbEntity
  8
RACCORDO
100
AcDbPolyline
 62
250
  6
CONTINUOUS
 90
13
 70
0
 10
22.2988927871
 20
-20.5105201012
 10
22.2947130972
 20
-20.5133535227
 10
22.2846113741
 20
-20.5161658534
 10
22.2686628005
 20
-20.5189361623
 10
22.2469860746
 20
-20.5216438311
 10
22.2197425267
 20
-20.5242687079
 10
22.1871349187
 20
-20.5267912569
 10
22.1494059347
 20
-20.5291927039
 10
22.1068363748
 20
-20.5314551759
 10
22.0597430657
 20
-20.5335618344
 10
22.0084765022
 20
-20.5354970005
 10
21.9534182388
 20
-20.5372462715
 10
21.8949780499
 20
-20.5387966284
  0
LWPOLYLINE
  5
2A0
100
AcDbEntity
  8
0
100
AcDbPolyline
 62
7
  6
CONTINUOUS
 90
3
 70
0
 43
0.3500000019
 10
-0.5357133789
 20
32.7848339844
 10
-2.0357148438
 20
32.7848339844
 10
-1.392859375
 20
35.1419787598
  0
LWPOLYLINE
  5
2A1
100
AcDbEntity
  8
0
100
AcDbPolyline
 62
7
  6
CONTINUOUS
 90
3
 70
0
 43
0.3500000019
 10
-2.8928554687
 20
32.7848339844
 10
-4.3928569336
 20
32.7848339844
 10
-3.7500014648
 20
35.1419787598
  0
LWPOLYLINE
  5
2A2
100
AcDbEntity
  8
RACCORDO
100
AcDbPolyline
 62
250
  6
CONTINUOUS
 90
15
 70
0
 10
22.2988927871
 20
20.5105201012
 10
22.2947138048
 20
20.5133535667
 10
22.2846127005
 20
20.5161659436
 10
22.2686646535
 20
20.5189363004
 10
22.2469883596
 20
20.5216440183
 10
22.2197451483
 20
20.5242689445
 10
22.1871377816
 20
20.5267915427
 10
22.1494089453
 20
20.5291930381
 10
22.1068394423
 20
20.531455557
 10
22.0597461032
 20
20.5335622603
 10
22.008479428
 20
20.5354974686
 10
21.9534209773
 20
20.5372467787
 10
21.8949805326
 20
20.5387971711
 10
21.8335930466
 20
20.5401371067
 10
21.7038230298
 20
20.5421473577
  0
LWPOLYLINE
  5
2A3
100
AcDbEntity
  8
0
100
AcDbPolyline
 62
7
  6
CONTINUOUS
 90
13
 70
0
 43
0.3500000019
 10
2.4642841797
 20
33.8562651367
 10
2.1785688477
 20
34.070550293
 10
2.1785688477
 20
34.7134057617
 10
2.4642841797
 20
35.1419787598
 10
3.1071450195
 20
35.1419787598
 10
3.3928549805
 20
34.7134057617
 10
3.3928549805
 20
34.070550293
 10
3.1071450195
 20
33.8562651367
 10
3.535715332
 20
33.4276921387
 10
3.535715332
 20
32.5705488281
 10
3.1071450195
 20
32.1419785156
 10
2.4642841797
 20
32.1419785156
 10
2.0357138672
 20
32.5705488281
  0
LWPOLYLINE
  5
2A4
100
AcDbEntity
  8
RACCORDO
100
AcDbPolyline
 62
250
  6
CONTINUOUS
 90
22
 70
0
 10
48.8223982143
 20
-21.1808000302
 10
48.8716463458
 20
-21.1764512183
 10
48.9200592243
 20
-21.1687580336
 10
48.9676368499
 20
-21.1577204759
 10
49.0146254951
 20
-21.143251084
 10
49.0607788874
 20
-21.1254373192
 10
49.1053582095
 20
-21.1045415656
 10
49.1483243847
 20
-21.0805158819
 10
49.1897164898
 20
-21.0534082095
 10
49.2289129376
 20
-21.0236247562
 10
49.2658759075
 20
-20.9911287691
 10
49.30064322
 20
-20.9559570011
 10
49.3327067505
 20
-20.9186259196
 10
49.3620281919
 20
-20.8791007277
 10
49.3886458513
 20
-20.8374162223
 10
49.4121665248
 20
-20.7941932617
 10
49.4325441635
 20
-20.7493895226
 10
49.4498248163
 20
-20.7030473283
 10
49.4637534273
 20
-20.6559145062
 10
49.4742449775
 20
-20.6082403323
 10
49.4813844858
 20
-20.5597755306
 10
49.4851719522
 20
-20.5105201012
  0
LINE
  5
2A5
100
AcDbEntity
  8
RACCORDO
100
AcDbLine
 62
7
  6
CONTINUOUS
 10
45.0643538764
 20
-22.1781169517
 11
48.8503050542
 21
-21.979703658
  0
LINE
  5
2A6
100
AcDbEntity
  8
RACCORDO
100
AcDbLine
 62
250
  6
CONTINUOUS
 10
45.0643538764
 20
-21.3777507884
 11
48.8223982143
 21
-21.1808000302
  0
LWPOLYLINE
  5
2A7
100
AcDbEntity
  8
RACCORDO
100
AcDbPolyline
 62
250
  6
CONTINUOUS
 90
4
 70
0
 10
49.4851719522
 20
-20.5105201012
 10
50.2586624714
 20
-20.5428027114
 10
50.2675619717
 20
-20.5432177968
 10
50.2705344918
 20
-20.5433895244
  0
LINE
  5
2A8
100
AcDbEntity
  8
DRAFT
100
AcDbLine
 62
7
  6
CONTINUOUS
 10
43.6927436062
 20
-7.5
 11
45.0643538764
 21
-20.55
  0
LINE
  5
2A9
100
AcDbEntity
  8
0
100
AcDbLine
 62
7
  6
CONTINUOUS
 10
43.6927436062
 20
-7.5
 11
43.6927436062
 21
-4.5524931981
  0
LINE
  5
2AA
100
AcDbEntity
  8
0
100
AcDbLine
 62
7
  6
CONTINUOUS
 10
43.6927436062
 20
4.5524931981
 11
43.6927436062
 21
7.5
  0
LINE
  5
2AB
100
AcDbEntity
  8
0
100
AcDbLine
 62
7
  6
CONTINUOUS
 10
44.2927436062
 20
-4.041834413
 11
44.2927436062
 21
4.041834413
  0
LINE
  5
2AC
100
AcDbEntity
  8
DRAFT
100
AcDbLine
 62
7
  6
CONTINUOUS
 10
45.0643538764
 20
20.55
 11
43.6927436062
 21
7.5
  0
LINE
  5
2AD
100
AcDbEntity
  8
0
100
AcDbLine
 62
7
  6
CONTINUOUS
 10
43.6927436062
 20
-4.5524931981
 11
43.8363214775
 21
-4.539931762
  0
LINE
  5
2AE
100
AcDbEntity
  8
RACCORDO
100
AcDbLine
 62
7
  6
CONTINUOUS
 10
45.0643538764
 20
-20.55
 11
45.0643538764
 21
-22.1781169517
  0
LINE
  5
2AF
100
AcDbEntity
  8
RACCORDO
100
AcDbLine
 62
7
  6
CONTINUOUS
 10
45.0643538764
 20
20.55
 11
45.0643538764
 21
22.1781169517
  0
LWPOLYLINE
  5
2B0
100
AcDbEntity
  8
0
100
AcDbPolyline
 62
7
  6
CONTINUOUS
 90
4
 70
0
 43
0.3500000019
 10
46.0141757813
 20
34.6175371094
 10
46.0141757813
 20
35.2603952637
 10
47.514171875
 20
35.2603952637
 10
46.65703125
 20
32.2603950195
  0
LINE
  5
2B1
100
AcDbEntity
  8
RACCORDO
100
AcDbLine
 62
250
  6
CONTINUOUS
 10
48.8223982143
 20
-21.1808000302
 11
48.8327499614
 21
-21.3874528743
  0
LINE
  5
2B2
100
AcDbEntity
  8
RACCORDO
100
AcDbLine
 62
250
  6
CONTINUOUS
 10
48.8327499614
 20
-21.3874528743
 11
48.841446724
 21
-21.58003962
  0
LINE
  5
2B3
100
AcDbEntity
  8
RACCORDO
100
AcDbLine
 62
250
  6
CONTINUOUS
 10
48.841446724
 20
-21.58003962
 11
48.8460268693
 21
-21.6940754703
  0
LWPOLYLINE
  5
2B4
100
AcDbEntity
  8
RACCORDO
100
AcDbPolyline
 62
250
  6
CONTINUOUS
 90
10
 70
0
 10
48.8460268693
 20
-21.6940754703
 10
48.8494661736
 20
-21.7925339742
 10
48.8507239428
 20
-21.8349668413
 10
48.8516602503
 20
-21.872426894
 10
48.8522679777
 20
-21.9046293592
 10
48.8525425047
 20
-21.931329429
 10
48.8524817438
 20
-21.95232412
 10
48.8520861566
 20
-21.9674538256
 10
48.8513587497
 20
-21.9766035258
 10
48.8503050523
 20
-21.9797036581
  0
LWPOLYLINE
  5
2B5
100
AcDbEntity
  8
RACCORDO
100
AcDbPolyline
 62
250
  6
CONTINUOUS
 90
8
 70
0
 10
48.8507239487
 20
21.8349679641
 10
48.8516602471
 20
21.8724277908
 10
48.8522679672
 20
21.9046300286
 10
48.8525424894
 20
21.9313298835
 10
48.852481727
 20
21.9523243898
 10
48.8520861418
 20
21.9674539521
 10
48.851358741
 20
21.9766035592
 10
48.8503050542
 20
21.979703658
  0
LINE
  5
2B6
100
AcDbEntity
  8
RACCORDO
100
AcDbLine
 62
250
  6
CONTINUOUS
 10
48.8478965311
 20
21.7454523883
 11
48.8507239487
 21
21.8349679641
  0
LINE
  5
2B7
100
AcDbEntity
  8
RACCORDO
100
AcDbLine
 62
250
  6
CONTINUOUS
 10
48.8438715244
 20
21.6388000325
 11
48.8478965311
 21
21.7454523883
  0
LINE
  5
2B8
100
AcDbEntity
  8
RACCORDO
100
AcDbLine
 62
250
  6
CONTINUOUS
 10
48.8358647977
 20
21.4538888934
 11
48.8438715244
 21
21.6388000325
  0
LWPOLYLINE
  5
2B9
100
AcDbEntity
  8
RACCORDO
100
AcDbPolyline
 62
250
  6
CONTINUOUS
 90
3
 70
0
 10
48.8223982143
 20
21.1808000302
 10
48.8259910242
 20
21.250388713
 10
48.8358647977
 20
21.4538888934
  0
LWPOLYLINE
  5
2BA
100
AcDbEntity
  8
RACCORDO
100
AcDbPolyline
 62
250
  6
CONTINUOUS
 90
28
 70
0
 10
49.4851719522
 20
-20.5105201012
 10
49.5453191214
 20
-18.9914715797
 10
49.6008375238
 20
-17.4723732662
 10
49.6517271595
 20
-15.9532251608
 10
49.6979873906
 20
-14.4340224636
 10
49.739618855
 20
-12.9147699744
 10
49.7766234663
 20
-11.3954820926
 10
49.8090014355
 20
-9.8761589012
 10
49.8367525518
 20
-8.3568003171
 10
49.8598780957
 20
-6.8374204915
 10
49.8783782809
 20
-5.3180194412
 10
49.8922528938
 20
-3.7985971492
 10
49.901502574
 20
-2.2791677157
 10
49.9061275356
 20
-0.759731146
 10
49.9061275645
 20
0.7597125653
 10
49.901502658
 20
2.2791493351
 10
49.89225303
 20
3.7985791691
 10
49.8783784667
 20
5.3180020615
 10
49.8598783228
 20
6.8374039118
 10
49.8367528121
 20
8.3567847369
 10
49.8090017208
 20
9.8761445199
 10
49.7766237629
 20
11.3954691093
 10
49.7396191497
 20
12.9147585727
 10
49.6979876698
 20
14.4340128425
 10
49.6517274022
 20
15.9532175656
 10
49.6008377065
 20
17.4723679575
 10
49.5453192232
 20
18.9914688027
 10
49.4851719522
 20
20.5105201012
  0
LWPOLYLINE
  5
2BB
100
AcDbEntity
  8
RACCORDO
100
AcDbPolyline
 62
250
  6
CONTINUOUS
 90
22
 70
0
 10
49.4851719522
 20
20.5105201012
 10
49.4813783078
 20
20.559812064
 10
49.4742312568
 20
20.6083067397
 10
49.463730799
 20
20.6560041283
 10
49.4497923054
 20
20.7031514563
 10
49.432500405
 20
20.7495014972
 10
49.4121089854
 20
20.7943125719
 10
49.3885696583
 20
20.8375461838
 10
49.361930812
 20
20.8792408294
 10
49.3325914986
 20
20.9187703189
 10
49.3005145301
 20
20.9560972592
 10
49.2657370946
 20
20.9912590434
 10
49.2287698085
 20
21.0237416602
 10
49.189577435
 20
21.0535072052
 10
49.1481952109
 20
21.0805935828
 10
49.1052394627
 20
21.1046004946
 10
49.0606673143
 20
21.1254823806
 10
49.0145216418
 20
21.1432848009
 10
48.9675474001
 20
21.1577441378
 10
48.9199929074
 20
21.1687725187
 10
48.8716098455
 20
21.1764578161
 10
48.8223982143
 20
21.1808000302
  0
LINE
  5
2BC
100
AcDbEntity
  8
0
100
AcDbLine
 62
7
  6
CONTINUOUS
 10
43.6927436062
 20
4.5524931981
 11
43.8363214775
 21
4.539931762
  0
LINE
  5
2BD
100
AcDbEntity
  8
RACCORDO
100
AcDbLine
 62
250
  6
CONTINUOUS
 10
50.2675516844
 20
20.5432173772
 11
50.2705241386
 21
20.5433890968
  0
LINE
  5
2BE
100
AcDbEntity
  8
RACCORDO
100
AcDbLine
 62
250
  6
CONTINUOUS
 10
50.1657597623
 20
20.5387968359
 11
50.2675516844
 21
20.5432173772
  0
LINE
  5
2BF
100
AcDbEntity
  8
RACCORDO
100
AcDbLine
 62
250
  6
CONTINUOUS
 10
49.4851719522
 20
20.5105201012
 11
50.1657597623
 21
20.5387968359
  0
LINE
  5
2C0
100
AcDbEntity
  8
RACCORDO
100
AcDbLine
 62
250
  6
CONTINUOUS
 10
48.8223982143
 20
21.1808000302
 11
45.0643538764
 21
21.3777507884
  0
LINE
  5
2C1
100
AcDbEntity
  8
RACCORDO
100
AcDbLine
 62
7
  6
CONTINUOUS
 10
48.8503050542
 20
21.979703658
 11
45.0643538764
 21
22.1781169517
  0
ARC
  5
2C2
100
AcDbEntity
  8
RACCORDO
100
AcDbCircle
 62
7
  6
CONTINUOUS
 10
-449.3072563938
 20
0.0
 40
500.0
100
AcDbArc
 50
357.6452381281
 51
2.3547618719
  0
ARC
  5
2C3
100
AcDbEntity
  8
RACCORDO
100
AcDbCircle
 62
7
  6
CONTINUOUS
 10
48.7718011198
 20
-20.4817593559
 40
1.5
100
AcDbArc
 50
273.0
 51
357.6452381281
  0
ARC
  5
2C4
100
AcDbEntity
  8
RACCORDO
100
AcDbCircle
 62
7
  6
CONTINUOUS
 10
48.7718011198
 20
20.4817593559
 40
1.5
100
AcDbArc
 50
2.3547618719
 51
87.0
  0
ARC
  5
2C5
100
AcDbEntity
  8
0
100
AcDbCircle
 62
7
  6
CONTINUOUS
 10
43.7927436062
 20
-4.041834413
 40
0.5
100
AcDbArc
 50
275.0
 51
360.0
  0
ARC
  5
2C6
100
AcDbEntity
  8
0
100
AcDbCircle
 62
7
  6
CONTINUOUS
 10
43.7927436062
 20
4.041834413
 40
0.5
100
AcDbArc
 50
0.0
 51
85.0
  0
ELLIPSE
  5
2C7
100
AcDbEntity
  8
0
100
AcDbEllipse
 62
7
  6
CONTINUOUS
 10
-22.3982544935
 20
-4.041834413
 30
0.0
 11
-0.0
 21
0.5
 31
0.0
 40
0.0174550649
 41
-3.054326191
 42
-1.5707963268
  0
ELLIPSE
  5
2C8
100
AcDbEntity
  8
0
100
AcDbEllipse
 62
7
  6
CONTINUOUS
 10
-22.3982544935
 20
4.041834413
 30
0.0
 11
0.0
 21
0.5
 31
0.0
 40
0.0174550649
 41
-1.5707963268
 42
-0.0872664626
  0
ELLIPSE
  5
2C9
100
AcDbEntity
  8
0
100
AcDbEllipse
 62
7
  6
CONTINUOUS
 10
22.3982544935
 20
4.041834413
 30
0.0
 11
0.0
 21
0.5
 31
0.0
 40
0.0174550649
 41
0.0872664626
 42
1.5707963268
  0
ELLIPSE
  5
2CA
100
AcDbEntity
  8
0
100
AcDbEllipse
 62
7
  6
CONTINUOUS
 10
22.3982544935
 20
-4.041834413
 30
0.0
 11
-0.0
 21
0.5
 31
0.0
 40
0.0174550649
 41
-4.7123889804
 42
-3.2288591162
  0
ELLIPSE
  5
2CB
100
AcDbEntity
  8
RACCORDO
100
AcDbEllipse
 62
7
  6
CONTINUOUS
 10
21.5759365912
 20
21.3770190749
 30
0.0
 11
0.2531825638
 21
0.7601653717
 31
0.0
 40
0.9984778551
 41
-1.2488325878
 42
0.3210503505
  0
ELLIPSE
  5
2CC
100
AcDbEntity
  8
RACCORDO
100
AcDbEllipse
 62
7
  6
CONTINUOUS
 10
21.5759365912
 20
-21.3770190749
 30
0.0
 11
-0.2531825638
 21
0.7601653717
 31
0.0
 40
0.9984778551
 41
-3.4626430041
 42
-1.8927600658
  0
ELLIPSE
  5
2CD
100
AcDbEntity
  8
RACCORDO
100
AcDbEllipse
 62
7
  6
CONTINUOUS
 10
-21.5759365912
 20
-21.3770190749
 30
0.0
 11
0.2531825638
 21
0.7601653717
 31
0.0
 40
0.9984778551
 41
-4.3904252414
 42
-2.8205423031
  0
ELLIPSE
  5
2CE
100
AcDbEntity
  8
RACCORDO
100
AcDbEllipse
 62
7
  6
CONTINUOUS
 10
-21.5759365912
 20
21.3770190749
 30
0.0
 11
-0.2531825638
 21
0.7601653717
 31
0.0
 40
0.9984778551
 41
-0.3210503505
 42
1.2488325878
  0
ENDSEC
  0
SECTION
  2
OBJECTS
  0
DICTIONARY
  5
C
100
AcDbDictionary
280
0
281
1
  3
ACAD_GROUP
350
D
  3
ACAD_MLINESTYLE
350
17
  3
ACAD_LAYOUT
350
1A
  3
ACAD_PLOTSETTINGS
350
19
  3
ACAD_PLOTSTYLENAME
350
E
  0
DICTIONARY
  5
D
102
{ACAD_REACTORS
330
C
102
}
100
AcDbDictionary
280
0
281
1
  0
ACDBDICTIONARYWDFLT
  5
E
102
{ACAD_REACTORS
330
C
102
}
100
AcDbDictionary
281
1
  3
Normal
350
F
100
AcDbDictionaryWithDefault
340
F
  0
DICTIONARY
  5
17
102
{ACAD_REACTORS
330
C
102
}
100
AcDbDictionary
280
0
281
1
  3
Standard
350
18
  0
DICTIONARY
  5
19
102
{ACAD_REACTORS
330
C
102
}
100
AcDbDictionary
281
1
  0
DICTIONARY
  5
1A
102
{ACAD_REACTORS
330
C
102
}
100
AcDbDictionary
281
1
  3
Model
350
2CF
  3
Layout1
350
2D0
  0
ACDBPLACEHOLDER
  5
F
102
{ACAD_REACTORS
330
E
102
}
  0
MLINESTYLE
  5
18
102
{ACAD_REACTORS
330
17
102
}
100
AcDbMlineStyle
  2
STANDARD
 70
0
  3

 62
256
 51
90.0
 52
90.0
 71
2
 49
0.5
 62
256
  6
BYLAYER
 49
-0.5
 62
256
  6
BYLAYER
  0
LAYOUT
  5
2CF
102
{ACAD_REACTORS
330
1A
102
}
100
AcDbPlotSettings
  1

  2
none_device
  4

  6

 40
0.0
 41
0.0
 42
0.0
 43
0.0
 44
210.0
 45
297.0
 46
0.0
 47
0.0
 48
0.0
 49
0.0
140
0.0
141
0.0
142
1.0
143
1.0
 70
1024
 72
1
 73
0
 74
0
  7

 75
0
147
1.0
148
0.0
149
0.0
100
AcDbLayout
  1
Model
 70
0
 71
0
 10
0.0
 20
0.0
 11
210.0
 21
297.0
 12
0.0
 22
0.0
 32
0.0
 14
0.0
 24
0.0
 34
0.0
 15
0.0
 25
0.0
 35
0.0
146
0.0
 13
0.0
 23
0.0
 33
0.0
 16
1.0
 26
0.0
 36
0.0
 17
0.0
 27
1.0
 37
0.0
 76
0
330
214
345
0
346
0
  0
LAYOUT
  5
2D0
102
{ACAD_REACTORS
330
1A
102
}
100
AcDbPlotSettings
  1

  2
none_device
  4

  6

 40
0.0
 41
0.0
 42
0.0
 43
0.0
 44
210.0
 45
297.0
 46
0.0
 47
0.0
 48
0.0
 49
0.0
140
0.0
141
0.0
142
1.0
143
1.0
 70
0
 72
1
 73
0
 74
0
  7

 75
0
147
1.0
148
0.0
149
0.0
100
AcDbLayout
  1
Layout1
 70
0
 71
1
 10
0.0
 20
0.0
 11
210.0
 21
297.0
 12
0.0
 22
0.0
 32
0.0
 14
0.0
 24
0.0
 34
0.0
 15
0.0
 25
0.0
 35
0.0
146
0.0
 13
0.0
 23
0.0
 33
0.0
 16
1.0
 26
0.0
 36
0.0
 17
0.0
 27
1.0
 37
0.0
 76
0
330
215
345
0
346
0
  0
ENDSEC
  0
EOF
