  0
SECTION
  2
HEADER
  9
$ACADVER
  1
AC1015
  9
$DWGCODEPAGE
  3
ANSI_1252
  9
$EXTMAX
 10
297.0
 20
210.0
 30
0.0
  9
$EXTMIN
 10
0.0
 20
0.0
 30
0.0
  9
$LIMMIN
 10
0.0
 20
0.0
  9
$LIMMAX
 10
297.0
 20
210.0
  9
$VIEWCTR
 10
148.5
 20
105.0
  9
$VIEWSIZE
 40
210.0
  9
$CLAYER
  8
0
  9
$LTSCALE
 40
16.335
  9
$CELTYPE
  6
BYLAYER
  9
$DIMSCALE
 40
1.0
  9
$DIMASZ
 40
3.0
  9
$DIMEXO
 40
0.5
  9
$DIMDLI
 40
11.286
  9
$DIMEXE
 40
1.5
  9
$DIMCEN
 40
2.673
  9
$DIMLFAC
 40
1.0
  9
$DIMBLK
  1
_FILLED
  9
$DIMTXT
 40
3.0
  9
$DIMTOL
 70
1
  9
$DIMLIM
 70
0
  9
$DIMTFAC
 40
1.0
  9
$DIMTP
 40
0.01
  9
$DIMTM
 40
0.01
  9
$DIMGAP
 40
0.625
  9
$DIMDSEP
 70
44
  9
$PDMODE
 70
3
  9
$PDSIZE
 40
3.0
  9
$HANDSEED
  5
573
  9
$TILEMODE
 70
1
  9
$MEASUREMENT
 70
1
  9
$INSUNITS
 70
4
  0
ENDSEC
  0
SECTION
  2
CLASSES
  0
CLASS
  1
ACDBDICTIONARYWDFLT
  2
AcDbDictionaryWithDefault
  3
AutoCAD 2000
 90
0
280
0
281
0
  0
CLASS
  1
ACDBPLACEHOLDER
  2
AcDbPlaceHolder
  3
AutoCAD 2000
 90
0
280
0
281
0
  0
CLASS
  1
LAYOUT
  2
AcDbLayout
  3
AutoCAD 2000
 90
0
280
0
281
0
  0
ENDSEC
  0
SECTION
  2
TABLES
  0
TABLE
  2
VPORT
  5
8
100
AcDbSymbolTable
 70
2
  0
VPORT
  5
1F4
100
AcDbSymbolTableRecord
100
AcDbViewportTableRecord
  2
*ACTIVE
 70
0
 10
0.0
 20
0.0
 11
1.0
 21
1.0
 12
148.5
 22
105.0
 13
0.0
 23
0.0
 14
1.0
 24
1.0
 15
0.0
 25
0.0
 16
0.0
 26
0.0
 36
1.0
 17
0.0
 27
0.0
 37
0.0
 40
210.0
 41
1.4142857143
 42
50.0
 43
0.0
 44
0.0
 50
0.0
 51
0.0
 71
0
 72
100
 73
1
 74
1
 75
0
 76
0
 77
0
 78
0
  0
ENDTAB
  0
TABLE
  2
LTYPE
  5
5
100
AcDbSymbolTable
 70
6
  0
LTYPE
  5
14
100
AcDbSymbolTableRecord
100
AcDbLinetypeTableRecord
  2
BYBLOCK
 70
0
  3

 72
65
 73
0
 40
0.0
  0
LTYPE
  5
15
100
AcDbSymbolTableRecord
100
AcDbLinetypeTableRecord
  2
BYLAYER
 70
0
  3

 72
65
 73
0
 40
0.0
  0
LTYPE
  5
16
100
AcDbSymbolTableRecord
100
AcDbLinetypeTableRecord
  2
CONTINUOUS
 70
64
  3
Solid line
 72
65
 73
0
 40
0.0
  0
LTYPE
  5
1F5
100
AcDbSymbolTableRecord
100
AcDbLinetypeTableRecord
  2
CENTER
 70
64
  3
____ _ ____ _ ____ _ ____ _ ____ _ ____ _ ____
 72
65
 73
4
 40
0.6
 49
0.375
 74
0
 49
-0.075
 74
0
 49
0.075
 74
0
 49
-0.075
 74
0
  0
LTYPE
  5
1F6
100
AcDbSymbolTableRecord
100
AcDbLinetypeTableRecord
  2
HIDDEN
 70
64
  3
- - - - - - - - - - - - - - - - - - - -
 72
65
 73
2
 40
0.2
 49
0.1
 74
0
 49
-0.1
 74
0
  0
LTYPE
  5
1F7
100
AcDbSymbolTableRecord
100
AcDbLinetypeTableRecord
  2
PHANTOM
 70
64
  3
_____ _ _ _____ _ _ _____ _ _ _____
 72
65
 73
6
 40
0.8
 49
0.45
 74
0
 49
-0.05
 74
0
 49
0.1
 74
0
 49
-0.05
 74
0
 49
0.1
 74
0
 49
-0.05
 74
0
  0
LTYPE
  5
1F8
100
AcDbSymbolTableRecord
100
AcDbLinetypeTableRecord
  2
DOT
 70
64
  3
. . . . . . . . . . . . . . . . . . . .
 72
65
 73
2
 40
0.2
 49
0.1
 74
0
 49
-0.1
 74
0
  0
LTYPE
  5
1F9
100
AcDbSymbolTableRecord
100
AcDbLinetypeTableRecord
  2
DASHED
 70
64
  3
- - - - - - - - - - - - - - - - - - - -
 72
65
 73
2
 40
0.2
 49
0.1
 74
0
 49
-0.1
 74
0
  0
ENDTAB
  0
TABLE
  2
LAYER
  5
2
100
AcDbSymbolTable
 70
36
  0
LAYER
  5
10
100
AcDbSymbolTableRecord
100
AcDbLayerTableRecord
  2
0
 70
0
 62
7
  6
CONTINUOUS
370
-3
390
F
  0
LAYER
  5
1FA
100
AcDbSymbolTableRecord
100
AcDbLayerTableRecord
  2
DEFAULT_1
 70
0
 62
7
  6
CENTER
370
-3
390
F
  0
LAYER
  5
1FB
100
AcDbSymbolTableRecord
100
AcDbLayerTableRecord
  2
DEFAULT_2
 70
0
 62
7
  6
HIDDEN
370
-3
390
F
  0
LAYER
  5
1FC
100
AcDbSymbolTableRecord
100
AcDbLayerTableRecord
  2
DEFAULT_3
 70
0
 62
7
  6
PHANTOM
370
-3
390
F
  0
LAYER
  5
1FD
100
AcDbSymbolTableRecord
100
AcDbLayerTableRecord
  2
ASSI
 70
0
 62
7
  6
CONTINUOUS
370
-3
390
F
  0
LAYER
  5
1FE
100
AcDbSymbolTableRecord
100
AcDbLayerTableRecord
  2
COLOR1
 70
0
 62
7
  6
CONTINUOUS
370
-3
390
F
  0
LAYER
  5
1FF
100
AcDbSymbolTableRecord
100
AcDbLayerTableRecord
  2
COLOR6
 70
0
 62
7
  6
CONTINUOUS
370
-3
390
F
  0
LAYER
  5
200
100
AcDbSymbolTableRecord
100
AcDbLayerTableRecord
  2
COLOR7
 70
0
 62
7
  6
CONTINUOUS
370
-3
390
F
  0
LAYER
  5
201
100
AcDbSymbolTableRecord
100
AcDbLayerTableRecord
  2
COORDINATE
 70
0
 62
7
  6
CONTINUOUS
370
-3
390
F
  0
LAYER
  5
202
100
AcDbSymbolTableRecord
100
AcDbLayerTableRecord
  2
COORD_ORIGINE
 70
0
 62
7
  6
CONTINUOUS
370
-3
390
F
  0
LAYER
  5
203
100
AcDbSymbolTableRecord
100
AcDbLayerTableRecord
  2
COPY_PUBLISH
 70
0
 62
7
  6
CONTINUOUS
370
-3
390
F
  0
LAYER
  5
204
100
AcDbSymbolTableRecord
100
AcDbLayerTableRecord
  2
COSMETICI
 70
0
 62
7
  6
CONTINUOUS
370
-3
390
F
  0
LAYER
  5
205
100
AcDbSymbolTableRecord
100
AcDbLayerTableRecord
  2
CURVE
 70
0
 62
7
  6
CONTINUOUS
370
-3
390
F
  0
LAYER
  5
206
100
AcDbSymbolTableRecord
100
AcDbLayerTableRecord
  2
CURVE_LED_TASTO
 70
0
 62
7
  6
CONTINUOUS
370
-3
390
F
  0
LAYER
  5
207
100
AcDbSymbolTableRecord
100
AcDbLayerTableRecord
  2
DRAFT
 70
0
 62
7
  6
CONTINUOUS
370
-3
390
F
  0
LAYER
  5
208
100
AcDbSymbolTableRecord
100
AcDbLayerTableRecord
  2
IGES_SCRITTE
 70
0
 62
7
  6
CONTINUOUS
370
-3
390
F
  0
LAYER
  5
209
100
AcDbSymbolTableRecord
100
AcDbLayerTableRecord
  2
IMPORT_IGES
 70
0
 62
7
  6
CONTINUOUS
370
-3
390
F
  0
LAYER
  5
20A
100
AcDbSymbolTableRecord
100
AcDbLayerTableRecord
  2
INTF_YELLOW
 70
0
 62
7
  6
CONTINUOUS
370
-3
390
F
  0
LAYER
  5
20B
100
AcDbSymbolTableRecord
100
AcDbLayerTableRecord
  2
NOTE
 70
0
 62
7
  6
CONTINUOUS
370
-3
390
F
  0
LAYER
  5
20C
100
AcDbSymbolTableRecord
100
AcDbLayerTableRecord
  2
PIANI
 70
0
 62
7
  6
CONTINUOUS
370
-3
390
F
  0
LAYER
  5
20D
100
AcDbSymbolTableRecord
100
AcDbLayerTableRecord
  2
PIANI_ORIGINE
 70
0
 62
7
  6
CONTINUOUS
370
-3
390
F
  0
LAYER
  5
20E
100
AcDbSymbolTableRecord
100
AcDbLayerTableRecord
  2
PIANI_RIFERIMENTO
 70
0
 62
7
  6
CONTINUOUS
370
-3
390
F
  0
LAYER
  5
20F
100
AcDbSymbolTableRecord
100
AcDbLayerTableRecord
  2
PUNTI
 70
0
 62
7
  6
CONTINUOUS
370
-3
390
F
  0
LAYER
  5
210
100
AcDbSymbolTableRecord
100
AcDbLayerTableRecord
  2
RACCORDO
 70
0
 62
7
  6
CONTINUOUS
370
-3
390
F
  0
LAYER
  5
211
100
AcDbSymbolTableRecord
100
AcDbLayerTableRecord
  2
SIMBOLI
 70
0
 62
7
  6
CONTINUOUS
370
-3
390
F
  0
LAYER
  5
212
100
AcDbSymbolTableRecord
100
AcDbLayerTableRecord
  2
SMUSSO
 70
0
 62
7
  6
CONTINUOUS
370
-3
390
F
  0
LAYER
  5
213
100
AcDbSymbolTableRecord
100
AcDbLayerTableRecord
  2
SNAPLINE
 70
0
 62
7
  6
CONTINUOUS
370
-3
390
F
  0
LAYER
  5
214
100
AcDbSymbolTableRecord
100
AcDbLayerTableRecord
  2
SUPERFICI
 70
0
 62
7
  6
CONTINUOUS
370
-3
390
F
  0
LAYER
  5
215
100
AcDbSymbolTableRecord
100
AcDbLayerTableRecord
  2
TRASH
 70
0
 62
7
  6
CONTINUOUS
370
-3
390
F
  0
LAYER
  5
216
100
AcDbSymbolTableRecord
100
AcDbLayerTableRecord
  2
___SHELL
 70
0
 62
7
  6
CONTINUOUS
370
-3
390
F
  0
ENDTAB
  0
TABLE
  2
STYLE
  5
3
100
AcDbSymbolTable
 70
1
  0
STYLE
  5
11
100
AcDbSymbolTableRecord
100
AcDbTextStyleTableRecord
  2
STANDARD
 70
0
 40
0.0
 41
0.8
 50
0.0
 71
0
 42
0.2
  3
txt
  4

  0
STYLE
  5
217
100
AcDbSymbolTableRecord
100
AcDbTextStyleTableRecord
  2
TEXTSTYLE_1
 70
0
 40
0.0
 41
0.8
 50
0.0
 71
0
 42
0.2
  3
gdt
  4

  0
ENDTAB
  0
TABLE
  2
VIEW
  5
6
100
AcDbSymbolTable
 70
0
  0
ENDTAB
  0
TABLE
  2
UCS
  5
7
100
AcDbSymbolTable
 70
0
  0
ENDTAB
  0
TABLE
  2
APPID
  5
9
100
AcDbSymbolTable
 70
1
  0
APPID
  5
218
100
AcDbSymbolTableRecord
100
AcDbRegAppTableRecord
  2
ACAD
 70
0
  0
ENDTAB
  0
TABLE
  2
BLOCK_RECORD
  5
1
100
AcDbSymbolTable
 70
0
  0
BLOCK_RECORD
  5
219
100
AcDbSymbolTableRecord
100
AcDbBlockTableRecord
  2
*Model_Space
  0
BLOCK_RECORD
  5
21A
100
AcDbSymbolTableRecord
100
AcDbBlockTableRecord
  2
*Paper_Space
  0
BLOCK_RECORD
  5
21B
100
AcDbSymbolTableRecord
100
AcDbBlockTableRecord
  2
_FILLED
  0
BLOCK_RECORD
  5
21C
100
AcDbSymbolTableRecord
100
AcDbBlockTableRecord
  2
*D0
  0
BLOCK_RECORD
  5
21D
100
AcDbSymbolTableRecord
100
AcDbBlockTableRecord
  2
*D1
  0
BLOCK_RECORD
  5
21E
100
AcDbSymbolTableRecord
100
AcDbBlockTableRecord
  2
*D2
  0
ENDTAB
  0
TABLE
  2
DIMSTYLE
  5
A
100
AcDbSymbolTable
 70
1
100
AcDbDimStyleTable
 71
0
  0
DIMSTYLE
105
21F
100
AcDbSymbolTableRecord
100
AcDbDimStyleTableRecord
  2
STANDARD
 70
0
  3

  4

 40
1.0
 41
3.0
 42
0.5
 43
0.38
 44
1.5
 45
0.0
 46
0.0
 47
0.01
 48
0.01
140
3.0
141
0.09
142
0.0
143
25.4
144
1.0
145
0.0
146
1.0
147
0.625
 71
1.0
 72
0.0
 73
0
 74
0
 75
0
 76
0
 77
1
 78
8
170
0
171
2
172
0
173
0
174
0
175
0
176
0
177
0
178
0
270
2
271
2
272
2
273
2
274
2
275
0
280
0
281
0
282
0
283
1
284
8
285
0
286
0
287
3
288
0
340
11
278
44
341
21B
342
21B
343
21B
344
21B
  0
DIMSTYLE
105
220
100
AcDbSymbolTableRecord
100
AcDbDimStyleTableRecord
  2
DIMSTYLE_1
 70
0
  3

  4

 40
1.0
 41
3.0
 42
0.5
 43
0.38
 44
1.5
 45
0.0
 46
0.0
 47
0.0
 48
0.0
140
3.0
141
0.09
142
0.0
143
25.4
144
1.0
145
0.0
146
1.0
147
0.75
 71
0.0
 72
0.0
 73
0
 74
0
 75
0
 76
0
 77
1
 78
8
170
0
171
2
172
0
173
0
174
0
175
0
176
0
177
0
178
0
270
2
271
2
272
2
273
2
274
2
275
0
280
0
281
0
282
0
283
1
284
8
285
0
286
0
287
3
288
0
340
11
278
44
341
21B
342
21B
343
21B
344
21B
  0
ENDTAB
  0
ENDSEC
  0
SECTION
  2
BLOCKS
  0
BLOCK
  5
20
100
AcDbEntity
  8
0
100
AcDbBlockBegin
  2
*Model_Space
 70
0
 10
0.0
 20
0.0
 30
0.0
  3
*Model_Space
  1

  0
ENDBLK
  5
21
100
AcDbEntity
  8
0
100
AcDbBlockEnd
  0
BLOCK
  5
1C
100
AcDbEntity
  8
0
100
AcDbBlockBegin
  2
*Paper_Space
 70
0
 10
0.0
 20
0.0
 30
0.0
  3
*Paper_Space
  1

  0
ENDBLK
  5
1D
100
AcDbEntity
  8
0
100
AcDbBlockEnd
  0
BLOCK
  5
221
100
AcDbEntity
  8
0
100
AcDbBlockBegin
  2
_FILLED
 70
64
 10
0.0
 20
0.0
  3
_FILLED
  1

  0
SOLID
  5
222
100
AcDbEntity
  8
0
  6
BYBLOCK
 62
0
100
AcDbTrace
 10
0.0
 20
0.0
 11
-1.0
 21
0.3166666667
 12
-1.0
 22
-0.3166666667
 13
-1.0
 23
-0.3166666667
  0
ENDBLK
  5
223
100
AcDbEntity
  8
0
  6
BYBLOCK
 62
0
100
AcDbBlockEnd
  0
BLOCK
  5
224
100
AcDbEntity
  8
0
100
AcDbBlockBegin
 62
7
  6
CONTINUOUS
  2
*D0
 70
65
 10
0.0
 20
0.0
  3
*D0
  1

  0
MTEXT
  5
225
100
AcDbEntity
  8
0
100
AcDbMText
 62
7
  6
CONTINUOUS
  7
STANDARD
 71
2
 72
1
 10
3.0744929796
 20
18.4813402041
 30
0.0
 11
0.0
 21
1.0
 31
0.0
 44
0.9
  1
43,7
 40
3.0
 41
8.5714285714
  0
LINE
  5
226
100
AcDbEntity
  8
0
100
AcDbLine
 62
7
  6
CONTINUOUS
 10
-1.4753851765
 20
-3.3686597959
 11
8.3244929796
 21
-3.3686597959
  0
LINE
  5
227
100
AcDbEntity
  8
0
100
AcDbLine
 62
7
  6
CONTINUOUS
 10
-1.4753851765
 20
40.3313402041
 11
8.3244929796
 21
40.3313402041
  0
LINE
  5
228
100
AcDbEntity
  8
0
100
AcDbLine
 62
7
  6
CONTINUOUS
 10
6.8244929796
 20
-3.3686597959
 11
6.8244929796
 21
18.4813402041
  0
LINE
  5
229
100
AcDbEntity
  8
0
100
AcDbLine
 62
7
  6
CONTINUOUS
 10
6.8244929796
 20
40.3313402041
 11
6.8244929796
 21
18.4813402041
  0
INSERT
  5
22A
100
AcDbEntity
  8
0
100
AcDbBlockReference
 62
7
  6
CONTINUOUS
  2
_FILLED
 10
6.8244929796
 20
-3.3686597959
 41
3.0
 42
3.0
 43
3.0
 50
270.0
  0
INSERT
  5
22B
100
AcDbEntity
  8
0
100
AcDbBlockReference
 62
7
  6
CONTINUOUS
  2
_FILLED
 10
6.8244929796
 20
40.3313402041
 41
3.0
 42
3.0
 43
3.0
 50
90.0
  0
ENDBLK
  5
22C
100
AcDbEntity
  8
0
  6
BYBLOCK
 62
0
100
AcDbBlockEnd
  0
BLOCK
  5
22D
100
AcDbEntity
  8
0
100
AcDbBlockBegin
 62
7
  6
CONTINUOUS
  2
*D1
 70
65
 10
0.0
 20
0.0
  3
*D1
  1

  0
MTEXT
  5
22E
100
AcDbEntity
  8
0
100
AcDbMText
 62
7
  6
CONTINUOUS
  7
STANDARD
 71
2
 72
1
 10
-12.2755070204
 20
52.0813402041
 30
0.0
 11
1.0
 21
0.0
 31
0.0
 44
0.9
  1
22,2
 40
3.0
 41
8.7857142857
  0
LINE
  5
22F
100
AcDbEntity
  8
0
100
AcDbLine
 62
7
  6
CONTINUOUS
 10
-1.1755070204
 20
40.031462048
 11
-1.1755070204
 21
49.8313402041
  0
LINE
  5
230
100
AcDbEntity
  8
0
100
AcDbLine
 62
7
  6
CONTINUOUS
 10
-23.3755070204
 20
40.031462048
 11
-23.3755070204
 21
49.8313402041
  0
LINE
  5
231
100
AcDbEntity
  8
0
100
AcDbLine
 62
7
  6
CONTINUOUS
 10
-1.1755070204
 20
48.3313402041
 11
-12.2755070204
 21
48.3313402041
  0
LINE
  5
232
100
AcDbEntity
  8
0
100
AcDbLine
 62
7
  6
CONTINUOUS
 10
-23.3755070204
 20
48.3313402041
 11
-12.2755070204
 21
48.3313402041
  0
INSERT
  5
233
100
AcDbEntity
  8
0
100
AcDbBlockReference
 62
7
  6
CONTINUOUS
  2
_FILLED
 10
-1.1755070204
 20
48.3313402041
 41
3.0
 42
3.0
 43
3.0
  0
INSERT
  5
234
100
AcDbEntity
  8
0
100
AcDbBlockReference
 62
7
  6
CONTINUOUS
  2
_FILLED
 10
-23.3755070204
 20
48.3313402041
 41
3.0
 42
3.0
 43
3.0
 50
180.0
  0
ENDBLK
  5
235
100
AcDbEntity
  8
0
  6
BYBLOCK
 62
0
100
AcDbBlockEnd
  0
BLOCK
  5
236
100
AcDbEntity
  8
0
100
AcDbBlockBegin
 62
7
  6
CONTINUOUS
  2
*D2
 70
65
 10
0.0
 20
0.0
  3
*D2
  1

  0
MTEXT
  5
237
100
AcDbEntity
  8
0
100
AcDbMText
 62
7
  6
CONTINUOUS
  7
STANDARD
 71
2
 72
1
 10
-49.3727104541
 20
52.0813402041
 30
0.0
 11
1.0
 21
0.0
 31
0.0
 44
0.9
  1
11,6
 40
3.0
 41
7.5
  0
LINE
  5
238
100
AcDbEntity
  8
0
100
AcDbLine
 62
7
  6
CONTINUOUS
 10
-43.5727104541
 20
20.1999241499
 11
-43.5727104541
 21
49.8313402041
  0
LINE
  5
239
100
AcDbEntity
  8
0
100
AcDbLine
 62
7
  6
CONTINUOUS
 10
-55.1727104541
 20
18.9813402041
 11
-55.1727104541
 21
49.8313402041
  0
LINE
  5
23A
100
AcDbEntity
  8
0
100
AcDbLine
 62
7
  6
CONTINUOUS
 10
-43.5727104541
 20
48.3313402041
 11
-39.5727104541
 21
48.3313402041
  0
LINE
  5
23B
100
AcDbEntity
  8
0
100
AcDbLine
 62
7
  6
CONTINUOUS
 10
-39.5727104541
 20
48.3313402041
 11
-49.3727104541
 21
48.3313402041
  0
LINE
  5
23C
100
AcDbEntity
  8
0
100
AcDbLine
 62
7
  6
CONTINUOUS
 10
-55.1727104541
 20
48.3313402041
 11
-59.1727104541
 21
48.3313402041
  0
LINE
  5
23D
100
AcDbEntity
  8
0
100
AcDbLine
 62
7
  6
CONTINUOUS
 10
-59.1727104541
 20
48.3313402041
 11
-49.3727104541
 21
48.3313402041
  0
INSERT
  5
23E
100
AcDbEntity
  8
0
100
AcDbBlockReference
 62
7
  6
CONTINUOUS
  2
_FILLED
 10
-43.5727104541
 20
48.3313402041
 41
3.0
 42
3.0
 43
3.0
 50
180.0
  0
INSERT
  5
23F
100
AcDbEntity
  8
0
100
AcDbBlockReference
 62
7
  6
CONTINUOUS
  2
_FILLED
 10
-55.1727104541
 20
48.3313402041
 41
3.0
 42
3.0
 43
3.0
  0
ENDBLK
  5
240
100
AcDbEntity
  8
0
  6
BYBLOCK
 62
0
100
AcDbBlockEnd
  0
ENDSEC
  0
SECTION
  2
ENTITIES
  0
DIMENSION
  5
241
100
AcDbEntity
  8
0
100
AcDbDimension
 62
7
  6
CONTINUOUS
  2
*D0
 10
6.8244929796
 20
40.3313402041
 11
6.8244929796
 21
18.4813402041
 70
160
 71
2
 42
43.7
  3
DIMSTYLE_1
100
AcDbAlignedDimension
 13
-1.9753851765
 23
-3.3686597959
 14
-1.9753851765
 24
40.3313402041
 50
90.0
100
AcDbRotatedDimension
  0
DIMENSION
  5
242
100
AcDbEntity
  8
0
100
AcDbDimension
 62
7
  6
CONTINUOUS
  2
*D1
 10
-23.3755070204
 20
48.3313402041
 11
-12.2755070204
 21
48.3313402041
 70
160
 71
2
 42
22.2
  3
DIMSTYLE_1
100
AcDbAlignedDimension
 13
-1.1755070204
 23
39.531462048
 14
-23.3755070204
 24
39.531462048
 50
180.0
100
AcDbRotatedDimension
  0
DIMENSION
  5
243
100
AcDbEntity
  8
0
100
AcDbDimension
 62
7
  6
CONTINUOUS
  2
*D2
 10
-55.1727104541
 20
48.3313402041
 11
-49.3727104541
 21
48.3313402041
 70
160
 71
2
 42
11.6
  3
DIMSTYLE_1
100
AcDbAlignedDimension
 13
-43.5727104541
 23
19.6999241499
 14
-55.1727104541
 24
18.4813402041
 50
180.0
100
AcDbRotatedDimension
  0
LINE
  5
244
100
AcDbEntity
  8
RACCORDO
100
AcDbLine
 62
253
  6
CONTINUOUS
 10
-1.4561040565
 20
-1.8744652316
 11
-1.4870179649
 21
-1.8768171607
  0
LINE
  5
245
100
AcDbEntity
  8
ASSI
100
AcDbLine
 62
253
  6
CONTINUOUS
 10
-1.4561040565
 20
-1.8744652316
 11
-1.4870179649
 21
-1.8768171607
  0
LINE
  5
246
100
AcDbEntity
  8
RACCORDO
100
AcDbLine
 62
253
  6
CONTINUOUS
 10
-1.4870179649
 20
-1.8768171607
 11
-1.5198409529
 21
-1.8790467865
  0
LINE
  5
247
100
AcDbEntity
  8
ASSI
100
AcDbLine
 62
253
  6
CONTINUOUS
 10
-1.4870179649
 20
-1.8768171607
 11
-1.5198409529
 21
-1.8790467865
  0
LINE
  5
248
100
AcDbEntity
  8
RACCORDO
100
AcDbLine
 62
7
  6
CONTINUOUS
 10
-1.9753851765
 20
-3.3686597959
 11
-22.5756288643
 21
-3.3686597959
  0
LINE
  5
249
100
AcDbEntity
  8
ASSI
100
AcDbLine
 62
7
  6
CONTINUOUS
 10
-1.9753851765
 20
-3.3686597959
 11
-22.5756288643
 21
-3.3686597959
  0
LINE
  5
24A
100
AcDbEntity
  8
RACCORDO
100
AcDbLine
 62
253
  6
CONTINUOUS
 10
-22.4990551477
 20
-3.2920860793
 11
-2.0519588931
 21
-3.2920860793
  0
LINE
  5
24B
100
AcDbEntity
  8
ASSI
100
AcDbLine
 62
253
  6
CONTINUOUS
 10
-22.4990551477
 20
-3.2920860793
 11
-2.0519588931
 21
-3.2920860793
  0
LINE
  5
24C
100
AcDbEntity
  8
RACCORDO
100
AcDbLine
 62
253
  6
CONTINUOUS
 10
-23.0639960795
 20
-1.8768171612
 11
-23.0311730914
 21
-1.879046787
  0
LINE
  5
24D
100
AcDbEntity
  8
ASSI
100
AcDbLine
 62
253
  6
CONTINUOUS
 10
-23.0639960795
 20
-1.8768171612
 11
-23.0311730914
 21
-1.879046787
  0
LINE
  5
24E
100
AcDbEntity
  8
RACCORDO
100
AcDbLine
 62
253
  6
CONTINUOUS
 10
-1.5198409529
 20
-1.8790467865
 11
-1.5544644061
 21
-1.8811467307
  0
LINE
  5
24F
100
AcDbEntity
  8
ASSI
100
AcDbLine
 62
253
  6
CONTINUOUS
 10
-1.5198409529
 20
-1.8790467865
 11
-1.5544644061
 21
-1.8811467307
  0
LINE
  5
250
100
AcDbEntity
  8
RACCORDO
100
AcDbLine
 62
253
  6
CONTINUOUS
 10
-1.5544644061
 20
-1.8811467307
 11
-1.5907737519
 21
-1.8831100446
  0
LINE
  5
251
100
AcDbEntity
  8
ASSI
100
AcDbLine
 62
253
  6
CONTINUOUS
 10
-1.5544644061
 20
-1.8811467307
 11
-1.5907737519
 21
-1.8831100446
  0
LINE
  5
252
100
AcDbEntity
  8
RACCORDO
100
AcDbLine
 62
253
  6
CONTINUOUS
 10
-1.5907737519
 20
-1.8831100446
 11
-1.628648839
 21
-1.8849302313
  0
LINE
  5
253
100
AcDbEntity
  8
ASSI
100
AcDbLine
 62
253
  6
CONTINUOUS
 10
-1.5907737519
 20
-1.8831100446
 11
-1.628648839
 21
-1.8849302313
  0
LINE
  5
254
100
AcDbEntity
  8
RACCORDO
100
AcDbLine
 62
253
  6
CONTINUOUS
 10
-1.628648839
 20
-1.8849302313
 11
-1.667964335
 21
-1.8866012676
  0
LINE
  5
255
100
AcDbEntity
  8
ASSI
100
AcDbLine
 62
253
  6
CONTINUOUS
 10
-1.628648839
 20
-1.8849302313
 11
-1.667964335
 21
-1.8866012676
  0
LINE
  5
256
100
AcDbEntity
  8
RACCORDO
100
AcDbLine
 62
253
  6
CONTINUOUS
 10
-1.667964335
 20
-1.8866012676
 11
-1.708590141
 21
-1.8881176238
  0
LINE
  5
257
100
AcDbEntity
  8
ASSI
100
AcDbLine
 62
253
  6
CONTINUOUS
 10
-1.667964335
 20
-1.8866012676
 11
-1.708590141
 21
-1.8881176238
  0
LINE
  5
258
100
AcDbEntity
  8
RACCORDO
100
AcDbLine
 62
253
  6
CONTINUOUS
 10
-1.708590141
 20
-1.8881176238
 11
-1.7503918221
 21
-1.8894742823
  0
LINE
  5
259
100
AcDbEntity
  8
ASSI
100
AcDbLine
 62
253
  6
CONTINUOUS
 10
-1.708590141
 20
-1.8881176238
 11
-1.7503918221
 21
-1.8894742823
  0
LINE
  5
25A
100
AcDbEntity
  8
RACCORDO
100
AcDbLine
 62
253
  6
CONTINUOUS
 10
-1.7503918221
 20
-1.8894742823
 11
-1.7932310523
 21
-1.8906667537
  0
LINE
  5
25B
100
AcDbEntity
  8
ASSI
100
AcDbLine
 62
253
  6
CONTINUOUS
 10
-1.7503918221
 20
-1.8894742823
 11
-1.7932310523
 21
-1.8906667537
  0
LINE
  5
25C
100
AcDbEntity
  8
RACCORDO
100
AcDbLine
 62
253
  6
CONTINUOUS
 10
-1.7932310523
 20
-1.8906667537
 11
-1.8369660724
 21
-1.891691092
  0
LINE
  5
25D
100
AcDbEntity
  8
ASSI
100
AcDbLine
 62
253
  6
CONTINUOUS
 10
-1.7932310523
 20
-1.8906667537
 11
-1.8369660724
 21
-1.891691092
  0
LINE
  5
25E
100
AcDbEntity
  8
RACCORDO
100
AcDbLine
 62
253
  6
CONTINUOUS
 10
-1.8369660724
 20
-1.891691092
 11
-1.8814521586
 21
-1.8925439076
  0
LINE
  5
25F
100
AcDbEntity
  8
ASSI
100
AcDbLine
 62
253
  6
CONTINUOUS
 10
-1.8369660724
 20
-1.891691092
 11
-1.8814521586
 21
-1.8925439076
  0
LINE
  5
260
100
AcDbEntity
  8
RACCORDO
100
AcDbLine
 62
253
  6
CONTINUOUS
 10
-1.8814521586
 20
-1.8925439076
 11
-1.9492669578
 21
-1.89349551
  0
LINE
  5
261
100
AcDbEntity
  8
ASSI
100
AcDbLine
 62
253
  6
CONTINUOUS
 10
-1.8814521586
 20
-1.8925439076
 11
-1.9492669578
 21
-1.89349551
  0
LINE
  5
262
100
AcDbEntity
  8
RACCORDO
100
AcDbLine
 62
253
  6
CONTINUOUS
 10
-1.9492669578
 20
-1.89349551
 11
-2.0179352281
 21
-1.8940478893
  0
LINE
  5
263
100
AcDbEntity
  8
ASSI
100
AcDbLine
 62
253
  6
CONTINUOUS
 10
-1.9492669578
 20
-1.89349551
 11
-2.0179352281
 21
-1.8940478893
  0
LINE
  5
264
100
AcDbEntity
  8
RACCORDO
100
AcDbLine
 62
253
  6
CONTINUOUS
 10
-2.0179352281
 20
-1.8940478893
 11
-2.0639359814
 21
-1.8941921978
  0
LINE
  5
265
100
AcDbEntity
  8
ASSI
100
AcDbLine
 62
253
  6
CONTINUOUS
 10
-2.0179352281
 20
-1.8940478893
 11
-2.0639359814
 21
-1.8941921978
  0
LINE
  5
266
100
AcDbEntity
  8
RACCORDO
100
AcDbLine
 62
253
  6
CONTINUOUS
 10
-22.5330788131
 20
-1.8940478901
 11
-2.0639359814
 21
-1.8941921986
  0
LINE
  5
267
100
AcDbEntity
  8
ASSI
100
AcDbLine
 62
253
  6
CONTINUOUS
 10
-22.5330788131
 20
-1.8940478901
 11
-2.0639359814
 21
-1.8941921986
  0
LINE
  5
268
100
AcDbEntity
  8
RACCORDO
100
AcDbLine
 62
253
  6
CONTINUOUS
 10
-22.6017470839
 20
-1.8934955109
 11
-22.5330788131
 21
-1.8940478901
  0
LINE
  5
269
100
AcDbEntity
  8
ASSI
100
AcDbLine
 62
253
  6
CONTINUOUS
 10
-22.6017470839
 20
-1.8934955109
 11
-22.5330788131
 21
-1.8940478901
  0
LINE
  5
26A
100
AcDbEntity
  8
RACCORDO
100
AcDbLine
 62
253
  6
CONTINUOUS
 10
-22.6695618837
 20
-1.8925439084
 11
-22.6017470839
 21
-1.8934955109
  0
LINE
  5
26B
100
AcDbEntity
  8
ASSI
100
AcDbLine
 62
253
  6
CONTINUOUS
 10
-22.6695618837
 20
-1.8925439084
 11
-22.6017470839
 21
-1.8934955109
  0
LINE
  5
26C
100
AcDbEntity
  8
RACCORDO
100
AcDbLine
 62
253
  6
CONTINUOUS
 10
-22.7360184728
 20
-1.8912001653
 11
-22.6695618837
 21
-1.8925439084
  0
LINE
  5
26D
100
AcDbEntity
  8
ASSI
100
AcDbLine
 62
253
  6
CONTINUOUS
 10
-22.7360184728
 20
-1.8912001653
 11
-22.6695618837
 21
-1.8925439084
  0
LINE
  5
26E
100
AcDbEntity
  8
RACCORDO
100
AcDbLine
 62
253
  6
CONTINUOUS
 10
-22.7793235145
 20
-1.8900913017
 11
-22.7360184728
 21
-1.8912001653
  0
LINE
  5
26F
100
AcDbEntity
  8
ASSI
100
AcDbLine
 62
253
  6
CONTINUOUS
 10
-22.7793235145
 20
-1.8900913017
 11
-22.7360184728
 21
-1.8912001653
  0
LINE
  5
270
100
AcDbEntity
  8
RACCORDO
100
AcDbLine
 62
253
  6
CONTINUOUS
 10
-22.8216614867
 20
-1.8888162092
 11
-22.7793235145
 21
-1.8900913017
  0
LINE
  5
271
100
AcDbEntity
  8
ASSI
100
AcDbLine
 62
253
  6
CONTINUOUS
 10
-22.8216614867
 20
-1.8888162092
 11
-22.7793235145
 21
-1.8900913017
  0
LINE
  5
272
100
AcDbEntity
  8
RACCORDO
100
AcDbLine
 62
253
  6
CONTINUOUS
 10
-22.8628922886
 20
-1.8873791072
 11
-22.8216614867
 21
-1.8888162092
  0
LINE
  5
273
100
AcDbEntity
  8
ASSI
100
AcDbLine
 62
253
  6
CONTINUOUS
 10
-22.8628922886
 20
-1.8873791072
 11
-22.8216614867
 21
-1.8888162092
  0
LINE
  5
274
100
AcDbEntity
  8
RACCORDO
100
AcDbLine
 62
253
  6
CONTINUOUS
 10
-22.9028794834
 20
-1.8857847512
 11
-22.8628922886
 21
-1.8873791072
  0
LINE
  5
275
100
AcDbEntity
  8
ASSI
100
AcDbLine
 62
253
  6
CONTINUOUS
 10
-22.9028794834
 20
-1.8857847512
 11
-22.8628922886
 21
-1.8873791072
  0
LINE
  5
276
100
AcDbEntity
  8
RACCORDO
100
AcDbLine
 62
253
  6
CONTINUOUS
 10
-22.9414907496
 20
-1.8840384172
 11
-22.9028794834
 21
-1.8857847512
  0
LINE
  5
277
100
AcDbEntity
  8
ASSI
100
AcDbLine
 62
253
  6
CONTINUOUS
 10
-22.9414907496
 20
-1.8840384172
 11
-22.9028794834
 21
-1.8857847512
  0
LINE
  5
278
100
AcDbEntity
  8
RACCORDO
100
AcDbLine
 62
253
  6
CONTINUOUS
 10
-22.9785983185
 20
-1.8821458839
 11
-22.9414907496
 21
-1.8840384172
  0
LINE
  5
279
100
AcDbEntity
  8
ASSI
100
AcDbLine
 62
253
  6
CONTINUOUS
 10
-22.9785983185
 20
-1.8821458839
 11
-22.9414907496
 21
-1.8840384172
  0
LWPOLYLINE
  5
27A
100
AcDbEntity
  8
RACCORDO
100
AcDbPolyline
 62
253
  6
CONTINUOUS
 90
3
 70
0
 10
-23.0311730914
 20
-1.879046787
 10
-23.0140793974
 20
-1.8801134139
 10
-22.9785983185
 20
-1.8821458839
  0
LWPOLYLINE
  5
27B
100
AcDbEntity
  8
ASSI
100
AcDbPolyline
 62
253
  6
CONTINUOUS
 90
3
 70
0
 10
-23.0311730914
 20
-1.879046787
 10
-23.0140793974
 20
-1.8801134139
 10
-22.9785983185
 20
-1.8821458839
  0
LWPOLYLINE
  5
27C
100
AcDbEntity
  8
RACCORDO
100
AcDbPolyline
 62
253
  6
CONTINUOUS
 90
25
 70
0
 10
-23.2869562155
 20
38.8025378537
 10
-23.2862246362
 20
38.804100888
 10
-23.284831806
 20
38.805662629
 10
-23.2827788774
 20
38.8072217845
 10
-23.2800675492
 20
38.8087770642
 10
-23.2767000647
 20
38.8103271813
 10
-23.2726792105
 20
38.8118708532
 10
-23.2680083135
 20
38.8134068025
 10
-23.2626912387
 20
38.8149337583
 10
-23.2567323856
 20
38.8164504572
 10
-23.250136685
 20
38.8179556442
 10
-23.2429095943
 20
38.8194480737
 10
-23.2350570936
 20
38.820926511
 10
-23.2265856805
 20
38.8223897326
 10
-23.2175023645
 20
38.8238365279
 10
-23.2078146617
 20
38.8252656997
 10
-23.197530588
 20
38.8266760653
 10
-23.1866586531
 20
38.828066458
 10
-23.1752078527
 20
38.829435727
 10
-23.163187662
 20
38.8307827395
 10
-23.1506080269
 20
38.8321063809
 10
-23.1374793563
 20
38.833405556
 10
-23.1238125137
 20
38.8346791896
 10
-23.1096188075
 20
38.835926228
 10
-23.0949099822
 20
38.8371456394
  0
LWPOLYLINE
  5
27D
100
AcDbEntity
  8
ASSI
100
AcDbPolyline
 62
253
  6
CONTINUOUS
 90
25
 70
0
 10
-23.2869562155
 20
38.8025378537
 10
-23.2862246362
 20
38.804100888
 10
-23.284831806
 20
38.805662629
 10
-23.2827788774
 20
38.8072217845
 10
-23.2800675492
 20
38.8087770642
 10
-23.2767000647
 20
38.8103271813
 10
-23.2726792105
 20
38.8118708532
 10
-23.2680083135
 20
38.8134068025
 10
-23.2626912387
 20
38.8149337583
 10
-23.2567323856
 20
38.8164504572
 10
-23.250136685
 20
38.8179556442
 10
-23.2429095943
 20
38.8194480737
 10
-23.2350570936
 20
38.820926511
 10
-23.2265856805
 20
38.8223897326
 10
-23.2175023645
 20
38.8238365279
 10
-23.2078146617
 20
38.8252656997
 10
-23.197530588
 20
38.8266760653
 10
-23.1866586531
 20
38.828066458
 10
-23.1752078527
 20
38.829435727
 10
-23.163187662
 20
38.8307827395
 10
-23.1506080269
 20
38.8321063809
 10
-23.1374793563
 20
38.833405556
 10
-23.1238125137
 20
38.8346791896
 10
-23.1096188075
 20
38.835926228
 10
-23.0949099822
 20
38.8371456394
  0
LWPOLYLINE
  5
27E
100
AcDbEntity
  8
RACCORDO
100
AcDbPolyline
 62
253
  6
CONTINUOUS
 90
26
 70
0
 10
-23.2869562155
 20
-1.8398574455
 10
-23.2862246366
 20
-1.8414204799
 10
-23.2848318069
 20
-1.8429822209
 10
-23.2827788787
 20
-1.8445413764
 10
-23.2800675509
 20
-1.8460966561
 10
-23.2767000668
 20
-1.8476467733
 10
-23.2726792129
 20
-1.8491904452
 10
-23.2680083163
 20
-1.8507263945
 10
-23.2626912418
 20
-1.8522533504
 10
-23.256732389
 20
-1.8537700493
 10
-23.2501366887
 20
-1.8552752363
 10
-23.2429095982
 20
-1.8567676659
 10
-23.2350570978
 20
-1.8582461032
 10
-23.2265856849
 20
-1.8597093249
 10
-23.2175023691
 20
-1.8611561202
 10
-23.2078146665
 20
-1.862585292
 10
-23.197530593
 20
-1.8639956577
 10
-23.1866586582
 20
-1.8653860503
 10
-23.175207858
 20
-1.8667553194
 10
-23.1631876673
 20
-1.868102332
 10
-23.1506080323
 20
-1.8694259734
 10
-23.1374793618
 20
-1.8707251485
 10
-23.1238125192
 20
-1.8719987822
 10
-23.109618813
 20
-1.8732458206
 10
-23.0949099878
 20
-1.874465232
 10
-23.0639960795
 20
-1.8768171612
  0
LWPOLYLINE
  5
27F
100
AcDbEntity
  8
ASSI
100
AcDbPolyline
 62
253
  6
CONTINUOUS
 90
26
 70
0
 10
-23.2869562155
 20
-1.8398574455
 10
-23.2862246366
 20
-1.8414204799
 10
-23.2848318069
 20
-1.8429822209
 10
-23.2827788787
 20
-1.8445413764
 10
-23.2800675509
 20
-1.8460966561
 10
-23.2767000668
 20
-1.8476467733
 10
-23.2726792129
 20
-1.8491904452
 10
-23.2680083163
 20
-1.8507263945
 10
-23.2626912418
 20
-1.8522533504
 10
-23.256732389
 20
-1.8537700493
 10
-23.2501366887
 20
-1.8552752363
 10
-23.2429095982
 20
-1.8567676659
 10
-23.2350570978
 20
-1.8582461032
 10
-23.2265856849
 20
-1.8597093249
 10
-23.2175023691
 20
-1.8611561202
 10
-23.2078146665
 20
-1.862585292
 10
-23.197530593
 20
-1.8639956577
 10
-23.1866586582
 20
-1.8653860503
 10
-23.175207858
 20
-1.8667553194
 10
-23.1631876673
 20
-1.868102332
 10
-23.1506080323
 20
-1.8694259734
 10
-23.1374793618
 20
-1.8707251485
 10
-23.1238125192
 20
-1.8719987822
 10
-23.109618813
 20
-1.8732458206
 10
-23.0949099878
 20
-1.874465232
 10
-23.0639960795
 20
-1.8768171612
  0
LWPOLYLINE
  5
280
100
AcDbEntity
  8
CURVE
100
AcDbPolyline
 62
252
  6
CONTINUOUS
 90
3
 70
0
 10
-12.1378686774
 20
4.8934661543
 10
-12.1128967841
 20
4.8990163686
 10
-12.0881623406
 20
4.9055460533
  0
LINE
  5
281
100
AcDbEntity
  8
CURVE
100
AcDbLine
 62
252
  6
CONTINUOUS
 10
-12.1378463458
 20
4.8934699952
 11
-12.1630202476
 21
4.8889049348
  0
LINE
  5
282
100
AcDbEntity
  8
CURVE
100
AcDbLine
 62
252
  6
CONTINUOUS
 10
-12.1883841648
 20
4.8853302135
 11
-12.1630428583
 21
4.8889019295
  0
LWPOLYLINE
  5
283
100
AcDbEntity
  8
CURVE
100
AcDbPolyline
 62
252
  6
CONTINUOUS
 90
3
 70
0
 10
-12.1883613897
 20
4.8853324404
 10
-12.2138346229
 20
4.8827590125
 10
-12.239404798
 20
4.8811911518
  0
LINE
  5
284
100
AcDbEntity
  8
CURVE
100
AcDbLine
 62
252
  6
CONTINUOUS
 10
-12.2650592163
 20
4.8806353096
 11
-12.2394275059
 21
4.8811903843
  0
LWPOLYLINE
  5
285
100
AcDbEntity
  8
CURVE
100
AcDbPolyline
 62
252
  6
CONTINUOUS
 90
15
 70
0
 10
-12.265036766
 20
4.8806353589
 10
-12.2906939011
 20
4.8810961795
 10
-12.316333671
 20
4.88257034
 10
-12.3419120668
 20
4.8850526123
 10
-12.3673850795
 20
4.8885377678
 10
-12.3927087002
 20
4.8930205782
 10
-12.41783892
 20
4.8984958153
 10
-12.44273173
 20
4.9049582506
 10
-12.4673431212
 20
4.9124026558
 10
-12.4916308879
 20
4.9208219345
 10
-12.5155600366
 20
4.9302015186
 10
-12.5390973774
 20
4.940524972
 10
-12.5622097199
 20
4.9517758585
 10
-12.5848638741
 20
4.9639377419
 10
-12.6070266498
 20
4.9769941861
  0
LWPOLYLINE
  5
286
100
AcDbEntity
  8
RACCORDO
100
AcDbPolyline
 62
253
  6
CONTINUOUS
 90
55
 70
0
 10
-23.2989333038
 20
-2.4922079232
 10
-23.298587962
 20
-2.5154676453
 10
-23.297566398
 20
-2.538707695
 10
-23.2958694757
 20
-2.5619084165
 10
-23.2934986304
 20
-2.5850501874
 10
-23.2904558673
 20
-2.6081134349
 10
-23.2867437597
 20
-2.6310786528
 10
-23.2823654474
 20
-2.6539264178
 10
-23.2773246334
 20
-2.6766374058
 10
-23.271625581
 20
-2.6991924087
 10
-23.2652731104
 20
-2.7215723499
 10
-23.2582725943
 20
-2.7437583012
 10
-23.2506299535
 20
-2.7657314983
 10
-23.242351652
 20
-2.7874733569
 10
-23.2334446912
 20
-2.8089654883
 10
-23.2239166045
 20
-2.8301897152
 10
-23.2137754505
 20
-2.8511280866
 10
-23.2030298063
 20
-2.8717628935
 10
-23.1916887601
 20
-2.8920766836
 10
-23.179761904
 20
-2.9120522759
 10
-23.1672593253
 20
-2.9316727758
 10
-23.1541915984
 20
-2.9509215887
 10
-23.1405697756
 20
-2.9697824346
 10
-23.1264053778
 20
-2.9882393614
 10
-23.1117103849
 20
-3.0062767589
 10
-23.0964972254
 20
-3.0238793715
 10
-23.0807787664
 20
-3.0410323113
 10
-23.0645683019
 20
-3.0577210711
 10
-23.0478795423
 20
-3.0739315357
 10
-23.0307266026
 20
-3.089649995
 10
-23.0131239901
 20
-3.1048631547
 10
-22.9950865928
 20
-3.1195581478
 10
-22.976629666
 20
-3.1337225459
 10
-22.9577688201
 20
-3.147344369
 10
-22.9385200072
 20
-3.1604120962
 10
-22.9188995073
 20
-3.1729146752
 10
-22.8989239149
 20
-3.1848415316
 10
-22.8786101248
 20
-3.1961825781
 10
-22.8579753177
 20
-3.2069282227
 10
-22.8370369461
 20
-3.2170693771
 10
-22.8158127191
 20
-3.226597464
 10
-22.7943205874
 20
-3.2355044251
 10
-22.7725787285
 20
-3.2437827269
 10
-22.7506055311
 20
-3.251425368
 10
-22.7284195795
 20
-3.2584258844
 10
-22.7060396379
 20
-3.2647783553
 10
-22.6834846346
 20
-3.2704774079
 10
-22.6607736461
 20
-3.2755182222
 10
-22.6379258807
 20
-3.2798965347
 10
-22.6149606623
 20
-3.2836086424
 10
-22.5918974142
 20
-3.2866514057
 10
-22.5687556428
 20
-3.2890222511
 10
-22.5455549207
 20
-3.2907191735
 10
-22.5223148704
 20
-3.2917407375
 10
-22.4990551477
 20
-3.2920860793
  0
LWPOLYLINE
  5
287
100
AcDbEntity
  8
ASSI
100
AcDbPolyline
 62
253
  6
CONTINUOUS
 90
55
 70
0
 10
-23.2989333038
 20
-2.4922079232
 10
-23.298587962
 20
-2.5154676453
 10
-23.297566398
 20
-2.538707695
 10
-23.2958694757
 20
-2.5619084165
 10
-23.2934986304
 20
-2.5850501874
 10
-23.2904558673
 20
-2.6081134349
 10
-23.2867437597
 20
-2.6310786528
 10
-23.2823654474
 20
-2.6539264178
 10
-23.2773246334
 20
-2.6766374058
 10
-23.271625581
 20
-2.6991924087
 10
-23.2652731104
 20
-2.7215723499
 10
-23.2582725943
 20
-2.7437583012
 10
-23.2506299535
 20
-2.7657314983
 10
-23.242351652
 20
-2.7874733569
 10
-23.2334446912
 20
-2.8089654883
 10
-23.2239166045
 20
-2.8301897152
 10
-23.2137754505
 20
-2.8511280866
 10
-23.2030298063
 20
-2.8717628935
 10
-23.1916887601
 20
-2.8920766836
 10
-23.179761904
 20
-2.9120522759
 10
-23.1672593253
 20
-2.9316727758
 10
-23.1541915984
 20
-2.9509215887
 10
-23.1405697756
 20
-2.9697824346
 10
-23.1264053778
 20
-2.9882393614
 10
-23.1117103849
 20
-3.0062767589
 10
-23.0964972254
 20
-3.0238793715
 10
-23.0807787664
 20
-3.0410323113
 10
-23.0645683019
 20
-3.0577210711
 10
-23.0478795423
 20
-3.0739315357
 10
-23.0307266026
 20
-3.089649995
 10
-23.0131239901
 20
-3.1048631547
 10
-22.9950865928
 20
-3.1195581478
 10
-22.976629666
 20
-3.1337225459
 10
-22.9577688201
 20
-3.147344369
 10
-22.9385200072
 20
-3.1604120962
 10
-22.9188995073
 20
-3.1729146752
 10
-22.8989239149
 20
-3.1848415316
 10
-22.8786101248
 20
-3.1961825781
 10
-22.8579753177
 20
-3.2069282227
 10
-22.8370369461
 20
-3.2170693771
 10
-22.8158127191
 20
-3.226597464
 10
-22.7943205874
 20
-3.2355044251
 10
-22.7725787285
 20
-3.2437827269
 10
-22.7506055311
 20
-3.251425368
 10
-22.7284195795
 20
-3.2584258844
 10
-22.7060396379
 20
-3.2647783553
 10
-22.6834846346
 20
-3.2704774079
 10
-22.6607736461
 20
-3.2755182222
 10
-22.6379258807
 20
-3.2798965347
 10
-22.6149606623
 20
-3.2836086424
 10
-22.5918974142
 20
-3.2866514057
 10
-22.5687556428
 20
-3.2890222511
 10
-22.5455549207
 20
-3.2907191735
 10
-22.5223148704
 20
-3.2917407375
 10
-22.4990551477
 20
-3.2920860793
  0
LWPOLYLINE
  5
288
100
AcDbEntity
  8
RACCORDO
100
AcDbPolyline
 62
253
  6
CONTINUOUS
 90
55
 70
0
 10
-23.2989333038
 20
39.4548883314
 10
-23.298587962
 20
39.4781480538
 10
-23.297566398
 20
39.5013881039
 10
-23.2958694757
 20
39.5245888258
 10
-23.2934986303
 20
39.5477305969
 10
-23.290455867
 20
39.5707938447
 10
-23.2867437594
 20
39.5937590629
 10
-23.282365447
 20
39.6166068282
 10
-23.2773246328
 20
39.6393178165
 10
-23.2716255803
 20
39.6618728195
 10
-23.2652731096
 20
39.6842527609
 10
-23.2582725933
 20
39.7064387124
 10
-23.2506299523
 20
39.7284119096
 10
-23.2423516506
 20
39.7501537684
 10
-23.2334446897
 20
39.7716458999
 10
-23.2239166029
 20
39.7928701269
 10
-23.2137754487
 20
39.8138084984
 10
-23.2030298043
 20
39.8344433053
 10
-23.191688758
 20
39.8547570954
 10
-23.1797619017
 20
39.8747326877
 10
-23.1672593229
 20
39.8943531876
 10
-23.1541915958
 20
39.9136020005
 10
-23.1405697729
 20
39.9324628463
 10
-23.126405375
 20
39.9509197731
 10
-23.111710382
 20
39.9689571705
 10
-23.0964972224
 20
39.986559783
 10
-23.0807787633
 20
40.0037127228
 10
-23.0645682987
 20
40.0204014824
 10
-23.0478795391
 20
40.036611947
 10
-23.0307265993
 20
40.0523304061
 10
-23.0131239868
 20
40.0675435656
 10
-22.9950865894
 20
40.0822385586
 10
-22.9766296626
 20
40.0964029566
 10
-22.9577688168
 20
40.1100247795
 10
-22.9385200039
 20
40.1230925066
 10
-22.9188995041
 20
40.1355950854
 10
-22.8989239117
 20
40.1475219416
 10
-22.8786101216
 20
40.158862988
 10
-22.8579753147
 20
40.1696086324
 10
-22.8370369432
 20
40.1797497866
 10
-22.8158127162
 20
40.1892778734
 10
-22.7943205847
 20
40.1981848343
 10
-22.772578726
 20
40.206463136
 10
-22.7506055287
 20
40.214105777
 10
-22.7284195772
 20
40.2211062932
 10
-22.7060396358
 20
40.227458764
 10
-22.6834846328
 20
40.2331578165
 10
-22.6607736445
 20
40.2381986307
 10
-22.6379258792
 20
40.2425769431
 10
-22.6149606611
 20
40.2462890507
 10
-22.5918974133
 20
40.2493318139
 10
-22.5687556421
 20
40.2517026593
 10
-22.5455549202
 20
40.2533995817
 10
-22.5223148702
 20
40.2544211457
 10
-22.4990551477
 20
40.2547664875
  0
LWPOLYLINE
  5
289
100
AcDbEntity
  8
ASSI
100
AcDbPolyline
 62
253
  6
CONTINUOUS
 90
55
 70
0
 10
-23.2989333038
 20
39.4548883314
 10
-23.298587962
 20
39.4781480538
 10
-23.297566398
 20
39.5013881039
 10
-23.2958694757
 20
39.5245888258
 10
-23.2934986303
 20
39.5477305969
 10
-23.290455867
 20
39.5707938447
 10
-23.2867437594
 20
39.5937590629
 10
-23.282365447
 20
39.6166068282
 10
-23.2773246328
 20
39.6393178165
 10
-23.2716255803
 20
39.6618728195
 10
-23.2652731096
 20
39.6842527609
 10
-23.2582725933
 20
39.7064387124
 10
-23.2506299523
 20
39.7284119096
 10
-23.2423516506
 20
39.7501537684
 10
-23.2334446897
 20
39.7716458999
 10
-23.2239166029
 20
39.7928701269
 10
-23.2137754487
 20
39.8138084984
 10
-23.2030298043
 20
39.8344433053
 10
-23.191688758
 20
39.8547570954
 10
-23.1797619017
 20
39.8747326877
 10
-23.1672593229
 20
39.8943531876
 10
-23.1541915958
 20
39.9136020005
 10
-23.1405697729
 20
39.9324628463
 10
-23.126405375
 20
39.9509197731
 10
-23.111710382
 20
39.9689571705
 10
-23.0964972224
 20
39.986559783
 10
-23.0807787633
 20
40.0037127228
 10
-23.0645682987
 20
40.0204014824
 10
-23.0478795391
 20
40.036611947
 10
-23.0307265993
 20
40.0523304061
 10
-23.0131239868
 20
40.0675435656
 10
-22.9950865894
 20
40.0822385586
 10
-22.9766296626
 20
40.0964029566
 10
-22.9577688168
 20
40.1100247795
 10
-22.9385200039
 20
40.1230925066
 10
-22.9188995041
 20
40.1355950854
 10
-22.8989239117
 20
40.1475219416
 10
-22.8786101216
 20
40.158862988
 10
-22.8579753147
 20
40.1696086324
 10
-22.8370369432
 20
40.1797497866
 10
-22.8158127162
 20
40.1892778734
 10
-22.7943205847
 20
40.1981848343
 10
-22.772578726
 20
40.206463136
 10
-22.7506055287
 20
40.214105777
 10
-22.7284195772
 20
40.2211062932
 10
-22.7060396358
 20
40.227458764
 10
-22.6834846328
 20
40.2331578165
 10
-22.6607736445
 20
40.2381986307
 10
-22.6379258792
 20
40.2425769431
 10
-22.6149606611
 20
40.2462890507
 10
-22.5918974133
 20
40.2493318139
 10
-22.5687556421
 20
40.2517026593
 10
-22.5455549202
 20
40.2533995817
 10
-22.5223148702
 20
40.2544211457
 10
-22.4990551477
 20
40.2547664875
  0
LINE
  5
28A
100
AcDbEntity
  8
CURVE
100
AcDbLine
 62
252
  6
CONTINUOUS
 10
-12.4456306208
 20
6.1566177441
 11
-12.422128489
 21
6.1628636647
  0
LINE
  5
28B
100
AcDbEntity
  8
CURVE
100
AcDbLine
 62
252
  6
CONTINUOUS
 10
-12.422972397
 20
6.1626559196
 11
-12.3992343619
 21
6.1680521369
  0
LINE
  5
28C
100
AcDbEntity
  8
CURVE
100
AcDbLine
 62
252
  6
CONTINUOUS
 10
-12.4001219868
 20
6.1678678641
 11
-12.3762117154
 21
6.1724099161
  0
LINE
  5
28D
100
AcDbEntity
  8
CURVE
100
AcDbLine
 62
252
  6
CONTINUOUS
 10
-12.3771297648
 20
6.17225329
 11
-12.3531170103
 21
6.1759375782
  0
LINE
  5
28E
100
AcDbEntity
  8
CURVE
100
AcDbLine
 62
252
  6
CONTINUOUS
 10
-12.354046106
 20
6.1758119095
 11
-12.3299986507
 21
6.1786362213
  0
LINE
  5
28F
100
AcDbEntity
  8
CURVE
100
AcDbLine
 62
252
  6
CONTINUOUS
 10
-12.3309152376
 20
6.1785438235
 11
-12.3068728142
 21
6.1805090339
  0
LINE
  5
290
100
AcDbEntity
  8
CURVE
100
AcDbLine
 62
252
  6
CONTINUOUS
 10
-12.3077567977
 20
6.1804506858
 11
-12.2837476216
 21
6.181559727
  0
LINE
  5
291
100
AcDbEntity
  8
CURVE
100
AcDbLine
 62
252
  6
CONTINUOUS
 10
-12.2845842767
 20
6.1815345388
 11
-12.2606311938
 21
6.1817920116
  0
LINE
  5
292
100
AcDbEntity
  8
CURVE
100
AcDbLine
 62
252
  6
CONTINUOUS
 10
-12.2614111653
 20
6.1817974249
 11
-12.2375319705
 21
6.1812083888
  0
LINE
  5
293
100
AcDbEntity
  8
CURVE
100
AcDbLine
 62
252
  6
CONTINUOUS
 10
-12.2382496609
 20
6.1812401905
 11
-12.2144596671
 21
6.1798065214
  0
LINE
  5
294
100
AcDbEntity
  8
CURVE
100
AcDbLine
 62
252
  6
CONTINUOUS
 10
-12.2151067892
 20
6.1798588987
 11
-12.191424318
 21
6.1775828622
  0
LINE
  5
295
100
AcDbEntity
  8
CURVE
100
AcDbLine
 62
252
  6
CONTINUOUS
 10
-12.1919882826
 20
6.1776484172
 11
-12.1684359574
 21
6.174533864
  0
LINE
  5
296
100
AcDbEntity
  8
CURVE
100
AcDbLine
 62
252
  6
CONTINUOUS
 10
-12.1688998737
 20
6.1746036131
 11
-12.1455104188
 21
6.1706569541
  0
LINE
  5
297
100
AcDbEntity
  8
CURVE
100
AcDbLine
 62
252
  6
CONTINUOUS
 10
-12.1458548714
 20
6.1707205098
 11
-12.1226867313
 21
6.1659534569
  0
LWPOLYLINE
  5
298
100
AcDbEntity
  8
CURVE
100
AcDbPolyline
 62
252
  6
CONTINUOUS
 90
4
 70
0
 10
-12.0550558465
 20
6.1468334831
 10
-12.0774467684
 20
6.1540525
 10
-12.1000771265
 20
6.1604431502
 10
-12.1228968916
 20
6.1659997545
  0
LINE
  5
299
100
AcDbEntity
  8
CURVE
100
AcDbLine
 62
252
  6
CONTINUOUS
 10
-12.0329497372
 20
6.1388072838
 11
-12.0552737304
 21
6.1469092984
  0
LINE
  5
29A
100
AcDbEntity
  8
CURVE
100
AcDbLine
 62
252
  6
CONTINUOUS
 10
-12.0111726542
 20
6.1299989626
 11
-12.0332964231
 21
6.1389425233
  0
LINE
  5
29B
100
AcDbEntity
  8
CURVE
100
AcDbLine
 62
252
  6
CONTINUOUS
 10
-9.7658575302
 20
4.0313402041
 11
-10.8055070204
 21
4.6313402041
  0
LINE
  5
29C
100
AcDbEntity
  8
CURVE
100
AcDbLine
 62
252
  6
CONTINUOUS
 10
-13.8355070204
 20
6.3813402041
 11
-14.7877511082
 21
6.9313402041
  0
LWPOLYLINE
  5
29D
100
AcDbEntity
  8
RACCORDO
100
AcDbPolyline
 62
253
  6
CONTINUOUS
 90
13
 70
0
 10
-23.2955312699
 20
39.4236515729
 10
-23.2958073894
 20
39.428347585
 10
-23.2960855182
 20
39.4326720341
 10
-23.2963651927
 20
39.436617711
 10
-23.296646416
 20
39.4401839842
 10
-23.296929185
 20
39.4433714852
 10
-23.297213028
 20
39.4461748993
 10
-23.2974979503
 20
39.448593588
 10
-23.2977839466
 20
39.4506281897
 10
-23.2980705289
 20
39.4522753048
 10
-23.2983575345
 20
39.4535338002
 10
-23.2986451262
 20
39.4544048091
 10
-23.2989333038
 20
39.4548883314
  0
LWPOLYLINE
  5
29E
100
AcDbEntity
  8
ASSI
100
AcDbPolyline
 62
253
  6
CONTINUOUS
 90
13
 70
0
 10
-23.2955312699
 20
39.4236515729
 10
-23.2958073894
 20
39.428347585
 10
-23.2960855182
 20
39.4326720341
 10
-23.2963651927
 20
39.436617711
 10
-23.296646416
 20
39.4401839842
 10
-23.296929185
 20
39.4433714852
 10
-23.297213028
 20
39.4461748993
 10
-23.2974979503
 20
39.448593588
 10
-23.2977839466
 20
39.4506281897
 10
-23.2980705289
 20
39.4522753048
 10
-23.2983575345
 20
39.4535338002
 10
-23.2986451262
 20
39.4544048091
 10
-23.2989333038
 20
39.4548883314
  0
LINE
  5
29F
100
AcDbEntity
  8
RACCORDO
100
AcDbLine
 62
253
  6
CONTINUOUS
 10
-23.2949850654
 20
39.4131436269
 11
-23.2955312699
 21
39.4236515729
  0
LINE
  5
2A0
100
AcDbEntity
  8
ASSI
100
AcDbLine
 62
253
  6
CONTINUOUS
 10
-23.2949850654
 20
39.4131436269
 11
-23.2955312699
 21
39.4236515729
  0
LINE
  5
2A1
100
AcDbEntity
  8
RACCORDO
100
AcDbLine
 62
253
  6
CONTINUOUS
 10
-23.2944482607
 20
39.4011759921
 11
-23.2949850654
 21
39.4131436269
  0
LINE
  5
2A2
100
AcDbEntity
  8
ASSI
100
AcDbLine
 62
253
  6
CONTINUOUS
 10
-23.2944482607
 20
39.4011759921
 11
-23.2949850654
 21
39.4131436269
  0
LINE
  5
2A3
100
AcDbEntity
  8
RACCORDO
100
AcDbLine
 62
253
  6
CONTINUOUS
 10
-23.2939217503
 20
39.3877686114
 11
-23.2944482607
 21
39.4011759921
  0
LINE
  5
2A4
100
AcDbEntity
  8
ASSI
100
AcDbLine
 62
253
  6
CONTINUOUS
 10
-23.2939217503
 20
39.3877686114
 11
-23.2944482607
 21
39.4011759921
  0
LINE
  5
2A5
100
AcDbEntity
  8
RACCORDO
100
AcDbLine
 62
253
  6
CONTINUOUS
 10
-23.293154203
 20
39.3650312743
 11
-23.2939217503
 21
39.3877686114
  0
LINE
  5
2A6
100
AcDbEntity
  8
ASSI
100
AcDbLine
 62
253
  6
CONTINUOUS
 10
-23.293154203
 20
39.3650312743
 11
-23.2939217503
 21
39.3877686114
  0
LINE
  5
2A7
100
AcDbEntity
  8
RACCORDO
100
AcDbLine
 62
253
  6
CONTINUOUS
 10
-23.2924166264
 20
39.3392430851
 11
-23.293154203
 21
39.3650312743
  0
LINE
  5
2A8
100
AcDbEntity
  8
ASSI
100
AcDbLine
 62
253
  6
CONTINUOUS
 10
-23.2924166264
 20
39.3392430851
 11
-23.293154203
 21
39.3650312743
  0
LINE
  5
2A9
100
AcDbEntity
  8
RACCORDO
100
AcDbLine
 62
253
  6
CONTINUOUS
 10
-22.495106862
 20
40.1653140866
 11
-22.4959291727
 21
40.1978935988
  0
LINE
  5
2AA
100
AcDbEntity
  8
ASSI
100
AcDbLine
 62
253
  6
CONTINUOUS
 10
-22.495106862
 20
40.1653140866
 11
-22.4959291727
 21
40.1978935988
  0
LINE
  5
2AB
100
AcDbEntity
  8
RACCORDO
100
AcDbLine
 62
253
  6
CONTINUOUS
 10
-23.2914862092
 20
39.3003398368
 11
-23.2924166264
 21
39.3392430851
  0
LINE
  5
2AC
100
AcDbEntity
  8
ASSI
100
AcDbLine
 62
253
  6
CONTINUOUS
 10
-23.2914862092
 20
39.3003398368
 11
-23.2924166264
 21
39.3392430851
  0
LWPOLYLINE
  5
2AD
100
AcDbEntity
  8
RACCORDO
100
AcDbPolyline
 62
253
  6
CONTINUOUS
 90
34
 70
0
 10
-23.2749002642
 20
18.8313402041
 10
-23.2747380885
 20
18.8232870155
 10
-23.2742518245
 20
18.8152468893
 10
-23.2734422609
 20
18.8072328664
 10
-23.2723107108
 20
18.7992579458
 10
-23.2708590097
 20
18.7913350627
 10
-23.2690895121
 20
18.7834770682
 10
-23.2670050882
 20
18.7756967078
 10
-23.2646091189
 20
18.7680066015
 10
-23.2619054906
 20
18.7604192225
 10
-23.2588985885
 20
18.7529468776
 10
-23.2555932898
 20
18.745601687
 10
-23.2519949558
 20
18.7383955647
 10
-23.2481094229
 20
18.7313401989
 10
-23.2439429936
 20
18.7244470335
 10
-23.2395024257
 20
18.7177272493
 10
-23.2347949219
 20
18.7111917458
 10
-23.2298281178
 20
18.7048511235
 10
-23.2246100696
 20
18.698715667
 10
-23.219149241
 20
18.6927953281
 10
-23.2134544894
 20
18.6870997095
 10
-23.2075350518
 20
18.6816380495
 10
-23.2014005296
 20
18.676419207
 10
-23.1950608729
 20
18.6714516469
 10
-23.1885263646
 20
18.6667434267
 10
-23.1818076039
 20
18.6623021831
 10
-23.1749154886
 20
18.6581351198
 10
-23.1678611976
 20
18.6542489958
 10
-23.1606561731
 20
18.6506501144
 10
-23.1533121017
 20
18.6473443129
 10
-23.1458408955
 20
18.6443369535
 10
-23.1382546728
 20
18.641632914
 10
-23.1305657384
 20
18.6392365804
 10
-23.122786564
 20
18.6371518395
  0
LWPOLYLINE
  5
2AE
100
AcDbEntity
  8
ASSI
100
AcDbPolyline
 62
253
  6
CONTINUOUS
 90
34
 70
0
 10
-23.2749002642
 20
18.8313402041
 10
-23.2747380885
 20
18.8232870155
 10
-23.2742518245
 20
18.8152468893
 10
-23.2734422609
 20
18.8072328664
 10
-23.2723107108
 20
18.7992579458
 10
-23.2708590097
 20
18.7913350627
 10
-23.2690895121
 20
18.7834770682
 10
-23.2670050882
 20
18.7756967078
 10
-23.2646091189
 20
18.7680066015
 10
-23.2619054906
 20
18.7604192225
 10
-23.2588985885
 20
18.7529468776
 10
-23.2555932898
 20
18.745601687
 10
-23.2519949558
 20
18.7383955647
 10
-23.2481094229
 20
18.7313401989
 10
-23.2439429936
 20
18.7244470335
 10
-23.2395024257
 20
18.7177272493
 10
-23.2347949219
 20
18.7111917458
 10
-23.2298281178
 20
18.7048511235
 10
-23.2246100696
 20
18.698715667
 10
-23.219149241
 20
18.6927953281
 10
-23.2134544894
 20
18.6870997095
 10
-23.2075350518
 20
18.6816380495
 10
-23.2014005296
 20
18.676419207
 10
-23.1950608729
 20
18.6714516469
 10
-23.1885263646
 20
18.6667434267
 10
-23.1818076039
 20
18.6623021831
 10
-23.1749154886
 20
18.6581351198
 10
-23.1678611976
 20
18.6542489958
 10
-23.1606561731
 20
18.6506501144
 10
-23.1533121017
 20
18.6473443129
 10
-23.1458408955
 20
18.6443369535
 10
-23.1382546728
 20
18.641632914
 10
-23.1305657384
 20
18.6392365804
 10
-23.122786564
 20
18.6371518395
  0
LINE
  5
2AF
100
AcDbEntity
  8
RACCORDO
100
AcDbLine
 62
253
  6
CONTINUOUS
 10
-22.4940435631
 20
40.1109364984
 11
-22.495106862
 21
40.1653140866
  0
LINE
  5
2B0
100
AcDbEntity
  8
ASSI
100
AcDbLine
 62
253
  6
CONTINUOUS
 10
-22.4940435631
 20
40.1109364984
 11
-22.495106862
 21
40.1653140866
  0
LINE
  5
2B1
100
AcDbEntity
  8
RACCORDO
100
AcDbLine
 62
253
  6
CONTINUOUS
 10
-23.290419748
 20
39.2449357858
 11
-23.2914862092
 21
39.3003398368
  0
LINE
  5
2B2
100
AcDbEntity
  8
ASSI
100
AcDbLine
 62
253
  6
CONTINUOUS
 10
-23.290419748
 20
39.2449357858
 11
-23.2914862092
 21
39.3003398368
  0
LINE
  5
2B3
100
AcDbEntity
  8
RACCORDO
100
AcDbLine
 62
253
  6
CONTINUOUS
 10
-22.4925384618
 20
40.0069544885
 11
-22.4940435631
 21
40.1109364984
  0
LINE
  5
2B4
100
AcDbEntity
  8
ASSI
100
AcDbLine
 62
253
  6
CONTINUOUS
 10
-22.4925384618
 20
40.0069544885
 11
-22.4940435631
 21
40.1109364984
  0
LINE
  5
2B5
100
AcDbEntity
  8
RACCORDO
100
AcDbLine
 62
253
  6
CONTINUOUS
 10
-23.2891333277
 20
39.1561398837
 11
-23.290419748
 21
39.2449357858
  0
LINE
  5
2B6
100
AcDbEntity
  8
ASSI
100
AcDbLine
 62
253
  6
CONTINUOUS
 10
-23.2891333277
 20
39.1561398837
 11
-23.290419748
 21
39.2449357858
  0
LINE
  5
2B7
100
AcDbEntity
  8
RACCORDO
100
AcDbLine
 62
253
  6
CONTINUOUS
 10
-22.4903424626
 20
39.7793221366
 11
-22.4925384618
 21
40.0069544885
  0
LINE
  5
2B8
100
AcDbEntity
  8
ASSI
100
AcDbLine
 62
253
  6
CONTINUOUS
 10
-22.4903424626
 20
39.7793221366
 11
-22.4925384618
 21
40.0069544885
  0
LINE
  5
2B9
100
AcDbEntity
  8
RACCORDO
100
AcDbLine
 62
253
  6
CONTINUOUS
 10
-23.2878832388
 20
39.0263257159
 11
-23.2891333277
 21
39.1561398837
  0
LINE
  5
2BA
100
AcDbEntity
  8
ASSI
100
AcDbLine
 62
253
  6
CONTINUOUS
 10
-23.2878832388
 20
39.0263257159
 11
-23.2891333277
 21
39.1561398837
  0
LINE
  5
2BB
100
AcDbEntity
  8
RACCORDO
100
AcDbLine
 62
253
  6
CONTINUOUS
 10
-22.487896554
 20
39.3036644001
 11
-22.4903424626
 21
39.7793221366
  0
LINE
  5
2BC
100
AcDbEntity
  8
ASSI
100
AcDbLine
 62
253
  6
CONTINUOUS
 10
-22.487896554
 20
39.3036644001
 11
-22.4903424626
 21
39.7793221366
  0
LINE
  5
2BD
100
AcDbEntity
  8
RACCORDO
100
AcDbLine
 62
253
  6
CONTINUOUS
 10
-23.2870885053
 20
38.8680802478
 11
-23.2878832388
 21
39.0263257159
  0
LINE
  5
2BE
100
AcDbEntity
  8
ASSI
100
AcDbLine
 62
253
  6
CONTINUOUS
 10
-23.2870885053
 20
38.8680802478
 11
-23.2878832388
 21
39.0263257159
  0
LINE
  5
2BF
100
AcDbEntity
  8
RACCORDO
100
AcDbLine
 62
253
  6
CONTINUOUS
 10
-23.2858542347
 20
37.852861065
 11
-23.2870885053
 21
38.8680802478
  0
LINE
  5
2C0
100
AcDbEntity
  8
ASSI
100
AcDbLine
 62
253
  6
CONTINUOUS
 10
-23.2858542347
 20
37.852861065
 11
-23.2870885053
 21
38.8680802478
  0
LWPOLYLINE
  5
2C1
100
AcDbEntity
  8
RACCORDO
100
AcDbPolyline
 62
253
  6
CONTINUOUS
 90
3
 70
0
 10
-23.2819738507
 20
34.0523708475
 10
-23.2828648176
 20
35.0027627634
 10
-23.2858542347
 20
37.852861065
  0
LWPOLYLINE
  5
2C2
100
AcDbEntity
  8
ASSI
100
AcDbPolyline
 62
253
  6
CONTINUOUS
 90
3
 70
0
 10
-23.2819738507
 20
34.0523708475
 10
-23.2828648176
 20
35.0027627634
 10
-23.2858542347
 20
37.852861065
  0
LINE
  5
2C3
100
AcDbEntity
  8
RACCORDO
100
AcDbLine
 62
253
  6
CONTINUOUS
 10
-22.4829865391
 20
35.0468073092
 11
-22.4859760432
 21
37.9046414384
  0
LINE
  5
2C4
100
AcDbEntity
  8
ASSI
100
AcDbLine
 62
253
  6
CONTINUOUS
 10
-22.4829865391
 20
35.0468073092
 11
-22.4859760432
 21
37.9046414384
  0
LINE
  5
2C5
100
AcDbEntity
  8
RACCORDO
100
AcDbLine
 62
253
  6
CONTINUOUS
 10
-23.2796176474
 20
31.2003076028
 11
-23.2819738507
 21
34.0523708475
  0
LINE
  5
2C6
100
AcDbEntity
  8
ASSI
100
AcDbLine
 62
253
  6
CONTINUOUS
 10
-23.2796176474
 20
31.2003076028
 11
-23.2819738507
 21
34.0523708475
  0
LWPOLYLINE
  5
2C7
100
AcDbEntity
  8
RACCORDO
100
AcDbPolyline
 62
253
  6
CONTINUOUS
 90
3
 70
0
 10
-22.4859760432
 20
37.9046414384
 10
-22.4871010459
 20
38.8921248617
 10
-22.487896554
 20
39.3036644001
  0
LWPOLYLINE
  5
2C8
100
AcDbEntity
  8
ASSI
100
AcDbPolyline
 62
253
  6
CONTINUOUS
 90
3
 70
0
 10
-22.4859760432
 20
37.9046414384
 10
-22.4871010459
 20
38.8921248617
 10
-22.487896554
 20
39.3036644001
  0
LWPOLYLINE
  5
2C9
100
AcDbEntity
  8
RACCORDO
100
AcDbPolyline
 62
253
  6
CONTINUOUS
 90
3
 70
0
 10
-22.4797392998
 20
31.2340602578
 10
-22.4804719298
 20
32.1874646869
 10
-22.4829865391
 20
35.0468073092
  0
LWPOLYLINE
  5
2CA
100
AcDbEntity
  8
ASSI
100
AcDbPolyline
 62
253
  6
CONTINUOUS
 90
3
 70
0
 10
-22.4797392998
 20
31.2340602578
 10
-22.4804719298
 20
32.1874646869
 10
-22.4829865391
 20
35.0468073092
  0
LINE
  5
2CB
100
AcDbEntity
  8
RACCORDO
100
AcDbLine
 62
253
  6
CONTINUOUS
 10
-23.2777366235
 20
28.3470870691
 11
-23.2796176474
 21
31.2003076028
  0
LINE
  5
2CC
100
AcDbEntity
  8
ASSI
100
AcDbLine
 62
253
  6
CONTINUOUS
 10
-23.2777366235
 20
28.3470870691
 11
-23.2796176474
 21
31.2003076028
  0
LINE
  5
2CD
100
AcDbEntity
  8
RACCORDO
100
AcDbLine
 62
253
  6
CONTINUOUS
 10
-22.4778582618
 20
28.3731113759
 11
-22.4797392998
 21
31.2340602578
  0
LINE
  5
2CE
100
AcDbEntity
  8
ASSI
100
AcDbLine
 62
253
  6
CONTINUOUS
 10
-22.4778582618
 20
28.3731113759
 11
-22.4797392998
 21
31.2340602578
  0
LINE
  5
2CF
100
AcDbEntity
  8
RACCORDO
100
AcDbLine
 62
253
  6
CONTINUOUS
 10
-23.27633095
 20
25.4929691702
 11
-23.2777366235
 21
28.3470870691
  0
LINE
  5
2D0
100
AcDbEntity
  8
ASSI
100
AcDbLine
 62
253
  6
CONTINUOUS
 10
-23.27633095
 20
25.4929691702
 11
-23.2777366235
 21
28.3470870691
  0
LINE
  5
2D1
100
AcDbEntity
  8
RACCORDO
100
AcDbLine
 62
253
  6
CONTINUOUS
 10
-22.4764526069
 20
25.5112617506
 11
-22.4778582618
 21
28.3731113759
  0
LINE
  5
2D2
100
AcDbEntity
  8
ASSI
100
AcDbLine
 62
253
  6
CONTINUOUS
 10
-22.4764526069
 20
25.5112617506
 11
-22.4778582618
 21
28.3731113759
  0
LINE
  5
2D3
100
AcDbEntity
  8
RACCORDO
100
AcDbLine
 62
253
  6
CONTINUOUS
 10
-23.2754007542
 20
22.6382128352
 11
-23.27633095
 21
25.4929691702
  0
LINE
  5
2D4
100
AcDbEntity
  8
ASSI
100
AcDbLine
 62
253
  6
CONTINUOUS
 10
-23.2754007542
 20
22.6382128352
 11
-23.27633095
 21
25.4929691702
  0
LINE
  5
2D5
100
AcDbEntity
  8
RACCORDO
100
AcDbLine
 62
253
  6
CONTINUOUS
 10
-22.4755300188
 20
22.6487719812
 11
-22.4764526069
 21
25.5112617506
  0
LINE
  5
2D6
100
AcDbEntity
  8
ASSI
100
AcDbLine
 62
253
  6
CONTINUOUS
 10
-22.4755300188
 20
22.6487719812
 11
-22.4764526069
 21
25.5112617506
  0
LINE
  5
2D7
100
AcDbEntity
  8
RACCORDO
100
AcDbLine
 62
7
  6
CONTINUOUS
 10
-23.3755070204
 20
39.531462048
 11
-23.3755070204
 21
18.8313402041
  0
LINE
  5
2D8
100
AcDbEntity
  8
ASSI
100
AcDbLine
 62
7
  6
CONTINUOUS
 10
-23.3755070204
 20
39.531462048
 11
-23.3755070204
 21
18.8313402041
  0
LINE
  5
2D9
100
AcDbEntity
  8
RACCORDO
100
AcDbLine
 62
7
  6
CONTINUOUS
 10
-23.3755070204
 20
18.1313402041
 11
-23.3755070204
 21
-2.5687816398
  0
LINE
  5
2DA
100
AcDbEntity
  8
ASSI
100
AcDbLine
 62
7
  6
CONTINUOUS
 10
-23.3755070204
 20
18.1313402041
 11
-23.3755070204
 21
-2.5687816398
  0
LINE
  5
2DB
100
AcDbEntity
  8
RACCORDO
100
AcDbLine
 62
253
  6
CONTINUOUS
 10
-23.2749002642
 20
18.8313402041
 11
-23.2754007542
 21
22.6382128352
  0
LINE
  5
2DC
100
AcDbEntity
  8
ASSI
100
AcDbLine
 62
253
  6
CONTINUOUS
 10
-23.2749002642
 20
18.8313402041
 11
-23.2754007542
 21
22.6382128352
  0
LINE
  5
2DD
100
AcDbEntity
  8
0
100
AcDbLine
 62
7
  6
CONTINUOUS
 10
-22.9754460892
 20
18.3313402041
 11
-22.9754460892
 21
18.6313402041
  0
LINE
  5
2DE
100
AcDbEntity
  8
ASSI
100
AcDbLine
 62
7
  6
CONTINUOUS
 10
-22.9754460892
 20
18.3313402041
 11
-22.9754460892
 21
18.6313402041
  0
LINE
  5
2DF
100
AcDbEntity
  8
0
100
AcDbLine
 62
253
  6
CONTINUOUS
 10
-22.8749576129
 20
18.3313402041
 11
-22.8749576129
 21
18.6313402041
  0
LINE
  5
2E0
100
AcDbEntity
  8
ASSI
100
AcDbLine
 62
253
  6
CONTINUOUS
 10
-22.8749576129
 20
18.3313402041
 11
-22.8749576129
 21
18.6313402041
  0
LINE
  5
2E1
100
AcDbEntity
  8
0
100
AcDbLine
 62
253
  6
CONTINUOUS
 10
-22.4750185348
 20
18.3313402041
 11
-22.4750185348
 21
18.6313402041
  0
LINE
  5
2E2
100
AcDbEntity
  8
RACCORDO
100
AcDbLine
 62
253
  6
CONTINUOUS
 10
-22.4750220938
 20
18.6313402041
 11
-22.4755300188
 21
22.6487719812
  0
LINE
  5
2E3
100
AcDbEntity
  8
ASSI
100
AcDbLine
 62
253
  6
CONTINUOUS
 10
-22.4749200877
 20
18.8315736927
 11
-22.4755300188
 21
22.6487719812
  0
LINE
  5
2E4
100
AcDbEntity
  8
RACCORDO
100
AcDbLine
 62
253
  6
CONTINUOUS
 10
-23.2751963663
 20
15.2761459116
 11
-23.2749002642
 21
18.1313402041
  0
LINE
  5
2E5
100
AcDbEntity
  8
ASSI
100
AcDbLine
 62
253
  6
CONTINUOUS
 10
-23.2751963663
 20
15.2761459116
 11
-23.2749002642
 21
18.1313402041
  0
LINE
  5
2E6
100
AcDbEntity
  8
RACCORDO
100
AcDbLine
 62
253
  6
CONTINUOUS
 10
-22.4751437609
 20
16.2224618623
 11
-22.4750220938
 21
18.3313402041
  0
LINE
  5
2E7
100
AcDbEntity
  8
ASSI
100
AcDbLine
 62
253
  6
CONTINUOUS
 10
-22.4751437609
 20
16.2224618623
 11
-22.4750220938
 21
18.8315736927
  0
LINE
  5
2E8
100
AcDbEntity
  8
RACCORDO
100
AcDbLine
 62
253
  6
CONTINUOUS
 10
-23.2759680492
 20
12.4212352679
 11
-23.2751963663
 21
15.2761459116
  0
LINE
  5
2E9
100
AcDbEntity
  8
ASSI
100
AcDbLine
 62
253
  6
CONTINUOUS
 10
-23.2759680492
 20
12.4212352679
 11
-23.2751963663
 21
15.2761459116
  0
LINE
  5
2EA
100
AcDbEntity
  8
RACCORDO
100
AcDbLine
 62
253
  6
CONTINUOUS
 10
-22.4760897196
 20
12.4055236582
 11
-22.4751437609
 21
16.2224618623
  0
LINE
  5
2EB
100
AcDbEntity
  8
ASSI
100
AcDbLine
 62
253
  6
CONTINUOUS
 10
-22.4760897196
 20
12.4055236582
 11
-22.4751437609
 21
16.2224618623
  0
LWPOLYLINE
  5
2EC
100
AcDbEntity
  8
RACCORDO
100
AcDbPolyline
 62
253
  6
CONTINUOUS
 90
3
 70
0
 10
-23.2772152426
 20
9.566875934
 10
-23.2767466853
 20
10.5182485607
 10
-23.2759680492
 20
12.4212352679
  0
LWPOLYLINE
  5
2ED
100
AcDbEntity
  8
ASSI
100
AcDbPolyline
 62
253
  6
CONTINUOUS
 90
3
 70
0
 10
-23.2772152426
 20
9.566875934
 10
-23.2767466853
 20
10.5182485607
 10
-23.2759680492
 20
12.4212352679
  0
LWPOLYLINE
  5
2EE
100
AcDbEntity
  8
RACCORDO
100
AcDbPolyline
 62
253
  6
CONTINUOUS
 90
3
 70
0
 10
-22.4773368835
 20
9.5434316935
 10
-22.4768683324
 20
10.4973847862
 10
-22.4760897196
 20
12.4055236582
  0
LWPOLYLINE
  5
2EF
100
AcDbEntity
  8
ASSI
100
AcDbPolyline
 62
253
  6
CONTINUOUS
 90
3
 70
0
 10
-22.4773368835
 20
9.5434316935
 10
-22.4768683324
 20
10.4973847862
 10
-22.4760897196
 20
12.4055236582
  0
LWPOLYLINE
  5
2F0
100
AcDbEntity
  8
RACCORDO
100
AcDbPolyline
 62
253
  6
CONTINUOUS
 90
3
 70
0
 10
-23.2789378337
 20
6.7133274865
 10
-23.2783108263
 20
7.6644009797
 10
-23.2772152426
 20
9.566875934
  0
LWPOLYLINE
  5
2F1
100
AcDbEntity
  8
ASSI
100
AcDbPolyline
 62
253
  6
CONTINUOUS
 90
3
 70
0
 10
-23.2789378337
 20
6.7133274865
 10
-23.2783108263
 20
7.6644009797
 10
-23.2772152426
 20
9.566875934
  0
LWPOLYLINE
  5
2F2
100
AcDbEntity
  8
RACCORDO
100
AcDbPolyline
 62
253
  6
CONTINUOUS
 90
3
 70
0
 10
-22.4790594779
 20
6.6821536118
 10
-22.4784324658
 20
7.6358064556
 10
-22.4773368835
 20
9.5434316935
  0
LWPOLYLINE
  5
2F3
100
AcDbEntity
  8
ASSI
100
AcDbPolyline
 62
253
  6
CONTINUOUS
 90
3
 70
0
 10
-22.4790594779
 20
6.6821536118
 10
-22.4784324658
 20
7.6358064556
 10
-22.4773368835
 20
9.5434316935
  0
LWPOLYLINE
  5
2F4
100
AcDbEntity
  8
RACCORDO
100
AcDbPolyline
 62
253
  6
CONTINUOUS
 90
3
 70
0
 10
-23.2811356661
 20
3.860849452
 10
-23.2803502655
 20
4.8115372385
 10
-23.2789378337
 20
6.7133274865
  0
LWPOLYLINE
  5
2F5
100
AcDbEntity
  8
ASSI
100
AcDbPolyline
 62
253
  6
CONTINUOUS
 90
3
 70
0
 10
-23.2811356661
 20
3.860849452
 10
-23.2803502655
 20
4.8115372385
 10
-23.2789378337
 20
6.7133274865
  0
LWPOLYLINE
  5
2F6
100
AcDbEntity
  8
RACCORDO
100
AcDbPolyline
 62
253
  6
CONTINUOUS
 90
3
 70
0
 10
-22.4812573458
 20
3.8219499718
 10
-22.4804719298
 20
4.7752157212
 10
-22.4790594779
 20
6.6821536118
  0
LWPOLYLINE
  5
2F7
100
AcDbEntity
  8
ASSI
100
AcDbPolyline
 62
253
  6
CONTINUOUS
 90
3
 70
0
 10
-22.4812573458
 20
3.8219499718
 10
-22.4804719298
 20
4.7752157212
 10
-22.4790594779
 20
6.6821536118
  0
LWPOLYLINE
  5
2F8
100
AcDbEntity
  8
RACCORDO
100
AcDbPolyline
 62
253
  6
CONTINUOUS
 90
3
 70
0
 10
-23.28380854
 20
1.0097022492
 10
-23.2828648174
 20
1.9599177669
 10
-23.2811356661
 20
3.860849452
  0
LWPOLYLINE
  5
2F9
100
AcDbEntity
  8
ASSI
100
AcDbPolyline
 62
253
  6
CONTINUOUS
 90
3
 70
0
 10
-23.28380854
 20
1.0097022492
 10
-23.2828648174
 20
1.9599177669
 10
-23.2811356661
 20
3.860849452
  0
LWPOLYLINE
  5
2FA
100
AcDbEntity
  8
RACCORDO
100
AcDbPolyline
 62
253
  6
CONTINUOUS
 90
3
 70
0
 10
-22.4839302876
 20
0.9630812582
 10
-22.4829865391
 20
1.9158730989
 10
-22.4812573458
 20
3.8219499718
  0
LWPOLYLINE
  5
2FB
100
AcDbEntity
  8
ASSI
100
AcDbPolyline
 62
253
  6
CONTINUOUS
 90
3
 70
0
 10
-22.4839302876
 20
0.9630812582
 10
-22.4829865391
 20
1.9158730989
 10
-22.4812573458
 20
3.8219499718
  0
LINE
  5
2FC
100
AcDbEntity
  8
RACCORDO
100
AcDbLine
 62
253
  6
CONTINUOUS
 10
-23.2858542346
 20
-0.8901806037
 11
-23.28380854
 21
1.0097022492
  0
LINE
  5
2FD
100
AcDbEntity
  8
ASSI
100
AcDbLine
 62
253
  6
CONTINUOUS
 10
-23.2858542346
 20
-0.8901806037
 11
-23.28380854
 21
1.0097022492
  0
LWPOLYLINE
  5
2FE
100
AcDbEntity
  8
RACCORDO
100
AcDbPolyline
 62
253
  6
CONTINUOUS
 90
3
 70
0
 10
-22.4871671892
 20
-1.9997004965
 10
-22.4859760432
 20
-0.9419610303
 10
-22.4839302876
 20
0.9630812582
  0
LWPOLYLINE
  5
2FF
100
AcDbEntity
  8
ASSI
100
AcDbPolyline
 62
253
  6
CONTINUOUS
 90
3
 70
0
 10
-22.4871671892
 20
-1.9997004965
 10
-22.4859760432
 20
-0.9419610303
 10
-22.4839302876
 20
0.9630812582
  0
LINE
  5
300
100
AcDbEntity
  8
RACCORDO
100
AcDbLine
 62
253
  6
CONTINUOUS
 10
-23.2874872765
 20
-2.0016709846
 11
-23.2858542346
 21
-0.8901806037
  0
LINE
  5
301
100
AcDbEntity
  8
ASSI
100
AcDbLine
 62
253
  6
CONTINUOUS
 10
-23.2874872765
 20
-2.0016709846
 11
-23.2858542346
 21
-0.8901806037
  0
LINE
  5
302
100
AcDbEntity
  8
RACCORDO
100
AcDbLine
 62
253
  6
CONTINUOUS
 10
-22.4892552058
 20
-2.6519120222
 11
-22.4871671892
 21
-1.9997004965
  0
LINE
  5
303
100
AcDbEntity
  8
ASSI
100
AcDbLine
 62
253
  6
CONTINUOUS
 10
-22.4892552058
 20
-2.6519120222
 11
-22.4871671892
 21
-1.9997004965
  0
LINE
  5
304
100
AcDbEntity
  8
RACCORDO
100
AcDbLine
 62
253
  6
CONTINUOUS
 10
-23.288518414
 20
-2.1376523588
 11
-23.2874872765
 21
-2.0016709846
  0
LINE
  5
305
100
AcDbEntity
  8
ASSI
100
AcDbLine
 62
253
  6
CONTINUOUS
 10
-23.288518414
 20
-2.1376523588
 11
-23.2874872765
 21
-2.0016709846
  0
LINE
  5
306
100
AcDbEntity
  8
RACCORDO
100
AcDbLine
 62
253
  6
CONTINUOUS
 10
-22.4916080623
 20
-2.9609077439
 11
-22.4892552058
 21
-2.6519120222
  0
LINE
  5
307
100
AcDbEntity
  8
ASSI
100
AcDbLine
 62
253
  6
CONTINUOUS
 10
-22.4916080623
 20
-2.9609077439
 11
-22.4892552058
 21
-2.6519120222
  0
LINE
  5
308
100
AcDbEntity
  8
RACCORDO
100
AcDbLine
 62
253
  6
CONTINUOUS
 10
-22.4932760317
 20
-3.0995337538
 11
-22.4916080623
 21
-2.9609077439
  0
LINE
  5
309
100
AcDbEntity
  8
ASSI
100
AcDbLine
 62
253
  6
CONTINUOUS
 10
-22.4932760317
 20
-3.0995337538
 11
-22.4916080623
 21
-2.9609077439
  0
LINE
  5
30A
100
AcDbEntity
  8
RACCORDO
100
AcDbLine
 62
253
  6
CONTINUOUS
 10
-23.2898371992
 20
-2.2456982546
 11
-23.288518414
 21
-2.1376523588
  0
LINE
  5
30B
100
AcDbEntity
  8
ASSI
100
AcDbLine
 62
253
  6
CONTINUOUS
 10
-23.2898371992
 20
-2.2456982546
 11
-23.288518414
 21
-2.1376523588
  0
LINE
  5
30C
100
AcDbEntity
  8
RACCORDO
100
AcDbLine
 62
253
  6
CONTINUOUS
 10
-22.4945700692
 20
-3.176984106
 11
-22.4932760317
 21
-3.0995337538
  0
LINE
  5
30D
100
AcDbEntity
  8
ASSI
100
AcDbLine
 62
253
  6
CONTINUOUS
 10
-22.4945700692
 20
-3.176984106
 11
-22.4932760317
 21
-3.0995337538
  0
LINE
  5
30E
100
AcDbEntity
  8
RACCORDO
100
AcDbLine
 62
253
  6
CONTINUOUS
 10
-23.2910460067
 20
-2.3163661498
 11
-23.2898371992
 21
-2.2456982546
  0
LINE
  5
30F
100
AcDbEntity
  8
ASSI
100
AcDbLine
 62
253
  6
CONTINUOUS
 10
-23.2910460067
 20
-2.3163661498
 11
-23.2898371992
 21
-2.2456982546
  0
LWPOLYLINE
  5
310
100
AcDbEntity
  8
RACCORDO
100
AcDbPolyline
 62
253
  6
CONTINUOUS
 90
34
 70
0
 10
-23.2749002642
 20
18.1313402041
 10
-23.2747380885
 20
18.1393933921
 10
-23.2742518246
 20
18.1474335178
 10
-23.2734422611
 20
18.1554475401
 10
-23.2723107112
 20
18.1634224603
 10
-23.2708590102
 20
18.1713453428
 10
-23.2690895128
 20
18.1792033369
 10
-23.2670050892
 20
18.1869836969
 10
-23.2646091202
 20
18.1946738028
 10
-23.2619054922
 20
18.2022611815
 10
-23.2588985904
 20
18.2097335261
 10
-23.2555932921
 20
18.2170787164
 10
-23.2519949584
 20
18.2242848385
 10
-23.2481094259
 20
18.2313402041
 10
-23.243942997
 20
18.2382333693
 10
-23.2395024294
 20
18.2449531534
 10
-23.234794926
 20
18.2514886569
 10
-23.2298281223
 20
18.2578292792
 10
-23.2246100744
 20
18.2639647357
 10
-23.2191492461
 20
18.2698850748
 10
-23.2134544948
 20
18.2755806936
 10
-23.2075350574
 20
18.2810423537
 10
-23.2014005354
 20
18.2862611964
 10
-23.1950608788
 20
18.2912287568
 10
-23.1885263707
 20
18.2959369773
 10
-23.18180761
 20
18.3003782212
 10
-23.1749154947
 20
18.3045452848
 10
-23.1678612036
 20
18.3084314092
 10
-23.160656179
 20
18.312030291
 10
-23.1533121074
 20
18.3153360928
 10
-23.145840901
 20
18.3183434526
 10
-23.1382546779
 20
18.3210474925
 10
-23.1305657432
 20
18.3234438264
 10
-23.1227865682
 20
18.3255285676
  0
LWPOLYLINE
  5
311
100
AcDbEntity
  8
ASSI
100
AcDbPolyline
 62
253
  6
CONTINUOUS
 90
34
 70
0
 10
-23.2749002642
 20
18.1313402041
 10
-23.2747380885
 20
18.1393933921
 10
-23.2742518246
 20
18.1474335178
 10
-23.2734422611
 20
18.1554475401
 10
-23.2723107112
 20
18.1634224603
 10
-23.2708590102
 20
18.1713453428
 10
-23.2690895128
 20
18.1792033369
 10
-23.2670050892
 20
18.1869836969
 10
-23.2646091202
 20
18.1946738028
 10
-23.2619054922
 20
18.2022611815
 10
-23.2588985904
 20
18.2097335261
 10
-23.2555932921
 20
18.2170787164
 10
-23.2519949584
 20
18.2242848385
 10
-23.2481094259
 20
18.2313402041
 10
-23.243942997
 20
18.2382333693
 10
-23.2395024294
 20
18.2449531534
 10
-23.234794926
 20
18.2514886569
 10
-23.2298281223
 20
18.2578292792
 10
-23.2246100744
 20
18.2639647357
 10
-23.2191492461
 20
18.2698850748
 10
-23.2134544948
 20
18.2755806936
 10
-23.2075350574
 20
18.2810423537
 10
-23.2014005354
 20
18.2862611964
 10
-23.1950608788
 20
18.2912287568
 10
-23.1885263707
 20
18.2959369773
 10
-23.18180761
 20
18.3003782212
 10
-23.1749154947
 20
18.3045452848
 10
-23.1678612036
 20
18.3084314092
 10
-23.160656179
 20
18.312030291
 10
-23.1533121074
 20
18.3153360928
 10
-23.145840901
 20
18.3183434526
 10
-23.1382546779
 20
18.3210474925
 10
-23.1305657432
 20
18.3234438264
 10
-23.1227865682
 20
18.3255285676
  0
LINE
  5
312
100
AcDbEntity
  8
RACCORDO
100
AcDbLine
 62
253
  6
CONTINUOUS
 10
-22.4953789607
 20
-3.2142859719
 11
-22.4945700692
 21
-3.176984106
  0
LINE
  5
313
100
AcDbEntity
  8
ASSI
100
AcDbLine
 62
253
  6
CONTINUOUS
 10
-22.4953789607
 20
-3.2142859719
 11
-22.4945700692
 21
-3.176984106
  0
LINE
  5
314
100
AcDbEntity
  8
RACCORDO
100
AcDbLine
 62
253
  6
CONTINUOUS
 10
-23.2921781549
 20
-2.3673135042
 11
-23.2910460067
 21
-2.3163661498
  0
LINE
  5
315
100
AcDbEntity
  8
ASSI
100
AcDbLine
 62
253
  6
CONTINUOUS
 10
-23.2921781549
 20
-2.3673135042
 11
-23.2910460067
 21
-2.3163661498
  0
LINE
  5
316
100
AcDbEntity
  8
RACCORDO
100
AcDbLine
 62
253
  6
CONTINUOUS
 10
-22.495929177
 20
-3.2352131979
 11
-22.4953789607
 21
-3.2142859719
  0
LINE
  5
317
100
AcDbEntity
  8
ASSI
100
AcDbLine
 62
253
  6
CONTINUOUS
 10
-22.495929177
 20
-3.2352131979
 11
-22.4953789607
 21
-3.2142859719
  0
LINE
  5
318
100
AcDbEntity
  8
RACCORDO
100
AcDbLine
 62
253
  6
CONTINUOUS
 10
-23.2929049163
 20
-2.3940903303
 11
-23.2921781549
 21
-2.3673135042
  0
LINE
  5
319
100
AcDbEntity
  8
ASSI
100
AcDbLine
 62
253
  6
CONTINUOUS
 10
-23.2929049163
 20
-2.3940903303
 11
-23.2921781549
 21
-2.3673135042
  0
LINE
  5
31A
100
AcDbEntity
  8
RACCORDO
100
AcDbLine
 62
253
  6
CONTINUOUS
 10
-23.2936628952
 20
-2.4178576418
 11
-23.2929049163
 21
-2.3940903303
  0
LINE
  5
31B
100
AcDbEntity
  8
ASSI
100
AcDbLine
 62
253
  6
CONTINUOUS
 10
-23.2936628952
 20
-2.4178576418
 11
-23.2929049163
 21
-2.3940903303
  0
LINE
  5
31C
100
AcDbEntity
  8
RACCORDO
100
AcDbLine
 62
253
  6
CONTINUOUS
 10
-23.294183594
 20
-2.4319687271
 11
-23.2936628952
 21
-2.4178576418
  0
LINE
  5
31D
100
AcDbEntity
  8
ASSI
100
AcDbLine
 62
253
  6
CONTINUOUS
 10
-23.294183594
 20
-2.4319687271
 11
-23.2936628952
 21
-2.4178576418
  0
LINE
  5
31E
100
AcDbEntity
  8
RACCORDO
100
AcDbLine
 62
253
  6
CONTINUOUS
 10
-23.2947154706
 20
-2.4446618629
 11
-23.294183594
 21
-2.4319687271
  0
LINE
  5
31F
100
AcDbEntity
  8
ASSI
100
AcDbLine
 62
253
  6
CONTINUOUS
 10
-23.2947154706
 20
-2.4446618629
 11
-23.294183594
 21
-2.4319687271
  0
LINE
  5
320
100
AcDbEntity
  8
CURVE
100
AcDbLine
 62
252
  6
CONTINUOUS
 10
-11.9897688107
 20
6.1204335801
 11
-12.0116291514
 21
6.1301950839
  0
LINE
  5
321
100
AcDbEntity
  8
CURVE
100
AcDbLine
 62
252
  6
CONTINUOUS
 10
-11.9687767057
 20
6.110134054
 11
-11.9903087648
 21
6.1206864933
  0
LINE
  5
322
100
AcDbEntity
  8
CURVE
100
AcDbLine
 62
252
  6
CONTINUOUS
 10
-11.9482119796
 20
6.099114732
 11
-11.9693688921
 21
6.1104353682
  0
LINE
  5
323
100
AcDbEntity
  8
CURVE
100
AcDbLine
 62
252
  6
CONTINUOUS
 10
-11.9280845585
 20
6.0873878192
 11
-11.9488302785
 21
6.0994567379
  0
LINE
  5
324
100
AcDbEntity
  8
CURVE
100
AcDbLine
 62
252
  6
CONTINUOUS
 10
-11.9084043683
 20
6.0749655205
 11
-11.9287104481
 21
6.0877647351
  0
LINE
  5
325
100
AcDbEntity
  8
CURVE
100
AcDbLine
 62
252
  6
CONTINUOUS
 10
-11.8891829511
 20
6.0618585656
 11
-11.9090269251
 21
6.0753734924
  0
LINE
  5
326
100
AcDbEntity
  8
CURVE
100
AcDbLine
 62
252
  6
CONTINUOUS
 10
-11.870438314
 20
6.0480717821
 11
-11.8897975824
 21
6.0622952376
  0
LWPOLYLINE
  5
327
100
AcDbEntity
  8
RACCORDO
100
AcDbPolyline
 62
253
  6
CONTINUOUS
 90
9
 70
0
 10
-22.4967681883
 20
40.2232571391
 10
-22.4970509606
 20
40.2300851151
 10
-22.4973348017
 20
40.2360930982
 10
-22.4976197071
 20
40.241277741
 10
-22.4979056812
 20
40.2456361811
 10
-22.4981922589
 20
40.2491660147
 10
-22.498479285
 20
40.2518652753
 10
-22.4987669146
 20
40.2537324482
 10
-22.4990551477
 20
40.2547664875
  0
LWPOLYLINE
  5
328
100
AcDbEntity
  8
ASSI
100
AcDbPolyline
 62
253
  6
CONTINUOUS
 90
9
 70
0
 10
-22.4967681883
 20
40.2232571391
 10
-22.4970509606
 20
40.2300851151
 10
-22.4973348017
 20
40.2360930982
 10
-22.4976197071
 20
40.241277741
 10
-22.4979056812
 20
40.2456361811
 10
-22.4981922589
 20
40.2491660147
 10
-22.498479285
 20
40.2518652753
 10
-22.4987669146
 20
40.2537324482
 10
-22.4990551477
 20
40.2547664875
  0
LWPOLYLINE
  5
329
100
AcDbEntity
  8
RACCORDO
100
AcDbPolyline
 62
253
  6
CONTINUOUS
 90
3
 70
0
 10
-22.4959291727
 20
40.1978935988
 10
-22.4962072944
 20
40.2071569031
 10
-22.4967681883
 20
40.2232571391
  0
LWPOLYLINE
  5
32A
100
AcDbEntity
  8
ASSI
100
AcDbPolyline
 62
253
  6
CONTINUOUS
 90
3
 70
0
 10
-22.4959291727
 20
40.1978935988
 10
-22.4962072944
 20
40.2071569031
 10
-22.4967681883
 20
40.2232571391
  0
LINE
  5
32B
100
AcDbEntity
  8
CURVE
100
AcDbLine
 62
252
  6
CONTINUOUS
 10
-9.4955070204
 20
34.2613402041
 11
-10.8055070204
 21
32.9513402041
  0
LINE
  5
32C
100
AcDbEntity
  8
CURVE
100
AcDbLine
 62
252
  6
CONTINUOUS
 10
-13.7755070204
 20
29.9813402041
 11
-15.0555070204
 21
28.7013402041
  0
LINE
  5
32D
100
AcDbEntity
  8
RACCORDO
100
AcDbLine
 62
253
  6
CONTINUOUS
 10
-1.9753851765
 20
40.3313402041
 11
-2.0519588931
 21
40.2547664875
  0
LINE
  5
32E
100
AcDbEntity
  8
ASSI
100
AcDbLine
 62
253
  6
CONTINUOUS
 10
-1.9753851765
 20
40.3313402041
 11
-2.0519588931
 21
40.2547664875
  0
LINE
  5
32F
100
AcDbEntity
  8
CURVE
100
AcDbLine
 62
252
  6
CONTINUOUS
 10
-11.8521900804
 20
6.0336085223
 11
-11.8710416867
 21
6.0485345784
  0
LINE
  5
330
100
AcDbEntity
  8
CURVE
100
AcDbLine
 62
252
  6
CONTINUOUS
 10
-11.8344578734
 20
6.0184721385
 11
-11.8527788533
 21
6.0340942175
  0
LINE
  5
331
100
AcDbEntity
  8
CURVE
100
AcDbLine
 62
252
  6
CONTINUOUS
 10
-11.8148515561
 20
6.0003613216
 11
-11.8350286974
 21
6.0189768579
  0
LINE
  5
332
100
AcDbEntity
  8
RACCORDO
100
AcDbLine
 62
253
  6
CONTINUOUS
 10
-2.0519588931
 20
-3.2920860793
 11
-1.9753851765
 21
-3.3686597959
  0
LINE
  5
333
100
AcDbEntity
  8
ASSI
100
AcDbLine
 62
253
  6
CONTINUOUS
 10
-2.0519588931
 20
-3.2920860793
 11
-1.9753851765
 21
-3.3686597959
  0
LINE
  5
334
100
AcDbEntity
  8
CURVE
100
AcDbLine
 62
252
  6
CONTINUOUS
 10
-11.7959862752
 20
5.9814277499
 11
-11.8153980105
 21
6.0008827611
  0
LINE
  5
335
100
AcDbEntity
  8
CURVE
100
AcDbLine
 62
252
  6
CONTINUOUS
 10
-11.7779034426
 20
5.9617234726
 11
-11.7965054916
 21
5.9819623658
  0
LWPOLYLINE
  5
336
100
AcDbEntity
  8
CURVE
100
AcDbPolyline
 62
252
  6
CONTINUOUS
 90
5
 70
0
 10
-12.7456768562
 20
5.0917837993
 10
-12.76275771
 20
5.11119897
 10
-12.7790691027
 20
5.1312680245
 10
-12.7945826868
 20
5.1519541999
 10
-12.8092707207
 20
5.1732227047
  0
LINE
  5
337
100
AcDbEntity
  8
RACCORDO
100
AcDbLine
 62
253
  6
CONTINUOUS
 10
-1.1755070204
 20
39.531462048
 11
-1.252080737
 21
39.4548883314
  0
LINE
  5
338
100
AcDbEntity
  8
ASSI
100
AcDbLine
 62
253
  6
CONTINUOUS
 10
-1.1755070204
 20
39.531462048
 11
-1.252080737
 21
39.4548883314
  0
LINE
  5
339
100
AcDbEntity
  8
RACCORDO
100
AcDbLine
 62
253
  6
CONTINUOUS
 10
-1.252080737
 20
-2.4922079232
 11
-1.1755070204
 21
-2.5687816398
  0
LINE
  5
33A
100
AcDbEntity
  8
ASSI
100
AcDbLine
 62
253
  6
CONTINUOUS
 10
-1.252080737
 20
-2.4922079232
 11
-1.1755070204
 21
-2.5687816398
  0
LINE
  5
33B
100
AcDbEntity
  8
CURVE
100
AcDbLine
 62
252
  6
CONTINUOUS
 10
-11.7606444701
 20
5.9413005389
 11
-11.7783940694
 21
5.9622700869
  0
LINE
  5
33C
100
AcDbEntity
  8
CURVE
100
AcDbLine
 62
252
  6
CONTINUOUS
 10
-11.7442507696
 20
5.920210998
 11
-11.7611066722
 21
5.9418603391
  0
LINE
  5
33D
100
AcDbEntity
  8
CURVE
100
AcDbLine
 62
252
  6
CONTINUOUS
 10
-11.7287637532
 20
5.8985068992
 11
-11.7446862287
 21
5.9207875373
  0
LINE
  5
33E
100
AcDbEntity
  8
CURVE
100
AcDbLine
 62
252
  6
CONTINUOUS
 10
-11.7142248326
 20
5.8762402916
 11
-11.7291756673
 21
5.8991060961
  0
LINE
  5
33F
100
AcDbEntity
  8
CURVE
100
AcDbLine
 62
252
  6
CONTINUOUS
 10
-11.7023088573
 20
5.8563344369
 11
-11.7146179165
 21
5.8768704305
  0
LINE
  5
340
100
AcDbEntity
  8
CURVE
100
AcDbLine
 62
252
  6
CONTINUOUS
 10
-11.691149957
 20
5.8360602843
 11
-11.7026900406
 21
5.8569998147
  0
LINE
  5
341
100
AcDbEntity
  8
CURVE
100
AcDbLine
 62
252
  6
CONTINUOUS
 10
-11.6807476148
 20
5.8154403566
 11
-11.6915221224
 21
5.8367676961
  0
LINE
  5
342
100
AcDbEntity
  8
CURVE
100
AcDbLine
 62
252
  6
CONTINUOUS
 10
-12.8481307719
 20
5.2402610155
 11
-12.8592679936
 21
5.2635961754
  0
LINE
  5
343
100
AcDbEntity
  8
CURVE
100
AcDbLine
 62
252
  6
CONTINUOUS
 10
-11.6711013137
 20
5.7944971763
 11
-11.681111757
 21
5.8161952387
  0
LWPOLYLINE
  5
344
100
AcDbEntity
  8
RACCORDO
100
AcDbPolyline
 62
253
  6
CONTINUOUS
 90
11
 70
0
 10
-22.4990551477
 20
-3.2920860793
 10
-22.4987669169
 20
-3.2910520406
 10
-22.4984792889
 20
-3.2891848685
 10
-22.4981922637
 20
-3.286485609
 10
-22.4979056859
 20
-3.2829557763
 10
-22.4976197108
 20
-3.2785973367
 10
-22.497334805
 20
-3.2734126944
 10
-22.4970509641
 20
-3.2674047117
 10
-22.4967681923
 20
-3.260576736
 10
-22.4964869685
 20
-3.2529325795
 10
-22.495929177
 20
-3.2352131979
  0
LWPOLYLINE
  5
345
100
AcDbEntity
  8
ASSI
100
AcDbPolyline
 62
253
  6
CONTINUOUS
 90
11
 70
0
 10
-22.4990551477
 20
-3.2920860793
 10
-22.4987669169
 20
-3.2910520406
 10
-22.4984792889
 20
-3.2891848685
 10
-22.4981922637
 20
-3.286485609
 10
-22.4979056859
 20
-3.2829557763
 10
-22.4976197108
 20
-3.2785973367
 10
-22.497334805
 20
-3.2734126944
 10
-22.4970509641
 20
-3.2674047117
 10
-22.4967681923
 20
-3.260576736
 10
-22.4964869685
 20
-3.2529325795
 10
-22.495929177
 20
-3.2352131979
  0
LINE
  5
346
100
AcDbEntity
  8
CURVE
100
AcDbLine
 62
252
  6
CONTINUOUS
 10
-11.6622122892
 20
5.7732588155
 11
-11.6714565393
 21
5.7953036065
  0
LINE
  5
347
100
AcDbEntity
  8
CURVE
100
AcDbLine
 62
252
  6
CONTINUOUS
 10
-11.6540887857
 20
5.7517755431
 11
-11.6625561031
 21
5.7741195651
  0
LINE
  5
348
100
AcDbEntity
  8
CURVE
100
AcDbLine
 62
252
  6
CONTINUOUS
 10
-11.6467408002
 20
5.7301031773
 11
-11.6544182378
 21
5.7526922859
  0
LINE
  5
349
100
AcDbEntity
  8
CURVE
100
AcDbLine
 62
252
  6
CONTINUOUS
 10
-11.6401783295
 20
5.7082975363
 11
-11.6470527715
 21
5.7310765422
  0
LINE
  5
34A
100
AcDbEntity
  8
RACCORDO
100
AcDbLine
 62
253
  6
CONTINUOUS
 10
-13.83675652
 20
18.8315736929
 11
-13.83675652
 21
18.6313402041
  0
LINE
  5
34B
100
AcDbEntity
  8
ASSI
100
AcDbLine
 62
253
  6
CONTINUOUS
 10
-13.83675652
 20
18.8315736929
 11
-13.83675652
 21
18.6313402041
  0
LINE
  5
34C
100
AcDbEntity
  8
RACCORDO
100
AcDbLine
 62
253
  6
CONTINUOUS
 10
-13.83675652
 20
18.1311067153
 11
-13.83675652
 21
18.3313402041
  0
LINE
  5
34D
100
AcDbEntity
  8
ASSI
100
AcDbLine
 62
253
  6
CONTINUOUS
 10
-13.83675652
 20
18.1311067153
 11
-13.83675652
 21
18.3313402041
  0
LWPOLYLINE
  5
34E
100
AcDbEntity
  8
RACCORDO
100
AcDbPolyline
 62
253
  6
CONTINUOUS
 90
115
 70
0
 10
-13.8367560741
 20
18.8315736929
 10
-13.8280140182
 20
18.8685311231
 10
-13.8184117458
 20
18.9052297284
 10
-13.8079492567
 20
18.9416695083
 10
-13.7966196632
 20
18.9778706302
 10
-13.7844298531
 20
19.0138129261
 10
-13.7714004899
 20
19.0494358918
 10
-13.7575301634
 20
19.0847390005
 10
-13.7428202838
 20
19.1197227786
 10
-13.7272957453
 20
19.1543283018
 10
-13.7109551754
 20
19.1885549164
 10
-13.6937999466
 20
19.2224032758
 10
-13.67585907
 20
19.2558164168
 10
-13.6571312264
 20
19.2887935908
 10
-13.6376177351
 20
19.3213355462
 10
-13.6173515648
 20
19.3533875665
 10
-13.5963314387
 20
19.384948832
 10
-13.5745586336
 20
19.4160201625
 10
-13.5520699484
 20
19.4465493
 10
-13.5288641992
 20
19.4765352995
 10
-13.50494257
 20
19.5059791064
 10
-13.4803454115
 20
19.5348312981
 10
-13.4550715705
 20
19.5630908946
 10
-13.4291222002
 20
19.5907588767
 10
-13.4025411109
 20
19.617788763
 10
-13.3753272709
 20
19.6441794479
 10
-13.3474817118
 20
19.669932038
 10
-13.3190513392
 20
19.6950033697
 10
-13.2900351553
 20
19.7193923105
 10
-13.2604341578
 20
19.743099994
 10
-13.2302982447
 20
19.7660866557
 10
-13.199626545
 20
19.788351064
 10
-13.1684199296
 20
19.8098944518
 10
-13.1367309101
 20
19.8306807519
 10
-13.104558674
 20
19.8507086972
 10
-13.0719040337
 20
19.869979556
 10
-13.0388219379
 20
19.8884610649
 10
-13.0053116825
 20
19.9061518934
 10
-12.9713739715
 20
19.9230533731
 10
-12.9370658651
 20
19.9391372335
 10
-12.9023867557
 20
19.9544021007
 10
-12.867337251
 20
19.9688493497
 10
-12.8319762333
 20
19.9824548338
 10
-12.7963031773
 20
19.9952171459
 10
-12.7603186085
 20
20.0071376941
 10
-12.7240829857
 20
20.0181965544
 10
-12.6875959123
 20
20.0283922798
 10
-12.650857785
 20
20.0377263182
 10
-12.6139302522
 20
20.046183088
 10
-12.5768129837
 20
20.0537611265
 10
-12.5395063096
 20
20.0604618971
 10
-12.5020728695
 20
20.0662742077
 10
-12.464512473
 20
20.0711965712
 10
-12.4268253103
 20
20.0752304752
 10
-12.3890745914
 20
20.0783691898
 10
-12.3512601975
 20
20.0806112215
 10
-12.3133822473
 20
20.0819580642
 10
-12.2755043072
 20
20.0824074691
 10
-12.2376263865
 20
20.0819579374
 10
-12.1997484759
 20
20.080610968
 10
-12.1619341144
 20
20.0783688096
 10
-12.1241834035
 20
20.0752299671
 10
-12.0864962417
 20
20.0711959352
 10
-12.0489358634
 20
20.0662734472
 10
-12.0115024733
 20
20.0604610172
 10
-11.9741958666
 20
20.0537601305
 10
-11.9370786631
 20
20.0461819769
 10
-11.9001511826
 20
20.0377250912
 10
-11.8634131054
 20
20.0283909379
 10
-11.8269260916
 20
20.0181951022
 10
-11.7906905432
 20
20.0071361372
 10
-11.7547060582
 20
19.9952154889
 10
-11.7190330911
 20
19.9824530812
 10
-11.6836721676
 20
19.9688475065
 10
-11.6486227621
 20
19.9544001713
 10
-11.6139437522
 20
19.939135221
 10
-11.5796357401
 20
19.9230512776
 10
-11.5456981237
 20
19.9061497179
 10
-11.5121879739
 20
19.8884588192
 10
-11.4791060044
 20
19.8699772556
 10
-11.4464515015
 20
19.8507063519
 10
-11.4142793961
 20
19.8306783618
 10
-11.3825904882
 20
19.8098920086
 10
-11.3513839777
 20
19.7883485679
 10
-11.3207123955
 20
19.7660841213
 10
-11.2905766264
 20
19.7430974463
 10
-11.2609757855
 20
19.7193897643
 10
-11.2319597492
 20
19.6950008233
 10
-11.2035295015
 20
19.6699294782
 10
-11.1756840583
 20
19.644176873
 10
-11.1484703433
 20
19.6177861892
 10
-11.1218894
 20
19.590756332
 10
-11.0959401849
 20
19.5630883953
 10
-11.0706664915
 20
19.534828844
 10
-11.0460694638
 20
19.5059766876
 10
-11.0221479578
 20
19.476532916
 10
-10.9989423343
 20
19.4465469649
 10
-10.976453783
 20
19.4160178963
 10
-10.9546811144
 20
19.3849466478
 10
-10.93366112
 20
19.3533854695
 10
-10.9133950744
 20
19.3213335387
 10
-10.893881703
 20
19.2887916778
 10
-10.875153975
 20
19.2558146048
 10
-10.857213209
 20
19.2224015694
 10
-10.8400580863
 20
19.188553322
 10
-10.8237176196
 20
19.1543268312
 10
-10.8081931839
 20
19.1197214502
 10
-10.7934834041
 20
19.0847378262
 10
-10.7796131682
 20
19.0494348699
 10
-10.7665838913
 20
19.0138120442
 10
-10.7543941584
 20
18.9778698867
 10
-10.7430646125
 20
18.9416689202
 10
-10.7326021346
 20
18.9052293192
 10
-10.7229998438
 20
18.86853091
 10
-10.71425774
 20
18.8315736929
  0
LWPOLYLINE
  5
34F
100
AcDbEntity
  8
ASSI
100
AcDbPolyline
 62
253
  6
CONTINUOUS
 90
115
 70
0
 10
-13.8367560741
 20
18.8315736929
 10
-13.8280140182
 20
18.8685311231
 10
-13.8184117458
 20
18.9052297284
 10
-13.8079492567
 20
18.9416695083
 10
-13.7966196632
 20
18.9778706302
 10
-13.7844298531
 20
19.0138129261
 10
-13.7714004899
 20
19.0494358918
 10
-13.7575301634
 20
19.0847390005
 10
-13.7428202838
 20
19.1197227786
 10
-13.7272957453
 20
19.1543283018
 10
-13.7109551754
 20
19.1885549164
 10
-13.6937999466
 20
19.2224032758
 10
-13.67585907
 20
19.2558164168
 10
-13.6571312264
 20
19.2887935908
 10
-13.6376177351
 20
19.3213355462
 10
-13.6173515648
 20
19.3533875665
 10
-13.5963314387
 20
19.384948832
 10
-13.5745586336
 20
19.4160201625
 10
-13.5520699484
 20
19.4465493
 10
-13.5288641992
 20
19.4765352995
 10
-13.50494257
 20
19.5059791064
 10
-13.4803454115
 20
19.5348312981
 10
-13.4550715705
 20
19.5630908946
 10
-13.4291222002
 20
19.5907588767
 10
-13.4025411109
 20
19.617788763
 10
-13.3753272709
 20
19.6441794479
 10
-13.3474817118
 20
19.669932038
 10
-13.3190513392
 20
19.6950033697
 10
-13.2900351553
 20
19.7193923105
 10
-13.2604341578
 20
19.743099994
 10
-13.2302982447
 20
19.7660866557
 10
-13.199626545
 20
19.788351064
 10
-13.1684199296
 20
19.8098944518
 10
-13.1367309101
 20
19.8306807519
 10
-13.104558674
 20
19.8507086972
 10
-13.0719040337
 20
19.869979556
 10
-13.0388219379
 20
19.8884610649
 10
-13.0053116825
 20
19.9061518934
 10
-12.9713739715
 20
19.9230533731
 10
-12.9370658651
 20
19.9391372335
 10
-12.9023867557
 20
19.9544021007
 10
-12.867337251
 20
19.9688493497
 10
-12.8319762333
 20
19.9824548338
 10
-12.7963031773
 20
19.9952171459
 10
-12.7603186085
 20
20.0071376941
 10
-12.7240829857
 20
20.0181965544
 10
-12.6875959123
 20
20.0283922798
 10
-12.650857785
 20
20.0377263182
 10
-12.6139302522
 20
20.046183088
 10
-12.5768129837
 20
20.0537611265
 10
-12.5395063096
 20
20.0604618971
 10
-12.5020728695
 20
20.0662742077
 10
-12.464512473
 20
20.0711965712
 10
-12.4268253103
 20
20.0752304752
 10
-12.3890745914
 20
20.0783691898
 10
-12.3512601975
 20
20.0806112215
 10
-12.3133822473
 20
20.0819580642
 10
-12.2755043072
 20
20.0824074691
 10
-12.2376263865
 20
20.0819579374
 10
-12.1997484759
 20
20.080610968
 10
-12.1619341144
 20
20.0783688096
 10
-12.1241834035
 20
20.0752299671
 10
-12.0864962417
 20
20.0711959352
 10
-12.0489358634
 20
20.0662734472
 10
-12.0115024733
 20
20.0604610172
 10
-11.9741958666
 20
20.0537601305
 10
-11.9370786631
 20
20.0461819769
 10
-11.9001511826
 20
20.0377250912
 10
-11.8634131054
 20
20.0283909379
 10
-11.8269260916
 20
20.0181951022
 10
-11.7906905432
 20
20.0071361372
 10
-11.7547060582
 20
19.9952154889
 10
-11.7190330911
 20
19.9824530812
 10
-11.6836721676
 20
19.9688475065
 10
-11.6486227621
 20
19.9544001713
 10
-11.6139437522
 20
19.939135221
 10
-11.5796357401
 20
19.9230512776
 10
-11.5456981237
 20
19.9061497179
 10
-11.5121879739
 20
19.8884588192
 10
-11.4791060044
 20
19.8699772556
 10
-11.4464515015
 20
19.8507063519
 10
-11.4142793961
 20
19.8306783618
 10
-11.3825904882
 20
19.8098920086
 10
-11.3513839777
 20
19.7883485679
 10
-11.3207123955
 20
19.7660841213
 10
-11.2905766264
 20
19.7430974463
 10
-11.2609757855
 20
19.7193897643
 10
-11.2319597492
 20
19.6950008233
 10
-11.2035295015
 20
19.6699294782
 10
-11.1756840583
 20
19.644176873
 10
-11.1484703433
 20
19.6177861892
 10
-11.1218894
 20
19.590756332
 10
-11.0959401849
 20
19.5630883953
 10
-11.0706664915
 20
19.534828844
 10
-11.0460694638
 20
19.5059766876
 10
-11.0221479578
 20
19.476532916
 10
-10.9989423343
 20
19.4465469649
 10
-10.976453783
 20
19.4160178963
 10
-10.9546811144
 20
19.3849466478
 10
-10.93366112
 20
19.3533854695
 10
-10.9133950744
 20
19.3213335387
 10
-10.893881703
 20
19.2887916778
 10
-10.875153975
 20
19.2558146048
 10
-10.857213209
 20
19.2224015694
 10
-10.8400580863
 20
19.188553322
 10
-10.8237176196
 20
19.1543268312
 10
-10.8081931839
 20
19.1197214502
 10
-10.7934834041
 20
19.0847378262
 10
-10.7796131682
 20
19.0494348699
 10
-10.7665838913
 20
19.0138120442
 10
-10.7543941584
 20
18.9778698867
 10
-10.7430646125
 20
18.9416689202
 10
-10.7326021346
 20
18.9052293192
 10
-10.7229998438
 20
18.86853091
 10
-10.71425774
 20
18.8315736929
  0
LWPOLYLINE
  5
350
100
AcDbEntity
  8
RACCORDO
100
AcDbPolyline
 62
253
  6
CONTINUOUS
 90
7
 70
0
 10
-1.4282274726
 20
18.6371518406
 10
-1.4360842699
 20
18.6353820737
 10
-1.4440059458
 20
18.6339301516
 10
-1.4519796513
 20
18.6327984293
 10
-1.459992453
 20
18.6319887425
 10
-1.4680313542
 20
18.6315024044
 10
-1.4760833157
 20
18.6313402041
  0
LWPOLYLINE
  5
351
100
AcDbEntity
  8
ASSI
100
AcDbPolyline
 62
253
  6
CONTINUOUS
 90
6
 70
0
 10
-1.4282274726
 20
18.6371518406
 10
-1.4360842699
 20
18.6353820737
 10
-1.4440059458
 20
18.6339301516
 10
-1.4519796513
 20
18.6327984293
 10
-1.459992453
 20
18.6319887425
 10
-1.4680313542
 20
18.6315024044
  0
LWPOLYLINE
  5
352
100
AcDbEntity
  8
RACCORDO
100
AcDbPolyline
 62
253
  6
CONTINUOUS
 90
7
 70
0
 10
-23.122786564
 20
18.6371518395
 10
-23.1149297672
 20
18.6353820729
 10
-23.1070080919
 20
18.6339301511
 10
-23.0990343871
 20
18.632798429
 10
-23.0910215861
 20
18.6319887423
 10
-23.0829826858
 20
18.6315024044
 10
-23.0749307252
 20
18.6313402041
  0
LWPOLYLINE
  5
353
100
AcDbEntity
  8
ASSI
100
AcDbPolyline
 62
253
  6
CONTINUOUS
 90
7
 70
0
 10
-23.122786564
 20
18.6371518395
 10
-23.1149297672
 20
18.6353820729
 10
-23.1070080919
 20
18.6339301511
 10
-23.0990343871
 20
18.632798429
 10
-23.0910215861
 20
18.6319887423
 10
-23.0829826858
 20
18.6315024044
 10
-23.0749307252
 20
18.6313402041
  0
LINE
  5
354
100
AcDbEntity
  8
CURVE
100
AcDbLine
 62
252
  6
CONTINUOUS
 10
-11.6344076813
 20
5.6864068423
 11
-11.6404695323
 21
5.7093271071
  0
LINE
  5
355
100
AcDbEntity
  8
CURVE
100
AcDbLine
 62
252
  6
CONTINUOUS
 10
-11.6294204066
 20
5.6644489327
 11
-11.6346747033
 21
5.687491412
  0
LINE
  5
356
100
AcDbEntity
  8
CURVE
100
AcDbLine
 62
252
  6
CONTINUOUS
 10
-11.6252043672
 20
5.6424340489
 11
-11.6296598867
 21
5.6655875222
  0
LINE
  5
357
100
AcDbEntity
  8
CURVE
100
AcDbLine
 62
252
  6
CONTINUOUS
 10
-11.6170921508
 20
5.576052337
 11
-11.6191787136
 21
5.599561665
  0
LINE
  5
358
100
AcDbEntity
  8
CURVE
100
AcDbLine
 62
252
  6
CONTINUOUS
 10
-11.6159106165
 20
5.5536801024
 11
-11.617188938
 21
5.5774064398
  0
LWPOLYLINE
  5
359
100
AcDbEntity
  8
CURVE
100
AcDbPolyline
 62
252
  6
CONTINUOUS
 90
28
 70
0
 10
-12.9166401584
 20
5.539861399
 10
-12.9166337014
 20
5.5186189964
 10
-12.9159492261
 20
5.4976498862
 10
-12.9145954393
 20
5.4769133345
 10
-12.9125810481
 20
5.4563686075
 10
-12.9099147593
 20
5.4359749712
 10
-12.9056757071
 20
5.4106498098
 10
-12.9004323281
 20
5.3855163311
 10
-12.8941852809
 20
5.360593785
 10
-12.886935224
 20
5.3359014216
 10
-12.8786859059
 20
5.3114649355
 10
-12.8694534333
 20
5.2873358002
 10
-12.859257003
 20
5.2635719336
 10
-12.8481158116
 20
5.240231254
 10
-12.8360500813
 20
5.2173662764
 10
-12.823084138
 20
5.1950079038
 10
-12.809243333
 20
5.1731816365
 10
-12.7945530178
 20
5.1519129747
 10
-12.779038986
 20
5.1312291647
 10
-12.7627288005
 20
5.1111644386
 10
-12.7456504661
 20
5.0917547749
 10
-12.7278319878
 20
5.0730361518
 10
-12.7093017312
 20
5.0550434441
 10
-12.6900895044
 20
5.0378071107
 10
-12.6702254759
 20
5.021356507
 10
-12.6497398145
 20
5.0057209882
 10
-12.6286632004
 20
4.9909277709
 10
-12.6070283607
 20
4.9769955162
  0
LINE
  5
35A
100
AcDbEntity
  8
CURVE
100
AcDbLine
 62
252
  6
CONTINUOUS
 10
-12.2755070204
 20
2.5813402041
 11
-12.2755070204
 21
3.7813401433
  0
LINE
  5
35B
100
AcDbEntity
  8
CURVE
100
AcDbLine
 62
252
  6
CONTINUOUS
 10
-12.2755070204
 20
7.2813402041
 11
-12.2755070204
 21
8.3813402025
  0
LINE
  5
35C
100
AcDbEntity
  8
CURVE
100
AcDbLine
 62
252
  6
CONTINUOUS
 10
-12.2755070204
 20
27.5513402041
 11
-12.2755070204
 21
29.4013402311
  0
LINE
  5
35D
100
AcDbEntity
  8
CURVE
100
AcDbLine
 62
252
  6
CONTINUOUS
 10
-12.2755070204
 20
33.6113402041
 11
-12.2755070204
 21
35.4113402146
  0
LWPOLYLINE
  5
35E
100
AcDbEntity
  8
CURVE
100
AcDbPolyline
 62
252
  6
CONTINUOUS
 90
89
 70
0
 10
-13.2855070204
 20
31.4813402041
 10
-13.2849591884
 20
31.5147036857
 10
-13.2833291183
 20
31.5476785895
 10
-13.2806350783
 20
31.5803477706
 10
-13.2768953365
 20
31.612794084
 10
-13.2721233372
 20
31.6450820769
 10
-13.2663132284
 20
31.6772030648
 10
-13.2594543344
 20
31.7091300553
 10
-13.2515359792
 20
31.7408360561
 10
-13.2425525323
 20
31.772291137
 10
-13.2325185448
 20
31.8034536161
 10
-13.2214536128
 20
31.8342788734
 10
-13.2093773326
 20
31.8647222891
 10
-13.1963087875
 20
31.8947419961
 10
-13.1822650085
 20
31.9243071378
 10
-13.1672625135
 20
31.9533896106
 10
-13.1513178205
 20
31.9819613106
 10
-13.1319639713
 20
32.0139532857
 10
-13.1114328057
 20
32.0452000183
 10
-13.0897560585
 20
32.0756601049
 10
-13.0669654648
 20
32.1052921416
 10
-13.0430927596
 20
32.1340547248
 10
-13.0181696778
 20
32.1619064508
 10
-12.9922279545
 20
32.1888059159
 10
-12.965301105
 20
32.2147134369
 10
-12.9374297664
 20
32.2395962125
 10
-12.9086563562
 20
32.2634231622
 10
-12.8790232919
 20
32.2861632052
 10
-12.8485729909
 20
32.3077852607
 10
-12.8173478707
 20
32.3282582482
 10
-12.7853903487
 20
32.3475510869
 10
-12.7527424874
 20
32.3656341091
 10
-12.7194449282
 20
32.3824832996
 10
-12.6855379576
 20
32.3980760562
 10
-12.6510618619
 20
32.4123897765
 10
-12.6160569276
 20
32.4254018584
 10
-12.5805634409
 20
32.4370896996
 10
-12.5446216885
 20
32.4474306978
 10
-12.5082750861
 20
32.4564053767
 10
-12.4715795681
 20
32.4640067626
 10
-12.4345941985
 20
32.4702310079
 10
-12.3973780411
 20
32.4750742648
 10
-12.3599901597
 20
32.4785326855
 10
-12.3224896183
 20
32.4806024223
 10
-12.2849354808
 20
32.4812796275
 10
-12.2473862999
 20
32.4805616613
 10
-12.2098985836
 20
32.4784507157
 10
-12.1725283285
 20
32.4749501907
 10
-12.1353315316
 20
32.4700634864
 10
-12.0983641896
 20
32.4637940027
 10
-12.0616822993
 20
32.4561451397
 10
-12.0253418574
 20
32.4471202973
 10
-11.9893967511
 20
32.4367262313
 10
-11.9538924286
 20
32.4249831195
 10
-11.9188722282
 20
32.4119144955
 10
-11.8843794885
 20
32.3975438929
 10
-11.8504575479
 20
32.3818948452
 10
-11.8171497448
 20
32.3649908861
 10
-11.7844994178
 20
32.3468555491
 10
-11.7525495317
 20
32.3275136722
 10
-11.7213415566
 20
32.3069953114
 10
-11.690916589
 20
32.2853318272
 10
-11.6613157255
 20
32.2625545801
 10
-11.6325800627
 20
32.2386949306
 10
-11.604750697
 20
32.2137842391
 10
-11.5778687249
 20
32.1878538662
 10
-11.5519735979
 20
32.1609367285
 10
-11.5270981866
 20
32.133071968
 10
-11.5032737166
 20
32.1043002827
 10
-11.4805314135
 20
32.0746623708
 10
-11.4589025029
 20
32.0441989304
 10
-11.4384182102
 20
32.0129506597
 10
-11.4191097612
 20
31.9809582568
 10
-11.4032033117
 20
31.9523867351
 10
-11.3882379638
 20
31.9233054575
 10
-11.3742306568
 20
31.8937432348
 10
-11.36119833
 20
31.863728878
 10
-11.3491583636
 20
31.8332939948
 10
-11.3381299005
 20
31.8024813816
 10
-11.3281325246
 20
31.7713366316
 10
-11.3191858198
 20
31.7399053381
 10
-11.3113042122
 20
31.7082299581
 10
-11.3044814973
 20
31.6763404035
 10
-11.2987063127
 20
31.6442634499
 10
-11.2939672962
 20
31.6120258729
 10
-11.2902579289
 20
31.5796360995
 10
-11.2875910651
 20
31.547029162
 10
-11.2859844023
 20
31.5141217441
 10
-11.2854556382
 20
31.4808305294
  0
LINE
  5
35F
100
AcDbEntity
  8
CURVE
100
AcDbLine
 62
252
  6
CONTINUOUS
 10
-12.915884428
 20
5.5628368331
 11
-12.9166401584
 21
5.539861399
  0
LINE
  5
360
100
AcDbEntity
  8
CURVE
100
AcDbLine
 62
252
  6
CONTINUOUS
 10
-12.9166401584
 20
5.539861399
 11
-12.9158791124
 21
5.5629415245
  0
LWPOLYLINE
  5
361
100
AcDbEntity
  8
RACCORDO
100
AcDbPolyline
 62
253
  6
CONTINUOUS
 90
14
 70
0
 10
-1.252080737
 20
39.4548883314
 10
-1.2523689146
 20
39.4544048091
 10
-1.2526565063
 20
39.4535338002
 10
-1.2529435119
 20
39.4522753048
 10
-1.2532300942
 20
39.4506281897
 10
-1.2535160905
 20
39.448593588
 10
-1.2538010128
 20
39.4461748993
 10
-1.2540848558
 20
39.4433714852
 10
-1.2543676249
 20
39.4401839842
 10
-1.2546488481
 20
39.436617711
 10
-1.2549285226
 20
39.4326720341
 10
-1.2552066514
 20
39.428347585
 10
-1.2554827709
 20
39.4236515729
 10
-1.2560289754
 20
39.4131436269
  0
LWPOLYLINE
  5
362
100
AcDbEntity
  8
ASSI
100
AcDbPolyline
 62
253
  6
CONTINUOUS
 90
14
 70
0
 10
-1.252080737
 20
39.4548883314
 10
-1.2523689146
 20
39.4544048091
 10
-1.2526565063
 20
39.4535338002
 10
-1.2529435119
 20
39.4522753048
 10
-1.2532300942
 20
39.4506281897
 10
-1.2535160905
 20
39.448593588
 10
-1.2538010128
 20
39.4461748993
 10
-1.2540848558
 20
39.4433714852
 10
-1.2543676249
 20
39.4401839842
 10
-1.2546488481
 20
39.436617711
 10
-1.2549285226
 20
39.4326720341
 10
-1.2552066514
 20
39.428347585
 10
-1.2554827709
 20
39.4236515729
 10
-1.2560289754
 20
39.4131436269
  0
LWPOLYLINE
  5
363
100
AcDbEntity
  8
RACCORDO
100
AcDbPolyline
 62
253
  6
CONTINUOUS
 90
6
 70
0
 10
-10.9054788166
 20
18.7885232418
 10
-10.9068924347
 20
18.7881900789
 10
-10.9079962007
 20
18.7879366568
 10
-10.9087879268
 20
18.7877634084
 10
-10.9092612909
 20
18.7876511665
 10
-10.9094137083
 20
18.7875902041
  0
LWPOLYLINE
  5
364
100
AcDbEntity
  8
ASSI
100
AcDbPolyline
 62
253
  6
CONTINUOUS
 90
6
 70
0
 10
-10.9054788166
 20
18.7885232418
 10
-10.9068924347
 20
18.7881900789
 10
-10.9079962007
 20
18.7879366568
 10
-10.9087879268
 20
18.7877634084
 10
-10.9092612909
 20
18.7876511665
 10
-10.9094137083
 20
18.7875902041
  0
LWPOLYLINE
  5
365
100
AcDbEntity
  8
RACCORDO
100
AcDbPolyline
 62
253
  6
CONTINUOUS
 90
6
 70
0
 10
-13.6455352242
 20
18.1741571664
 10
-13.6441216061
 20
18.1744903292
 10
-13.6430178401
 20
18.1747437513
 10
-13.642226114
 20
18.1749169997
 10
-13.6417527499
 20
18.1750292417
 10
-13.6416003326
 20
18.1750902041
  0
LWPOLYLINE
  5
366
100
AcDbEntity
  8
ASSI
100
AcDbPolyline
 62
253
  6
CONTINUOUS
 90
6
 70
0
 10
-13.6455352242
 20
18.1741571664
 10
-13.6441216061
 20
18.1744903292
 10
-13.6430178401
 20
18.1747437513
 10
-13.642226114
 20
18.1749169997
 10
-13.6417527499
 20
18.1750292417
 10
-13.6416003326
 20
18.1750902041
  0
LINE
  5
367
100
AcDbEntity
  8
RACCORDO
100
AcDbLine
 62
253
  6
CONTINUOUS
 10
-13.83675652
 20
18.1311067151
 11
-13.6455352242
 21
18.1741571664
  0
LINE
  5
368
100
AcDbEntity
  8
ASSI
100
AcDbLine
 62
253
  6
CONTINUOUS
 10
-13.83675652
 20
18.1311067151
 11
-13.6455352242
 21
18.1741571664
  0
LINE
  5
369
100
AcDbEntity
  8
RACCORDO
100
AcDbLine
 62
253
  6
CONTINUOUS
 10
-10.7142575208
 20
18.8315736931
 11
-10.9054788166
 21
18.7885232418
  0
LINE
  5
36A
100
AcDbEntity
  8
ASSI
100
AcDbLine
 62
253
  6
CONTINUOUS
 10
-10.7142575208
 20
18.8315736931
 11
-10.9054788166
 21
18.7885232418
  0
LINE
  5
36B
100
AcDbEntity
  8
ASSI
100
AcDbLine
 62
253
  6
CONTINUOUS
 10
-1.4680313542
 20
18.6315024044
 11
-1.4760833157
 21
18.6313402041
  0
LINE
  5
36C
100
AcDbEntity
  8
RACCORDO
100
AcDbLine
 62
253
  6
CONTINUOUS
 10
-1.2761138123
 20
18.1313402041
 11
-1.2767913825
 21
18.1313338204
  0
LINE
  5
36D
100
AcDbEntity
  8
ASSI
100
AcDbLine
 62
253
  6
CONTINUOUS
 10
-1.2761138123
 20
18.1313402041
 11
-1.2767913825
 21
18.1313338204
  0
LINE
  5
36E
100
AcDbEntity
  8
RACCORDO
100
AcDbLine
 62
253
  6
CONTINUOUS
 10
-1.2767913825
 20
18.1313338204
 11
-1.3034420435
 21
18.1312834151
  0
LINE
  5
36F
100
AcDbEntity
  8
ASSI
100
AcDbLine
 62
253
  6
CONTINUOUS
 10
-1.2767913825
 20
18.1313338204
 11
-1.3034420435
 21
18.1312834151
  0
LINE
  5
370
100
AcDbEntity
  8
RACCORDO
100
AcDbLine
 62
253
  6
CONTINUOUS
 10
-1.3034420435
 20
18.1312834151
 11
-1.3159075674
 21
18.1312711457
  0
LINE
  5
371
100
AcDbEntity
  8
ASSI
100
AcDbLine
 62
253
  6
CONTINUOUS
 10
-1.3034420435
 20
18.1312834151
 11
-1.3159075674
 21
18.1312711457
  0
LWPOLYLINE
  5
372
100
AcDbEntity
  8
RACCORDO
100
AcDbPolyline
 62
253
  6
CONTINUOUS
 90
3
 70
0
 10
-1.3159075674
 20
18.1312711457
 10
-1.3306303508
 20
18.1312590884
 10
-1.3388247782
 20
18.1312531443
  0
LWPOLYLINE
  5
373
100
AcDbEntity
  8
ASSI
100
AcDbPolyline
 62
253
  6
CONTINUOUS
 90
3
 70
0
 10
-1.3159075674
 20
18.1312711457
 10
-1.3306303508
 20
18.1312590884
 10
-1.3388247782
 20
18.1312531443
  0
LINE
  5
374
100
AcDbEntity
  8
RACCORDO
100
AcDbLine
 62
253
  6
CONTINUOUS
 10
-1.3388247782
 20
18.1312531443
 11
-1.3568495587
 21
18.1312414648
  0
LINE
  5
375
100
AcDbEntity
  8
ASSI
100
AcDbLine
 62
253
  6
CONTINUOUS
 10
-1.3388247782
 20
18.1312531443
 11
-1.3568495587
 21
18.1312414648
  0
LINE
  5
376
100
AcDbEntity
  8
RACCORDO
100
AcDbLine
 62
253
  6
CONTINUOUS
 10
-1.3568495587
 20
18.1312414648
 11
-10.7142575208
 21
18.1311067153
  0
LINE
  5
377
100
AcDbEntity
  8
ASSI
100
AcDbLine
 62
253
  6
CONTINUOUS
 10
-1.3568495587
 20
18.1312414648
 11
-10.7142575208
 21
18.1311067153
  0
LINE
  5
378
100
AcDbEntity
  8
RACCORDO
100
AcDbLine
 62
253
  6
CONTINUOUS
 10
-13.83675652
 20
18.1311067153
 11
-22.5836929685
 21
18.131109429
  0
LINE
  5
379
100
AcDbEntity
  8
ASSI
100
AcDbLine
 62
253
  6
CONTINUOUS
 10
-13.83675652
 20
18.1311067153
 11
-22.5836929685
 21
18.131109429
  0
LINE
  5
37A
100
AcDbEntity
  8
RACCORDO
100
AcDbLine
 62
253
  6
CONTINUOUS
 10
-1.1755070204
 20
18.1313402041
 11
-1.2761137766
 21
18.1313402041
  0
LINE
  5
37B
100
AcDbEntity
  8
ASSI
100
AcDbLine
 62
253
  6
CONTINUOUS
 10
-1.1755070204
 20
18.1313402041
 11
-1.2761137766
 21
18.1313402041
  0
LINE
  5
37C
100
AcDbEntity
  8
RACCORDO
100
AcDbLine
 62
253
  6
CONTINUOUS
 10
-23.2749002642
 20
18.1313402041
 11
-23.3755070204
 21
18.1313402041
  0
LINE
  5
37D
100
AcDbEntity
  8
ASSI
100
AcDbLine
 62
253
  6
CONTINUOUS
 10
-23.2749002642
 20
18.1313402041
 11
-23.3755070204
 21
18.1313402041
  0
LINE
  5
37E
100
AcDbEntity
  8
RACCORDO
100
AcDbLine
 62
7
  6
CONTINUOUS
 10
-1.375537486
 20
18.3313402041
 11
-10.7142575208
 21
18.3313402041
  0
LINE
  5
37F
100
AcDbEntity
  8
ASSI
100
AcDbLine
 62
7
  6
CONTINUOUS
 10
-1.375537486
 20
18.3313402041
 11
-10.7142575208
 21
18.3313402041
  0
LINE
  5
380
100
AcDbEntity
  8
RACCORDO
100
AcDbLine
 62
7
  6
CONTINUOUS
 10
-13.83675652
 20
18.3313402041
 11
-23.1754765548
 21
18.3313402041
  0
LINE
  5
381
100
AcDbEntity
  8
ASSI
100
AcDbLine
 62
7
  6
CONTINUOUS
 10
-13.83675652
 20
18.3313402041
 11
-23.1754765548
 21
18.3313402041
  0
LINE
  5
382
100
AcDbEntity
  8
RACCORDO
100
AcDbLine
 62
7
  6
CONTINUOUS
 10
-23.1754765548
 20
18.6313402041
 11
-13.83675652
 21
18.6313402041
  0
LINE
  5
383
100
AcDbEntity
  8
ASSI
100
AcDbLine
 62
7
  6
CONTINUOUS
 10
-23.1754765548
 20
18.6313402041
 11
-13.83675652
 21
18.6313402041
  0
LINE
  5
384
100
AcDbEntity
  8
RACCORDO
100
AcDbLine
 62
7
  6
CONTINUOUS
 10
-10.7142575208
 20
18.6313402041
 11
-1.375537486
 21
18.6313402041
  0
LINE
  5
385
100
AcDbEntity
  8
ASSI
100
AcDbLine
 62
7
  6
CONTINUOUS
 10
-10.7142575208
 20
18.6313402041
 11
-1.375537486
 21
18.6313402041
  0
LINE
  5
386
100
AcDbEntity
  8
RACCORDO
100
AcDbLine
 62
253
  6
CONTINUOUS
 10
-22.5836929685
 20
18.131109429
 11
-23.1843475588
 21
18.1312357293
  0
LINE
  5
387
100
AcDbEntity
  8
ASSI
100
AcDbLine
 62
253
  6
CONTINUOUS
 10
-22.5836929685
 20
18.131109429
 11
-23.1843475588
 21
18.1312357293
  0
LWPOLYLINE
  5
388
100
AcDbEntity
  8
RACCORDO
100
AcDbPolyline
 62
253
  6
CONTINUOUS
 90
4
 70
0
 10
-23.1843475588
 20
18.1312357293
 10
-23.2729517153
 20
18.1313274517
 10
-23.2742226583
 20
18.1313338204
 10
-23.2749002285
 20
18.1313402041
  0
LWPOLYLINE
  5
389
100
AcDbEntity
  8
ASSI
100
AcDbPolyline
 62
253
  6
CONTINUOUS
 90
4
 70
0
 10
-23.1843475588
 20
18.1312357293
 10
-23.2729517153
 20
18.1313274517
 10
-23.2742226583
 20
18.1313338204
 10
-23.2749002285
 20
18.1313402041
  0
LINE
  5
38A
100
AcDbEntity
  8
RACCORDO
100
AcDbLine
 62
253
  6
CONTINUOUS
 10
-10.7142575208
 20
18.1311067151
 11
-10.8938120431
 21
18.1714996495
  0
LINE
  5
38B
100
AcDbEntity
  8
ASSI
100
AcDbLine
 62
253
  6
CONTINUOUS
 10
-10.7142575208
 20
18.1311067151
 11
-10.8938120431
 21
18.1714996495
  0
LINE
  5
38C
100
AcDbEntity
  8
RACCORDO
100
AcDbLine
 62
253
  6
CONTINUOUS
 10
-13.83675652
 20
18.8315736931
 11
-13.6455354403
 21
18.7885199201
  0
LINE
  5
38D
100
AcDbEntity
  8
ASSI
100
AcDbLine
 62
253
  6
CONTINUOUS
 10
-13.83675652
 20
18.8315736931
 11
-13.6455354403
 21
18.7885199201
  0
LINE
  5
38E
100
AcDbEntity
  8
RACCORDO
100
AcDbLine
 62
253
  6
CONTINUOUS
 10
-10.8938120431
 20
18.1714996495
 11
-10.9068938098
 21
18.1744871488
  0
LINE
  5
38F
100
AcDbEntity
  8
ASSI
100
AcDbLine
 62
253
  6
CONTINUOUS
 10
-10.8938120431
 20
18.1714996495
 11
-10.9068938098
 21
18.1744871488
  0
LWPOLYLINE
  5
390
100
AcDbEntity
  8
RACCORDO
100
AcDbPolyline
 62
253
  6
CONTINUOUS
 90
5
 70
0
 10
-13.6455354403
 20
18.7885199201
 10
-13.6430175821
 20
18.7879365965
 10
-13.6422292825
 20
18.7877503485
 10
-13.6417566105
 20
18.7876348211
 10
-13.6416003326
 20
18.7875902041
  0
LWPOLYLINE
  5
391
100
AcDbEntity
  8
ASSI
100
AcDbPolyline
 62
253
  6
CONTINUOUS
 90
5
 70
0
 10
-13.6455354403
 20
18.7885199201
 10
-13.6430175821
 20
18.7879365965
 10
-13.6422292825
 20
18.7877503485
 10
-13.6417566105
 20
18.7876348211
 10
-13.6416003326
 20
18.7875902041
  0
LWPOLYLINE
  5
392
100
AcDbEntity
  8
RACCORDO
100
AcDbPolyline
 62
253
  6
CONTINUOUS
 90
4
 70
0
 10
-10.9068938098
 20
18.1744871488
 10
-10.9087847583
 20
18.1749300597
 10
-10.9092574303
 20
18.175045587
 10
-10.9094137083
 20
18.1750902041
  0
LWPOLYLINE
  5
393
100
AcDbEntity
  8
ASSI
100
AcDbPolyline
 62
253
  6
CONTINUOUS
 90
4
 70
0
 10
-10.9068938098
 20
18.1744871488
 10
-10.9087847583
 20
18.1749300597
 10
-10.9092574303
 20
18.175045587
 10
-10.9094137083
 20
18.1750902041
  0
LINE
  5
394
100
AcDbEntity
  8
CURVE
100
AcDbLine
 62
252
  6
CONTINUOUS
 10
-11.6217474249
 20
5.6203724321
 11
-11.6254130395
 21
5.6436261614
  0
LINE
  5
395
100
AcDbEntity
  8
CURVE
100
AcDbLine
 62
252
  6
CONTINUOUS
 10
-11.6190411755
 20
5.5982621203
 11
-11.621922119
 21
5.6216180531
  0
LINE
  5
396
100
AcDbEntity
  8
CURVE
100
AcDbLine
 62
252
  6
CONTINUOUS
 10
-11.6155068382
 20
5.5310824366
 11
-11.6159625381
 21
5.5550895642
  0
LINE
  5
397
100
AcDbEntity
  8
RACCORDO
100
AcDbLine
 62
253
  6
CONTINUOUS
 10
-10.7142575208
 20
18.8315736929
 11
-10.7142575208
 21
18.6313402041
  0
LINE
  5
398
100
AcDbEntity
  8
ASSI
100
AcDbLine
 62
253
  6
CONTINUOUS
 10
-10.7142575208
 20
18.8315736929
 11
-10.7142575208
 21
18.6313402041
  0
LINE
  5
399
100
AcDbEntity
  8
RACCORDO
100
AcDbLine
 62
253
  6
CONTINUOUS
 10
-10.7142575208
 20
18.1311067153
 11
-10.7142575208
 21
18.3313402041
  0
LINE
  5
39A
100
AcDbEntity
  8
ASSI
100
AcDbLine
 62
253
  6
CONTINUOUS
 10
-10.7142575208
 20
18.1311067153
 11
-10.7142575208
 21
18.3313402041
  0
LWPOLYLINE
  5
39B
100
AcDbEntity
  8
CURVE
100
AcDbPolyline
 62
252
  6
CONTINUOUS
 90
89
 70
0
 10
-11.2854556382
 20
31.4808305294
 10
-11.2860183613
 20
31.447480278
 10
-11.2876622669
 20
31.4145178924
 10
-11.2903693004
 20
31.3818608641
 10
-11.294121407
 20
31.3494266843
 10
-11.2989053222
 20
31.317151058
 10
-11.3047269417
 20
31.285042544
 10
-11.3115969511
 20
31.2531279145
 10
-11.3195260361
 20
31.221433942
 10
-11.3285198239
 20
31.1899903807
 10
-11.3385637065
 20
31.1588389138
 10
-11.3496380172
 20
31.1280242062
 10
-11.3617230896
 20
31.097590923
 10
-11.3747997851
 20
31.067580978
 10
-11.3888510779
 20
31.0380252793
 10
-11.4038604704
 20
31.0089519836
 10
-11.419811465
 20
30.9803892479
 10
-11.4391718236
 20
30.9484073046
 10
-11.459708845
 20
30.9171703522
 10
-11.4813908922
 20
30.8867197515
 10
-11.5041863284
 20
30.8570968637
 10
-11.5280635167
 20
30.8283430496
 10
-11.5529908203
 20
30.8004996701
 10
-11.5789366022
 20
30.7736080862
 10
-11.6058674221
 20
30.7477079534
 10
-11.6337426256
 20
30.7228321046
 10
-11.662519755
 20
30.6990116674
 10
-11.6921563524
 20
30.6762777692
 10
-11.7226099601
 20
30.6546615377
 10
-11.7538381202
 20
30.6341941002
 10
-11.7857983748
 20
30.6149065843
 10
-11.8184486223
 20
30.596828695
 10
-11.8517481842
 20
30.5799844475
 10
-11.8856567383
 20
30.5643964343
 10
-11.9201339625
 20
30.5500872481
 10
-11.9551395343
 20
30.5370794817
 10
-11.9906331314
 20
30.5253957275
 10
-12.0265744317
 20
30.5150585784
 10
-12.0629199853
 20
30.5060874994
 10
-12.0996138322
 20
30.4984894462
 10
-12.136596885
 20
30.4922682469
 10
-12.1738100561
 20
30.4874277296
 10
-12.211194258
 20
30.4839717227
 10
-12.2486904033
 20
30.4819040541
 10
-12.2862394044
 20
30.481228552
 10
-12.3237826897
 20
30.4819478349
 10
-12.3612637506
 20
30.484059682
 10
-12.3986265944
 20
30.4875606628
 10
-12.4358152284
 20
30.4924473469
 10
-12.4727736599
 20
30.4987163036
 10
-12.5094458961
 20
30.5063641026
 10
-12.5457759443
 20
30.5153873134
 10
-12.5817099371
 20
30.5257791544
 10
-12.617202508
 20
30.5375194404
 10
-12.6522104162
 20
30.5505846351
 10
-12.6866904204
 20
30.5649512022
 10
-12.7205992797
 20
30.5805956053
 10
-12.753893753
 20
30.5974943083
 10
-12.7865305993
 20
30.6156237749
 10
-12.8184669498
 20
30.6349591625
 10
-12.8496614258
 20
30.6554704042
 10
-12.8800730208
 20
30.677126127
 10
-12.9096607283
 20
30.6998949576
 10
-12.938383542
 20
30.7237455231
 10
-12.9662004554
 20
30.7486464502
 10
-12.9930704621
 20
30.7745663659
 10
-13.0189541986
 20
30.8014723535
 10
-13.0438188742
 20
30.8293253223
 10
-13.0676333409
 20
30.8580846377
 10
-13.0903664509
 20
30.8877096655
 10
-13.1119870563
 20
30.9181597713
 10
-13.1324640092
 20
30.9493943208
 10
-13.1517661619
 20
30.9813726795
 10
-13.1676680173
 20
31.0099317026
 10
-13.1826296708
 20
31.039000355
 10
-13.1966342248
 20
31.0685498979
 10
-13.2096647813
 20
31.0985515922
 10
-13.2217040439
 20
31.1289739128
 10
-13.232733121
 20
31.1597741888
 10
-13.2427327223
 20
31.1909069633
 10
-13.2516835573
 20
31.2223267793
 10
-13.2595714103
 20
31.2539913201
 10
-13.2664023635
 20
31.2858708317
 10
-13.2721875736
 20
31.3179387001
 10
-13.2769381973
 20
31.3501683117
 10
-13.2806605329
 20
31.3825513072
 10
-13.2833414446
 20
31.4151523455
 10
-13.2849629385
 20
31.44805434
 10
-13.2855070204
 20
31.4813402041
  0
LWPOLYLINE
  5
39C
100
AcDbEntity
  8
CURVE
100
AcDbPolyline
 62
252
  6
CONTINUOUS
 90
5
 70
0
 10
-11.6155069313
 20
5.5302876439
 10
-11.6160389234
 20
5.5044761375
 10
-11.6175815746
 20
5.4790411682
 10
-11.6201125985
 20
5.4539108514
 10
-11.6236097087
 20
5.4290133021
  0
LINE
  5
39D
100
AcDbEntity
  8
CURVE
100
AcDbLine
 62
252
  6
CONTINUOUS
 10
-12.915884428
 20
5.5628368331
 11
-12.9143308833
 21
5.5857439118
  0
LINE
  5
39E
100
AcDbEntity
  8
CURVE
100
AcDbLine
 62
252
  6
CONTINUOUS
 10
-12.914348441
 20
5.5855388571
 11
-12.9120045716
 21
5.6083311997
  0
LINE
  5
39F
100
AcDbEntity
  8
CURVE
100
AcDbLine
 62
252
  6
CONTINUOUS
 10
-12.9120407657
 20
5.6080302343
 11
-12.9089092781
 21
5.630766027
  0
LINE
  5
3A0
100
AcDbEntity
  8
CURVE
100
AcDbLine
 62
252
  6
CONTINUOUS
 10
-12.9089699705
 20
5.6303737281
 11
-12.9050510815
 21
5.653098352
  0
LWPOLYLINE
  5
3A1
100
AcDbEntity
  8
RACCORDO
100
AcDbPolyline
 62
253
  6
CONTINUOUS
 90
115
 70
0
 10
-10.7142579667
 20
18.1311067153
 10
-10.7230000226
 20
18.0941492851
 10
-10.732602295
 20
18.0574506798
 10
-10.7430647841
 20
18.0210108999
 10
-10.7543943776
 20
17.9848097779
 10
-10.7665841877
 20
17.9488674821
 10
-10.7796135509
 20
17.9132445164
 10
-10.7934838774
 20
17.8779414076
 10
-10.808193757
 20
17.8429576296
 10
-10.8237182955
 20
17.8083521063
 10
-10.8400588654
 20
17.7741254917
 10
-10.8572140943
 20
17.7402771324
 10
-10.8751549709
 20
17.7068639913
 10
-10.8938828144
 20
17.6738868174
 10
-10.9133963057
 20
17.6413448619
 10
-10.933662476
 20
17.6092928417
 10
-10.9546826021
 20
17.5777315761
 10
-10.9764554072
 20
17.5466602456
 10
-10.9989440924
 20
17.5161311082
 10
-11.0221498416
 20
17.4861451087
 10
-11.0460714708
 20
17.4567013018
 10
-11.0706686293
 20
17.4278491101
 10
-11.0959424703
 20
17.3995895135
 10
-11.1218918406
 20
17.3719215315
 10
-11.1484729299
 20
17.3448916452
 10
-11.17568677
 20
17.3185009602
 10
-11.203532329
 20
17.2927483702
 10
-11.2319627016
 20
17.2676770385
 10
-11.2609788855
 20
17.2432880977
 10
-11.290579883
 20
17.2195804142
 10
-11.3207157961
 20
17.1965937524
 10
-11.3513874959
 20
17.1743293441
 10
-11.3825941112
 20
17.1527859564
 10
-11.4142831307
 20
17.1319996562
 10
-11.4464553668
 20
17.111971711
 10
-11.4791100071
 20
17.0927008521
 10
-11.5121921029
 20
17.0742193433
 10
-11.5457023583
 20
17.0565285148
 10
-11.5796400693
 20
17.0396270351
 10
-11.6139481757
 20
17.0235431746
 10
-11.6486272851
 20
17.0082783075
 10
-11.6836767899
 20
16.9938310584
 10
-11.7190378075
 20
16.9802255744
 10
-11.7547108635
 20
16.9674632623
 10
-11.7906954323
 20
16.9555427141
 10
-11.8269310551
 20
16.9444838538
 10
-11.8634181285
 20
16.9342881284
 10
-11.9001562558
 20
16.92495409
 10
-11.9370837886
 20
16.9164973201
 10
-11.9742010571
 20
16.9089192817
 10
-12.0115077312
 20
16.9022185111
 10
-12.0489411714
 20
16.8964062004
 10
-12.0865015679
 20
16.891483837
 10
-12.1241887305
 20
16.887449933
 10
-12.1619394494
 20
16.8843112183
 10
-12.1997538433
 20
16.8820691866
 10
-12.2376317935
 20
16.880722344
 10
-12.2755097336
 20
16.880272939
 10
-12.3133876543
 20
16.8807224708
 10
-12.3512655649
 20
16.8820694401
 10
-12.3890799264
 20
16.8843115986
 10
-12.4268306373
 20
16.8874504411
 10
-12.4645177991
 20
16.8914844729
 10
-12.5020781774
 20
16.896406961
 10
-12.5395115676
 20
16.902219391
 10
-12.5768181742
 20
16.9089202777
 10
-12.6139353777
 20
16.9164984312
 10
-12.6508628582
 20
16.924955317
 10
-12.6876009354
 20
16.9342894703
 10
-12.7240879492
 20
16.944485306
 10
-12.7603234977
 20
16.955544271
 10
-12.7963079827
 20
16.9674649193
 10
-12.8319809497
 20
16.980227327
 10
-12.8673418732
 20
16.9938329017
 10
-12.9023912787
 20
17.0082802368
 10
-12.9370702886
 20
17.0235451871
 10
-12.9713783007
 20
17.0396291305
 10
-13.0053159172
 20
17.0565306903
 10
-13.0388260669
 20
17.0742215889
 10
-13.0719080365
 20
17.0927031525
 10
-13.1045625393
 20
17.1119740562
 10
-13.1367346447
 20
17.1320020464
 10
-13.1684235527
 20
17.1527883995
 10
-13.1996300631
 20
17.1743318403
 10
-13.2303016453
 20
17.1965962869
 10
-13.2604374144
 20
17.2195829619
 10
-13.2900382553
 20
17.2432906438
 10
-13.3190542916
 20
17.2676795849
 10
-13.3474845393
 20
17.29275093
 10
-13.3753299825
 20
17.3185035351
 10
-13.4025436975
 20
17.3448942189
 10
-13.4291246408
 20
17.3719240762
 10
-13.4550738559
 20
17.3995920129
 10
-13.4803475494
 20
17.4278515642
 10
-13.504944577
 20
17.4567037206
 10
-13.5288660831
 20
17.4861474922
 10
-13.5520717065
 20
17.5161334432
 10
-13.5745602578
 20
17.5466625119
 10
-13.5963329265
 20
17.5777337604
 10
-13.6173529208
 20
17.6092949387
 10
-13.6376189665
 20
17.6413468695
 10
-13.6571323378
 20
17.6738887303
 10
-13.6758600658
 20
17.7068658033
 10
-13.6938008318
 20
17.7402788387
 10
-13.7109559545
 20
17.7741270862
 10
-13.7272964212
 20
17.8083535769
 10
-13.742820857
 20
17.842958958
 10
-13.7575306368
 20
17.8779425819
 10
-13.7714008726
 20
17.9132455382
 10
-13.7844301495
 20
17.948868364
 10
-13.7966198824
 20
17.9848105214
 10
-13.8079494283
 20
18.0210114879
 10
-13.8184119062
 20
18.057451089
 10
-13.828014197
 20
18.0941494982
 10
-13.8367563008
 20
18.1311067153
  0
LWPOLYLINE
  5
3A2
100
AcDbEntity
  8
ASSI
100
AcDbPolyline
 62
253
  6
CONTINUOUS
 90
115
 70
0
 10
-10.7142579667
 20
18.1311067153
 10
-10.7230000226
 20
18.0941492851
 10
-10.732602295
 20
18.0574506798
 10
-10.7430647841
 20
18.0210108999
 10
-10.7543943776
 20
17.9848097779
 10
-10.7665841877
 20
17.9488674821
 10
-10.7796135509
 20
17.9132445164
 10
-10.7934838774
 20
17.8779414076
 10
-10.808193757
 20
17.8429576296
 10
-10.8237182955
 20
17.8083521063
 10
-10.8400588654
 20
17.7741254917
 10
-10.8572140943
 20
17.7402771324
 10
-10.8751549709
 20
17.7068639913
 10
-10.8938828144
 20
17.6738868174
 10
-10.9133963057
 20
17.6413448619
 10
-10.933662476
 20
17.6092928417
 10
-10.9546826021
 20
17.5777315761
 10
-10.9764554072
 20
17.5466602456
 10
-10.9989440924
 20
17.5161311082
 10
-11.0221498416
 20
17.4861451087
 10
-11.0460714708
 20
17.4567013018
 10
-11.0706686293
 20
17.4278491101
 10
-11.0959424703
 20
17.3995895135
 10
-11.1218918406
 20
17.3719215315
 10
-11.1484729299
 20
17.3448916452
 10
-11.17568677
 20
17.3185009602
 10
-11.203532329
 20
17.2927483702
 10
-11.2319627016
 20
17.2676770385
 10
-11.2609788855
 20
17.2432880977
 10
-11.290579883
 20
17.2195804142
 10
-11.3207157961
 20
17.1965937524
 10
-11.3513874959
 20
17.1743293441
 10
-11.3825941112
 20
17.1527859564
 10
-11.4142831307
 20
17.1319996562
 10
-11.4464553668
 20
17.111971711
 10
-11.4791100071
 20
17.0927008521
 10
-11.5121921029
 20
17.0742193433
 10
-11.5457023583
 20
17.0565285148
 10
-11.5796400693
 20
17.0396270351
 10
-11.6139481757
 20
17.0235431746
 10
-11.6486272851
 20
17.0082783075
 10
-11.6836767899
 20
16.9938310584
 10
-11.7190378075
 20
16.9802255744
 10
-11.7547108635
 20
16.9674632623
 10
-11.7906954323
 20
16.9555427141
 10
-11.8269310551
 20
16.9444838538
 10
-11.8634181285
 20
16.9342881284
 10
-11.9001562558
 20
16.92495409
 10
-11.9370837886
 20
16.9164973201
 10
-11.9742010571
 20
16.9089192817
 10
-12.0115077312
 20
16.9022185111
 10
-12.0489411714
 20
16.8964062004
 10
-12.0865015679
 20
16.891483837
 10
-12.1241887305
 20
16.887449933
 10
-12.1619394494
 20
16.8843112183
 10
-12.1997538433
 20
16.8820691866
 10
-12.2376317935
 20
16.880722344
 10
-12.2755097336
 20
16.880272939
 10
-12.3133876543
 20
16.8807224708
 10
-12.3512655649
 20
16.8820694401
 10
-12.3890799264
 20
16.8843115986
 10
-12.4268306373
 20
16.8874504411
 10
-12.4645177991
 20
16.8914844729
 10
-12.5020781774
 20
16.896406961
 10
-12.5395115676
 20
16.902219391
 10
-12.5768181742
 20
16.9089202777
 10
-12.6139353777
 20
16.9164984312
 10
-12.6508628582
 20
16.924955317
 10
-12.6876009354
 20
16.9342894703
 10
-12.7240879492
 20
16.944485306
 10
-12.7603234977
 20
16.955544271
 10
-12.7963079827
 20
16.9674649193
 10
-12.8319809497
 20
16.980227327
 10
-12.8673418732
 20
16.9938329017
 10
-12.9023912787
 20
17.0082802368
 10
-12.9370702886
 20
17.0235451871
 10
-12.9713783007
 20
17.0396291305
 10
-13.0053159172
 20
17.0565306903
 10
-13.0388260669
 20
17.0742215889
 10
-13.0719080365
 20
17.0927031525
 10
-13.1045625393
 20
17.1119740562
 10
-13.1367346447
 20
17.1320020464
 10
-13.1684235527
 20
17.1527883995
 10
-13.1996300631
 20
17.1743318403
 10
-13.2303016453
 20
17.1965962869
 10
-13.2604374144
 20
17.2195829619
 10
-13.2900382553
 20
17.2432906438
 10
-13.3190542916
 20
17.2676795849
 10
-13.3474845393
 20
17.29275093
 10
-13.3753299825
 20
17.3185035351
 10
-13.4025436975
 20
17.3448942189
 10
-13.4291246408
 20
17.3719240762
 10
-13.4550738559
 20
17.3995920129
 10
-13.4803475494
 20
17.4278515642
 10
-13.504944577
 20
17.4567037206
 10
-13.5288660831
 20
17.4861474922
 10
-13.5520717065
 20
17.5161334432
 10
-13.5745602578
 20
17.5466625119
 10
-13.5963329265
 20
17.5777337604
 10
-13.6173529208
 20
17.6092949387
 10
-13.6376189665
 20
17.6413468695
 10
-13.6571323378
 20
17.6738887303
 10
-13.6758600658
 20
17.7068658033
 10
-13.6938008318
 20
17.7402788387
 10
-13.7109559545
 20
17.7741270862
 10
-13.7272964212
 20
17.8083535769
 10
-13.742820857
 20
17.842958958
 10
-13.7575306368
 20
17.8779425819
 10
-13.7714008726
 20
17.9132455382
 10
-13.7844301495
 20
17.948868364
 10
-13.7966198824
 20
17.9848105214
 10
-13.8079494283
 20
18.0210114879
 10
-13.8184119062
 20
18.057451089
 10
-13.828014197
 20
18.0941494982
 10
-13.8367563008
 20
18.1311067153
  0
LWPOLYLINE
  5
3A3
100
AcDbEntity
  8
RACCORDO
100
AcDbPolyline
 62
253
  6
CONTINUOUS
 90
15
 70
0
 10
-23.2989333038
 20
-2.4922079232
 10
-23.2986451442
 20
-2.4917244752
 10
-23.2983575662
 20
-2.4908535358
 10
-23.2980705696
 20
-2.489595105
 10
-23.2977839905
 20
-2.4879480476
 10
-23.2974979928
 20
-2.4859134988
 10
-23.297213069
 20
-2.4834948643
 10
-23.2969292261
 20
-2.4806915082
 10
-23.2966464571
 20
-2.4775040663
 10
-23.2963652338
 20
-2.4739378522
 10
-23.2960855593
 20
-2.4699922341
 10
-23.2958074305
 20
-2.4656678437
 10
-23.2955313109
 20
-2.4609718904
 10
-23.2952572039
 20
-2.4559037583
 10
-23.2947154706
 20
-2.4446618629
  0
LWPOLYLINE
  5
3A4
100
AcDbEntity
  8
ASSI
100
AcDbPolyline
 62
253
  6
CONTINUOUS
 90
15
 70
0
 10
-23.2989333038
 20
-2.4922079232
 10
-23.2986451442
 20
-2.4917244752
 10
-23.2983575662
 20
-2.4908535358
 10
-23.2980705696
 20
-2.489595105
 10
-23.2977839905
 20
-2.4879480476
 10
-23.2974979928
 20
-2.4859134988
 10
-23.297213069
 20
-2.4834948643
 10
-23.2969292261
 20
-2.4806915082
 10
-23.2966464571
 20
-2.4775040663
 10
-23.2963652338
 20
-2.4739378522
 10
-23.2960855593
 20
-2.4699922341
 10
-23.2958074305
 20
-2.4656678437
 10
-23.2955313109
 20
-2.4609718904
 10
-23.2952572039
 20
-2.4559037583
 10
-23.2947154706
 20
-2.4446618629
  0
LINE
  5
3A5
100
AcDbEntity
  8
RACCORDO
100
AcDbLine
 62
253
  6
CONTINUOUS
 10
-23.2749002285
 20
18.8313402041
 11
-23.2742226583
 21
18.8313465877
  0
LINE
  5
3A6
100
AcDbEntity
  8
ASSI
100
AcDbLine
 62
253
  6
CONTINUOUS
 10
-23.2749002285
 20
18.8313402041
 11
-23.2742226583
 21
18.8313465877
  0
LINE
  5
3A7
100
AcDbEntity
  8
RACCORDO
100
AcDbLine
 62
253
  6
CONTINUOUS
 10
-23.2742226583
 20
18.8313465877
 11
-23.1941644821
 21
18.8314389434
  0
LINE
  5
3A8
100
AcDbEntity
  8
ASSI
100
AcDbLine
 62
253
  6
CONTINUOUS
 10
-23.2742226583
 20
18.8313465877
 11
-23.1941644821
 21
18.8314389434
  0
LINE
  5
3A9
100
AcDbEntity
  8
RACCORDO
100
AcDbLine
 62
253
  6
CONTINUOUS
 10
-23.3755070204
 20
18.8313402041
 11
-23.2749002642
 21
18.8313402041
  0
LINE
  5
3AA
100
AcDbEntity
  8
ASSI
100
AcDbLine
 62
253
  6
CONTINUOUS
 10
-23.3755070204
 20
18.8313402041
 11
-23.2749002642
 21
18.8313402041
  0
LINE
  5
3AB
100
AcDbEntity
  8
RACCORDO
100
AcDbLine
 62
253
  6
CONTINUOUS
 10
-1.2761137766
 20
18.8313402041
 11
-1.1755070204
 21
18.8313402041
  0
LINE
  5
3AC
100
AcDbEntity
  8
ASSI
100
AcDbLine
 62
253
  6
CONTINUOUS
 10
-1.2761137766
 20
18.8313402041
 11
-1.1755070204
 21
18.8313402041
  0
LINE
  5
3AD
100
AcDbEntity
  8
RACCORDO
100
AcDbLine
 62
253
  6
CONTINUOUS
 10
-23.1941644821
 20
18.8314389434
 11
-13.83675652
 21
18.8315736929
  0
LINE
  5
3AE
100
AcDbEntity
  8
ASSI
100
AcDbLine
 62
253
  6
CONTINUOUS
 10
-23.1941644821
 20
18.8314389434
 11
-13.83675652
 21
18.8315736929
  0
LWPOLYLINE
  5
3AF
100
AcDbEntity
  8
RACCORDO
100
AcDbPolyline
 62
253
  6
CONTINUOUS
 90
4
 70
0
 10
-10.7142575208
 20
18.8315736929
 10
-1.3568495587
 20
18.8314389434
 10
-1.3475666132
 20
18.8314331384
 10
-1.3388247782
 20
18.8314272639
  0
LWPOLYLINE
  5
3B0
100
AcDbEntity
  8
ASSI
100
AcDbPolyline
 62
253
  6
CONTINUOUS
 90
4
 70
0
 10
-10.7142575208
 20
18.8315736929
 10
-1.3568495587
 20
18.8314389434
 10
-1.3475666132
 20
18.8314331384
 10
-1.3388247782
 20
18.8314272639
  0
LINE
  5
3B1
100
AcDbEntity
  8
RACCORDO
100
AcDbLine
 62
253
  6
CONTINUOUS
 10
-1.3388247782
 20
18.8314272639
 11
-1.3229893148
 21
18.8314153194
  0
LINE
  5
3B2
100
AcDbEntity
  8
ASSI
100
AcDbLine
 62
253
  6
CONTINUOUS
 10
-1.3388247782
 20
18.8314272639
 11
-1.3229893148
 21
18.8314153194
  0
LINE
  5
3B3
100
AcDbEntity
  8
RACCORDO
100
AcDbLine
 62
253
  6
CONTINUOUS
 10
-1.3229893148
 20
18.8314153194
 11
-1.3093902232
 21
18.8314031491
  0
LINE
  5
3B4
100
AcDbEntity
  8
ASSI
100
AcDbLine
 62
253
  6
CONTINUOUS
 10
-1.3229893148
 20
18.8314153194
 11
-1.3093902232
 21
18.8314031491
  0
LWPOLYLINE
  5
3B5
100
AcDbEntity
  8
RACCORDO
100
AcDbPolyline
 62
253
  6
CONTINUOUS
 90
3
 70
0
 10
-1.3093902232
 20
18.8314031491
 10
-1.2767913825
 20
18.8313465877
 10
-1.2761138123
 20
18.8313402041
  0
LWPOLYLINE
  5
3B6
100
AcDbEntity
  8
ASSI
100
AcDbPolyline
 62
253
  6
CONTINUOUS
 90
3
 70
0
 10
-1.3093902232
 20
18.8314031491
 10
-1.2767913825
 20
18.8313465877
 10
-1.2761138123
 20
18.8313402041
  0
LINE
  5
3B7
100
AcDbEntity
  8
CURVE
100
AcDbLine
 62
252
  6
CONTINUOUS
 10
-12.905141802
 20
5.6526190721
 11
-12.9004239733
 21
5.6753274103
  0
LINE
  5
3B8
100
AcDbEntity
  8
CURVE
100
AcDbLine
 62
252
  6
CONTINUOUS
 10
-11.6280553713
 20
5.4042908317
 11
-11.6334510618
 21
5.3797425349
  0
LINE
  5
3B9
100
AcDbEntity
  8
CURVE
100
AcDbLine
 62
252
  6
CONTINUOUS
 10
-12.900550721
 20
5.6747638807
 11
-12.8950189227
 21
5.697439757
  0
LINE
  5
3BA
100
AcDbEntity
  8
CURVE
100
AcDbLine
 62
252
  6
CONTINUOUS
 10
-12.8951883662
 20
5.6967927384
 11
-12.8888268994
 21
5.7194219474
  0
LINE
  5
3BB
100
AcDbEntity
  8
CURVE
100
AcDbLine
 62
252
  6
CONTINUOUS
 10
-12.8890463766
 20
5.7186902298
 11
-12.8818423611
 21
5.7412546688
  0
LWPOLYLINE
  5
3BC
100
AcDbEntity
  8
RACCORDO
100
AcDbPolyline
 62
253
  6
CONTINUOUS
 90
7
 70
0
 10
-23.1227865682
 20
18.3255285676
 10
-23.1149297709
 20
18.3272983345
 10
-23.107008095
 20
18.3287502566
 10
-23.0990343895
 20
18.3298819789
 10
-23.0910215878
 20
18.3306916657
 10
-23.0829826866
 20
18.3311780037
 10
-23.0749307252
 20
18.3313402041
  0
LWPOLYLINE
  5
3BD
100
AcDbEntity
  8
ASSI
100
AcDbPolyline
 62
253
  6
CONTINUOUS
 90
7
 70
0
 10
-23.1227865682
 20
18.3255285676
 10
-23.1149297709
 20
18.3272983345
 10
-23.107008095
 20
18.3287502566
 10
-23.0990343895
 20
18.3298819789
 10
-23.0910215878
 20
18.3306916657
 10
-23.0829826866
 20
18.3311780037
 10
-23.0749307252
 20
18.3313402041
  0
LWPOLYLINE
  5
3BE
100
AcDbEntity
  8
RACCORDO
100
AcDbPolyline
 62
253
  6
CONTINUOUS
 90
7
 70
0
 10
-1.4282274768
 20
18.3255285686
 10
-1.4360842736
 20
18.3272983352
 10
-1.4440059489
 20
18.3287502571
 10
-1.4519796537
 20
18.3298819792
 10
-1.4599924547
 20
18.3306916658
 10
-1.468031355
 20
18.3311780038
 10
-1.4760833157
 20
18.3313402041
  0
LWPOLYLINE
  5
3BF
100
AcDbEntity
  8
ASSI
100
AcDbPolyline
 62
253
  6
CONTINUOUS
 90
7
 70
0
 10
-1.4282274768
 20
18.3255285686
 10
-1.4360842736
 20
18.3272983352
 10
-1.4440059489
 20
18.3287502571
 10
-1.4519796537
 20
18.3298819792
 10
-1.4599924547
 20
18.3306916658
 10
-1.468031355
 20
18.3311780038
 10
-1.4760833157
 20
18.3313402041
  0
LWPOLYLINE
  5
3C0
100
AcDbEntity
  8
RACCORDO
100
AcDbPolyline
 62
253
  6
CONTINUOUS
 90
11
 70
0
 10
-2.0519588931
 20
40.2547664875
 10
-2.0522471263
 20
40.2537324482
 10
-2.0525347559
 20
40.2518652753
 10
-2.0528217819
 20
40.2491660147
 10
-2.0531083596
 20
40.2456361811
 10
-2.0533943338
 20
40.241277741
 10
-2.0536792391
 20
40.2360930982
 10
-2.0539630802
 20
40.2300851151
 10
-2.0542458525
 20
40.2232571391
 10
-2.0545270767
 20
40.2156129822
 10
-2.0550848681
 20
40.1978935988
  0
LWPOLYLINE
  5
3C1
100
AcDbEntity
  8
ASSI
100
AcDbPolyline
 62
253
  6
CONTINUOUS
 90
11
 70
0
 10
-2.0519588931
 20
40.2547664875
 10
-2.0522471263
 20
40.2537324482
 10
-2.0525347559
 20
40.2518652753
 10
-2.0528217819
 20
40.2491660147
 10
-2.0531083596
 20
40.2456361811
 10
-2.0533943338
 20
40.241277741
 10
-2.0536792391
 20
40.2360930982
 10
-2.0539630802
 20
40.2300851151
 10
-2.0542458525
 20
40.2232571391
 10
-2.0545270767
 20
40.2156129822
 10
-2.0550848681
 20
40.1978935988
  0
LWPOLYLINE
  5
3C2
100
AcDbEntity
  8
CURVE
100
AcDbPolyline
 62
252
  6
CONTINUOUS
 90
3
 70
0
 10
-11.6471174375
 20
5.3312216241
 10
-11.6553960044
 20
5.3072832053
 10
-11.6646220669
 20
5.2836178057
  0
LINE
  5
3C3
100
AcDbEntity
  8
CURVE
100
AcDbLine
 62
252
  6
CONTINUOUS
 10
-12.882119621
 20
5.7404360058
 11
-12.8740737185
 21
5.7628951392
  0
LINE
  5
3C4
100
AcDbEntity
  8
CURVE
100
AcDbLine
 62
252
  6
CONTINUOUS
 10
-12.8744158876
 20
5.7619899821
 11
-12.8655328705
 21
5.7842947087
  0
LINE
  5
3C5
100
AcDbEntity
  8
CURVE
100
AcDbLine
 62
252
  6
CONTINUOUS
 10
-12.8659461946
 20
5.7833071409
 11
-12.8562317163
 21
5.8054047276
  0
LINE
  5
3C6
100
AcDbEntity
  8
CURVE
100
AcDbLine
 62
252
  6
CONTINUOUS
 10
-12.8567215599
 20
5.8043424642
 11
-12.846180469
 21
5.8261811405
  0
LWPOLYLINE
  5
3C7
100
AcDbEntity
  8
CURVE
100
AcDbPolyline
 62
252
  6
CONTINUOUS
 90
4
 70
0
 10
-11.6747744093
 20
5.2602843992
 10
-11.6858318159
 20
5.2373419598
 10
-11.6977741751
 20
5.2148452259
 10
-11.7105857913
 20
5.1928319942
  0
LINE
  5
3C8
100
AcDbEntity
  8
CURVE
100
AcDbLine
 62
252
  6
CONTINUOUS
 10
-12.8467506832
 20
5.8250554105
 11
-12.8353825988
 21
5.8465982693
  0
LINE
  5
3C9
100
AcDbEntity
  8
CURVE
100
AcDbLine
 62
252
  6
CONTINUOUS
 10
-12.8360329899
 20
5.845423343
 11
-12.8238398901
 21
5.8666350303
  0
LINE
  5
3CA
100
AcDbEntity
  8
CURVE
100
AcDbLine
 62
252
  6
CONTINUOUS
 10
-12.8245655872
 20
5.8654281015
 11
-12.8115541273
 21
5.8862703397
  0
LINE
  5
3CB
100
AcDbEntity
  8
CURVE
100
AcDbLine
 62
252
  6
CONTINUOUS
 10
-12.8123455821
 20
5.8850515256
 11
-12.7966124349
 21
5.9081899419
  0
LINE
  5
3CC
100
AcDbEntity
  8
CURVE
100
AcDbLine
 62
252
  6
CONTINUOUS
 10
-12.79746278
 20
5.9069843703
 11
-12.7807457327
 21
5.9295133984
  0
LINE
  5
3CD
100
AcDbEntity
  8
CURVE
100
AcDbLine
 62
252
  6
CONTINUOUS
 10
-12.7816379884
 20
5.9283461812
 11
-12.7639971998
 21
5.9501964463
  0
LINE
  5
3CE
100
AcDbEntity
  8
CURVE
100
AcDbLine
 62
252
  6
CONTINUOUS
 10
-12.7649159874
 20
5.9490877134
 11
-12.7464100155
 21
5.9701948229
  0
LINE
  5
3CF
100
AcDbEntity
  8
CURVE
100
AcDbLine
 62
252
  6
CONTINUOUS
 10
-12.7473415569
 20
5.9691597224
 11
-12.7280273589
 21
5.9894642652
  0
LINE
  5
3D0
100
AcDbEntity
  8
RACCORDO
100
AcDbLine
 62
253
  6
CONTINUOUS
 10
-23.3755070204
 20
-2.5687816398
 11
-23.2989333038
 21
-2.4922079232
  0
LINE
  5
3D1
100
AcDbEntity
  8
ASSI
100
AcDbLine
 62
253
  6
CONTINUOUS
 10
-23.3755070204
 20
-2.5687816398
 11
-23.2989333038
 21
-2.4922079232
  0
LINE
  5
3D2
100
AcDbEntity
  8
RACCORDO
100
AcDbLine
 62
253
  6
CONTINUOUS
 10
-22.5756288643
 20
-3.3686597959
 11
-22.4990551477
 21
-3.2920860793
  0
LINE
  5
3D3
100
AcDbEntity
  8
ASSI
100
AcDbLine
 62
253
  6
CONTINUOUS
 10
-22.5756288643
 20
-3.3686597959
 11
-22.4990551477
 21
-3.2920860793
  0
LINE
  5
3D4
100
AcDbEntity
  8
RACCORDO
100
AcDbLine
 62
253
  6
CONTINUOUS
 10
-23.2989333038
 20
39.4548883314
 11
-23.3755070204
 21
39.531462048
  0
LINE
  5
3D5
100
AcDbEntity
  8
ASSI
100
AcDbLine
 62
253
  6
CONTINUOUS
 10
-23.2989333038
 20
39.4548883314
 11
-23.3755070204
 21
39.531462048
  0
LINE
  5
3D6
100
AcDbEntity
  8
RACCORDO
100
AcDbLine
 62
253
  6
CONTINUOUS
 10
-22.4990551477
 20
40.2547664875
 11
-22.5756288643
 21
40.3313402041
  0
LINE
  5
3D7
100
AcDbEntity
  8
ASSI
100
AcDbLine
 62
253
  6
CONTINUOUS
 10
-22.4990551477
 20
40.2547664875
 11
-22.5756288643
 21
40.3313402041
  0
LWPOLYLINE
  5
3D8
100
AcDbEntity
  8
RACCORDO
100
AcDbPolyline
 62
253
  6
CONTINUOUS
 90
13
 70
0
 10
-1.2554827299
 20
-2.4609718904
 10
-1.2552066103
 20
-2.4656678437
 10
-1.2549284816
 20
-2.4699922341
 10
-1.254648807
 20
-2.4739378522
 10
-1.2543675838
 20
-2.4775040663
 10
-1.2540848147
 20
-2.4806915082
 10
-1.2538009718
 20
-2.4834948643
 10
-1.253516048
 20
-2.4859134988
 10
-1.2532300504
 20
-2.4879480476
 10
-1.2529434712
 20
-2.489595105
 10
-1.2526564746
 20
-2.4908535358
 10
-1.2523688966
 20
-2.4917244752
 10
-1.252080737
 20
-2.4922079232
  0
LWPOLYLINE
  5
3D9
100
AcDbEntity
  8
ASSI
100
AcDbPolyline
 62
253
  6
CONTINUOUS
 90
13
 70
0
 10
-1.2554827299
 20
-2.4609718904
 10
-1.2552066103
 20
-2.4656678437
 10
-1.2549284816
 20
-2.4699922341
 10
-1.254648807
 20
-2.4739378522
 10
-1.2543675838
 20
-2.4775040663
 10
-1.2540848147
 20
-2.4806915082
 10
-1.2538009718
 20
-2.4834948643
 10
-1.253516048
 20
-2.4859134988
 10
-1.2532300504
 20
-2.4879480476
 10
-1.2529434712
 20
-2.489595105
 10
-1.2526564746
 20
-2.4908535358
 10
-1.2523688966
 20
-2.4917244752
 10
-1.252080737
 20
-2.4922079232
  0
LINE
  5
3DA
100
AcDbEntity
  8
RACCORDO
100
AcDbLine
 62
253
  6
CONTINUOUS
 10
-1.2560289347
 20
-2.4504640633
 11
-1.2554827299
 21
-2.4609718904
  0
LINE
  5
3DB
100
AcDbEntity
  8
ASSI
100
AcDbLine
 62
253
  6
CONTINUOUS
 10
-1.2560289347
 20
-2.4504640633
 11
-1.2554827299
 21
-2.4609718904
  0
LWPOLYLINE
  5
3DC
100
AcDbEntity
  8
RACCORDO
100
AcDbPolyline
 62
253
  6
CONTINUOUS
 90
9
 70
0
 10
-2.0542458485
 20
-3.260576736
 10
-2.0539630767
 20
-3.2674047117
 10
-2.0536792359
 20
-3.2734126944
 10
-2.05339433
 20
-3.2785973367
 10
-2.0531083549
 20
-3.2829557763
 10
-2.0528217771
 20
-3.286485609
 10
-2.0525347519
 20
-3.2891848685
 10
-2.0522471239
 20
-3.2910520406
 10
-2.0519588931
 20
-3.2920860793
  0
LWPOLYLINE
  5
3DD
100
AcDbEntity
  8
ASSI
100
AcDbPolyline
 62
253
  6
CONTINUOUS
 90
9
 70
0
 10
-2.0542458485
 20
-3.260576736
 10
-2.0539630767
 20
-3.2674047117
 10
-2.0536792359
 20
-3.2734126944
 10
-2.05339433
 20
-3.2785973367
 10
-2.0531083549
 20
-3.2829557763
 10
-2.0528217771
 20
-3.286485609
 10
-2.0525347519
 20
-3.2891848685
 10
-2.0522471239
 20
-3.2910520406
 10
-2.0519588931
 20
-3.2920860793
  0
LINE
  5
3DE
100
AcDbEntity
  8
RACCORDO
100
AcDbLine
 62
253
  6
CONTINUOUS
 10
-2.054806742
 20
-3.2444765012
 11
-2.0542458485
 21
-3.260576736
  0
LINE
  5
3DF
100
AcDbEntity
  8
ASSI
100
AcDbLine
 62
253
  6
CONTINUOUS
 10
-2.054806742
 20
-3.2444765012
 11
-2.0542458485
 21
-3.260576736
  0
LINE
  5
3E0
100
AcDbEntity
  8
RACCORDO
100
AcDbLine
 62
253
  6
CONTINUOUS
 10
-2.0553609773
 20
-3.2251478209
 11
-2.054806742
 21
-3.2444765012
  0
LINE
  5
3E1
100
AcDbEntity
  8
ASSI
100
AcDbLine
 62
253
  6
CONTINUOUS
 10
-2.0553609773
 20
-3.2251478209
 11
-2.054806742
 21
-3.2444765012
  0
LINE
  5
3E2
100
AcDbEntity
  8
RACCORDO
100
AcDbLine
 62
253
  6
CONTINUOUS
 10
-2.0561768065
 20
-3.1901974313
 11
-2.0553609773
 21
-3.2251478209
  0
LINE
  5
3E3
100
AcDbEntity
  8
ASSI
100
AcDbLine
 62
253
  6
CONTINUOUS
 10
-2.0561768065
 20
-3.1901974313
 11
-2.0553609773
 21
-3.2251478209
  0
LINE
  5
3E4
100
AcDbEntity
  8
RACCORDO
100
AcDbLine
 62
253
  6
CONTINUOUS
 10
-2.0572293643
 20
-3.1327574155
 11
-2.0561768065
 21
-3.1901974313
  0
LINE
  5
3E5
100
AcDbEntity
  8
ASSI
100
AcDbLine
 62
253
  6
CONTINUOUS
 10
-2.0572293643
 20
-3.1327574155
 11
-2.0561768065
 21
-3.1901974313
  0
LINE
  5
3E6
100
AcDbEntity
  8
RACCORDO
100
AcDbLine
 62
253
  6
CONTINUOUS
 10
-2.0589488461
 20
-3.0039377222
 11
-2.0572293643
 21
-3.1327574155
  0
LINE
  5
3E7
100
AcDbEntity
  8
ASSI
100
AcDbLine
 62
253
  6
CONTINUOUS
 10
-2.0589488461
 20
-3.0039377222
 11
-2.0572293643
 21
-3.1327574155
  0
LINE
  5
3E8
100
AcDbEntity
  8
RACCORDO
100
AcDbLine
 62
253
  6
CONTINUOUS
 10
-2.0598462102
 20
-2.9152798297
 11
-2.0589488461
 21
-3.0039377222
  0
LINE
  5
3E9
100
AcDbEntity
  8
ASSI
100
AcDbLine
 62
253
  6
CONTINUOUS
 10
-2.0598462102
 20
-2.9152798297
 11
-2.0589488461
 21
-3.0039377222
  0
LINE
  5
3EA
100
AcDbEntity
  8
RACCORDO
100
AcDbLine
 62
253
  6
CONTINUOUS
 10
-2.0579873353
 20
40.0445076397
 11
-2.0598462144
 21
39.8779602227
  0
LINE
  5
3EB
100
AcDbEntity
  8
ASSI
100
AcDbLine
 62
253
  6
CONTINUOUS
 10
-2.0579873353
 20
40.0445076397
 11
-2.0598462144
 21
39.8779602227
  0
LINE
  5
3EC
100
AcDbEntity
  8
RACCORDO
100
AcDbLine
 62
253
  6
CONTINUOUS
 10
-2.0567086786
 20
40.1256814641
 11
-2.0579873353
 21
40.0445076397
  0
LINE
  5
3ED
100
AcDbEntity
  8
ASSI
100
AcDbLine
 62
253
  6
CONTINUOUS
 10
-2.0567086786
 20
40.1256814641
 11
-2.0579873353
 21
40.0445076397
  0
LINE
  5
3EE
100
AcDbEntity
  8
RACCORDO
100
AcDbLine
 62
253
  6
CONTINUOUS
 10
-2.0559071788
 20
40.1653140866
 11
-2.0567086786
 21
40.1256814641
  0
LINE
  5
3EF
100
AcDbEntity
  8
ASSI
100
AcDbLine
 62
253
  6
CONTINUOUS
 10
-2.0559071788
 20
40.1653140866
 11
-2.0567086786
 21
40.1256814641
  0
LINE
  5
3F0
100
AcDbEntity
  8
RACCORDO
100
AcDbLine
 62
253
  6
CONTINUOUS
 10
-2.0550848681
 20
40.1978935988
 11
-2.0559071788
 21
40.1653140866
  0
LINE
  5
3F1
100
AcDbEntity
  8
ASSI
100
AcDbLine
 62
253
  6
CONTINUOUS
 10
-2.0550848681
 20
40.1978935988
 11
-2.0559071788
 21
40.1653140866
  0
LINE
  5
3F2
100
AcDbEntity
  8
CURVE
100
AcDbLine
 62
252
  6
CONTINUOUS
 10
-12.728959477
 20
5.9885129632
 11
-12.7088924094
 21
6.0079605104
  0
LINE
  5
3F3
100
AcDbEntity
  8
CURVE
100
AcDbLine
 62
252
  6
CONTINUOUS
 10
-12.7098145276
 20
6.0070981912
 11
-12.689048346
 21
6.0256392957
  0
LINE
  5
3F4
100
AcDbEntity
  8
CURVE
100
AcDbLine
 62
252
  6
CONTINUOUS
 10
-12.6899514889
 20
6.0248661616
 11
-12.6711351834
 21
6.0404067423
  0
LINE
  5
3F5
100
AcDbEntity
  8
CURVE
100
AcDbLine
 62
252
  6
CONTINUOUS
 10
-12.6720154398
 20
6.0397084768
 11
-12.652729951
 21
6.0545080513
  0
LINE
  5
3F6
100
AcDbEntity
  8
CURVE
100
AcDbLine
 62
252
  6
CONTINUOUS
 10
-12.6535816746
 20
6.0538811493
 11
-12.6338504348
 21
6.0679368415
  0
LINE
  5
3F7
100
AcDbEntity
  8
CURVE
100
AcDbLine
 62
252
  6
CONTINUOUS
 10
-9.4955070204
 20
28.7013402041
 11
-10.8055070204
 21
30.0113402041
  0
LINE
  5
3F8
100
AcDbEntity
  8
CURVE
100
AcDbLine
 62
252
  6
CONTINUOUS
 10
-13.7855070204
 20
32.9913402041
 11
-15.0555070204
 21
34.2613402041
  0
LINE
  5
3F9
100
AcDbEntity
  8
RACCORDO
100
AcDbLine
 62
253
  6
CONTINUOUS
 10
-1.2565657397
 20
-2.4384965477
 11
-1.2560289347
 21
-2.4504640633
  0
LINE
  5
3FA
100
AcDbEntity
  8
ASSI
100
AcDbLine
 62
253
  6
CONTINUOUS
 10
-1.2565657397
 20
-2.4384965477
 11
-1.2560289347
 21
-2.4504640633
  0
LINE
  5
3FB
100
AcDbEntity
  8
RACCORDO
100
AcDbLine
 62
253
  6
CONTINUOUS
 10
-1.2570922505
 20
-2.4250892864
 11
-1.2565657397
 21
-2.4384965477
  0
LINE
  5
3FC
100
AcDbEntity
  8
ASSI
100
AcDbLine
 62
253
  6
CONTINUOUS
 10
-1.2570922505
 20
-2.4250892864
 11
-1.2565657397
 21
-2.4384965477
  0
LINE
  5
3FD
100
AcDbEntity
  8
RACCORDO
100
AcDbLine
 62
253
  6
CONTINUOUS
 10
-1.2578597986
 20
-2.4023521289
 11
-1.2570922505
 21
-2.4250892864
  0
LINE
  5
3FE
100
AcDbEntity
  8
ASSI
100
AcDbLine
 62
253
  6
CONTINUOUS
 10
-1.2578597986
 20
-2.4023521289
 11
-1.2570922505
 21
-2.4250892864
  0
LINE
  5
3FF
100
AcDbEntity
  8
RACCORDO
100
AcDbLine
 62
253
  6
CONTINUOUS
 10
-1.2585973763
 20
-2.3765641185
 11
-1.2578597986
 21
-2.4023521289
  0
LINE
  5
400
100
AcDbEntity
  8
ASSI
100
AcDbLine
 62
253
  6
CONTINUOUS
 10
-1.2585973763
 20
-2.3765641185
 11
-1.2578597986
 21
-2.4023521289
  0
LINE
  5
401
100
AcDbEntity
  8
RACCORDO
100
AcDbLine
 62
253
  6
CONTINUOUS
 10
-1.2595277953
 20
-2.337661101
 11
-1.2585973763
 21
-2.3765641185
  0
LINE
  5
402
100
AcDbEntity
  8
ASSI
100
AcDbLine
 62
253
  6
CONTINUOUS
 10
-1.2595277953
 20
-2.337661101
 11
-1.2585973763
 21
-2.3765641185
  0
LWPOLYLINE
  5
403
100
AcDbEntity
  8
RACCORDO
100
AcDbPolyline
 62
253
  6
CONTINUOUS
 90
34
 70
0
 10
-1.2761137766
 20
18.1313402041
 10
-1.2762759523
 20
18.1393933926
 10
-1.2767622163
 20
18.1474335189
 10
-1.2775717799
 20
18.1554475417
 10
-1.27870333
 20
18.1634224623
 10
-1.2801550312
 20
18.1713453454
 10
-1.2819245288
 20
18.17920334
 10
-1.2840089527
 20
18.1869837003
 10
-1.2864049219
 20
18.1946738067
 10
-1.2891085502
 20
18.2022611857
 10
-1.2921154523
 20
18.2097335306
 10
-1.295420751
 20
18.2170787212
 10
-1.299019085
 20
18.2242848435
 10
-1.3029046179
 20
18.2313402093
 10
-1.3070710472
 20
18.2382333746
 10
-1.3115116151
 20
18.2449531588
 10
-1.3162191189
 20
18.2514886624
 10
-1.321185923
 20
18.2578292847
 10
-1.3264039712
 20
18.2639647411
 10
-1.3318647998
 20
18.2698850801
 10
-1.3375595514
 20
18.2755806987
 10
-1.343478989
 20
18.2810423587
 10
-1.3496135112
 20
18.2862612012
 10
-1.355953168
 20
18.2912287612
 10
-1.3624876762
 20
18.2959369814
 10
-1.3692064369
 20
18.3003782251
 10
-1.3760985523
 20
18.3045452884
 10
-1.3831528432
 20
18.3084314124
 10
-1.3903578677
 20
18.3120302938
 10
-1.3977019391
 20
18.3153360952
 10
-1.4051731453
 20
18.3183434547
 10
-1.412759368
 20
18.3210474942
 10
-1.4204483024
 20
18.3234438278
 10
-1.4282274768
 20
18.3255285686
  0
LWPOLYLINE
  5
404
100
AcDbEntity
  8
ASSI
100
AcDbPolyline
 62
253
  6
CONTINUOUS
 90
34
 70
0
 10
-1.2761137766
 20
18.1313402041
 10
-1.2762759523
 20
18.1393933926
 10
-1.2767622163
 20
18.1474335189
 10
-1.2775717799
 20
18.1554475417
 10
-1.27870333
 20
18.1634224623
 10
-1.2801550312
 20
18.1713453454
 10
-1.2819245288
 20
18.17920334
 10
-1.2840089527
 20
18.1869837003
 10
-1.2864049219
 20
18.1946738067
 10
-1.2891085502
 20
18.2022611857
 10
-1.2921154523
 20
18.2097335306
 10
-1.295420751
 20
18.2170787212
 10
-1.299019085
 20
18.2242848435
 10
-1.3029046179
 20
18.2313402093
 10
-1.3070710472
 20
18.2382333746
 10
-1.3115116151
 20
18.2449531588
 10
-1.3162191189
 20
18.2514886624
 10
-1.321185923
 20
18.2578292847
 10
-1.3264039712
 20
18.2639647411
 10
-1.3318647998
 20
18.2698850801
 10
-1.3375595514
 20
18.2755806987
 10
-1.343478989
 20
18.2810423587
 10
-1.3496135112
 20
18.2862612012
 10
-1.355953168
 20
18.2912287612
 10
-1.3624876762
 20
18.2959369814
 10
-1.3692064369
 20
18.3003782251
 10
-1.3760985523
 20
18.3045452884
 10
-1.3831528432
 20
18.3084314124
 10
-1.3903578677
 20
18.3120302938
 10
-1.3977019391
 20
18.3153360952
 10
-1.4051731453
 20
18.3183434547
 10
-1.412759368
 20
18.3210474942
 10
-1.4204483024
 20
18.3234438278
 10
-1.4282274768
 20
18.3255285686
  0
LINE
  5
405
100
AcDbEntity
  8
RACCORDO
100
AcDbLine
 62
253
  6
CONTINUOUS
 10
-1.2605942601
 20
-2.2822572923
 11
-1.2595277953
 21
-2.337661101
  0
LINE
  5
406
100
AcDbEntity
  8
ASSI
100
AcDbLine
 62
253
  6
CONTINUOUS
 10
-1.2605942601
 20
-2.2822572923
 11
-1.2595277953
 21
-2.337661101
  0
LWPOLYLINE
  5
407
100
AcDbEntity
  8
RACCORDO
100
AcDbPolyline
 62
253
  6
CONTINUOUS
 90
55
 70
0
 10
-1.252080737
 20
39.4548883314
 10
-1.2524260788
 20
39.4781480536
 10
-1.2534476428
 20
39.5013881035
 10
-1.2551445651
 20
39.5245888252
 10
-1.2575154105
 20
39.5477305961
 10
-1.2605581736
 20
39.5707938438
 10
-1.2642702812
 20
39.5937590618
 10
-1.2686485936
 20
39.6166068269
 10
-1.2736894076
 20
39.639317815
 10
-1.2793884601
 20
39.661872818
 10
-1.2857409308
 20
39.6842527593
 10
-1.2927414469
 20
39.7064387106
 10
-1.3003840878
 20
39.7284119078
 10
-1.3086623894
 20
39.7501537664
 10
-1.3175693502
 20
39.7716458979
 10
-1.327097437
 20
39.7928701248
 10
-1.3372385911
 20
39.8138084963
 10
-1.3479842354
 20
39.8344433032
 10
-1.3593252816
 20
39.8547570933
 10
-1.3712521378
 20
39.8747326856
 10
-1.3837547166
 20
39.8943531855
 10
-1.3968224435
 20
39.9136019984
 10
-1.4104442664
 20
39.9324628443
 10
-1.4246086642
 20
39.9509197711
 10
-1.4393036572
 20
39.9689571685
 10
-1.4545168167
 20
39.9865597811
 10
-1.4702352758
 20
40.0037127209
 10
-1.4864457403
 20
40.0204014806
 10
-1.5031344999
 20
40.0366119452
 10
-1.5202874396
 20
40.0523304044
 10
-1.5378900521
 20
40.067543564
 10
-1.5559274495
 20
40.0822385571
 10
-1.5743843763
 20
40.0964029551
 10
-1.5932452221
 20
40.1100247782
 10
-1.612494035
 20
40.1230925053
 10
-1.6321145349
 20
40.1355950842
 10
-1.6520901273
 20
40.1475219406
 10
-1.6724039174
 20
40.158862987
 10
-1.6930387244
 20
40.1696086315
 10
-1.713977096
 20
40.1797497858
 10
-1.735201323
 20
40.1892778727
 10
-1.7566934546
 20
40.1981848337
 10
-1.7784353134
 20
40.2064631355
 10
-1.8004085108
 20
40.2141057765
 10
-1.8225944623
 20
40.2211062929
 10
-1.8449744038
 20
40.2274587637
 10
-1.867529407
 20
40.2331578163
 10
-1.8902403954
 20
40.2381986305
 10
-1.9130881608
 20
40.2425769429
 10
-1.9360533791
 20
40.2462890506
 10
-1.959116627
 20
40.2493318139
 10
-1.9822583983
 20
40.2517026593
 10
-2.0054591203
 20
40.2533995816
 10
-2.0286991705
 20
40.2544211457
 10
-2.0519588931
 20
40.2547664875
  0
LWPOLYLINE
  5
408
100
AcDbEntity
  8
ASSI
100
AcDbPolyline
 62
253
  6
CONTINUOUS
 90
55
 70
0
 10
-1.252080737
 20
39.4548883314
 10
-1.2524260788
 20
39.4781480536
 10
-1.2534476428
 20
39.5013881035
 10
-1.2551445651
 20
39.5245888252
 10
-1.2575154105
 20
39.5477305961
 10
-1.2605581736
 20
39.5707938438
 10
-1.2642702812
 20
39.5937590618
 10
-1.2686485936
 20
39.6166068269
 10
-1.2736894076
 20
39.639317815
 10
-1.2793884601
 20
39.661872818
 10
-1.2857409308
 20
39.6842527593
 10
-1.2927414469
 20
39.7064387106
 10
-1.3003840878
 20
39.7284119078
 10
-1.3086623894
 20
39.7501537664
 10
-1.3175693502
 20
39.7716458979
 10
-1.327097437
 20
39.7928701248
 10
-1.3372385911
 20
39.8138084963
 10
-1.3479842354
 20
39.8344433032
 10
-1.3593252816
 20
39.8547570933
 10
-1.3712521378
 20
39.8747326856
 10
-1.3837547166
 20
39.8943531855
 10
-1.3968224435
 20
39.9136019984
 10
-1.4104442664
 20
39.9324628443
 10
-1.4246086642
 20
39.9509197711
 10
-1.4393036572
 20
39.9689571685
 10
-1.4545168167
 20
39.9865597811
 10
-1.4702352758
 20
40.0037127209
 10
-1.4864457403
 20
40.0204014806
 10
-1.5031344999
 20
40.0366119452
 10
-1.5202874396
 20
40.0523304044
 10
-1.5378900521
 20
40.067543564
 10
-1.5559274495
 20
40.0822385571
 10
-1.5743843763
 20
40.0964029551
 10
-1.5932452221
 20
40.1100247782
 10
-1.612494035
 20
40.1230925053
 10
-1.6321145349
 20
40.1355950842
 10
-1.6520901273
 20
40.1475219406
 10
-1.6724039174
 20
40.158862987
 10
-1.6930387244
 20
40.1696086315
 10
-1.713977096
 20
40.1797497858
 10
-1.735201323
 20
40.1892778727
 10
-1.7566934546
 20
40.1981848337
 10
-1.7784353134
 20
40.2064631355
 10
-1.8004085108
 20
40.2141057765
 10
-1.8225944623
 20
40.2211062929
 10
-1.8449744038
 20
40.2274587637
 10
-1.867529407
 20
40.2331578163
 10
-1.8902403954
 20
40.2381986305
 10
-1.9130881608
 20
40.2425769429
 10
-1.9360533791
 20
40.2462890506
 10
-1.959116627
 20
40.2493318139
 10
-1.9822583983
 20
40.2517026593
 10
-2.0054591203
 20
40.2533995816
 10
-2.0286991705
 20
40.2544211457
 10
-2.0519588931
 20
40.2547664875
  0
LINE
  5
409
100
AcDbEntity
  8
RACCORDO
100
AcDbLine
 62
253
  6
CONTINUOUS
 10
-1.2618806871
 20
-2.1934616097
 11
-1.2605942601
 21
-2.2822572923
  0
LINE
  5
40A
100
AcDbEntity
  8
ASSI
100
AcDbLine
 62
253
  6
CONTINUOUS
 10
-1.2618806871
 20
-2.1934616097
 11
-1.2605942601
 21
-2.2822572923
  0
LINE
  5
40B
100
AcDbEntity
  8
RACCORDO
100
AcDbLine
 62
253
  6
CONTINUOUS
 10
-1.2631307852
 20
-2.0636475968
 11
-1.2618806871
 21
-2.1934616097
  0
LINE
  5
40C
100
AcDbEntity
  8
ASSI
100
AcDbLine
 62
253
  6
CONTINUOUS
 10
-1.2631307852
 20
-2.0636475968
 11
-1.2618806871
 21
-2.1934616097
  0
LINE
  5
40D
100
AcDbEntity
  8
RACCORDO
100
AcDbLine
 62
253
  6
CONTINUOUS
 10
-2.0623737679
 20
-2.5323338283
 11
-2.0598462102
 21
-2.9152798297
  0
LINE
  5
40E
100
AcDbEntity
  8
ASSI
100
AcDbLine
 62
253
  6
CONTINUOUS
 10
-2.0623737679
 20
-2.5323338283
 11
-2.0598462102
 21
-2.9152798297
  0
LINE
  5
40F
100
AcDbEntity
  8
RACCORDO
100
AcDbLine
 62
253
  6
CONTINUOUS
 10
-1.2639255287
 20
-1.9054023343
 11
-1.2631307852
 21
-2.0636475968
  0
LINE
  5
410
100
AcDbEntity
  8
ASSI
100
AcDbLine
 62
253
  6
CONTINUOUS
 10
-1.2639255287
 20
-1.9054023343
 11
-1.2631307852
 21
-2.0636475968
  0
LWPOLYLINE
  5
411
100
AcDbEntity
  8
RACCORDO
100
AcDbPolyline
 62
253
  6
CONTINUOUS
 90
3
 70
0
 10
-1.2662090314
 20
0.0596726279
 10
-1.2651598062
 20
-0.8901806037
 10
-1.2639255287
 20
-1.9054023343
  0
LWPOLYLINE
  5
412
100
AcDbEntity
  8
ASSI
100
AcDbPolyline
 62
253
  6
CONTINUOUS
 90
3
 70
0
 10
-1.2662090314
 20
0.0596726279
 10
-1.2651598062
 20
-0.8901806037
 10
-1.2639255287
 20
-1.9054023343
  0
LWPOLYLINE
  5
413
100
AcDbEntity
  8
RACCORDO
100
AcDbPolyline
 62
253
  6
CONTINUOUS
 90
4
 70
0
 10
-1.2698783747
 20
3.860849452
 10
-1.2690401902
 20
2.9103096744
 10
-1.2681492234
 20
1.9599177669
 10
-1.2662090314
 20
0.0596726279
  0
LWPOLYLINE
  5
414
100
AcDbEntity
  8
ASSI
100
AcDbPolyline
 62
253
  6
CONTINUOUS
 90
4
 70
0
 10
-1.2698783747
 20
3.860849452
 10
-1.2690401902
 20
2.9103096744
 10
-1.2681492234
 20
1.9599177669
 10
-1.2662090314
 20
0.0596726279
  0
LWPOLYLINE
  5
415
100
AcDbEntity
  8
RACCORDO
100
AcDbPolyline
 62
253
  6
CONTINUOUS
 90
4
 70
0
 10
-2.0719545629
 20
6.6821536118
 10
-2.071274741
 20
5.7286201503
 10
-2.070542111
 20
4.7752157212
 10
-2.0689184914
 20
2.8688325498
  0
LWPOLYLINE
  5
416
100
AcDbEntity
  8
ASSI
100
AcDbPolyline
 62
253
  6
CONTINUOUS
 90
4
 70
0
 10
-2.0719545629
 20
6.6821536118
 10
-2.071274741
 20
5.7286201503
 10
-2.070542111
 20
4.7752157212
 10
-2.0689184914
 20
2.8688325498
  0
LWPOLYLINE
  5
417
100
AcDbEntity
  8
RACCORDO
100
AcDbPolyline
 62
253
  6
CONTINUOUS
 90
3
 70
0
 10
-2.0689184914
 20
2.8688325498
 10
-2.0639129946
 20
-1.9294444654
 10
-2.0623737679
 20
-2.5323338283
  0
LWPOLYLINE
  5
418
100
AcDbEntity
  8
ASSI
100
AcDbPolyline
 62
253
  6
CONTINUOUS
 90
3
 70
0
 10
-2.0689184914
 20
2.8688325498
 10
-2.0639129946
 20
-1.9294444654
 10
-2.0623737679
 20
-2.5323338283
  0
LWPOLYLINE
  5
419
100
AcDbEntity
  8
RACCORDO
100
AcDbPolyline
 62
253
  6
CONTINUOUS
 90
3
 70
0
 10
-1.2720762071
 20
6.7133274865
 10
-1.2713963935
 20
5.7623728951
 10
-1.2698783747
 20
3.860849452
  0
LWPOLYLINE
  5
41A
100
AcDbEntity
  8
ASSI
100
AcDbPolyline
 62
253
  6
CONTINUOUS
 90
3
 70
0
 10
-1.2720762071
 20
6.7133274865
 10
-1.2713963935
 20
5.7623728951
 10
-1.2698783747
 20
3.860849452
  0
LWPOLYLINE
  5
41B
100
AcDbEntity
  8
RACCORDO
100
AcDbPolyline
 62
253
  6
CONTINUOUS
 90
3
 70
0
 10
-2.0736771573
 20
9.5434316935
 10
-2.073155779
 20
8.5895690322
 10
-2.0719545629
 20
6.6821536118
  0
LWPOLYLINE
  5
41C
100
AcDbEntity
  8
ASSI
100
AcDbPolyline
 62
253
  6
CONTINUOUS
 90
3
 70
0
 10
-2.0736771573
 20
9.5434316935
 10
-2.073155779
 20
8.5895690322
 10
-2.0719545629
 20
6.6821536118
  0
LWPOLYLINE
  5
41D
100
AcDbEntity
  8
RACCORDO
100
AcDbPolyline
 62
253
  6
CONTINUOUS
 90
3
 70
0
 10
-1.2737987982
 20
9.566875934
 10
-1.2732774173
 20
8.6155934076
 10
-1.2720762071
 20
6.7133274865
  0
LWPOLYLINE
  5
41E
100
AcDbEntity
  8
ASSI
100
AcDbPolyline
 62
253
  6
CONTINUOUS
 90
3
 70
0
 10
-1.2737987982
 20
9.566875934
 10
-1.2732774173
 20
8.6155934076
 10
-1.2720762071
 20
6.7133274865
  0
LINE
  5
41F
100
AcDbEntity
  8
RACCORDO
100
AcDbLine
 62
253
  6
CONTINUOUS
 10
-2.0749243212
 20
12.4055236582
 11
-2.0736771573
 21
9.5434316935
  0
LINE
  5
420
100
AcDbEntity
  8
ASSI
100
AcDbLine
 62
253
  6
CONTINUOUS
 10
-2.0749243212
 20
12.4055236582
 11
-2.0736771573
 21
9.5434316935
  0
LINE
  5
421
100
AcDbEntity
  8
RACCORDO
100
AcDbLine
 62
253
  6
CONTINUOUS
 10
-1.2750459916
 20
12.4212352679
 11
-1.2737987982
 21
9.566875934
  0
LINE
  5
422
100
AcDbEntity
  8
ASSI
100
AcDbLine
 62
253
  6
CONTINUOUS
 10
-1.2750459916
 20
12.4212352679
 11
-1.2737987982
 21
9.566875934
  0
LINE
  5
423
100
AcDbEntity
  8
RACCORDO
100
AcDbLine
 62
253
  6
CONTINUOUS
 10
-2.0758702799
 20
16.2224618623
 11
-2.0749243212
 21
12.4055236582
  0
LINE
  5
424
100
AcDbEntity
  8
ASSI
100
AcDbLine
 62
253
  6
CONTINUOUS
 10
-2.0758702799
 20
16.2224618623
 11
-2.0749243212
 21
12.4055236582
  0
LINE
  5
425
100
AcDbEntity
  8
RACCORDO
100
AcDbLine
 62
253
  6
CONTINUOUS
 10
-1.2758176745
 20
15.2761459116
 11
-1.2750459916
 21
12.4212352679
  0
LINE
  5
426
100
AcDbEntity
  8
ASSI
100
AcDbLine
 62
253
  6
CONTINUOUS
 10
-1.2758176745
 20
15.2761459116
 11
-1.2750459916
 21
12.4212352679
  0
LINE
  5
427
100
AcDbEntity
  8
0
100
AcDbLine
 62
253
  6
CONTINUOUS
 10
-2.075995506
 20
18.3313402041
 11
-2.075995506
 21
18.6313402041
  0
LINE
  5
428
100
AcDbEntity
  8
RACCORDO
100
AcDbLine
 62
253
  6
CONTINUOUS
 10
-2.0758702799
 20
16.2224618623
 11
-2.075991947
 21
18.3313402041
  0
LINE
  5
429
100
AcDbEntity
  8
ASSI
100
AcDbLine
 62
253
  6
CONTINUOUS
 10
-2.0758702799
 20
16.2224618623
 11
-2.075991947
 21
18.8315736927
  0
LINE
  5
42A
100
AcDbEntity
  8
0
100
AcDbLine
 62
253
  6
CONTINUOUS
 10
-1.676056428
 20
18.3313402041
 11
-1.676056428
 21
18.6313402041
  0
LINE
  5
42B
100
AcDbEntity
  8
ASSI
100
AcDbLine
 62
253
  6
CONTINUOUS
 10
-1.676056428
 20
18.3313402041
 11
-1.676056428
 21
18.6313402041
  0
LINE
  5
42C
100
AcDbEntity
  8
0
100
AcDbLine
 62
7
  6
CONTINUOUS
 10
-1.5755679516
 20
18.3313402041
 11
-1.5755679516
 21
18.6313402041
  0
LINE
  5
42D
100
AcDbEntity
  8
ASSI
100
AcDbLine
 62
7
  6
CONTINUOUS
 10
-1.5755679516
 20
18.3313402041
 11
-1.5755679516
 21
18.6313402041
  0
LINE
  5
42E
100
AcDbEntity
  8
RACCORDO
100
AcDbLine
 62
253
  6
CONTINUOUS
 10
-1.2761137766
 20
18.1313402041
 11
-1.2758176745
 21
15.2761459116
  0
LINE
  5
42F
100
AcDbEntity
  8
ASSI
100
AcDbLine
 62
253
  6
CONTINUOUS
 10
-1.2761137766
 20
18.1313402041
 11
-1.2758176745
 21
15.2761459116
  0
LINE
  5
430
100
AcDbEntity
  8
RACCORDO
100
AcDbLine
 62
7
  6
CONTINUOUS
 10
-1.1755070204
 20
39.531462048
 11
-1.1755070204
 21
18.8313402041
  0
LINE
  5
431
100
AcDbEntity
  8
ASSI
100
AcDbLine
 62
7
  6
CONTINUOUS
 10
-1.1755070204
 20
39.531462048
 11
-1.1755070204
 21
18.8313402041
  0
LINE
  5
432
100
AcDbEntity
  8
RACCORDO
100
AcDbLine
 62
7
  6
CONTINUOUS
 10
-1.1755070204
 20
18.1313402041
 11
-1.1755070204
 21
-2.5687816398
  0
LINE
  5
433
100
AcDbEntity
  8
ASSI
100
AcDbLine
 62
7
  6
CONTINUOUS
 10
-1.1755070204
 20
18.1313402041
 11
-1.1755070204
 21
-2.5687816398
  0
LINE
  5
434
100
AcDbEntity
  8
RACCORDO
100
AcDbLine
 62
253
  6
CONTINUOUS
 10
-2.0760027945
 20
19.7859027177
 11
-2.075991947
 21
18.6313402041
  0
LINE
  5
435
100
AcDbEntity
  8
RACCORDO
100
AcDbLine
 62
253
  6
CONTINUOUS
 10
-1.2759692175
 20
20.734834596
 11
-1.2761137766
 21
18.8313402041
  0
LINE
  5
436
100
AcDbEntity
  8
ASSI
100
AcDbLine
 62
253
  6
CONTINUOUS
 10
-1.2759692175
 20
20.734834596
 11
-1.2761137766
 21
18.8313402041
  0
LINE
  5
437
100
AcDbEntity
  8
RACCORDO
100
AcDbLine
 62
253
  6
CONTINUOUS
 10
-2.0752305907
 20
23.6029902749
 11
-2.0760027945
 21
19.7859027177
  0
LINE
  5
438
100
AcDbEntity
  8
ASSI
100
AcDbLine
 62
253
  6
CONTINUOUS
 10
-2.0752305907
 20
23.6029902749
 11
-2.0760939532
 21
18.8315736927
  0
LINE
  5
439
100
AcDbEntity
  8
RACCORDO
100
AcDbLine
 62
253
  6
CONTINUOUS
 10
-1.2753560564
 20
23.5898596366
 11
-1.2759692175
 21
20.734834596
  0
LINE
  5
43A
100
AcDbEntity
  8
ASSI
100
AcDbLine
 62
253
  6
CONTINUOUS
 10
-1.2753560564
 20
23.5898596366
 11
-1.2759692175
 21
20.734834596
  0
LINE
  5
43B
100
AcDbEntity
  8
RACCORDO
100
AcDbLine
 62
253
  6
CONTINUOUS
 10
-2.0741457084
 20
26.4652956219
 11
-2.0752305907
 21
23.6029902749
  0
LINE
  5
43C
100
AcDbEntity
  8
ASSI
100
AcDbLine
 62
253
  6
CONTINUOUS
 10
-2.0741457084
 20
26.4652956219
 11
-2.0752305907
 21
23.6029902749
  0
LINE
  5
43D
100
AcDbEntity
  8
RACCORDO
100
AcDbLine
 62
253
  6
CONTINUOUS
 10
-1.2742673555
 20
26.4444319023
 11
-1.2753560564
 21
23.5898596366
  0
LINE
  5
43E
100
AcDbEntity
  8
ASSI
100
AcDbLine
 62
253
  6
CONTINUOUS
 10
-1.2742673555
 20
26.4444319023
 11
-1.2753560564
 21
23.5898596366
  0
LINE
  5
43F
100
AcDbEntity
  8
RACCORDO
100
AcDbLine
 62
253
  6
CONTINUOUS
 10
-2.072581575
 20
29.3268739525
 11
-2.0741457084
 21
26.4652956219
  0
LINE
  5
440
100
AcDbEntity
  8
ASSI
100
AcDbLine
 62
253
  6
CONTINUOUS
 10
-2.072581575
 20
29.3268739525
 11
-2.0741457084
 21
26.4652956219
  0
LINE
  5
441
100
AcDbEntity
  8
RACCORDO
100
AcDbLine
 62
253
  6
CONTINUOUS
 10
-1.2727032145
 20
29.2982795038
 11
-1.2742673555
 21
26.4444319023
  0
LINE
  5
442
100
AcDbEntity
  8
ASSI
100
AcDbLine
 62
253
  6
CONTINUOUS
 10
-1.2727032145
 20
29.2982795038
 11
-1.2742673555
 21
26.4444319023
  0
LINE
  5
443
100
AcDbEntity
  8
RACCORDO
100
AcDbLine
 62
253
  6
CONTINUOUS
 10
-2.070542111
 20
32.1874646869
 11
-2.072581575
 21
29.3268739525
  0
LINE
  5
444
100
AcDbEntity
  8
ASSI
100
AcDbLine
 62
253
  6
CONTINUOUS
 10
-2.070542111
 20
32.1874646869
 11
-2.072581575
 21
29.3268739525
  0
LINE
  5
445
100
AcDbEntity
  8
RACCORDO
100
AcDbLine
 62
253
  6
CONTINUOUS
 10
-1.2706637752
 20
32.1511432672
 11
-1.2727032145
 21
29.2982795038
  0
LINE
  5
446
100
AcDbEntity
  8
ASSI
100
AcDbLine
 62
253
  6
CONTINUOUS
 10
-1.2706637752
 20
32.1511432672
 11
-1.2727032145
 21
29.2982795038
  0
LINE
  5
447
100
AcDbEntity
  8
RACCORDO
100
AcDbLine
 62
253
  6
CONTINUOUS
 10
-2.0680275018
 20
35.0468073092
 11
-2.070542111
 21
32.1874646869
  0
LINE
  5
448
100
AcDbEntity
  8
ASSI
100
AcDbLine
 62
253
  6
CONTINUOUS
 10
-2.0680275018
 20
35.0468073092
 11
-2.070542111
 21
32.1874646869
  0
LINE
  5
449
100
AcDbEntity
  8
RACCORDO
100
AcDbLine
 62
253
  6
CONTINUOUS
 10
-1.2681492233
 20
35.0027627634
 11
-1.2706637752
 21
32.1511432672
  0
LINE
  5
44A
100
AcDbEntity
  8
ASSI
100
AcDbLine
 62
253
  6
CONTINUOUS
 10
-1.2681492233
 20
35.0027627634
 11
-1.2706637752
 21
32.1511432672
  0
LINE
  5
44B
100
AcDbEntity
  8
RACCORDO
100
AcDbLine
 62
253
  6
CONTINUOUS
 10
-2.0650379976
 20
37.9046414384
 11
-2.0680275018
 21
35.0468073092
  0
LINE
  5
44C
100
AcDbEntity
  8
ASSI
100
AcDbLine
 62
253
  6
CONTINUOUS
 10
-2.0650379976
 20
37.9046414384
 11
-2.0680275018
 21
35.0468073092
  0
LINE
  5
44D
100
AcDbEntity
  8
RACCORDO
100
AcDbLine
 62
253
  6
CONTINUOUS
 10
-1.2651598061
 20
37.852861065
 11
-1.2681492233
 21
35.0027627634
  0
LINE
  5
44E
100
AcDbEntity
  8
ASSI
100
AcDbLine
 62
253
  6
CONTINUOUS
 10
-1.2651598061
 20
37.852861065
 11
-1.2681492233
 21
35.0027627634
  0
LINE
  5
44F
100
AcDbEntity
  8
RACCORDO
100
AcDbLine
 62
253
  6
CONTINUOUS
 10
-2.0619211876
 20
39.5853736191
 11
-2.0650379976
 21
37.9046414384
  0
LINE
  5
450
100
AcDbEntity
  8
ASSI
100
AcDbLine
 62
253
  6
CONTINUOUS
 10
-2.0619211876
 20
39.5853736191
 11
-2.0650379976
 21
37.9046414384
  0
LINE
  5
451
100
AcDbEntity
  8
RACCORDO
100
AcDbLine
 62
253
  6
CONTINUOUS
 10
-1.263526777
 20
38.9643490739
 11
-1.2651598061
 21
37.852861065
  0
LINE
  5
452
100
AcDbEntity
  8
ASSI
100
AcDbLine
 62
253
  6
CONTINUOUS
 10
-1.263526777
 20
38.9643490739
 11
-1.2651598061
 21
37.852861065
  0
LINE
  5
453
100
AcDbEntity
  8
RACCORDO
100
AcDbLine
 62
253
  6
CONTINUOUS
 10
-2.0598462144
 20
39.8779602227
 11
-2.0619211876
 21
39.5853736191
  0
LINE
  5
454
100
AcDbEntity
  8
ASSI
100
AcDbLine
 62
253
  6
CONTINUOUS
 10
-2.0598462144
 20
39.8779602227
 11
-2.0619211876
 21
39.5853736191
  0
LINE
  5
455
100
AcDbEntity
  8
RACCORDO
100
AcDbLine
 62
253
  6
CONTINUOUS
 10
-1.2624956487
 20
39.1003305502
 11
-1.263526777
 21
38.9643490739
  0
LINE
  5
456
100
AcDbEntity
  8
ASSI
100
AcDbLine
 62
253
  6
CONTINUOUS
 10
-1.2624956487
 20
39.1003305502
 11
-1.263526777
 21
38.9643490739
  0
LINE
  5
457
100
AcDbEntity
  8
RACCORDO
100
AcDbLine
 62
253
  6
CONTINUOUS
 10
-1.2611768717
 20
39.2083766374
 11
-1.2624956487
 21
39.1003305502
  0
LINE
  5
458
100
AcDbEntity
  8
ASSI
100
AcDbLine
 62
253
  6
CONTINUOUS
 10
-1.2611768717
 20
39.2083766374
 11
-1.2624956487
 21
39.1003305502
  0
LWPOLYLINE
  5
459
100
AcDbEntity
  8
RACCORDO
100
AcDbPolyline
 62
253
  6
CONTINUOUS
 90
55
 70
0
 10
-1.252080737
 20
-2.4922079232
 10
-1.2524260788
 20
-2.5154676457
 10
-1.2534476428
 20
-2.5387076957
 10
-1.2551445652
 20
-2.5619084176
 10
-1.2575154105
 20
-2.5850501888
 10
-1.2605581738
 20
-2.6081134366
 10
-1.2642702814
 20
-2.6310786547
 10
-1.2686485938
 20
-2.65392642
 10
-1.273689408
 20
-2.6766374083
 10
-1.2793884605
 20
-2.6991924113
 10
-1.2857409312
 20
-2.7215723528
 10
-1.2927414475
 20
-2.7437583042
 10
-1.3003840885
 20
-2.7657315015
 10
-1.3086623902
 20
-2.7874733602
 10
-1.3175693511
 20
-2.8089654918
 10
-1.3270974379
 20
-2.8301897187
 10
-1.3372385921
 20
-2.8511280902
 10
-1.3479842365
 20
-2.8717628971
 10
-1.3593252828
 20
-2.8920766872
 10
-1.3712521391
 20
-2.9120522796
 10
-1.3837547179
 20
-2.9316727794
 10
-1.396822445
 20
-2.9509215923
 10
-1.4104442679
 20
-2.9697824382
 10
-1.4246086658
 20
-2.9882393649
 10
-1.4393036589
 20
-3.0062767623
 10
-1.4545168184
 20
-3.0238793748
 10
-1.4702352775
 20
-3.0410323146
 10
-1.4864457421
 20
-3.0577210742
 10
-1.5031345017
 20
-3.0739315388
 10
-1.5202874415
 20
-3.0896499979
 10
-1.537890054
 20
-3.1048631575
 10
-1.5559274514
 20
-3.1195581505
 10
-1.5743843782
 20
-3.1337225484
 10
-1.593245224
 20
-3.1473443713
 10
-1.6124940369
 20
-3.1604120984
 10
-1.6321145367
 20
-3.1729146772
 10
-1.6520901291
 20
-3.1848415335
 10
-1.6724039192
 20
-3.1961825798
 10
-1.6930387261
 20
-3.2069282242
 10
-1.7139770976
 20
-3.2170693784
 10
-1.7352013246
 20
-3.2265974653
 10
-1.7566934561
 20
-3.2355044262
 10
-1.7784353149
 20
-3.2437827279
 10
-1.8004085121
 20
-3.2514253688
 10
-1.8225944636
 20
-3.2584258851
 10
-1.844974405
 20
-3.2647783558
 10
-1.867529408
 20
-3.2704774083
 10
-1.8902403963
 20
-3.2755182225
 10
-1.9130881616
 20
-3.2798965349
 10
-1.9360533798
 20
-3.2836086425
 10
-1.9591166276
 20
-3.2866514058
 10
-1.9822583987
 20
-3.2890222512
 10
-2.0054591206
 20
-3.2907191735
 10
-2.0286991707
 20
-3.2917407375
 10
-2.0519588931
 20
-3.2920860793
  0
LWPOLYLINE
  5
45A
100
AcDbEntity
  8
ASSI
100
AcDbPolyline
 62
253
  6
CONTINUOUS
 90
55
 70
0
 10
-1.252080737
 20
-2.4922079232
 10
-1.2524260788
 20
-2.5154676457
 10
-1.2534476428
 20
-2.5387076957
 10
-1.2551445652
 20
-2.5619084176
 10
-1.2575154105
 20
-2.5850501888
 10
-1.2605581738
 20
-2.6081134366
 10
-1.2642702814
 20
-2.6310786547
 10
-1.2686485938
 20
-2.65392642
 10
-1.273689408
 20
-2.6766374083
 10
-1.2793884605
 20
-2.6991924113
 10
-1.2857409312
 20
-2.7215723528
 10
-1.2927414475
 20
-2.7437583042
 10
-1.3003840885
 20
-2.7657315015
 10
-1.3086623902
 20
-2.7874733602
 10
-1.3175693511
 20
-2.8089654918
 10
-1.3270974379
 20
-2.8301897187
 10
-1.3372385921
 20
-2.8511280902
 10
-1.3479842365
 20
-2.8717628971
 10
-1.3593252828
 20
-2.8920766872
 10
-1.3712521391
 20
-2.9120522796
 10
-1.3837547179
 20
-2.9316727794
 10
-1.396822445
 20
-2.9509215923
 10
-1.4104442679
 20
-2.9697824382
 10
-1.4246086658
 20
-2.9882393649
 10
-1.4393036589
 20
-3.0062767623
 10
-1.4545168184
 20
-3.0238793748
 10
-1.4702352775
 20
-3.0410323146
 10
-1.4864457421
 20
-3.0577210742
 10
-1.5031345017
 20
-3.0739315388
 10
-1.5202874415
 20
-3.0896499979
 10
-1.537890054
 20
-3.1048631575
 10
-1.5559274514
 20
-3.1195581505
 10
-1.5743843782
 20
-3.1337225484
 10
-1.593245224
 20
-3.1473443713
 10
-1.6124940369
 20
-3.1604120984
 10
-1.6321145367
 20
-3.1729146772
 10
-1.6520901291
 20
-3.1848415335
 10
-1.6724039192
 20
-3.1961825798
 10
-1.6930387261
 20
-3.2069282242
 10
-1.7139770976
 20
-3.2170693784
 10
-1.7352013246
 20
-3.2265974653
 10
-1.7566934561
 20
-3.2355044262
 10
-1.7784353149
 20
-3.2437827279
 10
-1.8004085121
 20
-3.2514253688
 10
-1.8225944636
 20
-3.2584258851
 10
-1.844974405
 20
-3.2647783558
 10
-1.867529408
 20
-3.2704774083
 10
-1.8902403963
 20
-3.2755182225
 10
-1.9130881616
 20
-3.2798965349
 10
-1.9360533798
 20
-3.2836086425
 10
-1.9591166276
 20
-3.2866514058
 10
-1.9822583987
 20
-3.2890222512
 10
-2.0054591206
 20
-3.2907191735
 10
-2.0286991707
 20
-3.2917407375
 10
-2.0519588931
 20
-3.2920860793
  0
LINE
  5
45B
100
AcDbEntity
  8
RACCORDO
100
AcDbLine
 62
253
  6
CONTINUOUS
 10
-1.2599680692
 20
39.2790447807
 11
-1.2611768717
 21
39.2083766374
  0
LINE
  5
45C
100
AcDbEntity
  8
ASSI
100
AcDbLine
 62
253
  6
CONTINUOUS
 10
-1.2599680692
 20
39.2790447807
 11
-1.2611768717
 21
39.2083766374
  0
LWPOLYLINE
  5
45D
100
AcDbEntity
  8
RACCORDO
100
AcDbPolyline
 62
253
  6
CONTINUOUS
 90
34
 70
0
 10
-1.2761137766
 20
18.8313402041
 10
-1.2762759523
 20
18.8232870161
 10
-1.2767622162
 20
18.8152468903
 10
-1.2775717797
 20
18.807232868
 10
-1.2787033296
 20
18.7992579479
 10
-1.2801550306
 20
18.7913350653
 10
-1.281924528
 20
18.7834770712
 10
-1.2840089517
 20
18.7756967113
 10
-1.2864049206
 20
18.7680066053
 10
-1.2891085486
 20
18.7604192267
 10
-1.2921154504
 20
18.7529468821
 10
-1.2954207487
 20
18.7456016918
 10
-1.2990190824
 20
18.7383955697
 10
-1.3029046149
 20
18.7313402041
 10
-1.3070710439
 20
18.7244470389
 10
-1.3115116114
 20
18.7177272547
 10
-1.3162191148
 20
18.7111917512
 10
-1.3211859185
 20
18.704851129
 10
-1.3264039664
 20
18.6987156724
 10
-1.3318647947
 20
18.6927953334
 10
-1.337559546
 20
18.6870997146
 10
-1.3434789834
 20
18.6816380544
 10
-1.3496135054
 20
18.6764192117
 10
-1.355953162
 20
18.6714516514
 10
-1.3624876701
 20
18.6667434309
 10
-1.3692064308
 20
18.662302187
 10
-1.3760985461
 20
18.6581351233
 10
-1.3831528372
 20
18.654248999
 10
-1.3903578618
 20
18.6506501172
 10
-1.3977019334
 20
18.6473443153
 10
-1.4051731399
 20
18.6443369555
 10
-1.4127593629
 20
18.6416329157
 10
-1.4204482977
 20
18.6392365818
 10
-1.4282274726
 20
18.6371518406
  0
LWPOLYLINE
  5
45E
100
AcDbEntity
  8
ASSI
100
AcDbPolyline
 62
253
  6
CONTINUOUS
 90
34
 70
0
 10
-1.2761137766
 20
18.8313402041
 10
-1.2762759523
 20
18.8232870161
 10
-1.2767622162
 20
18.8152468903
 10
-1.2775717797
 20
18.807232868
 10
-1.2787033296
 20
18.7992579479
 10
-1.2801550306
 20
18.7913350653
 10
-1.281924528
 20
18.7834770712
 10
-1.2840089517
 20
18.7756967113
 10
-1.2864049206
 20
18.7680066053
 10
-1.2891085486
 20
18.7604192267
 10
-1.2921154504
 20
18.7529468821
 10
-1.2954207487
 20
18.7456016918
 10
-1.2990190824
 20
18.7383955697
 10
-1.3029046149
 20
18.7313402041
 10
-1.3070710439
 20
18.7244470389
 10
-1.3115116114
 20
18.7177272547
 10
-1.3162191148
 20
18.7111917512
 10
-1.3211859185
 20
18.704851129
 10
-1.3264039664
 20
18.6987156724
 10
-1.3318647947
 20
18.6927953334
 10
-1.337559546
 20
18.6870997146
 10
-1.3434789834
 20
18.6816380544
 10
-1.3496135054
 20
18.6764192117
 10
-1.355953162
 20
18.6714516514
 10
-1.3624876701
 20
18.6667434309
 10
-1.3692064308
 20
18.662302187
 10
-1.3760985461
 20
18.6581351233
 10
-1.3831528372
 20
18.654248999
 10
-1.3903578618
 20
18.6506501172
 10
-1.3977019334
 20
18.6473443153
 10
-1.4051731399
 20
18.6443369555
 10
-1.4127593629
 20
18.6416329157
 10
-1.4204482977
 20
18.6392365818
 10
-1.4282274726
 20
18.6371518406
  0
LINE
  5
45F
100
AcDbEntity
  8
RACCORDO
100
AcDbLine
 62
253
  6
CONTINUOUS
 10
-1.2588359236
 20
39.3299924115
 11
-1.2599680692
 21
39.2790447807
  0
LINE
  5
460
100
AcDbEntity
  8
ASSI
100
AcDbLine
 62
253
  6
CONTINUOUS
 10
-1.2588359236
 20
39.3299924115
 11
-1.2599680692
 21
39.2790447807
  0
LINE
  5
461
100
AcDbEntity
  8
RACCORDO
100
AcDbLine
 62
253
  6
CONTINUOUS
 10
-1.2581091634
 20
39.356769416
 11
-1.2588359236
 21
39.3299924115
  0
LINE
  5
462
100
AcDbEntity
  8
ASSI
100
AcDbLine
 62
253
  6
CONTINUOUS
 10
-1.2581091634
 20
39.356769416
 11
-1.2588359236
 21
39.3299924115
  0
LINE
  5
463
100
AcDbEntity
  8
RACCORDO
100
AcDbLine
 62
253
  6
CONTINUOUS
 10
-1.2573511854
 20
39.3805369071
 11
-1.2581091634
 21
39.356769416
  0
LINE
  5
464
100
AcDbEntity
  8
ASSI
100
AcDbLine
 62
253
  6
CONTINUOUS
 10
-1.2573511854
 20
39.3805369071
 11
-1.2581091634
 21
39.356769416
  0
LINE
  5
465
100
AcDbEntity
  8
RACCORDO
100
AcDbLine
 62
253
  6
CONTINUOUS
 10
-1.2568304871
 20
39.3946481119
 11
-1.2573511854
 21
39.3805369071
  0
LINE
  5
466
100
AcDbEntity
  8
ASSI
100
AcDbLine
 62
253
  6
CONTINUOUS
 10
-1.2568304871
 20
39.3946481119
 11
-1.2573511854
 21
39.3805369071
  0
LWPOLYLINE
  5
467
100
AcDbEntity
  8
RACCORDO
100
AcDbPolyline
 62
253
  6
CONTINUOUS
 90
3
 70
0
 10
-1.2560289754
 20
39.4131436269
 10
-1.2562986108
 20
39.4073413669
 10
-1.2568304871
 20
39.3946481119
  0
LWPOLYLINE
  5
468
100
AcDbEntity
  8
ASSI
100
AcDbPolyline
 62
253
  6
CONTINUOUS
 90
3
 70
0
 10
-1.2560289754
 20
39.4131436269
 10
-1.2562986108
 20
39.4073413669
 10
-1.2568304871
 20
39.3946481119
  0
LINE
  5
469
100
AcDbEntity
  8
CURVE
100
AcDbLine
 62
252
  6
CONTINUOUS
 10
-12.6346679799
 20
6.0673779523
 11
-12.6145144213
 21
6.0806867319
  0
LWPOLYLINE
  5
46A
100
AcDbEntity
  8
CURVE
100
AcDbPolyline
 62
252
  6
CONTINUOUS
 90
27
 70
0
 10
-11.9247014626
 20
4.9776617621
 10
-11.9031783232
 20
4.9915163859
 10
-11.8822242621
 20
5.0062004877
 10
-11.861874992
 20
5.0216930227
 10
-11.8421597598
 20
5.0379670268
 10
-11.8231061957
 20
5.054994056
 10
-11.8047419302
 20
5.0727456661
 10
-11.7870945936
 20
5.0911934132
 10
-11.7701918163
 20
5.1103088532
 10
-11.7540612286
 20
5.1300635421
 10
-11.7387304608
 20
5.1504290359
 10
-11.7242248754
 20
5.1713760911
 10
-11.7105607629
 20
5.1928722673
 10
-11.6977521457
 20
5.2148843245
 10
-11.6858130463
 20
5.2373790228
 10
-11.6747586824
 20
5.2603188878
 10
-11.6646090514
 20
5.2836495072
 10
-11.6553853459
 20
5.3073122342
 10
-11.6471087586
 20
5.3312484219
 10
-11.639795928
 20
5.3554069506
 10
-11.6334452769
 20
5.3797668089
 10
-11.6280506741
 20
5.4043145123
 10
-11.6236059885
 20
5.4290365766
 10
-11.6201098251
 20
5.4539337508
 10
-11.6175797342
 20
5.4790637187
 10
-11.6160380021
 20
5.5044983973
 10
-11.6155069154
 20
5.5303097038
  0
LINE
  5
46B
100
AcDbEntity
  8
CURVE
100
AcDbLine
 62
252
  6
CONTINUOUS
 10
-12.615292142
 20
6.0801926588
 11
-12.5947375203
 21
6.0927503487
  0
LINE
  5
46C
100
AcDbEntity
  8
CURVE
100
AcDbLine
 62
252
  6
CONTINUOUS
 10
-13.8355070204
 20
4.5813402041
 11
-14.7877511082
 21
4.0313402041
  0
LINE
  5
46D
100
AcDbEntity
  8
CURVE
100
AcDbLine
 62
252
  6
CONTINUOUS
 10
-9.7658575302
 20
6.9313402041
 11
-10.8055070204
 21
6.3313402041
  0
LINE
  5
46E
100
AcDbEntity
  8
CURVE
100
AcDbLine
 62
252
  6
CONTINUOUS
 10
-12.5954711382
 20
6.092317595
 11
-12.5745266361
 21
6.1041163488
  0
LINE
  5
46F
100
AcDbEntity
  8
CURVE
100
AcDbLine
 62
252
  6
CONTINUOUS
 10
-12.5752187093
 20
6.1037392977
 11
-12.5538864964
 21
6.1147723965
  0
LINE
  5
470
100
AcDbEntity
  8
CURVE
100
AcDbLine
 62
252
  6
CONTINUOUS
 10
-12.5545477867
 20
6.1144428571
 11
-12.5328218294
 21
6.1247061559
  0
LINE
  5
471
100
AcDbEntity
  8
CURVE
100
AcDbLine
 62
252
  6
CONTINUOUS
 10
-12.533471302
 20
6.1244133629
 11
-12.5113440063
 21
6.1339032965
  0
LINE
  5
472
100
AcDbEntity
  8
CURVE
100
AcDbLine
 62
252
  6
CONTINUOUS
 10
-12.5120062842
 20
6.133635141
 11
-12.4894909733
 21
6.1423415081
  0
LINE
  5
473
100
AcDbEntity
  8
CURVE
100
AcDbLine
 62
252
  6
CONTINUOUS
 10
-12.4901861532
 20
6.1420894605
 11
-12.4673073199
 21
6.1499964856
  0
LWPOLYLINE
  5
474
100
AcDbEntity
  8
CURVE
100
AcDbPolyline
 62
252
  6
CONTINUOUS
 90
8
 70
0
 10
-11.9246888732
 20
4.9776711037
 10
-11.9467412599
 20
4.9646665633
 10
-11.9692886496
 20
4.9525297911
 10
-11.992293609
 20
4.9412805462
 10
-12.0157187048
 20
4.9309385877
 10
-12.0395265038
 20
4.9215236747
 10
-12.0636795728
 20
4.9130555661
 10
-12.0881408593
 20
4.9055518114
  0
LINE
  5
475
100
AcDbEntity
  8
CURVE
100
AcDbLine
 62
252
  6
CONTINUOUS
 10
-12.4680484263
 20
6.1497568265
 11
-12.4448376357
 21
6.1568439239
  0
LINE
  5
476
100
AcDbEntity
  8
CURVE
100
AcDbLine
 62
252
  6
CONTINUOUS
 10
-8.3455070204
 20
31.4813402041
 11
-10.1955070204
 21
31.4813402041
  0
LINE
  5
477
100
AcDbEntity
  8
CURVE
100
AcDbLine
 62
252
  6
CONTINUOUS
 10
-14.4055070204
 20
31.4813402041
 11
-16.2055070204
 21
31.4813402041
  0
LWPOLYLINE
  5
478
100
AcDbEntity
  8
RACCORDO
100
AcDbPolyline
 62
253
  6
CONTINUOUS
 90
25
 70
0
 10
-1.2640578253
 20
-1.8398574455
 10
-1.2647894045
 20
-1.8414204799
 10
-1.2661822345
 20
-1.8429822209
 10
-1.2682351629
 20
-1.8445413764
 10
-1.270946491
 20
-1.8460966561
 10
-1.2743139753
 20
-1.8476467732
 10
-1.2783348294
 20
-1.8491904451
 10
-1.2830057263
 20
-1.8507263944
 10
-1.288322801
 20
-1.8522533503
 10
-1.2942816539
 20
-1.8537700492
 10
-1.3008773545
 20
-1.8552752361
 10
-1.3081044451
 20
-1.8567676657
 10
-1.3159569457
 20
-1.858246103
 10
-1.3244283587
 20
-1.8597093247
 10
-1.3335116746
 20
-1.8611561199
 10
-1.3431993774
 20
-1.8625852917
 10
-1.353483451
 20
-1.8639956574
 10
-1.3643553859
 20
-1.86538605
 10
-1.3758061862
 20
-1.8667553191
 10
-1.3878263769
 20
-1.8681023317
 10
-1.400406012
 20
-1.8694259731
 10
-1.4135346825
 20
-1.8707251481
 10
-1.4272015251
 20
-1.8719987818
 10
-1.4413952313
 20
-1.8732458202
 10
-1.4561040565
 20
-1.8744652316
  0
LWPOLYLINE
  5
479
100
AcDbEntity
  8
ASSI
100
AcDbPolyline
 62
253
  6
CONTINUOUS
 90
25
 70
0
 10
-1.2640578253
 20
-1.8398574455
 10
-1.2647894045
 20
-1.8414204799
 10
-1.2661822345
 20
-1.8429822209
 10
-1.2682351629
 20
-1.8445413764
 10
-1.270946491
 20
-1.8460966561
 10
-1.2743139753
 20
-1.8476467732
 10
-1.2783348294
 20
-1.8491904451
 10
-1.2830057263
 20
-1.8507263944
 10
-1.288322801
 20
-1.8522533503
 10
-1.2942816539
 20
-1.8537700492
 10
-1.3008773545
 20
-1.8552752361
 10
-1.3081044451
 20
-1.8567676657
 10
-1.3159569457
 20
-1.858246103
 10
-1.3244283587
 20
-1.8597093247
 10
-1.3335116746
 20
-1.8611561199
 10
-1.3431993774
 20
-1.8625852917
 10
-1.353483451
 20
-1.8639956574
 10
-1.3643553859
 20
-1.86538605
 10
-1.3758061862
 20
-1.8667553191
 10
-1.3878263769
 20
-1.8681023317
 10
-1.400406012
 20
-1.8694259731
 10
-1.4135346825
 20
-1.8707251481
 10
-1.4272015251
 20
-1.8719987818
 10
-1.4413952313
 20
-1.8732458202
 10
-1.4561040565
 20
-1.8744652316
  0
LWPOLYLINE
  5
47A
100
AcDbEntity
  8
RACCORDO
100
AcDbPolyline
 62
253
  6
CONTINUOUS
 90
27
 70
0
 10
-1.2640578253
 20
38.8025378537
 10
-1.2647894042
 20
38.8041008881
 10
-1.266182234
 20
38.8056626291
 10
-1.2682351621
 20
38.8072217846
 10
-1.27094649
 20
38.8087770643
 10
-1.274313974
 20
38.8103271815
 10
-1.2783348279
 20
38.8118708534
 10
-1.2830057245
 20
38.8134068027
 10
-1.288322799
 20
38.8149337586
 10
-1.2942816518
 20
38.8164504575
 10
-1.3008773522
 20
38.8179556445
 10
-1.3081044426
 20
38.8194480741
 10
-1.315956943
 20
38.8209265114
 10
-1.3244283559
 20
38.822389733
 10
-1.3335116717
 20
38.8238365283
 10
-1.3431993743
 20
38.8252657001
 10
-1.3534834478
 20
38.8266760658
 10
-1.3643553827
 20
38.8280664585
 10
-1.3758061828
 20
38.8294357276
 10
-1.3878263735
 20
38.8307827401
 10
-1.4004060085
 20
38.8321063816
 10
-1.413534679
 20
38.8334055566
 10
-1.4272015216
 20
38.8346791903
 10
-1.4413952278
 20
38.8359262288
 10
-1.456104053
 20
38.8371456402
 10
-1.4713158265
 20
38.8383364154
 10
-1.5031974649
 20
38.8406281411
  0
LWPOLYLINE
  5
47B
100
AcDbEntity
  8
ASSI
100
AcDbPolyline
 62
253
  6
CONTINUOUS
 90
27
 70
0
 10
-1.2640578253
 20
38.8025378537
 10
-1.2647894042
 20
38.8041008881
 10
-1.266182234
 20
38.8056626291
 10
-1.2682351621
 20
38.8072217846
 10
-1.27094649
 20
38.8087770643
 10
-1.274313974
 20
38.8103271815
 10
-1.2783348279
 20
38.8118708534
 10
-1.2830057245
 20
38.8134068027
 10
-1.288322799
 20
38.8149337586
 10
-1.2942816518
 20
38.8164504575
 10
-1.3008773522
 20
38.8179556445
 10
-1.3081044426
 20
38.8194480741
 10
-1.315956943
 20
38.8209265114
 10
-1.3244283559
 20
38.822389733
 10
-1.3335116717
 20
38.8238365283
 10
-1.3431993743
 20
38.8252657001
 10
-1.3534834478
 20
38.8266760658
 10
-1.3643553827
 20
38.8280664585
 10
-1.3758061828
 20
38.8294357276
 10
-1.3878263735
 20
38.8307827401
 10
-1.4004060085
 20
38.8321063816
 10
-1.413534679
 20
38.8334055566
 10
-1.4272015216
 20
38.8346791903
 10
-1.4413952278
 20
38.8359262288
 10
-1.456104053
 20
38.8371456402
 10
-1.4713158265
 20
38.8383364154
 10
-1.5031974649
 20
38.8406281411
  0
LINE
  5
47C
100
AcDbEntity
  8
RACCORDO
100
AcDbLine
 62
253
  6
CONTINUOUS
 10
-23.0949099822
 20
38.8371456394
 11
-23.0639960739
 21
38.8394975685
  0
LINE
  5
47D
100
AcDbEntity
  8
ASSI
100
AcDbLine
 62
253
  6
CONTINUOUS
 10
-23.0949099822
 20
38.8371456394
 11
-23.0639960739
 21
38.8394975685
  0
LINE
  5
47E
100
AcDbEntity
  8
RACCORDO
100
AcDbLine
 62
253
  6
CONTINUOUS
 10
-23.0639960739
 20
38.8394975685
 11
-23.0311730859
 21
38.8417271942
  0
LINE
  5
47F
100
AcDbEntity
  8
ASSI
100
AcDbLine
 62
253
  6
CONTINUOUS
 10
-23.0639960739
 20
38.8394975685
 11
-23.0311730859
 21
38.8417271942
  0
LINE
  5
480
100
AcDbEntity
  8
RACCORDO
100
AcDbLine
 62
253
  6
CONTINUOUS
 10
-23.0311730859
 20
38.8417271942
 11
-22.9965496328
 21
38.8438271384
  0
LINE
  5
481
100
AcDbEntity
  8
ASSI
100
AcDbLine
 62
253
  6
CONTINUOUS
 10
-23.0311730859
 20
38.8417271942
 11
-22.9965496328
 21
38.8438271384
  0
LINE
  5
482
100
AcDbEntity
  8
RACCORDO
100
AcDbLine
 62
253
  6
CONTINUOUS
 10
-22.9965496328
 20
38.8438271384
 11
-22.9602402871
 21
38.8457904523
  0
LINE
  5
483
100
AcDbEntity
  8
ASSI
100
AcDbLine
 62
253
  6
CONTINUOUS
 10
-22.9965496328
 20
38.8438271384
 11
-22.9602402871
 21
38.8457904523
  0
LINE
  5
484
100
AcDbEntity
  8
RACCORDO
100
AcDbLine
 62
253
  6
CONTINUOUS
 10
-22.9602402871
 20
38.8457904523
 11
-22.9223652
 21
38.8476106389
  0
LINE
  5
485
100
AcDbEntity
  8
ASSI
100
AcDbLine
 62
253
  6
CONTINUOUS
 10
-22.9602402871
 20
38.8457904523
 11
-22.9223652
 21
38.8476106389
  0
LINE
  5
486
100
AcDbEntity
  8
RACCORDO
100
AcDbLine
 62
253
  6
CONTINUOUS
 10
-22.9223652
 20
38.8476106389
 11
-22.8830497041
 21
38.8492816752
  0
LINE
  5
487
100
AcDbEntity
  8
ASSI
100
AcDbLine
 62
253
  6
CONTINUOUS
 10
-22.9223652
 20
38.8476106389
 11
-22.8830497041
 21
38.8492816752
  0
LINE
  5
488
100
AcDbEntity
  8
RACCORDO
100
AcDbLine
 62
253
  6
CONTINUOUS
 10
-22.8830497041
 20
38.8492816752
 11
-22.8424238983
 21
38.8507980315
  0
LINE
  5
489
100
AcDbEntity
  8
ASSI
100
AcDbLine
 62
253
  6
CONTINUOUS
 10
-22.8830497041
 20
38.8492816752
 11
-22.8424238983
 21
38.8507980315
  0
LINE
  5
48A
100
AcDbEntity
  8
RACCORDO
100
AcDbLine
 62
253
  6
CONTINUOUS
 10
-22.8424238983
 20
38.8507980315
 11
-22.8006222173
 21
38.8521546899
  0
LINE
  5
48B
100
AcDbEntity
  8
ASSI
100
AcDbLine
 62
253
  6
CONTINUOUS
 10
-22.8424238983
 20
38.8507980315
 11
-22.8006222173
 21
38.8521546899
  0
LINE
  5
48C
100
AcDbEntity
  8
RACCORDO
100
AcDbLine
 62
253
  6
CONTINUOUS
 10
-22.8006222173
 20
38.8521546899
 11
-22.7577829873
 21
38.8533471613
  0
LINE
  5
48D
100
AcDbEntity
  8
ASSI
100
AcDbLine
 62
253
  6
CONTINUOUS
 10
-22.8006222173
 20
38.8521546899
 11
-22.7577829873
 21
38.8533471613
  0
LINE
  5
48E
100
AcDbEntity
  8
RACCORDO
100
AcDbLine
 62
253
  6
CONTINUOUS
 10
-22.7577829873
 20
38.8533471613
 11
-22.7140479674
 21
38.8543714996
  0
LINE
  5
48F
100
AcDbEntity
  8
ASSI
100
AcDbLine
 62
253
  6
CONTINUOUS
 10
-22.7577829873
 20
38.8533471613
 11
-22.7140479674
 21
38.8543714996
  0
LINE
  5
490
100
AcDbEntity
  8
RACCORDO
100
AcDbLine
 62
253
  6
CONTINUOUS
 10
-22.7140479674
 20
38.8543714996
 11
-22.6695618814
 21
38.8552243151
  0
LINE
  5
491
100
AcDbEntity
  8
ASSI
100
AcDbLine
 62
253
  6
CONTINUOUS
 10
-22.7140479674
 20
38.8543714996
 11
-22.6695618814
 21
38.8552243151
  0
LINE
  5
492
100
AcDbEntity
  8
RACCORDO
100
AcDbLine
 62
253
  6
CONTINUOUS
 10
-22.6695618814
 20
38.8552243151
 11
-22.6017470825
 21
38.8561759176
  0
LINE
  5
493
100
AcDbEntity
  8
ASSI
100
AcDbLine
 62
253
  6
CONTINUOUS
 10
-22.6695618814
 20
38.8552243151
 11
-22.6017470825
 21
38.8561759176
  0
LINE
  5
494
100
AcDbEntity
  8
RACCORDO
100
AcDbLine
 62
253
  6
CONTINUOUS
 10
-22.6017470825
 20
38.8561759176
 11
-22.5330788125
 21
38.8567282968
  0
LINE
  5
495
100
AcDbEntity
  8
ASSI
100
AcDbLine
 62
253
  6
CONTINUOUS
 10
-22.6017470825
 20
38.8561759176
 11
-22.5330788125
 21
38.8567282968
  0
LINE
  5
496
100
AcDbEntity
  8
RACCORDO
100
AcDbLine
 62
253
  6
CONTINUOUS
 10
-22.5330788125
 20
38.8567282968
 11
-22.4870780594
 21
38.8568726053
  0
LINE
  5
497
100
AcDbEntity
  8
ASSI
100
AcDbLine
 62
253
  6
CONTINUOUS
 10
-22.5330788125
 20
38.8567282968
 11
-22.4870780594
 21
38.8568726053
  0
LINE
  5
498
100
AcDbEntity
  8
RACCORDO
100
AcDbLine
 62
253
  6
CONTINUOUS
 10
-2.0179352277
 20
38.8567282983
 11
-22.4870780594
 21
38.8568726068
  0
LINE
  5
499
100
AcDbEntity
  8
ASSI
100
AcDbLine
 62
253
  6
CONTINUOUS
 10
-2.0179352277
 20
38.8567282983
 11
-22.4870780594
 21
38.8568726068
  0
LINE
  5
49A
100
AcDbEntity
  8
RACCORDO
100
AcDbLine
 62
253
  6
CONTINUOUS
 10
-1.9492669569
 20
38.856175919
 11
-2.0179352277
 21
38.8567282983
  0
LINE
  5
49B
100
AcDbEntity
  8
ASSI
100
AcDbLine
 62
253
  6
CONTINUOUS
 10
-1.9492669569
 20
38.856175919
 11
-2.0179352277
 21
38.8567282983
  0
LINE
  5
49C
100
AcDbEntity
  8
RACCORDO
100
AcDbLine
 62
253
  6
CONTINUOUS
 10
-1.8814521572
 20
38.8552243165
 11
-1.9492669569
 21
38.856175919
  0
LINE
  5
49D
100
AcDbEntity
  8
ASSI
100
AcDbLine
 62
253
  6
CONTINUOUS
 10
-1.8814521572
 20
38.8552243165
 11
-1.9492669569
 21
38.856175919
  0
LINE
  5
49E
100
AcDbEntity
  8
RACCORDO
100
AcDbLine
 62
253
  6
CONTINUOUS
 10
-1.814995568
 20
38.8538805735
 11
-1.8814521572
 21
38.8552243165
  0
LINE
  5
49F
100
AcDbEntity
  8
ASSI
100
AcDbLine
 62
253
  6
CONTINUOUS
 10
-1.814995568
 20
38.8538805735
 11
-1.8814521572
 21
38.8552243165
  0
LINE
  5
4A0
100
AcDbEntity
  8
RACCORDO
100
AcDbLine
 62
253
  6
CONTINUOUS
 10
-1.7716905263
 20
38.8527717098
 11
-1.814995568
 21
38.8538805735
  0
LINE
  5
4A1
100
AcDbEntity
  8
ASSI
100
AcDbLine
 62
253
  6
CONTINUOUS
 10
-1.7716905263
 20
38.8527717098
 11
-1.814995568
 21
38.8538805735
  0
LINE
  5
4A2
100
AcDbEntity
  8
RACCORDO
100
AcDbLine
 62
253
  6
CONTINUOUS
 10
-1.7293525542
 20
38.8514966173
 11
-1.7716905263
 21
38.8527717098
  0
LINE
  5
4A3
100
AcDbEntity
  8
ASSI
100
AcDbLine
 62
253
  6
CONTINUOUS
 10
-1.7293525542
 20
38.8514966173
 11
-1.7716905263
 21
38.8527717098
  0
LINE
  5
4A4
100
AcDbEntity
  8
RACCORDO
100
AcDbLine
 62
253
  6
CONTINUOUS
 10
-1.6881217522
 20
38.8500595153
 11
-1.7293525542
 21
38.8514966173
  0
LINE
  5
4A5
100
AcDbEntity
  8
ASSI
100
AcDbLine
 62
253
  6
CONTINUOUS
 10
-1.6881217522
 20
38.8500595153
 11
-1.7293525542
 21
38.8514966173
  0
LINE
  5
4A6
100
AcDbEntity
  8
RACCORDO
100
AcDbLine
 62
253
  6
CONTINUOUS
 10
-1.6481345574
 20
38.8484651594
 11
-1.6881217522
 21
38.8500595153
  0
LINE
  5
4A7
100
AcDbEntity
  8
ASSI
100
AcDbLine
 62
253
  6
CONTINUOUS
 10
-1.6481345574
 20
38.8484651594
 11
-1.6881217522
 21
38.8500595153
  0
LINE
  5
4A8
100
AcDbEntity
  8
RACCORDO
100
AcDbLine
 62
253
  6
CONTINUOUS
 10
-1.6095232912
 20
38.8467188254
 11
-1.6481345574
 21
38.8484651594
  0
LINE
  5
4A9
100
AcDbEntity
  8
ASSI
100
AcDbLine
 62
253
  6
CONTINUOUS
 10
-1.6095232912
 20
38.8467188254
 11
-1.6481345574
 21
38.8484651594
  0
LINE
  5
4AA
100
AcDbEntity
  8
RACCORDO
100
AcDbLine
 62
253
  6
CONTINUOUS
 10
-1.5724157223
 20
38.8448262921
 11
-1.6095232912
 21
38.8467188254
  0
LINE
  5
4AB
100
AcDbEntity
  8
ASSI
100
AcDbLine
 62
253
  6
CONTINUOUS
 10
-1.5724157223
 20
38.8448262921
 11
-1.6095232912
 21
38.8467188254
  0
LINE
  5
4AC
100
AcDbEntity
  8
RACCORDO
100
AcDbLine
 62
253
  6
CONTINUOUS
 10
-1.5369346434
 20
38.8427938221
 11
-1.5724157223
 21
38.8448262921
  0
LINE
  5
4AD
100
AcDbEntity
  8
ASSI
100
AcDbLine
 62
253
  6
CONTINUOUS
 10
-1.5369346434
 20
38.8427938221
 11
-1.5724157223
 21
38.8448262921
  0
LINE
  5
4AE
100
AcDbEntity
  8
RACCORDO
100
AcDbLine
 62
253
  6
CONTINUOUS
 10
-1.5031974649
 20
38.8406281411
 11
-1.5369346434
 21
38.8427938221
  0
LINE
  5
4AF
100
AcDbEntity
  8
ASSI
100
AcDbLine
 62
253
  6
CONTINUOUS
 10
-1.5031974649
 20
38.8406281411
 11
-1.5369346434
 21
38.8427938221
  0
LINE
  5
4B0
100
AcDbEntity
  8
RACCORDO
100
AcDbLine
 62
253
  6
CONTINUOUS
 10
-22.4990551477
 20
40.2547664875
 11
-2.0519588931
 21
40.2547664875
  0
LINE
  5
4B1
100
AcDbEntity
  8
ASSI
100
AcDbLine
 62
253
  6
CONTINUOUS
 10
-22.4990551477
 20
40.2547664875
 11
-2.0519588931
 21
40.2547664875
  0
LINE
  5
4B2
100
AcDbEntity
  8
RACCORDO
100
AcDbLine
 62
7
  6
CONTINUOUS
 10
-1.9753851765
 20
40.3313402041
 11
-22.5756288643
 21
40.3313402041
  0
LINE
  5
4B3
100
AcDbEntity
  8
ASSI
100
AcDbLine
 62
7
  6
CONTINUOUS
 10
-1.9753851765
 20
40.3313402041
 11
-22.5756288643
 21
40.3313402041
  0
LINE
  5
4B4
100
AcDbEntity
  8
RACCORDO
100
AcDbLine
 62
7
  6
CONTINUOUS
 10
-52.95961574
 20
-3.2920860793
 11
-48.5727104541
 21
-3.3686597959
  0
LINE
  5
4B5
100
AcDbEntity
  8
ASSI
100
AcDbLine
 62
7
  6
CONTINUOUS
 10
-52.95961574
 20
-3.2920860793
 11
-48.5727104541
 21
-3.3686597959
  0
LWPOLYLINE
  5
4B6
100
AcDbEntity
  8
RACCORDO
100
AcDbPolyline
 62
253
  6
CONTINUOUS
 90
4
 70
0
 10
-54.4270086961
 20
-1.8939084364
 10
-54.4286565532
 20
-1.8940478893
 10
-54.4296450715
 20
-1.8941425025
 10
-54.429973433
 20
-1.8941921978
  0
LWPOLYLINE
  5
4B7
100
AcDbEntity
  8
ASSI
100
AcDbPolyline
 62
253
  6
CONTINUOUS
 90
4
 70
0
 10
-54.4270086961
 20
-1.8939084364
 10
-54.4286565532
 20
-1.8940478893
 10
-54.4296450715
 20
-1.8941425025
 10
-54.429973433
 20
-1.8941921978
  0
LINE
  5
4B8
100
AcDbEntity
  8
RACCORDO
100
AcDbLine
 62
253
  6
CONTINUOUS
 10
-54.4181254474
 20
-1.8932223783
 11
-54.4270086961
 21
-1.8939084364
  0
LINE
  5
4B9
100
AcDbEntity
  8
ASSI
100
AcDbLine
 62
253
  6
CONTINUOUS
 10
-54.4181254474
 20
-1.8932223783
 11
-54.4270086961
 21
-1.8939084364
  0
LINE
  5
4BA
100
AcDbEntity
  8
RACCORDO
100
AcDbLine
 62
253
  6
CONTINUOUS
 10
-54.3137297149
 20
-1.8857847506
 11
-54.4181254474
 21
-1.8932223783
  0
LINE
  5
4BB
100
AcDbEntity
  8
ASSI
100
AcDbLine
 62
253
  6
CONTINUOUS
 10
-54.3137297149
 20
-1.8857847506
 11
-54.4181254474
 21
-1.8932223783
  0
LINE
  5
4BC
100
AcDbEntity
  8
RACCORDO
100
AcDbLine
 62
253
  6
CONTINUOUS
 10
-53.6457826692
 20
-1.8398574455
 11
-54.3137297149
 21
-1.8857847506
  0
LINE
  5
4BD
100
AcDbEntity
  8
ASSI
100
AcDbLine
 62
253
  6
CONTINUOUS
 10
-53.6457826692
 20
-1.8398574455
 11
-54.3137297149
 21
-1.8857847506
  0
LINE
  5
4BE
100
AcDbEntity
  8
RACCORDO
100
AcDbLine
 62
253
  6
CONTINUOUS
 10
-52.95961574
 20
-2.4922079232
 11
-48.5727104541
 21
-2.5687816398
  0
LINE
  5
4BF
100
AcDbEntity
  8
ASSI
100
AcDbLine
 62
253
  6
CONTINUOUS
 10
-52.95961574
 20
-2.4922079232
 11
-48.5727104541
 21
-2.5687816398
  0
LWPOLYLINE
  5
4C0
100
AcDbEntity
  8
RACCORDO
100
AcDbPolyline
 62
253
  6
CONTINUOUS
 90
64
 70
0
 10
-53.6457826692
 20
-1.8398574455
 10
-53.6444661539
 20
-1.8563209782
 10
-53.6427643708
 20
-1.8727314294
 10
-53.64067732
 20
-1.889088799
 10
-53.6382034001
 20
-1.9054023343
 10
-53.6353442125
 20
-1.921662788
 10
-53.6321045604
 20
-1.9378424185
 10
-53.6284838221
 20
-1.9539408867
 10
-53.6244826194
 20
-1.9699585317
 10
-53.6201076207
 20
-1.9858686287
 10
-53.615358204
 20
-2.0016709846
 10
-53.6102349912
 20
-2.0173657925
 10
-53.6047465175
 20
-2.0329269068
 10
-53.5988921778
 20
-2.0483540986
 10
-53.5926725771
 20
-2.0636475968
 10
-53.5860980655
 20
-2.0787819415
 10
-53.5791680461
 20
-2.0937568798
 10
-53.5718831157
 20
-2.1085726646
 10
-53.5642554154
 20
-2.1232045952
 10
-53.5562843765
 20
-2.1376523588
 10
-53.5479705676
 20
-2.1519162682
 10
-53.5393278356
 20
-2.1659725609
 10
-53.5303556305
 20
-2.1798208936
 10
-53.5210545023
 20
-2.1934616097
 10
-53.5114399481
 20
-2.206871977
 10
-53.5015114491
 20
-2.2200516072
 10
-53.491269524
 20
-2.2330008887
 10
-53.4807312262
 20
-2.2456982546
 10
-53.4698960559
 20
-2.2581432916
 10
-53.458764513
 20
-2.2703364131
 10
-53.4473551496
 20
-2.2822572923
 10
-53.4356675076
 20
-2.2939054702
 10
-53.4237020451
 20
-2.3052814059
 10
-53.4114786893
 20
-2.3163661498
 10
-53.3989970045
 20
-2.3271592213
 10
-53.3862574264
 20
-2.337661101
 10
-53.3732811888
 20
-2.3478542813
 10
-53.3600679042
 20
-2.3577382424
 10
-53.3466179601
 20
-2.3673135042
 10
-53.3329537536
 20
-2.3765641185
 10
-53.3190749219
 20
-2.3854895481
 10
-53.3049818277
 20
-2.3940903303
 10
-53.2906979555
 20
-2.4023521289
 10
-53.2762229895
 20
-2.4102743772
 10
-53.2615572454
 20
-2.4178576418
 10
-53.2467251556
 20
-2.4250892864
 10
-53.2317264354
 20
-2.4319687271
 10
-53.2165613693
 20
-2.4384965477
 10
-53.2012552427
 20
-2.4446618629
 10
-53.1858078323
 20
-2.4504640633
 10
-53.1702193613
 20
-2.4559037583
 10
-53.1545157842
 20
-2.4609718904
 10
-53.1386969033
 20
-2.4656678437
 10
-53.1227629163
 20
-2.4699922341
 10
-53.1067403701
 20
-2.4739378522
 10
-53.0906291027
 20
-2.4775040663
 10
-53.0744292762
 20
-2.4806915082
 10
-53.0581679241
 20
-2.4834948643
 10
-53.0418446537
 20
-2.4859134988
 10
-53.0254598577
 20
-2.4879480476
 10
-53.0090417472
 20
-2.489595105
 10
-52.992599726
 20
-2.4908535358
 10
-52.9761243902
 20
-2.4917244752
 10
-52.95961574
 20
-2.4922079232
  0
LWPOLYLINE
  5
4C1
100
AcDbEntity
  8
ASSI
100
AcDbPolyline
 62
253
  6
CONTINUOUS
 90
64
 70
0
 10
-53.6457826692
 20
-1.8398574455
 10
-53.6444661539
 20
-1.8563209782
 10
-53.6427643708
 20
-1.8727314294
 10
-53.64067732
 20
-1.889088799
 10
-53.6382034001
 20
-1.9054023343
 10
-53.6353442125
 20
-1.921662788
 10
-53.6321045604
 20
-1.9378424185
 10
-53.6284838221
 20
-1.9539408867
 10
-53.6244826194
 20
-1.9699585317
 10
-53.6201076207
 20
-1.9858686287
 10
-53.615358204
 20
-2.0016709846
 10
-53.6102349912
 20
-2.0173657925
 10
-53.6047465175
 20
-2.0329269068
 10
-53.5988921778
 20
-2.0483540986
 10
-53.5926725771
 20
-2.0636475968
 10
-53.5860980655
 20
-2.0787819415
 10
-53.5791680461
 20
-2.0937568798
 10
-53.5718831157
 20
-2.1085726646
 10
-53.5642554154
 20
-2.1232045952
 10
-53.5562843765
 20
-2.1376523588
 10
-53.5479705676
 20
-2.1519162682
 10
-53.5393278356
 20
-2.1659725609
 10
-53.5303556305
 20
-2.1798208936
 10
-53.5210545023
 20
-2.1934616097
 10
-53.5114399481
 20
-2.206871977
 10
-53.5015114491
 20
-2.2200516072
 10
-53.491269524
 20
-2.2330008887
 10
-53.4807312262
 20
-2.2456982546
 10
-53.4698960559
 20
-2.2581432916
 10
-53.458764513
 20
-2.2703364131
 10
-53.4473551496
 20
-2.2822572923
 10
-53.4356675076
 20
-2.2939054702
 10
-53.4237020451
 20
-2.3052814059
 10
-53.4114786893
 20
-2.3163661498
 10
-53.3989970045
 20
-2.3271592213
 10
-53.3862574264
 20
-2.337661101
 10
-53.3732811888
 20
-2.3478542813
 10
-53.3600679042
 20
-2.3577382424
 10
-53.3466179601
 20
-2.3673135042
 10
-53.3329537536
 20
-2.3765641185
 10
-53.3190749219
 20
-2.3854895481
 10
-53.3049818277
 20
-2.3940903303
 10
-53.2906979555
 20
-2.4023521289
 10
-53.2762229895
 20
-2.4102743772
 10
-53.2615572454
 20
-2.4178576418
 10
-53.2467251556
 20
-2.4250892864
 10
-53.2317264354
 20
-2.4319687271
 10
-53.2165613693
 20
-2.4384965477
 10
-53.2012552427
 20
-2.4446618629
 10
-53.1858078323
 20
-2.4504640633
 10
-53.1702193613
 20
-2.4559037583
 10
-53.1545157842
 20
-2.4609718904
 10
-53.1386969033
 20
-2.4656678437
 10
-53.1227629163
 20
-2.4699922341
 10
-53.1067403701
 20
-2.4739378522
 10
-53.0906291027
 20
-2.4775040663
 10
-53.0744292762
 20
-2.4806915082
 10
-53.0581679241
 20
-2.4834948643
 10
-53.0418446537
 20
-2.4859134988
 10
-53.0254598577
 20
-2.4879480476
 10
-53.0090417472
 20
-2.489595105
 10
-52.992599726
 20
-2.4908535358
 10
-52.9761243902
 20
-2.4917244752
 10
-52.95961574
 20
-2.4922079232
  0
LINE
  5
4C2
100
AcDbEntity
  8
RACCORDO
100
AcDbLine
 62
253
  6
CONTINUOUS
 10
-55.1178628681
 20
18.1740093729
 11
-55.1178627904
 21
18.7886700958
  0
LINE
  5
4C3
100
AcDbEntity
  8
RACCORDO
100
AcDbLine
 62
253
  6
CONTINUOUS
 10
-54.9189597562
 20
18.3313402041
 11
-54.9189597419
 21
18.6313402041
  0
LINE
  5
4C4
100
AcDbEntity
  8
0
100
AcDbLine
 62
7
  6
CONTINUOUS
 10
-54.7227104541
 20
18.3313402041
 11
-54.7227104541
 21
18.6313402041
  0
LINE
  5
4C5
100
AcDbEntity
  8
ASSI
100
AcDbLine
 62
7
  6
CONTINUOUS
 10
-54.7227104541
 20
18.3313402041
 11
-54.7227104541
 21
18.6313402041
  0
LINE
  5
4C6
100
AcDbEntity
  8
CURVE
100
AcDbLine
 62
252
  6
CONTINUOUS
 10
-54.8826188468
 20
30.481228552
 11
-54.8707322833
 21
30.7745663659
  0
LINE
  5
4C7
100
AcDbEntity
  8
CURVE
100
AcDbLine
 62
252
  6
CONTINUOUS
 10
-54.8707715826
 20
30.7736080862
 11
-54.8572696507
 21
31.0985515922
  0
LINE
  5
4C8
100
AcDbEntity
  8
CURVE
100
AcDbLine
 62
252
  6
CONTINUOUS
 10
-54.858571751
 20
31.067580978
 11
-54.8409114363
 21
31.4813402041
  0
LINE
  5
4C9
100
AcDbEntity
  8
CURVE
100
AcDbLine
 62
252
  6
CONTINUOUS
 10
-54.8409335425
 20
31.4808305294
 11
-54.8286136623
 21
31.7618364179
  0
LINE
  5
4CA
100
AcDbEntity
  8
CURVE
100
AcDbLine
 62
252
  6
CONTINUOUS
 10
-54.8160686505
 20
32.0419820147
 11
-54.815190364
 21
32.0613779738
  0
LINE
  5
4CB
100
AcDbEntity
  8
CURVE
100
AcDbLine
 62
252
  6
CONTINUOUS
 10
-54.828655637
 20
31.7608891204
 11
-54.8126380763
 21
32.1175867311
  0
LINE
  5
4CC
100
AcDbEntity
  8
CURVE
100
AcDbLine
 62
252
  6
CONTINUOUS
 10
-54.8134945867
 20
32.0987496651
 11
-54.7983320526
 21
32.4284488491
  0
LINE
  5
4CD
100
AcDbEntity
  8
CURVE
100
AcDbLine
 62
252
  6
CONTINUOUS
 10
-54.7988661347
 20
32.4169690691
 11
-54.7958685716
 21
32.4812796275
  0
LWPOLYLINE
  5
4CE
100
AcDbEntity
  8
RACCORDO
100
AcDbPolyline
 62
253
  6
CONTINUOUS
 90
22
 70
0
 10
-53.6457826692
 20
38.8025378537
 10
-53.7089151089
 20
37.852861065
 10
-53.7690251759
 20
36.9030078722
 10
-53.82611287
 20
35.9529782753
 10
-53.8801787006
 20
35.0027627634
 10
-53.9312221584
 20
34.0523708475
 10
-53.9792417152
 20
33.1018310603
 10
-54.0242372855
 20
32.1511432672
 10
-54.0662089547
 20
31.2003076028
 10
-54.1051554509
 20
30.2493530038
 10
-54.1410766819
 20
29.2982795038
 10
-54.1739727399
 20
28.3470870691
 10
-54.2038426297
 20
27.3958045359
 10
-54.2306862594
 20
26.4444319023
 10
-54.254503721
 20
25.4929691702
 10
-54.2752942956
 20
24.5414451814
 10
-54.2930578926
 20
23.5898596366
 10
-54.3077946026
 20
22.6382128352
 10
-54.3195039788
 20
21.6865345172
 10
-54.3281858723
 20
20.734834596
 10
-54.3338404321
 20
19.7831031583
 10
-54.3364676581
 20
18.8313402041
  0
LWPOLYLINE
  5
4CF
100
AcDbEntity
  8
ASSI
100
AcDbPolyline
 62
253
  6
CONTINUOUS
 90
22
 70
0
 10
-53.6457826692
 20
38.8025378537
 10
-53.7089151089
 20
37.852861065
 10
-53.7690251759
 20
36.9030078722
 10
-53.82611287
 20
35.9529782753
 10
-53.8801787006
 20
35.0027627634
 10
-53.9312221584
 20
34.0523708475
 10
-53.9792417152
 20
33.1018310603
 10
-54.0242372855
 20
32.1511432672
 10
-54.0662089547
 20
31.2003076028
 10
-54.1051554509
 20
30.2493530038
 10
-54.1410766819
 20
29.2982795038
 10
-54.1739727399
 20
28.3470870691
 10
-54.2038426297
 20
27.3958045359
 10
-54.2306862594
 20
26.4444319023
 10
-54.254503721
 20
25.4929691702
 10
-54.2752942956
 20
24.5414451814
 10
-54.2930578926
 20
23.5898596366
 10
-54.3077946026
 20
22.6382128352
 10
-54.3195039788
 20
21.6865345172
 10
-54.3281858723
 20
20.734834596
 10
-54.3338404321
 20
19.7831031583
 10
-54.3364676581
 20
18.8313402041
  0
LWPOLYLINE
  5
4D0
100
AcDbEntity
  8
RACCORDO
100
AcDbPolyline
 62
253
  6
CONTINUOUS
 90
11
 70
0
 10
-54.3343453289
 20
18.6473443153
 10
-54.3342149185
 20
18.6443369555
 10
-54.3340825005
 20
18.6416329157
 10
-54.3339482896
 20
18.6392365818
 10
-54.3338125036
 20
18.6371518406
 10
-54.3336753627
 20
18.6353820737
 10
-54.3335370894
 20
18.6339301516
 10
-54.3333979078
 20
18.6327984293
 10
-54.3332580438
 20
18.6319887425
 10
-54.3331177243
 20
18.6315024044
 10
-54.3329771768
 20
18.6313402041
  0
LWPOLYLINE
  5
4D1
100
AcDbEntity
  8
ASSI
100
AcDbPolyline
 62
253
  6
CONTINUOUS
 90
11
 70
0
 10
-54.3343453289
 20
18.6473443153
 10
-54.3342149185
 20
18.6443369555
 10
-54.3340825005
 20
18.6416329157
 10
-54.3339482896
 20
18.6392365818
 10
-54.3338125036
 20
18.6371518406
 10
-54.3336753627
 20
18.6353820737
 10
-54.3335370894
 20
18.6339301516
 10
-54.3333979078
 20
18.6327984293
 10
-54.3332580438
 20
18.6319887425
 10
-54.3331177243
 20
18.6315024044
 10
-54.3329771768
 20
18.6313402041
  0
LWPOLYLINE
  5
4D2
100
AcDbEntity
  8
RACCORDO
100
AcDbPolyline
 62
253
  6
CONTINUOUS
 90
12
 70
0
 10
-52.9632968329
 20
-3.2514253688
 10
-52.9630317702
 20
-3.2584258851
 10
-52.9627520096
 20
-3.2647783558
 10
-52.9624577879
 20
-3.2704774083
 10
-52.9621493539
 20
-3.2755182225
 10
-52.9618269684
 20
-3.2798965349
 10
-52.9614909041
 20
-3.2836086425
 10
-52.9611414452
 20
-3.2866514058
 10
-52.9607788874
 20
-3.2890222512
 10
-52.9604035371
 20
-3.2907191735
 10
-52.960015712
 20
-3.2917407375
 10
-52.95961574
 20
-3.2920860793
  0
LWPOLYLINE
  5
4D3
100
AcDbEntity
  8
ASSI
100
AcDbPolyline
 62
253
  6
CONTINUOUS
 90
12
 70
0
 10
-52.9632968329
 20
-3.2514253688
 10
-52.9630317702
 20
-3.2584258851
 10
-52.9627520096
 20
-3.2647783558
 10
-52.9624577879
 20
-3.2704774083
 10
-52.9621493539
 20
-3.2755182225
 10
-52.9618269684
 20
-3.2798965349
 10
-52.9614909041
 20
-3.2836086425
 10
-52.9611414452
 20
-3.2866514058
 10
-52.9607788874
 20
-3.2890222512
 10
-52.9604035371
 20
-3.2907191735
 10
-52.960015712
 20
-3.2917407375
 10
-52.95961574
 20
-3.2920860793
  0
LINE
  5
4D4
100
AcDbEntity
  8
RACCORDO
100
AcDbLine
 62
253
  6
CONTINUOUS
 10
-54.3345992843
 20
18.654248999
 11
-54.3343453289
 21
18.6473443153
  0
LINE
  5
4D5
100
AcDbEntity
  8
ASSI
100
AcDbLine
 62
253
  6
CONTINUOUS
 10
-54.3345992843
 20
18.654248999
 11
-54.3343453289
 21
18.6473443153
  0
LINE
  5
4D6
100
AcDbEntity
  8
RACCORDO
100
AcDbLine
 62
253
  6
CONTINUOUS
 10
-54.3348427198
 20
18.662302187
 11
-54.3345992843
 21
18.654248999
  0
LINE
  5
4D7
100
AcDbEntity
  8
ASSI
100
AcDbLine
 62
253
  6
CONTINUOUS
 10
-54.3348427198
 20
18.662302187
 11
-54.3345992843
 21
18.654248999
  0
LINE
  5
4D8
100
AcDbEntity
  8
RACCORDO
100
AcDbLine
 62
253
  6
CONTINUOUS
 10
-52.963781981
 20
-3.2355044262
 11
-52.9632968329
 21
-3.2514253688
  0
LINE
  5
4D9
100
AcDbEntity
  8
ASSI
100
AcDbLine
 62
253
  6
CONTINUOUS
 10
-52.963781981
 20
-3.2355044262
 11
-52.9632968329
 21
-3.2514253688
  0
LINE
  5
4DA
100
AcDbEntity
  8
RACCORDO
100
AcDbLine
 62
253
  6
CONTINUOUS
 10
-54.3351847155
 20
18.6764192117
 11
-54.3348427198
 21
18.662302187
  0
LINE
  5
4DB
100
AcDbEntity
  8
ASSI
100
AcDbLine
 62
253
  6
CONTINUOUS
 10
-54.3351847155
 20
18.6764192117
 11
-54.3348427198
 21
18.662302187
  0
LINE
  5
4DC
100
AcDbEntity
  8
RACCORDO
100
AcDbLine
 62
253
  6
CONTINUOUS
 10
-52.9642058128
 20
-3.2170693784
 11
-52.963781981
 21
-3.2355044262
  0
LINE
  5
4DD
100
AcDbEntity
  8
ASSI
100
AcDbLine
 62
253
  6
CONTINUOUS
 10
-52.9642058128
 20
-3.2170693784
 11
-52.963781981
 21
-3.2355044262
  0
LINE
  5
4DE
100
AcDbEntity
  8
RACCORDO
100
AcDbLine
 62
253
  6
CONTINUOUS
 10
-54.3354945204
 20
18.6927953334
 11
-54.3351847155
 21
18.6764192117
  0
LINE
  5
4DF
100
AcDbEntity
  8
ASSI
100
AcDbLine
 62
253
  6
CONTINUOUS
 10
-54.3354945204
 20
18.6927953334
 11
-54.3351847155
 21
18.6764192117
  0
LINE
  5
4E0
100
AcDbEntity
  8
RACCORDO
100
AcDbLine
 62
253
  6
CONTINUOUS
 10
-52.9645668949
 20
-3.1961825798
 11
-52.9642058128
 21
-3.2170693784
  0
LINE
  5
4E1
100
AcDbEntity
  8
ASSI
100
AcDbLine
 62
253
  6
CONTINUOUS
 10
-52.9645668949
 20
-3.1961825798
 11
-52.9642058128
 21
-3.2170693784
  0
LINE
  5
4E2
100
AcDbEntity
  8
RACCORDO
100
AcDbLine
 62
253
  6
CONTINUOUS
 10
-54.3358497866
 20
18.7177272547
 11
-54.3354945204
 21
18.6927953334
  0
LINE
  5
4E3
100
AcDbEntity
  8
ASSI
100
AcDbLine
 62
253
  6
CONTINUOUS
 10
-54.3358497866
 20
18.7177272547
 11
-54.3354945204
 21
18.6927953334
  0
LINE
  5
4E4
100
AcDbEntity
  8
RACCORDO
100
AcDbLine
 62
253
  6
CONTINUOUS
 10
-52.9649882497
 20
-3.1604120984
 11
-52.9645668949
 21
-3.1961825798
  0
LINE
  5
4E5
100
AcDbEntity
  8
ASSI
100
AcDbLine
 62
253
  6
CONTINUOUS
 10
-52.9649882497
 20
-3.1604120984
 11
-52.9645668949
 21
-3.1961825798
  0
LINE
  5
4E6
100
AcDbEntity
  8
RACCORDO
100
AcDbLine
 62
253
  6
CONTINUOUS
 10
-54.3361883478
 20
18.7529468821
 11
-54.3358497866
 21
18.7177272547
  0
LINE
  5
4E7
100
AcDbEntity
  8
ASSI
100
AcDbLine
 62
253
  6
CONTINUOUS
 10
-54.3361883478
 20
18.7529468821
 11
-54.3358497866
 21
18.7177272547
  0
LWPOLYLINE
  5
4E8
100
AcDbEntity
  8
RACCORDO
100
AcDbPolyline
 62
253
  6
CONTINUOUS
 90
21
 70
0
 10
-54.3338404321
 20
17.1795772567
 10
-54.3281858724
 20
16.2278458259
 10
-54.319503979
 20
15.2761459116
 10
-54.307794603
 20
14.3244676004
 10
-54.2930578931
 20
13.3728208058
 10
-54.2752942964
 20
12.4212352679
 10
-54.2545037221
 20
11.469711286
 10
-54.2306862609
 20
10.5182485607
 10
-54.2038426316
 20
9.566875934
 10
-54.1739727421
 20
8.6155934076
 10
-54.1410766846
 20
7.6644009797
 10
-54.1051554542
 20
6.7133274865
 10
-54.0662089585
 20
5.7623728951
 10
-54.0242372899
 20
4.8115372385
 10
-53.9792417203
 20
3.860849452
 10
-53.9312221644
 20
2.9103096744
 10
-53.8801787075
 20
1.9599177669
 10
-53.8261128767
 20
1.0097022492
 10
-53.7690251813
 20
0.0596726279
 10
-53.7089151121
 20
-0.8901806037
 10
-53.6457826692
 20
-1.8398574455
  0
LWPOLYLINE
  5
4E9
100
AcDbEntity
  8
ASSI
100
AcDbPolyline
 62
253
  6
CONTINUOUS
 90
21
 70
0
 10
-54.3338404321
 20
17.1795772567
 10
-54.3281858724
 20
16.2278458259
 10
-54.319503979
 20
15.2761459116
 10
-54.307794603
 20
14.3244676004
 10
-54.2930578931
 20
13.3728208058
 10
-54.2752942964
 20
12.4212352679
 10
-54.2545037221
 20
11.469711286
 10
-54.2306862609
 20
10.5182485607
 10
-54.2038426316
 20
9.566875934
 10
-54.1739727421
 20
8.6155934076
 10
-54.1410766846
 20
7.6644009797
 10
-54.1051554542
 20
6.7133274865
 10
-54.0662089585
 20
5.7623728951
 10
-54.0242372899
 20
4.8115372385
 10
-53.9792417203
 20
3.860849452
 10
-53.9312221644
 20
2.9103096744
 10
-53.8801787075
 20
1.9599177669
 10
-53.8261128767
 20
1.0097022492
 10
-53.7690251813
 20
0.0596726279
 10
-53.7089151121
 20
-0.8901806037
 10
-53.6457826692
 20
-1.8398574455
  0
LINE
  5
4EA
100
AcDbEntity
  8
RACCORDO
100
AcDbLine
 62
253
  6
CONTINUOUS
 10
-52.9653208567
 20
-3.1048631575
 11
-52.9649882497
 21
-3.1604120984
  0
LINE
  5
4EB
100
AcDbEntity
  8
ASSI
100
AcDbLine
 62
253
  6
CONTINUOUS
 10
-52.9653208567
 20
-3.1048631575
 11
-52.9649882497
 21
-3.1604120984
  0
LINE
  5
4EC
100
AcDbEntity
  8
RACCORDO
100
AcDbLine
 62
253
  6
CONTINUOUS
 10
-54.3364224573
 20
18.7992579479
 11
-54.3361883478
 21
18.7529468821
  0
LINE
  5
4ED
100
AcDbEntity
  8
ASSI
100
AcDbLine
 62
253
  6
CONTINUOUS
 10
-54.3364224573
 20
18.7992579479
 11
-54.3361883478
 21
18.7529468821
  0
LINE
  5
4EE
100
AcDbEntity
  8
RACCORDO
100
AcDbLine
 62
253
  6
CONTINUOUS
 10
-54.3364676581
 20
18.8313402041
 11
-54.3364224573
 21
18.7992579479
  0
LINE
  5
4EF
100
AcDbEntity
  8
ASSI
100
AcDbLine
 62
253
  6
CONTINUOUS
 10
-54.3364676581
 20
18.8313402041
 11
-54.3364224573
 21
18.7992579479
  0
LINE
  5
4F0
100
AcDbEntity
  8
0
100
AcDbLine
 62
253
  6
CONTINUOUS
 10
-54.3296914072
 20
18.3313402041
 11
-54.3296914072
 21
18.6313402041
  0
LINE
  5
4F1
100
AcDbEntity
  8
ASSI
100
AcDbLine
 62
253
  6
CONTINUOUS
 10
-54.3296914072
 20
18.3313402041
 11
-54.3296914072
 21
18.6313402041
  0
LINE
  5
4F2
100
AcDbEntity
  8
RACCORDO
100
AcDbLine
 62
253
  6
CONTINUOUS
 10
-52.9653208568
 20
39.9689571685
 11
-52.9653876038
 21
40.0366119452
  0
LINE
  5
4F3
100
AcDbEntity
  8
ASSI
100
AcDbLine
 62
253
  6
CONTINUOUS
 10
-52.9653208568
 20
39.9689571685
 11
-52.9653876038
 21
40.0366119452
  0
LINE
  5
4F4
100
AcDbEntity
  8
RACCORDO
100
AcDbLine
 62
253
  6
CONTINUOUS
 10
-54.3338404321
 20
17.1795772567
 11
-54.3364563395
 21
18.1474335189
  0
LINE
  5
4F5
100
AcDbEntity
  8
ASSI
100
AcDbLine
 62
253
  6
CONTINUOUS
 10
-54.3338404321
 20
17.1795772567
 11
-54.3364563395
 21
18.1474335189
  0
LWPOLYLINE
  5
4F6
100
AcDbEntity
  8
RACCORDO
100
AcDbPolyline
 62
253
  6
CONTINUOUS
 90
3
 70
0
 10
-52.9653208567
 20
-3.0062767623
 10
-52.9653625648
 20
-3.0238793748
 10
-52.9653208567
 20
-3.1048631575
  0
LWPOLYLINE
  5
4F7
100
AcDbEntity
  8
ASSI
100
AcDbPolyline
 62
253
  6
CONTINUOUS
 90
3
 70
0
 10
-52.9653208567
 20
-3.0062767623
 10
-52.9653625648
 20
-3.0238793748
 10
-52.9653208567
 20
-3.1048631575
  0
LINE
  5
4F8
100
AcDbEntity
  8
RACCORDO
100
AcDbLine
 62
253
  6
CONTINUOUS
 10
-54.3364563395
 20
18.1474335189
 11
-54.3362880255
 21
18.1946738067
  0
LINE
  5
4F9
100
AcDbEntity
  8
ASSI
100
AcDbLine
 62
253
  6
CONTINUOUS
 10
-54.3364563395
 20
18.1474335189
 11
-54.3362880255
 21
18.1946738067
  0
LINE
  5
4FA
100
AcDbEntity
  8
RACCORDO
100
AcDbLine
 62
253
  6
CONTINUOUS
 10
-52.9653876038
 20
40.0366119452
 11
-52.9651875885
 21
40.0964029551
  0
LINE
  5
4FB
100
AcDbEntity
  8
ASSI
100
AcDbLine
 62
253
  6
CONTINUOUS
 10
-52.9653876038
 20
40.0366119452
 11
-52.9651875885
 21
40.0964029551
  0
LINE
  5
4FC
100
AcDbEntity
  8
RACCORDO
100
AcDbLine
 62
253
  6
CONTINUOUS
 10
-52.9651875885
 20
40.0964029551
 11
-52.964864006
 21
40.1355950842
  0
LINE
  5
4FD
100
AcDbEntity
  8
ASSI
100
AcDbLine
 62
253
  6
CONTINUOUS
 10
-52.9651875885
 20
40.0964029551
 11
-52.964864006
 21
40.1355950842
  0
LINE
  5
4FE
100
AcDbEntity
  8
RACCORDO
100
AcDbLine
 62
253
  6
CONTINUOUS
 10
-54.3362880255
 20
18.1946738067
 11
-54.335927297
 21
18.2382333746
  0
LINE
  5
4FF
100
AcDbEntity
  8
ASSI
100
AcDbLine
 62
253
  6
CONTINUOUS
 10
-54.3362880255
 20
18.1946738067
 11
-54.335927297
 21
18.2382333746
  0
LINE
  5
500
100
AcDbEntity
  8
RACCORDO
100
AcDbLine
 62
253
  6
CONTINUOUS
 10
-54.335927297
 20
18.2382333746
 11
-54.3355898395
 21
18.2639647411
  0
LINE
  5
501
100
AcDbEntity
  8
ASSI
100
AcDbLine
 62
253
  6
CONTINUOUS
 10
-54.335927297
 20
18.2382333746
 11
-54.3355898395
 21
18.2639647411
  0
LINE
  5
502
100
AcDbEntity
  8
RACCORDO
100
AcDbLine
 62
253
  6
CONTINUOUS
 10
-52.964864006
 20
40.1355950842
 11
-52.964394279
 21
40.1696086315
  0
LINE
  5
503
100
AcDbEntity
  8
ASSI
100
AcDbLine
 62
253
  6
CONTINUOUS
 10
-52.964864006
 20
40.1355950842
 11
-52.964394279
 21
40.1696086315
  0
LINE
  5
504
100
AcDbEntity
  8
RACCORDO
100
AcDbLine
 62
253
  6
CONTINUOUS
 10
-54.3355898395
 20
18.2639647411
 11
-54.335291794
 21
18.2810423587
  0
LINE
  5
505
100
AcDbEntity
  8
ASSI
100
AcDbLine
 62
253
  6
CONTINUOUS
 10
-54.3355898395
 20
18.2639647411
 11
-54.335291794
 21
18.2810423587
  0
LINE
  5
506
100
AcDbEntity
  8
RACCORDO
100
AcDbLine
 62
253
  6
CONTINUOUS
 10
-52.964394279
 20
40.1696086315
 11
-52.964001656
 21
40.1892778727
  0
LINE
  5
507
100
AcDbEntity
  8
ASSI
100
AcDbLine
 62
253
  6
CONTINUOUS
 10
-52.964394279
 20
40.1696086315
 11
-52.964001656
 21
40.1892778727
  0
LINE
  5
508
100
AcDbEntity
  8
RACCORDO
100
AcDbLine
 62
253
  6
CONTINUOUS
 10
-54.335291794
 20
18.2810423587
 11
-54.3349599961
 21
18.2959369814
  0
LINE
  5
509
100
AcDbEntity
  8
ASSI
100
AcDbLine
 62
253
  6
CONTINUOUS
 10
-54.335291794
 20
18.2810423587
 11
-54.3349599961
 21
18.2959369814
  0
LWPOLYLINE
  5
50A
100
AcDbEntity
  8
RACCORDO
100
AcDbPolyline
 62
253
  6
CONTINUOUS
 90
14
 70
0
 10
-52.964001656
 20
40.1892778727
 10
-52.9635469738
 20
40.2064631355
 10
-52.963296833
 20
40.2141057765
 10
-52.9630317702
 20
40.2211062929
 10
-52.9627520097
 20
40.2274587637
 10
-52.9624577879
 20
40.2331578163
 10
-52.9621493539
 20
40.2381986305
 10
-52.9618269684
 20
40.2425769429
 10
-52.9614909041
 20
40.2462890506
 10
-52.9611414452
 20
40.2493318139
 10
-52.9607788874
 20
40.2517026593
 10
-52.9604035372
 20
40.2533995816
 10
-52.960015712
 20
40.2544211457
 10
-52.95961574
 20
40.2547664875
  0
LWPOLYLINE
  5
50B
100
AcDbEntity
  8
ASSI
100
AcDbPolyline
 62
253
  6
CONTINUOUS
 90
14
 70
0
 10
-52.964001656
 20
40.1892778727
 10
-52.9635469738
 20
40.2064631355
 10
-52.963296833
 20
40.2141057765
 10
-52.9630317702
 20
40.2211062929
 10
-52.9627520097
 20
40.2274587637
 10
-52.9624577879
 20
40.2331578163
 10
-52.9621493539
 20
40.2381986305
 10
-52.9618269684
 20
40.2425769429
 10
-52.9614909041
 20
40.2462890506
 10
-52.9611414452
 20
40.2493318139
 10
-52.9607788874
 20
40.2517026593
 10
-52.9604035372
 20
40.2533995816
 10
-52.960015712
 20
40.2544211457
 10
-52.95961574
 20
40.2547664875
  0
LINE
  5
50C
100
AcDbEntity
  8
RACCORDO
100
AcDbLine
 62
253
  6
CONTINUOUS
 10
-54.3349599961
 20
18.2959369814
 11
-54.3347224174
 21
18.3045452884
  0
LINE
  5
50D
100
AcDbEntity
  8
ASSI
100
AcDbLine
 62
253
  6
CONTINUOUS
 10
-54.3349599961
 20
18.2959369814
 11
-54.3347224174
 21
18.3045452884
  0
LWPOLYLINE
  5
50E
100
AcDbEntity
  8
RACCORDO
100
AcDbPolyline
 62
253
  6
CONTINUOUS
 90
13
 70
0
 10
-54.3347224174
 20
18.3045452884
 10
-54.3344735201
 20
18.3120302938
 10
-54.3343453288
 20
18.3153360952
 10
-54.3342149185
 20
18.3183434547
 10
-54.3340825004
 20
18.3210474942
 10
-54.3339482896
 20
18.3234438278
 10
-54.3338125036
 20
18.3255285686
 10
-54.3336753627
 20
18.3272983352
 10
-54.3335370893
 20
18.3287502571
 10
-54.3333979078
 20
18.3298819792
 10
-54.3332580438
 20
18.3306916658
 10
-54.3331177243
 20
18.3311780038
 10
-54.3329771768
 20
18.3313402041
  0
LWPOLYLINE
  5
50F
100
AcDbEntity
  8
ASSI
100
AcDbPolyline
 62
253
  6
CONTINUOUS
 90
13
 70
0
 10
-54.3347224174
 20
18.3045452884
 10
-54.3344735201
 20
18.3120302938
 10
-54.3343453288
 20
18.3153360952
 10
-54.3342149185
 20
18.3183434547
 10
-54.3340825004
 20
18.3210474942
 10
-54.3339482896
 20
18.3234438278
 10
-54.3338125036
 20
18.3255285686
 10
-54.3336753627
 20
18.3272983352
 10
-54.3335370893
 20
18.3287502571
 10
-54.3333979078
 20
18.3298819792
 10
-54.3332580438
 20
18.3306916658
 10
-54.3331177243
 20
18.3311780038
 10
-54.3329771768
 20
18.3313402041
  0
LINE
  5
510
100
AcDbEntity
  8
RACCORDO
100
AcDbLine
 62
253
  6
CONTINUOUS
 10
-52.95961574
 20
39.4548883314
 11
-52.9614909041
 21
39.5707938438
  0
LINE
  5
511
100
AcDbEntity
  8
ASSI
100
AcDbLine
 62
253
  6
CONTINUOUS
 10
-52.95961574
 20
39.4548883314
 11
-52.9614909041
 21
39.5707938438
  0
LINE
  5
512
100
AcDbEntity
  8
RACCORDO
100
AcDbLine
 62
253
  6
CONTINUOUS
 10
-52.9614909041
 20
39.5707938438
 11
-52.9630317702
 21
39.6842527593
  0
LINE
  5
513
100
AcDbEntity
  8
ASSI
100
AcDbLine
 62
253
  6
CONTINUOUS
 10
-52.9614909041
 20
39.5707938438
 11
-52.9630317702
 21
39.6842527593
  0
LINE
  5
514
100
AcDbEntity
  8
RACCORDO
100
AcDbLine
 62
253
  6
CONTINUOUS
 10
-52.9630317702
 20
39.6842527593
 11
-52.9642058129
 21
39.7928701248
  0
LINE
  5
515
100
AcDbEntity
  8
ASSI
100
AcDbLine
 62
253
  6
CONTINUOUS
 10
-52.9630317702
 20
39.6842527593
 11
-52.9642058129
 21
39.7928701248
  0
LINE
  5
516
100
AcDbEntity
  8
RACCORDO
100
AcDbLine
 62
253
  6
CONTINUOUS
 10
-52.9642058129
 20
39.7928701248
 11
-52.9649882498
 21
39.8943531855
  0
LINE
  5
517
100
AcDbEntity
  8
ASSI
100
AcDbLine
 62
253
  6
CONTINUOUS
 10
-52.9642058129
 20
39.7928701248
 11
-52.9649882498
 21
39.8943531855
  0
LINE
  5
518
100
AcDbEntity
  8
RACCORDO
100
AcDbLine
 62
253
  6
CONTINUOUS
 10
-52.9649882498
 20
39.8943531855
 11
-52.9653208568
 21
39.9689571685
  0
LINE
  5
519
100
AcDbEntity
  8
ASSI
100
AcDbLine
 62
253
  6
CONTINUOUS
 10
-52.9649882498
 20
39.8943531855
 11
-52.9653208568
 21
39.9689571685
  0
LINE
  5
51A
100
AcDbEntity
  8
RACCORDO
100
AcDbLine
 62
253
  6
CONTINUOUS
 10
-52.9647235147
 20
-2.8920766872
 11
-52.9653208567
 21
-3.0062767623
  0
LINE
  5
51B
100
AcDbEntity
  8
ASSI
100
AcDbLine
 62
253
  6
CONTINUOUS
 10
-52.9647235147
 20
-2.8920766872
 11
-52.9653208567
 21
-3.0062767623
  0
LINE
  5
51C
100
AcDbEntity
  8
RACCORDO
100
AcDbLine
 62
253
  6
CONTINUOUS
 10
-52.9630317702
 20
-2.7215723528
 11
-52.9647235147
 21
-2.8920766872
  0
LINE
  5
51D
100
AcDbEntity
  8
ASSI
100
AcDbLine
 62
253
  6
CONTINUOUS
 10
-52.9630317702
 20
-2.7215723528
 11
-52.9647235147
 21
-2.8920766872
  0
LWPOLYLINE
  5
51E
100
AcDbEntity
  8
RACCORDO
100
AcDbPolyline
 62
253
  6
CONTINUOUS
 90
3
 70
0
 10
-52.95961574
 20
-2.4922079232
 10
-52.960015712
 20
-2.5154676457
 10
-52.9630317702
 20
-2.7215723528
  0
LWPOLYLINE
  5
51F
100
AcDbEntity
  8
ASSI
100
AcDbPolyline
 62
253
  6
CONTINUOUS
 90
3
 70
0
 10
-52.95961574
 20
-2.4922079232
 10
-52.960015712
 20
-2.5154676457
 10
-52.9630317702
 20
-2.7215723528
  0
LINE
  5
520
100
AcDbEntity
  8
DRAFT
100
AcDbLine
 62
7
  6
CONTINUOUS
 10
-48.5727104541
 20
17.2453028948
 11
-43.5727104541
 21
17.2627562582
  0
LINE
  5
521
100
AcDbEntity
  8
RACCORDO
100
AcDbLine
 62
253
  6
CONTINUOUS
 10
-54.3364676575
 20
18.1313402041
 11
-55.1225059745
 21
18.1311067158
  0
LINE
  5
522
100
AcDbEntity
  8
ASSI
100
AcDbLine
 62
253
  6
CONTINUOUS
 10
-54.3364676575
 20
18.1313402041
 11
-55.1225059745
 21
18.1311067158
  0
LINE
  5
523
100
AcDbEntity
  8
RACCORDO
100
AcDbLine
 62
253
  6
CONTINUOUS
 10
-48.5727104541
 20
18.1313402041
 11
-54.3364676581
 21
18.1313402041
  0
LINE
  5
524
100
AcDbEntity
  8
ASSI
100
AcDbLine
 62
253
  6
CONTINUOUS
 10
-48.5727104541
 20
18.1313402041
 11
-54.3364676581
 21
18.1313402041
  0
LINE
  5
525
100
AcDbEntity
  8
RACCORDO
100
AcDbLine
 62
7
  6
CONTINUOUS
 10
-48.5727104541
 20
18.3313402041
 11
-54.9225061469
 21
18.3313402041
  0
LINE
  5
526
100
AcDbEntity
  8
ASSI
100
AcDbLine
 62
7
  6
CONTINUOUS
 10
-48.5727104541
 20
18.3313402041
 11
-54.9225061469
 21
18.3313402041
  0
LINE
  5
527
100
AcDbEntity
  8
RACCORDO
100
AcDbLine
 62
7
  6
CONTINUOUS
 10
-54.9225061469
 20
18.6313402041
 11
-48.5727104541
 21
18.6313402041
  0
LINE
  5
528
100
AcDbEntity
  8
ASSI
100
AcDbLine
 62
7
  6
CONTINUOUS
 10
-54.9225061469
 20
18.6313402041
 11
-48.5727104541
 21
18.6313402041
  0
LINE
  5
529
100
AcDbEntity
  8
RACCORDO
100
AcDbLine
 62
7
  6
CONTINUOUS
 10
-48.5727104541
 20
40.3313402041
 11
-48.5727104541
 21
18.6314777285
  0
LINE
  5
52A
100
AcDbEntity
  8
RACCORDO
100
AcDbLine
 62
7
  6
CONTINUOUS
 10
-48.5727104541
 20
18.3313402041
 11
-48.5727104541
 21
-3.3686597959
  0
LINE
  5
52B
100
AcDbEntity
  8
0
100
AcDbLine
 62
7
  6
CONTINUOUS
 10
-48.5727104541
 20
18.3313402041
 11
-48.5727104541
 21
18.6313402041
  0
LINE
  5
52C
100
AcDbEntity
  8
ASSI
100
AcDbLine
 62
7
  6
CONTINUOUS
 10
-48.5727104541
 20
-3.3686597959
 11
-48.5727104541
 21
40.3313402041
  0
LINE
  5
52D
100
AcDbEntity
  8
RACCORDO
100
AcDbLine
 62
253
  6
CONTINUOUS
 10
-54.3364676581
 20
18.8313402041
 11
-48.5727104541
 21
18.8313402041
  0
LINE
  5
52E
100
AcDbEntity
  8
ASSI
100
AcDbLine
 62
253
  6
CONTINUOUS
 10
-54.3364676581
 20
18.8313402041
 11
-48.5727104541
 21
18.8313402041
  0
LINE
  5
52F
100
AcDbEntity
  8
RACCORDO
100
AcDbLine
 62
253
  6
CONTINUOUS
 10
-55.1225059745
 20
18.8315736924
 11
-54.3364676575
 21
18.8313402041
  0
LINE
  5
530
100
AcDbEntity
  8
ASSI
100
AcDbLine
 62
253
  6
CONTINUOUS
 10
-55.1225059745
 20
18.8315736924
 11
-54.3364676575
 21
18.8313402041
  0
LINE
  5
531
100
AcDbEntity
  8
DRAFT
100
AcDbLine
 62
7
  6
CONTINUOUS
 10
-48.5727104541
 20
19.7173775134
 11
-43.5727104541
 21
19.6999241499
  0
LINE
  5
532
100
AcDbEntity
  8
DRAFT
100
AcDbLine
 62
7
  6
CONTINUOUS
 10
-43.5727104541
 20
19.6999241499
 11
-43.5727104541
 21
17.2627562582
  0
LWPOLYLINE
  5
533
100
AcDbEntity
  8
RACCORDO
100
AcDbPolyline
 62
253
  6
CONTINUOUS
 90
64
 70
0
 10
-52.95961574
 20
39.4548883314
 10
-52.9761254259
 20
39.4544048091
 10
-52.9926015397
 20
39.4535338002
 10
-53.0090440817
 20
39.4522753048
 10
-53.0254623701
 20
39.4506281897
 10
-53.0418470866
 20
39.448593588
 10
-53.0581702758
 20
39.4461748993
 10
-53.0744316302
 20
39.4433714852
 10
-53.0906314574
 20
39.4401839842
 10
-53.1067427245
 20
39.436617711
 10
-53.12276527
 20
39.4326720341
 10
-53.1386992554
 20
39.428347585
 10
-53.1545181328
 20
39.4236515729
 10
-53.1702217043
 20
39.4185833814
 10
-53.1858101678
 20
39.4131436269
 10
-53.2012575693
 20
39.4073413669
 10
-53.2165636859
 20
39.4011759921
 10
-53.2317287404
 20
39.3946481119
 10
-53.2467274477
 20
39.3877686114
 10
-53.2615595234
 20
39.3805369071
 10
-53.2762252519
 20
39.3729535825
 10
-53.2907002009
 20
39.3650312743
 10
-53.3049840547
 20
39.356769416
 10
-53.319077129
 20
39.3481685741
 10
-53.3329559391
 20
39.3392430851
 10
-53.3466201226
 20
39.3299924115
 10
-53.3600700419
 20
39.3204170908
 10
-53.3732832987
 20
39.3105330725
 10
-53.386259505
 20
39.3003398368
 10
-53.3989990489
 20
39.2898379034
 10
-53.4114806963
 20
39.2790447807
 10
-53.4237040115
 20
39.2679599883
 10
-53.4356694302
 20
39.2565840067
 10
-53.4473570258
 20
39.2449357858
 10
-53.4587663399
 20
39.2330148667
 10
-53.469897831
 20
39.2208217083
 10
-53.4807329474
 20
39.2083766374
 10
-53.4912711895
 20
39.1956792409
 10
-53.5015130569
 20
39.1827299317
 10
-53.5114414979
 20
39.1695502756
 10
-53.5210559939
 20
39.1561398837
 10
-53.5303570635
 20
39.1424991448
 10
-53.5393292097
 20
39.1286507907
 10
-53.5479718828
 20
39.114594478
 10
-53.5562856326
 20
39.1003305502
 10
-53.5642566125
 20
39.0858827694
 10
-53.5718842538
 20
39.071250823
 10
-53.5791691252
 20
39.0564350237
 10
-53.5860990857
 20
39.0414600724
 10
-53.5926735382
 20
39.0263257159
 10
-53.5988930798
 20
39.0110322073
 10
-53.6047473605
 20
38.9956050069
 10
-53.6102357756
 20
38.9800438863
 10
-53.6153589298
 20
38.9643490739
 10
-53.620108288
 20
38.9485467143
 10
-53.6244832276
 20
38.9326366141
 10
-53.6284843712
 20
38.9166189668
 10
-53.6321050516
 20
38.9005204979
 10
-53.6353446537
 20
38.8843407836
 10
-53.6382037925
 20
38.8680802478
 10
-53.6406776457
 20
38.8517668871
 10
-53.6427646058
 20
38.8354100341
 10
-53.6444662803
 20
38.8190003562
 10
-53.6457826692
 20
38.8025378537
  0
LWPOLYLINE
  5
534
100
AcDbEntity
  8
ASSI
100
AcDbPolyline
 62
253
  6
CONTINUOUS
 90
64
 70
0
 10
-52.95961574
 20
39.4548883314
 10
-52.9761254259
 20
39.4544048091
 10
-52.9926015397
 20
39.4535338002
 10
-53.0090440817
 20
39.4522753048
 10
-53.0254623701
 20
39.4506281897
 10
-53.0418470866
 20
39.448593588
 10
-53.0581702758
 20
39.4461748993
 10
-53.0744316302
 20
39.4433714852
 10
-53.0906314574
 20
39.4401839842
 10
-53.1067427245
 20
39.436617711
 10
-53.12276527
 20
39.4326720341
 10
-53.1386992554
 20
39.428347585
 10
-53.1545181328
 20
39.4236515729
 10
-53.1702217043
 20
39.4185833814
 10
-53.1858101678
 20
39.4131436269
 10
-53.2012575693
 20
39.4073413669
 10
-53.2165636859
 20
39.4011759921
 10
-53.2317287404
 20
39.3946481119
 10
-53.2467274477
 20
39.3877686114
 10
-53.2615595234
 20
39.3805369071
 10
-53.2762252519
 20
39.3729535825
 10
-53.2907002009
 20
39.3650312743
 10
-53.3049840547
 20
39.356769416
 10
-53.319077129
 20
39.3481685741
 10
-53.3329559391
 20
39.3392430851
 10
-53.3466201226
 20
39.3299924115
 10
-53.3600700419
 20
39.3204170908
 10
-53.3732832987
 20
39.3105330725
 10
-53.386259505
 20
39.3003398368
 10
-53.3989990489
 20
39.2898379034
 10
-53.4114806963
 20
39.2790447807
 10
-53.4237040115
 20
39.2679599883
 10
-53.4356694302
 20
39.2565840067
 10
-53.4473570258
 20
39.2449357858
 10
-53.4587663399
 20
39.2330148667
 10
-53.469897831
 20
39.2208217083
 10
-53.4807329474
 20
39.2083766374
 10
-53.4912711895
 20
39.1956792409
 10
-53.5015130569
 20
39.1827299317
 10
-53.5114414979
 20
39.1695502756
 10
-53.5210559939
 20
39.1561398837
 10
-53.5303570635
 20
39.1424991448
 10
-53.5393292097
 20
39.1286507907
 10
-53.5479718828
 20
39.114594478
 10
-53.5562856326
 20
39.1003305502
 10
-53.5642566125
 20
39.0858827694
 10
-53.5718842538
 20
39.071250823
 10
-53.5791691252
 20
39.0564350237
 10
-53.5860990857
 20
39.0414600724
 10
-53.5926735382
 20
39.0263257159
 10
-53.5988930798
 20
39.0110322073
 10
-53.6047473605
 20
38.9956050069
 10
-53.6102357756
 20
38.9800438863
 10
-53.6153589298
 20
38.9643490739
 10
-53.620108288
 20
38.9485467143
 10
-53.6244832276
 20
38.9326366141
 10
-53.6284843712
 20
38.9166189668
 10
-53.6321050516
 20
38.9005204979
 10
-53.6353446537
 20
38.8843407836
 10
-53.6382037925
 20
38.8680802478
 10
-53.6406776457
 20
38.8517668871
 10
-53.6427646058
 20
38.8354100341
 10
-53.6444662803
 20
38.8190003562
 10
-53.6457826692
 20
38.8025378537
  0
LINE
  5
535
100
AcDbEntity
  8
RACCORDO
100
AcDbLine
 62
253
  6
CONTINUOUS
 10
-48.5727104541
 20
39.531462048
 11
-52.95961574
 21
39.4548883314
  0
LINE
  5
536
100
AcDbEntity
  8
ASSI
100
AcDbLine
 62
253
  6
CONTINUOUS
 10
-48.5727104541
 20
39.531462048
 11
-52.95961574
 21
39.4548883314
  0
LINE
  5
537
100
AcDbEntity
  8
RACCORDO
100
AcDbLine
 62
7
  6
CONTINUOUS
 10
-48.5727104541
 20
40.3313402041
 11
-52.95961574
 21
40.2547664875
  0
LINE
  5
538
100
AcDbEntity
  8
ASSI
100
AcDbLine
 62
7
  6
CONTINUOUS
 10
-48.5727104541
 20
40.3313402041
 11
-52.95961574
 21
40.2547664875
  0
LINE
  5
539
100
AcDbEntity
  8
RACCORDO
100
AcDbLine
 62
253
  6
CONTINUOUS
 10
-53.6457826692
 20
38.8025378537
 11
-54.0966059962
 21
38.8334055566
  0
LINE
  5
53A
100
AcDbEntity
  8
ASSI
100
AcDbLine
 62
253
  6
CONTINUOUS
 10
-53.6457826692
 20
38.8025378537
 11
-54.0966059962
 21
38.8334055566
  0
LINE
  5
53B
100
AcDbEntity
  8
RACCORDO
100
AcDbLine
 62
253
  6
CONTINUOUS
 10
-54.0966059962
 20
38.8334055566
 11
-54.4033898159
 21
38.8548195389
  0
LINE
  5
53C
100
AcDbEntity
  8
ASSI
100
AcDbLine
 62
253
  6
CONTINUOUS
 10
-54.0966059962
 20
38.8334055566
 11
-54.4033898159
 21
38.8548195389
  0
LWPOLYLINE
  5
53D
100
AcDbEntity
  8
RACCORDO
100
AcDbPolyline
 62
253
  6
CONTINUOUS
 90
6
 70
0
 10
-54.4033898159
 20
38.8548195389
 10
-54.4247028757
 20
38.8564046681
 10
-54.4270087082
 20
38.8565888453
 10
-54.4286565654
 20
38.8567282983
 10
-54.4296450837
 20
38.8568229115
 10
-54.4299734453
 20
38.8568726068
  0
LWPOLYLINE
  5
53E
100
AcDbEntity
  8
ASSI
100
AcDbPolyline
 62
253
  6
CONTINUOUS
 90
6
 70
0
 10
-54.4033898159
 20
38.8548195389
 10
-54.4247028757
 20
38.8564046681
 10
-54.4270087082
 20
38.8565888453
 10
-54.4286565654
 20
38.8567282983
 10
-54.4296450837
 20
38.8568229115
 10
-54.4299734453
 20
38.8568726068
  0
ARC
  5
53F
100
AcDbEntity
  8
RACCORDO
100
AcDbCircle
 62
7
  6
CONTINUOUS
 10
-12.2755070204
 20
18.4813402041
 40
1.4
100
AcDbArc
 50
12.635625093
 51
167.364374907
  0
ARC
  5
540
100
AcDbEntity
  8
RACCORDO
100
AcDbCircle
 62
7
  6
CONTINUOUS
 10
-12.2755070204
 20
18.4813402041
 40
1.4
100
AcDbArc
 50
192.635625093
 51
347.364374907
  0
ARC
  5
541
100
AcDbEntity
  8
ASSI
100
AcDbCircle
 62
7
  6
CONTINUOUS
 10
-12.2755070204
 20
18.4813402041
 40
1.4
100
AcDbArc
 50
12.635625093
 51
167.364374907
  0
ARC
  5
542
100
AcDbEntity
  8
ASSI
100
AcDbCircle
 62
7
  6
CONTINUOUS
 10
-12.2755070204
 20
18.4813402041
 40
1.4
100
AcDbArc
 50
192.635625093
 51
347.364374907
  0
CIRCLE
  5
543
100
AcDbEntity
  8
0
100
AcDbCircle
 62
7
  6
CONTINUOUS
 10
-12.2755070204
 20
18.4813402041
 40
1.25
  0
CIRCLE
  5
544
100
AcDbEntity
  8
ASSI
100
AcDbCircle
 62
7
  6
CONTINUOUS
 10
-12.2755070204
 20
18.4813402041
 40
1.25
  0
CIRCLE
  5
545
100
AcDbEntity
  8
RACCORDO
100
AcDbCircle
 62
7
  6
CONTINUOUS
 10
-12.2755070204
 20
18.4813402041
 40
1.225
  0
CIRCLE
  5
546
100
AcDbEntity
  8
RACCORDO
100
AcDbCircle
 62
253
  6
CONTINUOUS
 10
-12.2755070204
 20
18.4813402041
 40
1.0459181267
  0
ARC
  5
547
100
AcDbEntity
  8
RACCORDO
100
AcDbCircle
 62
7
  6
CONTINUOUS
 10
-10.7142575208
 20
18.8313402041
 40
0.2
100
AcDbArc
 50
192.635625093
 51
270.0
  0
ARC
  5
548
100
AcDbEntity
  8
RACCORDO
100
AcDbCircle
 62
7
  6
CONTINUOUS
 10
-13.83675652
 20
18.8313402041
 40
0.2
100
AcDbArc
 50
270.0
 51
347.364374907
  0
ARC
  5
549
100
AcDbEntity
  8
RACCORDO
100
AcDbCircle
 62
7
  6
CONTINUOUS
 10
-13.83675652
 20
18.1313402041
 40
0.2
100
AcDbArc
 50
12.635625093
 51
90.0
  0
ARC
  5
54A
100
AcDbEntity
  8
RACCORDO
100
AcDbCircle
 62
7
  6
CONTINUOUS
 10
-10.7142575208
 20
18.1313402041
 40
0.2
100
AcDbArc
 50
90.0
 51
167.364374907
  0
ARC
  5
54B
100
AcDbEntity
  8
ASSI
100
AcDbCircle
 62
7
  6
CONTINUOUS
 10
-10.7142575208
 20
18.8313402041
 40
0.2
100
AcDbArc
 50
192.635625093
 51
270.0
  0
ARC
  5
54C
100
AcDbEntity
  8
ASSI
100
AcDbCircle
 62
7
  6
CONTINUOUS
 10
-13.83675652
 20
18.8313402041
 40
0.2
100
AcDbArc
 50
270.0
 51
347.364374907
  0
ARC
  5
54D
100
AcDbEntity
  8
ASSI
100
AcDbCircle
 62
7
  6
CONTINUOUS
 10
-13.83675652
 20
18.1313402041
 40
0.2
100
AcDbArc
 50
12.635625093
 51
90.0
  0
ARC
  5
54E
100
AcDbEntity
  8
ASSI
100
AcDbCircle
 62
7
  6
CONTINUOUS
 10
-10.7142575208
 20
18.1313402041
 40
0.2
100
AcDbArc
 50
90.0
 51
167.364374907
  0
ARC
  5
54F
100
AcDbEntity
  8
RACCORDO
100
AcDbCircle
 62
7
  6
CONTINUOUS
 10
-52.9334371304
 20
-1.7923145366
 40
1.5
100
AcDbArc
 50
183.894438081
 51
269.0
  0
ARC
  5
550
100
AcDbEntity
  8
ASSI
100
AcDbCircle
 62
7
  6
CONTINUOUS
 10
-52.9334371304
 20
-1.7923145366
 40
1.5
100
AcDbArc
 50
183.894438081
 51
269.0
  0
ARC
  5
551
100
AcDbEntity
  8
RACCORDO
100
AcDbCircle
 62
7
  6
CONTINUOUS
 10
-54.9225061511
 20
18.1313402041
 40
0.2
100
AcDbArc
 50
89.9999987778
 51
180.0668895882
  0
ARC
  5
552
100
AcDbEntity
  8
ASSI
100
AcDbCircle
 62
7
  6
CONTINUOUS
 10
-54.9225061511
 20
18.1313402041
 40
0.2
100
AcDbArc
 50
89.9999987778
 51
180.0668895882
  0
ARC
  5
553
100
AcDbEntity
  8
RACCORDO
100
AcDbCircle
 62
7
  6
CONTINUOUS
 10
-45.1727104541
 20
18.4813402041
 40
10.0
100
AcDbArc
 50
174.1588632292
 51
185.8411367708
  0
ARC
  5
554
100
AcDbEntity
  8
RACCORDO
100
AcDbCircle
 62
7
  6
CONTINUOUS
 10
-52.9334371304
 20
38.7549949447
 40
1.5
100
AcDbArc
 50
91.0
 51
176.105561919
  0
ARC
  5
555
100
AcDbEntity
  8
ASSI
100
AcDbCircle
 62
7
  6
CONTINUOUS
 10
-52.9334371304
 20
38.7549949447
 40
1.5
100
AcDbArc
 50
91.0
 51
176.105561919
  0
ARC
  5
556
100
AcDbEntity
  8
RACCORDO
100
AcDbCircle
 62
7
  6
CONTINUOUS
 10
-54.9225061139
 20
18.8313402041
 40
0.2
100
AcDbArc
 50
179.9331104236
 51
269.9999905681
  0
ARC
  5
557
100
AcDbEntity
  8
ASSI
100
AcDbCircle
 62
7
  6
CONTINUOUS
 10
-54.9225061139
 20
18.8313402041
 40
0.2
100
AcDbArc
 50
179.9331104236
 51
269.9999905681
  0
ARC
  5
558
100
AcDbEntity
  8
RACCORDO
100
AcDbCircle
 62
7
  6
CONTINUOUS
 10
244.8772895459
 20
18.4813402041
 40
300.0
100
AcDbArc
 50
176.105561919
 51
179.9331103157
  0
ARC
  5
559
100
AcDbEntity
  8
RACCORDO
100
AcDbCircle
 62
7
  6
CONTINUOUS
 10
244.8772895459
 20
18.4813402041
 40
300.0
100
AcDbArc
 50
180.0668896843
 51
183.894438081
  0
ARC
  5
55A
100
AcDbEntity
  8
ASSI
100
AcDbCircle
 62
7
  6
CONTINUOUS
 10
244.8772895459
 20
18.4813402041
 40
300.0
100
AcDbArc
 50
176.105561919
 51
179.9331103157
  0
ARC
  5
55B
100
AcDbEntity
  8
ASSI
100
AcDbCircle
 62
7
  6
CONTINUOUS
 10
244.8772895459
 20
18.4813402041
 40
300.0
100
AcDbArc
 50
180.0668896843
 51
183.894438081
  0
ARC
  5
55C
100
AcDbEntity
  8
CURVE
100
AcDbCircle
 62
252
  6
CONTINUOUS
 10
244.8772895459
 20
18.4813402041
 40
300.0
100
AcDbArc
 50
177.0086527041
 51
177.109156482
  0
ARC
  5
55D
100
AcDbEntity
  8
CURVE
100
AcDbCircle
 62
252
  6
CONTINUOUS
 10
244.8772895459
 20
18.4813402041
 40
300.0
100
AcDbArc
 50
182.8086178769
 51
183.0380997849
  0
ARC
  5
55E
100
AcDbEntity
  8
CURVE
100
AcDbCircle
 62
252
  6
CONTINUOUS
 10
244.8772895459
 20
18.4813402041
 40
300.0
100
AcDbArc
 50
177.9139728022
 51
178.088884097
  0
ELLIPSE
  5
55F
100
AcDbEntity
  8
RACCORDO
100
AcDbEllipse
 62
7
  6
CONTINUOUS
 10
-23.1754765548
 20
18.8313402041
 30
0.0
 11
0.2000304656
 21
0.0
 31
0.0
 40
0.9998476952
 41
-3.1415926536
 42
-1.5707963268
  0
ELLIPSE
  5
560
100
AcDbEntity
  8
RACCORDO
100
AcDbEllipse
 62
7
  6
CONTINUOUS
 10
-1.375537486
 20
18.8313402041
 30
0.0
 11
0.2000304656
 21
-0.0
 31
0.0
 40
0.9998476952
 41
-1.5707963268
 42
0.0
  0
ELLIPSE
  5
561
100
AcDbEntity
  8
RACCORDO
100
AcDbEllipse
 62
7
  6
CONTINUOUS
 10
-1.375537486
 20
18.1313402041
 30
0.0
 11
0.2000304656
 21
0.0
 31
0.0
 40
0.9998476952
 41
0.0
 42
1.5707963268
  0
ELLIPSE
  5
562
100
AcDbEntity
  8
RACCORDO
100
AcDbEllipse
 62
7
  6
CONTINUOUS
 10
-23.1754765548
 20
18.1313402041
 30
0.0
 11
0.2000304656
 21
0.0
 31
0.0
 40
0.9998476952
 41
1.5707963268
 42
3.1415926536
  0
ELLIPSE
  5
563
100
AcDbEntity
  8
RACCORDO
100
AcDbEllipse
 62
7
  6
CONTINUOUS
 10
-22.575385158
 20
-2.5685379335
 30
0.0
 11
0.5658577513
 21
0.5658577513
 31
0.0
 40
0.9996954599
 41
-3.9268385237
 42
-2.3563467834
  0
ELLIPSE
  5
564
100
AcDbEntity
  8
RACCORDO
100
AcDbEllipse
 62
7
  6
CONTINUOUS
 10
-22.575385158
 20
39.5312183416
 30
0.0
 11
-0.5658577513
 21
0.5658577513
 31
0.0
 40
0.9996954599
 41
-0.7852458701
 42
0.7852458702
  0
ELLIPSE
  5
565
100
AcDbEntity
  8
RACCORDO
100
AcDbEllipse
 62
7
  6
CONTINUOUS
 10
-1.9756288828
 20
39.5312183416
 30
0.0
 11
0.5658577513
 21
0.5658577513
 31
0.0
 40
0.9996954599
 41
-0.7852458702
 42
0.7852458701
  0
ELLIPSE
  5
566
100
AcDbEntity
  8
RACCORDO
100
AcDbEllipse
 62
7
  6
CONTINUOUS
 10
-1.9756288828
 20
-2.5685379335
 30
0.0
 11
-0.5658577513
 21
0.5658577513
 31
0.0
 40
0.9996954599
 41
-3.9268385237
 42
-2.3563467834
  0
ELLIPSE
  5
567
100
AcDbEntity
  8
ASSI
100
AcDbEllipse
 62
7
  6
CONTINUOUS
 10
-23.1754765548
 20
18.8313402041
 30
0.0
 11
0.2000304656
 21
0.0
 31
0.0
 40
0.9998476952
 41
-3.1415926536
 42
-1.5707963268
  0
ELLIPSE
  5
568
100
AcDbEntity
  8
ASSI
100
AcDbEllipse
 62
7
  6
CONTINUOUS
 10
-1.375537486
 20
18.8313402041
 30
0.0
 11
0.2000304656
 21
-0.0
 31
0.0
 40
0.9998476952
 41
-1.5707963268
 42
0.0
  0
ELLIPSE
  5
569
100
AcDbEntity
  8
ASSI
100
AcDbEllipse
 62
7
  6
CONTINUOUS
 10
-1.375537486
 20
18.1313402041
 30
0.0
 11
0.2000304656
 21
0.0
 31
0.0
 40
0.9998476952
 41
0.0
 42
1.5707963268
  0
ELLIPSE
  5
56A
100
AcDbEntity
  8
ASSI
100
AcDbEllipse
 62
7
  6
CONTINUOUS
 10
-23.1754765548
 20
18.1313402041
 30
0.0
 11
0.2000304656
 21
0.0
 31
0.0
 40
0.9998476952
 41
1.5707963268
 42
3.1415926536
  0
ELLIPSE
  5
56B
100
AcDbEntity
  8
ASSI
100
AcDbEllipse
 62
7
  6
CONTINUOUS
 10
-22.575385158
 20
-2.5685379335
 30
0.0
 11
0.5658577513
 21
0.5658577513
 31
0.0
 40
0.9996954599
 41
-3.9268385237
 42
-2.3563467834
  0
ELLIPSE
  5
56C
100
AcDbEntity
  8
ASSI
100
AcDbEllipse
 62
7
  6
CONTINUOUS
 10
-22.575385158
 20
39.5312183416
 30
0.0
 11
-0.5658577513
 21
0.5658577513
 31
0.0
 40
0.9996954599
 41
-0.7852458701
 42
0.7852458702
  0
ELLIPSE
  5
56D
100
AcDbEntity
  8
ASSI
100
AcDbEllipse
 62
7
  6
CONTINUOUS
 10
-1.9756288828
 20
39.5312183416
 30
0.0
 11
0.5658577513
 21
0.5658577513
 31
0.0
 40
0.9996954599
 41
-0.7852458702
 42
0.7852458701
  0
ELLIPSE
  5
56E
100
AcDbEntity
  8
ASSI
100
AcDbEllipse
 62
7
  6
CONTINUOUS
 10
-1.9756288828
 20
-2.5685379335
 30
0.0
 11
-0.5658577513
 21
0.5658577513
 31
0.0
 40
0.9996954599
 41
-3.9268385237
 42
-2.3563467834
  0
ELLIPSE
  5
56F
100
AcDbEntity
  8
CURVE
100
AcDbEllipse
 62
252
  6
CONTINUOUS
 10
244.8772895459
 20
18.4813402041
 30
0.0
 11
300.0
 21
-0.0
 31
0.0
 40
1.0
 41
3.1031498522
 42
3.1075193942
  0
ELLIPSE
  5
570
100
AcDbEntity
  8
CURVE
100
AcDbEllipse
 62
252
  6
CONTINUOUS
 10
244.8772895459
 20
18.4813402041
 30
0.0
 11
-0.0
 21
300.0
 31
0.0
 40
1.0
 41
1.5181720413
 42
1.5225442717
  0
ENDSEC
  0
SECTION
  2
OBJECTS
  0
DICTIONARY
  5
C
100
AcDbDictionary
280
0
281
1
  3
ACAD_GROUP
350
D
  3
ACAD_MLINESTYLE
350
17
  3
ACAD_LAYOUT
350
1A
  3
ACAD_PLOTSETTINGS
350
19
  3
ACAD_PLOTSTYLENAME
350
E
  0
DICTIONARY
  5
D
102
{ACAD_REACTORS
330
C
102
}
100
AcDbDictionary
280
0
281
1
  0
ACDBDICTIONARYWDFLT
  5
E
102
{ACAD_REACTORS
330
C
102
}
100
AcDbDictionary
281
1
  3
Normal
350
F
100
AcDbDictionaryWithDefault
340
F
  0
DICTIONARY
  5
17
102
{ACAD_REACTORS
330
C
102
}
100
AcDbDictionary
280
0
281
1
  3
Standard
350
18
  0
DICTIONARY
  5
19
102
{ACAD_REACTORS
330
C
102
}
100
AcDbDictionary
281
1
  0
DICTIONARY
  5
1A
102
{ACAD_REACTORS
330
C
102
}
100
AcDbDictionary
281
1
  3
Model
350
571
  3
Layout1
350
572
  0
ACDBPLACEHOLDER
  5
F
102
{ACAD_REACTORS
330
E
102
}
  0
MLINESTYLE
  5
18
102
{ACAD_REACTORS
330
17
102
}
100
AcDbMlineStyle
  2
STANDARD
 70
0
  3

 62
256
 51
90.0
 52
90.0
 71
2
 49
0.5
 62
256
  6
BYLAYER
 49
-0.5
 62
256
  6
BYLAYER
  0
LAYOUT
  5
571
102
{ACAD_REACTORS
330
1A
102
}
100
AcDbPlotSettings
  1

  2
none_device
  4
ISO_A4_(297.00_x_210.00_MM)
  6

 40
0.0
 41
0.0
 42
0.0
 43
0.0
 44
297.0
 45
210.0
 46
0.0
 47
0.0
 48
0.0
 49
0.0
140
0.0
141
0.0
142
1.0
143
1.0
 70
1024
 72
1
 73
0
 74
0
  7

 75
0
147
1.0
148
0.0
149
0.0
100
AcDbLayout
  1
Model
 70
0
 71
0
 10
0.0
 20
0.0
 11
297.0
 21
210.0
 12
0.0
 22
0.0
 32
0.0
 14
0.0
 24
0.0
 34
0.0
 15
0.0
 25
0.0
 35
0.0
146
0.0
 13
0.0
 23
0.0
 33
0.0
 16
1.0
 26
0.0
 36
0.0
 17
0.0
 27
1.0
 37
0.0
 76
0
330
219
345
0
346
0
  0
LAYOUT
  5
572
102
{ACAD_REACTORS
330
1A
102
}
100
AcDbPlotSettings
  1

  2
none_device
  4
ISO_A4_(297.00_x_210.00_MM)
  6

 40
0.0
 41
0.0
 42
0.0
 43
0.0
 44
297.0
 45
210.0
 46
0.0
 47
0.0
 48
0.0
 49
0.0
140
0.0
141
0.0
142
1.0
143
1.0
 70
0
 72
1
 73
0
 74
0
  7

 75
0
147
1.0
148
0.0
149
0.0
100
AcDbLayout
  1
Layout1
 70
0
 71
1
 10
0.0
 20
0.0
 11
297.0
 21
210.0
 12
0.0
 22
0.0
 32
0.0
 14
0.0
 24
0.0
 34
0.0
 15
0.0
 25
0.0
 35
0.0
146
0.0
 13
0.0
 23
0.0
 33
0.0
 16
1.0
 26
0.0
 36
0.0
 17
0.0
 27
1.0
 37
0.0
 76
0
330
21A
345
0
346
0
  0
ENDSEC
  0
EOF
