0
SECTION
2
HEADER
9
$ACADVER
1
AC1015
9
$DWGCODEPAGE
3
ANSI_1252
9
$EXTMAX
10
431.8000000000
20
558.8000000000
30
0.0000000000
9
$EXTMIN
10
0.0000000000
20
0.0000000000
30
0.0000000000
9
$LIMMIN
10
0.0000000000
20
0.0000000000
9
$LIMMAX
10
431.8000000000
20
558.8000000000
9
$VIEWCTR
10
215.9000000000
20
279.4000000000
9
$VIEWSIZE
40
558.8000000000
9
$CLAYER
8
0
9
$LTSCALE
40
36.4254814815
9
$CELTYPE
6
BYLAYER
9
$DIMSCALE
40
1
9
$DIMASZ
40
3.0000000000
9
$DIMEXO
40
4.1392592593
9
$DIMDLI
40
25.1666962963
9
$DIMEXE
40
11.9210666667
9
$DIMCEN
40
5.9605333333
9
$DIMLFAC
40
1.0000000000
9
$DIMBLK
1
_FILLED
9
$DIMTXT
40
3.0000000000
9
$DIMTOL
70
1
9
$DIMLIM
70
0
9
$DIMTFAC
40
1.0000000000
9
$DIMTP
40
0.0100000000
9
$DIMTM
40
0.0100000000
9
$PDMODE
70
3
9
$PDSIZE
40
3.0000000000
9
$HANDSEED
5
A45
9
$MEASUREMENT
70
1
9
$INSUNITS
70
4
0
ENDSEC
0
SECTION
2
CLASSES
0
CLASS
1
ACDBDICTIONARYWDFLT
2
AcDbDictionaryWithDefault
3
AutoCAD 2000
90
0
280
0
281
0
0
CLASS
1
ACDBPLACEHOLDER
2
AcDbPlaceHolder
3
AutoCAD 2000
90
0
280
0
281
0
0
CLASS
1
LAYOUT
2
AcDbLayout
3
AutoCAD 2000
90
0
280
0
281
0
0
ENDSEC
0
SECTION
2
TABLES
0
TABLE
2
VPORT
5
8
100
AcDbSymbolTable
70
2
0
VPORT
5
1F4
100
AcDbSymbolTableRecord
100
AcDbViewportTableRecord
2
*ACTIVE
70
0
10
0.0
20
0.0
11
1.0
21
1.0
12
215.9000000000
22
279.4000000000
13
0.0
23
0.0
14
1.0
24
1.0
15
0.0
25
0.0
16
0.0
26
0.0
36
1.0
17
0.0
27
0.0
37
0.0
40
558.8000000000
41
0.7727272727
42
50.0
43
0.0
44
0.0
50
0.0
51
0.0
71
0
72
100
73
1
74
1
75
0
76
0
77
0
78
0
0
ENDTAB
0
TABLE
2
LTYPE
5
5
100
AcDbSymbolTable
70
6
0
LTYPE
5
14
100
AcDbSymbolTableRecord
100
AcDbLinetypeTableRecord
2
BYBLOCK
70
0
3

72
65
73
0
40
0.0
0
LTYPE
5
15
100
AcDbSymbolTableRecord
100
AcDbLinetypeTableRecord
2
BYLAYER
70
0
3

72
65
73
0
40
0.0
0
LTYPE
5
16
100
AcDbSymbolTableRecord
100
AcDbLinetypeTableRecord
2
CONTINUOUS
70
64
3
Solid line
72
65
73
0
40
0
0
LTYPE
5
1F5
100
AcDbSymbolTableRecord
100
AcDbLinetypeTableRecord
2
CENTER
70
64
3
____ _ ____ _ ____ _ ____ _ ____ _ ____ _ ____
72
65
73
4
40
0.6
49
0.375
74
0
49
-0.075
74
0
49
0.075
74
0
49
-0.075
74
0
0
LTYPE
5
1F6
100
AcDbSymbolTableRecord
100
AcDbLinetypeTableRecord
2
HIDDEN
70
64
3
- - - - - - - - - - - - - - - - - - - -
72
65
73
2
40
0.2
49
0.1
74
0
49
-0.1
74
0
0
LTYPE
5
1F7
100
AcDbSymbolTableRecord
100
AcDbLinetypeTableRecord
2
PHANTOM
70
64
3
_____ _ _ _____ _ _ _____ _ _ _____
72
65
73
6
40
0.8
49
0.45
74
0
49
-0.05
74
0
49
0.1
74
0
49
-0.05
74
0
49
0.1
74
0
49
-0.05
74
0
0
LTYPE
5
1F8
100
AcDbSymbolTableRecord
100
AcDbLinetypeTableRecord
2
DOT
70
64
3
. . . . . . . . . . . . . . . . . . . .
72
65
73
2
40
0.2
49
0.1
74
0
49
-0.1
74
0
0
LTYPE
5
1F9
100
AcDbSymbolTableRecord
100
AcDbLinetypeTableRecord
2
DASHED
70
64
3
- - - - - - - - - - - - - - - - - - - -
72
65
73
2
40
0.2
49
0.1
74
0
49
-0.1
74
0
0
ENDTAB
0
TABLE
2
LAYER
5
2
100
AcDbSymbolTable
70
36
0
LAYER
5
10
100
AcDbSymbolTableRecord
100
AcDbLayerTableRecord
2
0
70
0
62
7
6
CONTINUOUS
370
-3
390
F
0
LAYER
5
1FA
100
AcDbSymbolTableRecord
100
AcDbLayerTableRecord
2
DEFAULT_1
70
0
62
7
6
CENTER
370
-3
390
F
0
LAYER
5
1FB
100
AcDbSymbolTableRecord
100
AcDbLayerTableRecord
2
DEFAULT_2
70
0
62
9
6
HIDDEN
370
-3
390
F
0
LAYER
5
1FC
100
AcDbSymbolTableRecord
100
AcDbLayerTableRecord
2
DEFAULT_3
70
0
62
7
6
PHANTOM
370
-3
390
F
0
LAYER
5
1FD
100
AcDbSymbolTableRecord
100
AcDbLayerTableRecord
2
_2D_DELETED_OBJS
70
0
62
7
6
CONTINUOUS
370
-3
390
F
0
LAYER
5
1FE
100
AcDbSymbolTableRecord
100
AcDbLayerTableRecord
2
ASSI
70
0
62
7
6
CONTINUOUS
370
-3
390
F
0
LAYER
5
1FF
100
AcDbSymbolTableRecord
100
AcDbLayerTableRecord
2
COORDINATE
70
0
62
7
6
CONTINUOUS
370
-3
390
F
0
LAYER
5
200
100
AcDbSymbolTableRecord
100
AcDbLayerTableRecord
2
COORD_ORIGINE
70
0
62
7
6
CONTINUOUS
370
-3
390
F
0
LAYER
5
201
100
AcDbSymbolTableRecord
100
AcDbLayerTableRecord
2
CURVE
70
0
62
7
6
CONTINUOUS
370
-3
390
F
0
LAYER
5
202
100
AcDbSymbolTableRecord
100
AcDbLayerTableRecord
2
CURVE_LED_TASTO
70
0
62
7
6
CONTINUOUS
370
-3
390
F
0
LAYER
5
203
100
AcDbSymbolTableRecord
100
AcDbLayerTableRecord
2
DRAFT
70
0
62
7
6
CONTINUOUS
370
-3
390
F
0
LAYER
5
204
100
AcDbSymbolTableRecord
100
AcDbLayerTableRecord
2
IGES_SCRITTE
70
0
62
7
6
CONTINUOUS
370
-3
390
F
0
LAYER
5
205
100
AcDbSymbolTableRecord
100
AcDbLayerTableRecord
2
PIANI
70
0
62
7
6
CONTINUOUS
370
-3
390
F
0
LAYER
5
206
100
AcDbSymbolTableRecord
100
AcDbLayerTableRecord
2
PIANI_ORIGINE
70
0
62
7
6
CONTINUOUS
370
-3
390
F
0
LAYER
5
207
100
AcDbSymbolTableRecord
100
AcDbLayerTableRecord
2
PIANI_RIFERIMENTO
70
0
62
7
6
CONTINUOUS
370
-3
390
F
0
LAYER
5
208
100
AcDbSymbolTableRecord
100
AcDbLayerTableRecord
2
PUNTI
70
0
62
7
6
CONTINUOUS
370
-3
390
F
0
LAYER
5
209
100
AcDbSymbolTableRecord
100
AcDbLayerTableRecord
2
RACCORDO
70
0
62
7
6
CONTINUOUS
370
-3
390
F
0
LAYER
5
20A
100
AcDbSymbolTableRecord
100
AcDbLayerTableRecord
2
SMUSSO
70
0
62
7
6
CONTINUOUS
370
-3
390
F
0
LAYER
5
20B
100
AcDbSymbolTableRecord
100
AcDbLayerTableRecord
2
SNAPLINE
70
0
62
7
6
CONTINUOUS
370
-3
390
F
0
LAYER
5
20C
100
AcDbSymbolTableRecord
100
AcDbLayerTableRecord
2
SUPERFICI
70
0
62
7
6
CONTINUOUS
370
-3
390
F
0
LAYER
5
20D
100
AcDbSymbolTableRecord
100
AcDbLayerTableRecord
2
TRASH
70
0
62
7
6
CONTINUOUS
370
-3
390
F
0
ENDTAB
0
TABLE
2
STYLE
5
3
100
AcDbSymbolTable
70
1
0
STYLE
5
11
100
AcDbSymbolTableRecord
100
AcDbTextStyleTableRecord
2
STANDARD
70
0
40
0.0
41
0.8000000000
50
0.0
71
0
42
0.2
3
txt
4

0
ENDTAB
0
TABLE
2
VIEW
5
6
100
AcDbSymbolTable
70
0
0
ENDTAB
0
TABLE
2
UCS
5
7
100
AcDbSymbolTable
70
0
0
ENDTAB
0
TABLE
2
APPID
5
9
100
AcDbSymbolTable
70
1
0
APPID
5
20E
100
AcDbSymbolTableRecord
100
AcDbRegAppTableRecord
2
ACAD
70
0
0
ENDTAB
0
TABLE
2
BLOCK_RECORD
5
1
100
AcDbSymbolTable
70
0
0
BLOCK_RECORD
5
1F
100
AcDbSymbolTableRecord
100
AcDbBlockTableRecord
2
*MODEL_SPACE
0
BLOCK_RECORD
5
1B
100
AcDbSymbolTableRecord
100
AcDbBlockTableRecord
2
*PAPER_SPACE
0
BLOCK_RECORD
5
20F
100
AcDbSymbolTableRecord
100
AcDbBlockTableRecord
2
_FILLED
0
BLOCK_RECORD
5
210
100
AcDbSymbolTableRecord
100
AcDbBlockTableRecord
2
*D0
0
BLOCK_RECORD
5
211
100
AcDbSymbolTableRecord
100
AcDbBlockTableRecord
2
*D1
0
BLOCK_RECORD
5
212
100
AcDbSymbolTableRecord
100
AcDbBlockTableRecord
2
*D2
0
BLOCK_RECORD
5
213
100
AcDbSymbolTableRecord
100
AcDbBlockTableRecord
2
*D3
0
ENDTAB
0
TABLE
2
DIMSTYLE
5
A
100
AcDbSymbolTable
70
1
100
AcDbDimStyleTable
71
0
0
DIMSTYLE
105
214
100
AcDbSymbolTableRecord
100
AcDbDimStyleTableRecord
2
STANDARD
70
0
3

4

40
1.0
41
3.0000000000
42
0.0625
43
0.38
44
0.18
45
0.0
46
0.0
47
0.0100000000
48
0.0100000000
140
3.0000000000
141
0.09
142
0.0
143
25.4
144
1.0000000000
145
0.0
146
1.0000000000
147
0.09
71
1
72
0
73
0
74
0
75
0
76
0
77
1
78
8
170
0
171
2
172
0
173
0
174
0
175
0
176
0
177
0
178
0
270
2
271
2
272
2
273
2
274
2
275
0
280
0
281
0
282
0
283
1
284
8
285
0
286
0
287
3
288
0
340
11
341
20F
342
20F
343
20F
344
20F
0
DIMSTYLE
105
215
100
AcDbSymbolTableRecord
100
AcDbDimStyleTableRecord
2
DIMSTYLE_1
70
0
3

4

40
1.0
41
3.0000000000
42
0.0625
43
0.38
44
0.18
45
0.0
46
0.0
47
0.0000000000
48
0.0000000000
140
3.0000000000
141
0.09
142
0.0
143
25.4
144
1.0000000000
145
0.0
146
1.0000000000
147
0.09
71
0
72
0
73
0
74
0
75
0
76
0
77
1
78
8
170
0
171
2
172
0
173
0
174
0
175
0
176
0
177
0
178
0
270
2
271
2
272
2
273
2
274
2
275
0
280
0
281
0
282
0
283
1
284
8
285
0
286
0
287
3
288
0
340
11
341
20F
342
20F
343
20F
344
20F
0
ENDTAB
0
ENDSEC
0
SECTION
2
BLOCKS
0
BLOCK
5
20
100
AcDbEntity
8
0
100
AcDbBlockBegin
2
*MODEL_SPACE
70
0
10
0.0
20
0.0
30
0.0
3
*MODEL_SPACE
1

0
ENDBLK
5
21
100
AcDbEntity
8
0
100
AcDbBlockEnd
0
BLOCK
5
1C
100
AcDbEntity
8
0
100
AcDbBlockBegin
2
*PAPER_SPACE
70
0
10
0.0
20
0.0
30
0.0
3
*PAPER_SPACE
1

0
ENDBLK
5
1D
100
AcDbEntity
8
0
100
AcDbBlockEnd
0
BLOCK
5
216
100
AcDbEntity
8
0
100
AcDbBlockBegin
62
0
6
CONTINUOUS
2
*D0
70
65
10
0.0000000000
20
0.0000000000
3
*D0
1

0
TEXT
5
217
100
AcDbEntity
8
0
100
AcDbText
62
0
6
CONTINUOUS
10
35.1116236648
20
30.5816515184
7
STANDARD
40
3.0000000000
1
44,3
41
0.7142857143
72
0
100
AcDbText
0
LINE
5
218
100
AcDbEntity
8
0
100
AcDbLine
62
0
6
CONTINUOUS
10
61.5473379505
20
21.5317733623
11
61.5473379505
21
31.3316515184
0
LINE
5
219
100
AcDbEntity
8
0
100
AcDbLine
62
0
6
CONTINUOUS
10
17.2473379505
20
21.5317733623
11
17.2473379505
21
31.3316515184
0
LINE
5
21A
100
AcDbEntity
8
0
100
AcDbLine
62
0
6
CONTINUOUS
10
61.5473379505
20
29.8316515184
11
39.3973379505
21
29.8316515184
0
LINE
5
21B
100
AcDbEntity
8
0
100
AcDbLine
62
0
6
CONTINUOUS
10
17.2473379505
20
29.8316515184
11
39.3973379505
21
29.8316515184
0
INSERT
5
21C
100
AcDbEntity
8
0
100
AcDbBlockReference
62
0
6
CONTINUOUS
2
_FILLED
10
61.5473379505
20
29.8316515184
41
  3.000000
42
  3.000000
43
  3.000000
0
INSERT
5
21D
100
AcDbEntity
8
0
100
AcDbBlockReference
62
0
6
CONTINUOUS
2
_FILLED
10
17.2473379505
20
29.8316515184
41
  3.000000
42
  3.000000
43
  3.000000
50
180.000000
0
ENDBLK
5
21E
100
AcDbEntity
8
0
6
BYBLOCK
62
0
100
AcDbBlockEnd
0
BLOCK
5
21F
100
AcDbEntity
8
0
100
AcDbBlockBegin
62
0
6
CONTINUOUS
2
*D1
70
65
10
0.0000000000
20
0.0000000000
3
*D1
1

0
TEXT
5
220
100
AcDbEntity
8
0
100
AcDbText
62
0
6
CONTINUOUS
10
68.7973379505
20
-4.3040627673
7
STANDARD
40
3.0000000000
1
43,7
50
90.0000000000
41
0.7142857143
72
0
100
AcDbText
0
LINE
5
221
100
AcDbEntity
8
0
100
AcDbLine
62
0
6
CONTINUOUS
10
61.2474597944
20
21.8316515184
11
71.0473379505
21
21.8316515184
0
LINE
5
222
100
AcDbEntity
8
0
100
AcDbLine
62
0
6
CONTINUOUS
10
61.2474597944
20
-21.8683484816
11
71.0473379505
21
-21.8683484816
0
LINE
5
223
100
AcDbEntity
8
0
100
AcDbLine
62
0
6
CONTINUOUS
10
69.5473379505
20
21.8316515184
11
69.5473379505
21
-0.0183484816
0
LINE
5
224
100
AcDbEntity
8
0
100
AcDbLine
62
0
6
CONTINUOUS
10
69.5473379505
20
-21.8683484816
11
69.5473379505
21
-0.0183484816
0
INSERT
5
225
100
AcDbEntity
8
0
100
AcDbBlockReference
62
0
6
CONTINUOUS
2
_FILLED
10
69.5473379505
20
21.8316515184
41
  3.000000
42
  3.000000
43
  3.000000
50
 90.000000
0
INSERT
5
226
100
AcDbEntity
8
0
100
AcDbBlockReference
62
0
6
CONTINUOUS
2
_FILLED
10
69.5473379505
20
-21.8683484816
41
  3.000000
42
  3.000000
43
  3.000000
50
270.000000
0
ENDBLK
5
227
100
AcDbEntity
8
0
6
BYBLOCK
62
0
100
AcDbBlockEnd
0
BLOCK
5
228
100
AcDbEntity
8
0
100
AcDbBlockBegin
62
0
6
CONTINUOUS
2
*D2
70
65
10
0.0000000000
20
0.0000000000
3
*D2
1

0
TEXT
5
229
100
AcDbEntity
8
0
100
AcDbText
62
0
6
CONTINUOUS
10
-35.0845485119
20
30.5816515184
7
STANDARD
40
3.0000000000
1
6,6
41
0.7142857143
72
0
100
AcDbText
0
LINE
5
22A
100
AcDbEntity
8
0
100
AcDbLine
62
0
6
CONTINUOUS
10
-19.2543447683
20
22.1967889021
11
-19.2543447683
21
31.3316515184
0
LINE
5
22B
100
AcDbEntity
8
0
100
AcDbLine
62
0
6
CONTINUOUS
10
-25.8543447683
20
0.4816515184
11
-25.8543447683
21
31.3316515184
0
LINE
5
22C
100
AcDbEntity
8
0
100
AcDbLine
62
0
6
CONTINUOUS
10
-19.2543447683
20
29.8316515184
11
-15.2543447683
21
29.8316515184
0
LINE
5
22D
100
AcDbEntity
8
0
100
AcDbLine
62
0
6
CONTINUOUS
10
-15.2543447683
20
29.8316515184
11
-22.5543447683
21
29.8316515184
0
LINE
5
22E
100
AcDbEntity
8
0
100
AcDbLine
62
0
6
CONTINUOUS
10
-25.8543447683
20
29.8316515184
11
-35.0845485119
21
29.8316515184
0
LINE
5
22F
100
AcDbEntity
8
0
100
AcDbLine
62
0
6
CONTINUOUS
10
-35.0845485119
20
29.8316515184
11
-22.5543447683
21
29.8316515184
0
INSERT
5
230
100
AcDbEntity
8
0
100
AcDbBlockReference
62
0
6
CONTINUOUS
2
_FILLED
10
-19.2543447683
20
29.8316515184
41
  3.000000
42
  3.000000
43
  3.000000
50
180.000000
0
INSERT
5
231
100
AcDbEntity
8
0
100
AcDbBlockReference
62
0
6
CONTINUOUS
2
_FILLED
10
-25.8543447683
20
29.8316515184
41
  3.000000
42
  3.000000
43
  3.000000
0
ENDBLK
5
232
100
AcDbEntity
8
0
6
BYBLOCK
62
0
100
AcDbBlockEnd
0
BLOCK
5
233
100
AcDbEntity
8
0
100
AcDbBlockBegin
62
0
6
CONTINUOUS
2
*D3
70
65
10
0.0000000000
20
0.0000000000
3
*D3
1

0
TEXT
5
234
100
AcDbEntity
8
0
100
AcDbText
62
0
6
CONTINUOUS
10
-23.8043447683
20
40.5816515184
7
STANDARD
40
3.0000000000
1
11,6
41
0.6250000000
72
0
100
AcDbText
0
LINE
5
235
100
AcDbEntity
8
0
100
AcDbLine
62
0
6
CONTINUOUS
10
-14.2543447683
20
1.7002354643
11
-14.2543447683
21
41.3316515184
0
LINE
5
236
100
AcDbEntity
8
0
100
AcDbLine
62
0
6
CONTINUOUS
10
-25.8543447683
20
0.4816515184
11
-25.8543447683
21
41.3316515184
0
LINE
5
237
100
AcDbEntity
8
0
100
AcDbLine
62
0
6
CONTINUOUS
10
-14.2543447683
20
39.8316515184
11
-10.2543447683
21
39.8316515184
0
LINE
5
238
100
AcDbEntity
8
0
100
AcDbLine
62
0
6
CONTINUOUS
10
-10.2543447683
20
39.8316515184
11
-20.0543447683
21
39.8316515184
0
LINE
5
239
100
AcDbEntity
8
0
100
AcDbLine
62
0
6
CONTINUOUS
10
-25.8543447683
20
39.8316515184
11
-29.8543447683
21
39.8316515184
0
LINE
5
23A
100
AcDbEntity
8
0
100
AcDbLine
62
0
6
CONTINUOUS
10
-29.8543447683
20
39.8316515184
11
-20.0543447683
21
39.8316515184
0
INSERT
5
23B
100
AcDbEntity
8
0
100
AcDbBlockReference
62
0
6
CONTINUOUS
2
_FILLED
10
-14.2543447683
20
39.8316515184
41
  3.000000
42
  3.000000
43
  3.000000
50
180.000000
0
INSERT
5
23C
100
AcDbEntity
8
0
100
AcDbBlockReference
62
0
6
CONTINUOUS
2
_FILLED
10
-25.8543447683
20
39.8316515184
41
  3.000000
42
  3.000000
43
  3.000000
0
ENDBLK
5
23D
100
AcDbEntity
8
0
6
BYBLOCK
62
0
100
AcDbBlockEnd
0
BLOCK
5
23E
100
AcDbEntity
8
0
100
AcDbBlockBegin
2
_FILLED
70
64
10
0.0000000000
20
0.0000000000
3
_FILLED
1

0
SOLID
5
23F
100
AcDbEntity
8
0
6
BYBLOCK
62
0
100
AcDbTrace
10
0.0000000000
20
0.0000000000
11
-1.0000000000
21
0.3166666667
12
-1.0000000000
22
-0.3166666667
13
-1.0000000000
23
-0.3166666667
0
ENDBLK
5
240
100
AcDbEntity
8
0
6
BYBLOCK
62
0
100
AcDbBlockEnd
0
ENDSEC
0
SECTION
2
ENTITIES
0
DIMENSION
5
241
100
AcDbEntity
8
0
100
AcDbDimension
62
0
6
CONTINUOUS
2
*D0
10
17.2473379505
20
29.8316515184
11
39.3973379505
21
32.0816515184
70
160
42
44.300000
3
DIMSTYLE_1
100
AcDbAlignedDimension
13
61.5473379505
23
21.5317733623
14
17.2473379505
24
21.5317733623
50
180.000000
100
AcDbRotatedDimension
0
DIMENSION
5
242
100
AcDbEntity
8
0
100
AcDbDimension
62
0
6
CONTINUOUS
2
*D1
10
69.5473379505
20
-21.8683484816
11
67.2973379505
21
-0.0183484816
70
160
42
43.700000
3
DIMSTYLE_1
100
AcDbAlignedDimension
13
61.2474597944
23
21.8316515184
14
61.2474597944
24
-21.8683484816
50
270.000000
100
AcDbRotatedDimension
0
DIMENSION
5
243
100
AcDbEntity
8
0
100
AcDbDimension
62
0
6
CONTINUOUS
2
*D2
10
-25.8543447683
20
29.8316515184
11
-31.8702627976
21
32.0816515184
70
160
42
6.600000
3
DIMSTYLE_1
100
AcDbAlignedDimension
13
-19.2543447683
23
22.1967889021
14
-25.8543447683
24
0.4816515184
50
180.000000
100
AcDbRotatedDimension
0
DIMENSION
5
244
100
AcDbEntity
8
0
100
AcDbDimension
62
0
6
CONTINUOUS
2
*D3
10
-25.8543447683
20
39.8316515184
11
-20.0543447683
21
42.0816515184
70
160
42
11.600000
3
DIMSTYLE_1
100
AcDbAlignedDimension
13
-14.2543447683
23
1.7002354643
14
-25.8543447683
24
0.4816515184
50
180.000000
100
AcDbRotatedDimension
0
LINE
5
245
100
AcDbEntity
8
0
100
AcDbLine
62
9
6
CONTINUOUS
10
-23.7955953789
20
-20.9718981367
11
-23.7787171788
21
-20.9758118165
0
LINE
5
246
100
AcDbEntity
8
0
100
AcDbLine
62
9
6
CONTINUOUS
10
-23.8123713088
20
-20.9675671699
11
-23.7955953789
21
-20.9718981367
0
LINE
5
247
100
AcDbEntity
8
0
100
AcDbLine
62
0
6
CONTINUOUS
10
17.8401290420
20
-21.8410826851
11
17.8177967123
21
-21.8347516491
0
LINE
5
248
100
AcDbEntity
8
0
100
AcDbLine
62
9
6
CONTINUOUS
10
-23.8290451774
20
-20.9628196806
11
-23.8123713088
21
-20.9675671699
0
LINE
5
249
100
AcDbEntity
8
0
100
AcDbLine
62
9
6
CONTINUOUS
10
17.8813501296
20
-21.7540747345
11
17.9049341146
21
-21.7611850341
0
LINE
5
24A
100
AcDbEntity
8
0
100
AcDbLine
62
9
6
CONTINUOUS
10
-23.8455863737
20
-20.9576643900
11
-23.8290451774
21
-20.9628196806
0
LINE
5
24B
100
AcDbEntity
8
0
100
AcDbLine
62
9
6
CONTINUOUS
10
17.3517402711
20
-20.3494221780
11
17.3569480201
21
-20.3510449881
0
LINE
5
24C
100
AcDbEntity
8
0
100
AcDbLine
62
0
6
CONTINUOUS
10
17.8177967123
20
-21.8347516491
11
17.7956634593
21
-21.8277748855
0
LINE
5
24D
100
AcDbEntity
8
0
100
AcDbLine
62
9
6
CONTINUOUS
10
17.8579960241
20
-21.7462417432
11
17.8813501296
21
-21.7540747345
0
LINE
5
24E
100
AcDbEntity
8
0
100
AcDbLine
62
9
6
CONTINUOUS
10
-23.8619946570
20
-20.9521005496
11
-23.8455863737
21
-20.9576643900
0
LINE
5
24F
100
AcDbEntity
8
0
100
AcDbLine
62
0
6
CONTINUOUS
10
17.7956634593
20
-21.8277748855
11
17.7737387726
21
-21.8201555431
0
LINE
5
250
100
AcDbEntity
8
0
100
AcDbLine
62
9
6
CONTINUOUS
10
17.3472598230
20
-20.3477902065
11
17.3517402711
21
-20.3494221780
0
LINE
5
251
100
AcDbEntity
8
0
100
AcDbLine
62
9
6
CONTINUOUS
10
-23.8782702681
20
-20.9461289078
11
-23.8619946570
21
-20.9521005496
0
LINE
5
252
100
AcDbEntity
8
0
100
AcDbLine
62
9
6
CONTINUOUS
10
17.8348939425
20
-21.7376934872
11
17.8579960241
21
-21.7462417432
0
LINE
5
253
100
AcDbEntity
8
0
100
AcDbLine
62
0
6
CONTINUOUS
10
17.7737387726
20
-21.8201555431
11
17.7520031271
21
-21.8118869278
0
LINE
5
254
100
AcDbEntity
8
0
100
AcDbLine
62
9
6
CONTINUOUS
10
-23.8943833185
20
-20.9397604308
11
-23.8782702681
21
-20.9461289078
0
LINE
5
255
100
AcDbEntity
8
0
100
AcDbLine
62
9
6
CONTINUOUS
10
17.8120657898
20
-21.7284380720
11
17.8348939425
21
-21.7376934872
0
LINE
5
256
100
AcDbEntity
8
DEFAULT_3
100
AcDbLine
62
9
6
PHANTOM
10
30.7803152188
20
-16.7330924713
11
30.7762495745
21
-16.7314164527
0
LINE
5
257
100
AcDbEntity
8
0
100
AcDbLine
62
0
6
CONTINUOUS
10
30.6188034625
20
-17.0233190030
11
30.6084890960
21
-17.0190568773
0
LINE
5
258
100
AcDbEntity
8
0
100
AcDbLine
62
0
6
CONTINUOUS
10
30.6224425500
20
-16.9632019318
11
30.6327684344
21
-16.9674709454
0
LINE
5
259
100
AcDbEntity
8
DEFAULT_3
100
AcDbLine
62
9
6
PHANTOM
10
30.6947252135
20
-16.9538574224
11
30.6705451081
21
-16.9438507376
0
LINE
5
25A
100
AcDbEntity
8
0
100
AcDbLine
62
0
6
CONTINUOUS
10
17.7520031271
20
-21.8118869278
11
17.7304760479
21
-21.8029757337
0
LINE
5
25B
100
AcDbEntity
8
0
100
AcDbLine
62
9
6
CONTINUOUS
10
-23.9103335160
20
-20.9329943858
11
-23.8943833185
21
-20.9397604308
0
LINE
5
25C
100
AcDbEntity
8
0
100
AcDbLine
62
0
6
CONTINUOUS
10
31.0819223962
20
-16.8367649251
11
31.1256630111
21
-16.8554668033
0
LINE
5
25D
100
AcDbEntity
8
0
100
AcDbLine
62
9
6
CONTINUOUS
10
17.3435108323
20
-20.3461505873
11
17.3472598230
21
-20.3477902065
0
LINE
5
25E
100
AcDbEntity
8
0
100
AcDbLine
62
9
6
CONTINUOUS
10
17.7895332117
20
-21.7184842735
11
17.8120657898
21
-21.7284380720
0
LINE
5
25F
100
AcDbEntity
8
0
100
AcDbLine
62
0
6
CONTINUOUS
10
17.7304760479
20
-21.8029757337
11
17.7092256006
21
-21.7934451926
0
LINE
5
260
100
AcDbEntity
8
DEFAULT_3
100
AcDbLine
62
9
6
PHANTOM
10
30.6614731541
20
-16.9396331159
11
30.6855444119
21
-16.9505492657
0
LINE
5
261
100
AcDbEntity
8
0
100
AcDbLine
62
9
6
CONTINUOUS
10
-23.9261211529
20
-20.9258315055
11
-23.9103335160
21
-20.9329943858
0
LINE
5
262
100
AcDbEntity
8
0
100
AcDbLine
62
0
6
CONTINUOUS
10
30.6084890960
20
-17.0190568773
11
30.5983210191
21
-17.0144051998
0
LINE
5
263
100
AcDbEntity
8
0
100
AcDbLine
62
0
6
CONTINUOUS
10
30.6122786161
20
-16.9585468697
11
30.6224425500
21
-16.9632019318
0
LINE
5
264
100
AcDbEntity
8
0
100
AcDbLine
62
9
6
CONTINUOUS
10
17.7673175733
20
-21.7078415298
11
17.7895332117
21
-21.7184842735
0
LINE
5
265
100
AcDbEntity
8
0
100
AcDbLine
62
9
6
CONTINUOUS
10
-23.9417172177
20
-20.9182849546
11
-23.9261211529
21
-20.9258315055
0
LINE
5
266
100
AcDbEntity
8
0
100
AcDbLine
62
0
6
CONTINUOUS
10
17.7092256006
20
-21.7934451926
11
17.6882482934
21
-21.7832890413
0
LINE
5
267
100
AcDbEntity
8
0
100
AcDbLine
62
0
6
CONTINUOUS
10
31.0391750615
20
-16.8160169514
11
31.0819223962
21
-16.8367649251
0
LINE
5
268
100
AcDbEntity
8
0
100
AcDbLine
62
0
6
CONTINUOUS
10
30.5983210191
20
-17.0144051998
11
30.5882985522
21
-17.0093599062
0
LINE
5
269
100
AcDbEntity
8
0
100
AcDbLine
62
0
6
CONTINUOUS
10
30.6022605040
20
-16.9534978067
11
30.6122786161
21
-16.9585468697
0
LINE
5
26A
100
AcDbEntity
8
0
100
AcDbLine
62
9
6
CONTINUOUS
10
-23.9571213540
20
-20.9103540292
11
-23.9417172177
21
-20.9182849546
0
LINE
5
26B
100
AcDbEntity
8
0
100
AcDbLine
62
9
6
CONTINUOUS
10
17.7454399393
20
-21.6965199324
11
17.7673175733
21
-21.7078415298
0
LINE
5
26C
100
AcDbEntity
8
DEFAULT_3
100
AcDbLine
62
9
6
PHANTOM
10
30.7762495745
20
-16.7314164527
11
30.7723729251
21
-16.7294101144
0
LINE
5
26D
100
AcDbEntity
8
DEFAULT_3
100
AcDbLine
62
9
6
PHANTOM
10
30.6705451081
20
-16.9438507376
11
30.6473309828
21
-16.9317772045
0
LINE
5
26E
100
AcDbEntity
8
0
100
AcDbLine
62
0
6
CONTINUOUS
10
17.6882482934
20
-21.7832890413
11
17.6675476181
21
-21.7725135430
0
LINE
5
26F
100
AcDbEntity
8
0
100
AcDbLine
62
0
6
CONTINUOUS
10
30.9973868746
20
-16.7932228395
11
31.0391750615
21
-16.8160169514
0
LINE
5
270
100
AcDbEntity
8
0
100
AcDbLine
62
9
6
CONTINUOUS
10
17.3404967765
20
-20.3445048416
11
17.3435108323
21
-20.3461505873
0
LINE
5
271
100
AcDbEntity
8
0
100
AcDbLine
62
9
6
CONTINUOUS
10
-23.9723339182
20
-20.9020394330
11
-23.9571213540
21
-20.9103540292
0
LINE
5
272
100
AcDbEntity
8
0
100
AcDbLine
62
0
6
CONTINUOUS
10
30.5882985522
20
-17.0093599062
11
30.5784532086
21
-17.0039330292
0
LINE
5
273
100
AcDbEntity
8
0
100
AcDbLine
62
0
6
CONTINUOUS
10
30.5924043424
20
-16.9480626951
11
30.6022605040
21
-16.9534978067
0
LINE
5
274
100
AcDbEntity
8
0
100
AcDbLine
62
9
6
CONTINUOUS
10
17.7239210539
20
-21.6845302161
11
17.7454399393
21
-21.6965199324
0
LINE
5
275
100
AcDbEntity
8
0
100
AcDbLine
62
0
6
CONTINUOUS
10
17.6675476181
20
-21.7725135430
11
17.6472021151
21
-21.7611607186
0
LINE
5
276
100
AcDbEntity
8
DEFAULT_3
100
AcDbLine
62
9
6
PHANTOM
10
30.6384227983
20
-16.9266124743
11
30.6614731541
21
-16.9396331159
0
LINE
5
277
100
AcDbEntity
8
0
100
AcDbLine
62
9
6
CONTINUOUS
10
-23.9873269679
20
-20.8933564426
11
-23.9723339182
21
-20.9020394330
0
LINE
5
278
100
AcDbEntity
8
0
100
AcDbLine
62
0
6
CONTINUOUS
10
17.6472021151
20
-21.7611607186
11
17.6272237190
21
-21.7492338435
0
LINE
5
279
100
AcDbEntity
8
0
100
AcDbLine
62
9
6
CONTINUOUS
10
17.7027813213
20
-21.6718837497
11
17.7239210539
21
-21.6845302161
0
LINE
5
27A
100
AcDbEntity
8
0
100
AcDbLine
62
0
6
CONTINUOUS
10
30.5784532086
20
-17.0039330292
11
30.5688137676
21
-16.9981386716
0
LINE
5
27B
100
AcDbEntity
8
0
100
AcDbLine
62
0
6
CONTINUOUS
10
30.5827677429
20
-16.9422681496
11
30.5924043424
21
-16.9480626951
0
LINE
5
27C
100
AcDbEntity
8
0
100
AcDbLine
62
0
6
CONTINUOUS
10
30.9567954318
20
-16.7685098530
11
30.9973868746
21
-16.7932228395
0
LINE
5
27D
100
AcDbEntity
8
0
100
AcDbLine
62
9
6
CONTINUOUS
10
-24.0021000973
20
-20.8843043822
11
-23.9873269679
21
-20.8933564426
0
LINE
5
27E
100
AcDbEntity
8
DEFAULT_3
100
AcDbLine
62
9
6
PHANTOM
10
30.6473309828
20
-16.9317772045
11
30.6252598539
21
-16.9177293062
0
LINE
5
27F
100
AcDbEntity
8
DEFAULT_3
100
AcDbLine
62
9
6
PHANTOM
10
30.7723729251
20
-16.7294101144
11
30.7686925709
21
-16.7270654003
0
LINE
5
280
100
AcDbEntity
8
0
100
AcDbLine
62
0
6
CONTINUOUS
10
17.6272237190
20
-21.7492338435
11
17.6076004952
21
-21.7367296423
0
LINE
5
281
100
AcDbEntity
8
0
100
AcDbLine
62
9
6
CONTINUOUS
10
17.6820407859
20
-21.6585925244
11
17.7027813213
21
-21.6718837497
0
LINE
5
282
100
AcDbEntity
8
0
100
AcDbLine
62
9
6
CONTINUOUS
10
-24.0166537121
20
-20.8748839276
11
-24.0021000973
21
-20.8843043822
0
LINE
5
283
100
AcDbEntity
8
0
100
AcDbLine
62
0
6
CONTINUOUS
10
30.5688137676
20
-16.9981386716
11
30.5593918074
21
-16.9919829139
0
LINE
5
284
100
AcDbEntity
8
0
100
AcDbLine
62
0
6
CONTINUOUS
10
30.5733508565
20
-16.9361085924
11
30.5827677429
21
-16.9422681496
0
LINE
5
285
100
AcDbEntity
8
0
100
AcDbLine
62
0
6
CONTINUOUS
10
30.9173774222
20
-16.7418439125
11
30.9567954318
21
-16.7685098530
0
LINE
5
286
100
AcDbEntity
8
0
100
AcDbLine
62
0
6
CONTINUOUS
10
17.6076004952
20
-21.7367296423
11
17.5883751808
21
-21.7236803104
0
LINE
5
287
100
AcDbEntity
8
0
100
AcDbLine
62
9
6
CONTINUOUS
10
-24.0309610874
20
-20.8651123816
11
-24.0166537121
21
-20.8748839276
0
LINE
5
288
100
AcDbEntity
8
0
100
AcDbLine
62
9
6
CONTINUOUS
10
17.6617191138
20
-21.6446691428
11
17.6820407859
21
-21.6585925244
0
LINE
5
289
100
AcDbEntity
8
DEFAULT_3
100
AcDbLine
62
9
6
PHANTOM
10
30.6165969582
20
-16.9116019726
11
30.6384227983
21
-16.9266124743
0
LINE
5
28A
100
AcDbEntity
8
0
100
AcDbLine
62
0
6
CONTINUOUS
10
30.5593918074
20
-16.9919829139
11
30.5502033282
21
-16.9854753032
0
LINE
5
28B
100
AcDbEntity
8
0
100
AcDbLine
62
0
6
CONTINUOUS
10
30.5641535321
20
-16.9295896013
11
30.5733508565
21
-16.9361085924
0
LINE
5
28C
100
AcDbEntity
8
0
100
AcDbLine
62
9
6
CONTINUOUS
10
-24.0450217719
20
-20.8549890984
11
-24.0309610874
21
-20.8651123816
0
LINE
5
28D
100
AcDbEntity
8
0
100
AcDbLine
62
0
6
CONTINUOUS
10
17.5883751808
20
-21.7236803104
11
17.5695570267
21
-21.7100935771
0
LINE
5
28E
100
AcDbEntity
8
0
100
AcDbLine
62
9
6
CONTINUOUS
10
17.3382204517
20
-20.3428544958
11
17.3404967765
21
-20.3445048416
0
LINE
5
28F
100
AcDbEntity
8
0
100
AcDbLine
62
9
6
CONTINUOUS
10
17.6418355738
20
-21.6301268070
11
17.6617191138
21
-21.6446691428
0
LINE
5
290
100
AcDbEntity
8
0
100
AcDbLine
62
0
6
CONTINUOUS
10
30.8791561566
20
-16.7132590974
11
30.9173774222
21
-16.7418439125
0
LINE
5
291
100
AcDbEntity
8
0
100
AcDbLine
62
9
6
CONTINUOUS
10
-24.0588362169
20
-20.8445147238
11
-24.0450217719
21
-20.8549890984
0
LINE
5
292
100
AcDbEntity
8
0
100
AcDbLine
62
0
6
CONTINUOUS
10
30.5502033282
20
-16.9854753032
11
30.5412808454
21
-16.9786397821
0
LINE
5
293
100
AcDbEntity
8
0
100
AcDbLine
62
0
6
CONTINUOUS
10
30.5552329284
20
-16.9227545247
11
30.5641535321
21
-16.9295896013
0
LINE
5
294
100
AcDbEntity
8
DEFAULT_3
100
AcDbLine
62
9
6
PHANTOM
10
30.7686925709
20
-16.7270654003
11
30.7652012116
21
-16.7243903657
0
LINE
5
295
100
AcDbEntity
8
DEFAULT_3
100
AcDbLine
62
9
6
PHANTOM
10
30.6252598539
20
-16.9177293062
11
30.6044989973
21
-16.9018139391
0
LINE
5
296
100
AcDbEntity
8
0
100
AcDbLine
62
0
6
CONTINUOUS
10
17.5695570267
20
-21.7100935771
11
17.5511367819
21
-21.6959617130
0
LINE
5
297
100
AcDbEntity
8
0
100
AcDbLine
62
9
6
CONTINUOUS
10
17.6224090193
20
-21.6149793060
11
17.6418355738
21
-21.6301268070
0
LINE
5
298
100
AcDbEntity
8
0
100
AcDbLine
62
9
6
CONTINUOUS
10
-24.0723790507
20
-20.8337084987
11
-24.0588362169
21
-20.8445147238
0
LINE
5
299
100
AcDbEntity
8
0
100
AcDbLine
62
0
6
CONTINUOUS
10
17.5511367819
20
-21.6959617130
11
17.5331294304
21
-21.6812937254
0
LINE
5
29A
100
AcDbEntity
8
0
100
AcDbLine
62
0
6
CONTINUOUS
10
30.8424391638
20
-16.6829849096
11
30.8791561566
21
-16.7132590974
0
LINE
5
29B
100
AcDbEntity
8
DEFAULT_3
100
AcDbLine
62
9
6
PHANTOM
10
30.5961679124
20
-16.8947241561
11
30.6165969582
21
-16.9116019726
0
LINE
5
29C
100
AcDbEntity
8
0
100
AcDbLine
62
0
6
CONTINUOUS
10
30.5412808454
20
-16.9786397821
11
30.5326465934
21
-16.9714971306
0
LINE
5
29D
100
AcDbEntity
8
0
100
AcDbLine
62
0
6
CONTINUOUS
10
30.5466018543
20
-16.9156107869
11
30.5552329284
21
-16.9227545247
0
LINE
5
29E
100
AcDbEntity
8
0
100
AcDbLine
62
9
6
CONTINUOUS
10
17.6034578706
20
-21.5992410025
11
17.6224090193
21
-21.6149793060
0
LINE
5
29F
100
AcDbEntity
8
0
100
AcDbLine
62
9
6
CONTINUOUS
10
-24.0856497747
20
-20.8225698124
11
-24.0723790507
21
-20.8337084987
0
LINE
5
2A0
100
AcDbEntity
8
0
100
AcDbLine
62
0
6
CONTINUOUS
10
17.5331294304
20
-21.6812937254
11
17.5155176826
21
-21.6660738819
0
LINE
5
2A1
100
AcDbEntity
8
0
100
AcDbLine
62
9
6
CONTINUOUS
10
-24.0986488875
20
-20.8110992755
11
-24.0856497747
21
-20.8225698124
0
LINE
5
2A2
100
AcDbEntity
8
0
100
AcDbLine
62
9
6
CONTINUOUS
10
17.5850000968
20
-21.5829268194
11
17.6034578706
21
-21.5992410025
0
LINE
5
2A3
100
AcDbEntity
8
0
100
AcDbLine
62
0
6
CONTINUOUS
10
30.5326465934
20
-16.9714971306
11
30.5242995707
21
-16.9640503697
0
LINE
5
2A4
100
AcDbEntity
8
0
100
AcDbLine
62
0
6
CONTINUOUS
10
30.5382475007
20
-16.9081509637
11
30.5466018543
21
-16.9156107869
0
LINE
5
2A5
100
AcDbEntity
8
0
100
AcDbLine
62
0
6
CONTINUOUS
10
30.8072667585
20
-16.6510357095
11
30.8424391638
21
-16.6829849096
0
LINE
5
2A6
100
AcDbEntity
8
0
100
AcDbLine
62
9
6
CONTINUOUS
10
-23.6416731790
20
-21.7913880444
11
-23.6412500542
21
-21.7917747650
0
LINE
5
2A7
100
AcDbEntity
8
DEFAULT_3
100
AcDbLine
62
9
6
PHANTOM
10
30.6044989973
20
-16.9018139391
11
30.5852054758
21
-16.8841516671
0
LINE
5
2A8
100
AcDbEntity
8
0
100
AcDbLine
62
0
6
CONTINUOUS
10
17.5155176826
20
-21.6660738819
11
17.4983188281
21
-21.6503179147
0
LINE
5
2A9
100
AcDbEntity
8
0
100
AcDbLine
62
9
6
CONTINUOUS
10
-24.1113525134
20
-20.7993179603
11
-24.0986488875
21
-20.8110992755
0
LINE
5
2AA
100
AcDbEntity
8
0
100
AcDbLine
62
9
6
CONTINUOUS
10
17.5670531996
20
-21.5660522257
11
17.5850000968
21
-21.5829268194
0
LINE
5
2AB
100
AcDbEntity
8
0
100
AcDbLine
62
0
6
CONTINUOUS
10
17.4983188281
20
-21.6503179147
11
17.4815997192
21
-21.6340820280
0
LINE
5
2AC
100
AcDbEntity
8
0
100
AcDbLine
62
9
6
CONTINUOUS
10
-24.1237601089
20
-20.7872252955
11
-24.1113525134
21
-20.7993179603
0
LINE
5
2AD
100
AcDbEntity
8
0
100
AcDbLine
62
9
6
CONTINUOUS
10
17.5496341961
20
-21.5486332219
11
17.5670531996
21
-21.5660522257
0
LINE
5
2AE
100
AcDbEntity
8
0
100
AcDbLine
62
9
6
CONTINUOUS
10
-24.1358722176
20
-20.7748218524
11
-24.1237601089
21
-20.7872252955
0
LINE
5
2AF
100
AcDbEntity
8
0
100
AcDbLine
62
0
6
CONTINUOUS
10
17.4815997192
20
-21.6340820280
11
17.4653638322
21
-21.6173626058
0
LINE
5
2B0
100
AcDbEntity
8
0
100
AcDbLine
62
9
6
CONTINUOUS
10
17.5327596028
20
-21.5306863244
11
17.5496341961
21
-21.5486332219
0
LINE
5
2B1
100
AcDbEntity
8
0
100
AcDbLine
62
9
6
CONTINUOUS
10
-24.1476665938
20
-20.7621304166
11
-24.1358722176
21
-20.7748218524
0
LINE
5
2B2
100
AcDbEntity
8
0
100
AcDbLine
62
9
6
CONTINUOUS
10
17.3366839696
20
-20.3412010811
11
17.3382204517
21
-20.3428544958
0
LINE
5
2B3
100
AcDbEntity
8
0
100
AcDbLine
62
0
6
CONTINUOUS
10
17.4653638322
20
-21.6173626058
11
17.4496076908
21
-21.6001632640
0
LINE
5
2B4
100
AcDbEntity
8
0
100
AcDbLine
62
9
6
CONTINUOUS
10
-24.1591426533
20
-20.7491504590
11
-24.1476665938
21
-20.7621304166
0
LINE
5
2B5
100
AcDbEntity
8
0
100
AcDbLine
62
9
6
CONTINUOUS
10
17.5164454201
20
-21.5122285504
11
17.5327596028
21
-21.5306863244
0
LINE
5
2B6
100
AcDbEntity
8
0
100
AcDbLine
62
0
6
CONTINUOUS
10
17.4496076908
20
-21.6001632640
11
17.4343877183
21
-21.5825510550
0
LINE
5
2B7
100
AcDbEntity
8
0
100
AcDbLine
62
9
6
CONTINUOUS
10
-24.1703009805
20
-20.7358825087
11
-24.1591426533
21
-20.7491504590
0
LINE
5
2B8
100
AcDbEntity
8
0
100
AcDbLine
62
9
6
CONTINUOUS
10
17.5007071170
20
-21.4932774015
11
17.5164454201
21
-21.5122285504
0
LINE
5
2B9
100
AcDbEntity
8
0
100
AcDbLine
62
0
6
CONTINUOUS
10
17.4343877183
20
-21.5825510550
11
17.4197196881
21
-21.5645432721
0
LINE
5
2BA
100
AcDbEntity
8
0
100
AcDbLine
62
9
6
CONTINUOUS
10
-24.1811210825
20
-20.7223509391
11
-24.1703009805
21
-20.7358825087
0
LINE
5
2BB
100
AcDbEntity
8
0
100
AcDbLine
62
9
6
CONTINUOUS
10
-24.1916023365
20
-20.7085552679
11
-24.1811210825
21
-20.7223509391
0
LINE
5
2BC
100
AcDbEntity
8
0
100
AcDbLine
62
9
6
CONTINUOUS
10
-24.2017453654
20
-20.6944959774
11
-24.1916023365
21
-20.7085552679
0
LINE
5
2BD
100
AcDbEntity
8
0
100
AcDbLine
62
9
6
CONTINUOUS
10
-24.2115315458
20
-20.6801988879
11
-24.2017453654
21
-20.6944959774
0
LINE
5
2BE
100
AcDbEntity
8
0
100
AcDbLine
62
9
6
CONTINUOUS
10
-24.2209602231
20
-20.6656635607
11
-24.2115315458
21
-20.6801988879
0
LINE
5
2BF
100
AcDbEntity
8
0
100
AcDbLine
62
9
6
CONTINUOUS
10
-24.2300320520
20
-20.6508904345
11
-24.2209602231
21
-20.6656635607
0
LINE
5
2C0
100
AcDbEntity
8
0
100
AcDbLine
62
9
6
CONTINUOUS
10
-24.2387303726
20
-20.6359066450
11
-24.2300320520
21
-20.6508904345
0
LINE
5
2C1
100
AcDbEntity
8
0
100
AcDbLine
62
9
6
CONTINUOUS
10
-24.2470544998
20
-20.6207118016
11
-24.2387303726
21
-20.6359066450
0
LINE
5
2C2
100
AcDbEntity
8
0
100
AcDbLine
62
9
6
CONTINUOUS
10
-24.2550051188
20
-20.6053062949
11
-24.2470544998
21
-20.6207118016
0
LINE
5
2C3
100
AcDbEntity
8
0
100
AcDbLine
62
9
6
CONTINUOUS
10
-24.2625676252
20
-20.5897184324
11
-24.2550051188
21
-20.6053062949
0
LINE
5
2C4
100
AcDbEntity
8
0
100
AcDbLine
62
9
6
CONTINUOUS
10
-23.7103701254
20
-20.9872612102
11
-23.6931388753
21
-20.9890616852
0
LINE
5
2C5
100
AcDbEntity
8
0
100
AcDbLine
62
9
6
CONTINUOUS
10
18.0255131212
20
-21.7856845103
11
18.0500006435
21
-21.7883414727
0
LINE
5
2C6
100
AcDbEntity
8
0
100
AcDbLine
62
9
6
CONTINUOUS
10
17.4355306730
20
-20.3649935218
11
17.4476371129
21
-20.3664440051
0
LINE
5
2C7
100
AcDbEntity
8
0
100
AcDbLine
62
9
6
CONTINUOUS
10
17.4240738061
20
-20.3635194322
11
17.4355306730
21
-20.3649935218
0
LINE
5
2C8
100
AcDbEntity
8
0
100
AcDbLine
62
9
6
CONTINUOUS
10
-23.7275633908
20
-20.9850336708
11
-23.7103701254
21
-20.9872612102
0
LINE
5
2C9
100
AcDbEntity
8
0
100
AcDbLine
62
0
6
CONTINUOUS
10
17.9544501878
20
-21.8629492156
11
17.9313182526
21
-21.8599069942
0
LINE
5
2CA
100
AcDbEntity
8
0
100
AcDbLine
62
9
6
CONTINUOUS
10
17.4132771401
20
-20.3620231039
11
17.4240738061
21
-20.3635194322
0
LINE
5
2CB
100
AcDbEntity
8
0
100
AcDbLine
62
9
6
CONTINUOUS
10
18.0011187842
20
-21.7822748838
11
18.0255131212
21
-21.7856845103
0
LINE
5
2CC
100
AcDbEntity
8
0
100
AcDbLine
62
9
6
CONTINUOUS
10
17.4031506905
20
-20.3605059248
11
17.4132771401
21
-20.3620231039
0
LINE
5
2CD
100
AcDbEntity
8
0
100
AcDbLine
62
9
6
CONTINUOUS
10
-23.7446858326
20
-20.9823831822
11
-23.7275633908
21
-20.9850336708
0
LINE
5
2CE
100
AcDbEntity
8
0
100
AcDbLine
62
0
6
CONTINUOUS
10
17.9313182526
20
-21.8599069942
11
17.9083110009
21
-21.8561982788
0
LINE
5
2CF
100
AcDbEntity
8
0
100
AcDbLine
62
9
6
CONTINUOUS
10
17.3937038511
20
-20.3589693024
11
17.4031506905
21
-20.3605059248
0
LINE
5
2D0
100
AcDbEntity
8
DEFAULT_3
100
AcDbLine
62
9
6
PHANTOM
10
30.7359687206
20
-16.9658119122
11
30.7619582571
21
-16.9700527717
0
LINE
5
2D1
100
AcDbEntity
8
0
100
AcDbLine
62
0
6
CONTINUOUS
10
31.3081414016
20
-16.9090040491
11
31.3550133771
21
-16.9168828161
0
LINE
5
2D2
100
AcDbEntity
8
0
100
AcDbLine
62
0
6
CONTINUOUS
10
30.6837168416
20
-17.0406698916
11
30.6726262879
21
-17.0387907958
0
LINE
5
2D3
100
AcDbEntity
8
0
100
AcDbLine
62
0
6
CONTINUOUS
10
30.6865949426
20
-16.9829453418
11
30.6976996174
21
-16.9848265665
0
LINE
5
2D4
100
AcDbEntity
8
0
100
AcDbLine
62
9
6
CONTINUOUS
10
17.9768407631
20
-21.7781158264
11
18.0011187842
21
-21.7822748838
0
LINE
5
2D5
100
AcDbEntity
8
0
100
AcDbLine
62
9
6
CONTINUOUS
10
17.3849453852
20
-20.3574146622
11
17.3937038511
21
-20.3589693024
0
LINE
5
2D6
100
AcDbEntity
8
0
100
AcDbLine
62
9
6
CONTINUOUS
10
-23.7617369175
20
-20.9793089740
11
-23.7446858326
21
-20.9823831822
0
LINE
5
2D7
100
AcDbEntity
8
0
100
AcDbLine
62
0
6
CONTINUOUS
10
17.9083110009
20
-21.8561982788
11
17.8854342001
21
-21.8518193194
0
LINE
5
2D8
100
AcDbEntity
8
0
100
AcDbLine
62
9
6
CONTINUOUS
10
17.3768834177
20
-20.3558434462
11
17.3849453852
21
-20.3574146622
0
LINE
5
2D9
100
AcDbEntity
8
0
100
AcDbLine
62
9
6
CONTINUOUS
10
17.9527020780
20
-21.7732112816
11
17.9768407631
21
-21.7781158264
0
LINE
5
2DA
100
AcDbEntity
8
0
100
AcDbLine
62
9
6
CONTINUOUS
10
-23.7787171788
20
-20.9758118165
11
-23.7617369175
21
-20.9793089740
0
LINE
5
2DB
100
AcDbEntity
8
DEFAULT_3
100
AcDbLine
62
9
6
PHANTOM
10
30.5028010503
20
-16.6751143951
11
30.5095738215
21
-16.6765186688
0
LINE
5
2DC
100
AcDbEntity
8
0
100
AcDbLine
62
0
6
CONTINUOUS
10
30.6755899935
20
-16.9806561839
11
30.6865949426
21
-16.9829453418
0
LINE
5
2DD
100
AcDbEntity
8
0
100
AcDbLine
62
0
6
CONTINUOUS
10
30.6726262879
20
-17.0387907958
11
30.6616202899
21
-17.0364992864
0
LINE
5
2DE
100
AcDbEntity
8
0
100
AcDbLine
62
9
6
CONTINUOUS
10
17.3695254271
20
-20.3542571120
11
17.3768834177
21
-20.3558434462
0
LINE
5
2DF
100
AcDbEntity
8
0
100
AcDbLine
62
0
6
CONTINUOUS
10
31.2616019691
20
-16.8988911663
11
31.3081414016
21
-16.9090040491
0
LINE
5
2E0
100
AcDbEntity
8
DEFAULT_3
100
AcDbLine
62
9
6
PHANTOM
10
30.7886711301
20
-16.7353297459
11
30.7844671494
21
-16.7344010291
0
LINE
5
2E1
100
AcDbEntity
8
DEFAULT_3
100
AcDbLine
62
9
6
PHANTOM
10
30.7452393524
20
-16.9673804865
11
30.7196866921
21
-16.9617206671
0
LINE
5
2E2
100
AcDbEntity
8
0
100
AcDbLine
62
0
6
CONTINUOUS
10
17.8854342001
20
-21.8518193194
11
17.8626820827
21
-21.8467738661
0
LINE
5
2E3
100
AcDbEntity
8
0
100
AcDbLine
62
9
6
CONTINUOUS
10
17.9287256170
20
-21.7675658999
11
17.9527020780
21
-21.7732112816
0
LINE
5
2E4
100
AcDbEntity
8
0
100
AcDbLine
62
9
6
CONTINUOUS
10
17.3628782392
20
-20.3526571313
11
17.3695254271
21
-20.3542571120
0
LINE
5
2E5
100
AcDbEntity
8
0
100
AcDbLine
62
0
6
CONTINUOUS
10
30.6616202899
20
-17.0364992864
11
30.6507188372
21
-17.0338005543
0
LINE
5
2E6
100
AcDbEntity
8
0
100
AcDbLine
62
0
6
CONTINUOUS
10
30.6646916182
20
-16.9779560644
11
30.6755899935
21
-16.9806561839
0
LINE
5
2E7
100
AcDbEntity
8
0
100
AcDbLine
62
0
6
CONTINUOUS
10
17.8626820827
20
-21.8467738661
11
17.8401290420
21
-21.8410826851
0
LINE
5
2E8
100
AcDbEntity
8
DEFAULT_3
100
AcDbLine
62
9
6
PHANTOM
10
48.2951824702
20
-15.4374735439
11
48.2925342706
21
-15.4368011637
0
LINE
5
2E9
100
AcDbEntity
8
DEFAULT_3
100
AcDbLine
62
9
6
PHANTOM
10
48.2925342706
20
-9.6418933918
11
48.2951824702
21
-9.6425657719
0
LINE
5
2EA
100
AcDbEntity
8
DEFAULT_3
100
AcDbLine
62
9
6
PHANTOM
10
30.7104355066
20
-16.9592936095
11
30.7359687206
21
-16.9658119122
0
LINE
5
2EB
100
AcDbEntity
8
0
100
AcDbLine
62
0
6
CONTINUOUS
10
31.2156816911
20
-16.8866047539
11
31.2616019691
21
-16.8988911663
0
LINE
5
2EC
100
AcDbEntity
8
0
100
AcDbLine
62
0
6
CONTINUOUS
10
47.5789942099
20
-8.1752290578
11
47.5330739320
21
-8.1629426454
0
LINE
5
2ED
100
AcDbEntity
8
0
100
AcDbLine
62
0
6
CONTINUOUS
10
47.5330739320
20
-8.1503742211
11
47.5789942099
21
-8.1626606336
0
LINE
5
2EE
100
AcDbEntity
8
0
100
AcDbLine
62
9
6
CONTINUOUS
10
17.9049341146
20
-21.7611850341
11
17.9287256170
21
-21.7675658999
0
LINE
5
2EF
100
AcDbEntity
8
0
100
AcDbLine
62
9
6
CONTINUOUS
10
17.3569480201
20
-20.3510449881
11
17.3628782392
21
-20.3526571313
0
LINE
5
2F0
100
AcDbEntity
8
0
100
AcDbLine
62
0
6
CONTINUOUS
10
30.6507188372
20
-17.0338005543
11
30.6399322651
21
-17.0306981894
0
LINE
5
2F1
100
AcDbEntity
8
0
100
AcDbLine
62
0
6
CONTINUOUS
10
30.6538929684
20
-16.9748480117
11
30.6646916182
21
-16.9779560644
0
LINE
5
2F2
100
AcDbEntity
8
0
100
AcDbLine
62
0
6
CONTINUOUS
10
46.6249119300
20
-8.0703384613
11
46.6357062962
21
-8.0734477481
0
LINE
5
2F3
100
AcDbEntity
8
0
100
AcDbLine
62
0
6
CONTINUOUS
10
48.1439383820
20
-8.0734492113
11
48.1331451343
21
-8.0703397597
0
LINE
5
2F4
100
AcDbEntity
8
0
100
AcDbLine
62
0
6
CONTINUOUS
10
46.6357626954
20
-8.0816787311
11
46.6249629145
21
-8.0785668190
0
LINE
5
2F5
100
AcDbEntity
8
0
100
AcDbLine
62
0
6
CONTINUOUS
10
48.1471692028
20
-8.0563809840
11
48.1579542243
21
-8.0594886149
0
LINE
5
2F6
100
AcDbEntity
8
DEFAULT_3
100
AcDbLine
62
9
6
PHANTOM
10
30.7196866921
20
-16.9617206671
11
30.6947252135
21
-16.9538574224
0
LINE
5
2F7
100
AcDbEntity
8
DEFAULT_3
100
AcDbLine
62
9
6
PHANTOM
10
48.0749892089
20
-8.1898763297
11
48.0999506876
21
-8.1977410889
0
LINE
5
2F8
100
AcDbEntity
8
DEFAULT_3
100
AcDbLine
62
9
6
PHANTOM
10
48.0999505649
20
-8.1633323813
11
48.0749891271
21
-8.1554684021
0
LINE
5
2F9
100
AcDbEntity
8
DEFAULT_3
100
AcDbLine
62
9
6
PHANTOM
10
30.7844671494
20
-16.7344010291
11
30.7803152188
21
-16.7330924713
0
LINE
5
2FA
100
AcDbEntity
8
DEFAULT_3
100
AcDbLine
62
9
6
PHANTOM
10
48.0999470844
20
-8.1631248591
11
48.0749856957
21
-8.1552554692
0
LINE
5
2FB
100
AcDbEntity
8
DEFAULT_3
100
AcDbLine
62
9
6
PHANTOM
10
48.0102087516
20
-8.4381413200
11
48.0143606822
21
-8.4394513973
0
LINE
5
2FC
100
AcDbEntity
8
0
100
AcDbLine
62
0
6
CONTINUOUS
10
31.1703627738
20
-16.8721225434
11
31.2156816911
21
-16.8866047539
0
LINE
5
2FD
100
AcDbEntity
8
0
100
AcDbLine
62
0
6
CONTINUOUS
10
47.6243131272
20
-8.1897112683
11
47.5789942099
21
-8.1752290578
0
LINE
5
2FE
100
AcDbEntity
8
0
100
AcDbLine
62
0
6
CONTINUOUS
10
47.5789942099
20
-8.1626606336
11
47.6243131272
21
-8.1771428440
0
LINE
5
2FF
100
AcDbEntity
8
0
100
AcDbLine
62
0
6
CONTINUOUS
10
30.6399322651
20
-17.0306981894
11
30.6292842110
21
-17.0272002618
0
LINE
5
300
100
AcDbEntity
8
0
100
AcDbLine
62
0
6
CONTINUOUS
10
30.6432470435
20
-16.9713511532
11
30.6538929684
21
-16.9748480117
0
LINE
5
301
100
AcDbEntity
8
0
100
AcDbLine
62
0
6
CONTINUOUS
10
46.6357062962
20
-8.0734477481
11
46.6463483310
21
-8.0769461705
0
LINE
5
302
100
AcDbEntity
8
0
100
AcDbLine
62
0
6
CONTINUOUS
10
48.1545789673
20
-8.0769477177
11
48.1439383820
21
-8.0734492113
0
LINE
5
303
100
AcDbEntity
8
0
100
AcDbLine
62
0
6
CONTINUOUS
10
46.6464096442
20
-8.0851799160
11
46.6357626954
21
-8.0816787311
0
LINE
5
304
100
AcDbEntity
8
0
100
AcDbLine
62
0
6
CONTINUOUS
10
48.1579542243
20
-8.0594886149
11
48.1686004261
21
-8.0629924138
0
LINE
5
305
100
AcDbEntity
8
DEFAULT_3
100
AcDbLine
62
9
6
PHANTOM
10
30.4987074767
20
-16.6736784829
11
30.5028010503
21
-16.6751143951
0
LINE
5
306
100
AcDbEntity
8
DEFAULT_3
100
AcDbLine
62
9
6
PHANTOM
10
30.6855444119
20
-16.9505492657
11
30.7104355066
21
-16.9592936095
0
LINE
5
307
100
AcDbEntity
8
0
100
AcDbLine
62
0
6
CONTINUOUS
10
30.6292842110
20
-17.0272002618
11
30.6188034625
21
-17.0233190030
0
LINE
5
308
100
AcDbEntity
8
0
100
AcDbLine
62
0
6
CONTINUOUS
10
30.6327684344
20
-16.9674709454
11
30.6432470435
21
-16.9713511532
0
LINE
5
309
100
AcDbEntity
8
0
100
AcDbLine
62
0
6
CONTINUOUS
10
46.6568891594
20
-8.0890649058
11
46.6464096442
21
-8.0851799160
0
LINE
5
30A
100
AcDbEntity
8
0
100
AcDbLine
62
0
6
CONTINUOUS
10
46.6463483310
20
-8.0769461705
11
46.6568233978
21
-8.0808282435
0
LINE
5
30B
100
AcDbEntity
8
0
100
AcDbLine
62
0
6
CONTINUOUS
10
48.1650522513
20
-8.0808297860
11
48.1545789673
21
-8.0769477177
0
LINE
5
30C
100
AcDbEntity
8
0
100
AcDbLine
62
0
6
CONTINUOUS
10
48.1686004261
20
-8.0629924138
11
48.1790789997
21
-8.0668801170
0
LINE
5
30D
100
AcDbEntity
8
0
100
AcDbLine
62
0
6
CONTINUOUS
10
31.1256630111
20
-16.8554668033
11
31.1703627738
21
-16.8721225434
0
LINE
5
30E
100
AcDbEntity
8
0
100
AcDbLine
62
0
6
CONTINUOUS
10
47.6690128899
20
-8.2063670083
11
47.6243131272
21
-8.1897112683
0
LINE
5
30F
100
AcDbEntity
8
0
100
AcDbLine
62
0
6
CONTINUOUS
10
47.6243131272
20
-8.1771428440
11
47.6690128899
21
-8.1937985841
0
LINE
5
310
100
AcDbEntity
8
DEFAULT_3
100
AcDbLine
62
9
6
PHANTOM
10
48.0143606822
20
-8.4394513973
11
48.0184263265
21
-8.4411293613
0
LINE
5
311
100
AcDbEntity
8
0
100
AcDbLine
62
0
6
CONTINUOUS
10
46.6568233978
20
-8.0808282435
11
46.6671461331
21
-8.0850994519
0
LINE
5
312
100
AcDbEntity
8
0
100
AcDbLine
62
0
6
CONTINUOUS
10
48.1753728728
20
-8.0851009091
11
48.1650522513
21
-8.0808297860
0
LINE
5
313
100
AcDbEntity
8
0
100
AcDbLine
62
0
6
CONTINUOUS
10
46.6672158425
20
-8.0933391684
11
46.6568891594
21
-8.0890649058
0
LINE
5
314
100
AcDbEntity
8
DEFAULT_3
100
AcDbLine
62
9
6
PHANTOM
10
48.0999506876
20
-8.1977410889
11
48.1241307929
21
-8.2077497109
0
LINE
5
315
100
AcDbEntity
8
DEFAULT_3
100
AcDbLine
62
9
6
PHANTOM
10
48.1241306263
20
-8.1733400017
11
48.0999505649
21
-8.1633323813
0
LINE
5
316
100
AcDbEntity
8
0
100
AcDbLine
62
0
6
CONTINUOUS
10
48.1790789997
20
-8.0668801170
11
48.1893908994
21
-8.0711492657
0
LINE
5
317
100
AcDbEntity
8
DEFAULT_3
100
AcDbLine
62
9
6
PHANTOM
10
48.1241282782
20
-8.1731399789
11
48.0999470844
21
-8.1631248591
0
LINE
5
318
100
AcDbEntity
8
DEFAULT_3
100
AcDbLine
62
9
6
PHANTOM
10
48.2967836969
20
-15.4381546489
11
48.2951824702
21
-15.4374735439
0
LINE
5
319
100
AcDbEntity
8
DEFAULT_3
100
AcDbLine
62
9
6
PHANTOM
10
48.2951824702
20
-9.6425657719
11
48.2967836969
21
-9.6432468769
0
LINE
5
31A
100
AcDbEntity
8
0
100
AcDbLine
62
0
6
CONTINUOUS
10
47.7127535048
20
-8.2250688866
11
47.6690128899
21
-8.2063670083
0
LINE
5
31B
100
AcDbEntity
8
0
100
AcDbLine
62
0
6
CONTINUOUS
10
47.6690128899
20
-8.1937985841
11
47.7127535048
21
-8.2125004623
0
LINE
5
31C
100
AcDbEntity
8
0
100
AcDbLine
62
0
6
CONTINUOUS
10
46.6671461331
20
-8.0850994519
11
46.6773074234
21
-8.0897572039
0
LINE
5
31D
100
AcDbEntity
8
0
100
AcDbLine
62
0
6
CONTINUOUS
10
48.1855317837
20
-8.0897584695
11
48.1753728728
21
-8.0851009091
0
LINE
5
31E
100
AcDbEntity
8
0
100
AcDbLine
62
0
6
CONTINUOUS
10
48.1893908994
20
-8.0711492657
11
48.1995563207
21
-8.0758085747
0
LINE
5
31F
100
AcDbEntity
8
0
100
AcDbLine
62
0
6
CONTINUOUS
10
46.6773804771
20
-8.0979999458
11
46.6672158425
21
-8.0933391684
0
LINE
5
320
100
AcDbEntity
8
0
100
AcDbLine
62
0
6
CONTINUOUS
10
47.7555008395
20
-8.2458168603
11
47.7127535048
21
-8.2250688866
0
LINE
5
321
100
AcDbEntity
8
0
100
AcDbLine
62
0
6
CONTINUOUS
10
47.7127535048
20
-8.2125004623
11
47.7555008395
21
-8.2332484361
0
LINE
5
322
100
AcDbEntity
8
0
100
AcDbLine
62
0
6
CONTINUOUS
10
46.6773074234
20
-8.0897572039
11
46.6873233975
21
-8.0948094309
0
LINE
5
323
100
AcDbEntity
8
0
100
AcDbLine
62
0
6
CONTINUOUS
10
48.1955451173
20
-8.0948103969
11
48.1855317837
21
-8.0897584695
0
LINE
5
324
100
AcDbEntity
8
0
100
AcDbLine
62
0
6
CONTINUOUS
10
48.1995563207
20
-8.0758085747
11
48.2095759491
21
-8.0808621279
0
LINE
5
325
100
AcDbEntity
8
0
100
AcDbLine
62
0
6
CONTINUOUS
10
46.6873992004
20
-8.1030552021
11
46.6773804771
21
-8.0979999458
0
LINE
5
326
100
AcDbEntity
8
DEFAULT_3
100
AcDbLine
62
9
6
PHANTOM
10
48.0184263265
20
-8.4411293613
11
48.0223029759
21
-8.4431380276
0
LINE
5
327
100
AcDbEntity
8
DEFAULT_3
100
AcDbLine
62
9
6
PHANTOM
10
48.1473447135
20
-8.1854146547
11
48.1241306263
21
-8.1733400017
0
LINE
5
328
100
AcDbEntity
8
DEFAULT_3
100
AcDbLine
62
9
6
PHANTOM
10
48.1241307929
20
-8.2077497109
11
48.1473449183
21
-8.2198255647
0
LINE
5
329
100
AcDbEntity
8
DEFAULT_3
100
AcDbLine
62
9
6
PHANTOM
10
48.1473442051
20
-8.1852242744
11
48.1241282782
21
-8.1731399789
0
LINE
5
32A
100
AcDbEntity
8
DEFAULT_3
100
AcDbLine
62
9
6
PHANTOM
10
30.4973379505
20
-8.4794260214
11
30.4987075241
21
-8.4801636118
0
LINE
5
32B
100
AcDbEntity
8
0
100
AcDbLine
62
0
6
CONTINUOUS
10
47.7972890264
20
-8.2686109722
11
47.7555008395
21
-8.2458168603
0
LINE
5
32C
100
AcDbEntity
8
0
100
AcDbLine
62
0
6
CONTINUOUS
10
47.7555008395
20
-8.2332484361
11
47.7972890264
21
-8.2560425479
0
LINE
5
32D
100
AcDbEntity
8
0
100
AcDbLine
62
0
6
CONTINUOUS
10
46.6972558753
20
-8.1084969732
11
46.6873992004
21
-8.1030552021
0
LINE
5
32E
100
AcDbEntity
8
0
100
AcDbLine
62
0
6
CONTINUOUS
10
46.6873233975
20
-8.0948094309
11
46.6971779265
21
-8.1002482014
0
LINE
5
32F
100
AcDbEntity
8
0
100
AcDbLine
62
0
6
CONTINUOUS
10
48.2053967404
20
-8.1002487617
11
48.1955451173
21
-8.0948103969
0
LINE
5
330
100
AcDbEntity
8
0
100
AcDbLine
62
0
6
CONTINUOUS
10
48.2095759491
20
-8.0808621279
11
48.2194182675
21
-8.0862978768
0
LINE
5
331
100
AcDbEntity
8
0
100
AcDbLine
62
0
6
CONTINUOUS
10
46.6971779265
20
-8.1002482014
11
46.7068135095
21
-8.1060471292
0
LINE
5
332
100
AcDbEntity
8
0
100
AcDbLine
62
0
6
CONTINUOUS
10
46.7068928738
20
-8.1142986096
11
46.6972558753
21
-8.1084969732
0
LINE
5
333
100
AcDbEntity
8
0
100
AcDbLine
62
0
6
CONTINUOUS
10
48.2150292049
20
-8.1060471568
11
48.2053967404
21
-8.1002487617
0
LINE
5
334
100
AcDbEntity
8
0
100
AcDbLine
62
0
6
CONTINUOUS
10
48.2194182675
20
-8.0862978768
11
48.2290545770
21
-8.0921017156
0
LINE
5
335
100
AcDbEntity
8
0
100
AcDbLine
62
0
6
CONTINUOUS
10
47.8378804692
20
-8.2933239586
11
47.7972890264
21
-8.2686109722
0
LINE
5
336
100
AcDbEntity
8
0
100
AcDbLine
62
0
6
CONTINUOUS
10
47.7972890264
20
-8.2560425479
11
47.8378804692
21
-8.2807555344
0
LINE
5
337
100
AcDbEntity
8
DEFAULT_3
100
AcDbLine
62
9
6
PHANTOM
10
48.1473449183
20
-8.2198255647
11
48.1694160471
21
-8.2338761792
0
LINE
5
338
100
AcDbEntity
8
DEFAULT_3
100
AcDbLine
62
9
6
PHANTOM
10
48.1694184949
20
-8.1992859435
11
48.1473442051
21
-8.1852242744
0
LINE
5
339
100
AcDbEntity
8
DEFAULT_3
100
AcDbLine
62
9
6
PHANTOM
10
48.0223029759
20
-8.4431380276
11
48.0259833301
21
-8.4454854607
0
LINE
5
33A
100
AcDbEntity
8
0
100
AcDbLine
62
0
6
CONTINUOUS
10
46.7068135095
20
-8.1060471292
11
46.7162300580
21
-8.1122118151
0
LINE
5
33B
100
AcDbEntity
8
0
100
AcDbLine
62
0
6
CONTINUOUS
10
48.2290545770
20
-8.0921017156
11
48.2384733018
21
-8.0982675829
0
LINE
5
33C
100
AcDbEntity
8
0
100
AcDbLine
62
0
6
CONTINUOUS
10
46.7163100456
20
-8.1204656978
11
46.7068928738
21
-8.1142986096
0
LINE
5
33D
100
AcDbEntity
8
0
100
AcDbLine
62
0
6
CONTINUOUS
10
48.2244424153
20
-8.1122111748
11
48.2150292049
21
-8.1060471568
0
LINE
5
33E
100
AcDbEntity
8
0
100
AcDbLine
62
0
6
CONTINUOUS
10
47.8772984788
20
-8.3199898991
11
47.8378804692
21
-8.2933239586
0
LINE
5
33F
100
AcDbEntity
8
0
100
AcDbLine
62
0
6
CONTINUOUS
10
47.8378804692
20
-8.2807555344
11
47.8772984788
21
-8.3074214749
0
LINE
5
340
100
AcDbEntity
8
0
100
AcDbLine
62
0
6
CONTINUOUS
10
46.7162300580
20
-8.1122118151
11
46.7254276605
21
-8.1187366583
0
LINE
5
341
100
AcDbEntity
8
0
100
AcDbLine
62
0
6
CONTINUOUS
10
46.7187702252
20
-8.1222115511
11
46.7163100456
21
-8.1204656978
0
LINE
5
342
100
AcDbEntity
8
0
100
AcDbLine
62
0
6
CONTINUOUS
10
48.2336364672
20
-8.1187352233
11
48.2244424153
21
-8.1122111748
0
LINE
5
343
100
AcDbEntity
8
0
100
AcDbLine
62
0
6
CONTINUOUS
10
48.2384733018
20
-8.0982675829
11
48.2476584308
21
-8.1047859257
0
LINE
5
344
100
AcDbEntity
8
0
100
AcDbLine
62
0
6
CONTINUOUS
10
47.9155197444
20
-8.3485747142
11
47.8772984788
21
-8.3199898991
0
LINE
5
345
100
AcDbEntity
8
0
100
AcDbLine
62
0
6
CONTINUOUS
10
47.8772984788
20
-8.3074214749
11
47.9155197444
21
-8.3360062900
0
LINE
5
346
100
AcDbEntity
8
DEFAULT_3
100
AcDbLine
62
9
6
PHANTOM
10
48.1694160471
20
-8.2338761792
11
48.1901769037
21
-8.2497946461
0
LINE
5
347
100
AcDbEntity
8
0
100
AcDbLine
62
0
6
CONTINUOUS
10
46.7254276605
20
-8.1187366583
11
46.7299587672
21
-8.1222115511
0
LINE
5
348
100
AcDbEntity
8
DEFAULT_3
100
AcDbLine
62
9
6
PHANTOM
10
48.0259833301
20
-8.4454854607
11
48.0294746894
21
-8.4481635955
0
LINE
5
349
100
AcDbEntity
8
0
100
AcDbLine
62
0
6
CONTINUOUS
10
48.2425541981
20
-8.1255761178
11
48.2336364672
21
-8.1187352233
0
LINE
5
34A
100
AcDbEntity
8
DEFAULT_3
100
AcDbLine
62
9
6
PHANTOM
10
48.1901833547
20
-8.2152182142
11
48.1694184949
21
-8.1992859435
0
LINE
5
34B
100
AcDbEntity
8
0
100
AcDbLine
62
0
6
CONTINUOUS
10
48.2476584308
20
-8.1047859257
11
48.2565775014
21
-8.1116327699
0
LINE
5
34C
100
AcDbEntity
8
0
100
AcDbLine
62
0
6
CONTINUOUS
10
47.9522367373
20
-8.3788489020
11
47.9155197444
21
-8.3485747142
0
LINE
5
34D
100
AcDbEntity
8
0
100
AcDbLine
62
0
6
CONTINUOUS
10
47.9155197444
20
-8.3360062900
11
47.9522367373
21
-8.3662804778
0
LINE
5
34E
100
AcDbEntity
8
0
100
AcDbLine
62
0
6
CONTINUOUS
10
48.2511828759
20
-8.1327264961
11
48.2425541981
21
-8.1255761178
0
LINE
5
34F
100
AcDbEntity
8
0
100
AcDbLine
62
0
6
CONTINUOUS
10
48.2565775014
20
-8.1116327699
11
48.2652082857
21
-8.1187873381
0
LINE
5
350
100
AcDbEntity
8
0
100
AcDbLine
62
0
6
CONTINUOUS
10
48.2595352327
20
-8.1401937204
11
48.2511828759
21
-8.1327264961
0
LINE
5
351
100
AcDbEntity
8
0
100
AcDbLine
62
0
6
CONTINUOUS
10
48.2652082857
20
-8.1187873381
11
48.2735517600
21
-8.1262466195
0
LINE
5
352
100
AcDbEntity
8
0
100
AcDbLine
62
0
6
CONTINUOUS
10
47.9874091425
20
-8.4107981022
11
47.9522367373
21
-8.3788489020
0
LINE
5
353
100
AcDbEntity
8
0
100
AcDbLine
62
0
6
CONTINUOUS
10
47.9522367373
20
-8.3662804778
11
47.9874091425
21
-8.3982296780
0
LINE
5
354
100
AcDbEntity
8
DEFAULT_3
100
AcDbLine
62
9
6
PHANTOM
10
30.7652012116
20
-16.7243903657
11
30.7619796547
21
-16.7214463182
0
LINE
5
355
100
AcDbEntity
8
DEFAULT_3
100
AcDbLine
62
9
6
PHANTOM
10
48.0294746894
20
-8.4481635955
11
48.0326962463
21
-8.4511110528
0
LINE
5
356
100
AcDbEntity
8
DEFAULT_3
100
AcDbLine
62
9
6
PHANTOM
10
48.1901769037
20
-8.2497946461
11
48.2094704253
21
-8.2674603265
0
LINE
5
357
100
AcDbEntity
8
DEFAULT_3
100
AcDbLine
62
9
6
PHANTOM
10
48.2094796576
20
-8.2328989437
11
48.1901833547
21
-8.2152182142
0
LINE
5
358
100
AcDbEntity
8
0
100
AcDbLine
62
0
6
CONTINUOUS
10
30.5242995707
20
-16.9640503697
11
30.5162365229
21
-16.9562980051
0
LINE
5
359
100
AcDbEntity
8
0
100
AcDbLine
62
0
6
CONTINUOUS
10
30.5301885987
20
-16.9003961307
11
30.5382475007
21
-16.9081509637
0
LINE
5
35A
100
AcDbEntity
8
0
100
AcDbLine
62
0
6
CONTINUOUS
10
48.2675923039
20
-8.1479566942
11
48.2595352327
21
-8.1401937204
0
LINE
5
35B
100
AcDbEntity
8
0
100
AcDbLine
62
0
6
CONTINUOUS
10
48.2735517600
20
-8.1262466195
11
48.2816111791
21
-8.1340120892
0
LINE
5
35C
100
AcDbEntity
8
DEFAULT_3
100
AcDbLine
62
9
6
PHANTOM
10
30.5773026798
20
-16.8760983440
11
30.5961679124
21
-16.8947241561
0
LINE
5
35D
100
AcDbEntity
8
0
100
AcDbLine
62
0
6
CONTINUOUS
10
30.7735986260
20
-16.6173971366
11
30.8072667585
21
-16.6510357095
0
LINE
5
35E
100
AcDbEntity
8
0
100
AcDbLine
62
0
6
CONTINUOUS
10
48.0210772750
20
-8.4444366750
11
47.9874091425
21
-8.4107981022
0
LINE
5
35F
100
AcDbEntity
8
0
100
AcDbLine
62
0
6
CONTINUOUS
10
47.9874091425
20
-8.3982296780
11
48.0210772750
21
-8.4318682508
0
LINE
5
360
100
AcDbEntity
8
0
100
AcDbLine
62
9
6
CONTINUOUS
10
30.4252206758
20
-8.3462197838
11
30.4392293117
21
-8.3602284197
0
LINE
5
361
100
AcDbEntity
8
0
100
AcDbLine
62
9
6
CONTINUOUS
10
30.7251378449
20
-8.0461597991
11
30.7391080732
21
-8.0601300274
0
LINE
5
362
100
AcDbEntity
8
0
100
AcDbLine
62
9
6
CONTINUOUS
10
17.3239116671
20
20.9551996457
11
17.2473379505
21
21.0317733623
0
LINE
5
363
100
AcDbEntity
8
0
100
AcDbLine
62
9
6
CONTINUOUS
10
60.6708860778
20
-21.7917747650
11
60.7474597944
21
-21.8683484816
0
LINE
5
364
100
AcDbEntity
8
0
100
AcDbLine
62
9
6
CONTINUOUS
10
18.1237898232
20
21.7550778018
11
18.0472161066
21
21.8316515184
0
LINE
5
365
100
AcDbEntity
8
0
100
AcDbLine
62
9
6
CONTINUOUS
10
61.4707642339
20
-20.9918966089
11
61.5473379505
21
-21.0684703255
0
LINE
5
366
100
AcDbEntity
8
0
100
AcDbLine
62
0
6
CONTINUOUS
10
30.5162365229
20
-16.9562980051
11
30.5084687465
21
-16.9482509391
0
LINE
5
367
100
AcDbEntity
8
0
100
AcDbLine
62
0
6
CONTINUOUS
10
30.5224244527
20
-16.8923471461
11
30.5301885987
21
-16.9003961307
0
LINE
5
368
100
AcDbEntity
8
DEFAULT_3
100
AcDbLine
62
9
6
PHANTOM
10
30.4973379505
20
-16.6722266645
11
30.4987074767
21
-16.6736784829
0
LINE
5
369
100
AcDbEntity
8
DEFAULT_3
100
AcDbLine
62
9
6
PHANTOM
10
30.5852054758
20
-16.8841516671
11
30.5675260976
21
-16.8648769220
0
LINE
5
36A
100
AcDbEntity
8
DEFAULT_3
100
AcDbLine
62
9
6
PHANTOM
10
30.7619796547
20
-16.7214463182
11
30.7590346638
21
-16.7182269557
0
LINE
5
36B
100
AcDbEntity
8
0
100
AcDbLine
62
0
6
CONTINUOUS
10
30.7416213508
20
-16.5822556117
11
30.7735986260
21
-16.6173971366
0
LINE
5
36C
100
AcDbEntity
8
0
100
AcDbLine
62
0
6
CONTINUOUS
10
30.5084687465
20
-16.9482509391
11
30.5010069456
21
-16.9399203034
0
LINE
5
36D
100
AcDbEntity
8
0
100
AcDbLine
62
0
6
CONTINUOUS
10
30.5149557583
20
-16.8840031517
11
30.5224244527
21
-16.8923471461
0
LINE
5
36E
100
AcDbEntity
8
DEFAULT_3
100
AcDbLine
62
9
6
PHANTOM
10
30.5601655772
20
-16.8558808667
11
30.5773026798
21
-16.8760983440
0
LINE
5
36F
100
AcDbEntity
8
0
100
AcDbLine
62
0
6
CONTINUOUS
10
30.5010069456
20
-16.9399203034
11
30.4938493955
21
-16.9313025316
0
LINE
5
370
100
AcDbEntity
8
0
100
AcDbLine
62
0
6
CONTINUOUS
10
30.5078033332
20
-16.8753826491
11
30.5149557583
21
-16.8840031517
0
LINE
5
371
100
AcDbEntity
8
0
100
AcDbLine
62
0
6
CONTINUOUS
10
30.7113205598
20
-16.5455708553
11
30.7416213508
21
-16.5822556117
0
LINE
5
372
100
AcDbEntity
8
0
100
AcDbLine
62
9
6
CONTINUOUS
10
17.4855596165
20
-21.4738508470
11
17.5007071170
21
-21.4932774015
0
LINE
5
373
100
AcDbEntity
8
0
100
AcDbLine
62
0
6
CONTINUOUS
10
30.4938493955
20
-16.9313025316
11
30.4869991346
21
-16.9223966441
0
LINE
5
374
100
AcDbEntity
8
0
100
AcDbLine
62
0
6
CONTINUOUS
10
30.5009597240
20
-16.8664729181
11
30.5078033332
21
-16.8753826491
0
LINE
5
375
100
AcDbEntity
8
DEFAULT_3
100
AcDbLine
62
9
6
PHANTOM
10
30.5675260976
20
-16.8648769220
11
30.5515953603
21
-16.8441363681
0
LINE
5
376
100
AcDbEntity
8
0
100
AcDbLine
62
0
6
CONTINUOUS
10
17.4197196881
20
-21.5645432721
11
17.4055878269
21
-21.5461226219
0
LINE
5
377
100
AcDbEntity
8
DEFAULT_3
100
AcDbLine
62
9
6
PHANTOM
10
30.7590346638
20
-16.7182269557
11
30.7563594754
21
-16.7147385794
0
LINE
5
378
100
AcDbEntity
8
0
100
AcDbLine
62
0
6
CONTINUOUS
10
30.6827106260
20
-16.5073831468
11
30.7113205598
21
-16.5455708553
0
LINE
5
379
100
AcDbEntity
8
0
100
AcDbLine
62
9
6
CONTINUOUS
10
17.4710172812
20
-21.4539673069
11
17.4855596165
21
-21.4738508470
0
LINE
5
37A
100
AcDbEntity
8
0
100
AcDbLine
62
0
6
CONTINUOUS
10
17.4055878269
20
-21.5461226219
11
17.3920012379
21
-21.5273042769
0
LINE
5
37B
100
AcDbEntity
8
0
100
AcDbLine
62
0
6
CONTINUOUS
10
30.4869991346
20
-16.9223966441
11
30.4804769675
21
-16.9132248156
0
LINE
5
37C
100
AcDbEntity
8
0
100
AcDbLine
62
0
6
CONTINUOUS
10
30.4944323840
20
-16.8572866788
11
30.5009597240
21
-16.8664729181
0
LINE
5
37D
100
AcDbEntity
8
DEFAULT_3
100
AcDbLine
62
9
6
PHANTOM
10
30.5448777591
20
-16.8342385276
11
30.5601655772
21
-16.8558808667
0
LINE
5
37E
100
AcDbEntity
8
0
100
AcDbLine
62
9
6
CONTINUOUS
10
17.4570939002
20
-21.4336456348
11
17.4710172812
21
-21.4539673069
0
LINE
5
37F
100
AcDbEntity
8
0
100
AcDbLine
62
0
6
CONTINUOUS
10
17.3920012379
20
-21.5273042769
11
17.3789522925
21
-21.5080791443
0
LINE
5
380
100
AcDbEntity
8
0
100
AcDbLine
62
9
6
CONTINUOUS
10
17.4438026754
20
-21.4129050994
11
17.4570939002
21
-21.4336456348
0
LINE
5
381
100
AcDbEntity
8
0
100
AcDbLine
62
0
6
CONTINUOUS
10
17.3789522925
20
-21.5080791443
11
17.3664486194
21
-21.4884563168
0
LINE
5
382
100
AcDbEntity
8
0
100
AcDbLine
62
9
6
CONTINUOUS
10
17.4311562095
20
-21.3917653669
11
17.4438026754
21
-21.4129050994
0
LINE
5
383
100
AcDbEntity
8
0
100
AcDbLine
62
0
6
CONTINUOUS
10
17.3664486194
20
-21.4884563168
11
17.3545222074
21
-21.4684782450
0
LINE
5
384
100
AcDbEntity
8
0
100
AcDbLine
62
9
6
CONTINUOUS
10
-24.2697413025
20
-20.5739478858
11
-24.2625676252
21
-20.5897184324
0
LINE
5
385
100
AcDbEntity
8
0
100
AcDbLine
62
9
6
CONTINUOUS
10
-24.2765268672
20
-20.5579949833
11
-24.2697413025
21
-20.5739478858
0
LINE
5
386
100
AcDbEntity
8
0
100
AcDbLine
62
9
6
CONTINUOUS
10
-24.2829118656
20
-20.5418890168
11
-24.2765268672
21
-20.5579949833
0
LINE
5
387
100
AcDbEntity
8
0
100
AcDbLine
62
9
6
CONTINUOUS
10
-24.2888955627
20
-20.5256297077
11
-24.2829118656
21
-20.5418890168
0
LINE
5
388
100
AcDbEntity
8
0
100
AcDbLine
62
9
6
CONTINUOUS
10
-23.6420826639
20
-21.7902432519
11
-23.6416731790
21
-21.7913880444
0
LINE
5
389
100
AcDbEntity
8
0
100
AcDbLine
62
9
6
CONTINUOUS
10
-24.2944786933
20
-20.5092173346
11
-24.2888955627
21
-20.5256297077
0
LINE
5
38A
100
AcDbEntity
8
0
100
AcDbLine
62
9
6
CONTINUOUS
10
60.6955135987
20
-21.7913880444
11
60.6708860778
21
-21.7917747650
0
LINE
5
38B
100
AcDbEntity
8
0
100
AcDbLine
62
0
6
CONTINUOUS
10
60.7706931139
20
-21.8680134736
11
60.7474597944
21
-21.8683484816
0
LINE
5
38C
100
AcDbEntity
8
0
100
AcDbLine
62
9
6
CONTINUOUS
10
60.8042972280
20
-20.3928041087
11
60.7319076472
21
-20.3935678656
0
LINE
5
38D
100
AcDbEntity
8
0
100
AcDbLine
62
9
6
CONTINUOUS
10
60.7319076472
20
-20.3935678656
11
60.6832720021
21
-20.3938268650
0
LINE
5
38E
100
AcDbEntity
8
0
100
AcDbLine
62
0
6
CONTINUOUS
10
60.7474597944
20
-21.8683484816
11
18.0472161066
21
-21.8683484816
0
LINE
5
38F
100
AcDbEntity
8
0
100
AcDbLine
62
9
6
CONTINUOUS
10
18.1237898232
20
-21.7917747650
11
60.6708860778
21
-21.7917747650
0
LINE
5
390
100
AcDbEntity
8
0
100
AcDbLine
62
9
6
CONTINUOUS
10
18.1114038986
20
-20.3938268663
11
60.6832720021
21
-20.3938268650
0
LINE
5
391
100
AcDbEntity
8
0
100
AcDbLine
62
9
6
CONTINUOUS
10
18.0385407370
20
-20.3933631258
11
18.1114038986
21
-20.3938268663
0
LINE
5
392
100
AcDbEntity
8
DEFAULT_3
100
AcDbLine
62
9
6
PHANTOM
10
30.6953600278
20
-16.6858123728
11
30.7212058347
21
-16.6860397990
0
LINE
5
393
100
AcDbEntity
8
0
100
AcDbLine
62
9
6
CONTINUOUS
10
17.9664887988
20
-20.3924503540
11
18.0385407370
21
-20.3933631258
0
LINE
5
394
100
AcDbEntity
8
0
100
AcDbLine
62
0
6
CONTINUOUS
10
18.0472161066
20
-21.8683484816
11
18.0239827871
21
-21.8680134736
0
LINE
5
395
100
AcDbEntity
8
DEFAULT_3
100
AcDbLine
62
9
6
PHANTOM
10
30.6700837019
20
-16.6854360987
11
30.6953600278
21
-16.6858123728
0
LINE
5
396
100
AcDbEntity
8
DEFAULT_3
100
AcDbLine
62
9
6
PHANTOM
10
30.7881863409
20
-16.9720034596
11
30.7973379540
21
-16.9721452571
0
LINE
5
397
100
AcDbEntity
8
0
100
AcDbLine
62
9
6
CONTINUOUS
10
18.0991623018
20
-21.7913880444
11
18.1237898232
21
-21.7917747650
0
LINE
5
398
100
AcDbEntity
8
0
100
AcDbLine
62
0
6
CONTINUOUS
10
-23.6412500542
20
-21.7917747650
11
-19.2543447683
21
-21.8683484816
0
LINE
5
399
100
AcDbEntity
8
0
100
AcDbLine
62
9
6
CONTINUOUS
10
-23.6412500542
20
-20.9918966089
11
-19.2543447683
21
-21.0684703255
0
LINE
5
39A
100
AcDbEntity
8
0
100
AcDbLine
62
9
6
CONTINUOUS
10
17.9192021614
20
-20.3915959860
11
17.9664887988
21
-20.3924503540
0
LINE
5
39B
100
AcDbEntity
8
0
100
AcDbLine
62
0
6
CONTINUOUS
10
30.7311217066
20
-16.9879556892
11
30.7423065962
21
-16.9881616622
0
LINE
5
39C
100
AcDbEntity
8
0
100
AcDbLine
62
0
6
CONTINUOUS
10
30.7283513438
20
-17.0440039372
11
30.7171818448
21
-17.0437962461
0
LINE
5
39D
100
AcDbEntity
8
DEFAULT_3
100
AcDbLine
62
9
6
PHANTOM
10
48.1723548200
20
-15.4297747396
11
48.1430088086
21
-15.4291680538
0
LINE
5
39E
100
AcDbEntity
8
DEFAULT_3
100
AcDbLine
62
9
6
PHANTOM
10
30.6456537898
20
-16.6849150992
11
30.6700837019
21
-16.6854360987
0
LINE
5
39F
100
AcDbEntity
8
0
100
AcDbLine
62
9
6
CONTINUOUS
10
17.8727189213
20
-20.3905485269
11
17.9192021614
21
-20.3915959860
0
LINE
5
3A0
100
AcDbEntity
8
0
100
AcDbLine
62
0
6
CONTINUOUS
10
31.4495638830
20
-16.9258976120
11
31.4973379505
21
-16.9270538363
0
LINE
5
3A1
100
AcDbEntity
8
DEFAULT_3
100
AcDbLine
62
9
6
PHANTOM
10
30.4973379505
20
-15.4488911584
11
30.4343983615
21
-15.4473687792
0
LINE
5
3A2
100
AcDbEntity
8
0
100
AcDbLine
62
9
6
CONTINUOUS
10
17.8272115190
20
-20.3893118626
11
17.8727189213
21
-20.3905485269
0
LINE
5
3A3
100
AcDbEntity
8
DEFAULT_3
100
AcDbLine
62
9
6
PHANTOM
10
48.1995055380
20
-15.4305347744
11
48.1723548200
21
-15.4297747396
0
LINE
5
3A4
100
AcDbEntity
8
DEFAULT_3
100
AcDbLine
62
9
6
PHANTOM
10
30.6223379505
20
-16.6842550826
11
30.6456537898
21
-16.6849150992
0
LINE
5
3A5
100
AcDbEntity
8
0
100
AcDbLine
62
9
6
CONTINUOUS
10
-23.6585843128
20
-20.9913786987
11
-23.6412500542
21
-20.9918966089
0
LINE
5
3A6
100
AcDbEntity
8
0
100
AcDbLine
62
9
6
CONTINUOUS
10
17.7828487746
20
-20.3878905807
11
17.8272115190
21
-20.3893118626
0
LINE
5
3A7
100
AcDbEntity
8
DEFAULT_3
100
AcDbLine
62
9
6
PHANTOM
10
48.2121875046
20
-15.4309708074
11
48.1995055380
21
-15.4305347744
0
LINE
5
3A8
100
AcDbEntity
8
DEFAULT_3
100
AcDbLine
62
9
6
PHANTOM
10
30.6003916375
20
-16.6834632801
11
30.6223379505
21
-16.6842550826
0
LINE
5
3A9
100
AcDbEntity
8
0
100
AcDbLine
62
9
6
CONTINUOUS
10
17.7397952623
20
-20.3862899539
11
17.7828487746
21
-20.3878905807
0
LINE
5
3AA
100
AcDbEntity
8
DEFAULT_3
100
AcDbLine
62
9
6
PHANTOM
10
48.2241146458
20
-15.4314384637
11
48.2121875046
21
-15.4309708074
0
LINE
5
3AB
100
AcDbEntity
8
0
100
AcDbLine
62
9
6
CONTINUOUS
10
17.6982106989
20
-20.3845159199
11
17.7397952623
21
-20.3862899539
0
LINE
5
3AC
100
AcDbEntity
8
0
100
AcDbLine
62
0
6
CONTINUOUS
10
18.0239827871
20
-21.8680134736
11
18.0007824550
21
-21.8670024553
0
LINE
5
3AD
100
AcDbEntity
8
DEFAULT_3
100
AcDbLine
62
9
6
PHANTOM
10
30.7973379505
20
-16.9719344440
11
30.7711889412
21
-16.9707937729
0
LINE
5
3AE
100
AcDbEntity
8
DEFAULT_3
100
AcDbLine
62
9
6
PHANTOM
10
30.7973379505
20
-16.7360847985
11
30.7929613971
21
-16.7358910023
0
LINE
5
3AF
100
AcDbEntity
8
DEFAULT_3
100
AcDbLine
62
9
6
PHANTOM
10
48.2352772923
20
-15.4319381483
11
48.2241146458
21
-15.4314384637
0
LINE
5
3B0
100
AcDbEntity
8
DEFAULT_3
100
AcDbLine
62
9
6
PHANTOM
10
30.5800552990
20
-16.6825483669
11
30.6003916375
21
-16.6834632801
0
LINE
5
3B1
100
AcDbEntity
8
0
100
AcDbLine
62
9
6
CONTINUOUS
10
18.0745581321
20
-21.7902432518
11
18.0991623018
21
-21.7913880444
0
LINE
5
3B2
100
AcDbEntity
8
0
100
AcDbLine
62
9
6
CONTINUOUS
10
17.6582493521
20
-20.3825750601
11
17.6982106989
21
-20.3845159199
0
LINE
5
3B3
100
AcDbEntity
8
DEFAULT_3
100
AcDbLine
62
9
6
PHANTOM
10
48.2456851134
20
-15.4324694560
11
48.2352772923
21
-15.4319381483
0
LINE
5
3B4
100
AcDbEntity
8
0
100
AcDbLine
62
9
6
CONTINUOUS
10
-23.6758805864
20
-20.9904337242
11
-23.6585843128
21
-20.9913786987
0
LINE
5
3B5
100
AcDbEntity
8
0
100
AcDbLine
62
9
6
CONTINUOUS
10
17.6200594678
20
-20.3804745744
11
17.6582493521
21
-20.3825750601
0
LINE
5
3B6
100
AcDbEntity
8
DEFAULT_3
100
AcDbLine
62
9
6
PHANTOM
10
30.5189521857
20
-8.4822960847
11
30.5308324502
21
-8.4829541734
0
LINE
5
3B7
100
AcDbEntity
8
DEFAULT_3
100
AcDbLine
62
9
6
PHANTOM
10
30.5615517442
20
-16.6815203669
11
30.5800552990
21
-16.6825483669
0
LINE
5
3B8
100
AcDbEntity
8
0
100
AcDbLine
62
0
6
CONTINUOUS
10
30.7171818448
20
-17.0437962461
11
30.7060104559
21
-17.0431721470
0
LINE
5
3B9
100
AcDbEntity
8
0
100
AcDbLine
62
0
6
CONTINUOUS
10
30.7199629994
20
-16.9873317402
11
30.7311217066
21
-16.9879556892
0
LINE
5
3BA
100
AcDbEntity
8
DEFAULT_3
100
AcDbLine
62
9
6
PHANTOM
10
48.2552053536
20
-15.4330256100
11
48.2456851134
21
-15.4324694560
0
LINE
5
3BB
100
AcDbEntity
8
DEFAULT_3
100
AcDbLine
62
9
6
PHANTOM
10
48.2456851134
20
-9.6375616841
11
48.2552053536
21
-9.6381178381
0
LINE
5
3BC
100
AcDbEntity
8
0
100
AcDbLine
62
9
6
CONTINUOUS
10
17.5837827203
20
-20.3782222552
11
17.6200594678
21
-20.3804745744
0
LINE
5
3BD
100
AcDbEntity
8
DEFAULT_3
100
AcDbLine
62
9
6
PHANTOM
10
48.2638266432
20
-15.4336069285
11
48.2552053536
21
-15.4330256100
0
LINE
5
3BE
100
AcDbEntity
8
DEFAULT_3
100
AcDbLine
62
9
6
PHANTOM
10
48.2552053536
20
-9.6381178381
11
48.2638266432
21
-9.6386991565
0
LINE
5
3BF
100
AcDbEntity
8
DEFAULT_3
100
AcDbLine
62
9
6
PHANTOM
10
30.5450837020
20
-16.6803905431
11
30.5615517442
21
-16.6815203669
0
LINE
5
3C0
100
AcDbEntity
8
0
100
AcDbLine
62
9
6
CONTINUOUS
10
17.5495536866
20
-20.3758264578
11
17.5837827203
21
-20.3782222552
0
LINE
5
3C1
100
AcDbEntity
8
0
100
AcDbLine
62
0
6
CONTINUOUS
10
31.4021223585
20
-16.9225072720
11
31.4495638830
21
-16.9258976120
0
LINE
5
3C2
100
AcDbEntity
8
0
100
AcDbLine
62
0
6
CONTINUOUS
10
47.3925535425
20
-8.1393265397
11
47.3451120180
21
-8.1359361996
0
LINE
5
3C3
100
AcDbEntity
8
0
100
AcDbLine
62
0
6
CONTINUOUS
10
47.3451120180
20
-8.1233677754
11
47.3925535425
21
-8.1267581155
0
LINE
5
3C4
100
AcDbEntity
8
0
100
AcDbLine
62
0
6
CONTINUOUS
10
18.0007824550
20
-21.8670024553
11
17.9776151104
21
-21.8653154267
0
LINE
5
3C5
100
AcDbEntity
8
DEFAULT_3
100
AcDbLine
62
9
6
PHANTOM
10
30.5095741890
20
-8.4816065481
11
30.5189521857
21
-8.4822960847
0
LINE
5
3C6
100
AcDbEntity
8
DEFAULT_3
100
AcDbLine
62
9
6
PHANTOM
10
30.7619582571
20
-16.9700527717
11
30.7881863409
21
-16.9720034596
0
LINE
5
3C7
100
AcDbEntity
8
0
100
AcDbLine
62
9
6
CONTINUOUS
10
17.5332470537
20
-20.3745775124
11
17.5495536866
21
-20.3758264578
0
LINE
5
3C8
100
AcDbEntity
8
0
100
AcDbLine
62
9
6
CONTINUOUS
10
18.0500006435
20
-21.7883414727
11
18.0745581321
21
-21.7902432518
0
LINE
5
3C9
100
AcDbEntity
8
DEFAULT_3
100
AcDbLine
62
9
6
PHANTOM
10
48.2715603519
20
-15.4342130932
11
48.2638266432
21
-15.4336069285
0
LINE
5
3CA
100
AcDbEntity
8
DEFAULT_3
100
AcDbLine
62
9
6
PHANTOM
10
48.2638266432
20
-9.6386991565
11
48.2715603519
21
-9.6393053212
0
LINE
5
3CB
100
AcDbEntity
8
0
100
AcDbLine
62
9
6
CONTINUOUS
10
-23.6931388753
20
-20.9890616852
11
-23.6758805864
21
-20.9904337242
0
LINE
5
3CC
100
AcDbEntity
8
0
100
AcDbLine
62
9
6
CONTINUOUS
10
17.5174993473
20
-20.3732960702
11
17.5332470537
21
-20.3745775124
0
LINE
5
3CD
100
AcDbEntity
8
DEFAULT_3
100
AcDbLine
62
9
6
PHANTOM
10
30.5308315996
20
-16.6791712742
11
30.5450837020
21
-16.6803905431
0
LINE
5
3CE
100
AcDbEntity
8
0
100
AcDbLine
62
9
6
CONTINUOUS
10
17.5023251758
20
-20.3719833199
11
17.5174993473
21
-20.3732960702
0
LINE
5
3CF
100
AcDbEntity
8
0
100
AcDbLine
62
9
6
CONTINUOUS
10
17.4877386154
20
-20.3706404793
11
17.5023251758
21
-20.3719833199
0
LINE
5
3D0
100
AcDbEntity
8
DEFAULT_3
100
AcDbLine
62
9
6
PHANTOM
10
48.2783078336
20
-15.4348363723
11
48.2715603519
21
-15.4342130932
0
LINE
5
3D1
100
AcDbEntity
8
DEFAULT_3
100
AcDbLine
62
9
6
PHANTOM
10
48.2715603519
20
-9.6393053212
11
48.2783078336
21
-9.6399286003
0
LINE
5
3D2
100
AcDbEntity
8
0
100
AcDbLine
62
0
6
CONTINUOUS
10
30.7060104559
20
-17.0431721470
11
30.6948528221
21
-17.0421305776
0
LINE
5
3D3
100
AcDbEntity
8
0
100
AcDbLine
62
0
6
CONTINUOUS
10
48.0918802765
20
-8.0469930942
11
48.1030380612
21
-8.0480365157
0
LINE
5
3D4
100
AcDbEntity
8
0
100
AcDbLine
62
0
6
CONTINUOUS
10
30.7088304744
20
-16.9862898151
11
30.7199629994
21
-16.9873317402
0
LINE
5
3D5
100
AcDbEntity
8
0
100
AcDbLine
62
0
6
CONTINUOUS
10
46.5696680974
20
-8.0609600134
11
46.5807944039
21
-8.0620021777
0
LINE
5
3D6
100
AcDbEntity
8
0
100
AcDbLine
62
0
6
CONTINUOUS
10
48.0890281271
20
-8.0620025594
11
48.0779009427
21
-8.0609602301
0
LINE
5
3D7
100
AcDbEntity
8
0
100
AcDbLine
62
0
6
CONTINUOUS
10
46.5808186929
20
-8.0702226737
11
46.5696846803
21
-8.0691794458
0
LINE
5
3D8
100
AcDbEntity
8
0
100
AcDbLine
62
9
6
CONTINUOUS
10
17.4737531974
20
-20.3692687941
11
17.4877386154
21
-20.3706404793
0
LINE
5
3D9
100
AcDbEntity
8
0
100
AcDbLine
62
0
6
CONTINUOUS
10
17.9776151104
20
-21.8653154267
11
17.9544501878
21
-21.8629492156
0
LINE
5
3DA
100
AcDbEntity
8
0
100
AcDbLine
62
9
6
CONTINUOUS
10
17.4603818953
20
-20.3678695367
11
17.4737531974
21
-20.3692687941
0
LINE
5
3DB
100
AcDbEntity
8
DEFAULT_3
100
AcDbLine
62
9
6
PHANTOM
10
30.5028012272
20
-8.4808931182
11
30.5095741890
21
-8.4816065481
0
LINE
5
3DC
100
AcDbEntity
8
DEFAULT_3
100
AcDbLine
62
9
6
PHANTOM
10
30.5189515861
20
-16.6778759186
11
30.5308315996
21
-16.6791712742
0
LINE
5
3DD
100
AcDbEntity
8
DEFAULT_3
100
AcDbLine
62
9
6
PHANTOM
10
48.2840564550
20
-15.4354769849
11
48.2783078336
21
-15.4348363723
0
LINE
5
3DE
100
AcDbEntity
8
DEFAULT_3
100
AcDbLine
62
9
6
PHANTOM
10
48.2783078336
20
-9.6399286003
11
48.2840564550
21
-9.6405692129
0
LINE
5
3DF
100
AcDbEntity
8
0
100
AcDbLine
62
9
6
CONTINUOUS
10
17.4476371129
20
-20.3664440051
11
17.4603818953
21
-20.3678695367
0
LINE
5
3E0
100
AcDbEntity
8
0
100
AcDbLine
62
0
6
CONTINUOUS
10
31.3550133771
20
-16.9168828161
11
31.4021223585
21
-16.9225072720
0
LINE
5
3E1
100
AcDbEntity
8
0
100
AcDbLine
62
0
6
CONTINUOUS
10
47.4396625239
20
-8.1449509955
11
47.3925535425
21
-8.1393265397
0
LINE
5
3E2
100
AcDbEntity
8
0
100
AcDbLine
62
0
6
CONTINUOUS
10
47.3925535425
20
-8.1267581155
11
47.4396625239
21
-8.1323825713
0
LINE
5
3E3
100
AcDbEntity
8
DEFAULT_3
100
AcDbLine
62
9
6
PHANTOM
10
30.7929613971
20
-16.7358910023
11
30.7886711301
21
-16.7353297459
0
LINE
5
3E4
100
AcDbEntity
8
DEFAULT_3
100
AcDbLine
62
9
6
PHANTOM
10
48.0017145039
20
-8.4366496160
11
48.0060047709
21
-8.4372115245
0
LINE
5
3E5
100
AcDbEntity
8
0
100
AcDbLine
62
0
6
CONTINUOUS
10
30.6948528221
20
-17.0421305776
11
30.6837168416
21
-17.0406698916
0
LINE
5
3E6
100
AcDbEntity
8
0
100
AcDbLine
62
0
6
CONTINUOUS
10
30.6976996174
20
-16.9848265665
11
30.7088304744
21
-16.9862898151
0
LINE
5
3E7
100
AcDbEntity
8
0
100
AcDbLine
62
0
6
CONTINUOUS
10
48.1030380612
20
-8.0480365157
11
48.1141738432
21
-8.0494997805
0
LINE
5
3E8
100
AcDbEntity
8
DEFAULT_3
100
AcDbLine
62
9
6
PHANTOM
10
30.7711889412
20
-16.9707937729
11
30.7452393524
21
-16.9673804865
0
LINE
5
3E9
100
AcDbEntity
8
0
100
AcDbLine
62
0
6
CONTINUOUS
10
46.5919509964
20
-8.0716877533
11
46.5808186929
21
-8.0702226737
0
LINE
5
3EA
100
AcDbEntity
8
0
100
AcDbLine
62
0
6
CONTINUOUS
10
46.5807944039
20
-8.0620021777
11
46.5919193536
21
-8.0634657671
0
LINE
5
3EB
100
AcDbEntity
8
DEFAULT_3
100
AcDbLine
62
9
6
PHANTOM
10
48.0234869598
20
-8.1808014883
11
48.0494365486
21
-8.1842154312
0
LINE
5
3EC
100
AcDbEntity
8
DEFAULT_3
100
AcDbLine
62
9
6
PHANTOM
10
48.0494341404
20
-8.1495914825
11
48.0234859104
21
-8.1461757013
0
LINE
5
3ED
100
AcDbEntity
8
DEFAULT_3
100
AcDbLine
62
9
6
PHANTOM
10
48.0494365003
20
-8.1498080565
11
48.0234869391
21
-8.1463944486
0
LINE
5
3EE
100
AcDbEntity
8
0
100
AcDbLine
62
0
6
CONTINUOUS
10
48.1001535460
20
-8.0634663744
11
48.0890281271
21
-8.0620025594
0
LINE
5
3EF
100
AcDbEntity
8
DEFAULT_3
100
AcDbLine
62
9
6
PHANTOM
10
48.2888188493
20
-15.4361347119
11
48.2840564550
21
-15.4354769849
0
LINE
5
3F0
100
AcDbEntity
8
DEFAULT_3
100
AcDbLine
62
9
6
PHANTOM
10
48.2840564550
20
-9.6405692129
11
48.2888188493
21
-9.6412269399
0
LINE
5
3F1
100
AcDbEntity
8
DEFAULT_3
100
AcDbLine
62
9
6
PHANTOM
10
30.5095738215
20
-16.6765186688
11
30.5189515861
21
-16.6778759186
0
LINE
5
3F2
100
AcDbEntity
8
0
100
AcDbLine
62
0
6
CONTINUOUS
10
47.4865344994
20
-8.1528297626
11
47.4396625239
21
-8.1449509955
0
LINE
5
3F3
100
AcDbEntity
8
0
100
AcDbLine
62
0
6
CONTINUOUS
10
47.4396625239
20
-8.1323825713
11
47.4865344994
21
-8.1402613383
0
LINE
5
3F4
100
AcDbEntity
8
0
100
AcDbLine
62
0
6
CONTINUOUS
10
46.5919193536
20
-8.0634657671
11
46.6030184587
21
-8.0653474708
0
LINE
5
3F5
100
AcDbEntity
8
0
100
AcDbLine
62
0
6
CONTINUOUS
10
46.6030570650
20
-8.0735713301
11
46.5919509964
21
-8.0716877533
0
LINE
5
3F6
100
AcDbEntity
8
0
100
AcDbLine
62
0
6
CONTINUOUS
10
48.1112527163
20
-8.0653483412
11
48.1001535460
21
-8.0634663744
0
LINE
5
3F7
100
AcDbEntity
8
0
100
AcDbLine
62
0
6
CONTINUOUS
10
48.1141738432
20
-8.0494997805
11
48.1252638520
21
-8.0513821632
0
LINE
5
3F8
100
AcDbEntity
8
DEFAULT_3
100
AcDbLine
62
9
6
PHANTOM
10
30.4987075241
20
-8.4801636118
11
30.5028012272
21
-8.4808931182
0
LINE
5
3F9
100
AcDbEntity
8
DEFAULT_3
100
AcDbLine
62
9
6
PHANTOM
10
48.2925342706
20
-15.4368011637
11
48.2888188493
21
-15.4361347119
0
LINE
5
3FA
100
AcDbEntity
8
DEFAULT_3
100
AcDbLine
62
9
6
PHANTOM
10
48.2888188493
20
-9.6412269399
11
48.2925342706
21
-9.6418933918
0
LINE
5
3FB
100
AcDbEntity
8
0
100
AcDbLine
62
0
6
CONTINUOUS
10
46.6030184587
20
-8.0653474708
11
46.6140182553
21
-8.0676373562
0
LINE
5
3FC
100
AcDbEntity
8
0
100
AcDbLine
62
0
6
CONTINUOUS
10
48.1222521885
20
-8.0676384591
11
48.1112527163
21
-8.0653483412
0
LINE
5
3FD
100
AcDbEntity
8
0
100
AcDbLine
62
0
6
CONTINUOUS
10
46.6140633218
20
-8.0758633411
11
46.6030570650
21
-8.0735713301
0
LINE
5
3FE
100
AcDbEntity
8
0
100
AcDbLine
62
0
6
CONTINUOUS
10
48.1252638520
20
-8.0513821632
11
48.1362689696
21
-8.0536776319
0
LINE
5
3FF
100
AcDbEntity
8
0
100
AcDbLine
62
0
6
CONTINUOUS
10
47.5330739320
20
-8.1629426454
11
47.4865344994
21
-8.1528297626
0
LINE
5
400
100
AcDbEntity
8
0
100
AcDbLine
62
0
6
CONTINUOUS
10
47.4865344994
20
-8.1402613383
11
47.5330739320
21
-8.1503742211
0
LINE
5
401
100
AcDbEntity
8
DEFAULT_3
100
AcDbLine
62
9
6
PHANTOM
10
48.0060047709
20
-8.4372115245
11
48.0102087516
21
-8.4381413200
0
LINE
5
402
100
AcDbEntity
8
DEFAULT_3
100
AcDbLine
62
9
6
PHANTOM
10
48.0494365486
20
-8.1842154312
11
48.0749892089
21
-8.1898763297
0
LINE
5
403
100
AcDbEntity
8
DEFAULT_3
100
AcDbLine
62
9
6
PHANTOM
10
48.0749891271
20
-8.1554684021
11
48.0494365003
21
-8.1498080565
0
LINE
5
404
100
AcDbEntity
8
DEFAULT_3
100
AcDbLine
62
9
6
PHANTOM
10
48.0749856957
20
-8.1552554692
11
48.0494341404
21
-8.1495914825
0
LINE
5
405
100
AcDbEntity
8
0
100
AcDbLine
62
0
6
CONTINUOUS
10
46.6249629145
20
-8.0785668190
11
46.6140633218
21
-8.0758633411
0
LINE
5
406
100
AcDbEntity
8
0
100
AcDbLine
62
0
6
CONTINUOUS
10
46.6140182553
20
-8.0676373562
11
46.6249119300
21
-8.0703384613
0
LINE
5
407
100
AcDbEntity
8
0
100
AcDbLine
62
0
6
CONTINUOUS
10
48.1331451343
20
-8.0703397597
11
48.1222521885
21
-8.0676384591
0
LINE
5
408
100
AcDbEntity
8
0
100
AcDbLine
62
0
6
CONTINUOUS
10
48.1362689696
20
-8.0536776319
11
48.1471692028
21
-8.0563809840
0
LINE
5
409
100
AcDbEntity
8
0
100
AcDbLine
62
9
6
CONTINUOUS
10
61.4511650688
20
20.3094536241
11
61.4474160780
21
20.3110932433
0
LINE
5
40A
100
AcDbEntity
8
0
100
AcDbLine
62
9
6
CONTINUOUS
10
61.0051426872
20
21.6817873113
11
60.9826101092
21
21.6917411097
0
LINE
5
40B
100
AcDbEntity
8
0
100
AcDbLine
62
0
6
CONTINUOUS
10
61.0641998531
20
21.7662787705
11
61.0854503004
21
21.7567482294
0
LINE
5
40C
100
AcDbEntity
8
0
100
AcDbLine
62
9
6
CONTINUOUS
10
61.0273583256
20
21.6711445677
11
61.0051426872
21
21.6817873113
0
LINE
5
40D
100
AcDbEntity
8
0
100
AcDbLine
62
0
6
CONTINUOUS
10
61.0854503004
20
21.7567482294
11
61.1064276076
21
21.7465920781
0
LINE
5
40E
100
AcDbEntity
8
0
100
AcDbLine
62
9
6
CONTINUOUS
10
61.0492359595
20
21.6598229704
11
61.0273583256
21
21.6711445677
0
LINE
5
40F
100
AcDbEntity
8
0
100
AcDbLine
62
0
6
CONTINUOUS
10
61.1064276076
20
21.7465920781
11
61.1271282829
21
21.7358165798
0
LINE
5
410
100
AcDbEntity
8
0
100
AcDbLine
62
9
6
CONTINUOUS
10
61.4541791245
20
20.3078078783
11
61.4511650688
21
20.3094536241
0
LINE
5
411
100
AcDbEntity
8
0
100
AcDbLine
62
9
6
CONTINUOUS
10
61.0707548448
20
21.6478332542
11
61.0492359595
21
21.6598229704
0
LINE
5
412
100
AcDbEntity
8
0
100
AcDbLine
62
0
6
CONTINUOUS
10
61.1271282829
20
21.7358165798
11
61.1474737859
21
21.7244637554
0
LINE
5
413
100
AcDbEntity
8
0
100
AcDbLine
62
0
6
CONTINUOUS
10
61.1474737859
20
21.7244637554
11
61.1674521820
21
21.7125368802
0
LINE
5
414
100
AcDbEntity
8
0
100
AcDbLine
62
9
6
CONTINUOUS
10
61.0918945774
20
21.6351867879
11
61.0707548448
21
21.6478332542
0
LINE
5
415
100
AcDbEntity
8
0
100
AcDbLine
62
0
6
CONTINUOUS
10
61.1674521820
20
21.7125368802
11
61.1870754058
21
21.7000326791
0
LINE
5
416
100
AcDbEntity
8
0
100
AcDbLine
62
9
6
CONTINUOUS
10
61.1126351128
20
21.6218955627
11
61.0918945774
21
21.6351867879
0
LINE
5
417
100
AcDbEntity
8
0
100
AcDbLine
62
0
6
CONTINUOUS
10
61.1870754058
20
21.7000326791
11
61.2063007202
21
21.6869833472
0
LINE
5
418
100
AcDbEntity
8
0
100
AcDbLine
62
9
6
CONTINUOUS
10
61.1329567849
20
21.6079721813
11
61.1126351128
21
21.6218955627
0
LINE
5
419
100
AcDbEntity
8
0
100
AcDbLine
62
0
6
CONTINUOUS
10
61.2063007202
20
21.6869833472
11
61.2251188743
21
21.6733966139
0
LINE
5
41A
100
AcDbEntity
8
0
100
AcDbLine
62
9
6
CONTINUOUS
10
61.4564554493
20
20.3061575326
11
61.4541791245
21
20.3078078783
0
LINE
5
41B
100
AcDbEntity
8
0
100
AcDbLine
62
9
6
CONTINUOUS
10
61.1528403249
20
21.5934298456
11
61.1329567849
21
21.6079721813
0
LINE
5
41C
100
AcDbEntity
8
0
100
AcDbLine
62
0
6
CONTINUOUS
10
61.2251188743
20
21.6733966139
11
61.2435391191
21
21.6592647498
0
LINE
5
41D
100
AcDbEntity
8
0
100
AcDbLine
62
9
6
CONTINUOUS
10
61.1722668793
20
21.5782823447
11
61.1528403249
21
21.5934298456
0
LINE
5
41E
100
AcDbEntity
8
0
100
AcDbLine
62
0
6
CONTINUOUS
10
61.2435391191
20
21.6592647498
11
61.2615464707
21
21.6445967622
0
LINE
5
41F
100
AcDbEntity
8
0
100
AcDbLine
62
0
6
CONTINUOUS
10
48.2753546829
20
-8.1560144410
11
48.2675923039
21
-8.1479566942
0
LINE
5
420
100
AcDbEntity
8
0
100
AcDbLine
62
0
6
CONTINUOUS
10
48.2816111791
20
-8.1340120892
11
48.2893752007
21
-8.1420728115
0
LINE
5
421
100
AcDbEntity
8
DEFAULT_3
100
AcDbLine
62
9
6
PHANTOM
10
48.2094704253
20
-8.2674603265
11
48.2271498034
21
-8.2867387976
0
LINE
5
422
100
AcDbEntity
8
DEFAULT_3
100
AcDbLine
62
9
6
PHANTOM
10
48.2271603659
20
-8.2521930226
11
48.2094796576
21
-8.2328989437
0
LINE
5
423
100
AcDbEntity
8
DEFAULT_3
100
AcDbLine
62
9
6
PHANTOM
10
48.0326962463
20
-8.4511110528
11
48.0356412372
21
-8.4543341410
0
LINE
5
424
100
AcDbEntity
8
0
100
AcDbLine
62
0
6
CONTINUOUS
10
48.0530545502
20
-8.4795782000
11
48.0210772750
21
-8.4444366750
0
LINE
5
425
100
AcDbEntity
8
0
100
AcDbLine
62
0
6
CONTINUOUS
10
48.0210772750
20
-8.4318682508
11
48.0530545502
21
-8.4670097758
0
LINE
5
426
100
AcDbEntity
8
0
100
AcDbLine
62
0
6
CONTINUOUS
10
48.2828217761
20
-8.1643679373
11
48.2753546829
21
-8.1560144410
0
LINE
5
427
100
AcDbEntity
8
0
100
AcDbLine
62
0
6
CONTINUOUS
10
48.2893752007
20
-8.1420728115
11
48.2968331471
21
-8.1504176943
0
LINE
5
428
100
AcDbEntity
8
0
100
AcDbLine
62
0
6
CONTINUOUS
10
48.2968331471
20
-8.1504176943
11
48.3039868364
21
-8.1590504078
0
LINE
5
429
100
AcDbEntity
8
0
100
AcDbLine
62
0
6
CONTINUOUS
10
48.2899728378
20
-8.1729990154
11
48.2828217761
21
-8.1643679373
0
LINE
5
42A
100
AcDbEntity
8
0
100
AcDbLine
62
0
6
CONTINUOUS
10
48.0833553413
20
-8.5162629564
11
48.0530545502
21
-8.4795782000
0
LINE
5
42B
100
AcDbEntity
8
0
100
AcDbLine
62
0
6
CONTINUOUS
10
48.0530545502
20
-8.4670097758
11
48.0833553413
21
-8.5036945321
0
LINE
5
42C
100
AcDbEntity
8
DEFAULT_3
100
AcDbLine
62
9
6
PHANTOM
10
48.2973379505
20
-15.4388444787
11
48.2967836969
21
-15.4381546489
0
LINE
5
42D
100
AcDbEntity
8
DEFAULT_3
100
AcDbLine
62
9
6
PHANTOM
10
48.2967836969
20
-9.6432468769
11
48.2973379505
21
-9.6439367067
0
LINE
5
42E
100
AcDbEntity
8
DEFAULT_3
100
AcDbLine
62
9
6
PHANTOM
10
48.2271498034
20
-8.2867387976
11
48.2430805407
21
-8.3074833860
0
LINE
5
42F
100
AcDbEntity
8
DEFAULT_3
100
AcDbLine
62
9
6
PHANTOM
10
48.2430916124
20
-8.2729540067
11
48.2271603659
21
-8.2521930226
0
LINE
5
430
100
AcDbEntity
8
0
100
AcDbLine
62
0
6
CONTINUOUS
10
48.3039868364
20
-8.1590504078
11
48.3108332249
21
-8.1679720031
0
LINE
5
431
100
AcDbEntity
8
0
100
AcDbLine
62
0
6
CONTINUOUS
10
48.2968154176
20
-8.1819205018
11
48.2899728378
21
-8.1729990154
0
LINE
5
432
100
AcDbEntity
8
DEFAULT_3
100
AcDbLine
62
9
6
PHANTOM
10
48.0356412372
20
-8.4543341410
11
48.0383164256
21
-8.4578265512
0
LINE
5
433
100
AcDbEntity
8
0
100
AcDbLine
62
0
6
CONTINUOUS
10
48.1119652750
20
-8.5544506648
11
48.0833553413
21
-8.5162629564
0
LINE
5
434
100
AcDbEntity
8
0
100
AcDbLine
62
0
6
CONTINUOUS
10
48.0833553413
20
-8.5036945321
11
48.1119652750
21
-8.5418822406
0
LINE
5
435
100
AcDbEntity
8
0
100
AcDbLine
62
0
6
CONTINUOUS
10
48.3033419658
20
-8.1911195702
11
48.2968154176
21
-8.1819205018
0
LINE
5
436
100
AcDbEntity
8
0
100
AcDbLine
62
0
6
CONTINUOUS
10
48.3108332249
20
-8.1679720031
11
48.3173514559
21
-8.1771602611
0
LINE
5
437
100
AcDbEntity
8
0
100
AcDbLine
62
0
6
CONTINUOUS
10
30.6560212530
20
-16.4679997451
11
30.6827106260
21
-16.5073831468
0
LINE
5
438
100
AcDbEntity
8
0
100
AcDbLine
62
0
6
CONTINUOUS
10
48.1386546480
20
-8.5938340666
11
48.1119652750
21
-8.5544506648
0
LINE
5
439
100
AcDbEntity
8
0
100
AcDbLine
62
0
6
CONTINUOUS
10
48.1119652750
20
-8.5418822406
11
48.1386546480
21
-8.5812656424
0
LINE
5
43A
100
AcDbEntity
8
0
100
AcDbLine
62
0
6
CONTINUOUS
10
30.4804769675
20
-16.9132248156
11
30.4743066916
21
-16.9038190706
0
LINE
5
43B
100
AcDbEntity
8
0
100
AcDbLine
62
0
6
CONTINUOUS
10
30.4882644918
20
-16.8478805934
11
30.4944323840
21
-16.8572866788
0
LINE
5
43C
100
AcDbEntity
8
0
100
AcDbLine
62
0
6
CONTINUOUS
10
48.3095090881
20
-8.2005395736
11
48.3033419658
21
-8.1911195702
0
LINE
5
43D
100
AcDbEntity
8
0
100
AcDbLine
62
0
6
CONTINUOUS
10
48.3173514559
20
-8.1771602611
11
48.3235177392
21
-8.1865830971
0
LINE
5
43E
100
AcDbEntity
8
DEFAULT_3
100
AcDbLine
62
9
6
PHANTOM
10
30.5515953603
20
-16.8441363681
11
30.5375339215
21
-16.8220868397
0
LINE
5
43F
100
AcDbEntity
8
DEFAULT_3
100
AcDbLine
62
9
6
PHANTOM
10
30.7563594754
20
-16.7147385794
11
30.7540146062
21
-16.7110614017
0
LINE
5
440
100
AcDbEntity
8
0
100
AcDbLine
62
0
6
CONTINUOUS
10
30.6312865502
20
-16.4274439403
11
30.6560212530
21
-16.4679997451
0
LINE
5
441
100
AcDbEntity
8
0
100
AcDbLine
62
0
6
CONTINUOUS
10
30.4743066916
20
-16.9038190706
11
30.4684977599
21
-16.8941950726
0
LINE
5
442
100
AcDbEntity
8
0
100
AcDbLine
62
0
6
CONTINUOUS
10
30.4824614589
20
-16.8382542384
11
30.4882644918
21
-16.8478805934
0
LINE
5
443
100
AcDbEntity
8
0
100
AcDbLine
62
9
6
CONTINUOUS
10
17.3242142613
20
20.9546816352
11
17.3239116671
21
20.9551996457
0
LINE
5
444
100
AcDbEntity
8
DEFAULT_3
100
AcDbLine
62
9
6
PHANTOM
10
30.5315614965
20
-16.8113436733
11
30.5448777591
21
-16.8342385276
0
LINE
5
445
100
AcDbEntity
8
0
100
AcDbLine
62
0
6
CONTINUOUS
10
17.3545222074
20
-21.4684782450
11
17.3431697203
21
-21.4481329446
0
LINE
5
446
100
AcDbEntity
8
0
100
AcDbLine
62
9
6
CONTINUOUS
10
17.4191664938
20
-21.3702464817
11
17.4311562095
21
-21.3917653669
0
LINE
5
447
100
AcDbEntity
8
0
100
AcDbLine
62
0
6
CONTINUOUS
10
30.4684977599
20
-16.8941950726
11
30.4630565034
21
-16.8843646394
0
LINE
5
448
100
AcDbEntity
8
0
100
AcDbLine
62
0
6
CONTINUOUS
10
30.4770178737
20
-16.8284080373
11
30.4824614589
21
-16.8382542384
0
LINE
5
449
100
AcDbEntity
8
0
100
AcDbLine
62
0
6
CONTINUOUS
10
30.6084724082
20
-16.3856924422
11
30.6312865502
21
-16.4274439403
0
LINE
5
44A
100
AcDbEntity
8
DEFAULT_3
100
AcDbLine
62
9
6
PHANTOM
10
30.5375339215
20
-16.8220868397
11
30.5254487706
21
-16.7988954692
0
LINE
5
44B
100
AcDbEntity
8
0
100
AcDbLine
62
0
6
CONTINUOUS
10
17.3431697203
20
-21.4481329446
11
17.3323944945
21
-21.4274323999
0
LINE
5
44C
100
AcDbEntity
8
DEFAULT_3
100
AcDbLine
62
9
6
PHANTOM
10
30.7540146062
20
-16.7110614017
11
30.7520078277
21
-16.7071880129
0
LINE
5
44D
100
AcDbEntity
8
0
100
AcDbLine
62
9
6
CONTINUOUS
10
17.4078448968
20
-21.3483688480
11
17.4191664938
21
-21.3702464817
0
LINE
5
44E
100
AcDbEntity
8
0
100
AcDbLine
62
0
6
CONTINUOUS
10
30.4630565034
20
-16.8843646394
11
30.4579973878
21
-16.8743569283
0
LINE
5
44F
100
AcDbEntity
8
0
100
AcDbLine
62
0
6
CONTINUOUS
10
30.4719606794
20
-16.8183999220
11
30.4770178737
21
-16.8284080373
0
LINE
5
450
100
AcDbEntity
8
0
100
AcDbLine
62
0
6
CONTINUOUS
10
17.3323944945
20
-21.4274323999
11
17.3222385280
21
-21.4064550147
0
LINE
5
451
100
AcDbEntity
8
0
100
AcDbLine
62
9
6
CONTINUOUS
10
17.3358887554
20
-20.3395461312
11
17.3366839696
21
-20.3412010811
0
LINE
5
452
100
AcDbEntity
8
0
100
AcDbLine
62
9
6
CONTINUOUS
10
17.3972021537
20
-21.3261532099
11
17.4078448968
21
-21.3483688480
0
LINE
5
453
100
AcDbEntity
8
0
100
AcDbLine
62
0
6
CONTINUOUS
10
17.3222385280
20
-21.4064550147
11
17.3127080258
21
-21.3852041236
0
LINE
5
454
100
AcDbEntity
8
0
100
AcDbLine
62
9
6
CONTINUOUS
10
17.3872483558
20
-21.3036206321
11
17.3972021537
21
-21.3261532099
0
LINE
5
455
100
AcDbEntity
8
0
100
AcDbLine
62
0
6
CONTINUOUS
10
17.3127080258
20
-21.3852041236
11
17.3037967830
21
-21.3636763920
0
LINE
5
456
100
AcDbEntity
8
0
100
AcDbLine
62
9
6
CONTINUOUS
10
-24.2996510091
20
-20.4926820249
11
-24.2944786933
21
-20.5092173346
0
LINE
5
457
100
AcDbEntity
8
0
100
AcDbLine
62
9
6
CONTINUOUS
10
-24.3044117578
20
-20.4760235320
11
-24.2996510091
21
-20.4926820249
0
LINE
5
458
100
AcDbEntity
8
0
100
AcDbLine
62
9
6
CONTINUOUS
10
-24.3087616917
20
-20.4592421026
11
-24.3044117578
21
-20.4760235320
0
LINE
5
459
100
AcDbEntity
8
0
100
AcDbLine
62
9
6
CONTINUOUS
10
-24.3126928180
20
-20.4423686037
11
-24.3087616917
21
-20.4592421026
0
LINE
5
45A
100
AcDbEntity
8
0
100
AcDbLine
62
9
6
CONTINUOUS
10
60.7935571147
20
-21.7822748842
11
60.7691627781
21
-21.7856845105
0
LINE
5
45B
100
AcDbEntity
8
0
100
AcDbLine
62
9
6
CONTINUOUS
10
61.3813987562
20
-20.3620231035
11
61.3706020900
21
-20.3635194318
0
LINE
5
45C
100
AcDbEntity
8
0
100
AcDbLine
62
0
6
CONTINUOUS
10
60.8633576484
20
-21.8599069942
11
60.8402257132
21
-21.8629492156
0
LINE
5
45D
100
AcDbEntity
8
0
100
AcDbLine
62
9
6
CONTINUOUS
10
61.3706020900
20
-20.3635194318
11
61.3591452230
21
-20.3649935213
0
LINE
5
45E
100
AcDbEntity
8
0
100
AcDbLine
62
9
6
CONTINUOUS
10
61.3591452230
20
-20.3649935213
11
61.3470387829
21
-20.3664440046
0
LINE
5
45F
100
AcDbEntity
8
0
100
AcDbLine
62
0
6
CONTINUOUS
10
47.3925535425
20
-16.9225072720
11
47.4396625239
21
-16.9168828161
0
LINE
5
460
100
AcDbEntity
8
0
100
AcDbLine
62
9
6
CONTINUOUS
10
61.3470387829
20
-20.3664440046
11
61.3342940005
21
-20.3678695361
0
LINE
5
461
100
AcDbEntity
8
DEFAULT_3
100
AcDbLine
62
9
6
PHANTOM
10
48.2757237153
20
-16.6778759815
11
48.2638434508
21
-16.6791713430
0
LINE
5
462
100
AcDbEntity
8
0
100
AcDbLine
62
9
6
CONTINUOUS
10
60.7691627781
20
-21.7856845105
11
60.7446752563
21
-21.7883414728
0
LINE
5
463
100
AcDbEntity
8
0
100
AcDbLine
62
9
6
CONTINUOUS
10
61.3342940005
20
-20.3678695361
11
61.3209226983
21
-20.3692687935
0
LINE
5
464
100
AcDbEntity
8
0
100
AcDbLine
62
0
6
CONTINUOUS
10
60.8402257132
20
-21.8629492156
11
60.8170607906
21
-21.8653154267
0
LINE
5
465
100
AcDbEntity
8
0
100
AcDbLine
62
9
6
CONTINUOUS
10
61.3209226983
20
-20.3692687935
11
61.3069372802
21
-20.3706404787
0
LINE
5
466
100
AcDbEntity
8
0
100
AcDbLine
62
9
6
CONTINUOUS
10
-25.1101311943
20
-20.3937224936
11
-25.1112394985
21
-20.3938268650
0
LINE
5
467
100
AcDbEntity
8
0
100
AcDbLine
62
0
6
CONTINUOUS
10
48.0747129017
20
-16.9873317402
11
48.0858454266
21
-16.9862898151
0
LINE
5
468
100
AcDbEntity
8
0
100
AcDbLine
62
0
6
CONTINUOUS
10
48.0998234108
20
-17.0421305404
11
48.0886656670
21
-17.0431721304
0
LINE
5
469
100
AcDbEntity
8
DEFAULT_3
100
AcDbLine
62
9
6
PHANTOM
10
30.5231155491
20
-15.4342130932
11
30.5163680674
21
-15.4348363723
0
LINE
5
46A
100
AcDbEntity
8
0
100
AcDbLine
62
9
6
CONTINUOUS
10
61.3069372802
20
-20.3706404787
11
61.2923507197
21
-20.3719833192
0
LINE
5
46B
100
AcDbEntity
8
0
100
AcDbLine
62
9
6
CONTINUOUS
10
61.2923507197
20
-20.3719833192
11
61.2771765482
21
-20.3732960695
0
LINE
5
46C
100
AcDbEntity
8
DEFAULT_3
100
AcDbLine
62
9
6
PHANTOM
10
48.0101199590
20
-16.9718702324
11
48.0363462799
21
-16.9696007960
0
LINE
5
46D
100
AcDbEntity
8
DEFAULT_3
100
AcDbLine
62
9
6
PHANTOM
10
48.2638434508
20
-16.6791713430
11
48.2495911066
21
-16.6803906130
0
LINE
5
46E
100
AcDbEntity
8
0
100
AcDbLine
62
9
6
CONTINUOUS
10
-25.1082838548
20
-20.3935678656
11
-25.1101311943
21
-20.3937224936
0
LINE
5
46F
100
AcDbEntity
8
0
100
AcDbLine
62
9
6
CONTINUOUS
10
61.2771765482
20
-20.3732960695
11
61.2614288418
21
-20.3745775117
0
LINE
5
470
100
AcDbEntity
8
DEFAULT_3
100
AcDbLine
62
9
6
PHANTOM
10
30.5308492578
20
-15.4336069285
11
30.5231155491
21
-15.4342130932
0
LINE
5
471
100
AcDbEntity
8
0
100
AcDbLine
62
9
6
CONTINUOUS
10
60.7446752563
20
-21.7883414728
11
60.7201177681
21
-21.7902432519
0
LINE
5
472
100
AcDbEntity
8
0
100
AcDbLine
62
9
6
CONTINUOUS
10
61.2614288418
20
-20.3745775117
11
61.2451222089
21
-20.3758264571
0
LINE
5
473
100
AcDbEntity
8
0
100
AcDbLine
62
9
6
CONTINUOUS
10
-25.0983281793
20
-20.3928041087
11
-25.1082838548
21
-20.3935678656
0
LINE
5
474
100
AcDbEntity
8
DEFAULT_3
100
AcDbLine
62
9
6
PHANTOM
10
48.2851020796
20
-8.4816065061
11
48.2757243149
21
-8.4822960348
0
LINE
5
475
100
AcDbEntity
8
0
100
AcDbLine
62
0
6
CONTINUOUS
10
60.8170607906
20
-21.8653154267
11
60.7938934460
21
-21.8670024553
0
LINE
5
476
100
AcDbEntity
8
0
100
AcDbLine
62
0
6
CONTINUOUS
10
47.3451120180
20
-16.9258976120
11
47.3925535425
21
-16.9225072720
0
LINE
5
477
100
AcDbEntity
8
0
100
AcDbLine
62
9
6
CONTINUOUS
10
-24.9390613394
20
-20.3815442961
11
-25.0983281793
21
-20.3928041087
0
LINE
5
478
100
AcDbEntity
8
0
100
AcDbLine
62
9
6
CONTINUOUS
10
61.2451222089
20
-20.3758264571
11
61.2108931753
21
-20.3782222544
0
LINE
5
479
100
AcDbEntity
8
0
100
AcDbLine
62
9
6
CONTINUOUS
10
-24.3274169834
20
-20.3395461312
11
-24.9390613394
21
-20.3815442961
0
LINE
5
47A
100
AcDbEntity
8
DEFAULT_3
100
AcDbLine
62
9
6
PHANTOM
10
48.2495911066
20
-16.6803906130
11
48.2331228558
21
-16.6815204332
0
LINE
5
47B
100
AcDbEntity
8
DEFAULT_3
100
AcDbLine
62
9
6
PHANTOM
10
30.5394705474
20
-15.4330256100
11
30.5308492578
21
-15.4336069285
0
LINE
5
47C
100
AcDbEntity
8
DEFAULT_3
100
AcDbLine
62
9
6
PHANTOM
10
30.5308492578
20
-9.6386991565
11
30.5394705474
21
-9.6381178381
0
LINE
5
47D
100
AcDbEntity
8
0
100
AcDbLine
62
9
6
CONTINUOUS
10
61.2108931753
20
-20.3782222544
11
61.1746164279
21
-20.3804745735
0
LINE
5
47E
100
AcDbEntity
8
DEFAULT_3
100
AcDbLine
62
9
6
PHANTOM
10
30.5489907876
20
-15.4324694560
11
30.5394705474
21
-15.4330256100
0
LINE
5
47F
100
AcDbEntity
8
DEFAULT_3
100
AcDbLine
62
9
6
PHANTOM
10
30.5394705474
20
-9.6381178381
11
30.5489907876
21
-9.6375616841
0
LINE
5
480
100
AcDbEntity
8
0
100
AcDbLine
62
0
6
CONTINUOUS
10
48.0886656670
20
-17.0431721304
11
48.0774941673
21
-17.0437962420
0
LINE
5
481
100
AcDbEntity
8
0
100
AcDbLine
62
0
6
CONTINUOUS
10
48.0635541944
20
-16.9879556892
11
48.0747129017
21
-16.9873317402
0
LINE
5
482
100
AcDbEntity
8
0
100
AcDbLine
62
0
6
CONTINUOUS
10
45.7361518156
20
-8.0685547492
11
45.7249921556
21
-8.0691794139
0
LINE
5
483
100
AcDbEntity
8
0
100
AcDbLine
62
0
6
CONTINUOUS
10
45.7250087180
20
-8.0609599837
11
45.7361602899
21
-8.0603359986
0
LINE
5
484
100
AcDbEntity
8
0
100
AcDbLine
62
0
6
CONTINUOUS
10
30.7279283914
20
-8.0603360528
11
30.7167749583
21
-8.0609602301
0
LINE
5
485
100
AcDbEntity
8
0
100
AcDbLine
62
0
6
CONTINUOUS
10
30.7027956245
20
-8.0469930942
11
30.7139675087
21
-8.0463678726
0
LINE
5
486
100
AcDbEntity
8
DEFAULT_3
100
AcDbLine
62
9
6
PHANTOM
10
48.2331228558
20
-16.6815204332
11
48.2146191451
21
-16.6825484260
0
LINE
5
487
100
AcDbEntity
8
0
100
AcDbLine
62
9
6
CONTINUOUS
10
-25.3405839866
20
-16.6851609438
11
-25.3577458087
21
-16.6861158856
0
LINE
5
488
100
AcDbEntity
8
DEFAULT_3
100
AcDbLine
62
9
6
PHANTOM
10
48.2757243149
20
-8.4822960348
11
48.2638443014
21
-8.4829541188
0
LINE
5
489
100
AcDbEntity
8
0
100
AcDbLine
62
9
6
CONTINUOUS
10
61.1746164279
20
-20.3804745735
11
61.1364265438
21
-20.3825750591
0
LINE
5
48A
100
AcDbEntity
8
DEFAULT_3
100
AcDbLine
62
9
6
PHANTOM
10
30.5593986087
20
-15.4319381483
11
30.5489907876
21
-15.4324694560
0
LINE
5
48B
100
AcDbEntity
8
DEFAULT_3
100
AcDbLine
62
9
6
PHANTOM
10
30.5489907876
20
-9.6375616841
11
30.5593986087
21
-9.6370303763
0
LINE
5
48C
100
AcDbEntity
8
0
100
AcDbLine
62
9
6
CONTINUOUS
10
61.1364265438
20
-20.3825750591
11
61.0964651973
21
-20.3845159189
0
LINE
5
48D
100
AcDbEntity
8
0
100
AcDbLine
62
9
6
CONTINUOUS
10
60.7201177681
20
-21.7902432519
11
60.6955135987
21
-21.7913880444
0
LINE
5
48E
100
AcDbEntity
8
DEFAULT_3
100
AcDbLine
62
9
6
PHANTOM
10
48.2146191451
20
-16.6825484260
11
48.1942827246
21
-16.6834633292
0
LINE
5
48F
100
AcDbEntity
8
DEFAULT_3
100
AcDbLine
62
9
6
PHANTOM
10
30.5705612552
20
-15.4314384637
11
30.5593986087
21
-15.4319381483
0
LINE
5
490
100
AcDbEntity
8
DEFAULT_3
100
AcDbLine
62
9
6
PHANTOM
10
30.5593986087
20
-9.6370303763
11
30.5705612552
21
-9.6365306917
0
LINE
5
491
100
AcDbEntity
8
DEFAULT_3
100
AcDbLine
62
9
6
PHANTOM
10
30.7929613971
20
-8.4366496160
11
30.7973379505
21
-8.4364555947
0
LINE
5
492
100
AcDbEntity
8
DEFAULT_3
100
AcDbLine
62
9
6
PHANTOM
10
48.0017145039
20
-16.7358910023
11
47.9973379505
21
-16.7360847985
0
LINE
5
493
100
AcDbEntity
8
DEFAULT_3
100
AcDbLine
62
9
6
PHANTOM
10
48.0234869598
20
-16.9707937729
11
47.9973379505
21
-16.9719344440
0
LINE
5
494
100
AcDbEntity
8
DEFAULT_3
100
AcDbLine
62
9
6
PHANTOM
10
30.7711889412
20
-8.1808014883
11
30.7973379505
21
-8.1796605831
0
LINE
5
495
100
AcDbEntity
8
DEFAULT_3
100
AcDbLine
62
9
6
PHANTOM
10
30.7973379505
20
-8.1452536622
11
30.7711889619
21
-8.1463944486
0
LINE
5
496
100
AcDbEntity
8
DEFAULT_3
100
AcDbLine
62
9
6
PHANTOM
10
30.7711899963
20
-8.1461757008
11
30.7973379535
21
-8.1450341696
0
LINE
5
497
100
AcDbEntity
8
0
100
AcDbLine
62
0
6
CONTINUOUS
10
60.7938934460
20
-21.8670024553
11
60.7706931139
21
-21.8680134736
0
LINE
5
498
100
AcDbEntity
8
DEFAULT_3
100
AcDbLine
62
9
6
PHANTOM
10
48.2638443014
20
-8.4829541188
11
48.2495921990
21
-8.4835735483
0
LINE
5
499
100
AcDbEntity
8
0
100
AcDbLine
62
9
6
CONTINUOUS
10
61.0964651973
20
-20.3845159189
11
61.0548806343
21
-20.3862899528
0
LINE
5
49A
100
AcDbEntity
8
DEFAULT_3
100
AcDbLine
62
9
6
PHANTOM
10
30.5824883964
20
-15.4309708074
11
30.5705612552
21
-15.4314384637
0
LINE
5
49B
100
AcDbEntity
8
DEFAULT_3
100
AcDbLine
62
9
6
PHANTOM
10
30.5705612552
20
-9.6365306917
11
30.5824883964
21
-9.6360630354
0
LINE
5
49C
100
AcDbEntity
8
0
100
AcDbLine
62
9
6
CONTINUOUS
10
61.0548806343
20
-20.3862899528
11
61.0118271223
21
-20.3878905796
0
LINE
5
49D
100
AcDbEntity
8
DEFAULT_3
100
AcDbLine
62
9
6
PHANTOM
10
48.1942827246
20
-16.6834633292
11
48.1723364201
21
-16.6842551198
0
LINE
5
49E
100
AcDbEntity
8
DEFAULT_3
100
AcDbLine
62
9
6
PHANTOM
10
48.2495921990
20
-8.4835735483
11
48.2331241568
21
-8.4841475367
0
LINE
5
49F
100
AcDbEntity
8
DEFAULT_3
100
AcDbLine
62
9
6
PHANTOM
10
30.6084453923
20
-15.4301359263
11
30.5824883964
21
-15.4309708074
0
LINE
5
4A0
100
AcDbEntity
8
DEFAULT_3
100
AcDbLine
62
9
6
PHANTOM
10
30.5824883964
20
-9.6360630354
11
30.6084453923
21
-9.6352281544
0
LINE
5
4A1
100
AcDbEntity
8
0
100
AcDbLine
62
9
6
CONTINUOUS
10
61.0118271223
20
-20.3878905796
11
60.9674643784
21
-20.3893118614
0
LINE
5
4A2
100
AcDbEntity
8
DEFAULT_3
100
AcDbLine
62
9
6
PHANTOM
10
48.1723364201
20
-16.6842551198
11
48.1490206885
21
-16.6849151241
0
LINE
5
4A3
100
AcDbEntity
8
0
100
AcDbLine
62
9
6
CONTINUOUS
10
-25.6842855796
20
-8.4859941922
11
-25.7015692573
21
-8.4864822144
0
LINE
5
4A4
100
AcDbEntity
8
DEFAULT_3
100
AcDbLine
62
9
6
PHANTOM
10
48.2331241568
20
-8.4841475367
11
48.2146206020
21
-8.4846697951
0
LINE
5
4A5
100
AcDbEntity
8
0
100
AcDbLine
62
9
6
CONTINUOUS
10
60.9674643784
20
-20.3893118614
11
60.9219569765
21
-20.3905485257
0
LINE
5
4A6
100
AcDbEntity
8
0
100
AcDbLine
62
0
6
CONTINUOUS
10
47.2973379505
20
-16.9270538363
11
47.3451120180
21
-16.9258976120
0
LINE
5
4A7
100
AcDbEntity
8
DEFAULT_3
100
AcDbLine
62
9
6
PHANTOM
10
48.3602775396
20
-15.4473687792
11
48.2973379505
21
-15.4488911584
0
LINE
5
4A8
100
AcDbEntity
8
DEFAULT_3
100
AcDbLine
62
9
6
PHANTOM
10
30.6367898324
20
-15.4294507378
11
30.6084453923
21
-15.4301359263
0
LINE
5
4A9
100
AcDbEntity
8
DEFAULT_3
100
AcDbLine
62
9
6
PHANTOM
10
48.3623980959
20
-9.6524097153
11
48.2973379505
21
-9.6539833864
0
LINE
5
4AA
100
AcDbEntity
8
DEFAULT_3
100
AcDbLine
62
9
6
PHANTOM
10
30.6084453923
20
-9.6352281544
11
30.6367898324
21
-9.6345429658
0
LINE
5
4AB
100
AcDbEntity
8
DEFAULT_3
100
AcDbLine
62
9
6
PHANTOM
10
30.4322709909
20
-9.6337880730
11
30.4457096362
21
-9.6334630198
0
LINE
5
4AC
100
AcDbEntity
8
0
100
AcDbLine
62
0
6
CONTINUOUS
10
31.4973379505
20
-8.1347799754
11
31.4495638830
21
-8.1359361996
0
LINE
5
4AD
100
AcDbEntity
8
0
100
AcDbLine
62
0
6
CONTINUOUS
10
31.4495638830
20
-8.1233677754
11
31.4973379505
21
-8.1222115511
0
LINE
5
4AE
100
AcDbEntity
8
DEFAULT_3
100
AcDbLine
62
9
6
PHANTOM
10
48.2146206020
20
-8.4846697951
11
48.1942842635
21
-8.4851346018
0
LINE
5
4AF
100
AcDbEntity
8
0
100
AcDbLine
62
9
6
CONTINUOUS
10
60.9219569765
20
-20.3905485257
11
60.8754737370
21
-20.3915959847
0
LINE
5
4B0
100
AcDbEntity
8
DEFAULT_3
100
AcDbLine
62
9
6
PHANTOM
10
47.9973379478
20
-16.9721452571
11
48.0101199590
21
-16.9718702324
0
LINE
5
4B1
100
AcDbEntity
8
DEFAULT_3
100
AcDbLine
62
9
6
PHANTOM
10
48.1490206885
20
-16.6849151241
11
48.1245909859
21
-16.6854361122
0
LINE
5
4B2
100
AcDbEntity
8
0
100
AcDbLine
62
0
6
CONTINUOUS
10
48.0774941673
20
-17.0437962420
11
48.0663245572
21
-17.0440039372
0
LINE
5
4B3
100
AcDbEntity
8
0
100
AcDbLine
62
0
6
CONTINUOUS
10
30.7139675087
20
-8.0463678726
11
30.7251378449
21
-8.0461597991
0
LINE
5
4B4
100
AcDbEntity
8
0
100
AcDbLine
62
0
6
CONTINUOUS
10
48.0523693049
20
-16.9881616622
11
48.0635541944
21
-16.9879556892
0
LINE
5
4B5
100
AcDbEntity
8
0
100
AcDbLine
62
0
6
CONTINUOUS
10
45.7473379505
20
-8.0683484816
11
45.7361518156
21
-8.0685547492
0
LINE
5
4B6
100
AcDbEntity
8
0
100
AcDbLine
62
0
6
CONTINUOUS
10
45.7361602899
20
-8.0603359986
11
45.7473379505
21
-8.0601300274
0
LINE
5
4B7
100
AcDbEntity
8
0
100
AcDbLine
62
0
6
CONTINUOUS
10
30.7391080732
20
-8.0601300274
11
30.7279283914
21
-8.0603360528
0
LINE
5
4B8
100
AcDbEntity
8
DEFAULT_3
100
AcDbLine
62
9
6
PHANTOM
10
30.6669580939
20
-15.4289272167
11
30.6367898324
21
-15.4294507378
0
LINE
5
4B9
100
AcDbEntity
8
DEFAULT_3
100
AcDbLine
62
9
6
PHANTOM
10
30.6367898324
20
-9.6345429658
11
30.6669580939
21
-9.6340194447
0
LINE
5
4BA
100
AcDbEntity
8
0
100
AcDbLine
62
9
6
CONTINUOUS
10
60.8754737370
20
-20.3915959847
11
60.8042972280
21
-20.3928041087
0
LINE
5
4BB
100
AcDbEntity
8
DEFAULT_3
100
AcDbLine
62
9
6
PHANTOM
10
48.1942842635
20
-8.4851346018
11
48.1490221113
21
-8.4858721746
0
LINE
5
4BC
100
AcDbEntity
8
DEFAULT_3
100
AcDbLine
62
9
6
PHANTOM
10
48.1245909859
20
-16.6854361122
11
48.0993149708
21
-16.6858123775
0
LINE
5
4BD
100
AcDbEntity
8
DEFAULT_3
100
AcDbLine
62
9
6
PHANTOM
10
30.6985653700
20
-15.4285720408
11
30.6669580939
21
-15.4289272167
0
LINE
5
4BE
100
AcDbEntity
8
DEFAULT_3
100
AcDbLine
62
9
6
PHANTOM
10
30.6669580939
20
-9.6340194447
11
30.6985653700
21
-9.6336642688
0
LINE
5
4BF
100
AcDbEntity
8
DEFAULT_3
100
AcDbLine
62
9
6
PHANTOM
10
48.1490221113
20
-8.4858721746
11
48.0993158732
21
-8.4863280197
0
LINE
5
4C0
100
AcDbEntity
8
DEFAULT_3
100
AcDbLine
62
9
6
PHANTOM
10
48.0993149708
20
-16.6858123775
11
48.0734695717
21
-16.6860397987
0
LINE
5
4C1
100
AcDbEntity
8
DEFAULT_3
100
AcDbLine
62
9
6
PHANTOM
10
30.7308721678
20
-15.4283940121
11
30.6985653700
21
-15.4285720408
0
LINE
5
4C2
100
AcDbEntity
8
DEFAULT_3
100
AcDbLine
62
9
6
PHANTOM
10
30.6985653700
20
-9.6336642688
11
30.7308721678
21
-9.6334862402
0
LINE
5
4C3
100
AcDbEntity
8
0
100
AcDbLine
62
0
6
CONTINUOUS
10
-19.2543447683
20
-1.2543857909
11
-14.2543447683
21
-1.2369324275
0
LINE
5
4C4
100
AcDbEntity
8
DEFAULT_3
100
AcDbLine
62
9
6
PHANTOM
10
48.0993158732
20
-8.4863280197
11
48.0473379505
21
-8.4864822144
0
LINE
5
4C5
100
AcDbEntity
8
DEFAULT_3
100
AcDbLine
62
9
6
PHANTOM
10
48.0734695717
20
-16.6860397987
11
48.0473379505
21
-16.6861158856
0
LINE
5
4C6
100
AcDbEntity
8
0
100
AcDbLine
62
0
6
CONTINUOUS
10
48.0663245572
20
-17.0440039372
11
30.7283513438
21
-17.0440039372
0
LINE
5
4C7
100
AcDbEntity
8
0
100
AcDbLine
62
0
6
CONTINUOUS
10
30.7423065962
20
-16.9881616622
11
48.0523693049
21
-16.9881616622
0
LINE
5
4C8
100
AcDbEntity
8
0
100
AcDbLine
62
9
6
CONTINUOUS
10
47.9973379503
20
-16.9721539366
11
30.7973379513
21
-16.9721539366
0
LINE
5
4C9
100
AcDbEntity
8
0
100
AcDbLine
62
0
6
CONTINUOUS
10
31.4973379505
20
-16.9270538363
11
47.2973379505
21
-16.9270538363
0
LINE
5
4CA
100
AcDbEntity
8
0
100
AcDbLine
62
9
6
CONTINUOUS
10
47.9973379505
20
-16.7360847985
11
30.7973379505
21
-16.7360847985
0
LINE
5
4CB
100
AcDbEntity
8
0
100
AcDbLine
62
0
6
CONTINUOUS
10
30.4344181218
20
-15.5013690044
11
30.4973379505
21
-15.5013690044
0
LINE
5
4CC
100
AcDbEntity
8
0
100
AcDbLine
62
0
6
CONTINUOUS
10
48.2973379505
20
-15.5013690044
11
48.3602577792
21
-15.5013690044
0
LINE
5
4CD
100
AcDbEntity
8
DEFAULT_3
100
AcDbLine
62
9
6
PHANTOM
10
48.3489662648
20
-15.4283707918
11
48.0473379505
21
-15.4283707918
0
LINE
5
4CE
100
AcDbEntity
8
DEFAULT_3
100
AcDbLine
62
9
6
PHANTOM
10
30.7473379505
20
-15.4283707918
11
30.4457096362
21
-15.4283707918
0
LINE
5
4CF
100
AcDbEntity
8
DEFAULT_3
100
AcDbLine
62
9
6
PHANTOM
10
30.4457096362
20
-9.6334630198
11
30.4973379505
21
-9.6334630198
0
LINE
5
4D0
100
AcDbEntity
8
DEFAULT_3
100
AcDbLine
62
9
6
PHANTOM
10
30.4973379505
20
-9.6334630198
11
30.7473379505
21
-9.6334630198
0
LINE
5
4D1
100
AcDbEntity
8
DEFAULT_3
100
AcDbLine
62
9
6
PHANTOM
10
48.2973379505
20
-9.6334630198
11
48.3489662648
21
-9.6334630198
0
LINE
5
4D2
100
AcDbEntity
8
DEFAULT_3
100
AcDbLine
62
9
6
PHANTOM
10
48.0473379505
20
-9.6334630198
11
48.2973379505
21
-9.6334630198
0
LINE
5
4D3
100
AcDbEntity
8
0
100
AcDbLine
62
0
6
CONTINUOUS
10
30.4973379505
20
-9.5709384941
11
30.4396723483
21
-9.5709384941
0
LINE
5
4D4
100
AcDbEntity
8
0
100
AcDbLine
62
0
6
CONTINUOUS
10
48.2973379505
20
-9.5709384941
11
48.3550035527
21
-9.5709384941
0
LINE
5
4D5
100
AcDbEntity
8
0
100
AcDbLine
62
9
6
CONTINUOUS
10
30.7973379505
20
-8.4364555947
11
47.9973379505
21
-8.4364555947
0
LINE
5
4D6
100
AcDbEntity
8
0
100
AcDbLine
62
9
6
CONTINUOUS
10
30.7973379505
20
-8.1796605831
11
47.9973379505
21
-8.1796605831
0
LINE
5
4D7
100
AcDbEntity
8
0
100
AcDbLine
62
9
6
CONTINUOUS
10
47.9973379505
20
-8.1452536622
11
30.7973379505
21
-8.1452536622
0
LINE
5
4D8
100
AcDbEntity
8
DEFAULT_3
100
AcDbLine
62
9
6
PHANTOM
10
47.9973379505
20
-8.1450341696
11
30.7973379511
21
-8.1450341696
0
LINE
5
4D9
100
AcDbEntity
8
0
100
AcDbLine
62
0
6
CONTINUOUS
10
47.2973379505
20
-8.1347799754
11
31.4973379505
21
-8.1347799754
0
LINE
5
4DA
100
AcDbEntity
8
0
100
AcDbLine
62
0
6
CONTINUOUS
10
47.2973379505
20
-8.1222115511
11
31.4973379505
21
-8.1222115511
0
LINE
5
4DB
100
AcDbEntity
8
0
100
AcDbLine
62
0
6
CONTINUOUS
10
43.4973379505
20
-8.0683484816
11
34.1973379505
21
-8.0683484816
0
LINE
5
4DC
100
AcDbEntity
8
0
100
AcDbLine
62
0
6
CONTINUOUS
10
45.7473379505
20
-8.0683484816
11
46.5473379505
21
-8.0683484816
0
LINE
5
4DD
100
AcDbEntity
8
0
100
AcDbLine
62
0
6
CONTINUOUS
10
30.7391080732
20
-8.0601300274
11
34.1973379505
21
-8.0601300274
0
LINE
5
4DE
100
AcDbEntity
8
0
100
AcDbLine
62
0
6
CONTINUOUS
10
43.4973379505
20
-8.0601300274
11
45.7473379505
21
-8.0601300274
0
LINE
5
4DF
100
AcDbEntity
8
0
100
AcDbLine
62
0
6
CONTINUOUS
10
46.5473379505
20
-8.0601300274
11
48.0555678278
21
-8.0601300274
0
LINE
5
4E0
100
AcDbEntity
8
0
100
AcDbLine
62
0
6
CONTINUOUS
10
48.0695380561
20
-8.0461597991
11
30.7251378449
21
-8.0461597991
0
LINE
5
4E1
100
AcDbEntity
8
DEFAULT_3
100
AcDbLine
62
9
6
PHANTOM
10
30.7212058347
20
-16.6860397990
11
30.7473379505
21
-16.6861158856
0
LINE
5
4E2
100
AcDbEntity
8
DEFAULT_3
100
AcDbLine
62
9
6
PHANTOM
10
30.6953609302
20
-8.4863280311
11
30.7473379505
21
-8.4864822144
0
LINE
5
4E3
100
AcDbEntity
8
0
100
AcDbLine
62
0
6
CONTINUOUS
10
-19.2543447683
20
1.2176888277
11
-14.2543447683
21
1.2002354643
0
LINE
5
4E4
100
AcDbEntity
8
DEFAULT_3
100
AcDbLine
62
9
6
PHANTOM
10
48.1120182970
20
-15.4287276974
11
48.0800612601
21
-15.4284610951
0
LINE
5
4E5
100
AcDbEntity
8
DEFAULT_3
100
AcDbLine
62
9
6
PHANTOM
10
48.0800612601
20
-9.6335533231
11
48.1120182970
21
-9.6338199254
0
LINE
5
4E6
100
AcDbEntity
8
DEFAULT_3
100
AcDbLine
62
9
6
PHANTOM
10
30.6456552125
20
-8.4858722029
11
30.6953609302
21
-8.4863280311
0
LINE
5
4E7
100
AcDbEntity
8
DEFAULT_3
100
AcDbLine
62
9
6
PHANTOM
10
48.1430088086
20
-15.4291680538
11
48.1120182970
21
-15.4287276974
0
LINE
5
4E8
100
AcDbEntity
8
DEFAULT_3
100
AcDbLine
62
9
6
PHANTOM
10
48.1120182970
20
-9.6338199254
11
48.1430088086
21
-9.6342602818
0
LINE
5
4E9
100
AcDbEntity
8
DEFAULT_3
100
AcDbLine
62
9
6
PHANTOM
10
30.6003931764
20
-8.4851346464
11
30.6456552125
21
-8.4858722029
0
LINE
5
4EA
100
AcDbEntity
8
0
100
AcDbLine
62
0
6
CONTINUOUS
10
46.5585244328
20
-8.0685547151
11
46.5473379505
21
-8.0683484816
0
LINE
5
4EB
100
AcDbEntity
8
0
100
AcDbLine
62
0
6
CONTINUOUS
10
46.5473379505
20
-8.0601300274
11
46.5585159463
21
-8.0603359633
0
LINE
5
4EC
100
AcDbEntity
8
0
100
AcDbLine
62
0
6
CONTINUOUS
10
48.0667475096
20
-8.0603360528
11
48.0555678278
21
-8.0601300274
0
LINE
5
4ED
100
AcDbEntity
8
0
100
AcDbLine
62
0
6
CONTINUOUS
10
48.0695380561
20
-8.0461597991
11
48.0807083923
21
-8.0463678726
0
LINE
5
4EE
100
AcDbEntity
8
DEFAULT_3
100
AcDbLine
62
9
6
PHANTOM
10
48.1430088086
20
-9.6342602818
11
48.1723548200
21
-9.6348669676
0
LINE
5
4EF
100
AcDbEntity
8
DEFAULT_3
100
AcDbLine
62
9
6
PHANTOM
10
30.5800567559
20
-8.4846698459
11
30.6003931764
21
-8.4851346464
0
LINE
5
4F0
100
AcDbEntity
8
DEFAULT_3
100
AcDbLine
62
9
6
PHANTOM
10
30.4973379505
20
-9.6539833864
11
30.4322778051
21
-9.6524097153
0
LINE
5
4F1
100
AcDbEntity
8
DEFAULT_3
100
AcDbLine
62
9
6
PHANTOM
10
48.3489662648
20
-9.6334630198
11
48.3624049101
21
-9.6337880730
0
LINE
5
4F2
100
AcDbEntity
8
0
100
AcDbLine
62
0
6
CONTINUOUS
10
47.3451120180
20
-8.1359361996
11
47.2973379505
21
-8.1347799754
0
LINE
5
4F3
100
AcDbEntity
8
0
100
AcDbLine
62
0
6
CONTINUOUS
10
47.2973379505
20
-8.1222115511
11
47.3451120180
21
-8.1233677754
0
LINE
5
4F4
100
AcDbEntity
8
DEFAULT_3
100
AcDbLine
62
9
6
PHANTOM
10
48.1723548200
20
-9.6348669676
11
48.1995055380
21
-9.6356270024
0
LINE
5
4F5
100
AcDbEntity
8
DEFAULT_3
100
AcDbLine
62
9
6
PHANTOM
10
30.5615530452
20
-8.4841475914
11
30.5800567559
21
-8.4846698459
0
LINE
5
4F6
100
AcDbEntity
8
DEFAULT_3
100
AcDbLine
62
9
6
PHANTOM
10
48.1995055380
20
-9.6356270024
11
48.2121875046
21
-9.6360630354
0
LINE
5
4F7
100
AcDbEntity
8
DEFAULT_3
100
AcDbLine
62
9
6
PHANTOM
10
30.5450847945
20
-8.4835736044
11
30.5615530452
21
-8.4841475914
0
LINE
5
4F8
100
AcDbEntity
8
DEFAULT_3
100
AcDbLine
62
9
6
PHANTOM
10
48.2121875046
20
-9.6360630354
11
48.2241146458
21
-9.6365306917
0
LINE
5
4F9
100
AcDbEntity
8
DEFAULT_3
100
AcDbLine
62
9
6
PHANTOM
10
30.5308324502
20
-8.4829541734
11
30.5450847945
21
-8.4835736044
0
LINE
5
4FA
100
AcDbEntity
8
DEFAULT_3
100
AcDbLine
62
9
6
PHANTOM
10
47.9973379505
20
-8.1796605831
11
48.0234869598
21
-8.1808014883
0
LINE
5
4FB
100
AcDbEntity
8
DEFAULT_3
100
AcDbLine
62
9
6
PHANTOM
10
48.0234859104
20
-8.1461757013
11
47.9973379483
21
-8.1450341696
0
LINE
5
4FC
100
AcDbEntity
8
DEFAULT_3
100
AcDbLine
62
9
6
PHANTOM
10
48.0234869391
20
-8.1463944486
11
47.9973379505
21
-8.1452536622
0
LINE
5
4FD
100
AcDbEntity
8
DEFAULT_3
100
AcDbLine
62
9
6
PHANTOM
10
47.9973379505
20
-8.4364555947
11
48.0017145039
21
-8.4366496160
0
LINE
5
4FE
100
AcDbEntity
8
DEFAULT_3
100
AcDbLine
62
9
6
PHANTOM
10
48.2241146458
20
-9.6365306917
11
48.2352772923
21
-9.6370303763
0
LINE
5
4FF
100
AcDbEntity
8
DEFAULT_3
100
AcDbLine
62
9
6
PHANTOM
10
48.2352772923
20
-9.6370303763
11
48.2456851134
21
-9.6375616841
0
LINE
5
500
100
AcDbEntity
8
0
100
AcDbLine
62
0
6
CONTINUOUS
10
46.5696846803
20
-8.0691794458
11
46.5585244328
21
-8.0685547151
0
LINE
5
501
100
AcDbEntity
8
0
100
AcDbLine
62
0
6
CONTINUOUS
10
46.5585159463
20
-8.0603359633
11
46.5696680974
21
-8.0609600134
0
LINE
5
502
100
AcDbEntity
8
0
100
AcDbLine
62
0
6
CONTINUOUS
10
48.0779009427
20
-8.0609602301
11
48.0667475096
21
-8.0603360528
0
LINE
5
503
100
AcDbEntity
8
0
100
AcDbLine
62
0
6
CONTINUOUS
10
48.0807083923
20
-8.0463678726
11
48.0918802765
21
-8.0469930942
0
LINE
5
504
100
AcDbEntity
8
0
100
AcDbLine
62
9
6
CONTINUOUS
10
-24.3274169834
20
20.3028491680
11
-24.7815282030
21
20.3339435161
0
LINE
5
505
100
AcDbEntity
8
0
100
AcDbLine
62
9
6
CONTINUOUS
10
-24.7815282030
20
20.3339435161
11
-25.0935486831
21
20.3557533908
0
LINE
5
506
100
AcDbEntity
8
0
100
AcDbLine
62
9
6
CONTINUOUS
10
-25.0935486831
20
20.3557533908
11
-25.1082838749
21
20.3568709038
0
LINE
5
507
100
AcDbEntity
8
0
100
AcDbLine
62
9
6
CONTINUOUS
10
-25.1082838749
20
20.3568709038
11
-25.1101312144
21
20.3570255318
0
LINE
5
508
100
AcDbEntity
8
0
100
AcDbLine
62
9
6
CONTINUOUS
10
-25.1101312144
20
20.3570255318
11
-25.1112395186
21
20.3571299031
0
LINE
5
509
100
AcDbEntity
8
0
100
AcDbLine
62
9
6
CONTINUOUS
10
61.3470387881
20
20.3297470419
11
61.3342940057
21
20.3311725735
0
LINE
5
50A
100
AcDbEntity
8
0
100
AcDbLine
62
9
6
CONTINUOUS
10
61.3591452280
20
20.3282965586
11
61.3470387881
21
20.3297470419
0
LINE
5
50B
100
AcDbEntity
8
0
100
AcDbLine
62
9
6
CONTINUOUS
10
61.3706020949
20
20.3268224690
11
61.3591452280
21
20.3282965586
0
LINE
5
50C
100
AcDbEntity
8
0
100
AcDbLine
62
0
6
CONTINUOUS
10
60.8402257132
20
21.8262522524
11
60.8633576484
21
21.8232100310
0
LINE
5
50D
100
AcDbEntity
8
0
100
AcDbLine
62
9
6
CONTINUOUS
10
61.3813987609
20
20.3253261407
11
61.3706020949
21
20.3268224690
0
LINE
5
50E
100
AcDbEntity
8
0
100
AcDbLine
62
9
6
CONTINUOUS
10
60.7935571158
20
21.7455779208
11
60.7691627790
21
21.7489875471
0
LINE
5
50F
100
AcDbEntity
8
0
100
AcDbLine
62
9
6
CONTINUOUS
10
-25.1112395186
20
20.3571299031
11
-25.1116077594
21
20.3571839211
0
LINE
5
510
100
AcDbEntity
8
0
100
AcDbLine
62
9
6
CONTINUOUS
10
61.3915252105
20
20.3238089616
11
61.3813987609
21
20.3253261407
0
LINE
5
511
100
AcDbEntity
8
0
100
AcDbLine
62
0
6
CONTINUOUS
10
60.8633576484
20
21.8232100310
11
60.8863649001
21
21.8195013156
0
LINE
5
512
100
AcDbEntity
8
0
100
AcDbLine
62
9
6
CONTINUOUS
10
61.4009720499
20
20.3222723392
11
61.3915252105
21
20.3238089616
0
LINE
5
513
100
AcDbEntity
8
0
100
AcDbLine
62
9
6
CONTINUOUS
10
60.8178351368
20
21.7414188634
11
60.7935571158
21
21.7455779208
0
LINE
5
514
100
AcDbEntity
8
0
100
AcDbLine
62
9
6
CONTINUOUS
10
61.4097305158
20
20.3207176990
11
61.4009720499
21
20.3222723392
0
LINE
5
515
100
AcDbEntity
8
0
100
AcDbLine
62
0
6
CONTINUOUS
10
60.8863649001
20
21.8195013156
11
60.9092417009
21
21.8151223562
0
LINE
5
516
100
AcDbEntity
8
0
100
AcDbLine
62
9
6
CONTINUOUS
10
61.4177924834
20
20.3191464830
11
61.4097305158
21
20.3207176990
0
LINE
5
517
100
AcDbEntity
8
0
100
AcDbLine
62
9
6
CONTINUOUS
10
60.8419738218
20
21.7365143187
11
60.8178351368
21
21.7414188634
0
LINE
5
518
100
AcDbEntity
8
0
100
AcDbLine
62
9
6
CONTINUOUS
10
61.4251504739
20
20.3175601488
11
61.4177924834
21
20.3191464830
0
LINE
5
519
100
AcDbEntity
8
0
100
AcDbLine
62
0
6
CONTINUOUS
10
60.9092417009
20
21.8151223562
11
60.9319938183
21
21.8100769029
0
LINE
5
51A
100
AcDbEntity
8
0
100
AcDbLine
62
9
6
CONTINUOUS
10
60.8659502826
20
21.7308689370
11
60.8419738218
21
21.7365143187
0
LINE
5
51B
100
AcDbEntity
8
0
100
AcDbLine
62
9
6
CONTINUOUS
10
61.4317976618
20
20.3159601681
11
61.4251504739
21
20.3175601488
0
LINE
5
51C
100
AcDbEntity
8
0
100
AcDbLine
62
0
6
CONTINUOUS
10
60.9319938183
20
21.8100769029
11
60.9545468591
21
21.8043857219
0
LINE
5
51D
100
AcDbEntity
8
0
100
AcDbLine
62
9
6
CONTINUOUS
10
60.8897417849
20
21.7244880713
11
60.8659502826
21
21.7308689370
0
LINE
5
51E
100
AcDbEntity
8
0
100
AcDbLine
62
9
6
CONTINUOUS
10
61.4377278809
20
20.3143480249
11
61.4317976618
21
20.3159601681
0
LINE
5
51F
100
AcDbEntity
8
0
100
AcDbLine
62
0
6
CONTINUOUS
10
60.9545468591
20
21.8043857219
11
60.9768791887
21
21.7980546859
0
LINE
5
520
100
AcDbEntity
8
0
100
AcDbLine
62
9
6
CONTINUOUS
10
60.9133257698
20
21.7173777719
11
60.8897417849
21
21.7244880713
0
LINE
5
521
100
AcDbEntity
8
0
100
AcDbLine
62
9
6
CONTINUOUS
10
61.4429356299
20
20.3127252148
11
61.4377278809
21
20.3143480249
0
LINE
5
522
100
AcDbEntity
8
0
100
AcDbLine
62
0
6
CONTINUOUS
10
60.9768791887
20
21.7980546859
11
60.9990124417
21
21.7910779223
0
LINE
5
523
100
AcDbEntity
8
0
100
AcDbLine
62
9
6
CONTINUOUS
10
60.9366798751
20
21.7095447806
11
60.9133257698
21
21.7173777719
0
LINE
5
524
100
AcDbEntity
8
0
100
AcDbLine
62
0
6
CONTINUOUS
10
60.9990124417
20
21.7910779223
11
61.0209371284
21
21.7834585799
0
LINE
5
525
100
AcDbEntity
8
0
100
AcDbLine
62
9
6
CONTINUOUS
10
61.4474160780
20
20.3110932433
11
61.4429356299
21
20.3127252148
0
LINE
5
526
100
AcDbEntity
8
0
100
AcDbLine
62
9
6
CONTINUOUS
10
60.9597819566
20
21.7009965248
11
60.9366798751
21
21.7095447806
0
LINE
5
527
100
AcDbEntity
8
0
100
AcDbLine
62
0
6
CONTINUOUS
10
61.0209371284
20
21.7834585799
11
61.0426727739
21
21.7751899646
0
LINE
5
528
100
AcDbEntity
8
0
100
AcDbLine
62
9
6
CONTINUOUS
10
60.9826101092
20
21.6917411097
11
60.9597819566
21
21.7009965248
0
LINE
5
529
100
AcDbEntity
8
0
100
AcDbLine
62
0
6
CONTINUOUS
10
61.0426727739
20
21.7751899646
11
61.0641998531
21
21.7662787705
0
LINE
5
52A
100
AcDbEntity
8
0
100
AcDbLine
62
9
6
CONTINUOUS
10
61.1912180281
20
21.5625440413
11
61.1722668793
21
21.5782823447
0
LINE
5
52B
100
AcDbEntity
8
0
100
AcDbLine
62
0
6
CONTINUOUS
10
61.2615464707
20
21.6445967622
11
61.2791582184
21
21.6293769186
0
LINE
5
52C
100
AcDbEntity
8
0
100
AcDbLine
62
9
6
CONTINUOUS
10
61.2096758019
20
21.5462298583
11
61.1912180281
21
21.5625440413
0
LINE
5
52D
100
AcDbEntity
8
0
100
AcDbLine
62
0
6
CONTINUOUS
10
61.2791582184
20
21.6293769186
11
61.2963570729
21
21.6136209515
0
LINE
5
52E
100
AcDbEntity
8
0
100
AcDbLine
62
9
6
CONTINUOUS
10
61.2276226991
20
21.5293552647
11
61.2096758019
21
21.5462298583
0
LINE
5
52F
100
AcDbEntity
8
0
100
AcDbLine
62
0
6
CONTINUOUS
10
61.2963570729
20
21.6136209515
11
61.3130761819
21
21.5973850648
0
LINE
5
530
100
AcDbEntity
8
0
100
AcDbLine
62
9
6
CONTINUOUS
10
61.2450417027
20
21.5119362610
11
61.2276226991
21
21.5293552647
0
LINE
5
531
100
AcDbEntity
8
0
100
AcDbLine
62
0
6
CONTINUOUS
10
61.3130761819
20
21.5973850648
11
61.3293120689
21
21.5806656426
0
LINE
5
532
100
AcDbEntity
8
0
100
AcDbLine
62
9
6
CONTINUOUS
10
61.2619162960
20
21.4939893636
11
61.2450417027
21
21.5119362610
0
LINE
5
533
100
AcDbEntity
8
0
100
AcDbLine
62
9
6
CONTINUOUS
10
61.4579919314
20
20.3045041179
11
61.4564554493
21
20.3061575326
0
LINE
5
534
100
AcDbEntity
8
0
100
AcDbLine
62
0
6
CONTINUOUS
10
61.3293120689
20
21.5806656426
11
61.3450682103
21
21.5634663008
0
LINE
5
535
100
AcDbEntity
8
0
100
AcDbLine
62
9
6
CONTINUOUS
10
61.2782304788
20
21.4755315897
11
61.2619162960
21
21.4939893636
0
LINE
5
536
100
AcDbEntity
8
0
100
AcDbLine
62
0
6
CONTINUOUS
10
61.3450682103
20
21.5634663008
11
61.3602881827
21
21.5458540918
0
LINE
5
537
100
AcDbEntity
8
0
100
AcDbLine
62
9
6
CONTINUOUS
10
61.2939687820
20
21.4565804408
11
61.2782304788
21
21.4755315897
0
LINE
5
538
100
AcDbEntity
8
0
100
AcDbLine
62
0
6
CONTINUOUS
10
61.3602881827
20
21.5458540918
11
61.3749562129
21
21.5278463089
0
LINE
5
539
100
AcDbEntity
8
0
100
AcDbLine
62
9
6
CONTINUOUS
10
61.3091162826
20
21.4371538863
11
61.2939687820
21
21.4565804408
0
LINE
5
53A
100
AcDbEntity
8
0
100
AcDbLine
62
0
6
CONTINUOUS
10
61.3749562129
20
21.5278463089
11
61.3890880741
21
21.5094256587
0
LINE
5
53B
100
AcDbEntity
8
0
100
AcDbLine
62
9
6
CONTINUOUS
10
61.3236586180
20
21.4172703462
11
61.3091162826
21
21.4371538863
0
LINE
5
53C
100
AcDbEntity
8
0
100
AcDbLine
62
0
6
CONTINUOUS
10
61.3890880741
20
21.5094256587
11
61.4026746631
21
21.4906073137
0
LINE
5
53D
100
AcDbEntity
8
DEFAULT_3
100
AcDbLine
62
9
6
PHANTOM
10
48.2430805407
20
-8.3074833860
11
48.2571419795
21
-8.3295371553
0
LINE
5
53E
100
AcDbEntity
8
DEFAULT_3
100
AcDbLine
62
9
6
PHANTOM
10
48.2571523779
20
-8.2950240020
11
48.2430916124
21
-8.2729540067
0
LINE
5
53F
100
AcDbEntity
8
DEFAULT_3
100
AcDbLine
62
9
6
PHANTOM
10
48.0383164256
20
-8.4578265512
11
48.0406612948
21
-8.4615079773
0
LINE
5
540
100
AcDbEntity
8
0
100
AcDbLine
62
0
6
CONTINUOUS
10
48.1633893508
20
-8.6343898714
11
48.1386546480
21
-8.5938340666
0
LINE
5
541
100
AcDbEntity
8
0
100
AcDbLine
62
0
6
CONTINUOUS
10
48.1386546480
20
-8.5812656424
11
48.1633893508
21
-8.6218214471
0
LINE
5
542
100
AcDbEntity
8
0
100
AcDbLine
62
0
6
CONTINUOUS
10
48.3235177392
20
-8.1865830971
11
48.3293226002
21
-8.1962248679
0
LINE
5
543
100
AcDbEntity
8
0
100
AcDbLine
62
0
6
CONTINUOUS
10
48.3153113901
20
-8.2101810012
11
48.3095090881
21
-8.2005395736
0
LINE
5
544
100
AcDbEntity
8
0
100
AcDbLine
62
9
6
CONTINUOUS
10
61.4704616633
20
-20.9913786987
11
61.4707642339
21
-20.9918966089
0
LINE
5
545
100
AcDbEntity
8
0
100
AcDbLine
62
0
6
CONTINUOUS
10
48.3293226002
20
-8.1962248679
11
48.3347596647
21
-8.2060737440
0
LINE
5
546
100
AcDbEntity
8
0
100
AcDbLine
62
0
6
CONTINUOUS
10
48.3207542661
20
-8.2200433639
11
48.3153113901
21
-8.2101810012
0
LINE
5
547
100
AcDbEntity
8
0
100
AcDbLine
62
0
6
CONTINUOUS
10
48.1862034928
20
-8.6761413695
11
48.1633893508
21
-8.6343898714
0
LINE
5
548
100
AcDbEntity
8
0
100
AcDbLine
62
0
6
CONTINUOUS
10
48.1633893508
20
-8.6218214471
11
48.1862034928
21
-8.6635729452
0
LINE
5
549
100
AcDbEntity
8
DEFAULT_3
100
AcDbLine
62
9
6
PHANTOM
10
48.2571419795
20
-8.3295371553
11
48.2692271305
21
-8.3527329723
0
LINE
5
54A
100
AcDbEntity
8
DEFAULT_3
100
AcDbLine
62
9
6
PHANTOM
10
48.2692356852
20
-8.3182349155
11
48.2571523779
21
-8.2950240020
0
LINE
5
54B
100
AcDbEntity
8
DEFAULT_3
100
AcDbLine
62
9
6
PHANTOM
10
48.0406612948
20
-8.4615079773
11
48.0426680733
21
-8.4653858372
0
LINE
5
54C
100
AcDbEntity
8
0
100
AcDbLine
62
0
6
CONTINUOUS
10
48.3258105041
20
-8.2300685470
11
48.3207542661
21
-8.2200433639
0
LINE
5
54D
100
AcDbEntity
8
0
100
AcDbLine
62
0
6
CONTINUOUS
10
48.3347596647
20
-8.2060737440
11
48.3398144443
21
-8.2161004516
0
LINE
5
54E
100
AcDbEntity
8
0
100
AcDbLine
62
0
6
CONTINUOUS
10
30.5877062023
20
-16.3429826384
11
30.6084724082
21
-16.3856924422
0
LINE
5
54F
100
AcDbEntity
8
0
100
AcDbLine
62
0
6
CONTINUOUS
10
48.2069696987
20
-8.7188511733
11
48.1862034928
21
-8.6761413695
0
LINE
5
550
100
AcDbEntity
8
0
100
AcDbLine
62
0
6
CONTINUOUS
10
48.1862034928
20
-8.6635729452
11
48.2069696987
21
-8.7062827491
0
LINE
5
551
100
AcDbEntity
8
DEFAULT_3
100
AcDbLine
62
9
6
PHANTOM
10
30.5203385535
20
-16.7873961904
11
30.5315614965
21
-16.8113436733
0
LINE
5
552
100
AcDbEntity
8
0
100
AcDbLine
62
0
6
CONTINUOUS
10
30.4579973878
20
-16.8743569283
11
30.4533324568
21
-16.8642033624
0
LINE
5
553
100
AcDbEntity
8
0
100
AcDbLine
62
0
6
CONTINUOUS
10
30.4672978819
20
-16.8082458764
11
30.4719606794
21
-16.8183999220
0
LINE
5
554
100
AcDbEntity
8
0
100
AcDbLine
62
0
6
CONTINUOUS
10
30.5689878900
20
-16.2992804265
11
30.5877062023
21
-16.3429826384
0
LINE
5
555
100
AcDbEntity
8
0
100
AcDbLine
62
0
6
CONTINUOUS
10
30.4533324568
20
-16.8642033624
11
30.4490576711
21
-16.8539033423
0
LINE
5
556
100
AcDbEntity
8
DEFAULT_3
100
AcDbLine
62
9
6
PHANTOM
10
30.5254487706
20
-16.7988954692
11
30.5154324550
21
-16.7747391147
0
LINE
5
557
100
AcDbEntity
8
0
100
AcDbLine
62
0
6
CONTINUOUS
10
30.4630214753
20
-16.7979299166
11
30.4672978819
21
-16.8082458764
0
LINE
5
558
100
AcDbEntity
8
DEFAULT_3
100
AcDbLine
62
9
6
PHANTOM
10
30.7520078277
20
-16.7071880129
11
30.7503313685
21
-16.7031258220
0
LINE
5
559
100
AcDbEntity
8
0
100
AcDbLine
62
9
6
CONTINUOUS
10
17.3779929411
20
-21.2807924799
11
17.3872483558
21
-21.3036206321
0
LINE
5
55A
100
AcDbEntity
8
0
100
AcDbLine
62
0
6
CONTINUOUS
10
17.3037967830
20
-21.3636763920
11
17.2955281830
21
-21.3419402204
0
LINE
5
55B
100
AcDbEntity
8
0
100
AcDbLine
62
0
6
CONTINUOUS
10
30.5523175138
20
-16.2546199088
11
30.5689878900
21
-16.2992804265
0
LINE
5
55C
100
AcDbEntity
8
0
100
AcDbLine
62
0
6
CONTINUOUS
10
30.4490576711
20
-16.8539033423
11
30.4451646035
21
-16.8434374708
0
LINE
5
55D
100
AcDbEntity
8
0
100
AcDbLine
62
0
6
CONTINUOUS
10
30.4591343847
20
-16.7874620232
11
30.4630214753
21
-16.7979299166
0
LINE
5
55E
100
AcDbEntity
8
0
100
AcDbLine
62
9
6
CONTINUOUS
10
17.3694446857
20
-21.2576903987
11
17.3779929411
21
-21.2807924799
0
LINE
5
55F
100
AcDbEntity
8
DEFAULT_3
100
AcDbLine
62
9
6
PHANTOM
10
30.5112811540
20
-16.7625959908
11
30.5203385535
21
-16.7873961904
0
LINE
5
560
100
AcDbEntity
8
0
100
AcDbLine
62
0
6
CONTINUOUS
10
17.2955281830
20
-21.3419402204
11
17.2879089661
21
-21.3200151528
0
LINE
5
561
100
AcDbEntity
8
0
100
AcDbLine
62
9
6
CONTINUOUS
10
17.3616116948
20
-21.2343362938
11
17.3694446857
21
-21.2576903987
0
LINE
5
562
100
AcDbEntity
8
0
100
AcDbLine
62
0
6
CONTINUOUS
10
17.2879089661
20
-21.3200151528
11
17.2809323920
21
-21.2978816452
0
LINE
5
563
100
AcDbEntity
8
0
100
AcDbLine
62
9
6
CONTINUOUS
10
17.3545013957
20
-21.2107523094
11
17.3616116948
21
-21.2343362938
0
LINE
5
564
100
AcDbEntity
8
0
100
AcDbLine
62
9
6
CONTINUOUS
10
-23.6424781208
20
-21.7883414728
11
-23.6420826639
21
-21.7902432519
0
LINE
5
565
100
AcDbEntity
8
0
100
AcDbLine
62
9
6
CONTINUOUS
10
-24.3162043858
20
-20.4254025747
11
-24.3126928180
21
-20.4423686037
0
LINE
5
566
100
AcDbEntity
8
0
100
AcDbLine
62
9
6
CONTINUOUS
10
-24.3192971462
20
-20.4083444763
11
-24.3162043858
21
-20.4254025747
0
LINE
5
567
100
AcDbEntity
8
0
100
AcDbLine
62
9
6
CONTINUOUS
10
-24.3219653601
20
-20.3912265578
11
-24.3192971462
21
-20.4083444763
0
LINE
5
568
100
AcDbEntity
8
0
100
AcDbLine
62
9
6
CONTINUOUS
10
-23.6428591746
20
-21.7856845105
11
-23.6424781208
21
-21.7883414728
0
LINE
5
569
100
AcDbEntity
8
0
100
AcDbLine
62
9
6
CONTINUOUS
10
-24.3242071144
20
-20.3740595690
11
-24.3219653601
21
-20.3912265578
0
LINE
5
56A
100
AcDbEntity
8
0
100
AcDbLine
62
9
6
CONTINUOUS
10
-23.6432254641
20
-21.7822748842
11
-23.6428591746
21
-21.7856845105
0
LINE
5
56B
100
AcDbEntity
8
0
100
AcDbLine
62
9
6
CONTINUOUS
10
-24.3260243221
20
-20.3568327601
11
-24.3242071144
21
-20.3740595690
0
LINE
5
56C
100
AcDbEntity
8
0
100
AcDbLine
62
9
6
CONTINUOUS
10
-23.6435766419
20
-21.7781158269
11
-23.6432254641
21
-21.7822748842
0
LINE
5
56D
100
AcDbEntity
8
0
100
AcDbLine
62
9
6
CONTINUOUS
10
-24.3274169834
20
-20.3395461312
11
-24.3260243221
21
-20.3568327601
0
LINE
5
56E
100
AcDbEntity
8
0
100
AcDbLine
62
9
6
CONTINUOUS
10
-23.6439123751
20
-21.7732112823
11
-23.6435766419
21
-21.7781158269
0
LINE
5
56F
100
AcDbEntity
8
0
100
AcDbLine
62
9
6
CONTINUOUS
10
-24.4020260712
20
-19.2121608137
11
-24.3274169834
21
-20.3395461312
0
LINE
5
570
100
AcDbEntity
8
0
100
AcDbLine
62
9
6
CONTINUOUS
10
-24.4723756539
20
-18.0845339453
11
-24.4020260712
21
-19.2121608137
0
LINE
5
571
100
AcDbEntity
8
0
100
AcDbLine
62
9
6
CONTINUOUS
10
-24.5384657316
20
-16.9566655261
11
-24.4723756539
21
-18.0845339453
0
LINE
5
572
100
AcDbEntity
8
0
100
AcDbLine
62
9
6
CONTINUOUS
10
-23.6442323453
20
-21.7675659007
11
-23.6439123751
21
-21.7732112823
0
LINE
5
573
100
AcDbEntity
8
0
100
AcDbLine
62
9
6
CONTINUOUS
10
-24.6002971258
20
-15.8285394510
11
-24.5384657316
21
-16.9566655261
0
LINE
5
574
100
AcDbEntity
8
0
100
AcDbLine
62
9
6
CONTINUOUS
10
-24.6578690149
20
-14.7001718250
11
-24.6002971258
21
-15.8285394510
0
LINE
5
575
100
AcDbEntity
8
0
100
AcDbLine
62
9
6
CONTINUOUS
10
-23.6445362491
20
-21.7611850351
11
-23.6442323453
21
-21.7675659007
0
LINE
5
576
100
AcDbEntity
8
0
100
AcDbLine
62
9
6
CONTINUOUS
10
-24.7111789338
20
-13.5716109633
11
-24.6578690149
21
-14.7001718250
0
LINE
5
577
100
AcDbEntity
8
0
100
AcDbLine
62
9
6
CONTINUOUS
10
-24.7602266991
20
-12.4428568731
11
-24.7111789338
21
-13.5716109633
0
LINE
5
578
100
AcDbEntity
8
0
100
AcDbLine
62
9
6
CONTINUOUS
10
-23.6448237983
20
-21.7540747358
11
-23.6445362491
21
-21.7611850351
0
LINE
5
579
100
AcDbEntity
8
0
100
AcDbLine
62
9
6
CONTINUOUS
10
-24.8050124942
20
-11.3139095472
11
-24.7602266991
21
-12.4428568731
0
LINE
5
57A
100
AcDbEntity
8
0
100
AcDbLine
62
0
6
CONTINUOUS
10
60.9545468591
20
-21.8410826851
11
60.9319938183
21
-21.8467738661
0
LINE
5
57B
100
AcDbEntity
8
0
100
AcDbLine
62
9
6
CONTINUOUS
10
61.4317976587
20
-20.3526571311
11
61.4251504704
21
-20.3542571118
0
LINE
5
57C
100
AcDbEntity
8
0
100
AcDbLine
62
9
6
CONTINUOUS
10
60.8659502808
20
-21.7675659007
11
60.8419738202
21
-21.7732112823
0
LINE
5
57D
100
AcDbEntity
8
0
100
AcDbLine
62
0
6
CONTINUOUS
10
60.9319938183
20
-21.8467738661
11
60.9092417009
21
-21.8518193194
0
LINE
5
57E
100
AcDbEntity
8
DEFAULT_3
100
AcDbLine
62
9
6
PHANTOM
10
48.0749892089
20
-16.9617206671
11
48.0494365486
21
-16.9673804865
0
LINE
5
57F
100
AcDbEntity
8
DEFAULT_3
100
AcDbLine
62
9
6
PHANTOM
10
48.0102087516
20
-16.7344010291
11
48.0060047709
21
-16.7353297459
0
LINE
5
580
100
AcDbEntity
8
0
100
AcDbLine
62
0
6
CONTINUOUS
10
47.4865344994
20
-16.9090040491
11
47.5330739320
21
-16.8988911663
0
LINE
5
581
100
AcDbEntity
8
0
100
AcDbLine
62
9
6
CONTINUOUS
10
61.4251504704
20
-20.3542571118
11
61.4177924796
21
-20.3558434459
0
LINE
5
582
100
AcDbEntity
8
0
100
AcDbLine
62
0
6
CONTINUOUS
10
48.1330562635
20
-17.0364991377
11
48.1220501611
21
-17.0387906924
0
LINE
5
583
100
AcDbEntity
8
0
100
AcDbLine
62
0
6
CONTINUOUS
10
48.1080809584
20
-16.9829453418
11
48.1190859075
21
-16.9806561839
0
LINE
5
584
100
AcDbEntity
8
DEFAULT_3
100
AcDbLine
62
9
6
PHANTOM
10
48.2918746738
20
-16.6751144339
11
48.2851017120
21
-16.6765187216
0
LINE
5
585
100
AcDbEntity
8
0
100
AcDbLine
62
9
6
CONTINUOUS
10
60.8419738202
20
-21.7732112823
11
60.8178351354
21
-21.7781158269
0
LINE
5
586
100
AcDbEntity
8
0
100
AcDbLine
62
9
6
CONTINUOUS
10
61.4177924796
20
-20.3558434459
11
61.4097305118
21
-20.3574146618
0
LINE
5
587
100
AcDbEntity
8
0
100
AcDbLine
62
0
6
CONTINUOUS
10
60.9092417009
20
-21.8518193194
11
60.8863649001
21
-21.8561982788
0
LINE
5
588
100
AcDbEntity
8
DEFAULT_3
100
AcDbLine
62
9
6
PHANTOM
10
30.5058570517
20
-15.4361347119
11
30.5021416304
21
-15.4368011637
0
LINE
5
589
100
AcDbEntity
8
DEFAULT_3
100
AcDbLine
62
9
6
PHANTOM
10
30.5021416304
20
-9.6418933918
11
30.5058570517
21
-9.6412269399
0
LINE
5
58A
100
AcDbEntity
8
DEFAULT_3
100
AcDbLine
62
9
6
PHANTOM
10
48.2959684243
20
-8.4801635949
11
48.2918748507
21
-8.4808930873
0
LINE
5
58B
100
AcDbEntity
8
0
100
AcDbLine
62
9
6
CONTINUOUS
10
61.4097305118
20
-20.3574146618
11
61.4009720457
21
-20.3589693021
0
LINE
5
58C
100
AcDbEntity
8
DEFAULT_3
100
AcDbLine
62
9
6
PHANTOM
10
48.0363462799
20
-16.9696007960
11
48.0623013629
21
-16.9650382698
0
LINE
5
58D
100
AcDbEntity
8
0
100
AcDbLine
62
9
6
CONTINUOUS
10
60.8178351354
20
-21.7781158269
11
60.7935571147
21
-21.7822748842
0
LINE
5
58E
100
AcDbEntity
8
0
100
AcDbLine
62
0
6
CONTINUOUS
10
30.6694120490
20
-8.0513821632
11
30.6805020578
21
-8.0494997805
0
LINE
5
58F
100
AcDbEntity
8
0
100
AcDbLine
62
0
6
CONTINUOUS
10
45.6916616348
20
-8.0653466789
11
45.7027593905
21
-8.0634653238
0
LINE
5
590
100
AcDbEntity
8
0
100
AcDbLine
62
0
6
CONTINUOUS
10
45.7027277719
20
-8.0716873064
11
45.6916230482
21
-8.0735705341
0
LINE
5
591
100
AcDbEntity
8
0
100
AcDbLine
62
0
6
CONTINUOUS
10
30.6945223550
20
-8.0634663744
11
30.6834231847
21
-8.0653483412
0
LINE
5
592
100
AcDbEntity
8
0
100
AcDbLine
62
0
6
CONTINUOUS
10
48.1220501611
20
-17.0387906924
11
48.1109595002
21
-17.0406698254
0
LINE
5
593
100
AcDbEntity
8
0
100
AcDbLine
62
0
6
CONTINUOUS
10
48.0969762836
20
-16.9848265665
11
48.1080809584
21
-16.9829453418
0
LINE
5
594
100
AcDbEntity
8
0
100
AcDbLine
62
0
6
CONTINUOUS
10
47.4396625239
20
-16.9168828161
11
47.4865344994
21
-16.9090040491
0
LINE
5
595
100
AcDbEntity
8
0
100
AcDbLine
62
0
6
CONTINUOUS
10
31.3550133771
20
-8.1449509955
11
31.3081414016
21
-8.1528297626
0
LINE
5
596
100
AcDbEntity
8
0
100
AcDbLine
62
0
6
CONTINUOUS
10
31.3081414016
20
-8.1402613383
11
31.3550133771
21
-8.1323825713
0
LINE
5
597
100
AcDbEntity
8
0
100
AcDbLine
62
9
6
CONTINUOUS
10
61.4009720457
20
-20.3589693021
11
61.3915252061
21
-20.3605059244
0
LINE
5
598
100
AcDbEntity
8
0
100
AcDbLine
62
0
6
CONTINUOUS
10
60.8863649001
20
-21.8561982788
11
60.8633576484
21
-21.8599069942
0
LINE
5
599
100
AcDbEntity
8
0
100
AcDbLine
62
9
6
CONTINUOUS
10
61.3915252061
20
-20.3605059244
11
61.3813987562
21
-20.3620231035
0
LINE
5
59A
100
AcDbEntity
8
0
100
AcDbLine
62
9
6
CONTINUOUS
10
-25.1112394985
20
-20.3938268650
11
-25.1116077393
21
-20.3938808829
0
LINE
5
59B
100
AcDbEntity
8
DEFAULT_3
100
AcDbLine
62
9
6
PHANTOM
10
48.2851017120
20
-16.6765187216
11
48.2757237153
21
-16.6778759815
0
LINE
5
59C
100
AcDbEntity
8
DEFAULT_3
100
AcDbLine
62
9
6
PHANTOM
10
30.5106194460
20
-15.4354769849
11
30.5058570517
21
-15.4361347119
0
LINE
5
59D
100
AcDbEntity
8
DEFAULT_3
100
AcDbLine
62
9
6
PHANTOM
10
30.5058570517
20
-9.6412269399
11
30.5106194460
21
-9.6405692129
0
LINE
5
59E
100
AcDbEntity
8
DEFAULT_3
100
AcDbLine
62
9
6
PHANTOM
10
30.7452417671
20
-8.1495914814
11
30.7711899963
21
-8.1461757008
0
LINE
5
59F
100
AcDbEntity
8
0
100
AcDbLine
62
0
6
CONTINUOUS
10
48.0858454266
20
-16.9862898151
11
48.0969762836
21
-16.9848265665
0
LINE
5
5A0
100
AcDbEntity
8
DEFAULT_3
100
AcDbLine
62
9
6
PHANTOM
10
48.0494365486
20
-16.9673804865
11
48.0234869598
21
-16.9707937729
0
LINE
5
5A1
100
AcDbEntity
8
0
100
AcDbLine
62
0
6
CONTINUOUS
10
45.7027593905
20
-8.0634653238
11
45.7138832349
21
-8.0620019826
0
LINE
5
5A2
100
AcDbEntity
8
0
100
AcDbLine
62
0
6
CONTINUOUS
10
45.7138589704
20
-8.0702224758
11
45.7027277719
21
-8.0716873064
0
LINE
5
5A3
100
AcDbEntity
8
DEFAULT_3
100
AcDbLine
62
9
6
PHANTOM
10
30.7452393524
20
-8.1842154312
11
30.7711889412
21
-8.1808014883
0
LINE
5
5A4
100
AcDbEntity
8
DEFAULT_3
100
AcDbLine
62
9
6
PHANTOM
10
30.7711889619
20
-8.1463944486
11
30.7452394007
21
-8.1498080565
0
LINE
5
5A5
100
AcDbEntity
8
0
100
AcDbLine
62
0
6
CONTINUOUS
10
30.7056477739
20
-8.0620025594
11
30.6945223550
21
-8.0634663744
0
LINE
5
5A6
100
AcDbEntity
8
0
100
AcDbLine
62
0
6
CONTINUOUS
10
30.6805020578
20
-8.0494997805
11
30.6916378398
21
-8.0480365157
0
LINE
5
5A7
100
AcDbEntity
8
0
100
AcDbLine
62
0
6
CONTINUOUS
10
48.1109595002
20
-17.0406698254
11
48.0998234108
21
-17.0421305404
0
LINE
5
5A8
100
AcDbEntity
8
DEFAULT_3
100
AcDbLine
62
9
6
PHANTOM
10
30.7886711301
20
-8.4372115245
11
30.7929613971
21
-8.4366496160
0
LINE
5
5A9
100
AcDbEntity
8
DEFAULT_3
100
AcDbLine
62
9
6
PHANTOM
10
48.0060047709
20
-16.7353297459
11
48.0017145039
21
-16.7358910023
0
LINE
5
5AA
100
AcDbEntity
8
0
100
AcDbLine
62
0
6
CONTINUOUS
10
31.4021223585
20
-8.1393265397
11
31.3550133771
21
-8.1449509955
0
LINE
5
5AB
100
AcDbEntity
8
0
100
AcDbLine
62
0
6
CONTINUOUS
10
31.3550133771
20
-8.1323825713
11
31.4021223585
21
-8.1267581155
0
LINE
5
5AC
100
AcDbEntity
8
DEFAULT_3
100
AcDbLine
62
9
6
PHANTOM
10
30.5163680674
20
-15.4348363723
11
30.5106194460
21
-15.4354769849
0
LINE
5
5AD
100
AcDbEntity
8
DEFAULT_3
100
AcDbLine
62
9
6
PHANTOM
10
30.5106194460
20
-9.6405692129
11
30.5163680674
21
-9.6399286003
0
LINE
5
5AE
100
AcDbEntity
8
DEFAULT_3
100
AcDbLine
62
9
6
PHANTOM
10
48.2918748507
20
-8.4808930873
11
48.2851020796
21
-8.4816065061
0
LINE
5
5AF
100
AcDbEntity
8
0
100
AcDbLine
62
0
6
CONTINUOUS
10
45.7249921556
20
-8.0691794139
11
45.7138589704
21
-8.0702224758
0
LINE
5
5B0
100
AcDbEntity
8
0
100
AcDbLine
62
0
6
CONTINUOUS
10
45.7138832349
20
-8.0620019826
11
45.7250087180
21
-8.0609599837
0
LINE
5
5B1
100
AcDbEntity
8
0
100
AcDbLine
62
0
6
CONTINUOUS
10
30.7167749583
20
-8.0609602301
11
30.7056477739
21
-8.0620025594
0
LINE
5
5B2
100
AcDbEntity
8
0
100
AcDbLine
62
0
6
CONTINUOUS
10
30.6916378398
20
-8.0480365157
11
30.7027956245
21
-8.0469930942
0
LINE
5
5B3
100
AcDbEntity
8
DEFAULT_3
100
AcDbLine
62
9
6
PHANTOM
10
30.5163680674
20
-9.6399286003
11
30.5231155491
21
-9.6393053212
0
LINE
5
5B4
100
AcDbEntity
8
DEFAULT_3
100
AcDbLine
62
9
6
PHANTOM
10
30.5231155491
20
-9.6393053212
11
30.5308492578
21
-9.6386991565
0
LINE
5
5B5
100
AcDbEntity
8
0
100
AcDbLine
62
0
6
CONTINUOUS
10
31.4495638830
20
-8.1359361996
11
31.4021223585
21
-8.1393265397
0
LINE
5
5B6
100
AcDbEntity
8
0
100
AcDbLine
62
0
6
CONTINUOUS
10
31.4021223585
20
-8.1267581155
11
31.4495638830
21
-8.1233677754
0
LINE
5
5B7
100
AcDbEntity
8
0
100
AcDbLine
62
9
6
CONTINUOUS
10
17.7397952694
20
20.3495929887
11
17.7828487811
21
20.3511936155
0
LINE
5
5B8
100
AcDbEntity
8
0
100
AcDbLine
62
9
6
CONTINUOUS
10
17.7828487811
20
20.3511936155
11
17.8272115247
21
20.3526148973
0
LINE
5
5B9
100
AcDbEntity
8
0
100
AcDbLine
62
9
6
CONTINUOUS
10
-23.6412500542
20
20.9551996457
11
-23.6585856650
21
20.9546816352
0
LINE
5
5BA
100
AcDbEntity
8
0
100
AcDbLine
62
9
6
CONTINUOUS
10
17.8272115247
20
20.3526148973
11
17.8727189263
21
20.3538515615
0
LINE
5
5BB
100
AcDbEntity
8
0
100
AcDbLine
62
9
6
CONTINUOUS
10
17.8727189263
20
20.3538515615
11
17.9192021656
21
20.3548990205
0
LINE
5
5BC
100
AcDbEntity
8
0
100
AcDbLine
62
9
6
CONTINUOUS
10
-19.2543447683
20
21.0317733623
11
-23.6412500542
21
20.9551996457
0
LINE
5
5BD
100
AcDbEntity
8
0
100
AcDbLine
62
0
6
CONTINUOUS
10
-19.2543447683
20
21.8316515184
11
-23.6412500542
21
21.7550778018
0
LINE
5
5BE
100
AcDbEntity
8
0
100
AcDbLine
62
9
6
CONTINUOUS
10
17.9192021656
20
20.3548990205
11
17.9903786741
21
20.3561071445
0
LINE
5
5BF
100
AcDbEntity
8
0
100
AcDbLine
62
9
6
CONTINUOUS
10
18.0991623023
20
21.7546910812
11
18.1237898232
21
21.7550778018
0
LINE
5
5C0
100
AcDbEntity
8
0
100
AcDbLine
62
0
6
CONTINUOUS
10
18.0239827871
20
21.8313165104
11
18.0472161066
21
21.8316515184
0
LINE
5
5C1
100
AcDbEntity
8
0
100
AcDbLine
62
9
6
CONTINUOUS
10
17.9903786741
20
20.3561071445
11
18.0627682544
21
20.3568709014
0
LINE
5
5C2
100
AcDbEntity
8
0
100
AcDbLine
62
9
6
CONTINUOUS
10
18.0627682544
20
20.3568709014
11
18.1357669115
21
20.3571839187
0
LINE
5
5C3
100
AcDbEntity
8
0
100
AcDbLine
62
9
6
CONTINUOUS
10
60.7076124151
20
20.3570255318
11
18.1357669115
21
20.3571839211
0
LINE
5
5C4
100
AcDbEntity
8
0
100
AcDbLine
62
9
6
CONTINUOUS
10
18.1237898232
20
21.7550778018
11
60.6708860778
21
21.7550778018
0
LINE
5
5C5
100
AcDbEntity
8
0
100
AcDbLine
62
0
6
CONTINUOUS
10
60.7474597944
20
21.8316515184
11
18.0472161066
21
21.8316515184
0
LINE
5
5C6
100
AcDbEntity
8
0
100
AcDbLine
62
9
6
CONTINUOUS
10
60.7802724882
20
20.3564114982
11
60.7076124151
21
20.3570255318
0
LINE
5
5C7
100
AcDbEntity
8
0
100
AcDbLine
62
0
6
CONTINUOUS
10
60.7474597944
20
21.8316515184
11
60.7706931139
21
21.8313165104
0
LINE
5
5C8
100
AcDbEntity
8
0
100
AcDbLine
62
9
6
CONTINUOUS
10
60.8519199440
20
20.3553505582
11
60.7802724882
21
20.3564114982
0
LINE
5
5C9
100
AcDbEntity
8
0
100
AcDbLine
62
9
6
CONTINUOUS
10
60.6955135990
20
21.7546910812
11
60.6708860778
21
21.7550778018
0
LINE
5
5CA
100
AcDbEntity
8
0
100
AcDbLine
62
9
6
CONTINUOUS
10
60.8988266392
20
20.3543992034
11
60.8519199440
21
20.3553505582
0
LINE
5
5CB
100
AcDbEntity
8
0
100
AcDbLine
62
9
6
CONTINUOUS
10
60.9448433041
20
20.3532566117
11
60.8988266392
21
20.3543992034
0
LINE
5
5CC
100
AcDbEntity
8
0
100
AcDbLine
62
9
6
CONTINUOUS
10
60.9674643820
20
20.3526148994
11
60.9448433041
21
20.3532566117
0
LINE
5
5CD
100
AcDbEntity
8
0
100
AcDbLine
62
9
6
CONTINUOUS
10
61.0118271264
20
20.3511936175
11
60.9674643820
21
20.3526148994
0
LINE
5
5CE
100
AcDbEntity
8
0
100
AcDbLine
62
9
6
CONTINUOUS
10
61.0548806387
20
20.3495929907
11
61.0118271264
21
20.3511936175
0
LINE
5
5CF
100
AcDbEntity
8
0
100
AcDbLine
62
9
6
CONTINUOUS
10
61.0964652021
20
20.3478189567
11
61.0548806387
21
20.3495929907
0
LINE
5
5D0
100
AcDbEntity
8
0
100
AcDbLine
62
0
6
CONTINUOUS
10
60.7706931139
20
21.8313165104
11
60.7938934460
21
21.8303054921
0
LINE
5
5D1
100
AcDbEntity
8
0
100
AcDbLine
62
9
6
CONTINUOUS
10
60.7201177686
20
21.7535462887
11
60.6955135990
21
21.7546910812
0
LINE
5
5D2
100
AcDbEntity
8
0
100
AcDbLine
62
9
6
CONTINUOUS
10
61.1364265489
20
20.3458780969
11
61.0964652021
21
20.3478189567
0
LINE
5
5D3
100
AcDbEntity
8
0
100
AcDbLine
62
9
6
CONTINUOUS
10
61.1746164332
20
20.3437776112
11
61.1364265489
21
20.3458780969
0
LINE
5
5D4
100
AcDbEntity
8
0
100
AcDbLine
62
9
6
CONTINUOUS
10
61.2108931807
20
20.3415252920
11
61.1746164332
21
20.3437776112
0
LINE
5
5D5
100
AcDbEntity
8
0
100
AcDbLine
62
9
6
CONTINUOUS
10
61.2451222144
20
20.3391294946
11
61.2108931807
21
20.3415252920
0
LINE
5
5D6
100
AcDbEntity
8
0
100
AcDbLine
62
0
6
CONTINUOUS
10
60.7938934460
20
21.8303054921
11
60.8170607906
21
21.8286184634
0
LINE
5
5D7
100
AcDbEntity
8
0
100
AcDbLine
62
9
6
CONTINUOUS
10
61.2614288473
20
20.3378805492
11
61.2451222144
21
20.3391294946
0
LINE
5
5D8
100
AcDbEntity
8
0
100
AcDbLine
62
9
6
CONTINUOUS
10
60.7446752570
20
21.7516445095
11
60.7201177686
21
21.7535462887
0
LINE
5
5D9
100
AcDbEntity
8
0
100
AcDbLine
62
9
6
CONTINUOUS
10
61.2771765537
20
20.3365991070
11
61.2614288473
21
20.3378805492
0
LINE
5
5DA
100
AcDbEntity
8
0
100
AcDbLine
62
9
6
CONTINUOUS
10
61.2923507252
20
20.3352863567
11
61.2771765537
21
20.3365991070
0
LINE
5
5DB
100
AcDbEntity
8
0
100
AcDbLine
62
9
6
CONTINUOUS
10
61.3069372856
20
20.3339435161
11
61.2923507252
21
20.3352863567
0
LINE
5
5DC
100
AcDbEntity
8
0
100
AcDbLine
62
9
6
CONTINUOUS
10
61.3209227036
20
20.3325718309
11
61.3069372856
21
20.3339435161
0
LINE
5
5DD
100
AcDbEntity
8
0
100
AcDbLine
62
0
6
CONTINUOUS
10
60.8170607906
20
21.8286184634
11
60.8402257132
21
21.8262522524
0
LINE
5
5DE
100
AcDbEntity
8
0
100
AcDbLine
62
9
6
CONTINUOUS
10
61.3342940057
20
20.3311725735
11
61.3209227036
21
20.3325718309
0
LINE
5
5DF
100
AcDbEntity
8
0
100
AcDbLine
62
9
6
CONTINUOUS
10
60.7691627790
20
21.7489875471
11
60.7446752570
21
21.7516445095
0
LINE
5
5E0
100
AcDbEntity
8
0
100
AcDbLine
62
9
6
CONTINUOUS
10
61.3375819992
20
21.3969486741
11
61.3236586180
21
21.4172703462
0
LINE
5
5E1
100
AcDbEntity
8
0
100
AcDbLine
62
0
6
CONTINUOUS
10
61.4026746631
20
21.4906073137
11
61.4157236085
21
21.4713821810
0
LINE
5
5E2
100
AcDbEntity
8
0
100
AcDbLine
62
9
6
CONTINUOUS
10
61.3508732241
20
21.3762081388
11
61.3375819992
21
21.3969486741
0
LINE
5
5E3
100
AcDbEntity
8
0
100
AcDbLine
62
0
6
CONTINUOUS
10
61.4157236085
20
21.4713821810
11
61.4282272816
21
21.4517593536
0
LINE
5
5E4
100
AcDbEntity
8
0
100
AcDbLine
62
9
6
CONTINUOUS
10
61.3635196901
20
21.3550684063
11
61.3508732241
21
21.3762081388
0
LINE
5
5E5
100
AcDbEntity
8
0
100
AcDbLine
62
0
6
CONTINUOUS
10
61.4282272816
20
21.4517593536
11
61.4401536936
21
21.4317812818
0
LINE
5
5E6
100
AcDbEntity
8
0
100
AcDbLine
62
0
6
CONTINUOUS
10
61.4401536936
20
21.4317812818
11
61.4515061807
21
21.4114359814
0
LINE
5
5E7
100
AcDbEntity
8
0
100
AcDbLine
62
9
6
CONTINUOUS
10
61.3755094059
20
21.3335495211
11
61.3635196901
21
21.3550684063
0
LINE
5
5E8
100
AcDbEntity
8
0
100
AcDbLine
62
0
6
CONTINUOUS
10
61.4515061807
20
21.4114359814
11
61.4622814065
21
21.3907354367
0
LINE
5
5E9
100
AcDbEntity
8
0
100
AcDbLine
62
9
6
CONTINUOUS
10
61.3868310029
20
21.3116718873
11
61.3755094059
21
21.3335495211
0
LINE
5
5EA
100
AcDbEntity
8
0
100
AcDbLine
62
0
6
CONTINUOUS
10
61.4622814065
20
21.3907354367
11
61.4724373730
21
21.3697580515
0
LINE
5
5EB
100
AcDbEntity
8
0
100
AcDbLine
62
9
6
CONTINUOUS
10
61.4587871456
20
20.3028491680
11
61.4579919314
21
20.3045041179
0
LINE
5
5EC
100
AcDbEntity
8
0
100
AcDbLine
62
0
6
CONTINUOUS
10
48.3304720718
20
-8.2402405215
11
48.3258105041
21
-8.2300685470
0
LINE
5
5ED
100
AcDbEntity
8
0
100
AcDbLine
62
0
6
CONTINUOUS
10
48.3398144443
20
-8.2161004516
11
48.3444748736
21
-8.2262735290
0
LINE
5
5EE
100
AcDbEntity
8
0
100
AcDbLine
62
0
6
CONTINUOUS
10
48.2256880110
20
-8.7625533852
11
48.2069696987
21
-8.7188511733
0
LINE
5
5EF
100
AcDbEntity
8
0
100
AcDbLine
62
0
6
CONTINUOUS
10
48.2069696987
20
-8.7062827491
11
48.2256880110
21
-8.7499849610
0
LINE
5
5F0
100
AcDbEntity
8
DEFAULT_3
100
AcDbLine
62
9
6
PHANTOM
10
48.2692271305
20
-8.3527329723
11
48.2792434460
21
-8.3768939798
0
LINE
5
5F1
100
AcDbEntity
8
DEFAULT_3
100
AcDbLine
62
9
6
PHANTOM
10
48.2792496595
20
-8.3424100143
11
48.2692356852
21
-8.3182349155
0
LINE
5
5F2
100
AcDbEntity
8
0
100
AcDbLine
62
0
6
CONTINUOUS
10
48.3444748736
20
-8.2262735290
11
48.3487449570
21
-8.2365936001
0
LINE
5
5F3
100
AcDbEntity
8
0
100
AcDbLine
62
0
6
CONTINUOUS
10
48.3347470015
20
-8.2505753164
11
48.3304720718
21
-8.2402405215
0
LINE
5
5F4
100
AcDbEntity
8
DEFAULT_3
100
AcDbLine
62
9
6
PHANTOM
10
48.0426680733
20
-8.4653858372
11
48.0443445325
21
-8.4694527126
0
LINE
5
5F5
100
AcDbEntity
8
0
100
AcDbLine
62
0
6
CONTINUOUS
10
48.2423583872
20
-8.8072139028
11
48.2256880110
21
-8.7625533852
0
LINE
5
5F6
100
AcDbEntity
8
0
100
AcDbLine
62
0
6
CONTINUOUS
10
48.2256880110
20
-8.7499849610
11
48.2423583872
21
-8.7946454786
0
LINE
5
5F7
100
AcDbEntity
8
0
100
AcDbLine
62
0
6
CONTINUOUS
10
48.3487449570
20
-8.2365936001
11
48.3526330867
21
-8.2470800337
0
LINE
5
5F8
100
AcDbEntity
8
0
100
AcDbLine
62
0
6
CONTINUOUS
10
48.3386321784
20
-8.2610629047
11
48.3347470015
21
-8.2505753164
0
LINE
5
5F9
100
AcDbEntity
8
0
100
AcDbLine
62
0
6
CONTINUOUS
10
30.4451646035
20
-16.8434374708
11
30.4416558163
21
-16.8328054297
0
LINE
5
5FA
100
AcDbEntity
8
0
100
AcDbLine
62
0
6
CONTINUOUS
10
30.4556313239
20
-16.7768281792
11
30.4591343847
21
-16.7874620232
0
LINE
5
5FB
100
AcDbEntity
8
0
100
AcDbLine
62
0
6
CONTINUOUS
10
30.5378225772
20
-16.2093407802
11
30.5523175138
21
-16.2546199088
0
LINE
5
5FC
100
AcDbEntity
8
0
100
AcDbLine
62
9
6
CONTINUOUS
10
17.3245161867
20
20.9537365663
11
17.3242142613
21
20.9546816352
0
LINE
5
5FD
100
AcDbEntity
8
DEFAULT_3
100
AcDbLine
62
9
6
PHANTOM
10
30.5154324550
20
-16.7747391147
11
30.5075616268
21
-16.7498021023
0
LINE
5
5FE
100
AcDbEntity
8
DEFAULT_3
100
AcDbLine
62
9
6
PHANTOM
10
30.7503313685
20
-16.7031258220
11
30.7490224310
21
-16.6989772698
0
LINE
5
5FF
100
AcDbEntity
8
0
100
AcDbLine
62
0
6
CONTINUOUS
10
30.4416558163
20
-16.8328054297
11
30.4385432799
21
-16.8220354568
0
LINE
5
600
100
AcDbEntity
8
0
100
AcDbLine
62
0
6
CONTINUOUS
10
30.4525175791
20
-16.7660424016
11
30.4556313239
21
-16.7768281792
0
LINE
5
601
100
AcDbEntity
8
0
100
AcDbLine
62
0
6
CONTINUOUS
10
17.2809323920
20
-21.2978816452
11
17.2746016234
21
-21.2755494658
0
LINE
5
602
100
AcDbEntity
8
0
100
AcDbLine
62
9
6
CONTINUOUS
10
18.1240924901
20
21.7539701852
11
18.1237898232
21
21.7550778018
0
LINE
5
603
100
AcDbEntity
8
DEFAULT_3
100
AcDbLine
62
9
6
PHANTOM
10
30.5044439915
20
-16.7371234131
11
30.5112811540
21
-16.7625959908
0
LINE
5
604
100
AcDbEntity
8
0
100
AcDbLine
62
9
6
CONTINUOUS
10
17.3481205304
20
-21.1869608077
11
17.3545013957
21
-21.2107523094
0
LINE
5
605
100
AcDbEntity
8
0
100
AcDbLine
62
0
6
CONTINUOUS
10
30.5255253682
20
-16.1634608189
11
30.5378225772
21
-16.2093407802
0
LINE
5
606
100
AcDbEntity
8
0
100
AcDbLine
62
0
6
CONTINUOUS
10
17.2746016234
20
-21.2755494658
11
17.2689108433
21
-21.2529972461
0
LINE
5
607
100
AcDbEntity
8
0
100
AcDbLine
62
0
6
CONTINUOUS
10
30.4385432799
20
-16.8220354568
11
30.4358348158
21
-16.8111501441
0
LINE
5
608
100
AcDbEntity
8
0
100
AcDbLine
62
0
6
CONTINUOUS
10
30.4498119347
20
-16.7551567219
11
30.4525175791
21
-16.7660424016
0
LINE
5
609
100
AcDbEntity
8
0
100
AcDbLine
62
9
6
CONTINUOUS
10
17.3424751490
20
-21.1629843475
11
17.3481205304
21
-21.1869608077
0
LINE
5
60A
100
AcDbEntity
8
0
100
AcDbLine
62
0
6
CONTINUOUS
10
17.2689108433
20
-21.2529972461
11
17.2638658686
21
-21.2302463547
0
LINE
5
60B
100
AcDbEntity
8
0
100
AcDbLine
62
9
6
CONTINUOUS
10
17.3375706046
20
-21.1388456632
11
17.3424751490
21
-21.1629843475
0
LINE
5
60C
100
AcDbEntity
8
0
100
AcDbLine
62
0
6
CONTINUOUS
10
17.2638658686
20
-21.2302463547
11
17.2594873131
21
-21.2073706656
0
LINE
5
60D
100
AcDbEntity
8
0
100
AcDbLine
62
9
6
CONTINUOUS
10
17.3273449591
20
-21.0656857855
11
17.3300019213
21
-21.0901733068
0
LINE
5
60E
100
AcDbEntity
8
0
100
AcDbLine
62
0
6
CONTINUOUS
10
17.2527368362
20
-21.1612328997
11
17.2503707754
21
-21.1380686866
0
LINE
5
60F
100
AcDbEntity
8
0
100
AcDbLine
62
9
6
CONTINUOUS
10
-24.8455344039
20
-10.1848172780
11
-24.8050124942
21
-11.3139095472
0
LINE
5
610
100
AcDbEntity
8
0
100
AcDbLine
62
9
6
CONTINUOUS
10
-23.6450947204
20
-21.7462417446
11
-23.6448237983
21
-21.7540747358
0
LINE
5
611
100
AcDbEntity
8
0
100
AcDbLine
62
9
6
CONTINUOUS
10
-24.8817922460
20
-9.0555800612
11
-24.8455344039
21
-10.1848172780
0
LINE
5
612
100
AcDbEntity
8
0
100
AcDbLine
62
9
6
CONTINUOUS
10
-24.9137862028
20
-7.9261979012
11
-24.8817922460
21
-9.0555800612
0
LINE
5
613
100
AcDbEntity
8
0
100
AcDbLine
62
9
6
CONTINUOUS
10
-23.6455856714
20
-21.7284380740
11
-23.6450947204
21
-21.7462417446
0
LINE
5
614
100
AcDbEntity
8
0
100
AcDbLine
62
9
6
CONTINUOUS
10
-24.9415149066
20
-6.7967191036
11
-24.9137862028
21
-7.9261979012
0
LINE
5
615
100
AcDbEntity
8
0
100
AcDbLine
62
9
6
CONTINUOUS
10
-24.9649781749
20
-5.6671436654
11
-24.9415149066
21
-6.7967191036
0
LINE
5
616
100
AcDbEntity
8
0
100
AcDbLine
62
9
6
CONTINUOUS
10
-23.6460072404
20
-21.7078415323
11
-23.6455856714
21
-21.7284380740
0
LINE
5
617
100
AcDbEntity
8
0
100
AcDbLine
62
9
6
CONTINUOUS
10
-24.9841761902
20
-4.5374715895
11
-24.9649781749
21
-5.6671436654
0
LINE
5
618
100
AcDbEntity
8
0
100
AcDbLine
62
9
6
CONTINUOUS
10
-23.6412500542
20
20.9551996457
11
-23.6432254641
21
21.0778706809
0
LINE
5
619
100
AcDbEntity
8
0
100
AcDbLine
62
9
6
CONTINUOUS
10
-23.6463578290
20
-21.6845302192
11
-23.6460072404
21
-21.7078415323
0
LINE
5
61A
100
AcDbEntity
8
0
100
AcDbLine
62
9
6
CONTINUOUS
10
-23.6432254641
20
21.0778706809
11
-23.6448237983
21
21.1976393327
0
LINE
5
61B
100
AcDbEntity
8
0
100
AcDbLine
62
9
6
CONTINUOUS
10
-24.9991081318
20
-3.4077511910
11
-24.9841761902
21
-4.5374715895
0
LINE
5
61C
100
AcDbEntity
8
0
100
AcDbLine
62
9
6
CONTINUOUS
10
-23.6448237983
20
21.1976393327
11
-23.6460072404
21
21.3116718873
0
LINE
5
61D
100
AcDbEntity
8
0
100
AcDbLine
62
9
6
CONTINUOUS
10
-23.6467477903
20
-21.6446691467
11
-23.6463578290
21
-21.6845302192
0
LINE
5
61E
100
AcDbEntity
8
0
100
AcDbLine
62
9
6
CONTINUOUS
10
-25.0097738173
20
-2.2779824672
11
-24.9991081318
21
-3.4077511910
0
LINE
5
61F
100
AcDbEntity
8
0
100
AcDbLine
62
9
6
CONTINUOUS
10
-23.6460072404
20
21.3116718873
11
-23.6467477903
21
21.4172703462
0
LINE
5
620
100
AcDbEntity
8
0
100
AcDbLine
62
9
6
CONTINUOUS
10
-25.0161734290
20
-1.1481654208
11
-25.0097738173
21
-2.2779824672
0
LINE
5
621
100
AcDbEntity
8
0
100
AcDbLine
62
9
6
CONTINUOUS
10
-23.6470092094
20
-21.5829268243
11
-23.6467477903
21
-21.6446691467
0
LINE
5
622
100
AcDbEntity
8
0
100
AcDbLine
62
9
6
CONTINUOUS
10
-23.6467477903
20
21.4172703462
11
-23.6470279267
21
21.5119362610
0
LINE
5
623
100
AcDbEntity
8
0
100
AcDbLine
62
9
6
CONTINUOUS
10
-25.0183066935
20
-0.0183483743
11
-25.0161734290
21
-1.1481654208
0
LINE
5
624
100
AcDbEntity
8
0
100
AcDbLine
62
0
6
CONTINUOUS
10
-19.2543447683
20
21.8316515184
11
-19.2543447683
21
-21.8683484816
0
LINE
5
625
100
AcDbEntity
8
0
100
AcDbLine
62
0
6
CONTINUOUS
10
-14.2543447683
20
1.2002354643
11
-14.2543447683
21
-1.2369324275
0
LINE
5
626
100
AcDbEntity
8
0
100
AcDbLine
62
9
6
CONTINUOUS
10
-23.6469157125
20
-21.4932774073
11
-23.6470092094
21
-21.5829268243
0
LINE
5
627
100
AcDbEntity
8
0
100
AcDbLine
62
9
6
CONTINUOUS
10
-23.6470279267
20
21.5119362610
11
-23.6469157126
21
21.5782823447
0
LINE
5
628
100
AcDbEntity
8
0
100
AcDbLine
62
9
6
CONTINUOUS
10
-25.0161734282
20
1.1114686721
11
-25.0183066935
21
-0.0183483743
0
LINE
5
629
100
AcDbEntity
8
0
100
AcDbLine
62
9
6
CONTINUOUS
10
-25.0097738156
20
2.2412857185
11
-25.0161734282
21
1.1114686721
0
LINE
5
62A
100
AcDbEntity
8
0
100
AcDbLine
62
9
6
CONTINUOUS
10
-23.6461914967
20
-21.3702464877
11
-23.6469157125
21
-21.4932774073
0
LINE
5
62B
100
AcDbEntity
8
0
100
AcDbLine
62
9
6
CONTINUOUS
10
-23.6469157126
20
21.5782823447
11
-23.6466361078
21
21.6218955627
0
LINE
5
62C
100
AcDbEntity
8
0
100
AcDbLine
62
9
6
CONTINUOUS
10
-24.9991081293
20
3.3710544422
11
-25.0097738156
21
2.2412857185
0
LINE
5
62D
100
AcDbEntity
8
0
100
AcDbLine
62
9
6
CONTINUOUS
10
-23.6442323453
20
-21.1869608119
11
-23.6461914967
21
-21.3702464877
0
LINE
5
62E
100
AcDbEntity
8
0
100
AcDbLine
62
9
6
CONTINUOUS
10
-23.6466361078
20
21.6218955627
11
-23.6461914968
21
21.6598229704
0
LINE
5
62F
100
AcDbEntity
8
0
100
AcDbLine
62
9
6
CONTINUOUS
10
-24.9841761870
20
4.5007748407
11
-24.9991081293
21
3.3710544422
0
LINE
5
630
100
AcDbEntity
8
0
100
AcDbLine
62
9
6
CONTINUOUS
10
-23.6412500542
20
-20.9918966089
11
-23.6442323453
21
-21.1869608119
0
LINE
5
631
100
AcDbEntity
8
0
100
AcDbLine
62
9
6
CONTINUOUS
10
-24.9649781709
20
5.6304469164
11
-24.9841761870
21
4.5007748407
0
LINE
5
632
100
AcDbEntity
8
0
100
AcDbLine
62
9
6
CONTINUOUS
10
-23.6461914968
20
21.6598229704
11
-23.6458052349
21
21.6817873113
0
LINE
5
633
100
AcDbEntity
8
0
100
AcDbLine
62
9
6
CONTINUOUS
10
-24.9415149017
20
6.7600223546
11
-24.9649781709
21
5.6304469164
0
LINE
5
634
100
AcDbEntity
8
0
100
AcDbLine
62
9
6
CONTINUOUS
10
-23.6458052349
20
21.6817873113
11
-23.6453487584
21
21.7009965248
0
LINE
5
635
100
AcDbEntity
8
0
100
AcDbLine
62
9
6
CONTINUOUS
10
-24.9137861972
20
7.8895011521
11
-24.9415149017
21
6.7600223546
0
LINE
5
636
100
AcDbEntity
8
0
100
AcDbLine
62
9
6
CONTINUOUS
10
-24.8817922396
20
9.0188833120
11
-24.9137861972
21
7.8895011521
0
LINE
5
637
100
AcDbEntity
8
0
100
AcDbLine
62
9
6
CONTINUOUS
10
-23.6453487584
20
21.7009965248
11
-23.6450947205
21
21.7095447806
0
LINE
5
638
100
AcDbEntity
8
0
100
AcDbLine
62
9
6
CONTINUOUS
10
-24.8455343967
20
10.1481205286
11
-24.8817922396
21
9.0188833120
0
LINE
5
639
100
AcDbEntity
8
0
100
AcDbLine
62
9
6
CONTINUOUS
10
-23.6450947205
20
21.7095447806
11
-23.6448237984
21
21.7173777719
0
LINE
5
63A
100
AcDbEntity
8
0
100
AcDbLine
62
9
6
CONTINUOUS
10
-24.8050124861
20
11.2772127977
11
-24.8455343967
21
10.1481205286
0
LINE
5
63B
100
AcDbEntity
8
0
100
AcDbLine
62
9
6
CONTINUOUS
10
-24.7602266902
20
12.4061601236
11
-24.8050124861
21
11.2772127977
0
LINE
5
63C
100
AcDbEntity
8
0
100
AcDbLine
62
9
6
CONTINUOUS
10
-23.6448237984
20
21.7173777719
11
-23.6445362491
21
21.7244880713
0
LINE
5
63D
100
AcDbEntity
8
0
100
AcDbLine
62
9
6
CONTINUOUS
10
-24.7111789241
20
13.5349142136
11
-24.7602266902
21
12.4061601236
0
LINE
5
63E
100
AcDbEntity
8
0
100
AcDbLine
62
0
6
CONTINUOUS
10
60.9768791887
20
-21.8347516491
11
60.9545468591
21
-21.8410826851
0
LINE
5
63F
100
AcDbEntity
8
0
100
AcDbLine
62
9
6
CONTINUOUS
10
61.4377278781
20
-20.3510449879
11
61.4317976587
21
-20.3526571311
0
LINE
5
640
100
AcDbEntity
8
DEFAULT_3
100
AcDbLine
62
9
6
PHANTOM
10
48.0623013629
20
-16.9650382698
11
48.0877702185
21
-16.9582013750
0
LINE
5
641
100
AcDbEntity
8
0
100
AcDbLine
62
9
6
CONTINUOUS
10
60.8897417829
20
-21.7611850351
11
60.8659502808
21
-21.7675659007
0
LINE
5
642
100
AcDbEntity
8
0
100
AcDbLine
62
0
6
CONTINUOUS
10
47.5330739320
20
-16.8988911663
11
47.5789942099
21
-16.8866047539
0
LINE
5
643
100
AcDbEntity
8
0
100
AcDbLine
62
0
6
CONTINUOUS
10
31.2616019691
20
-8.1629426454
11
31.2156816911
21
-8.1752290578
0
LINE
5
644
100
AcDbEntity
8
0
100
AcDbLine
62
0
6
CONTINUOUS
10
31.2156816911
20
-8.1626606336
11
31.2616019691
21
-8.1503742211
0
LINE
5
645
100
AcDbEntity
8
DEFAULT_3
100
AcDbLine
62
9
6
PHANTOM
10
30.5021416304
20
-15.4368011637
11
30.4994934308
21
-15.4374735439
0
LINE
5
646
100
AcDbEntity
8
DEFAULT_3
100
AcDbLine
62
9
6
PHANTOM
10
30.4994934308
20
-9.6425657719
11
30.5021416304
21
-9.6418933918
0
LINE
5
647
100
AcDbEntity
8
0
100
AcDbLine
62
0
6
CONTINUOUS
10
45.6806182636
20
-8.0758620443
11
45.6697205377
21
-8.0785647267
0
LINE
5
648
100
AcDbEntity
8
0
100
AcDbLine
62
0
6
CONTINUOUS
10
30.6724237126
20
-8.0676384591
11
30.6615307668
21
-8.0703397597
0
LINE
5
649
100
AcDbEntity
8
0
100
AcDbLine
62
0
6
CONTINUOUS
10
30.6475066982
20
-8.0563809840
11
30.6584069314
21
-8.0536776319
0
LINE
5
64A
100
AcDbEntity
8
0
100
AcDbLine
62
0
6
CONTINUOUS
10
45.6697715222
20
-8.0703363693
11
45.6806633179
21
-8.0676360626
0
LINE
5
64B
100
AcDbEntity
8
0
100
AcDbLine
62
0
6
CONTINUOUS
10
48.1190859075
20
-16.9806561839
11
48.1299842828
21
-16.9779560644
0
LINE
5
64C
100
AcDbEntity
8
0
100
AcDbLine
62
0
6
CONTINUOUS
10
48.1439578170
20
-17.0338003528
11
48.1330562635
21
-17.0364991377
0
LINE
5
64D
100
AcDbEntity
8
DEFAULT_3
100
AcDbLine
62
9
6
PHANTOM
10
30.7196902124
20
-8.1552554673
11
30.7452417671
21
-8.1495914814
0
LINE
5
64E
100
AcDbEntity
8
DEFAULT_3
100
AcDbLine
62
9
6
PHANTOM
10
30.7196866921
20
-8.1898763297
11
30.7452393524
21
-8.1842154312
0
LINE
5
64F
100
AcDbEntity
8
DEFAULT_3
100
AcDbLine
62
9
6
PHANTOM
10
30.7452394007
20
-8.1498080565
11
30.7196867739
21
-8.1554684021
0
LINE
5
650
100
AcDbEntity
8
DEFAULT_3
100
AcDbLine
62
9
6
PHANTOM
10
30.7844671494
20
-8.4381413200
11
30.7886711301
21
-8.4372115245
0
LINE
5
651
100
AcDbEntity
8
0
100
AcDbLine
62
0
6
CONTINUOUS
10
31.3081414016
20
-8.1528297626
11
31.2616019691
21
-8.1629426454
0
LINE
5
652
100
AcDbEntity
8
0
100
AcDbLine
62
0
6
CONTINUOUS
10
31.2616019691
20
-8.1503742211
11
31.3081414016
21
-8.1402613383
0
LINE
5
653
100
AcDbEntity
8
0
100
AcDbLine
62
0
6
CONTINUOUS
10
30.6584069314
20
-8.0536776319
11
30.6694120490
21
-8.0513821632
0
LINE
5
654
100
AcDbEntity
8
0
100
AcDbLine
62
0
6
CONTINUOUS
10
45.6806633179
20
-8.0676360626
11
45.6916616348
21
-8.0653466789
0
LINE
5
655
100
AcDbEntity
8
0
100
AcDbLine
62
0
6
CONTINUOUS
10
45.6916230482
20
-8.0735705341
11
45.6806182636
21
-8.0758620443
0
LINE
5
656
100
AcDbEntity
8
0
100
AcDbLine
62
0
6
CONTINUOUS
10
30.6834231847
20
-8.0653483412
11
30.6724237126
21
-8.0676384591
0
LINE
5
657
100
AcDbEntity
8
0
100
AcDbLine
62
9
6
CONTINUOUS
10
17.4132771475
20
20.3253261399
11
17.4240738138
21
20.3268224682
0
LINE
5
658
100
AcDbEntity
8
0
100
AcDbLine
62
0
6
CONTINUOUS
10
17.9313182526
20
21.8232100310
11
17.9544501878
21
21.8262522524
0
LINE
5
659
100
AcDbEntity
8
0
100
AcDbLine
62
9
6
CONTINUOUS
10
17.4240738138
20
20.3268224682
11
17.4355306810
21
20.3282965577
0
LINE
5
65A
100
AcDbEntity
8
0
100
AcDbLine
62
9
6
CONTINUOUS
10
17.4355306810
20
20.3282965577
11
17.4476371211
21
20.3297470409
0
LINE
5
65B
100
AcDbEntity
8
0
100
AcDbLine
62
9
6
CONTINUOUS
10
17.4476371211
20
20.3297470409
11
17.4603819036
21
20.3311725724
0
LINE
5
65C
100
AcDbEntity
8
0
100
AcDbLine
62
9
6
CONTINUOUS
10
18.0255131229
20
21.7489875473
11
18.0500006447
21
21.7516445096
0
LINE
5
65D
100
AcDbEntity
8
0
100
AcDbLine
62
9
6
CONTINUOUS
10
17.4603819036
20
20.3311725724
11
17.4737532059
21
20.3325718298
0
LINE
5
65E
100
AcDbEntity
8
0
100
AcDbLine
62
9
6
CONTINUOUS
10
-23.6931419265
20
20.9523644392
11
-23.7103734122
21
20.9505638847
0
LINE
5
65F
100
AcDbEntity
8
0
100
AcDbLine
62
0
6
CONTINUOUS
10
17.9544501878
20
21.8262522524
11
17.9776151104
21
21.8286184634
0
LINE
5
660
100
AcDbEntity
8
0
100
AcDbLine
62
9
6
CONTINUOUS
10
17.4737532059
20
20.3325718298
11
17.4877386240
21
20.3339435149
0
LINE
5
661
100
AcDbEntity
8
0
100
AcDbLine
62
9
6
CONTINUOUS
10
17.4877386240
20
20.3339435149
11
17.5023251845
21
20.3352863555
0
LINE
5
662
100
AcDbEntity
8
0
100
AcDbLine
62
9
6
CONTINUOUS
10
17.5023251845
20
20.3352863555
11
17.5174993561
21
20.3365991057
0
LINE
5
663
100
AcDbEntity
8
0
100
AcDbLine
62
9
6
CONTINUOUS
10
17.5174993561
20
20.3365991057
11
17.5332470625
21
20.3378805479
0
LINE
5
664
100
AcDbEntity
8
0
100
AcDbLine
62
9
6
CONTINUOUS
10
-23.6758829558
20
20.9537365663
11
-23.6931419265
21
20.9523644392
0
LINE
5
665
100
AcDbEntity
8
0
100
AcDbLine
62
9
6
CONTINUOUS
10
18.0500006447
20
21.7516445096
11
18.0745581329
21
21.7535462887
0
LINE
5
666
100
AcDbEntity
8
0
100
AcDbLine
62
9
6
CONTINUOUS
10
17.5332470625
20
20.3378805479
11
17.5495536954
21
20.3391294932
0
LINE
5
667
100
AcDbEntity
8
0
100
AcDbLine
62
0
6
CONTINUOUS
10
17.9776151104
20
21.8286184634
11
18.0007824550
21
21.8303054921
0
LINE
5
668
100
AcDbEntity
8
0
100
AcDbLine
62
9
6
CONTINUOUS
10
17.5495536954
20
20.3391294932
11
17.5837827290
21
20.3415252905
0
LINE
5
669
100
AcDbEntity
8
0
100
AcDbLine
62
9
6
CONTINUOUS
10
17.5837827290
20
20.3415252905
11
17.6200594762
21
20.3437776096
0
LINE
5
66A
100
AcDbEntity
8
0
100
AcDbLine
62
9
6
CONTINUOUS
10
17.6200594762
20
20.3437776096
11
17.6582493602
21
20.3458780952
0
LINE
5
66B
100
AcDbEntity
8
0
100
AcDbLine
62
9
6
CONTINUOUS
10
-23.6585856650
20
20.9546816352
11
-23.6758829558
21
20.9537365663
0
LINE
5
66C
100
AcDbEntity
8
0
100
AcDbLine
62
9
6
CONTINUOUS
10
17.6582493602
20
20.3458780952
11
17.6982107065
21
20.3478189549
0
LINE
5
66D
100
AcDbEntity
8
0
100
AcDbLine
62
9
6
CONTINUOUS
10
18.0745581329
20
21.7535462887
11
18.0991623023
21
21.7546910812
0
LINE
5
66E
100
AcDbEntity
8
0
100
AcDbLine
62
0
6
CONTINUOUS
10
18.0007824550
20
21.8303054921
11
18.0239827871
21
21.8313165104
0
LINE
5
66F
100
AcDbEntity
8
0
100
AcDbLine
62
9
6
CONTINUOUS
10
17.6982107065
20
20.3478189549
11
17.7397952694
21
20.3495929887
0
LINE
5
670
100
AcDbEntity
8
0
100
AcDbLine
62
9
6
CONTINUOUS
10
61.3974737462
20
21.2894562491
11
61.3868310029
21
21.3116718873
0
LINE
5
671
100
AcDbEntity
8
0
100
AcDbLine
62
0
6
CONTINUOUS
10
61.4724373730
20
21.3697580515
11
61.4819678752
21
21.3485071604
0
LINE
5
672
100
AcDbEntity
8
0
100
AcDbLine
62
9
6
CONTINUOUS
10
61.4074275442
20
21.2669236713
11
61.3974737462
21
21.2894562491
0
LINE
5
673
100
AcDbEntity
8
0
100
AcDbLine
62
0
6
CONTINUOUS
10
61.4819678752
20
21.3485071604
11
61.4908791180
21
21.3269794288
0
LINE
5
674
100
AcDbEntity
8
0
100
AcDbLine
62
9
6
CONTINUOUS
10
61.4166829590
20
21.2440955190
11
61.4074275442
21
21.2669236713
0
LINE
5
675
100
AcDbEntity
8
0
100
AcDbLine
62
0
6
CONTINUOUS
10
61.4908791180
20
21.3269794288
11
61.4991477180
21
21.3052432572
0
LINE
5
676
100
AcDbEntity
8
0
100
AcDbLine
62
9
6
CONTINUOUS
10
61.4252312146
20
21.2209934377
11
61.4166829590
21
21.2440955190
0
LINE
5
677
100
AcDbEntity
8
0
100
AcDbLine
62
0
6
CONTINUOUS
10
61.4991477180
20
21.3052432572
11
61.5067669349
21
21.2833181896
0
LINE
5
678
100
AcDbEntity
8
0
100
AcDbLine
62
9
6
CONTINUOUS
10
61.4330642056
20
21.1976393327
11
61.4252312146
21
21.2209934377
0
LINE
5
679
100
AcDbEntity
8
0
100
AcDbLine
62
0
6
CONTINUOUS
10
48.3526330867
20
-8.2470800337
11
48.3561366594
21
-8.2577331451
0
LINE
5
67A
100
AcDbEntity
8
0
100
AcDbLine
62
0
6
CONTINUOUS
10
48.3421328772
20
-8.2717173023
11
48.3386321784
21
-8.2610629047
0
LINE
5
67B
100
AcDbEntity
8
0
100
AcDbLine
62
0
6
CONTINUOUS
10
48.2568533238
20
-8.8524930315
11
48.2423583872
21
-8.8072139028
0
LINE
5
67C
100
AcDbEntity
8
0
100
AcDbLine
62
0
6
CONTINUOUS
10
48.2423583872
20
-8.7946454786
11
48.2568533238
21
-8.8399246072
0
LINE
5
67D
100
AcDbEntity
8
0
100
AcDbLine
62
9
6
CONTINUOUS
10
61.4701597557
20
-20.9904337242
11
61.4704616633
21
-20.9913786987
0
LINE
5
67E
100
AcDbEntity
8
DEFAULT_3
100
AcDbLine
62
9
6
PHANTOM
10
48.2792434460
20
-8.3768939798
11
48.2871142742
21
-8.4018357530
0
LINE
5
67F
100
AcDbEntity
8
DEFAULT_3
100
AcDbLine
62
9
6
PHANTOM
10
48.2871182240
20
-8.3673653403
11
48.2792496595
21
-8.3424100143
0
LINE
5
680
100
AcDbEntity
8
DEFAULT_3
100
AcDbLine
62
9
6
PHANTOM
10
48.0443445325
20
-8.4694527126
11
48.0456534700
21
-8.4736060441
0
LINE
5
681
100
AcDbEntity
8
0
100
AcDbLine
62
0
6
CONTINUOUS
10
48.3452438231
20
-8.2825244933
11
48.3421328772
21
-8.2717173023
0
LINE
5
682
100
AcDbEntity
8
0
100
AcDbLine
62
0
6
CONTINUOUS
10
48.3561366594
20
-8.2577331451
11
48.3592436912
21
-8.2685246747
0
LINE
5
683
100
AcDbEntity
8
0
100
AcDbLine
62
9
6
CONTINUOUS
10
60.6705834139
20
-21.7906671490
11
60.6708860778
21
-21.7917747650
0
LINE
5
684
100
AcDbEntity
8
0
100
AcDbLine
62
0
6
CONTINUOUS
10
48.2691505328
20
-8.8983729928
11
48.2568533238
21
-8.8524930315
0
LINE
5
685
100
AcDbEntity
8
0
100
AcDbLine
62
0
6
CONTINUOUS
10
48.2568533238
20
-8.8399246072
11
48.2691505328
21
-8.8858045685
0
LINE
5
686
100
AcDbEntity
8
0
100
AcDbLine
62
9
6
CONTINUOUS
10
48.0663245572
20
-17.0440039372
11
48.0523693049
21
-16.9881616622
0
LINE
5
687
100
AcDbEntity
8
0
100
AcDbLine
62
9
6
CONTINUOUS
10
48.3663918743
20
-16.7445017699
11
48.3523990116
21
-16.6885089963
0
LINE
5
688
100
AcDbEntity
8
0
100
AcDbLine
62
0
6
CONTINUOUS
10
48.3479460774
20
-8.2934324019
11
48.3452438231
21
-8.2825244933
0
LINE
5
689
100
AcDbEntity
8
0
100
AcDbLine
62
0
6
CONTINUOUS
10
48.3592436912
20
-8.2685246747
11
48.3619463648
21
-8.2794319712
0
LINE
5
68A
100
AcDbEntity
8
DEFAULT_3
100
AcDbLine
62
9
6
PHANTOM
10
30.5075616268
20
-16.7498021023
11
30.5021910761
21
-16.7259174424
0
LINE
5
68B
100
AcDbEntity
8
DEFAULT_3
100
AcDbLine
62
9
6
PHANTOM
10
30.7490224310
20
-16.6989772698
11
30.7480934159
21
-16.6947765034
0
LINE
5
68C
100
AcDbEntity
8
0
100
AcDbLine
62
9
6
CONTINUOUS
10
17.3248174431
20
20.9523644392
11
17.3245161867
21
20.9537365663
0
LINE
5
68D
100
AcDbEntity
8
0
100
AcDbLine
62
0
6
CONTINUOUS
10
30.5154035988
20
-16.1169622466
11
30.5255253682
21
-16.1634608189
0
LINE
5
68E
100
AcDbEntity
8
0
100
AcDbLine
62
0
6
CONTINUOUS
10
30.4358348158
20
-16.8111501441
11
30.4335340011
21
-16.8001595136
0
LINE
5
68F
100
AcDbEntity
8
0
100
AcDbLine
62
0
6
CONTINUOUS
10
30.4475172763
20
-16.7441640311
11
30.4498119347
21
-16.7551567219
0
LINE
5
690
100
AcDbEntity
8
DEFAULT_3
100
AcDbLine
62
9
6
PHANTOM
10
30.5021991936
20
-16.7259985035
11
30.5044439915
21
-16.7371234131
0
LINE
5
691
100
AcDbEntity
8
0
100
AcDbLine
62
9
6
CONTINUOUS
10
17.3334115475
20
-21.1145676429
11
17.3375706046
21
-21.1388456632
0
LINE
5
692
100
AcDbEntity
8
0
100
AcDbLine
62
0
6
CONTINUOUS
10
30.4335340011
20
-16.8001595136
11
30.4316461533
21
-16.7890838328
0
LINE
5
693
100
AcDbEntity
8
0
100
AcDbLine
62
0
6
CONTINUOUS
10
30.4456307182
20
-16.7330714382
11
30.4475172763
21
-16.7441640311
0
LINE
5
694
100
AcDbEntity
8
0
100
AcDbLine
62
0
6
CONTINUOUS
10
30.5075179084
20
-16.0701314233
11
30.5154035988
21
-16.1169622466
0
LINE
5
695
100
AcDbEntity
8
0
100
AcDbLine
62
9
6
CONTINUOUS
10
17.3251182198
20
20.9505638847
11
17.3248174431
21
20.9523644392
0
LINE
5
696
100
AcDbEntity
8
0
100
AcDbLine
62
0
6
CONTINUOUS
10
17.2594873131
20
-21.2073706656
11
17.2557788651
21
-21.1843641815
0
LINE
5
697
100
AcDbEntity
8
0
100
AcDbLine
62
9
6
CONTINUOUS
10
18.1243944655
20
21.7519440889
11
18.1240924901
21
21.7539701852
0
LINE
5
698
100
AcDbEntity
8
0
100
AcDbLine
62
9
6
CONTINUOUS
10
17.3300019213
20
-21.0901733068
11
17.3334115475
21
-21.1145676429
0
LINE
5
699
100
AcDbEntity
8
0
100
AcDbLine
62
9
6
CONTINUOUS
10
17.3254183276
20
20.9483362719
11
17.3251182198
21
20.9505638847
0
LINE
5
69A
100
AcDbEntity
8
0
100
AcDbLine
62
0
6
CONTINUOUS
10
17.2557788651
20
-21.1843641815
11
17.2527368362
21
-21.1612328997
0
LINE
5
69B
100
AcDbEntity
8
0
100
AcDbLine
62
9
6
CONTINUOUS
10
18.1246957495
20
21.7490007626
11
18.1243944655
21
21.7519440889
0
LINE
5
69C
100
AcDbEntity
8
0
100
AcDbLine
62
9
6
CONTINUOUS
10
17.3260148271
20
20.9426114187
11
17.3257171992
21
20.9456857078
0
LINE
5
69D
100
AcDbEntity
8
0
100
AcDbLine
62
0
6
CONTINUOUS
10
30.4301773490
20
-16.7779620436
11
30.4291283623
21
-16.7668178524
0
LINE
5
69E
100
AcDbEntity
8
0
100
AcDbLine
62
0
6
CONTINUOUS
10
30.4431156607
20
-16.7108310767
11
30.4441623878
21
-16.7219523024
0
LINE
5
69F
100
AcDbEntity
8
0
100
AcDbLine
62
9
6
CONTINUOUS
10
17.3263112188
20
20.9391141783
11
17.3260148271
21
20.9426114187
0
LINE
5
6A0
100
AcDbEntity
8
0
100
AcDbLine
62
9
6
CONTINUOUS
10
18.1249965215
20
21.7451420246
11
18.1246957495
21
21.7490007626
0
LINE
5
6A1
100
AcDbEntity
8
0
100
AcDbLine
62
9
6
CONTINUOUS
10
17.3254431801
20
-21.0411282979
11
17.3273449591
21
-21.0656857855
0
LINE
5
6A2
100
AcDbEntity
8
0
100
AcDbLine
62
9
6
CONTINUOUS
10
17.3266058289
20
20.9352004154
11
17.3263112188
21
20.9391141783
0
LINE
5
6A3
100
AcDbEntity
8
0
100
AcDbLine
62
0
6
CONTINUOUS
10
17.2503707754
20
-21.1380686866
11
17.2486838656
21
-21.1149021642
0
LINE
5
6A4
100
AcDbEntity
8
0
100
AcDbLine
62
0
6
CONTINUOUS
10
30.4984951908
20
-15.9756639299
11
30.5018885101
21
-16.0230638021
0
LINE
5
6A5
100
AcDbEntity
8
0
100
AcDbLine
62
9
6
CONTINUOUS
10
17.3268986539
20
20.9308693661
11
17.3266058289
21
20.9352004154
0
LINE
5
6A6
100
AcDbEntity
8
0
100
AcDbLine
62
9
6
CONTINUOUS
10
18.1252966021
20
21.7403702441
11
18.1249965215
21
21.7451420246
0
LINE
5
6A7
100
AcDbEntity
8
0
100
AcDbLine
62
9
6
CONTINUOUS
10
17.3271896974
20
20.9261217942
11
17.3268986539
21
20.9308693661
0
LINE
5
6A8
100
AcDbEntity
8
0
100
AcDbLine
62
9
6
CONTINUOUS
10
17.3274784250
20
20.9209664204
11
17.3271896974
21
20.9261217942
0
LINE
5
6A9
100
AcDbEntity
8
0
100
AcDbLine
62
9
6
CONTINUOUS
10
18.1255954523
20
21.7346883259
11
18.1252966021
21
21.7403702441
0
LINE
5
6AA
100
AcDbEntity
8
0
100
AcDbLine
62
9
6
CONTINUOUS
10
17.3280489243
20
20.9094307696
11
17.3274784250
21
20.9209664204
0
LINE
5
6AB
100
AcDbEntity
8
0
100
AcDbLine
62
9
6
CONTINUOUS
10
17.3242983876
20
-21.0165241292
11
17.3254431801
21
-21.0411282979
0
LINE
5
6AC
100
AcDbEntity
8
0
100
AcDbLine
62
9
6
CONTINUOUS
10
18.1258930769
20
21.7280997311
11
18.1255954523
21
21.7346883259
0
LINE
5
6AD
100
AcDbEntity
8
0
100
AcDbLine
62
0
6
CONTINUOUS
10
17.2486838656
20
-21.1149021642
11
17.2476729240
21
-21.0917027105
0
LINE
5
6AE
100
AcDbEntity
8
0
100
AcDbLine
62
9
6
CONTINUOUS
10
17.3286085900
20
20.8962960776
11
17.3280489243
21
20.9094307696
0
LINE
5
6AF
100
AcDbEntity
8
0
100
AcDbLine
62
9
6
CONTINUOUS
10
18.1261894710
20
21.7206085060
11
18.1258930769
21
21.7280997311
0
LINE
5
6B0
100
AcDbEntity
8
0
100
AcDbLine
62
9
6
CONTINUOUS
10
17.3291563940
20
20.8815864753
11
17.3286085900
21
20.8962960776
0
LINE
5
6B1
100
AcDbEntity
8
0
100
AcDbLine
62
9
6
CONTINUOUS
10
18.1267768993
20
21.7029371574
11
18.1261894710
21
21.7206085060
0
LINE
5
6B2
100
AcDbEntity
8
0
100
AcDbLine
62
9
6
CONTINUOUS
10
17.3299525141
20
20.8566577044
11
17.3291563940
21
20.8815864753
0
LINE
5
6B3
100
AcDbEntity
8
0
100
AcDbLine
62
9
6
CONTINUOUS
10
17.3309595787
20
20.8182900167
11
17.3299525141
21
20.8566577044
0
LINE
5
6B4
100
AcDbEntity
8
0
100
AcDbLine
62
9
6
CONTINUOUS
10
-24.6578690039
20
14.6634750832
11
-24.7111789241
21
13.5349142136
0
LINE
5
6B5
100
AcDbEntity
8
0
100
AcDbLine
62
9
6
CONTINUOUS
10
-23.6445362491
20
21.7244880713
11
-23.6442323453
21
21.7308689370
0
LINE
5
6B6
100
AcDbEntity
8
0
100
AcDbLine
62
9
6
CONTINUOUS
10
-24.6002971135
20
15.7918427170
11
-24.6578690039
21
14.6634750832
0
LINE
5
6B7
100
AcDbEntity
8
0
100
AcDbLine
62
9
6
CONTINUOUS
10
-24.5384657195
20
16.9199687762
11
-24.6002971135
21
15.7918427170
0
LINE
5
6B8
100
AcDbEntity
8
0
100
AcDbLine
62
9
6
CONTINUOUS
10
-23.6442323453
20
21.7308689370
11
-23.6439123752
21
21.7365143187
0
LINE
5
6B9
100
AcDbEntity
8
0
100
AcDbLine
62
9
6
CONTINUOUS
10
-24.4723756443
20
18.0478371480
11
-24.5384657195
21
16.9199687762
0
LINE
5
6BA
100
AcDbEntity
8
0
100
AcDbLine
62
9
6
CONTINUOUS
10
-24.4020260656
20
19.1754639453
11
-24.4723756443
21
18.0478371480
0
LINE
5
6BB
100
AcDbEntity
8
0
100
AcDbLine
62
9
6
CONTINUOUS
10
-24.3274169834
20
20.3028491680
11
-24.4020260656
21
19.1754639453
0
LINE
5
6BC
100
AcDbEntity
8
0
100
AcDbLine
62
9
6
CONTINUOUS
10
-23.6439123752
20
21.7365143187
11
-23.6435766420
21
21.7414188634
0
LINE
5
6BD
100
AcDbEntity
8
0
100
AcDbLine
62
9
6
CONTINUOUS
10
-24.3260244906
20
20.3201344520
11
-24.3274169834
21
20.3028491680
0
LINE
5
6BE
100
AcDbEntity
8
0
100
AcDbLine
62
9
6
CONTINUOUS
10
-23.6435766420
20
21.7414188634
11
-23.6432254642
21
21.7455779208
0
LINE
5
6BF
100
AcDbEntity
8
0
100
AcDbLine
62
9
6
CONTINUOUS
10
-24.3242074282
20
20.3373602502
11
-24.3260244906
21
20.3201344520
0
LINE
5
6C0
100
AcDbEntity
8
0
100
AcDbLine
62
9
6
CONTINUOUS
10
-23.6432254642
20
21.7455779208
11
-23.6428591747
21
21.7489875471
0
LINE
5
6C1
100
AcDbEntity
8
0
100
AcDbLine
62
9
6
CONTINUOUS
10
17.3628782442
20
20.3159601676
11
17.3695254326
21
20.3175601484
0
LINE
5
6C2
100
AcDbEntity
8
0
100
AcDbLine
62
9
6
CONTINUOUS
10
17.9287256202
20
21.7308689375
11
17.9527020808
21
21.7365143191
0
LINE
5
6C3
100
AcDbEntity
8
0
100
AcDbLine
62
0
6
CONTINUOUS
10
17.8626820827
20
21.8100769029
11
17.8854342001
21
21.8151223562
0
LINE
5
6C4
100
AcDbEntity
8
0
100
AcDbLine
62
9
6
CONTINUOUS
10
17.3695254326
20
20.3175601484
11
17.3768834236
21
20.3191464824
0
LINE
5
6C5
100
AcDbEntity
8
0
100
AcDbLine
62
9
6
CONTINUOUS
10
17.9527020808
20
21.7365143191
11
17.9768407656
21
21.7414188637
0
LINE
5
6C6
100
AcDbEntity
8
0
100
AcDbLine
62
9
6
CONTINUOUS
10
17.3768834236
20
20.3191464824
11
17.3849453916
21
20.3207176984
0
LINE
5
6C7
100
AcDbEntity
8
0
100
AcDbLine
62
0
6
CONTINUOUS
10
17.8854342001
20
21.8151223562
11
17.9083110009
21
21.8195013156
0
LINE
5
6C8
100
AcDbEntity
8
0
100
AcDbLine
62
9
6
CONTINUOUS
10
-23.7446889182
20
20.9456857078
11
-23.7617400103
21
20.9426114187
0
LINE
5
6C9
100
AcDbEntity
8
0
100
AcDbLine
62
9
6
CONTINUOUS
10
17.3849453916
20
20.3207176984
11
17.3937038578
21
20.3222723386
0
LINE
5
6CA
100
AcDbEntity
8
0
100
AcDbLine
62
9
6
CONTINUOUS
10
17.9768407656
20
21.7414188637
11
18.0011187864
21
21.7455779210
0
LINE
5
6CB
100
AcDbEntity
8
0
100
AcDbLine
62
9
6
CONTINUOUS
10
17.3937038578
20
20.3222723386
11
17.4031506976
21
20.3238089609
0
LINE
5
6CC
100
AcDbEntity
8
0
100
AcDbLine
62
0
6
CONTINUOUS
10
17.9083110009
20
21.8195013156
11
17.9313182526
21
21.8232100310
0
LINE
5
6CD
100
AcDbEntity
8
0
100
AcDbLine
62
9
6
CONTINUOUS
10
-23.7275665780
20
20.9483362719
11
-23.7446889182
21
20.9456857078
0
LINE
5
6CE
100
AcDbEntity
8
0
100
AcDbLine
62
9
6
CONTINUOUS
10
17.4031506976
20
20.3238089609
11
17.4132771475
21
20.3253261399
0
LINE
5
6CF
100
AcDbEntity
8
0
100
AcDbLine
62
9
6
CONTINUOUS
10
18.0011187864
20
21.7455779210
11
18.0255131229
21
21.7489875473
0
LINE
5
6D0
100
AcDbEntity
8
0
100
AcDbLine
62
9
6
CONTINUOUS
10
-23.7103734122
20
20.9505638847
11
-23.7275665780
21
20.9483362719
0
LINE
5
6D1
100
AcDbEntity
8
0
100
AcDbLine
62
0
6
CONTINUOUS
10
61.5067669349
20
21.2833181896
11
61.5137435090
21
21.2611846820
0
LINE
5
6D2
100
AcDbEntity
8
0
100
AcDbLine
62
9
6
CONTINUOUS
10
61.4401745047
20
21.1740553482
11
61.4330642056
21
21.1976393327
0
LINE
5
6D3
100
AcDbEntity
8
0
100
AcDbLine
62
0
6
CONTINUOUS
10
61.5137435090
20
21.2611846820
11
61.5200742776
21
21.2388525026
0
LINE
5
6D4
100
AcDbEntity
8
0
100
AcDbLine
62
9
6
CONTINUOUS
10
61.4465553702
20
21.1502638462
11
61.4401745047
21
21.1740553482
0
LINE
5
6D5
100
AcDbEntity
8
0
100
AcDbLine
62
0
6
CONTINUOUS
10
61.5200742776
20
21.2388525026
11
61.5257650577
21
21.2163002829
0
LINE
5
6D6
100
AcDbEntity
8
0
100
AcDbLine
62
9
6
CONTINUOUS
10
61.4522007516
20
21.1262873859
11
61.4465553702
21
21.1502638462
0
LINE
5
6D7
100
AcDbEntity
8
DEFAULT_3
100
AcDbLine
62
9
6
PHANTOM
10
48.2871142742
20
-8.4018357530
11
48.2927795657
21
-8.4273682810
0
LINE
5
6D8
100
AcDbEntity
8
DEFAULT_3
100
AcDbLine
62
9
6
PHANTOM
10
48.2927815744
20
-8.3929107995
11
48.2871182240
21
-8.3673653403
0
LINE
5
6D9
100
AcDbEntity
8
0
100
AcDbLine
62
0
6
CONTINUOUS
10
61.5257650577
20
21.2163002829
11
61.5308100324
21
21.1935493915
0
LINE
5
6DA
100
AcDbEntity
8
DEFAULT_3
100
AcDbLine
62
9
6
PHANTOM
10
48.0456534700
20
-8.4736060441
11
48.0465824852
21
-8.4778116450
0
LINE
5
6DB
100
AcDbEntity
8
0
100
AcDbLine
62
9
6
CONTINUOUS
10
61.4698585112
20
-20.9890616852
11
61.4701597557
21
-20.9904337242
0
LINE
5
6DC
100
AcDbEntity
8
0
100
AcDbLine
62
0
6
CONTINUOUS
10
48.2792723022
20
-8.9448715650
11
48.2691505328
21
-8.8983729928
0
LINE
5
6DD
100
AcDbEntity
8
0
100
AcDbLine
62
0
6
CONTINUOUS
10
48.2691505328
20
-8.8858045685
11
48.2792723022
21
-8.9323031408
0
LINE
5
6DE
100
AcDbEntity
8
0
100
AcDbLine
62
0
6
CONTINUOUS
10
48.3619463648
20
-8.2794319712
11
48.3642410674
21
-8.2904449872
0
LINE
5
6DF
100
AcDbEntity
8
0
100
AcDbLine
62
0
6
CONTINUOUS
10
48.3624148777
20
-9.6065490295
11
48.3550035527
21
-9.5709384941
0
LINE
5
6E0
100
AcDbEntity
8
0
100
AcDbLine
62
0
6
CONTINUOUS
10
48.3502367570
20
-8.3044482014
11
48.3479460774
21
-8.2934324019
0
LINE
5
6E1
100
AcDbEntity
8
0
100
AcDbLine
62
0
6
CONTINUOUS
10
48.3642410674
20
-8.2904449872
11
48.3661224602
21
-8.3015434423
0
LINE
5
6E2
100
AcDbEntity
8
0
100
AcDbLine
62
0
6
CONTINUOUS
10
48.3521187449
20
-8.3155647186
11
48.3502367570
21
-8.3044482014
0
LINE
5
6E3
100
AcDbEntity
8
0
100
AcDbLine
62
0
6
CONTINUOUS
10
48.2871579926
20
-8.9917023884
11
48.2792723022
21
-8.9448715650
0
LINE
5
6E4
100
AcDbEntity
8
0
100
AcDbLine
62
0
6
CONTINUOUS
10
48.2792723022
20
-8.9323031408
11
48.2871579926
21
-8.9791339642
0
LINE
5
6E5
100
AcDbEntity
8
DEFAULT_3
100
AcDbLine
62
9
6
PHANTOM
10
30.5021910761
20
-16.7259174424
11
30.4984797379
21
-16.6983501537
0
LINE
5
6E6
100
AcDbEntity
8
0
100
AcDbLine
62
0
6
CONTINUOUS
10
30.4316461533
20
-16.7890838328
11
30.4301773490
21
-16.7779620436
0
LINE
5
6E7
100
AcDbEntity
8
0
100
AcDbLine
62
0
6
CONTINUOUS
10
30.4441623878
20
-16.7219523024
11
30.4456307182
21
-16.7330714382
0
LINE
5
6E8
100
AcDbEntity
8
DEFAULT_3
100
AcDbLine
62
9
6
PHANTOM
10
30.7480934159
20
-16.6947765034
11
30.7475319224
21
-16.6904893754
0
LINE
5
6E9
100
AcDbEntity
8
0
100
AcDbLine
62
0
6
CONTINUOUS
10
30.5018885101
20
-16.0230638021
11
30.5075179084
21
-16.0701314233
0
LINE
5
6EA
100
AcDbEntity
8
0
100
AcDbLine
62
9
6
CONTINUOUS
10
17.3257171992
20
20.9456857078
11
17.3254183276
21
20.9483362719
0
LINE
5
6EB
100
AcDbEntity
8
0
100
AcDbLine
62
9
6
CONTINUOUS
10
60.6699801578
20
-21.7856977289
11
60.6702814406
21
-21.7886410538
0
LINE
5
6EC
100
AcDbEntity
8
0
100
AcDbLine
62
9
6
CONTINUOUS
10
61.4686611279
20
-20.9793089740
11
61.4689587557
21
-20.9823831822
0
LINE
5
6ED
100
AcDbEntity
8
0
100
AcDbLine
62
0
6
CONTINUOUS
10
48.3546223456
20
-8.3378545896
11
48.3535817511
21
-8.3267083586
0
LINE
5
6EE
100
AcDbEntity
8
0
100
AcDbLine
62
0
6
CONTINUOUS
10
48.3675844854
20
-8.3126883520
11
48.3686263490
21
-8.3238559786
0
LINE
5
6EF
100
AcDbEntity
8
0
100
AcDbLine
62
0
6
CONTINUOUS
10
48.2961807102
20
-9.0861698817
11
48.2927873909
21
-9.0387700095
0
LINE
5
6F0
100
AcDbEntity
8
0
100
AcDbLine
62
0
6
CONTINUOUS
10
48.2927873909
20
-9.0262015853
11
48.2961807102
21
-9.0736014575
0
LINE
5
6F1
100
AcDbEntity
8
0
100
AcDbLine
62
0
6
CONTINUOUS
10
30.4291283623
20
-16.7668178524
11
30.4284975911
21
-16.7556592126
0
LINE
5
6F2
100
AcDbEntity
8
0
100
AcDbLine
62
0
6
CONTINUOUS
10
30.4424871612
20
-16.6996833080
11
30.4431156607
21
-16.7108310767
0
LINE
5
6F3
100
AcDbEntity
8
0
100
AcDbLine
62
0
6
CONTINUOUS
10
48.3686263490
20
-8.3238559786
11
48.3692496036
21
-8.3350383477
0
LINE
5
6F4
100
AcDbEntity
8
0
100
AcDbLine
62
0
6
CONTINUOUS
10
48.3552439583
20
-8.3490279433
11
48.3546223456
21
-8.3378545896
0
LINE
5
6F5
100
AcDbEntity
8
DEFAULT_3
100
AcDbLine
62
9
6
PHANTOM
10
30.7475319224
20
-16.6904893754
11
30.7473379505
21
-16.6861158856
0
LINE
5
6F6
100
AcDbEntity
8
DEFAULT_3
100
AcDbLine
62
9
6
PHANTOM
10
30.4984797379
20
-16.6983501537
11
30.4973379505
21
-16.6722266645
0
LINE
5
6F7
100
AcDbEntity
8
0
100
AcDbLine
62
9
6
CONTINUOUS
10
18.1273566529
20
21.6817176355
11
18.1267768993
21
21.7029371574
0
LINE
5
6F8
100
AcDbEntity
8
0
100
AcDbLine
62
0
6
CONTINUOUS
10
30.4973379505
20
-15.9279318067
11
30.4984951908
21
-15.9756639299
0
LINE
5
6F9
100
AcDbEntity
8
0
100
AcDbLine
62
9
6
CONTINUOUS
10
18.1282083908
20
21.6433516051
11
18.1273566529
21
21.6817176355
0
LINE
5
6FA
100
AcDbEntity
8
0
100
AcDbLine
62
9
6
CONTINUOUS
10
17.3321173819
20
20.7626184993
11
17.3309595787
21
20.8182900167
0
LINE
5
6FB
100
AcDbEntity
8
0
100
AcDbLine
62
0
6
CONTINUOUS
10
30.4284975911
20
-16.7556592126
11
30.4282840267
21
-16.7445017699
0
LINE
5
6FC
100
AcDbEntity
8
0
100
AcDbLine
62
0
6
CONTINUOUS
10
30.4422768894
20
-16.6885089963
11
30.4424871612
21
-16.6996833080
0
LINE
5
6FD
100
AcDbEntity
8
0
100
AcDbLine
62
9
6
CONTINUOUS
10
18.1295689933
20
21.5625254578
11
18.1282083908
21
21.6433516051
0
LINE
5
6FE
100
AcDbEntity
8
0
100
AcDbLine
62
9
6
CONTINUOUS
10
17.3239116671
20
-20.9918966089
11
17.3242983876
21
-21.0165241292
0
LINE
5
6FF
100
AcDbEntity
8
0
100
AcDbLine
62
9
6
CONTINUOUS
10
17.3333351890
20
20.6856511814
11
17.3321173819
21
20.7626184993
0
LINE
5
700
100
AcDbEntity
8
0
100
AcDbLine
62
0
6
CONTINUOUS
10
17.2476729240
20
-21.0917027105
11
17.2473379505
21
-21.0684703255
0
LINE
5
701
100
AcDbEntity
8
0
100
AcDbLine
62
9
6
CONTINUOUS
10
18.1315468849
20
21.3922267761
11
18.1295689933
21
21.5625254578
0
LINE
5
702
100
AcDbEntity
8
0
100
AcDbLine
62
9
6
CONTINUOUS
10
17.3346248278
20
20.5686063351
11
17.3333351890
21
20.6856511814
0
LINE
5
703
100
AcDbEntity
8
0
100
AcDbLine
62
9
6
CONTINUOUS
10
18.1340670355
20
21.0243615692
11
18.1315468849
21
21.3922267761
0
LINE
5
704
100
AcDbEntity
8
0
100
AcDbLine
62
9
6
CONTINUOUS
10
17.3355631391
20
20.4225420818
11
17.3346248278
21
20.5686063351
0
LINE
5
705
100
AcDbEntity
8
0
100
AcDbLine
62
9
6
CONTINUOUS
10
17.3358887554
20
20.3028491680
11
17.3355631391
21
20.4225420818
0
LINE
5
706
100
AcDbEntity
8
0
100
AcDbLine
62
9
6
CONTINUOUS
10
18.1357425937
20
20.3941969186
11
18.1340670355
21
21.0243615692
0
LINE
5
707
100
AcDbEntity
8
0
100
AcDbLine
62
9
6
CONTINUOUS
10
17.3371910618
20
19.1754639453
11
17.3358887554
21
20.3028491680
0
LINE
5
708
100
AcDbEntity
8
0
100
AcDbLine
62
9
6
CONTINUOUS
10
17.3406518958
20
15.7918427170
11
17.3371910618
21
19.1754639453
0
LINE
5
709
100
AcDbEntity
8
0
100
AcDbLine
62
9
6
CONTINUOUS
10
18.1370692182
20
19.2268108877
11
18.1357425937
21
20.3941969186
0
LINE
5
70A
100
AcDbEntity
8
0
100
AcDbLine
62
9
6
CONTINUOUS
10
18.1405300525
20
15.8341099410
11
18.1370692182
21
19.2268108877
0
LINE
5
70B
100
AcDbEntity
8
0
100
AcDbLine
62
9
6
CONTINUOUS
10
17.3425873450
20
13.5349142136
11
17.3406518958
21
15.7918427170
0
LINE
5
70C
100
AcDbEntity
8
0
100
AcDbLine
62
9
6
CONTINUOUS
10
18.1424655015
20
13.5711523638
11
18.1405300525
21
15.8341099410
0
LINE
5
70D
100
AcDbEntity
8
0
100
AcDbLine
62
9
6
CONTINUOUS
10
17.3449325285
20
10.1481205286
11
17.3425873450
21
13.5349142136
0
LINE
5
70E
100
AcDbEntity
8
0
100
AcDbLine
62
9
6
CONTINUOUS
10
18.1448106849
20
10.1753031836
11
18.1424655015
21
13.5711523638
0
LINE
5
70F
100
AcDbEntity
8
0
100
AcDbLine
62
9
6
CONTINUOUS
10
17.3466078744
20
6.7600223546
11
17.3449325285
21
10.1481205286
0
LINE
5
710
100
AcDbEntity
8
0
100
AcDbLine
62
9
6
CONTINUOUS
10
18.1464860307
20
6.7781460265
11
18.1448106849
21
10.1753031836
0
LINE
5
711
100
AcDbEntity
8
0
100
AcDbLine
62
9
6
CONTINUOUS
10
17.3473525299
20
4.5007748407
11
17.3466078744
21
6.7600223546
0
LINE
5
712
100
AcDbEntity
8
0
100
AcDbLine
62
9
6
CONTINUOUS
10
18.1472306861
20
4.5128631980
11
18.1464860307
21
6.7781460265
0
LINE
5
713
100
AcDbEntity
8
0
100
AcDbLine
62
0
6
CONTINUOUS
10
30.4282840267
20
-16.7445017699
11
30.4266690130
21
-13.0131662614
0
LINE
5
714
100
AcDbEntity
8
0
100
AcDbLine
62
0
6
CONTINUOUS
10
30.4344181218
20
-15.5013690044
11
30.4322610233
21
-9.6065490295
0
LINE
5
715
100
AcDbEntity
8
0
100
AcDbLine
62
0
6
CONTINUOUS
10
30.4392293117
20
-8.3602284197
11
30.4396723483
21
-9.5709384941
0
LINE
5
716
100
AcDbEntity
8
0
100
AcDbLine
62
0
6
CONTINUOUS
10
30.4418424778
20
-15.5013690044
11
30.4422768894
21
-16.6885089963
0
LINE
5
717
100
AcDbEntity
8
0
100
AcDbLine
62
9
6
CONTINUOUS
10
17.3479110439
20
1.1114686721
11
17.3473525299
21
4.5007748407
0
LINE
5
718
100
AcDbEntity
8
0
100
AcDbLine
62
9
6
CONTINUOUS
10
18.1477892000
20
1.1144948164
11
18.1472306861
21
4.5128631980
0
LINE
5
719
100
AcDbEntity
8
0
100
AcDbLine
62
0
6
CONTINUOUS
10
30.4266690130
20
-13.0131662614
11
30.4252206758
21
-8.3462197838
0
LINE
5
71A
100
AcDbEntity
8
0
100
AcDbLine
62
0
6
CONTINUOUS
10
17.2473379505
20
21.0317733623
11
17.2473379505
21
-21.0684703255
0
LINE
5
71B
100
AcDbEntity
8
DEFAULT_3
100
AcDbLine
62
9
6
PHANTOM
10
30.4457096362
20
-9.6334630198
11
30.4457096362
21
-15.4283707918
0
LINE
5
71C
100
AcDbEntity
8
DEFAULT_3
100
AcDbLine
62
9
6
PHANTOM
10
30.4973379505
20
-8.4449902711
11
30.4973379505
21
-9.1339020050
0
LINE
5
71D
100
AcDbEntity
8
0
100
AcDbLine
62
0
6
CONTINUOUS
10
30.4973379505
20
-9.1339020050
11
30.4973379505
21
-15.9279318067
0
LINE
5
71E
100
AcDbEntity
8
DEFAULT_3
100
AcDbLine
62
9
6
PHANTOM
10
30.4973379505
20
-15.9279318067
11
30.4973379505
21
-16.6722266645
0
LINE
5
71F
100
AcDbEntity
8
0
100
AcDbLine
62
9
6
CONTINUOUS
10
30.7473379505
20
-16.6861158856
11
30.7473379505
21
-8.4864822144
0
LINE
5
720
100
AcDbEntity
8
DEFAULT_3
100
AcDbLine
62
9
6
PHANTOM
10
30.7973379516
20
-16.9721539366
11
30.7973379505
21
-16.7360847985
0
LINE
5
721
100
AcDbEntity
8
DEFAULT_3
100
AcDbLine
62
9
6
PHANTOM
10
30.7973379505
20
-8.4364555947
11
30.7973379514
21
-8.1450341696
0
LINE
5
722
100
AcDbEntity
8
0
100
AcDbLine
62
9
6
CONTINUOUS
10
31.4973379505
20
-8.1347799754
11
31.4973379505
21
-8.1222115511
0
LINE
5
723
100
AcDbEntity
8
0
100
AcDbLine
62
9
6
CONTINUOUS
10
17.3476131680
20
-3.4077511910
11
17.3479110439
21
1.1114686721
0
LINE
5
724
100
AcDbEntity
8
0
100
AcDbLine
62
9
6
CONTINUOUS
10
18.1474913241
20
-3.4168137692
11
18.1477892000
21
1.1144948164
0
LINE
5
725
100
AcDbEntity
8
0
100
AcDbLine
62
9
6
CONTINUOUS
10
17.3466078745
20
-6.7967191036
11
17.3476131680
21
-3.4077511910
0
LINE
5
726
100
AcDbEntity
8
0
100
AcDbLine
62
9
6
CONTINUOUS
10
18.1464860307
20
-6.8148429899
11
18.1474913241
21
-3.4168137692
0
LINE
5
727
100
AcDbEntity
8
0
100
AcDbLine
62
9
6
CONTINUOUS
10
17.3461238682
20
-7.9261979012
11
17.3466078745
21
-6.7967191036
0
LINE
5
728
100
AcDbEntity
8
0
100
AcDbLine
62
9
6
CONTINUOUS
10
17.3455654116
20
-9.0555800612
11
17.3461238682
21
-7.9261979012
0
LINE
5
729
100
AcDbEntity
8
0
100
AcDbLine
62
9
6
CONTINUOUS
10
18.1460020244
20
-7.9473471349
11
18.1464860307
21
-6.8148429899
0
LINE
5
72A
100
AcDbEntity
8
0
100
AcDbLine
62
9
6
CONTINUOUS
10
18.1454435678
20
-9.0797382343
11
18.1460020244
21
-7.9473471349
0
LINE
5
72B
100
AcDbEntity
8
0
100
AcDbLine
62
9
6
CONTINUOUS
10
17.3442252161
20
-11.3139095472
11
17.3455654116
21
-9.0555800612
0
LINE
5
72C
100
AcDbEntity
8
0
100
AcDbLine
62
9
6
CONTINUOUS
10
17.3425873452
20
-13.5716109633
11
17.3442252161
21
-11.3139095472
0
LINE
5
72D
100
AcDbEntity
8
0
100
AcDbLine
62
9
6
CONTINUOUS
10
18.1441033723
20
-11.3441167292
11
18.1454435678
21
-9.0797382343
0
LINE
5
72E
100
AcDbEntity
8
0
100
AcDbLine
62
9
6
CONTINUOUS
10
18.1424655015
20
-13.6078493272
11
18.1441033723
21
-11.3441167292
0
LINE
5
72F
100
AcDbEntity
8
0
100
AcDbLine
62
9
6
CONTINUOUS
10
17.3416568171
20
-14.7001718250
11
17.3425873452
21
-13.5716109633
0
LINE
5
730
100
AcDbEntity
8
0
100
AcDbLine
62
9
6
CONTINUOUS
10
18.1415349735
20
-14.7394330607
11
18.1424655015
21
-13.6078493272
0
LINE
5
731
100
AcDbEntity
8
0
100
AcDbLine
62
9
6
CONTINUOUS
10
17.3395726250
20
-16.9566655261
11
17.3416568171
21
-14.7001718250
0
LINE
5
732
100
AcDbEntity
8
0
100
AcDbLine
62
9
6
CONTINUOUS
10
17.3384190184
20
-18.0845339453
11
17.3395726250
21
-16.9566655261
0
LINE
5
733
100
AcDbEntity
8
0
100
AcDbLine
62
9
6
CONTINUOUS
10
18.1394507815
20
-17.0019547352
11
18.1415349735
21
-14.7394330607
0
LINE
5
734
100
AcDbEntity
8
0
100
AcDbLine
62
9
6
CONTINUOUS
10
18.1382971749
20
-18.1328604271
11
18.1394507815
21
-17.0019547352
0
LINE
5
735
100
AcDbEntity
8
0
100
AcDbLine
62
9
6
CONTINUOUS
10
17.3354040985
20
-20.4926820249
11
17.3384190184
21
-18.0845339453
0
LINE
5
736
100
AcDbEntity
8
0
100
AcDbLine
62
9
6
CONTINUOUS
10
18.1337441095
20
-21.1238539616
11
18.1382971749
21
-18.1328604271
0
LINE
5
737
100
AcDbEntity
8
0
100
AcDbLine
62
9
6
CONTINUOUS
10
17.3343407249
20
-20.6359066450
11
17.3354040985
21
-20.4926820249
0
LINE
5
738
100
AcDbEntity
8
0
100
AcDbLine
62
9
6
CONTINUOUS
10
18.1313152428
20
-21.4527962857
11
18.1337441095
21
-21.1238539616
0
LINE
5
739
100
AcDbEntity
8
0
100
AcDbLine
62
9
6
CONTINUOUS
10
17.3331462854
20
-20.7358825087
11
17.3343407249
21
-20.6359066450
0
LINE
5
73A
100
AcDbEntity
8
0
100
AcDbLine
62
9
6
CONTINUOUS
10
18.1295689874
20
-21.5992224339
11
18.1313152428
21
-21.4527962857
0
LINE
5
73B
100
AcDbEntity
8
0
100
AcDbLine
62
0
6
CONTINUOUS
10
17.2473379505
20
21.0317733623
11
17.2476729240
21
21.0550057473
0
LINE
5
73C
100
AcDbEntity
8
0
100
AcDbLine
62
9
6
CONTINUOUS
10
17.3239116671
20
20.9551996457
11
17.3242983877
21
20.9798271666
0
LINE
5
73D
100
AcDbEntity
8
0
100
AcDbLine
62
9
6
CONTINUOUS
10
17.3318955934
20
-20.8110992755
11
17.3331462854
21
-20.7358825087
0
LINE
5
73E
100
AcDbEntity
8
0
100
AcDbLine
62
9
6
CONTINUOUS
10
18.1282083851
20
-21.6800485784
11
18.1295689874
21
-21.5992224339
0
LINE
5
73F
100
AcDbEntity
8
0
100
AcDbLine
62
9
6
CONTINUOUS
10
17.3309595287
20
-20.8549890984
11
17.3318955934
21
-20.8110992755
0
LINE
5
740
100
AcDbEntity
8
0
100
AcDbLine
62
9
6
CONTINUOUS
10
18.1273566475
20
-21.7184146084
11
18.1282083851
21
-21.6800485784
0
LINE
5
741
100
AcDbEntity
8
0
100
AcDbLine
62
9
6
CONTINUOUS
10
17.3299524621
20
-20.8933564426
11
17.3309595287
21
-20.8549890984
0
LINE
5
742
100
AcDbEntity
8
0
100
AcDbLine
62
9
6
CONTINUOUS
10
18.1267768936
20
-21.7396341282
11
18.1273566475
21
-21.7184146084
0
LINE
5
743
100
AcDbEntity
8
0
100
AcDbLine
62
9
6
CONTINUOUS
10
17.3291563410
20
-20.9182849546
11
17.3299524621
21
-20.8933564426
0
LINE
5
744
100
AcDbEntity
8
0
100
AcDbLine
62
9
6
CONTINUOUS
10
18.1261894659
20
-21.7573054754
11
18.1267768936
21
-21.7396341282
0
LINE
5
745
100
AcDbEntity
8
0
100
AcDbLine
62
9
6
CONTINUOUS
10
17.3286085364
20
-20.9329943858
11
17.3291563410
21
-20.9182849546
0
LINE
5
746
100
AcDbEntity
8
0
100
AcDbLine
62
9
6
CONTINUOUS
10
18.1258930725
20
-21.7647966999
11
18.1261894659
21
-21.7573054754
0
LINE
5
747
100
AcDbEntity
8
0
100
AcDbLine
62
9
6
CONTINUOUS
10
17.3280488703
20
-20.9461289078
11
17.3286085364
21
-20.9329943858
0
LINE
5
748
100
AcDbEntity
8
0
100
AcDbLine
62
0
6
CONTINUOUS
10
17.2476729240
20
21.0550057473
11
17.2486838656
21
21.0782052010
0
LINE
5
749
100
AcDbEntity
8
0
100
AcDbLine
62
9
6
CONTINUOUS
10
18.1255954483
20
-21.7713852941
11
18.1258930725
21
-21.7647966999
0
LINE
5
74A
100
AcDbEntity
8
0
100
AcDbLine
62
9
6
CONTINUOUS
10
17.3242983877
20
20.9798271666
11
17.3254431802
21
21.0044313360
0
LINE
5
74B
100
AcDbEntity
8
0
100
AcDbLine
62
9
6
CONTINUOUS
10
17.3274783708
20
-20.9576643900
11
17.3280488703
21
-20.9461289078
0
LINE
5
74C
100
AcDbEntity
8
0
100
AcDbLine
62
9
6
CONTINUOUS
10
-24.3219657964
20
20.3545265628
11
-24.3242074282
21
20.3373602502
0
LINE
5
74D
100
AcDbEntity
8
0
100
AcDbLine
62
9
6
CONTINUOUS
10
-23.6428591747
20
21.7489875471
11
-23.6424781208
21
21.7516445095
0
LINE
5
74E
100
AcDbEntity
8
0
100
AcDbLine
62
9
6
CONTINUOUS
10
-24.3192976738
20
20.3716442501
11
-24.3219657964
21
20.3545265628
0
LINE
5
74F
100
AcDbEntity
8
0
100
AcDbLine
62
9
6
CONTINUOUS
10
-24.3162049816
20
20.3887024518
11
-24.3192976738
21
20.3716442501
0
LINE
5
750
100
AcDbEntity
8
0
100
AcDbLine
62
9
6
CONTINUOUS
10
-24.3126934840
20
20.4056685862
11
-24.3162049816
21
20.3887024518
0
LINE
5
751
100
AcDbEntity
8
0
100
AcDbLine
62
9
6
CONTINUOUS
10
-23.6424781208
20
21.7516445095
11
-23.6420826640
21
21.7535462887
0
LINE
5
752
100
AcDbEntity
8
0
100
AcDbLine
62
0
6
CONTINUOUS
10
17.8177967123
20
21.7980546859
11
17.8401290420
21
21.8043857219
0
LINE
5
753
100
AcDbEntity
8
0
100
AcDbLine
62
9
6
CONTINUOUS
10
17.3569480246
20
20.3143480245
11
17.3628782442
21
20.3159601676
0
LINE
5
754
100
AcDbEntity
8
0
100
AcDbLine
62
9
6
CONTINUOUS
10
17.9049341181
20
21.7244880719
11
17.9287256202
21
21.7308689375
0
LINE
5
755
100
AcDbEntity
8
0
100
AcDbLine
62
9
6
CONTINUOUS
10
-23.7955984806
20
20.9352004154
11
-23.8123744128
21
20.9308693661
0
LINE
5
756
100
AcDbEntity
8
0
100
AcDbLine
62
0
6
CONTINUOUS
10
17.8401290420
20
21.8043857219
11
17.8626820827
21
21.8100769029
0
LINE
5
757
100
AcDbEntity
8
0
100
AcDbLine
62
9
6
CONTINUOUS
10
-23.7787202770
20
20.9391141783
11
-23.7955984806
21
20.9352004154
0
LINE
5
758
100
AcDbEntity
8
0
100
AcDbLine
62
9
6
CONTINUOUS
10
-23.7617400103
20
20.9426114187
11
-23.7787202770
21
20.9391141783
0
LINE
5
759
100
AcDbEntity
8
0
100
AcDbLine
62
9
6
CONTINUOUS
10
61.4571052962
20
21.1021487014
11
61.4522007516
21
21.1262873859
0
LINE
5
75A
100
AcDbEntity
8
0
100
AcDbLine
62
0
6
CONTINUOUS
10
61.5308100324
20
21.1935493915
11
61.5351885879
21
21.1706737024
0
LINE
5
75B
100
AcDbEntity
8
0
100
AcDbLine
62
9
6
CONTINUOUS
10
61.4612643533
20
21.0778706809
11
61.4571052962
21
21.1021487014
0
LINE
5
75C
100
AcDbEntity
8
0
100
AcDbLine
62
9
6
CONTINUOUS
10
61.4695577386
20
-20.9872612102
11
61.4698585112
21
-20.9890616852
0
LINE
5
75D
100
AcDbEntity
8
0
100
AcDbLine
62
0
6
CONTINUOUS
10
61.5351885879
20
21.1706737024
11
61.5388970359
21
21.1476672183
0
LINE
5
75E
100
AcDbEntity
8
0
100
AcDbLine
62
9
6
CONTINUOUS
10
60.6702814406
20
-21.7886410538
11
60.6705834139
21
-21.7906671490
0
LINE
5
75F
100
AcDbEntity
8
0
100
AcDbLine
62
9
6
CONTINUOUS
10
61.4646739795
20
21.0534763446
11
61.4612643533
21
21.0778706809
0
LINE
5
760
100
AcDbEntity
8
0
100
AcDbLine
62
9
6
CONTINUOUS
10
61.4692576290
20
-20.9850336708
11
61.4695577386
21
-20.9872612102
0
LINE
5
761
100
AcDbEntity
8
DEFAULT_3
100
AcDbLine
62
9
6
PHANTOM
10
48.2927795657
20
-8.4273682810
11
48.2961961631
21
-8.4532974809
0
LINE
5
762
100
AcDbEntity
8
DEFAULT_3
100
AcDbLine
62
9
6
PHANTOM
10
48.2961961606
20
-8.4188642282
11
48.2927795550
21
-8.3929374674
0
LINE
5
763
100
AcDbEntity
8
DEFAULT_3
100
AcDbLine
62
9
6
PHANTOM
10
48.2961967360
20
-8.4188516735
11
48.2927815744
21
-8.3929107995
0
LINE
5
764
100
AcDbEntity
8
0
100
AcDbLine
62
0
6
CONTINUOUS
10
61.5388970359
20
21.1476672183
11
61.5419390649
21
21.1245359365
0
LINE
5
765
100
AcDbEntity
8
0
100
AcDbLine
62
0
6
CONTINUOUS
10
48.3535817511
20
-8.3267083586
11
48.3521187449
21
-8.3155647186
0
LINE
5
766
100
AcDbEntity
8
0
100
AcDbLine
62
0
6
CONTINUOUS
10
48.3661224602
20
-8.3015434423
11
48.3675844854
21
-8.3126883520
0
LINE
5
767
100
AcDbEntity
8
DEFAULT_3
100
AcDbLine
62
9
6
PHANTOM
10
48.0465824852
20
-8.4778116450
11
48.0471439786
21
-8.4821037019
0
LINE
5
768
100
AcDbEntity
8
0
100
AcDbLine
62
0
6
CONTINUOUS
10
48.2927873909
20
-9.0387700095
11
48.2871579926
21
-8.9917023884
0
LINE
5
769
100
AcDbEntity
8
0
100
AcDbLine
62
0
6
CONTINUOUS
10
48.2871579926
20
-8.9791339642
11
48.2927873909
21
-9.0262015853
0
LINE
5
76A
100
AcDbEntity
8
0
100
AcDbLine
62
9
6
CONTINUOUS
10
61.4689587557
20
-20.9823831822
11
61.4692576290
21
-20.9850336708
0
LINE
5
76B
100
AcDbEntity
8
0
100
AcDbLine
62
9
6
CONTINUOUS
10
61.4673309418
20
21.0289888231
11
61.4646739795
21
21.0534763446
0
LINE
5
76C
100
AcDbEntity
8
0
100
AcDbLine
62
0
6
CONTINUOUS
10
61.5419390649
20
21.1245359365
11
61.5443051257
21
21.1013717234
0
LINE
5
76D
100
AcDbEntity
8
0
100
AcDbLine
62
9
6
CONTINUOUS
10
61.4683647363
20
-20.9758118165
11
61.4686611279
21
-20.9793089740
0
LINE
5
76E
100
AcDbEntity
8
0
100
AcDbLine
62
9
6
CONTINUOUS
10
60.6696793855
20
-21.7818389919
11
60.6699801578
21
-21.7856977289
0
LINE
5
76F
100
AcDbEntity
8
0
100
AcDbLine
62
9
6
CONTINUOUS
10
61.4692327208
20
21.0044313352
11
61.4673309418
21
21.0289888231
0
LINE
5
770
100
AcDbEntity
8
0
100
AcDbLine
62
9
6
CONTINUOUS
10
61.4680701262
20
-20.9718981367
11
61.4683647363
21
-20.9758118165
0
LINE
5
771
100
AcDbEntity
8
0
100
AcDbLine
62
0
6
CONTINUOUS
10
61.5443051257
20
21.1013717234
11
61.5459920354
21
21.0782052010
0
LINE
5
772
100
AcDbEntity
8
0
100
AcDbLine
62
9
6
CONTINUOUS
10
61.4677773013
20
-20.9675671699
11
61.4680701262
21
-20.9718981367
0
LINE
5
773
100
AcDbEntity
8
0
100
AcDbLine
62
9
6
CONTINUOUS
10
60.6693793036
20
-21.7770672118
11
60.6696793855
21
-21.7818389919
0
LINE
5
774
100
AcDbEntity
8
0
100
AcDbLine
62
9
6
CONTINUOUS
10
61.4674862578
20
-20.9628196806
11
61.4677773013
21
-20.9675671699
0
LINE
5
775
100
AcDbEntity
8
0
100
AcDbLine
62
9
6
CONTINUOUS
10
61.4671975302
20
-20.9576643900
11
61.4674862578
21
-20.9628196806
0
LINE
5
776
100
AcDbEntity
8
0
100
AcDbLine
62
9
6
CONTINUOUS
10
60.6690804527
20
-21.7713852941
11
60.6693793036
21
-21.7770672118
0
LINE
5
777
100
AcDbEntity
8
0
100
AcDbLine
62
9
6
CONTINUOUS
10
61.4669111225
20
-20.9521005496
11
61.4671975302
21
-20.9576643900
0
LINE
5
778
100
AcDbEntity
8
0
100
AcDbLine
62
9
6
CONTINUOUS
10
61.4703775134
20
20.9798271663
11
61.4692327208
21
21.0044313352
0
LINE
5
779
100
AcDbEntity
8
0
100
AcDbLine
62
9
6
CONTINUOUS
10
61.4663457763
20
-20.9397604308
11
61.4669111225
21
-20.9521005496
0
LINE
5
77A
100
AcDbEntity
8
0
100
AcDbLine
62
9
6
CONTINUOUS
10
60.6687828285
20
-21.7647966999
11
60.6690804527
21
-21.7713852941
0
LINE
5
77B
100
AcDbEntity
8
DEFAULT_3
100
AcDbLine
62
9
6
PHANTOM
10
48.0471439786
20
-8.4821037019
11
48.0473379505
21
-8.4864822144
0
LINE
5
77C
100
AcDbEntity
8
DEFAULT_3
100
AcDbLine
62
9
6
PHANTOM
10
48.2961961631
20
-8.4532974809
11
48.2973379505
21
-8.4794260214
0
LINE
5
77D
100
AcDbEntity
8
DEFAULT_3
100
AcDbLine
62
9
6
PHANTOM
10
48.2973379505
20
-8.4449902716
11
48.2961967360
21
-8.4188516735
0
LINE
5
77E
100
AcDbEntity
8
0
100
AcDbLine
62
0
6
CONTINUOUS
10
61.5459920354
20
21.0782052010
11
61.5470029770
21
21.0550057473
0
LINE
5
77F
100
AcDbEntity
8
0
100
AcDbLine
62
9
6
CONTINUOUS
10
61.4657917904
20
-20.9258315055
11
61.4663457763
21
-20.9397604308
0
LINE
5
780
100
AcDbEntity
8
0
100
AcDbLine
62
9
6
CONTINUOUS
10
60.6684864351
20
-21.7573054754
11
60.6687828285
21
-21.7647966999
0
LINE
5
781
100
AcDbEntity
8
0
100
AcDbLine
62
9
6
CONTINUOUS
10
61.4649851436
20
-20.9020394330
11
61.4657917904
21
-20.9258315055
0
LINE
5
782
100
AcDbEntity
8
0
100
AcDbLine
62
9
6
CONTINUOUS
10
60.6678990074
20
-21.7396341282
11
60.6684864351
21
-21.7573054754
0
LINE
5
783
100
AcDbEntity
8
0
100
AcDbLine
62
9
6
CONTINUOUS
10
61.4642115387
20
-20.8748839276
11
61.4649851436
21
-20.9020394330
0
LINE
5
784
100
AcDbEntity
8
0
100
AcDbLine
62
9
6
CONTINUOUS
10
60.6673192535
20
-21.7184146084
11
60.6678990074
21
-21.7396341282
0
LINE
5
785
100
AcDbEntity
8
0
100
AcDbLine
62
0
6
CONTINUOUS
10
48.2973379505
20
-9.1339020050
11
48.2961807102
21
-9.0861698817
0
LINE
5
786
100
AcDbEntity
8
0
100
AcDbLine
62
0
6
CONTINUOUS
10
48.2961807102
20
-9.0736014575
11
48.2973379505
21
-9.1213335808
0
LINE
5
787
100
AcDbEntity
8
0
100
AcDbLine
62
9
6
CONTINUOUS
10
61.4632388493
20
-20.8337084987
11
61.4642115387
21
-20.8748839276
0
LINE
5
788
100
AcDbEntity
8
0
100
AcDbLine
62
9
6
CONTINUOUS
10
60.6664675159
20
-21.6800485784
11
60.6673192535
21
-21.7184146084
0
LINE
5
789
100
AcDbEntity
8
0
100
AcDbLine
62
9
6
CONTINUOUS
10
61.4621305719
20
-20.7748218524
11
61.4632388493
21
-20.8337084987
0
LINE
5
78A
100
AcDbEntity
8
0
100
AcDbLine
62
0
6
CONTINUOUS
10
48.3692496036
20
-8.3350383477
11
48.3694552252
21
-8.3462197838
0
LINE
5
78B
100
AcDbEntity
8
0
100
AcDbLine
62
0
6
CONTINUOUS
10
48.3554465893
20
-8.3602284197
11
48.3552439583
21
-8.3490279433
0
LINE
5
78C
100
AcDbEntity
8
0
100
AcDbLine
62
9
6
CONTINUOUS
10
60.6651069137
20
-21.5992224339
11
60.6664675159
21
-21.6800485784
0
LINE
5
78D
100
AcDbEntity
8
0
100
AcDbLine
62
9
6
CONTINUOUS
10
60.6640835954
20
-21.5200893509
11
60.6651069137
21
-21.5992224339
0
LINE
5
78E
100
AcDbEntity
8
0
100
AcDbLine
62
0
6
CONTINUOUS
10
34.1973379505
20
-8.0601300274
11
34.1973379505
21
-8.1222115511
0
LINE
5
78F
100
AcDbEntity
8
0
100
AcDbLine
62
0
6
CONTINUOUS
10
43.4973379505
20
-8.0601300274
11
43.4973379505
21
-8.1222115511
0
LINE
5
790
100
AcDbEntity
8
0
100
AcDbLine
62
9
6
CONTINUOUS
10
45.7473379505
20
-8.0683484816
11
45.7473379505
21
-8.0601300274
0
LINE
5
791
100
AcDbEntity
8
0
100
AcDbLine
62
9
6
CONTINUOUS
10
46.5473379505
20
-8.0683484816
11
46.5473379505
21
-8.0601300274
0
LINE
5
792
100
AcDbEntity
8
0
100
AcDbLine
62
9
6
CONTINUOUS
10
47.2973379505
20
-8.1347799754
11
47.2973379505
21
-8.1222115511
0
LINE
5
793
100
AcDbEntity
8
DEFAULT_3
100
AcDbLine
62
9
6
PHANTOM
10
47.9973379503
20
-16.9721539366
11
47.9973379505
21
-16.7360847985
0
LINE
5
794
100
AcDbEntity
8
DEFAULT_3
100
AcDbLine
62
9
6
PHANTOM
10
47.9973379505
20
-8.1450341696
11
47.9973379505
21
-8.4364555947
0
LINE
5
795
100
AcDbEntity
8
0
100
AcDbLine
62
9
6
CONTINUOUS
10
48.0473379505
20
-8.4864822144
11
48.0473379505
21
-16.6861158856
0
LINE
5
796
100
AcDbEntity
8
DEFAULT_3
100
AcDbLine
62
9
6
PHANTOM
10
48.2973379505
20
-16.6722266645
11
48.2973379505
21
-15.9279318067
0
LINE
5
797
100
AcDbEntity
8
0
100
AcDbLine
62
0
6
CONTINUOUS
10
48.2973379505
20
-15.9279318067
11
48.2973379505
21
-9.1339020050
0
LINE
5
798
100
AcDbEntity
8
DEFAULT_3
100
AcDbLine
62
9
6
PHANTOM
10
48.2973379505
20
-9.1339020050
11
48.2973379505
21
-8.4449902711
0
LINE
5
799
100
AcDbEntity
8
DEFAULT_3
100
AcDbLine
62
9
6
PHANTOM
10
48.3489662648
20
-9.6334630198
11
48.3489662648
21
-15.4283707918
0
LINE
5
79A
100
AcDbEntity
8
0
100
AcDbLine
62
0
6
CONTINUOUS
10
48.3554465893
20
-8.3602284197
11
48.3550035527
21
-9.5709384941
0
LINE
5
79B
100
AcDbEntity
8
0
100
AcDbLine
62
0
6
CONTINUOUS
10
48.3528334232
20
-15.5013690044
11
48.3523990116
21
-16.6885089963
0
LINE
5
79C
100
AcDbEntity
8
0
100
AcDbLine
62
0
6
CONTINUOUS
10
48.3672500747
20
-14.8791119072
11
48.3694552252
21
-8.3462197838
0
LINE
5
79D
100
AcDbEntity
8
0
100
AcDbLine
62
0
6
CONTINUOUS
10
48.3602577792
20
-15.5013690044
11
48.3624148777
21
-9.6065490295
0
LINE
5
79E
100
AcDbEntity
8
0
100
AcDbLine
62
0
6
CONTINUOUS
10
48.3663918743
20
-16.7445017699
11
48.3672500747
21
-14.8791119072
0
LINE
5
79F
100
AcDbEntity
8
0
100
AcDbLine
62
0
6
CONTINUOUS
10
30.4394319427
20
-8.3490279433
11
30.4392293117
21
-8.3602284197
0
LINE
5
7A0
100
AcDbEntity
8
0
100
AcDbLine
62
0
6
CONTINUOUS
10
30.4252206758
20
-8.3462197838
11
30.4254262974
21
-8.3350383477
0
LINE
5
7A1
100
AcDbEntity
8
0
100
AcDbLine
62
0
6
CONTINUOUS
10
48.3521887398
20
-16.6996833080
11
48.3523990116
21
-16.6885089963
0
LINE
5
7A2
100
AcDbEntity
8
0
100
AcDbLine
62
0
6
CONTINUOUS
10
48.3663918743
20
-16.7445017699
11
48.3661783324
21
-16.7556586189
0
LINE
5
7A3
100
AcDbEntity
8
0
100
AcDbLine
62
0
6
CONTINUOUS
10
30.4973379505
20
-9.1213335808
11
30.4984951908
21
-9.0736014575
0
LINE
5
7A4
100
AcDbEntity
8
0
100
AcDbLine
62
0
6
CONTINUOUS
10
30.4984951908
20
-9.0861698817
11
30.4973379505
21
-9.1339020050
0
LINE
5
7A5
100
AcDbEntity
8
0
100
AcDbLine
62
0
6
CONTINUOUS
10
48.2961807102
20
-15.9756639299
11
48.2973379505
21
-15.9279318067
0
LINE
5
7A6
100
AcDbEntity
8
DEFAULT_3
100
AcDbLine
62
9
6
PHANTOM
10
30.4973379505
20
-8.4449902712
11
30.4984791667
21
-8.4188516542
0
LINE
5
7A7
100
AcDbEntity
8
DEFAULT_3
100
AcDbLine
62
9
6
PHANTOM
10
30.4973379505
20
-8.4794260214
11
30.4984797379
21
-8.4532974809
0
LINE
5
7A8
100
AcDbEntity
8
DEFAULT_3
100
AcDbLine
62
9
6
PHANTOM
10
30.7473379505
20
-8.4864822144
11
30.7475319224
21
-8.4821037019
0
LINE
5
7A9
100
AcDbEntity
8
0
100
AcDbLine
62
9
6
CONTINUOUS
10
18.1252965974
20
-21.7770672118
11
18.1255954483
21
-21.7713852941
0
LINE
5
7AA
100
AcDbEntity
8
0
100
AcDbLine
62
0
6
CONTINUOUS
10
30.4400535554
20
-8.3378545896
11
30.4394319427
21
-8.3490279433
0
LINE
5
7AB
100
AcDbEntity
8
0
100
AcDbLine
62
0
6
CONTINUOUS
10
30.4254262974
20
-8.3350383477
11
30.4260495520
21
-8.3238559786
0
LINE
5
7AC
100
AcDbEntity
8
0
100
AcDbLine
62
9
6
CONTINUOUS
10
17.3271896432
20
-20.9628196806
11
17.3274783708
21
-20.9576643900
0
LINE
5
7AD
100
AcDbEntity
8
0
100
AcDbLine
62
9
6
CONTINUOUS
10
17.3268985997
20
-20.9675671699
11
17.3271896432
21
-20.9628196806
0
LINE
5
7AE
100
AcDbEntity
8
0
100
AcDbLine
62
9
6
CONTINUOUS
10
18.1249965155
20
-21.7818389919
11
18.1252965974
21
-21.7770672118
0
LINE
5
7AF
100
AcDbEntity
8
0
100
AcDbLine
62
9
6
CONTINUOUS
10
17.3266057748
20
-20.9718981367
11
17.3268985997
21
-20.9675671699
0
LINE
5
7B0
100
AcDbEntity
8
0
100
AcDbLine
62
0
6
CONTINUOUS
10
30.4984951908
20
-9.0736014575
11
30.5018885101
21
-9.0262015853
0
LINE
5
7B1
100
AcDbEntity
8
0
100
AcDbLine
62
0
6
CONTINUOUS
10
30.5018885101
20
-9.0387700095
11
30.4984951908
21
-9.0861698817
0
LINE
5
7B2
100
AcDbEntity
8
0
100
AcDbLine
62
0
6
CONTINUOUS
10
17.2486838656
20
21.0782052010
11
17.2503707754
21
21.1013717234
0
LINE
5
7B3
100
AcDbEntity
8
0
100
AcDbLine
62
9
6
CONTINUOUS
10
17.3263111647
20
-20.9758118165
11
17.3266057748
21
-20.9718981367
0
LINE
5
7B4
100
AcDbEntity
8
0
100
AcDbLine
62
9
6
CONTINUOUS
10
17.3254431802
20
21.0044313360
11
17.3273449593
21
21.0289888242
0
LINE
5
7B5
100
AcDbEntity
8
0
100
AcDbLine
62
9
6
CONTINUOUS
10
18.1246957432
20
-21.7856977289
11
18.1249965155
21
-21.7818389919
0
LINE
5
7B6
100
AcDbEntity
8
0
100
AcDbLine
62
9
6
CONTINUOUS
10
17.3260147731
20
-20.9793089740
11
17.3263111647
21
-20.9758118165
0
LINE
5
7B7
100
AcDbEntity
8
0
100
AcDbLine
62
9
6
CONTINUOUS
10
17.3257171453
20
-20.9823831822
11
17.3260147731
21
-20.9793089740
0
LINE
5
7B8
100
AcDbEntity
8
0
100
AcDbLine
62
0
6
CONTINUOUS
10
17.2503707754
20
21.1013717234
11
17.2527368362
21
21.1245359365
0
LINE
5
7B9
100
AcDbEntity
8
0
100
AcDbLine
62
9
6
CONTINUOUS
10
18.1243944604
20
-21.7886410538
11
18.1246957432
21
-21.7856977289
0
LINE
5
7BA
100
AcDbEntity
8
0
100
AcDbLine
62
9
6
CONTINUOUS
10
17.3273449593
20
21.0289888242
11
17.3300019216
21
21.0534763460
0
LINE
5
7BB
100
AcDbEntity
8
0
100
AcDbLine
62
9
6
CONTINUOUS
10
17.3254182720
20
-20.9850336708
11
17.3257171453
21
-20.9823831822
0
LINE
5
7BC
100
AcDbEntity
8
0
100
AcDbLine
62
0
6
CONTINUOUS
10
17.2527368362
20
21.1245359365
11
17.2557788651
21
21.1476672183
0
LINE
5
7BD
100
AcDbEntity
8
0
100
AcDbLine
62
9
6
CONTINUOUS
10
17.3300019216
20
21.0534763460
11
17.3334115479
21
21.0778706826
0
LINE
5
7BE
100
AcDbEntity
8
0
100
AcDbLine
62
9
6
CONTINUOUS
10
-24.3087624387
20
20.4225420818
11
-24.3126934840
21
20.4056685862
0
LINE
5
7BF
100
AcDbEntity
8
0
100
AcDbLine
62
9
6
CONTINUOUS
10
-24.3044125880
20
20.4393235102
11
-24.3087624387
21
20.4225420818
0
LINE
5
7C0
100
AcDbEntity
8
0
100
AcDbLine
62
9
6
CONTINUOUS
10
-24.2996519224
20
20.4559820037
11
-24.3044125880
21
20.4393235102
0
LINE
5
7C1
100
AcDbEntity
8
0
100
AcDbLine
62
9
6
CONTINUOUS
10
61.4707642339
20
20.9551996457
11
61.4703775134
21
20.9798271663
0
LINE
5
7C2
100
AcDbEntity
8
0
100
AcDbLine
62
0
6
CONTINUOUS
10
61.5470029770
20
21.0550057473
11
61.5473379505
21
21.0317733623
0
LINE
5
7C3
100
AcDbEntity
8
0
100
AcDbLine
62
9
6
CONTINUOUS
10
61.4608099334
20
-20.6801988879
11
61.4621305719
21
-20.7748218524
0
LINE
5
7C4
100
AcDbEntity
8
0
100
AcDbLine
62
9
6
CONTINUOUS
10
61.4596754359
20
-20.5579949833
11
61.4608099334
21
-20.6801988879
0
LINE
5
7C5
100
AcDbEntity
8
0
100
AcDbLine
62
9
6
CONTINUOUS
10
60.6618462261
20
-21.2715987721
11
60.6640835954
21
-21.5200893509
0
LINE
5
7C6
100
AcDbEntity
8
0
100
AcDbLine
62
9
6
CONTINUOUS
10
61.4588823040
20
-20.3912265578
11
61.4596754359
21
-20.5579949833
0
LINE
5
7C7
100
AcDbEntity
8
0
100
AcDbLine
62
9
6
CONTINUOUS
10
60.6593936747
20
-20.7220414906
11
60.6618462261
21
-21.2715987721
0
LINE
5
7C8
100
AcDbEntity
8
0
100
AcDbLine
62
9
6
CONTINUOUS
10
60.6589333078
20
-20.4308938958
11
60.6593936747
21
-20.7220414906
0
LINE
5
7C9
100
AcDbEntity
8
0
100
AcDbLine
62
9
6
CONTINUOUS
10
61.4574848391
20
-19.2121608137
11
61.4588823040
21
-20.3912265578
0
LINE
5
7CA
100
AcDbEntity
8
0
100
AcDbLine
62
9
6
CONTINUOUS
10
60.6541458485
20
-15.8708069043
11
60.6589333078
21
-20.4308938958
0
LINE
5
7CB
100
AcDbEntity
8
0
100
AcDbLine
62
9
6
CONTINUOUS
10
61.4562568826
20
-18.0845339453
11
61.4574848391
21
-19.2121608137
0
LINE
5
7CC
100
AcDbEntity
8
0
100
AcDbLine
62
9
6
CONTINUOUS
10
60.6522103995
20
-13.6078493272
11
60.6541458485
21
-15.8708069043
0
LINE
5
7CD
100
AcDbEntity
8
0
100
AcDbLine
62
9
6
CONTINUOUS
10
61.4540240050
20
-15.8285394510
11
61.4562568826
21
-18.0845339453
0
LINE
5
7CE
100
AcDbEntity
8
0
100
AcDbLine
62
9
6
CONTINUOUS
10
61.4520885558
20
-13.5716109633
11
61.4540240050
21
-15.8285394510
0
LINE
5
7CF
100
AcDbEntity
8
0
100
AcDbLine
62
9
6
CONTINUOUS
10
60.6513542676
20
-12.4760718361
11
60.6522103995
21
-13.6078493272
0
LINE
5
7D0
100
AcDbEntity
8
0
100
AcDbLine
62
9
6
CONTINUOUS
10
60.6498652161
20
-10.2120001469
11
60.6513542676
21
-12.4760718361
0
LINE
5
7D1
100
AcDbEntity
8
0
100
AcDbLine
62
9
6
CONTINUOUS
10
61.4512324239
20
-12.4428568731
11
61.4520885558
21
-13.5716109633
0
LINE
5
7D2
100
AcDbEntity
8
0
100
AcDbLine
62
9
6
CONTINUOUS
10
61.4497433724
20
-10.1848172780
11
61.4512324239
21
-12.4428568731
0
LINE
5
7D3
100
AcDbEntity
8
0
100
AcDbLine
62
9
6
CONTINUOUS
10
60.6492323332
20
-9.0797382343
11
60.6498652161
21
-10.2120001469
0
LINE
5
7D4
100
AcDbEntity
8
0
100
AcDbLine
62
9
6
CONTINUOUS
10
61.4491104894
20
-9.0555800612
11
61.4497433724
21
-10.1848172780
0
LINE
5
7D5
100
AcDbEntity
8
0
100
AcDbLine
62
9
6
CONTINUOUS
10
60.6477803175
20
-5.6822419490
11
60.6492323332
21
-9.0797382343
0
LINE
5
7D6
100
AcDbEntity
8
0
100
AcDbLine
62
9
6
CONTINUOUS
10
61.4476584736
20
-5.6671436654
11
61.4491104894
21
-9.0555800612
0
LINE
5
7D7
100
AcDbEntity
8
0
100
AcDbLine
62
9
6
CONTINUOUS
10
60.6469984066
20
-2.2840189242
11
60.6477803175
21
-5.6822419490
0
LINE
5
7D8
100
AcDbEntity
8
0
100
AcDbLine
62
9
6
CONTINUOUS
10
61.4468765628
20
-2.2779824672
11
61.4476584736
21
-5.6671436654
0
LINE
5
7D9
100
AcDbEntity
8
0
100
AcDbLine
62
0
6
CONTINUOUS
10
61.5473379505
20
21.0317733623
11
61.5473379505
21
-21.0684703255
0
LINE
5
7DA
100
AcDbEntity
8
0
100
AcDbLine
62
9
6
CONTINUOUS
10
60.6474452149
20
4.5128631980
11
60.6469984066
21
-2.2840189242
0
LINE
5
7DB
100
AcDbEntity
8
0
100
AcDbLine
62
9
6
CONTINUOUS
10
61.4473233711
20
4.5007748407
11
61.4468765628
21
-2.2779824672
0
LINE
5
7DC
100
AcDbEntity
8
0
100
AcDbLine
62
9
6
CONTINUOUS
10
60.6486738766
20
7.9106501716
11
60.6474452149
21
4.5128631980
0
LINE
5
7DD
100
AcDbEntity
8
0
100
AcDbLine
62
9
6
CONTINUOUS
10
61.4485520329
20
7.8895011521
11
61.4473233711
21
4.5007748407
0
LINE
5
7DE
100
AcDbEntity
8
0
100
AcDbLine
62
9
6
CONTINUOUS
10
60.6505725287
20
11.3074197659
11
60.6486738766
21
7.9106501716
0
LINE
5
7DF
100
AcDbEntity
8
0
100
AcDbLine
62
9
6
CONTINUOUS
10
61.4504506851
20
11.2772127977
11
61.4485520329
21
7.8895011521
0
LINE
5
7E0
100
AcDbEntity
8
0
100
AcDbLine
62
9
6
CONTINUOUS
10
60.6522103995
20
13.5711523638
11
60.6505725287
21
11.3074197659
0
LINE
5
7E1
100
AcDbEntity
8
0
100
AcDbLine
62
9
6
CONTINUOUS
10
61.4520885560
20
13.5349142136
11
61.4504506851
21
11.2772127977
0
LINE
5
7E2
100
AcDbEntity
8
0
100
AcDbLine
62
9
6
CONTINUOUS
10
60.6552251195
20
16.9652577719
11
60.6522103995
21
13.5711523638
0
LINE
5
7E3
100
AcDbEntity
8
0
100
AcDbLine
62
9
6
CONTINUOUS
10
61.4551032762
20
16.9199687762
11
61.4520885560
21
13.5349142136
0
LINE
5
7E4
100
AcDbEntity
8
0
100
AcDbLine
62
9
6
CONTINUOUS
10
60.6563787261
20
18.0961634639
11
60.6552251195
21
16.9652577719
0
LINE
5
7E5
100
AcDbEntity
8
0
100
AcDbLine
62
9
6
CONTINUOUS
10
61.4592717865
20
20.4559820037
11
61.4551032762
21
16.9199687762
0
LINE
5
7E6
100
AcDbEntity
8
0
100
AcDbLine
62
9
6
CONTINUOUS
10
60.6607672123
20
21.0560046078
11
60.6563787261
21
18.0961634639
0
LINE
5
7E7
100
AcDbEntity
8
0
100
AcDbLine
62
9
6
CONTINUOUS
10
60.6631290161
20
21.3922267761
11
60.6607672123
21
21.0560046078
0
LINE
5
7E8
100
AcDbEntity
8
0
100
AcDbLine
62
9
6
CONTINUOUS
10
61.4603351471
20
20.5992067224
11
61.4592717865
21
20.4559820037
0
LINE
5
7E9
100
AcDbEntity
8
0
100
AcDbLine
62
9
6
CONTINUOUS
10
60.6640835895
20
21.4833923718
11
60.6631290161
21
21.3922267761
0
LINE
5
7EA
100
AcDbEntity
8
0
100
AcDbLine
62
9
6
CONTINUOUS
10
61.4615295762
20
20.6991827882
11
61.4603351471
21
20.5992067224
0
LINE
5
7EB
100
AcDbEntity
8
0
100
AcDbLine
62
9
6
CONTINUOUS
10
60.6656413126
20
21.5973326744
11
60.6640835895
21
21.4833923718
0
LINE
5
7EC
100
AcDbEntity
8
0
100
AcDbLine
62
0
6
CONTINUOUS
10
61.5473379505
20
-21.0684703255
11
61.5470029770
21
-21.0917027105
0
LINE
5
7ED
100
AcDbEntity
8
0
100
AcDbLine
62
9
6
CONTINUOUS
10
61.4707642339
20
-20.9918966089
11
61.4703775134
21
-21.0165241298
0
LINE
5
7EE
100
AcDbEntity
8
0
100
AcDbLine
62
9
6
CONTINUOUS
10
61.4627802607
20
20.7743998819
11
61.4615295762
21
20.6991827882
0
LINE
5
7EF
100
AcDbEntity
8
0
100
AcDbLine
62
9
6
CONTINUOUS
10
60.6667487593
20
21.6570019290
11
60.6656413126
21
21.5973326744
0
LINE
5
7F0
100
AcDbEntity
8
0
100
AcDbLine
62
9
6
CONTINUOUS
10
61.4637163223
20
20.8182900167
11
61.4627802607
21
20.7743998819
0
LINE
5
7F1
100
AcDbEntity
8
0
100
AcDbLine
62
9
6
CONTINUOUS
10
60.6676079675
20
21.6927678728
11
60.6667487593
21
21.6570019290
0
LINE
5
7F2
100
AcDbEntity
8
0
100
AcDbLine
62
9
6
CONTINUOUS
10
61.4647233869
20
20.8566577044
11
61.4637163223
21
20.8182900167
0
LINE
5
7F3
100
AcDbEntity
8
0
100
AcDbLine
62
9
6
CONTINUOUS
10
60.6681918200
20
21.7122192626
11
60.6676079675
21
21.6927678728
0
LINE
5
7F4
100
AcDbEntity
8
0
100
AcDbLine
62
9
6
CONTINUOUS
10
61.4655195070
20
20.8815864753
11
61.4647233869
21
20.8566577044
0
LINE
5
7F5
100
AcDbEntity
8
0
100
AcDbLine
62
9
6
CONTINUOUS
10
60.6684864300
20
21.7206085060
11
60.6681918200
21
21.7122192626
0
LINE
5
7F6
100
AcDbEntity
8
0
100
AcDbLine
62
9
6
CONTINUOUS
10
61.4660673110
20
20.8962960776
11
61.4655195070
21
20.8815864753
0
LINE
5
7F7
100
AcDbEntity
8
0
100
AcDbLine
62
9
6
CONTINUOUS
10
60.6687828241
20
21.7280997311
11
60.6684864300
21
21.7206085060
0
LINE
5
7F8
100
AcDbEntity
8
0
100
AcDbLine
62
9
6
CONTINUOUS
10
61.4666269767
20
20.9094307696
11
61.4660673110
21
20.8962960776
0
LINE
5
7F9
100
AcDbEntity
8
DEFAULT_3
100
AcDbLine
62
9
6
PHANTOM
10
48.2973379505
20
-16.6722266645
11
48.2961961631
21
-16.6983501537
0
LINE
5
7FA
100
AcDbEntity
8
0
100
AcDbLine
62
0
6
CONTINUOUS
10
61.5470029770
20
-21.0917027105
11
61.5459920354
21
-21.1149021642
0
LINE
5
7FB
100
AcDbEntity
8
DEFAULT_3
100
AcDbLine
62
9
6
PHANTOM
10
48.0473379505
20
-16.6861158856
11
48.0471439786
21
-16.6904893754
0
LINE
5
7FC
100
AcDbEntity
8
0
100
AcDbLine
62
9
6
CONTINUOUS
10
60.6690804487
20
21.7346883259
11
60.6687828241
21
21.7280997311
0
LINE
5
7FD
100
AcDbEntity
8
0
100
AcDbLine
62
9
6
CONTINUOUS
10
61.4703775134
20
-21.0165241298
11
61.4692327208
21
-21.0411282992
0
LINE
5
7FE
100
AcDbEntity
8
0
100
AcDbLine
62
9
6
CONTINUOUS
10
61.4671974760
20
20.9209664204
11
61.4666269767
21
20.9094307696
0
LINE
5
7FF
100
AcDbEntity
8
0
100
AcDbLine
62
9
6
CONTINUOUS
10
60.6693792989
20
21.7403702441
11
60.6690804487
21
21.7346883259
0
LINE
5
800
100
AcDbEntity
8
0
100
AcDbLine
62
9
6
CONTINUOUS
10
61.4674862036
20
20.9261217942
11
61.4671974760
21
20.9209664204
0
LINE
5
801
100
AcDbEntity
8
0
100
AcDbLine
62
0
6
CONTINUOUS
10
48.3515602403
20
-16.7108310767
11
48.3521887398
21
-16.6996833080
0
LINE
5
802
100
AcDbEntity
8
0
100
AcDbLine
62
0
6
CONTINUOUS
10
48.3661783324
20
-16.7556586189
11
48.3655476258
21
-16.7668166947
0
LINE
5
803
100
AcDbEntity
8
0
100
AcDbLine
62
9
6
CONTINUOUS
10
61.4677772471
20
20.9308693661
11
61.4674862036
21
20.9261217942
0
LINE
5
804
100
AcDbEntity
8
0
100
AcDbLine
62
9
6
CONTINUOUS
10
60.6696793795
20
21.7451420246
11
60.6693792989
21
21.7403702441
0
LINE
5
805
100
AcDbEntity
8
0
100
AcDbLine
62
9
6
CONTINUOUS
10
61.4680700721
20
20.9352004154
11
61.4677772471
21
20.9308693661
0
LINE
5
806
100
AcDbEntity
8
0
100
AcDbLine
62
0
6
CONTINUOUS
10
48.2927873909
20
-16.0230638021
11
48.2961807102
21
-15.9756639299
0
LINE
5
807
100
AcDbEntity
8
0
100
AcDbLine
62
0
6
CONTINUOUS
10
30.4260495520
20
-8.3238559786
11
30.4270914157
21
-8.3126883520
0
LINE
5
808
100
AcDbEntity
8
0
100
AcDbLine
62
0
6
CONTINUOUS
10
30.4410941499
20
-8.3267083586
11
30.4400535554
21
-8.3378545896
0
LINE
5
809
100
AcDbEntity
8
0
100
AcDbLine
62
0
6
CONTINUOUS
10
48.3505135132
20
-16.7219523024
11
48.3515602403
21
-16.7108310767
0
LINE
5
80A
100
AcDbEntity
8
0
100
AcDbLine
62
0
6
CONTINUOUS
10
48.3655476258
20
-16.7668166947
11
48.3644987430
21
-16.7779603540
0
LINE
5
80B
100
AcDbEntity
8
0
100
AcDbLine
62
0
6
CONTINUOUS
10
30.5018885101
20
-9.0262015853
11
30.5075179084
21
-8.9791339642
0
LINE
5
80C
100
AcDbEntity
8
0
100
AcDbLine
62
0
6
CONTINUOUS
10
30.5075179084
20
-8.9917023884
11
30.5018885101
21
-9.0387700095
0
LINE
5
80D
100
AcDbEntity
8
DEFAULT_3
100
AcDbLine
62
9
6
PHANTOM
10
30.7475319224
20
-8.4821037019
11
30.7480934159
21
-8.4778116451
0
LINE
5
80E
100
AcDbEntity
8
0
100
AcDbLine
62
0
6
CONTINUOUS
10
30.4270914157
20
-8.3126883520
11
30.4285534408
21
-8.3015434423
0
LINE
5
80F
100
AcDbEntity
8
0
100
AcDbLine
62
0
6
CONTINUOUS
10
30.4425571561
20
-8.3155647186
11
30.4410941499
21
-8.3267083586
0
LINE
5
810
100
AcDbEntity
8
DEFAULT_3
100
AcDbLine
62
9
6
PHANTOM
10
30.4984791667
20
-8.4188516542
11
30.5018943299
21
-8.3929107813
0
LINE
5
811
100
AcDbEntity
8
DEFAULT_3
100
AcDbLine
62
9
6
PHANTOM
10
30.4984797379
20
-8.4532974809
11
30.5018963353
21
-8.4273682810
0
LINE
5
812
100
AcDbEntity
8
0
100
AcDbLine
62
9
6
CONTINUOUS
10
17.3251181624
20
-20.9872612102
11
17.3254182720
21
-20.9850336708
0
LINE
5
813
100
AcDbEntity
8
0
100
AcDbLine
62
9
6
CONTINUOUS
10
18.1240924871
20
-21.7906671490
11
18.1243944604
21
-21.7886410538
0
LINE
5
814
100
AcDbEntity
8
0
100
AcDbLine
62
0
6
CONTINUOUS
10
17.2557788651
20
21.1476672183
11
17.2594873131
21
21.1706737024
0
LINE
5
815
100
AcDbEntity
8
0
100
AcDbLine
62
9
6
CONTINUOUS
10
17.3248173898
20
-20.9890616852
11
17.3251181624
21
-20.9872612102
0
LINE
5
816
100
AcDbEntity
8
0
100
AcDbLine
62
9
6
CONTINUOUS
10
17.3334115479
20
21.0778706826
11
17.3375706052
21
21.1021487033
0
LINE
5
817
100
AcDbEntity
8
0
100
AcDbLine
62
0
6
CONTINUOUS
10
17.2594873131
20
21.1706737024
11
17.2638658686
21
21.1935493915
0
LINE
5
818
100
AcDbEntity
8
0
100
AcDbLine
62
9
6
CONTINUOUS
10
17.3375706052
20
21.1021487033
11
17.3424751498
21
21.1262873881
0
LINE
5
819
100
AcDbEntity
8
0
100
AcDbLine
62
0
6
CONTINUOUS
10
17.2638658686
20
21.1935493915
11
17.2689108433
21
21.2163002829
0
LINE
5
81A
100
AcDbEntity
8
0
100
AcDbLine
62
9
6
CONTINUOUS
10
-24.2944796891
20
20.4725173152
11
-24.2996519224
21
20.4559820037
0
LINE
5
81B
100
AcDbEntity
8
0
100
AcDbLine
62
9
6
CONTINUOUS
10
-24.2888966410
20
20.4889296918
11
-24.2944796891
21
20.4725173152
0
LINE
5
81C
100
AcDbEntity
8
0
100
AcDbLine
62
9
6
CONTINUOUS
10
-23.6420826640
20
21.7535462887
11
-23.6416731790
21
21.7546910812
0
LINE
5
81D
100
AcDbEntity
8
0
100
AcDbLine
62
9
6
CONTINUOUS
10
-24.2829130269
20
20.5051890070
11
-24.2888966410
21
20.4889296918
0
LINE
5
81E
100
AcDbEntity
8
0
100
AcDbLine
62
0
6
CONTINUOUS
10
61.5459920354
20
-21.1149021642
11
61.5443051257
21
-21.1380686866
0
LINE
5
81F
100
AcDbEntity
8
0
100
AcDbLine
62
9
6
CONTINUOUS
10
61.4683646822
20
20.9391141783
11
61.4680700721
21
20.9352004154
0
LINE
5
820
100
AcDbEntity
8
0
100
AcDbLine
62
9
6
CONTINUOUS
10
61.4692327208
20
-21.0411282992
11
61.4673309417
21
-21.0656857874
0
LINE
5
821
100
AcDbEntity
8
0
100
AcDbLine
62
9
6
CONTINUOUS
10
60.6699801515
20
21.7490007626
11
60.6696793795
21
21.7451420246
0
LINE
5
822
100
AcDbEntity
8
0
100
AcDbLine
62
9
6
CONTINUOUS
10
61.4686610739
20
20.9426114187
11
61.4683646822
21
20.9391141783
0
LINE
5
823
100
AcDbEntity
8
0
100
AcDbLine
62
9
6
CONTINUOUS
10
61.4689587018
20
20.9456857078
11
61.4686610739
21
20.9426114187
0
LINE
5
824
100
AcDbEntity
8
0
100
AcDbLine
62
0
6
CONTINUOUS
10
61.5443051257
20
-21.1380686866
11
61.5419390649
21
-21.1612328997
0
LINE
5
825
100
AcDbEntity
8
0
100
AcDbLine
62
9
6
CONTINUOUS
10
60.6702814355
20
21.7519440889
11
60.6699801515
21
21.7490007626
0
LINE
5
826
100
AcDbEntity
8
0
100
AcDbLine
62
9
6
CONTINUOUS
10
61.4673309417
20
-21.0656857874
11
61.4646739794
21
-21.0901733092
0
LINE
5
827
100
AcDbEntity
8
0
100
AcDbLine
62
9
6
CONTINUOUS
10
61.4692575734
20
20.9483362719
11
61.4689587018
21
20.9456857078
0
LINE
5
828
100
AcDbEntity
8
0
100
AcDbLine
62
0
6
CONTINUOUS
10
48.2871579926
20
-16.0701314233
11
48.2927873909
21
-16.0230638021
0
LINE
5
829
100
AcDbEntity
8
DEFAULT_3
100
AcDbLine
62
9
6
PHANTOM
10
48.0471439786
20
-16.6904893754
11
48.0465824851
21
-16.6947765034
0
LINE
5
82A
100
AcDbEntity
8
0
100
AcDbLine
62
0
6
CONTINUOUS
10
61.5419390649
20
-21.1612328997
11
61.5388970359
21
-21.1843641815
0
LINE
5
82B
100
AcDbEntity
8
0
100
AcDbLine
62
0
6
CONTINUOUS
10
48.3490451828
20
-16.7330714382
11
48.3505135132
21
-16.7219523024
0
LINE
5
82C
100
AcDbEntity
8
0
100
AcDbLine
62
0
6
CONTINUOUS
10
48.3644987430
20
-16.7779603540
11
48.3630300826
21
-16.7890816177
0
LINE
5
82D
100
AcDbEntity
8
DEFAULT_3
100
AcDbLine
62
9
6
PHANTOM
10
48.2961961631
20
-16.6983501537
11
48.2924900473
21
-16.7258887823
0
LINE
5
82E
100
AcDbEntity
8
0
100
AcDbLine
62
9
6
CONTINUOUS
10
61.4695576812
20
20.9505638847
11
61.4692575734
21
20.9483362719
0
LINE
5
82F
100
AcDbEntity
8
0
100
AcDbLine
62
9
6
CONTINUOUS
10
60.6705834109
20
21.7539701852
11
60.6702814355
21
21.7519440889
0
LINE
5
830
100
AcDbEntity
8
0
100
AcDbLine
62
0
6
CONTINUOUS
10
30.5075179084
20
-8.9791339642
11
30.5154035988
21
-8.9323031408
0
LINE
5
831
100
AcDbEntity
8
0
100
AcDbLine
62
0
6
CONTINUOUS
10
30.5154035988
20
-8.9448715650
11
30.5075179084
21
-8.9917023884
0
LINE
5
832
100
AcDbEntity
8
0
100
AcDbLine
62
0
6
CONTINUOUS
10
48.2792723022
20
-16.1169622466
11
48.2871579926
21
-16.0701314233
0
LINE
5
833
100
AcDbEntity
8
0
100
AcDbLine
62
0
6
CONTINUOUS
10
30.4444391440
20
-8.3044482014
11
30.4425571561
21
-8.3155647186
0
LINE
5
834
100
AcDbEntity
8
0
100
AcDbLine
62
0
6
CONTINUOUS
10
30.4285534408
20
-8.3015434423
11
30.4304348336
21
-8.2904449872
0
LINE
5
835
100
AcDbEntity
8
0
100
AcDbLine
62
0
6
CONTINUOUS
10
48.3471586247
20
-16.7441640311
11
48.3490451828
21
-16.7330714382
0
LINE
5
836
100
AcDbEntity
8
0
100
AcDbLine
62
0
6
CONTINUOUS
10
48.3630300826
20
-16.7890816177
11
48.3611424133
21
-16.8001568090
0
LINE
5
837
100
AcDbEntity
8
0
100
AcDbLine
62
0
6
CONTINUOUS
10
30.4467298236
20
-8.2934324019
11
30.4444391440
21
-8.3044482014
0
LINE
5
838
100
AcDbEntity
8
0
100
AcDbLine
62
0
6
CONTINUOUS
10
30.4322610233
20
-9.6065490295
11
30.4396723483
21
-9.5709384941
0
LINE
5
839
100
AcDbEntity
8
0
100
AcDbLine
62
0
6
CONTINUOUS
10
30.4304348336
20
-8.2904449872
11
30.4327295362
21
-8.2794319712
0
LINE
5
83A
100
AcDbEntity
8
0
100
AcDbLine
62
0
6
CONTINUOUS
10
30.5154035988
20
-8.9323031408
11
30.5255253682
21
-8.8858045685
0
LINE
5
83B
100
AcDbEntity
8
0
100
AcDbLine
62
0
6
CONTINUOUS
10
30.5255253682
20
-8.8983729928
11
30.5154035988
21
-8.9448715650
0
LINE
5
83C
100
AcDbEntity
8
0
100
AcDbLine
62
9
6
CONTINUOUS
10
17.3245161453
20
-20.9904337242
11
17.3248173898
21
-20.9890616852
0
LINE
5
83D
100
AcDbEntity
8
DEFAULT_3
100
AcDbLine
62
9
6
PHANTOM
10
30.7480934159
20
-8.4778116451
11
30.7490224310
21
-8.4736060441
0
LINE
5
83E
100
AcDbEntity
8
DEFAULT_3
100
AcDbLine
62
9
6
PHANTOM
10
30.5018943299
20
-8.3929107813
11
30.5075576816
21
-8.3673653232
0
LINE
5
83F
100
AcDbEntity
8
DEFAULT_3
100
AcDbLine
62
9
6
PHANTOM
10
30.5018963353
20
-8.4273682810
11
30.5075616268
21
-8.4018357530
0
LINE
5
840
100
AcDbEntity
8
0
100
AcDbLine
62
9
6
CONTINUOUS
10
17.3424751498
20
21.1262873881
11
17.3481205314
21
21.1502638487
0
LINE
5
841
100
AcDbEntity
8
0
100
AcDbLine
62
0
6
CONTINUOUS
10
17.2689108433
20
21.2163002829
11
17.2746016234
21
21.2388525026
0
LINE
5
842
100
AcDbEntity
8
0
100
AcDbLine
62
9
6
CONTINUOUS
10
17.3481205314
20
21.1502638487
11
17.3545013970
21
21.1740553508
0
LINE
5
843
100
AcDbEntity
8
0
100
AcDbLine
62
0
6
CONTINUOUS
10
17.2746016234
20
21.2388525026
11
17.2809323920
21
21.2611846820
0
LINE
5
844
100
AcDbEntity
8
0
100
AcDbLine
62
9
6
CONTINUOUS
10
17.3545013970
20
21.1740553508
11
17.3616116963
21
21.1976393355
0
LINE
5
845
100
AcDbEntity
8
0
100
AcDbLine
62
9
6
CONTINUOUS
10
-24.2765281122
20
20.5212949826
11
-24.2829130269
21
20.5051890070
0
LINE
5
846
100
AcDbEntity
8
0
100
AcDbLine
62
9
6
CONTINUOUS
10
-24.2697426315
20
20.5372478967
11
-24.2765281122
21
20.5212949826
0
LINE
5
847
100
AcDbEntity
8
0
100
AcDbLine
62
9
6
CONTINUOUS
10
61.4646739794
20
-21.0901733092
11
61.4612643531
21
-21.1145676458
0
LINE
5
848
100
AcDbEntity
8
0
100
AcDbLine
62
0
6
CONTINUOUS
10
61.5388970359
20
-21.1843641815
11
61.5351885879
21
-21.2073706656
0
LINE
5
849
100
AcDbEntity
8
0
100
AcDbLine
62
9
6
CONTINUOUS
10
61.4698584579
20
20.9523644392
11
61.4695576812
21
20.9505638847
0
LINE
5
84A
100
AcDbEntity
8
0
100
AcDbLine
62
9
6
CONTINUOUS
10
61.4612643531
20
-21.1145676458
11
61.4571052958
21
-21.1388456665
0
LINE
5
84B
100
AcDbEntity
8
0
100
AcDbLine
62
0
6
CONTINUOUS
10
61.5351885879
20
-21.2073706656
11
61.5308100324
21
-21.2302463547
0
LINE
5
84C
100
AcDbEntity
8
DEFAULT_3
100
AcDbLine
62
9
6
PHANTOM
10
48.2910058521
20
-16.7335273256
11
48.2924819257
21
-16.7259698261
0
LINE
5
84D
100
AcDbEntity
8
0
100
AcDbLine
62
9
6
CONTINUOUS
10
61.4571052958
20
-21.1388456665
11
61.4522007512
21
-21.1629843513
0
LINE
5
84E
100
AcDbEntity
8
0
100
AcDbLine
62
0
6
CONTINUOUS
10
48.3448639663
20
-16.7551567219
11
48.3471586247
21
-16.7441640311
0
LINE
5
84F
100
AcDbEntity
8
0
100
AcDbLine
62
0
6
CONTINUOUS
10
48.3611424133
20
-16.8001568090
11
48.3588417894
21
-16.8111470693
0
LINE
5
850
100
AcDbEntity
8
0
100
AcDbLine
62
0
6
CONTINUOUS
10
48.2691505328
20
-16.1634608189
11
48.2792723022
21
-16.1169622466
0
LINE
5
851
100
AcDbEntity
8
0
100
AcDbLine
62
9
6
CONTINUOUS
10
61.4701597144
20
20.9537365663
11
61.4698584579
21
20.9523644392
0
LINE
5
852
100
AcDbEntity
8
DEFAULT_3
100
AcDbLine
62
9
6
PHANTOM
10
48.0465824851
20
-16.6947765034
11
48.0456534700
21
-16.6989772698
0
LINE
5
853
100
AcDbEntity
8
DEFAULT_3
100
AcDbLine
62
9
6
PHANTOM
10
48.2924900473
20
-16.7258887823
11
48.2871142742
21
-16.7498021023
0
LINE
5
854
100
AcDbEntity
8
0
100
AcDbLine
62
0
6
CONTINUOUS
10
30.4327295362
20
-8.2794319712
11
30.4354322099
21
-8.2685246747
0
LINE
5
855
100
AcDbEntity
8
0
100
AcDbLine
62
0
6
CONTINUOUS
10
30.4494320779
20
-8.2825244933
11
30.4467298236
21
-8.2934324019
0
LINE
5
856
100
AcDbEntity
8
0
100
AcDbLine
62
0
6
CONTINUOUS
10
48.3421583219
20
-16.7660424016
11
48.3448639663
21
-16.7551567219
0
LINE
5
857
100
AcDbEntity
8
0
100
AcDbLine
62
0
6
CONTINUOUS
10
48.3588417894
20
-16.8111470693
11
48.3561335055
21
-16.8220321671
0
LINE
5
858
100
AcDbEntity
8
0
100
AcDbLine
62
9
6
CONTINUOUS
10
30.4422768894
20
-16.6885089963
11
30.4282840267
21
-16.7445017699
0
LINE
5
859
100
AcDbEntity
8
0
100
AcDbLine
62
9
6
CONTINUOUS
10
30.7423065962
20
-16.9881616622
11
30.7283513438
21
-17.0440039372
0
LINE
5
85A
100
AcDbEntity
8
0
100
AcDbLine
62
0
6
CONTINUOUS
10
30.5255253682
20
-8.8858045685
11
30.5378225772
21
-8.8399246072
0
LINE
5
85B
100
AcDbEntity
8
0
100
AcDbLine
62
0
6
CONTINUOUS
10
30.5378225772
20
-8.8524930315
11
30.5255253682
21
-8.8983729928
0
LINE
5
85C
100
AcDbEntity
8
0
100
AcDbLine
62
9
6
CONTINUOUS
10
18.1237898232
20
-21.7917747650
11
18.1240924871
21
-21.7906671490
0
LINE
5
85D
100
AcDbEntity
8
0
100
AcDbLine
62
0
6
CONTINUOUS
10
30.4354322099
20
-8.2685246747
11
30.4385392416
21
-8.2577331451
0
LINE
5
85E
100
AcDbEntity
8
0
100
AcDbLine
62
0
6
CONTINUOUS
10
30.4525430238
20
-8.2717173023
11
30.4494320779
21
-8.2825244933
0
LINE
5
85F
100
AcDbEntity
8
DEFAULT_3
100
AcDbLine
62
9
6
PHANTOM
10
30.7490224310
20
-8.4736060441
11
30.7503313685
21
-8.4694527126
0
LINE
5
860
100
AcDbEntity
8
0
100
AcDbLine
62
0
6
CONTINUOUS
10
17.2809323920
20
21.2611846820
11
17.2879089661
21
21.2833181896
0
LINE
5
861
100
AcDbEntity
8
DEFAULT_3
100
AcDbLine
62
9
6
PHANTOM
10
30.5075576816
20
-8.3673653232
11
30.5154262472
21
-8.3424099985
0
LINE
5
862
100
AcDbEntity
8
DEFAULT_3
100
AcDbLine
62
9
6
PHANTOM
10
30.5075616268
20
-8.4018357530
11
30.5154324550
21
-8.3768939798
0
LINE
5
863
100
AcDbEntity
8
0
100
AcDbLine
62
9
6
CONTINUOUS
10
17.3242142377
20
-20.9913786987
11
17.3245161453
21
-20.9904337242
0
LINE
5
864
100
AcDbEntity
8
0
100
AcDbLine
62
9
6
CONTINUOUS
10
17.3616116963
20
21.1976393355
11
17.3694446875
21
21.2209934406
0
LINE
5
865
100
AcDbEntity
8
0
100
AcDbLine
62
0
6
CONTINUOUS
10
17.2879089661
20
21.2833181896
11
17.2955281830
21
21.3052432572
0
LINE
5
866
100
AcDbEntity
8
0
100
AcDbLine
62
9
6
CONTINUOUS
10
17.3694446875
20
21.2209934406
11
17.3779929432
21
21.2440955220
0
LINE
5
867
100
AcDbEntity
8
0
100
AcDbLine
62
0
6
CONTINUOUS
10
17.2955281830
20
21.3052432572
11
17.3037967830
21
21.3269794288
0
LINE
5
868
100
AcDbEntity
8
0
100
AcDbLine
62
9
6
CONTINUOUS
10
-24.2625690386
20
20.5530184569
11
-24.2697426315
21
20.5372478967
0
LINE
5
869
100
AcDbEntity
8
0
100
AcDbLine
62
9
6
CONTINUOUS
10
-24.2550066166
20
20.5686063351
11
-24.2625690386
21
20.5530184569
0
LINE
5
86A
100
AcDbEntity
8
0
100
AcDbLine
62
9
6
CONTINUOUS
10
-24.2470560823
20
20.5840118593
11
-24.2550066166
21
20.5686063351
0
LINE
5
86B
100
AcDbEntity
8
0
100
AcDbLine
62
0
6
CONTINUOUS
10
61.5308100324
20
-21.2302463547
11
61.5257650577
21
-21.2529972461
0
LINE
5
86C
100
AcDbEntity
8
0
100
AcDbLine
62
9
6
CONTINUOUS
10
61.4522007512
20
-21.1629843513
11
61.4465553696
21
-21.1869608119
0
LINE
5
86D
100
AcDbEntity
8
0
100
AcDbLine
62
0
6
CONTINUOUS
10
61.5257650577
20
-21.2529972461
11
61.5200742776
21
-21.2755494658
0
LINE
5
86E
100
AcDbEntity
8
DEFAULT_3
100
AcDbLine
62
9
6
PHANTOM
10
48.2844873126
20
-16.7590648398
11
48.2910058521
21
-16.7335273256
0
LINE
5
86F
100
AcDbEntity
8
0
100
AcDbLine
62
0
6
CONTINUOUS
10
48.2568533238
20
-16.2093407802
11
48.2691505328
21
-16.1634608189
0
LINE
5
870
100
AcDbEntity
8
0
100
AcDbLine
62
9
6
CONTINUOUS
10
61.4465553696
20
-21.1869608119
11
61.4401745040
21
-21.2107523140
0
LINE
5
871
100
AcDbEntity
8
0
100
AcDbLine
62
9
6
CONTINUOUS
10
60.6708860778
20
21.7550778018
11
60.6705834109
21
21.7539701852
0
LINE
5
872
100
AcDbEntity
8
0
100
AcDbLine
62
0
6
CONTINUOUS
10
61.5200742776
20
-21.2755494658
11
61.5137435090
21
-21.2978816452
0
LINE
5
873
100
AcDbEntity
8
0
100
AcDbLine
62
0
6
CONTINUOUS
10
48.3390445771
20
-16.7768281792
11
48.3421583219
21
-16.7660424016
0
LINE
5
874
100
AcDbEntity
8
0
100
AcDbLine
62
0
6
CONTINUOUS
10
48.3561335055
20
-16.8220321671
11
48.3530211332
21
-16.8328020409
0
LINE
5
875
100
AcDbEntity
8
DEFAULT_3
100
AcDbLine
62
9
6
PHANTOM
10
48.0456534700
20
-16.6989772698
11
48.0443445325
21
-16.7031258220
0
LINE
5
876
100
AcDbEntity
8
DEFAULT_3
100
AcDbLine
62
9
6
PHANTOM
10
48.2871142742
20
-16.7498021023
11
48.2792434460
21
-16.7747391147
0
LINE
5
877
100
AcDbEntity
8
0
100
AcDbLine
62
9
6
CONTINUOUS
10
61.4704616397
20
20.9546816352
11
61.4701597144
21
20.9537365663
0
LINE
5
878
100
AcDbEntity
8
0
100
AcDbLine
62
0
6
CONTINUOUS
10
30.5378225772
20
-8.8399246072
11
30.5523175138
21
-8.7946454786
0
LINE
5
879
100
AcDbEntity
8
0
100
AcDbLine
62
0
6
CONTINUOUS
10
30.5523175138
20
-8.8072139028
11
30.5378225772
21
-8.8524930315
0
LINE
5
87A
100
AcDbEntity
8
0
100
AcDbLine
62
0
6
CONTINUOUS
10
48.2423583872
20
-16.2546199088
11
48.2568533238
21
-16.2093407802
0
LINE
5
87B
100
AcDbEntity
8
0
100
AcDbLine
62
0
6
CONTINUOUS
10
30.4560437226
20
-8.2610629047
11
30.4525430238
21
-8.2717173023
0
LINE
5
87C
100
AcDbEntity
8
0
100
AcDbLine
62
0
6
CONTINUOUS
10
30.4385392416
20
-8.2577331451
11
30.4420428143
21
-8.2470800337
0
LINE
5
87D
100
AcDbEntity
8
0
100
AcDbLine
62
0
6
CONTINUOUS
10
48.3355415163
20
-16.7874620232
11
48.3390445771
21
-16.7768281792
0
LINE
5
87E
100
AcDbEntity
8
0
100
AcDbLine
62
0
6
CONTINUOUS
10
48.3530211332
20
-16.8328020409
11
48.3495124921
21
-16.8434340664
0
LINE
5
87F
100
AcDbEntity
8
0
100
AcDbLine
62
0
6
CONTINUOUS
10
30.4599288995
20
-8.2505753164
11
30.4560437226
21
-8.2610629047
0
LINE
5
880
100
AcDbEntity
8
0
100
AcDbLine
62
0
6
CONTINUOUS
10
30.4420428143
20
-8.2470800337
11
30.4459309440
21
-8.2365936001
0
LINE
5
881
100
AcDbEntity
8
0
100
AcDbLine
62
0
6
CONTINUOUS
10
30.5523175138
20
-8.7946454786
11
30.5689878900
21
-8.7499849610
0
LINE
5
882
100
AcDbEntity
8
0
100
AcDbLine
62
0
6
CONTINUOUS
10
30.5689878900
20
-8.7625533852
11
30.5523175138
21
-8.8072139028
0
LINE
5
883
100
AcDbEntity
8
0
100
AcDbLine
62
9
6
CONTINUOUS
10
17.3779929432
20
21.2440955220
11
17.3872483581
21
21.2669236745
0
LINE
5
884
100
AcDbEntity
8
0
100
AcDbLine
62
0
6
CONTINUOUS
10
17.3037967830
20
21.3269794288
11
17.3127080258
21
21.3485071604
0
LINE
5
885
100
AcDbEntity
8
0
100
AcDbLine
62
9
6
CONTINUOUS
10
17.3872483581
20
21.2669236745
11
17.3972021564
21
21.2894562524
0
LINE
5
886
100
AcDbEntity
8
0
100
AcDbLine
62
0
6
CONTINUOUS
10
17.3127080258
20
21.3485071604
11
17.3222385280
21
21.3697580515
0
LINE
5
887
100
AcDbEntity
8
0
100
AcDbLine
62
9
6
CONTINUOUS
10
17.3972021564
20
21.2894562524
11
17.4078448998
21
21.3116718906
0
LINE
5
888
100
AcDbEntity
8
0
100
AcDbLine
62
9
6
CONTINUOUS
10
17.3358887554
20
20.3028491680
11
17.3366839703
21
20.3045041179
0
LINE
5
889
100
AcDbEntity
8
0
100
AcDbLine
62
0
6
CONTINUOUS
10
17.3222385280
20
21.3697580515
11
17.3323944945
21
21.3907354367
0
LINE
5
88A
100
AcDbEntity
8
0
100
AcDbLine
62
9
6
CONTINUOUS
10
-24.2387320399
20
20.5992067224
11
-24.2470560823
21
20.5840118593
0
LINE
5
88B
100
AcDbEntity
8
0
100
AcDbLine
62
9
6
CONTINUOUS
10
-24.2300338044
20
20.6141905337
11
-24.2387320399
21
20.5992067224
0
LINE
5
88C
100
AcDbEntity
8
0
100
AcDbLine
62
9
6
CONTINUOUS
10
-24.2209620608
20
20.6289636837
11
-24.2300338044
21
20.6141905337
0
LINE
5
88D
100
AcDbEntity
8
0
100
AcDbLine
62
9
6
CONTINUOUS
10
61.4401745040
20
-21.2107523140
11
61.4330642047
21
-21.2343362987
0
LINE
5
88E
100
AcDbEntity
8
0
100
AcDbLine
62
0
6
CONTINUOUS
10
61.5137435090
20
-21.2978816452
11
61.5067669349
21
-21.3200151528
0
LINE
5
88F
100
AcDbEntity
8
0
100
AcDbLine
62
9
6
CONTINUOUS
10
61.4330642047
20
-21.2343362987
11
61.4252312136
21
-21.2576904038
0
LINE
5
890
100
AcDbEntity
8
0
100
AcDbLine
62
0
6
CONTINUOUS
10
61.5067669349
20
-21.3200151528
11
61.4991477180
21
-21.3419402204
0
LINE
5
891
100
AcDbEntity
8
DEFAULT_3
100
AcDbLine
62
9
6
PHANTOM
10
48.2757414002
20
-16.7839603005
11
48.2844873126
21
-16.7590648398
0
LINE
5
892
100
AcDbEntity
8
0
100
AcDbLine
62
0
6
CONTINUOUS
10
48.3316544258
20
-16.7979299166
11
48.3355415163
21
-16.7874620232
0
LINE
5
893
100
AcDbEntity
8
0
100
AcDbLine
62
0
6
CONTINUOUS
10
48.3495124921
20
-16.8434340664
11
48.3456195380
21
-16.8539000168
0
LINE
5
894
100
AcDbEntity
8
0
100
AcDbLine
62
0
6
CONTINUOUS
10
48.2256880110
20
-16.2992804265
11
48.2423583872
21
-16.2546199088
0
LINE
5
895
100
AcDbEntity
8
DEFAULT_3
100
AcDbLine
62
9
6
PHANTOM
10
30.7503313685
20
-8.4694527126
11
30.7520078277
21
-8.4653858372
0
LINE
5
896
100
AcDbEntity
8
0
100
AcDbLine
62
0
6
CONTINUOUS
10
30.4642038293
20
-8.2402405215
11
30.4599288995
21
-8.2505753164
0
LINE
5
897
100
AcDbEntity
8
0
100
AcDbLine
62
0
6
CONTINUOUS
10
30.4459309440
20
-8.2365936001
11
30.4502010274
21
-8.2262735290
0
LINE
5
898
100
AcDbEntity
8
DEFAULT_3
100
AcDbLine
62
9
6
PHANTOM
10
30.5154262472
20
-8.3424099985
11
30.5254402226
21
-8.3182349011
0
LINE
5
899
100
AcDbEntity
8
DEFAULT_3
100
AcDbLine
62
9
6
PHANTOM
10
30.5154324550
20
-8.3768939798
11
30.5254487706
21
-8.3527329723
0
LINE
5
89A
100
AcDbEntity
8
0
100
AcDbLine
62
0
6
CONTINUOUS
10
30.5689878900
20
-8.7499849610
11
30.5877062023
21
-8.7062827491
0
LINE
5
89B
100
AcDbEntity
8
0
100
AcDbLine
62
0
6
CONTINUOUS
10
30.5877062023
20
-8.7188511733
11
30.5689878900
21
-8.7625533852
0
LINE
5
89C
100
AcDbEntity
8
0
100
AcDbLine
62
0
6
CONTINUOUS
10
30.4502010274
20
-8.2262735290
11
30.4548614567
21
-8.2161004516
0
LINE
5
89D
100
AcDbEntity
8
0
100
AcDbLine
62
0
6
CONTINUOUS
10
30.4688653969
20
-8.2300685470
11
30.4642038293
21
-8.2402405215
0
LINE
5
89E
100
AcDbEntity
8
0
100
AcDbLine
62
9
6
CONTINUOUS
10
17.4078448998
20
21.3116718906
11
17.4191664970
21
21.3335495245
0
LINE
5
89F
100
AcDbEntity
8
0
100
AcDbLine
62
0
6
CONTINUOUS
10
17.3323944945
20
21.3907354367
11
17.3431697203
21
21.4114359814
0
LINE
5
8A0
100
AcDbEntity
8
0
100
AcDbLine
62
9
6
CONTINUOUS
10
17.4191664970
20
21.3335495245
11
17.4311562129
21
21.3550684097
0
LINE
5
8A1
100
AcDbEntity
8
0
100
AcDbLine
62
0
6
CONTINUOUS
10
17.3431697203
20
21.4114359814
11
17.3545222074
21
21.4317812818
0
LINE
5
8A2
100
AcDbEntity
8
0
100
AcDbLine
62
9
6
CONTINUOUS
10
-24.2115334686
20
20.6434990370
11
-24.2209620608
21
20.6289636837
0
LINE
5
8A3
100
AcDbEntity
8
0
100
AcDbLine
62
9
6
CONTINUOUS
10
-24.2017473735
20
20.6577961549
11
-24.2115334686
21
20.6434990370
0
LINE
5
8A4
100
AcDbEntity
8
0
100
AcDbLine
62
9
6
CONTINUOUS
10
-24.1916044297
20
20.6718554761
11
-24.2017473735
21
20.6577961549
0
LINE
5
8A5
100
AcDbEntity
8
0
100
AcDbLine
62
9
6
CONTINUOUS
10
61.4252312136
20
-21.2576904038
11
61.4166829578
21
-21.2807924852
0
LINE
5
8A6
100
AcDbEntity
8
0
100
AcDbLine
62
0
6
CONTINUOUS
10
61.4991477180
20
-21.3419402204
11
61.4908791180
21
-21.3636763920
0
LINE
5
8A7
100
AcDbEntity
8
0
100
AcDbLine
62
9
6
CONTINUOUS
10
61.4166829578
20
-21.2807924852
11
61.4074275429
21
-21.3036206377
0
LINE
5
8A8
100
AcDbEntity
8
DEFAULT_3
100
AcDbLine
62
9
6
PHANTOM
10
48.0443445325
20
-16.7031258220
11
48.0426680733
21
-16.7071880129
0
LINE
5
8A9
100
AcDbEntity
8
0
100
AcDbLine
62
0
6
CONTINUOUS
10
61.4908791180
20
-21.3636763920
11
61.4819678752
21
-21.3852041236
0
LINE
5
8AA
100
AcDbEntity
8
DEFAULT_3
100
AcDbLine
62
9
6
PHANTOM
10
48.2792434460
20
-16.7747391147
11
48.2692271305
21
-16.7988954692
0
LINE
5
8AB
100
AcDbEntity
8
0
100
AcDbLine
62
0
6
CONTINUOUS
10
48.3273780191
20
-16.8082458764
11
48.3316544258
21
-16.7979299166
0
LINE
5
8AC
100
AcDbEntity
8
0
100
AcDbLine
62
0
6
CONTINUOUS
10
48.3456195380
20
-16.8539000168
11
48.3413448293
21
-16.8642001932
0
LINE
5
8AD
100
AcDbEntity
8
0
100
AcDbLine
62
0
6
CONTINUOUS
10
48.2069696987
20
-16.3429826384
11
48.2256880110
21
-16.2992804265
0
LINE
5
8AE
100
AcDbEntity
8
DEFAULT_3
100
AcDbLine
62
9
6
PHANTOM
10
48.2648215400
20
-16.8080343700
11
48.2757414002
21
-16.7839603005
0
LINE
5
8AF
100
AcDbEntity
8
0
100
AcDbLine
62
0
6
CONTINUOUS
10
48.3227152216
20
-16.8183999220
11
48.3273780191
21
-16.8082458764
0
LINE
5
8B0
100
AcDbEntity
8
0
100
AcDbLine
62
0
6
CONTINUOUS
10
48.3413448293
20
-16.8642001932
11
48.3366799630
21
-16.8743539217
0
LINE
5
8B1
100
AcDbEntity
8
0
100
AcDbLine
62
0
6
CONTINUOUS
10
30.5877062023
20
-8.7062827491
11
30.6084724082
21
-8.6635729452
0
LINE
5
8B2
100
AcDbEntity
8
0
100
AcDbLine
62
0
6
CONTINUOUS
10
30.6084724082
20
-8.6761413695
11
30.5877062023
21
-8.7188511733
0
LINE
5
8B3
100
AcDbEntity
8
0
100
AcDbLine
62
0
6
CONTINUOUS
10
48.1862034928
20
-16.3856924422
11
48.2069696987
21
-16.3429826384
0
LINE
5
8B4
100
AcDbEntity
8
0
100
AcDbLine
62
0
6
CONTINUOUS
10
30.4548614567
20
-8.2161004516
11
30.4599162363
21
-8.2060737440
0
LINE
5
8B5
100
AcDbEntity
8
0
100
AcDbLine
62
0
6
CONTINUOUS
10
30.4739216350
20
-8.2200433639
11
30.4688653969
21
-8.2300685470
0
LINE
5
8B6
100
AcDbEntity
8
DEFAULT_3
100
AcDbLine
62
9
6
PHANTOM
10
30.7520078277
20
-8.4653858372
11
30.7540146062
21
-8.4615079773
0
LINE
5
8B7
100
AcDbEntity
8
DEFAULT_3
100
AcDbLine
62
9
6
PHANTOM
10
30.5254402226
20
-8.3182349011
11
30.5375235307
21
-8.2950239889
0
LINE
5
8B8
100
AcDbEntity
8
DEFAULT_3
100
AcDbLine
62
9
6
PHANTOM
10
30.5254487706
20
-8.3527329723
11
30.5375339215
21
-8.3295371553
0
LINE
5
8B9
100
AcDbEntity
8
0
100
AcDbLine
62
0
6
CONTINUOUS
10
30.6084724082
20
-8.6635729452
11
30.6312865502
21
-8.6218214471
0
LINE
5
8BA
100
AcDbEntity
8
0
100
AcDbLine
62
0
6
CONTINUOUS
10
30.6312865502
20
-8.6343898714
11
30.6084724082
21
-8.6761413695
0
LINE
5
8BB
100
AcDbEntity
8
0
100
AcDbLine
62
0
6
CONTINUOUS
10
30.4793645109
20
-8.2101810012
11
30.4739216350
21
-8.2200433639
0
LINE
5
8BC
100
AcDbEntity
8
0
100
AcDbLine
62
0
6
CONTINUOUS
10
30.4599162363
20
-8.2060737440
11
30.4653533008
21
-8.1962248679
0
LINE
5
8BD
100
AcDbEntity
8
0
100
AcDbLine
62
0
6
CONTINUOUS
10
17.3545222074
20
21.4317812818
11
17.3664486194
21
21.4517593536
0
LINE
5
8BE
100
AcDbEntity
8
0
100
AcDbLine
62
9
6
CONTINUOUS
10
17.4311562129
20
21.3550684097
11
17.4438026791
21
21.3762081422
0
LINE
5
8BF
100
AcDbEntity
8
0
100
AcDbLine
62
0
6
CONTINUOUS
10
17.3664486194
20
21.4517593536
11
17.3789522925
21
21.4713821810
0
LINE
5
8C0
100
AcDbEntity
8
0
100
AcDbLine
62
9
6
CONTINUOUS
10
17.4438026791
20
21.3762081422
11
17.4570939041
21
21.3969486776
0
LINE
5
8C1
100
AcDbEntity
8
0
100
AcDbLine
62
9
6
CONTINUOUS
10
-24.1811232596
20
20.6856511814
11
-24.1916044297
21
20.6718554761
0
LINE
5
8C2
100
AcDbEntity
8
0
100
AcDbLine
62
9
6
CONTINUOUS
10
-24.1703032408
20
20.6991827882
11
-24.1811232596
21
20.6856511814
0
LINE
5
8C3
100
AcDbEntity
8
0
100
AcDbLine
62
9
6
CONTINUOUS
10
61.4074275429
20
-21.3036206377
11
61.3974737447
21
-21.3261532156
0
LINE
5
8C4
100
AcDbEntity
8
0
100
AcDbLine
62
0
6
CONTINUOUS
10
61.4819678752
20
-21.3852041236
11
61.4724373730
21
-21.4064550147
0
LINE
5
8C5
100
AcDbEntity
8
0
100
AcDbLine
62
9
6
CONTINUOUS
10
61.3974737447
20
-21.3261532156
11
61.3868310012
21
-21.3483688539
0
LINE
5
8C6
100
AcDbEntity
8
0
100
AcDbLine
62
9
6
CONTINUOUS
10
61.4587871456
20
-20.3395461312
11
61.4579919309
21
-20.3412010811
0
LINE
5
8C7
100
AcDbEntity
8
0
100
AcDbLine
62
0
6
CONTINUOUS
10
61.4724373730
20
-21.4064550147
11
61.4622814065
21
-21.4274323999
0
LINE
5
8C8
100
AcDbEntity
8
0
100
AcDbLine
62
0
6
CONTINUOUS
10
48.3176580273
20
-16.8284080373
11
48.3227152216
21
-16.8183999220
0
LINE
5
8C9
100
AcDbEntity
8
0
100
AcDbLine
62
0
6
CONTINUOUS
10
48.3366799630
20
-16.8743539217
11
48.3316209108
21
-16.8843617804
0
LINE
5
8CA
100
AcDbEntity
8
0
100
AcDbLine
62
9
6
CONTINUOUS
10
61.3868310012
20
-21.3483688539
11
61.3755094040
21
-21.3702464877
0
LINE
5
8CB
100
AcDbEntity
8
DEFAULT_3
100
AcDbLine
62
9
6
PHANTOM
10
48.0426680733
20
-16.7071880129
11
48.0406612948
21
-16.7110614017
0
LINE
5
8CC
100
AcDbEntity
8
0
100
AcDbLine
62
0
6
CONTINUOUS
10
61.4622814065
20
-21.4274323999
11
61.4515061807
21
-21.4481329446
0
LINE
5
8CD
100
AcDbEntity
8
DEFAULT_3
100
AcDbLine
62
9
6
PHANTOM
10
48.2692271305
20
-16.7988954692
11
48.2571419795
21
-16.8220868397
0
LINE
5
8CE
100
AcDbEntity
8
0
100
AcDbLine
62
0
6
CONTINUOUS
10
48.1633893508
20
-16.4274439403
11
48.1862034928
21
-16.3856924422
0
LINE
5
8CF
100
AcDbEntity
8
0
100
AcDbLine
62
0
6
CONTINUOUS
10
48.3122144421
20
-16.8382542384
11
48.3176580273
21
-16.8284080373
0
LINE
5
8D0
100
AcDbEntity
8
0
100
AcDbLine
62
0
6
CONTINUOUS
10
48.3316209108
20
-16.8843617804
11
48.3261797058
21
-16.8941923668
0
LINE
5
8D1
100
AcDbEntity
8
DEFAULT_3
100
AcDbLine
62
9
6
PHANTOM
10
48.2517961315
20
-16.8310851197
11
48.2648215400
21
-16.8080343700
0
LINE
5
8D2
100
AcDbEntity
8
0
100
AcDbLine
62
9
6
CONTINUOUS
10
61.4707642339
20
20.9551996457
11
61.4704616397
21
20.9546816352
0
LINE
5
8D3
100
AcDbEntity
8
0
100
AcDbLine
62
9
6
CONTINUOUS
10
17.3239116671
20
-20.9918966089
11
17.3242142377
21
-20.9913786987
0
LINE
5
8D4
100
AcDbEntity
8
0
100
AcDbLine
62
0
6
CONTINUOUS
10
30.4851668129
20
-8.2005395736
11
30.4793645109
21
-8.2101810012
0
LINE
5
8D5
100
AcDbEntity
8
0
100
AcDbLine
62
0
6
CONTINUOUS
10
30.4653533008
20
-8.1962248679
11
30.4711581618
21
-8.1865830971
0
LINE
5
8D6
100
AcDbEntity
8
0
100
AcDbLine
62
0
6
CONTINUOUS
10
30.6312865502
20
-8.6218214471
11
30.6560212530
21
-8.5812656424
0
LINE
5
8D7
100
AcDbEntity
8
0
100
AcDbLine
62
0
6
CONTINUOUS
10
30.6560212530
20
-8.5938340666
11
30.6312865502
21
-8.6343898714
0
LINE
5
8D8
100
AcDbEntity
8
DEFAULT_3
100
AcDbLine
62
9
6
PHANTOM
10
30.5375235307
20
-8.2950239889
11
30.5515842968
21
-8.2729539950
0
LINE
5
8D9
100
AcDbEntity
8
DEFAULT_3
100
AcDbLine
62
9
6
PHANTOM
10
30.7540146062
20
-8.4615079773
11
30.7563594754
21
-8.4578265512
0
LINE
5
8DA
100
AcDbEntity
8
DEFAULT_3
100
AcDbLine
62
9
6
PHANTOM
10
30.5375339215
20
-8.3295371553
11
30.5515953603
21
-8.3074833860
0
LINE
5
8DB
100
AcDbEntity
8
0
100
AcDbLine
62
0
6
CONTINUOUS
10
30.4711581618
20
-8.1865830971
11
30.4773244451
21
-8.1771602611
0
LINE
5
8DC
100
AcDbEntity
8
0
100
AcDbLine
62
0
6
CONTINUOUS
10
30.4913339352
20
-8.1911195702
11
30.4851668129
21
-8.2005395736
0
LINE
5
8DD
100
AcDbEntity
8
0
100
AcDbLine
62
0
6
CONTINUOUS
10
17.3789522925
20
21.4713821810
11
17.3920012379
21
21.4906073137
0
LINE
5
8DE
100
AcDbEntity
8
0
100
AcDbLine
62
9
6
CONTINUOUS
10
17.4570939041
20
21.3969486776
11
17.4710172854
21
21.4172703497
0
LINE
5
8DF
100
AcDbEntity
8
0
100
AcDbLine
62
0
6
CONTINUOUS
10
17.3920012379
20
21.4906073137
11
17.4055878269
21
21.5094256587
0
LINE
5
8E0
100
AcDbEntity
8
0
100
AcDbLine
62
9
6
CONTINUOUS
10
17.4710172854
20
21.4172703497
11
17.4855596209
21
21.4371538896
0
LINE
5
8E1
100
AcDbEntity
8
0
100
AcDbLine
62
0
6
CONTINUOUS
10
17.4055878269
20
21.5094256587
11
17.4197196881
21
21.5278463089
0
LINE
5
8E2
100
AcDbEntity
8
0
100
AcDbLine
62
9
6
CONTINUOUS
10
17.4855596209
20
21.4371538896
11
17.5007071217
21
21.4565804441
0
LINE
5
8E3
100
AcDbEntity
8
0
100
AcDbLine
62
9
6
CONTINUOUS
10
-24.1591449956
20
20.7124507791
11
-24.1703032408
21
20.6991827882
0
LINE
5
8E4
100
AcDbEntity
8
0
100
AcDbLine
62
9
6
CONTINUOUS
10
-24.1476690140
20
20.7254307828
11
-24.1591449956
21
20.7124507791
0
LINE
5
8E5
100
AcDbEntity
8
0
100
AcDbLine
62
9
6
CONTINUOUS
10
-24.1358747111
20
20.7381222710
11
-24.1476690140
21
20.7254307828
0
LINE
5
8E6
100
AcDbEntity
8
0
100
AcDbLine
62
9
6
CONTINUOUS
10
61.3755094040
20
-21.3702464877
11
61.3635196881
21
-21.3917653729
0
LINE
5
8E7
100
AcDbEntity
8
0
100
AcDbLine
62
0
6
CONTINUOUS
10
61.4515061807
20
-21.4481329446
11
61.4401536936
21
-21.4684782450
0
LINE
5
8E8
100
AcDbEntity
8
0
100
AcDbLine
62
0
6
CONTINUOUS
10
61.4401536936
20
-21.4684782450
11
61.4282272816
21
-21.4884563168
0
LINE
5
8E9
100
AcDbEntity
8
0
100
AcDbLine
62
9
6
CONTINUOUS
10
61.3635196881
20
-21.3917653729
11
61.3508732219
21
-21.4129051054
0
LINE
5
8EA
100
AcDbEntity
8
0
100
AcDbLine
62
0
6
CONTINUOUS
10
48.3064114093
20
-16.8478805934
11
48.3122144421
21
-16.8382542384
0
LINE
5
8EB
100
AcDbEntity
8
0
100
AcDbLine
62
0
6
CONTINUOUS
10
48.3261797058
20
-16.8941923668
11
48.3203708154
21
-16.9038165193
0
LINE
5
8EC
100
AcDbEntity
8
0
100
AcDbLine
62
0
6
CONTINUOUS
10
48.1386546480
20
-16.4679997451
11
48.1633893508
21
-16.4274439403
0
LINE
5
8ED
100
AcDbEntity
8
DEFAULT_3
100
AcDbLine
62
9
6
PHANTOM
10
48.0406612948
20
-16.7110614017
11
48.0383164256
21
-16.7147385794
0
LINE
5
8EE
100
AcDbEntity
8
DEFAULT_3
100
AcDbLine
62
9
6
PHANTOM
10
48.2571419795
20
-16.8220868397
11
48.2430805407
21
-16.8441363681
0
LINE
5
8EF
100
AcDbEntity
8
0
100
AcDbLine
62
0
6
CONTINUOUS
10
48.3002435170
20
-16.8572866788
11
48.3064114093
21
-16.8478805934
0
LINE
5
8F0
100
AcDbEntity
8
0
100
AcDbLine
62
0
6
CONTINUOUS
10
48.3203708154
20
-16.9038165193
11
48.3142005713
21
-16.9132224184
0
LINE
5
8F1
100
AcDbEntity
8
0
100
AcDbLine
62
0
6
CONTINUOUS
10
30.6560212530
20
-8.5812656424
11
30.6827106260
21
-8.5418822406
0
LINE
5
8F2
100
AcDbEntity
8
0
100
AcDbLine
62
0
6
CONTINUOUS
10
30.6827106260
20
-8.5544506648
11
30.6560212530
21
-8.5938340666
0
LINE
5
8F3
100
AcDbEntity
8
0
100
AcDbLine
62
0
6
CONTINUOUS
10
30.4773244451
20
-8.1771602611
11
30.4838426762
21
-8.1679720031
0
LINE
5
8F4
100
AcDbEntity
8
0
100
AcDbLine
62
0
6
CONTINUOUS
10
30.4978604834
20
-8.1819205018
11
30.4913339352
21
-8.1911195702
0
LINE
5
8F5
100
AcDbEntity
8
0
100
AcDbLine
62
0
6
CONTINUOUS
10
30.6827106260
20
-8.5418822406
11
30.7113205598
21
-8.5036945321
0
LINE
5
8F6
100
AcDbEntity
8
0
100
AcDbLine
62
0
6
CONTINUOUS
10
30.7113205598
20
-8.5162629564
11
30.6827106260
21
-8.5544506648
0
LINE
5
8F7
100
AcDbEntity
8
0
100
AcDbLine
62
0
6
CONTINUOUS
10
17.4197196881
20
21.5278463089
11
17.4343877183
21
21.5458540918
0
LINE
5
8F8
100
AcDbEntity
8
0
100
AcDbLine
62
9
6
CONTINUOUS
10
17.5007071217
20
21.4565804441
11
17.5164454250
21
21.4755315929
0
LINE
5
8F9
100
AcDbEntity
8
0
100
AcDbLine
62
0
6
CONTINUOUS
10
17.4343877183
20
21.5458540918
11
17.4496076908
21
21.5634663008
0
LINE
5
8FA
100
AcDbEntity
8
0
100
AcDbLine
62
9
6
CONTINUOUS
10
17.5164454250
20
21.4755315929
11
17.5327596078
21
21.4939893667
0
LINE
5
8FB
100
AcDbEntity
8
0
100
AcDbLine
62
9
6
CONTINUOUS
10
-24.1237626718
20
20.7505257719
11
-24.1358747111
21
20.7381222710
0
LINE
5
8FC
100
AcDbEntity
8
0
100
AcDbLine
62
9
6
CONTINUOUS
10
-24.1113551406
20
20.7626184993
11
-24.1237626718
21
20.7505257719
0
LINE
5
8FD
100
AcDbEntity
8
0
100
AcDbLine
62
0
6
CONTINUOUS
10
61.4282272816
20
-21.4884563168
11
61.4157236085
21
-21.5080791443
0
LINE
5
8FE
100
AcDbEntity
8
0
100
AcDbLine
62
9
6
CONTINUOUS
10
61.3508732219
20
-21.4129051054
11
61.3375819969
21
-21.4336456408
0
LINE
5
8FF
100
AcDbEntity
8
0
100
AcDbLine
62
0
6
CONTINUOUS
10
48.1119652750
20
-16.5073831468
11
48.1386546480
21
-16.4679997451
0
LINE
5
900
100
AcDbEntity
8
0
100
AcDbLine
62
0
6
CONTINUOUS
10
61.4157236085
20
-21.5080791443
11
61.4026746631
21
-21.5273042769
0
LINE
5
901
100
AcDbEntity
8
0
100
AcDbLine
62
9
6
CONTINUOUS
10
61.3375819969
20
-21.4336456408
11
61.3236586156
21
-21.4539673129
0
LINE
5
902
100
AcDbEntity
8
DEFAULT_3
100
AcDbLine
62
9
6
PHANTOM
10
48.2367815898
20
-16.8529104723
11
48.2517961315
21
-16.8310851197
0
LINE
5
903
100
AcDbEntity
8
0
100
AcDbLine
62
0
6
CONTINUOUS
10
48.2937161771
20
-16.8664729181
11
48.3002435170
21
-16.8572866788
0
LINE
5
904
100
AcDbEntity
8
0
100
AcDbLine
62
0
6
CONTINUOUS
10
48.3142005713
20
-16.9132224184
11
48.3076784257
21
-16.9223944011
0
LINE
5
905
100
AcDbEntity
8
0
100
AcDbLine
62
0
6
CONTINUOUS
10
48.0833553413
20
-16.5455708553
11
48.1119652750
21
-16.5073831468
0
LINE
5
906
100
AcDbEntity
8
DEFAULT_3
100
AcDbLine
62
9
6
PHANTOM
10
30.7563594754
20
-8.4578265512
11
30.7590346638
21
-8.4543341410
0
LINE
5
907
100
AcDbEntity
8
0
100
AcDbLine
62
0
6
CONTINUOUS
10
30.5047030632
20
-8.1729990154
11
30.4978604834
21
-8.1819205018
0
LINE
5
908
100
AcDbEntity
8
DEFAULT_3
100
AcDbLine
62
9
6
PHANTOM
10
48.0383164256
20
-16.7147385794
11
48.0356412372
21
-16.7182269557
0
LINE
5
909
100
AcDbEntity
8
0
100
AcDbLine
62
0
6
CONTINUOUS
10
30.4838426762
20
-8.1679720031
11
30.4906890647
21
-8.1590504078
0
LINE
5
90A
100
AcDbEntity
8
DEFAULT_3
100
AcDbLine
62
9
6
PHANTOM
10
30.5515842968
20
-8.2729539950
11
30.5675155437
21
-8.2521930123
0
LINE
5
90B
100
AcDbEntity
8
DEFAULT_3
100
AcDbLine
62
9
6
PHANTOM
10
30.5515953603
20
-8.3074833860
11
30.5675260976
21
-8.2867387976
0
LINE
5
90C
100
AcDbEntity
8
DEFAULT_3
100
AcDbLine
62
9
6
PHANTOM
10
48.2430805407
20
-16.8441363681
11
48.2271498034
21
-16.8648769220
0
LINE
5
90D
100
AcDbEntity
8
0
100
AcDbLine
62
0
6
CONTINUOUS
10
48.2868725678
20
-16.8753826491
11
48.2937161771
21
-16.8664729181
0
LINE
5
90E
100
AcDbEntity
8
0
100
AcDbLine
62
0
6
CONTINUOUS
10
48.3076784257
20
-16.9223944011
11
48.3008281760
21
-16.9313004422
0
LINE
5
90F
100
AcDbEntity
8
DEFAULT_3
100
AcDbLine
62
9
6
PHANTOM
10
30.4973379505
20
-9.6439367067
11
30.4978922041
21
-9.6432468769
0
LINE
5
910
100
AcDbEntity
8
DEFAULT_3
100
AcDbLine
62
9
6
PHANTOM
10
30.4978922041
20
-15.4381546489
11
30.4973379505
21
-15.4388444787
0
LINE
5
911
100
AcDbEntity
8
0
100
AcDbLine
62
0
6
CONTINUOUS
10
30.7113205598
20
-8.5036945321
11
30.7416213508
21
-8.4670097758
0
LINE
5
912
100
AcDbEntity
8
0
100
AcDbLine
62
0
6
CONTINUOUS
10
30.7416213508
20
-8.4795782000
11
30.7113205598
21
-8.5162629564
0
LINE
5
913
100
AcDbEntity
8
0
100
AcDbLine
62
0
6
CONTINUOUS
10
30.5118541249
20
-8.1643679373
11
30.5047030632
21
-8.1729990154
0
LINE
5
914
100
AcDbEntity
8
0
100
AcDbLine
62
0
6
CONTINUOUS
10
30.4906890647
20
-8.1590504078
11
30.4978427539
21
-8.1504176943
0
LINE
5
915
100
AcDbEntity
8
0
100
AcDbLine
62
0
6
CONTINUOUS
10
17.4496076908
20
21.5634663008
11
17.4653638322
21
21.5806656426
0
LINE
5
916
100
AcDbEntity
8
0
100
AcDbLine
62
9
6
CONTINUOUS
10
17.3366839703
20
20.3045041179
11
17.3382204532
21
20.3061575325
0
LINE
5
917
100
AcDbEntity
8
0
100
AcDbLine
62
9
6
CONTINUOUS
10
17.5327596078
20
21.4939893667
11
17.5496342013
21
21.5119362640
0
LINE
5
918
100
AcDbEntity
8
0
100
AcDbLine
62
0
6
CONTINUOUS
10
17.4653638322
20
21.5806656426
11
17.4815997192
21
21.5973850648
0
LINE
5
919
100
AcDbEntity
8
0
100
AcDbLine
62
9
6
CONTINUOUS
10
17.5496342013
20
21.5119362640
11
17.5670532049
21
21.5293552676
0
LINE
5
91A
100
AcDbEntity
8
0
100
AcDbLine
62
0
6
CONTINUOUS
10
17.4815997192
20
21.5973850648
11
17.4983188281
21
21.6136209515
0
LINE
5
91B
100
AcDbEntity
8
0
100
AcDbLine
62
9
6
CONTINUOUS
10
-24.0986515740
20
20.7743998819
11
-24.1113551406
21
20.7626184993
0
LINE
5
91C
100
AcDbEntity
8
0
100
AcDbLine
62
9
6
CONTINUOUS
10
-23.6416731790
20
21.7546910812
11
-23.6412500542
21
21.7550778018
0
LINE
5
91D
100
AcDbEntity
8
0
100
AcDbLine
62
9
6
CONTINUOUS
10
-24.0856525155
20
20.7858704909
11
-24.0986515740
21
20.7743998819
0
LINE
5
91E
100
AcDbEntity
8
0
100
AcDbLine
62
9
6
CONTINUOUS
10
-24.0723818402
20
20.7970092530
11
-24.0856525155
21
20.7858704909
0
LINE
5
91F
100
AcDbEntity
8
0
100
AcDbLine
62
0
6
CONTINUOUS
10
61.4026746631
20
-21.5273042769
11
61.3890880741
21
-21.5461226219
0
LINE
5
920
100
AcDbEntity
8
0
100
AcDbLine
62
9
6
CONTINUOUS
10
61.3236586156
20
-21.4539673129
11
61.3091162801
21
-21.4738508528
0
LINE
5
921
100
AcDbEntity
8
0
100
AcDbLine
62
0
6
CONTINUOUS
10
61.3890880741
20
-21.5461226219
11
61.3749562129
21
-21.5645432721
0
LINE
5
922
100
AcDbEntity
8
0
100
AcDbLine
62
9
6
CONTINUOUS
10
61.3091162801
20
-21.4738508528
11
61.2939687793
21
-21.4932774073
0
LINE
5
923
100
AcDbEntity
8
0
100
AcDbLine
62
0
6
CONTINUOUS
10
61.3749562129
20
-21.5645432721
11
61.3602881827
21
-21.5825510550
0
LINE
5
924
100
AcDbEntity
8
0
100
AcDbLine
62
0
6
CONTINUOUS
10
48.0530545502
20
-16.5822556117
11
48.0833553413
21
-16.5455708553
0
LINE
5
925
100
AcDbEntity
8
DEFAULT_3
100
AcDbLine
62
9
6
PHANTOM
10
48.2198994874
20
-16.8733375999
11
48.2367815898
21
-16.8529104723
0
LINE
5
926
100
AcDbEntity
8
0
100
AcDbLine
62
0
6
CONTINUOUS
10
48.2797201427
20
-16.8840031517
11
48.2868725678
21
-16.8753826491
0
LINE
5
927
100
AcDbEntity
8
0
100
AcDbLine
62
0
6
CONTINUOUS
10
48.3008281760
20
-16.9313004422
11
48.2936706254
21
-16.9399183675
0
LINE
5
928
100
AcDbEntity
8
0
100
AcDbLine
62
0
6
CONTINUOUS
10
30.4978427539
20
-8.1504176943
11
30.5053007003
21
-8.1420728115
0
LINE
5
929
100
AcDbEntity
8
0
100
AcDbLine
62
0
6
CONTINUOUS
10
30.5193212181
20
-8.1560144410
11
30.5118541249
21
-8.1643679373
0
LINE
5
92A
100
AcDbEntity
8
0
100
AcDbLine
62
0
6
CONTINUOUS
10
30.7416213508
20
-8.4670097758
11
30.7735986260
21
-8.4318682508
0
LINE
5
92B
100
AcDbEntity
8
0
100
AcDbLine
62
0
6
CONTINUOUS
10
30.7735986260
20
-8.4444366750
11
30.7416213508
21
-8.4795782000
0
LINE
5
92C
100
AcDbEntity
8
DEFAULT_3
100
AcDbLine
62
9
6
PHANTOM
10
30.7590346638
20
-8.4543341410
11
30.7619796547
21
-8.4511110528
0
LINE
5
92D
100
AcDbEntity
8
DEFAULT_3
100
AcDbLine
62
9
6
PHANTOM
10
30.5675155437
20
-8.2521930123
11
30.5851962523
21
-8.2328989349
0
LINE
5
92E
100
AcDbEntity
8
DEFAULT_3
100
AcDbLine
62
9
6
PHANTOM
10
30.5675260976
20
-8.2867387976
11
30.5852054758
21
-8.2674603265
0
LINE
5
92F
100
AcDbEntity
8
0
100
AcDbLine
62
0
6
CONTINUOUS
10
30.5053007003
20
-8.1420728115
11
30.5130647219
21
-8.1340120892
0
LINE
5
930
100
AcDbEntity
8
0
100
AcDbLine
62
0
6
CONTINUOUS
10
30.5270835971
20
-8.1479566942
11
30.5193212181
21
-8.1560144410
0
LINE
5
931
100
AcDbEntity
8
0
100
AcDbLine
62
9
6
CONTINUOUS
10
17.2473379505
20
-21.0684703255
11
17.3239116671
21
-20.9918966089
0
LINE
5
932
100
AcDbEntity
8
0
100
AcDbLine
62
9
6
CONTINUOUS
10
60.7474597944
20
21.8316515184
11
60.6708860778
21
21.7550778018
0
LINE
5
933
100
AcDbEntity
8
0
100
AcDbLine
62
9
6
CONTINUOUS
10
17.5670532049
20
21.5293552676
11
17.5850001022
21
21.5462298611
0
LINE
5
934
100
AcDbEntity
8
0
100
AcDbLine
62
0
6
CONTINUOUS
10
17.4983188281
20
21.6136209515
11
17.5155176826
21
21.6293769186
0
LINE
5
935
100
AcDbEntity
8
0
100
AcDbLine
62
9
6
CONTINUOUS
10
17.5850001022
20
21.5462298611
11
17.6034578760
21
21.5625440439
0
LINE
5
936
100
AcDbEntity
8
0
100
AcDbLine
62
0
6
CONTINUOUS
10
17.5155176826
20
21.6293769186
11
17.5331294304
21
21.6445967622
0
LINE
5
937
100
AcDbEntity
8
0
100
AcDbLine
62
9
6
CONTINUOUS
10
17.6034578760
20
21.5625440439
11
17.6224090248
21
21.5782823472
0
LINE
5
938
100
AcDbEntity
8
0
100
AcDbLine
62
9
6
CONTINUOUS
10
-24.0588390486
20
20.8078155583
11
-24.0723818402
21
20.7970092530
0
LINE
5
939
100
AcDbEntity
8
0
100
AcDbLine
62
9
6
CONTINUOUS
10
-24.0450246401
20
20.8182900167
11
-24.0588390486
21
20.8078155583
0
LINE
5
93A
100
AcDbEntity
8
0
100
AcDbLine
62
9
6
CONTINUOUS
10
-24.0309639886
20
20.8284133849
11
-24.0450246401
21
20.8182900167
0
LINE
5
93B
100
AcDbEntity
8
0
100
AcDbLine
62
9
6
CONTINUOUS
10
61.2939687793
20
-21.4932774073
11
61.2782304760
21
-21.5122285561
0
LINE
5
93C
100
AcDbEntity
8
0
100
AcDbLine
62
0
6
CONTINUOUS
10
61.3602881827
20
-21.5825510550
11
61.3450682103
21
-21.6001632640
0
LINE
5
93D
100
AcDbEntity
8
0
100
AcDbLine
62
9
6
CONTINUOUS
10
61.2782304760
20
-21.5122285561
11
61.2619162932
21
-21.5306863299
0
LINE
5
93E
100
AcDbEntity
8
0
100
AcDbLine
62
0
6
CONTINUOUS
10
48.2722514483
20
-16.8923471461
11
48.2797201427
21
-16.8840031517
0
LINE
5
93F
100
AcDbEntity
8
0
100
AcDbLine
62
0
6
CONTINUOUS
10
48.2936706254
20
-16.9399183675
11
48.2862088137
21
-16.9482491548
0
LINE
5
940
100
AcDbEntity
8
0
100
AcDbLine
62
0
6
CONTINUOUS
10
48.0210772750
20
-16.6173971366
11
48.0530545502
21
-16.5822556117
0
LINE
5
941
100
AcDbEntity
8
DEFAULT_3
100
AcDbLine
62
9
6
PHANTOM
10
48.0356412372
20
-16.7182269557
11
48.0326962463
21
-16.7214463182
0
LINE
5
942
100
AcDbEntity
8
0
100
AcDbLine
62
0
6
CONTINUOUS
10
61.3450682103
20
-21.6001632640
11
61.3293120689
21
-21.6173626058
0
LINE
5
943
100
AcDbEntity
8
DEFAULT_3
100
AcDbLine
62
9
6
PHANTOM
10
48.2271498034
20
-16.8648769220
11
48.2094704253
21
-16.8841516671
0
LINE
5
944
100
AcDbEntity
8
0
100
AcDbLine
62
9
6
CONTINUOUS
10
61.4579919309
20
-20.3412010811
11
61.4564554484
21
-20.3428544958
0
LINE
5
945
100
AcDbEntity
8
0
100
AcDbLine
62
9
6
CONTINUOUS
10
61.2619162932
20
-21.5306863299
11
61.2450416997
21
-21.5486332272
0
LINE
5
946
100
AcDbEntity
8
DEFAULT_3
100
AcDbLine
62
9
6
PHANTOM
10
48.2973379505
20
-16.6722266645
11
48.2959683769
21
-16.6736785040
0
LINE
5
947
100
AcDbEntity
8
0
100
AcDbLine
62
0
6
CONTINUOUS
10
48.2644873023
20
-16.9003961307
11
48.2722514483
21
-16.8923471461
0
LINE
5
948
100
AcDbEntity
8
0
100
AcDbLine
62
0
6
CONTINUOUS
10
48.2862088137
20
-16.9482491548
11
48.2784410209
21
-16.9562963656
0
LINE
5
949
100
AcDbEntity
8
DEFAULT_3
100
AcDbLine
62
9
6
PHANTOM
10
48.2012693102
20
-16.8921984322
11
48.2198994874
21
-16.8733375999
0
LINE
5
94A
100
AcDbEntity
8
0
100
AcDbLine
62
9
6
CONTINUOUS
10
18.0472161066
20
-21.8683484816
11
18.1237898232
21
-21.7917747650
0
LINE
5
94B
100
AcDbEntity
8
0
100
AcDbLine
62
9
6
CONTINUOUS
10
61.5473379505
20
21.0317733623
11
61.4707642339
21
20.9551996457
0
LINE
5
94C
100
AcDbEntity
8
0
100
AcDbLine
62
9
6
CONTINUOUS
10
48.0555678278
20
-8.0601300274
11
48.0695380561
21
-8.0461597991
0
LINE
5
94D
100
AcDbEntity
8
0
100
AcDbLine
62
9
6
CONTINUOUS
10
48.3554465893
20
-8.3602284197
11
48.3694552252
21
-8.3462197838
0
LINE
5
94E
100
AcDbEntity
8
0
100
AcDbLine
62
0
6
CONTINUOUS
10
30.7735986260
20
-8.4318682508
11
30.8072667585
21
-8.3982296780
0
LINE
5
94F
100
AcDbEntity
8
0
100
AcDbLine
62
0
6
CONTINUOUS
10
30.8072667585
20
-8.4107981022
11
30.7735986260
21
-8.4444366750
0
LINE
5
950
100
AcDbEntity
8
0
100
AcDbLine
62
0
6
CONTINUOUS
10
47.9874091425
20
-16.6510357095
11
48.0210772750
21
-16.6173971366
0
LINE
5
951
100
AcDbEntity
8
0
100
AcDbLine
62
0
6
CONTINUOUS
10
30.5130647219
20
-8.1340120892
11
30.5211241410
21
-8.1262466195
0
LINE
5
952
100
AcDbEntity
8
0
100
AcDbLine
62
0
6
CONTINUOUS
10
30.5351406683
20
-8.1401937204
11
30.5270835971
21
-8.1479566942
0
LINE
5
953
100
AcDbEntity
8
DEFAULT_3
100
AcDbLine
62
9
6
PHANTOM
10
30.5851962523
20
-8.2328989349
11
30.6044925553
21
-8.2152182066
0
LINE
5
954
100
AcDbEntity
8
DEFAULT_3
100
AcDbLine
62
9
6
PHANTOM
10
30.5852054758
20
-8.2674603265
11
30.6044989973
21
-8.2497946461
0
LINE
5
955
100
AcDbEntity
8
DEFAULT_3
100
AcDbLine
62
9
6
PHANTOM
10
30.7619796547
20
-8.4511110528
11
30.7652012116
21
-8.4481635955
0
LINE
5
956
100
AcDbEntity
8
0
100
AcDbLine
62
0
6
CONTINUOUS
10
30.8072667585
20
-8.3982296780
11
30.8424391638
21
-8.3662804778
0
LINE
5
957
100
AcDbEntity
8
0
100
AcDbLine
62
0
6
CONTINUOUS
10
30.8424391638
20
-8.3788489020
11
30.8072667585
21
-8.4107981022
0
LINE
5
958
100
AcDbEntity
8
0
100
AcDbLine
62
0
6
CONTINUOUS
10
30.5211241410
20
-8.1262466195
11
30.5294676153
21
-8.1187873381
0
LINE
5
959
100
AcDbEntity
8
0
100
AcDbLine
62
0
6
CONTINUOUS
10
30.5434930252
20
-8.1327264961
11
30.5351406683
21
-8.1401937204
0
LINE
5
95A
100
AcDbEntity
8
0
100
AcDbLine
62
0
6
CONTINUOUS
10
17.5331294304
20
21.6445967622
11
17.5511367819
21
21.6592647498
0
LINE
5
95B
100
AcDbEntity
8
0
100
AcDbLine
62
9
6
CONTINUOUS
10
17.6224090248
20
21.5782823472
11
17.6418355793
21
21.5934298480
0
LINE
5
95C
100
AcDbEntity
8
0
100
AcDbLine
62
0
6
CONTINUOUS
10
17.5511367819
20
21.6592647498
11
17.5695570267
21
21.6733966139
0
LINE
5
95D
100
AcDbEntity
8
0
100
AcDbLine
62
9
6
CONTINUOUS
10
17.6418355793
20
21.5934298480
11
17.6617191193
21
21.6079721835
0
LINE
5
95E
100
AcDbEntity
8
0
100
AcDbLine
62
9
6
CONTINUOUS
10
17.3382204532
20
20.3061575325
11
17.3404967786
21
20.3078078782
0
LINE
5
95F
100
AcDbEntity
8
0
100
AcDbLine
62
0
6
CONTINUOUS
10
17.5695570267
20
21.6733966139
11
17.5883751808
21
21.6869833472
0
LINE
5
960
100
AcDbEntity
8
0
100
AcDbLine
62
9
6
CONTINUOUS
10
-24.0166566432
20
20.8381850163
11
-24.0309639886
21
20.8284133849
0
LINE
5
961
100
AcDbEntity
8
0
100
AcDbLine
62
9
6
CONTINUOUS
10
-24.0021030548
20
20.8476055575
11
-24.0166566432
21
20.8381850163
0
LINE
5
962
100
AcDbEntity
8
0
100
AcDbLine
62
9
6
CONTINUOUS
10
-23.9873299495
20
20.8566577044
11
-24.0021030548
21
20.8476055575
0
LINE
5
963
100
AcDbEntity
8
0
100
AcDbLine
62
0
6
CONTINUOUS
10
61.3293120689
20
-21.6173626058
11
61.3130761819
21
-21.6340820280
0
LINE
5
964
100
AcDbEntity
8
0
100
AcDbLine
62
9
6
CONTINUOUS
10
61.2450416997
20
-21.5486332272
11
61.2276226961
21
-21.5660522308
0
LINE
5
965
100
AcDbEntity
8
0
100
AcDbLine
62
0
6
CONTINUOUS
10
61.3130761819
20
-21.6340820280
11
61.2963570729
21
-21.6503179147
0
LINE
5
966
100
AcDbEntity
8
0
100
AcDbLine
62
0
6
CONTINUOUS
10
48.2564284003
20
-16.9081509637
11
48.2644873023
21
-16.9003961307
0
LINE
5
967
100
AcDbEntity
8
0
100
AcDbLine
62
0
6
CONTINUOUS
10
48.2784410209
20
-16.9562963656
11
48.2703779547
21
-16.9640488651
0
LINE
5
968
100
AcDbEntity
8
0
100
AcDbLine
62
9
6
CONTINUOUS
10
61.2276226961
20
-21.5660522308
11
61.2096757988
21
-21.5829268243
0
LINE
5
969
100
AcDbEntity
8
0
100
AcDbLine
62
0
6
CONTINUOUS
10
61.2963570729
20
-21.6503179147
11
61.2791582184
21
-21.6660738819
0
LINE
5
96A
100
AcDbEntity
8
DEFAULT_3
100
AcDbLine
62
9
6
PHANTOM
10
48.2094704253
20
-16.8841516671
11
48.1901769037
21
-16.9018139391
0
LINE
5
96B
100
AcDbEntity
8
DEFAULT_3
100
AcDbLine
62
9
6
PHANTOM
10
48.0326962463
20
-16.7214463182
11
48.0294746894
21
-16.7243903657
0
LINE
5
96C
100
AcDbEntity
8
0
100
AcDbLine
62
0
6
CONTINUOUS
10
47.9522367373
20
-16.6829849096
11
47.9874091425
21
-16.6510357095
0
LINE
5
96D
100
AcDbEntity
8
0
100
AcDbLine
62
0
6
CONTINUOUS
10
48.2480740468
20
-16.9156107869
11
48.2564284003
21
-16.9081509637
0
LINE
5
96E
100
AcDbEntity
8
0
100
AcDbLine
62
0
6
CONTINUOUS
10
48.2703779547
20
-16.9640488651
11
48.2620309095
21
-16.9714957542
0
LINE
5
96F
100
AcDbEntity
8
DEFAULT_3
100
AcDbLine
62
9
6
PHANTOM
10
48.1810496595
20
-16.9093311535
11
48.2012693102
21
-16.8921984322
0
LINE
5
970
100
AcDbEntity
8
0
100
AcDbLine
62
0
6
CONTINUOUS
10
30.5294676153
20
-8.1187873381
11
30.5380983996
21
-8.1116327699
0
LINE
5
971
100
AcDbEntity
8
0
100
AcDbLine
62
0
6
CONTINUOUS
10
30.5521217029
20
-8.1255761178
11
30.5434930252
21
-8.1327264961
0
LINE
5
972
100
AcDbEntity
8
0
100
AcDbLine
62
0
6
CONTINUOUS
10
30.8424391638
20
-8.3662804778
11
30.8791561566
21
-8.3360062900
0
LINE
5
973
100
AcDbEntity
8
0
100
AcDbLine
62
0
6
CONTINUOUS
10
30.8791561566
20
-8.3485747142
11
30.8424391638
21
-8.3788489020
0
LINE
5
974
100
AcDbEntity
8
0
100
AcDbLine
62
0
6
CONTINUOUS
10
30.5380983996
20
-8.1116327699
11
30.5470174702
21
-8.1047859257
0
LINE
5
975
100
AcDbEntity
8
DEFAULT_3
100
AcDbLine
62
9
6
PHANTOM
10
30.6044925553
20
-8.2152182066
11
30.6252574150
21
-8.1992859373
0
LINE
5
976
100
AcDbEntity
8
0
100
AcDbLine
62
0
6
CONTINUOUS
10
30.5610394339
20
-8.1187352233
11
30.5521217029
21
-8.1255761178
0
LINE
5
977
100
AcDbEntity
8
DEFAULT_3
100
AcDbLine
62
9
6
PHANTOM
10
30.7652012116
20
-8.4481635955
11
30.7686925709
21
-8.4454854607
0
LINE
5
978
100
AcDbEntity
8
DEFAULT_3
100
AcDbLine
62
9
6
PHANTOM
10
30.6044989973
20
-8.2497946461
11
30.6252598539
21
-8.2338761792
0
LINE
5
979
100
AcDbEntity
8
0
100
AcDbLine
62
9
6
CONTINUOUS
10
17.6617191193
20
21.6079721835
11
17.6820407913
21
21.6218955648
0
LINE
5
97A
100
AcDbEntity
8
0
100
AcDbLine
62
0
6
CONTINUOUS
10
17.5883751808
20
21.6869833472
11
17.6076004952
21
21.7000326791
0
LINE
5
97B
100
AcDbEntity
8
0
100
AcDbLine
62
9
6
CONTINUOUS
10
17.6820407913
20
21.6218955648
11
17.7027813267
21
21.6351867898
0
LINE
5
97C
100
AcDbEntity
8
0
100
AcDbLine
62
0
6
CONTINUOUS
10
17.6076004952
20
21.7000326791
11
17.6272237190
21
21.7125368802
0
LINE
5
97D
100
AcDbEntity
8
0
100
AcDbLine
62
9
6
CONTINUOUS
10
-23.9723369217
20
20.8653407812
11
-23.9873299495
21
20.8566577044
0
LINE
5
97E
100
AcDbEntity
8
0
100
AcDbLine
62
9
6
CONTINUOUS
10
-23.9571243770
20
20.8736554637
11
-23.9723369217
21
20.8653407812
0
LINE
5
97F
100
AcDbEntity
8
0
100
AcDbLine
62
9
6
CONTINUOUS
10
61.2096757988
20
-21.5829268243
11
61.1912180250
21
-21.5992410071
0
LINE
5
980
100
AcDbEntity
8
0
100
AcDbLine
62
0
6
CONTINUOUS
10
61.2791582184
20
-21.6660738819
11
61.2615464707
21
-21.6812937254
0
LINE
5
981
100
AcDbEntity
8
0
100
AcDbLine
62
9
6
CONTINUOUS
10
61.1912180250
20
-21.5992410071
11
61.1722668762
21
-21.6149793104
0
LINE
5
982
100
AcDbEntity
8
0
100
AcDbLine
62
0
6
CONTINUOUS
10
48.2394429727
20
-16.9227545247
11
48.2480740468
21
-16.9156107869
0
LINE
5
983
100
AcDbEntity
8
0
100
AcDbLine
62
0
6
CONTINUOUS
10
48.2620309095
20
-16.9714957542
11
48.2533966263
21
-16.9786385314
0
LINE
5
984
100
AcDbEntity
8
0
100
AcDbLine
62
0
6
CONTINUOUS
10
47.9155197444
20
-16.7132590974
11
47.9522367373
21
-16.6829849096
0
LINE
5
985
100
AcDbEntity
8
0
100
AcDbLine
62
0
6
CONTINUOUS
10
61.2615464707
20
-21.6812937254
11
61.2435391191
21
-21.6959617130
0
LINE
5
986
100
AcDbEntity
8
0
100
AcDbLine
62
0
6
CONTINUOUS
10
45.5647170876
20
-8.1222115511
11
45.5692554374
21
-8.1187313086
0
LINE
5
987
100
AcDbEntity
8
DEFAULT_3
100
AcDbLine
62
9
6
PHANTOM
10
48.1901769037
20
-16.9018139391
11
48.1694160471
21
-16.9177293062
0
LINE
5
988
100
AcDbEntity
8
DEFAULT_3
100
AcDbLine
62
9
6
PHANTOM
10
48.0294746894
20
-16.7243903657
11
48.0259833301
21
-16.7270654003
0
LINE
5
989
100
AcDbEntity
8
0
100
AcDbLine
62
0
6
CONTINUOUS
10
48.2305223689
20
-16.9295896013
11
48.2394429727
21
-16.9227545247
0
LINE
5
98A
100
AcDbEntity
8
0
100
AcDbLine
62
0
6
CONTINUOUS
10
48.2533966263
20
-16.9786385314
11
48.2444741017
21
-16.9854741767
0
LINE
5
98B
100
AcDbEntity
8
0
100
AcDbLine
62
0
6
CONTINUOUS
10
30.8791561566
20
-8.3360062900
11
30.9173774222
21
-8.3074214749
0
LINE
5
98C
100
AcDbEntity
8
0
100
AcDbLine
62
0
6
CONTINUOUS
10
30.9173774222
20
-8.3199898991
11
30.8791561566
21
-8.3485747142
0
LINE
5
98D
100
AcDbEntity
8
0
100
AcDbLine
62
0
6
CONTINUOUS
10
47.8772984788
20
-16.7418439125
11
47.9155197444
21
-16.7132590974
0
LINE
5
98E
100
AcDbEntity
8
0
100
AcDbLine
62
0
6
CONTINUOUS
10
30.5470174702
20
-8.1047859257
11
30.5562025992
21
-8.0982675829
0
LINE
5
98F
100
AcDbEntity
8
0
100
AcDbLine
62
0
6
CONTINUOUS
10
30.5702334857
20
-8.1122111748
11
30.5610394339
21
-8.1187352233
0
LINE
5
990
100
AcDbEntity
8
0
100
AcDbLine
62
0
6
CONTINUOUS
10
45.5783725292
20
-8.1204610919
11
45.5759057177
21
-8.1222115511
0
LINE
5
991
100
AcDbEntity
8
0
100
AcDbLine
62
0
6
CONTINUOUS
10
45.5692554374
20
-8.1187313086
11
45.5784525450
21
-8.1122071919
0
LINE
5
992
100
AcDbEntity
8
0
100
AcDbLine
62
0
6
CONTINUOUS
10
30.9173774222
20
-8.3074214749
11
30.9567954318
21
-8.2807555344
0
LINE
5
993
100
AcDbEntity
8
0
100
AcDbLine
62
0
6
CONTINUOUS
10
30.9567954318
20
-8.2933239586
11
30.9173774222
21
-8.3199898991
0
LINE
5
994
100
AcDbEntity
8
0
100
AcDbLine
62
0
6
CONTINUOUS
10
30.5796466961
20
-8.1060471568
11
30.5702334857
21
-8.1122111748
0
LINE
5
995
100
AcDbEntity
8
0
100
AcDbLine
62
0
6
CONTINUOUS
10
30.5562025992
20
-8.0982675829
11
30.5656213240
21
-8.0921017156
0
LINE
5
996
100
AcDbEntity
8
0
100
AcDbLine
62
9
6
CONTINUOUS
10
17.7027813267
20
21.6351867898
11
17.7239210592
21
21.6478332560
0
LINE
5
997
100
AcDbEntity
8
0
100
AcDbLine
62
0
6
CONTINUOUS
10
17.6272237190
20
21.7125368802
11
17.6472021151
21
21.7244637554
0
LINE
5
998
100
AcDbEntity
8
0
100
AcDbLine
62
0
6
CONTINUOUS
10
17.6472021151
20
21.7244637554
11
17.6675476181
21
21.7358165798
0
LINE
5
999
100
AcDbEntity
8
0
100
AcDbLine
62
9
6
CONTINUOUS
10
17.7239210592
20
21.6478332560
11
17.7454399444
21
21.6598229719
0
LINE
5
99A
100
AcDbEntity
8
0
100
AcDbLine
62
9
6
CONTINUOUS
10
17.3404967786
20
20.3078078782
11
17.3435108350
21
20.3094536239
0
LINE
5
99B
100
AcDbEntity
8
0
100
AcDbLine
62
0
6
CONTINUOUS
10
17.6675476181
20
21.7358165798
11
17.6882482934
21
21.7465920781
0
LINE
5
99C
100
AcDbEntity
8
0
100
AcDbLine
62
9
6
CONTINUOUS
10
17.7454399444
20
21.6598229719
11
17.7673175783
21
21.6711445691
0
LINE
5
99D
100
AcDbEntity
8
0
100
AcDbLine
62
9
6
CONTINUOUS
10
-23.9417202582
20
20.8815864753
11
-23.9571243770
21
20.8736554637
0
LINE
5
99E
100
AcDbEntity
8
0
100
AcDbLine
62
9
6
CONTINUOUS
10
-23.9261242088
20
20.8891331119
11
-23.9417202582
21
20.8815864753
0
LINE
5
99F
100
AcDbEntity
8
0
100
AcDbLine
62
9
6
CONTINUOUS
10
-23.9103365853
20
20.8962960776
11
-23.9261242088
21
20.8891331119
0
LINE
5
9A0
100
AcDbEntity
8
0
100
AcDbLine
62
9
6
CONTINUOUS
10
61.1722668762
20
-21.6149793104
11
61.1528403217
21
-21.6301268112
0
LINE
5
9A1
100
AcDbEntity
8
0
100
AcDbLine
62
0
6
CONTINUOUS
10
61.2435391191
20
-21.6959617130
11
61.2251188743
21
-21.7100935771
0
LINE
5
9A2
100
AcDbEntity
8
0
100
AcDbLine
62
9
6
CONTINUOUS
10
61.1528403217
20
-21.6301268112
11
61.1329567818
21
-21.6446691467
0
LINE
5
9A3
100
AcDbEntity
8
0
100
AcDbLine
62
9
6
CONTINUOUS
10
61.4564554484
20
-20.3428544958
11
61.4541791232
21
-20.3445048415
0
LINE
5
9A4
100
AcDbEntity
8
0
100
AcDbLine
62
0
6
CONTINUOUS
10
61.2251188743
20
-21.7100935771
11
61.2063007202
21
-21.7236803104
0
LINE
5
9A5
100
AcDbEntity
8
0
100
AcDbLine
62
0
6
CONTINUOUS
10
48.2213250445
20
-16.9361085924
11
48.2305223689
21
-16.9295896013
0
LINE
5
9A6
100
AcDbEntity
8
0
100
AcDbLine
62
0
6
CONTINUOUS
10
48.2444741017
20
-16.9854741767
11
48.2352855721
21
-16.9919819078
0
LINE
5
9A7
100
AcDbEntity
8
DEFAULT_3
100
AcDbLine
62
9
6
PHANTOM
10
48.1594065508
20
-16.9246150569
11
48.1810496595
21
-16.9093311535
0
LINE
5
9A8
100
AcDbEntity
8
0
100
AcDbLine
62
9
6
CONTINUOUS
10
61.1329567818
20
-21.6446691467
11
61.1126351097
21
-21.6585925280
0
LINE
5
9A9
100
AcDbEntity
8
0
100
AcDbLine
62
0
6
CONTINUOUS
10
61.2063007202
20
-21.7236803104
11
61.1870754058
21
-21.7367296423
0
LINE
5
9AA
100
AcDbEntity
8
0
100
AcDbLine
62
0
6
CONTINUOUS
10
47.8378804692
20
-16.7685098530
11
47.8772984788
21
-16.7418439125
0
LINE
5
9AB
100
AcDbEntity
8
0
100
AcDbLine
62
0
6
CONTINUOUS
10
45.5877895610
20
-8.1142945061
11
45.5783725292
21
-8.1204610919
0
LINE
5
9AC
100
AcDbEntity
8
0
100
AcDbLine
62
0
6
CONTINUOUS
10
45.5784525450
20
-8.1122071919
11
45.5878689618
21
-8.1060430042
0
LINE
5
9AD
100
AcDbEntity
8
0
100
AcDbLine
62
0
6
CONTINUOUS
10
48.2119081581
20
-16.9422681496
11
48.2213250445
21
-16.9361085924
0
LINE
5
9AE
100
AcDbEntity
8
0
100
AcDbLine
62
0
6
CONTINUOUS
10
48.2352855721
20
-16.9919819078
11
48.2258635538
21
-16.9981377811
0
LINE
5
9AF
100
AcDbEntity
8
DEFAULT_3
100
AcDbLine
62
9
6
PHANTOM
10
30.7686925709
20
-8.4454854607
11
30.7723729251
21
-8.4431380276
0
LINE
5
9B0
100
AcDbEntity
8
DEFAULT_3
100
AcDbLine
62
9
6
PHANTOM
10
30.6252574150
20
-8.1992859373
11
30.6473317046
21
-8.1852242694
0
LINE
5
9B1
100
AcDbEntity
8
DEFAULT_3
100
AcDbLine
62
9
6
PHANTOM
10
48.0259833301
20
-16.7270654003
11
48.0223029759
21
-16.7294101144
0
LINE
5
9B2
100
AcDbEntity
8
DEFAULT_3
100
AcDbLine
62
9
6
PHANTOM
10
30.6252598539
20
-8.2338761792
11
30.6473309828
21
-8.2198255647
0
LINE
5
9B3
100
AcDbEntity
8
DEFAULT_3
100
AcDbLine
62
9
6
PHANTOM
10
48.1694160471
20
-16.9177293062
11
48.1473449183
21
-16.9317772045
0
LINE
5
9B4
100
AcDbEntity
8
0
100
AcDbLine
62
0
6
CONTINUOUS
10
30.9567954318
20
-8.2807555344
11
30.9973868746
21
-8.2560425479
0
LINE
5
9B5
100
AcDbEntity
8
0
100
AcDbLine
62
0
6
CONTINUOUS
10
30.9973868746
20
-8.2686109722
11
30.9567954318
21
-8.2933239586
0
LINE
5
9B6
100
AcDbEntity
8
0
100
AcDbLine
62
0
6
CONTINUOUS
10
30.5656213240
20
-8.0921017156
11
30.5752576335
21
-8.0862978768
0
LINE
5
9B7
100
AcDbEntity
8
0
100
AcDbLine
62
0
6
CONTINUOUS
10
30.5892791606
20
-8.1002487617
11
30.5796466961
21
-8.1060471568
0
LINE
5
9B8
100
AcDbEntity
8
0
100
AcDbLine
62
0
6
CONTINUOUS
10
45.5974270563
20
-8.1084929707
11
45.5877895610
21
-8.1142945061
0
LINE
5
9B9
100
AcDbEntity
8
0
100
AcDbLine
62
0
6
CONTINUOUS
10
45.5878689618
20
-8.1060430042
11
45.5975050478
21
-8.1002441756
0
LINE
5
9BA
100
AcDbEntity
8
0
100
AcDbLine
62
0
6
CONTINUOUS
10
30.5752576335
20
-8.0862978768
11
30.5850999519
21
-8.0808621279
0
LINE
5
9BB
100
AcDbEntity
8
0
100
AcDbLine
62
0
6
CONTINUOUS
10
30.5991307837
20
-8.0948103969
11
30.5892791606
21
-8.1002487617
0
LINE
5
9BC
100
AcDbEntity
8
0
100
AcDbLine
62
0
6
CONTINUOUS
10
30.9973868746
20
-8.2560425479
11
31.0391750615
21
-8.2332484361
0
LINE
5
9BD
100
AcDbEntity
8
0
100
AcDbLine
62
0
6
CONTINUOUS
10
31.0391750615
20
-8.2458168603
11
30.9973868746
21
-8.2686109722
0
LINE
5
9BE
100
AcDbEntity
8
0
100
AcDbLine
62
0
6
CONTINUOUS
10
17.6882482934
20
21.7465920781
11
17.7092256006
21
21.7567482294
0
LINE
5
9BF
100
AcDbEntity
8
0
100
AcDbLine
62
9
6
CONTINUOUS
10
17.7673175783
20
21.6711445691
11
17.7895332165
21
21.6817873125
0
LINE
5
9C0
100
AcDbEntity
8
0
100
AcDbLine
62
0
6
CONTINUOUS
10
17.7092256006
20
21.7567482294
11
17.7304760479
21
21.7662787705
0
LINE
5
9C1
100
AcDbEntity
8
0
100
AcDbLine
62
9
6
CONTINUOUS
10
17.7895332165
20
21.6817873125
11
17.8120657944
21
21.6917411108
0
LINE
5
9C2
100
AcDbEntity
8
0
100
AcDbLine
62
9
6
CONTINUOUS
10
17.3435108350
20
20.3094536239
11
17.3472598264
21
20.3110932430
0
LINE
5
9C3
100
AcDbEntity
8
0
100
AcDbLine
62
9
6
CONTINUOUS
10
-23.8943863991
20
20.9030622077
11
-23.9103365853
21
20.8962960776
0
LINE
5
9C4
100
AcDbEntity
8
0
100
AcDbLine
62
0
6
CONTINUOUS
10
17.7304760479
20
21.7662787705
11
17.7520031271
21
21.7751899646
0
LINE
5
9C5
100
AcDbEntity
8
0
100
AcDbLine
62
9
6
CONTINUOUS
10
17.8120657944
20
21.6917411108
11
17.8348939469
21
21.7009965257
0
LINE
5
9C6
100
AcDbEntity
8
0
100
AcDbLine
62
9
6
CONTINUOUS
10
-23.8782733582
20
20.9094307696
11
-23.8943863991
21
20.9030622077
0
LINE
5
9C7
100
AcDbEntity
8
0
100
AcDbLine
62
9
6
CONTINUOUS
10
-23.8619977546
20
20.9154024960
11
-23.8782733582
21
20.9094307696
0
LINE
5
9C8
100
AcDbEntity
8
0
100
AcDbLine
62
9
6
CONTINUOUS
10
61.1126351097
20
-21.6585925280
11
61.0918945743
21
-21.6718837530
0
LINE
5
9C9
100
AcDbEntity
8
0
100
AcDbLine
62
0
6
CONTINUOUS
10
61.1870754058
20
-21.7367296423
11
61.1674521820
21
-21.7492338435
0
LINE
5
9CA
100
AcDbEntity
8
0
100
AcDbLine
62
0
6
CONTINUOUS
10
47.7972890264
20
-16.7932228395
11
47.8378804692
21
-16.7685098530
0
LINE
5
9CB
100
AcDbEntity
8
0
100
AcDbLine
62
0
6
CONTINUOUS
10
48.2022715586
20
-16.9480626951
11
48.2119081581
21
-16.9422681496
0
LINE
5
9CC
100
AcDbEntity
8
0
100
AcDbLine
62
0
6
CONTINUOUS
10
48.2258635538
20
-16.9981377811
11
48.2162240468
21
-17.0039322492
0
LINE
5
9CD
100
AcDbEntity
8
0
100
AcDbLine
62
9
6
CONTINUOUS
10
61.0918945743
20
-21.6718837530
11
61.0707548418
21
-21.6845302192
0
LINE
5
9CE
100
AcDbEntity
8
0
100
AcDbLine
62
0
6
CONTINUOUS
10
61.1674521820
20
-21.7492338435
11
61.1474737859
21
-21.7611607186
0
LINE
5
9CF
100
AcDbEntity
8
DEFAULT_3
100
AcDbLine
62
9
6
PHANTOM
10
48.1365118328
20
-16.9379267158
11
48.1594065508
21
-16.9246150569
0
LINE
5
9D0
100
AcDbEntity
8
0
100
AcDbLine
62
0
6
CONTINUOUS
10
61.1474737859
20
-21.7611607186
11
61.1271282829
21
-21.7725135430
0
LINE
5
9D1
100
AcDbEntity
8
0
100
AcDbLine
62
9
6
CONTINUOUS
10
61.0707548418
20
-21.6845302192
11
61.0492359566
21
-21.6965199351
0
LINE
5
9D2
100
AcDbEntity
8
0
100
AcDbLine
62
0
6
CONTINUOUS
10
45.6072845926
20
-8.1030510705
11
45.5974270563
21
-8.1084929707
0
LINE
5
9D3
100
AcDbEntity
8
0
100
AcDbLine
62
0
6
CONTINUOUS
10
45.5975050478
20
-8.1002441756
11
45.6073604431
21
-8.0948052759
0
LINE
5
9D4
100
AcDbEntity
8
0
100
AcDbLine
62
0
6
CONTINUOUS
10
48.1924153970
20
-16.9534978067
11
48.2022715586
21
-16.9480626951
0
LINE
5
9D5
100
AcDbEntity
8
0
100
AcDbLine
62
0
6
CONTINUOUS
10
48.2162240468
20
-17.0039322492
11
48.2063786300
21
-17.0093592310
0
LINE
5
9D6
100
AcDbEntity
8
0
100
AcDbLine
62
0
6
CONTINUOUS
10
47.7555008395
20
-16.8160169514
11
47.7972890264
21
-16.7932228395
0
LINE
5
9D7
100
AcDbEntity
8
DEFAULT_3
100
AcDbLine
62
9
6
PHANTOM
10
48.2973379505
20
-8.4794260214
11
48.2959684243
21
-8.4801635949
0
LINE
5
9D8
100
AcDbEntity
8
DEFAULT_3
100
AcDbLine
62
9
6
PHANTOM
10
30.6473317046
20
-8.1852242694
11
30.6705476311
21
-8.1731399751
0
LINE
5
9D9
100
AcDbEntity
8
DEFAULT_3
100
AcDbLine
62
9
6
PHANTOM
10
30.6705452748
20
-8.1733400017
11
30.6473311875
21
-8.1854146547
0
LINE
5
9DA
100
AcDbEntity
8
DEFAULT_3
100
AcDbLine
62
9
6
PHANTOM
10
30.6473309828
20
-8.2198255647
11
30.6705451081
21
-8.2077497109
0
LINE
5
9DB
100
AcDbEntity
8
DEFAULT_3
100
AcDbLine
62
9
6
PHANTOM
10
48.1473449183
20
-16.9317772045
11
48.1241307929
21
-16.9438507376
0
LINE
5
9DC
100
AcDbEntity
8
DEFAULT_3
100
AcDbLine
62
9
6
PHANTOM
10
30.7723729251
20
-8.4431380276
11
30.7762495745
21
-8.4411293613
0
LINE
5
9DD
100
AcDbEntity
8
DEFAULT_3
100
AcDbLine
62
9
6
PHANTOM
10
48.0223029759
20
-16.7294101144
11
48.0184263265
21
-16.7314164527
0
LINE
5
9DE
100
AcDbEntity
8
0
100
AcDbLine
62
0
6
CONTINUOUS
10
30.6091441173
20
-8.0897584695
11
30.5991307837
21
-8.0948103969
0
LINE
5
9DF
100
AcDbEntity
8
0
100
AcDbLine
62
0
6
CONTINUOUS
10
45.6173041574
20
-8.0979957449
11
45.6072845926
21
-8.1030510705
0
LINE
5
9E0
100
AcDbEntity
8
0
100
AcDbLine
62
0
6
CONTINUOUS
10
30.5850999519
20
-8.0808621279
11
30.5951195803
21
-8.0758085747
0
LINE
5
9E1
100
AcDbEntity
8
0
100
AcDbLine
62
0
6
CONTINUOUS
10
45.6073604431
20
-8.0948052759
11
45.6173772598
21
-8.0897529810
0
LINE
5
9E2
100
AcDbEntity
8
0
100
AcDbLine
62
0
6
CONTINUOUS
10
31.0391750615
20
-8.2332484361
11
31.0819223962
21
-8.2125004623
0
LINE
5
9E3
100
AcDbEntity
8
0
100
AcDbLine
62
0
6
CONTINUOUS
10
31.0819223962
20
-8.2250688866
11
31.0391750615
21
-8.2458168603
0
LINE
5
9E4
100
AcDbEntity
8
0
100
AcDbLine
62
0
6
CONTINUOUS
10
30.6193030283
20
-8.0851009091
11
30.6091441173
21
-8.0897584695
0
LINE
5
9E5
100
AcDbEntity
8
0
100
AcDbLine
62
0
6
CONTINUOUS
10
30.5951195803
20
-8.0758085747
11
30.6052850016
21
-8.0711492657
0
LINE
5
9E6
100
AcDbEntity
8
0
100
AcDbLine
62
0
6
CONTINUOUS
10
17.7520031271
20
21.7751899646
11
17.7737387726
21
21.7834585799
0
LINE
5
9E7
100
AcDbEntity
8
0
100
AcDbLine
62
9
6
CONTINUOUS
10
17.8348939469
20
21.7009965257
11
17.8579960283
21
21.7095447814
0
LINE
5
9E8
100
AcDbEntity
8
0
100
AcDbLine
62
9
6
CONTINUOUS
10
17.3472598264
20
20.3110932430
11
17.3517402750
21
20.3127252145
0
LINE
5
9E9
100
AcDbEntity
8
0
100
AcDbLine
62
0
6
CONTINUOUS
10
17.7737387726
20
21.7834585799
11
17.7956634593
21
21.7910779223
0
LINE
5
9EA
100
AcDbEntity
8
0
100
AcDbLine
62
9
6
CONTINUOUS
10
-23.8455894763
20
20.9209664204
11
-23.8619977546
21
20.9154024960
0
LINE
5
9EB
100
AcDbEntity
8
0
100
AcDbLine
62
9
6
CONTINUOUS
10
17.8579960283
20
21.7095447814
11
17.8813501334
21
21.7173777726
0
LINE
5
9EC
100
AcDbEntity
8
0
100
AcDbLine
62
0
6
CONTINUOUS
10
17.7956634593
20
21.7910779223
11
17.8177967123
21
21.7980546859
0
LINE
5
9ED
100
AcDbEntity
8
0
100
AcDbLine
62
9
6
CONTINUOUS
10
-23.8290482819
20
20.9261217942
11
-23.8455894763
21
20.9209664204
0
LINE
5
9EE
100
AcDbEntity
8
0
100
AcDbLine
62
9
6
CONTINUOUS
10
-23.8123744128
20
20.9308693661
11
-23.8290482819
21
20.9261217942
0
LINE
5
9EF
100
AcDbEntity
8
0
100
AcDbLine
62
9
6
CONTINUOUS
10
61.4541791232
20
-20.3445048415
11
61.4511650670
21
-20.3461505872
0
LINE
5
9F0
100
AcDbEntity
8
0
100
AcDbLine
62
0
6
CONTINUOUS
10
61.1271282829
20
-21.7725135430
11
61.1064276076
21
-21.7832890413
0
LINE
5
9F1
100
AcDbEntity
8
0
100
AcDbLine
62
9
6
CONTINUOUS
10
61.0492359566
20
-21.6965199351
11
61.0273583228
21
-21.7078415323
0
LINE
5
9F2
100
AcDbEntity
8
0
100
AcDbLine
62
0
6
CONTINUOUS
10
48.1823972849
20
-16.9585468697
11
48.1924153970
21
-16.9534978067
0
LINE
5
9F3
100
AcDbEntity
8
0
100
AcDbLine
62
0
6
CONTINUOUS
10
48.2063786300
20
-17.0093592310
11
48.1963560848
21
-17.0144046222
0
LINE
5
9F4
100
AcDbEntity
8
0
100
AcDbLine
62
0
6
CONTINUOUS
10
47.7127535048
20
-16.8367649251
11
47.7555008395
21
-16.8160169514
0
LINE
5
9F5
100
AcDbEntity
8
0
100
AcDbLine
62
0
6
CONTINUOUS
10
61.1064276076
20
-21.7832890413
11
61.0854503004
21
-21.7934451926
0
LINE
5
9F6
100
AcDbEntity
8
0
100
AcDbLine
62
9
6
CONTINUOUS
10
61.0273583228
20
-21.7078415323
11
61.0051426845
21
-21.7184842758
0
LINE
5
9F7
100
AcDbEntity
8
DEFAULT_3
100
AcDbLine
62
9
6
PHANTOM
10
48.1125666275
20
-16.9491456867
11
48.1365118328
21
-16.9379267158
0
LINE
5
9F8
100
AcDbEntity
8
0
100
AcDbLine
62
0
6
CONTINUOUS
10
45.6274697407
20
-8.0933349991
11
45.6173041574
21
-8.0979957449
0
LINE
5
9F9
100
AcDbEntity
8
0
100
AcDbLine
62
0
6
CONTINUOUS
10
45.6173772598
20
-8.0897529810
11
45.6275394950
21
-8.0850952641
0
LINE
5
9FA
100
AcDbEntity
8
0
100
AcDbLine
62
0
6
CONTINUOUS
10
48.1722333510
20
-16.9632019318
11
48.1823972849
21
-16.9585468697
0
LINE
5
9FB
100
AcDbEntity
8
0
100
AcDbLine
62
0
6
CONTINUOUS
10
48.1963560848
20
-17.0144046222
11
48.1861879257
21
-17.0190563896
0
LINE
5
9FC
100
AcDbEntity
8
0
100
AcDbLine
62
0
6
CONTINUOUS
10
31.0819223962
20
-8.2125004623
11
31.1256630111
21
-8.1937985841
0
LINE
5
9FD
100
AcDbEntity
8
0
100
AcDbLine
62
0
6
CONTINUOUS
10
31.1256630111
20
-8.2063670083
11
31.0819223962
21
-8.2250688866
0
LINE
5
9FE
100
AcDbEntity
8
0
100
AcDbLine
62
0
6
CONTINUOUS
10
47.6690128899
20
-16.8554668033
11
47.7127535048
21
-16.8367649251
0
LINE
5
9FF
100
AcDbEntity
8
DEFAULT_3
100
AcDbLine
62
9
6
PHANTOM
10
30.4978922041
20
-9.6432468769
11
30.4994934308
21
-9.6425657719
0
LINE
5
A00
100
AcDbEntity
8
DEFAULT_3
100
AcDbLine
62
9
6
PHANTOM
10
30.4994934308
20
-15.4374735439
11
30.4978922041
21
-15.4381546489
0
LINE
5
A01
100
AcDbEntity
8
DEFAULT_3
100
AcDbLine
62
9
6
PHANTOM
10
30.6705476311
20
-8.1731399751
11
30.6947288244
21
-8.1631248562
0
LINE
5
A02
100
AcDbEntity
8
0
100
AcDbLine
62
0
6
CONTINUOUS
10
30.6052850016
20
-8.0711492657
11
30.6155969013
21
-8.0668801170
0
LINE
5
A03
100
AcDbEntity
8
0
100
AcDbLine
62
0
6
CONTINUOUS
10
30.6296236498
20
-8.0808297860
11
30.6193030283
21
-8.0851009091
0
LINE
5
A04
100
AcDbEntity
8
DEFAULT_3
100
AcDbLine
62
9
6
PHANTOM
10
30.6947253362
20
-8.1633323813
11
30.6705452748
21
-8.1733400017
0
LINE
5
A05
100
AcDbEntity
8
DEFAULT_3
100
AcDbLine
62
9
6
PHANTOM
10
30.6705451081
20
-8.2077497109
11
30.6947252135
21
-8.1977410889
0
LINE
5
A06
100
AcDbEntity
8
0
100
AcDbLine
62
0
6
CONTINUOUS
10
45.6377973524
20
-8.0890608277
11
45.6274697407
21
-8.0933349991
0
LINE
5
A07
100
AcDbEntity
8
DEFAULT_3
100
AcDbLine
62
9
6
PHANTOM
10
48.1241307929
20
-16.9438507376
11
48.0999506876
21
-16.9538574224
0
LINE
5
A08
100
AcDbEntity
8
0
100
AcDbLine
62
0
6
CONTINUOUS
10
45.6275394950
20
-8.0850952641
11
45.6378631516
21
-8.0808241520
0
LINE
5
A09
100
AcDbEntity
8
0
100
AcDbLine
62
0
6
CONTINUOUS
10
48.1619074667
20
-16.9674709454
11
48.1722333510
21
-16.9632019318
0
LINE
5
A0A
100
AcDbEntity
8
0
100
AcDbLine
62
0
6
CONTINUOUS
10
48.1861879257
20
-17.0190563896
11
48.1758734730
21
-17.0233185979
0
LINE
5
A0B
100
AcDbEntity
8
DEFAULT_3
100
AcDbLine
62
9
6
PHANTOM
10
30.7762495745
20
-8.4411293613
11
30.7803152188
21
-8.4394513972
0
LINE
5
A0C
100
AcDbEntity
8
DEFAULT_3
100
AcDbLine
62
9
6
PHANTOM
10
48.0184263265
20
-16.7314164527
11
48.0143606822
21
-16.7330924713
0
LINE
5
A0D
100
AcDbEntity
8
0
100
AcDbLine
62
0
6
CONTINUOUS
10
31.1256630111
20
-8.1937985841
11
31.1703627738
21
-8.1771428440
0
LINE
5
A0E
100
AcDbEntity
8
0
100
AcDbLine
62
0
6
CONTINUOUS
10
31.1703627738
20
-8.1897112683
11
31.1256630111
21
-8.2063670083
0
LINE
5
A0F
100
AcDbEntity
8
0
100
AcDbLine
62
0
6
CONTINUOUS
10
30.6155969013
20
-8.0668801170
11
30.6260754749
21
-8.0629924138
0
LINE
5
A10
100
AcDbEntity
8
0
100
AcDbLine
62
0
6
CONTINUOUS
10
30.6400969337
20
-8.0769477177
11
30.6296236498
21
-8.0808297860
0
LINE
5
A11
100
AcDbEntity
8
0
100
AcDbLine
62
0
6
CONTINUOUS
10
45.6482770089
20
-8.0851761543
11
45.6377973524
21
-8.0890608277
0
LINE
5
A12
100
AcDbEntity
8
0
100
AcDbLine
62
0
6
CONTINUOUS
10
45.6378631516
20
-8.0808241520
11
45.6483383502
21
-8.0769424002
0
LINE
5
A13
100
AcDbEntity
8
0
100
AcDbLine
62
9
6
CONTINUOUS
10
17.3517402750
20
20.3127252145
11
17.3569480246
21
20.3143480245
0
LINE
5
A14
100
AcDbEntity
8
0
100
AcDbLine
62
9
6
CONTINUOUS
10
17.8813501334
20
21.7173777726
11
17.9049341181
21
21.7244880719
0
LINE
5
A15
100
AcDbEntity
8
0
100
AcDbLine
62
0
6
CONTINUOUS
10
61.0854503004
20
-21.7934451926
11
61.0641998531
21
-21.8029757337
0
LINE
5
A16
100
AcDbEntity
8
0
100
AcDbLine
62
9
6
CONTINUOUS
10
61.0051426845
20
-21.7184842758
11
60.9826101066
21
-21.7284380740
0
LINE
5
A17
100
AcDbEntity
8
0
100
AcDbLine
62
9
6
CONTINUOUS
10
61.4511650670
20
-20.3461505872
11
61.4474160758
21
-20.3477902064
0
LINE
5
A18
100
AcDbEntity
8
0
100
AcDbLine
62
0
6
CONTINUOUS
10
61.0641998531
20
-21.8029757337
11
61.0426727739
21
-21.8118869278
0
LINE
5
A19
100
AcDbEntity
8
0
100
AcDbLine
62
9
6
CONTINUOUS
10
60.9826101066
20
-21.7284380740
11
60.9597819542
21
-21.7376934889
0
LINE
5
A1A
100
AcDbEntity
8
0
100
AcDbLine
62
0
6
CONTINUOUS
10
61.0426727739
20
-21.8118869278
11
61.0209371284
21
-21.8201555431
0
LINE
5
A1B
100
AcDbEntity
8
0
100
AcDbLine
62
0
6
CONTINUOUS
10
47.6243131272
20
-16.8721225434
11
47.6690128899
21
-16.8554668033
0
LINE
5
A1C
100
AcDbEntity
8
0
100
AcDbLine
62
0
6
CONTINUOUS
10
48.1514288576
20
-16.9713511532
11
48.1619074667
21
-16.9674709454
0
LINE
5
A1D
100
AcDbEntity
8
0
100
AcDbLine
62
0
6
CONTINUOUS
10
48.1758734730
20
-17.0233185979
11
48.1653926342
21
-17.0271999320
0
LINE
5
A1E
100
AcDbEntity
8
0
100
AcDbLine
62
9
6
CONTINUOUS
10
60.9597819542
20
-21.7376934889
11
60.9366798728
21
-21.7462417446
0
LINE
5
A1F
100
AcDbEntity
8
DEFAULT_3
100
AcDbLine
62
9
6
PHANTOM
10
48.0877702185
20
-16.9582013750
11
48.1125666275
21
-16.9491456867
0
LINE
5
A20
100
AcDbEntity
8
0
100
AcDbLine
62
9
6
CONTINUOUS
10
61.4474160758
20
-20.3477902064
11
61.4429356274
21
-20.3494221779
0
LINE
5
A21
100
AcDbEntity
8
DEFAULT_3
100
AcDbLine
62
9
6
PHANTOM
10
48.2959683769
20
-16.6736785040
11
48.2918746738
21
-16.6751144339
0
LINE
5
A22
100
AcDbEntity
8
0
100
AcDbLine
62
0
6
CONTINUOUS
10
61.0209371284
20
-21.8201555431
11
60.9990124417
21
-21.8277748855
0
LINE
5
A23
100
AcDbEntity
8
0
100
AcDbLine
62
0
6
CONTINUOUS
10
30.6260754749
20
-8.0629924138
11
30.6367216767
21
-8.0594886149
0
LINE
5
A24
100
AcDbEntity
8
0
100
AcDbLine
62
0
6
CONTINUOUS
10
30.6507375190
20
-8.0734492113
11
30.6400969337
21
-8.0769477177
0
LINE
5
A25
100
AcDbEntity
8
0
100
AcDbLine
62
0
6
CONTINUOUS
10
45.6589227509
20
-8.0816756916
11
45.6482770089
21
-8.0851761543
0
LINE
5
A26
100
AcDbEntity
8
0
100
AcDbLine
62
0
6
CONTINUOUS
10
45.6483383502
20
-8.0769424002
11
45.6589791652
21
-8.0734447046
0
LINE
5
A27
100
AcDbEntity
8
0
100
AcDbLine
62
0
6
CONTINUOUS
10
48.1407829326
20
-16.9748480117
11
48.1514288576
21
-16.9713511532
0
LINE
5
A28
100
AcDbEntity
8
0
100
AcDbLine
62
0
6
CONTINUOUS
10
48.1653926342
20
-17.0271999320
11
48.1547444861
21
-17.0306979276
0
LINE
5
A29
100
AcDbEntity
8
0
100
AcDbLine
62
0
6
CONTINUOUS
10
31.1703627738
20
-8.1771428440
11
31.2156816911
21
-8.1626606336
0
LINE
5
A2A
100
AcDbEntity
8
0
100
AcDbLine
62
0
6
CONTINUOUS
10
31.2156816911
20
-8.1752290578
11
31.1703627738
21
-8.1897112683
0
LINE
5
A2B
100
AcDbEntity
8
0
100
AcDbLine
62
0
6
CONTINUOUS
10
47.5789942099
20
-16.8866047539
11
47.6243131272
21
-16.8721225434
0
LINE
5
A2C
100
AcDbEntity
8
DEFAULT_3
100
AcDbLine
62
9
6
PHANTOM
10
30.7803152188
20
-8.4394513972
11
30.7844671494
21
-8.4381413200
0
LINE
5
A2D
100
AcDbEntity
8
DEFAULT_3
100
AcDbLine
62
9
6
PHANTOM
10
30.6947288244
20
-8.1631248562
11
30.7196902124
21
-8.1552554673
0
LINE
5
A2E
100
AcDbEntity
8
DEFAULT_3
100
AcDbLine
62
9
6
PHANTOM
10
30.6947252135
20
-8.1977410889
11
30.7196866921
21
-8.1898763297
0
LINE
5
A2F
100
AcDbEntity
8
DEFAULT_3
100
AcDbLine
62
9
6
PHANTOM
10
48.0143606822
20
-16.7330924713
11
48.0102087516
21
-16.7344010291
0
LINE
5
A30
100
AcDbEntity
8
DEFAULT_3
100
AcDbLine
62
9
6
PHANTOM
10
30.7196867739
20
-8.1554684021
11
30.6947253362
21
-8.1633323813
0
LINE
5
A31
100
AcDbEntity
8
DEFAULT_3
100
AcDbLine
62
9
6
PHANTOM
10
48.0999506876
20
-16.9538574224
11
48.0749892089
21
-16.9617206671
0
LINE
5
A32
100
AcDbEntity
8
0
100
AcDbLine
62
0
6
CONTINUOUS
10
30.6367216767
20
-8.0594886149
11
30.6475066982
21
-8.0563809840
0
LINE
5
A33
100
AcDbEntity
8
0
100
AcDbLine
62
0
6
CONTINUOUS
10
30.6615307668
20
-8.0703397597
11
30.6507375190
21
-8.0734492113
0
LINE
5
A34
100
AcDbEntity
8
0
100
AcDbLine
62
0
6
CONTINUOUS
10
45.6697205377
20
-8.0785647267
11
45.6589227509
21
-8.0816756916
0
LINE
5
A35
100
AcDbEntity
8
0
100
AcDbLine
62
0
6
CONTINUOUS
10
45.6589791652
20
-8.0734447046
11
45.6697715222
21
-8.0703363693
0
LINE
5
A36
100
AcDbEntity
8
0
100
AcDbLine
62
9
6
CONTINUOUS
10
60.9366798728
20
-21.7462417446
11
60.9133257676
21
-21.7540747358
0
LINE
5
A37
100
AcDbEntity
8
0
100
AcDbLine
62
0
6
CONTINUOUS
10
60.9990124417
20
-21.8277748855
11
60.9768791887
21
-21.8347516491
0
LINE
5
A38
100
AcDbEntity
8
0
100
AcDbLine
62
9
6
CONTINUOUS
10
61.4429356274
20
-20.3494221779
11
61.4377278781
21
-20.3510449879
0
LINE
5
A39
100
AcDbEntity
8
0
100
AcDbLine
62
9
6
CONTINUOUS
10
60.9133257676
20
-21.7540747358
11
60.8897417829
21
-21.7611850351
0
LINE
5
A3A
100
AcDbEntity
8
0
100
AcDbLine
62
0
6
CONTINUOUS
10
48.1299842828
20
-16.9779560644
11
48.1407829326
21
-16.9748480117
0
LINE
5
A3B
100
AcDbEntity
8
0
100
AcDbLine
62
0
6
CONTINUOUS
10
48.1547444861
20
-17.0306979276
11
48.1439578170
21
-17.0338003528
0
CIRCLE
5
A3C
100
AcDbEntity
8
0
100
AcDbCircle
62
9
6
CONTINUOUS
10
39.3973379505
20
-0.0183484816
40
1.1616160628
0
CIRCLE
5
A3D
100
AcDbEntity
8
0
100
AcDbCircle
62
0
6
CONTINUOUS
10
39.3973379505
20
-0.0183484816
40
1.2500000000
0
ARC
5
A3E
100
AcDbEntity
8
0
100
AcDbCircle
62
0
6
CONTINUOUS
10
-25.1053497633
20
-16.7221520221
40
0.2500000000
100
AcDbArc
50
183.1948124294
51
204.2817399159
0
ARC
5
A3F
100
AcDbEntity
8
0
100
AcDbCircle
62
0
6
CONTINUOUS
10
274.1789112705
20
-0.0190505821
40
300.0000000000
100
AcDbArc
50
181.6078169456
51
183.1943729546
0
ARC
5
A40
100
AcDbEntity
8
0
100
AcDbCircle
62
0
6
CONTINUOUS
10
-25.4530760064
20
-8.4294430073
40
0.2500000000
100
AcDbArc
50
160.3879346281
51
181.6073774708
0
ARC
5
A41
100
AcDbEntity
8
0
100
AcDbCircle
62
0
6
CONTINUOUS
10
-15.8543447683
20
-0.0183484816
40
10.0000000000
100
AcDbArc
50
174.1782598434
51
185.8217401566
0
ARC
5
A42
100
AcDbEntity
8
0
100
AcDbCircle
62
0
6
CONTINUOUS
10
-23.6150714446
20
20.2553062591
40
1.5000000000
100
AcDbArc
50
91.0000000000
51
176.1055619190
0
ARC
5
A43
100
AcDbEntity
8
0
100
AcDbCircle
62
0
6
CONTINUOUS
10
-23.6150714446
20
-20.2920032223
40
1.5000000000
100
AcDbArc
50
183.8944380810
51
269.0000000000
0
ARC
5
A44
100
AcDbEntity
8
0
100
AcDbCircle
62
0
6
CONTINUOUS
10
274.1956552317
20
-0.0183484816
40
300.0000000000
100
AcDbArc
50
176.1055619190
51
183.8944380810
0
ENDSEC
0
SECTION
2
OBJECTS
0
DICTIONARY
5
C
100
AcDbDictionary
280
0
281
1
3
ACAD_GROUP
350
D
3
ACAD_MLINESTYLE
350
17
3
ACAD_LAYOUT
350
1A
3
ACAD_PLOTSETTINGS
350
19
3
ACAD_PLOTSTYLENAME
350
E
0
DICTIONARY
5
D
102
{ACAD_REACTORS
330
C
102
}
100
AcDbDictionary
280
0
281
1
0
ACDBDICTIONARYWDFLT
5
E
102
{ACAD_REACTORS
330
C
102
}
100
AcDbDictionary
281
1
3
Normal
350
F
100
AcDbDictionaryWithDefault
340
F
0
DICTIONARY
5
17
102
{ACAD_REACTORS
330
C
102
}
100
AcDbDictionary
280
0
281
1
3
Standard
350
18
0
DICTIONARY
5
19
102
{ACAD_REACTORS
330
C
102
}
100
AcDbDictionary
281
1
0
DICTIONARY
5
1A
102
{ACAD_REACTORS
330
C
102
}
100
AcDbDictionary
281
1
3
Layout1
350
1E
3
Model
350
22
0
ACDBPLACEHOLDER
5
F
102
{ACAD_REACTORS
330
E
102
}
0
MLINESTYLE
5
18
102
{ACAD_REACTORS
330
17
102
}
100
AcDbMlineStyle
2
STANDARD
70
0
3

62
256
51
90.0
52
90.0
71
2
49
0.5
62
256
6
BYLAYER
49
-0.5
62
256
6
BYLAYER
0
LAYOUT
5
1E
102
{ACAD_REACTORS
330
1A
102
}
100
AcDbPlotSettings
1

2

4

6

40
0.0
41
0.0
42
0.0
43
0.0
44
0.0
45
0.0
46
0.0
47
0.0
48
0.0
49
0.0
140
0.0
141
0.0
142
1.0
143
1.0
70
0
72
0
73
0
74
0
7

75
0
147
1.0
148
0.0
149
0.0
100
AcDbLayout
1
Layout1
70
0
71
0
10
0.0
20
0.0
11
0.0
21
0.0
12
0.0
22
0.0
32
0.0
14
0.0
24
0.0
34
0.0
15
0.0
25
0.0
35
0.0
146
0.0
13
0.0
23
0.0
33
0.0
16
0.0
26
0.0
36
0.0
17
0.0
27
0.0
37
0.0
76
0
330
1B
331
0
345
0
346
0
0
LAYOUT
5
22
102
{ACAD_REACTORS
330
1A
102
}
100
AcDbPlotSettings
1

2

4

6

40
0.0
41
0.0
42
0.0
43
0.0
44
0.0
45
0.0
46
0.0
47
0.0
48
0.0
49
0.0
140
0.0
141
0.0
142
1.0
143
1.0
70
0
72
0
73
0
74
0
7

75
0
147
1.0
148
0.0
149
0.0
100
AcDbLayout
1
Model
70
0
71
0
10
0.0
20
0.0
11
0.0
21
0.0
12
0.0
22
0.0
32
0.0
14
0.0
24
0.0
34
0.0
15
0.0
25
0.0
35
0.0
146
0.0
13
0.0
23
0.0
33
0.0
16
0.0
26
0.0
36
0.0
17
0.0
27
0.0
37
0.0
76
0
330
1F
331
0
345
0
346
0
0
ENDSEC
0
EOF
