0
SECTION
2
HEADER
9
$ACADVER
1
AC1015
9
$DWGCODEPAGE
3
ANSI_1252
9
$EXTMAX
10
431.8000000000
20
558.8000000000
30
0.0000000000
9
$EXTMIN
10
0.0000000000
20
0.0000000000
30
0.0000000000
9
$LIMMIN
10
0.0000000000
20
0.0000000000
9
$LIMMAX
10
431.8000000000
20
558.8000000000
9
$VIEWCTR
10
215.9000000000
20
279.4000000000
9
$VIEWSIZE
40
558.8000000000
9
$CLAYER
8
0
9
$LTSCALE
40
36.4254814815
9
$CELTYPE
6
BYLAYER
9
$DIMSCALE
40
1
9
$DIMASZ
40
3.0000000000
9
$DIMEXO
40
4.1392592593
9
$DIMDLI
40
25.1666962963
9
$DIMEXE
40
11.9210666667
9
$DIMCEN
40
5.9605333333
9
$DIMLFAC
40
1.0000000000
9
$DIMBLK
1
_FILLED
9
$DIMTXT
40
3.0000000000
9
$DIMTOL
70
1
9
$DIMLIM
70
0
9
$DIMTFAC
40
1.0000000000
9
$DIMTP
40
0.0100000000
9
$DIMTM
40
0.0100000000
9
$PDMODE
70
3
9
$PDSIZE
40
3.0000000000
9
$HANDSEED
5
30F
9
$MEASUREMENT
70
1
9
$INSUNITS
70
4
0
ENDSEC
0
SECTION
2
CLASSES
0
CLASS
1
ACDBDICTIONARYWDFLT
2
AcDbDictionaryWithDefault
3
AutoCAD 2000
90
0
280
0
281
0
0
CLASS
1
ACDBPLACEHOLDER
2
AcDbPlaceHolder
3
AutoCAD 2000
90
0
280
0
281
0
0
CLASS
1
LAYOUT
2
AcDbLayout
3
AutoCAD 2000
90
0
280
0
281
0
0
ENDSEC
0
SECTION
2
TABLES
0
TABLE
2
VPORT
5
8
100
AcDbSymbolTable
70
2
0
VPORT
5
1F4
100
AcDbSymbolTableRecord
100
AcDbViewportTableRecord
2
*ACTIVE
70
0
10
0.0
20
0.0
11
1.0
21
1.0
12
215.9000000000
22
279.4000000000
13
0.0
23
0.0
14
1.0
24
1.0
15
0.0
25
0.0
16
0.0
26
0.0
36
1.0
17
0.0
27
0.0
37
0.0
40
558.8000000000
41
0.7727272727
42
50.0
43
0.0
44
0.0
50
0.0
51
0.0
71
0
72
100
73
1
74
1
75
0
76
0
77
0
78
0
0
ENDTAB
0
TABLE
2
LTYPE
5
5
100
AcDbSymbolTable
70
6
0
LTYPE
5
14
100
AcDbSymbolTableRecord
100
AcDbLinetypeTableRecord
2
BYBLOCK
70
0
3

72
65
73
0
40
0.0
0
LTYPE
5
15
100
AcDbSymbolTableRecord
100
AcDbLinetypeTableRecord
2
BYLAYER
70
0
3

72
65
73
0
40
0.0
0
LTYPE
5
16
100
AcDbSymbolTableRecord
100
AcDbLinetypeTableRecord
2
CONTINUOUS
70
64
3
Solid line
72
65
73
0
40
0
0
LTYPE
5
1F5
100
AcDbSymbolTableRecord
100
AcDbLinetypeTableRecord
2
CENTER
70
64
3
____ _ ____ _ ____ _ ____ _ ____ _ ____ _ ____
72
65
73
4
40
0.6
49
0.375
74
0
49
-0.075
74
0
49
0.075
74
0
49
-0.075
74
0
0
LTYPE
5
1F6
100
AcDbSymbolTableRecord
100
AcDbLinetypeTableRecord
2
HIDDEN
70
64
3
- - - - - - - - - - - - - - - - - - - -
72
65
73
2
40
0.2
49
0.1
74
0
49
-0.1
74
0
0
LTYPE
5
1F7
100
AcDbSymbolTableRecord
100
AcDbLinetypeTableRecord
2
PHANTOM
70
64
3
_____ _ _ _____ _ _ _____ _ _ _____
72
65
73
6
40
0.8
49
0.45
74
0
49
-0.05
74
0
49
0.1
74
0
49
-0.05
74
0
49
0.1
74
0
49
-0.05
74
0
0
LTYPE
5
1F8
100
AcDbSymbolTableRecord
100
AcDbLinetypeTableRecord
2
DOT
70
64
3
. . . . . . . . . . . . . . . . . . . .
72
65
73
2
40
0.2
49
0.1
74
0
49
-0.1
74
0
0
LTYPE
5
1F9
100
AcDbSymbolTableRecord
100
AcDbLinetypeTableRecord
2
DASHED
70
64
3
- - - - - - - - - - - - - - - - - - - -
72
65
73
2
40
0.2
49
0.1
74
0
49
-0.1
74
0
0
ENDTAB
0
TABLE
2
LAYER
5
2
100
AcDbSymbolTable
70
36
0
LAYER
5
10
100
AcDbSymbolTableRecord
100
AcDbLayerTableRecord
2
0
70
0
62
7
6
CONTINUOUS
370
-3
390
F
0
LAYER
5
1FA
100
AcDbSymbolTableRecord
100
AcDbLayerTableRecord
2
DEFAULT_1
70
0
62
7
6
CENTER
370
-3
390
F
0
LAYER
5
1FB
100
AcDbSymbolTableRecord
100
AcDbLayerTableRecord
2
DEFAULT_2
70
0
62
9
6
HIDDEN
370
-3
390
F
0
LAYER
5
1FC
100
AcDbSymbolTableRecord
100
AcDbLayerTableRecord
2
DEFAULT_3
70
0
62
7
6
PHANTOM
370
-3
390
F
0
LAYER
5
1FD
100
AcDbSymbolTableRecord
100
AcDbLayerTableRecord
2
_2D_DELETED_OBJS
70
0
62
7
6
CONTINUOUS
370
-3
390
F
0
LAYER
5
1FE
100
AcDbSymbolTableRecord
100
AcDbLayerTableRecord
2
ASSI
70
0
62
7
6
CONTINUOUS
370
-3
390
F
0
LAYER
5
1FF
100
AcDbSymbolTableRecord
100
AcDbLayerTableRecord
2
COORDINATE
70
0
62
7
6
CONTINUOUS
370
-3
390
F
0
LAYER
5
200
100
AcDbSymbolTableRecord
100
AcDbLayerTableRecord
2
COORD_ORIGINE
70
0
62
7
6
CONTINUOUS
370
-3
390
F
0
LAYER
5
201
100
AcDbSymbolTableRecord
100
AcDbLayerTableRecord
2
CURVE
70
0
62
7
6
CONTINUOUS
370
-3
390
F
0
LAYER
5
202
100
AcDbSymbolTableRecord
100
AcDbLayerTableRecord
2
CURVE_LED_TASTO
70
0
62
7
6
CONTINUOUS
370
-3
390
F
0
LAYER
5
203
100
AcDbSymbolTableRecord
100
AcDbLayerTableRecord
2
DRAFT
70
0
62
7
6
CONTINUOUS
370
-3
390
F
0
LAYER
5
204
100
AcDbSymbolTableRecord
100
AcDbLayerTableRecord
2
IGES_SCRITTE
70
0
62
7
6
CONTINUOUS
370
-3
390
F
0
LAYER
5
205
100
AcDbSymbolTableRecord
100
AcDbLayerTableRecord
2
PIANI
70
0
62
7
6
CONTINUOUS
370
-3
390
F
0
LAYER
5
206
100
AcDbSymbolTableRecord
100
AcDbLayerTableRecord
2
PIANI_ORIGINE
70
0
62
7
6
CONTINUOUS
370
-3
390
F
0
LAYER
5
207
100
AcDbSymbolTableRecord
100
AcDbLayerTableRecord
2
PIANI_RIFERIMENTO
70
0
62
7
6
CONTINUOUS
370
-3
390
F
0
LAYER
5
208
100
AcDbSymbolTableRecord
100
AcDbLayerTableRecord
2
PUNTI
70
0
62
7
6
CONTINUOUS
370
-3
390
F
0
LAYER
5
209
100
AcDbSymbolTableRecord
100
AcDbLayerTableRecord
2
RACCORDO
70
0
62
7
6
CONTINUOUS
370
-3
390
F
0
LAYER
5
20A
100
AcDbSymbolTableRecord
100
AcDbLayerTableRecord
2
SMUSSO
70
0
62
7
6
CONTINUOUS
370
-3
390
F
0
LAYER
5
20B
100
AcDbSymbolTableRecord
100
AcDbLayerTableRecord
2
SNAPLINE
70
0
62
7
6
CONTINUOUS
370
-3
390
F
0
LAYER
5
20C
100
AcDbSymbolTableRecord
100
AcDbLayerTableRecord
2
SUPERFICI
70
0
62
7
6
CONTINUOUS
370
-3
390
F
0
LAYER
5
20D
100
AcDbSymbolTableRecord
100
AcDbLayerTableRecord
2
TRASH
70
0
62
7
6
CONTINUOUS
370
-3
390
F
0
ENDTAB
0
TABLE
2
STYLE
5
3
100
AcDbSymbolTable
70
1
0
STYLE
5
11
100
AcDbSymbolTableRecord
100
AcDbTextStyleTableRecord
2
STANDARD
70
0
40
0.0
41
0.8000000000
50
0.0
71
0
42
0.2
3
txt
4

0
ENDTAB
0
TABLE
2
VIEW
5
6
100
AcDbSymbolTable
70
0
0
ENDTAB
0
TABLE
2
UCS
5
7
100
AcDbSymbolTable
70
0
0
ENDTAB
0
TABLE
2
APPID
5
9
100
AcDbSymbolTable
70
1
0
APPID
5
20E
100
AcDbSymbolTableRecord
100
AcDbRegAppTableRecord
2
ACAD
70
0
0
ENDTAB
0
TABLE
2
BLOCK_RECORD
5
1
100
AcDbSymbolTable
70
0
0
BLOCK_RECORD
5
1F
100
AcDbSymbolTableRecord
100
AcDbBlockTableRecord
2
*MODEL_SPACE
0
BLOCK_RECORD
5
1B
100
AcDbSymbolTableRecord
100
AcDbBlockTableRecord
2
*PAPER_SPACE
0
BLOCK_RECORD
5
20F
100
AcDbSymbolTableRecord
100
AcDbBlockTableRecord
2
_FILLED
0
BLOCK_RECORD
5
210
100
AcDbSymbolTableRecord
100
AcDbBlockTableRecord
2
*D0
0
BLOCK_RECORD
5
211
100
AcDbSymbolTableRecord
100
AcDbBlockTableRecord
2
*D1
0
BLOCK_RECORD
5
212
100
AcDbSymbolTableRecord
100
AcDbBlockTableRecord
2
*D2
0
BLOCK_RECORD
5
213
100
AcDbSymbolTableRecord
100
AcDbBlockTableRecord
2
*D3
0
ENDTAB
0
TABLE
2
DIMSTYLE
5
A
100
AcDbSymbolTable
70
1
100
AcDbDimStyleTable
71
0
0
DIMSTYLE
105
214
100
AcDbSymbolTableRecord
100
AcDbDimStyleTableRecord
2
STANDARD
70
0
3

4

40
1.0
41
3.0000000000
42
0.0625
43
0.38
44
0.18
45
0.0
46
0.0
47
0.0100000000
48
0.0100000000
140
3.0000000000
141
0.09
142
0.0
143
25.4
144
1.0000000000
145
0.0
146
1.0000000000
147
0.09
71
1
72
0
73
0
74
0
75
0
76
0
77
1
78
8
170
0
171
2
172
0
173
0
174
0
175
0
176
0
177
0
178
0
270
2
271
2
272
2
273
2
274
2
275
0
280
0
281
0
282
0
283
1
284
8
285
0
286
0
287
3
288
0
340
11
341
20F
342
20F
343
20F
344
20F
0
DIMSTYLE
105
215
100
AcDbSymbolTableRecord
100
AcDbDimStyleTableRecord
2
DIMSTYLE_1
70
0
3

4

40
1.0
41
3.0000000000
42
0.0625
43
0.38
44
0.18
45
0.0
46
0.0
47
0.0000000000
48
0.0000000000
140
3.0000000000
141
0.09
142
0.0
143
25.4
144
1.0000000000
145
0.0
146
1.0000000000
147
0.09
71
0
72
0
73
0
74
0
75
0
76
0
77
1
78
8
170
0
171
2
172
0
173
0
174
0
175
0
176
0
177
0
178
0
270
2
271
2
272
2
273
2
274
2
275
0
280
0
281
0
282
0
283
1
284
8
285
0
286
0
287
3
288
0
340
11
341
20F
342
20F
343
20F
344
20F
0
ENDTAB
0
ENDSEC
0
SECTION
2
BLOCKS
0
BLOCK
5
20
100
AcDbEntity
8
0
100
AcDbBlockBegin
2
*MODEL_SPACE
70
0
10
0.0
20
0.0
30
0.0
3
*MODEL_SPACE
1

0
ENDBLK
5
21
100
AcDbEntity
8
0
100
AcDbBlockEnd
0
BLOCK
5
1C
100
AcDbEntity
8
0
100
AcDbBlockBegin
2
*PAPER_SPACE
70
0
10
0.0
20
0.0
30
0.0
3
*PAPER_SPACE
1

0
ENDBLK
5
1D
100
AcDbEntity
8
0
100
AcDbBlockEnd
0
BLOCK
5
216
100
AcDbEntity
8
0
100
AcDbBlockBegin
62
0
6
CONTINUOUS
2
*D0
70
65
10
0.0000000000
20
0.0000000000
3
*D0
1

0
TEXT
5
217
100
AcDbEntity
8
0
100
AcDbText
62
0
6
CONTINUOUS
10
-22.5177974989
20
40.9494217834
7
STANDARD
40
3.0000000000
1
11,6
41
0.6250000000
72
0
100
AcDbText
0
LINE
5
218
100
AcDbEntity
8
0
100
AcDbLine
62
0
6
CONTINUOUS
10
-12.9677974989
20
2.0680057292
11
-12.9677974989
21
41.6994217834
0
LINE
5
219
100
AcDbEntity
8
0
100
AcDbLine
62
0
6
CONTINUOUS
10
-24.5677974989
20
0.8668437984
11
-24.5677974989
21
41.6994217834
0
LINE
5
21A
100
AcDbEntity
8
0
100
AcDbLine
62
0
6
CONTINUOUS
10
-12.9677974989
20
40.1994217834
11
-8.9677974989
21
40.1994217834
0
LINE
5
21B
100
AcDbEntity
8
0
100
AcDbLine
62
0
6
CONTINUOUS
10
-8.9677974989
20
40.1994217834
11
-18.7677974989
21
40.1994217834
0
LINE
5
21C
100
AcDbEntity
8
0
100
AcDbLine
62
0
6
CONTINUOUS
10
-24.5677974989
20
40.1994217834
11
-28.5677974989
21
40.1994217834
0
LINE
5
21D
100
AcDbEntity
8
0
100
AcDbLine
62
0
6
CONTINUOUS
10
-28.5677974989
20
40.1994217834
11
-18.7677974989
21
40.1994217834
0
INSERT
5
21E
100
AcDbEntity
8
0
100
AcDbBlockReference
62
0
6
CONTINUOUS
2
_FILLED
10
-12.9677974989
20
40.1994217834
41
  3.000000
42
  3.000000
43
  3.000000
50
180.000000
0
INSERT
5
21F
100
AcDbEntity
8
0
100
AcDbBlockReference
62
0
6
CONTINUOUS
2
_FILLED
10
-24.5677974989
20
40.1994217834
41
  3.000000
42
  3.000000
43
  3.000000
0
ENDBLK
5
220
100
AcDbEntity
8
0
6
BYBLOCK
62
0
100
AcDbBlockEnd
0
BLOCK
5
221
100
AcDbEntity
8
0
100
AcDbBlockBegin
62
0
6
CONTINUOUS
2
*D1
70
65
10
0.0000000000
20
0.0000000000
3
*D1
1

0
TEXT
5
222
100
AcDbEntity
8
0
100
AcDbText
62
0
6
CONTINUOUS
10
-33.8320942139
20
30.9494217834
7
STANDARD
40
3.0000000000
1
6,6
41
0.7142857143
72
0
100
AcDbText
0
LINE
5
223
100
AcDbEntity
8
0
100
AcDbLine
62
0
6
CONTINUOUS
10
-17.9677974989
20
22.5023352807
11
-17.9677974989
21
31.6994217834
0
LINE
5
224
100
AcDbEntity
8
0
100
AcDbLine
62
0
6
CONTINUOUS
10
-24.5677974989
20
0.8494217834
11
-24.5677974989
21
31.6994217834
0
LINE
5
225
100
AcDbEntity
8
0
100
AcDbLine
62
0
6
CONTINUOUS
10
-17.9677974989
20
30.1994217834
11
-13.9677974989
21
30.1994217834
0
LINE
5
226
100
AcDbEntity
8
0
100
AcDbLine
62
0
6
CONTINUOUS
10
-13.9677974989
20
30.1994217834
11
-21.2677974989
21
30.1994217834
0
LINE
5
227
100
AcDbEntity
8
0
100
AcDbLine
62
0
6
CONTINUOUS
10
-24.5677974989
20
30.1994217834
11
-33.8320942139
21
30.1994217834
0
LINE
5
228
100
AcDbEntity
8
0
100
AcDbLine
62
0
6
CONTINUOUS
10
-33.8320942139
20
30.1994217834
11
-21.2677974989
21
30.1994217834
0
INSERT
5
229
100
AcDbEntity
8
0
100
AcDbBlockReference
62
0
6
CONTINUOUS
2
_FILLED
10
-17.9677974989
20
30.1994217834
41
  3.000000
42
  3.000000
43
  3.000000
50
180.000000
0
INSERT
5
22A
100
AcDbEntity
8
0
100
AcDbBlockReference
62
0
6
CONTINUOUS
2
_FILLED
10
-24.5677974989
20
30.1994217834
41
  3.000000
42
  3.000000
43
  3.000000
0
ENDBLK
5
22B
100
AcDbEntity
8
0
6
BYBLOCK
62
0
100
AcDbBlockEnd
0
BLOCK
5
22C
100
AcDbEntity
8
0
100
AcDbBlockBegin
62
0
6
CONTINUOUS
2
*D2
70
65
10
0.0000000000
20
0.0000000000
3
*D2
1

0
TEXT
5
22D
100
AcDbEntity
8
0
100
AcDbText
62
0
6
CONTINUOUS
10
29.1644134974
20
30.9494217834
7
STANDARD
40
3.0000000000
1
44,3
41
0.7142857143
72
0
100
AcDbText
0
LINE
5
22E
100
AcDbEntity
8
0
100
AcDbLine
62
0
6
CONTINUOUS
10
11.3001277831
20
22.0327606025
11
11.3001277831
21
31.6994217834
0
LINE
5
22F
100
AcDbEntity
8
0
100
AcDbLine
62
0
6
CONTINUOUS
10
55.6001277831
20
22.0661634695
11
55.6001277831
21
31.6994217834
0
LINE
5
230
100
AcDbEntity
8
0
100
AcDbLine
62
0
6
CONTINUOUS
10
11.3001277831
20
30.1994217834
11
33.4501277831
21
30.1994217834
0
LINE
5
231
100
AcDbEntity
8
0
100
AcDbLine
62
0
6
CONTINUOUS
10
55.6001277831
20
30.1994217834
11
33.4501277831
21
30.1994217834
0
INSERT
5
232
100
AcDbEntity
8
0
100
AcDbBlockReference
62
0
6
CONTINUOUS
2
_FILLED
10
11.3001277831
20
30.1994217834
41
  3.000000
42
  3.000000
43
  3.000000
50
180.000000
0
INSERT
5
233
100
AcDbEntity
8
0
100
AcDbBlockReference
62
0
6
CONTINUOUS
2
_FILLED
10
55.6001277831
20
30.1994217834
41
  3.000000
42
  3.000000
43
  3.000000
0
ENDBLK
5
234
100
AcDbEntity
8
0
6
BYBLOCK
62
0
100
AcDbBlockEnd
0
BLOCK
5
235
100
AcDbEntity
8
0
100
AcDbBlockBegin
62
0
6
CONTINUOUS
2
*D3
70
65
10
0.0000000000
20
0.0000000000
3
*D3
1

0
TEXT
5
236
100
AcDbEntity
8
0
100
AcDbText
62
0
6
CONTINUOUS
10
62.8501277831
20
-3.9362925023
7
STANDARD
40
3.0000000000
1
43,7
50
90.0000000000
41
0.7142857143
72
0
100
AcDbText
0
LINE
5
237
100
AcDbEntity
8
0
100
AcDbLine
62
0
6
CONTINUOUS
10
55.4937348457
20
-21.5005782166
11
65.1001277831
21
-21.5005782166
0
LINE
5
238
100
AcDbEntity
8
0
100
AcDbLine
62
0
6
CONTINUOUS
10
55.4253342456
20
22.1994217834
11
65.1001277831
21
22.1994217834
0
LINE
5
239
100
AcDbEntity
8
0
100
AcDbLine
62
0
6
CONTINUOUS
10
63.6001277831
20
-21.5005782166
11
63.6001277831
21
0.3494217834
0
LINE
5
23A
100
AcDbEntity
8
0
100
AcDbLine
62
0
6
CONTINUOUS
10
63.6001277831
20
22.1994217834
11
63.6001277831
21
0.3494217834
0
INSERT
5
23B
100
AcDbEntity
8
0
100
AcDbBlockReference
62
0
6
CONTINUOUS
2
_FILLED
10
63.6001277831
20
-21.5005782166
41
  3.000000
42
  3.000000
43
  3.000000
50
270.000000
0
INSERT
5
23C
100
AcDbEntity
8
0
100
AcDbBlockReference
62
0
6
CONTINUOUS
2
_FILLED
10
63.6001277831
20
22.1994217834
41
  3.000000
42
  3.000000
43
  3.000000
50
 90.000000
0
ENDBLK
5
23D
100
AcDbEntity
8
0
6
BYBLOCK
62
0
100
AcDbBlockEnd
0
BLOCK
5
23E
100
AcDbEntity
8
0
100
AcDbBlockBegin
2
_FILLED
70
64
10
0.0000000000
20
0.0000000000
3
_FILLED
1

0
SOLID
5
23F
100
AcDbEntity
8
0
6
BYBLOCK
62
0
100
AcDbTrace
10
0.0000000000
20
0.0000000000
11
-1.0000000000
21
0.3166666667
12
-1.0000000000
22
-0.3166666667
13
-1.0000000000
23
-0.3166666667
0
ENDBLK
5
240
100
AcDbEntity
8
0
6
BYBLOCK
62
0
100
AcDbBlockEnd
0
ENDSEC
0
SECTION
2
ENTITIES
0
DIMENSION
5
241
100
AcDbEntity
8
0
100
AcDbDimension
62
0
6
CONTINUOUS
2
*D0
10
-24.5677974989
20
40.1994217834
11
-18.7677974989
21
42.4494217834
70
160
42
11.600000
3
DIMSTYLE_1
100
AcDbAlignedDimension
13
-12.9677974989
23
2.0680057292
14
-24.5677974989
24
0.8668437984
50
180.000000
100
AcDbRotatedDimension
0
DIMENSION
5
242
100
AcDbEntity
8
0
100
AcDbDimension
62
0
6
CONTINUOUS
2
*D1
10
-24.5677974989
20
30.1994217834
11
-30.6178084996
21
32.4494217834
70
160
42
6.600000
3
DIMSTYLE_1
100
AcDbAlignedDimension
13
-17.9677974989
23
22.5023352807
14
-24.5677974989
24
0.8494217834
50
180.000000
100
AcDbRotatedDimension
0
DIMENSION
5
243
100
AcDbEntity
8
0
100
AcDbDimension
62
0
6
CONTINUOUS
2
*D2
10
55.6001277831
20
30.1994217834
11
33.4501277831
21
32.4494217834
70
160
42
44.300000
3
DIMSTYLE_1
100
AcDbAlignedDimension
13
11.3001277831
23
22.0327606025
14
55.6001277831
24
22.0661634695
100
AcDbRotatedDimension
0
DIMENSION
5
244
100
AcDbEntity
8
0
100
AcDbDimension
62
0
6
CONTINUOUS
2
*D3
10
63.6001277831
20
22.1994217834
11
61.3501277831
21
0.3494217834
70
160
42
43.700000
3
DIMSTYLE_1
100
AcDbAlignedDimension
13
55.4937348457
23
-21.5005782166
14
55.4253342456
24
22.1994217834
50
90.000000
100
AcDbRotatedDimension
0
LINE
5
245
100
AcDbEntity
8
0
100
AcDbLine
62
0
6
CONTINUOUS
10
11.3001277831
20
21.3995436272
11
11.3001277831
21
0.6994217834
0
LINE
5
246
100
AcDbEntity
8
0
100
AcDbLine
62
0
6
CONTINUOUS
10
11.3001277831
20
-0.0005782166
11
11.3001277831
21
-20.7007000605
0
LINE
5
247
100
AcDbEntity
8
0
100
AcDbLine
62
0
6
CONTINUOUS
10
11.7001887143
20
0.1994217834
11
11.7001887143
21
0.4994217834
0
LINE
5
248
100
AcDbEntity
8
0
100
AcDbLine
62
9
6
CONTINUOUS
10
11.8006771908
20
0.1994217834
11
11.8006771908
21
0.4994217834
0
LINE
5
249
100
AcDbEntity
8
0
100
AcDbLine
62
9
6
CONTINUOUS
10
12.2006127098
20
-0.0008117062
11
12.2006127098
21
0.6996552729
0
LINE
5
24A
100
AcDbEntity
8
0
100
AcDbLine
62
0
6
CONTINUOUS
10
54.8002496269
20
-21.5005782166
11
12.1000059392
21
-21.5005782166
0
LINE
5
24B
100
AcDbEntity
8
0
100
AcDbLine
62
9
6
CONTINUOUS
10
12.1765796558
20
-21.4240045000
11
54.7236759103
21
-21.4240045000
0
LINE
5
24C
100
AcDbEntity
8
0
100
AcDbLine
62
9
6
CONTINUOUS
10
12.1885567441
20
-20.0261106193
11
54.7116988220
21
-20.0261106193
0
LINE
5
24D
100
AcDbEntity
8
0
100
AcDbLine
62
9
6
CONTINUOUS
10
31.2001278129
20
-14.4005782166
11
30.4501278054
21
-14.4005782166
0
LINE
5
24E
100
AcDbEntity
8
0
100
AcDbLine
62
9
6
CONTINUOUS
10
32.7001277235
20
-12.4005781272
11
34.2001278427
21
-12.4005781272
0
LINE
5
24F
100
AcDbEntity
8
0
100
AcDbLine
62
9
6
CONTINUOUS
10
35.2001277831
20
-12.4005781272
11
36.7001279023
21
-12.4005781272
0
LINE
5
250
100
AcDbEntity
8
0
100
AcDbLine
62
9
6
CONTINUOUS
10
30.4501278054
20
-10.9005782166
11
31.2001278129
21
-10.9005782166
0
LINE
5
251
100
AcDbEntity
8
0
100
AcDbLine
62
9
6
CONTINUOUS
10
32.7001277235
20
-10.9005782166
11
34.2001278427
21
-10.9005782166
0
LINE
5
252
100
AcDbEntity
8
0
100
AcDbLine
62
9
6
CONTINUOUS
10
35.2001277831
20
-10.9005782166
11
36.7001279023
21
-10.9005782166
0
LINE
5
253
100
AcDbEntity
8
0
100
AcDbLine
62
9
6
CONTINUOUS
10
31.8888782835
20
0.6996552727
11
31.8888782835
21
0.4994217834
0
LINE
5
254
100
AcDbEntity
8
0
100
AcDbLine
62
9
6
CONTINUOUS
10
31.8888782835
20
-0.0008117059
11
31.8888782835
21
0.1994217834
0
LINE
5
255
100
AcDbEntity
8
0
100
AcDbLine
62
9
6
CONTINUOUS
10
11.3001277831
20
-20.7007000605
11
11.3767014997
21
-20.6241263439
0
LINE
5
256
100
AcDbEntity
8
0
100
AcDbLine
62
9
6
CONTINUOUS
10
54.8002496269
20
22.1994217834
11
54.7236759103
21
22.1228480668
0
LINE
5
257
100
AcDbEntity
8
0
100
AcDbLine
62
9
6
CONTINUOUS
10
35.0113772827
20
0.6996552724
11
34.8162210952
21
0.6556717834
0
LINE
5
258
100
AcDbEntity
8
0
100
AcDbLine
62
9
6
CONTINUOUS
10
31.8888782835
20
-0.0008117056
11
32.0840344709
21
0.0431717834
0
LINE
5
259
100
AcDbEntity
8
0
100
AcDbLine
62
9
6
CONTINUOUS
10
54.6996428563
20
-0.0008117062
11
35.0113772827
21
-0.0008117059
0
LINE
5
25A
100
AcDbEntity
8
0
100
AcDbLine
62
9
6
CONTINUOUS
10
31.8888782835
20
-0.0008117059
11
12.2006127098
21
-0.0008117062
0
LINE
5
25B
100
AcDbEntity
8
0
100
AcDbLine
62
9
6
CONTINUOUS
10
55.6001277831
20
-0.0005782166
11
55.4995210267
21
-0.0005782166
0
LINE
5
25C
100
AcDbEntity
8
0
100
AcDbLine
62
9
6
CONTINUOUS
10
11.4007345394
20
-0.0005782166
11
11.3001277831
21
-0.0005782166
0
LINE
5
25D
100
AcDbEntity
8
0
100
AcDbLine
62
0
6
CONTINUOUS
10
55.4000973175
20
0.1994217834
11
35.0113772827
21
0.1994217834
0
LINE
5
25E
100
AcDbEntity
8
0
100
AcDbLine
62
0
6
CONTINUOUS
10
31.8888782835
20
0.1994217834
11
11.5001582487
21
0.1994217834
0
LINE
5
25F
100
AcDbEntity
8
0
100
AcDbLine
62
0
6
CONTINUOUS
10
11.5001582487
20
0.4994217834
11
31.8888782835
21
0.4994217834
0
LINE
5
260
100
AcDbEntity
8
0
100
AcDbLine
62
0
6
CONTINUOUS
10
35.0113772827
20
0.4994217834
11
55.4000973175
21
0.4994217834
0
LINE
5
261
100
AcDbEntity
8
0
100
AcDbLine
62
9
6
CONTINUOUS
10
31.8888782835
20
0.6996552724
11
32.0840344709
21
0.6556717834
0
LINE
5
262
100
AcDbEntity
8
0
100
AcDbLine
62
9
6
CONTINUOUS
10
35.0113772827
20
-0.0008117056
11
34.8162210952
21
0.0431717834
0
LINE
5
263
100
AcDbEntity
8
0
100
AcDbLine
62
9
6
CONTINUOUS
10
11.3767014997
20
21.3229699106
11
11.3001277831
21
21.3995436272
0
LINE
5
264
100
AcDbEntity
8
0
100
AcDbLine
62
9
6
CONTINUOUS
10
54.7236759103
20
-21.4240045000
11
54.8002496269
21
-21.5005782166
0
LINE
5
265
100
AcDbEntity
8
0
100
AcDbLine
62
9
6
CONTINUOUS
10
35.0113772827
20
0.6996552727
11
35.0113772827
21
0.4994217834
0
LINE
5
266
100
AcDbEntity
8
0
100
AcDbLine
62
9
6
CONTINUOUS
10
35.0113772827
20
-0.0008117059
11
35.0113772827
21
0.1994217834
0
LINE
5
267
100
AcDbEntity
8
0
100
AcDbLine
62
9
6
CONTINUOUS
10
12.1000059392
20
-21.5005782166
11
12.1765796558
21
-21.4240045000
0
LINE
5
268
100
AcDbEntity
8
0
100
AcDbLine
62
9
6
CONTINUOUS
10
55.6001277831
20
21.3995436272
11
55.5235540665
21
21.3229699106
0
LINE
5
269
100
AcDbEntity
8
0
100
AcDbLine
62
9
6
CONTINUOUS
10
11.3001277831
20
0.6994217834
11
11.4007345394
21
0.6994217834
0
LINE
5
26A
100
AcDbEntity
8
0
100
AcDbLine
62
9
6
CONTINUOUS
10
55.4995210267
20
0.6994217834
11
55.6001277831
21
0.6994217834
0
LINE
5
26B
100
AcDbEntity
8
0
100
AcDbLine
62
9
6
CONTINUOUS
10
12.2006127098
20
0.6996552729
11
31.8888782835
21
0.6996552727
0
LINE
5
26C
100
AcDbEntity
8
0
100
AcDbLine
62
9
6
CONTINUOUS
10
35.0113772827
20
0.6996552727
11
54.6996428563
21
0.6996552729
0
LINE
5
26D
100
AcDbEntity
8
0
100
AcDbLine
62
9
6
CONTINUOUS
10
12.1765796558
20
22.1228480668
11
12.1000059392
21
22.1994217834
0
LINE
5
26E
100
AcDbEntity
8
0
100
AcDbLine
62
9
6
CONTINUOUS
10
55.5235540665
20
-20.6241263439
11
55.6001277831
21
-20.7007000605
0
LINE
5
26F
100
AcDbEntity
8
0
100
AcDbLine
62
9
6
CONTINUOUS
10
32.5001278129
20
11.5994217834
11
31.7501278054
21
11.5994217834
0
LINE
5
270
100
AcDbEntity
8
0
100
AcDbLine
62
9
6
CONTINUOUS
10
31.7501278054
20
15.0994217834
11
32.5001278129
21
15.0994217834
0
LINE
5
271
100
AcDbEntity
8
0
100
AcDbLine
62
9
6
CONTINUOUS
10
12.1885567441
20
20.7249541860
11
54.7116988220
21
20.7249541860
0
LINE
5
272
100
AcDbEntity
8
0
100
AcDbLine
62
9
6
CONTINUOUS
10
54.6996428563
20
-0.0008117062
11
54.6996428563
21
0.6996552729
0
LINE
5
273
100
AcDbEntity
8
0
100
AcDbLine
62
9
6
CONTINUOUS
10
55.0995783754
20
0.1994217834
11
55.0995783754
21
0.4994217834
0
LINE
5
274
100
AcDbEntity
8
0
100
AcDbLine
62
0
6
CONTINUOUS
10
55.2000668519
20
0.1994217834
11
55.2000668519
21
0.4994217834
0
LINE
5
275
100
AcDbEntity
8
0
100
AcDbLine
62
0
6
CONTINUOUS
10
55.6001277831
20
21.3995436272
11
55.6001277831
21
0.6994217834
0
LINE
5
276
100
AcDbEntity
8
0
100
AcDbLine
62
0
6
CONTINUOUS
10
55.6001277831
20
-0.0005782166
11
55.6001277831
21
-20.7007000605
0
LINE
5
277
100
AcDbEntity
8
0
100
AcDbLine
62
9
6
CONTINUOUS
10
12.1765796558
20
22.1228480668
11
54.7236759103
21
22.1228480668
0
LINE
5
278
100
AcDbEntity
8
0
100
AcDbLine
62
0
6
CONTINUOUS
10
54.8002496269
20
22.1994217834
11
12.1000059392
21
22.1994217834
0
LINE
5
279
100
AcDbEntity
8
0
100
AcDbLine
62
0
6
CONTINUOUS
10
-22.3547027848
20
-21.4240045000
11
-17.9677974989
21
-21.5005782166
0
LINE
5
27A
100
AcDbEntity
8
0
100
AcDbLine
62
9
6
CONTINUOUS
10
-22.3547027848
20
-20.6241263439
11
-17.9677974989
21
-20.7007000605
0
LINE
5
27B
100
AcDbEntity
8
0
100
AcDbLine
62
9
6
CONTINUOUS
10
-23.0408697139
20
-19.9717758662
11
-23.8250604698
21
-20.0261106179
0
LINE
5
27C
100
AcDbEntity
8
0
100
AcDbLine
62
9
6
CONTINUOUS
10
-24.5001007583
20
0.0811211528
11
-24.5001007509
21
0.6183015146
0
LINE
5
27D
100
AcDbEntity
8
0
100
AcDbLine
62
9
6
CONTINUOUS
10
-24.4007777196
20
0.1812607912
11
-24.4007777185
21
0.5179227713
0
LINE
5
27E
100
AcDbEntity
8
0
100
AcDbLine
62
0
6
CONTINUOUS
10
-24.1177974989
20
0.1994217834
11
-24.1177974989
21
0.4994217834
0
LINE
5
27F
100
AcDbEntity
8
0
100
AcDbLine
62
9
6
CONTINUOUS
10
-23.7247784614
20
0.1994217834
11
-23.7247784614
21
0.4994217834
0
LINE
5
280
100
AcDbEntity
8
0
100
AcDbLine
62
0
6
CONTINUOUS
10
-17.9677974989
20
-0.8866155259
11
-12.9677974989
21
-0.8691621625
0
LINE
5
281
100
AcDbEntity
8
0
100
AcDbLine
62
9
6
CONTINUOUS
10
-17.9677974989
20
-0.0005782166
11
-23.7315547096
21
-0.0005782166
0
LINE
5
282
100
AcDbEntity
8
0
100
AcDbLine
62
0
6
CONTINUOUS
10
-17.9677974989
20
0.1994217834
11
-24.3175931950
21
0.1994217834
0
LINE
5
283
100
AcDbEntity
8
0
100
AcDbLine
62
0
6
CONTINUOUS
10
-24.3175931950
20
0.4994217834
11
-17.9677974989
21
0.4994217834
0
LINE
5
284
100
AcDbEntity
8
0
100
AcDbLine
62
0
6
CONTINUOUS
10
-17.9677974989
20
22.1994217834
11
-17.9677974989
21
-21.5005782166
0
LINE
5
285
100
AcDbEntity
8
0
100
AcDbLine
62
9
6
CONTINUOUS
10
-23.7315547096
20
0.6994217834
11
-17.9677974989
21
0.6994217834
0
LINE
5
286
100
AcDbEntity
8
0
100
AcDbLine
62
0
6
CONTINUOUS
10
-17.9677974989
20
1.5854590926
11
-12.9677974989
21
1.5680057292
0
LINE
5
287
100
AcDbEntity
8
0
100
AcDbLine
62
0
6
CONTINUOUS
10
-12.9677974989
20
1.5680057292
11
-12.9677974989
21
-0.8691621625
0
LINE
5
288
100
AcDbEntity
8
0
100
AcDbLine
62
9
6
CONTINUOUS
10
-17.9677974989
20
21.3995436272
11
-22.3547027848
21
21.3229699106
0
LINE
5
289
100
AcDbEntity
8
0
100
AcDbLine
62
0
6
CONTINUOUS
10
-17.9677974989
20
22.1994217834
11
-22.3547027848
21
22.1228480668
0
LINE
5
28A
100
AcDbEntity
8
0
100
AcDbLine
62
9
6
CONTINUOUS
10
-23.0408697139
20
20.6706194330
11
-23.8250604900
21
20.7249541860
0
CIRCLE
5
28B
100
AcDbEntity
8
0
100
AcDbCircle
62
0
6
CONTINUOUS
10
33.4501277831
20
0.3494217834
40
1.2500000000
0
CIRCLE
5
28C
100
AcDbEntity
8
0
100
AcDbCircle
62
9
6
CONTINUOUS
10
33.4501277831
20
0.3494217834
40
1.1616160628
0
ARC
5
28D
100
AcDbEntity
8
0
100
AcDbCircle
62
0
6
CONTINUOUS
10
35.0113772827
20
0.6994217834
40
0.2000000000
100
AcDbArc
50
192.6356250930
51
270.0000000000
0
ARC
5
28E
100
AcDbEntity
8
0
100
AcDbCircle
62
0
6
CONTINUOUS
10
31.8888782835
20
0.6994217834
40
0.2000000000
100
AcDbArc
50
270.0000000000
51
347.3643749070
0
ARC
5
28F
100
AcDbEntity
8
0
100
AcDbCircle
62
0
6
CONTINUOUS
10
33.4501277831
20
0.3494217834
40
1.4000000000
100
AcDbArc
50
12.6356250930
51
167.3643749070
0
ARC
5
290
100
AcDbEntity
8
0
100
AcDbCircle
62
0
6
CONTINUOUS
10
31.8888782835
20
-0.0005782166
40
0.2000000000
100
AcDbArc
50
12.6356250930
51
90.0000000000
0
ARC
5
291
100
AcDbEntity
8
0
100
AcDbCircle
62
0
6
CONTINUOUS
10
35.0113772827
20
-0.0005782166
40
0.2000000000
100
AcDbArc
50
90.0000000000
51
167.3643749070
0
ARC
5
292
100
AcDbEntity
8
0
100
AcDbCircle
62
0
6
CONTINUOUS
10
33.4501277831
20
0.3494217834
40
1.4000000000
100
AcDbArc
50
192.6356250930
51
347.3643749070
0
ARC
5
293
100
AcDbEntity
8
0
100
AcDbCircle
62
0
6
CONTINUOUS
10
-14.5677974989
20
0.3494217834
40
10.0000000000
100
AcDbArc
50
174.1618257271
51
185.8381742729
0
ARC
5
294
100
AcDbEntity
8
0
100
AcDbCircle
62
0
6
CONTINUOUS
10
-22.3285241751
20
20.6230765240
40
1.5000000000
100
AcDbArc
50
91.0000000000
51
176.1055619190
0
ARC
5
295
100
AcDbEntity
8
0
100
AcDbCircle
62
0
6
CONTINUOUS
10
275.4822025011
20
0.3494217834
40
300.0000000000
100
AcDbArc
50
180.0668896845
51
183.8944380810
0
ARC
5
296
100
AcDbEntity
8
0
100
AcDbCircle
62
0
6
CONTINUOUS
10
-22.3285241751
20
-19.9242329573
40
1.5000000000
100
AcDbArc
50
183.8944380810
51
269.0000000000
0
ARC
5
297
100
AcDbEntity
8
0
100
AcDbCircle
62
0
6
CONTINUOUS
10
275.4822025011
20
0.3494217834
40
300.0000000000
100
AcDbArc
50
176.1055619190
51
179.9331103155
0
ARC
5
298
100
AcDbEntity
8
0
100
AcDbCircle
62
0
6
CONTINUOUS
10
-24.3175931486
20
0.6994217834
40
0.2000000000
100
AcDbArc
50
179.9331101623
51
269.9999867053
0
ARC
5
299
100
AcDbEntity
8
0
100
AcDbCircle
62
0
6
CONTINUOUS
10
-24.3175931959
20
-0.0005782166
40
0.2000000000
100
AcDbArc
50
89.9999997468
51
180.0668898546
0
SPLINE
5
29A
100
AcDbEntity
8
0
100
AcDbSpline
62
0
6
CONTINUOUS
70
0
71
3
72
20
73
16
74
14
42
0.0000001000
43
0.0000001000
44
0.0000000001
12
0.3139920960
22
0.0000000000
32
0.0000000000
13
-0.0000000000
23
-0.3139920960
33
0.0000000000
40
0.0000000000
40
0.0000000000
40
0.0000000000
40
0.0000000000
40
0.0766769394
40
0.1537626427
40
0.2306557316
40
0.3073962026
40
0.3846179431
40
0.4617356747
40
0.5383974664
40
0.6154991133
40
0.6927108307
40
0.7694445799
40
0.8463036489
40
0.9233495776
40
1.0000000000
40
1.0000000000
40
1.0000000000
40
1.0000000000
10
55.4000973175
20
0.1994217834
30
0.0000000000
10
55.4081226351
20
0.1994217834
30
0.0000000000
10
55.4242328120
20
0.1984510890
30
0.0000000000
10
55.4480353269
20
0.1940959824
30
0.0000000000
10
55.4711483798
20
0.1868994685
30
0.0000000000
10
55.4932391254
20
0.1769679961
30
0.0000000000
10
55.5139919456
20
0.1644319624
30
0.0000000000
10
55.5330700197
20
0.1494838107
30
0.0000000000
10
55.5501986776
20
0.1323555124
30
0.0000000000
10
55.5651456464
20
0.1132800091
30
0.0000000000
10
55.5776804811
20
0.0925304771
30
0.0000000000
10
55.5876099865
20
0.0704446549
30
0.0000000000
10
55.5948039806
20
0.0473396758
30
0.0000000000
10
55.5991573964
20
0.0235475621
30
0.0000000000
10
55.6001277831
20
0.0074443256
30
0.0000000000
10
55.6001277831
20
-0.0005782166
30
0.0000000000
11
55.4000973175
21
0.1994217834
31
0.0000000000
11
55.4241296459
21
0.1979730944
31
0.0000000000
11
55.4479387849
21
0.1936172806
31
0.0000000000
11
55.4709909732
21
0.1864394841
31
0.0000000000
11
55.4929680494
21
0.1765591713
31
0.0000000000
11
55.5137223530
21
0.1640221591
31
0.0000000000
11
55.5327828043
21
0.1490878248
31
0.0000000000
11
55.5498038707
21
0.1320670785
31
0.0000000000
11
55.5647355631
21
0.1130109735
31
0.0000000000
11
55.5772714828
21
0.0922596867
31
0.0000000000
11
55.5871510982
21
0.0702846110
31
0.0000000000
11
55.5943256852
21
0.0472426112
31
0.0000000000
11
55.5986794374
21
0.0234457912
31
0.0000000000
11
55.6001277831
21
-0.0005782166
31
0.0000000000
0
SPLINE
5
29B
100
AcDbEntity
8
0
100
AcDbSpline
62
0
6
CONTINUOUS
70
0
71
3
72
20
73
16
74
14
42
0.0000001000
43
0.0000001000
44
0.0000000001
12
0.0000000000
22
0.3139920960
32
0.0000000000
13
0.3139920960
23
-0.0000000000
33
0.0000000000
40
0.0000000000
40
0.0000000000
40
0.0000000000
40
0.0000000000
40
0.0766504224
40
0.1536963511
40
0.2305554201
40
0.3072891693
40
0.3845008867
40
0.4616025336
40
0.5382643253
40
0.6153820569
40
0.6926037974
40
0.7693442684
40
0.8462373573
40
0.9233230606
40
1.0000000000
40
1.0000000000
40
1.0000000000
40
1.0000000000
10
11.3001277831
20
-0.0005782166
30
0.0000000000
10
11.3001277831
20
0.0074443256
30
0.0000000000
10
11.3010981697
20
0.0235475621
30
0.0000000000
10
11.3054515856
20
0.0473396758
30
0.0000000000
10
11.3126455797
20
0.0704446549
30
0.0000000000
10
11.3225750851
20
0.0925304771
30
0.0000000000
10
11.3351099198
20
0.1132800091
30
0.0000000000
10
11.3500568886
20
0.1323555124
30
0.0000000000
10
11.3671855465
20
0.1494838107
30
0.0000000000
10
11.3862636205
20
0.1644319624
30
0.0000000000
10
11.4070164407
20
0.1769679961
30
0.0000000000
10
11.4291071864
20
0.1868994685
30
0.0000000000
10
11.4522202392
20
0.1940959824
30
0.0000000000
10
11.4760227541
20
0.1984510890
30
0.0000000000
10
11.4921329310
20
0.1994217834
30
0.0000000000
10
11.5001582487
20
0.1994217834
30
0.0000000000
11
11.3001277831
21
-0.0005782166
31
0.0000000000
11
11.3015761287
21
0.0234457912
31
0.0000000000
11
11.3059298809
21
0.0472426112
31
0.0000000000
11
11.3131044680
21
0.0702846110
31
0.0000000000
11
11.3229840833
21
0.0922596867
31
0.0000000000
11
11.3355200030
21
0.1130109735
31
0.0000000000
11
11.3504516954
21
0.1320670785
31
0.0000000000
11
11.3674727619
21
0.1490878248
31
0.0000000000
11
11.3865332131
21
0.1640221591
31
0.0000000000
11
11.4072875167
21
0.1765591713
31
0.0000000000
11
11.4292645930
21
0.1864394841
31
0.0000000000
11
11.4523167813
21
0.1936172806
31
0.0000000000
11
11.4761259203
21
0.1979730944
31
0.0000000000
11
11.5001582487
21
0.1994217834
31
0.0000000000
0
SPLINE
5
29C
100
AcDbEntity
8
0
100
AcDbSpline
62
9
6
CONTINUOUS
70
0
71
3
72
18
73
14
74
12
42
0.0000001000
43
0.0000001000
44
0.0000000001
12
0.0000000000
22
-0.2877538296
32
0.0000000000
13
-0.2855496572
23
-0.0375918142
33
0.0000000000
40
0.0000000000
40
0.0000000000
40
0.0000000000
40
0.0000000000
40
0.0909153309
40
0.1818301941
40
0.2727441537
40
0.3636568353
40
0.4545679518
40
0.5454773225
40
0.6363848858
40
0.7272907033
40
0.8181949555
40
0.9090979296
40
1.0000000000
40
1.0000000000
40
1.0000000000
40
1.0000000000
10
55.4995210267
20
0.6994217834
30
0.0000000000
10
55.4995210267
20
0.6907013718
30
0.0000000000
10
55.4983772605
20
0.6732390714
30
0.0000000000
10
55.4932596621
20
0.6475108362
30
0.0000000000
10
55.4848276759
20
0.6226661767
30
0.0000000000
10
55.4732255690
20
0.5991360490
30
0.0000000000
10
55.4586518522
20
0.5773214883
30
0.0000000000
10
55.4413558709
20
0.5575961699
30
0.0000000000
10
55.4216335885
20
0.5402974907
30
0.0000000000
10
55.3998223420
20
0.5257214717
30
0.0000000000
10
55.3762957476
20
0.5141175116
30
0.0000000000
10
55.3514547820
20
0.5056841662
30
0.0000000000
10
55.3343051019
20
0.5022718690
30
0.0000000000
10
55.3256527502
20
0.5011328111
30
0.0000000000
11
55.4995210267
21
0.6994217834
31
0.0000000000
11
55.4978102596
21
0.6733165449
31
0.0000000000
11
55.4927072299
21
0.6476579743
31
0.0000000000
11
55.4842992519
21
0.6228850969
31
0.0000000000
11
55.4727301885
21
0.5994217834
31
0.0000000000
11
55.4581979894
21
0.5776694976
31
0.0000000000
11
55.4409513048
21
0.5580004271
31
0.0000000000
11
55.4212852300
21
0.5407511153
31
0.0000000000
11
55.3995362572
21
0.5262167026
31
0.0000000000
11
55.3760765173
21
0.5146458769
31
0.0000000000
11
55.3513074128
21
0.5062366181
31
0.0000000000
11
55.3256527502
21
0.5011328111
31
0.0000000000
0
SPLINE
5
29D
100
AcDbEntity
8
0
100
AcDbSpline
62
9
6
CONTINUOUS
70
0
71
3
72
18
73
14
74
12
42
0.0000001000
43
0.0000001000
44
0.0000000001
12
-0.0000000000
22
0.2877538338
32
0.0000000000
13
-0.2855496621
23
0.0375918087
33
0.0000000000
40
0.0000000000
40
0.0000000000
40
0.0000000000
40
0.0000000000
40
0.0909153394
40
0.1818302104
40
0.2727441768
40
0.3636568638
40
0.4545679838
40
0.5454773560
40
0.6363849184
40
0.7272907322
40
0.8181949779
40
0.9090979424
40
1.0000000000
40
1.0000000000
40
1.0000000000
40
1.0000000000
10
55.4995210267
20
-0.0005782166
30
0.0000000000
10
55.4995210267
20
0.0081421959
30
0.0000000000
10
55.4983772603
20
0.0256044981
30
0.0000000000
10
55.4932596608
20
0.0513327357
30
0.0000000000
10
55.4848276730
20
0.0761773972
30
0.0000000000
10
55.4732255643
20
0.0997075261
30
0.0000000000
10
55.4586518456
20
0.1215220872
30
0.0000000000
10
55.4413558626
20
0.1412474052
30
0.0000000000
10
55.4216335790
20
0.1585460833
30
0.0000000000
10
55.3998223323
20
0.1731221005
30
0.0000000000
10
55.3762957386
20
0.1847260587
30
0.0000000000
10
55.3514547750
20
0.1931594023
30
0.0000000000
10
55.3343050966
20
0.1965716986
30
0.0000000000
10
55.3256527460
20
0.1977107562
30
0.0000000000
11
55.4995210267
21
-0.0005782166
31
0.0000000000
11
55.4978102592
21
0.0255270246
31
0.0000000000
11
55.4927072285
21
0.0511855977
31
0.0000000000
11
55.4842992489
21
0.0759584771
31
0.0000000000
11
55.4727301836
21
0.0994217918
31
0.0000000000
11
55.4581979826
21
0.1211740780
31
0.0000000000
11
55.4409512963
21
0.1408431481
31
0.0000000000
11
55.4212852205
21
0.1580924588
31
0.0000000000
11
55.3995362473
21
0.1726268698
31
0.0000000000
11
55.3760765081
21
0.1841976937
31
0.0000000000
11
55.3513074056
21
0.1926069506
31
0.0000000000
11
55.3256527460
21
0.1977107562
31
0.0000000000
0
SPLINE
5
29E
100
AcDbEntity
8
0
100
AcDbSpline
62
9
6
CONTINUOUS
70
0
71
3
72
8
73
4
74
2
42
0.0000001000
43
0.0000001000
44
0.0000000001
12
-0.0259569173
22
0.0034171551
32
0.0000000000
13
-0.0261572800
23
-0.0000000000
33
0.0000000000
40
0.0000000000
40
0.0000000000
40
0.0000000000
40
0.0000000000
40
1.0000000000
40
1.0000000000
40
1.0000000000
40
1.0000000000
10
55.3256527460
20
0.1977107562
30
0.0000000000
10
55.3170004402
20
0.1988498079
30
0.0000000000
10
55.3082705810
20
0.1994217834
30
0.0000000000
10
55.2995514877
20
0.1994217834
30
0.0000000000
11
55.3256527460
21
0.1977107562
31
0.0000000000
11
55.2995514877
21
0.1994217834
31
0.0000000000
0
SPLINE
5
29F
100
AcDbEntity
8
0
100
AcDbSpline
62
9
6
CONTINUOUS
70
0
71
3
72
18
73
14
74
12
42
0.0000001000
43
0.0000001000
44
0.0000000001
12
0.0000000000
22
0.2877538296
32
0.0000000000
13
0.2855496572
23
0.0375918142
33
0.0000000000
40
0.0000000000
40
0.0000000000
40
0.0000000000
40
0.0000000000
40
0.0909153309
40
0.1818301941
40
0.2727441537
40
0.3636568353
40
0.4545679518
40
0.5454773225
40
0.6363848858
40
0.7272907033
40
0.8181949555
40
0.9090979296
40
1.0000000000
40
1.0000000000
40
1.0000000000
40
1.0000000000
10
11.4007345394
20
-0.0005782166
30
0.0000000000
10
11.4007345394
20
0.0081421949
30
0.0000000000
10
11.4018783056
20
0.0256044953
30
0.0000000000
10
11.4069959040
20
0.0513327305
30
0.0000000000
10
11.4154278903
20
0.0761773900
30
0.0000000000
10
11.4270299971
20
0.0997075178
30
0.0000000000
10
11.4416037139
20
0.1215220785
30
0.0000000000
10
11.4588996953
20
0.1412473968
30
0.0000000000
10
11.4786219777
20
0.1585460761
30
0.0000000000
10
11.5004332242
20
0.1731220950
30
0.0000000000
10
11.5239598186
20
0.1847260551
30
0.0000000000
10
11.5488007842
20
0.1931594005
30
0.0000000000
10
11.5659504643
20
0.1965716977
30
0.0000000000
10
11.5746028160
20
0.1977107556
30
0.0000000000
11
11.4007345394
21
-0.0005782166
31
0.0000000000
11
11.4024453065
21
0.0255270218
31
0.0000000000
11
11.4075483362
21
0.0511855924
31
0.0000000000
11
11.4159563142
21
0.0759584698
31
0.0000000000
11
11.4275253777
21
0.0994217834
31
0.0000000000
11
11.4420575767
21
0.1211740692
31
0.0000000000
11
11.4593042614
21
0.1408431396
31
0.0000000000
11
11.4789703361
21
0.1580924514
31
0.0000000000
11
11.5007193089
21
0.1726268641
31
0.0000000000
11
11.5241790489
21
0.1841976899
31
0.0000000000
11
11.5489481533
21
0.1926069486
31
0.0000000000
11
11.5746028160
21
0.1977107556
31
0.0000000000
0
SPLINE
5
2A0
100
AcDbEntity
8
0
100
AcDbSpline
62
9
6
CONTINUOUS
70
0
71
3
72
8
73
4
74
2
42
0.0000001000
43
0.0000001000
44
0.0000000001
12
0.0259569214
22
0.0034171562
32
0.0000000000
13
0.0261572843
23
-0.0000000000
33
0.0000000000
40
0.0000000000
40
0.0000000000
40
0.0000000000
40
0.0000000000
40
1.0000000000
40
1.0000000000
40
1.0000000000
40
1.0000000000
10
11.5746028160
20
0.1977107556
30
0.0000000000
10
11.5832551231
20
0.1988498077
30
0.0000000000
10
11.5919849837
20
0.1994217834
30
0.0000000000
10
11.6007040784
20
0.1994217834
30
0.0000000000
11
11.5746028160
21
0.1977107556
31
0.0000000000
11
11.6007040784
21
0.1994217834
31
0.0000000000
0
SPLINE
5
2A1
100
AcDbEntity
8
0
100
AcDbSpline
62
9
6
CONTINUOUS
70
0
71
3
72
18
73
14
74
12
42
0.0000001000
43
0.0000001000
44
0.0000000001
12
0.0000000000
22
-0.2877538338
32
0.0000000000
13
0.2855496621
23
-0.0375918087
33
0.0000000000
40
0.0000000000
40
0.0000000000
40
0.0000000000
40
0.0000000000
40
0.0909153394
40
0.1818302104
40
0.2727441768
40
0.3636568638
40
0.4545679838
40
0.5454773560
40
0.6363849184
40
0.7272907322
40
0.8181949779
40
0.9090979424
40
1.0000000000
40
1.0000000000
40
1.0000000000
40
1.0000000000
10
11.4007345394
20
0.6994217834
30
0.0000000000
10
11.4007345394
20
0.6907013709
30
0.0000000000
10
11.4018783058
20
0.6732390687
30
0.0000000000
10
11.4069959053
20
0.6475108310
30
0.0000000000
10
11.4154278931
20
0.6226661696
30
0.0000000000
10
11.4270300018
20
0.5991360406
30
0.0000000000
10
11.4416037205
20
0.5773214795
30
0.0000000000
10
11.4588997036
20
0.5575961616
30
0.0000000000
10
11.4786219871
20
0.5402974835
30
0.0000000000
10
11.5004332339
20
0.5257214662
30
0.0000000000
10
11.5239598275
20
0.5141175080
30
0.0000000000
10
11.5488007912
20
0.5056841645
30
0.0000000000
10
11.5659504695
20
0.5022718681
30
0.0000000000
10
11.5746028201
20
0.5011328105
30
0.0000000000
11
11.4007345394
21
0.6994217834
31
0.0000000000
11
11.4024453069
21
0.6733165421
31
0.0000000000
11
11.4075483376
21
0.6476579691
31
0.0000000000
11
11.4159563172
21
0.6228850897
31
0.0000000000
11
11.4275253825
21
0.5994217749
31
0.0000000000
11
11.4420575835
21
0.5776694887
31
0.0000000000
11
11.4593042698
21
0.5580004187
31
0.0000000000
11
11.4789703457
21
0.5407511080
31
0.0000000000
11
11.5007193188
21
0.5262166969
31
0.0000000000
11
11.5241790580
21
0.5146458731
31
0.0000000000
11
11.5489481606
21
0.5062366162
31
0.0000000000
11
11.5746028201
21
0.5011328105
31
0.0000000000
0
SPLINE
5
2A2
100
AcDbEntity
8
0
100
AcDbSpline
62
9
6
CONTINUOUS
70
0
71
3
72
24
73
20
74
18
42
0.0000001000
43
0.0000001000
44
0.0000000001
12
0.0003825233
22
-1.2558773180
32
0.0000000000
13
1.2558773180
23
-0.0003825233
33
0.0000000000
40
0.0000000000
40
0.0000000000
40
0.0000000000
40
0.0000000000
40
0.0588186456
40
0.1176389157
40
0.1764607270
40
0.2352839433
40
0.2941083808
40
0.3529338143
40
0.4117599843
40
0.4705866067
40
0.5294133816
40
0.5882400043
40
0.6470661751
40
0.7058916095
40
0.7647160484
40
0.8235392663
40
0.8823610795
40
0.9411813519
40
1.0000000000
40
1.0000000000
40
1.0000000000
40
1.0000000000
10
11.3767014997
20
-20.6241263439
30
0.0000000000
10
11.3767089995
20
-20.6487493449
30
0.0000000000
10
11.3790012181
20
-20.6980256326
30
0.0000000000
10
11.3892415020
20
-20.7712844339
30
0.0000000000
10
11.4061964574
20
-20.8432947092
30
0.0000000000
10
11.4297214770
20
-20.9134340717
30
0.0000000000
10
11.4596159265
20
-20.9811065717
30
0.0000000000
10
11.4956248525
20
-21.0457344908
30
0.0000000000
10
11.5374411584
20
-21.1067668288
30
0.0000000000
10
11.5847082226
20
-21.1636830480
30
0.0000000000
10
11.6370229410
20
-21.2159977673
30
0.0000000000
10
11.6939391596
20
-21.2632648328
30
0.0000000000
10
11.7549714976
20
-21.3050811402
30
0.0000000000
10
11.8195994172
20
-21.3410900679
30
0.0000000000
10
11.8872719183
20
-21.3709845190
30
0.0000000000
10
11.9574112825
20
-21.3945095401
30
0.0000000000
10
12.0294215601
20
-21.4114644968
30
0.0000000000
10
12.1026803641
20
-21.4217047814
30
0.0000000000
10
12.1519566538
20
-21.4239970002
30
0.0000000000
10
12.1765796558
20
-21.4240045000
30
0.0000000000
11
11.3767014997
21
-20.6241263439
31
0.0000000000
11
11.3801347917
21
-20.6979155206
31
0.0000000000
11
11.3903604371
21
-20.7710753982
31
0.0000000000
11
11.4072912283
21
-20.8429820445
31
0.0000000000
11
11.4307827737
21
-20.9130222149
31
0.0000000000
11
11.4606347294
21
-20.9805985830
31
0.0000000000
11
11.4965925079
21
-21.0451348345
31
0.0000000000
11
11.5383494491
21
-21.1060805820
31
0.0000000000
11
11.5855494354
21
-21.1629160594
31
0.0000000000
11
11.6377899294
21
-21.2151565544
31
0.0000000000
11
11.6946254063
21
-21.2623565421
31
0.0000000000
11
11.7555711538
21
-21.3041134847
31
0.0000000000
11
11.8201074058
21
-21.3400712649
31
0.0000000000
11
11.8876837750
21
-21.3699232223
31
0.0000000000
11
11.9577239472
21
-21.3934147691
31
0.0000000000
11
12.0296305956
21
-21.4103455615
31
0.0000000000
11
12.1027904760
21
-21.4205712077
31
0.0000000000
11
12.1765796558
21
-21.4240045000
31
0.0000000000
0
SPLINE
5
2A3
100
AcDbEntity
8
0
100
AcDbSpline
62
9
6
CONTINUOUS
70
0
71
3
72
27
73
23
74
21
42
0.0000001000
43
0.0000001000
44
0.0000000001
12
0.5910448105
22
1.2669836633
32
0.0000000000
13
0.0007751433
23
1.3980632926
33
0.0000000000
40
0.0000000000
40
0.0000000000
40
0.0000000000
40
0.0000000000
40
0.0043947854
40
0.0146523204
40
0.0307364444
40
0.0525624219
40
0.0800114491
40
0.1129329476
40
0.1511457169
40
0.1944392748
40
0.2425751055
40
0.2952879184
40
0.3522871313
40
0.4132585111
40
0.4778659509
40
0.5457533612
40
0.6165464861
40
0.6898549024
40
0.7652746064
40
0.8423900584
40
0.9207755278
40
1.0000000000
40
1.0000000000
40
1.0000000000
40
1.0000000000
10
12.1765796558
20
-21.4240045000
30
0.0000000000
10
12.1774454942
20
-21.4221484596
30
0.0000000000
10
12.1774088819
20
-21.4150530618
30
0.0000000000
10
12.1787788088
20
-21.4009934474
30
0.0000000000
10
12.1793117111
20
-21.3784340553
30
0.0000000000
10
12.1802811697
20
-21.3480404703
30
0.0000000000
10
12.1810643449
20
-21.3097237264
30
0.0000000000
10
12.1818931864
20
-21.2637960606
30
0.0000000000
10
12.1826728580
20
-21.2104736010
30
0.0000000000
10
12.1834279630
20
-21.1500630416
30
0.0000000000
10
12.1841436276
20
-21.0828932698
30
0.0000000000
10
12.1848186015
20
-21.0093359744
30
0.0000000000
10
12.1854478610
20
-20.9297963430
30
0.0000000000
10
12.1860280221
20
-20.8447130845
30
0.0000000000
10
12.1865556440
20
-20.7545552552
30
0.0000000000
10
12.1870277356
20
-20.6598199214
30
0.0000000000
10
12.1874416029
20
-20.5610294396
30
0.0000000000
10
12.1877949132
20
-20.4587284937
30
0.0000000000
10
12.1880856605
20
-20.3534810018
30
0.0000000000
10
12.1883122350
20
-20.2458673330
30
0.0000000000
10
12.1884733244
20
-20.1364804425
30
0.0000000000
10
12.1885362740
20
-20.0630308948
30
0.0000000000
10
12.1885567441
20
-20.0261106193
30
0.0000000000
11
12.1765796558
21
-21.4240045000
31
0.0000000000
11
12.1774855758
21
-21.4179274639
31
0.0000000000
11
12.1783852809
21
-21.4036150291
31
0.0000000000
11
12.1792739079
21
-21.3811459676
31
0.0000000000
11
12.1801464800
21
-21.3506443434
31
0.0000000000
11
12.1809982177
21
-21.3122783134
31
0.0000000000
11
12.1818244152
21
-21.2662593836
31
0.0000000000
11
12.1826205188
21
-21.2128414374
31
0.0000000000
11
12.1833821381
21
-21.1523190859
31
0.0000000000
11
12.1841050754
21
-21.0850260208
31
0.0000000000
11
12.1847853449
21
-21.0113333005
31
0.0000000000
11
12.1854191962
21
-20.9316473018
31
0.0000000000
11
12.1860031349
21
-20.8464074409
31
0.0000000000
11
12.1865339421
21
-20.7560836966
31
0.0000000000
11
12.1870086925
21
-20.6611739731
31
0.0000000000
11
12.1874247685
21
-20.5622015631
31
0.0000000000
11
12.1877798774
21
-20.4597123567
31
0.0000000000
11
12.1880720589
21
-20.3542712256
31
0.0000000000
11
12.1882997114
21
-20.2464591667
31
0.0000000000
11
12.1884615645
21
-20.1368714219
31
0.0000000000
11
12.1885567441
21
-20.0261106193
31
0.0000000000
0
SPLINE
5
2A4
100
AcDbEntity
8
0
100
AcDbSpline
62
9
6
CONTINUOUS
70
0
71
3
72
27
73
23
74
21
42
0.0000001000
43
0.0000001000
44
0.0000000001
12
0.4614527903
22
0.4616198701
32
0.0000000000
13
0.0007756565
23
0.6527104875
33
0.0000000000
40
0.0000000000
40
0.0000000000
40
0.0000000000
40
0.0000000000
40
0.0045595870
40
0.0148839731
40
0.0310054044
40
0.0528534656
40
0.0803146385
40
0.1132409494
40
0.1514526899
40
0.1947403479
40
0.2428660972
40
0.2955651766
40
0.3525474374
40
0.4134990171
40
0.4780841040
40
0.5459468958
40
0.6167134224
40
0.6899935381
40
0.7653835089
40
0.8424680688
40
0.9208217446
40
1.0000000000
40
1.0000000000
40
1.0000000000
40
1.0000000000
10
11.3767014997
20
-20.6241263439
30
0.0000000000
10
11.3774028444
20
-20.6234247453
30
0.0000000000
10
11.3777015916
20
-20.6198682579
30
0.0000000000
10
11.3787976278
20
-20.6134735433
30
0.0000000000
10
11.3794776694
20
-20.6028393277
30
0.0000000000
10
11.3803854121
20
-20.5886949896
30
0.0000000000
10
11.3811921364
20
-20.5707966911
30
0.0000000000
10
11.3820127940
20
-20.5493685149
30
0.0000000000
10
11.3827952740
20
-20.5244821621
30
0.0000000000
10
11.3835495161
20
-20.4962905184
30
0.0000000000
10
11.3842654864
20
-20.4649437348
30
0.0000000000
10
11.3849403941
20
-20.4306162730
30
0.0000000000
10
11.3855696966
20
-20.3934968824
30
0.0000000000
10
11.3861498638
20
-20.3537903963
30
0.0000000000
10
11.3866774991
20
-20.3117156940
30
0.0000000000
10
11.3871495977
20
-20.2675047696
30
0.0000000000
10
11.3875634719
20
-20.2214014040
30
0.0000000000
10
11.3879167816
20
-20.1736597995
30
0.0000000000
10
11.3882075352
20
-20.1245431333
30
0.0000000000
10
11.3884340957
20
-20.0743222624
30
0.0000000000
10
11.3885951857
20
-20.0232769180
30
0.0000000000
10
11.3886581163
20
-19.9890026921
30
0.0000000000
10
11.3886785880
20
-19.9717758662
30
0.0000000000
11
11.3767014997
21
-20.6241263439
31
0.0000000000
11
11.3776072224
21
-20.6212914203
31
0.0000000000
11
11.3785069779
21
-20.6146129172
31
0.0000000000
11
11.3793956073
21
-20.6041278718
31
0.0000000000
11
11.3802682034
21
-20.5898941251
31
0.0000000000
11
11.3811199572
21
-20.5719901658
31
0.0000000000
11
11.3819461735
21
-20.5505146897
31
0.0000000000
11
11.3827422947
21
-20.5255861776
31
0.0000000000
11
11.3835039311
21
-20.4973421166
31
0.0000000000
11
11.3842268843
21
-20.4659382337
31
0.0000000000
11
11.3849071686
21
-20.4315476953
31
0.0000000000
11
11.3855410332
21
-20.3943601516
31
0.0000000000
11
11.3861249835
21
-20.3545806741
31
0.0000000000
11
11.3866558001
21
-20.3124286229
31
0.0000000000
11
11.3871305574
21
-20.2681363800
31
0.0000000000
11
11.3875466382
21
-20.2219481674
31
0.0000000000
11
11.3879017483
21
-20.1741187518
31
0.0000000000
11
11.3881939311
21
-20.1249117599
31
0.0000000000
11
11.3884215767
21
-20.0745983387
31
0.0000000000
11
11.3885834295
21
-20.0234562928
31
0.0000000000
11
11.3886785880
21
-19.9717758662
31
0.0000000000
0
SPLINE
5
2A5
100
AcDbEntity
8
0
100
AcDbSpline
62
9
6
CONTINUOUS
70
0
71
3
72
24
73
20
74
18
42
0.0000001000
43
0.0000001000
44
0.0000000001
12
0.2000106169
22
-0.7802891870
32
0.0000000000
13
0.8055150864
23
-0.0009527498
33
0.0000000000
40
0.0000000000
40
0.0000000000
40
0.0000000000
40
0.0000000000
40
0.0084036160
40
0.0236382935
40
0.0465188378
40
0.0770996583
40
0.1152229665
40
0.1606196706
40
0.2129396186
40
0.2717648161
40
0.3366174257
40
0.4069659923
40
0.4822310950
40
0.5617908967
40
0.6449867765
40
0.7311291188
40
0.8195032705
40
0.9093756531
40
1.0000000000
40
1.0000000000
40
1.0000000000
40
1.0000000000
10
11.3886785880
20
-19.9717758662
30
0.0000000000
10
11.3892388588
20
-19.9739616165
30
0.0000000000
10
11.3949125940
20
-19.9782377210
30
0.0000000000
10
11.4062903756
20
-19.9824888410
30
0.0000000000
10
11.4243309161
20
-19.9872074061
30
0.0000000000
10
11.4484435311
20
-19.9917057599
30
0.0000000000
10
11.4787856459
20
-19.9961678472
30
0.0000000000
10
11.5150036411
20
-20.0004321576
30
0.0000000000
10
11.5568449906
20
-20.0044886727
30
0.0000000000
10
11.6039493322
20
-20.0082844083
30
0.0000000000
10
11.6559300203
20
-20.0117878256
30
0.0000000000
10
11.7123527753
20
-20.0149658622
30
0.0000000000
10
11.7727478285
20
-20.0177907148
30
0.0000000000
10
11.8366114707
20
-20.0202375433
30
0.0000000000
10
11.9034111147
20
-20.0222851663
30
0.0000000000
10
11.9725895520
20
-20.0239159292
30
0.0000000000
10
12.0435697113
20
-20.0251158439
30
0.0000000000
10
12.1157594125
20
-20.0258746468
30
0.0000000000
10
12.1642236512
20
-20.0260818385
30
0.0000000000
10
12.1885567441
20
-20.0261106193
30
0.0000000000
11
11.3886785880
21
-19.9717758662
31
0.0000000000
11
11.3932866091
21
-19.9767345766
31
0.0000000000
11
11.4045301036
21
-19.9816519131
31
0.0000000000
11
11.4223152597
21
-19.9864868471
31
0.0000000000
11
11.4464936836
21
-19.9911990375
31
0.0000000000
11
11.4768636387
21
-19.9957491673
31
0.0000000000
11
11.5131717279
21
-20.0000992717
31
0.0000000000
11
11.5551150084
21
-20.0042130549
31
0.0000000000
11
11.6023435192
21
-20.0080561929
31
0.0000000000
11
11.6544632011
21
-20.0115966197
31
0.0000000000
11
11.7110391847
21
-20.0148047951
31
0.0000000000
11
11.7715994183
21
-20.0176539513
31
0.0000000000
11
11.8356386072
21
-20.0201203158
31
0.0000000000
11
11.9026224295
21
-20.0221833100
31
0.0000000000
11
11.9719919940
21
-20.0238257210
31
0.0000000000
11
12.0431685038
21
-20.0250338451
31
0.0000000000
11
12.1155580855
21
-20.0257976020
31
0.0000000000
11
12.1885567441
21
-20.0261106193
31
0.0000000000
0
SPLINE
5
2A6
100
AcDbEntity
8
0
100
AcDbSpline
62
9
6
CONTINUOUS
70
0
71
3
72
24
73
20
74
18
42
0.0000001000
43
0.0000001000
44
0.0000000001
12
0.2000109563
22
0.7802890986
32
0.0000000000
13
0.8055150851
23
0.0009527495
33
0.0000000000
40
0.0000000000
40
0.0000000000
40
0.0000000000
40
0.0000000000
40
0.0084036176
40
0.0236382973
40
0.0465188434
40
0.0770996654
40
0.1152229748
40
0.1606196797
40
0.2129396282
40
0.2717648258
40
0.3366174353
40
0.4069660013
40
0.4822311034
40
0.5617909040
40
0.6449867826
40
0.7311291236
40
0.8195032738
40
0.9093756547
40
1.0000000000
40
1.0000000000
40
1.0000000000
40
1.0000000000
10
11.3886785880
20
20.6706194330
30
0.0000000000
10
11.3892388598
20
20.6728051834
30
0.0000000000
10
11.3949125964
20
20.6770812872
30
0.0000000000
10
11.4062903795
20
20.6813324075
30
0.0000000000
10
11.4243309215
20
20.6860509722
30
0.0000000000
10
11.4484435378
20
20.6905493259
30
0.0000000000
10
11.4787856535
20
20.6950114131
30
0.0000000000
10
11.5150036493
20
20.6992757233
30
0.0000000000
10
11.5568449992
20
20.7033322382
30
0.0000000000
10
11.6039493408
20
20.7071279736
30
0.0000000000
10
11.6559300288
20
20.7106313907
30
0.0000000000
10
11.7123527833
20
20.7138094272
30
0.0000000000
10
11.7727478358
20
20.7166342797
30
0.0000000000
10
11.8366114771
20
20.7190811080
30
0.0000000000
10
11.9034111200
20
20.7211287308
30
0.0000000000
10
11.9725895561
20
20.7227594937
30
0.0000000000
10
12.0435697141
20
20.7239594083
30
0.0000000000
10
12.1157594139
20
20.7247182111
30
0.0000000000
10
12.1642236517
20
20.7249254029
30
0.0000000000
10
12.1885567441
20
20.7249541836
30
0.0000000000
11
11.3886785880
21
20.6706194330
31
0.0000000000
11
11.3932866112
21
20.6755781432
31
0.0000000000
11
11.4045301076
21
20.6804954795
31
0.0000000000
11
11.4223152652
21
20.6853304133
31
0.0000000000
11
11.4464936904
21
20.6900426035
31
0.0000000000
11
11.4768636464
21
20.6945927332
31
0.0000000000
11
11.5131717362
21
20.6989428374
31
0.0000000000
11
11.5551150170
21
20.7030566204
31
0.0000000000
11
11.6023435279
21
20.7068997582
31
0.0000000000
11
11.6544632097
21
20.7104401848
31
0.0000000000
11
11.7110391927
21
20.7136483601
31
0.0000000000
11
11.7715994256
21
20.7164975162
31
0.0000000000
11
11.8356386137
21
20.7189638805
31
0.0000000000
11
11.9026224349
21
20.7210268746
31
0.0000000000
11
11.9719919981
21
20.7226692855
31
0.0000000000
11
12.0431685067
21
20.7238774095
31
0.0000000000
11
12.1155580870
21
20.7246411664
31
0.0000000000
11
12.1885567441
21
20.7249541836
31
0.0000000000
0
SPLINE
5
2A7
100
AcDbEntity
8
0
100
AcDbSpline
62
9
6
CONTINUOUS
70
0
71
3
72
27
73
23
74
21
42
0.0000001000
43
0.0000001000
44
0.0000000001
12
-0.0007752283
22
1.3980632934
32
0.0000000000
13
-0.5910241265
23
1.2669933130
33
0.0000000000
40
0.0000000000
40
0.0000000000
40
0.0000000000
40
0.0000000000
40
0.0792244504
40
0.1576099226
40
0.2347253761
40
0.3101450783
40
0.3834534978
40
0.4542466242
40
0.5221340335
40
0.5867414735
40
0.6477128546
40
0.7047120687
40
0.7574248821
40
0.8055607134
40
0.8488542728
40
0.8870670440
40
0.9199885432
40
0.9474375707
40
0.9692635502
40
0.9853476755
40
0.9956052118
40
1.0000000000
40
1.0000000000
40
1.0000000000
40
1.0000000000
10
12.1885567441
20
20.7249541860
30
0.0000000000
10
12.1885362718
20
20.7618744514
30
0.0000000000
10
12.1884733271
20
20.8353239903
30
0.0000000000
10
12.1883122346
20
20.9447108726
30
0.0000000000
10
12.1880856626
20
21.0523245427
30
0.0000000000
10
12.1877949148
20
21.1575720361
30
0.0000000000
10
12.1874416055
20
21.2598729833
30
0.0000000000
10
12.1870277386
20
21.3586634669
30
0.0000000000
10
12.1865556477
20
21.4533988011
30
0.0000000000
10
12.1860280265
20
21.5435566307
30
0.0000000000
10
12.1854478661
20
21.6286398905
30
0.0000000000
10
12.1848186070
20
21.7081795233
30
0.0000000000
10
12.1841436335
20
21.7817368199
30
0.0000000000
10
12.1834279689
20
21.8489065929
30
0.0000000000
10
12.1826728642
20
21.9093171542
30
0.0000000000
10
12.1818931916
20
21.9626396155
30
0.0000000000
10
12.1810643524
20
22.0085672835
30
0.0000000000
10
12.1802811703
20
22.0468840266
30
0.0000000000
10
12.1793117284
20
22.0772776192
30
0.0000000000
10
12.1787787881
20
22.0998369996
30
0.0000000000
10
12.1774089284
20
22.1138966428
30
0.0000000000
10
12.1774454644
20
22.1209920110
30
0.0000000000
10
12.1765796558
20
22.1228480668
30
0.0000000000
11
12.1885567441
21
20.7249541860
31
0.0000000000
11
12.1884615655
21
20.8357149582
31
0.0000000000
11
12.1882997120
21
20.9453027070
31
0.0000000000
11
12.1880720605
21
21.0531147680
31
0.0000000000
11
12.1877798792
21
21.1585558967
31
0.0000000000
11
12.1874247710
21
21.2610451076
31
0.0000000000
11
12.1870086956
21
21.3600175197
31
0.0000000000
11
12.1865339458
21
21.4549272420
31
0.0000000000
11
12.1860031393
21
21.5452509865
31
0.0000000000
11
12.1854192013
21
21.6304908494
31
0.0000000000
11
12.1847853504
21
21.7101768497
31
0.0000000000
11
12.1841050812
21
21.7838695708
31
0.0000000000
11
12.1833821441
21
21.8511626368
31
0.0000000000
11
12.1826205248
21
21.9116849904
31
0.0000000000
11
12.1818244210
21
21.9651029393
31
0.0000000000
11
12.1809982234
21
22.0111218701
31
0.0000000000
11
12.1801464854
21
22.0494879005
31
0.0000000000
11
12.1792739136
21
22.0799895275
31
0.0000000000
11
12.1783852848
21
22.1024585909
31
0.0000000000
11
12.1774855820
21
22.1167710276
31
0.0000000000
11
12.1765796558
21
22.1228480668
31
0.0000000000
0
SPLINE
5
2A8
100
AcDbEntity
8
0
100
AcDbSpline
62
9
6
CONTINUOUS
70
0
71
3
72
27
73
23
74
21
42
0.0000001000
43
0.0000001000
44
0.0000000001
12
-0.0007756652
22
0.6527104856
32
0.0000000000
13
-0.4614627515
23
0.4616099096
33
0.0000000000
40
0.0000000000
40
0.0000000000
40
0.0000000000
40
0.0000000000
40
0.0791736107
40
0.1575272522
40
0.2346118066
40
0.3100017951
40
0.3832819636
40
0.4540485714
40
0.5219114732
40
0.5864967030
40
0.6474484725
40
0.7044309980
40
0.7571304074
40
0.8052565380
40
0.8485445921
40
0.8867567290
40
0.9196834322
40
0.9471449931
40
0.9689934341
40
0.9851152424
40
0.9954399754
40
1.0000000000
40
1.0000000000
40
1.0000000000
40
1.0000000000
10
11.3886785880
20
20.6706194330
30
0.0000000000
10
11.3886581172
20
20.6878452483
30
0.0000000000
10
11.3885951903
20
20.7221184560
30
0.0000000000
10
11.3884341072
20
20.7731627811
30
0.0000000000
10
11.3882075511
20
20.8233836471
30
0.0000000000
10
11.3879168017
20
20.8725003273
30
0.0000000000
10
11.3875634965
20
20.9202419647
30
0.0000000000
10
11.3871496266
20
20.9663453833
30
0.0000000000
10
11.3866775325
20
21.0105563803
30
0.0000000000
10
11.3861499015
20
21.0526311788
30
0.0000000000
10
11.3855697384
20
21.0923377948
30
0.0000000000
10
11.3849404395
20
21.1294573561
30
0.0000000000
10
11.3842655345
20
21.1637850302
30
0.0000000000
10
11.3835495663
20
21.1951320548
30
0.0000000000
10
11.3827953255
20
21.2233239539
30
0.0000000000
10
11.3820128468
20
21.2482105648
30
0.0000000000
10
11.3811921880
20
21.2696389962
30
0.0000000000
10
11.3803854685
20
21.2875375503
30
0.0000000000
10
11.3794777122
20
21.3016821295
30
0.0000000000
10
11.3787976998
20
21.3123166066
30
0.0000000000
10
11.3777015912
20
21.3187115285
30
0.0000000000
10
11.3774029268
20
21.3222682598
30
0.0000000000
10
11.3767014997
20
21.3229699106
30
0.0000000000
11
11.3886785880
21
20.6706194330
31
0.0000000000
11
11.3885834371
21
20.7222968277
31
0.0000000000
11
11.3884215883
21
20.7734388511
31
0.0000000000
11
11.3881939470
21
20.8237522686
31
0.0000000000
11
11.3879017685
21
20.8729592720
31
0.0000000000
11
11.3875466629
21
20.9207887219
31
0.0000000000
11
11.3871305865
21
20.9669769874
31
0.0000000000
11
11.3866558337
21
21.0112693020
31
0.0000000000
11
11.3861250215
21
21.0534214464
31
0.0000000000
11
11.3855410755
21
21.0932010478
31
0.0000000000
11
11.3849072145
21
21.1303887643
31
0.0000000000
11
11.3842269330
21
21.1647795180
31
0.0000000000
11
11.3835039817
21
21.1961836498
31
0.0000000000
11
11.3827423467
21
21.2244279694
31
0.0000000000
11
11.3819462266
21
21.2493567403
31
0.0000000000
11
11.3811200110
21
21.2708324727
31
0.0000000000
11
11.3802682575
21
21.2887366854
31
0.0000000000
11
11.3793956615
21
21.3029706804
31
0.0000000000
11
11.3785070318
21
21.3134559728
31
0.0000000000
11
11.3776072757
21
21.3201347042
31
0.0000000000
11
11.3767014997
21
21.3229699106
31
0.0000000000
0
SPLINE
5
2A9
100
AcDbEntity
8
0
100
AcDbSpline
62
9
6
CONTINUOUS
70
0
71
3
72
24
73
20
74
18
42
0.0000001000
43
0.0000001000
44
0.0000000001
12
0.0003825233
22
1.2558773180
32
0.0000000000
13
1.2558773180
23
0.0003825233
33
0.0000000000
40
0.0000000000
40
0.0000000000
40
0.0000000000
40
0.0000000000
40
0.0588186470
40
0.1176389184
40
0.1764607307
40
0.2352839479
40
0.2941083860
40
0.3529338199
40
0.4117599902
40
0.4705866126
40
0.5294133874
40
0.5882400098
40
0.6470661801
40
0.7058916140
40
0.7647160521
40
0.8235392693
40
0.8823610816
40
0.9411813530
40
1.0000000000
40
1.0000000000
40
1.0000000000
40
1.0000000000
10
11.3767014997
20
21.3229699106
30
0.0000000000
10
11.3767089995
20
21.3475929122
30
0.0000000000
10
11.3790012182
20
21.3968692011
30
0.0000000000
10
11.3892415025
20
21.4701280039
30
0.0000000000
10
11.4061964587
20
21.5421382804
30
0.0000000000
10
11.4297214790
20
21.6122776438
30
0.0000000000
10
11.4596159293
20
21.6799501442
30
0.0000000000
10
11.4956248562
20
21.7445780635
30
0.0000000000
10
11.5374411628
20
21.8056104014
30
0.0000000000
10
11.5847082276
20
21.8625266202
30
0.0000000000
10
11.6370229463
20
21.9148413389
30
0.0000000000
10
11.6939391651
20
21.9621084036
30
0.0000000000
10
11.7549715029
20
22.0039247103
30
0.0000000000
10
11.8195994222
20
22.0399336371
30
0.0000000000
10
11.8872719227
20
22.0698280874
30
0.0000000000
10
11.9574112860
20
22.0933531078
30
0.0000000000
10
12.0294215625
20
22.1103080639
30
0.0000000000
10
12.1026803653
20
22.1205483482
30
0.0000000000
10
12.1519566542
20
22.1228405669
30
0.0000000000
10
12.1765796558
20
22.1228480668
30
0.0000000000
11
11.3767014997
21
21.3229699106
31
0.0000000000
11
11.3801347919
21
21.3967590891
31
0.0000000000
11
11.3903604378
21
21.4699189683
31
0.0000000000
11
11.4072912296
21
21.5418256157
31
0.0000000000
11
11.4307827757
21
21.6118657870
31
0.0000000000
11
11.4606347323
21
21.6794421556
31
0.0000000000
11
11.4965925117
21
21.7439784072
31
0.0000000000
11
11.5383494535
21
21.8049241546
31
0.0000000000
11
11.5855494404
21
21.8617596317
31
0.0000000000
11
11.6377899348
21
21.9140001260
31
0.0000000000
11
11.6946254118
21
21.9612001129
31
0.0000000000
11
11.7555711592
21
22.0029570548
31
0.0000000000
11
11.8201074108
21
22.0389148341
31
0.0000000000
11
11.8876837794
21
22.0687667907
31
0.0000000000
11
11.9577239507
21
22.0922583369
31
0.0000000000
11
12.0296305981
21
22.1091891287
31
0.0000000000
11
12.1027904773
21
22.1194147746
31
0.0000000000
11
12.1765796558
21
22.1228480668
31
0.0000000000
0
SPLINE
5
2AA
100
AcDbEntity
8
0
100
AcDbSpline
62
9
6
CONTINUOUS
70
0
71
3
72
24
73
20
74
18
42
0.0000001000
43
0.0000001000
44
0.0000000001
12
-0.0003825233
22
1.2558773180
32
0.0000000000
13
-1.2558773180
23
0.0003825233
33
0.0000000000
40
0.0000000000
40
0.0000000000
40
0.0000000000
40
0.0000000000
40
0.0588186462
40
0.1176389169
40
0.1764607286
40
0.2352839452
40
0.2941083831
40
0.3529338167
40
0.4117599868
40
0.4705866092
40
0.5294133841
40
0.5882400067
40
0.6470661773
40
0.7058916114
40
0.7647160500
40
0.8235392676
40
0.8823610804
40
0.9411813524
40
1.0000000000
40
1.0000000000
40
1.0000000000
40
1.0000000000
10
55.5235540665
20
21.3229699106
30
0.0000000000
10
55.5235465666
20
21.3475929118
30
0.0000000000
10
55.5212543480
20
21.3968692001
30
0.0000000000
10
55.5110140639
20
21.4701280020
30
0.0000000000
10
55.4940591082
20
21.5421382778
30
0.0000000000
10
55.4705340883
20
21.6122776407
30
0.0000000000
10
55.4406396385
20
21.6799501409
30
0.0000000000
10
55.4046307121
20
21.7445780601
30
0.0000000000
10
55.3628144058
20
21.8056103980
30
0.0000000000
10
55.3155473414
20
21.8625266170
30
0.0000000000
10
55.2632326229
20
21.9148413361
30
0.0000000000
10
55.2063164042
20
21.9621084013
30
0.0000000000
10
55.1452840662
20
22.0039247084
30
0.0000000000
10
55.0806561467
20
22.0399336357
30
0.0000000000
10
55.0129836459
20
22.0698280865
30
0.0000000000
10
54.9428442821
20
22.0933531072
30
0.0000000000
10
54.8708340050
20
22.1103080637
30
0.0000000000
10
54.7975752015
20
22.1205483482
30
0.0000000000
10
54.7482989121
20
22.1228405669
30
0.0000000000
10
54.7236759103
20
22.1228480668
30
0.0000000000
11
55.5235540665
21
21.3229699106
31
0.0000000000
11
55.5201207744
21
21.3967590881
31
0.0000000000
11
55.5098951287
21
21.4699189664
31
0.0000000000
11
55.4929643373
21
21.5418256131
31
0.0000000000
11
55.4694727916
21
21.6118657839
31
0.0000000000
11
55.4396208355
21
21.6794421522
31
0.0000000000
11
55.4036630566
21
21.7439784038
31
0.0000000000
11
55.3619061152
21
21.8049241512
31
0.0000000000
11
55.3147061286
21
21.8617596285
31
0.0000000000
11
55.2624656344
21
21.9140001232
31
0.0000000000
11
55.2056301574
21
21.9612001106
31
0.0000000000
11
55.1446844100
21
22.0029570529
31
0.0000000000
11
55.0801481581
21
22.0389148327
31
0.0000000000
11
55.0125717892
21
22.0687667897
31
0.0000000000
11
54.9425316174
21
22.0922583363
31
0.0000000000
11
54.8706249694
21
22.1091891284
31
0.0000000000
11
54.7974650895
21
22.1194147745
31
0.0000000000
11
54.7236759103
21
22.1228480668
31
0.0000000000
0
SPLINE
5
2AB
100
AcDbEntity
8
0
100
AcDbSpline
62
9
6
CONTINUOUS
70
0
71
3
72
27
73
23
74
21
42
0.0000001000
43
0.0000001000
44
0.0000000001
12
-0.5910241270
22
-1.2669933128
32
0.0000000000
13
-0.0007752283
23
-1.3980632934
33
0.0000000000
40
0.0000000000
40
0.0000000000
40
0.0000000000
40
0.0000000000
40
0.0043947882
40
0.0146523245
40
0.0307364498
40
0.0525624293
40
0.0800114568
40
0.1129329560
40
0.1511457272
40
0.1944392866
40
0.2425751179
40
0.2952879313
40
0.3522871454
40
0.4132585265
40
0.4778659665
40
0.5457533758
40
0.6165465022
40
0.6898549217
40
0.7652746239
40
0.8423900774
40
0.9207755496
40
1.0000000000
40
1.0000000000
40
1.0000000000
40
1.0000000000
10
54.7236759103
20
22.1228480668
30
0.0000000000
10
54.7228101017
20
22.1209920110
30
0.0000000000
10
54.7228466378
20
22.1138966428
30
0.0000000000
10
54.7214767780
20
22.0998369996
30
0.0000000000
10
54.7209438377
20
22.0772776192
30
0.0000000000
10
54.7199743959
20
22.0468840266
30
0.0000000000
10
54.7191912137
20
22.0085672835
30
0.0000000000
10
54.7183623745
20
21.9626396155
30
0.0000000000
10
54.7175827019
20
21.9093171542
30
0.0000000000
10
54.7168275972
20
21.8489065929
30
0.0000000000
10
54.7161119326
20
21.7817368199
30
0.0000000000
10
54.7154369591
20
21.7081795233
30
0.0000000000
10
54.7148077001
20
21.6286398905
30
0.0000000000
10
54.7142275396
20
21.5435566307
30
0.0000000000
10
54.7136999184
20
21.4533988011
30
0.0000000000
10
54.7132278276
20
21.3586634669
30
0.0000000000
10
54.7128139607
20
21.2598729833
30
0.0000000000
10
54.7124606513
20
21.1575720361
30
0.0000000000
10
54.7121699036
20
21.0523245427
30
0.0000000000
10
54.7119433315
20
20.9447108726
30
0.0000000000
10
54.7117822390
20
20.8353239903
30
0.0000000000
10
54.7117192944
20
20.7618744514
30
0.0000000000
10
54.7116988220
20
20.7249541860
30
0.0000000000
11
54.7236759103
21
22.1228480668
31
0.0000000000
11
54.7227699841
21
22.1167710276
31
0.0000000000
11
54.7218702813
21
22.1024585909
31
0.0000000000
11
54.7209816525
21
22.0799895275
31
0.0000000000
11
54.7201090807
21
22.0494879005
31
0.0000000000
11
54.7192573427
21
22.0111218701
31
0.0000000000
11
54.7184311452
21
21.9651029393
31
0.0000000000
11
54.7176350414
21
21.9116849904
31
0.0000000000
11
54.7168734220
21
21.8511626368
31
0.0000000000
11
54.7161504849
21
21.7838695708
31
0.0000000000
11
54.7154702157
21
21.7101768497
31
0.0000000000
11
54.7148363649
21
21.6304908494
31
0.0000000000
11
54.7142524268
21
21.5452509865
31
0.0000000000
11
54.7137216203
21
21.4549272420
31
0.0000000000
11
54.7132468705
21
21.3600175197
31
0.0000000000
11
54.7128307952
21
21.2610451076
31
0.0000000000
11
54.7124756869
21
21.1585558967
31
0.0000000000
11
54.7121835057
21
21.0531147680
31
0.0000000000
11
54.7119558542
21
20.9453027070
31
0.0000000000
11
54.7117940006
21
20.8357149582
31
0.0000000000
11
54.7116988220
21
20.7249541860
31
0.0000000000
0
SPLINE
5
2AC
100
AcDbEntity
8
0
100
AcDbSpline
62
9
6
CONTINUOUS
70
0
71
3
72
27
73
23
74
21
42
0.0000001000
43
0.0000001000
44
0.0000000001
12
-0.4614627511
22
-0.4616099100
32
0.0000000000
13
-0.0007756652
23
-0.6527104856
33
0.0000000000
40
0.0000000000
40
0.0000000000
40
0.0000000000
40
0.0000000000
40
0.0045600246
40
0.0148847576
40
0.0310065659
40
0.0528550069
40
0.0803165678
40
0.1132432710
40
0.1514554079
40
0.1947434620
40
0.2428695926
40
0.2955690020
40
0.3525515275
40
0.4135032970
40
0.4780885268
40
0.5459514286
40
0.6167180364
40
0.6899982049
40
0.7653881934
40
0.8424727478
40
0.9208263893
40
1.0000000000
40
1.0000000000
40
1.0000000000
40
1.0000000000
10
55.5235540665
20
21.3229699106
30
0.0000000000
10
55.5228526393
20
21.3222682598
30
0.0000000000
10
55.5225539749
20
21.3187115285
30
0.0000000000
10
55.5214578663
20
21.3123166066
30
0.0000000000
10
55.5207778539
20
21.3016821295
30
0.0000000000
10
55.5198700977
20
21.2875375503
30
0.0000000000
10
55.5190633781
20
21.2696389962
30
0.0000000000
10
55.5182427193
20
21.2482105648
30
0.0000000000
10
55.5174602407
20
21.2233239539
30
0.0000000000
10
55.5167059998
20
21.1951320548
30
0.0000000000
10
55.5159900316
20
21.1637850302
30
0.0000000000
10
55.5153151267
20
21.1294573561
30
0.0000000000
10
55.5146858277
20
21.0923377948
30
0.0000000000
10
55.5141056647
20
21.0526311788
30
0.0000000000
10
55.5135780337
20
21.0105563803
30
0.0000000000
10
55.5131059396
20
20.9663453833
30
0.0000000000
10
55.5126920697
20
20.9202419647
30
0.0000000000
10
55.5123387644
20
20.8725003273
30
0.0000000000
10
55.5120480150
20
20.8233836471
30
0.0000000000
10
55.5118214590
20
20.7731627811
30
0.0000000000
10
55.5116603758
20
20.7221184560
30
0.0000000000
10
55.5115974489
20
20.6878452483
30
0.0000000000
10
55.5115769782
20
20.6706194330
30
0.0000000000
11
55.5235540665
21
21.3229699106
31
0.0000000000
11
55.5226482905
21
21.3201347042
31
0.0000000000
11
55.5217485344
21
21.3134559728
31
0.0000000000
11
55.5208599047
21
21.3029706804
31
0.0000000000
11
55.5199873086
21
21.2887366854
31
0.0000000000
11
55.5191355551
21
21.2708324727
31
0.0000000000
11
55.5183093396
21
21.2493567403
31
0.0000000000
11
55.5175132194
21
21.2244279694
31
0.0000000000
11
55.5167515844
21
21.1961836498
31
0.0000000000
11
55.5160286332
21
21.1647795180
31
0.0000000000
11
55.5153483517
21
21.1303887643
31
0.0000000000
11
55.5147144906
21
21.0932010478
31
0.0000000000
11
55.5141305446
21
21.0534214464
31
0.0000000000
11
55.5135997324
21
21.0112693020
31
0.0000000000
11
55.5131249796
21
20.9669769874
31
0.0000000000
11
55.5127089033
21
20.9207887219
31
0.0000000000
11
55.5123537976
21
20.8729592720
31
0.0000000000
11
55.5120616191
21
20.8237522686
31
0.0000000000
11
55.5118339778
21
20.7734388511
31
0.0000000000
11
55.5116721290
21
20.7222968277
31
0.0000000000
11
55.5115769782
21
20.6706194330
31
0.0000000000
0
SPLINE
5
2AD
100
AcDbEntity
8
0
100
AcDbSpline
62
9
6
CONTINUOUS
70
0
71
3
72
24
73
20
74
18
42
0.0000001000
43
0.0000001000
44
0.0000000001
12
-0.2000106173
22
0.7802891868
32
0.0000000000
13
-0.8055150864
23
0.0009527498
33
0.0000000000
40
0.0000000000
40
0.0000000000
40
0.0000000000
40
0.0000000000
40
0.0084036160
40
0.0236382935
40
0.0465188378
40
0.0770996584
40
0.1152229665
40
0.1606196706
40
0.2129396186
40
0.2717648161
40
0.3366174257
40
0.4069659923
40
0.4822310951
40
0.5617908967
40
0.6449867765
40
0.7311291188
40
0.8195032705
40
0.9093756531
40
1.0000000000
40
1.0000000000
40
1.0000000000
40
1.0000000000
10
55.5115769782
20
20.6706194330
30
0.0000000000
10
55.5110167074
20
20.6728051832
30
0.0000000000
10
55.5053429721
20
20.6770812878
30
0.0000000000
10
55.4939651906
20
20.6813324078
30
0.0000000000
10
55.4759246500
20
20.6860509728
30
0.0000000000
10
55.4518120350
20
20.6905493266
30
0.0000000000
10
55.4214699203
20
20.6950114139
30
0.0000000000
10
55.3852519250
20
20.6992757243
30
0.0000000000
10
55.3434105755
20
20.7033322395
30
0.0000000000
10
55.2963062340
20
20.7071279751
30
0.0000000000
10
55.2443255458
20
20.7106313923
30
0.0000000000
10
55.1879027909
20
20.7138094289
30
0.0000000000
10
55.1275077377
20
20.7166342816
30
0.0000000000
10
55.0636440955
20
20.7190811100
30
0.0000000000
10
54.9968444515
20
20.7211287330
30
0.0000000000
10
54.9276660141
20
20.7227594960
30
0.0000000000
10
54.8566858548
20
20.7239594107
30
0.0000000000
10
54.7844961536
20
20.7247182135
30
0.0000000000
10
54.7360319149
20
20.7249254053
30
0.0000000000
10
54.7116988220
20
20.7249541860
30
0.0000000000
11
55.5115769782
21
20.6706194330
31
0.0000000000
11
55.5069689571
21
20.6755781433
31
0.0000000000
11
55.4957254625
21
20.6804954798
31
0.0000000000
11
55.4779403065
21
20.6853304138
31
0.0000000000
11
55.4537618825
21
20.6900426042
31
0.0000000000
11
55.4233919275
21
20.6945927340
31
0.0000000000
11
55.3870838383
21
20.6989428384
31
0.0000000000
11
55.3451405578
21
20.7030566217
31
0.0000000000
11
55.2979120469
21
20.7068997596
31
0.0000000000
11
55.2457923650
21
20.7104401864
31
0.0000000000
11
55.1892163815
21
20.7136483619
31
0.0000000000
11
55.1286561479
21
20.7164975180
31
0.0000000000
11
55.0646169589
21
20.7189638825
31
0.0000000000
11
54.9976331367
21
20.7210268767
31
0.0000000000
11
54.9282635722
21
20.7226692877
31
0.0000000000
11
54.8570870623
21
20.7238774118
31
0.0000000000
11
54.7846974806
21
20.7246411688
31
0.0000000000
11
54.7116988220
21
20.7249541860
31
0.0000000000
0
SPLINE
5
2AE
100
AcDbEntity
8
0
100
AcDbSpline
62
9
6
CONTINUOUS
70
0
71
3
72
24
73
20
74
18
42
0.0000001000
43
0.0000001000
44
0.0000000001
12
-0.2000108301
22
-0.7802891315
32
0.0000000000
13
-0.8055150856
23
-0.0009527496
33
0.0000000000
40
0.0000000000
40
0.0000000000
40
0.0000000000
40
0.0000000000
40
0.0084036170
40
0.0236382959
40
0.0465188413
40
0.0770996628
40
0.1152229718
40
0.1606196764
40
0.2129396247
40
0.2717648222
40
0.3366174318
40
0.4069659980
40
0.4822311003
40
0.5617909013
40
0.6449867804
40
0.7311291218
40
0.8195032726
40
0.9093756541
40
1.0000000000
40
1.0000000000
40
1.0000000000
40
1.0000000000
10
55.5115769782
20
-19.9717758662
30
0.0000000000
10
55.5110167067
20
-19.9739616166
30
0.0000000000
10
55.5053429707
20
-19.9782377207
30
0.0000000000
10
55.4939651881
20
-19.9824888409
30
0.0000000000
10
55.4759246466
20
-19.9872074057
30
0.0000000000
10
55.4518120308
20
-19.9917057595
30
0.0000000000
10
55.4214699155
20
-19.9961678467
30
0.0000000000
10
55.3852519199
20
-20.0004321570
30
0.0000000000
10
55.3434105701
20
-20.0044886721
30
0.0000000000
10
55.2963062285
20
-20.0082844076
30
0.0000000000
10
55.2443255405
20
-20.0117878247
30
0.0000000000
10
55.1879027858
20
-20.0149658612
30
0.0000000000
10
55.1275077331
20
-20.0177907138
30
0.0000000000
10
55.0636440914
20
-20.0202375422
30
0.0000000000
10
54.9968444481
20
-20.0222851651
30
0.0000000000
10
54.9276660115
20
-20.0239159280
30
0.0000000000
10
54.8566858531
20
-20.0251158426
30
0.0000000000
10
54.7844961527
20
-20.0258746454
30
0.0000000000
10
54.7360319146
20
-20.0260818372
30
0.0000000000
10
54.7116988220
20
-20.0261106179
30
0.0000000000
11
55.5115769782
21
-19.9717758662
31
0.0000000000
11
55.5069689557
21
-19.9767345765
31
0.0000000000
11
55.4957254600
21
-19.9816519129
31
0.0000000000
11
55.4779403030
21
-19.9864868468
31
0.0000000000
11
55.4537618782
21
-19.9911990371
31
0.0000000000
11
55.4233919226
21
-19.9957491668
31
0.0000000000
11
55.3870838330
21
-20.0000992712
31
0.0000000000
11
55.3451405523
21
-20.0042130543
31
0.0000000000
11
55.2979120414
21
-20.0080561921
31
0.0000000000
11
55.2457923596
21
-20.0115966188
31
0.0000000000
11
55.1892163764
21
-20.0148047942
31
0.0000000000
11
55.1286561432
21
-20.0176539503
31
0.0000000000
11
55.0646169549
21
-20.0201203146
31
0.0000000000
11
54.9976331333
21
-20.0221833088
31
0.0000000000
11
54.9282635695
21
-20.0238257197
31
0.0000000000
11
54.8570870605
21
-20.0250338438
31
0.0000000000
11
54.7846974797
21
-20.0257976007
31
0.0000000000
11
54.7116988220
21
-20.0261106179
31
0.0000000000
0
SPLINE
5
2AF
100
AcDbEntity
8
0
100
AcDbSpline
62
9
6
CONTINUOUS
70
0
71
3
72
27
73
23
74
21
42
0.0000001000
43
0.0000001000
44
0.0000000001
12
0.0007751433
22
-1.3980632926
32
0.0000000000
13
0.5910448100
23
-1.2669836635
33
0.0000000000
40
0.0000000000
40
0.0000000000
40
0.0000000000
40
0.0000000000
40
0.0792244722
40
0.1576099416
40
0.2347253936
40
0.3101450976
40
0.3834535139
40
0.4542466388
40
0.5221340491
40
0.5867414889
40
0.6477128687
40
0.7047120816
40
0.7574248945
40
0.8055607252
40
0.8488542831
40
0.8870670524
40
0.9199885509
40
0.9474375781
40
0.9692635556
40
0.9853476796
40
0.9956052146
40
1.0000000000
40
1.0000000000
40
1.0000000000
40
1.0000000000
10
54.7116988220
20
-20.0261106193
30
0.0000000000
10
54.7117192922
20
-20.0630308948
30
0.0000000000
10
54.7117822417
20
-20.1364804425
30
0.0000000000
10
54.7119433312
20
-20.2458673330
30
0.0000000000
10
54.7121699056
20
-20.3534810018
30
0.0000000000
10
54.7124606529
20
-20.4587284937
30
0.0000000000
10
54.7128139633
20
-20.5610294396
30
0.0000000000
10
54.7132278306
20
-20.6598199214
30
0.0000000000
10
54.7136999222
20
-20.7545552552
30
0.0000000000
10
54.7142275440
20
-20.8447130845
30
0.0000000000
10
54.7148077051
20
-20.9297963430
30
0.0000000000
10
54.7154369647
20
-21.0093359744
30
0.0000000000
10
54.7161119385
20
-21.0828932698
30
0.0000000000
10
54.7168276031
20
-21.1500630416
30
0.0000000000
10
54.7175827081
20
-21.2104736010
30
0.0000000000
10
54.7183623797
20
-21.2637960606
30
0.0000000000
10
54.7191912213
20
-21.3097237264
30
0.0000000000
10
54.7199743965
20
-21.3480404703
30
0.0000000000
10
54.7209438551
20
-21.3784340553
30
0.0000000000
10
54.7214767574
20
-21.4009934474
30
0.0000000000
10
54.7228466842
20
-21.4150530618
30
0.0000000000
10
54.7228100720
20
-21.4221484596
30
0.0000000000
10
54.7236759103
20
-21.4240045000
30
0.0000000000
11
54.7116988220
21
-20.0261106193
31
0.0000000000
11
54.7117940016
21
-20.1368714219
31
0.0000000000
11
54.7119558547
21
-20.2464591667
31
0.0000000000
11
54.7121835073
21
-20.3542712256
31
0.0000000000
11
54.7124756888
21
-20.4597123567
31
0.0000000000
11
54.7128307977
21
-20.5622015631
31
0.0000000000
11
54.7132468736
21
-20.6611739731
31
0.0000000000
11
54.7137216241
21
-20.7560836966
31
0.0000000000
11
54.7142524312
21
-20.8464074409
31
0.0000000000
11
54.7148363700
21
-20.9316473018
31
0.0000000000
11
54.7154702213
21
-21.0113333005
31
0.0000000000
11
54.7161504908
21
-21.0850260208
31
0.0000000000
11
54.7168734280
21
-21.1523190859
31
0.0000000000
11
54.7176350473
21
-21.2128414374
31
0.0000000000
11
54.7184311510
21
-21.2662593836
31
0.0000000000
11
54.7192573485
21
-21.3122783134
31
0.0000000000
11
54.7201090861
21
-21.3506443434
31
0.0000000000
11
54.7209816583
21
-21.3811459676
31
0.0000000000
11
54.7218702853
21
-21.4036150291
31
0.0000000000
11
54.7227699904
21
-21.4179274639
31
0.0000000000
11
54.7236759103
21
-21.4240045000
31
0.0000000000
0
SPLINE
5
2B0
100
AcDbEntity
8
0
100
AcDbSpline
62
9
6
CONTINUOUS
70
0
71
3
72
27
73
23
74
21
42
0.0000001000
43
0.0000001000
44
0.0000000001
12
0.0007756565
22
-0.6527104875
32
0.0000000000
13
0.4614527906
23
-0.4616198698
33
0.0000000000
40
0.0000000000
40
0.0000000000
40
0.0000000000
40
0.0000000000
40
0.0791782554
40
0.1575319312
40
0.2346164911
40
0.3100064619
40
0.3832865776
40
0.4540531042
40
0.5219158960
40
0.5865009829
40
0.6474525626
40
0.7044348234
40
0.7571339028
40
0.8052596521
40
0.8485473101
40
0.8867590506
40
0.9196853615
40
0.9471465344
40
0.9689945956
40
0.9851160269
40
0.9954404130
40
1.0000000000
40
1.0000000000
40
1.0000000000
40
1.0000000000
10
55.5115769782
20
-19.9717758662
30
0.0000000000
10
55.5115974499
20
-19.9890026921
30
0.0000000000
10
55.5116603804
20
-20.0232769180
30
0.0000000000
10
55.5118214704
20
-20.0743222624
30
0.0000000000
10
55.5120480309
20
-20.1245431333
30
0.0000000000
10
55.5123387845
20
-20.1736597995
30
0.0000000000
10
55.5126920942
20
-20.2214014040
30
0.0000000000
10
55.5131059685
20
-20.2675047696
30
0.0000000000
10
55.5135780670
20
-20.3117156940
30
0.0000000000
10
55.5141057023
20
-20.3537903963
30
0.0000000000
10
55.5146858695
20
-20.3934968824
30
0.0000000000
10
55.5153151720
20
-20.4306162730
30
0.0000000000
10
55.5159900798
20
-20.4649437348
30
0.0000000000
10
55.5167060500
20
-20.4962905184
30
0.0000000000
10
55.5174602921
20
-20.5244821621
30
0.0000000000
10
55.5182427722
20
-20.5493685149
30
0.0000000000
10
55.5190634298
20
-20.5707966911
30
0.0000000000
10
55.5198701540
20
-20.5886949896
30
0.0000000000
10
55.5207778968
20
-20.6028393277
30
0.0000000000
10
55.5214579383
20
-20.6134735433
30
0.0000000000
10
55.5225539746
20
-20.6198682579
30
0.0000000000
10
55.5228527218
20
-20.6234247453
30
0.0000000000
10
55.5235540665
20
-20.6241263439
30
0.0000000000
11
55.5115769782
21
-19.9717758662
31
0.0000000000
11
55.5116721366
21
-20.0234562928
31
0.0000000000
11
55.5118339894
21
-20.0745983387
31
0.0000000000
11
55.5120616351
21
-20.1249117599
31
0.0000000000
11
55.5123538179
21
-20.1741187518
31
0.0000000000
11
55.5127089279
21
-20.2219481674
31
0.0000000000
11
55.5131250087
21
-20.2681363800
31
0.0000000000
11
55.5135997660
21
-20.3124286229
31
0.0000000000
11
55.5141305826
21
-20.3545806741
31
0.0000000000
11
55.5147145329
21
-20.3943601516
31
0.0000000000
11
55.5153483975
21
-20.4315476953
31
0.0000000000
11
55.5160286818
21
-20.4659382337
31
0.0000000000
11
55.5167516351
21
-20.4973421166
31
0.0000000000
11
55.5175132715
21
-20.5255861776
31
0.0000000000
11
55.5183093926
21
-20.5505146897
31
0.0000000000
11
55.5191356089
21
-20.5719901658
31
0.0000000000
11
55.5199873627
21
-20.5898941251
31
0.0000000000
11
55.5208599588
21
-20.6041278718
31
0.0000000000
11
55.5217485882
21
-20.6146129172
31
0.0000000000
11
55.5226483437
21
-20.6212914203
31
0.0000000000
11
55.5235540665
21
-20.6241263439
31
0.0000000000
0
SPLINE
5
2B1
100
AcDbEntity
8
0
100
AcDbSpline
62
9
6
CONTINUOUS
70
0
71
3
72
24
73
20
74
18
42
0.0000001000
43
0.0000001000
44
0.0000000001
12
-0.0003825233
22
-1.2558773180
32
0.0000000000
13
-1.2558773180
23
-0.0003825233
33
0.0000000000
40
0.0000000000
40
0.0000000000
40
0.0000000000
40
0.0000000000
40
0.0588186470
40
0.1176389184
40
0.1764607307
40
0.2352839479
40
0.2941083860
40
0.3529338199
40
0.4117599902
40
0.4705866126
40
0.5294133874
40
0.5882400098
40
0.6470661801
40
0.7058916140
40
0.7647160521
40
0.8235392693
40
0.8823610816
40
0.9411813530
40
1.0000000000
40
1.0000000000
40
1.0000000000
40
1.0000000000
10
55.5235540665
20
-20.6241263439
30
0.0000000000
10
55.5235465666
20
-20.6487493455
30
0.0000000000
10
55.5212543479
20
-20.6980256344
30
0.0000000000
10
55.5110140636
20
-20.7712844372
30
0.0000000000
10
55.4940591075
20
-20.8432947137
30
0.0000000000
10
55.4705340871
20
-20.9134340770
30
0.0000000000
10
55.4406396368
20
-20.9811065775
30
0.0000000000
10
55.4046307100
20
-21.0457344968
30
0.0000000000
10
55.3628144033
20
-21.1067668346
30
0.0000000000
10
55.3155473386
20
-21.1636830534
30
0.0000000000
10
55.2632326199
20
-21.2159977721
30
0.0000000000
10
55.2063164011
20
-21.2632648369
30
0.0000000000
10
55.1452840632
20
-21.3050811435
30
0.0000000000
10
55.0806561439
20
-21.3410900704
30
0.0000000000
10
55.0129836435
20
-21.3709845207
30
0.0000000000
10
54.9428442801
20
-21.3945095410
30
0.0000000000
10
54.8708340036
20
-21.4114644972
30
0.0000000000
10
54.7975752008
20
-21.4217047815
30
0.0000000000
10
54.7482989119
20
-21.4239970002
30
0.0000000000
10
54.7236759103
20
-21.4240045000
30
0.0000000000
11
55.5235540665
21
-20.6241263439
31
0.0000000000
11
55.5201207743
21
-20.6979155224
31
0.0000000000
11
55.5098951284
21
-20.7710754016
31
0.0000000000
11
55.4929643366
21
-20.8429820490
31
0.0000000000
11
55.4694727904
21
-20.9130222203
31
0.0000000000
11
55.4396208338
21
-20.9805985889
31
0.0000000000
11
55.4036630545
21
-21.0451348405
31
0.0000000000
11
55.3619061126
21
-21.1060805879
31
0.0000000000
11
55.3147061257
21
-21.1629160649
31
0.0000000000
11
55.2624656314
21
-21.2151565593
31
0.0000000000
11
55.2056301543
21
-21.2623565462
31
0.0000000000
11
55.1446844069
21
-21.3041134881
31
0.0000000000
11
55.0801481553
21
-21.3400712674
31
0.0000000000
11
55.0125717867
21
-21.3699232240
31
0.0000000000
11
54.9425316154
21
-21.3934147701
31
0.0000000000
11
54.8706249680
21
-21.4103455619
31
0.0000000000
11
54.7974650888
21
-21.4205712078
31
0.0000000000
11
54.7236759103
21
-21.4240045000
31
0.0000000000
0
SPLINE
5
2B2
100
AcDbEntity
8
0
100
AcDbSpline
62
0
6
CONTINUOUS
70
0
71
3
72
8
73
4
74
2
42
0.0000001000
43
0.0000001000
44
0.0000000001
12
0.0006435040
22
-0.0079979870
32
0.0000000000
13
0.0003224517
23
-0.0080153048
33
0.0000000000
40
0.0000000000
40
0.0000000000
40
0.0000000000
40
0.0000000000
40
1.0000000000
40
1.0000000000
40
1.0000000000
40
1.0000000000
10
55.5994831371
20
0.0154628784
30
0.0000000000
10
55.5996976384
20
0.0127968828
30
0.0000000000
10
55.5998586955
20
0.0101267312
30
0.0000000000
10
55.5999661794
20
0.0074549629
30
0.0000000000
11
55.5994831371
21
0.0154628784
31
0.0000000000
11
55.5999661794
21
0.0074549629
31
0.0000000000
0
SPLINE
5
2B3
100
AcDbEntity
8
0
100
AcDbSpline
62
0
6
CONTINUOUS
70
0
71
3
72
8
73
4
74
2
42
0.0000001000
43
0.0000001000
44
0.0000000001
12
0.0003230776
22
-0.0080308645
32
0.0000000000
13
0.0000000000
23
-0.0080329407
33
0.0000000000
40
0.0000000000
40
0.0000000000
40
0.0000000000
40
0.0000000000
40
1.0000000000
40
1.0000000000
40
1.0000000000
40
1.0000000000
10
55.5999661794
20
0.0074549629
30
0.0000000000
10
55.6000738719
20
0.0047780081
30
0.0000000000
10
55.6001277831
20
0.0020994303
30
0.0000000000
10
55.6001277831
20
-0.0005782166
30
0.0000000000
11
55.5999661794
21
0.0074549629
31
0.0000000000
11
55.6001277831
21
-0.0005782166
31
0.0000000000
0
SPLINE
5
2B4
100
AcDbEntity
8
0
100
AcDbSpline
62
0
6
CONTINUOUS
70
0
71
3
72
20
73
16
74
14
42
0.0000001000
43
0.0000001000
44
0.0000000001
12
-0.3139920960
22
0.0000000000
32
0.0000000000
13
0.0000000000
23
0.3139920960
33
0.0000000000
40
0.0000000000
40
0.0000000000
40
0.0000000000
40
0.0000000000
40
0.0766769394
40
0.1537626427
40
0.2306557316
40
0.3073962026
40
0.3846179431
40
0.4617356747
40
0.5383974664
40
0.6154991133
40
0.6927108307
40
0.7694445799
40
0.8463036489
40
0.9233495776
40
1.0000000000
40
1.0000000000
40
1.0000000000
40
1.0000000000
10
11.5001582487
20
0.4994217834
30
0.0000000000
10
11.4921329310
20
0.4994217834
30
0.0000000000
10
11.4760227541
20
0.5003924777
30
0.0000000000
10
11.4522202392
20
0.5047475843
30
0.0000000000
10
11.4291071864
20
0.5119440983
30
0.0000000000
10
11.4070164407
20
0.5218755706
30
0.0000000000
10
11.3862636205
20
0.5344116044
30
0.0000000000
10
11.3671855465
20
0.5493597560
30
0.0000000000
10
11.3500568886
20
0.5664880543
30
0.0000000000
10
11.3351099198
20
0.5855635576
30
0.0000000000
10
11.3225750851
20
0.6063130896
30
0.0000000000
10
11.3126455797
20
0.6283989118
30
0.0000000000
10
11.3054515856
20
0.6515038909
30
0.0000000000
10
11.3010981697
20
0.6752960046
30
0.0000000000
10
11.3001277831
20
0.6913992411
30
0.0000000000
10
11.3001277831
20
0.6994217834
30
0.0000000000
11
11.5001582487
21
0.4994217834
31
0.0000000000
11
11.4761259203
21
0.5008704724
31
0.0000000000
11
11.4523167813
21
0.5052262862
31
0.0000000000
11
11.4292645930
21
0.5124040826
31
0.0000000000
11
11.4072875167
21
0.5222843955
31
0.0000000000
11
11.3865332131
21
0.5348214076
31
0.0000000000
11
11.3674727619
21
0.5497557419
31
0.0000000000
11
11.3504516954
21
0.5667764882
31
0.0000000000
11
11.3355200030
21
0.5858325933
31
0.0000000000
11
11.3229840833
21
0.6065838800
31
0.0000000000
11
11.3131044680
21
0.6285589557
31
0.0000000000
11
11.3059298809
21
0.6516009555
31
0.0000000000
11
11.3015761287
21
0.6753977755
31
0.0000000000
11
11.3001277831
21
0.6994217834
31
0.0000000000
0
SPLINE
5
2B5
100
AcDbEntity
8
0
100
AcDbSpline
62
0
6
CONTINUOUS
70
0
71
3
72
20
73
16
74
14
42
0.0000001000
43
0.0000001000
44
0.0000000001
12
0.0000000000
22
-0.3139920960
32
0.0000000000
13
-0.3139920960
23
-0.0000000000
33
0.0000000000
40
0.0000000000
40
0.0000000000
40
0.0000000000
40
0.0000000000
40
0.0766504224
40
0.1536963511
40
0.2305554201
40
0.3072891693
40
0.3845008867
40
0.4616025336
40
0.5382643253
40
0.6153820569
40
0.6926037974
40
0.7693442684
40
0.8462373573
40
0.9233230606
40
1.0000000000
40
1.0000000000
40
1.0000000000
40
1.0000000000
10
55.6001277831
20
0.6994217834
30
0.0000000000
10
55.6001277831
20
0.6913992411
30
0.0000000000
10
55.5991573964
20
0.6752960046
30
0.0000000000
10
55.5948039806
20
0.6515038909
30
0.0000000000
10
55.5876099865
20
0.6283989118
30
0.0000000000
10
55.5776804811
20
0.6063130896
30
0.0000000000
10
55.5651456464
20
0.5855635576
30
0.0000000000
10
55.5501986776
20
0.5664880543
30
0.0000000000
10
55.5330700197
20
0.5493597560
30
0.0000000000
10
55.5139919456
20
0.5344116044
30
0.0000000000
10
55.4932391254
20
0.5218755706
30
0.0000000000
10
55.4711483798
20
0.5119440983
30
0.0000000000
10
55.4480353269
20
0.5047475843
30
0.0000000000
10
55.4242328120
20
0.5003924777
30
0.0000000000
10
55.4081226351
20
0.4994217834
30
0.0000000000
10
55.4000973175
20
0.4994217834
30
0.0000000000
11
55.6001277831
21
0.6994217834
31
0.0000000000
11
55.5986794374
21
0.6753977755
31
0.0000000000
11
55.5943256852
21
0.6516009555
31
0.0000000000
11
55.5871510982
21
0.6285589557
31
0.0000000000
11
55.5772714828
21
0.6065838800
31
0.0000000000
11
55.5647355631
21
0.5858325933
31
0.0000000000
11
55.5498038707
21
0.5667764882
31
0.0000000000
11
55.5327828043
21
0.5497557419
31
0.0000000000
11
55.5137223530
21
0.5348214076
31
0.0000000000
11
55.4929680494
21
0.5222843955
31
0.0000000000
11
55.4709909732
21
0.5124040826
31
0.0000000000
11
55.4479387849
21
0.5052262862
31
0.0000000000
11
55.4241296459
21
0.5008704724
31
0.0000000000
11
55.4000973175
21
0.4994217834
31
0.0000000000
0
SPLINE
5
2B6
100
AcDbEntity
8
0
100
AcDbSpline
62
0
6
CONTINUOUS
70
0
71
3
72
8
73
4
74
2
42
0.0000001000
43
0.0000001000
44
0.0000000001
12
0.0000000000
22
0.0080329407
32
0.0000000000
13
0.0003230776
23
0.0080308645
33
0.0000000000
40
0.0000000000
40
0.0000000000
40
0.0000000000
40
0.0000000000
40
1.0000000000
40
1.0000000000
40
1.0000000000
40
1.0000000000
10
11.3001277831
20
-0.0005782166
30
0.0000000000
10
11.3001277831
20
0.0020994303
30
0.0000000000
10
11.3001816942
20
0.0047780081
30
0.0000000000
10
11.3002893867
20
0.0074549629
30
0.0000000000
11
11.3001277831
21
-0.0005782166
31
0.0000000000
11
11.3002893867
21
0.0074549629
31
0.0000000000
0
SPLINE
5
2B7
100
AcDbEntity
8
0
100
AcDbSpline
62
0
6
CONTINUOUS
70
0
71
3
72
25
73
21
74
19
42
0.0000001000
43
0.0000001000
44
0.0000000001
12
-1.2560642624
22
0.0000000000
32
0.0000000000
13
0.0000000000
23
1.2560642624
33
0.0000000000
40
0.0000000000
40
0.0000000000
40
0.0000000000
40
0.0000000000
40
0.0554645601
40
0.1111155584
40
0.1667157292
40
0.2221352173
40
0.2777247367
40
0.3333929193
40
0.3889253821
40
0.4443626084
40
0.5000026349
40
0.5556435653
40
0.6110813901
40
0.6666126576
40
0.7222803678
40
0.7778710789
40
0.8332907960
40
0.8888882905
40
0.9445375438
40
1.0000000000
40
1.0000000000
40
1.0000000000
40
1.0000000000
10
12.1000059392
20
-21.5005782166
30
0.0000000000
10
12.0767835886
20
-21.5005782166
30
0.0000000000
10
12.0302354241
20
-21.4985502807
30
0.0000000000
10
11.9609459045
20
-21.4894345717
30
0.0000000000
10
11.8927291713
20
-21.4743115857
30
0.0000000000
10
11.8261151487
20
-21.4533138851
30
0.0000000000
10
11.7615551871
20
-21.4265842748
30
0.0000000000
10
11.6995322874
20
-21.3943001429
30
0.0000000000
10
11.6406163524
20
-21.3567630590
30
0.0000000000
10
11.5852016291
20
-21.3142468640
30
0.0000000000
10
11.5336686097
20
-21.2670321640
30
0.0000000000
10
11.4864542014
20
-21.2154985325
30
0.0000000000
10
11.4439384907
20
-21.1600832726
30
0.0000000000
10
11.4064022218
20
-21.1011673550
30
0.0000000000
10
11.3741187035
20
-21.0391443627
30
0.0000000000
10
11.3473895178
20
-20.9745837904
30
0.0000000000
10
11.3263926465
20
-20.9079700570
30
0.0000000000
10
11.3112705991
20
-20.8397549258
30
0.0000000000
10
11.3021555716
20
-20.7704680802
30
0.0000000000
10
11.3001277831
20
-20.7239215302
30
0.0000000000
10
11.3001277831
20
-20.7007000605
30
0.0000000000
11
12.1000059392
21
-21.5005782166
31
0.0000000000
11
12.0304049429
21
-21.4975451617
31
0.0000000000
11
11.9611008334
21
-21.4884280139
31
0.0000000000
11
11.8929188745
21
-21.4733124202
31
0.0000000000
11
11.8265286052
21
-21.4523852782
31
0.0000000000
11
11.7620154332
21
-21.4256749276
31
0.0000000000
11
11.6999919477
21
-21.3933904536
31
0.0000000000
11
11.6411650134
21
-21.3559100454
31
0.0000000000
11
11.5859192629
21
-21.3135234604
31
0.0000000000
11
11.5343895517
21
-21.2663117631
31
0.0000000000
11
11.4871775509
21
-21.2147807900
31
0.0000000000
11
11.4447910705
21
-21.1595340119
31
0.0000000000
11
11.4073120400
21
-21.1007079800
31
0.0000000000
11
11.3750283606
21
-21.0386847498
31
0.0000000000
11
11.3483180155
21
-20.9741699554
31
0.0000000000
11
11.3273914560
21
-20.9077792008
31
0.0000000000
11
11.3122771457
21
-20.8396004007
31
0.0000000000
11
11.3031606079
21
-20.7702984216
31
0.0000000000
11
11.3001277831
21
-20.7007000605
31
0.0000000000
0
SPLINE
5
2B8
100
AcDbEntity
8
0
100
AcDbSpline
62
0
6
CONTINUOUS
70
0
71
3
72
25
73
21
74
19
42
0.0000001000
43
0.0000001000
44
0.0000000001
12
0.0000000000
22
-1.2560642624
32
0.0000000000
13
-1.2560642624
23
-0.0000000000
33
0.0000000000
40
0.0000000000
40
0.0000000000
40
0.0000000000
40
0.0000000000
40
0.0554624562
40
0.1111117095
40
0.1667092040
40
0.2221289211
40
0.2777196322
40
0.3333873424
40
0.3889186099
40
0.4443564347
40
0.4999973651
40
0.5556373916
40
0.6110746179
40
0.6666070807
40
0.7222752633
40
0.7778647827
40
0.8332842708
40
0.8888844416
40
0.9445354399
40
1.0000000000
40
1.0000000000
40
1.0000000000
40
1.0000000000
10
55.6001277831
20
-20.7007000605
30
0.0000000000
10
55.6001277831
20
-20.7239215302
30
0.0000000000
10
55.5980999946
20
-20.7704680802
30
0.0000000000
10
55.5889849670
20
-20.8397549258
30
0.0000000000
10
55.5738629196
20
-20.9079700570
30
0.0000000000
10
55.5528660483
20
-20.9745837904
30
0.0000000000
10
55.5261368627
20
-21.0391443627
30
0.0000000000
10
55.4938533443
20
-21.1011673550
30
0.0000000000
10
55.4563170755
20
-21.1600832726
30
0.0000000000
10
55.4138013647
20
-21.2154985325
30
0.0000000000
10
55.3665869564
20
-21.2670321640
30
0.0000000000
10
55.3150539370
20
-21.3142468640
30
0.0000000000
10
55.2596392137
20
-21.3567630590
30
0.0000000000
10
55.2007232788
20
-21.3943001429
30
0.0000000000
10
55.1387003790
20
-21.4265842748
30
0.0000000000
10
55.0741404174
20
-21.4533138851
30
0.0000000000
10
55.0075263949
20
-21.4743115857
30
0.0000000000
10
54.9393096617
20
-21.4894345717
30
0.0000000000
10
54.8700201420
20
-21.4985502807
30
0.0000000000
10
54.8234719775
20
-21.5005782166
30
0.0000000000
10
54.8002496269
20
-21.5005782166
30
0.0000000000
11
55.6001277831
21
-20.7007000605
31
0.0000000000
11
55.5970949582
21
-20.7702984216
31
0.0000000000
11
55.5879784204
21
-20.8396004007
31
0.0000000000
11
55.5728641102
21
-20.9077792008
31
0.0000000000
11
55.5519375506
21
-20.9741699554
31
0.0000000000
11
55.5252272055
21
-21.0386847498
31
0.0000000000
11
55.4929435262
21
-21.1007079800
31
0.0000000000
11
55.4554644957
21
-21.1595340119
31
0.0000000000
11
55.4130780153
21
-21.2147807900
31
0.0000000000
11
55.3658660144
21
-21.2663117631
31
0.0000000000
11
55.3143363032
21
-21.3135234604
31
0.0000000000
11
55.2590905528
21
-21.3559100454
31
0.0000000000
11
55.2002636185
21
-21.3933904536
31
0.0000000000
11
55.1382401330
21
-21.4256749276
31
0.0000000000
11
55.0737269609
21
-21.4523852782
31
0.0000000000
11
55.0073366916
21
-21.4733124202
31
0.0000000000
11
54.9391547327
21
-21.4884280139
31
0.0000000000
11
54.8698506232
21
-21.4975451617
31
0.0000000000
11
54.8002496269
21
-21.5005782166
31
0.0000000000
0
SPLINE
5
2B9
100
AcDbEntity
8
0
100
AcDbSpline
62
0
6
CONTINUOUS
70
0
71
3
72
25
73
21
74
19
42
0.0000001000
43
0.0000001000
44
0.0000000001
12
1.2560642624
22
0.0000000000
32
0.0000000000
13
0.0000000000
23
-1.2560642624
33
0.0000000000
40
0.0000000000
40
0.0000000000
40
0.0000000000
40
0.0000000000
40
0.0554645601
40
0.1111155584
40
0.1667157292
40
0.2221352173
40
0.2777247367
40
0.3333929193
40
0.3889253821
40
0.4443626084
40
0.5000026349
40
0.5556435653
40
0.6110813901
40
0.6666126576
40
0.7222803678
40
0.7778710789
40
0.8332907960
40
0.8888882905
40
0.9445375438
40
1.0000000000
40
1.0000000000
40
1.0000000000
40
1.0000000000
10
54.8002496269
20
22.1994217834
30
0.0000000000
10
54.8234719775
20
22.1994217834
30
0.0000000000
10
54.8700201420
20
22.1973938474
30
0.0000000000
10
54.9393096617
20
22.1882781384
30
0.0000000000
10
55.0075263949
20
22.1731551524
30
0.0000000000
10
55.0741404174
20
22.1521574518
30
0.0000000000
10
55.1387003790
20
22.1254278415
30
0.0000000000
10
55.2007232788
20
22.0931437097
30
0.0000000000
10
55.2596392137
20
22.0556066258
30
0.0000000000
10
55.3150539370
20
22.0130904307
30
0.0000000000
10
55.3665869564
20
21.9658757307
30
0.0000000000
10
55.4138013647
20
21.9143420992
30
0.0000000000
10
55.4563170755
20
21.8589268393
30
0.0000000000
10
55.4938533443
20
21.8000109217
30
0.0000000000
10
55.5261368627
20
21.7379879295
30
0.0000000000
10
55.5528660483
20
21.6734273571
30
0.0000000000
10
55.5738629196
20
21.6068136237
30
0.0000000000
10
55.5889849670
20
21.5385984925
30
0.0000000000
10
55.5980999946
20
21.4693116469
30
0.0000000000
10
55.6001277831
20
21.4227650969
30
0.0000000000
10
55.6001277831
20
21.3995436272
30
0.0000000000
11
54.8002496269
21
22.1994217834
31
0.0000000000
11
54.8698506232
21
22.1963887284
31
0.0000000000
11
54.9391547327
21
22.1872715806
31
0.0000000000
11
55.0073366916
21
22.1721559869
31
0.0000000000
11
55.0737269609
21
22.1512288449
31
0.0000000000
11
55.1382401330
21
22.1245184944
31
0.0000000000
11
55.2002636185
21
22.0922340204
31
0.0000000000
11
55.2590905528
21
22.0547536122
31
0.0000000000
11
55.3143363032
21
22.0123670272
31
0.0000000000
11
55.3658660144
21
21.9651553298
31
0.0000000000
11
55.4130780153
21
21.9136243568
31
0.0000000000
11
55.4554644957
21
21.8583775787
31
0.0000000000
11
55.4929435262
21
21.7995515468
31
0.0000000000
11
55.5252272055
21
21.7375283165
31
0.0000000000
11
55.5519375506
21
21.6730135222
31
0.0000000000
11
55.5728641102
21
21.6066227676
31
0.0000000000
11
55.5879784204
21
21.5384439674
31
0.0000000000
11
55.5970949582
21
21.4691419884
31
0.0000000000
11
55.6001277831
21
21.3995436272
31
0.0000000000
0
SPLINE
5
2BA
100
AcDbEntity
8
0
100
AcDbSpline
62
0
6
CONTINUOUS
70
0
71
3
72
25
73
21
74
19
42
0.0000001000
43
0.0000001000
44
0.0000000001
12
0.0000000000
22
1.2560642624
32
0.0000000000
13
1.2560642624
23
0.0000000000
33
0.0000000000
40
0.0000000000
40
0.0000000000
40
0.0000000000
40
0.0000000000
40
0.0554624562
40
0.1111117095
40
0.1667092040
40
0.2221289211
40
0.2777196322
40
0.3333873424
40
0.3889186099
40
0.4443564347
40
0.4999973651
40
0.5556373916
40
0.6110746179
40
0.6666070807
40
0.7222752633
40
0.7778647827
40
0.8332842708
40
0.8888844416
40
0.9445354399
40
1.0000000000
40
1.0000000000
40
1.0000000000
40
1.0000000000
10
11.3001277831
20
21.3995436272
30
0.0000000000
10
11.3001277831
20
21.4227650969
30
0.0000000000
10
11.3021555716
20
21.4693116469
30
0.0000000000
10
11.3112705991
20
21.5385984925
30
0.0000000000
10
11.3263926465
20
21.6068136237
30
0.0000000000
10
11.3473895178
20
21.6734273571
30
0.0000000000
10
11.3741187035
20
21.7379879295
30
0.0000000000
10
11.4064022218
20
21.8000109217
30
0.0000000000
10
11.4439384907
20
21.8589268393
30
0.0000000000
10
11.4864542014
20
21.9143420992
30
0.0000000000
10
11.5336686097
20
21.9658757307
30
0.0000000000
10
11.5852016291
20
22.0130904307
30
0.0000000000
10
11.6406163524
20
22.0556066258
30
0.0000000000
10
11.6995322874
20
22.0931437097
30
0.0000000000
10
11.7615551871
20
22.1254278415
30
0.0000000000
10
11.8261151487
20
22.1521574518
30
0.0000000000
10
11.8927291713
20
22.1731551524
30
0.0000000000
10
11.9609459045
20
22.1882781384
30
0.0000000000
10
12.0302354241
20
22.1973938474
30
0.0000000000
10
12.0767835886
20
22.1994217834
30
0.0000000000
10
12.1000059392
20
22.1994217834
30
0.0000000000
11
11.3001277831
21
21.3995436272
31
0.0000000000
11
11.3031606079
21
21.4691419884
31
0.0000000000
11
11.3122771457
21
21.5384439674
31
0.0000000000
11
11.3273914560
21
21.6066227676
31
0.0000000000
11
11.3483180155
21
21.6730135222
31
0.0000000000
11
11.3750283606
21
21.7375283165
31
0.0000000000
11
11.4073120400
21
21.7995515468
31
0.0000000000
11
11.4447910705
21
21.8583775787
31
0.0000000000
11
11.4871775509
21
21.9136243568
31
0.0000000000
11
11.5343895517
21
21.9651553298
31
0.0000000000
11
11.5859192629
21
22.0123670272
31
0.0000000000
11
11.6411650134
21
22.0547536122
31
0.0000000000
11
11.6999919477
21
22.0922340204
31
0.0000000000
11
11.7620154332
21
22.1245184944
31
0.0000000000
11
11.8265286052
21
22.1512288449
31
0.0000000000
11
11.8929188745
21
22.1721559869
31
0.0000000000
11
11.9611008334
21
22.1872715806
31
0.0000000000
11
12.0304049429
21
22.1963887284
31
0.0000000000
11
12.1000059392
21
22.1994217834
31
0.0000000000
0
SPLINE
5
2BB
100
AcDbEntity
8
0
100
AcDbSpline
62
9
6
CONTINUOUS
70
0
71
3
72
25
73
21
74
19
42
0.0000001000
43
0.0000001000
44
0.0000000001
12
0.7998782284
22
-0.0000040624
32
0.0000000000
13
0.7997659605
23
-0.0134010714
33
0.0000000000
40
0.0000000000
40
0.0000000000
40
0.0000000000
40
0.0000000000
40
0.0862059124
40
0.1717652382
40
0.2560484537
40
0.3384252046
40
0.4182833841
40
0.4950289411
40
0.5680900944
40
0.6369230849
40
0.7010158674
40
0.7598913479
40
0.8131112855
40
0.8602797638
40
0.9010456781
40
0.9351053500
40
0.9622055166
40
0.9821446659
40
0.9947739997
40
1.0000000000
40
1.0000000000
40
1.0000000000
40
1.0000000000
10
54.6996428563
20
0.6996552735
30
0.0000000000
10
54.7226276005
20
0.6996551567
30
0.0000000000
10
54.7684246920
20
0.6996543509
30
0.0000000000
10
54.8366938864
20
0.6996514244
30
0.0000000000
10
54.9039421265
20
0.6996468061
30
0.0000000000
10
54.9696702921
20
0.6996405297
30
0.0000000000
10
55.0333887212
20
0.6996326430
30
0.0000000000
10
55.0946233689
20
0.6996232058
30
0.0000000000
10
55.1529184134
20
0.6996122892
30
0.0000000000
10
55.2078398980
20
0.6995999800
30
0.0000000000
10
55.2589791117
20
0.6995863637
30
0.0000000000
10
55.3059554783
20
0.6995715820
30
0.0000000000
10
55.3484193822
20
0.6995556439
30
0.0000000000
10
55.3860548065
20
0.6995390354
30
0.0000000000
10
55.4185815921
20
0.6995208391
30
0.0000000000
10
55.4457576737
20
0.6995043690
30
0.0000000000
10
55.4673807071
20
0.6994812726
30
0.0000000000
10
55.4832900652
20
0.6994735452
30
0.0000000000
10
55.4933667606
20
0.6994357002
30
0.0000000000
10
55.4981277766
20
0.6994451280
30
0.0000000000
10
55.4995209690
20
0.6994217834
30
0.0000000000
11
54.6996428563
21
0.6996552735
31
0.0000000000
11
54.7685970888
21
0.6996540563
31
0.0000000000
11
54.8370341307
21
0.6996511132
31
0.0000000000
11
54.9044504396
21
0.6996464664
31
0.0000000000
11
54.9703418089
21
0.6996401502
31
0.0000000000
11
55.0342186275
21
0.6996322109
31
0.0000000000
11
55.0956057269
21
0.6996227069
31
0.0000000000
11
55.1540457518
21
0.6996117084
31
0.0000000000
11
55.2091037609
21
0.6995992963
31
0.0000000000
11
55.2603701804
21
0.6995855622
31
0.0000000000
11
55.3074633930
21
0.6995706073
31
0.0000000000
11
55.3500328594
21
0.6995545421
31
0.0000000000
11
55.3877618945
21
0.6995374852
31
0.0000000000
11
55.4203696569
21
0.6995195627
31
0.0000000000
11
55.4476132404
21
0.6995009075
31
0.0000000000
11
55.4692900652
21
0.6994816577
31
0.0000000000
11
55.4852389444
21
0.6994619560
31
0.0000000000
11
55.4953408537
21
0.6994419485
31
0.0000000000
11
55.4995209690
21
0.6994217834
31
0.0000000000
0
SPLINE
5
2BC
100
AcDbEntity
8
0
100
AcDbSpline
62
9
6
CONTINUOUS
70
0
71
3
72
18
73
14
74
12
42
0.0000001000
43
0.0000001000
44
0.0000000001
12
0.0000000000
22
-0.2877538296
32
0.0000000000
13
-0.2855496572
23
-0.0375918142
33
0.0000000000
40
0.0000000000
40
0.0000000000
40
0.0000000000
40
0.0000000000
40
0.0909153309
40
0.1818301941
40
0.2727441537
40
0.3636568353
40
0.4545679518
40
0.5454773225
40
0.6363848858
40
0.7272907033
40
0.8181949555
40
0.9090979296
40
1.0000000000
40
1.0000000000
40
1.0000000000
40
1.0000000000
10
55.4995210267
20
0.6994217834
30
0.0000000000
10
55.4995210267
20
0.6907013718
30
0.0000000000
10
55.4983772605
20
0.6732390714
30
0.0000000000
10
55.4932596621
20
0.6475108362
30
0.0000000000
10
55.4848276759
20
0.6226661767
30
0.0000000000
10
55.4732255690
20
0.5991360490
30
0.0000000000
10
55.4586518522
20
0.5773214883
30
0.0000000000
10
55.4413558709
20
0.5575961699
30
0.0000000000
10
55.4216335885
20
0.5402974907
30
0.0000000000
10
55.3998223420
20
0.5257214717
30
0.0000000000
10
55.3762957476
20
0.5141175116
30
0.0000000000
10
55.3514547820
20
0.5056841662
30
0.0000000000
10
55.3343051019
20
0.5022718690
30
0.0000000000
10
55.3256527502
20
0.5011328111
30
0.0000000000
11
55.4995210267
21
0.6994217834
31
0.0000000000
11
55.4978102596
21
0.6733165449
31
0.0000000000
11
55.4927072299
21
0.6476579743
31
0.0000000000
11
55.4842992519
21
0.6228850969
31
0.0000000000
11
55.4727301885
21
0.5994217834
31
0.0000000000
11
55.4581979894
21
0.5776694976
31
0.0000000000
11
55.4409513048
21
0.5580004271
31
0.0000000000
11
55.4212852300
21
0.5407511153
31
0.0000000000
11
55.3995362572
21
0.5262167026
31
0.0000000000
11
55.3760765173
21
0.5146458769
31
0.0000000000
11
55.3513074128
21
0.5062366181
31
0.0000000000
11
55.3256527502
21
0.5011328111
31
0.0000000000
0
SPLINE
5
2BD
100
AcDbEntity
8
0
100
AcDbSpline
62
9
6
CONTINUOUS
70
0
71
3
72
8
73
4
74
2
42
0.0000001000
43
0.0000001000
44
0.0000000001
12
-0.0259569214
22
-0.0034171562
32
0.0000000000
13
-0.0261572843
23
-0.0000000000
33
0.0000000000
40
0.0000000000
40
0.0000000000
40
0.0000000000
40
0.0000000000
40
1.0000000000
40
1.0000000000
40
1.0000000000
40
1.0000000000
10
55.3256527502
20
0.5011328111
30
0.0000000000
10
55.3170004430
20
0.4999937590
30
0.0000000000
10
55.3082705824
20
0.4994217834
30
0.0000000000
10
55.2995514877
20
0.4994217834
30
0.0000000000
11
55.3256527502
21
0.5011328111
31
0.0000000000
11
55.2995514877
21
0.4994217834
31
0.0000000000
0
SPLINE
5
2BE
100
AcDbEntity
8
0
100
AcDbSpline
62
9
6
CONTINUOUS
70
0
71
3
72
18
73
14
74
12
42
0.0000001000
43
0.0000001000
44
0.0000000001
12
0.0000000000
22
-0.2877538338
32
0.0000000000
13
0.2855496621
23
-0.0375918087
33
0.0000000000
40
0.0000000000
40
0.0000000000
40
0.0000000000
40
0.0000000000
40
0.0909153394
40
0.1818302104
40
0.2727441768
40
0.3636568638
40
0.4545679838
40
0.5454773560
40
0.6363849184
40
0.7272907322
40
0.8181949779
40
0.9090979424
40
1.0000000000
40
1.0000000000
40
1.0000000000
40
1.0000000000
10
11.4007345394
20
0.6994217834
30
0.0000000000
10
11.4007345394
20
0.6907013709
30
0.0000000000
10
11.4018783058
20
0.6732390687
30
0.0000000000
10
11.4069959053
20
0.6475108310
30
0.0000000000
10
11.4154278931
20
0.6226661696
30
0.0000000000
10
11.4270300018
20
0.5991360406
30
0.0000000000
10
11.4416037205
20
0.5773214795
30
0.0000000000
10
11.4588997036
20
0.5575961616
30
0.0000000000
10
11.4786219871
20
0.5402974835
30
0.0000000000
10
11.5004332339
20
0.5257214662
30
0.0000000000
10
11.5239598275
20
0.5141175080
30
0.0000000000
10
11.5488007912
20
0.5056841645
30
0.0000000000
10
11.5659504695
20
0.5022718681
30
0.0000000000
10
11.5746028201
20
0.5011328105
30
0.0000000000
11
11.4007345394
21
0.6994217834
31
0.0000000000
11
11.4024453069
21
0.6733165421
31
0.0000000000
11
11.4075483376
21
0.6476579691
31
0.0000000000
11
11.4159563172
21
0.6228850897
31
0.0000000000
11
11.4275253825
21
0.5994217749
31
0.0000000000
11
11.4420575835
21
0.5776694887
31
0.0000000000
11
11.4593042698
21
0.5580004187
31
0.0000000000
11
11.4789703457
21
0.5407511080
31
0.0000000000
11
11.5007193188
21
0.5262166969
31
0.0000000000
11
11.5241790580
21
0.5146458731
31
0.0000000000
11
11.5489481606
21
0.5062366162
31
0.0000000000
11
11.5746028201
21
0.5011328105
31
0.0000000000
0
SPLINE
5
2BF
100
AcDbEntity
8
0
100
AcDbSpline
62
9
6
CONTINUOUS
70
0
71
3
72
8
73
4
74
2
42
0.0000001000
43
0.0000001000
44
0.0000000001
12
0.0259569173
22
-0.0034171551
32
0.0000000000
13
0.0261572800
23
-0.0000000000
33
0.0000000000
40
0.0000000000
40
0.0000000000
40
0.0000000000
40
0.0000000000
40
1.0000000000
40
1.0000000000
40
1.0000000000
40
1.0000000000
10
11.5746028201
20
0.5011328105
30
0.0000000000
10
11.5832551259
20
0.4999937589
30
0.0000000000
10
11.5919849851
20
0.4994217834
30
0.0000000000
10
11.6007040784
20
0.4994217834
30
0.0000000000
11
11.5746028201
21
0.5011328105
31
0.0000000000
11
11.6007040784
21
0.4994217834
31
0.0000000000
0
SPLINE
5
2C0
100
AcDbEntity
8
0
100
AcDbSpline
62
9
6
CONTINUOUS
70
0
71
3
72
25
73
21
74
19
42
0.0000001000
43
0.0000001000
44
0.0000000001
12
0.7997659605
22
0.0134010714
32
0.0000000000
13
0.7998782284
23
0.0000040624
33
0.0000000000
40
0.0000000000
40
0.0000000000
40
0.0000000000
40
0.0000000000
40
0.0052260003
40
0.0178553341
40
0.0377944834
40
0.0648946500
40
0.0989543218
40
0.1397202362
40
0.1868887145
40
0.2401086521
40
0.2989841326
40
0.3630769151
40
0.4319099056
40
0.5049710589
40
0.5817166159
40
0.6615747954
40
0.7439515463
40
0.8282347617
40
0.9137940875
40
1.0000000000
40
1.0000000000
40
1.0000000000
40
1.0000000000
10
11.4007345972
20
0.6994217834
30
0.0000000000
10
11.4021277896
20
0.6994451280
30
0.0000000000
10
11.4068888055
20
0.6994357002
30
0.0000000000
10
11.4169655010
20
0.6994735452
30
0.0000000000
10
11.4328748591
20
0.6994812726
30
0.0000000000
10
11.4544978924
20
0.6995043690
30
0.0000000000
10
11.4816739740
20
0.6995208391
30
0.0000000000
10
11.5142007596
20
0.6995390354
30
0.0000000000
10
11.5518361839
20
0.6995556439
30
0.0000000000
10
11.5943000879
20
0.6995715820
30
0.0000000000
10
11.6412764544
20
0.6995863637
30
0.0000000000
10
11.6924156681
20
0.6995999800
30
0.0000000000
10
11.7473371527
20
0.6996122892
30
0.0000000000
10
11.8056321972
20
0.6996232058
30
0.0000000000
10
11.8668668449
20
0.6996326430
30
0.0000000000
10
11.9305852740
20
0.6996405297
30
0.0000000000
10
11.9963134397
20
0.6996468061
30
0.0000000000
10
12.0635616797
20
0.6996514244
30
0.0000000000
10
12.1318308742
20
0.6996543509
30
0.0000000000
10
12.1776279656
20
0.6996551567
30
0.0000000000
10
12.2006127098
20
0.6996552735
30
0.0000000000
11
11.4007345972
21
0.6994217834
31
0.0000000000
11
11.4049147124
21
0.6994419485
31
0.0000000000
11
11.4150166218
21
0.6994619560
31
0.0000000000
11
11.4309655010
21
0.6994816577
31
0.0000000000
11
11.4526423257
21
0.6995009075
31
0.0000000000
11
11.4798859093
21
0.6995195627
31
0.0000000000
11
11.5124936717
21
0.6995374852
31
0.0000000000
11
11.5502227067
21
0.6995545421
31
0.0000000000
11
11.5927921731
21
0.6995706073
31
0.0000000000
11
11.6398853858
21
0.6995855622
31
0.0000000000
11
11.6911518052
21
0.6995992963
31
0.0000000000
11
11.7462098143
21
0.6996117084
31
0.0000000000
11
11.8046498392
21
0.6996227069
31
0.0000000000
11
11.8660369386
21
0.6996322109
31
0.0000000000
11
11.9299137573
21
0.6996401502
31
0.0000000000
11
11.9958051265
21
0.6996464664
31
0.0000000000
11
12.0632214354
21
0.6996511132
31
0.0000000000
11
12.1316584773
21
0.6996540563
31
0.0000000000
11
12.2006127098
21
0.6996552735
31
0.0000000000
0
SPLINE
5
2C1
100
AcDbEntity
8
0
100
AcDbSpline
62
9
6
CONTINUOUS
70
0
71
3
72
18
73
14
74
12
42
0.0000001000
43
0.0000001000
44
0.0000000001
12
-0.0000000000
22
0.2877538338
32
0.0000000000
13
-0.2855496621
23
0.0375918087
33
0.0000000000
40
0.0000000000
40
0.0000000000
40
0.0000000000
40
0.0000000000
40
0.0909153394
40
0.1818302104
40
0.2727441768
40
0.3636568638
40
0.4545679838
40
0.5454773560
40
0.6363849184
40
0.7272907322
40
0.8181949779
40
0.9090979424
40
1.0000000000
40
1.0000000000
40
1.0000000000
40
1.0000000000
10
55.4995210267
20
-0.0005782166
30
0.0000000000
10
55.4995210267
20
0.0081421959
30
0.0000000000
10
55.4983772603
20
0.0256044981
30
0.0000000000
10
55.4932596608
20
0.0513327357
30
0.0000000000
10
55.4848276730
20
0.0761773972
30
0.0000000000
10
55.4732255643
20
0.0997075261
30
0.0000000000
10
55.4586518456
20
0.1215220872
30
0.0000000000
10
55.4413558626
20
0.1412474052
30
0.0000000000
10
55.4216335790
20
0.1585460833
30
0.0000000000
10
55.3998223323
20
0.1731221005
30
0.0000000000
10
55.3762957386
20
0.1847260587
30
0.0000000000
10
55.3514547750
20
0.1931594023
30
0.0000000000
10
55.3343050966
20
0.1965716986
30
0.0000000000
10
55.3256527460
20
0.1977107562
30
0.0000000000
11
55.4995210267
21
-0.0005782166
31
0.0000000000
11
55.4978102592
21
0.0255270246
31
0.0000000000
11
55.4927072285
21
0.0511855977
31
0.0000000000
11
55.4842992489
21
0.0759584771
31
0.0000000000
11
55.4727301836
21
0.0994217918
31
0.0000000000
11
55.4581979826
21
0.1211740780
31
0.0000000000
11
55.4409512963
21
0.1408431481
31
0.0000000000
11
55.4212852205
21
0.1580924588
31
0.0000000000
11
55.3995362473
21
0.1726268698
31
0.0000000000
11
55.3760765081
21
0.1841976937
31
0.0000000000
11
55.3513074056
21
0.1926069506
31
0.0000000000
11
55.3256527460
21
0.1977107562
31
0.0000000000
0
SPLINE
5
2C2
100
AcDbEntity
8
0
100
AcDbSpline
62
9
6
CONTINUOUS
70
0
71
3
72
8
73
4
74
2
42
0.0000001000
43
0.0000001000
44
0.0000000001
12
-0.0173015094
22
0.0022776950
32
0.0000000000
13
-0.0174297806
23
0.0007616813
33
0.0000000000
40
0.0000000000
40
0.0000000000
40
0.0000000000
40
0.0000000000
40
1.0000000000
40
1.0000000000
40
1.0000000000
40
1.0000000000
10
55.3256527460
20
0.1977107562
30
0.0000000000
10
55.3198855762
20
0.1984699879
30
0.0000000000
10
55.3140839506
20
0.1989772760
30
0.0000000000
10
55.3082740237
20
0.1992311698
30
0.0000000000
11
55.3256527460
21
0.1977107562
31
0.0000000000
11
55.3082740237
21
0.1992311698
31
0.0000000000
0
SPLINE
5
2C3
100
AcDbEntity
8
0
100
AcDbSpline
62
9
6
CONTINUOUS
70
0
71
3
72
8
73
4
74
2
42
0.0000001000
43
0.0000001000
44
0.0000000001
12
-0.0087195780
22
0.0003810455
32
0.0000000000
13
-0.0087222194
23
-0.0000000000
33
0.0000000000
40
0.0000000000
40
0.0000000000
40
0.0000000000
40
0.0000000000
40
1.0000000000
40
1.0000000000
40
1.0000000000
40
1.0000000000
10
55.3082740237
20
0.1992311698
30
0.0000000000
10
55.3053674977
20
0.1993581850
30
0.0000000000
10
55.3024588942
20
0.1994217834
30
0.0000000000
10
55.2995514877
20
0.1994217834
30
0.0000000000
11
55.3082740237
21
0.1992311698
31
0.0000000000
11
55.2995514877
21
0.1994217834
31
0.0000000000
0
SPLINE
5
2C4
100
AcDbEntity
8
0
100
AcDbSpline
62
9
6
CONTINUOUS
70
0
71
3
72
25
73
21
74
19
42
0.0000001000
43
0.0000001000
44
0.0000000001
12
-0.7997659605
22
-0.0134010720
32
0.0000000000
13
-0.7998782284
23
-0.0000040624
33
0.0000000000
40
0.0000000000
40
0.0000000000
40
0.0000000000
40
0.0000000000
40
0.0052260003
40
0.0178553341
40
0.0377944834
40
0.0648946500
40
0.0989543218
40
0.1397202362
40
0.1868887145
40
0.2401086521
40
0.2989841326
40
0.3630769151
40
0.4319099056
40
0.5049710589
40
0.5817166159
40
0.6615747954
40
0.7439515463
40
0.8282347617
40
0.9137940875
40
1.0000000000
40
1.0000000000
40
1.0000000000
40
1.0000000000
10
55.4995209690
20
-0.0005782166
30
0.0000000000
10
55.4981277766
20
-0.0006015613
30
0.0000000000
10
55.4933667606
20
-0.0005921335
30
0.0000000000
10
55.4832900652
20
-0.0006299785
30
0.0000000000
10
55.4673807071
20
-0.0006377058
30
0.0000000000
10
55.4457576737
20
-0.0006608023
30
0.0000000000
10
55.4185815921
20
-0.0006772724
30
0.0000000000
10
55.3860548065
20
-0.0006954686
30
0.0000000000
10
55.3484193822
20
-0.0007120772
30
0.0000000000
10
55.3059554783
20
-0.0007280152
30
0.0000000000
10
55.2589791117
20
-0.0007427969
30
0.0000000000
10
55.2078398980
20
-0.0007564133
30
0.0000000000
10
55.1529184135
20
-0.0007687225
30
0.0000000000
10
55.0946233690
20
-0.0007796391
30
0.0000000000
10
55.0333887213
20
-0.0007890763
30
0.0000000000
10
54.9696702921
20
-0.0007969630
30
0.0000000000
10
54.9039421265
20
-0.0008032394
30
0.0000000000
10
54.8366938865
20
-0.0008078577
30
0.0000000000
10
54.7684246920
20
-0.0008107841
30
0.0000000000
10
54.7226276005
20
-0.0008115900
30
0.0000000000
10
54.6996428563
20
-0.0008117067
30
0.0000000000
11
55.4995209690
21
-0.0005782166
31
0.0000000000
11
55.4953408537
21
-0.0005983818
31
0.0000000000
11
55.4852389444
21
-0.0006183892
31
0.0000000000
11
55.4692900652
21
-0.0006380909
31
0.0000000000
11
55.4476132404
21
-0.0006573408
31
0.0000000000
11
55.4203696569
21
-0.0006759960
31
0.0000000000
11
55.3877618945
21
-0.0006939184
31
0.0000000000
11
55.3500328594
21
-0.0007109753
31
0.0000000000
11
55.3074633930
21
-0.0007270405
31
0.0000000000
11
55.2603701804
21
-0.0007419954
31
0.0000000000
11
55.2091037609
21
-0.0007557296
31
0.0000000000
11
55.1540457518
21
-0.0007681417
31
0.0000000000
11
55.0956057270
21
-0.0007791402
31
0.0000000000
11
55.0342186275
21
-0.0007886441
31
0.0000000000
11
54.9703418089
21
-0.0007965834
31
0.0000000000
11
54.9044504396
21
-0.0008028997
31
0.0000000000
11
54.8370341307
21
-0.0008075465
31
0.0000000000
11
54.7685970888
21
-0.0008104896
31
0.0000000000
11
54.6996428563
21
-0.0008117067
31
0.0000000000
0
SPLINE
5
2C5
100
AcDbEntity
8
0
100
AcDbSpline
62
9
6
CONTINUOUS
70
0
71
3
72
43
73
39
74
37
42
0.0000001000
43
0.0000001000
44
0.0000000001
12
-0.9446368111
22
-4.2165221389
32
0.0000000000
13
-0.9446377734
23
4.2165219233
33
0.0000000000
40
0.0000000000
40
0.0000000000
40
0.0000000000
40
0.0000000000
40
0.0277938826
40
0.0555885885
40
0.0833848768
40
0.1111794177
40
0.1389708629
40
0.1667588868
40
0.1945436089
40
0.2223252442
40
0.2501040014
40
0.2778797699
40
0.3056524455
40
0.3334223269
40
0.3611896663
40
0.3889549176
40
0.4167182893
40
0.4444802839
40
0.4722412749
40
0.5000017984
40
0.5277623086
40
0.5555232631
40
0.5832851914
40
0.6110484760
40
0.6388136040
40
0.6665808111
40
0.6943505242
40
0.7221230125
40
0.7498985396
40
0.7776770481
40
0.8054584429
40
0.8332428902
40
0.8610305677
40
0.8888216036
40
0.9166157494
40
0.9444115770
40
0.9722060962
40
1.0000000000
40
1.0000000000
40
1.0000000000
40
1.0000000000
10
35.0113765607
20
-0.0008117059
30
0.0000000000
10
35.0026248525
20
-0.0398762130
30
0.0000000000
10
34.9821837771
20
-0.1173816333
30
0.0000000000
10
34.9429024874
20
-0.2309928545
30
0.0000000000
10
34.8952165853
20
-0.3413489925
30
0.0000000000
10
34.8393971805
20
-0.4478151987
30
0.0000000000
10
34.7757620117
20
-0.5497890914
30
0.0000000000
10
34.7046717971
20
-0.6466955374
30
0.0000000000
10
34.6265279139
20
-0.7379907791
30
0.0000000000
10
34.5417707600
20
-0.8231629688
30
0.0000000000
10
34.4508779366
20
-0.9017344192
30
0.0000000000
10
34.3543618248
20
-0.9732642493
30
0.0000000000
10
34.2527663324
20
-1.0373513743
30
0.0000000000
10
34.1466634259
20
-1.0936368891
30
0.0000000000
10
34.0366495642
20
-1.1418060343
30
0.0000000000
10
33.9233431417
20
-1.1815894263
30
0.0000000000
10
33.8073805908
20
-1.2127647484
30
0.0000000000
10
33.6894132625
20
-1.2351578108
30
0.0000000000
10
33.5701032154
20
-1.2486436089
30
0.0000000000
10
33.4501200448
20
-1.2531468647
30
0.0000000000
10
33.3301369705
20
-1.2486424513
30
0.0000000000
10
33.2108272193
20
-1.2351555268
30
0.0000000000
10
33.0928603724
20
-1.2127613996
30
0.0000000000
10
32.9768984959
20
-1.1815851083
30
0.0000000000
10
32.8635928974
20
-1.1418008640
30
0.0000000000
10
32.7535800120
20
-1.0936310156
30
0.0000000000
10
32.6474781905
20
-1.0373449592
30
0.0000000000
10
32.5458839232
20
-0.9732575083
30
0.0000000000
10
32.4493691095
20
-0.9017275701
30
0.0000000000
10
32.3584775948
20
-0.8231562196
30
0.0000000000
10
32.2737217160
20
-0.7379843177
30
0.0000000000
10
32.1955791112
20
-0.6466896199
30
0.0000000000
10
32.1244901927
20
-0.5497840687
30
0.0000000000
10
32.0608562408
20
-0.4478113771
30
0.0000000000
10
32.0050379078
20
-0.3413466693
30
0.0000000000
10
31.9573527544
20
-0.2309918556
30
0.0000000000
10
31.9180716417
20
-0.1173815186
30
0.0000000000
10
31.8976309630
20
-0.0398762409
30
0.0000000000
10
31.8888792392
20
-0.0008117059
30
0.0000000000
11
35.0113765607
21
-0.0008117059
31
0.0000000000
11
34.9807476662
21
-0.1169388940
31
0.0000000000
11
34.9415025795
21
-0.2304480599
31
0.0000000000
11
34.8938595416
21
-0.3407036309
31
0.0000000000
11
34.8380913358
21
-0.4470720634
31
0.0000000000
11
34.7745154159
21
-0.5489505486
31
0.0000000000
11
34.7034917689
21
-0.6457659116
31
0.0000000000
11
34.6254211792
21
-0.7369751756
31
0.0000000000
11
34.5407435436
21
-0.8220671395
31
0.0000000000
11
34.4499356808
21
-0.9005648509
31
0.0000000000
11
34.3535098267
21
-0.9720275209
31
0.0000000000
11
34.2520098653
21
-1.0360541435
31
0.0000000000
11
34.1460067003
21
-1.0922865360
31
0.0000000000
11
34.0360965530
21
-1.1404100894
31
0.0000000000
11
33.9228966427
21
-1.1801559342
31
0.0000000000
11
33.8070435319
21
-1.2113017173
31
0.0000000000
11
33.6891873715
21
-1.2336735933
31
0.0000000000
11
33.5699900017
21
-1.2471466046
31
0.0000000000
11
33.4501200330
21
-1.2516455947
31
0.0000000000
11
33.3302501649
21
-1.2471454483
31
0.0000000000
11
33.2110530813
21
-1.2336713105
31
0.0000000000
11
33.0931974139
21
-1.2112983731
31
0.0000000000
11
32.9773449549
21
-1.1801516157
31
0.0000000000
11
32.8641459039
21
-1.1404049321
31
0.0000000000
11
32.7542366950
21
-1.0922806601
31
0.0000000000
11
32.6482346348
21
-1.0360477375
31
0.0000000000
11
32.5467358531
21
-0.9720207613
31
0.0000000000
11
32.4503113485
21
-0.9005580223
31
0.0000000000
11
32.3595048087
21
-0.8220604242
31
0.0000000000
11
32.2748284022
21
-0.7369687028
31
0.0000000000
11
32.1967590532
21
-0.6457599398
31
0.0000000000
11
32.1257367077
21
-0.5489454785
31
0.0000000000
11
32.0621620578
21
-0.4470682854
31
0.0000000000
11
32.0063948778
21
-0.3407012425
31
0.0000000000
11
31.9587527438
21
-0.2304474495
31
0.0000000000
11
31.9195079392
21
-0.1169390402
31
0.0000000000
11
31.8888792392
21
-0.0008117059
31
0.0000000000
0
SPLINE
5
2C6
100
AcDbEntity
8
0
100
AcDbSpline
62
9
6
CONTINUOUS
70
0
71
3
72
25
73
21
74
19
42
0.0000001000
43
0.0000001000
44
0.0000000001
12
-0.7998782284
22
0.0000040624
32
0.0000000000
13
-0.7997659605
23
0.0134010720
33
0.0000000000
40
0.0000000000
40
0.0000000000
40
0.0000000000
40
0.0000000000
40
0.0862059124
40
0.1717652382
40
0.2560484537
40
0.3384252046
40
0.4182833841
40
0.4950289411
40
0.5680900944
40
0.6369230849
40
0.7010158674
40
0.7598913479
40
0.8131112855
40
0.8602797638
40
0.9010456781
40
0.9351053500
40
0.9622055166
40
0.9821446659
40
0.9947739997
40
1.0000000000
40
1.0000000000
40
1.0000000000
40
1.0000000000
10
12.2006127098
20
-0.0008117067
30
0.0000000000
10
12.1776279657
20
-0.0008115900
30
0.0000000000
10
12.1318308742
20
-0.0008107841
30
0.0000000000
10
12.0635616797
20
-0.0008078577
30
0.0000000000
10
11.9963134397
20
-0.0008032394
30
0.0000000000
10
11.9305852740
20
-0.0007969630
30
0.0000000000
10
11.8668668449
20
-0.0007890763
30
0.0000000000
10
11.8056321972
20
-0.0007796391
30
0.0000000000
10
11.7473371527
20
-0.0007687225
30
0.0000000000
10
11.6924156681
20
-0.0007564133
30
0.0000000000
10
11.6412764544
20
-0.0007427969
30
0.0000000000
10
11.5943000879
20
-0.0007280152
30
0.0000000000
10
11.5518361839
20
-0.0007120772
30
0.0000000000
10
11.5142007596
20
-0.0006954686
30
0.0000000000
10
11.4816739740
20
-0.0006772724
30
0.0000000000
10
11.4544978924
20
-0.0006608023
30
0.0000000000
10
11.4328748591
20
-0.0006377058
30
0.0000000000
10
11.4169655010
20
-0.0006299785
30
0.0000000000
10
11.4068888055
20
-0.0005921335
30
0.0000000000
10
11.4021277896
20
-0.0006015613
30
0.0000000000
10
11.4007345972
20
-0.0005782166
30
0.0000000000
11
12.2006127098
21
-0.0008117067
31
0.0000000000
11
12.1316584773
21
-0.0008104896
31
0.0000000000
11
12.0632214354
21
-0.0008075465
31
0.0000000000
11
11.9958051265
21
-0.0008028997
31
0.0000000000
11
11.9299137573
21
-0.0007965834
31
0.0000000000
11
11.8660369386
21
-0.0007886441
31
0.0000000000
11
11.8046498392
21
-0.0007791402
31
0.0000000000
11
11.7462098143
21
-0.0007681417
31
0.0000000000
11
11.6911518052
21
-0.0007557296
31
0.0000000000
11
11.6398853858
21
-0.0007419954
31
0.0000000000
11
11.5927921731
21
-0.0007270405
31
0.0000000000
11
11.5502227067
21
-0.0007109753
31
0.0000000000
11
11.5124936717
21
-0.0006939184
31
0.0000000000
11
11.4798859093
21
-0.0006759960
31
0.0000000000
11
11.4526423257
21
-0.0006573408
31
0.0000000000
11
11.4309655010
21
-0.0006380909
31
0.0000000000
11
11.4150166218
21
-0.0006183892
31
0.0000000000
11
11.4049147124
21
-0.0005983818
31
0.0000000000
11
11.4007345972
21
-0.0005782166
31
0.0000000000
0
SPLINE
5
2C7
100
AcDbEntity
8
0
100
AcDbSpline
62
9
6
CONTINUOUS
70
0
71
3
72
43
73
39
74
37
42
0.0000001000
43
0.0000001000
44
0.0000000001
12
0.9446368020
22
4.2165221318
32
0.0000000000
13
0.9446377644
23
-4.2165219162
33
0.0000000000
40
0.0000000000
40
0.0000000000
40
0.0000000000
40
0.0000000000
40
0.0277940718
40
0.0555891537
40
0.0833856890
40
0.1111801762
40
0.1389713747
40
0.1667592493
40
0.1945440026
40
0.2223256839
40
0.2501043961
40
0.2778800838
40
0.3056527093
40
0.3334225660
40
0.3611898747
40
0.3889550827
40
0.4167184104
40
0.4444803659
40
0.4722413190
40
0.5000018027
40
0.5277622731
40
0.5555231897
40
0.5832850789
40
0.6110483194
40
0.6388134042
40
0.6665805808
40
0.6943502686
40
0.7221227059
40
0.7498981532
40
0.7776766189
40
0.8054580576
40
0.8332425314
40
0.8610300622
40
0.8888208571
40
0.9166149476
40
0.9444110214
40
0.9722059177
40
1.0000000000
40
1.0000000000
40
1.0000000000
40
1.0000000000
10
31.8888790255
20
0.6996552727
30
0.0000000000
10
31.8976307932
20
0.7387200457
30
0.0000000000
10
31.9180720693
20
0.8162262568
30
0.0000000000
10
31.9573538696
20
0.9298385443
30
0.0000000000
10
32.0050403005
20
1.0401953494
30
0.0000000000
10
32.0608598961
20
1.1466613680
30
0.0000000000
10
32.1244948954
20
1.2486345994
30
0.0000000000
10
32.1955849128
20
1.3455405361
30
0.0000000000
10
32.2737288219
20
1.4368356190
30
0.0000000000
10
32.3584861048
20
1.5220077462
30
0.0000000000
10
32.4493789293
20
1.6005790182
30
0.0000000000
10
32.5458949051
20
1.6721086041
30
0.0000000000
10
32.6474902573
20
1.7361955295
30
0.0000000000
10
32.7535930675
20
1.7924809006
30
0.0000000000
10
32.8636068275
20
1.8406499218
30
0.0000000000
10
32.9769131090
20
1.8804332000
30
0.0000000000
10
33.0928754955
20
1.9116084296
30
0.0000000000
10
33.2108426581
20
1.9340014269
30
0.0000000000
10
33.3301525397
20
1.9474871856
30
0.0000000000
10
33.4501355406
20
1.9519904271
30
0.0000000000
10
33.5701184452
20
1.9474860252
30
0.0000000000
10
33.6894280304
20
1.9339991372
30
0.0000000000
10
33.8073947108
20
1.9116050723
30
0.0000000000
10
33.9233564222
20
1.8804288706
30
0.0000000000
10
34.0366618792
20
1.8406447374
30
0.0000000000
10
34.1466746615
20
1.7924750104
30
0.0000000000
10
34.2527763836
20
1.7361890961
30
0.0000000000
10
34.3543705087
20
1.6721018429
30
0.0000000000
10
34.4508851876
20
1.6005721447
30
0.0000000000
10
34.5417767026
20
1.5220009691
30
0.0000000000
10
34.6265327034
20
1.4368291322
30
0.0000000000
10
34.7046753286
20
1.3455345966
30
0.0000000000
10
34.7757640514
20
1.2486295496
30
0.0000000000
10
34.8393978363
20
1.1466575095
30
0.0000000000
10
34.8952163588
20
1.0401929832
30
0.0000000000
10
34.9429020380
20
0.9298375030
30
0.0000000000
10
34.9821836503
20
0.8162261119
30
0.0000000000
10
35.0026245325
20
0.7387200584
30
0.0000000000
10
35.0113763124
20
0.6996552727
30
0.0000000000
11
31.8888790255
21
0.6996552727
31
0.0000000000
11
31.9195081396
21
0.8157832482
31
0.0000000000
11
31.9587538731
21
0.9292939092
31
0.0000000000
11
32.0063975393
21
1.0395503707
31
0.0000000000
11
32.0621658632
21
1.1459184794
31
0.0000000000
11
32.1257413938
21
1.2477959509
31
0.0000000000
11
32.1967647734
21
1.3446107093
31
0.0000000000
11
32.2748355442
21
1.4358199959
31
0.0000000000
11
32.3595134158
21
1.5209120050
31
0.0000000000
11
32.4503212200
21
1.5994094865
31
0.0000000000
11
32.5467468615
21
1.6708718556
31
0.0000000000
11
32.6482466898
21
1.7348982834
31
0.0000000000
11
32.7542497987
21
1.7911305536
31
0.0000000000
11
32.8641598534
21
1.8392539871
31
0.0000000000
11
32.9773596069
21
1.8789997124
31
0.0000000000
11
33.0932125459
21
1.9101454012
31
0.0000000000
11
33.2110685466
21
1.9325172132
31
0.0000000000
11
33.3302657556
21
1.9459901857
31
0.0000000000
11
33.4501355524
21
1.9504891615
31
0.0000000000
11
33.5700052485
21
1.9459890265
31
0.0000000000
11
33.6892021711
21
1.9325149247
31
0.0000000000
11
33.8070576778
21
1.9101420485
31
0.0000000000
11
33.9229099639
21
1.8789953827
31
0.0000000000
11
34.0361088581
21
1.8392488156
31
0.0000000000
11
34.1460179739
21
1.7911246605
31
0.0000000000
11
34.2520199742
21
1.7348918590
31
0.0000000000
11
34.3535186181
21
1.6708650775
31
0.0000000000
11
34.4499429123
21
1.5994026345
31
0.0000000000
11
34.5407493987
21
1.5209052575
31
0.0000000000
11
34.6254260324
21
1.4358134952
31
0.0000000000
11
34.7034955476
21
1.3446047239
31
0.0000000000
11
34.7745176310
21
1.2477908571
31
0.0000000000
11
34.8380919018
21
1.1459146553
31
0.0000000000
11
34.8938591934
21
1.0395479408
31
0.0000000000
11
34.9415019515
21
0.9292932588
31
0.0000000000
11
34.9807474012
21
0.8157833487
31
0.0000000000
11
35.0113763124
21
0.6996552727
31
0.0000000000
0
SPLINE
5
2C8
100
AcDbEntity
8
0
100
AcDbSpline
62
9
6
CONTINUOUS
70
0
71
3
72
18
73
14
74
12
42
0.0000001000
43
0.0000001000
44
0.0000000001
12
0.0000000000
22
0.2877538296
32
0.0000000000
13
0.2855496572
23
0.0375918142
33
0.0000000000
40
0.0000000000
40
0.0000000000
40
0.0000000000
40
0.0000000000
40
0.0909153309
40
0.1818301941
40
0.2727441537
40
0.3636568353
40
0.4545679518
40
0.5454773225
40
0.6363848858
40
0.7272907033
40
0.8181949555
40
0.9090979296
40
1.0000000000
40
1.0000000000
40
1.0000000000
40
1.0000000000
10
11.4007345394
20
-0.0005782166
30
0.0000000000
10
11.4007345394
20
0.0081421949
30
0.0000000000
10
11.4018783056
20
0.0256044953
30
0.0000000000
10
11.4069959040
20
0.0513327305
30
0.0000000000
10
11.4154278903
20
0.0761773900
30
0.0000000000
10
11.4270299971
20
0.0997075178
30
0.0000000000
10
11.4416037139
20
0.1215220785
30
0.0000000000
10
11.4588996953
20
0.1412473968
30
0.0000000000
10
11.4786219777
20
0.1585460761
30
0.0000000000
10
11.5004332242
20
0.1731220950
30
0.0000000000
10
11.5239598186
20
0.1847260551
30
0.0000000000
10
11.5488007842
20
0.1931594005
30
0.0000000000
10
11.5659504643
20
0.1965716977
30
0.0000000000
10
11.5746028160
20
0.1977107556
30
0.0000000000
11
11.4007345394
21
-0.0005782166
31
0.0000000000
11
11.4024453065
21
0.0255270218
31
0.0000000000
11
11.4075483362
21
0.0511855924
31
0.0000000000
11
11.4159563142
21
0.0759584698
31
0.0000000000
11
11.4275253777
21
0.0994217834
31
0.0000000000
11
11.4420575767
21
0.1211740692
31
0.0000000000
11
11.4593042614
21
0.1408431396
31
0.0000000000
11
11.4789703361
21
0.1580924514
31
0.0000000000
11
11.5007193089
21
0.1726268641
31
0.0000000000
11
11.5241790489
21
0.1841976899
31
0.0000000000
11
11.5489481533
21
0.1926069486
31
0.0000000000
11
11.5746028160
21
0.1977107556
31
0.0000000000
0
SPLINE
5
2C9
100
AcDbEntity
8
0
100
AcDbSpline
62
9
6
CONTINUOUS
70
0
71
3
72
8
73
4
74
2
42
0.0000001000
43
0.0000001000
44
0.0000000001
12
0.0173015121
22
0.0022776957
32
0.0000000000
13
0.0174297833
23
0.0007616816
33
0.0000000000
40
0.0000000000
40
0.0000000000
40
0.0000000000
40
0.0000000000
40
1.0000000000
40
1.0000000000
40
1.0000000000
40
1.0000000000
10
11.5746028160
20
0.1977107556
30
0.0000000000
10
11.5803699866
20
0.1984699875
30
0.0000000000
10
11.5861716132
20
0.1989772759
30
0.0000000000
10
11.5919815409
20
0.1992311697
30
0.0000000000
11
11.5746028160
21
0.1977107556
31
0.0000000000
11
11.5919815409
21
0.1992311697
31
0.0000000000
0
SPLINE
5
2CA
100
AcDbEntity
8
0
100
AcDbSpline
62
9
6
CONTINUOUS
70
0
71
3
72
8
73
4
74
2
42
0.0000001000
43
0.0000001000
44
0.0000000001
12
0.0087195795
22
0.0003810457
32
0.0000000000
13
0.0087222209
23
-0.0000000000
33
0.0000000000
40
0.0000000000
40
0.0000000000
40
0.0000000000
40
0.0000000000
40
1.0000000000
40
1.0000000000
40
1.0000000000
40
1.0000000000
10
11.5919815409
20
0.1992311697
30
0.0000000000
10
11.5948880674
20
0.1993581849
30
0.0000000000
10
11.5977966715
20
0.1994217834
30
0.0000000000
10
11.6007040784
20
0.1994217834
30
0.0000000000
11
11.5919815409
21
0.1992311697
31
0.0000000000
11
11.6007040784
21
0.1994217834
31
0.0000000000
0
SPLINE
5
2CB
100
AcDbEntity
8
0
100
AcDbSpline
62
9
6
CONTINUOUS
70
0
71
3
72
24
73
20
74
18
42
0.0000001000
43
0.0000001000
44
0.0000000001
12
0.0003825233
22
-1.2558773180
32
0.0000000000
13
1.2558773180
23
-0.0003825233
33
0.0000000000
40
0.0000000000
40
0.0000000000
40
0.0000000000
40
0.0000000000
40
0.0588186456
40
0.1176389157
40
0.1764607270
40
0.2352839433
40
0.2941083808
40
0.3529338143
40
0.4117599843
40
0.4705866067
40
0.5294133816
40
0.5882400043
40
0.6470661751
40
0.7058916095
40
0.7647160484
40
0.8235392663
40
0.8823610795
40
0.9411813519
40
1.0000000000
40
1.0000000000
40
1.0000000000
40
1.0000000000
10
11.3767014997
20
-20.6241263439
30
0.0000000000
10
11.3767089995
20
-20.6487493449
30
0.0000000000
10
11.3790012181
20
-20.6980256326
30
0.0000000000
10
11.3892415020
20
-20.7712844339
30
0.0000000000
10
11.4061964574
20
-20.8432947092
30
0.0000000000
10
11.4297214770
20
-20.9134340717
30
0.0000000000
10
11.4596159265
20
-20.9811065717
30
0.0000000000
10
11.4956248525
20
-21.0457344908
30
0.0000000000
10
11.5374411584
20
-21.1067668288
30
0.0000000000
10
11.5847082226
20
-21.1636830480
30
0.0000000000
10
11.6370229410
20
-21.2159977673
30
0.0000000000
10
11.6939391596
20
-21.2632648328
30
0.0000000000
10
11.7549714976
20
-21.3050811402
30
0.0000000000
10
11.8195994172
20
-21.3410900679
30
0.0000000000
10
11.8872719183
20
-21.3709845190
30
0.0000000000
10
11.9574112825
20
-21.3945095401
30
0.0000000000
10
12.0294215601
20
-21.4114644968
30
0.0000000000
10
12.1026803641
20
-21.4217047814
30
0.0000000000
10
12.1519566538
20
-21.4239970002
30
0.0000000000
10
12.1765796558
20
-21.4240045000
30
0.0000000000
11
11.3767014997
21
-20.6241263439
31
0.0000000000
11
11.3801347917
21
-20.6979155206
31
0.0000000000
11
11.3903604371
21
-20.7710753982
31
0.0000000000
11
11.4072912283
21
-20.8429820445
31
0.0000000000
11
11.4307827737
21
-20.9130222149
31
0.0000000000
11
11.4606347294
21
-20.9805985830
31
0.0000000000
11
11.4965925079
21
-21.0451348345
31
0.0000000000
11
11.5383494491
21
-21.1060805820
31
0.0000000000
11
11.5855494354
21
-21.1629160594
31
0.0000000000
11
11.6377899294
21
-21.2151565544
31
0.0000000000
11
11.6946254063
21
-21.2623565421
31
0.0000000000
11
11.7555711538
21
-21.3041134847
31
0.0000000000
11
11.8201074058
21
-21.3400712649
31
0.0000000000
11
11.8876837750
21
-21.3699232223
31
0.0000000000
11
11.9577239472
21
-21.3934147691
31
0.0000000000
11
12.0296305956
21
-21.4103455615
31
0.0000000000
11
12.1027904760
21
-21.4205712077
31
0.0000000000
11
12.1765796558
21
-21.4240045000
31
0.0000000000
0
SPLINE
5
2CC
100
AcDbEntity
8
0
100
AcDbSpline
62
9
6
CONTINUOUS
70
0
71
3
72
27
73
23
74
21
42
0.0000001000
43
0.0000001000
44
0.0000000001
12
0.5910448105
22
1.2669836633
32
0.0000000000
13
0.0007751433
23
1.3980632926
33
0.0000000000
40
0.0000000000
40
0.0000000000
40
0.0000000000
40
0.0000000000
40
0.0043947854
40
0.0146523204
40
0.0307364444
40
0.0525624219
40
0.0800114491
40
0.1129329476
40
0.1511457169
40
0.1944392748
40
0.2425751055
40
0.2952879184
40
0.3522871313
40
0.4132585111
40
0.4778659509
40
0.5457533612
40
0.6165464861
40
0.6898549024
40
0.7652746064
40
0.8423900584
40
0.9207755278
40
1.0000000000
40
1.0000000000
40
1.0000000000
40
1.0000000000
10
12.1765796558
20
-21.4240045000
30
0.0000000000
10
12.1774454942
20
-21.4221484596
30
0.0000000000
10
12.1774088819
20
-21.4150530618
30
0.0000000000
10
12.1787788088
20
-21.4009934474
30
0.0000000000
10
12.1793117111
20
-21.3784340553
30
0.0000000000
10
12.1802811697
20
-21.3480404703
30
0.0000000000
10
12.1810643449
20
-21.3097237264
30
0.0000000000
10
12.1818931864
20
-21.2637960606
30
0.0000000000
10
12.1826728580
20
-21.2104736010
30
0.0000000000
10
12.1834279630
20
-21.1500630416
30
0.0000000000
10
12.1841436276
20
-21.0828932698
30
0.0000000000
10
12.1848186015
20
-21.0093359744
30
0.0000000000
10
12.1854478610
20
-20.9297963430
30
0.0000000000
10
12.1860280221
20
-20.8447130845
30
0.0000000000
10
12.1865556440
20
-20.7545552552
30
0.0000000000
10
12.1870277356
20
-20.6598199214
30
0.0000000000
10
12.1874416029
20
-20.5610294396
30
0.0000000000
10
12.1877949132
20
-20.4587284937
30
0.0000000000
10
12.1880856605
20
-20.3534810018
30
0.0000000000
10
12.1883122350
20
-20.2458673330
30
0.0000000000
10
12.1884733244
20
-20.1364804425
30
0.0000000000
10
12.1885362740
20
-20.0630308948
30
0.0000000000
10
12.1885567441
20
-20.0261106193
30
0.0000000000
11
12.1765796558
21
-21.4240045000
31
0.0000000000
11
12.1774855758
21
-21.4179274639
31
0.0000000000
11
12.1783852809
21
-21.4036150291
31
0.0000000000
11
12.1792739079
21
-21.3811459676
31
0.0000000000
11
12.1801464800
21
-21.3506443434
31
0.0000000000
11
12.1809982177
21
-21.3122783134
31
0.0000000000
11
12.1818244152
21
-21.2662593836
31
0.0000000000
11
12.1826205188
21
-21.2128414374
31
0.0000000000
11
12.1833821381
21
-21.1523190859
31
0.0000000000
11
12.1841050754
21
-21.0850260208
31
0.0000000000
11
12.1847853449
21
-21.0113333005
31
0.0000000000
11
12.1854191962
21
-20.9316473018
31
0.0000000000
11
12.1860031349
21
-20.8464074409
31
0.0000000000
11
12.1865339421
21
-20.7560836966
31
0.0000000000
11
12.1870086925
21
-20.6611739731
31
0.0000000000
11
12.1874247685
21
-20.5622015631
31
0.0000000000
11
12.1877798774
21
-20.4597123567
31
0.0000000000
11
12.1880720589
21
-20.3542712256
31
0.0000000000
11
12.1882997114
21
-20.2464591667
31
0.0000000000
11
12.1884615645
21
-20.1368714219
31
0.0000000000
11
12.1885567441
21
-20.0261106193
31
0.0000000000
0
SPLINE
5
2CD
100
AcDbEntity
8
0
100
AcDbSpline
62
9
6
CONTINUOUS
70
0
71
3
72
26
73
22
74
20
42
0.0000001000
43
0.0000001000
44
0.0000000001
12
0.4614303810
22
0.4615974527
32
0.0000000000
13
0.0007756189
23
0.6526787902
33
0.0000000000
40
0.0000000000
40
0.0000000000
40
0.0000000000
40
0.0000000000
40
0.0148361311
40
0.0309583453
40
0.0528074675
40
0.0802699741
40
0.1131978841
40
0.1514114803
40
0.1947012406
40
0.2428293270
40
0.2955309658
40
0.3525159939
40
0.4134705337
40
0.4780587572
40
0.5459248448
40
0.6166948082
40
0.6899784827
40
0.7653721148
40
0.8424604183
40
0.9208178994
40
1.0000000000
40
1.0000000000
40
1.0000000000
40
1.0000000000
10
11.3767014997
20
-20.6241263439
30
0.0000000000
10
11.3789834469
20
-20.6218435705
30
0.0000000000
10
11.3780058566
20
-20.6139338234
30
0.0000000000
10
11.3797586748
20
-20.6030450080
30
0.0000000000
10
11.3802771279
20
-20.5886157317
30
0.0000000000
10
11.3812307521
20
-20.5708249556
30
0.0000000000
10
11.3819997290
20
-20.5493589521
30
0.0000000000
10
11.3827995276
20
-20.5244852755
30
0.0000000000
10
11.3835481717
20
-20.4962895343
30
0.0000000000
10
11.3842659014
20
-20.4649440385
30
0.0000000000
10
11.3849402686
20
-20.4306161811
30
0.0000000000
10
11.3855697340
20
-20.3934969097
30
0.0000000000
10
11.3861498529
20
-20.3537903883
30
0.0000000000
10
11.3866775023
20
-20.3117156963
30
0.0000000000
10
11.3871495968
20
-20.2675047689
30
0.0000000000
10
11.3875634722
20
-20.2214014042
30
0.0000000000
10
11.3879167816
20
-20.1736597995
30
0.0000000000
10
11.3882075352
20
-20.1245431334
30
0.0000000000
10
11.3884340957
20
-20.0743222624
30
0.0000000000
10
11.3885951857
20
-20.0232769180
30
0.0000000000
10
11.3886581163
20
-19.9890026921
30
0.0000000000
10
11.3886785880
20
-19.9717758662
30
0.0000000000
11
11.3767014997
21
-20.6241263439
31
0.0000000000
11
11.3785069779
21
-20.6146129172
31
0.0000000000
11
11.3793956073
21
-20.6041278718
31
0.0000000000
11
11.3802682034
21
-20.5898941251
31
0.0000000000
11
11.3811199572
21
-20.5719901658
31
0.0000000000
11
11.3819461735
21
-20.5505146897
31
0.0000000000
11
11.3827422947
21
-20.5255861776
31
0.0000000000
11
11.3835039311
21
-20.4973421166
31
0.0000000000
11
11.3842268843
21
-20.4659382337
31
0.0000000000
11
11.3849071686
21
-20.4315476953
31
0.0000000000
11
11.3855410332
21
-20.3943601516
31
0.0000000000
11
11.3861249835
21
-20.3545806741
31
0.0000000000
11
11.3866558001
21
-20.3124286229
31
0.0000000000
11
11.3871305574
21
-20.2681363800
31
0.0000000000
11
11.3875466382
21
-20.2219481674
31
0.0000000000
11
11.3879017483
21
-20.1741187518
31
0.0000000000
11
11.3881939311
21
-20.1249117599
31
0.0000000000
11
11.3884215767
21
-20.0745983387
31
0.0000000000
11
11.3885834295
21
-20.0234562928
31
0.0000000000
11
11.3886785880
21
-19.9717758662
31
0.0000000000
0
SPLINE
5
2CE
100
AcDbEntity
8
0
100
AcDbSpline
62
9
6
CONTINUOUS
70
0
71
3
72
24
73
20
74
18
42
0.0000001000
43
0.0000001000
44
0.0000000001
12
-0.0003825233
22
-1.2558773180
32
0.0000000000
13
-1.2558773180
23
-0.0003825233
33
0.0000000000
40
0.0000000000
40
0.0000000000
40
0.0000000000
40
0.0000000000
40
0.0588186470
40
0.1176389184
40
0.1764607307
40
0.2352839479
40
0.2941083860
40
0.3529338199
40
0.4117599902
40
0.4705866126
40
0.5294133874
40
0.5882400098
40
0.6470661801
40
0.7058916140
40
0.7647160521
40
0.8235392693
40
0.8823610816
40
0.9411813530
40
1.0000000000
40
1.0000000000
40
1.0000000000
40
1.0000000000
10
55.5235540665
20
-20.6241263439
30
0.0000000000
10
55.5235465666
20
-20.6487493455
30
0.0000000000
10
55.5212543479
20
-20.6980256344
30
0.0000000000
10
55.5110140636
20
-20.7712844372
30
0.0000000000
10
55.4940591075
20
-20.8432947137
30
0.0000000000
10
55.4705340871
20
-20.9134340770
30
0.0000000000
10
55.4406396368
20
-20.9811065775
30
0.0000000000
10
55.4046307100
20
-21.0457344968
30
0.0000000000
10
55.3628144033
20
-21.1067668346
30
0.0000000000
10
55.3155473386
20
-21.1636830534
30
0.0000000000
10
55.2632326199
20
-21.2159977721
30
0.0000000000
10
55.2063164011
20
-21.2632648369
30
0.0000000000
10
55.1452840632
20
-21.3050811435
30
0.0000000000
10
55.0806561439
20
-21.3410900704
30
0.0000000000
10
55.0129836435
20
-21.3709845207
30
0.0000000000
10
54.9428442801
20
-21.3945095410
30
0.0000000000
10
54.8708340036
20
-21.4114644972
30
0.0000000000
10
54.7975752008
20
-21.4217047815
30
0.0000000000
10
54.7482989119
20
-21.4239970002
30
0.0000000000
10
54.7236759103
20
-21.4240045000
30
0.0000000000
11
55.5235540665
21
-20.6241263439
31
0.0000000000
11
55.5201207743
21
-20.6979155224
31
0.0000000000
11
55.5098951284
21
-20.7710754016
31
0.0000000000
11
55.4929643366
21
-20.8429820490
31
0.0000000000
11
55.4694727904
21
-20.9130222203
31
0.0000000000
11
55.4396208338
21
-20.9805985889
31
0.0000000000
11
55.4036630545
21
-21.0451348405
31
0.0000000000
11
55.3619061126
21
-21.1060805879
31
0.0000000000
11
55.3147061257
21
-21.1629160649
31
0.0000000000
11
55.2624656314
21
-21.2151565593
31
0.0000000000
11
55.2056301543
21
-21.2623565462
31
0.0000000000
11
55.1446844069
21
-21.3041134881
31
0.0000000000
11
55.0801481553
21
-21.3400712674
31
0.0000000000
11
55.0125717867
21
-21.3699232240
31
0.0000000000
11
54.9425316154
21
-21.3934147701
31
0.0000000000
11
54.8706249680
21
-21.4103455619
31
0.0000000000
11
54.7974650888
21
-21.4205712078
31
0.0000000000
11
54.7236759103
21
-21.4240045000
31
0.0000000000
0
SPLINE
5
2CF
100
AcDbEntity
8
0
100
AcDbSpline
62
9
6
CONTINUOUS
70
0
71
3
72
26
73
22
74
20
42
0.0000001000
43
0.0000001000
44
0.0000000001
12
0.0007756189
22
-0.6526787902
32
0.0000000000
13
0.4614303813
23
-0.4615974524
33
0.0000000000
40
0.0000000000
40
0.0000000000
40
0.0000000000
40
0.0000000000
40
0.0791821006
40
0.1575395817
40
0.2346278852
40
0.3100215173
40
0.3833051918
40
0.4540751552
40
0.5219412428
40
0.5865294663
40
0.6474840061
40
0.7044690342
40
0.7571706730
40
0.8052987594
40
0.8485885197
40
0.8868021159
40
0.9197300259
40
0.9471925325
40
0.9690416547
40
0.9851638689
40
1.0000000000
40
1.0000000000
40
1.0000000000
40
1.0000000000
10
55.5115769782
20
-19.9717758662
30
0.0000000000
10
55.5115974499
20
-19.9890026921
30
0.0000000000
10
55.5116603804
20
-20.0232769180
30
0.0000000000
10
55.5118214704
20
-20.0743222624
30
0.0000000000
10
55.5120480309
20
-20.1245431334
30
0.0000000000
10
55.5123387846
20
-20.1736597995
30
0.0000000000
10
55.5126920939
20
-20.2214014042
30
0.0000000000
10
55.5131059694
20
-20.2675047689
30
0.0000000000
10
55.5135780638
20
-20.3117156963
30
0.0000000000
10
55.5141057133
20
-20.3537903883
30
0.0000000000
10
55.5146858321
20
-20.3934969097
30
0.0000000000
10
55.5153152976
20
-20.4306161811
30
0.0000000000
10
55.5159896648
20
-20.4649440385
30
0.0000000000
10
55.5167073945
20
-20.4962895343
30
0.0000000000
10
55.5174560385
20
-20.5244852755
30
0.0000000000
10
55.5182558371
20
-20.5493589521
30
0.0000000000
10
55.5190248141
20
-20.5708249556
30
0.0000000000
10
55.5199784382
20
-20.5886157317
30
0.0000000000
10
55.5204968914
20
-20.6030450080
30
0.0000000000
10
55.5222497096
20
-20.6139338234
30
0.0000000000
10
55.5212721193
20
-20.6218435705
30
0.0000000000
10
55.5235540665
20
-20.6241263439
30
0.0000000000
11
55.5115769782
21
-19.9717758662
31
0.0000000000
11
55.5116721366
21
-20.0234562928
31
0.0000000000
11
55.5118339894
21
-20.0745983387
31
0.0000000000
11
55.5120616351
21
-20.1249117599
31
0.0000000000
11
55.5123538179
21
-20.1741187518
31
0.0000000000
11
55.5127089279
21
-20.2219481674
31
0.0000000000
11
55.5131250087
21
-20.2681363800
31
0.0000000000
11
55.5135997660
21
-20.3124286229
31
0.0000000000
11
55.5141305826
21
-20.3545806741
31
0.0000000000
11
55.5147145329
21
-20.3943601516
31
0.0000000000
11
55.5153483975
21
-20.4315476953
31
0.0000000000
11
55.5160286818
21
-20.4659382337
31
0.0000000000
11
55.5167516351
21
-20.4973421166
31
0.0000000000
11
55.5175132715
21
-20.5255861776
31
0.0000000000
11
55.5183093926
21
-20.5505146897
31
0.0000000000
11
55.5191356089
21
-20.5719901658
31
0.0000000000
11
55.5199873627
21
-20.5898941251
31
0.0000000000
11
55.5208599588
21
-20.6041278718
31
0.0000000000
11
55.5217485882
21
-20.6146129172
31
0.0000000000
11
55.5235540665
21
-20.6241263439
31
0.0000000000
0
SPLINE
5
2D0
100
AcDbEntity
8
0
100
AcDbSpline
62
9
6
CONTINUOUS
70
0
71
3
72
27
73
23
74
21
42
0.0000001000
43
0.0000001000
44
0.0000000001
12
0.0007751433
22
-1.3980632926
32
0.0000000000
13
0.5910448100
23
-1.2669836635
33
0.0000000000
40
0.0000000000
40
0.0000000000
40
0.0000000000
40
0.0000000000
40
0.0792244722
40
0.1576099416
40
0.2347253936
40
0.3101450976
40
0.3834535139
40
0.4542466388
40
0.5221340491
40
0.5867414889
40
0.6477128687
40
0.7047120816
40
0.7574248945
40
0.8055607252
40
0.8488542831
40
0.8870670524
40
0.9199885509
40
0.9474375781
40
0.9692635556
40
0.9853476796
40
0.9956052146
40
1.0000000000
40
1.0000000000
40
1.0000000000
40
1.0000000000
10
54.7116988220
20
-20.0261106193
30
0.0000000000
10
54.7117192922
20
-20.0630308948
30
0.0000000000
10
54.7117822417
20
-20.1364804425
30
0.0000000000
10
54.7119433312
20
-20.2458673330
30
0.0000000000
10
54.7121699056
20
-20.3534810018
30
0.0000000000
10
54.7124606529
20
-20.4587284937
30
0.0000000000
10
54.7128139633
20
-20.5610294396
30
0.0000000000
10
54.7132278306
20
-20.6598199214
30
0.0000000000
10
54.7136999222
20
-20.7545552552
30
0.0000000000
10
54.7142275440
20
-20.8447130845
30
0.0000000000
10
54.7148077051
20
-20.9297963430
30
0.0000000000
10
54.7154369647
20
-21.0093359744
30
0.0000000000
10
54.7161119385
20
-21.0828932698
30
0.0000000000
10
54.7168276031
20
-21.1500630416
30
0.0000000000
10
54.7175827081
20
-21.2104736010
30
0.0000000000
10
54.7183623797
20
-21.2637960606
30
0.0000000000
10
54.7191912213
20
-21.3097237264
30
0.0000000000
10
54.7199743965
20
-21.3480404703
30
0.0000000000
10
54.7209438551
20
-21.3784340553
30
0.0000000000
10
54.7214767574
20
-21.4009934474
30
0.0000000000
10
54.7228466842
20
-21.4150530618
30
0.0000000000
10
54.7228100720
20
-21.4221484596
30
0.0000000000
10
54.7236759103
20
-21.4240045000
30
0.0000000000
11
54.7116988220
21
-20.0261106193
31
0.0000000000
11
54.7117940016
21
-20.1368714219
31
0.0000000000
11
54.7119558547
21
-20.2464591667
31
0.0000000000
11
54.7121835073
21
-20.3542712256
31
0.0000000000
11
54.7124756888
21
-20.4597123567
31
0.0000000000
11
54.7128307977
21
-20.5622015631
31
0.0000000000
11
54.7132468736
21
-20.6611739731
31
0.0000000000
11
54.7137216241
21
-20.7560836966
31
0.0000000000
11
54.7142524312
21
-20.8464074409
31
0.0000000000
11
54.7148363700
21
-20.9316473018
31
0.0000000000
11
54.7154702213
21
-21.0113333005
31
0.0000000000
11
54.7161504908
21
-21.0850260208
31
0.0000000000
11
54.7168734280
21
-21.1523190859
31
0.0000000000
11
54.7176350473
21
-21.2128414374
31
0.0000000000
11
54.7184311510
21
-21.2662593836
31
0.0000000000
11
54.7192573485
21
-21.3122783134
31
0.0000000000
11
54.7201090861
21
-21.3506443434
31
0.0000000000
11
54.7209816583
21
-21.3811459676
31
0.0000000000
11
54.7218702853
21
-21.4036150291
31
0.0000000000
11
54.7227699904
21
-21.4179274639
31
0.0000000000
11
54.7236759103
21
-21.4240045000
31
0.0000000000
0
SPLINE
5
2D1
100
AcDbEntity
8
0
100
AcDbSpline
62
9
6
CONTINUOUS
70
0
71
3
72
24
73
20
74
18
42
0.0000001000
43
0.0000001000
44
0.0000000001
12
-0.2000108301
22
-0.7802891315
32
0.0000000000
13
-0.8055150856
23
-0.0009527496
33
0.0000000000
40
0.0000000000
40
0.0000000000
40
0.0000000000
40
0.0000000000
40
0.0084036170
40
0.0236382959
40
0.0465188413
40
0.0770996628
40
0.1152229718
40
0.1606196764
40
0.2129396247
40
0.2717648222
40
0.3366174318
40
0.4069659980
40
0.4822311003
40
0.5617909013
40
0.6449867804
40
0.7311291218
40
0.8195032726
40
0.9093756541
40
1.0000000000
40
1.0000000000
40
1.0000000000
40
1.0000000000
10
55.5115769782
20
-19.9717758662
30
0.0000000000
10
55.5110167067
20
-19.9739616166
30
0.0000000000
10
55.5053429707
20
-19.9782377207
30
0.0000000000
10
55.4939651881
20
-19.9824888409
30
0.0000000000
10
55.4759246466
20
-19.9872074057
30
0.0000000000
10
55.4518120308
20
-19.9917057595
30
0.0000000000
10
55.4214699155
20
-19.9961678467
30
0.0000000000
10
55.3852519199
20
-20.0004321570
30
0.0000000000
10
55.3434105701
20
-20.0044886721
30
0.0000000000
10
55.2963062285
20
-20.0082844076
30
0.0000000000
10
55.2443255405
20
-20.0117878247
30
0.0000000000
10
55.1879027858
20
-20.0149658612
30
0.0000000000
10
55.1275077331
20
-20.0177907138
30
0.0000000000
10
55.0636440914
20
-20.0202375422
30
0.0000000000
10
54.9968444481
20
-20.0222851651
30
0.0000000000
10
54.9276660115
20
-20.0239159280
30
0.0000000000
10
54.8566858531
20
-20.0251158426
30
0.0000000000
10
54.7844961527
20
-20.0258746454
30
0.0000000000
10
54.7360319146
20
-20.0260818372
30
0.0000000000
10
54.7116988220
20
-20.0261106179
30
0.0000000000
11
55.5115769782
21
-19.9717758662
31
0.0000000000
11
55.5069689557
21
-19.9767345765
31
0.0000000000
11
55.4957254600
21
-19.9816519129
31
0.0000000000
11
55.4779403030
21
-19.9864868468
31
0.0000000000
11
55.4537618782
21
-19.9911990371
31
0.0000000000
11
55.4233919226
21
-19.9957491668
31
0.0000000000
11
55.3870838330
21
-20.0000992712
31
0.0000000000
11
55.3451405523
21
-20.0042130543
31
0.0000000000
11
55.2979120414
21
-20.0080561921
31
0.0000000000
11
55.2457923596
21
-20.0115966188
31
0.0000000000
11
55.1892163764
21
-20.0148047942
31
0.0000000000
11
55.1286561432
21
-20.0176539503
31
0.0000000000
11
55.0646169549
21
-20.0201203146
31
0.0000000000
11
54.9976331333
21
-20.0221833088
31
0.0000000000
11
54.9282635695
21
-20.0238257197
31
0.0000000000
11
54.8570870605
21
-20.0250338438
31
0.0000000000
11
54.7846974797
21
-20.0257976007
31
0.0000000000
11
54.7116988220
21
-20.0261106179
31
0.0000000000
0
SPLINE
5
2D2
100
AcDbEntity
8
0
100
AcDbSpline
62
9
6
CONTINUOUS
70
0
71
3
72
13
73
9
74
7
42
0.0000001000
43
0.0000001000
44
0.0000000001
12
0.0004077892
22
-19.9712023872
32
0.0000000000
13
0.0237310537
23
-19.9711882920
33
0.0000000000
40
0.0000000000
40
0.0000000000
40
0.0000000000
40
0.0000000000
40
0.1667921465
40
0.3335620197
40
0.5002883980
40
0.6669506240
40
0.8335280437
40
1.0000000000
40
1.0000000000
40
1.0000000000
40
1.0000000000
10
55.4995210267
20
-0.0005782166
30
0.0000000000
10
55.4995436987
20
-1.1109247883
30
0.0000000000
10
55.4998047921
20
-3.3314696580
30
0.0000000000
10
55.5008436802
20
-6.6619231331
30
0.0000000000
10
55.5025296793
20
-9.9915114542
30
0.0000000000
10
55.5048625794
20
-13.3198182090
30
0.0000000000
10
55.5078420913
20
-16.6464307414
30
0.0000000000
10
55.5102601265
20
-18.8635616046
30
0.0000000000
10
55.5115769782
20
-19.9717758662
30
0.0000000000
11
55.4995210267
21
-0.0005782166
31
0.0000000000
11
55.4999127175
21
-3.3316179092
31
0.0000000000
11
55.5009517140
21
-6.6622126373
31
0.0000000000
11
55.5026378873
21
-9.9919384559
31
0.0000000000
11
55.5049710285
21
-13.3203826829
31
0.0000000000
11
55.5079508487
21
-16.6471327116
31
0.0000000000
11
55.5115769782
21
-19.9717758662
31
0.0000000000
0
SPLINE
5
2D3
100
AcDbEntity
8
0
100
AcDbSpline
62
9
6
CONTINUOUS
70
0
71
3
72
13
73
9
74
7
42
0.0000001000
43
0.0000001000
44
0.0000000001
12
0.0004069874
22
-20.0253036381
32
0.0000000000
13
0.0237318861
23
-20.0252895799
33
0.0000000000
40
0.0000000000
40
0.0000000000
40
0.0000000000
40
0.0000000000
40
0.1667926145
40
0.3335623954
40
0.5002886797
40
0.6669508084
40
0.8335281281
40
1.0000000000
40
1.0000000000
40
1.0000000000
40
1.0000000000
10
54.6996428563
20
-0.0008117062
30
0.0000000000
10
54.6996654838
20
-1.1141692895
30
0.0000000000
10
54.6999265040
20
-3.3407320412
30
0.0000000000
10
54.7009653287
20
-6.6802094731
30
0.0000000000
10
54.7026513078
20
-10.0188156361
30
0.0000000000
10
54.7049842325
20
-13.3561367113
30
0.0000000000
10
54.7079638137
20
-16.6917590410
30
0.0000000000
10
54.7103819249
20
-18.9148948054
30
0.0000000000
10
54.7116988220
20
-20.0261106193
30
0.0000000000
11
54.6996428563
21
-0.0008117062
31
0.0000000000
11
54.7000344380
21
-3.3408844339
31
0.0000000000
11
54.7010733699
21
-6.6804997732
31
0.0000000000
11
54.7027595233
21
-10.0192438164
31
0.0000000000
11
54.7050926891
21
-13.3567027338
31
0.0000000000
11
54.7080725785
21
-16.6924628090
31
0.0000000000
11
54.7116988220
21
-20.0261106193
31
0.0000000000
0
SPLINE
5
2D4
100
AcDbEntity
8
0
100
AcDbSpline
62
9
6
CONTINUOUS
70
0
71
3
72
13
73
9
74
7
42
0.0000001000
43
0.0000001000
44
0.0000000001
12
-0.0237318860
22
-20.0252895799
32
0.0000000000
13
-0.0004069874
23
-20.0253036381
33
0.0000000000
40
0.0000000000
40
0.0000000000
40
0.0000000000
40
0.0000000000
40
0.1664718719
40
0.3330491916
40
0.4997113203
40
0.6664376046
40
0.8332073855
40
1.0000000000
40
1.0000000000
40
1.0000000000
40
1.0000000000
10
54.7116988220
20
20.7249541860
30
0.0000000000
10
54.7103819249
20
19.6137383722
30
0.0000000000
10
54.7079638136
20
17.3906026077
30
0.0000000000
10
54.7049842325
20
14.0549802779
30
0.0000000000
10
54.7026513078
20
10.7176592028
30
0.0000000000
10
54.7009653287
20
7.3790530398
30
0.0000000000
10
54.6999265040
20
4.0395756079
30
0.0000000000
10
54.6996654838
20
1.8130128563
30
0.0000000000
10
54.6996428563
20
0.6996552729
30
0.0000000000
11
54.7116988220
21
20.7249541860
31
0.0000000000
11
54.7080725785
21
17.3913063757
31
0.0000000000
11
54.7050926891
21
14.0555463005
31
0.0000000000
11
54.7027595233
21
10.7180873830
31
0.0000000000
11
54.7010733699
21
7.3793433399
31
0.0000000000
11
54.7000344380
21
4.0397280006
31
0.0000000000
11
54.6996428563
21
0.6996552729
31
0.0000000000
0
SPLINE
5
2D5
100
AcDbEntity
8
0
100
AcDbSpline
62
9
6
CONTINUOUS
70
0
71
3
72
24
73
20
74
18
42
0.0000001000
43
0.0000001000
44
0.0000000001
12
-0.2000106173
22
0.7802891868
32
0.0000000000
13
-0.8055150864
23
0.0009527498
33
0.0000000000
40
0.0000000000
40
0.0000000000
40
0.0000000000
40
0.0000000000
40
0.0084036160
40
0.0236382935
40
0.0465188378
40
0.0770996584
40
0.1152229665
40
0.1606196706
40
0.2129396186
40
0.2717648161
40
0.3366174257
40
0.4069659923
40
0.4822310951
40
0.5617908967
40
0.6449867765
40
0.7311291188
40
0.8195032705
40
0.9093756531
40
1.0000000000
40
1.0000000000
40
1.0000000000
40
1.0000000000
10
55.5115769782
20
20.6706194330
30
0.0000000000
10
55.5110167074
20
20.6728051832
30
0.0000000000
10
55.5053429721
20
20.6770812878
30
0.0000000000
10
55.4939651906
20
20.6813324078
30
0.0000000000
10
55.4759246500
20
20.6860509728
30
0.0000000000
10
55.4518120350
20
20.6905493266
30
0.0000000000
10
55.4214699203
20
20.6950114139
30
0.0000000000
10
55.3852519250
20
20.6992757243
30
0.0000000000
10
55.3434105755
20
20.7033322395
30
0.0000000000
10
55.2963062340
20
20.7071279751
30
0.0000000000
10
55.2443255458
20
20.7106313923
30
0.0000000000
10
55.1879027909
20
20.7138094289
30
0.0000000000
10
55.1275077377
20
20.7166342816
30
0.0000000000
10
55.0636440955
20
20.7190811100
30
0.0000000000
10
54.9968444515
20
20.7211287330
30
0.0000000000
10
54.9276660141
20
20.7227594960
30
0.0000000000
10
54.8566858548
20
20.7239594107
30
0.0000000000
10
54.7844961536
20
20.7247182135
30
0.0000000000
10
54.7360319149
20
20.7249254053
30
0.0000000000
10
54.7116988220
20
20.7249541860
30
0.0000000000
11
55.5115769782
21
20.6706194330
31
0.0000000000
11
55.5069689571
21
20.6755781433
31
0.0000000000
11
55.4957254625
21
20.6804954798
31
0.0000000000
11
55.4779403065
21
20.6853304138
31
0.0000000000
11
55.4537618825
21
20.6900426042
31
0.0000000000
11
55.4233919275
21
20.6945927340
31
0.0000000000
11
55.3870838383
21
20.6989428384
31
0.0000000000
11
55.3451405578
21
20.7030566217
31
0.0000000000
11
55.2979120469
21
20.7068997596
31
0.0000000000
11
55.2457923650
21
20.7104401864
31
0.0000000000
11
55.1892163815
21
20.7136483619
31
0.0000000000
11
55.1286561479
21
20.7164975180
31
0.0000000000
11
55.0646169589
21
20.7189638825
31
0.0000000000
11
54.9976331367
21
20.7210268767
31
0.0000000000
11
54.9282635722
21
20.7226692877
31
0.0000000000
11
54.8570870623
21
20.7238774118
31
0.0000000000
11
54.7846974806
21
20.7246411688
31
0.0000000000
11
54.7116988220
21
20.7249541860
31
0.0000000000
0
SPLINE
5
2D6
100
AcDbEntity
8
0
100
AcDbSpline
62
9
6
CONTINUOUS
70
0
71
3
72
13
73
9
74
7
42
0.0000001000
43
0.0000001000
44
0.0000000001
12
-0.0237310536
22
-19.9711882920
32
0.0000000000
13
-0.0004077892
23
-19.9712023872
33
0.0000000000
40
0.0000000000
40
0.0000000000
40
0.0000000000
40
0.0000000000
40
0.1664719475
40
0.3330493689
40
0.4997115966
40
0.6664379767
40
0.8332078517
40
1.0000000000
40
1.0000000000
40
1.0000000000
40
1.0000000000
10
55.5115769782
20
20.6706194330
30
0.0000000000
10
55.5102601266
20
19.5624052299
30
0.0000000000
10
55.5078420914
20
17.3452744141
30
0.0000000000
10
55.5048625795
20
14.0186619173
30
0.0000000000
10
55.5025296794
20
10.6903551276
30
0.0000000000
10
55.5008436802
20
7.3607667710
30
0.0000000000
10
55.4998047921
20
4.0303132604
30
0.0000000000
10
55.4995436987
20
1.8097683669
30
0.0000000000
10
55.4995210267
20
0.6994217834
30
0.0000000000
11
55.5115769782
21
20.6706194330
31
0.0000000000
11
55.5079508489
21
17.3459764540
31
0.0000000000
11
55.5049710287
21
14.0192263918
31
0.0000000000
11
55.5026378874
21
10.6907821293
31
0.0000000000
11
55.5009517140
21
7.3610562752
31
0.0000000000
11
55.4999127175
21
4.0304615116
31
0.0000000000
11
55.4995210267
21
0.6994217834
31
0.0000000000
0
SPLINE
5
2D7
100
AcDbEntity
8
0
100
AcDbSpline
62
9
6
CONTINUOUS
70
0
71
3
72
26
73
22
74
20
42
0.0000001000
43
0.0000001000
44
0.0000000001
12
-0.4614403414
22
-0.4615874933
32
0.0000000000
13
-0.0007756275
23
-0.6526787885
33
0.0000000000
40
0.0000000000
40
0.0000000000
40
0.0000000000
40
0.0000000000
40
0.0148369160
40
0.0309595072
40
0.0528090093
40
0.0802719038
40
0.1132002061
40
0.1514141988
40
0.1947043552
40
0.2428328230
40
0.2955347917
40
0.3525200845
40
0.4134748141
40
0.4780631804
40
0.5459293780
40
0.6166994225
40
0.6899831498
40
0.7653767996
40
0.8424650976
40
0.9208225443
40
1.0000000000
40
1.0000000000
40
1.0000000000
40
1.0000000000
10
55.5235540665
20
21.3229699106
30
0.0000000000
10
55.5212719493
20
21.3206870657
30
0.0000000000
10
55.5222497145
20
21.3127769304
30
0.0000000000
10
55.5204968247
20
21.3018878271
30
0.0000000000
10
55.5199783904
20
21.2874582861
30
0.0000000000
10
55.5190247595
20
21.2696672628
30
0.0000000000
10
55.5182557852
20
21.2482010013
30
0.0000000000
10
55.5174559868
20
21.2233270675
30
0.0000000000
10
55.5167073443
20
21.1951310706
30
0.0000000000
10
55.5159896166
20
21.1637853340
30
0.0000000000
10
55.5153152523
20
21.1294572642
30
0.0000000000
10
55.5146857904
20
21.0923378222
30
0.0000000000
10
55.5141056756
20
21.0526311708
30
0.0000000000
10
55.5135780305
20
21.0105563826
30
0.0000000000
10
55.5131059405
20
20.9663453826
30
0.0000000000
10
55.5126920694
20
20.9202419648
30
0.0000000000
10
55.5123387645
20
20.8725003273
30
0.0000000000
10
55.5120480150
20
20.8233836471
30
0.0000000000
10
55.5118214590
20
20.7731627811
30
0.0000000000
10
55.5116603758
20
20.7221184560
30
0.0000000000
10
55.5115974489
20
20.6878452483
30
0.0000000000
10
55.5115769782
20
20.6706194330
30
0.0000000000
11
55.5235540665
21
21.3229699106
31
0.0000000000
11
55.5217485344
21
21.3134559728
31
0.0000000000
11
55.5208599047
21
21.3029706804
31
0.0000000000
11
55.5199873086
21
21.2887366854
31
0.0000000000
11
55.5191355551
21
21.2708324727
31
0.0000000000
11
55.5183093396
21
21.2493567403
31
0.0000000000
11
55.5175132194
21
21.2244279694
31
0.0000000000
11
55.5167515844
21
21.1961836498
31
0.0000000000
11
55.5160286332
21
21.1647795180
31
0.0000000000
11
55.5153483517
21
21.1303887643
31
0.0000000000
11
55.5147144906
21
21.0932010478
31
0.0000000000
11
55.5141305446
21
21.0534214464
31
0.0000000000
11
55.5135997324
21
21.0112693020
31
0.0000000000
11
55.5131249796
21
20.9669769874
31
0.0000000000
11
55.5127089033
21
20.9207887219
31
0.0000000000
11
55.5123537976
21
20.8729592720
31
0.0000000000
11
55.5120616191
21
20.8237522686
31
0.0000000000
11
55.5118339778
21
20.7734388511
31
0.0000000000
11
55.5116721290
21
20.7222968277
31
0.0000000000
11
55.5115769782
21
20.6706194330
31
0.0000000000
0
SPLINE
5
2D8
100
AcDbEntity
8
0
100
AcDbSpline
62
9
6
CONTINUOUS
70
0
71
3
72
27
73
23
74
21
42
0.0000001000
43
0.0000001000
44
0.0000000001
12
-0.5910241270
22
-1.2669933128
32
0.0000000000
13
-0.0007752283
23
-1.3980632934
33
0.0000000000
40
0.0000000000
40
0.0000000000
40
0.0000000000
40
0.0000000000
40
0.0043947882
40
0.0146523245
40
0.0307364498
40
0.0525624293
40
0.0800114568
40
0.1129329560
40
0.1511457272
40
0.1944392866
40
0.2425751179
40
0.2952879313
40
0.3522871454
40
0.4132585265
40
0.4778659665
40
0.5457533758
40
0.6165465022
40
0.6898549217
40
0.7652746239
40
0.8423900774
40
0.9207755496
40
1.0000000000
40
1.0000000000
40
1.0000000000
40
1.0000000000
10
54.7236759103
20
22.1228480668
30
0.0000000000
10
54.7228101017
20
22.1209920110
30
0.0000000000
10
54.7228466378
20
22.1138966428
30
0.0000000000
10
54.7214767780
20
22.0998369996
30
0.0000000000
10
54.7209438377
20
22.0772776192
30
0.0000000000
10
54.7199743959
20
22.0468840266
30
0.0000000000
10
54.7191912137
20
22.0085672835
30
0.0000000000
10
54.7183623745
20
21.9626396155
30
0.0000000000
10
54.7175827019
20
21.9093171542
30
0.0000000000
10
54.7168275972
20
21.8489065929
30
0.0000000000
10
54.7161119326
20
21.7817368199
30
0.0000000000
10
54.7154369591
20
21.7081795233
30
0.0000000000
10
54.7148077001
20
21.6286398905
30
0.0000000000
10
54.7142275396
20
21.5435566307
30
0.0000000000
10
54.7136999184
20
21.4533988011
30
0.0000000000
10
54.7132278276
20
21.3586634669
30
0.0000000000
10
54.7128139607
20
21.2598729833
30
0.0000000000
10
54.7124606513
20
21.1575720361
30
0.0000000000
10
54.7121699036
20
21.0523245427
30
0.0000000000
10
54.7119433315
20
20.9447108726
30
0.0000000000
10
54.7117822390
20
20.8353239903
30
0.0000000000
10
54.7117192944
20
20.7618744514
30
0.0000000000
10
54.7116988220
20
20.7249541860
30
0.0000000000
11
54.7236759103
21
22.1228480668
31
0.0000000000
11
54.7227699841
21
22.1167710276
31
0.0000000000
11
54.7218702813
21
22.1024585909
31
0.0000000000
11
54.7209816525
21
22.0799895275
31
0.0000000000
11
54.7201090807
21
22.0494879005
31
0.0000000000
11
54.7192573427
21
22.0111218701
31
0.0000000000
11
54.7184311452
21
21.9651029393
31
0.0000000000
11
54.7176350414
21
21.9116849904
31
0.0000000000
11
54.7168734220
21
21.8511626368
31
0.0000000000
11
54.7161504849
21
21.7838695708
31
0.0000000000
11
54.7154702157
21
21.7101768497
31
0.0000000000
11
54.7148363649
21
21.6304908494
31
0.0000000000
11
54.7142524268
21
21.5452509865
31
0.0000000000
11
54.7137216203
21
21.4549272420
31
0.0000000000
11
54.7132468705
21
21.3600175197
31
0.0000000000
11
54.7128307952
21
21.2610451076
31
0.0000000000
11
54.7124756869
21
21.1585558967
31
0.0000000000
11
54.7121835057
21
21.0531147680
31
0.0000000000
11
54.7119558542
21
20.9453027070
31
0.0000000000
11
54.7117940006
21
20.8357149582
31
0.0000000000
11
54.7116988220
21
20.7249541860
31
0.0000000000
0
SPLINE
5
2D9
100
AcDbEntity
8
0
100
AcDbSpline
62
9
6
CONTINUOUS
70
0
71
3
72
24
73
20
74
18
42
0.0000001000
43
0.0000001000
44
0.0000000001
12
-0.0003825233
22
1.2558773180
32
0.0000000000
13
-1.2558773180
23
0.0003825233
33
0.0000000000
40
0.0000000000
40
0.0000000000
40
0.0000000000
40
0.0000000000
40
0.0588186462
40
0.1176389169
40
0.1764607286
40
0.2352839452
40
0.2941083831
40
0.3529338167
40
0.4117599868
40
0.4705866092
40
0.5294133841
40
0.5882400067
40
0.6470661773
40
0.7058916114
40
0.7647160500
40
0.8235392676
40
0.8823610804
40
0.9411813524
40
1.0000000000
40
1.0000000000
40
1.0000000000
40
1.0000000000
10
55.5235540665
20
21.3229699106
30
0.0000000000
10
55.5235465666
20
21.3475929118
30
0.0000000000
10
55.5212543480
20
21.3968692001
30
0.0000000000
10
55.5110140639
20
21.4701280020
30
0.0000000000
10
55.4940591082
20
21.5421382778
30
0.0000000000
10
55.4705340883
20
21.6122776407
30
0.0000000000
10
55.4406396385
20
21.6799501409
30
0.0000000000
10
55.4046307121
20
21.7445780601
30
0.0000000000
10
55.3628144058
20
21.8056103980
30
0.0000000000
10
55.3155473414
20
21.8625266170
30
0.0000000000
10
55.2632326229
20
21.9148413361
30
0.0000000000
10
55.2063164042
20
21.9621084013
30
0.0000000000
10
55.1452840662
20
22.0039247084
30
0.0000000000
10
55.0806561467
20
22.0399336357
30
0.0000000000
10
55.0129836459
20
22.0698280865
30
0.0000000000
10
54.9428442821
20
22.0933531072
30
0.0000000000
10
54.8708340050
20
22.1103080637
30
0.0000000000
10
54.7975752015
20
22.1205483482
30
0.0000000000
10
54.7482989121
20
22.1228405669
30
0.0000000000
10
54.7236759103
20
22.1228480668
30
0.0000000000
11
55.5235540665
21
21.3229699106
31
0.0000000000
11
55.5201207744
21
21.3967590881
31
0.0000000000
11
55.5098951287
21
21.4699189664
31
0.0000000000
11
55.4929643373
21
21.5418256131
31
0.0000000000
11
55.4694727916
21
21.6118657839
31
0.0000000000
11
55.4396208355
21
21.6794421522
31
0.0000000000
11
55.4036630566
21
21.7439784038
31
0.0000000000
11
55.3619061152
21
21.8049241512
31
0.0000000000
11
55.3147061286
21
21.8617596285
31
0.0000000000
11
55.2624656344
21
21.9140001232
31
0.0000000000
11
55.2056301574
21
21.9612001106
31
0.0000000000
11
55.1446844100
21
22.0029570529
31
0.0000000000
11
55.0801481581
21
22.0389148327
31
0.0000000000
11
55.0125717892
21
22.0687667897
31
0.0000000000
11
54.9425316174
21
22.0922583363
31
0.0000000000
11
54.8706249694
21
22.1091891284
31
0.0000000000
11
54.7974650895
21
22.1194147745
31
0.0000000000
11
54.7236759103
21
22.1228480668
31
0.0000000000
0
SPLINE
5
2DA
100
AcDbEntity
8
0
100
AcDbSpline
62
9
6
CONTINUOUS
70
0
71
3
72
24
73
20
74
18
42
0.0000001000
43
0.0000001000
44
0.0000000001
12
0.0003825233
22
1.2558773180
32
0.0000000000
13
1.2558773180
23
0.0003825233
33
0.0000000000
40
0.0000000000
40
0.0000000000
40
0.0000000000
40
0.0000000000
40
0.0588186470
40
0.1176389184
40
0.1764607307
40
0.2352839479
40
0.2941083860
40
0.3529338199
40
0.4117599902
40
0.4705866126
40
0.5294133874
40
0.5882400098
40
0.6470661801
40
0.7058916140
40
0.7647160521
40
0.8235392693
40
0.8823610816
40
0.9411813530
40
1.0000000000
40
1.0000000000
40
1.0000000000
40
1.0000000000
10
11.3767014997
20
21.3229699106
30
0.0000000000
10
11.3767089995
20
21.3475929122
30
0.0000000000
10
11.3790012182
20
21.3968692011
30
0.0000000000
10
11.3892415025
20
21.4701280039
30
0.0000000000
10
11.4061964587
20
21.5421382804
30
0.0000000000
10
11.4297214790
20
21.6122776438
30
0.0000000000
10
11.4596159293
20
21.6799501442
30
0.0000000000
10
11.4956248562
20
21.7445780635
30
0.0000000000
10
11.5374411628
20
21.8056104014
30
0.0000000000
10
11.5847082276
20
21.8625266202
30
0.0000000000
10
11.6370229463
20
21.9148413389
30
0.0000000000
10
11.6939391651
20
21.9621084036
30
0.0000000000
10
11.7549715029
20
22.0039247103
30
0.0000000000
10
11.8195994222
20
22.0399336371
30
0.0000000000
10
11.8872719227
20
22.0698280874
30
0.0000000000
10
11.9574112860
20
22.0933531078
30
0.0000000000
10
12.0294215625
20
22.1103080639
30
0.0000000000
10
12.1026803653
20
22.1205483482
30
0.0000000000
10
12.1519566542
20
22.1228405669
30
0.0000000000
10
12.1765796558
20
22.1228480668
30
0.0000000000
11
11.3767014997
21
21.3229699106
31
0.0000000000
11
11.3801347919
21
21.3967590891
31
0.0000000000
11
11.3903604378
21
21.4699189683
31
0.0000000000
11
11.4072912296
21
21.5418256157
31
0.0000000000
11
11.4307827757
21
21.6118657870
31
0.0000000000
11
11.4606347323
21
21.6794421556
31
0.0000000000
11
11.4965925117
21
21.7439784072
31
0.0000000000
11
11.5383494535
21
21.8049241546
31
0.0000000000
11
11.5855494404
21
21.8617596317
31
0.0000000000
11
11.6377899348
21
21.9140001260
31
0.0000000000
11
11.6946254118
21
21.9612001129
31
0.0000000000
11
11.7555711592
21
22.0029570548
31
0.0000000000
11
11.8201074108
21
22.0389148341
31
0.0000000000
11
11.8876837794
21
22.0687667907
31
0.0000000000
11
11.9577239507
21
22.0922583369
31
0.0000000000
11
12.0296305981
21
22.1091891287
31
0.0000000000
11
12.1027904773
21
22.1194147746
31
0.0000000000
11
12.1765796558
21
22.1228480668
31
0.0000000000
0
SPLINE
5
2DB
100
AcDbEntity
8
0
100
AcDbSpline
62
9
6
CONTINUOUS
70
0
71
3
72
26
73
22
74
20
42
0.0000001000
43
0.0000001000
44
0.0000000001
12
-0.0007756275
22
0.6526787885
32
0.0000000000
13
-0.4614403419
23
0.4615874928
33
0.0000000000
40
0.0000000000
40
0.0000000000
40
0.0000000000
40
0.0000000000
40
0.0791774557
40
0.1575349024
40
0.2346232004
40
0.3100168502
40
0.3833005775
40
0.4540706220
40
0.5219368196
40
0.5865251859
40
0.6474799155
40
0.7044652083
40
0.7571671770
40
0.8052956448
40
0.8485858012
40
0.8867997939
40
0.9197280962
40
0.9471909907
40
0.9690404928
40
0.9851630840
40
1.0000000000
40
1.0000000000
40
1.0000000000
40
1.0000000000
10
11.3886785880
20
20.6706194330
30
0.0000000000
10
11.3886581172
20
20.6878452483
30
0.0000000000
10
11.3885951903
20
20.7221184560
30
0.0000000000
10
11.3884341072
20
20.7731627811
30
0.0000000000
10
11.3882075511
20
20.8233836471
30
0.0000000000
10
11.3879168017
20
20.8725003273
30
0.0000000000
10
11.3875634967
20
20.9202419648
30
0.0000000000
10
11.3871496256
20
20.9663453826
30
0.0000000000
10
11.3866775356
20
21.0105563826
30
0.0000000000
10
11.3861498905
20
21.0526311708
30
0.0000000000
10
11.3855697758
20
21.0923378222
30
0.0000000000
10
11.3849403139
20
21.1294572642
30
0.0000000000
10
11.3842659495
20
21.1637853340
30
0.0000000000
10
11.3835482218
20
21.1951310706
30
0.0000000000
10
11.3827995793
20
21.2233270675
30
0.0000000000
10
11.3819997809
20
21.2482010013
30
0.0000000000
10
11.3812308067
20
21.2696672628
30
0.0000000000
10
11.3802771757
20
21.2874582861
30
0.0000000000
10
11.3797587414
20
21.3018878271
30
0.0000000000
10
11.3780058516
20
21.3127769304
30
0.0000000000
10
11.3789836169
20
21.3206870657
30
0.0000000000
10
11.3767014997
20
21.3229699106
30
0.0000000000
11
11.3886785880
21
20.6706194330
31
0.0000000000
11
11.3885834371
21
20.7222968277
31
0.0000000000
11
11.3884215883
21
20.7734388511
31
0.0000000000
11
11.3881939470
21
20.8237522686
31
0.0000000000
11
11.3879017685
21
20.8729592720
31
0.0000000000
11
11.3875466629
21
20.9207887219
31
0.0000000000
11
11.3871305865
21
20.9669769874
31
0.0000000000
11
11.3866558337
21
21.0112693020
31
0.0000000000
11
11.3861250215
21
21.0534214464
31
0.0000000000
11
11.3855410755
21
21.0932010478
31
0.0000000000
11
11.3849072145
21
21.1303887643
31
0.0000000000
11
11.3842269330
21
21.1647795180
31
0.0000000000
11
11.3835039817
21
21.1961836498
31
0.0000000000
11
11.3827423467
21
21.2244279694
31
0.0000000000
11
11.3819462266
21
21.2493567403
31
0.0000000000
11
11.3811200110
21
21.2708324727
31
0.0000000000
11
11.3802682575
21
21.2887366854
31
0.0000000000
11
11.3793956615
21
21.3029706804
31
0.0000000000
11
11.3785070318
21
21.3134559728
31
0.0000000000
11
11.3767014997
21
21.3229699106
31
0.0000000000
0
SPLINE
5
2DC
100
AcDbEntity
8
0
100
AcDbSpline
62
9
6
CONTINUOUS
70
0
71
3
72
27
73
23
74
21
42
0.0000001000
43
0.0000001000
44
0.0000000001
12
-0.0007752283
22
1.3980632934
32
0.0000000000
13
-0.5910241265
23
1.2669933130
33
0.0000000000
40
0.0000000000
40
0.0000000000
40
0.0000000000
40
0.0000000000
40
0.0792244504
40
0.1576099226
40
0.2347253761
40
0.3101450783
40
0.3834534978
40
0.4542466242
40
0.5221340335
40
0.5867414735
40
0.6477128546
40
0.7047120687
40
0.7574248821
40
0.8055607134
40
0.8488542728
40
0.8870670440
40
0.9199885432
40
0.9474375707
40
0.9692635502
40
0.9853476755
40
0.9956052118
40
1.0000000000
40
1.0000000000
40
1.0000000000
40
1.0000000000
10
12.1885567441
20
20.7249541860
30
0.0000000000
10
12.1885362718
20
20.7618744514
30
0.0000000000
10
12.1884733271
20
20.8353239903
30
0.0000000000
10
12.1883122346
20
20.9447108726
30
0.0000000000
10
12.1880856626
20
21.0523245427
30
0.0000000000
10
12.1877949148
20
21.1575720361
30
0.0000000000
10
12.1874416055
20
21.2598729833
30
0.0000000000
10
12.1870277386
20
21.3586634669
30
0.0000000000
10
12.1865556477
20
21.4533988011
30
0.0000000000
10
12.1860280265
20
21.5435566307
30
0.0000000000
10
12.1854478661
20
21.6286398905
30
0.0000000000
10
12.1848186070
20
21.7081795233
30
0.0000000000
10
12.1841436335
20
21.7817368199
30
0.0000000000
10
12.1834279689
20
21.8489065929
30
0.0000000000
10
12.1826728642
20
21.9093171542
30
0.0000000000
10
12.1818931916
20
21.9626396155
30
0.0000000000
10
12.1810643524
20
22.0085672835
30
0.0000000000
10
12.1802811703
20
22.0468840266
30
0.0000000000
10
12.1793117284
20
22.0772776192
30
0.0000000000
10
12.1787787881
20
22.0998369996
30
0.0000000000
10
12.1774089284
20
22.1138966428
30
0.0000000000
10
12.1774454644
20
22.1209920110
30
0.0000000000
10
12.1765796558
20
22.1228480668
30
0.0000000000
11
12.1885567441
21
20.7249541860
31
0.0000000000
11
12.1884615655
21
20.8357149582
31
0.0000000000
11
12.1882997120
21
20.9453027070
31
0.0000000000
11
12.1880720605
21
21.0531147680
31
0.0000000000
11
12.1877798792
21
21.1585558967
31
0.0000000000
11
12.1874247710
21
21.2610451076
31
0.0000000000
11
12.1870086956
21
21.3600175197
31
0.0000000000
11
12.1865339458
21
21.4549272420
31
0.0000000000
11
12.1860031393
21
21.5452509865
31
0.0000000000
11
12.1854192013
21
21.6304908494
31
0.0000000000
11
12.1847853504
21
21.7101768497
31
0.0000000000
11
12.1841050812
21
21.7838695708
31
0.0000000000
11
12.1833821441
21
21.8511626368
31
0.0000000000
11
12.1826205248
21
21.9116849904
31
0.0000000000
11
12.1818244210
21
21.9651029393
31
0.0000000000
11
12.1809982234
21
22.0111218701
31
0.0000000000
11
12.1801464854
21
22.0494879005
31
0.0000000000
11
12.1792739136
21
22.0799895275
31
0.0000000000
11
12.1783852848
21
22.1024585909
31
0.0000000000
11
12.1774855820
21
22.1167710276
31
0.0000000000
11
12.1765796558
21
22.1228480668
31
0.0000000000
0
SPLINE
5
2DD
100
AcDbEntity
8
0
100
AcDbSpline
62
9
6
CONTINUOUS
70
0
71
3
72
24
73
20
74
18
42
0.0000001000
43
0.0000001000
44
0.0000000001
12
0.2000109563
22
0.7802890986
32
0.0000000000
13
0.8055150851
23
0.0009527495
33
0.0000000000
40
0.0000000000
40
0.0000000000
40
0.0000000000
40
0.0000000000
40
0.0084036176
40
0.0236382973
40
0.0465188434
40
0.0770996654
40
0.1152229748
40
0.1606196797
40
0.2129396282
40
0.2717648258
40
0.3366174353
40
0.4069660013
40
0.4822311034
40
0.5617909040
40
0.6449867826
40
0.7311291236
40
0.8195032738
40
0.9093756547
40
1.0000000000
40
1.0000000000
40
1.0000000000
40
1.0000000000
10
11.3886785880
20
20.6706194330
30
0.0000000000
10
11.3892388598
20
20.6728051834
30
0.0000000000
10
11.3949125964
20
20.6770812872
30
0.0000000000
10
11.4062903795
20
20.6813324075
30
0.0000000000
10
11.4243309215
20
20.6860509722
30
0.0000000000
10
11.4484435378
20
20.6905493259
30
0.0000000000
10
11.4787856535
20
20.6950114131
30
0.0000000000
10
11.5150036493
20
20.6992757233
30
0.0000000000
10
11.5568449992
20
20.7033322382
30
0.0000000000
10
11.6039493408
20
20.7071279736
30
0.0000000000
10
11.6559300288
20
20.7106313907
30
0.0000000000
10
11.7123527833
20
20.7138094272
30
0.0000000000
10
11.7727478358
20
20.7166342797
30
0.0000000000
10
11.8366114771
20
20.7190811080
30
0.0000000000
10
11.9034111200
20
20.7211287308
30
0.0000000000
10
11.9725895561
20
20.7227594937
30
0.0000000000
10
12.0435697141
20
20.7239594083
30
0.0000000000
10
12.1157594139
20
20.7247182111
30
0.0000000000
10
12.1642236517
20
20.7249254029
30
0.0000000000
10
12.1885567441
20
20.7249541836
30
0.0000000000
11
11.3886785880
21
20.6706194330
31
0.0000000000
11
11.3932866112
21
20.6755781432
31
0.0000000000
11
11.4045301076
21
20.6804954795
31
0.0000000000
11
11.4223152652
21
20.6853304133
31
0.0000000000
11
11.4464936904
21
20.6900426035
31
0.0000000000
11
11.4768636464
21
20.6945927332
31
0.0000000000
11
11.5131717362
21
20.6989428374
31
0.0000000000
11
11.5551150170
21
20.7030566204
31
0.0000000000
11
11.6023435279
21
20.7068997582
31
0.0000000000
11
11.6544632097
21
20.7104401848
31
0.0000000000
11
11.7110391927
21
20.7136483601
31
0.0000000000
11
11.7715994256
21
20.7164975162
31
0.0000000000
11
11.8356386137
21
20.7189638805
31
0.0000000000
11
11.9026224349
21
20.7210268746
31
0.0000000000
11
11.9719919981
21
20.7226692855
31
0.0000000000
11
12.0431685067
21
20.7238774095
31
0.0000000000
11
12.1155580870
21
20.7246411664
31
0.0000000000
11
12.1885567441
21
20.7249541836
31
0.0000000000
0
SPLINE
5
2DE
100
AcDbEntity
8
0
100
AcDbSpline
62
9
6
CONTINUOUS
70
0
71
3
72
13
73
9
74
7
42
0.0000001000
43
0.0000001000
44
0.0000000001
12
0.0237318861
22
20.0252895799
32
0.0000000000
13
0.0004069874
23
20.0253036381
33
0.0000000000
40
0.0000000000
40
0.0000000000
40
0.0000000000
40
0.0000000000
40
0.1664718719
40
0.3330491916
40
0.4997113203
40
0.6664376046
40
0.8332073855
40
1.0000000000
40
1.0000000000
40
1.0000000000
40
1.0000000000
10
12.1885567441
20
-20.0261106193
30
0.0000000000
10
12.1898736413
20
-18.9148948054
30
0.0000000000
10
12.1922917525
20
-16.6917590410
30
0.0000000000
10
12.1952713336
20
-13.3561367113
30
0.0000000000
10
12.1976042583
20
-10.0188156361
30
0.0000000000
10
12.1992902375
20
-6.6802094731
30
0.0000000000
10
12.2003290621
20
-3.3407320412
30
0.0000000000
10
12.2005900823
20
-1.1141692895
30
0.0000000000
10
12.2006127098
20
-0.0008117062
30
0.0000000000
11
12.1885567441
21
-20.0261106193
31
0.0000000000
11
12.1921829877
21
-16.6924628090
31
0.0000000000
11
12.1951628770
21
-13.3567027338
31
0.0000000000
11
12.1974960429
21
-10.0192438164
31
0.0000000000
11
12.1991821962
21
-6.6804997732
31
0.0000000000
11
12.2002211281
21
-3.3408844339
31
0.0000000000
11
12.2006127098
21
-0.0008117062
31
0.0000000000
0
SPLINE
5
2DF
100
AcDbEntity
8
0
100
AcDbSpline
62
9
6
CONTINUOUS
70
0
71
3
72
24
73
20
74
18
42
0.0000001000
43
0.0000001000
44
0.0000000001
12
0.2000106169
22
-0.7802891870
32
0.0000000000
13
0.8055150864
23
-0.0009527498
33
0.0000000000
40
0.0000000000
40
0.0000000000
40
0.0000000000
40
0.0000000000
40
0.0084036160
40
0.0236382935
40
0.0465188378
40
0.0770996583
40
0.1152229665
40
0.1606196706
40
0.2129396186
40
0.2717648161
40
0.3366174257
40
0.4069659923
40
0.4822310950
40
0.5617908967
40
0.6449867765
40
0.7311291188
40
0.8195032705
40
0.9093756531
40
1.0000000000
40
1.0000000000
40
1.0000000000
40
1.0000000000
10
11.3886785880
20
-19.9717758662
30
0.0000000000
10
11.3892388588
20
-19.9739616165
30
0.0000000000
10
11.3949125940
20
-19.9782377210
30
0.0000000000
10
11.4062903756
20
-19.9824888410
30
0.0000000000
10
11.4243309161
20
-19.9872074061
30
0.0000000000
10
11.4484435311
20
-19.9917057599
30
0.0000000000
10
11.4787856459
20
-19.9961678472
30
0.0000000000
10
11.5150036411
20
-20.0004321576
30
0.0000000000
10
11.5568449906
20
-20.0044886727
30
0.0000000000
10
11.6039493322
20
-20.0082844083
30
0.0000000000
10
11.6559300203
20
-20.0117878256
30
0.0000000000
10
11.7123527753
20
-20.0149658622
30
0.0000000000
10
11.7727478285
20
-20.0177907148
30
0.0000000000
10
11.8366114707
20
-20.0202375433
30
0.0000000000
10
11.9034111147
20
-20.0222851663
30
0.0000000000
10
11.9725895520
20
-20.0239159292
30
0.0000000000
10
12.0435697113
20
-20.0251158439
30
0.0000000000
10
12.1157594125
20
-20.0258746468
30
0.0000000000
10
12.1642236512
20
-20.0260818385
30
0.0000000000
10
12.1885567441
20
-20.0261106193
30
0.0000000000
11
11.3886785880
21
-19.9717758662
31
0.0000000000
11
11.3932866091
21
-19.9767345766
31
0.0000000000
11
11.4045301036
21
-19.9816519131
31
0.0000000000
11
11.4223152597
21
-19.9864868471
31
0.0000000000
11
11.4464936836
21
-19.9911990375
31
0.0000000000
11
11.4768636387
21
-19.9957491673
31
0.0000000000
11
11.5131717279
21
-20.0000992717
31
0.0000000000
11
11.5551150084
21
-20.0042130549
31
0.0000000000
11
11.6023435192
21
-20.0080561929
31
0.0000000000
11
11.6544632011
21
-20.0115966197
31
0.0000000000
11
11.7110391847
21
-20.0148047951
31
0.0000000000
11
11.7715994183
21
-20.0176539513
31
0.0000000000
11
11.8356386072
21
-20.0201203158
31
0.0000000000
11
11.9026224295
21
-20.0221833100
31
0.0000000000
11
11.9719919940
21
-20.0238257210
31
0.0000000000
11
12.0431685038
21
-20.0250338451
31
0.0000000000
11
12.1155580855
21
-20.0257976020
31
0.0000000000
11
12.1885567441
21
-20.0261106193
31
0.0000000000
0
SPLINE
5
2E0
100
AcDbEntity
8
0
100
AcDbSpline
62
9
6
CONTINUOUS
70
0
71
3
72
13
73
9
74
7
42
0.0000001000
43
0.0000001000
44
0.0000000001
12
0.0237310537
22
19.9711882920
32
0.0000000000
13
0.0004077892
23
19.9712023872
33
0.0000000000
40
0.0000000000
40
0.0000000000
40
0.0000000000
40
0.0000000000
40
0.1664719563
40
0.3330493760
40
0.4997116020
40
0.6664379803
40
0.8332078535
40
1.0000000000
40
1.0000000000
40
1.0000000000
40
1.0000000000
10
11.3886785880
20
-19.9717758662
30
0.0000000000
10
11.3899954396
20
-18.8635616046
30
0.0000000000
10
11.3924134749
20
-16.6464307414
30
0.0000000000
10
11.3953929867
20
-13.3198182090
30
0.0000000000
10
11.3977258868
20
-9.9915114542
30
0.0000000000
10
11.3994118860
20
-6.6619231331
30
0.0000000000
10
11.4004507741
20
-3.3314696580
30
0.0000000000
10
11.4007118674
20
-1.1109247883
30
0.0000000000
10
11.4007345394
20
-0.0005782166
30
0.0000000000
11
11.3886785880
21
-19.9717758662
31
0.0000000000
11
11.3923047174
21
-16.6471327116
31
0.0000000000
11
11.3952845376
21
-13.3203826829
31
0.0000000000
11
11.3976176788
21
-9.9919384559
31
0.0000000000
11
11.3993038522
21
-6.6622126373
31
0.0000000000
11
11.4003428486
21
-3.3316179092
31
0.0000000000
11
11.4007345394
21
-0.0005782166
31
0.0000000000
0
SPLINE
5
2E1
100
AcDbEntity
8
0
100
AcDbSpline
62
9
6
CONTINUOUS
70
0
71
3
72
13
73
9
74
7
42
0.0000001000
43
0.0000001000
44
0.0000000001
12
-0.0004077892
22
19.9712023872
32
0.0000000000
13
-0.0237310536
23
19.9711882920
33
0.0000000000
40
0.0000000000
40
0.0000000000
40
0.0000000000
40
0.0000000000
40
0.1667921483
40
0.3335620233
40
0.5002884034
40
0.6669506311
40
0.8335280525
40
1.0000000000
40
1.0000000000
40
1.0000000000
40
1.0000000000
10
11.4007345394
20
0.6994217834
30
0.0000000000
10
11.4007118674
20
1.8097683669
30
0.0000000000
10
11.4004507741
20
4.0303132604
30
0.0000000000
10
11.3994118859
20
7.3607667710
30
0.0000000000
10
11.3977258868
20
10.6903551276
30
0.0000000000
10
11.3953929866
20
14.0186619173
30
0.0000000000
10
11.3924134747
20
17.3452744141
30
0.0000000000
10
11.3899954395
20
19.5624052299
30
0.0000000000
10
11.3886785880
20
20.6706194330
30
0.0000000000
11
11.4007345394
21
0.6994217834
31
0.0000000000
11
11.4003428486
21
4.0304615116
31
0.0000000000
11
11.3993038521
21
7.3610562752
31
0.0000000000
11
11.3976176788
21
10.6907821293
31
0.0000000000
11
11.3952845375
21
14.0192263918
31
0.0000000000
11
11.3923047172
21
17.3459764540
31
0.0000000000
11
11.3886785880
21
20.6706194330
31
0.0000000000
0
SPLINE
5
2E2
100
AcDbEntity
8
0
100
AcDbSpline
62
9
6
CONTINUOUS
70
0
71
3
72
13
73
9
74
7
42
0.0000001000
43
0.0000001000
44
0.0000000001
12
-0.0004069874
22
20.0253036381
32
0.0000000000
13
-0.0237318860
23
20.0252895799
33
0.0000000000
40
0.0000000000
40
0.0000000000
40
0.0000000000
40
0.0000000000
40
0.1667926145
40
0.3335623954
40
0.5002886797
40
0.6669508084
40
0.8335281281
40
1.0000000000
40
1.0000000000
40
1.0000000000
40
1.0000000000
10
12.2006127098
20
0.6996552729
30
0.0000000000
10
12.2005900823
20
1.8130128563
30
0.0000000000
10
12.2003290621
20
4.0395756079
30
0.0000000000
10
12.1992902375
20
7.3790530398
30
0.0000000000
10
12.1976042583
20
10.7176592028
30
0.0000000000
10
12.1952713336
20
14.0549802779
30
0.0000000000
10
12.1922917525
20
17.3906026077
30
0.0000000000
10
12.1898736413
20
19.6137383722
30
0.0000000000
10
12.1885567441
20
20.7249541860
30
0.0000000000
11
12.2006127098
21
0.6996552729
31
0.0000000000
11
12.2002211281
21
4.0397280006
31
0.0000000000
11
12.1991821962
21
7.3793433399
31
0.0000000000
11
12.1974960429
21
10.7180873830
31
0.0000000000
11
12.1951628770
21
14.0555463005
31
0.0000000000
11
12.1921829877
21
17.3913063757
31
0.0000000000
11
12.1885567441
21
20.7249541860
31
0.0000000000
0
SPLINE
5
2E3
100
AcDbEntity
8
0
100
AcDbSpline
62
9
6
CONTINUOUS
70
0
71
3
72
8
73
4
74
2
42
0.0000001000
43
0.0000001000
44
0.0000000001
12
0.4999839107
22
0.4999838586
32
0.0195977386
13
0.5000159022
23
0.5000158500
33
0.0187637923
40
0.0000000000
40
0.0000000000
40
0.0000000000
40
0.0000000000
40
1.0000000000
40
1.0000000000
40
1.0000000000
40
1.0000000000
10
29.9501277831
20
-11.4005781868
30
5.5198075202
10
30.1167890866
20
-11.2339169006
30
5.5263400997
10
30.2834558380
20
-11.0672501666
30
5.5327336927
10
30.4501278054
20
-10.9005782166
30
5.5389882901
11
29.9501277831
21
-11.4005781868
31
5.5198075202
11
30.4501278054
21
-10.9005782166
31
5.5389882901
0
SPLINE
5
2E4
100
AcDbEntity
8
0
100
AcDbSpline
62
9
6
CONTINUOUS
70
0
71
3
72
47
73
43
74
41
42
0.0000001000
43
0.0000001000
44
0.0000000001
12
0.0000000000
22
2.0922004120
32
0.0958322859
13
-0.0000000000
23
2.9077998507
33
0.1210399932
40
0.0000000000
40
0.0000000000
40
0.0000000000
40
0.0000000000
40
0.0625000000
40
0.1250000000
40
0.1875000000
40
0.2500000000
40
0.3125000000
40
0.3437500000
40
0.3750000000
40
0.4062500000
40
0.4218750000
40
0.4375000000
40
0.4531250000
40
0.4687500000
40
0.4765625000
40
0.4843750000
40
0.4882812500
40
0.4921875000
40
0.4960937500
40
0.4980468750
40
0.4990234375
40
0.5000000000
40
0.5009765625
40
0.5019531250
40
0.5039062500
40
0.5078125000
40
0.5117187500
40
0.5156250000
40
0.5234375000
40
0.5312500000
40
0.5468750000
40
0.5625000000
40
0.5781250000
40
0.5937500000
40
0.6250000000
40
0.6562500000
40
0.6875000000
40
0.7500000000
40
0.8125000000
40
0.8750000000
40
0.9375000000
40
1.0000000000
40
1.0000000000
40
1.0000000000
40
1.0000000000
10
29.9501277831
20
-13.9005781943
30
5.4113713855
10
29.9501277831
20
-13.8569906857
30
5.4133678915
10
29.9501277831
20
-13.7698156685
30
5.4173609034
10
29.9501277831
20
-13.6390531428
30
5.4233504212
10
29.9501277831
20
-13.5082906170
30
5.4293399391
10
29.9501277831
20
-13.3775280913
30
5.4353294570
10
29.9501277831
20
-13.2685593197
30
5.4403207219
10
29.9501277831
20
-13.1813843030
30
5.4443137338
10
29.9501277831
20
-13.1160030387
30
5.4473084928
10
29.9501277831
20
-13.0615186574
30
5.4498041251
10
29.9501277831
20
-13.0179311397
30
5.4518006313
10
29.9501277831
20
-12.9852405360
30
5.4532980099
10
29.9501277831
20
-12.9525498007
30
5.4547953926
10
29.9501277831
20
-12.9253079309
30
5.4560431988
10
29.9501277831
20
-12.9035135178
30
5.4570414722
10
29.9501277831
20
-12.8898940979
30
5.4576653285
10
29.9501277831
20
-12.8789937794
30
5.4581645613
10
29.9501277831
20
-12.8708316355
30
5.4585385812
10
29.9501277831
20
-12.8639881916
30
5.4588515520
10
29.9501277831
20
-12.8592795321
30
5.4590681048
10
29.9501277831
20
-12.8564612218
30
5.4591957945
10
29.9501277831
20
-12.8547070747
30
5.4592804481
10
29.9501277831
20
-12.8515784091
30
5.4594075839
10
29.9501277831
20
-12.8478863023
30
5.4595622800
10
29.9501277831
20
-12.8412017321
30
5.4598399022
10
29.9501277831
20
-12.8317691334
30
5.4602328959
10
29.9501277831
20
-12.8204000263
30
5.4607060333
10
29.9501277831
20
-12.8052586768
30
5.4613363436
10
29.9501277831
20
-12.7863260116
30
5.4621244162
10
29.9501277831
20
-12.7560370886
30
5.4633852291
10
29.9501277831
20
-12.7181747884
30
5.4649612807
10
29.9501277831
20
-12.6727405195
30
5.4668525274
10
29.9501277831
20
-12.6273061192
30
5.4687437781
10
29.9501277831
20
-12.5667269647
30
5.4712654444
10
29.9501277831
20
-12.4910030058
30
5.4744175276
10
29.9501277831
20
-12.4001342619
30
5.4782000274
10
29.9501277831
20
-12.2789759343
30
5.4832433605
10
29.9501277831
20
-12.1275280257
30
5.4895475268
10
29.9501277831
20
-11.9457905349
30
5.4971125263
10
29.9501277831
20
-11.7640530443
30
5.5046775259
10
29.9501277831
20
-11.5823155536
30
5.5122425255
10
29.9501277831
20
-11.4611572265
30
5.5172858585
10
29.9501277831
20
-11.4005780629
30
5.5198075251
11
29.9501277831
21
-13.9005781943
31
5.4113713855
11
29.9501277831
21
-13.7698156685
31
5.4173609034
11
29.9501277831
21
-13.6390531428
31
5.4233504212
11
29.9501277831
21
-13.5082906170
31
5.4293399391
11
29.9501277831
21
-13.3775280913
31
5.4353294570
11
29.9501277831
21
-13.2467655655
31
5.4413189749
11
29.9501277831
21
-13.1813843027
31
5.4443137338
11
29.9501277831
21
-13.1160030398
31
5.4473084927
11
29.9501277831
21
-13.0506217769
31
5.4503032517
11
29.9501277831
21
-13.0179311455
31
5.4518006311
11
29.9501277831
21
-12.9852405140
31
5.4532980106
11
29.9501277831
21
-12.9525498826
31
5.4547953901
11
29.9501277831
21
-12.9198592512
31
5.4562927695
11
29.9501277831
21
-12.9035139354
31
5.4570414593
11
29.9501277831
21
-12.8871686197
31
5.4577901490
11
29.9501277831
21
-12.8789959619
31
5.4581644939
11
29.9501277831
21
-12.8708233040
31
5.4585388387
11
29.9501277831
21
-12.8626506461
31
5.4589131836
11
29.9501277831
21
-12.8585643172
31
5.4591003560
11
29.9501277831
21
-12.8565211528
31
5.4591939422
11
29.9501277831
21
-12.8544779883
31
5.4592875285
11
29.9501277831
21
-12.8516383400
31
5.4594057316
11
29.9501277831
21
-12.8487986917
31
5.4595239347
11
29.9501277831
21
-12.8431193951
31
5.4597603409
11
29.9501277831
21
-12.8317608020
31
5.4602331534
11
29.9501277831
21
-12.8204022088
31
5.4607059659
11
29.9501277831
21
-12.8090436156
31
5.4611787784
11
29.9501277831
21
-12.7863264293
31
5.4621244033
11
29.9501277831
21
-12.7636092430
31
5.4630700283
11
29.9501277831
21
-12.7181748703
31
5.4649612781
11
29.9501277831
21
-12.6727404976
31
5.4668525280
11
29.9501277831
21
-12.6273061250
31
5.4687437779
11
29.9501277831
21
-12.5818717523
31
5.4706350278
11
29.9501277831
21
-12.4910030069
31
5.4744175276
11
29.9501277831
21
-12.4001342616
31
5.4782000274
11
29.9501277831
21
-12.3092655163
31
5.4819825272
11
29.9501277831
21
-12.1275280256
31
5.4895475268
11
29.9501277831
21
-11.9457905349
31
5.4971125263
11
29.9501277831
21
-11.7640530443
31
5.5046775259
11
29.9501277831
21
-11.5823155536
31
5.5122425255
11
29.9501277831
21
-11.4005780629
31
5.5198075251
0
SPLINE
5
2E5
100
AcDbEntity
8
0
100
AcDbSpline
62
9
6
CONTINUOUS
70
0
71
3
72
8
73
4
74
2
42
0.0000001000
43
0.0000001000
44
0.0000000001
12
-0.4999797203
22
0.4999797203
32
0.0246121024
13
-0.5000200924
23
0.5000200924
33
0.0237777938
40
0.0000000000
40
0.0000000000
40
0.0000000000
40
0.0000000000
40
1.0000000000
40
1.0000000000
40
1.0000000000
40
1.0000000000
10
30.4501278054
20
-14.4005782166
30
5.3871764318
10
30.2834678987
20
-14.2339183099
30
5.3953804659
10
30.1168011472
20
-14.0672515584
30
5.4034454542
10
29.9501277831
20
-13.9005781943
30
5.4113713855
11
30.4501278054
21
-14.4005782166
31
5.3871764318
11
29.9501277831
21
-13.9005781943
31
5.4113713855
0
SPLINE
5
2E6
100
AcDbEntity
8
0
100
AcDbSpline
62
9
6
CONTINUOUS
70
0
71
3
72
47
73
43
74
41
42
0.0000001000
43
0.0000001000
44
0.0000000001
12
0.0000000000
22
3.1391709522
32
-0.1232887366
13
0.0000000000
23
4.2221078845
33
-0.1979011165
40
0.0000000000
40
0.0000000000
40
0.0000000000
40
0.0000000000
40
0.1250000000
40
0.1875000000
40
0.2500000000
40
0.3125000000
40
0.3750000000
40
0.4375000000
40
0.5000000000
40
0.5312500000
40
0.5625000000
40
0.5781250000
40
0.5937500000
40
0.6093750000
40
0.6250000000
40
0.6406250000
40
0.6484375000
40
0.6523437500
40
0.6562500000
40
0.6601562500
40
0.6640625000
40
0.6650390625
40
0.6660156250
40
0.6665039063
40
0.6669921875
40
0.6679687500
40
0.6699218750
40
0.6718750000
40
0.6757812500
40
0.6796875000
40
0.6875000000
40
0.6953125000
40
0.7031250000
40
0.7187500000
40
0.7343750000
40
0.7500000000
40
0.7812500000
40
0.8125000000
40
0.8437500000
40
0.8750000000
40
0.9375000000
40
1.0000000000
40
1.0000000000
40
1.0000000000
40
1.0000000000
10
34.0001277235
20
11.5994217834
30
5.5389882901
10
34.0001277235
20
11.7302205730
30
5.5338512594
10
34.0001277235
20
11.9264185598
30
5.5261408918
10
34.0001277235
20
12.1880166666
30
5.5158796879
10
34.0001277235
20
12.3842132687
30
5.5081355695
10
34.0001277235
20
12.5804173870
30
5.5005746699
10
34.0001277235
20
12.7765934189
30
5.4923291105
10
34.0001277235
20
12.9727619095
30
5.4838997212
10
34.0001277235
20
13.1362373733
30
5.4769171921
10
34.0001277235
20
13.2670173830
30
5.4713223751
10
34.0001277235
20
13.3487549317
30
5.4678266179
10
34.0001277235
20
13.4141449588
30
5.4650298023
10
34.0001277235
20
13.4631874890
30
5.4629322182
10
34.0001277235
20
13.5122299856
30
5.4608346285
10
34.0001277235
20
13.5612726068
30
5.4587370335
10
34.0001277235
20
13.6021410704
30
5.4569890600
10
34.0001277235
20
13.6307497539
30
5.4557654340
10
34.0001277235
20
13.6470963882
30
5.4550662888
10
34.0001277235
20
13.6593597016
30
5.4545417337
10
34.0001277235
20
13.6716102565
30
5.4540179283
10
34.0001277235
20
13.6808339452
30
5.4536229724
10
34.0001277235
20
13.6869274371
30
5.4533629373
10
34.0001277235
20
13.6895491783
30
5.4532497252
10
34.0001277235
20
13.6914534478
30
5.4531705026
10
34.0001277235
20
13.6940639821
30
5.4530497828
10
34.0001277235
20
13.6989605644
30
5.4528192425
10
34.0001277235
20
13.7057844712
30
5.4524999589
10
34.0001277235
20
13.7167984027
30
5.4519834834
10
34.0001277235
20
13.7305330559
30
5.4513398138
10
34.0001277235
20
13.7525268112
30
5.4503088667
10
34.0001277235
20
13.7800127233
30
5.4490205520
10
34.0001277235
20
13.8129985067
30
5.4474744163
10
34.0001277235
20
13.8569786120
30
5.4454129572
10
34.0001277235
20
13.9119540658
30
5.4428361144
10
34.0001277235
20
13.9779244725
30
5.4397439112
10
34.0001277235
20
14.0658850629
30
5.4356209707
10
34.0001277235
20
14.1758357844
30
5.4304672960
10
34.0001277235
20
14.3077766573
30
5.4242828861
10
34.0001277235
20
14.4397175283
30
5.4180984762
10
34.0001277235
20
14.6156386903
30
5.4098525963
10
34.0001277235
20
14.8355401426
30
5.3995452465
10
34.0001277235
20
15.0114613044
30
5.3912993667
10
34.0001277235
20
15.0994218854
30
5.3871764267
11
34.0001277235
21
11.5994217834
31
5.5389882901
11
34.0001277235
21
11.9918181524
31
5.5235771980
11
34.0001277235
21
12.1880163369
31
5.5158716520
11
34.0001277235
21
12.3842145214
31
5.5081661060
11
34.0001277235
21
12.5804127059
31
5.5004605599
11
34.0001277235
21
12.7765921620
31
5.4922984722
11
34.0001277235
21
12.9727622538
31
5.4839081136
11
34.0001277235
21
13.1689323456
31
5.4755177551
11
34.0001277235
21
13.2670173916
31
5.4713225758
11
34.0001277235
21
13.3651024375
31
5.4671273965
11
34.0001277235
21
13.4141449604
31
5.4650298069
11
34.0001277235
21
13.4631874834
31
5.4629322172
11
34.0001277235
21
13.5122300063
31
5.4608346276
11
34.0001277235
21
13.5612725293
31
5.4587370379
11
34.0001277235
21
13.6103150523
31
5.4566394483
11
34.0001277235
21
13.6348363137
31
5.4555906535
11
34.0001277235
21
13.6470969445
31
5.4550662561
11
34.0001277235
21
13.6593575752
31
5.4545418587
11
34.0001277235
21
13.6716182060
31
5.4540174613
11
34.0001277235
21
13.6838788367
31
5.4534930638
11
34.0001277235
21
13.6869439944
31
5.4533619645
11
34.0001277235
21
13.6900091521
31
5.4532308651
11
34.0001277235
21
13.6915417309
31
5.4531653155
11
34.0001277235
21
13.6934269746
31
5.4530790446
11
34.0001277235
21
13.6975501268
31
5.4528857818
11
34.0001277235
21
13.7057964313
31
5.4524992562
11
34.0001277235
21
13.7140427357
31
5.4521127306
11
34.0001277235
21
13.7305353447
31
5.4513396794
11
34.0001277235
21
13.7470279536
31
5.4505666281
11
34.0001277235
21
13.7800131714
31
5.4490205256
11
34.0001277235
21
13.8129983893
31
5.4474744232
11
34.0001277235
21
13.8459836071
31
5.4459283207
11
34.0001277235
21
13.9119540428
31
5.4428361158
11
34.0001277235
21
13.9779244785
31
5.4397439108
11
34.0001277235
21
14.0438949142
31
5.4366517059
11
34.0001277235
21
14.1758357856
31
5.4304672960
11
34.0001277235
21
14.3077766570
31
5.4242828861
11
34.0001277235
21
14.4397175284
31
5.4180984762
11
34.0001277235
21
14.5716583998
31
5.4119140663
11
34.0001277235
21
14.8355401426
31
5.3995452465
11
34.0001277235
21
15.0994218854
31
5.3871764267
0
SPLINE
5
2E7
100
AcDbEntity
8
0
100
AcDbSpline
62
9
6
CONTINUOUS
70
0
71
3
72
8
73
4
74
2
42
0.0000001000
43
0.0000001000
44
0.0000000001
12
1.7495369094
22
-3.4990738188
32
0.1722461126
13
1.7504233163
23
-3.5008466326
33
0.1313741537
40
0.0000000000
40
0.0000000000
40
0.0000000000
40
0.0000000000
40
1.0000000000
40
1.0000000000
40
1.0000000000
40
1.0000000000
10
34.0001277235
20
15.0994217834
30
5.3871764318
10
34.5833066933
20
13.9330638438
30
5.4445918026
10
35.1666532847
20
12.7663706609
30
5.4951969055
10
35.7501277235
20
11.5994217834
30
5.5389882901
11
34.0001277235
21
15.0994217834
31
5.3871764318
11
35.7501277235
21
11.5994217834
31
5.5389882901
0
SPLINE
5
2E8
100
AcDbEntity
8
0
100
AcDbSpline
62
9
6
CONTINUOUS
70
0
71
3
72
8
73
4
74
2
42
0.0000001000
43
0.0000001000
44
0.0000000001
12
-0.4999838586
22
-0.4999839107
32
0.0195977407
13
-0.5000158500
23
-0.5000159022
33
0.0187637943
40
0.0000000000
40
0.0000000000
40
0.0000000000
40
0.0000000000
40
1.0000000000
40
1.0000000000
40
1.0000000000
40
1.0000000000
10
33.0001277831
20
12.0994218057
30
5.5198075182
10
32.8334664969
20
11.9327605022
30
5.5263400984
10
32.6667997629
20
11.7660937508
30
5.5327336920
10
32.5001278129
20
11.5994217834
30
5.5389882901
11
33.0001277831
21
12.0994218057
31
5.5198075182
11
32.5001278129
21
11.5994217834
31
5.5389882901
0
SPLINE
5
2E9
100
AcDbEntity
8
0
100
AcDbSpline
62
9
6
CONTINUOUS
70
0
71
3
72
47
73
43
74
41
42
0.0000001000
43
0.0000001000
44
0.0000000001
12
0.0000000000
22
-2.0922004120
32
0.0958322863
13
0.0000000000
23
-2.9077998507
33
0.1210399937
40
0.0000000000
40
0.0000000000
40
0.0000000000
40
0.0000000000
40
0.0625000000
40
0.1250000000
40
0.1875000000
40
0.2500000000
40
0.3125000000
40
0.3437500000
40
0.3750000000
40
0.4062500000
40
0.4218750000
40
0.4375000000
40
0.4531250000
40
0.4687500000
40
0.4765625000
40
0.4843750000
40
0.4882812500
40
0.4921875000
40
0.4960937500
40
0.4980468750
40
0.4990234375
40
0.5000000000
40
0.5009765625
40
0.5019531250
40
0.5039062500
40
0.5078125000
40
0.5117187500
40
0.5156250000
40
0.5234375000
40
0.5312500000
40
0.5468750000
40
0.5625000000
40
0.5781250000
40
0.5937500000
40
0.6250000000
40
0.6562500000
40
0.6875000000
40
0.7500000000
40
0.8125000000
40
0.8750000000
40
0.9375000000
40
1.0000000000
40
1.0000000000
40
1.0000000000
40
1.0000000000
10
33.0001277831
20
14.5994218132
30
5.4113713830
10
33.0001277831
20
14.5558343046
30
5.4133678890
10
33.0001277831
20
14.4686592874
30
5.4173609009
10
33.0001277831
20
14.3378967617
30
5.4233504188
10
33.0001277831
20
14.2071342359
30
5.4293399367
10
33.0001277831
20
14.0763717102
30
5.4353294546
10
33.0001277831
20
13.9674029386
30
5.4403207195
10
33.0001277831
20
13.8802279219
30
5.4443137314
10
33.0001277831
20
13.8148466576
30
5.4473084904
10
33.0001277831
20
13.7603622763
30
5.4498041227
10
33.0001277831
20
13.7167747586
30
5.4518006290
10
33.0001277831
20
13.6840841548
30
5.4532980076
10
33.0001277831
20
13.6513934196
30
5.4547953903
10
33.0001277831
20
13.6241515498
30
5.4560431965
10
33.0001277831
20
13.6023571367
30
5.4570414699
10
33.0001277831
20
13.5887377168
30
5.4576653262
10
33.0001277831
20
13.5778373983
30
5.4581645590
10
33.0001277831
20
13.5696752544
30
5.4585385789
10
33.0001277831
20
13.5628318105
30
5.4588515497
10
33.0001277831
20
13.5581231510
30
5.4590681025
10
33.0001277831
20
13.5553048407
30
5.4591957922
10
33.0001277831
20
13.5535506936
30
5.4592804458
10
33.0001277831
20
13.5504220280
30
5.4594075816
10
33.0001277831
20
13.5467299212
30
5.4595622777
10
33.0001277831
20
13.5400453510
30
5.4598398999
10
33.0001277831
20
13.5306127523
30
5.4602328936
10
33.0001277831
20
13.5192436452
30
5.4607060310
10
33.0001277831
20
13.5041022957
30
5.4613363413
10
33.0001277831
20
13.4851696305
30
5.4621244139
10
33.0001277831
20
13.4548807075
30
5.4633852268
10
33.0001277831
20
13.4170184073
30
5.4649612784
10
33.0001277831
20
13.3715841384
30
5.4668525251
10
33.0001277831
20
13.3261497381
30
5.4687437759
10
33.0001277831
20
13.2655705836
30
5.4712654421
10
33.0001277831
20
13.1898466247
30
5.4744175254
10
33.0001277831
20
13.0989778808
30
5.4782000252
10
33.0001277831
20
12.9778195532
30
5.4832433583
10
33.0001277831
20
12.8263716446
30
5.4895475246
10
33.0001277831
20
12.6446341538
30
5.4971125242
10
33.0001277831
20
12.4628966632
30
5.5046775238
10
33.0001277831
20
12.2811591725
30
5.5122425234
10
33.0001277831
20
12.1600008454
30
5.5172858565
10
33.0001277831
20
12.0994216818
30
5.5198075230
11
33.0001277831
21
14.5994218132
31
5.4113713830
11
33.0001277831
21
14.4686592874
31
5.4173609009
11
33.0001277831
21
14.3378967617
31
5.4233504188
11
33.0001277831
21
14.2071342359
31
5.4293399367
11
33.0001277831
21
14.0763717102
31
5.4353294546
11
33.0001277831
21
13.9456091844
31
5.4413189725
11
33.0001277831
21
13.8802279216
31
5.4443137314
11
33.0001277831
21
13.8148466587
31
5.4473084904
11
33.0001277831
21
13.7494653958
31
5.4503032493
11
33.0001277831
21
13.7167747644
31
5.4518006288
11
33.0001277831
21
13.6840841329
31
5.4532980083
11
33.0001277831
21
13.6513935015
31
5.4547953877
11
33.0001277831
21
13.6187028701
31
5.4562927672
11
33.0001277831
21
13.6023575543
31
5.4570414570
11
33.0001277831
21
13.5860122386
31
5.4577901467
11
33.0001277831
21
13.5778395808
31
5.4581644916
11
33.0001277831
21
13.5696669229
31
5.4585388364
11
33.0001277831
21
13.5614942650
31
5.4589131813
11
33.0001277831
21
13.5574079361
31
5.4591003537
11
33.0001277831
21
13.5553647717
31
5.4591939399
11
33.0001277831
21
13.5533216072
31
5.4592875262
11
33.0001277831
21
13.5504819589
31
5.4594057293
11
33.0001277831
21
13.5476423106
31
5.4595239324
11
33.0001277831
21
13.5419630140
31
5.4597603386
11
33.0001277831
21
13.5306044209
31
5.4602331511
11
33.0001277831
21
13.5192458277
31
5.4607059636
11
33.0001277831
21
13.5078872345
31
5.4611787761
11
33.0001277831
21
13.4851700482
31
5.4621244010
11
33.0001277831
21
13.4624528619
31
5.4630700260
11
33.0001277831
21
13.4170184892
31
5.4649612759
11
33.0001277831
21
13.3715841165
31
5.4668525258
11
33.0001277831
21
13.3261497438
31
5.4687437757
11
33.0001277831
21
13.2807153712
31
5.4706350256
11
33.0001277831
21
13.1898466258
31
5.4744175254
11
33.0001277831
21
13.0989778805
31
5.4782000252
11
33.0001277831
21
13.0081091352
31
5.4819825250
11
33.0001277831
21
12.8263716445
31
5.4895475246
11
33.0001277831
21
12.6446341538
31
5.4971125242
11
33.0001277831
21
12.4628966632
31
5.5046775238
11
33.0001277831
21
12.2811591725
31
5.5122425234
11
33.0001277831
21
12.0994216818
31
5.5198075230
0
SPLINE
5
2EA
100
AcDbEntity
8
0
100
AcDbSpline
62
9
6
CONTINUOUS
70
0
71
3
72
8
73
4
74
2
42
0.0000001000
43
0.0000001000
44
0.0000000001
12
0.4999796681
22
-0.4999796681
32
0.0246120998
13
0.5000200402
23
-0.5000200402
33
0.0237777914
40
0.0000000000
40
0.0000000000
40
0.0000000000
40
0.0000000000
40
1.0000000000
40
1.0000000000
40
1.0000000000
40
1.0000000000
10
32.5001278129
20
15.0994217834
30
5.3871764318
10
32.6667877023
20
14.9327618940
30
5.3953804650
10
32.8334544363
20
14.7660951599
30
5.4034454525
10
33.0001277831
20
14.5994218132
30
5.4113713830
11
32.5001278129
21
15.0994217834
31
5.3871764318
11
33.0001277831
21
14.5994218132
31
5.4113713830
0
SPLINE
5
2EB
100
AcDbEntity
8
0
100
AcDbSpline
62
9
6
CONTINUOUS
70
0
71
3
72
8
73
4
74
2
42
0.0000001000
43
0.0000001000
44
0.0000000001
12
0.5000200924
22
0.5000200402
32
-0.0237777914
13
0.4999797203
23
0.4999796681
33
-0.0246120998
40
0.0000000000
40
0.0000000000
40
0.0000000000
40
0.0000000000
40
1.0000000000
40
1.0000000000
40
1.0000000000
40
1.0000000000
10
31.2501277831
20
14.5994218132
30
5.4113713830
10
31.4168011472
20
14.7660951599
30
5.4034454525
10
31.5834678987
20
14.9327618940
30
5.3953804650
10
31.7501278054
20
15.0994217834
30
5.3871764318
11
31.2501277831
21
14.5994218132
31
5.4113713830
11
31.7501278054
21
15.0994217834
31
5.3871764318
0
SPLINE
5
2EC
100
AcDbEntity
8
0
100
AcDbSpline
62
9
6
CONTINUOUS
70
0
71
3
72
47
73
43
74
41
42
0.0000001000
43
0.0000001000
44
0.0000000001
12
0.0000000000
22
2.0926406357
32
-0.0856829089
13
0.0000000000
23
2.9073596269
33
-0.1311893731
40
0.0000000000
40
0.0000000000
40
0.0000000000
40
0.0000000000
40
0.0625000000
40
0.1250000000
40
0.1875000000
40
0.2500000000
40
0.3125000000
40
0.3437500000
40
0.3750000000
40
0.4062500000
40
0.4218750000
40
0.4375000000
40
0.4531250000
40
0.4687500000
40
0.4765625000
40
0.4843750000
40
0.4882812500
40
0.4921875000
40
0.4960937500
40
0.4980468750
40
0.4990234375
40
0.5000000000
40
0.5009765625
40
0.5019531250
40
0.5039062500
40
0.5078125000
40
0.5117187500
40
0.5156250000
40
0.5234375000
40
0.5312500000
40
0.5468750000
40
0.5625000000
40
0.5781250000
40
0.5937500000
40
0.6250000000
40
0.6562500000
40
0.6875000000
40
0.7500000000
40
0.8125000000
40
0.8750000000
40
0.9375000000
40
1.0000000000
40
1.0000000000
40
1.0000000000
40
1.0000000000
10
31.2501277831
20
12.0994218057
30
5.5198075182
10
31.2501277831
20
12.1430184856
30
5.5180224576
10
31.2501277831
20
12.2302118454
30
5.5144523364
10
31.2501277831
20
12.3610018852
30
5.5090971545
10
31.2501277831
20
12.4917919249
30
5.5037419727
10
31.2501277831
20
12.6225819646
30
5.4983867909
10
31.2501277831
20
12.7315736646
30
5.4939241394
10
31.2501277831
20
12.8187670239
30
5.4903540182
10
31.2501277831
20
12.8841620452
30
5.4876764273
10
31.2501277831
20
12.9386578907
30
5.4854451017
10
31.2501277831
20
12.9822545796
30
5.4836600406
10
31.2501277831
20
13.0149520619
30
5.4823212467
10
31.2501277831
20
13.0476496756
30
5.4809824455
10
31.2501277831
20
13.0748972778
30
5.4798668006
10
31.2501277831
20
13.0966962759
30
5.4789742336
10
31.2501277831
20
13.1103185636
30
5.4784164957
10
31.2501277831
20
13.1212211712
30
5.4779700385
10
31.2501277831
20
13.1293850461
30
5.4776359263
10
31.2501277831
20
13.1362298875
30
5.4773551751
10
31.2501277831
20
13.1409396135
30
5.4771632107
10
31.2501277831
20
13.1437583954
30
5.4770463946
10
31.2501277831
20
13.1455132844
30
5.4769788456
10
31.2501277831
20
13.1486412082
30
5.4768346052
10
31.2501277831
20
13.1523328433
30
5.4766690355
10
31.2501277831
20
13.1590163470
30
5.4763668249
10
31.2501277831
20
13.1684475482
30
5.4759416116
10
31.2501277831
20
13.1798149243
30
5.4754285665
10
31.2501277831
20
13.1949539847
30
5.4747454805
10
31.2501277831
20
13.2138837820
30
5.4738912895
10
31.2501277831
20
13.2441681200
30
5.4725247703
10
31.2501277831
20
13.2820246879
30
5.4708165573
10
31.2501277831
20
13.3274520783
30
5.4687667291
10
31.2501277831
20
13.3728796001
30
5.4667168936
10
31.2501277831
20
13.4334495833
30
5.4639837822
10
31.2501277831
20
13.5091620780
30
5.4605673920
10
31.2501277831
20
13.6000170650
30
5.4564677242
10
31.2501277831
20
13.7211570499
30
5.4510015003
10
31.2501277831
20
13.8725820302
30
5.4441687204
10
31.2501277831
20
14.0542920070
30
5.4359693846
10
31.2501277831
20
14.2360019836
30
5.4277700488
10
31.2501277831
20
14.4177119603
30
5.4195707129
10
31.2501277831
20
14.5388519448
30
5.4141044891
10
31.2501277831
20
14.5994219370
30
5.4113713771
11
31.2501277831
21
12.0994218057
31
5.5198075182
11
31.2501277831
21
12.2302118454
31
5.5144523364
11
31.2501277831
21
12.3610018852
31
5.5090971545
11
31.2501277831
21
12.4917919249
31
5.5037419727
11
31.2501277831
21
12.6225819646
31
5.4983867909
11
31.2501277831
21
12.7533720044
31
5.4930316091
11
31.2501277831
21
12.8187670242
31
5.4903540182
11
31.2501277831
21
12.8841620441
31
5.4876764273
11
31.2501277831
21
12.9495570640
31
5.4849988364
11
31.2501277831
21
12.9822545739
31
5.4836600410
11
31.2501277831
21
13.0149520838
31
5.4823212455
11
31.2501277831
21
13.0476495938
31
5.4809824501
11
31.2501277831
21
13.0803471037
31
5.4796436546
11
31.2501277831
21
13.0966958587
31
5.4789742569
11
31.2501277831
21
13.1130446136
31
5.4783048592
11
31.2501277831
21
13.1212189911
31
5.4779701603
11
31.2501277831
21
13.1293933686
31
5.4776354614
11
31.2501277831
21
13.1375677461
31
5.4773007626
11
31.2501277831
21
13.1416549348
31
5.4771334131
11
31.2501277831
21
13.1436985292
31
5.4770497384
11
31.2501277831
21
13.1457421236
31
5.4769660637
11
31.2501277831
21
13.1485813419
31
5.4768379491
11
31.2501277831
21
13.1514205603
31
5.4767098345
11
31.2501277831
21
13.1570989971
31
5.4764536052
11
31.2501277831
21
13.1684558706
31
5.4759411467
11
31.2501277831
21
13.1798127442
31
5.4754286882
11
31.2501277831
21
13.1911696177
31
5.4749162297
11
31.2501277831
21
13.2138833648
31
5.4738913128
11
31.2501277831
21
13.2365971119
31
5.4728663958
11
31.2501277831
21
13.2820246061
31
5.4708165618
11
31.2501277831
21
13.3274521002
31
5.4687667279
11
31.2501277831
21
13.3728795944
31
5.4667168939
11
31.2501277831
21
13.4183070886
31
5.4646670600
11
31.2501277831
21
13.5091620769
31
5.4605673921
11
31.2501277831
21
13.6000170653
31
5.4564677241
11
31.2501277831
21
13.6908720536
31
5.4523680562
11
31.2501277831
21
13.8725820303
31
5.4441687204
11
31.2501277831
21
14.0542920070
31
5.4359693846
11
31.2501277831
21
14.2360019836
31
5.4277700488
11
31.2501277831
21
14.4177119603
31
5.4195707129
11
31.2501277831
21
14.5994219370
31
5.4113713771
0
SPLINE
5
2ED
100
AcDbEntity
8
0
100
AcDbSpline
62
9
6
CONTINUOUS
70
0
71
3
72
8
73
4
74
2
42
0.0000001000
43
0.0000001000
44
0.0000000001
12
-0.5000159022
22
0.5000159022
32
-0.0187637943
13
-0.4999839107
23
0.4999839107
33
-0.0195977407
40
0.0000000000
40
0.0000000000
40
0.0000000000
40
0.0000000000
40
1.0000000000
40
1.0000000000
40
1.0000000000
40
1.0000000000
10
31.7501278054
20
11.5994217834
30
5.5389882901
10
31.5834558380
20
11.7660937508
30
5.5327336920
10
31.4167890866
20
11.9327605022
30
5.5263400984
10
31.2501277831
20
12.0994218057
30
5.5198075182
11
31.7501278054
21
11.5994217834
31
5.5389882901
11
31.2501277831
21
12.0994218057
31
5.5198075182
0
SPLINE
5
2EE
100
AcDbEntity
8
0
100
AcDbSpline
62
9
6
CONTINUOUS
70
0
71
3
72
47
73
43
74
41
42
0.0000001000
43
0.0000001000
44
0.0000000001
12
0.0000000000
22
3.1391709522
32
-0.1232887366
13
0.0000000000
23
4.2221078845
33
-0.1979011165
40
0.0000000000
40
0.0000000000
40
0.0000000000
40
0.0000000000
40
0.1250000000
40
0.1875000000
40
0.2500000000
40
0.3125000000
40
0.3750000000
40
0.4375000000
40
0.5000000000
40
0.5312500000
40
0.5625000000
40
0.5781250000
40
0.5937500000
40
0.6093750000
40
0.6250000000
40
0.6406250000
40
0.6484375000
40
0.6523437500
40
0.6562500000
40
0.6601562500
40
0.6640625000
40
0.6650390625
40
0.6660156250
40
0.6665039063
40
0.6669921875
40
0.6679687500
40
0.6699218750
40
0.6718750000
40
0.6757812500
40
0.6796875000
40
0.6875000000
40
0.6953125000
40
0.7031250000
40
0.7187500000
40
0.7343750000
40
0.7500000000
40
0.7812500000
40
0.8125000000
40
0.8437500000
40
0.8750000000
40
0.9375000000
40
1.0000000000
40
1.0000000000
40
1.0000000000
40
1.0000000000
10
35.7501277235
20
11.5994217834
30
5.5389882901
10
35.7501277235
20
11.7302205730
30
5.5338512594
10
35.7501277235
20
11.9264185598
30
5.5261408918
10
35.7501277235
20
12.1880166666
30
5.5158796879
10
35.7501277235
20
12.3842132687
30
5.5081355695
10
35.7501277235
20
12.5804173870
30
5.5005746699
10
35.7501277235
20
12.7765934189
30
5.4923291105
10
35.7501277235
20
12.9727619095
30
5.4838997212
10
35.7501277235
20
13.1362373733
30
5.4769171921
10
35.7501277235
20
13.2670173830
30
5.4713223751
10
35.7501277235
20
13.3487549317
30
5.4678266179
10
35.7501277235
20
13.4141449588
30
5.4650298023
10
35.7501277235
20
13.4631874890
30
5.4629322182
10
35.7501277235
20
13.5122299856
30
5.4608346285
10
35.7501277235
20
13.5612726068
30
5.4587370335
10
35.7501277235
20
13.6021410704
30
5.4569890600
10
35.7501277235
20
13.6307497539
30
5.4557654340
10
35.7501277235
20
13.6470963882
30
5.4550662888
10
35.7501277235
20
13.6593597016
30
5.4545417337
10
35.7501277235
20
13.6716102565
30
5.4540179283
10
35.7501277235
20
13.6808339452
30
5.4536229724
10
35.7501277235
20
13.6869274371
30
5.4533629373
10
35.7501277235
20
13.6895491783
30
5.4532497252
10
35.7501277235
20
13.6914534478
30
5.4531705026
10
35.7501277235
20
13.6940639821
30
5.4530497828
10
35.7501277235
20
13.6989605644
30
5.4528192425
10
35.7501277235
20
13.7057844712
30
5.4524999589
10
35.7501277235
20
13.7167984027
30
5.4519834834
10
35.7501277235
20
13.7305330559
30
5.4513398138
10
35.7501277235
20
13.7525268112
30
5.4503088667
10
35.7501277235
20
13.7800127233
30
5.4490205520
10
35.7501277235
20
13.8129985067
30
5.4474744163
10
35.7501277235
20
13.8569786120
30
5.4454129572
10
35.7501277235
20
13.9119540658
30
5.4428361144
10
35.7501277235
20
13.9779244725
30
5.4397439112
10
35.7501277235
20
14.0658850629
30
5.4356209707
10
35.7501277235
20
14.1758357844
30
5.4304672960
10
35.7501277235
20
14.3077766573
30
5.4242828861
10
35.7501277235
20
14.4397175283
30
5.4180984762
10
35.7501277235
20
14.6156386903
30
5.4098525963
10
35.7501277235
20
14.8355401426
30
5.3995452465
10
35.7501277235
20
15.0114613044
30
5.3912993667
10
35.7501277235
20
15.0994218854
30
5.3871764267
11
35.7501277235
21
11.5994217834
31
5.5389882901
11
35.7501277235
21
11.9918181524
31
5.5235771980
11
35.7501277235
21
12.1880163369
31
5.5158716520
11
35.7501277235
21
12.3842145214
31
5.5081661060
11
35.7501277235
21
12.5804127059
31
5.5004605599
11
35.7501277235
21
12.7765921620
31
5.4922984722
11
35.7501277235
21
12.9727622538
31
5.4839081136
11
35.7501277235
21
13.1689323456
31
5.4755177551
11
35.7501277235
21
13.2670173916
31
5.4713225758
11
35.7501277235
21
13.3651024375
31
5.4671273965
11
35.7501277235
21
13.4141449604
31
5.4650298069
11
35.7501277235
21
13.4631874834
31
5.4629322172
11
35.7501277235
21
13.5122300063
31
5.4608346276
11
35.7501277235
21
13.5612725293
31
5.4587370379
11
35.7501277235
21
13.6103150523
31
5.4566394483
11
35.7501277235
21
13.6348363137
31
5.4555906535
11
35.7501277235
21
13.6470969445
31
5.4550662561
11
35.7501277235
21
13.6593575752
31
5.4545418587
11
35.7501277235
21
13.6716182060
31
5.4540174613
11
35.7501277235
21
13.6838788367
31
5.4534930638
11
35.7501277235
21
13.6869439944
31
5.4533619645
11
35.7501277235
21
13.6900091521
31
5.4532308651
11
35.7501277235
21
13.6915417309
31
5.4531653155
11
35.7501277235
21
13.6934269746
31
5.4530790446
11
35.7501277235
21
13.6975501268
31
5.4528857818
11
35.7501277235
21
13.7057964313
31
5.4524992562
11
35.7501277235
21
13.7140427357
31
5.4521127306
11
35.7501277235
21
13.7305353447
31
5.4513396794
11
35.7501277235
21
13.7470279536
31
5.4505666281
11
35.7501277235
21
13.7800131714
31
5.4490205256
11
35.7501277235
21
13.8129983893
31
5.4474744232
11
35.7501277235
21
13.8459836071
31
5.4459283207
11
35.7501277235
21
13.9119540428
31
5.4428361158
11
35.7501277235
21
13.9779244785
31
5.4397439108
11
35.7501277235
21
14.0438949142
31
5.4366517059
11
35.7501277235
21
14.1758357856
31
5.4304672960
11
35.7501277235
21
14.3077766570
31
5.4242828861
11
35.7501277235
21
14.4397175284
31
5.4180984762
11
35.7501277235
21
14.5716583998
31
5.4119140663
11
35.7501277235
21
14.8355401426
31
5.3995452465
11
35.7501277235
21
15.0994218854
31
5.3871764267
0
SPLINE
5
2EF
100
AcDbEntity
8
0
100
AcDbSpline
62
9
6
CONTINUOUS
70
0
71
3
72
47
73
43
74
41
42
0.0000001000
43
0.0000001000
44
0.0000000001
12
0.0000000000
22
3.1380563880
32
0.1489848485
13
0.0000000000
23
4.2233865940
33
0.1684206582
40
0.0000000000
40
0.0000000000
40
0.0000000000
40
0.0000000000
40
0.1250000000
40
0.1875000000
40
0.2500000000
40
0.3125000000
40
0.3750000000
40
0.4375000000
40
0.5000000000
40
0.5312500000
40
0.5625000000
40
0.5781250000
40
0.5937500000
40
0.6093750000
40
0.6250000000
40
0.6406250000
40
0.6484375000
40
0.6523437500
40
0.6562500000
40
0.6601562500
40
0.6640625000
40
0.6650390625
40
0.6660156250
40
0.6665039063
40
0.6669921875
40
0.6679687500
40
0.6699218750
40
0.6718750000
40
0.6757812500
40
0.6796875000
40
0.6875000000
40
0.6953125000
40
0.7031250000
40
0.7187500000
40
0.7343750000
40
0.7500000000
40
0.7812500000
40
0.8125000000
40
0.8437500000
40
0.8750000000
40
0.9375000000
40
1.0000000000
40
1.0000000000
40
1.0000000000
40
1.0000000000
10
35.2001277831
20
-14.4005782166
30
5.3871764318
10
35.2001277831
20
-14.2698258671
30
5.3933841338
10
35.2001277831
20
-14.0736971224
30
5.4026908662
10
35.2001277831
20
-13.8121930113
30
5.4151191251
10
35.2001277831
20
-13.6160627235
30
5.4243921136
10
35.2001277831
20
-13.4199408123
30
5.4338482836
10
35.2001277831
20
-13.2237875995
30
5.4426199333
10
35.2001277831
20
-13.0276259824
30
5.4512077905
10
35.2001277831
20
-12.8641598863
30
5.4584062917
10
35.2001277831
20
-12.7333866080
30
5.4641563005
10
35.2001277831
20
-12.6516533535
30
5.4677510595
10
35.2001277831
20
-12.5862667436
30
5.4706266565
10
35.2001277831
20
-12.5372267786
30
5.4727833826
10
35.2001277831
20
-12.4881868467
30
5.4749401003
10
35.2001277831
20
-12.4391467902
30
5.4770968235
10
35.2001277831
20
-12.3982804643
30
5.4788940815
10
35.2001277831
20
-12.3696732762
30
5.4801521834
10
35.2001277831
20
-12.3533274980
30
5.4808710656
10
35.2001277831
20
-12.3410648221
30
5.4814103208
10
35.2001277831
20
-12.3288149219
30
5.4819492182
10
35.2001277831
20
-12.3195916765
30
5.4823543947
10
35.2001277831
20
-12.3134985542
30
5.4826229517
10
35.2001277831
20
-12.3108768568
30
5.4827371728
10
35.2001277831
20
-12.3089728795
30
5.4828231322
10
35.2001277831
20
-12.3063616968
30
5.4829289034
10
35.2001277831
20
-12.3014635428
30
5.4831232080
10
35.2001277831
20
-12.2946376187
30
5.4833959834
10
35.2001277831
20
-12.2836203321
30
5.4838351078
10
35.2001277831
20
-12.2698815287
30
5.4843830945
10
35.2001277831
20
-12.2478811086
30
5.4852603866
10
35.2001277831
20
-12.2203868740
30
5.4863568257
10
35.2001277831
20
-12.1873910999
30
5.4876726279
10
35.2001277831
20
-12.1433976750
30
5.4894270046
10
35.2001277831
20
-12.0884055711
30
5.4916199845
10
35.2001277831
20
-12.0224151847
30
5.4942515564
10
35.2001277831
20
-11.9344279544
30
5.4977603204
10
35.2001277831
20
-11.8244439332
30
5.5021462749
10
35.2001277831
20
-11.6924631006
30
5.5074094205
10
35.2001277831
20
-11.5604822700
30
5.5126725661
10
35.2001277831
20
-11.3845078284
30
5.5196900935
10
35.2001277831
20
-11.1645397767
30
5.5284620028
10
35.2001277831
20
-10.9885653353
30
5.5354795302
10
35.2001277831
20
-10.9005781146
30
5.5389882939
11
35.2001277831
21
-14.4005782166
31
5.3871764318
11
35.2001277831
21
-14.0083211681
31
5.4057995378
11
35.2001277831
21
-13.8121926439
31
5.4151110909
11
35.2001277831
21
-13.6160641196
31
5.4244226439
11
35.2001277831
21
-13.4199355954
31
5.4337341969
11
35.2001277831
21
-13.2237861988
31
5.4425893012
11
35.2001277831
21
-13.0276263660
31
5.4512161812
11
35.2001277831
21
-12.8314665333
31
5.4598430612
11
35.2001277831
21
-12.7333866169
31
5.4641565012
11
35.2001277831
21
-12.6353067005
31
5.4684699412
11
35.2001277831
21
-12.5862667423
31
5.4706266612
11
35.2001277831
21
-12.5372267841
31
5.4727833812
11
35.2001277831
21
-12.4881868259
31
5.4749401012
11
35.2001277831
21
-12.4391468678
31
5.4770968212
11
35.2001277831
21
-12.3901069096
31
5.4792535412
11
35.2001277831
21
-12.3655869305
31
5.4803319012
11
35.2001277831
21
-12.3533269409
31
5.4808710812
11
35.2001277831
21
-12.3410669514
31
5.4814102612
11
35.2001277831
21
-12.3288069618
31
5.4819494412
11
35.2001277831
21
-12.3165469723
31
5.4824886212
11
35.2001277831
21
-12.3134819749
31
5.4826234162
11
35.2001277831
21
-12.3104169775
31
5.4827582112
11
35.2001277831
21
-12.3088844788
31
5.4828256087
11
35.2001277831
21
-12.3069988456
31
5.4829028990
11
35.2001277831
21
-12.3028744446
31
5.4830673723
11
35.2001277831
21
-12.2946256427
31
5.4833963189
11
35.2001277831
21
-12.2863768407
31
5.4837252655
11
35.2001277831
21
-12.2698792369
31
5.4843831587
11
35.2001277831
21
-12.2533816330
31
5.4850410519
11
35.2001277831
21
-12.2203864252
31
5.4863568382
11
35.2001277831
21
-12.1873912174
31
5.4876726246
11
35.2001277831
21
-12.1543960097
31
5.4889884110
11
35.2001277831
21
-12.0884055942
31
5.4916199838
11
35.2001277831
21
-12.0224151786
31
5.4942515566
11
35.2001277831
21
-11.9564247631
31
5.4968831294
11
35.2001277831
21
-11.8244439320
31
5.5021462749
11
35.2001277831
21
-11.6924631010
31
5.5074094205
11
35.2001277831
21
-11.5604822699
31
5.5126725661
11
35.2001277831
21
-11.4285014388
31
5.5179357117
11
35.2001277831
21
-11.1645397767
31
5.5284620028
11
35.2001277831
21
-10.9005781146
31
5.5389882939
0
SPLINE
5
2F0
100
AcDbEntity
8
0
100
AcDbSpline
62
9
6
CONTINUOUS
70
0
71
3
72
47
73
43
74
41
42
0.0000001000
43
0.0000001000
44
0.0000000001
12
0.0000000000
22
3.1380563880
32
0.1489848485
13
0.0000000000
23
4.2233865940
33
0.1684206582
40
0.0000000000
40
0.0000000000
40
0.0000000000
40
0.0000000000
40
0.1250000000
40
0.1875000000
40
0.2500000000
40
0.3125000000
40
0.3750000000
40
0.4375000000
40
0.5000000000
40
0.5312500000
40
0.5625000000
40
0.5781250000
40
0.5937500000
40
0.6093750000
40
0.6250000000
40
0.6406250000
40
0.6484375000
40
0.6523437500
40
0.6562500000
40
0.6601562500
40
0.6640625000
40
0.6650390625
40
0.6660156250
40
0.6665039063
40
0.6669921875
40
0.6679687500
40
0.6699218750
40
0.6718750000
40
0.6757812500
40
0.6796875000
40
0.6875000000
40
0.6953125000
40
0.7031250000
40
0.7187500000
40
0.7343750000
40
0.7500000000
40
0.7812500000
40
0.8125000000
40
0.8437500000
40
0.8750000000
40
0.9375000000
40
1.0000000000
40
1.0000000000
40
1.0000000000
40
1.0000000000
10
32.7001277235
20
-14.4005782166
30
5.3871764318
10
32.7001277235
20
-14.2698258671
30
5.3933841338
10
32.7001277235
20
-14.0736971224
30
5.4026908662
10
32.7001277235
20
-13.8121930113
30
5.4151191251
10
32.7001277235
20
-13.6160627235
30
5.4243921136
10
32.7001277235
20
-13.4199408123
30
5.4338482836
10
32.7001277235
20
-13.2237875995
30
5.4426199333
10
32.7001277235
20
-13.0276259824
30
5.4512077905
10
32.7001277235
20
-12.8641598863
30
5.4584062917
10
32.7001277235
20
-12.7333866080
30
5.4641563005
10
32.7001277235
20
-12.6516533535
30
5.4677510595
10
32.7001277235
20
-12.5862667436
30
5.4706266565
10
32.7001277235
20
-12.5372267786
30
5.4727833826
10
32.7001277235
20
-12.4881868467
30
5.4749401003
10
32.7001277235
20
-12.4391467902
30
5.4770968235
10
32.7001277235
20
-12.3982804643
30
5.4788940815
10
32.7001277235
20
-12.3696732762
30
5.4801521834
10
32.7001277235
20
-12.3533274980
30
5.4808710656
10
32.7001277235
20
-12.3410648221
30
5.4814103208
10
32.7001277235
20
-12.3288149219
30
5.4819492182
10
32.7001277235
20
-12.3195916765
30
5.4823543947
10
32.7001277235
20
-12.3134985542
30
5.4826229517
10
32.7001277235
20
-12.3108768568
30
5.4827371728
10
32.7001277235
20
-12.3089728795
30
5.4828231322
10
32.7001277235
20
-12.3063616968
30
5.4829289034
10
32.7001277235
20
-12.3014635428
30
5.4831232080
10
32.7001277235
20
-12.2946376187
30
5.4833959834
10
32.7001277235
20
-12.2836203321
30
5.4838351078
10
32.7001277235
20
-12.2698815287
30
5.4843830945
10
32.7001277235
20
-12.2478811086
30
5.4852603866
10
32.7001277235
20
-12.2203868740
30
5.4863568257
10
32.7001277235
20
-12.1873910999
30
5.4876726279
10
32.7001277235
20
-12.1433976750
30
5.4894270046
10
32.7001277235
20
-12.0884055711
30
5.4916199845
10
32.7001277235
20
-12.0224151847
30
5.4942515564
10
32.7001277235
20
-11.9344279544
30
5.4977603204
10
32.7001277235
20
-11.8244439332
30
5.5021462749
10
32.7001277235
20
-11.6924631006
30
5.5074094205
10
32.7001277235
20
-11.5604822700
30
5.5126725661
10
32.7001277235
20
-11.3845078284
30
5.5196900935
10
32.7001277235
20
-11.1645397767
30
5.5284620028
10
32.7001277235
20
-10.9885653353
30
5.5354795302
10
32.7001277235
20
-10.9005781146
30
5.5389882939
11
32.7001277235
21
-14.4005782166
31
5.3871764318
11
32.7001277235
21
-14.0083211681
31
5.4057995378
11
32.7001277235
21
-13.8121926439
31
5.4151110909
11
32.7001277235
21
-13.6160641196
31
5.4244226439
11
32.7001277235
21
-13.4199355954
31
5.4337341969
11
32.7001277235
21
-13.2237861988
31
5.4425893012
11
32.7001277235
21
-13.0276263660
31
5.4512161812
11
32.7001277235
21
-12.8314665333
31
5.4598430612
11
32.7001277235
21
-12.7333866169
31
5.4641565012
11
32.7001277235
21
-12.6353067005
31
5.4684699412
11
32.7001277235
21
-12.5862667423
31
5.4706266612
11
32.7001277235
21
-12.5372267841
31
5.4727833812
11
32.7001277235
21
-12.4881868259
31
5.4749401012
11
32.7001277235
21
-12.4391468678
31
5.4770968212
11
32.7001277235
21
-12.3901069096
31
5.4792535412
11
32.7001277235
21
-12.3655869305
31
5.4803319012
11
32.7001277235
21
-12.3533269409
31
5.4808710812
11
32.7001277235
21
-12.3410669514
31
5.4814102612
11
32.7001277235
21
-12.3288069618
31
5.4819494412
11
32.7001277235
21
-12.3165469723
31
5.4824886212
11
32.7001277235
21
-12.3134819749
31
5.4826234162
11
32.7001277235
21
-12.3104169775
31
5.4827582112
11
32.7001277235
21
-12.3088844788
31
5.4828256087
11
32.7001277235
21
-12.3069988456
31
5.4829028990
11
32.7001277235
21
-12.3028744446
31
5.4830673723
11
32.7001277235
21
-12.2946256427
31
5.4833963189
11
32.7001277235
21
-12.2863768407
31
5.4837252655
11
32.7001277235
21
-12.2698792369
31
5.4843831587
11
32.7001277235
21
-12.2533816330
31
5.4850410519
11
32.7001277235
21
-12.2203864252
31
5.4863568382
11
32.7001277235
21
-12.1873912174
31
5.4876726246
11
32.7001277235
21
-12.1543960097
31
5.4889884110
11
32.7001277235
21
-12.0884055942
31
5.4916199838
11
32.7001277235
21
-12.0224151786
31
5.4942515566
11
32.7001277235
21
-11.9564247631
31
5.4968831294
11
32.7001277235
21
-11.8244439320
31
5.5021462749
11
32.7001277235
21
-11.6924631010
31
5.5074094205
11
32.7001277235
21
-11.5604822699
31
5.5126725661
11
32.7001277235
21
-11.4285014388
31
5.5179357117
11
32.7001277235
21
-11.1645397767
31
5.5284620028
11
32.7001277235
21
-10.9005781146
31
5.5389882939
0
SPLINE
5
2F1
100
AcDbEntity
8
0
100
AcDbSpline
62
9
6
CONTINUOUS
70
0
71
3
72
8
73
4
74
2
42
0.0000001000
43
0.0000001000
44
0.0000000001
12
-0.5000200402
22
-0.5000200924
32
-0.0237777938
13
-0.4999796681
23
-0.4999797203
33
-0.0246121024
40
0.0000000000
40
0.0000000000
40
0.0000000000
40
0.0000000000
40
1.0000000000
40
1.0000000000
40
1.0000000000
40
1.0000000000
10
31.7001277831
20
-13.9005781943
30
5.4113713855
10
31.5334544363
20
-14.0672515584
30
5.4034454542
10
31.3667877023
20
-14.2339183099
30
5.3953804659
10
31.2001278129
20
-14.4005782166
30
5.3871764318
11
31.7001277831
21
-13.9005781943
31
5.4113713855
11
31.2001278129
21
-14.4005782166
31
5.3871764318
0
SPLINE
5
2F2
100
AcDbEntity
8
0
100
AcDbSpline
62
9
6
CONTINUOUS
70
0
71
3
72
47
73
43
74
41
42
0.0000001000
43
0.0000001000
44
0.0000000001
12
0.0000000000
22
-2.0926406357
32
-0.0856829086
13
0.0000000000
23
-2.9073596269
33
-0.1311893726
40
0.0000000000
40
0.0000000000
40
0.0000000000
40
0.0000000000
40
0.0625000000
40
0.1250000000
40
0.1875000000
40
0.2500000000
40
0.3125000000
40
0.3437500000
40
0.3750000000
40
0.4062500000
40
0.4218750000
40
0.4375000000
40
0.4531250000
40
0.4687500000
40
0.4765625000
40
0.4843750000
40
0.4882812500
40
0.4921875000
40
0.4960937500
40
0.4980468750
40
0.4990234375
40
0.5000000000
40
0.5009765625
40
0.5019531250
40
0.5039062500
40
0.5078125000
40
0.5117187500
40
0.5156250000
40
0.5234375000
40
0.5312500000
40
0.5468750000
40
0.5625000000
40
0.5781250000
40
0.5937500000
40
0.6250000000
40
0.6562500000
40
0.6875000000
40
0.7500000000
40
0.8125000000
40
0.8750000000
40
0.9375000000
40
1.0000000000
40
1.0000000000
40
1.0000000000
40
1.0000000000
10
31.7001277831
20
-11.4005781868
30
5.5198075202
10
31.7001277831
20
-11.4441748667
30
5.5180224596
10
31.7001277831
20
-11.5313682266
30
5.5144523384
10
31.7001277831
20
-11.6621582663
30
5.5090971566
10
31.7001277831
20
-11.7929483060
30
5.5037419748
10
31.7001277831
20
-11.9237383457
30
5.4983867931
10
31.7001277831
20
-12.0327300457
30
5.4939241416
10
31.7001277831
20
-12.1199234051
30
5.4903540204
10
31.7001277831
20
-12.1853184263
30
5.4876764294
10
31.7001277831
20
-12.2398142718
30
5.4854451039
10
31.7001277831
20
-12.2834109607
30
5.4836600428
10
31.7001277831
20
-12.3161084431
30
5.4823212489
10
31.7001277831
20
-12.3488060567
30
5.4809824477
10
31.7001277831
20
-12.3760536589
30
5.4798668028
10
31.7001277831
20
-12.3978526570
30
5.4789742358
10
31.7001277831
20
-12.4114749447
30
5.4784164979
10
31.7001277831
20
-12.4223775524
30
5.4779700407
10
31.7001277831
20
-12.4305414272
30
5.4776359285
10
31.7001277831
20
-12.4373862686
30
5.4773551774
10
31.7001277831
20
-12.4420959946
30
5.4771632129
10
31.7001277831
20
-12.4449147765
30
5.4770463968
10
31.7001277831
20
-12.4466696655
30
5.4769788478
10
31.7001277831
20
-12.4497975893
30
5.4768346075
10
31.7001277831
20
-12.4534892244
30
5.4766690378
10
31.7001277831
20
-12.4601727281
30
5.4763668271
10
31.7001277831
20
-12.4696039293
30
5.4759416138
10
31.7001277831
20
-12.4809713054
30
5.4754285687
10
31.7001277831
20
-12.4961103658
30
5.4747454827
10
31.7001277831
20
-12.5150401631
30
5.4738912917
10
31.7001277831
20
-12.5453245012
30
5.4725247725
10
31.7001277831
20
-12.5831810690
30
5.4708165595
10
31.7001277831
20
-12.6286084595
30
5.4687667314
10
31.7001277831
20
-12.6740359813
30
5.4667168959
10
31.7001277831
20
-12.7346059644
30
5.4639837844
10
31.7001277831
20
-12.8103184592
30
5.4605673943
10
31.7001277831
20
-12.9011734461
30
5.4564677265
10
31.7001277831
20
-13.0223134310
30
5.4510015026
10
31.7001277831
20
-13.1737384114
30
5.4441687228
10
31.7001277831
20
-13.3554483881
30
5.4359693870
10
31.7001277831
20
-13.5371583648
30
5.4277700512
10
31.7001277831
20
-13.7188683415
30
5.4195707154
10
31.7001277831
20
-13.8400083259
30
5.4141044915
10
31.7001277831
20
-13.9005783181
30
5.4113713796
11
31.7001277831
21
-11.4005781868
31
5.5198075202
11
31.7001277831
21
-11.5313682266
31
5.5144523384
11
31.7001277831
21
-11.6621582663
31
5.5090971566
11
31.7001277831
21
-11.7929483060
31
5.5037419749
11
31.7001277831
21
-11.9237383458
31
5.4983867931
11
31.7001277831
21
-12.0545283855
31
5.4930316113
11
31.7001277831
21
-12.1199234053
31
5.4903540204
11
31.7001277831
21
-12.1853184252
31
5.4876764295
11
31.7001277831
21
-12.2507134451
31
5.4849988386
11
31.7001277831
21
-12.2834109550
31
5.4836600432
11
31.7001277831
21
-12.3161084649
31
5.4823212477
11
31.7001277831
21
-12.3488059749
31
5.4809824523
11
31.7001277831
21
-12.3815034848
31
5.4796436568
11
31.7001277831
21
-12.3978522398
31
5.4789742591
11
31.7001277831
21
-12.4142009947
31
5.4783048614
11
31.7001277831
21
-12.4223753722
31
5.4779701625
11
31.7001277831
21
-12.4305497497
31
5.4776354637
11
31.7001277831
21
-12.4387241272
31
5.4773007648
11
31.7001277831
21
-12.4428113159
31
5.4771334154
11
31.7001277831
21
-12.4448549103
31
5.4770497406
11
31.7001277831
21
-12.4468985047
31
5.4769660659
11
31.7001277831
21
-12.4497377231
31
5.4768379513
11
31.7001277831
21
-12.4525769414
31
5.4767098367
11
31.7001277831
21
-12.4582553782
31
5.4764536074
11
31.7001277831
21
-12.4696122518
31
5.4759411490
11
31.7001277831
21
-12.4809691253
31
5.4754286905
11
31.7001277831
21
-12.4923259988
31
5.4749162320
11
31.7001277831
21
-12.5150397459
31
5.4738913150
11
31.7001277831
21
-12.5377534930
31
5.4728663980
11
31.7001277831
21
-12.5831809872
31
5.4708165641
11
31.7001277831
21
-12.6286084814
31
5.4687667301
11
31.7001277831
21
-12.6740359755
31
5.4667168962
11
31.7001277831
21
-12.7194634697
31
5.4646670622
11
31.7001277831
21
-12.8103184580
31
5.4605673943
11
31.7001277831
21
-12.9011734464
31
5.4564677265
11
31.7001277831
21
-12.9920284347
31
5.4523680586
11
31.7001277831
21
-13.1737384114
31
5.4441687228
11
31.7001277831
21
-13.3554483881
31
5.4359693870
11
31.7001277831
21
-13.5371583648
31
5.4277700512
11
31.7001277831
21
-13.7188683415
31
5.4195707154
11
31.7001277831
21
-13.9005783181
31
5.4113713796
0
SPLINE
5
2F3
100
AcDbEntity
8
0
100
AcDbSpline
62
9
6
CONTINUOUS
70
0
71
3
72
8
73
4
74
2
42
0.0000001000
43
0.0000001000
44
0.0000000001
12
0.5000158500
22
-0.5000158500
32
-0.0187637923
13
0.4999838586
23
-0.4999838586
33
-0.0195977386
40
0.0000000000
40
0.0000000000
40
0.0000000000
40
0.0000000000
40
1.0000000000
40
1.0000000000
40
1.0000000000
40
1.0000000000
10
31.2001278129
20
-10.9005782166
30
5.5389882901
10
31.3667997629
20
-11.0672501666
30
5.5327336927
10
31.5334664969
20
-11.2339169006
30
5.5263400997
10
31.7001277831
20
-11.4005781868
30
5.5198075202
11
31.2001278129
21
-10.9005782166
31
5.5389882901
11
31.7001277831
21
-11.4005781868
31
5.5198075202
0
SPLINE
5
2F4
100
AcDbEntity
8
0
100
AcDbSpline
62
9
6
CONTINUOUS
70
0
71
3
72
24
73
20
74
18
42
0.0000001000
43
0.0000001000
44
0.0000000001
12
-0.0139618524
22
0.8001176839
32
0.0000000000
13
0.8001176097
23
0.0139661048
33
0.0000000000
40
0.0000000000
40
0.0000000000
40
0.0000000000
40
0.0000000000
40
0.0922216373
40
0.1836544222
40
0.2735188321
40
0.3610487332
40
0.4454979229
40
0.5261465039
40
0.6023070391
40
0.6733304351
40
0.7386115108
40
0.7975942123
40
0.8497764479
40
0.8947145449
40
0.9320273981
40
0.9614005969
40
0.9825917089
40
0.9954434651
40
1.0000000000
40
1.0000000000
40
1.0000000000
40
1.0000000000
10
-22.3547027848
20
21.3229699106
30
0.0000000000
10
-22.3551319798
20
21.3475659649
30
0.0000000000
10
-22.3559473587
20
21.3965483778
30
0.0000000000
10
-22.3570435276
20
21.4695003637
30
0.0000000000
10
-22.3580017270
20
21.5412026838
30
0.0000000000
10
-22.3588138524
20
21.6110438302
30
0.0000000000
10
-22.3594730991
20
21.6784282121
30
0.0000000000
10
-22.3599739619
20
21.7427810521
30
0.0000000000
10
-22.3603125478
20
21.8035539143
30
0.0000000000
10
-22.3604858042
20
21.8602272584
30
0.0000000000
10
-22.3604944136
20
21.9123219933
30
0.0000000000
10
-22.3603336889
20
21.9593802639
30
0.0000000000
10
-22.3600231863
20
22.0010437639
30
0.0000000000
10
-22.3595162051
20
22.0368270069
30
0.0000000000
10
-22.3589703189
20
22.0668033403
30
0.0000000000
10
-22.3579933679
20
22.0896923192
30
0.0000000000
10
-22.3576101138
20
22.1078262242
30
0.0000000000
10
-22.3558249677
20
22.1158739746
30
0.0000000000
10
-22.3559180394
20
22.1228268544
30
0.0000000000
10
-22.3547027848
20
22.1228480668
30
0.0000000000
11
-22.3547027848
21
21.3229699106
31
0.0000000000
11
-22.3559308514
21
21.3967590881
31
0.0000000000
11
-22.3570293725
21
21.4699189664
31
0.0000000000
11
-22.3579889796
21
21.5418256131
31
0.0000000000
11
-22.3588014889
21
21.6118657839
31
0.0000000000
11
-22.3594599710
21
21.6794421522
31
0.0000000000
11
-22.3599588101
21
21.7439784038
31
0.0000000000
11
-22.3602937520
21
21.8049241512
31
0.0000000000
11
-22.3604619401
21
21.8617596285
31
0.0000000000
11
-22.3604619401
21
21.9140001232
31
0.0000000000
11
-22.3602937520
21
21.9612001106
31
0.0000000000
11
-22.3599588101
21
22.0029570529
31
0.0000000000
11
-22.3594599710
21
22.0389148327
31
0.0000000000
11
-22.3588014890
21
22.0687667897
31
0.0000000000
11
-22.3579889797
21
22.0922583363
31
0.0000000000
11
-22.3570293725
21
22.1091891284
31
0.0000000000
11
-22.3559308514
21
22.1194147745
31
0.0000000000
11
-22.3547027848
21
22.1228480668
31
0.0000000000
0
SPLINE
5
2F5
100
AcDbEntity
8
0
100
AcDbSpline
62
9
6
CONTINUOUS
70
0
71
3
72
19
73
15
74
13
42
0.0000001000
43
0.0000001000
44
0.0000000001
12
0.0000000000
22
-0.2001112062
32
0.0000000000
13
0.2001112062
23
-0.0000000000
33
0.0000000000
40
0.0000000000
40
0.0000000000
40
0.0000000000
40
0.0000000000
40
0.1304537413
40
0.2586760716
40
0.3824737972
40
0.4997295119
40
0.6084378905
40
0.7067401018
40
0.7929557990
40
0.8656122483
40
0.9234704244
40
0.9655488553
40
0.9911516910
40
1.0000000000
40
1.0000000000
40
1.0000000000
40
1.0000000000
10
-23.7315547096
20
0.6994217834
30
0.0000000000
10
-23.7315547096
20
0.6907200315
30
0.0000000000
10
-23.7315351279
20
0.6734653872
30
0.0000000000
10
-23.7314473941
20
0.6479529858
30
0.0000000000
10
-23.7313026587
20
0.6233216535
30
0.0000000000
10
-23.7311046068
20
0.5999908728
30
0.0000000000
10
-23.7308533459
20
0.5783664064
30
0.0000000000
10
-23.7305651700
20
0.5587967698
30
0.0000000000
10
-23.7302096926
20
0.5416837810
30
0.0000000000
10
-23.7299015411
20
0.5271212062
30
0.0000000000
10
-23.7293530450
20
0.5159075985
30
0.0000000000
10
-23.7293179208
20
0.5068648139
30
0.0000000000
10
-23.7282852725
20
0.5029862805
30
0.0000000000
10
-23.7286544436
20
0.4994217834
30
0.0000000000
10
-23.7280642283
20
0.4994217834
30
0.0000000000
11
-23.7315547096
21
0.6994217834
31
0.0000000000
11
-23.7315248481
21
0.6733165449
31
0.0000000000
11
-23.7314357744
21
0.6476579743
31
0.0000000000
11
-23.7312890126
21
0.6228850969
31
0.0000000000
11
-23.7310870738
21
0.5994217834
31
0.0000000000
11
-23.7308334133
21
0.5776694976
31
0.0000000000
11
-23.7305323713
21
0.5580004271
31
0.0000000000
11
-23.7301890987
21
0.5407511153
31
0.0000000000
11
-23.7298094690
21
0.5262167026
31
0.0000000000
11
-23.7293999777
21
0.5146458769
31
0.0000000000
11
-23.7289676314
21
0.5062366181
31
0.0000000000
11
-23.7285198276
21
0.5011328111
31
0.0000000000
11
-23.7280642283
21
0.4994217834
31
0.0000000000
0
SPLINE
5
2F6
100
AcDbEntity
8
0
100
AcDbSpline
62
9
6
CONTINUOUS
70
0
71
3
72
19
73
15
74
13
42
0.0000001000
43
0.0000001000
44
0.0000000001
12
-0.0000000001
22
0.2001112062
32
0.0000000000
13
0.2001112062
23
-0.0000000000
33
0.0000000000
40
0.0000000000
40
0.0000000000
40
0.0000000000
40
0.0000000000
40
0.1304537553
40
0.2586760980
40
0.3824738332
40
0.4997295541
40
0.6084379347
40
0.7067401441
40
0.7929558357
40
0.8656122767
40
0.9234704433
40
0.9655488650
40
0.9911516937
40
1.0000000000
40
1.0000000000
40
1.0000000000
40
1.0000000000
10
-23.7315547096
20
-0.0005782166
30
0.0000000000
10
-23.7315547096
20
0.0081235361
30
0.0000000000
10
-23.7315351278
20
0.0253781822
30
0.0000000000
10
-23.7314473941
20
0.0508905860
30
0.0000000000
10
-23.7313026586
20
0.0755219202
30
0.0000000000
10
-23.7311046068
20
0.0988527021
30
0.0000000000
10
-23.7308533458
20
0.1204771689
30
0.0000000000
10
-23.7305651699
20
0.1400468051
30
0.0000000000
10
-23.7302096925
20
0.1571597929
30
0.0000000000
10
-23.7299015409
20
0.1717223662
30
0.0000000000
10
-23.7293530448
20
0.1829359721
30
0.0000000000
10
-23.7293179206
20
0.1919787548
30
0.0000000000
10
-23.7282852726
20
0.1958572873
30
0.0000000000
10
-23.7286544434
20
0.1994217834
30
0.0000000000
10
-23.7280642283
20
0.1994217834
30
0.0000000000
11
-23.7315547096
21
-0.0005782166
31
0.0000000000
11
-23.7315248481
21
0.0255270246
31
0.0000000000
11
-23.7314357743
21
0.0511855977
31
0.0000000000
11
-23.7312890125
21
0.0759584771
31
0.0000000000
11
-23.7310870737
21
0.0994217918
31
0.0000000000
11
-23.7308334132
21
0.1211740780
31
0.0000000000
11
-23.7305323712
21
0.1408431481
31
0.0000000000
11
-23.7301890986
21
0.1580924588
31
0.0000000000
11
-23.7298094688
21
0.1726268698
31
0.0000000000
11
-23.7293999776
21
0.1841976937
31
0.0000000000
11
-23.7289676312
21
0.1926069506
31
0.0000000000
11
-23.7285198275
21
0.1977107562
31
0.0000000000
11
-23.7280642283
21
0.1994217834
31
0.0000000000
0
SPLINE
5
2F7
100
AcDbEntity
8
0
100
AcDbSpline
62
9
6
CONTINUOUS
70
0
71
3
72
24
73
20
74
18
42
0.0000001000
43
0.0000001000
44
0.0000000001
12
-0.0139618522
22
-0.8001176839
32
0.0000000000
13
0.8001176097
23
-0.0139661048
33
0.0000000000
40
0.0000000000
40
0.0000000000
40
0.0000000000
40
0.0000000000
40
0.0922216386
40
0.1836544246
40
0.2735188354
40
0.3610487371
40
0.4454979271
40
0.5261465083
40
0.6023070434
40
0.6733304390
40
0.7386115142
40
0.7975942152
40
0.8497764503
40
0.8947145466
40
0.9320273993
40
0.9614005976
40
0.9825917093
40
0.9954434652
40
1.0000000000
40
1.0000000000
40
1.0000000000
40
1.0000000000
10
-22.3547027848
20
-20.6241263439
30
0.0000000000
10
-22.3551319798
20
-20.6487223985
30
0.0000000000
10
-22.3559473587
20
-20.6977048121
30
0.0000000000
10
-22.3570435276
20
-20.7706567988
30
0.0000000000
10
-22.3580017270
20
-20.8423591196
30
0.0000000000
10
-22.3588138523
20
-20.9122002665
30
0.0000000000
10
-22.3594730991
20
-20.9795846486
30
0.0000000000
10
-22.3599739619
20
-21.0439374887
30
0.0000000000
10
-22.3603125477
20
-21.1047103509
30
0.0000000000
10
-22.3604858042
20
-21.1613836948
30
0.0000000000
10
-22.3604944135
20
-21.2134784293
30
0.0000000000
10
-22.3603336888
20
-21.2605366995
30
0.0000000000
10
-22.3600231862
20
-21.3022001991
30
0.0000000000
10
-22.3595162050
20
-21.3379834415
30
0.0000000000
10
-22.3589703188
20
-21.3679597746
30
0.0000000000
10
-22.3579933678
20
-21.3908487531
30
0.0000000000
10
-22.3576101138
20
-21.4089826578
30
0.0000000000
10
-22.3558249676
20
-21.4170304080
30
0.0000000000
10
-22.3559180394
20
-21.4239832877
30
0.0000000000
10
-22.3547027848
20
-21.4240045000
30
0.0000000000
11
-22.3547027848
21
-20.6241263439
31
0.0000000000
11
-22.3559308514
21
-20.6979155224
31
0.0000000000
11
-22.3570293725
21
-20.7710754016
31
0.0000000000
11
-22.3579889796
21
-20.8429820490
31
0.0000000000
11
-22.3588014889
21
-20.9130222203
31
0.0000000000
11
-22.3594599710
21
-20.9805985889
31
0.0000000000
11
-22.3599588100
21
-21.0451348405
31
0.0000000000
11
-22.3602937519
21
-21.1060805879
31
0.0000000000
11
-22.3604619400
21
-21.1629160649
31
0.0000000000
11
-22.3604619400
21
-21.2151565593
31
0.0000000000
11
-22.3602937519
21
-21.2623565462
31
0.0000000000
11
-22.3599588100
21
-21.3041134881
31
0.0000000000
11
-22.3594599710
21
-21.3400712674
31
0.0000000000
11
-22.3588014889
21
-21.3699232240
31
0.0000000000
11
-22.3579889796
21
-21.3934147701
31
0.0000000000
11
-22.3570293725
21
-21.4103455619
31
0.0000000000
11
-22.3559308514
21
-21.4205712078
31
0.0000000000
11
-22.3547027848
21
-21.4240045000
31
0.0000000000
0
SPLINE
5
2F8
100
AcDbEntity
8
0
100
AcDbSpline
62
9
6
CONTINUOUS
70
0
71
3
72
13
73
9
74
7
42
0.0000001000
43
0.0000001000
44
0.0000000001
12
0.0233804002
22
-19.9867365126
32
0.0000000000
13
1.3574687247
23
-19.9405983292
33
0.0000000000
40
0.0000000000
40
0.0000000000
40
0.0000000000
40
0.0000000000
40
0.1666661786
40
0.3333329232
40
0.4999996783
40
0.6666664462
40
0.8333332254
40
1.0000000000
40
1.0000000000
40
1.0000000000
40
1.0000000000
10
-23.7315547096
20
-0.0005782166
30
0.0000000000
10
-23.7302558023
20
-1.1109492157
30
0.0000000000
10
-23.7152955071
20
-3.3317003745
30
0.0000000000
10
-23.6557702695
20
-6.6623569007
30
0.0000000000
10
-23.5591674847
20
-9.9921521880
30
0.0000000000
10
-23.4254990899
20
-13.3206658270
30
0.0000000000
10
-23.2547820173
20
-16.6474811794
30
0.0000000000
10
-23.1162846920
20
-18.8639641302
30
0.0000000000
10
-23.0408697139
20
-19.9717758662
30
0.0000000000
11
-23.7315547096
21
-0.0005782166
31
0.0000000000
11
-23.7091147602
21
-3.3316179092
31
0.0000000000
11
-23.6495906919
21
-6.6622126373
31
0.0000000000
11
-23.5529898874
21
-9.9919384559
31
0.0000000000
11
-23.4193243146
21
-13.3203826829
31
0.0000000000
11
-23.2486105302
21
-16.6471327116
31
0.0000000000
11
-23.0408697139
21
-19.9717758662
31
0.0000000000
0
SPLINE
5
2F9
100
AcDbEntity
8
0
100
AcDbSpline
62
9
6
CONTINUOUS
70
0
71
3
72
13
73
9
74
7
42
0.0000001000
43
0.0000001000
44
0.0000000001
12
-1.3574687213
22
-19.9405983295
32
0.0000000000
13
-0.0233803992
23
-19.9867365126
33
0.0000000000
40
0.0000000000
40
0.0000000000
40
0.0000000000
40
0.0000000000
40
0.1666667658
40
0.3333335467
40
0.5000003164
40
0.6666670732
40
0.8333338196
40
1.0000000000
40
1.0000000000
40
1.0000000000
40
1.0000000000
10
-23.0408697139
20
20.6706194330
30
0.0000000000
10
-23.1162846878
20
19.5628077555
30
0.0000000000
10
-23.2547820112
20
17.3463248521
30
0.0000000000
10
-23.4254990835
20
14.0195095353
30
0.0000000000
10
-23.5591674812
20
10.6909958614
30
0.0000000000
10
-23.6557702680
20
7.3612005385
30
0.0000000000
10
-23.7152955068
20
4.0305439769
30
0.0000000000
10
-23.7302558024
20
1.8097927943
30
0.0000000000
10
-23.7315547096
20
0.6994217834
30
0.0000000000
11
-23.0408697139
21
20.6706194330
31
0.0000000000
11
-23.2486105203
21
17.3459764540
31
0.0000000000
11
-23.4193243081
21
14.0192263918
31
0.0000000000
11
-23.5529898837
21
10.6907821293
31
0.0000000000
11
-23.6495906902
21
7.3610562752
31
0.0000000000
11
-23.7091147598
21
4.0304615116
31
0.0000000000
11
-23.7315547096
21
0.6994217834
31
0.0000000000
0
SPLINE
5
2FA
100
AcDbEntity
8
0
100
AcDbSpline
62
9
6
CONTINUOUS
70
0
71
3
72
27
73
23
74
21
42
0.0000001000
43
0.0000001000
44
0.0000000001
12
-1.0393632131
22
-0.0181479378
32
0.0000000000
13
-0.0706092453
23
-1.0371208082
33
0.0000000000
40
0.0000000000
40
0.0000000000
40
0.0000000000
40
0.0000000000
40
0.0499934450
40
0.0999951544
40
0.1499971145
40
0.1999989020
40
0.2500006364
40
0.3000023780
40
0.3500039926
40
0.4000054534
40
0.4500067938
40
0.5000079875
40
0.5500090107
40
0.6000098448
40
0.6500105018
40
0.7000110416
40
0.7500114607
40
0.8000116555
40
0.8500117175
40
0.9000118029
40
0.9500115182
40
1.0000000000
40
1.0000000000
40
1.0000000000
40
1.0000000000
10
-22.3547027848
20
21.3229699106
30
0.0000000000
10
-22.3720232340
20
21.3226674847
30
0.0000000000
10
-22.4066583131
20
21.3207755077
30
0.0000000000
10
-22.4582476176
20
21.3140909519
30
0.0000000000
10
-22.5092044926
20
21.3035960650
30
0.0000000000
10
-22.5592413398
20
21.2893489575
30
0.0000000000
10
-22.6080832111
20
21.2714282728
30
0.0000000000
10
-22.6554605527
20
21.2499328053
30
0.0000000000
10
-22.7011121904
20
21.2249811100
30
0.0000000000
10
-22.7447863720
20
21.1967108055
30
0.0000000000
10
-22.7862423118
20
21.1652777944
30
0.0000000000
10
-22.8252514524
20
21.1308554145
30
0.0000000000
10
-22.8615987216
20
21.0936334987
30
0.0000000000
10
-22.8950837396
20
21.0538173064
30
0.0000000000
10
-22.9255219307
20
21.0116263766
30
0.0000000000
10
-22.9527455167
20
20.9672933217
30
0.0000000000
10
-22.9766044242
20
20.9210626195
30
0.0000000000
10
-22.9969671330
20
20.8731891036
30
0.0000000000
10
-23.0137214459
20
20.8239369627
30
0.0000000000
10
-23.0267749701
20
20.7735767710
30
0.0000000000
10
-23.0360550753
20
20.7223937622
30
0.0000000000
10
-23.0396931643
20
20.6879007978
30
0.0000000000
10
-23.0408697139
20
20.6706194330
30
0.0000000000
11
-22.3547027848
21
21.3229699106
31
0.0000000000
11
-22.4065946570
21
21.3201347042
31
0.0000000000
11
-22.4581416488
21
21.3134559728
31
0.0000000000
11
-22.5090512112
21
21.3029706804
31
0.0000000000
11
-22.5590422068
21
21.2887366854
31
0.0000000000
11
-22.6078391297
21
21.2708324727
31
0.0000000000
11
-22.6551729887
21
21.2493567403
31
0.0000000000
11
-22.7007826800
21
21.2244279694
31
0.0000000000
11
-22.7444167191
21
21.1961836498
31
0.0000000000
11
-22.7858345708
21
21.1647795180
31
0.0000000000
11
-22.8248078711
21
21.1303887643
31
0.0000000000
11
-22.8611217446
21
21.0932010478
31
0.0000000000
11
-22.8945759902
21
21.0534214464
31
0.0000000000
11
-22.9249861992
21
21.0112693020
31
0.0000000000
11
-22.9521847704
21
20.9669769874
31
0.0000000000
11
-22.9760217692
21
20.9207887219
31
0.0000000000
11
-22.9963657575
21
20.8729592720
31
0.0000000000
11
-23.0131046529
21
20.8237522686
31
0.0000000000
11
-23.0261462146
21
20.7734388511
31
0.0000000000
11
-23.0354185270
21
20.7222968277
31
0.0000000000
11
-23.0408697139
21
20.6706194330
31
0.0000000000
0
SPLINE
5
2FB
100
AcDbEntity
8
0
100
AcDbSpline
62
9
6
CONTINUOUS
70
0
71
3
72
24
73
20
74
18
42
0.0000001000
43
0.0000001000
44
0.0000000001
12
0.7860382775
22
-0.0002958333
32
0.0000000000
13
0.7860382989
23
-0.0002299655
33
0.0000000000
40
0.0000000000
40
0.0000000000
40
0.0000000000
40
0.0000000000
40
0.0151214080
40
0.0339176134
40
0.0600358983
40
0.0932820409
40
0.1334088354
40
0.1801173680
40
0.2330599553
40
0.2918427454
40
0.3560281902
40
0.4251385051
40
0.4986595825
40
0.5760442445
40
0.6567159489
40
0.7400745767
40
0.8255007554
40
0.9123555029
40
1.0000000000
40
1.0000000000
40
1.0000000000
40
1.0000000000
10
-24.5175930065
20
0.6996552735
30
0.0000000000
10
-24.5136310046
20
0.6996537823
30
0.0000000000
10
-24.5047441571
20
0.6996507135
30
0.0000000000
10
-24.4890139854
20
0.6996458802
30
0.0000000000
10
-24.4685349018
20
0.6996395558
30
0.0000000000
10
-24.4424669316
20
0.6996316582
30
0.0000000000
10
-24.4110040536
20
0.6996221781
30
0.0000000000
10
-24.3743804557
20
0.6996112124
30
0.0000000000
10
-24.3328687487
20
0.6995988333
30
0.0000000000
10
-24.2867778676
20
0.6995851356
30
0.0000000000
10
-24.2364508355
20
0.6995702194
30
0.0000000000
10
-24.1822621840
20
0.6995541953
30
0.0000000000
10
-24.1246151690
20
0.6995371817
30
0.0000000000
10
-24.0639389223
20
0.6995193045
30
0.0000000000
10
-24.0006851119
20
0.6995006963
30
0.0000000000
10
-23.9353243214
20
0.6994814943
30
0.0000000000
10
-23.8683434947
20
0.6994618425
30
0.0000000000
10
-23.8002397156
20
0.6994418835
30
0.0000000000
10
-23.7545186858
20
0.6994285018
30
0.0000000000
10
-23.7315547086
20
0.6994217834
30
0.0000000000
11
-24.5175930065
21
0.6996552735
31
0.0000000000
11
-24.5057070009
21
0.6996511132
31
0.0000000000
11
-24.4909324637
21
0.6996464664
31
0.0000000000
11
-24.4704024915
21
0.6996401502
31
0.0000000000
11
-24.4442697502
21
0.6996322109
31
0.0000000000
11
-24.4127285530
21
0.6996227069
31
0.0000000000
11
-24.3760138576
21
0.6996117084
31
0.0000000000
11
-24.3343989564
21
0.6995992963
31
0.0000000000
11
-24.2881934321
21
0.6995855622
31
0.0000000000
11
-24.2377412144
21
0.6995706073
31
0.0000000000
11
-24.1834178600
21
0.6995545421
31
0.0000000000
11
-24.1256274775
21
0.6995374852
31
0.0000000000
11
-24.0648001694
21
0.6995195627
31
0.0000000000
11
-24.0013891201
21
0.6995009075
31
0.0000000000
11
-23.9358660461
21
0.6994816577
31
0.0000000000
11
-23.8687177980
21
0.6994619560
31
0.0000000000
11
-23.8004466401
21
0.6994419485
31
0.0000000000
11
-23.7315547086
21
0.6994217834
31
0.0000000000
0
SPLINE
5
2FC
100
AcDbEntity
8
0
100
AcDbSpline
62
9
6
CONTINUOUS
70
0
71
3
72
18
73
14
74
12
42
0.0000001000
43
0.0000001000
44
0.0000000001
12
0.0000000000
22
-0.2000915995
32
0.0000000000
13
0.2000915995
23
-0.0000000000
33
0.0000000000
40
0.0000000000
40
0.0000000000
40
0.0000000000
40
0.0000000000
40
0.1304665243
40
0.2587014190
40
0.3825112753
40
0.4997784798
40
0.6084975105
40
0.7068093543
40
0.7930334997
40
0.8656970685
40
0.9235609141
40
0.9656434682
40
1.0000000000
40
1.0000000000
40
1.0000000000
40
1.0000000000
10
-23.7315547096
20
0.6994217834
30
0.0000000000
10
-23.7315547096
20
0.6907200315
30
0.0000000000
10
-23.7315351826
20
0.6734653089
30
0.0000000000
10
-23.7314472088
20
0.6479532509
30
0.0000000000
10
-23.7313033063
20
0.6233207270
30
0.0000000000
10
-23.7311023993
20
0.5999940306
30
0.0000000000
10
-23.7308606277
20
0.5783559897
30
0.0000000000
10
-23.7305420652
20
0.5588298211
30
0.0000000000
10
-23.7302795476
20
0.5415838539
30
0.0000000000
10
-23.7297034452
20
0.5274045813
30
0.0000000000
10
-23.7298649334
20
0.5151753446
30
0.0000000000
10
-23.7280673758
20
0.5080199115
30
0.0000000000
10
-23.7303557128
20
0.4994217834
30
0.0000000000
10
-23.7280642283
20
0.4994217834
30
0.0000000000
11
-23.7315547096
21
0.6994217834
31
0.0000000000
11
-23.7315248481
21
0.6733165449
31
0.0000000000
11
-23.7314357744
21
0.6476579743
31
0.0000000000
11
-23.7312890126
21
0.6228850969
31
0.0000000000
11
-23.7310870738
21
0.5994217834
31
0.0000000000
11
-23.7308334133
21
0.5776694976
31
0.0000000000
11
-23.7305323713
21
0.5580004271
31
0.0000000000
11
-23.7301890987
21
0.5407511153
31
0.0000000000
11
-23.7298094690
21
0.5262167026
31
0.0000000000
11
-23.7293999777
21
0.5146458769
31
0.0000000000
11
-23.7289676314
21
0.5062366181
31
0.0000000000
11
-23.7280642283
21
0.4994217834
31
0.0000000000
0
SPLINE
5
2FD
100
AcDbEntity
8
0
100
AcDbSpline
62
9
6
CONTINUOUS
70
0
71
3
72
23
73
19
74
17
42
0.0000001000
43
0.0000001000
44
0.0000000001
12
-0.0139605416
22
0.8000425640
32
0.0000000000
13
0.8000424898
23
0.0139647936
33
0.0000000000
40
0.0000000000
40
0.0000000000
40
0.0000000000
40
0.0000000000
40
0.0922302965
40
0.1836716664
40
0.2735445141
40
0.3610826339
40
0.4455397529
40
0.5261959064
40
0.6023635927
40
0.6733936574
40
0.7386808626
40
0.7976691023
40
0.8498562376
40
0.8947985540
40
0.9321149107
40
0.9614908675
40
0.9826839693
40
1.0000000000
40
1.0000000000
40
1.0000000000
40
1.0000000000
10
-22.3547027848
20
21.3229699106
30
0.0000000000
10
-22.3551319798
20
21.3475659649
30
0.0000000000
10
-22.3559473585
20
21.3965483774
30
0.0000000000
10
-22.3570435284
20
21.4695003648
30
0.0000000000
10
-22.3580017244
20
21.5412026795
30
0.0000000000
10
-22.3588138617
20
21.6110438454
30
0.0000000000
10
-22.3594730661
20
21.6784281586
30
0.0000000000
10
-22.3599740765
20
21.7427812376
30
0.0000000000
10
-22.3603121575
20
21.8035532821
30
0.0000000000
10
-22.3604871088
20
21.8602293716
30
0.0000000000
10
-22.3604901503
20
21.9123150873
30
0.0000000000
10
-22.3603472533
20
21.9594022365
30
0.0000000000
10
-22.3599814360
20
22.0009761337
30
0.0000000000
10
-22.3596393113
20
22.0370264235
30
0.0000000000
10
-22.3586281048
20
22.0662489963
30
0.0000000000
10
-22.3588645678
20
22.0911035541
30
0.0000000000
10
-22.3554764607
20
22.1056897610
30
0.0000000000
10
-22.3593206382
20
22.1227674618
30
0.0000000000
10
-22.3547027848
20
22.1228480668
30
0.0000000000
11
-22.3547027848
21
21.3229699106
31
0.0000000000
11
-22.3559308514
21
21.3967590881
31
0.0000000000
11
-22.3570293725
21
21.4699189664
31
0.0000000000
11
-22.3579889796
21
21.5418256131
31
0.0000000000
11
-22.3588014889
21
21.6118657839
31
0.0000000000
11
-22.3594599710
21
21.6794421522
31
0.0000000000
11
-22.3599588101
21
21.7439784038
31
0.0000000000
11
-22.3602937520
21
21.8049241512
31
0.0000000000
11
-22.3604619401
21
21.8617596285
31
0.0000000000
11
-22.3604619401
21
21.9140001232
31
0.0000000000
11
-22.3602937520
21
21.9612001106
31
0.0000000000
11
-22.3599588101
21
22.0029570529
31
0.0000000000
11
-22.3594599710
21
22.0389148327
31
0.0000000000
11
-22.3588014890
21
22.0687667897
31
0.0000000000
11
-22.3579889797
21
22.0922583363
31
0.0000000000
11
-22.3570293725
21
22.1091891284
31
0.0000000000
11
-22.3547027848
21
22.1228480668
31
0.0000000000
0
SPLINE
5
2FE
100
AcDbEntity
8
0
100
AcDbSpline
62
9
6
CONTINUOUS
70
0
71
3
72
18
73
14
74
12
42
0.0000001000
43
0.0000001000
44
0.0000000001
12
-0.0000000001
22
0.2000915995
32
0.0000000000
13
0.2000915995
23
-0.0000000000
33
0.0000000000
40
0.0000000000
40
0.0000000000
40
0.0000000000
40
0.0000000000
40
0.1304665383
40
0.2587014453
40
0.3825113113
40
0.4997785219
40
0.6084975548
40
0.7068093966
40
0.7930335364
40
0.8656970969
40
0.9235609330
40
0.9656434779
40
1.0000000000
40
1.0000000000
40
1.0000000000
40
1.0000000000
10
-23.7315547096
20
-0.0005782166
30
0.0000000000
10
-23.7315547096
20
0.0081235361
30
0.0000000000
10
-23.7315351826
20
0.0253782606
30
0.0000000000
10
-23.7314472088
20
0.0508903209
30
0.0000000000
10
-23.7313033063
20
0.0755228467
30
0.0000000000
10
-23.7311023993
20
0.0988495443
30
0.0000000000
10
-23.7308606277
20
0.1204875856
30
0.0000000000
10
-23.7305420651
20
0.1400137538
30
0.0000000000
10
-23.7302795474
20
0.1572597200
30
0.0000000000
10
-23.7297034451
20
0.1714389911
30
0.0000000000
10
-23.7298649332
20
0.1836682259
30
0.0000000000
10
-23.7280673759
20
0.1908236574
30
0.0000000000
10
-23.7303557121
20
0.1994217834
30
0.0000000000
10
-23.7280642283
20
0.1994217834
30
0.0000000000
11
-23.7315547096
21
-0.0005782166
31
0.0000000000
11
-23.7315248481
21
0.0255270246
31
0.0000000000
11
-23.7314357743
21
0.0511855977
31
0.0000000000
11
-23.7312890125
21
0.0759584771
31
0.0000000000
11
-23.7310870737
21
0.0994217918
31
0.0000000000
11
-23.7308334132
21
0.1211740780
31
0.0000000000
11
-23.7305323712
21
0.1408431481
31
0.0000000000
11
-23.7301890986
21
0.1580924588
31
0.0000000000
11
-23.7298094688
21
0.1726268698
31
0.0000000000
11
-23.7293999776
21
0.1841976937
31
0.0000000000
11
-23.7289676312
21
0.1926069506
31
0.0000000000
11
-23.7280642283
21
0.1994217834
31
0.0000000000
0
SPLINE
5
2FF
100
AcDbEntity
8
0
100
AcDbSpline
62
9
6
CONTINUOUS
70
0
71
3
72
24
73
20
74
18
42
0.0000001000
43
0.0000001000
44
0.0000000001
12
-0.7860382989
22
-0.0002299655
32
0.0000000000
13
-0.7860382775
23
-0.0002958329
33
0.0000000000
40
0.0000000000
40
0.0000000000
40
0.0000000000
40
0.0000000000
40
0.0876444971
40
0.1744992446
40
0.2599254233
40
0.3432840510
40
0.4239557555
40
0.5013404175
40
0.5748614949
40
0.6439718098
40
0.7081572545
40
0.7669400447
40
0.8198826320
40
0.8665911646
40
0.9067179591
40
0.9399641017
40
0.9660823866
40
0.9848785920
40
1.0000000000
40
1.0000000000
40
1.0000000000
40
1.0000000000
10
-23.7315547086
20
-0.0005782166
30
0.0000000000
10
-23.7545186857
20
-0.0005849350
30
0.0000000000
10
-23.8002397155
20
-0.0005983168
30
0.0000000000
10
-23.8683434947
20
-0.0006182758
30
0.0000000000
10
-23.9353243214
20
-0.0006379276
30
0.0000000000
10
-24.0006851118
20
-0.0006571296
30
0.0000000000
10
-24.0639389223
20
-0.0006757378
30
0.0000000000
10
-24.1246151689
20
-0.0006936150
30
0.0000000000
10
-24.1822621839
20
-0.0007106285
30
0.0000000000
10
-24.2364508355
20
-0.0007266526
30
0.0000000000
10
-24.2867778676
20
-0.0007415688
30
0.0000000000
10
-24.3328687487
20
-0.0007552666
30
0.0000000000
10
-24.3743804556
20
-0.0007676456
30
0.0000000000
10
-24.4110040536
20
-0.0007786114
30
0.0000000000
10
-24.4424669315
20
-0.0007880914
30
0.0000000000
10
-24.4685349018
20
-0.0007959890
30
0.0000000000
10
-24.4890139853
20
-0.0008023135
30
0.0000000000
10
-24.5047441571
20
-0.0008071468
30
0.0000000000
10
-24.5136310046
20
-0.0008102156
30
0.0000000000
10
-24.5175930064
20
-0.0008117067
30
0.0000000000
11
-23.7315547086
21
-0.0005782166
31
0.0000000000
11
-23.8004466400
21
-0.0005983818
31
0.0000000000
11
-23.8687177980
21
-0.0006183892
31
0.0000000000
11
-23.9358660461
21
-0.0006380909
31
0.0000000000
11
-24.0013891201
21
-0.0006573408
31
0.0000000000
11
-24.0648001694
21
-0.0006759960
31
0.0000000000
11
-24.1256274774
21
-0.0006939184
31
0.0000000000
11
-24.1834178600
21
-0.0007109753
31
0.0000000000
11
-24.2377412143
21
-0.0007270405
31
0.0000000000
11
-24.2881934321
21
-0.0007419954
31
0.0000000000
11
-24.3343989563
21
-0.0007557296
31
0.0000000000
11
-24.3760138576
21
-0.0007681417
31
0.0000000000
11
-24.4127285530
21
-0.0007791402
31
0.0000000000
11
-24.4442697502
21
-0.0007886441
31
0.0000000000
11
-24.4704024915
21
-0.0007965834
31
0.0000000000
11
-24.4909324637
21
-0.0008028997
31
0.0000000000
11
-24.5057070008
21
-0.0008075465
31
0.0000000000
11
-24.5175930064
21
-0.0008117067
31
0.0000000000
0
SPLINE
5
300
100
AcDbEntity
8
0
100
AcDbSpline
62
9
6
CONTINUOUS
70
0
71
3
72
27
73
23
74
21
42
0.0000001000
43
0.0000001000
44
0.0000000001
12
0.0706084633
22
-1.0371208614
32
0.0000000000
13
1.0393631994
23
-0.0181487209
33
0.0000000000
40
0.0000000000
40
0.0000000000
40
0.0000000000
40
0.0000000000
40
0.0499914262
40
0.0999912024
40
0.1499913508
40
0.1999914793
40
0.2499917386
40
0.2999922245
40
0.3499928341
40
0.3999935615
40
0.4499944550
40
0.4999954985
40
0.5499966722
40
0.5999979534
40
0.6499993440
40
0.7000008889
40
0.7500025638
40
0.8000042340
40
0.8500059554
40
0.9000078523
40
0.9500095007
40
1.0000000000
40
1.0000000000
40
1.0000000000
40
1.0000000000
10
-23.0408697139
20
-19.9717758662
30
0.0000000000
10
-23.0396931080
20
-19.9890582499
30
0.0000000000
10
-23.0360548079
20
-20.0235522456
30
0.0000000000
10
-23.0267743112
20
-20.0747362635
30
0.0000000000
10
-23.0137205299
20
-20.1250964578
30
0.0000000000
10
-22.9969659738
20
-20.1743485866
30
0.0000000000
10
-22.9766030101
20
-20.2222220691
30
0.0000000000
10
-22.9527438492
20
-20.2684527189
30
0.0000000000
10
-22.9255200075
20
-20.3127857012
30
0.0000000000
10
-22.8950815642
20
-20.3549765346
30
0.0000000000
10
-22.8615963090
20
-20.3947925957
30
0.0000000000
10
-22.8252488329
20
-20.4320143383
30
0.0000000000
10
-22.7862395295
20
-20.4664365029
30
0.0000000000
10
-22.7447834703
20
-20.4978692706
30
0.0000000000
10
-22.7011092050
20
-20.5261393185
30
0.0000000000
10
-22.6554575076
20
-20.5510907548
30
0.0000000000
10
-22.6080801263
20
-20.5725859664
30
0.0000000000
10
-22.5592382343
20
-20.5905063949
30
0.0000000000
10
-22.5092013871
20
-20.6047532589
30
0.0000000000
10
-22.4582445277
20
-20.6152478890
30
0.0000000000
10
-22.4066562511
20
-20.6219321045
30
0.0000000000
10
-22.3720222132
20
-20.6238239227
30
0.0000000000
10
-22.3547027848
20
-20.6241263439
30
0.0000000000
11
-23.0408697139
21
-19.9717758662
31
0.0000000000
11
-23.0354180906
21
-20.0234562928
31
0.0000000000
11
-23.0261455486
21
-20.0745983387
31
0.0000000000
11
-23.0131037396
21
-20.1249117599
31
0.0000000000
11
-22.9963645962
21
-20.1741187518
31
0.0000000000
11
-22.9760203558
21
-20.2219481674
31
0.0000000000
11
-22.9521831032
21
-20.2681363800
31
0.0000000000
11
-22.9249842763
21
-20.3124286229
31
0.0000000000
11
-22.8945738131
21
-20.3545806741
31
0.0000000000
11
-22.8611193243
21
-20.3943601516
31
0.0000000000
11
-22.8248052439
21
-20.4315476953
31
0.0000000000
11
-22.7858317812
21
-20.4659382337
31
0.0000000000
11
-22.7444138180
21
-20.4973421166
31
0.0000000000
11
-22.7007796985
21
-20.5255861776
31
0.0000000000
11
-22.6551699482
21
-20.5505146897
31
0.0000000000
11
-22.6078360490
21
-20.5719901658
31
0.0000000000
11
-22.5590391043
21
-20.5898941251
31
0.0000000000
11
-22.5090481095
21
-20.6041278718
31
0.0000000000
11
-22.4581385632
21
-20.6146129172
31
0.0000000000
11
-22.4065916058
21
-20.6212914203
31
0.0000000000
11
-22.3547027848
21
-20.6241263439
31
0.0000000000
0
SPLINE
5
301
100
AcDbEntity
8
0
100
AcDbSpline
62
9
6
CONTINUOUS
70
0
71
3
72
23
73
19
74
17
42
0.0000001000
43
0.0000001000
44
0.0000000001
12
-0.0139605414
22
-0.8000425640
32
0.0000000000
13
0.8000424898
23
-0.0139647936
33
0.0000000000
40
0.0000000000
40
0.0000000000
40
0.0000000000
40
0.0000000000
40
0.0922302978
40
0.1836716689
40
0.2735445174
40
0.3610826377
40
0.4455397571
40
0.5261959107
40
0.6023635969
40
0.6733936613
40
0.7386808661
40
0.7976691053
40
0.8498562399
40
0.8947985558
40
0.9321149119
40
0.9614908682
40
0.9826839696
40
1.0000000000
40
1.0000000000
40
1.0000000000
40
1.0000000000
10
-22.3547027848
20
-20.6241263439
30
0.0000000000
10
-22.3551319798
20
-20.6487223985
30
0.0000000000
10
-22.3559473585
20
-20.6977048117
30
0.0000000000
10
-22.3570435284
20
-20.7706568000
30
0.0000000000
10
-22.3580017243
20
-20.8423591153
30
0.0000000000
10
-22.3588138617
20
-20.9122002817
30
0.0000000000
10
-22.3594730661
20
-20.9795845951
30
0.0000000000
10
-22.3599740764
20
-21.0439376743
30
0.0000000000
10
-22.3603121574
20
-21.1047097187
30
0.0000000000
10
-22.3604871087
20
-21.1613858080
30
0.0000000000
10
-22.3604901502
20
-21.2134715233
30
0.0000000000
10
-22.3603472532
20
-21.2605586721
30
0.0000000000
10
-22.3599814359
20
-21.3021325689
30
0.0000000000
10
-22.3596393112
20
-21.3381828582
30
0.0000000000
10
-22.3586281047
20
-21.3674054306
30
0.0000000000
10
-22.3588645677
20
-21.3922599879
30
0.0000000000
10
-22.3554764606
20
-21.4068461946
30
0.0000000000
10
-22.3593206381
20
-21.4239238951
30
0.0000000000
10
-22.3547027848
20
-21.4240045000
30
0.0000000000
11
-22.3547027848
21
-20.6241263439
31
0.0000000000
11
-22.3559308514
21
-20.6979155224
31
0.0000000000
11
-22.3570293725
21
-20.7710754016
31
0.0000000000
11
-22.3579889796
21
-20.8429820490
31
0.0000000000
11
-22.3588014889
21
-20.9130222203
31
0.0000000000
11
-22.3594599710
21
-20.9805985889
31
0.0000000000
11
-22.3599588100
21
-21.0451348405
31
0.0000000000
11
-22.3602937519
21
-21.1060805879
31
0.0000000000
11
-22.3604619400
21
-21.1629160649
31
0.0000000000
11
-22.3604619400
21
-21.2151565593
31
0.0000000000
11
-22.3602937519
21
-21.2623565462
31
0.0000000000
11
-22.3599588100
21
-21.3041134881
31
0.0000000000
11
-22.3594599710
21
-21.3400712674
31
0.0000000000
11
-22.3588014889
21
-21.3699232240
31
0.0000000000
11
-22.3579889796
21
-21.3934147701
31
0.0000000000
11
-22.3570293725
21
-21.4103455619
31
0.0000000000
11
-22.3547027848
21
-21.4240045000
31
0.0000000000
0
SPLINE
5
302
100
AcDbEntity
8
0
100
AcDbSpline
62
9
6
CONTINUOUS
70
0
71
3
72
8
73
4
74
2
42
0.0000001000
43
0.0000001000
44
0.0000000001
12
-0.0460207270
22
-0.9348827582
32
0.4674413791
13
-0.0431036274
23
-0.9350217945
33
0.4675108973
40
0.0000000000
40
0.0000000000
40
0.0000000000
40
0.0000000000
40
1.0000000000
40
1.0000000000
40
1.0000000000
40
1.0000000000
10
-24.1549739306
20
15.0994217834
30
0.5499999404
10
-24.1703141729
20
14.7877941973
30
0.7058137334
10
-24.1851682682
20
14.4761426800
30
0.8616394921
10
-24.1995361440
20
14.1644687485
30
1.0174764578
11
-24.1549739306
21
15.0994217834
31
0.5499999404
11
-24.1995361440
21
14.1644687485
31
1.0174764578
0
SPLINE
5
303
100
AcDbEntity
8
0
100
AcDbSpline
62
9
6
CONTINUOUS
70
0
71
3
72
8
73
4
74
2
42
0.0000001000
43
0.0000001000
44
0.0000000001
12
-0.0101506933
22
-0.2201930555
32
0.1100965277
13
-0.0099889023
23
-0.2202004543
33
0.1101002272
40
0.0000000000
40
0.0000000000
40
0.0000000000
40
0.0000000000
40
1.0000000000
40
1.0000000000
40
1.0000000000
40
1.0000000000
10
-24.1995361440
20
14.1644687485
30
1.0174764578
10
-24.2029197084
20
14.0910710634
30
1.0541753004
10
-24.2062763081
20
14.0176721352
30
1.0908747645
10
-24.2096059422
20
13.9442719837
30
1.1275748402
11
-24.1995361440
21
14.1644687485
31
1.0174764578
11
-24.2096059422
21
13.9442719837
31
1.1275748402
0
SPLINE
5
304
100
AcDbEntity
8
0
100
AcDbSpline
62
9
6
CONTINUOUS
70
0
71
3
72
8
73
4
74
2
42
0.0000001000
43
0.0000001000
44
0.0000000001
12
-0.0444379553
22
-0.9796129420
32
0.4898064710
13
-0.0412356291
23
-0.9797529642
33
0.4898764821
40
0.0000000000
40
0.0000000000
40
0.0000000000
40
0.0000000000
40
1.0000000000
40
1.0000000000
40
1.0000000000
40
1.0000000000
10
-24.2096059422
20
13.9442719837
30
1.1275748402
10
-24.2244185940
20
13.6177343364
30
1.2908436639
10
-24.2386975628
20
13.2911724797
30
1.4541245922
10
-24.2524427725
20
12.9645881583
30
1.6174167529
11
-24.2096059422
21
13.9442719837
31
1.1275748402
11
-24.2524427725
21
12.9645881583
31
1.6174167529
0
SPLINE
5
305
100
AcDbEntity
8
0
100
AcDbSpline
62
9
6
CONTINUOUS
70
0
71
3
72
8
73
4
74
2
42
0.0000001000
43
0.0000001000
44
0.0000000001
12
-0.0038084305
22
-0.0904877927
32
0.0452438964
13
-0.0037811127
23
-0.0904889384
33
0.0452444692
40
0.0000000000
40
0.0000000000
40
0.0000000000
40
0.0000000000
40
1.0000000000
40
1.0000000000
40
1.0000000000
40
1.0000000000
10
-24.2524427725
20
12.9645881583
30
1.6174167529
10
-24.2537122494
20
12.9344255607
30
1.6324980517
10
-24.2549771732
20
12.9042627715
30
1.6475794463
10
-24.2562375441
20
12.8740997921
30
1.6626609360
11
-24.2524427725
21
12.9645881583
31
1.6174167529
11
-24.2562375441
21
12.8740997921
31
1.6626609360
0
SPLINE
5
306
100
AcDbEntity
8
0
100
AcDbSpline
62
9
6
CONTINUOUS
70
0
71
3
72
8
73
4
74
2
42
0.0000001000
43
0.0000001000
44
0.0000000001
12
-0.0384163386
22
-0.9193732089
32
0.4596866044
13
-0.0355962134
23
-0.9194867165
33
0.4597433583
40
0.0000000000
40
0.0000000000
40
0.0000000000
40
0.0000000000
40
1.0000000000
40
1.0000000000
40
1.0000000000
40
1.0000000000
10
-24.2562375441
20
12.8740997921
30
1.6626609360
10
-24.2690429903
20
12.5676420558
30
1.8158898042
10
-24.2813784447
20
12.2611646807
30
1.9691284917
10
-24.2932438492
20
11.9546691085
30
2.1223762778
11
-24.2562375441
21
12.8740997921
31
1.6626609360
11
-24.2932438492
21
11.9546691085
31
2.1223762778
0
SPLINE
5
307
100
AcDbEntity
8
0
100
AcDbSpline
62
9
6
CONTINUOUS
70
0
71
3
72
8
73
4
74
2
42
0.0000001000
43
0.0000001000
44
0.0000000001
12
-0.0079073696
22
-0.2042554693
32
0.1021277347
13
-0.0077681959
23
-0.2042608097
33
0.1021304048
40
0.0000000000
40
0.0000000000
40
0.0000000000
40
0.0000000000
40
1.0000000000
40
1.0000000000
40
1.0000000000
40
1.0000000000
10
-24.2932438492
20
11.9546691085
30
2.1223762778
10
-24.2958796390
20
11.8865839521
30
2.1564188560
10
-24.2984922336
20
11.8184978977
30
2.1904618832
10
-24.3010816322
20
11.7504109611
30
2.2245053515
11
-24.2932438492
21
11.9546691085
31
2.1223762778
11
-24.3010816322
21
11.7504109611
31
2.2245053515
0
SPLINE
5
308
100
AcDbEntity
8
0
100
AcDbSpline
62
9
6
CONTINUOUS
70
0
71
3
72
8
73
4
74
2
42
0.0000001000
43
0.0000001000
44
0.0000000001
12
-0.0057421800
22
-0.1509877381
32
0.0754938691
13
-0.0056661333
23
-0.1509906110
33
0.0754953055
40
0.0000000000
40
0.0000000000
40
0.0000000000
40
0.0000000000
40
1.0000000000
40
1.0000000000
40
1.0000000000
40
1.0000000000
10
-24.3010816322
20
11.7504109611
30
2.2245053515
10
-24.3029956922
20
11.7000817151
30
2.2496699745
10
-24.3048970778
20
11.6497519870
30
2.2748348386
10
-24.3067857890
20
11.5994217834
30
2.2999999404
11
-24.3010816322
21
11.7504109611
31
2.2245053515
11
-24.3067857890
21
11.5994217834
31
2.2999999404
0
SPLINE
5
309
100
AcDbEntity
8
0
100
AcDbSpline
62
9
6
CONTINUOUS
70
0
71
3
72
8
73
4
74
2
42
0.0000001000
43
0.0000001000
44
0.0000000001
12
-0.0104529856
22
-0.2666799560
32
-0.2666799282
13
-0.0102157388
23
-0.2666891496
33
-0.2666891218
40
0.0000000000
40
0.0000000000
40
0.0000000000
40
0.0000000000
40
1.0000000000
40
1.0000000000
40
1.0000000000
40
1.0000000000
10
-24.2876050170
20
12.0994218057
30
-0.4500000000
10
-24.2910893456
20
12.0105284871
30
-0.5388933094
10
-24.2945341336
20
11.9216336185
30
-0.6277881686
10
-24.2979393799
20
11.8327372353
30
-0.7166845426
11
-24.2876050170
21
12.0994218057
31
-0.4500000000
11
-24.2979393799
21
11.8327372353
31
-0.7166845426
0
SPLINE
5
30A
100
AcDbEntity
8
0
100
AcDbSpline
62
9
6
CONTINUOUS
70
0
71
3
72
8
73
4
74
2
42
0.0000001000
43
0.0000001000
44
0.0000000001
12
-0.0089372006
22
-0.2333119977
32
-0.2333119734
13
-0.0087556166
23
-0.2333188827
33
-0.2333188583
40
0.0000000000
40
0.0000000000
40
0.0000000000
40
0.0000000000
40
1.0000000000
40
1.0000000000
40
1.0000000000
40
1.0000000000
10
-24.2979393799
20
11.8327372353
30
-0.7166845426
10
-24.3009184468
20
11.7549665694
30
-0.7944552004
10
-24.3038672501
20
11.6771947443
30
-0.8722270174
10
-24.3067857890
20
11.5994217834
30
-0.9499999702
11
-24.2979393799
21
11.8327372353
31
-0.7166845426
11
-24.3067857890
21
11.5994217834
31
-0.9499999702
0
SPLINE
5
30B
100
AcDbEntity
8
0
100
AcDbSpline
62
9
6
CONTINUOUS
70
0
71
3
72
8
73
4
74
2
42
0.0000001000
43
0.0000001000
44
0.0000000001
12
-0.0246120998
22
-0.4999796681
32
0.4999796681
13
-0.0237777914
23
-0.5000200402
33
0.5000200402
40
0.0000000000
40
0.0000000000
40
0.0000000000
40
0.0000000000
40
1.0000000000
40
1.0000000000
40
1.0000000000
40
1.0000000000
10
-24.1549739306
20
15.0994217834
30
-0.9499999702
10
-24.1631779639
20
14.9327618940
30
-0.7833400808
10
-24.1712429514
20
14.7660951599
30
-0.6166733467
10
-24.1791688819
20
14.5994218132
30
-0.4500000000
11
-24.1549739306
21
15.0994217834
31
-0.9499999702
11
-24.1791688819
21
14.5994218132
31
-0.4500000000
0
SPLINE
5
30C
100
AcDbEntity
8
0
100
AcDbSpline
62
9
6
CONTINUOUS
70
0
71
3
72
8
73
4
74
2
42
0.0000001000
43
0.0000001000
44
0.0000000001
12
0.0237777914
22
0.5000200402
32
0.5000200924
13
0.0246120998
23
0.4999796681
33
0.4999797203
40
0.0000000000
40
0.0000000000
40
0.0000000000
40
0.0000000000
40
1.0000000000
40
1.0000000000
40
1.0000000000
40
1.0000000000
10
-24.1791688819
20
14.5994218132
30
-2.2000000000
10
-24.1712429514
20
14.7660951599
30
-2.0333266359
10
-24.1631779639
20
14.9327618940
30
-1.8666598844
10
-24.1549739306
20
15.0994217834
30
-1.6999999776
11
-24.1791688819
21
14.5994218132
31
-2.2000000000
11
-24.1549739306
21
15.0994217834
31
-1.6999999776
0
SPLINE
5
30D
100
AcDbEntity
8
0
100
AcDbSpline
62
9
6
CONTINUOUS
70
0
71
3
72
8
73
4
74
2
42
0.0000001000
43
0.0000001000
44
0.0000000001
12
0.0087556166
22
0.2333188827
32
-0.2333188827
13
0.0089372006
23
0.2333119977
33
-0.2333119977
40
0.0000000000
40
0.0000000000
40
0.0000000000
40
0.0000000000
40
1.0000000000
40
1.0000000000
40
1.0000000000
40
1.0000000000
10
-24.3067857890
20
11.5994217834
30
-1.6999999776
10
-24.3038672501
20
11.6771947443
30
-1.7777729385
10
-24.3009184468
20
11.7549665694
30
-1.8555447637
10
-24.2979393799
20
11.8327372353
30
-1.9333154296
11
-24.3067857890
21
11.5994217834
31
-1.6999999776
11
-24.2979393799
21
11.8327372353
31
-1.9333154296
0
SPLINE
5
30E
100
AcDbEntity
8
0
100
AcDbSpline
62
9
6
CONTINUOUS
70
0
71
3
72
8
73
4
74
2
42
0.0000001000
43
0.0000001000
44
0.0000000001
12
0.0102157388
22
0.2666891496
32
-0.2666891496
13
0.0104529856
23
0.2666799560
33
-0.2666799560
40
0.0000000000
40
0.0000000000
40
0.0000000000
40
0.0000000000
40
1.0000000000
40
1.0000000000
40
1.0000000000
40
1.0000000000
10
-24.2979393799
20
11.8327372353
30
-1.9333154296
10
-24.2945341336
20
11.9216336185
30
-2.0222118128
10
-24.2910893456
20
12.0105284871
30
-2.1111066813
10
-24.2876050170
20
12.0994218057
30
-2.2000000000
11
-24.2979393799
21
11.8327372353
31
-1.9333154296
11
-24.2876050170
21
12.0994218057
31
-2.2000000000
0
ENDSEC
0
SECTION
2
OBJECTS
0
DICTIONARY
5
C
100
AcDbDictionary
280
0
281
1
3
ACAD_GROUP
350
D
3
ACAD_MLINESTYLE
350
17
3
ACAD_LAYOUT
350
1A
3
ACAD_PLOTSETTINGS
350
19
3
ACAD_PLOTSTYLENAME
350
E
0
DICTIONARY
5
D
102
{ACAD_REACTORS
330
C
102
}
100
AcDbDictionary
280
0
281
1
0
ACDBDICTIONARYWDFLT
5
E
102
{ACAD_REACTORS
330
C
102
}
100
AcDbDictionary
281
1
3
Normal
350
F
100
AcDbDictionaryWithDefault
340
F
0
DICTIONARY
5
17
102
{ACAD_REACTORS
330
C
102
}
100
AcDbDictionary
280
0
281
1
3
Standard
350
18
0
DICTIONARY
5
19
102
{ACAD_REACTORS
330
C
102
}
100
AcDbDictionary
281
1
0
DICTIONARY
5
1A
102
{ACAD_REACTORS
330
C
102
}
100
AcDbDictionary
281
1
3
Layout1
350
1E
3
Model
350
22
0
ACDBPLACEHOLDER
5
F
102
{ACAD_REACTORS
330
E
102
}
0
MLINESTYLE
5
18
102
{ACAD_REACTORS
330
17
102
}
100
AcDbMlineStyle
2
STANDARD
70
0
3

62
256
51
90.0
52
90.0
71
2
49
0.5
62
256
6
BYLAYER
49
-0.5
62
256
6
BYLAYER
0
LAYOUT
5
1E
102
{ACAD_REACTORS
330
1A
102
}
100
AcDbPlotSettings
1

2

4

6

40
0.0
41
0.0
42
0.0
43
0.0
44
0.0
45
0.0
46
0.0
47
0.0
48
0.0
49
0.0
140
0.0
141
0.0
142
1.0
143
1.0
70
0
72
0
73
0
74
0
7

75
0
147
1.0
148
0.0
149
0.0
100
AcDbLayout
1
Layout1
70
0
71
0
10
0.0
20
0.0
11
0.0
21
0.0
12
0.0
22
0.0
32
0.0
14
0.0
24
0.0
34
0.0
15
0.0
25
0.0
35
0.0
146
0.0
13
0.0
23
0.0
33
0.0
16
0.0
26
0.0
36
0.0
17
0.0
27
0.0
37
0.0
76
0
330
1B
331
0
345
0
346
0
0
LAYOUT
5
22
102
{ACAD_REACTORS
330
1A
102
}
100
AcDbPlotSettings
1

2

4

6

40
0.0
41
0.0
42
0.0
43
0.0
44
0.0
45
0.0
46
0.0
47
0.0
48
0.0
49
0.0
140
0.0
141
0.0
142
1.0
143
1.0
70
0
72
0
73
0
74
0
7

75
0
147
1.0
148
0.0
149
0.0
100
AcDbLayout
1
Model
70
0
71
0
10
0.0
20
0.0
11
0.0
21
0.0
12
0.0
22
0.0
32
0.0
14
0.0
24
0.0
34
0.0
15
0.0
25
0.0
35
0.0
146
0.0
13
0.0
23
0.0
33
0.0
16
0.0
26
0.0
36
0.0
17
0.0
27
0.0
37
0.0
76
0
330
1F
331
0
345
0
346
0
0
ENDSEC
0
EOF
