  0
SECTION
  2
HEADER
  9
$ACADVER
  1
AC1015
  9
$DWGCODEPAGE
  3
ANSI_1252
  9
$EXTMAX
 10
297.0
 20
210.0
 30
0.0
  9
$EXTMIN
 10
0.0
 20
0.0
 30
0.0
  9
$LIMMIN
 10
0.0
 20
0.0
  9
$LIMMAX
 10
297.0
 20
210.0
  9
$VIEWCTR
 10
148.5
 20
105.0
  9
$VIEWSIZE
 40
210.0
  9
$CLAYER
  8
0
  9
$LTSCALE
 40
16.335
  9
$CELTYPE
  6
BYLAYER
  9
$DIMSCALE
 40
1.0
  9
$DIMASZ
 40
3.0
  9
$DIMEXO
 40
0.5
  9
$DIMDLI
 40
11.286
  9
$DIMEXE
 40
1.5
  9
$DIMCEN
 40
2.673
  9
$DIMLFAC
 40
1.0
  9
$DIMBLK
  1
_FILLED
  9
$DIMTXT
 40
3.0
  9
$DIMTOL
 70
1
  9
$DIMLIM
 70
0
  9
$DIMTFAC
 40
1.0
  9
$DIMTP
 40
0.01
  9
$DIMTM
 40
0.01
  9
$DIMGAP
 40
0.625
  9
$DIMDSEP
 70
44
  9
$PDMODE
 70
3
  9
$PDSIZE
 40
3.0
  9
$HANDSEED
  5
566
  9
$TILEMODE
 70
1
  9
$MEASUREMENT
 70
1
  9
$INSUNITS
 70
4
  0
ENDSEC
  0
SECTION
  2
CLASSES
  0
CLASS
  1
ACDBDICTIONARYWDFLT
  2
AcDbDictionaryWithDefault
  3
AutoCAD 2000
 90
0
280
0
281
0
  0
CLASS
  1
ACDBPLACEHOLDER
  2
AcDbPlaceHolder
  3
AutoCAD 2000
 90
0
280
0
281
0
  0
CLASS
  1
LAYOUT
  2
AcDbLayout
  3
AutoCAD 2000
 90
0
280
0
281
0
  0
ENDSEC
  0
SECTION
  2
TABLES
  0
TABLE
  2
VPORT
  5
8
100
AcDbSymbolTable
 70
2
  0
VPORT
  5
1F4
100
AcDbSymbolTableRecord
100
AcDbViewportTableRecord
  2
*ACTIVE
 70
0
 10
0.0
 20
0.0
 11
1.0
 21
1.0
 12
148.5
 22
105.0
 13
0.0
 23
0.0
 14
1.0
 24
1.0
 15
0.0
 25
0.0
 16
0.0
 26
0.0
 36
1.0
 17
0.0
 27
0.0
 37
0.0
 40
210.0
 41
1.4142857143
 42
50.0
 43
0.0
 44
0.0
 50
0.0
 51
0.0
 71
0
 72
100
 73
1
 74
1
 75
0
 76
0
 77
0
 78
0
  0
ENDTAB
  0
TABLE
  2
LTYPE
  5
5
100
AcDbSymbolTable
 70
6
  0
LTYPE
  5
14
100
AcDbSymbolTableRecord
100
AcDbLinetypeTableRecord
  2
BYBLOCK
 70
0
  3

 72
65
 73
0
 40
0.0
  0
LTYPE
  5
15
100
AcDbSymbolTableRecord
100
AcDbLinetypeTableRecord
  2
BYLAYER
 70
0
  3

 72
65
 73
0
 40
0.0
  0
LTYPE
  5
16
100
AcDbSymbolTableRecord
100
AcDbLinetypeTableRecord
  2
CONTINUOUS
 70
64
  3
Solid line
 72
65
 73
0
 40
0.0
  0
LTYPE
  5
1F5
100
AcDbSymbolTableRecord
100
AcDbLinetypeTableRecord
  2
CENTER
 70
64
  3
____ _ ____ _ ____ _ ____ _ ____ _ ____ _ ____
 72
65
 73
4
 40
0.6
 49
0.375
 74
0
 49
-0.075
 74
0
 49
0.075
 74
0
 49
-0.075
 74
0
  0
LTYPE
  5
1F6
100
AcDbSymbolTableRecord
100
AcDbLinetypeTableRecord
  2
HIDDEN
 70
64
  3
- - - - - - - - - - - - - - - - - - - -
 72
65
 73
2
 40
0.2
 49
0.1
 74
0
 49
-0.1
 74
0
  0
LTYPE
  5
1F7
100
AcDbSymbolTableRecord
100
AcDbLinetypeTableRecord
  2
PHANTOM
 70
64
  3
_____ _ _ _____ _ _ _____ _ _ _____
 72
65
 73
6
 40
0.8
 49
0.45
 74
0
 49
-0.05
 74
0
 49
0.1
 74
0
 49
-0.05
 74
0
 49
0.1
 74
0
 49
-0.05
 74
0
  0
LTYPE
  5
1F8
100
AcDbSymbolTableRecord
100
AcDbLinetypeTableRecord
  2
DOT
 70
64
  3
. . . . . . . . . . . . . . . . . . . .
 72
65
 73
2
 40
0.2
 49
0.1
 74
0
 49
-0.1
 74
0
  0
LTYPE
  5
1F9
100
AcDbSymbolTableRecord
100
AcDbLinetypeTableRecord
  2
DASHED
 70
64
  3
- - - - - - - - - - - - - - - - - - - -
 72
65
 73
2
 40
0.2
 49
0.1
 74
0
 49
-0.1
 74
0
  0
ENDTAB
  0
TABLE
  2
LAYER
  5
2
100
AcDbSymbolTable
 70
36
  0
LAYER
  5
10
100
AcDbSymbolTableRecord
100
AcDbLayerTableRecord
  2
0
 70
0
 62
7
  6
CONTINUOUS
370
-3
390
F
  0
LAYER
  5
1FA
100
AcDbSymbolTableRecord
100
AcDbLayerTableRecord
  2
DEFAULT_1
 70
0
 62
7
  6
CENTER
370
-3
390
F
  0
LAYER
  5
1FB
100
AcDbSymbolTableRecord
100
AcDbLayerTableRecord
  2
DEFAULT_2
 70
0
 62
7
  6
HIDDEN
370
-3
390
F
  0
LAYER
  5
1FC
100
AcDbSymbolTableRecord
100
AcDbLayerTableRecord
  2
DEFAULT_3
 70
0
 62
7
  6
PHANTOM
370
-3
390
F
  0
LAYER
  5
1FD
100
AcDbSymbolTableRecord
100
AcDbLayerTableRecord
  2
ASSI
 70
0
 62
7
  6
CONTINUOUS
370
-3
390
F
  0
LAYER
  5
1FE
100
AcDbSymbolTableRecord
100
AcDbLayerTableRecord
  2
COORDINATE
 70
0
 62
7
  6
CONTINUOUS
370
-3
390
F
  0
LAYER
  5
1FF
100
AcDbSymbolTableRecord
100
AcDbLayerTableRecord
  2
COORD_ORIGINE
 70
0
 62
7
  6
CONTINUOUS
370
-3
390
F
  0
LAYER
  5
200
100
AcDbSymbolTableRecord
100
AcDbLayerTableRecord
  2
COPY_PUBLISH
 70
0
 62
7
  6
CONTINUOUS
370
-3
390
F
  0
LAYER
  5
201
100
AcDbSymbolTableRecord
100
AcDbLayerTableRecord
  2
COSMETICI
 70
0
 62
7
  6
CONTINUOUS
370
-3
390
F
  0
LAYER
  5
202
100
AcDbSymbolTableRecord
100
AcDbLayerTableRecord
  2
CURVE
 70
0
 62
7
  6
CONTINUOUS
370
-3
390
F
  0
LAYER
  5
203
100
AcDbSymbolTableRecord
100
AcDbLayerTableRecord
  2
CURVE_LED_TASTO
 70
0
 62
7
  6
CONTINUOUS
370
-3
390
F
  0
LAYER
  5
204
100
AcDbSymbolTableRecord
100
AcDbLayerTableRecord
  2
DRAFT
 70
0
 62
7
  6
CONTINUOUS
370
-3
390
F
  0
LAYER
  5
205
100
AcDbSymbolTableRecord
100
AcDbLayerTableRecord
  2
IGES_SCRITTE
 70
0
 62
7
  6
CONTINUOUS
370
-3
390
F
  0
LAYER
  5
206
100
AcDbSymbolTableRecord
100
AcDbLayerTableRecord
  2
IMPORT_IGES
 70
0
 62
7
  6
CONTINUOUS
370
-3
390
F
  0
LAYER
  5
207
100
AcDbSymbolTableRecord
100
AcDbLayerTableRecord
  2
NOTE
 70
0
 62
7
  6
CONTINUOUS
370
-3
390
F
  0
LAYER
  5
208
100
AcDbSymbolTableRecord
100
AcDbLayerTableRecord
  2
PIANI
 70
0
 62
7
  6
CONTINUOUS
370
-3
390
F
  0
LAYER
  5
209
100
AcDbSymbolTableRecord
100
AcDbLayerTableRecord
  2
PIANI_ORIGINE
 70
0
 62
7
  6
CONTINUOUS
370
-3
390
F
  0
LAYER
  5
20A
100
AcDbSymbolTableRecord
100
AcDbLayerTableRecord
  2
PIANI_RIFERIMENTO
 70
0
 62
7
  6
CONTINUOUS
370
-3
390
F
  0
LAYER
  5
20B
100
AcDbSymbolTableRecord
100
AcDbLayerTableRecord
  2
PUNTI
 70
0
 62
7
  6
CONTINUOUS
370
-3
390
F
  0
LAYER
  5
20C
100
AcDbSymbolTableRecord
100
AcDbLayerTableRecord
  2
RACCORDO
 70
0
 62
7
  6
CONTINUOUS
370
-3
390
F
  0
LAYER
  5
20D
100
AcDbSymbolTableRecord
100
AcDbLayerTableRecord
  2
SIMBOLI
 70
0
 62
7
  6
CONTINUOUS
370
-3
390
F
  0
LAYER
  5
20E
100
AcDbSymbolTableRecord
100
AcDbLayerTableRecord
  2
SMUSSO
 70
0
 62
7
  6
CONTINUOUS
370
-3
390
F
  0
LAYER
  5
20F
100
AcDbSymbolTableRecord
100
AcDbLayerTableRecord
  2
SNAPLINE
 70
0
 62
7
  6
CONTINUOUS
370
-3
390
F
  0
LAYER
  5
210
100
AcDbSymbolTableRecord
100
AcDbLayerTableRecord
  2
SUPERFICI
 70
0
 62
7
  6
CONTINUOUS
370
-3
390
F
  0
LAYER
  5
211
100
AcDbSymbolTableRecord
100
AcDbLayerTableRecord
  2
TRASH
 70
0
 62
7
  6
CONTINUOUS
370
-3
390
F
  0
ENDTAB
  0
TABLE
  2
STYLE
  5
3
100
AcDbSymbolTable
 70
1
  0
STYLE
  5
11
100
AcDbSymbolTableRecord
100
AcDbTextStyleTableRecord
  2
STANDARD
 70
0
 40
0.0
 41
0.8
 50
0.0
 71
0
 42
0.2
  3
txt
  4

  0
STYLE
  5
212
100
AcDbSymbolTableRecord
100
AcDbTextStyleTableRecord
  2
TEXTSTYLE_1
 70
0
 40
0.0
 41
0.8
 50
0.0
 71
0
 42
0.2
  3
gdt
  4

  0
ENDTAB
  0
TABLE
  2
VIEW
  5
6
100
AcDbSymbolTable
 70
0
  0
ENDTAB
  0
TABLE
  2
UCS
  5
7
100
AcDbSymbolTable
 70
0
  0
ENDTAB
  0
TABLE
  2
APPID
  5
9
100
AcDbSymbolTable
 70
1
  0
APPID
  5
213
100
AcDbSymbolTableRecord
100
AcDbRegAppTableRecord
  2
ACAD
 70
0
  0
ENDTAB
  0
TABLE
  2
BLOCK_RECORD
  5
1
100
AcDbSymbolTable
 70
0
  0
BLOCK_RECORD
  5
214
100
AcDbSymbolTableRecord
100
AcDbBlockTableRecord
  2
*Model_Space
  0
BLOCK_RECORD
  5
215
100
AcDbSymbolTableRecord
100
AcDbBlockTableRecord
  2
*Paper_Space
  0
BLOCK_RECORD
  5
216
100
AcDbSymbolTableRecord
100
AcDbBlockTableRecord
  2
_FILLED
  0
BLOCK_RECORD
  5
217
100
AcDbSymbolTableRecord
100
AcDbBlockTableRecord
  2
*D0
  0
BLOCK_RECORD
  5
218
100
AcDbSymbolTableRecord
100
AcDbBlockTableRecord
  2
*D1
  0
BLOCK_RECORD
  5
219
100
AcDbSymbolTableRecord
100
AcDbBlockTableRecord
  2
*D2
  0
ENDTAB
  0
TABLE
  2
DIMSTYLE
  5
A
100
AcDbSymbolTable
 70
1
100
AcDbDimStyleTable
 71
0
  0
DIMSTYLE
105
21A
100
AcDbSymbolTableRecord
100
AcDbDimStyleTableRecord
  2
STANDARD
 70
0
  3

  4

 40
1.0
 41
3.0
 42
0.5
 43
0.38
 44
1.5
 45
0.0
 46
0.0
 47
0.01
 48
0.01
140
3.0
141
0.09
142
0.0
143
25.4
144
1.0
145
0.0
146
1.0
147
0.625
 71
1.0
 72
0.0
 73
0
 74
0
 75
0
 76
0
 77
1
 78
8
170
0
171
2
172
0
173
0
174
0
175
0
176
0
177
0
178
0
270
2
271
2
272
2
273
2
274
2
275
0
280
0
281
0
282
0
283
1
284
8
285
0
286
0
287
3
288
0
340
11
278
44
341
216
342
216
343
216
344
216
  0
DIMSTYLE
105
21B
100
AcDbSymbolTableRecord
100
AcDbDimStyleTableRecord
  2
DIMSTYLE_1
 70
0
  3

  4

 40
1.0
 41
3.0
 42
0.5
 43
0.38
 44
1.5
 45
0.0
 46
0.0
 47
0.0
 48
0.0
140
3.0
141
0.09
142
0.0
143
25.4
144
1.0
145
0.0
146
1.0
147
0.75
 71
0.0
 72
0.0
 73
0
 74
0
 75
0
 76
0
 77
1
 78
8
170
0
171
2
172
0
173
0
174
0
175
0
176
0
177
0
178
0
270
2
271
2
272
2
273
2
274
2
275
0
280
0
281
0
282
0
283
1
284
8
285
0
286
0
287
3
288
0
340
11
278
44
341
216
342
216
343
216
344
216
  0
ENDTAB
  0
ENDSEC
  0
SECTION
  2
BLOCKS
  0
BLOCK
  5
20
100
AcDbEntity
  8
0
100
AcDbBlockBegin
  2
*Model_Space
 70
0
 10
0.0
 20
0.0
 30
0.0
  3
*Model_Space
  1

  0
ENDBLK
  5
21
100
AcDbEntity
  8
0
100
AcDbBlockEnd
  0
BLOCK
  5
1C
100
AcDbEntity
  8
0
100
AcDbBlockBegin
  2
*Paper_Space
 70
0
 10
0.0
 20
0.0
 30
0.0
  3
*Paper_Space
  1

  0
ENDBLK
  5
1D
100
AcDbEntity
  8
0
100
AcDbBlockEnd
  0
BLOCK
  5
21C
100
AcDbEntity
  8
0
100
AcDbBlockBegin
  2
_FILLED
 70
64
 10
0.0
 20
0.0
  3
_FILLED
  1

  0
SOLID
  5
21D
100
AcDbEntity
  8
0
  6
BYBLOCK
 62
0
100
AcDbTrace
 10
0.0
 20
0.0
 11
-1.0
 21
0.1333333333
 12
-1.0
 22
-0.1333333333
 13
-1.0
 23
-0.1333333333
  0
ENDBLK
  5
21E
100
AcDbEntity
  8
0
  6
BYBLOCK
 62
0
100
AcDbBlockEnd
  0
BLOCK
  5
21F
100
AcDbEntity
  8
0
100
AcDbBlockBegin
 62
7
  6
CONTINUOUS
  2
*D0
 70
65
 10
0.0
 20
0.0
  3
*D0
  1

  0
MTEXT
  5
220
100
AcDbEntity
  8
0
100
AcDbMText
 62
7
  6
CONTINUOUS
  7
STANDARD
 71
2
 72
1
 10
2.765
 20
23.335
 30
0.0
 11
0.0
 21
1.0
 31
0.0
 44
0.9
  1
43,7
 40
3.0
 41
8.5714285714
  0
LINE
  5
221
100
AcDbEntity
  8
0
100
AcDbLine
 62
7
  6
CONTINUOUS
 10
-1.7848781561
 20
45.185
 11
8.015
 21
45.185
  0
LINE
  5
222
100
AcDbEntity
  8
0
100
AcDbLine
 62
7
  6
CONTINUOUS
 10
-1.7848781561
 20
1.485
 11
8.015
 21
1.485
  0
LINE
  5
223
100
AcDbEntity
  8
0
100
AcDbLine
 62
7
  6
CONTINUOUS
 10
6.515
 20
45.185
 11
6.515
 21
23.335
  0
LINE
  5
224
100
AcDbEntity
  8
0
100
AcDbLine
 62
7
  6
CONTINUOUS
 10
6.515
 20
1.485
 11
6.515
 21
23.335
  0
INSERT
  5
225
100
AcDbEntity
  8
0
100
AcDbBlockReference
 62
7
  6
CONTINUOUS
  2
_FILLED
 10
6.515
 20
45.185
 41
3.0
 42
3.0
 43
3.0
 50
90.0
  0
INSERT
  5
226
100
AcDbEntity
  8
0
100
AcDbBlockReference
 62
7
  6
CONTINUOUS
  2
_FILLED
 10
6.515
 20
1.485
 41
3.0
 42
3.0
 43
3.0
 50
270.0
  0
ENDBLK
  5
227
100
AcDbEntity
  8
0
  6
BYBLOCK
 62
0
100
AcDbBlockEnd
  0
BLOCK
  5
228
100
AcDbEntity
  8
0
100
AcDbBlockBegin
 62
7
  6
CONTINUOUS
  2
*D1
 70
65
 10
0.0
 20
0.0
  3
*D1
  1

  0
MTEXT
  5
229
100
AcDbEntity
  8
0
100
AcDbMText
 62
7
  6
CONTINUOUS
  7
STANDARD
 71
2
 72
1
 10
-23.635
 20
56.935
 30
0.0
 11
1.0
 21
0.0
 31
0.0
 44
0.9
  1
44,3
 40
3.0
 41
8.5714285714
  0
LINE
  5
22A
100
AcDbEntity
  8
0
100
AcDbLine
 62
7
  6
CONTINUOUS
 10
-1.485
 20
44.8851218439
 11
-1.485
 21
54.685
  0
LINE
  5
22B
100
AcDbEntity
  8
0
100
AcDbLine
 62
7
  6
CONTINUOUS
 10
-45.785
 20
44.8851218439
 11
-45.785
 21
54.685
  0
LINE
  5
22C
100
AcDbEntity
  8
0
100
AcDbLine
 62
7
  6
CONTINUOUS
 10
-1.485
 20
53.185
 11
-23.635
 21
53.185
  0
LINE
  5
22D
100
AcDbEntity
  8
0
100
AcDbLine
 62
7
  6
CONTINUOUS
 10
-45.785
 20
53.185
 11
-23.635
 21
53.185
  0
INSERT
  5
22E
100
AcDbEntity
  8
0
100
AcDbBlockReference
 62
7
  6
CONTINUOUS
  2
_FILLED
 10
-1.485
 20
53.185
 41
3.0
 42
3.0
 43
3.0
 50
0.0
  0
INSERT
  5
22F
100
AcDbEntity
  8
0
100
AcDbBlockReference
 62
7
  6
CONTINUOUS
  2
_FILLED
 10
-45.785
 20
53.185
 41
3.0
 42
3.0
 43
3.0
 50
180.0
  0
ENDBLK
  5
230
100
AcDbEntity
  8
0
  6
BYBLOCK
 62
0
100
AcDbBlockEnd
  0
BLOCK
  5
231
100
AcDbEntity
  8
0
100
AcDbBlockBegin
 62
7
  6
CONTINUOUS
  2
*D2
 70
65
 10
0.0
 20
0.0
  3
*D2
  1

  0
MTEXT
  5
232
100
AcDbEntity
  8
0
100
AcDbMText
 62
7
  6
CONTINUOUS
  7
STANDARD
 71
2
 72
1
 10
-65.1357091837
 20
56.935
 30
0.0
 11
1.0
 21
0.0
 31
0.0
 44
0.9
  1
11,6
 40
3.0
 41
7.5
  0
LINE
  5
233
100
AcDbEntity
  8
0
100
AcDbLine
 62
7
  6
CONTINUOUS
 10
-59.3357091837
 20
25.0535839459
 11
-59.3357091837
 21
54.685
  0
LINE
  5
234
100
AcDbEntity
  8
0
100
AcDbLine
 62
7
  6
CONTINUOUS
 10
-70.9357091837
 20
23.835
 11
-70.9357091837
 21
54.685
  0
LINE
  5
235
100
AcDbEntity
  8
0
100
AcDbLine
 62
7
  6
CONTINUOUS
 10
-59.3357091837
 20
53.185
 11
-55.3357091837
 21
53.185
  0
LINE
  5
236
100
AcDbEntity
  8
0
100
AcDbLine
 62
7
  6
CONTINUOUS
 10
-55.3357091837
 20
53.185
 11
-65.1357091837
 21
53.185
  0
LINE
  5
237
100
AcDbEntity
  8
0
100
AcDbLine
 62
7
  6
CONTINUOUS
 10
-70.9357091837
 20
53.185
 11
-74.9357091837
 21
53.185
  0
LINE
  5
238
100
AcDbEntity
  8
0
100
AcDbLine
 62
7
  6
CONTINUOUS
 10
-74.9357091837
 20
53.185
 11
-65.1357091837
 21
53.185
  0
INSERT
  5
239
100
AcDbEntity
  8
0
100
AcDbBlockReference
 62
7
  6
CONTINUOUS
  2
_FILLED
 10
-59.3357091837
 20
53.185
 41
3.0
 42
3.0
 43
3.0
 50
180.0
  0
INSERT
  5
23A
100
AcDbEntity
  8
0
100
AcDbBlockReference
 62
7
  6
CONTINUOUS
  2
_FILLED
 10
-70.9357091837
 20
53.185
 41
3.0
 42
3.0
 43
3.0
  0
ENDBLK
  5
23B
100
AcDbEntity
  8
0
  6
BYBLOCK
 62
0
100
AcDbBlockEnd
  0
ENDSEC
  0
SECTION
  2
ENTITIES
  0
DIMENSION
  5
23C
100
AcDbEntity
  8
0
100
AcDbDimension
 62
7
  6
CONTINUOUS
  2
*D0
 10
6.515
 20
1.485
 11
6.515
 21
23.335
 70
160
 71
2
 42
43.7
  3
DIMSTYLE_1
100
AcDbAlignedDimension
 13
-2.2848781561
 23
45.185
 14
-2.2848781561
 24
1.485
 50
270.0
100
AcDbRotatedDimension
  0
DIMENSION
  5
23D
100
AcDbEntity
  8
0
100
AcDbDimension
 62
7
  6
CONTINUOUS
  2
*D1
 10
-45.785
 20
53.185
 11
-23.635
 21
53.185
 70
160
 71
2
 42
44.3
  3
DIMSTYLE_1
100
AcDbAlignedDimension
 13
-1.485
 23
44.3851218439
 14
-45.785
 24
44.3851218439
 50
180.0
100
AcDbRotatedDimension
  0
DIMENSION
  5
23E
100
AcDbEntity
  8
0
100
AcDbDimension
 62
7
  6
CONTINUOUS
  2
*D2
 10
-70.9357091837
 20
53.185
 11
-65.1357091837
 21
53.185
 70
160
 71
2
 42
11.6
  3
DIMSTYLE_1
100
AcDbAlignedDimension
 13
-59.3357091837
 23
24.5535839459
 14
-70.9357091837
 24
23.335
 50
180.0
100
AcDbRotatedDimension
  0
LWPOLYLINE
  5
23F
100
AcDbEntity
  8
RACCORDO
100
AcDbPolyline
 62
253
  6
CONTINUOUS
 90
25
 70
0
 10
-45.6964491951
 20
43.6561976496
 10
-45.6956539802
 20
43.6578525995
 10
-45.6941174973
 20
43.6595060141
 10
-45.6918411719
 20
43.6611563598
 10
-45.6888271155
 20
43.6628021055
 10
-45.6850781241
 20
43.6644417246
 10
-45.6805976755
 20
43.6660736961
 10
-45.6753899259
 20
43.6676965061
 10
-45.6694597063
 20
43.6693086492
 10
-45.6628125179
 20
43.67090863
 10
-45.6554545269
 20
43.672494964
 10
-45.6473925589
 20
43.67406618
 10
-45.6386340927
 20
43.6756208202
 10
-45.6291872529
 20
43.6771574425
 10
-45.619060803
 20
43.6786746215
 10
-45.6082641367
 20
43.6801709498
 10
-45.5968072695
 20
43.6816450393
 10
-45.5847008294
 20
43.6830955225
 10
-45.5719560469
 20
43.684521054
 10
-45.5585847446
 20
43.6859203114
 10
-45.5445993265
 20
43.6872919965
 10
-45.530012766
 20
43.6886348371
 10
-45.5148385944
 20
43.6899475873
 10
-45.499090888
 20
43.6912290295
 10
-45.4827842551
 20
43.6924779748
  0
LWPOLYLINE
  5
240
100
AcDbEntity
  8
ASSI
100
AcDbPolyline
 62
253
  6
CONTINUOUS
 90
25
 70
0
 10
-45.6964491951
 20
43.6561976496
 10
-45.6956539802
 20
43.6578525995
 10
-45.6941174973
 20
43.6595060141
 10
-45.6918411719
 20
43.6611563598
 10
-45.6888271155
 20
43.6628021055
 10
-45.6850781241
 20
43.6644417246
 10
-45.6805976755
 20
43.6660736961
 10
-45.6753899259
 20
43.6676965061
 10
-45.6694597063
 20
43.6693086492
 10
-45.6628125179
 20
43.67090863
 10
-45.6554545269
 20
43.672494964
 10
-45.6473925589
 20
43.67406618
 10
-45.6386340927
 20
43.6756208202
 10
-45.6291872529
 20
43.6771574425
 10
-45.619060803
 20
43.6786746215
 10
-45.6082641367
 20
43.6801709498
 10
-45.5968072695
 20
43.6816450393
 10
-45.5847008294
 20
43.6830955225
 10
-45.5719560469
 20
43.684521054
 10
-45.5585847446
 20
43.6859203114
 10
-45.5445993265
 20
43.6872919965
 10
-45.530012766
 20
43.6886348371
 10
-45.5148385944
 20
43.6899475873
 10
-45.499090888
 20
43.6912290295
 10
-45.4827842551
 20
43.6924779748
  0
LWPOLYLINE
  5
241
100
AcDbEntity
  8
RACCORDO
100
AcDbPolyline
 62
253
  6
CONTINUOUS
 90
26
 70
0
 10
-45.6964491951
 20
3.0138023504
 10
-45.6956539809
 20
3.0121474005
 10
-45.6941174988
 20
3.0104939858
 10
-45.691841174
 20
3.00884364
 10
-45.6888271183
 20
3.0071978943
 10
-45.6850781275
 20
3.0055582751
 10
-45.6805976794
 20
3.0039263036
 10
-45.6753899304
 20
3.0023034935
 10
-45.6694597113
 20
3.0006913503
 10
-45.6628125234
 20
2.9990913696
 10
-45.6554545329
 20
2.9975050354
 10
-45.6473925653
 20
2.9959338194
 10
-45.6386340994
 20
2.9943791792
 10
-45.62918726
 20
2.9928425568
 10
-45.6190608104
 20
2.9913253777
 10
-45.6082641444
 20
2.9898290494
 10
-45.5968072775
 20
2.9883549598
 10
-45.5847008376
 20
2.9869044765
 10
-45.5719560552
 20
2.9854789449
 10
-45.5585847531
 20
2.9840796875
 10
-45.5445993351
 20
2.9827080023
 10
-45.5300127747
 20
2.9813651617
 10
-45.5148386032
 20
2.9800524114
 10
-45.4990908968
 20
2.9787709692
 10
-45.4827842639
 20
2.9775220238
 10
-45.4485552302
 20
2.9751262264
  0
LWPOLYLINE
  5
242
100
AcDbEntity
  8
ASSI
100
AcDbPolyline
 62
253
  6
CONTINUOUS
 90
26
 70
0
 10
-45.6964491951
 20
3.0138023504
 10
-45.6956539809
 20
3.0121474005
 10
-45.6941174988
 20
3.0104939858
 10
-45.691841174
 20
3.00884364
 10
-45.6888271183
 20
3.0071978943
 10
-45.6850781275
 20
3.0055582751
 10
-45.6805976794
 20
3.0039263036
 10
-45.6753899304
 20
3.0023034935
 10
-45.6694597113
 20
3.0006913503
 10
-45.6628125234
 20
2.9990913696
 10
-45.6554545329
 20
2.9975050354
 10
-45.6473925653
 20
2.9959338194
 10
-45.6386340994
 20
2.9943791792
 10
-45.62918726
 20
2.9928425568
 10
-45.6190608104
 20
2.9913253777
 10
-45.6082641444
 20
2.9898290494
 10
-45.5968072775
 20
2.9883549598
 10
-45.5847008376
 20
2.9869044765
 10
-45.5719560552
 20
2.9854789449
 10
-45.5585847531
 20
2.9840796875
 10
-45.5445993351
 20
2.9827080023
 10
-45.5300127747
 20
2.9813651617
 10
-45.5148386032
 20
2.9800524114
 10
-45.4990908968
 20
2.9787709692
 10
-45.4827842639
 20
2.9775220238
 10
-45.4485552302
 20
2.9751262264
  0
LWPOLYLINE
  5
243
100
AcDbEntity
  8
RACCORDO
100
AcDbPolyline
 62
253
  6
CONTINUOUS
 90
13
 70
0
 10
-45.7048595255
 20
44.274314902
 10
-45.7051482531
 20
44.2794702758
 10
-45.7054392966
 20
44.2842178477
 10
-45.7057321216
 20
44.288548897
 10
-45.7060267317
 20
44.2924626599
 10
-45.7063231234
 20
44.2959599003
 10
-45.7066207513
 20
44.2990341894
 10
-45.7069196229
 20
44.3016847535
 10
-45.7072197307
 20
44.3039123663
 10
-45.7075205074
 20
44.3057129208
 10
-45.7078217639
 20
44.3070850479
 10
-45.7081236892
 20
44.3080301168
 10
-45.7084262834
 20
44.3085481273
  0
LWPOLYLINE
  5
244
100
AcDbEntity
  8
ASSI
100
AcDbPolyline
 62
253
  6
CONTINUOUS
 90
13
 70
0
 10
-45.7048595255
 20
44.274314902
 10
-45.7051482531
 20
44.2794702758
 10
-45.7054392966
 20
44.2842178477
 10
-45.7057321216
 20
44.288548897
 10
-45.7060267317
 20
44.2924626599
 10
-45.7063231234
 20
44.2959599003
 10
-45.7066207513
 20
44.2990341894
 10
-45.7069196229
 20
44.3016847535
 10
-45.7072197307
 20
44.3039123663
 10
-45.7075205074
 20
44.3057129208
 10
-45.7078217639
 20
44.3070850479
 10
-45.7081236892
 20
44.3080301168
 10
-45.7084262834
 20
44.3085481273
  0
LINE
  5
245
100
AcDbEntity
  8
RACCORDO
100
AcDbLine
 62
253
  6
CONTINUOUS
 10
-45.7042890262
 20
44.2627792512
 11
-45.7048595255
 21
44.274314902
  0
LINE
  5
246
100
AcDbEntity
  8
ASSI
100
AcDbLine
 62
253
  6
CONTINUOUS
 10
-45.7042890262
 20
44.2627792512
 11
-45.7048595255
 21
44.274314902
  0
LINE
  5
247
100
AcDbEntity
  8
RACCORDO
100
AcDbLine
 62
253
  6
CONTINUOUS
 10
-45.7037293605
 20
44.2496445592
 11
-45.7042890262
 21
44.2627792512
  0
LINE
  5
248
100
AcDbEntity
  8
ASSI
100
AcDbLine
 62
253
  6
CONTINUOUS
 10
-45.7037293605
 20
44.2496445592
 11
-45.7042890262
 21
44.2627792512
  0
LINE
  5
249
100
AcDbEntity
  8
RACCORDO
100
AcDbLine
 62
253
  6
CONTINUOUS
 10
-45.7031815565
 20
44.2349349569
 11
-45.7037293605
 21
44.2496445592
  0
LINE
  5
24A
100
AcDbEntity
  8
ASSI
100
AcDbLine
 62
253
  6
CONTINUOUS
 10
-45.7031815565
 20
44.2349349569
 11
-45.7037293605
 21
44.2496445592
  0
LINE
  5
24B
100
AcDbEntity
  8
RACCORDO
100
AcDbLine
 62
253
  6
CONTINUOUS
 10
-44.9055610512
 20
45.056285639
 11
-44.9061484795
 21
45.0739569876
  0
LINE
  5
24C
100
AcDbEntity
  8
ASSI
100
AcDbLine
 62
253
  6
CONTINUOUS
 10
-44.9055610512
 20
45.056285639
 11
-44.9061484795
 21
45.0739569876
  0
LINE
  5
24D
100
AcDbEntity
  8
RACCORDO
100
AcDbLine
 62
253
  6
CONTINUOUS
 10
-45.7023854364
 20
44.210006186
 11
-45.7031815565
 21
44.2349349569
  0
LINE
  5
24E
100
AcDbEntity
  8
ASSI
100
AcDbLine
 62
253
  6
CONTINUOUS
 10
-45.7023854364
 20
44.210006186
 11
-45.7031815565
 21
44.2349349569
  0
LINE
  5
24F
100
AcDbEntity
  8
RACCORDO
100
AcDbLine
 62
253
  6
CONTINUOUS
 10
-44.9049812976
 20
45.0350661172
 11
-44.9055610512
 21
45.056285639
  0
LINE
  5
250
100
AcDbEntity
  8
ASSI
100
AcDbLine
 62
253
  6
CONTINUOUS
 10
-44.9049812976
 20
45.0350661172
 11
-44.9055610512
 21
45.056285639
  0
LINE
  5
251
100
AcDbEntity
  8
RACCORDO
100
AcDbLine
 62
253
  6
CONTINUOUS
 10
-45.7013783718
 20
44.1716384983
 11
-45.7023854364
 21
44.210006186
  0
LINE
  5
252
100
AcDbEntity
  8
ASSI
100
AcDbLine
 62
253
  6
CONTINUOUS
 10
-45.7013783718
 20
44.1716384983
 11
-45.7023854364
 21
44.210006186
  0
LWPOLYLINE
  5
253
100
AcDbEntity
  8
RACCORDO
100
AcDbPolyline
 62
253
  6
CONTINUOUS
 90
31
 70
0
 10
-45.6843932437
 20
23.685
 10
-45.6842029169
 20
23.6762761216
 10
-45.683632299
 20
23.6675688496
 10
-45.6826824762
 20
23.6588947588
 10
-45.6813552564
 20
23.6502703608
 10
-45.6796531661
 20
23.6417120727
 10
-45.6775794454
 20
23.6332361857
 10
-45.6751380417
 20
23.6248588341
 10
-45.6723336024
 20
23.6165959647
 10
-45.6691714659
 20
23.6084633063
 10
-45.6656576514
 20
23.6004763399
 10
-45.6617988478
 20
23.5926502692
 10
-45.6576024005
 20
23.5849999916
 10
-45.6530762977
 20
23.5775400697
 10
-45.6482291551
 20
23.5702847039
 10
-45.6430701996
 20
23.5632477053
 10
-45.6376092514
 20
23.5564424693
 10
-45.6318567059
 20
23.5498819498
 10
-45.6258235132
 20
23.5435786353
 10
-45.6195211581
 20
23.5375445245
 10
-45.6129616373
 20
23.5317911036
 10
-45.6061574374
 20
23.5263293246
 10
-45.5991215104
 20
23.5211695843
 10
-45.5918672497
 20
23.5163217045
 10
-45.5844084643
 20
23.5117949135
 10
-45.5767593522
 20
23.5075978283
 10
-45.5689344741
 20
23.5037384382
 10
-45.560948725
 20
23.5002240897
 10
-45.5528173064
 20
23.4970614727
 10
-45.5445556967
 20
23.4942566073
 10
-45.5361796225
 20
23.4918148328
  0
LWPOLYLINE
  5
254
100
AcDbEntity
  8
ASSI
100
AcDbPolyline
 62
253
  6
CONTINUOUS
 90
31
 70
0
 10
-45.6843932437
 20
23.685
 10
-45.6842029169
 20
23.6762761216
 10
-45.683632299
 20
23.6675688496
 10
-45.6826824762
 20
23.6588947588
 10
-45.6813552564
 20
23.6502703608
 10
-45.6796531661
 20
23.6417120727
 10
-45.6775794454
 20
23.6332361857
 10
-45.6751380417
 20
23.6248588341
 10
-45.6723336024
 20
23.6165959647
 10
-45.6691714659
 20
23.6084633063
 10
-45.6656576514
 20
23.6004763399
 10
-45.6617988478
 20
23.5926502692
 10
-45.6576024005
 20
23.5849999916
 10
-45.6530762977
 20
23.5775400697
 10
-45.6482291551
 20
23.5702847039
 10
-45.6430701996
 20
23.5632477053
 10
-45.6376092514
 20
23.5564424693
 10
-45.6318567059
 20
23.5498819498
 10
-45.6258235132
 20
23.5435786353
 10
-45.6195211581
 20
23.5375445245
 10
-45.6129616373
 20
23.5317911036
 10
-45.6061574374
 20
23.5263293246
 10
-45.5991215104
 20
23.5211695843
 10
-45.5918672497
 20
23.5163217045
 10
-45.5844084643
 20
23.5117949135
 10
-45.5767593522
 20
23.5075978283
 10
-45.5689344741
 20
23.5037384382
 10
-45.560948725
 20
23.5002240897
 10
-45.5528173064
 20
23.4970614727
 10
-45.5445556967
 20
23.4942566073
 10
-45.5361796225
 20
23.4918148328
  0
LINE
  5
255
100
AcDbEntity
  8
RACCORDO
100
AcDbLine
 62
253
  6
CONTINUOUS
 10
-44.9041295597
 20
44.9967000867
 11
-44.9049812976
 21
45.0350661172
  0
LINE
  5
256
100
AcDbEntity
  8
ASSI
100
AcDbLine
 62
253
  6
CONTINUOUS
 10
-44.9041295597
 20
44.9967000867
 11
-44.9049812976
 21
45.0350661172
  0
LINE
  5
257
100
AcDbEntity
  8
RACCORDO
100
AcDbLine
 62
253
  6
CONTINUOUS
 10
-45.7002205686
 20
44.1159669809
 11
-45.7013783718
 21
44.1716384983
  0
LINE
  5
258
100
AcDbEntity
  8
ASSI
100
AcDbLine
 62
253
  6
CONTINUOUS
 10
-45.7002205686
 20
44.1159669809
 11
-45.7013783718
 21
44.1716384983
  0
LWPOLYLINE
  5
259
100
AcDbEntity
  8
RACCORDO
100
AcDbPolyline
 62
253
  6
CONTINUOUS
 90
52
 70
0
 10
-45.7084262834
 20
2.3614518727
 10
-45.7080395629
 20
2.3368243524
 10
-45.7068947704
 20
2.3122201837
 10
-45.7049929914
 20
2.2876626961
 10
-45.7023360292
 20
2.2631751748
 10
-45.698926403
 20
2.2387808387
 10
-45.6947673459
 20
2.2145028184
 10
-45.6898628015
 20
2.1903641341
 10
-45.6842174201
 20
2.1663876739
 10
-45.6778365548
 20
2.1425961722
 10
-45.6707262557
 20
2.1190121878
 10
-45.6628932649
 20
2.0956580829
 10
-45.6543450094
 20
2.0725560017
 10
-45.6450895947
 20
2.0497278495
 10
-45.6351357968
 20
2.0271952717
 10
-45.6244930537
 20
2.0049796336
 10
-45.6131714567
 20
1.9831019999
 10
-45.601181741
 20
1.9615831147
 10
-45.5885352751
 20
1.9404433822
 10
-45.5752440504
 20
1.9197028468
 10
-45.5613206693
 20
1.8993811747
 10
-45.546778334
 20
1.8794976346
 10
-45.5316308335
 20
1.8600710801
 10
-45.5158925304
 20
1.8411199312
 10
-45.4995783477
 20
1.8226621572
 10
-45.4827037544
 20
1.8047152597
 10
-45.4652847509
 20
1.7872962559
 10
-45.4473378537
 20
1.7704216622
 10
-45.4288800799
 20
1.7541074791
 10
-45.4099289312
 20
1.7383691756
 10
-45.3905023767
 20
1.7232216746
 10
-45.3706188367
 20
1.7086793388
 10
-45.3502971646
 20
1.6947559572
 10
-45.3295566292
 20
1.6814647319
 10
-45.3084168966
 20
1.6688182655
 10
-45.2868980112
 20
1.6568285492
 10
-45.2650203773
 20
1.6455069518
 10
-45.2428047388
 20
1.6348642081
 10
-45.2202721607
 20
1.6249104096
 10
-45.197444008
 20
1.6156549944
 10
-45.1743419264
 20
1.6071067384
 10
-45.1509878209
 20
1.5992737471
 10
-45.1274038359
 20
1.5921634475
 10
-45.1036123335
 20
1.5857825817
 10
-45.0796358725
 20
1.5801372
 10
-45.0554971874
 20
1.5752326552
 10
-45.0312191663
 20
1.5710735978
 10
-45.0068248293
 20
1.5676639713
 10
-44.9823373071
 20
1.5650070089
 10
-44.9577798184
 20
1.5631052298
 10
-44.9331756487
 20
1.5619604372
 10
-44.9085481273
 20
1.5615737166
  0
LWPOLYLINE
  5
25A
100
AcDbEntity
  8
ASSI
100
AcDbPolyline
 62
253
  6
CONTINUOUS
 90
52
 70
0
 10
-45.7084262834
 20
2.3614518727
 10
-45.7080395629
 20
2.3368243524
 10
-45.7068947704
 20
2.3122201837
 10
-45.7049929914
 20
2.2876626961
 10
-45.7023360292
 20
2.2631751748
 10
-45.698926403
 20
2.2387808387
 10
-45.6947673459
 20
2.2145028184
 10
-45.6898628015
 20
2.1903641341
 10
-45.6842174201
 20
2.1663876739
 10
-45.6778365548
 20
2.1425961722
 10
-45.6707262557
 20
2.1190121878
 10
-45.6628932649
 20
2.0956580829
 10
-45.6543450094
 20
2.0725560017
 10
-45.6450895947
 20
2.0497278495
 10
-45.6351357968
 20
2.0271952717
 10
-45.6244930537
 20
2.0049796336
 10
-45.6131714567
 20
1.9831019999
 10
-45.601181741
 20
1.9615831147
 10
-45.5885352751
 20
1.9404433822
 10
-45.5752440504
 20
1.9197028468
 10
-45.5613206693
 20
1.8993811747
 10
-45.546778334
 20
1.8794976346
 10
-45.5316308335
 20
1.8600710801
 10
-45.5158925304
 20
1.8411199312
 10
-45.4995783477
 20
1.8226621572
 10
-45.4827037544
 20
1.8047152597
 10
-45.4652847509
 20
1.7872962559
 10
-45.4473378537
 20
1.7704216622
 10
-45.4288800799
 20
1.7541074791
 10
-45.4099289312
 20
1.7383691756
 10
-45.3905023767
 20
1.7232216746
 10
-45.3706188367
 20
1.7086793388
 10
-45.3502971646
 20
1.6947559572
 10
-45.3295566292
 20
1.6814647319
 10
-45.3084168966
 20
1.6688182655
 10
-45.2868980112
 20
1.6568285492
 10
-45.2650203773
 20
1.6455069518
 10
-45.2428047388
 20
1.6348642081
 10
-45.2202721607
 20
1.6249104096
 10
-45.197444008
 20
1.6156549944
 10
-45.1743419264
 20
1.6071067384
 10
-45.1509878209
 20
1.5992737471
 10
-45.1274038359
 20
1.5921634475
 10
-45.1036123335
 20
1.5857825817
 10
-45.0796358725
 20
1.5801372
 10
-45.0554971874
 20
1.5752326552
 10
-45.0312191663
 20
1.5710735978
 10
-45.0068248293
 20
1.5676639713
 10
-44.9823373071
 20
1.5650070089
 10
-44.9577798184
 20
1.5631052298
 10
-44.9331756487
 20
1.5619604372
 10
-44.9085481273
 20
1.5615737166
  0
LINE
  5
25B
100
AcDbEntity
  8
RACCORDO
100
AcDbLine
 62
253
  6
CONTINUOUS
 10
-44.9027689572
 20
44.9158739394
 11
-44.9041295597
 21
44.9967000867
  0
LINE
  5
25C
100
AcDbEntity
  8
ASSI
100
AcDbLine
 62
253
  6
CONTINUOUS
 10
-44.9027689572
 20
44.9158739394
 11
-44.9041295597
 21
44.9967000867
  0
LINE
  5
25D
100
AcDbEntity
  8
RACCORDO
100
AcDbLine
 62
253
  6
CONTINUOUS
 10
-45.6990027615
 20
44.038999663
 11
-45.7002205686
 21
44.1159669809
  0
LINE
  5
25E
100
AcDbEntity
  8
ASSI
100
AcDbLine
 62
253
  6
CONTINUOUS
 10
-45.6990027615
 20
44.038999663
 11
-45.7002205686
 21
44.1159669809
  0
LINE
  5
25F
100
AcDbEntity
  8
RACCORDO
100
AcDbLine
 62
253
  6
CONTINUOUS
 10
-44.9007910656
 20
44.7455752577
 11
-44.9027689572
 21
44.9158739394
  0
LINE
  5
260
100
AcDbEntity
  8
ASSI
100
AcDbLine
 62
253
  6
CONTINUOUS
 10
-44.9007910656
 20
44.7455752577
 11
-44.9027689572
 21
44.9158739394
  0
LINE
  5
261
100
AcDbEntity
  8
RACCORDO
100
AcDbLine
 62
253
  6
CONTINUOUS
 10
-45.6977131228
 20
43.9219548167
 11
-45.6990027615
 21
44.038999663
  0
LINE
  5
262
100
AcDbEntity
  8
ASSI
100
AcDbLine
 62
253
  6
CONTINUOUS
 10
-45.6977131228
 20
43.9219548167
 11
-45.6990027615
 21
44.038999663
  0
LINE
  5
263
100
AcDbEntity
  8
RACCORDO
100
AcDbLine
 62
253
  6
CONTINUOUS
 10
-44.898270915
 20
44.3777100508
 11
-44.9007910656
 21
44.7455752577
  0
LINE
  5
264
100
AcDbEntity
  8
ASSI
100
AcDbLine
 62
253
  6
CONTINUOUS
 10
-44.898270915
 20
44.3777100508
 11
-44.9007910656
 21
44.7455752577
  0
LINE
  5
265
100
AcDbEntity
  8
RACCORDO
100
AcDbLine
 62
253
  6
CONTINUOUS
 10
-45.6967748114
 20
43.7758905634
 11
-45.6977131228
 21
43.9219548167
  0
LINE
  5
266
100
AcDbEntity
  8
ASSI
100
AcDbLine
 62
253
  6
CONTINUOUS
 10
-45.6967748114
 20
43.7758905634
 11
-45.6977131228
 21
43.9219548167
  0
LINE
  5
267
100
AcDbEntity
  8
RACCORDO
100
AcDbLine
 62
253
  6
CONTINUOUS
 10
-45.6964491951
 20
43.6561976496
 11
-45.6967748114
 21
43.7758905634
  0
LINE
  5
268
100
AcDbEntity
  8
ASSI
100
AcDbLine
 62
253
  6
CONTINUOUS
 10
-45.6964491951
 20
43.6561976496
 11
-45.6967748114
 21
43.7758905634
  0
LINE
  5
269
100
AcDbEntity
  8
RACCORDO
100
AcDbLine
 62
253
  6
CONTINUOUS
 10
-45.6951686732
 20
42.5482174437
 11
-45.6964491951
 21
43.6561976496
  0
LINE
  5
26A
100
AcDbEntity
  8
ASSI
100
AcDbLine
 62
253
  6
CONTINUOUS
 10
-45.6951686732
 20
42.5482174437
 11
-45.6964491951
 21
43.6561976496
  0
LINE
  5
26B
100
AcDbEntity
  8
RACCORDO
100
AcDbLine
 62
253
  6
CONTINUOUS
 10
-45.6917579666
 20
39.2228568117
 11
-45.6951686732
 21
42.5482174437
  0
LINE
  5
26C
100
AcDbEntity
  8
ASSI
100
AcDbLine
 62
253
  6
CONTINUOUS
 10
-45.6917579666
 20
39.2228568117
 11
-45.6951686732
 21
42.5482174437
  0
LINE
  5
26D
100
AcDbEntity
  8
RACCORDO
100
AcDbLine
 62
253
  6
CONTINUOUS
 10
-44.8918796681
 20
39.2651788513
 11
-44.895290474
 21
42.599576677
  0
LINE
  5
26E
100
AcDbEntity
  8
ASSI
100
AcDbLine
 62
253
  6
CONTINUOUS
 10
-44.8918796681
 20
39.2651788513
 11
-44.895290474
 21
42.599576677
  0
LINE
  5
26F
100
AcDbEntity
  8
RACCORDO
100
AcDbLine
 62
253
  6
CONTINUOUS
 10
-45.6889936679
 20
35.8954961503
 11
-45.6917579666
 21
39.2228568117
  0
LINE
  5
270
100
AcDbEntity
  8
ASSI
100
AcDbLine
 62
253
  6
CONTINUOUS
 10
-45.6889936679
 20
35.8954961503
 11
-45.6917579666
 21
39.2228568117
  0
LWPOLYLINE
  5
271
100
AcDbEntity
  8
RACCORDO
100
AcDbPolyline
 62
253
  6
CONTINUOUS
 90
3
 70
0
 10
-44.895290474
 20
42.599576677
 10
-44.8965953568
 20
43.7475454002
 10
-44.898270915
 20
44.3777100508
  0
LWPOLYLINE
  5
272
100
AcDbEntity
  8
ASSI
100
AcDbPolyline
 62
253
  6
CONTINUOUS
 90
3
 70
0
 10
-44.895290474
 20
42.599576677
 10
-44.8965953568
 20
43.7475454002
 10
-44.898270915
 20
44.3777100508
  0
LINE
  5
273
100
AcDbEntity
  8
RACCORDO
100
AcDbLine
 62
253
  6
CONTINUOUS
 10
-44.8891153152
 20
35.9288065449
 11
-44.8918796681
 21
39.2651788513
  0
LINE
  5
274
100
AcDbEntity
  8
ASSI
100
AcDbLine
 62
253
  6
CONTINUOUS
 10
-44.8891153152
 20
35.9288065449
 11
-44.8918796681
 21
39.2651788513
  0
LINE
  5
275
100
AcDbEntity
  8
RACCORDO
100
AcDbLine
 62
253
  6
CONTINUOUS
 10
-45.6875101043
 20
33.676360346
 11
-45.6889936679
 21
35.8954961503
  0
LINE
  5
276
100
AcDbEntity
  8
ASSI
100
AcDbLine
 62
253
  6
CONTINUOUS
 10
-45.6875101043
 20
33.676360346
 11
-45.6889936679
 21
35.8954961503
  0
LINE
  5
277
100
AcDbEntity
  8
RACCORDO
100
AcDbLine
 62
253
  6
CONTINUOUS
 10
-44.8876317402
 20
33.7036655997
 11
-44.8891153152
 21
35.9288065449
  0
LINE
  5
278
100
AcDbEntity
  8
ASSI
100
AcDbLine
 62
253
  6
CONTINUOUS
 10
-44.8876317402
 20
33.7036655997
 11
-44.8891153152
 21
35.9288065449
  0
LINE
  5
279
100
AcDbEntity
  8
RACCORDO
100
AcDbLine
 62
253
  6
CONTINUOUS
 10
-45.6858239309
 20
30.3466344918
 11
-45.6875101043
 21
33.676360346
  0
LINE
  5
27A
100
AcDbEntity
  8
ASSI
100
AcDbLine
 62
253
  6
CONTINUOUS
 10
-45.6858239309
 20
30.3466344918
 11
-45.6875101043
 21
33.676360346
  0
LINE
  5
27B
100
AcDbEntity
  8
RACCORDO
100
AcDbLine
 62
253
  6
CONTINUOUS
 10
-44.8859455868
 20
30.3649215565
 11
-44.8876317402
 21
33.7036655997
  0
LINE
  5
27C
100
AcDbEntity
  8
ASSI
100
AcDbLine
 62
253
  6
CONTINUOUS
 10
-44.8859455868
 20
30.3649215565
 11
-44.8876317402
 21
33.7036655997
  0
LINE
  5
27D
100
AcDbEntity
  8
RACCORDO
100
AcDbLine
 62
7
  6
CONTINUOUS
 10
-45.785
 20
44.3851218439
 11
-45.785
 21
23.685
  0
LINE
  5
27E
100
AcDbEntity
  8
ASSI
100
AcDbLine
 62
7
  6
CONTINUOUS
 10
-45.785
 20
44.3851218439
 11
-45.785
 21
23.685
  0
LINE
  5
27F
100
AcDbEntity
  8
RACCORDO
100
AcDbLine
 62
7
  6
CONTINUOUS
 10
-45.785
 20
22.985
 11
-45.785
 21
2.2848781561
  0
LINE
  5
280
100
AcDbEntity
  8
ASSI
100
AcDbLine
 62
7
  6
CONTINUOUS
 10
-45.785
 20
22.985
 11
-45.785
 21
2.2848781561
  0
LINE
  5
281
100
AcDbEntity
  8
RACCORDO
100
AcDbLine
 62
253
  6
CONTINUOUS
 10
-45.6843932437
 20
23.685
 11
-45.6858239309
 21
30.3466344918
  0
LINE
  5
282
100
AcDbEntity
  8
ASSI
100
AcDbLine
 62
253
  6
CONTINUOUS
 10
-45.6843932437
 20
23.685
 11
-45.6858239309
 21
30.3466344918
  0
LINE
  5
283
100
AcDbEntity
  8
0
100
AcDbLine
 62
7
  6
CONTINUOUS
 10
-45.3849390688
 20
23.185
 11
-45.3849390688
 21
23.485
  0
LINE
  5
284
100
AcDbEntity
  8
ASSI
100
AcDbLine
 62
7
  6
CONTINUOUS
 10
-45.3849390688
 20
23.185
 11
-45.3849390688
 21
23.485
  0
LINE
  5
285
100
AcDbEntity
  8
0
100
AcDbLine
 62
253
  6
CONTINUOUS
 10
-45.2844505923
 20
23.185
 11
-45.2844505923
 21
23.485
  0
LINE
  5
286
100
AcDbEntity
  8
ASSI
100
AcDbLine
 62
253
  6
CONTINUOUS
 10
-45.2844505923
 20
23.185
 11
-45.2844505923
 21
23.485
  0
LINE
  5
287
100
AcDbEntity
  8
0
100
AcDbLine
 62
253
  6
CONTINUOUS
 10
-44.8845115142
 20
23.185
 11
-44.8845115142
 21
23.485
  0
LWPOLYLINE
  5
288
100
AcDbEntity
  8
RACCORDO
100
AcDbPolyline
 62
253
  6
CONTINUOUS
 90
3
 70
0
 10
-44.8845150732
 20
23.485
 10
-44.8845736727
 20
24.7986163288
 10
-44.8859455868
 20
30.3649215565
  0
LINE
  5
289
100
AcDbEntity
  8
ASSI
100
AcDbLine
 62
253
  6
CONTINUOUS
 10
-44.8845736727
 20
24.7986163288
 11
-44.8859455868
 21
30.3649215565
  0
LINE
  5
28A
100
AcDbEntity
  8
RACCORDO
100
AcDbLine
 62
253
  6
CONTINUOUS
 10
-45.6847849344
 20
19.6539603075
 11
-45.6843932437
 21
22.985
  0
LINE
  5
28B
100
AcDbEntity
  8
ASSI
100
AcDbLine
 62
253
  6
CONTINUOUS
 10
-45.6847849344
 20
19.6539603075
 11
-45.6843932437
 21
22.985
  0
LINE
  5
28C
100
AcDbEntity
  8
RACCORDO
100
AcDbLine
 62
253
  6
CONTINUOUS
 10
-44.8847041999
 20
20.7580209835
 11
-44.8845150732
 21
23.185
  0
LINE
  5
28D
100
AcDbEntity
  8
ASSI
100
AcDbLine
 62
253
  6
CONTINUOUS
 10
-44.8847041999
 20
20.7580209835
 11
-44.8845736727
 21
24.7986163288
  0
LINE
  5
28E
100
AcDbEntity
  8
RACCORDO
100
AcDbLine
 62
253
  6
CONTINUOUS
 10
-44.885527358
 20
17.418207185
 11
-44.8847041999
 21
20.7580209835
  0
LINE
  5
28F
100
AcDbEntity
  8
ASSI
100
AcDbLine
 62
253
  6
CONTINUOUS
 10
-44.885527358
 20
17.418207185
 11
-44.8847041999
 21
20.7580209835
  0
LWPOLYLINE
  5
290
100
AcDbEntity
  8
RACCORDO
100
AcDbPolyline
 62
253
  6
CONTINUOUS
 90
3
 70
0
 10
-45.6863140879
 20
15.2133451431
 10
-45.6858239309
 20
16.3233655793
 10
-45.6847849344
 20
19.6539603075
  0
LWPOLYLINE
  5
291
100
AcDbEntity
  8
ASSI
100
AcDbPolyline
 62
253
  6
CONTINUOUS
 90
3
 70
0
 10
-45.6863140879
 20
15.2133451431
 10
-45.6858239309
 20
16.3233655793
 10
-45.6847849344
 20
19.6539603075
  0
LWPOLYLINE
  5
292
100
AcDbEntity
  8
RACCORDO
100
AcDbPolyline
 62
253
  6
CONTINUOUS
 90
3
 70
0
 10
-44.8869977911
 20
14.0791267234
 10
-44.8864357322
 20
15.1920465124
 10
-44.885527358
 20
17.418207185
  0
LWPOLYLINE
  5
293
100
AcDbEntity
  8
ASSI
100
AcDbPolyline
 62
253
  6
CONTINUOUS
 90
3
 70
0
 10
-44.8869977911
 20
14.0791267234
 10
-44.8864357322
 20
15.1920465124
 10
-44.885527358
 20
17.418207185
  0
LWPOLYLINE
  5
294
100
AcDbEntity
  8
RACCORDO
100
AcDbPolyline
 62
253
  6
CONTINUOUS
 90
3
 70
0
 10
-45.6882159433
 20
11.8840006709
 10
-45.6875101042
 20
12.9936397607
 10
-45.6863140879
 20
15.2133451431
  0
LWPOLYLINE
  5
295
100
AcDbEntity
  8
ASSI
100
AcDbPolyline
 62
253
  6
CONTINUOUS
 90
3
 70
0
 10
-45.6882159433
 20
11.8840006709
 10
-45.6875101042
 20
12.9936397607
 10
-45.6863140879
 20
15.2133451431
  0
LINE
  5
296
100
AcDbEntity
  8
RACCORDO
100
AcDbLine
 62
253
  6
CONTINUOUS
 10
-44.8883375826
 20
11.8536848684
 11
-44.8869977911
 21
14.0791267234
  0
LINE
  5
297
100
AcDbEntity
  8
ASSI
100
AcDbLine
 62
253
  6
CONTINUOUS
 10
-44.8883375826
 20
11.8536848684
 11
-44.8869977911
 21
14.0791267234
  0
LWPOLYLINE
  5
298
100
AcDbEntity
  8
RACCORDO
100
AcDbPolyline
 62
253
  6
CONTINUOUS
 90
3
 70
0
 10
-45.6907646793
 20
8.556075329
 10
-45.6898432455
 20
9.6651955337
 10
-45.6882159433
 20
11.8840006709
  0
LWPOLYLINE
  5
299
100
AcDbEntity
  8
ASSI
100
AcDbPolyline
 62
253
  6
CONTINUOUS
 90
3
 70
0
 10
-45.6907646793
 20
8.556075329
 10
-45.6898432455
 20
9.6651955337
 10
-45.6882159433
 20
11.8840006709
  0
LWPOLYLINE
  5
29A
100
AcDbEntity
  8
RACCORDO
100
AcDbPolyline
 62
253
  6
CONTINUOUS
 90
3
 70
0
 10
-44.890886358
 20
8.5167462757
 10
-44.889964906
 20
9.6288754828
 10
-44.8883375826
 20
11.8536848684
  0
LWPOLYLINE
  5
29B
100
AcDbEntity
  8
ASSI
100
AcDbPolyline
 62
253
  6
CONTINUOUS
 90
3
 70
0
 10
-44.890886358
 20
8.5167462757
 10
-44.889964906
 20
9.6288754828
 10
-44.8883375826
 20
11.8536848684
  0
LWPOLYLINE
  5
29C
100
AcDbEntity
  8
RACCORDO
100
AcDbPolyline
 62
253
  6
CONTINUOUS
 90
3
 70
0
 10
-45.6939599633
 20
5.2299970231
 10
-45.6928230657
 20
6.3384455051
 10
-45.6907646793
 20
8.556075329
  0
LWPOLYLINE
  5
29D
100
AcDbEntity
  8
ASSI
100
AcDbPolyline
 62
253
  6
CONTINUOUS
 90
3
 70
0
 10
-45.6939599633
 20
5.2299970231
 10
-45.6928230657
 20
6.3384455051
 10
-45.6907646793
 20
8.556075329
  0
LWPOLYLINE
  5
29E
100
AcDbEntity
  8
RACCORDO
100
AcDbPolyline
 62
253
  6
CONTINUOUS
 90
3
 70
0
 10
-44.8940817261
 20
5.1816443616
 10
-44.8929447954
 20
6.2931154076
 10
-44.890886358
 20
8.5167462757
  0
LWPOLYLINE
  5
29F
100
AcDbEntity
  8
ASSI
100
AcDbPolyline
 62
253
  6
CONTINUOUS
 90
3
 70
0
 10
-44.8940817261
 20
5.1816443616
 10
-44.8929447954
 20
6.2931154076
 10
-44.890886358
 20
8.5167462757
  0
LINE
  5
2A0
100
AcDbEntity
  8
RACCORDO
100
AcDbLine
 62
253
  6
CONTINUOUS
 10
-45.696933852
 20
2.8606664567
 11
-45.6939599633
 21
5.2299970231
  0
LINE
  5
2A1
100
AcDbEntity
  8
ASSI
100
AcDbLine
 62
253
  6
CONTINUOUS
 10
-45.696933852
 20
2.8606664567
 11
-45.6939599633
 21
5.2299970231
  0
LINE
  5
2A2
100
AcDbEntity
  8
RACCORDO
100
AcDbLine
 62
253
  6
CONTINUOUS
 10
-44.898593841
 20
2.22949452
 11
-44.8940817261
 21
5.1816443616
  0
LINE
  5
2A3
100
AcDbEntity
  8
ASSI
100
AcDbLine
 62
253
  6
CONTINUOUS
 10
-44.898593841
 20
2.22949452
 11
-44.8940817261
 21
5.1816443616
  0
LINE
  5
2A4
100
AcDbEntity
  8
RACCORDO
100
AcDbLine
 62
253
  6
CONTINUOUS
 10
-45.6979972256
 20
2.7174418366
 11
-45.696933852
 21
2.8606664567
  0
LINE
  5
2A5
100
AcDbEntity
  8
ASSI
100
AcDbLine
 62
253
  6
CONTINUOUS
 10
-45.6979972256
 20
2.7174418366
 11
-45.696933852
 21
2.8606664567
  0
LINE
  5
2A6
100
AcDbEntity
  8
RACCORDO
100
AcDbLine
 62
253
  6
CONTINUOUS
 10
-44.9010227077
 20
1.9005521959
 11
-44.898593841
 21
2.22949452
  0
LINE
  5
2A7
100
AcDbEntity
  8
ASSI
100
AcDbLine
 62
253
  6
CONTINUOUS
 10
-44.9010227077
 20
1.9005521959
 11
-44.898593841
 21
2.22949452
  0
LINE
  5
2A8
100
AcDbEntity
  8
RACCORDO
100
AcDbLine
 62
253
  6
CONTINUOUS
 10
-45.6991916651
 20
2.6174659729
 11
-45.6979972256
 21
2.7174418366
  0
LINE
  5
2A9
100
AcDbEntity
  8
ASSI
100
AcDbLine
 62
253
  6
CONTINUOUS
 10
-45.6991916651
 20
2.6174659729
 11
-45.6979972256
 21
2.7174418366
  0
LINE
  5
2AA
100
AcDbEntity
  8
RACCORDO
100
AcDbLine
 62
253
  6
CONTINUOUS
 10
-44.9027689631
 20
1.7541260477
 11
-44.9010227077
 21
1.9005521959
  0
LINE
  5
2AB
100
AcDbEntity
  8
ASSI
100
AcDbLine
 62
253
  6
CONTINUOUS
 10
-44.9027689631
 20
1.7541260477
 11
-44.9010227077
 21
1.9005521959
  0
LWPOLYLINE
  5
2AC
100
AcDbEntity
  8
RACCORDO
100
AcDbPolyline
 62
253
  6
CONTINUOUS
 90
52
 70
0
 10
-45.7084262834
 20
44.3085481273
 10
-45.7080395628
 20
44.3331756482
 10
-45.7068947703
 20
44.3577798176
 10
-45.7049929912
 20
44.3823373058
 10
-45.7023360289
 20
44.4068248276
 10
-45.6989264026
 20
44.4312191642
 10
-45.6947673453
 20
44.4554971849
 10
-45.6898628007
 20
44.4796358697
 10
-45.6842174191
 20
44.5036123303
 10
-45.6778365535
 20
44.5274038324
 10
-45.6707262542
 20
44.5509878171
 10
-45.662893263
 20
44.5743419222
 10
-45.6543450073
 20
44.5974440036
 10
-45.6450895924
 20
44.6202721561
 10
-45.6351357942
 20
44.642804734
 10
-45.6244930507
 20
44.6650203722
 10
-45.6131714535
 20
44.6868980061
 10
-45.6011817376
 20
44.7084168913
 10
-45.5885352714
 20
44.7295566238
 10
-45.5752440464
 20
44.7502971592
 10
-45.5613206651
 20
44.7706188313
 10
-45.5467783296
 20
44.7905023712
 10
-45.5316308288
 20
44.8099289257
 10
-45.5158925255
 20
44.8288800745
 10
-45.4995783427
 20
44.8473378483
 10
-45.4827037492
 20
44.8652847456
 10
-45.4652847456
 20
44.8827037492
 10
-45.4473378483
 20
44.8995783427
 10
-45.4288800745
 20
44.9158925255
 10
-45.4099289257
 20
44.9316308288
 10
-45.3905023712
 20
44.9467783296
 10
-45.3706188313
 20
44.9613206651
 10
-45.3502971592
 20
44.9752440464
 10
-45.3295566238
 20
44.9885352714
 10
-45.3084168913
 20
45.0011817376
 10
-45.2868980061
 20
45.0131714535
 10
-45.2650203722
 20
45.0244930507
 10
-45.242804734
 20
45.0351357941
 10
-45.2202721561
 20
45.0450895924
 10
-45.1974440036
 20
45.0543450073
 10
-45.1743419222
 20
45.062893263
 10
-45.1509878171
 20
45.0707262542
 10
-45.1274038324
 20
45.0778365535
 10
-45.1036123303
 20
45.0842174191
 10
-45.0796358697
 20
45.0898628007
 10
-45.0554971849
 20
45.0947673453
 10
-45.0312191642
 20
45.0989264026
 10
-45.0068248276
 20
45.1023360289
 10
-44.9823373058
 20
45.1049929912
 10
-44.9577798176
 20
45.1068947703
 10
-44.9331756482
 20
45.1080395628
 10
-44.9085481273
 20
45.1084262834
  0
LWPOLYLINE
  5
2AD
100
AcDbEntity
  8
ASSI
100
AcDbPolyline
 62
253
  6
CONTINUOUS
 90
52
 70
0
 10
-45.7084262834
 20
44.3085481273
 10
-45.7080395628
 20
44.3331756482
 10
-45.7068947703
 20
44.3577798176
 10
-45.7049929912
 20
44.3823373058
 10
-45.7023360289
 20
44.4068248276
 10
-45.6989264026
 20
44.4312191642
 10
-45.6947673453
 20
44.4554971849
 10
-45.6898628007
 20
44.4796358697
 10
-45.6842174191
 20
44.5036123303
 10
-45.6778365535
 20
44.5274038324
 10
-45.6707262542
 20
44.5509878171
 10
-45.662893263
 20
44.5743419222
 10
-45.6543450073
 20
44.5974440036
 10
-45.6450895924
 20
44.6202721561
 10
-45.6351357942
 20
44.642804734
 10
-45.6244930507
 20
44.6650203722
 10
-45.6131714535
 20
44.6868980061
 10
-45.6011817376
 20
44.7084168913
 10
-45.5885352714
 20
44.7295566238
 10
-45.5752440464
 20
44.7502971592
 10
-45.5613206651
 20
44.7706188313
 10
-45.5467783296
 20
44.7905023712
 10
-45.5316308288
 20
44.8099289257
 10
-45.5158925255
 20
44.8288800745
 10
-45.4995783427
 20
44.8473378483
 10
-45.4827037492
 20
44.8652847456
 10
-45.4652847456
 20
44.8827037492
 10
-45.4473378483
 20
44.8995783427
 10
-45.4288800745
 20
44.9158925255
 10
-45.4099289257
 20
44.9316308288
 10
-45.3905023712
 20
44.9467783296
 10
-45.3706188313
 20
44.9613206651
 10
-45.3502971592
 20
44.9752440464
 10
-45.3295566238
 20
44.9885352714
 10
-45.3084168913
 20
45.0011817376
 10
-45.2868980061
 20
45.0131714535
 10
-45.2650203722
 20
45.0244930507
 10
-45.242804734
 20
45.0351357941
 10
-45.2202721561
 20
45.0450895924
 10
-45.1974440036
 20
45.0543450073
 10
-45.1743419222
 20
45.062893263
 10
-45.1509878171
 20
45.0707262542
 10
-45.1274038324
 20
45.0778365535
 10
-45.1036123303
 20
45.0842174191
 10
-45.0796358697
 20
45.0898628007
 10
-45.0554971849
 20
45.0947673453
 10
-45.0312191642
 20
45.0989264026
 10
-45.0068248276
 20
45.1023360289
 10
-44.9823373058
 20
45.1049929912
 10
-44.9577798176
 20
45.1068947703
 10
-44.9331756482
 20
45.1080395628
 10
-44.9085481273
 20
45.1084262834
  0
LINE
  5
2AE
100
AcDbEntity
  8
RACCORDO
100
AcDbLine
 62
253
  6
CONTINUOUS
 10
-45.7004423571
 20
2.5422492061
 11
-45.6991916651
 21
2.6174659729
  0
LINE
  5
2AF
100
AcDbEntity
  8
ASSI
100
AcDbLine
 62
253
  6
CONTINUOUS
 10
-45.7004423571
 20
2.5422492061
 11
-45.6991916651
 21
2.6174659729
  0
LINE
  5
2B0
100
AcDbEntity
  8
RACCORDO
100
AcDbLine
 62
253
  6
CONTINUOUS
 10
-44.9041295654
 20
1.6732999032
 11
-44.9027689631
 21
1.7541260477
  0
LINE
  5
2B1
100
AcDbEntity
  8
ASSI
100
AcDbLine
 62
253
  6
CONTINUOUS
 10
-44.9041295654
 20
1.6732999032
 11
-44.9027689631
 21
1.7541260477
  0
LWPOLYLINE
  5
2B2
100
AcDbEntity
  8
RACCORDO
100
AcDbPolyline
 62
253
  6
CONTINUOUS
 90
31
 70
0
 10
-45.6843932437
 20
22.985
 10
-45.684202917
 20
22.9937238775
 10
-45.6836322992
 20
23.0024311485
 10
-45.6826824765
 20
23.0111052384
 10
-45.681355257
 20
23.0197296355
 10
-45.6796531671
 20
23.0282879228
 10
-45.6775794468
 20
23.036763809
 10
-45.6751380436
 20
23.0451411599
 10
-45.6723336048
 20
23.0534040287
 10
-45.6691714689
 20
23.0615366865
 10
-45.665657655
 20
23.0695236523
 10
-45.6617988521
 20
23.0773497226
 10
-45.6576024054
 20
23.085
 10
-45.6530763033
 20
23.0924599217
 10
-45.6482291613
 20
23.0997152873
 10
-45.6430702064
 20
23.1067522858
 10
-45.6376092588
 20
23.1135575219
 10
-45.6318567138
 20
23.1201180415
 10
-45.6258235217
 20
23.1264213562
 10
-45.619521167
 20
23.1324554674
 10
-45.6129616466
 20
23.1382088886
 10
-45.606157447
 20
23.1436706681
 10
-45.5991215202
 20
23.1488304089
 10
-45.5918672596
 20
23.1536782892
 10
-45.5844084741
 20
23.1582050808
 10
-45.576759362
 20
23.1624021666
 10
-45.5689344836
 20
23.1662615574
 10
-45.5609487342
 20
23.1697759065
 10
-45.552817315
 20
23.1729385242
 10
-45.5445557047
 20
23.1757433901
 10
-45.5361796298
 20
23.1781851653
  0
LWPOLYLINE
  5
2B3
100
AcDbEntity
  8
ASSI
100
AcDbPolyline
 62
253
  6
CONTINUOUS
 90
31
 70
0
 10
-45.6843932437
 20
22.985
 10
-45.684202917
 20
22.9937238775
 10
-45.6836322992
 20
23.0024311485
 10
-45.6826824765
 20
23.0111052384
 10
-45.681355257
 20
23.0197296355
 10
-45.6796531671
 20
23.0282879228
 10
-45.6775794468
 20
23.036763809
 10
-45.6751380436
 20
23.0451411599
 10
-45.6723336048
 20
23.0534040287
 10
-45.6691714689
 20
23.0615366865
 10
-45.665657655
 20
23.0695236523
 10
-45.6617988521
 20
23.0773497226
 10
-45.6576024054
 20
23.085
 10
-45.6530763033
 20
23.0924599217
 10
-45.6482291613
 20
23.0997152873
 10
-45.6430702064
 20
23.1067522858
 10
-45.6376092588
 20
23.1135575219
 10
-45.6318567138
 20
23.1201180415
 10
-45.6258235217
 20
23.1264213562
 10
-45.619521167
 20
23.1324554674
 10
-45.6129616466
 20
23.1382088886
 10
-45.606157447
 20
23.1436706681
 10
-45.5991215202
 20
23.1488304089
 10
-45.5918672596
 20
23.1536782892
 10
-45.5844084741
 20
23.1582050808
 10
-45.576759362
 20
23.1624021666
 10
-45.5689344836
 20
23.1662615574
 10
-45.5609487342
 20
23.1697759065
 10
-45.552817315
 20
23.1729385242
 10
-45.5445557047
 20
23.1757433901
 10
-45.5361796298
 20
23.1781851653
  0
LINE
  5
2B4
100
AcDbEntity
  8
RACCORDO
100
AcDbLine
 62
253
  6
CONTINUOUS
 10
-45.7013784219
 20
2.4983593832
 11
-45.7004423571
 21
2.5422492061
  0
LINE
  5
2B5
100
AcDbEntity
  8
ASSI
100
AcDbLine
 62
253
  6
CONTINUOUS
 10
-45.7013784219
 20
2.4983593832
 11
-45.7004423571
 21
2.5422492061
  0
LINE
  5
2B6
100
AcDbEntity
  8
RACCORDO
100
AcDbLine
 62
253
  6
CONTINUOUS
 10
-44.904981303
 20
1.6349338732
 11
-44.9041295654
 21
1.6732999032
  0
LINE
  5
2B7
100
AcDbEntity
  8
ASSI
100
AcDbLine
 62
253
  6
CONTINUOUS
 10
-44.904981303
 20
1.6349338732
 11
-44.9041295654
 21
1.6732999032
  0
LINE
  5
2B8
100
AcDbEntity
  8
RACCORDO
100
AcDbLine
 62
253
  6
CONTINUOUS
 10
-45.7023854884
 20
2.459992039
 11
-45.7013784219
 21
2.4983593832
  0
LINE
  5
2B9
100
AcDbEntity
  8
ASSI
100
AcDbLine
 62
253
  6
CONTINUOUS
 10
-45.7023854884
 20
2.459992039
 11
-45.7013784219
 21
2.4983593832
  0
LINE
  5
2BA
100
AcDbEntity
  8
RACCORDO
100
AcDbLine
 62
253
  6
CONTINUOUS
 10
-44.9055610569
 20
1.6137143534
 11
-44.904981303
 21
1.6349338732
  0
LINE
  5
2BB
100
AcDbEntity
  8
ASSI
100
AcDbLine
 62
253
  6
CONTINUOUS
 10
-44.9055610569
 20
1.6137143534
 11
-44.904981303
 21
1.6349338732
  0
LINE
  5
2BC
100
AcDbEntity
  8
RACCORDO
100
AcDbLine
 62
253
  6
CONTINUOUS
 10
-45.7031816096
 20
2.435063527
 11
-45.7023854884
 21
2.459992039
  0
LINE
  5
2BD
100
AcDbEntity
  8
ASSI
100
AcDbLine
 62
253
  6
CONTINUOUS
 10
-45.7031816096
 20
2.435063527
 11
-45.7023854884
 21
2.459992039
  0
LINE
  5
2BE
100
AcDbEntity
  8
RACCORDO
100
AcDbLine
 62
253
  6
CONTINUOUS
 10
-45.7037294141
 20
2.4203540958
 11
-45.7031816096
 21
2.435063527
  0
LINE
  5
2BF
100
AcDbEntity
  8
ASSI
100
AcDbLine
 62
253
  6
CONTINUOUS
 10
-45.7037294141
 20
2.4203540958
 11
-45.7031816096
 21
2.435063527
  0
LINE
  5
2C0
100
AcDbEntity
  8
RACCORDO
100
AcDbLine
 62
253
  6
CONTINUOUS
 10
-45.7042890802
 20
2.4072195738
 11
-45.7037294141
 21
2.4203540958
  0
LINE
  5
2C1
100
AcDbEntity
  8
ASSI
100
AcDbLine
 62
253
  6
CONTINUOUS
 10
-45.7042890802
 20
2.4072195738
 11
-45.7037294141
 21
2.4203540958
  0
LINE
  5
2C2
100
AcDbEntity
  8
RACCORDO
100
AcDbLine
 62
253
  6
CONTINUOUS
 10
-1.7872157416
 20
2.9775220245
 11
-1.8214447753
 21
2.9751262273
  0
LINE
  5
2C3
100
AcDbEntity
  8
ASSI
100
AcDbLine
 62
253
  6
CONTINUOUS
 10
-1.7872157416
 20
2.9775220245
 11
-1.8214447753
 21
2.9751262273
  0
LINE
  5
2C4
100
AcDbEntity
  8
RACCORDO
100
AcDbLine
 62
253
  6
CONTINUOUS
 10
-1.8214447753
 20
2.9751262273
 11
-1.8577215226
 21
2.9728739081
  0
LINE
  5
2C5
100
AcDbEntity
  8
ASSI
100
AcDbLine
 62
253
  6
CONTINUOUS
 10
-1.8214447753
 20
2.9751262273
 11
-1.8577215226
 21
2.9728739081
  0
LINE
  5
2C6
100
AcDbEntity
  8
RACCORDO
100
AcDbLine
 62
253
  6
CONTINUOUS
 10
-1.8577215226
 20
2.9728739081
 11
-1.8959114067
 21
2.9707734225
  0
LINE
  5
2C7
100
AcDbEntity
  8
ASSI
100
AcDbLine
 62
253
  6
CONTINUOUS
 10
-1.8577215226
 20
2.9728739081
 11
-1.8959114067
 21
2.9707734225
  0
LINE
  5
2C8
100
AcDbEntity
  8
RACCORDO
100
AcDbLine
 62
253
  6
CONTINUOUS
 10
-1.8959114067
 20
2.9707734225
 11
-1.9358727532
 21
2.9688325627
  0
LINE
  5
2C9
100
AcDbEntity
  8
ASSI
100
AcDbLine
 62
253
  6
CONTINUOUS
 10
-1.8959114067
 20
2.9707734225
 11
-1.9358727532
 21
2.9688325627
  0
LINE
  5
2CA
100
AcDbEntity
  8
RACCORDO
100
AcDbLine
 62
253
  6
CONTINUOUS
 10
-1.9358727532
 20
2.9688325627
 11
-1.9774573162
 21
2.9670585288
  0
LINE
  5
2CB
100
AcDbEntity
  8
ASSI
100
AcDbLine
 62
253
  6
CONTINUOUS
 10
-1.9358727532
 20
2.9688325627
 11
-1.9774573162
 21
2.9670585288
  0
LINE
  5
2CC
100
AcDbEntity
  8
RACCORDO
100
AcDbLine
 62
253
  6
CONTINUOUS
 10
-1.9774573162
 20
2.9670585288
 11
-2.0205108282
 21
2.965457902
  0
LINE
  5
2CD
100
AcDbEntity
  8
ASSI
100
AcDbLine
 62
253
  6
CONTINUOUS
 10
-1.9774573162
 20
2.9670585288
 11
-2.0205108282
 21
2.965457902
  0
LINE
  5
2CE
100
AcDbEntity
  8
RACCORDO
100
AcDbLine
 62
253
  6
CONTINUOUS
 10
-2.0205108282
 20
2.965457902
 11
-2.0648735721
 21
2.9640366202
  0
LINE
  5
2CF
100
AcDbEntity
  8
ASSI
100
AcDbLine
 62
253
  6
CONTINUOUS
 10
-2.0205108282
 20
2.965457902
 11
-2.0648735721
 21
2.9640366202
  0
LINE
  5
2D0
100
AcDbEntity
  8
RACCORDO
100
AcDbLine
 62
253
  6
CONTINUOUS
 10
-2.0648735721
 20
2.9640366202
 11
-2.110380974
 21
2.9627999559
  0
LINE
  5
2D1
100
AcDbEntity
  8
ASSI
100
AcDbLine
 62
253
  6
CONTINUOUS
 10
-2.0648735721
 20
2.9640366202
 11
-2.110380974
 21
2.9627999559
  0
LINE
  5
2D2
100
AcDbEntity
  8
RACCORDO
100
AcDbLine
 62
253
  6
CONTINUOUS
 10
-2.110380974
 20
2.9627999559
 11
-2.1568642135
 21
2.9617524969
  0
LINE
  5
2D3
100
AcDbEntity
  8
ASSI
100
AcDbLine
 62
253
  6
CONTINUOUS
 10
-2.110380974
 20
2.9627999559
 11
-2.1568642135
 21
2.9617524969
  0
LINE
  5
2D4
100
AcDbEntity
  8
RACCORDO
100
AcDbLine
 62
253
  6
CONTINUOUS
 10
-2.1568642135
 20
2.9617524969
 11
-2.2280407225
 21
2.9605443729
  0
LINE
  5
2D5
100
AcDbEntity
  8
ASSI
100
AcDbLine
 62
253
  6
CONTINUOUS
 10
-2.1568642135
 20
2.9617524969
 11
-2.2280407225
 21
2.9605443729
  0
LINE
  5
2D6
100
AcDbEntity
  8
RACCORDO
100
AcDbLine
 62
253
  6
CONTINUOUS
 10
-2.2280407225
 20
2.9605443729
 11
-2.3004303033
 21
2.959780616
  0
LINE
  5
2D7
100
AcDbEntity
  8
ASSI
100
AcDbLine
 62
253
  6
CONTINUOUS
 10
-2.2280407225
 20
2.9605443729
 11
-2.3004303033
 21
2.959780616
  0
LINE
  5
2D8
100
AcDbEntity
  8
RACCORDO
100
AcDbLine
 62
253
  6
CONTINUOUS
 10
-2.3004303033
 20
2.959780616
 11
-2.3490659484
 21
2.9595216166
  0
LINE
  5
2D9
100
AcDbEntity
  8
ASSI
100
AcDbLine
 62
253
  6
CONTINUOUS
 10
-2.3004303033
 20
2.959780616
 11
-2.3490659484
 21
2.9595216166
  0
LINE
  5
2DA
100
AcDbEntity
  8
RACCORDO
100
AcDbLine
 62
7
  6
CONTINUOUS
 10
-2.2848781561
 20
1.485
 11
-44.9851218439
 21
1.485
  0
LINE
  5
2DB
100
AcDbEntity
  8
ASSI
100
AcDbLine
 62
7
  6
CONTINUOUS
 10
-2.2848781561
 20
1.485
 11
-44.9851218439
 21
1.485
  0
LINE
  5
2DC
100
AcDbEntity
  8
RACCORDO
100
AcDbLine
 62
253
  6
CONTINUOUS
 10
-44.9085481273
 20
1.5615737166
 11
-2.3614518727
 21
1.5615737166
  0
LINE
  5
2DD
100
AcDbEntity
  8
ASSI
100
AcDbLine
 62
253
  6
CONTINUOUS
 10
-44.9085481273
 20
1.5615737166
 11
-2.3614518727
 21
1.5615737166
  0
LINE
  5
2DE
100
AcDbEntity
  8
RACCORDO
100
AcDbLine
 62
253
  6
CONTINUOUS
 10
-44.9937972135
 20
2.9599853558
 11
-44.9209340519
 21
2.9595216153
  0
LINE
  5
2DF
100
AcDbEntity
  8
ASSI
100
AcDbLine
 62
253
  6
CONTINUOUS
 10
-44.9937972135
 20
2.9599853558
 11
-44.9209340519
 21
2.9595216153
  0
LINE
  5
2E0
100
AcDbEntity
  8
RACCORDO
100
AcDbLine
 62
253
  6
CONTINUOUS
 10
-45.0658491517
 20
2.9608981276
 11
-44.9937972135
 21
2.9599853558
  0
LINE
  5
2E1
100
AcDbEntity
  8
ASSI
100
AcDbLine
 62
253
  6
CONTINUOUS
 10
-45.0658491517
 20
2.9608981276
 11
-44.9937972135
 21
2.9599853558
  0
LINE
  5
2E2
100
AcDbEntity
  8
RACCORDO
100
AcDbLine
 62
253
  6
CONTINUOUS
 10
-45.1131357891
 20
2.9617524956
 11
-45.0658491517
 21
2.9608981276
  0
LINE
  5
2E3
100
AcDbEntity
  8
ASSI
100
AcDbLine
 62
253
  6
CONTINUOUS
 10
-45.1131357891
 20
2.9617524956
 11
-45.0658491517
 21
2.9608981276
  0
LINE
  5
2E4
100
AcDbEntity
  8
RACCORDO
100
AcDbLine
 62
253
  6
CONTINUOUS
 10
-45.1596190292
 20
2.9627999547
 11
-45.1131357891
 21
2.9617524956
  0
LINE
  5
2E5
100
AcDbEntity
  8
ASSI
100
AcDbLine
 62
253
  6
CONTINUOUS
 10
-45.1596190292
 20
2.9627999547
 11
-45.1131357891
 21
2.9617524956
  0
LINE
  5
2E6
100
AcDbEntity
  8
RACCORDO
100
AcDbLine
 62
253
  6
CONTINUOUS
 10
-45.2051264315
 20
2.964036619
 11
-45.1596190292
 21
2.9627999547
  0
LINE
  5
2E7
100
AcDbEntity
  8
ASSI
100
AcDbLine
 62
253
  6
CONTINUOUS
 10
-45.2051264315
 20
2.964036619
 11
-45.1596190292
 21
2.9627999547
  0
LINE
  5
2E8
100
AcDbEntity
  8
RACCORDO
100
AcDbLine
 62
253
  6
CONTINUOUS
 10
-45.2494891759
 20
2.9654579009
 11
-45.2051264315
 21
2.964036619
  0
LINE
  5
2E9
100
AcDbEntity
  8
ASSI
100
AcDbLine
 62
253
  6
CONTINUOUS
 10
-45.2494891759
 20
2.9654579009
 11
-45.2051264315
 21
2.964036619
  0
LINE
  5
2EA
100
AcDbEntity
  8
RACCORDO
100
AcDbLine
 62
253
  6
CONTINUOUS
 10
-45.2925426882
 20
2.9670585277
 11
-45.2494891759
 21
2.9654579009
  0
LINE
  5
2EB
100
AcDbEntity
  8
ASSI
100
AcDbLine
 62
253
  6
CONTINUOUS
 10
-45.2925426882
 20
2.9670585277
 11
-45.2494891759
 21
2.9654579009
  0
LINE
  5
2EC
100
AcDbEntity
  8
RACCORDO
100
AcDbLine
 62
253
  6
CONTINUOUS
 10
-45.3341272516
 20
2.9688325617
 11
-45.2925426882
 21
2.9670585277
  0
LINE
  5
2ED
100
AcDbEntity
  8
ASSI
100
AcDbLine
 62
253
  6
CONTINUOUS
 10
-45.3341272516
 20
2.9688325617
 11
-45.2925426882
 21
2.9670585277
  0
LINE
  5
2EE
100
AcDbEntity
  8
RACCORDO
100
AcDbLine
 62
253
  6
CONTINUOUS
 10
-45.3740885984
 20
2.9707734215
 11
-45.3341272516
 21
2.9688325617
  0
LINE
  5
2EF
100
AcDbEntity
  8
ASSI
100
AcDbLine
 62
253
  6
CONTINUOUS
 10
-45.3740885984
 20
2.9707734215
 11
-45.3341272516
 21
2.9688325617
  0
LINE
  5
2F0
100
AcDbEntity
  8
RACCORDO
100
AcDbLine
 62
253
  6
CONTINUOUS
 10
-45.4122784827
 20
2.9728739072
 11
-45.3740885984
 21
2.9707734215
  0
LINE
  5
2F1
100
AcDbEntity
  8
ASSI
100
AcDbLine
 62
253
  6
CONTINUOUS
 10
-45.4122784827
 20
2.9728739072
 11
-45.3740885984
 21
2.9707734215
  0
LINE
  5
2F2
100
AcDbEntity
  8
RACCORDO
100
AcDbLine
 62
253
  6
CONTINUOUS
 10
-45.4485552302
 20
2.9751262264
 11
-45.4122784827
 21
2.9728739072
  0
LINE
  5
2F3
100
AcDbEntity
  8
ASSI
100
AcDbLine
 62
253
  6
CONTINUOUS
 10
-45.4485552302
 20
2.9751262264
 11
-45.4122784827
 21
2.9728739072
  0
LWPOLYLINE
  5
2F4
100
AcDbEntity
  8
RACCORDO
100
AcDbPolyline
 62
253
  6
CONTINUOUS
 90
9
 70
0
 10
-44.9061484795
 20
45.0739569876
 10
-44.9064448736
 20
45.0814482127
 10
-44.9067424982
 20
45.0880368075
 10
-44.9070413484
 20
45.0937187257
 10
-44.907341429
 20
45.0984905063
 10
-44.907642201
 20
45.1023492442
 10
-44.907943485
 20
45.1052925705
 10
-44.9082454604
 20
45.1073186668
 10
-44.9085481273
 20
45.1084262834
  0
LWPOLYLINE
  5
2F5
100
AcDbEntity
  8
ASSI
100
AcDbPolyline
 62
253
  6
CONTINUOUS
 90
9
 70
0
 10
-44.9061484795
 20
45.0739569876
 10
-44.9064448736
 20
45.0814482127
 10
-44.9067424982
 20
45.0880368075
 10
-44.9070413484
 20
45.0937187257
 10
-44.907341429
 20
45.0984905063
 10
-44.907642201
 20
45.1023492442
 10
-44.907943485
 20
45.1052925705
 10
-44.9082454604
 20
45.1073186668
 10
-44.9085481273
 20
45.1084262834
  0
LINE
  5
2F6
100
AcDbEntity
  8
RACCORDO
100
AcDbLine
 62
253
  6
CONTINUOUS
 10
-44.896571039
 20
2.9594675973
 11
-2.3490659484
 21
2.9595216166
  0
LINE
  5
2F7
100
AcDbEntity
  8
ASSI
100
AcDbLine
 62
253
  6
CONTINUOUS
 10
-44.896571039
 20
2.9594675973
 11
-2.3490659484
 21
2.9595216166
  0
LINE
  5
2F8
100
AcDbEntity
  8
RACCORDO
100
AcDbLine
 62
253
  6
CONTINUOUS
 10
-44.9209340519
 20
2.9595216153
 11
-44.896571039
 21
2.9594675973
  0
LINE
  5
2F9
100
AcDbEntity
  8
ASSI
100
AcDbLine
 62
253
  6
CONTINUOUS
 10
-44.9209340519
 20
2.9595216153
 11
-44.896571039
 21
2.9594675973
  0
LWPOLYLINE
  5
2FA
100
AcDbEntity
  8
RACCORDO
100
AcDbPolyline
 62
253
  6
CONTINUOUS
 90
10
 70
0
 10
-44.9085481273
 20
1.5615737166
 10
-44.9082454634
 20
1.5626813326
 10
-44.9079434901
 20
1.5647074278
 10
-44.9076422073
 20
1.5676507527
 10
-44.907341435
 20
1.5715094897
 10
-44.9070413531
 20
1.5762812698
 10
-44.9067425022
 20
1.5819631875
 10
-44.906444878
 20
1.5885517817
 10
-44.9061484846
 20
1.5960430062
 10
-44.9055610569
 20
1.6137143534
  0
LWPOLYLINE
  5
2FB
100
AcDbEntity
  8
ASSI
100
AcDbPolyline
 62
253
  6
CONTINUOUS
 90
10
 70
0
 10
-44.9085481273
 20
1.5615737166
 10
-44.9082454634
 20
1.5626813326
 10
-44.9079434901
 20
1.5647074278
 10
-44.9076422073
 20
1.5676507527
 10
-44.907341435
 20
1.5715094897
 10
-44.9070413531
 20
1.5762812698
 10
-44.9067425022
 20
1.5819631875
 10
-44.906444878
 20
1.5885517817
 10
-44.9061484846
 20
1.5960430062
 10
-44.9055610569
 20
1.6137143534
  0
LINE
  5
2FC
100
AcDbEntity
  8
CURVE
100
AcDbLine
 62
252
  6
CONTINUOUS
 10
-23.4370472852
 20
9.7123250339
 11
-23.461096365
 21
9.705521338
  0
LINE
  5
2FD
100
AcDbEntity
  8
CURVE
100
AcDbLine
 62
252
  6
CONTINUOUS
 10
-23.4606578075
 20
9.7056365709
 11
-23.4848765613
 21
9.699765097
  0
LINE
  5
2FE
100
AcDbEntity
  8
CURVE
100
AcDbLine
 62
252
  6
CONTINUOUS
 10
-23.4844961267
 20
9.6998494673
 11
-23.5088527025
 21
9.6949101033
  0
LINE
  5
2FF
100
AcDbEntity
  8
CURVE
100
AcDbLine
 62
252
  6
CONTINUOUS
 10
-23.5085298925
 20
9.694969212
 11
-23.5329937269
 21
9.690960815
  0
LINE
  5
300
100
AcDbEntity
  8
CURVE
100
AcDbLine
 62
252
  6
CONTINUOUS
 10
-23.5327268532
 20
9.6909997659
 11
-23.5572685726
 21
9.6879216903
  0
LWPOLYLINE
  5
301
100
AcDbEntity
  8
CURVE
100
AcDbPolyline
 62
252
  6
CONTINUOUS
 90
6
 70
0
 10
-23.6071929434
 20
10.9852232885
 10
-23.6338196343
 20
10.9854107731
 10
-23.6604331132
 20
10.9845160447
 10
-23.6869890726
 20
10.9825403003
 10
-23.7134432052
 20
10.9794847365
 10
-23.7397512715
 20
10.9753520477
  0
LWPOLYLINE
  5
302
100
AcDbEntity
  8
CURVE
100
AcDbPolyline
 62
252
  6
CONTINUOUS
 90
3
 70
0
 10
-23.6071811594
 20
10.9852172404
 10
-23.5806406636
 20
10.9839507937
 10
-23.5541837065
 20
10.981606048
  0
LINE
  5
303
100
AcDbEntity
  8
CURVE
100
AcDbLine
 62
252
  6
CONTINUOUS
 10
-23.5276766712
 20
10.9781555887
 11
-23.5540771545
 21
10.9815968931
  0
LWPOLYLINE
  5
304
100
AcDbEntity
  8
CURVE
100
AcDbPolyline
 62
252
  6
CONTINUOUS
 90
15
 70
0
 10
-23.8921787307
 20
9.7412400648
 10
-23.8696754629
 20
9.731651989
 10
-23.8468108575
 20
9.7229125734
 10
-23.8236181026
 20
9.7150361275
 10
-23.8001303858
 20
9.7080369608
 10
-23.7763816425
 20
9.7019279272
 10
-23.752408798
 20
9.6967160575
 10
-23.7282495254
 20
9.6924069266
 10
-23.7039414975
 20
9.6890061097
 10
-23.6795223872
 20
9.6865191817
 10
-23.6550298675
 20
9.6849517176
 10
-23.6305016112
 20
9.6843092926
 10
-23.6059743879
 20
9.6845958923
 10
-23.5814813526
 20
9.685809145
 10
-23.5570547572
 20
9.6879450899
  0
LINE
  5
305
100
AcDbEntity
  8
CURVE
100
AcDbLine
 62
252
  6
CONTINUOUS
 10
-23.8921787307
 20
9.7412400648
 11
-23.9144621254
 21
9.7517479907
  0
LINE
  5
306
100
AcDbEntity
  8
CURVE
100
AcDbLine
 62
252
  6
CONTINUOUS
 10
-23.9142874734
 20
9.7516624913
 11
-23.9361834972
 21
9.7630210535
  0
LINE
  5
307
100
AcDbEntity
  8
CURVE
100
AcDbLine
 62
252
  6
CONTINUOUS
 10
-23.791753401
 20
10.9638915278
 11
-23.7656414603
 21
10.9702061942
  0
LINE
  5
308
100
AcDbEntity
  8
CURVE
100
AcDbLine
 62
252
  6
CONTINUOUS
 10
-23.7658693035
 20
10.9701509177
 11
-23.7395502544
 21
10.9753904398
  0
LINE
  5
309
100
AcDbEntity
  8
CURVE
100
AcDbLine
 62
252
  6
CONTINUOUS
 10
-23.5014396363
 20
10.9736294985
 11
-23.5278556216
 21
10.9781826058
  0
LINE
  5
30A
100
AcDbEntity
  8
CURVE
100
AcDbLine
 62
252
  6
CONTINUOUS
 10
-23.4754075132
 20
10.9680284974
 11
-23.501700463
 21
10.9736821334
  0
LINE
  5
30B
100
AcDbEntity
  8
CURVE
100
AcDbLine
 62
252
  6
CONTINUOUS
 10
-23.4496211964
 20
10.961364675
 11
-23.4757571659
 21
10.9681145524
  0
LINE
  5
30C
100
AcDbEntity
  8
CURVE
100
AcDbLine
 62
252
  6
CONTINUOUS
 10
-23.4241215804
 20
10.9536501205
 11
-23.450063386
 21
10.9614918482
  0
LINE
  5
30D
100
AcDbEntity
  8
CURVE
100
AcDbLine
 62
252
  6
CONTINUOUS
 10
-23.3989495597
 20
10.9448969234
 11
-23.4246567789
 21
10.9538260063
  0
LINE
  5
30E
100
AcDbEntity
  8
CURVE
100
AcDbLine
 62
252
  6
CONTINUOUS
 10
-23.3741460289
 20
10.9351171732
 11
-23.3995750004
 21
10.945129012
  0
LINE
  5
30F
100
AcDbEntity
  8
CURVE
100
AcDbLine
 62
252
  6
CONTINUOUS
 10
-23.3497518826
 20
10.9243229592
 11
-23.3748557061
 21
10.9354128508
  0
LINE
  5
310
100
AcDbEntity
  8
CURVE
100
AcDbLine
 62
252
  6
CONTINUOUS
 10
-23.3258082823
 20
10.912528662
 11
-23.3505365517
 21
10.9246895081
  0
LINE
  5
311
100
AcDbEntity
  8
CURVE
100
AcDbLine
 62
252
  6
CONTINUOUS
 10
-23.3023574578
 20
10.8997578264
 11
-23.3266557615
 21
10.9129724487
  0
LINE
  5
312
100
AcDbEntity
  8
CURVE
100
AcDbLine
 62
252
  6
CONTINUOUS
 10
-23.935968503
 20
9.7629049588
 11
-23.9574456568
 21
9.7751059714
  0
LINE
  5
313
100
AcDbEntity
  8
CURVE
100
AcDbLine
 62
252
  6
CONTINUOUS
 10
-21.1253505098
 20
8.885
 11
-22.165
 21
9.485
  0
LINE
  5
314
100
AcDbEntity
  8
CURVE
100
AcDbLine
 62
252
  6
CONTINUOUS
 10
-25.195
 20
11.185
 11
-26.2338117321
 21
11.785
  0
LINE
  5
315
100
AcDbEntity
  8
CURVE
100
AcDbLine
 62
252
  6
CONTINUOUS
 10
-23.2794419063
 20
10.8860362884
 11
-23.3032538348
 21
10.900281055
  0
LINE
  5
316
100
AcDbEntity
  8
CURVE
100
AcDbLine
 62
252
  6
CONTINUOUS
 10
-23.9571886318
 20
9.774953158
 11
-23.9782166281
 21
9.7879872748
  0
LINE
  5
317
100
AcDbEntity
  8
CURVE
100
AcDbLine
 62
252
  6
CONTINUOUS
 10
-23.2571041246
 20
10.8713898839
 11
-23.2803718398
 21
10.8866361887
  0
LINE
  5
318
100
AcDbEntity
  8
CURVE
100
AcDbLine
 62
252
  6
CONTINUOUS
 10
-23.9779165934
 20
9.787791249
 11
-23.9984725847
 21
9.80164293
  0
LINE
  5
319
100
AcDbEntity
  8
CURVE
100
AcDbLine
 62
252
  6
CONTINUOUS
 10
-23.9981288071
 20
9.8013972717
 11
-24.0181917381
 21
9.8160492625
  0
LINE
  5
31A
100
AcDbEntity
  8
CURVE
100
AcDbLine
 62
252
  6
CONTINUOUS
 10
-24.0178036138
 20
9.8157477358
 11
-24.0373522993
 21
9.8311825976
  0
LINE
  5
31B
100
AcDbEntity
  8
CURVE
100
AcDbLine
 62
252
  6
CONTINUOUS
 10
-24.0369193543
 20
9.8308191509
 11
-24.0559324798
 21
9.8470192607
  0
LINE
  5
31C
100
AcDbEntity
  8
CURVE
100
AcDbLine
 62
252
  6
CONTINUOUS
 10
-24.0554543692
 20
9.8465880269
 11
-24.0739104908
 21
9.8635355772
  0
LWPOLYLINE
  5
31D
100
AcDbEntity
  8
RACCORDO
100
AcDbPolyline
 62
253
  6
CONTINUOUS
 90
14
 70
0
 10
-45.7084262834
 20
2.3614518727
 10
-45.7081237128
 20
2.3619697829
 10
-45.7078218052
 20
2.3629147575
 10
-45.7075205607
 20
2.3642867964
 10
-45.7072197881
 20
2.3660872714
 10
-45.7069196785
 20
2.3683148108
 10
-45.7066208052
 20
2.3709652994
 10
-45.7063231774
 20
2.3740395077
 10
-45.7060267858
 20
2.3775366651
 10
-45.7057321757
 20
2.3814503449
 10
-45.7054393508
 20
2.3857813117
 10
-45.7051483073
 20
2.390528801
 10
-45.7048595797
 20
2.3956840916
 10
-45.7042890802
 20
2.4072195738
  0
LWPOLYLINE
  5
31E
100
AcDbEntity
  8
ASSI
100
AcDbPolyline
 62
253
  6
CONTINUOUS
 90
14
 70
0
 10
-45.7084262834
 20
2.3614518727
 10
-45.7081237128
 20
2.3619697829
 10
-45.7078218052
 20
2.3629147575
 10
-45.7075205607
 20
2.3642867964
 10
-45.7072197881
 20
2.3660872714
 10
-45.7069196785
 20
2.3683148108
 10
-45.7066208052
 20
2.3709652994
 10
-45.7063231774
 20
2.3740395077
 10
-45.7060267858
 20
2.3775366651
 10
-45.7057321757
 20
2.3814503449
 10
-45.7054393508
 20
2.3857813117
 10
-45.7051483073
 20
2.390528801
 10
-45.7048595797
 20
2.3956840916
 10
-45.7042890802
 20
2.4072195738
  0
LINE
  5
31F
100
AcDbEntity
  8
CURVE
100
AcDbLine
 62
252
  6
CONTINUOUS
 10
-20.855
 20
39.115
 11
-22.165
 21
37.805
  0
LINE
  5
320
100
AcDbEntity
  8
CURVE
100
AcDbLine
 62
252
  6
CONTINUOUS
 10
-25.135
 20
34.835
 11
-26.415
 21
33.555
  0
LINE
  5
321
100
AcDbEntity
  8
CURVE
100
AcDbLine
 62
252
  6
CONTINUOUS
 10
-23.2353866097
 20
10.8558444489
 11
-23.2580508445
 21
10.8720587114
  0
LINE
  5
322
100
AcDbEntity
  8
CURVE
100
AcDbLine
 62
252
  6
CONTINUOUS
 10
-23.2143318586
 20
10.8394258194
 11
-23.2363319169
 21
10.856569485
  0
LINE
  5
323
100
AcDbEntity
  8
CURVE
100
AcDbLine
 62
252
  6
CONTINUOUS
 10
-23.1939823682
 20
10.8221598313
 11
-23.2152561252
 21
10.840189371
  0
LWPOLYLINE
  5
324
100
AcDbEntity
  8
CURVE
100
AcDbPolyline
 62
252
  6
CONTINUOUS
 90
7
 70
0
 10
-23.1948645372
 20
10.8229392313
 10
-23.175197313
 20
10.8048441364
 10
-23.1562909796
 20
10.7859459921
 10
-23.1381811562
 20
10.7662909133
 10
-23.1209034615
 20
10.7459250148
 10
-23.1044935147
 20
10.7248944112
 10
-23.0889869347
 20
10.7032452174
  0
LINE
  5
325
100
AcDbEntity
  8
CURVE
100
AcDbLine
 62
252
  6
CONTINUOUS
 10
-24.0733869994
 20
9.8630308732
 11
-24.0912645435
 21
9.8807078725
  0
LWPOLYLINE
  5
326
100
AcDbEntity
  8
CURVE
100
AcDbPolyline
 62
252
  6
CONTINUOUS
 90
15
 70
0
 10
-24.0906955857
 20
9.8801241997
 10
-24.1079725342
 20
9.8985118593
 10
-24.1240110992
 20
9.9169208007
 10
-24.1393565595
 20
9.9359073472
 10
-24.1539852364
 20
9.9554441492
 10
-24.167873451
 20
9.9755038571
 10
-24.1809975245
 20
9.9960591215
 10
-24.1933337781
 20
10.0170825928
 10
-24.2048606543
 20
10.0385452539
 10
-24.2155650808
 20
10.0604114176
 10
-24.2254361067
 20
10.0826437289
 10
-24.234462781
 20
10.105204833
 10
-24.2426341527
 20
10.1280573751
 10
-24.249939271
 20
10.1511640003
 10
-24.2563671849
 20
10.1744873539
  0
LWPOLYLINE
  5
327
100
AcDbEntity
  8
CURVE
100
AcDbPolyline
 62
252
  6
CONTINUOUS
 90
7
 70
0
 10
-23.0867407711
 20
10.6999615344
 10
-23.1000892051
 20
10.7189638877
 10
-23.114126506
 20
10.7374940474
 10
-23.1288340771
 20
10.7555265389
 10
-23.144193122
 20
10.7730357234
 10
-23.1601840474
 20
10.7899953062
 10
-23.1767870604
 20
10.8063788285
  0
LINE
  5
328
100
AcDbEntity
  8
CURVE
100
AcDbLine
 62
252
  6
CONTINUOUS
 10
-23.0740998008
 20
10.6805124623
 11
-23.0889869347
 21
10.7032452174
  0
LWPOLYLINE
  5
329
100
AcDbEntity
  8
CURVE
100
AcDbPolyline
 62
252
  6
CONTINUOUS
 90
7
 70
0
 10
-24.1819004274
 20
9.9975645259
 10
-24.1705242591
 20
9.9795600463
 10
-24.158574679
 20
9.9619406053
 10
-24.1460653291
 20
9.94471946
 10
-24.1330097343
 20
9.9279105116
 10
-24.1194209518
 20
9.9115302378
 10
-24.1053119222
 20
9.89559576
  0
LINE
  5
32A
100
AcDbEntity
  8
CURVE
100
AcDbLine
 62
252
  6
CONTINUOUS
 10
-23.0621831937
 20
10.6606426678
 11
-23.0744193404
 21
10.681023548
  0
LWPOLYLINE
  5
32B
100
AcDbEntity
  8
RACCORDO
100
AcDbPolyline
 62
253
  6
CONTINUOUS
 90
7
 70
0
 10
-1.7338203702
 20
23.4918148347
 10
-1.7422949655
 20
23.4897407986
 10
-1.7508519493
 20
23.4880384494
 10
-1.7594750329
 20
23.4867110277
 10
-1.7681478017
 20
23.4857610604
 10
-1.7768537466
 20
23.4851903557
 10
-1.7855762954
 20
23.485
  0
LWPOLYLINE
  5
32C
100
AcDbEntity
  8
ASSI
100
AcDbPolyline
 62
253
  6
CONTINUOUS
 90
7
 70
0
 10
-1.7338203702
 20
23.4918148347
 10
-1.7422949655
 20
23.4897407986
 10
-1.7508519493
 20
23.4880384494
 10
-1.7594750329
 20
23.4867110277
 10
-1.7681478017
 20
23.4857610604
 10
-1.7768537466
 20
23.4851903557
 10
-1.7855762954
 20
23.485
  0
LWPOLYLINE
  5
32D
100
AcDbEntity
  8
RACCORDO
100
AcDbPolyline
 62
253
  6
CONTINUOUS
 90
7
 70
0
 10
-45.5361796225
 20
23.4918148328
 10
-45.5277050281
 20
23.4897407972
 10
-45.5191480453
 20
23.4880384485
 10
-45.5105249629
 20
23.4867110272
 10
-45.5018521954
 20
23.4857610601
 10
-45.4931462519
 20
23.4851903556
 10
-45.4844237046
 20
23.485
  0
LWPOLYLINE
  5
32E
100
AcDbEntity
  8
ASSI
100
AcDbPolyline
 62
253
  6
CONTINUOUS
 90
7
 70
0
 10
-45.5361796225
 20
23.4918148328
 10
-45.5277050281
 20
23.4897407972
 10
-45.5191480453
 20
23.4880384485
 10
-45.5105249629
 20
23.4867110272
 10
-45.5018521954
 20
23.4857610601
 10
-45.4931462519
 20
23.4851903556
 10
-45.4844237046
 20
23.485
  0
LINE
  5
32F
100
AcDbEntity
  8
CURVE
100
AcDbLine
 62
252
  6
CONTINUOUS
 10
-23.0510010593
 20
10.6403802355
 11
-23.0624674612
 21
10.6611452767
  0
LINE
  5
330
100
AcDbEntity
  8
CURVE
100
AcDbLine
 62
252
  6
CONTINUOUS
 10
-23.0405618097
 20
10.6197537716
 11
-23.051264642
 21
10.6408891785
  0
LINE
  5
331
100
AcDbEntity
  8
CURVE
100
AcDbLine
 62
252
  6
CONTINUOUS
 10
-23.0308738571
 20
10.5987918824
 11
-23.0408137611
 21
10.6202804214
  0
LINE
  5
332
100
AcDbEntity
  8
CURVE
100
AcDbLine
 62
252
  6
CONTINUOUS
 10
-23.0219457698
 20
10.5775278274
 11
-23.0311176966
 21
10.5993441734
  0
LINE
  5
333
100
AcDbEntity
  8
CURVE
100
AcDbLine
 62
252
  6
CONTINUOUS
 10
-23.0137867411
 20
10.5560134783
 11
-23.0221804367
 21
10.5781107158
  0
LWPOLYLINE
  5
334
100
AcDbEntity
  8
CURVE
100
AcDbPolyline
 62
252
  6
CONTINUOUS
 90
8
 70
0
 10
-24.2506195202
 20
10.1533987388
 10
-24.2443166978
 20
10.1329862959
 10
-24.2373393065
 20
10.112782644
 10
-24.2296957005
 20
10.0928217436
 10
-24.2213952235
 20
10.0731353039
 10
-24.2124511773
 20
10.0537460292
 10
-24.2028778531
 20
10.0346743724
 10
-24.1926895421
 20
10.0159407868
  0
LINE
  5
335
100
AcDbEntity
  8
CURVE
100
AcDbLine
 62
252
  6
CONTINUOUS
 10
-23.0064061203
 20
10.5343053601
 11
-23.0140104084
 21
10.5566307827
  0
LINE
  5
336
100
AcDbEntity
  8
CURVE
100
AcDbLine
 62
252
  6
CONTINUOUS
 10
-22.9998132571
 20
10.5124599978
 11
-23.0066171483
 21
10.5349602215
  0
LINE
  5
337
100
AcDbEntity
  8
CURVE
100
AcDbLine
 62
252
  6
CONTINUOUS
 10
-22.9940140001
 20
10.490526042
 11
-23.0000101935
 21
10.5131548795
  0
LWPOLYLINE
  5
338
100
AcDbEntity
  8
CURVE
100
AcDbPolyline
 62
252
  6
CONTINUOUS
 90
8
 70
0
 10
-24.2562394193
 20
10.1739860122
 10
-24.2619076786
 20
10.1979983601
 10
-24.266553477
 20
10.2217010603
 10
-24.2702980399
 20
10.2456077753
 10
-24.2731348275
 20
10.2697308256
 10
-24.2750572998
 20
10.2940825319
 10
-24.2760589166
 20
10.3186752148
 10
-24.276133138
 20
10.343521195
  0
LINE
  5
339
100
AcDbEntity
  8
CURVE
100
AcDbLine
 62
252
  6
CONTINUOUS
 10
-22.9891645776
 20
10.4693020958
 11
-22.9849054331
 21
10.4472822723
  0
LINE
  5
33A
100
AcDbEntity
  8
CURVE
100
AcDbLine
 62
252
  6
CONTINUOUS
 10
-22.9765964634
 20
10.3798744206
 11
-22.9786579695
 21
10.4030935562
  0
LINE
  5
33B
100
AcDbEntity
  8
CURVE
100
AcDbLine
 62
252
  6
CONTINUOUS
 10
-22.9754065353
 20
10.357423395
 11
-22.976667755
 21
10.3808717818
  0
LWPOLYLINE
  5
33C
100
AcDbEntity
  8
CURVE
100
AcDbPolyline
 62
252
  6
CONTINUOUS
 90
7
 70
0
 10
-24.2761165599
 20
10.3217459425
 10
-24.2753837725
 20
10.3002072091
 10
-24.273940837
 20
10.2788594422
 10
-24.2717938144
 20
10.257657089
 10
-24.2689480368
 20
10.2365638976
 10
-24.2654059203
 20
10.2155808195
 10
-24.2611691521
 20
10.1947181069
  0
LINE
  5
33D
100
AcDbEntity
  8
RACCORDO
100
AcDbLine
 62
253
  6
CONTINUOUS
 10
-25.1962494996
 20
23.6852334893
 11
-25.1962494996
 21
23.485
  0
LINE
  5
33E
100
AcDbEntity
  8
ASSI
100
AcDbLine
 62
253
  6
CONTINUOUS
 10
-25.1962494996
 20
23.6852334893
 11
-25.1962494996
 21
23.485
  0
LINE
  5
33F
100
AcDbEntity
  8
RACCORDO
100
AcDbLine
 62
253
  6
CONTINUOUS
 10
-25.1962494996
 20
22.9847665107
 11
-25.1962494996
 21
23.185
  0
LINE
  5
340
100
AcDbEntity
  8
ASSI
100
AcDbLine
 62
253
  6
CONTINUOUS
 10
-25.1962494996
 20
22.9847665107
 11
-25.1962494996
 21
23.185
  0
LINE
  5
341
100
AcDbEntity
  8
CURVE
100
AcDbLine
 62
252
  6
CONTINUOUS
 10
-23.635
 20
7.435
 11
-23.635
 21
8.6349999392
  0
LINE
  5
342
100
AcDbEntity
  8
CURVE
100
AcDbLine
 62
252
  6
CONTINUOUS
 10
-23.635
 20
12.035
 11
-23.635
 21
13.2349999657
  0
LINE
  5
343
100
AcDbEntity
  8
CURVE
100
AcDbLine
 62
252
  6
CONTINUOUS
 10
-23.635
 20
32.405
 11
-23.635
 21
34.255000027
  0
LINE
  5
344
100
AcDbEntity
  8
CURVE
100
AcDbLine
 62
252
  6
CONTINUOUS
 10
-23.635
 20
38.465
 11
-23.635
 21
40.2650000105
  0
LWPOLYLINE
  5
345
100
AcDbEntity
  8
CURVE
100
AcDbPolyline
 62
252
  6
CONTINUOUS
 90
84
 70
0
 10
-24.635
 20
36.335
 10
-24.6341332047
 20
36.3772960961
 10
-24.6315342731
 20
36.4192105926
 10
-24.6272030195
 20
36.4607743626
 10
-24.6211392582
 20
36.5020182793
 10
-24.6133428032
 20
36.542973216
 10
-24.6055236883
 20
36.5768919466
 10
-24.596510979
 20
36.6105778544
 10
-24.5863144695
 20
36.6439773571
 10
-24.5749439537
 20
36.6770368729
 10
-24.5624092257
 20
36.7097028195
 10
-24.5487200797
 20
36.741921615
 10
-24.5338900181
 20
36.7736417416
 10
-24.5179473775
 20
36.8048199388
 10
-24.5009242031
 20
36.8354150101
 10
-24.4828525398
 20
36.8653857593
 10
-24.4637644327
 20
36.8946909902
 10
-24.443691927
 20
36.9232895063
 10
-24.4183455374
 20
36.9566227679
 10
-24.3916525565
 20
36.9888433101
 10
-24.3636377825
 20
37.0199154055
 10
-24.3343260132
 20
37.0498033267
 10
-24.3037420467
 20
37.0784713461
 10
-24.2719223258
 20
37.1058791159
 10
-24.2389498725
 20
37.1319678077
 10
-24.2049193538
 20
37.1566739725
 10
-24.1699254366
 20
37.1799341616
 10
-24.1340627876
 20
37.201684926
 10
-24.1035749802
 20
37.2186159881
 10
-24.0725627139
 20
37.2344434569
 10
-24.0410390747
 20
37.2491560124
 10
-24.0090171486
 20
37.2627423346
 10
-23.9765100218
 20
37.2751911033
 10
-23.9435307803
 20
37.2864909985
 10
-23.9101015069
 20
37.296631103
 10
-23.8762802717
 20
37.30560211
 10
-23.8421341412
 20
37.3133951158
 10
-23.8077301824
 20
37.3200012163
 10
-23.7731354619
 20
37.3254115078
 10
-23.7384170465
 20
37.3296170862
 10
-23.6966727522
 20
37.3330637851
 10
-23.6548827141
 20
37.3347640658
 10
-23.6130827326
 20
37.3347191185
 10
-23.5713086084
 20
37.3329301334
 10
-23.5295961421
 20
37.3293983006
 10
-23.4949159764
 20
37.3251258839
 10
-23.4603679763
 20
37.3196522349
 10
-23.4260166278
 20
37.3129856056
 10
-23.3919264169
 20
37.3051342482
 10
-23.3581618297
 20
37.2961064146
 10
-23.3247873522
 20
37.2859103569
 10
-23.2918595391
 20
37.2745553548
 10
-23.2594032195
 20
37.2620547985
 10
-23.2274352914
 20
37.2484231059
 10
-23.1959726527
 20
37.2336746948
 10
-23.1650322012
 20
37.217823983
 10
-23.1346308347
 20
37.2008853884
 10
-23.0988935405
 20
37.1791484358
 10
-23.0640398275
 20
37.1559210025
 10
-23.0301526612
 20
37.1312583975
 10
-22.9973150073
 20
37.1052159298
 10
-22.9656098314
 20
37.0778489082
 10
-22.9351118926
 20
37.0492102516
 10
-22.9058631228
 20
37.0193433189
 10
-22.8778972474
 20
36.9882890789
 10
-22.8512479916
 20
36.9560885005
 10
-22.8259490809
 20
36.9227825524
 10
-22.8020365677
 20
36.8884173428
 10
-22.7795558139
 20
36.8530595367
 10
-22.7585545084
 20
36.8167809385
 10
-22.7390803402
 20
36.7796533524
 10
-22.7211809983
 20
36.7417485829
 10
-22.7075002677
 20
36.7096167404
 10
-22.6949618223
 20
36.6770206689
 10
-22.6835812004
 20
36.6439859861
 10
-22.6733740829
 20
36.6105444367
 10
-22.6643567203
 20
36.5767522741
 10
-22.6565455052
 20
36.5426718787
 10
-22.6499515891
 20
36.508364521
 10
-22.6445651576
 20
36.4738870314
 10
-22.6403711548
 20
36.4392951303
 10
-22.6373602825
 20
36.4046112108
 10
-22.6355462734
 20
36.369724357
 10
-22.6349486178
 20
36.3344903253
  0
LINE
  5
346
100
AcDbEntity
  8
CURVE
100
AcDbLine
 62
252
  6
CONTINUOUS
 10
-24.2753750769
 20
10.3665427255
 11
-24.276133138
 21
10.343521195
  0
LINE
  5
347
100
AcDbEntity
  8
CURVE
100
AcDbLine
 62
252
  6
CONTINUOUS
 10
-24.276133138
 20
10.343521195
 11
-24.2753680766
 21
10.3666809224
  0
LINE
  5
348
100
AcDbEntity
  8
CURVE
100
AcDbLine
 62
252
  6
CONTINUOUS
 10
-24.2753750769
 20
10.3665427255
 11
-24.2738107659
 21
10.3895574793
  0
LWPOLYLINE
  5
349
100
AcDbEntity
  8
RACCORDO
100
AcDbPolyline
 62
253
  6
CONTINUOUS
 90
109
 70
0
 10
-25.1962487576
 20
23.6852334893
 10
-25.1869964551
 20
23.7242336265
 10
-25.1767867503
 20
23.7629429518
 10
-25.1656196435
 20
23.8013614649
 10
-25.153487035
 20
23.8395127531
 10
-25.1403970243
 20
23.8773732282
 10
-25.12637391
 20
23.9148721259
 10
-25.1114156702
 20
23.9520093447
 10
-25.0955243269
 20
23.9887849856
 10
-25.0787302438
 20
24.0251285873
 10
-25.0610317847
 20
24.0610389697
 10
-25.042430586
 20
24.0965173128
 10
-25.0229619198
 20
24.1314966961
 10
-25.0026242342
 20
24.165976001
 10
-24.9814190811
 20
24.1999563462
 10
-24.9593863893
 20
24.2333741675
 10
-24.9365246364
 20
24.2662283795
 10
-24.9128353448
 20
24.298520068
 10
-24.8883630097
 20
24.3301889259
 10
-24.8631061558
 20
24.3612338074
 10
-24.8370662585
 20
24.3916558589
 10
-24.8102922389
 20
24.4213982125
 10
-24.7827827311
 20
24.4504595889
 10
-24.754539101
 20
24.4788412682
 10
-24.7256143673
 20
24.5064902216
 10
-24.6960072363
 20
24.5334050919
 10
-24.6657190018
 20
24.5595872374
 10
-24.6348065631
 20
24.5849877032
 10
-24.6032687515
 20
24.6096050174
 10
-24.5711067358
 20
24.633440653
 10
-24.5383809216
 20
24.6564500723
 10
-24.5050902994
 20
24.6786316976
 10
-24.4712358786
 20
24.6999871079
 10
-24.4368810933
 20
24.7204765
 10
-24.4020250017
 20
24.7400982622
 10
-24.3666685456
 20
24.7588540075
 10
-24.3308779844
 20
24.7767087702
 10
-24.2946525436
 20
24.7936608545
 10
-24.2579929977
 20
24.8097119577
 10
-24.2209679297
 20
24.8248322037
 10
-24.183576626
 20
24.8390198694
 10
-24.1458198003
 20
24.8522766793
 10
-24.1077681762
 20
24.8645779291
 10
-24.0694212496
 20
24.8759218233
 10
-24.0307795246
 20
24.8863101584
 10
-23.9919152372
 20
24.8957236179
 10
-23.9528279529
 20
24.9041603918
 10
-23.9135181063
 20
24.9116222909
 10
-23.8740592365
 20
24.9180954298
 10
-23.8344510929
 20
24.9235779641
 10
-23.7946939261
 20
24.9280717387
 10
-23.7548620274
 20
24.9315684024
 10
-23.7149552461
 20
24.9340661017
 10
-23.6749737328
 20
24.9355666905
 10
-23.6349922307
 20
24.9360673781
 10
-23.5950107403
 20
24.935566303
 10
-23.5550292612
 20
24.9340653267
 10
-23.5151225346
 20
24.9315672431
 10
-23.4752907099
 20
24.9280701984
 10
-23.4355336378
 20
24.9235760461
 10
-23.3959256119
 20
24.9180931414
 10
-23.3564668856
 20
24.9116196396
 10
-23.3171572054
 20
24.9041573849
 10
-23.2780701053
 20
24.8957202651
 10
-23.2392060161
 20
24.8863064685
 10
-23.200564507
 20
24.875917806
 10
-23.1622178191
 20
24.8645735994
 10
-23.1241664632
 20
24.8522720546
 10
-23.0864099287
 20
24.8390149646
 10
-23.049018925
 20
24.8248270322
 10
-23.0119941578
 20
24.8097065297
 10
-22.9753349215
 20
24.7936551834
 10
-22.9391098092
 20
24.7767028771
 10
-22.9033196021
 20
24.7588479166
 10
-22.8679635191
 20
24.7400919946
 10
-22.8331078089
 20
24.7204700756
 10
-22.7987534068
 20
24.6999805421
 10
-22.7648993775
 20
24.6786250101
 10
-22.7316091649
 20
24.6564432942
 10
-22.6988837888
 20
24.6334338229
 10
-22.6667222294
 20
24.6095981664
 10
-22.6351848708
 20
24.5849808511
 10
-22.6042728765
 20
24.5595804017
 10
-22.573985083
 20
24.5333982924
 10
-22.5443783844
 20
24.5064834741
 10
-22.5154540686
 20
24.4788345825
 10
-22.4872108475
 20
24.4504529808
 10
-22.4597017507
 20
24.4213917119
 10
-22.4329281468
 20
24.3916494962
 10
-22.4068886672
 20
24.3612276124
 10
-22.3816322355
 20
24.3301829405
 10
-22.3571603308
 20
24.2985143379
 10
-22.333471474
 20
24.2662229466
 10
-22.310610152
 20
24.2333690737
 10
-22.2885778912
 20
24.199951643
 10
-22.2673731652
 20
24.1659717304
 10
-22.2470358813
 20
24.1314928719
 10
-22.2275675807
 20
24.0965139299
 10
-22.2089667222
 20
24.0610360419
 10
-22.1912685897
 20
24.0251261574
 10
-22.1744748416
 20
23.9887831584
 10
-22.1585838194
 20
23.9520081631
 10
-22.1436258316
 20
23.9148714755
 10
-22.1296028611
 20
23.8773729358
 10
-22.1165129249
 20
23.8395127045
 10
-22.1043803819
 20
23.8013615654
 10
-22.0932133516
 20
23.7629431134
 10
-22.0830037146
 20
23.7242337546
 10
-22.0737514707
 20
23.6852334893
  0
LWPOLYLINE
  5
34A
100
AcDbEntity
  8
ASSI
100
AcDbPolyline
 62
253
  6
CONTINUOUS
 90
109
 70
0
 10
-25.1962487576
 20
23.6852334893
 10
-25.1869964551
 20
23.7242336265
 10
-25.1767867503
 20
23.7629429518
 10
-25.1656196435
 20
23.8013614649
 10
-25.153487035
 20
23.8395127531
 10
-25.1403970243
 20
23.8773732282
 10
-25.12637391
 20
23.9148721259
 10
-25.1114156702
 20
23.9520093447
 10
-25.0955243269
 20
23.9887849856
 10
-25.0787302438
 20
24.0251285873
 10
-25.0610317847
 20
24.0610389697
 10
-25.042430586
 20
24.0965173128
 10
-25.0229619198
 20
24.1314966961
 10
-25.0026242342
 20
24.165976001
 10
-24.9814190811
 20
24.1999563462
 10
-24.9593863893
 20
24.2333741675
 10
-24.9365246364
 20
24.2662283795
 10
-24.9128353448
 20
24.298520068
 10
-24.8883630097
 20
24.3301889259
 10
-24.8631061558
 20
24.3612338074
 10
-24.8370662585
 20
24.3916558589
 10
-24.8102922389
 20
24.4213982125
 10
-24.7827827311
 20
24.4504595889
 10
-24.754539101
 20
24.4788412682
 10
-24.7256143673
 20
24.5064902216
 10
-24.6960072363
 20
24.5334050919
 10
-24.6657190018
 20
24.5595872374
 10
-24.6348065631
 20
24.5849877032
 10
-24.6032687515
 20
24.6096050174
 10
-24.5711067358
 20
24.633440653
 10
-24.5383809216
 20
24.6564500723
 10
-24.5050902994
 20
24.6786316976
 10
-24.4712358786
 20
24.6999871079
 10
-24.4368810933
 20
24.7204765
 10
-24.4020250017
 20
24.7400982622
 10
-24.3666685456
 20
24.7588540075
 10
-24.3308779844
 20
24.7767087702
 10
-24.2946525436
 20
24.7936608545
 10
-24.2579929977
 20
24.8097119577
 10
-24.2209679297
 20
24.8248322037
 10
-24.183576626
 20
24.8390198694
 10
-24.1458198003
 20
24.8522766793
 10
-24.1077681762
 20
24.8645779291
 10
-24.0694212496
 20
24.8759218233
 10
-24.0307795246
 20
24.8863101584
 10
-23.9919152372
 20
24.8957236179
 10
-23.9528279529
 20
24.9041603918
 10
-23.9135181063
 20
24.9116222909
 10
-23.8740592365
 20
24.9180954298
 10
-23.8344510929
 20
24.9235779641
 10
-23.7946939261
 20
24.9280717387
 10
-23.7548620274
 20
24.9315684024
 10
-23.7149552461
 20
24.9340661017
 10
-23.6749737328
 20
24.9355666905
 10
-23.6349922307
 20
24.9360673781
 10
-23.5950107403
 20
24.935566303
 10
-23.5550292612
 20
24.9340653267
 10
-23.5151225346
 20
24.9315672431
 10
-23.4752907099
 20
24.9280701984
 10
-23.4355336378
 20
24.9235760461
 10
-23.3959256119
 20
24.9180931414
 10
-23.3564668856
 20
24.9116196396
 10
-23.3171572054
 20
24.9041573849
 10
-23.2780701053
 20
24.8957202651
 10
-23.2392060161
 20
24.8863064685
 10
-23.200564507
 20
24.875917806
 10
-23.1622178191
 20
24.8645735994
 10
-23.1241664632
 20
24.8522720546
 10
-23.0864099287
 20
24.8390149646
 10
-23.049018925
 20
24.8248270322
 10
-23.0119941578
 20
24.8097065297
 10
-22.9753349215
 20
24.7936551834
 10
-22.9391098092
 20
24.7767028771
 10
-22.9033196021
 20
24.7588479166
 10
-22.8679635191
 20
24.7400919946
 10
-22.8331078089
 20
24.7204700756
 10
-22.7987534068
 20
24.6999805421
 10
-22.7648993775
 20
24.6786250101
 10
-22.7316091649
 20
24.6564432942
 10
-22.6988837888
 20
24.6334338229
 10
-22.6667222294
 20
24.6095981664
 10
-22.6351848708
 20
24.5849808511
 10
-22.6042728765
 20
24.5595804017
 10
-22.573985083
 20
24.5333982924
 10
-22.5443783844
 20
24.5064834741
 10
-22.5154540686
 20
24.4788345825
 10
-22.4872108475
 20
24.4504529808
 10
-22.4597017507
 20
24.4213917119
 10
-22.4329281468
 20
24.3916494962
 10
-22.4068886672
 20
24.3612276124
 10
-22.3816322355
 20
24.3301829405
 10
-22.3571603308
 20
24.2985143379
 10
-22.333471474
 20
24.2662229466
 10
-22.310610152
 20
24.2333690737
 10
-22.2885778912
 20
24.199951643
 10
-22.2673731652
 20
24.1659717304
 10
-22.2470358813
 20
24.1314928719
 10
-22.2275675807
 20
24.0965139299
 10
-22.2089667222
 20
24.0610360419
 10
-22.1912685897
 20
24.0251261574
 10
-22.1744748416
 20
23.9887831584
 10
-22.1585838194
 20
23.9520081631
 10
-22.1436258316
 20
23.9148714755
 10
-22.1296028611
 20
23.8773729358
 10
-22.1165129249
 20
23.8395127045
 10
-22.1043803819
 20
23.8013615654
 10
-22.0932133516
 20
23.7629431134
 10
-22.0830037146
 20
23.7242337546
 10
-22.0737514707
 20
23.6852334893
  0
LINE
  5
34B
100
AcDbEntity
  8
RACCORDO
100
AcDbLine
 62
253
  6
CONTINUOUS
 10
-45.785
 20
2.2848781561
 11
-45.7084262834
 21
2.3614518727
  0
LINE
  5
34C
100
AcDbEntity
  8
ASSI
100
AcDbLine
 62
253
  6
CONTINUOUS
 10
-45.785
 20
2.2848781561
 11
-45.7084262834
 21
2.3614518727
  0
LINE
  5
34D
100
AcDbEntity
  8
RACCORDO
100
AcDbLine
 62
253
  6
CONTINUOUS
 10
-2.2848781561
 20
45.185
 11
-2.3614518727
 21
45.1084262834
  0
LINE
  5
34E
100
AcDbEntity
  8
ASSI
100
AcDbLine
 62
253
  6
CONTINUOUS
 10
-2.2848781561
 20
45.185
 11
-2.3614518727
 21
45.1084262834
  0
LWPOLYLINE
  5
34F
100
AcDbEntity
  8
RACCORDO
100
AcDbPolyline
 62
253
  6
CONTINUOUS
 90
6
 70
0
 10
-22.2649715274
 20
23.6421830295
 10
-22.2663852423
 20
23.6418498708
 10
-22.2674890842
 20
23.6415964535
 10
-22.2682808641
 20
23.6414232064
 10
-22.2687542603
 20
23.6413109645
 10
-22.2689066879
 20
23.64125
  0
LWPOLYLINE
  5
350
100
AcDbEntity
  8
ASSI
100
AcDbPolyline
 62
253
  6
CONTINUOUS
 90
6
 70
0
 10
-22.2649715274
 20
23.6421830295
 10
-22.2663852423
 20
23.6418498708
 10
-22.2674890842
 20
23.6415964535
 10
-22.2682808641
 20
23.6414232064
 10
-22.2687542603
 20
23.6413109645
 10
-22.2689066879
 20
23.64125
  0
LWPOLYLINE
  5
351
100
AcDbEntity
  8
RACCORDO
100
AcDbPolyline
 62
253
  6
CONTINUOUS
 90
6
 70
0
 10
-25.0050284726
 20
23.0278169709
 10
-25.0036147578
 20
23.0281501295
 10
-25.0025109159
 20
23.0284035467
 10
-25.0017191359
 20
23.0285767937
 10
-25.0012457397
 20
23.0286890355
 10
-25.0010933121
 20
23.02875
  0
LWPOLYLINE
  5
352
100
AcDbEntity
  8
ASSI
100
AcDbPolyline
 62
253
  6
CONTINUOUS
 90
6
 70
0
 10
-25.0050284726
 20
23.0278169709
 10
-25.0036147578
 20
23.0281501295
 10
-25.0025109159
 20
23.0284035467
 10
-25.0017191359
 20
23.0285767937
 10
-25.0012457397
 20
23.0286890355
 10
-25.0010933121
 20
23.02875
  0
LINE
  5
353
100
AcDbEntity
  8
RACCORDO
100
AcDbLine
 62
253
  6
CONTINUOUS
 10
-25.1962494996
 20
22.984766511
 11
-25.0050284726
 21
23.0278169709
  0
LINE
  5
354
100
AcDbEntity
  8
ASSI
100
AcDbLine
 62
253
  6
CONTINUOUS
 10
-25.1962494996
 20
22.984766511
 11
-25.0050284726
 21
23.0278169709
  0
LINE
  5
355
100
AcDbEntity
  8
RACCORDO
100
AcDbLine
 62
253
  6
CONTINUOUS
 10
-22.0737505004
 20
23.685233489
 11
-22.2649715274
 21
23.6421830295
  0
LINE
  5
356
100
AcDbEntity
  8
ASSI
100
AcDbLine
 62
253
  6
CONTINUOUS
 10
-22.0737505004
 20
23.685233489
 11
-22.2649715274
 21
23.6421830295
  0
LINE
  5
357
100
AcDbEntity
  8
RACCORDO
100
AcDbLine
 62
253
  6
CONTINUOUS
 10
-1.5856068141
 20
22.985
 11
-1.5863394599
 21
22.9849932608
  0
LINE
  5
358
100
AcDbEntity
  8
ASSI
100
AcDbLine
 62
253
  6
CONTINUOUS
 10
-1.5856068141
 20
22.985
 11
-1.5863394599
 21
22.9849932608
  0
LINE
  5
359
100
AcDbEntity
  8
RACCORDO
100
AcDbLine
 62
253
  6
CONTINUOUS
 10
-1.5863394599
 20
22.9849932608
 11
-1.6224340867
 21
22.9849336536
  0
LINE
  5
35A
100
AcDbEntity
  8
ASSI
100
AcDbLine
 62
253
  6
CONTINUOUS
 10
-1.5863394599
 20
22.9849932608
 11
-1.6224340867
 21
22.9849336536
  0
LWPOLYLINE
  5
35B
100
AcDbEntity
  8
RACCORDO
100
AcDbPolyline
 62
253
  6
CONTINUOUS
 90
3
 70
0
 10
-1.6224340867
 20
22.9849336536
 10
-1.6375145426
 20
22.9849208758
 10
-1.6459864733
 20
22.9849145862
  0
LWPOLYLINE
  5
35C
100
AcDbEntity
  8
ASSI
100
AcDbPolyline
 62
253
  6
CONTINUOUS
 90
3
 70
0
 10
-1.6224340867
 20
22.9849336536
 10
-1.6375145426
 20
22.9849208758
 10
-1.6459864733
 20
22.9849145862
  0
LWPOLYLINE
  5
35D
100
AcDbEntity
  8
RACCORDO
100
AcDbPolyline
 62
253
  6
CONTINUOUS
 90
5
 70
0
 10
-1.6459864733
 20
22.9849145862
 10
-1.6647581262
 20
22.9849022207
 10
-1.6750426366
 20
22.9848961602
 10
-1.6859148753
 20
22.9848901811
 10
-1.6973658886
 20
22.9848842982
  0
LWPOLYLINE
  5
35E
100
AcDbEntity
  8
ASSI
100
AcDbPolyline
 62
253
  6
CONTINUOUS
 90
5
 70
0
 10
-1.6459864733
 20
22.9849145862
 10
-1.6647581262
 20
22.9849022207
 10
-1.6750426366
 20
22.9848961602
 10
-1.6859148753
 20
22.9848901811
 10
-1.6973658886
 20
22.9848842982
  0
LWPOLYLINE
  5
35F
100
AcDbEntity
  8
RACCORDO
100
AcDbPolyline
 62
253
  6
CONTINUOUS
 90
3
 70
0
 10
-1.6973658886
 20
22.9848842982
 10
-1.7219661931
 20
22.9848728214
 10
-1.7350949236
 20
22.9848672413
  0
LWPOLYLINE
  5
360
100
AcDbEntity
  8
ASSI
100
AcDbPolyline
 62
253
  6
CONTINUOUS
 90
3
 70
0
 10
-1.6973658886
 20
22.9848842982
 10
-1.7219661931
 20
22.9848728214
 10
-1.7350949236
 20
22.9848672413
  0
LINE
  5
361
100
AcDbEntity
  8
RACCORDO
100
AcDbLine
 62
253
  6
CONTINUOUS
 10
-1.7350949236
 20
22.9848672413
 11
-22.0737505004
 21
22.9847665107
  0
LINE
  5
362
100
AcDbEntity
  8
ASSI
100
AcDbLine
 62
253
  6
CONTINUOUS
 10
-1.7350949236
 20
22.9848672413
 11
-22.0737505004
 21
22.9847665107
  0
LINE
  5
363
100
AcDbEntity
  8
RACCORDO
100
AcDbLine
 62
253
  6
CONTINUOUS
 10
-25.1962494996
 20
22.9847665107
 11
-44.999182845
 21
22.984769499
  0
LINE
  5
364
100
AcDbEntity
  8
ASSI
100
AcDbLine
 62
253
  6
CONTINUOUS
 10
-25.1962494996
 20
22.9847665107
 11
-44.999182845
 21
22.984769499
  0
LINE
  5
365
100
AcDbEntity
  8
RACCORDO
100
AcDbLine
 62
253
  6
CONTINUOUS
 10
-1.485
 20
22.985
 11
-1.5856067563
 21
22.985
  0
LINE
  5
366
100
AcDbEntity
  8
ASSI
100
AcDbLine
 62
253
  6
CONTINUOUS
 10
-1.485
 20
22.985
 11
-1.5856067563
 21
22.985
  0
LINE
  5
367
100
AcDbEntity
  8
RACCORDO
100
AcDbLine
 62
253
  6
CONTINUOUS
 10
-45.6843932437
 20
22.985
 11
-45.785
 21
22.985
  0
LINE
  5
368
100
AcDbEntity
  8
ASSI
100
AcDbLine
 62
253
  6
CONTINUOUS
 10
-45.6843932437
 20
22.985
 11
-45.785
 21
22.985
  0
LINE
  5
369
100
AcDbEntity
  8
RACCORDO
100
AcDbLine
 62
7
  6
CONTINUOUS
 10
-1.6850304656
 20
23.185
 11
-22.0737505004
 21
23.185
  0
LINE
  5
36A
100
AcDbEntity
  8
ASSI
100
AcDbLine
 62
7
  6
CONTINUOUS
 10
-1.6850304656
 20
23.185
 11
-22.0737505004
 21
23.185
  0
LINE
  5
36B
100
AcDbEntity
  8
RACCORDO
100
AcDbLine
 62
7
  6
CONTINUOUS
 10
-25.1962494996
 20
23.185
 11
-45.5849695344
 21
23.185
  0
LINE
  5
36C
100
AcDbEntity
  8
ASSI
100
AcDbLine
 62
7
  6
CONTINUOUS
 10
-25.1962494996
 20
23.185
 11
-45.5849695344
 21
23.185
  0
LINE
  5
36D
100
AcDbEntity
  8
CURVE
100
AcDbLine
 62
252
  6
CONTINUOUS
 10
-1.485
 20
23.335
 11
-45.785
 21
23.335
  0
LINE
  5
36E
100
AcDbEntity
  8
ASSI
100
AcDbLine
 62
252
  6
CONTINUOUS
 10
-1.485
 20
23.335
 11
-45.785
 21
23.335
  0
LINE
  5
36F
100
AcDbEntity
  8
RACCORDO
100
AcDbLine
 62
7
  6
CONTINUOUS
 10
-45.5849695344
 20
23.485
 11
-25.1962494996
 21
23.485
  0
LINE
  5
370
100
AcDbEntity
  8
ASSI
100
AcDbLine
 62
7
  6
CONTINUOUS
 10
-45.5849695344
 20
23.485
 11
-25.1962494996
 21
23.485
  0
LINE
  5
371
100
AcDbEntity
  8
RACCORDO
100
AcDbLine
 62
7
  6
CONTINUOUS
 10
-22.0737505004
 20
23.485
 11
-1.6850304656
 21
23.485
  0
LINE
  5
372
100
AcDbEntity
  8
ASSI
100
AcDbLine
 62
7
  6
CONTINUOUS
 10
-22.0737505004
 20
23.485
 11
-1.6850304656
 21
23.485
  0
LWPOLYLINE
  5
373
100
AcDbEntity
  8
RACCORDO
100
AcDbPolyline
 62
253
  6
CONTINUOUS
 90
4
 70
0
 10
-44.999182845
 20
22.984769499
 10
-45.6822668428
 20
22.984986539
 10
-45.6836605401
 20
22.9849932608
 10
-45.6843931859
 20
22.985
  0
LWPOLYLINE
  5
374
100
AcDbEntity
  8
ASSI
100
AcDbPolyline
 62
253
  6
CONTINUOUS
 90
4
 70
0
 10
-44.999182845
 20
22.984769499
 10
-45.6822668428
 20
22.984986539
 10
-45.6836605401
 20
22.9849932608
 10
-45.6843931859
 20
22.985
  0
LINE
  5
375
100
AcDbEntity
  8
RACCORDO
100
AcDbLine
 62
253
  6
CONTINUOUS
 10
-22.0737505004
 20
22.984766511
 11
-22.2632460943
 21
23.027424222
  0
LINE
  5
376
100
AcDbEntity
  8
ASSI
100
AcDbLine
 62
253
  6
CONTINUOUS
 10
-22.0737505004
 20
22.984766511
 11
-22.2632460943
 21
23.027424222
  0
LINE
  5
377
100
AcDbEntity
  8
RACCORDO
100
AcDbLine
 62
253
  6
CONTINUOUS
 10
-25.1962494996
 20
23.685233489
 11
-25.0050284314
 21
23.6421796565
  0
LINE
  5
378
100
AcDbEntity
  8
ASSI
100
AcDbLine
 62
253
  6
CONTINUOUS
 10
-25.1962494996
 20
23.685233489
 11
-25.0050284314
 21
23.6421796565
  0
LWPOLYLINE
  5
379
100
AcDbEntity
  8
RACCORDO
100
AcDbPolyline
 62
253
  6
CONTINUOUS
 90
5
 70
0
 10
-25.0050284314
 20
23.6421796565
 10
-25.0025105694
 20
23.6415963549
 10
-25.0017222675
 20
23.641410119
 10
-25.0012495929
 20
23.6412946042
 10
-25.0010933121
 20
23.64125
  0
LWPOLYLINE
  5
37A
100
AcDbEntity
  8
ASSI
100
AcDbPolyline
 62
253
  6
CONTINUOUS
 90
5
 70
0
 10
-25.0050284314
 20
23.6421796565
 10
-25.0025105694
 20
23.6415963549
 10
-25.0017222675
 20
23.641410119
 10
-25.0012495929
 20
23.6412946042
 10
-25.0010933121
 20
23.64125
  0
LWPOLYLINE
  5
37B
100
AcDbEntity
  8
RACCORDO
100
AcDbPolyline
 62
253
  6
CONTINUOUS
 90
5
 70
0
 10
-22.2632460943
 20
23.027424222
 10
-22.2674894305
 20
23.0284036453
 10
-22.2682777324
 20
23.0285898811
 10
-22.2687504071
 20
23.0287053958
 10
-22.2689066879
 20
23.02875
  0
LWPOLYLINE
  5
37C
100
AcDbEntity
  8
ASSI
100
AcDbPolyline
 62
253
  6
CONTINUOUS
 90
5
 70
0
 10
-22.2632460943
 20
23.027424222
 10
-22.2674894305
 20
23.0284036453
 10
-22.2682777324
 20
23.0285898811
 10
-22.2687504071
 20
23.0287053958
 10
-22.2689066879
 20
23.02875
  0
LINE
  5
37D
100
AcDbEntity
  8
RACCORDO
100
AcDbLine
 62
253
  6
CONTINUOUS
 10
-45.7084262834
 20
44.3085481273
 11
-45.785
 21
44.3851218439
  0
LINE
  5
37E
100
AcDbEntity
  8
ASSI
100
AcDbLine
 62
253
  6
CONTINUOUS
 10
-45.7084262834
 20
44.3085481273
 11
-45.785
 21
44.3851218439
  0
LINE
  5
37F
100
AcDbEntity
  8
RACCORDO
100
AcDbLine
 62
253
  6
CONTINUOUS
 10
-2.3614518727
 20
1.5615737166
 11
-2.2848781561
 21
1.485
  0
LINE
  5
380
100
AcDbEntity
  8
ASSI
100
AcDbLine
 62
253
  6
CONTINUOUS
 10
-2.3614518727
 20
1.5615737166
 11
-2.2848781561
 21
1.485
  0
LWPOLYLINE
  5
381
100
AcDbEntity
  8
CURVE
100
AcDbPolyline
 62
252
  6
CONTINUOUS
 90
3
 70
0
 10
-22.9847601851
 20
10.4464530915
 10
-22.9890001946
 20
10.4685206467
 10
-22.9941954844
 20
10.4912629606
  0
LINE
  5
382
100
AcDbEntity
  8
CURVE
100
AcDbLine
 62
252
  6
CONTINUOUS
 10
-22.9812823162
 20
10.4243326562
 11
-22.9849054331
 21
10.4472822723
  0
LINE
  5
383
100
AcDbEntity
  8
CURVE
100
AcDbLine
 62
252
  6
CONTINUOUS
 10
-22.9785586931
 20
10.40215664
 11
-22.9814060112
 21
10.4252134776
  0
LINE
  5
384
100
AcDbEntity
  8
CURVE
100
AcDbLine
 62
252
  6
CONTINUOUS
 10
-22.9749998172
 20
10.3347409603
 11
-22.9754455122
 21
10.3584852849
  0
LINE
  5
385
100
AcDbEntity
  8
RACCORDO
100
AcDbLine
 62
253
  6
CONTINUOUS
 10
-22.0737505004
 20
23.6852334893
 11
-22.0737505004
 21
23.485
  0
LINE
  5
386
100
AcDbEntity
  8
ASSI
100
AcDbLine
 62
253
  6
CONTINUOUS
 10
-22.0737505004
 20
23.6852334893
 11
-22.0737505004
 21
23.485
  0
LINE
  5
387
100
AcDbEntity
  8
RACCORDO
100
AcDbLine
 62
253
  6
CONTINUOUS
 10
-22.0737505004
 20
22.9847665107
 11
-22.0737505004
 21
23.185
  0
LINE
  5
388
100
AcDbEntity
  8
ASSI
100
AcDbLine
 62
253
  6
CONTINUOUS
 10
-22.0737505004
 20
22.9847665107
 11
-22.0737505004
 21
23.185
  0
LINE
  5
389
100
AcDbEntity
  8
CURVE
100
AcDbLine
 62
252
  6
CONTINUOUS
 10
-22.9749999956
 20
10.3349950828
 11
-22.9753583597
 21
10.3128964249
  0
LWPOLYLINE
  5
38A
100
AcDbEntity
  8
CURVE
100
AcDbPolyline
 62
252
  6
CONTINUOUS
 90
84
 70
0
 10
-22.6349486178
 20
36.3344903253
 10
-22.6358346438
 20
36.2921996708
 10
-22.6384521936
 20
36.2502909138
 10
-22.6428016606
 20
36.2087331991
 10
-22.648883438
 20
36.1674956712
 10
-22.6566979189
 20
36.1265474747
 10
-22.6645321694
 20
36.0926346397
 10
-22.6735600247
 20
36.0589548788
 10
-22.6837715501
 20
36.0255617689
 10
-22.6951568108
 20
35.9925088869
 10
-22.7077058723
 20
35.9598498094
 10
-22.7214087999
 20
35.9276381135
 10
-22.7362519744
 20
35.895925317
 10
-22.7522070396
 20
35.8647547028
 10
-22.7692419544
 20
35.8341674947
 10
-22.7873246783
 20
35.8042049165
 10
-22.8064231704
 20
35.7749081922
 10
-22.8265053899
 20
35.7463185457
 10
-22.8518625375
 20
35.712996432
 10
-22.8785652122
 20
35.6807875648
 10
-22.9065885123
 20
35.6497276363
 10
-22.9359075362
 20
35.6198523385
 10
-22.9664973823
 20
35.5911973637
 10
-22.998321512
 20
35.5638030044
 10
-23.0312968396
 20
35.5377279552
 10
-23.0653286423
 20
35.5130355111
 10
-23.1003221974
 20
35.4897889671
 10
-23.1361827824
 20
35.4680516183
 10
-23.1666675355
 20
35.45113145
 10
-23.1976755308
 20
35.4353145221
 10
-23.2291936861
 20
35.4206120677
 10
-23.261208919
 20
35.4070353201
 10
-23.2937081476
 20
35.3945955125
 10
-23.3266782894
 20
35.3833038782
 10
-23.3600972957
 20
35.3731712529
 10
-23.3939072506
 20
35.364206883
 10
-23.4280412718
 20
35.3564196173
 10
-23.4624324768
 20
35.3498183046
 10
-23.4970139831
 20
35.3444117938
 10
-23.5317189083
 20
35.3402089336
 10
-23.5734468753
 20
35.3367640504
 10
-23.6152205666
 20
35.3350640829
 10
-23.6570042942
 20
35.3351079472
 10
-23.69876237
 20
35.3368945596
 10
-23.7404591057
 20
35.3404228365
 10
-23.7751264815
 20
35.3446914664
 10
-23.8096620242
 20
35.3501606638
 10
-23.8440012816
 20
35.3568222597
 10
-23.8780798011
 20
35.3646680849
 10
-23.9118331305
 20
35.3736899703
 10
-23.9451968173
 20
35.383879747
 10
-23.9781143294
 20
35.3952282101
 10
-24.0105608148
 20
35.4077220122
 10
-24.042519342
 20
35.4213467702
 10
-24.0739729792
 20
35.4360881011
 10
-24.1049047949
 20
35.4519316218
 10
-24.1352978574
 20
35.4688629492
 10
-24.1710255915
 20
35.4905911166
 10
-24.2058702012
 20
35.5138096858
 10
-24.239748748
 20
35.5384633287
 10
-24.2725782936
 20
35.5644967172
 10
-24.3042758998
 20
35.5918545231
 10
-24.3347668349
 20
35.620483808
 10
-24.3640091934
 20
35.6503411923
 10
-24.3919692767
 20
35.6813856862
 10
-24.4186133859
 20
35.7135762999
 10
-24.4439078222
 20
35.7468720435
 10
-24.467816564
 20
35.7812267983
 10
-24.4902942974
 20
35.8165739292
 10
-24.5112933858
 20
35.8528416725
 10
-24.5307661926
 20
35.8899582641
 10
-24.5486650809
 20
35.9278519402
 10
-24.5623462031
 20
35.9599744761
 10
-24.574885967
 20
35.9925611302
 10
-24.5862690942
 20
36.0255862145
 10
-24.5964801681
 20
36.0590179459
 10
-24.60550322
 20
36.0928001584
 10
-24.6133221427
 20
36.126870591
 10
-24.6199259574
 20
36.1611681142
 10
-24.6253241972
 20
36.1956361256
 10
-24.6295315235
 20
36.2302191548
 10
-24.6325568703
 20
36.2648949296
 10
-24.634386263
 20
36.2997739715
 10
-24.635
 20
36.335
  0
LINE
  5
38B
100
AcDbEntity
  8
CURVE
100
AcDbLine
 62
252
  6
CONTINUOUS
 10
-22.9753310765
 20
10.3137186246
 11
-22.9764105437
 21
10.291826704
  0
LINE
  5
38C
100
AcDbEntity
  8
CURVE
100
AcDbLine
 62
252
  6
CONTINUOUS
 10
-22.9763564041
 20
10.2926423241
 11
-22.9781471067
 21
10.2709088435
  0
LINE
  5
38D
100
AcDbEntity
  8
CURVE
100
AcDbLine
 62
252
  6
CONTINUOUS
 10
-24.2738336366
 20
10.3892898922
 11
-24.2714708867
 21
10.4122131316
  0
LINE
  5
38E
100
AcDbEntity
  8
CURVE
100
AcDbLine
 62
252
  6
CONTINUOUS
 10
-22.978066298
 20
10.2717237065
 11
-22.9805588142
 21
10.2501008304
  0
LINE
  5
38F
100
AcDbEntity
  8
CURVE
100
AcDbLine
 62
252
  6
CONTINUOUS
 10
-24.2715175032
 20
10.4118254195
 11
-24.2683581198
 21
10.4347101454
  0
LINE
  5
390
100
AcDbEntity
  8
CURVE
100
AcDbLine
 62
252
  6
CONTINUOUS
 10
-24.268435363
 20
10.4342120319
 11
-24.2644790818
 21
10.4570983446
  0
LINE
  5
391
100
AcDbEntity
  8
CURVE
100
AcDbLine
 62
252
  6
CONTINUOUS
 10
-24.264592974
 20
10.456499657
 11
-24.2598281317
 21
10.4793777836
  0
LWPOLYLINE
  5
392
100
AcDbEntity
  8
RACCORDO
100
AcDbPolyline
 62
253
  6
CONTINUOUS
 90
109
 70
0
 10
-22.0737512224
 20
22.9847665107
 10
-22.0830034992
 20
22.9457665574
 10
-22.0932131307
 20
22.9070574945
 10
-22.1043801169
 20
22.8686393226
 10
-22.1165125408
 20
22.8304885027
 10
-22.1296023193
 20
22.7926285746
 10
-22.1436252036
 20
22.7551301568
 10
-22.1585832136
 20
22.7179933245
 10
-22.1744743293
 20
22.681218003
 10
-22.1912682414
 20
22.6448745857
 10
-22.2089666045
 20
22.6089642109
 10
-22.227567764
 20
22.5734857405
 10
-22.2470364472
 20
22.5385061532
 10
-22.2673742296
 20
22.5040265463
 10
-22.2885795358
 20
22.4700458225
 10
-22.3106123672
 20
22.436627668
 10
-22.3334742348
 20
22.403773201
 10
-22.3571636277
 20
22.3714813029
 10
-22.3816360142
 20
22.3398123051
 10
-22.4068928429
 20
22.3087673838
 10
-22.4329326653
 20
22.2783453622
 10
-22.4597066038
 20
22.248603041
 10
-22.4872160261
 20
22.2195416883
 10
-22.5154595646
 20
22.191160035
 10
-22.5443842395
 20
22.1635110771
 10
-22.5739913624
 20
22.1365961532
 10
-22.6042796217
 20
22.1104139235
 10
-22.6351921023
 20
22.0850133658
 10
-22.6667299762
 20
22.0603959526
 10
-22.6988920714
 20
22.0365602101
 10
-22.7316179564
 20
22.0135506958
 10
-22.7649086317
 20
21.9913689949
 10
-22.7987630967
 20
21.9700135209
 10
-22.8331179177
 20
21.9495240731
 10
-22.8679740324
 20
21.9299022648
 10
-22.903330503
 20
21.9111464813
 10
-22.9391210827
 20
21.8932916806
 10
-22.9753465493
 20
21.8763395561
 10
-23.0120061251
 20
21.8602884131
 10
-23.0490312301
 20
21.8451681272
 10
-23.0864225807
 20
21.8309804207
 10
-23.1241794605
 20
21.8177235701
 10
-23.1622311404
 20
21.8054222824
 10
-23.2005781236
 20
21.7940783538
 10
-23.2392199069
 20
21.783689987
 10
-23.2780842512
 20
21.7742764993
 10
-23.3171715895
 20
21.7658397009
 10
-23.3564814889
 20
21.7583777806
 10
-23.3959404116
 20
21.7519046234
 10
-23.4355486083
 20
21.7464220734
 10
-23.4753058282
 20
21.7419282859
 10
-23.5151377813
 20
21.738431612
 10
-23.5550446192
 20
21.7359339051
 10
-23.5950261902
 20
21.7344333115
 10
-23.6350077501
 20
21.7339326219
 10
-23.6749892982
 20
21.734433698
 10
-23.7149708351
 20
21.7359346782
 10
-23.7548776181
 20
21.7384327683
 10
-23.7947094973
 20
21.7419298223
 10
-23.8344666227
 20
21.7464239866
 10
-23.8740747018
 20
21.7519069061
 10
-23.9135334813
 20
21.7583804252
 10
-23.9528432146
 20
21.7658427002
 10
-23.9919303692
 20
21.7742798435
 10
-24.0307945157
 20
21.7836936675
 10
-24.0694360835
 20
21.7940823609
 10
-24.1077828282
 20
21.805426601
 10
-24.14583424
 20
21.8177281827
 10
-24.1835908286
 20
21.8309853123
 10
-24.2209818792
 20
21.8451732845
 10
-24.2580066834
 20
21.8602938258
 10
-24.2946659495
 20
21.8763452109
 10
-24.3308910881
 20
21.8932975565
 10
-24.3666813146
 20
21.9111525544
 10
-24.4020374136
 20
21.9299085141
 10
-24.4368931483
 20
21.9495304791
 10
-24.4712475879
 20
21.9700200684
 10
-24.5051016632
 20
21.9913756643
 10
-24.53839193
 20
22.0135574554
 10
-24.5711173767
 20
22.0365670205
 10
-24.6032790148
 20
22.0604027823
 10
-24.6348164346
 20
22.0850201944
 10
-24.6657284687
 20
22.1104207327
 10
-24.6960162845
 20
22.1366029227
 10
-24.7256229744
 20
22.1635177925
 10
-24.754547233
 20
22.1911666887
 10
-24.7827903657
 20
22.2195482658
 10
-24.8102993808
 20
22.2486095139
 10
-24.837072909
 20
22.278351702
 10
-24.8631123196
 20
22.3087735619
 10
-24.8883687298
 20
22.3398182768
 10
-24.9128406858
 20
22.3714870182
 10
-24.9365296415
 20
22.4037786153
 10
-24.9593910754
 20
22.4366327381
 10
-24.981423472
 20
22.4700504945
 10
-25.002628347
 20
22.5040307768
 10
-25.0229657253
 20
22.5385099313
 10
-25.042434044
 20
22.573489077
 10
-25.0610348661
 20
22.6089670949
 10
-25.0787329053
 20
22.6448769741
 10
-25.0955264841
 20
22.6812197897
 10
-25.11141728
 20
22.7179944662
 10
-25.1263750393
 20
22.7551307671
 10
-25.1403977802
 20
22.7926288237
 10
-25.1534874845
 20
22.830488504
 10
-25.1656198439
 20
22.8686391765
 10
-25.1767867555
 20
22.9070572968
 10
-25.1869963222
 20
22.9457664084
 10
-25.1962485439
 20
22.9847665107
  0
LWPOLYLINE
  5
393
100
AcDbEntity
  8
ASSI
100
AcDbPolyline
 62
253
  6
CONTINUOUS
 90
109
 70
0
 10
-22.0737512224
 20
22.9847665107
 10
-22.0830034992
 20
22.9457665574
 10
-22.0932131307
 20
22.9070574945
 10
-22.1043801169
 20
22.8686393226
 10
-22.1165125408
 20
22.8304885027
 10
-22.1296023193
 20
22.7926285746
 10
-22.1436252036
 20
22.7551301568
 10
-22.1585832136
 20
22.7179933245
 10
-22.1744743293
 20
22.681218003
 10
-22.1912682414
 20
22.6448745857
 10
-22.2089666045
 20
22.6089642109
 10
-22.227567764
 20
22.5734857405
 10
-22.2470364472
 20
22.5385061532
 10
-22.2673742296
 20
22.5040265463
 10
-22.2885795358
 20
22.4700458225
 10
-22.3106123672
 20
22.436627668
 10
-22.3334742348
 20
22.403773201
 10
-22.3571636277
 20
22.3714813029
 10
-22.3816360142
 20
22.3398123051
 10
-22.4068928429
 20
22.3087673838
 10
-22.4329326653
 20
22.2783453622
 10
-22.4597066038
 20
22.248603041
 10
-22.4872160261
 20
22.2195416883
 10
-22.5154595646
 20
22.191160035
 10
-22.5443842395
 20
22.1635110771
 10
-22.5739913624
 20
22.1365961532
 10
-22.6042796217
 20
22.1104139235
 10
-22.6351921023
 20
22.0850133658
 10
-22.6667299762
 20
22.0603959526
 10
-22.6988920714
 20
22.0365602101
 10
-22.7316179564
 20
22.0135506958
 10
-22.7649086317
 20
21.9913689949
 10
-22.7987630967
 20
21.9700135209
 10
-22.8331179177
 20
21.9495240731
 10
-22.8679740324
 20
21.9299022648
 10
-22.903330503
 20
21.9111464813
 10
-22.9391210827
 20
21.8932916806
 10
-22.9753465493
 20
21.8763395561
 10
-23.0120061251
 20
21.8602884131
 10
-23.0490312301
 20
21.8451681272
 10
-23.0864225807
 20
21.8309804207
 10
-23.1241794605
 20
21.8177235701
 10
-23.1622311404
 20
21.8054222824
 10
-23.2005781236
 20
21.7940783538
 10
-23.2392199069
 20
21.783689987
 10
-23.2780842512
 20
21.7742764993
 10
-23.3171715895
 20
21.7658397009
 10
-23.3564814889
 20
21.7583777806
 10
-23.3959404116
 20
21.7519046234
 10
-23.4355486083
 20
21.7464220734
 10
-23.4753058282
 20
21.7419282859
 10
-23.5151377813
 20
21.738431612
 10
-23.5550446192
 20
21.7359339051
 10
-23.5950261902
 20
21.7344333115
 10
-23.6350077501
 20
21.7339326219
 10
-23.6749892982
 20
21.734433698
 10
-23.7149708351
 20
21.7359346782
 10
-23.7548776181
 20
21.7384327683
 10
-23.7947094973
 20
21.7419298223
 10
-23.8344666227
 20
21.7464239866
 10
-23.8740747018
 20
21.7519069061
 10
-23.9135334813
 20
21.7583804252
 10
-23.9528432146
 20
21.7658427002
 10
-23.9919303692
 20
21.7742798435
 10
-24.0307945157
 20
21.7836936675
 10
-24.0694360835
 20
21.7940823609
 10
-24.1077828282
 20
21.805426601
 10
-24.14583424
 20
21.8177281827
 10
-24.1835908286
 20
21.8309853123
 10
-24.2209818792
 20
21.8451732845
 10
-24.2580066834
 20
21.8602938258
 10
-24.2946659495
 20
21.8763452109
 10
-24.3308910881
 20
21.8932975565
 10
-24.3666813146
 20
21.9111525544
 10
-24.4020374136
 20
21.9299085141
 10
-24.4368931483
 20
21.9495304791
 10
-24.4712475879
 20
21.9700200684
 10
-24.5051016632
 20
21.9913756643
 10
-24.53839193
 20
22.0135574554
 10
-24.5711173767
 20
22.0365670205
 10
-24.6032790148
 20
22.0604027823
 10
-24.6348164346
 20
22.0850201944
 10
-24.6657284687
 20
22.1104207327
 10
-24.6960162845
 20
22.1366029227
 10
-24.7256229744
 20
22.1635177925
 10
-24.754547233
 20
22.1911666887
 10
-24.7827903657
 20
22.2195482658
 10
-24.8102993808
 20
22.2486095139
 10
-24.837072909
 20
22.278351702
 10
-24.8631123196
 20
22.3087735619
 10
-24.8883687298
 20
22.3398182768
 10
-24.9128406858
 20
22.3714870182
 10
-24.9365296415
 20
22.4037786153
 10
-24.9593910754
 20
22.4366327381
 10
-24.981423472
 20
22.4700504945
 10
-25.002628347
 20
22.5040307768
 10
-25.0229657253
 20
22.5385099313
 10
-25.042434044
 20
22.573489077
 10
-25.0610348661
 20
22.6089670949
 10
-25.0787329053
 20
22.6448769741
 10
-25.0955264841
 20
22.6812197897
 10
-25.11141728
 20
22.7179944662
 10
-25.1263750393
 20
22.7551307671
 10
-25.1403977802
 20
22.7926288237
 10
-25.1534874845
 20
22.830488504
 10
-25.1656198439
 20
22.8686391765
 10
-25.1767867555
 20
22.9070572968
 10
-25.1869963222
 20
22.9457664084
 10
-25.1962485439
 20
22.9847665107
  0
LINE
  5
394
100
AcDbEntity
  8
RACCORDO
100
AcDbLine
 62
253
  6
CONTINUOUS
 10
-44.9851218439
 20
1.485
 11
-44.9085481273
 21
1.5615737166
  0
LINE
  5
395
100
AcDbEntity
  8
ASSI
100
AcDbLine
 62
253
  6
CONTINUOUS
 10
-44.9851218439
 20
1.485
 11
-44.9085481273
 21
1.5615737166
  0
LINE
  5
396
100
AcDbEntity
  8
RACCORDO
100
AcDbLine
 62
253
  6
CONTINUOUS
 10
-1.485
 20
44.3851218439
 11
-1.5615737166
 21
44.3085481273
  0
LINE
  5
397
100
AcDbEntity
  8
ASSI
100
AcDbLine
 62
253
  6
CONTINUOUS
 10
-1.485
 20
44.3851218439
 11
-1.5615737166
 21
44.3085481273
  0
LINE
  5
398
100
AcDbEntity
  8
RACCORDO
100
AcDbLine
 62
253
  6
CONTINUOUS
 10
-45.6843931859
 20
23.685
 11
-45.6836605401
 21
23.6850067392
  0
LINE
  5
399
100
AcDbEntity
  8
ASSI
100
AcDbLine
 62
253
  6
CONTINUOUS
 10
-45.6843931859
 20
23.685
 11
-45.6836605401
 21
23.6850067392
  0
LINE
  5
39A
100
AcDbEntity
  8
RACCORDO
100
AcDbLine
 62
253
  6
CONTINUOUS
 10
-45.6836605401
 20
23.6850067392
 11
-45.5480338069
 21
23.6851271786
  0
LINE
  5
39B
100
AcDbEntity
  8
ASSI
100
AcDbLine
 62
253
  6
CONTINUOUS
 10
-45.6836605401
 20
23.6850067392
 11
-45.5480338069
 21
23.6851271786
  0
LINE
  5
39C
100
AcDbEntity
  8
RACCORDO
100
AcDbLine
 62
253
  6
CONTINUOUS
 10
-45.785
 20
23.685
 11
-45.6843932437
 21
23.685
  0
LINE
  5
39D
100
AcDbEntity
  8
ASSI
100
AcDbLine
 62
253
  6
CONTINUOUS
 10
-45.785
 20
23.685
 11
-45.6843932437
 21
23.685
  0
LINE
  5
39E
100
AcDbEntity
  8
RACCORDO
100
AcDbLine
 62
253
  6
CONTINUOUS
 10
-1.5856067563
 20
23.685
 11
-1.485
 21
23.685
  0
LINE
  5
39F
100
AcDbEntity
  8
ASSI
100
AcDbLine
 62
253
  6
CONTINUOUS
 10
-1.5856067563
 20
23.685
 11
-1.485
 21
23.685
  0
LINE
  5
3A0
100
AcDbEntity
  8
RACCORDO
100
AcDbLine
 62
253
  6
CONTINUOUS
 10
-45.5480338069
 20
23.6851271786
 11
-25.1962494996
 21
23.6852334893
  0
LINE
  5
3A1
100
AcDbEntity
  8
ASSI
100
AcDbLine
 62
253
  6
CONTINUOUS
 10
-45.5480338069
 20
23.6851271786
 11
-25.1962494996
 21
23.6852334893
  0
LWPOLYLINE
  5
3A2
100
AcDbEntity
  8
RACCORDO
100
AcDbPolyline
 62
253
  6
CONTINUOUS
 90
6
 70
0
 10
-22.0737505004
 20
23.6852334893
 10
-1.7350949237
 20
23.6851327587
 10
-1.7219661931
 20
23.6851271786
 10
-1.7093863935
 20
23.6851214883
 10
-1.6973658886
 20
23.6851157018
 10
-1.6859148753
 20
23.6851098189
  0
LWPOLYLINE
  5
3A3
100
AcDbEntity
  8
ASSI
100
AcDbPolyline
 62
253
  6
CONTINUOUS
 90
6
 70
0
 10
-22.0737505004
 20
23.6852334893
 10
-1.7350949237
 20
23.6851327587
 10
-1.7219661931
 20
23.6851271786
 10
-1.7093863935
 20
23.6851214883
 10
-1.6973658886
 20
23.6851157018
 10
-1.6859148753
 20
23.6851098189
  0
LWPOLYLINE
  5
3A4
100
AcDbEntity
  8
RACCORDO
100
AcDbPolyline
 62
253
  6
CONTINUOUS
 90
4
 70
0
 10
-1.6859148753
 20
23.6851098189
 10
-1.6647581262
 20
23.6850977793
 10
-1.6550701372
 20
23.6850916373
 10
-1.6459864733
 20
23.6850854138
  0
LWPOLYLINE
  5
3A5
100
AcDbEntity
  8
ASSI
100
AcDbPolyline
 62
253
  6
CONTINUOUS
 90
4
 70
0
 10
-1.6859148753
 20
23.6851098189
 10
-1.6647581262
 20
23.6850977793
 10
-1.6550701372
 20
23.6850916373
 10
-1.6459864733
 20
23.6850854138
  0
LINE
  5
3A6
100
AcDbEntity
  8
RACCORDO
100
AcDbLine
 62
253
  6
CONTINUOUS
 10
-1.6459864733
 20
23.6850854138
 11
-1.6296616434
 21
23.6850727683
  0
LINE
  5
3A7
100
AcDbEntity
  8
ASSI
100
AcDbLine
 62
253
  6
CONTINUOUS
 10
-1.6459864733
 20
23.6850854138
 11
-1.6296616434
 21
23.6850727683
  0
LINE
  5
3A8
100
AcDbEntity
  8
RACCORDO
100
AcDbLine
 62
253
  6
CONTINUOUS
 10
-1.6296616434
 20
23.6850727683
 11
-1.6098782698
 21
23.6850533519
  0
LINE
  5
3A9
100
AcDbEntity
  8
ASSI
100
AcDbLine
 62
253
  6
CONTINUOUS
 10
-1.6296616434
 20
23.6850727683
 11
-1.6098782698
 21
23.6850533519
  0
LWPOLYLINE
  5
3AA
100
AcDbEntity
  8
RACCORDO
100
AcDbPolyline
 62
253
  6
CONTINUOUS
 90
3
 70
0
 10
-1.6098782698
 20
23.6850533519
 10
-1.5863394599
 20
23.6850067392
 10
-1.5856068141
 20
23.685
  0
LWPOLYLINE
  5
3AB
100
AcDbEntity
  8
ASSI
100
AcDbPolyline
 62
253
  6
CONTINUOUS
 90
3
 70
0
 10
-1.6098782698
 20
23.6850533519
 10
-1.5863394599
 20
23.6850067392
 10
-1.5856068141
 20
23.685
  0
LINE
  5
3AC
100
AcDbEntity
  8
ASSI
100
AcDbLine
 62
253
  6
CONTINUOUS
 10
-1.7768537481
 20
23.1848096444
 11
-1.7855762954
 21
23.185
  0
LINE
  5
3AD
100
AcDbEntity
  8
RACCORDO
100
AcDbLine
 62
253
  6
CONTINUOUS
 10
-44.9085481273
 20
45.1084262834
 11
-44.9851218439
 21
45.185
  0
LINE
  5
3AE
100
AcDbEntity
  8
ASSI
100
AcDbLine
 62
253
  6
CONTINUOUS
 10
-44.9085481273
 20
45.1084262834
 11
-44.9851218439
 21
45.185
  0
LINE
  5
3AF
100
AcDbEntity
  8
RACCORDO
100
AcDbLine
 62
253
  6
CONTINUOUS
 10
-1.5615737166
 20
2.3614518727
 11
-1.485
 21
2.2848781561
  0
LINE
  5
3B0
100
AcDbEntity
  8
ASSI
100
AcDbLine
 62
253
  6
CONTINUOUS
 10
-1.5615737166
 20
2.3614518727
 11
-1.485
 21
2.2848781561
  0
LINE
  5
3B1
100
AcDbEntity
  8
CURVE
100
AcDbLine
 62
252
  6
CONTINUOUS
 10
-22.9804510779
 20
10.2509202968
 11
-22.9836392068
 21
10.2293681917
  0
LINE
  5
3B2
100
AcDbEntity
  8
CURVE
100
AcDbLine
 62
252
  6
CONTINUOUS
 10
-22.9835035133
 20
10.2301979227
 11
-22.9873929246
 21
10.2087066136
  0
LINE
  5
3B3
100
AcDbEntity
  8
CURVE
100
AcDbLine
 62
252
  6
CONTINUOUS
 10
-22.9872261724
 20
10.2095556225
 11
-22.9918273827
 21
10.1881193226
  0
LINE
  5
3B4
100
AcDbEntity
  8
CURVE
100
AcDbLine
 62
252
  6
CONTINUOUS
 10
-24.2599843814
 20
10.4786870343
 11
-24.2543965643
 21
10.5015360749
  0
LINE
  5
3B5
100
AcDbEntity
  8
CURVE
100
AcDbLine
 62
252
  6
CONTINUOUS
 10
-22.991624073
 20
10.189000737
 11
-22.9969499962
 21
10.167609545
  0
LINE
  5
3B6
100
AcDbEntity
  8
CURVE
100
AcDbLine
 62
252
  6
CONTINUOUS
 10
-24.2546007022
 20
10.5007601066
 11
-24.2481756742
 21
10.5235608307
  0
LINE
  5
3B7
100
AcDbEntity
  8
CURVE
100
AcDbLine
 62
252
  6
CONTINUOUS
 10
-22.9967022332
 20
10.1685406068
 11
-23.002765282
 21
10.1471872454
  0
LINE
  5
3B8
100
AcDbEntity
  8
CURVE
100
AcDbLine
 62
252
  6
CONTINUOUS
 10
-24.2484330534
 20
10.5227048166
 11
-24.2411601143
 21
10.5454334685
  0
LINE
  5
3B9
100
AcDbEntity
  8
CURVE
100
AcDbLine
 62
252
  6
CONTINUOUS
 10
-24.2414758369
 20
10.5445015773
 11
-24.2333579691
 21
10.5671106255
  0
LINE
  5
3BA
100
AcDbEntity
  8
CURVE
100
AcDbLine
 62
252
  6
CONTINUOUS
 10
-24.2337365945
 20
10.5661086828
 11
-24.224780681
 21
10.5885427439
  0
LINE
  5
3BB
100
AcDbEntity
  8
CURVE
100
AcDbLine
 62
252
  6
CONTINUOUS
 10
-23.0024632807
 20
10.1481874038
 11
-23.009266164
 21
10.1268893419
  0
LINE
  5
3BC
100
AcDbEntity
  8
CURVE
100
AcDbLine
 62
252
  6
CONTINUOUS
 10
-23.0089002836
 20
10.1279726228
 11
-23.0164426679
 21
10.1067594913
  0
LINE
  5
3BD
100
AcDbEntity
  8
CURVE
100
AcDbLine
 62
252
  6
CONTINUOUS
 10
-23.0160039201
 20
10.1079325898
 11
-23.0242848195
 21
10.08684135
  0
LINE
  5
3BE
100
AcDbEntity
  8
CURVE
100
AcDbLine
 62
252
  6
CONTINUOUS
 10
-23.0237648682
 20
10.0881036306
 11
-23.0327827643
 21
10.0671753033
  0
LINE
  5
3BF
100
AcDbEntity
  8
CURVE
100
AcDbLine
 62
252
  6
CONTINUOUS
 10
-24.2252261527
 20
10.5874788974
 11
-24.2154396927
 21
10.6096802658
  0
LINE
  5
3C0
100
AcDbEntity
  8
CURVE
100
AcDbLine
 62
252
  6
CONTINUOUS
 10
-23.0321749576
 20
10.0685189859
 11
-23.0419271266
 21
10.0477886509
  0
LINE
  5
3C1
100
AcDbEntity
  8
CURVE
100
AcDbLine
 62
252
  6
CONTINUOUS
 10
-24.2159553383
 20
10.6085649854
 11
-24.2053462257
 21
10.630477397
  0
LINE
  5
3C2
100
AcDbEntity
  8
CURVE
100
AcDbLine
 62
252
  6
CONTINUOUS
 10
-24.2059336751
 20
10.6293238013
 11
-24.1945106184
 21
10.6509033961
  0
LINE
  5
3C3
100
AcDbEntity
  8
CURVE
100
AcDbLine
 62
252
  6
CONTINUOUS
 10
-24.1951654754
 20
10.6497285602
 11
-24.1829429883
 21
10.6709312853
  0
LINE
  5
3C4
100
AcDbEntity
  8
CURVE
100
AcDbLine
 62
252
  6
CONTINUOUS
 10
-24.183653749
 20
10.6697565674
 11
-24.1706534527
 21
10.6905340865
  0
LWPOLYLINE
  5
3C5
100
AcDbEntity
  8
RACCORDO
100
AcDbPolyline
 62
253
  6
CONTINUOUS
 90
7
 70
0
 10
-45.5361796298
 20
23.1781851653
 10
-45.5277050345
 20
23.1802592014
 10
-45.5191480507
 20
23.1819615506
 10
-45.5105249671
 20
23.1832889723
 10
-45.5018521983
 20
23.1842389396
 10
-45.4931462534
 20
23.1848096443
 10
-45.4844237046
 20
23.185
  0
LWPOLYLINE
  5
3C6
100
AcDbEntity
  8
ASSI
100
AcDbPolyline
 62
253
  6
CONTINUOUS
 90
7
 70
0
 10
-45.5361796298
 20
23.1781851653
 10
-45.5277050345
 20
23.1802592014
 10
-45.5191480507
 20
23.1819615506
 10
-45.5105249671
 20
23.1832889723
 10
-45.5018521983
 20
23.1842389396
 10
-45.4931462534
 20
23.1848096443
 10
-45.4844237046
 20
23.185
  0
LWPOLYLINE
  5
3C7
100
AcDbEntity
  8
RACCORDO
100
AcDbPolyline
 62
253
  6
CONTINUOUS
 90
7
 70
0
 10
-1.7338203775
 20
23.1781851672
 10
-1.7422949719
 20
23.1802592028
 10
-1.7508519547
 20
23.1819615515
 10
-1.7594750371
 20
23.1832889728
 10
-1.7681478046
 20
23.1842389399
 10
-1.7768537481
 20
23.1848096444
 10
-1.7855762954
 20
23.185
  0
LWPOLYLINE
  5
3C8
100
AcDbEntity
  8
ASSI
100
AcDbPolyline
 62
253
  6
CONTINUOUS
 90
6
 70
0
 10
-1.7338203775
 20
23.1781851672
 10
-1.7422949719
 20
23.1802592028
 10
-1.7508519547
 20
23.1819615515
 10
-1.7594750371
 20
23.1832889728
 10
-1.7681478046
 20
23.1842389399
 10
-1.7768537481
 20
23.1848096444
  0
LINE
  5
3C9
100
AcDbEntity
  8
CURVE
100
AcDbLine
 62
252
  6
CONTINUOUS
 10
-23.0412306247
 20
10.0491995564
 11
-23.0517086505
 21
10.0287054211
  0
LINE
  5
3CA
100
AcDbEntity
  8
CURVE
100
AcDbLine
 62
252
  6
CONTINUOUS
 10
-23.0509294572
 20
10.0301631572
 11
-23.0621180803
 21
10.0099496422
  0
LWPOLYLINE
  5
3CB
100
AcDbEntity
  8
RACCORDO
100
AcDbPolyline
 62
253
  6
CONTINUOUS
 90
16
 70
0
 10
-1.5615737166
 20
44.3085481273
 10
-1.5618763108
 20
44.3080301168
 10
-1.5621782361
 20
44.3070850479
 10
-1.5624794926
 20
44.3057129208
 10
-1.5627802693
 20
44.3039123663
 10
-1.5630803771
 20
44.3016847535
 10
-1.5633792487
 20
44.2990341894
 10
-1.5636768766
 20
44.2959599003
 10
-1.5639732683
 20
44.2924626599
 10
-1.5642678784
 20
44.288548897
 10
-1.5645607034
 20
44.2842178477
 10
-1.5648517469
 20
44.2794702758
 10
-1.5651404745
 20
44.274314902
 10
-1.565426882
 20
44.2687509776
 10
-1.5657109738
 20
44.2627792512
 10
-1.5662706395
 20
44.2496445592
  0
LWPOLYLINE
  5
3CC
100
AcDbEntity
  8
ASSI
100
AcDbPolyline
 62
253
  6
CONTINUOUS
 90
16
 70
0
 10
-1.5615737166
 20
44.3085481273
 10
-1.5618763108
 20
44.3080301168
 10
-1.5621782361
 20
44.3070850479
 10
-1.5624794926
 20
44.3057129208
 10
-1.5627802693
 20
44.3039123663
 10
-1.5630803771
 20
44.3016847535
 10
-1.5633792487
 20
44.2990341894
 10
-1.5636768766
 20
44.2959599003
 10
-1.5639732683
 20
44.2924626599
 10
-1.5642678784
 20
44.288548897
 10
-1.5645607034
 20
44.2842178477
 10
-1.5648517469
 20
44.2794702758
 10
-1.5651404745
 20
44.274314902
 10
-1.565426882
 20
44.2687509776
 10
-1.5657109738
 20
44.2627792512
 10
-1.5662706395
 20
44.2496445592
  0
LINE
  5
3CD
100
AcDbEntity
  8
CURVE
100
AcDbLine
 62
252
  6
CONTINUOUS
 10
-23.0612690431
 20
10.011427604
 11
-23.0747704004
 21
9.9889450156
  0
LINE
  5
3CE
100
AcDbEntity
  8
CURVE
100
AcDbLine
 62
252
  6
CONTINUOUS
 10
-23.0738637102
 20
9.9904084251
 11
-23.0882099658
 21
9.9684279228
  0
LWPOLYLINE
  5
3CF
100
AcDbEntity
  8
CURVE
100
AcDbPolyline
 62
252
  6
CONTINUOUS
 90
3
 70
0
 10
-23.0872675043
 20
9.9698419235
 10
-23.1024159892
 20
9.9484268226
 10
-23.1173676832
 20
9.9289701737
  0
LWPOLYLINE
  5
3D0
100
AcDbEntity
  8
CURVE
100
AcDbPolyline
 62
252
  6
CONTINUOUS
 90
7
 70
0
 10
-24.1576539291
 20
10.7096858954
 10
-24.1439635334
 20
10.7283651007
 10
-24.1296031817
 20
10.7465511648
 10
-24.1145937899
 20
10.7642235499
 10
-24.0989562147
 20
10.7813614941
 10
-24.0827110756
 20
10.7979433378
 10
-24.0658789331
 20
10.8139471975
  0
LINE
  5
3D1
100
AcDbEntity
  8
CURVE
100
AcDbLine
 62
252
  6
CONTINUOUS
 10
-23.116403974
 20
9.9302128188
 11
-23.1014558005
 21
9.9497645659
  0
LINE
  5
3D2
100
AcDbEntity
  8
CURVE
100
AcDbLine
 62
252
  6
CONTINUOUS
 10
-23.116403974
 20
9.9302128188
 11
-23.1330442605
 21
9.910086435
  0
LINE
  5
3D3
100
AcDbEntity
  8
CURVE
100
AcDbLine
 62
252
  6
CONTINUOUS
 10
-23.1320874
 20
9.9112231489
 11
-23.1494249339
 21
9.8918040651
  0
LINE
  5
3D4
100
AcDbEntity
  8
CURVE
100
AcDbLine
 62
252
  6
CONTINUOUS
 10
-23.1484814536
 20
9.8928320228
 11
-23.166488916
 21
9.874151523
  0
LWPOLYLINE
  5
3D5
100
AcDbEntity
  8
CURVE
100
AcDbPolyline
 62
252
  6
CONTINUOUS
 90
7
 70
0
 10
-24.0688640464
 20
10.8111768328
 10
-24.0880183361
 20
10.7926279133
 10
-24.1063967005
 20
10.7733251107
 10
-24.1239616697
 20
10.7533089278
 10
-24.1406757735
 20
10.7326198677
 10
-24.156501542
 20
10.7112984335
 10
-24.1714015052
 20
10.689385128
  0
LINE
  5
3D6
100
AcDbEntity
  8
CURVE
100
AcDbLine
 62
252
  6
CONTINUOUS
 10
-23.1655615099
 20
9.8750759071
 11
-23.1842138574
 21
9.8571561704
  0
LINE
  5
3D7
100
AcDbEntity
  8
CURVE
100
AcDbLine
 62
252
  6
CONTINUOUS
 10
-23.1833021966
 20
9.8579885125
 11
-23.2025711604
 21
9.8408409817
  0
LINE
  5
3D8
100
AcDbEntity
  8
CURVE
100
AcDbLine
 62
252
  6
CONTINUOUS
 10
-24.0688640464
 20
10.8111768328
 11
-24.0484803474
 21
10.8293511895
  0
LINE
  5
3D9
100
AcDbEntity
  8
CURVE
100
AcDbLine
 62
252
  6
CONTINUOUS
 10
-24.0489713015
 20
10.828931366
 11
-24.0279301297
 21
10.8461939032
  0
LINE
  5
3DA
100
AcDbEntity
  8
CURVE
100
AcDbLine
 62
252
  6
CONTINUOUS
 10
-24.0283772204
 20
10.8458536541
 11
-24.0067042689
 21
10.8621964011
  0
LINE
  5
3DB
100
AcDbEntity
  8
CURVE
100
AcDbLine
 62
252
  6
CONTINUOUS
 10
-24.0071175183
 20
10.8619164153
 11
-23.9848401116
 21
10.877330551
  0
LINE
  5
3DC
100
AcDbEntity
  8
CURVE
100
AcDbLine
 62
252
  6
CONTINUOUS
 10
-23.9852275595
 20
10.8770950117
 11
-23.9623750046
 21
10.8915682206
  0
LINE
  5
3DD
100
AcDbEntity
  8
CURVE
100
AcDbLine
 62
252
  6
CONTINUOUS
 10
-23.962742708
 20
10.8913648057
 11
-23.9393462945
 21
10.9048812774
  0
LINE
  5
3DE
100
AcDbEntity
  8
CURVE
100
AcDbLine
 62
252
  6
CONTINUOUS
 10
-20.855
 20
33.555
 11
-22.165
 21
34.865
  0
LINE
  5
3DF
100
AcDbEntity
  8
CURVE
100
AcDbLine
 62
252
  6
CONTINUOUS
 10
-25.145
 20
37.845
 11
-26.415
 21
39.115
  0
LINE
  5
3E0
100
AcDbEntity
  8
CURVE
100
AcDbLine
 62
252
  6
CONTINUOUS
 10
-23.2016751506
 20
9.8415925263
 11
-23.221530665
 21
9.8252278343
  0
LINE
  5
3E1
100
AcDbEntity
  8
CURVE
100
AcDbLine
 62
252
  6
CONTINUOUS
 10
-23.2206512616
 20
9.8259078796
 11
-23.2410622113
 21
9.8103386056
  0
LINE
  5
3E2
100
AcDbEntity
  8
CURVE
100
AcDbLine
 62
252
  6
CONTINUOUS
 10
-23.2402014188
 20
9.8109545039
 11
-23.2611356393
 21
9.7961951732
  0
LINE
  5
3E3
100
AcDbEntity
  8
CURVE
100
AcDbLine
 62
252
  6
CONTINUOUS
 10
-23.2602965118
 20
9.7967523304
 11
-23.2817207892
 21
9.7828194144
  0
LINE
  5
3E4
100
AcDbEntity
  8
CURVE
100
AcDbLine
 62
252
  6
CONTINUOUS
 10
-23.2809074301
 20
9.7833212904
 11
-23.302787501
 21
9.7702332067
  0
LINE
  5
3E5
100
AcDbEntity
  8
CURVE
100
AcDbLine
 62
252
  6
CONTINUOUS
 10
-25.195
 20
9.485
 11
-26.2338117321
 21
8.885
  0
LINE
  5
3E6
100
AcDbEntity
  8
CURVE
100
AcDbLine
 62
252
  6
CONTINUOUS
 10
-21.1253505098
 20
11.785
 11
-22.165
 21
11.185
  0
LINE
  5
3E7
100
AcDbEntity
  8
CURVE
100
AcDbLine
 62
252
  6
CONTINUOUS
 10
-23.302005063
 20
9.7706813152
 11
-23.3243052988
 21
9.7584568137
  0
LINE
  5
3E8
100
AcDbEntity
  8
CURVE
100
AcDbLine
 62
252
  6
CONTINUOUS
 10
-23.9396983283
 20
10.9047011595
 11
-23.915791328
 21
10.9172415893
  0
LINE
  5
3E9
100
AcDbEntity
  8
CURVE
100
AcDbLine
 62
252
  6
CONTINUOUS
 10
-23.3235596779
 20
9.7588512021
 11
-23.3462424421
 21
9.7475040435
  0
LINE
  5
3EA
100
AcDbEntity
  8
CURVE
100
AcDbLine
 62
252
  6
CONTINUOUS
 10
-23.9161297843
 20
10.9170794354
 11
-23.8917474517
 21
10.9286210239
  0
LINE
  5
3EB
100
AcDbEntity
  8
CURVE
100
AcDbLine
 62
252
  6
CONTINUOUS
 10
-23.3455390532
 20
9.7478452124
 11
-23.3685668744
 21
9.7373870906
  0
LINE
  5
3EC
100
AcDbEntity
  8
CURVE
100
AcDbLine
 62
252
  6
CONTINUOUS
 10
-23.8920724405
 20
10.9284749957
 11
-23.8672531317
 21
10.9389945353
  0
LINE
  5
3ED
100
AcDbEntity
  8
CURVE
100
AcDbLine
 62
252
  6
CONTINUOUS
 10
-23.3679103453
 20
9.7376764735
 11
-23.3912465394
 21
9.7281181492
  0
LINE
  5
3EE
100
AcDbEntity
  8
CURVE
100
AcDbLine
 62
252
  6
CONTINUOUS
 10
-23.8675630836
 20
10.9388656121
 11
-23.8423513105
 21
10.9483494225
  0
LINE
  5
3EF
100
AcDbEntity
  8
CURVE
100
AcDbLine
 62
252
  6
CONTINUOUS
 10
-23.8426441912
 20
10.9482386937
 11
-23.8170860503
 21
10.9566760711
  0
LINE
  5
3F0
100
AcDbEntity
  8
CURVE
100
AcDbLine
 62
252
  6
CONTINUOUS
 10
-23.8173596636
 20
10.9565840594
 11
-23.7915014129
 21
10.9639648665
  0
LWPOLYLINE
  5
3F1
100
AcDbEntity
  8
RACCORDO
100
AcDbPolyline
 62
253
  6
CONTINUOUS
 90
11
 70
0
 10
-2.3614518727
 20
45.1084262834
 10
-2.3617545396
 20
45.1073186668
 10
-2.362056515
 20
45.1052925705
 10
-2.362357799
 20
45.1023492442
 10
-2.362658571
 20
45.0984905063
 10
-2.3629586516
 20
45.0937187257
 10
-2.3632575018
 20
45.0880368075
 10
-2.3635551264
 20
45.0814482127
 10
-2.3638515205
 20
45.0739569876
 10
-2.3641461305
 20
45.0655677442
 10
-2.364729983
 20
45.0461163544
  0
LWPOLYLINE
  5
3F2
100
AcDbEntity
  8
ASSI
100
AcDbPolyline
 62
253
  6
CONTINUOUS
 90
11
 70
0
 10
-2.3614518727
 20
45.1084262834
 10
-2.3617545396
 20
45.1073186668
 10
-2.362056515
 20
45.1052925705
 10
-2.362357799
 20
45.1023492442
 10
-2.362658571
 20
45.0984905063
 10
-2.3629586516
 20
45.0937187257
 10
-2.3632575018
 20
45.0880368075
 10
-2.3635551264
 20
45.0814482127
 10
-2.3638515205
 20
45.0739569876
 10
-2.3641461305
 20
45.0655677442
 10
-2.364729983
 20
45.0461163544
  0
LINE
  5
3F3
100
AcDbEntity
  8
CURVE
100
AcDbLine
 62
252
  6
CONTINUOUS
 10
-23.3906407105
 20
9.7283581125
 11
-23.4142493805
 21
9.7197094137
  0
LINE
  5
3F4
100
AcDbEntity
  8
CURVE
100
AcDbLine
 62
252
  6
CONTINUOUS
 10
-23.413697305
 20
9.7199032569
 11
-23.4375433412
 21
9.7121730786
  0
LINE
  5
3F5
100
AcDbEntity
  8
CURVE
100
AcDbLine
 62
252
  6
CONTINUOUS
 10
-19.705
 20
36.335
 11
-21.555
 21
36.335
  0
LINE
  5
3F6
100
AcDbEntity
  8
CURVE
100
AcDbLine
 62
252
  6
CONTINUOUS
 10
-25.765
 20
36.335
 11
-27.565
 21
36.335
  0
LWPOLYLINE
  5
3F7
100
AcDbEntity
  8
RACCORDO
100
AcDbPolyline
 62
253
  6
CONTINUOUS
 90
14
 70
0
 10
-1.565426828
 20
2.401247932
 10
-1.5651404203
 20
2.3956840916
 10
-1.5648516927
 20
2.390528801
 10
-1.5645606492
 20
2.3857813117
 10
-1.5642678243
 20
2.3814503449
 10
-1.5639732142
 20
2.3775366651
 10
-1.5636768226
 20
2.3740395077
 10
-1.5633791948
 20
2.3709652994
 10
-1.5630803215
 20
2.3683148108
 10
-1.5627802119
 20
2.3660872714
 10
-1.5624794393
 20
2.3642867964
 10
-1.5621781948
 20
2.3629147575
 10
-1.5618762872
 20
2.3619697829
 10
-1.5615737166
 20
2.3614518727
  0
LWPOLYLINE
  5
3F8
100
AcDbEntity
  8
ASSI
100
AcDbPolyline
 62
253
  6
CONTINUOUS
 90
14
 70
0
 10
-1.565426828
 20
2.401247932
 10
-1.5651404203
 20
2.3956840916
 10
-1.5648516927
 20
2.390528801
 10
-1.5645606492
 20
2.3857813117
 10
-1.5642678243
 20
2.3814503449
 10
-1.5639732142
 20
2.3775366651
 10
-1.5636768226
 20
2.3740395077
 10
-1.5633791948
 20
2.3709652994
 10
-1.5630803215
 20
2.3683148108
 10
-1.5627802119
 20
2.3660872714
 10
-1.5624794393
 20
2.3642867964
 10
-1.5621781948
 20
2.3629147575
 10
-1.5618762872
 20
2.3619697829
 10
-1.5615737166
 20
2.3614518727
  0
LWPOLYLINE
  5
3F9
100
AcDbEntity
  8
RACCORDO
100
AcDbPolyline
 62
253
  6
CONTINUOUS
 90
9
 70
0
 10
-2.3638515154
 20
1.5960430062
 10
-2.363555122
 20
1.5885517817
 10
-2.3632574978
 20
1.5819631875
 10
-2.3629586469
 20
1.5762812698
 10
-2.362658565
 20
1.5715094897
 10
-2.3623577927
 20
1.5676507527
 10
-2.3620565099
 20
1.5647074278
 10
-2.3617545366
 20
1.5626813326
 10
-2.3614518727
 20
1.5615737166
  0
LWPOLYLINE
  5
3FA
100
AcDbEntity
  8
ASSI
100
AcDbPolyline
 62
253
  6
CONTINUOUS
 90
9
 70
0
 10
-2.3638515154
 20
1.5960430062
 10
-2.363555122
 20
1.5885517817
 10
-2.3632574978
 20
1.5819631875
 10
-2.3629586469
 20
1.5762812698
 10
-2.362658565
 20
1.5715094897
 10
-2.3623577927
 20
1.5676507527
 10
-2.3620565099
 20
1.5647074278
 10
-2.3617545366
 20
1.5626813326
 10
-2.3614518727
 20
1.5615737166
  0
LINE
  5
3FB
100
AcDbEntity
  8
RACCORDO
100
AcDbLine
 62
253
  6
CONTINUOUS
 10
-2.3644389431
 20
1.6137143534
 11
-2.3638515154
 21
1.5960430062
  0
LINE
  5
3FC
100
AcDbEntity
  8
ASSI
100
AcDbLine
 62
253
  6
CONTINUOUS
 10
-2.3644389431
 20
1.6137143534
 11
-2.3638515154
 21
1.5960430062
  0
LINE
  5
3FD
100
AcDbEntity
  8
RACCORDO
100
AcDbLine
 62
253
  6
CONTINUOUS
 10
-2.365018697
 20
1.6349338732
 11
-2.3644389431
 21
1.6137143534
  0
LINE
  5
3FE
100
AcDbEntity
  8
ASSI
100
AcDbLine
 62
253
  6
CONTINUOUS
 10
-2.365018697
 20
1.6349338732
 11
-2.3644389431
 21
1.6137143534
  0
LINE
  5
3FF
100
AcDbEntity
  8
RACCORDO
100
AcDbLine
 62
253
  6
CONTINUOUS
 10
-2.3658704346
 20
1.6732999032
 11
-2.365018697
 21
1.6349338732
  0
LINE
  5
400
100
AcDbEntity
  8
ASSI
100
AcDbLine
 62
253
  6
CONTINUOUS
 10
-2.3658704346
 20
1.6732999032
 11
-2.365018697
 21
1.6349338732
  0
LINE
  5
401
100
AcDbEntity
  8
RACCORDO
100
AcDbLine
 62
253
  6
CONTINUOUS
 10
-2.3672310369
 20
1.7541260477
 11
-2.3658704346
 21
1.6732999032
  0
LINE
  5
402
100
AcDbEntity
  8
ASSI
100
AcDbLine
 62
253
  6
CONTINUOUS
 10
-2.3672310369
 20
1.7541260477
 11
-2.3658704346
 21
1.6732999032
  0
LINE
  5
403
100
AcDbEntity
  8
RACCORDO
100
AcDbLine
 62
253
  6
CONTINUOUS
 10
-2.3682543551
 20
1.8332591307
 11
-2.3672310369
 21
1.7541260477
  0
LINE
  5
404
100
AcDbEntity
  8
ASSI
100
AcDbLine
 62
253
  6
CONTINUOUS
 10
-2.3682543551
 20
1.8332591307
 11
-2.3672310369
 21
1.7541260477
  0
LINE
  5
405
100
AcDbEntity
  8
RACCORDO
100
AcDbLine
 62
253
  6
CONTINUOUS
 10
-2.3666966379
 20
44.950681156
 11
-2.368254361
 21
44.8367408534
  0
LINE
  5
406
100
AcDbEntity
  8
ASSI
100
AcDbLine
 62
253
  6
CONTINUOUS
 10
-2.3666966379
 20
44.950681156
 11
-2.368254361
 21
44.8367408534
  0
LINE
  5
407
100
AcDbEntity
  8
RACCORDO
100
AcDbLine
 62
253
  6
CONTINUOUS
 10
-2.3655891912
 20
45.0103504106
 11
-2.3666966379
 21
44.950681156
  0
LINE
  5
408
100
AcDbEntity
  8
ASSI
100
AcDbLine
 62
253
  6
CONTINUOUS
 10
-2.3655891912
 20
45.0103504106
 11
-2.3666966379
 21
44.950681156
  0
LINE
  5
409
100
AcDbEntity
  8
RACCORDO
100
AcDbLine
 62
253
  6
CONTINUOUS
 10
-2.364729983
 20
45.0461163544
 11
-2.3655891912
 21
45.0103504106
  0
LINE
  5
40A
100
AcDbEntity
  8
ASSI
100
AcDbLine
 62
253
  6
CONTINUOUS
 10
-2.364729983
 20
45.0461163544
 11
-2.3655891912
 21
45.0103504106
  0
LINE
  5
40B
100
AcDbEntity
  8
RACCORDO
100
AcDbLine
 62
253
  6
CONTINUOUS
 10
-45.2051264258
 20
43.7059633789
 11
-45.1596190242
 21
43.7072000431
  0
LINE
  5
40C
100
AcDbEntity
  8
ASSI
100
AcDbLine
 62
253
  6
CONTINUOUS
 10
-45.2051264258
 20
43.7059633789
 11
-45.1596190242
 21
43.7072000431
  0
LINE
  5
40D
100
AcDbEntity
  8
RACCORDO
100
AcDbLine
 62
253
  6
CONTINUOUS
 10
-45.1596190242
 20
43.7072000431
 11
-45.1131357849
 21
43.7082475021
  0
LINE
  5
40E
100
AcDbEntity
  8
ASSI
100
AcDbLine
 62
253
  6
CONTINUOUS
 10
-45.1596190242
 20
43.7072000431
 11
-45.1131357849
 21
43.7082475021
  0
LINE
  5
40F
100
AcDbEntity
  8
RACCORDO
100
AcDbLine
 62
253
  6
CONTINUOUS
 10
-45.1131357849
 20
43.7082475021
 11
-45.0419592764
 21
43.7094556261
  0
LINE
  5
410
100
AcDbEntity
  8
ASSI
100
AcDbLine
 62
253
  6
CONTINUOUS
 10
-45.1131357849
 20
43.7082475021
 11
-45.0419592764
 21
43.7094556261
  0
LINE
  5
411
100
AcDbEntity
  8
RACCORDO
100
AcDbLine
 62
253
  6
CONTINUOUS
 10
-45.0419592764
 20
43.7094556261
 11
-44.9695696961
 21
43.710219383
  0
LINE
  5
412
100
AcDbEntity
  8
ASSI
100
AcDbLine
 62
253
  6
CONTINUOUS
 10
-45.0419592764
 20
43.7094556261
 11
-44.9695696961
 21
43.710219383
  0
LINE
  5
413
100
AcDbEntity
  8
RACCORDO
100
AcDbLine
 62
253
  6
CONTINUOUS
 10
-44.9695696961
 20
43.710219383
 11
-44.896571039
 21
43.7105324003
  0
LINE
  5
414
100
AcDbEntity
  8
ASSI
100
AcDbLine
 62
253
  6
CONTINUOUS
 10
-44.9695696961
 20
43.710219383
 11
-44.896571039
 21
43.7105324003
  0
LINE
  5
415
100
AcDbEntity
  8
RACCORDO
100
AcDbLine
 62
253
  6
CONTINUOUS
 10
-2.3247255354
 20
43.7103740134
 11
-44.896571039
 21
43.7105324027
  0
LINE
  5
416
100
AcDbEntity
  8
ASSI
100
AcDbLine
 62
253
  6
CONTINUOUS
 10
-2.3247255354
 20
43.7103740134
 11
-44.896571039
 21
43.7105324027
  0
LINE
  5
417
100
AcDbEntity
  8
RACCORDO
100
AcDbLine
 62
253
  6
CONTINUOUS
 10
-2.2520654623
 20
43.7097599798
 11
-2.3247255354
 21
43.7103740134
  0
LINE
  5
418
100
AcDbEntity
  8
ASSI
100
AcDbLine
 62
253
  6
CONTINUOUS
 10
-2.2520654623
 20
43.7097599798
 11
-2.3247255354
 21
43.7103740134
  0
LINE
  5
419
100
AcDbEntity
  8
RACCORDO
100
AcDbLine
 62
253
  6
CONTINUOUS
 10
-2.1804180065
 20
43.7086990398
 11
-2.2520654623
 21
43.7097599798
  0
LINE
  5
41A
100
AcDbEntity
  8
ASSI
100
AcDbLine
 62
253
  6
CONTINUOUS
 10
-2.1804180065
 20
43.7086990398
 11
-2.2520654623
 21
43.7097599798
  0
LINE
  5
41B
100
AcDbEntity
  8
RACCORDO
100
AcDbLine
 62
253
  6
CONTINUOUS
 10
-2.1335113113
 20
43.707747685
 11
-2.1804180065
 21
43.7086990398
  0
LINE
  5
41C
100
AcDbEntity
  8
ASSI
100
AcDbLine
 62
253
  6
CONTINUOUS
 10
-2.1335113113
 20
43.707747685
 11
-2.1804180065
 21
43.7086990398
  0
LWPOLYLINE
  5
41D
100
AcDbEntity
  8
RACCORDO
100
AcDbPolyline
 62
253
  6
CONTINUOUS
 90
3
 70
0
 10
-2.0648735685
 20
43.705963381
 10
-2.0874946464
 20
43.7066050933
 10
-2.1335113113
 20
43.707747685
  0
LWPOLYLINE
  5
41E
100
AcDbEntity
  8
ASSI
100
AcDbPolyline
 62
253
  6
CONTINUOUS
 90
3
 70
0
 10
-2.0648735685
 20
43.705963381
 10
-2.0874946464
 20
43.7066050933
 10
-2.1335113113
 20
43.707747685
  0
LINE
  5
41F
100
AcDbEntity
  8
RACCORDO
100
AcDbLine
 62
253
  6
CONTINUOUS
 10
-1.5659921742
 20
2.4135880508
 11
-1.565426828
 21
2.401247932
  0
LINE
  5
420
100
AcDbEntity
  8
ASSI
100
AcDbLine
 62
253
  6
CONTINUOUS
 10
-1.5659921742
 20
2.4135880508
 11
-1.565426828
 21
2.401247932
  0
LINE
  5
421
100
AcDbEntity
  8
RACCORDO
100
AcDbLine
 62
253
  6
CONTINUOUS
 10
-1.5665461601
 20
2.4275169761
 11
-1.5659921742
 21
2.4135880508
  0
LINE
  5
422
100
AcDbEntity
  8
ASSI
100
AcDbLine
 62
253
  6
CONTINUOUS
 10
-1.5665461601
 20
2.4275169761
 11
-1.5659921742
 21
2.4135880508
  0
LINE
  5
423
100
AcDbEntity
  8
RACCORDO
100
AcDbLine
 62
253
  6
CONTINUOUS
 10
-1.5673528069
 20
2.4513090486
 11
-1.5665461601
 21
2.4275169761
  0
LINE
  5
424
100
AcDbEntity
  8
ASSI
100
AcDbLine
 62
253
  6
CONTINUOUS
 10
-1.5673528069
 20
2.4513090486
 11
-1.5665461601
 21
2.4275169761
  0
LINE
  5
425
100
AcDbEntity
  8
RACCORDO
100
AcDbLine
 62
253
  6
CONTINUOUS
 10
-1.5681264118
 20
2.478464554
 11
-1.5673528069
 21
2.4513090486
  0
LINE
  5
426
100
AcDbEntity
  8
ASSI
100
AcDbLine
 62
253
  6
CONTINUOUS
 10
-1.5681264118
 20
2.478464554
 11
-1.5673528069
 21
2.4513090486
  0
LINE
  5
427
100
AcDbEntity
  8
RACCORDO
100
AcDbLine
 62
253
  6
CONTINUOUS
 10
-1.5690991012
 20
2.5196399829
 11
-1.5681264118
 21
2.478464554
  0
LINE
  5
428
100
AcDbEntity
  8
ASSI
100
AcDbLine
 62
253
  6
CONTINUOUS
 10
-1.5690991012
 20
2.5196399829
 11
-1.5681264118
 21
2.478464554
  0
LWPOLYLINE
  5
429
100
AcDbEntity
  8
RACCORDO
100
AcDbPolyline
 62
253
  6
CONTINUOUS
 90
31
 70
0
 10
-1.5856067563
 20
22.985
 10
-1.5857970831
 20
22.9937238784
 10
-1.586367701
 20
23.0024311504
 10
-1.5873175238
 20
23.0111052412
 10
-1.5886447436
 20
23.0197296392
 10
-1.5903468339
 20
23.0282879273
 10
-1.5924205546
 20
23.0367638143
 10
-1.5948619583
 20
23.0451411659
 10
-1.5976663976
 20
23.0534040353
 10
-1.6008285341
 20
23.0615366937
 10
-1.6043423486
 20
23.0695236601
 10
-1.6082011522
 20
23.0773497308
 10
-1.6123975995
 20
23.0850000084
 10
-1.6169237023
 20
23.0924599303
 10
-1.6217708449
 20
23.0997152961
 10
-1.6269298004
 20
23.1067522947
 10
-1.6323907486
 20
23.1135575307
 10
-1.6381432941
 20
23.1201180502
 10
-1.6441764868
 20
23.1264213647
 10
-1.6504788419
 20
23.1324554755
 10
-1.6570383627
 20
23.1382088964
 10
-1.6638425626
 20
23.1436706754
 10
-1.6708784896
 20
23.1488304157
 10
-1.6781327503
 20
23.1536782955
 10
-1.6855915357
 20
23.1582050865
 10
-1.6932406478
 20
23.1624021717
 10
-1.7010655259
 20
23.1662615618
 10
-1.709051275
 20
23.1697759103
 10
-1.7171826936
 20
23.1729385273
 10
-1.7254443033
 20
23.1757433927
 10
-1.7338203775
 20
23.1781851672
  0
LWPOLYLINE
  5
42A
100
AcDbEntity
  8
ASSI
100
AcDbPolyline
 62
253
  6
CONTINUOUS
 90
31
 70
0
 10
-1.5856067563
 20
22.985
 10
-1.5857970831
 20
22.9937238784
 10
-1.586367701
 20
23.0024311504
 10
-1.5873175238
 20
23.0111052412
 10
-1.5886447436
 20
23.0197296392
 10
-1.5903468339
 20
23.0282879273
 10
-1.5924205546
 20
23.0367638143
 10
-1.5948619583
 20
23.0451411659
 10
-1.5976663976
 20
23.0534040353
 10
-1.6008285341
 20
23.0615366937
 10
-1.6043423486
 20
23.0695236601
 10
-1.6082011522
 20
23.0773497308
 10
-1.6123975995
 20
23.0850000084
 10
-1.6169237023
 20
23.0924599303
 10
-1.6217708449
 20
23.0997152961
 10
-1.6269298004
 20
23.1067522947
 10
-1.6323907486
 20
23.1135575307
 10
-1.6381432941
 20
23.1201180502
 10
-1.6441764868
 20
23.1264213647
 10
-1.6504788419
 20
23.1324554755
 10
-1.6570383627
 20
23.1382088964
 10
-1.6638425626
 20
23.1436706754
 10
-1.6708784896
 20
23.1488304157
 10
-1.6781327503
 20
23.1536782955
 10
-1.6855915357
 20
23.1582050865
 10
-1.6932406478
 20
23.1624021717
 10
-1.7010655259
 20
23.1662615618
 10
-1.709051275
 20
23.1697759103
 10
-1.7171826936
 20
23.1729385273
 10
-1.7254443033
 20
23.1757433927
 10
-1.7338203775
 20
23.1781851672
  0
LINE
  5
42B
100
AcDbEntity
  8
RACCORDO
100
AcDbLine
 62
253
  6
CONTINUOUS
 10
-1.5702073786
 20
2.5785266292
 11
-1.5690991012
 21
2.5196399829
  0
LINE
  5
42C
100
AcDbEntity
  8
ASSI
100
AcDbLine
 62
253
  6
CONTINUOUS
 10
-1.5702073786
 20
2.5785266292
 11
-1.5690991012
 21
2.5196399829
  0
LWPOLYLINE
  5
42D
100
AcDbEntity
  8
RACCORDO
100
AcDbPolyline
 62
253
  6
CONTINUOUS
 90
52
 70
0
 10
-1.5615737166
 20
44.3085481273
 10
-1.5619604371
 20
44.3331756479
 10
-1.5631052297
 20
44.3577798168
 10
-1.5650070087
 20
44.3823373047
 10
-1.567663971
 20
44.4068248262
 10
-1.5710735972
 20
44.4312191625
 10
-1.5752326543
 20
44.455497183
 10
-1.5801371989
 20
44.4796358675
 10
-1.5857825803
 20
44.5036123279
 10
-1.5921634458
 20
44.5274038298
 10
-1.5992737449
 20
44.5509878143
 10
-1.6071067359
 20
44.5743419193
 10
-1.6156549915
 20
44.5974440006
 10
-1.6249104063
 20
44.6202721529
 10
-1.6348642043
 20
44.6428047307
 10
-1.6455069476
 20
44.6650203689
 10
-1.6568285446
 20
44.6868980027
 10
-1.6688182604
 20
44.7084168879
 10
-1.6814647264
 20
44.7295566204
 10
-1.6947559513
 20
44.7502971557
 10
-1.7086793325
 20
44.7706188278
 10
-1.7232216679
 20
44.7905023679
 10
-1.7383691685
 20
44.8099289224
 10
-1.7541074717
 20
44.8288800713
 10
-1.7704216545
 20
44.8473378452
 10
-1.7872962478
 20
44.8652847426
 10
-1.8047152514
 20
44.8827037463
 10
-1.8226621486
 20
44.8995783399
 10
-1.8411199224
 20
44.9158925229
 10
-1.8600710712
 20
44.9316308263
 10
-1.8794976256
 20
44.9467783272
 10
-1.8993811656
 20
44.9613206629
 10
-1.9197028377
 20
44.9752440443
 10
-1.9404433731
 20
44.9885352695
 10
-1.9615831057
 20
45.0011817358
 10
-1.983101991
 20
45.013171452
 10
-2.0049796249
 20
45.0244930493
 10
-2.0271952633
 20
45.0351357929
 10
-2.0497278413
 20
45.0450895913
 10
-2.0725559939
 20
45.0543450064
 10
-2.0956580754
 20
45.0628932622
 10
-2.1190121808
 20
45.0707262535
 10
-2.1425961656
 20
45.0778365529
 10
-2.1663876679
 20
45.0842174186
 10
-2.1903641287
 20
45.0898628003
 10
-2.2145028137
 20
45.094767345
 10
-2.2387808347
 20
45.0989264024
 10
-2.2631751715
 20
45.1023360287
 10
-2.2876626935
 20
45.1049929911
 10
-2.3122201819
 20
45.1068947703
 10
-2.3368243515
 20
45.1080395628
 10
-2.3614518727
 20
45.1084262834
  0
LWPOLYLINE
  5
42E
100
AcDbEntity
  8
ASSI
100
AcDbPolyline
 62
253
  6
CONTINUOUS
 90
52
 70
0
 10
-1.5615737166
 20
44.3085481273
 10
-1.5619604371
 20
44.3331756479
 10
-1.5631052297
 20
44.3577798168
 10
-1.5650070087
 20
44.3823373047
 10
-1.567663971
 20
44.4068248262
 10
-1.5710735972
 20
44.4312191625
 10
-1.5752326543
 20
44.455497183
 10
-1.5801371989
 20
44.4796358675
 10
-1.5857825803
 20
44.5036123279
 10
-1.5921634458
 20
44.5274038298
 10
-1.5992737449
 20
44.5509878143
 10
-1.6071067359
 20
44.5743419193
 10
-1.6156549915
 20
44.5974440006
 10
-1.6249104063
 20
44.6202721529
 10
-1.6348642043
 20
44.6428047307
 10
-1.6455069476
 20
44.6650203689
 10
-1.6568285446
 20
44.6868980027
 10
-1.6688182604
 20
44.7084168879
 10
-1.6814647264
 20
44.7295566204
 10
-1.6947559513
 20
44.7502971557
 10
-1.7086793325
 20
44.7706188278
 10
-1.7232216679
 20
44.7905023679
 10
-1.7383691685
 20
44.8099289224
 10
-1.7541074717
 20
44.8288800713
 10
-1.7704216545
 20
44.8473378452
 10
-1.7872962478
 20
44.8652847426
 10
-1.8047152514
 20
44.8827037463
 10
-1.8226621486
 20
44.8995783399
 10
-1.8411199224
 20
44.9158925229
 10
-1.8600710712
 20
44.9316308263
 10
-1.8794976256
 20
44.9467783272
 10
-1.8993811656
 20
44.9613206629
 10
-1.9197028377
 20
44.9752440443
 10
-1.9404433731
 20
44.9885352695
 10
-1.9615831057
 20
45.0011817358
 10
-1.983101991
 20
45.013171452
 10
-2.0049796249
 20
45.0244930493
 10
-2.0271952633
 20
45.0351357929
 10
-2.0497278413
 20
45.0450895913
 10
-2.0725559939
 20
45.0543450064
 10
-2.0956580754
 20
45.0628932622
 10
-2.1190121808
 20
45.0707262535
 10
-2.1425961656
 20
45.0778365529
 10
-2.1663876679
 20
45.0842174186
 10
-2.1903641287
 20
45.0898628003
 10
-2.2145028137
 20
45.094767345
 10
-2.2387808347
 20
45.0989264024
 10
-2.2631751715
 20
45.1023360287
 10
-2.2876626935
 20
45.1049929911
 10
-2.3122201819
 20
45.1068947703
 10
-2.3368243515
 20
45.1080395628
 10
-2.3614518727
 20
45.1084262834
  0
LINE
  5
42F
100
AcDbEntity
  8
RACCORDO
100
AcDbLine
 62
253
  6
CONTINUOUS
 10
-1.5715280171
 20
2.6731495937
 11
-1.5702073786
 21
2.5785266292
  0
LINE
  5
430
100
AcDbEntity
  8
ASSI
100
AcDbLine
 62
253
  6
CONTINUOUS
 10
-1.5715280171
 20
2.6731495937
 11
-1.5702073786
 21
2.5785266292
  0
LINE
  5
431
100
AcDbEntity
  8
RACCORDO
100
AcDbLine
 62
253
  6
CONTINUOUS
 10
-1.5726625146
 20
2.7953534983
 11
-1.5715280171
 21
2.6731495937
  0
LINE
  5
432
100
AcDbEntity
  8
ASSI
100
AcDbLine
 62
253
  6
CONTINUOUS
 10
-1.5726625146
 20
2.7953534983
 11
-1.5715280171
 21
2.6731495937
  0
LINE
  5
433
100
AcDbEntity
  8
RACCORDO
100
AcDbLine
 62
253
  6
CONTINUOUS
 10
-2.3704917244
 20
2.0817497095
 11
-2.3682543551
 21
1.8332591307
  0
LINE
  5
434
100
AcDbEntity
  8
ASSI
100
AcDbLine
 62
253
  6
CONTINUOUS
 10
-2.3704917244
 20
2.0817497095
 11
-2.3682543551
 21
1.8332591307
  0
LINE
  5
435
100
AcDbEntity
  8
RACCORDO
100
AcDbLine
 62
253
  6
CONTINUOUS
 10
-1.5734556465
 20
2.9621219238
 11
-1.5726625146
 21
2.7953534983
  0
LINE
  5
436
100
AcDbEntity
  8
ASSI
100
AcDbLine
 62
253
  6
CONTINUOUS
 10
-1.5734556465
 20
2.9621219238
 11
-1.5726625146
 21
2.7953534983
  0
LINE
  5
437
100
AcDbEntity
  8
RACCORDO
100
AcDbLine
 62
253
  6
CONTINUOUS
 10
-2.3729442758
 20
2.631306991
 11
-2.3704917244
 21
2.0817497095
  0
LINE
  5
438
100
AcDbEntity
  8
ASSI
100
AcDbLine
 62
253
  6
CONTINUOUS
 10
-2.3729442758
 20
2.631306991
 11
-2.3704917244
 21
2.0817497095
  0
LWPOLYLINE
  5
439
100
AcDbEntity
  8
RACCORDO
100
AcDbPolyline
 62
253
  6
CONTINUOUS
 90
3
 70
0
 10
-1.5760400367
 20
5.2299970231
 10
-1.5748313269
 20
4.1217826382
 10
-1.5734556465
 20
2.9621219238
  0
LWPOLYLINE
  5
43A
100
AcDbEntity
  8
ASSI
100
AcDbPolyline
 62
253
  6
CONTINUOUS
 90
3
 70
0
 10
-1.5760400367
 20
5.2299970231
 10
-1.5748313269
 20
4.1217826382
 10
-1.5734556465
 20
2.9621219238
  0
LWPOLYLINE
  5
43B
100
AcDbEntity
  8
RACCORDO
100
AcDbPolyline
 62
253
  6
CONTINUOUS
 90
3
 70
0
 10
-1.5792353207
 20
8.556075329
 10
-1.5782420336
 20
7.4471433685
 10
-1.5760400367
 20
5.2299970231
  0
LWPOLYLINE
  5
43C
100
AcDbEntity
  8
ASSI
100
AcDbPolyline
 62
253
  6
CONTINUOUS
 90
3
 70
0
 10
-1.5792353207
 20
8.556075329
 10
-1.5782420336
 20
7.4471433685
 10
-1.5760400367
 20
5.2299970231
  0
LINE
  5
43D
100
AcDbEntity
  8
RACCORDO
100
AcDbLine
 62
253
  6
CONTINUOUS
 10
-2.3808846848
 20
10.741193455
 11
-2.379113642
 21
8.5167462757
  0
LINE
  5
43E
100
AcDbEntity
  8
ASSI
100
AcDbLine
 62
253
  6
CONTINUOUS
 10
-2.3808846848
 20
10.741193455
 11
-2.379113642
 21
8.5167462757
  0
LWPOLYLINE
  5
43F
100
AcDbEntity
  8
RACCORDO
100
AcDbPolyline
 62
253
  6
CONTINUOUS
 90
3
 70
0
 10
-2.379113642
 20
8.5167462757
 10
-2.3734046427
 20
2.9224545858
 10
-2.3729442758
 20
2.631306991
  0
LWPOLYLINE
  5
440
100
AcDbEntity
  8
ASSI
100
AcDbPolyline
 62
253
  6
CONTINUOUS
 90
3
 70
0
 10
-2.379113642
 20
8.5167462757
 10
-2.3734046427
 20
2.9224545858
 10
-2.3729442758
 20
2.631306991
  0
LINE
  5
441
100
AcDbEntity
  8
RACCORDO
100
AcDbLine
 62
253
  6
CONTINUOUS
 10
-1.5810063322
 20
10.7745039802
 11
-1.5792353207
 21
8.556075329
  0
LINE
  5
442
100
AcDbEntity
  8
ASSI
100
AcDbLine
 62
253
  6
CONTINUOUS
 10
-1.5810063322
 20
10.7745039802
 11
-1.5792353207
 21
8.556075329
  0
LWPOLYLINE
  5
443
100
AcDbEntity
  8
RACCORDO
100
AcDbPolyline
 62
253
  6
CONTINUOUS
 90
3
 70
0
 10
-2.3830022089
 20
14.0791267234
 10
-2.3823682598
 20
12.9663344003
 10
-2.3808846848
 20
10.741193455
  0
LWPOLYLINE
  5
444
100
AcDbEntity
  8
ASSI
100
AcDbPolyline
 62
253
  6
CONTINUOUS
 90
3
 70
0
 10
-2.3830022089
 20
14.0791267234
 10
-2.3823682598
 20
12.9663344003
 10
-2.3808846848
 20
10.741193455
  0
LWPOLYLINE
  5
445
100
AcDbEntity
  8
RACCORDO
100
AcDbPolyline
 62
253
  6
CONTINUOUS
 90
3
 70
0
 10
-1.5831238466
 20
14.1034212524
 10
-1.5824898958
 20
12.9936397607
 10
-1.5810063322
 20
10.7745039802
  0
LWPOLYLINE
  5
446
100
AcDbEntity
  8
ASSI
100
AcDbPolyline
 62
253
  6
CONTINUOUS
 90
3
 70
0
 10
-1.5831238466
 20
14.1034212524
 10
-1.5824898958
 20
12.9936397607
 10
-1.5810063322
 20
10.7745039802
  0
LINE
  5
447
100
AcDbEntity
  8
RACCORDO
100
AcDbLine
 62
253
  6
CONTINUOUS
 10
-2.384472642
 20
17.418207185
 11
-2.3830022089
 21
14.0791267234
  0
LINE
  5
448
100
AcDbEntity
  8
ASSI
100
AcDbLine
 62
253
  6
CONTINUOUS
 10
-2.384472642
 20
17.418207185
 11
-2.3830022089
 21
14.0791267234
  0
LINE
  5
449
100
AcDbEntity
  8
RACCORDO
100
AcDbLine
 62
253
  6
CONTINUOUS
 10
-1.5845943146
 20
17.4334829782
 11
-1.5831238466
 21
14.1034212524
  0
LINE
  5
44A
100
AcDbEntity
  8
ASSI
100
AcDbLine
 62
253
  6
CONTINUOUS
 10
-1.5845943146
 20
17.4334829782
 11
-1.5831238466
 21
14.1034212524
  0
LINE
  5
44B
100
AcDbEntity
  8
RACCORDO
100
AcDbLine
 62
253
  6
CONTINUOUS
 10
-2.3852958001
 20
20.7580209835
 11
-2.384472642
 21
17.418207185
  0
LINE
  5
44C
100
AcDbEntity
  8
ASSI
100
AcDbLine
 62
253
  6
CONTINUOUS
 10
-2.3852958001
 20
20.7580209835
 11
-2.384472642
 21
17.418207185
  0
LINE
  5
44D
100
AcDbEntity
  8
RACCORDO
100
AcDbLine
 62
253
  6
CONTINUOUS
 10
-1.585417552
 20
20.7642574311
 11
-1.5845943146
 21
17.4334829782
  0
LINE
  5
44E
100
AcDbEntity
  8
ASSI
100
AcDbLine
 62
253
  6
CONTINUOUS
 10
-1.585417552
 20
20.7642574311
 11
-1.5845943146
 21
17.4334829782
  0
LINE
  5
44F
100
AcDbEntity
  8
0
100
AcDbLine
 62
253
  6
CONTINUOUS
 10
-2.3854884858
 20
23.185
 11
-2.3854884858
 21
23.485
  0
LINE
  5
450
100
AcDbEntity
  8
RACCORDO
100
AcDbLine
 62
253
  6
CONTINUOUS
 10
-2.3852958001
 20
20.7580209835
 11
-2.3854849268
 21
23.185
  0
LINE
  5
451
100
AcDbEntity
  8
ASSI
100
AcDbLine
 62
253
  6
CONTINUOUS
 10
-2.3852958001
 20
20.7580209835
 11
-2.3854849268
 21
23.6852334896
  0
LINE
  5
452
100
AcDbEntity
  8
0
100
AcDbLine
 62
253
  6
CONTINUOUS
 10
-1.9855494077
 20
23.185
 11
-1.9855494077
 21
23.485
  0
LINE
  5
453
100
AcDbEntity
  8
ASSI
100
AcDbLine
 62
253
  6
CONTINUOUS
 10
-1.9855494077
 20
23.185
 11
-1.9855494077
 21
23.485
  0
LINE
  5
454
100
AcDbEntity
  8
0
100
AcDbLine
 62
7
  6
CONTINUOUS
 10
-1.8850609312
 20
23.185
 11
-1.8850609312
 21
23.485
  0
LINE
  5
455
100
AcDbEntity
  8
ASSI
100
AcDbLine
 62
7
  6
CONTINUOUS
 10
-1.8850609312
 20
23.185
 11
-1.8850609312
 21
23.485
  0
LINE
  5
456
100
AcDbEntity
  8
RACCORDO
100
AcDbLine
 62
253
  6
CONTINUOUS
 10
-1.5856067563
 20
22.985
 11
-1.585417552
 21
20.7642574311
  0
LINE
  5
457
100
AcDbEntity
  8
ASSI
100
AcDbLine
 62
253
  6
CONTINUOUS
 10
-1.5856067563
 20
22.985
 11
-1.585417552
 21
20.7642574311
  0
LINE
  5
458
100
AcDbEntity
  8
RACCORDO
100
AcDbLine
 62
7
  6
CONTINUOUS
 10
-1.485
 20
44.3851218439
 11
-1.485
 21
23.685
  0
LINE
  5
459
100
AcDbEntity
  8
ASSI
100
AcDbLine
 62
7
  6
CONTINUOUS
 10
-1.485
 20
44.3851218439
 11
-1.485
 21
23.685
  0
LINE
  5
45A
100
AcDbEntity
  8
RACCORDO
100
AcDbLine
 62
7
  6
CONTINUOUS
 10
-1.485
 20
22.985
 11
-1.485
 21
2.2848781561
  0
LINE
  5
45B
100
AcDbEntity
  8
ASSI
100
AcDbLine
 62
7
  6
CONTINUOUS
 10
-1.485
 20
22.985
 11
-1.485
 21
2.2848781561
  0
LINE
  5
45C
100
AcDbEntity
  8
RACCORDO
100
AcDbLine
 62
253
  6
CONTINUOUS
 10
-2.3854263273
 20
24.7986163288
 11
-2.3854849268
 21
23.485
  0
LINE
  5
45D
100
AcDbEntity
  8
RACCORDO
100
AcDbLine
 62
253
  6
CONTINUOUS
 10
-2.3848189574
 20
28.1385825938
 11
-2.3854263273
 21
24.7986163288
  0
LINE
  5
45E
100
AcDbEntity
  8
ASSI
100
AcDbLine
 62
253
  6
CONTINUOUS
 10
-2.3848189574
 20
28.1385825938
 11
-2.3854849268
 21
23.6852334896
  0
LINE
  5
45F
100
AcDbEntity
  8
RACCORDO
100
AcDbLine
 62
253
  6
CONTINUOUS
 10
-1.5849406515
 20
28.1263031249
 11
-1.5856067563
 21
23.685
  0
LINE
  5
460
100
AcDbEntity
  8
ASSI
100
AcDbLine
 62
253
  6
CONTINUOUS
 10
-1.5849406515
 20
28.1263031249
 11
-1.5856067563
 21
23.685
  0
LINE
  5
461
100
AcDbEntity
  8
RACCORDO
100
AcDbLine
 62
253
  6
CONTINUOUS
 10
-2.3835642678
 20
31.4779534876
 11
-2.3848189574
 21
28.1385825938
  0
LINE
  5
462
100
AcDbEntity
  8
ASSI
100
AcDbLine
 62
253
  6
CONTINUOUS
 10
-2.3835642678
 20
31.4779534876
 11
-2.3848189574
 21
28.1385825938
  0
LINE
  5
463
100
AcDbEntity
  8
RACCORDO
100
AcDbLine
 62
253
  6
CONTINUOUS
 10
-1.5836859121
 20
31.4566549399
 11
-1.5849406515
 21
28.1263031249
  0
LINE
  5
464
100
AcDbEntity
  8
ASSI
100
AcDbLine
 62
253
  6
CONTINUOUS
 10
-1.5836859121
 20
31.4566549399
 11
-1.5849406515
 21
28.1263031249
  0
LINE
  5
465
100
AcDbEntity
  8
RACCORDO
100
AcDbLine
 62
253
  6
CONTINUOUS
 10
-2.3816624174
 20
34.8163151315
 11
-2.3835642678
 21
31.4779534876
  0
LINE
  5
466
100
AcDbEntity
  8
ASSI
100
AcDbLine
 62
253
  6
CONTINUOUS
 10
-2.3816624174
 20
34.8163151315
 11
-2.3835642678
 21
31.4779534876
  0
LINE
  5
467
100
AcDbEntity
  8
RACCORDO
100
AcDbLine
 62
253
  6
CONTINUOUS
 10
-1.5824898957
 20
33.676360346
 11
-1.5836859121
 21
31.4566549399
  0
LINE
  5
468
100
AcDbEntity
  8
ASSI
100
AcDbLine
 62
253
  6
CONTINUOUS
 10
-1.5824898957
 20
33.676360346
 11
-1.5836859121
 21
31.4566549399
  0
LINE
  5
469
100
AcDbEntity
  8
RACCORDO
100
AcDbLine
 62
253
  6
CONTINUOUS
 10
-2.380035094
 20
37.0411245171
 11
-2.3816624174
 21
34.8163151315
  0
LINE
  5
46A
100
AcDbEntity
  8
ASSI
100
AcDbLine
 62
253
  6
CONTINUOUS
 10
-2.380035094
 20
37.0411245171
 11
-2.3816624174
 21
34.8163151315
  0
LINE
  5
46B
100
AcDbEntity
  8
RACCORDO
100
AcDbLine
 62
253
  6
CONTINUOUS
 10
-1.5801567544
 20
37.0048046085
 11
-1.5824898957
 21
33.676360346
  0
LINE
  5
46C
100
AcDbEntity
  8
ASSI
100
AcDbLine
 62
253
  6
CONTINUOUS
 10
-1.5801567544
 20
37.0048046085
 11
-1.5824898957
 21
33.676360346
  0
LWPOLYLINE
  5
46D
100
AcDbEntity
  8
RACCORDO
100
AcDbPolyline
 62
253
  6
CONTINUOUS
 90
3
 70
0
 10
-2.3759182739
 20
41.4883556383
 10
-2.3770552046
 20
40.3768845923
 10
-2.380035094
 20
37.0411245171
  0
LWPOLYLINE
  5
46E
100
AcDbEntity
  8
ASSI
100
AcDbPolyline
 62
253
  6
CONTINUOUS
 90
3
 70
0
 10
-2.3759182739
 20
41.4883556383
 10
-2.3770552046
 20
40.3768845923
 10
-2.380035094
 20
37.0411245171
  0
LINE
  5
46F
100
AcDbEntity
  8
RACCORDO
100
AcDbLine
 62
253
  6
CONTINUOUS
 10
-1.5771769342
 20
40.3315546707
 11
-1.5801567544
 21
37.0048046085
  0
LINE
  5
470
100
AcDbEntity
  8
ASSI
100
AcDbLine
 62
253
  6
CONTINUOUS
 10
-1.5771769342
 20
40.3315546707
 11
-1.5801567544
 21
37.0048046085
  0
LINE
  5
471
100
AcDbEntity
  8
RACCORDO
100
AcDbLine
 62
253
  6
CONTINUOUS
 10
-2.3715707382
 20
44.4093530894
 11
-2.3759182739
 21
41.4883556383
  0
LINE
  5
472
100
AcDbEntity
  8
ASSI
100
AcDbLine
 62
253
  6
CONTINUOUS
 10
-2.3715707382
 20
44.4093530894
 11
-2.3759182739
 21
41.4883556383
  0
LINE
  5
473
100
AcDbEntity
  8
RACCORDO
100
AcDbLine
 62
253
  6
CONTINUOUS
 10
-1.573066164
 20
43.8093304853
 11
-1.5771769342
 21
40.3315546707
  0
LINE
  5
474
100
AcDbEntity
  8
ASSI
100
AcDbLine
 62
253
  6
CONTINUOUS
 10
-1.573066164
 20
43.8093304853
 11
-1.5771769342
 21
40.3315546707
  0
LINE
  5
475
100
AcDbEntity
  8
RACCORDO
100
AcDbLine
 62
253
  6
CONTINUOUS
 10
-2.3692089344
 20
44.7455752577
 11
-2.3715707382
 21
44.4093530894
  0
LINE
  5
476
100
AcDbEntity
  8
ASSI
100
AcDbLine
 62
253
  6
CONTINUOUS
 10
-2.3692089344
 20
44.7455752577
 11
-2.3715707382
 21
44.4093530894
  0
LINE
  5
477
100
AcDbEntity
  8
RACCORDO
100
AcDbLine
 62
253
  6
CONTINUOUS
 10
-1.5720028035
 20
43.952555204
 11
-1.573066164
 21
43.8093304853
  0
LINE
  5
478
100
AcDbEntity
  8
ASSI
100
AcDbLine
 62
253
  6
CONTINUOUS
 10
-1.5720028035
 20
43.952555204
 11
-1.573066164
 21
43.8093304853
  0
LINE
  5
479
100
AcDbEntity
  8
RACCORDO
100
AcDbLine
 62
253
  6
CONTINUOUS
 10
-2.368254361
 20
44.8367408534
 11
-2.3692089344
 21
44.7455752577
  0
LINE
  5
47A
100
AcDbEntity
  8
ASSI
100
AcDbLine
 62
253
  6
CONTINUOUS
 10
-2.368254361
 20
44.8367408534
 11
-2.3692089344
 21
44.7455752577
  0
LINE
  5
47B
100
AcDbEntity
  8
RACCORDO
100
AcDbLine
 62
253
  6
CONTINUOUS
 10
-1.5708083743
 20
44.0525312698
 11
-1.5720028035
 21
43.952555204
  0
LINE
  5
47C
100
AcDbEntity
  8
ASSI
100
AcDbLine
 62
253
  6
CONTINUOUS
 10
-1.5708083743
 20
44.0525312698
 11
-1.5720028035
 21
43.952555204
  0
LWPOLYLINE
  5
47D
100
AcDbEntity
  8
RACCORDO
100
AcDbPolyline
 62
253
  6
CONTINUOUS
 90
52
 70
0
 10
-1.5615737166
 20
2.3614518727
 10
-1.5619604372
 20
2.3368243518
 10
-1.5631052297
 20
2.3122201824
 10
-1.5650070088
 20
2.2876626942
 10
-1.5676639711
 20
2.2631751724
 10
-1.5710735974
 20
2.2387808358
 10
-1.5752326547
 20
2.2145028151
 10
-1.5801371993
 20
2.1903641303
 10
-1.5857825809
 20
2.1663876697
 10
-1.5921634465
 20
2.1425961676
 10
-1.5992737458
 20
2.1190121829
 10
-1.607106737
 20
2.0956580778
 10
-1.6156549927
 20
2.0725559964
 10
-1.6249104076
 20
2.0497278439
 10
-1.6348642058
 20
2.027195266
 10
-1.6455069493
 20
2.0049796278
 10
-1.6568285465
 20
1.9831019939
 10
-1.6688182624
 20
1.9615831087
 10
-1.6814647286
 20
1.9404433762
 10
-1.6947559536
 20
1.9197028408
 10
-1.7086793349
 20
1.8993811687
 10
-1.7232216704
 20
1.8794976288
 10
-1.7383691712
 20
1.8600710743
 10
-1.7541074745
 20
1.8411199255
 10
-1.7704216573
 20
1.8226621517
 10
-1.7872962508
 20
1.8047152544
 10
-1.8047152544
 20
1.7872962508
 10
-1.8226621517
 20
1.7704216573
 10
-1.8411199255
 20
1.7541074745
 10
-1.8600710743
 20
1.7383691712
 10
-1.8794976288
 20
1.7232216704
 10
-1.8993811687
 20
1.7086793349
 10
-1.9197028408
 20
1.6947559536
 10
-1.9404433762
 20
1.6814647286
 10
-1.9615831087
 20
1.6688182624
 10
-1.9831019939
 20
1.6568285465
 10
-2.0049796278
 20
1.6455069493
 10
-2.027195266
 20
1.6348642058
 10
-2.0497278439
 20
1.6249104076
 10
-2.0725559964
 20
1.6156549927
 10
-2.0956580778
 20
1.607106737
 10
-2.1190121829
 20
1.5992737458
 10
-2.1425961676
 20
1.5921634465
 10
-2.1663876697
 20
1.5857825809
 10
-2.1903641303
 20
1.5801371993
 10
-2.2145028151
 20
1.5752326547
 10
-2.2387808358
 20
1.5710735974
 10
-2.2631751724
 20
1.5676639711
 10
-2.2876626942
 20
1.5650070088
 10
-2.3122201824
 20
1.5631052297
 10
-2.3368243518
 20
1.5619604372
 10
-2.3614518727
 20
1.5615737166
  0
LWPOLYLINE
  5
47E
100
AcDbEntity
  8
ASSI
100
AcDbPolyline
 62
253
  6
CONTINUOUS
 90
52
 70
0
 10
-1.5615737166
 20
2.3614518727
 10
-1.5619604372
 20
2.3368243518
 10
-1.5631052297
 20
2.3122201824
 10
-1.5650070088
 20
2.2876626942
 10
-1.5676639711
 20
2.2631751724
 10
-1.5710735974
 20
2.2387808358
 10
-1.5752326547
 20
2.2145028151
 10
-1.5801371993
 20
2.1903641303
 10
-1.5857825809
 20
2.1663876697
 10
-1.5921634465
 20
2.1425961676
 10
-1.5992737458
 20
2.1190121829
 10
-1.607106737
 20
2.0956580778
 10
-1.6156549927
 20
2.0725559964
 10
-1.6249104076
 20
2.0497278439
 10
-1.6348642058
 20
2.027195266
 10
-1.6455069493
 20
2.0049796278
 10
-1.6568285465
 20
1.9831019939
 10
-1.6688182624
 20
1.9615831087
 10
-1.6814647286
 20
1.9404433762
 10
-1.6947559536
 20
1.9197028408
 10
-1.7086793349
 20
1.8993811687
 10
-1.7232216704
 20
1.8794976288
 10
-1.7383691712
 20
1.8600710743
 10
-1.7541074745
 20
1.8411199255
 10
-1.7704216573
 20
1.8226621517
 10
-1.7872962508
 20
1.8047152544
 10
-1.8047152544
 20
1.7872962508
 10
-1.8226621517
 20
1.7704216573
 10
-1.8411199255
 20
1.7541074745
 10
-1.8600710743
 20
1.7383691712
 10
-1.8794976288
 20
1.7232216704
 10
-1.8993811687
 20
1.7086793349
 10
-1.9197028408
 20
1.6947559536
 10
-1.9404433762
 20
1.6814647286
 10
-1.9615831087
 20
1.6688182624
 10
-1.9831019939
 20
1.6568285465
 10
-2.0049796278
 20
1.6455069493
 10
-2.027195266
 20
1.6348642058
 10
-2.0497278439
 20
1.6249104076
 10
-2.0725559964
 20
1.6156549927
 10
-2.0956580778
 20
1.607106737
 10
-2.1190121829
 20
1.5992737458
 10
-2.1425961676
 20
1.5921634465
 10
-2.1663876697
 20
1.5857825809
 10
-2.1903641303
 20
1.5801371993
 10
-2.2145028151
 20
1.5752326547
 10
-2.2387808358
 20
1.5710735974
 10
-2.2631751724
 20
1.5676639711
 10
-2.2876626942
 20
1.5650070088
 10
-2.3122201824
 20
1.5631052297
 10
-2.3368243518
 20
1.5619604372
 10
-2.3614518727
 20
1.5615737166
  0
LINE
  5
47F
100
AcDbEntity
  8
RACCORDO
100
AcDbLine
 62
253
  6
CONTINUOUS
 10
-1.5695576898
 20
44.1277483635
 11
-1.5708083743
 21
44.0525312698
  0
LINE
  5
480
100
AcDbEntity
  8
ASSI
100
AcDbLine
 62
253
  6
CONTINUOUS
 10
-1.5695576898
 20
44.1277483635
 11
-1.5708083743
 21
44.0525312698
  0
LWPOLYLINE
  5
481
100
AcDbEntity
  8
RACCORDO
100
AcDbPolyline
 62
253
  6
CONTINUOUS
 90
31
 70
0
 10
-1.5856067563
 20
23.685
 10
-1.585797083
 20
23.6762761225
 10
-1.5863677008
 20
23.6675688515
 10
-1.5873175235
 20
23.6588947616
 10
-1.588644743
 20
23.6502703645
 10
-1.5903468329
 20
23.6417120772
 10
-1.5924205532
 20
23.633236191
 10
-1.5948619564
 20
23.6248588401
 10
-1.5976663952
 20
23.6165959713
 10
-1.6008285311
 20
23.6084633135
 10
-1.604342345
 20
23.6004763477
 10
-1.6082011479
 20
23.5926502774
 10
-1.6123975946
 20
23.585
 10
-1.6169236967
 20
23.5775400783
 10
-1.6217708387
 20
23.5702847127
 10
-1.6269297936
 20
23.5632477142
 10
-1.6323907412
 20
23.5564424781
 10
-1.6381432862
 20
23.5498819585
 10
-1.6441764783
 20
23.5435786438
 10
-1.650478833
 20
23.5375445326
 10
-1.6570383534
 20
23.5317911114
 10
-1.663842553
 20
23.5263293319
 10
-1.6708784798
 20
23.5211695911
 10
-1.6781327404
 20
23.5163217108
 10
-1.6855915259
 20
23.5117949192
 10
-1.693240638
 20
23.5075978334
 10
-1.7010655164
 20
23.5037384426
 10
-1.7090512658
 20
23.5002240935
 10
-1.717182685
 20
23.4970614758
 10
-1.7254442953
 20
23.4942566099
 10
-1.7338203702
 20
23.4918148347
  0
LWPOLYLINE
  5
482
100
AcDbEntity
  8
ASSI
100
AcDbPolyline
 62
253
  6
CONTINUOUS
 90
31
 70
0
 10
-1.5856067563
 20
23.685
 10
-1.585797083
 20
23.6762761225
 10
-1.5863677008
 20
23.6675688515
 10
-1.5873175235
 20
23.6588947616
 10
-1.588644743
 20
23.6502703645
 10
-1.5903468329
 20
23.6417120772
 10
-1.5924205532
 20
23.633236191
 10
-1.5948619564
 20
23.6248588401
 10
-1.5976663952
 20
23.6165959713
 10
-1.6008285311
 20
23.6084633135
 10
-1.604342345
 20
23.6004763477
 10
-1.6082011479
 20
23.5926502774
 10
-1.6123975946
 20
23.585
 10
-1.6169236967
 20
23.5775400783
 10
-1.6217708387
 20
23.5702847127
 10
-1.6269297936
 20
23.5632477142
 10
-1.6323907412
 20
23.5564424781
 10
-1.6381432862
 20
23.5498819585
 10
-1.6441764783
 20
23.5435786438
 10
-1.650478833
 20
23.5375445326
 10
-1.6570383534
 20
23.5317911114
 10
-1.663842553
 20
23.5263293319
 10
-1.6708784798
 20
23.5211695911
 10
-1.6781327404
 20
23.5163217108
 10
-1.6855915259
 20
23.5117949192
 10
-1.693240638
 20
23.5075978334
 10
-1.7010655164
 20
23.5037384426
 10
-1.7090512658
 20
23.5002240935
 10
-1.717182685
 20
23.4970614758
 10
-1.7254442953
 20
23.4942566099
 10
-1.7338203702
 20
23.4918148347
  0
LINE
  5
483
100
AcDbEntity
  8
RACCORDO
100
AcDbLine
 62
253
  6
CONTINUOUS
 10
-1.5686216282
 20
44.1716384983
 11
-1.5695576898
 21
44.1277483635
  0
LINE
  5
484
100
AcDbEntity
  8
ASSI
100
AcDbLine
 62
253
  6
CONTINUOUS
 10
-1.5686216282
 20
44.1716384983
 11
-1.5695576898
 21
44.1277483635
  0
LINE
  5
485
100
AcDbEntity
  8
RACCORDO
100
AcDbLine
 62
253
  6
CONTINUOUS
 10
-1.5676145636
 20
44.210006186
 11
-1.5686216282
 21
44.1716384983
  0
LINE
  5
486
100
AcDbEntity
  8
ASSI
100
AcDbLine
 62
253
  6
CONTINUOUS
 10
-1.5676145636
 20
44.210006186
 11
-1.5686216282
 21
44.1716384983
  0
LINE
  5
487
100
AcDbEntity
  8
RACCORDO
100
AcDbLine
 62
253
  6
CONTINUOUS
 10
-1.5668184435
 20
44.2349349569
 11
-1.5676145636
 21
44.210006186
  0
LINE
  5
488
100
AcDbEntity
  8
ASSI
100
AcDbLine
 62
253
  6
CONTINUOUS
 10
-1.5668184435
 20
44.2349349569
 11
-1.5676145636
 21
44.210006186
  0
LINE
  5
489
100
AcDbEntity
  8
RACCORDO
100
AcDbLine
 62
253
  6
CONTINUOUS
 10
-1.5662706395
 20
44.2496445592
 11
-1.5668184435
 21
44.2349349569
  0
LINE
  5
48A
100
AcDbEntity
  8
ASSI
100
AcDbLine
 62
253
  6
CONTINUOUS
 10
-1.5662706395
 20
44.2496445592
 11
-1.5668184435
 21
44.2349349569
  0
LINE
  5
48B
100
AcDbEntity
  8
RACCORDO
100
AcDbLine
 62
253
  6
CONTINUOUS
 10
-45.4827842551
 20
43.6924779748
 11
-45.4485552216
 21
43.6948737721
  0
LINE
  5
48C
100
AcDbEntity
  8
ASSI
100
AcDbLine
 62
253
  6
CONTINUOUS
 10
-45.4827842551
 20
43.6924779748
 11
-45.4485552216
 21
43.6948737721
  0
LINE
  5
48D
100
AcDbEntity
  8
RACCORDO
100
AcDbLine
 62
253
  6
CONTINUOUS
 10
-45.4485552216
 20
43.6948737721
 11
-45.4122784743
 21
43.6971260912
  0
LINE
  5
48E
100
AcDbEntity
  8
ASSI
100
AcDbLine
 62
253
  6
CONTINUOUS
 10
-45.4485552216
 20
43.6948737721
 11
-45.4122784743
 21
43.6971260912
  0
LINE
  5
48F
100
AcDbEntity
  8
RACCORDO
100
AcDbLine
 62
253
  6
CONTINUOUS
 10
-45.4122784743
 20
43.6971260912
 11
-45.3740885903
 21
43.6992265768
  0
LINE
  5
490
100
AcDbEntity
  8
ASSI
100
AcDbLine
 62
253
  6
CONTINUOUS
 10
-45.4122784743
 20
43.6971260912
 11
-45.3740885903
 21
43.6992265768
  0
LINE
  5
491
100
AcDbEntity
  8
RACCORDO
100
AcDbLine
 62
253
  6
CONTINUOUS
 10
-45.3740885903
 20
43.6992265768
 11
-45.334127244
 21
43.7011674365
  0
LINE
  5
492
100
AcDbEntity
  8
ASSI
100
AcDbLine
 62
253
  6
CONTINUOUS
 10
-45.3740885903
 20
43.6992265768
 11
-45.334127244
 21
43.7011674365
  0
LINE
  5
493
100
AcDbEntity
  8
RACCORDO
100
AcDbLine
 62
253
  6
CONTINUOUS
 10
-45.334127244
 20
43.7011674365
 11
-45.2925426811
 21
43.7029414703
  0
LINE
  5
494
100
AcDbEntity
  8
ASSI
100
AcDbLine
 62
253
  6
CONTINUOUS
 10
-45.334127244
 20
43.7011674365
 11
-45.2925426811
 21
43.7029414703
  0
LINE
  5
495
100
AcDbEntity
  8
RACCORDO
100
AcDbLine
 62
253
  6
CONTINUOUS
 10
-45.2925426811
 20
43.7029414703
 11
-45.2494891694
 21
43.7045420971
  0
LINE
  5
496
100
AcDbEntity
  8
ASSI
100
AcDbLine
 62
253
  6
CONTINUOUS
 10
-45.2925426811
 20
43.7029414703
 11
-45.2494891694
 21
43.7045420971
  0
LINE
  5
497
100
AcDbEntity
  8
RACCORDO
100
AcDbLine
 62
253
  6
CONTINUOUS
 10
-45.2494891694
 20
43.7045420971
 11
-45.2051264258
 21
43.7059633789
  0
LINE
  5
498
100
AcDbEntity
  8
ASSI
100
AcDbLine
 62
253
  6
CONTINUOUS
 10
-45.2494891694
 20
43.7045420971
 11
-45.2051264258
 21
43.7059633789
  0
LINE
  5
499
100
AcDbEntity
  8
RACCORDO
100
AcDbLine
 62
253
  6
CONTINUOUS
 10
-44.9085481273
 20
45.1084262834
 11
-2.3614518727
 21
45.1084262834
  0
LINE
  5
49A
100
AcDbEntity
  8
ASSI
100
AcDbLine
 62
253
  6
CONTINUOUS
 10
-44.9085481273
 20
45.1084262834
 11
-2.3614518727
 21
45.1084262834
  0
LINE
  5
49B
100
AcDbEntity
  8
RACCORDO
100
AcDbLine
 62
7
  6
CONTINUOUS
 10
-2.2848781561
 20
45.185
 11
-44.9851218439
 21
45.185
  0
LINE
  5
49C
100
AcDbEntity
  8
ASSI
100
AcDbLine
 62
7
  6
CONTINUOUS
 10
-2.2848781561
 20
45.185
 11
-44.9851218439
 21
45.185
  0
LINE
  5
49D
100
AcDbEntity
  8
RACCORDO
100
AcDbLine
 62
253
  6
CONTINUOUS
 10
-2.0205108241
 20
43.7045420991
 11
-2.0648735685
 21
43.705963381
  0
LINE
  5
49E
100
AcDbEntity
  8
ASSI
100
AcDbLine
 62
253
  6
CONTINUOUS
 10
-2.0205108241
 20
43.7045420991
 11
-2.0648735685
 21
43.705963381
  0
LINE
  5
49F
100
AcDbEntity
  8
RACCORDO
100
AcDbLine
 62
253
  6
CONTINUOUS
 10
-1.9774573118
 20
43.7029414723
 11
-2.0205108241
 21
43.7045420991
  0
LINE
  5
4A0
100
AcDbEntity
  8
ASSI
100
AcDbLine
 62
253
  6
CONTINUOUS
 10
-1.9774573118
 20
43.7029414723
 11
-2.0205108241
 21
43.7045420991
  0
LINE
  5
4A1
100
AcDbEntity
  8
RACCORDO
100
AcDbLine
 62
253
  6
CONTINUOUS
 10
-1.9358727484
 20
43.7011674383
 11
-1.9774573118
 21
43.7029414723
  0
LINE
  5
4A2
100
AcDbEntity
  8
ASSI
100
AcDbLine
 62
253
  6
CONTINUOUS
 10
-1.9358727484
 20
43.7011674383
 11
-1.9774573118
 21
43.7029414723
  0
LINE
  5
4A3
100
AcDbEntity
  8
RACCORDO
100
AcDbLine
 62
253
  6
CONTINUOUS
 10
-1.8959114016
 20
43.6992265785
 11
-1.9358727484
 21
43.7011674383
  0
LINE
  5
4A4
100
AcDbEntity
  8
ASSI
100
AcDbLine
 62
253
  6
CONTINUOUS
 10
-1.8959114016
 20
43.6992265785
 11
-1.9358727484
 21
43.7011674383
  0
LINE
  5
4A5
100
AcDbEntity
  8
RACCORDO
100
AcDbLine
 62
253
  6
CONTINUOUS
 10
-1.8577215173
 20
43.6971260928
 11
-1.8959114016
 21
43.6992265785
  0
LINE
  5
4A6
100
AcDbEntity
  8
ASSI
100
AcDbLine
 62
253
  6
CONTINUOUS
 10
-1.8577215173
 20
43.6971260928
 11
-1.8959114016
 21
43.6992265785
  0
LINE
  5
4A7
100
AcDbEntity
  8
RACCORDO
100
AcDbLine
 62
253
  6
CONTINUOUS
 10
-1.8214447698
 20
43.6948737736
 11
-1.8577215173
 21
43.6971260928
  0
LINE
  5
4A8
100
AcDbEntity
  8
ASSI
100
AcDbLine
 62
253
  6
CONTINUOUS
 10
-1.8214447698
 20
43.6948737736
 11
-1.8577215173
 21
43.6971260928
  0
LWPOLYLINE
  5
4A9
100
AcDbEntity
  8
RACCORDO
100
AcDbPolyline
 62
253
  6
CONTINUOUS
 90
25
 70
0
 10
-1.5735508049
 20
3.0138023504
 10
-1.5743460196
 20
3.0121474005
 10
-1.5758825021
 20
3.0104939858
 10
-1.5781588273
 20
3.0088436401
 10
-1.5811728835
 20
3.0071978944
 10
-1.5849218747
 20
3.0055582752
 10
-1.5894023231
 20
3.0039263037
 10
-1.5946100725
 20
3.0023034937
 10
-1.6005402918
 20
3.0006913506
 10
-1.6071874801
 20
2.9990913698
 10
-1.6145454709
 20
2.9975050357
 10
-1.6226074387
 20
2.9959338198
 10
-1.6313659048
 20
2.9943791795
 10
-1.6408127445
 20
2.9928425572
 10
-1.6509391943
 20
2.9913253781
 10
-1.6617358605
 20
2.9898290498
 10
-1.6731927276
 20
2.9883549603
 10
-1.6852991676
 20
2.986904477
 10
-1.69804395
 20
2.9854789455
 10
-1.7114152522
 20
2.9840796881
 10
-1.7254006703
 20
2.9827080029
 10
-1.7399872308
 20
2.9813651624
 10
-1.7551614023
 20
2.9800524121
 10
-1.7709091087
 20
2.9787709699
 10
-1.7872157416
 20
2.9775220245
  0
LWPOLYLINE
  5
4AA
100
AcDbEntity
  8
ASSI
100
AcDbPolyline
 62
253
  6
CONTINUOUS
 90
25
 70
0
 10
-1.5735508049
 20
3.0138023504
 10
-1.5743460196
 20
3.0121474005
 10
-1.5758825021
 20
3.0104939858
 10
-1.5781588273
 20
3.0088436401
 10
-1.5811728835
 20
3.0071978944
 10
-1.5849218747
 20
3.0055582752
 10
-1.5894023231
 20
3.0039263037
 10
-1.5946100725
 20
3.0023034937
 10
-1.6005402918
 20
3.0006913506
 10
-1.6071874801
 20
2.9990913698
 10
-1.6145454709
 20
2.9975050357
 10
-1.6226074387
 20
2.9959338198
 10
-1.6313659048
 20
2.9943791795
 10
-1.6408127445
 20
2.9928425572
 10
-1.6509391943
 20
2.9913253781
 10
-1.6617358605
 20
2.9898290498
 10
-1.6731927276
 20
2.9883549603
 10
-1.6852991676
 20
2.986904477
 10
-1.69804395
 20
2.9854789455
 10
-1.7114152522
 20
2.9840796881
 10
-1.7254006703
 20
2.9827080029
 10
-1.7399872308
 20
2.9813651624
 10
-1.7551614023
 20
2.9800524121
 10
-1.7709091087
 20
2.9787709699
 10
-1.7872157416
 20
2.9775220245
  0
LWPOLYLINE
  5
4AB
100
AcDbEntity
  8
RACCORDO
100
AcDbPolyline
 62
253
  6
CONTINUOUS
 90
26
 70
0
 10
-1.5735508049
 20
43.6561976496
 10
-1.5743460191
 20
43.6578525995
 10
-1.5758825012
 20
43.6595060142
 10
-1.578158826
 20
43.66115636
 10
-1.5811728818
 20
43.6628021057
 10
-1.5849218725
 20
43.6644417249
 10
-1.5894023206
 20
43.6660736964
 10
-1.5946100696
 20
43.6676965065
 10
-1.6005402887
 20
43.6693086497
 10
-1.6071874766
 20
43.6709086304
 10
-1.6145454672
 20
43.6724949646
 10
-1.6226074347
 20
43.6740661806
 10
-1.6313659006
 20
43.6756208208
 10
-1.64081274
 20
43.6771574432
 10
-1.6509391896
 20
43.6786746223
 10
-1.6617358556
 20
43.6801709506
 10
-1.6731927225
 20
43.6816450402
 10
-1.6852991624
 20
43.6830955235
 10
-1.6980439448
 20
43.6845210551
 10
-1.7114152469
 20
43.6859203125
 10
-1.7254006649
 20
43.6872919977
 10
-1.7399872253
 20
43.6886348383
 10
-1.7551613968
 20
43.6899475886
 10
-1.7709091032
 20
43.6912290308
 10
-1.7872157361
 20
43.6924779762
 10
-1.8214447698
 20
43.6948737736
  0
LWPOLYLINE
  5
4AC
100
AcDbEntity
  8
ASSI
100
AcDbPolyline
 62
253
  6
CONTINUOUS
 90
26
 70
0
 10
-1.5735508049
 20
43.6561976496
 10
-1.5743460191
 20
43.6578525995
 10
-1.5758825012
 20
43.6595060142
 10
-1.578158826
 20
43.66115636
 10
-1.5811728818
 20
43.6628021057
 10
-1.5849218725
 20
43.6644417249
 10
-1.5894023206
 20
43.6660736964
 10
-1.5946100696
 20
43.6676965065
 10
-1.6005402887
 20
43.6693086497
 10
-1.6071874766
 20
43.6709086304
 10
-1.6145454672
 20
43.6724949646
 10
-1.6226074347
 20
43.6740661806
 10
-1.6313659006
 20
43.6756208208
 10
-1.64081274
 20
43.6771574432
 10
-1.6509391896
 20
43.6786746223
 10
-1.6617358556
 20
43.6801709506
 10
-1.6731927225
 20
43.6816450402
 10
-1.6852991624
 20
43.6830955235
 10
-1.6980439448
 20
43.6845210551
 10
-1.7114152469
 20
43.6859203125
 10
-1.7254006649
 20
43.6872919977
 10
-1.7399872253
 20
43.6886348383
 10
-1.7551613968
 20
43.6899475886
 10
-1.7709091032
 20
43.6912290308
 10
-1.7872157361
 20
43.6924779762
 10
-1.8214447698
 20
43.6948737736
  0
LINE
  5
4AD
100
AcDbEntity
  8
RACCORDO
100
AcDbLine
 62
7
  6
CONTINUOUS
 10
-68.7226144696
 20
1.5615737166
 11
-64.3357091837
 21
1.485
  0
LINE
  5
4AE
100
AcDbEntity
  8
ASSI
100
AcDbLine
 62
7
  6
CONTINUOUS
 10
-68.7226144696
 20
1.5615737166
 11
-64.3357091837
 21
1.485
  0
LINE
  5
4AF
100
AcDbEntity
  8
RACCORDO
100
AcDbLine
 62
253
  6
CONTINUOUS
 10
-70.1796925947
 20
2.9605443729
 11
-70.1896482702
 21
2.959780616
  0
LINE
  5
4B0
100
AcDbEntity
  8
ASSI
100
AcDbLine
 62
253
  6
CONTINUOUS
 10
-70.1796925947
 20
2.9605443729
 11
-70.1896482702
 21
2.959780616
  0
LINE
  5
4B1
100
AcDbEntity
  8
RACCORDO
100
AcDbLine
 62
253
  6
CONTINUOUS
 10
-69.4087813988
 20
3.0138023504
 11
-70.1796925947
 21
2.9605443729
  0
LINE
  5
4B2
100
AcDbEntity
  8
ASSI
100
AcDbLine
 62
253
  6
CONTINUOUS
 10
-69.4087813988
 20
3.0138023504
 11
-70.1796925947
 21
2.9605443729
  0
LINE
  5
4B3
100
AcDbEntity
  8
RACCORDO
100
AcDbLine
 62
253
  6
CONTINUOUS
 10
-68.7226144696
 20
2.3614518727
 11
-64.3357091837
 21
2.2848781561
  0
LINE
  5
4B4
100
AcDbEntity
  8
ASSI
100
AcDbLine
 62
253
  6
CONTINUOUS
 10
-68.7226144696
 20
2.3614518727
 11
-64.3357091837
 21
2.2848781561
  0
LWPOLYLINE
  5
4B5
100
AcDbEntity
  8
RACCORDO
100
AcDbPolyline
 62
253
  6
CONTINUOUS
 90
4
 70
0
 10
-70.1896482702
 20
2.959780616
 10
-70.1914956096
 20
2.959625988
 10
-70.1926039138
 20
2.9595216166
 10
-70.1929721546
 20
2.9594675987
  0
LWPOLYLINE
  5
4B6
100
AcDbEntity
  8
ASSI
100
AcDbPolyline
 62
253
  6
CONTINUOUS
 90
4
 70
0
 10
-70.1896482702
 20
2.959780616
 10
-70.1914956096
 20
2.959625988
 10
-70.1926039138
 20
2.9595216166
 10
-70.1929721546
 20
2.9594675987
  0
LWPOLYLINE
  5
4B7
100
AcDbEntity
  8
RACCORDO
100
AcDbPolyline
 62
253
  6
CONTINUOUS
 90
61
 70
0
 10
-69.4087813988
 20
3.0138023504
 10
-69.4073887375
 20
2.9965157215
 10
-69.4055715297
 20
2.9792889126
 10
-69.4033297754
 20
2.9621219238
 10
-69.4006615616
 20
2.9450040054
 10
-69.3975688012
 20
2.9279459069
 10
-69.3940572334
 20
2.9109798779
 10
-69.390126107
 20
2.894106379
 10
-69.3857761732
 20
2.8773249496
 10
-69.3810154245
 20
2.8606664567
 10
-69.3758431087
 20
2.844131147
 10
-69.370259978
 20
2.8277187739
 10
-69.364276281
 20
2.8114594648
 10
-69.3578912826
 20
2.7953534983
 10
-69.3511057178
 20
2.7794005958
 10
-69.3439320406
 20
2.7636300493
 10
-69.3363695341
 20
2.7480421867
 10
-69.3284189152
 20
2.73263668
 10
-69.320094788
 20
2.7174418366
 10
-69.3113964674
 20
2.7024580471
 10
-69.3023246385
 20
2.6876849209
 10
-69.2928959611
 20
2.6731495937
 10
-69.2831097807
 20
2.6588525042
 10
-69.2729667518
 20
2.6447932137
 10
-69.2624854979
 20
2.6309975425
 10
-69.2516653958
 20
2.6174659729
 10
-69.2405070687
 20
2.6041980226
 10
-69.2290310092
 20
2.591218065
 10
-69.2172366329
 20
2.5785266292
 10
-69.2051245243
 20
2.5661231861
 10
-69.1927169287
 20
2.5540305213
 10
-69.1800133028
 20
2.5422492061
 10
-69.16701419
 20
2.5307786692
 10
-69.153743466
 20
2.5196399829
 10
-69.1402006323
 20
2.5088337578
 10
-69.1263861873
 20
2.4983593832
 10
-69.1123255028
 20
2.4882361
 10
-69.0980181275
 20
2.478464554
 10
-69.0834645127
 20
2.4690440994
 10
-69.0686913833
 20
2.459992039
 10
-69.0536983336
 20
2.4513090486
 10
-69.0384857694
 20
2.4429944524
 10
-69.0230816331
 20
2.435063527
 10
-69.0074855683
 20
2.4275169761
 10
-68.9916979314
 20
2.4203540958
 10
-68.9757477338
 20
2.4135880508
 10
-68.9596346834
 20
2.4072195738
 10
-68.9433590724
 20
2.401247932
 10
-68.9269507891
 20
2.3956840916
 10
-68.9104095928
 20
2.390528801
 10
-68.8937357242
 20
2.3857813117
 10
-68.8769597943
 20
2.3814503449
 10
-68.8600815942
 20
2.3775366651
 10
-68.8431013328
 20
2.3740395077
 10
-68.826050248
 20
2.3709652994
 10
-68.8089278061
 20
2.3683148108
 10
-68.7917345408
 20
2.3660872714
 10
-68.7745032906
 20
2.3642867964
 10
-68.7572450018
 20
2.3629147575
 10
-68.7399487281
 20
2.3619697829
 10
-68.7226144696
 20
2.3614518727
  0
LWPOLYLINE
  5
4B8
100
AcDbEntity
  8
ASSI
100
AcDbPolyline
 62
253
  6
CONTINUOUS
 90
61
 70
0
 10
-69.4087813988
 20
3.0138023504
 10
-69.4073887375
 20
2.9965157215
 10
-69.4055715297
 20
2.9792889126
 10
-69.4033297754
 20
2.9621219238
 10
-69.4006615616
 20
2.9450040054
 10
-69.3975688012
 20
2.9279459069
 10
-69.3940572334
 20
2.9109798779
 10
-69.390126107
 20
2.894106379
 10
-69.3857761732
 20
2.8773249496
 10
-69.3810154245
 20
2.8606664567
 10
-69.3758431087
 20
2.844131147
 10
-69.370259978
 20
2.8277187739
 10
-69.364276281
 20
2.8114594648
 10
-69.3578912826
 20
2.7953534983
 10
-69.3511057178
 20
2.7794005958
 10
-69.3439320406
 20
2.7636300493
 10
-69.3363695341
 20
2.7480421867
 10
-69.3284189152
 20
2.73263668
 10
-69.320094788
 20
2.7174418366
 10
-69.3113964674
 20
2.7024580471
 10
-69.3023246385
 20
2.6876849209
 10
-69.2928959611
 20
2.6731495937
 10
-69.2831097807
 20
2.6588525042
 10
-69.2729667518
 20
2.6447932137
 10
-69.2624854979
 20
2.6309975425
 10
-69.2516653958
 20
2.6174659729
 10
-69.2405070687
 20
2.6041980226
 10
-69.2290310092
 20
2.591218065
 10
-69.2172366329
 20
2.5785266292
 10
-69.2051245243
 20
2.5661231861
 10
-69.1927169287
 20
2.5540305213
 10
-69.1800133028
 20
2.5422492061
 10
-69.16701419
 20
2.5307786692
 10
-69.153743466
 20
2.5196399829
 10
-69.1402006323
 20
2.5088337578
 10
-69.1263861873
 20
2.4983593832
 10
-69.1123255028
 20
2.4882361
 10
-69.0980181275
 20
2.478464554
 10
-69.0834645127
 20
2.4690440994
 10
-69.0686913833
 20
2.459992039
 10
-69.0536983336
 20
2.4513090486
 10
-69.0384857694
 20
2.4429944524
 10
-69.0230816331
 20
2.435063527
 10
-69.0074855683
 20
2.4275169761
 10
-68.9916979314
 20
2.4203540958
 10
-68.9757477338
 20
2.4135880508
 10
-68.9596346834
 20
2.4072195738
 10
-68.9433590724
 20
2.401247932
 10
-68.9269507891
 20
2.3956840916
 10
-68.9104095928
 20
2.390528801
 10
-68.8937357242
 20
2.3857813117
 10
-68.8769597943
 20
2.3814503449
 10
-68.8600815942
 20
2.3775366651
 10
-68.8431013328
 20
2.3740395077
 10
-68.826050248
 20
2.3709652994
 10
-68.8089278061
 20
2.3683148108
 10
-68.7917345408
 20
2.3660872714
 10
-68.7745032906
 20
2.3642867964
 10
-68.7572450018
 20
2.3629147575
 10
-68.7399487281
 20
2.3619697829
 10
-68.7226144696
 20
2.3614518727
  0
LINE
  5
4B9
100
AcDbEntity
  8
CURVE
100
AcDbLine
 62
252
  6
CONTINUOUS
 10
-70.6212564866
 20
10.7412840109
 11
-70.6314155725
 21
10.9854434059
  0
LINE
  5
4BA
100
AcDbEntity
  8
RACCORDO
100
AcDbLine
 62
253
  6
CONTINUOUS
 10
-70.8808615977
 20
23.0276691592
 11
-70.88086152
 21
23.6421814233
  0
LINE
  5
4BB
100
AcDbEntity
  8
CURVE
100
AcDbLine
 62
252
  6
CONTINUOUS
 10
-70.6456184425
 20
35.3348681038
 11
-70.6299923985
 21
35.7190499523
  0
LINE
  5
4BC
100
AcDbEntity
  8
CURVE
100
AcDbLine
 62
252
  6
CONTINUOUS
 10
-70.6300161961
 20
35.7184737727
 11
-70.6143173144
 21
36.0928001584
  0
LINE
  5
4BD
100
AcDbEntity
  8
CURVE
100
AcDbLine
 62
252
  6
CONTINUOUS
 10
-70.6150285536
 20
36.0760768042
 11
-70.5707388321
 21
37.0784713461
  0
LINE
  5
4BE
100
AcDbEntity
  8
CURVE
100
AcDbLine
 62
252
  6
CONTINUOUS
 10
-70.5715913578
 20
37.0598690387
 11
-70.5588708567
 21
37.3348644677
  0
LWPOLYLINE
  5
4BF
100
AcDbEntity
  8
RACCORDO
100
AcDbPolyline
 62
253
  6
CONTINUOUS
 90
10
 70
0
 10
-70.0973116625
 20
23.5002240935
 10
-70.0971697281
 20
23.4970614758
 10
-70.0970255211
 20
23.4942566099
 10
-70.0968793162
 20
23.4918148347
 10
-70.0967313916
 20
23.4897407986
 10
-70.0965820289
 20
23.4880384494
 10
-70.0964315124
 20
23.4867110277
 10
-70.0962801286
 20
23.4857610604
 10
-70.0961281658
 20
23.4851903557
 10
-70.0959759132
 20
23.485
  0
LWPOLYLINE
  5
4C0
100
AcDbEntity
  8
ASSI
100
AcDbPolyline
 62
253
  6
CONTINUOUS
 90
10
 70
0
 10
-70.0973116625
 20
23.5002240935
 10
-70.0971697281
 20
23.4970614758
 10
-70.0970255211
 20
23.4942566099
 10
-70.0968793162
 20
23.4918148347
 10
-70.0967313916
 20
23.4897407986
 10
-70.0965820289
 20
23.4880384494
 10
-70.0964315124
 20
23.4867110277
 10
-70.0962801286
 20
23.4857610604
 10
-70.0961281658
 20
23.4851903557
 10
-70.0959759132
 20
23.485
  0
LINE
  5
4C1
100
AcDbEntity
  8
RACCORDO
100
AcDbLine
 62
253
  6
CONTINUOUS
 10
-70.0975876381
 20
23.5075978334
 11
-70.0973116625
 21
23.5002240935
  0
LINE
  5
4C2
100
AcDbEntity
  8
ASSI
100
AcDbLine
 62
253
  6
CONTINUOUS
 10
-70.0975876381
 20
23.5075978334
 11
-70.0973116625
 21
23.5002240935
  0
LWPOLYLINE
  5
4C3
100
AcDbEntity
  8
RACCORDO
100
AcDbPolyline
 62
253
  6
CONTINUOUS
 90
12
 70
0
 10
-68.7264591357
 20
1.607106737
 10
-68.7261882137
 20
1.5992737458
 10
-68.7259006644
 20
1.5921634465
 10
-68.7255967606
 20
1.5857825809
 10
-68.7252767905
 20
1.5801371993
 10
-68.7249410573
 20
1.5752326547
 10
-68.7245898795
 20
1.5710735974
 10
-68.72422359
 20
1.5676639711
 10
-68.7238425362
 20
1.5650070088
 10
-68.7234470793
 20
1.5631052297
 10
-68.7230375944
 20
1.5619604372
 10
-68.7226144696
 20
1.5615737166
  0
LWPOLYLINE
  5
4C4
100
AcDbEntity
  8
ASSI
100
AcDbPolyline
 62
253
  6
CONTINUOUS
 90
12
 70
0
 10
-68.7264591357
 20
1.607106737
 10
-68.7261882137
 20
1.5992737458
 10
-68.7259006644
 20
1.5921634465
 10
-68.7255967606
 20
1.5857825809
 10
-68.7252767905
 20
1.5801371993
 10
-68.7249410573
 20
1.5752326547
 10
-68.7245898795
 20
1.5710735974
 10
-68.72422359
 20
1.5676639711
 10
-68.7238425362
 20
1.5650070088
 10
-68.7234470793
 20
1.5631052297
 10
-68.7230375944
 20
1.5619604372
 10
-68.7226144696
 20
1.5615737166
  0
LINE
  5
4C5
100
AcDbEntity
  8
RACCORDO
100
AcDbLine
 62
253
  6
CONTINUOUS
 10
-70.0978513474
 20
23.5163217108
 11
-70.0975876381
 21
23.5075978334
  0
LINE
  5
4C6
100
AcDbEntity
  8
ASSI
100
AcDbLine
 62
253
  6
CONTINUOUS
 10
-70.0978513474
 20
23.5163217108
 11
-70.0975876381
 21
23.5075978334
  0
LINE
  5
4C7
100
AcDbEntity
  8
RACCORDO
100
AcDbLine
 62
253
  6
CONTINUOUS
 10
-70.0981007835
 20
23.5263293319
 11
-70.0978513474
 21
23.5163217108
  0
LINE
  5
4C8
100
AcDbEntity
  8
ASSI
100
AcDbLine
 62
253
  6
CONTINUOUS
 10
-70.0981007835
 20
23.5263293319
 11
-70.0978513474
 21
23.5163217108
  0
LWPOLYLINE
  5
4C9
100
AcDbEntity
  8
RACCORDO
100
AcDbPolyline
 62
253
  6
CONTINUOUS
 90
3
 70
0
 10
-68.7271696501
 20
1.6348642058
 10
-68.7269500867
 20
1.6249104076
 10
-68.7264591357
 20
1.607106737
  0
LWPOLYLINE
  5
4CA
100
AcDbEntity
  8
ASSI
100
AcDbPolyline
 62
253
  6
CONTINUOUS
 90
3
 70
0
 10
-68.7271696501
 20
1.6348642058
 10
-68.7269500867
 20
1.6249104076
 10
-68.7264591357
 20
1.607106737
  0
LINE
  5
4CB
100
AcDbEntity
  8
RACCORDO
100
AcDbLine
 62
253
  6
CONTINUOUS
 10
-70.0984440561
 20
23.5435786438
 11
-70.0981007835
 21
23.5263293319
  0
LINE
  5
4CC
100
AcDbEntity
  8
ASSI
100
AcDbLine
 62
253
  6
CONTINUOUS
 10
-70.0984440561
 20
23.5435786438
 11
-70.0981007835
 21
23.5263293319
  0
LINE
  5
4CD
100
AcDbEntity
  8
RACCORDO
100
AcDbLine
 62
253
  6
CONTINUOUS
 10
-70.098835148
 20
23.5702847127
 11
-70.0984440561
 21
23.5435786438
  0
LINE
  5
4CE
100
AcDbEntity
  8
ASSI
100
AcDbLine
 62
253
  6
CONTINUOUS
 10
-70.098835148
 20
23.5702847127
 11
-70.0984440561
 21
23.5435786438
  0
LINE
  5
4CF
100
AcDbEntity
  8
RACCORDO
100
AcDbLine
 62
253
  6
CONTINUOUS
 10
-70.0992006974
 20
23.6084633135
 11
-70.098835148
 21
23.5702847127
  0
LINE
  5
4D0
100
AcDbEntity
  8
ASSI
100
AcDbLine
 62
253
  6
CONTINUOUS
 10
-70.0992006974
 20
23.6084633135
 11
-70.098835148
 21
23.5702847127
  0
LWPOLYLINE
  5
4D1
100
AcDbEntity
  8
RACCORDO
100
AcDbPolyline
 62
253
  6
CONTINUOUS
 90
18
 70
0
 10
-70.0961068689
 20
21.8746039953
 10
-70.0886268858
 20
20.7642574311
 10
-70.077026445
 20
19.6539603075
 10
-70.0613052731
 20
18.5436969226
 10
-70.0414636436
 20
17.4334829782
 10
-70.0175023767
 20
16.3233655793
 10
-69.9894213026
 20
15.2133451431
 10
-69.9572205912
 20
14.1034212524
 10
-69.9209015722
 20
12.9936397607
 10
-69.8804640756
 20
11.8840006709
 10
-69.8359082715
 20
10.7745039802
 10
-69.7872359994
 20
9.6651955337
 10
-69.7344470881
 20
8.556075329
 10
-69.6775417089
 20
7.4471433685
 10
-69.616522215
 20
6.3384455051
 10
-69.5513893909
 20
5.2299970231
 10
-69.4821424522
 20
4.1217826382
 10
-69.4087813988
 20
3.0138023504
  0
LWPOLYLINE
  5
4D2
100
AcDbEntity
  8
ASSI
100
AcDbPolyline
 62
253
  6
CONTINUOUS
 90
18
 70
0
 10
-70.0961068689
 20
21.8746039953
 10
-70.0886268858
 20
20.7642574311
 10
-70.077026445
 20
19.6539603075
 10
-70.0613052731
 20
18.5436969226
 10
-70.0414636436
 20
17.4334829782
 10
-70.0175023767
 20
16.3233655793
 10
-69.9894213026
 20
15.2133451431
 10
-69.9572205912
 20
14.1034212524
 10
-69.9209015722
 20
12.9936397607
 10
-69.8804640756
 20
11.8840006709
 10
-69.8359082715
 20
10.7745039802
 10
-69.7872359994
 20
9.6651955337
 10
-69.7344470881
 20
8.556075329
 10
-69.6775417089
 20
7.4471433685
 10
-69.616522215
 20
6.3384455051
 10
-69.5513893909
 20
5.2299970231
 10
-69.4821424522
 20
4.1217826382
 10
-69.4087813988
 20
3.0138023504
  0
LINE
  5
4D3
100
AcDbEntity
  8
RACCORDO
100
AcDbLine
 62
253
  6
CONTINUOUS
 10
-70.0994365329
 20
23.6588947616
 11
-70.0992006974
 21
23.6084633135
  0
LINE
  5
4D4
100
AcDbEntity
  8
ASSI
100
AcDbLine
 62
253
  6
CONTINUOUS
 10
-70.0994365329
 20
23.6588947616
 11
-70.0992006974
 21
23.6084633135
  0
LINE
  5
4D5
100
AcDbEntity
  8
RACCORDO
100
AcDbLine
 62
253
  6
CONTINUOUS
 10
-70.0994663944
 20
23.685
 11
-70.0994365329
 21
23.6588947616
  0
LINE
  5
4D6
100
AcDbEntity
  8
ASSI
100
AcDbLine
 62
253
  6
CONTINUOUS
 10
-70.0994663944
 20
23.685
 11
-70.0994365329
 21
23.6588947616
  0
LINE
  5
4D7
100
AcDbEntity
  8
RACCORDO
100
AcDbLine
 62
253
  6
CONTINUOUS
 10
-70.6819584858
 20
23.185
 11
-70.6819584715
 21
23.485
  0
LINE
  5
4D8
100
AcDbEntity
  8
0
100
AcDbLine
 62
7
  6
CONTINUOUS
 10
-70.4857091837
 20
23.185
 11
-70.4857091837
 21
23.485
  0
LINE
  5
4D9
100
AcDbEntity
  8
ASSI
100
AcDbLine
 62
7
  6
CONTINUOUS
 10
-70.4857091837
 20
23.185
 11
-70.4857091837
 21
23.485
  0
LINE
  5
4DA
100
AcDbEntity
  8
0
100
AcDbLine
 62
253
  6
CONTINUOUS
 10
-70.0926901462
 20
23.185
 11
-70.0926901462
 21
23.485
  0
LINE
  5
4DB
100
AcDbEntity
  8
ASSI
100
AcDbLine
 62
253
  6
CONTINUOUS
 10
-70.0926901462
 20
23.185
 11
-70.0926901462
 21
23.485
  0
LINE
  5
4DC
100
AcDbEntity
  8
RACCORDO
100
AcDbLine
 62
253
  6
CONTINUOUS
 10
-70.0961068689
 20
21.8746039953
 11
-70.0994531121
 21
23.0024311504
  0
LINE
  5
4DD
100
AcDbEntity
  8
ASSI
100
AcDbLine
 62
253
  6
CONTINUOUS
 10
-70.0961068689
 20
21.8746039953
 11
-70.0994531121
 21
23.0024311504
  0
LINE
  5
4DE
100
AcDbEntity
  8
RACCORDO
100
AcDbLine
 62
253
  6
CONTINUOUS
 10
-70.0994531121
 20
23.0024311504
 11
-70.0992558926
 21
23.0534040353
  0
LINE
  5
4DF
100
AcDbEntity
  8
ASSI
100
AcDbLine
 62
253
  6
CONTINUOUS
 10
-70.0994531121
 20
23.0024311504
 11
-70.0992558926
 21
23.0534040353
  0
LINE
  5
4E0
100
AcDbEntity
  8
RACCORDO
100
AcDbLine
 62
253
  6
CONTINUOUS
 10
-70.0992558926
 20
23.0534040353
 11
-70.0989197551
 21
23.0924599303
  0
LINE
  5
4E1
100
AcDbEntity
  8
ASSI
100
AcDbLine
 62
253
  6
CONTINUOUS
 10
-70.0992558926
 20
23.0534040353
 11
-70.0989197551
 21
23.0924599303
  0
LINE
  5
4E2
100
AcDbEntity
  8
RACCORDO
100
AcDbLine
 62
253
  6
CONTINUOUS
 10
-70.0989197551
 20
23.0924599303
 11
-70.0985493658
 21
23.1201180502
  0
LINE
  5
4E3
100
AcDbEntity
  8
ASSI
100
AcDbLine
 62
253
  6
CONTINUOUS
 10
-70.0989197551
 20
23.0924599303
 11
-70.0985493658
 21
23.1201180502
  0
LINE
  5
4E4
100
AcDbEntity
  8
RACCORDO
100
AcDbLine
 62
253
  6
CONTINUOUS
 10
-70.0985493658
 20
23.1201180502
 11
-70.0982195511
 21
23.1382088964
  0
LINE
  5
4E5
100
AcDbEntity
  8
ASSI
100
AcDbLine
 62
253
  6
CONTINUOUS
 10
-70.0985493658
 20
23.1201180502
 11
-70.0982195511
 21
23.1382088964
  0
LINE
  5
4E6
100
AcDbEntity
  8
RACCORDO
100
AcDbLine
 62
253
  6
CONTINUOUS
 10
-70.0982195511
 20
23.1382088964
 11
-70.0979779708
 21
23.1488304157
  0
LINE
  5
4E7
100
AcDbEntity
  8
ASSI
100
AcDbLine
 62
253
  6
CONTINUOUS
 10
-70.0982195511
 20
23.1382088964
 11
-70.0979779708
 21
23.1488304157
  0
LWPOLYLINE
  5
4E8
100
AcDbEntity
  8
RACCORDO
100
AcDbPolyline
 62
253
  6
CONTINUOUS
 90
14
 70
0
 10
-68.7271696502
 20
45.0351357929
 10
-68.7267131738
 20
45.0543450064
 10
-68.7264591358
 20
45.0628932622
 10
-68.7261882138
 20
45.0707262535
 10
-68.7259006645
 20
45.0778365529
 10
-68.7255967607
 20
45.0842174186
 10
-68.7252767905
 20
45.0898628003
 10
-68.7249410574
 20
45.094767345
 10
-68.7245898795
 20
45.0989264024
 10
-68.72422359
 20
45.1023360287
 10
-68.7238425362
 20
45.1049929911
 10
-68.7234470793
 20
45.1068947703
 10
-68.7230375944
 20
45.1080395628
 10
-68.7226144696
 20
45.1084262834
  0
LWPOLYLINE
  5
4E9
100
AcDbEntity
  8
ASSI
100
AcDbPolyline
 62
253
  6
CONTINUOUS
 90
14
 70
0
 10
-68.7271696502
 20
45.0351357929
 10
-68.7267131738
 20
45.0543450064
 10
-68.7264591358
 20
45.0628932622
 10
-68.7261882138
 20
45.0707262535
 10
-68.7259006645
 20
45.0778365529
 10
-68.7255967607
 20
45.0842174186
 10
-68.7252767905
 20
45.0898628003
 10
-68.7249410574
 20
45.094767345
 10
-68.7245898795
 20
45.0989264024
 10
-68.72422359
 20
45.1023360287
 10
-68.7238425362
 20
45.1049929911
 10
-68.7234470793
 20
45.1068947703
 10
-68.7230375944
 20
45.1080395628
 10
-68.7226144696
 20
45.1084262834
  0
LINE
  5
4EA
100
AcDbEntity
  8
RACCORDO
100
AcDbLine
 62
253
  6
CONTINUOUS
 10
-70.0979779708
 20
23.1488304157
 11
-70.0977211536
 21
23.1582050865
  0
LINE
  5
4EB
100
AcDbEntity
  8
ASSI
100
AcDbLine
 62
253
  6
CONTINUOUS
 10
-70.0979779708
 20
23.1488304157
 11
-70.0977211536
 21
23.1582050865
  0
LWPOLYLINE
  5
4EC
100
AcDbEntity
  8
RACCORDO
100
AcDbPolyline
 62
253
  6
CONTINUOUS
 90
12
 70
0
 10
-70.0977211536
 20
23.1582050865
 10
-70.0974510541
 20
23.1662615618
 10
-70.0973116624
 20
23.1697759103
 10
-70.0971697279
 20
23.1729385273
 10
-70.097025521
 20
23.1757433927
 10
-70.0968793161
 20
23.1781851672
 10
-70.0967313915
 20
23.1802592028
 10
-70.0965820288
 20
23.1819615515
 10
-70.0964315123
 20
23.1832889728
 10
-70.0962801286
 20
23.1842389399
 10
-70.0961281658
 20
23.1848096444
 10
-70.0959759131
 20
23.185
  0
LWPOLYLINE
  5
4ED
100
AcDbEntity
  8
ASSI
100
AcDbPolyline
 62
253
  6
CONTINUOUS
 90
12
 70
0
 10
-70.0977211536
 20
23.1582050865
 10
-70.0974510541
 20
23.1662615618
 10
-70.0973116624
 20
23.1697759103
 10
-70.0971697279
 20
23.1729385273
 10
-70.097025521
 20
23.1757433927
 10
-70.0968793161
 20
23.1781851672
 10
-70.0967313915
 20
23.1802592028
 10
-70.0965820288
 20
23.1819615515
 10
-70.0964315123
 20
23.1832889728
 10
-70.0962801286
 20
23.1842389399
 10
-70.0961281658
 20
23.1848096444
 10
-70.0959759131
 20
23.185
  0
LWPOLYLINE
  5
4EE
100
AcDbEntity
  8
RACCORDO
100
AcDbPolyline
 62
253
  6
CONTINUOUS
 90
19
 70
0
 10
-69.4087813988
 20
43.6561976496
 10
-69.4821424474
 20
42.5482174437
 10
-69.5513893828
 20
41.4400031173
 10
-69.6165222051
 20
40.3315546707
 10
-69.6775416992
 20
39.2228568117
 10
-69.73444708
 20
38.1139248323
 10
-69.7872359929
 20
37.0048046085
 10
-69.835908266
 20
35.8954961503
 10
-69.8804640711
 20
34.7859994477
 10
-69.9209015685
 20
33.676360346
 10
-69.9572205883
 20
32.5665788425
 10
-69.9894213004
 20
31.4566549399
 10
-70.017502375
 20
30.3466344918
 10
-70.0414636424
 20
29.2365170811
 10
-70.0613052724
 20
28.1263031249
 10
-70.0770264446
 20
27.0160397282
 10
-70.0886268856
 20
25.9057425926
 10
-70.0961068689
 20
24.7953960166
 10
-70.0994663944
 20
23.685
  0
LWPOLYLINE
  5
4EF
100
AcDbEntity
  8
ASSI
100
AcDbPolyline
 62
253
  6
CONTINUOUS
 90
19
 70
0
 10
-69.4087813988
 20
43.6561976496
 10
-69.4821424474
 20
42.5482174437
 10
-69.5513893828
 20
41.4400031173
 10
-69.6165222051
 20
40.3315546707
 10
-69.6775416992
 20
39.2228568117
 10
-69.73444708
 20
38.1139248323
 10
-69.7872359929
 20
37.0048046085
 10
-69.835908266
 20
35.8954961503
 10
-69.8804640711
 20
34.7859994477
 10
-69.9209015685
 20
33.676360346
 10
-69.9572205883
 20
32.5665788425
 10
-69.9894213004
 20
31.4566549399
 10
-70.017502375
 20
30.3466344918
 10
-70.0414636424
 20
29.2365170811
 10
-70.0613052724
 20
28.1263031249
 10
-70.0770264446
 20
27.0160397282
 10
-70.0886268856
 20
25.9057425926
 10
-70.0961068689
 20
24.7953960166
 10
-70.0994663944
 20
23.685
  0
LINE
  5
4F0
100
AcDbEntity
  8
RACCORDO
100
AcDbLine
 62
253
  6
CONTINUOUS
 10
-68.7275559121
 20
1.6568285465
 11
-68.7271696501
 21
1.6348642058
  0
LINE
  5
4F1
100
AcDbEntity
  8
ASSI
100
AcDbLine
 62
253
  6
CONTINUOUS
 10
-68.7275559121
 20
1.6568285465
 11
-68.7271696501
 21
1.6348642058
  0
LINE
  5
4F2
100
AcDbEntity
  8
RACCORDO
100
AcDbLine
 62
253
  6
CONTINUOUS
 10
-68.7226144696
 20
44.3085481273
 11
-68.7245898795
 21
44.4312191625
  0
LINE
  5
4F3
100
AcDbEntity
  8
ASSI
100
AcDbLine
 62
253
  6
CONTINUOUS
 10
-68.7226144696
 20
44.3085481273
 11
-68.7245898795
 21
44.4312191625
  0
LINE
  5
4F4
100
AcDbEntity
  8
RACCORDO
100
AcDbLine
 62
253
  6
CONTINUOUS
 10
-68.7245898795
 20
44.4312191625
 11
-68.7261882137
 21
44.5509878143
  0
LINE
  5
4F5
100
AcDbEntity
  8
ASSI
100
AcDbLine
 62
253
  6
CONTINUOUS
 10
-68.7245898795
 20
44.4312191625
 11
-68.7261882137
 21
44.5509878143
  0
LINE
  5
4F6
100
AcDbEntity
  8
RACCORDO
100
AcDbLine
 62
253
  6
CONTINUOUS
 10
-68.7280005231
 20
1.6947559536
 11
-68.7275559121
 21
1.6568285465
  0
LINE
  5
4F7
100
AcDbEntity
  8
ASSI
100
AcDbLine
 62
253
  6
CONTINUOUS
 10
-68.7280005231
 20
1.6947559536
 11
-68.7275559121
 21
1.6568285465
  0
LINE
  5
4F8
100
AcDbEntity
  8
RACCORDO
100
AcDbLine
 62
253
  6
CONTINUOUS
 10
-68.7261882137
 20
44.5509878143
 11
-68.7273716558
 21
44.6650203689
  0
LINE
  5
4F9
100
AcDbEntity
  8
ASSI
100
AcDbLine
 62
253
  6
CONTINUOUS
 10
-68.7261882137
 20
44.5509878143
 11
-68.7273716558
 21
44.6650203689
  0
LINE
  5
4FA
100
AcDbEntity
  8
RACCORDO
100
AcDbLine
 62
253
  6
CONTINUOUS
 10
-68.7273716558
 20
44.6650203689
 11
-68.7281122057
 21
44.7706188278
  0
LINE
  5
4FB
100
AcDbEntity
  8
ASSI
100
AcDbLine
 62
253
  6
CONTINUOUS
 10
-68.7273716558
 20
44.6650203689
 11
-68.7281122057
 21
44.7706188278
  0
LINE
  5
4FC
100
AcDbEntity
  8
RACCORDO
100
AcDbLine
 62
253
  6
CONTINUOUS
 10
-68.7282801279
 20
1.7383691712
 11
-68.7280005231
 21
1.6947559536
  0
LINE
  5
4FD
100
AcDbEntity
  8
ASSI
100
AcDbLine
 62
253
  6
CONTINUOUS
 10
-68.7282801279
 20
1.7383691712
 11
-68.7280005231
 21
1.6947559536
  0
LINE
  5
4FE
100
AcDbEntity
  8
RACCORDO
100
AcDbLine
 62
253
  6
CONTINUOUS
 10
-68.7281122057
 20
44.7706188278
 11
-68.728392342
 21
44.8652847426
  0
LINE
  5
4FF
100
AcDbEntity
  8
ASSI
100
AcDbLine
 62
253
  6
CONTINUOUS
 10
-68.7281122057
 20
44.7706188278
 11
-68.728392342
 21
44.8652847426
  0
LINE
  5
500
100
AcDbEntity
  8
RACCORDO
100
AcDbLine
 62
253
  6
CONTINUOUS
 10
-68.7283923419
 20
1.8047152544
 11
-68.7282801279
 21
1.7383691712
  0
LINE
  5
501
100
AcDbEntity
  8
ASSI
100
AcDbLine
 62
253
  6
CONTINUOUS
 10
-68.7283923419
 20
1.8047152544
 11
-68.7282801279
 21
1.7383691712
  0
LINE
  5
502
100
AcDbEntity
  8
RACCORDO
100
AcDbLine
 62
253
  6
CONTINUOUS
 10
-68.728392342
 20
44.8652847426
 11
-68.728280128
 21
44.9316308263
  0
LINE
  5
503
100
AcDbEntity
  8
ASSI
100
AcDbLine
 62
253
  6
CONTINUOUS
 10
-68.728392342
 20
44.8652847426
 11
-68.728280128
 21
44.9316308263
  0
LINE
  5
504
100
AcDbEntity
  8
RACCORDO
100
AcDbLine
 62
253
  6
CONTINUOUS
 10
-68.7281122056
 20
1.8993811687
 11
-68.7283923419
 21
1.8047152544
  0
LINE
  5
505
100
AcDbEntity
  8
ASSI
100
AcDbLine
 62
253
  6
CONTINUOUS
 10
-68.7281122056
 20
1.8993811687
 11
-68.7283923419
 21
1.8047152544
  0
LINE
  5
506
100
AcDbEntity
  8
RACCORDO
100
AcDbLine
 62
253
  6
CONTINUOUS
 10
-68.728280128
 20
44.9316308263
 11
-68.7280005232
 21
44.9752440443
  0
LINE
  5
507
100
AcDbEntity
  8
ASSI
100
AcDbLine
 62
253
  6
CONTINUOUS
 10
-68.728280128
 20
44.9316308263
 11
-68.7280005232
 21
44.9752440443
  0
LINE
  5
508
100
AcDbEntity
  8
RACCORDO
100
AcDbLine
 62
253
  6
CONTINUOUS
 10
-68.7269500867
 20
2.0497278439
 11
-68.7281122056
 21
1.8993811687
  0
LINE
  5
509
100
AcDbEntity
  8
ASSI
100
AcDbLine
 62
253
  6
CONTINUOUS
 10
-68.7269500867
 20
2.0497278439
 11
-68.7281122056
 21
1.8993811687
  0
LINE
  5
50A
100
AcDbEntity
  8
RACCORDO
100
AcDbLine
 62
253
  6
CONTINUOUS
 10
-68.7280005232
 20
44.9752440443
 11
-68.7275559122
 21
45.013171452
  0
LINE
  5
50B
100
AcDbEntity
  8
ASSI
100
AcDbLine
 62
253
  6
CONTINUOUS
 10
-68.7280005232
 20
44.9752440443
 11
-68.7275559122
 21
45.013171452
  0
LINE
  5
50C
100
AcDbEntity
  8
RACCORDO
100
AcDbLine
 62
253
  6
CONTINUOUS
 10
-68.7245898795
 20
2.2387808358
 11
-68.7269500867
 21
2.0497278439
  0
LINE
  5
50D
100
AcDbEntity
  8
ASSI
100
AcDbLine
 62
253
  6
CONTINUOUS
 10
-68.7245898795
 20
2.2387808358
 11
-68.7269500867
 21
2.0497278439
  0
LINE
  5
50E
100
AcDbEntity
  8
RACCORDO
100
AcDbLine
 62
253
  6
CONTINUOUS
 10
-68.7226144696
 20
2.3614518727
 11
-68.7245898795
 21
2.2387808358
  0
LINE
  5
50F
100
AcDbEntity
  8
ASSI
100
AcDbLine
 62
253
  6
CONTINUOUS
 10
-68.7226144696
 20
2.3614518727
 11
-68.7245898795
 21
2.2387808358
  0
LINE
  5
510
100
AcDbEntity
  8
RACCORDO
100
AcDbLine
 62
253
  6
CONTINUOUS
 10
-68.7275559122
 20
45.013171452
 11
-68.7271696502
 21
45.0351357929
  0
LINE
  5
511
100
AcDbEntity
  8
ASSI
100
AcDbLine
 62
253
  6
CONTINUOUS
 10
-68.7275559122
 20
45.013171452
 11
-68.7271696502
 21
45.0351357929
  0
LINE
  5
512
100
AcDbEntity
  8
DRAFT
100
AcDbLine
 62
7
  6
CONTINUOUS
 10
-64.3357091837
 20
22.0989626907
 11
-59.3357091837
 21
22.1164160541
  0
LINE
  5
513
100
AcDbEntity
  8
RACCORDO
100
AcDbLine
 62
253
  6
CONTINUOUS
 10
-70.0994663934
 20
22.985
 11
-70.8855046913
 21
22.9847665099
  0
LINE
  5
514
100
AcDbEntity
  8
ASSI
100
AcDbLine
 62
253
  6
CONTINUOUS
 10
-70.0994663934
 20
22.985
 11
-70.8855046913
 21
22.9847665099
  0
LINE
  5
515
100
AcDbEntity
  8
RACCORDO
100
AcDbLine
 62
253
  6
CONTINUOUS
 10
-64.3357091837
 20
22.985
 11
-70.0994663944
 21
22.985
  0
LINE
  5
516
100
AcDbEntity
  8
ASSI
100
AcDbLine
 62
253
  6
CONTINUOUS
 10
-64.3357091837
 20
22.985
 11
-70.0994663944
 21
22.985
  0
LINE
  5
517
100
AcDbEntity
  8
RACCORDO
100
AcDbLine
 62
7
  6
CONTINUOUS
 10
-64.3357091837
 20
23.185
 11
-70.6855048799
 21
23.185
  0
LINE
  5
518
100
AcDbEntity
  8
ASSI
100
AcDbLine
 62
7
  6
CONTINUOUS
 10
-64.3357091837
 20
23.185
 11
-70.6855048799
 21
23.185
  0
LINE
  5
519
100
AcDbEntity
  8
CURVE
100
AcDbLine
 62
252
  6
CONTINUOUS
 10
-64.3357091837
 20
23.335
 11
-70.8857091837
 21
23.335
  0
LINE
  5
51A
100
AcDbEntity
  8
ASSI
100
AcDbLine
 62
252
  6
CONTINUOUS
 10
-64.3357091837
 20
23.335
 11
-70.8857091837
 21
23.335
  0
LINE
  5
51B
100
AcDbEntity
  8
RACCORDO
100
AcDbLine
 62
7
  6
CONTINUOUS
 10
-70.6855048799
 20
23.485
 11
-64.3357091837
 21
23.485
  0
LINE
  5
51C
100
AcDbEntity
  8
ASSI
100
AcDbLine
 62
7
  6
CONTINUOUS
 10
-70.6855048799
 20
23.485
 11
-64.3357091837
 21
23.485
  0
LINE
  5
51D
100
AcDbEntity
  8
RACCORDO
100
AcDbLine
 62
253
  6
CONTINUOUS
 10
-70.0994663944
 20
23.685
 11
-64.3357091837
 21
23.685
  0
LINE
  5
51E
100
AcDbEntity
  8
ASSI
100
AcDbLine
 62
253
  6
CONTINUOUS
 10
-70.0994663944
 20
23.685
 11
-64.3357091837
 21
23.685
  0
LINE
  5
51F
100
AcDbEntity
  8
RACCORDO
100
AcDbLine
 62
253
  6
CONTINUOUS
 10
-70.8855046913
 20
23.6852334901
 11
-70.0994663934
 21
23.685
  0
LINE
  5
520
100
AcDbEntity
  8
ASSI
100
AcDbLine
 62
253
  6
CONTINUOUS
 10
-70.8855046913
 20
23.6852334901
 11
-70.0994663934
 21
23.685
  0
LINE
  5
521
100
AcDbEntity
  8
DRAFT
100
AcDbLine
 62
7
  6
CONTINUOUS
 10
-64.3357091837
 20
24.5710373093
 11
-59.3357091837
 21
24.5535839459
  0
LINE
  5
522
100
AcDbEntity
  8
RACCORDO
100
AcDbLine
 62
7
  6
CONTINUOUS
 10
-64.3357091837
 20
45.185
 11
-64.3357091837
 21
23.4851598825
  0
LINE
  5
523
100
AcDbEntity
  8
RACCORDO
100
AcDbLine
 62
7
  6
CONTINUOUS
 10
-64.3357091837
 20
23.185
 11
-64.3357091837
 21
1.485
  0
LINE
  5
524
100
AcDbEntity
  8
0
100
AcDbLine
 62
7
  6
CONTINUOUS
 10
-64.3357091837
 20
23.185
 11
-64.3357091837
 21
23.485
  0
LINE
  5
525
100
AcDbEntity
  8
ASSI
100
AcDbLine
 62
7
  6
CONTINUOUS
 10
-64.3357091837
 20
1.485
 11
-64.3357091837
 21
45.185
  0
LINE
  5
526
100
AcDbEntity
  8
DRAFT
100
AcDbLine
 62
7
  6
CONTINUOUS
 10
-59.3357091837
 20
24.5535839459
 11
-59.3357091837
 21
22.1164160541
  0
LINE
  5
527
100
AcDbEntity
  8
RACCORDO
100
AcDbLine
 62
253
  6
CONTINUOUS
 10
-69.4087813988
 20
43.6561976496
 11
-69.8628926184
 21
43.6872919977
  0
LINE
  5
528
100
AcDbEntity
  8
ASSI
100
AcDbLine
 62
253
  6
CONTINUOUS
 10
-69.4087813988
 20
43.6561976496
 11
-69.8628926184
 21
43.6872919977
  0
LINE
  5
529
100
AcDbEntity
  8
RACCORDO
100
AcDbLine
 62
253
  6
CONTINUOUS
 10
-69.8628926184
 20
43.6872919977
 11
-70.1796926144
 21
43.7094556284
  0
LINE
  5
52A
100
AcDbEntity
  8
ASSI
100
AcDbLine
 62
253
  6
CONTINUOUS
 10
-69.8628926184
 20
43.6872919977
 11
-70.1796926144
 21
43.7094556284
  0
LWPOLYLINE
  5
52B
100
AcDbEntity
  8
RACCORDO
100
AcDbPolyline
 62
253
  6
CONTINUOUS
 90
5
 70
0
 10
-70.1796926144
 20
43.7094556284
 10
-70.1896482902
 20
43.7102193854
 10
-70.1914956297
 20
43.7103740134
 10
-70.192603934
 20
43.7104783847
 10
-70.1929721748
 20
43.7105324027
  0
LWPOLYLINE
  5
52C
100
AcDbEntity
  8
ASSI
100
AcDbPolyline
 62
253
  6
CONTINUOUS
 90
5
 70
0
 10
-70.1796926144
 20
43.7094556284
 10
-70.1896482902
 20
43.7102193854
 10
-70.1914956297
 20
43.7103740134
 10
-70.192603934
 20
43.7104783847
 10
-70.1929721748
 20
43.7105324027
  0
LWPOLYLINE
  5
52D
100
AcDbEntity
  8
RACCORDO
100
AcDbPolyline
 62
253
  6
CONTINUOUS
 90
61
 70
0
 10
-68.7226144696
 20
44.3085481273
 10
-68.7399500804
 20
44.3080301168
 10
-68.7572473711
 20
44.3070850479
 10
-68.7745063418
 20
44.3057129208
 10
-68.7917378276
 20
44.3039123663
 10
-68.8089309933
 20
44.3016847535
 10
-68.8260533336
 20
44.2990341894
 10
-68.8431044257
 20
44.2959599003
 10
-68.8600846924
 20
44.2924626599
 10
-68.876962896
 20
44.288548897
 10
-68.8937388281
 20
44.2842178477
 10
-68.9104126973
 20
44.2794702758
 10
-68.9269538917
 20
44.274314902
 10
-68.94336217
 20
44.2687509776
 10
-68.9596377736
 20
44.2627792512
 10
-68.9757508145
 20
44.2564106893
 10
-68.9917010007
 20
44.2496445592
 10
-69.0074886242
 20
44.2424815935
 10
-69.0230846735
 20
44.2349349569
 10
-69.0384887924
 20
44.2270039453
 10
-69.0537013371
 20
44.2186892628
 10
-69.0686943649
 20
44.210006186
 10
-69.0834674702
 20
44.2009540391
 10
-69.0980210586
 20
44.1915334979
 10
-69.1123284039
 20
44.1817618665
 10
-69.1263890555
 20
44.1716384983
 10
-69.1402034639
 20
44.1611640399
 10
-69.1537462556
 20
44.1503577346
 10
-69.1670169309
 20
44.1392189725
 10
-69.1800159894
 20
44.1277483635
 10
-69.192719556
 20
44.1159669809
 10
-69.2051270872
 20
44.1038742535
 10
-69.2172391265
 20
44.0914707526
 10
-69.2290334294
 20
44.0787792644
 10
-69.240509411
 20
44.0657992607
 10
-69.2516676561
 20
44.0525312698
 10
-69.262487675
 20
44.038999663
 10
-69.2729688451
 20
44.0252039577
 10
-69.2831117888
 20
44.0111446365
 10
-69.292897884
 20
43.9968475186
 10
-69.3023264762
 20
43.9823121653
 10
-69.3113982197
 20
43.9675390153
 10
-69.3200964552
 20
43.952555204
 10
-69.3284204976
 20
43.9373603409
 10
-69.3363710319
 20
43.9219548167
 10
-69.343933454
 20
43.9063669385
 10
-69.3511070469
 20
43.8905963783
 10
-69.3578925275
 20
43.8746434642
 10
-69.3642774423
 20
43.8585374886
 10
-69.3702610563
 20
43.8422781734
 10
-69.3758441045
 20
43.8258657968
 10
-69.3810163378
 20
43.8093304853
 10
-69.3857770034
 20
43.7926719918
 10
-69.3901268541
 20
43.7758905634
 10
-69.3940578994
 20
43.7590170678
 10
-69.397569397
 20
43.7420509334
 10
-69.4006620891
 20
43.7249927317
 10
-69.4033302118
 20
43.7078750444
 10
-69.4055718436
 20
43.6907087318
 10
-69.4073889059
 20
43.6734829336
 10
-69.4087813988
 20
43.6561976496
  0
LWPOLYLINE
  5
52E
100
AcDbEntity
  8
ASSI
100
AcDbPolyline
 62
253
  6
CONTINUOUS
 90
61
 70
0
 10
-68.7226144696
 20
44.3085481273
 10
-68.7399500804
 20
44.3080301168
 10
-68.7572473711
 20
44.3070850479
 10
-68.7745063418
 20
44.3057129208
 10
-68.7917378276
 20
44.3039123663
 10
-68.8089309933
 20
44.3016847535
 10
-68.8260533336
 20
44.2990341894
 10
-68.8431044257
 20
44.2959599003
 10
-68.8600846924
 20
44.2924626599
 10
-68.876962896
 20
44.288548897
 10
-68.8937388281
 20
44.2842178477
 10
-68.9104126973
 20
44.2794702758
 10
-68.9269538917
 20
44.274314902
 10
-68.94336217
 20
44.2687509776
 10
-68.9596377736
 20
44.2627792512
 10
-68.9757508145
 20
44.2564106893
 10
-68.9917010007
 20
44.2496445592
 10
-69.0074886242
 20
44.2424815935
 10
-69.0230846735
 20
44.2349349569
 10
-69.0384887924
 20
44.2270039453
 10
-69.0537013371
 20
44.2186892628
 10
-69.0686943649
 20
44.210006186
 10
-69.0834674702
 20
44.2009540391
 10
-69.0980210586
 20
44.1915334979
 10
-69.1123284039
 20
44.1817618665
 10
-69.1263890555
 20
44.1716384983
 10
-69.1402034639
 20
44.1611640399
 10
-69.1537462556
 20
44.1503577346
 10
-69.1670169309
 20
44.1392189725
 10
-69.1800159894
 20
44.1277483635
 10
-69.192719556
 20
44.1159669809
 10
-69.2051270872
 20
44.1038742535
 10
-69.2172391265
 20
44.0914707526
 10
-69.2290334294
 20
44.0787792644
 10
-69.240509411
 20
44.0657992607
 10
-69.2516676561
 20
44.0525312698
 10
-69.262487675
 20
44.038999663
 10
-69.2729688451
 20
44.0252039577
 10
-69.2831117888
 20
44.0111446365
 10
-69.292897884
 20
43.9968475186
 10
-69.3023264762
 20
43.9823121653
 10
-69.3113982197
 20
43.9675390153
 10
-69.3200964552
 20
43.952555204
 10
-69.3284204976
 20
43.9373603409
 10
-69.3363710319
 20
43.9219548167
 10
-69.343933454
 20
43.9063669385
 10
-69.3511070469
 20
43.8905963783
 10
-69.3578925275
 20
43.8746434642
 10
-69.3642774423
 20
43.8585374886
 10
-69.3702610563
 20
43.8422781734
 10
-69.3758441045
 20
43.8258657968
 10
-69.3810163378
 20
43.8093304853
 10
-69.3857770034
 20
43.7926719918
 10
-69.3901268541
 20
43.7758905634
 10
-69.3940578994
 20
43.7590170678
 10
-69.397569397
 20
43.7420509334
 10
-69.4006620891
 20
43.7249927317
 10
-69.4033302118
 20
43.7078750444
 10
-69.4055718436
 20
43.6907087318
 10
-69.4073889059
 20
43.6734829336
 10
-69.4087813988
 20
43.6561976496
  0
LINE
  5
52F
100
AcDbEntity
  8
RACCORDO
100
AcDbLine
 62
253
  6
CONTINUOUS
 10
-64.3357091837
 20
44.3851218439
 11
-68.7226144696
 21
44.3085481273
  0
LINE
  5
530
100
AcDbEntity
  8
ASSI
100
AcDbLine
 62
253
  6
CONTINUOUS
 10
-64.3357091837
 20
44.3851218439
 11
-68.7226144696
 21
44.3085481273
  0
LINE
  5
531
100
AcDbEntity
  8
RACCORDO
100
AcDbLine
 62
7
  6
CONTINUOUS
 10
-64.3357091837
 20
45.185
 11
-68.7226144696
 21
45.1084262834
  0
LINE
  5
532
100
AcDbEntity
  8
ASSI
100
AcDbLine
 62
7
  6
CONTINUOUS
 10
-64.3357091837
 20
45.185
 11
-68.7226144696
 21
45.1084262834
  0
ARC
  5
533
100
AcDbEntity
  8
RACCORDO
100
AcDbCircle
 62
7
  6
CONTINUOUS
 10
-23.635
 20
23.335
 40
1.4
100
AcDbArc
 50
12.635625093
 51
167.364374907
  0
ARC
  5
534
100
AcDbEntity
  8
RACCORDO
100
AcDbCircle
 62
7
  6
CONTINUOUS
 10
-23.635
 20
23.335
 40
1.4
100
AcDbArc
 50
192.635625093
 51
347.364374907
  0
ARC
  5
535
100
AcDbEntity
  8
ASSI
100
AcDbCircle
 62
7
  6
CONTINUOUS
 10
-23.635
 20
23.335
 40
1.4
100
AcDbArc
 50
12.635625093
 51
167.364374907
  0
ARC
  5
536
100
AcDbEntity
  8
ASSI
100
AcDbCircle
 62
7
  6
CONTINUOUS
 10
-23.635
 20
23.335
 40
1.4
100
AcDbArc
 50
192.635625093
 51
347.364374907
  0
CIRCLE
  5
537
100
AcDbEntity
  8
0
100
AcDbCircle
 62
7
  6
CONTINUOUS
 10
-23.635
 20
23.335
 40
1.25
  0
CIRCLE
  5
538
100
AcDbEntity
  8
ASSI
100
AcDbCircle
 62
7
  6
CONTINUOUS
 10
-23.635
 20
23.335
 40
1.25
  0
CIRCLE
  5
539
100
AcDbEntity
  8
RACCORDO
100
AcDbCircle
 62
7
  6
CONTINUOUS
 10
-23.635
 20
23.335
 40
1.225
  0
CIRCLE
  5
53A
100
AcDbEntity
  8
RACCORDO
100
AcDbCircle
 62
253
  6
CONTINUOUS
 10
-23.635
 20
23.335
 40
1.0459181267
  0
ARC
  5
53B
100
AcDbEntity
  8
RACCORDO
100
AcDbCircle
 62
7
  6
CONTINUOUS
 10
-22.0737505004
 20
23.685
 40
0.2
100
AcDbArc
 50
192.635625093
 51
270.0
  0
ARC
  5
53C
100
AcDbEntity
  8
RACCORDO
100
AcDbCircle
 62
7
  6
CONTINUOUS
 10
-25.1962494996
 20
23.685
 40
0.2
100
AcDbArc
 50
270.0
 51
347.364374907
  0
ARC
  5
53D
100
AcDbEntity
  8
RACCORDO
100
AcDbCircle
 62
7
  6
CONTINUOUS
 10
-25.1962494996
 20
22.985
 40
0.2
100
AcDbArc
 50
12.635625093
 51
90.0
  0
ARC
  5
53E
100
AcDbEntity
  8
RACCORDO
100
AcDbCircle
 62
7
  6
CONTINUOUS
 10
-22.0737505004
 20
22.985
 40
0.2
100
AcDbArc
 50
90.0
 51
167.364374907
  0
ARC
  5
53F
100
AcDbEntity
  8
ASSI
100
AcDbCircle
 62
7
  6
CONTINUOUS
 10
-22.0737505004
 20
23.685
 40
0.2
100
AcDbArc
 50
192.635625093
 51
270.0
  0
ARC
  5
540
100
AcDbEntity
  8
ASSI
100
AcDbCircle
 62
7
  6
CONTINUOUS
 10
-25.1962494996
 20
23.685
 40
0.2
100
AcDbArc
 50
270.0
 51
347.364374907
  0
ARC
  5
541
100
AcDbEntity
  8
ASSI
100
AcDbCircle
 62
7
  6
CONTINUOUS
 10
-25.1962494996
 20
22.985
 40
0.2
100
AcDbArc
 50
12.635625093
 51
90.0
  0
ARC
  5
542
100
AcDbEntity
  8
ASSI
100
AcDbCircle
 62
7
  6
CONTINUOUS
 10
-22.0737505004
 20
22.985
 40
0.2
100
AcDbArc
 50
90.0
 51
167.364374907
  0
ARC
  5
543
100
AcDbEntity
  8
RACCORDO
100
AcDbCircle
 62
7
  6
CONTINUOUS
 10
-68.69643586
 20
3.0613452593
 40
1.5
100
AcDbArc
 50
183.894438081
 51
269.0
  0
ARC
  5
544
100
AcDbEntity
  8
ASSI
100
AcDbCircle
 62
7
  6
CONTINUOUS
 10
-68.69643586
 20
3.0613452593
 40
1.5
100
AcDbArc
 50
183.894438081
 51
269.0
  0
ARC
  5
545
100
AcDbEntity
  8
RACCORDO
100
AcDbCircle
 62
7
  6
CONTINUOUS
 10
-70.6855048807
 20
22.985
 40
0.2
100
AcDbArc
 50
89.9999997468
 51
180.0668898546
  0
ARC
  5
546
100
AcDbEntity
  8
ASSI
100
AcDbCircle
 62
7
  6
CONTINUOUS
 10
-70.6855048807
 20
22.985
 40
0.2
100
AcDbArc
 50
89.9999997468
 51
180.0668898546
  0
ARC
  5
547
100
AcDbEntity
  8
RACCORDO
100
AcDbCircle
 62
7
  6
CONTINUOUS
 10
-60.9357091837
 20
23.335
 40
10.0
100
AcDbArc
 50
174.1780007399
 51
185.8219992641
  0
ARC
  5
548
100
AcDbEntity
  8
RACCORDO
100
AcDbCircle
 62
7
  6
CONTINUOUS
 10
-68.69643586
 20
43.6086547407
 40
1.5
100
AcDbArc
 50
91.0
 51
176.105561919
  0
ARC
  5
549
100
AcDbEntity
  8
ASSI
100
AcDbCircle
 62
7
  6
CONTINUOUS
 10
-68.69643586
 20
43.6086547407
 40
1.5
100
AcDbArc
 50
91.0
 51
176.105561919
  0
ARC
  5
54A
100
AcDbEntity
  8
RACCORDO
100
AcDbCircle
 62
7
  6
CONTINUOUS
 10
-70.6855048335
 20
23.685
 40
0.2
100
AcDbArc
 50
179.9331101623
 51
269.9999867053
  0
ARC
  5
54B
100
AcDbEntity
  8
ASSI
100
AcDbCircle
 62
7
  6
CONTINUOUS
 10
-70.6855048335
 20
23.685
 40
0.2
100
AcDbArc
 50
179.9331101623
 51
269.9999867053
  0
ARC
  5
54C
100
AcDbEntity
  8
RACCORDO
100
AcDbCircle
 62
7
  6
CONTINUOUS
 10
229.1142908163
 20
23.335
 40
300.0
100
AcDbArc
 50
180.0668896845
 51
183.894438081
  0
ARC
  5
54D
100
AcDbEntity
  8
RACCORDO
100
AcDbCircle
 62
7
  6
CONTINUOUS
 10
229.1142908163
 20
23.335
 40
300.0
100
AcDbArc
 50
176.105561919
 51
179.9331103155
  0
ARC
  5
54E
100
AcDbEntity
  8
ASSI
100
AcDbCircle
 62
7
  6
CONTINUOUS
 10
229.1142908163
 20
23.335
 40
300.0
100
AcDbArc
 50
180.0668896845
 51
183.894438081
  0
ARC
  5
54F
100
AcDbEntity
  8
ASSI
100
AcDbCircle
 62
7
  6
CONTINUOUS
 10
229.1142908163
 20
23.335
 40
300.0
100
AcDbArc
 50
176.105561919
 51
179.9331103155
  0
ARC
  5
550
100
AcDbEntity
  8
CURVE
100
AcDbCircle
 62
252
  6
CONTINUOUS
 10
229.1142908163
 20
23.335
 40
300.0
100
AcDbArc
 50
177.9139728022
 51
178.0083588733
  0
ARC
  5
551
100
AcDbEntity
  8
CURVE
100
AcDbCircle
 62
252
  6
CONTINUOUS
 10
229.1142908163
 20
23.335
 40
300.0
100
AcDbArc
 50
182.8379476512
 51
183.0380997849
  0
ELLIPSE
  5
552
100
AcDbEntity
  8
RACCORDO
100
AcDbEllipse
 62
7
  6
CONTINUOUS
 10
-1.6850304656
 20
22.985
 30
0.0
 11
0.2000304656
 21
-0.0
 31
0.0
 40
0.9998476952
 41
0.0
 42
1.5707963268
  0
ELLIPSE
  5
553
100
AcDbEntity
  8
RACCORDO
100
AcDbEllipse
 62
7
  6
CONTINUOUS
 10
-45.5849695344
 20
23.685
 30
0.0
 11
0.2000304656
 21
0.0
 31
0.0
 40
0.9998476952
 41
-3.1415926536
 42
-1.5707963268
  0
ELLIPSE
  5
554
100
AcDbEntity
  8
RACCORDO
100
AcDbEllipse
 62
7
  6
CONTINUOUS
 10
-1.6850304656
 20
23.685
 30
0.0
 11
0.2000304656
 21
-0.0
 31
0.0
 40
0.9998476952
 41
-1.5707963268
 42
0.0
  0
ELLIPSE
  5
555
100
AcDbEntity
  8
RACCORDO
100
AcDbEllipse
 62
7
  6
CONTINUOUS
 10
-45.5849695344
 20
22.985
 30
0.0
 11
0.2000304656
 21
0.0
 31
0.0
 40
0.9998476952
 41
1.5707963268
 42
3.1415926536
  0
ELLIPSE
  5
556
100
AcDbEntity
  8
RACCORDO
100
AcDbEllipse
 62
7
  6
CONTINUOUS
 10
-44.9848781376
 20
2.2851218624
 30
0.0
 11
0.5658577513
 21
0.5658577513
 31
0.0
 40
0.9996954599
 41
2.3563467834
 42
3.9268385237
  0
ELLIPSE
  5
557
100
AcDbEntity
  8
RACCORDO
100
AcDbEllipse
 62
7
  6
CONTINUOUS
 10
-44.9848781376
 20
44.3848781376
 30
0.0
 11
-0.5658577513
 21
0.5658577513
 31
0.0
 40
0.9996954599
 41
-0.7852458701
 42
0.7852458702
  0
ELLIPSE
  5
558
100
AcDbEntity
  8
RACCORDO
100
AcDbEllipse
 62
7
  6
CONTINUOUS
 10
-2.2851218624
 20
44.3848781376
 30
0.0
 11
0.5658577513
 21
0.5658577513
 31
0.0
 40
0.9996954599
 41
-0.7852458702
 42
0.7852458701
  0
ELLIPSE
  5
559
100
AcDbEntity
  8
RACCORDO
100
AcDbEllipse
 62
7
  6
CONTINUOUS
 10
-2.2851218624
 20
2.2851218624
 30
0.0
 11
0.5658577513
 21
-0.5658577513
 31
0.0
 40
0.9996954599
 41
-0.7852458701
 42
0.7852458701
  0
ELLIPSE
  5
55A
100
AcDbEntity
  8
ASSI
100
AcDbEllipse
 62
7
  6
CONTINUOUS
 10
-1.6850304656
 20
22.985
 30
0.0
 11
0.2000304656
 21
-0.0
 31
0.0
 40
0.9998476952
 41
0.0
 42
1.5707963268
  0
ELLIPSE
  5
55B
100
AcDbEntity
  8
ASSI
100
AcDbEllipse
 62
7
  6
CONTINUOUS
 10
-45.5849695344
 20
23.685
 30
0.0
 11
0.2000304656
 21
0.0
 31
0.0
 40
0.9998476952
 41
-3.1415926536
 42
-1.5707963268
  0
ELLIPSE
  5
55C
100
AcDbEntity
  8
ASSI
100
AcDbEllipse
 62
7
  6
CONTINUOUS
 10
-1.6850304656
 20
23.685
 30
0.0
 11
0.2000304656
 21
-0.0
 31
0.0
 40
0.9998476952
 41
-1.5707963268
 42
0.0
  0
ELLIPSE
  5
55D
100
AcDbEntity
  8
ASSI
100
AcDbEllipse
 62
7
  6
CONTINUOUS
 10
-45.5849695344
 20
22.985
 30
0.0
 11
0.2000304656
 21
0.0
 31
0.0
 40
0.9998476952
 41
1.5707963268
 42
3.1415926536
  0
ELLIPSE
  5
55E
100
AcDbEntity
  8
ASSI
100
AcDbEllipse
 62
7
  6
CONTINUOUS
 10
-44.9848781376
 20
2.2851218624
 30
0.0
 11
0.5658577513
 21
0.5658577513
 31
0.0
 40
0.9996954599
 41
2.3563467834
 42
3.9268385237
  0
ELLIPSE
  5
55F
100
AcDbEntity
  8
ASSI
100
AcDbEllipse
 62
7
  6
CONTINUOUS
 10
-44.9848781376
 20
44.3848781376
 30
0.0
 11
-0.5658577513
 21
0.5658577513
 31
0.0
 40
0.9996954599
 41
-0.7852458701
 42
0.7852458702
  0
ELLIPSE
  5
560
100
AcDbEntity
  8
ASSI
100
AcDbEllipse
 62
7
  6
CONTINUOUS
 10
-2.2851218624
 20
44.3848781376
 30
0.0
 11
0.5658577513
 21
0.5658577513
 31
0.0
 40
0.9996954599
 41
-0.7852458702
 42
0.7852458701
  0
ELLIPSE
  5
561
100
AcDbEntity
  8
ASSI
100
AcDbEllipse
 62
7
  6
CONTINUOUS
 10
-2.2851218624
 20
2.2851218624
 30
0.0
 11
0.5658577513
 21
-0.5658577513
 31
0.0
 40
0.9996954599
 41
-0.7852458701
 42
0.7852458701
  0
ELLIPSE
  5
562
100
AcDbEntity
  8
CURVE
100
AcDbEllipse
 62
252
  6
CONTINUOUS
 10
229.1142908163
 20
23.335
 30
0.0
 11
300.0
 21
-0.0
 31
0.0
 40
1.0
 41
3.1031498522
 42
3.1069774259
  0
ELLIPSE
  5
563
100
AcDbEntity
  8
CURVE
100
AcDbEllipse
 62
252
  6
CONTINUOUS
 10
229.1142908163
 20
23.335
 30
0.0
 11
0.0
 21
300.0
 31
0.0
 40
1.0
 41
7.8045178718
 42
7.8057295789
  0
ENDSEC
  0
SECTION
  2
OBJECTS
  0
DICTIONARY
  5
C
100
AcDbDictionary
280
0
281
1
  3
ACAD_GROUP
350
D
  3
ACAD_MLINESTYLE
350
17
  3
ACAD_LAYOUT
350
1A
  3
ACAD_PLOTSETTINGS
350
19
  3
ACAD_PLOTSTYLENAME
350
E
  0
DICTIONARY
  5
D
102
{ACAD_REACTORS
330
C
102
}
100
AcDbDictionary
280
0
281
1
  0
ACDBDICTIONARYWDFLT
  5
E
102
{ACAD_REACTORS
330
C
102
}
100
AcDbDictionary
281
1
  3
Normal
350
F
100
AcDbDictionaryWithDefault
340
F
  0
DICTIONARY
  5
17
102
{ACAD_REACTORS
330
C
102
}
100
AcDbDictionary
280
0
281
1
  3
Standard
350
18
  0
DICTIONARY
  5
19
102
{ACAD_REACTORS
330
C
102
}
100
AcDbDictionary
281
1
  0
DICTIONARY
  5
1A
102
{ACAD_REACTORS
330
C
102
}
100
AcDbDictionary
281
1
  3
Model
350
564
  3
Layout1
350
565
  0
ACDBPLACEHOLDER
  5
F
102
{ACAD_REACTORS
330
E
102
}
  0
MLINESTYLE
  5
18
102
{ACAD_REACTORS
330
17
102
}
100
AcDbMlineStyle
  2
STANDARD
 70
0
  3

 62
256
 51
90.0
 52
90.0
 71
2
 49
0.5
 62
256
  6
BYLAYER
 49
-0.5
 62
256
  6
BYLAYER
  0
LAYOUT
  5
564
102
{ACAD_REACTORS
330
1A
102
}
100
AcDbPlotSettings
  1

  2
none_device
  4
ISO_A4_(297.00_x_210.00_MM)
  6

 40
0.0
 41
0.0
 42
0.0
 43
0.0
 44
297.0
 45
210.0
 46
0.0
 47
0.0
 48
0.0
 49
0.0
140
0.0
141
0.0
142
1.0
143
1.0
 70
1024
 72
1
 73
0
 74
0
  7

 75
0
147
1.0
148
0.0
149
0.0
100
AcDbLayout
  1
Model
 70
0
 71
0
 10
0.0
 20
0.0
 11
297.0
 21
210.0
 12
0.0
 22
0.0
 32
0.0
 14
0.0
 24
0.0
 34
0.0
 15
0.0
 25
0.0
 35
0.0
146
0.0
 13
0.0
 23
0.0
 33
0.0
 16
1.0
 26
0.0
 36
0.0
 17
0.0
 27
1.0
 37
0.0
 76
0
330
214
345
0
346
0
  0
LAYOUT
  5
565
102
{ACAD_REACTORS
330
1A
102
}
100
AcDbPlotSettings
  1

  2
none_device
  4
ISO_A4_(297.00_x_210.00_MM)
  6

 40
0.0
 41
0.0
 42
0.0
 43
0.0
 44
297.0
 45
210.0
 46
0.0
 47
0.0
 48
0.0
 49
0.0
140
0.0
141
0.0
142
1.0
143
1.0
 70
0
 72
1
 73
0
 74
0
  7

 75
0
147
1.0
148
0.0
149
0.0
100
AcDbLayout
  1
Layout1
 70
0
 71
1
 10
0.0
 20
0.0
 11
297.0
 21
210.0
 12
0.0
 22
0.0
 32
0.0
 14
0.0
 24
0.0
 34
0.0
 15
0.0
 25
0.0
 35
0.0
146
0.0
 13
0.0
 23
0.0
 33
0.0
 16
1.0
 26
0.0
 36
0.0
 17
0.0
 27
1.0
 37
0.0
 76
0
330
215
345
0
346
0
  0
ENDSEC
  0
EOF
