  0
SECTION
  2
HEADER
  9
$ACADVER
  1
AC1015
  9
$DWGCODEPAGE
  3
ANSI_1252
  9
$EXTMAX
 10
297.0
 20
210.0
 30
0.0
  9
$EXTMIN
 10
0.0
 20
0.0
 30
0.0
  9
$LIMMIN
 10
0.0
 20
0.0
  9
$LIMMAX
 10
297.0
 20
210.0
  9
$VIEWCTR
 10
148.5
 20
105.0
  9
$VIEWSIZE
 40
210.0
  9
$CLAYER
  8
0
  9
$LTSCALE
 40
16.335
  9
$CELTYPE
  6
BYLAYER
  9
$DIMSCALE
 40
1.0
  9
$DIMASZ
 40
3.0
  9
$DIMEXO
 40
1.85625
  9
$DIMDLI
 40
11.286
  9
$DIMEXE
 40
5.346
  9
$DIMCEN
 40
2.673
  9
$DIMLFAC
 40
1.0
  9
$DIMBLK
  1
_FILLED
  9
$DIMTXT
 40
3.0
  9
$DIMTOL
 70
1
  9
$DIMLIM
 70
0
  9
$DIMTFAC
 40
1.0
  9
$DIMTP
 40
0.01
  9
$DIMTM
 40
0.01
  9
$PDMODE
 70
3
  9
$PDSIZE
 40
3.0
  9
$HANDSEED
  5
6DF
  9
$TILEMODE
 70
1
  9
$MEASUREMENT
 70
1
  9
$INSUNITS
 70
4
  0
ENDSEC
  0
SECTION
  2
CLASSES
  0
CLASS
  1
ACDBDICTIONARYWDFLT
  2
AcDbDictionaryWithDefault
  3
AutoCAD 2000
 90
0
280
0
281
0
  0
CLASS
  1
ACDBPLACEHOLDER
  2
AcDbPlaceHolder
  3
AutoCAD 2000
 90
0
280
0
281
0
  0
CLASS
  1
LAYOUT
  2
AcDbLayout
  3
AutoCAD 2000
 90
0
280
0
281
0
  0
ENDSEC
  0
SECTION
  2
TABLES
  0
TABLE
  2
VPORT
  5
8
100
AcDbSymbolTable
 70
2
  0
VPORT
  5
1F4
100
AcDbSymbolTableRecord
100
AcDbViewportTableRecord
  2
*ACTIVE
 70
0
 10
0.0
 20
0.0
 11
1.0
 21
1.0
 12
148.5
 22
105.0
 13
0.0
 23
0.0
 14
1.0
 24
1.0
 15
0.0
 25
0.0
 16
0.0
 26
0.0
 36
1.0
 17
0.0
 27
0.0
 37
0.0
 40
210.0
 41
1.4142857143
 42
50.0
 43
0.0
 44
0.0
 50
0.0
 51
0.0
 71
0
 72
100
 73
1
 74
1
 75
0
 76
0
 77
0
 78
0
  0
ENDTAB
  0
TABLE
  2
LTYPE
  5
5
100
AcDbSymbolTable
 70
6
  0
LTYPE
  5
14
100
AcDbSymbolTableRecord
100
AcDbLinetypeTableRecord
  2
BYBLOCK
 70
0
  3

 72
65
 73
0
 40
0.0
  0
LTYPE
  5
15
100
AcDbSymbolTableRecord
100
AcDbLinetypeTableRecord
  2
BYLAYER
 70
0
  3

 72
65
 73
0
 40
0.0
  0
LTYPE
  5
16
100
AcDbSymbolTableRecord
100
AcDbLinetypeTableRecord
  2
CONTINUOUS
 70
64
  3
Solid line
 72
65
 73
0
 40
0.0
  0
LTYPE
  5
1F5
100
AcDbSymbolTableRecord
100
AcDbLinetypeTableRecord
  2
CENTER
 70
64
  3
____ _ ____ _ ____ _ ____ _ ____ _ ____ _ ____
 72
65
 73
4
 40
0.6
 49
0.375
 74
0
 49
-0.075
 74
0
 49
0.075
 74
0
 49
-0.075
 74
0
  0
LTYPE
  5
1F6
100
AcDbSymbolTableRecord
100
AcDbLinetypeTableRecord
  2
HIDDEN
 70
64
  3
- - - - - - - - - - - - - - - - - - - -
 72
65
 73
2
 40
0.2
 49
0.1
 74
0
 49
-0.1
 74
0
  0
LTYPE
  5
1F7
100
AcDbSymbolTableRecord
100
AcDbLinetypeTableRecord
  2
PHANTOM
 70
64
  3
_____ _ _ _____ _ _ _____ _ _ _____
 72
65
 73
6
 40
0.8
 49
0.45
 74
0
 49
-0.05
 74
0
 49
0.1
 74
0
 49
-0.05
 74
0
 49
0.1
 74
0
 49
-0.05
 74
0
  0
LTYPE
  5
1F8
100
AcDbSymbolTableRecord
100
AcDbLinetypeTableRecord
  2
DOT
 70
64
  3
. . . . . . . . . . . . . . . . . . . .
 72
65
 73
2
 40
0.2
 49
0.1
 74
0
 49
-0.1
 74
0
  0
LTYPE
  5
1F9
100
AcDbSymbolTableRecord
100
AcDbLinetypeTableRecord
  2
DASHED
 70
64
  3
- - - - - - - - - - - - - - - - - - - -
 72
65
 73
2
 40
0.2
 49
0.1
 74
0
 49
-0.1
 74
0
  0
ENDTAB
  0
TABLE
  2
LAYER
  5
2
100
AcDbSymbolTable
 70
36
  0
LAYER
  5
10
100
AcDbSymbolTableRecord
100
AcDbLayerTableRecord
  2
0
 70
0
 62
7
  6
CONTINUOUS
370
-3
390
F
  0
LAYER
  5
1FA
100
AcDbSymbolTableRecord
100
AcDbLayerTableRecord
  2
DEFAULT_1
 70
0
 62
7
  6
CENTER
370
-3
390
F
  0
LAYER
  5
1FB
100
AcDbSymbolTableRecord
100
AcDbLayerTableRecord
  2
DEFAULT_2
 70
0
 62
7
  6
HIDDEN
370
-3
390
F
  0
LAYER
  5
1FC
100
AcDbSymbolTableRecord
100
AcDbLayerTableRecord
  2
DEFAULT_3
 70
0
 62
7
  6
PHANTOM
370
-3
390
F
  0
LAYER
  5
1FD
100
AcDbSymbolTableRecord
100
AcDbLayerTableRecord
  2
201A_260000
 70
0
 62
7
  6
CONTINUOUS
370
-3
390
F
  0
LAYER
  5
1FE
100
AcDbSymbolTableRecord
100
AcDbLayerTableRecord
  2
201A_260000_1
 70
0
 62
7
  6
CONTINUOUS
370
-3
390
F
  0
LAYER
  5
1FF
100
AcDbSymbolTableRecord
100
AcDbLayerTableRecord
  2
201A_260000_2
 70
0
 62
7
  6
CONTINUOUS
370
-3
390
F
  0
LAYER
  5
200
100
AcDbSymbolTableRecord
100
AcDbLayerTableRecord
  2
2125-CC-RF-VIMAR_65000
 70
0
 62
7
  6
CONTINUOUS
370
-3
390
F
  0
LAYER
  5
201
100
AcDbSymbolTableRecord
100
AcDbLayerTableRecord
  2
2125-CC-RF-VIMAR_65000_1
 70
0
 62
7
  6
CONTINUOUS
370
-3
390
F
  0
LAYER
  5
202
100
AcDbSymbolTableRecord
100
AcDbLayerTableRecord
  2
2125-R1-RF-VIMAR_60000
 70
0
 62
7
  6
CONTINUOUS
370
-3
390
F
  0
LAYER
  5
203
100
AcDbSymbolTableRecord
100
AcDbLayerTableRecord
  2
2125-R1-RF-VIMAR_60000_1
 70
0
 62
7
  6
CONTINUOUS
370
-3
390
F
  0
LAYER
  5
204
100
AcDbSymbolTableRecord
100
AcDbLayerTableRecord
  2
2125-R1-RF-VIMAR_60000_2
 70
0
 62
7
  6
CONTINUOUS
370
-3
390
F
  0
LAYER
  5
205
100
AcDbSymbolTableRecord
100
AcDbLayerTableRecord
  2
3216-R1-RF-VIMAR_60000
 70
0
 62
7
  6
CONTINUOUS
370
-3
390
F
  0
LAYER
  5
206
100
AcDbSymbolTableRecord
100
AcDbLayerTableRecord
  2
43000463A0
 70
0
 62
7
  6
CONTINUOUS
370
-3
390
F
  0
LAYER
  5
207
100
AcDbSymbolTableRecord
100
AcDbLayerTableRecord
  2
ASSI
 70
0
 62
7
  6
CONTINUOUS
370
-3
390
F
  0
LAYER
  5
208
100
AcDbSymbolTableRecord
100
AcDbLayerTableRecord
  2
AX-D100-1-VIMAR_300000
 70
0
 62
7
  6
CONTINUOUS
370
-3
390
F
  0
LAYER
  5
209
100
AcDbSymbolTableRecord
100
AcDbLayerTableRecord
  2
AX-R5W-3-VIMAR_2200000
 70
0
 62
7
  6
CONTINUOUS
370
-3
390
F
  0
LAYER
  5
20A
100
AcDbSymbolTableRecord
100
AcDbLayerTableRecord
  2
CN-1S-HEADER-PIH-1_254000
 70
0
 62
7
  6
CONTINUOUS
370
-3
390
F
  0
LAYER
  5
20B
100
AcDbSymbolTableRecord
100
AcDbLayerTableRecord
  2
CN-CSF_CSM_2-VIMAR_1150000
 70
0
 62
7
  6
CONTINUOUS
370
-3
390
F
  0
LAYER
  5
20C
100
AcDbSymbolTableRecord
100
AcDbLayerTableRecord
  2
CN-MKDSN2-VIMAR_1500000
 70
0
 62
7
  6
CONTINUOUS
370
-3
390
F
  0
LAYER
  5
20D
100
AcDbSymbolTableRecord
100
AcDbLayerTableRecord
  2
CN1-REF_SQUAREHOLE14_SPEA-VIMAR
 70
0
 62
7
  6
CONTINUOUS
370
-3
390
F
  0
LAYER
  5
20E
100
AcDbSymbolTableRecord
100
AcDbLayerTableRecord
  2
CN1-REF_SQUAREHOLE14_SPEA-VIM_1
 70
0
 62
7
  6
CONTINUOUS
370
-3
390
F
  0
LAYER
  5
20F
100
AcDbSymbolTableRecord
100
AcDbLayerTableRecord
  2
CN1-REF_SQUAREHOLE14_SPEA-VIM_2
 70
0
 62
7
  6
CONTINUOUS
370
-3
390
F
  0
LAYER
  5
210
100
AcDbSymbolTableRecord
100
AcDbLayerTableRecord
  2
CN1-REF_SQUAREHOLE14_SPEA-VIM_3
 70
0
 62
7
  6
CONTINUOUS
370
-3
390
F
  0
LAYER
  5
211
100
AcDbSymbolTableRecord
100
AcDbLayerTableRecord
  2
COLOR5
 70
0
 62
7
  6
CONTINUOUS
370
-3
390
F
  0
LAYER
  5
212
100
AcDbSymbolTableRecord
100
AcDbLayerTableRecord
  2
COLORE_MATERIALE
 70
0
 62
7
  6
CONTINUOUS
370
-3
390
F
  0
LAYER
  5
213
100
AcDbSymbolTableRecord
100
AcDbLayerTableRecord
  2
COORDINATE
 70
0
 62
7
  6
CONTINUOUS
370
-3
390
F
  0
LAYER
  5
214
100
AcDbSymbolTableRecord
100
AcDbLayerTableRecord
  2
COORD_ORIGINE
 70
0
 62
7
  6
CONTINUOUS
370
-3
390
F
  0
LAYER
  5
215
100
AcDbSymbolTableRecord
100
AcDbLayerTableRecord
  2
COPY_PUBLISH
 70
0
 62
7
  6
CONTINUOUS
370
-3
390
F
  0
LAYER
  5
216
100
AcDbSymbolTableRecord
100
AcDbLayerTableRecord
  2
COSMETIC
 70
0
 62
7
  6
CONTINUOUS
370
-3
390
F
  0
LAYER
  5
217
100
AcDbSymbolTableRecord
100
AcDbLayerTableRecord
  2
CP-DO-214AC-D-VIMAR_240000
 70
0
 62
7
  6
CONTINUOUS
370
-3
390
F
  0
LAYER
  5
218
100
AcDbSymbolTableRecord
100
AcDbLayerTableRecord
  2
CP-DO-214AC-D-VIMAR_240000_1
 70
0
 62
7
  6
CONTINUOUS
370
-3
390
F
  0
LAYER
  5
219
100
AcDbSymbolTableRecord
100
AcDbLayerTableRecord
  2
CP-DO-214AC-D-VIMAR_240000_2
 70
0
 62
7
  6
CONTINUOUS
370
-3
390
F
  0
LAYER
  5
21A
100
AcDbSymbolTableRecord
100
AcDbLayerTableRecord
  2
CURVE
 70
0
 62
7
  6
CONTINUOUS
370
-3
390
F
  0
LAYER
  5
21B
100
AcDbSymbolTableRecord
100
AcDbLayerTableRecord
  2
DRAFT
 70
0
 62
7
  6
CONTINUOUS
370
-3
390
F
  0
LAYER
  5
21C
100
AcDbSymbolTableRecord
100
AcDbLayerTableRecord
  2
E2_MARK_10000
 70
0
 62
7
  6
CONTINUOUS
370
-3
390
F
  0
LAYER
  5
21D
100
AcDbSymbolTableRecord
100
AcDbLayerTableRecord
  2
FL-9_2X6X5_530000
 70
0
 62
7
  6
CONTINUOUS
370
-3
390
F
  0
LAYER
  5
21E
100
AcDbSymbolTableRecord
100
AcDbLayerTableRecord
  2
IGES_IMPORT
 70
0
 62
7
  6
CONTINUOUS
370
-3
390
F
  0
LAYER
  5
21F
100
AcDbSymbolTableRecord
100
AcDbLayerTableRecord
  2
IMPORT_IGES
 70
0
 62
7
  6
CONTINUOUS
370
-3
390
F
  0
LAYER
  5
220
100
AcDbSymbolTableRecord
100
AcDbLayerTableRecord
  2
INTF_GREEN
 70
0
 62
7
  6
CONTINUOUS
370
-3
390
F
  0
LAYER
  5
221
100
AcDbSymbolTableRecord
100
AcDbLayerTableRecord
  2
LOGO_RESIST-RESTYLING_10000
 70
0
 62
7
  6
CONTINUOUS
370
-3
390
F
  0
LAYER
  5
222
100
AcDbSymbolTableRecord
100
AcDbLayerTableRecord
  2
NO-PB_MARK_10000
 70
0
 62
7
  6
CONTINUOUS
370
-3
390
F
  0
LAYER
  5
223
100
AcDbSymbolTableRecord
100
AcDbLayerTableRecord
  2
NOTE
 70
0
 62
7
  6
CONTINUOUS
370
-3
390
F
  0
LAYER
  5
224
100
AcDbSymbolTableRecord
100
AcDbLayerTableRecord
  2
PIANI
 70
0
 62
7
  6
CONTINUOUS
370
-3
390
F
  0
LAYER
  5
225
100
AcDbSymbolTableRecord
100
AcDbLayerTableRecord
  2
PIANI_DI_RIFERIMENTO
 70
0
 62
7
  6
CONTINUOUS
370
-3
390
F
  0
LAYER
  5
226
100
AcDbSymbolTableRecord
100
AcDbLayerTableRecord
  2
PIANI_ORIGINE
 70
0
 62
7
  6
CONTINUOUS
370
-3
390
F
  0
LAYER
  5
227
100
AcDbSymbolTableRecord
100
AcDbLayerTableRecord
  2
PIANI_RIFERIMENTO
 70
0
 62
7
  6
CONTINUOUS
370
-3
390
F
  0
LAYER
  5
228
100
AcDbSymbolTableRecord
100
AcDbLayerTableRecord
  2
PUBLISHED_GEOMETRY
 70
0
 62
7
  6
CONTINUOUS
370
-3
390
F
  0
LAYER
  5
229
100
AcDbSymbolTableRecord
100
AcDbLayerTableRecord
  2
PUNTI
 70
0
 62
7
  6
CONTINUOUS
370
-3
390
F
  0
LAYER
  5
22A
100
AcDbSymbolTableRecord
100
AcDbLayerTableRecord
  2
RACCORDO
 70
0
 62
7
  6
CONTINUOUS
370
-3
390
F
  0
LAYER
  5
22B
100
AcDbSymbolTableRecord
100
AcDbLayerTableRecord
  2
RD-CE35-1-VIMAR_1150000
 70
0
 62
7
  6
CONTINUOUS
370
-3
390
F
  0
LAYER
  5
22C
100
AcDbSymbolTableRecord
100
AcDbLayerTableRecord
  2
RD-CE50-11-VIMAR_1250000
 70
0
 62
7
  6
CONTINUOUS
370
-3
390
F
  0
LAYER
  5
22D
100
AcDbSymbolTableRecord
100
AcDbLayerTableRecord
  2
RD-CE50-11-VIMAR_1250000_1
 70
0
 62
7
  6
CONTINUOUS
370
-3
390
F
  0
LAYER
  5
22E
100
AcDbSymbolTableRecord
100
AcDbLayerTableRecord
  2
RD-L50-4-VIMAR_950000
 70
0
 62
7
  6
CONTINUOUS
370
-3
390
F
  0
LAYER
  5
22F
100
AcDbSymbolTableRecord
100
AcDbLayerTableRecord
  2
RD-ZNR75-1-VIMAR_0
 70
0
 62
7
  6
CONTINUOUS
370
-3
390
F
  0
LAYER
  5
230
100
AcDbSymbolTableRecord
100
AcDbLayerTableRecord
  2
SMD8C-VIMAR_343000
 70
0
 62
7
  6
CONTINUOUS
370
-3
390
F
  0
LAYER
  5
231
100
AcDbSymbolTableRecord
100
AcDbLayerTableRecord
  2
SMUSSO
 70
0
 62
7
  6
CONTINUOUS
370
-3
390
F
  0
LAYER
  5
232
100
AcDbSymbolTableRecord
100
AcDbLayerTableRecord
  2
SNAPLINE
 70
0
 62
7
  6
CONTINUOUS
370
-3
390
F
  0
LAYER
  5
233
100
AcDbSymbolTableRecord
100
AcDbLayerTableRecord
  2
SUPERFICI
 70
0
 62
7
  6
CONTINUOUS
370
-3
390
F
  0
LAYER
  5
234
100
AcDbSymbolTableRecord
100
AcDbLayerTableRecord
  2
TR-29V-1-VIMAR_1400000
 70
0
 62
7
  6
CONTINUOUS
370
-3
390
F
  0
LAYER
  5
235
100
AcDbSymbolTableRecord
100
AcDbLayerTableRecord
  2
TRASH
 70
0
 62
7
  6
CONTINUOUS
370
-3
390
F
  0
LAYER
  5
236
100
AcDbSymbolTableRecord
100
AcDbLayerTableRecord
  2
XSEC_DATUMS
 70
0
 62
7
  6
CONTINUOUS
370
-3
390
F
  0
LAYER
  5
237
100
AcDbSymbolTableRecord
100
AcDbLayerTableRecord
  2
___SHELL
 70
0
 62
7
  6
CONTINUOUS
370
-3
390
F
  0
ENDTAB
  0
TABLE
  2
STYLE
  5
3
100
AcDbSymbolTable
 70
1
  0
STYLE
  5
11
100
AcDbSymbolTableRecord
100
AcDbTextStyleTableRecord
  2
STANDARD
 70
0
 40
0.0
 41
0.8
 50
0.0
 71
0
 42
0.2
  3
txt
  4

  0
STYLE
  5
238
100
AcDbSymbolTableRecord
100
AcDbTextStyleTableRecord
  2
TEXTSTYLE_1
 70
0
 40
0.0
 41
0.8
 50
0.0
 71
0
 42
0.2
  3
gdt
  4

  0
ENDTAB
  0
TABLE
  2
VIEW
  5
6
100
AcDbSymbolTable
 70
0
  0
ENDTAB
  0
TABLE
  2
UCS
  5
7
100
AcDbSymbolTable
 70
0
  0
ENDTAB
  0
TABLE
  2
APPID
  5
9
100
AcDbSymbolTable
 70
1
  0
APPID
  5
239
100
AcDbSymbolTableRecord
100
AcDbRegAppTableRecord
  2
ACAD
 70
0
  0
ENDTAB
  0
TABLE
  2
BLOCK_RECORD
  5
1
100
AcDbSymbolTable
 70
0
  0
BLOCK_RECORD
  5
23A
100
AcDbSymbolTableRecord
100
AcDbBlockTableRecord
  2
*Model_Space
  0
BLOCK_RECORD
  5
23B
100
AcDbSymbolTableRecord
100
AcDbBlockTableRecord
  2
*Paper_Space
  0
BLOCK_RECORD
  5
23C
100
AcDbSymbolTableRecord
100
AcDbBlockTableRecord
  2
_FILLED
  0
BLOCK_RECORD
  5
23D
100
AcDbSymbolTableRecord
100
AcDbBlockTableRecord
  2
*D0
  0
BLOCK_RECORD
  5
23E
100
AcDbSymbolTableRecord
100
AcDbBlockTableRecord
  2
*D1
  0
BLOCK_RECORD
  5
23F
100
AcDbSymbolTableRecord
100
AcDbBlockTableRecord
  2
*D2
  0
BLOCK_RECORD
  5
240
100
AcDbSymbolTableRecord
100
AcDbBlockTableRecord
  2
*D3
  0
ENDTAB
  0
TABLE
  2
DIMSTYLE
  5
A
100
AcDbSymbolTable
 70
1
100
AcDbDimStyleTable
 71
0
  0
DIMSTYLE
105
241
100
AcDbSymbolTableRecord
100
AcDbDimStyleTableRecord
  2
STANDARD
 70
0
  3

  4

 40
1.0
 41
3.0
 42
0.0625
 43
0.38
 44
0.18
 45
0.0
 46
0.0
 47
0.01
 48
0.01
140
3.0
141
0.09
142
0.0
143
25.4
144
1.0
145
0.0
146
1.0
147
0.09
 71
1.0
 72
0.0
 73
0
 74
0
 75
0
 76
0
 77
1
 78
8
170
0
171
2
172
0
173
0
174
0
175
0
176
0
177
0
178
0
270
2
271
2
272
2
273
2
274
2
275
0
280
0
281
0
282
0
283
1
284
8
285
0
286
0
287
3
288
0
340
11
341
23C
342
23C
343
23C
344
23C
  0
DIMSTYLE
105
242
100
AcDbSymbolTableRecord
100
AcDbDimStyleTableRecord
  2
DIMSTYLE_1
 70
0
  3

  4

 40
1.0
 41
3.0
 42
0.0625
 43
0.38
 44
0.18
 45
0.0
 46
0.0
 47
0.0
 48
0.0
140
3.0
141
0.09
142
0.0
143
25.4
144
1.0
145
0.0
146
1.0
147
0.09
 71
0.0
 72
0.0
 73
0
 74
0
 75
0
 76
0
 77
1
 78
8
170
0
171
2
172
0
173
0
174
0
175
0
176
0
177
0
178
0
270
2
271
2
272
2
273
2
274
2
275
0
280
0
281
0
282
0
283
1
284
8
285
0
286
0
287
3
288
0
340
11
341
23C
342
23C
343
23C
344
23C
  0
ENDTAB
  0
ENDSEC
  0
SECTION
  2
BLOCKS
  0
BLOCK
  5
20
100
AcDbEntity
  8
0
100
AcDbBlockBegin
  2
*Model_Space
 70
0
 10
0.0
 20
0.0
 30
0.0
  3
*Model_Space
  1

  0
ENDBLK
  5
21
100
AcDbEntity
  8
0
100
AcDbBlockEnd
  0
BLOCK
  5
1C
100
AcDbEntity
  8
0
100
AcDbBlockBegin
  2
*Paper_Space
 70
0
 10
0.0
 20
0.0
 30
0.0
  3
*Paper_Space
  1

  0
ENDBLK
  5
1D
100
AcDbEntity
  8
0
100
AcDbBlockEnd
  0
BLOCK
  5
243
100
AcDbEntity
  8
0
100
AcDbBlockBegin
  2
_FILLED
 70
64
 10
0.0
 20
0.0
  3
_FILLED
  1

  0
SOLID
  5
244
100
AcDbEntity
  8
0
  6
BYBLOCK
 62
0
100
AcDbTrace
 10
0.0
 20
0.0
 11
-1.0
 21
0.3166666667
 12
-1.0
 22
-0.3166666667
 13
-1.0
 23
-0.3166666667
  0
ENDBLK
  5
245
100
AcDbEntity
  8
0
  6
BYBLOCK
 62
0
100
AcDbBlockEnd
  0
BLOCK
  5
246
100
AcDbEntity
  8
0
100
AcDbBlockBegin
 62
7
  6
CONTINUOUS
  2
*D0
 70
65
 10
0.0
 20
0.0
  3
*D0
  1

  0
MTEXT
  5
247
100
AcDbEntity
  8
0
100
AcDbMText
 62
7
  6
CONTINUOUS
  7
STANDARD
 71
2
 72
1
 10
-52.913362465
 20
46.75
 30
0.0
 11
1.0
 21
0.0
 31
0.0
 44
0.9
  1
49,5
 40
3.0
 41
8.5714285714
  0
LINE
  5
248
100
AcDbEntity
  8
0
100
AcDbLine
 62
7
  6
CONTINUOUS
 10
-28.163362465
 20
2.3909141526
 11
-28.163362465
 21
44.5
  0
LINE
  5
249
100
AcDbEntity
  8
0
100
AcDbLine
 62
7
  6
CONTINUOUS
 10
-77.663362465
 20
0.5
 11
-77.663362465
 21
44.5
  0
LINE
  5
24A
100
AcDbEntity
  8
0
100
AcDbLine
 62
7
  6
CONTINUOUS
 10
-28.163362465
 20
43.0
 11
-52.913362465
 21
43.0
  0
LINE
  5
24B
100
AcDbEntity
  8
0
100
AcDbLine
 62
7
  6
CONTINUOUS
 10
-77.663362465
 20
43.0
 11
-52.913362465
 21
43.0
  0
INSERT
  5
24C
100
AcDbEntity
  8
0
100
AcDbBlockReference
 62
7
  6
CONTINUOUS
  2
_FILLED
 10
-28.163362465
 20
43.0
 41
3.0
 42
3.0
 43
3.0
  0
INSERT
  5
24D
100
AcDbEntity
  8
0
100
AcDbBlockReference
 62
7
  6
CONTINUOUS
  2
_FILLED
 10
-77.663362465
 20
43.0
 41
3.0
 42
3.0
 43
3.0
 50
180.0
  0
ENDBLK
  5
24E
100
AcDbEntity
  8
0
  6
BYBLOCK
 62
0
100
AcDbBlockEnd
  0
BLOCK
  5
24F
100
AcDbEntity
  8
0
100
AcDbBlockBegin
 62
7
  6
CONTINUOUS
  2
*D1
 70
65
 10
0.0
 20
0.0
  3
*D1
  1

  0
MTEXT
  5
250
100
AcDbEntity
  8
0
100
AcDbMText
 62
7
  6
CONTINUOUS
  7
STANDARD
 71
2
 72
1
 10
-47.663362465
 20
36.75
 30
0.0
 11
1.0
 21
0.0
 31
0.0
 44
0.9
  1
39
 40
3.0
 41
4.5
  0
LINE
  5
251
100
AcDbEntity
  8
0
100
AcDbLine
 62
7
  6
CONTINUOUS
 10
-28.163362465
 20
2.3909141526
 11
-28.163362465
 21
34.5
  0
LINE
  5
252
100
AcDbEntity
  8
0
100
AcDbLine
 62
7
  6
CONTINUOUS
 10
-67.163362465
 20
24.7456323968
 11
-67.163362465
 21
34.5
  0
LINE
  5
253
100
AcDbEntity
  8
0
100
AcDbLine
 62
7
  6
CONTINUOUS
 10
-28.163362465
 20
33.0
 11
-47.663362465
 21
33.0
  0
LINE
  5
254
100
AcDbEntity
  8
0
100
AcDbLine
 62
7
  6
CONTINUOUS
 10
-67.163362465
 20
33.0
 11
-47.663362465
 21
33.0
  0
INSERT
  5
255
100
AcDbEntity
  8
0
100
AcDbBlockReference
 62
7
  6
CONTINUOUS
  2
_FILLED
 10
-28.163362465
 20
33.0
 41
3.0
 42
3.0
 43
3.0
  0
INSERT
  5
256
100
AcDbEntity
  8
0
100
AcDbBlockReference
 62
7
  6
CONTINUOUS
  2
_FILLED
 10
-67.163362465
 20
33.0
 41
3.0
 42
3.0
 43
3.0
 50
180.0
  0
ENDBLK
  5
257
100
AcDbEntity
  8
0
  6
BYBLOCK
 62
0
100
AcDbBlockEnd
  0
BLOCK
  5
258
100
AcDbEntity
  8
0
100
AcDbBlockBegin
 62
7
  6
CONTINUOUS
  2
*D2
 70
65
 10
0.0
 20
0.0
  3
*D2
  1

  0
MTEXT
  5
259
100
AcDbEntity
  8
0
100
AcDbMText
 62
7
  6
CONTINUOUS
  7
STANDARD
 71
2
 72
1
 10
-0.0
 20
36.75
 30
0.0
 11
1.0
 21
0.0
 31
0.0
 44
0.9
  1
22,3
 40
3.0
 41
8.5714285714
  0
LINE
  5
25A
100
AcDbEntity
  8
0
100
AcDbLine
 62
7
  6
CONTINUOUS
 10
11.15
 20
22.3911779406
 11
11.15
 21
34.5
  0
LINE
  5
25B
100
AcDbEntity
  8
0
100
AcDbLine
 62
7
  6
CONTINUOUS
 10
-11.15
 20
22.3911779406
 11
-11.15
 21
34.5
  0
LINE
  5
25C
100
AcDbEntity
  8
0
100
AcDbLine
 62
7
  6
CONTINUOUS
 10
11.15
 20
33.0
 11
-0.0
 21
33.0
  0
LINE
  5
25D
100
AcDbEntity
  8
0
100
AcDbLine
 62
7
  6
CONTINUOUS
 10
-11.15
 20
33.0
 11
-0.0
 21
33.0
  0
INSERT
  5
25E
100
AcDbEntity
  8
0
100
AcDbBlockReference
 62
7
  6
CONTINUOUS
  2
_FILLED
 10
11.15
 20
33.0
 41
3.0
 42
3.0
 43
3.0
  0
INSERT
  5
25F
100
AcDbEntity
  8
0
100
AcDbBlockReference
 62
7
  6
CONTINUOUS
  2
_FILLED
 10
-11.15
 20
33.0
 41
3.0
 42
3.0
 43
3.0
 50
180.0
  0
ENDBLK
  5
260
100
AcDbEntity
  8
0
  6
BYBLOCK
 62
0
100
AcDbBlockEnd
  0
BLOCK
  5
261
100
AcDbEntity
  8
0
100
AcDbBlockBegin
 62
7
  6
CONTINUOUS
  2
*D3
 70
65
 10
0.0
 20
0.0
  3
*D3
  1

  0
MTEXT
  5
262
100
AcDbEntity
  8
0
100
AcDbMText
 62
7
  6
CONTINUOUS
  7
STANDARD
 71
2
 72
1
 10
15.4
 20
0.0
 30
0.0
 11
0.0
 21
1.0
 31
0.0
 44
0.9
  1
49
 40
3.0
 41
4.7142857143
  0
LINE
  5
263
100
AcDbEntity
  8
0
100
AcDbLine
 62
7
  6
CONTINUOUS
 10
10.9000042308
 20
-24.5
 11
20.65
 21
-24.5
  0
LINE
  5
264
100
AcDbEntity
  8
0
100
AcDbLine
 62
7
  6
CONTINUOUS
 10
8.9999957692
 20
24.5
 11
20.65
 21
24.5
  0
LINE
  5
265
100
AcDbEntity
  8
0
100
AcDbLine
 62
7
  6
CONTINUOUS
 10
19.15
 20
-24.5
 11
19.15
 21
0.0
  0
LINE
  5
266
100
AcDbEntity
  8
0
100
AcDbLine
 62
7
  6
CONTINUOUS
 10
19.15
 20
24.5
 11
19.15
 21
0.0
  0
INSERT
  5
267
100
AcDbEntity
  8
0
100
AcDbBlockReference
 62
7
  6
CONTINUOUS
  2
_FILLED
 10
19.15
 20
-24.5
 41
3.0
 42
3.0
 43
3.0
 50
270.0
  0
INSERT
  5
268
100
AcDbEntity
  8
0
100
AcDbBlockReference
 62
7
  6
CONTINUOUS
  2
_FILLED
 10
19.15
 20
24.5
 41
3.0
 42
3.0
 43
3.0
 50
90.0
  0
ENDBLK
  5
269
100
AcDbEntity
  8
0
  6
BYBLOCK
 62
0
100
AcDbBlockEnd
  0
ENDSEC
  0
SECTION
  2
ENTITIES
  0
DIMENSION
  5
26A
100
AcDbEntity
  8
0
100
AcDbDimension
 62
7
  6
CONTINUOUS
  2
*D0
 10
-77.663362465
 20
43.0
 11
-57.1990767507
 21
45.25
 70
160
 71
2
 42
49.5
  3
DIMSTYLE_1
100
AcDbAlignedDimension
 13
-28.163362465
 23
2.3909141526
 14
-77.663362465
 24
0.5
 50
180.0
100
AcDbRotatedDimension
  0
DIMENSION
  5
26B
100
AcDbEntity
  8
0
100
AcDbDimension
 62
7
  6
CONTINUOUS
  2
*D1
 10
-67.163362465
 20
33.0
 11
-49.913362465
 21
35.25
 70
160
 71
2
 42
39.0
  3
DIMSTYLE_1
100
AcDbAlignedDimension
 13
-28.163362465
 23
2.3909141526
 14
-67.163362465
 24
24.7456323968
 50
180.0
100
AcDbRotatedDimension
  0
DIMENSION
  5
26C
100
AcDbEntity
  8
0
100
AcDbDimension
 62
7
  6
CONTINUOUS
  2
*D2
 10
-11.15
 20
33.0
 11
-4.2857142857
 21
35.25
 70
160
 71
2
 42
22.3
  3
DIMSTYLE_1
100
AcDbAlignedDimension
 13
11.15
 23
22.3911779406
 14
-11.15
 24
22.3911779406
 50
180.0
100
AcDbRotatedDimension
  0
DIMENSION
  5
26D
100
AcDbEntity
  8
0
100
AcDbDimension
 62
7
  6
CONTINUOUS
  2
*D3
 10
19.15
 20
24.5
 11
17.9561735237
 21
-2.1072778499
 70
160
 71
2
 42
49.0
  3
DIMSTYLE_1
100
AcDbAlignedDimension
 13
10.9000042308
 23
-24.5
 14
8.9999957692
 24
24.5
 50
90.0
100
AcDbRotatedDimension
  0
LINE
  5
26E
100
AcDbEntity
  8
RACCORDO
100
AcDbLine
 62
253
  6
CONTINUOUS
 10
-11.1325830976
 20
21.8998857286
 11
-11.15
 21
21.8911779406
  0
LINE
  5
26F
100
AcDbEntity
  8
ASSI
100
AcDbLine
 62
253
  6
CONTINUOUS
 10
-11.1325830976
 20
21.8998857286
 11
-11.15
 21
21.8911779406
  0
LINE
  5
270
100
AcDbEntity
  8
RACCORDO
100
AcDbLine
 62
7
  6
CONTINUOUS
 10
10.4000042308
 20
-24.5
 11
8.4999957692
 21
-24.5
  0
LINE
  5
271
100
AcDbEntity
  8
ASSI
100
AcDbLine
 62
7
  6
CONTINUOUS
 10
10.4000042308
 20
-24.5
 11
8.4999957692
 21
-24.5
  0
LINE
  5
272
100
AcDbEntity
  8
RACCORDO
100
AcDbLine
 62
7
  6
CONTINUOUS
 10
-8.4999957692
 20
-24.5
 11
-10.4000042308
 21
-24.5
  0
LINE
  5
273
100
AcDbEntity
  8
ASSI
100
AcDbLine
 62
7
  6
CONTINUOUS
 10
-8.4999957692
 20
-24.5
 11
-10.4000042308
 21
-24.5
  0
LINE
  5
274
100
AcDbEntity
  8
RACCORDO
100
AcDbLine
 62
253
  6
CONTINUOUS
 10
-10.3869056521
 20
-24.4869014213
 11
-8.5130943479
 21
-24.4869014213
  0
LINE
  5
275
100
AcDbEntity
  8
ASSI
100
AcDbLine
 62
7
  6
CONTINUOUS
 10
-10.3869056521
 20
-24.4869014213
 11
-8.5130943479
 21
-24.4869014213
  0
LINE
  5
276
100
AcDbEntity
  8
RACCORDO
100
AcDbLine
 62
253
  6
CONTINUOUS
 10
8.5130943479
 20
-24.4869014213
 11
10.3869056521
 21
-24.4869014213
  0
LINE
  5
277
100
AcDbEntity
  8
ASSI
100
AcDbLine
 62
7
  6
CONTINUOUS
 10
8.5130943479
 20
-24.4869014213
 11
10.3869056521
 21
-24.4869014213
  0
LINE
  5
278
100
AcDbEntity
  8
RACCORDO
100
AcDbLine
 62
253
  6
CONTINUOUS
 10
8.2630985787
 20
-24.2369056521
 11
10.6369014213
 21
-24.2369056521
  0
LINE
  5
279
100
AcDbEntity
  8
ASSI
100
AcDbLine
 62
253
  6
CONTINUOUS
 10
8.2630985787
 20
-24.2369056521
 11
10.6369014213
 21
-24.2369056521
  0
LINE
  5
27A
100
AcDbEntity
  8
RACCORDO
100
AcDbLine
 62
253
  6
CONTINUOUS
 10
-8.2630985787
 20
-24.2369056521
 11
-10.6369014213
 21
-24.2369056521
  0
LINE
  5
27B
100
AcDbEntity
  8
ASSI
100
AcDbLine
 62
253
  6
CONTINUOUS
 10
-8.2630985787
 20
-24.2369056521
 11
-10.6369014213
 21
-24.2369056521
  0
LINE
  5
27C
100
AcDbEntity
  8
RACCORDO
100
AcDbLine
 62
253
  6
CONTINUOUS
 10
8.2630985787
 20
-23.8443375673
 11
10.6369014213
 21
-23.8443375673
  0
LINE
  5
27D
100
AcDbEntity
  8
ASSI
100
AcDbLine
 62
253
  6
CONTINUOUS
 10
8.2630985787
 20
-23.8443375673
 11
10.6369014213
 21
-23.8443375673
  0
LINE
  5
27E
100
AcDbEntity
  8
RACCORDO
100
AcDbLine
 62
253
  6
CONTINUOUS
 10
-8.2630985787
 20
-23.8443375673
 11
-10.6369014213
 21
-23.8443375673
  0
LINE
  5
27F
100
AcDbEntity
  8
ASSI
100
AcDbLine
 62
253
  6
CONTINUOUS
 10
-8.2630985787
 20
-23.8443375673
 11
-10.6369014213
 21
-23.8443375673
  0
LINE
  5
280
100
AcDbEntity
  8
RACCORDO
100
AcDbLine
 62
253
  6
CONTINUOUS
 10
-4.2962073137
 20
-23.7953389668
 11
4.2962073137
 21
-23.7953389668
  0
LINE
  5
281
100
AcDbEntity
  8
ASSI
100
AcDbLine
 62
7
  6
CONTINUOUS
 10
-4.2962073137
 20
-23.7953389668
 11
4.2962073137
 21
-23.7953389668
  0
LINE
  5
282
100
AcDbEntity
  8
RACCORDO
100
AcDbLine
 62
253
  6
CONTINUOUS
 10
10.3869056521
 20
-23.6278312164
 11
8.5130943479
 21
-23.6278312164
  0
LINE
  5
283
100
AcDbEntity
  8
ASSI
100
AcDbLine
 62
253
  6
CONTINUOUS
 10
10.3869056521
 20
-23.6278312164
 11
8.5130943479
 21
-23.6278312164
  0
LINE
  5
284
100
AcDbEntity
  8
RACCORDO
100
AcDbLine
 62
253
  6
CONTINUOUS
 10
-8.5130943479
 20
-23.6278312164
 11
-10.3869056521
 21
-23.6278312164
  0
LINE
  5
285
100
AcDbEntity
  8
ASSI
100
AcDbLine
 62
253
  6
CONTINUOUS
 10
-8.5130943479
 20
-23.6278312164
 11
-10.3869056521
 21
-23.6278312164
  0
LINE
  5
286
100
AcDbEntity
  8
RACCORDO
100
AcDbLine
 62
253
  6
CONTINUOUS
 10
-3.8970826234
 20
-23.5953423515
 11
3.8970826234
 21
-23.5953423515
  0
LINE
  5
287
100
AcDbEntity
  8
ASSI
100
AcDbLine
 62
253
  6
CONTINUOUS
 10
-3.8970826234
 20
-23.5953423515
 11
3.8970826234
 21
-23.5953423515
  0
LINE
  5
288
100
AcDbEntity
  8
RACCORDO
100
AcDbLine
 62
253
  6
CONTINUOUS
 10
-11.15
 20
-21.8911779406
 11
-11.1325830976
 21
-21.8998857286
  0
LINE
  5
289
100
AcDbEntity
  8
ASSI
100
AcDbLine
 62
253
  6
CONTINUOUS
 10
-11.15
 20
-21.8911779406
 11
-11.1325830976
 21
-21.8998857286
  0
LINE
  5
28A
100
AcDbEntity
  8
RACCORDO
100
AcDbLine
 62
253
  6
CONTINUOUS
 10
-8.4999957692
 20
24.5
 11
-8.5130943479
 21
24.4869014213
  0
LINE
  5
28B
100
AcDbEntity
  8
ASSI
100
AcDbLine
 62
253
  6
CONTINUOUS
 10
-8.4999957692
 20
24.5
 11
-8.5130943479
 21
24.4869014213
  0
LINE
  5
28C
100
AcDbEntity
  8
RACCORDO
100
AcDbLine
 62
253
  6
CONTINUOUS
 10
-8.25
 20
24.2500042308
 11
-8.2630985787
 21
24.2369056521
  0
LINE
  5
28D
100
AcDbEntity
  8
ASSI
100
AcDbLine
 62
253
  6
CONTINUOUS
 10
-8.25
 20
24.2500042308
 11
-8.2630985787
 21
24.2369056521
  0
LINE
  5
28E
100
AcDbEntity
  8
RACCORDO
100
AcDbLine
 62
7
  6
CONTINUOUS
 10
10.3927234819
 20
-23.1226497308
 11
8.5072765181
 21
-23.1226497308
  0
LINE
  5
28F
100
AcDbEntity
  8
ASSI
100
AcDbLine
 62
7
  6
CONTINUOUS
 10
10.3927234819
 20
-23.1226497308
 11
8.5072765181
 21
-23.1226497308
  0
LINE
  5
290
100
AcDbEntity
  8
RACCORDO
100
AcDbLine
 62
7
  6
CONTINUOUS
 10
-8.5072765181
 20
-23.1226497308
 11
-10.3927234819
 21
-23.1226497308
  0
LINE
  5
291
100
AcDbEntity
  8
ASSI
100
AcDbLine
 62
7
  6
CONTINUOUS
 10
-8.5072765181
 20
-23.1226497308
 11
-10.3927234819
 21
-23.1226497308
  0
LINE
  5
292
100
AcDbEntity
  8
DRAFT
100
AcDbLine
 62
7
  6
CONTINUOUS
 10
-8.25
 20
-22.4
 11
-4.4
 21
-22.4
  0
LINE
  5
293
100
AcDbEntity
  8
ASSI
100
AcDbLine
 62
7
  6
CONTINUOUS
 10
-8.25
 20
-22.4
 11
-4.4
 21
-22.4
  0
LINE
  5
294
100
AcDbEntity
  8
DRAFT
100
AcDbLine
 62
7
  6
CONTINUOUS
 10
4.4
 20
-22.4
 11
8.25
 21
-22.4
  0
LINE
  5
295
100
AcDbEntity
  8
ASSI
100
AcDbLine
 62
7
  6
CONTINUOUS
 10
4.4
 20
-22.4
 11
8.25
 21
-22.4
  0
LINE
  5
296
100
AcDbEntity
  8
RACCORDO
100
AcDbLine
 62
7
  6
CONTINUOUS
 10
-3.8970826234
 20
-22.3475922207
 11
3.8970826234
 21
-22.3475922207
  0
LINE
  5
297
100
AcDbEntity
  8
ASSI
100
AcDbLine
 62
7
  6
CONTINUOUS
 10
-3.8970826234
 20
-22.3475922207
 11
3.8970826234
 21
-22.3475922207
  0
LINE
  5
298
100
AcDbEntity
  8
RACCORDO
100
AcDbLine
 62
7
  6
CONTINUOUS
 10
10.3927234819
 20
-22.3213883311
 11
8.5072765181
 21
-22.3213883311
  0
LINE
  5
299
100
AcDbEntity
  8
ASSI
100
AcDbLine
 62
7
  6
CONTINUOUS
 10
10.3927234819
 20
-22.3213883311
 11
8.5072765181
 21
-22.3213883311
  0
LINE
  5
29A
100
AcDbEntity
  8
RACCORDO
100
AcDbLine
 62
7
  6
CONTINUOUS
 10
-8.5072765181
 20
-22.3213883311
 11
-10.3927234819
 21
-22.3213883311
  0
LINE
  5
29B
100
AcDbEntity
  8
ASSI
100
AcDbLine
 62
7
  6
CONTINUOUS
 10
-8.5072765181
 20
-22.3213883311
 11
-10.3927234819
 21
-22.3213883311
  0
LINE
  5
29C
100
AcDbEntity
  8
RACCORDO
100
AcDbLine
 62
253
  6
CONTINUOUS
 10
10.4992759622
 20
-21.998725222
 11
-10.4992759622
 21
-21.998725222
  0
LINE
  5
29D
100
AcDbEntity
  8
ASSI
100
AcDbLine
 62
253
  6
CONTINUOUS
 10
10.4992759622
 20
-21.998725222
 11
-10.4992759622
 21
-21.998725222
  0
LINE
  5
29E
100
AcDbEntity
  8
RACCORDO
100
AcDbLine
 62
253
  6
CONTINUOUS
 10
-8.4999957692
 20
-24.5
 11
-8.5130943479
 21
-24.4869014213
  0
LINE
  5
29F
100
AcDbEntity
  8
ASSI
100
AcDbLine
 62
253
  6
CONTINUOUS
 10
-8.4999957692
 20
-24.5
 11
-8.5130943479
 21
-24.4869014213
  0
LINE
  5
2A0
100
AcDbEntity
  8
RACCORDO
100
AcDbLine
 62
253
  6
CONTINUOUS
 10
-8.25
 20
-24.2500042308
 11
-8.2630985787
 21
-24.2369056521
  0
LINE
  5
2A1
100
AcDbEntity
  8
ASSI
100
AcDbLine
 62
253
  6
CONTINUOUS
 10
-8.25
 20
-24.2500042308
 11
-8.2630985787
 21
-24.2369056521
  0
LINE
  5
2A2
100
AcDbEntity
  8
RACCORDO
100
AcDbLine
 62
253
  6
CONTINUOUS
 10
10.4827491915
 20
-20.5624683248
 11
-10.4827491915
 21
-20.5624683248
  0
LINE
  5
2A3
100
AcDbEntity
  8
ASSI
100
AcDbLine
 62
253
  6
CONTINUOUS
 10
10.4827491915
 20
-20.5624683248
 11
-10.4827491915
 21
-20.5624683248
  0
LINE
  5
2A4
100
AcDbEntity
  8
CURVE
100
AcDbLine
 62
253
  6
CONTINUOUS
 10
4.85
 20
-17.75
 11
8.35
 21
-17.75
  0
LINE
  5
2A5
100
AcDbEntity
  8
CURVE
100
AcDbLine
 62
253
  6
CONTINUOUS
 10
7.9
 20
-17.16
 11
6.7
 21
-17.16
  0
LINE
  5
2A6
100
AcDbEntity
  8
CURVE
100
AcDbLine
 62
253
  6
CONTINUOUS
 10
7.9
 20
-16.58
 11
6.7
 21
-16.58
  0
LINE
  5
2A7
100
AcDbEntity
  8
CURVE
100
AcDbLine
 62
253
  6
CONTINUOUS
 10
8.35
 20
-14.25
 11
4.85
 21
-14.25
  0
LINE
  5
2A8
100
AcDbEntity
  8
RACCORDO
100
AcDbLine
 62
253
  6
CONTINUOUS
 10
-10.6369014213
 20
-23.8443375673
 11
-10.6427192511
 21
-23.2669872981
  0
LINE
  5
2A9
100
AcDbEntity
  8
ASSI
100
AcDbLine
 62
253
  6
CONTINUOUS
 10
-10.6369014213
 20
-23.8443375673
 11
-10.6427192511
 21
-23.2669872981
  0
LINE
  5
2AA
100
AcDbEntity
  8
RACCORDO
100
AcDbLine
 62
7
  6
CONTINUOUS
 10
-11.15
 20
-21.8911779406
 11
-11.15
 21
21.8911779406
  0
LINE
  5
2AB
100
AcDbEntity
  8
ASSI
100
AcDbLine
 62
7
  6
CONTINUOUS
 10
-11.15
 20
-21.8911779406
 11
-11.15
 21
21.8911779406
  0
LINE
  5
2AC
100
AcDbEntity
  8
RACCORDO
100
AcDbLine
 62
253
  6
CONTINUOUS
 10
-10.6427192511
 20
23.2669872981
 11
-10.6369014213
 21
23.8443375673
  0
LINE
  5
2AD
100
AcDbEntity
  8
ASSI
100
AcDbLine
 62
253
  6
CONTINUOUS
 10
-10.6427192511
 20
23.2669872981
 11
-10.6369014213
 21
23.8443375673
  0
LINE
  5
2AE
100
AcDbEntity
  8
RACCORDO
100
AcDbLine
 62
253
  6
CONTINUOUS
 10
-10.3869056521
 20
-23.6278312164
 11
-10.3919962532
 21
-23.1226497308
  0
LINE
  5
2AF
100
AcDbEntity
  8
ASSI
100
AcDbLine
 62
253
  6
CONTINUOUS
 10
-10.3869056521
 20
-23.6278312164
 11
-10.3919962532
 21
-23.1226497308
  0
LINE
  5
2B0
100
AcDbEntity
  8
RACCORDO
100
AcDbLine
 62
7
  6
CONTINUOUS
 10
-10.65
 20
-22.399689968
 11
-10.65
 21
-24.2500042308
  0
LINE
  5
2B1
100
AcDbEntity
  8
ASSI
100
AcDbLine
 62
7
  6
CONTINUOUS
 10
-10.65
 20
-22.399689968
 11
-10.65
 21
-24.2500042308
  0
LINE
  5
2B2
100
AcDbEntity
  8
RACCORDO
100
AcDbLine
 62
7
  6
CONTINUOUS
 10
-10.65
 20
22.399689968
 11
-10.65
 21
24.2500042308
  0
LINE
  5
2B3
100
AcDbEntity
  8
ASSI
100
AcDbLine
 62
7
  6
CONTINUOUS
 10
-10.65
 20
22.399689968
 11
-10.65
 21
24.2500042308
  0
LINE
  5
2B4
100
AcDbEntity
  8
RACCORDO
100
AcDbLine
 62
253
  6
CONTINUOUS
 10
-10.6427192511
 20
23.2669872981
 11
-10.6427192511
 21
22.3334109614
  0
LINE
  5
2B5
100
AcDbEntity
  8
ASSI
100
AcDbLine
 62
7
  6
CONTINUOUS
 10
-10.6427192511
 20
23.2669872981
 11
-10.6427192511
 21
22.3334109614
  0
LINE
  5
2B6
100
AcDbEntity
  8
RACCORDO
100
AcDbLine
 62
253
  6
CONTINUOUS
 10
-10.6427192511
 20
-22.3334109614
 11
-10.6427192511
 21
-23.2669872981
  0
LINE
  5
2B7
100
AcDbEntity
  8
ASSI
100
AcDbLine
 62
7
  6
CONTINUOUS
 10
-10.6427192511
 20
-22.3334109614
 11
-10.6427192511
 21
-23.2669872981
  0
LINE
  5
2B8
100
AcDbEntity
  8
RACCORDO
100
AcDbLine
 62
253
  6
CONTINUOUS
 10
-10.6369014213
 20
24.2369056521
 11
-10.6369014213
 21
23.8443375673
  0
LINE
  5
2B9
100
AcDbEntity
  8
ASSI
100
AcDbLine
 62
7
  6
CONTINUOUS
 10
-10.6369014213
 20
24.2369056521
 11
-10.6369014213
 21
23.8443375673
  0
LINE
  5
2BA
100
AcDbEntity
  8
RACCORDO
100
AcDbLine
 62
253
  6
CONTINUOUS
 10
-10.6369014213
 20
-23.8443375673
 11
-10.6369014213
 21
-24.2369056521
  0
LINE
  5
2BB
100
AcDbEntity
  8
ASSI
100
AcDbLine
 62
7
  6
CONTINUOUS
 10
-10.6369014213
 20
-23.8443375673
 11
-10.6369014213
 21
-24.2369056521
  0
LINE
  5
2BC
100
AcDbEntity
  8
RACCORDO
100
AcDbLine
 62
253
  6
CONTINUOUS
 10
-10.3927234819
 20
23.1226497308
 11
-10.3927234819
 21
22.3213883311
  0
LINE
  5
2BD
100
AcDbEntity
  8
ASSI
100
AcDbLine
 62
253
  6
CONTINUOUS
 10
-10.3927234819
 20
23.1226497308
 11
-10.3927234819
 21
22.3213883311
  0
LINE
  5
2BE
100
AcDbEntity
  8
RACCORDO
100
AcDbLine
 62
253
  6
CONTINUOUS
 10
-10.3927234819
 20
-22.3213883311
 11
-10.3927234819
 21
-23.1226497308
  0
LINE
  5
2BF
100
AcDbEntity
  8
ASSI
100
AcDbLine
 62
253
  6
CONTINUOUS
 10
-10.3927234819
 20
-22.3213883311
 11
-10.3927234819
 21
-23.1226497308
  0
LINE
  5
2C0
100
AcDbEntity
  8
RACCORDO
100
AcDbLine
 62
253
  6
CONTINUOUS
 10
-10.3869056521
 20
-23.6278312164
 11
-10.3869056521
 21
-24.4869014213
  0
LINE
  5
2C1
100
AcDbEntity
  8
ASSI
100
AcDbLine
 62
253
  6
CONTINUOUS
 10
-10.3869056521
 20
-23.6278312164
 11
-10.3869056521
 21
-24.4869014213
  0
LINE
  5
2C2
100
AcDbEntity
  8
RACCORDO
100
AcDbLine
 62
253
  6
CONTINUOUS
 10
-10.3869056521
 20
23.6278312164
 11
-10.3869056521
 21
24.4869014213
  0
LINE
  5
2C3
100
AcDbEntity
  8
ASSI
100
AcDbLine
 62
253
  6
CONTINUOUS
 10
-10.3869056521
 20
23.6278312164
 11
-10.3869056521
 21
24.4869014213
  0
LINE
  5
2C4
100
AcDbEntity
  8
RACCORDO
100
AcDbLine
 62
253
  6
CONTINUOUS
 10
-10.3919962532
 20
23.1226497308
 11
-10.3869056521
 21
23.6278312164
  0
LINE
  5
2C5
100
AcDbEntity
  8
ASSI
100
AcDbLine
 62
253
  6
CONTINUOUS
 10
-10.3919962532
 20
23.1226497308
 11
-10.3869056521
 21
23.6278312164
  0
LINE
  5
2C6
100
AcDbEntity
  8
RACCORDO
100
AcDbLine
 62
253
  6
CONTINUOUS
 10
10.4000042308
 20
24.5
 11
10.3869056521
 21
24.4869014213
  0
LINE
  5
2C7
100
AcDbEntity
  8
ASSI
100
AcDbLine
 62
253
  6
CONTINUOUS
 10
10.4000042308
 20
24.5
 11
10.3869056521
 21
24.4869014213
  0
LINE
  5
2C8
100
AcDbEntity
  8
RACCORDO
100
AcDbLine
 62
253
  6
CONTINUOUS
 10
10.65
 20
24.2500042308
 11
10.6369014213
 21
24.2369056521
  0
LINE
  5
2C9
100
AcDbEntity
  8
ASSI
100
AcDbLine
 62
253
  6
CONTINUOUS
 10
10.65
 20
24.2500042308
 11
10.6369014213
 21
24.2369056521
  0
LINE
  5
2CA
100
AcDbEntity
  8
RACCORDO
100
AcDbLine
 62
253
  6
CONTINUOUS
 10
10.4000042308
 20
-24.5
 11
10.3869056521
 21
-24.4869014213
  0
LINE
  5
2CB
100
AcDbEntity
  8
ASSI
100
AcDbLine
 62
253
  6
CONTINUOUS
 10
10.4000042308
 20
-24.5
 11
10.3869056521
 21
-24.4869014213
  0
LINE
  5
2CC
100
AcDbEntity
  8
RACCORDO
100
AcDbLine
 62
253
  6
CONTINUOUS
 10
10.65
 20
-24.2500042308
 11
10.6369014213
 21
-24.2369056521
  0
LINE
  5
2CD
100
AcDbEntity
  8
ASSI
100
AcDbLine
 62
253
  6
CONTINUOUS
 10
10.65
 20
-24.2500042308
 11
10.6369014213
 21
-24.2369056521
  0
LINE
  5
2CE
100
AcDbEntity
  8
RACCORDO
100
AcDbLine
 62
253
  6
CONTINUOUS
 10
-8.5130943479
 20
23.6278312164
 11
-8.5080037468
 21
23.1226497308
  0
LINE
  5
2CF
100
AcDbEntity
  8
ASSI
100
AcDbLine
 62
253
  6
CONTINUOUS
 10
-8.5130943479
 20
23.6278312164
 11
-8.5080037468
 21
23.1226497308
  0
LINE
  5
2D0
100
AcDbEntity
  8
RACCORDO
100
AcDbLine
 62
253
  6
CONTINUOUS
 10
-8.2630985787
 20
23.8443375673
 11
-8.2572807489
 21
23.2669872981
  0
LINE
  5
2D1
100
AcDbEntity
  8
ASSI
100
AcDbLine
 62
253
  6
CONTINUOUS
 10
-8.2630985787
 20
23.8443375673
 11
-8.2572807489
 21
23.2669872981
  0
LINE
  5
2D2
100
AcDbEntity
  8
RACCORDO
100
AcDbLine
 62
253
  6
CONTINUOUS
 10
-8.5130943479
 20
-23.6278312164
 11
-8.5130943479
 21
-24.4869014213
  0
LINE
  5
2D3
100
AcDbEntity
  8
ASSI
100
AcDbLine
 62
253
  6
CONTINUOUS
 10
-8.5130943479
 20
-23.6278312164
 11
-8.5130943479
 21
-24.4869014213
  0
LINE
  5
2D4
100
AcDbEntity
  8
RACCORDO
100
AcDbLine
 62
253
  6
CONTINUOUS
 10
-8.5130943479
 20
23.6278312164
 11
-8.5130943479
 21
24.4869014213
  0
LINE
  5
2D5
100
AcDbEntity
  8
ASSI
100
AcDbLine
 62
253
  6
CONTINUOUS
 10
-8.5130943479
 20
23.6278312164
 11
-8.5130943479
 21
24.4869014213
  0
LINE
  5
2D6
100
AcDbEntity
  8
RACCORDO
100
AcDbLine
 62
253
  6
CONTINUOUS
 10
-8.5072765181
 20
23.1226497308
 11
-8.5072765181
 21
22.3213883311
  0
LINE
  5
2D7
100
AcDbEntity
  8
ASSI
100
AcDbLine
 62
253
  6
CONTINUOUS
 10
-8.5072765181
 20
23.1226497308
 11
-8.5072765181
 21
22.3213883311
  0
LINE
  5
2D8
100
AcDbEntity
  8
RACCORDO
100
AcDbLine
 62
253
  6
CONTINUOUS
 10
-8.5072765181
 20
-22.3213883311
 11
-8.5072765181
 21
-23.1226497308
  0
LINE
  5
2D9
100
AcDbEntity
  8
ASSI
100
AcDbLine
 62
253
  6
CONTINUOUS
 10
-8.5072765181
 20
-22.3213883311
 11
-8.5072765181
 21
-23.1226497308
  0
LINE
  5
2DA
100
AcDbEntity
  8
RACCORDO
100
AcDbLine
 62
253
  6
CONTINUOUS
 10
-8.2630985787
 20
-24.2369056521
 11
-8.2630985787
 21
-23.8443375673
  0
LINE
  5
2DB
100
AcDbEntity
  8
ASSI
100
AcDbLine
 62
7
  6
CONTINUOUS
 10
-8.2630985787
 20
-24.2369056521
 11
-8.2630985787
 21
-23.8443375673
  0
LINE
  5
2DC
100
AcDbEntity
  8
RACCORDO
100
AcDbLine
 62
253
  6
CONTINUOUS
 10
-8.2630985787
 20
23.8443375673
 11
-8.2630985787
 21
24.2369056521
  0
LINE
  5
2DD
100
AcDbEntity
  8
ASSI
100
AcDbLine
 62
7
  6
CONTINUOUS
 10
-8.2630985787
 20
23.8443375673
 11
-8.2630985787
 21
24.2369056521
  0
LINE
  5
2DE
100
AcDbEntity
  8
RACCORDO
100
AcDbLine
 62
253
  6
CONTINUOUS
 10
-8.2572807489
 20
23.2669872981
 11
-8.2572807489
 21
22.3344140523
  0
LINE
  5
2DF
100
AcDbEntity
  8
ASSI
100
AcDbLine
 62
7
  6
CONTINUOUS
 10
-8.2572807489
 20
23.2669872981
 11
-8.2572807489
 21
22.3344140523
  0
LINE
  5
2E0
100
AcDbEntity
  8
RACCORDO
100
AcDbLine
 62
253
  6
CONTINUOUS
 10
-8.2572807489
 20
-22.3344140523
 11
-8.2572807489
 21
-23.2669872981
  0
LINE
  5
2E1
100
AcDbEntity
  8
ASSI
100
AcDbLine
 62
7
  6
CONTINUOUS
 10
-8.2572807489
 20
-22.3344140523
 11
-8.2572807489
 21
-23.2669872981
  0
LINE
  5
2E2
100
AcDbEntity
  8
RACCORDO
100
AcDbLine
 62
7
  6
CONTINUOUS
 10
-8.25
 20
-22.4
 11
-8.25
 21
-24.2500042308
  0
LINE
  5
2E3
100
AcDbEntity
  8
ASSI
100
AcDbLine
 62
7
  6
CONTINUOUS
 10
-8.25
 20
-22.4
 11
-8.25
 21
-24.2500042308
  0
LINE
  5
2E4
100
AcDbEntity
  8
RACCORDO
100
AcDbLine
 62
7
  6
CONTINUOUS
 10
-8.25
 20
22.4
 11
-8.25
 21
24.2500042308
  0
LINE
  5
2E5
100
AcDbEntity
  8
ASSI
100
AcDbLine
 62
7
  6
CONTINUOUS
 10
-8.25
 20
22.4
 11
-8.25
 21
24.2500042308
  0
LINE
  5
2E6
100
AcDbEntity
  8
RACCORDO
100
AcDbLine
 62
253
  6
CONTINUOUS
 10
-8.5080037468
 20
-23.1226497308
 11
-8.5130943479
 21
-23.6278312164
  0
LINE
  5
2E7
100
AcDbEntity
  8
ASSI
100
AcDbLine
 62
253
  6
CONTINUOUS
 10
-8.5080037468
 20
-23.1226497308
 11
-8.5130943479
 21
-23.6278312164
  0
LINE
  5
2E8
100
AcDbEntity
  8
RACCORDO
100
AcDbLine
 62
253
  6
CONTINUOUS
 10
-8.2572807489
 20
-23.2669872981
 11
-8.2630985787
 21
-23.8443375673
  0
LINE
  5
2E9
100
AcDbEntity
  8
ASSI
100
AcDbLine
 62
253
  6
CONTINUOUS
 10
-8.2572807489
 20
-23.2669872981
 11
-8.2630985787
 21
-23.8443375673
  0
LINE
  5
2EA
100
AcDbEntity
  8
RACCORDO
100
AcDbLine
 62
253
  6
CONTINUOUS
 10
-4.3970741618
 20
23.7970741618
 11
-4.3970741618
 21
22.3736436632
  0
LINE
  5
2EB
100
AcDbEntity
  8
ASSI
100
AcDbLine
 62
7
  6
CONTINUOUS
 10
-4.3970741618
 20
23.7970741618
 11
-4.3970741618
 21
22.3736436632
  0
LINE
  5
2EC
100
AcDbEntity
  8
RACCORDO
100
AcDbLine
 62
253
  6
CONTINUOUS
 10
-4.3970741618
 20
-22.3736436632
 11
-4.3970741618
 21
-23.7970741618
  0
LINE
  5
2ED
100
AcDbEntity
  8
ASSI
100
AcDbLine
 62
7
  6
CONTINUOUS
 10
-4.3970741618
 20
-22.3736436632
 11
-4.3970741618
 21
-23.7970741618
  0
LINE
  5
2EE
100
AcDbEntity
  8
RACCORDO
100
AcDbLine
 62
253
  6
CONTINUOUS
 10
-3.8970826234
 20
23.5953423515
 11
-3.8970826234
 21
22.3475922207
  0
LINE
  5
2EF
100
AcDbEntity
  8
ASSI
100
AcDbLine
 62
253
  6
CONTINUOUS
 10
-3.8970826234
 20
23.5953423515
 11
-3.8970826234
 21
22.3475922207
  0
LINE
  5
2F0
100
AcDbEntity
  8
RACCORDO
100
AcDbLine
 62
253
  6
CONTINUOUS
 10
-3.8970826234
 20
-22.3475922207
 11
-3.8970826234
 21
-23.5953423515
  0
LINE
  5
2F1
100
AcDbEntity
  8
ASSI
100
AcDbLine
 62
253
  6
CONTINUOUS
 10
-3.8970826234
 20
-22.3475922207
 11
-3.8970826234
 21
-23.5953423515
  0
LINE
  5
2F2
100
AcDbEntity
  8
RACCORDO
100
AcDbLine
 62
253
  6
CONTINUOUS
 10
-11.1325830976
 20
-21.8998857286
 11
-10.9991998097
 21
-21.4994104546
  0
LINE
  5
2F3
100
AcDbEntity
  8
ASSI
100
AcDbLine
 62
253
  6
CONTINUOUS
 10
-11.1325830976
 20
-21.8998857286
 11
-10.9991998097
 21
-21.4994104546
  0
LINE
  5
2F4
100
AcDbEntity
  8
RACCORDO
100
AcDbLine
 62
253
  6
CONTINUOUS
 10
-10.9991998097
 20
21.4994104546
 11
-11.1325830976
 21
21.8998857286
  0
LINE
  5
2F5
100
AcDbEntity
  8
ASSI
100
AcDbLine
 62
253
  6
CONTINUOUS
 10
-10.9991998097
 20
21.4994104546
 11
-11.1325830976
 21
21.8998857286
  0
LINE
  5
2F6
100
AcDbEntity
  8
RACCORDO
100
AcDbLine
 62
253
  6
CONTINUOUS
 10
-10.4992759622
 20
-21.998725222
 11
-10.60891534
 21
-22.3279108386
  0
LINE
  5
2F7
100
AcDbEntity
  8
ASSI
100
AcDbLine
 62
253
  6
CONTINUOUS
 10
-10.4992759622
 20
-21.998725222
 11
-10.60891534
 21
-22.3279108386
  0
LINE
  5
2F8
100
AcDbEntity
  8
RACCORDO
100
AcDbLine
 62
253
  6
CONTINUOUS
 10
-10.60891534
 20
22.3279108386
 11
-10.4992759622
 21
21.998725222
  0
LINE
  5
2F9
100
AcDbEntity
  8
ASSI
100
AcDbLine
 62
253
  6
CONTINUOUS
 10
-10.60891534
 20
22.3279108386
 11
-10.4992759622
 21
21.998725222
  0
LINE
  5
2FA
100
AcDbEntity
  8
RACCORDO
100
AcDbLine
 62
253
  6
CONTINUOUS
 10
10.4992759622
 20
21.998725222
 11
10.60891534
 21
22.3279108386
  0
LINE
  5
2FB
100
AcDbEntity
  8
ASSI
100
AcDbLine
 62
253
  6
CONTINUOUS
 10
10.4992759622
 20
21.998725222
 11
10.60891534
 21
22.3279108386
  0
LINE
  5
2FC
100
AcDbEntity
  8
RACCORDO
100
AcDbLine
 62
253
  6
CONTINUOUS
 10
11.1325830976
 20
21.8998857286
 11
10.9991998097
 21
21.4994104546
  0
LINE
  5
2FD
100
AcDbEntity
  8
ASSI
100
AcDbLine
 62
253
  6
CONTINUOUS
 10
11.1325830976
 20
21.8998857286
 11
10.9991998097
 21
21.4994104546
  0
LINE
  5
2FE
100
AcDbEntity
  8
RACCORDO
100
AcDbLine
 62
253
  6
CONTINUOUS
 10
10.60891534
 20
-22.3279108386
 11
10.4992759622
 21
-21.998725222
  0
LINE
  5
2FF
100
AcDbEntity
  8
ASSI
100
AcDbLine
 62
253
  6
CONTINUOUS
 10
10.60891534
 20
-22.3279108386
 11
10.4992759622
 21
-21.998725222
  0
LINE
  5
300
100
AcDbEntity
  8
RACCORDO
100
AcDbLine
 62
253
  6
CONTINUOUS
 10
10.9991998097
 20
-21.4994104546
 11
11.1325830976
 21
-21.8998857286
  0
LINE
  5
301
100
AcDbEntity
  8
ASSI
100
AcDbLine
 62
253
  6
CONTINUOUS
 10
10.9991998097
 20
-21.4994104546
 11
11.1325830976
 21
-21.8998857286
  0
LINE
  5
302
100
AcDbEntity
  8
RACCORDO
100
AcDbLine
 62
253
  6
CONTINUOUS
 10
3.8970826234
 20
-23.5953423515
 11
3.8970826234
 21
-22.3475922207
  0
LINE
  5
303
100
AcDbEntity
  8
ASSI
100
AcDbLine
 62
253
  6
CONTINUOUS
 10
3.8970826234
 20
-23.5953423515
 11
3.8970826234
 21
-22.3475922207
  0
LINE
  5
304
100
AcDbEntity
  8
RACCORDO
100
AcDbLine
 62
253
  6
CONTINUOUS
 10
3.8970826234
 20
22.3475922207
 11
3.8970826234
 21
23.5953423515
  0
LINE
  5
305
100
AcDbEntity
  8
ASSI
100
AcDbLine
 62
253
  6
CONTINUOUS
 10
3.8970826234
 20
22.3475922207
 11
3.8970826234
 21
23.5953423515
  0
LINE
  5
306
100
AcDbEntity
  8
RACCORDO
100
AcDbLine
 62
253
  6
CONTINUOUS
 10
4.3970741618
 20
-23.7970741618
 11
4.3970741618
 21
-22.3736436632
  0
LINE
  5
307
100
AcDbEntity
  8
ASSI
100
AcDbLine
 62
7
  6
CONTINUOUS
 10
4.3970741618
 20
-23.7970741618
 11
4.3970741618
 21
-22.3736436632
  0
LINE
  5
308
100
AcDbEntity
  8
RACCORDO
100
AcDbLine
 62
253
  6
CONTINUOUS
 10
4.3970741618
 20
22.3736436632
 11
4.3970741618
 21
23.7970741618
  0
LINE
  5
309
100
AcDbEntity
  8
ASSI
100
AcDbLine
 62
7
  6
CONTINUOUS
 10
4.3970741618
 20
22.3736436632
 11
4.3970741618
 21
23.7970741618
  0
LINE
  5
30A
100
AcDbEntity
  8
CURVE
100
AcDbLine
 62
253
  6
CONTINUOUS
 10
4.85
 20
-14.25
 11
4.85
 21
-17.7500000311
  0
LINE
  5
30B
100
AcDbEntity
  8
RACCORDO
100
AcDbLine
 62
253
  6
CONTINUOUS
 10
8.2630985787
 20
-23.8443375673
 11
8.2572807489
 21
-23.2669872981
  0
LINE
  5
30C
100
AcDbEntity
  8
ASSI
100
AcDbLine
 62
253
  6
CONTINUOUS
 10
8.2630985787
 20
-23.8443375673
 11
8.2572807489
 21
-23.2669872981
  0
LINE
  5
30D
100
AcDbEntity
  8
RACCORDO
100
AcDbLine
 62
253
  6
CONTINUOUS
 10
8.5130943479
 20
-23.6278312164
 11
8.5080037468
 21
-23.1226497308
  0
LINE
  5
30E
100
AcDbEntity
  8
ASSI
100
AcDbLine
 62
253
  6
CONTINUOUS
 10
8.5130943479
 20
-23.6278312164
 11
8.5080037468
 21
-23.1226497308
  0
LINE
  5
30F
100
AcDbEntity
  8
RACCORDO
100
AcDbLine
 62
7
  6
CONTINUOUS
 10
8.25
 20
-22.4
 11
8.25
 21
-24.2500042308
  0
LINE
  5
310
100
AcDbEntity
  8
ASSI
100
AcDbLine
 62
7
  6
CONTINUOUS
 10
8.25
 20
-22.4
 11
8.25
 21
-24.2500042308
  0
LINE
  5
311
100
AcDbEntity
  8
RACCORDO
100
AcDbLine
 62
7
  6
CONTINUOUS
 10
8.25
 20
22.4
 11
8.25
 21
24.2500042308
  0
LINE
  5
312
100
AcDbEntity
  8
ASSI
100
AcDbLine
 62
7
  6
CONTINUOUS
 10
8.25
 20
22.4
 11
8.25
 21
24.2500042308
  0
LINE
  5
313
100
AcDbEntity
  8
RACCORDO
100
AcDbLine
 62
253
  6
CONTINUOUS
 10
8.2572807489
 20
-23.2669872981
 11
8.2572807489
 21
-22.3344140523
  0
LINE
  5
314
100
AcDbEntity
  8
ASSI
100
AcDbLine
 62
7
  6
CONTINUOUS
 10
8.2572807489
 20
-23.2669872981
 11
8.2572807489
 21
-22.3344140523
  0
LINE
  5
315
100
AcDbEntity
  8
RACCORDO
100
AcDbLine
 62
253
  6
CONTINUOUS
 10
8.2572807489
 20
22.3344140523
 11
8.2572807489
 21
23.2669872981
  0
LINE
  5
316
100
AcDbEntity
  8
ASSI
100
AcDbLine
 62
7
  6
CONTINUOUS
 10
8.2572807489
 20
22.3344140523
 11
8.2572807489
 21
23.2669872981
  0
LINE
  5
317
100
AcDbEntity
  8
RACCORDO
100
AcDbLine
 62
253
  6
CONTINUOUS
 10
8.2630985787
 20
24.2369056521
 11
8.2630985787
 21
23.8443375673
  0
LINE
  5
318
100
AcDbEntity
  8
ASSI
100
AcDbLine
 62
7
  6
CONTINUOUS
 10
8.2630985787
 20
24.2369056521
 11
8.2630985787
 21
23.8443375673
  0
LINE
  5
319
100
AcDbEntity
  8
RACCORDO
100
AcDbLine
 62
253
  6
CONTINUOUS
 10
8.2630985787
 20
-23.8443375673
 11
8.2630985787
 21
-24.2369056521
  0
LINE
  5
31A
100
AcDbEntity
  8
ASSI
100
AcDbLine
 62
7
  6
CONTINUOUS
 10
8.2630985787
 20
-23.8443375673
 11
8.2630985787
 21
-24.2369056521
  0
LINE
  5
31B
100
AcDbEntity
  8
CURVE
100
AcDbLine
 62
253
  6
CONTINUOUS
 10
8.35
 20
-17.75
 11
8.35
 21
-14.2499999689
  0
LINE
  5
31C
100
AcDbEntity
  8
RACCORDO
100
AcDbLine
 62
253
  6
CONTINUOUS
 10
8.5072765181
 20
-23.1226497308
 11
8.5072765181
 21
-22.3213883311
  0
LINE
  5
31D
100
AcDbEntity
  8
ASSI
100
AcDbLine
 62
253
  6
CONTINUOUS
 10
8.5072765181
 20
-23.1226497308
 11
8.5072765181
 21
-22.3213883311
  0
LINE
  5
31E
100
AcDbEntity
  8
RACCORDO
100
AcDbLine
 62
253
  6
CONTINUOUS
 10
8.5072765181
 20
22.3213883311
 11
8.5072765181
 21
23.1226497308
  0
LINE
  5
31F
100
AcDbEntity
  8
ASSI
100
AcDbLine
 62
253
  6
CONTINUOUS
 10
8.5072765181
 20
22.3213883311
 11
8.5072765181
 21
23.1226497308
  0
LINE
  5
320
100
AcDbEntity
  8
RACCORDO
100
AcDbLine
 62
253
  6
CONTINUOUS
 10
8.5130943479
 20
-23.6278312164
 11
8.5130943479
 21
-24.4869014213
  0
LINE
  5
321
100
AcDbEntity
  8
ASSI
100
AcDbLine
 62
253
  6
CONTINUOUS
 10
8.5130943479
 20
-23.6278312164
 11
8.5130943479
 21
-24.4869014213
  0
LINE
  5
322
100
AcDbEntity
  8
RACCORDO
100
AcDbLine
 62
253
  6
CONTINUOUS
 10
8.5130943479
 20
23.6278312164
 11
8.5130943479
 21
24.4869014213
  0
LINE
  5
323
100
AcDbEntity
  8
ASSI
100
AcDbLine
 62
253
  6
CONTINUOUS
 10
8.5130943479
 20
23.6278312164
 11
8.5130943479
 21
24.4869014213
  0
LINE
  5
324
100
AcDbEntity
  8
RACCORDO
100
AcDbLine
 62
253
  6
CONTINUOUS
 10
8.2572807489
 20
23.2669872981
 11
8.2630985787
 21
23.8443375673
  0
LINE
  5
325
100
AcDbEntity
  8
ASSI
100
AcDbLine
 62
253
  6
CONTINUOUS
 10
8.2572807489
 20
23.2669872981
 11
8.2630985787
 21
23.8443375673
  0
LINE
  5
326
100
AcDbEntity
  8
RACCORDO
100
AcDbLine
 62
253
  6
CONTINUOUS
 10
8.5080037468
 20
23.1226497308
 11
8.5130943479
 21
23.6278312164
  0
LINE
  5
327
100
AcDbEntity
  8
ASSI
100
AcDbLine
 62
253
  6
CONTINUOUS
 10
8.5080037468
 20
23.1226497308
 11
8.5130943479
 21
23.6278312164
  0
LINE
  5
328
100
AcDbEntity
  8
RACCORDO
100
AcDbLine
 62
253
  6
CONTINUOUS
 10
10.3869056521
 20
23.6278312164
 11
10.3919962532
 21
23.1226497308
  0
LINE
  5
329
100
AcDbEntity
  8
ASSI
100
AcDbLine
 62
253
  6
CONTINUOUS
 10
10.3869056521
 20
23.6278312164
 11
10.3919962532
 21
23.1226497308
  0
LINE
  5
32A
100
AcDbEntity
  8
RACCORDO
100
AcDbLine
 62
253
  6
CONTINUOUS
 10
10.6369014213
 20
23.8443375673
 11
10.6427192511
 21
23.2669872981
  0
LINE
  5
32B
100
AcDbEntity
  8
ASSI
100
AcDbLine
 62
253
  6
CONTINUOUS
 10
10.6369014213
 20
23.8443375673
 11
10.6427192511
 21
23.2669872981
  0
LINE
  5
32C
100
AcDbEntity
  8
RACCORDO
100
AcDbLine
 62
253
  6
CONTINUOUS
 10
10.3869056521
 20
-23.6278312164
 11
10.3869056521
 21
-24.4869014213
  0
LINE
  5
32D
100
AcDbEntity
  8
ASSI
100
AcDbLine
 62
253
  6
CONTINUOUS
 10
10.3869056521
 20
-23.6278312164
 11
10.3869056521
 21
-24.4869014213
  0
LINE
  5
32E
100
AcDbEntity
  8
RACCORDO
100
AcDbLine
 62
253
  6
CONTINUOUS
 10
10.3869056521
 20
23.6278312164
 11
10.3869056521
 21
24.4869014213
  0
LINE
  5
32F
100
AcDbEntity
  8
ASSI
100
AcDbLine
 62
253
  6
CONTINUOUS
 10
10.3869056521
 20
23.6278312164
 11
10.3869056521
 21
24.4869014213
  0
LINE
  5
330
100
AcDbEntity
  8
RACCORDO
100
AcDbLine
 62
253
  6
CONTINUOUS
 10
10.3927234819
 20
-23.1226497308
 11
10.3927234819
 21
-22.3213883311
  0
LINE
  5
331
100
AcDbEntity
  8
ASSI
100
AcDbLine
 62
253
  6
CONTINUOUS
 10
10.3927234819
 20
-23.1226497308
 11
10.3927234819
 21
-22.3213883311
  0
LINE
  5
332
100
AcDbEntity
  8
RACCORDO
100
AcDbLine
 62
253
  6
CONTINUOUS
 10
10.3927234819
 20
22.3213883311
 11
10.3927234819
 21
23.1226497308
  0
LINE
  5
333
100
AcDbEntity
  8
ASSI
100
AcDbLine
 62
253
  6
CONTINUOUS
 10
10.3927234819
 20
22.3213883311
 11
10.3927234819
 21
23.1226497308
  0
LINE
  5
334
100
AcDbEntity
  8
RACCORDO
100
AcDbLine
 62
253
  6
CONTINUOUS
 10
10.6369014213
 20
-24.2369056521
 11
10.6369014213
 21
-23.8443375673
  0
LINE
  5
335
100
AcDbEntity
  8
ASSI
100
AcDbLine
 62
7
  6
CONTINUOUS
 10
10.6369014213
 20
-24.2369056521
 11
10.6369014213
 21
-23.8443375673
  0
LINE
  5
336
100
AcDbEntity
  8
RACCORDO
100
AcDbLine
 62
253
  6
CONTINUOUS
 10
10.6369014213
 20
23.8443375673
 11
10.6369014213
 21
24.2369056521
  0
LINE
  5
337
100
AcDbEntity
  8
ASSI
100
AcDbLine
 62
7
  6
CONTINUOUS
 10
10.6369014213
 20
23.8443375673
 11
10.6369014213
 21
24.2369056521
  0
LINE
  5
338
100
AcDbEntity
  8
RACCORDO
100
AcDbLine
 62
253
  6
CONTINUOUS
 10
10.6427192511
 20
-23.2669872981
 11
10.6427192511
 21
-22.3334109614
  0
LINE
  5
339
100
AcDbEntity
  8
ASSI
100
AcDbLine
 62
7
  6
CONTINUOUS
 10
10.6427192511
 20
-23.2669872981
 11
10.6427192511
 21
-22.3334109614
  0
LINE
  5
33A
100
AcDbEntity
  8
RACCORDO
100
AcDbLine
 62
253
  6
CONTINUOUS
 10
10.6427192511
 20
22.3334109614
 11
10.6427192511
 21
23.2669872981
  0
LINE
  5
33B
100
AcDbEntity
  8
ASSI
100
AcDbLine
 62
7
  6
CONTINUOUS
 10
10.6427192511
 20
22.3334109614
 11
10.6427192511
 21
23.2669872981
  0
LINE
  5
33C
100
AcDbEntity
  8
RACCORDO
100
AcDbLine
 62
7
  6
CONTINUOUS
 10
10.65
 20
-22.399689968
 11
10.65
 21
-24.2500042308
  0
LINE
  5
33D
100
AcDbEntity
  8
ASSI
100
AcDbLine
 62
7
  6
CONTINUOUS
 10
10.65
 20
-22.399689968
 11
10.65
 21
-24.2500042308
  0
LINE
  5
33E
100
AcDbEntity
  8
RACCORDO
100
AcDbLine
 62
7
  6
CONTINUOUS
 10
10.65
 20
22.399689968
 11
10.65
 21
24.2500042308
  0
LINE
  5
33F
100
AcDbEntity
  8
ASSI
100
AcDbLine
 62
7
  6
CONTINUOUS
 10
10.65
 20
22.399689968
 11
10.65
 21
24.2500042308
  0
LINE
  5
340
100
AcDbEntity
  8
RACCORDO
100
AcDbLine
 62
7
  6
CONTINUOUS
 10
11.15
 20
-21.8911779406
 11
11.15
 21
21.8911779406
  0
LINE
  5
341
100
AcDbEntity
  8
ASSI
100
AcDbLine
 62
7
  6
CONTINUOUS
 10
11.15
 20
-21.8911779406
 11
11.15
 21
21.8911779406
  0
LINE
  5
342
100
AcDbEntity
  8
RACCORDO
100
AcDbLine
 62
253
  6
CONTINUOUS
 10
10.3919962532
 20
-23.1226497308
 11
10.3869056521
 21
-23.6278312164
  0
LINE
  5
343
100
AcDbEntity
  8
ASSI
100
AcDbLine
 62
253
  6
CONTINUOUS
 10
10.3919962532
 20
-23.1226497308
 11
10.3869056521
 21
-23.6278312164
  0
LINE
  5
344
100
AcDbEntity
  8
RACCORDO
100
AcDbLine
 62
253
  6
CONTINUOUS
 10
10.6427192511
 20
-23.2669872981
 11
10.6369014213
 21
-23.8443375673
  0
LINE
  5
345
100
AcDbEntity
  8
ASSI
100
AcDbLine
 62
253
  6
CONTINUOUS
 10
10.6427192511
 20
-23.2669872981
 11
10.6369014213
 21
-23.8443375673
  0
LINE
  5
346
100
AcDbEntity
  8
RACCORDO
100
AcDbLine
 62
253
  6
CONTINUOUS
 10
-10.65
 20
-24.2500042308
 11
-10.6369014213
 21
-24.2369056521
  0
LINE
  5
347
100
AcDbEntity
  8
ASSI
100
AcDbLine
 62
253
  6
CONTINUOUS
 10
-10.65
 20
-24.2500042308
 11
-10.6369014213
 21
-24.2369056521
  0
LINE
  5
348
100
AcDbEntity
  8
RACCORDO
100
AcDbLine
 62
253
  6
CONTINUOUS
 10
-10.4000042308
 20
-24.5
 11
-10.3869056521
 21
-24.4869014213
  0
LINE
  5
349
100
AcDbEntity
  8
ASSI
100
AcDbLine
 62
253
  6
CONTINUOUS
 10
-10.4000042308
 20
-24.5
 11
-10.3869056521
 21
-24.4869014213
  0
LINE
  5
34A
100
AcDbEntity
  8
RACCORDO
100
AcDbLine
 62
253
  6
CONTINUOUS
 10
-10.65
 20
24.2500042308
 11
-10.6369014213
 21
24.2369056521
  0
LINE
  5
34B
100
AcDbEntity
  8
ASSI
100
AcDbLine
 62
253
  6
CONTINUOUS
 10
-10.65
 20
24.2500042308
 11
-10.6369014213
 21
24.2369056521
  0
LINE
  5
34C
100
AcDbEntity
  8
RACCORDO
100
AcDbLine
 62
253
  6
CONTINUOUS
 10
-10.4000042308
 20
24.5
 11
-10.3869056521
 21
24.4869014213
  0
LINE
  5
34D
100
AcDbEntity
  8
ASSI
100
AcDbLine
 62
253
  6
CONTINUOUS
 10
-10.4000042308
 20
24.5
 11
-10.3869056521
 21
24.4869014213
  0
LINE
  5
34E
100
AcDbEntity
  8
CURVE
100
AcDbLine
 62
253
  6
CONTINUOUS
 10
4.85
 20
-17.75
 11
8.35
 21
-14.25
  0
LINE
  5
34F
100
AcDbEntity
  8
RACCORDO
100
AcDbLine
 62
253
  6
CONTINUOUS
 10
10.4827491915
 20
20.5624683248
 11
-10.4827491915
 21
20.5624683248
  0
LINE
  5
350
100
AcDbEntity
  8
ASSI
100
AcDbLine
 62
253
  6
CONTINUOUS
 10
10.4827491915
 20
20.5624683248
 11
-10.4827491915
 21
20.5624683248
  0
LINE
  5
351
100
AcDbEntity
  8
RACCORDO
100
AcDbLine
 62
253
  6
CONTINUOUS
 10
10.4992759622
 20
21.998725222
 11
-10.4992759622
 21
21.998725222
  0
LINE
  5
352
100
AcDbEntity
  8
ASSI
100
AcDbLine
 62
253
  6
CONTINUOUS
 10
10.4992759622
 20
21.998725222
 11
-10.4992759622
 21
21.998725222
  0
LINE
  5
353
100
AcDbEntity
  8
RACCORDO
100
AcDbLine
 62
253
  6
CONTINUOUS
 10
8.25
 20
-24.2500042308
 11
8.2630985787
 21
-24.2369056521
  0
LINE
  5
354
100
AcDbEntity
  8
ASSI
100
AcDbLine
 62
253
  6
CONTINUOUS
 10
8.25
 20
-24.2500042308
 11
8.2630985787
 21
-24.2369056521
  0
LINE
  5
355
100
AcDbEntity
  8
RACCORDO
100
AcDbLine
 62
253
  6
CONTINUOUS
 10
8.4999957692
 20
-24.5
 11
8.5130943479
 21
-24.4869014213
  0
LINE
  5
356
100
AcDbEntity
  8
ASSI
100
AcDbLine
 62
253
  6
CONTINUOUS
 10
8.4999957692
 20
-24.5
 11
8.5130943479
 21
-24.4869014213
  0
LINE
  5
357
100
AcDbEntity
  8
RACCORDO
100
AcDbLine
 62
7
  6
CONTINUOUS
 10
10.3927234819
 20
22.3213883311
 11
8.5072765181
 21
22.3213883311
  0
LINE
  5
358
100
AcDbEntity
  8
ASSI
100
AcDbLine
 62
7
  6
CONTINUOUS
 10
10.3927234819
 20
22.3213883311
 11
8.5072765181
 21
22.3213883311
  0
LINE
  5
359
100
AcDbEntity
  8
RACCORDO
100
AcDbLine
 62
7
  6
CONTINUOUS
 10
-8.5072765181
 20
22.3213883311
 11
-10.3927234819
 21
22.3213883311
  0
LINE
  5
35A
100
AcDbEntity
  8
ASSI
100
AcDbLine
 62
7
  6
CONTINUOUS
 10
-8.5072765181
 20
22.3213883311
 11
-10.3927234819
 21
22.3213883311
  0
LINE
  5
35B
100
AcDbEntity
  8
RACCORDO
100
AcDbLine
 62
7
  6
CONTINUOUS
 10
-3.8970826234
 20
22.3475922207
 11
3.8970826234
 21
22.3475922207
  0
LINE
  5
35C
100
AcDbEntity
  8
ASSI
100
AcDbLine
 62
7
  6
CONTINUOUS
 10
-3.8970826234
 20
22.3475922207
 11
3.8970826234
 21
22.3475922207
  0
LINE
  5
35D
100
AcDbEntity
  8
DRAFT
100
AcDbLine
 62
7
  6
CONTINUOUS
 10
-8.25
 20
22.4
 11
-4.4
 21
22.4
  0
LINE
  5
35E
100
AcDbEntity
  8
ASSI
100
AcDbLine
 62
7
  6
CONTINUOUS
 10
-8.25
 20
22.4
 11
-4.4
 21
22.4
  0
LINE
  5
35F
100
AcDbEntity
  8
DRAFT
100
AcDbLine
 62
7
  6
CONTINUOUS
 10
4.4
 20
22.4
 11
8.25
 21
22.4
  0
LINE
  5
360
100
AcDbEntity
  8
ASSI
100
AcDbLine
 62
7
  6
CONTINUOUS
 10
4.4
 20
22.4
 11
8.25
 21
22.4
  0
LINE
  5
361
100
AcDbEntity
  8
RACCORDO
100
AcDbLine
 62
7
  6
CONTINUOUS
 10
10.3919962532
 20
23.1226497308
 11
8.5080037468
 21
23.1226497308
  0
LINE
  5
362
100
AcDbEntity
  8
ASSI
100
AcDbLine
 62
7
  6
CONTINUOUS
 10
10.3919962532
 20
23.1226497308
 11
8.5080037468
 21
23.1226497308
  0
LINE
  5
363
100
AcDbEntity
  8
RACCORDO
100
AcDbLine
 62
7
  6
CONTINUOUS
 10
-8.5080037468
 20
23.1226497308
 11
-10.3919962532
 21
23.1226497308
  0
LINE
  5
364
100
AcDbEntity
  8
ASSI
100
AcDbLine
 62
7
  6
CONTINUOUS
 10
-8.5080037468
 20
23.1226497308
 11
-10.3919962532
 21
23.1226497308
  0
LINE
  5
365
100
AcDbEntity
  8
RACCORDO
100
AcDbLine
 62
253
  6
CONTINUOUS
 10
3.8970826234
 20
23.5953423515
 11
-3.8970826234
 21
23.5953423515
  0
LINE
  5
366
100
AcDbEntity
  8
ASSI
100
AcDbLine
 62
253
  6
CONTINUOUS
 10
3.8970826234
 20
23.5953423515
 11
-3.8970826234
 21
23.5953423515
  0
LINE
  5
367
100
AcDbEntity
  8
RACCORDO
100
AcDbLine
 62
253
  6
CONTINUOUS
 10
-10.3869056521
 20
23.6278312164
 11
-8.5130943479
 21
23.6278312164
  0
LINE
  5
368
100
AcDbEntity
  8
ASSI
100
AcDbLine
 62
253
  6
CONTINUOUS
 10
-10.3869056521
 20
23.6278312164
 11
-8.5130943479
 21
23.6278312164
  0
LINE
  5
369
100
AcDbEntity
  8
RACCORDO
100
AcDbLine
 62
253
  6
CONTINUOUS
 10
8.5130943479
 20
23.6278312164
 11
10.3869056521
 21
23.6278312164
  0
LINE
  5
36A
100
AcDbEntity
  8
ASSI
100
AcDbLine
 62
253
  6
CONTINUOUS
 10
8.5130943479
 20
23.6278312164
 11
10.3869056521
 21
23.6278312164
  0
LINE
  5
36B
100
AcDbEntity
  8
RACCORDO
100
AcDbLine
 62
253
  6
CONTINUOUS
 10
4.2962073137
 20
23.7953389668
 11
-4.2962073137
 21
23.7953389668
  0
LINE
  5
36C
100
AcDbEntity
  8
ASSI
100
AcDbLine
 62
7
  6
CONTINUOUS
 10
4.2962073137
 20
23.7953389668
 11
-4.2962073137
 21
23.7953389668
  0
LINE
  5
36D
100
AcDbEntity
  8
RACCORDO
100
AcDbLine
 62
253
  6
CONTINUOUS
 10
8.2630985787
 20
23.8443375673
 11
10.6369014213
 21
23.8443375673
  0
LINE
  5
36E
100
AcDbEntity
  8
ASSI
100
AcDbLine
 62
253
  6
CONTINUOUS
 10
8.2630985787
 20
23.8443375673
 11
10.6369014213
 21
23.8443375673
  0
LINE
  5
36F
100
AcDbEntity
  8
RACCORDO
100
AcDbLine
 62
253
  6
CONTINUOUS
 10
-8.2630985787
 20
23.8443375673
 11
-10.6369014213
 21
23.8443375673
  0
LINE
  5
370
100
AcDbEntity
  8
ASSI
100
AcDbLine
 62
253
  6
CONTINUOUS
 10
-8.2630985787
 20
23.8443375673
 11
-10.6369014213
 21
23.8443375673
  0
LINE
  5
371
100
AcDbEntity
  8
RACCORDO
100
AcDbLine
 62
253
  6
CONTINUOUS
 10
8.25
 20
24.2500042308
 11
8.2630985787
 21
24.2369056521
  0
LINE
  5
372
100
AcDbEntity
  8
ASSI
100
AcDbLine
 62
253
  6
CONTINUOUS
 10
8.25
 20
24.2500042308
 11
8.2630985787
 21
24.2369056521
  0
LINE
  5
373
100
AcDbEntity
  8
RACCORDO
100
AcDbLine
 62
253
  6
CONTINUOUS
 10
8.4999957692
 20
24.5
 11
8.5130943479
 21
24.4869014213
  0
LINE
  5
374
100
AcDbEntity
  8
ASSI
100
AcDbLine
 62
253
  6
CONTINUOUS
 10
8.4999957692
 20
24.5
 11
8.5130943479
 21
24.4869014213
  0
LINE
  5
375
100
AcDbEntity
  8
RACCORDO
100
AcDbLine
 62
253
  6
CONTINUOUS
 10
11.1325830976
 20
-21.8998857286
 11
11.15
 21
-21.8911779406
  0
LINE
  5
376
100
AcDbEntity
  8
ASSI
100
AcDbLine
 62
253
  6
CONTINUOUS
 10
11.1325830976
 20
-21.8998857286
 11
11.15
 21
-21.8911779406
  0
LINE
  5
377
100
AcDbEntity
  8
RACCORDO
100
AcDbLine
 62
253
  6
CONTINUOUS
 10
8.2630985787
 20
24.2369056521
 11
10.6369014213
 21
24.2369056521
  0
LINE
  5
378
100
AcDbEntity
  8
ASSI
100
AcDbLine
 62
253
  6
CONTINUOUS
 10
8.2630985787
 20
24.2369056521
 11
10.6369014213
 21
24.2369056521
  0
LINE
  5
379
100
AcDbEntity
  8
RACCORDO
100
AcDbLine
 62
253
  6
CONTINUOUS
 10
-8.2630985787
 20
24.2369056521
 11
-10.6369014213
 21
24.2369056521
  0
LINE
  5
37A
100
AcDbEntity
  8
ASSI
100
AcDbLine
 62
253
  6
CONTINUOUS
 10
-8.2630985787
 20
24.2369056521
 11
-10.6369014213
 21
24.2369056521
  0
LINE
  5
37B
100
AcDbEntity
  8
RACCORDO
100
AcDbLine
 62
253
  6
CONTINUOUS
 10
10.3869056521
 20
24.4869014213
 11
8.5130943479
 21
24.4869014213
  0
LINE
  5
37C
100
AcDbEntity
  8
ASSI
100
AcDbLine
 62
7
  6
CONTINUOUS
 10
10.3869056521
 20
24.4869014213
 11
8.5130943479
 21
24.4869014213
  0
LINE
  5
37D
100
AcDbEntity
  8
RACCORDO
100
AcDbLine
 62
253
  6
CONTINUOUS
 10
-8.5130943479
 20
24.4869014213
 11
-10.3869056521
 21
24.4869014213
  0
LINE
  5
37E
100
AcDbEntity
  8
ASSI
100
AcDbLine
 62
7
  6
CONTINUOUS
 10
-8.5130943479
 20
24.4869014213
 11
-10.3869056521
 21
24.4869014213
  0
LINE
  5
37F
100
AcDbEntity
  8
RACCORDO
100
AcDbLine
 62
7
  6
CONTINUOUS
 10
-10.4000042308
 20
24.5
 11
-8.4999957692
 21
24.5
  0
LINE
  5
380
100
AcDbEntity
  8
ASSI
100
AcDbLine
 62
7
  6
CONTINUOUS
 10
-10.4000042308
 20
24.5
 11
-8.4999957692
 21
24.5
  0
LINE
  5
381
100
AcDbEntity
  8
RACCORDO
100
AcDbLine
 62
7
  6
CONTINUOUS
 10
8.4999957692
 20
24.5
 11
10.4000042308
 21
24.5
  0
LINE
  5
382
100
AcDbEntity
  8
ASSI
100
AcDbLine
 62
7
  6
CONTINUOUS
 10
8.4999957692
 20
24.5
 11
10.4000042308
 21
24.5
  0
LINE
  5
383
100
AcDbEntity
  8
RACCORDO
100
AcDbLine
 62
253
  6
CONTINUOUS
 10
11.15
 20
21.8911779406
 11
11.1325830976
 21
21.8998857286
  0
LINE
  5
384
100
AcDbEntity
  8
ASSI
100
AcDbLine
 62
253
  6
CONTINUOUS
 10
11.15
 20
21.8911779406
 11
11.1325830976
 21
21.8998857286
  0
LINE
  5
385
100
AcDbEntity
  8
RACCORDO
100
AcDbLine
 62
253
  6
CONTINUOUS
 10
-68.163362465
 20
23.4104851482
 11
-67.4119080321
 21
23.8443375673
  0
LINE
  5
386
100
AcDbEntity
  8
ASSI
100
AcDbLine
 62
253
  6
CONTINUOUS
 10
-68.163362465
 20
23.4104851482
 11
-67.4119080321
 21
23.8443375673
  0
LINE
  5
387
100
AcDbEntity
  8
RACCORDO
100
AcDbLine
 62
253
  6
CONTINUOUS
 10
-67.4119080321
 20
-23.8443375673
 11
-68.163362465
 21
-23.4104851482
  0
LINE
  5
388
100
AcDbEntity
  8
ASSI
100
AcDbLine
 62
253
  6
CONTINUOUS
 10
-67.4119080321
 20
-23.8443375673
 11
-68.163362465
 21
-23.4104851482
  0
LINE
  5
389
100
AcDbEntity
  8
RACCORDO
100
AcDbLine
 62
7
  6
CONTINUOUS
 10
-68.163362465
 20
23.1226497308
 11
-67.163362465
 21
23.7
  0
LINE
  5
38A
100
AcDbEntity
  8
ASSI
100
AcDbLine
 62
7
  6
CONTINUOUS
 10
-68.163362465
 20
23.1226497308
 11
-67.163362465
 21
23.7
  0
LINE
  5
38B
100
AcDbEntity
  8
RACCORDO
100
AcDbLine
 62
7
  6
CONTINUOUS
 10
-67.288362465
 20
-23.6278312164
 11
-68.163362465
 21
-23.1226497308
  0
LINE
  5
38C
100
AcDbEntity
  8
ASSI
100
AcDbLine
 62
7
  6
CONTINUOUS
 10
-67.288362465
 20
-23.6278312164
 11
-68.163362465
 21
-23.1226497308
  0
LINE
  5
38D
100
AcDbEntity
  8
CURVE
100
AcDbLine
 62
253
  6
CONTINUOUS
 10
-77.4345444823
 20
-15.125
 11
-77.4160253301
 21
-15.7250105983
  0
LINE
  5
38E
100
AcDbEntity
  8
CURVE
100
AcDbLine
 62
253
  6
CONTINUOUS
 10
-77.4475369426
 20
-14.6894158265
 11
-77.4523490116
 21
-14.5247699512
  0
LINE
  5
38F
100
AcDbEntity
  8
RACCORDO
100
AcDbLine
 62
7
  6
CONTINUOUS
 10
-67.4119080321
 20
-24.495628166
 11
-68.163362465
 21
-24.5
  0
LINE
  5
390
100
AcDbEntity
  8
ASSI
100
AcDbLine
 62
7
  6
CONTINUOUS
 10
-67.4119080321
 20
-24.495628166
 11
-68.163362465
 21
-24.5
  0
LINE
  5
391
100
AcDbEntity
  8
RACCORDO
100
AcDbLine
 62
253
  6
CONTINUOUS
 10
-67.4119080321
 20
-24.2456323968
 11
-68.163362465
 21
-24.2500042308
  0
LINE
  5
392
100
AcDbEntity
  8
ASSI
100
AcDbLine
 62
253
  6
CONTINUOUS
 10
-67.4119080321
 20
-24.2456323968
 11
-68.163362465
 21
-24.2500042308
  0
LINE
  5
393
100
AcDbEntity
  8
ASSI
100
AcDbLine
 62
7
  6
CONTINUOUS
 10
-67.1684538333
 20
-23.7942117909
 11
-60.6604535993
 21
-23.7563493531
  0
LINE
  5
394
100
AcDbEntity
  8
RACCORDO
100
AcDbLine
 62
253
  6
CONTINUOUS
 10
-67.163362465
 20
-24.2456323968
 11
-67.4119080321
 21
-24.2456323968
  0
LINE
  5
395
100
AcDbEntity
  8
ASSI
100
AcDbLine
 62
253
  6
CONTINUOUS
 10
-67.163362465
 20
-24.2456323968
 11
-67.4119080321
 21
-24.2456323968
  0
LINE
  5
396
100
AcDbEntity
  8
RACCORDO
100
AcDbLine
 62
253
  6
CONTINUOUS
 10
-70.663362465
 20
-24.2369056521
 11
-70.4148168978
 21
-24.2369056521
  0
LINE
  5
397
100
AcDbEntity
  8
ASSI
100
AcDbLine
 62
253
  6
CONTINUOUS
 10
-70.663362465
 20
-24.2369056521
 11
-70.4148168978
 21
-24.2369056521
  0
LINE
  5
398
100
AcDbEntity
  8
RACCORDO
100
AcDbLine
 62
253
  6
CONTINUOUS
 10
-70.663362465
 20
-23.8443375673
 11
-70.4148168978
 21
-23.8443375673
  0
LINE
  5
399
100
AcDbEntity
  8
ASSI
100
AcDbLine
 62
253
  6
CONTINUOUS
 10
-70.663362465
 20
-23.8443375673
 11
-70.4148168978
 21
-23.8443375673
  0
LINE
  5
39A
100
AcDbEntity
  8
RACCORDO
100
AcDbLine
 62
253
  6
CONTINUOUS
 10
-67.163362465
 20
-23.8443375673
 11
-67.4119080321
 21
-23.8443375673
  0
LINE
  5
39B
100
AcDbEntity
  8
ASSI
100
AcDbLine
 62
253
  6
CONTINUOUS
 10
-67.163362465
 20
-23.8443375673
 11
-67.4119080321
 21
-23.8443375673
  0
LINE
  5
39C
100
AcDbEntity
  8
RACCORDO
100
AcDbLine
 62
7
  6
CONTINUOUS
 10
-68.163362465
 20
-24.5
 11
-70.4148168978
 21
-24.4869014213
  0
LINE
  5
39D
100
AcDbEntity
  8
ASSI
100
AcDbLine
 62
7
  6
CONTINUOUS
 10
-68.163362465
 20
-24.5
 11
-70.4148168978
 21
-24.4869014213
  0
LINE
  5
39E
100
AcDbEntity
  8
RACCORDO
100
AcDbLine
 62
253
  6
CONTINUOUS
 10
-68.163362465
 20
-24.2500042308
 11
-70.4148168978
 21
-24.2369056521
  0
LINE
  5
39F
100
AcDbEntity
  8
ASSI
100
AcDbLine
 62
253
  6
CONTINUOUS
 10
-68.163362465
 20
-24.2500042308
 11
-70.4148168978
 21
-24.2369056521
  0
LINE
  5
3A0
100
AcDbEntity
  8
RACCORDO
100
AcDbLine
 62
7
  6
CONTINUOUS
 10
-69.538905607
 20
-22.3279108386
 11
-75.8201413538
 21
-21.998725222
  0
LINE
  5
3A1
100
AcDbEntity
  8
ASSI
100
AcDbLine
 62
7
  6
CONTINUOUS
 10
-69.538905607
 20
-22.3279108386
 11
-75.8201413538
 21
-21.998725222
  0
LINE
  5
3A2
100
AcDbEntity
  8
RACCORDO
100
AcDbLine
 62
7
  6
CONTINUOUS
 10
-58.1546359295
 20
-22.3126551668
 11
-68.163362465
 21
-22.4
  0
LINE
  5
3A3
100
AcDbEntity
  8
ASSI
100
AcDbLine
 62
7
  6
CONTINUOUS
 10
-58.1546359295
 20
-22.3126551668
 11
-68.163362465
 21
-22.4
  0
LINE
  5
3A4
100
AcDbEntity
  8
RACCORDO
100
AcDbLine
 62
253
  6
CONTINUOUS
 10
-68.161176136
 20
-21.8998857286
 11
-67.163362465
 21
-21.8911779406
  0
LINE
  5
3A5
100
AcDbEntity
  8
ASSI
100
AcDbLine
 62
253
  6
CONTINUOUS
 10
-68.161176136
 20
-21.8998857286
 11
-67.163362465
 21
-21.8911779406
  0
LINE
  5
3A6
100
AcDbEntity
  8
RACCORDO
100
AcDbLine
 62
7
  6
CONTINUOUS
 10
-57.163362465
 20
-20.9
 11
-67.163362465
 21
-20.9
  0
LINE
  5
3A7
100
AcDbEntity
  8
ASSI
100
AcDbLine
 62
7
  6
CONTINUOUS
 10
-57.163362465
 20
-20.9
 11
-67.163362465
 21
-20.9
  0
LINE
  5
3A8
100
AcDbEntity
  8
DRAFT
100
AcDbLine
 62
7
  6
CONTINUOUS
 10
-67.163362465
 20
-20.85
 11
-57.163362465
 21
-20.85
  0
LINE
  5
3A9
100
AcDbEntity
  8
ASSI
100
AcDbLine
 62
7
  6
CONTINUOUS
 10
-67.163362465
 20
-20.85
 11
-57.163362465
 21
-20.85
  0
LINE
  5
3AA
100
AcDbEntity
  8
RACCORDO
100
AcDbLine
 62
7
  6
CONTINUOUS
 10
-57.6546362617
 20
-21.5659754333
 11
-67.163362465
 21
-21.4
  0
LINE
  5
3AB
100
AcDbEntity
  8
ASSI
100
AcDbLine
 62
7
  6
CONTINUOUS
 10
-57.6546362617
 20
-21.5659754333
 11
-67.163362465
 21
-21.4
  0
LINE
  5
3AC
100
AcDbEntity
  8
RACCORDO
100
AcDbLine
 62
253
  6
CONTINUOUS
 10
-75.8026995789
 20
-21.4994104546
 11
-68.161176136
 21
-21.8998857286
  0
LINE
  5
3AD
100
AcDbEntity
  8
ASSI
100
AcDbLine
 62
253
  6
CONTINUOUS
 10
-75.8026995789
 20
-21.4994104546
 11
-68.161176136
 21
-21.8998857286
  0
LINE
  5
3AE
100
AcDbEntity
  8
CURVE
100
AcDbLine
 62
7
  6
CONTINUOUS
 10
-64.5641553895
 20
14.6840480524
 11
-64.0921428963
 21
15.1560605456
  0
LINE
  5
3AF
100
AcDbEntity
  8
RACCORDO
100
AcDbLine
 62
253
  6
CONTINUOUS
 10
-76.7495176346
 20
-20.5419058565
 11
-77.2403681624
 21
-20.5624683135
  0
LINE
  5
3B0
100
AcDbEntity
  8
ASSI
100
AcDbLine
 62
253
  6
CONTINUOUS
 10
-76.7495176346
 20
-20.5419058565
 11
-77.2403681624
 21
-20.5624683135
  0
LINE
  5
3B1
100
AcDbEntity
  8
RACCORDO
100
AcDbLine
 62
7
  6
CONTINUOUS
 10
-29.1459100585
 20
-19.121932718
 11
-57.163362465
 21
-19.6109791689
  0
LINE
  5
3B2
100
AcDbEntity
  8
ASSI
100
AcDbLine
 62
7
  6
CONTINUOUS
 10
-29.1459100585
 20
-19.121932718
 11
-57.163362465
 21
-19.6109791689
  0
LINE
  5
3B3
100
AcDbEntity
  8
RACCORDO
100
AcDbLine
 62
253
  6
CONTINUOUS
 10
-29.1459100585
 20
-18.8290841082
 11
-57.163362465
 21
-19.3181305591
  0
LINE
  5
3B4
100
AcDbEntity
  8
ASSI
100
AcDbLine
 62
253
  6
CONTINUOUS
 10
-29.1459100585
 20
-18.8290841082
 11
-57.163362465
 21
-19.3181305591
  0
LINE
  5
3B5
100
AcDbEntity
  8
RACCORDO
100
AcDbLine
 62
253
  6
CONTINUOUS
 10
-67.163362465
 20
-19.0856972195
 11
-29.1459100585
 21
-18.8108290722
  0
LINE
  5
3B6
100
AcDbEntity
  8
ASSI
100
AcDbLine
 62
253
  6
CONTINUOUS
 10
-67.163362465
 20
-19.0856972195
 11
-29.1459100585
 21
-18.8108290722
  0
LINE
  5
3B7
100
AcDbEntity
  8
RACCORDO
100
AcDbLine
 62
7
  6
CONTINUOUS
 10
-70.663362465
 20
-24.2369056521
 11
-70.663362465
 21
-23.8443375673
  0
LINE
  5
3B8
100
AcDbEntity
  8
ASSI
100
AcDbLine
 62
7
  6
CONTINUOUS
 10
-70.663362465
 20
-24.2369056521
 11
-70.663362465
 21
-23.8443375673
  0
LINE
  5
3B9
100
AcDbEntity
  8
RACCORDO
100
AcDbLine
 62
7
  6
CONTINUOUS
 10
-70.663362465
 20
23.8443375673
 11
-70.663362465
 21
24.2369056521
  0
LINE
  5
3BA
100
AcDbEntity
  8
ASSI
100
AcDbLine
 62
7
  6
CONTINUOUS
 10
-70.663362465
 20
23.8443375673
 11
-70.663362465
 21
24.2369056521
  0
LINE
  5
3BB
100
AcDbEntity
  8
RACCORDO
100
AcDbLine
 62
253
  6
CONTINUOUS
 10
-70.4148168978
 20
-24.2369056521
 11
-70.4148168978
 21
-23.8443375673
  0
LINE
  5
3BC
100
AcDbEntity
  8
ASSI
100
AcDbLine
 62
253
  6
CONTINUOUS
 10
-70.4148168978
 20
-24.2369056521
 11
-70.4148168978
 21
-23.8443375673
  0
LINE
  5
3BD
100
AcDbEntity
  8
RACCORDO
100
AcDbLine
 62
253
  6
CONTINUOUS
 10
-70.4148168978
 20
23.8443375673
 11
-70.4148168978
 21
24.2369056521
  0
LINE
  5
3BE
100
AcDbEntity
  8
ASSI
100
AcDbLine
 62
253
  6
CONTINUOUS
 10
-70.4148168978
 20
23.8443375673
 11
-70.4148168978
 21
24.2369056521
  0
LINE
  5
3BF
100
AcDbEntity
  8
RACCORDO
100
AcDbLine
 62
7
  6
CONTINUOUS
 10
-69.663362465
 20
-23.1226497308
 11
-69.663362465
 21
-22.3213883311
  0
LINE
  5
3C0
100
AcDbEntity
  8
ASSI
100
AcDbLine
 62
7
  6
CONTINUOUS
 10
-69.663362465
 20
-23.1226497308
 11
-69.663362465
 21
-22.3213883311
  0
LINE
  5
3C1
100
AcDbEntity
  8
RACCORDO
100
AcDbLine
 62
7
  6
CONTINUOUS
 10
-69.663362465
 20
22.3213883311
 11
-69.663362465
 21
23.1226497308
  0
LINE
  5
3C2
100
AcDbEntity
  8
ASSI
100
AcDbLine
 62
7
  6
CONTINUOUS
 10
-69.663362465
 20
22.3213883311
 11
-69.663362465
 21
23.1226497308
  0
LINE
  5
3C3
100
AcDbEntity
  8
RACCORDO
100
AcDbLine
 62
253
  6
CONTINUOUS
 10
-69.4148168978
 20
-23.2669872981
 11
-69.4148168978
 21
-22.3334109614
  0
LINE
  5
3C4
100
AcDbEntity
  8
ASSI
100
AcDbLine
 62
253
  6
CONTINUOUS
 10
-69.4148168978
 20
-23.2669872981
 11
-69.4148168978
 21
-22.3334109614
  0
LINE
  5
3C5
100
AcDbEntity
  8
RACCORDO
100
AcDbLine
 62
253
  6
CONTINUOUS
 10
-69.4148168978
 20
22.3334109614
 11
-69.4148168978
 21
23.2669872981
  0
LINE
  5
3C6
100
AcDbEntity
  8
ASSI
100
AcDbLine
 62
253
  6
CONTINUOUS
 10
-69.4148168978
 20
22.3334109614
 11
-69.4148168978
 21
23.2669872981
  0
LINE
  5
3C7
100
AcDbEntity
  8
CURVE
100
AcDbLine
 62
7
  6
CONTINUOUS
 10
-64.5641553895
 20
14.2640266243
 11
-63.4482203041
 21
15.3799617098
  0
LINE
  5
3C8
100
AcDbEntity
  8
CURVE
100
AcDbLine
 62
7
  6
CONTINUOUS
 10
-64.2638718558
 20
14.14428873
 11
-63.8550601889
 21
14.5531003969
  0
LINE
  5
3C9
100
AcDbEntity
  8
CURVE
100
AcDbLine
 62
7
  6
CONTINUOUS
 10
-63.703032512
 20
14.7051280738
 11
-62.8042977119
 21
15.603862874
  0
LINE
  5
3CA
100
AcDbEntity
  8
CURVE
100
AcDbLine
 62
7
  6
CONTINUOUS
 10
-63.9554050987
 20
14.0327340591
 11
-63.5426181089
 21
14.4455210489
  0
LINE
  5
3CB
100
AcDbEntity
  8
CURVE
100
AcDbLine
 62
7
  6
CONTINUOUS
 10
-63.0840212359
 20
14.9041179219
 11
-62.1603751196
 21
15.8277640382
  0
LINE
  5
3CC
100
AcDbEntity
  8
CURVE
100
AcDbLine
 62
7
  6
CONTINUOUS
 10
-63.6469383415
 20
13.9211793883
 11
-63.2301760289
 21
14.3379417009
  0
LINE
  5
3CD
100
AcDbEntity
  8
CURVE
100
AcDbLine
 62
7
  6
CONTINUOUS
 10
-62.7612756896
 20
14.8068420401
 11
-61.6650376907
 21
15.9030800391
  0
LINE
  5
3CE
100
AcDbEntity
  8
CURVE
100
AcDbLine
 62
7
  6
CONTINUOUS
 10
-64.5641553895
 20
12.5839409122
 11
-64.2368983018
 21
12.911198
  0
LINE
  5
3CF
100
AcDbEntity
  8
CURVE
100
AcDbLine
 62
7
  6
CONTINUOUS
 10
-63.3384715844
 20
13.8096247174
 11
-62.9177339489
 21
14.2303623528
  0
LINE
  5
3D0
100
AcDbEntity
  8
CURVE
100
AcDbLine
 62
7
  6
CONTINUOUS
 10
-62.7612756896
 20
14.3868206121
 11
-62.2794894799
 21
14.8686068218
  0
LINE
  5
3D1
100
AcDbEntity
  8
CURVE
100
AcDbLine
 62
7
  6
CONTINUOUS
 10
-61.830954719
 20
15.3171415827
 11
-61.6650376907
 21
15.4830586111
  0
LINE
  5
3D2
100
AcDbEntity
  8
CURVE
100
AcDbLine
 62
7
  6
CONTINUOUS
 10
-64.3993208737
 20
12.328754
 11
-63.8168768737
 21
12.911198
  0
LINE
  5
3D3
100
AcDbEntity
  8
CURVE
100
AcDbLine
 62
7
  6
CONTINUOUS
 10
-63.0300048272
 20
13.6980700465
 11
-62.2794894799
 21
14.4485853938
  0
LINE
  5
3D4
100
AcDbEntity
  8
CURVE
100
AcDbLine
 62
7
  6
CONTINUOUS
 10
-63.9792994457
 20
12.328754
 11
-63.3968554457
 21
12.911198
  0
LINE
  5
3D5
100
AcDbEntity
  8
CURVE
100
AcDbLine
 62
7
  6
CONTINUOUS
 10
-62.7215380701
 20
13.5865153756
 11
-62.2794894799
 21
14.0285639658
  0
LINE
  5
3D6
100
AcDbEntity
  8
CURVE
100
AcDbLine
 62
7
  6
CONTINUOUS
 10
-63.5592780177
 20
12.328754
 11
-62.9768340177
 21
12.911198
  0
LINE
  5
3D7
100
AcDbEntity
  8
CURVE
100
AcDbLine
 62
7
  6
CONTINUOUS
 10
-62.4130713129
 20
13.4749607048
 11
-61.9784722855
 21
13.9095597322
  0
LINE
  5
3D8
100
AcDbEntity
  8
CURVE
100
AcDbLine
 62
253
  6
CONTINUOUS
 10
-60.1644285989
 20
15.5928578854
 11
-59.8930413835
 21
15.8642867804
  0
LINE
  5
3D9
100
AcDbEntity
  8
CURVE
100
AcDbLine
 62
253
  6
CONTINUOUS
 10
-59.8930413835
 20
15.8642867804
 11
-59.6216541681
 21
16.0000010014
  0
LINE
  5
3DA
100
AcDbEntity
  8
CURVE
100
AcDbLine
 62
7
  6
CONTINUOUS
 10
-61.6650376907
 20
16.0
 11
-64.5641553895
 21
14.991935
  0
LINE
  5
3DB
100
AcDbEntity
  8
CURVE
100
AcDbLine
 62
7
  6
CONTINUOUS
 10
-62.2794894799
 20
15.164584
 11
-61.6650376907
 21
15.373574
  0
LINE
  5
3DC
100
AcDbEntity
  8
CURVE
100
AcDbLine
 62
7
  6
CONTINUOUS
 10
-64.0100002291
 20
14.606449
 11
-62.7612756896
 21
15.007869
  0
LINE
  5
3DD
100
AcDbEntity
  8
RACCORDO
100
AcDbLine
 62
253
  6
CONTINUOUS
 10
-67.163362465
 20
-17.6716990487
 11
-29.1459100585
 21
-17.3968249551
  0
LINE
  5
3DE
100
AcDbEntity
  8
ASSI
100
AcDbLine
 62
253
  6
CONTINUOUS
 10
-67.163362465
 20
-17.6716990487
 11
-29.1459100585
 21
-17.3968249551
  0
LINE
  5
3DF
100
AcDbEntity
  8
RACCORDO
100
AcDbLine
 62
253
  6
CONTINUOUS
 10
-28.163362465
 20
-17.3968281299
 11
-29.1459100585
 21
-17.3968281299
  0
LINE
  5
3E0
100
AcDbEntity
  8
ASSI
100
AcDbLine
 62
253
  6
CONTINUOUS
 10
-28.163362465
 20
-17.3968281299
 11
-29.1459100585
 21
-17.3968281299
  0
LINE
  5
3E1
100
AcDbEntity
  8
CURVE
100
AcDbLine
 62
253
  6
CONTINUOUS
 10
-64.571019465
 20
-14.22041
 11
-62.575098465
 21
-14.790021
  0
LINE
  5
3E2
100
AcDbEntity
  8
CURVE
100
AcDbLine
 62
253
  6
CONTINUOUS
 10
-61.671366465
 20
-14.547617
 11
-64.571019465
 21
-13.615552
  0
LINE
  5
3E3
100
AcDbEntity
  8
RACCORDO
100
AcDbLine
 62
7
  6
CONTINUOUS
 10
-68.163362465
 20
-22.399689968
 11
-68.163362465
 21
-24.2500042308
  0
LINE
  5
3E4
100
AcDbEntity
  8
ASSI
100
AcDbLine
 62
7
  6
CONTINUOUS
 10
-68.163362465
 20
-22.399689968
 11
-68.163362465
 21
-24.2500042308
  0
LINE
  5
3E5
100
AcDbEntity
  8
RACCORDO
100
AcDbLine
 62
7
  6
CONTINUOUS
 10
-68.163362465
 20
22.399689968
 11
-68.163362465
 21
24.2500042308
  0
LINE
  5
3E6
100
AcDbEntity
  8
ASSI
100
AcDbLine
 62
7
  6
CONTINUOUS
 10
-68.163362465
 20
22.399689968
 11
-68.163362465
 21
24.2500042308
  0
LINE
  5
3E7
100
AcDbEntity
  8
RACCORDO
100
AcDbLine
 62
253
  6
CONTINUOUS
 10
-67.4119080321
 20
24.2456323968
 11
-67.4119080321
 21
23.8443375673
  0
LINE
  5
3E8
100
AcDbEntity
  8
ASSI
100
AcDbLine
 62
253
  6
CONTINUOUS
 10
-67.4119080321
 20
24.2456323968
 11
-67.4119080321
 21
23.8443375673
  0
LINE
  5
3E9
100
AcDbEntity
  8
RACCORDO
100
AcDbLine
 62
253
  6
CONTINUOUS
 10
-67.4119080321
 20
-23.8443375673
 11
-67.4119080321
 21
-24.2456323968
  0
LINE
  5
3EA
100
AcDbEntity
  8
ASSI
100
AcDbLine
 62
253
  6
CONTINUOUS
 10
-67.4119080321
 20
-23.8443375673
 11
-67.4119080321
 21
-24.2456323968
  0
LINE
  5
3EB
100
AcDbEntity
  8
RACCORDO
100
AcDbLine
 62
7
  6
CONTINUOUS
 10
-67.163362465
 20
24.2456323968
 11
-67.163362465
 21
23.7
  0
LINE
  5
3EC
100
AcDbEntity
  8
ASSI
100
AcDbLine
 62
7
  6
CONTINUOUS
 10
-67.163362465
 20
24.2456323968
 11
-67.163362465
 21
23.7
  0
LINE
  5
3ED
100
AcDbEntity
  8
RACCORDO
100
AcDbLine
 62
7
  6
CONTINUOUS
 10
-67.163362465
 20
-23.8443375673
 11
-67.163362465
 21
-24.2456323968
  0
LINE
  5
3EE
100
AcDbEntity
  8
ASSI
100
AcDbLine
 62
7
  6
CONTINUOUS
 10
-67.163362465
 20
-23.8443375673
 11
-67.163362465
 21
-24.2456323968
  0
LINE
  5
3EF
100
AcDbEntity
  8
RACCORDO
100
AcDbLine
 62
7
  6
CONTINUOUS
 10
-67.163362465
 20
-22.3912731322
 11
-67.163362465
 21
22.3912731322
  0
LINE
  5
3F0
100
AcDbEntity
  8
ASSI
100
AcDbLine
 62
7
  6
CONTINUOUS
 10
-67.163362465
 20
-22.3912731322
 11
-67.163362465
 21
22.3912731322
  0
LINE
  5
3F1
100
AcDbEntity
  8
CURVE
100
AcDbLine
 62
7
  6
CONTINUOUS
 10
-64.5641553895
 20
10.9038552001
 11
-63.9586137185
 21
11.5093968712
  0
LINE
  5
3F2
100
AcDbEntity
  8
CURVE
100
AcDbLine
 62
7
  6
CONTINUOUS
 10
-63.1392565897
 20
12.328754
 11
-62.5568125897
 21
12.911198
  0
LINE
  5
3F3
100
AcDbEntity
  8
CURVE
100
AcDbLine
 62
7
  6
CONTINUOUS
 10
-62.1046045558
 20
13.3634060339
 11
-61.6680558919
 21
13.7999546977
  0
LINE
  5
3F4
100
AcDbEntity
  8
CURVE
100
AcDbLine
 62
7
  6
CONTINUOUS
 10
-64.5641553895
 20
10.4838337721
 11
-63.1441607193
 21
11.9038284423
  0
LINE
  5
3F5
100
AcDbEntity
  8
CURVE
100
AcDbLine
 62
7
  6
CONTINUOUS
 10
-62.7192351616
 20
12.328754
 11
-62.1367911616
 21
12.911198
  0
LINE
  5
3F6
100
AcDbEntity
  8
CURVE
100
AcDbLine
 62
7
  6
CONTINUOUS
 10
-61.7961377986
 20
13.251851363
 11
-61.6650376907
 21
13.382951471
  0
LINE
  5
3F7
100
AcDbEntity
  8
CURVE
100
AcDbLine
 62
7
  6
CONTINUOUS
 10
-64.3356427336
 20
10.292325
 11
-63.7531977336
 21
10.87477
  0
LINE
  5
3F8
100
AcDbEntity
  8
CURVE
100
AcDbLine
 62
7
  6
CONTINUOUS
 10
-63.4470751659
 20
11.1808925677
 11
-62.3297077201
 21
12.2982600135
  0
LINE
  5
3F9
100
AcDbEntity
  8
CURVE
100
AcDbLine
 62
7
  6
CONTINUOUS
 10
-62.2992137336
 20
12.328754
 11
-61.7167697336
 21
12.911198
  0
LINE
  5
3FA
100
AcDbEntity
  8
CURVE
100
AcDbLine
 62
7
  6
CONTINUOUS
 10
-63.9156213056
 20
10.292325
 11
-63.3331763056
 21
10.87477
  0
LINE
  5
3FB
100
AcDbEntity
  8
CURVE
100
AcDbLine
 62
7
  6
CONTINUOUS
 10
-62.6468755786
 20
11.561070727
 11
-61.6650376907
 21
12.5429086149
  0
LINE
  5
3FC
100
AcDbEntity
  8
CURVE
100
AcDbLine
 62
7
  6
CONTINUOUS
 10
-63.4955998776
 20
10.292325
 11
-62.9131548776
 21
10.87477
  0
LINE
  5
3FD
100
AcDbEntity
  8
CURVE
100
AcDbLine
 62
7
  6
CONTINUOUS
 10
-61.8466759913
 20
11.9412488863
 11
-61.6650376907
 21
12.1228871869
  0
LINE
  5
3FE
100
AcDbEntity
  8
CURVE
100
AcDbLine
 62
253
  6
CONTINUOUS
 10
-58.2647179781
 20
15.4571436644
 11
-58.5361052217
 21
15.1857152224
  0
LINE
  5
3FF
100
AcDbEntity
  8
CURVE
100
AcDbLine
 62
253
  6
CONTINUOUS
 10
-59.3502669528
 20
14.2357152224
 11
-59.0788796808
 21
14.5071436644
  0
LINE
  5
400
100
AcDbEntity
  8
CURVE
100
AcDbLine
 62
7
  6
CONTINUOUS
 10
-64.5641553895
 20
8.80374806
 11
-64.3140174943
 21
9.0538859552
  0
LINE
  5
401
100
AcDbEntity
  8
CURVE
100
AcDbLine
 62
7
  6
CONTINUOUS
 10
-63.0755784495
 20
10.292325
 11
-62.4931334495
 21
10.87477
  0
LINE
  5
402
100
AcDbEntity
  8
CURVE
100
AcDbLine
 62
7
  6
CONTINUOUS
 10
-64.5641553895
 20
8.383726632
 11
-63.6700577843
 21
9.2778242372
  0
LINE
  5
403
100
AcDbEntity
  8
CURVE
100
AcDbLine
 62
7
  6
CONTINUOUS
 10
-62.6555570215
 20
10.292325
 11
-62.0731120215
 21
10.87477
  0
LINE
  5
404
100
AcDbEntity
  8
CURVE
100
AcDbLine
 62
7
  6
CONTINUOUS
 10
-64.3701609297
 20
8.1576996638
 11
-63.9627240812
 21
8.5651365123
  0
LINE
  5
405
100
AcDbEntity
  8
CURVE
100
AcDbLine
 62
7
  6
CONTINUOUS
 10
-63.9161757485
 20
8.611684845
 11
-63.0260980744
 21
9.5017625191
  0
LINE
  5
406
100
AcDbEntity
  8
CURVE
100
AcDbLine
 62
7
  6
CONTINUOUS
 10
-62.2355355935
 20
10.292325
 11
-61.6650376907
 21
10.8628229028
  0
LINE
  5
407
100
AcDbEntity
  8
CURVE
100
AcDbLine
 62
253
  6
CONTINUOUS
 10
-60.1644285989
 20
14.2357152224
 11
-59.8930413835
 21
14.416667366
  0
LINE
  5
408
100
AcDbEntity
  8
CURVE
100
AcDbLine
 62
253
  6
CONTINUOUS
 10
-58.5361052217
 20
15.1857152224
 11
-58.8074924654
 21
15.0500010014
  0
LINE
  5
409
100
AcDbEntity
  8
CURVE
100
AcDbLine
 62
7
  6
CONTINUOUS
 10
-64.5641553895
 20
11.216139
 11
-62.266741364
 21
12.328754
  0
LINE
  5
40A
100
AcDbEntity
  8
CURVE
100
AcDbLine
 62
7
  6
CONTINUOUS
 10
-61.6650376907
 20
12.027546
 11
-64.0914024276
 21
10.87477
  0
LINE
  5
40B
100
AcDbEntity
  8
RACCORDO
100
AcDbLine
 62
7
  6
CONTINUOUS
 10
-28.163362465
 20
-15.9
 11
-34.913362465
 21
-15.9
  0
LINE
  5
40C
100
AcDbEntity
  8
ASSI
100
AcDbLine
 62
7
  6
CONTINUOUS
 10
-28.163362465
 20
-15.9
 11
-34.913362465
 21
-15.9
  0
LINE
  5
40D
100
AcDbEntity
  8
CURVE
100
AcDbLine
 62
253
  6
CONTINUOUS
 10
-64.571019465
 20
-10.389084
 11
-62.961123465
 21
-10.994355
  0
LINE
  5
40E
100
AcDbEntity
  8
CURVE
100
AcDbLine
 62
253
  6
CONTINUOUS
 10
-64.571193465
 20
-13.390935
 11
-64.571193465
 21
-12.785664
  0
LINE
  5
40F
100
AcDbEntity
  8
CURVE
100
AcDbLine
 62
253
  6
CONTINUOUS
 10
-64.571019465
 20
-7.92899
 11
-64.571019465
 21
-8.514517
  0
LINE
  5
410
100
AcDbEntity
  8
CURVE
100
AcDbLine
 62
253
  6
CONTINUOUS
 10
-64.571019465
 20
-9.790227
 11
-64.571019465
 21
-10.389084
  0
LINE
  5
411
100
AcDbEntity
  8
CURVE
100
AcDbLine
 62
253
  6
CONTINUOUS
 10
-64.571019465
 20
-11.593234
 11
-64.571019465
 21
-12.198005
  0
LINE
  5
412
100
AcDbEntity
  8
CURVE
100
AcDbLine
 62
253
  6
CONTINUOUS
 10
-64.571019465
 20
-13.615552
 11
-64.571019465
 21
-14.22041
  0
LINE
  5
413
100
AcDbEntity
  8
CURVE
100
AcDbLine
 62
253
  6
CONTINUOUS
 10
-64.571019465
 20
-15.342748
 11
-64.571019465
 21
-16.00026
  0
LINE
  5
414
100
AcDbEntity
  8
CURVE
100
AcDbLine
 62
7
  6
CONTINUOUS
 10
-64.5641553895
 20
14.991935
 11
-64.5641553895
 21
14.252884
  0
LINE
  5
415
100
AcDbEntity
  8
CURVE
100
AcDbLine
 62
7
  6
CONTINUOUS
 10
-64.5641553895
 20
8.9669
 11
-64.5641553895
 21
8.227849
  0
LINE
  5
416
100
AcDbEntity
  8
CURVE
100
AcDbLine
 62
7
  6
CONTINUOUS
 10
-64.5641553895
 20
3.58822
 11
-64.5641553895
 21
2.70079
  0
LINE
  5
417
100
AcDbEntity
  8
CURVE
100
AcDbLine
 62
7
  6
CONTINUOUS
 10
-64.5641553895
 20
5.171133
 11
-64.5641553895
 21
5.793739
  0
LINE
  5
418
100
AcDbEntity
  8
CURVE
100
AcDbLine
 62
7
  6
CONTINUOUS
 10
-64.5641553895
 20
10.292325
 11
-64.5641553895
 21
11.216139
  0
LINE
  5
419
100
AcDbEntity
  8
CURVE
100
AcDbLine
 62
7
  6
CONTINUOUS
 10
-64.5641553895
 20
12.328754
 11
-64.5641553895
 21
12.911198
  0
LINE
  5
41A
100
AcDbEntity
  8
CURVE
100
AcDbLine
 62
253
  6
CONTINUOUS
 10
-59.3502669528
 20
13.8285721064
 11
-59.4859605038
 21
13.6476199627
  0
LINE
  5
41B
100
AcDbEntity
  8
CURVE
100
AcDbLine
 62
7
  6
CONTINUOUS
 10
-64.0616856549
 20
8.0461535106
 11
-63.6502821034
 21
8.457557062
  0
LINE
  5
41C
100
AcDbEntity
  8
CURVE
100
AcDbLine
 62
7
  6
CONTINUOUS
 10
-63.2971649866
 20
8.8106741789
 11
-62.3821383644
 21
9.7257008011
  0
LINE
  5
41D
100
AcDbEntity
  8
CURVE
100
AcDbLine
 62
7
  6
CONTINUOUS
 10
-61.8155141655
 20
10.292325
 11
-61.6650376907
 21
10.4428014748
  0
LINE
  5
41E
100
AcDbEntity
  8
CURVE
100
AcDbLine
 62
253
  6
CONTINUOUS
 10
-58.2647179781
 20
13.8285721064
 11
-58.5361052217
 21
13.5571436644
  0
LINE
  5
41F
100
AcDbEntity
  8
CURVE
100
AcDbLine
 62
253
  6
CONTINUOUS
 10
-59.0788796808
 20
13.0142865539
 11
-59.3502669528
 21
12.7428581119
  0
LINE
  5
420
100
AcDbEntity
  8
CURVE
100
AcDbLine
 62
7
  6
CONTINUOUS
 10
-63.7532103801
 20
7.9346073573
 11
-63.3378401256
 21
8.3499776118
  0
LINE
  5
421
100
AcDbEntity
  8
CURVE
100
AcDbLine
 62
7
  6
CONTINUOUS
 10
-62.7612756896
 20
8.9265420478
 11
-61.7381786544
 21
9.949639083
  0
LINE
  5
422
100
AcDbEntity
  8
CURVE
100
AcDbLine
 62
7
  6
CONTINUOUS
 10
-63.4447351054
 20
7.823061204
 11
-63.0253981478
 21
8.2423981616
  0
LINE
  5
423
100
AcDbEntity
  8
CURVE
100
AcDbLine
 62
7
  6
CONTINUOUS
 10
-62.7612756896
 20
8.5065206198
 11
-62.2794894799
 21
8.9883068295
  0
LINE
  5
424
100
AcDbEntity
  8
CURVE
100
AcDbLine
 62
7
  6
CONTINUOUS
 10
-62.0503525354
 20
9.217443774
 11
-61.6650376907
 21
9.6027586188
  0
LINE
  5
425
100
AcDbEntity
  8
CURVE
100
AcDbLine
 62
7
  6
CONTINUOUS
 10
-63.1362598306
 20
7.7115150508
 11
-62.2794894799
 21
8.5682854015
  0
LINE
  5
426
100
AcDbEntity
  8
CURVE
100
AcDbLine
 62
7
  6
CONTINUOUS
 10
-62.8277845559
 20
7.5999688975
 11
-62.2794894799
 21
8.1482639734
  0
LINE
  5
427
100
AcDbEntity
  8
CURVE
100
AcDbLine
 62
7
  6
CONTINUOUS
 10
-64.5641553895
 20
5.4435766358
 11
-64.2139930253
 21
5.793739
  0
LINE
  5
428
100
AcDbEntity
  8
CURVE
100
AcDbLine
 62
7
  6
CONTINUOUS
 10
-62.5193092811
 20
7.4884227442
 11
-62.0854123573
 21
7.9223196681
  0
LINE
  5
429
100
AcDbEntity
  8
CURVE
100
AcDbLine
 62
7
  6
CONTINUOUS
 10
-64.4165775973
 20
5.171133
 11
-63.7939715973
 21
5.793739
  0
LINE
  5
42A
100
AcDbEntity
  8
CURVE
100
AcDbLine
 62
7
  6
CONTINUOUS
 10
-62.2108340063
 20
7.376876591
 11
-61.7749552619
 21
7.8127553355
  0
LINE
  5
42B
100
AcDbEntity
  8
CURVE
100
AcDbLine
 62
7
  6
CONTINUOUS
 10
-63.9965561693
 20
5.171133
 11
-63.3739501693
 21
5.793739
  0
LINE
  5
42C
100
AcDbEntity
  8
CURVE
100
AcDbLine
 62
7
  6
CONTINUOUS
 10
-61.9023587316
 20
7.2653304377
 11
-61.6650376907
 21
7.5026514786
  0
LINE
  5
42D
100
AcDbEntity
  8
CURVE
100
AcDbLine
 62
7
  6
CONTINUOUS
 10
-61.6650376907
 20
9.975074
 11
-64.5641553895
 21
8.9669
  0
LINE
  5
42E
100
AcDbEntity
  8
CURVE
100
AcDbLine
 62
7
  6
CONTINUOUS
 10
-62.2794894799
 20
9.139549
 11
-61.6650376907
 21
9.348431
  0
LINE
  5
42F
100
AcDbEntity
  8
CURVE
100
AcDbLine
 62
7
  6
CONTINUOUS
 10
-64.0101641792
 20
8.581471
 11
-62.7612756896
 21
8.982943
  0
LINE
  5
430
100
AcDbEntity
  8
CURVE
100
AcDbLine
 62
253
  6
CONTINUOUS
 10
-47.163362465
 20
14.0500007629
 11
-48.463362465
 21
13.6785711288
  0
LINE
  5
431
100
AcDbEntity
  8
CURVE
100
AcDbLine
 62
253
  6
CONTINUOUS
 10
-62.575098465
 20
-14.790021
 11
-64.571019465
 21
-15.342748
  0
LINE
  5
432
100
AcDbEntity
  8
CURVE
100
AcDbLine
 62
253
  6
CONTINUOUS
 10
-61.671366465
 20
-13.390935
 11
-64.571193465
 21
-13.390935
  0
LINE
  5
433
100
AcDbEntity
  8
CURVE
100
AcDbLine
 62
253
  6
CONTINUOUS
 10
-64.571193465
 20
-12.785664
 11
-61.671366465
 21
-12.785664
  0
LINE
  5
434
100
AcDbEntity
  8
RACCORDO
100
AcDbLine
 62
7
  6
CONTINUOUS
 10
-28.163362465
 20
-11.7
 11
-34.913362465
 21
-11.7
  0
LINE
  5
435
100
AcDbEntity
  8
ASSI
100
AcDbLine
 62
7
  6
CONTINUOUS
 10
-28.163362465
 20
-11.7
 11
-34.913362465
 21
-11.7
  0
LINE
  5
436
100
AcDbEntity
  8
CURVE
100
AcDbLine
 62
253
  6
CONTINUOUS
 10
-61.671366465
 20
-11.880779
 11
-63.564785465
 21
-11.750162
  0
LINE
  5
437
100
AcDbEntity
  8
CURVE
100
AcDbLine
 62
253
  6
CONTINUOUS
 10
-64.571019465
 20
-12.198005
 11
-61.671366465
 21
-12.459827
  0
LINE
  5
438
100
AcDbEntity
  8
CURVE
100
AcDbLine
 62
253
  6
CONTINUOUS
 10
-64.571019465
 20
-8.514517
 11
-61.671366465
 21
-9.424033
  0
LINE
  5
439
100
AcDbEntity
  8
CURVE
100
AcDbLine
 62
253
  6
CONTINUOUS
 10
-61.671366465
 20
-10.955216
 11
-63.556892465
 21
-10.235548
  0
LINE
  5
43A
100
AcDbEntity
  8
CURVE
100
AcDbLine
 62
7
  6
CONTINUOUS
 10
-64.0823691798
 20
3.323396
 11
-64.0823691798
 21
3.686612
  0
LINE
  5
43B
100
AcDbEntity
  8
CURVE
100
AcDbLine
 62
253
  6
CONTINUOUS
 10
-63.2810233661
 20
-6.2788012718
 11
-63.2810233661
 21
-5.9328946758
  0
LINE
  5
43C
100
AcDbEntity
  8
CURVE
100
AcDbLine
 62
7
  6
CONTINUOUS
 10
-63.2632457498
 20
3.323396
 11
-63.2632457498
 21
3.686612
  0
LINE
  5
43D
100
AcDbEntity
  8
CURVE
100
AcDbLine
 62
253
  6
CONTINUOUS
 10
-62.8061302269
 20
-5.9341993273
 11
-62.8061302269
 21
-6.2587313832
  0
LINE
  5
43E
100
AcDbEntity
  8
CURVE
100
AcDbLine
 62
7
  6
CONTINUOUS
 10
-62.78145954
 20
3.58822
 11
-62.78145954
 21
3.323396
  0
LINE
  5
43F
100
AcDbEntity
  8
CURVE
100
AcDbLine
 62
7
  6
CONTINUOUS
 10
-62.7612756896
 20
15.007869
 11
-62.7612756896
 21
14.176491
  0
LINE
  5
440
100
AcDbEntity
  8
CURVE
100
AcDbLine
 62
7
  6
CONTINUOUS
 10
-62.7612756896
 20
8.982943
 11
-62.7612756896
 21
8.151456
  0
LINE
  5
441
100
AcDbEntity
  8
CURVE
100
AcDbLine
 62
253
  6
CONTINUOUS
 10
-62.698170465
 20
-7.954996
 11
-62.698170465
 21
-8.5345
  0
LINE
  5
442
100
AcDbEntity
  8
CURVE
100
AcDbLine
 62
7
  6
CONTINUOUS
 10
-62.2794894799
 20
7.990812
 11
-62.2794894799
 21
9.139549
  0
LINE
  5
443
100
AcDbEntity
  8
CURVE
100
AcDbLine
 62
7
  6
CONTINUOUS
 10
-62.2794894799
 20
14.015846
 11
-62.2794894799
 21
15.164584
  0
LINE
  5
444
100
AcDbEntity
  8
CURVE
100
AcDbLine
 62
253
  6
CONTINUOUS
 10
-62.250240465
 20
-8.658312
 11
-62.250240465
 21
-7.834033
  0
LINE
  5
445
100
AcDbEntity
  8
CURVE
100
AcDbLine
 62
7
  6
CONTINUOUS
 10
-62.1468239004
 20
5.793739
 11
-62.1468239004
 21
6.866738
  0
LINE
  5
446
100
AcDbEntity
  8
CURVE
100
AcDbLine
 62
7
  6
CONTINUOUS
 10
-64.4625022004
 20
4.2851655409
 11
-64.017138868
 21
4.7305288732
  0
LINE
  5
447
100
AcDbEntity
  8
CURVE
100
AcDbLine
 62
7
  6
CONTINUOUS
 10
-63.5765347413
 20
5.171133
 11
-62.9539287413
 21
5.793739
  0
LINE
  5
448
100
AcDbEntity
  8
CURVE
100
AcDbLine
 62
7
  6
CONTINUOUS
 10
-62.1468239004
 20
6.6008438409
 11
-61.8809297413
 21
6.866738
  0
LINE
  5
449
100
AcDbEntity
  8
CURVE
100
AcDbLine
 62
7
  6
CONTINUOUS
 10
-64.5572660654
 20
3.7703802479
 11
-63.5519314802
 21
4.7757148331
  0
LINE
  5
44A
100
AcDbEntity
  8
CURVE
100
AcDbLine
 62
7
  6
CONTINUOUS
 10
-63.1565133132
 20
5.171133
 11
-62.5339073132
 21
5.793739
  0
LINE
  5
44B
100
AcDbEntity
  8
CURVE
100
AcDbLine
 62
7
  6
CONTINUOUS
 10
-62.1468239004
 20
6.1808224129
 11
-61.6650376907
 21
6.6626086226
  0
LINE
  5
44C
100
AcDbEntity
  8
CURVE
100
AcDbLine
 62
7
  6
CONTINUOUS
 10
-64.5641552877
 20
3.3434695975
 11
-64.062144441
 21
3.8454804443
  0
LINE
  5
44D
100
AcDbEntity
  8
CURVE
100
AcDbLine
 62
7
  6
CONTINUOUS
 10
-63.8006551925
 20
4.1069696927
 11
-63.2227994271
 21
4.6848254582
  0
LINE
  5
44E
100
AcDbEntity
  8
CURVE
100
AcDbLine
 62
7
  6
CONTINUOUS
 10
-62.7364918852
 20
5.171133
 11
-61.6650376907
 21
6.2425871946
  0
LINE
  5
44F
100
AcDbEntity
  8
CURVE
100
AcDbLine
 62
7
  6
CONTINUOUS
 10
-64.5641553542
 20
2.9234481029
 11
-64.0823691635
 21
3.4052342937
  0
LINE
  5
450
100
AcDbEntity
  8
CURVE
100
AcDbLine
 62
7
  6
CONTINUOUS
 10
-63.4262591207
 20
4.0613443365
 11
-62.9956323134
 21
4.4919711438
  0
LINE
  5
451
100
AcDbEntity
  8
CURVE
100
AcDbLine
 62
7
  6
CONTINUOUS
 10
-62.3164704572
 20
5.171133
 11
-61.6650376907
 21
5.8225657665
  0
LINE
  5
452
100
AcDbEntity
  8
CURVE
100
AcDbLine
 62
7
  6
CONTINUOUS
 10
-64.3667920292
 20
2.70079
 11
-63.7441860292
 21
3.323396
  0
LINE
  5
453
100
AcDbEntity
  8
CURVE
100
AcDbLine
 62
7
  6
CONTINUOUS
 10
-63.2751572724
 20
3.7924247567
 11
-62.8575390901
 21
4.2100429391
  0
LINE
  5
454
100
AcDbEntity
  8
CURVE
100
AcDbLine
 62
7
  6
CONTINUOUS
 10
-61.8964490292
 20
5.171133
 11
-61.6650376907
 21
5.4025443385
  0
LINE
  5
455
100
AcDbEntity
  8
CURVE
100
AcDbLine
 62
7
  6
CONTINUOUS
 10
-63.9467706011
 20
2.70079
 11
-63.3241646011
 21
3.323396
  0
LINE
  5
456
100
AcDbEntity
  8
CURVE
100
AcDbLine
 62
7
  6
CONTINUOUS
 10
-63.2632457498
 20
3.3843148514
 11
-62.79379591
 21
3.8537646911
  0
LINE
  5
457
100
AcDbEntity
  8
CURVE
100
AcDbLine
 62
7
  6
CONTINUOUS
 10
-63.5267491731
 20
2.70079
 11
-62.78145954
 21
3.4460796331
  0
LINE
  5
458
100
AcDbEntity
  8
CURVE
100
AcDbLine
 62
7
  6
CONTINUOUS
 10
-63.1067277451
 20
2.70079
 11
-62.4841217451
 21
3.323396
  0
LINE
  5
459
100
AcDbEntity
  8
CURVE
100
AcDbLine
 62
253
  6
CONTINUOUS
 10
-47.906219641
 20
15.6285711288
 11
-48.463362465
 21
15.2571427345
  0
LINE
  5
45A
100
AcDbEntity
  8
0
100
AcDbLine
 62
7
  6
CONTINUOUS
 10
-40.663362465
 20
16.9533692342
 11
-40.563362465
 21
17.0
  0
LINE
  5
45B
100
AcDbEntity
  8
CURVE
100
AcDbLine
 62
253
  6
CONTINUOUS
 10
-63.556892465
 20
-10.235548
 11
-61.671366465
 21
-10.111193
  0
LINE
  5
45C
100
AcDbEntity
  8
RACCORDO
100
AcDbLine
 62
7
  6
CONTINUOUS
 10
-28.163362465
 20
-10.9
 11
-34.913362465
 21
-10.9
  0
LINE
  5
45D
100
AcDbEntity
  8
ASSI
100
AcDbLine
 62
7
  6
CONTINUOUS
 10
-28.163362465
 20
-10.9
 11
-34.913362465
 21
-10.9
  0
LINE
  5
45E
100
AcDbEntity
  8
CURVE
100
AcDbLine
 62
253
  6
CONTINUOUS
 10
-62.698170465
 20
-8.5345
 11
-63.774268465
 21
-8.233126
  0
LINE
  5
45F
100
AcDbEntity
  8
CURVE
100
AcDbLine
 62
253
  6
CONTINUOUS
 10
-61.671366465
 20
-8.825329
 11
-62.250240465
 21
-8.658312
  0
LINE
  5
460
100
AcDbEntity
  8
CURVE
100
AcDbLine
 62
253
  6
CONTINUOUS
 10
-61.671366465
 20
-12.785664
 11
-61.671366465
 21
-13.390935
  0
LINE
  5
461
100
AcDbEntity
  8
CURVE
100
AcDbLine
 62
253
  6
CONTINUOUS
 10
-61.671366465
 20
-15.081013
 11
-61.671366465
 21
-14.547617
  0
LINE
  5
462
100
AcDbEntity
  8
CURVE
100
AcDbLine
 62
253
  6
CONTINUOUS
 10
-61.671366465
 20
-12.459827
 11
-61.671366465
 21
-11.880779
  0
LINE
  5
463
100
AcDbEntity
  8
CURVE
100
AcDbLine
 62
253
  6
CONTINUOUS
 10
-61.671366465
 20
-11.040105
 11
-61.671366465
 21
-10.955216
  0
LINE
  5
464
100
AcDbEntity
  8
CURVE
100
AcDbLine
 62
253
  6
CONTINUOUS
 10
-61.671366465
 20
-10.111193
 11
-61.671366465
 21
-9.519077
  0
LINE
  5
465
100
AcDbEntity
  8
CURVE
100
AcDbLine
 62
253
  6
CONTINUOUS
 10
-61.671366465
 20
-9.424033
 11
-61.671366465
 21
-8.825329
  0
LINE
  5
466
100
AcDbEntity
  8
CURVE
100
AcDbLine
 62
253
  6
CONTINUOUS
 10
-61.671366465
 20
-7.677235
 11
-61.671366465
 21
-7.039304
  0
LINE
  5
467
100
AcDbEntity
  8
CURVE
100
AcDbLine
 62
253
  6
CONTINUOUS
 10
-61.6713661127
 20
-4.7496410148
 11
-61.6713661127
 21
-5.3318417383
  0
LINE
  5
468
100
AcDbEntity
  8
CURVE
100
AcDbLine
 62
253
  6
CONTINUOUS
 10
-61.6713661127
 20
-6.2587313832
 11
-61.6713661127
 21
-6.8615673444
  0
LINE
  5
469
100
AcDbEntity
  8
CURVE
100
AcDbLine
 62
7
  6
CONTINUOUS
 10
-61.6650376907
 20
12.911198
 11
-61.6650376907
 21
12.027546
  0
LINE
  5
46A
100
AcDbEntity
  8
CURVE
100
AcDbLine
 62
7
  6
CONTINUOUS
 10
-61.6650376907
 20
10.87477
 11
-61.6650376907
 21
10.292325
  0
LINE
  5
46B
100
AcDbEntity
  8
CURVE
100
AcDbLine
 62
7
  6
CONTINUOUS
 10
-61.6650376907
 20
6.866738
 11
-61.6650376907
 21
5.171133
  0
LINE
  5
46C
100
AcDbEntity
  8
CURVE
100
AcDbLine
 62
7
  6
CONTINUOUS
 10
-61.6650376907
 20
2.70079
 11
-61.6650376907
 21
3.323396
  0
LINE
  5
46D
100
AcDbEntity
  8
CURVE
100
AcDbLine
 62
7
  6
CONTINUOUS
 10
-61.6650376907
 20
7.179514
 11
-61.6650376907
 21
7.773964
  0
LINE
  5
46E
100
AcDbEntity
  8
CURVE
100
AcDbLine
 62
7
  6
CONTINUOUS
 10
-61.6650376907
 20
9.348431
 11
-61.6650376907
 21
9.975074
  0
LINE
  5
46F
100
AcDbEntity
  8
CURVE
100
AcDbLine
 62
7
  6
CONTINUOUS
 10
-61.6650376907
 20
13.20444
 11
-61.6650376907
 21
13.798889
  0
LINE
  5
470
100
AcDbEntity
  8
CURVE
100
AcDbLine
 62
7
  6
CONTINUOUS
 10
-61.6650376907
 20
15.373574
 11
-61.6650376907
 21
16.0
  0
LINE
  5
471
100
AcDbEntity
  8
ASSI
100
AcDbLine
 62
253
  6
CONTINUOUS
 10
-60.5888426382
 20
-23.7507734247
 11
-60.5888426382
 21
-22.3338981669
  0
LINE
  5
472
100
AcDbEntity
  8
ASSI
100
AcDbLine
 62
253
  6
CONTINUOUS
 10
-60.5888426382
 20
22.3338981669
 11
-60.5888426382
 21
23.7507734247
  0
LINE
  5
473
100
AcDbEntity
  8
CURVE
100
AcDbLine
 62
253
  6
CONTINUOUS
 10
-60.1644285989
 20
12.2000007749
 11
-60.1644285989
 21
13.0142865539
  0
LINE
  5
474
100
AcDbEntity
  8
CURVE
100
AcDbLine
 62
253
  6
CONTINUOUS
 10
-60.1644285989
 20
13.8285721064
 11
-60.1644285989
 21
14.2357152224
  0
LINE
  5
475
100
AcDbEntity
  8
CURVE
100
AcDbLine
 62
253
  6
CONTINUOUS
 10
-60.1644285989
 20
15.4571436644
 11
-60.1644285989
 21
15.5928578854
  0
LINE
  5
476
100
AcDbEntity
  8
ASSI
100
AcDbLine
 62
7
  6
CONTINUOUS
 10
-60.163362465
 20
-23.2563578147
 11
-60.163362465
 21
-22.3301954119
  0
LINE
  5
477
100
AcDbEntity
  8
ASSI
100
AcDbLine
 62
7
  6
CONTINUOUS
 10
-60.163362465
 20
22.3301954119
 11
-60.163362465
 21
23.2563578147
  0
LINE
  5
478
100
AcDbEntity
  8
CURVE
100
AcDbLine
 62
7
  6
CONTINUOUS
 10
-62.6867063171
 20
2.70079
 11
-62.0641003171
 21
3.323396
  0
LINE
  5
479
100
AcDbEntity
  8
CURVE
100
AcDbLine
 62
7
  6
CONTINUOUS
 10
-62.266684889
 20
2.70079
 11
-61.6650376907
 21
3.3024371984
  0
LINE
  5
47A
100
AcDbEntity
  8
CURVE
100
AcDbLine
 62
7
  6
CONTINUOUS
 10
-61.846663461
 20
2.70079
 11
-61.6650376907
 21
2.8824157704
  0
LINE
  5
47B
100
AcDbEntity
  8
CURVE
100
AcDbLine
 62
253
  6
CONTINUOUS
 10
-61.671366465
 20
-9.519077
 11
-64.571019465
 21
-9.790227
  0
LINE
  5
47C
100
AcDbEntity
  8
CURVE
100
AcDbLine
 62
253
  6
CONTINUOUS
 10
-61.6713661127
 20
-6.8615673444
 11
-64.5371418123
 21
-6.8615673444
  0
LINE
  5
47D
100
AcDbEntity
  8
CURVE
100
AcDbLine
 62
253
  6
CONTINUOUS
 10
-59.3502669528
 20
12.7428581119
 11
-59.3502669528
 21
12.2000007749
  0
LINE
  5
47E
100
AcDbEntity
  8
CURVE
100
AcDbLine
 62
253
  6
CONTINUOUS
 10
-59.3502669528
 20
13.8285721064
 11
-59.3502669528
 21
14.2357152224
  0
LINE
  5
47F
100
AcDbEntity
  8
CURVE
100
AcDbLine
 62
253
  6
CONTINUOUS
 10
-58.6717988294
 20
11.6571436644
 11
-58.6717988294
 21
10.7071437776
  0
LINE
  5
480
100
AcDbEntity
  8
CURVE
100
AcDbLine
 62
253
  6
CONTINUOUS
 10
-58.2647179781
 20
15.5928578854
 11
-58.2647179781
 21
15.4571436644
  0
LINE
  5
481
100
AcDbEntity
  8
CURVE
100
AcDbLine
 62
253
  6
CONTINUOUS
 10
-58.2647179781
 20
14.2357152224
 11
-58.2647179781
 21
13.8285721064
  0
LINE
  5
482
100
AcDbEntity
  8
CURVE
100
AcDbLine
 62
253
  6
CONTINUOUS
 10
-58.2647179781
 20
12.2000007749
 11
-58.2647179781
 21
12.7428581119
  0
LINE
  5
483
100
AcDbEntity
  8
RACCORDO
100
AcDbLine
 62
253
  6
CONTINUOUS
 10
-57.6546362617
 20
21.5659754333
 11
-57.6546362617
 21
20.9
  0
LINE
  5
484
100
AcDbEntity
  8
ASSI
100
AcDbLine
 62
253
  6
CONTINUOUS
 10
-57.6546362617
 20
21.5659754333
 11
-57.6546362617
 21
20.9
  0
LINE
  5
485
100
AcDbEntity
  8
RACCORDO
100
AcDbLine
 62
253
  6
CONTINUOUS
 10
-57.6546362617
 20
-20.9
 11
-57.6546362617
 21
-21.5659754333
  0
LINE
  5
486
100
AcDbEntity
  8
ASSI
100
AcDbLine
 62
253
  6
CONTINUOUS
 10
-57.6546362617
 20
-20.9
 11
-57.6546362617
 21
-21.5659754333
  0
LINE
  5
487
100
AcDbEntity
  8
RACCORDO
100
AcDbLine
 62
253
  6
CONTINUOUS
 10
-57.5051783822
 20
-20.9
 11
-57.5051783822
 21
-20.85
  0
LINE
  5
488
100
AcDbEntity
  8
ASSI
100
AcDbLine
 62
253
  6
CONTINUOUS
 10
-57.5051783822
 20
-20.9
 11
-57.5051783822
 21
-20.85
  0
LINE
  5
489
100
AcDbEntity
  8
RACCORDO
100
AcDbLine
 62
253
  6
CONTINUOUS
 10
-57.5051783822
 20
20.85
 11
-57.5051783822
 21
20.9
  0
LINE
  5
48A
100
AcDbEntity
  8
ASSI
100
AcDbLine
 62
253
  6
CONTINUOUS
 10
-57.5051783822
 20
20.85
 11
-57.5051783822
 21
20.9
  0
LINE
  5
48B
100
AcDbEntity
  8
CURVE
100
AcDbLine
 62
253
  6
CONTINUOUS
 10
-47.163362465
 20
9.9642859459
 11
-48.463362465
 21
9.3142859459
  0
LINE
  5
48C
100
AcDbEntity
  8
CURVE
100
AcDbLine
 62
253
  6
CONTINUOUS
 10
-62.250240465
 20
-7.834033
 11
-61.671366465
 21
-7.677235
  0
LINE
  5
48D
100
AcDbEntity
  8
CURVE
100
AcDbLine
 62
253
  6
CONTINUOUS
 10
-63.774268465
 20
-8.233126
 11
-62.698170465
 21
-7.954996
  0
LINE
  5
48E
100
AcDbEntity
  8
RACCORDO
100
AcDbLine
 62
7
  6
CONTINUOUS
 10
-28.163362465
 20
-6.7
 11
-34.913362465
 21
-6.7
  0
LINE
  5
48F
100
AcDbEntity
  8
ASSI
100
AcDbLine
 62
7
  6
CONTINUOUS
 10
-28.163362465
 20
-6.7
 11
-34.913362465
 21
-6.7
  0
LINE
  5
490
100
AcDbEntity
  8
CURVE
100
AcDbLine
 62
253
  6
CONTINUOUS
 10
-64.0770347232
 20
-6.2788012718
 11
-63.2810233661
 21
-6.2788012718
  0
LINE
  5
491
100
AcDbEntity
  8
CURVE
100
AcDbLine
 62
253
  6
CONTINUOUS
 10
-62.8061302269
 20
-6.2587313832
 11
-61.6713661127
 21
-6.2587313832
  0
LINE
  5
492
100
AcDbEntity
  8
CURVE
100
AcDbLine
 62
253
  6
CONTINUOUS
 10
-63.0420329589
 20
-5.30544429
 11
-63.0248985361
 21
-5.30544429
  0
LINE
  5
493
100
AcDbEntity
  8
CURVE
100
AcDbLine
 62
253
  6
CONTINUOUS
 10
-45.663362465
 20
-5.0
 11
-40.663362465
 21
-5.0
  0
LINE
  5
494
100
AcDbEntity
  8
CURVE
100
AcDbLine
 62
253
  6
CONTINUOUS
 10
-34.2276481814
 20
-4.4285714477
 11
-33.6562196105
 21
-4.4285714477
  0
LINE
  5
495
100
AcDbEntity
  8
RACCORDO
100
AcDbLine
 62
7
  6
CONTINUOUS
 10
-57.163362465
 20
-21.3126932437
 11
-57.163362465
 21
-19.3181305591
  0
LINE
  5
496
100
AcDbEntity
  8
ASSI
100
AcDbLine
 62
7
  6
CONTINUOUS
 10
-57.163362465
 20
-21.3126932437
 11
-57.163362465
 21
-19.3181305591
  0
LINE
  5
497
100
AcDbEntity
  8
RACCORDO
100
AcDbLine
 62
7
  6
CONTINUOUS
 10
-57.163362465
 20
19.3181305591
 11
-57.163362465
 21
21.3126932437
  0
LINE
  5
498
100
AcDbEntity
  8
ASSI
100
AcDbLine
 62
7
  6
CONTINUOUS
 10
-57.163362465
 20
19.3181305591
 11
-57.163362465
 21
21.3126932437
  0
LINE
  5
499
100
AcDbEntity
  8
CURVE
100
AcDbLine
 62
253
  6
CONTINUOUS
 10
-47.163362465
 20
4.9809527159
 11
-48.463362465
 21
4.6095241666
  0
LINE
  5
49A
100
AcDbEntity
  8
CURVE
100
AcDbLine
 62
253
  6
CONTINUOUS
 10
-35.3347910619
 20
-4.0
 11
-35.013362465
 21
-4.0
  0
LINE
  5
49B
100
AcDbEntity
  8
CURVE
100
AcDbLine
 62
253
  6
CONTINUOUS
 10
-44.413362465
 20
-3.75
 11
-41.913362465
 21
-3.75
  0
LINE
  5
49C
100
AcDbEntity
  8
CURVE
100
AcDbLine
 62
253
  6
CONTINUOUS
 10
-31.663362465
 20
-3.5
 11
-32.0919339127
 21
-3.5
  0
LINE
  5
49D
100
AcDbEntity
  8
CURVE
100
AcDbLine
 62
253
  6
CONTINUOUS
 10
-32.9490767634
 20
-3.5
 11
-33.270505271
 21
-3.5
  0
LINE
  5
49E
100
AcDbEntity
  8
CURVE
100
AcDbLine
 62
253
  6
CONTINUOUS
 10
-38.663362465
 20
-3.0
 11
-36.663362465
 21
-3.0
  0
LINE
  5
49F
100
AcDbEntity
  8
CURVE
100
AcDbLine
 62
253
  6
CONTINUOUS
 10
-31.8776481888
 20
-2.8571428955
 11
-32.0919339127
 21
-2.8571428955
  0
LINE
  5
4A0
100
AcDbEntity
  8
CURVE
100
AcDbLine
 62
253
  6
CONTINUOUS
 10
-38.663362465
 20
-2.5
 11
-38.263362465
 21
-2.5
  0
LINE
  5
4A1
100
AcDbEntity
  8
CURVE
100
AcDbLine
 62
253
  6
CONTINUOUS
 10
-37.863362465
 20
-2.5
 11
-37.463362465
 21
-2.5
  0
LINE
  5
4A2
100
AcDbEntity
  8
CURVE
100
AcDbLine
 62
253
  6
CONTINUOUS
 10
-37.063362465
 20
-2.5
 11
-36.663362465
 21
-2.5
  0
LINE
  5
4A3
100
AcDbEntity
  8
CURVE
100
AcDbLine
 62
253
  6
CONTINUOUS
 10
-53.086402465
 20
15.6
 11
-53.086402465
 21
14.139495888
  0
LINE
  5
4A4
100
AcDbEntity
  8
CURVE
100
AcDbLine
 62
253
  6
CONTINUOUS
 10
-48.2776481903
 20
6.0023811102
 11
-48.463362465
 21
5.816666913
  0
LINE
  5
4A5
100
AcDbEntity
  8
CURVE
100
AcDbLine
 62
253
  6
CONTINUOUS
 10
-47.7205053276
 20
3.4952384025
 11
-48.463362465
 21
3.1238098145
  0
LINE
  5
4A6
100
AcDbEntity
  8
CURVE
100
AcDbLine
 62
253
  6
CONTINUOUS
 10
-32.1990767634
 20
-2.0
 11
-31.663362465
 21
-2.0
  0
LINE
  5
4A7
100
AcDbEntity
  8
CURVE
100
AcDbLine
 62
253
  6
CONTINUOUS
 10
-32.7347910619
 20
-2.0
 11
-33.4847910619
 21
-2.0
  0
LINE
  5
4A8
100
AcDbEntity
  8
CURVE
100
AcDbLine
 62
253
  6
CONTINUOUS
 10
-34.9276482559
 20
-1.5
 11
-34.820505271
 21
-1.5
  0
LINE
  5
4A9
100
AcDbEntity
  8
CURVE
100
AcDbLine
 62
253
  6
CONTINUOUS
 10
-33.7490767634
 20
-1.5
 11
-33.641933868
 21
-1.5
  0
LINE
  5
4AA
100
AcDbEntity
  8
CURVE
100
AcDbLine
 62
253
  6
CONTINUOUS
 10
-41.913362465
 20
-1.25
 11
-44.413362465
 21
-1.25
  0
LINE
  5
4AB
100
AcDbEntity
  8
CURVE
100
AcDbLine
 62
253
  6
CONTINUOUS
 10
-36.5347908831
 20
-1.071428597
 11
-35.6776480771
 21
-1.071428597
  0
LINE
  5
4AC
100
AcDbEntity
  8
CURVE
100
AcDbLine
 62
253
  6
CONTINUOUS
 10
-37.7847911215
 20
-0.4285714477
 11
-37.2133625842
 21
-0.4285714477
  0
LINE
  5
4AD
100
AcDbEntity
  8
CURVE
100
AcDbLine
 62
253
  6
CONTINUOUS
 10
-33.641933868
 20
0.0
 11
-33.7490767634
 21
0.0
  0
LINE
  5
4AE
100
AcDbEntity
  8
CURVE
100
AcDbLine
 62
253
  6
CONTINUOUS
 10
-34.820505271
 20
0.0
 11
-34.9276482559
 21
0.0
  0
LINE
  5
4AF
100
AcDbEntity
  8
CURVE
100
AcDbLine
 62
253
  6
CONTINUOUS
 10
-40.663362465
 20
0.0
 11
-45.663362465
 21
0.0
  0
LINE
  5
4B0
100
AcDbEntity
  8
CURVE
100
AcDbLine
 62
253
  6
CONTINUOUS
 10
-52.336402465
 20
14.139499
 11
-52.336402465
 21
15.6
  0
LINE
  5
4B1
100
AcDbEntity
  8
CURVE
100
AcDbLine
 62
253
  6
CONTINUOUS
 10
-38.163362465
 20
1.5
 11
-37.163362465
 21
1.5
  0
LINE
  5
4B2
100
AcDbEntity
  8
CURVE
100
AcDbLine
 62
253
  6
CONTINUOUS
 10
-33.163362465
 20
1.5
 11
-32.163362465
 21
1.5
  0
LINE
  5
4B3
100
AcDbEntity
  8
CURVE
100
AcDbLine
 62
253
  6
CONTINUOUS
 10
-59.6216541681
 20
9.6214294434
 11
-60.1644285989
 21
10.1642866105
  0
LINE
  5
4B4
100
AcDbEntity
  8
CURVE
100
AcDbLine
 62
253
  6
CONTINUOUS
 10
-48.463362465
 20
12.9357143402
 11
-48.463362465
 21
12.1928575516
  0
LINE
  5
4B5
100
AcDbEntity
  8
CURVE
100
AcDbLine
 62
253
  6
CONTINUOUS
 10
-48.463362465
 20
7.0857146502
 11
-48.463362465
 21
6.5285717487
  0
LINE
  5
4B6
100
AcDbEntity
  8
CURVE
100
AcDbLine
 62
253
  6
CONTINUOUS
 10
-48.463362465
 20
5.816666913
 11
-48.463362465
 21
5.3523812652
  0
LINE
  5
4B7
100
AcDbEntity
  8
CURVE
100
AcDbLine
 62
253
  6
CONTINUOUS
 10
-47.906219641
 20
6.5285717487
 11
-47.906219641
 21
6.9000001431
  0
LINE
  5
4B8
100
AcDbEntity
  8
CURVE
100
AcDbLine
 62
253
  6
CONTINUOUS
 10
-61.671366465
 20
-7.039304
 11
-64.571019465
 21
-7.92899
  0
LINE
  5
4B9
100
AcDbEntity
  8
CURVE
100
AcDbLine
 62
7
  6
CONTINUOUS
 10
-64.5641553895
 20
2.70079
 11
-61.6650376907
 21
2.70079
  0
LINE
  5
4BA
100
AcDbEntity
  8
0
100
AcDbLine
 62
7
  6
CONTINUOUS
 10
-28.163362465
 20
3.1
 11
-40.563362465
 21
3.1
  0
LINE
  5
4BB
100
AcDbEntity
  8
CURVE
100
AcDbLine
 62
253
  6
CONTINUOUS
 10
-48.463362465
 20
3.1238098145
 11
-47.163362465
 21
3.1238098145
  0
LINE
  5
4BC
100
AcDbEntity
  8
CURVE
100
AcDbLine
 62
7
  6
CONTINUOUS
 10
-61.6650376907
 20
3.323396
 11
-62.78145954
 21
3.323396
  0
LINE
  5
4BD
100
AcDbEntity
  8
CURVE
100
AcDbLine
 62
7
  6
CONTINUOUS
 10
-63.2632457498
 20
3.323396
 11
-64.0823691798
 21
3.323396
  0
LINE
  5
4BE
100
AcDbEntity
  8
CURVE
100
AcDbLine
 62
253
  6
CONTINUOUS
 10
-47.163362465
 20
3.8666669905
 11
-48.463362465
 21
3.8666669905
  0
LINE
  5
4BF
100
AcDbEntity
  8
SMUSSO
100
AcDbLine
 62
7
  6
CONTINUOUS
 10
-29.163324388
 20
2.8996406881
 11
-40.663362465
 21
3.0
  0
LINE
  5
4C0
100
AcDbEntity
  8
ASSI
100
AcDbLine
 62
7
  6
CONTINUOUS
 10
-29.163324388
 20
2.8996406881
 11
-40.663362465
 21
3.0
  0
LINE
  5
4C1
100
AcDbEntity
  8
CURVE
100
AcDbLine
 62
7
  6
CONTINUOUS
 10
-62.7612756896
 20
8.151456
 11
-64.0101641792
 21
8.581471
  0
LINE
  5
4C2
100
AcDbEntity
  8
CURVE
100
AcDbLine
 62
7
  6
CONTINUOUS
 10
-61.6650376907
 20
7.773964
 11
-62.2794894799
 21
7.990812
  0
LINE
  5
4C3
100
AcDbEntity
  8
CURVE
100
AcDbLine
 62
7
  6
CONTINUOUS
 10
-64.5641553895
 20
8.227849
 11
-61.6650376907
 21
7.179514
  0
LINE
  5
4C4
100
AcDbEntity
  8
CURVE
100
AcDbLine
 62
253
  6
CONTINUOUS
 10
-59.4859605038
 20
14.416667366
 11
-59.3502669528
 21
14.2357152224
  0
LINE
  5
4C5
100
AcDbEntity
  8
CURVE
100
AcDbLine
 62
253
  6
CONTINUOUS
 10
-47.534791053
 20
13.9261904716
 11
-47.534791053
 21
13.4309524059
  0
LINE
  5
4C6
100
AcDbEntity
  8
CURVE
100
AcDbLine
 62
253
  6
CONTINUOUS
 10
-47.534791053
 20
4.8571431994
 11
-47.534791053
 21
4.3619050562
  0
LINE
  5
4C7
100
AcDbEntity
  8
CURVE
100
AcDbLine
 62
253
  6
CONTINUOUS
 10
-47.163362465
 20
14.8857143402
 11
-47.163362465
 21
14.4214291573
  0
LINE
  5
4C8
100
AcDbEntity
  8
CURVE
100
AcDbLine
 62
253
  6
CONTINUOUS
 10
-47.163362465
 20
5.3523812652
 11
-47.163362465
 21
5.816666913
  0
LINE
  5
4C9
100
AcDbEntity
  8
CURVE
100
AcDbLine
 62
253
  6
CONTINUOUS
 10
-47.163362465
 20
6.5285717487
 11
-47.163362465
 21
7.0857146502
  0
LINE
  5
4CA
100
AcDbEntity
  8
CURVE
100
AcDbLine
 62
253
  6
CONTINUOUS
 10
-45.663362465
 20
0.0
 11
-45.663362465
 21
-5.0
  0
LINE
  5
4CB
100
AcDbEntity
  8
CURVE
100
AcDbLine
 62
253
  6
CONTINUOUS
 10
-63.564785465
 20
-11.750162
 11
-61.671366465
 21
-11.040105
  0
LINE
  5
4CC
100
AcDbEntity
  8
CURVE
100
AcDbLine
 62
253
  6
CONTINUOUS
 10
-62.961123465
 20
-10.994355
 11
-64.571019465
 21
-11.593234
  0
LINE
  5
4CD
100
AcDbEntity
  8
CURVE
100
AcDbLine
 62
7
  6
CONTINUOUS
 10
-61.6650376907
 20
5.171133
 11
-64.5641553895
 21
5.171133
  0
LINE
  5
4CE
100
AcDbEntity
  8
CURVE
100
AcDbLine
 62
253
  6
CONTINUOUS
 10
-48.463362465
 20
5.3523812652
 11
-47.163362465
 21
5.3523812652
  0
LINE
  5
4CF
100
AcDbEntity
  8
CURVE
100
AcDbLine
 62
7
  6
CONTINUOUS
 10
-64.5641553895
 20
5.793739
 11
-62.1468239004
 21
5.793739
  0
LINE
  5
4D0
100
AcDbEntity
  8
CURVE
100
AcDbLine
 62
253
  6
CONTINUOUS
 10
-47.349076759
 20
6.0023811102
 11
-48.2776481903
 21
6.0023811102
  0
LINE
  5
4D1
100
AcDbEntity
  8
CURVE
100
AcDbLine
 62
253
  6
CONTINUOUS
 10
-48.463362465
 20
6.5285717487
 11
-47.163362465
 21
6.5285717487
  0
LINE
  5
4D2
100
AcDbEntity
  8
CURVE
100
AcDbLine
 62
7
  6
CONTINUOUS
 10
-62.1468239004
 20
6.866738
 11
-61.6650376907
 21
6.866738
  0
LINE
  5
4D3
100
AcDbEntity
  8
CURVE
100
AcDbLine
 62
253
  6
CONTINUOUS
 10
-48.463362465
 20
4.6095241666
 11
-47.163362465
 21
4.2380955398
  0
LINE
  5
4D4
100
AcDbEntity
  8
CURVE
100
AcDbLine
 62
253
  6
CONTINUOUS
 10
-48.463362465
 20
3.8666669905
 11
-47.7205053276
 21
3.4952384025
  0
LINE
  5
4D5
100
AcDbEntity
  8
CURVE
100
AcDbLine
 62
253
  6
CONTINUOUS
 10
-58.2647179781
 20
12.7428581119
 11
-58.5361052217
 21
13.0142865539
  0
LINE
  5
4D6
100
AcDbEntity
  8
CURVE
100
AcDbLine
 62
253
  6
CONTINUOUS
 10
-59.0788796808
 20
13.5571436644
 11
-59.3502669528
 21
13.8285721064
  0
LINE
  5
4D7
100
AcDbEntity
  8
CURVE
100
AcDbLine
 62
253
  6
CONTINUOUS
 10
-59.8930413835
 20
15.1857152224
 11
-60.1644285989
 21
15.4571436644
  0
LINE
  5
4D8
100
AcDbEntity
  8
CURVE
100
AcDbLine
 62
253
  6
CONTINUOUS
 10
-58.5361052217
 20
14.5071436644
 11
-58.2647179781
 21
14.2357152224
  0
LINE
  5
4D9
100
AcDbEntity
  8
CURVE
100
AcDbLine
 62
253
  6
CONTINUOUS
 10
-58.5361052217
 20
15.8642867804
 11
-58.2647179781
 21
15.5928578854
  0
LINE
  5
4DA
100
AcDbEntity
  8
CURVE
100
AcDbLine
 62
253
  6
CONTINUOUS
 10
-44.413362465
 20
-1.25
 11
-44.413362465
 21
-3.75
  0
LINE
  5
4DB
100
AcDbEntity
  8
CURVE
100
AcDbLine
 62
253
  6
CONTINUOUS
 10
-48.463362465
 20
8.7261904716
 11
-47.163362465
 21
8.7261904716
  0
LINE
  5
4DC
100
AcDbEntity
  8
CURVE
100
AcDbLine
 62
253
  6
CONTINUOUS
 10
-48.463362465
 20
9.3142859459
 11
-47.163362465
 21
9.3142859459
  0
LINE
  5
4DD
100
AcDbEntity
  8
CURVE
100
AcDbLine
 62
253
  6
CONTINUOUS
 10
-58.6717988294
 20
10.7071437776
 11
-60.1644285989
 21
11.1142865539
  0
LINE
  5
4DE
100
AcDbEntity
  8
CURVE
100
AcDbLine
 62
7
  6
CONTINUOUS
 10
-64.5641553895
 20
14.252884
 11
-61.6650376907
 21
13.20444
  0
LINE
  5
4DF
100
AcDbEntity
  8
CURVE
100
AcDbLine
 62
253
  6
CONTINUOUS
 10
-59.8930413835
 20
13.6476199627
 11
-60.1644285989
 21
13.8285721064
  0
LINE
  5
4E0
100
AcDbEntity
  8
CURVE
100
AcDbLine
 62
253
  6
CONTINUOUS
 10
-47.163362465
 20
5.816666913
 11
-47.349076759
 21
6.0023811102
  0
LINE
  5
4E1
100
AcDbEntity
  8
CURVE
100
AcDbLine
 62
253
  6
CONTINUOUS
 10
-41.913362465
 20
-3.75
 11
-41.913362465
 21
-1.25
  0
LINE
  5
4E2
100
AcDbEntity
  8
RACCORDO
100
AcDbLine
 62
7
  6
CONTINUOUS
 10
-69.663362465
 20
-23.1226497308
 11
-70.538362465
 21
-23.6278312164
  0
LINE
  5
4E3
100
AcDbEntity
  8
ASSI
100
AcDbLine
 62
7
  6
CONTINUOUS
 10
-69.663362465
 20
-23.1226497308
 11
-70.538362465
 21
-23.6278312164
  0
LINE
  5
4E4
100
AcDbEntity
  8
RACCORDO
100
AcDbLine
 62
253
  6
CONTINUOUS
 10
-69.4148168978
 20
-23.2669872981
 11
-70.4148168978
 21
-23.8443375673
  0
LINE
  5
4E5
100
AcDbEntity
  8
ASSI
100
AcDbLine
 62
253
  6
CONTINUOUS
 10
-69.4148168978
 20
-23.2669872981
 11
-70.4148168978
 21
-23.8443375673
  0
LINE
  5
4E6
100
AcDbEntity
  8
CURVE
100
AcDbLine
 62
253
  6
CONTINUOUS
 10
-64.571019465
 20
-16.00026
 11
-61.671366465
 21
-15.081013
  0
LINE
  5
4E7
100
AcDbEntity
  8
CURVE
100
AcDbLine
 62
253
  6
CONTINUOUS
 10
-48.463362465
 20
9.9642859459
 11
-47.163362465
 21
9.9642859459
  0
LINE
  5
4E8
100
AcDbEntity
  8
CURVE
100
AcDbLine
 62
253
  6
CONTINUOUS
 10
-60.1644285989
 20
10.1642866105
 11
-58.2647179781
 21
10.1642866105
  0
LINE
  5
4E9
100
AcDbEntity
  8
CURVE
100
AcDbLine
 62
7
  6
CONTINUOUS
 10
-61.6650376907
 20
10.292325
 11
-64.5641553895
 21
10.292325
  0
LINE
  5
4EA
100
AcDbEntity
  8
CURVE
100
AcDbLine
 62
7
  6
CONTINUOUS
 10
-64.0914024276
 20
10.87477
 11
-61.6650376907
 21
10.87477
  0
LINE
  5
4EB
100
AcDbEntity
  8
CURVE
100
AcDbLine
 62
253
  6
CONTINUOUS
 10
-58.2647179781
 20
11.3404770732
 11
-59.2145732885
 21
11.3404770732
  0
LINE
  5
4EC
100
AcDbEntity
  8
CURVE
100
AcDbLine
 62
253
  6
CONTINUOUS
 10
-48.463362465
 20
11.6047620773
 11
-47.163362465
 21
11.6047620773
  0
LINE
  5
4ED
100
AcDbEntity
  8
CURVE
100
AcDbLine
 62
253
  6
CONTINUOUS
 10
-50.163365465
 20
11.61489
 11
-50.914182465
 21
11.61489
  0
LINE
  5
4EE
100
AcDbEntity
  8
CURVE
100
AcDbLine
 62
253
  6
CONTINUOUS
 10
-54.508622465
 20
11.61489
 11
-55.259439465
 21
11.61489
  0
LINE
  5
4EF
100
AcDbEntity
  8
CURVE
100
AcDbLine
 62
7
  6
CONTINUOUS
 10
-62.7612756896
 20
14.176491
 11
-64.0100002291
 21
14.606449
  0
LINE
  5
4F0
100
AcDbEntity
  8
CURVE
100
AcDbLine
 62
7
  6
CONTINUOUS
 10
-61.6650376907
 20
13.798889
 11
-62.2794894799
 21
14.015846
  0
LINE
  5
4F1
100
AcDbEntity
  8
CURVE
100
AcDbLine
 62
253
  6
CONTINUOUS
 10
-59.6216541681
 20
15.0500010014
 11
-59.8930413835
 21
15.1857152224
  0
LINE
  5
4F2
100
AcDbEntity
  8
CURVE
100
AcDbLine
 62
253
  6
CONTINUOUS
 10
-58.8074924654
 20
16.0000010014
 11
-58.5361052217
 21
15.8642867804
  0
LINE
  5
4F3
100
AcDbEntity
  8
RACCORDO
100
AcDbLine
 62
7
  6
CONTINUOUS
 10
-70.538362465
 20
23.6278312164
 11
-69.663362465
 21
23.1226497308
  0
LINE
  5
4F4
100
AcDbEntity
  8
ASSI
100
AcDbLine
 62
7
  6
CONTINUOUS
 10
-70.538362465
 20
23.6278312164
 11
-69.663362465
 21
23.1226497308
  0
LINE
  5
4F5
100
AcDbEntity
  8
RACCORDO
100
AcDbLine
 62
253
  6
CONTINUOUS
 10
-70.4148168978
 20
23.8443375673
 11
-69.4148168978
 21
23.2669872981
  0
LINE
  5
4F6
100
AcDbEntity
  8
ASSI
100
AcDbLine
 62
253
  6
CONTINUOUS
 10
-70.4148168978
 20
23.8443375673
 11
-69.4148168978
 21
23.2669872981
  0
LINE
  5
4F7
100
AcDbEntity
  8
CURVE
100
AcDbLine
 62
253
  6
CONTINUOUS
 10
-35.013362465
 20
-4.0
 11
-34.7990767634
 21
-4.2142857239
  0
LINE
  5
4F8
100
AcDbEntity
  8
CURVE
100
AcDbLine
 62
253
  6
CONTINUOUS
 10
-36.6419340468
 20
-0.9642857015
 11
-36.5347908831
 21
-1.071428597
  0
LINE
  5
4F9
100
AcDbEntity
  8
CURVE
100
AcDbLine
 62
253
  6
CONTINUOUS
 10
-33.270505271
 20
-3.5
 11
-33.4847910619
 21
-3.2857142985
  0
LINE
  5
4FA
100
AcDbEntity
  8
CURVE
100
AcDbLine
 62
253
  6
CONTINUOUS
 10
-35.141933868
 20
-1.2857142985
 11
-34.9276482559
 21
-1.5
  0
LINE
  5
4FB
100
AcDbEntity
  8
CURVE
100
AcDbLine
 62
253
  6
CONTINUOUS
 10
-36.8347908831
 20
-4.0
 11
-35.9776482559
 21
-5.5
  0
LINE
  5
4FC
100
AcDbEntity
  8
CURVE
100
AcDbLine
 62
253
  6
CONTINUOUS
 10
-40.663362465
 20
-5.0
 11
-40.663362465
 21
0.0
  0
LINE
  5
4FD
100
AcDbEntity
  8
RACCORDO
100
AcDbLine
 62
7
  6
CONTINUOUS
 10
-40.663362465
 20
3.0
 11
-40.663362465
 21
19.3229705976
  0
LINE
  5
4FE
100
AcDbEntity
  8
ASSI
100
AcDbLine
 62
7
  6
CONTINUOUS
 10
-40.663362465
 20
3.0
 11
-40.663362465
 21
19.3229705976
  0
LINE
  5
4FF
100
AcDbEntity
  8
0
100
AcDbLine
 62
7
  6
CONTINUOUS
 10
-40.563362465
 20
3.1
 11
-40.563362465
 21
19.3212250911
  0
LINE
  5
500
100
AcDbEntity
  8
CURVE
100
AcDbLine
 62
253
  6
CONTINUOUS
 10
-34.9276482559
 20
0.0
 11
-35.141933868
 21
-0.2142857239
  0
LINE
  5
501
100
AcDbEntity
  8
CURVE
100
AcDbLine
 62
253
  6
CONTINUOUS
 10
-33.7490767634
 20
0.0
 11
-33.963362465
 21
-0.2142857239
  0
LINE
  5
502
100
AcDbEntity
  8
CURVE
100
AcDbLine
 62
253
  6
CONTINUOUS
 10
-34.820505271
 20
-1.5
 11
-34.6062196589
 21
-1.2857142985
  0
LINE
  5
503
100
AcDbEntity
  8
CURVE
100
AcDbLine
 62
253
  6
CONTINUOUS
 10
-32.2705053306
 20
-2.9642857015
 11
-32.0919339127
 21
-2.8571428955
  0
LINE
  5
504
100
AcDbEntity
  8
CURVE
100
AcDbLine
 62
253
  6
CONTINUOUS
 10
-59.3502669528
 20
12.2000007749
 11
-60.1644285989
 21
12.2000007749
  0
LINE
  5
505
100
AcDbEntity
  8
CURVE
100
AcDbLine
 62
7
  6
CONTINUOUS
 10
-62.266741364
 20
12.328754
 11
-64.5641553895
 21
12.328754
  0
LINE
  5
506
100
AcDbEntity
  8
CURVE
100
AcDbLine
 62
253
  6
CONTINUOUS
 10
-48.463362465
 20
12.5642859459
 11
-47.163362465
 21
12.5642859459
  0
LINE
  5
507
100
AcDbEntity
  8
CURVE
100
AcDbLine
 62
7
  6
CONTINUOUS
 10
-64.5641553895
 20
12.911198
 11
-61.6650376907
 21
12.911198
  0
LINE
  5
508
100
AcDbEntity
  8
CURVE
100
AcDbLine
 62
253
  6
CONTINUOUS
 10
-58.5361052217
 20
13.0142865539
 11
-59.0788796808
 21
13.0142865539
  0
LINE
  5
509
100
AcDbEntity
  8
CURVE
100
AcDbLine
 62
253
  6
CONTINUOUS
 10
-58.5361052217
 20
13.5571436644
 11
-59.0788796808
 21
13.5571436644
  0
LINE
  5
50A
100
AcDbEntity
  8
CURVE
100
AcDbLine
 62
253
  6
CONTINUOUS
 10
-59.4859605038
 20
13.6476199627
 11
-59.8930413835
 21
13.6476199627
  0
LINE
  5
50B
100
AcDbEntity
  8
CURVE
100
AcDbLine
 62
253
  6
CONTINUOUS
 10
-48.463362465
 20
13.6785711288
 11
-47.163362465
 21
13.3071433544
  0
LINE
  5
50C
100
AcDbEntity
  8
CURVE
100
AcDbLine
 62
253
  6
CONTINUOUS
 10
-33.963362465
 20
-1.2857142985
 11
-33.7490767634
 21
-1.5
  0
LINE
  5
50D
100
AcDbEntity
  8
CURVE
100
AcDbLine
 62
253
  6
CONTINUOUS
 10
-32.0919339127
 20
-2.8571428955
 11
-32.3062196142
 21
-2.6428571492
  0
LINE
  5
50E
100
AcDbEntity
  8
CURVE
100
AcDbLine
 62
253
  6
CONTINUOUS
 10
-34.6062196589
 20
-0.2142857239
 11
-34.820505271
 21
0.0
  0
LINE
  5
50F
100
AcDbEntity
  8
CURVE
100
AcDbLine
 62
253
  6
CONTINUOUS
 10
-33.4276481665
 20
-0.2142857239
 11
-33.641933868
 21
0.0
  0
LINE
  5
510
100
AcDbEntity
  8
CURVE
100
AcDbLine
 62
253
  6
CONTINUOUS
 10
-32.0919339127
 20
-3.5
 11
-32.2705053306
 21
-3.2857142985
  0
LINE
  5
511
100
AcDbEntity
  8
CURVE
100
AcDbLine
 62
253
  6
CONTINUOUS
 10
-36.6419340468
 20
0.0
 11
-36.6419340468
 21
-0.9642857015
  0
LINE
  5
512
100
AcDbEntity
  8
CURVE
100
AcDbLine
 62
253
  6
CONTINUOUS
 10
-37.4990768529
 20
-1.5
 11
-37.070505271
 21
0.0
  0
LINE
  5
513
100
AcDbEntity
  8
CURVE
100
AcDbLine
 62
253
  6
CONTINUOUS
 10
-35.141933868
 20
-0.2142857239
 11
-35.249076674
 21
-0.4285714477
  0
LINE
  5
514
100
AcDbEntity
  8
CURVE
100
AcDbLine
 62
253
  6
CONTINUOUS
 10
-36.8347908831
 20
-5.5
 11
-35.9776482559
 21
-4.0
  0
LINE
  5
515
100
AcDbEntity
  8
CURVE
100
AcDbLine
 62
253
  6
CONTINUOUS
 10
-33.641933868
 20
-1.5
 11
-33.4276481665
 21
-1.2857142985
  0
LINE
  5
516
100
AcDbEntity
  8
CURVE
100
AcDbLine
 62
253
  6
CONTINUOUS
 10
-32.8919339127
 20
-1.5
 11
-32.463362465
 21
-1.071428597
  0
LINE
  5
517
100
AcDbEntity
  8
CURVE
100
AcDbLine
 62
253
  6
CONTINUOUS
 10
-35.549076674
 20
-4.2142857239
 11
-35.3347910619
 21
-4.0
  0
LINE
  5
518
100
AcDbEntity
  8
SMUSSO
100
AcDbLine
 62
7
  6
CONTINUOUS
 10
-28.6159220584
 20
2.3474404065
 11
-28.163362465
 21
2.8
  0
LINE
  5
519
100
AcDbEntity
  8
CURVE
100
AcDbLine
 62
253
  6
CONTINUOUS
 10
-32.3062196142
 20
-2.1071428619
 11
-32.1990767634
 21
-2.0
  0
LINE
  5
51A
100
AcDbEntity
  8
CURVE
100
AcDbLine
 62
253
  6
CONTINUOUS
 10
-59.8930413835
 20
14.416667366
 11
-59.4859605038
 21
14.416667366
  0
LINE
  5
51B
100
AcDbEntity
  8
CURVE
100
AcDbLine
 62
253
  6
CONTINUOUS
 10
-47.163362465
 20
14.4214291573
 11
-48.463362465
 21
14.4214291573
  0
LINE
  5
51C
100
AcDbEntity
  8
CURVE
100
AcDbLine
 62
253
  6
CONTINUOUS
 10
-59.0788796808
 20
14.5071436644
 11
-58.5361052217
 21
14.5071436644
  0
LINE
  5
51D
100
AcDbEntity
  8
CURVE
100
AcDbLine
 62
253
  6
CONTINUOUS
 10
-58.8074924654
 20
15.0500010014
 11
-59.6216541681
 21
15.0500010014
  0
LINE
  5
51E
100
AcDbEntity
  8
CURVE
100
AcDbLine
 62
253
  6
CONTINUOUS
 10
-52.336402465
 20
15.6
 11
-53.086402465
 21
15.6
  0
LINE
  5
51F
100
AcDbEntity
  8
CURVE
100
AcDbLine
 62
253
  6
CONTINUOUS
 10
-47.163362465
 20
15.6285711288
 11
-47.906219641
 21
15.6285711288
  0
LINE
  5
520
100
AcDbEntity
  8
CURVE
100
AcDbLine
 62
253
  6
CONTINUOUS
 10
-50.1633653472
 20
16.0
 11
-50.9141855134
 21
16.0
  0
LINE
  5
521
100
AcDbEntity
  8
CURVE
100
AcDbLine
 62
253
  6
CONTINUOUS
 10
-54.508622465
 20
16.0
 11
-55.2594395827
 21
16.0
  0
LINE
  5
522
100
AcDbEntity
  8
CURVE
100
AcDbLine
 62
253
  6
CONTINUOUS
 10
-59.6216541681
 20
16.0000010014
 11
-58.8074924654
 21
16.0000010014
  0
LINE
  5
523
100
AcDbEntity
  8
CURVE
100
AcDbLine
 62
253
  6
CONTINUOUS
 10
-48.463362465
 20
16.0000007629
 11
-47.906219641
 21
15.6285711288
  0
LINE
  5
524
100
AcDbEntity
  8
CURVE
100
AcDbLine
 62
253
  6
CONTINUOUS
 10
-35.249076674
 20
-1.071428597
 11
-35.141933868
 21
-1.2857142985
  0
LINE
  5
525
100
AcDbEntity
  8
CURVE
100
AcDbLine
 62
253
  6
CONTINUOUS
 10
-34.499076674
 20
-0.4285714477
 11
-34.6062196589
 21
-0.2142857239
  0
LINE
  5
526
100
AcDbEntity
  8
CURVE
100
AcDbLine
 62
253
  6
CONTINUOUS
 10
-34.070505271
 20
-1.071428597
 11
-33.963362465
 21
-1.2857142985
  0
LINE
  5
527
100
AcDbEntity
  8
CURVE
100
AcDbLine
 62
253
  6
CONTINUOUS
 10
-37.9276480771
 20
0.0
 11
-37.4990768529
 21
-1.5
  0
LINE
  5
528
100
AcDbEntity
  8
CURVE
100
AcDbLine
 62
253
  6
CONTINUOUS
 10
-34.3705053604
 20
-4.0
 11
-33.9419339127
 21
-5.5
  0
LINE
  5
529
100
AcDbEntity
  8
CURVE
100
AcDbLine
 62
253
  6
CONTINUOUS
 10
-36.1419338084
 20
0.0
 11
-36.1419338084
 21
-1.071428597
  0
LINE
  5
52A
100
AcDbEntity
  8
CURVE
100
AcDbLine
 62
253
  6
CONTINUOUS
 10
-35.6776480771
 20
-1.071428597
 11
-35.6776480771
 21
0.0
  0
LINE
  5
52B
100
AcDbEntity
  8
CURVE
100
AcDbLine
 62
253
  6
CONTINUOUS
 10
-35.549076674
 20
-5.5
 11
-35.549076674
 21
-4.2142857239
  0
LINE
  5
52C
100
AcDbEntity
  8
0
100
AcDbLine
 62
7
  6
CONTINUOUS
 10
-35.363362465
 20
-15.7595900835
 11
-35.363362465
 21
-11.8404099165
  0
LINE
  5
52D
100
AcDbEntity
  8
ASSI
100
AcDbLine
 62
7
  6
CONTINUOUS
 10
-35.363362465
 20
-10.7595900835
 11
-35.363362465
 21
-6.8404082058
  0
LINE
  5
52E
100
AcDbEntity
  8
CURVE
100
AcDbLine
 62
253
  6
CONTINUOUS
 10
-35.249076674
 20
-0.4285714477
 11
-35.249076674
 21
-1.071428597
  0
LINE
  5
52F
100
AcDbEntity
  8
CURVE
100
AcDbLine
 62
253
  6
CONTINUOUS
 10
-34.7990767634
 20
-4.2142857239
 11
-34.7990767634
 21
-5.5
  0
LINE
  5
530
100
AcDbEntity
  8
ASSI
100
AcDbLine
 62
7
  6
CONTINUOUS
 10
-34.563362465
 20
-6.8404082058
 11
-34.563362465
 21
-10.7595900835
  0
LINE
  5
531
100
AcDbEntity
  8
0
100
AcDbLine
 62
7
  6
CONTINUOUS
 10
-34.563362465
 20
-11.8404099165
 11
-34.563362465
 21
-15.7595900835
  0
LINE
  5
532
100
AcDbEntity
  8
CURVE
100
AcDbLine
 62
253
  6
CONTINUOUS
 10
-34.499076674
 20
-1.071428597
 11
-34.499076674
 21
-0.4285714477
  0
LINE
  5
533
100
AcDbEntity
  8
CURVE
100
AcDbLine
 62
253
  6
CONTINUOUS
 10
-34.070505271
 20
-0.4285714477
 11
-34.070505271
 21
-1.071428597
  0
LINE
  5
534
100
AcDbEntity
  8
CURVE
100
AcDbLine
 62
253
  6
CONTINUOUS
 10
-34.770505271
 20
-3.5
 11
-34.341933868
 21
-2.0
  0
LINE
  5
535
100
AcDbEntity
  8
CURVE
100
AcDbLine
 62
253
  6
CONTINUOUS
 10
-34.6062196589
 20
-1.2857142985
 11
-34.499076674
 21
-1.071428597
  0
LINE
  5
536
100
AcDbEntity
  8
CURVE
100
AcDbLine
 62
253
  6
CONTINUOUS
 10
-33.963362465
 20
-0.2142857239
 11
-34.070505271
 21
-0.4285714477
  0
LINE
  5
537
100
AcDbEntity
  8
CURVE
100
AcDbLine
 62
253
  6
CONTINUOUS
 10
-33.4276481665
 20
-1.2857142985
 11
-33.3205053604
 21
-1.071428597
  0
LINE
  5
538
100
AcDbEntity
  8
CURVE
100
AcDbLine
 62
253
  6
CONTINUOUS
 10
-32.7347910619
 20
-3.178571403
 11
-32.9490767634
 21
-3.5
  0
LINE
  5
539
100
AcDbEntity
  8
CURVE
100
AcDbLine
 62
253
  6
CONTINUOUS
 10
-33.4847910619
 20
-3.071428597
 11
-32.7347910619
 21
-2.0
  0
LINE
  5
53A
100
AcDbEntity
  8
SUPERFICI
100
AcDbLine
 62
253
  6
CONTINUOUS
 10
-28.163362465
 20
17.3968281299
 11
-29.1459100585
 21
17.3968281299
  0
LINE
  5
53B
100
AcDbEntity
  8
0
100
AcDbLine
 62
7
  6
CONTINUOUS
 10
-40.563362465
 20
17.5
 11
-40.663362465
 21
17.5
  0
LINE
  5
53C
100
AcDbEntity
  8
0
100
AcDbLine
 62
253
  6
CONTINUOUS
 10
-40.563362465
 20
18.8933759045
 11
-29.1459100585
 21
18.8199565902
  0
LINE
  5
53D
100
AcDbEntity
  8
RACCORDO
100
AcDbLine
 62
253
  6
CONTINUOUS
 10
-40.663362465
 20
17.4801007461
 11
-67.163362465
 21
17.6716990487
  0
LINE
  5
53E
100
AcDbEntity
  8
ASSI
100
AcDbLine
 62
253
  6
CONTINUOUS
 10
-40.663362465
 20
17.4801007461
 11
-67.163362465
 21
17.6716990487
  0
LINE
  5
53F
100
AcDbEntity
  8
0
100
AcDbLine
 62
253
  6
CONTINUOUS
 10
-40.563362465
 20
17.4793777337
 11
-29.1459100585
 21
17.3968249552
  0
LINE
  5
540
100
AcDbEntity
  8
RACCORDO
100
AcDbLine
 62
253
  6
CONTINUOUS
 10
-40.663362465
 20
18.8940989169
 11
-67.163362465
 21
19.0856972195
  0
LINE
  5
541
100
AcDbEntity
  8
ASSI
100
AcDbLine
 62
253
  6
CONTINUOUS
 10
-40.663362465
 20
18.8940989169
 11
-67.163362465
 21
19.0856972195
  0
LINE
  5
542
100
AcDbEntity
  8
DRAFT
100
AcDbLine
 62
7
  6
CONTINUOUS
 10
-40.563362465
 20
17.7678653168
 11
-40.663362465
 21
17.7687380035
  0
LINE
  5
543
100
AcDbEntity
  8
ASSI
100
AcDbLine
 62
7
  6
CONTINUOUS
 10
-40.563362465
 20
17.7678653168
 11
-40.663362465
 21
17.7687380035
  0
LINE
  5
544
100
AcDbEntity
  8
0
100
AcDbLine
 62
7
  6
CONTINUOUS
 10
-40.663362465
 20
13.0466307658
 11
-40.563362465
 21
13.0
  0
LINE
  5
545
100
AcDbEntity
  8
RACCORDO
100
AcDbLine
 62
7
  6
CONTINUOUS
 10
-28.163362465
 20
1.8909141526
 11
-29.163324388
 21
2.8996406881
  0
LINE
  5
546
100
AcDbEntity
  8
ASSI
100
AcDbLine
 62
7
  6
CONTINUOUS
 10
-28.163362465
 20
1.8909141526
 11
-29.163324388
 21
2.8996406881
  0
LINE
  5
547
100
AcDbEntity
  8
CURVE
100
AcDbLine
 62
253
  6
CONTINUOUS
 10
-33.3205053604
 20
-0.4285714477
 11
-33.4276481665
 21
-0.2142857239
  0
LINE
  5
548
100
AcDbEntity
  8
CURVE
100
AcDbLine
 62
253
  6
CONTINUOUS
 10
-34.341933868
 20
-2.0
 11
-33.913362465
 21
-3.5
  0
LINE
  5
549
100
AcDbEntity
  8
CURVE
100
AcDbLine
 62
253
  6
CONTINUOUS
 10
-33.4847910619
 20
-3.2857142985
 11
-33.4847910619
 21
-3.071428597
  0
LINE
  5
54A
100
AcDbEntity
  8
CURVE
100
AcDbLine
 62
253
  6
CONTINUOUS
 10
-33.3205053604
 20
-1.071428597
 11
-33.3205053604
 21
-0.4285714477
  0
LINE
  5
54B
100
AcDbEntity
  8
CURVE
100
AcDbLine
 62
253
  6
CONTINUOUS
 10
-32.8919339127
 20
0.0
 11
-32.8919339127
 21
-1.5
  0
LINE
  5
54C
100
AcDbEntity
  8
CURVE
100
AcDbLine
 62
253
  6
CONTINUOUS
 10
-32.663362465
 20
1.0
 11
-32.663362465
 21
2.0
  0
LINE
  5
54D
100
AcDbEntity
  8
CURVE
100
AcDbLine
 62
253
  6
CONTINUOUS
 10
-32.3062196142
 20
-2.6428571492
 11
-32.3062196142
 21
-2.1071428619
  0
LINE
  5
54E
100
AcDbEntity
  8
CURVE
100
AcDbLine
 62
253
  6
CONTINUOUS
 10
-32.2705053306
 20
-3.2857142985
 11
-32.2705053306
 21
-2.9642857015
  0
LINE
  5
54F
100
AcDbEntity
  8
0
100
AcDbLine
 62
7
  6
CONTINUOUS
 10
-32.213362465
 20
-15.9
 11
-32.213362465
 21
-11.7
  0
LINE
  5
550
100
AcDbEntity
  8
0
100
AcDbLine
 62
7
  6
CONTINUOUS
 10
-32.213362465
 20
-10.9
 11
-32.213362465
 21
-6.7
  0
LINE
  5
551
100
AcDbEntity
  8
CURVE
100
AcDbLine
 62
253
  6
CONTINUOUS
 10
-33.9419339127
 20
-5.5
 11
-33.513362465
 21
-4.0
  0
LINE
  5
552
100
AcDbEntity
  8
DRAFT
100
AcDbLine
 62
7
  6
CONTINUOUS
 10
-67.163362465
 20
20.85
 11
-57.163362465
 21
20.85
  0
LINE
  5
553
100
AcDbEntity
  8
ASSI
100
AcDbLine
 62
7
  6
CONTINUOUS
 10
-67.163362465
 20
20.85
 11
-57.163362465
 21
20.85
  0
LINE
  5
554
100
AcDbEntity
  8
RACCORDO
100
AcDbLine
 62
7
  6
CONTINUOUS
 10
-57.163362465
 20
20.9
 11
-67.163362465
 21
20.9
  0
LINE
  5
555
100
AcDbEntity
  8
ASSI
100
AcDbLine
 62
7
  6
CONTINUOUS
 10
-57.163362465
 20
20.9
 11
-67.163362465
 21
20.9
  0
LINE
  5
556
100
AcDbEntity
  8
RACCORDO
100
AcDbLine
 62
253
  6
CONTINUOUS
 10
-57.163362465
 20
19.3181305591
 11
-40.663362465
 21
19.0301219878
  0
LINE
  5
557
100
AcDbEntity
  8
ASSI
100
AcDbLine
 62
253
  6
CONTINUOUS
 10
-57.163362465
 20
19.3181305591
 11
-40.663362465
 21
19.0301219878
  0
LINE
  5
558
100
AcDbEntity
  8
RACCORDO
100
AcDbLine
 62
7
  6
CONTINUOUS
 10
-57.163362465
 20
19.6109791689
 11
-40.663362465
 21
19.3229705976
  0
LINE
  5
559
100
AcDbEntity
  8
DRAFT
100
AcDbLine
 62
7
  6
CONTINUOUS
 10
-40.663362465
 20
19.3229705976
 11
-40.563362465
 21
19.3212250911
  0
LINE
  5
55A
100
AcDbEntity
  8
ASSI
100
AcDbLine
 62
7
  6
CONTINUOUS
 10
-57.163362465
 20
19.6109791689
 11
-40.563362465
 21
19.3212250911
  0
LINE
  5
55B
100
AcDbEntity
  8
DRAFT
100
AcDbLine
 62
7
  6
CONTINUOUS
 10
-29.1459100585
 20
19.121932718
 11
-28.963362465
 21
19.1187463379
  0
LINE
  5
55C
100
AcDbEntity
  8
ASSI
100
AcDbLine
 62
7
  6
CONTINUOUS
 10
-29.1459100585
 20
19.121932718
 11
-28.963362465
 21
19.1187463379
  0
LINE
  5
55D
100
AcDbEntity
  8
0
100
AcDbLine
 62
7
  6
CONTINUOUS
 10
-29.1459100585
 20
19.121932718
 11
-40.563362465
 21
19.3212250911
  0
LINE
  5
55E
100
AcDbEntity
  8
0
100
AcDbLine
 62
253
  6
CONTINUOUS
 10
-29.1459100585
 20
18.8199565902
 11
-40.563362465
 21
19.0283764813
  0
LINE
  5
55F
100
AcDbEntity
  8
RACCORDO
100
AcDbLine
 62
253
  6
CONTINUOUS
 10
-76.7495176346
 20
20.5419058565
 11
-77.2403684372
 21
20.5624683248
  0
LINE
  5
560
100
AcDbEntity
  8
ASSI
100
AcDbLine
 62
253
  6
CONTINUOUS
 10
-76.7495176346
 20
20.5419058565
 11
-77.2403684372
 21
20.5624683248
  0
LINE
  5
561
100
AcDbEntity
  8
0
100
AcDbLine
 62
7
  6
CONTINUOUS
 10
-30.213362465
 20
-15.9
 11
-30.213362465
 21
-11.7
  0
LINE
  5
562
100
AcDbEntity
  8
0
100
AcDbLine
 62
7
  6
CONTINUOUS
 10
-30.213362465
 20
-10.9
 11
-30.213362465
 21
-6.7
  0
LINE
  5
563
100
AcDbEntity
  8
RACCORDO
100
AcDbLine
 62
7
  6
CONTINUOUS
 10
-29.763362465
 20
-6.7
 11
-29.763362465
 21
-10.9
  0
LINE
  5
564
100
AcDbEntity
  8
RACCORDO
100
AcDbLine
 62
7
  6
CONTINUOUS
 10
-29.763362465
 20
-11.7
 11
-29.763362465
 21
-15.9
  0
LINE
  5
565
100
AcDbEntity
  8
ASSI
100
AcDbLine
 62
7
  6
CONTINUOUS
 10
-29.663362465
 20
-15.9
 11
-29.663362465
 21
-11.7
  0
LINE
  5
566
100
AcDbEntity
  8
ASSI
100
AcDbLine
 62
7
  6
CONTINUOUS
 10
-29.663362465
 20
-10.9
 11
-29.663362465
 21
-6.7
  0
LINE
  5
567
100
AcDbEntity
  8
RACCORDO
100
AcDbLine
 62
253
  6
CONTINUOUS
 10
-29.1459100585
 20
2.882073723
 11
-29.1459100585
 21
-6.7
  0
LINE
  5
568
100
AcDbEntity
  8
ASSI
100
AcDbLine
 62
253
  6
CONTINUOUS
 10
-29.1459100585
 20
2.882073723
 11
-29.1459100585
 21
-6.7
  0
LINE
  5
569
100
AcDbEntity
  8
RACCORDO
100
AcDbLine
 62
253
  6
CONTINUOUS
 10
-29.1459100585
 20
-10.9
 11
-29.1459100585
 21
-11.7
  0
LINE
  5
56A
100
AcDbEntity
  8
ASSI
100
AcDbLine
 62
253
  6
CONTINUOUS
 10
-29.1459100585
 20
-10.9
 11
-29.1459100585
 21
-11.7
  0
LINE
  5
56B
100
AcDbEntity
  8
RACCORDO
100
AcDbLine
 62
253
  6
CONTINUOUS
 10
-29.1459100585
 20
-15.9
 11
-29.1459100585
 21
-17.3968249551
  0
LINE
  5
56C
100
AcDbEntity
  8
ASSI
100
AcDbLine
 62
253
  6
CONTINUOUS
 10
-29.1459100585
 20
-15.9
 11
-29.1459100585
 21
-17.3968249551
  0
LINE
  5
56D
100
AcDbEntity
  8
RACCORDO
100
AcDbLine
 62
253
  6
CONTINUOUS
 10
-29.1459100585
 20
-18.8108290722
 11
-29.1459100585
 21
-18.8290841082
  0
LINE
  5
56E
100
AcDbEntity
  8
ASSI
100
AcDbLine
 62
253
  6
CONTINUOUS
 10
-29.1459100585
 20
-18.8108290722
 11
-29.1459100585
 21
-18.8290841082
  0
LINE
  5
56F
100
AcDbEntity
  8
0
100
AcDbLine
 62
253
  6
CONTINUOUS
 10
-29.1459100585
 20
3.1
 11
-29.1459100585
 21
17.3968249552
  0
LINE
  5
570
100
AcDbEntity
  8
RACCORDO
100
AcDbLine
 62
253
  6
CONTINUOUS
 10
-68.161176136
 20
21.8998857286
 11
-75.8026995789
 21
21.4994104546
  0
LINE
  5
571
100
AcDbEntity
  8
ASSI
100
AcDbLine
 62
253
  6
CONTINUOUS
 10
-68.161176136
 20
21.8998857286
 11
-75.8026995789
 21
21.4994104546
  0
LINE
  5
572
100
AcDbEntity
  8
RACCORDO
100
AcDbLine
 62
7
  6
CONTINUOUS
 10
-75.8201413538
 20
21.998725222
 11
-69.538905607
 21
22.3279108386
  0
LINE
  5
573
100
AcDbEntity
  8
ASSI
100
AcDbLine
 62
7
  6
CONTINUOUS
 10
-75.8201413538
 20
21.998725222
 11
-69.538905607
 21
22.3279108386
  0
LINE
  5
574
100
AcDbEntity
  8
RACCORDO
100
AcDbLine
 62
7
  6
CONTINUOUS
 10
-57.6546362617
 20
21.5659754333
 11
-67.163362465
 21
21.4
  0
LINE
  5
575
100
AcDbEntity
  8
ASSI
100
AcDbLine
 62
7
  6
CONTINUOUS
 10
-57.6546362617
 20
21.5659754333
 11
-67.163362465
 21
21.4
  0
LINE
  5
576
100
AcDbEntity
  8
ASSI
100
AcDbLine
 62
7
  6
CONTINUOUS
 10
-67.163362465
 20
23.7941821702
 11
-60.6604535993
 21
23.7563493531
  0
LINE
  5
577
100
AcDbEntity
  8
RACCORDO
100
AcDbLine
 62
253
  6
CONTINUOUS
 10
-67.163362465
 20
21.8911779406
 11
-68.161176136
 21
21.8998857286
  0
LINE
  5
578
100
AcDbEntity
  8
ASSI
100
AcDbLine
 62
253
  6
CONTINUOUS
 10
-67.163362465
 20
21.8911779406
 11
-68.161176136
 21
21.8998857286
  0
LINE
  5
579
100
AcDbEntity
  8
RACCORDO
100
AcDbLine
 62
7
  6
CONTINUOUS
 10
-58.1546359295
 20
22.3126551668
 11
-68.163362465
 21
22.4
  0
LINE
  5
57A
100
AcDbEntity
  8
ASSI
100
AcDbLine
 62
7
  6
CONTINUOUS
 10
-58.1546359295
 20
22.3126551668
 11
-68.163362465
 21
22.4
  0
LINE
  5
57B
100
AcDbEntity
  8
SMUSSO
100
AcDbLine
 62
7
  6
CONTINUOUS
 10
-28.963362465
 20
19.1187463379
 11
-28.963362465
 21
19.1018809199
  0
LINE
  5
57C
100
AcDbEntity
  8
ASSI
100
AcDbLine
 62
7
  6
CONTINUOUS
 10
-28.963362465
 20
19.1187463379
 11
-28.963362465
 21
19.1018096619
  0
LINE
  5
57D
100
AcDbEntity
  8
RACCORDO
100
AcDbLine
 62
7
  6
CONTINUOUS
 10
-28.163362465
 20
18.1220850228
 11
-28.163362465
 21
17.3968281299
  0
LINE
  5
57E
100
AcDbEntity
  8
ASSI
100
AcDbLine
 62
7
  6
CONTINUOUS
 10
-28.163362465
 20
18.1220850228
 11
-28.163362465
 21
17.3968281299
  0
LINE
  5
57F
100
AcDbEntity
  8
SUPERFICI
100
AcDbLine
 62
7
  6
CONTINUOUS
 10
-28.163362465
 20
18.1220850228
 11
-28.163362465
 21
3.1
  0
LINE
  5
580
100
AcDbEntity
  8
RACCORDO
100
AcDbLine
 62
7
  6
CONTINUOUS
 10
-28.163362465
 20
2.8
 11
-28.163362465
 21
-6.7
  0
LINE
  5
581
100
AcDbEntity
  8
RACCORDO
100
AcDbLine
 62
7
  6
CONTINUOUS
 10
-28.163362465
 20
-10.9
 11
-28.163362465
 21
-11.7
  0
LINE
  5
582
100
AcDbEntity
  8
RACCORDO
100
AcDbLine
 62
7
  6
CONTINUOUS
 10
-28.163362465
 20
-15.9
 11
-28.163362465
 21
-18.1220850228
  0
LINE
  5
583
100
AcDbEntity
  8
ASSI
100
AcDbLine
 62
7
  6
CONTINUOUS
 10
-28.163362465
 20
-18.1220850228
 11
-28.163362465
 21
2.8
  0
LINE
  5
584
100
AcDbEntity
  8
SMUSSO
100
AcDbLine
 62
7
  6
CONTINUOUS
 10
-28.163362465
 20
2.8
 11
-28.163362465
 21
3.1
  0
LINE
  5
585
100
AcDbEntity
  8
0
100
AcDbLine
 62
7
  6
CONTINUOUS
 10
-28.163362465
 20
3.1
 11
-28.163362465
 21
17.3968281299
  0
LINE
  5
586
100
AcDbEntity
  8
RACCORDO
100
AcDbLine
 62
253
  6
CONTINUOUS
 10
-68.163362465
 20
24.2500042308
 11
-70.4148168978
 21
24.2369056521
  0
LINE
  5
587
100
AcDbEntity
  8
ASSI
100
AcDbLine
 62
253
  6
CONTINUOUS
 10
-68.163362465
 20
24.2500042308
 11
-70.4148168978
 21
24.2369056521
  0
LINE
  5
588
100
AcDbEntity
  8
RACCORDO
100
AcDbLine
 62
7
  6
CONTINUOUS
 10
-68.163362465
 20
24.5
 11
-70.4148168978
 21
24.4869014213
  0
LINE
  5
589
100
AcDbEntity
  8
ASSI
100
AcDbLine
 62
7
  6
CONTINUOUS
 10
-68.163362465
 20
24.5
 11
-70.4148168978
 21
24.4869014213
  0
LINE
  5
58A
100
AcDbEntity
  8
RACCORDO
100
AcDbLine
 62
253
  6
CONTINUOUS
 10
-70.663362465
 20
23.8443375673
 11
-70.4148168978
 21
23.8443375673
  0
LINE
  5
58B
100
AcDbEntity
  8
ASSI
100
AcDbLine
 62
253
  6
CONTINUOUS
 10
-70.663362465
 20
23.8443375673
 11
-70.4148168978
 21
23.8443375673
  0
LINE
  5
58C
100
AcDbEntity
  8
RACCORDO
100
AcDbLine
 62
253
  6
CONTINUOUS
 10
-70.663362465
 20
24.2369056521
 11
-70.4148168978
 21
24.2369056521
  0
LINE
  5
58D
100
AcDbEntity
  8
ASSI
100
AcDbLine
 62
253
  6
CONTINUOUS
 10
-70.663362465
 20
24.2369056521
 11
-70.4148168978
 21
24.2369056521
  0
LINE
  5
58E
100
AcDbEntity
  8
RACCORDO
100
AcDbLine
 62
253
  6
CONTINUOUS
 10
-67.163362465
 20
24.2456323968
 11
-67.4119080321
 21
24.2456323968
  0
LINE
  5
58F
100
AcDbEntity
  8
ASSI
100
AcDbLine
 62
253
  6
CONTINUOUS
 10
-67.163362465
 20
24.2456323968
 11
-67.4119080321
 21
24.2456323968
  0
LINE
  5
590
100
AcDbEntity
  8
RACCORDO
100
AcDbLine
 62
253
  6
CONTINUOUS
 10
-67.4119080321
 20
24.2456323968
 11
-68.163362465
 21
24.2500042308
  0
LINE
  5
591
100
AcDbEntity
  8
ASSI
100
AcDbLine
 62
253
  6
CONTINUOUS
 10
-67.4119080321
 20
24.2456323968
 11
-68.163362465
 21
24.2500042308
  0
LINE
  5
592
100
AcDbEntity
  8
RACCORDO
100
AcDbLine
 62
7
  6
CONTINUOUS
 10
-67.4119080321
 20
24.495628166
 11
-68.163362465
 21
24.5
  0
LINE
  5
593
100
AcDbEntity
  8
ASSI
100
AcDbLine
 62
7
  6
CONTINUOUS
 10
-67.4119080321
 20
24.495628166
 11
-68.163362465
 21
24.5
  0
ARC
  5
594
100
AcDbEntity
  8
RACCORDO
100
AcDbCircle
 62
7
  6
CONTINUOUS
 10
-10.6320863236
 20
-21.8994207963
 40
0.5006718688
100
AcDbArc
 50
235.8741322298
 51
243.4293964678
  0
ARC
  5
595
100
AcDbEntity
  8
RACCORDO
100
AcDbCircle
 62
7
  6
CONTINUOUS
 10
-10.6321990384
 20
-21.8996930777
 40
0.5003839455
100
AcDbArc
 50
180.0220592194
 51
235.8673252965
  0
ARC
  5
596
100
AcDbEntity
  8
ASSI
100
AcDbCircle
 62
7
  6
CONTINUOUS
 10
-10.6322100481
 20
-21.8996970357
 40
0.5003726548
100
AcDbArc
 50
180.0216064877
 51
243.4327445715
  0
ARC
  5
597
100
AcDbEntity
  8
RACCORDO
100
AcDbCircle
 62
253
  6
CONTINUOUS
 10
-10.4990666639
 20
-21.4985216611
 40
0.5001723744
100
AcDbArc
 50
180.1018210164
 51
269.9760259519
  0
ARC
  5
598
100
AcDbEntity
  8
ASSI
100
AcDbCircle
 62
253
  6
CONTINUOUS
 10
-10.4990594289
 20
-21.498541966
 40
0.5001631141
100
AcDbArc
 50
180.0994934246
 51
269.9751962056
  0
ARC
  5
599
100
AcDbEntity
  8
RACCORDO
100
AcDbCircle
 62
7
  6
CONTINUOUS
 10
-10.6324618824
 20
-21.9001237906
 40
0.499875135
100
AcDbArc
 50
243.4318543999
 51
267.9894638354
  0
ARC
  5
59A
100
AcDbEntity
  8
ASSI
100
AcDbCircle
 62
7
  6
CONTINUOUS
 10
-10.6324914973
 20
-21.9006538455
 40
0.4993443675
100
AcDbArc
 50
265.5208638369
 51
267.9907260654
  0
ARC
  5
59B
100
AcDbEntity
  8
ASSI
100
AcDbCircle
 62
7
  6
CONTINUOUS
 10
-10.3997171119
 20
-24.2482971872
 40
0.2517029765
100
AcDbArc
 50
250.9744114558
 51
269.9346423854
  0
ARC
  5
59C
100
AcDbEntity
  8
ASSI
100
AcDbCircle
 62
7
  6
CONTINUOUS
 10
-8.5017028128
 20
-24.2497171119
 40
0.2517029765
100
AcDbArc
 50
340.9744114558
 51
359.9346423854
  0
ARC
  5
59D
100
AcDbEntity
  8
ASSI
100
AcDbCircle
 62
7
  6
CONTINUOUS
 10
-10.3996231241
 20
-24.2499774933
 40
0.2503768773
100
AcDbArc
 50
180.0061185554
 51
199.0801697408
  0
ARC
  5
59E
100
AcDbEntity
  8
ASSI
100
AcDbCircle
 62
7
  6
CONTINUOUS
 10
-8.5000225067
 20
-24.2496231241
 40
0.2503768773
100
AcDbArc
 50
270.0061185554
 51
289.0801697408
  0
ARC
  5
59F
100
AcDbEntity
  8
RACCORDO
100
AcDbCircle
 62
253
  6
CONTINUOUS
 10
-10.3868954381
 20
-24.2368954381
 40
0.2500059834
100
AcDbArc
 50
180.0023408215
 51
269.9976591785
  0
ARC
  5
5A0
100
AcDbEntity
  8
RACCORDO
100
AcDbCircle
 62
253
  6
CONTINUOUS
 10
-8.513104562
 20
-24.236895438
 40
0.2500059834
100
AcDbArc
 50
270.0023408263
 51
359.9976591737
  0
ARC
  5
5A1
100
AcDbEntity
  8
ASSI
100
AcDbCircle
 62
7
  6
CONTINUOUS
 10
-10.3868954381
 20
-24.2368954381
 40
0.2500059834
100
AcDbArc
 50
180.0023408215
 51
269.9976591785
  0
ARC
  5
5A2
100
AcDbEntity
  8
ASSI
100
AcDbCircle
 62
7
  6
CONTINUOUS
 10
-8.513104562
 20
-24.236895438
 40
0.2500059834
100
AcDbArc
 50
270.0023408263
 51
359.9976591737
  0
ARC
  5
5A3
100
AcDbEntity
  8
RACCORDO
100
AcDbCircle
 62
7
  6
CONTINUOUS
 10
-10.4000053487
 20
-24.2500053487
 40
0.2499946513
100
AcDbArc
 50
179.9997437926
 51
270.0002562074
  0
ARC
  5
5A4
100
AcDbEntity
  8
RACCORDO
100
AcDbCircle
 62
7
  6
CONTINUOUS
 10
-8.4999946513
 20
-24.2500053487
 40
0.2499946513
100
AcDbArc
 50
269.9997437926
 51
0.0002562074
  0
ARC
  5
5A5
100
AcDbEntity
  8
ASSI
100
AcDbCircle
 62
7
  6
CONTINUOUS
 10
-10.4000076376
 20
-24.2500076376
 40
0.2499914143
100
AcDbArc
 50
199.0904347558
 51
250.9095652442
  0
ARC
  5
5A6
100
AcDbEntity
  8
ASSI
100
AcDbCircle
 62
7
  6
CONTINUOUS
 10
-8.4999923624
 20
-24.2500076376
 40
0.2499914143
100
AcDbArc
 50
289.0904347558
 51
340.9095652442
  0
ARC
  5
5A7
100
AcDbEntity
  8
RACCORDO
100
AcDbCircle
 62
7
  6
CONTINUOUS
 10
-10.6322111474
 20
21.899697415
 40
0.5003715268
100
AcDbArc
 50
116.5671981914
 51
179.9784368939
  0
ARC
  5
5A8
100
AcDbEntity
  8
ASSI
100
AcDbCircle
 62
7
  6
CONTINUOUS
 10
-10.6322111474
 20
21.899697415
 40
0.5003715268
100
AcDbArc
 50
116.5671981914
 51
179.9784368939
  0
ARC
  5
5A9
100
AcDbEntity
  8
RACCORDO
100
AcDbCircle
 62
253
  6
CONTINUOUS
 10
-10.4990666028
 20
21.4985215997
 40
0.5001723744
100
AcDbArc
 50
90.0239810492
 51
179.8981719682
  0
ARC
  5
5AA
100
AcDbEntity
  8
ASSI
100
AcDbCircle
 62
253
  6
CONTINUOUS
 10
-10.4990594289
 20
21.4985419661
 40
0.500163114
100
AcDbArc
 50
90.024803791
 51
179.900506579
  0
ARC
  5
5AB
100
AcDbEntity
  8
ASSI
100
AcDbCircle
 62
7
  6
CONTINUOUS
 10
-10.6324457656
 20
21.9000605129
 40
0.4999389393
100
AcDbArc
 50
92.0121276724
 51
116.5665540923
  0
ARC
  5
5AC
100
AcDbEntity
  8
RACCORDO
100
AcDbCircle
 62
7
  6
CONTINUOUS
 10
-10.6324618824
 20
21.9001237906
 40
0.499875135
100
AcDbArc
 50
92.0105361646
 51
116.5681456001
  0
ARC
  5
5AD
100
AcDbEntity
  8
ASSI
100
AcDbCircle
 62
7
  6
CONTINUOUS
 10
-8.5002828881
 20
24.2482971872
 40
0.2517029765
100
AcDbArc
 50
70.9744114558
 51
89.9346423854
  0
ARC
  5
5AE
100
AcDbEntity
  8
ASSI
100
AcDbCircle
 62
7
  6
CONTINUOUS
 10
-10.3982971872
 20
24.2497171119
 40
0.2517029765
100
AcDbArc
 50
160.9744114558
 51
179.9346423854
  0
ARC
  5
5AF
100
AcDbEntity
  8
ASSI
100
AcDbCircle
 62
7
  6
CONTINUOUS
 10
-8.5003768759
 20
24.2499774933
 40
0.2503768773
100
AcDbArc
 50
0.0061185554
 51
19.0801697408
  0
ARC
  5
5B0
100
AcDbEntity
  8
ASSI
100
AcDbCircle
 62
7
  6
CONTINUOUS
 10
-10.3999774933
 20
24.2496231241
 40
0.2503768773
100
AcDbArc
 50
90.0061185554
 51
109.0801697408
  0
ARC
  5
5B1
100
AcDbEntity
  8
RACCORDO
100
AcDbCircle
 62
253
  6
CONTINUOUS
 10
-8.513104562
 20
24.236895438
 40
0.2500059834
100
AcDbArc
 50
0.0023408263
 51
89.9976591737
  0
ARC
  5
5B2
100
AcDbEntity
  8
RACCORDO
100
AcDbCircle
 62
253
  6
CONTINUOUS
 10
-10.386895438
 20
24.236895438
 40
0.2500059834
100
AcDbArc
 50
90.0023408263
 51
179.9976591737
  0
ARC
  5
5B3
100
AcDbEntity
  8
ASSI
100
AcDbCircle
 62
7
  6
CONTINUOUS
 10
-8.513104562
 20
24.236895438
 40
0.2500059834
100
AcDbArc
 50
0.0023408263
 51
89.9976591737
  0
ARC
  5
5B4
100
AcDbEntity
  8
ASSI
100
AcDbCircle
 62
7
  6
CONTINUOUS
 10
-10.386895438
 20
24.236895438
 40
0.2500059834
100
AcDbArc
 50
90.0023408263
 51
179.9976591737
  0
ARC
  5
5B5
100
AcDbEntity
  8
RACCORDO
100
AcDbCircle
 62
7
  6
CONTINUOUS
 10
-8.4999946513
 20
24.2500053487
 40
0.2499946513
100
AcDbArc
 50
359.9997437926
 51
90.0002562074
  0
ARC
  5
5B6
100
AcDbEntity
  8
RACCORDO
100
AcDbCircle
 62
7
  6
CONTINUOUS
 10
-10.4000053487
 20
24.2500053487
 40
0.2499946513
100
AcDbArc
 50
89.9997437926
 51
180.0002562074
  0
ARC
  5
5B7
100
AcDbEntity
  8
ASSI
100
AcDbCircle
 62
7
  6
CONTINUOUS
 10
-8.4999923624
 20
24.2500076376
 40
0.2499914143
100
AcDbArc
 50
19.0904347558
 51
70.9095652442
  0
ARC
  5
5B8
100
AcDbEntity
  8
ASSI
100
AcDbCircle
 62
7
  6
CONTINUOUS
 10
-10.4000076376
 20
24.2500076376
 40
0.2499914143
100
AcDbArc
 50
109.0904347558
 51
160.9095652442
  0
ARC
  5
5B9
100
AcDbEntity
  8
RACCORDO
100
AcDbCircle
 62
7
  6
CONTINUOUS
 10
10.6322110873
 20
-21.8996973765
 40
0.5003715268
100
AcDbArc
 50
296.5671981914
 51
359.9784324932
  0
ARC
  5
5BA
100
AcDbEntity
  8
ASSI
100
AcDbCircle
 62
7
  6
CONTINUOUS
 10
10.6322110873
 20
-21.8996973765
 40
0.5003715268
100
AcDbArc
 50
296.5671981914
 51
359.9784324932
  0
ARC
  5
5BB
100
AcDbEntity
  8
RACCORDO
100
AcDbCircle
 62
253
  6
CONTINUOUS
 10
10.499066664
 20
-21.4985216611
 40
0.5001723744
100
AcDbArc
 50
270.0239740404
 51
359.8981789871
  0
ARC
  5
5BC
100
AcDbEntity
  8
ASSI
100
AcDbCircle
 62
253
  6
CONTINUOUS
 10
10.4990594318
 20
-21.4985419632
 40
0.500163114
100
AcDbArc
 50
270.0248034614
 51
359.900506254
  0
ARC
  5
5BD
100
AcDbEntity
  8
ASSI
100
AcDbCircle
 62
7
  6
CONTINUOUS
 10
10.6324457656
 20
-21.9000605129
 40
0.4999389393
100
AcDbArc
 50
272.0121276724
 51
296.5665540923
  0
ARC
  5
5BE
100
AcDbEntity
  8
RACCORDO
100
AcDbCircle
 62
7
  6
CONTINUOUS
 10
10.6324618824
 20
-21.9001237906
 40
0.499875135
100
AcDbArc
 50
272.0105361646
 51
296.5681456001
  0
ARC
  5
5BF
100
AcDbEntity
  8
ASSI
100
AcDbCircle
 62
7
  6
CONTINUOUS
 10
10.3982971872
 20
-24.2497171119
 40
0.2517029765
100
AcDbArc
 50
340.9744114558
 51
359.9346423854
  0
ARC
  5
5C0
100
AcDbEntity
  8
ASSI
100
AcDbCircle
 62
7
  6
CONTINUOUS
 10
8.5002828881
 20
-24.2482971872
 40
0.2517029765
100
AcDbArc
 50
250.9744114558
 51
269.9346423854
  0
ARC
  5
5C1
100
AcDbEntity
  8
ASSI
100
AcDbCircle
 62
7
  6
CONTINUOUS
 10
10.3999774933
 20
-24.2496231241
 40
0.2503768773
100
AcDbArc
 50
270.0061185554
 51
289.0801697408
  0
ARC
  5
5C2
100
AcDbEntity
  8
ASSI
100
AcDbCircle
 62
7
  6
CONTINUOUS
 10
8.5003768759
 20
-24.2499774933
 40
0.2503768773
100
AcDbArc
 50
180.0061185554
 51
199.0801697408
  0
ARC
  5
5C3
100
AcDbEntity
  8
RACCORDO
100
AcDbCircle
 62
253
  6
CONTINUOUS
 10
10.3868954381
 20
-24.2368954381
 40
0.2500059834
100
AcDbArc
 50
270.0023408215
 51
359.9976591785
  0
ARC
  5
5C4
100
AcDbEntity
  8
RACCORDO
100
AcDbCircle
 62
253
  6
CONTINUOUS
 10
8.513104562
 20
-24.236895438
 40
0.2500059834
100
AcDbArc
 50
180.0023408263
 51
269.9976591737
  0
ARC
  5
5C5
100
AcDbEntity
  8
ASSI
100
AcDbCircle
 62
7
  6
CONTINUOUS
 10
8.513104562
 20
-24.236895438
 40
0.2500059834
100
AcDbArc
 50
180.0023408263
 51
269.9976591737
  0
ARC
  5
5C6
100
AcDbEntity
  8
ASSI
100
AcDbCircle
 62
7
  6
CONTINUOUS
 10
10.3868954381
 20
-24.2368954381
 40
0.2500059834
100
AcDbArc
 50
270.0023408215
 51
359.9976591785
  0
ARC
  5
5C7
100
AcDbEntity
  8
RACCORDO
100
AcDbCircle
 62
7
  6
CONTINUOUS
 10
10.4000053487
 20
-24.2500053487
 40
0.2499946513
100
AcDbArc
 50
269.9997437926
 51
0.0002562074
  0
ARC
  5
5C8
100
AcDbEntity
  8
RACCORDO
100
AcDbCircle
 62
7
  6
CONTINUOUS
 10
8.4999946513
 20
-24.2500053487
 40
0.2499946513
100
AcDbArc
 50
179.9997437926
 51
270.0002562074
  0
ARC
  5
5C9
100
AcDbEntity
  8
ASSI
100
AcDbCircle
 62
7
  6
CONTINUOUS
 10
10.4000076376
 20
-24.2500076376
 40
0.2499914143
100
AcDbArc
 50
289.0904347558
 51
340.9095652442
  0
ARC
  5
5CA
100
AcDbEntity
  8
ASSI
100
AcDbCircle
 62
7
  6
CONTINUOUS
 10
8.4999923624
 20
-24.2500076376
 40
0.2499914143
100
AcDbArc
 50
199.0904347558
 51
250.9095652442
  0
ARC
  5
5CB
100
AcDbEntity
  8
RACCORDO
100
AcDbCircle
 62
7
  6
CONTINUOUS
 10
10.6320863236
 20
21.8994207963
 40
0.5006718688
100
AcDbArc
 50
55.8741322297
 51
63.4293964678
  0
ARC
  5
5CC
100
AcDbEntity
  8
RACCORDO
100
AcDbCircle
 62
7
  6
CONTINUOUS
 10
10.6321990009
 20
21.8996930604
 40
0.5003839455
100
AcDbArc
 50
0.0220612003
 51
55.8673228481
  0
ARC
  5
5CD
100
AcDbEntity
  8
ASSI
100
AcDbCircle
 62
7
  6
CONTINUOUS
 10
10.6322099882
 20
21.8996970024
 40
0.5003726548
100
AcDbArc
 50
0.0216102998
 51
63.4327445715
  0
ARC
  5
5CE
100
AcDbEntity
  8
RACCORDO
100
AcDbCircle
 62
253
  6
CONTINUOUS
 10
10.4990666558
 20
21.4985216786
 40
0.5001723744
100
AcDbArc
 50
0.1018189994
 51
89.9760250161
  0
ARC
  5
5CF
100
AcDbEntity
  8
ASSI
100
AcDbCircle
 62
253
  6
CONTINUOUS
 10
10.4990594316
 20
21.4985419631
 40
0.5001631142
100
AcDbArc
 50
0.099493763
 51
89.9751965221
  0
ARC
  5
5D0
100
AcDbEntity
  8
RACCORDO
100
AcDbCircle
 62
7
  6
CONTINUOUS
 10
10.6324618824
 20
21.9001237906
 40
0.499875135
100
AcDbArc
 50
63.4318543999
 51
87.9894638354
  0
ARC
  5
5D1
100
AcDbEntity
  8
ASSI
100
AcDbCircle
 62
7
  6
CONTINUOUS
 10
10.6324914973
 20
21.9006538455
 40
0.4993443675
100
AcDbArc
 50
85.5208638369
 51
87.9907260655
  0
ARC
  5
5D2
100
AcDbEntity
  8
ASSI
100
AcDbCircle
 62
7
  6
CONTINUOUS
 10
10.3997171119
 20
24.2482971872
 40
0.2517029765
100
AcDbArc
 50
70.9744114558
 51
89.9346423854
  0
ARC
  5
5D3
100
AcDbEntity
  8
ASSI
100
AcDbCircle
 62
7
  6
CONTINUOUS
 10
8.5017028128
 20
24.2497171119
 40
0.2517029765
100
AcDbArc
 50
160.9744114558
 51
179.9346423854
  0
ARC
  5
5D4
100
AcDbEntity
  8
ASSI
100
AcDbCircle
 62
7
  6
CONTINUOUS
 10
10.3996231241
 20
24.2499774933
 40
0.2503768773
100
AcDbArc
 50
0.0061185554
 51
19.0801697408
  0
ARC
  5
5D5
100
AcDbEntity
  8
ASSI
100
AcDbCircle
 62
7
  6
CONTINUOUS
 10
8.5000225067
 20
24.2496231241
 40
0.2503768773
100
AcDbArc
 50
90.0061185554
 51
109.0801697408
  0
ARC
  5
5D6
100
AcDbEntity
  8
RACCORDO
100
AcDbCircle
 62
253
  6
CONTINUOUS
 10
10.3868954381
 20
24.2368954381
 40
0.2500059834
100
AcDbArc
 50
0.0023408215
 51
89.9976591785
  0
ARC
  5
5D7
100
AcDbEntity
  8
RACCORDO
100
AcDbCircle
 62
253
  6
CONTINUOUS
 10
8.513104562
 20
24.236895438
 40
0.2500059834
100
AcDbArc
 50
90.0023408263
 51
179.9976591737
  0
ARC
  5
5D8
100
AcDbEntity
  8
ASSI
100
AcDbCircle
 62
7
  6
CONTINUOUS
 10
10.3868954381
 20
24.2368954381
 40
0.2500059834
100
AcDbArc
 50
0.0023408215
 51
89.9976591785
  0
ARC
  5
5D9
100
AcDbEntity
  8
ASSI
100
AcDbCircle
 62
7
  6
CONTINUOUS
 10
8.513104562
 20
24.236895438
 40
0.2500059834
100
AcDbArc
 50
90.0023408263
 51
179.9976591737
  0
ARC
  5
5DA
100
AcDbEntity
  8
RACCORDO
100
AcDbCircle
 62
7
  6
CONTINUOUS
 10
10.4000053487
 20
24.2500053487
 40
0.2499946513
100
AcDbArc
 50
359.9997437926
 51
90.0002562074
  0
ARC
  5
5DB
100
AcDbEntity
  8
RACCORDO
100
AcDbCircle
 62
7
  6
CONTINUOUS
 10
8.4999946513
 20
24.2500053487
 40
0.2499946513
100
AcDbArc
 50
89.9997437926
 51
180.0002562074
  0
ARC
  5
5DC
100
AcDbEntity
  8
ASSI
100
AcDbCircle
 62
7
  6
CONTINUOUS
 10
10.4000076376
 20
24.2500076376
 40
0.2499914143
100
AcDbArc
 50
19.0904347558
 51
70.9095652442
  0
ARC
  5
5DD
100
AcDbEntity
  8
ASSI
100
AcDbCircle
 62
7
  6
CONTINUOUS
 10
8.4999923624
 20
24.2500076376
 40
0.2499914143
100
AcDbArc
 50
109.0904347558
 51
160.9095652442
  0
ARC
  5
5DE
100
AcDbEntity
  8
ASSI
100
AcDbCircle
 62
253
  6
CONTINUOUS
 10
-214.9965663654
 20
-18.1038266292
 40
185.8520010557
100
AcDbArc
 50
359.7820397221
 51
0.2179600408
  0
ARC
  5
5DF
100
AcDbEntity
  8
RACCORDO
100
AcDbCircle
 62
7
  6
CONTINUOUS
 10
-67.413362465
 20
-24.2456323968
 40
0.25
100
AcDbArc
 50
270.3333333333
 51
360.0
  0
ARC
  5
5E0
100
AcDbEntity
  8
RACCORDO
100
AcDbCircle
 62
7
  6
CONTINUOUS
 10
-67.413362465
 20
-23.8443375673
 40
0.25
100
AcDbArc
 50
0.0
 51
60.0
  0
ARC
  5
5E1
100
AcDbEntity
  8
RACCORDO
100
AcDbCircle
 62
7
  6
CONTINUOUS
 10
-70.413362465
 20
-24.2369056521
 40
0.25
100
AcDbArc
 50
180.0
 51
269.6666666667
  0
ARC
  5
5E2
100
AcDbEntity
  8
RACCORDO
100
AcDbCircle
 62
7
  6
CONTINUOUS
 10
-70.413362465
 20
-23.8443375673
 40
0.25
100
AcDbArc
 50
120.0
 51
180.0
  0
ARC
  5
5E3
100
AcDbEntity
  8
ASSI
100
AcDbCircle
 62
7
  6
CONTINUOUS
 10
-67.413362465
 20
-24.2456323968
 40
0.25
100
AcDbArc
 50
270.3333333333
 51
360.0
  0
ARC
  5
5E4
100
AcDbEntity
  8
ASSI
100
AcDbCircle
 62
7
  6
CONTINUOUS
 10
-67.413362465
 20
-23.8443375673
 40
0.25
100
AcDbArc
 50
0.0
 51
60.0
  0
ARC
  5
5E5
100
AcDbEntity
  8
ASSI
100
AcDbCircle
 62
7
  6
CONTINUOUS
 10
-70.413362465
 20
-24.2369056521
 40
0.25
100
AcDbArc
 50
180.0
 51
269.6666666667
  0
ARC
  5
5E6
100
AcDbEntity
  8
ASSI
100
AcDbCircle
 62
7
  6
CONTINUOUS
 10
-70.413362465
 20
-23.8443375673
 40
0.25
100
AcDbArc
 50
120.0
 51
180.0
  0
ARC
  5
5E7
100
AcDbEntity
  8
ASSI
100
AcDbCircle
 62
7
  6
CONTINUOUS
 10
-60.663362465
 20
-23.2563578147
 40
0.5
100
AcDbArc
 50
270.3333333333
 51
360.0
  0
ARC
  5
5E8
100
AcDbEntity
  8
RACCORDO
100
AcDbCircle
 62
7
  6
CONTINUOUS
 10
-58.163362465
 20
-21.3126932437
 40
1.0
100
AcDbArc
 50
270.5
 51
360.0
  0
ARC
  5
5E9
100
AcDbEntity
  8
ASSI
100
AcDbCircle
 62
7
  6
CONTINUOUS
 10
-58.163362465
 20
-21.3126932437
 40
1.0
100
AcDbArc
 50
270.5
 51
360.0
  0
ARC
  5
5EA
100
AcDbEntity
  8
RACCORDO
100
AcDbCircle
 62
7
  6
CONTINUOUS
 10
-75.7416374195
 20
-20.5007809198
 40
1.5
100
AcDbArc
 50
182.3569499908
 51
267.0
  0
ARC
  5
5EB
100
AcDbEntity
  8
ASSI
100
AcDbCircle
 62
7
  6
CONTINUOUS
 10
-75.7416374195
 20
-20.5007809198
 40
1.5
100
AcDbArc
 50
182.3569499908
 51
267.0
  0
ARC
  5
5EC
100
AcDbEntity
  8
RACCORDO
100
AcDbCircle
 62
253
  6
CONTINUOUS
 10
-75.7503636169
 20
-20.5007809141
 40
1.000000006
100
AcDbArc
 50
182.3569503053
 51
266.9999996855
  0
ARC
  5
5ED
100
AcDbEntity
  8
ASSI
100
AcDbCircle
 62
253
  6
CONTINUOUS
 10
-75.7503636169
 20
-20.5007809141
 40
1.000000006
100
AcDbArc
 50
182.3569503053
 51
266.9999996855
  0
ARC
  5
5EE
100
AcDbEntity
  8
RACCORDO
100
AcDbCircle
 62
7
  6
CONTINUOUS
 10
-29.163362465
 20
-18.1220850228
 40
1.0
100
AcDbArc
 50
271.0
 51
360.0
  0
ARC
  5
5EF
100
AcDbEntity
  8
ASSI
100
AcDbCircle
 62
7
  6
CONTINUOUS
 10
-29.163362465
 20
-18.1220850228
 40
1.0
100
AcDbArc
 50
271.0
 51
360.0
  0
ARC
  5
5F0
100
AcDbEntity
  8
ASSI
100
AcDbCircle
 62
253
  6
CONTINUOUS
 10
-28.673560045
 20
-18.1027344707
 40
0.5102616862
100
AcDbArc
 50
348.4181219907
 51
353.0166462922
  0
ARC
  5
5F1
100
AcDbEntity
  8
ASSI
100
AcDbCircle
 62
253
  6
CONTINUOUS
 10
-28.6663935834
 20
-18.1036675426
 40
0.5030349481
100
AcDbArc
 50
353.022893097
 51
357.664715872
  0
ARC
  5
5F2
100
AcDbEntity
  8
RACCORDO
100
AcDbCircle
 62
253
  6
CONTINUOUS
 10
-28.6647050023
 20
-18.1038020454
 40
0.501342538
100
AcDbArc
 50
353.0147091977
 51
359.9971234712
  0
ARC
  5
5F3
100
AcDbEntity
  8
ASSI
100
AcDbCircle
 62
253
  6
CONTINUOUS
 10
-28.6634600995
 20
-18.1038213455
 40
0.5000976346
100
AcDbArc
 50
357.6686277504
 51
359.9993275096
  0
ARC
  5
5F4
100
AcDbEntity
  8
ASSI
100
AcDbCircle
 62
253
  6
CONTINUOUS
 10
-28.6634500872
 20
-18.1220800322
 40
0.5000876222
100
AcDbArc
 50
357.7913837692
 51
359.9994282178
  0
ARC
  5
5F5
100
AcDbEntity
  8
DRAFT
100
AcDbCircle
 62
7
  6
CONTINUOUS
 10
-34.913362465
 20
-13.8
 40
2.1
100
AcDbArc
 50
90.0
 51
270.0
  0
ARC
  5
5F6
100
AcDbEntity
  8
DRAFT
100
AcDbCircle
 62
7
  6
CONTINUOUS
 10
-34.913362465
 20
-8.8
 40
2.1
100
AcDbArc
 50
90.0
 51
270.0
  0
ARC
  5
5F7
100
AcDbEntity
  8
ASSI
100
AcDbCircle
 62
7
  6
CONTINUOUS
 10
-34.913362465
 20
-8.8
 40
2.1
100
AcDbArc
 50
90.0
 51
270.0
  0
ARC
  5
5F8
100
AcDbEntity
  8
ASSI
100
AcDbCircle
 62
7
  6
CONTINUOUS
 10
-34.913362465
 20
-13.8
 40
2.1
100
AcDbArc
 50
90.0
 51
270.0
  0
CIRCLE
  5
5F9
100
AcDbEntity
  8
0
100
AcDbCircle
 62
7
  6
CONTINUOUS
 10
-34.963362465
 20
-13.8
 40
2.0
  0
ARC
  5
5FA
100
AcDbEntity
  8
0
100
AcDbCircle
 62
7
  6
CONTINUOUS
 10
-34.963362465
 20
-8.8
 40
2.0
100
AcDbArc
 50
180.0
 51
360.0
  0
ARC
  5
5FB
100
AcDbEntity
  8
ASSI
100
AcDbCircle
 62
7
  6
CONTINUOUS
 10
-34.963362465
 20
-8.8
 40
2.0
100
AcDbArc
 50
0.0
 51
180.0
  0
ARC
  5
5FC
100
AcDbEntity
  8
SUPERFICI
100
AcDbCircle
 62
253
  6
CONTINUOUS
 10
-185.7895589149
 20
18.1038266897
 40
156.6452443408
100
AcDbArc
 50
359.7414006841
 51
0.258599553
  0
ARC
  5
5FD
100
AcDbEntity
  8
RACCORDO
100
AcDbCircle
 62
7
  6
CONTINUOUS
 10
-29.763362465
 20
2.1
 40
1.0
100
AcDbArc
 50
90.0
 51
125.485626914
  0
ARC
  5
5FE
100
AcDbEntity
  8
RACCORDO
100
AcDbCircle
 62
7
  6
CONTINUOUS
 10
-75.7416374195
 20
20.5007809198
 40
1.5
100
AcDbArc
 50
93.0
 51
177.6430500092
  0
ARC
  5
5FF
100
AcDbEntity
  8
ASSI
100
AcDbCircle
 62
7
  6
CONTINUOUS
 10
-75.7416374195
 20
20.5007809198
 40
1.5
100
AcDbArc
 50
93.0
 51
177.6430500092
  0
ARC
  5
600
100
AcDbEntity
  8
RACCORDO
100
AcDbCircle
 62
253
  6
CONTINUOUS
 10
-75.7503636169
 20
20.5007809141
 40
1.0000000061
100
AcDbArc
 50
93.000000316
 51
177.6430496932
  0
ARC
  5
601
100
AcDbEntity
  8
ASSI
100
AcDbCircle
 62
253
  6
CONTINUOUS
 10
-75.7503636169
 20
20.5007809141
 40
1.0000000061
100
AcDbArc
 50
93.000000316
 51
177.6430496932
  0
ARC
  5
602
100
AcDbEntity
  8
RACCORDO
100
AcDbCircle
 62
7
  6
CONTINUOUS
 10
-58.163362465
 20
21.3126932437
 40
1.0
100
AcDbArc
 50
0.0
 51
89.5
  0
ARC
  5
603
100
AcDbEntity
  8
ASSI
100
AcDbCircle
 62
7
  6
CONTINUOUS
 10
-58.163362465
 20
21.3126932437
 40
1.0
100
AcDbArc
 50
0.0
 51
89.5
  0
ARC
  5
604
100
AcDbEntity
  8
ASSI
100
AcDbCircle
 62
7
  6
CONTINUOUS
 10
-60.663362465
 20
23.2563578147
 40
0.5
100
AcDbArc
 50
0.0
 51
89.6666666667
  0
ARC
  5
605
100
AcDbEntity
  8
RACCORDO
100
AcDbCircle
 62
7
  6
CONTINUOUS
 10
-70.413362465
 20
24.2369056521
 40
0.25
100
AcDbArc
 50
90.3333333333
 51
180.0
  0
ARC
  5
606
100
AcDbEntity
  8
RACCORDO
100
AcDbCircle
 62
7
  6
CONTINUOUS
 10
-67.413362465
 20
24.2456323968
 40
0.25
100
AcDbArc
 50
0.0
 51
89.6666666667
  0
ARC
  5
607
100
AcDbEntity
  8
RACCORDO
100
AcDbCircle
 62
7
  6
CONTINUOUS
 10
-70.413362465
 20
23.8443375673
 40
0.25
100
AcDbArc
 50
180.0
 51
240.0
  0
ARC
  5
608
100
AcDbEntity
  8
ASSI
100
AcDbCircle
 62
7
  6
CONTINUOUS
 10
-70.413362465
 20
24.2369056521
 40
0.25
100
AcDbArc
 50
90.3333333333
 51
180.0
  0
ARC
  5
609
100
AcDbEntity
  8
ASSI
100
AcDbCircle
 62
7
  6
CONTINUOUS
 10
-67.413362465
 20
24.2456323968
 40
0.25
100
AcDbArc
 50
0.0
 51
89.6666666667
  0
ARC
  5
60A
100
AcDbEntity
  8
ASSI
100
AcDbCircle
 62
7
  6
CONTINUOUS
 10
-70.413362465
 20
23.8443375673
 40
0.25
100
AcDbArc
 50
180.0
 51
240.0
  0
ARC
  5
60B
100
AcDbEntity
  8
ASSI
100
AcDbCircle
 62
7
  6
CONTINUOUS
 10
-47.0471373018
 20
15.5357432195
 40
44.7880004704
100
AcDbArc
 50
239.6711895892
 51
240.0388724347
  0
ARC
  5
60C
100
AcDbEntity
  8
SUPERFICI
100
AcDbCircle
 62
7
  6
CONTINUOUS
 10
-29.163362465
 20
18.1220850228
 40
1.0
100
AcDbArc
 50
0.0
 51
89.0
  0
ARC
  5
60D
100
AcDbEntity
  8
RACCORDO
100
AcDbCircle
 62
7
  6
CONTINUOUS
 10
422.336637535
 20
-0.0
 40
500.0
100
AcDbArc
 50
177.6430500092
 51
182.3569499908
  0
ARC
  5
60E
100
AcDbEntity
  8
ASSI
100
AcDbCircle
 62
7
  6
CONTINUOUS
 10
422.336637535
 20
-0.0
 40
500.0
100
AcDbArc
 50
177.6430500092
 51
182.3569499908
  0
ARC
  5
60F
100
AcDbEntity
  8
CURVE
100
AcDbCircle
 62
253
  6
CONTINUOUS
 10
422.336637535
 20
0.0
 40
500.0
100
AcDbArc
 50
181.6331508548
 51
182.03442764
  0
ARC
  5
610
100
AcDbEntity
  8
RACCORDO
100
AcDbCircle
 62
253
  6
CONTINUOUS
 10
422.3279301761
 20
0.0
 40
499.5000188284
100
AcDbArc
 50
177.6430500981
 51
182.3569499019
  0
ARC
  5
611
100
AcDbEntity
  8
ASSI
100
AcDbCircle
 62
253
  6
CONTINUOUS
 10
422.3279301761
 20
0.0
 40
499.5000188284
100
AcDbArc
 50
177.6430500981
 51
182.3569499019
  0
SPLINE
  5
612
100
AcDbEntity
  8
RACCORDO
100
AcDbSpline
 62
7
  6
CONTINUOUS
 70
0
 71
3
 72
13
 73
9
 74
7
 42
0.0000001
 43
0.0000001
 44
0.0000000001
 12
0.4498518931
 22
0.0034684605
 32
0.0
 13
0.3802055421
 23
0.2404630984
 33
0.0
 40
0.0
 40
0.0
 40
0.0
 40
0.0
 40
0.0927966287
 40
0.2002447148
 40
0.3193571807
 40
0.4469985052
 40
0.7183509509
 40
1.0
 40
1.0
 40
1.0
 40
1.0
 10
-4.2962073137
 20
-23.7953389668
 30
0.0
 10
-4.2822924006
 20
-23.7952316797
 30
0.0
 10
-4.252382272
 20
-23.789799767
 30
0.0
 10
-4.2072472469
 20
-23.7736730732
 30
0.0
 10
-4.1590026256
 20
-23.7513098509
 30
0.0
 10
-4.0904209279
 20
-23.714769798
 30
0.0
 10
-4.0028591526
 20
-23.6622363788
 30
0.0
 10
-3.9327774665
 20
-23.6179177525
 30
0.0
 10
-3.8970826234
 20
-23.5953423515
 30
0.0
 11
-4.2962073137
 21
-23.7953389668
 31
0.0
 11
-4.2549163488
 21
-23.7891921748
 31
0.0
 11
-4.209156908
 21
-23.7736180048
 31
0.0
 11
-4.1603849087
 21
-23.7514234725
 31
0.0
 11
-4.1095960362
 21
-23.7246334111
 31
0.0
 11
-4.0044388891
 21
-23.6626369814
 31
0.0
 11
-3.8970826234
 21
-23.5953423515
 31
0.0
  0
SPLINE
  5
613
100
AcDbEntity
  8
RACCORDO
100
AcDbSpline
 62
7
  6
CONTINUOUS
 70
0
 71
3
 72
15
 73
11
 74
9
 42
0.0000001
 43
0.0000001
 44
0.0000000001
 12
-0.3142904289
 22
0.0
 32
0.0
 13
-0.0031667933
 23
0.3142744742
 33
0.0
 40
0.0
 40
0.0
 40
0.0
 40
0.0
 40
0.1666545511
 40
0.3262779792
 40
0.4735916211
 40
0.6057108254
 40
0.7221085607
 40
0.8242207343
 40
0.9152394685
 40
1.0
 40
1.0
 40
1.0
 40
1.0
 10
-10.3927234819
 20
23.1226497308
 30
0.0
 10
-10.410182792
 20
23.1226497308
 30
0.0
 10
-10.4443945583
 20
23.1249197959
 30
0.0
 10
-10.4932789333
 20
23.1340781896
 30
0.0
 10
-10.5371199981
 20
23.1484841847
 30
0.0
 10
-10.5743602838
 20
23.1671098288
 30
0.0
 10
-10.6041080599
 20
23.1890199577
 30
0.0
 10
-10.6258995457
 20
23.2134179792
 30
0.0
 10
-10.6393998674
 20
23.2396149959
 30
0.0
 10
-10.6426297781
 20
23.2581079409
 30
0.0
 10
-10.6427192511
 20
23.2669872981
 30
0.0
 11
-10.3927234819
 21
23.1226497308
 31
0.0
 11
-10.4449927019
 21
23.1260225969
 31
0.0
 11
-10.494270005
 21
23.1354346756
 31
0.0
 11
-10.5381889756
 21
23.1500888975
 31
0.0
 11
-10.5751903604
 21
23.1689336209
 31
0.0
 11
-10.6044247922
 21
23.1909254719
 31
0.0
 11
-10.6255024657
 21
23.2151263924
 31
0.0
 11
-10.6382802795
 21
23.2407203144
 31
0.0
 11
-10.6427192511
 21
23.2669872981
 31
0.0
  0
SPLINE
  5
614
100
AcDbEntity
  8
RACCORDO
100
AcDbSpline
 62
7
  6
CONTINUOUS
 70
0
 71
3
 72
12
 73
8
 74
6
 42
0.0000001
 43
0.0000001
 44
0.0000000001
 12
-0.0345141171
 22
0.0031148624
 32
0.0
 13
-0.0037710146
 23
0.0344486008
 33
0.0
 40
0.0
 40
0.0
 40
0.0
 40
0.0
 40
0.4189758554
 40
0.7258150368
 40
0.9169374284
 40
0.970078621
 40
1.0
 40
1.0
 40
1.0
 40
1.0
 10
-10.60891534
 20
22.3279108386
 30
0.0
 10
-10.6137355339
 20
22.328345856
 30
0.0
 10
-10.6221021029
 20
22.3290818085
 30
0.0
 10
-10.6325917423
 20
22.3301849672
 30
0.0
 10
-10.6389546858
 20
22.3312764657
 30
0.0
 10
-10.6418861623
 20
22.3323145409
 30
0.0
 10
-10.6426816398
 20
22.3330673782
 30
0.0
 10
-10.6427192511
 20
22.3334109614
 30
0.0
 11
-10.60891534
 21
22.3279108386
 31
0.0
 11
-10.6233736105
 21
22.3292412515
 31
0.0
 11
-10.6339355634
 21
22.3304711844
 31
0.0
 11
-10.6404200498
 21
22.3318197414
 31
0.0
 11
-10.6420965195
 21
22.3325818766
 31
0.0
 11
-10.6427192511
 21
22.3334109614
 31
0.0
  0
SPLINE
  5
615
100
AcDbEntity
  8
RACCORDO
100
AcDbSpline
 62
253
  6
CONTINUOUS
 70
0
 71
3
 72
13
 73
9
 74
7
 42
0.0000001
 43
0.0000001
 44
0.0000000001
 12
0.0012265939
 22
-0.3651868479
 32
0.0
 13
0.3651877491
 23
-0.0009199789
 33
0.0
 40
0.0
 40
0.0
 40
0.0
 40
0.0
 40
0.1162399782
 40
0.2339778175
 40
0.3543713311
 40
0.4780980184
 40
0.7345386243
 40
1.0
 40
1.0
 40
1.0
 40
1.0
 10
-10.6369014213
 20
23.8443375673
 30
0.0
 10
-10.6368538949
 20
23.8301877969
 30
0.0
 10
-10.6334956104
 20
23.8016148029
 30
0.0
 10
-10.6189382831
 20
23.7606547352
 30
0.0
 10
-10.5954678694
 20
23.7229828841
 30
0.0
 10
-10.5531654793
 20
23.6786204872
 30
0.0
 10
-10.4832385508
 20
23.6387874753
 30
0.0
 10
-10.4192200662
 20
23.6279126226
 30
0.0
 10
-10.3869056521
 20
23.6278312164
 30
0.0
 11
-10.6369014213
 21
23.8443375673
 31
0.0
 11
-10.631973721
 21
23.8021749995
 31
0.0
 11
-10.6176629963
 21
23.7616298799
 31
0.0
 11
-10.5945173961
 21
23.7242490909
 31
0.0
 11
-10.56342284
 21
23.6914666636
 31
0.0
 11
-10.4824067191
 21
23.6444924903
 31
0.0
 11
-10.3869056521
 21
23.6278312164
 31
0.0
  0
SPLINE
  5
616
100
AcDbEntity
  8
RACCORDO
100
AcDbSpline
 62
7
  6
CONTINUOUS
 70
0
 71
3
 72
13
 73
9
 74
7
 42
0.0000001
 43
0.0000001
 44
0.0000000001
 12
-0.4498518931
 22
0.0034684605
 32
0.0
 13
-0.3802055421
 23
0.2404630984
 33
0.0
 40
0.0
 40
0.0
 40
0.0
 40
0.0
 40
0.0927966287
 40
0.2002447148
 40
0.3193571807
 40
0.4469985052
 40
0.7183509509
 40
1.0
 40
1.0
 40
1.0
 40
1.0
 10
4.2962073137
 20
-23.7953389668
 30
0.0
 10
4.2822924006
 20
-23.7952316797
 30
0.0
 10
4.252382272
 20
-23.789799767
 30
0.0
 10
4.2072472469
 20
-23.7736730732
 30
0.0
 10
4.1590026256
 20
-23.7513098509
 30
0.0
 10
4.0904209279
 20
-23.714769798
 30
0.0
 10
4.0028591526
 20
-23.6622363788
 30
0.0
 10
3.9327774665
 20
-23.6179177525
 30
0.0
 10
3.8970826234
 20
-23.5953423515
 30
0.0
 11
4.2962073137
 21
-23.7953389668
 31
0.0
 11
4.2549163488
 21
-23.7891921748
 31
0.0
 11
4.209156908
 21
-23.7736180048
 31
0.0
 11
4.1603849087
 21
-23.7514234725
 31
0.0
 11
4.1095960362
 21
-23.7246334111
 31
0.0
 11
4.0044388891
 21
-23.6626369814
 31
0.0
 11
3.8970826234
 21
-23.5953423515
 31
0.0
  0
SPLINE
  5
617
100
AcDbEntity
  8
RACCORDO
100
AcDbSpline
 62
253
  6
CONTINUOUS
 70
0
 71
3
 72
13
 73
9
 74
7
 42
0.0000001
 43
0.0000001
 44
0.0000000001
 12
-0.0012265939
 22
-0.3651868479
 32
0.0
 13
-0.3651877491
 23
-0.0009199789
 33
0.0
 40
0.0
 40
0.0
 40
0.0
 40
0.0
 40
0.1162399782
 40
0.2339778175
 40
0.3543713311
 40
0.4780980184
 40
0.7345386243
 40
1.0
 40
1.0
 40
1.0
 40
1.0
 10
-8.2630985787
 20
23.8443375673
 30
0.0
 10
-8.2631461051
 20
23.8301877969
 30
0.0
 10
-8.2665043896
 20
23.8016148029
 30
0.0
 10
-8.2810617169
 20
23.7606547352
 30
0.0
 10
-8.3045321306
 20
23.7229828841
 30
0.0
 10
-8.3468345207
 20
23.6786204872
 30
0.0
 10
-8.4167614492
 20
23.6387874753
 30
0.0
 10
-8.4807799338
 20
23.6279126226
 30
0.0
 10
-8.5130943479
 20
23.6278312164
 30
0.0
 11
-8.2630985787
 21
23.8443375673
 31
0.0
 11
-8.268026279
 21
23.8021749995
 31
0.0
 11
-8.2823370037
 21
23.7616298799
 31
0.0
 11
-8.3054826039
 21
23.7242490909
 31
0.0
 11
-8.33657716
 21
23.6914666636
 31
0.0
 11
-8.4175932809
 21
23.6444924903
 31
0.0
 11
-8.5130943479
 21
23.6278312164
 31
0.0
  0
SPLINE
  5
618
100
AcDbEntity
  8
RACCORDO
100
AcDbSpline
 62
7
  6
CONTINUOUS
 70
0
 71
3
 72
15
 73
11
 74
9
 42
0.0000001
 43
0.0000001
 44
0.0000000001
 12
-0.0031741022
 22
-0.3149998123
 32
0.0
 13
-0.3150158039
 23
-0.0
 33
0.0
 40
0.0
 40
0.0
 40
0.0
 40
0.0
 40
0.0847129374
 40
0.1757006909
 40
0.2778081862
 40
0.3942292046
 40
0.5263924491
 40
0.6737522819
 40
0.8333934372
 40
1.0
 40
1.0
 40
1.0
 40
1.0
 10
-8.2572807489
 20
23.2669872981
 30
0.0
 10
-8.2573703781
 20
23.258092445
 30
0.0
 10
-8.2606119696
 20
23.2395648789
 30
0.0
 10
-8.2741599314
 20
23.2133248236
 30
0.0
 10
-8.2960262356
 20
23.1888935038
 30
0.0
 10
-8.3258736276
 20
23.1669636521
 30
0.0
 10
-8.3632337566
 20
23.1483344332
 30
0.0
 10
-8.4072065279
 20
23.1339562437
 30
0.0
 10
-8.4562170903
 20
23.1248200479
 30
0.0
 10
-8.4905091801
 20
23.1226497308
 30
0.0
 10
-8.5080037468
 20
23.1226497308
 30
0.0
 11
-8.2572807489
 21
23.2669872981
 31
0.0
 11
-8.2617344967
 21
23.240675663
 31
0.0
 11
-8.2745557085
 21
23.2150405302
 31
0.0
 11
-8.2957050748
 21
23.1908058016
 31
0.0
 11
-8.3250379929
 21
23.1687922607
 31
0.0
 11
-8.3621604892
 21
23.149943667
 31
0.0
 11
-8.40621414
 21
23.1353096304
 31
0.0
 11
-8.4556233887
 21
23.1259416726
 31
0.0
 11
-8.5080037468
 21
23.1226497308
 31
0.0
  0
SPLINE
  5
619
100
AcDbEntity
  8
RACCORDO
100
AcDbSpline
 62
7
  6
CONTINUOUS
 70
0
 71
3
 72
13
 73
9
 74
7
 42
0.0000001
 43
0.0000001
 44
0.0000000001
 12
-0.4498518931
 22
-0.0034684605
 32
0.0
 13
-0.3802055421
 23
-0.2404630984
 33
0.0
 40
0.0
 40
0.0
 40
0.0
 40
0.0
 40
0.0927966287
 40
0.2002447148
 40
0.3193571807
 40
0.4469985052
 40
0.7183509509
 40
1.0
 40
1.0
 40
1.0
 40
1.0
 10
4.2962073137
 20
23.7953389668
 30
0.0
 10
4.2822924006
 20
23.7952316797
 30
0.0
 10
4.252382272
 20
23.789799767
 30
0.0
 10
4.2072472469
 20
23.7736730732
 30
0.0
 10
4.1590026256
 20
23.7513098509
 30
0.0
 10
4.0904209279
 20
23.714769798
 30
0.0
 10
4.0028591526
 20
23.6622363788
 30
0.0
 10
3.9327774665
 20
23.6179177525
 30
0.0
 10
3.8970826234
 20
23.5953423515
 30
0.0
 11
4.2962073137
 21
23.7953389668
 31
0.0
 11
4.2549163488
 21
23.7891921748
 31
0.0
 11
4.209156908
 21
23.7736180048
 31
0.0
 11
4.1603849087
 21
23.7514234725
 31
0.0
 11
4.1095960362
 21
23.7246334111
 31
0.0
 11
4.0044388891
 21
23.6626369814
 31
0.0
 11
3.8970826234
 21
23.5953423515
 31
0.0
  0
SPLINE
  5
61A
100
AcDbEntity
  8
RACCORDO
100
AcDbSpline
 62
7
  6
CONTINUOUS
 70
0
 71
3
 72
15
 73
11
 74
9
 42
0.0000001
 43
0.0000001
 44
0.0000000001
 12
0.0031741022
 22
-0.3149998123
 32
0.0
 13
0.3150158039
 23
0.0
 33
0.0
 40
0.0
 40
0.0
 40
0.0
 40
0.0
 40
0.0847129374
 40
0.1757006909
 40
0.2778081862
 40
0.3942292046
 40
0.5263924491
 40
0.6737522819
 40
0.8333934372
 40
1.0
 40
1.0
 40
1.0
 40
1.0
 10
8.2572807489
 20
23.2669872981
 30
0.0
 10
8.2573703781
 20
23.258092445
 30
0.0
 10
8.2606119696
 20
23.2395648789
 30
0.0
 10
8.2741599314
 20
23.2133248236
 30
0.0
 10
8.2960262356
 20
23.1888935038
 30
0.0
 10
8.3258736276
 20
23.1669636521
 30
0.0
 10
8.3632337566
 20
23.1483344332
 30
0.0
 10
8.4072065279
 20
23.1339562437
 30
0.0
 10
8.4562170903
 20
23.1248200479
 30
0.0
 10
8.4905091801
 20
23.1226497308
 30
0.0
 10
8.5080037468
 20
23.1226497308
 30
0.0
 11
8.2572807489
 21
23.2669872981
 31
0.0
 11
8.2617344967
 21
23.240675663
 31
0.0
 11
8.2745557085
 21
23.2150405302
 31
0.0
 11
8.2957050748
 21
23.1908058016
 31
0.0
 11
8.3250379929
 21
23.1687922607
 31
0.0
 11
8.3621604892
 21
23.149943667
 31
0.0
 11
8.40621414
 21
23.1353096304
 31
0.0
 11
8.4556233887
 21
23.1259416726
 31
0.0
 11
8.5080037468
 21
23.1226497308
 31
0.0
  0
SPLINE
  5
61B
100
AcDbEntity
  8
RACCORDO
100
AcDbSpline
 62
253
  6
CONTINUOUS
 70
0
 71
3
 72
13
 73
9
 74
7
 42
0.0000001
 43
0.0000001
 44
0.0000000001
 12
0.0012265939
 22
-0.3651868479
 32
0.0
 13
0.3651877491
 23
-0.0009199789
 33
0.0
 40
0.0
 40
0.0
 40
0.0
 40
0.0
 40
0.1162399782
 40
0.2339778175
 40
0.3543713311
 40
0.4780980184
 40
0.7345386243
 40
1.0
 40
1.0
 40
1.0
 40
1.0
 10
8.2630985787
 20
23.8443375673
 30
0.0
 10
8.2631461051
 20
23.8301877969
 30
0.0
 10
8.2665043896
 20
23.8016148029
 30
0.0
 10
8.2810617169
 20
23.7606547352
 30
0.0
 10
8.3045321306
 20
23.7229828841
 30
0.0
 10
8.3468345207
 20
23.6786204872
 30
0.0
 10
8.4167614492
 20
23.6387874753
 30
0.0
 10
8.4807799338
 20
23.6279126226
 30
0.0
 10
8.5130943479
 20
23.6278312164
 30
0.0
 11
8.2630985787
 21
23.8443375673
 31
0.0
 11
8.268026279
 21
23.8021749995
 31
0.0
 11
8.2823370037
 21
23.7616298799
 31
0.0
 11
8.3054826039
 21
23.7242490909
 31
0.0
 11
8.33657716
 21
23.6914666636
 31
0.0
 11
8.4175932809
 21
23.6444924903
 31
0.0
 11
8.5130943479
 21
23.6278312164
 31
0.0
  0
SPLINE
  5
61C
100
AcDbEntity
  8
RACCORDO
100
AcDbSpline
 62
7
  6
CONTINUOUS
 70
0
 71
3
 72
12
 73
8
 74
6
 42
0.0000001
 43
0.0000001
 44
0.0000000001
 12
-0.0037710146
 22
-0.0344486008
 32
0.0
 13
-0.0345141171
 23
-0.0031148624
 33
0.0
 40
0.0
 40
0.0
 40
0.0
 40
0.0
 40
0.029921379
 40
0.0830625716
 40
0.2741849632
 40
0.5810241446
 40
1.0
 40
1.0
 40
1.0
 40
1.0
 10
10.6427192511
 20
22.3334109614
 30
0.0
 10
10.6426816398
 20
22.3330673782
 30
0.0
 10
10.6418861623
 20
22.3323145409
 30
0.0
 10
10.6389546858
 20
22.3312764657
 30
0.0
 10
10.6325917423
 20
22.3301849672
 30
0.0
 10
10.6221021029
 20
22.3290818085
 30
0.0
 10
10.6137355339
 20
22.328345856
 30
0.0
 10
10.60891534
 20
22.3279108386
 30
0.0
 11
10.6427192511
 21
22.3334109614
 31
0.0
 11
10.6420965195
 21
22.3325818766
 31
0.0
 11
10.6404200498
 21
22.3318197414
 31
0.0
 11
10.6339355634
 21
22.3304711844
 31
0.0
 11
10.6233736105
 21
22.3292412515
 31
0.0
 11
10.60891534
 21
22.3279108386
 31
0.0
  0
SPLINE
  5
61D
100
AcDbEntity
  8
RACCORDO
100
AcDbSpline
 62
7
  6
CONTINUOUS
 70
0
 71
3
 72
15
 73
11
 74
9
 42
0.0000001
 43
0.0000001
 44
0.0000000001
 12
0.3142904289
 22
0.0
 32
0.0
 13
0.0031667933
 23
0.3142744742
 33
0.0
 40
0.0
 40
0.0
 40
0.0
 40
0.0
 40
0.1666545511
 40
0.3262779792
 40
0.4735916211
 40
0.6057108254
 40
0.7221085607
 40
0.8242207343
 40
0.9152394685
 40
1.0
 40
1.0
 40
1.0
 40
1.0
 10
10.3927234819
 20
23.1226497308
 30
0.0
 10
10.410182792
 20
23.1226497308
 30
0.0
 10
10.4443945583
 20
23.1249197959
 30
0.0
 10
10.4932789333
 20
23.1340781896
 30
0.0
 10
10.5371199981
 20
23.1484841847
 30
0.0
 10
10.5743602838
 20
23.1671098288
 30
0.0
 10
10.6041080599
 20
23.1890199577
 30
0.0
 10
10.6258995457
 20
23.2134179792
 30
0.0
 10
10.6393998674
 20
23.2396149959
 30
0.0
 10
10.6426297781
 20
23.2581079409
 30
0.0
 10
10.6427192511
 20
23.2669872981
 30
0.0
 11
10.3927234819
 21
23.1226497308
 31
0.0
 11
10.4449927019
 21
23.1260225969
 31
0.0
 11
10.494270005
 21
23.1354346756
 31
0.0
 11
10.5381889756
 21
23.1500888975
 31
0.0
 11
10.5751903604
 21
23.1689336209
 31
0.0
 11
10.6044247922
 21
23.1909254719
 31
0.0
 11
10.6255024657
 21
23.2151263924
 31
0.0
 11
10.6382802795
 21
23.2407203144
 31
0.0
 11
10.6427192511
 21
23.2669872981
 31
0.0
  0
SPLINE
  5
61E
100
AcDbEntity
  8
RACCORDO
100
AcDbSpline
 62
253
  6
CONTINUOUS
 70
0
 71
3
 72
13
 73
9
 74
7
 42
0.0000001
 43
0.0000001
 44
0.0000000001
 12
-0.0012265939
 22
-0.3651868479
 32
0.0
 13
-0.3651877491
 23
-0.0009199789
 33
0.0
 40
0.0
 40
0.0
 40
0.0
 40
0.0
 40
0.1162399782
 40
0.2339778175
 40
0.3543713311
 40
0.4780980184
 40
0.7345386243
 40
1.0
 40
1.0
 40
1.0
 40
1.0
 10
10.6369014213
 20
23.8443375673
 30
0.0
 10
10.6368538949
 20
23.8301877969
 30
0.0
 10
10.6334956104
 20
23.8016148029
 30
0.0
 10
10.6189382831
 20
23.7606547352
 30
0.0
 10
10.5954678694
 20
23.7229828841
 30
0.0
 10
10.5531654793
 20
23.6786204872
 30
0.0
 10
10.4832385508
 20
23.6387874753
 30
0.0
 10
10.4192200662
 20
23.6279126226
 30
0.0
 10
10.3869056521
 20
23.6278312164
 30
0.0
 11
10.6369014213
 21
23.8443375673
 31
0.0
 11
10.631973721
 21
23.8021749995
 31
0.0
 11
10.6176629963
 21
23.7616298799
 31
0.0
 11
10.5945173961
 21
23.7242490909
 31
0.0
 11
10.56342284
 21
23.6914666636
 31
0.0
 11
10.4824067191
 21
23.6444924903
 31
0.0
 11
10.3869056521
 21
23.6278312164
 31
0.0
  0
SPLINE
  5
61F
100
AcDbEntity
  8
RACCORDO
100
AcDbSpline
 62
7
  6
CONTINUOUS
 70
0
 71
3
 72
12
 73
8
 74
6
 42
0.0000001
 43
0.0000001
 44
0.0000000001
 12
0.0037710146
 22
0.0344486008
 32
0.0
 13
0.0345141171
 23
0.0031148624
 33
0.0
 40
0.0
 40
0.0
 40
0.0
 40
0.0
 40
0.029921379
 40
0.0830625716
 40
0.2741849632
 40
0.5810241446
 40
1.0
 40
1.0
 40
1.0
 40
1.0
 10
-10.6427192511
 20
-22.3334109614
 30
0.0
 10
-10.6426816398
 20
-22.3330673782
 30
0.0
 10
-10.6418861623
 20
-22.3323145409
 30
0.0
 10
-10.6389546858
 20
-22.3312764657
 30
0.0
 10
-10.6325917423
 20
-22.3301849672
 30
0.0
 10
-10.6221021029
 20
-22.3290818085
 30
0.0
 10
-10.6137355339
 20
-22.328345856
 30
0.0
 10
-10.60891534
 20
-22.3279108386
 30
0.0
 11
-10.6427192511
 21
-22.3334109614
 31
0.0
 11
-10.6420965195
 21
-22.3325818766
 31
0.0
 11
-10.6404200498
 21
-22.3318197414
 31
0.0
 11
-10.6339355634
 21
-22.3304711844
 31
0.0
 11
-10.6233736105
 21
-22.3292412515
 31
0.0
 11
-10.60891534
 21
-22.3279108386
 31
0.0
  0
SPLINE
  5
620
100
AcDbEntity
  8
RACCORDO
100
AcDbSpline
 62
253
  6
CONTINUOUS
 70
0
 71
3
 72
13
 73
9
 74
7
 42
0.0000001
 43
0.0000001
 44
0.0000000001
 12
0.0012265939
 22
0.3651868486
 32
0.0
 13
0.3651877498
 23
0.0009199789
 33
0.0
 40
0.0
 40
0.0
 40
0.0
 40
0.0
 40
0.1162401412
 40
0.2339779602
 40
0.3543714643
 40
0.4780981267
 40
0.7345386771
 40
1.0
 40
1.0
 40
1.0
 40
1.0
 10
-10.6369014213
 20
-23.8443375673
 30
0.0
 10
-10.6368538948
 20
-23.830187777
 30
0.0
 10
-10.6334956075
 20
-23.8016147644
 30
0.0
 10
-10.6189382568
 20
-23.7606546878
 30
0.0
 10
-10.5954678401
 20
-23.722982847
 30
0.0
 10
-10.5531654486
 20
-23.6786204663
 30
0.0
 10
-10.4832385313
 20
-23.6387874704
 30
0.0
 10
-10.4192200598
 20
-23.6279126226
 30
0.0
 10
-10.3869056521
 20
-23.6278312164
 30
0.0
 11
-10.6369014213
 21
-23.8443375673
 31
0.0
 11
-10.6319737094
 21
-23.8021749409
 31
0.0
 11
-10.6176629728
 21
-23.7616298332
 31
0.0
 11
-10.5945173658
 21
-23.7242490524
 31
0.0
 11
-10.5634228098
 21
-23.6914666374
 31
0.0
 11
-10.4824067009
 21
-23.6444924834
 31
0.0
 11
-10.3869056521
 21
-23.6278312164
 31
0.0
  0
SPLINE
  5
621
100
AcDbEntity
  8
RACCORDO
100
AcDbSpline
 62
7
  6
CONTINUOUS
 70
0
 71
3
 72
15
 73
11
 74
9
 42
0.0000001
 43
0.0000001
 44
0.0000000001
 12
0.0031741022
 22
0.3149998123
 32
0.0
 13
0.3150158039
 23
-0.0
 33
0.0
 40
0.0
 40
0.0
 40
0.0
 40
0.0
 40
0.0847129374
 40
0.1757006909
 40
0.2778081862
 40
0.3942292046
 40
0.5263924491
 40
0.6737522819
 40
0.8333934372
 40
1.0
 40
1.0
 40
1.0
 40
1.0
 10
-10.6427192511
 20
-23.2669872981
 30
0.0
 10
-10.6426296219
 20
-23.258092445
 30
0.0
 10
-10.6393880304
 20
-23.2395648789
 30
0.0
 10
-10.6258400686
 20
-23.2133248236
 30
0.0
 10
-10.6039737644
 20
-23.1888935038
 30
0.0
 10
-10.5741263724
 20
-23.1669636521
 30
0.0
 10
-10.5367662434
 20
-23.1483344332
 30
0.0
 10
-10.4927934721
 20
-23.1339562437
 30
0.0
 10
-10.4437829097
 20
-23.1248200479
 30
0.0
 10
-10.4094908199
 20
-23.1226497308
 30
0.0
 10
-10.3919962532
 20
-23.1226497308
 30
0.0
 11
-10.6427192511
 21
-23.2669872981
 31
0.0
 11
-10.6382655033
 21
-23.240675663
 31
0.0
 11
-10.6254442915
 21
-23.2150405302
 31
0.0
 11
-10.6042949252
 21
-23.1908058016
 31
0.0
 11
-10.5749620071
 21
-23.1687922607
 31
0.0
 11
-10.5378395108
 21
-23.149943667
 31
0.0
 11
-10.49378586
 21
-23.1353096304
 31
0.0
 11
-10.4443766113
 21
-23.1259416726
 31
0.0
 11
-10.3919962532
 21
-23.1226497308
 31
0.0
  0
SPLINE
  5
622
100
AcDbEntity
  8
RACCORDO
100
AcDbSpline
 62
7
  6
CONTINUOUS
 70
0
 71
3
 72
13
 73
9
 74
7
 42
0.0000001
 43
0.0000001
 44
0.0000000001
 12
0.4498518931
 22
-0.0034684605
 32
0.0
 13
0.3802055421
 23
-0.2404630984
 33
0.0
 40
0.0
 40
0.0
 40
0.0
 40
0.0
 40
0.0927966287
 40
0.2002447148
 40
0.3193571807
 40
0.4469985052
 40
0.7183509509
 40
1.0
 40
1.0
 40
1.0
 40
1.0
 10
-4.2962073137
 20
23.7953389668
 30
0.0
 10
-4.2822924006
 20
23.7952316797
 30
0.0
 10
-4.252382272
 20
23.789799767
 30
0.0
 10
-4.2072472469
 20
23.7736730732
 30
0.0
 10
-4.1590026256
 20
23.7513098509
 30
0.0
 10
-4.0904209279
 20
23.714769798
 30
0.0
 10
-4.0028591526
 20
23.6622363788
 30
0.0
 10
-3.9327774665
 20
23.6179177525
 30
0.0
 10
-3.8970826234
 20
23.5953423515
 30
0.0
 11
-4.2962073137
 21
23.7953389668
 31
0.0
 11
-4.2549163488
 21
23.7891921748
 31
0.0
 11
-4.209156908
 21
23.7736180048
 31
0.0
 11
-4.1603849087
 21
23.7514234725
 31
0.0
 11
-4.1095960362
 21
23.7246334111
 31
0.0
 11
-4.0044388891
 21
23.6626369814
 31
0.0
 11
-3.8970826234
 21
23.5953423515
 31
0.0
  0
SPLINE
  5
623
100
AcDbEntity
  8
RACCORDO
100
AcDbSpline
 62
7
  6
CONTINUOUS
 70
0
 71
3
 72
15
 73
11
 74
9
 42
0.0000001
 43
0.0000001
 44
0.0000000001
 12
-0.0031741022
 22
0.3149998123
 32
0.0
 13
-0.3150158039
 23
0.0
 33
0.0
 40
0.0
 40
0.0
 40
0.0
 40
0.0
 40
0.0847129374
 40
0.1757006909
 40
0.2778081862
 40
0.3942292046
 40
0.5263924491
 40
0.6737522819
 40
0.8333934372
 40
1.0
 40
1.0
 40
1.0
 40
1.0
 10
-8.2572807489
 20
-23.2669872981
 30
0.0
 10
-8.2573703781
 20
-23.258092445
 30
0.0
 10
-8.2606119696
 20
-23.2395648789
 30
0.0
 10
-8.2741599314
 20
-23.2133248236
 30
0.0
 10
-8.2960262356
 20
-23.1888935038
 30
0.0
 10
-8.3258736276
 20
-23.1669636521
 30
0.0
 10
-8.3632337566
 20
-23.1483344332
 30
0.0
 10
-8.4072065279
 20
-23.1339562437
 30
0.0
 10
-8.4562170903
 20
-23.1248200479
 30
0.0
 10
-8.4905091801
 20
-23.1226497308
 30
0.0
 10
-8.5080037468
 20
-23.1226497308
 30
0.0
 11
-8.2572807489
 21
-23.2669872981
 31
0.0
 11
-8.2617344967
 21
-23.240675663
 31
0.0
 11
-8.2745557085
 21
-23.2150405302
 31
0.0
 11
-8.2957050748
 21
-23.1908058016
 31
0.0
 11
-8.3250379929
 21
-23.1687922607
 31
0.0
 11
-8.3621604892
 21
-23.149943667
 31
0.0
 11
-8.40621414
 21
-23.1353096304
 31
0.0
 11
-8.4556233887
 21
-23.1259416726
 31
0.0
 11
-8.5080037468
 21
-23.1226497308
 31
0.0
  0
SPLINE
  5
624
100
AcDbEntity
  8
RACCORDO
100
AcDbSpline
 62
253
  6
CONTINUOUS
 70
0
 71
3
 72
13
 73
9
 74
7
 42
0.0000001
 43
0.0000001
 44
0.0000000001
 12
-0.0012265939
 22
0.3651868486
 32
0.0
 13
-0.3651877498
 23
0.0009199789
 33
0.0
 40
0.0
 40
0.0
 40
0.0
 40
0.0
 40
0.1162401412
 40
0.2339779602
 40
0.3543714643
 40
0.4780981267
 40
0.7345386771
 40
1.0
 40
1.0
 40
1.0
 40
1.0
 10
-8.2630985787
 20
-23.8443375673
 30
0.0
 10
-8.2631461052
 20
-23.830187777
 30
0.0
 10
-8.2665043925
 20
-23.8016147644
 30
0.0
 10
-8.2810617432
 20
-23.7606546878
 30
0.0
 10
-8.3045321599
 20
-23.722982847
 30
0.0
 10
-8.3468345514
 20
-23.6786204663
 30
0.0
 10
-8.4167614687
 20
-23.6387874704
 30
0.0
 10
-8.4807799402
 20
-23.6279126226
 30
0.0
 10
-8.5130943479
 20
-23.6278312164
 30
0.0
 11
-8.2630985787
 21
-23.8443375673
 31
0.0
 11
-8.2680262906
 21
-23.8021749409
 31
0.0
 11
-8.2823370272
 21
-23.7616298332
 31
0.0
 11
-8.3054826342
 21
-23.7242490524
 31
0.0
 11
-8.3365771902
 21
-23.6914666374
 31
0.0
 11
-8.4175932991
 21
-23.6444924834
 31
0.0
 11
-8.5130943479
 21
-23.6278312164
 31
0.0
  0
SPLINE
  5
625
100
AcDbEntity
  8
RACCORDO
100
AcDbSpline
 62
253
  6
CONTINUOUS
 70
0
 71
3
 72
13
 73
9
 74
7
 42
0.0000001
 43
0.0000001
 44
0.0000000001
 12
0.0012265939
 22
0.3651868486
 32
0.0
 13
0.3651877498
 23
0.0009199789
 33
0.0
 40
0.0
 40
0.0
 40
0.0
 40
0.0
 40
0.1162401412
 40
0.2339779602
 40
0.3543714643
 40
0.4780981267
 40
0.7345386771
 40
1.0
 40
1.0
 40
1.0
 40
1.0
 10
8.2630985787
 20
-23.8443375673
 30
0.0
 10
8.2631461052
 20
-23.830187777
 30
0.0
 10
8.2665043925
 20
-23.8016147644
 30
0.0
 10
8.2810617432
 20
-23.7606546878
 30
0.0
 10
8.3045321599
 20
-23.722982847
 30
0.0
 10
8.3468345514
 20
-23.6786204663
 30
0.0
 10
8.4167614687
 20
-23.6387874704
 30
0.0
 10
8.4807799402
 20
-23.6279126226
 30
0.0
 10
8.5130943479
 20
-23.6278312164
 30
0.0
 11
8.2630985787
 21
-23.8443375673
 31
0.0
 11
8.2680262906
 21
-23.8021749409
 31
0.0
 11
8.2823370272
 21
-23.7616298332
 31
0.0
 11
8.3054826342
 21
-23.7242490524
 31
0.0
 11
8.3365771902
 21
-23.6914666374
 31
0.0
 11
8.4175932991
 21
-23.6444924834
 31
0.0
 11
8.5130943479
 21
-23.6278312164
 31
0.0
  0
SPLINE
  5
626
100
AcDbEntity
  8
RACCORDO
100
AcDbSpline
 62
7
  6
CONTINUOUS
 70
0
 71
3
 72
15
 73
11
 74
9
 42
0.0000001
 43
0.0000001
 44
0.0000000001
 12
0.0031741022
 22
0.3149998123
 32
0.0
 13
0.3150158039
 23
0.0
 33
0.0
 40
0.0
 40
0.0
 40
0.0
 40
0.0
 40
0.0847129374
 40
0.1757006909
 40
0.2778081862
 40
0.3942292046
 40
0.5263924491
 40
0.6737522819
 40
0.8333934372
 40
1.0
 40
1.0
 40
1.0
 40
1.0
 10
8.2572807489
 20
-23.2669872981
 30
0.0
 10
8.2573703781
 20
-23.258092445
 30
0.0
 10
8.2606119696
 20
-23.2395648789
 30
0.0
 10
8.2741599314
 20
-23.2133248236
 30
0.0
 10
8.2960262356
 20
-23.1888935038
 30
0.0
 10
8.3258736276
 20
-23.1669636521
 30
0.0
 10
8.3632337566
 20
-23.1483344332
 30
0.0
 10
8.4072065279
 20
-23.1339562437
 30
0.0
 10
8.4562170903
 20
-23.1248200479
 30
0.0
 10
8.4905091801
 20
-23.1226497308
 30
0.0
 10
8.5080037468
 20
-23.1226497308
 30
0.0
 11
8.2572807489
 21
-23.2669872981
 31
0.0
 11
8.2617344967
 21
-23.240675663
 31
0.0
 11
8.2745557085
 21
-23.2150405302
 31
0.0
 11
8.2957050748
 21
-23.1908058016
 31
0.0
 11
8.3250379929
 21
-23.1687922607
 31
0.0
 11
8.3621604892
 21
-23.149943667
 31
0.0
 11
8.40621414
 21
-23.1353096304
 31
0.0
 11
8.4556233887
 21
-23.1259416726
 31
0.0
 11
8.5080037468
 21
-23.1226497308
 31
0.0
  0
SPLINE
  5
627
100
AcDbEntity
  8
RACCORDO
100
AcDbSpline
 62
7
  6
CONTINUOUS
 70
0
 71
3
 72
12
 73
8
 74
6
 42
0.0000001
 43
0.0000001
 44
0.0000000001
 12
0.0345141171
 22
-0.0031148624
 32
0.0
 13
0.0037710146
 23
-0.0344486008
 33
0.0
 40
0.0
 40
0.0
 40
0.0
 40
0.0
 40
0.4189758554
 40
0.7258150368
 40
0.9169374284
 40
0.970078621
 40
1.0
 40
1.0
 40
1.0
 40
1.0
 10
10.60891534
 20
-22.3279108386
 30
0.0
 10
10.6137355339
 20
-22.328345856
 30
0.0
 10
10.6221021029
 20
-22.3290818085
 30
0.0
 10
10.6325917423
 20
-22.3301849672
 30
0.0
 10
10.6389546858
 20
-22.3312764657
 30
0.0
 10
10.6418861623
 20
-22.3323145409
 30
0.0
 10
10.6426816398
 20
-22.3330673782
 30
0.0
 10
10.6427192511
 20
-22.3334109614
 30
0.0
 11
10.60891534
 21
-22.3279108386
 31
0.0
 11
10.6233736105
 21
-22.3292412515
 31
0.0
 11
10.6339355634
 21
-22.3304711844
 31
0.0
 11
10.6404200498
 21
-22.3318197414
 31
0.0
 11
10.6420965195
 21
-22.3325818766
 31
0.0
 11
10.6427192511
 21
-22.3334109614
 31
0.0
  0
SPLINE
  5
628
100
AcDbEntity
  8
RACCORDO
100
AcDbSpline
 62
7
  6
CONTINUOUS
 70
0
 71
3
 72
15
 73
11
 74
9
 42
0.0000001
 43
0.0000001
 44
0.0000000001
 12
-0.0031741022
 22
0.3149998123
 32
0.0
 13
-0.3150158039
 23
0.0
 33
0.0
 40
0.0
 40
0.0
 40
0.0
 40
0.0
 40
0.0847129374
 40
0.1757006909
 40
0.2778081862
 40
0.3942292046
 40
0.5263924491
 40
0.6737522819
 40
0.8333934372
 40
1.0
 40
1.0
 40
1.0
 40
1.0
 10
10.6427192511
 20
-23.2669872981
 30
0.0
 10
10.6426296219
 20
-23.258092445
 30
0.0
 10
10.6393880304
 20
-23.2395648789
 30
0.0
 10
10.6258400686
 20
-23.2133248236
 30
0.0
 10
10.6039737644
 20
-23.1888935038
 30
0.0
 10
10.5741263724
 20
-23.1669636521
 30
0.0
 10
10.5367662434
 20
-23.1483344332
 30
0.0
 10
10.4927934721
 20
-23.1339562437
 30
0.0
 10
10.4437829097
 20
-23.1248200479
 30
0.0
 10
10.4094908199
 20
-23.1226497308
 30
0.0
 10
10.3919962532
 20
-23.1226497308
 30
0.0
 11
10.6427192511
 21
-23.2669872981
 31
0.0
 11
10.6382655033
 21
-23.240675663
 31
0.0
 11
10.6254442915
 21
-23.2150405302
 31
0.0
 11
10.6042949252
 21
-23.1908058016
 31
0.0
 11
10.5749620071
 21
-23.1687922607
 31
0.0
 11
10.5378395108
 21
-23.149943667
 31
0.0
 11
10.49378586
 21
-23.1353096304
 31
0.0
 11
10.4443766113
 21
-23.1259416726
 31
0.0
 11
10.3919962532
 21
-23.1226497308
 31
0.0
  0
SPLINE
  5
629
100
AcDbEntity
  8
RACCORDO
100
AcDbSpline
 62
253
  6
CONTINUOUS
 70
0
 71
3
 72
13
 73
9
 74
7
 42
0.0000001
 43
0.0000001
 44
0.0000000001
 12
-0.0012265939
 22
0.3651868486
 32
0.0
 13
-0.3651877498
 23
0.0009199789
 33
0.0
 40
0.0
 40
0.0
 40
0.0
 40
0.0
 40
0.1162401412
 40
0.2339779602
 40
0.3543714643
 40
0.4780981267
 40
0.7345386771
 40
1.0
 40
1.0
 40
1.0
 40
1.0
 10
10.6369014213
 20
-23.8443375673
 30
0.0
 10
10.6368538948
 20
-23.830187777
 30
0.0
 10
10.6334956075
 20
-23.8016147644
 30
0.0
 10
10.6189382568
 20
-23.7606546878
 30
0.0
 10
10.5954678401
 20
-23.722982847
 30
0.0
 10
10.5531654486
 20
-23.6786204663
 30
0.0
 10
10.4832385313
 20
-23.6387874704
 30
0.0
 10
10.4192200598
 20
-23.6279126226
 30
0.0
 10
10.3869056521
 20
-23.6278312164
 30
0.0
 11
10.6369014213
 21
-23.8443375673
 31
0.0
 11
10.6319737094
 21
-23.8021749409
 31
0.0
 11
10.6176629728
 21
-23.7616298332
 31
0.0
 11
10.5945173658
 21
-23.7242490524
 31
0.0
 11
10.5634228098
 21
-23.6914666374
 31
0.0
 11
10.4824067009
 21
-23.6444924834
 31
0.0
 11
10.3869056521
 21
-23.6278312164
 31
0.0
  0
SPLINE
  5
62A
100
AcDbEntity
  8
RACCORDO
100
AcDbSpline
 62
253
  6
CONTINUOUS
 70
0
 71
3
 72
21
 73
17
 74
15
 42
0.0000001
 43
0.0000001
 44
0.0000000001
 12
-0.3025875523
 22
-0.9088526985
 32
0.0
 13
-0.0006885044
 23
-0.9578997757
 33
0.0
 40
0.0
 40
0.0
 40
0.0
 40
0.0
 40
0.0037275565
 40
0.0096318743
 40
0.0177209763
 40
0.0279840482
 40
0.0549525649
 40
0.0903219332
 40
0.1337966227
 40
0.1850093878
 40
0.2435261249
 40
0.3088498528
 40
0.4576430892
 40
0.6263351923
 40
0.8091921639
 40
1.0
 40
1.0
 40
1.0
 40
1.0
 10
10.9991998097
 20
21.4994104546
 30
0.0
 10
10.998823839
 20
21.498281188
 30
0.0
 10
10.9982393397
 20
21.4952471827
 30
0.0
 10
10.9974725406
 20
21.4896466849
 30
0.0
 10
10.996711384
 20
21.4819348695
 30
0.0
 10
10.9955771142
 20
21.4675096222
 30
0.0
 10
10.994266299
 20
21.4443619953
 30
0.0
 10
10.9928109074
 20
21.4106077125
 30
0.0
 10
10.9914073945
 20
21.3691035336
 30
0.0
 10
10.990065726
 20
21.3202037239
 30
0.0
 10
10.9888036669
 20
21.2643232625
 30
0.0
 10
10.9871717525
 20
21.1772864706
 30
0.0
 10
10.9854704334
 20
21.0550666852
 30
0.0
 10
10.9839686411
 20
20.8953140572
 30
0.0
 10
10.9829917578
 20
20.7221418867
 30
0.0
 10
10.9827168298
 20
20.6028307843
 30
0.0
 10
10.9826730391
 20
20.5419058565
 30
0.0
 11
10.9991998097
 21
21.4994104546
 31
0.0
 11
10.9983965537
 21
21.4959313522
 31
0.0
 11
10.9975967016
 21
21.4903324505
 31
0.0
 11
10.9968022493
 21
21.4826247343
 31
0.0
 11
10.9960149379
 21
21.472825314
 31
0.0
 11
10.9944681528
 21
21.4470385204
 31
0.0
 11
10.9929694027
 21
21.4131913678
 31
0.0
 11
10.9915315037
 21
21.371571793
 31
0.0
 11
10.9901666855
 21
21.3225340733
 31
0.0
 11
10.9888865816
 21
21.2664955085
 31
0.0
 11
10.987702099
 21
21.2039331198
 31
0.0
 11
10.9856594799
 21
21.0614187125
 31
0.0
 11
10.9841083226
 21
20.8998359882
 31
0.0
 11
10.9831014158
 21
20.7246801851
 31
0.0
 11
10.9826730391
 21
20.5419058565
 31
0.0
  0
SPLINE
  5
62B
100
AcDbEntity
  8
RACCORDO
100
AcDbSpline
 62
253
  6
CONTINUOUS
 70
0
 71
3
 72
21
 73
17
 74
15
 42
0.0000001
 43
0.0000001
 44
0.0000000001
 12
-0.3113105921
 22
-1.402383228
 32
0.0
 13
-0.000688378
 23
-1.4365209811
 33
0.0
 40
0.0
 40
0.0
 40
0.0
 40
0.0
 40
0.0036756612
 40
0.0095490156
 40
0.0176169182
 40
0.0278646196
 40
0.0548142201
 40
0.0901747256
 40
0.1336473269
 40
0.1848631633
 40
0.243386889
 40
0.3087206628
 40
0.457540554
 40
0.62626466
 40
0.8091562986
 40
1.0
 40
1.0
 40
1.0
 40
1.0
 10
10.4992759622
 20
21.998725222
 30
0.0
 10
10.4988945381
 20
21.9970069934
 30
0.0
 10
10.498315254
 20
21.9924610378
 30
0.0
 10
10.4975468135
 20
21.9840646695
 30
0.0
 10
10.4967874176
 20
21.9725038701
 30
0.0
 10
10.495652358
 20
21.9508596989
 30
0.0
 10
10.4943421877
 20
21.916138539
 30
0.0
 10
10.4928866414
 20
21.865506683
 30
0.0
 10
10.4914832737
 20
21.8032492872
 30
0.0
 10
10.490141582
 20
21.7298973176
 30
0.0
 10
10.4888795566
 20
21.6460744898
 30
0.0
 10
10.4872476531
 20
21.5155156455
 30
0.0
 10
10.4855464075
 20
21.3321857415
 30
0.0
 10
10.4840447024
 20
21.0925614008
 30
0.0
 10
10.4830678799
 20
20.8328115091
 30
0.0
 10
10.4827929824
 20
20.6538519852
 30
0.0
 10
10.4827491915
 20
20.5624683248
 30
0.0
 11
10.4992759622
 21
21.998725222
 31
0.0
 11
10.4984726914
 21
21.9935065154
 31
0.0
 11
10.4976727885
 21
21.9851073212
 31
0.0
 11
10.4968783061
 21
21.9735448718
 31
0.0
 11
10.4960909865
 21
21.958844901
 31
0.0
 11
10.4945441498
 21
21.9201621449
 31
0.0
 11
10.4930453483
 21
21.8693881478
 31
0.0
 11
10.4916074275
 21
21.8069553934
 31
0.0
 11
10.4902425917
 21
21.7333954219
 31
0.0
 11
10.4889624892
 21
21.6493345986
 31
0.0
 11
10.4877780196
 21
21.5554887257
 31
0.0
 11
10.4857354577
 21
21.3417155628
 31
0.0
 11
10.4841843771
 21
21.0993447799
 31
0.0
 11
10.4831775339
 21
20.8366190028
 31
0.0
 11
10.4827491915
 21
20.5624683248
 31
0.0
  0
SPLINE
  5
62C
100
AcDbEntity
  8
RACCORDO
100
AcDbSpline
 62
253
  6
CONTINUOUS
 70
0
 71
3
 72
9
 73
5
 74
3
 42
0.0000001
 43
0.0000001
 44
0.0000000001
 12
-0.029516496
 22
-41.0838030965
 32
0.0
 13
0.0295164958
 23
-41.0838030965
 33
0.0
 40
0.0
 40
0.0
 40
0.0
 40
0.0
 40
0.2499471355
 40
1.0
 40
1.0
 40
1.0
 40
1.0
 10
10.9826730391
 20
20.5419058565
 30
0.0
 10
10.9802138512
 20
17.1189795567
 30
0.0
 10
10.9728388852
 20
3.4243768659
 30
0.0
 10
10.975293395
 20
-10.2702311241
 30
0.0
 10
10.9826730391
 20
-20.5419058565
 30
0.0
 11
10.9826730391
 21
20.5419058565
 31
0.0
 11
10.9771412304
 21
10.2731257968
 31
0.0
 11
10.9826730391
 21
-20.5419058565
 31
0.0
  0
SPLINE
  5
62D
100
AcDbEntity
  8
RACCORDO
100
AcDbSpline
 62
253
  6
CONTINUOUS
 70
0
 71
3
 72
9
 73
5
 74
3
 42
0.0000001
 43
0.0000001
 44
0.0000000001
 12
-0.029516496
 22
-41.1249280418
 32
0.0
 13
0.0295164958
 23
-41.1249280418
 33
0.0
 40
0.0
 40
0.0
 40
0.0
 40
0.0
 40
0.2499471355
 40
1.0
 40
1.0
 40
1.0
 40
1.0
 10
10.4827491915
 20
20.5624683248
 30
0.0
 10
10.4802900036
 20
17.1361156711
 30
0.0
 10
10.4729150376
 20
3.4278046669
 30
0.0
 10
10.4753695474
 20
-10.2805116313
 30
0.0
 10
10.4827491915
 20
-20.5624683248
 30
0.0
 11
10.4827491915
 21
20.5624683248
 31
0.0
 11
10.4772173828
 21
10.2834092047
 31
0.0
 11
10.4827491915
 21
-20.5624683248
 31
0.0
  0
SPLINE
  5
62E
100
AcDbEntity
  8
RACCORDO
100
AcDbSpline
 62
253
  6
CONTINUOUS
 70
0
 71
3
 72
22
 73
18
 74
16
 42
0.0000001
 43
0.0000001
 44
0.0000000001
 12
-0.1956838322
 22
0.4615710629
 32
0.0
 13
-0.5013380885
 23
0.0003595753
 33
0.0
 40
0.0
 40
0.0
 40
0.0
 40
0.0
 40
0.0028346435
 40
0.0076284833
 40
0.014610921
 40
0.0238386666
 40
0.0490321422
 40
0.0830853821
 40
0.1257140422
 40
0.1765345581
 40
0.2350812188
 40
0.3008090043
 40
0.3731028589
 40
0.4512868833
 40
0.6223417772
 40
0.80755591
 40
1.0
 40
1.0
 40
1.0
 40
1.0
 10
10.9826730391
 20
20.5419058565
 30
0.0
 10
10.9824881411
 20
20.5423419863
 30
0.0
 10
10.9813863975
 20
20.5431620622
 30
0.0
 10
10.9791580644
 20
20.5440657681
 30
0.0
 10
10.9757568614
 20
20.5450277025
 30
0.0
 10
10.9689931986
 20
20.5464467585
 30
0.0
 10
10.9576530189
 20
20.5480899819
 30
0.0
 10
10.9407286156
 20
20.5499068778
 30
0.0
 10
10.9194908036
 20
20.5516673795
 30
0.0
 10
10.8941462789
 20
20.5533530297
 30
0.0
 10
10.8649279275
 20
20.5549394978
 30
0.0
 10
10.8321114788
 20
20.5564100082
 30
0.0
 10
10.7960052463
 20
20.5577489064
 30
0.0
 10
10.7422977727
 20
20.559389201
 30
0.0
 10
10.6697110796
 20
20.5609777163
 30
0.0
 10
10.5780206781
 20
20.5621520569
 30
0.0
 10
10.5149090423
 20
20.5624452588
 30
0.0
 10
10.4827491915
 20
20.5624683248
 30
0.0
 11
10.9826730391
 21
20.5419058565
 31
0.0
 11
10.9816608368
 21
20.5429033607
 31
0.0
 11
10.9794734688
 21
20.543899072
 31
0.0
 11
10.9761161514
 21
20.5448902129
 31
0.0
 11
10.9715957724
 21
20.5458741331
 31
0.0
 11
10.9591147652
 21
20.5478113432
 31
0.0
 11
10.9421465922
 21
20.5496930427
 31
0.0
 11
10.9208518632
 21
20.5515014257
 31
0.0
 11
10.8954315843
 21
20.5532194191
 31
0.0
 11
10.8661241742
 21
20.5548308614
 31
0.0
 11
10.8332060143
 21
20.5563205666
 31
0.0
 11
10.7969876411
 21
20.55767453
 31
0.0
 11
10.7578095421
 21
20.558879979
 31
0.0
 11
10.6720747151
 21
20.5608014234
 31
0.0
 11
10.5792276927
 21
20.5620127035
 31
0.0
 11
10.4827491915
 21
20.5624683248
 31
0.0
  0
SPLINE
  5
62F
100
AcDbEntity
  8
RACCORDO
100
AcDbSpline
 62
253
  6
CONTINUOUS
 70
0
 71
3
 72
21
 73
17
 74
15
 42
0.0000001
 43
0.0000001
 44
0.0000000001
 12
0.0006885387
 22
-0.9578997762
 32
0.0
 13
0.302598223
 23
-0.9088491463
 33
0.0
 40
0.0
 40
0.0
 40
0.0
 40
0.0
 40
0.1908078103
 40
0.3736647908
 40
0.5423568974
 40
0.691150141
 40
0.7564738747
 40
0.8149906153
 40
0.8662033914
 40
0.9096780747
 40
0.9450474638
 40
0.9720159805
 40
0.9822790167
 40
0.9903681185
 40
0.9962724717
 40
1.0
 40
1.0
 40
1.0
 40
1.0
 10
10.9826730391
 20
-20.5419058565
 30
0.0
 10
10.982716832
 20
-20.6028307761
 30
0.0
 10
10.9829917577
 20
-20.7221418732
 30
0.0
 10
10.9839686413
 20
-20.8953140395
 30
0.0
 10
10.9854704335
 20
-21.0550666738
 30
0.0
 10
10.9871717526
 20
-21.1772864646
 30
0.0
 10
10.9888036666
 20
-21.2643232618
 30
0.0
 10
10.990065726
 20
-21.3202037297
 30
0.0
 10
10.9914073939
 20
-21.369103542
 30
0.0
 10
10.9928109074
 20
-21.4106077292
 30
0.0
 10
10.9942662994
 20
-21.4443620165
 30
0.0
 10
10.9955771102
 20
-21.4675096392
 30
0.0
 10
10.9967113852
 20
-21.4819348742
 30
0.0
 10
10.997472542
 20
-21.4896466903
 30
0.0
 10
10.9982393404
 20
-21.4952471883
 30
0.0
 10
10.9988238286
 20
-21.4982812009
 30
0.0
 10
10.9991998097
 20
-21.4994104546
 30
0.0
 11
10.9826730391
 21
-20.5419058565
 31
0.0
 11
10.9831014163
 21
-20.7246801605
 31
0.0
 11
10.9841083227
 21
-20.8998359723
 31
0.0
 11
10.9856594799
 21
-21.0614187
 31
0.0
 11
10.9877020989
 21
-21.2039331141
 31
0.0
 11
10.9888865814
 21
-21.2664955084
 31
0.0
 11
10.9901666853
 21
-21.3225340767
 31
0.0
 11
10.9915315034
 21
-21.371571807
 31
0.0
 11
10.9929694024
 21
-21.4131913758
 31
0.0
 11
10.9944681525
 21
-21.4470385484
 31
0.0
 11
10.9960149375
 21
-21.472825342
 31
0.0
 11
10.996802249
 21
-21.482624728
 31
0.0
 11
10.9975967015
 21
-21.490332444
 31
0.0
 11
10.9983965536
 21
-21.49593138
 31
0.0
 11
10.9991998097
 21
-21.4994104546
 31
0.0
  0
SPLINE
  5
630
100
AcDbEntity
  8
RACCORDO
100
AcDbSpline
 62
253
  6
CONTINUOUS
 70
0
 71
3
 72
21
 73
17
 74
15
 42
0.0000001
 43
0.0000001
 44
0.0000000001
 12
0.0006884909
 22
-1.4365209813
 32
0.0
 13
0.3113033948
 23
-1.4023848259
 33
0.0
 40
0.0
 40
0.0
 40
0.0
 40
0.0
 40
0.1908437011
 40
0.3737353397
 40
0.5424594456
 40
0.6912793369
 40
0.7566131107
 40
0.8151368364
 40
0.866352673
 40
0.9098252737
 40
0.9451857809
 40
0.9721353771
 40
0.9823830754
 40
0.9904509897
 40
0.9963243625
 40
1.0
 40
1.0
 40
1.0
 40
1.0
 10
10.4827491915
 20
-20.5624683248
 30
0.0
 10
10.4827929896
 20
-20.6538519851
 30
0.0
 10
10.4830678774
 20
-20.8328115089
 30
0.0
 10
10.4840446999
 20
-21.0925614005
 30
0.0
 10
10.4855464024
 20
-21.3321857412
 30
0.0
 10
10.4872476451
 20
-21.5155156452
 30
0.0
 10
10.4888795482
 20
-21.6460744895
 30
0.0
 10
10.4901415728
 20
-21.7298973175
 30
0.0
 10
10.4914832667
 20
-21.8032492868
 30
0.0
 10
10.4928866318
 20
-21.8655066834
 30
0.0
 10
10.4943421816
 20
-21.9161385378
 30
0.0
 10
10.4956523544
 20
-21.9508596947
 30
0.0
 10
10.496787404
 20
-21.9725038686
 30
0.0
 10
10.4975468052
 20
-21.9840646806
 30
0.0
 10
10.4983152648
 20
-21.9924610508
 30
0.0
 10
10.4988945494
 20
-21.9970070026
 30
0.0
 10
10.4992759622
 20
-21.998725222
 30
0.0
 11
10.4827491915
 21
-20.5624683248
 31
0.0
 11
10.4831775337
 21
-20.8366190025
 31
0.0
 11
10.4841843741
 21
-21.0993447796
 31
0.0
 11
10.4857354522
 21
-21.3417155625
 31
0.0
 11
10.4877780116
 21
-21.5554887254
 31
0.0
 11
10.4889624807
 21
-21.6493345984
 31
0.0
 11
10.4902425831
 21
-21.7333954216
 31
0.0
 11
10.4916074197
 21
-21.8069553934
 31
0.0
 11
10.4930453398
 21
-21.8693881471
 31
0.0
 11
10.4945441441
 21
-21.9201621466
 31
0.0
 11
10.4960909784
 21
-21.9588448965
 31
0.0
 11
10.496878294
 21
-21.973544863
 31
0.0
 11
10.4976727845
 21
-21.9851073288
 31
0.0
 11
10.4984727033
 21
-21.993506548
 31
0.0
 11
10.4992759622
 21
-21.998725222
 31
0.0
  0
SPLINE
  5
631
100
AcDbEntity
  8
RACCORDO
100
AcDbSpline
 62
253
  6
CONTINUOUS
 70
0
 71
3
 72
22
 73
18
 74
16
 42
0.0000001
 43
0.0000001
 44
0.0000000001
 12
-0.1956880875
 22
-0.4615692524
 32
0.0
 13
-0.5013380826
 23
-0.0003595741
 33
0.0
 40
0.0
 40
0.0
 40
0.0
 40
0.0
 40
0.0028346579
 40
0.0076285154
 40
0.0146109708
 40
0.0238387332
 40
0.0490322391
 40
0.083085504
 40
0.1257141835
 40
0.1765347129
 40
0.2350813812
 40
0.3008091681
 40
0.3731030181
 40
0.4512870321
 40
0.62234189
 40
0.8075559708
 40
1.0
 40
1.0
 40
1.0
 40
1.0
 10
10.9826730391
 20
-20.5419058565
 30
0.0
 10
10.9824881362
 20
-20.5423419868
 30
0.0
 10
10.981386386
 20
-20.5431620604
 30
0.0
 10
10.9791580438
 20
-20.5440657673
 30
0.0
 10
10.9757568319
 20
-20.545027701
 30
0.0
 10
10.9689931579
 20
-20.5464467566
 30
0.0
 10
10.9576529662
 20
-20.5480899793
 30
0.0
 10
10.9407285504
 20
-20.5499068746
 30
0.0
 10
10.9194907289
 20
-20.5516673754
 30
0.0
 10
10.8941461976
 20
-20.5533530248
 30
0.0
 10
10.8649278428
 20
-20.5549394919
 30
0.0
 10
10.8321113937
 20
-20.5564100015
 30
0.0
 10
10.7960051639
 20
-20.5577488989
 30
0.0
 10
10.7422976994
 20
-20.5593891923
 30
0.0
 10
10.6697110236
 20
-20.5609777063
 30
0.0
 10
10.578020648
 20
-20.562152046
 30
0.0
 10
10.5149090317
 20
-20.5624452475
 30
0.0
 10
10.4827491915
 20
-20.5624683135
 30
0.0
 11
10.9826730391
 21
-20.5419058565
 31
0.0
 11
10.9816608263
 21
-20.5429033604
 31
0.0
 11
10.9794734485
 21
-20.5438990714
 31
0.0
 11
10.9761161218
 21
-20.5448902119
 31
0.0
 11
10.9715957342
 21
-20.5458741318
 31
0.0
 11
10.9591147117
 21
-20.5478113411
 31
0.0
 11
10.9421465261
 21
-20.5496930397
 31
0.0
 11
10.9208517875
 21
-20.5515014219
 31
0.0
 11
10.895431502
 21
-20.5532194143
 31
0.0
 11
10.8661240884
 21
-20.5548308557
 31
0.0
 11
10.8332059282
 21
-20.55632056
 31
0.0
 11
10.7969875577
 21
-20.5576745225
 31
0.0
 11
10.7578094644
 21
-20.5588799707
 31
0.0
 11
10.6720746563
 21
-20.5608014136
 31
0.0
 11
10.5792276611
 21
-20.5620126927
 31
0.0
 11
10.4827491915
 21
-20.5624683135
 31
0.0
  0
SPLINE
  5
632
100
AcDbEntity
  8
RACCORDO
100
AcDbSpline
 62
253
  6
CONTINUOUS
 70
0
 71
3
 72
21
 73
17
 74
15
 42
0.0000001
 43
0.0000001
 44
0.0000000001
 12
-0.0006885044
 22
0.9578997757
 32
0.0
 13
-0.3025875551
 23
0.9088526975
 33
0.0
 40
0.0
 40
0.0
 40
0.0
 40
0.0
 40
0.1908078361
 40
0.3736648077
 40
0.5423569108
 40
0.6911501472
 40
0.7564738751
 40
0.8149906122
 40
0.8662033773
 40
0.9096780668
 40
0.9450474351
 40
0.9720159518
 40
0.9822790237
 40
0.9903681257
 40
0.9962724435
 40
1.0
 40
1.0
 40
1.0
 40
1.0
 10
-10.9826730391
 20
20.5419058565
 30
0.0
 10
-10.9827168298
 20
20.6028307843
 30
0.0
 10
-10.9829917578
 20
20.7221418867
 30
0.0
 10
-10.9839686411
 20
20.8953140572
 30
0.0
 10
-10.9854704334
 20
21.0550666852
 30
0.0
 10
-10.9871717525
 20
21.1772864706
 30
0.0
 10
-10.9888036669
 20
21.2643232625
 30
0.0
 10
-10.990065726
 20
21.3202037239
 30
0.0
 10
-10.9914073945
 20
21.3691035336
 30
0.0
 10
-10.9928109074
 20
21.4106077125
 30
0.0
 10
-10.994266299
 20
21.4443619953
 30
0.0
 10
-10.9955771142
 20
21.4675096222
 30
0.0
 10
-10.996711384
 20
21.4819348695
 30
0.0
 10
-10.9974725406
 20
21.4896466849
 30
0.0
 10
-10.9982393397
 20
21.4952471827
 30
0.0
 10
-10.998823839
 20
21.498281188
 30
0.0
 10
-10.9991998097
 20
21.4994104546
 30
0.0
 11
-10.9826730391
 21
20.5419058565
 31
0.0
 11
-10.9831014158
 21
20.7246801851
 31
0.0
 11
-10.9841083226
 21
20.8998359882
 31
0.0
 11
-10.9856594799
 21
21.0614187125
 31
0.0
 11
-10.987702099
 21
21.2039331198
 31
0.0
 11
-10.9888865816
 21
21.2664955085
 31
0.0
 11
-10.9901666855
 21
21.3225340733
 31
0.0
 11
-10.9915315037
 21
21.371571793
 31
0.0
 11
-10.9929694027
 21
21.4131913678
 31
0.0
 11
-10.9944681528
 21
21.4470385204
 31
0.0
 11
-10.9960149379
 21
21.472825314
 31
0.0
 11
-10.9968022493
 21
21.4826247343
 31
0.0
 11
-10.9975967016
 21
21.4903324505
 31
0.0
 11
-10.9983965537
 21
21.4959313523
 31
0.0
 11
-10.9991998097
 21
21.4994104546
 31
0.0
  0
SPLINE
  5
633
100
AcDbEntity
  8
RACCORDO
100
AcDbSpline
 62
253
  6
CONTINUOUS
 70
0
 71
3
 72
21
 73
17
 74
15
 42
0.0000001
 43
0.0000001
 44
0.0000000001
 12
-0.000688378
 22
1.4365209811
 32
0.0
 13
-0.3113105911
 23
1.4023832283
 33
0.0
 40
0.0
 40
0.0
 40
0.0
 40
0.0
 40
0.1908437014
 40
0.37373534
 40
0.542459446
 40
0.6912793372
 40
0.756613111
 40
0.8151368367
 40
0.8663526731
 40
0.9098252744
 40
0.9451857799
 40
0.9721353804
 40
0.9823830818
 40
0.9904509844
 40
0.9963243388
 40
1.0
 40
1.0
 40
1.0
 40
1.0
 10
-10.4827491915
 20
20.5624683248
 30
0.0
 10
-10.4827929824
 20
20.6538519852
 30
0.0
 10
-10.4830678799
 20
20.8328115091
 30
0.0
 10
-10.4840447024
 20
21.0925614008
 30
0.0
 10
-10.4855464075
 20
21.3321857415
 30
0.0
 10
-10.4872476531
 20
21.5155156455
 30
0.0
 10
-10.4888795566
 20
21.6460744898
 30
0.0
 10
-10.490141582
 20
21.7298973176
 30
0.0
 10
-10.4914832737
 20
21.8032492872
 30
0.0
 10
-10.4928866414
 20
21.865506683
 30
0.0
 10
-10.4943421877
 20
21.916138539
 30
0.0
 10
-10.495652358
 20
21.9508596989
 30
0.0
 10
-10.4967874176
 20
21.9725038701
 30
0.0
 10
-10.4975468135
 20
21.9840646695
 30
0.0
 10
-10.498315254
 20
21.9924610378
 30
0.0
 10
-10.4988945381
 20
21.9970069934
 30
0.0
 10
-10.4992759622
 20
21.998725222
 30
0.0
 11
-10.4827491915
 21
20.5624683248
 31
0.0
 11
-10.4831775339
 21
20.8366190028
 31
0.0
 11
-10.4841843771
 21
21.0993447799
 31
0.0
 11
-10.4857354577
 21
21.3417155628
 31
0.0
 11
-10.4877780196
 21
21.5554887257
 31
0.0
 11
-10.4889624892
 21
21.6493345986
 31
0.0
 11
-10.4902425917
 21
21.7333954219
 31
0.0
 11
-10.4916074275
 21
21.8069553934
 31
0.0
 11
-10.4930453483
 21
21.8693881478
 31
0.0
 11
-10.4945441498
 21
21.9201621449
 31
0.0
 11
-10.4960909865
 21
21.958844901
 31
0.0
 11
-10.4968783061
 21
21.9735448718
 31
0.0
 11
-10.4976727885
 21
21.9851073212
 31
0.0
 11
-10.4984726914
 21
21.9935065154
 31
0.0
 11
-10.4992759622
 21
21.998725222
 31
0.0
  0
SPLINE
  5
634
100
AcDbEntity
  8
RACCORDO
100
AcDbSpline
 62
253
  6
CONTINUOUS
 70
0
 71
3
 72
22
 73
18
 74
16
 42
0.0000001
 43
0.0000001
 44
0.0000000001
 12
0.1956865035
 22
0.4615699264
 32
0.0
 13
0.5013380849
 23
0.0003595743
 33
0.0
 40
0.0
 40
0.0
 40
0.0
 40
0.0
 40
0.0028346526
 40
0.0076285035
 40
0.0146109522
 40
0.0238387082
 40
0.0490322025
 40
0.0830854577
 40
0.1257141296
 40
0.1765346534
 40
0.2350813185
 40
0.3008091045
 40
0.373102956
 40
0.4512869739
 40
0.6223418455
 40
0.8075559467
 40
1.0
 40
1.0
 40
1.0
 40
1.0
 10
-10.9826730391
 20
20.5419058565
 30
0.0
 10
-10.982488138
 20
20.5423419866
 30
0.0
 10
-10.9813863903
 20
20.5431620611
 30
0.0
 10
-10.9791580515
 20
20.5440657676
 30
0.0
 10
-10.975756843
 20
20.5450277016
 30
0.0
 10
-10.9689931732
 20
20.5464467574
 30
0.0
 10
-10.9576529861
 20
20.5480899804
 30
0.0
 10
-10.9407285751
 20
20.5499068759
 30
0.0
 10
-10.9194907575
 20
20.5516673771
 30
0.0
 10
-10.8941462288
 20
20.5533530268
 30
0.0
 10
-10.8649278755
 20
20.5549394944
 30
0.0
 10
-10.8321114267
 20
20.5564100043
 30
0.0
 10
-10.796005196
 20
20.557748902
 30
0.0
 10
-10.7422977281
 20
20.5593891959
 30
0.0
 10
-10.6697110456
 20
20.5609777104
 30
0.0
 10
-10.5780206599
 20
20.5621520504
 30
0.0
 10
-10.5149090359
 20
20.5624452521
 30
0.0
 10
-10.4827491915
 20
20.562468318
 30
0.0
 11
-10.9826730391
 21
20.5419058565
 31
0.0
 11
-10.9816608302
 21
20.5429033605
 31
0.0
 11
-10.9794734561
 21
20.5438990717
 31
0.0
 11
-10.9761161329
 21
20.5448902123
 31
0.0
 11
-10.9715957485
 21
20.5458741324
 31
0.0
 11
-10.9591147319
 21
20.547811342
 31
0.0
 11
-10.9421465512
 21
20.549693041
 31
0.0
 11
-10.9208518164
 21
20.5515014235
 31
0.0
 11
-10.8954315336
 21
20.5532194163
 31
0.0
 11
-10.8661241215
 21
20.554830858
 31
0.0
 11
-10.8332059616
 21
20.5563205627
 31
0.0
 11
-10.7969875902
 21
20.5576745256
 31
0.0
 11
-10.7578094948
 21
20.5588799741
 31
0.0
 11
-10.6720746795
 21
20.5608014176
 31
0.0
 11
-10.5792276736
 21
20.5620126971
 31
0.0
 11
-10.4827491915
 21
20.562468318
 31
0.0
  0
SPLINE
  5
635
100
AcDbEntity
  8
RACCORDO
100
AcDbSpline
 62
253
  6
CONTINUOUS
 70
0
 71
3
 72
9
 73
5
 74
3
 42
0.0000001
 43
0.0000001
 44
0.0000000001
 12
0.0295164958
 22
41.0838030965
 32
0.0
 13
-0.029516496
 23
41.0838030965
 33
0.0
 40
0.0
 40
0.0
 40
0.0
 40
0.0
 40
0.2499471355
 40
1.0
 40
1.0
 40
1.0
 40
1.0
 10
-10.9826730391
 20
-20.5419058565
 30
0.0
 10
-10.9802138512
 20
-17.1189795567
 30
0.0
 10
-10.9728388852
 20
-3.4243768659
 30
0.0
 10
-10.975293395
 20
10.2702311241
 30
0.0
 10
-10.9826730391
 20
20.5419058565
 30
0.0
 11
-10.9826730391
 21
-20.5419058565
 31
0.0
 11
-10.9771412304
 21
-10.2731257968
 31
0.0
 11
-10.9826730391
 21
20.5419058565
 31
0.0
  0
SPLINE
  5
636
100
AcDbEntity
  8
RACCORDO
100
AcDbSpline
 62
253
  6
CONTINUOUS
 70
0
 71
3
 72
9
 73
5
 74
3
 42
0.0000001
 43
0.0000001
 44
0.0000000001
 12
0.0295164958
 22
41.1249280418
 32
0.0
 13
-0.029516496
 23
41.1249280418
 33
0.0
 40
0.0
 40
0.0
 40
0.0
 40
0.0
 40
0.2499471355
 40
1.0
 40
1.0
 40
1.0
 40
1.0
 10
-10.4827491915
 20
-20.5624683248
 30
0.0
 10
-10.4802900037
 20
-17.1361156711
 30
0.0
 10
-10.4729150376
 20
-3.4278046669
 30
0.0
 10
-10.4753695474
 20
10.2805116313
 30
0.0
 10
-10.4827491915
 20
20.5624683248
 30
0.0
 11
-10.4827491915
 21
-20.5624683248
 31
0.0
 11
-10.4772173828
 21
-10.2834092047
 31
0.0
 11
-10.4827491915
 21
20.5624683248
 31
0.0
  0
SPLINE
  5
637
100
AcDbEntity
  8
RACCORDO
100
AcDbSpline
 62
253
  6
CONTINUOUS
 70
0
 71
3
 72
22
 73
18
 74
16
 42
0.0000001
 43
0.0000001
 44
0.0000000001
 12
0.1956838335
 22
-0.4615710623
 32
0.0
 13
0.5013380885
 23
-0.0003595753
 33
0.0
 40
0.0
 40
0.0
 40
0.0
 40
0.0
 40
0.0028346435
 40
0.0076284833
 40
0.014610921
 40
0.0238386666
 40
0.0490321423
 40
0.0830853821
 40
0.1257140422
 40
0.1765345581
 40
0.2350812189
 40
0.3008090044
 40
0.373102859
 40
0.4512868834
 40
0.6223417772
 40
0.80755591
 40
1.0
 40
1.0
 40
1.0
 40
1.0
 10
-10.9826730391
 20
-20.5419058565
 30
0.0
 10
-10.9824881411
 20
-20.5423419863
 30
0.0
 10
-10.9813863975
 20
-20.5431620622
 30
0.0
 10
-10.9791580644
 20
-20.5440657681
 30
0.0
 10
-10.9757568614
 20
-20.5450277025
 30
0.0
 10
-10.9689931986
 20
-20.5464467585
 30
0.0
 10
-10.9576530189
 20
-20.5480899819
 30
0.0
 10
-10.9407286155
 20
-20.5499068778
 30
0.0
 10
-10.9194908036
 20
-20.5516673795
 30
0.0
 10
-10.8941462788
 20
-20.5533530297
 30
0.0
 10
-10.8649279275
 20
-20.5549394978
 30
0.0
 10
-10.8321114788
 20
-20.5564100082
 30
0.0
 10
-10.7960052463
 20
-20.5577489064
 30
0.0
 10
-10.7422977727
 20
-20.559389201
 30
0.0
 10
-10.6697110796
 20
-20.5609777162
 30
0.0
 10
-10.5780206781
 20
-20.5621520569
 30
0.0
 10
-10.5149090423
 20
-20.5624452588
 30
0.0
 10
-10.4827491915
 20
-20.5624683248
 30
0.0
 11
-10.9826730391
 21
-20.5419058565
 31
0.0
 11
-10.9816608368
 21
-20.5429033607
 31
0.0
 11
-10.9794734688
 21
-20.543899072
 31
0.0
 11
-10.9761161514
 21
-20.5448902129
 31
0.0
 11
-10.9715957724
 21
-20.5458741331
 31
0.0
 11
-10.9591147652
 21
-20.5478113432
 31
0.0
 11
-10.9421465921
 21
-20.5496930427
 31
0.0
 11
-10.9208518631
 21
-20.5515014257
 31
0.0
 11
-10.8954315842
 21
-20.5532194191
 31
0.0
 11
-10.8661241741
 21
-20.5548308614
 31
0.0
 11
-10.8332060142
 21
-20.5563205665
 31
0.0
 11
-10.796987641
 21
-20.55767453
 31
0.0
 11
-10.7578095421
 21
-20.558879979
 31
0.0
 11
-10.6720747151
 21
-20.5608014234
 31
0.0
 11
-10.5792276927
 21
-20.5620127035
 31
0.0
 11
-10.4827491915
 21
-20.5624683248
 31
0.0
  0
SPLINE
  5
638
100
AcDbEntity
  8
RACCORDO
100
AcDbSpline
 62
253
  6
CONTINUOUS
 70
0
 71
3
 72
21
 73
17
 74
15
 42
0.0000001
 43
0.0000001
 44
0.0000000001
 12
0.302598219
 22
0.9088491476
 32
0.0
 13
0.0006885387
 23
0.9578997762
 33
0.0
 40
0.0
 40
0.0
 40
0.0
 40
0.0
 40
0.0037275284
 40
0.0096318815
 40
0.0177209833
 40
0.0279840195
 40
0.0549525362
 40
0.0903219253
 40
0.1337966086
 40
0.1850093847
 40
0.2435261253
 40
0.308849859
 40
0.4576431026
 40
0.6263352092
 40
0.8091921897
 40
1.0
 40
1.0
 40
1.0
 40
1.0
 10
-10.9991998097
 20
-21.4994104546
 30
0.0
 10
-10.9988238286
 20
-21.4982812009
 30
0.0
 10
-10.9982393404
 20
-21.4952471883
 30
0.0
 10
-10.997472542
 20
-21.4896466903
 30
0.0
 10
-10.9967113852
 20
-21.4819348742
 30
0.0
 10
-10.9955771102
 20
-21.4675096392
 30
0.0
 10
-10.9942662994
 20
-21.4443620165
 30
0.0
 10
-10.9928109074
 20
-21.4106077292
 30
0.0
 10
-10.9914073939
 20
-21.369103542
 30
0.0
 10
-10.990065726
 20
-21.3202037297
 30
0.0
 10
-10.9888036666
 20
-21.2643232618
 30
0.0
 10
-10.9871717526
 20
-21.1772864646
 30
0.0
 10
-10.9854704335
 20
-21.0550666738
 30
0.0
 10
-10.9839686413
 20
-20.8953140395
 30
0.0
 10
-10.9829917577
 20
-20.7221418732
 30
0.0
 10
-10.982716832
 20
-20.6028307761
 30
0.0
 10
-10.9826730391
 20
-20.5419058565
 30
0.0
 11
-10.9991998097
 21
-21.4994104546
 31
0.0
 11
-10.9983965536
 21
-21.4959313799
 31
0.0
 11
-10.9975967015
 21
-21.490332444
 31
0.0
 11
-10.996802249
 21
-21.482624728
 31
0.0
 11
-10.9960149375
 21
-21.472825342
 31
0.0
 11
-10.9944681525
 21
-21.4470385484
 31
0.0
 11
-10.9929694024
 21
-21.4131913758
 31
0.0
 11
-10.9915315034
 21
-21.371571807
 31
0.0
 11
-10.9901666853
 21
-21.3225340767
 31
0.0
 11
-10.9888865814
 21
-21.2664955084
 31
0.0
 11
-10.9877020989
 21
-21.2039331141
 31
0.0
 11
-10.9856594799
 21
-21.0614187
 31
0.0
 11
-10.9841083227
 21
-20.8998359723
 31
0.0
 11
-10.9831014163
 21
-20.7246801605
 31
0.0
 11
-10.9826730391
 21
-20.5419058565
 31
0.0
  0
SPLINE
  5
639
100
AcDbEntity
  8
RACCORDO
100
AcDbSpline
 62
253
  6
CONTINUOUS
 70
0
 71
3
 72
21
 73
17
 74
15
 42
0.0000001
 43
0.0000001
 44
0.0000000001
 12
0.3113033957
 22
1.4023848257
 32
0.0
 13
0.0006884909
 23
1.4365209813
 33
0.0
 40
0.0
 40
0.0
 40
0.0
 40
0.0
 40
0.0036756375
 40
0.0095490103
 40
0.0176169246
 40
0.0278646229
 40
0.0548142191
 40
0.0901747263
 40
0.133647327
 40
0.1848631636
 40
0.2433868893
 40
0.3087206631
 40
0.4575405544
 40
0.6262646603
 40
0.8091562989
 40
1.0
 40
1.0
 40
1.0
 40
1.0
 10
-10.4992759622
 20
-21.998725222
 30
0.0
 10
-10.4988945494
 20
-21.9970070026
 30
0.0
 10
-10.4983152648
 20
-21.9924610508
 30
0.0
 10
-10.4975468052
 20
-21.9840646806
 30
0.0
 10
-10.496787404
 20
-21.9725038686
 30
0.0
 10
-10.4956523544
 20
-21.9508596947
 30
0.0
 10
-10.4943421816
 20
-21.9161385378
 30
0.0
 10
-10.4928866318
 20
-21.8655066834
 30
0.0
 10
-10.4914832667
 20
-21.8032492868
 30
0.0
 10
-10.4901415728
 20
-21.7298973175
 30
0.0
 10
-10.4888795482
 20
-21.6460744895
 30
0.0
 10
-10.4872476451
 20
-21.5155156452
 30
0.0
 10
-10.4855464024
 20
-21.3321857412
 30
0.0
 10
-10.4840446999
 20
-21.0925614005
 30
0.0
 10
-10.4830678774
 20
-20.8328115089
 30
0.0
 10
-10.4827929896
 20
-20.6538519851
 30
0.0
 10
-10.4827491915
 20
-20.5624683248
 30
0.0
 11
-10.4992759622
 21
-21.998725222
 31
0.0
 11
-10.4984727033
 21
-21.993506548
 31
0.0
 11
-10.4976727845
 21
-21.9851073288
 31
0.0
 11
-10.496878294
 21
-21.973544863
 31
0.0
 11
-10.4960909784
 21
-21.9588448965
 31
0.0
 11
-10.4945441441
 21
-21.9201621466
 31
0.0
 11
-10.4930453398
 21
-21.8693881471
 31
0.0
 11
-10.4916074197
 21
-21.8069553934
 31
0.0
 11
-10.4902425831
 21
-21.7333954216
 31
0.0
 11
-10.4889624807
 21
-21.6493345984
 31
0.0
 11
-10.4877780116
 21
-21.5554887254
 31
0.0
 11
-10.4857354522
 21
-21.3417155625
 31
0.0
 11
-10.4841843741
 21
-21.0993447796
 31
0.0
 11
-10.4831775337
 21
-20.8366190025
 31
0.0
 11
-10.4827491915
 21
-20.5624683248
 31
0.0
  0
SPLINE
  5
63A
100
AcDbEntity
  8
ASSI
100
AcDbSpline
 62
7
  6
CONTINUOUS
 70
0
 71
3
 72
8
 73
4
 74
2
 42
0.0000001
 43
0.0000001
 44
0.0000000001
 12
0.190950407
 22
-0.0149561072
 32
0.0
 13
0.1713113529
 23
-0.0856630809
 33
0.0
 40
0.0
 40
0.0
 40
0.0
 40
0.0
 40
1.0
 40
1.0
 40
1.0
 40
1.0
 10
10.6714883301
 20
22.3984731344
 30
0.0
 10
10.7351384658
 20
22.3934877653
 30
0.0
 10
10.7989332012
 20
22.3757679896
 30
0.0
 10
10.8560369855
 20
22.3472136293
 30
0.0
 11
10.6714883301
 21
22.3984731344
 31
0.0
 11
10.8560369855
 21
22.3472136293
 31
0.0
  0
SPLINE
  5
63B
100
AcDbEntity
  8
ASSI
100
AcDbSpline
 62
7
  6
CONTINUOUS
 70
0
 71
3
 72
8
 73
4
 74
2
 42
0.0000001
 43
0.0000001
 44
0.0000000001
 12
-0.190950407
 22
0.0149561072
 32
0.0
 13
-0.1713113529
 23
0.0856630809
 33
0.0
 40
0.0
 40
0.0
 40
0.0
 40
0.0
 40
1.0
 40
1.0
 40
1.0
 40
1.0
 10
-10.6714883301
 20
-22.3984731344
 30
0.0
 10
-10.7351384658
 20
-22.3934877653
 30
0.0
 10
-10.7989332012
 20
-22.3757679896
 30
0.0
 10
-10.8560369855
 20
-22.3472136293
 30
0.0
 11
-10.6714883301
 21
-22.3984731344
 31
0.0
 11
-10.8560369855
 21
-22.3472136293
 31
0.0
  0
SPLINE
  5
63C
100
AcDbEntity
  8
ASSI
100
AcDbSpline
 62
7
  6
CONTINUOUS
 70
0
 71
3
 72
12
 73
8
 74
6
 42
0.0000001
 43
0.0000001
 44
0.0000000001
 12
0.4498047458
 22
-0.003468097
 32
0.0
 13
0.3801656942
 23
-0.2404378964
 33
0.0
 40
0.0
 40
0.0
 40
0.0
 40
0.0
 40
0.0928063554
 40
0.2002657039
 40
0.4469405411
 40
0.7183214292
 40
1.0
 40
1.0
 40
1.0
 40
1.0
 10
-4.2962073137
 20
23.7953389668
 30
0.0
 10
-4.2822924006
 20
23.7952316797
 30
0.0
 10
-4.2523804522
 20
23.7898082213
 30
0.0
 10
-4.1892340474
 20
23.7671787092
 30
0.0
 10
-4.1057237804
 20
23.723816144
 30
0.0
 10
-4.0028613095
 20
23.6622793544
 30
0.0
 10
-3.9327774665
 20
23.6179177525
 30
0.0
 10
-3.8970826234
 20
23.5953423515
 30
0.0
 11
-4.2962073137
 21
23.7953389668
 31
0.0
 11
-4.2549163488
 21
23.7891921748
 31
0.0
 11
-4.209156908
 21
23.7736180048
 31
0.0
 11
-4.1095960362
 21
23.7246334111
 31
0.0
 11
-4.0044388891
 21
23.6626369814
 31
0.0
 11
-3.8970826234
 21
23.5953423515
 31
0.0
  0
SPLINE
  5
63D
100
AcDbEntity
  8
ASSI
100
AcDbSpline
 62
253
  6
CONTINUOUS
 70
0
 71
3
 72
11
 73
7
 74
5
 42
0.0000001
 43
0.0000001
 44
0.0000000001
 12
-0.0012232477
 22
-0.3641905854
 32
0.0
 13
-0.3641914841
 23
-0.0009174691
 33
0.0
 40
0.0
 40
0.0
 40
0.0
 40
0.0
 40
0.2331615336
 40
0.476670328
 40
0.7338124407
 40
1.0
 40
1.0
 40
1.0
 40
1.0
 10
-8.2630985787
 20
23.8443375673
 30
0.0
 10
-8.2631936502
 20
23.8160324888
 30
0.0
 10
-8.2771241227
 20
23.7574897042
 30
0.0
 10
-8.3340554153
 20
23.6858275835
 30
0.0
 10
-8.4167243359
 20
23.638830569
 30
0.0
 10
-8.4807799338
 20
23.6279126226
 30
0.0
 10
-8.5130943479
 20
23.6278312164
 30
0.0
 11
-8.2630985787
 21
23.8443375673
 31
0.0
 11
-8.2823370037
 21
23.7616298799
 31
0.0
 11
-8.33657716
 21
23.6914666636
 31
0.0
 11
-8.4175932809
 21
23.6444924903
 31
0.0
 11
-8.5130943479
 21
23.6278312164
 31
0.0
  0
SPLINE
  5
63E
100
AcDbEntity
  8
ASSI
100
AcDbSpline
 62
7
  6
CONTINUOUS
 70
0
 71
3
 72
13
 73
9
 74
7
 42
0.0000001
 43
0.0000001
 44
0.0000000001
 12
-0.0031696367
 22
-0.3145566487
 32
0.0
 13
-0.3145726178
 23
0.0
 33
0.0
 40
0.0
 40
0.0
 40
0.0
 40
0.0
 40
0.0848322853
 40
0.1759482271
 40
0.2781995767
 40
0.3947846151
 40
0.6739262862
 40
1.0
 40
1.0
 40
1.0
 40
1.0
 10
-8.2572807489
 20
23.2669872981
 30
0.0
 10
-8.2573703781
 20
23.258092445
 30
0.0
 10
-8.2606118496
 20
23.2395646609
 30
0.0
 10
-8.2741604085
 20
23.2133256907
 30
0.0
 10
-8.2960241061
 20
23.1888896337
 30
0.0
 10
-8.3383641663
 20
23.1578237628
 30
0.0
 10
-8.4101375492
 20
23.1301860757
 30
0.0
 10
-8.4738124596
 20
23.1226497308
 30
0.0
 10
-8.5080037468
 20
23.1226497308
 30
0.0
 11
-8.2572807489
 21
23.2669872981
 31
0.0
 11
-8.2617344967
 21
23.240675663
 31
0.0
 11
-8.2745557085
 21
23.2150405302
 31
0.0
 11
-8.2957050748
 21
23.1908058016
 31
0.0
 11
-8.3250379929
 21
23.1687922607
 31
0.0
 11
-8.40621414
 21
23.1353096304
 31
0.0
 11
-8.5080037468
 21
23.1226497308
 31
0.0
  0
SPLINE
  5
63F
100
AcDbEntity
  8
ASSI
100
AcDbSpline
 62
7
  6
CONTINUOUS
 70
0
 71
3
 72
12
 73
8
 74
6
 42
0.0000001
 43
0.0000001
 44
0.0000000001
 12
0.4498047458
 22
0.003468097
 32
0.0
 13
0.3801656942
 23
0.2404378964
 33
0.0
 40
0.0
 40
0.0
 40
0.0
 40
0.0
 40
0.0928063554
 40
0.2002657039
 40
0.4469405411
 40
0.7183214292
 40
1.0
 40
1.0
 40
1.0
 40
1.0
 10
-4.2962073137
 20
-23.7953389668
 30
0.0
 10
-4.2822924006
 20
-23.7952316797
 30
0.0
 10
-4.2523804522
 20
-23.7898082213
 30
0.0
 10
-4.1892340474
 20
-23.7671787092
 30
0.0
 10
-4.1057237804
 20
-23.723816144
 30
0.0
 10
-4.0028613095
 20
-23.6622793544
 30
0.0
 10
-3.9327774665
 20
-23.6179177525
 30
0.0
 10
-3.8970826234
 20
-23.5953423515
 30
0.0
 11
-4.2962073137
 21
-23.7953389668
 31
0.0
 11
-4.2549163488
 21
-23.7891921748
 31
0.0
 11
-4.209156908
 21
-23.7736180048
 31
0.0
 11
-4.1095960362
 21
-23.7246334111
 31
0.0
 11
-4.0044388891
 21
-23.6626369814
 31
0.0
 11
-3.8970826234
 21
-23.5953423515
 31
0.0
  0
SPLINE
  5
640
100
AcDbEntity
  8
ASSI
100
AcDbSpline
 62
7
  6
CONTINUOUS
 70
0
 71
3
 72
12
 73
8
 74
6
 42
0.0000001
 43
0.0000001
 44
0.0000000001
 12
-0.4498047458
 22
0.003468097
 32
0.0
 13
-0.3801656942
 23
0.2404378964
 33
0.0
 40
0.0
 40
0.0
 40
0.0
 40
0.0
 40
0.0928063554
 40
0.2002657039
 40
0.4469405411
 40
0.7183214292
 40
1.0
 40
1.0
 40
1.0
 40
1.0
 10
4.2962073137
 20
-23.7953389668
 30
0.0
 10
4.2822924006
 20
-23.7952316797
 30
0.0
 10
4.2523804522
 20
-23.7898082213
 30
0.0
 10
4.1892340474
 20
-23.7671787092
 30
0.0
 10
4.1057237804
 20
-23.723816144
 30
0.0
 10
4.0028613095
 20
-23.6622793544
 30
0.0
 10
3.9327774665
 20
-23.6179177525
 30
0.0
 10
3.8970826234
 20
-23.5953423515
 30
0.0
 11
4.2962073137
 21
-23.7953389668
 31
0.0
 11
4.2549163488
 21
-23.7891921748
 31
0.0
 11
4.209156908
 21
-23.7736180048
 31
0.0
 11
4.1095960362
 21
-23.7246334111
 31
0.0
 11
4.0044388891
 21
-23.6626369814
 31
0.0
 11
3.8970826234
 21
-23.5953423515
 31
0.0
  0
SPLINE
  5
641
100
AcDbEntity
  8
ASSI
100
AcDbSpline
 62
7
  6
CONTINUOUS
 70
0
 71
3
 72
13
 73
9
 74
7
 42
0.0000001
 43
0.0000001
 44
0.0000000001
 12
-0.3138496531
 22
0.0
 32
0.0
 13
-0.0031623521
 23
0.3138337207
 33
0.0
 40
0.0
 40
0.0
 40
0.0
 40
0.0
 40
0.3261057803
 40
0.6051570789
 40
0.7217182853
 40
0.8239738669
 40
0.9151204293
 40
1.0
 40
1.0
 40
1.0
 40
1.0
 10
-10.3927234819
 20
23.1226497308
 30
0.0
 10
-10.4268395439
 20
23.1226497308
 30
0.0
 10
-10.4903492479
 20
23.1303408419
 30
0.0
 10
-10.561912974
 20
23.1579773839
 30
0.0
 10
-10.6041101906
 20
23.1890163738
 30
0.0
 10
-10.6258990681
 20
23.2134187825
 30
0.0
 10
-10.6393999875
 20
23.2396147938
 30
0.0
 10
-10.6426297781
 20
23.2581079409
 30
0.0
 10
-10.6427192511
 20
23.2669872981
 30
0.0
 11
-10.3927234819
 21
23.1226497308
 31
0.0
 11
-10.494270005
 21
23.1354346756
 31
0.0
 11
-10.5751903604
 21
23.1689336209
 31
0.0
 11
-10.6044247922
 21
23.1909254719
 31
0.0
 11
-10.6255024657
 21
23.2151263924
 31
0.0
 11
-10.6382802795
 21
23.2407203144
 31
0.0
 11
-10.6427192511
 21
23.2669872981
 31
0.0
  0
SPLINE
  5
642
100
AcDbEntity
  8
ASSI
100
AcDbSpline
 62
7
  6
CONTINUOUS
 70
0
 71
3
 72
13
 73
9
 74
7
 42
0.0000001
 43
0.0000001
 44
0.0000000001
 12
0.0031696367
 22
-0.3145566487
 32
0.0
 13
0.3145726178
 23
0.0
 33
0.0
 40
0.0
 40
0.0
 40
0.0
 40
0.0
 40
0.0848322853
 40
0.1759482271
 40
0.2781995767
 40
0.3947846151
 40
0.6739262862
 40
1.0
 40
1.0
 40
1.0
 40
1.0
 10
8.2572807489
 20
23.2669872981
 30
0.0
 10
8.2573703781
 20
23.258092445
 30
0.0
 10
8.2606118496
 20
23.2395646609
 30
0.0
 10
8.2741604085
 20
23.2133256907
 30
0.0
 10
8.2960241061
 20
23.1888896337
 30
0.0
 10
8.3383641663
 20
23.1578237628
 30
0.0
 10
8.4101375492
 20
23.1301860757
 30
0.0
 10
8.4738124596
 20
23.1226497308
 30
0.0
 10
8.5080037468
 20
23.1226497308
 30
0.0
 11
8.2572807489
 21
23.2669872981
 31
0.0
 11
8.2617344967
 21
23.240675663
 31
0.0
 11
8.2745557085
 21
23.2150405302
 31
0.0
 11
8.2957050748
 21
23.1908058016
 31
0.0
 11
8.3250379929
 21
23.1687922607
 31
0.0
 11
8.40621414
 21
23.1353096304
 31
0.0
 11
8.5080037468
 21
23.1226497308
 31
0.0
  0
SPLINE
  5
643
100
AcDbEntity
  8
ASSI
100
AcDbSpline
 62
253
  6
CONTINUOUS
 70
0
 71
3
 72
11
 73
7
 74
5
 42
0.0000001
 43
0.0000001
 44
0.0000000001
 12
0.0012232477
 22
-0.3641905854
 32
0.0
 13
0.3641914841
 23
-0.0009174691
 33
0.0
 40
0.0
 40
0.0
 40
0.0
 40
0.0
 40
0.2331615336
 40
0.476670328
 40
0.7338124407
 40
1.0
 40
1.0
 40
1.0
 40
1.0
 10
8.2630985787
 20
23.8443375673
 30
0.0
 10
8.2631936502
 20
23.8160324888
 30
0.0
 10
8.2771241227
 20
23.7574897042
 30
0.0
 10
8.3340554153
 20
23.6858275835
 30
0.0
 10
8.4167243359
 20
23.638830569
 30
0.0
 10
8.4807799338
 20
23.6279126226
 30
0.0
 10
8.5130943479
 20
23.6278312164
 30
0.0
 11
8.2630985787
 21
23.8443375673
 31
0.0
 11
8.2823370037
 21
23.7616298799
 31
0.0
 11
8.33657716
 21
23.6914666636
 31
0.0
 11
8.4175932809
 21
23.6444924903
 31
0.0
 11
8.5130943479
 21
23.6278312164
 31
0.0
  0
SPLINE
  5
644
100
AcDbEntity
  8
ASSI
100
AcDbSpline
 62
7
  6
CONTINUOUS
 70
0
 71
3
 72
11
 73
7
 74
5
 42
0.0000001
 43
0.0000001
 44
0.0000000001
 12
-0.0344320915
 22
0.0031074597
 32
0.0
 13
-0.0037620524
 23
0.0343667309
 33
0.0
 40
0.0
 40
0.0
 40
0.0
 40
0.0
 40
0.4199739578
 40
0.7275441048
 40
0.9191217964
 40
1.0
 40
1.0
 40
1.0
 40
1.0
 10
-10.60891534
 20
22.3279108386
 30
0.0
 10
-10.6137355339
 20
22.328345856
 30
0.0
 10
-10.6219565469
 20
22.3290602149
 30
0.0
 10
-10.6328994071
 20
22.33023061
 30
0.0
 10
-10.638749744
 20
22.3312534364
 30
0.0
 10
-10.6426178284
 20
22.3324844549
 30
0.0
 10
-10.6427192511
 20
22.3334109614
 30
0.0
 11
-10.60891534
 21
22.3279108386
 31
0.0
 11
-10.6233736105
 21
22.3292412515
 31
0.0
 11
-10.6339355634
 21
22.3304711844
 31
0.0
 11
-10.6404200498
 21
22.3318197414
 31
0.0
 11
-10.6427192511
 21
22.3334109614
 31
0.0
  0
SPLINE
  5
645
100
AcDbEntity
  8
ASSI
100
AcDbSpline
 62
7
  6
CONTINUOUS
 70
0
 71
3
 72
11
 73
7
 74
5
 42
0.0000001
 43
0.0000001
 44
0.0000000001
 12
-0.0037620524
 22
-0.0343667309
 32
0.0
 13
-0.0344320915
 23
-0.0031074597
 33
0.0
 40
0.0
 40
0.0
 40
0.0
 40
0.0
 40
0.0808782036
 40
0.2724558952
 40
0.5800260422
 40
1.0
 40
1.0
 40
1.0
 40
1.0
 10
10.6427192511
 20
22.3334109614
 30
0.0
 10
10.6426178284
 20
22.3324844549
 30
0.0
 10
10.638749744
 20
22.3312534364
 30
0.0
 10
10.6328994071
 20
22.33023061
 30
0.0
 10
10.6219565469
 20
22.3290602149
 30
0.0
 10
10.6137355339
 20
22.328345856
 30
0.0
 10
10.60891534
 20
22.3279108386
 30
0.0
 11
10.6427192511
 21
22.3334109614
 31
0.0
 11
10.6404200498
 21
22.3318197414
 31
0.0
 11
10.6339355634
 21
22.3304711844
 31
0.0
 11
10.6233736105
 21
22.3292412515
 31
0.0
 11
10.60891534
 21
22.3279108386
 31
0.0
  0
SPLINE
  5
646
100
AcDbEntity
  8
ASSI
100
AcDbSpline
 62
7
  6
CONTINUOUS
 70
0
 71
3
 72
13
 73
9
 74
7
 42
0.0000001
 43
0.0000001
 44
0.0000000001
 12
0.3138496531
 22
0.0
 32
0.0
 13
0.0031623521
 23
0.3138337207
 33
0.0
 40
0.0
 40
0.0
 40
0.0
 40
0.0
 40
0.3261057803
 40
0.6051570789
 40
0.7217182853
 40
0.8239738669
 40
0.9151204293
 40
1.0
 40
1.0
 40
1.0
 40
1.0
 10
10.3927234819
 20
23.1226497308
 30
0.0
 10
10.4268395439
 20
23.1226497308
 30
0.0
 10
10.4903492479
 20
23.1303408419
 30
0.0
 10
10.561912974
 20
23.1579773839
 30
0.0
 10
10.6041101906
 20
23.1890163738
 30
0.0
 10
10.6258990681
 20
23.2134187825
 30
0.0
 10
10.6393999875
 20
23.2396147938
 30
0.0
 10
10.6426297781
 20
23.2581079409
 30
0.0
 10
10.6427192511
 20
23.2669872981
 30
0.0
 11
10.3927234819
 21
23.1226497308
 31
0.0
 11
10.494270005
 21
23.1354346756
 31
0.0
 11
10.5751903604
 21
23.1689336209
 31
0.0
 11
10.6044247922
 21
23.1909254719
 31
0.0
 11
10.6255024657
 21
23.2151263924
 31
0.0
 11
10.6382802795
 21
23.2407203144
 31
0.0
 11
10.6427192511
 21
23.2669872981
 31
0.0
  0
SPLINE
  5
647
100
AcDbEntity
  8
ASSI
100
AcDbSpline
 62
253
  6
CONTINUOUS
 70
0
 71
3
 72
11
 73
7
 74
5
 42
0.0000001
 43
0.0000001
 44
0.0000000001
 12
-0.0012232477
 22
-0.3641905854
 32
0.0
 13
-0.3641914841
 23
-0.0009174691
 33
0.0
 40
0.0
 40
0.0
 40
0.0
 40
0.0
 40
0.2331615336
 40
0.476670328
 40
0.7338124407
 40
1.0
 40
1.0
 40
1.0
 40
1.0
 10
10.6369014213
 20
23.8443375673
 30
0.0
 10
10.6368063498
 20
23.8160324888
 30
0.0
 10
10.6228758773
 20
23.7574897042
 30
0.0
 10
10.5659445847
 20
23.6858275835
 30
0.0
 10
10.4832756641
 20
23.638830569
 30
0.0
 10
10.4192200662
 20
23.6279126226
 30
0.0
 10
10.3869056521
 20
23.6278312164
 30
0.0
 11
10.6369014213
 21
23.8443375673
 31
0.0
 11
10.6176629963
 21
23.7616298799
 31
0.0
 11
10.56342284
 21
23.6914666636
 31
0.0
 11
10.4824067191
 21
23.6444924903
 31
0.0
 11
10.3869056521
 21
23.6278312164
 31
0.0
  0
SPLINE
  5
648
100
AcDbEntity
  8
ASSI
100
AcDbSpline
 62
7
  6
CONTINUOUS
 70
0
 71
3
 72
11
 73
7
 74
5
 42
0.0000001
 43
0.0000001
 44
0.0000000001
 12
0.0037620524
 22
0.0343667309
 32
0.0
 13
0.0344320915
 23
0.0031074597
 33
0.0
 40
0.0
 40
0.0
 40
0.0
 40
0.0
 40
0.0808782036
 40
0.2724558952
 40
0.5800260422
 40
1.0
 40
1.0
 40
1.0
 40
1.0
 10
-10.6427192511
 20
-22.3334109614
 30
0.0
 10
-10.6426178284
 20
-22.3324844549
 30
0.0
 10
-10.638749744
 20
-22.3312534364
 30
0.0
 10
-10.6328994071
 20
-22.33023061
 30
0.0
 10
-10.6219565469
 20
-22.3290602149
 30
0.0
 10
-10.6137355339
 20
-22.328345856
 30
0.0
 10
-10.60891534
 20
-22.3279108386
 30
0.0
 11
-10.6427192511
 21
-22.3334109614
 31
0.0
 11
-10.6404200498
 21
-22.3318197414
 31
0.0
 11
-10.6339355634
 21
-22.3304711844
 31
0.0
 11
-10.6233736105
 21
-22.3292412515
 31
0.0
 11
-10.60891534
 21
-22.3279108386
 31
0.0
  0
SPLINE
  5
649
100
AcDbEntity
  8
ASSI
100
AcDbSpline
 62
253
  6
CONTINUOUS
 70
0
 71
3
 72
11
 73
7
 74
5
 42
0.0000001
 43
0.0000001
 44
0.0000000001
 12
0.0012232477
 22
0.3641905849
 32
0.0
 13
0.3641914835
 23
0.0009174691
 33
0.0
 40
0.0
 40
0.0
 40
0.0
 40
0.0
 40
0.2331616734
 40
0.4766704348
 40
0.7338124928
 40
1.0
 40
1.0
 40
1.0
 40
1.0
 10
-10.6369014213
 20
-23.8443375673
 30
0.0
 10
-10.6368063498
 20
-23.8160324719
 30
0.0
 10
-10.6228758633
 20
-23.757489674
 30
0.0
 10
-10.5659445543
 20
-23.6858275607
 30
0.0
 10
-10.4832756443
 20
-23.6388305642
 30
0.0
 10
-10.4192200598
 20
-23.6279126226
 30
0.0
 10
-10.3869056521
 20
-23.6278312164
 30
0.0
 11
-10.6369014213
 21
-23.8443375673
 31
0.0
 11
-10.6176629728
 21
-23.7616298332
 31
0.0
 11
-10.5634228098
 21
-23.6914666374
 31
0.0
 11
-10.4824067009
 21
-23.6444924834
 31
0.0
 11
-10.3869056521
 21
-23.6278312164
 31
0.0
  0
SPLINE
  5
64A
100
AcDbEntity
  8
ASSI
100
AcDbSpline
 62
7
  6
CONTINUOUS
 70
0
 71
3
 72
13
 73
9
 74
7
 42
0.0000001
 43
0.0000001
 44
0.0000000001
 12
0.0031696367
 22
0.3145566487
 32
0.0
 13
0.3145726178
 23
0.0
 33
0.0
 40
0.0
 40
0.0
 40
0.0
 40
0.0
 40
0.0848322853
 40
0.1759482271
 40
0.2781995767
 40
0.3947846151
 40
0.6739262862
 40
1.0
 40
1.0
 40
1.0
 40
1.0
 10
-10.6427192511
 20
-23.2669872981
 30
0.0
 10
-10.6426296219
 20
-23.258092445
 30
0.0
 10
-10.6393881504
 20
-23.2395646609
 30
0.0
 10
-10.6258395915
 20
-23.2133256907
 30
0.0
 10
-10.6039758939
 20
-23.1888896337
 30
0.0
 10
-10.5616358337
 20
-23.1578237628
 30
0.0
 10
-10.4898624508
 20
-23.1301860757
 30
0.0
 10
-10.4261875404
 20
-23.1226497308
 30
0.0
 10
-10.3919962532
 20
-23.1226497308
 30
0.0
 11
-10.6427192511
 21
-23.2669872981
 31
0.0
 11
-10.6382655033
 21
-23.240675663
 31
0.0
 11
-10.6254442915
 21
-23.2150405302
 31
0.0
 11
-10.6042949252
 21
-23.1908058016
 31
0.0
 11
-10.5749620071
 21
-23.1687922607
 31
0.0
 11
-10.49378586
 21
-23.1353096304
 31
0.0
 11
-10.3919962532
 21
-23.1226497308
 31
0.0
  0
SPLINE
  5
64B
100
AcDbEntity
  8
ASSI
100
AcDbSpline
 62
253
  6
CONTINUOUS
 70
0
 71
3
 72
11
 73
7
 74
5
 42
0.0000001
 43
0.0000001
 44
0.0000000001
 12
0.0012232477
 22
-0.3641905854
 32
0.0
 13
0.3641914841
 23
-0.0009174691
 33
0.0
 40
0.0
 40
0.0
 40
0.0
 40
0.0
 40
0.2331615336
 40
0.476670328
 40
0.7338124407
 40
1.0
 40
1.0
 40
1.0
 40
1.0
 10
-10.6369014213
 20
23.8443375673
 30
0.0
 10
-10.6368063498
 20
23.8160324888
 30
0.0
 10
-10.6228758773
 20
23.7574897042
 30
0.0
 10
-10.5659445847
 20
23.6858275835
 30
0.0
 10
-10.4832756641
 20
23.638830569
 30
0.0
 10
-10.4192200662
 20
23.6279126226
 30
0.0
 10
-10.3869056521
 20
23.6278312164
 30
0.0
 11
-10.6369014213
 21
23.8443375673
 31
0.0
 11
-10.6176629963
 21
23.7616298799
 31
0.0
 11
-10.56342284
 21
23.6914666636
 31
0.0
 11
-10.4824067191
 21
23.6444924903
 31
0.0
 11
-10.3869056521
 21
23.6278312164
 31
0.0
  0
SPLINE
  5
64C
100
AcDbEntity
  8
ASSI
100
AcDbSpline
 62
253
  6
CONTINUOUS
 70
0
 71
3
 72
18
 73
14
 74
12
 42
0.0000001
 43
0.0000001
 44
0.0000000001
 12
-0.3025846357
 22
-0.9088439381
 32
0.0
 13
-0.0006884978
 23
-0.9578905425
 33
0.0
 40
0.0
 40
0.0
 40
0.0
 40
0.0
 40
0.0096237129
 40
0.0279749146
 40
0.0549436913
 40
0.0903134005
 40
0.1337885091
 40
0.1850017678
 40
0.3088431907
 40
0.4576378614
 40
0.6263315906
 40
0.8091903247
 40
1.0
 40
1.0
 40
1.0
 40
1.0
 10
10.9991998097
 20
21.4994104546
 30
0.0
 10
10.9982291472
 20
21.4964949702
 30
0.0
 10
10.9972905991
 20
21.4875182888
 30
0.0
 10
10.9956679589
 20
21.4701144247
 30
0.0
 10
10.9942891611
 20
21.444351182
 30
0.0
 10
10.9928024668
 20
21.4106117267
 30
0.0
 10
10.9914100112
 20
21.3691021784
 30
0.0
 10
10.9894934146
 20
21.2993546925
 30
0.0
 10
10.9874375653
 20
21.1959682889
 30
0.0
 10
10.9854685335
 20
21.0550669484
 30
0.0
 10
10.9839692288
 20
20.8953139758
 30
0.0
 10
10.982991576
 20
20.7221419119
 30
0.0
 10
10.9827168298
 20
20.6028307843
 30
0.0
 10
10.9826730391
 20
20.5419058565
 30
0.0
 11
10.9991998097
 21
21.4994104546
 31
0.0
 11
10.9975967016
 21
21.4903324505
 31
0.0
 11
10.9960149379
 21
21.472825314
 31
0.0
 11
10.9944681528
 21
21.4470385204
 31
0.0
 11
10.9929694027
 21
21.4131913678
 31
0.0
 11
10.9915315037
 21
21.371571793
 31
0.0
 11
10.9901666855
 21
21.3225340733
 31
0.0
 11
10.987702099
 21
21.2039331198
 31
0.0
 11
10.9856594799
 21
21.0614187125
 31
0.0
 11
10.9841083226
 21
20.8998359882
 31
0.0
 11
10.9831014158
 21
20.7246801851
 31
0.0
 11
10.9826730391
 21
20.5419058565
 31
0.0
  0
SPLINE
  5
64D
100
AcDbEntity
  8
ASSI
100
AcDbSpline
 62
253
  6
CONTINUOUS
 70
0
 71
3
 72
18
 73
14
 74
12
 42
0.0000001
 43
0.0000001
 44
0.0000000001
 12
-0.3113092249
 22
-1.4023770688
 32
0.0
 13
-0.000688375
 23
-1.436514672
 33
0.0
 40
0.0
 40
0.0
 40
0.0
 40
0.0
 40
0.0095452848
 40
0.0278604548
 40
0.0548101737
 40
0.0901708345
 40
0.1336436267
 40
0.1848596881
 40
0.3087176267
 40
0.4575381716
 40
0.6262630185
 40
0.8091554605
 40
1.0
 40
1.0
 40
1.0
 40
1.0
 10
10.4992759622
 20
21.998725222
 30
0.0
 10
10.4982854504
 20
21.9942631925
 30
0.0
 10
10.4973792354
 20
21.9808866014
 30
0.0
 10
10.4957354628
 20
21.9547391304
 30
0.0
 10
10.4943681332
 20
21.916130684
 30
0.0
 10
10.4928770521
 20
21.8655096003
 30
0.0
 10
10.4914862802
 20
21.8032483017
 30
0.0
 10
10.4895689145
 20
21.6986188236
 30
0.0
 10
10.4875135886
 20
21.5435374221
 30
0.0
 10
10.4855444583
 20
21.3321859266
 30
0.0
 10
10.4840453054
 20
21.0925613435
 30
0.0
 10
10.4830676934
 20
20.8328115269
 30
0.0
 10
10.4827929824
 20
20.6538519852
 30
0.0
 10
10.4827491915
 20
20.5624683248
 30
0.0
 11
10.4992759622
 21
21.998725222
 31
0.0
 11
10.4976727885
 21
21.9851073212
 31
0.0
 11
10.4960909865
 21
21.958844901
 31
0.0
 11
10.4945441498
 21
21.9201621449
 31
0.0
 11
10.4930453483
 21
21.8693881478
 31
0.0
 11
10.4916074275
 21
21.8069553934
 31
0.0
 11
10.4902425917
 21
21.7333954219
 31
0.0
 11
10.4877780196
 21
21.5554887257
 31
0.0
 11
10.4857354577
 21
21.3417155628
 31
0.0
 11
10.4841843771
 21
21.0993447799
 31
0.0
 11
10.4831775339
 21
20.8366190028
 31
0.0
 11
10.4827491915
 21
20.5624683248
 31
0.0
  0
SPLINE
  5
64E
100
AcDbEntity
  8
ASSI
100
AcDbSpline
 62
253
  6
CONTINUOUS
 70
0
 71
3
 72
9
 73
5
 74
3
 42
0.0000001
 43
0.0000001
 44
0.0000000001
 12
-0.029516496
 22
-41.0838030965
 32
0.0
 13
0.0295164958
 23
-41.0838030965
 33
0.0
 40
0.0
 40
0.0
 40
0.0
 40
0.0
 40
0.2499471355
 40
1.0
 40
1.0
 40
1.0
 40
1.0
 10
10.9826730391
 20
20.5419058565
 30
0.0
 10
10.9802138512
 20
17.1189795567
 30
0.0
 10
10.9728388852
 20
3.4243768659
 30
0.0
 10
10.975293395
 20
-10.2702311241
 30
0.0
 10
10.9826730391
 20
-20.5419058565
 30
0.0
 11
10.9826730391
 21
20.5419058565
 31
0.0
 11
10.9771412304
 21
10.2731257968
 31
0.0
 11
10.9826730391
 21
-20.5419058565
 31
0.0
  0
SPLINE
  5
64F
100
AcDbEntity
  8
ASSI
100
AcDbSpline
 62
253
  6
CONTINUOUS
 70
0
 71
3
 72
9
 73
5
 74
3
 42
0.0000001
 43
0.0000001
 44
0.0000000001
 12
-0.029516496
 22
-41.1249280418
 32
0.0
 13
0.0295164958
 23
-41.1249280418
 33
0.0
 40
0.0
 40
0.0
 40
0.0
 40
0.0
 40
0.2499471355
 40
1.0
 40
1.0
 40
1.0
 40
1.0
 10
10.4827491915
 20
20.5624683248
 30
0.0
 10
10.4802900036
 20
17.1361156711
 30
0.0
 10
10.4729150376
 20
3.4278046669
 30
0.0
 10
10.4753695474
 20
-10.2805116313
 30
0.0
 10
10.4827491915
 20
-20.5624683248
 30
0.0
 11
10.4827491915
 21
20.5624683248
 31
0.0
 11
10.4772173828
 21
10.2834092047
 31
0.0
 11
10.4827491915
 21
-20.5624683248
 31
0.0
  0
SPLINE
  5
650
100
AcDbEntity
  8
ASSI
100
AcDbSpline
 62
253
  6
CONTINUOUS
 70
0
 71
3
 72
18
 73
14
 74
12
 42
0.0000001
 43
0.0000001
 44
0.0000000001
 12
-0.1956599336
 22
0.4615146918
 32
0.0
 13
-0.5012768608
 23
0.0003595314
 33
0.0
 40
0.0
 40
0.0
 40
0.0
 40
0.0
 40
0.0075200665
 40
0.0237217132
 40
0.048918266
 40
0.0829756653
 40
0.1256095322
 40
0.1764362555
 40
0.3007244227
 40
0.4512198616
 40
0.6222956487
 40
0.8075324042
 40
1.0
 40
1.0
 40
1.0
 40
1.0
 10
10.9826730391
 20
20.5419058565
 30
0.0
 10
10.9821825805
 20
20.5430627302
 30
0.0
 10
10.9777858116
 20
20.5444623569
 30
0.0
 10
10.9703306428
 20
20.546300989
 30
0.0
 10
10.957573334
 20
20.5480806051
 30
0.0
 10
10.9407591118
 20
20.5499103978
 30
0.0
 10
10.919480271
 20
20.5516665154
 30
0.0
 10
10.8831945711
 20
20.554080112
 30
0.0
 10
10.8288328752
 20
20.556664646
 30
0.0
 10
10.7543773684
 20
20.55912457
 30
0.0
 10
10.6697107201
 20
20.5609778096
 30
0.0
 10
10.5780207887
 20
20.5621520282
 30
0.0
 10
10.5149090423
 20
20.5624452588
 30
0.0
 10
10.4827491915
 20
20.5624683248
 30
0.0
 11
10.9826730391
 21
20.5419058565
 31
0.0
 11
10.9794734688
 21
20.543899072
 31
0.0
 11
10.9715957724
 21
20.5458741331
 31
0.0
 11
10.9591147652
 21
20.5478113432
 31
0.0
 11
10.9421465922
 21
20.5496930427
 31
0.0
 11
10.9208518632
 21
20.5515014257
 31
0.0
 11
10.8954315843
 21
20.5532194191
 31
0.0
 11
10.8332060143
 21
20.5563205666
 31
0.0
 11
10.7578095421
 21
20.558879979
 31
0.0
 11
10.6720747151
 21
20.5608014234
 31
0.0
 11
10.5792276927
 21
20.5620127035
 31
0.0
 11
10.4827491915
 21
20.5624683248
 31
0.0
  0
SPLINE
  5
651
100
AcDbEntity
  8
ASSI
100
AcDbSpline
 62
253
  6
CONTINUOUS
 70
0
 71
3
 72
18
 73
14
 74
12
 42
0.0000001
 43
0.0000001
 44
0.0000000001
 12
0.0006885321
 22
-0.9578905426
 32
0.0
 13
0.3025953061
 23
-0.9088403855
 33
0.0
 40
0.0
 40
0.0
 40
0.0
 40
0.0
 40
0.1908096496
 40
0.3736683928
 40
0.5423621255
 40
0.6911568033
 40
0.8149982357
 40
0.8662115054
 40
0.9096866078
 40
0.9450563378
 40
0.9720251145
 40
0.9903762804
 40
1.0
 40
1.0
 40
1.0
 40
1.0
 10
10.9826730391
 20
-20.5419058565
 30
0.0
 10
10.982716832
 20
-20.6028307761
 30
0.0
 10
10.982991576
 20
-20.7221418984
 30
0.0
 10
10.983969229
 20
-20.8953139581
 30
0.0
 10
10.9854685336
 20
-21.055066937
 30
0.0
 10
10.9874375653
 20
-21.1959682839
 30
0.0
 10
10.9894934142
 20
-21.2993546966
 30
0.0
 10
10.9914100113
 20
-21.3691021866
 30
0.0
 10
10.9928024645
 20
-21.4106117442
 30
0.0
 10
10.9942891677
 20
-21.4443512011
 30
0.0
 10
10.9956679397
 20
-21.4701144467
 30
0.0
 10
10.9972906326
 20
-21.4875182855
 30
0.0
 10
10.9982291123
 20
-21.4964949796
 30
0.0
 10
10.9991998097
 20
-21.4994104546
 30
0.0
 11
10.9826730391
 21
-20.5419058565
 31
0.0
 11
10.9831014163
 21
-20.7246801605
 31
0.0
 11
10.9841083227
 21
-20.8998359723
 31
0.0
 11
10.9856594799
 21
-21.0614187
 31
0.0
 11
10.9877020989
 21
-21.2039331141
 31
0.0
 11
10.9901666853
 21
-21.3225340767
 31
0.0
 11
10.9915315034
 21
-21.371571807
 31
0.0
 11
10.9929694024
 21
-21.4131913758
 31
0.0
 11
10.9944681525
 21
-21.4470385484
 31
0.0
 11
10.9960149375
 21
-21.472825342
 31
0.0
 11
10.9975967015
 21
-21.490332444
 31
0.0
 11
10.9991998097
 21
-21.4994104546
 31
0.0
  0
SPLINE
  5
652
100
AcDbEntity
  8
ASSI
100
AcDbSpline
 62
253
  6
CONTINUOUS
 70
0
 71
3
 72
18
 73
14
 74
12
 42
0.0000001
 43
0.0000001
 44
0.0000000001
 12
0.0006884879
 22
-1.4365146726
 32
0.0
 13
0.3113020277
 23
-1.4023786672
 33
0.0
 40
0.0
 40
0.0
 40
0.0
 40
0.0
 40
0.1908445392
 40
0.373736981
 40
0.5424618279
 40
0.6912823728
 40
0.8151403113
 40
0.8663563728
 40
0.9098291645
 40
0.945189827
 40
0.9721395415
 40
0.9904547201
 40
1.0
 40
1.0
 40
1.0
 40
1.0
 10
10.4827491915
 20
-20.5624683248
 30
0.0
 10
10.4827929896
 20
-20.6538519851
 30
0.0
 10
10.4830676909
 20
-20.8328115266
 30
0.0
 10
10.484045303
 20
-21.0925613432
 30
0.0
 10
10.485544453
 20
-21.3321859263
 30
0.0
 10
10.4875135807
 20
-21.5435374219
 30
0.0
 10
10.4895689049
 20
-21.6986188234
 30
0.0
 10
10.4914862729
 20
-21.8032483015
 30
0.0
 10
10.4928770434
 20
-21.8655096003
 30
0.0
 10
10.4943681248
 20
-21.9161306836
 30
0.0
 10
10.495735465
 20
-21.9547391297
 30
0.0
 10
10.4973792067
 20
-21.9808866076
 30
0.0
 10
10.4982854738
 20
-21.9942631897
 30
0.0
 10
10.4992759622
 20
-21.998725222
 30
0.0
 11
10.4827491915
 21
-20.5624683248
 31
0.0
 11
10.4831775337
 21
-20.8366190025
 31
0.0
 11
10.4841843741
 21
-21.0993447796
 31
0.0
 11
10.4857354522
 21
-21.3417155625
 31
0.0
 11
10.4877780116
 21
-21.5554887254
 31
0.0
 11
10.4902425831
 21
-21.7333954216
 31
0.0
 11
10.4916074197
 21
-21.8069553934
 31
0.0
 11
10.4930453398
 21
-21.8693881471
 31
0.0
 11
10.4945441441
 21
-21.9201621466
 31
0.0
 11
10.4960909784
 21
-21.9588448965
 31
0.0
 11
10.4976727845
 21
-21.9851073288
 31
0.0
 11
10.4992759622
 21
-21.998725222
 31
0.0
  0
SPLINE
  5
653
100
AcDbEntity
  8
ASSI
100
AcDbSpline
 62
253
  6
CONTINUOUS
 70
0
 71
3
 72
18
 73
14
 74
12
 42
0.0000001
 43
0.0000001
 44
0.0000000001
 12
-0.1956641887
 22
-0.4615128824
 32
0.0
 13
-0.5012768558
 23
-0.0003595302
 33
0.0
 40
0.0
 40
0.0
 40
0.0
 40
0.0
 40
0.0075201004
 40
0.0237217815
 40
0.0489183646
 40
0.0829757888
 40
0.1256096751
 40
0.1764364118
 40
0.3007245877
 40
0.4512200114
 40
0.6222957622
 40
0.8075324653
 40
1.0
 40
1.0
 40
1.0
 40
1.0
 10
10.9826730391
 20
-20.5419058565
 30
0.0
 10
10.9821825677
 20
-20.5430627309
 30
0.0
 10
10.9777857956
 20
-20.5444623523
 30
0.0
 10
10.970330602
 20
-20.5463009881
 30
0.0
 10
10.9575732826
 20
-20.5480806019
 30
0.0
 10
10.9407590461
 20
-20.5499103948
 30
0.0
 10
10.9194801964
 20
-20.5516665113
 30
0.0
 10
10.8831944896
 20
-20.5540801066
 30
0.0
 10
10.8288327932
 20
-20.556664639
 30
0.0
 10
10.7543772942
 20
-20.5591245614
 30
0.0
 10
10.6697106641
 20
-20.5609777997
 30
0.0
 10
10.5780207586
 20
-20.5621520173
 30
0.0
 10
10.5149090317
 20
-20.5624452475
 30
0.0
 10
10.4827491915
 20
-20.5624683135
 30
0.0
 11
10.9826730391
 21
-20.5419058565
 31
0.0
 11
10.9794734485
 21
-20.5438990714
 31
0.0
 11
10.9715957342
 21
-20.5458741318
 31
0.0
 11
10.9591147117
 21
-20.5478113411
 31
0.0
 11
10.9421465261
 21
-20.5496930397
 31
0.0
 11
10.9208517875
 21
-20.5515014219
 31
0.0
 11
10.895431502
 21
-20.5532194143
 31
0.0
 11
10.8332059282
 21
-20.55632056
 31
0.0
 11
10.7578094644
 21
-20.5588799707
 31
0.0
 11
10.6720746563
 21
-20.5608014136
 31
0.0
 11
10.5792276611
 21
-20.5620126927
 31
0.0
 11
10.4827491915
 21
-20.5624683135
 31
0.0
  0
SPLINE
  5
654
100
AcDbEntity
  8
ASSI
100
AcDbSpline
 62
253
  6
CONTINUOUS
 70
0
 71
3
 72
18
 73
14
 74
12
 42
0.0000001
 43
0.0000001
 44
0.0000000001
 12
-0.0006884978
 22
0.9578905425
 32
0.0
 13
-0.3025846385
 23
0.9088439371
 33
0.0
 40
0.0
 40
0.0
 40
0.0
 40
0.0
 40
0.1908096753
 40
0.3736684094
 40
0.5423621386
 40
0.6911568093
 40
0.8149982322
 40
0.8662114909
 40
0.9096865995
 40
0.9450563087
 40
0.9720250854
 40
0.9903762871
 40
1.0
 40
1.0
 40
1.0
 40
1.0
 10
-10.9826730391
 20
20.5419058565
 30
0.0
 10
-10.9827168298
 20
20.6028307843
 30
0.0
 10
-10.982991576
 20
20.7221419119
 30
0.0
 10
-10.9839692288
 20
20.8953139758
 30
0.0
 10
-10.9854685335
 20
21.0550669484
 30
0.0
 10
-10.9874375653
 20
21.1959682889
 30
0.0
 10
-10.9894934146
 20
21.2993546925
 30
0.0
 10
-10.9914100112
 20
21.3691021784
 30
0.0
 10
-10.9928024668
 20
21.4106117267
 30
0.0
 10
-10.9942891611
 20
21.444351182
 30
0.0
 10
-10.9956679589
 20
21.4701144247
 30
0.0
 10
-10.9972905991
 20
21.4875182888
 30
0.0
 10
-10.9982291472
 20
21.4964949702
 30
0.0
 10
-10.9991998097
 20
21.4994104546
 30
0.0
 11
-10.9826730391
 21
20.5419058565
 31
0.0
 11
-10.9831014158
 21
20.7246801851
 31
0.0
 11
-10.9841083226
 21
20.8998359882
 31
0.0
 11
-10.9856594799
 21
21.0614187125
 31
0.0
 11
-10.987702099
 21
21.2039331198
 31
0.0
 11
-10.9901666855
 21
21.3225340733
 31
0.0
 11
-10.9915315037
 21
21.371571793
 31
0.0
 11
-10.9929694027
 21
21.4131913678
 31
0.0
 11
-10.9944681528
 21
21.4470385204
 31
0.0
 11
-10.9960149379
 21
21.472825314
 31
0.0
 11
-10.9975967016
 21
21.4903324505
 31
0.0
 11
-10.9991998097
 21
21.4994104546
 31
0.0
  0
SPLINE
  5
655
100
AcDbEntity
  8
ASSI
100
AcDbSpline
 62
253
  6
CONTINUOUS
 70
0
 71
3
 72
18
 73
14
 74
12
 42
0.0000001
 43
0.0000001
 44
0.0000000001
 12
-0.000688375
 22
1.436514672
 32
0.0
 13
-0.3113092239
 23
1.4023770691
 33
0.0
 40
0.0
 40
0.0
 40
0.0
 40
0.0
 40
0.1908445395
 40
0.3737369815
 40
0.5424618284
 40
0.6912823733
 40
0.8151403119
 40
0.8663563733
 40
0.9098291655
 40
0.9451898263
 40
0.9721395452
 40
0.9904547152
 40
1.0
 40
1.0
 40
1.0
 40
1.0
 10
-10.4827491915
 20
20.5624683248
 30
0.0
 10
-10.4827929824
 20
20.6538519852
 30
0.0
 10
-10.4830676934
 20
20.8328115269
 30
0.0
 10
-10.4840453054
 20
21.0925613435
 30
0.0
 10
-10.4855444583
 20
21.3321859266
 30
0.0
 10
-10.4875135886
 20
21.5435374221
 30
0.0
 10
-10.4895689145
 20
21.6986188236
 30
0.0
 10
-10.4914862802
 20
21.8032483017
 30
0.0
 10
-10.4928770521
 20
21.8655096003
 30
0.0
 10
-10.4943681332
 20
21.916130684
 30
0.0
 10
-10.4957354628
 20
21.9547391304
 30
0.0
 10
-10.4973792354
 20
21.9808866014
 30
0.0
 10
-10.4982854504
 20
21.9942631925
 30
0.0
 10
-10.4992759622
 20
21.998725222
 30
0.0
 11
-10.4827491915
 21
20.5624683248
 31
0.0
 11
-10.4831775339
 21
20.8366190028
 31
0.0
 11
-10.4841843771
 21
21.0993447799
 31
0.0
 11
-10.4857354577
 21
21.3417155628
 31
0.0
 11
-10.4877780196
 21
21.5554887257
 31
0.0
 11
-10.4902425917
 21
21.7333954219
 31
0.0
 11
-10.4916074275
 21
21.8069553934
 31
0.0
 11
-10.4930453483
 21
21.8693881478
 31
0.0
 11
-10.4945441498
 21
21.9201621449
 31
0.0
 11
-10.4960909865
 21
21.958844901
 31
0.0
 11
-10.4976727885
 21
21.9851073212
 31
0.0
 11
-10.4992759622
 21
21.998725222
 31
0.0
  0
SPLINE
  5
656
100
AcDbEntity
  8
ASSI
100
AcDbSpline
 62
253
  6
CONTINUOUS
 70
0
 71
3
 72
18
 73
14
 74
12
 42
0.0000001
 43
0.0000001
 44
0.0000000001
 12
0.1956626048
 22
0.4615135561
 32
0.0
 13
0.5012768577
 23
0.0003595304
 33
0.0
 40
0.0
 40
0.0
 40
0.0
 40
0.0
 40
0.0075200878
 40
0.0237217559
 40
0.0489183274
 40
0.082975742
 40
0.1256096206
 40
0.1764363518
 40
0.3007245237
 40
0.4512199527
 40
0.6222957174
 40
0.8075324411
 40
1.0
 40
1.0
 40
1.0
 40
1.0
 10
-10.9826730391
 20
20.5419058565
 30
0.0
 10
-10.9821825724
 20
20.5430627306
 30
0.0
 10
-10.9777858017
 20
20.5444623541
 30
0.0
 10
-10.9703306173
 20
20.5463009885
 30
0.0
 10
-10.957573302
 20
20.5480806032
 30
0.0
 10
-10.9407590711
 20
20.549910396
 30
0.0
 10
-10.9194802249
 20
20.551666513
 30
0.0
 10
-10.8831945209
 20
20.5540801088
 30
0.0
 10
-10.828832825
 20
20.5566646419
 30
0.0
 10
-10.7543773231
 20
20.5591245649
 30
0.0
 10
-10.6697106861
 20
20.5609778038
 30
0.0
 10
-10.5780207705
 20
20.5621520217
 30
0.0
 10
-10.5149090359
 20
20.5624452521
 30
0.0
 10
-10.4827491915
 20
20.562468318
 30
0.0
 11
-10.9826730391
 21
20.5419058565
 31
0.0
 11
-10.9794734561
 21
20.5438990717
 31
0.0
 11
-10.9715957485
 21
20.5458741324
 31
0.0
 11
-10.9591147319
 21
20.547811342
 31
0.0
 11
-10.9421465512
 21
20.549693041
 31
0.0
 11
-10.9208518164
 21
20.5515014235
 31
0.0
 11
-10.8954315336
 21
20.5532194163
 31
0.0
 11
-10.8332059616
 21
20.5563205627
 31
0.0
 11
-10.7578094948
 21
20.5588799741
 31
0.0
 11
-10.6720746795
 21
20.5608014176
 31
0.0
 11
-10.5792276736
 21
20.5620126971
 31
0.0
 11
-10.4827491915
 21
20.562468318
 31
0.0
  0
SPLINE
  5
657
100
AcDbEntity
  8
ASSI
100
AcDbSpline
 62
253
  6
CONTINUOUS
 70
0
 71
3
 72
9
 73
5
 74
3
 42
0.0000001
 43
0.0000001
 44
0.0000000001
 12
0.0295164958
 22
41.0838030965
 32
0.0
 13
-0.029516496
 23
41.0838030965
 33
0.0
 40
0.0
 40
0.0
 40
0.0
 40
0.0
 40
0.2499471355
 40
1.0
 40
1.0
 40
1.0
 40
1.0
 10
-10.9826730391
 20
-20.5419058565
 30
0.0
 10
-10.9802138512
 20
-17.1189795567
 30
0.0
 10
-10.9728388852
 20
-3.4243768659
 30
0.0
 10
-10.975293395
 20
10.2702311241
 30
0.0
 10
-10.9826730391
 20
20.5419058565
 30
0.0
 11
-10.9826730391
 21
-20.5419058565
 31
0.0
 11
-10.9771412304
 21
-10.2731257968
 31
0.0
 11
-10.9826730391
 21
20.5419058565
 31
0.0
  0
SPLINE
  5
658
100
AcDbEntity
  8
ASSI
100
AcDbSpline
 62
253
  6
CONTINUOUS
 70
0
 71
3
 72
9
 73
5
 74
3
 42
0.0000001
 43
0.0000001
 44
0.0000000001
 12
0.0295164958
 22
41.1249280418
 32
0.0
 13
-0.029516496
 23
41.1249280418
 33
0.0
 40
0.0
 40
0.0
 40
0.0
 40
0.0
 40
0.2499471355
 40
1.0
 40
1.0
 40
1.0
 40
1.0
 10
-10.4827491915
 20
-20.5624683248
 30
0.0
 10
-10.4802900037
 20
-17.1361156711
 30
0.0
 10
-10.4729150376
 20
-3.4278046669
 30
0.0
 10
-10.4753695474
 20
10.2805116313
 30
0.0
 10
-10.4827491915
 20
20.5624683248
 30
0.0
 11
-10.4827491915
 21
-20.5624683248
 31
0.0
 11
-10.4772173828
 21
-10.2834092047
 31
0.0
 11
-10.4827491915
 21
20.5624683248
 31
0.0
  0
SPLINE
  5
659
100
AcDbEntity
  8
ASSI
100
AcDbSpline
 62
253
  6
CONTINUOUS
 70
0
 71
3
 72
18
 73
14
 74
12
 42
0.0000001
 43
0.0000001
 44
0.0000000001
 12
0.1956599349
 22
-0.4615146913
 32
0.0
 13
0.5012768608
 23
-0.0003595314
 33
0.0
 40
0.0
 40
0.0
 40
0.0
 40
0.0
 40
0.0075200666
 40
0.0237217132
 40
0.0489182661
 40
0.0829756653
 40
0.1256095323
 40
0.1764362555
 40
0.3007244227
 40
0.4512198616
 40
0.6222956487
 40
0.8075324042
 40
1.0
 40
1.0
 40
1.0
 40
1.0
 10
-10.9826730391
 20
-20.5419058565
 30
0.0
 10
-10.9821825805
 20
-20.5430627302
 30
0.0
 10
-10.9777858116
 20
-20.5444623569
 30
0.0
 10
-10.9703306428
 20
-20.546300989
 30
0.0
 10
-10.9575733339
 20
-20.5480806051
 30
0.0
 10
-10.9407591118
 20
-20.5499103978
 30
0.0
 10
-10.9194802709
 20
-20.5516665154
 30
0.0
 10
-10.8831945711
 20
-20.554080112
 30
0.0
 10
-10.8288328752
 20
-20.556664646
 30
0.0
 10
-10.7543773684
 20
-20.55912457
 30
0.0
 10
-10.6697107201
 20
-20.5609778096
 30
0.0
 10
-10.5780207887
 20
-20.5621520282
 30
0.0
 10
-10.5149090423
 20
-20.5624452588
 30
0.0
 10
-10.4827491915
 20
-20.5624683248
 30
0.0
 11
-10.9826730391
 21
-20.5419058565
 31
0.0
 11
-10.9794734688
 21
-20.543899072
 31
0.0
 11
-10.9715957724
 21
-20.5458741331
 31
0.0
 11
-10.9591147652
 21
-20.5478113432
 31
0.0
 11
-10.9421465921
 21
-20.5496930427
 31
0.0
 11
-10.9208518631
 21
-20.5515014257
 31
0.0
 11
-10.8954315842
 21
-20.5532194191
 31
0.0
 11
-10.8332060142
 21
-20.5563205665
 31
0.0
 11
-10.7578095421
 21
-20.558879979
 31
0.0
 11
-10.6720747151
 21
-20.5608014234
 31
0.0
 11
-10.5792276927
 21
-20.5620127035
 31
0.0
 11
-10.4827491915
 21
-20.5624683248
 31
0.0
  0
SPLINE
  5
65A
100
AcDbEntity
  8
ASSI
100
AcDbSpline
 62
253
  6
CONTINUOUS
 70
0
 71
3
 72
18
 73
14
 74
12
 42
0.0000001
 43
0.0000001
 44
0.0000000001
 12
0.3025953021
 22
0.9088403868
 32
0.0
 13
0.0006885321
 23
0.9578905426
 33
0.0
 40
0.0
 40
0.0
 40
0.0
 40
0.0
 40
0.0096237196
 40
0.0279748855
 40
0.0549436622
 40
0.0903133922
 40
0.1337884946
 40
0.1850017643
 40
0.3088431967
 40
0.4576378745
 40
0.6263316072
 40
0.8091903504
 40
1.0
 40
1.0
 40
1.0
 40
1.0
 10
-10.9991998097
 20
-21.4994104546
 30
0.0
 10
-10.9982291123
 20
-21.4964949796
 30
0.0
 10
-10.9972906325
 20
-21.4875182855
 30
0.0
 10
-10.9956679397
 20
-21.4701144467
 30
0.0
 10
-10.9942891677
 20
-21.4443512011
 30
0.0
 10
-10.9928024645
 20
-21.4106117442
 30
0.0
 10
-10.9914100113
 20
-21.3691021866
 30
0.0
 10
-10.9894934142
 20
-21.2993546966
 30
0.0
 10
-10.9874375653
 20
-21.1959682839
 30
0.0
 10
-10.9854685336
 20
-21.055066937
 30
0.0
 10
-10.983969229
 20
-20.8953139581
 30
0.0
 10
-10.982991576
 20
-20.7221418984
 30
0.0
 10
-10.982716832
 20
-20.6028307761
 30
0.0
 10
-10.9826730391
 20
-20.5419058565
 30
0.0
 11
-10.9991998097
 21
-21.4994104546
 31
0.0
 11
-10.9975967015
 21
-21.490332444
 31
0.0
 11
-10.9960149375
 21
-21.472825342
 31
0.0
 11
-10.9944681525
 21
-21.4470385484
 31
0.0
 11
-10.9929694024
 21
-21.4131913758
 31
0.0
 11
-10.9915315034
 21
-21.371571807
 31
0.0
 11
-10.9901666853
 21
-21.3225340767
 31
0.0
 11
-10.9877020989
 21
-21.2039331141
 31
0.0
 11
-10.9856594799
 21
-21.0614187
 31
0.0
 11
-10.9841083227
 21
-20.8998359723
 31
0.0
 11
-10.9831014163
 21
-20.7246801605
 31
0.0
 11
-10.9826730391
 21
-20.5419058565
 31
0.0
  0
SPLINE
  5
65B
100
AcDbEntity
  8
ASSI
100
AcDbSpline
 62
253
  6
CONTINUOUS
 70
0
 71
3
 72
18
 73
14
 74
12
 42
0.0000001
 43
0.0000001
 44
0.0000000001
 12
0.3113020286
 22
1.402378667
 32
0.0
 13
0.0006884879
 23
1.4365146726
 33
0.0
 40
0.0
 40
0.0
 40
0.0
 40
0.0
 40
0.0095452799
 40
0.0278604585
 40
0.054810173
 40
0.0901708355
 40
0.1336436272
 40
0.1848596887
 40
0.3087176272
 40
0.4575381721
 40
0.626263019
 40
0.8091554608
 40
1.0
 40
1.0
 40
1.0
 40
1.0
 10
-10.4992759622
 20
-21.998725222
 30
0.0
 10
-10.4982854738
 20
-21.9942631897
 30
0.0
 10
-10.4973792067
 20
-21.9808866076
 30
0.0
 10
-10.495735465
 20
-21.9547391297
 30
0.0
 10
-10.4943681248
 20
-21.9161306836
 30
0.0
 10
-10.4928770434
 20
-21.8655096003
 30
0.0
 10
-10.4914862729
 20
-21.8032483015
 30
0.0
 10
-10.4895689049
 20
-21.6986188234
 30
0.0
 10
-10.4875135807
 20
-21.5435374219
 30
0.0
 10
-10.485544453
 20
-21.3321859263
 30
0.0
 10
-10.484045303
 20
-21.0925613432
 30
0.0
 10
-10.4830676909
 20
-20.8328115266
 30
0.0
 10
-10.4827929896
 20
-20.6538519851
 30
0.0
 10
-10.4827491915
 20
-20.5624683248
 30
0.0
 11
-10.4992759622
 21
-21.998725222
 31
0.0
 11
-10.4976727845
 21
-21.9851073288
 31
0.0
 11
-10.4960909784
 21
-21.9588448965
 31
0.0
 11
-10.4945441441
 21
-21.9201621466
 31
0.0
 11
-10.4930453398
 21
-21.8693881471
 31
0.0
 11
-10.4916074197
 21
-21.8069553934
 31
0.0
 11
-10.4902425831
 21
-21.7333954216
 31
0.0
 11
-10.4877780116
 21
-21.5554887254
 31
0.0
 11
-10.4857354522
 21
-21.3417155625
 31
0.0
 11
-10.4841843741
 21
-21.0993447796
 31
0.0
 11
-10.4831775337
 21
-20.8366190025
 31
0.0
 11
-10.4827491915
 21
-20.5624683248
 31
0.0
  0
SPLINE
  5
65C
100
AcDbEntity
  8
ASSI
100
AcDbSpline
 62
7
  6
CONTINUOUS
 70
0
 71
3
 72
13
 73
9
 74
7
 42
0.0000001
 43
0.0000001
 44
0.0000000001
 12
-0.0031696367
 22
0.3145566487
 32
0.0
 13
-0.3145726178
 23
-0.0
 33
0.0
 40
0.0
 40
0.0
 40
0.0
 40
0.0
 40
0.0848322853
 40
0.1759482271
 40
0.2781995767
 40
0.3947846151
 40
0.6739262862
 40
1.0
 40
1.0
 40
1.0
 40
1.0
 10
-8.2572807489
 20
-23.2669872981
 30
0.0
 10
-8.2573703781
 20
-23.258092445
 30
0.0
 10
-8.2606118496
 20
-23.2395646609
 30
0.0
 10
-8.2741604085
 20
-23.2133256907
 30
0.0
 10
-8.2960241061
 20
-23.1888896337
 30
0.0
 10
-8.3383641663
 20
-23.1578237628
 30
0.0
 10
-8.4101375492
 20
-23.1301860757
 30
0.0
 10
-8.4738124596
 20
-23.1226497308
 30
0.0
 10
-8.5080037468
 20
-23.1226497308
 30
0.0
 11
-8.2572807489
 21
-23.2669872981
 31
0.0
 11
-8.2617344967
 21
-23.240675663
 31
0.0
 11
-8.2745557085
 21
-23.2150405302
 31
0.0
 11
-8.2957050748
 21
-23.1908058016
 31
0.0
 11
-8.3250379929
 21
-23.1687922607
 31
0.0
 11
-8.40621414
 21
-23.1353096304
 31
0.0
 11
-8.5080037468
 21
-23.1226497308
 31
0.0
  0
SPLINE
  5
65D
100
AcDbEntity
  8
ASSI
100
AcDbSpline
 62
253
  6
CONTINUOUS
 70
0
 71
3
 72
11
 73
7
 74
5
 42
0.0000001
 43
0.0000001
 44
0.0000000001
 12
-0.0012232477
 22
0.3641905849
 32
0.0
 13
-0.3641914835
 23
0.0009174691
 33
0.0
 40
0.0
 40
0.0
 40
0.0
 40
0.0
 40
0.2331616734
 40
0.4766704348
 40
0.7338124928
 40
1.0
 40
1.0
 40
1.0
 40
1.0
 10
-8.2630985787
 20
-23.8443375673
 30
0.0
 10
-8.2631936502
 20
-23.8160324719
 30
0.0
 10
-8.2771241367
 20
-23.757489674
 30
0.0
 10
-8.3340554457
 20
-23.6858275607
 30
0.0
 10
-8.4167243557
 20
-23.6388305642
 30
0.0
 10
-8.4807799402
 20
-23.6279126226
 30
0.0
 10
-8.5130943479
 20
-23.6278312164
 30
0.0
 11
-8.2630985787
 21
-23.8443375673
 31
0.0
 11
-8.2823370272
 21
-23.7616298332
 31
0.0
 11
-8.3365771902
 21
-23.6914666374
 31
0.0
 11
-8.4175932991
 21
-23.6444924834
 31
0.0
 11
-8.5130943479
 21
-23.6278312164
 31
0.0
  0
SPLINE
  5
65E
100
AcDbEntity
  8
ASSI
100
AcDbSpline
 62
253
  6
CONTINUOUS
 70
0
 71
3
 72
11
 73
7
 74
5
 42
0.0000001
 43
0.0000001
 44
0.0000000001
 12
0.0012232477
 22
0.3641905849
 32
0.0
 13
0.3641914835
 23
0.0009174691
 33
0.0
 40
0.0
 40
0.0
 40
0.0
 40
0.0
 40
0.2331616734
 40
0.4766704348
 40
0.7338124928
 40
1.0
 40
1.0
 40
1.0
 40
1.0
 10
8.2630985787
 20
-23.8443375673
 30
0.0
 10
8.2631936502
 20
-23.8160324719
 30
0.0
 10
8.2771241367
 20
-23.757489674
 30
0.0
 10
8.3340554457
 20
-23.6858275607
 30
0.0
 10
8.4167243557
 20
-23.6388305642
 30
0.0
 10
8.4807799402
 20
-23.6279126226
 30
0.0
 10
8.5130943479
 20
-23.6278312164
 30
0.0
 11
8.2630985787
 21
-23.8443375673
 31
0.0
 11
8.2823370272
 21
-23.7616298332
 31
0.0
 11
8.3365771902
 21
-23.6914666374
 31
0.0
 11
8.4175932991
 21
-23.6444924834
 31
0.0
 11
8.5130943479
 21
-23.6278312164
 31
0.0
  0
SPLINE
  5
65F
100
AcDbEntity
  8
ASSI
100
AcDbSpline
 62
7
  6
CONTINUOUS
 70
0
 71
3
 72
13
 73
9
 74
7
 42
0.0000001
 43
0.0000001
 44
0.0000000001
 12
0.0031696367
 22
0.3145566487
 32
0.0
 13
0.3145726178
 23
-0.0
 33
0.0
 40
0.0
 40
0.0
 40
0.0
 40
0.0
 40
0.0848322853
 40
0.1759482271
 40
0.2781995767
 40
0.3947846151
 40
0.6739262862
 40
1.0
 40
1.0
 40
1.0
 40
1.0
 10
8.2572807489
 20
-23.2669872981
 30
0.0
 10
8.2573703781
 20
-23.258092445
 30
0.0
 10
8.2606118496
 20
-23.2395646609
 30
0.0
 10
8.2741604085
 20
-23.2133256907
 30
0.0
 10
8.2960241061
 20
-23.1888896337
 30
0.0
 10
8.3383641663
 20
-23.1578237628
 30
0.0
 10
8.4101375492
 20
-23.1301860757
 30
0.0
 10
8.4738124596
 20
-23.1226497308
 30
0.0
 10
8.5080037468
 20
-23.1226497308
 30
0.0
 11
8.2572807489
 21
-23.2669872981
 31
0.0
 11
8.2617344967
 21
-23.240675663
 31
0.0
 11
8.2745557085
 21
-23.2150405302
 31
0.0
 11
8.2957050748
 21
-23.1908058016
 31
0.0
 11
8.3250379929
 21
-23.1687922607
 31
0.0
 11
8.40621414
 21
-23.1353096304
 31
0.0
 11
8.5080037468
 21
-23.1226497308
 31
0.0
  0
SPLINE
  5
660
100
AcDbEntity
  8
ASSI
100
AcDbSpline
 62
7
  6
CONTINUOUS
 70
0
 71
3
 72
11
 73
7
 74
5
 42
0.0000001
 43
0.0000001
 44
0.0000000001
 12
0.0344320915
 22
-0.0031074597
 32
0.0
 13
0.0037620524
 23
-0.0343667309
 33
0.0
 40
0.0
 40
0.0
 40
0.0
 40
0.0
 40
0.4199739578
 40
0.7275441048
 40
0.9191217964
 40
1.0
 40
1.0
 40
1.0
 40
1.0
 10
10.60891534
 20
-22.3279108386
 30
0.0
 10
10.6137355339
 20
-22.328345856
 30
0.0
 10
10.6219565469
 20
-22.3290602149
 30
0.0
 10
10.6328994071
 20
-22.33023061
 30
0.0
 10
10.638749744
 20
-22.3312534364
 30
0.0
 10
10.6426178284
 20
-22.3324844549
 30
0.0
 10
10.6427192511
 20
-22.3334109614
 30
0.0
 11
10.60891534
 21
-22.3279108386
 31
0.0
 11
10.6233736105
 21
-22.3292412515
 31
0.0
 11
10.6339355634
 21
-22.3304711844
 31
0.0
 11
10.6404200498
 21
-22.3318197414
 31
0.0
 11
10.6427192511
 21
-22.3334109614
 31
0.0
  0
SPLINE
  5
661
100
AcDbEntity
  8
ASSI
100
AcDbSpline
 62
7
  6
CONTINUOUS
 70
0
 71
3
 72
13
 73
9
 74
7
 42
0.0000001
 43
0.0000001
 44
0.0000000001
 12
-0.0031696367
 22
0.3145566487
 32
0.0
 13
-0.3145726178
 23
-0.0
 33
0.0
 40
0.0
 40
0.0
 40
0.0
 40
0.0
 40
0.0848322853
 40
0.1759482271
 40
0.2781995767
 40
0.3947846151
 40
0.6739262862
 40
1.0
 40
1.0
 40
1.0
 40
1.0
 10
10.6427192511
 20
-23.2669872981
 30
0.0
 10
10.6426296219
 20
-23.258092445
 30
0.0
 10
10.6393881504
 20
-23.2395646609
 30
0.0
 10
10.6258395915
 20
-23.2133256907
 30
0.0
 10
10.6039758939
 20
-23.1888896337
 30
0.0
 10
10.5616358337
 20
-23.1578237628
 30
0.0
 10
10.4898624508
 20
-23.1301860757
 30
0.0
 10
10.4261875404
 20
-23.1226497308
 30
0.0
 10
10.3919962532
 20
-23.1226497308
 30
0.0
 11
10.6427192511
 21
-23.2669872981
 31
0.0
 11
10.6382655033
 21
-23.240675663
 31
0.0
 11
10.6254442915
 21
-23.2150405302
 31
0.0
 11
10.6042949252
 21
-23.1908058016
 31
0.0
 11
10.5749620071
 21
-23.1687922607
 31
0.0
 11
10.49378586
 21
-23.1353096304
 31
0.0
 11
10.3919962532
 21
-23.1226497308
 31
0.0
  0
SPLINE
  5
662
100
AcDbEntity
  8
ASSI
100
AcDbSpline
 62
253
  6
CONTINUOUS
 70
0
 71
3
 72
11
 73
7
 74
5
 42
0.0000001
 43
0.0000001
 44
0.0000000001
 12
-0.0012232477
 22
0.3641905849
 32
0.0
 13
-0.3641914835
 23
0.0009174691
 33
0.0
 40
0.0
 40
0.0
 40
0.0
 40
0.0
 40
0.2331616734
 40
0.4766704348
 40
0.7338124928
 40
1.0
 40
1.0
 40
1.0
 40
1.0
 10
10.6369014213
 20
-23.8443375673
 30
0.0
 10
10.6368063498
 20
-23.8160324719
 30
0.0
 10
10.6228758633
 20
-23.757489674
 30
0.0
 10
10.5659445543
 20
-23.6858275607
 30
0.0
 10
10.4832756443
 20
-23.6388305642
 30
0.0
 10
10.4192200598
 20
-23.6279126226
 30
0.0
 10
10.3869056521
 20
-23.6278312164
 30
0.0
 11
10.6369014213
 21
-23.8443375673
 31
0.0
 11
10.6176629728
 21
-23.7616298332
 31
0.0
 11
10.5634228098
 21
-23.6914666374
 31
0.0
 11
10.4824067009
 21
-23.6444924834
 31
0.0
 11
10.3869056521
 21
-23.6278312164
 31
0.0
  0
SPLINE
  5
663
100
AcDbEntity
  8
ASSI
100
AcDbSpline
 62
7
  6
CONTINUOUS
 70
0
 71
3
 72
12
 73
8
 74
6
 42
0.0000001
 43
0.0000001
 44
0.0000000001
 12
-0.4498047458
 22
-0.003468097
 32
0.0
 13
-0.3801656942
 23
-0.2404378964
 33
0.0
 40
0.0
 40
0.0
 40
0.0
 40
0.0
 40
0.0928063554
 40
0.2002657039
 40
0.4469405411
 40
0.7183214292
 40
1.0
 40
1.0
 40
1.0
 40
1.0
 10
4.2962073137
 20
23.7953389668
 30
0.0
 10
4.2822924006
 20
23.7952316797
 30
0.0
 10
4.2523804522
 20
23.7898082213
 30
0.0
 10
4.1892340474
 20
23.7671787092
 30
0.0
 10
4.1057237804
 20
23.723816144
 30
0.0
 10
4.0028613095
 20
23.6622793544
 30
0.0
 10
3.9327774665
 20
23.6179177525
 30
0.0
 10
3.8970826234
 20
23.5953423515
 30
0.0
 11
4.2962073137
 21
23.7953389668
 31
0.0
 11
4.2549163488
 21
23.7891921748
 31
0.0
 11
4.209156908
 21
23.7736180048
 31
0.0
 11
4.1095960362
 21
23.7246334111
 31
0.0
 11
4.0044388891
 21
23.6626369814
 31
0.0
 11
3.8970826234
 21
23.5953423515
 31
0.0
  0
SPLINE
  5
664
100
AcDbEntity
  8
CURVE
100
AcDbSpline
 62
253
  6
CONTINUOUS
 70
0
 71
3
 72
28
 73
24
 74
22
 42
0.0000001
 43
0.0000001
 44
0.0000000001
 12
-0.5484437183
 22
2.0468198217
 32
0.0
 13
-0.6673030329
 23
-2.0056142202
 33
0.0
 40
0.0
 40
0.0
 40
0.0
 40
0.0
 40
0.0526315789
 40
0.1052631579
 40
0.1578947368
 40
0.2105263158
 40
0.2631578947
 40
0.3157894737
 40
0.3684210526
 40
0.4210526316
 40
0.4736842105
 40
0.5263157895
 40
0.5526315789
 40
0.5789473684
 40
0.6052631579
 40
0.6315789474
 40
0.6842105263
 40
0.7368421053
 40
0.7894736842
 40
0.8421052632
 40
0.8947368421
 40
0.9473684211
 40
1.0
 40
1.0
 40
1.0
 40
1.0
 10
5.9
 20
-15.125
 30
0.0
 10
5.8903781804
 20
-15.0890908803
 30
0.0
 10
5.8709178172
 20
-15.0204152933
 30
0.0
 10
5.8411824578
 20
-14.927021674
 30
0.0
 10
5.8107379644
 20
-14.8426324754
 30
0.0
 10
5.7791387981
 20
-14.7663920881
 30
0.0
 10
5.7460369397
 20
-14.6981914879
 30
0.0
 10
5.7103600318
 20
-14.6376456237
 30
0.0
 10
5.6727014526
 20
-14.5875732457
 30
0.0
 10
5.629657873
 20
-14.5470713377
 30
0.0
 10
5.5807613531
 20
-14.5233013684
 30
0.0
 10
5.5384670302
 20
-14.524062055
 30
0.0
 10
5.5058436257
 20
-14.5370301512
 30
0.0
 10
5.482310945
 20
-14.5522395663
 30
0.0
 10
5.4607056326
 20
-14.5712051983
 30
0.0
 10
5.4333144175
 20
-14.6011293139
 30
0.0
 10
5.4029610129
 20
-14.6433669123
 30
0.0
 10
5.3676735406
 20
-14.7041425802
 30
0.0
 10
5.3341732929
 20
-14.7720545702
 30
0.0
 10
5.3012218668
 20
-14.8475076993
 30
0.0
 10
5.2682989823
 20
-14.9306816282
 30
0.0
 10
5.2347594355
 20
-15.0224410881
 30
0.0
 10
5.2117070708
 20
-15.0898137856
 30
0.0
 10
5.2
 20
-15.125
 30
0.0
 11
5.9
 21
-15.125
 31
0.0
 11
5.8708270147
 21
-15.0220185868
 31
0.0
 11
5.8410642688
 21
-14.9285224108
 31
0.0
 11
5.8105455189
 21
-14.8439906106
 31
0.0
 11
5.7788883494
 21
-14.7677320526
 31
0.0
 11
5.7456077648
 21
-14.6994672772
 31
0.0
 11
5.7100297532
 21
-14.6393912047
 31
0.0
 11
5.6718039525
 21
-14.589168324
 31
0.0
 11
5.628682383
 21
-14.5498599942
 31
0.0
 11
5.5804519085
 21
-14.5274151673
 31
0.0
 11
5.5304121835
 21
-14.5283340413
 31
0.0
 11
5.5059994378
 21
-14.5379440417
 31
0.0
 11
5.4826321731
 21
-14.5528656025
 31
0.0
 11
5.4608826161
 21
-14.5717847741
 31
0.0
 11
5.4404212622
 21
-14.5939704486
 31
0.0
 11
5.4031504484
 21
-14.6450486706
 31
0.0
 11
5.3679714114
 21
-14.7053319672
 31
0.0
 11
5.3342647632
 21
-14.7733114267
 31
0.0
 11
5.3012266237
 21
-14.8487944993
 31
0.0
 11
5.2681962052
 21
-14.93211255
 31
0.0
 11
5.2345862688
 21
-15.0239910192
 31
0.0
 11
5.2
 21
-15.125
 31
0.0
  0
SPLINE
  5
665
100
AcDbEntity
  8
CURVE
100
AcDbSpline
 62
253
  6
CONTINUOUS
 70
0
 71
3
 72
32
 73
28
 74
26
 42
0.0000001
 43
0.0000001
 44
0.0000000001
 12
-0.5208468716
 22
-2.0168407613
 32
0.0
 13
-0.5434593208
 23
2.028217797
 33
0.0
 40
0.0
 40
0.0
 40
0.0
 40
0.0
 40
0.0555555556
 40
0.1111111111
 40
0.1666666667
 40
0.2222222222
 40
0.2777777778
 40
0.3055555556
 40
0.3333333333
 40
0.3611111111
 40
0.3888888889
 40
0.4166666667
 40
0.4444444444
 40
0.5
 40
0.5277777778
 40
0.5555555556
 40
0.5833333333
 40
0.6111111111
 40
0.6388888889
 40
0.6666666667
 40
0.6944444444
 40
0.7222222222
 40
0.7777777778
 40
0.8333333333
 40
0.8888888889
 40
0.9444444444
 40
1.0
 40
1.0
 40
1.0
 40
1.0
 10
6.6
 20
-15.125
 30
0.0
 10
6.5903546876
 20
-15.162348903
 30
0.0
 10
6.5706251091
 20
-15.2337347325
 30
0.0
 10
6.5398542907
 20
-15.3306735718
 30
0.0
 10
6.5077251834
 20
-15.4181469664
 30
0.0
 10
6.4737893802
 20
-15.4968988108
 30
0.0
 10
6.4435536984
 20
-15.5553504907
 30
0.0
 10
6.4178083459
 20
-15.597533093
 30
0.0
 10
6.3976620071
 20
-15.6266105534
 30
0.0
 10
6.3768580112
 20
-15.6525528813
 30
0.0
 10
6.3550690658
 20
-15.6754885242
 30
0.0
 10
6.3310567371
 20
-15.6957543016
 30
0.0
 10
6.2975068572
 20
-15.7166276767
 30
0.0
 10
6.2617823547
 20
-15.7268167256
 30
0.0
 10
6.2252392923
 20
-15.7237202139
 30
0.0
 10
6.1982363488
 20
-15.7147735824
 30
0.0
 10
6.1720580144
 20
-15.6997205755
 30
0.0
 10
6.1471015576
 20
-15.6792952265
 30
0.0
 10
6.1250366197
 20
-15.6562851843
 30
0.0
 10
6.1040589547
 20
-15.6301197385
 30
0.0
 10
6.0839042371
 20
-15.6008278752
 30
0.0
 10
6.0582265778
 20
-15.5583458525
 30
0.0
 10
6.028029715
 20
-15.4992981035
 30
0.0
 10
5.9941107704
 20
-15.4199489257
 30
0.0
 10
5.96176475
 20
-15.3318741036
 30
0.0
 10
5.9304555348
 20
-15.2343665738
 30
0.0
 10
5.9100640615
 20
-15.1625595888
 30
0.0
 10
5.9
 20
-15.125
 30
0.0
 11
6.6
 21
-15.125
 31
0.0
 11
6.570429034
 21
-15.2320447483
 31
0.0
 11
6.5396279093
 21
-15.3290959976
 31
0.0
 11
6.5074240674
 21
-15.4166933747
 31
0.0
 11
6.473398211
 21
-15.4954638394
 31
0.0
 11
6.4369876264
 21
-15.5655145795
 31
0.0
 11
6.4176687919
 21
-15.5971065111
 31
0.0
 11
6.3975523976
 21
-15.6260880313
 31
0.0
 11
6.376693853
 21
-15.6520517672
 31
0.0
 11
6.3546985019
 21
-15.6750435467
 31
0.0
 11
6.3308650569
 21
-15.694985844
 31
0.0
 11
6.3057131086
 21
-15.7105189724
 31
0.0
 11
6.2525783757
 21
-15.7249354676
 31
0.0
 11
6.2253066845
 21
-15.7226161726
 31
0.0
 11
6.1983737836
 21
-15.7137558532
 31
0.0
 11
6.1722616607
 21
-15.6988251851
 31
0.0
 11
6.1475834774
 21
-15.6788644443
 31
0.0
 11
6.1252178319
 21
-15.6557592837
 31
0.0
 11
6.1041961126
 21
-15.6295986689
 31
0.0
 11
6.0840536493
 21
-15.6003995996
 31
0.0
 11
6.0647726734
 21
-15.5685700101
 31
0.0
 11
6.0284159301
 21
-15.4978827903
 31
0.0
 11
5.9943729245
 21
-15.4184946516
 31
0.0
 11
5.9619375509
 21
-15.3303019856
 31
0.0
 11
5.930575869
 21
-15.2326660825
 31
0.0
 11
5.9
 21
-15.125
 31
0.0
  0
SPLINE
  5
666
100
AcDbEntity
  8
SUPERFICI
100
AcDbSpline
 62
253
  6
CONTINUOUS
 70
0
 71
3
 72
11
 73
7
 74
5
 42
0.0000001
 43
0.0000001
 44
0.0000000001
 12
-0.0000487832
 22
1.3243331052
 32
0.0
 13
-1.3242337256
 23
0.0162239255
 33
0.0
 40
0.0
 40
0.0
 40
0.0
 40
0.0
 40
0.2097758401
 40
0.4448626602
 40
0.7119358388
 40
1.0
 40
1.0
 40
1.0
 40
1.0
 10
-28.1636956459
 20
18.1038332984
 30
0.0
 10
-28.1636990571
 20
18.1964376617
 30
0.0
 10
-28.2230009703
 20
18.3951450604
 30
0.0
 10
-28.4510761628
 20
18.6242598156
 30
0.0
 10
-28.772591576
 20
18.7731632141
 30
0.0
 10
-29.0187611142
 20
18.8090389814
 30
0.0
 10
-29.1459158733
 20
18.8105968252
 30
0.0
 11
-28.1636956459
 21
18.1038332984
 31
0.0
 11
-28.2381304691
 21
18.3714889915
 31
0.0
 11
-28.4503496573
 21
18.5992858618
 31
0.0
 11
-28.7687502086
 21
18.7533002441
 31
0.0
 11
-29.1459158733
 21
18.8105968252
 31
0.0
  0
SPLINE
  5
667
100
AcDbEntity
  8
SUPERFICI
100
AcDbSpline
 62
253
  6
CONTINUOUS
 70
0
 71
3
 72
14
 73
10
 74
8
 42
0.0000001
 43
0.0000001
 44
0.0000000001
 12
0.2928584065
 22
-0.0051118625
 32
0.0
 13
-0.002994225
 23
-0.2928877123
 33
0.0
 40
0.0
 40
0.0
 40
0.0
 40
0.0
 40
0.0166117575
 40
0.0658156521
 40
0.1472325319
 40
0.2600927173
 40
0.4033147447
 40
0.5755224041
 40
1.0
 40
1.0
 40
1.0
 40
1.0
 10
-29.1459100585
 20
19.121932718
 30
0.0
 10
-29.1442884276
 20
19.1219044123
 30
0.0
 10
-29.1467476835
 20
19.1117241545
 30
0.0
 10
-29.1436768947
 20
19.1009548265
 30
0.0
 10
-29.144992151
 20
19.0751495721
 30
0.0
 10
-29.1442557787
 20
19.0430851249
 30
0.0
 10
-29.1446179591
 20
19.0009314144
 30
0.0
 10
-29.1449033578
 20
18.9288510113
 30
0.0
 10
-29.145486398
 20
18.8705255322
 30
0.0
 10
-29.1459100585
 20
18.8290841082
 30
0.0
 11
-29.1459100585
 21
19.121932718
 31
0.0
 11
-29.1452857372
 21
19.1171073044
 31
0.0
 11
-29.1448354489
 21
19.1027023714
 31
0.0
 11
-29.1445635418
 21
19.0788566719
 31
0.0
 11
-29.1444726099
 21
19.0457997081
 31
0.0
 11
-29.1445635387
 21
19.0038496427
 31
0.0
 11
-29.144835445
 21
18.9534102326
 31
0.0
 11
-29.1459100585
 21
18.8290841082
 31
0.0
  0
SPLINE
  5
668
100
AcDbEntity
  8
RACCORDO
100
AcDbSpline
 62
253
  6
CONTINUOUS
 70
0
 71
3
 72
26
 73
22
 74
20
 42
0.0000001
 43
0.0000001
 44
0.0000000001
 12
-0.1246415819
 22
-0.2158928597
 32
0.0
 13
0.215891033
 23
-0.1246447459
 33
0.0
 40
0.0
 40
0.0
 40
0.0
 40
0.0
 40
0.1952381202
 40
0.3828749837
 40
0.5557520914
 40
0.6345520338
 40
0.7072376715
 40
0.7731076099
 40
0.8315332255
 40
0.8819531408
 40
0.9238816554
 40
0.9415349362
 40
0.956920956
 40
0.9700021908
 40
0.9807506497
 40
0.9891391341
 40
0.9951459668
 40
0.9972533322
 40
0.9987625092
 40
0.9996742481
 40
1.0
 40
1.0
 40
1.0
 40
1.0
 10
-70.4148168978
 20
23.8443375673
 30
0.0
 10
-70.4229284938
 20
23.8302873953
 30
0.0
 10
-70.4388225014
 20
23.8027263462
 30
0.0
 10
-70.461852571
 20
23.7626975296
 30
0.0
 10
-70.4800218327
 20
23.7310348314
 30
0.0
 10
-70.4934115842
 20
23.707642512
 30
0.0
 10
-70.502371204
 20
23.6919599588
 30
0.0
 10
-70.5104771031
 20
23.6777395348
 30
0.0
 10
-70.517651597
 20
23.665117869
 30
0.0
 10
-70.5238259001
 20
23.654216121
 30
0.0
 10
-70.5283138236
 20
23.6462528618
 30
0.0
 10
-70.53135834
 20
23.6408180688
 30
0.0
 10
-70.5332244685
 20
23.6374703242
 30
0.0
 10
-70.5348022448
 20
23.6346199763
 30
0.0
 10
-70.5360915354
 20
23.6322711012
 30
0.0
 10
-70.5370803509
 20
23.630437018
 30
0.0
 10
-70.5377302263
 20
23.629215972
 30
0.0
 10
-70.5380778587
 20
23.6285133592
 30
0.0
 10
-70.5382614635
 20
23.628155318
 30
0.0
 10
-70.5383144916
 20
23.6279791452
 30
0.0
 10
-70.5383859073
 20
23.6278447508
 30
0.0
 10
-70.538362465
 20
23.6278312164
 30
0.0
 11
-70.4148168978
 21
23.8443375673
 31
0.0
 11
-70.4391307991
 21
23.8021749995
 31
0.0
 11
-70.4624562775
 21
23.7616298799
 31
0.0
 11
-70.4839034289
 21
23.7242490909
 31
0.0
 11
-70.4936615593
 21
23.707200175
 31
0.0
 11
-70.5026494693
 21
23.6914666636
 31
0.0
 11
-70.5107804133
 21
23.6772003888
 31
0.0
 11
-70.5179767929
 21
23.6645375218
 31
0.0
 11
-70.5241694438
 21
23.6535997554
 31
0.0
 11
-70.5292986829
 21
23.6444924903
 31
0.0
 11
-70.5314490103
 21
23.6406528374
 31
0.0
 11
-70.5333158227
 21
23.6373022208
 31
0.0
 11
-70.5348945505
 21
23.634448831
 31
0.0
 11
-70.5361818039
 21
23.6320988139
 31
0.0
 11
-70.5371742745
 21
23.6302581736
 31
0.0
 11
-70.5378693075
 21
23.628931804
 31
0.0
 11
-70.5381048982
 21
23.6284622474
 31
0.0
 11
-70.5382657047
 21
23.6281221236
 31
0.0
 11
-70.5383516021
 21
23.6279116931
 31
0.0
 11
-70.538362465
 21
23.6278312164
 31
0.0
  0
SPLINE
  5
669
100
AcDbEntity
  8
RACCORDO
100
AcDbSpline
 62
253
  6
CONTINUOUS
 70
0
 71
3
 72
26
 73
22
 74
20
 42
0.0000001
 43
0.0000001
 44
0.0000000001
 12
-0.2500094732
 22
0.0014545126
 32
0.0
 13
0.0014544633
 23
0.2500094735
 33
0.0
 40
0.0
 40
0.0
 40
0.0
 40
0.0
 40
0.0003336282
 40
0.001248816
 40
0.0027608032
 40
0.0048709523
 40
0.0108839584
 40
0.0192798579
 40
0.0300370861
 40
0.043128423
 40
0.0585258065
 40
0.0761915755
 40
0.118147743
 40
0.1685974946
 40
0.2270531287
 40
0.2929509522
 40
0.3656597953
 40
0.4444754881
 40
0.6173500544
 40
0.8049187869
 40
1.0
 40
1.0
 40
1.0
 40
1.0
 10
-70.4148168978
 20
-24.4869014213
 30
0.0
 10
-70.4148447012
 20
-24.4869012595
 30
0.0
 10
-70.414857912
 20
-24.4867510864
 30
0.0
 10
-70.4148983737
 20
-24.4865675339
 30
0.0
 10
-70.4149233195
 20
-24.4861657167
 30
0.0
 10
-70.4149743733
 20
-24.4853791703
 30
0.0
 10
-70.4150233573
 20
-24.4839921979
 30
0.0
 10
-70.4150805175
 20
-24.4819010268
 30
0.0
 10
-70.4151321709
 20
-24.4792122353
 30
0.0
 10
-70.4151810123
 20
-24.4759426689
 30
0.0
 10
-70.4152254784
 20
-24.4720962472
 30
0.0
 10
-70.415282497
 20
-24.4658446582
 30
0.0
 10
-70.4153389625
 20
-24.4566716056
 30
0.0
 10
-70.4153857842
 20
-24.4440992271
 30
0.0
 10
-70.4154137675
 20
-24.4295315059
 30
0.0
 10
-70.4154225502
 20
-24.4131087486
 30
0.0
 10
-70.4154118523
 20
-24.3949892244
 30
0.0
 10
-70.4153703136
 20
-24.3679545131
 30
0.0
 10
-70.4152683231
 20
-24.3313477175
 30
0.0
 10
-70.4150790834
 20
-24.2850518473
 30
0.0
 10
-70.4149114773
 20
-24.2531630359
 30
0.0
 10
-70.4148168978
 20
-24.2369056521
 30
0.0
 11
-70.4148168978
 21
-24.4869014213
 31
0.0
 11
-70.4148521233
 21
-24.4868258127
 31
0.0
 11
-70.414886467
 21
-24.4865995953
 31
0.0
 11
-70.4149199052
 21
-24.4862230596
 31
0.0
 11
-70.4149524142
 21
-24.485696496
 31
0.0
 11
-70.4150145499
 21
-24.4841944467
 31
0.0
 11
-70.4150726906
 21
-24.4820961621
 31
0.0
 11
-70.4151266974
 21
-24.4794072499
 31
0.0
 11
-70.4151764515
 21
-24.4761346145
 31
0.0
 11
-70.4152218348
 21
-24.4722853251
 31
0.0
 11
-70.4152627419
 21
-24.4678688302
 31
0.0
 11
-70.4153307454
 21
-24.4573794338
 31
0.0
 11
-70.4153797874
 21
-24.4447663999
 31
0.0
 11
-70.4154094019
 21
-24.4301517203
 31
0.0
 11
-70.4154193088
 21
-24.4136763643
 31
0.0
 11
-70.4154094019
 21
-24.3954981598
 31
0.0
 11
-70.4153797874
 21
-24.3757931787
 31
0.0
 11
-70.4152627419
 21
-24.3325723265
 31
0.0
 11
-70.4150726906
 21
-24.285677958
 31
0.0
 11
-70.4148168978
 21
-24.2369056521
 31
0.0
  0
SPLINE
  5
66A
100
AcDbEntity
  8
RACCORDO
100
AcDbSpline
 62
7
  6
CONTINUOUS
 70
0
 71
3
 72
9
 73
5
 74
3
 42
0.0000001
 43
0.0000001
 44
0.0000000001
 12
0.1240404534
 22
-0.0065006847
 32
0.0
 13
0.1240356311
 23
-0.0065920554
 33
0.0
 40
0.0
 40
0.0
 40
0.0
 40
0.0
 40
0.482213368
 40
1.0
 40
1.0
 40
1.0
 40
1.0
 10
-69.538905607
 20
-22.3279108386
 30
0.0
 10
-69.5189676187
 20
-22.3289557443
 30
0.0
 10
-69.4775889144
 20
-22.3304456948
 30
0.0
 10
-69.436224895
 20
-22.332273202
 30
0.0
 10
-69.4148168978
 20
-22.3334109614
 30
0.0
 11
-69.538905607
 21
-22.3279108386
 31
0.0
 11
-69.4790643046
 21
-22.3304711844
 31
0.0
 11
-69.4148168978
 21
-22.3334109614
 31
0.0
  0
SPLINE
  5
66B
100
AcDbEntity
  8
RACCORDO
100
AcDbSpline
 62
7
  6
CONTINUOUS
 70
0
 71
3
 72
13
 73
9
 74
7
 42
0.0000001
 43
0.0000001
 44
0.0000000001
 12
-0.248910207
 22
0.1437120231
 32
0.0
 13
-0.2442060468
 23
0.1516147167
 33
0.0
 40
0.0
 40
0.0
 40
0.0
 40
0.0
 40
0.3611707034
 40
0.6821065924
 40
0.8126146064
 40
0.9136705937
 40
0.9780274868
 40
1.0
 40
1.0
 40
1.0
 40
1.0
 10
-69.4148168978
 20
-23.2669872981
 30
0.0
 10
-69.444783256
 20
-23.249685774
 30
0.0
 10
-69.5013657225
 20
-23.2169892193
 30
0.0
 10
-69.5687244207
 20
-23.1779516232
 30
0.0
 10
-69.6145067081
 20
-23.1513824348
 30
0.0
 10
-69.6389741628
 20
-23.1370615698
 30
0.0
 10
-69.6545123922
 20
-23.1280662994
 30
0.0
 10
-69.6615738581
 20
-23.1237601829
 30
0.0
 10
-69.663362465
 20
-23.1226497308
 30
0.0
 11
-69.4148168978
 21
-23.2669872981
 31
0.0
 11
-69.5046915969
 21
-23.2150405302
 31
0.0
 11
-69.5845029791
 21
-23.1687922607
 31
0.0
 11
-69.6169338698
 21
-23.149943667
 31
0.0
 11
-69.6420232772
 21
-23.1353096304
 31
0.0
 11
-69.6579730087
 21
-23.1259416726
 31
0.0
 11
-69.663362465
 21
-23.1226497308
 31
0.0
  0
SPLINE
  5
66C
100
AcDbEntity
  8
RACCORDO
100
AcDbSpline
 62
253
  6
CONTINUOUS
 70
0
 71
3
 72
26
 73
22
 74
20
 42
0.0000001
 43
0.0000001
 44
0.0000000001
 12
-0.1246415819
 22
0.2158928597
 32
0.0
 13
0.2158910329
 23
0.124644746
 33
0.0
 40
0.0
 40
0.0
 40
0.0
 40
0.0
 40
0.1952383918
 40
0.3828751996
 40
0.5557522696
 40
0.6345521823
 40
0.7072377922
 40
0.7731077036
 40
0.8315332971
 40
0.8819531884
 40
0.9238816869
 40
0.9415349589
 40
0.9569209738
 40
0.9700022033
 40
0.980750657
 40
0.9891391387
 40
0.9951459694
 40
0.9972533339
 40
0.99876251
 40
0.9996742483
 40
1.0
 40
1.0
 40
1.0
 40
1.0
 10
-70.4148168978
 20
-23.8443375673
 30
0.0
 10
-70.4229285051
 20
-23.8302873757
 30
0.0
 10
-70.4388225216
 20
-23.8027263111
 30
0.0
 10
-70.4618525986
 20
-23.7626974817
 30
0.0
 10
-70.4800218551
 20
-23.7310347923
 30
0.0
 10
-70.4934116026
 20
-23.7076424797
 30
0.0
 10
-70.502371219
 20
-23.6919599326
 30
0.0
 10
-70.5104771148
 20
-23.6777395142
 30
0.0
 10
-70.5176516058
 20
-23.6651178536
 30
0.0
 10
-70.5238259063
 20
-23.6542161101
 30
0.0
 10
-70.5283138278
 20
-23.6462528545
 30
0.0
 10
-70.5313583429
 20
-23.6408180636
 30
0.0
 10
-70.5332244706
 20
-23.6374703203
 30
0.0
 10
-70.5348022463
 20
-23.6346199735
 30
0.0
 10
-70.5360915364
 20
-23.6322710994
 30
0.0
 10
-70.5370803514
 20
-23.6304370169
 30
0.0
 10
-70.5377302267
 20
-23.6292159714
 30
0.0
 10
-70.5380778589
 20
-23.6285133588
 30
0.0
 10
-70.5382614636
 20
-23.6281553178
 30
0.0
 10
-70.5383144917
 20
-23.6279791451
 30
0.0
 10
-70.5383859073
 20
-23.6278447508
 30
0.0
 10
-70.538362465
 20
-23.6278312164
 30
0.0
 11
-70.4148168978
 21
-23.8443375673
 31
0.0
 11
-70.4391308329
 21
-23.8021749409
 31
0.0
 11
-70.4624563043
 21
-23.7616298332
 31
0.0
 11
-70.483903451
 21
-23.7242490524
 31
0.0
 11
-70.4936615777
 21
-23.7072001429
 31
0.0
 11
-70.5026494843
 21
-23.6914666374
 31
0.0
 11
-70.5107804249
 21
-23.6772003685
 31
0.0
 11
-70.5179768017
 21
-23.6645375063
 31
0.0
 11
-70.5241694496
 21
-23.6535997451
 31
0.0
 11
-70.5292986868
 21
-23.6444924834
 31
0.0
 11
-70.5314490131
 21
-23.6406528325
 31
0.0
 11
-70.5333158248
 21
-23.6373022169
 31
0.0
 11
-70.534894552
 21
-23.6344488282
 31
0.0
 11
-70.5361818048
 21
-23.6320988123
 31
0.0
 11
-70.537174275
 21
-23.6302581726
 31
0.0
 11
-70.5378693078
 21
-23.6289318034
 31
0.0
 11
-70.5381048984
 21
-23.628462247
 31
0.0
 11
-70.5382657048
 21
-23.6281221234
 31
0.0
 11
-70.5383516021
 21
-23.627911693
 31
0.0
 11
-70.538362465
 21
-23.6278312164
 31
0.0
  0
SPLINE
  5
66D
100
AcDbEntity
  8
RACCORDO
100
AcDbSpline
 62
7
  6
CONTINUOUS
 70
0
 71
3
 72
23
 73
19
 74
17
 42
0.0000001
 43
0.0000001
 44
0.0000000001
 12
-0.2489219696
 22
-0.4336303356
 32
0.0
 13
0.0109831168
 23
-0.4998767708
 33
0.0
 40
0.0
 40
0.0
 40
0.0
 40
0.0
 40
0.0029790642
 40
0.0081751116
 40
0.0156250895
 40
0.0253283264
 40
0.0372679701
 40
0.0514218611
 40
0.0862385412
 40
0.1294624024
 40
0.1806967365
 40
0.2394707692
 40
0.3052443416
 40
0.3774115779
 40
0.4553067591
 40
0.6253653726
 40
0.8091744664
 40
1.0
 40
1.0
 40
1.0
 40
1.0
 10
-68.1635104378
 20
22.3996911987
 30
0.0
 10
-68.1637576227
 20
22.3992605945
 30
0.0
 10
-68.1640696727
 20
22.397904566
 30
0.0
 10
-68.1644631256
 20
22.3953465467
 30
0.0
 10
-68.1647923559
 20
22.3916264645
 30
0.0
 10
-68.1650892146
 20
22.3867900147
 30
0.0
 10
-68.1653470995
 20
22.3808279998
 30
0.0
 10
-68.165685504
 20
22.3706824916
 30
0.0
 10
-68.166022219
 20
22.3553196836
 30
0.0
 10
-68.1662805408
 20
22.3337755035
 30
0.0
 10
-68.1664176186
 20
22.3082371013
 30
0.0
 10
-68.1664311921
 20
22.2789401961
 30
0.0
 10
-68.16631778
 20
22.2461546808
 30
0.0
 10
-68.1660790009
 20
22.2101829449
 30
0.0
 10
-68.1655801436
 20
22.156831996
 30
0.0
 10
-68.1646492048
 20
22.0848776565
 30
0.0
 10
-68.1631256014
 20
21.9941085514
 30
0.0
 10
-68.1618747557
 20
21.9316821458
 30
0.0
 10
-68.161176136
 20
21.8998857286
 30
0.0
 11
-68.1635104378
 21
22.3996911987
 31
0.0
 11
-68.1639709471
 21
22.3982746486
 31
0.0
 11
-68.1643840599
 21
22.3957096934
 31
0.0
 11
-68.1647445139
 21
22.3920022047
 31
0.0
 11
-68.1650533452
 21
22.3871604508
 31
0.0
 11
-68.1653221425
 21
22.3811967143
 31
0.0
 11
-68.1655629186
 21
22.3741239025
 31
0.0
 11
-68.1659658227
 21
22.3567203156
 31
0.0
 11
-68.1662427045
 21
22.3351102705
 31
0.0
 11
-68.1663913705
 21
22.3094936673
 31
0.0
 11
-68.1664125196
 21
22.2801068104
 31
0.0
 11
-68.1663048513
 21
22.2472203705
 31
0.0
 11
-68.166069649
 21
22.2111377055
 31
0.0
 11
-68.1657091369
 21
22.1721919848
 31
0.0
 11
-68.1646264633
 21
22.0871700108
 31
0.0
 11
-68.1630963785
 21
21.995278677
 31
0.0
 11
-68.161176136
 21
21.8998857286
 31
0.0
  0
SPLINE
  5
66E
100
AcDbEntity
  8
RACCORDO
100
AcDbSpline
 62
7
  6
CONTINUOUS
 70
0
 71
3
 72
23
 73
19
 74
17
 42
0.0000001
 43
0.0000001
 44
0.0000000001
 12
-0.0109831168
 22
-0.4998767708
 32
0.0
 13
0.2489219696
 23
-0.4336303356
 33
0.0
 40
0.0
 40
0.0
 40
0.0
 40
0.0
 40
0.1908255336
 40
0.3746346274
 40
0.5446932409
 40
0.6225884221
 40
0.6947556584
 40
0.7605292308
 40
0.8193032635
 40
0.8705375976
 40
0.9137614588
 40
0.9485781389
 40
0.9627320299
 40
0.9746716736
 40
0.9843749105
 40
0.9918248884
 40
0.9970209358
 40
1.0
 40
1.0
 40
1.0
 40
1.0
 10
-68.161176136
 20
-21.8998857286
 30
0.0
 10
-68.1618747557
 20
-21.9316821458
 30
0.0
 10
-68.1631256014
 20
-21.9941085514
 30
0.0
 10
-68.1646492048
 20
-22.0848776565
 30
0.0
 10
-68.1655801436
 20
-22.156831996
 30
0.0
 10
-68.1660790009
 20
-22.2101829449
 30
0.0
 10
-68.16631778
 20
-22.2461546808
 30
0.0
 10
-68.1664311921
 20
-22.2789401961
 30
0.0
 10
-68.1664176186
 20
-22.3082371013
 30
0.0
 10
-68.1662805408
 20
-22.3337755035
 30
0.0
 10
-68.166022219
 20
-22.3553196836
 30
0.0
 10
-68.165685504
 20
-22.3706824916
 30
0.0
 10
-68.1653470995
 20
-22.3808279998
 30
0.0
 10
-68.1650892146
 20
-22.3867900147
 30
0.0
 10
-68.1647923559
 20
-22.3916264645
 30
0.0
 10
-68.1644631255
 20
-22.3953465467
 30
0.0
 10
-68.1640696727
 20
-22.397904566
 30
0.0
 10
-68.1637576227
 20
-22.3992605945
 30
0.0
 10
-68.1635104378
 20
-22.3996911987
 30
0.0
 11
-68.161176136
 21
-21.8998857286
 31
0.0
 11
-68.1630963785
 21
-21.995278677
 31
0.0
 11
-68.1646264633
 21
-22.0871700108
 31
0.0
 11
-68.1657091369
 21
-22.1721919848
 31
0.0
 11
-68.166069649
 21
-22.2111377055
 31
0.0
 11
-68.1663048513
 21
-22.2472203705
 31
0.0
 11
-68.1664125196
 21
-22.2801068104
 31
0.0
 11
-68.1663913705
 21
-22.3094936673
 31
0.0
 11
-68.1662427045
 21
-22.3351102705
 31
0.0
 11
-68.1659658227
 21
-22.3567203156
 31
0.0
 11
-68.1655629186
 21
-22.3741239025
 31
0.0
 11
-68.1653221425
 21
-22.3811967143
 31
0.0
 11
-68.1650533452
 21
-22.3871604508
 31
0.0
 11
-68.1647445139
 21
-22.3920022047
 31
0.0
 11
-68.1643840599
 21
-22.3957096934
 31
0.0
 11
-68.1639709471
 21
-22.3982746486
 31
0.0
 11
-68.1635104378
 21
-22.3996911987
 31
0.0
  0
LINE
  5
66F
100
AcDbEntity
  8
RACCORDO
100
AcDbLine
 62
7
  6
CONTINUOUS
 10
-69.4148168978
 20
22.3334109614
 11
-68.163362465
 21
22.3997080771
  0
SPLINE
  5
670
100
AcDbEntity
  8
RACCORDO
100
AcDbSpline
 62
253
  6
CONTINUOUS
 70
0
 71
3
 72
25
 73
21
 74
19
 42
0.0000001
 43
0.0000001
 44
0.0000000001
 12
-0.0261538148
 22
0.4991965474
 32
0.0
 13
0.499196131
 23
0.0261617607
 33
0.0
 40
0.0
 40
0.0
 40
0.0
 40
0.0
 40
0.195012639
 40
0.3824957335
 40
0.4711548313
 40
0.5552736861
 40
0.6340445001
 40
0.7067096427
 40
0.772572139
 40
0.8309983177
 40
0.8814267904
 40
0.9233766883
 40
0.9410430149
 40
0.9564476559
 40
0.9695519406
 40
0.9803282389
 40
0.9887549055
 40
0.9948165377
 40
0.998523322
 40
1.0
 40
1.0
 40
1.0
 40
1.0
 10
-75.8026995789
 20
21.4994104546
 30
0.0
 10
-75.8043996871
 20
21.5318603333
 30
0.0
 10
-75.807627044
 20
21.5955128492
 30
0.0
 10
-75.8113290163
 20
21.6739328607
 30
0.0
 10
-75.8139786955
 20
21.7339036348
 30
0.0
 10
-75.8157372222
 20
21.7757816013
 30
0.0
 10
-75.8172877949
 20
21.81500081
 30
0.0
 10
-75.8186158148
 20
21.8511843196
 30
0.0
 10
-75.8197089871
 20
21.8839839825
 30
0.0
 10
-75.8205578495
 20
21.9130844307
 30
0.0
 10
-75.8211548448
 20
21.9382052754
 30
0.0
 10
-75.821456989
 20
21.9565402795
 30
0.0
 10
-75.8215522308
 20
21.9690392541
 30
0.0
 10
-75.8215539961
 20
21.9767363485
 30
0.0
 10
-75.8214917832
 20
21.9832734519
 30
0.0
 10
-75.8213652927
 20
21.9886797825
 30
0.0
 10
-75.8211820513
 20
21.9928231347
 30
0.0
 10
-75.8209376715
 20
21.995990051
 30
0.0
 10
-75.820672431
 20
21.9975846231
 30
0.0
 10
-75.8203870712
 20
21.9987123445
 30
0.0
 10
-75.8201413538
 20
21.998725222
 30
0.0
 11
-75.8026995789
 21
21.4994104546
 31
0.0
 11
-75.807632869
 21
21.5967686982
 31
0.0
 11
-75.8120415563
 21
21.6903842198
 31
0.0
 11
-75.8139955245
 21
21.7346601411
 31
0.0
 11
-75.8157568788
 21
21.7766726695
 31
0.0
 11
-75.8173086822
 21
21.8160181286
 31
0.0
 11
-75.8186360018
 21
21.8523178083
 31
0.0
 11
-75.8197261131
 21
21.88522318
 31
0.0
 11
-75.8205684903
 21
21.9144171777
 31
0.0
 11
-75.8211550149
 21
21.9396185989
 31
0.0
 11
-75.8214800903
 21
21.9605860445
 31
0.0
 11
-75.821543482
 21
21.9694168815
 31
0.0
 11
-75.8215405841
 21
21.9771173714
 31
0.0
 11
-75.8214713302
 21
21.9836675909
 31
0.0
 11
-75.8213359091
 21
21.9890527574
 31
0.0
 11
-75.8211346179
 21
21.9932602774
 31
0.0
 11
-75.8208678416
 21
21.9962786067
 31
0.0
 11
-75.8205364227
 21
21.9981016788
 31
0.0
 11
-75.8201413538
 21
21.998725222
 31
0.0
  0
LINE
  5
671
100
AcDbEntity
  8
RACCORDO
100
AcDbLine
 62
7
  6
CONTINUOUS
 10
-68.163362465
 20
-22.3997080771
 11
-69.4148168978
 21
-22.3334109614
  0
SPLINE
  5
672
100
AcDbEntity
  8
RACCORDO
100
AcDbSpline
 62
253
  6
CONTINUOUS
 70
0
 71
3
 72
25
 73
21
 74
19
 42
0.0000001
 43
0.0000001
 44
0.0000000001
 12
-0.0261538139
 22
-0.4991965474
 32
0.0
 13
0.499196131
 23
-0.0261617607
 33
0.0
 40
0.0
 40
0.0
 40
0.0
 40
0.0
 40
0.1950126392
 40
0.3824957337
 40
0.4711548316
 40
0.5552736864
 40
0.6340445003
 40
0.7067096429
 40
0.7725721393
 40
0.8309983179
 40
0.8814267906
 40
0.9233766885
 40
0.9410430151
 40
0.9564476561
 40
0.9695519408
 40
0.980328239
 40
0.9887549056
 40
0.9948165378
 40
0.998523322
 40
1.0
 40
1.0
 40
1.0
 40
1.0
 10
-75.8026995789
 20
-21.4994104546
 30
0.0
 10
-75.804399687
 20
-21.5318603333
 30
0.0
 10
-75.8076270438
 20
-21.5955128493
 30
0.0
 10
-75.811329016
 20
-21.6739328608
 30
0.0
 10
-75.8139786952
 20
-21.7339036349
 30
0.0
 10
-75.8157372219
 20
-21.7757816014
 30
0.0
 10
-75.8172877945
 20
-21.8150008101
 30
0.0
 10
-75.8186158144
 20
-21.8511843197
 30
0.0
 10
-75.8197089867
 20
-21.8839839826
 30
0.0
 10
-75.8205578491
 20
-21.9130844307
 30
0.0
 10
-75.8211548444
 20
-21.9382052754
 30
0.0
 10
-75.8214569887
 20
-21.9565402795
 30
0.0
 10
-75.8215522305
 20
-21.9690392541
 30
0.0
 10
-75.8215539959
 20
-21.9767363485
 30
0.0
 10
-75.821491783
 20
-21.9832734519
 30
0.0
 10
-75.8213652925
 20
-21.9886797825
 30
0.0
 10
-75.8211820511
 20
-21.9928231347
 30
0.0
 10
-75.8209376714
 20
-21.995990051
 30
0.0
 10
-75.8206724309
 20
-21.997584623
 30
0.0
 10
-75.8203870712
 20
-21.9987123445
 30
0.0
 10
-75.8201413538
 20
-21.998725222
 30
0.0
 11
-75.8026995789
 21
-21.4994104546
 31
0.0
 11
-75.8076328688
 21
-21.5967686983
 31
0.0
 11
-75.812041556
 21
-21.6903842199
 31
0.0
 11
-75.8139955241
 21
-21.7346601413
 31
0.0
 11
-75.8157568784
 21
-21.7766726696
 31
0.0
 11
-75.8173086818
 21
-21.8160181287
 31
0.0
 11
-75.8186360014
 21
-21.8523178084
 31
0.0
 11
-75.8197261127
 21
-21.8852231801
 31
0.0
 11
-75.82056849
 21
-21.9144171778
 31
0.0
 11
-75.8211550145
 21
-21.939618599
 31
0.0
 11
-75.82148009
 21
-21.9605860445
 31
0.0
 11
-75.8215434817
 21
-21.9694168815
 31
0.0
 11
-75.8215405838
 21
-21.9771173714
 31
0.0
 11
-75.82147133
 21
-21.9836675909
 31
0.0
 11
-75.8213359089
 21
-21.9890527574
 31
0.0
 11
-75.8211346178
 21
-21.9932602774
 31
0.0
 11
-75.8208678415
 21
-21.9962786067
 31
0.0
 11
-75.8205364226
 21
-21.9981016788
 31
0.0
 11
-75.8201413538
 21
-21.998725222
 31
0.0
  0
SPLINE
  5
673
100
AcDbEntity
  8
RACCORDO
100
AcDbSpline
 62
7
  6
CONTINUOUS
 70
0
 71
3
 72
13
 73
9
 74
7
 42
0.0000001
 43
0.0000001
 44
0.0000000001
 12
-0.244242873
 22
0.1515552602
 32
0.0
 13
-0.2489102009
 23
0.1437120196
 33
0.0
 40
0.0
 40
0.0
 40
0.0
 40
0.0
 40
0.0225227418
 40
0.0871911485
 40
0.1883898844
 40
0.3188730435
 40
0.6394257438
 40
1.0
 40
1.0
 40
1.0
 40
1.0
 10
-67.163362465
 20
23.7
 30
0.0
 10
-67.165196138
 20
23.7011378133
 30
0.0
 10
-67.1723293458
 20
23.7054848553
 30
0.0
 10
-67.187950413
 20
23.714529035
 30
0.0
 10
-67.212454045
 20
23.7288695759
 30
0.0
 10
-67.2582142963
 20
23.7554260659
 30
0.0
 10
-67.3254899852
 20
23.794414983
 30
0.0
 10
-67.3819911619
 20
23.8270646158
 30
0.0
 10
-67.4119080321
 20
23.8443375673
 30
0.0
 11
-67.163362465
 21
23.7
 31
0.0
 11
-67.168887805
 21
23.7033728661
 31
0.0
 11
-67.1849154579
 21
23.7127849448
 31
0.0
 11
-67.2100405886
 21
23.7274391667
 31
0.0
 11
-67.242465465
 21
23.7462838901
 31
0.0
 11
-67.3221817136
 21
23.7924766616
 31
0.0
 11
-67.4119080321
 21
23.8443375673
 31
0.0
  0
SPLINE
  5
674
100
AcDbEntity
  8
RACCORDO
100
AcDbSpline
 62
253
  6
CONTINUOUS
 70
0
 71
3
 72
26
 73
22
 74
20
 42
0.0000001
 43
0.0000001
 44
0.0000000001
 12
0.1246415819
 22
0.2158928597
 32
0.0
 13
-0.2158910329
 23
0.124644746
 33
0.0
 40
0.0
 40
0.0
 40
0.0
 40
0.0
 40
0.1952381202
 40
0.3828749837
 40
0.5557520914
 40
0.6345520338
 40
0.7072376715
 40
0.7731076099
 40
0.8315332255
 40
0.8819531408
 40
0.9238816554
 40
0.9415349362
 40
0.956920956
 40
0.9700021908
 40
0.9807506497
 40
0.9891391341
 40
0.9951459668
 40
0.9972533322
 40
0.9987625092
 40
0.9996742481
 40
1.0
 40
1.0
 40
1.0
 40
1.0
 10
-67.4119080321
 20
-23.8443375673
 30
0.0
 10
-67.4037964361
 20
-23.8302873953
 30
0.0
 10
-67.3879024285
 20
-23.8027263462
 30
0.0
 10
-67.3648723589
 20
-23.7626975296
 30
0.0
 10
-67.3467030973
 20
-23.7310348314
 30
0.0
 10
-67.3333133458
 20
-23.707642512
 30
0.0
 10
-67.3243537259
 20
-23.6919599588
 30
0.0
 10
-67.3162478269
 20
-23.6777395348
 30
0.0
 10
-67.3090733329
 20
-23.665117869
 30
0.0
 10
-67.3028990298
 20
-23.654216121
 30
0.0
 10
-67.2984111063
 20
-23.6462528618
 30
0.0
 10
-67.2953665899
 20
-23.6408180688
 30
0.0
 10
-67.2935004614
 20
-23.6374703242
 30
0.0
 10
-67.2919226851
 20
-23.6346199763
 30
0.0
 10
-67.2906333945
 20
-23.6322711012
 30
0.0
 10
-67.2896445791
 20
-23.630437018
 30
0.0
 10
-67.2889947036
 20
-23.629215972
 30
0.0
 10
-67.2886470712
 20
-23.6285133592
 30
0.0
 10
-67.2884634664
 20
-23.628155318
 30
0.0
 10
-67.2884104383
 20
-23.6279791452
 30
0.0
 10
-67.2883390227
 20
-23.6278447508
 30
0.0
 10
-67.288362465
 20
-23.6278312164
 30
0.0
 11
-67.4119080321
 21
-23.8443375673
 31
0.0
 11
-67.3875941308
 21
-23.8021749995
 31
0.0
 11
-67.3642686524
 21
-23.7616298799
 31
0.0
 11
-67.342821501
 21
-23.7242490909
 31
0.0
 11
-67.3330633706
 21
-23.707200175
 31
0.0
 11
-67.3240754606
 21
-23.6914666636
 31
0.0
 11
-67.3159445166
 21
-23.6772003888
 31
0.0
 11
-67.308748137
 21
-23.6645375218
 31
0.0
 11
-67.3025554861
 21
-23.6535997554
 31
0.0
 11
-67.297426247
 21
-23.6444924903
 31
0.0
 11
-67.2952759196
 21
-23.6406528374
 31
0.0
 11
-67.2934091072
 21
-23.6373022208
 31
0.0
 11
-67.2918303794
 21
-23.634448831
 31
0.0
 11
-67.290543126
 21
-23.6320988139
 31
0.0
 11
-67.2895506554
 21
-23.6302581736
 31
0.0
 11
-67.2888556224
 21
-23.628931804
 31
0.0
 11
-67.2886200317
 21
-23.6284622474
 31
0.0
 11
-67.2884592252
 21
-23.6281221236
 31
0.0
 11
-67.2883733279
 21
-23.6279116931
 31
0.0
 11
-67.288362465
 21
-23.6278312164
 31
0.0
  0
LINE
  5
675
100
AcDbEntity
  8
RACCORDO
100
AcDbLine
 62
7
  6
CONTINUOUS
 10
-68.163362465
 20
24.2500042308
 11
-68.163362465
 21
24.5
  0
SPLINE
  5
676
100
AcDbEntity
  8
RACCORDO
100
AcDbSpline
 62
253
  6
CONTINUOUS
 70
0
 71
3
 72
26
 73
22
 74
20
 42
0.0000001
 43
0.0000001
 44
0.0000000001
 12
-0.0014544633
 22
0.2500094735
 32
0.0
 13
0.2500094731
 23
0.0014545125
 33
0.0
 40
0.0
 40
0.0
 40
0.0
 40
0.0
 40
0.1950812131
 40
0.3826499456
 40
0.5555245119
 40
0.6343402047
 40
0.7070490478
 40
0.7729468713
 40
0.8314025054
 40
0.881852257
 40
0.9238084245
 40
0.9414741935
 40
0.956871577
 40
0.9699629139
 40
0.9807201421
 40
0.9891160416
 40
0.9951290477
 40
0.9972391968
 40
0.998751184
 40
0.9996663718
 40
1.0
 40
1.0
 40
1.0
 40
1.0
 10
-70.4148168978
 20
24.2369056521
 30
0.0
 10
-70.4149114773
 20
24.2531630359
 30
0.0
 10
-70.4150790834
 20
24.2850518473
 30
0.0
 10
-70.4152683231
 20
24.3313477175
 30
0.0
 10
-70.4153703136
 20
24.3679545131
 30
0.0
 10
-70.4154118523
 20
24.3949892244
 30
0.0
 10
-70.4154225502
 20
24.4131087486
 30
0.0
 10
-70.4154137675
 20
24.4295315059
 30
0.0
 10
-70.4153857842
 20
24.4440992271
 30
0.0
 10
-70.4153389625
 20
24.4566716056
 30
0.0
 10
-70.415282497
 20
24.4658446582
 30
0.0
 10
-70.4152254784
 20
24.4720962472
 30
0.0
 10
-70.4151810123
 20
24.4759426689
 30
0.0
 10
-70.4151321709
 20
24.4792122353
 30
0.0
 10
-70.4150805175
 20
24.4819010268
 30
0.0
 10
-70.4150233573
 20
24.4839921979
 30
0.0
 10
-70.4149743733
 20
24.4853791703
 30
0.0
 10
-70.4149233195
 20
24.4861657167
 30
0.0
 10
-70.4148983737
 20
24.4865675339
 30
0.0
 10
-70.414857912
 20
24.4867510864
 30
0.0
 10
-70.4148447012
 20
24.4869012595
 30
0.0
 10
-70.4148168978
 20
24.4869014213
 30
0.0
 11
-70.4148168978
 21
24.2369056521
 31
0.0
 11
-70.4150726906
 21
24.285677958
 31
0.0
 11
-70.4152627419
 21
24.3325723265
 31
0.0
 11
-70.4153797874
 21
24.3757931787
 31
0.0
 11
-70.4154094019
 21
24.3954981598
 31
0.0
 11
-70.4154193088
 21
24.4136763643
 31
0.0
 11
-70.4154094019
 21
24.4301517203
 31
0.0
 11
-70.4153797874
 21
24.4447663999
 31
0.0
 11
-70.4153307454
 21
24.4573794338
 31
0.0
 11
-70.4152627419
 21
24.4678688302
 31
0.0
 11
-70.4152218348
 21
24.4722853251
 31
0.0
 11
-70.4151764515
 21
24.4761346145
 31
0.0
 11
-70.4151266974
 21
24.4794072499
 31
0.0
 11
-70.4150726906
 21
24.4820961621
 31
0.0
 11
-70.4150145499
 21
24.4841944467
 31
0.0
 11
-70.4149524142
 21
24.485696496
 31
0.0
 11
-70.4149199052
 21
24.4862230596
 31
0.0
 11
-70.414886467
 21
24.4865995953
 31
0.0
 11
-70.4148521233
 21
24.4868258127
 31
0.0
 11
-70.4148168978
 21
24.4869014213
 31
0.0
  0
SPLINE
  5
677
100
AcDbEntity
  8
RACCORDO
100
AcDbSpline
 62
253
  6
CONTINUOUS
 70
0
 71
3
 72
26
 73
22
 74
20
 42
0.0000001
 43
0.0000001
 44
0.0000000001
 12
0.0014544633
 22
0.2500094735
 32
0.0
 13
-0.2500094733
 23
0.0014545126
 33
0.0
 40
0.0
 40
0.0
 40
0.0
 40
0.0
 40
0.1950806194
 40
0.3826494983
 40
0.5555241467
 40
0.6343398971
 40
0.7070487948
 40
0.7729466726
 40
0.831402351
 40
0.8818521527
 40
0.9238083539
 40
0.9414741419
 40
0.9568715356
 40
0.9699628847
 40
0.9807201252
 40
0.9891160312
 40
0.9951290418
 40
0.9972391931
 40
0.9987511822
 40
0.9996663713
 40
1.0
 40
1.0
 40
1.0
 40
1.0
 10
-67.4119080321
 20
24.2456323968
 30
0.0
 10
-67.4118134529
 20
24.2618897311
 30
0.0
 10
-67.411645847
 20
24.2937785053
 30
0.0
 10
-67.4114566072
 20
24.340074345
 30
0.0
 10
-67.4113546165
 20
24.3766811645
 30
0.0
 10
-67.4113130777
 20
24.403715892
 30
0.0
 10
-67.4113023797
 20
24.42183543
 30
0.0
 10
-67.4113111623
 20
24.4382582001
 30
0.0
 10
-67.4113391457
 20
24.4528259337
 30
0.0
 10
-67.4113859673
 20
24.4653983228
 30
0.0
 10
-67.4114424328
 20
24.4745713841
 30
0.0
 10
-67.4114994513
 20
24.4808229782
 30
0.0
 10
-67.4115439175
 20
24.4846694034
 30
0.0
 10
-67.4115927589
 20
24.4879389728
 30
0.0
 10
-67.4116444123
 20
24.4906277668
 30
0.0
 10
-67.4117015726
 20
24.4927189398
 30
0.0
 10
-67.4117505566
 20
24.4941059134
 30
0.0
 10
-67.4118016104
 20
24.4948924604
 30
0.0
 10
-67.4118265562
 20
24.4952942782
 30
0.0
 10
-67.4118670179
 20
24.4954778309
 30
0.0
 10
-67.4118802287
 20
24.4956280042
 30
0.0
 10
-67.4119080321
 20
24.495628166
 30
0.0
 11
-67.4119080321
 21
24.2456323968
 31
0.0
 11
-67.41165224
 21
24.2944045543
 31
0.0
 11
-67.4114621884
 21
24.3412989594
 31
0.0
 11
-67.4113451427
 21
24.3845198321
 31
0.0
 11
-67.4113155281
 21
24.4042248276
 31
0.0
 11
-67.4113056211
 21
24.4224030457
 31
0.0
 11
-67.4113155279
 21
24.4388784153
 31
0.0
 11
-67.4113451424
 21
24.453493106
 31
0.0
 11
-67.4113941844
 21
24.4661061524
 31
0.0
 11
-67.4114621879
 21
24.4765955573
 31
0.0
 11
-67.411503095
 21
24.4810120569
 31
0.0
 11
-67.4115484783
 21
24.4848613489
 31
0.0
 11
-67.4115982323
 21
24.4881339873
 31
0.0
 11
-67.4116522392
 21
24.4908229026
 31
0.0
 11
-67.41171038
 21
24.4929211888
 31
0.0
 11
-67.4117725157
 21
24.4944232392
 31
0.0
 11
-67.4118050248
 21
24.4949498034
 31
0.0
 11
-67.4118384629
 21
24.4953263395
 31
0.0
 11
-67.4118728066
 21
24.4955525572
 31
0.0
 11
-67.4119080321
 21
24.495628166
 31
0.0
  0
SPLINE
  5
678
100
AcDbEntity
  8
RACCORDO
100
AcDbSpline
 62
7
  6
CONTINUOUS
 70
0
 71
3
 72
13
 73
9
 74
7
 42
0.0000001
 43
0.0000001
 44
0.0000000001
 12
0.244242873
 22
0.1515552602
 32
0.0
 13
0.2489102009
 23
0.1437120196
 33
0.0
 40
0.0
 40
0.0
 40
0.0
 40
0.0
 40
0.0225227418
 40
0.0871911485
 40
0.1883898844
 40
0.3188730435
 40
0.6394257438
 40
1.0
 40
1.0
 40
1.0
 40
1.0
 10
-69.663362465
 20
23.1226497308
 30
0.0
 10
-69.6615287919
 20
23.1237875441
 30
0.0
 10
-69.6543955842
 20
23.1281345861
 30
0.0
 10
-69.6387745169
 20
23.1371787658
 30
0.0
 10
-69.6142708849
 20
23.1515193067
 30
0.0
 10
-69.5685106336
 20
23.1780757967
 30
0.0
 10
-69.5012349447
 20
23.2170647138
 30
0.0
 10
-69.444733768
 20
23.2497143466
 30
0.0
 10
-69.4148168978
 20
23.2669872981
 30
0.0
 11
-69.663362465
 21
23.1226497308
 31
0.0
 11
-69.6578371249
 21
23.1260225969
 31
0.0
 11
-69.641809472
 21
23.1354346756
 31
0.0
 11
-69.6166843413
 21
23.1500888975
 31
0.0
 11
-69.584259465
 21
23.1689336209
 31
0.0
 11
-69.5045432163
 21
23.2151263924
 31
0.0
 11
-69.4148168978
 21
23.2669872981
 31
0.0
  0
LINE
  5
679
100
AcDbEntity
  8
RACCORDO
100
AcDbLine
 62
7
  6
CONTINUOUS
 10
-68.163362465
 20
-24.5
 11
-68.163362465
 21
-24.2500042308
  0
SPLINE
  5
67A
100
AcDbEntity
  8
RACCORDO
100
AcDbSpline
 62
253
  6
CONTINUOUS
 70
0
 71
3
 72
26
 73
22
 74
20
 42
0.0000001
 43
0.0000001
 44
0.0000000001
 12
0.2500094735
 22
0.0014545125
 32
0.0
 13
-0.0014544633
 23
0.2500094737
 33
0.0
 40
0.0
 40
0.0
 40
0.0
 40
0.0
 40
0.0003336228
 40
0.0012487957
 40
0.0027607629
 40
0.0048708913
 40
0.0108838711
 40
0.0192797588
 40
0.0300369534
 40
0.0431282632
 40
0.0585256394
 40
0.076191382
 40
0.1181475232
 40
0.1685972475
 40
0.2270528812
 40
0.2929506998
 40
0.3656595516
 40
0.4444752648
 40
0.6173498903
 40
0.804918698
 40
1.0
 40
1.0
 40
1.0
 40
1.0
 10
-67.4119080321
 20
-24.495628166
 30
0.0
 10
-67.4118802292
 20
-24.4956280042
 30
0.0
 10
-67.4118670173
 20
-24.4954778342
 30
0.0
 10
-67.4118265566
 20
-24.4952942839
 30
0.0
 10
-67.4118016104
 20
-24.4948924719
 30
0.0
 10
-67.4117505569
 20
-24.4941059308
 30
0.0
 10
-67.4117015731
 20
-24.4927189634
 30
0.0
 10
-67.4116444132
 20
-24.4906277983
 30
0.0
 10
-67.4115927597
 20
-24.4879390129
 30
0.0
 10
-67.4115439182
 20
-24.4846694521
 30
0.0
 10
-67.411499452
 20
-24.4808230354
 30
0.0
 10
-67.4114424331
 20
-24.4745714515
 30
0.0
 10
-67.4113859678
 20
-24.4653984055
 30
0.0
 10
-67.4113391459
 20
-24.4528260315
 30
0.0
 10
-67.4113111625
 20
-24.438258313
 30
0.0
 10
-67.4113023797
 20
-24.4218355554
 30
0.0
 10
-67.4113130776
 20
-24.4037160292
 30
0.0
 10
-67.4113546162
 20
-24.3766813105
 30
0.0
 10
-67.4114566067
 20
-24.340074502
 30
0.0
 10
-67.4116458464
 20
-24.2937786131
 30
0.0
 10
-67.4118134526
 20
-24.261889788
 30
0.0
 10
-67.4119080321
 20
-24.2456323968
 30
0.0
 11
-67.4119080321
 21
-24.495628166
 31
0.0
 11
-67.4118728067
 21
-24.4955525589
 31
0.0
 11
-67.411838463
 21
-24.4953263453
 31
0.0
 11
-67.4118050249
 21
-24.4949498146
 31
0.0
 11
-67.411772516
 21
-24.4944232561
 31
0.0
 11
-67.4117103806
 21
-24.4929212134
 31
0.0
 11
-67.41165224
 21
-24.4908229318
 31
0.0
 11
-67.4115982332
 21
-24.488134028
 31
0.0
 11
-67.411548479
 21
-24.4848613993
 31
0.0
 11
-67.4115030956
 21
-24.4810121118
 31
0.0
 11
-67.4114621884
 21
-24.4765956235
 31
0.0
 11
-67.4113941848
 21
-24.4661062336
 31
0.0
 11
-67.4113451427
 21
-24.4534932065
 31
0.0
 11
-67.4113155281
 21
-24.438878527
 31
0.0
 11
-67.4113056211
 21
-24.4224031722
 31
0.0
 11
-67.4113155279
 21
-24.4042249656
 31
0.0
 11
-67.4113451424
 21
-24.3845199794
 31
0.0
 11
-67.4114621879
 21
-24.3412991123
 31
0.0
 11
-67.4116522392
 21
-24.294404725
 31
0.0
 11
-67.4119080321
 21
-24.2456323968
 31
0.0
  0
SPLINE
  5
67B
100
AcDbEntity
  8
RACCORDO
100
AcDbSpline
 62
7
  6
CONTINUOUS
 70
0
 71
3
 72
9
 73
5
 74
3
 42
0.0000001
 43
0.0000001
 44
0.0000000001
 12
-0.1240356311
 22
-0.0065920554
 32
0.0
 13
-0.1240404534
 23
-0.0065006847
 33
0.0
 40
0.0
 40
0.0
 40
0.0
 40
0.0
 40
0.517786632
 40
1.0
 40
1.0
 40
1.0
 40
1.0
 10
-69.4148168978
 20
22.3334109614
 30
0.0
 10
-69.436224895
 20
22.332273202
 30
0.0
 10
-69.4775889144
 20
22.3304456948
 30
0.0
 10
-69.5189676187
 20
22.3289557443
 30
0.0
 10
-69.538905607
 20
22.3279108386
 30
0.0
 11
-69.4148168978
 21
22.3334109614
 31
0.0
 11
-69.4790643046
 21
22.3304711844
 31
0.0
 11
-69.538905607
 21
22.3279108386
 31
0.0
  0
SPLINE
  5
67C
100
AcDbEntity
  8
ASSI
100
AcDbSpline
 62
7
  6
CONTINUOUS
 70
0
 71
3
 72
9
 73
5
 74
3
 42
0.0000001
 43
0.0000001
 44
0.0000000001
 12
-0.1240359939
 22
-0.0065920747
 32
0.0
 13
-0.1240408162
 23
-0.0065007037
 33
0.0
 40
0.0
 40
0.0
 40
0.0
 40
0.0
 40
0.2611949036
 40
1.0
 40
1.0
 40
1.0
 40
1.0
 10
-69.4148168978
 20
22.3334109614
 30
0.0
 10
-69.4256160876
 20
22.3328370226
 30
0.0
 10
-69.4669696104
 20
22.3307890007
 30
0.0
 10
-69.5083582779
 20
22.3295117563
 30
0.0
 10
-69.538905607
 20
22.3279108386
 30
0.0
 11
-69.4148168978
 21
22.3334109614
 31
0.0
 11
-69.4472211441
 21
22.3318197414
 31
0.0
 11
-69.538905607
 21
22.3279108386
 31
0.0
  0
SPLINE
  5
67D
100
AcDbEntity
  8
ASSI
100
AcDbSpline
 62
7
  6
CONTINUOUS
 70
0
 71
3
 72
10
 73
6
 74
4
 42
0.0000001
 43
0.0000001
 44
0.0000000001
 12
0.2468061581
 22
0.1473028788
 32
0.0
 13
0.248909544
 23
0.1437116403
 33
0.0
 40
0.0
 40
0.0
 40
0.0
 40
0.0
 40
0.0871889439
 40
0.4713907488
 40
1.0
 40
1.0
 40
1.0
 40
1.0
 10
-69.663362465
 20
23.1226497308
 30
0.0
 10
-69.6561895422
 20
23.1269307916
 30
0.0
 10
-69.6173426971
 20
23.1499640076
 30
0.0
 10
-69.5343284095
 20
23.1977960862
 30
0.0
 10
-69.458675527
 20
23.2416648639
 30
0.0
 10
-69.4148168978
 20
23.2669872981
 30
0.0
 11
-69.663362465
 21
23.1226497308
 31
0.0
 11
-69.641809472
 21
23.1354346756
 31
0.0
 11
-69.5463381655
 21
23.1909254719
 31
0.0
 11
-69.4148168978
 21
23.2669872981
 31
0.0
  0
SPLINE
  5
67E
100
AcDbEntity
  8
ASSI
100
AcDbSpline
 62
253
  6
CONTINUOUS
 70
0
 71
3
 72
21
 73
17
 74
15
 42
0.0000001
 43
0.0000001
 44
0.0000000001
 12
-0.1246405831
 22
-0.2158911296
 32
0.0
 13
0.2158893029
 23
-0.1246437471
 33
0.0
 40
0.0
 40
0.0
 40
0.0
 40
0.0
 40
0.1952396848
 40
0.3828780519
 40
0.5557565449
 40
0.7072433258
 40
0.7731137921
 40
0.8315398759
 40
0.8819601952
 40
0.9238890458
 40
0.9569285914
 40
0.9807584232
 40
0.9891469748
 40
0.9951538556
 40
0.9987701865
 40
1.0
 40
1.0
 40
1.0
 40
1.0
 10
-70.4148168978
 20
23.8443375673
 30
0.0
 10
-70.4229284938
 20
23.8302873953
 30
0.0
 10
-70.4388224773
 20
23.8027263418
 30
0.0
 10
-70.4618526493
 20
23.762697544
 30
0.0
 10
-70.4830277322
 20
23.7257961097
 30
0.0
 10
-70.4991286798
 20
23.6976485168
 30
0.0
 10
-70.5104768109
 20
23.6777396971
 30
0.0
 10
-70.5176525508
 20
23.6651173745
 30
0.0
 10
-70.5238230692
 20
23.6542175818
 30
0.0
 10
-70.5289494391
 20
23.6451349681
 30
0.0
 10
-70.5329289259
 20
23.6379844567
 30
0.0
 10
-70.535611635
 20
23.6332081001
 30
0.0
 10
-70.5370429223
 20
23.6304556264
 30
0.0
 10
-70.5378727463
 20
23.6290630161
 30
0.0
 10
-70.5380440179
 20
23.628379091
 30
0.0
 10
-70.5384509662
 20
23.6278823125
 30
0.0
 10
-70.538362465
 20
23.6278312164
 30
0.0
 11
-70.4148168978
 21
23.8443375673
 31
0.0
 11
-70.4391307991
 21
23.8021749995
 31
0.0
 11
-70.4624562775
 21
23.7616298799
 31
0.0
 11
-70.4839034289
 21
23.7242490909
 31
0.0
 11
-70.5026494693
 21
23.6914666636
 31
0.0
 11
-70.5107804133
 21
23.6772003888
 31
0.0
 11
-70.5179767929
 21
23.6645375218
 31
0.0
 11
-70.5241694438
 21
23.6535997554
 31
0.0
 11
-70.5292986829
 21
23.6444924903
 31
0.0
 11
-70.5333158227
 21
23.6373022208
 31
0.0
 11
-70.5361818039
 21
23.6320988139
 31
0.0
 11
-70.5371742745
 21
23.6302581736
 31
0.0
 11
-70.5378693075
 21
23.628931804
 31
0.0
 11
-70.5382657047
 21
23.6281221236
 31
0.0
 11
-70.538362465
 21
23.6278312164
 31
0.0
  0
SPLINE
  5
67F
100
AcDbEntity
  8
ASSI
100
AcDbSpline
 62
7
  6
CONTINUOUS
 70
0
 71
3
 72
18
 73
14
 74
12
 42
0.0000001
 43
0.0000001
 44
0.0000000001
 12
-0.2489155653
 22
-0.4336191791
 32
0.0
 13
0.0109828342
 23
-0.49986391
 33
0.0
 40
0.0
 40
0.0
 40
0.0
 40
0.0
 40
0.0081526994
 40
0.0253040301
 40
0.0513978434
 40
0.0862154194
 40
0.1294403926
 40
0.1806760449
 40
0.305226607
 40
0.4552927449
 40
0.6253557337
 40
0.8091695567
 40
1.0
 40
1.0
 40
1.0
 40
1.0
 10
-68.1635104378
 20
22.3996911987
 30
0.0
 10
-68.1641868824
 20
22.3985128097
 30
0.0
 10
-68.1644770971
 20
22.394120577
 30
0.0
 10
-68.1652655668
 20
22.3857302455
 30
0.0
 10
-68.1656019488
 20
22.3726474776
 30
0.0
 10
-68.1660372847
 20
22.3553289407
 30
0.0
 10
-68.1662754855
 20
22.3337723252
 30
0.0
 10
-68.1664794853
 20
22.2972774251
 30
0.0
 10
-68.1663504141
 20
22.2429664475
 30
0.0
 10
-68.165736046
 20
22.1688591504
 30
0.0
 10
-68.1646491122
 20
22.0848775542
 30
0.0
 10
-68.1631256299
 20
21.9941085828
 30
0.0
 10
-68.1618747557
 20
21.9316821458
 30
0.0
 10
-68.161176136
 20
21.8998857286
 30
0.0
 11
-68.1635104378
 21
22.3996911987
 31
0.0
 11
-68.1643840599
 21
22.3957096934
 31
0.0
 11
-68.1650533452
 21
22.3871604508
 31
0.0
 11
-68.1655629186
 21
22.3741239025
 31
0.0
 11
-68.1659658227
 21
22.3567203156
 31
0.0
 11
-68.1662427045
 21
22.3351102705
 31
0.0
 11
-68.1663913705
 21
22.3094936673
 31
0.0
 11
-68.1663048513
 21
22.2472203705
 31
0.0
 11
-68.1657091369
 21
22.1721919848
 31
0.0
 11
-68.1646264633
 21
22.0871700108
 31
0.0
 11
-68.1630963785
 21
21.995278677
 31
0.0
 11
-68.161176136
 21
21.8998857286
 31
0.0
  0
SPLINE
  5
680
100
AcDbEntity
  8
ASSI
100
AcDbSpline
 62
7
  6
CONTINUOUS
 70
0
 71
3
 72
9
 73
5
 74
3
 42
0.0000001
 43
0.0000001
 44
0.0000000001
 12
0.1240403537
 22
-0.0065006795
 32
0.0
 13
0.1240355314
 23
-0.0065920501
 33
0.0
 40
0.0
 40
0.0
 40
0.0
 40
0.0
 40
0.2345560187
 40
1.0
 40
1.0
 40
1.0
 40
1.0
 10
-69.538905607
 20
-22.3279108386
 30
0.0
 10
-69.5292074698
 20
-22.3284190965
 30
0.0
 10
-69.4878417278
 20
-22.3302015871
 30
0.0
 10
-69.4464643148
 20
-22.331729013
 30
0.0
 10
-69.4148168978
 20
-22.3334109614
 30
0.0
 11
-69.538905607
 21
-22.3279108386
 31
0.0
 11
-69.5098016602
 21
-22.3292412515
 31
0.0
 11
-69.4148168978
 21
-22.3334109614
 31
0.0
  0
SPLINE
  5
681
100
AcDbEntity
  8
ASSI
100
AcDbSpline
 62
7
  6
CONTINUOUS
 70
0
 71
3
 72
18
 73
14
 74
12
 42
0.0000001
 43
0.0000001
 44
0.0000000001
 12
-0.0109828342
 22
-0.49986391
 32
0.0
 13
0.2489155653
 23
-0.4336191792
 33
0.0
 40
0.0
 40
0.0
 40
0.0
 40
0.0
 40
0.1908304433
 40
0.3746442663
 40
0.5447072551
 40
0.694773393
 40
0.8193239551
 40
0.8705596074
 40
0.9137845806
 40
0.9486021566
 40
0.9746959699
 40
0.9918473006
 40
1.0
 40
1.0
 40
1.0
 40
1.0
 10
-68.161176136
 20
-21.8998857286
 30
0.0
 10
-68.1618747557
 20
-21.9316821458
 30
0.0
 10
-68.1631256299
 20
-21.9941085828
 30
0.0
 10
-68.1646491122
 20
-22.0848775542
 30
0.0
 10
-68.165736046
 20
-22.1688591504
 30
0.0
 10
-68.1663504141
 20
-22.2429664475
 30
0.0
 10
-68.1664794853
 20
-22.2972774251
 30
0.0
 10
-68.1662754855
 20
-22.3337723252
 30
0.0
 10
-68.1660372847
 20
-22.3553289407
 30
0.0
 10
-68.1656019488
 20
-22.3726474776
 30
0.0
 10
-68.1652655668
 20
-22.3857302455
 30
0.0
 10
-68.1644770971
 20
-22.394120577
 30
0.0
 10
-68.1641868824
 20
-22.3985128097
 30
0.0
 10
-68.1635104378
 20
-22.3996911987
 30
0.0
 11
-68.161176136
 21
-21.8998857286
 31
0.0
 11
-68.1630963785
 21
-21.995278677
 31
0.0
 11
-68.1646264633
 21
-22.0871700108
 31
0.0
 11
-68.1657091369
 21
-22.1721919848
 31
0.0
 11
-68.1663048513
 21
-22.2472203705
 31
0.0
 11
-68.1663913705
 21
-22.3094936673
 31
0.0
 11
-68.1662427045
 21
-22.3351102705
 31
0.0
 11
-68.1659658227
 21
-22.3567203156
 31
0.0
 11
-68.1655629186
 21
-22.3741239025
 31
0.0
 11
-68.1650533452
 21
-22.3871604508
 31
0.0
 11
-68.1643840599
 21
-22.3957096934
 31
0.0
 11
-68.1635104378
 21
-22.3996911987
 31
0.0
  0
LINE
  5
682
100
AcDbEntity
  8
ASSI
100
AcDbLine
 62
7
  6
CONTINUOUS
 10
-69.4148168978
 20
22.3334109614
 11
-68.163362465
 21
22.3997080771
  0
SPLINE
  5
683
100
AcDbEntity
  8
ASSI
100
AcDbSpline
 62
253
  6
CONTINUOUS
 70
0
 71
3
 72
21
 73
17
 74
15
 42
0.0000001
 43
0.0000001
 44
0.0000000001
 12
-0.0261537855
 22
0.4991959868
 32
0.0
 13
0.4991955704
 23
0.0261617313
 33
0.0
 40
0.0
 40
0.0
 40
0.0
 40
0.0
 40
0.195012858
 40
0.382496163
 40
0.5552742049
 40
0.7067101758
 40
0.7725727461
 40
0.8309989903
 40
0.8814275197
 40
0.9233774647
 40
0.9564482346
 40
0.9803282168
 40
0.9887548929
 40
0.9948165319
 40
0.9985233203
 40
1.0
 40
1.0
 40
1.0
 40
1.0
 10
-75.8026995789
 20
21.4994104546
 30
0.0
 10
-75.8043996871
 20
21.5318603333
 30
0.0
 10
-75.8076271037
 20
21.595512842
 30
0.0
 10
-75.811989763
 20
21.6879337876
 30
0.0
 10
-75.8156757501
 20
21.7731167025
 30
0.0
 10
-75.8181780465
 20
21.8380664945
 30
0.0
 10
-75.8197090725
 20
21.8839836771
 30
0.0
 10
-75.8205578289
 20
21.9130853872
 30
0.0
 10
-75.821154855
 20
21.9382024435
 30
0.0
 10
-75.8214992654
 20
21.9591147639
 30
0.0
 10
-75.8215871657
 20
21.9755640457
 30
0.0
 10
-75.8214588808
 20
21.9865217958
 30
0.0
 10
-75.8211822042
 20
21.9928240838
 30
0.0
 10
-75.8209376504
 20
21.9959899201
 30
0.0
 10
-75.8206724328
 20
21.9975846339
 30
0.0
 10
-75.8203870712
 20
21.9987123445
 30
0.0
 10
-75.8201413538
 20
21.998725222
 30
0.0
 11
-75.8026995789
 21
21.4994104546
 31
0.0
 11
-75.807632869
 21
21.5967686982
 31
0.0
 11
-75.8120415563
 21
21.6903842198
 31
0.0
 11
-75.8157568788
 21
21.7766726695
 31
0.0
 11
-75.8186360018
 21
21.8523178083
 31
0.0
 11
-75.8197261131
 21
21.88522318
 31
0.0
 11
-75.8205684903
 21
21.9144171777
 31
0.0
 11
-75.8211550149
 21
21.9396185989
 31
0.0
 11
-75.8214800903
 21
21.9605860445
 31
0.0
 11
-75.8215405841
 21
21.9771173714
 31
0.0
 11
-75.8213359091
 21
21.9890527574
 31
0.0
 11
-75.8211346179
 21
21.9932602774
 31
0.0
 11
-75.8208678416
 21
21.9962786067
 31
0.0
 11
-75.8205364227
 21
21.9981016788
 31
0.0
 11
-75.8201413538
 21
21.998725222
 31
0.0
  0
LINE
  5
684
100
AcDbEntity
  8
ASSI
100
AcDbLine
 62
7
  6
CONTINUOUS
 10
-68.163362465
 20
-22.3997080771
 11
-69.4148168978
 21
-22.3334109614
  0
SPLINE
  5
685
100
AcDbEntity
  8
ASSI
100
AcDbSpline
 62
253
  6
CONTINUOUS
 70
0
 71
3
 72
21
 73
17
 74
15
 42
0.0000001
 43
0.0000001
 44
0.0000000001
 12
-0.0261537846
 22
-0.4991959868
 32
0.0
 13
0.4991955704
 23
-0.0261617313
 33
0.0
 40
0.0
 40
0.0
 40
0.0
 40
0.0
 40
0.1950128581
 40
0.3824961632
 40
0.5552742051
 40
0.706710176
 40
0.7725727463
 40
0.8309989905
 40
0.8814275199
 40
0.9233774649
 40
0.9564482348
 40
0.9803282169
 40
0.988754893
 40
0.9948165319
 40
0.9985233204
 40
1.0
 40
1.0
 40
1.0
 40
1.0
 10
-75.8026995789
 20
-21.4994104546
 30
0.0
 10
-75.804399687
 20
-21.5318603333
 30
0.0
 10
-75.8076271036
 20
-21.5955128421
 30
0.0
 10
-75.8119897627
 20
-21.6879337877
 30
0.0
 10
-75.8156757498
 20
-21.7731167026
 30
0.0
 10
-75.8181780461
 20
-21.8380664946
 30
0.0
 10
-75.8197090721
 20
-21.8839836772
 30
0.0
 10
-75.8205578285
 20
-21.9130853873
 30
0.0
 10
-75.8211548547
 20
-21.9382024436
 30
0.0
 10
-75.8214992651
 20
-21.959114764
 30
0.0
 10
-75.8215871655
 20
-21.9755640457
 30
0.0
 10
-75.8214588806
 20
-21.9865217958
 30
0.0
 10
-75.821182204
 20
-21.9928240838
 30
0.0
 10
-75.8209376503
 20
-21.9959899201
 30
0.0
 10
-75.8206724327
 20
-21.9975846339
 30
0.0
 10
-75.8203870712
 20
-21.9987123445
 30
0.0
 10
-75.8201413538
 20
-21.998725222
 30
0.0
 11
-75.8026995789
 21
-21.4994104546
 31
0.0
 11
-75.8076328688
 21
-21.5967686983
 31
0.0
 11
-75.812041556
 21
-21.6903842199
 31
0.0
 11
-75.8157568784
 21
-21.7766726696
 31
0.0
 11
-75.8186360014
 21
-21.8523178084
 31
0.0
 11
-75.8197261127
 21
-21.8852231801
 31
0.0
 11
-75.82056849
 21
-21.9144171778
 31
0.0
 11
-75.8211550145
 21
-21.939618599
 31
0.0
 11
-75.82148009
 21
-21.9605860445
 31
0.0
 11
-75.8215405838
 21
-21.9771173714
 31
0.0
 11
-75.8213359089
 21
-21.9890527574
 31
0.0
 11
-75.8211346178
 21
-21.9932602774
 31
0.0
 11
-75.8208678415
 21
-21.9962786067
 31
0.0
 11
-75.8205364226
 21
-21.9981016788
 31
0.0
 11
-75.8201413538
 21
-21.998725222
 31
0.0
  0
SPLINE
  5
686
100
AcDbEntity
  8
ASSI
100
AcDbSpline
 62
253
  6
CONTINUOUS
 70
0
 71
3
 72
21
 73
17
 74
15
 42
0.0000001
 43
0.0000001
 44
0.0000000001
 12
-0.1246405831
 22
0.2158911296
 32
0.0
 13
0.2158893029
 23
0.1246437471
 33
0.0
 40
0.0
 40
0.0
 40
0.0
 40
0.0
 40
0.1952399563
 40
0.3828782677
 40
0.5557567231
 40
0.7072434466
 40
0.7731138858
 40
0.8315399475
 40
0.8819602428
 40
0.9238890773
 40
0.9569286093
 40
0.9807584305
 40
0.9891469794
 40
0.9951538583
 40
0.9987701873
 40
1.0
 40
1.0
 40
1.0
 40
1.0
 10
-70.4148168978
 20
-23.8443375673
 30
0.0
 10
-70.4229285051
 20
-23.8302873757
 30
0.0
 10
-70.4388224975
 20
-23.8027263067
 30
0.0
 10
-70.4618526768
 20
-23.7626974961
 30
0.0
 10
-70.4830277535
 20
-23.7257960726
 30
0.0
 10
-70.499128696
 20
-23.6976484884
 30
0.0
 10
-70.5104768226
 20
-23.6777396764
 30
0.0
 10
-70.5176525596
 20
-23.6651173591
 30
0.0
 10
-70.5238230754
 20
-23.6542175708
 30
0.0
 10
-70.528949443
 20
-23.6451349611
 30
0.0
 10
-70.5329289282
 20
-23.6379844526
 30
0.0
 10
-70.5356116361
 20
-23.633208098
 30
0.0
 10
-70.5370429229
 20
-23.6304556253
 30
0.0
 10
-70.5378727466
 20
-23.6290630155
 30
0.0
 10
-70.5380440182
 20
-23.6283790907
 30
0.0
 10
-70.5384509661
 20
-23.6278823125
 30
0.0
 10
-70.538362465
 20
-23.6278312164
 30
0.0
 11
-70.4148168978
 21
-23.8443375673
 31
0.0
 11
-70.4391308329
 21
-23.8021749409
 31
0.0
 11
-70.4624563043
 21
-23.7616298332
 31
0.0
 11
-70.483903451
 21
-23.7242490524
 31
0.0
 11
-70.5026494843
 21
-23.6914666374
 31
0.0
 11
-70.5107804249
 21
-23.6772003685
 31
0.0
 11
-70.5179768017
 21
-23.6645375063
 31
0.0
 11
-70.5241694496
 21
-23.6535997451
 31
0.0
 11
-70.5292986868
 21
-23.6444924834
 31
0.0
 11
-70.5333158248
 21
-23.6373022169
 31
0.0
 11
-70.5361818048
 21
-23.6320988123
 31
0.0
 11
-70.537174275
 21
-23.6302581726
 31
0.0
 11
-70.5378693078
 21
-23.6289318034
 31
0.0
 11
-70.5382657048
 21
-23.6281221234
 31
0.0
 11
-70.538362465
 21
-23.6278312164
 31
0.0
  0
SPLINE
  5
687
100
AcDbEntity
  8
ASSI
100
AcDbSpline
 62
253
  6
CONTINUOUS
 70
0
 71
3
 72
21
 73
17
 74
15
 42
0.0000001
 43
0.0000001
 44
0.0000000001
 12
0.1246405831
 22
0.2158911296
 32
0.0
 13
-0.2158893029
 23
0.1246437471
 33
0.0
 40
0.0
 40
0.0
 40
0.0
 40
0.0
 40
0.1952396848
 40
0.3828780519
 40
0.5557565449
 40
0.7072433258
 40
0.7731137921
 40
0.8315398759
 40
0.8819601952
 40
0.9238890458
 40
0.9569285914
 40
0.9807584232
 40
0.9891469748
 40
0.9951538556
 40
0.9987701865
 40
1.0
 40
1.0
 40
1.0
 40
1.0
 10
-67.4119080321
 20
-23.8443375673
 30
0.0
 10
-67.4037964361
 20
-23.8302873953
 30
0.0
 10
-67.3879024526
 20
-23.8027263418
 30
0.0
 10
-67.3648722807
 20
-23.762697544
 30
0.0
 10
-67.3436971977
 20
-23.7257961097
 30
0.0
 10
-67.3275962501
 20
-23.6976485168
 30
0.0
 10
-67.3162481191
 20
-23.6777396971
 30
0.0
 10
-67.3090723791
 20
-23.6651173745
 30
0.0
 10
-67.3029018607
 20
-23.6542175818
 30
0.0
 10
-67.2977754909
 20
-23.6451349681
 30
0.0
 10
-67.2937960041
 20
-23.6379844567
 30
0.0
 10
-67.2911132949
 20
-23.6332081001
 30
0.0
 10
-67.2896820077
 20
-23.6304556264
 30
0.0
 10
-67.2888521836
 20
-23.6290630161
 30
0.0
 10
-67.288680912
 20
-23.628379091
 30
0.0
 10
-67.2882739638
 20
-23.6278823125
 30
0.0
 10
-67.288362465
 20
-23.6278312164
 30
0.0
 11
-67.4119080321
 21
-23.8443375673
 31
0.0
 11
-67.3875941308
 21
-23.8021749995
 31
0.0
 11
-67.3642686524
 21
-23.7616298799
 31
0.0
 11
-67.342821501
 21
-23.7242490909
 31
0.0
 11
-67.3240754606
 21
-23.6914666636
 31
0.0
 11
-67.3159445166
 21
-23.6772003888
 31
0.0
 11
-67.308748137
 21
-23.6645375218
 31
0.0
 11
-67.3025554861
 21
-23.6535997554
 31
0.0
 11
-67.297426247
 21
-23.6444924903
 31
0.0
 11
-67.2934091072
 21
-23.6373022208
 31
0.0
 11
-67.290543126
 21
-23.6320988139
 31
0.0
 11
-67.2895506554
 21
-23.6302581736
 31
0.0
 11
-67.2888556224
 21
-23.628931804
 31
0.0
 11
-67.2884592252
 21
-23.6281221236
 31
0.0
 11
-67.288362465
 21
-23.6278312164
 31
0.0
  0
SPLINE
  5
688
100
AcDbEntity
  8
ASSI
100
AcDbSpline
 62
7
  6
CONTINUOUS
 70
0
 71
3
 72
10
 73
6
 74
4
 42
0.0000001
 43
0.0000001
 44
0.0000000001
 12
-0.2468061581
 22
0.1473028788
 32
0.0
 13
-0.248909544
 23
0.1437116403
 33
0.0
 40
0.0
 40
0.0
 40
0.0
 40
0.0
 40
0.0871889439
 40
0.4713907488
 40
1.0
 40
1.0
 40
1.0
 40
1.0
 10
-67.163362465
 20
23.7
 30
0.0
 10
-67.1705353877
 20
23.7042810608
 30
0.0
 10
-67.2093822328
 20
23.7273142768
 30
0.0
 10
-67.2923965204
 20
23.7751463554
 30
0.0
 10
-67.3680494029
 20
23.8190151331
 30
0.0
 10
-67.4119080321
 20
23.8443375673
 30
0.0
 11
-67.163362465
 21
23.7
 31
0.0
 11
-67.1849154579
 21
23.7127849448
 31
0.0
 11
-67.2803867644
 21
23.7682757411
 31
0.0
 11
-67.4119080321
 21
23.8443375673
 31
0.0
  0
LINE
  5
689
100
AcDbEntity
  8
ASSI
100
AcDbLine
 62
7
  6
CONTINUOUS
 10
-68.163362465
 20
-24.5
 11
-68.163362465
 21
-24.2500042308
  0
SPLINE
  5
68A
100
AcDbEntity
  8
ASSI
100
AcDbSpline
 62
253
  6
CONTINUOUS
 70
0
 71
3
 72
21
 73
17
 74
15
 42
0.0000001
 43
0.0000001
 44
0.0000000001
 12
0.250006884
 22
0.0014544975
 32
0.0
 13
-0.0014544483
 23
0.2500068842
 33
0.0
 40
0.0
 40
0.0
 40
0.0
 40
0.0
 40
0.0012388839
 40
0.0048606981
 40
0.0108737402
 40
0.0192697148
 40
0.0431183959
 40
0.0761818308
 40
0.1181384067
 40
0.1685886535
 40
0.2270448927
 40
0.2929433937
 40
0.4444695108
 40
0.6173459269
 40
0.8049166774
 40
1.0
 40
1.0
 40
1.0
 40
1.0
 10
-67.4119080321
 20
-24.495628166
 30
0.0
 10
-67.411804789
 20
-24.4956275653
 30
0.0
 10
-67.4118925831
 20
-24.4949951333
 30
0.0
 10
-67.4117074493
 20
-24.4943092026
 30
0.0
 10
-67.4117229999
 20
-24.4926845779
 30
0.0
 10
-67.4115949304
 20
-24.489571767
 30
0.0
 10
-67.41154303
 20
-24.4840747787
 30
0.0
 10
-67.4114459194
 20
-24.4758619535
 30
0.0
 10
-67.411387551
 20
-24.4653957737
 30
0.0
 10
-67.4113386141
 20
-24.4528269201
 30
0.0
 10
-67.4113113177
 20
-24.4382580316
 30
0.0
 10
-67.4112988418
 20
-24.4152674185
 30
0.0
 10
-67.4113380004
 20
-24.3827406071
 30
0.0
 10
-67.411456524
 20
-24.3400745281
 30
0.0
 10
-67.4116458719
 20
-24.2937786051
 30
0.0
 10
-67.4118134526
 20
-24.261889788
 30
0.0
 10
-67.4119080321
 20
-24.2456323968
 30
0.0
 11
-67.4119080321
 21
-24.495628166
 31
0.0
 11
-67.411838463
 21
-24.4953263453
 31
0.0
 11
-67.411772516
 21
-24.4944232561
 31
0.0
 11
-67.4117103806
 21
-24.4929212134
 31
0.0
 11
-67.41165224
 21
-24.4908229318
 31
0.0
 11
-67.411548479
 21
-24.4848613993
 31
0.0
 11
-67.4114621884
 21
-24.4765956235
 31
0.0
 11
-67.4113941848
 21
-24.4661062336
 31
0.0
 11
-67.4113451427
 21
-24.4534932065
 31
0.0
 11
-67.4113155281
 21
-24.438878527
 31
0.0
 11
-67.4113056211
 21
-24.4224031722
 31
0.0
 11
-67.4113451424
 21
-24.3845199794
 31
0.0
 11
-67.4114621879
 21
-24.3412991123
 31
0.0
 11
-67.4116522392
 21
-24.294404725
 31
0.0
 11
-67.4119080321
 21
-24.2456323968
 31
0.0
  0
LINE
  5
68B
100
AcDbEntity
  8
ASSI
100
AcDbLine
 62
7
  6
CONTINUOUS
 10
-68.163362465
 20
24.2500042308
 11
-68.163362465
 21
24.5
  0
SPLINE
  5
68C
100
AcDbEntity
  8
ASSI
100
AcDbSpline
 62
253
  6
CONTINUOUS
 70
0
 71
3
 72
21
 73
17
 74
15
 42
0.0000001
 43
0.0000001
 44
0.0000000001
 12
-0.2500068838
 22
0.0014544975
 32
0.0
 13
0.0014544483
 23
0.2500068841
 33
0.0
 40
0.0
 40
0.0
 40
0.0
 40
0.0
 40
0.0012389045
 40
0.0048607592
 40
0.0108738277
 40
0.0192698141
 40
0.0431185559
 40
0.0761820245
 40
0.1181386266
 40
0.1685889008
 40
0.2270451403
 40
0.2929436464
 40
0.4444697343
 40
0.6173460911
 40
0.8049167664
 40
1.0
 40
1.0
 40
1.0
 40
1.0
 10
-70.4148168978
 20
-24.4869014213
 30
0.0
 10
-70.4149201427
 20
-24.4869008206
 30
0.0
 10
-70.4148323448
 20
-24.4862683799
 30
0.0
 10
-70.4150174815
 20
-24.485582444
 30
0.0
 10
-70.4150019303
 20
-24.4839578124
 30
0.0
 10
-70.4151300007
 20
-24.4808449933
 30
0.0
 10
-70.4151819002
 20
-24.4753479961
 30
0.0
 10
-70.4152790109
 20
-24.4671351608
 30
0.0
 10
-70.4153373792
 20
-24.4566689738
 30
0.0
 10
-70.4153863159
 20
-24.4441001157
 30
0.0
 10
-70.4154136123
 20
-24.4295312245
 30
0.0
 10
-70.4154260881
 20
-24.4065406134
 30
0.0
 10
-70.4153869295
 20
-24.374013809
 30
0.0
 10
-70.4152684057
 20
-24.3313477436
 30
0.0
 10
-70.4150790579
 20
-24.2850518393
 30
0.0
 10
-70.4149114773
 20
-24.2531630359
 30
0.0
 10
-70.4148168978
 20
-24.2369056521
 30
0.0
 11
-70.4148168978
 21
-24.4869014213
 31
0.0
 11
-70.414886467
 21
-24.4865995953
 31
0.0
 11
-70.4149524142
 21
-24.485696496
 31
0.0
 11
-70.4150145499
 21
-24.4841944467
 31
0.0
 11
-70.4150726906
 21
-24.4820961621
 31
0.0
 11
-70.4151764515
 21
-24.4761346145
 31
0.0
 11
-70.4152627419
 21
-24.4678688302
 31
0.0
 11
-70.4153307454
 21
-24.4573794338
 31
0.0
 11
-70.4153797874
 21
-24.4447663999
 31
0.0
 11
-70.4154094019
 21
-24.4301517203
 31
0.0
 11
-70.4154193088
 21
-24.4136763643
 31
0.0
 11
-70.4153797874
 21
-24.3757931787
 31
0.0
 11
-70.4152627419
 21
-24.3325723265
 31
0.0
 11
-70.4150726906
 21
-24.285677958
 31
0.0
 11
-70.4148168978
 21
-24.2369056521
 31
0.0
  0
SPLINE
  5
68D
100
AcDbEntity
  8
ASSI
100
AcDbSpline
 62
253
  6
CONTINUOUS
 70
0
 71
3
 72
21
 73
17
 74
15
 42
0.0000001
 43
0.0000001
 44
0.0000000001
 12
-0.0014544483
 22
0.2500068841
 32
0.0
 13
0.2500068838
 23
0.0014544975
 33
0.0
 40
0.0
 40
0.0
 40
0.0
 40
0.0
 40
0.1950832336
 40
0.3826539089
 40
0.5555302657
 40
0.7070563536
 40
0.7729548597
 40
0.8314110992
 40
0.8818613734
 40
0.9238179755
 40
0.9568814441
 40
0.9807301859
 40
0.9891261723
 40
0.9951392408
 40
0.9987610955
 40
1.0
 40
1.0
 40
1.0
 40
1.0
 10
-70.4148168978
 20
24.2369056521
 30
0.0
 10
-70.4149114773
 20
24.2531630359
 30
0.0
 10
-70.4150790579
 20
24.2850518393
 30
0.0
 10
-70.4152684057
 20
24.3313477436
 30
0.0
 10
-70.4153869295
 20
24.374013809
 30
0.0
 10
-70.4154260881
 20
24.4065406134
 30
0.0
 10
-70.4154136123
 20
24.4295312245
 30
0.0
 10
-70.4153863159
 20
24.4441001157
 30
0.0
 10
-70.4153373792
 20
24.4566689738
 30
0.0
 10
-70.4152790109
 20
24.4671351608
 30
0.0
 10
-70.4151819002
 20
24.4753479961
 30
0.0
 10
-70.4151300007
 20
24.4808449933
 30
0.0
 10
-70.4150019303
 20
24.4839578124
 30
0.0
 10
-70.4150174815
 20
24.485582444
 30
0.0
 10
-70.4148323448
 20
24.4862683799
 30
0.0
 10
-70.4149201427
 20
24.4869008206
 30
0.0
 10
-70.4148168978
 20
24.4869014213
 30
0.0
 11
-70.4148168978
 21
24.2369056521
 31
0.0
 11
-70.4150726906
 21
24.285677958
 31
0.0
 11
-70.4152627419
 21
24.3325723265
 31
0.0
 11
-70.4153797874
 21
24.3757931787
 31
0.0
 11
-70.4154193088
 21
24.4136763643
 31
0.0
 11
-70.4154094019
 21
24.4301517203
 31
0.0
 11
-70.4153797874
 21
24.4447663999
 31
0.0
 11
-70.4153307454
 21
24.4573794338
 31
0.0
 11
-70.4152627419
 21
24.4678688302
 31
0.0
 11
-70.4151764515
 21
24.4761346145
 31
0.0
 11
-70.4150726906
 21
24.4820961621
 31
0.0
 11
-70.4150145499
 21
24.4841944467
 31
0.0
 11
-70.4149524142
 21
24.485696496
 31
0.0
 11
-70.414886467
 21
24.4865995953
 31
0.0
 11
-70.4148168978
 21
24.4869014213
 31
0.0
  0
SPLINE
  5
68E
100
AcDbEntity
  8
ASSI
100
AcDbSpline
 62
253
  6
CONTINUOUS
 70
0
 71
3
 72
21
 73
17
 74
15
 42
0.0000001
 43
0.0000001
 44
0.0000000001
 12
0.0014544483
 22
0.2500068841
 32
0.0
 13
-0.2500068838
 23
0.0014544975
 33
0.0
 40
0.0
 40
0.0
 40
0.0
 40
0.0
 40
0.1950826399
 40
0.3826534615
 40
0.5555299005
 40
0.7070561006
 40
0.7729546609
 40
0.8314109449
 40
0.881861269
 40
0.9238179048
 40
0.9568814027
 40
0.980730169
 40
0.9891261619
 40
0.9951392348
 40
0.9987610937
 40
1.0
 40
1.0
 40
1.0
 40
1.0
 10
-67.4119080321
 20
24.2456323968
 30
0.0
 10
-67.4118134529
 20
24.2618897311
 30
0.0
 10
-67.4116458725
 20
24.2937784972
 30
0.0
 10
-67.4114565245
 20
24.3400743711
 30
0.0
 10
-67.4113380006
 20
24.3827404649
 30
0.0
 10
-67.4112988419
 20
24.41526729
 30
0.0
 10
-67.4113113175
 20
24.4382579187
 30
0.0
 10
-67.4113386139
 20
24.4528268223
 30
0.0
 10
-67.4113875506
 20
24.4653956911
 30
0.0
 10
-67.4114459189
 20
24.4758618875
 30
0.0
 10
-67.4115430297
 20
24.4840747301
 30
0.0
 10
-67.411594929
 20
24.4895717323
 30
0.0
 10
-67.4117229996
 20
24.4926845543
 30
0.0
 10
-67.4117074483
 20
24.4943091873
 30
0.0
 10
-67.4118925853
 20
24.4949951238
 30
0.0
 10
-67.4118047871
 20
24.4956275653
 30
0.0
 10
-67.4119080321
 20
24.495628166
 30
0.0
 11
-67.4119080321
 21
24.2456323968
 31
0.0
 11
-67.41165224
 21
24.2944045543
 31
0.0
 11
-67.4114621884
 21
24.3412989594
 31
0.0
 11
-67.4113451427
 21
24.3845198321
 31
0.0
 11
-67.4113056211
 21
24.4224030457
 31
0.0
 11
-67.4113155279
 21
24.4388784153
 31
0.0
 11
-67.4113451424
 21
24.453493106
 31
0.0
 11
-67.4113941844
 21
24.4661061524
 31
0.0
 11
-67.4114621879
 21
24.4765955573
 31
0.0
 11
-67.4115484783
 21
24.4848613489
 31
0.0
 11
-67.4116522392
 21
24.4908229026
 31
0.0
 11
-67.41171038
 21
24.4929211888
 31
0.0
 11
-67.4117725157
 21
24.4944232392
 31
0.0
 11
-67.4118384629
 21
24.4953263395
 31
0.0
 11
-67.4119080321
 21
24.495628166
 31
0.0
  0
LINE
  5
68F
100
AcDbEntity
  8
CURVE
100
AcDbLine
 62
253
  6
CONTINUOUS
 10
-77.4345444823
 20
-15.125
 11
-77.4475369426
 21
-14.6894158265
  0
LINE
  5
690
100
AcDbEntity
  8
CURVE
100
AcDbLine
 62
253
  6
CONTINUOUS
 10
-77.4475344055
 20
-14.6895020459
 11
-77.4345444823
 21
-15.125
  0
SPLINE
  5
691
100
AcDbEntity
  8
RACCORDO
100
AcDbSpline
 62
253
  6
CONTINUOUS
 70
0
 71
3
 72
26
 73
22
 74
20
 42
0.0000001
 43
0.0000001
 44
0.0000000001
 12
0.002994653
 22
-0.2929295769
 32
0.0
 13
-0.2929002669
 23
-0.0051125932
 33
0.0
 40
0.0
 40
0.0
 40
0.0
 40
0.0
 40
0.2249130541
 40
0.4244170967
 40
0.51403459
 40
0.5966001835
 40
0.6719160891
 40
0.7398018097
 40
0.8000930496
 40
0.852646004
 40
0.8973344986
 40
0.9340516186
 40
0.9493936606
 40
0.9627121039
 40
0.9739994348
 40
0.9832506857
 40
0.9904619783
 40
0.995632983
 40
0.9987745996
 40
0.9996028761
 40
1.0
 40
1.0
 40
1.0
 40
1.0
 10
-29.1459100585
 20
-18.8290841082
 30
0.0
 10
-29.1456855463
 20
-18.8510453368
 30
0.0
 10
-29.1452894298
 20
-18.8924870664
 30
0.0
 10
-29.1448959917
 20
-18.9426801629
 30
0.0
 10
-29.1446751148
 20
-18.9789741138
 30
0.0
 10
-29.1445602499
 20
-19.0031417038
 30
0.0
 10
-29.1444902596
 20
-19.0251873877
 30
0.0
 10
-29.1444651879
 20
-19.0450581175
 30
0.0
 10
-29.1444849325
 20
-19.0627060971
 30
0.0
 10
-29.1445489896
 20
-19.0780887871
 30
0.0
 10
-29.1446570141
 20
-19.0911692333
 30
0.0
 10
-29.1447884963
 20
-19.1006155884
 30
0.0
 10
-29.1449225446
 20
-19.1069983416
 30
0.0
 10
-29.1450274984
 20
-19.1108975111
 30
0.0
 10
-29.1451431386
 20
-19.1142024518
 30
0.0
 10
-29.1452672263
 20
-19.1169070901
 30
0.0
 10
-29.1454030337
 20
-19.1190213854
 30
0.0
 10
-29.1455370031
 20
-19.1205178183
 30
0.0
 10
-29.1456783825
 20
-19.1214246091
 30
0.0
 10
-29.1457877833
 20
-19.1218128829
 30
0.0
 10
-29.145871286
 20
-19.1219320412
 30
0.0
 10
-29.1459100585
 20
-19.121932718
 30
0.0
 11
-29.1459100585
 21
-18.8290841082
 31
0.0
 11
-29.1452857301
 21
-18.8949682787
 31
0.0
 11
-29.144835445
 21
-18.9534102326
 31
0.0
 11
-29.144676995
 21
-18.9796627406
 31
0.0
 11
-29.1445635387
 21
-19.0038496427
 31
0.0
 11
-29.1444953558
 21
-19.0259129466
 31
0.0
 11
-29.1444726099
 21
-19.0457997081
 31
0.0
 11
-29.1444953573
 21
-19.0634617037
 31
0.0
 11
-29.1445635418
 21
-19.0788566719
 31
0.0
 11
-29.1446769992
 21
-19.091947446
 31
0.0
 11
-29.1448354489
 21
-19.1027023714
 31
0.0
 11
-29.1449314316
 21
-19.107195719
 31
0.0
 11
-29.1450385173
 21
-19.111095819
 31
0.0
 11
-29.1451566441
 21
-19.1144002742
 31
0.0
 11
-29.1452857372
 21
-19.1171073044
 31
0.0
 11
-29.1454257207
 21
-19.1192151727
 31
0.0
 11
-29.1455765085
 21
-19.1207224685
 31
0.0
 11
-29.1457379918
 21
-19.121628511
 31
0.0
 11
-29.1458227092
 21
-19.1218558803
 31
0.0
 11
-29.1459100585
 21
-19.121932718
 31
0.0
  0
SPLINE
  5
692
100
AcDbEntity
  8
RACCORDO
100
AcDbSpline
 62
253
  6
CONTINUOUS
 70
0
 71
3
 72
10
 73
6
 74
4
 42
0.0000001
 43
0.0000001
 44
0.0000000001
 12
0.0051113456
 22
-1.4139983247
 32
0.0
 13
-0.0072277475
 23
-1.4139890904
 33
0.0
 40
0.0
 40
0.0
 40
0.0
 40
0.0
 40
0.541189123
 40
0.7856881343
 40
1.0
 40
1.0
 40
1.0
 40
1.0
 10
-29.145910071
 20
-17.3968249552
 30
0.0
 10
-29.1449880028
 20
-17.6519051263
 30
0.0
 10
-29.1442359121
 20
-18.0222284574
 30
0.0
 10
-29.1446754981
 20
-18.4935643295
 30
0.0
 10
-29.1453937432
 20
-18.7098175256
 30
0.0
 10
-29.1459100739
 20
-18.8108290723
 30
0.0
 11
-29.145910071
 21
-17.3968249552
 31
0.0
 11
-29.1444726115
 21
-18.1620691181
 31
0.0
 11
-29.1448354599
 21
-18.5077923788
 31
0.0
 11
-29.1459100739
 21
-18.8108290723
 31
0.0
  0
SPLINE
  5
693
100
AcDbEntity
  8
RACCORDO
100
AcDbSpline
 62
253
  6
CONTINUOUS
 70
0
 71
3
 72
17
 73
13
 74
11
 42
0.0000001
 43
0.0000001
 44
0.0000000001
 12
-0.1543228748
 22
-1.261469281
 32
0.0
 13
-1.2707770407
 23
-0.0156846861
 33
0.0
 40
0.0
 40
0.0
 40
0.0
 40
0.0
 40
0.0514388302
 40
0.1036782715
 40
0.157075359
 40
0.2119275773
 40
0.3266844792
 40
0.4490725821
 40
0.5789473521
 40
0.7152696412
 40
0.8563352826
 40
1.0
 40
1.0
 40
1.0
 40
1.0
 10
-28.1670837266
 20
-18.1647725821
 30
0.0
 10
-28.1697297893
 20
-18.1864020835
 30
0.0
 10
-28.17790158
 20
-18.2297000357
 30
0.0
 10
-28.1984183898
 20
-18.2931678328
 30
0.0
 10
-28.227074973
 20
-18.3550021984
 30
0.0
 10
-28.2764899554
 20
-18.4357270961
 30
0.0
 10
-28.358212379
 20
-18.5298645966
 30
0.0
 10
-28.4812136697
 20
-18.6262561535
 30
0.0
 10
-28.6265274158
 20
-18.7050697577
 30
0.0
 10
-28.78936632
 20
-18.763856559
 30
0.0
 10
-28.964389833
 20
-18.8008085926
 30
0.0
 10
-29.0850547837
 20
-18.8100751887
 30
0.0
 10
-29.1459100585
 20
-18.8108263007
 30
0.0
 11
-28.1670837266
 21
-18.1647725821
 31
0.0
 11
-28.1791604262
 21
-18.2290196531
 31
0.0
 11
-28.1995056531
 21
-18.2922151369
 31
0.0
 11
-28.2279484761
 21
-18.3538277645
 31
0.0
 11
-28.2642499353
 21
-18.4133401401
 31
0.0
 11
-28.3591453799
 21
-18.5240858418
 31
0.0
 11
-28.4810097136
 21
-18.6207384423
 31
0.0
 11
-28.6257562986
 21
-18.7000567658
 31
0.0
 11
-28.7885311821
 21
-18.7593809245
 31
0.0
 11
-28.9638759609
 21
-18.7967215109
 31
0.0
 11
-29.1459100585
 21
-18.8108263007
 31
0.0
  0
SPLINE
  5
694
100
AcDbEntity
  8
RACCORDO
100
AcDbSpline
 62
253
  6
CONTINUOUS
 70
0
 71
3
 72
17
 73
13
 74
11
 42
0.0000001
 43
0.0000001
 44
0.0000000001
 12
0.0
 22
-1.3316895916
 32
0.0
 13
-1.3315881686
 23
-0.0164352532
 33
0.0
 40
0.0
 40
0.0
 40
0.0
 40
0.0
 40
0.0515908929
 40
0.1036598923
 40
0.156657205
 40
0.2109737203
 40
0.3245653768
 40
0.4461449403
 40
0.5758593352
 40
0.7127219469
 40
0.8548996393
 40
1.0
 40
1.0
 40
1.0
 40
1.0
 10
-28.163362465
 20
-18.1220850228
 30
0.0
 10
-28.163362465
 20
-18.1449860412
 30
0.0
 10
-28.1665414193
 20
-18.1910620071
 30
0.0
 10
-28.1807701447
 20
-18.2593343682
 30
0.0
 10
-28.2043146646
 20
-18.3262704969
 30
0.0
 10
-28.2484061401
 20
-18.4141100331
 30
0.0
 10
-28.326728914
 20
-18.5175190694
 30
0.0
 10
-28.4501026019
 20
-18.623988874
 30
0.0
 10
-28.5995574763
 20
-18.7114305533
 30
0.0
 10
-28.7695743225
 20
-18.7768465655
 30
0.0
 10
-28.9539207998
 20
-18.8180139962
 30
0.0
 10
-29.0815054173
 20
-18.8282891878
 30
0.0
 10
-29.1459100585
 20
-18.8290841082
 30
0.0
 11
-28.163362465
 21
-18.1220850228
 31
0.0
 11
-28.1680714531
 21
-18.1906265082
 31
0.0
 11
-28.182153998
 21
-18.2585211479
 31
0.0
 11
-28.2054774091
 21
-18.3251318527
 31
0.0
 11
-28.2378220228
 21
-18.3898300053
 31
0.0
 11
-28.3282745062
 21
-18.5110760617
 31
0.0
 11
-28.4501120991
 21
-18.617702659
 31
0.0
 11
-28.5987555535
 21
-18.7057026165
 31
0.0
 11
-28.7686186421
 21
-18.7717684749
 31
0.0
 11
-28.9533175853
 21
-18.8134173729
 31
0.0
 11
-29.1459100585
 21
-18.8290841082
 31
0.0
  0
SPLINE
  5
695
100
AcDbEntity
  8
ASSI
100
AcDbSpline
 62
253
  6
CONTINUOUS
 70
0
 71
3
 72
13
 73
9
 74
7
 42
0.0000001
 43
0.0000001
 44
0.0000000001
 12
-0.0504739153
 22
-1.3089600309
 32
0.0
 13
-1.3098330486
 23
-0.0161667385
 33
0.0
 40
0.0
 40
0.0
 40
0.0
 40
0.0
 40
0.1035857997
 40
0.211178498
 40
0.3253640554
 40
0.4474535736
 40
0.7136194215
 40
1.0
 40
1.0
 40
1.0
 40
1.0
 10
-28.1637339639
 20
-18.1413524487
 30
0.0
 10
-28.1654767575
 20
-18.1865490059
 30
0.0
 10
-28.1818001607
 20
-18.2786275856
 30
0.0
 10
-28.2424489686
 20
-18.4086274472
 30
0.0
 10
-28.3364224261
 20
-18.5272979393
 30
0.0
 10
-28.5056345189
 20
-18.6688960385
 30
0.0
 10
-28.7788312393
 20
-18.7928993947
 30
0.0
 10
-29.0208731431
 20
-18.8275408283
 30
0.0
 10
-29.1459100585
 20
-18.8290841082
 30
0.0
 11
-28.1637339639
 21
-18.1413524487
 31
0.0
 11
-28.1870341466
 21
-18.2750274145
 31
0.0
 11
-28.2457549683
 21
-18.4031512801
 31
0.0
 11
-28.337766316
 21
-18.5210780147
 31
0.0
 11
-28.4597298172
 21
-18.6245295038
 31
0.0
 11
-28.7748882894
 21
-18.773655288
 31
0.0
 11
-29.1459100585
 21
-18.8290841082
 31
0.0
  0
SPLINE
  5
696
100
AcDbEntity
  8
ASSI
100
AcDbSpline
 62
253
  6
CONTINUOUS
 70
0
 71
3
 72
19
 73
15
 74
13
 42
0.0000001
 43
0.0000001
 44
0.0000000001
 12
0.0029944016
 22
-0.2929049875
 32
0.0
 13
-0.2928756799
 23
-0.005112164
 33
0.0
 40
0.0
 40
0.0
 40
0.0
 40
0.0
 40
0.2249319356
 40
0.4244527266
 40
0.5966502293
 40
0.7398638097
 40
0.8001601111
 40
0.8527174773
 40
0.8974097235
 40
0.9341299259
 40
0.962792685
 40
0.9833326298
 40
0.9957142873
 40
1.0
 40
1.0
 40
1.0
 40
1.0
 10
-29.1459100585
 20
-18.8290841082
 30
0.0
 10
-29.1456855463
 20
-18.8510453368
 30
0.0
 10
-29.1452894351
 20
-18.8924869777
 30
0.0
 10
-29.1448327812
 20
-18.9507425639
 30
0.0
 10
-29.144552031
 20
-19.0010187974
 30
0.0
 10
-29.1444563323
 20
-19.0377054185
 30
0.0
 10
-29.1444861287
 20
-19.0627036775
 30
0.0
 10
-29.1445451884
 20
-19.078096242
 30
0.0
 10
-29.144668069
 20
-19.0911475982
 30
0.0
 10
-29.1447762927
 20
-19.101975274
 30
0.0
 10
-29.1450742344
 20
-19.1101543531
 30
0.0
 10
-29.1450521616
 20
-19.1166371689
 30
0.0
 10
-29.1457254853
 20
-19.1194254207
 30
0.0
 10
-29.1454916648
 20
-19.1219254149
 30
0.0
 10
-29.1459100585
 20
-19.121932718
 30
0.0
 11
-29.1459100585
 21
-18.8290841082
 31
0.0
 11
-29.1452857301
 21
-18.8949682787
 31
0.0
 11
-29.144835445
 21
-18.9534102326
 31
0.0
 11
-29.1445635387
 21
-19.0038496427
 31
0.0
 11
-29.1444726099
 21
-19.0457997081
 31
0.0
 11
-29.1444953573
 21
-19.0634617037
 31
0.0
 11
-29.1445635418
 21
-19.0788566719
 31
0.0
 11
-29.1446769992
 21
-19.091947446
 31
0.0
 11
-29.1448354489
 21
-19.1027023714
 31
0.0
 11
-29.1450385173
 21
-19.111095819
 31
0.0
 11
-29.1452857372
 21
-19.1171073044
 31
0.0
 11
-29.1455765085
 21
-19.1207224685
 31
0.0
 11
-29.1459100585
 21
-19.121932718
 31
0.0
  0
SPLINE
  5
697
100
AcDbEntity
  8
ASSI
100
AcDbSpline
 62
253
  6
CONTINUOUS
 70
0
 71
3
 72
13
 73
9
 74
7
 42
0.0000001
 43
0.0000001
 44
0.0000000001
 12
-0.2464229768
 22
-1.2031391445
 32
0.0
 13
-1.2280221295
 23
-0.0151569795
 33
0.0
 40
0.0
 40
0.0
 40
0.0
 40
0.0
 40
0.1039539992
 40
0.212953932
 40
0.3286581751
 40
0.451706264
 40
0.7172106241
 40
1.0
 40
1.0
 40
1.0
 40
1.0
 10
-28.1736878995
 20
-18.2051787311
 30
0.0
 10
-28.1822267841
 20
-18.2468691064
 30
0.0
 10
-28.2105144056
 20
-18.3303615383
 30
0.0
 10
-28.2819449898
 20
-18.4455355185
 30
0.0
 10
-28.3804106893
 20
-18.5495737988
 30
0.0
 10
-28.5474667379
 20
-18.6723797982
 30
0.0
 10
-28.8051068917
 20
-18.7792937014
 30
0.0
 10
-29.0301528547
 20
-18.8093975564
 30
0.0
 10
-29.1459100585
 20
-18.8108263007
 30
0.0
 11
-28.1736878995
 21
-18.2051787311
 31
0.0
 11
-28.214132402
 21
-18.3262706039
 31
0.0
 11
-28.2839674493
 21
-18.4404755827
 31
0.0
 11
-28.3810307749
 21
-18.5442571195
 31
0.0
 11
-28.5023170567
 21
-18.6344018466
 31
0.0
 11
-28.801903463
 21
-18.7631250827
 31
0.0
 11
-29.1459100585
 21
-18.8108263007
 31
0.0
  0
SPLINE
  5
698
100
AcDbEntity
  8
CURVE
100
AcDbSpline
 62
253
  6
CONTINUOUS
 70
0
 71
3
 72
12
 73
8
 74
6
 42
0.0000001
 43
0.0000001
 44
0.0000000001
 12
-0.0543718855
 22
-0.4684712395
 32
0.0
 13
0.0825304809
 23
-0.4836683639
 33
0.0
 40
0.0
 40
0.0
 40
0.0
 40
0.0
 40
0.3333333333
 40
0.5
 40
0.6666666667
 40
0.8333333333
 40
1.0
 40
1.0
 40
1.0
 40
1.0
 10
-64.0941056973
 20
-5.8046410597
 30
0.0
 10
-64.1001470179
 20
-5.8566934197
 30
0.0
 10
-64.1051966341
 20
-5.9350732719
 30
0.0
 10
-64.1040318189
 20
-6.0398937987
 30
0.0
 10
-64.0992041988
 20
-6.1188428523
 30
0.0
 10
-64.0900784551
 20
-6.1985762371
 30
0.0
 10
-64.08161975
 20
-6.2519308072
 30
0.0
 10
-64.0770347232
 20
-6.2788012718
 30
0.0
 11
-64.0941056973
 21
-5.8046410597
 31
0.0
 11
-64.1042472939
 21
-5.961304575
 31
0.0
 11
-64.1033728175
 21
-6.0399494085
 31
0.0
 11
-64.0984878449
 21
-6.1189735742
 31
0.0
 11
-64.0894847361
 21
-6.1986259822
 31
0.0
 11
-64.0770347232
 21
-6.2788012718
 31
0.0
  0
SPLINE
  5
699
100
AcDbEntity
  8
CURVE
100
AcDbSpline
 62
253
  6
CONTINUOUS
 70
0
 71
3
 72
15
 73
11
 74
9
 42
0.0000001
 43
0.0000001
 44
0.0000000001
 12
-0.5447864862
 22
-0.0085207271
 32
0.0
 13
-0.0669915559
 23
-0.5772030334
 33
0.0
 40
0.0
 40
0.0
 40
0.0
 40
0.0
 40
0.125
 40
0.25
 40
0.375
 40
0.5
 40
0.625
 40
0.75
 40
0.875
 40
1.0
 40
1.0
 40
1.0
 40
1.0
 10
-63.7316282436
 20
-5.4627200261
 30
0.0
 10
-63.7543276805
 20
-5.4630750564
 30
0.0
 10
-63.7988295567
 20
-5.4681903829
 30
0.0
 10
-63.8638062186
 20
-5.487699595
 30
0.0
 10
-63.924352825
 20
-5.5183155907
 30
0.0
 10
-63.9781196671
 20
-5.5593434451
 30
0.0
 10
-64.022556937
 20
-5.6105284399
 30
0.0
 10
-64.0571377845
 20
-5.6694268011
 30
0.0
 10
-64.0817947551
 20
-5.734252503
 30
0.0
 10
-64.0913143826
 20
-5.7805909333
 30
0.0
 10
-64.0941056975
 20
-5.8046410597
 30
0.0
 11
-63.7316282436
 21
-5.4627200261
 31
0.0
 11
-63.7985335313
 21
-5.4701630867
 31
0.0
 11
-63.863067876
 21
-5.4895507256
 31
0.0
 11
-63.9232228643
 21
-5.5200509005
 31
0.0
 11
-63.9765647384
 21
-5.5610363018
 31
0.0
 11
-64.0209142
 21
-5.611814001
 31
0.0
 11
-64.055483805
 21
-5.6704146912
 31
0.0
 11
-64.0800651669
 21
-5.7350328269
 31
0.0
 11
-64.0941056975
 21
-5.8046410597
 31
0.0
  0
SPLINE
  5
69A
100
AcDbEntity
  8
CURVE
100
AcDbSpline
 62
253
  6
CONTINUOUS
 70
0
 71
3
 72
19
 73
15
 74
13
 42
0.0000001
 43
0.0000001
 44
0.0000000001
 12
-0.0172990582
 22
0.7745016342
 32
0.0
 13
-0.7432121163
 23
-0.0114679899
 33
0.0
 40
0.0
 40
0.0
 40
0.0
 40
0.0
 40
0.125
 40
0.25
 40
0.375
 40
0.4375
 40
0.5
 40
0.5625
 40
0.625
 40
0.6875
 40
0.75
 40
0.8125
 40
0.875
 40
1.0
 40
1.0
 40
1.0
 40
1.0
 10
-63.2810233661
 20
-5.9328946758
 30
0.0
 10
-63.2817441602
 20
-5.9006237743
 30
0.0
 10
-63.2866262898
 20
-5.8372576832
 30
0.0
 10
-63.3057599158
 20
-5.7454899438
 30
0.0
 10
-63.3347012142
 20
-5.6724948725
 30
0.0
 10
-63.3670489051
 20
-5.6198097817
 30
0.0
 10
-63.3962299771
 20
-5.5839631266
 30
0.0
 10
-63.4299408246
 20
-5.5524018662
 30
0.0
 10
-63.4673623008
 20
-5.5253280659
 30
0.0
 10
-63.5078162981
 20
-5.5030623431
 30
0.0
 10
-63.5506914144
 20
-5.4860918575
 30
0.0
 10
-63.5946996683
 20
-5.4742613315
 30
0.0
 10
-63.6550616395
 20
-5.4641840105
 30
0.0
 10
-63.7006610721
 20
-5.4622421932
 30
0.0
 10
-63.7316282436
 20
-5.4627200261
 30
0.0
 11
-63.2810233661
 21
-5.9328946758
 31
0.0
 11
-63.2885946951
 21
-5.8378045828
 31
0.0
 11
-63.3083592378
 21
-5.7461855528
 31
0.0
 11
-63.3435543579
 21
-5.6597995136
 31
0.0
 11
-63.3678689557
 21
-5.6204209755
 31
0.0
 11
-63.3969849397
 21
-5.584677359
 31
0.0
 11
-63.4305592627
 21
-5.5531497762
 31
0.0
 11
-63.467867721
 21
-5.5261294121
 31
0.0
 11
-63.5082198179
 21
-5.5039448826
 31
0.0
 11
-63.5508802707
 21
-5.4869485174
 31
0.0
 11
-63.5949102058
 21
-5.4749734207
 31
0.0
 11
-63.6400075861
 21
-5.46732736
 31
0.0
 11
-63.7316282436
 21
-5.4627200261
 31
0.0
  0
SPLINE
  5
69B
100
AcDbEntity
  8
CURVE
100
AcDbSpline
 62
253
  6
CONTINUOUS
 70
0
 71
3
 72
14
 73
10
 74
8
 42
0.0000001
 43
0.0000001
 44
0.0000000001
 12
-0.5206445707
 22
-0.1957275353
 32
0.0
 13
0.0
 23
-0.4570328237
 33
0.0
 40
0.0
 40
0.0
 40
0.0
 40
0.0
 40
0.25
 40
0.375
 40
0.5
 40
0.625
 40
0.75
 40
0.875
 40
1.0
 40
1.0
 40
1.0
 40
1.0
 10
-62.5508793049
 20
-5.5966034314
 30
0.0
 10
-62.5942663524
 20
-5.6129140594
 30
0.0
 10
-62.6499695783
 20
-5.644509838
 30
0.0
 10
-62.7078981275
 20
-5.6939834747
 30
0.0
 10
-62.7434887195
 20
-5.7344921366
 30
0.0
 10
-62.7714291361
 20
-5.7786648152
 30
0.0
 10
-62.7910977285
 20
-5.8265262479
 30
0.0
 10
-62.8033078653
 20
-5.8790113732
 30
0.0
 10
-62.8061302269
 20
-5.9151562929
 30
0.0
 10
-62.8061302269
 20
-5.9341993273
 30
0.0
 11
-62.5508793049
 21
-5.5966034314
 31
0.0
 11
-62.6630898474
 21
-5.6574904082
 31
0.0
 11
-62.7065888242
 21
-5.6945507138
 31
0.0
 11
-62.7422136903
 21
-5.7351028061
 31
0.0
 11
-62.7700504987
 21
-5.7792796076
 31
0.0
 11
-62.7898546526
 21
-5.8272968634
 31
0.0
 11
-62.8019784329
 21
-5.8793000823
 31
0.0
 11
-62.8061302269
 21
-5.9341993273
 31
0.0
  0
SPLINE
  5
69C
100
AcDbEntity
  8
CURVE
100
AcDbSpline
 62
253
  6
CONTINUOUS
 70
0
 71
3
 72
12
 73
8
 74
6
 42
0.0000001
 43
0.0000001
 44
0.0000000001
 12
-0.949394976
 22
-0.2729548678
 32
0.0
 13
-0.7948938277
 23
-0.2986759687
 33
0.0
 40
0.0
 40
0.0
 40
0.0
 40
0.0
 40
0.1666666667
 40
0.3333333333
 40
0.5
 40
0.6666666667
 40
1.0
 40
1.0
 40
1.0
 40
1.0
 10
-61.6713661127
 20
-5.3318417383
 30
0.0
 10
-61.724110278
 20
-5.3470058977
 30
0.0
 10
-61.8282412453
 20
-5.3774894898
 30
0.0
 10
-61.9806073814
 20
-5.4224032436
 30
0.0
 10
-62.1297157919
 20
-5.4649339653
 30
0.0
 10
-62.3237352409
 20
-5.5196255509
 30
0.0
 10
-62.4624361003
 20
-5.5633715256
 30
0.0
 10
-62.5507576368
 20
-5.5965577443
 30
0.0
 11
-61.6713661127
 21
-5.3318417383
 31
0.0
 11
-61.8276028595
 21
-5.3773542174
 31
0.0
 11
-61.9800644271
 21
-5.4220060716
 31
0.0
 11
-62.1291168213
 21
-5.4646819599
 31
0.0
 11
-62.2744732978
 21
-5.5062556862
 31
0.0
 11
-62.5507576368
 21
-5.5965577443
 31
0.0
  0
SPLINE
  5
69D
100
AcDbEntity
  8
CURVE
100
AcDbSpline
 62
253
  6
CONTINUOUS
 70
0
 71
3
 72
10
 73
6
 74
4
 42
0.0000001
 43
0.0000001
 44
0.0000000001
 12
0.807813222
 22
0.2200818157
 32
0.0
 13
0.7588621256
 23
0.2061048039
 33
0.0
 40
0.0
 40
0.0
 40
0.0
 40
0.0
 40
0.3333333333
 40
0.6666666667
 40
1.0
 40
1.0
 40
1.0
 40
1.0
 10
-62.4561171694
 20
-4.9565418369
 30
0.0
 10
-62.3663601447
 20
-4.9320883018
 30
0.0
 10
-62.1883605777
 20
-4.8848792109
 30
0.0
 10
-61.9266498278
 20
-4.816859859
 30
0.0
 10
-61.7556841266
 20
-4.7725415486
 30
0.0
 10
-61.6713661127
 20
-4.7496410148
 30
0.0
 11
-62.4561171694
 21
-4.9565418369
 31
0.0
 11
-62.1892420112
 21
-4.885344925
 31
0.0
 11
-61.9275268609
 21
-4.8171168401
 31
0.0
 11
-61.6713661127
 21
-4.7496410148
 31
0.0
  0
SPLINE
  5
69E
100
AcDbEntity
  8
CURVE
100
AcDbSpline
 62
253
  6
CONTINUOUS
 70
0
 71
3
 72
16
 73
12
 74
10
 42
0.0000001
 43
0.0000001
 44
0.0000000001
 12
0.2479142732
 22
0.6217285849
 32
0.0
 13
0.8134366379
 23
0.2216138674
 33
0.0
 40
0.0
 40
0.0
 40
0.0
 40
0.0
 40
0.1111111111
 40
0.2222222222
 40
0.3333333333
 40
0.4444444444
 40
0.5555555556
 40
0.6666666667
 40
0.7777777778
 40
0.8888888889
 40
1.0
 40
1.0
 40
1.0
 40
1.0
 10
-63.0248985361
 20
-5.30544429
 30
0.0
 10
-63.015716526
 20
-5.2824173054
 30
0.0
 10
-62.9925042478
 20
-5.2393482959
 30
0.0
 10
-62.9440895424
 20
-5.1816522403
 30
0.0
 10
-62.8878395404
 20
-5.1335210226
 30
0.0
 10
-62.8260204676
 20
-5.0927768273
 30
0.0
 10
-62.7620810875
 20
-5.0589912272
 30
0.0
 10
-62.6946504811
 20
-5.0296357284
 30
0.0
 10
-62.6226212461
 20
-5.0035593846
 30
0.0
 10
-62.5442555266
 20
-4.9801088876
 30
0.0
 10
-62.4862444522
 20
-4.9647497583
 30
0.0
 10
-62.4561171693
 20
-4.9565418373
 30
0.0
 11
-63.0248985361
 21
-5.30544429
 31
0.0
 11
-62.9902381998
 21
-5.240499539
 31
0.0
 11
-62.9427836596
 21
-5.1832463799
 31
0.0
 11
-62.8869113619
 21
-5.134752193
 31
0.0
 11
-62.8256670831
 21
-5.0939365932
 31
0.0
 11
-62.7614992165
 21
-5.0597295774
 31
0.0
 11
-62.693884043
 21
-5.0301822542
 31
0.0
 11
-62.6215651654
 21
-5.0039970257
 31
0.0
 11
-62.5428137112
 21
-4.9801775214
 31
0.0
 11
-62.4561171693
 21
-4.9565418373
 31
0.0
  0
SPLINE
  5
69F
100
AcDbEntity
  8
CURVE
100
AcDbSpline
 62
253
  6
CONTINUOUS
 70
0
 71
3
 72
34
 73
30
 74
28
 42
0.0000001
 43
0.0000001
 44
0.0000000001
 12
0.8562017478
 22
2.3733703801
 32
0.0
 13
0.0976235419
 23
-0.7565824497
 33
0.0
 40
0.0
 40
0.0
 40
0.0
 40
0.0
 40
0.0294117647
 40
0.0588235294
 40
0.0882352941
 40
0.1176470588
 40
0.1470588235
 40
0.1764705882
 40
0.2058823529
 40
0.2352941176
 40
0.2647058824
 40
0.2941176471
 40
0.3529411765
 40
0.4117647059
 40
0.4705882353
 40
0.5294117647
 40
0.5882352941
 40
0.6470588235
 40
0.7058823529
 40
0.7647058824
 40
0.7941176471
 40
0.8235294118
 40
0.8529411765
 40
0.8676470588
 40
0.8823529412
 40
0.8970588235
 40
0.9117647059
 40
0.9411764706
 40
1.0
 40
1.0
 40
1.0
 40
1.0
 10
-64.5066129677
 20
-5.3678501192
 30
0.0
 10
-64.4982188329
 20
-5.3445817822
 30
0.0
 10
-64.4775554695
 20
-5.299132296
 30
0.0
 10
-64.4358056236
 20
-5.2317492981
 30
0.0
 10
-64.382757031
 20
-5.16325043
 30
0.0
 10
-64.3206081204
 20
-5.0996747177
 30
0.0
 10
-64.2510089429
 20
-5.0434623532
 30
0.0
 10
-64.1755281028
 20
-4.9957695654
 30
0.0
 10
-64.0967828791
 20
-4.9577389269
 30
0.0
 10
-64.0167611165
 20
-4.9297192883
 30
0.0
 10
-63.9414812392
 20
-4.91154486
 30
0.0
 10
-63.8443212507
 20
-4.896876869
 30
0.0
 10
-63.7338851847
 20
-4.8926308407
 30
0.0
 10
-63.6137020331
 20
-4.9034036932
 30
0.0
 10
-63.5075006809
 20
-4.9271604282
 30
0.0
 10
-63.4149653085
 20
-4.9602159611
 30
0.0
 10
-63.3353096351
 20
-4.9993305314
 30
0.0
 10
-63.2672184025
 20
-5.0424268704
 30
0.0
 10
-63.2101174138
 20
-5.0880466717
 30
0.0
 10
-63.1705313546
 20
-5.1266090112
 30
0.0
 10
-63.142369472
 20
-5.1567140822
 30
0.0
 10
-63.1227279646
 20
-5.1788415882
 30
0.0
 10
-63.1075052184
 20
-5.1966848844
 30
0.0
 10
-63.0958765511
 20
-5.2106269766
 30
0.0
 10
-63.087333801
 20
-5.2209785182
 30
0.0
 10
-63.0790066311
 20
-5.2312838076
 30
0.0
 10
-63.0685063767
 20
-5.2450165288
 30
0.0
 10
-63.0523591263
 20
-5.2690450063
 30
0.0
 10
-63.043947146
 20
-5.29060934
 30
0.0
 10
-63.0420329589
 20
-5.30544429
 30
0.0
 11
-64.5066129677
 21
-5.3678501192
 31
0.0
 11
-64.4757630027
 21
-5.2992641679
 31
0.0
 11
-64.4339224992
 21
-5.2315633197
 31
0.0
 11
-64.3812403113
 21
-5.164070956
 31
0.0
 11
-64.3193664092
 21
-5.1009019423
 31
0.0
 11
-64.2500286658
 21
-5.0448822826
 31
0.0
 11
-64.1749840389
 21
-4.9973799236
 31
0.0
 11
-64.0965701226
 21
-4.9594074269
 31
0.0
 11
-64.0175514308
 21
-4.9313601567
 31
0.0
 11
-63.9418828869
 21
-4.9127404325
 31
0.0
 11
-63.8693455092
 21
-4.9014831308
 31
0.0
 11
-63.7359418726
 21
-4.8952755218
 31
0.0
 11
-63.616032333
 21
-4.9055676736
 31
0.0
 11
-63.5097783442
 21
-4.9287102278
 31
0.0
 11
-63.417111925
 21
-4.9612258007
 31
0.0
 11
-63.3372370419
 21
-4.9999941595
 31
0.0
 11
-63.2690501098
 21
-5.0428474474
 31
0.0
 11
-63.2117170334
 21
-5.0881558394
 31
0.0
 11
-63.163783131
 21
-5.1340732122
 31
0.0
 11
-63.1426161228
 21
-5.156638866
 31
0.0
 11
-63.1229569999
 21
-5.1787223298
 31
0.0
 11
-63.1046438457
 21
-5.2001426954
 31
0.0
 11
-63.0959063428
 21
-5.210609472
 31
0.0
 11
-63.087369731
 21
-5.2209708095
 31
0.0
 11
-63.0790819609
 21
-5.2312828495
 31
0.0
 11
-63.0712375448
 21
-5.2415831683
 31
0.0
 11
-63.0575757953
 21
-5.2622873377
 31
0.0
 11
-63.0420329589
 21
-5.30544429
 31
0.0
  0
SPLINE
  5
6A0
100
AcDbEntity
  8
CURVE
100
AcDbSpline
 62
253
  6
CONTINUOUS
 70
0
 71
3
 72
15
 73
11
 74
9
 42
0.0000001
 43
0.0000001
 44
0.0000000001
 12
-0.2603088171
 22
1.7693996452
 32
0.0
 13
0.4916976247
 23
1.3609984754
 33
0.0
 40
0.0
 40
0.0
 40
0.0
 40
0.0
 40
0.125
 40
0.25
 40
0.375
 40
0.5
 40
0.625
 40
0.75
 40
0.875
 40
1.0
 40
1.0
 40
1.0
 40
1.0
 10
-64.5371418123
 20
-6.8615673444
 30
0.0
 10
-64.547988013
 20
-6.7878423591
 30
0.0
 10
-64.5674912107
 20
-6.6449573895
 30
0.0
 10
-64.5887309413
 20
-6.4459362111
 30
0.0
 10
-64.6018968686
 20
-6.2567360832
 30
0.0
 10
-64.6065939533
 20
-6.0743022441
 30
0.0
 10
-64.6019724061
 20
-5.8946811593
 30
0.0
 10
-64.5873185451
 20
-5.7167329802
 30
0.0
 10
-64.5591728501
 20
-5.5399680174
 30
0.0
 10
-64.5271003687
 20
-5.424558389
 30
0.0
 10
-64.5066129677
 20
-5.3678501192
 30
0.0
 11
-64.5371418123
 21
-6.8615673444
 31
0.0
 11
-64.5661553664
 21
-6.6475084355
 31
0.0
 11
-64.5873853074
 21
-6.4475730528
 31
0.0
 11
-64.6004853948
 21
-6.257863798
 31
0.0
 11
-64.605040848
 21
-6.0747710365
 31
0.0
 11
-64.6003003538
 21
-5.8949599769
 31
0.0
 11
-64.5850699061
 21
-5.7169301829
 31
0.0
 11
-64.5558456789
 21
-5.5405764374
 31
0.0
 11
-64.5066129677
 21
-5.3678501192
 31
0.0
  0
SPLINE
  5
6A1
100
AcDbEntity
  8
CURVE
100
AcDbSpline
 62
7
  6
CONTINUOUS
 70
0
 71
3
 72
13
 73
9
 74
7
 42
0.0000001
 43
0.0000001
 44
0.0000000001
 12
0.6830460881
 22
0.0
 32
0.0
 13
0.0852923267
 23
-0.6778031497
 33
0.0
 40
0.0
 40
0.0
 40
0.0
 40
0.0
 40
0.2490801906
 40
0.3745290044
 40
0.5000465587
 40
0.6245839973
 40
0.7501008193
 40
1.0
 40
1.0
 40
1.0
 40
1.0
 10
-63.6728072471
 20
4.1187598859
 30
0.0
 10
-63.6160961639
 20
4.1187598859
 30
0.0
 10
-63.5290248911
 20
4.110949299
 30
0.0
 10
-63.4245085328
 20
4.0639042122
 30
0.0
 10
-63.3547142751
 20
4.0123287258
 30
0.0
 10
-63.3074505392
 20
3.9389346122
 30
0.0
 10
-63.2750661564
 20
3.8288650197
 30
0.0
 10
-63.2703502144
 20
3.7430729482
 30
0.0
 10
-63.2632453868
 20
3.6866121309
 30
0.0
 11
-63.6728072471
 21
4.1187598859
 31
0.0
 11
-63.5041704348
 21
4.0962409458
 31
0.0
 11
-63.4259742557
 21
4.0611974199
 31
0.0
 11
-63.3583138739
 21
4.0085354483
 31
0.0
 11
-63.3113616422
 21
3.9375915065
 31
0.0
 11
-63.2853141317
 21
3.8558979327
 31
0.0
 11
-63.2632453868
 21
3.6866121309
 31
0.0
  0
SPLINE
  5
6A2
100
AcDbEntity
  8
CURVE
100
AcDbSpline
 62
7
  6
CONTINUOUS
 70
0
 71
3
 72
13
 73
9
 74
7
 42
0.0000001
 43
0.0000001
 44
0.0000000001
 12
0.0852923267
 22
0.6778031497
 32
0.0
 13
0.6830460881
 23
-0.0
 33
0.0
 40
0.0
 40
0.0
 40
0.0
 40
0.0
 40
0.2498991807
 40
0.3754160027
 40
0.4999534413
 40
0.6254709956
 40
0.7509198094
 40
1.0
 40
1.0
 40
1.0
 40
1.0
 10
-64.0823691074
 20
3.6866121309
 30
0.0
 10
-64.0752642799
 20
3.7430729482
 30
0.0
 10
-64.0705483379
 20
3.8288650197
 30
0.0
 10
-64.038163955
 20
3.9389346122
 30
0.0
 10
-63.9909002192
 20
4.0123287258
 30
0.0
 10
-63.9211059615
 20
4.0639042122
 30
0.0
 10
-63.8165896032
 20
4.110949299
 30
0.0
 10
-63.7295183304
 20
4.1187598859
 30
0.0
 10
-63.6728072471
 20
4.1187598859
 30
0.0
 11
-64.0823691074
 21
3.6866121309
 31
0.0
 11
-64.0603003625
 21
3.8558979327
 31
0.0
 11
-64.0342528521
 21
3.9375915065
 31
0.0
 11
-63.9873006204
 21
4.0085354483
 31
0.0
 11
-63.9196402385
 21
4.0611974199
 31
0.0
 11
-63.8414440595
 21
4.0962409458
 31
0.0
 11
-63.6728072471
 21
4.1187598859
 31
0.0
  0
SPLINE
  5
6A3
100
AcDbEntity
  8
CURVE
100
AcDbSpline
 62
7
  6
CONTINUOUS
 70
0
 71
3
 72
15
 73
11
 74
9
 42
0.0000001
 43
0.0000001
 44
0.0000000001
 12
-1.7069126765
 22
0.0
 32
0.0
 13
-0.0632100266
 23
-1.7060017172
 33
0.0
 40
0.0
 40
0.0
 40
0.0
 40
0.0
 40
0.1248401019
 40
0.2498663855
 40
0.374885782
 40
0.5000299202
 40
0.6250550432
 40
0.7501198193
 40
0.875035251
 40
1.0
 40
1.0
 40
1.0
 40
1.0
 10
-63.6728072471
 20
4.7815268003
 30
0.0
 10
-63.7438376313
 20
4.7815268003
 30
0.0
 10
-63.8864364469
 20
4.7716793234
 30
0.0
 10
-64.0935541984
 20
4.7119708447
 30
0.0
 10
-64.2758498836
 20
4.5935070156
 30
0.0
 10
-64.4085457805
 20
4.4217447249
 30
0.0
 10
-64.4906815893
 20
4.22298974
 30
0.0
 10
-64.5385396684
 20
4.0142899176
 30
0.0
 10
-64.5584639272
 20
3.801448305
 30
0.0
 10
-64.5615222405
 20
3.6592834163
 30
0.0
 10
-64.5641552489
 20
3.5882200575
 30
0.0
 11
-63.6728072471
 21
4.7815268003
 31
0.0
 11
-63.885193872
 21
4.7642105591
 31
0.0
 11
-64.0893941138
 21
4.7021878845
 31
0.0
 11
-64.2675297324
 21
4.584670781
 31
0.0
 11
-64.4001500485
 21
4.4171904032
 31
0.0
 11
-64.4849681375
 21
4.2213330331
 31
0.0
 11
-64.5338984971
 21
4.0135100265
 31
0.0
 11
-64.5559072878
 21
3.8013969153
 31
0.0
 11
-64.5641552489
 21
3.5882200575
 31
0.0
  0
SPLINE
  5
6A4
100
AcDbEntity
  8
CURVE
100
AcDbSpline
 62
7
  6
CONTINUOUS
 70
0
 71
3
 72
15
 73
11
 74
9
 42
0.0000001
 43
0.0000001
 44
0.0000000001
 12
-0.0632100266
 22
1.7060017172
 32
0.0
 13
-1.7069126765
 23
0.0
 33
0.0
 40
0.0
 40
0.0
 40
0.0
 40
0.0
 40
0.124964749
 40
0.2498801807
 40
0.3749449568
 40
0.4999700798
 40
0.625114218
 40
0.7501336145
 40
0.8751598981
 40
1.0
 40
1.0
 40
1.0
 40
1.0
 10
-62.7814592454
 20
3.5882200575
 30
0.0
 10
-62.7840922537
 20
3.6592834163
 30
0.0
 10
-62.7871505671
 20
3.801448305
 30
0.0
 10
-62.8070748259
 20
4.0142899176
 30
0.0
 10
-62.854932905
 20
4.22298974
 30
0.0
 10
-62.9370687138
 20
4.4217447249
 30
0.0
 10
-63.0697646107
 20
4.5935070156
 30
0.0
 10
-63.2520602958
 20
4.7119708447
 30
0.0
 10
-63.4591780474
 20
4.7716793234
 30
0.0
 10
-63.601776863
 20
4.7815268003
 30
0.0
 10
-63.6728072471
 20
4.7815268003
 30
0.0
 11
-62.7814592454
 21
3.5882200575
 31
0.0
 11
-62.7897072065
 21
3.8013969153
 31
0.0
 11
-62.8117159972
 21
4.0135100265
 31
0.0
 11
-62.8606463568
 21
4.2213330331
 31
0.0
 11
-62.9454644457
 21
4.4171904032
 31
0.0
 11
-63.0780847619
 21
4.584670781
 31
0.0
 11
-63.2562203805
 21
4.7021878845
 31
0.0
 11
-63.4604206223
 21
4.7642105591
 31
0.0
 11
-63.6728072471
 21
4.7815268003
 31
0.0
  0
ELLIPSE
  5
6A5
100
AcDbEntity
  8
RACCORDO
100
AcDbEllipse
 62
7
  6
CONTINUOUS
 10
-10.649923836
 20
-21.891254093
 30
0.0
 11
0.4473055582
 21
-0.2236357461
 31
0.0
 40
0.9998096356
 41
-2.6780516535
 42
-1.5707345439
  0
ELLIPSE
  5
6A6
100
AcDbEntity
  8
RACCORDO
100
AcDbEllipse
 62
7
  6
CONTINUOUS
 10
10.649923836
 20
21.891254093
 30
0.0
 11
0.4473055582
 21
-0.2236357461
 31
0.0
 40
0.9998096356
 41
0.4635410001
 42
1.5708581097
  0
ELLIPSE
  5
6A7
100
AcDbEntity
  8
RACCORDO
100
AcDbEllipse
 62
7
  6
CONTINUOUS
 10
10.649923836
 20
-21.891254093
 30
0.0
 11
0.4473055582
 21
0.2236357461
 31
0.0
 40
0.9998096356
 41
-1.5708581097
 42
-0.4635410001
  0
ELLIPSE
  5
6A8
100
AcDbEntity
  8
RACCORDO
100
AcDbEllipse
 62
7
  6
CONTINUOUS
 10
-10.649923836
 20
21.891254093
 30
0.0
 11
0.4473055582
 21
0.2236357461
 31
0.0
 40
0.9998096356
 41
1.5707345439
 42
2.6780516535
  0
ELLIPSE
  5
6A9
100
AcDbEntity
  8
RACCORDO
100
AcDbEllipse
 62
7
  6
CONTINUOUS
 10
-3.8970826234
 20
-22.3737961104
 30
0.0
 11
0.5
 21
0.0
 31
0.0
 40
0.0524077793
 41
1.5707963268
 42
3.1357748894
  0
ELLIPSE
  5
6AA
100
AcDbEntity
  8
RACCORDO
100
AcDbEllipse
 62
7
  6
CONTINUOUS
 10
-3.8970826234
 20
-23.7970910851
 30
0.0
 11
0.5
 21
-0.0
 31
0.0
 40
0.0058178298
 41
2.495179495
 42
3.1357748894
  0
ELLIPSE
  5
6AB
100
AcDbEntity
  8
RACCORDO
100
AcDbEllipse
 62
7
  6
CONTINUOUS
 10
-10.3927234819
 20
22.3344902759
 30
0.0
 11
0.25
 21
-0.0
 31
0.0
 40
0.0524077793
 41
-2.6154833905
 42
-1.5707963268
  0
ELLIPSE
  5
6AC
100
AcDbEntity
  8
RACCORDO
100
AcDbEllipse
 62
7
  6
CONTINUOUS
 10
3.8970826234
 20
-23.7970910851
 30
0.0
 11
0.5
 21
0.0
 31
0.0
 40
0.0058178298
 41
0.0058177642
 42
0.6464131586
  0
ELLIPSE
  5
6AD
100
AcDbEntity
  8
RACCORDO
100
AcDbEllipse
 62
7
  6
CONTINUOUS
 10
3.8970826234
 20
-22.3737961104
 30
0.0
 11
0.5
 21
0.0
 31
0.0
 40
0.0524077793
 41
0.0058177642
 42
1.5707963268
  0
ELLIPSE
  5
6AE
100
AcDbEntity
  8
RACCORDO
100
AcDbEllipse
 62
7
  6
CONTINUOUS
 10
-8.5072765181
 20
22.3344902759
 30
0.0
 11
0.25
 21
0.0
 31
0.0
 40
0.0524077793
 41
-1.5707963268
 42
-0.0058177642
  0
ELLIPSE
  5
6AF
100
AcDbEntity
  8
RACCORDO
100
AcDbEllipse
 62
7
  6
CONTINUOUS
 10
-3.8970826234
 20
23.7970910851
 30
0.0
 11
0.5
 21
0.0
 31
0.0
 40
0.0058178298
 41
-3.1357748894
 42
-2.495179495
  0
ELLIPSE
  5
6B0
100
AcDbEntity
  8
RACCORDO
100
AcDbEllipse
 62
7
  6
CONTINUOUS
 10
-3.8970826234
 20
22.3737961104
 30
0.0
 11
0.5
 21
0.0
 31
0.0
 40
0.0524077793
 41
-3.1357748894
 42
-1.5707963268
  0
ELLIPSE
  5
6B1
100
AcDbEntity
  8
RACCORDO
100
AcDbEllipse
 62
7
  6
CONTINUOUS
 10
8.5072765181
 20
22.3344902759
 30
0.0
 11
0.25
 21
0.0
 31
0.0
 40
0.0524077793
 41
-3.1357748894
 42
-1.5707963268
  0
ELLIPSE
  5
6B2
100
AcDbEntity
  8
RACCORDO
100
AcDbEllipse
 62
7
  6
CONTINUOUS
 10
10.3927234819
 20
22.3344902759
 30
0.0
 11
0.25
 21
0.0
 31
0.0
 40
0.0524077793
 41
-1.5707963268
 42
-0.5261092631
  0
ELLIPSE
  5
6B3
100
AcDbEntity
  8
RACCORDO
100
AcDbEllipse
 62
7
  6
CONTINUOUS
 10
-10.3927234819
 20
-22.3344902759
 30
0.0
 11
0.25
 21
-0.0
 31
0.0
 40
0.0524077793
 41
1.5707963268
 42
2.6154833905
  0
ELLIPSE
  5
6B4
100
AcDbEntity
  8
RACCORDO
100
AcDbEllipse
 62
7
  6
CONTINUOUS
 10
3.8970826234
 20
22.3737961104
 30
0.0
 11
0.5
 21
-0.0
 31
0.0
 40
0.0524077793
 41
-1.5707963268
 42
-0.0058177642
  0
ELLIPSE
  5
6B5
100
AcDbEntity
  8
RACCORDO
100
AcDbEllipse
 62
7
  6
CONTINUOUS
 10
3.8970826234
 20
23.7970910851
 30
0.0
 11
0.5
 21
-0.0
 31
0.0
 40
0.0058178298
 41
-0.6464131586
 42
-0.0058177642
  0
ELLIPSE
  5
6B6
100
AcDbEntity
  8
RACCORDO
100
AcDbEllipse
 62
7
  6
CONTINUOUS
 10
-8.5072765181
 20
-22.3344902759
 30
0.0
 11
0.25
 21
0.0
 31
0.0
 40
0.0524077793
 41
0.0058177642
 42
1.5707963268
  0
ELLIPSE
  5
6B7
100
AcDbEntity
  8
RACCORDO
100
AcDbEllipse
 62
7
  6
CONTINUOUS
 10
8.5072765181
 20
-22.3344902759
 30
0.0
 11
0.25
 21
0.0
 31
0.0
 40
0.0524077793
 41
1.5707963268
 42
3.1357748894
  0
ELLIPSE
  5
6B8
100
AcDbEntity
  8
RACCORDO
100
AcDbEllipse
 62
7
  6
CONTINUOUS
 10
10.3927234819
 20
-22.3344902759
 30
0.0
 11
0.25
 21
-0.0
 31
0.0
 40
0.0524077793
 41
0.5261092631
 42
1.5707963268
  0
ELLIPSE
  5
6B9
100
AcDbEntity
  8
ASSI
100
AcDbEllipse
 62
7
  6
CONTINUOUS
 10
-10.649923836
 20
-21.891254093
 30
0.0
 11
0.4473055582
 21
-0.2236357461
 31
0.0
 40
0.9998096356
 41
-2.6780516535
 42
-1.5831031109
  0
ELLIPSE
  5
6BA
100
AcDbEntity
  8
ASSI
100
AcDbEllipse
 62
7
  6
CONTINUOUS
 10
10.649923836
 20
21.891254093
 30
0.0
 11
0.4473055582
 21
-0.2236357461
 31
0.0
 40
0.9998096356
 41
0.4635410001
 42
1.5584895427
  0
ELLIPSE
  5
6BB
100
AcDbEntity
  8
ASSI
100
AcDbEllipse
 62
7
  6
CONTINUOUS
 10
10.649923836
 20
-21.891254093
 30
0.0
 11
0.4473055582
 21
0.2236357461
 31
0.0
 40
0.9998096356
 41
-1.5708581097
 42
-0.4635410001
  0
ELLIPSE
  5
6BC
100
AcDbEntity
  8
ASSI
100
AcDbEllipse
 62
7
  6
CONTINUOUS
 10
-10.649923836
 20
21.891254093
 30
0.0
 11
0.4473055582
 21
0.2236357461
 31
0.0
 40
0.9998096356
 41
1.5707345439
 42
2.6780516535
  0
ELLIPSE
  5
6BD
100
AcDbEntity
  8
ASSI
100
AcDbEllipse
 62
7
  6
CONTINUOUS
 10
3.8970826234
 20
22.3737961104
 30
0.0
 11
0.5
 21
-0.0
 31
0.0
 40
0.0524077793
 41
-1.5707963268
 42
-0.0058177642
  0
ELLIPSE
  5
6BE
100
AcDbEntity
  8
ASSI
100
AcDbEllipse
 62
7
  6
CONTINUOUS
 10
3.8970826234
 20
23.7970910851
 30
0.0
 11
0.5
 21
-0.0
 31
0.0
 40
0.0058178298
 41
-0.6464131586
 42
-0.0058177642
  0
ELLIPSE
  5
6BF
100
AcDbEntity
  8
ASSI
100
AcDbEllipse
 62
7
  6
CONTINUOUS
 10
-8.5072765181
 20
22.3344902759
 30
0.0
 11
0.25
 21
0.0
 31
0.0
 40
0.0524077793
 41
-1.5707963268
 42
-0.0058177642
  0
ELLIPSE
  5
6C0
100
AcDbEntity
  8
ASSI
100
AcDbEllipse
 62
7
  6
CONTINUOUS
 10
-3.8970826234
 20
-22.3737961104
 30
0.0
 11
0.5
 21
0.0
 31
0.0
 40
0.0524077793
 41
1.5707963268
 42
3.1357748894
  0
ELLIPSE
  5
6C1
100
AcDbEntity
  8
ASSI
100
AcDbEllipse
 62
7
  6
CONTINUOUS
 10
-3.8970826234
 20
-23.7970910851
 30
0.0
 11
0.5
 21
-0.0
 31
0.0
 40
0.0058178298
 41
2.495179495
 42
3.1357748894
  0
ELLIPSE
  5
6C2
100
AcDbEntity
  8
ASSI
100
AcDbEllipse
 62
7
  6
CONTINUOUS
 10
3.8970826234
 20
-23.7970910851
 30
0.0
 11
0.5
 21
0.0
 31
0.0
 40
0.0058178298
 41
0.0058177642
 42
0.6464131586
  0
ELLIPSE
  5
6C3
100
AcDbEntity
  8
ASSI
100
AcDbEllipse
 62
7
  6
CONTINUOUS
 10
3.8970826234
 20
-22.3737961104
 30
0.0
 11
0.5
 21
0.0
 31
0.0
 40
0.0524077793
 41
0.0058177642
 42
1.5707963268
  0
ELLIPSE
  5
6C4
100
AcDbEntity
  8
ASSI
100
AcDbEllipse
 62
7
  6
CONTINUOUS
 10
8.5072765181
 20
22.3344902759
 30
0.0
 11
0.25
 21
0.0
 31
0.0
 40
0.0524077793
 41
-3.1357748894
 42
-1.5707963268
  0
ELLIPSE
  5
6C5
100
AcDbEntity
  8
ASSI
100
AcDbEllipse
 62
7
  6
CONTINUOUS
 10
10.3927234819
 20
22.3344902759
 30
0.0
 11
0.25
 21
0.0
 31
0.0
 40
0.0524077793
 41
-1.5707963268
 42
-0.5261092631
  0
ELLIPSE
  5
6C6
100
AcDbEntity
  8
ASSI
100
AcDbEllipse
 62
7
  6
CONTINUOUS
 10
-10.3927234819
 20
-22.3344902759
 30
0.0
 11
0.25
 21
-0.0
 31
0.0
 40
0.0524077793
 41
1.5707963268
 42
2.6154833905
  0
ELLIPSE
  5
6C7
100
AcDbEntity
  8
ASSI
100
AcDbEllipse
 62
7
  6
CONTINUOUS
 10
-10.3927234819
 20
22.3344902759
 30
0.0
 11
0.25
 21
-0.0
 31
0.0
 40
0.0524077793
 41
-2.6154833905
 42
-1.5707963268
  0
ELLIPSE
  5
6C8
100
AcDbEntity
  8
ASSI
100
AcDbEllipse
 62
7
  6
CONTINUOUS
 10
-3.8970826234
 20
23.7970910851
 30
0.0
 11
0.5
 21
0.0
 31
0.0
 40
0.0058178298
 41
-3.1357748894
 42
-2.495179495
  0
ELLIPSE
  5
6C9
100
AcDbEntity
  8
ASSI
100
AcDbEllipse
 62
7
  6
CONTINUOUS
 10
-8.5072765181
 20
-22.3344902759
 30
0.0
 11
0.25
 21
0.0
 31
0.0
 40
0.0524077793
 41
0.0058177642
 42
1.5707963268
  0
ELLIPSE
  5
6CA
100
AcDbEntity
  8
ASSI
100
AcDbEllipse
 62
7
  6
CONTINUOUS
 10
8.5072765181
 20
-22.3344902759
 30
0.0
 11
0.25
 21
0.0
 31
0.0
 40
0.0524077793
 41
1.5707963268
 42
3.1357748894
  0
ELLIPSE
  5
6CB
100
AcDbEntity
  8
ASSI
100
AcDbEllipse
 62
7
  6
CONTINUOUS
 10
10.3927234819
 20
-22.3344902759
 30
0.0
 11
0.25
 21
-0.0
 31
0.0
 40
0.0524077793
 41
0.5261092631
 42
1.5707963268
  0
ELLIPSE
  5
6CC
100
AcDbEntity
  8
ASSI
100
AcDbEllipse
 62
7
  6
CONTINUOUS
 10
-3.8970826234
 20
22.3737961104
 30
0.0
 11
0.5
 21
0.0
 31
0.0
 40
0.0524077793
 41
-3.1357748894
 42
-1.5707963268
  0
ELLIPSE
  5
6CD
100
AcDbEntity
  8
RACCORDO
100
AcDbEllipse
 62
7
  6
CONTINUOUS
 10
-57.663362465
 20
-22.0658992808
 30
0.0
 11
0.499486387
 21
0.0226572106
 31
0.0
 40
1.0
 41
0.6152381075
 42
1.5080130907
  0
ELLIPSE
  5
6CE
100
AcDbEntity
  8
RACCORDO
100
AcDbEllipse
 62
7
  6
CONTINUOUS
 10
-57.663362465
 20
22.0658992808
 30
0.0
 11
0.4036543956
 21
0.2950646182
 31
0.0
 40
1.0
 41
-2.1845619487
 42
-1.2917869655
  0
ELLIPSE
  5
6CF
100
AcDbEntity
  8
ASSI
100
AcDbEllipse
 62
7
  6
CONTINUOUS
 10
-57.663362465
 20
-22.0658992808
 30
0.0
 11
0.499486387
 21
0.0226572106
 31
0.0
 40
1.0
 41
0.6152381075
 42
1.5080130907
  0
ELLIPSE
  5
6D0
100
AcDbEntity
  8
ASSI
100
AcDbEllipse
 62
7
  6
CONTINUOUS
 10
-57.663362465
 20
22.0658992808
 30
0.0
 11
0.4036543956
 21
0.2950646182
 31
0.0
 40
1.0
 41
-2.1845619487
 42
-1.2917869655
  0
ELLIPSE
  5
6D1
100
AcDbEntity
  8
CURVE
100
AcDbEllipse
 62
253
  6
CONTINUOUS
 10
422.336637535
 20
0.0
 30
0.0
 11
0.0
 21
500.0
 31
0.0
 40
1.0
 41
-4.6789586518
 42
-4.6768815197
  0
ELLIPSE
  5
6D2
100
AcDbEntity
  8
CURVE
100
AcDbEllipse
 62
253
  6
CONTINUOUS
 10
422.336637535
 20
0.0
 30
0.0
 11
-80.0911215035
 21
493.5437288187
 31
0.0
 40
1.0
 41
1.4431059366
 42
1.4433513782
  0
ELLIPSE
  5
6D3
100
AcDbEntity
  8
CURVE
100
AcDbEllipse
 62
253
  6
CONTINUOUS
 10
422.336637535
 20
-0.0
 30
0.0
 11
0.0
 21
500.0
 31
0.0
 40
1.0
 41
-4.682898519
 42
-4.6792040934
  0
ELLIPSE
  5
6D4
100
AcDbEntity
  8
CURVE
100
AcDbEllipse
 62
253
  6
CONTINUOUS
 10
422.336637535
 20
0.0
 30
0.0
 11
114.8764602737
 21
486.6244947339
 31
0.0
 40
1.0
 41
-4.4520613163
 42
-4.4510747145
  0
ELLIPSE
  5
6D5
100
AcDbEntity
  8
CURVE
100
AcDbEllipse
 62
253
  6
CONTINUOUS
 10
-52.711402465
 20
15.9
 30
0.0
 11
-0.0107057469
 21
2.5499761843
 31
0.0
 40
1.0
 41
1.5273722148
 42
4.7050473966
  0
ELLIPSE
  5
6D6
100
AcDbEntity
  8
CURVE
100
AcDbEllipse
 62
253
  6
CONTINUOUS
 10
-52.711402465
 20
15.9
 30
0.0
 11
0.0056515952
 21
1.7999910522
 31
0.0
 40
1.0
 41
1.5183519316
 42
2.9348618328
  0
ELLIPSE
  5
6D7
100
AcDbEntity
  8
CURVE
100
AcDbEllipse
 62
253
  6
CONTINUOUS
 10
-52.711402465
 20
15.9
 30
0.0
 11
1.7997247922
 21
-0.0312960593
 31
0.0
 40
1.0
 41
-1.3435377595
 42
0.0729718756
  0
ELLIPSE
  5
6D8
100
AcDbEntity
  8
CURVE
100
AcDbEllipse
 62
253
  6
CONTINUOUS
 10
-52.711402465
 20
11.51489
 30
0.0
 11
-0.049398751
 21
2.5495200169
 31
0.0
 40
1.0
 41
1.5121972775
 42
4.6898724629
  0
ELLIPSE
  5
6D9
100
AcDbEntity
  8
CURVE
100
AcDbEllipse
 62
253
  6
CONTINUOUS
 10
-52.711402465
 20
11.51489
 30
0.0
 11
1.7969154546
 21
0.1053307995
 31
0.0
 40
1.0
 41
3.1119452157
 42
6.2802189217
  0
ELLIPSE
  5
6DA
100
AcDbEntity
  8
CURVE
100
AcDbEllipse
 62
253
  6
CONTINUOUS
 10
-52.711402465
 20
15.9
 30
0.0
 11
2.3404770675
 21
-1.012255032
 31
0.0
 40
1.0
 41
0.4050623205
 42
0.447431323
  0
ELLIPSE
  5
6DB
100
AcDbEntity
  8
CURVE
100
AcDbEllipse
 62
253
  6
CONTINUOUS
 10
-52.711402465
 20
11.51489
 30
0.0
 11
0.4076501082
 21
2.5172035958
 31
0.0
 40
1.0
 41
-1.4133878181
 42
-1.3710188157
  0
ELLIPSE
  5
6DC
100
AcDbEntity
  8
CURVE
100
AcDbEllipse
 62
253
  6
CONTINUOUS
 10
-52.711402465
 20
11.51489
 30
0.0
 11
1.3259897963
 21
-1.2172718631
 31
0.0
 40
1.0
 41
-2.4545000994
 42
-2.3700128006
  0
ENDSEC
  0
SECTION
  2
OBJECTS
  0
DICTIONARY
  5
C
100
AcDbDictionary
280
0
281
1
  3
ACAD_GROUP
350
D
  3
ACAD_MLINESTYLE
350
17
  3
ACAD_LAYOUT
350
1A
  3
ACAD_PLOTSETTINGS
350
19
  3
ACAD_PLOTSTYLENAME
350
E
  0
DICTIONARY
  5
D
102
{ACAD_REACTORS
330
C
102
}
100
AcDbDictionary
280
0
281
1
  0
ACDBDICTIONARYWDFLT
  5
E
102
{ACAD_REACTORS
330
C
102
}
100
AcDbDictionary
281
1
  3
Normal
350
F
100
AcDbDictionaryWithDefault
340
F
  0
DICTIONARY
  5
17
102
{ACAD_REACTORS
330
C
102
}
100
AcDbDictionary
280
0
281
1
  3
Standard
350
18
  0
DICTIONARY
  5
19
102
{ACAD_REACTORS
330
C
102
}
100
AcDbDictionary
281
1
  0
DICTIONARY
  5
1A
102
{ACAD_REACTORS
330
C
102
}
100
AcDbDictionary
281
1
  3
Model
350
6DD
  3
Layout1
350
6DE
  0
ACDBPLACEHOLDER
  5
F
102
{ACAD_REACTORS
330
E
102
}
  0
MLINESTYLE
  5
18
102
{ACAD_REACTORS
330
17
102
}
100
AcDbMlineStyle
  2
STANDARD
 70
0
  3

 62
256
 51
90.0
 52
90.0
 71
2
 49
0.5
 62
256
  6
BYLAYER
 49
-0.5
 62
256
  6
BYLAYER
  0
LAYOUT
  5
6DD
102
{ACAD_REACTORS
330
1A
102
}
100
AcDbPlotSettings
  1

  2
none_device
  4
ISO_A4_(297.00_x_210.00_MM)
  6

 40
0.0
 41
0.0
 42
0.0
 43
0.0
 44
297.0
 45
210.0
 46
0.0
 47
0.0
 48
0.0
 49
0.0
140
0.0
141
0.0
142
1.0
143
1.0
 70
1024
 72
1
 73
0
 74
0
  7

 75
0
147
1.0
148
0.0
149
0.0
100
AcDbLayout
  1
Model
 70
0
 71
0
 10
0.0
 20
0.0
 11
297.0
 21
210.0
 12
0.0
 22
0.0
 32
0.0
 14
0.0
 24
0.0
 34
0.0
 15
0.0
 25
0.0
 35
0.0
146
0.0
 13
0.0
 23
0.0
 33
0.0
 16
1.0
 26
0.0
 36
0.0
 17
0.0
 27
1.0
 37
0.0
 76
0
330
23A
345
0
346
0
  0
LAYOUT
  5
6DE
102
{ACAD_REACTORS
330
1A
102
}
100
AcDbPlotSettings
  1

  2
none_device
  4
ISO_A4_(297.00_x_210.00_MM)
  6

 40
0.0
 41
0.0
 42
0.0
 43
0.0
 44
297.0
 45
210.0
 46
0.0
 47
0.0
 48
0.0
 49
0.0
140
0.0
141
0.0
142
1.0
143
1.0
 70
0
 72
1
 73
0
 74
0
  7

 75
0
147
1.0
148
0.0
149
0.0
100
AcDbLayout
  1
Layout1
 70
0
 71
1
 10
0.0
 20
0.0
 11
297.0
 21
210.0
 12
0.0
 22
0.0
 32
0.0
 14
0.0
 24
0.0
 34
0.0
 15
0.0
 25
0.0
 35
0.0
146
0.0
 13
0.0
 23
0.0
 33
0.0
 16
1.0
 26
0.0
 36
0.0
 17
0.0
 27
1.0
 37
0.0
 76
0
330
23B
345
0
346
0
  0
ENDSEC
  0
EOF
