  0
SECTION
  2
HEADER
  9
$ACADVER
  1
AC1024
  9
$DWGCODEPAGE
  3
ANSI_1252
  9
$EXTMAX
 10
297.0
 20
210.0
 30
0.0
  9
$EXTMIN
 10
0.0
 20
0.0
 30
0.0
  9
$LIMMIN
 10
0.0
 20
0.0
  9
$LIMMAX
 10
297.0
 20
210.0
  9
$VIEWCTR
 10
148.5
 20
105.0
  9
$VIEWSIZE
 40
210.0
  9
$CLAYER
  8
0
  9
$LTSCALE
 40
16.335
  9
$CELTYPE
  6
BYLAYER
  9
$DIMSCALE
 40
1.0
  9
$DIMASZ
 40
3.0
  9
$DIMEXO
 40
0.5
  9
$DIMDLI
 40
11.286
  9
$DIMEXE
 40
1.5
  9
$DIMCEN
 40
2.673
  9
$DIMLFAC
 40
1.0
  9
$DIMBLK
  1
_FILLED
  9
$DIMALT
 70
0
  9
$DIMALTF
 40
0.0393700787
  9
$DIMTXT
 40
3.0
  9
$DIMTOL
 70
1
  9
$DIMLIM
 70
0
  9
$DIMTFAC
 40
1.0
  9
$DIMTP
 40
0.01
  9
$DIMTM
 40
0.01
  9
$DIMGAP
 40
0.625
  9
$DIMDSEP
 70
44
  9
$AUNITS
 70
0
  9
$PDMODE
 70
3
  9
$PDSIZE
 40
3.0
  9
$HANDSEED
  5
4D2
  9
$TILEMODE
 70
1
  9
$MEASUREMENT
 70
1
  9
$INSUNITS
 70
4
  0
ENDSEC
  0
SECTION
  2
CLASSES
  0
CLASS
  1
ACDBDICTIONARYWDFLT
  2
AcDbDictionaryWithDefault
  3
AutoCAD 2000
 90
0
 91
1
280
0
281
0
  0
CLASS
  1
ACDBPLACEHOLDER
  2
AcDbPlaceHolder
  3
AutoCAD 2000
 90
0
 91
1
280
0
281
0
  0
CLASS
  1
LAYOUT
  2
AcDbLayout
  3
AutoCAD 2000
 90
0
 91
0
280
0
281
0
  0
ENDSEC
  0
SECTION
  2
TABLES
  0
TABLE
  2
VPORT
  5
8
100
AcDbSymbolTable
 70
2
  0
VPORT
  5
1F4
100
AcDbSymbolTableRecord
100
AcDbViewportTableRecord
  2
*ACTIVE
 70
0
 10
0.0
 20
0.0
 11
1.0
 21
1.0
 12
148.5
 22
105.0
 13
0.0
 23
0.0
 14
1.0
 24
1.0
 15
0.0
 25
0.0
 16
0.0
 26
0.0
 36
1.0
 17
0.0
 27
0.0
 37
0.0
 40
210.0
 41
1.4142857143
 42
50.0
 43
0.0
 44
0.0
 50
0.0
 51
0.0
 71
0
 72
100
 73
1
 74
1
 75
0
 76
0
 77
0
 78
0
  0
ENDTAB
  0
TABLE
  2
LTYPE
  5
5
100
AcDbSymbolTable
 70
6
  0
LTYPE
  5
14
100
AcDbSymbolTableRecord
100
AcDbLinetypeTableRecord
  2
BYBLOCK
 70
0
  3

 72
65
 73
0
 40
0.0
  0
LTYPE
  5
15
100
AcDbSymbolTableRecord
100
AcDbLinetypeTableRecord
  2
BYLAYER
 70
0
  3

 72
65
 73
0
 40
0.0
  0
LTYPE
  5
16
100
AcDbSymbolTableRecord
100
AcDbLinetypeTableRecord
  2
CONTINUOUS
 70
64
  3
Solid line
 72
65
 73
0
 40
0.0
  0
LTYPE
  5
1F5
100
AcDbSymbolTableRecord
100
AcDbLinetypeTableRecord
  2
CENTER
 70
64
  3
____ _ ____ _ ____ _ ____ _ ____ _ ____ _ ____
 72
65
 73
4
 40
0.6
 49
0.375
 74
0
 49
-0.075
 74
0
 49
0.075
 74
0
 49
-0.075
 74
0
  0
LTYPE
  5
1F6
100
AcDbSymbolTableRecord
100
AcDbLinetypeTableRecord
  2
HIDDEN
 70
64
  3
- - - - - - - - - - - - - - - - - - - -
 72
65
 73
2
 40
0.2
 49
0.1
 74
0
 49
-0.1
 74
0
  0
LTYPE
  5
1F7
100
AcDbSymbolTableRecord
100
AcDbLinetypeTableRecord
  2
PHANTOM
 70
64
  3
_____ _ _ _____ _ _ _____ _ _ _____
 72
65
 73
6
 40
0.8
 49
0.45
 74
0
 49
-0.05
 74
0
 49
0.1
 74
0
 49
-0.05
 74
0
 49
0.1
 74
0
 49
-0.05
 74
0
  0
LTYPE
  5
1F8
100
AcDbSymbolTableRecord
100
AcDbLinetypeTableRecord
  2
DOT
 70
64
  3
. . . . . . . . . . . . . . . . . . . .
 72
65
 73
2
 40
0.2
 49
0.1
 74
0
 49
-0.1
 74
0
  0
LTYPE
  5
1F9
100
AcDbSymbolTableRecord
100
AcDbLinetypeTableRecord
  2
DASHED
 70
64
  3
- - - - - - - - - - - - - - - - - - - -
 72
65
 73
2
 40
0.2
 49
0.1
 74
0
 49
-0.1
 74
0
  0
ENDTAB
  0
TABLE
  2
LAYER
  5
2
100
AcDbSymbolTable
 70
36
  0
LAYER
  5
10
100
AcDbSymbolTableRecord
100
AcDbLayerTableRecord
  2
0
 70
0
 62
7
  6
CONTINUOUS
370
-3
390
F
  0
LAYER
  5
1FA
100
AcDbSymbolTableRecord
100
AcDbLayerTableRecord
  2
DEFAULT_1
 70
0
 62
7
  6
CENTER
370
-3
390
F
  0
LAYER
  5
1FB
100
AcDbSymbolTableRecord
100
AcDbLayerTableRecord
  2
DEFAULT_2
 70
0
 62
7
  6
HIDDEN
370
-3
390
F
  0
LAYER
  5
1FC
100
AcDbSymbolTableRecord
100
AcDbLayerTableRecord
  2
DEFAULT_3
 70
0
 62
7
  6
PHANTOM
370
-3
390
F
  0
LAYER
  5
1FD
100
AcDbSymbolTableRecord
100
AcDbLayerTableRecord
  2
ASSI
 70
0
 62
7
  6
CONTINUOUS
370
-3
390
F
  0
LAYER
  5
1FE
100
AcDbSymbolTableRecord
100
AcDbLayerTableRecord
  2
COORDINATE
 70
0
 62
7
  6
CONTINUOUS
370
-3
390
F
  0
LAYER
  5
1FF
100
AcDbSymbolTableRecord
100
AcDbLayerTableRecord
  2
COORD_ORIGINE
 70
0
 62
7
  6
CONTINUOUS
370
-3
390
F
  0
LAYER
  5
200
100
AcDbSymbolTableRecord
100
AcDbLayerTableRecord
  2
CURVE
 70
0
 62
7
  6
CONTINUOUS
370
-3
390
F
  0
LAYER
  5
201
100
AcDbSymbolTableRecord
100
AcDbLayerTableRecord
  2
DRAFT
 70
0
 62
7
  6
CONTINUOUS
370
-3
390
F
  0
LAYER
  5
202
100
AcDbSymbolTableRecord
100
AcDbLayerTableRecord
  2
INCISIONI_STAMPO
 70
0
 62
7
  6
CONTINUOUS
370
-3
390
F
  0
LAYER
  5
203
100
AcDbSymbolTableRecord
100
AcDbLayerTableRecord
  2
INTF_1
 70
0
 62
7
  6
CONTINUOUS
370
-3
390
F
  0
LAYER
  5
204
100
AcDbSymbolTableRecord
100
AcDbLayerTableRecord
  2
INTF_7
 70
0
 62
7
  6
CONTINUOUS
370
-3
390
F
  0
LAYER
  5
205
100
AcDbSymbolTableRecord
100
AcDbLayerTableRecord
  2
NOTE
 70
0
 62
7
  6
CONTINUOUS
370
-3
390
F
  0
LAYER
  5
206
100
AcDbSymbolTableRecord
100
AcDbLayerTableRecord
  2
PELLE_INFERIORE
 70
0
 62
7
  6
CONTINUOUS
370
-3
390
F
  0
LAYER
  5
207
100
AcDbSymbolTableRecord
100
AcDbLayerTableRecord
  2
PIANI
 70
0
 62
7
  6
CONTINUOUS
370
-3
390
F
  0
LAYER
  5
208
100
AcDbSymbolTableRecord
100
AcDbLayerTableRecord
  2
PIANI_ORIGINE
 70
0
 62
7
  6
CONTINUOUS
370
-3
390
F
  0
LAYER
  5
209
100
AcDbSymbolTableRecord
100
AcDbLayerTableRecord
  2
PPP
 70
0
 62
7
  6
CONTINUOUS
370
-3
390
F
  0
LAYER
  5
20A
100
AcDbSymbolTableRecord
100
AcDbLayerTableRecord
  2
PUNTI
 70
0
 62
7
  6
CONTINUOUS
370
-3
390
F
  0
LAYER
  5
20B
100
AcDbSymbolTableRecord
100
AcDbLayerTableRecord
  2
RACCORDO
 70
0
 62
7
  6
CONTINUOUS
370
-3
390
F
  0
LAYER
  5
20C
100
AcDbSymbolTableRecord
100
AcDbLayerTableRecord
  2
RGB__255__255__255__
 70
0
 62
7
  6
CONTINUOUS
370
-3
390
F
  0
LAYER
  5
20D
100
AcDbSymbolTableRecord
100
AcDbLayerTableRecord
  2
RGB____0____0____0__
 70
0
 62
7
  6
CONTINUOUS
370
-3
390
F
  0
LAYER
  5
20E
100
AcDbSymbolTableRecord
100
AcDbLayerTableRecord
  2
SNAPLINE
 70
0
 62
7
  6
CONTINUOUS
370
-3
390
F
  0
LAYER
  5
20F
100
AcDbSymbolTableRecord
100
AcDbLayerTableRecord
  2
SUPERFICI
 70
0
 62
7
  6
CONTINUOUS
370
-3
390
F
  0
LAYER
  5
210
100
AcDbSymbolTableRecord
100
AcDbLayerTableRecord
  2
TRASH
 70
0
 62
7
  6
CONTINUOUS
370
-3
390
F
  0
ENDTAB
  0
TABLE
  2
STYLE
  5
3
100
AcDbSymbolTable
 70
1
  0
STYLE
  5
11
100
AcDbSymbolTableRecord
100
AcDbTextStyleTableRecord
  2
STANDARD
 70
0
 40
0.0
 41
0.8
 50
0.0
 71
0
 42
0.2
  3
txt
  4

  0
STYLE
  5
211
100
AcDbSymbolTableRecord
100
AcDbTextStyleTableRecord
  2
TEXTSTYLE_1
 70
0
 40
0.0
 41
0.8
 50
0.0
 71
0
 42
0.2
  3
gdt
  4

  0
ENDTAB
  0
TABLE
  2
VIEW
  5
6
100
AcDbSymbolTable
 70
0
  0
ENDTAB
  0
TABLE
  2
UCS
  5
7
100
AcDbSymbolTable
 70
0
  0
ENDTAB
  0
TABLE
  2
APPID
  5
9
100
AcDbSymbolTable
 70
1
  0
APPID
  5
212
100
AcDbSymbolTableRecord
100
AcDbRegAppTableRecord
  2
ACAD
 70
0
  0
ENDTAB
  0
TABLE
  2
BLOCK_RECORD
  5
1
100
AcDbSymbolTable
 70
0
  0
BLOCK_RECORD
  5
213
100
AcDbSymbolTableRecord
100
AcDbBlockTableRecord
  2
*Model_Space
  0
BLOCK_RECORD
  5
214
100
AcDbSymbolTableRecord
100
AcDbBlockTableRecord
  2
*Paper_Space
  0
BLOCK_RECORD
  5
215
100
AcDbSymbolTableRecord
100
AcDbBlockTableRecord
  2
_FILLED
  0
BLOCK_RECORD
  5
216
100
AcDbSymbolTableRecord
100
AcDbBlockTableRecord
  2
*D0
  0
BLOCK_RECORD
  5
217
100
AcDbSymbolTableRecord
100
AcDbBlockTableRecord
  2
*D1
  0
BLOCK_RECORD
  5
218
100
AcDbSymbolTableRecord
100
AcDbBlockTableRecord
  2
*D2
  0
ENDTAB
  0
TABLE
  2
DIMSTYLE
  5
A
100
AcDbSymbolTable
 70
1
100
AcDbDimStyleTable
 71
0
  0
DIMSTYLE
105
219
100
AcDbSymbolTableRecord
100
AcDbDimStyleTableRecord
  2
STANDARD
 70
0
  3

  4

 40
1.0
 41
3.0
 42
0.5
 43
0.38
 44
1.5
 45
0.0
 46
0.0
 47
0.01
 48
0.01
140
3.0
141
0.09
142
0.0
143
25.4
144
1.0
145
0.0
146
1.0
147
0.625
 71
1
 72
0
 73
0
 74
0
 75
0
 76
0
 77
1
 78
8
 79
2
170
0
171
1
172
0
173
0
174
0
175
0
176
0
177
0
178
0
270
2
179
2
271
2
272
2
273
2
274
2
275
0
280
0
281
0
282
0
283
1
284
8
285
0
286
0
287
3
288
0
340
11
278
44
341
215
342
215
343
215
344
215
  0
DIMSTYLE
105
21A
100
AcDbSymbolTableRecord
100
AcDbDimStyleTableRecord
  2
DIMSTYLE_1
 70
0
  3

  4

 40
1.0
 41
3.0
 42
0.5
 43
0.38
 44
1.5
 45
0.0
 46
0.0
 47
0.0
 48
0.0
140
3.0
141
0.09
142
0.0
143
25.4
144
1.0
145
0.0
146
1.0
147
0.75
 71
0
 72
0
 73
0
 74
0
 75
0
 76
0
 77
1
 78
8
 79
2
170
0
171
1
172
0
173
0
174
0
175
0
176
0
177
0
178
0
270
2
179
2
271
2
272
2
273
2
274
2
275
0
280
0
281
0
282
0
283
1
284
8
285
0
286
0
287
3
288
0
340
11
278
44
341
215
342
215
343
215
344
215
  0
ENDTAB
  0
ENDSEC
  0
SECTION
  2
BLOCKS
  0
BLOCK
  5
20
100
AcDbEntity
  8
0
100
AcDbBlockBegin
  2
*Model_Space
 70
0
 10
0.0
 20
0.0
 30
0.0
  3
*Model_Space
  1

  0
ENDBLK
  5
21
100
AcDbEntity
  8
0
100
AcDbBlockEnd
  0
BLOCK
  5
1C
100
AcDbEntity
  8
0
100
AcDbBlockBegin
  2
*Paper_Space
 70
0
 10
0.0
 20
0.0
 30
0.0
  3
*Paper_Space
  1

  0
ENDBLK
  5
1D
100
AcDbEntity
  8
0
100
AcDbBlockEnd
  0
BLOCK
  5
21B
100
AcDbEntity
  8
0
100
AcDbBlockBegin
  2
_FILLED
 70
64
 10
0.0
 20
0.0
  3
_FILLED
  1

  0
SOLID
  5
21C
100
AcDbEntity
  8
0
  6
BYBLOCK
 62
0
100
AcDbTrace
 10
0.0
 20
0.0
 11
-1.0
 21
0.3166666667
 12
-1.0
 22
-0.3166666667
 13
-1.0
 23
-0.3166666667
  0
ENDBLK
  5
21D
100
AcDbEntity
  8
0
  6
BYBLOCK
 62
0
100
AcDbBlockEnd
  0
BLOCK
  5
21E
100
AcDbEntity
  8
0
100
AcDbBlockBegin
 62
7
  6
CONTINUOUS
  2
*D0
 70
65
 10
0.0
 20
0.0
  3
*D0
  1

  0
LINE
  5
21F
100
AcDbEntity
  8
0
100
AcDbLine
 62
7
  6
CONTINUOUS
 10
40.0
 20
37.5000000001
 11
40.0
 21
49.5
  0
LINE
  5
220
100
AcDbEntity
  8
0
100
AcDbLine
 62
7
  6
CONTINUOUS
 10
-40.0
 20
37.5000000001
 11
-40.0
 21
49.5
  0
LINE
  5
221
100
AcDbEntity
  8
0
100
AcDbLine
 62
7
  6
CONTINUOUS
 10
40.0
 20
48.0
 11
0.0
 21
48.0
  0
LINE
  5
222
100
AcDbEntity
  8
0
100
AcDbLine
 62
7
  6
CONTINUOUS
 10
-40.0
 20
48.0
 11
0.0
 21
48.0
  0
INSERT
  5
223
100
AcDbEntity
  8
0
100
AcDbBlockReference
 62
7
  6
CONTINUOUS
  2
_FILLED
 10
40.0
 20
48.0
 41
3.0
 42
3.0
 43
3.0
 50
360.0
  0
INSERT
  5
224
100
AcDbEntity
  8
0
100
AcDbBlockReference
 62
7
  6
CONTINUOUS
  2
_FILLED
 10
-40.0
 20
48.0
 41
3.0
 42
3.0
 43
3.0
 50
180.0
  0
ENDBLK
  5
225
100
AcDbEntity
  8
0
  6
BYBLOCK
 62
0
100
AcDbBlockEnd
  0
BLOCK
  5
226
100
AcDbEntity
  8
0
100
AcDbBlockBegin
 62
7
  6
CONTINUOUS
  2
*D1
 70
65
 10
0.0
 20
0.0
  3
*D1
  1

  0
LINE
  5
227
100
AcDbEntity
  8
0
100
AcDbLine
 62
7
  6
CONTINUOUS
 10
37.5000000001
 20
40.0
 11
49.5
 21
40.0
  0
LINE
  5
228
100
AcDbEntity
  8
0
100
AcDbLine
 62
7
  6
CONTINUOUS
 10
37.5000000001
 20
-40.0
 11
49.5
 21
-40.0
  0
LINE
  5
229
100
AcDbEntity
  8
0
100
AcDbLine
 62
7
  6
CONTINUOUS
 10
48.0
 20
40.0
 11
48.0
 21
0.0
  0
LINE
  5
22A
100
AcDbEntity
  8
0
100
AcDbLine
 62
7
  6
CONTINUOUS
 10
48.0
 20
-40.0
 11
48.0
 21
0.0
  0
INSERT
  5
22B
100
AcDbEntity
  8
0
100
AcDbBlockReference
 62
7
  6
CONTINUOUS
  2
_FILLED
 10
48.0
 20
40.0
 41
3.0
 42
3.0
 43
3.0
 50
90.0
  0
INSERT
  5
22C
100
AcDbEntity
  8
0
100
AcDbBlockReference
 62
7
  6
CONTINUOUS
  2
_FILLED
 10
48.0
 20
-40.0
 41
3.0
 42
3.0
 43
3.0
 50
270.0
  0
ENDBLK
  5
22D
100
AcDbEntity
  8
0
  6
BYBLOCK
 62
0
100
AcDbBlockEnd
  0
BLOCK
  5
22E
100
AcDbEntity
  8
0
100
AcDbBlockBegin
 62
7
  6
CONTINUOUS
  2
*D2
 70
65
 10
0.0
 20
0.0
  3
*D2
  1

  0
LINE
  5
22F
100
AcDbEntity
  8
0
100
AcDbLine
 62
7
  6
CONTINUOUS
 10
-56.9010745393
 20
40.5
 11
-56.9010745393
 21
49.5
  0
LINE
  5
230
100
AcDbEntity
  8
0
100
AcDbLine
 62
7
  6
CONTINUOUS
 10
-65.901068625
 20
22.6827099171
 11
-65.901068625
 21
49.5
  0
LINE
  5
231
100
AcDbEntity
  8
0
100
AcDbLine
 62
7
  6
CONTINUOUS
 10
-56.9010745393
 20
48.0
 11
-61.4010715821
 21
48.0
  0
LINE
  5
232
100
AcDbEntity
  8
0
100
AcDbLine
 62
7
  6
CONTINUOUS
 10
-65.901068625
 20
48.0
 11
-61.4010715821
 21
48.0
  0
INSERT
  5
233
100
AcDbEntity
  8
0
100
AcDbBlockReference
 62
7
  6
CONTINUOUS
  2
_FILLED
 10
-56.9010745393
 20
48.0
 41
3.0
 42
3.0
 43
3.0
  0
INSERT
  5
234
100
AcDbEntity
  8
0
100
AcDbBlockReference
 62
7
  6
CONTINUOUS
  2
_FILLED
 10
-65.901068625
 20
48.0
 41
3.0
 42
3.0
 43
3.0
 50
180.0
  0
ENDBLK
  5
235
100
AcDbEntity
  8
0
  6
BYBLOCK
 62
0
100
AcDbBlockEnd
  0
ENDSEC
  0
SECTION
  2
ENTITIES
  0
DIMENSION
  5
236
100
AcDbEntity
  8
0
100
AcDbDimension
 62
7
  6
CONTINUOUS
  2
*D0
 10
-40.0
 20
48.0
 11
-2.3571428571
 21
48.0
 70
160
 71
2
 72
2
 41
0.9
 42
80.0
  3
DIMSTYLE_1
100
AcDbAlignedDimension
 13
40.0
 23
37.0000000001
 14
-40.0
 24
37.0000000001
 50
180.0
100
AcDbRotatedDimension
  0
DIMENSION
  5
237
100
AcDbEntity
  8
0
100
AcDbDimension
 62
7
  6
CONTINUOUS
  2
*D1
 10
48.0
 20
-40.0
 11
48.0
 21
-2.3571428571
 70
160
 71
2
 72
2
 41
0.9
 42
80.0
  3
DIMSTYLE_1
100
AcDbAlignedDimension
 13
37.0000000001
 23
40.0
 14
37.0000000001
 24
-40.0
 50
270.0
100
AcDbRotatedDimension
  0
DIMENSION
  5
238
100
AcDbEntity
  8
0
100
AcDbDimension
 62
7
  6
CONTINUOUS
  2
*D2
 10
-65.901068625
 20
48.0
 11
-62.5796430107
 21
48.0
 70
160
 71
2
 72
2
 41
0.9
 42
8.9999940857
  3
DIMSTYLE_1
100
AcDbAlignedDimension
 13
-56.9010745393
 23
40.0
 14
-65.901068625
 24
22.1827099171
 50
180.0
100
AcDbRotatedDimension
  0
LWPOLYLINE
  5
239
100
AcDbEntity
  8
RACCORDO
100
AcDbPolyline
 62
250
  6
CONTINUOUS
 90
13
 70
0
 10
-37.0
 20
39.7689897085
 10
-37.0052041257
 20
39.7563744356
 10
-37.0103393556
 20
39.7307061982
 10
-37.0153377062
 20
39.6923247951
 10
-37.0201330063
 20
39.6417383235
 10
-37.0246617728
 20
39.5796164527
 10
-37.0288640507
 20
39.5067815585
 10
-37.0326842075
 20
39.4241978372
 10
-37.0360716689
 20
39.3329585411
 10
-37.0389815889
 20
39.2342715059
 10
-37.0413754432
 20
39.129443161
 10
-37.0432215393
 20
39.0198612356
 10
-37.0444954358
 20
38.906976387
  0
LWPOLYLINE
  5
23A
100
AcDbEntity
  8
RACCORDO
100
AcDbPolyline
 62
250
  6
CONTINUOUS
 90
13
 70
0
 10
-37.0
 20
-39.7689896843
 10
-37.0052040326
 20
-39.7563742479
 10
-37.0103391739
 20
-39.7307058749
 10
-37.0153374443
 20
-39.6923243653
 10
-37.0201326764
 20
-39.6417378168
 10
-37.0246613904
 20
-39.5796158983
 10
-37.0288636349
 20
-39.5067809848
 10
-37.0326837803
 20
-39.4241972712
 10
-37.036071255
 20
-39.3329580074
 10
-37.0389812156
 20
-39.2342710264
 10
-37.0413751395
 20
-39.1294427547
 10
-37.0432213359
 20
-39.0198609177
 10
-37.0444953648
 20
-38.9069761689
  0
LWPOLYLINE
  5
23B
100
AcDbEntity
  8
RACCORDO
100
AcDbPolyline
 62
250
  6
CONTINUOUS
 90
13
 70
0
 10
-39.7693588419
 20
37.0
 10
-39.7566970084
 20
37.0044482391
 10
-39.7309220601
 20
37.0088373177
 10
-39.6923767971
 20
37.0131088623
 10
-39.6415738613
 20
37.0172060624
 10
-39.5791889188
 20
37.0210744262
 10
-39.506051673
 20
37.0246625056
 10
-39.4231348304
 20
37.0279225801
 10
-39.3315411635
 20
37.0308112915
 10
-39.2324888442
 20
37.0332902206
 10
-39.1272952429
 20
37.0353263984
 10
-39.017359407
 20
37.0368927443
 10
-38.9041434548
 20
37.0379684263
  0
LWPOLYLINE
  5
23C
100
AcDbEntity
  8
RACCORDO
100
AcDbPolyline
 62
250
  6
CONTINUOUS
 90
13
 70
0
 10
-39.7693588487
 20
-37.0
 10
-39.7566970098
 20
-37.0044481108
 10
-39.7309220567
 20
-37.0088370689
 10
-39.6923767896
 20
-37.0131085061
 10
-39.6415738506
 20
-37.017205617
 10
-39.5791889056
 20
-37.0210739148
 10
-39.5060516581
 20
-37.0246619557
 10
-39.4231348146
 20
-37.0279220235
 10
-39.3315411474
 20
-37.0308107636
 10
-39.2324888287
 20
-37.0332897601
 10
-39.1272952286
 20
-37.0353260466
 10
-39.0173593945
 20
-37.0368925445
 10
-38.9041434445
 20
-37.0379684234
  0
LINE
  5
23D
100
AcDbEntity
  8
RACCORDO
100
AcDbLine
 62
250
  6
CONTINUOUS
 10
-38.9243174974
 20
-36.4913887453
 11
-38.9295880163
 21
-36.3923247596
  0
LWPOLYLINE
  5
23E
100
AcDbEntity
  8
RACCORDO
100
AcDbPolyline
 62
250
  6
CONTINUOUS
 90
7
 70
0
 10
-38.9295880163
 20
-36.3923247596
 10
-38.9317736919
 20
-36.343474529
 10
-38.933208234
 20
-36.2947595326
 10
-38.9341587122
 20
-36.2466315016
 10
-38.9348816155
 20
-36.1981594035
 10
-38.9353710272
 20
-36.1489191797
 10
-38.9618108991
 20
-32.5672910584
  0
LINE
  5
23F
100
AcDbEntity
  8
RACCORDO
100
AcDbLine
 62
250
  6
CONTINUOUS
 10
-38.9197066888
 20
-36.5956552819
 11
-38.9243174974
 21
-36.4913887453
  0
LINE
  5
240
100
AcDbEntity
  8
RACCORDO
100
AcDbLine
 62
250
  6
CONTINUOUS
 10
-38.9129849232
 20
-36.7694020397
 11
-38.9197066888
 21
-36.5956552819
  0
LINE
  5
241
100
AcDbEntity
  8
RACCORDO
100
AcDbLine
 62
250
  6
CONTINUOUS
 10
-38.9041434445
 20
-37.0379684234
 11
-38.9129849232
 21
-36.7694020397
  0
LINE
  5
242
100
AcDbEntity
  8
RACCORDO
100
AcDbLine
 62
250
  6
CONTINUOUS
 10
-38.9618108991
 20
-32.5672910584
 11
-38.9782919991
 21
-29.5022767723
  0
LINE
  5
243
100
AcDbEntity
  8
RACCORDO
100
AcDbLine
 62
250
  6
CONTINUOUS
 10
-38.9782919991
 20
-29.5022767723
 11
-38.9888860788
 21
-26.1557434796
  0
LINE
  5
244
100
AcDbEntity
  8
RACCORDO
100
AcDbLine
 62
250
  6
CONTINUOUS
 10
-38.9888860788
 20
-26.1557434796
 11
-38.9961195286
 21
-20.2022051635
  0
LINE
  5
245
100
AcDbEntity
  8
0
100
AcDbLine
 62
7
  6
CONTINUOUS
 10
-40.0
 20
37.0000000001
 11
-40.0
 21
3.6749773271
  0
LINE
  5
246
100
AcDbEntity
  8
0
100
AcDbLine
 62
7
  6
CONTINUOUS
 10
-40.0
 20
-3.6749773271
 11
-40.0
 21
-37.0000000001
  0
LINE
  5
247
100
AcDbEntity
  8
0
100
AcDbLine
 62
7
  6
CONTINUOUS
 10
-39.8951844414
 20
-3.5
 11
-39.8951844414
 21
3.5
  0
LINE
  5
248
100
AcDbEntity
  8
RACCORDO
100
AcDbLine
 62
250
  6
CONTINUOUS
 10
-38.9961195286
 20
-20.2022051635
 11
-38.9968061287
 21
-11.3055704565
  0
LINE
  5
249
100
AcDbEntity
  8
RACCORDO
100
AcDbLine
 62
250
  6
CONTINUOUS
 10
-38.9968061287
 20
-11.3055704565
 11
-38.9969255093
 21
18.5818679836
  0
LINE
  5
24A
100
AcDbEntity
  8
RACCORDO
100
AcDbLine
 62
250
  6
CONTINUOUS
 10
-38.9969255093
 20
18.5818679836
 11
-38.9901610426
 21
25.522418297
  0
LINE
  5
24B
100
AcDbEntity
  8
RACCORDO
100
AcDbLine
 62
250
  6
CONTINUOUS
 10
-39.7693588487
 20
-37.0
 11
-39.7693588487
 21
37.0
  0
LINE
  5
24C
100
AcDbEntity
  8
RACCORDO
100
AcDbLine
 62
250
  6
CONTINUOUS
 10
-38.9901610426
 20
25.522418297
 11
-38.9800202457
 21
29.0841990466
  0
LINE
  5
24D
100
AcDbEntity
  8
RACCORDO
100
AcDbLine
 62
250
  6
CONTINUOUS
 10
-38.9800202457
 20
29.0841990466
 11
-38.9614324531
 21
32.6257001342
  0
LWPOLYLINE
  5
24E
100
AcDbEntity
  8
RACCORDO
100
AcDbPolyline
 62
250
  6
CONTINUOUS
 90
46
 70
0
 10
-39.7693588487
 20
37.0
 10
-39.7688346108
 20
37.0575704889
 10
-39.7669085713
 20
37.1199824313
 10
-39.7632526158
 20
37.1871937569
 10
-39.7574920442
 20
37.2593940448
 10
-39.7492599929
 20
37.336253763
 10
-39.7382677917
 20
37.4169281901
 10
-39.7241653503
 20
37.5012955723
 10
-39.7065896624
 20
37.5892147755
 10
-39.6853469539
 20
37.6797955092
 10
-39.6601299354
 20
37.7728566236
 10
-39.6306289158
 20
37.868193281
 10
-39.5967897975
 20
37.9648795286
 10
-39.5583816301
 20
38.0626882198
 10
-39.515181457
 20
38.1613657356
 10
-39.4673120681
 20
38.2599725348
 10
-39.4146456602
 20
38.3582572455
 10
-39.357067709
 20
38.4559502675
 10
-39.2948970096
 20
38.5521445903
 10
-39.2281239329
 20
38.6465955257
 10
-39.1567472558
 20
38.7390586882
 10
-39.0812707791
 20
38.8287229555
 10
-39.0017910427
 20
38.9153957298
 10
-38.9184156518
 20
38.9988854745
 10
-38.8318207764
 20
39.0785111995
 10
-38.7421908108
 20
39.1541638614
 10
-38.6497185451
 20
39.225739186
 10
-38.5552231795
 20
39.2927200063
 10
-38.4589490511
 20
39.3551033453
 10
-38.3611387929
 20
39.4128961333
 10
-38.262706922
 20
39.4657708995
 10
-38.1639217238
 20
39.5138405577
 10
-38.0650365825
 20
39.5572298124
 10
-37.9670054009
 20
39.5958079798
 10
-37.8700837646
 20
39.6297975358
 10
-37.7744996423
 20
39.6594295704
 10
-37.6811929106
 20
39.6847547201
 10
-37.5903699314
 20
39.7060842628
 10
-37.5022133087
 20
39.723727106
 10
-37.4176276442
 20
39.7378766799
 10
-37.3367547457
 20
39.7488989964
 10
-37.2597177824
 20
39.7571469237
 10
-37.1873769043
 20
39.762911082
 10
-37.1200670697
 20
39.7665619169
 10
-37.0575940505
 20
39.7684777921
 10
-37.0
 20
39.7689897085
  0
LWPOLYLINE
  5
24F
100
AcDbEntity
  8
RACCORDO
100
AcDbPolyline
 62
250
  6
CONTINUOUS
 90
7
 70
0
 10
-38.9614324531
 20
32.6257001342
 10
-38.9348980998
 20
36.1938617477
 10
-38.9342005225
 20
36.2430435751
 10
-38.9332894504
 20
36.2918839539
 10
-38.9318743699
 20
36.3413014171
 10
-38.9296689892
 20
36.3908571126
 10
-38.9243242235
 20
36.4912320341
  0
LINE
  5
250
100
AcDbEntity
  8
RACCORDO
100
AcDbLine
 62
250
  6
CONTINUOUS
 10
-38.9129344423
 20
36.770806563
 11
-38.904143444
 21
37.0379684233
  0
LWPOLYLINE
  5
251
100
AcDbEntity
  8
RACCORDO
100
AcDbPolyline
 62
250
  6
CONTINUOUS
 90
46
 70
0
 10
-38.9041434548
 20
37.0379684263
 10
-38.9026086385
 20
37.076050187
 10
-38.9000763462
 20
37.1173402826
 10
-38.8963367464
 20
37.1618109093
 10
-38.8911448428
 20
37.2095867759
 10
-38.8842726423
 20
37.2604511593
 10
-38.8755527986
 20
37.3138485061
 10
-38.8647618191
 20
37.3696998305
 10
-38.8516687133
 20
37.4279137964
 10
-38.836165686
 20
37.4879057342
 10
-38.8180554449
 20
37.5495599702
 10
-38.7971431356
 20
37.612743162
 10
-38.7734128903
 20
37.676843511
 10
-38.7467177021
 20
37.7417134843
 10
-38.7169166368
 20
37.8071916049
 10
-38.6841035663
 20
37.8726606549
 10
-38.6481934086
 20
37.9379602692
 10
-38.6091119548
 20
38.0029219885
 10
-38.5670756808
 20
38.0669526148
 10
-38.5220722217
 20
38.1298983775
 10
-38.474103126
 20
38.1916032348
 10
-38.4235101889
 20
38.2515278351
 10
-38.3703544893
 20
38.3095454894
 10
-38.3147020002
 20
38.3655396693
 10
-38.2569957389
 20
38.4190639451
 10
-38.1973456808
 20
38.4700516127
 10
-38.1358749069
 20
38.5184385128
 10
-38.0731254706
 20
38.563876267
 10
-38.0092519815
 20
38.6063606953
 10
-37.9444095196
 20
38.6458973388
 10
-37.8792005832
 20
38.6822587569
 10
-37.813795998
 20
38.7155144928
 10
-37.748355566
 20
38.7457472658
 10
-37.6835030928
 20
38.7728590289
 10
-37.619399607
 20
38.7969918859
 10
-37.5561931664
 20
38.818291693
 10
-37.4945059449
 20
38.8367688264
 10
-37.4344741619
 20
38.8526173916
 10
-37.3762160986
 20
38.8660327095
 10
-37.320326722
 20
38.8771187934
 10
-37.2668992751
 20
38.8861077095
 10
-37.2160134437
 20
38.8932244937
 10
-37.1682333523
 20
38.8986361267
 10
-37.1237789322
 20
38.9025726109
 10
-37.0825234369
 20
38.9052820205
 10
-37.0444953647
 20
38.9069761685
  0
LINE
  5
252
100
AcDbEntity
  8
RACCORDO
100
AcDbLine
 62
250
  6
CONTINUOUS
 10
-38.9196713461
 20
36.5965316907
 11
-38.9129344423
 21
36.770806563
  0
LINE
  5
253
100
AcDbEntity
  8
RACCORDO
100
AcDbLine
 62
250
  6
CONTINUOUS
 10
-38.9243242235
 20
36.4912320341
 11
-38.9196713461
 21
36.5965316907
  0
LWPOLYLINE
  5
254
100
AcDbEntity
  8
RACCORDO
100
AcDbPolyline
 62
250
  6
CONTINUOUS
 90
6
 70
0
 10
36.6536113781
 20
-38.9224205406
 10
36.579959839
 20
-38.9259792059
 10
36.5059788936
 20
-38.9303549292
 10
36.4315911826
 20
-38.9350871177
 10
36.35431332
 20
-38.9390614796
 10
36.2739959136
 20
-38.9417371316
  0
LINE
  5
255
100
AcDbEntity
  8
RACCORDO
100
AcDbLine
 62
250
  6
CONTINUOUS
 10
36.8809221095
 20
-38.9129688874
 11
36.6536113781
 21
-38.9224205406
  0
LINE
  5
256
100
AcDbEntity
  8
RACCORDO
100
AcDbLine
 62
250
  6
CONTINUOUS
 10
37.0444954435
 20
-38.9069764105
 11
36.8809221095
 21
-38.9129688874
  0
LINE
  5
257
100
AcDbEntity
  8
RACCORDO
100
AcDbLine
 62
250
  6
CONTINUOUS
 10
36.2739959136
 20
-38.9417371316
 11
36.1066876315
 21
-38.9453069075
  0
LINE
  5
258
100
AcDbEntity
  8
RACCORDO
100
AcDbLine
 62
250
  6
CONTINUOUS
 10
36.1066876315
 20
-38.9453069075
 11
28.6193227998
 21
-39.062605462
  0
LINE
  5
259
100
AcDbEntity
  8
RACCORDO
100
AcDbLine
 62
250
  6
CONTINUOUS
 10
28.6193227998
 20
-39.062605462
 11
26.8157707838
 21
-39.0857306186
  0
LINE
  5
25A
100
AcDbEntity
  8
RACCORDO
100
AcDbLine
 62
250
  6
CONTINUOUS
 10
26.8157707838
 20
-39.0857306186
 11
25.5672463129
 21
-39.0965213041
  0
LINE
  5
25B
100
AcDbEntity
  8
RACCORDO
100
AcDbLine
 62
250
  6
CONTINUOUS
 10
24.6074699329
 20
-39.0994029685
 11
23.2869361939
 21
-39.1078276979
  0
LINE
  5
25C
100
AcDbEntity
  8
RACCORDO
100
AcDbLine
 62
250
  6
CONTINUOUS
 10
25.5672463129
 20
-39.0965213041
 11
24.6074699329
 21
-39.0994029685
  0
LINE
  5
25D
100
AcDbEntity
  8
0
100
AcDbLine
 62
7
  6
CONTINUOUS
 10
-37.0000000001
 20
-40.0
 11
37.0000000001
 21
-40.0
  0
LINE
  5
25E
100
AcDbEntity
  8
RACCORDO
100
AcDbLine
 62
250
  6
CONTINUOUS
 10
6.1190585557
 20
-39.7616775937
 11
-18.7078252808
 21
-39.7612499755
  0
LINE
  5
25F
100
AcDbEntity
  8
RACCORDO
100
AcDbLine
 62
250
  6
CONTINUOUS
 10
-14.8527668699
 20
-39.0863177902
 11
-22.657573613
 21
-39.1094868313
  0
LINE
  5
260
100
AcDbEntity
  8
RACCORDO
100
AcDbLine
 62
250
  6
CONTINUOUS
 10
23.2869361939
 20
-39.1078276979
 11
22.5188222242
 21
-39.1094033359
  0
LINE
  5
261
100
AcDbEntity
  8
RACCORDO
100
AcDbLine
 62
250
  6
CONTINUOUS
 10
-18.7078252808
 20
-39.7612499755
 11
-37.0
 21
-39.7689897085
  0
LINE
  5
262
100
AcDbEntity
  8
RACCORDO
100
AcDbLine
 62
250
  6
CONTINUOUS
 10
31.5207841763
 20
-39.7642301603
 11
6.1190585557
 21
-39.7616775937
  0
LINE
  5
263
100
AcDbEntity
  8
RACCORDO
100
AcDbLine
 62
250
  6
CONTINUOUS
 10
2.0339247091
 20
-39.0965143048
 11
-2.9441042699
 21
-39.0957683262
  0
LINE
  5
264
100
AcDbEntity
  8
RACCORDO
100
AcDbLine
 62
250
  6
CONTINUOUS
 10
-2.9441042699
 20
-39.0957683262
 11
-14.8527668699
 21
-39.0863177902
  0
LINE
  5
265
100
AcDbEntity
  8
RACCORDO
100
AcDbLine
 62
250
  6
CONTINUOUS
 10
37.0
 20
-39.7689897085
 11
31.5207841763
 21
-39.7642301603
  0
LINE
  5
266
100
AcDbEntity
  8
RACCORDO
100
AcDbLine
 62
250
  6
CONTINUOUS
 10
15.9134405053
 20
-39.0885598126
 11
2.0339247091
 21
-39.0965143048
  0
LINE
  5
267
100
AcDbEntity
  8
RACCORDO
100
AcDbLine
 62
250
  6
CONTINUOUS
 10
22.5188222242
 20
-39.1094033359
 11
15.9134405053
 21
-39.0885598126
  0
LINE
  5
268
100
AcDbEntity
  8
RACCORDO
100
AcDbLine
 62
250
  6
CONTINUOUS
 10
-24.7745446505
 20
-39.0982582537
 11
-25.5572320516
 21
-39.0964260941
  0
LINE
  5
269
100
AcDbEntity
  8
RACCORDO
100
AcDbLine
 62
250
  6
CONTINUOUS
 10
-22.657573613
 20
-39.1094868313
 11
-23.6259287472
 21
-39.1061564813
  0
LINE
  5
26A
100
AcDbEntity
  8
RACCORDO
100
AcDbLine
 62
250
  6
CONTINUOUS
 10
-23.6259287472
 20
-39.1061564813
 11
-24.7745446505
 21
-39.0982582537
  0
LWPOLYLINE
  5
26B
100
AcDbEntity
  8
RACCORDO
100
AcDbPolyline
 62
250
  6
CONTINUOUS
 90
46
 70
0
 10
-37.0
 20
-39.7689897085
 10
-37.0576483284
 20
-39.7684766352
 10
-37.119847109
 20
-39.7665710583
 10
-37.1865553547
 20
-39.7629655679
 10
-37.2579328132
 20
-39.7573122129
 10
-37.3336863255
 20
-39.7492693754
 10
-37.413073055
 20
-39.738562207
 10
-37.4959779649
 20
-39.7248625079
 10
-37.5822689608
 20
-39.7078303426
 10
-37.6711608825
 20
-39.6872701209
 10
-37.7624828997
 20
-39.6628883968
 10
-37.8560423419
 20
-39.6343891686
 10
-37.9510175239
 20
-39.6016944928
 10
-38.0471922954
 20
-39.5645747159
 10
-38.1443238116
 20
-39.5228076787
 10
-38.2415680253
 20
-39.4764677216
 10
-38.3386778518
 20
-39.4254153949
 10
-38.4353898807
 20
-39.3695223951
 10
-38.5308813384
 20
-39.3090320488
 10
-38.6249042885
 20
-39.2439078403
 10
-38.7172043962
 20
-39.1741248793
 10
-38.807025897
 20
-39.1000958304
 10
-38.8941738812
 20
-39.0218671058
 10
-38.9784132354
 20
-38.9395309032
 10
-39.0590417162
 20
-38.8537165029
 10
-39.1359403895
 20
-38.7645552439
 10
-39.2089486134
 20
-38.6722387126
 10
-39.2774609092
 20
-38.5776278377
 10
-39.341448485
 20
-38.48095219
 10
-39.4008879891
 20
-38.382447698
 10
-39.455374714
 20
-38.2831012529
 10
-39.505003433
 20
-38.1831839602
 10
-39.549882652
 20
-38.0829507282
 10
-39.5898294167
 20
-37.9834405856
 10
-39.6250617007
 20
-37.8849183257
 10
-39.6558069045
 20
-37.7876212838
 10
-39.682087443
 20
-37.6925839257
 10
-39.7042231361
 20
-37.6000243155
 10
-39.7225319246
 20
-37.5101352706
 10
-39.7372011757
 20
-37.4239180505
 10
-39.748615682
 20
-37.341524067
 10
-39.7571464258
 20
-37.2630838239
 10
-39.7630945732
 20
-37.1895513642
 10
-39.7668529322
 20
-37.1212959982
 10
-39.7688243434
 20
-37.0580975084
 10
-39.7693588487
 20
-37.0
  0
LINE
  5
26C
100
AcDbEntity
  8
RACCORDO
100
AcDbLine
 62
250
  6
CONTINUOUS
 10
-25.5572320516
 20
-39.0964260941
 11
-26.8176048137
 21
-39.0857092327
  0
LINE
  5
26D
100
AcDbEntity
  8
RACCORDO
100
AcDbLine
 62
250
  6
CONTINUOUS
 10
-26.8176048137
 20
-39.0857092327
 11
-28.8429406242
 21
-39.0593096514
  0
LINE
  5
26E
100
AcDbEntity
  8
RACCORDO
100
AcDbLine
 62
250
  6
CONTINUOUS
 10
-28.8429406242
 20
-39.0593096514
 11
-36.0842900314
 21
-38.9455887527
  0
LWPOLYLINE
  5
26F
100
AcDbEntity
  8
RACCORDO
100
AcDbPolyline
 62
250
  6
CONTINUOUS
 90
8
 70
0
 10
-36.0842900314
 20
-38.9455887527
 10
-36.2570583511
 20
-38.94237615
 10
-36.3396420439
 20
-38.9398254187
 10
-36.4188829019
 20
-38.9358
 10
-36.4950816306
 20
-38.9309281775
 10
-36.5708544873
 20
-38.9264201967
 10
-36.6461916766
 20
-38.9227679922
 10
-36.7979674341
 20
-38.9162770556
  0
LINE
  5
270
100
AcDbEntity
  8
RACCORDO
100
AcDbLine
 62
250
  6
CONTINUOUS
 10
-36.7979674341
 20
-38.9162770556
 11
-37.0444954326
 21
-38.9069763769
  0
LWPOLYLINE
  5
271
100
AcDbEntity
  8
RACCORDO
100
AcDbPolyline
 62
250
  6
CONTINUOUS
 90
46
 70
0
 10
-37.0444953648
 20
-38.9069761689
 10
-37.0825594995
 20
-38.9052800687
 10
-37.123633808
 20
-38.9025837541
 10
-37.1676907126
 20
-38.8986905771
 10
-37.2148343265
 20
-38.8933728048
 10
-37.2648722449
 20
-38.8864180129
 10
-37.3173175561
 20
-38.8776666937
 10
-37.3720957787
 20
-38.8669093664
 10
-37.4291201208
 20
-38.8539305249
 10
-37.4878744701
 20
-38.8386221064
 10
-37.5482482144
 20
-38.8207981478
 10
-37.6101141293
 20
-38.8002740966
 10
-37.6729281685
 20
-38.7770196702
 10
-37.7365493367
 20
-38.7508900517
 10
-37.8008243745
 20
-38.7217436712
 10
-37.8652018838
 20
-38.6896407217
 10
-37.9295258379
 20
-38.6544887846
 10
-37.9936288421
 20
-38.6162079569
 10
-38.0569700765
 20
-38.5749692051
 10
-38.1193911143
 20
-38.5307474707
 10
-38.1807302467
 20
-38.4835296976
 10
-38.2404876557
 20
-38.4335963499
 10
-38.298538474
 20
-38.3809745031
 10
-38.3547396043
 20
-38.3257206998
 10
-38.4086323253
 20
-38.2682479642
 10
-38.460144484
 20
-38.2086326422
 10
-38.5091735542
 20
-38.1470013291
 10
-38.5553112623
 20
-38.0839275279
 10
-38.5985364659
 20
-38.0195576883
 10
-38.6388400551
 20
-37.9540404059
 10
-38.6759486225
 20
-37.8880227123
 10
-38.7099234863
 20
-37.8216738674
 10
-38.7408379172
 20
-37.7551560124
 10
-38.7685582419
 20
-37.6891518925
 10
-38.7932224031
 20
-37.6238296152
 10
-38.8149750805
 20
-37.5593432943
 10
-38.8338096371
 20
-37.4963767683
 10
-38.8499269867
 20
-37.4350720507
 10
-38.8635312029
 20
-37.375552283
 10
-38.8747239931
 20
-37.3184753777
 10
-38.8837502207
 20
-37.263939292
 10
-38.8908466705
 20
-37.2120285774
 10
-38.8961864598
 20
-37.1633708889
 10
-38.9000133553
 20
-37.1182091862
 10
-38.9025910595
 20
-37.0763986204
 10
-38.9041434547
 20
-37.0379684263
  0
LINE
  5
272
100
AcDbEntity
  8
RACCORDO
100
AcDbLine
 62
250
  6
CONTINUOUS
 10
-37.0
 20
40.0
 11
-37.0
 21
39.7689897085
  0
LINE
  5
273
100
AcDbEntity
  8
RACCORDO
100
AcDbLine
 62
250
  6
CONTINUOUS
 10
-37.0
 20
-40.0
 11
-37.0
 21
-39.7689897085
  0
LINE
  5
274
100
AcDbEntity
  8
RACCORDO
100
AcDbLine
 62
250
  6
CONTINUOUS
 10
40.0
 20
-37.0
 11
39.7693588487
 21
-37.0
  0
LINE
  5
275
100
AcDbEntity
  8
RACCORDO
100
AcDbLine
 62
250
  6
CONTINUOUS
 10
-39.7693588487
 20
-37.0
 11
-40.0
 21
-37.0
  0
LINE
  5
276
100
AcDbEntity
  8
0
100
AcDbLine
 62
7
  6
CONTINUOUS
 10
-40.0
 20
-3.6749773271
 11
-39.8951844414
 21
-3.5
  0
LINE
  5
277
100
AcDbEntity
  8
0
100
AcDbLine
 62
7
  6
CONTINUOUS
 10
-39.8951844414
 20
3.5
 11
-40.0
 21
3.6749773271
  0
LWPOLYLINE
  5
278
100
AcDbEntity
  8
RACCORDO
100
AcDbPolyline
 62
250
  6
CONTINUOUS
 90
3
 70
0
 10
-12.8777828351
 20
25.0815770771
 10
-12.8197715956
 20
25.118075324
 10
-12.7905680907
 20
25.1361766674
  0
LWPOLYLINE
  5
279
100
AcDbEntity
  8
RACCORDO
100
AcDbPolyline
 62
250
  6
CONTINUOUS
 90
27
 70
0
 10
-12.7905680907
 20
25.1361766674
 10
-12.730731187
 20
25.1727099002
 10
-12.7002292719
 20
25.1910303038
 10
-12.6691708999
 20
25.2092834406
 10
-12.6376963203
 20
25.2274221029
 10
-12.6060184024
 20
25.2452807672
 10
-12.5740866004
 20
25.2625898785
 10
-12.5420923059
 20
25.2790757499
 10
-12.5097589223
 20
25.295058757
 10
-12.4763326273
 20
25.3111342405
 10
-12.4413595385
 20
25.327578381
 10
-12.4048449819
 20
25.3442462078
 10
-12.3666750024
 20
25.3610909567
 10
-12.3269970619
 20
25.3779723739
 10
-12.2858152984
 20
25.3948397614
 10
-12.2428072031
 20
25.4117555854
 10
-12.1978459755
 20
25.428706504
 10
-12.150961864
 20
25.4455926817
 10
-12.1020682452
 20
25.462326434
 10
-12.0507653186
 20
25.4789403508
 10
-11.9974715862
 20
25.4952026635
 10
-11.9433368632
 20
25.5106801637
 10
-11.8882561238
 20
25.5253368996
 10
-11.8323482345
 20
25.5391449597
 10
-11.7771469824
 20
25.5518089238
 10
-11.7231790424
 20
25.5631258596
 10
-11.6697677323
 20
25.5734346727
  0
LWPOLYLINE
  5
27A
100
AcDbEntity
  8
RACCORDO
100
AcDbPolyline
 62
250
  6
CONTINUOUS
 90
13
 70
0
 10
11.6697677314
 20
-25.5734346708
 10
11.5631450399
 20
-25.5931443705
 10
11.5094986191
 20
-25.6026447028
 10
11.4555320161
 20
-25.6116171847
 10
11.4020743456
 20
-25.6199300186
 10
11.3490619535
 20
-25.6276017488
 10
11.2949247093
 20
-25.6345888386
 10
11.2393688101
 20
-25.6407647218
 10
11.1825672577
 20
-25.6461663394
 10
11.1236725901
 20
-25.6508719688
 10
11.0624122827
 20
-25.6548145877
 10
10.9990935678
 20
-25.6578326121
 10
10.9337437989
 20
-25.6598161566
  0
LINE
  5
27B
100
AcDbEntity
  8
0
100
AcDbLine
 62
7
  6
CONTINUOUS
 10
13.75
 20
-28.8
 11
13.096695
 21
-28.800007
  0
LINE
  5
27C
100
AcDbEntity
  8
0
100
AcDbLine
 62
7
  6
CONTINUOUS
 10
9.180144
 20
-28.800007
 11
8.600122
 21
-28.800015
  0
LINE
  5
27D
100
AcDbEntity
  8
0
100
AcDbLine
 62
7
  6
CONTINUOUS
 10
7.085039
 20
-28.800007
 11
6.505031
 21
-28.800015
  0
LINE
  5
27E
100
AcDbEntity
  8
0
100
AcDbLine
 62
7
  6
CONTINUOUS
 10
4.796627
 20
-28.800015
 11
4.216605
 21
-28.800022
  0
LINE
  5
27F
100
AcDbEntity
  8
0
100
AcDbLine
 62
7
  6
CONTINUOUS
 10
2.898794
 20
-28.800015
 11
2.318751
 21
-28.800022
  0
LINE
  5
280
100
AcDbEntity
  8
0
100
AcDbLine
 62
7
  6
CONTINUOUS
 10
8.213443
 20
-28.800015
 11
7.633421
 21
-28.800015
  0
LINE
  5
281
100
AcDbEntity
  8
0
100
AcDbLine
 62
7
  6
CONTINUOUS
 10
5.956656
 20
-28.800015
 11
5.376634
 21
-28.800015
  0
LINE
  5
282
100
AcDbEntity
  8
0
100
AcDbLine
 62
7
  6
CONTINUOUS
 10
12.009144
 20
-28.800007
 11
11.429115
 21
-28.800007
  0
LINE
  5
283
100
AcDbEntity
  8
0
100
AcDbLine
 62
7
  6
CONTINUOUS
 10
11.042437
 20
-28.800015
 11
10.462408
 21
-28.800007
  0
LINE
  5
284
100
AcDbEntity
  8
0
100
AcDbLine
 62
7
  6
CONTINUOUS
 10
10.279302
 20
-28.229679
 11
9.363257
 21
-28.229679
  0
LINE
  5
285
100
AcDbEntity
  8
0
100
AcDbLine
 62
7
  6
CONTINUOUS
 10
9.540179
 20
-27.678657
 11
10.102373
 21
-27.678657
  0
LINE
  5
286
100
AcDbEntity
  8
0
100
AcDbLine
 62
7
  6
CONTINUOUS
 10
12.515441
 20
-27.678657
 11
12.00921
 21
-27.67865
  0
LINE
  5
287
100
AcDbEntity
  8
0
100
AcDbLine
 62
7
  6
CONTINUOUS
 10
12.001148
 20
-27.142128
 11
12.706824
 21
-27.142128
  0
LINE
  5
288
100
AcDbEntity
  8
0
100
AcDbLine
 62
7
  6
CONTINUOUS
 10
12.706824
 20
-26.436398
 11
12.00114
 21
-26.436398
  0
LINE
  5
289
100
AcDbEntity
  8
0
100
AcDbLine
 62
7
  6
CONTINUOUS
 10
1.387619
 20
-25.899884
 11
1.967648
 21
-25.899884
  0
LINE
  5
28A
100
AcDbEntity
  8
0
100
AcDbLine
 62
7
  6
CONTINUOUS
 10
3.249905
 20
-25.899884
 11
3.829934
 21
-25.899884
  0
LINE
  5
28B
100
AcDbEntity
  8
0
100
AcDbLine
 62
7
  6
CONTINUOUS
 10
4.216612
 20
-25.899884
 11
4.796634
 21
-25.899884
  0
LINE
  5
28C
100
AcDbEntity
  8
0
100
AcDbLine
 62
7
  6
CONTINUOUS
 10
5.376634
 20
-25.899884
 11
6.253471
 21
-25.899884
  0
LINE
  5
28D
100
AcDbEntity
  8
0
100
AcDbLine
 62
7
  6
CONTINUOUS
 10
7.336606
 20
-25.899884
 11
8.213443
 21
-25.899884
  0
LINE
  5
28E
100
AcDbEntity
  8
0
100
AcDbLine
 62
7
  6
CONTINUOUS
 10
9.531247
 20
-25.899877
 11
10.111297
 21
-25.899877
  0
LINE
  5
28F
100
AcDbEntity
  8
0
100
AcDbLine
 62
7
  6
CONTINUOUS
 10
11.429115
 20
-25.899877
 11
12.78733
 21
-25.899877
  0
LWPOLYLINE
  5
290
100
AcDbEntity
  8
RACCORDO
100
AcDbPolyline
 62
250
  6
CONTINUOUS
 90
36
 70
0
 10
-10.9337502943
 20
-25.65981594
 10
-11.0009026301
 20
-25.6577584282
 10
-11.0660548234
 20
-25.6546040419
 10
-11.1291780074
 20
-25.6504648849
 10
-11.1899922978
 20
-25.645510239
 10
-11.2487137162
 20
-25.6398057379
 10
-11.3060731531
 20
-25.6332652198
 10
-11.3619882775
 20
-25.6258017667
 10
-11.4167332326
 20
-25.6175907162
 10
-11.471562816
 20
-25.6088396028
 10
-11.5260933781
 20
-25.5997288958
 10
-11.5797414994
 20
-25.5902846273
 10
-11.6331758279
 20
-25.580440742
 10
-11.6869390673
 20
-25.5702223826
 10
-11.7412261971
 20
-25.5594147387
 10
-11.7966398363
 20
-25.5474311973
 10
-11.8538911087
 20
-25.5339206192
 10
-11.9122103013
 20
-25.5190846431
 10
-11.9696433821
 20
-25.5033118356
 10
-12.0259537696
 20
-25.4866585896
 10
-12.0814069994
 20
-25.4691296292
 10
-12.1348973423
 20
-25.4511772341
 10
-12.1860718069
 20
-25.4330259062
 10
-12.2352276286
 20
-25.4146671447
 10
-12.282223606
 20
-25.3962745181
 10
-12.3271010478
 20
-25.3779261258
 10
-12.369984839
 20
-25.3596499035
 10
-12.4108992995
 20
-25.3415311384
 10
-12.4496223958
 20
-25.3237718462
 10
-12.4861056265
 20
-25.3064785967
 10
-12.5205697205
 20
-25.2896097095
 10
-12.553289572
 20
-25.2731268944
 10
-12.5849229752
 20
-25.2566928144
 10
-12.6164403992
 20
-25.2396763349
 10
-12.6477956679
 20
-25.2219283509
 10
-12.6784644131
 20
-25.2039187045
  0
LWPOLYLINE
  5
291
100
AcDbEntity
  8
RACCORDO
100
AcDbPolyline
 62
250
  6
CONTINUOUS
 90
3
 70
0
 10
-12.6784644131
 20
-25.2039187045
 10
-12.7376849382
 20
-25.1684870786
 10
-12.766068622
 20
-25.1512143997
  0
LWPOLYLINE
  5
292
100
AcDbEntity
  8
RACCORDO
100
AcDbPolyline
 62
250
  6
CONTINUOUS
 90
3
 70
0
 10
-12.766068622
 20
-25.1512143997
 10
-12.8219818301
 20
-25.1166849747
 10
-12.8494619464
 20
-25.0994825735
  0
LWPOLYLINE
  5
293
100
AcDbEntity
  8
RACCORDO
100
AcDbPolyline
 62
250
  6
CONTINUOUS
 90
49
 70
0
 10
-12.8494619464
 20
-25.0994825735
 10
-12.9047637897
 20
-25.064358935
 10
-12.9325414656
 20
-25.0464540493
 10
-12.9608876338
 20
-25.027943655
 10
-12.9897700557
 20
-25.0088259279
 10
-13.0190807241
 20
-24.9891562777
 10
-13.0491298745
 20
-24.968652628
 10
-13.0798706833
 20
-24.9473378808
 10
-13.1113146074
 20
-24.9251289158
 10
-13.1438346839
 20
-24.9015634638
 10
-13.1776516755
 20
-24.8763578687
 10
-13.2126228007
 20
-24.8495633597
 10
-13.2485910647
 20
-24.8211870987
 10
-13.2856572975
 20
-24.7910552042
 10
-13.3236436147
 20
-24.7592120085
 10
-13.3619917047
 20
-24.7260145074
 10
-13.4005372893
 20
-24.691538543
 10
-13.4393573501
 20
-24.655658346
 10
-13.4782719112
 20
-24.6184589424
 10
-13.5171054227
 20
-24.5800544589
 10
-13.5559554753
 20
-24.5402899168
 10
-13.5950407654
 20
-24.4988403317
 10
-13.6342932269
 20
-24.4556843788
 10
-13.6736568869
 20
-24.4107796104
 10
-13.7133338455
 20
-24.3637421698
 10
-13.7532416363
 20
-24.314526371
 10
-13.7932869974
 20
-24.2630865899
 10
-13.8336128982
 20
-24.2090110128
 10
-13.8741070384
 20
-24.1522379831
 10
-13.9146299748
 20
-24.0927275858
 10
-13.9552317271
 20
-24.0300794808
 10
-13.9957486858
 20
-23.9642457482
 10
-14.0360110133
 20
-23.8951578745
 10
-14.0760039195
 20
-23.8223552875
 10
-14.1155731064
 20
-23.7456920322
 10
-14.1544137744
 20
-23.6652345868
 10
-14.1922098968
 20
-23.5808948122
 10
-14.2283981828
 20
-23.4928440708
 10
-14.26300523
 20
-23.4009253002
 10
-14.2965983647
 20
-23.3043173821
 10
-14.3290158589
 20
-23.2026208056
 10
-14.3599544344
 20
-23.0951743724
 10
-14.3895022079
 20
-22.9808429819
 10
-14.4174276997
 20
-22.85901141
 10
-14.4424335569
 20
-22.7309482307
 10
-14.4630551565
 20
-22.5983686264
 10
-14.4785877599
 20
-22.4620706455
 10
-14.4889005169
 20
-22.321758108
 10
-14.4935630495
 20
-22.1776004521
  0
LWPOLYLINE
  5
294
100
AcDbEntity
  8
RACCORDO
100
AcDbPolyline
 62
250
  6
CONTINUOUS
 90
12
 70
0
 10
12.8381390756
 20
-22.1990057248
 10
12.7502526258
 20
-22.2104590952
 10
12.6569795052
 20
-22.2095576267
 10
12.5593418655
 20
-22.1981355575
 10
12.4581081033
 20
-22.1681059992
 10
12.3537544958
 20
-22.133019843
 10
12.2485640679
 20
-22.1210631907
 10
12.1449558509
 20
-22.1440994237
 10
12.0423558947
 20
-22.1789364913
 10
11.9412114092
 20
-22.2012165125
 10
11.8434083639
 20
-22.2050223398
 10
11.6623665998
 20
-22.2003850673
  0
LINE
  5
295
100
AcDbEntity
  8
RACCORDO
100
AcDbLine
 62
250
  6
CONTINUOUS
 10
10.9337438013
 20
-25.6598161962
 11
10.3511307101
 21
-25.6706913756
  0
LINE
  5
296
100
AcDbEntity
  8
RACCORDO
100
AcDbLine
 62
250
  6
CONTINUOUS
 10
10.3511307101
 20
-25.6706913756
 11
9.5420536653
 21
-25.6817934989
  0
LINE
  5
297
100
AcDbEntity
  8
RACCORDO
100
AcDbLine
 62
250
  6
CONTINUOUS
 10
12.8381416122
 20
-22.1990057193
 11
14.4935633753
 21
-22.1776076359
  0
LINE
  5
298
100
AcDbEntity
  8
RACCORDO
100
AcDbLine
 62
250
  6
CONTINUOUS
 10
9.5420536653
 20
-25.6817934989
 11
8.2602941497
 21
-25.6929964068
  0
LINE
  5
299
100
AcDbEntity
  8
RACCORDO
100
AcDbLine
 62
250
  6
CONTINUOUS
 10
8.2602941497
 20
-25.6929964068
 11
6.4542909453
 21
-25.7007888539
  0
LINE
  5
29A
100
AcDbEntity
  8
0
100
AcDbLine
 62
7
  6
CONTINUOUS
 10
10.95
 20
-22.5
 11
-10.95
 21
-22.5
  0
LINE
  5
29B
100
AcDbEntity
  8
RACCORDO
100
AcDbLine
 62
250
  6
CONTINUOUS
 10
6.4542909453
 20
-25.7007888539
 11
3.5819121246
 21
-25.7035484167
  0
LINE
  5
29C
100
AcDbEntity
  8
RACCORDO
100
AcDbLine
 62
250
  6
CONTINUOUS
 10
-0.5
 20
-24.0999816306
 11
-10.9489516351
 21
-24.0988099934
  0
LINE
  5
29D
100
AcDbEntity
  8
RACCORDO
100
AcDbLine
 62
250
  6
CONTINUOUS
 10
10.9489482822
 20
-24.0988099743
 11
-0.5
 21
-24.0999834367
  0
LINE
  5
29E
100
AcDbEntity
  8
RACCORDO
100
AcDbLine
 62
250
  6
CONTINUOUS
 10
-11.662366261
 20
-22.2003865156
 11
-11.2499999953
 21
-22.2000532983
  0
LINE
  5
29F
100
AcDbEntity
  8
RACCORDO
100
AcDbLine
 62
250
  6
CONTINUOUS
 10
11.6623665998
 20
-22.2003850673
 11
11.25
 21
-22.2
  0
LINE
  5
2A0
100
AcDbEntity
  8
RACCORDO
100
AcDbLine
 62
250
  6
CONTINUOUS
 10
3.5819121246
 20
-25.7035484167
 11
-7.3655946644
 21
-25.6977253385
  0
LWPOLYLINE
  5
2A1
100
AcDbEntity
  8
RACCORDO
100
AcDbPolyline
 62
250
  6
CONTINUOUS
 90
91
 70
0
 10
-10.9489516517
 20
-24.0988107592
 10
-10.983688122
 20
-24.098612394
 10
-11.017385308
 20
-24.0977858962
 10
-11.0500323485
 20
-24.0963864226
 10
-11.0814947313
 20
-24.0944749204
 10
-11.1118911748
 20
-24.0921002004
 10
-11.141592139
 20
-24.0892786962
 10
-11.1704649528
 20
-24.0860577639
 10
-11.1986325272
 20
-24.0824562327
 10
-11.2268446101
 20
-24.078394586
 10
-11.2550887164
 20
-24.0738628627
 10
-11.2833607778
 20
-24.0688639186
 10
-11.3124135431
 20
-24.0632688552
 10
-11.3425325163
 20
-24.0569781464
 10
-11.3733987032
 20
-24.0500028125
 10
-11.4048529964
 20
-24.0423509023
 10
-11.4371845038
 20
-24.0339096084
 10
-11.4700649758
 20
-24.024712224
 10
-11.5024256494
 20
-24.0150491829
 10
-11.5341315388
 20
-24.004987958
 10
-11.5653124555
 20
-23.9945087352
 10
-11.595324994
 20
-23.9838607903
 10
-11.6239883654
 20
-23.9731691428
 10
-11.6515063943
 20
-23.96241771
 10
-11.6778261664
 20
-23.9516775168
 10
-11.7029496136
 20
-23.941002387
 10
-11.7269024728
 20
-23.9304339711
 10
-11.7496697799
 20
-23.9200258652
 10
-11.7712109236
 20
-23.909847527
 10
-11.7915975948
 20
-23.8999145427
 10
-11.8109813714
 20
-23.8901925141
 10
-11.8293979779
 20
-23.8807051333
 10
-11.8468371415
 20
-23.8714898316
 10
-11.8633772885
 20
-23.8625232583
 10
-11.8789055186
 20
-23.853897518
 10
-11.8935578193
 20
-23.8455709906
 10
-11.9077772888
 20
-23.8373039062
 10
-11.9216101927
 20
-23.8290775293
 10
-11.9350174917
 20
-23.8209294976
 10
-11.9483030147
 20
-23.8126849534
 10
-11.9614706547
 20
-23.8043433639
 10
-11.9745153905
 20
-23.7959089583
 10
-11.9877186871
 20
-23.7871995316
 10
-12.0010729709
 20
-23.7782120079
 10
-12.0145753464
 20
-23.7689392956
 10
-12.0285044158
 20
-23.7591787563
 10
-12.0428432729
 20
-23.7489203423
 10
-12.0575858093
 20
-23.7381482719
 10
-12.0730145775
 20
-23.7266348881
 10
-12.08917178
 20
-23.714307738
 10
-12.1059724846
 20
-23.7011914948
 10
-12.1234977884
 20
-23.6871908866
 10
-12.1417926378
 20
-23.6722200025
 10
-12.1607537605
 20
-23.6563041799
 10
-12.1802385375
 20
-23.6395145761
 10
-12.2002692787
 20
-23.6217788564
 10
-12.2207619193
 20
-23.6031141352
 10
-12.2414263472
 20
-23.5837410418
 10
-12.2621788402
 20
-23.5637038525
 10
-12.2830578146
 20
-23.5429288927
 10
-12.3039691156
 20
-23.5214748663
 10
-12.3248165146
 20
-23.499409588
 10
-12.345653658
 20
-23.4766446437
 10
-12.366605379
 20
-23.4530007819
 10
-12.3876342347
 20
-23.4284647211
 10
-12.4087104253
 20
-23.4030144656
 10
-12.4299502863
 20
-23.3764428088
 10
-12.4513065365
 20
-23.3487240312
 10
-12.4727287806
 20
-23.3198354577
 10
-12.4943045857
 20
-23.2895590916
 10
-12.5159685769
 20
-23.2578622222
 10
-12.5376499425
 20
-23.2247181263
 10
-12.5594000465
 20
-23.1899031611
 10
-12.5811323933
 20
-23.1533759825
 10
-12.6027489614
 20
-23.1151115194
 10
-12.6242522734
 20
-23.0748979788
 10
-12.6455248491
 20
-23.0326986925
 10
-12.6664428729
 20
-22.9884854709
 10
-12.6869640054
 20
-22.9420497387
 10
-12.7069898432
 20
-22.8932369509
 10
-12.726302308
 20
-22.8421466793
 10
-12.7446714325
 20
-22.7889591923
 10
-12.7618569661
 20
-22.7340496579
 10
-12.7778074165
 20
-22.677048972
 10
-12.7924959546
 20
-22.6170212114
 10
-12.8057410324
 20
-22.5534414684
 10
-12.8171436207
 20
-22.4868612414
 10
-12.8263141853
 20
-22.4179799192
 10
-12.8330024753
 20
-22.3470900081
 10
-12.8370210863
 20
-22.2740622498
 10
-12.8381390593
 20
-22.1990020256
  0
LINE
  5
2A2
100
AcDbEntity
  8
RACCORDO
100
AcDbLine
 62
250
  6
CONTINUOUS
 10
-7.3655946644
 20
-25.6977253385
 11
-8.9635263789
 21
-25.6876365737
  0
LINE
  5
2A3
100
AcDbEntity
  8
RACCORDO
100
AcDbLine
 62
250
  6
CONTINUOUS
 10
-8.9635263789
 20
-25.6876365737
 11
-9.9760368116
 21
-25.676328033
  0
LWPOLYLINE
  5
2A4
100
AcDbEntity
  8
RACCORDO
100
AcDbPolyline
 62
250
  6
CONTINUOUS
 90
3
 70
0
 10
-12.8381388188
 20
-22.1990020202
 10
-13.001549578
 20
-22.1964974499
 10
-14.4935629496
 20
-22.1776004335
  0
LINE
  5
2A5
100
AcDbEntity
  8
RACCORDO
100
AcDbLine
 62
250
  6
CONTINUOUS
 10
-9.9760368116
 20
-25.676328033
 11
-10.5995025721
 21
-25.6664246355
  0
LINE
  5
2A6
100
AcDbEntity
  8
RACCORDO
100
AcDbLine
 62
250
  6
CONTINUOUS
 10
-10.5995025721
 20
-25.6664246355
 11
-10.9337502999
 21
-25.6598160321
  0
LWPOLYLINE
  5
2A7
100
AcDbEntity
  8
RACCORDO
100
AcDbPolyline
 62
250
  6
CONTINUOUS
 90
11
 70
0
 10
-12.8381390593
 20
-22.1990020256
 10
-12.7503335039
 20
-22.2009253782
 10
-12.6570593701
 20
-22.2005158831
 10
-12.5593407923
 20
-22.1981268177
 10
-12.458249735
 20
-22.1920444478
 10
-12.3548594447
 20
-22.1850521628
 10
-12.2503166404
 20
-22.1829798392
 10
-12.1457939316
 20
-22.1883971356
 10
-12.0423784224
 20
-22.1962850528
 10
-11.9412108016
 20
-22.2012223412
 10
-11.8434560192
 20
-22.2018753438
  0
LINE
  5
2A8
100
AcDbEntity
  8
RACCORDO
100
AcDbLine
 62
250
  6
CONTINUOUS
 10
-11.8434560192
 20
-22.2018753438
 11
-11.662366261
 21
-22.2003865156
  0
LINE
  5
2A9
100
AcDbEntity
  8
RACCORDO
100
AcDbLine
 62
250
  6
CONTINUOUS
 10
-14.4935629496
 20
-22.1776004335
 11
-14.503735763
 21
-21.0603146673
  0
LINE
  5
2AA
100
AcDbEntity
  8
RACCORDO
100
AcDbLine
 62
250
  6
CONTINUOUS
 10
-14.503735763
 20
-21.0603146673
 11
-14.5128511521
 21
-19.2499444568
  0
LINE
  5
2AB
100
AcDbEntity
  8
RACCORDO
100
AcDbLine
 62
250
  6
CONTINUOUS
 10
-14.5131664162
 20
19.1571658003
 11
-14.5028741309
 21
21.1809808549
  0
LINE
  5
2AC
100
AcDbEntity
  8
RACCORDO
100
AcDbLine
 62
250
  6
CONTINUOUS
 10
-14.5028741309
 20
21.1809808549
 11
-14.4935628415
 21
22.1776075354
  0
LWPOLYLINE
  5
2AD
100
AcDbEntity
  8
RACCORDO
100
AcDbPolyline
 62
250
  6
CONTINUOUS
 90
48
 70
0
 10
-14.4935633765
 20
22.1776076359
 10
-14.4894756036
 20
22.3116522175
 10
-14.4802639399
 20
22.4446052259
 10
-14.4660097565
 20
22.5763438283
 10
-14.446374833
 20
22.7078174559
 10
-14.4217052505
 20
22.8380982183
 10
-14.3935357513
 20
22.9640131729
 10
-14.363087413
 20
23.0840296436
 10
-14.3306033817
 20
23.1979491652
 10
-14.2965764226
 20
23.3048117471
 10
-14.2615081919
 20
23.4051618613
 10
-14.2253560243
 20
23.5004021053
 10
-14.1875692829
 20
23.5914848188
 10
-14.1482870018
 20
23.6782549452
 10
-14.1081225673
 20
23.7605150456
 10
-14.0672921533
 20
23.8386140245
 10
-14.0260492883
 20
23.91264209
 10
-13.9845959173
 20
23.9827209707
 10
-13.9429439981
 20
24.0493670605
 10
-13.9012978837
 20
24.1126248797
 10
-13.8598293275
 20
24.1725504533
 10
-13.8184476244
 20
24.2296213581
 10
-13.7772951864
 20
24.2838911515
 10
-13.7364898653
 20
24.335426493
 10
-13.6958403753
 20
24.3847042246
 10
-13.6554407669
 20
24.4317734514
 10
-13.6153762272
 20
24.4766793471
 10
-13.5753934883
 20
24.5198585338
 10
-13.5355071117
 20
24.5613940773
 10
-13.4958251511
 20
24.6012615441
 10
-13.4562019469
 20
24.6397091582
 10
-13.4165189579
 20
24.6769127096
 10
-13.3769717656
 20
24.7127467834
 10
-13.3378815274
 20
24.7470136539
 10
-13.2992614057
 20
24.7797748283
 10
-13.2612150171
 20
24.8110252155
 10
-13.2242209416
 20
24.8404961042
 10
-13.1884504293
 20
24.8681554248
 10
-13.1537642434
 20
24.8942149547
 10
-13.1201625216
 20
24.9188028613
 10
-13.0877127985
 20
24.9419225204
 10
-13.0562160286
 20
24.9638241823
 10
-13.025243853
 20
24.9849947162
 10
-12.9948518769
 20
25.0054507644
 10
-12.9651252428
 20
25.0251392297
 10
-12.9356681549
 20
25.0444038586
 10
-12.906544893
 20
25.0632183876
 10
-12.8777828351
 20
25.0815770771
  0
LWPOLYLINE
  5
2AE
100
AcDbEntity
  8
RACCORDO
100
AcDbPolyline
 62
250
  6
CONTINUOUS
 90
12
 70
0
 10
-10.9489516517
 20
-24.0988107592
 10
-10.953268931
 20
-24.0112343516
 10
-10.9527267067
 20
-23.9180014573
 10
-10.9480475378
 20
-23.820145327
 10
-10.9358914802
 20
-23.7187003744
 10
-10.921775017
 20
-23.6146933352
 10
-10.9172178331
 20
-23.5094743994
 10
-10.9271744312
 20
-23.4044180221
 10
-10.9419771409
 20
-23.3003885267
 10
-10.9513494493
 20
-23.1984285461
 10
-10.9527802191
 20
-23.0998118587
 10
-10.9504214006
 20
-22.9169735686
  0
LINE
  5
2AF
100
AcDbEntity
  8
RACCORDO
100
AcDbLine
 62
250
  6
CONTINUOUS
 10
-10.948951644
 20
-24.0988105901
 11
-10.9337502943
 21
-25.65981594
  0
LINE
  5
2B0
100
AcDbEntity
  8
RACCORDO
100
AcDbLine
 62
250
  6
CONTINUOUS
 10
-14.5128511521
 20
-19.2499444568
 11
-14.5213472056
 21
-14.961096145
  0
LINE
  5
2B1
100
AcDbEntity
  8
RACCORDO
100
AcDbLine
 62
250
  6
CONTINUOUS
 10
-14.5213472056
 20
-14.961096145
 11
-14.5316161083
 21
-1.2970324633
  0
LINE
  5
2B2
100
AcDbEntity
  8
0
100
AcDbLine
 62
7
  6
CONTINUOUS
 10
-11.25
 20
-22.2
 11
-11.25
 21
22.2
  0
LINE
  5
2B3
100
AcDbEntity
  8
RACCORDO
100
AcDbLine
 62
250
  6
CONTINUOUS
 10
-14.5316161083
 20
-1.2970324633
 11
-14.5236689852
 21
12.7487200789
  0
LINE
  5
2B4
100
AcDbEntity
  8
RACCORDO
100
AcDbLine
 62
250
  6
CONTINUOUS
 10
-14.5236689852
 20
12.7487200789
 11
-14.5164644147
 21
17.9081528063
  0
LINE
  5
2B5
100
AcDbEntity
  8
RACCORDO
100
AcDbLine
 62
250
  6
CONTINUOUS
 10
-10.9504227939
 20
22.9169735566
 11
-10.9500573065
 21
22.4999999945
  0
LINE
  5
2B6
100
AcDbEntity
  8
RACCORDO
100
AcDbLine
 62
250
  6
CONTINUOUS
 10
-10.9504214006
 20
-22.9169735686
 11
-10.9500000003
 21
-22.5
  0
LINE
  5
2B7
100
AcDbEntity
  8
RACCORDO
100
AcDbLine
 62
250
  6
CONTINUOUS
 10
-12.8381388188
 20
-22.1990020202
 11
-12.838138837
 21
22.1990057153
  0
LINE
  5
2B8
100
AcDbEntity
  8
RACCORDO
100
AcDbLine
 62
250
  6
CONTINUOUS
 10
-14.5164644147
 20
17.9081528063
 11
-14.5131664162
 21
19.1571658003
  0
LINE
  5
2B9
100
AcDbEntity
  8
RACCORDO
100
AcDbLine
 62
250
  6
CONTINUOUS
 10
-10.9489482822
 20
24.0988099745
 11
-10.9337438013
 21
25.6598161973
  0
LWPOLYLINE
  5
2BA
100
AcDbEntity
  8
RACCORDO
100
AcDbPolyline
 62
250
  6
CONTINUOUS
 90
91
 70
0
 10
-12.8381390761
 20
22.1990057248
 10
-12.8372027297
 20
22.2688235209
 10
-12.8336571669
 20
22.338089212
 10
-12.8275594885
 20
22.4067050869
 10
-12.8189061143
 20
22.4749809938
 10
-12.8077953092
 20
22.5424190575
 10
-12.7945720342
 20
22.6077392787
 10
-12.7794795447
 20
22.6706179928
 10
-12.7626768221
 20
22.7312930392
 10
-12.7445428962
 20
22.7893852983
 10
-12.7253567647
 20
22.8447810023
 10
-12.7052612042
 20
22.8976131279
 10
-12.6844535743
 20
22.9479060699
 10
-12.6631640964
 20
22.9956030468
 10
-12.6415254346
 20
23.0408298235
 10
-12.6195536533
 20
23.0838840835
 10
-12.5973766264
 20
23.1248135044
 10
-12.575132638
 20
23.1636455154
 10
-12.5528066846
 20
23.2006330327
 10
-12.5305049717
 20
23.2358048787
 10
-12.5083208024
 20
23.2692071412
 10
-12.4861820501
 20
23.3011027556
 10
-12.464163429
 20
23.3315208176
 10
-12.4423336831
 20
23.360496923
 10
-12.4205786592
 20
23.3882856855
 10
-12.3989487048
 20
23.4149118603
 10
-12.3774930196
 20
23.440400907
 10
-12.3560677368
 20
23.464989919
 10
-12.3346794332
 20
23.488724731
 10
-12.3133865261
 20
23.5115929286
 10
-12.2921034912
 20
23.5337296802
 10
-12.2707677555
 20
23.5552339026
 10
-12.2494869578
 20
23.5760295502
 10
-12.2284304248
 20
23.5959909716
 10
-12.2076019353
 20
23.6151609336
 10
-12.1870523702
 20
23.6335364161
 10
-12.1670355446
 20
23.6509396142
 10
-12.147646366
 20
23.6673498356
 10
-12.1288548245
 20
23.6828481621
 10
-12.1107350904
 20
23.6974200729
 10
-12.0933880937
 20
23.7110412454
 10
-12.0767692156
 20
23.7237955008
 10
-12.0607291505
 20
23.7358252563
 10
-12.0453388936
 20
23.7471119246
 10
-12.0305657242
 20
23.757716836
 10
-12.0160921506
 20
23.7678861869
 10
-12.0019157932
 20
23.7776379245
 10
-11.9880577887
 20
23.7869742018
 10
-11.9742231303
 20
23.7960998812
 10
-11.9603958235
 20
23.8050296615
 10
-11.9465984108
 20
23.8137526371
 10
-11.9325842358
 20
23.8224209677
 10
-11.9183586313
 20
23.8310261169
 10
-11.9039151034
 20
23.839568009
 10
-11.8889810748
 20
23.848197837
 10
-11.8735344769
 20
23.856907342
 10
-11.8575879367
 20
23.8656800268
 10
-11.8409127128
 20
23.8746405211
 10
-11.823410305
 20
23.8838188236
 10
-11.8051609076
 20
23.8931417089
 10
-11.7862002896
 20
23.902572578
 10
-11.7665860681
 20
23.9120602516
 10
-11.7462455275
 20
23.921613379
 10
-11.7250170272
 20
23.9312798001
 10
-11.7028829098
 20
23.9410323478
 10
-11.6798409126
 20
23.9508366125
 10
-11.6557478882
 20
23.9607168799
 10
-11.6305704471
 20
23.9706416123
 10
-11.6043193676
 20
23.9805602987
 10
-11.5769148075
 20
23.9904577057
 10
-11.5480972379
 20
24.0003679799
 10
-11.5181025133
 20
24.0101491906
 10
-11.4876046741
 20
24.0195493693
 10
-11.4565607086
 20
24.0285640162
 10
-11.4250185048
 20
24.0371558671
 10
-11.3938119179
 20
24.0450994623
 10
-11.3631396097
 20
24.0523791764
 10
-11.3328324764
 20
24.0590607226
 10
-11.303187095
 20
24.0650967638
 10
-11.2744879813
 20
24.0704778423
 10
-11.2464810124
 20
24.0752910791
 10
-11.2186536007
 20
24.0796233493
 10
-11.1911227429
 20
24.0834630346
 10
-11.1637897056
 20
24.086845229
 10
-11.1358100274
 20
24.0898662447
 10
-11.1070508339
 20
24.0925123857
 10
-11.077654053
 20
24.0947379526
 10
-11.0471826171
 20
24.0965326176
 10
-11.0154950149
 20
24.0978491941
 10
-10.9827469292
 20
24.098626639
 10
-10.948948289
 20
24.0988107491
  0
LWPOLYLINE
  5
2BB
100
AcDbEntity
  8
RACCORDO
100
AcDbPolyline
 62
250
  6
CONTINUOUS
 90
11
 70
0
 10
-10.948948289
 20
24.0988107491
 10
-10.9532818733
 20
24.0112341868
 10
-10.9527371805
 20
23.918001253
 10
-10.94803957
 20
23.8201451883
 10
-10.9358360619
 20
23.7187000015
 10
-10.9216646219
 20
23.6146916662
 10
-10.9170898046
 20
23.5094719364
 10
-10.9270854756
 20
23.4044169027
 10
-10.941946182
 20
23.3003885045
 10
-10.9513551157
 20
23.1984284804
 10
-10.9527912694
 20
23.0998117266
  0
LINE
  5
2BC
100
AcDbEntity
  8
RACCORDO
100
AcDbLine
 62
250
  6
CONTINUOUS
 10
-10.9527912694
 20
23.0998117266
 11
-10.9504227939
 21
22.9169735566
  0
LINE
  5
2BD
100
AcDbEntity
  8
0
100
AcDbLine
 62
7
  6
CONTINUOUS
 10
2.318751
 20
-28.800022
 11
1.387619
 21
-25.899884
  0
LINE
  5
2BE
100
AcDbEntity
  8
0
100
AcDbLine
 62
7
  6
CONTINUOUS
 10
1.967648
 20
-25.899884
 11
2.60878
 21
-27.89678
  0
LINE
  5
2BF
100
AcDbEntity
  8
RACCORDO
100
AcDbLine
 62
250
  6
CONTINUOUS
 10
-0.5
 20
-39.7614223771
 11
-0.5001426596
 21
-39.7514881353
  0
LINE
  5
2C0
100
AcDbEntity
  8
RACCORDO
100
AcDbLine
 62
250
  6
CONTINUOUS
 10
-0.5001426596
 20
-39.7514881353
 11
-0.500290573
 21
-39.7032583341
  0
LWPOLYLINE
  5
2C1
100
AcDbEntity
  8
0
100
AcDbPolyline
 62
7
  6
CONTINUOUS
 90
4
 70
0
 43
0.3500000006
 10
-2.3571427875
 20
49.178569931
 10
-2.3571427875
 20
50.0357124023
 10
-1.9285714102
 20
50.4642859039
 10
-1.2857142735
 20
50.4642859039
  0
LWPOLYLINE
  5
2C2
100
AcDbEntity
  8
0
100
AcDbPolyline
 62
7
  6
CONTINUOUS
 90
13
 70
0
 43
0.3500000006
 10
0.0
 20
49.6071434326
 10
0.0
 20
50.8928594055
 10
0.2142857063
 20
51.3214283752
 10
0.6428571367
 20
51.7500018768
 10
0.8571428254
 20
51.7500018768
 10
1.2857142735
 20
51.3214283752
 10
1.5000000329
 20
50.8928594055
 10
1.5000000329
 20
49.6071434326
 10
1.2857142735
 20
49.178569931
 10
0.8571428254
 20
48.7500009613
 10
0.6428571367
 20
48.7500009613
 10
0.2142857063
 20
49.178569931
 10
0.0
 20
49.6071434326
  0
LINE
  5
2C3
100
AcDbEntity
  8
RACCORDO
100
AcDbLine
 62
250
  6
CONTINUOUS
 10
0.5
 20
-39.7614223771
 11
0.5000037309
 21
-22.549614993
  0
LINE
  5
2C4
100
AcDbEntity
  8
RACCORDO
100
AcDbLine
 62
250
  6
CONTINUOUS
 10
-0.5
 20
-22.5
 11
-0.5000196801
 21
-39.1876701398
  0
LINE
  5
2C5
100
AcDbEntity
  8
RACCORDO
100
AcDbLine
 62
250
  6
CONTINUOUS
 10
0.5
 20
22.5
 11
0.500046669
 21
25.5105858415
  0
LINE
  5
2C6
100
AcDbEntity
  8
RACCORDO
100
AcDbLine
 62
250
  6
CONTINUOUS
 10
-0.500290573
 20
-39.7032583341
 11
-0.5000196801
 21
-39.1876701398
  0
LINE
  5
2C7
100
AcDbEntity
  8
RACCORDO
100
AcDbLine
 62
250
  6
CONTINUOUS
 10
0.500290573
 20
39.7032583341
 11
0.5
 21
25.7021317661
  0
LINE
  5
2C8
100
AcDbEntity
  8
RACCORDO
100
AcDbLine
 62
250
  6
CONTINUOUS
 10
-0.5
 20
39.7614223771
 11
-0.5000573062
 21
22.5
  0
LWPOLYLINE
  5
2C9
100
AcDbEntity
  8
0
100
AcDbPolyline
 62
7
  6
CONTINUOUS
 90
4
 70
0
 43
0.3500000006
 10
46.8214273224
 20
-2.3571432495
 10
45.9642848511
 20
-2.3571432495
 10
45.5357158813
 20
-1.9285708809
 10
45.5357158813
 20
-1.2857140274
  0
LWPOLYLINE
  5
2CA
100
AcDbEntity
  8
0
100
AcDbPolyline
 62
7
  6
CONTINUOUS
 90
13
 70
0
 43
0.3500000006
 10
46.3928583527
 20
-0.0000003204
 10
45.1071423798
 20
-0.0000003204
 10
44.67857341
 20
0.2142864304
 10
44.2499999084
 20
0.642857666
 10
44.2499999084
 20
0.8571421509
 10
44.67857341
 20
1.2857133865
 10
45.1071423798
 20
1.5000001373
 10
46.3928583527
 20
1.5000001373
 10
46.8214273224
 20
1.2857133865
 10
47.250000824
 20
0.8571421509
 10
47.250000824
 20
0.642857666
 10
46.8214273224
 20
0.2142864304
 10
46.3928583527
 20
-0.0000003204
  0
LINE
  5
2CB
100
AcDbEntity
  8
RACCORDO
100
AcDbLine
 62
250
  6
CONTINUOUS
 10
39.7659053964
 20
0.0003242561
 11
14.5322558687
 21
0.0
  0
LINE
  5
2CC
100
AcDbEntity
  8
RACCORDO
100
AcDbLine
 62
250
  6
CONTINUOUS
 10
-39.7659053964
 20
-0.0003242561
 11
-11.5762234744
 21
0.0001809124
  0
LINE
  5
2CD
100
AcDbEntity
  8
RACCORDO
100
AcDbLine
 62
250
  6
CONTINUOUS
 10
-11.5762234744
 20
0.0001809124
 11
-11.25
 21
-0.0000532983
  0
LINE
  5
2CE
100
AcDbEntity
  8
RACCORDO
100
AcDbLine
 62
250
  6
CONTINUOUS
 10
14.5322558687
 20
0.0
 11
11.25
 21
0.0000532982
  0
LINE
  5
2CF
100
AcDbEntity
  8
0
100
AcDbLine
 62
7
  6
CONTINUOUS
 10
13.096695
 20
-28.800007
 11
12.515441
 21
-27.678657
  0
LINE
  5
2D0
100
AcDbEntity
  8
0
100
AcDbLine
 62
7
  6
CONTINUOUS
 10
13.1325957907
 20
-27.6089026669
 11
13.75
 21
-28.8
  0
LINE
  5
2D1
100
AcDbEntity
  8
0
100
AcDbLine
 62
7
  6
CONTINUOUS
 10
6.505031
 20
-28.800015
 11
5.956656
 21
-26.887573
  0
LINE
  5
2D2
100
AcDbEntity
  8
0
100
AcDbLine
 62
7
  6
CONTINUOUS
 10
6.253471
 20
-25.899884
 11
6.795039
 21
-27.788552
  0
LINE
  5
2D3
100
AcDbEntity
  8
RACCORDO
100
AcDbLine
 62
250
  6
CONTINUOUS
 10
0.5
 20
39.7614223771
 11
0.5001426596
 21
39.7514881353
  0
LINE
  5
2D4
100
AcDbEntity
  8
RACCORDO
100
AcDbLine
 62
250
  6
CONTINUOUS
 10
0.5001426596
 20
39.7514881353
 11
0.500290573
 21
39.7032583341
  0
LINE
  5
2D5
100
AcDbEntity
  8
RACCORDO
100
AcDbLine
 62
250
  6
CONTINUOUS
 10
0.500046669
 20
25.5105858415
 11
0.5
 21
25.7021246613
  0
LINE
  5
2D6
100
AcDbEntity
  8
0
100
AcDbLine
 62
7
  6
CONTINUOUS
 10
4.216605
 20
-28.800022
 11
4.216612
 21
-25.899884
  0
LINE
  5
2D7
100
AcDbEntity
  8
RACCORDO
100
AcDbLine
 62
250
  6
CONTINUOUS
 10
0.5000037309
 20
-22.549614993
 11
0.5000573062
 21
-22.5
  0
LINE
  5
2D8
100
AcDbEntity
  8
0
100
AcDbLine
 62
7
  6
CONTINUOUS
 10
10.102373
 20
-27.678657
 11
9.821268
 21
-26.803118
  0
LINE
  5
2D9
100
AcDbEntity
  8
0
100
AcDbLine
 62
7
  6
CONTINUOUS
 10
10.462408
 20
-28.800007
 11
10.279302
 21
-28.229679
  0
LINE
  5
2DA
100
AcDbEntity
  8
0
100
AcDbLine
 62
7
  6
CONTINUOUS
 10
10.111297
 20
-25.899877
 11
11.042437
 21
-28.800015
  0
LINE
  5
2DB
100
AcDbEntity
  8
0
100
AcDbLine
 62
7
  6
CONTINUOUS
 10
4.796634
 20
-25.899884
 11
4.796627
 21
-28.800015
  0
LINE
  5
2DC
100
AcDbEntity
  8
0
100
AcDbLine
 62
7
  6
CONTINUOUS
 10
5.376634
 20
-28.800015
 11
5.376634
 21
-25.899884
  0
LINE
  5
2DD
100
AcDbEntity
  8
0
100
AcDbLine
 62
7
  6
CONTINUOUS
 10
5.956656
 20
-26.887573
 11
5.956656
 21
-28.800015
  0
LINE
  5
2DE
100
AcDbEntity
  8
0
100
AcDbLine
 62
7
  6
CONTINUOUS
 10
7.633421
 20
-28.800015
 11
7.633414
 21
-26.887573
  0
LINE
  5
2DF
100
AcDbEntity
  8
RACCORDO
100
AcDbLine
 62
250
  6
CONTINUOUS
 10
10.9527912695
 20
-23.0998117265
 11
10.9504227939
 21
-22.9169735567
  0
LINE
  5
2E0
100
AcDbEntity
  8
RACCORDO
100
AcDbLine
 62
250
  6
CONTINUOUS
 10
10.948951644
 20
24.0988105896
 11
10.9337502943
 21
25.6598159389
  0
LINE
  5
2E1
100
AcDbEntity
  8
0
100
AcDbLine
 62
7
  6
CONTINUOUS
 10
8.213443
 20
-25.899884
 11
8.213443
 21
-28.800015
  0
LINE
  5
2E2
100
AcDbEntity
  8
0
100
AcDbLine
 62
7
  6
CONTINUOUS
 10
11.25
 20
22.2
 11
11.25
 21
-22.2
  0
LINE
  5
2E3
100
AcDbEntity
  8
0
100
AcDbLine
 62
7
  6
CONTINUOUS
 10
11.429115
 20
-28.800007
 11
11.429115
 21
-25.899877
  0
LINE
  5
2E4
100
AcDbEntity
  8
RACCORDO
100
AcDbLine
 62
250
  6
CONTINUOUS
 10
10.9504214006
 20
22.9169735687
 11
10.9500000003
 21
22.5
  0
LINE
  5
2E5
100
AcDbEntity
  8
RACCORDO
100
AcDbLine
 62
250
  6
CONTINUOUS
 10
10.9504227939
 20
-22.9169735567
 11
10.9500573065
 21
-22.4999999945
  0
LINE
  5
2E6
100
AcDbEntity
  8
RACCORDO
100
AcDbLine
 62
250
  6
CONTINUOUS
 10
10.9489482822
 20
-24.0988099743
 11
10.9337438013
 21
-25.6598161962
  0
LINE
  5
2E7
100
AcDbEntity
  8
0
100
AcDbLine
 62
7
  6
CONTINUOUS
 10
2.60878
 20
-27.89678
 11
3.249905
 21
-25.899884
  0
LINE
  5
2E8
100
AcDbEntity
  8
0
100
AcDbLine
 62
7
  6
CONTINUOUS
 10
3.829934
 20
-25.899884
 11
2.898794
 21
-28.800015
  0
LWPOLYLINE
  5
2E9
100
AcDbEntity
  8
RACCORDO
100
AcDbPolyline
 62
250
  6
CONTINUOUS
 90
12
 70
0
 10
10.9489516517
 20
24.0988107588
 10
10.953268931
 20
24.0112343511
 10
10.9527267067
 20
23.9180014567
 10
10.9480475377
 20
23.8201453264
 10
10.9358914798
 20
23.7187003738
 10
10.9217750163
 20
23.6146933347
 10
10.9172178323
 20
23.509474399
 10
10.9271744306
 20
23.4044180218
 10
10.9419771407
 20
23.3003885265
 10
10.9513494493
 20
23.1984285459
 10
10.9527802192
 20
23.0998118586
 10
10.9504214006
 20
22.9169735687
  0
LINE
  5
2EA
100
AcDbEntity
  8
RACCORDO
100
AcDbLine
 62
250
  6
CONTINUOUS
 10
14.4935629484
 20
22.1776004335
 11
14.503735763
 21
21.0603146674
  0
LINE
  5
2EB
100
AcDbEntity
  8
RACCORDO
100
AcDbLine
 62
250
  6
CONTINUOUS
 10
14.503735763
 20
21.0603146674
 11
14.5133985338
 21
19.0867859049
  0
LINE
  5
2EC
100
AcDbEntity
  8
RACCORDO
100
AcDbLine
 62
250
  6
CONTINUOUS
 10
14.5133985338
 20
19.0867859049
 11
14.5229647279
 21
13.4873025477
  0
LINE
  5
2ED
100
AcDbEntity
  8
0
100
AcDbLine
 62
7
  6
CONTINUOUS
 10
12.00114
 20
-26.436398
 11
12.001148
 21
-27.142128
  0
LINE
  5
2EE
100
AcDbEntity
  8
0
100
AcDbLine
 62
7
  6
CONTINUOUS
 10
12.00921
 20
-27.67865
 11
12.009144
 21
-28.800007
  0
LINE
  5
2EF
100
AcDbEntity
  8
RACCORDO
100
AcDbLine
 62
250
  6
CONTINUOUS
 10
12.8248741857
 20
1.2972702815
 11
12.8381388368
 21
-22.1990057153
  0
LINE
  5
2F0
100
AcDbEntity
  8
RACCORDO
100
AcDbLine
 62
250
  6
CONTINUOUS
 10
14.5229647279
 20
13.4873025477
 11
14.5291824425
 21
-5.5294765171
  0
LINE
  5
2F1
100
AcDbEntity
  8
RACCORDO
100
AcDbLine
 62
250
  6
CONTINUOUS
 10
14.5291824425
 20
-5.5294765171
 11
14.5185520501
 21
-16.8614299764
  0
LINE
  5
2F2
100
AcDbEntity
  8
RACCORDO
100
AcDbLine
 62
250
  6
CONTINUOUS
 10
12.8381388187
 20
22.1990020202
 11
12.8248741857
 21
1.2972702815
  0
LINE
  5
2F3
100
AcDbEntity
  8
RACCORDO
100
AcDbLine
 62
250
  6
CONTINUOUS
 10
14.5185520501
 20
-16.8614299764
 11
14.5096345346
 21
-20.0391315636
  0
LINE
  5
2F4
100
AcDbEntity
  8
RACCORDO
100
AcDbLine
 62
250
  6
CONTINUOUS
 10
14.5096345346
 20
-20.0391315636
 11
14.4984198717
 21
-21.7178777119
  0
LINE
  5
2F5
100
AcDbEntity
  8
RACCORDO
100
AcDbLine
 62
250
  6
CONTINUOUS
 10
14.4984198717
 20
-21.7178777119
 11
14.4935628403
 21
-22.1776075354
  0
LWPOLYLINE
  5
2F6
100
AcDbEntity
  8
RACCORDO
100
AcDbPolyline
 62
250
  6
CONTINUOUS
 90
91
 70
0
 10
12.8381390756
 20
-22.1990057248
 10
12.8372027291
 20
-22.2688235209
 10
12.8336571664
 20
-22.338089212
 10
12.8275594879
 20
-22.406705087
 10
12.8189061137
 20
-22.4749809938
 10
12.8077953086
 20
-22.5424190575
 10
12.7945720336
 20
-22.6077392785
 10
12.7794795441
 20
-22.6706179926
 10
12.7626768216
 20
-22.7312930389
 10
12.7445428957
 20
-22.7893852979
 10
12.7253567642
 20
-22.8447810019
 10
12.7052612038
 20
-22.8976131274
 10
12.6844535739
 20
-22.9479060693
 10
12.663164096
 20
-22.9956030462
 10
12.6415254342
 20
-23.0408298229
 10
12.6195536529
 20
-23.0838840828
 10
12.5973766261
 20
-23.1248135038
 10
12.5751326377
 20
-23.1636455147
 10
12.5528066843
 20
-23.200633032
 10
12.5305049714
 20
-23.235804878
 10
12.5083208021
 20
-23.2692071405
 10
12.4861820498
 20
-23.3011027549
 10
12.4641634288
 20
-23.3315208169
 10
12.4423336829
 20
-23.3604969223
 10
12.420578659
 20
-23.3882856848
 10
12.3989487046
 20
-23.4149118596
 10
12.3774930193
 20
-23.4404009063
 10
12.3560677366
 20
-23.4649899184
 10
12.3346794329
 20
-23.4887247303
 10
12.3133865259
 20
-23.5115929279
 10
12.292103491
 20
-23.5337296795
 10
12.2707677552
 20
-23.555233902
 10
12.2494869575
 20
-23.5760295496
 10
12.2284304246
 20
-23.595990971
 10
12.2076019351
 20
-23.615160933
 10
12.1870523699
 20
-23.6335364155
 10
12.1670355444
 20
-23.6509396136
 10
12.1476463658
 20
-23.667349835
 10
12.1288548242
 20
-23.6828481616
 10
12.1107350901
 20
-23.6974200723
 10
12.0933880934
 20
-23.7110412448
 10
12.0767692153
 20
-23.7237955002
 10
12.0607291501
 20
-23.7358252558
 10
12.0453388932
 20
-23.7471119241
 10
12.0305657238
 20
-23.7577168355
 10
12.0160921502
 20
-23.7678861865
 10
12.0019157928
 20
-23.777637924
 10
11.9880577883
 20
-23.7869742013
 10
11.9742231298
 20
-23.7960998807
 10
11.960395823
 20
-23.8050296611
 10
11.9465984103
 20
-23.8137526367
 10
11.9325842352
 20
-23.8224209673
 10
11.9183586308
 20
-23.8310261165
 10
11.9039151028
 20
-23.8395680086
 10
11.8889810742
 20
-23.8481978367
 10
11.8735344763
 20
-23.8569073416
 10
11.857587936
 20
-23.8656800264
 10
11.8409127121
 20
-23.8746405208
 10
11.8234103043
 20
-23.8838188233
 10
11.8051609069
 20
-23.8931417086
 10
11.786200289
 20
-23.9025725777
 10
11.7665860674
 20
-23.9120602513
 10
11.7462455268
 20
-23.9216133787
 10
11.7250170265
 20
-23.9312797997
 10
11.7028829091
 20
-23.9410323474
 10
11.6798409119
 20
-23.9508366121
 10
11.6557478875
 20
-23.9607168794
 10
11.6305704465
 20
-23.9706416119
 10
11.604319367
 20
-23.9805602983
 10
11.576914807
 20
-23.9904577053
 10
11.5480972374
 20
-24.0003679794
 10
11.5181025128
 20
-24.0101491902
 10
11.4876046736
 20
-24.0195493688
 10
11.4565607081
 20
-24.0285640157
 10
11.4250185044
 20
-24.0371558666
 10
11.3938119175
 20
-24.0450994618
 10
11.3631396093
 20
-24.0523791759
 10
11.3328324761
 20
-24.059060722
 10
11.3031870947
 20
-24.0650967632
 10
11.274487981
 20
-24.0704778417
 10
11.2464810121
 20
-24.0752910786
 10
11.2186536004
 20
-24.0796233487
 10
11.1911227426
 20
-24.083463034
 10
11.1637897053
 20
-24.0868452284
 10
11.1358100272
 20
-24.089866244
 10
11.1070508337
 20
-24.0925123851
 10
11.0776540528
 20
-24.094737952
 10
11.047182617
 20
-24.0965326169
 10
11.0154950148
 20
-24.0978491935
 10
10.9827469292
 20
-24.0986266385
 10
10.948948289
 20
-24.0988107487
  0
LWPOLYLINE
  5
2F7
100
AcDbEntity
  8
RACCORDO
100
AcDbPolyline
 62
250
  6
CONTINUOUS
 90
48
 70
0
 10
14.4935633753
 20
-22.1776076359
 10
14.4894756018
 20
-22.3116522176
 10
14.4802639378
 20
-22.4446052259
 10
14.4660097541
 20
-22.5763438282
 10
14.4463748306
 20
-22.7078174557
 10
14.4217052482
 20
-22.8380982179
 10
14.393535749
 20
-22.9640131723
 10
14.3630874108
 20
-23.0840296429
 10
14.3306033796
 20
-23.1979491643
 10
14.2965764206
 20
-23.304811746
 10
14.2615081899
 20
-23.4051618601
 10
14.2253560224
 20
-23.500402104
 10
14.1875692811
 20
-23.5914848173
 10
14.1482870001
 20
-23.6782549436
 10
14.1081225656
 20
-23.760515044
 10
14.0672921516
 20
-23.8386140229
 10
14.0260492867
 20
-23.9126420882
 10
13.9845959157
 20
-23.9827209689
 10
13.9429439966
 20
-24.0493670587
 10
13.9012978822
 20
-24.1126248779
 10
13.8598293261
 20
-24.1725504514
 10
13.818447623
 20
-24.2296213563
 10
13.777295185
 20
-24.2838911496
 10
13.7364898639
 20
-24.3354264912
 10
13.6958403739
 20
-24.3847042227
 10
13.6554407655
 20
-24.4317734495
 10
13.6153762259
 20
-24.4766793453
 10
13.575393487
 20
-24.519858532
 10
13.5355071104
 20
-24.5613940754
 10
13.4958251498
 20
-24.6012615423
 10
13.4562019456
 20
-24.6397091564
 10
13.4165189567
 20
-24.6769127078
 10
13.3769717643
 20
-24.7127467816
 10
13.3378815261
 20
-24.747013652
 10
13.2992614044
 20
-24.7797748265
 10
13.2612150159
 20
-24.8110252137
 10
13.2242209404
 20
-24.8404961024
 10
13.1884504281
 20
-24.868155423
 10
13.1537642422
 20
-24.894214953
 10
13.1201625203
 20
-24.9188028596
 10
13.0877127972
 20
-24.9419225187
 10
13.0562160272
 20
-24.9638241807
 10
13.0252438516
 20
-24.9849947145
 10
12.9948518755
 20
-25.0054507628
 10
12.9651252414
 20
-25.0251392281
 10
12.9356681534
 20
-25.044403857
 10
12.9065448916
 20
-25.063218386
 10
12.8777828336
 20
-25.0815770755
  0
LWPOLYLINE
  5
2F8
100
AcDbEntity
  8
RACCORDO
100
AcDbPolyline
 62
250
  6
CONTINUOUS
 90
11
 70
0
 10
10.948948289
 20
-24.0988107487
 10
10.9532818733
 20
-24.0112341863
 10
10.9527371805
 20
-23.9180012524
 10
10.9480395699
 20
-23.8201451877
 10
10.9358360615
 20
-23.7187000009
 10
10.9216646211
 20
-23.6146916657
 10
10.9170898038
 20
-23.5094719359
 10
10.927085475
 20
-23.4044169024
 10
10.9419461818
 20
-23.3003885043
 10
10.9513551157
 20
-23.1984284802
 10
10.9527912695
 20
-23.0998117265
  0
LINE
  5
2F9
100
AcDbEntity
  8
0
100
AcDbLine
 62
7
  6
CONTINUOUS
 10
6.795039
 20
-27.788552
 11
7.336606
 21
-25.899884
  0
LINE
  5
2FA
100
AcDbEntity
  8
0
100
AcDbLine
 62
7
  6
CONTINUOUS
 10
7.633414
 20
-26.887573
 11
7.085039
 21
-28.800007
  0
LINE
  5
2FB
100
AcDbEntity
  8
0
100
AcDbLine
 62
7
  6
CONTINUOUS
 10
8.600122
 20
-28.800015
 11
9.531247
 21
-25.899877
  0
LINE
  5
2FC
100
AcDbEntity
  8
0
100
AcDbLine
 62
7
  6
CONTINUOUS
 10
9.821268
 20
-26.803118
 11
9.540179
 21
-27.678657
  0
LINE
  5
2FD
100
AcDbEntity
  8
0
100
AcDbLine
 62
7
  6
CONTINUOUS
 10
9.363257
 20
-28.229679
 11
9.180144
 21
-28.800007
  0
LINE
  5
2FE
100
AcDbEntity
  8
RACCORDO
100
AcDbLine
 62
250
  6
CONTINUOUS
 10
-12.8381416126
 20
22.1990057193
 11
-14.4935633765
 21
22.1776076359
  0
LINE
  5
2FF
100
AcDbEntity
  8
RACCORDO
100
AcDbLine
 62
250
  6
CONTINUOUS
 10
11.8434560191
 20
22.2018753439
 11
11.6623662611
 21
22.2003865156
  0
LINE
  5
300
100
AcDbEntity
  8
0
100
AcDbLine
 62
7
  6
CONTINUOUS
 10
-10.95
 20
22.5
 11
10.95
 21
22.5
  0
LINE
  5
301
100
AcDbEntity
  8
RACCORDO
100
AcDbLine
 62
250
  6
CONTINUOUS
 10
11.6623662611
 20
22.2003865156
 11
11.2499999953
 21
22.2000532983
  0
LINE
  5
302
100
AcDbEntity
  8
RACCORDO
100
AcDbLine
 62
250
  6
CONTINUOUS
 10
-11.6623665997
 20
22.2003850673
 11
-11.25
 21
22.2
  0
LWPOLYLINE
  5
303
100
AcDbEntity
  8
RACCORDO
100
AcDbPolyline
 62
250
  6
CONTINUOUS
 90
3
 70
0
 10
12.8381388187
 20
22.1990020202
 10
13.0015495777
 20
22.1964974499
 10
14.4935629484
 20
22.1776004335
  0
LWPOLYLINE
  5
304
100
AcDbEntity
  8
RACCORDO
100
AcDbPolyline
 62
250
  6
CONTINUOUS
 90
11
 70
0
 10
12.8381390588
 20
22.1990020255
 10
12.7503335034
 20
22.2009253781
 10
12.6570593695
 20
22.200515883
 10
12.5593407917
 20
22.1981268176
 10
12.4582497344
 20
22.1920444477
 10
12.3548594443
 20
22.1850521627
 10
12.25031664
 20
22.1829798392
 10
12.1457939313
 20
22.1883971356
 10
12.0423784222
 20
22.1962850529
 10
11.9412108015
 20
22.2012223412
 10
11.8434560191
 20
22.2018753439
  0
LWPOLYLINE
  5
305
100
AcDbEntity
  8
RACCORDO
100
AcDbPolyline
 62
250
  6
CONTINUOUS
 90
12
 70
0
 10
-12.8381390761
 20
22.1990057248
 10
-12.7502526264
 20
22.2104590944
 10
-12.6569795058
 20
22.209557626
 10
-12.5593418661
 20
22.1981355576
 10
-12.4581081038
 20
22.1681060016
 10
-12.3537544964
 20
22.1330198481
 10
-12.2485640685
 20
22.1210631967
 10
-12.1449558513
 20
22.144099428
 10
-12.0423558949
 20
22.1789364929
 10
-11.9412114093
 20
22.2012165125
 10
-11.843408364
 20
22.2050223394
 10
-11.6623665997
 20
22.2003850673
  0
LINE
  5
306
100
AcDbEntity
  8
RACCORDO
100
AcDbLine
 62
250
  6
CONTINUOUS
 10
-10.9337438013
 20
25.6598161973
 11
-10.35113071
 21
25.6706913756
  0
LINE
  5
307
100
AcDbEntity
  8
RACCORDO
100
AcDbLine
 62
250
  6
CONTINUOUS
 10
-10.35113071
 20
25.6706913756
 11
-9.5420536652
 21
25.6817934989
  0
LINE
  5
308
100
AcDbEntity
  8
RACCORDO
100
AcDbLine
 62
250
  6
CONTINUOUS
 10
-9.5420536652
 20
25.6817934989
 11
-8.2602941496
 21
25.6929964068
  0
LINE
  5
309
100
AcDbEntity
  8
RACCORDO
100
AcDbLine
 62
250
  6
CONTINUOUS
 10
-8.2602941496
 20
25.6929964068
 11
-6.4542909452
 21
25.7007888539
  0
LINE
  5
30A
100
AcDbEntity
  8
RACCORDO
100
AcDbLine
 62
250
  6
CONTINUOUS
 10
-6.4542909452
 20
25.7007888539
 11
-3.5819121246
 21
25.7035484167
  0
LINE
  5
30B
100
AcDbEntity
  8
RACCORDO
100
AcDbLine
 62
250
  6
CONTINUOUS
 10
0.8910276419
 20
24.0996904421
 11
10.9489516351
 21
24.0988099933
  0
LINE
  5
30C
100
AcDbEntity
  8
RACCORDO
100
AcDbLine
 62
250
  6
CONTINUOUS
 10
-3.5819121246
 20
25.7035484167
 11
4.5151690461
 21
25.7034573036
  0
LINE
  5
30D
100
AcDbEntity
  8
RACCORDO
100
AcDbLine
 62
250
  6
CONTINUOUS
 10
-10.9489482822
 20
24.0988099745
 11
0.8910276419
 21
24.0996904421
  0
LINE
  5
30E
100
AcDbEntity
  8
RACCORDO
100
AcDbLine
 62
250
  6
CONTINUOUS
 10
4.5151690461
 20
25.7034573036
 11
6.9538397778
 21
25.6992956258
  0
LWPOLYLINE
  5
30F
100
AcDbEntity
  8
RACCORDO
100
AcDbPolyline
 62
250
  6
CONTINUOUS
 90
91
 70
0
 10
10.9489516517
 20
24.0988107588
 10
10.9836881219
 20
24.0986123934
 10
11.0173853079
 20
24.0977858956
 10
11.0500323484
 20
24.0963864219
 10
11.0814947311
 20
24.0944749198
 10
11.1118911746
 20
24.0921001998
 10
11.1415921387
 20
24.0892786956
 10
11.1704649525
 20
24.0860577633
 10
11.1986325269
 20
24.0824562321
 10
11.2268446097
 20
24.0783945854
 10
11.255088716
 20
24.0738628621
 10
11.2833607773
 20
24.068863918
 10
11.3124135426
 20
24.0632688547
 10
11.3425325159
 20
24.0569781459
 10
11.3733987027
 20
24.0500028119
 10
11.4048529959
 20
24.0423509018
 10
11.4371845032
 20
24.0339096079
 10
11.4700649753
 20
24.0247122236
 10
11.5024256488
 20
24.0150491824
 10
11.5341315382
 20
24.0049879576
 10
11.565312455
 20
23.9945087347
 10
11.5953249934
 20
23.9838607898
 10
11.6239883649
 20
23.9731691424
 10
11.6515063938
 20
23.9624177096
 10
11.6778261658
 20
23.9516775164
 10
11.7029496131
 20
23.9410023865
 10
11.7269024723
 20
23.9304339707
 10
11.7496697794
 20
23.9200258647
 10
11.7712109231
 20
23.9098475265
 10
11.7915975943
 20
23.8999145422
 10
11.810981371
 20
23.8901925136
 10
11.8293979775
 20
23.8807051328
 10
11.8468371411
 20
23.8714898311
 10
11.8633772881
 20
23.8625232578
 10
11.8789055183
 20
23.8538975175
 10
11.893557819
 20
23.8455709901
 10
11.9077772885
 20
23.8373039056
 10
11.9216101924
 20
23.8290775288
 10
11.9350174914
 20
23.8209294971
 10
11.9483030145
 20
23.8126849528
 10
11.9614706544
 20
23.8043433633
 10
11.9745153902
 20
23.7959089577
 10
11.9877186869
 20
23.787199531
 10
12.0010729707
 20
23.7782120073
 10
12.0145753462
 20
23.768939295
 10
12.0285044157
 20
23.7591787557
 10
12.0428432727
 20
23.7489203417
 10
12.0575858092
 20
23.7381482712
 10
12.0730145774
 20
23.7266348874
 10
12.0891717799
 20
23.7143077372
 10
12.1059724845
 20
23.7011914941
 10
12.1234977883
 20
23.6871908858
 10
12.1417926377
 20
23.6722200017
 10
12.1607537605
 20
23.6563041791
 10
12.1802385375
 20
23.6395145753
 10
12.2002692787
 20
23.6217788556
 10
12.2207619193
 20
23.6031141343
 10
12.2414263472
 20
23.5837410409
 10
12.2621788402
 20
23.5637038516
 10
12.2830578146
 20
23.5429288918
 10
12.3039691156
 20
23.5214748655
 10
12.3248165145
 20
23.4994095871
 10
12.3456536579
 20
23.4766446428
 10
12.3666053789
 20
23.453000781
 10
12.3876342347
 20
23.4284647202
 10
12.4087104252
 20
23.4030144647
 10
12.4299502862
 20
23.3764428079
 10
12.4513065364
 20
23.3487240303
 10
12.4727287805
 20
23.3198354568
 10
12.4943045856
 20
23.2895590907
 10
12.5159685768
 20
23.2578622213
 10
12.5376499423
 20
23.2247181254
 10
12.5594000464
 20
23.1899031602
 10
12.5811323932
 20
23.1533759816
 10
12.6027489612
 20
23.1151115185
 10
12.6242522732
 20
23.0748979779
 10
12.6455248489
 20
23.0326986916
 10
12.6664428726
 20
22.9884854701
 10
12.6869640051
 20
22.9420497378
 10
12.7069898429
 20
22.8932369501
 10
12.7263023076
 20
22.8421466785
 10
12.7446714321
 20
22.7889591915
 10
12.7618569657
 20
22.7340496572
 10
12.7778074161
 20
22.6770489713
 10
12.7924959542
 20
22.6170212108
 10
12.8057410319
 20
22.5534414679
 10
12.8171436201
 20
22.486861241
 10
12.8263141847
 20
22.4179799189
 10
12.8330024748
 20
22.3470900079
 10
12.8370210858
 20
22.2740622497
 10
12.8381390588
 20
22.1990020255
  0
LINE
  5
310
100
AcDbEntity
  8
RACCORDO
100
AcDbLine
 62
250
  6
CONTINUOUS
 10
6.9538397778
 20
25.6992956258
 11
8.6407486986
 21
25.6903076029
  0
LINE
  5
311
100
AcDbEntity
  8
RACCORDO
100
AcDbLine
 62
250
  6
CONTINUOUS
 10
8.6407486986
 20
25.6903076029
 11
9.7038505481
 21
25.6798785572
  0
LINE
  5
312
100
AcDbEntity
  8
RACCORDO
100
AcDbLine
 62
250
  6
CONTINUOUS
 10
9.7038505481
 20
25.6798785572
 11
10.4813411496
 21
25.6685168005
  0
LINE
  5
313
100
AcDbEntity
  8
RACCORDO
100
AcDbLine
 62
250
  6
CONTINUOUS
 10
10.4813411496
 20
25.6685168005
 11
10.9337502999
 21
25.659816031
  0
LWPOLYLINE
  5
314
100
AcDbEntity
  8
RACCORDO
100
AcDbPolyline
 62
250
  6
CONTINUOUS
 90
36
 70
0
 10
10.9337502943
 20
25.6598159389
 10
11.00090263
 20
25.6577584267
 10
11.0660548232
 20
25.65460404
 10
11.1291780071
 20
25.6504648828
 10
11.1899922974
 20
25.6455102368
 10
11.2487137156
 20
25.6398057357
 10
11.3060731524
 20
25.6332652178
 10
11.3619882767
 20
25.6258017647
 10
11.4167332318
 20
25.6175907142
 10
11.4715628151
 20
25.6088396008
 10
11.5260933772
 20
25.5997288939
 10
11.5797414984
 20
25.5902846253
 10
11.6331758268
 20
25.5804407401
 10
11.6869390662
 20
25.5702223807
 10
11.7412261959
 20
25.5594147368
 10
11.796639835
 20
25.5474311955
 10
11.8538911074
 20
25.5339206174
 10
11.9122103
 20
25.5190846413
 10
11.9696433807
 20
25.5033118339
 10
12.0259537682
 20
25.4866585878
 10
12.081406998
 20
25.4691296274
 10
12.1348973409
 20
25.4511772324
 10
12.1860718054
 20
25.4330259045
 10
12.2352276271
 20
25.414667143
 10
12.2822236046
 20
25.3962745164
 10
12.3271010465
 20
25.3779261241
 10
12.3699848376
 20
25.3596499018
 10
12.4108992982
 20
25.3415311367
 10
12.4496223945
 20
25.3237718445
 10
12.4861056252
 20
25.306478595
 10
12.5205697193
 20
25.2896097077
 10
12.5532895708
 20
25.2731268926
 10
12.584922974
 20
25.2566928127
 10
12.6164403981
 20
25.2396763331
 10
12.6477956668
 20
25.221928349
 10
12.678464412
 20
25.2039187026
  0
LWPOLYLINE
  5
315
100
AcDbEntity
  8
RACCORDO
100
AcDbPolyline
 62
250
  6
CONTINUOUS
 90
3
 70
0
 10
12.8777828336
 20
-25.0815770755
 10
12.8197715941
 20
-25.1180753225
 10
12.7905680891
 20
-25.1361766659
  0
LWPOLYLINE
  5
316
100
AcDbEntity
  8
RACCORDO
100
AcDbPolyline
 62
250
  6
CONTINUOUS
 90
27
 70
0
 10
12.7905680891
 20
-25.1361766659
 10
12.7307311853
 20
-25.1727098987
 10
12.7002292702
 20
-25.1910303023
 10
12.6691708982
 20
-25.2092834391
 10
12.6376963185
 20
-25.2274221014
 10
12.6060184007
 20
-25.2452807657
 10
12.5740865986
 20
-25.262589877
 10
12.5420923042
 20
-25.2790757483
 10
12.5097589206
 20
-25.2950587554
 10
12.4763326256
 20
-25.311134239
 10
12.4413595368
 20
-25.3275783794
 10
12.4048449801
 20
-25.3442462062
 10
12.3666750007
 20
-25.3610909552
 10
12.3269970603
 20
-25.3779723723
 10
12.2858152968
 20
-25.3948397597
 10
12.2428072016
 20
-25.4117555837
 10
12.197845974
 20
-25.4287065023
 10
12.1509618626
 20
-25.44559268
 10
12.1020682438
 20
-25.4623264322
 10
12.0507653172
 20
-25.4789403491
 10
11.9974715849
 20
-25.4952026617
 10
11.943336862
 20
-25.5106801618
 10
11.8882561226
 20
-25.5253368977
 10
11.8323482334
 20
-25.5391449578
 10
11.7771469814
 20
-25.5518089219
 10
11.7231790414
 20
-25.5631258577
 10
11.6697677314
 20
-25.5734346708
  0
LWPOLYLINE
  5
317
100
AcDbEntity
  8
RACCORDO
100
AcDbPolyline
 62
250
  6
CONTINUOUS
 90
13
 70
0
 10
-11.6697677323
 20
25.5734346727
 10
-11.5631450407
 20
25.5931443725
 10
-11.5094986199
 20
25.6026447048
 10
-11.4555320169
 20
25.6116171867
 10
-11.4020743463
 20
25.6199300207
 10
-11.3490619542
 20
25.6276017509
 10
-11.2949247099
 20
25.6345888407
 10
-11.2393688106
 20
25.6407647239
 10
-11.1825672581
 20
25.6461663416
 10
-11.1236725904
 20
25.6508719709
 10
-11.0624122829
 20
25.6548145896
 10
-10.9990935679
 20
25.6578326137
 10
-10.9337437989
 20
25.6598161577
  0
LWPOLYLINE
  5
318
100
AcDbEntity
  8
RACCORDO
100
AcDbPolyline
 62
250
  6
CONTINUOUS
 90
3
 70
0
 10
12.678464412
 20
25.2039187026
 10
12.7376849371
 20
25.1684870767
 10
12.7660686209
 20
25.1512143978
  0
LWPOLYLINE
  5
319
100
AcDbEntity
  8
RACCORDO
100
AcDbPolyline
 62
250
  6
CONTINUOUS
 90
3
 70
0
 10
12.7660686209
 20
25.1512143978
 10
12.8219818291
 20
25.1166849728
 10
12.8494619454
 20
25.0994825717
  0
LWPOLYLINE
  5
31A
100
AcDbEntity
  8
RACCORDO
100
AcDbPolyline
 62
250
  6
CONTINUOUS
 90
49
 70
0
 10
12.8494619454
 20
25.0994825717
 10
12.9047637888
 20
25.064358933
 10
12.9325414647
 20
25.0464540473
 10
12.9608876329
 20
25.0279436531
 10
12.9897700549
 20
25.0088259259
 10
13.0190807232
 20
24.9891562757
 10
13.0491298737
 20
24.968652626
 10
13.0798706825
 20
24.9473378788
 10
13.1113146066
 20
24.9251289138
 10
13.1438346831
 20
24.9015634617
 10
13.1776516747
 20
24.8763578666
 10
13.2126227999
 20
24.8495633576
 10
13.248591064
 20
24.8211870965
 10
13.2856572968
 20
24.791055202
 10
13.323643614
 20
24.7592120063
 10
13.3619917039
 20
24.7260145052
 10
13.4005372885
 20
24.6915385408
 10
13.4393573493
 20
24.6556583438
 10
13.4782719104
 20
24.6184589402
 10
13.5171054219
 20
24.5800544567
 10
13.5559554744
 20
24.5402899146
 10
13.5950407644
 20
24.4988403294
 10
13.6342932259
 20
24.4556843765
 10
13.6736568859
 20
24.4107796081
 10
13.7133338445
 20
24.3637421676
 10
13.7532416353
 20
24.3145263687
 10
13.7932869963
 20
24.2630865876
 10
13.8336128971
 20
24.2090110105
 10
13.8741070372
 20
24.1522379809
 10
13.9146299736
 20
24.0927275836
 10
13.9552317258
 20
24.0300794786
 10
13.9957486845
 20
23.9642457461
 10
14.0360110119
 20
23.8951578723
 10
14.076003918
 20
23.8223552854
 10
14.1155731049
 20
23.7456920301
 10
14.1544137728
 20
23.6652345848
 10
14.1922098952
 20
23.5808948103
 10
14.2283981811
 20
23.4928440689
 10
14.2630052282
 20
23.4009252984
 10
14.2965983628
 20
23.3043173804
 10
14.329015857
 20
23.202620804
 10
14.3599544324
 20
23.0951743709
 10
14.3895022059
 20
22.9808429805
 10
14.4174276976
 20
22.8590114088
 10
14.4424335546
 20
22.7309482298
 10
14.4630551543
 20
22.5983686257
 10
14.4785877579
 20
22.462070645
 10
14.4889005152
 20
22.3217581078
 10
14.4935630484
 20
22.1776004522
  0
LINE
  5
31B
100
AcDbEntity
  8
0
100
AcDbLine
 62
7
  6
CONTINUOUS
 10
39.8951844414
 20
3.5
 11
40.0
 21
3.6749773271
  0
LINE
  5
31C
100
AcDbEntity
  8
0
100
AcDbLine
 62
7
  6
CONTINUOUS
 10
40.0
 20
-3.6749773271
 11
39.8951844414
 21
-3.5
  0
LINE
  5
31D
100
AcDbEntity
  8
RACCORDO
100
AcDbLine
 62
250
  6
CONTINUOUS
 10
37.0
 20
40.0
 11
37.0
 21
39.7689897085
  0
LINE
  5
31E
100
AcDbEntity
  8
RACCORDO
100
AcDbLine
 62
250
  6
CONTINUOUS
 10
37.0
 20
-39.7689897085
 11
37.0
 21
-40.0
  0
LWPOLYLINE
  5
31F
100
AcDbEntity
  8
0
100
AcDbPolyline
 62
7
  6
CONTINUOUS
 90
13
 70
0
 43
0.3500000006
 10
45.5357158813
 20
-1.9285708809
 10
45.3214268646
 20
-2.2142854156
 10
44.67857341
 20
-2.2142854156
 10
44.2499999084
 20
-1.9285708809
 10
44.2499999084
 20
-1.2857140274
 10
44.67857341
 20
-1.0000006256
 10
45.3214268646
 20
-1.0000006256
 10
45.5357158813
 20
-1.2857140274
 10
45.9642848511
 20
-0.8571427917
 10
46.8214273224
 20
-0.8571427917
 10
47.250000824
 20
-1.2857140274
 10
47.250000824
 20
-1.9285708809
 10
46.8214273224
 20
-2.3571432495
  0
LINE
  5
320
100
AcDbEntity
  8
RACCORDO
100
AcDbLine
 62
250
  6
CONTINUOUS
 10
39.7693588487
 20
37.0
 11
40.0
 21
37.0
  0
LINE
  5
321
100
AcDbEntity
  8
RACCORDO
100
AcDbLine
 62
250
  6
CONTINUOUS
 10
-39.7693588487
 20
37.0
 11
-40.0
 21
37.0
  0
LINE
  5
322
100
AcDbEntity
  8
RACCORDO
100
AcDbLine
 62
250
  6
CONTINUOUS
 10
38.9248277854
 20
36.4805438572
 11
38.9302129845
 21
36.3795723071
  0
LWPOLYLINE
  5
323
100
AcDbEntity
  8
RACCORDO
100
AcDbPolyline
 62
250
  6
CONTINUOUS
 90
3
 70
0
 10
38.9302129845
 20
36.3795723071
 10
38.9323809247
 20
36.3297044139
 10
38.9336599499
 20
36.279832093
  0
LINE
  5
324
100
AcDbEntity
  8
RACCORDO
100
AcDbLine
 62
250
  6
CONTINUOUS
 10
38.9200884019
 20
36.586726312
 11
38.9248277854
 21
36.4805438572
  0
LINE
  5
325
100
AcDbEntity
  8
RACCORDO
100
AcDbLine
 62
250
  6
CONTINUOUS
 10
38.9131895708
 20
36.7637212662
 11
38.9200884019
 21
36.586726312
  0
LINE
  5
326
100
AcDbEntity
  8
RACCORDO
100
AcDbLine
 62
250
  6
CONTINUOUS
 10
38.9041434496
 20
37.0379684249
 11
38.9131895708
 21
36.7637212662
  0
LINE
  5
327
100
AcDbEntity
  8
RACCORDO
100
AcDbLine
 62
250
  6
CONTINUOUS
 10
38.9336599499
 20
36.279832093
 11
38.9349546348
 21
36.1805674245
  0
LINE
  5
328
100
AcDbEntity
  8
RACCORDO
100
AcDbLine
 62
250
  6
CONTINUOUS
 10
38.9349546348
 20
36.1805674245
 11
38.9620972321
 21
32.5226464302
  0
LINE
  5
329
100
AcDbEntity
  8
RACCORDO
100
AcDbLine
 62
250
  6
CONTINUOUS
 10
38.9620972321
 20
32.5226464302
 11
38.9867365557
 21
27.0489302976
  0
LINE
  5
32A
100
AcDbEntity
  8
RACCORDO
100
AcDbLine
 62
250
  6
CONTINUOUS
 10
38.9867365557
 20
27.0489302976
 11
38.9952616629
 21
21.3959743278
  0
LINE
  5
32B
100
AcDbEntity
  8
RACCORDO
100
AcDbLine
 62
250
  6
CONTINUOUS
 10
39.7658518556
 20
-9.0943439983
 11
39.7693588487
 21
-37.0
  0
LINE
  5
32C
100
AcDbEntity
  8
0
100
AcDbLine
 62
7
  6
CONTINUOUS
 10
39.8951844414
 20
-3.5
 11
39.8951844414
 21
3.5
  0
LINE
  5
32D
100
AcDbEntity
  8
0
100
AcDbLine
 62
7
  6
CONTINUOUS
 10
40.0
 20
37.0000000001
 11
40.0
 21
3.6749773271
  0
LINE
  5
32E
100
AcDbEntity
  8
0
100
AcDbLine
 62
7
  6
CONTINUOUS
 10
40.0
 20
-3.6749773271
 11
40.0
 21
-37.0000000001
  0
LINE
  5
32F
100
AcDbEntity
  8
RACCORDO
100
AcDbLine
 62
250
  6
CONTINUOUS
 10
38.9952616629
 20
21.3959743278
 11
38.9971975644
 21
12.8506454849
  0
LINE
  5
330
100
AcDbEntity
  8
RACCORDO
100
AcDbLine
 62
250
  6
CONTINUOUS
 10
38.9949321992
 20
5.4675306249
 11
38.9974806188
 21
-15.8582981298
  0
LINE
  5
331
100
AcDbEntity
  8
RACCORDO
100
AcDbLine
 62
250
  6
CONTINUOUS
 10
38.9971975644
 20
12.8506454849
 11
38.9949321992
 21
5.4675306249
  0
LINE
  5
332
100
AcDbEntity
  8
RACCORDO
100
AcDbLine
 62
250
  6
CONTINUOUS
 10
38.9974806188
 20
-15.8582981298
 11
38.9936793827
 21
-23.0483058945
  0
LINE
  5
333
100
AcDbEntity
  8
RACCORDO
100
AcDbLine
 62
250
  6
CONTINUOUS
 10
39.7693588487
 20
37.0
 11
39.7658518556
 21
-9.0943439983
  0
LINE
  5
334
100
AcDbEntity
  8
RACCORDO
100
AcDbLine
 62
250
  6
CONTINUOUS
 10
38.9936793827
 20
-23.0483058945
 11
38.9852182386
 21
-27.5877615207
  0
LINE
  5
335
100
AcDbEntity
  8
RACCORDO
100
AcDbLine
 62
250
  6
CONTINUOUS
 10
38.9852182386
 20
-27.5877615207
 11
38.9721790444
 21
-30.7912236519
  0
LINE
  5
336
100
AcDbEntity
  8
RACCORDO
100
AcDbLine
 62
250
  6
CONTINUOUS
 10
38.9721790444
 20
-30.7912236519
 11
38.9517590581
 21
-34.0244034083
  0
LWPOLYLINE
  5
337
100
AcDbEntity
  8
RACCORDO
100
AcDbPolyline
 62
250
  6
CONTINUOUS
 90
46
 70
0
 10
39.7693588487
 20
-37.0
 10
39.7688346108
 20
-37.0575704889
 10
39.7669085713
 20
-37.1199824313
 10
39.7632526158
 20
-37.1871937569
 10
39.7574920442
 20
-37.2593940448
 10
39.7492599929
 20
-37.336253763
 10
39.7382677917
 20
-37.4169281901
 10
39.7241653503
 20
-37.5012955723
 10
39.7065896624
 20
-37.5892147755
 10
39.6853469539
 20
-37.6797955092
 10
39.6601299354
 20
-37.7728566236
 10
39.6306289158
 20
-37.868193281
 10
39.5967897975
 20
-37.9648795286
 10
39.5583816301
 20
-38.0626882198
 10
39.515181457
 20
-38.1613657356
 10
39.4673120681
 20
-38.2599725348
 10
39.4146456602
 20
-38.3582572455
 10
39.357067709
 20
-38.4559502675
 10
39.2948970096
 20
-38.5521445903
 10
39.2281239329
 20
-38.6465955257
 10
39.1567472558
 20
-38.7390586882
 10
39.0812707791
 20
-38.8287229555
 10
39.0017910427
 20
-38.9153957298
 10
38.9184156518
 20
-38.9988854745
 10
38.8318207764
 20
-39.0785111995
 10
38.7421908108
 20
-39.1541638615
 10
38.6497185451
 20
-39.225739186
 10
38.5552231795
 20
-39.2927200063
 10
38.4589490511
 20
-39.3551033453
 10
38.3611387929
 20
-39.4128961333
 10
38.262706922
 20
-39.4657708995
 10
38.1639217238
 20
-39.5138405577
 10
38.0650365825
 20
-39.5572298124
 10
37.9670054009
 20
-39.5958079798
 10
37.8700837646
 20
-39.6297975358
 10
37.7744996423
 20
-39.6594295704
 10
37.6811929106
 20
-39.6847547201
 10
37.5903699314
 20
-39.7060842628
 10
37.5022133087
 20
-39.723727106
 10
37.4176276442
 20
-39.7378766799
 10
37.3367547457
 20
-39.7488989964
 10
37.2597177824
 20
-39.7571469237
 10
37.1873769043
 20
-39.762911082
 10
37.1200670697
 20
-39.7665619169
 10
37.0575940505
 20
-39.7684777921
 10
37.0
 20
-39.7689897085
  0
LWPOLYLINE
  5
338
100
AcDbEntity
  8
RACCORDO
100
AcDbPolyline
 62
250
  6
CONTINUOUS
 90
7
 70
0
 10
38.9517590581
 20
-34.0244034083
 10
38.934896645
 20
-36.1942948095
 10
38.9341949345
 20
-36.2434370069
 10
38.9332778279
 20
-36.2922282014
 10
38.9318587888
 20
-36.3416068971
 10
38.9296533549
 20
-36.3911449895
 10
38.9243123873
 20
-36.4915022091
  0
LINE
  5
339
100
AcDbEntity
  8
RACCORDO
100
AcDbLine
 62
250
  6
CONTINUOUS
 10
38.9129303482
 20
-36.7709199277
 11
38.9041434431
 21
-37.037968423
  0
LWPOLYLINE
  5
33A
100
AcDbEntity
  8
RACCORDO
100
AcDbPolyline
 62
250
  6
CONTINUOUS
 90
46
 70
0
 10
38.9041434548
 20
-37.0379684263
 10
38.9026086385
 20
-37.076050187
 10
38.9000763462
 20
-37.1173402826
 10
38.8963367464
 20
-37.1618109093
 10
38.8911448428
 20
-37.2095867759
 10
38.8842726423
 20
-37.2604511593
 10
38.8755527986
 20
-37.3138485061
 10
38.8647618191
 20
-37.3696998305
 10
38.8516687133
 20
-37.4279137964
 10
38.836165686
 20
-37.4879057342
 10
38.8180554449
 20
-37.5495599702
 10
38.7971431356
 20
-37.612743162
 10
38.7734128903
 20
-37.676843511
 10
38.7467177021
 20
-37.7417134843
 10
38.7169166368
 20
-37.8071916049
 10
38.6841035663
 20
-37.8726606549
 10
38.6481934086
 20
-37.9379602692
 10
38.6091119548
 20
-38.0029219885
 10
38.5670756808
 20
-38.0669526148
 10
38.5220722217
 20
-38.1298983775
 10
38.474103126
 20
-38.1916032348
 10
38.4235101889
 20
-38.2515278351
 10
38.3703544893
 20
-38.3095454894
 10
38.3147020002
 20
-38.3655396693
 10
38.2569957389
 20
-38.4190639451
 10
38.1973456808
 20
-38.4700516127
 10
38.1358749069
 20
-38.5184385128
 10
38.0731254706
 20
-38.563876267
 10
38.0092519815
 20
-38.6063606953
 10
37.9444095196
 20
-38.6458973388
 10
37.8792005832
 20
-38.6822587569
 10
37.813795998
 20
-38.7155144928
 10
37.748355566
 20
-38.7457472658
 10
37.6835030928
 20
-38.7728590289
 10
37.619399607
 20
-38.7969918859
 10
37.5561931664
 20
-38.818291693
 10
37.4945059449
 20
-38.8367688264
 10
37.4344741619
 20
-38.8526173916
 10
37.3762160986
 20
-38.8660327095
 10
37.320326722
 20
-38.8771187934
 10
37.2668992751
 20
-38.8861077095
 10
37.2160134437
 20
-38.8932244937
 10
37.1682333523
 20
-38.8986361267
 10
37.1237789322
 20
-38.9025726109
 10
37.0825234369
 20
-38.9052820205
 10
37.0444953647
 20
-38.9069761685
  0
LINE
  5
33B
100
AcDbEntity
  8
RACCORDO
100
AcDbLine
 62
250
  6
CONTINUOUS
 10
38.9196629791
 20
-36.5967308685
 11
38.9129303482
 21
-36.7709199277
  0
LINE
  5
33C
100
AcDbEntity
  8
RACCORDO
100
AcDbLine
 62
250
  6
CONTINUOUS
 10
38.9243123873
 20
-36.4915022091
 11
38.9196629791
 21
-36.5967308685
  0
LWPOLYLINE
  5
33D
100
AcDbEntity
  8
RACCORDO
100
AcDbPolyline
 62
250
  6
CONTINUOUS
 90
6
 70
0
 10
-36.6521158223
 20
38.9224894189
 10
-36.5781337304
 20
38.9260662001
 10
-36.5038409519
 20
38.9304676075
 10
-36.4291726916
 20
38.9352268869
 10
-36.3515833367
 20
38.9392108691
 10
-36.2708739785
 20
38.9418611108
  0
LINE
  5
33E
100
AcDbEntity
  8
RACCORDO
100
AcDbLine
 62
250
  6
CONTINUOUS
 10
-36.8803315731
 20
38.9129916907
 11
-36.6521158223
 21
38.9224894189
  0
LINE
  5
33F
100
AcDbEntity
  8
RACCORDO
100
AcDbLine
 62
250
  6
CONTINUOUS
 10
-37.0444954358
 20
38.906976387
 11
-36.8803315731
 21
38.9129916907
  0
LINE
  5
340
100
AcDbEntity
  8
RACCORDO
100
AcDbLine
 62
250
  6
CONTINUOUS
 10
-36.2708739785
 20
38.9418611108
 11
-36.1025193628
 21
38.9453585477
  0
LINE
  5
341
100
AcDbEntity
  8
RACCORDO
100
AcDbLine
 62
250
  6
CONTINUOUS
 10
-36.1025193628
 20
38.9453585477
 11
-29.1249151606
 21
39.0550594955
  0
LINE
  5
342
100
AcDbEntity
  8
RACCORDO
100
AcDbLine
 62
250
  6
CONTINUOUS
 10
-29.1249151606
 20
39.0550594955
 11
-27.0119982663
 21
39.0835766314
  0
LINE
  5
343
100
AcDbEntity
  8
RACCORDO
100
AcDbLine
 62
250
  6
CONTINUOUS
 10
-27.0119982663
 20
39.0835766314
 11
-25.7361584613
 21
39.0954817622
  0
LINE
  5
344
100
AcDbEntity
  8
RACCORDO
100
AcDbLine
 62
250
  6
CONTINUOUS
 10
-24.7709987324
 20
39.0987359743
 11
-23.264945718
 21
39.1079200125
  0
LWPOLYLINE
  5
345
100
AcDbEntity
  8
RACCORDO
100
AcDbPolyline
 62
250
  6
CONTINUOUS
 90
3
 70
0
 10
-25.7361584613
 20
39.0954817622
 10
-25.3442023303
 20
39.0973056018
 10
-24.7709987324
 20
39.0987359743
  0
LINE
  5
346
100
AcDbEntity
  8
0
100
AcDbLine
 62
7
  6
CONTINUOUS
 10
-37.0000000001
 20
40.0
 11
37.0000000001
 21
40.0
  0
LINE
  5
347
100
AcDbEntity
  8
RACCORDO
100
AcDbLine
 62
250
  6
CONTINUOUS
 10
-23.264945718
 20
39.1079200125
 11
-22.4978516701
 21
39.1093996685
  0
LINE
  5
348
100
AcDbEntity
  8
RACCORDO
100
AcDbLine
 62
250
  6
CONTINUOUS
 10
21.8757392485
 20
39.7604965653
 11
37.0
 21
39.7689897085
  0
LINE
  5
349
100
AcDbEntity
  8
RACCORDO
100
AcDbLine
 62
250
  6
CONTINUOUS
 10
8.4105300603
 20
39.0870310026
 11
22.4781253827
 21
39.1095387669
  0
LINE
  5
34A
100
AcDbEntity
  8
RACCORDO
100
AcDbLine
 62
250
  6
CONTINUOUS
 10
-2.0309215718
 20
39.0965171897
 11
4.4489187339
 21
39.0936019199
  0
LINE
  5
34B
100
AcDbEntity
  8
RACCORDO
100
AcDbLine
 62
250
  6
CONTINUOUS
 10
4.4489187339
 20
39.0936019199
 11
8.4105300603
 21
39.0870310026
  0
LINE
  5
34C
100
AcDbEntity
  8
RACCORDO
100
AcDbLine
 62
250
  6
CONTINUOUS
 10
-37.0
 20
39.7689897085
 11
21.8757392485
 21
39.7604965653
  0
LINE
  5
34D
100
AcDbEntity
  8
RACCORDO
100
AcDbLine
 62
250
  6
CONTINUOUS
 10
-16.2605635925
 20
39.0894820148
 11
-2.0309215718
 21
39.0965171897
  0
LINE
  5
34E
100
AcDbEntity
  8
RACCORDO
100
AcDbLine
 62
250
  6
CONTINUOUS
 10
-22.4978516701
 20
39.1093996685
 11
-16.2605635925
 21
39.0894820148
  0
LINE
  5
34F
100
AcDbEntity
  8
RACCORDO
100
AcDbLine
 62
250
  6
CONTINUOUS
 10
22.4781253827
 20
39.1095387669
 11
23.4536152078
 21
39.1070801005
  0
LINE
  5
350
100
AcDbEntity
  8
RACCORDO
100
AcDbLine
 62
250
  6
CONTINUOUS
 10
24.7966805409
 20
39.0982310645
 11
25.5819373329
 21
39.0963110125
  0
LINE
  5
351
100
AcDbEntity
  8
RACCORDO
100
AcDbLine
 62
250
  6
CONTINUOUS
 10
23.4536152078
 20
39.1070801005
 11
24.7966805409
 21
39.0982310645
  0
LWPOLYLINE
  5
352
100
AcDbEntity
  8
RACCORDO
100
AcDbPolyline
 62
250
  6
CONTINUOUS
 90
46
 70
0
 10
37.0
 20
39.7689897085
 10
37.0576483284
 20
39.7684766352
 10
37.119847109
 20
39.7665710583
 10
37.1865553547
 20
39.7629655679
 10
37.2579328132
 20
39.7573122129
 10
37.3336863255
 20
39.7492693754
 10
37.413073055
 20
39.738562207
 10
37.4959779649
 20
39.7248625079
 10
37.5822689608
 20
39.7078303426
 10
37.6711608825
 20
39.6872701209
 10
37.7624828997
 20
39.6628883968
 10
37.8560423419
 20
39.6343891686
 10
37.9510175239
 20
39.6016944928
 10
38.0471922954
 20
39.5645747159
 10
38.1443238116
 20
39.5228076787
 10
38.2415680253
 20
39.4764677216
 10
38.3386778518
 20
39.4254153949
 10
38.4353898807
 20
39.3695223951
 10
38.5308813384
 20
39.3090320488
 10
38.6249042885
 20
39.2439078403
 10
38.7172043962
 20
39.1741248793
 10
38.807025897
 20
39.1000958304
 10
38.8941738812
 20
39.0218671058
 10
38.9784132354
 20
38.9395309032
 10
39.0590417162
 20
38.8537165029
 10
39.1359403895
 20
38.7645552439
 10
39.2089486134
 20
38.6722387126
 10
39.2774609092
 20
38.5776278377
 10
39.341448485
 20
38.48095219
 10
39.4008879891
 20
38.382447698
 10
39.455374714
 20
38.2831012529
 10
39.505003433
 20
38.1831839602
 10
39.549882652
 20
38.0829507282
 10
39.5898294167
 20
37.9834405856
 10
39.6250617007
 20
37.8849183257
 10
39.6558069045
 20
37.7876212838
 10
39.682087443
 20
37.6925839257
 10
39.7042231361
 20
37.6000243155
 10
39.7225319246
 20
37.5101352706
 10
39.7372011757
 20
37.4239180505
 10
39.748615682
 20
37.341524067
 10
39.7571464258
 20
37.2630838239
 10
39.7630945732
 20
37.1895513642
 10
39.7668529322
 20
37.1212959982
 10
39.7688243434
 20
37.0580975084
 10
39.7693588487
 20
37.0
  0
LINE
  5
353
100
AcDbEntity
  8
RACCORDO
100
AcDbLine
 62
250
  6
CONTINUOUS
 10
25.5819373329
 20
39.0963110125
 11
26.8482855744
 21
39.0853801607
  0
LINE
  5
354
100
AcDbEntity
  8
RACCORDO
100
AcDbLine
 62
250
  6
CONTINUOUS
 10
26.8482855744
 20
39.0853801607
 11
28.886676607
 21
39.0586569298
  0
LWPOLYLINE
  5
355
100
AcDbEntity
  8
RACCORDO
100
AcDbPolyline
 62
250
  6
CONTINUOUS
 90
3
 70
0
 10
28.886676607
 20
39.0586569298
 10
31.9326888371
 20
39.0102167449
 10
36.0886537925
 20
38.9455333149
  0
LWPOLYLINE
  5
356
100
AcDbEntity
  8
RACCORDO
100
AcDbPolyline
 62
250
  6
CONTINUOUS
 90
8
 70
0
 10
36.0886537925
 20
38.9455333149
 10
36.2603059221
 20
38.9422559724
 10
36.3424710118
 20
38.939682168
 10
36.4213704826
 20
38.9356648556
 10
36.4972540293
 20
38.9308167186
 10
36.5726852885
 20
38.9263320717
 10
36.6476737345
 20
38.9226980719
 10
36.7988303522
 20
38.9162413147
  0
LINE
  5
357
100
AcDbEntity
  8
RACCORDO
100
AcDbLine
 62
250
  6
CONTINUOUS
 10
36.7988303522
 20
38.9162413147
 11
37.0444954415
 21
38.9069764045
  0
LWPOLYLINE
  5
358
100
AcDbEntity
  8
RACCORDO
100
AcDbPolyline
 62
250
  6
CONTINUOUS
 90
46
 70
0
 10
37.0444953648
 20
38.9069761689
 10
37.0825594995
 20
38.9052800687
 10
37.123633808
 20
38.9025837541
 10
37.1676907126
 20
38.8986905771
 10
37.2148343265
 20
38.8933728048
 10
37.2648722449
 20
38.8864180129
 10
37.3173175561
 20
38.8776666937
 10
37.3720957787
 20
38.8669093664
 10
37.4291201208
 20
38.8539305249
 10
37.4878744701
 20
38.8386221064
 10
37.5482482144
 20
38.8207981478
 10
37.6101141293
 20
38.8002740966
 10
37.6729281685
 20
38.7770196702
 10
37.7365493367
 20
38.7508900517
 10
37.8008243745
 20
38.7217436712
 10
37.8652018838
 20
38.6896407217
 10
37.9295258379
 20
38.6544887846
 10
37.9936288421
 20
38.6162079569
 10
38.0569700765
 20
38.5749692051
 10
38.1193911143
 20
38.5307474707
 10
38.1807302467
 20
38.4835296976
 10
38.2404876557
 20
38.4335963499
 10
38.298538474
 20
38.3809745031
 10
38.3547396043
 20
38.3257206998
 10
38.4086323253
 20
38.2682479642
 10
38.460144484
 20
38.2086326422
 10
38.5091735542
 20
38.1470013291
 10
38.5553112623
 20
38.0839275279
 10
38.5985364659
 20
38.0195576883
 10
38.6388400551
 20
37.9540404059
 10
38.6759486225
 20
37.8880227123
 10
38.7099234863
 20
37.8216738674
 10
38.7408379172
 20
37.7551560124
 10
38.7685582419
 20
37.6891518925
 10
38.7932224031
 20
37.6238296152
 10
38.8149750805
 20
37.5593432943
 10
38.8338096371
 20
37.4963767683
 10
38.8499269867
 20
37.4350720507
 10
38.8635312029
 20
37.375552283
 10
38.8747239931
 20
37.3184753777
 10
38.8837502207
 20
37.263939292
 10
38.8908466705
 20
37.2120285774
 10
38.8961864598
 20
37.1633708889
 10
38.9000133553
 20
37.1182091862
 10
38.9025910595
 20
37.0763986204
 10
38.9041434547
 20
37.0379684263
  0
LWPOLYLINE
  5
359
100
AcDbEntity
  8
0
100
AcDbPolyline
 62
7
  6
CONTINUOUS
 90
13
 70
0
 43
0.3500000006
 10
-1.9285714102
 20
50.4642859039
 10
-2.2142856617
 20
50.6785703888
 10
-2.2142856617
 20
51.3214283752
 10
-1.9285714102
 20
51.7500018768
 10
-1.2857142735
 20
51.7500018768
 10
-1.0000000219
 20
51.3214283752
 10
-1.0000000219
 20
50.6785703888
 10
-1.2857142735
 20
50.4642859039
 10
-0.8571428254
 20
50.0357124023
 10
-0.8571428254
 20
49.178569931
 10
-1.2857142735
 20
48.7500009613
 10
-1.9285714102
 20
48.7500009613
 10
-2.3571427875
 20
49.178569931
  0
LWPOLYLINE
  5
35A
100
AcDbEntity
  8
RACCORDO
100
AcDbPolyline
 62
250
  6
CONTINUOUS
 90
13
 70
0
 10
37.0
 20
-39.7689897085
 10
37.0052041912
 20
-39.7563744438
 10
37.0103394827
 20
-39.7307062135
 10
37.0153378885
 20
-39.6923248164
 10
37.0201332345
 20
-39.6417383495
 10
37.0246620352
 20
-39.5796164822
 10
37.0288643333
 20
-39.5067815903
 10
37.0326844941
 20
-39.4241978702
 10
37.0360719416
 20
-39.3329585741
 10
37.0389818279
 20
-39.2342715377
 10
37.0413756275
 20
-39.1294431909
 10
37.0432216467
 20
-39.0198612626
 10
37.0444954435
 20
-38.9069764105
  0
LWPOLYLINE
  5
35B
100
AcDbEntity
  8
RACCORDO
100
AcDbPolyline
 62
250
  6
CONTINUOUS
 90
13
 70
0
 10
39.7693588419
 20
-37.0
 10
39.7566970084
 20
-37.0044482391
 10
39.7309220601
 20
-37.0088373177
 10
39.6923767971
 20
-37.0131088623
 10
39.6415738613
 20
-37.0172060624
 10
39.5791889188
 20
-37.0210744262
 10
39.506051673
 20
-37.0246625056
 10
39.4231348304
 20
-37.0279225801
 10
39.3315411635
 20
-37.0308112915
 10
39.2324888442
 20
-37.0332902206
 10
39.1272952429
 20
-37.0353263984
 10
39.017359407
 20
-37.0368927443
 10
38.9041434548
 20
-37.0379684263
  0
LWPOLYLINE
  5
35C
100
AcDbEntity
  8
RACCORDO
100
AcDbPolyline
 62
250
  6
CONTINUOUS
 90
13
 70
0
 10
39.7693588487
 20
37.0
 10
39.7566970083
 20
37.0044481434
 10
39.730922054
 20
37.0088371322
 10
39.6923767863
 20
37.0131085967
 10
39.641573847
 20
37.0172057303
 10
39.5791889021
 20
37.0210740449
 10
39.5060516552
 20
37.0246620957
 10
39.4231348125
 20
37.0279221652
 10
39.3315411465
 20
37.0308108981
 10
39.2324888291
 20
37.0332898775
 10
39.1272952304
 20
37.0353261365
 10
39.017359398
 20
37.0368925959
 10
38.9041434496
 20
37.0379684249
  0
LWPOLYLINE
  5
35D
100
AcDbEntity
  8
RACCORDO
100
AcDbPolyline
 62
250
  6
CONTINUOUS
 90
13
 70
0
 10
37.0
 20
39.7689896843
 10
37.0052040326
 20
39.7563742479
 10
37.0103391739
 20
39.7307058749
 10
37.0153374443
 20
39.6923243653
 10
37.0201326764
 20
39.6417378168
 10
37.0246613904
 20
39.5796158983
 10
37.0288636349
 20
39.5067809848
 10
37.0326837803
 20
39.4241972712
 10
37.036071255
 20
39.3329580074
 10
37.0389812156
 20
39.2342710264
 10
37.0413751395
 20
39.1294427547
 10
37.0432213359
 20
39.0198609177
 10
37.0444953648
 20
38.9069761689
  0
LINE
  5
35E
100
AcDbEntity
  8
RACCORDO
100
AcDbLine
 62
7
  6
CONTINUOUS
 10
-61.4757195576
 20
-39.7602530136
 11
-56.9010745393
 21
-40.0
  0
LINE
  5
35F
100
AcDbEntity
  8
RACCORDO
100
AcDbLine
 62
7
  6
CONTINUOUS
 10
-61.5770978511
 20
-39.7497401539
 11
-61.4757324336
 21
-39.7602523388
  0
LWPOLYLINE
  5
360
100
AcDbEntity
  8
RACCORDO
100
AcDbPolyline
 62
250
  6
CONTINUOUS
 90
13
 70
0
 10
-61.3090134872
 20
-39.7689897085
 10
-61.4232583292
 20
-39.7563744438
 10
-61.5352979788
 20
-39.7307062135
 10
-61.6436492431
 20
-39.6923248164
 10
-61.7468777564
 20
-39.6417383495
 10
-61.8436169686
 20
-39.5796164822
 10
-61.9325862357
 20
-39.5067815903
 10
-62.012607773
 20
-39.4241978702
 10
-62.0826222468
 20
-39.3329585741
 10
-62.1417027982
 20
-39.2342715377
 10
-62.1890673124
 20
-39.1294431909
 10
-62.2240887732
 20
-39.0198612626
 10
-62.2463035628
 20
-38.9069764105
  0
LWPOLYLINE
  5
361
100
AcDbEntity
  8
0
100
AcDbPolyline
 62
7
  6
CONTINUOUS
 90
10
 70
0
 43
0.3500000006
 10
-62.1510703583
 20
48.7500009613
 10
-61.293927887
 20
49.6071434326
 10
-61.0796434021
 20
50.4642859039
 10
-61.0796434021
 20
51.3214283752
 10
-61.5082123718
 20
51.7500018768
 10
-62.1510703583
 20
51.7500018768
 10
-62.5796438599
 20
51.3214283752
 10
-62.5796438599
 20
50.4642859039
 10
-62.1510703583
 20
50.0357124023
 10
-61.222501236
 20
50.0357124023
  0
LINE
  5
362
100
AcDbEntity
  8
RACCORDO
100
AcDbLine
 62
250
  6
CONTINUOUS
 10
-62.1832359639
 20
-37.0353263984
 11
-62.2399667226
 21
-37.0379684263
  0
LINE
  5
363
100
AcDbEntity
  8
RACCORDO
100
AcDbLine
 62
250
  6
CONTINUOUS
 10
-61.3019698721
 20
-37.0
 11
-62.1832359639
 21
-37.0353263984
  0
LINE
  5
364
100
AcDbEntity
  8
RACCORDO
100
AcDbLine
 62
250
  6
CONTINUOUS
 10
-56.9010745393
 20
-37.0
 11
-61.3019698725
 21
-37.0
  0
LINE
  5
365
100
AcDbEntity
  8
0
100
AcDbLine
 62
7
  6
CONTINUOUS
 10
-64.9244753863
 20
-28.800015
 11
-64.9142482208
 21
-28.800015
  0
LINE
  5
366
100
AcDbEntity
  8
0
100
AcDbLine
 62
7
  6
CONTINUOUS
 10
-64.9644521436
 20
-28.800007
 11
-64.9385713723
 21
-28.800007
  0
LINE
  5
367
100
AcDbEntity
  8
0
100
AcDbLine
 62
7
  6
CONTINUOUS
 10
-64.8976693841
 20
-28.800007
 11
-64.6375898093
 21
-28.8
  0
LINE
  5
368
100
AcDbEntity
  8
0
100
AcDbLine
 62
7
  6
CONTINUOUS
 10
-65.0212730777
 20
-28.229679
 11
-65.0397174206
 21
-28.229679
  0
LINE
  5
369
100
AcDbEntity
  8
0
100
AcDbLine
 62
7
  6
CONTINUOUS
 10
-65.1094416124
 20
-27.678657
 11
-65.0989564133
 21
-27.678657
  0
LINE
  5
36A
100
AcDbEntity
  8
0
100
AcDbLine
 62
7
  6
CONTINUOUS
 10
-65.0164826218
 20
-27.6089026669
 11
-64.8145879457
 21
-27.6089026669
  0
LINE
  5
36B
100
AcDbEntity
  8
0
100
AcDbLine
 62
7
  6
CONTINUOUS
 10
-65.1217609675
 20
-27.142128
 11
-65.0968086949
 21
-27.142128
  0
LINE
  5
36C
100
AcDbEntity
  8
0
100
AcDbLine
 62
7
  6
CONTINUOUS
 10
-65.0307867276
 20
-27.678657
 11
-65.0483163227
 21
-27.67865
  0
LINE
  5
36D
100
AcDbEntity
  8
0
100
AcDbLine
 62
7
  6
CONTINUOUS
 10
-65.290082758
 20
-25.899877
 11
-65.0554748573
 21
-25.899877
  0
LWPOLYLINE
  5
36E
100
AcDbEntity
  8
RACCORDO
100
AcDbPolyline
 62
250
  6
CONTINUOUS
 90
6
 70
0
 10
-65.3342576404
 20
-22.1890876656
 10
-65.2698129743
 20
-22.186675646
 10
-65.2177847884
 20
-22.1843115868
 10
-65.1783984627
 20
-22.1820056619
 10
-65.1518246142
 20
-22.179767799
 10
-65.1381783578
 20
-22.1776076359
  0
LINE
  5
36F
100
AcDbEntity
  8
RACCORDO
100
AcDbLine
 62
250
  6
CONTINUOUS
 10
-65.4992271696
 20
-22.194013921
 11
-65.3342576404
 21
-22.1890876656
  0
LINE
  5
370
100
AcDbEntity
  8
RACCORDO
100
AcDbLine
 62
250
  6
CONTINUOUS
 10
-65.7098379593
 20
-22.1990057193
 11
-65.4992271696
 21
-22.194013921
  0
LWPOLYLINE
  5
371
100
AcDbEntity
  8
0
100
AcDbPolyline
 62
7
  6
CONTINUOUS
 90
13
 70
0
 10
-65.2568056446
 20
-25.8998751129
 10
-65.25343774
 20
-25.9022952446
 10
-65.2494181335
 20
-25.9096594104
 10
-65.244746825
 20
-25.9221027302
 10
-65.2394118778
 20
-25.9397136943
 10
-65.2334252287
 20
-25.9625730473
 10
-65.226822688
 20
-25.9907920066
 10
-65.2195736528
 20
-26.0244667946
 10
-65.211708726
 20
-26.0635402693
 10
-65.2033555267
 20
-26.1078240037
 10
-65.1944978232
 20
-26.1571563108
 10
-65.1851518472
 20
-26.2113533894
 10
-65.1754939131
 20
-26.2700565657
  0
LWPOLYLINE
  5
372
100
AcDbEntity
  8
RACCORDO
100
AcDbPolyline
 62
7
  6
CONTINUOUS
 90
10
 70
0
 10
-62.3015038129
 20
-39.2400871862
 10
-62.2482475502
 20
-39.3269733848
 10
-62.1864248464
 20
-39.4079881717
 10
-62.1166777564
 20
-39.4822901728
 10
-62.0397306338
 20
-39.5491077286
 10
-61.9563826085
 20
-39.6077469082
 10
-61.8674992854
 20
-39.657598718
 10
-61.7740037545
 20
-39.6981454249
 10
-61.6768670069
 20
-39.7289659323
 10
-61.5770978511
 20
-39.7497401539
  0
LINE
  5
373
100
AcDbEntity
  8
RACCORDO
100
AcDbLine
 62
7
  6
CONTINUOUS
 10
-65.7023299278
 20
24.0983262989
 11
-65.7023846419
 21
24.0982611042
  0
LWPOLYLINE
  5
374
100
AcDbEntity
  8
RACCORDO
100
AcDbPolyline
 62
250
  6
CONTINUOUS
 90
7
 70
0
 10
-65.7098344712
 20
-22.1990057248
 10
-65.7669368004
 20
-22.2104590952
 10
-65.8145002209
 20
-22.2095576267
 10
-65.8520253997
 20
-22.1981355575
 10
-65.8791088756
 20
-22.1681059992
 10
-65.8955098924
 20
-22.133019843
 10
-65.9010719806
 20
-22.1209730714
  0
LINE
  5
375
100
AcDbEntity
  8
RACCORDO
100
AcDbLine
 62
7
  6
CONTINUOUS
 10
-65.701965188
 20
24.0988107588
 11
-65.7604415349
 21
24.0113434167
  0
LWPOLYLINE
  5
376
100
AcDbEntity
  8
RACCORDO
100
AcDbPolyline
 62
7
  6
CONTINUOUS
 90
10
 70
0
 10
-65.6359572607
 20
24.1906538205
 10
-65.5942778461
 20
24.2526533739
 10
-65.4964277547
 20
24.4129327755
 10
-65.4087981206
 20
24.5790207271
 10
-65.3317323273
 20
24.7502664007
 10
-65.265532363
 20
24.9259987568
 10
-65.2104576372
 20
25.105529175
 10
-65.1667239645
 20
25.2881541517
 10
-65.1345027187
 20
25.473158057
 10
-65.1139201611
 20
25.6598159389
  0
LINE
  5
377
100
AcDbEntity
  8
RACCORDO
100
AcDbLine
 62
7
  6
CONTINUOUS
 10
-65.5886374185
 20
24.2627983161
 11
-65.7037780501
 21
24.0963782979
  0
LWPOLYLINE
  5
378
100
AcDbEntity
  8
0
100
AcDbPolyline
 62
7
  6
CONTINUOUS
 90
3
 70
0
 10
-65.7024012717
 20
24.0982341912
 10
-65.7313933591
 20
24.0572967352
 10
-65.7594991724
 20
24.0129487764
  0
LINE
  5
379
100
AcDbEntity
  8
RACCORDO
100
AcDbLine
 62
7
  6
CONTINUOUS
 10
-65.7024802051
 20
24.0981337135
 11
-65.7026221269
 21
24.0979335633
  0
LINE
  5
37A
100
AcDbEntity
  8
RACCORDO
100
AcDbLine
 62
7
  6
CONTINUOUS
 10
-65.7019649618
 20
24.0988105896
 11
-65.6359572607
 21
24.1906538205
  0
LINE
  5
37B
100
AcDbEntity
  8
RACCORDO
100
AcDbLine
 62
7
  6
CONTINUOUS
 10
-65.7024423191
 20
24.0981856254
 11
-65.7024802051
 21
24.0981337135
  0
LINE
  5
37C
100
AcDbEntity
  8
RACCORDO
100
AcDbLine
 62
7
  6
CONTINUOUS
 10
-65.6895109156
 20
24.1156437344
 11
-65.70182983
 21
24.0989986122
  0
LINE
  5
37D
100
AcDbEntity
  8
RACCORDO
100
AcDbLine
 62
7
  6
CONTINUOUS
 10
-65.7024345582
 20
24.0981949107
 11
-65.7024029268
 21
24.0982367807
  0
LINE
  5
37E
100
AcDbEntity
  8
RACCORDO
100
AcDbLine
 62
7
  6
CONTINUOUS
 10
-65.7023846419
 20
24.0982611042
 11
-65.7024035253
 21
24.0982368014
  0
LINE
  5
37F
100
AcDbEntity
  8
RACCORDO
100
AcDbLine
 62
7
  6
CONTINUOUS
 10
-65.7023846419
 20
-24.0982611042
 11
-65.7024035253
 21
-24.0982368014
  0
LINE
  5
380
100
AcDbEntity
  8
RACCORDO
100
AcDbLine
 62
7
  6
CONTINUOUS
 10
-65.7024035253
 20
-24.0982368014
 11
-65.7024423191
 21
-24.0981856254
  0
LINE
  5
381
100
AcDbEntity
  8
RACCORDO
100
AcDbLine
 62
7
  6
CONTINUOUS
 10
-65.7024714941
 20
-24.0981465413
 11
-65.6887058463
 21
-24.116741364
  0
LINE
  5
382
100
AcDbEntity
  8
RACCORDO
100
AcDbLine
 62
7
  6
CONTINUOUS
 10
-65.7019625055
 20
-24.0988099743
 11
-65.6353263489
 21
-24.1915641402
  0
LINE
  5
383
100
AcDbEntity
  8
RACCORDO
100
AcDbLine
 62
7
  6
CONTINUOUS
 10
-65.7037780501
 20
-24.0963782979
 11
-65.5886374134
 21
-24.262798324
  0
LWPOLYLINE
  5
384
100
AcDbEntity
  8
RACCORDO
100
AcDbPolyline
 62
7
  6
CONTINUOUS
 90
10
 70
0
 10
-65.6353263489
 20
-24.1915641402
 10
-65.5942757512
 20
-24.2526529163
 10
-65.4964260354
 20
-24.4129324617
 10
-65.4087967897
 20
-24.5790205426
 10
-65.3317313961
 20
-24.7502663304
 10
-65.2655318411
 20
-24.9259987851
 10
-65.2104575328
 20
-25.1055292858
 10
-65.1667242842
 20
-25.2881543283
 10
-65.1345034672
 20
-25.4731582826
 10
-65.1139213418
 20
-25.6598161962
  0
LINE
  5
385
100
AcDbEntity
  8
RACCORDO
100
AcDbLine
 62
7
  6
CONTINUOUS
 10
-65.7019651942
 20
-24.0988107487
 11
-65.7604414491
 21
-24.0113435062
  0
LWPOLYLINE
  5
386
100
AcDbEntity
  8
0
100
AcDbPolyline
 62
7
  6
CONTINUOUS
 90
3
 70
0
 10
-65.7509848815
 20
-24.0269359827
 10
-65.7239732417
 20
-24.0681958811
 10
-65.702401318
 20
-24.098234067
  0
LWPOLYLINE
  5
387
100
AcDbEntity
  8
RACCORDO
100
AcDbPolyline
 62
7
  6
CONTINUOUS
 90
8
 70
0
 10
-65.5886374134
 20
-24.262798324
 10
-65.4817405495
 20
-24.4424881304
 10
-65.3876051019
 20
-24.6292172394
 10
-65.306694685
 20
-24.8220813891
 10
-65.2394088913
 20
-25.0201459721
 10
-65.1860813498
 20
-25.2224505723
 10
-65.1469781715
 20
-25.4280131865
 10
-65.122296507
 20
-25.6358349557
  0
LINE
  5
388
100
AcDbEntity
  8
0
100
AcDbLine
 62
7
  6
CONTINUOUS
 10
-65.7757782699
 20
-23.9846676856
 11
-65.7509848815
 21
-24.0269359827
  0
LINE
  5
389
100
AcDbEntity
  8
RACCORDO
100
AcDbLine
 62
7
  6
CONTINUOUS
 10
-62.3456405451
 20
-39.1482319281
 11
-62.3015038129
 21
-39.2400871862
  0
LINE
  5
38A
100
AcDbEntity
  8
RACCORDO
100
AcDbLine
 62
250
  6
CONTINUOUS
 10
-62.3615660423
 20
-39.1077660323
 11
-62.3616458553
 21
-39.1075835891
  0
LWPOLYLINE
  5
38B
100
AcDbEntity
  8
SUPERFICI
100
AcDbPolyline
 62
7
  6
CONTINUOUS
 90
11
 70
0
 10
-62.3616471125
 20
39.107569961
 10
-62.4119957865
 20
38.9689863328
 10
-62.4734442292
 20
38.79435783
 10
-62.5297060269
 20
38.6291748838
 10
-62.5824536627
 20
38.4697172674
 10
-62.6319701981
 20
38.3159905781
 10
-62.6781341668
 20
38.1691609989
 10
-62.7219325119
 20
38.0267355766
 10
-62.7636813654
 20
37.8881608201
 10
-62.8031576379
 20
37.7546185941
 10
-62.8756450147
 20
37.5031149501
  0
LWPOLYLINE
  5
38C
100
AcDbEntity
  8
0
100
AcDbPolyline
 62
7
  6
CONTINUOUS
 90
3
 70
0
 10
-65.8080915083
 20
23.9211057376
 10
-65.8285447195
 20
23.8739105651
 10
-65.8464262364
 20
23.8260681037
  0
LINE
  5
38D
100
AcDbEntity
  8
RACCORDO
100
AcDbLine
 62
7
  6
CONTINUOUS
 10
-65.7604415349
 20
24.0113434167
 11
-65.8094585495
 21
23.9181187722
  0
LWPOLYLINE
  5
38E
100
AcDbEntity
  8
0
100
AcDbPolyline
 62
7
  6
CONTINUOUS
 90
3
 70
0
 10
-65.7594991724
 20
24.0129487764
 10
-65.7850722423
 20
23.9675014825
 10
-65.8080915083
 20
23.9211057376
  0
LINE
  5
38F
100
AcDbEntity
  8
RACCORDO
100
AcDbLine
 62
7
  6
CONTINUOUS
 10
-65.7604414491
 20
-24.0113435062
 11
-65.8094584704
 21
-23.9181188827
  0
LWPOLYLINE
  5
390
100
AcDbEntity
  8
0
100
AcDbPolyline
 62
7
  6
CONTINUOUS
 90
3
 70
0
 10
-65.8186372534
 20
-23.8976034462
 10
-65.7983334246
 20
-23.9415156996
 10
-65.7757782699
 20
-23.9846676856
  0
LINE
  5
391
100
AcDbEntity
  8
RACCORDO
100
AcDbLine
 62
7
  6
CONTINUOUS
 10
-62.3616566109
 20
-39.1075544261
 11
-62.3456405451
 21
-39.1482319281
  0
LINE
  5
392
100
AcDbEntity
  8
RACCORDO
100
AcDbLine
 62
7
  6
CONTINUOUS
 10
-62.3616571438
 20
-39.1075351492
 11
-62.3616452753
 21
-39.1075670003
  0
LINE
  5
393
100
AcDbEntity
  8
RACCORDO
100
AcDbLine
 62
7
  6
CONTINUOUS
 10
-63.6404682765
 20
34.8484017076
 11
-63.5054866168
 21
35.3617730356
  0
LINE
  5
394
100
AcDbEntity
  8
SUPERFICI
100
AcDbLine
 62
7
  6
CONTINUOUS
 10
-63.0728825108
 20
36.7802390732
 11
-63.2687005552
 21
36.0315154427
  0
LINE
  5
395
100
AcDbEntity
  8
SUPERFICI
100
AcDbLine
 62
7
  6
CONTINUOUS
 10
-63.0014623772
 20
37.0477131133
 11
-63.0728825108
 21
36.7802390732
  0
LWPOLYLINE
  5
396
100
AcDbEntity
  8
SUPERFICI
100
AcDbPolyline
 62
7
  6
CONTINUOUS
 90
3
 70
0
 10
-63.3843152082
 20
35.8048988847
 10
-63.5374835493
 20
35.2420932952
 10
-63.6404682765
 20
34.8484017076
  0
LINE
  5
397
100
AcDbEntity
  8
SUPERFICI
100
AcDbLine
 62
7
  6
CONTINUOUS
 10
-62.9403218936
 20
37.2719494227
 11
-63.0014623772
 21
37.0477131133
  0
LINE
  5
398
100
AcDbEntity
  8
RACCORDO
100
AcDbLine
 62
7
  6
CONTINUOUS
 10
-65.8483964531
 20
23.8202620998
 11
-65.8768522245
 21
23.7187003738
  0
LINE
  5
399
100
AcDbEntity
  8
SUPERFICI
100
AcDbLine
 62
7
  6
CONTINUOUS
 10
-62.8756450147
 20
37.5031149501
 11
-62.9403218936
 21
37.2719494227
  0
LWPOLYLINE
  5
39A
100
AcDbEntity
  8
RACCORDO
100
AcDbPolyline
 62
7
  6
CONTINUOUS
 90
3
 70
0
 10
-63.5054866168
 20
35.3617730356
 10
-63.162529558
 20
36.5769699229
 10
-62.8796212718
 20
37.4889975917
  0
LINE
  5
39B
100
AcDbEntity
  8
SUPERFICI
100
AcDbLine
 62
7
  6
CONTINUOUS
 10
-63.2189667862
 20
36.3851609126
 11
-63.3843154982
 21
35.8048978431
  0
LINE
  5
39C
100
AcDbEntity
  8
SUPERFICI
100
AcDbLine
 62
7
  6
CONTINUOUS
 10
-63.040799833
 20
36.9824182293
 11
-63.2189667862
 21
36.3851609126
  0
LINE
  5
39D
100
AcDbEntity
  8
RACCORDO
100
AcDbLine
 62
250
  6
CONTINUOUS
 10
-62.3616514837
 20
39.10757027
 11
-62.361678401
 21
39.1074838402
  0
LWPOLYLINE
  5
39E
100
AcDbEntity
  8
0
100
AcDbPolyline
 62
7
  6
CONTINUOUS
 90
3
 70
0
 10
-65.8464262364
 20
23.8260681037
 10
-65.8617412808
 20
23.7777225543
 10
-65.8745028795
 20
23.7290148688
  0
LWPOLYLINE
  5
39F
100
AcDbEntity
  8
SUPERFICI
100
AcDbPolyline
 62
7
  6
CONTINUOUS
 90
3
 70
0
 10
-62.8479877708
 20
37.5998708597
 10
-62.8496440537
 20
37.5947976544
 10
-63.0407993062
 20
36.9824199558
  0
LINE
  5
3A0
100
AcDbEntity
  8
RACCORDO
100
AcDbLine
 62
7
  6
CONTINUOUS
 10
-65.8094585495
 20
23.9181187722
 11
-65.8483964531
 21
23.8202620998
  0
LINE
  5
3A1
100
AcDbEntity
  8
RACCORDO
100
AcDbLine
 62
7
  6
CONTINUOUS
 10
-65.8094584704
 20
-23.9181188827
 11
-65.8483963718
 21
-23.8202622752
  0
LWPOLYLINE
  5
3A2
100
AcDbEntity
  8
0
100
AcDbPolyline
 62
7
  6
CONTINUOUS
 90
3
 70
0
 10
-65.8524672666
 20
-23.8079968669
 10
-65.836681654
 20
-23.8530571513
 10
-65.8186372534
 20
-23.8976034462
  0
LWPOLYLINE
  5
3A3
100
AcDbEntity
  8
SUPERFICI
100
AcDbPolyline
 62
7
  6
CONTINUOUS
 90
10
 70
0
 10
-62.8031571493
 20
-37.7546202619
 10
-62.7636808381
 20
-37.8881625877
 10
-62.7219319442
 20
-38.0267374423
 10
-62.6781335579
 20
-38.1691629579
 10
-62.6319695462
 20
-38.3159926275
 10
-62.5824529627
 20
-38.4697194129
 10
-62.5297052735
 20
-38.6291771297
 10
-62.4734434167
 20
-38.7943601788
 10
-62.4119949053
 20
-38.9689887938
 10
-62.3616401353
 20
-39.1075888849
  0
LINE
  5
3A4
100
AcDbEntity
  8
SUPERFICI
100
AcDbLine
 62
7
  6
CONTINUOUS
 10
-62.8756445951
 20
-37.5031164295
 11
-62.8031571493
 21
-37.7546202619
  0
LWPOLYLINE
  5
3A5
100
AcDbEntity
  8
SUPERFICI
100
AcDbPolyline
 62
7
  6
CONTINUOUS
 90
5
 70
0
 10
-63.3843152082
 20
-35.8048988847
 10
-63.2189663843
 20
-36.3851622914
 10
-63.0407993062
 20
-36.9824199558
 10
-62.8496440537
 20
-37.5947976544
 10
-62.8479877544
 20
-37.5998709102
  0
LWPOLYLINE
  5
3A6
100
AcDbEntity
  8
RACCORDO
100
AcDbPolyline
 62
7
  6
CONTINUOUS
 90
3
 70
0
 10
-63.5054882424
 20
-35.3617669836
 10
-63.1625309706
 20
-36.5769651497
 10
-62.8796211424
 20
-37.4889980431
  0
LWPOLYLINE
  5
3A7
100
AcDbEntity
  8
RACCORDO
100
AcDbPolyline
 62
7
  6
CONTINUOUS
 90
4
 70
0
 10
-65.8483963718
 20
-23.8202622752
 10
-65.8768521925
 20
-23.7187000009
 10
-65.8944431915
 20
-23.6146916657
 10
-65.9010748531
 20
-23.4995962079
  0
LINE
  5
3A8
100
AcDbEntity
  8
SUPERFICI
100
AcDbLine
 62
7
  6
CONTINUOUS
 10
-62.9403215527
 20
-37.2719506576
 11
-62.8756445951
 21
-37.5031164295
  0
LINE
  5
3A9
100
AcDbEntity
  8
SUPERFICI
100
AcDbLine
 62
7
  6
CONTINUOUS
 10
-63.001462236
 20
-37.0477136375
 11
-62.9403215527
 21
-37.2719506576
  0
LINE
  5
3AA
100
AcDbEntity
  8
SUPERFICI
100
AcDbLine
 62
7
  6
CONTINUOUS
 10
-63.0887004514
 20
-36.7204153558
 11
-63.001462236
 21
-37.0477136375
  0
LINE
  5
3AB
100
AcDbEntity
  8
RACCORDO
100
AcDbLine
 62
7
  6
CONTINUOUS
 10
-63.6404682569
 20
-34.8484017838
 11
-63.5054882424
 21
-35.3617669836
  0
LWPOLYLINE
  5
3AC
100
AcDbEntity
  8
SUPERFICI
100
AcDbPolyline
 62
7
  6
CONTINUOUS
 90
3
 70
0
 10
-63.6404682564
 20
-34.8484017857
 10
-63.5374833592
 20
-35.2420940103
 10
-63.3843152082
 20
-35.8048988847
  0
LINE
  5
3AD
100
AcDbEntity
  8
SUPERFICI
100
AcDbLine
 62
7
  6
CONTINUOUS
 10
-63.2702382807
 20
-36.0256682742
 11
-63.2519440214
 21
-36.095632314
  0
LINE
  5
3AE
100
AcDbEntity
  8
SUPERFICI
100
AcDbLine
 62
7
  6
CONTINUOUS
 10
-63.2519440214
 20
-36.095632314
 11
-63.0887004514
 21
-36.7204153558
  0
LWPOLYLINE
  5
3AF
100
AcDbEntity
  8
RACCORDO
100
AcDbPolyline
 62
7
  6
CONTINUOUS
 90
6
 70
0
 10
-64.7182079469
 20
29.4371635532
 10
-64.5331063807
 20
30.6342685345
 10
-64.3128480651
 20
31.8576386442
 10
-64.0693679143
 20
33.0429214001
 10
-63.804607895
 20
34.1921674757
 10
-63.6404682765
 20
34.8484017076
  0
LINE
  5
3B0
100
AcDbEntity
  8
0
100
AcDbLine
 62
7
  6
CONTINUOUS
 10
-65.88473045
 20
23.6800880443
 11
-65.892452331
 21
23.6310755971
  0
LWPOLYLINE
  5
3B1
100
AcDbEntity
  8
RACCORDO
100
AcDbPolyline
 62
7
  6
CONTINUOUS
 90
3
 70
0
 10
-65.8768522245
 20
23.7187003738
 10
-65.8944432538
 20
23.6146933347
 10
-65.9010748531
 20
23.4995993435
  0
LINE
  5
3B2
100
AcDbEntity
  8
0
100
AcDbLine
 62
7
  6
CONTINUOUS
 10
-65.8745028795
 20
23.7290148688
 11
-65.88473045
 21
23.6800880443
  0
LWPOLYLINE
  5
3B3
100
AcDbEntity
  8
0
100
AcDbPolyline
 62
7
  6
CONTINUOUS
 90
3
 70
0
 10
-65.8769083724
 20
23.7183701792
 10
-65.8772943233
 20
23.7168072568
 10
-65.886366526
 20
23.6709100636
  0
LWPOLYLINE
  5
3B4
100
AcDbEntity
  8
0
100
AcDbPolyline
 62
7
  6
CONTINUOUS
 90
3
 70
0
 10
-65.8772943233
 20
-23.7168072567
 10
-65.8660009175
 20
-23.7625403186
 10
-65.8524672666
 20
-23.8079968669
  0
LINE
  5
3B5
100
AcDbEntity
  8
0
100
AcDbLine
 62
7
  6
CONTINUOUS
 10
-65.886366526
 20
-23.6709100635
 11
-65.8772943233
 21
-23.7168072567
  0
LWPOLYLINE
  5
3B6
100
AcDbEntity
  8
RACCORDO
100
AcDbPolyline
 62
7
  6
CONTINUOUS
 90
6
 70
0
 10
-64.7182083781
 20
-29.4371605236
 10
-64.5331070759
 20
-30.6342643752
 10
-64.3128490625
 20
-31.8576334759
 10
-64.0693691929
 20
-33.0429155319
 10
-63.8046094361
 20
-34.1921611322
 10
-63.6404682569
 20
-34.8484017838
  0
LINE
  5
3B7
100
AcDbEntity
  8
0
100
AcDbLine
 62
7
  6
CONTINUOUS
 10
-65.1754939131
 20
-26.2700565657
 11
-65.1551808922
 21
-26.3998894423
  0
LWPOLYLINE
  5
3B8
100
AcDbEntity
  8
0
100
AcDbPolyline
 62
7
  6
CONTINUOUS
 90
13
 70
0
 10
-65.1463272154
 20
-26.6857431243
 10
-65.1524747529
 20
-26.645635701
 10
-65.1585315178
 20
-26.6082736541
 10
-65.1641992615
 20
-26.5745264734
 10
-65.1693973318
 20
-26.5448186344
 10
-65.174206381
 20
-26.5189631242
 10
-65.1785701176
 20
-26.496745336
 10
-65.1824662208
 20
-26.4782361419
 10
-65.1859170114
 20
-26.4632955206
 10
-65.1889331611
 20
-26.4515938135
 10
-65.1915182269
 20
-26.4431458864
 10
-65.1936686516
 20
-26.4380819714
 10
-65.1953844354
 20
-26.4364
  0
LINE
  5
3B9
100
AcDbEntity
  8
0
100
AcDbLine
 62
7
  6
CONTINUOUS
 10
-65.0164826218
 20
-27.6089026669
 11
-64.9977179836
 21
-27.7327216
  0
LINE
  5
3BA
100
AcDbEntity
  8
0
100
AcDbLine
 62
7
  6
CONTINUOUS
 10
-64.9767638104
 20
-28.0358744079
 11
-65.0307867276
 21
-27.678657
  0
LWPOLYLINE
  5
3BB
100
AcDbEntity
  8
0
100
AcDbPolyline
 62
7
  6
CONTINUOUS
 90
9
 70
0
 10
-65.0587088193
 20
-27.1364054833
 10
-65.0442268063
 20
-27.2705012386
 10
-65.0379707572
 20
-27.3326404971
 10
-65.0324304853
 20
-27.3909379564
 10
-65.0275944505
 20
-27.4448934524
 10
-65.0235708291
 20
-27.4940134126
 10
-65.0203956799
 20
-27.5379152893
 10
-65.0180329441
 20
-27.5763052997
 10
-65.0164826218
 20
-27.6089026669
  0
LINE
  5
3BC
100
AcDbEntity
  8
0
100
AcDbLine
 62
7
  6
CONTINUOUS
 10
-65.2196904306
 20
-26.8682604925
 11
-65.196735431
 21
-27.0843494511
  0
LINE
  5
3BD
100
AcDbEntity
  8
0
100
AcDbLine
 62
7
  6
CONTINUOUS
 10
-65.2130854251
 20
-26.8558620181
 11
-65.2386507075
 21
-26.6087988401
  0
LWPOLYLINE
  5
3BE
100
AcDbEntity
  8
0
100
AcDbPolyline
 62
7
  6
CONTINUOUS
 90
3
 70
0
 10
-65.8979496309
 20
-23.579061512
 10
-65.8932419294
 20
-23.6249579579
 10
-65.886366526
 20
-23.6709100635
  0
LINE
  5
3BF
100
AcDbEntity
  8
0
100
AcDbLine
 62
7
  6
CONTINUOUS
 10
-65.242072557
 20
-26.6439523393
 11
-65.2196904306
 21
-26.8682604925
  0
LWPOLYLINE
  5
3C0
100
AcDbEntity
  8
0
100
AcDbPolyline
 62
7
  6
CONTINUOUS
 90
3
 70
0
 10
-65.2742952447
 20
-26.2872522057
 10
-65.2637738391
 20
-26.4092909734
 10
-65.242072557
 20
-26.6439523393
  0
LWPOLYLINE
  5
3C1
100
AcDbEntity
  8
0
100
AcDbPolyline
 62
7
  6
CONTINUOUS
 90
6
 70
0
 10
-65.2992001381
 20
-25.899877
 10
-65.2899915607
 20
-26.0067709964
 10
-65.2802280083
 20
-26.1135909752
 10
-65.2699094808
 20
-26.2203369364
 10
-65.2590096002
 20
-26.326998969
 10
-65.2475547446
 20
-26.4335869841
  0
LINE
  5
3C2
100
AcDbEntity
  8
0
100
AcDbLine
 62
7
  6
CONTINUOUS
 10
-65.2945681522
 20
-26.0324142988
 11
-65.2742952447
 21
-26.2872522057
  0
LINE
  5
3C3
100
AcDbEntity
  8
SUPERFICI
100
AcDbLine
 62
7
  6
CONTINUOUS
 10
-65.1142611835
 20
-25.7528635873
 11
-65.1044707829
 21
-25.899901194
  0
LINE
  5
3C4
100
AcDbEntity
  8
SUPERFICI
100
AcDbLine
 62
7
  6
CONTINUOUS
 10
-65.1178059323
 20
-25.6971806735
 11
-65.1142611835
 21
-25.7528635873
  0
LWPOLYLINE
  5
3C5
100
AcDbEntity
  8
RACCORDO
100
AcDbPolyline
 62
250
  6
CONTINUOUS
 90
15
 70
0
 10
-65.1178064535
 20
25.697172531
 10
-65.1178250003
 20
25.6968482685
 10
-65.1178598211
 20
25.6959111014
 10
-65.1178711312
 20
25.6949121158
 10
-65.1178596746
 20
25.6938525732
 10
-65.1178263177
 20
25.6927332993
 10
-65.1177718242
 20
25.6915513649
 10
-65.1176970367
 20
25.6903076029
 10
-65.1176028248
 20
25.6890035349
 10
-65.1174896978
 20
25.6876365737
 10
-65.1173584207
 20
25.686208207
 10
-65.1172097109
 20
25.6847200689
 10
-65.1170436886
 20
25.6831687516
 10
-65.1168608294
 20
25.6815546128
 10
-65.1166619665
 20
25.6798785572
  0
LINE
  5
3C6
100
AcDbEntity
  8
SUPERFICI
100
AcDbLine
 62
7
  6
CONTINUOUS
 10
-65.1055684163
 20
25.8841728357
 11
-65.1178059323
 21
25.6971806735
  0
LINE
  5
3C7
100
AcDbEntity
  8
RACCORDO
100
AcDbLine
 62
7
  6
CONTINUOUS
 10
-65.1178064538
 20
25.6971725267
 11
-65.1222965077
 21
25.6358349473
  0
LINE
  5
3C8
100
AcDbEntity
  8
SUPERFICI
100
AcDbLine
 62
7
  6
CONTINUOUS
 10
-65.0865857893
 20
26.1493235047
 11
-65.1055684163
 21
25.8841728357
  0
LINE
  5
3C9
100
AcDbEntity
  8
SUPERFICI
100
AcDbLine
 62
7
  6
CONTINUOUS
 10
-65.0657729908
 20
26.4137214232
 11
-65.0865857893
 21
26.1493235047
  0
LINE
  5
3CA
100
AcDbEntity
  8
SUPERFICI
100
AcDbLine
 62
7
  6
CONTINUOUS
 10
-65.0434044235
 20
26.6752100825
 11
-65.0657729908
 21
26.4137214232
  0
LINE
  5
3CB
100
AcDbEntity
  8
SUPERFICI
100
AcDbLine
 62
7
  6
CONTINUOUS
 10
-65.0201496298
 20
26.9283386241
 11
-65.0434044235
 21
26.6752100825
  0
LINE
  5
3CC
100
AcDbEntity
  8
SUPERFICI
100
AcDbLine
 62
7
  6
CONTINUOUS
 10
-64.9960941595
 20
27.1743823218
 11
-65.0201496298
 21
26.9283386241
  0
LINE
  5
3CD
100
AcDbEntity
  8
SUPERFICI
100
AcDbLine
 62
7
  6
CONTINUOUS
 10
-64.9713303104
 20
27.4142454633
 11
-64.9960941595
 21
27.1743823218
  0
LWPOLYLINE
  5
3CE
100
AcDbEntity
  8
0
100
AcDbPolyline
 62
7
  6
CONTINUOUS
 90
4
 70
0
 10
-65.892452331
 20
23.6310755971
 10
-65.8977034994
 20
23.5821067042
 10
-65.9005249667
 20
23.5333116887
 10
-65.9007807426
 20
23.5050928907
  0
LINE
  5
3CF
100
AcDbEntity
  8
SUPERFICI
100
AcDbLine
 62
7
  6
CONTINUOUS
 10
-64.9458019104
 20
27.6500442195
 11
-64.9713303104
 21
27.4142454633
  0
LINE
  5
3D0
100
AcDbEntity
  8
SUPERFICI
100
AcDbLine
 62
7
  6
CONTINUOUS
 10
-64.9077394391
 20
27.9842965284
 11
-64.9458019104
 21
27.6500442195
  0
LWPOLYLINE
  5
3D1
100
AcDbEntity
  8
RACCORDO
100
AcDbPolyline
 62
7
  6
CONTINUOUS
 90
8
 70
0
 10
-65.1222965077
 20
25.6358349473
 10
-65.1469781736
 20
25.4280131728
 10
-65.1860813537
 20
25.2224505551
 10
-65.239408897
 20
25.0201459533
 10
-65.306694692
 20
24.8220813707
 10
-65.3876051095
 20
24.629217223
 10
-65.4817405565
 20
24.4424881176
 10
-65.5886374185
 20
24.2627983161
  0
LINE
  5
3D2
100
AcDbEntity
  8
SUPERFICI
100
AcDbLine
 62
7
  6
CONTINUOUS
 10
-64.8720386582
 20
28.2819188116
 11
-64.9077394391
 21
27.9842965284
  0
LINE
  5
3D3
100
AcDbEntity
  8
SUPERFICI
100
AcDbLine
 62
7
  6
CONTINUOUS
 10
-64.8391447035
 20
28.5445690031
 11
-64.8720386582
 21
28.2819188116
  0
LINE
  5
3D4
100
AcDbEntity
  8
SUPERFICI
100
AcDbLine
 62
7
  6
CONTINUOUS
 10
-64.7982582892
 20
28.8578118995
 11
-64.8391447035
 21
28.5445690031
  0
LINE
  5
3D5
100
AcDbEntity
  8
RACCORDO
100
AcDbLine
 62
7
  6
CONTINUOUS
 10
-64.7213888314
 20
29.4136164485
 11
-64.7182079469
 21
29.4371635532
  0
LINE
  5
3D6
100
AcDbEntity
  8
SUPERFICI
100
AcDbLine
 62
7
  6
CONTINUOUS
 10
-64.7603073888
 20
29.1371710212
 11
-64.7982585803
 21
28.8578097166
  0
LINE
  5
3D7
100
AcDbEntity
  8
SUPERFICI
100
AcDbLine
 62
7
  6
CONTINUOUS
 10
-64.7190062609
 20
29.4302593868
 11
-64.7603073888
 21
29.1371710212
  0
LINE
  5
3D8
100
AcDbEntity
  8
SUPERFICI
100
AcDbLine
 62
7
  6
CONTINUOUS
 10
-64.7116840267
 20
29.4811654385
 11
-64.7190062609
 21
29.4302593868
  0
LWPOLYLINE
  5
3D9
100
AcDbEntity
  8
RACCORDO
100
AcDbPolyline
 62
250
  6
CONTINUOUS
 90
13
 70
0
 10
-62.3618041395
 20
39.1070801005
 10
-62.3619845155
 20
39.1060435017
 10
-62.3620522842
 20
39.1048022384
 10
-62.361993677
 20
39.1034043281
 10
-62.3617367531
 20
39.1020314611
 10
-62.3612923631
 20
39.1006421138
 10
-62.3606948843
 20
39.0992754532
 10
-62.3599845846
 20
39.0982310645
 10
-62.3592222607
 20
39.0978138684
 10
-62.3586069226
 20
39.0977062061
 10
-62.3582499924
 20
39.0972810718
 10
-62.3580906256
 20
39.0963110125
 10
-62.3579248819
 20
39.0950366289
  0
LWPOLYLINE
  5
3DA
100
AcDbEntity
  8
0
100
AcDbPolyline
 62
7
  6
CONTINUOUS
 90
13
 70
0
 10
-64.9546861946
 20
-26.3911934583
 10
-64.9673289432
 20
-26.3094019164
 10
-64.9795170031
 20
-26.2347296164
 10
-64.9909334173
 20
-26.1677088111
 10
-65.0015006944
 20
-26.1086834991
 10
-65.0112963258
 20
-26.0575142457
 10
-65.0202358285
 20
-26.0138658384
 10
-65.0283003054
 20
-25.9775926516
 10
-65.0355086536
 20
-25.9486205078
 10
-65.0418330821
 20
-25.9267000771
 10
-65.0472643272
 20
-25.9115194422
 10
-65.0518116526
 20
-25.9027138933
 10
-65.0554750583
 20
-25.8998751129
  0
LINE
  5
3DB
100
AcDbEntity
  8
0
100
AcDbLine
 62
7
  6
CONTINUOUS
 10
-64.8626988509
 20
-28.800007
 11
-64.9767638104
 21
-28.0358744079
  0
LINE
  5
3DC
100
AcDbEntity
  8
0
100
AcDbLine
 62
7
  6
CONTINUOUS
 10
-64.9977179836
 20
-27.7327216
 11
-64.8393814491
 21
-28.8
  0
LINE
  5
3DD
100
AcDbEntity
  8
0
100
AcDbLine
 62
7
  6
CONTINUOUS
 10
-64.6375898093
 20
-28.8
 11
-64.8145879457
 21
-27.6089026669
  0
LWPOLYLINE
  5
3DE
100
AcDbEntity
  8
0
100
AcDbPolyline
 62
7
  6
CONTINUOUS
 90
3
 70
0
 10
-65.1551808922
 20
-26.3998894423
 10
-65.1344328761
 20
-26.5418174887
 10
-65.1239973495
 20
-26.6158870896
  0
LINE
  5
3DF
100
AcDbEntity
  8
0
100
AcDbLine
 62
7
  6
CONTINUOUS
 10
-64.9385713723
 20
-28.800007
 11
-65.0212730777
 21
-28.229679
  0
LINE
  5
3E0
100
AcDbEntity
  8
0
100
AcDbLine
 62
7
  6
CONTINUOUS
 10
-65.081027574
 20
-27.7145188013
 11
-64.9244753863
 21
-28.800015
  0
LINE
  5
3E1
100
AcDbEntity
  8
SUPERFICI
100
AcDbLine
 62
7
  6
CONTINUOUS
 10
-64.7603071635
 20
-29.1371726497
 11
-64.7196564278
 21
-29.4257255852
  0
LINE
  5
3E2
100
AcDbEntity
  8
0
100
AcDbLine
 62
7
  6
CONTINUOUS
 10
-65.1408739733
 20
-27.2853235401
 11
-65.081027574
 21
-27.7145188013
  0
LWPOLYLINE
  5
3E3
100
AcDbEntity
  8
0
100
AcDbPolyline
 62
7
  6
CONTINUOUS
 90
3
 70
0
 10
-64.9143467744
 20
-26.6725131222
 10
-64.9277276922
 20
-26.5752226
 10
-64.9546861946
 20
-26.3911934583
  0
LWPOLYLINE
  5
3E4
100
AcDbEntity
  8
0
100
AcDbPolyline
 62
7
  6
CONTINUOUS
 90
3
 70
0
 10
-65.127638216
 20
-26.8165635596
 10
-65.1337233034
 20
-26.772043247
 10
-65.1463272154
 20
-26.6857431243
  0
LINE
  5
3E5
100
AcDbEntity
  8
0
100
AcDbLine
 62
7
  6
CONTINUOUS
 10
-65.0342322572
 20
-28.400365696
 11
-64.9793321596
 21
-28.800015
  0
LINE
  5
3E6
100
AcDbEntity
  8
RACCORDO
100
AcDbLine
 62
7
  6
CONTINUOUS
 10
-64.7213781034
 20
-29.4136960218
 11
-64.7182083781
 21
-29.4371605236
  0
LINE
  5
3E7
100
AcDbEntity
  8
0
100
AcDbLine
 62
7
  6
CONTINUOUS
 10
-65.0989564133
 20
-27.678657
 11
-65.1376204445
 21
-27.3942040103
  0
LINE
  5
3E8
100
AcDbEntity
  8
SUPERFICI
100
AcDbLine
 62
7
  6
CONTINUOUS
 10
-64.7982582892
 20
-28.8578118995
 11
-64.7603071635
 21
-29.1371726497
  0
LINE
  5
3E9
100
AcDbEntity
  8
0
100
AcDbLine
 62
7
  6
CONTINUOUS
 10
-65.2179113766
 20
-26.436398
 11
-65.1217609675
 21
-27.142128
  0
LINE
  5
3EA
100
AcDbEntity
  8
0
100
AcDbLine
 62
7
  6
CONTINUOUS
 10
-65.0483163227
 20
-27.67865
 11
-64.8976693841
 21
-28.800007
  0
LINE
  5
3EB
100
AcDbEntity
  8
SUPERFICI
100
AcDbLine
 62
7
  6
CONTINUOUS
 10
-64.8059265312
 20
-28.800015471
 11
-64.7982582892
 21
-28.8578118995
  0
LWPOLYLINE
  5
3EC
100
AcDbEntity
  8
0
100
AcDbPolyline
 62
7
  6
CONTINUOUS
 90
3
 70
0
 10
-65.1239973495
 20
-26.6158870896
 10
-65.1037459406
 20
-26.7668203412
 10
-65.0939300583
 20
-26.8425729203
  0
LINE
  5
3ED
100
AcDbEntity
  8
0
100
AcDbLine
 62
7
  6
CONTINUOUS
 10
-64.9142482208
 20
-28.800007
 11
-65.18183689
 21
-26.817676657
  0
LINE
  5
3EE
100
AcDbEntity
  8
0
100
AcDbLine
 62
7
  6
CONTINUOUS
 10
-65.0738552508
 20
-28.1014825333
 11
-65.0342322572
 21
-28.400365696
  0
LINE
  5
3EF
100
AcDbEntity
  8
0
100
AcDbLine
 62
7
  6
CONTINUOUS
 10
-65.1834476888
 20
-26.9659659067
 11
-65.1408739733
 21
-27.2853235401
  0
LINE
  5
3F0
100
AcDbEntity
  8
0
100
AcDbLine
 62
7
  6
CONTINUOUS
 10
-65.0486774146
 20
-28.3738588533
 11
-64.9920855633
 21
-28.800007
  0
LWPOLYLINE
  5
3F1
100
AcDbEntity
  8
0
100
AcDbPolyline
 62
7
  6
CONTINUOUS
 90
3
 70
0
 10
-65.1376204445
 20
-27.3942040103
 10
-65.1631207402
 20
-27.2004824171
 10
-65.1756809916
 20
-27.1023848652
  0
LWPOLYLINE
  5
3F2
100
AcDbEntity
  8
0
100
AcDbPolyline
 62
7
  6
CONTINUOUS
 90
3
 70
0
 10
-65.0397174206
 20
-28.229679
 10
-65.0276416885
 20
-28.3228749738
 10
-64.9644521436
 20
-28.800007
  0
LINE
  5
3F3
100
AcDbEntity
  8
0
100
AcDbLine
 62
7
  6
CONTINUOUS
 10
-65.18183689
 20
-26.817676657
 11
-65.211448233
 21
-26.5884473612
  0
LINE
  5
3F4
100
AcDbEntity
  8
0
100
AcDbLine
 62
7
  6
CONTINUOUS
 10
-65.0758056365
 20
-28.1610264551
 11
-65.0486774146
 21
-28.3738588533
  0
LINE
  5
3F5
100
AcDbEntity
  8
0
100
AcDbLine
 62
7
  6
CONTINUOUS
 10
-65.1122073151
 20
-27.8014697001
 11
-65.0738552508
 21
-28.1014825333
  0
LINE
  5
3F6
100
AcDbEntity
  8
0
100
AcDbLine
 62
7
  6
CONTINUOUS
 10
-65.0487454062
 20
-28.2332046785
 11
-65.0965356845
 21
-27.8561851434
  0
LWPOLYLINE
  5
3F7
100
AcDbEntity
  8
0
100
AcDbPolyline
 62
7
  6
CONTINUOUS
 90
3
 70
0
 10
-64.876938453
 20
-26.9637381995
 10
-64.8887957709
 20
-26.8676798582
 10
-64.9143467744
 20
-26.6725131222
  0
LINE
  5
3F8
100
AcDbEntity
  8
0
100
AcDbLine
 62
7
  6
CONTINUOUS
 10
-65.0965356845
 20
-27.8561851434
 11
-65.115237814
 21
-27.7041870558
  0
LINE
  5
3F9
100
AcDbEntity
  8
0
100
AcDbLine
 62
7
  6
CONTINUOUS
 10
-65.211448233
 20
-26.5884473612
 11
-65.2398520806
 21
-26.3585668237
  0
LINE
  5
3FA
100
AcDbEntity
  8
0
100
AcDbLine
 62
7
  6
CONTINUOUS
 10
-65.0939300583
 20
-26.8425729203
 11
-65.0754585769
 21
-26.9923973399
  0
LINE
  5
3FB
100
AcDbEntity
  8
0
100
AcDbLine
 62
7
  6
CONTINUOUS
 10
-65.1492591478
 20
-27.4986332687
 11
-65.1122073151
 21
-27.8014697001
  0
LINE
  5
3FC
100
AcDbEntity
  8
0
100
AcDbLine
 62
7
  6
CONTINUOUS
 10
-65.156314222
 20
-27.2922088182
 11
-65.1094416124
 21
-27.678657
  0
LWPOLYLINE
  5
3FD
100
AcDbEntity
  8
0
100
AcDbPolyline
 62
7
  6
CONTINUOUS
 90
3
 70
0
 10
-65.0754585769
 20
-26.9923973399
 10
-65.0668029778
 20
-27.0653808775
 10
-65.0587088193
 20
-27.1364054833
  0
LWPOLYLINE
  5
3FE
100
AcDbEntity
  8
0
100
AcDbPolyline
 62
7
  6
CONTINUOUS
 90
5
 70
0
 10
-65.2398520806
 20
-26.3585668237
 10
-65.2533287027
 20
-26.24366643
 10
-65.2661496561
 20
-26.1289597866
 10
-65.2784010078
 20
-26.0143633099
 10
-65.290082758
 20
-25.899877
  0
LWPOLYLINE
  5
3FF
100
AcDbEntity
  8
0
100
AcDbPolyline
 62
7
  6
CONTINUOUS
 90
4
 70
0
 10
-65.235624048
 20
-26.5401307137
 10
-65.2232040371
 20
-26.6466260861
 10
-65.2103081851
 20
-26.753077173
 10
-65.1834476888
 20
-26.9659659067
  0
LINE
  5
400
100
AcDbEntity
  8
0
100
AcDbLine
 62
7
  6
CONTINUOUS
 10
-65.1732520197
 20
-27.2936952518
 11
-65.1492591478
 21
-27.4986332687
  0
LINE
  5
401
100
AcDbEntity
  8
0
100
AcDbLine
 62
7
  6
CONTINUOUS
 10
-65.1903550335
 20
-26.9995629439
 11
-65.156314222
 21
-27.2922088182
  0
LINE
  5
402
100
AcDbEntity
  8
0
100
AcDbLine
 62
7
  6
CONTINUOUS
 10
-65.2475547446
 20
-26.4335869841
 11
-65.235624048
 21
-26.5401307137
  0
LINE
  5
403
100
AcDbEntity
  8
0
100
AcDbLine
 62
7
  6
CONTINUOUS
 10
-65.196735431
 20
-27.0843494511
 11
-65.1732520197
 21
-27.2936952518
  0
LWPOLYLINE
  5
404
100
AcDbEntity
  8
0
100
AcDbPolyline
 62
7
  6
CONTINUOUS
 90
9
 70
0
 10
-64.8145879457
 20
-27.6089026669
 10
-64.8166669994
 20
-27.5671915347
 10
-64.820030451
 20
-27.5162861135
 10
-64.8246783006
 20
-27.4566647256
 10
-64.8307068185
 20
-27.3887206285
 10
-64.8380197344
 20
-27.3133209586
 10
-64.8463282369
 20
-27.2319886416
 10
-64.8556161361
 20
-27.1462974453
 10
-64.876938453
 20
-26.9637381995
  0
LWPOLYLINE
  5
405
100
AcDbEntity
  8
RACCORDO
100
AcDbPolyline
 62
250
  6
CONTINUOUS
 90
10
 70
0
 10
-65.1159865304
 20
-25.5931443705
 10
-65.114665375
 20
-25.6199300186
 10
-65.1143366567
 20
-25.6276017488
 10
-65.114082085
 20
-25.6345888386
 10
-65.1138978802
 20
-25.6407647218
 10
-65.1137688476
 20
-25.6461663394
 10
-65.1136952049
 20
-25.6508719688
 10
-65.1136881232
 20
-25.6548145877
 10
-65.1137616419
 20
-25.6578326121
 10
-65.1139208385
 20
-25.6598161566
  0
LINE
  5
406
100
AcDbEntity
  8
RACCORDO
100
AcDbLine
 62
250
  6
CONTINUOUS
 10
-65.7023894807
 20
-24.0650967632
 11
-65.7020291111
 21
-24.0796233487
  0
LWPOLYLINE
  5
407
100
AcDbEntity
  8
RACCORDO
100
AcDbPolyline
 62
250
  6
CONTINUOUS
 90
6
 70
0
 10
-65.1177469069
 20
-25.5391449578
 10
-65.1174589764
 20
-25.5518089219
 10
-65.1171431607
 20
-25.5631258577
 10
-65.1168042265
 20
-25.5734346708
 10
-65.1164229782
 20
-25.583340574
 10
-65.1159865304
 20
-25.5931443705
  0
LINE
  5
408
100
AcDbEntity
  8
RACCORDO
100
AcDbLine
 62
250
  6
CONTINUOUS
 10
-65.1259890503
 20
-24.8404961024
 11
-65.120230802
 21
-25.0815770755
  0
LINE
  5
409
100
AcDbEntity
  8
RACCORDO
100
AcDbLine
 62
250
  6
CONTINUOUS
 10
-65.7026517375
 20
-24.0523791759
 11
-65.7023894807
 21
-24.0650967632
  0
LWPOLYLINE
  5
40A
100
AcDbEntity
  8
RACCORDO
100
AcDbPolyline
 62
250
  6
CONTINUOUS
 90
3
 70
0
 10
-65.7020291111
 20
-24.0796233487
 10
-65.7018849386
 20
-24.0868452284
 10
-65.7018398728
 20
-24.089866244
  0
LINE
  5
40B
100
AcDbEntity
  8
RACCORDO
100
AcDbLine
 62
7
  6
CONTINUOUS
 10
-65.9010719823
 20
22.1209730774
 11
-65.9010748548
 21
22.1211279545
  0
LINE
  5
40C
100
AcDbEntity
  8
RACCORDO
100
AcDbLine
 62
250
  6
CONTINUOUS
 10
-65.1290188546
 20
-24.6769127078
 11
-65.1259890503
 21
-24.8404961024
  0
LINE
  5
40D
100
AcDbEntity
  8
RACCORDO
100
AcDbLine
 62
250
  6
CONTINUOUS
 10
-65.120230802
 20
-25.0815770755
 11
-65.1192591536
 21
-25.1361766659
  0
LINE
  5
40E
100
AcDbEntity
  8
RACCORDO
100
AcDbLine
 62
250
  6
CONTINUOUS
 10
-65.7028891739
 20
-24.0371558666
 11
-65.7026517375
 21
-24.0523791759
  0
LINE
  5
40F
100
AcDbEntity
  8
RACCORDO
100
AcDbLine
 62
250
  6
CONTINUOUS
 10
-65.118198627
 20
-25.5106801618
 11
-65.1177469069
 21
-25.5391449578
  0
LINE
  5
410
100
AcDbEntity
  8
RACCORDO
100
AcDbLine
 62
250
  6
CONTINUOUS
 10
-65.1323004744
 20
-24.4317734495
 11
-65.1290188546
 21
-24.6769127078
  0
LINE
  5
411
100
AcDbEntity
  8
RACCORDO
100
AcDbLine
 62
250
  6
CONTINUOUS
 10
-65.1192591536
 20
-25.1361766659
 11
-65.1188037007
 21
-25.1727098987
  0
LINE
  5
412
100
AcDbEntity
  8
RACCORDO
100
AcDbLine
 62
250
  6
CONTINUOUS
 10
-65.7063305797
 20
-23.595990971
 11
-65.703716222
 21
-23.7960998807
  0
LWPOLYLINE
  5
413
100
AcDbEntity
  8
0
100
AcDbPolyline
 62
7
  6
CONTINUOUS
 90
3
 70
0
 10
-65.9008329145
 20
-23.5041894495
 10
-65.9005245246
 20
-23.5333230375
 10
-65.8979496309
 20
-23.579061512
  0
LINE
  5
414
100
AcDbEntity
  8
RACCORDO
100
AcDbLine
 62
250
  6
CONTINUOUS
 10
-65.7031647217
 20
-24.0101491902
 11
-65.7028891739
 21
-24.0371558666
  0
LINE
  5
415
100
AcDbEntity
  8
RACCORDO
100
AcDbLine
 62
250
  6
CONTINUOUS
 10
-65.703716222
 20
-23.7960998807
 11
-65.7034901084
 21
-23.8224209673
  0
LINE
  5
416
100
AcDbEntity
  8
RACCORDO
100
AcDbLine
 62
250
  6
CONTINUOUS
 10
-65.1186431533
 20
-25.4623264322
 11
-65.118198627
 21
-25.5106801618
  0
LINE
  5
417
100
AcDbEntity
  8
RACCORDO
100
AcDbLine
 62
250
  6
CONTINUOUS
 10
-65.1350366757
 20
-24.1126248779
 11
-65.1323004744
 21
-24.4317734495
  0
LINE
  5
418
100
AcDbEntity
  8
RACCORDO
100
AcDbLine
 62
250
  6
CONTINUOUS
 10
-65.7079897396
 20
-23.3882856848
 11
-65.7063305797
 21
-23.595990971
  0
LWPOLYLINE
  5
419
100
AcDbEntity
  8
RACCORDO
100
AcDbPolyline
 62
250
  6
CONTINUOUS
 90
6
 70
0
 10
-65.7018106628
 20
-24.0925123851
 10
-65.7017989684
 20
-24.094737952
 10
-65.701808233
 20
-24.0965326169
 10
-65.7018396027
 20
-24.0978491935
 10
-65.7018919255
 20
-24.0986266385
 10
-65.7019625163
 20
-24.0988146209
  0
LINE
  5
41A
100
AcDbEntity
  8
RACCORDO
100
AcDbLine
 62
250
  6
CONTINUOUS
 10
-65.1188037007
 20
-25.1727098987
 11
-65.1185472738
 21
-25.2092834391
  0
LINE
  5
41B
100
AcDbEntity
  8
RACCORDO
100
AcDbLine
 62
250
  6
CONTINUOUS
 10
-65.7033955156
 20
-23.9607168794
 11
-65.7031647217
 21
-24.0101491902
  0
LINE
  5
41C
100
AcDbEntity
  8
RACCORDO
100
AcDbLine
 62
250
  6
CONTINUOUS
 10
-65.7034901084
 20
-23.8224209673
 11
-65.7033881508
 21
-23.8481978367
  0
LINE
  5
41D
100
AcDbEntity
  8
RACCORDO
100
AcDbLine
 62
250
  6
CONTINUOUS
 10
-65.1539069137
 20
-17.7095537802
 11
-65.1362430023
 21
-22.5763438282
  0
LINE
  5
41E
100
AcDbEntity
  8
RACCORDO
100
AcDbLine
 62
250
  6
CONTINUOUS
 10
-65.1370037444
 20
-23.5914848173
 11
-65.1350366757
 21
-24.1126248779
  0
LINE
  5
41F
100
AcDbEntity
  8
RACCORDO
100
AcDbLine
 62
250
  6
CONTINUOUS
 10
-65.7092861199
 20
-22.9956030462
 11
-65.7079897396
 21
-23.3882856848
  0
LINE
  5
420
100
AcDbEntity
  8
RACCORDO
100
AcDbLine
 62
250
  6
CONTINUOUS
 10
-65.1188591426
 20
-25.3948397597
 11
-65.1186431533
 21
-25.4623264322
  0
LINE
  5
421
100
AcDbEntity
  8
RACCORDO
100
AcDbLine
 62
250
  6
CONTINUOUS
 10
-65.1188611395
 20
25.3779261241
 11
-65.1184960418
 21
25.2396763331
  0
LINE
  5
422
100
AcDbEntity
  8
RACCORDO
100
AcDbLine
 62
250
  6
CONTINUOUS
 10
-65.7192992168
 20
-1.3623999641
 11
-65.7091435971
 21
-22.5424190575
  0
LINE
  5
423
100
AcDbEntity
  8
0
100
AcDbLine
 62
7
  6
CONTINUOUS
 10
-65.9010748531
 20
23.4996192037
 11
-65.9010748531
 21
-23.4996162258
  0
LINE
  5
424
100
AcDbEntity
  8
RACCORDO
100
AcDbLine
 62
250
  6
CONTINUOUS
 10
-65.1747574171
 20
0.6572453308
 11
-65.1539069137
 21
-17.7095537802
  0
LINE
  5
425
100
AcDbEntity
  8
RACCORDO
100
AcDbLine
 62
250
  6
CONTINUOUS
 10
-65.7091435971
 20
-22.5424190575
 11
-65.7092861199
 21
-22.9956030462
  0
LINE
  5
426
100
AcDbEntity
  8
RACCORDO
100
AcDbLine
 62
250
  6
CONTINUOUS
 10
-65.7033881508
 20
-23.8481978367
 11
-65.7033955156
 21
-23.9607168794
  0
LINE
  5
427
100
AcDbEntity
  8
RACCORDO
100
AcDbLine
 62
250
  6
CONTINUOUS
 10
-65.1368669975
 20
23.6652345848
 11
-65.1359605028
 21
22.7309482298
  0
LINE
  5
428
100
AcDbEntity
  8
RACCORDO
100
AcDbLine
 62
250
  6
CONTINUOUS
 10
-65.1362430023
 20
-22.5763438282
 11
-65.1370037444
 21
-23.5914848173
  0
LINE
  5
429
100
AcDbEntity
  8
RACCORDO
100
AcDbLine
 62
250
  6
CONTINUOUS
 10
-65.1185472738
 20
-25.2092834391
 11
-65.1185527706
 21
-25.262589877
  0
LINE
  5
42A
100
AcDbEntity
  8
RACCORDO
100
AcDbLine
 62
250
  6
CONTINUOUS
 10
-65.7033909282
 20
23.9624177096
 11
-65.7034156342
 21
23.8373039056
  0
LINE
  5
42B
100
AcDbEntity
  8
RACCORDO
100
AcDbLine
 62
250
  6
CONTINUOUS
 10
-65.1187522229
 20
-25.311134239
 11
-65.1188591426
 21
-25.3948397597
  0
LINE
  5
42C
100
AcDbEntity
  8
RACCORDO
100
AcDbLine
 62
250
  6
CONTINUOUS
 10
-65.7089767646
 20
23.1533759816
 11
-65.7192992168
 21
-1.3623999641
  0
LINE
  5
42D
100
AcDbEntity
  8
RACCORDO
100
AcDbLine
 62
250
  6
CONTINUOUS
 10
-65.1184960418
 20
25.2396763331
 11
-65.1185750471
 21
25.2039187026
  0
LINE
  5
42E
100
AcDbEntity
  8
RACCORDO
100
AcDbLine
 62
250
  6
CONTINUOUS
 10
-65.1187075653
 20
25.4511772324
 11
-65.1188611395
 21
25.3779261241
  0
LINE
  5
42F
100
AcDbEntity
  8
RACCORDO
100
AcDbLine
 62
250
  6
CONTINUOUS
 10
-65.1185527706
 20
-25.262589877
 11
-65.1187522229
 21
-25.311134239
  0
LINE
  5
430
100
AcDbEntity
  8
RACCORDO
100
AcDbLine
 62
250
  6
CONTINUOUS
 10
-65.70320188
 20
24.0049879576
 11
-65.7033909282
 21
23.9624177096
  0
LINE
  5
431
100
AcDbEntity
  8
RACCORDO
100
AcDbLine
 62
250
  6
CONTINUOUS
 10
-65.1359605028
 20
22.7309482298
 11
-65.1747574171
 21
0.6572453308
  0
LINE
  5
432
100
AcDbEntity
  8
RACCORDO
100
AcDbLine
 62
250
  6
CONTINUOUS
 10
-65.13477123
 20
24.1522379809
 11
-65.1368669975
 21
23.6652345848
  0
LINE
  5
433
100
AcDbEntity
  8
RACCORDO
100
AcDbLine
 62
250
  6
CONTINUOUS
 10
-65.7034156342
 20
23.8373039056
 11
-65.7035606606
 21
23.8126849528
  0
LINE
  5
434
100
AcDbEntity
  8
RACCORDO
100
AcDbLine
 62
250
  6
CONTINUOUS
 10
-65.7073995476
 20
23.4766446428
 11
-65.7089767646
 21
23.1533759816
  0
LINE
  5
435
100
AcDbEntity
  8
RACCORDO
100
AcDbLine
 62
250
  6
CONTINUOUS
 10
-65.1185750471
 20
25.2039187026
 11
-65.1188451798
 21
25.1684870767
  0
LINE
  5
436
100
AcDbEntity
  8
RACCORDO
100
AcDbLine
 62
250
  6
CONTINUOUS
 10
-65.1182860166
 20
25.5033118339
 11
-65.1187075653
 21
25.4511772324
  0
LINE
  5
437
100
AcDbEntity
  8
RACCORDO
100
AcDbLine
 62
250
  6
CONTINUOUS
 10
-65.1320331012
 20
24.4556843765
 11
-65.13477123
 21
24.1522379809
  0
LINE
  5
438
100
AcDbEntity
  8
RACCORDO
100
AcDbLine
 62
250
  6
CONTINUOUS
 10
-65.7029306202
 20
24.0339096079
 11
-65.70320188
 21
24.0049879576
  0
LINE
  5
439
100
AcDbEntity
  8
RACCORDO
100
AcDbLine
 62
250
  6
CONTINUOUS
 10
-65.7058413014
 20
23.6395145753
 11
-65.7073995476
 21
23.4766446428
  0
LINE
  5
43A
100
AcDbEntity
  8
RACCORDO
100
AcDbLine
 62
250
  6
CONTINUOUS
 10
-65.7018138485
 20
24.0921001998
 11
-65.7018474059
 21
24.0892786956
  0
LINE
  5
43B
100
AcDbEntity
  8
RACCORDO
100
AcDbLine
 62
250
  6
CONTINUOUS
 10
-65.7035606606
 20
23.8126849528
 11
-65.7040445708
 21
23.768939295
  0
LINE
  5
43C
100
AcDbEntity
  8
RACCORDO
100
AcDbLine
 62
250
  6
CONTINUOUS
 10
-65.7040445708
 20
23.768939295
 11
-65.7058413014
 21
23.6395145753
  0
LINE
  5
43D
100
AcDbEntity
  8
RACCORDO
100
AcDbLine
 62
250
  6
CONTINUOUS
 10
-65.1287801146
 20
24.6915385408
 11
-65.1320331012
 21
24.4556843765
  0
LINE
  5
43E
100
AcDbEntity
  8
RACCORDO
100
AcDbLine
 62
250
  6
CONTINUOUS
 10
-65.1188451798
 20
25.1684870767
 11
-65.1195705615
 21
25.1166849728
  0
LINE
  5
43F
100
AcDbEntity
  8
RACCORDO
100
AcDbLine
 62
250
  6
CONTINUOUS
 10
-65.7026941964
 20
24.0500028119
 11
-65.7029306202
 21
24.0339096079
  0
LINE
  5
440
100
AcDbEntity
  8
RACCORDO
100
AcDbLine
 62
7
  6
CONTINUOUS
 10
-65.9010719806
 20
-22.1209730714
 11
-65.9010748531
 21
-22.1211279485
  0
LINE
  5
441
100
AcDbEntity
  8
RACCORDO
100
AcDbLine
 62
250
  6
CONTINUOUS
 10
-65.7024312976
 20
24.0632688547
 11
-65.7026941964
 21
24.0500028119
  0
LINE
  5
442
100
AcDbEntity
  8
RACCORDO
100
AcDbLine
 62
250
  6
CONTINUOUS
 10
-65.1257961301
 20
24.8495633576
 11
-65.1287801146
 21
24.6915385408
  0
LINE
  5
443
100
AcDbEntity
  8
RACCORDO
100
AcDbLine
 62
250
  6
CONTINUOUS
 10
-65.1195705615
 20
25.1166849728
 11
-65.120597031
 21
25.064358933
  0
LINE
  5
444
100
AcDbEntity
  8
RACCORDO
100
AcDbLine
 62
250
  6
CONTINUOUS
 10
-65.7018991706
 20
24.0860577633
 11
-65.7020585451
 21
24.0783945854
  0
LINE
  5
445
100
AcDbEntity
  8
RACCORDO
100
AcDbLine
 62
250
  6
CONTINUOUS
 10
-65.120597031
 20
25.064358933
 11
-65.1257961301
 21
24.8495633576
  0
LINE
  5
446
100
AcDbEntity
  8
RACCORDO
100
AcDbLine
 62
250
  6
CONTINUOUS
 10
-65.7020585451
 20
24.0783945854
 11
-65.7024312976
 21
24.0632688547
  0
LWPOLYLINE
  5
447
100
AcDbEntity
  8
RACCORDO
100
AcDbPolyline
 62
250
  6
CONTINUOUS
 90
6
 70
0
 10
-65.1165302468
 20
25.5804407401
 10
-65.1169134116
 20
25.5702223807
 10
-65.1172570072
 20
25.5594147368
 10
-65.1175685081
 20
25.5474311955
 10
-65.1178490043
 20
25.5339206174
 10
-65.1182860166
 20
25.5033118339
  0
LWPOLYLINE
  5
448
100
AcDbEntity
  8
RACCORDO
100
AcDbPolyline
 62
250
  6
CONTINUOUS
 90
3
 70
0
 10
-65.1147803856
 20
25.6175907142
 10
-65.1156684434
 20
25.5997288939
 10
-65.1165302468
 20
25.5804407401
  0
LINE
  5
449
100
AcDbEntity
  8
0
100
AcDbLine
 62
7
  6
CONTINUOUS
 10
-56.9010745393
 20
-3.6749773271
 11
-58.9010745393
 21
-3.5
  0
LWPOLYLINE
  5
44A
100
AcDbEntity
  8
RACCORDO
100
AcDbPolyline
 62
250
  6
CONTINUOUS
 90
9
 70
0
 10
-65.1139201611
 20
25.6598159389
 10
-65.1137581874
 20
25.6577584267
 10
-65.1136875551
 20
25.65460404
 10
-65.1137015619
 20
25.6504648828
 10
-65.1137830526
 20
25.6455102368
 10
-65.113921433
 20
25.6398057357
 10
-65.1141217247
 20
25.6332652178
 10
-65.1144083084
 20
25.6258017647
 10
-65.1147803856
 20
25.6175907142
  0
LINE
  5
44B
100
AcDbEntity
  8
RACCORDO
100
AcDbLine
 62
250
  6
CONTINUOUS
 10
-61.3088744725
 20
-36.8030684767
 11
-61.3019698725
 21
-37.0
  0
LINE
  5
44C
100
AcDbEntity
  8
RACCORDO
100
AcDbLine
 62
250
  6
CONTINUOUS
 10
-62.2443501307
 20
-36.8994323394
 11
-62.2359937413
 21
-37.1618109093
  0
LINE
  5
44D
100
AcDbEntity
  8
RACCORDO
100
AcDbLine
 62
250
  6
CONTINUOUS
 10
-61.3123172026
 20
-36.6842949547
 11
-61.3088744725
 21
-36.8030684767
  0
LINE
  5
44E
100
AcDbEntity
  8
RACCORDO
100
AcDbLine
 62
250
  6
CONTINUOUS
 10
-62.2359937413
 20
-37.1618109093
 11
-62.2317977905
 21
-37.3138485061
  0
LINE
  5
44F
100
AcDbEntity
  8
RACCORDO
100
AcDbLine
 62
250
  6
CONTINUOUS
 10
-62.2477305122
 20
-36.7709199277
 11
-62.2443501307
 21
-36.8994323394
  0
LINE
  5
450
100
AcDbEntity
  8
RACCORDO
100
AcDbLine
 62
250
  6
CONTINUOUS
 10
-61.3149790451
 20
-36.5752945032
 11
-61.3123172026
 21
-36.6842949547
  0
LINE
  5
451
100
AcDbEntity
  8
RACCORDO
100
AcDbLine
 62
250
  6
CONTINUOUS
 10
-62.2317977905
 20
-37.3138485061
 11
-62.2278113582
 21
-37.4879057342
  0
LINE
  5
452
100
AcDbEntity
  8
RACCORDO
100
AcDbLine
 62
250
  6
CONTINUOUS
 10
-61.3019698725
 20
-37.0
 11
-61.296116336
 21
-37.2593940448
  0
LINE
  5
453
100
AcDbEntity
  8
RACCORDO
100
AcDbLine
 62
250
  6
CONTINUOUS
 10
-62.2502113099
 20
-36.6522631028
 11
-62.2477305122
 21
-36.7709199277
  0
LINE
  5
454
100
AcDbEntity
  8
RACCORDO
100
AcDbLine
 62
250
  6
CONTINUOUS
 10
-62.223134939
 20
38.6544887846
 11
-62.2214936715
 21
38.5749692051
  0
LINE
  5
455
100
AcDbEntity
  8
RACCORDO
100
AcDbLine
 62
250
  6
CONTINUOUS
 10
-61.3169365199
 20
-36.4748343548
 11
-61.3149790451
 21
-36.5752945032
  0
LINE
  5
456
100
AcDbEntity
  8
RACCORDO
100
AcDbLine
 62
250
  6
CONTINUOUS
 10
-61.296116336
 20
-37.2593940448
 11
-61.2900747123
 21
-37.5892147755
  0
LINE
  5
457
100
AcDbEntity
  8
RACCORDO
100
AcDbLine
 62
250
  6
CONTINUOUS
 10
-62.2278113582
 20
-37.4879057342
 11
-62.2243709869
 21
-37.676843511
  0
LINE
  5
458
100
AcDbEntity
  8
RACCORDO
100
AcDbLine
 62
250
  6
CONTINUOUS
 10
-62.2518951513
 20
-36.5435216162
 11
-62.2502113099
 21
-36.6522631028
  0
LINE
  5
459
100
AcDbEntity
  8
RACCORDO
100
AcDbLine
 62
250
  6
CONTINUOUS
 10
-61.3182709417
 20
-36.3796715689
 11
-61.3169365199
 21
-36.4748343548
  0
LINE
  5
45A
100
AcDbEntity
  8
RACCORDO
100
AcDbLine
 62
250
  6
CONTINUOUS
 10
-61.2900747123
 20
-37.5892147755
 11
-61.2848806464
 21
-37.9648795286
  0
LINE
  5
45B
100
AcDbEntity
  8
RACCORDO
100
AcDbLine
 62
250
  6
CONTINUOUS
 10
-62.2243709869
 20
-37.676843511
 11
-62.2217157819
 21
-37.8726606549
  0
LINE
  5
45C
100
AcDbEntity
  8
RACCORDO
100
AcDbLine
 62
250
  6
CONTINUOUS
 10
-62.2214936715
 20
38.5749692051
 11
-62.2203022988
 21
38.4835296976
  0
LINE
  5
45D
100
AcDbEntity
  8
RACCORDO
100
AcDbLine
 62
250
  6
CONTINUOUS
 10
-61.2848806464
 20
-37.9648795286
 11
-61.2812072965
 21
-38.3582572455
  0
LINE
  5
45E
100
AcDbEntity
  8
RACCORDO
100
AcDbLine
 62
250
  6
CONTINUOUS
 10
-62.2528438551
 20
-36.4407312582
 11
-62.2518951513
 21
-36.5435216162
  0
LINE
  5
45F
100
AcDbEntity
  8
RACCORDO
100
AcDbLine
 62
250
  6
CONTINUOUS
 10
-62.2217157819
 20
-37.8726606549
 11
-62.2200132092
 21
-38.0669526148
  0
LINE
  5
460
100
AcDbEntity
  8
RACCORDO
100
AcDbLine
 62
250
  6
CONTINUOUS
 10
-62.2203022988
 20
38.4835296976
 11
-62.2195833794
 21
38.3809745031
  0
LINE
  5
461
100
AcDbEntity
  8
RACCORDO
100
AcDbLine
 62
250
  6
CONTINUOUS
 10
-61.3593909795
 20
-28.6089581454
 11
-61.3182709417
 21
-36.3796715689
  0
LINE
  5
462
100
AcDbEntity
  8
RACCORDO
100
AcDbLine
 62
250
  6
CONTINUOUS
 10
-61.2812072965
 20
-38.3582572455
 11
-61.2794598671
 21
-38.7390586882
  0
LINE
  5
463
100
AcDbEntity
  8
RACCORDO
100
AcDbLine
 62
250
  6
CONTINUOUS
 10
-62.2200132092
 20
-38.0669526148
 11
-62.2193551355
 21
-38.2515278351
  0
LINE
  5
464
100
AcDbEntity
  8
RACCORDO
100
AcDbLine
 62
250
  6
CONTINUOUS
 10
-61.2799376904
 20
39.1000958304
 11
-61.2793434208
 21
38.8537165029
  0
LWPOLYLINE
  5
465
100
AcDbEntity
  8
RACCORDO
100
AcDbPolyline
 62
250
  6
CONTINUOUS
 90
3
 70
0
 10
-62.2894190753
 20
-6.6501240436
 10
-62.290421183
 20
-10.6068504331
 10
-62.2528438551
 20
-36.4407312582
  0
LWPOLYLINE
  5
466
100
AcDbEntity
  8
RACCORDO
100
AcDbPolyline
 62
250
  6
CONTINUOUS
 90
3
 70
0
 10
-61.3678619502
 20
-5.7853281774
 10
-61.3691626983
 20
-9.8614675963
 10
-61.3593909795
 20
-28.6089581454
  0
LINE
  5
467
100
AcDbEntity
  8
RACCORDO
100
AcDbLine
 62
250
  6
CONTINUOUS
 10
-62.2195833794
 20
38.3809745031
 11
-62.2194144652
 21
38.2086326422
  0
LINE
  5
468
100
AcDbEntity
  8
RACCORDO
100
AcDbLine
 62
250
  6
CONTINUOUS
 10
-61.2794598671
 20
-38.7390586882
 11
-61.279535948
 21
-38.9988854745
  0
LINE
  5
469
100
AcDbEntity
  8
RACCORDO
100
AcDbLine
 62
250
  6
CONTINUOUS
 10
-62.2193551355
 20
-38.2515278351
 11
-62.2195202613
 21
-38.3655396693
  0
LINE
  5
46A
100
AcDbEntity
  8
RACCORDO
100
AcDbLine
 62
250
  6
CONTINUOUS
 10
-61.2793434208
 20
38.8537165029
 11
-61.2804359576
 21
38.48095219
  0
LINE
  5
46B
100
AcDbEntity
  8
RACCORDO
100
AcDbLine
 62
250
  6
CONTINUOUS
 10
-61.279535948
 20
-38.9988854745
 11
-61.2802625147
 21
-39.1541638615
  0
LINE
  5
46C
100
AcDbEntity
  8
RACCORDO
100
AcDbLine
 62
250
  6
CONTINUOUS
 10
-62.2194144652
 20
38.2086326422
 11
-62.220339037
 21
38.0195576883
  0
LINE
  5
46D
100
AcDbEntity
  8
RACCORDO
100
AcDbLine
 62
250
  6
CONTINUOUS
 10
-62.2525762574
 20
36.4805438572
 11
-62.2894190753
 21
-6.6501240436
  0
LINE
  5
46E
100
AcDbEntity
  8
RACCORDO
100
AcDbLine
 62
250
  6
CONTINUOUS
 10
-62.2195202613
 20
-38.3655396693
 11
-62.2201749426
 21
-38.4700516127
  0
LINE
  5
46F
100
AcDbEntity
  8
RACCORDO
100
AcDbLine
 62
250
  6
CONTINUOUS
 10
-61.2804359576
 20
38.48095219
 11
-61.2835924202
 21
38.0829507282
  0
LINE
  5
470
100
AcDbEntity
  8
RACCORDO
100
AcDbLine
 62
250
  6
CONTINUOUS
 10
-61.3183961335
 20
36.3685339416
 11
-61.3678619502
 21
-5.7853281774
  0
LINE
  5
471
100
AcDbEntity
  8
RACCORDO
100
AcDbLine
 62
250
  6
CONTINUOUS
 10
-62.220339037
 20
38.0195576883
 11
-62.2223184201
 21
37.8216738674
  0
LINE
  5
472
100
AcDbEntity
  8
RACCORDO
100
AcDbLine
 62
250
  6
CONTINUOUS
 10
-62.2512950712
 20
36.586726312
 11
-62.2525762574
 21
36.4805438572
  0
LINE
  5
473
100
AcDbEntity
  8
RACCORDO
100
AcDbLine
 62
250
  6
CONTINUOUS
 10
-62.2201749426
 20
-38.4700516127
 11
-62.2213150047
 21
-38.563876267
  0
LINE
  5
474
100
AcDbEntity
  8
RACCORDO
100
AcDbLine
 62
250
  6
CONTINUOUS
 10
-61.2835924202
 20
38.0829507282
 11
-61.2884769611
 21
37.6925839257
  0
LINE
  5
475
100
AcDbEntity
  8
RACCORDO
100
AcDbLine
 62
250
  6
CONTINUOUS
 10
-61.3171108866
 20
36.4644732956
 11
-61.3183961335
 21
36.3685339416
  0
LINE
  5
476
100
AcDbEntity
  8
RACCORDO
100
AcDbLine
 62
250
  6
CONTINUOUS
 10
-62.2223184201
 20
37.8216738674
 11
-62.2252476371
 21
37.6238296152
  0
LINE
  5
477
100
AcDbEntity
  8
RACCORDO
100
AcDbLine
 62
250
  6
CONTINUOUS
 10
-61.2884769611
 20
37.6925839257
 11
-61.29446564
 21
37.341524067
  0
LINE
  5
478
100
AcDbEntity
  8
RACCORDO
100
AcDbLine
 62
250
  6
CONTINUOUS
 10
-62.2492490383
 20
36.7020754197
 11
-62.2512950712
 21
36.586726312
  0
LINE
  5
479
100
AcDbEntity
  8
RACCORDO
100
AcDbLine
 62
250
  6
CONTINUOUS
 10
-61.3151872266
 20
36.5657363467
 11
-61.3171108866
 21
36.4644732956
  0
LINE
  5
47A
100
AcDbEntity
  8
RACCORDO
100
AcDbLine
 62
250
  6
CONTINUOUS
 10
-62.2252476371
 20
37.6238296152
 11
-62.2289348839
 21
37.4350720507
  0
LWPOLYLINE
  5
47B
100
AcDbEntity
  8
RACCORDO
100
AcDbPolyline
 62
250
  6
CONTINUOUS
 90
18
 70
0
 10
-62.2213150047
 20
-38.563876267
 10
-62.2229223749
 20
-38.6458973388
 10
-62.2238938523
 20
-38.6822587569
 10
-62.2249727574
 20
-38.7155144928
 10
-62.2261568907
 20
-38.7457472658
 10
-62.2274342365
 20
-38.7728590289
 10
-62.2287995101
 20
-38.7969918859
 10
-62.2302480489
 20
-38.818291693
 10
-62.2317630004
 20
-38.8367688264
 10
-62.233336615
 20
-38.8526173916
 10
-62.2349614818
 20
-38.8660327095
 10
-62.2366151835
 20
-38.8771187934
 10
-62.2382870085
 20
-38.8861077095
 10
-62.2399658667
 20
-38.8932244937
 10
-62.241622716
 20
-38.8986361267
 10
-62.243237309
 20
-38.9025726109
 10
-62.2448014932
 20
-38.9052820205
 10
-62.2463018101
 20
-38.9069761685
  0
LWPOLYLINE
  5
47C
100
AcDbEntity
  8
RACCORDO
100
AcDbPolyline
 62
250
  6
CONTINUOUS
 90
3
 70
0
 10
-61.29446564
 20
37.341524067
 10
-61.300539742
 20
37.0580975084
 10
-61.3019698725
 20
37.0
  0
LINE
  5
47D
100
AcDbEntity
  8
RACCORDO
100
AcDbLine
 62
250
  6
CONTINUOUS
 10
-62.246311351
 20
36.8281155294
 11
-62.2492490383
 21
36.7020754197
  0
LINE
  5
47E
100
AcDbEntity
  8
RACCORDO
100
AcDbLine
 62
250
  6
CONTINUOUS
 10
-61.3125292648
 20
36.6762594979
 11
-61.3151872266
 21
36.5657363467
  0
LINE
  5
47F
100
AcDbEntity
  8
RACCORDO
100
AcDbLine
 62
250
  6
CONTINUOUS
 10
-62.2289348839
 20
37.4350720507
 11
-62.2330976399
 21
37.263939292
  0
LINE
  5
480
100
AcDbEntity
  8
RACCORDO
100
AcDbLine
 62
250
  6
CONTINUOUS
 10
-61.309048785
 20
36.7974996667
 11
-61.3125292648
 21
36.6762594979
  0
LINE
  5
481
100
AcDbEntity
  8
RACCORDO
100
AcDbLine
 62
250
  6
CONTINUOUS
 10
-62.2423580595
 20
36.96527739
 11
-62.246311351
 21
36.8281155294
  0
LINE
  5
482
100
AcDbEntity
  8
RACCORDO
100
AcDbLine
 62
250
  6
CONTINUOUS
 10
-62.2330976399
 20
37.263939292
 11
-62.2373322974
 21
37.1182091862
  0
LINE
  5
483
100
AcDbEntity
  8
RACCORDO
100
AcDbLine
 62
250
  6
CONTINUOUS
 10
-62.2373322974
 20
37.1182091862
 11
-62.2423580595
 21
36.96527739
  0
LINE
  5
484
100
AcDbEntity
  8
RACCORDO
100
AcDbLine
 62
250
  6
CONTINUOUS
 10
-61.3019698725
 20
37.0
 11
-61.309048785
 21
36.7974996667
  0
LWPOLYLINE
  5
485
100
AcDbEntity
  8
RACCORDO
100
AcDbPolyline
 62
250
  6
CONTINUOUS
 90
15
 70
0
 10
-65.1164745337
 20
-25.678352102
 10
-65.1166894682
 20
-25.6801067117
 10
-65.1168884325
 20
-25.6817934989
 10
-65.1170708979
 20
-25.6834166012
 10
-65.1172360242
 20
-25.6849753264
 10
-65.1173833213
 20
-25.6864691977
 10
-65.1175126538
 20
-25.6879014807
 10
-65.1176233023
 20
-25.6892705635
 10
-65.1177144787
 20
-25.6905750161
 10
-65.1177856334
 20
-25.6918174235
 10
-65.1178358919
 20
-25.6929964068
 10
-65.1178644244
 20
-25.6941111996
 10
-65.1178704734
 20
-25.6951646929
 10
-65.1178531903
 20
-25.6961563749
 10
-65.1178064724
 20
-25.6971723867
  0
LINE
  5
486
100
AcDbEntity
  8
RACCORDO
100
AcDbLine
 62
250
  6
CONTINUOUS
 10
-65.1159995184
 20
-25.6746394715
 11
-65.1162443523
 21
-25.6765283166
  0
LINE
  5
487
100
AcDbEntity
  8
RACCORDO
100
AcDbLine
 62
250
  6
CONTINUOUS
 10
-65.1148800491
 20
-25.6665186043
 11
-65.1157401195
 21
-25.6726918052
  0
LINE
  5
488
100
AcDbEntity
  8
RACCORDO
100
AcDbLine
 62
250
  6
CONTINUOUS
 10
-65.1139213418
 20
-25.6598161962
 11
-65.1148800491
 21
-25.6665186043
  0
LINE
  5
489
100
AcDbEntity
  8
RACCORDO
100
AcDbLine
 62
250
  6
CONTINUOUS
 10
-61.3678656674
 20
0.0003242561
 11
-65.1754370686
 21
0.0
  0
LWPOLYLINE
  5
48A
100
AcDbEntity
  8
RACCORDO
100
AcDbPolyline
 62
250
  6
CONTINUOUS
 90
3
 70
0
 10
-65.9010745393
 20
-0.0
 10
-65.1832835878
 20
0.0000366786
 10
-65.1754370685
 20
0.0
  0
LINE
  5
48B
100
AcDbEntity
  8
RACCORDO
100
AcDbLine
 62
250
  6
CONTINUOUS
 10
-65.114866845
 20
25.6664246355
 11
-65.1139213311
 21
25.659816031
  0
LINE
  5
48C
100
AcDbEntity
  8
RACCORDO
100
AcDbLine
 62
250
  6
CONTINUOUS
 10
-65.1154467798
 20
25.6705479969
 11
-65.1151625991
 21
25.6685168005
  0
LINE
  5
48D
100
AcDbEntity
  8
RACCORDO
100
AcDbLine
 62
250
  6
CONTINUOUS
 10
-65.1159752723
 20
25.6744562893
 11
-65.1157179409
 21
25.6725276327
  0
LINE
  5
48E
100
AcDbEntity
  8
RACCORDO
100
AcDbLine
 62
250
  6
CONTINUOUS
 10
-65.1164476286
 20
25.6781367624
 11
-65.1162185309
 21
25.676328033
  0
LINE
  5
48F
100
AcDbEntity
  8
RACCORDO
100
AcDbLine
 62
250
  6
CONTINUOUS
 10
-61.2846265516
 20
39.4764677216
 11
-61.2825707359
 21
39.3695223951
  0
LINE
  5
490
100
AcDbEntity
  8
RACCORDO
100
AcDbLine
 62
250
  6
CONTINUOUS
 10
-61.2825707359
 20
39.3695223951
 11
-61.2810009045
 21
39.2439078403
  0
LINE
  5
491
100
AcDbEntity
  8
RACCORDO
100
AcDbLine
 62
250
  6
CONTINUOUS
 10
-61.2810009045
 20
39.2439078403
 11
-61.2799376904
 21
39.1000958304
  0
LINE
  5
492
100
AcDbEntity
  8
0
100
AcDbLine
 62
7
  6
CONTINUOUS
 10
-58.9010745393
 20
-3.5
 11
-58.9010745393
 21
3.5
  0
LINE
  5
493
100
AcDbEntity
  8
RACCORDO
100
AcDbLine
 62
250
  6
CONTINUOUS
 10
-61.2802625147
 20
-39.1541638615
 11
-61.2815249579
 21
-39.2927200063
  0
LWPOLYLINE
  5
494
100
AcDbEntity
  8
RACCORDO
100
AcDbPolyline
 62
250
  6
CONTINUOUS
 90
18
 70
0
 10
-61.2815249579
 20
-39.2927200063
 10
-61.2833074599
 20
-39.4128961333
 10
-61.2843807878
 20
-39.4657708995
 10
-61.2855750456
 20
-39.5138405577
 10
-61.2868868493
 20
-39.5572298124
 10
-61.2882945321
 20
-39.5958079798
 10
-61.2898019806
 20
-39.6297975358
 10
-61.291405308
 20
-39.6594295704
 10
-61.2930711875
 20
-39.6847547201
 10
-61.2948037663
 20
-39.7060842628
 10
-61.296598897
 20
-39.723727106
 10
-61.298410811
 20
-39.7378766799
 10
-61.3002438709
 20
-39.7488989964
 10
-61.3020937141
 20
-39.7571469237
 10
-61.303901483
 20
-39.762911082
 10
-61.3056475586
 20
-39.7665619169
 10
-61.30735156
 20
-39.7684777921
 10
-61.3090134872
 20
-39.7689897085
  0
LINE
  5
495
100
AcDbEntity
  8
0
100
AcDbLine
 62
7
  6
CONTINUOUS
 10
-56.9010745393
 20
40.0
 11
-56.9010745393
 21
3.6749773271
  0
LINE
  5
496
100
AcDbEntity
  8
0
100
AcDbLine
 62
7
  6
CONTINUOUS
 10
-56.9010745393
 20
-3.6749773271
 11
-56.9010745393
 21
-40.0
  0
LINE
  5
497
100
AcDbEntity
  8
0
100
AcDbLine
 62
7
  6
CONTINUOUS
 10
-58.9010745393
 20
3.5
 11
-56.9010745393
 21
3.6749773271
  0
LWPOLYLINE
  5
498
100
AcDbEntity
  8
RACCORDO
100
AcDbPolyline
 62
250
  6
CONTINUOUS
 90
6
 70
0
 10
-65.7019625246
 20
24.0988146098
 10
-65.7018902642
 20
24.0986123934
 10
-65.7018374506
 20
24.0977858956
 10
-65.701806755
 20
24.0963864219
 10
-65.7017992399
 20
24.0944749198
 10
-65.7018138485
 20
24.0921001998
  0
LWPOLYLINE
  5
499
100
AcDbEntity
  8
RACCORDO
100
AcDbPolyline
 62
250
  6
CONTINUOUS
 90
7
 70
0
 10
-62.2618125396
 20
-38.9303549292
 10
-62.2633393671
 20
-38.9390614796
 10
-62.2640995001
 20
-38.9417371316
 10
-62.2649014992
 20
-38.9436508144
 10
-62.2657265262
 20
-38.9453069075
 10
-62.2666079214
 20
-38.9467616419
 10
-62.2675986596
 20
-38.9479547974
  0
LWPOLYLINE
  5
49A
100
AcDbEntity
  8
RACCORDO
100
AcDbPolyline
 62
250
  6
CONTINUOUS
 90
17
 70
0
 10
-62.3576806559
 20
39.0935310956
 10
-62.3573209935
 20
39.0918095215
 10
-62.3568220416
 20
39.0898589969
 10
-62.3561551985
 20
39.0877095106
 10
-62.3553103561
 20
39.0853801607
 10
-62.3542952329
 20
39.0828508151
 10
-62.3530985846
 20
39.0800930184
 10
-62.3517087593
 20
39.0770972132
 10
-62.3501194865
 20
39.0738721758
 10
-62.3483273005
 20
39.0704167871
 10
-62.3463349798
 20
39.0667224958
 10
-62.3441445361
 20
39.062795567
 10
-62.3417553741
 20
39.0586569298
 10
-62.3391556256
 20
39.0542537124
 10
-62.3363758911
 20
39.0496355952
 10
-62.3334963237
 20
39.0449774804
 10
-62.3275393546
 20
39.0355398225
  0
LWPOLYLINE
  5
49B
100
AcDbEntity
  8
0
100
AcDbPolyline
 62
7
  6
CONTINUOUS
 90
12
 70
0
 10
-65.0968089734
 20
-27.14213
 10
-65.0954993504
 20
-27.1397252873
 10
-65.0949265601
 20
-27.1323723944
 10
-65.0950906027
 20
-27.1199175078
 10
-65.0960003239
 20
-27.1021960475
 10
-65.0976468779
 20
-27.0792766351
 10
-65.1000037272
 20
-27.0516846961
 10
-65.1031127571
 20
-27.0199622746
 10
-65.1069320824
 20
-26.9844664646
 10
-65.1113095102
 20
-26.9457531683
 10
-65.1162929255
 20
-26.9043079179
 10
-65.127638216
 20
-26.8165635596
  0
LINE
  5
49C
100
AcDbEntity
  8
RACCORDO
100
AcDbLine
 62
7
  6
CONTINUOUS
 10
-62.337471851
 20
39.0841530667
 11
-62.3374507126
 21
39.0841085837
  0
LWPOLYLINE
  5
49D
100
AcDbEntity
  8
RACCORDO
100
AcDbPolyline
 62
250
  6
CONTINUOUS
 90
28
 70
0
 10
-62.3392306093
 20
-39.0543814639
 10
-62.3416713411
 20
-39.0584959179
 10
-62.3440304376
 20
-39.062605462
 10
-62.3462384888
 20
-39.0665511283
 10
-62.348279729
 20
-39.0703108107
 10
-62.3501411269
 20
-39.0739096336
 10
-62.351784795
 20
-39.0772592381
 10
-62.3532104257
 20
-39.0803292954
 10
-62.3544289647
 20
-39.0831516873
 10
-62.3554396346
 20
-39.0857306186
 10
-62.3562524338
 20
-39.0880515318
 10
-62.3568968695
 20
-39.0901285317
 10
-62.3573966364
 20
-39.092008817
 10
-62.3577331088
 20
-39.0937529585
 10
-62.3579232222
 20
-39.0953013468
 10
-62.3580376191
 20
-39.0965213041
 10
-62.3582615548
 20
-39.0972167521
 10
-62.358675886
 20
-39.0975708437
 10
-62.3592485611
 20
-39.0980167107
 10
-62.3599185089
 20
-39.098661251
 10
-62.3606396941
 20
-39.0994029685
 10
-62.3612925237
 20
-39.1003677623
 10
-62.3617400338
 20
-39.1017268224
 10
-62.3619672088
 20
-39.103316026
 10
-62.3620467861
 20
-39.1047583676
 10
-62.3620104818
 20
-39.1059336554
 10
-62.3618330161
 20
-39.1069624395
 10
-62.3616571438
 20
-39.1075351492
  0
LWPOLYLINE
  5
49E
100
AcDbEntity
  8
RACCORDO
100
AcDbPolyline
 62
250
  6
CONTINUOUS
 90
3
 70
0
 10
-62.3317397223
 20
-39.0421566898
 10
-62.3342433897
 20
-39.0461742321
 10
-62.3392306093
 20
-39.0543814639
  0
LINE
  5
49F
100
AcDbEntity
  8
RACCORDO
100
AcDbLine
 62
250
  6
CONTINUOUS
 10
-62.3268481987
 20
-39.0344570139
 11
-62.3317397223
 21
-39.0421566898
  0
LINE
  5
4A0
100
AcDbEntity
  8
RACCORDO
100
AcDbLine
 62
250
  6
CONTINUOUS
 10
-62.3198254621
 20
-39.0235529069
 11
-62.3268481987
 21
-39.0344570139
  0
LINE
  5
4A1
100
AcDbEntity
  8
RACCORDO
100
AcDbLine
 62
250
  6
CONTINUOUS
 10
-62.3131793624
 20
-39.0133718314
 11
-62.3198254621
 21
-39.0235529069
  0
LINE
  5
4A2
100
AcDbEntity
  8
RACCORDO
100
AcDbLine
 62
250
  6
CONTINUOUS
 10
-62.30689392
 20
-39.0038763922
 11
-62.3131793624
 21
-39.0133718314
  0
LWPOLYLINE
  5
4A3
100
AcDbEntity
  8
RACCORDO
100
AcDbPolyline
 62
250
  6
CONTINUOUS
 90
3
 70
0
 10
-62.2990681252
 20
-38.9922487077
 10
-62.3009637106
 20
-38.9950448113
 10
-62.30689392
 20
-39.0038763922
  0
LINE
  5
4A4
100
AcDbEntity
  8
RACCORDO
100
AcDbLine
 62
250
  6
CONTINUOUS
 10
-62.2954041938
 20
-38.9868828893
 11
-62.2972146508
 21
-38.9895282825
  0
LINE
  5
4A5
100
AcDbEntity
  8
RACCORDO
100
AcDbLine
 62
250
  6
CONTINUOUS
 10
-62.2885900591
 20
-38.9770385122
 11
-62.2936360217
 21
-38.9843112023
  0
LWPOLYLINE
  5
4A6
100
AcDbEntity
  8
RACCORDO
100
AcDbPolyline
 62
250
  6
CONTINUOUS
 90
3
 70
0
 10
-62.2824431005
 20
-38.9683040691
 10
-62.2839192862
 20
-38.9703896024
 10
-62.2885900591
 20
-38.9770385122
  0
LWPOLYLINE
  5
4A7
100
AcDbEntity
  8
RACCORDO
100
AcDbPolyline
 62
250
  6
CONTINUOUS
 90
3
 70
0
 10
-62.288156646
 20
38.9764176295
 10
-62.2864700222
 20
38.9740112165
 10
-62.2817384766
 20
38.9673116662
  0
LINE
  5
4A8
100
AcDbEntity
  8
RACCORDO
100
AcDbLine
 62
250
  6
CONTINUOUS
 10
-62.2917171328
 20
38.9815348812
 11
-62.2899057839
 21
38.9789255034
  0
LINE
  5
4A9
100
AcDbEntity
  8
RACCORDO
100
AcDbLine
 62
250
  6
CONTINUOUS
 10
-62.2975443384
 20
38.990011421
 11
-62.2935903591
 21
38.9842452362
  0
LINE
  5
4AA
100
AcDbEntity
  8
RACCORDO
100
AcDbLine
 62
250
  6
CONTINUOUS
 10
-62.3017749356
 20
38.9962453354
 11
-62.2975443384
 21
38.990011421
  0
LINE
  5
4AB
100
AcDbEntity
  8
RACCORDO
100
AcDbLine
 62
250
  6
CONTINUOUS
 10
-62.3062877913
 20
39.0029696704
 11
-62.3017749356
 21
38.9962453354
  0
LINE
  5
4AC
100
AcDbEntity
  8
RACCORDO
100
AcDbLine
 62
250
  6
CONTINUOUS
 10
-62.3111005113
 20
39.0102167449
 11
-62.3062877913
 21
39.0029696704
  0
LINE
  5
4AD
100
AcDbEntity
  8
RACCORDO
100
AcDbLine
 62
250
  6
CONTINUOUS
 10
-62.3189317992
 20
39.0221752374
 11
-62.3111005113
 21
39.0102167449
  0
LWPOLYLINE
  5
4AE
100
AcDbEntity
  8
RACCORDO
100
AcDbPolyline
 62
250
  6
CONTINUOUS
 90
3
 70
0
 10
-62.3275393546
 20
39.0355398225
 10
-62.3245877251
 20
39.0309262996
 10
-62.3189317992
 20
39.0221752374
  0
LWPOLYLINE
  5
4AF
100
AcDbEntity
  8
RACCORDO
100
AcDbPolyline
 62
250
  6
CONTINUOUS
 90
14
 70
0
 10
-62.2668342599
 20
38.9469974845
 10
-62.2659137679
 20
38.9455333149
 10
-62.2650387166
 20
38.9439936097
 10
-62.2641981538
 20
38.9422559724
 10
-62.2634316075
 20
38.939682168
 10
-62.2627491411
 20
38.9356648556
 10
-62.2619490163
 20
38.9308167186
 10
-62.2607483589
 20
38.9263320717
 10
-62.2591229862
 20
38.9226980719
 10
-62.2572115512
 20
38.9194244676
 10
-62.2549969471
 20
38.9162413147
 10
-62.2524434815
 20
38.9130600742
 10
-62.2495499193
 20
38.9099714865
 10
-62.2463035192
 20
38.9069764045
  0
LINE
  5
4B0
100
AcDbEntity
  8
RACCORDO
100
AcDbLine
 62
250
  6
CONTINUOUS
 10
-62.2782490608
 20
-38.9624208319
 11
-62.2824431005
 21
-38.9683040691
  0
LWPOLYLINE
  5
4B1
100
AcDbEntity
  8
RACCORDO
100
AcDbPolyline
 62
250
  6
CONTINUOUS
 90
5
 70
0
 10
-62.2686520557
 20
-38.9492179791
 10
-62.2697348039
 20
-38.9506683914
 10
-62.2708523431
 20
-38.9521900519
 10
-62.2719972401
 20
-38.953765478
 10
-62.2782490608
 20
-38.9624208319
  0
LINE
  5
4B2
100
AcDbEntity
  8
RACCORDO
100
AcDbLine
 62
250
  6
CONTINUOUS
 10
-65.7098334529
 20
22.1990020202
 11
-65.4992218812
 21
22.1939997262
  0
LWPOLYLINE
  5
4B3
100
AcDbEntity
  8
RACCORDO
100
AcDbPolyline
 62
250
  6
CONTINUOUS
 90
7
 70
0
 10
-65.4992218812
 20
22.1939997262
 10
-65.3342507378
 20
22.1890680052
 10
-65.2698049432
 20
22.1866553632
 10
-65.2177754133
 20
22.1842921858
 10
-65.1783875294
 20
22.181988706
 10
-65.151811912
 20
22.1797548977
 10
-65.1381636811
 20
22.1776004335
  0
LWPOLYLINE
  5
4B4
100
AcDbEntity
  8
RACCORDO
100
AcDbPolyline
 62
250
  6
CONTINUOUS
 90
7
 70
0
 10
-65.709834482
 20
22.1990020255
 10
-65.7669074856
 20
22.2009253781
 10
-65.8144765207
 20
22.200515883
 10
-65.8520257457
 20
22.1981268176
 10
-65.8791460719
 20
22.1920444477
 10
-65.8955535173
 20
22.1850521627
 10
-65.9010747615
 20
22.1829798392
  0
LWPOLYLINE
  5
4B5
100
AcDbEntity
  8
RACCORDO
100
AcDbPolyline
 62
250
  6
CONTINUOUS
 90
4
 70
0
 10
-62.2711817936
 20
38.9526450397
 10
-62.2700360652
 20
38.9510841204
 10
-62.268928203
 20
38.9495918054
 10
-62.2678521264
 20
38.9482607624
  0
LINE
  5
4B6
100
AcDbEntity
  8
RACCORDO
100
AcDbLine
 62
250
  6
CONTINUOUS
 10
-62.2761200972
 20
38.959461276
 11
-62.2723599058
 21
38.9542644895
  0
LINE
  5
4B7
100
AcDbEntity
  8
RACCORDO
100
AcDbLine
 62
250
  6
CONTINUOUS
 10
-62.2817384766
 20
38.9673116662
 11
-62.2774577151
 21
38.9613194481
  0
LWPOLYLINE
  5
4B8
100
AcDbEntity
  8
RACCORDO
100
AcDbPolyline
 62
250
  6
CONTINUOUS
 90
17
 70
0
 10
-62.2463018127
 20
38.9069761689
 10
-62.2448000944
 20
38.9052800687
 10
-62.2432426924
 20
38.9025837541
 10
-62.2416419956
 20
38.8986905771
 10
-62.2400058062
 20
38.8933728048
 10
-62.2383522452
 20
38.8864180129
 10
-62.2367069435
 20
38.8776666937
 10
-62.2350801621
 20
38.8669093664
 10
-62.2334818374
 20
38.8539305249
 10
-62.2319319406
 20
38.8386221064
 10
-62.2304374957
 20
38.8207981478
 10
-62.2290058925
 20
38.8002740966
 10
-62.2276523985
 20
38.7770196702
 10
-62.2263817022
 20
38.7508900517
 10
-62.2251991512
 20
38.7217436712
 10
-62.2241160053
 20
38.6896407217
 10
-62.223134939
 20
38.6544887846
  0
LWPOLYLINE
  5
4B9
100
AcDbEntity
  8
RACCORDO
100
AcDbPolyline
 62
250
  6
CONTINUOUS
 90
8
 70
0
 10
-62.2463035628
 20
-38.9069764105
 10
-62.2495052729
 20
-38.9099292109
 10
-62.2523623132
 20
-38.9129688874
 10
-62.2548877542
 20
-38.9160945857
 10
-62.2570839795
 20
-38.9192156117
 10
-62.2589845816
 20
-38.9224205406
 10
-62.2606042174
 20
-38.9259792059
 10
-62.2618125396
 20
-38.9303549292
  0
LWPOLYLINE
  5
4BA
100
AcDbEntity
  8
RACCORDO
100
AcDbPolyline
 62
250
  6
CONTINUOUS
 90
13
 70
0
 10
-61.3090134859
 20
39.7689896843
 10
-61.4232581885
 20
39.7563742479
 10
-61.5352976824
 20
39.7307058749
 10
-61.6436487795
 20
39.6923243653
 10
-61.7468771189
 20
39.6417378168
 10
-61.8436161553
 20
39.5796158983
 10
-61.9325852493
 20
39.5067809848
 10
-62.0126066205
 20
39.4241972712
 10
-62.0826209394
 20
39.3329580074
 10
-62.1417013506
 20
39.2342710264
 10
-62.1890657427
 20
39.1294427547
 10
-62.224087102
 20
39.0198609177
 10
-62.2463018127
 20
38.9069761689
  0
LWPOLYLINE
  5
4BB
100
AcDbEntity
  8
RACCORDO
100
AcDbPolyline
 62
7
  6
CONTINUOUS
 90
13
 70
0
 10
-61.4757331793
 20
39.7602522997
 10
-61.5770985926
 20
39.7497401153
 10
-61.6768677443
 20
39.7289658946
 10
-61.7740044878
 20
39.6981453886
 10
-61.867500015
 20
39.6575986836
 10
-61.9563833349
 20
39.6077468761
 10
-62.0397313574
 20
39.5491076991
 10
-62.1166784776
 20
39.4822901463
 10
-62.1864255659
 20
39.4079881483
 10
-62.2482482686
 20
39.3269733648
 10
-62.3015045309
 20
39.2400871698
 10
-62.3456412635
 20
39.1482319152
 10
-62.3616608001
 20
39.1075450018
  0
LINE
  5
4BC
100
AcDbEntity
  8
RACCORDO
100
AcDbLine
 62
7
  6
CONTINUOUS
 10
-56.9010745393
 20
40.0
 11
-61.4757213792
 21
39.7602529181
  0
LINE
  5
4BD
100
AcDbEntity
  8
RACCORDO
100
AcDbLine
 62
250
  6
CONTINUOUS
 10
-61.3019698725
 20
37.0
 11
-56.9010745393
 21
37.0
  0
LINE
  5
4BE
100
AcDbEntity
  8
RACCORDO
100
AcDbLine
 62
250
  6
CONTINUOUS
 10
-61.3019698725
 20
37.0
 11
-62.1832359399
 21
37.0353261365
  0
LINE
  5
4BF
100
AcDbEntity
  8
RACCORDO
100
AcDbLine
 62
250
  6
CONTINUOUS
 10
-62.1832359399
 20
37.0353261365
 11
-62.2399666847
 21
37.0379684249
  0
LWPOLYLINE
  5
4C0
100
AcDbEntity
  8
RACCORDO
100
AcDbPolyline
 62
250
  6
CONTINUOUS
 90
16
 70
0
 10
-61.3090134872
 20
39.7689897085
 10
-61.3073520792
 20
39.7684766352
 10
-61.3056551075
 20
39.7665710583
 10
-61.303922572
 20
39.7629655679
 10
-61.3021368112
 20
39.7573122129
 10
-61.3003154867
 20
39.7492693754
 10
-61.298511583
 20
39.738562207
 10
-61.2967288549
 20
39.7248625079
 10
-61.2949635475
 20
39.7078303426
 10
-61.2932573812
 20
39.6872701209
 10
-61.2916138637
 20
39.6628883968
 10
-61.2900294873
 20
39.6343891686
 10
-61.2885354483
 20
39.6016944928
 10
-61.2871350251
 20
39.5645747159
 10
-61.2858249392
 20
39.5228076787
 10
-61.2846265516
 20
39.4764677216
  0
ARC
  5
4C1
100
AcDbEntity
  8
0
100
AcDbCircle
 62
7
  6
CONTINUOUS
 10
-37.0
 20
-37.0
 40
3.0
100
AcDbArc
 50
180.0000000015
 51
269.9999999987
  0
ARC
  5
4C2
100
AcDbEntity
  8
0
100
AcDbCircle
 62
7
  6
CONTINUOUS
 10
37.0
 20
-37.0
 40
3.0
100
AcDbArc
 50
270.0000000013
 51
359.9999999985
  0
ARC
  5
4C3
100
AcDbEntity
  8
0
100
AcDbCircle
 62
7
  6
CONTINUOUS
 10
37.0
 20
37.0
 40
3.0
100
AcDbArc
 50
0.0000000015
 51
89.9999999987
  0
ARC
  5
4C4
100
AcDbEntity
  8
0
100
AcDbCircle
 62
7
  6
CONTINUOUS
 10
-37.0
 20
37.0
 40
3.0
100
AcDbArc
 50
90.0000000013
 51
179.9999999985
  0
ARC
  5
4C5
100
AcDbEntity
  8
0
100
AcDbCircle
 62
7
  6
CONTINUOUS
 10
12.78733
 20
-26.789265
 40
0.8893898871
100
AcDbArc
 50
292.842868527
 51
90.0
  0
ARC
  5
4C6
100
AcDbEntity
  8
0
100
AcDbCircle
 62
7
  6
CONTINUOUS
 10
12.706824
 20
-26.789265
 40
0.352865
100
AcDbArc
 50
270.0
 51
90.0
  0
ARC
  5
4C7
100
AcDbEntity
  8
0
100
AcDbCircle
 62
7
  6
CONTINUOUS
 10
10.95
 20
22.2
 40
0.3
100
AcDbArc
 50
0.0
 51
90.0
  0
ARC
  5
4C8
100
AcDbEntity
  8
0
100
AcDbCircle
 62
7
  6
CONTINUOUS
 10
10.95
 20
-22.2
 40
0.3
100
AcDbArc
 50
270.0
 51
360.0
  0
ARC
  5
4C9
100
AcDbEntity
  8
0
100
AcDbCircle
 62
7
  6
CONTINUOUS
 10
-10.95
 20
-22.2
 40
0.3
100
AcDbArc
 50
180.0
 51
270.0
  0
ARC
  5
4CA
100
AcDbEntity
  8
0
100
AcDbCircle
 62
7
  6
CONTINUOUS
 10
-10.95
 20
22.2
 40
0.3
100
AcDbArc
 50
90.0
 51
180.0
  0
ARC
  5
4CB
100
AcDbEntity
  8
RACCORDO
100
AcDbCircle
 62
7
  6
CONTINUOUS
 10
-68.1118886012
 20
-25.8855131086
 40
3.0000000036
100
AcDbArc
 50
3.5994107323
 51
36.6109482059
  0
ARC
  5
4CC
100
AcDbEntity
  8
RACCORDO
100
AcDbCircle
 62
7
  6
CONTINUOUS
 10
-61.4012178833
 20
-38.7627851349
 40
1.0
100
AcDbArc
 50
261.0796615949
 51
266.9155127217
  0
ARC
  5
4CD
100
AcDbEntity
  8
0
100
AcDbCircle
 62
7
  6
CONTINUOUS
 10
-64.9010748531
 20
23.5
 40
1.0
100
AcDbArc
 50
143.2150502425
 51
180.0
  0
ARC
  5
4CE
100
AcDbEntity
  8
0
100
AcDbCircle
 62
7
  6
CONTINUOUS
 10
-64.9010748531
 20
-23.5
 40
1.0
100
AcDbArc
 50
180.0
 51
216.7849527386
  0
ARC
  5
4CF
100
AcDbEntity
  8
RACCORDO
100
AcDbCircle
 62
7
  6
CONTINUOUS
 10
-61.4010709496
 20
38.7627928354
 40
1.0
100
AcDbArc
 50
93.0000034615
 51
98.92034262
  0
ENDSEC
  0
SECTION
  2
OBJECTS
  0
DICTIONARY
  5
C
100
AcDbDictionary
280
0
281
1
  3
ACAD_GROUP
350
D
  3
ACAD_MLINESTYLE
350
17
  3
ACAD_LAYOUT
350
1A
  3
ACAD_PLOTSETTINGS
350
19
  3
ACAD_PLOTSTYLENAME
350
E
  0
DICTIONARY
  5
D
102
{ACAD_REACTORS
330
C
102
}
100
AcDbDictionary
280
0
281
1
  0
ACDBDICTIONARYWDFLT
  5
E
102
{ACAD_REACTORS
330
C
102
}
100
AcDbDictionary
281
1
  3
Normal
350
F
100
AcDbDictionaryWithDefault
340
F
  0
DICTIONARY
  5
17
102
{ACAD_REACTORS
330
C
102
}
100
AcDbDictionary
280
0
281
1
  3
Standard
350
18
  0
DICTIONARY
  5
19
102
{ACAD_REACTORS
330
C
102
}
100
AcDbDictionary
281
1
  0
DICTIONARY
  5
1A
102
{ACAD_REACTORS
330
C
102
}
100
AcDbDictionary
281
1
  3
Model
350
4D0
  3
Layout1
350
4D1
  0
ACDBPLACEHOLDER
  5
F
102
{ACAD_REACTORS
330
E
102
}
  0
MLINESTYLE
  5
18
102
{ACAD_REACTORS
330
17
102
}
100
AcDbMlineStyle
  2
STANDARD
 70
0
  3

 62
256
 51
90.0
 52
90.0
 71
2
 49
0.5
 62
256
  6
BYLAYER
 49
-0.5
 62
256
  6
BYLAYER
  0
LAYOUT
  5
4D0
102
{ACAD_REACTORS
330
1A
102
}
100
AcDbPlotSettings
  1

  2
none_device
  4
ISO_A4_(297.00_x_210.00_MM)
  6

 40
0.0
 41
0.0
 42
0.0
 43
0.0
 44
297.0
 45
210.0
 46
0.0
 47
0.0
 48
0.0
 49
0.0
140
0.0
141
0.0
142
1.0
143
1.0
 70
1024
 72
1
 73
0
 74
0
  7

 75
0
147
1.0
148
0.0
149
0.0
100
AcDbLayout
  1
Model
 70
0
 71
0
 10
0.0
 20
0.0
 11
297.0
 21
210.0
 12
0.0
 22
0.0
 32
0.0
 14
0.0
 24
0.0
 34
0.0
 15
0.0
 25
0.0
 35
0.0
146
0.0
 13
0.0
 23
0.0
 33
0.0
 16
1.0
 26
0.0
 36
0.0
 17
0.0
 27
1.0
 37
0.0
 76
0
330
213
345
0
346
0
  0
LAYOUT
  5
4D1
102
{ACAD_REACTORS
330
1A
102
}
100
AcDbPlotSettings
  1

  2
none_device
  4
ISO_A4_(297.00_x_210.00_MM)
  6

 40
0.0
 41
0.0
 42
0.0
 43
0.0
 44
297.0
 45
210.0
 46
0.0
 47
0.0
 48
0.0
 49
0.0
140
0.0
141
0.0
142
1.0
143
1.0
 70
0
 72
1
 73
0
 74
0
  7

 75
0
147
1.0
148
0.0
149
0.0
100
AcDbLayout
  1
Layout1
 70
0
 71
1
 10
0.0
 20
0.0
 11
297.0
 21
210.0
 12
0.0
 22
0.0
 32
0.0
 14
0.0
 24
0.0
 34
0.0
 15
0.0
 25
0.0
 35
0.0
146
0.0
 13
0.0
 23
0.0
 33
0.0
 16
1.0
 26
0.0
 36
0.0
 17
0.0
 27
1.0
 37
0.0
 76
0
330
214
345
0
346
0
  0
ENDSEC
  0
EOF
