  0
SECTION
  2
HEADER
  9
$ACADVER
  1
AC1024
  9
$DWGCODEPAGE
  3
ANSI_1252
  9
$EXTMAX
 10
297.0
 20
210.0
 30
0.0
  9
$EXTMIN
 10
0.0
 20
0.0
 30
0.0
  9
$LIMMIN
 10
0.0
 20
0.0
  9
$LIMMAX
 10
297.0
 20
210.0
  9
$VIEWCTR
 10
148.5
 20
105.0
  9
$VIEWSIZE
 40
210.0
  9
$CLAYER
  8
0
  9
$LTSCALE
 40
16.335
  9
$CELTYPE
  6
BYLAYER
  9
$DIMSCALE
 40
1.0
  9
$DIMASZ
 40
3.0
  9
$DIMEXO
 40
0.5
  9
$DIMDLI
 40
11.286
  9
$DIMEXE
 40
1.5
  9
$DIMCEN
 40
2.673
  9
$DIMLFAC
 40
1.0
  9
$DIMBLK
  1
_FILLED
  9
$DIMALT
 70
0
  9
$DIMALTF
 40
0.0393700787
  9
$DIMTXT
 40
3.0
  9
$DIMTOL
 70
1
  9
$DIMLIM
 70
0
  9
$DIMTFAC
 40
1.0
  9
$DIMTP
 40
0.01
  9
$DIMTM
 40
0.01
  9
$DIMGAP
 40
0.625
  9
$DIMDSEP
 70
44
  9
$AUNITS
 70
0
  9
$PDMODE
 70
3
  9
$PDSIZE
 40
3.0
  9
$HANDSEED
  5
449
  9
$TILEMODE
 70
1
  9
$MEASUREMENT
 70
1
  9
$INSUNITS
 70
4
  0
ENDSEC
  0
SECTION
  2
CLASSES
  0
CLASS
  1
ACDBDICTIONARYWDFLT
  2
AcDbDictionaryWithDefault
  3
AutoCAD 2000
 90
0
 91
1
280
0
281
0
  0
CLASS
  1
ACDBPLACEHOLDER
  2
AcDbPlaceHolder
  3
AutoCAD 2000
 90
0
 91
1
280
0
281
0
  0
CLASS
  1
LAYOUT
  2
AcDbLayout
  3
AutoCAD 2000
 90
0
 91
0
280
0
281
0
  0
ENDSEC
  0
SECTION
  2
TABLES
  0
TABLE
  2
VPORT
  5
8
100
AcDbSymbolTable
 70
2
  0
VPORT
  5
1F4
100
AcDbSymbolTableRecord
100
AcDbViewportTableRecord
  2
*ACTIVE
 70
0
 10
0.0
 20
0.0
 11
1.0
 21
1.0
 12
148.5
 22
105.0
 13
0.0
 23
0.0
 14
1.0
 24
1.0
 15
0.0
 25
0.0
 16
0.0
 26
0.0
 36
1.0
 17
0.0
 27
0.0
 37
0.0
 40
210.0
 41
1.4142857143
 42
50.0
 43
0.0
 44
0.0
 50
0.0
 51
0.0
 71
0
 72
100
 73
1
 74
1
 75
0
 76
0
 77
0
 78
0
  0
ENDTAB
  0
TABLE
  2
LTYPE
  5
5
100
AcDbSymbolTable
 70
6
  0
LTYPE
  5
14
100
AcDbSymbolTableRecord
100
AcDbLinetypeTableRecord
  2
BYBLOCK
 70
0
  3

 72
65
 73
0
 40
0.0
  0
LTYPE
  5
15
100
AcDbSymbolTableRecord
100
AcDbLinetypeTableRecord
  2
BYLAYER
 70
0
  3

 72
65
 73
0
 40
0.0
  0
LTYPE
  5
16
100
AcDbSymbolTableRecord
100
AcDbLinetypeTableRecord
  2
CONTINUOUS
 70
64
  3
Solid line
 72
65
 73
0
 40
0.0
  0
LTYPE
  5
1F5
100
AcDbSymbolTableRecord
100
AcDbLinetypeTableRecord
  2
CENTER
 70
64
  3
____ _ ____ _ ____ _ ____ _ ____ _ ____ _ ____
 72
65
 73
4
 40
0.6
 49
0.375
 74
0
 49
-0.075
 74
0
 49
0.075
 74
0
 49
-0.075
 74
0
  0
LTYPE
  5
1F6
100
AcDbSymbolTableRecord
100
AcDbLinetypeTableRecord
  2
HIDDEN
 70
64
  3
- - - - - - - - - - - - - - - - - - - -
 72
65
 73
2
 40
0.2
 49
0.1
 74
0
 49
-0.1
 74
0
  0
LTYPE
  5
1F7
100
AcDbSymbolTableRecord
100
AcDbLinetypeTableRecord
  2
PHANTOM
 70
64
  3
_____ _ _ _____ _ _ _____ _ _ _____
 72
65
 73
6
 40
0.8
 49
0.45
 74
0
 49
-0.05
 74
0
 49
0.1
 74
0
 49
-0.05
 74
0
 49
0.1
 74
0
 49
-0.05
 74
0
  0
LTYPE
  5
1F8
100
AcDbSymbolTableRecord
100
AcDbLinetypeTableRecord
  2
DOT
 70
64
  3
. . . . . . . . . . . . . . . . . . . .
 72
65
 73
2
 40
0.2
 49
0.1
 74
0
 49
-0.1
 74
0
  0
LTYPE
  5
1F9
100
AcDbSymbolTableRecord
100
AcDbLinetypeTableRecord
  2
DASHED
 70
64
  3
- - - - - - - - - - - - - - - - - - - -
 72
65
 73
2
 40
0.2
 49
0.1
 74
0
 49
-0.1
 74
0
  0
ENDTAB
  0
TABLE
  2
LAYER
  5
2
100
AcDbSymbolTable
 70
36
  0
LAYER
  5
10
100
AcDbSymbolTableRecord
100
AcDbLayerTableRecord
  2
0
 70
0
 62
7
  6
CONTINUOUS
370
-3
390
F
  0
LAYER
  5
1FA
100
AcDbSymbolTableRecord
100
AcDbLayerTableRecord
  2
DEFAULT_1
 70
0
 62
7
  6
CENTER
370
-3
390
F
  0
LAYER
  5
1FB
100
AcDbSymbolTableRecord
100
AcDbLayerTableRecord
  2
DEFAULT_2
 70
0
 62
7
  6
HIDDEN
370
-3
390
F
  0
LAYER
  5
1FC
100
AcDbSymbolTableRecord
100
AcDbLayerTableRecord
  2
DEFAULT_3
 70
0
 62
7
  6
PHANTOM
370
-3
390
F
  0
LAYER
  5
1FD
100
AcDbSymbolTableRecord
100
AcDbLayerTableRecord
  2
262146410
 70
0
 62
7
  6
CONTINUOUS
370
-3
390
F
  0
LAYER
  5
1FE
100
AcDbSymbolTableRecord
100
AcDbLayerTableRecord
  2
262146420
 70
0
 62
7
  6
CONTINUOUS
370
-3
390
F
  0
LAYER
  5
1FF
100
AcDbSymbolTableRecord
100
AcDbLayerTableRecord
  2
262146520
 70
0
 62
7
  6
CONTINUOUS
370
-3
390
F
  0
LAYER
  5
200
100
AcDbSymbolTableRecord
100
AcDbLayerTableRecord
  2
262146530
 70
0
 62
7
  6
CONTINUOUS
370
-3
390
F
  0
LAYER
  5
201
100
AcDbSymbolTableRecord
100
AcDbLayerTableRecord
  2
262146540
 70
0
 62
7
  6
CONTINUOUS
370
-3
390
F
  0
LAYER
  5
202
100
AcDbSymbolTableRecord
100
AcDbLayerTableRecord
  2
262146570
 70
0
 62
7
  6
CONTINUOUS
370
-3
390
F
  0
LAYER
  5
203
100
AcDbSymbolTableRecord
100
AcDbLayerTableRecord
  2
ASSI
 70
0
 62
7
  6
CONTINUOUS
370
-3
390
F
  0
LAYER
  5
204
100
AcDbSymbolTableRecord
100
AcDbLayerTableRecord
  2
COORDINATE
 70
0
 62
7
  6
CONTINUOUS
370
-3
390
F
  0
LAYER
  5
205
100
AcDbSymbolTableRecord
100
AcDbLayerTableRecord
  2
COORD_ORIGINE
 70
0
 62
7
  6
CONTINUOUS
370
-3
390
F
  0
LAYER
  5
206
100
AcDbSymbolTableRecord
100
AcDbLayerTableRecord
  2
CURVE
 70
0
 62
7
  6
CONTINUOUS
370
-3
390
F
  0
LAYER
  5
207
100
AcDbSymbolTableRecord
100
AcDbLayerTableRecord
  2
DRAFT
 70
0
 62
7
  6
CONTINUOUS
370
-3
390
F
  0
LAYER
  5
208
100
AcDbSymbolTableRecord
100
AcDbLayerTableRecord
  2
IGES
 70
0
 62
7
  6
CONTINUOUS
370
-3
390
F
  0
LAYER
  5
209
100
AcDbSymbolTableRecord
100
AcDbLayerTableRecord
  2
INCISIONI_STAMPO
 70
0
 62
7
  6
CONTINUOUS
370
-3
390
F
  0
LAYER
  5
20A
100
AcDbSymbolTableRecord
100
AcDbLayerTableRecord
  2
INTF_1
 70
0
 62
7
  6
CONTINUOUS
370
-3
390
F
  0
LAYER
  5
20B
100
AcDbSymbolTableRecord
100
AcDbLayerTableRecord
  2
INTF_7
 70
0
 62
7
  6
CONTINUOUS
370
-3
390
F
  0
LAYER
  5
20C
100
AcDbSymbolTableRecord
100
AcDbLayerTableRecord
  2
INTF_GREEN
 70
0
 62
7
  6
CONTINUOUS
370
-3
390
F
  0
LAYER
  5
20D
100
AcDbSymbolTableRecord
100
AcDbLayerTableRecord
  2
INTF_YELLOW
 70
0
 62
7
  6
CONTINUOUS
370
-3
390
F
  0
LAYER
  5
20E
100
AcDbSymbolTableRecord
100
AcDbLayerTableRecord
  2
NOTE
 70
0
 62
7
  6
CONTINUOUS
370
-3
390
F
  0
LAYER
  5
20F
100
AcDbSymbolTableRecord
100
AcDbLayerTableRecord
  2
PELLE_INFERIORE
 70
0
 62
7
  6
CONTINUOUS
370
-3
390
F
  0
LAYER
  5
210
100
AcDbSymbolTableRecord
100
AcDbLayerTableRecord
  2
PIANI
 70
0
 62
7
  6
CONTINUOUS
370
-3
390
F
  0
LAYER
  5
211
100
AcDbSymbolTableRecord
100
AcDbLayerTableRecord
  2
PIANI_ORIGINE
 70
0
 62
7
  6
CONTINUOUS
370
-3
390
F
  0
LAYER
  5
212
100
AcDbSymbolTableRecord
100
AcDbLayerTableRecord
  2
PPP
 70
0
 62
7
  6
CONTINUOUS
370
-3
390
F
  0
LAYER
  5
213
100
AcDbSymbolTableRecord
100
AcDbLayerTableRecord
  2
PUNTI
 70
0
 62
7
  6
CONTINUOUS
370
-3
390
F
  0
LAYER
  5
214
100
AcDbSymbolTableRecord
100
AcDbLayerTableRecord
  2
RACCORDO
 70
0
 62
7
  6
CONTINUOUS
370
-3
390
F
  0
LAYER
  5
215
100
AcDbSymbolTableRecord
100
AcDbLayerTableRecord
  2
RGB__255__255__255__
 70
0
 62
7
  6
CONTINUOUS
370
-3
390
F
  0
LAYER
  5
216
100
AcDbSymbolTableRecord
100
AcDbLayerTableRecord
  2
RGB____0____0____0__
 70
0
 62
7
  6
CONTINUOUS
370
-3
390
F
  0
LAYER
  5
217
100
AcDbSymbolTableRecord
100
AcDbLayerTableRecord
  2
SNAPLINE
 70
0
 62
7
  6
CONTINUOUS
370
-3
390
F
  0
LAYER
  5
218
100
AcDbSymbolTableRecord
100
AcDbLayerTableRecord
  2
SUPERFICI
 70
0
 62
7
  6
CONTINUOUS
370
-3
390
F
  0
LAYER
  5
219
100
AcDbSymbolTableRecord
100
AcDbLayerTableRecord
  2
TRASH
 70
0
 62
7
  6
CONTINUOUS
370
-3
390
F
  0
LAYER
  5
21A
100
AcDbSymbolTableRecord
100
AcDbLayerTableRecord
  2
XSEC_DATUMS
 70
0
 62
7
  6
CONTINUOUS
370
-3
390
F
  0
ENDTAB
  0
TABLE
  2
STYLE
  5
3
100
AcDbSymbolTable
 70
1
  0
STYLE
  5
11
100
AcDbSymbolTableRecord
100
AcDbTextStyleTableRecord
  2
STANDARD
 70
0
 40
0.0
 41
0.8
 50
0.0
 71
0
 42
0.2
  3
txt
  4

  0
STYLE
  5
21B
100
AcDbSymbolTableRecord
100
AcDbTextStyleTableRecord
  2
TEXTSTYLE_1
 70
0
 40
0.0
 41
0.8
 50
0.0
 71
0
 42
0.2
  3
gdt
  4

  0
ENDTAB
  0
TABLE
  2
VIEW
  5
6
100
AcDbSymbolTable
 70
0
  0
ENDTAB
  0
TABLE
  2
UCS
  5
7
100
AcDbSymbolTable
 70
0
  0
ENDTAB
  0
TABLE
  2
APPID
  5
9
100
AcDbSymbolTable
 70
1
  0
APPID
  5
21C
100
AcDbSymbolTableRecord
100
AcDbRegAppTableRecord
  2
ACAD
 70
0
  0
ENDTAB
  0
TABLE
  2
BLOCK_RECORD
  5
1
100
AcDbSymbolTable
 70
0
  0
BLOCK_RECORD
  5
21D
100
AcDbSymbolTableRecord
100
AcDbBlockTableRecord
  2
*Model_Space
  0
BLOCK_RECORD
  5
21E
100
AcDbSymbolTableRecord
100
AcDbBlockTableRecord
  2
*Paper_Space
  0
BLOCK_RECORD
  5
21F
100
AcDbSymbolTableRecord
100
AcDbBlockTableRecord
  2
_FILLED
  0
BLOCK_RECORD
  5
220
100
AcDbSymbolTableRecord
100
AcDbBlockTableRecord
  2
*D0
  0
BLOCK_RECORD
  5
221
100
AcDbSymbolTableRecord
100
AcDbBlockTableRecord
  2
*D1
  0
BLOCK_RECORD
  5
222
100
AcDbSymbolTableRecord
100
AcDbBlockTableRecord
  2
*D2
  0
ENDTAB
  0
TABLE
  2
DIMSTYLE
  5
A
100
AcDbSymbolTable
 70
1
100
AcDbDimStyleTable
 71
0
  0
DIMSTYLE
105
223
100
AcDbSymbolTableRecord
100
AcDbDimStyleTableRecord
  2
STANDARD
 70
0
  3

  4

 40
1.0
 41
3.0
 42
0.5
 43
0.38
 44
1.5
 45
0.0
 46
0.0
 47
0.01
 48
0.01
140
3.0
141
0.09
142
0.0
143
25.4
144
1.0
145
0.0
146
1.0
147
0.625
 71
1
 72
0
 73
0
 74
0
 75
0
 76
0
 77
1
 78
8
 79
2
170
0
171
1
172
0
173
0
174
0
175
0
176
0
177
0
178
0
270
2
179
2
271
2
272
2
273
2
274
2
275
0
280
0
281
0
282
0
283
1
284
8
285
0
286
0
287
3
288
0
340
11
278
44
341
21F
342
21F
343
21F
344
21F
  0
DIMSTYLE
105
224
100
AcDbSymbolTableRecord
100
AcDbDimStyleTableRecord
  2
DIMSTYLE_1
 70
0
  3

  4

 40
1.0
 41
3.0
 42
0.5
 43
0.38
 44
1.5
 45
0.0
 46
0.0
 47
0.0
 48
0.0
140
3.0
141
0.09
142
0.0
143
25.4
144
1.0
145
0.0
146
1.0
147
0.75
 71
0
 72
0
 73
0
 74
0
 75
0
 76
0
 77
1
 78
8
 79
2
170
0
171
1
172
0
173
0
174
0
175
0
176
0
177
0
178
0
270
2
179
2
271
2
272
2
273
2
274
2
275
0
280
0
281
0
282
0
283
1
284
8
285
0
286
0
287
3
288
0
340
11
278
44
341
21F
342
21F
343
21F
344
21F
  0
ENDTAB
  0
ENDSEC
  0
SECTION
  2
BLOCKS
  0
BLOCK
  5
20
100
AcDbEntity
  8
0
100
AcDbBlockBegin
  2
*Model_Space
 70
0
 10
0.0
 20
0.0
 30
0.0
  3
*Model_Space
  1

  0
ENDBLK
  5
21
100
AcDbEntity
  8
0
100
AcDbBlockEnd
  0
BLOCK
  5
1C
100
AcDbEntity
  8
0
100
AcDbBlockBegin
  2
*Paper_Space
 70
0
 10
0.0
 20
0.0
 30
0.0
  3
*Paper_Space
  1

  0
ENDBLK
  5
1D
100
AcDbEntity
  8
0
100
AcDbBlockEnd
  0
BLOCK
  5
225
100
AcDbEntity
  8
0
100
AcDbBlockBegin
  2
_FILLED
 70
64
 10
0.0
 20
0.0
  3
_FILLED
  1

  0
SOLID
  5
226
100
AcDbEntity
  8
0
  6
BYBLOCK
 62
0
100
AcDbTrace
 10
0.0
 20
0.0
 11
-1.0
 21
0.1333333333
 12
-1.0
 22
-0.1333333333
 13
-1.0
 23
-0.1333333333
  0
ENDBLK
  5
227
100
AcDbEntity
  8
0
  6
BYBLOCK
 62
0
100
AcDbBlockEnd
  0
BLOCK
  5
228
100
AcDbEntity
  8
0
100
AcDbBlockBegin
 62
7
  6
CONTINUOUS
  2
*D0
 70
65
 10
0.0
 20
0.0
  3
*D0
  1

  0
LINE
  5
229
100
AcDbEntity
  8
0
100
AcDbLine
 62
7
  6
CONTINUOUS
 10
-40.0
 20
37.5114159057
 11
-40.0
 21
49.5004305038
  0
LINE
  5
22A
100
AcDbEntity
  8
0
100
AcDbLine
 62
7
  6
CONTINUOUS
 10
40.0
 20
37.5114159057
 11
40.0
 21
49.5004305038
  0
LINE
  5
22B
100
AcDbEntity
  8
0
100
AcDbLine
 62
7
  6
CONTINUOUS
 10
-40.0
 20
48.0004305038
 11
0.0
 21
48.0004305038
  0
LINE
  5
22C
100
AcDbEntity
  8
0
100
AcDbLine
 62
7
  6
CONTINUOUS
 10
40.0
 20
48.0004305038
 11
0.0
 21
48.0004305038
  0
INSERT
  5
22D
100
AcDbEntity
  8
0
100
AcDbBlockReference
 62
7
  6
CONTINUOUS
  2
_FILLED
 10
-40.0
 20
48.0004305038
 41
3.0
 42
3.0
 43
3.0
 50
180.0
  0
INSERT
  5
22E
100
AcDbEntity
  8
0
100
AcDbBlockReference
 62
7
  6
CONTINUOUS
  2
_FILLED
 10
40.0
 20
48.0004305038
 41
3.0
 42
3.0
 43
3.0
  0
ENDBLK
  5
22F
100
AcDbEntity
  8
0
  6
BYBLOCK
 62
0
100
AcDbBlockEnd
  0
BLOCK
  5
230
100
AcDbEntity
  8
0
100
AcDbBlockBegin
 62
7
  6
CONTINUOUS
  2
*D1
 70
65
 10
0.0
 20
0.0
  3
*D1
  1

  0
LINE
  5
231
100
AcDbEntity
  8
0
100
AcDbLine
 62
7
  6
CONTINUOUS
 10
-62.5533001881
 20
37.5114159057
 11
-62.5533001881
 21
49.5004305038
  0
LINE
  5
232
100
AcDbEntity
  8
0
100
AcDbLine
 62
7
  6
CONTINUOUS
 10
-71.5533001881
 20
24.1695024591
 11
-71.5533001881
 21
49.5004305038
  0
LINE
  5
233
100
AcDbEntity
  8
0
100
AcDbLine
 62
7
  6
CONTINUOUS
 10
-62.5533001881
 20
48.0004305038
 11
-58.5533001881
 21
48.0004305038
  0
LINE
  5
234
100
AcDbEntity
  8
0
100
AcDbLine
 62
7
  6
CONTINUOUS
 10
-58.5533001881
 20
48.0004305038
 11
-67.0533001881
 21
48.0004305038
  0
LINE
  5
235
100
AcDbEntity
  8
0
100
AcDbLine
 62
7
  6
CONTINUOUS
 10
-71.5533001881
 20
48.0004305038
 11
-75.5533001881
 21
48.0004305038
  0
LINE
  5
236
100
AcDbEntity
  8
0
100
AcDbLine
 62
7
  6
CONTINUOUS
 10
-75.5533001881
 20
48.0004305038
 11
-67.0533001881
 21
48.0004305038
  0
INSERT
  5
237
100
AcDbEntity
  8
0
100
AcDbBlockReference
 62
7
  6
CONTINUOUS
  2
_FILLED
 10
-62.5533001881
 20
48.0004305038
 41
3.0
 42
3.0
 43
3.0
 50
180.0
  0
INSERT
  5
238
100
AcDbEntity
  8
0
100
AcDbBlockReference
 62
7
  6
CONTINUOUS
  2
_FILLED
 10
-71.5533001881
 20
48.0004305038
 41
3.0
 42
3.0
 43
3.0
  0
ENDBLK
  5
239
100
AcDbEntity
  8
0
  6
BYBLOCK
 62
0
100
AcDbBlockEnd
  0
BLOCK
  5
23A
100
AcDbEntity
  8
0
100
AcDbBlockBegin
 62
7
  6
CONTINUOUS
  2
*D2
 70
65
 10
0.0
 20
0.0
  3
*D2
  1

  0
LINE
  5
23B
100
AcDbEntity
  8
0
100
AcDbLine
 62
7
  6
CONTINUOUS
 10
-63.0533001881
 20
-40.0
 11
-81.0533001881
 21
-40.0
  0
LINE
  5
23C
100
AcDbEntity
  8
0
100
AcDbLine
 62
7
  6
CONTINUOUS
 10
-63.0533001881
 20
40.0
 11
-81.0533001881
 21
40.0
  0
LINE
  5
23D
100
AcDbEntity
  8
0
100
AcDbLine
 62
7
  6
CONTINUOUS
 10
-79.5533001881
 20
-40.0
 11
-79.5533001881
 21
0.0
  0
LINE
  5
23E
100
AcDbEntity
  8
0
100
AcDbLine
 62
7
  6
CONTINUOUS
 10
-79.5533001881
 20
40.0
 11
-79.5533001881
 21
0.0
  0
INSERT
  5
23F
100
AcDbEntity
  8
0
100
AcDbBlockReference
 62
7
  6
CONTINUOUS
  2
_FILLED
 10
-79.5533001881
 20
-40.0
 41
3.0
 42
3.0
 43
3.0
 50
270.0
  0
INSERT
  5
240
100
AcDbEntity
  8
0
100
AcDbBlockReference
 62
7
  6
CONTINUOUS
  2
_FILLED
 10
-79.5533001881
 20
40.0
 41
3.0
 42
3.0
 43
3.0
 50
90.0
  0
ENDBLK
  5
241
100
AcDbEntity
  8
0
  6
BYBLOCK
 62
0
100
AcDbBlockEnd
  0
ENDSEC
  0
SECTION
  2
ENTITIES
  0
DIMENSION
  5
242
100
AcDbEntity
  8
0
100
AcDbDimension
 62
7
  6
CONTINUOUS
  2
*D0
 10
40.0
 20
48.0004305038
 11
-2.3571428571
 21
48.0004305038
 70
160
 71
2
 72
2
 41
0.9
 42
80.0
  3
DIMSTYLE_1
100
AcDbAlignedDimension
 13
-40.0
 23
37.0114159057
 14
40.0
 24
37.0114159057
100
AcDbRotatedDimension
  0
DIMENSION
  5
243
100
AcDbEntity
  8
0
100
AcDbDimension
 62
7
  6
CONTINUOUS
  2
*D1
 10
-71.5533001881
 20
48.0004305038
 11
-68.2318716166
 21
48.0004305038
 70
160
 71
2
 72
2
 41
0.9
 42
9.0
  3
DIMSTYLE_1
100
AcDbAlignedDimension
 13
-62.5533001881
 23
37.0114159057
 14
-71.5533001881
 24
23.6695024591
 50
180.0
100
AcDbRotatedDimension
  0
DIMENSION
  5
244
100
AcDbEntity
  8
0
100
AcDbDimension
 62
7
  6
CONTINUOUS
  2
*D2
 10
-79.5533001881
 20
40.0
 11
-79.5533001881
 21
-2.3571428571
 70
160
 71
2
 72
2
 41
0.9
 42
80.0
  3
DIMSTYLE_1
100
AcDbAlignedDimension
 13
-62.5533001881
 23
-40.0
 14
-62.5533001881
 24
40.0
 50
90.0
100
AcDbRotatedDimension
  0
LWPOLYLINE
  5
245
100
AcDbEntity
  8
RACCORDO
100
AcDbPolyline
 62
250
  6
CONTINUOUS
 90
13
 70
0
 10
-36.6193683442
 20
39.6079524384
 10
-36.6236885814
 20
39.5920648649
 10
-36.6279551215
 20
39.5639902093
 10
-36.6321149302
 20
39.5240774929
 10
-36.6361162998
 20
39.4728229067
 10
-36.6399094921
 20
39.4108636428
 10
-36.6434473569
 20
39.3389699726
 10
-36.6466859181
 20
39.2580356712
 10
-36.6495849208
 20
39.1690669059
 10
-36.6521083313
 20
39.0731697278
 10
-36.6542247851
 20
38.971536321
 10
-36.6559079772
 20
38.8654301823
 10
-36.6571369884
 20
38.7561704126
  0
LWPOLYLINE
  5
246
100
AcDbEntity
  8
RACCORDO
100
AcDbPolyline
 62
250
  6
CONTINUOUS
 90
9
 70
0
 10
39.6088428838
 20
-36.6202852125
 10
39.5928974784
 20
-36.6237078535
 10
39.5647044622
 20
-36.627087737
 10
39.5246160918
 20
-36.630382633
 10
39.4731332501
 20
-36.6335513732
 10
39.4108991873
 20
-36.6365543655
 10
39.3386914847
 20
-36.6393540881
 10
39.2574123388
 20
-36.6419155592
 10
39.1680772888
 20
-36.6442067735
  0
LWPOLYLINE
  5
247
100
AcDbEntity
  8
RACCORDO
100
AcDbPolyline
 62
250
  6
CONTINUOUS
 90
10
 70
0
 10
-39.6088693123
 20
-36.620285218
 10
-39.5929232229
 20
-36.6237079293
 10
-39.5647291231
 20
-36.6270878751
 10
-39.5246392924
 20
-36.6303828237
 10
-39.4731546453
 20
-36.6335516057
 10
-39.4109184721
 20
-36.6365546277
 10
-39.3387084014
 20
-36.6393543675
 10
-39.2574266836
 20
-36.6419158427
 10
-39.1680889175
 20
-36.6442070487
 10
-38.9697969818
 20
-36.6478678749
  0
LWPOLYLINE
  5
248
100
AcDbEntity
  8
RACCORDO
100
AcDbPolyline
 62
250
  6
CONTINUOUS
 90
13
 70
0
 10
-36.6193683389
 20
-39.6079265753
 10
-36.623688721
 20
-39.5920394847
 10
-36.6279553921
 20
-39.563965732
 10
-36.6321153113
 20
-39.5240543173
 10
-36.636116765
 20
-39.4728014013
 10
-36.6399100099
 20
-39.4108441374
 10
-36.6434478911
 20
-39.3389527501
 10
-36.6466864293
 20
-39.2580209608
 10
-36.6495853668
 20
-39.1690548771
 10
-36.6521086685
 20
-39.0731604852
 10
-36.6542249696
 20
-38.971529901
 10
-36.6559079655
 20
-38.86542655
 10
-36.6571367391
 20
-38.7561694613
  0
LINE
  5
249
100
AcDbEntity
  8
RACCORDO
100
AcDbLine
 62
250
  6
CONTINUOUS
 10
-38.7647051076
 20
-36.362284448
 11
-38.7704893194
 21
-36.2412415897
  0
LWPOLYLINE
  5
24A
100
AcDbEntity
  8
RACCORDO
100
AcDbPolyline
 62
250
  6
CONTINUOUS
 90
6
 70
0
 10
-38.7704893194
 20
-36.2412415897
 10
-38.7736768869
 20
-36.1633316323
 10
-38.7747935862
 20
-36.1245594419
 10
-38.7752979007
 20
-36.0855379161
 10
-38.775405776
 20
-36.0462574803
 10
-38.8044768542
 20
-31.7787248854
  0
LINE
  5
24B
100
AcDbEntity
  8
RACCORDO
100
AcDbLine
 62
250
  6
CONTINUOUS
 10
-38.7592253544
 20
-36.4956852124
 11
-38.7647051076
 21
-36.362284448
  0
LINE
  5
24C
100
AcDbEntity
  8
RACCORDO
100
AcDbLine
 62
250
  6
CONTINUOUS
 10
-38.7537121092
 20
-36.6501544534
 11
-38.7592253544
 21
-36.4956852124
  0
LINE
  5
24D
100
AcDbEntity
  8
RACCORDO
100
AcDbLine
 62
250
  6
CONTINUOUS
 10
-38.8044768542
 20
-31.7787248854
 11
-38.8190967314
 21
-28.609047311
  0
LINE
  5
24E
100
AcDbEntity
  8
RACCORDO
100
AcDbLine
 62
250
  6
CONTINUOUS
 10
-38.8190967314
 20
-28.609047311
 11
-38.8286290129
 21
-24.7350728484
  0
LINE
  5
24F
100
AcDbEntity
  8
RACCORDO
100
AcDbLine
 62
250
  6
CONTINUOUS
 10
-38.8286290129
 20
-24.7350728484
 11
-38.8342933206
 21
-18.2316193926
  0
LINE
  5
250
100
AcDbEntity
  8
0
100
AcDbLine
 62
7
  6
CONTINUOUS
 10
-40.0
 20
37.0114159057
 11
-40.0
 21
4.2017932267
  0
LINE
  5
251
100
AcDbEntity
  8
0
100
AcDbLine
 62
7
  6
CONTINUOUS
 10
-40.0
 20
-4.2017932267
 11
-40.0
 21
-37.0114159057
  0
LINE
  5
252
100
AcDbEntity
  8
0
100
AcDbLine
 62
7
  6
CONTINUOUS
 10
-39.8250226729
 20
3.0615117685
 11
-39.8250226729
 21
-3.0615117685
  0
LINE
  5
253
100
AcDbEntity
  8
RACCORDO
100
AcDbLine
 62
250
  6
CONTINUOUS
 10
-39.6030013678
 20
24.4354778671
 11
-39.6088693123
 21
36.620285218
  0
LINE
  5
254
100
AcDbEntity
  8
RACCORDO
100
AcDbLine
 62
250
  6
CONTINUOUS
 10
-38.8342933206
 20
-18.2316193926
 11
-38.8342721037
 21
18.286304867
  0
LINE
  5
255
100
AcDbEntity
  8
RACCORDO
100
AcDbLine
 62
250
  6
CONTINUOUS
 10
-38.8342721037
 20
18.286304867
 11
-38.8280521687
 21
25.0933800616
  0
LINE
  5
256
100
AcDbEntity
  8
RACCORDO
100
AcDbLine
 62
250
  6
CONTINUOUS
 10
-39.6088693123
 20
-36.620285218
 11
-39.6030013678
 21
24.4354778671
  0
LINE
  5
257
100
AcDbEntity
  8
RACCORDO
100
AcDbLine
 62
250
  6
CONTINUOUS
 10
-38.7755327295
 20
36.0073780841
 11
-38.7752874286
 21
36.086629962
  0
LINE
  5
258
100
AcDbEntity
  8
RACCORDO
100
AcDbLine
 62
250
  6
CONTINUOUS
 10
-38.8280521687
 20
25.0933800616
 11
-38.8147928246
 21
29.7072948443
  0
LINE
  5
259
100
AcDbEntity
  8
RACCORDO
100
AcDbLine
 62
250
  6
CONTINUOUS
 10
-38.8147928246
 20
29.7072948443
 11
-38.7957102925
 21
33.2130478923
  0
LINE
  5
25A
100
AcDbEntity
  8
RACCORDO
100
AcDbLine
 62
250
  6
CONTINUOUS
 10
-38.7957102925
 20
33.2130478923
 11
-38.7755327295
 21
36.0073780841
  0
LWPOLYLINE
  5
25B
100
AcDbEntity
  8
RACCORDO
100
AcDbPolyline
 62
250
  6
CONTINUOUS
 90
3
 70
0
 10
-38.7752874286
 20
36.086629962
 10
-38.7747759345
 20
36.1255911843
 10
-38.7736447232
 20
36.164353767
  0
LINE
  5
25C
100
AcDbEntity
  8
RACCORDO
100
AcDbLine
 62
250
  6
CONTINUOUS
 10
-38.7591601871
 20
36.4973966382
 11
-38.7537121369
 21
36.6501544591
  0
LWPOLYLINE
  5
25D
100
AcDbEntity
  8
RACCORDO
100
AcDbPolyline
 62
250
  6
CONTINUOUS
 90
22
 70
0
 10
-39.6088693123
 20
36.620285218
 10
-39.6003322989
 20
36.8443429958
 10
-39.5751022339
 20
37.0670021329
 10
-39.5333296081
 20
37.2870334504
 10
-39.4752334601
 20
37.5032954683
 10
-39.4011566258
 20
37.7145167651
 10
-39.311617464
 20
37.9193213369
 10
-39.2072556678
 20
38.1164443207
 10
-39.0886324867
 20
38.3049916514
 10
-38.9562568927
 20
38.4841941764
 10
-38.8108396465
 20
38.6530677779
 10
-38.6531809909
 20
38.8106598877
 10
-38.4839332732
 20
38.956253357
 10
-38.3037340934
 20
39.0891561313
 10
-38.1137653602
 20
39.2083626208
 10
-37.9156288695
 20
39.3128627227
 10
-37.7107401761
 20
39.4020221153
 10
-37.499994406
 20
39.4755590024
 10
-37.2843148231
 20
39.533188606
 10
-37.0648015174
 20
39.5746116112
 10
-36.8427463219
 20
39.5995775263
 10
-36.6193683442
 20
39.6079524384
  0
LINE
  5
25E
100
AcDbEntity
  8
RACCORDO
100
AcDbLine
 62
250
  6
CONTINUOUS
 10
-38.7736447232
 20
36.164353767
 11
-38.7704236775
 21
36.2425568929
  0
LINE
  5
25F
100
AcDbEntity
  8
RACCORDO
100
AcDbLine
 62
250
  6
CONTINUOUS
 10
-38.7646223341
 20
36.3641367547
 11
-38.7591601871
 21
36.4973966382
  0
LINE
  5
260
100
AcDbEntity
  8
RACCORDO
100
AcDbLine
 62
250
  6
CONTINUOUS
 10
-38.7704236775
 20
36.2425568929
 11
-38.7646223341
 21
36.3641367547
  0
LWPOLYLINE
  5
261
100
AcDbEntity
  8
RACCORDO
100
AcDbPolyline
 62
250
  6
CONTINUOUS
 90
22
 70
0
 10
-38.7537114635
 20
36.6501543164
 10
-38.7429230692
 20
36.8056734883
 10
-38.7211287572
 20
36.9602039585
 10
-38.6884076076
 20
37.1127975203
 10
-38.6449057964
 20
37.2626520017
 10
-38.5908682085
 20
37.4089687765
 10
-38.5265969705
 20
37.550875091
 10
-38.4524914788
 20
37.6875445813
 10
-38.3689387322
 20
37.8184143426
 10
-38.2762252416
 20
37.94300286
 10
-38.1747808782
 20
38.0606443301
 10
-38.0651528541
 20
38.1707453239
 10
-37.9477298159
 20
38.2728727517
 10
-37.822888596
 20
38.3665577586
 10
-37.6914372746
 20
38.4511643969
 10
-37.5544359337
 20
38.5260447199
 10
-37.412809327
 20
38.5907485802
 10
-37.2671250488
 20
38.6451300953
 10
-37.1179367166
 20
38.689052945
 10
-36.9659208172
 20
38.7223067015
 10
-36.8119999358
 20
38.7447122409
 10
-36.6571367693
 20
38.7561695763
  0
LINE
  5
262
100
AcDbEntity
  8
RACCORDO
100
AcDbLine
 62
250
  6
CONTINUOUS
 10
36.3826438836
 20
-38.7679142694
 11
36.295748892
 21
-38.772966585
  0
LINE
  5
263
100
AcDbEntity
  8
RACCORDO
100
AcDbLine
 62
250
  6
CONTINUOUS
 10
36.295748892
 20
-38.772966585
 11
36.2519156813
 21
-38.7753973105
  0
LWPOLYLINE
  5
264
100
AcDbEntity
  8
RACCORDO
100
AcDbPolyline
 62
250
  6
CONTINUOUS
 90
4
 70
0
 10
36.2519156813
 20
-38.7753973105
 10
36.1633294958
 20
-38.7796378146
 10
36.1178249892
 20
-38.7812771644
 10
36.0711704349
 20
-38.7823335815
  0
LINE
  5
265
100
AcDbEntity
  8
RACCORDO
100
AcDbLine
 62
250
  6
CONTINUOUS
 10
36.4705592586
 20
-38.7638304206
 11
36.3826438836
 21
-38.7679142694
  0
LINE
  5
266
100
AcDbEntity
  8
RACCORDO
100
AcDbLine
 62
250
  6
CONTINUOUS
 10
36.6571369884
 20
-38.7561704126
 11
36.4705592586
 21
-38.7638304206
  0
LINE
  5
267
100
AcDbEntity
  8
RACCORDO
100
AcDbLine
 62
250
  6
CONTINUOUS
 10
39.1680772888
 20
-36.6442067735
 11
38.9697909584
 21
-36.6478676512
  0
LINE
  5
268
100
AcDbEntity
  8
RACCORDO
100
AcDbLine
 62
250
  6
CONTINUOUS
 10
36.0711704349
 20
-38.7823335815
 11
26.2351682345
 21
-38.9128781527
  0
LINE
  5
269
100
AcDbEntity
  8
RACCORDO
100
AcDbLine
 62
250
  6
CONTINUOUS
 10
38.9697909584
 20
-36.6478676512
 11
38.7537114635
 21
-36.6501543164
  0
LINE
  5
26A
100
AcDbEntity
  8
RACCORDO
100
AcDbLine
 62
250
  6
CONTINUOUS
 10
26.2351682345
 20
-38.9128781527
 11
25.3061697896
 21
-38.9197755352
  0
LINE
  5
26B
100
AcDbEntity
  8
RACCORDO
100
AcDbLine
 62
250
  6
CONTINUOUS
 10
24.5762170242
 20
-38.9210828398
 11
22.8239728611
 21
-38.9317068242
  0
LINE
  5
26C
100
AcDbEntity
  8
RACCORDO
100
AcDbLine
 62
250
  6
CONTINUOUS
 10
-13.7335136631
 20
-38.9169084436
 11
-22.0892365383
 21
-38.9329779024
  0
LINE
  5
26D
100
AcDbEntity
  8
RACCORDO
100
AcDbLine
 62
250
  6
CONTINUOUS
 10
25.3061697896
 20
-38.9197755352
 11
24.5762170242
 21
-38.9210828398
  0
LINE
  5
26E
100
AcDbEntity
  8
RACCORDO
100
AcDbLine
 62
7
  6
CONTINUOUS
 10
-37.0114159057
 20
-40.0
 11
37.0114159057
 21
-40.0
  0
LINE
  5
26F
100
AcDbEntity
  8
RACCORDO
100
AcDbLine
 62
250
  6
CONTINUOUS
 10
9.8011936119
 20
-39.594640265
 11
-17.7503227355
 21
-39.5936846978
  0
LINE
  5
270
100
AcDbEntity
  8
RACCORDO
100
AcDbLine
 62
250
  6
CONTINUOUS
 10
-17.7503227355
 20
-39.5936846978
 11
-36.6193683442
 21
-39.6079524384
  0
LINE
  5
271
100
AcDbEntity
  8
RACCORDO
100
AcDbLine
 62
250
  6
CONTINUOUS
 10
1.3336723167
 20
-38.9279316896
 11
-3.747584299
 21
-38.925968841
  0
LINE
  5
272
100
AcDbEntity
  8
RACCORDO
100
AcDbLine
 62
250
  6
CONTINUOUS
 10
31.4511654058
 20
-39.5996418471
 11
9.8011936119
 21
-39.594640265
  0
LINE
  5
273
100
AcDbEntity
  8
RACCORDO
100
AcDbLine
 62
250
  6
CONTINUOUS
 10
-3.747584299
 20
-38.925968841
 11
-13.7335136631
 21
-38.9169084436
  0
LINE
  5
274
100
AcDbEntity
  8
RACCORDO
100
AcDbLine
 62
250
  6
CONTINUOUS
 10
22.8239728611
 20
-38.9317068242
 11
20.8490780259
 21
-38.9312742205
  0
LWPOLYLINE
  5
275
100
AcDbEntity
  8
RACCORDO
100
AcDbPolyline
 62
250
  6
CONTINUOUS
 90
3
 70
0
 10
20.8490780259
 20
-38.9312742205
 10
18.4440368566
 20
-38.9258625641
 10
1.3336723167
 20
-38.9279316896
  0
LINE
  5
276
100
AcDbEntity
  8
RACCORDO
100
AcDbLine
 62
250
  6
CONTINUOUS
 10
36.6193683442
 20
-39.6079524384
 11
31.4511654058
 21
-39.5996418471
  0
LINE
  5
277
100
AcDbEntity
  8
RACCORDO
100
AcDbLine
 62
250
  6
CONTINUOUS
 10
-22.0892365383
 20
-38.9329779024
 11
-23.1290413325
 21
-38.930335622
  0
LINE
  5
278
100
AcDbEntity
  8
RACCORDO
100
AcDbLine
 62
250
  6
CONTINUOUS
 10
-24.2348075769
 20
-38.9226173198
 11
-25.3525870992
 21
-38.9195914695
  0
LINE
  5
279
100
AcDbEntity
  8
RACCORDO
100
AcDbLine
 62
250
  6
CONTINUOUS
 10
-23.1290413325
 20
-38.930335622
 11
-24.2348075769
 21
-38.9226173198
  0
LINE
  5
27A
100
AcDbEntity
  8
RACCORDO
100
AcDbLine
 62
250
  6
CONTINUOUS
 10
-25.3525870992
 20
-38.9195914695
 11
-26.7145335413
 21
-38.9082995593
  0
LINE
  5
27B
100
AcDbEntity
  8
RACCORDO
100
AcDbLine
 62
250
  6
CONTINUOUS
 10
-38.9697969818
 20
-36.6478678749
 11
-38.7537121092
 21
-36.6501544534
  0
LINE
  5
27C
100
AcDbEntity
  8
RACCORDO
100
AcDbLine
 62
250
  6
CONTINUOUS
 10
-26.7145335413
 20
-38.9082995593
 11
-29.0030787206
 21
-38.8813830514
  0
LINE
  5
27D
100
AcDbEntity
  8
RACCORDO
100
AcDbLine
 62
250
  6
CONTINUOUS
 10
-29.0030787206
 20
-38.8813830514
 11
-36.0701028845
 21
-38.7823512327
  0
LWPOLYLINE
  5
27E
100
AcDbEntity
  8
RACCORDO
100
AcDbPolyline
 62
250
  6
CONTINUOUS
 90
7
 70
0
 10
-36.0701028845
 20
-38.7823512327
 10
-36.1168569238
 20
-38.7812983529
 10
-36.1624398369
 20
-38.7796673119
 10
-36.206953225
 20
-38.7776470307
 10
-36.2512363692
 20
-38.7754424076
 10
-36.2951662845
 20
-38.7730069079
 10
-36.3821734926
 20
-38.7679363053
  0
LWPOLYLINE
  5
27F
100
AcDbEntity
  8
RACCORDO
100
AcDbPolyline
 62
250
  6
CONTINUOUS
 90
22
 70
0
 10
-36.6193683442
 20
-39.6079524384
 10
-36.8427231278
 20
-39.5995792792
 10
-37.0647636029
 20
-39.5746173105
 10
-37.2842707059
 20
-39.5331986078
 10
-37.4999574343
 20
-39.4755702883
 10
-37.7107178946
 20
-39.4020307325
 10
-37.9156136778
 20
-39.3128699406
 10
-38.113743223
 20
-39.2083753276
 10
-38.3036994178
 20
-39.0891797083
 10
-38.4838881423
 20
-38.9562892907
 10
-38.6531322938
 20
-38.8107050029
 10
-38.8107889793
 20
-38.6531223027
 10
-38.956199047
 20
-38.4842666681
 10
-39.0885554172
 20
-38.3051047387
 10
-39.2071600539
 20
-38.1166099396
 10
-39.3115218281
 20
-37.9195196931
 10
-39.4010819409
 20
-37.7147066538
 10
-39.4751854749
 20
-37.5034507041
 10
-39.5333030923
 20
-37.287149419
 10
-39.5750900811
 20
-37.0670825031
 10
-39.6003291621
 20
-36.8443845093
 10
-39.6088693123
 20
-36.620285218
  0
LINE
  5
280
100
AcDbEntity
  8
RACCORDO
100
AcDbLine
 62
250
  6
CONTINUOUS
 10
-36.4702187697
 20
-38.7638451107
 11
-36.6571369928
 21
-38.7561704313
  0
LINE
  5
281
100
AcDbEntity
  8
RACCORDO
100
AcDbLine
 62
250
  6
CONTINUOUS
 10
-36.3821734926
 20
-38.7679363053
 11
-36.4702187697
 21
-38.7638451107
  0
LWPOLYLINE
  5
282
100
AcDbEntity
  8
RACCORDO
100
AcDbPolyline
 62
250
  6
CONTINUOUS
 90
22
 70
0
 10
-36.6571367391
 20
-38.7561694613
 10
-36.8119932728
 20
-38.7447140557
 10
-36.965906885
 20
-38.7223107721
 10
-37.1179141095
 20
-38.6890584396
 10
-37.2671041897
 20
-38.6451371231
 10
-37.4127973909
 20
-38.5907541684
 10
-37.5544288045
 20
-38.5260468922
 10
-37.6914265263
 20
-38.4511700223
 10
-37.8228701144
 20
-38.3665719678
 10
-37.9477026575
 20
-38.2728946014
 10
-38.0651221595
 20
-38.1707731066
 10
-38.1747490153
 20
-38.060679702
 10
-38.2761872186
 20
-37.9430503633
 10
-38.3688859211
 20
-37.8184887982
 10
-38.4524264138
 20
-37.6876560762
 10
-38.526531325
 20
-37.551010006
 10
-38.5908149262
 20
-37.4090976278
 10
-38.644871789
 20
-37.2627559802
 10
-38.688389233
 20
-37.1128714382
 10
-38.7211189025
 20
-36.9602486407
 10
-38.7429201368
 20
-36.8056931101
 10
-38.7537115326
 20
-36.6501543311
  0
LINE
  5
283
100
AcDbEntity
  8
0
100
AcDbLine
 62
7
  6
CONTINUOUS
 10
-39.8630572237
 20
-3.5572341992
 11
-39.9619654493
 21
-3.706070796
  0
LINE
  5
284
100
AcDbEntity
  8
0
100
AcDbLine
 62
7
  6
CONTINUOUS
 10
-39.9619654493
 20
3.706070796
 11
-39.8630572237
 21
3.5572341992
  0
LWPOLYLINE
  5
285
100
AcDbEntity
  8
RACCORDO
100
AcDbPolyline
 62
250
  6
CONTINUOUS
 90
3
 70
0
 10
-13.0476228283
 20
25.2067565858
 10
-12.9793622011
 20
25.2510120081
 10
-12.9105408857
 20
25.2934812886
  0
LWPOLYLINE
  5
286
100
AcDbEntity
  8
RACCORDO
100
AcDbPolyline
 62
250
  6
CONTINUOUS
 90
16
 70
0
 10
-12.9105408857
 20
25.2934812886
 10
-12.7743663207
 20
25.3759446824
 10
-12.7099318342
 20
25.4125634454
 10
-12.6460559432
 20
25.4441808406
 10
-12.5795934809
 20
25.4750895297
 10
-12.509373424
 20
25.5066619906
 10
-12.4365017581
 20
25.5371021153
 10
-12.3611076798
 20
25.5666362981
 10
-12.282047601
 20
25.5956008927
 10
-12.2004558333
 20
25.623132586
 10
-12.1199745538
 20
25.6480309515
 10
-12.0419897552
 20
25.6700486598
 10
-11.965332239
 20
25.6896639401
 10
-11.889883857
 20
25.707186741
 10
-11.816127214
 20
25.7229331273
 10
-11.7437323564
 20
25.737059163
  0
LWPOLYLINE
  5
287
100
AcDbEntity
  8
RACCORDO
100
AcDbPolyline
 62
250
  6
CONTINUOUS
 90
10
 70
0
 10
11.7437323564
 20
-25.737059163
 10
11.5984403958
 20
-25.7622843818
 10
11.5255610669
 20
-25.7753508784
 10
11.4528977683
 20
-25.7871097139
 10
11.3803266996
 20
-25.7966118062
 10
11.3080250883
 20
-25.80446741
 10
11.2366616608
 20
-25.8109077521
 10
11.1664707489
 20
-25.8160151567
 10
11.0972560397
 20
-25.8197099755
 10
11.0290353639
 20
-25.8219764832
  0
LWPOLYLINE
  5
288
100
AcDbEntity
  8
RACCORDO
100
AcDbPolyline
 62
250
  6
CONTINUOUS
 90
3
 70
0
 10
11.0290353639
 20
-25.8219764832
 10
9.9800418148
 20
-25.8485792399
 10
8.9004253097
 20
-25.8610999492
  0
LINE
  5
289
100
AcDbEntity
  8
RACCORDO
100
AcDbLine
 62
250
  6
CONTINUOUS
 10
13.0102301925
 20
-22.3
 11
14.2726447012
 21
-22.2797757475
  0
LINE
  5
28A
100
AcDbEntity
  8
RACCORDO
100
AcDbLine
 62
250
  6
CONTINUOUS
 10
14.2726447012
 20
-22.2797757475
 11
14.6655167316
 21
-22.2746029027
  0
LINE
  5
28B
100
AcDbEntity
  8
RACCORDO
100
AcDbLine
 62
250
  6
CONTINUOUS
 10
1.7808090149
 20
-25.8714400591
 11
0.5
 21
-25.8774300241
  0
LWPOLYLINE
  5
28C
100
AcDbEntity
  8
RACCORDO
100
AcDbPolyline
 62
250
  6
CONTINUOUS
 90
3
 70
0
 10
8.9004253097
 20
-25.8610999492
 10
4.2709769668
 20
-25.8762255791
 10
1.7808090149
 20
-25.8714400591
  0
LINE
  5
28D
100
AcDbEntity
  8
RACCORDO
100
AcDbLine
 62
250
  6
CONTINUOUS
 10
0.4985241784
 20
-25.8774274534
 11
-0.4985241784
 21
-25.8774274534
  0
LINE
  5
28E
100
AcDbEntity
  8
0
100
AcDbLine
 62
250
  6
CONTINUOUS
 10
-11.05
 20
-22.6708729243
 11
11.05
 21
-22.6708729243
  0
LINE
  5
28F
100
AcDbEntity
  8
0
100
AcDbLine
 62
7
  6
CONTINUOUS
 10
11.05
 20
-22.6
 11
-11.05
 21
-22.6
  0
LINE
  5
290
100
AcDbEntity
  8
0
100
AcDbLine
 62
7
  6
CONTINUOUS
 10
11.05
 20
-22.5
 11
-11.05
 21
-22.5
  0
LINE
  5
291
100
AcDbEntity
  8
0
100
AcDbLine
 62
250
  6
CONTINUOUS
 10
-11.25
 20
-22.3
 11
-11.4208729243
 21
-22.3
  0
LINE
  5
292
100
AcDbEntity
  8
0
100
AcDbLine
 62
250
  6
CONTINUOUS
 10
11.25
 20
-22.3
 11
11.4208729243
 21
-22.3
  0
LINE
  5
293
100
AcDbEntity
  8
RACCORDO
100
AcDbLine
 62
250
  6
CONTINUOUS
 10
11.4208729243
 20
-22.3
 11
13.0102300836
 21
-22.3
  0
LINE
  5
294
100
AcDbEntity
  8
RACCORDO
100
AcDbLine
 62
250
  6
CONTINUOUS
 10
-11.4208729243
 20
-22.3
 11
-13.0102300836
 21
-22.3
  0
LWPOLYLINE
  5
295
100
AcDbEntity
  8
RACCORDO
100
AcDbPolyline
 62
250
  6
CONTINUOUS
 90
3
 70
0
 10
-4.2770794693
 20
-25.8762196976
 10
-5.4808417607
 20
-25.8752459245
 10
-8.9022439108
 20
-25.8610708609
  0
LINE
  5
296
100
AcDbEntity
  8
RACCORDO
100
AcDbLine
 62
250
  6
CONTINUOUS
 10
-0.4970483567
 20
-24.2736779886
 11
-11.05
 21
-24.2738312926
  0
LINE
  5
297
100
AcDbEntity
  8
RACCORDO
100
AcDbLine
 62
250
  6
CONTINUOUS
 10
11.05
 20
-24.2738312926
 11
-0.4970483567
 21
-24.2736779886
  0
LWPOLYLINE
  5
298
100
AcDbEntity
  8
RACCORDO
100
AcDbPolyline
 62
250
  6
CONTINUOUS
 90
3
 70
0
 10
-0.5
 20
-25.8774300148
 10
-1.7838413626
 20
-25.8714465089
 10
-4.2770794693
 20
-25.8762196976
  0
LWPOLYLINE
  5
299
100
AcDbEntity
  8
RACCORDO
100
AcDbPolyline
 62
250
  6
CONTINUOUS
 90
58
 70
0
 10
-11.05
 20
-24.2738312926
 10
-11.0884206089
 20
-24.2736327419
 10
-11.1270991099
 20
-24.2726315703
 10
-11.1660176272
 20
-24.2708124311
 10
-11.2052350638
 20
-24.268156369
 10
-11.2446546332
 20
-24.2646494884
 10
-11.2840247985
 20
-24.2602984749
 10
-11.3229862047
 20
-24.255137937
 10
-11.3618615026
 20
-24.2491473358
 10
-11.4014176118
 20
-24.2422179782
 10
-11.4418710113
 20
-24.2342517707
 10
-11.4829482097
 20
-24.2252431963
 10
-11.5246742551
 20
-24.2151713356
 10
-11.5669822818
 20
-24.2040066249
 10
-11.6098738582
 20
-24.1916783268
 10
-11.6534717835
 20
-24.1780891302
 10
-11.6984828735
 20
-24.1629178589
 10
-11.7440971924
 20
-24.1463249279
 10
-11.7882096862
 20
-24.1290768879
 10
-11.8302423004
 20
-24.1115174944
 10
-11.8708018682
 20
-24.0935025357
 10
-11.9096279772
 20
-24.0752334434
 10
-11.9464608745
 20
-24.0569772083
 10
-11.981616177
 20
-24.0386641099
 10
-12.0156836681
 20
-24.0199679738
 10
-12.0481451703
 20
-24.0012326784
 10
-12.0795421803
 20
-23.982231705
 10
-12.1119570105
 20
-23.9616275457
 10
-12.1456916459
 20
-23.9390526018
 10
-12.1802811902
 20
-23.9147124673
 10
-12.2165367476
 20
-23.8879510163
 10
-12.2548332698
 20
-23.8582314302
 10
-12.2944896304
 20
-23.8257888879
 10
-12.3347230308
 20
-23.7911120294
 10
-12.3751773783
 20
-23.7543467884
 10
-12.4159577702
 20
-23.7151801771
 10
-12.4570019307
 20
-23.673457909
 10
-12.4981392412
 20
-23.6291022134
 10
-12.5392077837
 20
-23.5820174757
 10
-12.5801263967
 20
-23.5320122741
 10
-12.6206778598
 20
-23.4790187582
 10
-12.6606571612
 20
-23.4229491252
 10
-12.6999554698
 20
-23.3635705913
 10
-12.7384005602
 20
-23.3006616558
 10
-12.7756144864
 20
-23.234316299
 10
-12.8111755563
 20
-23.1647982032
 10
-12.8452788582
 20
-23.0910718773
 10
-12.8770966288
 20
-23.0141396532
 10
-12.9051255391
 20
-22.9375443612
 10
-12.9292737449
 20
-22.8624244935
 10
-12.9500170616
 20
-22.7880402143
 10
-12.9672329025
 20
-22.715312656
 10
-12.9809299661
 20
-22.645545517
 10
-12.9916784532
 20
-22.5777844089
 10
-13.0000083639
 20
-22.5095252964
 10
-13.0059558027
 20
-22.4399754176
 10
-13.0093701647
 20
-22.3701021555
 10
-13.0102300836
 20
-22.3
  0
LWPOLYLINE
  5
29A
100
AcDbEntity
  8
RACCORDO
100
AcDbPolyline
 62
250
  6
CONTINUOUS
 90
3
 70
0
 10
-8.9022439108
 20
-25.8610708609
 10
-9.980923861
 20
-25.8485526238
 10
-11.0290353639
 20
-25.8219764832
  0
LINE
  5
29B
100
AcDbEntity
  8
RACCORDO
100
AcDbLine
 62
250
  6
CONTINUOUS
 10
-13.3436406157
 20
-22.2940286513
 11
-14.6655167194
 21
-22.2746029
  0
LINE
  5
29C
100
AcDbEntity
  8
RACCORDO
100
AcDbLine
 62
250
  6
CONTINUOUS
 10
-13.0102297819
 20
-22.3
 11
-13.3436406157
 21
-22.2940286513
  0
LWPOLYLINE
  5
29D
100
AcDbEntity
  8
RACCORDO
100
AcDbPolyline
 62
250
  6
CONTINUOUS
 90
9
 70
0
 10
-11.0290353639
 20
-25.8219764832
 10
-11.1020431395
 20
-25.8194761685
 10
-11.1755175691
 20
-25.8154337184
 10
-11.2494377133
 20
-25.8098691548
 10
-11.3239474994
 20
-25.802823276
 10
-11.3988590852
 20
-25.7942611677
 10
-11.473651191
 20
-25.7840830829
 10
-11.5483624648
 20
-25.7716842285
 10
-11.6229008296
 20
-25.7581049777
  0
LWPOLYLINE
  5
29E
100
AcDbEntity
  8
RACCORDO
100
AcDbPolyline
 62
250
  6
CONTINUOUS
 90
16
 70
0
 10
-11.6229008296
 20
-25.7581049777
 10
-11.7685289927
 20
-25.732158366
 10
-11.8396025715
 20
-25.7180194379
 10
-11.9116736655
 20
-25.7023082991
 10
-11.9850908572
 20
-25.6847903474
 10
-12.0593659038
 20
-25.6653073431
 10
-12.1350927681
 20
-25.6435088177
 10
-12.2136308748
 20
-25.6188645928
 10
-12.2934085333
 20
-25.5916381844
 10
-12.3706896955
 20
-25.5630444707
 10
-12.4442150983
 20
-25.5339611177
 10
-12.5152594769
 20
-25.5040253756
 10
-12.5839782608
 20
-25.4729491885
 10
-12.6493895688
 20
-25.4424850583
 10
-12.7125217863
 20
-25.4112229075
 10
-12.7764106709
 20
-25.3749156743
  0
LWPOLYLINE
  5
29F
100
AcDbEntity
  8
RACCORDO
100
AcDbPolyline
 62
250
  6
CONTINUOUS
 90
5
 70
0
 10
-12.7764106709
 20
-25.3749156743
 10
-12.9120580766
 20
-25.2925459509
 10
-12.9808556445
 20
-25.2499745296
 10
-13.0492540754
 20
-25.2055690036
 10
-13.1917628664
 20
-25.1104910145
  0
LWPOLYLINE
  5
2A0
100
AcDbEntity
  8
RACCORDO
100
AcDbPolyline
 62
250
  6
CONTINUOUS
 90
28
 70
0
 10
-13.1917628664
 20
-25.1104910145
 10
-13.2646249117
 20
-25.0606063849
 10
-13.3349470239
 20
-25.0077243664
 10
-13.4064746185
 20
-24.9509849739
 10
-13.4799529277
 20
-24.8898751355
 10
-13.5538445245
 20
-24.8244024917
 10
-13.62860655
 20
-24.7541979291
 10
-13.703724299
 20
-24.6790088305
 10
-13.7786748428
 20
-24.5986392933
 10
-13.8537368824
 20
-24.5127468468
 10
-13.9281022744
 20
-24.4211773288
 10
-14.0012124863
 20
-24.3237343429
 10
-14.0735018967
 20
-24.2199683483
 10
-14.1441263027
 20
-24.1095457309
 10
-14.212026025
 20
-23.9926640284
 10
-14.2771256052
 20
-23.8697168306
 10
-14.3392917768
 20
-23.73975539
 10
-14.3966530979
 20
-23.6041452701
 10
-14.4468112956
 20
-23.467153701
 10
-14.4913441686
 20
-23.330069153
 10
-14.5318551421
 20
-23.1929091965
 10
-14.5669728848
 20
-23.0581364879
 10
-14.5954119062
 20
-22.927404936
 10
-14.6192744822
 20
-22.798956974
 10
-14.6384321534
 20
-22.6697969871
 10
-14.652696837
 20
-22.5388919035
 10
-14.6618003436
 20
-22.4071766743
 10
-14.6655167061
 20
-22.2746028971
  0
LWPOLYLINE
  5
2A1
100
AcDbEntity
  8
RACCORDO
100
AcDbPolyline
 62
250
  6
CONTINUOUS
 90
5
 70
0
 10
-14.6655167061
 20
-22.2746028971
 10
-14.6789617313
 20
-21.5255446713
 10
-14.6825865464
 20
-20.7431036396
 10
-14.6818765343
 20
-19.9294646028
 10
-14.6887062784
 20
-18.2057138677
  0
LINE
  5
2A2
100
AcDbEntity
  8
RACCORDO
100
AcDbLine
 62
250
  6
CONTINUOUS
 10
-14.6887062784
 20
-18.2057138677
 11
-14.6989596861
 21
1.3883097417
  0
LINE
  5
2A3
100
AcDbEntity
  8
RACCORDO
100
AcDbLine
 62
250
  6
CONTINUOUS
 10
-14.6989596861
 20
1.3883097417
 11
-14.6929979326
 21
12.3358364715
  0
LINE
  5
2A4
100
AcDbEntity
  8
RACCORDO
100
AcDbLine
 62
250
  6
CONTINUOUS
 10
-14.6929979326
 20
12.3358364715
 11
-14.6905285246
 21
15.4067689775
  0
LINE
  5
2A5
100
AcDbEntity
  8
RACCORDO
100
AcDbLine
 62
250
  6
CONTINUOUS
 10
-14.6905285246
 20
15.4067689775
 11
-14.6886995486
 21
18.2137204135
  0
LWPOLYLINE
  5
2A6
100
AcDbEntity
  8
RACCORDO
100
AcDbPolyline
 62
250
  6
CONTINUOUS
 90
3
 70
0
 10
-14.6825549788
 20
20.7459176252
 10
-14.6789278321
 20
21.5268859667
 10
-14.6655167061
 20
22.2746028971
  0
LWPOLYLINE
  5
2A7
100
AcDbEntity
  8
RACCORDO
100
AcDbPolyline
 62
250
  6
CONTINUOUS
 90
3
 70
0
 10
-14.6886995486
 20
18.2137204135
 10
-14.6843725757
 20
19.089616035
 10
-14.6825549788
 20
20.7459176252
  0
LWPOLYLINE
  5
2A8
100
AcDbEntity
  8
RACCORDO
100
AcDbPolyline
 62
250
  6
CONTINUOUS
 90
29
 70
0
 10
-14.6655167061
 20
22.2746028971
 10
-14.6617974475
 20
22.4067680297
 10
-14.6527487532
 20
22.5380331247
 10
-14.6385943067
 20
22.6684462835
 10
-14.6195976929
 20
22.7971843715
 10
-14.5959449294
 20
22.9251673099
 10
-14.5677696216
 20
23.0550552883
 10
-14.5330659963
 20
23.1881281579
 10
-14.4932283033
 20
23.3232259839
 10
-14.4495938646
 20
23.459005986
 10
-14.3999988282
 20
23.595860246
 10
-14.3427517999
 20
23.7320798709
 10
-14.2803792995
 20
23.8632437212
 10
-14.2145881302
 20
23.9881585774
 10
-14.1454356068
 20
24.1074793533
 10
-14.0734628982
 20
24.2200173651
 10
-13.9999761124
 20
24.3254216852
 10
-13.9257295341
 20
24.4242123136
 10
-13.8504391703
 20
24.5166451525
 10
-13.7748664955
 20
24.6028335297
 10
-13.6997830998
 20
24.6831135132
 10
-13.6246914968
 20
24.7580306402
 10
-13.5501168848
 20
24.8277670719
 10
-13.4766186613
 20
24.892633787
 10
-13.4035148994
 20
24.9532559992
 10
-13.3322351424
 20
25.0097269907
 10
-13.2621038068
 20
25.0624320805
 10
-13.1894747599
 20
25.1121267296
 10
-13.0476228283
 20
25.2067565858
  0
LWPOLYLINE
  5
2A9
100
AcDbEntity
  8
RACCORDO
100
AcDbPolyline
 62
250
  6
CONTINUOUS
 90
3
 70
0
 10
-11.0499999999
 20
-24.2738317318
 10
-11.0311565578
 20
-25.6364955561
 10
-11.0290353799
 20
-25.8219766896
  0
LINE
  5
2AA
100
AcDbEntity
  8
0
100
AcDbLine
 62
250
  6
CONTINUOUS
 10
-11.4208729243
 20
22.3
 11
-11.4208729243
 21
-22.3
  0
LINE
  5
2AB
100
AcDbEntity
  8
0
100
AcDbLine
 62
7
  6
CONTINUOUS
 10
-11.35
 20
-22.3
 11
-11.35
 21
22.3
  0
LINE
  5
2AC
100
AcDbEntity
  8
0
100
AcDbLine
 62
7
  6
CONTINUOUS
 10
-11.25
 20
-22.3
 11
-11.25
 21
22.3
  0
LINE
  5
2AD
100
AcDbEntity
  8
0
100
AcDbLine
 62
250
  6
CONTINUOUS
 10
-11.05
 20
-22.6708729243
 11
-11.05
 21
-22.5
  0
LINE
  5
2AE
100
AcDbEntity
  8
RACCORDO
100
AcDbLine
 62
250
  6
CONTINUOUS
 10
-11.05
 20
-22.6708729243
 11
-11.05
 21
-24.2738312926
  0
LINE
  5
2AF
100
AcDbEntity
  8
0
100
AcDbLine
 62
250
  6
CONTINUOUS
 10
-11.05
 20
22.5
 11
-11.05
 21
22.6708729243
  0
LINE
  5
2B0
100
AcDbEntity
  8
RACCORDO
100
AcDbLine
 62
250
  6
CONTINUOUS
 10
-11.05
 20
22.6708729243
 11
-11.05
 21
24.2738312926
  0
LINE
  5
2B1
100
AcDbEntity
  8
RACCORDO
100
AcDbLine
 62
250
  6
CONTINUOUS
 10
-13.0102300836
 20
-22.3
 11
-13.0102300836
 21
22.3
  0
LWPOLYLINE
  5
2B2
100
AcDbEntity
  8
RACCORDO
100
AcDbPolyline
 62
250
  6
CONTINUOUS
 90
58
 70
0
 10
-13.0102300836
 20
22.3
 10
-13.0093715805
 20
22.3699626192
 10
-13.0059763261
 20
22.4396129777
 10
-13.0000745152
 20
22.508858074
 10
-12.9918268132
 20
22.576726306
 10
-12.9812042237
 20
22.6440195276
 10
-12.967680779
 20
22.7132640415
 10
-12.9507169397
 20
22.7853355344
 10
-12.930297309
 20
22.8590200695
 10
-12.9064607691
 20
22.9336634432
 10
-12.8787060598
 20
23.010002114
 10
-12.8471021329
 20
23.0868889782
 10
-12.8130077842
 20
23.1610145038
 10
-12.7770555128
 20
23.2316182983
 10
-12.7391238108
 20
23.2994276153
 10
-12.6999348881
 20
23.3636063149
 10
-12.6599863395
 20
23.423926765
 10
-12.6193853416
 20
23.4807658613
 10
-12.5783397878
 20
23.5342638078
 10
-12.5371432255
 20
23.584454804
 10
-12.4959793927
 20
23.6315000133
 10
-12.4548414258
 20
23.6757173581
 10
-12.4138850651
 20
23.7172230381
 10
-12.3733026699
 20
23.7560902582
 10
-12.3330919868
 20
23.792546398
 10
-12.2931638723
 20
23.8268948618
 10
-12.2538601476
 20
23.8590045697
 10
-12.2158395476
 20
23.8884810008
 10
-12.1797440784
 20
23.9151061878
 10
-12.1452240636
 20
23.9393838249
 10
-12.1114334385
 20
23.9619778965
 10
-12.0787415181
 20
23.9827260862
 10
-12.0469310689
 20
24.0019344468
 10
-12.0141625943
 20
24.0208024311
 10
-11.9801656338
 20
24.0394239808
 10
-11.9451999112
 20
24.0576109611
 10
-11.9081141287
 20
24.0759635783
 10
-11.8681908523
 20
24.0946971954
 10
-11.8260563766
 20
24.1133203363
 10
-11.7825641381
 20
24.1313548599
 10
-11.7374044116
 20
24.1488406695
 10
-11.6908747018
 20
24.1655666454
 10
-11.6448182926
 20
24.1808716013
 10
-11.599745849
 20
24.194679777
 10
-11.5552440014
 20
24.2071996324
 10
-11.5118236334
 20
24.2183652143
 10
-11.4698578154
 20
24.2282047427
 10
-11.4290611714
 20
24.2368760643
 10
-11.3889558934
 20
24.2445057129
 10
-11.349542112
 20
24.2511411845
 10
-11.3108755419
 20
24.2568342805
 10
-11.2725518667
 20
24.2616596033
 10
-11.234450504
 20
24.2656430524
 10
-11.1967328442
 20
24.2688024799
 10
-11.1594128406
 20
24.271175025
 10
-11.1225059498
 20
24.2727894965
 10
-11.0860299405
 20
24.2736666308
 10
-11.05
 20
24.2738312926
  0
LWPOLYLINE
  5
2B3
100
AcDbEntity
  8
RACCORDO
100
AcDbPolyline
 62
250
  6
CONTINUOUS
 90
3
 70
0
 10
-11.05
 20
24.2738308049
 10
-11.0475458969
 20
24.4261110653
 10
-11.0290353605
 20
25.8219764414
  0
LINE
  5
2B4
100
AcDbEntity
  8
RACCORDO
100
AcDbLine
 62
250
  6
CONTINUOUS
 10
-0.500122611
 20
-25.3072065287
 11
-0.4985241784
 21
-25.8774274534
  0
LINE
  5
2B5
100
AcDbEntity
  8
RACCORDO
100
AcDbLine
 62
250
  6
CONTINUOUS
 10
0.500122611
 20
25.3072065287
 11
0.4985241784
 21
25.8774274534
  0
LWPOLYLINE
  5
2B6
100
AcDbEntity
  8
0
100
AcDbPolyline
 62
7
  6
CONTINUOUS
 90
4
 70
0
 43
0.3500000006
 10
-2.3571427875
 20
49.1790004578
 10
-2.3571427875
 20
50.0361429291
 10
-1.9285714102
 20
50.4647164307
 10
-1.2857142735
 20
50.4647164307
  0
LINE
  5
2B7
100
AcDbEntity
  8
RACCORDO
100
AcDbLine
 62
250
  6
CONTINUOUS
 10
-0.4970483567
 20
24.2736779886
 11
-0.5002581568
 21
39.5935751426
  0
LWPOLYLINE
  5
2B8
100
AcDbEntity
  8
0
100
AcDbPolyline
 62
7
  6
CONTINUOUS
 90
13
 70
0
 43
0.3500000006
 10
0.0
 20
49.6075739594
 10
0.0
 20
50.8932854004
 10
0.2142857063
 20
51.321858902
 10
0.6428571367
 20
51.7504324036
 10
0.8571428254
 20
51.7504324036
 10
1.2857142735
 20
51.321858902
 10
1.5000000329
 20
50.8932854004
 10
1.5000000329
 20
49.6075739594
 10
1.2857142735
 20
49.1790004578
 10
0.8571428254
 20
48.750431488
 10
0.6428571367
 20
48.750431488
 10
0.2142857063
 20
49.1790004578
 10
0.0
 20
49.6075739594
  0
LINE
  5
2B9
100
AcDbEntity
  8
RACCORDO
100
AcDbLine
 62
250
  6
CONTINUOUS
 10
0.4970483567
 20
-24.2736779886
 11
0.5002581568
 21
-39.5935751426
  0
LINE
  5
2BA
100
AcDbEntity
  8
RACCORDO
100
AcDbLine
 62
250
  6
CONTINUOUS
 10
-0.4970483567
 20
-24.2736779886
 11
-0.500122611
 21
-25.3072065287
  0
LINE
  5
2BB
100
AcDbEntity
  8
RACCORDO
100
AcDbLine
 62
250
  6
CONTINUOUS
 10
-0.5002581568
 20
-39.5935751426
 11
-0.5
 21
-25.8774300148
  0
LINE
  5
2BC
100
AcDbEntity
  8
RACCORDO
100
AcDbLine
 62
250
  6
CONTINUOUS
 10
0.5002581568
 20
39.5935751426
 11
0.5
 21
25.8774300148
  0
LINE
  5
2BD
100
AcDbEntity
  8
RACCORDO
100
AcDbLine
 62
250
  6
CONTINUOUS
 10
0.4970483567
 20
24.2736779886
 11
0.500122611
 21
25.3072065287
  0
LINE
  5
2BE
100
AcDbEntity
  8
RACCORDO
100
AcDbLine
 62
250
  6
CONTINUOUS
 10
-39.6088693123
 20
-36.620285218
 11
-40.0
 21
-37.0114159057
  0
LINE
  5
2BF
100
AcDbEntity
  8
RACCORDO
100
AcDbLine
 62
250
  6
CONTINUOUS
 10
36.6193683442
 20
39.6079524384
 11
37.0114159057
 21
40.0
  0
LINE
  5
2C0
100
AcDbEntity
  8
RACCORDO
100
AcDbLine
 62
250
  6
CONTINUOUS
 10
12.9942539519
 20
-0.00343144
 11
14.698402119
 21
-0.0
  0
LINE
  5
2C1
100
AcDbEntity
  8
RACCORDO
100
AcDbLine
 62
250
  6
CONTINUOUS
 10
-12.9942539519
 20
0.00343144
 11
-14.698402119
 21
0.0
  0
LINE
  5
2C2
100
AcDbEntity
  8
RACCORDO
100
AcDbLine
 62
250
  6
CONTINUOUS
 10
-39.602887106
 20
-0.0003854979
 11
-14.698402119
 21
0.0
  0
LINE
  5
2C3
100
AcDbEntity
  8
RACCORDO
100
AcDbLine
 62
250
  6
CONTINUOUS
 10
39.602887106
 20
0.0003854979
 11
14.698402119
 21
0.0
  0
LINE
  5
2C4
100
AcDbEntity
  8
RACCORDO
100
AcDbLine
 62
250
  6
CONTINUOUS
 10
36.6193683442
 20
-39.6079524384
 11
37.0114159057
 21
-40.0
  0
LINE
  5
2C5
100
AcDbEntity
  8
RACCORDO
100
AcDbLine
 62
250
  6
CONTINUOUS
 10
-39.6088693123
 20
36.620285218
 11
-40.0
 21
37.0114159057
  0
LINE
  5
2C6
100
AcDbEntity
  8
RACCORDO
100
AcDbLine
 62
250
  6
CONTINUOUS
 10
-36.6193683442
 20
-39.6079524384
 11
-37.0114159057
 21
-40.0
  0
LINE
  5
2C7
100
AcDbEntity
  8
RACCORDO
100
AcDbLine
 62
250
  6
CONTINUOUS
 10
39.6088693123
 20
36.620285218
 11
40.0
 21
37.0114159057
  0
LINE
  5
2C8
100
AcDbEntity
  8
RACCORDO
100
AcDbLine
 62
250
  6
CONTINUOUS
 10
39.6088693123
 20
-36.620285218
 11
40.0
 21
-37.0114159057
  0
LINE
  5
2C9
100
AcDbEntity
  8
RACCORDO
100
AcDbLine
 62
250
  6
CONTINUOUS
 10
-36.6193683442
 20
39.6079524384
 11
-37.0114159057
 21
40.0
  0
LWPOLYLINE
  5
2CA
100
AcDbEntity
  8
RACCORDO
100
AcDbPolyline
 62
250
  6
CONTINUOUS
 90
5
 70
0
 10
14.6655167061
 20
22.2746028971
 10
14.6789617313
 20
21.5255446713
 10
14.6825865464
 20
20.7431036396
 10
14.6818765343
 20
19.9294646028
 10
14.6887062784
 20
18.2057138677
  0
LWPOLYLINE
  5
2CB
100
AcDbEntity
  8
RACCORDO
100
AcDbPolyline
 62
250
  6
CONTINUOUS
 90
3
 70
0
 10
11.0499999999
 20
24.2738317318
 10
11.0311565578
 20
25.6364955561
 10
11.0290353799
 20
25.8219766896
  0
LINE
  5
2CC
100
AcDbEntity
  8
RACCORDO
100
AcDbLine
 62
250
  6
CONTINUOUS
 10
12.9942525297
 20
-0.0000001107
 11
13.0102300836
 21
-22.3
  0
LINE
  5
2CD
100
AcDbEntity
  8
0
100
AcDbLine
 62
250
  6
CONTINUOUS
 10
11.05
 20
-22.5
 11
11.05
 21
-22.6708729243
  0
LINE
  5
2CE
100
AcDbEntity
  8
RACCORDO
100
AcDbLine
 62
250
  6
CONTINUOUS
 10
11.05
 20
-22.6708729243
 11
11.05
 21
-24.2738312926
  0
LINE
  5
2CF
100
AcDbEntity
  8
0
100
AcDbLine
 62
250
  6
CONTINUOUS
 10
11.05
 20
22.5
 11
11.05
 21
22.6708729243
  0
LINE
  5
2D0
100
AcDbEntity
  8
RACCORDO
100
AcDbLine
 62
250
  6
CONTINUOUS
 10
11.05
 20
22.6708729243
 11
11.05
 21
24.2738312926
  0
LINE
  5
2D1
100
AcDbEntity
  8
0
100
AcDbLine
 62
7
  6
CONTINUOUS
 10
11.25
 20
22.3
 11
11.25
 21
-22.3
  0
LINE
  5
2D2
100
AcDbEntity
  8
0
100
AcDbLine
 62
7
  6
CONTINUOUS
 10
11.35
 20
22.3
 11
11.35
 21
-22.3
  0
LINE
  5
2D3
100
AcDbEntity
  8
0
100
AcDbLine
 62
250
  6
CONTINUOUS
 10
11.4208729243
 20
-22.3
 11
11.4208729243
 21
22.2999998638
  0
LINE
  5
2D4
100
AcDbEntity
  8
RACCORDO
100
AcDbLine
 62
250
  6
CONTINUOUS
 10
14.6887062784
 20
18.2057138677
 11
14.6989596861
 21
-1.3883097417
  0
LINE
  5
2D5
100
AcDbEntity
  8
RACCORDO
100
AcDbLine
 62
250
  6
CONTINUOUS
 10
14.6989596861
 20
-1.3883097417
 11
14.6929979326
 21
-12.3358364715
  0
LWPOLYLINE
  5
2D6
100
AcDbEntity
  8
RACCORDO
100
AcDbPolyline
 62
250
  6
CONTINUOUS
 90
3
 70
0
 10
14.6929979326
 20
-12.3358364715
 10
14.6905285246
 20
-15.4067689775
 10
14.6886995486
 20
-18.2137204135
  0
LINE
  5
2D7
100
AcDbEntity
  8
RACCORDO
100
AcDbLine
 62
250
  6
CONTINUOUS
 10
13.0102300836
 20
22.3
 11
12.9942525297
 21
-0.0000001107
  0
LWPOLYLINE
  5
2D8
100
AcDbEntity
  8
RACCORDO
100
AcDbPolyline
 62
250
  6
CONTINUOUS
 90
3
 70
0
 10
14.6825549788
 20
-20.7459176252
 10
14.6789278321
 20
-21.5268859667
 10
14.6655167061
 20
-22.2746028971
  0
LWPOLYLINE
  5
2D9
100
AcDbEntity
  8
RACCORDO
100
AcDbPolyline
 62
250
  6
CONTINUOUS
 90
3
 70
0
 10
14.6886995486
 20
-18.2137204135
 10
14.6843725757
 20
-19.089616035
 10
14.6825549788
 20
-20.7459176252
  0
LWPOLYLINE
  5
2DA
100
AcDbEntity
  8
RACCORDO
100
AcDbPolyline
 62
250
  6
CONTINUOUS
 90
58
 70
0
 10
13.0102300836
 20
-22.3
 10
13.0093715805
 20
-22.3699626192
 10
13.0059763261
 20
-22.4396129777
 10
13.0000745152
 20
-22.508858074
 10
12.9918268132
 20
-22.576726306
 10
12.9812042237
 20
-22.6440195276
 10
12.967680779
 20
-22.7132640415
 10
12.9507169397
 20
-22.7853355344
 10
12.930297309
 20
-22.8590200695
 10
12.9064607691
 20
-22.9336634432
 10
12.8787060598
 20
-23.010002114
 10
12.8471021329
 20
-23.0868889782
 10
12.8130077842
 20
-23.1610145038
 10
12.7770555128
 20
-23.2316182983
 10
12.7391238108
 20
-23.2994276153
 10
12.6999348881
 20
-23.3636063149
 10
12.6599863395
 20
-23.423926765
 10
12.6193853416
 20
-23.4807658613
 10
12.5783397878
 20
-23.5342638078
 10
12.5371432255
 20
-23.584454804
 10
12.4959793927
 20
-23.6315000133
 10
12.4548414258
 20
-23.6757173581
 10
12.4138850651
 20
-23.7172230381
 10
12.3733026699
 20
-23.7560902582
 10
12.3330919868
 20
-23.792546398
 10
12.2931638723
 20
-23.8268948618
 10
12.2538601476
 20
-23.8590045697
 10
12.2158395476
 20
-23.8884810008
 10
12.1797440784
 20
-23.9151061878
 10
12.1452240636
 20
-23.9393838249
 10
12.1114334385
 20
-23.9619778965
 10
12.0787415181
 20
-23.9827260862
 10
12.0469310689
 20
-24.0019344468
 10
12.0141625943
 20
-24.0208024311
 10
11.9801656338
 20
-24.0394239808
 10
11.9451999112
 20
-24.0576109611
 10
11.9081141287
 20
-24.0759635783
 10
11.8681908523
 20
-24.0946971954
 10
11.8260563766
 20
-24.1133203363
 10
11.7825641381
 20
-24.1313548599
 10
11.7374044116
 20
-24.1488406695
 10
11.6908747018
 20
-24.1655666454
 10
11.6448182926
 20
-24.1808716013
 10
11.599745849
 20
-24.194679777
 10
11.5552440014
 20
-24.2071996324
 10
11.5118236334
 20
-24.2183652143
 10
11.4698578154
 20
-24.2282047427
 10
11.4290611714
 20
-24.2368760643
 10
11.3889558934
 20
-24.2445057129
 10
11.349542112
 20
-24.2511411845
 10
11.3108755419
 20
-24.2568342805
 10
11.2725518667
 20
-24.2616596033
 10
11.234450504
 20
-24.2656430524
 10
11.1967328442
 20
-24.2688024799
 10
11.1594128406
 20
-24.271175025
 10
11.1225059498
 20
-24.2727894965
 10
11.0860299405
 20
-24.2736666308
 10
11.05
 20
-24.2738312926
  0
LWPOLYLINE
  5
2DB
100
AcDbEntity
  8
RACCORDO
100
AcDbPolyline
 62
250
  6
CONTINUOUS
 90
3
 70
0
 10
11.05
 20
-24.2738308049
 10
11.0475458969
 20
-24.4261110653
 10
11.0290353605
 20
-25.8219764414
  0
LWPOLYLINE
  5
2DC
100
AcDbEntity
  8
RACCORDO
100
AcDbPolyline
 62
250
  6
CONTINUOUS
 90
29
 70
0
 10
14.6655167061
 20
-22.2746028971
 10
14.6617974475
 20
-22.4067680297
 10
14.6527487532
 20
-22.5380331247
 10
14.6385943067
 20
-22.6684462835
 10
14.6195976929
 20
-22.7971843715
 10
14.5959449294
 20
-22.9251673099
 10
14.5677696216
 20
-23.0550552883
 10
14.5330659963
 20
-23.1881281579
 10
14.4932283033
 20
-23.3232259839
 10
14.4495938646
 20
-23.459005986
 10
14.3999988282
 20
-23.595860246
 10
14.3427517999
 20
-23.7320798709
 10
14.2803792995
 20
-23.8632437212
 10
14.2145881302
 20
-23.9881585774
 10
14.1454356068
 20
-24.1074793533
 10
14.0734628982
 20
-24.2200173651
 10
13.9999761124
 20
-24.3254216852
 10
13.9257295341
 20
-24.4242123136
 10
13.8504391703
 20
-24.5166451525
 10
13.7748664955
 20
-24.6028335297
 10
13.6997830998
 20
-24.6831135132
 10
13.6246914968
 20
-24.7580306402
 10
13.5501168848
 20
-24.8277670719
 10
13.4766186613
 20
-24.892633787
 10
13.4035148994
 20
-24.9532559992
 10
13.3322351424
 20
-25.0097269907
 10
13.2621038068
 20
-25.0624320805
 10
13.1894747599
 20
-25.1121267296
 10
13.0476228283
 20
-25.2067565858
  0
LINE
  5
2DD
100
AcDbEntity
  8
RACCORDO
100
AcDbLine
 62
250
  6
CONTINUOUS
 10
-13.0102301925
 20
22.3
 11
-14.2726447012
 21
22.2797757475
  0
LINE
  5
2DE
100
AcDbEntity
  8
RACCORDO
100
AcDbLine
 62
250
  6
CONTINUOUS
 10
-14.2726447012
 20
22.2797757475
 11
-14.6655167316
 21
22.2746029027
  0
LINE
  5
2DF
100
AcDbEntity
  8
0
100
AcDbLine
 62
250
  6
CONTINUOUS
 10
-11.25
 20
22.3
 11
-11.4208729243
 21
22.3
  0
LINE
  5
2E0
100
AcDbEntity
  8
RACCORDO
100
AcDbLine
 62
250
  6
CONTINUOUS
 10
11.4208729243
 20
22.3
 11
13.0102300836
 21
22.3
  0
LINE
  5
2E1
100
AcDbEntity
  8
RACCORDO
100
AcDbLine
 62
250
  6
CONTINUOUS
 10
-11.4208729243
 20
22.3
 11
-13.0102300836
 21
22.3
  0
LINE
  5
2E2
100
AcDbEntity
  8
0
100
AcDbLine
 62
250
  6
CONTINUOUS
 10
11.25
 20
22.3
 11
11.4208729243
 21
22.2999998638
  0
LINE
  5
2E3
100
AcDbEntity
  8
0
100
AcDbLine
 62
7
  6
CONTINUOUS
 10
-11.05
 20
22.5
 11
11.05
 21
22.5
  0
LINE
  5
2E4
100
AcDbEntity
  8
0
100
AcDbLine
 62
7
  6
CONTINUOUS
 10
-11.05
 20
22.6
 11
11.05
 21
22.6
  0
LINE
  5
2E5
100
AcDbEntity
  8
0
100
AcDbLine
 62
250
  6
CONTINUOUS
 10
11.05
 20
22.6708729243
 11
-11.05
 21
22.6708729243
  0
LINE
  5
2E6
100
AcDbEntity
  8
RACCORDO
100
AcDbLine
 62
250
  6
CONTINUOUS
 10
13.3436406157
 20
22.2940286513
 11
14.6655167194
 21
22.2746029
  0
LINE
  5
2E7
100
AcDbEntity
  8
RACCORDO
100
AcDbLine
 62
250
  6
CONTINUOUS
 10
13.0102297819
 20
22.3
 11
13.3436406157
 21
22.2940286513
  0
LWPOLYLINE
  5
2E8
100
AcDbEntity
  8
RACCORDO
100
AcDbPolyline
 62
250
  6
CONTINUOUS
 90
3
 70
0
 10
13.0476228283
 20
-25.2067565858
 10
12.9793622011
 20
-25.2510120081
 10
12.9105408857
 20
-25.2934812886
  0
LWPOLYLINE
  5
2E9
100
AcDbEntity
  8
RACCORDO
100
AcDbPolyline
 62
250
  6
CONTINUOUS
 90
16
 70
0
 10
12.9105408857
 20
-25.2934812886
 10
12.7743663207
 20
-25.3759446824
 10
12.7099318342
 20
-25.4125634454
 10
12.6460559433
 20
-25.4441808406
 10
12.5795934809
 20
-25.4750895297
 10
12.509373424
 20
-25.5066619906
 10
12.4365017581
 20
-25.5371021153
 10
12.3611076798
 20
-25.5666362981
 10
12.282047601
 20
-25.5956008927
 10
12.2004558333
 20
-25.623132586
 10
12.1199745538
 20
-25.6480309515
 10
12.0419897552
 20
-25.6700486598
 10
11.965332239
 20
-25.6896639401
 10
11.889883857
 20
-25.707186741
 10
11.816127214
 20
-25.7229331273
 10
11.7437323564
 20
-25.737059163
  0
LWPOLYLINE
  5
2EA
100
AcDbEntity
  8
RACCORDO
100
AcDbPolyline
 62
250
  6
CONTINUOUS
 90
10
 70
0
 10
-11.7437323564
 20
25.737059163
 10
-11.5984403958
 20
25.7622843818
 10
-11.5255610669
 20
25.7753508784
 10
-11.4528977683
 20
25.7871097139
 10
-11.3803266996
 20
25.7966118062
 10
-11.3080250883
 20
25.80446741
 10
-11.2366616608
 20
25.8109077521
 10
-11.1664707489
 20
25.8160151567
 10
-11.0972560397
 20
25.8197099755
 10
-11.0290353639
 20
25.8219764832
  0
LWPOLYLINE
  5
2EB
100
AcDbEntity
  8
RACCORDO
100
AcDbPolyline
 62
250
  6
CONTINUOUS
 90
3
 70
0
 10
-11.0290353639
 20
25.8219764832
 10
-9.9800418148
 20
25.8485792399
 10
-8.9004253097
 20
25.8610999492
  0
LINE
  5
2EC
100
AcDbEntity
  8
RACCORDO
100
AcDbLine
 62
250
  6
CONTINUOUS
 10
-1.7808090149
 20
25.8714400591
 11
-0.5
 21
25.8774300241
  0
LWPOLYLINE
  5
2ED
100
AcDbEntity
  8
RACCORDO
100
AcDbPolyline
 62
250
  6
CONTINUOUS
 90
3
 70
0
 10
-8.9004253097
 20
25.8610999492
 10
-4.2709769668
 20
25.8762255791
 10
-1.7808090149
 20
25.8714400591
  0
LINE
  5
2EE
100
AcDbEntity
  8
RACCORDO
100
AcDbLine
 62
250
  6
CONTINUOUS
 10
-0.4985241784
 20
25.8774274534
 11
0.4985241784
 21
25.8774274534
  0
LINE
  5
2EF
100
AcDbEntity
  8
RACCORDO
100
AcDbLine
 62
250
  6
CONTINUOUS
 10
0.4970483567
 20
24.2736779886
 11
11.05
 21
24.2738312926
  0
LWPOLYLINE
  5
2F0
100
AcDbEntity
  8
RACCORDO
100
AcDbPolyline
 62
250
  6
CONTINUOUS
 90
3
 70
0
 10
4.2770794693
 20
25.8762196976
 10
5.4808417607
 20
25.8752459245
 10
8.9022439108
 20
25.8610708609
  0
LINE
  5
2F1
100
AcDbEntity
  8
RACCORDO
100
AcDbLine
 62
250
  6
CONTINUOUS
 10
-11.05
 20
24.2738312926
 11
0.4970483567
 21
24.2736779886
  0
LWPOLYLINE
  5
2F2
100
AcDbEntity
  8
RACCORDO
100
AcDbPolyline
 62
250
  6
CONTINUOUS
 90
3
 70
0
 10
0.5
 20
25.8774300148
 10
1.7838413626
 20
25.8714465089
 10
4.2770794693
 20
25.8762196976
  0
LWPOLYLINE
  5
2F3
100
AcDbEntity
  8
RACCORDO
100
AcDbPolyline
 62
250
  6
CONTINUOUS
 90
58
 70
0
 10
11.05
 20
24.2738312926
 10
11.0884206089
 20
24.2736327419
 10
11.1270991099
 20
24.2726315703
 10
11.1660176272
 20
24.2708124311
 10
11.2052350638
 20
24.268156369
 10
11.2446546332
 20
24.2646494884
 10
11.2840247985
 20
24.2602984749
 10
11.3229862047
 20
24.255137937
 10
11.3618615026
 20
24.2491473358
 10
11.4014176118
 20
24.2422179782
 10
11.4418710113
 20
24.2342517707
 10
11.4829482097
 20
24.2252431963
 10
11.5246742551
 20
24.2151713356
 10
11.5669822818
 20
24.2040066249
 10
11.6098738582
 20
24.1916783268
 10
11.6534717835
 20
24.1780891302
 10
11.6984828735
 20
24.1629178589
 10
11.7440971924
 20
24.1463249279
 10
11.7882096862
 20
24.1290768879
 10
11.8302423004
 20
24.1115174944
 10
11.8708018682
 20
24.0935025357
 10
11.9096279772
 20
24.0752334434
 10
11.9464608745
 20
24.0569772083
 10
11.981616177
 20
24.0386641099
 10
12.0156836681
 20
24.0199679738
 10
12.0481451703
 20
24.0012326784
 10
12.0795421803
 20
23.982231705
 10
12.1119570105
 20
23.9616275457
 10
12.1456916459
 20
23.9390526018
 10
12.1802811902
 20
23.9147124673
 10
12.2165367476
 20
23.8879510163
 10
12.2548332698
 20
23.8582314302
 10
12.2944896304
 20
23.8257888879
 10
12.3347230308
 20
23.7911120294
 10
12.3751773783
 20
23.7543467884
 10
12.4159577702
 20
23.7151801771
 10
12.4570019307
 20
23.673457909
 10
12.4981392412
 20
23.6291022134
 10
12.5392077837
 20
23.5820174757
 10
12.5801263967
 20
23.5320122741
 10
12.6206778598
 20
23.4790187582
 10
12.6606571612
 20
23.4229491252
 10
12.6999554698
 20
23.3635705913
 10
12.7384005602
 20
23.3006616558
 10
12.7756144864
 20
23.234316299
 10
12.8111755563
 20
23.1647982032
 10
12.8452788582
 20
23.0910718773
 10
12.8770966288
 20
23.0141396532
 10
12.9051255391
 20
22.9375443612
 10
12.9292737449
 20
22.8624244935
 10
12.9500170616
 20
22.7880402143
 10
12.9672329025
 20
22.715312656
 10
12.9809299661
 20
22.645545517
 10
12.9916784532
 20
22.5777844089
 10
13.0000083639
 20
22.5095252964
 10
13.0059558027
 20
22.4399754176
 10
13.0093701647
 20
22.3701021555
 10
13.0102300836
 20
22.3
  0
LWPOLYLINE
  5
2F4
100
AcDbEntity
  8
RACCORDO
100
AcDbPolyline
 62
250
  6
CONTINUOUS
 90
3
 70
0
 10
8.9022439108
 20
25.8610708609
 10
9.980923861
 20
25.8485526238
 10
11.0290353639
 20
25.8219764832
  0
LWPOLYLINE
  5
2F5
100
AcDbEntity
  8
RACCORDO
100
AcDbPolyline
 62
250
  6
CONTINUOUS
 90
9
 70
0
 10
11.0290353639
 20
25.8219764832
 10
11.1020431395
 20
25.8194761685
 10
11.1755175691
 20
25.8154337184
 10
11.2494377133
 20
25.8098691548
 10
11.3239474994
 20
25.802823276
 10
11.3988590852
 20
25.7942611677
 10
11.473651191
 20
25.7840830829
 10
11.5483624648
 20
25.7716842285
 10
11.6229008296
 20
25.7581049777
  0
LWPOLYLINE
  5
2F6
100
AcDbEntity
  8
RACCORDO
100
AcDbPolyline
 62
250
  6
CONTINUOUS
 90
16
 70
0
 10
11.6229008296
 20
25.7581049777
 10
11.7685289927
 20
25.732158366
 10
11.8396025715
 20
25.7180194379
 10
11.9116736655
 20
25.7023082991
 10
11.9850908572
 20
25.6847903474
 10
12.0593659038
 20
25.6653073431
 10
12.1350927681
 20
25.6435088177
 10
12.2136308748
 20
25.6188645928
 10
12.2934085333
 20
25.5916381844
 10
12.3706896955
 20
25.5630444707
 10
12.4442150983
 20
25.5339611177
 10
12.5152594769
 20
25.5040253756
 10
12.5839782608
 20
25.4729491885
 10
12.6493895688
 20
25.4424850583
 10
12.7125217863
 20
25.4112229076
 10
12.7764106709
 20
25.3749156743
  0
LWPOLYLINE
  5
2F7
100
AcDbEntity
  8
RACCORDO
100
AcDbPolyline
 62
250
  6
CONTINUOUS
 90
5
 70
0
 10
12.7764106709
 20
25.3749156743
 10
12.9120580766
 20
25.2925459509
 10
12.9808556445
 20
25.2499745296
 10
13.0492540754
 20
25.2055690036
 10
13.1917628664
 20
25.1104910145
  0
LWPOLYLINE
  5
2F8
100
AcDbEntity
  8
RACCORDO
100
AcDbPolyline
 62
250
  6
CONTINUOUS
 90
28
 70
0
 10
13.1917628664
 20
25.1104910145
 10
13.2646249117
 20
25.0606063849
 10
13.3349470239
 20
25.0077243664
 10
13.4064746185
 20
24.9509849739
 10
13.4799529277
 20
24.8898751355
 10
13.5538445245
 20
24.8244024917
 10
13.62860655
 20
24.7541979291
 10
13.703724299
 20
24.6790088305
 10
13.7786748428
 20
24.5986392933
 10
13.8537368824
 20
24.5127468468
 10
13.9281022744
 20
24.4211773288
 10
14.0012124863
 20
24.3237343429
 10
14.0735018967
 20
24.2199683483
 10
14.1441263027
 20
24.1095457309
 10
14.212026025
 20
23.9926640284
 10
14.2771256052
 20
23.8697168306
 10
14.3392917768
 20
23.73975539
 10
14.3966530979
 20
23.6041452701
 10
14.4468112956
 20
23.467153701
 10
14.4913441686
 20
23.330069153
 10
14.5318551421
 20
23.1929091965
 10
14.5669728848
 20
23.0581364879
 10
14.5954119062
 20
22.927404936
 10
14.6192744822
 20
22.798956974
 10
14.6384321534
 20
22.6697969871
 10
14.652696837
 20
22.5388919035
 10
14.6618003436
 20
22.4071766743
 10
14.6655167061
 20
22.2746028971
  0
LINE
  5
2F9
100
AcDbEntity
  8
0
100
AcDbLine
 62
7
  6
CONTINUOUS
 10
39.9619654493
 20
3.706070796
 11
39.8630572237
 21
3.5572341992
  0
LINE
  5
2FA
100
AcDbEntity
  8
RACCORDO
100
AcDbLine
 62
250
  6
CONTINUOUS
 10
-39.1680772888
 20
36.6442067735
 11
-38.9697909584
 21
36.6478676512
  0
LINE
  5
2FB
100
AcDbEntity
  8
RACCORDO
100
AcDbLine
 62
250
  6
CONTINUOUS
 10
-38.9697909584
 20
36.6478676512
 11
-38.7537114635
 21
36.6501543164
  0
LINE
  5
2FC
100
AcDbEntity
  8
RACCORDO
100
AcDbLine
 62
250
  6
CONTINUOUS
 10
38.9697969818
 20
36.6478678749
 11
38.7537121092
 21
36.6501544534
  0
LINE
  5
2FD
100
AcDbEntity
  8
0
100
AcDbLine
 62
7
  6
CONTINUOUS
 10
39.8630572237
 20
-3.5572341992
 11
39.9619654493
 21
-3.706070796
  0
LINE
  5
2FE
100
AcDbEntity
  8
RACCORDO
100
AcDbLine
 62
250
  6
CONTINUOUS
 10
38.7647051076
 20
36.362284448
 11
38.7704893194
 21
36.2412415897
  0
LINE
  5
2FF
100
AcDbEntity
  8
RACCORDO
100
AcDbLine
 62
250
  6
CONTINUOUS
 10
38.7592253544
 20
36.4956852124
 11
38.7647051076
 21
36.362284448
  0
LWPOLYLINE
  5
300
100
AcDbEntity
  8
RACCORDO
100
AcDbPolyline
 62
250
  6
CONTINUOUS
 90
5
 70
0
 10
38.7704893194
 20
36.2412415897
 10
38.7736768869
 20
36.1633316323
 10
38.7747935862
 20
36.1245594419
 10
38.7752979007
 20
36.0855379161
 10
38.8190967314
 20
28.609047311
  0
LINE
  5
301
100
AcDbEntity
  8
RACCORDO
100
AcDbLine
 62
250
  6
CONTINUOUS
 10
38.7537121092
 20
36.6501544534
 11
38.7592253544
 21
36.4956852124
  0
LINE
  5
302
100
AcDbEntity
  8
RACCORDO
100
AcDbLine
 62
250
  6
CONTINUOUS
 10
38.8190967314
 20
28.609047311
 11
38.8295879495
 21
24.0596710812
  0
LINE
  5
303
100
AcDbEntity
  8
RACCORDO
100
AcDbLine
 62
250
  6
CONTINUOUS
 10
38.8295879495
 20
24.0596710812
 11
38.8348357965
 21
16.1469472917
  0
LINE
  5
304
100
AcDbEntity
  8
RACCORDO
100
AcDbLine
 62
250
  6
CONTINUOUS
 10
39.602798641
 20
-8.5215285581
 11
39.6088693123
 21
-36.620285218
  0
LINE
  5
305
100
AcDbEntity
  8
0
100
AcDbLine
 62
7
  6
CONTINUOUS
 10
39.8250226729
 20
3.0615117685
 11
39.8250226729
 21
-3.0615117685
  0
LINE
  5
306
100
AcDbEntity
  8
0
100
AcDbLine
 62
7
  6
CONTINUOUS
 10
40.0
 20
-37.0114159057
 11
40.0
 21
-4.2017932267
  0
LINE
  5
307
100
AcDbEntity
  8
0
100
AcDbLine
 62
7
  6
CONTINUOUS
 10
40.0
 20
4.2017932267
 11
40.0
 21
37.0114159057
  0
LINE
  5
308
100
AcDbEntity
  8
RACCORDO
100
AcDbLine
 62
250
  6
CONTINUOUS
 10
38.8348357965
 20
16.1469472917
 11
38.8347302123
 21
-16.7475714193
  0
LINE
  5
309
100
AcDbEntity
  8
RACCORDO
100
AcDbLine
 62
250
  6
CONTINUOUS
 10
38.8347302123
 20
-16.7475714193
 11
38.8299894746
 21
-23.7461031786
  0
LINE
  5
30A
100
AcDbEntity
  8
RACCORDO
100
AcDbLine
 62
250
  6
CONTINUOUS
 10
39.6088693123
 20
36.620285218
 11
39.602798641
 21
-8.5215285581
  0
LINE
  5
30B
100
AcDbEntity
  8
RACCORDO
100
AcDbLine
 62
250
  6
CONTINUOUS
 10
38.8299894746
 20
-23.7461031786
 11
38.8214124529
 21
-27.9162359636
  0
LINE
  5
30C
100
AcDbEntity
  8
RACCORDO
100
AcDbLine
 62
250
  6
CONTINUOUS
 10
38.7755327295
 20
-36.0073780841
 11
38.7752874286
 21
-36.086629962
  0
LINE
  5
30D
100
AcDbEntity
  8
RACCORDO
100
AcDbLine
 62
250
  6
CONTINUOUS
 10
38.8214124529
 20
-27.9162359636
 11
38.8078229256
 21
-31.1665570878
  0
LINE
  5
30E
100
AcDbEntity
  8
RACCORDO
100
AcDbLine
 62
250
  6
CONTINUOUS
 10
38.8078229256
 20
-31.1665570878
 11
38.785369009
 21
-34.7062521543
  0
LINE
  5
30F
100
AcDbEntity
  8
RACCORDO
100
AcDbLine
 62
250
  6
CONTINUOUS
 10
38.785369009
 20
-34.7062521543
 11
38.7755327295
 21
-36.0073780841
  0
LWPOLYLINE
  5
310
100
AcDbEntity
  8
RACCORDO
100
AcDbPolyline
 62
250
  6
CONTINUOUS
 90
3
 70
0
 10
38.7752874286
 20
-36.086629962
 10
38.7747759345
 20
-36.1255911843
 10
38.7736447232
 20
-36.164353767
  0
LINE
  5
311
100
AcDbEntity
  8
RACCORDO
100
AcDbLine
 62
250
  6
CONTINUOUS
 10
38.7591601871
 20
-36.4973966382
 11
38.7537121369
 21
-36.6501544591
  0
LWPOLYLINE
  5
312
100
AcDbEntity
  8
RACCORDO
100
AcDbPolyline
 62
250
  6
CONTINUOUS
 90
22
 70
0
 10
39.6088693123
 20
-36.620285218
 10
39.6003322989
 20
-36.8443429958
 10
39.5751022339
 20
-37.0670021329
 10
39.5333296081
 20
-37.2870334504
 10
39.4752334601
 20
-37.5032954683
 10
39.4011566258
 20
-37.7145167651
 10
39.311617464
 20
-37.9193213369
 10
39.2072556678
 20
-38.1164443207
 10
39.0886324867
 20
-38.3049916514
 10
38.9562568927
 20
-38.4841941764
 10
38.8108396465
 20
-38.6530677779
 10
38.6531809909
 20
-38.8106598877
 10
38.4839332732
 20
-38.956253357
 10
38.3037340934
 20
-39.0891561313
 10
38.1137653602
 20
-39.2083626208
 10
37.9156288695
 20
-39.3128627227
 10
37.7107401761
 20
-39.4020221153
 10
37.499994406
 20
-39.4755590024
 10
37.2843148231
 20
-39.533188606
 10
37.0648015174
 20
-39.5746116112
 10
36.8427463219
 20
-39.5995775263
 10
36.6193683442
 20
-39.6079524384
  0
LINE
  5
313
100
AcDbEntity
  8
RACCORDO
100
AcDbLine
 62
250
  6
CONTINUOUS
 10
38.7736447232
 20
-36.164353767
 11
38.7704236775
 21
-36.2425568929
  0
LINE
  5
314
100
AcDbEntity
  8
RACCORDO
100
AcDbLine
 62
250
  6
CONTINUOUS
 10
38.7646223341
 20
-36.3641367547
 11
38.7591601871
 21
-36.4973966382
  0
LINE
  5
315
100
AcDbEntity
  8
RACCORDO
100
AcDbLine
 62
250
  6
CONTINUOUS
 10
38.7704236775
 20
-36.2425568929
 11
38.7646223341
 21
-36.3641367547
  0
LWPOLYLINE
  5
316
100
AcDbEntity
  8
RACCORDO
100
AcDbPolyline
 62
250
  6
CONTINUOUS
 90
22
 70
0
 10
38.7537114635
 20
-36.6501543164
 10
38.7429230692
 20
-36.8056734883
 10
38.7211287572
 20
-36.9602039585
 10
38.6884076076
 20
-37.1127975203
 10
38.6449057964
 20
-37.2626520017
 10
38.5908682085
 20
-37.4089687765
 10
38.5265969705
 20
-37.550875091
 10
38.4524914788
 20
-37.6875445813
 10
38.3689387322
 20
-37.8184143426
 10
38.2762252416
 20
-37.94300286
 10
38.1747808782
 20
-38.0606443301
 10
38.0651528541
 20
-38.1707453239
 10
37.9477298159
 20
-38.2728727517
 10
37.822888596
 20
-38.3665577586
 10
37.6914372746
 20
-38.4511643969
 10
37.5544359337
 20
-38.5260447199
 10
37.412809327
 20
-38.5907485802
 10
37.2671250488
 20
-38.6451300953
 10
37.1179367166
 20
-38.689052945
 10
36.9659208172
 20
-38.7223067015
 10
36.8119999358
 20
-38.7447122409
 10
36.6571367693
 20
-38.7561695763
  0
LWPOLYLINE
  5
317
100
AcDbEntity
  8
RACCORDO
100
AcDbPolyline
 62
250
  6
CONTINUOUS
 90
9
 70
0
 10
-39.6088428838
 20
36.6202852125
 10
-39.5928974784
 20
36.6237078535
 10
-39.5647044622
 20
36.627087737
 10
-39.5246160918
 20
36.630382633
 10
-39.4731332501
 20
36.6335513732
 10
-39.4108991873
 20
36.6365543655
 10
-39.3386914847
 20
36.6393540881
 10
-39.2574123388
 20
36.6419155592
 10
-39.1680772888
 20
36.6442067735
  0
LINE
  5
318
100
AcDbEntity
  8
RACCORDO
100
AcDbLine
 62
250
  6
CONTINUOUS
 10
-36.3826438836
 20
38.7679142694
 11
-36.295748892
 21
38.772966585
  0
LINE
  5
319
100
AcDbEntity
  8
RACCORDO
100
AcDbLine
 62
250
  6
CONTINUOUS
 10
-36.295748892
 20
38.772966585
 11
-36.2519156813
 21
38.7753973105
  0
LWPOLYLINE
  5
31A
100
AcDbEntity
  8
RACCORDO
100
AcDbPolyline
 62
250
  6
CONTINUOUS
 90
4
 70
0
 10
-36.2519156813
 20
38.7753973105
 10
-36.1633294958
 20
38.7796378146
 10
-36.1178249892
 20
38.7812771644
 10
-36.0711704349
 20
38.7823335815
  0
LINE
  5
31B
100
AcDbEntity
  8
RACCORDO
100
AcDbLine
 62
250
  6
CONTINUOUS
 10
-36.4705592586
 20
38.7638304206
 11
-36.3826438836
 21
38.7679142694
  0
LINE
  5
31C
100
AcDbEntity
  8
RACCORDO
100
AcDbLine
 62
250
  6
CONTINUOUS
 10
-36.6571369884
 20
38.7561704126
 11
-36.4705592586
 21
38.7638304206
  0
LINE
  5
31D
100
AcDbEntity
  8
RACCORDO
100
AcDbLine
 62
250
  6
CONTINUOUS
 10
-36.0711704349
 20
38.7823335815
 11
-29.4174964175
 21
38.8758314566
  0
LINE
  5
31E
100
AcDbEntity
  8
RACCORDO
100
AcDbLine
 62
250
  6
CONTINUOUS
 10
-29.4174964175
 20
38.8758314566
 11
-26.8773384524
 21
38.9066590685
  0
LINE
  5
31F
100
AcDbEntity
  8
RACCORDO
100
AcDbLine
 62
250
  6
CONTINUOUS
 10
-26.8773384524
 20
38.9066590685
 11
-25.4861575412
 21
38.9188409908
  0
LINE
  5
320
100
AcDbEntity
  8
RACCORDO
100
AcDbLine
 62
250
  6
CONTINUOUS
 10
-24.5762170242
 20
38.9210828398
 11
-22.8239728612
 21
38.9317068242
  0
LWPOLYLINE
  5
321
100
AcDbEntity
  8
RACCORDO
100
AcDbPolyline
 62
250
  6
CONTINUOUS
 90
3
 70
0
 10
-25.4861575412
 20
38.9188409908
 10
-25.1263394241
 20
38.9201540578
 10
-24.5762170242
 20
38.9210828398
  0
LINE
  5
322
100
AcDbEntity
  8
RACCORDO
100
AcDbLine
 62
7
  6
CONTINUOUS
 10
37.0114159057
 20
40.0
 11
-37.0114159057
 21
40.0
  0
LINE
  5
323
100
AcDbEntity
  8
RACCORDO
100
AcDbLine
 62
250
  6
CONTINUOUS
 10
-13.6555640908
 20
39.5946938304
 11
14.2292799015
 21
39.5946298565
  0
LINE
  5
324
100
AcDbEntity
  8
RACCORDO
100
AcDbLine
 62
250
  6
CONTINUOUS
 10
14.2292799015
 20
39.5946298565
 11
36.6193683442
 21
39.6079524384
  0
LINE
  5
325
100
AcDbEntity
  8
RACCORDO
100
AcDbLine
 62
250
  6
CONTINUOUS
 10
-1.3336723167
 20
38.9279316896
 11
3.747584299
 21
38.925968841
  0
LINE
  5
326
100
AcDbEntity
  8
RACCORDO
100
AcDbLine
 62
250
  6
CONTINUOUS
 10
3.747584299
 20
38.925968841
 11
5.9600947396
 21
38.9225446691
  0
LINE
  5
327
100
AcDbEntity
  8
RACCORDO
100
AcDbLine
 62
250
  6
CONTINUOUS
 10
-22.8239728612
 20
38.9317068242
 11
-19.5289699206
 21
38.9285061448
  0
LINE
  5
328
100
AcDbEntity
  8
RACCORDO
100
AcDbLine
 62
250
  6
CONTINUOUS
 10
-19.5289699206
 20
38.9285061448
 11
-1.3336723167
 21
38.9279316896
  0
LINE
  5
329
100
AcDbEntity
  8
RACCORDO
100
AcDbLine
 62
250
  6
CONTINUOUS
 10
5.9600947396
 20
38.9225446691
 11
22.8817559581
 21
38.9314622876
  0
LINE
  5
32A
100
AcDbEntity
  8
RACCORDO
100
AcDbLine
 62
250
  6
CONTINUOUS
 10
-36.6193683442
 20
39.6079524384
 11
-13.6555640908
 21
39.5946938304
  0
LINE
  5
32B
100
AcDbEntity
  8
RACCORDO
100
AcDbLine
 62
250
  6
CONTINUOUS
 10
24.2348075769
 20
38.9226173198
 11
25.3525870992
 21
38.9195914695
  0
LINE
  5
32C
100
AcDbEntity
  8
RACCORDO
100
AcDbLine
 62
250
  6
CONTINUOUS
 10
22.8817559581
 20
38.9314622876
 11
24.2348075769
 21
38.9226173198
  0
LINE
  5
32D
100
AcDbEntity
  8
RACCORDO
100
AcDbLine
 62
250
  6
CONTINUOUS
 10
25.3525870992
 20
38.9195914695
 11
26.7145335413
 21
38.9082995593
  0
LINE
  5
32E
100
AcDbEntity
  8
RACCORDO
100
AcDbLine
 62
250
  6
CONTINUOUS
 10
26.7145335413
 20
38.9082995593
 11
29.0030787206
 21
38.8813830514
  0
LINE
  5
32F
100
AcDbEntity
  8
RACCORDO
100
AcDbLine
 62
250
  6
CONTINUOUS
 10
29.0030787206
 20
38.8813830514
 11
36.0701028845
 21
38.7823512327
  0
LWPOLYLINE
  5
330
100
AcDbEntity
  8
RACCORDO
100
AcDbPolyline
 62
250
  6
CONTINUOUS
 90
7
 70
0
 10
36.0701028845
 20
38.7823512327
 10
36.1168569238
 20
38.7812983529
 10
36.1624398369
 20
38.7796673119
 10
36.206953225
 20
38.7776470307
 10
36.2512363692
 20
38.7754424076
 10
36.2951662845
 20
38.7730069079
 10
36.3821734926
 20
38.7679363053
  0
LWPOLYLINE
  5
331
100
AcDbEntity
  8
RACCORDO
100
AcDbPolyline
 62
250
  6
CONTINUOUS
 90
22
 70
0
 10
36.6193683442
 20
39.6079524384
 10
36.8427231278
 20
39.5995792792
 10
37.0647636029
 20
39.5746173105
 10
37.2842707059
 20
39.5331986078
 10
37.4999574343
 20
39.4755702883
 10
37.7107178946
 20
39.4020307325
 10
37.9156136778
 20
39.3128699406
 10
38.113743223
 20
39.2083753276
 10
38.3036994178
 20
39.0891797083
 10
38.4838881423
 20
38.9562892907
 10
38.6531322938
 20
38.8107050029
 10
38.8107889793
 20
38.6531223027
 10
38.956199047
 20
38.4842666681
 10
39.0885554172
 20
38.3051047387
 10
39.2071600539
 20
38.1166099396
 10
39.3115218281
 20
37.9195196931
 10
39.4010819409
 20
37.7147066538
 10
39.4751854749
 20
37.5034507041
 10
39.5333030923
 20
37.287149419
 10
39.5750900811
 20
37.0670825031
 10
39.6003291621
 20
36.8443845093
 10
39.6088693123
 20
36.620285218
  0
LINE
  5
332
100
AcDbEntity
  8
RACCORDO
100
AcDbLine
 62
250
  6
CONTINUOUS
 10
36.4702187697
 20
38.7638451107
 11
36.6571369928
 21
38.7561704313
  0
LINE
  5
333
100
AcDbEntity
  8
RACCORDO
100
AcDbLine
 62
250
  6
CONTINUOUS
 10
36.3821734926
 20
38.7679363053
 11
36.4702187697
 21
38.7638451107
  0
LWPOLYLINE
  5
334
100
AcDbEntity
  8
RACCORDO
100
AcDbPolyline
 62
250
  6
CONTINUOUS
 90
22
 70
0
 10
36.6571367391
 20
38.7561694613
 10
36.8119932728
 20
38.7447140557
 10
36.965906885
 20
38.7223107721
 10
37.1179141095
 20
38.6890584396
 10
37.2671041897
 20
38.6451371231
 10
37.4127973909
 20
38.5907541684
 10
37.5544288045
 20
38.5260468922
 10
37.6914265263
 20
38.4511700223
 10
37.8228701144
 20
38.3665719678
 10
37.9477026575
 20
38.2728946014
 10
38.0651221595
 20
38.1707731066
 10
38.1747490153
 20
38.060679702
 10
38.2761872186
 20
37.9430503633
 10
38.3688859211
 20
37.8184887982
 10
38.4524264138
 20
37.6876560762
 10
38.526531325
 20
37.551010006
 10
38.5908149262
 20
37.4090976278
 10
38.644871789
 20
37.2627559802
 10
38.688389233
 20
37.1128714382
 10
38.7211189025
 20
36.9602486407
 10
38.7429201368
 20
36.8056931101
 10
38.7537115326
 20
36.6501543311
  0
LWPOLYLINE
  5
335
100
AcDbEntity
  8
RACCORDO
100
AcDbPolyline
 62
250
  6
CONTINUOUS
 90
10
 70
0
 10
39.6088693123
 20
36.620285218
 10
39.5929232229
 20
36.6237079293
 10
39.5647291231
 20
36.6270878751
 10
39.5246392924
 20
36.6303828237
 10
39.4731546453
 20
36.6335516057
 10
39.4109184721
 20
36.6365546277
 10
39.3387084014
 20
36.6393543675
 10
39.2574266836
 20
36.6419158427
 10
39.1680889175
 20
36.6442070487
 10
38.9697969818
 20
36.6478678749
  0
LWPOLYLINE
  5
336
100
AcDbEntity
  8
0
100
AcDbPolyline
 62
7
  6
CONTINUOUS
 90
13
 70
0
 43
0.3500000006
 10
-1.9285714102
 20
50.4647164307
 10
-2.2142856617
 20
50.6790009155
 10
-2.2142856617
 20
51.321858902
 10
-1.9285714102
 20
51.7504324036
 10
-1.2857142735
 20
51.7504324036
 10
-1.0000000219
 20
51.321858902
 10
-1.0000000219
 20
50.6790009155
 10
-1.2857142735
 20
50.4647164307
 10
-0.8571428254
 20
50.0361429291
 10
-0.8571428254
 20
49.1790004578
 10
-1.2857142735
 20
48.750431488
 10
-1.9285714102
 20
48.750431488
 10
-2.3571427875
 20
49.1790004578
  0
LWPOLYLINE
  5
337
100
AcDbEntity
  8
RACCORDO
100
AcDbPolyline
 62
250
  6
CONTINUOUS
 90
13
 70
0
 10
36.6193683442
 20
-39.6079524384
 10
36.6236885814
 20
-39.5920648649
 10
36.6279551215
 20
-39.5639902093
 10
36.6321149302
 20
-39.5240774929
 10
36.6361162998
 20
-39.4728229067
 10
36.6399094921
 20
-39.4108636428
 10
36.6434473569
 20
-39.3389699726
 10
36.6466859181
 20
-39.2580356712
 10
36.6495849208
 20
-39.1690669059
 10
36.6521083313
 20
-39.0731697278
 10
36.6542247851
 20
-38.971536321
 10
36.6559079772
 20
-38.8654301823
 10
36.6571369884
 20
-38.7561704126
  0
LWPOLYLINE
  5
338
100
AcDbEntity
  8
RACCORDO
100
AcDbPolyline
 62
250
  6
CONTINUOUS
 90
13
 70
0
 10
36.6193683389
 20
39.6079265753
 10
36.623688721
 20
39.5920394847
 10
36.6279553921
 20
39.563965732
 10
36.6321153113
 20
39.5240543173
 10
36.636116765
 20
39.4728014013
 10
36.6399100099
 20
39.4108441374
 10
36.6434478911
 20
39.3389527501
 10
36.6466864293
 20
39.2580209608
 10
36.6495853668
 20
39.1690548771
 10
36.6521086685
 20
39.0731604852
 10
36.6542249696
 20
38.971529901
 10
36.6559079655
 20
38.86542655
 10
36.6571367391
 20
38.7561694613
  0
LWPOLYLINE
  5
339
100
AcDbEntity
  8
RACCORDO
100
AcDbPolyline
 62
250
  6
CONTINUOUS
 90
4
 70
0
 10
-68.0730884921
 20
-38.9201540578
 10
-68.0737536361
 20
-38.9201977747
 10
-68.0745692747
 20
-38.920448728
 10
-68.0755420971
 20
-38.9210828398
  0
LINE
  5
33A
100
AcDbEntity
  8
RACCORDO
100
AcDbLine
 62
7
  6
CONTINUOUS
 10
-62.5533001881
 20
-40.0
 11
-67.2228779325
 21
-39.5914648839
  0
LINE
  5
33B
100
AcDbEntity
  8
RACCORDO
100
AcDbLine
 62
7
  6
CONTINUOUS
 10
-67.3211114749
 20
-39.5779452525
 11
-67.2229758856
 21
-39.5914563141
  0
LWPOLYLINE
  5
33C
100
AcDbEntity
  8
RACCORDO
100
AcDbPolyline
 62
250
  6
CONTINUOUS
 90
13
 70
0
 10
-67.0344243218
 20
-39.6079524384
 10
-67.1447004309
 20
-39.5920648649
 10
-67.2525220897
 20
-39.5639902093
 10
-67.3565488694
 20
-39.5240774929
 10
-67.4554875192
 20
-39.4728229067
 10
-67.5481080432
 20
-39.4108636428
 10
-67.6332589919
 20
-39.3389699726
 10
-67.7098817769
 20
-39.2580356712
 10
-67.777023831
 20
-39.1690669059
 10
-67.8338504505
 20
-39.0731697278
 10
-67.8796551721
 20
-38.971536321
 10
-67.913868556
 20
-38.8654301823
 10
-67.9360652643
 20
-38.7561704126
  0
LINE
  5
33D
100
AcDbEntity
  8
RACCORDO
100
AcDbLine
 62
7
  6
CONTINUOUS
 10
-67.4174287719
 20
-39.5547909839
 11
-67.3211114749
 21
-39.5779452525
  0
LWPOLYLINE
  5
33E
100
AcDbEntity
  8
0
100
AcDbPolyline
 62
7
  6
CONTINUOUS
 90
10
 70
0
 43
0.3500000006
 10
-67.8033017578
 20
48.750431488
 10
-66.9461592865
 20
49.6075739594
 10
-66.7318702698
 20
50.4647164307
 10
-66.7318702698
 20
51.321858902
 10
-67.1604437714
 20
51.7504324036
 10
-67.8033017578
 20
51.7504324036
 10
-68.2318707275
 20
51.321858902
 10
-68.2318707275
 20
50.4647164307
 10
-67.8033017578
 20
50.0361429291
 10
-66.8747281036
 20
50.0361429291
  0
LINE
  5
33F
100
AcDbEntity
  8
RACCORDO
100
AcDbLine
 62
250
  6
CONTINUOUS
 10
-67.9044297735
 20
-36.6491915705
 11
-67.9263378298
 21
-36.6501543164
  0
LINE
  5
340
100
AcDbEntity
  8
RACCORDO
100
AcDbLine
 62
250
  6
CONTINUOUS
 10
-67.768009477
 20
-36.6442067735
 11
-67.9044297735
 21
-36.6491915705
  0
LINE
  5
341
100
AcDbEntity
  8
RACCORDO
100
AcDbLine
 62
250
  6
CONTINUOUS
 10
-67.0239420939
 20
-36.6202852125
 11
-67.768009477
 21
-36.6442067735
  0
LINE
  5
342
100
AcDbEntity
  8
RACCORDO
100
AcDbLine
 62
250
  6
CONTINUOUS
 10
-67.0239444058
 20
-36.620285218
 11
-62.5533001881
 21
-37.0114159057
  0
LWPOLYLINE
  5
343
100
AcDbEntity
  8
RACCORDO
100
AcDbPolyline
 62
250
  6
CONTINUOUS
 90
7
 70
0
 10
-71.0593065145
 20
-22.2910763666
 10
-70.9821107744
 20
-22.2881619566
 10
-70.9170621758
 20
-22.2852988155
 10
-70.8644430505
 20
-22.2824993642
 10
-70.8244817825
 20
-22.2797757475
 10
-70.7973518166
 20
-22.2771397816
 10
-70.7831709055
 20
-22.2746029027
  0
LWPOLYLINE
  5
344
100
AcDbEntity
  8
RACCORDO
100
AcDbPolyline
 62
250
  6
CONTINUOUS
 90
3
 70
0
 10
-71.3601713759
 20
-22.3
 10
-71.2487479336
 20
-22.2970082544
 10
-71.0593065145
 20
-22.2910763666
  0
LINE
  5
345
100
AcDbEntity
  8
RACCORDO
100
AcDbLine
 62
250
  6
CONTINUOUS
 10
-71.5533001881
 20
-22.3
 11
-71.3601712271
 21
-22.3
  0
LINE
  5
346
100
AcDbEntity
  8
RACCORDO
100
AcDbLine
 62
250
  6
CONTINUOUS
 10
-68.0779761562
 20
-38.930405689
 11
-68.078018409
 21
-38.930335622
  0
LWPOLYLINE
  5
347
100
AcDbEntity
  8
RACCORDO
100
AcDbPolyline
 62
7
  6
CONTINUOUS
 90
9
 70
0
 10
-68.0169819932
 20
-39.0681010071
 10
-67.9658758594
 20
-39.1529614657
 10
-67.9066244098
 20
-39.232349134
 10
-67.8398090856
 20
-39.3054849705
 10
-67.7660855535
 20
-39.3716512827
 10
-67.6861772723
 20
-39.4301987707
 10
-67.6008683912
 20
-39.4805528999
 10
-67.5109960548
 20
-39.5222195385
 10
-67.4174421908
 20
-39.5547898049
  0
LWPOLYLINE
  5
348
100
AcDbEntity
  8
RACCORDO
100
AcDbPolyline
 62
250
  6
CONTINUOUS
 90
9
 70
0
 10
-71.1672171525
 20
24.5484758467
 10
-71.1433167247
 20
24.5848324612
 10
-71.0548731556
 20
24.7493780364
 10
-70.9768439069
 20
24.9191104336
 10
-70.9095315895
 20
25.0933714012
 10
-70.8531972523
 20
25.2714851252
 10
-70.8080593698
 20
25.4527608497
 10
-70.7742929944
 20
25.6364955561
 10
-70.7520290781
 20
25.8219766896
  0
LWPOLYLINE
  5
349
100
AcDbEntity
  8
RACCORDO
100
AcDbPolyline
 62
7
  6
CONTINUOUS
 90
3
 70
0
 10
-71.2137214638
 20
24.4721655834
 10
-71.2807767313
 20
24.3703774446
 10
-71.3160068661
 20
24.3213869894
  0
LINE
  5
34A
100
AcDbEntity
  8
RACCORDO
100
AcDbLine
 62
250
  6
CONTINUOUS
 10
-71.3392158808
 20
24.2881855719
 11
-71.2418316147
 21
24.4261118444
  0
LINE
  5
34B
100
AcDbEntity
  8
RACCORDO
100
AcDbLine
 62
7
  6
CONTINUOUS
 10
-71.3507780868
 20
24.2727397742
 11
-71.3344792945
 21
24.2948775577
  0
LINE
  5
34C
100
AcDbEntity
  8
RACCORDO
100
AcDbLine
 62
7
  6
CONTINUOUS
 10
-71.3500357676
 20
24.2738317318
 11
-71.3392158808
 21
24.2881855719
  0
LINE
  5
34D
100
AcDbEntity
  8
RACCORDO
100
AcDbLine
 62
7
  6
CONTINUOUS
 10
-71.3500345456
 20
-24.2738308049
 11
-71.3470854193
 21
-24.2777254586
  0
LINE
  5
34E
100
AcDbEntity
  8
RACCORDO
100
AcDbLine
 62
7
  6
CONTINUOUS
 10
-71.3470854193
 20
-24.2777254586
 11
-71.3379172928
 21
-24.2899435696
  0
LINE
  5
34F
100
AcDbEntity
  8
RACCORDO
100
AcDbLine
 62
7
  6
CONTINUOUS
 10
-71.3529870948
 20
-24.269962882
 11
-71.2807767304
 21
-24.3703774459
  0
LWPOLYLINE
  5
350
100
AcDbEntity
  8
RACCORDO
100
AcDbPolyline
 62
250
  6
CONTINUOUS
 90
10
 70
0
 10
-71.3470854193
 20
-24.2777254586
 10
-71.2418303507
 20
-24.4261110653
 10
-71.1433153868
 20
-24.584831808
 10
-71.0548717106
 20
-24.7493774882
 10
-70.976842321
 20
-24.9191099716
 10
-70.9095298286
 20
-25.0933710083
 10
-70.8531952822
 20
-25.2714847861
 10
-70.8080571562
 20
-25.4527605512
 10
-70.7742905037
 20
-25.6364952872
 10
-70.7520262775
 20
-25.8219764414
  0
LWPOLYLINE
  5
351
100
AcDbEntity
  8
RACCORDO
100
AcDbPolyline
 62
7
  6
CONTINUOUS
 90
13
 70
0
 10
-71.2807767304
 20
-24.3703774459
 10
-71.2137214628
 20
-24.4721655849
 10
-71.1514938613
 20
-24.5754845812
 10
-71.0934891482
 20
-24.6811843844
 10
-71.0382116769
 20
-24.7924492874
 10
-70.9855587544
 20
-24.9107340148
 10
-70.9367876972
 20
-25.0346255332
 10
-70.8927452332
 20
-25.1631263381
 10
-70.8539352965
 20
-25.2958385951
 10
-70.8207072435
 20
-25.4328302808
 10
-70.7935352866
 20
-25.5736978635
 10
-70.77284122
 20
-25.7181230525
 10
-70.7588043068
 20
-25.8690644813
  0
LINE
  5
352
100
AcDbEntity
  8
RACCORDO
100
AcDbLine
 62
7
  6
CONTINUOUS
 10
-68.0594413008
 20
-38.978600506
 11
-68.0169819932
 21
-39.0681010071
  0
LWPOLYLINE
  5
353
100
AcDbEntity
  8
SUPERFICI
100
AcDbPolyline
 62
7
  6
CONTINUOUS
 90
7
 70
0
 10
-68.1189562572
 20
38.8137308969
 10
-68.1532664692
 20
38.7139672272
 10
-68.1863526441
 20
38.6159807148
 10
-68.2183634896
 20
38.5195147881
 10
-68.2493431664
 20
38.4245995409
 10
-68.2792771845
 20
38.3314354046
 10
-68.3361928658
 20
38.1503678774
  0
LINE
  5
354
100
AcDbEntity
  8
SUPERFICI
100
AcDbLine
 62
7
  6
CONTINUOUS
 10
-68.0781189406
 20
38.9300198663
 11
-68.1189562572
 21
38.8137308969
  0
LINE
  5
355
100
AcDbEntity
  8
RACCORDO
100
AcDbLine
 62
250
  6
CONTINUOUS
 10
-68.078018409
 20
-38.930335622
 11
-68.0781099768
 21
-38.9300977376
  0
LINE
  5
356
100
AcDbEntity
  8
RACCORDO
100
AcDbLine
 62
7
  6
CONTINUOUS
 10
-68.0781228367
 20
-38.9300245566
 11
-68.0594277063
 21
-38.9786017164
  0
LINE
  5
357
100
AcDbEntity
  8
SUPERFICI
100
AcDbLine
 62
7
  6
CONTINUOUS
 10
-68.1189562572
 20
-38.8137308969
 11
-68.0781278883
 21
-38.9299946789
  0
LWPOLYLINE
  5
358
100
AcDbEntity
  8
SUPERFICI
100
AcDbPolyline
 62
7
  6
CONTINUOUS
 90
5
 70
0
 10
-68.2493431632
 20
-38.4245995511
 10
-68.2183634841
 20
-38.5195148046
 10
-68.1863526364
 20
-38.6159807378
 10
-68.153266459
 20
-38.713967257
 10
-68.1189562444
 20
-38.8137309338
  0
LINE
  5
359
100
AcDbEntity
  8
RACCORDO
100
AcDbLine
 62
250
  6
CONTINUOUS
 10
-68.0781157795
 20
38.930081485
 11
-68.078161882
 21
38.9298988064
  0
LINE
  5
35A
100
AcDbEntity
  8
SUPERFICI
100
AcDbLine
 62
7
  6
CONTINUOUS
 10
-68.7224670677
 20
36.79020795
 11
-68.9150595217
 21
36.0539128693
  0
LWPOLYLINE
  5
35B
100
AcDbEntity
  8
RACCORDO
100
AcDbPolyline
 62
7
  6
CONTINUOUS
 90
3
 70
0
 10
-69.3015244516
 20
34.8140302437
 10
-69.0547048747
 20
35.7393553088
 10
-68.9581352292
 20
36.0666235609
  0
LINE
  5
35C
100
AcDbEntity
  8
SUPERFICI
100
AcDbLine
 62
7
  6
CONTINUOUS
 10
-68.6352718669
 20
37.1158310699
 11
-68.7224670677
 21
36.79020795
  0
LINE
  5
35D
100
AcDbEntity
  8
SUPERFICI
100
AcDbLine
 62
7
  6
CONTINUOUS
 10
-68.5867725699
 20
37.2928453185
 11
-68.6352718669
 21
37.1158310699
  0
LWPOLYLINE
  5
35E
100
AcDbEntity
  8
SUPERFICI
100
AcDbPolyline
 62
7
  6
CONTINUOUS
 90
4
 70
0
 10
-68.9580731912
 20
36.0835934801
 10
-69.1049943873
 20
35.5565632529
 10
-69.2381890738
 20
35.0583802593
 10
-69.3015244516
 20
34.8140302437
  0
LINE
  5
35F
100
AcDbEntity
  8
SUPERFICI
100
AcDbLine
 62
7
  6
CONTINUOUS
 10
-68.5279321876
 20
37.5028983925
 11
-68.5867725699
 21
37.2928453185
  0
LINE
  5
360
100
AcDbEntity
  8
SUPERFICI
100
AcDbLine
 62
7
  6
CONTINUOUS
 10
-68.4849805772
 20
37.6529057701
 11
-68.5279321876
 21
37.5028983925
  0
LINE
  5
361
100
AcDbEntity
  8
SUPERFICI
100
AcDbLine
 62
7
  6
CONTINUOUS
 10
-68.7946922982
 20
36.6449566895
 11
-68.9580731912
 21
36.0835934801
  0
LINE
  5
362
100
AcDbEntity
  8
SUPERFICI
100
AcDbLine
 62
7
  6
CONTINUOUS
 10
-68.4388245852
 20
37.8109301863
 11
-68.4849805772
 21
37.6529057701
  0
LINE
  5
363
100
AcDbEntity
  8
SUPERFICI
100
AcDbLine
 62
7
  6
CONTINUOUS
 10
-68.3893012964
 20
37.9767883732
 11
-68.4388245852
 21
37.8109301863
  0
LINE
  5
364
100
AcDbEntity
  8
SUPERFICI
100
AcDbLine
 62
7
  6
CONTINUOUS
 10
-68.6083432732
 20
37.2571165109
 11
-68.7946923043
 21
36.6449566693
  0
LINE
  5
365
100
AcDbEntity
  8
SUPERFICI
100
AcDbLine
 62
7
  6
CONTINUOUS
 10
-68.3361928658
 20
38.1503678774
 11
-68.3893012964
 21
37.9767883732
  0
LINE
  5
366
100
AcDbEntity
  8
SUPERFICI
100
AcDbLine
 62
7
  6
CONTINUOUS
 10
-68.5114590231
 20
37.560706699
 11
-68.6083432812
 21
37.2571164858
  0
LWPOLYLINE
  5
367
100
AcDbEntity
  8
0
100
AcDbPolyline
 62
7
  6
CONTINUOUS
 90
13
 70
0
 43
0.3500000006
 10
-82.0175814514
 20
-1.9285708809
 10
-82.231875
 20
-2.2142854156
 10
-82.8747284546
 20
-2.2142854156
 10
-83.3032974243
 20
-1.9285708809
 10
-83.3032974243
 20
-1.2857140274
 10
-82.8747284546
 20
-1.0000006256
 10
-82.231875
 20
-1.0000006256
 10
-82.0175814514
 20
-1.2857140274
 10
-81.5890124817
 20
-0.8571427917
 10
-80.7318745422
 20
-0.8571427917
 10
-80.3032965088
 20
-1.2857140274
 10
-80.3032965088
 20
-1.9285708809
 10
-80.7318745422
 20
-2.3571432495
  0
LINE
  5
368
100
AcDbEntity
  8
SUPERFICI
100
AcDbLine
 62
7
  6
CONTINUOUS
 10
-68.6083432732
 20
-37.2571165109
 11
-68.5114590233
 21
-37.5607066982
  0
LINE
  5
369
100
AcDbEntity
  8
SUPERFICI
100
AcDbLine
 62
7
  6
CONTINUOUS
 10
-68.3082226107
 20
-38.2399928506
 11
-68.2493431632
 21
-38.4245995511
  0
LINE
  5
36A
100
AcDbEntity
  8
SUPERFICI
100
AcDbLine
 62
7
  6
CONTINUOUS
 10
-68.3632009354
 20
-38.0626509341
 11
-68.3082226107
 21
-38.2399928506
  0
LINE
  5
36B
100
AcDbEntity
  8
SUPERFICI
100
AcDbLine
 62
7
  6
CONTINUOUS
 10
-68.7946922982
 20
-36.6449566895
 11
-68.6083432648
 21
-37.2571165384
  0
LINE
  5
36C
100
AcDbEntity
  8
SUPERFICI
100
AcDbLine
 62
7
  6
CONTINUOUS
 10
-68.4145052571
 20
-37.8928579851
 11
-68.3632009354
 21
-38.0626509341
  0
LINE
  5
36D
100
AcDbEntity
  8
SUPERFICI
100
AcDbLine
 62
7
  6
CONTINUOUS
 10
-68.4623127711
 20
-37.7309267503
 11
-68.4145052571
 21
-37.8928579851
  0
LINE
  5
36E
100
AcDbEntity
  8
SUPERFICI
100
AcDbLine
 62
7
  6
CONTINUOUS
 10
-68.9580731816
 20
-36.0835935136
 11
-68.7946922918
 21
-36.6449567116
  0
LINE
  5
36F
100
AcDbEntity
  8
SUPERFICI
100
AcDbLine
 62
7
  6
CONTINUOUS
 10
-68.5068372423
 20
-37.5769256426
 11
-68.4623127711
 21
-37.7309267503
  0
LINE
  5
370
100
AcDbEntity
  8
SUPERFICI
100
AcDbLine
 62
7
  6
CONTINUOUS
 10
-68.5484303954
 20
-37.4303154733
 11
-68.5068372423
 21
-37.5769256426
  0
LINE
  5
371
100
AcDbEntity
  8
SUPERFICI
100
AcDbLine
 62
7
  6
CONTINUOUS
 10
-69.1049943804
 20
-35.5565632779
 11
-68.9580731816
 21
-36.0835935136
  0
LINE
  5
372
100
AcDbEntity
  8
SUPERFICI
100
AcDbLine
 62
7
  6
CONTINUOUS
 10
-68.6039913888
 20
-37.230395338
 11
-68.5484303954
 21
-37.4303154733
  0
LINE
  5
373
100
AcDbEntity
  8
SUPERFICI
100
AcDbLine
 62
7
  6
CONTINUOUS
 10
-68.6501673496
 20
-37.0607837351
 11
-68.6039913888
 21
-37.230395338
  0
LWPOLYLINE
  5
374
100
AcDbEntity
  8
RACCORDO
100
AcDbPolyline
 62
7
  6
CONTINUOUS
 90
3
 70
0
 10
-69.3015244512
 20
-34.8140302455
 10
-69.0547055909
 20
-35.7393527236
 10
-68.9657155248
 20
-36.0409343191
  0
LINE
  5
375
100
AcDbEntity
  8
SUPERFICI
100
AcDbLine
 62
7
  6
CONTINUOUS
 10
-68.7312362041
 20
-36.7570864042
 11
-68.6501673496
 21
-37.0607837351
  0
LINE
  5
376
100
AcDbEntity
  8
SUPERFICI
100
AcDbLine
 62
7
  6
CONTINUOUS
 10
-68.9218522618
 20
-36.0279912392
 11
-68.7312362041
 21
-36.7570864042
  0
LWPOLYLINE
  5
377
100
AcDbEntity
  8
SUPERFICI
100
AcDbPolyline
 62
7
  6
CONTINUOUS
 90
3
 70
0
 10
-69.3015244512
 20
-34.8140302455
 10
-69.2381890694
 20
-35.0583802759
 10
-69.1049943804
 20
-35.5565632779
  0
LWPOLYLINE
  5
378
100
AcDbEntity
  8
RACCORDO
100
AcDbPolyline
 62
7
  6
CONTINUOUS
 90
5
 70
0
 10
-70.3822159465
 20
29.3538938554
 10
-70.1464066886
 20
30.8638355471
 10
-69.8377141571
 20
32.4954370512
 10
-69.4703082996
 20
34.1365634011
 10
-69.3015244516
 20
34.8140302437
  0
LWPOLYLINE
  5
379
100
AcDbEntity
  8
RACCORDO
100
AcDbPolyline
 62
7
  6
CONTINUOUS
 90
5
 70
0
 10
-70.382216826
 20
-29.3538876028
 10
-70.146407798
 20
-30.8638290957
 10
-69.837715251
 20
-32.49543175
 10
-69.4703092162
 20
-34.1365596091
 10
-69.3015244512
 20
-34.8140302455
  0
LINE
  5
37A
100
AcDbEntity
  8
SUPERFICI
100
AcDbLine
 62
7
  6
CONTINUOUS
 10
-70.6227194891
 20
-27.4221427565
 11
-70.5949622603
 21
-27.6776853959
  0
LINE
  5
37B
100
AcDbEntity
  8
SUPERFICI
100
AcDbLine
 62
7
  6
CONTINUOUS
 10
-70.6509833509
 20
-27.1478243293
 11
-70.6227194891
 21
-27.4221427565
  0
LINE
  5
37C
100
AcDbEntity
  8
SUPERFICI
100
AcDbLine
 62
7
  6
CONTINUOUS
 10
-70.6796225688
 20
-26.8512276157
 11
-70.6509833509
 21
-27.1478243293
  0
LWPOLYLINE
  5
37D
100
AcDbEntity
  8
SUPERFICI
100
AcDbPolyline
 62
7
  6
CONTINUOUS
 90
4
 70
0
 10
-70.7379187513
 20
-26.1611714721
 10
-70.7236891588
 20
-26.3437218566
 10
-70.7091625742
 20
-26.519448779
 10
-70.6796225688
 20
-26.8512276157
  0
LINE
  5
37E
100
AcDbEntity
  8
RACCORDO
100
AcDbLine
 62
7
  6
CONTINUOUS
 10
-70.7617764702
 20
-25.8290579726
 11
-70.7588047306
 21
-25.8690637477
  0
LINE
  5
37F
100
AcDbEntity
  8
SUPERFICI
100
AcDbLine
 62
7
  6
CONTINUOUS
 10
-70.7588210786
 20
-25.8690206986
 11
-70.7379187513
 21
-26.1611714721
  0
LWPOLYLINE
  5
380
100
AcDbEntity
  8
RACCORDO
100
AcDbPolyline
 62
7
  6
CONTINUOUS
 90
12
 70
0
 10
-70.7588047306
 20
25.8690637477
 10
-70.7617764702
 20
25.8290579725
 10
-70.7822366355
 20
25.6462998619
 10
-70.8130693109
 20
25.4689660691
 10
-70.8535411889
 20
25.2973134613
 10
-70.9028040068
 20
25.1320457871
 10
-70.9597526492
 20
24.9742733333
 10
-71.023036083
 20
24.8251602603
 10
-71.0920901191
 20
24.6838626872
 10
-71.1672171525
 20
24.5484758467
 10
-71.2483065691
 20
24.4185424019
 10
-71.3344792945
 20
24.2948775577
  0
LWPOLYLINE
  5
381
100
AcDbEntity
  8
SUPERFICI
100
AcDbPolyline
 62
7
  6
CONTINUOUS
 90
3
 70
0
 10
-70.7236891588
 20
26.3437218566
 10
-70.7379187513
 20
26.1611714721
 10
-70.7588210786
 20
25.8690206986
  0
LINE
  5
382
100
AcDbEntity
  8
SUPERFICI
100
AcDbLine
 62
7
  6
CONTINUOUS
 10
-70.694359188
 20
26.6894930713
 11
-70.7236891588
 21
26.3437218566
  0
LINE
  5
383
100
AcDbEntity
  8
SUPERFICI
100
AcDbLine
 62
7
  6
CONTINUOUS
 10
-70.6651943393
 20
27.0033086896
 11
-70.694359188
 21
26.6894930713
  0
LINE
  5
384
100
AcDbEntity
  8
SUPERFICI
100
AcDbLine
 62
7
  6
CONTINUOUS
 10
-70.6368362632
 20
27.2871309632
 11
-70.6651943393
 21
27.0033086896
  0
LINE
  5
385
100
AcDbEntity
  8
SUPERFICI
100
AcDbLine
 62
7
  6
CONTINUOUS
 10
-70.6087453989
 20
27.5523102011
 11
-70.6368362632
 21
27.2871309632
  0
LINE
  5
386
100
AcDbEntity
  8
SUPERFICI
100
AcDbLine
 62
7
  6
CONTINUOUS
 10
-70.5814542146
 20
27.7979330116
 11
-70.6087453989
 21
27.5523102011
  0
LINE
  5
387
100
AcDbEntity
  8
SUPERFICI
100
AcDbLine
 62
7
  6
CONTINUOUS
 10
-70.5424145215
 20
28.1323683498
 11
-70.5814542146
 21
27.7979330116
  0
LINE
  5
388
100
AcDbEntity
  8
SUPERFICI
100
AcDbLine
 62
7
  6
CONTINUOUS
 10
-70.5053639297
 20
28.4340839769
 11
-70.5424145215
 21
28.1323683498
  0
LINE
  5
389
100
AcDbEntity
  8
SUPERFICI
100
AcDbLine
 62
7
  6
CONTINUOUS
 10
-70.4705083184
 20
28.7060981264
 11
-70.5053639297
 21
28.4340839769
  0
LINE
  5
38A
100
AcDbEntity
  8
RACCORDO
100
AcDbLine
 62
7
  6
CONTINUOUS
 10
-70.3836389856
 20
29.343293862
 11
-70.3822159465
 21
29.3538938554
  0
LINE
  5
38B
100
AcDbEntity
  8
SUPERFICI
100
AcDbLine
 62
7
  6
CONTINUOUS
 10
-70.4292372179
 20
29.0154713427
 11
-70.4705083184
 21
28.7060981264
  0
LINE
  5
38C
100
AcDbEntity
  8
SUPERFICI
100
AcDbLine
 62
7
  6
CONTINUOUS
 10
-70.3880354682
 20
29.3122934968
 11
-70.4292372179
 21
29.0154713427
  0
LWPOLYLINE
  5
38D
100
AcDbEntity
  8
RACCORDO
100
AcDbPolyline
 62
7
  6
CONTINUOUS
 90
11
 70
0
 10
-70.7728412201
 20
25.7181230523
 10
-70.7935352866
 20
25.5736978633
 10
-70.8207072435
 20
25.4328302804
 10
-70.8539352966
 20
25.2958385947
 10
-70.8927452334
 20
25.1631263377
 10
-70.9367876974
 20
25.0346255329
 10
-70.9855587545
 20
24.9107340146
 10
-71.0382116771
 20
24.7924492871
 10
-71.0934891486
 20
24.6811843837
 10
-71.1514938621
 20
24.5754845799
 10
-71.2137214638
 20
24.4721655834
  0
LINE
  5
38E
100
AcDbEntity
  8
SUPERFICI
100
AcDbLine
 62
7
  6
CONTINUOUS
 10
-70.3639189473
 20
29.4811011299
 11
-70.3880354682
 21
29.3122934968
  0
LINE
  5
38F
100
AcDbEntity
  8
SUPERFICI
100
AcDbLine
 62
7
  6
CONTINUOUS
 10
-70.4111050466
 20
-29.1474865274
 11
-70.3715446022
 21
-29.4280791857
  0
LINE
  5
390
100
AcDbEntity
  8
SUPERFICI
100
AcDbLine
 62
7
  6
CONTINUOUS
 10
-70.449176926
 20
-28.8676067117
 11
-70.4111050466
 21
-29.1474865274
  0
LINE
  5
391
100
AcDbEntity
  8
RACCORDO
100
AcDbLine
 62
7
  6
CONTINUOUS
 10
-70.383639724
 20
-29.3432886552
 11
-70.382216826
 21
-29.3538876028
  0
LINE
  5
392
100
AcDbEntity
  8
SUPERFICI
100
AcDbLine
 62
7
  6
CONTINUOUS
 10
-70.481740895
 20
-28.6195855911
 11
-70.4491769262
 21
-28.8676067102
  0
LINE
  5
393
100
AcDbEntity
  8
SUPERFICI
100
AcDbLine
 62
7
  6
CONTINUOUS
 10
-70.5175664871
 20
-28.3362434649
 11
-70.481740895
 21
-28.6195855911
  0
LINE
  5
394
100
AcDbEntity
  8
SUPERFICI
100
AcDbLine
 62
7
  6
CONTINUOUS
 10
-70.5552002257
 20
-28.0248497712
 11
-70.5175664871
 21
-28.3362434649
  0
LWPOLYLINE
  5
395
100
AcDbEntity
  8
SUPERFICI
100
AcDbPolyline
 62
7
  6
CONTINUOUS
 90
3
 70
0
 10
-70.5949622603
 20
-27.6776853959
 10
-70.5814542146
 20
-27.7979330116
 10
-70.5552002257
 20
-28.0248497712
  0
LWPOLYLINE
  5
396
100
AcDbEntity
  8
RACCORDO
100
AcDbPolyline
 62
250
  6
CONTINUOUS
 90
7
 70
0
 10
-70.7524068306
 20
-25.7753508784
 10
-70.7519359646
 20
-25.7871097139
 10
-70.751663458
 20
-25.7966118062
 10
-70.7515254653
 20
-25.80446741
 10
-70.7514955722
 20
-25.8109077521
 10
-70.7515648823
 20
-25.8160151567
 10
-70.7517420716
 20
-25.8197099755
  0
LWPOLYLINE
  5
397
100
AcDbEntity
  8
RACCORDO
100
AcDbPolyline
 62
250
  6
CONTINUOUS
 90
5
 70
0
 10
-70.7589329884
 20
25.8673637392
 10
-70.7588703107
 20
25.8653516296
 10
-70.7577372554
 20
25.8610708609
 10
-70.7554760217
 20
25.8485526238
 10
-70.7520267498
 20
25.8219764832
  0
LINE
  5
398
100
AcDbEntity
  8
RACCORDO
100
AcDbLine
 62
250
  6
CONTINUOUS
 10
-70.7654938414
 20
-24.9532559992
 11
-70.757948445
 21
-25.2067565858
  0
LWPOLYLINE
  5
399
100
AcDbEntity
  8
RACCORDO
100
AcDbPolyline
 62
250
  6
CONTINUOUS
 90
7
 70
0
 10
-70.757948445
 20
-25.2067565858
 10
-70.7567789845
 20
-25.2510120081
 10
-70.7559541681
 20
-25.2934812886
 10
-70.7554010655
 20
-25.3353548881
 10
-70.755087538
 20
-25.3759446824
 10
-70.7550889879
 20
-25.4125634454
 10
-70.7556931367
 20
-25.5066619906
  0
LINE
  5
39A
100
AcDbEntity
  8
RACCORDO
100
AcDbLine
 62
250
  6
CONTINUOUS
 10
-70.7698174808
 20
-24.7580306402
 11
-70.7654938414
 21
-24.9532559992
  0
LWPOLYLINE
  5
39B
100
AcDbEntity
  8
RACCORDO
100
AcDbPolyline
 62
250
  6
CONTINUOUS
 90
6
 70
0
 10
-70.7552368365
 20
-25.6896639401
 10
-70.7549238315
 20
-25.707186741
 10
-70.7545314785
 20
-25.7229331273
 10
-70.7540723922
 20
-25.737059163
 10
-70.7535801199
 20
-25.7496850737
 10
-70.7524068306
 20
-25.7753508784
  0
LINE
  5
39C
100
AcDbEntity
  8
RACCORDO
100
AcDbLine
 62
250
  6
CONTINUOUS
 10
-71.3505351397
 20
-24.2183652143
 11
-71.3497956099
 21
-24.2568342805
  0
LWPOLYLINE
  5
39D
100
AcDbEntity
  8
RACCORDO
100
AcDbPolyline
 62
250
  6
CONTINUOUS
 90
8
 70
0
 10
-71.3497956099
 20
-24.2568342805
 10
-71.3497222939
 20
-24.2616596033
 10
-71.3496959728
 20
-24.2656430524
 10
-71.3497076783
 20
-24.2688024799
 10
-71.3497483667
 20
-24.271175025
 10
-71.3498150169
 20
-24.2727894965
 10
-71.3499106302
 20
-24.2736666308
 10
-71.3500351885
 20
-24.2738312926
  0
LINE
  5
39E
100
AcDbEntity
  8
RACCORDO
100
AcDbLine
 62
250
  6
CONTINUOUS
 10
-70.773725737
 20
-24.5166451525
 11
-70.7698174808
 21
-24.7580306402
  0
LINE
  5
39F
100
AcDbEntity
  8
RACCORDO
100
AcDbLine
 62
250
  6
CONTINUOUS
 10
-71.3547464437
 20
-23.7560902582
 11
-71.3514156681
 21
-23.9619778965
  0
LINE
  5
3A0
100
AcDbEntity
  8
RACCORDO
100
AcDbLine
 62
250
  6
CONTINUOUS
 10
-71.3507987191
 20
-24.194679777
 11
-71.3505351397
 21
-24.2183652143
  0
LINE
  5
3A1
100
AcDbEntity
  8
RACCORDO
100
AcDbLine
 62
250
  6
CONTINUOUS
 10
-70.7770025254
 20
-24.2200173651
 11
-70.773725737
 21
-24.5166451525
  0
LINE
  5
3A2
100
AcDbEntity
  8
RACCORDO
100
AcDbLine
 62
250
  6
CONTINUOUS
 10
-71.3566207029
 20
-23.584454804
 11
-71.3547464437
 21
-23.7560902582
  0
LINE
  5
3A3
100
AcDbEntity
  8
RACCORDO
100
AcDbLine
 62
250
  6
CONTINUOUS
 10
-70.7556706298
 20
-25.6480309515
 11
-70.7552368365
 21
-25.6896639401
  0
LINE
  5
3A4
100
AcDbEntity
  8
RACCORDO
100
AcDbLine
 62
250
  6
CONTINUOUS
 10
-71.3514156681
 20
-23.9619778965
 11
-71.3511014439
 21
-24.0019344468
  0
LINE
  5
3A5
100
AcDbEntity
  8
RACCORDO
100
AcDbLine
 62
250
  6
CONTINUOUS
 10
-70.7793258165
 20
-23.8632437212
 11
-70.7770025254
 21
-24.2200173651
  0
LINE
  5
3A6
100
AcDbEntity
  8
RACCORDO
100
AcDbLine
 62
250
  6
CONTINUOUS
 10
-71.3583940087
 20
-23.2994276153
 11
-71.3566207029
 21
-23.584454804
  0
LINE
  5
3A7
100
AcDbEntity
  8
RACCORDO
100
AcDbLine
 62
250
  6
CONTINUOUS
 10
-70.7960276359
 20
-19.9338803482
 11
-70.780671571
 21
-22.6684462835
  0
LINE
  5
3A8
100
AcDbEntity
  8
RACCORDO
100
AcDbLine
 62
250
  6
CONTINUOUS
 10
-70.7558041696
 20
25.5339611177
 11
-70.7550797989
 21
25.4112229076
  0
LINE
  5
3A9
100
AcDbEntity
  8
RACCORDO
100
AcDbLine
 62
250
  6
CONTINUOUS
 10
-71.351046989
 20
-24.1488406695
 11
-71.3507987191
 21
-24.194679777
  0
LINE
  5
3AA
100
AcDbEntity
  8
RACCORDO
100
AcDbLine
 62
250
  6
CONTINUOUS
 10
-70.7558659685
 20
-25.5956008927
 11
-70.7556706298
 21
-25.6480309515
  0
LINE
  5
3AB
100
AcDbEntity
  8
RACCORDO
100
AcDbLine
 62
250
  6
CONTINUOUS
 10
-70.7802719016
 20
-23.459005986
 11
-70.7793258165
 21
-23.8632437212
  0
LINE
  5
3AC
100
AcDbEntity
  8
RACCORDO
100
AcDbLine
 62
250
  6
CONTINUOUS
 10
-70.780671571
 20
-22.6684462835
 11
-70.7797553915
 21
-23.0550552883
  0
LINE
  5
3AD
100
AcDbEntity
  8
RACCORDO
100
AcDbLine
 62
250
  6
CONTINUOUS
 10
-71.3661475452
 20
-16.3776156008
 11
-71.3590892925
 21
-22.7132640415
  0
LWPOLYLINE
  5
3AE
100
AcDbEntity
  8
RACCORDO
100
AcDbPolyline
 62
250
  6
CONTINUOUS
 90
4
 70
0
 10
-71.3511014439
 20
-24.0019344468
 10
-71.3510341045
 20
-24.0394239808
 10
-71.3510771603
 20
-24.0576109611
 10
-71.351046989
 20
-24.1488406695
  0
LINE
  5
3AF
100
AcDbEntity
  8
0
100
AcDbLine
 62
7
  6
CONTINUOUS
 10
-71.5533001881
 20
-23.6695024591
 11
-71.5533001881
 21
23.6695024591
  0
LWPOLYLINE
  5
3B0
100
AcDbEntity
  8
RACCORDO
100
AcDbPolyline
 62
250
  6
CONTINUOUS
 90
5
 70
0
 10
-70.7550797989
 20
25.4112229076
 10
-70.7550789165
 20
25.3749156743
 10
-70.7554021985
 20
25.3344613547
 10
-70.7559699686
 20
25.2925459509
 10
-70.7568082047
 20
25.2499745296
  0
LINE
  5
3B1
100
AcDbEntity
  8
RACCORDO
100
AcDbLine
 62
250
  6
CONTINUOUS
 10
-71.3712297683
 20
1.391563728
 11
-71.3661475452
 21
-16.3776156008
  0
LINE
  5
3B2
100
AcDbEntity
  8
RACCORDO
100
AcDbLine
 62
250
  6
CONTINUOUS
 10
-71.3590892925
 20
-22.7132640415
 11
-71.3583940087
 21
-23.2994276153
  0
LINE
  5
3B3
100
AcDbEntity
  8
RACCORDO
100
AcDbLine
 62
250
  6
CONTINUOUS
 10
-71.3510969639
 20
24.1290768879
 11
-71.3510281863
 21
24.0199679738
  0
LINE
  5
3B4
100
AcDbEntity
  8
RACCORDO
100
AcDbLine
 62
250
  6
CONTINUOUS
 10
-70.8250952732
 20
1.3826193543
 11
-70.7960276359
 21
-19.9338803482
  0
LINE
  5
3B5
100
AcDbEntity
  8
RACCORDO
100
AcDbLine
 62
250
  6
CONTINUOUS
 10
-70.7558117115
 20
25.6188645928
 11
-70.7558041696
 21
25.5339611177
  0
LINE
  5
3B6
100
AcDbEntity
  8
RACCORDO
100
AcDbLine
 62
250
  6
CONTINUOUS
 10
-70.7797553915
 20
-23.0550552883
 11
-70.7802719016
 21
-23.459005986
  0
LINE
  5
3B7
100
AcDbEntity
  8
RACCORDO
100
AcDbLine
 62
250
  6
CONTINUOUS
 10
-70.7801042816
 20
23.6041452701
 11
-70.7801896537
 21
22.798956974
  0
LINE
  5
3B8
100
AcDbEntity
  8
RACCORDO
100
AcDbLine
 62
250
  6
CONTINUOUS
 10
-70.7556931367
 20
-25.5066619906
 11
-70.7558659685
 21
-25.5956008927
  0
LINE
  5
3B9
100
AcDbEntity
  8
RACCORDO
100
AcDbLine
 62
250
  6
CONTINUOUS
 10
-71.3586383921
 20
23.234316299
 11
-71.3712297683
 21
1.391563728
  0
LINE
  5
3BA
100
AcDbEntity
  8
RACCORDO
100
AcDbLine
 62
250
  6
CONTINUOUS
 10
-71.3509204463
 20
24.1780891302
 11
-71.3510969639
 21
24.1290768879
  0
LINE
  5
3BB
100
AcDbEntity
  8
RACCORDO
100
AcDbLine
 62
250
  6
CONTINUOUS
 10
-70.7881919791
 20
21.5255446713
 11
-70.8250952732
 21
1.3826193543
  0
LWPOLYLINE
  5
3BC
100
AcDbEntity
  8
RACCORDO
100
AcDbPolyline
 62
250
  6
CONTINUOUS
 90
3
 70
0
 10
-71.3510281863
 20
24.0199679738
 10
-71.3512148005
 20
23.982231705
 10
-71.3514257512
 20
23.9616275457
  0
LINE
  5
3BD
100
AcDbEntity
  8
RACCORDO
100
AcDbLine
 62
250
  6
CONTINUOUS
 10
-70.7778848935
 20
24.1095457309
 11
-70.7801042816
 21
23.6041452701
  0
LINE
  5
3BE
100
AcDbEntity
  8
RACCORDO
100
AcDbLine
 62
250
  6
CONTINUOUS
 10
-71.3570501699
 20
23.5320122741
 11
-71.3586383921
 21
23.234316299
  0
LINE
  5
3BF
100
AcDbEntity
  8
RACCORDO
100
AcDbLine
 62
250
  6
CONTINUOUS
 10
-70.7801896537
 20
22.798956974
 11
-70.7881919791
 21
21.5255446713
  0
LINE
  5
3C0
100
AcDbEntity
  8
RACCORDO
100
AcDbLine
 62
250
  6
CONTINUOUS
 10
-71.3507066841
 20
24.2040066249
 11
-71.3509204463
 21
24.1780891302
  0
LINE
  5
3C1
100
AcDbEntity
  8
RACCORDO
100
AcDbLine
 62
250
  6
CONTINUOUS
 10
-70.7749362214
 20
24.4211773288
 11
-70.7778848935
 21
24.1095457309
  0
LINE
  5
3C2
100
AcDbEntity
  8
RACCORDO
100
AcDbLine
 62
250
  6
CONTINUOUS
 10
-71.3552681666
 20
23.7151801771
 11
-71.3570501699
 21
23.5320122741
  0
LINE
  5
3C3
100
AcDbEntity
  8
RACCORDO
100
AcDbLine
 62
250
  6
CONTINUOUS
 10
-71.3504201205
 20
24.2252431963
 11
-71.3507066841
 21
24.2040066249
  0
LINE
  5
3C4
100
AcDbEntity
  8
RACCORDO
100
AcDbLine
 62
250
  6
CONTINUOUS
 10
-70.7712460476
 20
24.6790088305
 11
-70.7749362214
 21
24.4211773288
  0
LINE
  5
3C5
100
AcDbEntity
  8
RACCORDO
100
AcDbLine
 62
250
  6
CONTINUOUS
 10
-71.3531538404
 20
23.8582314302
 11
-71.3552681666
 21
23.7151801771
  0
LINE
  5
3C6
100
AcDbEntity
  8
RACCORDO
100
AcDbLine
 62
250
  6
CONTINUOUS
 10
-71.3514257512
 20
23.9616275457
 11
-71.3531538404
 21
23.8582314302
  0
LINE
  5
3C7
100
AcDbEntity
  8
RACCORDO
100
AcDbLine
 62
250
  6
CONTINUOUS
 10
-71.3497415271
 20
24.2602984749
 11
-71.3504201205
 21
24.2252431963
  0
LINE
  5
3C8
100
AcDbEntity
  8
RACCORDO
100
AcDbLine
 62
250
  6
CONTINUOUS
 10
-70.7670331353
 20
24.8898751355
 11
-70.7712460476
 21
24.6790088305
  0
LINE
  5
3C9
100
AcDbEntity
  8
RACCORDO
100
AcDbLine
 62
250
  6
CONTINUOUS
 10
-70.7640096834
 20
25.0077243664
 11
-70.7670331353
 21
24.8898751355
  0
LINE
  5
3CA
100
AcDbEntity
  8
RACCORDO
100
AcDbLine
 62
250
  6
CONTINUOUS
 10
-70.7568082047
 20
25.2499745296
 11
-70.7640096834
 21
25.0077243664
  0
LWPOLYLINE
  5
3CB
100
AcDbEntity
  8
RACCORDO
100
AcDbPolyline
 62
250
  6
CONTINUOUS
 90
7
 70
0
 10
-70.753787471
 20
25.74506507
 10
-70.754256935
 20
25.732158366
 10
-70.7546696718
 20
25.7180194379
 10
-70.7550206404
 20
25.7023082991
 10
-70.7553071377
 20
25.6847903474
 10
-70.755532494
 20
25.6653073431
 10
-70.7558117115
 20
25.6188645928
  0
LWPOLYLINE
  5
3CC
100
AcDbEntity
  8
RACCORDO
100
AcDbPolyline
 62
250
  6
CONTINUOUS
 90
30
 70
0
 10
-68.0784055784
 20
38.928933171
 10
-68.0784917685
 20
38.9274450705
 10
-68.0783586747
 20
38.9257976404
 10
-68.0780241691
 20
38.9240552373
 10
-68.0773731304
 20
38.9226173198
 10
-68.0763962325
 20
38.9216559443
 10
-68.0753156406
 20
38.9209816869
 10
-68.074337477
 20
38.9204547251
 10
-68.0735591392
 20
38.9201868694
 10
-68.0729542507
 20
38.9200603668
 10
-68.0725341835
 20
38.9195914695
 10
-68.0722420403
 20
38.9185724175
 10
-68.0719383073
 20
38.9172272666
 10
-68.0715142012
 20
38.9157195519
 10
-68.0709082999
 20
38.9141112151
 10
-68.0701243011
 20
38.9123446738
 10
-68.0691307504
 20
38.9104061556
 10
-68.0679026899
 20
38.9082995593
 10
-68.0664358489
 20
38.9060224505
 10
-68.0647183345
 20
38.9035523766
 10
-68.0627253726
 20
38.900871366
 10
-68.0604518385
 20
38.8979984202
 10
-68.0579276807
 20
38.8949654578
 10
-68.0551535208
 20
38.8917519599
 10
-68.052141115
 20
38.8883758158
 10
-68.0489627119
 20
38.8849248665
 10
-68.0456401417
 20
38.8813830514
 10
-68.0421976381
 20
38.8777616763
 10
-68.0387338205
 20
38.8741887493
 10
-67.9773205709
 20
38.8120837018
  0
LWPOLYLINE
  5
3CD
100
AcDbEntity
  8
RACCORDO
100
AcDbPolyline
 62
250
  6
CONTINUOUS
 90
7
 70
0
 10
-67.0344243218
 20
39.6079524384
 10
-67.0352077847
 20
39.5995792792
 10
-67.036177844
 20
39.5746173105
 10
-67.0372394003
 20
39.5331986078
 10
-67.0383028372
 20
39.4755702883
 10
-67.0392961448
 20
39.4020307325
 10
-67.0408277814
 20
39.2083753276
  0
LWPOLYLINE
  5
3CE
100
AcDbEntity
  8
0
100
AcDbPolyline
 62
7
  6
CONTINUOUS
 90
4
 70
0
 43
0.3500000006
 10
-80.7318745422
 20
-2.3571432495
 10
-81.5890124817
 20
-2.3571432495
 10
-82.0175814514
 20
-1.9285708809
 10
-82.0175814514
 20
-1.2857140274
  0
LINE
  5
3CF
100
AcDbEntity
  8
0
100
AcDbLine
 62
7
  6
CONTINUOUS
 10
-64.1185632842
 20
-3.5572341992
 11
-62.9880370919
 21
-3.706070796
  0
LINE
  5
3D0
100
AcDbEntity
  8
RACCORDO
100
AcDbLine
 62
250
  6
CONTINUOUS
 10
-67.028002261
 20
-36.4733983834
 11
-67.0239444058
 21
-36.620285218
  0
LINE
  5
3D1
100
AcDbEntity
  8
RACCORDO
100
AcDbLine
 62
250
  6
CONTINUOUS
 10
-67.9287533132
 20
-36.5461510233
 11
-67.9226941074
 21
-36.8056734883
  0
LINE
  5
3D2
100
AcDbEntity
  8
RACCORDO
100
AcDbLine
 62
250
  6
CONTINUOUS
 10
-67.0307772186
 20
-36.3458661208
 11
-67.028002261
 21
-36.4733983834
  0
LWPOLYLINE
  5
3D3
100
AcDbEntity
  8
RACCORDO
100
AcDbPolyline
 62
250
  6
CONTINUOUS
 90
5
 70
0
 10
-67.0383022653
 20
-39.4755590024
 10
-67.0372392483
 20
-39.533188606
 10
-67.036178014
 20
-39.5746116112
 10
-67.0352080577
 20
-39.5995775263
 10
-67.0344243218
 20
-39.6079524384
  0
LINE
  5
3D4
100
AcDbEntity
  8
RACCORDO
100
AcDbLine
 62
250
  6
CONTINUOUS
 10
-67.930524177
 20
-36.4510966442
 11
-67.9287533132
 21
-36.5461510233
  0
LINE
  5
3D5
100
AcDbEntity
  8
RACCORDO
100
AcDbLine
 62
250
  6
CONTINUOUS
 10
-67.9226941074
 20
-36.8056734883
 11
-67.9170832379
 21
-37.1127975203
  0
LINE
  5
3D6
100
AcDbEntity
  8
RACCORDO
100
AcDbLine
 62
250
  6
CONTINUOUS
 10
-67.0325954328
 20
-36.2301656484
 11
-67.0307772186
 21
-36.3458661208
  0
LINE
  5
3D7
100
AcDbEntity
  8
RACCORDO
100
AcDbLine
 62
250
  6
CONTINUOUS
 10
-67.9317493415
 20
-36.3641367547
 11
-67.930524177
 21
-36.4510966442
  0
LINE
  5
3D8
100
AcDbEntity
  8
RACCORDO
100
AcDbLine
 62
250
  6
CONTINUOUS
 10
-67.9170832379
 20
-37.1127975203
 11
-67.9133275202
 21
-37.4089687765
  0
LINE
  5
3D9
100
AcDbEntity
  8
RACCORDO
100
AcDbLine
 62
250
  6
CONTINUOUS
 10
-67.0401579502
 20
-39.3128627227
 11
-67.0383022653
 21
-39.4755590024
  0
LINE
  5
3DA
100
AcDbEntity
  8
RACCORDO
100
AcDbLine
 62
250
  6
CONTINUOUS
 10
-67.9127015303
 20
38.3665719678
 11
-67.9108737725
 21
38.1707731066
  0
LINE
  5
3DB
100
AcDbEntity
  8
RACCORDO
100
AcDbLine
 62
250
  6
CONTINUOUS
 10
-67.9133275202
 20
-37.4089687765
 11
-67.9111455915
 21
-37.6875445813
  0
LINE
  5
3DC
100
AcDbEntity
  8
RACCORDO
100
AcDbLine
 62
250
  6
CONTINUOUS
 10
-67.9327191804
 20
-36.2425568929
 11
-67.9317493415
 21
-36.3641367547
  0
LINE
  5
3DD
100
AcDbEntity
  8
RACCORDO
100
AcDbLine
 62
250
  6
CONTINUOUS
 10
-67.0400335788
 20
38.4842666681
 11
-67.0342606179
 21
37.7147066538
  0
LINE
  5
3DE
100
AcDbEntity
  8
RACCORDO
100
AcDbLine
 62
250
  6
CONTINUOUS
 10
-67.0769251082
 20
-29.7030700477
 11
-67.0325954328
 21
-36.2301656484
  0
LINE
  5
3DF
100
AcDbEntity
  8
RACCORDO
100
AcDbLine
 62
250
  6
CONTINUOUS
 10
-67.9331942146
 20
-36.1255911843
 11
-67.9327191804
 21
-36.2425568929
  0
LINE
  5
3E0
100
AcDbEntity
  8
RACCORDO
100
AcDbLine
 62
250
  6
CONTINUOUS
 10
-67.0412444038
 20
-39.0891561313
 11
-67.0401579502
 21
-39.3128627227
  0
LINE
  5
3E1
100
AcDbEntity
  8
RACCORDO
100
AcDbLine
 62
250
  6
CONTINUOUS
 10
-67.972095365
 20
-28.3991348003
 11
-67.9331942146
 21
-36.1255911843
  0
LINE
  5
3E2
100
AcDbEntity
  8
RACCORDO
100
AcDbLine
 62
250
  6
CONTINUOUS
 10
-67.9111455915
 20
-37.6875445813
 11
-67.9103574549
 21
-37.94300286
  0
LINE
  5
3E3
100
AcDbEntity
  8
RACCORDO
100
AcDbLine
 62
250
  6
CONTINUOUS
 10
-67.0413788156
 20
38.9562892907
 11
-67.0400335788
 21
38.4842666681
  0
LINE
  5
3E4
100
AcDbEntity
  8
RACCORDO
100
AcDbLine
 62
250
  6
CONTINUOUS
 10
-67.9108737725
 20
38.1707731066
 11
-67.9103574905
 21
37.9430503633
  0
LINE
  5
3E5
100
AcDbEntity
  8
RACCORDO
100
AcDbLine
 62
250
  6
CONTINUOUS
 10
-67.0957040913
 20
-16.2081463644
 11
-67.0769251082
 21
-29.7030700477
  0
LWPOLYLINE
  5
3E6
100
AcDbEntity
  8
RACCORDO
100
AcDbPolyline
 62
250
  6
CONTINUOUS
 90
3
 70
0
 10
-67.9791508306
 20
-5.3785611735
 10
-67.9805294304
 20
-9.9733827566
 10
-67.972095365
 20
-28.3991348003
  0
LINE
  5
3E7
100
AcDbEntity
  8
RACCORDO
100
AcDbLine
 62
250
  6
CONTINUOUS
 10
-67.0920297917
 20
-4.5401965604
 11
-67.0957040913
 21
-16.2081463644
  0
LINE
  5
3E8
100
AcDbEntity
  8
RACCORDO
100
AcDbLine
 62
250
  6
CONTINUOUS
 10
-67.0407859299
 20
-38.6530677779
 11
-67.0412444038
 21
-39.0891561313
  0
LINE
  5
3E9
100
AcDbEntity
  8
RACCORDO
100
AcDbLine
 62
250
  6
CONTINUOUS
 10
-67.0408277814
 20
39.2083753276
 11
-67.0413788156
 21
38.9562892907
  0
LINE
  5
3EA
100
AcDbEntity
  8
RACCORDO
100
AcDbLine
 62
250
  6
CONTINUOUS
 10
-67.9103574549
 20
-37.94300286
 11
-67.9108735577
 21
-38.1707453239
  0
LINE
  5
3EB
100
AcDbEntity
  8
RACCORDO
100
AcDbLine
 62
250
  6
CONTINUOUS
 10
-67.9103574905
 20
37.9430503633
 11
-67.9111449553
 21
37.6876560762
  0
LINE
  5
3EC
100
AcDbEntity
  8
RACCORDO
100
AcDbLine
 62
250
  6
CONTINUOUS
 10
-67.9321889731
 20
36.320888223
 11
-67.9791508306
 21
-5.3785611735
  0
LINE
  5
3ED
100
AcDbEntity
  8
RACCORDO
100
AcDbLine
 62
250
  6
CONTINUOUS
 10
-67.0239444058
 20
-36.620285218
 11
-67.0259129061
 21
-36.8443429958
  0
LWPOLYLINE
  5
3EE
100
AcDbEntity
  8
RACCORDO
100
AcDbPolyline
 62
250
  6
CONTINUOUS
 90
3
 70
0
 10
-67.0342589796
 20
-37.7145167651
 10
-67.0360700372
 20
-37.9193213369
 10
-67.0407859299
 20
-38.6530677779
  0
LINE
  5
3EF
100
AcDbEntity
  8
RACCORDO
100
AcDbLine
 62
250
  6
CONTINUOUS
 10
-67.9111449553
 20
37.6876560762
 11
-67.9133260017
 21
37.4090976278
  0
LWPOLYLINE
  5
3F0
100
AcDbEntity
  8
RACCORDO
100
AcDbPolyline
 62
250
  6
CONTINUOUS
 90
10
 70
0
 10
-67.9108735577
 20
-38.1707453239
 10
-67.9127011648
 20
-38.3665577586
 10
-67.9141312921
 20
-38.4511643969
 10
-67.915925034
 20
-38.5260447199
 10
-67.9180972309
 20
-38.5907485802
 10
-67.920680903
 20
-38.6451300953
 10
-67.9237181197
 20
-38.689052945
 10
-67.9272509789
 20
-38.7223067015
 10
-67.9313385482
 20
-38.7447122409
 10
-67.9360595387
 20
-38.7561695763
  0
LINE
  5
3F1
100
AcDbEntity
  8
RACCORDO
100
AcDbLine
 62
250
  6
CONTINUOUS
 10
-67.0326154102
 20
36.2288928082
 11
-67.0920297917
 21
-4.5401965604
  0
LINE
  5
3F2
100
AcDbEntity
  8
RACCORDO
100
AcDbLine
 62
250
  6
CONTINUOUS
 10
-67.9312213373
 20
36.4050695298
 11
-67.9321889731
 21
36.320888223
  0
LINE
  5
3F3
100
AcDbEntity
  8
RACCORDO
100
AcDbLine
 62
250
  6
CONTINUOUS
 10
-67.9133260017
 20
37.4090976278
 11
-67.9170821378
 21
37.1128714382
  0
LINE
  5
3F4
100
AcDbEntity
  8
RACCORDO
100
AcDbLine
 62
250
  6
CONTINUOUS
 10
-67.9297477006
 20
36.4956852124
 11
-67.9312213373
 21
36.4050695298
  0
LINE
  5
3F5
100
AcDbEntity
  8
RACCORDO
100
AcDbLine
 62
250
  6
CONTINUOUS
 10
-67.0308089316
 20
36.3441013861
 11
-67.0326154102
 21
36.2288928082
  0
LINE
  5
3F6
100
AcDbEntity
  8
RACCORDO
100
AcDbLine
 62
250
  6
CONTINUOUS
 10
-67.9170821378
 20
37.1128714382
 11
-67.9226937668
 21
36.8056931101
  0
LINE
  5
3F7
100
AcDbEntity
  8
RACCORDO
100
AcDbLine
 62
250
  6
CONTINUOUS
 10
-67.0280431025
 20
36.4717492482
 11
-67.0308089316
 21
36.3441013861
  0
LWPOLYLINE
  5
3F8
100
AcDbEntity
  8
RACCORDO
100
AcDbPolyline
 62
250
  6
CONTINUOUS
 90
3
 70
0
 10
-67.9226937668
 20
36.8056931101
 10
-67.9276495161
 20
36.596319535
 10
-67.9297477006
 20
36.4956852124
  0
LINE
  5
3F9
100
AcDbEntity
  8
RACCORDO
100
AcDbLine
 62
250
  6
CONTINUOUS
 10
-67.0239444058
 20
36.620285218
 11
-67.0280431025
 21
36.4717492482
  0
LWPOLYLINE
  5
3FA
100
AcDbEntity
  8
RACCORDO
100
AcDbPolyline
 62
250
  6
CONTINUOUS
 90
5
 70
0
 10
-70.7517420716
 20
-25.8197099755
 10
-70.7554774846
 20
-25.8485792399
 10
-70.7577388579
 20
-25.8610999492
 10
-70.758870806
 20
-25.8653700149
 10
-70.7589327703
 20
-25.8673669688
  0
LWPOLYLINE
  5
3FB
100
AcDbEntity
  8
RACCORDO
100
AcDbPolyline
 62
250
  6
CONTINUOUS
 90
3
 70
0
 10
-70.8565035759
 20
-0.0006959718
 10
-70.8348220277
 20
-0.0003409918
 10
-70.8266815458
 20
-0.0
  0
LINE
  5
3FC
100
AcDbEntity
  8
RACCORDO
100
AcDbLine
 62
250
  6
CONTINUOUS
 10
-71.0015097956
 20
-0.0018285013
 11
-70.8565035759
 21
-0.0006959718
  0
LINE
  5
3FD
100
AcDbEntity
  8
RACCORDO
100
AcDbLine
 62
250
  6
CONTINUOUS
 10
-71.3716281924
 20
-0.00343144
 11
-71.0015097956
 21
-0.0018285013
  0
LWPOLYLINE
  5
3FE
100
AcDbEntity
  8
0
100
AcDbPolyline
 62
7
  6
CONTINUOUS
 90
13
 70
0
 43
0.3500000006
 10
-81.160443512
 20
-0.0000003204
 10
-82.4461594849
 20
-0.0000003204
 10
-82.8747284546
 20
0.2142864304
 10
-83.3032974243
 20
0.642857666
 10
-83.3032974243
 20
0.8571421509
 10
-82.8747284546
 20
1.2857133865
 10
-82.4461594849
 20
1.5000001373
 10
-81.160443512
 20
1.5000001373
 10
-80.7318745422
 20
1.2857133865
 10
-80.3032965088
 20
0.8571421509
 10
-80.3032965088
 20
0.642857666
 10
-80.7318745422
 20
0.2142864304
 10
-81.160443512
 20
-0.0000003204
  0
LINE
  5
3FF
100
AcDbEntity
  8
RACCORDO
100
AcDbLine
 62
250
  6
CONTINUOUS
 10
-67.0923213362
 20
0.0003854979
 11
-70.8266815441
 21
0.0
  0
LWPOLYLINE
  5
400
100
AcDbEntity
  8
RACCORDO
100
AcDbPolyline
 62
250
  6
CONTINUOUS
 90
9
 70
0
 10
-70.7520267498
 20
25.8219764832
 10
-70.7517282637
 20
25.8194761685
 10
-70.751549693
 20
25.8154337184
 10
-70.7514914815
 20
25.8098691548
 10
-70.7515492187
 20
25.802823276
 10
-70.7517274947
 20
25.7942611677
 10
-70.7520398592
 20
25.7840830829
 10
-70.7525536607
 20
25.7716842285
 10
-70.753787471
 20
25.74506507
  0
LWPOLYLINE
  5
401
100
AcDbEntity
  8
RACCORDO
100
AcDbPolyline
 62
250
  6
CONTINUOUS
 90
3
 70
0
 10
-67.0342606179
 20
37.7147066538
 10
-67.0259132678
 20
36.8443845093
 10
-67.0239444058
 20
36.620285218
  0
LINE
  5
402
100
AcDbEntity
  8
0
100
AcDbLine
 62
7
  6
CONTINUOUS
 10
-64.5533001881
 20
3.0615117685
 11
-64.5533001881
 21
-3.0615117685
  0
LINE
  5
403
100
AcDbEntity
  8
RACCORDO
100
AcDbLine
 62
250
  6
CONTINUOUS
 10
-67.0259129061
 20
-36.8443429958
 11
-67.0342589796
 21
-37.7145167651
  0
LINE
  5
404
100
AcDbEntity
  8
RACCORDO
100
AcDbLine
 62
7
  6
CONTINUOUS
 10
-62.5533001881
 20
40.0
 11
-62.5533001881
 21
37.0114159057
  0
LINE
  5
405
100
AcDbEntity
  8
0
100
AcDbLine
 62
7
  6
CONTINUOUS
 10
-62.5533001881
 20
-37.0114159057
 11
-62.5533001881
 21
-4.2017932267
  0
LINE
  5
406
100
AcDbEntity
  8
RACCORDO
100
AcDbLine
 62
7
  6
CONTINUOUS
 10
-62.5533001881
 20
-37.0114159057
 11
-62.5533001881
 21
-40.0
  0
LINE
  5
407
100
AcDbEntity
  8
0
100
AcDbLine
 62
7
  6
CONTINUOUS
 10
-62.5533001881
 20
4.2017932267
 11
-62.5533001881
 21
37.0114159057
  0
LINE
  5
408
100
AcDbEntity
  8
0
100
AcDbLine
 62
7
  6
CONTINUOUS
 10
-62.9880370919
 20
3.706070796
 11
-64.1185632842
 21
3.5572341992
  0
LWPOLYLINE
  5
409
100
AcDbEntity
  8
RACCORDO
100
AcDbPolyline
 62
250
  6
CONTINUOUS
 90
6
 70
0
 10
-67.945767408
 20
-38.7776071049
 10
-67.9462061852
 20
-38.7796378146
 10
-67.946676921
 20
-38.7812771644
 10
-67.9472350768
 20
-38.7823335815
 10
-67.9478637916
 20
-38.7829962791
 10
-67.9485308648
 20
-38.7836243643
  0
LWPOLYLINE
  5
40A
100
AcDbEntity
  8
RACCORDO
100
AcDbPolyline
 62
250
  6
CONTINUOUS
 90
10
 70
0
 10
-67.945285064
 20
38.7754424076
 10
-67.9447355519
 20
38.7730069079
 10
-67.9441104779
 20
38.7703890107
 10
-67.9433464095
 20
38.7679363053
 10
-67.9424312065
 20
38.7658087924
 10
-67.9414015282
 20
38.7638451107
 10
-67.9402553356
 20
38.7619122943
 10
-67.9389862799
 20
38.7599664525
 10
-67.9375904481
 20
38.758052413
 10
-67.936065392
 20
38.7561704313
  0
LWPOLYLINE
  5
40B
100
AcDbEntity
  8
RACCORDO
100
AcDbPolyline
 62
250
  6
CONTINUOUS
 90
7
 70
0
 10
-71.3500351885
 20
24.2738312926
 10
-71.3499021313
 20
24.2736327419
 10
-71.3498026978
 20
24.2726315703
 10
-71.3497369098
 20
24.2708124311
 10
-71.3497031232
 20
24.268156369
 10
-71.3497030038
 20
24.2646494884
 10
-71.3497415271
 20
24.2602984749
  0
LWPOLYLINE
  5
40C
100
AcDbEntity
  8
RACCORDO
100
AcDbPolyline
 62
250
  6
CONTINUOUS
 90
9
 70
0
 10
-67.9360587515
 20
38.7561694613
 10
-67.9313382881
 20
38.7447140557
 10
-67.9272515492
 20
38.7223107721
 10
-67.9237186541
 20
38.6890584396
 10
-67.920681371
 20
38.6451371231
 10
-67.9180976202
 20
38.5907541684
 10
-67.9159251467
 20
38.5260468922
 10
-67.914131451
 20
38.4511700223
 10
-67.9127015303
 20
38.3665719678
  0
LINE
  5
40D
100
AcDbEntity
  8
RACCORDO
100
AcDbLine
 62
250
  6
CONTINUOUS
 10
-68.0462384212
 20
38.9164111834
 11
-68.0461955603
 21
38.9163433263
  0
LWPOLYLINE
  5
40E
100
AcDbEntity
  8
RACCORDO
100
AcDbPolyline
 62
250
  6
CONTINUOUS
 90
10
 70
0
 10
-67.9360652643
 20
-38.7561704126
 10
-67.9375875755
 20
-38.7580484827
 10
-67.9389813463
 20
-38.7599586828
 10
-67.9402489177
 20
-38.7619007662
 10
-67.9413937417
 20
-38.7638304206
 10
-67.9424219126
 20
-38.7657910834
 10
-67.9433357942
 20
-38.7679142694
 10
-67.9441009084
 20
-38.7703585602
 10
-67.9447290419
 20
-38.772966585
 10
-67.9452812422
 20
-38.7753973105
  0
LINE
  5
40F
100
AcDbEntity
  8
RACCORDO
100
AcDbLine
 62
250
  6
CONTINUOUS
 10
-71.5533001881
 20
22.3
 11
-71.3601712271
 21
22.3
  0
LWPOLYLINE
  5
410
100
AcDbEntity
  8
RACCORDO
100
AcDbPolyline
 62
250
  6
CONTINUOUS
 90
9
 70
0
 10
-71.3601708149
 20
22.3
 10
-71.1483139695
 20
22.2940286513
 10
-71.0593062107
 20
22.2910753854
 10
-70.9821105204
 20
22.2881608509
 10
-70.9170619519
 20
22.2852976958
 10
-70.8644428362
 20
22.2824983451
 10
-70.8244815568
 20
22.2797749467
 10
-70.7973515582
 20
22.2771393192
 10
-70.783170593
 20
22.2746029
  0
LWPOLYLINE
  5
411
100
AcDbEntity
  8
RACCORDO
100
AcDbPolyline
 62
250
  6
CONTINUOUS
 90
19
 70
0
 10
-68.0403262097
 20
-38.8758314566
 10
-68.043554469
 20
-38.8791806099
 10
-68.0467778247
 20
-38.8825908613
 10
-68.0499166922
 20
-38.8859556212
 10
-68.0529512641
 20
-38.8892732051
 10
-68.0558510759
 20
-38.8925500337
 10
-68.058540107
 20
-38.8956909577
 10
-68.0610096331
 20
-38.8986860349
 10
-68.0632448723
 20
-38.9015485143
 10
-68.0651929526
 20
-38.9042159315
 10
-68.0668566157
 20
-38.9066590685
 10
-68.0682681939
 20
-38.9089057049
 10
-68.0694395217
 20
-38.9109772235
 10
-68.0703743953
 20
-38.9128781527
 10
-68.0711008314
 20
-38.9146022793
 10
-68.071654866
 20
-38.9161557722
 10
-68.0720370093
 20
-38.9175865256
 10
-68.0723197117
 20
-38.9188409908
 10
-68.0726216397
 20
-38.9197755352
  0
LINE
  5
412
100
AcDbEntity
  8
RACCORDO
100
AcDbLine
 62
250
  6
CONTINUOUS
 10
-68.0339967824
 20
-38.8693481379
 11
-68.0403262097
 21
-38.8758314566
  0
LINE
  5
413
100
AcDbEntity
  8
RACCORDO
100
AcDbLine
 62
250
  6
CONTINUOUS
 10
-67.9783891397
 20
-38.813156435
 11
-68.0251036731
 21
-38.8603887292
  0
LWPOLYLINE
  5
414
100
AcDbEntity
  8
RACCORDO
100
AcDbPolyline
 62
250
  6
CONTINUOUS
 90
3
 70
0
 10
-68.0251036731
 20
-38.8603887292
 10
-68.0279663929
 20
-38.8632625567
 10
-68.0339967824
 20
-38.8693481379
  0
LINE
  5
415
100
AcDbEntity
  8
RACCORDO
100
AcDbLine
 62
250
  6
CONTINUOUS
 10
-67.9657971233
 20
-38.8005606753
 11
-67.9783891397
 21
-38.813156435
  0
LINE
  5
416
100
AcDbEntity
  8
RACCORDO
100
AcDbLine
 62
250
  6
CONTINUOUS
 10
-67.9532669032
 20
-38.7881467022
 11
-67.9645775582
 21
-38.7993462083
  0
LINE
  5
417
100
AcDbEntity
  8
RACCORDO
100
AcDbLine
 62
250
  6
CONTINUOUS
 10
-67.9550693731
 20
-38.7899245956
 11
-67.9560105744
 21
-38.7908523311
  0
LINE
  5
418
100
AcDbEntity
  8
RACCORDO
100
AcDbLine
 62
250
  6
CONTINUOUS
 10
-67.9611987848
 20
38.7959874684
 11
-67.9541885228
 21
38.7890573807
  0
LINE
  5
419
100
AcDbEntity
  8
RACCORDO
100
AcDbLine
 62
250
  6
CONTINUOUS
 10
-67.975747247
 20
38.8105058928
 11
-67.9634901564
 21
38.7982645863
  0
LINE
  5
41A
100
AcDbEntity
  8
RACCORDO
100
AcDbLine
 62
250
  6
CONTINUOUS
 10
-67.9532984034
 20
38.7881778894
 11
-67.95243516
 21
38.7873125427
  0
LWPOLYLINE
  5
41B
100
AcDbEntity
  8
RACCORDO
100
AcDbPolyline
 62
250
  6
CONTINUOUS
 90
5
 70
0
 10
-67.9492343249
 20
-38.7843084269
 10
-67.9499853594
 20
-38.7849570711
 10
-67.9507666618
 20
-38.7856565683
 10
-67.9515722035
 20
-38.7864446687
 10
-67.9524062071
 20
-38.7872836891
  0
LWPOLYLINE
  5
41C
100
AcDbEntity
  8
RACCORDO
100
AcDbPolyline
 62
250
  6
CONTINUOUS
 90
8
 70
0
 10
-68.0726216397
 20
-38.9197755352
 10
-68.0765912004
 20
-38.9219302578
 10
-68.077534713
 20
-38.9230143295
 10
-68.0781485625
 20
-38.9244723539
 10
-68.0784286355
 20
-38.9261859399
 10
-68.0784915462
 20
-38.9277983829
 10
-68.0783306999
 20
-38.9292636315
 10
-68.0780981313
 20
-38.9300940334
  0
LWPOLYLINE
  5
41D
100
AcDbEntity
  8
RACCORDO
100
AcDbPolyline
 62
250
  6
CONTINUOUS
 90
9
 70
0
 10
-67.9507909817
 20
38.7856809631
 10
-67.9500077664
 20
38.7849782568
 10
-67.9492547085
 20
38.7843262446
 10
-67.9485488346
 20
38.783640377
 10
-67.9478792981
 20
38.7830124262
 10
-67.9472499609
 20
38.7823512327
 10
-67.946690984
 20
38.7812983529
 10
-67.9462167232
 20
38.7796673119
 10
-67.945773351
 20
38.7776470307
  0
LWPOLYLINE
  5
41E
100
AcDbEntity
  8
RACCORDO
100
AcDbPolyline
 62
7
  6
CONTINUOUS
 90
12
 70
0
 10
-67.3211248561
 20
39.5779440803
 10
-67.4174421908
 20
39.5547898049
 10
-67.5109960548
 20
39.5222195385
 10
-67.6008683912
 20
39.4805528999
 10
-67.6861772723
 20
39.4301987707
 10
-67.7660855535
 20
39.3716512827
 10
-67.8398090856
 20
39.3054849705
 10
-67.9066244098
 20
39.232349134
 10
-67.9658758594
 20
39.1529614657
 10
-68.0169819932
 20
39.0681010071
 10
-68.0594413008
 20
38.978600506
 10
-68.0781472606
 20
38.9299928752
  0
LWPOLYLINE
  5
41F
100
AcDbEntity
  8
RACCORDO
100
AcDbPolyline
 62
250
  6
CONTINUOUS
 90
13
 70
0
 10
-67.0344220593
 20
39.6079265753
 10
-67.1446965241
 20
39.5920394847
 10
-67.2525166157
 20
39.563965732
 10
-67.3565419632
 20
39.5240543173
 10
-67.4554793705
 20
39.4728014013
 10
-67.5480988922
 20
39.4108441374
 10
-67.6332491242
 20
39.3389527501
 10
-67.7098715171
 20
39.2580209608
 10
-67.7770135359
 20
39.1690548771
 10
-67.833840501
 20
39.0731604852
 10
-67.8796459651
 20
38.971529901
 10
-67.9138604952
 20
38.86542655
 10
-67.9360587515
 20
38.7561694613
  0
LINE
  5
420
100
AcDbEntity
  8
RACCORDO
100
AcDbLine
 62
7
  6
CONTINUOUS
 10
-67.2229892256
 20
39.591455147
 11
-67.3211248561
 21
39.5779440803
  0
LINE
  5
421
100
AcDbEntity
  8
RACCORDO
100
AcDbLine
 62
250
  6
CONTINUOUS
 10
-67.0239444058
 20
36.620285218
 11
-62.5533001881
 21
37.0114159057
  0
LINE
  5
422
100
AcDbEntity
  8
RACCORDO
100
AcDbLine
 62
7
  6
CONTINUOUS
 10
-67.2229506727
 20
39.59145852
 11
-62.5533001881
 21
40.0
  0
LINE
  5
423
100
AcDbEntity
  8
RACCORDO
100
AcDbLine
 62
250
  6
CONTINUOUS
 10
-67.0239444058
 20
36.620285218
 11
-67.8247763521
 21
36.6461993572
  0
LWPOLYLINE
  5
424
100
AcDbEntity
  8
RACCORDO
100
AcDbPolyline
 62
250
  6
CONTINUOUS
 90
3
 70
0
 10
-67.8247763521
 20
36.6461993572
 10
-67.904435987
 20
36.6491917541
 10
-67.9263423597
 20
36.6501544534
  0
ARC
  5
425
100
AcDbEntity
  8
0
100
AcDbCircle
 62
250
  6
CONTINUOUS
 10
-11.05
 20
-22.3
 40
0.3708729243
100
AcDbArc
 50
180.0
 51
270.0
  0
ARC
  5
426
100
AcDbEntity
  8
0
100
AcDbCircle
 62
250
  6
CONTINUOUS
 10
-11.05
 20
22.3
 40
0.3708729243
100
AcDbArc
 50
90.0
 51
180.0
  0
ARC
  5
427
100
AcDbEntity
  8
0
100
AcDbCircle
 62
250
  6
CONTINUOUS
 10
11.05
 20
22.3
 40
0.3708729243
100
AcDbArc
 50
359.999978966
 51
90.0
  0
ARC
  5
428
100
AcDbEntity
  8
0
100
AcDbCircle
 62
250
  6
CONTINUOUS
 10
11.05
 20
-22.3
 40
0.3708729243
100
AcDbArc
 50
270.0
 51
360.0
  0
ARC
  5
429
100
AcDbEntity
  8
0
100
AcDbCircle
 62
7
  6
CONTINUOUS
 10
11.05
 20
-22.3
 40
0.3
100
AcDbArc
 50
270.0
 51
360.0
  0
ARC
  5
42A
100
AcDbEntity
  8
0
100
AcDbCircle
 62
7
  6
CONTINUOUS
 10
-11.05
 20
-22.3
 40
0.3
100
AcDbArc
 50
180.0
 51
270.0
  0
ARC
  5
42B
100
AcDbEntity
  8
0
100
AcDbCircle
 62
7
  6
CONTINUOUS
 10
-11.05
 20
22.3
 40
0.3
100
AcDbArc
 50
90.0
 51
180.0
  0
ARC
  5
42C
100
AcDbEntity
  8
0
100
AcDbCircle
 62
7
  6
CONTINUOUS
 10
11.05
 20
22.3
 40
0.3
100
AcDbArc
 50
359.9999767998
 51
90.0
  0
ARC
  5
42D
100
AcDbEntity
  8
0
100
AcDbCircle
 62
7
  6
CONTINUOUS
 10
-11.05
 20
22.3
 40
0.2
100
AcDbArc
 50
90.0
 51
180.0
  0
ARC
  5
42E
100
AcDbEntity
  8
0
100
AcDbCircle
 62
7
  6
CONTINUOUS
 10
-11.05
 20
-22.3
 40
0.2
100
AcDbArc
 50
180.0
 51
270.0
  0
ARC
  5
42F
100
AcDbEntity
  8
0
100
AcDbCircle
 62
7
  6
CONTINUOUS
 10
11.05
 20
-22.3
 40
0.2
100
AcDbArc
 50
270.0
 51
360.0
  0
ARC
  5
430
100
AcDbEntity
  8
0
100
AcDbCircle
 62
7
  6
CONTINUOUS
 10
11.05
 20
22.3
 40
0.2
100
AcDbArc
 50
0.0
 51
90.0
  0
ARC
  5
431
100
AcDbEntity
  8
RACCORDO
100
AcDbCircle
 62
7
  6
CONTINUOUS
 10
-67.1117746408
 20
38.5973653249
 40
1.0
100
AcDbArc
 50
95.0006090403
 51
100.6786835528
  0
ARC
  5
432
100
AcDbEntity
  8
RACCORDO
100
AcDbCircle
 62
7
  6
CONTINUOUS
 10
-67.1117747014
 20
-38.5973653196
 40
1.0
100
AcDbArc
 50
263.6951240009
 51
264.9993972705
  0
ARC
  5
433
100
AcDbEntity
  8
0
100
AcDbCircle
 62
7
  6
CONTINUOUS
 10
-70.5533001881
 20
-23.6695024591
 40
1.0
100
AcDbArc
 50
180.0
 51
217.1805606945
  0
ARC
  5
434
100
AcDbEntity
  8
RACCORDO
100
AcDbCircle
 62
7
  6
CONTINUOUS
 10
-70.5533001881
 20
-23.6695024591
 40
1.0
100
AcDbArc
 50
180.0
 51
217.1805606945
  0
ARC
  5
435
100
AcDbEntity
  8
0
100
AcDbCircle
 62
7
  6
CONTINUOUS
 10
-70.5533001881
 20
23.6695024591
 40
1.0
100
AcDbArc
 50
142.8194393055
 51
180.0
  0
ARC
  5
436
100
AcDbEntity
  8
RACCORDO
100
AcDbCircle
 62
7
  6
CONTINUOUS
 10
-70.5533001881
 20
23.6695024591
 40
1.0
100
AcDbArc
 50
142.8194393055
 51
180.0
  0
ARC
  5
437
100
AcDbEntity
  8
0
100
AcDbCircle
 62
7
  6
CONTINUOUS
 10
-64.0533001881
 20
-3.0615117685
 40
0.5
100
AcDbArc
 50
180.0
 51
262.5
  0
ARC
  5
438
100
AcDbEntity
  8
0
100
AcDbCircle
 62
7
  6
CONTINUOUS
 10
-63.0533001881
 20
-4.2017932267
 40
0.5
100
AcDbArc
 50
0.0
 51
82.5
  0
ARC
  5
439
100
AcDbEntity
  8
0
100
AcDbCircle
 62
7
  6
CONTINUOUS
 10
-63.0533001881
 20
4.2017932267
 40
0.5
100
AcDbArc
 50
277.5
 51
360.0
  0
ARC
  5
43A
100
AcDbEntity
  8
0
100
AcDbCircle
 62
7
  6
CONTINUOUS
 10
-64.0533001881
 20
3.0615117685
 40
0.5
100
AcDbArc
 50
97.5
 51
180.0
  0
ELLIPSE
  5
43B
100
AcDbEntity
  8
0
100
AcDbEllipse
 62
7
  6
CONTINUOUS
 10
-39.8687670047
 20
3.0615117685
 30
0.0
 11
0.0
 21
0.5
 31
0.0
 40
0.0874886635
 41
-1.5707963268
 42
-0.1308996939
  0
ELLIPSE
  5
43C
100
AcDbEntity
  8
0
100
AcDbEllipse
 62
7
  6
CONTINUOUS
 10
-39.9562556682
 20
4.2017932267
 30
0.0
 11
0.0
 21
0.5
 31
0.0
 40
0.0874886635
 41
-4.7123889804
 42
-3.2724923475
  0
ELLIPSE
  5
43D
100
AcDbEntity
  8
0
100
AcDbEllipse
 62
7
  6
CONTINUOUS
 10
-39.9562556682
 20
-4.2017932267
 30
0.0
 11
-0.0
 21
0.5
 31
0.0
 40
0.0874886635
 41
0.1308996939
 42
1.5707963268
  0
ELLIPSE
  5
43E
100
AcDbEntity
  8
0
100
AcDbEllipse
 62
7
  6
CONTINUOUS
 10
-39.8687670047
 20
-3.0615117685
 30
0.0
 11
0.0
 21
0.5
 31
0.0
 40
0.0874886635
 41
-3.0106929597
 42
-1.5707963268
  0
ELLIPSE
  5
43F
100
AcDbEntity
  8
0
100
AcDbEllipse
 62
7
  6
CONTINUOUS
 10
39.8687670047
 20
-3.0615117685
 30
0.0
 11
-0.0
 21
0.5
 31
0.0
 40
0.0874886635
 41
-4.7123889804
 42
-3.2724923475
  0
ELLIPSE
  5
440
100
AcDbEntity
  8
0
100
AcDbEllipse
 62
7
  6
CONTINUOUS
 10
39.9562556682
 20
-4.2017932267
 30
0.0
 11
0.0
 21
0.5
 31
0.0
 40
0.0874886635
 41
-1.5707963268
 42
-0.1308996939
  0
ELLIPSE
  5
441
100
AcDbEntity
  8
0
100
AcDbEllipse
 62
7
  6
CONTINUOUS
 10
39.9562556682
 20
4.2017932267
 30
0.0
 11
-0.0
 21
0.5
 31
0.0
 40
0.0874886635
 41
-3.0106929597
 42
-1.5707963268
  0
ELLIPSE
  5
442
100
AcDbEntity
  8
0
100
AcDbEllipse
 62
7
  6
CONTINUOUS
 10
39.8687670047
 20
3.0615117685
 30
0.0
 11
-0.0
 21
0.5
 31
0.0
 40
0.0874886635
 41
0.1308996939
 42
1.5707963268
  0
ELLIPSE
  5
443
100
AcDbEntity
  8
RACCORDO
100
AcDbEllipse
 62
7
  6
CONTINUOUS
 10
36.9885404874
 20
-36.9885404874
 30
0.0
 11
2.1374958237
 21
-2.1374958237
 31
0.0
 40
0.9924325091
 41
-0.7816000651
 42
0.7816000651
  0
ELLIPSE
  5
444
100
AcDbEntity
  8
RACCORDO
100
AcDbEllipse
 62
7
  6
CONTINUOUS
 10
-36.9885404874
 20
-36.9885404874
 30
0.0
 11
2.1374958237
 21
2.1374958237
 31
0.0
 40
0.9924325091
 41
-3.9231927187
 42
-2.3599925885
  0
ELLIPSE
  5
445
100
AcDbEntity
  8
RACCORDO
100
AcDbEllipse
 62
7
  6
CONTINUOUS
 10
-36.9885404874
 20
36.9885404874
 30
0.0
 11
2.1374958237
 21
-2.1374958237
 31
0.0
 40
0.9924325091
 41
2.3599925885
 42
3.9231927187
  0
ELLIPSE
  5
446
100
AcDbEntity
  8
RACCORDO
100
AcDbEllipse
 62
7
  6
CONTINUOUS
 10
36.9885404874
 20
36.9885404874
 30
0.0
 11
2.1374958237
 21
2.1374958237
 31
0.0
 40
0.9924325091
 41
-0.7816000651
 42
0.7816000651
  0
ENDSEC
  0
SECTION
  2
OBJECTS
  0
DICTIONARY
  5
C
100
AcDbDictionary
280
0
281
1
  3
ACAD_GROUP
350
D
  3
ACAD_MLINESTYLE
350
17
  3
ACAD_LAYOUT
350
1A
  3
ACAD_PLOTSETTINGS
350
19
  3
ACAD_PLOTSTYLENAME
350
E
  0
DICTIONARY
  5
D
102
{ACAD_REACTORS
330
C
102
}
100
AcDbDictionary
280
0
281
1
  0
ACDBDICTIONARYWDFLT
  5
E
102
{ACAD_REACTORS
330
C
102
}
100
AcDbDictionary
281
1
  3
Normal
350
F
100
AcDbDictionaryWithDefault
340
F
  0
DICTIONARY
  5
17
102
{ACAD_REACTORS
330
C
102
}
100
AcDbDictionary
280
0
281
1
  3
Standard
350
18
  0
DICTIONARY
  5
19
102
{ACAD_REACTORS
330
C
102
}
100
AcDbDictionary
281
1
  0
DICTIONARY
  5
1A
102
{ACAD_REACTORS
330
C
102
}
100
AcDbDictionary
281
1
  3
Model
350
447
  3
Layout1
350
448
  0
ACDBPLACEHOLDER
  5
F
102
{ACAD_REACTORS
330
E
102
}
  0
MLINESTYLE
  5
18
102
{ACAD_REACTORS
330
17
102
}
100
AcDbMlineStyle
  2
STANDARD
 70
0
  3

 62
256
 51
90.0
 52
90.0
 71
2
 49
0.5
 62
256
  6
BYLAYER
 49
-0.5
 62
256
  6
BYLAYER
  0
LAYOUT
  5
447
102
{ACAD_REACTORS
330
1A
102
}
100
AcDbPlotSettings
  1

  2
none_device
  4
ISO_A4_(297.00_x_210.00_MM)
  6

 40
0.0
 41
0.0
 42
0.0
 43
0.0
 44
297.0
 45
210.0
 46
0.0
 47
0.0
 48
0.0
 49
0.0
140
0.0
141
0.0
142
1.0
143
1.0
 70
1024
 72
1
 73
0
 74
0
  7

 75
0
147
1.0
148
0.0
149
0.0
100
AcDbLayout
  1
Model
 70
0
 71
0
 10
0.0
 20
0.0
 11
297.0
 21
210.0
 12
0.0
 22
0.0
 32
0.0
 14
0.0
 24
0.0
 34
0.0
 15
0.0
 25
0.0
 35
0.0
146
0.0
 13
0.0
 23
0.0
 33
0.0
 16
1.0
 26
0.0
 36
0.0
 17
0.0
 27
1.0
 37
0.0
 76
0
330
21D
345
0
346
0
  0
LAYOUT
  5
448
102
{ACAD_REACTORS
330
1A
102
}
100
AcDbPlotSettings
  1

  2
none_device
  4
ISO_A4_(297.00_x_210.00_MM)
  6

 40
0.0
 41
0.0
 42
0.0
 43
0.0
 44
297.0
 45
210.0
 46
0.0
 47
0.0
 48
0.0
 49
0.0
140
0.0
141
0.0
142
1.0
143
1.0
 70
0
 72
1
 73
0
 74
0
  7

 75
0
147
1.0
148
0.0
149
0.0
100
AcDbLayout
  1
Layout1
 70
0
 71
1
 10
0.0
 20
0.0
 11
297.0
 21
210.0
 12
0.0
 22
0.0
 32
0.0
 14
0.0
 24
0.0
 34
0.0
 15
0.0
 25
0.0
 35
0.0
146
0.0
 13
0.0
 23
0.0
 33
0.0
 16
1.0
 26
0.0
 36
0.0
 17
0.0
 27
1.0
 37
0.0
 76
0
330
21E
345
0
346
0
  0
ENDSEC
  0
EOF
